  0
SECTION
  2
HEADER
  9
$ACADVER
  1
AC1014
  9
$ACADMAINTVER
 70
     9
  9
$DWGCODEPAGE
  3
ANSI_932
  9
$INSBASE
 10
0.0
 20
0.0
 30
0.0
  9
$EXTMIN
 10
-0.6000000000000811
 20
9.100000000000001
 30
0.0
  9
$EXTMAX
 10
199.4
 20
361.6661655398184
 30
0.0
  9
$LIMMIN
 10
0.0
 20
0.0
  9
$LIMMAX
 10
210.0
 20
297.0
  9
$ORTHOMODE
 70
     0
  9
$REGENMODE
 70
     1
  9
$FILLMODE
 70
     1
  9
$QTEXTMODE
 70
     0
  9
$MIRRTEXT
 70
     1
  9
$DRAGMODE
 70
     2
  9
$LTSCALE
 40
1.0
  9
$OSMODE
 70
    37
  9
$ATTMODE
 70
     1
  9
$TEXTSIZE
 40
2.5
  9
$TRACEWID
 40
1.0
  9
$TEXTSTYLE
  7
STANDARD
  9
$CLAYER
  8
図
  9
$CELTYPE
  6
BYLAYER
  9
$CECOLOR
 62
   256
  9
$CELTSCALE
 40
1.0
  9
$DELOBJ
 70
     1
  9
$DISPSILH
 70
     0
  9
$DIMSCALE
 40
1.0
  9
$DIMASZ
 40
2.5
  9
$DIMEXO
 40
0.625
  9
$DIMDLI
 40
3.75
  9
$DIMRND
 40
0.0
  9
$DIMDLE
 40
0.0
  9
$DIMEXE
 40
1.25
  9
$DIMTP
 40
0.0
  9
$DIMTM
 40
0.0
  9
$DIMTXT
 40
2.5
  9
$DIMCEN
 40
2.5
  9
$DIMTSZ
 40
0.0
  9
$DIMTOL
 70
     0
  9
$DIMLIM
 70
     0
  9
$DIMTIH
 70
     0
  9
$DIMTOH
 70
     0
  9
$DIMSE1
 70
     0
  9
$DIMSE2
 70
     0
  9
$DIMTAD
 70
     1
  9
$DIMZIN
 70
     8
  9
$DIMBLK
  1

  9
$DIMASO
 70
     1
  9
$DIMSHO
 70
     1
  9
$DIMPOST
  1

  9
$DIMAPOST
  1

  9
$DIMALT
 70
     0
  9
$DIMALTD
 70
     3
  9
$DIMALTF
 40
0.03937007874016
  9
$DIMLFAC
 40
1.0
  9
$DIMTOFL
 70
     1
  9
$DIMTVP
 40
0.0
  9
$DIMTIX
 70
     0
  9
$DIMSOXD
 70
     0
  9
$DIMSAH
 70
     0
  9
$DIMBLK1
  1

  9
$DIMBLK2
  1

  9
$DIMSTYLE
  2
ISO-25
  9
$DIMCLRD
 70
     0
  9
$DIMCLRE
 70
     0
  9
$DIMCLRT
 70
     0
  9
$DIMTFAC
 40
1.0
  9
$DIMGAP
 40
0.625
  9
$DIMJUST
 70
     0
  9
$DIMSD1
 70
     0
  9
$DIMSD2
 70
     0
  9
$DIMTOLJ
 70
     0
  9
$DIMTZIN
 70
     8
  9
$DIMALTZ
 70
     0
  9
$DIMALTTZ
 70
     0
  9
$DIMFIT
 70
     3
  9
$DIMUPT
 70
     0
  9
$DIMUNIT
 70
     2
  9
$DIMDEC
 70
     2
  9
$DIMTDEC
 70
     2
  9
$DIMALTU
 70
     2
  9
$DIMALTTD
 70
     3
  9
$DIMTXSTY
  7
STANDARD
  9
$DIMAUNIT
 70
     0
  9
$LUNITS
 70
     2
  9
$LUPREC
 70
     4
  9
$SKETCHINC
 40
1.0
  9
$FILLETRAD
 40
10.0
  9
$AUNITS
 70
     0
  9
$AUPREC
 70
     0
  9
$MENU
  1
.
  9
$ELEVATION
 40
0.0
  9
$PELEVATION
 40
0.0
  9
$THICKNESS
 40
0.0
  9
$LIMCHECK
 70
     0
  9
$CHAMFERA
 40
10.0
  9
$CHAMFERB
 40
10.0
  9
$CHAMFERC
 40
20.0
  9
$CHAMFERD
 40
0.0
  9
$SKPOLY
 70
     0
  9
$TDCREATE
 40
2458555.81549625
  9
$TDUPDATE
 40
2458555.815496794
  9
$TDINDWG
 40
0.0000000116
  9
$TDUSRTIMER
 40
0.0000000116
  9
$USRTIMER
 70
     1
  9
$ANGBASE
 50
0.0
  9
$ANGDIR
 70
     0
  9
$PDMODE
 70
     0
  9
$PDSIZE
 40
0.0
  9
$PLINEWID
 40
0.0
  9
$COORDS
 70
     1
  9
$SPLFRAME
 70
     0
  9
$SPLINETYPE
 70
     6
  9
$SPLINESEGS
 70
     8
  9
$ATTDIA
 70
     0
  9
$ATTREQ
 70
     1
  9
$HANDLING
 70
     1
  9
$HANDSEED
  5
589
  9
$SURFTAB1
 70
     6
  9
$SURFTAB2
 70
     6
  9
$SURFTYPE
 70
     6
  9
$SURFU
 70
     6
  9
$SURFV
 70
     6
  9
$UCSNAME
  2

  9
$UCSORG
 10
0.0
 20
0.0
 30
0.0
  9
$UCSXDIR
 10
1.0
 20
0.0
 30
0.0
  9
$UCSYDIR
 10
0.0
 20
1.0
 30
0.0
  9
$PUCSNAME
  2

  9
$PUCSORG
 10
0.0
 20
0.0
 30
0.0
  9
$PUCSXDIR
 10
1.0
 20
0.0
 30
0.0
  9
$PUCSYDIR
 10
0.0
 20
1.0
 30
0.0
  9
$USERI1
 70
     0
  9
$USERI2
 70
     0
  9
$USERI3
 70
     0
  9
$USERI4
 70
     0
  9
$USERI5
 70
     0
  9
$USERR1
 40
0.0
  9
$USERR2
 40
0.0
  9
$USERR3
 40
0.0
  9
$USERR4
 40
0.0
  9
$USERR5
 40
0.0
  9
$WORLDVIEW
 70
     1
  9
$SHADEDGE
 70
     3
  9
$SHADEDIF
 70
    70
  9
$TILEMODE
 70
     1
  9
$MAXACTVP
 70
    64
  9
$PINSBASE
 10
0.0
 20
0.0
 30
0.0
  9
$PLIMCHECK
 70
     0
  9
$PEXTMIN
 10
1.000000000000000E+20
 20
1.000000000000000E+20
 30
1.000000000000000E+20
  9
$PEXTMAX
 10
-1.000000000000000E+20
 20
-1.000000000000000E+20
 30
-1.000000000000000E+20
  9
$PLIMMIN
 10
0.0
 20
0.0
  9
$PLIMMAX
 10
420.0
 20
297.0
  9
$UNITMODE
 70
     0
  9
$VISRETAIN
 70
     1
  9
$PLINEGEN
 70
     0
  9
$PSLTSCALE
 70
     1
  9
$TREEDEPTH
 70
  3020
  9
$PICKSTYLE
 70
     1
  9
$CMLSTYLE
  2
STANDARD
  9
$CMLJUST
 70
     0
  9
$CMLSCALE
 40
20.0
  9
$PROXYGRAPHICS
 70
     1
  9
$MEASUREMENT
 70
     1
  0
ENDSEC
  0
SECTION
  2
CLASSES
  0
CLASS
  1
ACDBDICTIONARYWDFLT
  2
AcDbDictionaryWithDefault
  3
ObjectDBX Classes
 90
        0
280
     0
281
     0
  0
CLASS
  1
VISUALSTYLE
  2
AcDbVisualStyle
  3
ObjectDBX Classes
 90
     4095
280
     0
281
     0
  0
CLASS
  1
MATERIAL
  2
AcDbMaterial
  3
ObjectDBX Classes
 90
     1153
280
     0
281
     0
  0
CLASS
  1
SUN
  2
AcDbSun
  3
SCENEOE
 90
     1024
280
     0
281
     0
  0
CLASS
  1
DICTIONARYVAR
  2
AcDbDictionaryVar
  3
ObjectDBX Classes
 90
        0
280
     0
281
     0
  0
CLASS
  1
XRECORD
  2
AcDbXrecord
  3
AutoCAD 2000
 90
        0
280
     0
281
     0
  0
CLASS
  1
LWPOLYLINE
  2
AcDbPolyline
  3
AutoCAD 2000
 90
        0
280
     0
281
     1
  0
CLASS
  1
HATCH
  2
AcDbHatch
  3
AutoCAD 2000
 90
        0
280
     0
281
     1
  0
CLASS
  1
ACDBPLACEHOLDER
  2
AcDbPlaceHolder
  3
ObjectDBX Classes
 90
        0
280
     0
281
     0
  0
CLASS
  1
LAYOUT
  2
AcDbLayout
  3
ObjectDBX Classes
 90
        0
280
     0
281
     0
  0
ENDSEC
  0
SECTION
  2
TABLES
  0
TABLE
  2
VPORT
  5
8
330
0
100
AcDbSymbolTable
 70
     1
  0
VPORT
  5
29
330
8
100
AcDbSymbolTableRecord
100
AcDbViewportTableRecord
  2
*ACTIVE
 70
     0
 10
0.0
 20
0.0
 11
1.0
 21
1.0
 12
993.9999999999998
 22
1853.830827699092
 13
0.0
 23
0.0
 14
10.0
 24
10.0
 15
10.0
 25
10.0
 16
0.0
 26
0.0
 36
1.0
 17
0.0
 27
0.0
 37
0.0
 40
3525.661655398183
 41
0.5672694079812726
 42
50.0
 43
0.0
 44
0.0
 50
0.0
 51
0.0
 71
     0
 72
  1000
 73
     1
 74
     3
 75
     0
 76
     0
 77
     0
 78
     0
  0
ENDTAB
  0
TABLE
  2
LTYPE
  5
5
330
0
100
AcDbSymbolTable
 70
     9
  0
LTYPE
  5
14
330
5
100
AcDbSymbolTableRecord
100
AcDbLinetypeTableRecord
  2
BYBLOCK
 70
     0
  3

 72
    65
 73
     0
 40
0.0
  0
LTYPE
  5
15
330
5
100
AcDbSymbolTableRecord
100
AcDbLinetypeTableRecord
  2
BYLAYER
 70
     0
  3

 72
    65
 73
     0
 40
0.0
  0
LTYPE
  5
16
330
5
100
AcDbSymbolTableRecord
100
AcDbLinetypeTableRecord
  2
CONTINUOUS
 70
     0
  3
Solid line
 72
    65
 73
     0
 40
0.0
  0
LTYPE
  5
40
330
5
100
AcDbSymbolTableRecord
100
AcDbLinetypeTableRecord
  2
EXLTYPE1
 70
     0
  3
破線
 72
    65
 73
     2
 40
3.0
 49
2.0
 74
     0
 49
-1.0
 74
     0
  0
LTYPE
  5
41
330
5
100
AcDbSymbolTableRecord
100
AcDbLinetypeTableRecord
  2
EXLTYPE2
 70
     0
  3
点線
 72
    65
 73
     2
 40
2.0
 49
1.0
 74
     0
 49
-1.0
 74
     0
  0
LTYPE
  5
42
330
5
100
AcDbSymbolTableRecord
100
AcDbLinetypeTableRecord
  2
EXLTYPE3
 70
     0
  3
一点鎖線
 72
    65
 73
     4
 40
10.0
 49
7.0
 74
     0
 49
-1.0
 74
     0
 49
1.0
 74
     0
 49
-1.0
 74
     0
  0
LTYPE
  5
43
330
5
100
AcDbSymbolTableRecord
100
AcDbLinetypeTableRecord
  2
EXLTYPE4
 70
     0
  3
二点鎖線
 72
    65
 73
     6
 40
12.0
 49
7.0
 74
     0
 49
-1.0
 74
     0
 49
1.0
 74
     0
 49
-1.0
 74
     0
 49
1.0
 74
     0
 49
-1.0
 74
     0
  0
LTYPE
  5
44
330
5
100
AcDbSymbolTableRecord
100
AcDbLinetypeTableRecord
  2
EXLTYPE5
 70
     0
  3
三点鎖線
 72
    65
 73
     8
 40
37.0
 49
30.0
 74
     0
 49
-1.0
 74
     0
 49
1.0
 74
     0
 49
-1.0
 74
     0
 49
1.0
 74
     0
 49
-1.0
 74
     0
 49
1.0
 74
     0
 49
-1.0
 74
     0
  0
LTYPE
  5
45
330
5
100
AcDbSymbolTableRecord
100
AcDbLinetypeTableRecord
  2
EXLTYPE6
 70
     0
  3
四点鎖線
 72
    65
 73
    10
 40
39.0
 49
30.0
 74
     0
 49
-1.0
 74
     0
 49
1.0
 74
     0
 49
-1.0
 74
     0
 49
1.0
 74
     0
 49
-1.0
 74
     0
 49
1.0
 74
     0
 49
-1.0
 74
     0
 49
1.0
 74
     0
 49
-1.0
 74
     0
  0
LTYPE
  5
46
330
5
100
AcDbSymbolTableRecord
100
AcDbLinetypeTableRecord
  2
EXLTYPE7
 70
     0
  3
破線4
 72
    65
 73
     2
 40
0.1666666666666667
 49
0.0833333333333333
 74
     0
 49
-0.0833333333333333
 74
     0
  0
LTYPE
  5
47
330
5
100
AcDbSymbolTableRecord
100
AcDbLinetypeTableRecord
  2
EXLTYPE8
 70
     0
  3
一点鎖線4
 72
    65
 73
     4
 40
0.8533333333333334
 49
0.7333333333333333
 74
     0
 49
-0.04
 74
     0
 49
0.04
 74
     0
 49
-0.04
 74
     0
  0
ENDTAB
  0
TABLE
  2
LAYER
  5
2
330
0
100
AcDbSymbolTable
 70
     7
  0
LAYER
  5
10
330
2
100
AcDbSymbolTableRecord
100
AcDbLayerTableRecord
  2
0
 70
     0
 62
     7
  6
CONTINUOUS
  0
LAYER
  5
4A
330
2
100
AcDbSymbolTableRecord
100
AcDbLayerTableRecord
  2
図枠
 70
     0
 62
     7
  6
CONTINUOUS
  0
LAYER
  5
4B
330
2
100
AcDbSymbolTableRecord
100
AcDbLayerTableRecord
  2
図
 70
     0
 62
     7
  6
CONTINUOUS
  0
LAYER
  5
4C
330
2
100
AcDbSymbolTableRecord
100
AcDbLayerTableRecord
  2
寸法
 70
     0
 62
     7
  6
CONTINUOUS
  0
LAYER
  5
4D
330
2
100
AcDbSymbolTableRecord
100
AcDbLayerTableRecord
  2
詳細図
 70
     0
 62
     7
  6
CONTINUOUS
  0
LAYER
  5
4E
330
2
100
AcDbSymbolTableRecord
100
AcDbLayerTableRecord
  2
詳細-寸法
 70
     0
 62
     7
  6
CONTINUOUS
  0
LAYER
  5
148
330
2
100
AcDbSymbolTableRecord
100
AcDbLayerTableRecord
  2
DEFPOINTS
 70
     0
 62
     7
  6
CONTINUOUS
  0
ENDTAB
  0
TABLE
  2
STYLE
  5
3
330
0
100
AcDbSymbolTable
 70
     5
  0
STYLE
  5
11
330
3
100
AcDbSymbolTableRecord
100
AcDbTextStyleTableRecord
  2
STANDARD
 70
     0
 40
0.0
 41
1.0
 50
0.0
 71
     0
 42
2.5
  3
monotxt
  4
extfont
  0
STYLE
  5
48
330
3
100
AcDbSymbolTableRecord
100
AcDbTextStyleTableRecord
  2
EXCADSTD
 70
     0
 40
0.0
 41
1.0
 50
0.0
 71
     0
 42
0.2
  3
monotxt
  4
extfont
  0
STYLE
  5
49
330
3
100
AcDbSymbolTableRecord
100
AcDbTextStyleTableRecord
  2
EXCADVERT
 70
     4
 40
0.0
 41
1.0
 50
0.0
 71
     0
 42
0.286885
  3
monotxt
  4
extfont
  0
STYLE
  5
AB
330
3
100
AcDbSymbolTableRecord
100
AcDbTextStyleTableRecord
  2
EXCADTTF1
 70
     0
 40
0.0
 41
1.0
 50
0.0
 71
     0
 42
0.2
  3
MSGOTHIC.TTC
  4

1001
ACAD
1000
MS Gothic
1071
    32817
  0
STYLE
  5
146
330
3
100
AcDbSymbolTableRecord
100
AcDbTextStyleTableRecord
  2
EXCADDIM1
 70
     0
 40
0.0
 41
0.84
 50
0.0
 71
     0
 42
0.2
  3
monotxt
  4
extfont
  0
ENDTAB
  0
TABLE
  2
VIEW
  5
6
330
0
100
AcDbSymbolTable
 70
     0
  0
ENDTAB
  0
TABLE
  2
UCS
  5
7
330
0
100
AcDbSymbolTable
 70
     0
  0
ENDTAB
  0
TABLE
  2
APPID
  5
9
330
0
100
AcDbSymbolTable
 70
     1
  0
APPID
  5
12
330
9
100
AcDbSymbolTableRecord
100
AcDbRegAppTableRecord
  2
ACAD
 70
     0
  0
ENDTAB
  0
TABLE
  2
DIMSTYLE
  5
A
330
0
100
AcDbSymbolTable
 70
     1
  0
DIMSTYLE
105
27
102
{ACAD_REACTORS
330
147
330
155
330
164
330
171
330
1B2
330
43E
330
44D
330
45A
330
469
330
478
330
483
330
48E
330
499
330
4AA
330
4B9
330
4C8
330
4D7
330
4E6
330
542
330
54F
102
}
330
A
100
AcDbSymbolTableRecord
100
AcDbDimStyleTableRecord
  2
ISO-25
 70
     0
  3

  4

  5

  6

  7

 40
1.0
 41
2.5
 42
0.625
 43
3.75
 44
1.25
 45
0.0
 46
0.0
 47
0.0
 48
0.0
140
2.5
141
2.5
142
0.0
143
0.03937007874016
144
1.0
145
0.0
146
1.0
147
0.625
 71
     0
 72
     0
 73
     0
 74
     0
 75
     0
 76
     0
 77
     1
 78
     8
170
     0
171
     3
172
     1
173
     0
174
     0
175
     0
176
     0
177
     0
178
     0
270
     2
271
     2
272
     2
273
     2
274
     3
340
11
275
     0
280
     0
281
     0
282
     0
283
     0
284
     8
285
     0
286
     0
287
     5
288
     0
  0
ENDTAB
  0
TABLE
  2
BLOCK_RECORD
  5
1
330
0
100
AcDbSymbolTable
 70
    35
  0
BLOCK_RECORD
  5
1F
330
1
100
AcDbSymbolTableRecord
100
AcDbBlockTableRecord
  2
*MODEL_SPACE
  0
BLOCK_RECORD
  5
1B
330
1
100
AcDbSymbolTableRecord
100
AcDbBlockTableRecord
  2
*PAPER_SPACE
  0
BLOCK_RECORD
  5
4F
330
1
100
AcDbSymbolTableRecord
100
AcDbBlockTableRecord
  2
EX_NORM
  0
BLOCK_RECORD
  5
52
330
1
100
AcDbSymbolTableRecord
100
AcDbBlockTableRecord
  2
EX_BNORM
  0
BLOCK_RECORD
  5
55
330
1
100
AcDbSymbolTableRecord
100
AcDbBlockTableRecord
  2
EX_BCIR
  0
BLOCK_RECORD
  5
58
330
1
100
AcDbSymbolTableRecord
100
AcDbBlockTableRecord
  2
EX_RCIVIL
  0
BLOCK_RECORD
  5
5B
330
1
100
AcDbSymbolTableRecord
100
AcDbBlockTableRecord
  2
EX_SLANT
  0
BLOCK_RECORD
  5
5E
330
1
100
AcDbSymbolTableRecord
100
AcDbBlockTableRecord
  2
EX_NONE
  0
BLOCK_RECORD
  5
61
330
1
100
AcDbSymbolTableRecord
100
AcDbBlockTableRecord
  2
EX_CIVIL
  0
BLOCK_RECORD
  5
64
330
1
100
AcDbSymbolTableRecord
100
AcDbBlockTableRecord
  2
EX_WCIR
  0
BLOCK_RECORD
  5
67
330
1
100
AcDbSymbolTableRecord
100
AcDbBlockTableRecord
  2
EX_WCIR2
  0
BLOCK_RECORD
  5
6A
330
1
100
AcDbSymbolTableRecord
100
AcDbBlockTableRecord
  2
EX_WNORM
  0
BLOCK_RECORD
  5
6D
330
1
100
AcDbSymbolTableRecord
100
AcDbBlockTableRecord
  2
EX_NNORM
  0
BLOCK_RECORD
  5
70
330
1
100
AcDbSymbolTableRecord
100
AcDbBlockTableRecord
  2
EX_BBOX
  0
BLOCK_RECORD
  5
73
330
1
100
AcDbSymbolTableRecord
100
AcDbBlockTableRecord
  2
EX_WBOX
  0
BLOCK_RECORD
  5
76
330
1
100
AcDbSymbolTableRecord
100
AcDbBlockTableRecord
  2
EX_INTEGRAL
  0
BLOCK_RECORD
  5
149
330
1
100
AcDbSymbolTableRecord
100
AcDbBlockTableRecord
  2
*D15
  0
BLOCK_RECORD
  5
156
330
1
100
AcDbSymbolTableRecord
100
AcDbBlockTableRecord
  2
*D16
  0
BLOCK_RECORD
  5
165
330
1
100
AcDbSymbolTableRecord
100
AcDbBlockTableRecord
  2
*D17
  0
BLOCK_RECORD
  5
172
330
1
100
AcDbSymbolTableRecord
100
AcDbBlockTableRecord
  2
*D18
  0
BLOCK_RECORD
  5
1B3
330
1
100
AcDbSymbolTableRecord
100
AcDbBlockTableRecord
  2
*D19
  0
BLOCK_RECORD
  5
43F
330
1
100
AcDbSymbolTableRecord
100
AcDbBlockTableRecord
  2
*D20
  0
BLOCK_RECORD
  5
44E
330
1
100
AcDbSymbolTableRecord
100
AcDbBlockTableRecord
  2
*D21
  0
BLOCK_RECORD
  5
45B
330
1
100
AcDbSymbolTableRecord
100
AcDbBlockTableRecord
  2
*D22
  0
BLOCK_RECORD
  5
46A
330
1
100
AcDbSymbolTableRecord
100
AcDbBlockTableRecord
  2
*D23
  0
BLOCK_RECORD
  5
479
330
1
100
AcDbSymbolTableRecord
100
AcDbBlockTableRecord
  2
*D24
  0
BLOCK_RECORD
  5
484
330
1
100
AcDbSymbolTableRecord
100
AcDbBlockTableRecord
  2
*D25
  0
BLOCK_RECORD
  5
48F
330
1
100
AcDbSymbolTableRecord
100
AcDbBlockTableRecord
  2
*D26
  0
BLOCK_RECORD
  5
49A
330
1
100
AcDbSymbolTableRecord
100
AcDbBlockTableRecord
  2
*D27
  0
BLOCK_RECORD
  5
4AB
330
1
100
AcDbSymbolTableRecord
100
AcDbBlockTableRecord
  2
*D28
  0
BLOCK_RECORD
  5
4BA
330
1
100
AcDbSymbolTableRecord
100
AcDbBlockTableRecord
  2
*D29
  0
BLOCK_RECORD
  5
4C9
330
1
100
AcDbSymbolTableRecord
100
AcDbBlockTableRecord
  2
*D30
  0
BLOCK_RECORD
  5
4D8
330
1
100
AcDbSymbolTableRecord
100
AcDbBlockTableRecord
  2
*D31
  0
BLOCK_RECORD
  5
4E7
330
1
100
AcDbSymbolTableRecord
100
AcDbBlockTableRecord
  2
*D32
  0
BLOCK_RECORD
  5
543
330
1
100
AcDbSymbolTableRecord
100
AcDbBlockTableRecord
  2
*D33
  0
BLOCK_RECORD
  5
550
330
1
100
AcDbSymbolTableRecord
100
AcDbBlockTableRecord
  2
*D34
  0
ENDTAB
  0
ENDSEC
  0
SECTION
  2
BLOCKS
  0
BLOCK
  5
20
330
1F
100
AcDbEntity
  8
0
100
AcDbBlockBegin
  2
*MODEL_SPACE
 70
     0
 10
0.0
 20
0.0
 30
0.0
  3
*MODEL_SPACE
  1

  0
ENDBLK
  5
21
330
1F
100
AcDbEntity
  8
0
100
AcDbBlockEnd
  0
BLOCK
  5
1C
330
1B
100
AcDbEntity
 67
     1
  8
0
100
AcDbBlockBegin
  2
*PAPER_SPACE
 70
     0
 10
0.0
 20
0.0
 30
0.0
  3
*PAPER_SPACE
  1

  0
ENDBLK
  5
1D
330
1B
100
AcDbEntity
 67
     1
  8
0
100
AcDbBlockEnd
  0
BLOCK
  5
50
330
4F
100
AcDbEntity
  8
0
100
AcDbBlockBegin
  2
EX_NORM
 70
     0
 10
0.0
 20
0.0
 30
0.0
  3
EX_NORM
  1

  0
LINE
  5
79
330
4F
100
AcDbEntity
  8
0
  6
CONTINUOUS
 62
     0
100
AcDbLine
 10
0.0
 20
0.0
 30
0.0
 11
-1.0
 21
0.0
 31
0.0
  0
LINE
  5
7A
330
4F
100
AcDbEntity
  8
0
  6
CONTINUOUS
 62
     0
100
AcDbLine
 10
0.0
 20
0.0
 30
0.0
 11
-1.0
 21
0.166666667
 31
0.0
  0
LINE
  5
7B
330
4F
100
AcDbEntity
  8
0
  6
CONTINUOUS
 62
     0
100
AcDbLine
 10
0.0
 20
0.0
 30
0.0
 11
-1.0
 21
-0.166666667
 31
0.0
  0
ENDBLK
  5
51
330
4F
100
AcDbEntity
  8
0
100
AcDbBlockEnd
  0
BLOCK
  5
53
330
52
100
AcDbEntity
  8
0
100
AcDbBlockBegin
  2
EX_BNORM
 70
     0
 10
0.0
 20
0.0
 30
0.0
  3
EX_BNORM
  1

  0
LINE
  5
7C
330
52
100
AcDbEntity
  8
0
  6
CONTINUOUS
 62
     0
100
AcDbLine
 10
0.0
 20
0.0
 30
0.0
 11
-1.0
 21
0.0
 31
0.0
  0
LINE
  5
7D
330
52
100
AcDbEntity
  8
0
  6
CONTINUOUS
 62
     0
100
AcDbLine
 10
0.0
 20
0.0
 30
0.0
 11
-1.0
 21
0.166666667
 31
0.0
  0
LINE
  5
7E
330
52
100
AcDbEntity
  8
0
  6
CONTINUOUS
 62
     0
100
AcDbLine
 10
0.0
 20
0.0
 30
0.0
 11
-1.0
 21
-0.166666667
 31
0.0
  0
LINE
  5
7F
330
52
100
AcDbEntity
  8
0
  6
CONTINUOUS
 62
     0
100
AcDbLine
 10
0.0
 20
0.0
 30
0.0
 11
-1.0
 21
0.083333333
 31
0.0
  0
LINE
  5
80
330
52
100
AcDbEntity
  8
0
  6
CONTINUOUS
 62
     0
100
AcDbLine
 10
0.0
 20
0.0
 30
0.0
 11
-1.0
 21
-0.083333333
 31
0.0
  0
LINE
  5
81
330
52
100
AcDbEntity
  8
0
  6
CONTINUOUS
 62
     0
100
AcDbLine
 10
-1.0
 20
0.166666667
 30
0.0
 11
-1.0
 21
-0.166666667
 31
0.0
  0
ENDBLK
  5
54
330
52
100
AcDbEntity
  8
0
100
AcDbBlockEnd
  0
BLOCK
  5
56
330
55
100
AcDbEntity
  8
0
100
AcDbBlockBegin
  2
EX_BCIR
 70
     0
 10
0.0
 20
0.0
 30
0.0
  3
EX_BCIR
  1

  0
LINE
  5
82
330
55
100
AcDbEntity
  8
0
  6
CONTINUOUS
 62
     0
100
AcDbLine
 10
0.0
 20
0.0
 30
0.0
 11
-1.0
 21
0.0
 31
0.0
  0
CIRCLE
  5
83
330
55
100
AcDbEntity
  8
0
  6
CONTINUOUS
 62
     0
100
AcDbCircle
 10
0.0
 20
0.0
 30
0.0
 40
0.5
  0
CIRCLE
  5
84
330
55
100
AcDbEntity
  8
0
  6
CONTINUOUS
 62
     0
100
AcDbCircle
 10
0.0
 20
0.0
 30
0.0
 40
0.25
  0
ENDBLK
  5
57
330
55
100
AcDbEntity
  8
0
100
AcDbBlockEnd
  0
BLOCK
  5
59
330
58
100
AcDbEntity
  8
0
100
AcDbBlockBegin
  2
EX_RCIVIL
 70
     0
 10
0.0
 20
0.0
 30
0.0
  3
EX_RCIVIL
  1

  0
LINE
  5
85
330
58
100
AcDbEntity
  8
0
  6
CONTINUOUS
 62
     0
100
AcDbLine
 10
0.0
 20
0.0
 30
0.0
 11
-1.0
 21
0.0
 31
0.0
  0
LINE
  5
86
330
58
100
AcDbEntity
  8
0
  6
CONTINUOUS
 62
     0
100
AcDbLine
 10
-1.0
 20
-0.25
 30
0.0
 11
0.0
 21
-0.25
 31
0.0
  0
LINE
  5
87
330
58
100
AcDbEntity
  8
0
  6
CONTINUOUS
 62
     0
100
AcDbLine
 10
-1.0
 20
-0.125
 30
0.0
 11
0.0
 21
-0.125
 31
0.0
  0
ENDBLK
  5
5A
330
58
100
AcDbEntity
  8
0
100
AcDbBlockEnd
  0
BLOCK
  5
5C
330
5B
100
AcDbEntity
  8
0
100
AcDbBlockBegin
  2
EX_SLANT
 70
     0
 10
0.0
 20
0.0
 30
0.0
  3
EX_SLANT
  1

  0
LINE
  5
88
330
5B
100
AcDbEntity
  8
0
  6
CONTINUOUS
 62
     0
100
AcDbLine
 10
0.0
 20
0.0
 30
0.0
 11
-1.0
 21
0.0
 31
0.0
  0
LINE
  5
89
330
5B
100
AcDbEntity
  8
0
  6
CONTINUOUS
 62
     0
100
AcDbLine
 10
0.707106781
 20
0.707106781
 30
0.0
 11
-0.707106781
 21
-0.707106781
 31
0.0
  0
ENDBLK
  5
5D
330
5B
100
AcDbEntity
  8
0
100
AcDbBlockEnd
  0
BLOCK
  5
5F
330
5E
100
AcDbEntity
  8
0
100
AcDbBlockBegin
  2
EX_NONE
 70
     0
 10
0.0
 20
0.0
 30
0.0
  3
EX_NONE
  1

  0
LINE
  5
8A
330
5E
100
AcDbEntity
  8
0
  6
CONTINUOUS
 62
     0
100
AcDbLine
 10
0.0
 20
0.0
 30
0.0
 11
-1.0
 21
0.0
 31
0.0
  0
ENDBLK
  5
60
330
5E
100
AcDbEntity
  8
0
100
AcDbBlockEnd
  0
BLOCK
  5
62
330
61
100
AcDbEntity
  8
0
100
AcDbBlockBegin
  2
EX_CIVIL
 70
     0
 10
0.0
 20
0.0
 30
0.0
  3
EX_CIVIL
  1

  0
LINE
  5
8B
330
61
100
AcDbEntity
  8
0
  6
CONTINUOUS
 62
     0
100
AcDbLine
 10
0.0
 20
0.0
 30
0.0
 11
-1.0
 21
0.0
 31
0.0
  0
LINE
  5
8C
330
61
100
AcDbEntity
  8
0
  6
CONTINUOUS
 62
     0
100
AcDbLine
 10
-1.0
 20
0.25
 30
0.0
 11
0.0
 21
0.25
 31
0.0
  0
LINE
  5
8D
330
61
100
AcDbEntity
  8
0
  6
CONTINUOUS
 62
     0
100
AcDbLine
 10
-1.0
 20
0.125
 30
0.0
 11
0.0
 21
0.125
 31
0.0
  0
ENDBLK
  5
63
330
61
100
AcDbEntity
  8
0
100
AcDbBlockEnd
  0
BLOCK
  5
65
330
64
100
AcDbEntity
  8
0
100
AcDbBlockBegin
  2
EX_WCIR
 70
     0
 10
0.0
 20
0.0
 30
0.0
  3
EX_WCIR
  1

  0
LINE
  5
8E
330
64
100
AcDbEntity
  8
0
  6
CONTINUOUS
 62
     0
100
AcDbLine
 10
0.0
 20
0.0
 30
0.0
 11
-1.0
 21
0.0
 31
0.0
  0
CIRCLE
  5
8F
330
64
100
AcDbEntity
  8
0
  6
CONTINUOUS
 62
     0
100
AcDbCircle
 10
0.0
 20
0.0
 30
0.0
 40
0.5
  0
ENDBLK
  5
66
330
64
100
AcDbEntity
  8
0
100
AcDbBlockEnd
  0
BLOCK
  5
68
330
67
100
AcDbEntity
  8
0
100
AcDbBlockBegin
  2
EX_WCIR2
 70
     0
 10
0.0
 20
0.0
 30
0.0
  3
EX_WCIR2
  1

  0
LINE
  5
90
330
67
100
AcDbEntity
  8
0
  6
CONTINUOUS
 62
     0
100
AcDbLine
 10
-0.5
 20
0.0
 30
0.0
 11
-1.0
 21
0.0
 31
0.0
  0
CIRCLE
  5
91
330
67
100
AcDbEntity
  8
0
  6
CONTINUOUS
 62
     0
100
AcDbCircle
 10
0.0
 20
0.0
 30
0.0
 40
0.5
  0
ENDBLK
  5
69
330
67
100
AcDbEntity
  8
0
100
AcDbBlockEnd
  0
BLOCK
  5
6B
330
6A
100
AcDbEntity
  8
0
100
AcDbBlockBegin
  2
EX_WNORM
 70
     0
 10
0.0
 20
0.0
 30
0.0
  3
EX_WNORM
  1

  0
LINE
  5
92
330
6A
100
AcDbEntity
  8
0
  6
CONTINUOUS
 62
     0
100
AcDbLine
 10
-1.0
 20
0.0
 30
0.0
 11
-1.0
 21
0.0
 31
0.0
  0
LINE
  5
93
330
6A
100
AcDbEntity
  8
0
  6
CONTINUOUS
 62
     0
100
AcDbLine
 10
0.0
 20
0.0
 30
0.0
 11
-1.0
 21
0.166666667
 31
0.0
  0
LINE
  5
94
330
6A
100
AcDbEntity
  8
0
  6
CONTINUOUS
 62
     0
100
AcDbLine
 10
0.0
 20
0.0
 30
0.0
 11
-1.0
 21
-0.166666667
 31
0.0
  0
LINE
  5
95
330
6A
100
AcDbEntity
  8
0
  6
CONTINUOUS
 62
     0
100
AcDbLine
 10
-1.0
 20
0.166666667
 30
0.0
 11
-1.0
 21
-0.166666667
 31
0.0
  0
ENDBLK
  5
6C
330
6A
100
AcDbEntity
  8
0
100
AcDbBlockEnd
  0
BLOCK
  5
6E
330
6D
100
AcDbEntity
  8
0
100
AcDbBlockBegin
  2
EX_NNORM
 70
     0
 10
0.0
 20
0.0
 30
0.0
  3
EX_NNORM
  1

  0
LINE
  5
96
330
6D
100
AcDbEntity
  8
0
  6
CONTINUOUS
 62
     0
100
AcDbLine
 10
0.0
 20
0.0
 30
0.0
 11
-1.0
 21
0.0
 31
0.0
  0
LINE
  5
97
330
6D
100
AcDbEntity
  8
0
  6
CONTINUOUS
 62
     0
100
AcDbLine
 10
0.0
 20
0.0
 30
0.0
 11
-1.0
 21
0.166666667
 31
0.0
  0
LINE
  5
98
330
6D
100
AcDbEntity
  8
0
  6
CONTINUOUS
 62
     0
100
AcDbLine
 10
0.0
 20
0.0
 30
0.0
 11
-1.0
 21
-0.166666667
 31
0.0
  0
LINE
  5
99
330
6D
100
AcDbEntity
  8
0
  6
CONTINUOUS
 62
     0
100
AcDbLine
 10
-1.0
 20
0.166666667
 30
0.0
 11
-1.0
 21
-0.166666667
 31
0.0
  0
ENDBLK
  5
6F
330
6D
100
AcDbEntity
  8
0
100
AcDbBlockEnd
  0
BLOCK
  5
71
330
70
100
AcDbEntity
  8
0
100
AcDbBlockBegin
  2
EX_BBOX
 70
     0
 10
0.0
 20
0.0
 30
0.0
  3
EX_BBOX
  1

  0
LINE
  5
9A
330
70
100
AcDbEntity
  8
0
  6
CONTINUOUS
 62
     0
100
AcDbLine
 10
0.0
 20
0.0
 30
0.0
 11
-1.0
 21
0.0
 31
0.0
  0
LINE
  5
9B
330
70
100
AcDbEntity
  8
0
  6
CONTINUOUS
 62
     0
100
AcDbLine
 10
-0.5
 20
0.5
 30
0.0
 11
0.5
 21
0.5
 31
0.0
  0
LINE
  5
9C
330
70
100
AcDbEntity
  8
0
  6
CONTINUOUS
 62
     0
100
AcDbLine
 10
0.5
 20
0.5
 30
0.0
 11
0.5
 21
-0.5
 31
0.0
  0
LINE
  5
9D
330
70
100
AcDbEntity
  8
0
  6
CONTINUOUS
 62
     0
100
AcDbLine
 10
0.5
 20
-0.5
 30
0.0
 11
-0.5
 21
-0.5
 31
0.0
  0
LINE
  5
9E
330
70
100
AcDbEntity
  8
0
  6
CONTINUOUS
 62
     0
100
AcDbLine
 10
-0.5
 20
-0.5
 30
0.0
 11
-0.5
 21
0.5
 31
0.0
  0
LINE
  5
9F
330
70
100
AcDbEntity
  8
0
  6
CONTINUOUS
 62
     0
100
AcDbLine
 10
-0.25
 20
0.25
 30
0.0
 11
0.25
 21
0.25
 31
0.0
  0
LINE
  5
A0
330
70
100
AcDbEntity
  8
0
  6
CONTINUOUS
 62
     0
100
AcDbLine
 10
0.25
 20
0.25
 30
0.0
 11
0.25
 21
-0.25
 31
0.0
  0
LINE
  5
A1
330
70
100
AcDbEntity
  8
0
  6
CONTINUOUS
 62
     0
100
AcDbLine
 10
0.25
 20
-0.25
 30
0.0
 11
-0.25
 21
-0.25
 31
0.0
  0
LINE
  5
A2
330
70
100
AcDbEntity
  8
0
  6
CONTINUOUS
 62
     0
100
AcDbLine
 10
-0.25
 20
-0.25
 30
0.0
 11
-0.25
 21
0.25
 31
0.0
  0
ENDBLK
  5
72
330
70
100
AcDbEntity
  8
0
100
AcDbBlockEnd
  0
BLOCK
  5
74
330
73
100
AcDbEntity
  8
0
100
AcDbBlockBegin
  2
EX_WBOX
 70
     0
 10
0.0
 20
0.0
 30
0.0
  3
EX_WBOX
  1

  0
LINE
  5
A3
330
73
100
AcDbEntity
  8
0
  6
CONTINUOUS
 62
     0
100
AcDbLine
 10
-0.5
 20
0.0
 30
0.0
 11
-1.0
 21
0.0
 31
0.0
  0
LINE
  5
A4
330
73
100
AcDbEntity
  8
0
  6
CONTINUOUS
 62
     0
100
AcDbLine
 10
-0.5
 20
0.5
 30
0.0
 11
0.5
 21
0.5
 31
0.0
  0
LINE
  5
A5
330
73
100
AcDbEntity
  8
0
  6
CONTINUOUS
 62
     0
100
AcDbLine
 10
0.5
 20
0.5
 30
0.0
 11
0.5
 21
-0.5
 31
0.0
  0
LINE
  5
A6
330
73
100
AcDbEntity
  8
0
  6
CONTINUOUS
 62
     0
100
AcDbLine
 10
0.5
 20
-0.5
 30
0.0
 11
-0.5
 21
-0.5
 31
0.0
  0
LINE
  5
A7
330
73
100
AcDbEntity
  8
0
  6
CONTINUOUS
 62
     0
100
AcDbLine
 10
-0.5
 20
-0.5
 30
0.0
 11
-0.5
 21
0.5
 31
0.0
  0
ENDBLK
  5
75
330
73
100
AcDbEntity
  8
0
100
AcDbBlockEnd
  0
BLOCK
  5
77
330
76
100
AcDbEntity
  8
0
100
AcDbBlockBegin
  2
EX_INTEGRAL
 70
     0
 10
0.0
 20
0.0
 30
0.0
  3
EX_INTEGRAL
  1

  0
LINE
  5
A8
330
76
100
AcDbEntity
  8
0
  6
CONTINUOUS
 62
     0
100
AcDbLine
 10
0.0
 20
0.0
 30
0.0
 11
-1.0
 21
0.0
 31
0.0
  0
ARC
  5
A9
330
76
100
AcDbEntity
  8
0
  6
CONTINUOUS
 62
     0
100
AcDbCircle
 10
0.542115
 20
0.164992
 30
0.0
 40
0.56667
100
AcDbArc
 50
73.07249033629006
 51
196.9275130221199
  0
ARC
  5
AA
330
76
100
AcDbEntity
  8
0
  6
CONTINUOUS
 62
     0
100
AcDbCircle
 10
-0.542115
 20
-0.164992
 30
0.0
 40
0.56667
100
AcDbArc
 50
253.0724869220464
 51
16.9275130559125
  0
ENDBLK
  5
78
330
76
100
AcDbEntity
  8
0
100
AcDbBlockEnd
  0
BLOCK
  5
14A
330
149
100
AcDbEntity
  8
0
100
AcDbBlockBegin
  2
*D15
 70
     1
 10
0.0
 20
0.0
 30
0.0
  3
*D15
  1

  0
LINE
  5
14C
330
149
100
AcDbEntity
  8
図
  6
CONTINUOUS
 62
     3
100
AcDbLine
 10
407.6521080264006
 20
2381.142815969391
 30
0.0
 11
407.6521080264006
 21
2522.0
 31
0.0
  0
LINE
  5
14D
330
149
100
AcDbEntity
  8
図
  6
CONTINUOUS
 62
     3
100
AcDbLine
 10
1047.652108026361
 20
2380.517810977491
 30
0.0
 11
1047.652108026361
 21
2522.0
 31
0.0
  0
LINE
  5
14E
330
149
100
AcDbEntity
  8
図
  6
CONTINUOUS
 62
     3
100
AcDbLine
 10
437.6521080264006
 20
2512.0
 30
0.0
 11
1017.652108026361
 21
2512.0
 31
0.0
  0
INSERT
  5
14F
330
149
100
AcDbEntity
  8
図
 62
     3
100
AcDbBlockReference
  2
EX_NORM
 10
407.6521080264006
 20
2512.0
 30
0.0
 41
30.0
 42
30.0
 43
30.0
 50
180.0
  0
INSERT
  5
150
330
149
100
AcDbEntity
  8
図
 62
     3
100
AcDbBlockReference
  2
EX_NORM
 10
1047.652108026361
 20
2512.0
 30
0.0
 41
30.0
 42
30.0
 43
30.0
  0
MTEXT
  5
151
330
149
100
AcDbEntity
  8
図
 62
     2
100
AcDbMText
 10
727.6521080263808
 20
2535.000000119209
 30
0.0
 40
40.0
 41
0.0
 71
     5
 72
     1
  1
640
  7
EXCADDIM1
  0
POINT
  5
152
330
149
100
AcDbEntity
  8
DEFPOINTS
 62
     0
100
AcDbPoint
 10
407.6521080264006
 20
2374.1428160886
 30
0.0
  0
POINT
  5
153
330
149
100
AcDbEntity
  8
DEFPOINTS
 62
     0
100
AcDbPoint
 10
1047.652108026361
 20
2373.5178110967
 30
0.0
  0
POINT
  5
154
330
149
100
AcDbEntity
  8
DEFPOINTS
 62
     0
100
AcDbPoint
 10
1047.652108026361
 20
2512.0
 30
0.0
  0
ENDBLK
  5
14B
330
149
100
AcDbEntity
  8
0
100
AcDbBlockEnd
  0
BLOCK
  5
157
330
156
100
AcDbEntity
  8
0
100
AcDbBlockBegin
  2
*D16
 70
     1
 10
0.0
 20
0.0
 30
0.0
  3
*D16
  1

  0
LINE
  5
159
330
156
100
AcDbEntity
  8
図
  6
CONTINUOUS
 62
     3
100
AcDbLine
 10
1010.653568075671
 20
2365.799999976578
 30
0.0
 11
1010.653568075671
 21
2460.0
 31
0.0
  0
LINE
  5
15A
330
156
100
AcDbEntity
  8
図
  6
CONTINUOUS
 62
     3
100
AcDbLine
 10
1047.652108026361
 20
2387.103107965978
 30
0.0
 11
1047.652108026361
 21
2460.0
 31
0.0
  0
LINE
  5
15B
330
156
100
AcDbEntity
  8
図
  6
CONTINUOUS
 62
     3
100
AcDbLine
 10
1010.653568075671
 20
2450.0
 30
0.0
 11
1047.652108026361
 21
2450.0
 31
0.0
  0
LINE
  5
15C
330
156
100
AcDbEntity
  8
図
  6
CONTINUOUS
 62
     3
100
AcDbLine
 10
980.653568075671
 20
2450.0
 30
0.0
 11
950.653568075671
 21
2450.0
 31
0.0
  0
LINE
  5
15D
330
156
100
AcDbEntity
  8
図
  6
CONTINUOUS
 62
     3
100
AcDbLine
 10
1077.652108026361
 20
2450.0
 30
0.0
 11
1107.652108026361
 21
2450.0
 31
0.0
  0
INSERT
  5
15E
330
156
100
AcDbEntity
  8
図
 62
     3
100
AcDbBlockReference
  2
EX_NORM
 10
1010.653568075671
 20
2450.0
 30
0.0
 41
30.0
 42
30.0
 43
30.0
  0
INSERT
  5
15F
330
156
100
AcDbEntity
  8
図
 62
     3
100
AcDbBlockReference
  2
EX_NORM
 10
1047.652108026361
 20
2450.0
 30
0.0
 41
30.0
 42
30.0
 43
30.0
 50
180.0
  0
MTEXT
  5
160
330
156
100
AcDbEntity
  8
図
 62
     2
100
AcDbMText
 10
1112.652108026361
 20
2473.000000119209
 30
0.0
 40
40.0
 41
0.0
 71
     5
 72
     1
  1
37
  7
EXCADDIM1
  0
POINT
  5
161
330
156
100
AcDbEntity
  8
DEFPOINTS
 62
     0
100
AcDbPoint
 10
1010.653568075671
 20
2352.2147031073
 30
0.0
  0
POINT
  5
162
330
156
100
AcDbEntity
  8
DEFPOINTS
 62
     0
100
AcDbPoint
 10
1047.652108026361
 20
2373.5178110967
 30
0.0
  0
POINT
  5
163
330
156
100
AcDbEntity
  8
DEFPOINTS
 62
     0
100
AcDbPoint
 10
1047.652108026361
 20
2450.0
 30
0.0
  0
ENDBLK
  5
158
330
156
100
AcDbEntity
  8
0
100
AcDbBlockEnd
  0
BLOCK
  5
166
330
165
100
AcDbEntity
  8
0
100
AcDbBlockBegin
  2
*D17
 70
     1
 10
0.0
 20
0.0
 30
0.0
  3
*D17
  1

  0
LINE
  5
168
330
165
100
AcDbEntity
  8
図
  6
CONTINUOUS
 62
     3
100
AcDbLine
 10
883.4947319900507
 20
1163.684856864891
 30
0.0
 11
883.4947319900507
 21
1309.0
 31
0.0
  0
LINE
  5
169
330
165
100
AcDbEntity
  8
図
  6
CONTINUOUS
 62
     3
100
AcDbLine
 10
1043.49787047427
 20
1173.083076580391
 30
0.0
 11
1043.49787047427
 21
1309.0
 31
0.0
  0
LINE
  5
16A
330
165
100
AcDbEntity
  8
図
  6
CONTINUOUS
 62
     3
100
AcDbLine
 10
913.4947319900507
 20
1299.0
 30
0.0
 11
1013.49787047427
 21
1299.0
 31
0.0
  0
INSERT
  5
16B
330
165
100
AcDbEntity
  8
図
 62
     3
100
AcDbBlockReference
  2
EX_NORM
 10
883.4947319900507
 20
1299.0
 30
0.0
 41
30.0
 42
30.0
 43
30.0
 50
180.0
  0
INSERT
  5
16C
330
165
100
AcDbEntity
  8
図
 62
     3
100
AcDbBlockReference
  2
EX_NORM
 10
1043.49787047427
 20
1299.0
 30
0.0
 41
30.0
 42
30.0
 43
30.0
  0
MTEXT
  5
16D
330
165
100
AcDbEntity
  8
図
 62
     2
100
AcDbMText
 10
963.4963012321607
 20
1322.000000119209
 30
0.0
 40
40.0
 41
0.0
 71
     5
 72
     1
  1
160
  7
EXCADDIM1
  0
POINT
  5
16E
330
165
100
AcDbEntity
  8
DEFPOINTS
 62
     0
100
AcDbPoint
 10
883.4947319900507
 20
1156.6848569841
 30
0.0
  0
POINT
  5
16F
330
165
100
AcDbEntity
  8
DEFPOINTS
 62
     0
100
AcDbPoint
 10
1043.49787047427
 20
1166.0830766996
 30
0.0
  0
POINT
  5
170
330
165
100
AcDbEntity
  8
DEFPOINTS
 62
     0
100
AcDbPoint
 10
1043.49787047427
 20
1299.0
 30
0.0
  0
ENDBLK
  5
167
330
165
100
AcDbEntity
  8
0
100
AcDbBlockEnd
  0
BLOCK
  5
173
330
172
100
AcDbEntity
  8
0
100
AcDbBlockBegin
  2
*D18
 70
     1
 10
0.0
 20
0.0
 30
0.0
  3
*D18
  1

  0
LINE
  5
175
330
172
100
AcDbEntity
  8
図
  6
CONTINUOUS
 62
     3
100
AcDbLine
 10
918.5021295256507
 20
1168.423177083691
 30
0.0
 11
918.5021295256507
 21
1244.0
 31
0.0
  0
LINE
  5
176
330
172
100
AcDbEntity
  8
図
  6
CONTINUOUS
 62
     3
100
AcDbLine
 10
1043.49787047427
 20
1173.083076580391
 30
0.0
 11
1043.49787047427
 21
1244.0
 31
0.0
  0
LINE
  5
177
330
172
100
AcDbEntity
  8
図
  6
CONTINUOUS
 62
     3
100
AcDbLine
 10
948.5021295256507
 20
1234.0
 30
0.0
 11
1013.49787047427
 21
1234.0
 31
0.0
  0
INSERT
  5
178
330
172
100
AcDbEntity
  8
図
 62
     3
100
AcDbBlockReference
  2
EX_NORM
 10
918.5021295256507
 20
1234.0
 30
0.0
 41
30.0
 42
30.0
 43
30.0
 50
180.0
  0
INSERT
  5
179
330
172
100
AcDbEntity
  8
図
 62
     3
100
AcDbBlockReference
  2
EX_NORM
 10
1043.49787047427
 20
1234.0
 30
0.0
 41
30.0
 42
30.0
 43
30.0
  0
MTEXT
  5
17A
330
172
100
AcDbEntity
  8
図
 62
     2
100
AcDbMText
 10
980.9999999999604
 20
1257.000000119209
 30
0.0
 40
40.0
 41
0.0
 71
     5
 72
     1
  1
125
  7
EXCADDIM1
  0
POINT
  5
17B
330
172
100
AcDbEntity
  8
DEFPOINTS
 62
     0
100
AcDbPoint
 10
918.5021295256507
 20
1161.4231772029
 30
0.0
  0
POINT
  5
17C
330
172
100
AcDbEntity
  8
DEFPOINTS
 62
     0
100
AcDbPoint
 10
1043.49787047427
 20
1166.0830766996
 30
0.0
  0
POINT
  5
17D
330
172
100
AcDbEntity
  8
DEFPOINTS
 62
     0
100
AcDbPoint
 10
1043.49787047427
 20
1234.0
 30
0.0
  0
ENDBLK
  5
174
330
172
100
AcDbEntity
  8
0
100
AcDbBlockEnd
  0
BLOCK
  5
1B4
330
1B3
100
AcDbEntity
  8
0
100
AcDbBlockBegin
  2
*D19
 70
     1
 10
0.0
 20
0.0
 30
0.0
  3
*D19
  1

  0
LINE
  5
1B6
330
1B3
100
AcDbEntity
  8
図
  6
CONTINUOUS
 62
     3
100
AcDbLine
 10
1040.277055864501
 20
2388.51775406211
 30
0.0
 11
1181.13423989511
 21
2388.51775406211
 31
0.0
  0
LINE
  5
1B7
330
1B3
100
AcDbEntity
  8
図
  6
CONTINUOUS
 62
     3
100
AcDbLine
 10
1039.652050872601
 20
1748.51775406215
 30
0.0
 11
1181.13423989511
 21
1748.51775406215
 31
0.0
  0
LINE
  5
1B8
330
1B3
100
AcDbEntity
  8
図
  6
CONTINUOUS
 62
     3
100
AcDbLine
 10
1171.13423989511
 20
2358.51775406211
 30
0.0
 11
1171.13423989511
 21
1778.51775406215
 31
0.0
  0
INSERT
  5
1B9
330
1B3
100
AcDbEntity
  8
図
 62
     3
100
AcDbBlockReference
  2
EX_NORM
 10
1171.13423989511
 20
2388.51775406211
 30
0.0
 41
30.0
 42
30.0
 43
30.0
 50
90.0
  0
INSERT
  5
1BA
330
1B3
100
AcDbEntity
  8
図
 62
     3
100
AcDbBlockReference
  2
EX_NORM
 10
1171.13423989511
 20
1748.51775406215
 30
0.0
 41
30.0
 42
30.0
 43
30.0
 50
270.0
  0
MTEXT
  5
1BB
330
1B3
100
AcDbEntity
  8
図
 62
     2
100
AcDbMText
 10
1148.134239775901
 20
2068.51775406213
 30
0.0
 40
40.0
 41
0.0
 71
     5
 72
     1
  1
640
  7
EXCADDIM1
 11
0.0
 21
1.0
 31
0.0
  0
POINT
  5
1BC
330
1B3
100
AcDbEntity
  8
DEFPOINTS
 62
     0
100
AcDbPoint
 10
1033.27705598371
 20
2388.51775406211
 30
0.0
  0
POINT
  5
1BD
330
1B3
100
AcDbEntity
  8
DEFPOINTS
 62
     0
100
AcDbPoint
 10
1032.65205099181
 20
1748.51775406215
 30
0.0
  0
POINT
  5
1BE
330
1B3
100
AcDbEntity
  8
DEFPOINTS
 62
     0
100
AcDbPoint
 10
1171.13423989511
 20
1748.51775406215
 30
0.0
  0
ENDBLK
  5
1B5
330
1B3
100
AcDbEntity
  8
0
100
AcDbBlockEnd
  0
BLOCK
  5
440
330
43F
100
AcDbEntity
  8
0
100
AcDbBlockBegin
  2
*D20
 70
     1
 10
0.0
 20
0.0
 30
0.0
  3
*D20
  1

  0
LINE
  5
442
330
43F
100
AcDbEntity
  8
寸法
  6
CONTINUOUS
 62
     3
100
AcDbLine
 10
720.6520511110193
 20
1076.4962779606
 30
0.0
 11
663.98222351925
 21
1076.4962779606
 31
0.0
  0
LINE
  5
443
330
43F
100
AcDbEntity
  8
寸法
  6
CONTINUOUS
 62
     3
100
AcDbLine
 10
720.6520511110193
 20
1046.4962779606
 30
0.0
 11
663.98222351925
 21
1046.4962779606
 31
0.0
  0
LINE
  5
444
330
43F
100
AcDbEntity
  8
寸法
  6
CONTINUOUS
 62
     3
100
AcDbLine
 10
673.98222351925
 20
1076.4962779606
 30
0.0
 11
673.98222351925
 21
1046.4962779606
 31
0.0
  0
LINE
  5
445
330
43F
100
AcDbEntity
  8
寸法
  6
CONTINUOUS
 62
     3
100
AcDbLine
 10
673.98222351925
 20
1106.4962779606
 30
0.0
 11
673.98222351925
 21
1136.4962779606
 31
0.0
  0
LINE
  5
446
330
43F
100
AcDbEntity
  8
寸法
  6
CONTINUOUS
 62
     3
100
AcDbLine
 10
673.98222351925
 20
1016.4962779606
 30
0.0
 11
673.98222351925
 21
986.4962779606003
 31
0.0
  0
INSERT
  5
447
330
43F
100
AcDbEntity
  8
寸法
 62
     3
100
AcDbBlockReference
  2
EX_NORM
 10
673.98222351925
 20
1076.4962779606
 30
0.0
 41
30.0
 42
30.0
 43
30.0
 50
270.0
  0
INSERT
  5
448
330
43F
100
AcDbEntity
  8
寸法
 62
     3
100
AcDbBlockReference
  2
EX_NORM
 10
673.98222351925
 20
1046.4962779606
 30
0.0
 41
30.0
 42
30.0
 43
30.0
 50
90.0
  0
MTEXT
  5
449
330
43F
100
AcDbEntity
  8
寸法
 62
     2
100
AcDbMText
 10
650.982223400041
 20
1141.4962779606
 30
0.0
 40
40.0
 41
0.0
 71
     5
 72
     1
  1
30
  7
EXCADDIM1
 11
0.0
 21
1.0
 31
0.0
  0
POINT
  5
44A
330
43F
100
AcDbEntity
  8
DEFPOINTS
 62
     0
100
AcDbPoint
 10
727.65205099181
 20
1076.4962779606
 30
0.0
  0
POINT
  5
44B
330
43F
100
AcDbEntity
  8
DEFPOINTS
 62
     0
100
AcDbPoint
 10
727.65205099181
 20
1046.4962779606
 30
0.0
  0
POINT
  5
44C
330
43F
100
AcDbEntity
  8
DEFPOINTS
 62
     0
100
AcDbPoint
 10
673.98222351925
 20
1046.4962779606
 30
0.0
  0
ENDBLK
  5
441
330
43F
100
AcDbEntity
  8
0
100
AcDbBlockEnd
  0
BLOCK
  5
44F
330
44E
100
AcDbEntity
  8
0
100
AcDbBlockBegin
  2
*D21
 70
     1
 10
0.0
 20
0.0
 30
0.0
  3
*D21
  1

  0
LINE
  5
451
330
44E
100
AcDbEntity
  8
寸法
  6
CONTINUOUS
 62
     3
100
AcDbLine
 10
1054.652107907151
 20
1046.4962779606
 30
0.0
 11
1164.0
 21
1046.4962779606
 31
0.0
  0
LINE
  5
452
330
44E
100
AcDbEntity
  8
寸法
  6
CONTINUOUS
 62
     3
100
AcDbLine
 10
1047.567101978431
 20
1166.4231772029
 30
0.0
 11
1164.0
 21
1166.4231772029
 31
0.0
  0
LINE
  5
453
330
44E
100
AcDbEntity
  8
寸法
  6
CONTINUOUS
 62
     3
100
AcDbLine
 10
1154.0
 20
1076.4962779606
 30
0.0
 11
1154.0
 21
1136.4231772029
 31
0.0
  0
INSERT
  5
454
330
44E
100
AcDbEntity
  8
寸法
 62
     3
100
AcDbBlockReference
  2
EX_NORM
 10
1154.0
 20
1046.4962779606
 30
0.0
 41
30.0
 42
30.0
 43
30.0
 50
270.0
  0
INSERT
  5
455
330
44E
100
AcDbEntity
  8
寸法
 62
     3
100
AcDbBlockReference
  2
EX_NORM
 10
1154.0
 20
1166.4231772029
 30
0.0
 41
30.0
 42
30.0
 43
30.0
 50
90.0
  0
MTEXT
  5
456
330
44E
100
AcDbEntity
  8
寸法
 62
     2
100
AcDbMText
 10
1130.999999880791
 20
1106.45972758175
 30
0.0
 40
40.0
 41
0.0
 71
     5
 72
     1
  1
120
  7
EXCADDIM1
 11
0.0
 21
1.0
 31
0.0
  0
POINT
  5
457
330
44E
100
AcDbEntity
  8
DEFPOINTS
 62
     0
100
AcDbPoint
 10
1047.65210802636
 20
1046.4962779606
 30
0.0
  0
POINT
  5
458
330
44E
100
AcDbEntity
  8
DEFPOINTS
 62
     0
100
AcDbPoint
 10
1040.56710209764
 20
1166.4231772029
 30
0.0
  0
POINT
  5
459
330
44E
100
AcDbEntity
  8
DEFPOINTS
 62
     0
100
AcDbPoint
 10
1154.0
 20
1166.4231772029
 30
0.0
  0
ENDBLK
  5
450
330
44E
100
AcDbEntity
  8
0
100
AcDbBlockEnd
  0
BLOCK
  5
45C
330
45B
100
AcDbEntity
  8
0
100
AcDbBlockBegin
  2
*D22
 70
     1
 10
0.0
 20
0.0
 30
0.0
  3
*D22
  1

  0
LINE
  5
45E
330
45B
100
AcDbEntity
  8
寸法
  6
CONTINUOUS
 62
     3
100
AcDbLine
 10
926.9953176203609
 20
2373.3578110967
 30
0.0
 11
939.5
 21
2373.3578110967
 31
0.0
  0
LINE
  5
45F
330
45B
100
AcDbEntity
  8
寸法
  6
CONTINUOUS
 62
     3
100
AcDbLine
 10
930.1999998807908
 20
2383.3578110967
 30
0.0
 11
939.5
 21
2383.3578110967
 31
0.0
  0
LINE
  5
460
330
45B
100
AcDbEntity
  8
寸法
  6
CONTINUOUS
 62
     3
100
AcDbLine
 10
929.5
 20
2373.3578110967
 30
0.0
 11
929.5
 21
2383.3578110967
 31
0.0
  0
LINE
  5
461
330
45B
100
AcDbEntity
  8
寸法
  6
CONTINUOUS
 62
     3
100
AcDbLine
 10
929.5
 20
2343.3578110967
 30
0.0
 11
929.5
 21
2313.3578110967
 31
0.0
  0
LINE
  5
462
330
45B
100
AcDbEntity
  8
寸法
  6
CONTINUOUS
 62
     3
100
AcDbLine
 10
929.5
 20
2413.3578110967
 30
0.0
 11
929.5
 21
2443.3578110967
 31
0.0
  0
INSERT
  5
463
330
45B
100
AcDbEntity
  8
寸法
 62
     3
100
AcDbBlockReference
  2
EX_NORM
 10
929.5
 20
2373.3578110967
 30
0.0
 41
30.0
 42
30.0
 43
30.0
 50
90.0
  0
INSERT
  5
464
330
45B
100
AcDbEntity
  8
寸法
 62
     3
100
AcDbBlockReference
  2
EX_NORM
 10
929.5
 20
2383.3578110967
 30
0.0
 41
30.0
 42
30.0
 43
30.0
 50
270.0
  0
MTEXT
  5
465
330
45B
100
AcDbEntity
  8
寸法
 62
     2
100
AcDbMText
 10
906.4999998807914
 20
2448.3578110967
 30
0.0
 40
40.0
 41
0.0
 71
     5
 72
     1
  1
10
  7
EXCADDIM1
 11
0.0
 21
1.0
 31
0.0
  0
POINT
  5
466
330
45B
100
AcDbEntity
  8
DEFPOINTS
 62
     0
100
AcDbPoint
 10
919.9953177395702
 20
2373.3578110967
 30
0.0
  0
POINT
  5
467
330
45B
100
AcDbEntity
  8
DEFPOINTS
 62
     0
100
AcDbPoint
 10
923.2
 20
2383.3578110967
 30
0.0
  0
POINT
  5
468
330
45B
100
AcDbEntity
  8
DEFPOINTS
 62
     0
100
AcDbPoint
 10
929.5
 20
2383.3578110967
 30
0.0
  0
ENDBLK
  5
45D
330
45B
100
AcDbEntity
  8
0
100
AcDbBlockEnd
  0
BLOCK
  5
46B
330
46A
100
AcDbEntity
  8
0
100
AcDbBlockBegin
  2
*D23
 70
     1
 10
0.0
 20
0.0
 30
0.0
  3
*D23
  1

  0
LINE
  5
46D
330
46A
100
AcDbEntity
  8
寸法
  6
CONTINUOUS
 62
     3
100
AcDbLine
 10
1029.899999880791
 20
2351.5197031074
 30
0.0
 11
1120.7699622288
 21
2351.5197031074
 31
0.0
  0
LINE
  5
46E
330
46A
100
AcDbEntity
  8
寸法
  6
CONTINUOUS
 62
     3
100
AcDbLine
 10
1039.652107907151
 20
2388.5178110967
 30
0.0
 11
1120.7699622288
 21
2388.5178110967
 31
0.0
  0
LINE
  5
46F
330
46A
100
AcDbEntity
  8
寸法
  6
CONTINUOUS
 62
     3
100
AcDbLine
 10
1110.7699622288
 20
2351.5197031074
 30
0.0
 11
1110.7699622288
 21
2388.5178110967
 31
0.0
  0
LINE
  5
470
330
46A
100
AcDbEntity
  8
寸法
  6
CONTINUOUS
 62
     3
100
AcDbLine
 10
1110.7699622288
 20
2321.5197031074
 30
0.0
 11
1110.7699622288
 21
2291.5197031074
 31
0.0
  0
LINE
  5
471
330
46A
100
AcDbEntity
  8
寸法
  6
CONTINUOUS
 62
     3
100
AcDbLine
 10
1110.7699622288
 20
2418.5178110967
 30
0.0
 11
1110.7699622288
 21
2448.5178110967
 31
0.0
  0
INSERT
  5
472
330
46A
100
AcDbEntity
  8
寸法
 62
     3
100
AcDbBlockReference
  2
EX_NORM
 10
1110.7699622288
 20
2351.5197031074
 30
0.0
 41
30.0
 42
30.0
 43
30.0
 50
90.0
  0
INSERT
  5
473
330
46A
100
AcDbEntity
  8
寸法
 62
     3
100
AcDbBlockReference
  2
EX_NORM
 10
1110.7699622288
 20
2388.5178110967
 30
0.0
 41
30.0
 42
30.0
 43
30.0
 50
270.0
  0
MTEXT
  5
474
330
46A
100
AcDbEntity
  8
寸法
 62
     2
100
AcDbMText
 10
1087.769962109591
 20
2286.5197031074
 30
0.0
 40
40.0
 41
0.0
 71
     5
 72
     1
  1
37
  7
EXCADDIM1
 11
0.0
 21
1.0
 31
0.0
  0
POINT
  5
475
330
46A
100
AcDbEntity
  8
DEFPOINTS
 62
     0
100
AcDbPoint
 10
1022.9
 20
2351.5197031074
 30
0.0
  0
POINT
  5
476
330
46A
100
AcDbEntity
  8
DEFPOINTS
 62
     0
100
AcDbPoint
 10
1032.65210802636
 20
2388.5178110967
 30
0.0
  0
POINT
  5
477
330
46A
100
AcDbEntity
  8
DEFPOINTS
 62
     0
100
AcDbPoint
 10
1110.7699622288
 20
2388.5178110967
 30
0.0
  0
ENDBLK
  5
46C
330
46A
100
AcDbEntity
  8
0
100
AcDbBlockEnd
  0
BLOCK
  5
47A
330
479
100
AcDbEntity
  8
0
100
AcDbBlockBegin
  2
*D24
 70
     1
 10
0.0
 20
0.0
 30
0.0
  3
*D24
  1

  0
LINE
  5
47C
330
479
100
AcDbEntity
  8
寸法
  6
CONTINUOUS
 62
     3
100
AcDbLine
 10
500.65084072383
 20
2165.0
 30
0.0
 11
437.6521080263601
 21
2165.0
 31
0.0
  0
INSERT
  5
47D
330
479
100
AcDbEntity
  8
寸法
 62
     3
100
AcDbBlockReference
  2
EX_NORM
 10
530.65084072383
 20
2165.0
 30
0.0
 41
30.0
 42
30.0
 43
30.0
  0
INSERT
  5
47E
330
479
100
AcDbEntity
  8
寸法
 62
     3
100
AcDbBlockReference
  2
EX_NORM
 10
407.6521080263601
 20
2165.0
 30
0.0
 41
30.0
 42
30.0
 43
30.0
 50
180.0
  0
MTEXT
  5
47F
330
479
100
AcDbEntity
  8
寸法
 62
     2
100
AcDbMText
 10
610.6508407238307
 20
2188.000000119209
 30
0.0
 40
40.0
 41
0.0
 71
     5
 72
     1
  1
123
  7
EXCADDIM1
  0
POINT
  5
480
330
479
100
AcDbEntity
  8
DEFPOINTS
 62
     0
100
AcDbPoint
 10
530.65084072383
 20
2068.5178110967
 30
0.0
  0
POINT
  5
481
330
479
100
AcDbEntity
  8
DEFPOINTS
 62
     0
100
AcDbPoint
 10
407.6521080263601
 20
2068.5178110967
 30
0.0
  0
POINT
  5
482
330
479
100
AcDbEntity
  8
DEFPOINTS
 62
     0
100
AcDbPoint
 10
407.6521080263601
 20
2165.0
 30
0.0
  0
ENDBLK
  5
47B
330
479
100
AcDbEntity
  8
0
100
AcDbBlockEnd
  0
BLOCK
  5
485
330
484
100
AcDbEntity
  8
0
100
AcDbBlockBegin
  2
*D25
 70
     1
 10
0.0
 20
0.0
 30
0.0
  3
*D25
  1

  0
LINE
  5
487
330
484
100
AcDbEntity
  8
寸法
  6
CONTINUOUS
 62
     3
100
AcDbLine
 10
556.6316028373658
 20
2053.517811096721
 30
0.0
 11
504.6700786102993
 21
2083.51781109672
 31
0.0
  0
MTEXT
  5
488
330
484
100
AcDbEntity
  8
寸法
 62
     2
100
AcDbMText
 10
676.3847783700263
 20
2010.936395487002
 30
0.0
 40
40.0
 41
0.0
 71
     5
 72
     1
  1
%%c120
  7
EXCADDIM1
 11
0.8660254037844419
 21
-0.4999999999999943
 31
0.0
  0
LINE
  5
489
330
484
100
AcDbEntity
  8
寸法
  6
CONTINUOUS
 62
     3
100
AcDbLine
 10
478.689316496766
 20
2098.51781109672
 30
0.0
 11
582.6123649508991
 21
2038.517811096721
 31
0.0
  0
INSERT
  5
48A
330
484
100
AcDbEntity
  8
寸法
 62
     3
100
AcDbBlockReference
  2
EX_NORM
 10
478.689316496766
 20
2098.51781109672
 30
0.0
 41
30.0
 42
30.0
 43
30.0
 50
150.0000000000004
  0
INSERT
  5
48B
330
484
100
AcDbEntity
  8
寸法
 62
     3
100
AcDbBlockReference
  2
EX_NORM
 10
582.6123649508991
 20
2038.517811096721
 30
0.0
 41
30.0
 42
30.0
 43
30.0
 50
330.0000000000004
  0
POINT
  5
48C
330
484
100
AcDbEntity
  8
DEFPOINTS
 62
     0
100
AcDbPoint
 10
582.6123649508991
 20
2038.517811096721
 30
0.0
  0
POINT
  5
48D
330
484
100
AcDbEntity
  8
DEFPOINTS
 62
     0
100
AcDbPoint
 10
478.689316496766
 20
2098.51781109672
 30
0.0
  0
ENDBLK
  5
486
330
484
100
AcDbEntity
  8
0
100
AcDbBlockEnd
  0
BLOCK
  5
490
330
48F
100
AcDbEntity
  8
0
100
AcDbBlockBegin
  2
*D26
 70
     1
 10
0.0
 20
0.0
 30
0.0
  3
*D26
  1

  0
LINE
  5
492
330
48F
100
AcDbEntity
  8
寸法
  6
CONTINUOUS
 62
     3
100
AcDbLine
 10
552.1508407238285
 20
2031.278718733968
 30
0.0
 11
509.1508407238314
 21
2105.756903459432
 31
0.0
  0
MTEXT
  5
493
330
48F
100
AcDbEntity
  8
寸法
 62
     2
100
AcDbMText
 10
634.5694251141058
 20
1934.525543320515
 30
0.0
 40
40.0
 41
0.0
 71
     5
 72
     1
  1
%%c146
  7
EXCADDIM1
 11
0.4999999999999669
 21
-0.8660254037844578
 31
0.0
  0
LINE
  5
494
330
48F
100
AcDbEntity
  8
寸法
  6
CONTINUOUS
 62
     3
100
AcDbLine
 10
494.1508407238324
 20
2131.737665572965
 30
0.0
 11
567.1508407238275
 21
2005.297956620435
 31
0.0
  0
INSERT
  5
495
330
48F
100
AcDbEntity
  8
寸法
 62
     3
100
AcDbBlockReference
  2
EX_NORM
 10
494.1508407238324
 20
2131.737665572965
 30
0.0
 41
30.0
 42
30.0
 43
30.0
 50
119.9999999999978
  0
INSERT
  5
496
330
48F
100
AcDbEntity
  8
寸法
 62
     3
100
AcDbBlockReference
  2
EX_NORM
 10
567.1508407238275
 20
2005.297956620435
 30
0.0
 41
30.0
 42
30.0
 43
30.0
 50
299.9999999999978
  0
POINT
  5
497
330
48F
100
AcDbEntity
  8
DEFPOINTS
 62
     0
100
AcDbPoint
 10
567.1508407238275
 20
2005.297956620435
 30
0.0
  0
POINT
  5
498
330
48F
100
AcDbEntity
  8
DEFPOINTS
 62
     0
100
AcDbPoint
 10
494.1508407238324
 20
2131.737665572965
 30
0.0
  0
ENDBLK
  5
491
330
48F
100
AcDbEntity
  8
0
100
AcDbBlockEnd
  0
BLOCK
  5
49B
330
49A
100
AcDbEntity
  8
0
100
AcDbBlockBegin
  2
*D27
 70
     1
 10
0.0
 20
0.0
 30
0.0
  3
*D27
  1

  0
LINE
  5
49D
330
49A
100
AcDbEntity
  8
寸法
  6
CONTINUOUS
 62
     3
100
AcDbLine
 10
454.6963263734
 20
1031.496278079809
 30
0.0
 11
454.6963263734
 21
912.0
 31
0.0
  0
LINE
  5
49E
330
49A
100
AcDbEntity
  8
寸法
  6
CONTINUOUS
 62
     3
100
AcDbLine
 10
606.6495734213
 20
1031.496278079809
 30
0.0
 11
606.6495734213
 21
912.0
 31
0.0
  0
LINE
  5
49F
330
49A
100
AcDbEntity
  8
寸法
  6
CONTINUOUS
 62
     3
100
AcDbLine
 10
484.6963263734
 20
922.0
 30
0.0
 11
576.6495734213
 21
922.0
 31
0.0
  0
INSERT
  5
4A0
330
49A
100
AcDbEntity
  8
寸法
 62
     3
100
AcDbBlockReference
  2
EX_NORM
 10
454.6963263734
 20
922.0
 30
0.0
 41
30.0
 42
30.0
 43
30.0
 50
180.0
  0
INSERT
  5
4A1
330
49A
100
AcDbEntity
  8
寸法
 62
     3
100
AcDbBlockReference
  2
EX_NORM
 10
606.6495734213
 20
922.0
 30
0.0
 41
30.0
 42
30.0
 43
30.0
  0
MTEXT
  5
4A2
330
49A
100
AcDbEntity
  8
寸法
 62
     2
100
AcDbMText
 10
530.6729498973501
 20
945.0000001192093
 30
0.0
 40
40.0
 41
0.0
 71
     5
 72
     1
  1
%%c152
  7
EXCADDIM1
  0
POINT
  5
4A3
330
49A
100
AcDbEntity
  8
DEFPOINTS
 62
     0
100
AcDbPoint
 10
454.6963263734
 20
1038.4962779606
 30
0.0
  0
POINT
  5
4A4
330
49A
100
AcDbEntity
  8
DEFPOINTS
 62
     0
100
AcDbPoint
 10
606.6495734213
 20
1038.4962779606
 30
0.0
  0
POINT
  5
4A5
330
49A
100
AcDbEntity
  8
DEFPOINTS
 62
     0
100
AcDbPoint
 10
606.6495734213
 20
922.0
 30
0.0
  0
ENDBLK
  5
49C
330
49A
100
AcDbEntity
  8
0
100
AcDbBlockEnd
  0
BLOCK
  5
4AC
330
4AB
100
AcDbEntity
  8
0
100
AcDbBlockBegin
  2
*D28
 70
     1
 10
0.0
 20
0.0
 30
0.0
  3
*D28
  1

  0
LINE
  5
4AE
330
4AB
100
AcDbEntity
  8
詳細図
  6
CONTINUOUS
 62
     3
100
AcDbLine
 10
450.4720545934005
 20
204.8258786584231
 30
0.0
 11
450.4720545934005
 21
180.0
 31
0.0
  0
LINE
  5
4AF
330
4AB
100
AcDbEntity
  8
詳細図
  6
CONTINUOUS
 62
     3
100
AcDbLine
 10
460.4720545934004
 20
204.8258786584231
 30
0.0
 11
460.4720545934004
 21
180.0
 31
0.0
  0
LINE
  5
4B0
330
4AB
100
AcDbEntity
  8
詳細図
  6
CONTINUOUS
 62
     3
100
AcDbLine
 10
450.4720545934005
 20
183.0
 30
0.0
 11
460.4720545934004
 21
183.0
 31
0.0
  0
LINE
  5
4B1
330
4AB
100
AcDbEntity
  8
詳細図
  6
CONTINUOUS
 62
     3
100
AcDbLine
 10
441.4720545934005
 20
183.0
 30
0.0
 11
432.4720545934005
 21
183.0
 31
0.0
  0
LINE
  5
4B2
330
4AB
100
AcDbEntity
  8
詳細図
  6
CONTINUOUS
 62
     3
100
AcDbLine
 10
469.4720545934004
 20
183.0
 30
0.0
 11
478.4720545934004
 21
183.0
 31
0.0
  0
INSERT
  5
4B3
330
4AB
100
AcDbEntity
  8
詳細図
 62
     3
100
AcDbBlockReference
  2
EX_NORM
 10
450.4720545934005
 20
183.0
 30
0.0
 41
9.0
 42
9.0
 43
9.0
  0
INSERT
  5
4B4
330
4AB
100
AcDbEntity
  8
詳細図
 62
     3
100
AcDbBlockReference
  2
EX_NORM
 10
460.4720545934004
 20
183.0
 30
0.0
 41
9.0
 42
9.0
 43
9.0
 50
180.0
  0
MTEXT
  5
4B5
330
4AB
100
AcDbEntity
  8
詳細図
 62
     2
100
AcDbMText
 10
479.9720545934004
 20
189.9000000357628
 30
0.0
 40
12.0
 41
0.0
 71
     5
 72
     1
  1
10
  7
EXCADDIM1
  0
POINT
  5
4B6
330
4AB
100
AcDbEntity
  8
DEFPOINTS
 62
     0
100
AcDbPoint
 10
450.4720545934005
 20
206.9258786226603
 30
0.0
  0
POINT
  5
4B7
330
4AB
100
AcDbEntity
  8
DEFPOINTS
 62
     0
100
AcDbPoint
 10
460.4720545934004
 20
206.9258786226603
 30
0.0
  0
POINT
  5
4B8
330
4AB
100
AcDbEntity
  8
DEFPOINTS
 62
     0
100
AcDbPoint
 10
460.4720545934004
 20
183.0
 30
0.0
  0
ENDBLK
  5
4AD
330
4AB
100
AcDbEntity
  8
0
100
AcDbBlockEnd
  0
BLOCK
  5
4BB
330
4BA
100
AcDbEntity
  8
0
100
AcDbBlockBegin
  2
*D29
 70
     1
 10
0.0
 20
0.0
 30
0.0
  3
*D29
  1

  0
LINE
  5
4BD
330
4BA
100
AcDbEntity
  8
詳細図
  6
CONTINUOUS
 62
     3
100
AcDbLine
 10
452.7720545933997
 20
281.0258785868974
 30
0.0
 11
452.7720545933997
 21
293.1
 31
0.0
  0
LINE
  5
4BE
330
4BA
100
AcDbEntity
  8
詳細図
  6
CONTINUOUS
 62
     3
100
AcDbLine
 10
458.1720545934003
 20
281.0258785868974
 30
0.0
 11
458.1720545934003
 21
293.1
 31
0.0
  0
LINE
  5
4BF
330
4BA
100
AcDbEntity
  8
詳細図
  6
CONTINUOUS
 62
     3
100
AcDbLine
 10
452.7720545933997
 20
290.1
 30
0.0
 11
458.1720545934003
 21
290.1
 31
0.0
  0
LINE
  5
4C0
330
4BA
100
AcDbEntity
  8
詳細図
  6
CONTINUOUS
 62
     3
100
AcDbLine
 10
443.7720545933997
 20
290.1
 30
0.0
 11
434.7720545933997
 21
290.1
 31
0.0
  0
LINE
  5
4C1
330
4BA
100
AcDbEntity
  8
詳細図
  6
CONTINUOUS
 62
     3
100
AcDbLine
 10
467.1720545934003
 20
290.1
 30
0.0
 11
476.1720545934003
 21
290.1
 31
0.0
  0
INSERT
  5
4C2
330
4BA
100
AcDbEntity
  8
詳細図
 62
     3
100
AcDbBlockReference
  2
EX_NORM
 10
452.7720545933997
 20
290.1
 30
0.0
 41
9.0
 42
9.0
 43
9.0
  0
INSERT
  5
4C3
330
4BA
100
AcDbEntity
  8
詳細図
 62
     3
100
AcDbBlockReference
  2
EX_NORM
 10
458.1720545934003
 20
290.1
 30
0.0
 41
9.0
 42
9.0
 43
9.0
 50
180.0
  0
MTEXT
  5
4C4
330
4BA
100
AcDbEntity
  8
詳細図
 62
     2
100
AcDbMText
 10
516.3720545934003
 20
297.0000000357628
 30
0.0
 40
12.0
 41
0.0
 71
     5
 72
     1
  1
%%c5.4
  7
EXCADDIM1
  0
POINT
  5
4C5
330
4BA
100
AcDbEntity
  8
DEFPOINTS
 62
     0
100
AcDbPoint
 10
452.7720545933997
 20
278.9258786226602
 30
0.0
  0
POINT
  5
4C6
330
4BA
100
AcDbEntity
  8
DEFPOINTS
 62
     0
100
AcDbPoint
 10
458.1720545934003
 20
278.9258786226602
 30
0.0
  0
POINT
  5
4C7
330
4BA
100
AcDbEntity
  8
DEFPOINTS
 62
     0
100
AcDbPoint
 10
458.1720545934003
 20
290.1
 30
0.0
  0
ENDBLK
  5
4BC
330
4BA
100
AcDbEntity
  8
0
100
AcDbBlockEnd
  0
BLOCK
  5
4CA
330
4C9
100
AcDbEntity
  8
0
100
AcDbBlockBegin
  2
*D30
 70
     1
 10
0.0
 20
0.0
 30
0.0
  3
*D30
  1

  0
LINE
  5
4CC
330
4C9
100
AcDbEntity
  8
詳細図
  6
CONTINUOUS
 62
     3
100
AcDbLine
 10
450.4720545934005
 20
281.0258785868974
 30
0.0
 11
450.4720545934005
 21
309.9
 31
0.0
  0
LINE
  5
4CD
330
4C9
100
AcDbEntity
  8
詳細図
  6
CONTINUOUS
 62
     3
100
AcDbLine
 10
460.4720545934004
 20
281.0258785868974
 30
0.0
 11
460.4720545934004
 21
309.9
 31
0.0
  0
LINE
  5
4CE
330
4C9
100
AcDbEntity
  8
詳細図
  6
CONTINUOUS
 62
     3
100
AcDbLine
 10
450.4720545934005
 20
306.9
 30
0.0
 11
460.4720545934004
 21
306.9
 31
0.0
  0
LINE
  5
4CF
330
4C9
100
AcDbEntity
  8
詳細図
  6
CONTINUOUS
 62
     3
100
AcDbLine
 10
441.4720545934005
 20
306.9
 30
0.0
 11
432.4720545934005
 21
306.9
 31
0.0
  0
LINE
  5
4D0
330
4C9
100
AcDbEntity
  8
詳細図
  6
CONTINUOUS
 62
     3
100
AcDbLine
 10
469.4720545934004
 20
306.9
 30
0.0
 11
478.4720545934004
 21
306.9
 31
0.0
  0
INSERT
  5
4D1
330
4C9
100
AcDbEntity
  8
詳細図
 62
     3
100
AcDbBlockReference
  2
EX_NORM
 10
450.4720545934005
 20
306.9
 30
0.0
 41
9.0
 42
9.0
 43
9.0
  0
INSERT
  5
4D2
330
4C9
100
AcDbEntity
  8
詳細図
 62
     3
100
AcDbBlockReference
  2
EX_NORM
 10
460.4720545934004
 20
306.9
 30
0.0
 41
9.0
 42
9.0
 43
9.0
 50
180.0
  0
MTEXT
  5
4D3
330
4C9
100
AcDbEntity
  8
詳細図
 62
     2
100
AcDbMText
 10
517.7720545934005
 20
313.8000000357628
 30
0.0
 40
12.0
 41
0.0
 71
     5
 72
     1
  1
%%c10
  7
EXCADDIM1
  0
POINT
  5
4D4
330
4C9
100
AcDbEntity
  8
DEFPOINTS
 62
     0
100
AcDbPoint
 10
450.4720545934005
 20
278.9258786226602
 30
0.0
  0
POINT
  5
4D5
330
4C9
100
AcDbEntity
  8
DEFPOINTS
 62
     0
100
AcDbPoint
 10
460.4720545934004
 20
278.9258786226602
 30
0.0
  0
POINT
  5
4D6
330
4C9
100
AcDbEntity
  8
DEFPOINTS
 62
     0
100
AcDbPoint
 10
460.4720545934004
 20
306.9
 30
0.0
  0
ENDBLK
  5
4CB
330
4C9
100
AcDbEntity
  8
0
100
AcDbBlockEnd
  0
BLOCK
  5
4D9
330
4D8
100
AcDbEntity
  8
0
100
AcDbBlockBegin
  2
*D31
 70
     1
 10
0.0
 20
0.0
 30
0.0
  3
*D31
  1

  0
LINE
  5
4DB
330
4D8
100
AcDbEntity
  8
詳細図
  6
CONTINUOUS
 62
     3
100
AcDbLine
 10
449.4720545934005
 20
321.0258785868974
 30
0.0
 11
449.4720545934005
 21
345.9
 31
0.0
  0
LINE
  5
4DC
330
4D8
100
AcDbEntity
  8
詳細図
  6
CONTINUOUS
 62
     3
100
AcDbLine
 10
461.4720545934007
 20
321.0258785868974
 30
0.0
 11
461.4720545934007
 21
345.9
 31
0.0
  0
LINE
  5
4DD
330
4D8
100
AcDbEntity
  8
詳細図
  6
CONTINUOUS
 62
     3
100
AcDbLine
 10
449.4720545934005
 20
342.9
 30
0.0
 11
461.4720545934007
 21
342.9
 31
0.0
  0
LINE
  5
4DE
330
4D8
100
AcDbEntity
  8
詳細図
  6
CONTINUOUS
 62
     3
100
AcDbLine
 10
440.4720545934005
 20
342.9
 30
0.0
 11
431.4720545934005
 21
342.9
 31
0.0
  0
LINE
  5
4DF
330
4D8
100
AcDbEntity
  8
詳細図
  6
CONTINUOUS
 62
     3
100
AcDbLine
 10
470.4720545934007
 20
342.9
 30
0.0
 11
479.4720545934007
 21
342.9
 31
0.0
  0
INSERT
  5
4E0
330
4D8
100
AcDbEntity
  8
詳細図
 62
     3
100
AcDbBlockReference
  2
EX_NORM
 10
449.4720545934005
 20
342.9
 30
0.0
 41
9.0
 42
9.0
 43
9.0
  0
INSERT
  5
4E1
330
4D8
100
AcDbEntity
  8
詳細図
 62
     3
100
AcDbBlockReference
  2
EX_NORM
 10
461.4720545934007
 20
342.9
 30
0.0
 41
9.0
 42
9.0
 43
9.0
 50
180.0
  0
MTEXT
  5
4E2
330
4D8
100
AcDbEntity
  8
詳細図
 62
     2
100
AcDbMText
 10
485.4720545934007
 20
349.8000000357628
 30
0.0
 40
12.0
 41
0.0
 71
     5
 72
     1
  1
%%c12
  7
EXCADDIM1
  0
POINT
  5
4E3
330
4D8
100
AcDbEntity
  8
DEFPOINTS
 62
     0
100
AcDbPoint
 10
449.4720545934005
 20
318.9258786226602
 30
0.0
  0
POINT
  5
4E4
330
4D8
100
AcDbEntity
  8
DEFPOINTS
 62
     0
100
AcDbPoint
 10
461.4720545934007
 20
318.9258786226602
 30
0.0
  0
POINT
  5
4E5
330
4D8
100
AcDbEntity
  8
DEFPOINTS
 62
     0
100
AcDbPoint
 10
461.4720545934007
 20
342.9
 30
0.0
  0
ENDBLK
  5
4DA
330
4D8
100
AcDbEntity
  8
0
100
AcDbBlockEnd
  0
BLOCK
  5
4E8
330
4E7
100
AcDbEntity
  8
0
100
AcDbBlockBegin
  2
*D32
 70
     1
 10
0.0
 20
0.0
 30
0.0
  3
*D32
  1

  0
LINE
  5
4EA
330
4E7
100
AcDbEntity
  8
詳細図
  6
CONTINUOUS
 62
     3
100
AcDbLine
 10
447.9688287869001
 20
321.0258785868974
 30
0.0
 11
447.9688287869001
 21
362.1
 31
0.0
  0
LINE
  5
4EB
330
4E7
100
AcDbEntity
  8
詳細図
  6
CONTINUOUS
 62
     3
100
AcDbLine
 10
462.9469368859999
 20
321.0258785868974
 30
0.0
 11
462.9469368859999
 21
362.1
 31
0.0
  0
LINE
  5
4EC
330
4E7
100
AcDbEntity
  8
詳細図
  6
CONTINUOUS
 62
     3
100
AcDbLine
 10
447.9688287869001
 20
359.1
 30
0.0
 11
462.9469368859999
 21
359.1
 31
0.0
  0
LINE
  5
4ED
330
4E7
100
AcDbEntity
  8
詳細図
  6
CONTINUOUS
 62
     3
100
AcDbLine
 10
438.9688287869001
 20
359.1
 30
0.0
 11
429.9688287869001
 21
359.1
 31
0.0
  0
LINE
  5
4EE
330
4E7
100
AcDbEntity
  8
詳細図
  6
CONTINUOUS
 62
     3
100
AcDbLine
 10
471.9469368859999
 20
359.1
 30
0.0
 11
480.9469368859999
 21
359.1
 31
0.0
  0
INSERT
  5
4EF
330
4E7
100
AcDbEntity
  8
詳細図
 62
     3
100
AcDbBlockReference
  2
EX_NORM
 10
447.9688287869001
 20
359.1
 30
0.0
 41
9.0
 42
9.0
 43
9.0
  0
INSERT
  5
4F0
330
4E7
100
AcDbEntity
  8
詳細図
 62
     3
100
AcDbBlockReference
  2
EX_NORM
 10
462.9469368859999
 20
359.1
 30
0.0
 41
9.0
 42
9.0
 43
9.0
 50
180.0
  0
MTEXT
  5
4F1
330
4E7
100
AcDbEntity
  8
詳細図
 62
     2
100
AcDbMText
 10
486.9469368859999
 20
366.0000000357628
 30
0.0
 40
12.0
 41
0.0
 71
     5
 72
     1
  1
%%c15
  7
EXCADDIM1
  0
POINT
  5
4F2
330
4E7
100
AcDbEntity
  8
DEFPOINTS
 62
     0
100
AcDbPoint
 10
447.9688287869001
 20
318.9258786226602
 30
0.0
  0
POINT
  5
4F3
330
4E7
100
AcDbEntity
  8
DEFPOINTS
 62
     0
100
AcDbPoint
 10
462.9469368859999
 20
318.9258786226602
 30
0.0
  0
POINT
  5
4F4
330
4E7
100
AcDbEntity
  8
DEFPOINTS
 62
     0
100
AcDbPoint
 10
462.9469368859999
 20
359.1
 30
0.0
  0
ENDBLK
  5
4E9
330
4E7
100
AcDbEntity
  8
0
100
AcDbBlockEnd
  0
BLOCK
  5
544
330
543
100
AcDbEntity
  8
0
100
AcDbBlockBegin
  2
*D33
 70
     1
 10
0.0
 20
0.0
 30
0.0
  3
*D33
  1

  0
LINE
  5
546
330
543
100
AcDbEntity
  8
詳細-寸法
  6
CONTINUOUS
 62
     3
100
AcDbLine
 10
445.8688288226828
 20
318.92587862265
 30
0.0
 11
407.3999999999997
 21
318.92587862265
 31
0.0
  0
LINE
  5
547
330
543
100
AcDbEntity
  8
詳細-寸法
  6
CONTINUOUS
 62
     3
100
AcDbLine
 10
448.3720546291327
 20
278.92587862265
 30
0.0
 11
407.3999999999997
 21
278.92587862265
 31
0.0
  0
LINE
  5
548
330
543
100
AcDbEntity
  8
詳細-寸法
  6
CONTINUOUS
 62
     3
100
AcDbLine
 10
410.3999999999999
 20
309.92587862265
 30
0.0
 11
410.3999999999999
 21
287.92587862265
 31
0.0
  0
INSERT
  5
549
330
543
100
AcDbEntity
  8
詳細-寸法
 62
     3
100
AcDbBlockReference
  2
EX_NORM
 10
410.3999999999999
 20
318.92587862265
 30
0.0
 41
9.0
 42
9.0
 43
9.0
 50
90.0
  0
INSERT
  5
54A
330
543
100
AcDbEntity
  8
詳細-寸法
 62
     3
100
AcDbBlockReference
  2
EX_NORM
 10
410.3999999999999
 20
278.92587862265
 30
0.0
 41
9.0
 42
9.0
 43
9.0
 50
270.0
  0
MTEXT
  5
54B
330
543
100
AcDbEntity
  8
詳細-寸法
 62
     2
100
AcDbMText
 10
403.4999999642371
 20
298.92587862265
 30
0.0
 40
12.0
 41
0.0
 71
     5
 72
     1
  1
40
  7
EXCADDIM1
 11
0.0
 21
1.0
 31
0.0
  0
POINT
  5
54C
330
543
100
AcDbEntity
  8
DEFPOINTS
 62
     0
100
AcDbPoint
 10
447.96882878692
 20
318.92587862265
 30
0.0
  0
POINT
  5
54D
330
543
100
AcDbEntity
  8
DEFPOINTS
 62
     0
100
AcDbPoint
 10
450.4720545933699
 20
278.92587862265
 30
0.0
  0
POINT
  5
54E
330
543
100
AcDbEntity
  8
DEFPOINTS
 62
     0
100
AcDbPoint
 10
410.3999999999999
 20
278.92587862265
 30
0.0
  0
ENDBLK
  5
545
330
543
100
AcDbEntity
  8
0
100
AcDbBlockEnd
  0
BLOCK
  5
551
330
550
100
AcDbEntity
  8
0
100
AcDbBlockBegin
  2
*D34
 70
     1
 10
0.0
 20
0.0
 30
0.0
  3
*D34
  1

  0
LINE
  5
553
330
550
100
AcDbEntity
  8
詳細-寸法
  6
CONTINUOUS
 62
     3
100
AcDbLine
 10
448.3720546291327
 20
278.92587862265
 30
0.0
 11
407.3999999999997
 21
278.92587862265
 31
0.0
  0
LINE
  5
554
330
550
100
AcDbEntity
  8
詳細-寸法
  6
CONTINUOUS
 62
     3
100
AcDbLine
 10
437.9943224889527
 20
206.92587862265
 30
0.0
 11
407.3999999999997
 21
206.92587862265
 31
0.0
  0
LINE
  5
555
330
550
100
AcDbEntity
  8
詳細-寸法
  6
CONTINUOUS
 62
     3
100
AcDbLine
 10
410.3999999999999
 20
269.92587862265
 30
0.0
 11
410.3999999999999
 21
215.92587862265
 31
0.0
  0
INSERT
  5
556
330
550
100
AcDbEntity
  8
詳細-寸法
 62
     3
100
AcDbBlockReference
  2
EX_NORM
 10
410.3999999999999
 20
278.92587862265
 30
0.0
 41
9.0
 42
9.0
 43
9.0
 50
90.0
  0
INSERT
  5
557
330
550
100
AcDbEntity
  8
詳細-寸法
 62
     3
100
AcDbBlockReference
  2
EX_NORM
 10
410.3999999999999
 20
206.92587862265
 30
0.0
 41
9.0
 42
9.0
 43
9.0
 50
270.0
  0
MTEXT
  5
558
330
550
100
AcDbEntity
  8
詳細-寸法
 62
     2
100
AcDbMText
 10
403.4999999642371
 20
242.9258786226499
 30
0.0
 40
12.0
 41
0.0
 71
     5
 72
     1
  1
72
  7
EXCADDIM1
 11
0.0
 21
1.0
 31
0.0
  0
POINT
  5
559
330
550
100
AcDbEntity
  8
DEFPOINTS
 62
     0
100
AcDbPoint
 10
450.4720545933699
 20
278.92587862265
 30
0.0
  0
POINT
  5
55A
330
550
100
AcDbEntity
  8
DEFPOINTS
 62
     0
100
AcDbPoint
 10
440.0943224531899
 20
206.92587862265
 30
0.0
  0
POINT
  5
55B
330
550
100
AcDbEntity
  8
DEFPOINTS
 62
     0
100
AcDbPoint
 10
410.3999999999999
 20
206.92587862265
 30
0.0
  0
ENDBLK
  5
552
330
550
100
AcDbEntity
  8
0
100
AcDbBlockEnd
  0
ENDSEC
  0
SECTION
  2
ENTITIES
  0
TEXT
  5
AC
330
1F
100
AcDbEntity
  8
0
  6
CONTINUOUS
 62
     2
100
AcDbText
 10
91.6000000000003
 20
11.65000000000003
 30
0.0
 40
3.375
  1
ジャニス工業株式会社
 41
1.025641025641026
  7
EXCADTTF1
 72
     5
 11
136.6000000000003
 21
11.65000000000003
 31
0.0
100
AcDbText
  0
HATCH
  5
AD
330
1F
100
AcDbEntity
  8
0
  6
CONTINUOUS
 62
     3
100
AcDbHatch
 10
0.0
 20
0.0
 30
0.0
210
0.0
220
0.0
230
1.0
  2
SOLID
 70
     1
 71
     1
 91
        2
 92
        3
 72
     1
 73
     1
 93
       27
 10
79.31727657332505
 20
15.13644932975409
 42
-0.1769427732109284
 10
79.31727657332505
 20
15.1364493297541
 42
0.0
 10
79.31727657332505
 20
14.77194932975408
 42
0.0
 10
79.4050265733251
 20
14.77194932975404
 42
-0.207533601427307
 10
79.97474227895702
 20
15.19932359129048
 42
-0.1226604740888933
 10
80.47827657332509
 20
15.21002432975408
 42
-0.3213715781137954
 10
80.99883280222092
 20
14.57106514378476
 42
-0.064704004662446
 10
81.00140157332494
 20
14.23329932975406
 42
-0.257798906330806
 10
80.89542657332505
 20
14.10504932975406
 42
-0.056602577721096
 10
80.66862657332503
 20
14.02607432975409
 42
-0.0166741689362636
 10
79.83702657332505
 20
13.86812432975407
 42
0.1186092302783404
 10
79.28825157332507
 20
13.60487432975407
 42
0.1699204224386695
 10
79.04930157332502
 20
13.20527432975406
 42
0.1006533494296199
 10
79.02720866795816
 20
12.85853555095727
 42
0.1675695228968024
 10
79.24370157332507
 20
12.39392432975407
 42
0.1376980079804242
 10
79.63722657332501
 20
12.16644932975409
 42
0.0719813663796923
 10
79.81610157332494
 20
12.13674932975408
 42
0.0
 10
80.09015157332504
 20
12.13674932975409
 42
0.1944607457809085
 10
80.99937657332505
 20
12.60452432975407
 42
0.1288538183665954
 10
81.09117657332496
 20
12.37502432975404
 42
0.2098387395261546
 10
81.39087657332499
 20
12.20964932975409
 42
0.0
 10
81.60822657332504
 20
12.20829932975409
 42
0.0945009641609563
 10
81.92210157332505
 20
12.27512432975408
 42
0.0
 10
81.92210157332504
 20
12.43239932975407
 42
-0.2395739894657535
 10
81.6480515733251
 20
12.42969932975405
 42
-0.2502312110031057
 10
81.51305157332499
 20
12.68349932975415
 42
-0.0104343570771765
 10
81.53127657332502
 20
14.57619932975406
 42
0.4051015674140716
 97
        0
 92
        3
 72
     1
 73
     1
 93
        8
 10
81.01355157332499
 20
13.90254932975406
 42
-0.0339435190873666
 10
81.01355157332546
 20
13.90254932975294
 42
-0.0001110072973599
 10
80.98520157332511
 20
12.86844932975405
 42
-0.2253076310552528
 10
80.276451573325
 20
12.3952743297541
 42
0.0
 10
80.10297657332494
 20
12.3952743297541
 42
-0.3657967558150132
 10
79.58727657332503
 20
12.94337432975408
 42
0.0
 10
79.58727657332511
 20
13.13912432975409
 42
-0.2530797830369341
 10
79.93557657332502
 20
13.62107432975406
 42
-0.0724473624720066
 97
        0
 75
     0
 76
     1
 98
        1
 10
0.0
 20
0.0
  0
HATCH
  5
AE
330
1F
100
AcDbEntity
  8
0
  6
CONTINUOUS
 62
     3
100
AcDbHatch
 10
0.0
 20
0.0
 30
0.0
210
0.0
220
0.0
230
1.0
  2
SOLID
 70
     1
 71
     1
 91
        1
 92
        3
 72
     1
 73
     1
 93
       30
 10
90.073401573325
 20
15.33354932975412
 42
-0.0009362235736497
 10
90.07340157332501
 20
15.33354932975407
 42
0.0681165430304653
 10
89.90970934867318
 20
14.84282432975408
 42
0.0
 10
89.29310157332509
 20
15.26469932975409
 42
-0.302112590907374
 10
89.29310157332503
 20
15.26469932975408
 42
0.0
 10
88.67142657332504
 20
14.78814932975408
 42
-0.3704245237568778
 10
88.67142657332494
 20
14.78814932975405
 42
0.0
 10
88.70382657332496
 20
14.46954932975407
 42
-0.0262822419456939
 10
89.08722657332507
 20
14.16309932975405
 42
-0.180060563604375
 10
89.69877657332508
 20
13.97679932975409
 42
-0.0298130817160724
 10
89.69877657332505
 20
13.97679932975406
 42
-0.3153987453686078
 10
90.26240157332501
 20
13.33217432975408
 42
0.0
 10
90.25902657332506
 20
13.04394932975405
 42
-0.3510306079065168
 10
89.17227657332495
 20
12.13269932975408
 42
0.0
 10
88.85502657332499
 20
12.13269932975405
 42
-0.1053356344842436
 10
88.153026573325
 20
12.33519932975408
 42
0.1188608286962634
 10
88.28127657332499
 20
12.8481993297541
 42
0.0
 10
89.05077657332508
 20
12.37569932975408
 42
-0.2447573632916039
 10
89.05077657332498
 20
12.37569932975407
 42
0.0
 10
89.79327657332507
 20
12.89544932975409
 42
-0.3734162676407277
 10
89.79327657332504
 20
12.89544932975406
 42
0.0
 10
89.52395157332504
 20
13.41452432975409
 42
-0.261219770190848
 10
88.895526573325
 20
13.64267432975409
 42
-0.0572747914118363
 10
88.8955265733251
 20
13.64267432975408
 42
-0.1189658875692221
 10
88.39602657332497
 20
13.93562432975409
 42
-0.2005226878639636
 10
88.18677657332495
 20
14.40744932975628
 42
0.0
 10
88.18340157332507
 20
14.58632432975405
 42
-0.2622894489606957
 10
88.72002657332504
 20
15.40644932975409
 42
-0.0988461274137808
 10
89.22222657332503
 20
15.52727432975405
 42
0.0
 10
89.40852657332496
 20
15.52727432975409
 42
-0.0920156312561188
 97
        0
 75
     0
 76
     1
 98
        1
 10
0.0
 20
0.0
  0
ARC
  5
AF
330
1F
100
AcDbEntity
  8
0
  6
CONTINUOUS
 62
     3
100
AcDbCircle
 10
91.7842481068871
 20
14.49019437507496
 30
0.0
 40
1.907418003737831
100
AcDbArc
 50
153.7591918158497
 51
169.3462759801917
  0
LINE
  5
B0
330
1F
100
AcDbEntity
  8
0
  6
CONTINUOUS
 62
     3
100
AcDbLine
 10
89.82432657332498
 20
14.84282432975408
 30
0.0
 11
89.90970934867318
 21
14.84282432975408
 31
0.0
  0
LINE
  5
B1
330
1F
100
AcDbEntity
  8
0
  6
CONTINUOUS
 62
     3
100
AcDbLine
 10
89.18375157332497
 20
15.26199932975408
 30
0.0
 11
89.29310157332503
 21
15.26469932975408
 31
0.0
  0
LINE
  5
B2
330
1F
100
AcDbEntity
  8
0
  6
CONTINUOUS
 62
     3
100
AcDbLine
 10
88.18340157332506
 20
14.58632432975406
 30
0.0
 11
88.18677657332495
 21
14.40744932975628
 31
0.0
  0
LINE
  5
B3
330
1F
100
AcDbEntity
  8
0
  6
CONTINUOUS
 62
     3
100
AcDbLine
 10
88.67142657332494
 20
14.78814932975405
 30
0.0
 11
88.66197657332503
 21
14.61129932975405
 31
0.0
  0
LINE
  5
B4
330
1F
100
AcDbEntity
  8
0
  6
CONTINUOUS
 62
     3
100
AcDbLine
 10
90.26240157332501
 20
13.33217432975408
 30
0.0
 11
90.259026573325
 21
13.04394932975407
 31
0.0
  0
LINE
  5
B5
330
1F
100
AcDbEntity
  8
0
  6
CONTINUOUS
 62
     3
100
AcDbLine
 10
89.78652657332503
 20
13.05069932975408
 30
0.0
 11
89.79327657332504
 21
12.89544932975406
 31
0.0
  0
ARC
  5
B6
330
1F
100
AcDbEntity
  8
0
  6
CONTINUOUS
 62
     3
100
AcDbCircle
 10
87.15344131320938
 20
12.85779759565003
 30
0.0
 40
1.127953740078838
100
AcDbArc
 50
332.3987521421788
 51
359.5124385477116
  0
LINE
  5
B7
330
1F
100
AcDbEntity
  8
0
  6
CONTINUOUS
 62
     3
100
AcDbLine
 10
79.31727657332505
 20
14.77194932975408
 30
0.0
 11
79.40502657332507
 21
14.77194932975408
 31
0.0
  0
HATCH
  5
B8
330
1F
100
AcDbEntity
  8
0
  6
CONTINUOUS
 62
     3
100
AcDbHatch
 10
0.0
 20
0.0
 30
0.0
210
0.0
220
0.0
230
1.0
  2
SOLID
 70
     1
 71
     1
 91
        2
 92
        1
 93
        1
 72
     2
 10
86.92855140383352
 20
16.6583546687371
 40
0.3572334466769884
 50
0.0
 51
360.0
 73
     1
 97
        0
 92
        3
 72
     1
 73
     1
 93
        3
 10
86.60930157332503
 20
15.46989932975407
 42
0.1200283885712921
 10
87.23030157332504
 20
12.20627432975403
 42
-0.0401820615762149
 10
86.60997657332503
 20
12.20424932975407
 42
-0.0237521668114666
 97
        0
 75
     0
 76
     1
 98
        1
 10
0.0
 20
0.0
  0
HATCH
  5
B9
330
1F
100
AcDbEntity
  8
0
  6
CONTINUOUS
 62
     3
100
AcDbHatch
 10
0.0
 20
0.0
 30
0.0
210
0.0
220
0.0
230
1.0
  2
SOLID
 70
     1
 71
     1
 91
        1
 92
        3
 72
     1
 73
     1
 93
       16
 10
82.686876573325
 20
12.21032432975406
 42
-0.0386228372648426
 10
82.68080157332498
 20
15.46449932975407
 42
-0.0398707891902887
 10
83.27142657332496
 20
15.46719932975408
 42
-0.1256886216044368
 10
83.24442657332501
 20
14.91504932975407
 42
-0.0367815758121429
 10
83.24442657332501
 20
14.91504932975405
 42
-0.268021535028829
 10
84.435801573325
 20
15.53334932975407
 42
-0.2571134422124888
 10
85.250526573325
 20
15.1303743297541
 42
-0.1522526366014298
 10
85.45775157332506
 20
14.46009932975407
 42
-0.0158825412051521
 10
85.44290157332497
 20
12.20694932975407
 42
-0.0285251271418421
 10
84.87252657332505
 20
12.20694932975406
 42
-0.0452212723224612
 10
84.90155157332507
 20
14.28864932975409
 42
-0.0315567291532142
 10
84.72470157332498
 20
14.90357432975409
 42
-0.1476272403790709
 10
83.57315157332499
 20
14.99199932975406
 42
-0.3908144705745794
 10
83.24847657332504
 20
14.18402432975405
 42
-0.2046259928850854
 10
83.24847657332504
 20
14.1840243297541
 42
0.0
 10
83.29910157332502
 20
12.20492432975408
 42
-0.0304995761723369
 97
        0
 75
     0
 76
     1
 98
        1
 10
0.0
 20
0.0
  0
HATCH
  5
BA
330
1F
100
AcDbEntity
  8
0
  6
CONTINUOUS
 62
     3
100
AcDbHatch
 10
0.0
 20
0.0
 30
0.0
210
0.0
220
0.0
230
1.0
  2
SOLID
 70
     1
 71
     1
 91
        1
 92
        3
 72
     1
 73
     1
 93
       10
 10
76.77252657332507
 20
12.32169932975406
 42
-0.017362223501556
 10
76.781301573325
 20
17.61842432975411
 42
-0.0267627618865285
 10
76.78130157332504
 20
17.61842432975408
 42
0.0737939047395297
 10
78.07325157332507
 20
17.623824329754
 42
0.0183878899657109
 10
78.02127657332504
 20
12.84819932975405
 42
-0.1144749489451909
 10
77.81202657332496
 20
11.84244932975405
 42
-0.1929163439413163
 10
76.81640157332507
 20
11.06079932975405
 42
-0.0603888289562337
 10
76.28855157332504
 20
10.92917432975406
 42
0.0
 10
76.16502657332501
 20
11.30514932975406
 42
0.0860918333465722
 10
76.53425157332501
 20
11.50157432975406
 42
0.1331843103855141
 97
        0
 75
     0
 76
     1
 98
        1
 10
0.0
 20
0.0
  0
LINE
  5
BB
330
1F
100
AcDbEntity
  8
0
  6
CONTINUOUS
 62
     3
100
AcDbLine
 10
88.855026573325
 20
12.13269932975408
 30
0.0
 11
89.17227657332495
 21
12.13269932975408
 31
0.0
  0
LINE
  5
BC
330
1F
100
AcDbEntity
  8
0
  6
CONTINUOUS
 62
     3
100
AcDbLine
 10
88.36902657332502
 20
12.8481993297541
 30
0.0
 11
88.28127657332499
 21
12.8481993297541
 31
0.0
  0
LINE
  5
BD
330
1F
100
AcDbEntity
  8
0
  6
CONTINUOUS
 62
     3
100
AcDbLine
 10
89.05077657332498
 20
12.37569932975407
 30
0.0
 11
89.21277657332502
 21
12.37569932975407
 31
0.0
  0
LINE
  5
BE
330
1F
100
AcDbEntity
  8
0
  6
CONTINUOUS
 62
     3
100
AcDbLine
 10
89.40852657332499
 20
15.52727432975405
 30
0.0
 11
89.22222657332503
 21
15.52727432975405
 31
0.0
  0
ARC
  5
BF
330
1F
100
AcDbEntity
  8
0
  6
CONTINUOUS
 62
     3
100
AcDbCircle
 10
89.24147339127506
 20
14.65429236291669
 30
0.0
 40
0.612586430102253
100
AcDbArc
 50
17.92452211681263
 51
85.16543319077402
  0
ARC
  5
C0
330
1F
100
AcDbEntity
  8
0
  6
CONTINUOUS
 62
     3
100
AcDbCircle
 10
89.20350964860535
 20
14.72674994707921
 30
0.0
 40
0.535613931103931
100
AcDbArc
 50
92.11404364449162
 51
173.4175047026091
  0
ARC
  5
C1
330
1F
100
AcDbEntity
  8
0
  6
CONTINUOUS
 62
     3
100
AcDbCircle
 10
90.03031407332622
 20
14.93823182975444
 30
0.0
 40
1.4068519372934
100
AcDbArc
 50
193.4375782160214
 51
199.459638038058
  0
ARC
  5
C2
330
1F
100
AcDbEntity
  8
0
  6
CONTINUOUS
 62
     3
100
AcDbCircle
 10
89.30721352387451
 20
14.83138641766612
 30
0.0
 40
0.703563707337184
100
AcDbArc
 50
210.9501336849607
 51
251.7794729821079
  0
ARC
  5
C3
330
1F
100
AcDbEntity
  8
0
  6
CONTINUOUS
 62
     3
100
AcDbCircle
 10
90.9538466969206
 20
19.19359310503512
 30
0.0
 40
5.36564425851668
100
AcDbArc
 50
249.6420733479936
 51
256.4727051201885
  0
ARC
  5
C4
330
1F
100
AcDbEntity
  8
0
  6
CONTINUOUS
 62
     3
100
AcDbCircle
 10
89.52045721291955
 20
13.25217258531575
 30
0.0
 40
0.746245075729606
100
AcDbArc
 50
6.154262763177246
 51
76.17509904255616
  0
ARC
  5
C5
330
1F
100
AcDbEntity
  8
0
  6
CONTINUOUS
 62
     3
100
AcDbCircle
 10
89.1466388646756
 20
13.26692467118045
 30
0.0
 40
1.134515058180645
100
AcDbArc
 50
271.2948770866743
 51
348.6654156292868
  0
ARC
  5
C6
330
1F
100
AcDbEntity
  8
0
  6
CONTINUOUS
 62
     3
100
AcDbCircle
 10
88.97930054592774
 20
13.88156576811025
 30
0.0
 40
1.75327631578002
100
AcDbArc
 50
241.8829576087176
 51
265.9354096935781
  0
ARC
  5
C7
330
1F
100
AcDbEntity
  8
0
  6
CONTINUOUS
 62
     3
100
AcDbCircle
 10
89.16361043234866
 20
13.26658639777384
 30
0.0
 40
0.898004035462527
100
AcDbArc
 50
207.7689879465537
 51
262.7817283832026
  0
ARC
  5
C8
330
1F
100
AcDbEntity
  8
0
  6
CONTINUOUS
 62
     3
100
AcDbCircle
 10
89.20357777446515
 20
12.97002363757167
 30
0.0
 40
0.594395491876676
100
AcDbArc
 50
270.8867385422408
 51
352.7925382056677
  0
ARC
  5
C9
330
1F
100
AcDbEntity
  8
0
  6
CONTINUOUS
 62
     3
100
AcDbCircle
 10
89.33080045853666
 20
12.99846225433168
 30
0.0
 40
0.458710152219014
100
AcDbArc
 50
6.53892419415897
 51
65.09756080693691
  0
ARC
  5
CA
330
1F
100
AcDbEntity
  8
0
  6
CONTINUOUS
 62
     3
100
AcDbCircle
 10
88.2171489183043
 20
10.79457141755211
 30
0.0
 40
2.927778413972754
100
AcDbArc
 50
63.49050203733571
 51
76.60259219849584
  0
ARC
  5
CB
330
1F
100
AcDbEntity
  8
0
  6
CONTINUOUS
 62
     3
100
AcDbCircle
 10
89.25268145799504
 20
14.82396411006687
 30
0.0
 40
1.234100950779567
100
AcDbArc
 50
226.0402388947521
 51
253.1776672992999
  0
ARC
  5
CC
330
1F
100
AcDbEntity
  8
0
  6
CONTINUOUS
 62
     3
100
AcDbCircle
 10
88.85599257925998
 20
14.4219276907553
 30
0.0
 40
0.669372605905611
100
AcDbArc
 50
181.2393899443581
 51
226.5942921332421
  0
ARC
  5
CD
330
1F
100
AcDbEntity
  8
0
  6
CONTINUOUS
 62
     3
100
AcDbCircle
 10
89.17963496799615
 20
14.52009291101865
 30
0.0
 40
0.99843256030919
100
AcDbArc
 50
117.4083995939977
 51
176.1964688215695
  0
ARC
  5
CE
330
1F
100
AcDbEntity
  8
0
  6
CONTINUOUS
 62
     3
100
AcDbCircle
 10
89.27711044283905
 20
14.20979097937612
 30
0.0
 40
1.319974865367525
100
AcDbArc
 50
92.38301574576484
 51
114.9635286746436
  0
ARC
  5
CF
330
1F
100
AcDbEntity
  8
0
  6
CONTINUOUS
 62
     3
100
AcDbCircle
 10
89.38542828460567
 20
14.51663038363955
 30
0.0
 40
1.010907867592157
100
AcDbArc
 50
67.66151957087348
 51
88.69073168448988
  0
ARC
  5
D0
330
1F
100
AcDbEntity
  8
0
  6
CONTINUOUS
 62
     3
100
AcDbCircle
 10
121.4644453232815
 20
96.50297432964203
 30
0.0
 40
87.02800228963156
100
AcDbArc
 50
248.6422112053103
 51
248.8567777804232
  0
ARC
  5
D1
330
1F
100
AcDbEntity
  8
0
  6
CONTINUOUS
 62
     3
100
AcDbCircle
 10
64.46900575363867
 20
13.83249792766236
 30
0.0
 40
22.20076085035812
100
AcDbArc
 50
355.7940354718673
 51
4.229650257234378
  0
ARC
  5
D2
330
1F
100
AcDbEntity
  8
0
  6
CONTINUOUS
 62
     3
100
AcDbCircle
 10
107.5254047179557
 20
13.81881005739388
 30
0.0
 40
20.35906390589
100
AcDbArc
 50
175.3387608397566
 51
184.5428594926176
  0
ARC
  5
D3
330
1F
100
AcDbEntity
  8
0
  6
CONTINUOUS
 62
     3
100
AcDbCircle
 10
86.94144089371338
 20
5.679804184123327
 30
0.0
 40
6.532859485251088
100
AcDbArc
 50
87.46575055044718
 51
92.90832285102188
  0
ARC
  5
D4
330
1F
100
AcDbEntity
  8
0
  6
CONTINUOUS
 62
     3
100
AcDbCircle
 10
86.91456076027731
 20
16.75332474358078
 30
0.0
 40
1.319228548840207
100
AcDbArc
 50
256.6209501743446
 51
283.9984576255729
  0
CIRCLE
  5
D5
330
1F
100
AcDbEntity
  8
0
  6
CONTINUOUS
 62
     3
100
AcDbCircle
 10
86.92855140383352
 20
16.6583546687371
 30
0.0
 40
0.357233446676989
  0
LINE
  5
D6
330
1F
100
AcDbEntity
  8
0
  6
CONTINUOUS
 62
     3
100
AcDbLine
 10
83.24847657332504
 20
14.1840243297541
 30
0.0
 11
83.24847657332504
 21
13.10469932975406
 31
0.0
  0
ARC
  5
D7
330
1F
100
AcDbEntity
  8
0
  6
CONTINUOUS
 62
     3
100
AcDbCircle
 10
62.31176988671592
 20
13.79938058671746
 30
0.0
 40
20.43697806131072
100
AcDbArc
 50
355.5405243117485
 51
4.673398698656258
  0
ARC
  5
D8
330
1F
100
AcDbEntity
  8
0
  6
CONTINUOUS
 62
     3
100
AcDbCircle
 10
82.97082849861232
 20
16.62206879814488
 30
0.0
 40
1.193349358546016
100
AcDbArc
 50
255.9341994177206
 51
284.5896440601899
  0
ARC
  5
D9
330
1F
100
AcDbEntity
  8
0
  6
CONTINUOUS
 62
     3
100
AcDbCircle
 10
87.00574727396162
 20
15.00785681383053
 30
0.0
 40
3.762465500458181
100
AcDbArc
 50
172.9875214416311
 51
181.4134392789641
  0
ARC
  5
DA
330
1F
100
AcDbEntity
  8
0
  6
CONTINUOUS
 62
     3
100
AcDbCircle
 10
84.37541069002549
 20
14.192759888186
 30
0.0
 40
1.34194899665726
100
AcDbArc
 50
87.42068310381028
 51
147.4361518966862
  0
ARC
  5
DB
330
1F
100
AcDbEntity
  8
0
  6
CONTINUOUS
 62
     3
100
AcDbCircle
 10
84.47724057413762
 20
14.59204664797994
 30
0.0
 40
0.94221437555554
100
AcDbArc
 50
34.84393737091607
 51
92.5207065423111
  0
ARC
  5
DC
330
1F
100
AcDbEntity
  8
0
  6
CONTINUOUS
 62
     3
100
AcDbCircle
 10
84.27905515344827
 20
14.46285942451527
 30
0.0
 40
1.17869965146059
100
AcDbArc
 50
359.8658335690532
 51
34.49363429411157
  0
ARC
  5
DD
330
1F
100
AcDbEntity
  8
0
  6
CONTINUOUS
 62
     3
100
AcDbCircle
 10
79.31913601210061
 20
14.23315774812141
 30
0.0
 40
6.142809087866958
100
AcDbArc
 50
358.4775281223095
 51
2.117232414210064
  0
ARC
  5
DE
330
1F
100
AcDbEntity
  8
0
  6
CONTINUOUS
 62
     3
100
AcDbCircle
 10
101.7657633661698
 20
12.99067374739133
 30
0.0
 40
16.34166579853822
100
AcDbArc
 50
176.2131780319488
 51
182.7488833337936
  0
ARC
  5
DF
330
1F
100
AcDbEntity
  8
0
  6
CONTINUOUS
 62
     3
100
AcDbCircle
 10
85.15771407332505
 20
9.060152619227779
 30
0.0
 40
3.159693252126744
100
AcDbArc
 50
84.82155189294139
 51
95.17844810705873
  0
ARC
  5
E0
330
1F
100
AcDbEntity
  8
0
  6
CONTINUOUS
 62
     3
100
AcDbCircle
 10
68.41173378649745
 20
13.47751337882465
 30
0.0
 40
16.50975566668588
100
AcDbArc
 50
355.5862454873798
 51
2.816115806820253
  0
ARC
  5
E1
330
1F
100
AcDbEntity
  8
0
  6
CONTINUOUS
 62
     3
100
AcDbCircle
 10
83.79447404568526
 20
14.30315138821555
 30
0.0
 40
1.107172507744154
100
AcDbArc
 50
359.2495022237244
 51
32.84055016678327
  0
ARC
  5
E2
330
1F
100
AcDbEntity
  8
0
  6
CONTINUOUS
 62
     3
100
AcDbCircle
 10
84.1010014520553
 20
14.32366273138689
 30
0.0
 40
0.851645057047003
100
AcDbArc
 50
42.91644474042847
 51
128.3015542351336
  0
ARC
  5
E3
330
1F
100
AcDbEntity
  8
0
  6
CONTINUOUS
 62
     3
100
AcDbCircle
 10
84.35661722366405
 20
14.20795225138056
 30
0.0
 40
1.108398956318131
100
AcDbArc
 50
134.9787476233347
 51
181.2369872983282
  0
ARC
  5
E4
330
1F
100
AcDbEntity
  8
0
  6
CONTINUOUS
 62
     3
100
AcDbCircle
 10
90.64088578951038
 20
13.09150147009814
 30
0.0
 40
7.395120993114926
100
AcDbArc
 50
179.8977458165987
 51
186.8855675734268
  0
ARC
  5
E5
330
1F
100
AcDbEntity
  8
0
  6
CONTINUOUS
 62
     3
100
AcDbCircle
 10
82.95808780069314
 20
8.25069254511709
 30
0.0
 40
3.968909094418497
100
AcDbArc
 50
85.07099551674689
 51
93.91830029343228
  0
ARC
  5
E6
330
1F
100
AcDbEntity
  8
0
  6
CONTINUOUS
 62
     3
100
AcDbCircle
 10
-2247.901542217735
 20
77.23265245587831
 30
0.0
 40
2329.776001260591
100
AcDbArc
 50
358.4169008257799
 51
358.4423418242109
  0
ARC
  5
E7
330
1F
100
AcDbEntity
  8
0
  6
CONTINUOUS
 62
     3
100
AcDbCircle
 10
80.13244690765924
 20
13.37836489530207
 30
0.0
 40
0.993581603997916
100
AcDbArc
 50
278.3335103000368
 51
329.1221464187299
  0
LINE
  5
E8
330
1F
100
AcDbEntity
  8
0
  6
CONTINUOUS
 62
     3
100
AcDbLine
 10
80.10297657332495
 20
12.3952743297541
 30
0.0
 11
80.276451573325
 21
12.3952743297541
 31
0.0
  0
ARC
  5
E9
330
1F
100
AcDbEntity
  8
0
  6
CONTINUOUS
 62
     3
100
AcDbCircle
 10
80.16959653488738
 20
12.97461380097786
 30
0.0
 40
0.583157304846997
100
AcDbArc
 50
183.0707787095794
 51
263.4402016072427
  0
LINE
  5
EA
330
1F
100
AcDbEntity
  8
0
  6
CONTINUOUS
 62
     3
100
AcDbLine
 10
79.58727657332503
 20
13.13912432975405
 30
0.0
 11
79.58727657332503
 21
12.94337432975408
 31
0.0
  0
ARC
  5
EB
330
1F
100
AcDbEntity
  8
0
  6
CONTINUOUS
 62
     3
100
AcDbCircle
 10
80.20701866837845
 20
13.05807479047184
 30
0.0
 40
0.625019433457053
100
AcDbArc
 50
115.7403688633493
 51
172.5491744442191
  0
ARC
  5
EC
330
1F
100
AcDbEntity
  8
0
  6
CONTINUOUS
 62
     3
100
AcDbCircle
 10
80.75660651757704
 20
11.88318862667978
 30
0.0
 40
1.922065786155208
100
AcDbArc
 50
98.71271710191789
 51
115.2874718053599
  0
ARC
  5
ED
330
1F
100
AcDbEntity
  8
0
  6
CONTINUOUS
 62
     3
100
AcDbCircle
 10
79.86056099353726
 20
17.87501381160507
 30
0.0
 40
4.136406814694017
100
AcDbArc
 50
278.4088456599976
 51
286.1851416003176
  0
ARC
  5
EE
330
1F
100
AcDbEntity
  8
0
  6
CONTINUOUS
 62
     3
100
AcDbCircle
 10
77.40908200122277
 20
21.97417570522225
 30
0.0
 40
4.400758833490466
100
AcDbArc
 50
261.7986203004403
 51
278.6803384946418
  0
ARC
  5
EF
330
1F
100
AcDbEntity
  8
0
  6
CONTINUOUS
 62
     3
100
AcDbCircle
 10
142.9542531413435
 20
14.52960360950846
 30
0.0
 40
64.95474244683605
100
AcDbArc
 50
177.2695926307304
 51
181.4833117237826
  0
ARC
  5
F0
330
1F
100
AcDbEntity
  8
0
  6
CONTINUOUS
 62
     3
100
AcDbCircle
 10
75.74899361790614
 20
12.79631356880094
 30
0.0
 40
2.272875263114311
100
AcDbArc
 50
335.1860595856123
 51
1.308075913059364
  0
ARC
  5
F1
330
1F
100
AcDbEntity
  8
0
  6
CONTINUOUS
 62
     3
100
AcDbCircle
 10
76.33897327885478
 20
12.6938351862683
 30
0.0
 40
1.701394688196115
100
AcDbArc
 50
286.2966123578915
 51
329.973223283839
  0
ARC
  5
F2
330
1F
100
AcDbEntity
  8
0
  6
CONTINUOUS
 62
     3
100
AcDbCircle
 10
76.00955749866654
 20
13.17223152915386
 30
0.0
 40
2.260341410821362
100
AcDbArc
 50
277.0901027239701
 51
290.9134154817058
  0
ARC
  5
F3
330
1F
100
AcDbEntity
  8
0
  6
CONTINUOUS
 62
     3
100
AcDbCircle
 10
75.78347289685445
 20
12.4675985944599
 30
0.0
 40
1.223467000390025
100
AcDbArc
 50
288.1715191042997
 51
307.8537826235693
  0
ARC
  5
F4
330
1F
100
AcDbEntity
  8
0
  6
CONTINUOUS
 62
     3
100
AcDbCircle
 10
76.00927386496022
 20
12.03407518472915
 30
0.0
 40
0.747769185530633
100
AcDbArc
 50
314.592391474832
 51
344.9374073189123
  0
ARC
  5
F5
330
1F
100
AcDbEntity
  8
0
  6
CONTINUOUS
 62
     3
100
AcDbCircle
 10
27.33385521229312
 20
15.05197335838841
 30
0.0
 40
49.51400430399008
100
AcDbArc
 50
356.8390243485978
 51
2.971133813187157
  0
ARC
  5
F6
330
1F
100
AcDbEntity
  8
0
  6
CONTINUOUS
 62
     3
100
AcDbCircle
 10
69.81439565227078
 20
12.67342761922788
 30
0.0
 40
6.967015049800598
100
AcDbArc
 50
353.1274757312911
 51
357.106204490141
  0
LINE
  5
F7
330
1F
100
AcDbEntity
  8
0
  6
CONTINUOUS
 62
     3
100
AcDbLine
 10
79.31727657332505
 20
15.1364493297541
 30
0.0
 11
79.31727657332505
 21
14.77194932975408
 31
0.0
  0
ARC
  5
F8
330
1F
100
AcDbEntity
  8
0
  6
CONTINUOUS
 62
     3
100
AcDbCircle
 10
80.18253617702993
 20
14.32890191857882
 30
0.0
 40
0.894881105176719
100
AcDbArc
 50
103.4267945469744
 51
150.3242613737993
  0
ARC
  5
F9
330
1F
100
AcDbEntity
  8
0
  6
CONTINUOUS
 62
     3
100
AcDbCircle
 10
80.24799095798306
 20
14.19383830513021
 30
0.0
 40
1.04195273466423
100
AcDbArc
 50
77.23143261361693
 51
105.203415964315
  0
ARC
  5
FA
330
1F
100
AcDbEntity
  8
0
  6
CONTINUOUS
 62
     3
100
AcDbCircle
 10
80.29283412817693
 20
14.52741886153422
 30
0.0
 40
0.707346538626002
100
AcDbArc
 50
3.537639967999379
 51
74.8013566619203
  0
ARC
  5
FB
330
1F
100
AcDbEntity
  8
0
  6
CONTINUOUS
 62
     3
100
AcDbCircle
 10
79.7005387356657
 20
14.39229870375124
 30
0.0
 40
1.310543751018921
100
AcDbArc
 50
353.0315250986587
 51
7.839947970678348
  0
ARC
  5
FC
330
1F
100
AcDbEntity
  8
0
  6
CONTINUOUS
 62
     3
100
AcDbCircle
 10
80.83230955673338
 20
14.26511332504288
 30
0.0
 40
0.172058828228131
100
AcDbArc
 50
291.5204897073511
 51
349.3445900274031
  0
ARC
  5
FD
330
1F
100
AcDbEntity
  8
0
  6
CONTINUOUS
 62
     3
100
AcDbCircle
 10
80.43433050110895
 20
15.06407362688748
 30
0.0
 40
1.064113335272784
100
AcDbArc
 50
282.7195832898965
 51
295.6781112778079
  0
ARC
  5
FE
330
1F
100
AcDbEntity
  8
0
  6
CONTINUOUS
 62
     3
100
AcDbCircle
 10
77.88530099985786
 20
26.41202029775212
 30
0.0
 40
12.69482409370382
100
AcDbArc
 50
278.8438342053764
 51
282.6649181367123
  0
ARC
  5
FF
330
1F
100
AcDbEntity
  8
0
  6
CONTINUOUS
 62
     3
100
AcDbCircle
 10
80.10970138675788
 20
12.59608481482871
 30
0.0
 40
1.30093661698492
100
AcDbArc
 50
102.0988446293839
 51
129.1556705448828
  0
ARC
  5
100
330
1F
100
AcDbEntity
  8
0
  6
CONTINUOUS
 62
     3
100
AcDbCircle
 10
79.73972379030153
 20
13.06366332500801
 30
0.0
 40
0.704795370557922
100
AcDbArc
 50
129.8344892359069
 51
168.4089447024628
  0
ARC
  5
101
330
1F
100
AcDbEntity
  8
0
  6
CONTINUOUS
 62
     3
100
AcDbCircle
 10
79.89075018569991
 20
12.97758712547744
 30
0.0
 40
0.871709372588669
100
AcDbArc
 50
164.8589457925044
 51
187.8495628504518
  0
ARC
  5
102
330
1F
100
AcDbEntity
  8
0
  6
CONTINUOUS
 62
     3
100
AcDbCircle
 10
79.80915332915498
 20
12.94015021572864
 30
0.0
 40
0.78619234712629
100
AcDbArc
 50
185.9586126338419
 51
224.0091989319859
  0
ARC
  5
103
330
1F
100
AcDbEntity
  8
0
  6
CONTINUOUS
 62
     3
100
AcDbCircle
 10
79.84562953036885
 20
12.98111104772596
 30
0.0
 40
0.840895657756366
100
AcDbArc
 50
224.289750990011
 51
255.6505938786759
  0
ARC
  5
104
330
1F
100
AcDbEntity
  8
0
  6
CONTINUOUS
 62
     3
100
AcDbCircle
 10
79.82928130736758
 20
12.76963494387411
 30
0.0
 40
0.633022832091786
100
AcDbArc
 50
252.3384873625213
 51
268.8069976857606
  0
LINE
  5
105
330
1F
100
AcDbEntity
  8
0
  6
CONTINUOUS
 62
     3
100
AcDbLine
 10
79.81610157332494
 20
12.13674932975408
 30
0.0
 11
80.09015157332504
 21
12.13674932975408
 31
0.0
  0
ARC
  5
106
330
1F
100
AcDbEntity
  8
0
  6
CONTINUOUS
 62
     3
100
AcDbCircle
 10
79.96613045867008
 20
13.49534026256828
 30
0.0
 40
1.364239920103932
100
AcDbArc
 50
275.2158792069686
 51
319.2336424873511
  0
ARC
  5
107
330
1F
100
AcDbEntity
  8
0
  6
CONTINUOUS
 62
     3
100
AcDbCircle
 10
81.48315560558314
 20
12.66492594265731
 30
0.0
 40
0.487535134009722
100
AcDbArc
 50
187.1167640402297
 51
216.4860549324747
  0
ARC
  5
108
330
1F
100
AcDbEntity
  8
0
  6
CONTINUOUS
 62
     3
100
AcDbCircle
 10
81.4293773508146
 20
12.6336745652863
 30
0.0
 40
0.425769550620398
100
AcDbArc
 50
217.4081478714985
 51
264.8118660441384
  0
ARC
  5
109
330
1F
100
AcDbEntity
  8
0
  6
CONTINUOUS
 62
     3
100
AcDbCircle
 10
81.58995891945591
 20
13.06464512823032
 30
0.0
 40
0.856540620020894
100
AcDbArc
 50
271.2220539293239
 51
292.8159509797653
  0
LINE
  5
10A
330
1F
100
AcDbEntity
  8
0
  6
CONTINUOUS
 62
     3
100
AcDbLine
 10
81.39087657332499
 20
12.20964932975409
 30
0.0
 11
81.608226573325
 21
12.20964932975409
 31
0.0
  0
LINE
  5
10B
330
1F
100
AcDbEntity
  8
0
  6
CONTINUOUS
 62
     3
100
AcDbLine
 10
81.92210157332505
 20
12.27512432975408
 30
0.0
 11
81.92210157332505
 21
12.43239932975405
 31
0.0
  0
ARC
  5
10C
330
1F
100
AcDbEntity
  8
0
  6
CONTINUOUS
 62
     3
100
AcDbCircle
 10
81.78242078457964
 20
12.7006118874109
 30
0.0
 40
0.30240485913648
100
AcDbArc
 50
243.6191685566582
 51
297.5097757939563
  0
ARC
  5
10D
330
1F
100
AcDbEntity
  8
0
  6
CONTINUOUS
 62
     3
100
AcDbCircle
 10
81.81823989446042
 20
12.68302928780474
 30
0.0
 40
0.305188683107389
100
AcDbArc
 50
179.9117548191414
 51
236.1065985968857
  0
ARC
  5
10E
330
1F
100
AcDbEntity
  8
0
  6
CONTINUOUS
 62
     3
100
AcDbCircle
 10
126.865013583871
 20
13.19323843931733
 30
0.0
 40
45.35482655865662
100
AcDbArc
 50
178.2526643324597
 51
180.6439560401927
  0
ARC
  5
10F
330
1F
100
AcDbEntity
  8
0
  6
CONTINUOUS
 62
     3
100
AcDbCircle
 10
80.50706272602787
 20
14.50191625973315
 30
0.0
 40
1.02690407511459
100
AcDbArc
 50
4.148222840814693
 51
92.36000944257292
  0
ARC
  5
110
330
1F
100
AcDbEntity
  8
0
  6
CONTINUOUS
 62
     3
100
AcDbCircle
 10
80.42685324125529
 20
13.76167288926888
 30
0.0
 40
1.766683515327064
100
AcDbArc
 50
88.77000393305703
 51
128.9068631829044
  0
LINE
  5
111
330
1F
100
AcDbEntity
  8
0
  6
CONTINUOUS
 62
     6
100
AcDbLine
 10
76.28855157332504
 20
10.92917432975406
 30
0.0
 11
76.16502657332506
 21
11.30514932975404
 31
0.0
  0
TEXT
  5
112
330
1F
100
AcDbEntity
  8
図枠
  6
CONTINUOUS
 62
     2
100
AcDbText
 10
19.65000000000003
 20
26.475
 30
0.0
 40
4.25
  1
製図
 41
1.509694117647059
  7
EXCADSTD
 72
     5
 11
29.73260000000003
 21
26.475
 31
0.0
100
AcDbText
  0
TEXT
  5
113
330
1F
100
AcDbEntity
  8
図枠
  6
CONTINUOUS
 62
     2
100
AcDbText
 10
35.15000000000003
 20
26.475
 30
0.0
 40
4.25
  1
写図
 41
1.509694117647059
  7
EXCADSTD
 72
     5
 11
45.23260000000003
 21
26.475
 31
0.0
100
AcDbText
  0
TEXT
  5
114
330
1F
100
AcDbEntity
  8
図枠
  6
CONTINUOUS
 62
     2
100
AcDbText
 10
50.15000000000003
 20
26.475
 30
0.0
 40
4.25
  1
検図
 41
1.303826737967914
  7
EXCADSTD
 72
     5
 11
58.85770000000002
 21
26.475
 31
0.0
100
AcDbText
  0
LINE
  5
115
330
1F
100
AcDbEntity
  8
図枠
  6
CONTINUOUS
 62
     7
100
AcDbLine
 10
17.40000000000003
 20
9.100000000000001
 30
0.0
 11
17.40000000000003
 21
289.1
 31
0.0
  0
LINE
  5
116
330
1F
100
AcDbEntity
  8
図枠
  6
CONTINUOUS
 62
     7
100
AcDbLine
 10
199.4
 20
9.100000000000001
 30
0.0
 11
199.4
 21
289.1
 31
0.0
  0
LINE
  5
117
330
1F
100
AcDbEntity
  8
図枠
  6
CONTINUOUS
 62
     7
100
AcDbLine
 10
17.40000000000003
 20
31.1
 30
0.0
 11
199.4
 21
31.1
 31
0.0
  0
LINE
  5
118
330
1F
100
AcDbEntity
  8
図枠
  6
CONTINUOUS
 62
     7
100
AcDbLine
 10
17.40000000000003
 20
9.100000000000001
 30
0.0
 11
199.4
 21
9.100000000000001
 31
0.0
  0
TEXT
  5
119
330
1F
100
AcDbEntity
  8
図枠
  6
CONTINUOUS
 62
     2
100
AcDbText
 10
63.15000000000003
 20
26.475
 30
0.0
 40
4.25
  1
承認
 41
1.303826737967915
  7
EXCADSTD
 72
     5
 11
71.85770000000004
 21
26.475
 31
0.0
100
AcDbText
  0
TEXT
  5
11A
330
1F
100
AcDbEntity
  8
図枠
  6
CONTINUOUS
 62
     2
100
AcDbText
 10
138.9750000000001
 20
25.475
 30
0.0
 40
4.25
  1
品
 41
1.120000000000002
  7
EXCADSTD
 72
     5
 11
142.3750000000001
 21
25.475
 31
0.0
100
AcDbText
  0
TEXT
  5
11B
330
1F
100
AcDbEntity
  8
図枠
  6
CONTINUOUS
 62
     2
100
AcDbText
 10
138.9750000000001
 20
20.475
 30
0.0
 40
4.25
  1
番
 41
1.120000000000002
  7
EXCADSTD
 72
     5
 11
142.3750000000001
 21
20.475
 31
0.0
100
AcDbText
  0
TEXT
  5
11C
330
1F
100
AcDbEntity
  8
図枠
  6
CONTINUOUS
 62
     2
100
AcDbText
 10
181.075
 20
25.475
 30
0.0
 40
4.25
  1
尺
 41
1.120000000000002
  7
EXCADSTD
 72
     5
 11
184.475
 21
25.475
 31
0.0
100
AcDbText
  0
TEXT
  5
11D
330
1F
100
AcDbEntity
  8
図枠
  6
CONTINUOUS
 62
     2
100
AcDbText
 10
181.075
 20
20.475
 30
0.0
 40
4.25
  1
度
 41
1.120000000000002
  7
EXCADSTD
 72
     5
 11
184.475
 21
20.475
 31
0.0
100
AcDbText
  0
TEXT
  5
11E
330
1F
100
AcDbEntity
  8
図枠
  6
CONTINUOUS
 62
     2
100
AcDbText
 10
138.9750000000001
 20
14.175
 30
0.0
 40
4.25
  1
図
 41
1.120000000000002
  7
EXCADSTD
 72
     5
 11
142.3750000000001
 21
14.175
 31
0.0
100
AcDbText
  0
TEXT
  5
11F
330
1F
100
AcDbEntity
  8
図枠
  6
CONTINUOUS
 62
     2
100
AcDbText
 10
138.9750000000001
 20
9.875
 30
0.0
 40
4.25
  1
番
 41
1.120000000000002
  7
EXCADSTD
 72
     5
 11
142.3750000000001
 21
9.875
 31
0.0
100
AcDbText
  0
TEXT
  5
120
330
1F
100
AcDbEntity
  8
図枠
  6
CONTINUOUS
 62
     6
100
AcDbText
 10
18.03441156754791
 20
10.04500732000001
 30
0.0
 40
3.0
  1
'19
 41
0.4791735838265523
  7
EXCADSTD
 72
     5
 11
21.18326654697954
 21
10.04500732000001
 31
0.0
100
AcDbText
  0
TEXT
  5
121
330
1F
100
AcDbEntity
  8
図枠
  6
CONTINUOUS
 62
     6
100
AcDbText
 10
24.30691160569489
 20
10.04500732000001
 30
0.0
 40
3.0
  1
3
 41
0.4683823529411762
  7
EXCADSTD
 72
     5
 11
25.44441160569489
 21
10.04500732000001
 31
0.0
100
AcDbText
  0
ARC
  5
122
330
1F
100
AcDbEntity
  8
図枠
  6
CONTINUOUS
 62
     3
100
AcDbCircle
 10
78.1090820012227
 20
21.77417570522226
 30
0.0
 40
4.400758833490466
100
AcDbArc
 50
261.7986203004403
 51
278.6803384946418
  0
TEXT
  5
123
330
1F
100
AcDbEntity
  8
図枠
  6
CONTINUOUS
 62
     2
100
AcDbText
 10
74.97499999999997
 20
25.47500000000002
 30
0.0
 40
4.25
  1
品
 41
1.120000000000002
  7
EXCADSTD
 72
     5
 11
78.37499999999997
 21
25.47500000000002
 31
0.0
100
AcDbText
  0
TEXT
  5
124
330
1F
100
AcDbEntity
  8
図枠
  6
CONTINUOUS
 62
     2
100
AcDbText
 10
74.97499999999997
 20
20.47500000000002
 30
0.0
 40
4.25
  1
名
 41
1.120000000000002
  7
EXCADSTD
 72
     5
 11
78.37499999999997
 21
20.47500000000002
 31
0.0
100
AcDbText
  0
ARC
  5
125
330
1F
100
AcDbEntity
  8
図枠
  6
CONTINUOUS
 62
     3
100
AcDbCircle
 10
78.1090820012227
 20
21.77417570522226
 30
0.0
 40
4.400758833490466
100
AcDbArc
 50
261.7986203004403
 51
278.6803384946418
  0
TEXT
  5
126
330
1F
100
AcDbEntity
  8
図枠
  6
CONTINUOUS
 62
     2
100
AcDbText
 10
74.97499999999997
 20
25.47500000000002
 30
0.0
 40
4.25
  1
品
 41
1.120000000000002
  7
EXCADSTD
 72
     5
 11
78.37499999999997
 21
25.47500000000002
 31
0.0
100
AcDbText
  0
TEXT
  5
127
330
1F
100
AcDbEntity
  8
図枠
  6
CONTINUOUS
 62
     2
100
AcDbText
 10
74.97499999999997
 20
20.47500000000002
 30
0.0
 40
4.25
  1
名
 41
1.120000000000002
  7
EXCADSTD
 72
     5
 11
78.37499999999997
 21
20.47500000000002
 31
0.0
100
AcDbText
  0
LINE
  5
128
330
1F
100
AcDbEntity
  8
図枠
  6
CONTINUOUS
 62
     7
100
AcDbLine
 10
17.39999999999953
 20
289.1
 30
0.0
 11
199.3999999999995
 21
289.1
 31
0.0
  0
TEXT
  5
129
330
1F
100
AcDbEntity
  8
図枠
  6
CONTINUOUS
 62
     6
100
AcDbText
 10
22.55000000000029
 20
17.60000000000014
 30
0.0
 40
5.0
  1
堀
 41
1.232000000000001
  7
EXCADSTD
 72
     5
 11
26.95000000000029
 21
17.60000000000014
 31
0.0
100
AcDbText
  0
TEXT
  5
12A
330
1F
100
AcDbEntity
  8
図枠
  6
CONTINUOUS
 62
     6
100
AcDbText
 10
29.46441158542932
 20
10.04500732000001
 30
0.0
 40
3.0
  1
8
 41
0.4683823529411762
  7
EXCADSTD
 72
     5
 11
30.60191158542932
 21
10.04500732000001
 31
0.0
100
AcDbText
  0
TEXT
  5
12B
330
1F
100
AcDbEntity
  8
図枠
  6
CONTINUOUS
 62
     6
100
AcDbText
 10
50.00000000596076
 20
17.60000000000014
 30
0.0
 40
5.0
  1
間瀬
 41
1.189913453154781
  7
EXCADSTD
 72
     5
 11
59.34931999503404
 21
17.60000000000014
 31
0.0
100
AcDbText
  0
TEXT
  5
12C
330
1F
100
AcDbEntity
  8
図枠
  6
CONTINUOUS
 62
     6
100
AcDbText
 10
63.00000000596077
 20
17.60000000000014
 30
0.0
 40
5.0
  1
椎葉
 41
1.189913453154781
  7
EXCADSTD
 72
     5
 11
72.34931999503405
 21
17.60000000000014
 31
0.0
100
AcDbText
  0
TEXT
  5
12D
330
1F
100
AcDbEntity
  8
図枠
  6
CONTINUOUS
 62
     7
100
AcDbText
 10
151.1500001192093
 20
10.75
 30
0.0
 40
7.0
  1
９７６９００
 41
1.157142850330898
  7
EXCADSTD
 72
     5
 11
191.6499998807907
 21
10.75
 31
0.0
100
AcDbText
  0
TEXT
  5
12E
330
1F
100
AcDbEntity
  8
図枠
  6
CONTINUOUS
 62
     2
100
AcDbText
 10
186.9337109399999
 20
25.57227782999999
 30
0.0
 40
4.0
  1
１
 41
1.119999999999996
  7
EXCADSTD
 72
     5
 11
190.1337109399999
 21
25.57227782999999
 31
0.0
100
AcDbText
  0
TEXT
  5
12F
330
1F
100
AcDbEntity
  8
図枠
  6
CONTINUOUS
 62
     2
100
AcDbText
 10
191.61792969
 20
20.75488464000003
 30
0.0
 40
4.0
  1
１０
 41
1.020759090909092
  7
EXCADSTD
 72
     5
 11
198.03412969
 21
20.75488464000003
 31
0.0
100
AcDbText
  0
LINE
  5
130
330
1F
100
AcDbEntity
  8
図枠
  6
CONTINUOUS
 62
     6
100
AcDbLine
 10
74.40000000000003
 20
31.1
 30
0.0
 11
74.40000000000003
 21
9.100000000000001
 31
0.0
  0
LINE
  5
131
330
1F
100
AcDbEntity
  8
図枠
  6
CONTINUOUS
 62
     6
100
AcDbLine
 10
48.40000000000003
 20
31.1
 30
0.0
 11
48.40000000000003
 21
9.100000000000001
 31
0.0
  0
LINE
  5
132
330
1F
100
AcDbEntity
  8
図枠
  6
CONTINUOUS
 62
     6
100
AcDbLine
 10
32.90000000000003
 20
31.1
 30
0.0
 11
32.90000000000003
 21
9.100000000000001
 31
0.0
  0
CIRCLE
  5
133
330
1F
100
AcDbEntity
  8
図枠
  6
CONTINUOUS
 62
     6
100
AcDbCircle
 10
22.40000000000003
 20
11.6
 30
0.0
 40
0.10000002
  0
CIRCLE
  5
134
330
1F
100
AcDbEntity
  8
図枠
  6
CONTINUOUS
 62
     6
100
AcDbCircle
 10
27.40000000000003
 20
11.6
 30
0.0
 40
0.10000002
  0
CIRCLE
  5
135
330
1F
100
AcDbEntity
  8
図枠
  6
CONTINUOUS
 62
     6
100
AcDbCircle
 10
37.90000000000003
 20
11.6
 30
0.0
 40
0.10000002
  0
CIRCLE
  5
136
330
1F
100
AcDbEntity
  8
図枠
  6
CONTINUOUS
 62
     6
100
AcDbCircle
 10
42.90000000000003
 20
11.6
 30
0.0
 40
0.10000002
  0
LINE
  5
137
330
1F
100
AcDbEntity
  8
図枠
  6
CONTINUOUS
 62
     6
100
AcDbLine
 10
61.40000000000003
 20
31.1
 30
0.0
 11
61.40000000000003
 21
9.100000000000001
 31
0.0
  0
LINE
  5
138
330
1F
100
AcDbEntity
  8
図枠
  6
EXLTYPE2
 62
     6
100
AcDbLine
 10
17.40000000000003
 20
14.1
 30
0.0
 11
48.40000000000003
 21
14.1
 31
0.0
  0
LINE
  5
139
330
1F
100
AcDbEntity
  8
図枠
  6
CONTINUOUS
 62
     6
100
AcDbLine
 10
199.4
 20
19.1
 30
0.0
 11
74.40000000000003
 21
19.1
 31
0.0
  0
LINE
  5
13A
330
1F
100
AcDbEntity
  8
図枠
  6
CONTINUOUS
 62
     6
100
AcDbLine
 10
185.4
 20
31.1
 30
0.0
 11
185.4
 21
19.1
 31
0.0
  0
LINE
  5
13B
330
1F
100
AcDbEntity
  8
図枠
  6
CONTINUOUS
 62
     6
100
AcDbLine
 10
143.4
 20
31.1
 30
0.0
 11
143.4
 21
9.100000000000001
 31
0.0
  0
LINE
  5
13C
330
1F
100
AcDbEntity
  8
図枠
  6
CONTINUOUS
 62
     6
100
AcDbLine
 10
138.4
 20
31.1
 30
0.0
 11
138.4
 21
9.100000000000001
 31
0.0
  0
LINE
  5
13D
330
1F
100
AcDbEntity
  8
図枠
  6
CONTINUOUS
 62
     6
100
AcDbLine
 10
180.4
 20
31.1
 30
0.0
 11
180.4
 21
19.1
 31
0.0
  0
LINE
  5
13E
330
1F
100
AcDbEntity
  8
図枠
  6
CONTINUOUS
 62
     6
100
AcDbLine
 10
17.40000000000003
 20
26.1
 30
0.0
 11
74.40000000000003
 21
26.1
 31
0.0
  0
LINE
  5
13F
330
1F
100
AcDbEntity
  8
図枠
  6
EXLTYPE2
 62
     6
100
AcDbLine
 10
-0.6000000000000902
 20
149.1
 30
0.0
 11
17.39999999999997
 21
149.1
 31
0.0
  0
LINE
  5
140
330
1F
100
AcDbEntity
  8
図枠
  6
CONTINUOUS
 62
     6
100
AcDbLine
 10
79.39999999999998
 20
31.10000000000002
 30
0.0
 11
79.39999999999998
 21
19.10000000000002
 31
0.0
  0
LINE
  5
141
330
1F
100
AcDbEntity
  8
図枠
  6
CONTINUOUS
 62
     6
100
AcDbLine
 10
79.39999999999998
 20
31.10000000000002
 30
0.0
 11
79.39999999999998
 21
19.10000000000002
 31
0.0
  0
LINE
  5
142
330
1F
100
AcDbEntity
  8
図枠
  6
CONTINUOUS
 62
     6
100
AcDbLine
 10
187.75538086
 20
21.10029297000001
 30
0.0
 11
195.48938965
 21
28.96998291
 31
0.0
  0
TEXT
  5
143
330
1F
100
AcDbEntity
  8
図枠
  6
CONTINUOUS
 62
     2
100
AcDbText
 10
80.60932675742062
 20
25.02403810567723
 30
0.0
 40
5.5
  1
６４０幅洗濯機防水パン
 41
0.9202797179455523
  7
EXCADSTD
 72
     5
 11
127.6093266382113
 21
25.02403810567723
 31
0.0
100
AcDbText
  0
TEXT
  5
144
330
1F
100
AcDbEntity
  8
図枠
  6
CONTINUOUS
 62
     2
100
AcDbText
 10
80.60932675742062
 20
19.52403810567723
 30
0.0
 40
5.5
  1
（かさ上げタイプ）
 41
0.9269296718093584
  7
EXCADSTD
 72
     5
 11
119.2093266620532
 21
19.52403810567723
 31
0.0
100
AcDbText
  0
TEXT
  5
145
330
1F
100
AcDbEntity
  8
図枠
  6
CONTINUOUS
 62
     2
100
AcDbText
 10
145.6500000000005
 20
21.99999999999978
 30
0.0
 40
6.0
  1
ＴＰＤ６４０Ｃ
 41
0.9247967479674798
  7
EXCADSTD
 72
     5
 11
178.1500000000005
 21
21.99999999999978
 31
0.0
100
AcDbText
  0
DIMENSION
  5
147
330
1F
100
AcDbEntity
  8
図
  6
CONTINUOUS
 62
     3
100
AcDbDimension
  2
*D15
 10
1047.652108026361
 20
2512.0
 30
0.0
 11
727.6521080263808
 21
2535.000000119209
 31
0.0
 70
   160
  3
ISO-25
100
AcDbAlignedDimension
 13
407.6521080264006
 23
2374.1428160886
 33
0.0
 14
1047.652108026361
 24
2373.5178110967
 34
0.0
100
AcDbRotatedDimension
1001
ACAD
1000
DSTYLE
1002
{
1070
   270
1070
     2
1070
     6
1000
EX_NORM
1070
     7
1000
EX_NORM
1070
    41
1040
30.0
1070
    42
1040
6.99999988079071
1070
    44
1040
10.0
1070
    73
1070
     0
1070
    74
1070
     0
1070
    75
1070
     0
1070
    76
1070
     0
1070
    77
1070
     1
1070
    78
1070
     8
1070
   140
1040
40.0
1070
   147
1040
0.0
1070
   173
1070
     1
1070
   176
1070
     3
1070
   177
1070
     3
1070
   178
1070
     2
1070
   271
1070
     1
1070
   277
1070
     2
1070
   279
1070
     2
1070
   280
1070
     0
1070
   287
1070
     5
1070
   340
1005
146
1002
}
  0
DIMENSION
  5
155
330
1F
100
AcDbEntity
  8
図
  6
CONTINUOUS
 62
     3
100
AcDbDimension
  2
*D16
 10
1047.652108026361
 20
2450.0
 30
0.0
 11
1112.652108026361
 21
2473.000000119209
 31
0.0
 70
   160
  3
ISO-25
100
AcDbAlignedDimension
 13
1010.653568075671
 23
2352.2147031073
 33
0.0
 14
1047.652108026361
 24
2373.5178110967
 34
0.0
100
AcDbRotatedDimension
1001
ACAD
1000
DSTYLE
1002
{
1070
   270
1070
     2
1070
     6
1000
EX_NORM
1070
     7
1000
EX_NORM
1070
    41
1040
30.0
1070
    42
1040
13.58529686927795
1070
    44
1040
10.0
1070
    73
1070
     0
1070
    74
1070
     0
1070
    75
1070
     0
1070
    76
1070
     0
1070
    77
1070
     1
1070
    78
1070
     8
1070
   140
1040
40.0
1070
   147
1040
0.0
1070
   173
1070
     1
1070
   176
1070
     3
1070
   177
1070
     3
1070
   178
1070
     2
1070
   271
1070
     1
1070
   277
1070
     2
1070
   279
1070
     2
1070
   280
1070
     2
1070
   287
1070
     5
1070
   340
1005
146
1002
}
  0
DIMENSION
  5
164
330
1F
100
AcDbEntity
  8
図
  6
CONTINUOUS
 62
     3
100
AcDbDimension
  2
*D17
 10
1043.49787047427
 20
1299.0
 30
0.0
 11
963.4963012321607
 21
1322.000000119209
 31
0.0
 70
   160
  3
ISO-25
100
AcDbAlignedDimension
 13
883.4947319900507
 23
1156.6848569841
 33
0.0
 14
1043.49787047427
 24
1166.0830766996
 34
0.0
100
AcDbRotatedDimension
1001
ACAD
1000
DSTYLE
1002
{
1070
   270
1070
     2
1070
     6
1000
EX_NORM
1070
     7
1000
EX_NORM
1070
    41
1040
30.0
1070
    42
1040
6.99999988079071
1070
    44
1040
10.0
1070
    73
1070
     0
1070
    74
1070
     0
1070
    75
1070
     0
1070
    76
1070
     0
1070
    77
1070
     1
1070
    78
1070
     8
1070
   140
1040
40.0
1070
   147
1040
0.0
1070
   173
1070
     1
1070
   176
1070
     3
1070
   177
1070
     3
1070
   178
1070
     2
1070
   271
1070
     1
1070
   277
1070
     2
1070
   279
1070
     2
1070
   280
1070
     0
1070
   287
1070
     5
1070
   340
1005
146
1002
}
  0
DIMENSION
  5
171
330
1F
100
AcDbEntity
  8
図
  6
CONTINUOUS
 62
     3
100
AcDbDimension
  2
*D18
 10
1043.49787047427
 20
1234.0
 30
0.0
 11
980.9999999999604
 21
1257.000000119209
 31
0.0
 70
   160
  3
ISO-25
100
AcDbAlignedDimension
 13
918.5021295256507
 23
1161.4231772029
 33
0.0
 14
1043.49787047427
 24
1166.0830766996
 34
0.0
100
AcDbRotatedDimension
1001
ACAD
1000
DSTYLE
1002
{
1070
   270
1070
     2
1070
     6
1000
EX_NORM
1070
     7
1000
EX_NORM
1070
    41
1040
30.0
1070
    42
1040
6.99999988079071
1070
    44
1040
10.0
1070
    73
1070
     0
1070
    74
1070
     0
1070
    75
1070
     0
1070
    76
1070
     0
1070
    77
1070
     1
1070
    78
1070
     8
1070
   140
1040
40.0
1070
   147
1040
0.0
1070
   173
1070
     1
1070
   176
1070
     3
1070
   177
1070
     3
1070
   178
1070
     2
1070
   271
1070
     1
1070
   277
1070
     2
1070
   279
1070
     2
1070
   280
1070
     0
1070
   287
1070
     5
1070
   340
1005
146
1002
}
  0
LINE
  5
17E
330
1F
100
AcDbEntity
  8
図
  6
CONTINUOUS
 62
     6
100
AcDbLine
 10
1338.729432499741
 20
3361.609113414409
 30
0.0
 11
1338.729432499741
 21
3451.609113414409
 31
0.0
  0
LINE
  5
17F
330
1F
100
AcDbEntity
  8
図
  6
CONTINUOUS
 62
     6
100
AcDbLine
 10
675.060640621414
 20
3451.609113414409
 30
0.0
 11
1338.729432499742
 21
3451.609113414409
 31
0.0
  0
LINE
  5
180
330
1F
100
AcDbEntity
  8
図
  6
CONTINUOUS
 62
     6
100
AcDbLine
 10
665.47310466568
 20
3427.605303325197
 30
0.0
 11
652.4827236089152
 21
3450.105303325197
 31
0.0
  0
LINE
  5
181
330
1F
100
AcDbEntity
  8
図
  6
CONTINUOUS
 62
     6
100
AcDbLine
 10
639.4923425521476
 20
3427.605303325197
 30
0.0
 11
665.47310466568
 21
3427.605303325197
 31
0.0
  0
LINE
  5
182
330
1F
100
AcDbEntity
  8
図
  6
CONTINUOUS
 62
     6
100
AcDbLine
 10
652.4827236089152
 20
3450.105303325197
 30
0.0
 11
639.4923425521476
 21
3427.605303325197
 31
0.0
  0
LINE
  5
183
330
1F
100
AcDbEntity
  8
図
  6
CONTINUOUS
 62
     6
100
AcDbLine
 10
861.5299852302908
 20
3451.609113414409
 30
0.0
 11
861.5299852302908
 21
3361.609113414409
 31
0.0
  0
LINE
  5
184
330
1F
100
AcDbEntity
  8
図
  6
CONTINUOUS
 62
     6
100
AcDbLine
 10
1203.390450346573
 20
3451.609113414409
 30
0.0
 11
1203.390450346573
 21
3361.609113414409
 31
0.0
  0
LINE
  5
185
330
1F
100
AcDbEntity
  8
図
  6
CONTINUOUS
 62
     6
100
AcDbLine
 10
675.060640621414
 20
3451.609113414409
 30
0.0
 11
675.060640621414
 21
3361.609113414409
 31
0.0
  0
LINE
  5
186
330
1F
100
AcDbEntity
  8
図
  6
CONTINUOUS
 62
     6
100
AcDbLine
 10
1338.729432499741
 20
3361.609113414409
 30
0.0
 11
675.060640621414
 21
3361.609113414409
 31
0.0
  0
LINE
  5
187
330
1F
100
AcDbEntity
  8
図
  6
CONTINUOUS
 62
     6
100
AcDbLine
 10
1338.729432499741
 20
3391.609113414409
 30
0.0
 11
675.060640621414
 21
3391.609113414409
 31
0.0
  0
LINE
  5
188
330
1F
100
AcDbEntity
  8
図
  6
CONTINUOUS
 62
     6
100
AcDbLine
 10
1338.729432499741
 20
3421.609113414409
 30
0.0
 11
675.060640621414
 21
3421.609113414409
 31
0.0
  0
TEXT
  5
189
330
1F
100
AcDbEntity
  8
図
  6
CONTINUOUS
 62
     2
100
AcDbText
 10
1253.719306319787
 20
3367.148493190776
 30
0.0
 40
10.66666531562805
  1
４本
 41
1.02564099529217
  7
EXCADTTF1
 72
     5
 11
1282.163746319787
 21
3367.148493190776
 31
0.0
100
AcDbText
  0
TEXT
  5
18A
330
1F
100
AcDbEntity
  8
図
  6
CONTINUOUS
 62
     2
100
AcDbText
 10
1252.749705055291
 20
3398.160543115708
 30
0.0
 40
10.66666531562805
  1
４個
 41
1.02564099529217
  7
EXCADTTF1
 72
     5
 11
1281.194145055291
 21
3398.160543115708
 31
0.0
100
AcDbText
  0
TEXT
  5
18B
330
1F
100
AcDbEntity
  8
図
  6
CONTINUOUS
 62
     2
100
AcDbText
 10
1253.234498618104
 20
3430.626279400376
 30
0.0
 40
10.66666531562805
  1
個数
 41
1.02564099529217
  7
EXCADTTF1
 72
     5
 11
1281.678938618104
 21
3430.626279400376
 31
0.0
100
AcDbText
  0
TEXT
  5
18C
330
1F
100
AcDbEntity
  8
図
  6
CONTINUOUS
 62
     2
100
AcDbText
 10
894.4833598082516
 20
3368.602179550513
 30
0.0
 40
10.66666531562805
  1
Ｌ＝９７（三価ホワイト）
 41
1.02564099529217
  7
EXCADTTF1
 72
     5
 11
1065.149999808252
 21
3368.602179550513
 31
0.0
100
AcDbText
  0
TEXT
  5
18D
330
1F
100
AcDbEntity
  8
図
  6
CONTINUOUS
 62
     2
100
AcDbText
 10
895.9377546355602
 20
3400.583359655313
 30
0.0
 40
10.66666531562805
  1
ＡＢＳ樹脂製
 41
1.02564099529217
  7
EXCADTTF1
 72
     5
 11
981.2710746355601
 21
3400.583359655313
 31
0.0
100
AcDbText
  0
TEXT
  5
18E
330
1F
100
AcDbEntity
  8
図
  6
CONTINUOUS
 62
     2
100
AcDbText
 10
1013.743877036326
 20
3430.141714310441
 30
0.0
 40
10.66666531562805
  1
仕様
 41
1.02564099529217
  7
EXCADTTF1
 72
     5
 11
1042.188317036326
 21
3430.141714310441
 31
0.0
100
AcDbText
  0
TEXT
  5
18F
330
1F
100
AcDbEntity
  8
図
  6
CONTINUOUS
 62
     2
100
AcDbText
 10
681.8469478664467
 20
3368.615304079371
 30
0.0
 40
10.66666531562805
  1
ビス
 41
1.02564099529217
  7
EXCADTTF1
 72
     5
 11
710.2913878664467
 21
3368.615304079371
 31
0.0
100
AcDbText
  0
TEXT
  5
190
330
1F
100
AcDbEntity
  8
図
  6
CONTINUOUS
 62
     2
100
AcDbText
 10
681.5540187648842
 20
3399.387209875444
 30
0.0
 40
10.66666531562805
  1
ビスキャップ
 41
1.02564099529217
  7
EXCADTTF1
 72
     5
 11
766.8873387648841
 21
3399.387209875444
 31
0.0
100
AcDbText
  0
TEXT
  5
191
330
1F
100
AcDbEntity
  8
図
  6
CONTINUOUS
 62
     2
100
AcDbText
 10
734.276520524749
 20
3430.543763268832
 30
0.0
 40
10.66666531562805
  1
付属品
 41
1.02564099529217
  7
EXCADTTF1
 72
     5
 11
776.943180524749
 21
3430.543763268832
 31
0.0
100
AcDbText
  0
TEXT
  5
192
330
1F
100
AcDbEntity
  8
図
  6
CONTINUOUS
 62
     2
100
AcDbText
 10
646.9356892133294
 20
3428.786600023188
 30
0.0
 40
10.66666531562805
  1
1
 41
1.025640995292178
  7
EXCADTTF1
 72
     5
 11
654.0467992133295
 21
3428.786600023188
 31
0.0
100
AcDbText
  0
LINE
  5
193
330
1F
100
AcDbEntity
  8
図
  6
CONTINUOUS
 62
     6
100
AcDbLine
 10
1081.921192978225
 20
3556.209437316216
 30
0.0
 11
838.2712305134794
 21
3556.209437316216
 31
0.0
  0
LINE
  5
194
330
1F
100
AcDbEntity
  8
図
  6
CONTINUOUS
 62
     6
100
AcDbLine
 10
1081.921192978225
 20
3580.661655398183
 30
0.0
 11
838.2712305134794
 21
3580.661655398183
 31
0.0
  0
LINE
  5
195
330
1F
100
AcDbEntity
  8
図
  6
CONTINUOUS
 62
     6
100
AcDbLine
 10
1081.921192978225
 20
3589.661655398183
 30
0.0
 11
838.2712305134794
 21
3589.661655398183
 31
0.0
  0
LINE
  5
196
330
1F
100
AcDbEntity
  8
図
  6
CONTINUOUS
 62
     6
100
AcDbLine
 10
1081.921192978225
 20
3598.661655398183
 30
0.0
 11
838.2712305134794
 21
3598.661655398183
 31
0.0
  0
LINE
  5
197
330
1F
100
AcDbEntity
  8
図
  6
CONTINUOUS
 62
     6
100
AcDbLine
 10
1081.921192978225
 20
3607.661655398183
 30
0.0
 11
838.2712305134794
 21
3607.661655398183
 31
0.0
  0
LINE
  5
198
330
1F
100
AcDbEntity
  8
図
  6
CONTINUOUS
 62
     6
100
AcDbLine
 10
1081.921192978225
 20
3616.661655398183
 30
0.0
 11
838.2712305134794
 21
3616.661655398183
 31
0.0
  0
LINE
  5
199
330
1F
100
AcDbEntity
  8
図
  6
CONTINUOUS
 62
     6
100
AcDbLine
 10
1081.921192978225
 20
3556.209437316216
 30
0.0
 11
1081.921192978225
 21
3616.661655398183
 31
0.0
  0
LINE
  5
19A
330
1F
100
AcDbEntity
  8
図
  6
CONTINUOUS
 62
     6
100
AcDbLine
 10
987.7098725009275
 20
3580.661655398183
 30
0.0
 11
987.7098725009275
 21
3616.661655398183
 31
0.0
  0
LINE
  5
19B
330
1F
100
AcDbEntity
  8
図
  6
CONTINUOUS
 62
     6
100
AcDbLine
 10
956.6154966382421
 20
3580.661655398183
 30
0.0
 11
956.6154966382421
 21
3616.661655398183
 31
0.0
  0
LINE
  5
19C
330
1F
100
AcDbEntity
  8
図
  6
CONTINUOUS
 62
     6
100
AcDbLine
 10
869.3656063761657
 20
3580.661655398183
 30
0.0
 11
869.3656063761657
 21
3616.661655398183
 31
0.0
  0
LINE
  5
19D
330
1F
100
AcDbEntity
  8
図
  6
CONTINUOUS
 62
     6
100
AcDbLine
 10
838.2712305134794
 20
3556.209437316216
 30
0.0
 11
838.2712305134794
 21
3616.661655398183
 31
0.0
  0
LINE
  5
19E
330
1F
100
AcDbEntity
  8
図
  6
CONTINUOUS
 62
     2
100
AcDbLine
 10
1021.248637115914
 20
3607.661655398184
 30
0.0
 11
1021.248637115914
 21
3598.661655398183
 31
0.0
  0
LINE
  5
19F
330
1F
100
AcDbEntity
  8
図
  6
CONTINUOUS
 62
     2
100
AcDbLine
 10
1042.561649764179
 20
3607.661655238594
 30
0.0
 11
1042.561649764179
 21
3598.661655238594
 31
0.0
  0
TEXT
  5
1A0
330
1F
100
AcDbEntity
  8
図
  6
CONTINUOUS
 62
     2
100
AcDbText
 10
847.3209565158888
 20
3609.38028454742
 30
0.0
 40
3.333329916000366
  1
検図
 41
1.02564105148709
  7
EXCADTTF1
 72
     5
 11
856.2098365158888
 21
3609.38028454742
 31
0.0
100
AcDbText
  0
TEXT
  5
1A1
330
1F
100
AcDbEntity
  8
図
  6
CONTINUOUS
 62
     2
100
AcDbText
 10
847.2174248894592
 20
3600.740002286325
 30
0.0
 40
3.333329916000366
  1
製図
 41
1.02564105148709
  7
EXCADTTF1
 72
     5
 11
856.1063048894591
 21
3600.740002286325
 31
0.0
100
AcDbText
  0
TEXT
  5
1A2
330
1F
100
AcDbEntity
  8
図
  6
CONTINUOUS
 62
     2
100
AcDbText
 10
847.4439463693927
 20
3591.515286898353
 30
0.0
 40
3.333329916000366
  1
訂正
 41
1.02564105148709
  7
EXCADTTF1
 72
     5
 11
856.3328263693927
 21
3591.515286898353
 31
0.0
100
AcDbText
  0
TEXT
  5
1A3
330
1F
100
AcDbEntity
  8
図
  6
CONTINUOUS
 62
     2
100
AcDbText
 10
871.2434705529333
 20
3609.391784999788
 30
0.0
 40
3.333329916000366
  1
日付　　
 41
1.02564105148709
  7
EXCADTTF1
 72
     5
 11
889.0212305529333
 21
3609.391784999788
 31
0.0
100
AcDbText
  0
TEXT
  5
1A4
330
1F
100
AcDbEntity
  8
図
  6
CONTINUOUS
 62
     2
100
AcDbText
 10
871.2434705529333
 20
3600.704920261216
 30
0.0
 40
3.333329916000366
  1
日付　　2016.2.5
 41
1.025641051487094
  7
EXCADTTF1
 72
     5
 11
906.7989905529333
 21
3600.704920261216
 31
0.0
100
AcDbText
  0
TEXT
  5
1A5
330
1F
100
AcDbEntity
  8
図
  6
CONTINUOUS
 62
     2
100
AcDbText
 10
871.2434705529333
 20
3591.553398996569
 30
0.0
 40
3.333329916000366
  1
日付　　
 41
1.02564105148709
  7
EXCADTTF1
 72
     5
 11
889.0212305529333
 21
3591.553398996569
 31
0.0
100
AcDbText
  0
TEXT
  5
1A6
330
1F
100
AcDbEntity
  8
図
  6
CONTINUOUS
 62
     2
100
AcDbText
 10
964.167531400027
 20
3609.997269645969
 30
0.0
 40
3.333329916000366
  1
材質
 41
1.02564105148709
  7
EXCADTTF1
 72
     5
 11
973.056411400027
 21
3609.997269645969
 31
0.0
100
AcDbText
  0
TEXT
  5
1A7
330
1F
100
AcDbEntity
  8
図
  6
CONTINUOUS
 62
     2
100
AcDbText
 10
964.167531400027
 20
3600.616210887908
 30
0.0
 40
3.333329916000366
  1
画法
 41
1.02564105148709
  7
EXCADTTF1
 72
     5
 11
973.056411400027
 21
3600.616210887908
 31
0.0
100
AcDbText
  0
TEXT
  5
1A8
330
1F
100
AcDbEntity
  8
図
  6
CONTINUOUS
 62
     2
100
AcDbText
 10
964.167531400027
 20
3591.616210887908
 30
0.0
 40
3.333329916000366
  1
型式
 41
1.02564105148709
  7
EXCADTTF1
 72
     5
 11
973.056411400027
 21
3591.616210887908
 31
0.0
100
AcDbText
  0
TEXT
  5
1A9
330
1F
100
AcDbEntity
  8
図
  6
CONTINUOUS
 62
     2
100
AcDbText
 10
964.167531400027
 20
3582.616210887908
 30
0.0
 40
3.333329916000366
  1
品名
 41
1.02564105148709
  7
EXCADTTF1
 72
     5
 11
973.056411400027
 21
3582.616210887908
 31
0.0
100
AcDbText
  0
TEXT
  5
1AA
330
1F
100
AcDbEntity
  8
図
  6
CONTINUOUS
 62
     2
100
AcDbText
 10
1014.637873361675
 20
3609.997269645969
 30
0.0
 40
3.333329916000366
  1
ＰＰ樹脂製
 41
1.02564105148709
  7
EXCADTTF1
 72
     5
 11
1036.860073361675
 21
3609.997269645969
 31
0.0
100
AcDbText
  0
TEXT
  5
1AB
330
1F
100
AcDbEntity
  8
図
  6
CONTINUOUS
 62
     2
100
AcDbText
 10
991.958635687399
 20
3600.997269645969
 30
0.0
 40
3.333329916000366
  1
三角法　　縮尺　　　1／6
 41
1.025641051487095
  7
EXCADTTF1
 72
     5
 11
1045.291915687399
 21
3600.997269645969
 31
0.0
100
AcDbText
  0
TEXT
  5
1AC
330
1F
100
AcDbEntity
  8
図
  6
CONTINUOUS
 62
     2
100
AcDbText
 10
1010.056069755396
 20
3582.754812915991
 30
0.0
 40
3.333329916000366
  1
イージーパン
 41
1.02564105148709
  7
EXCADTTF1
 72
     5
 11
1036.722709755396
 21
3582.754812915991
 31
0.0
100
AcDbText
  0
TEXT
  5
1AD
330
1F
100
AcDbEntity
  8
図
  6
CONTINUOUS
 62
     2
100
AcDbText
 10
843.3010028569108
 20
3571.322325059689
 30
0.0
 40
5.333332657814026
  1
株式会社　　　  テクノテック
 41
1.02564099529217
  7
EXCADTTF1
 72
     5
 11
942.8565428569108
 21
3571.322325059689
 31
0.0
100
AcDbText
  0
TEXT
  5
1AE
330
1F
100
AcDbEntity
  8
図
  6
CONTINUOUS
 62
     2
100
AcDbText
 10
843.3010028569108
 20
3564.058297245816
 30
0.0
 40
2.666670083999634
  1
本社/〒１１３－００３３　　　　  東京都文京区本郷３－３－６本郷ＯＧＩビル３Ｆ
 41
1.025641068258494
  7
EXCADTTF1
 72
     5
 11
980.1900728569108
 21
3564.058297245816
 31
0.0
100
AcDbText
  0
TEXT
  5
1AF
330
1F
100
AcDbEntity
  8
図
  6
CONTINUOUS
 62
     2
100
AcDbText
 10
843.3010028569108
 20
3557.230497897267
 30
0.0
 40
2.666670083999634
  1
電話０３－５８００－４４７７　　 ＦＡＸ０３－５８００－４１９６
 41
1.025640993333515
  7
EXCADTTF1
 72
     5
 11
955.3011428569108
 21
3557.230497897267
 31
0.0
100
AcDbText
  0
TEXT
  5
1B0
330
1F
100
AcDbEntity
  8
図
  6
CONTINUOUS
 62
     2
100
AcDbText
 10
871.2434705529333
 20
3591.704920261216
 30
0.0
 40
3.333329916000366
  1
日付
 41
1.02564105148709
  7
EXCADTTF1
 72
     5
 11
880.1323505529333
 21
3591.704920261216
 31
0.0
100
AcDbText
  0
TEXT
  5
1B1
330
1F
100
AcDbEntity
  8
図
  6
CONTINUOUS
 62
     2
100
AcDbText
 10
1023.499714651494
 20
3591.704752766183
 30
0.0
 40
3.333329916000366
  1
TPD640
 41
1.02564105148709
  7
EXCADTTF1
 72
     5
 11
1036.833034651494
 21
3591.704752766183
 31
0.0
100
AcDbText
  0
DIMENSION
  5
1B2
330
1F
100
AcDbEntity
  8
図
  6
CONTINUOUS
 62
     3
100
AcDbDimension
  2
*D19
 10
1171.13423989511
 20
1748.51775406215
 30
0.0
 11
1148.134239775901
 21
2068.51775406213
 31
0.0
 70
   160
  3
ISO-25
100
AcDbAlignedDimension
 13
1033.27705598371
 23
2388.51775406211
 33
0.0
 14
1032.65205099181
 24
1748.51775406215
 34
0.0
 50
90.0
100
AcDbRotatedDimension
1001
ACAD
1000
DSTYLE
1002
{
1070
   270
1070
     2
1070
     6
1000
EX_NORM
1070
     7
1000
EX_NORM
1070
    41
1040
30.0
1070
    42
1040
6.99999988079071
1070
    44
1040
10.0
1070
    73
1070
     0
1070
    74
1070
     0
1070
    75
1070
     0
1070
    76
1070
     0
1070
    77
1070
     1
1070
    78
1070
     8
1070
   140
1040
40.0
1070
   147
1040
0.0
1070
   173
1070
     1
1070
   176
1070
     3
1070
   177
1070
     3
1070
   178
1070
     2
1070
   271
1070
     1
1070
   277
1070
     2
1070
   279
1070
     2
1070
   280
1070
     0
1070
   287
1070
     5
1070
   340
1005
146
1002
}
  0
CIRCLE
  5
1BF
330
1F
100
AcDbEntity
  8
図
  6
CONTINUOUS
 62
     4
100
AcDbCircle
 10
530.65084072383
 20
2068.5178110967
 30
0.0
 40
73.0
  0
LINE
  5
1C0
330
1F
100
AcDbEntity
  8
図
  6
CONTINUOUS
 62
     4
100
AcDbLine
 10
982.0735680756693
 20
1805.175919086092
 30
0.0
 11
1015.825229874925
 21
1805.175919086092
 31
0.0
  0
LINE
  5
1C1
330
1F
100
AcDbEntity
  8
図
  6
CONTINUOUS
 62
     4
100
AcDbLine
 10
982.0735680756693
 20
1807.675919086092
 30
0.0
 11
1015.825229874925
 21
1807.675919086092
 31
0.0
  0
LINE
  5
1C2
330
1F
100
AcDbEntity
  8
図
  6
CONTINUOUS
 62
     4
100
AcDbLine
 10
909.004398975298
 20
1832.505919085731
 30
0.0
 11
942.7543989752971
 21
1832.505919085731
 31
0.0
  0
LINE
  5
1C3
330
1F
100
AcDbEntity
  8
図
  6
CONTINUOUS
 62
     4
100
AcDbLine
 10
945.2543989752971
 20
1832.505919085731
 30
0.0
 11
979.5735680756693
 21
1832.505919085731
 31
0.0
  0
LINE
  5
1C4
330
1F
100
AcDbEntity
  8
図
  6
CONTINUOUS
 62
     4
100
AcDbLine
 10
982.0735680756693
 20
1832.505919085731
 30
0.0
 11
1015.825229874925
 21
1832.505919085731
 31
0.0
  0
LINE
  5
1C5
330
1F
100
AcDbEntity
  8
図
  6
CONTINUOUS
 62
     4
100
AcDbLine
 10
909.004398975298
 20
1835.005919085731
 30
0.0
 11
942.7543989752971
 21
1835.005919085731
 31
0.0
  0
LINE
  5
1C6
330
1F
100
AcDbEntity
  8
図
  6
CONTINUOUS
 62
     4
100
AcDbLine
 10
945.2543989752971
 20
1835.005919085731
 30
0.0
 11
979.5735680756693
 21
1835.005919085731
 31
0.0
  0
LINE
  5
1C7
330
1F
100
AcDbEntity
  8
図
  6
CONTINUOUS
 62
     4
100
AcDbLine
 10
982.0735680756693
 20
1835.005919085731
 30
0.0
 11
1015.825229874925
 21
1835.005919085731
 31
0.0
  0
LINE
  5
1C8
330
1F
100
AcDbEntity
  8
図
  6
CONTINUOUS
 62
     4
100
AcDbLine
 10
909.004398975298
 20
1859.83591908609
 30
0.0
 11
942.7543989752971
 21
1859.83591908609
 31
0.0
  0
LINE
  5
1C9
330
1F
100
AcDbEntity
  8
図
  6
CONTINUOUS
 62
     4
100
AcDbLine
 10
945.2543989752971
 20
1859.83591908609
 30
0.0
 11
979.5735680756693
 21
1859.83591908609
 31
0.0
  0
LINE
  5
1CA
330
1F
100
AcDbEntity
  8
図
  6
CONTINUOUS
 62
     4
100
AcDbLine
 10
982.0735680756693
 20
1859.83591908609
 30
0.0
 11
1015.825229874925
 21
1859.83591908609
 31
0.0
  0
LINE
  5
1CB
330
1F
100
AcDbEntity
  8
図
  6
CONTINUOUS
 62
     4
100
AcDbLine
 10
909.004398975298
 20
1862.335919086093
 30
0.0
 11
942.7543989752971
 21
1862.335919086093
 31
0.0
  0
LINE
  5
1CC
330
1F
100
AcDbEntity
  8
図
  6
CONTINUOUS
 62
     4
100
AcDbLine
 10
945.2543989752971
 20
1862.335919086093
 30
0.0
 11
979.5735680756693
 21
1862.335919086093
 31
0.0
  0
LINE
  5
1CD
330
1F
100
AcDbEntity
  8
図
  6
CONTINUOUS
 62
     4
100
AcDbLine
 10
982.0735680756693
 20
1862.335919086093
 30
0.0
 11
1015.825138357782
 21
1862.335919086093
 31
0.0
  0
LINE
  5
1CE
330
1F
100
AcDbEntity
  8
図
  6
CONTINUOUS
 62
     4
100
AcDbLine
 10
925.2543989752999
 20
1887.165919085374
 30
0.0
 11
942.7543989752971
 21
1887.16591908548
 31
0.0
  0
LINE
  5
1CF
330
1F
100
AcDbEntity
  8
図
  6
CONTINUOUS
 62
     4
100
AcDbLine
 10
945.2543989752971
 20
1887.165919085495
 30
0.0
 11
979.5735680756693
 21
1887.1659190857
 31
0.0
  0
LINE
  5
1D0
330
1F
100
AcDbEntity
  8
図
  6
CONTINUOUS
 62
     4
100
AcDbLine
 10
982.0735680756702
 20
1887.165919085715
 30
0.0
 11
999.573568075672
 21
1887.165919085821
 31
0.0
  0
LINE
  5
1D1
330
1F
100
AcDbEntity
  8
図
  6
CONTINUOUS
 62
     4
100
AcDbLine
 10
925.2543989752971
 20
1889.665919085374
 30
0.0
 11
980.0735680756698
 21
1889.665919085374
 31
0.0
  0
ARC
  5
1D2
330
1F
100
AcDbEntity
  8
図
  6
CONTINUOUS
 62
     4
100
AcDbCircle
 10
999.5735680756693
 20
1870.915919085372
 30
0.0
 40
18.75
100
AcDbArc
 50
0.0
 51
90.00000000000001
  0
ARC
  5
1D3
330
1F
100
AcDbEntity
  8
図
  6
CONTINUOUS
 62
     4
100
AcDbCircle
 10
999.5735680756693
 20
1870.915919085372
 30
0.0
 40
16.25
100
AcDbArc
 50
0.0
 51
90.00000000000001
  0
LINE
  5
1D4
330
1F
100
AcDbEntity
  8
図
  6
CONTINUOUS
 62
     4
100
AcDbLine
 10
1015.825229874925
 20
1793.079128374411
 30
0.0
 11
1015.825229874925
 21
1805.175919086092
 31
0.0
  0
LINE
  5
1D5
330
1F
100
AcDbEntity
  8
図
  6
CONTINUOUS
 62
     4
100
AcDbLine
 10
1015.825229874925
 20
1807.675919086092
 30
0.0
 11
1015.825229874925
 21
1832.505919085731
 31
0.0
  0
LINE
  5
1D6
330
1F
100
AcDbEntity
  8
図
  6
CONTINUOUS
 62
     4
100
AcDbLine
 10
1015.825229874925
 20
1835.005919085731
 30
0.0
 11
1015.825229874925
 21
1859.83591908609
 31
0.0
  0
LINE
  5
1D7
330
1F
100
AcDbEntity
  8
図
  6
CONTINUOUS
 62
     4
100
AcDbLine
 10
1018.323568075669
 20
1793.079128374411
 30
0.0
 11
1018.323568075669
 21
1870.915919085372
 31
0.0
  0
LINE
  5
1D8
330
1F
100
AcDbEntity
  8
図
  6
CONTINUOUS
 62
     4
100
AcDbLine
 10
909.004398975298
 20
1807.675919086092
 30
0.0
 11
909.004398975298
 21
1832.505919085731
 31
0.0
  0
LINE
  5
1D9
330
1F
100
AcDbEntity
  8
図
  6
CONTINUOUS
 62
     4
100
AcDbLine
 10
909.004398975298
 20
1835.005919085731
 30
0.0
 11
909.004398975298
 21
1859.83591908609
 31
0.0
  0
LINE
  5
1DA
330
1F
100
AcDbEntity
  8
図
  6
CONTINUOUS
 62
     4
100
AcDbLine
 10
909.004398975298
 20
1862.335919086093
 30
0.0
 11
909.004398975298
 21
1870.915919085372
 31
0.0
  0
LINE
  5
1DB
330
1F
100
AcDbEntity
  8
図
  6
CONTINUOUS
 62
     4
100
AcDbLine
 10
906.5043989752971
 20
1796.595919086092
 30
0.0
 11
906.5043989752971
 21
1870.915919085372
 31
0.0
  0
ARC
  5
1DC
330
1F
100
AcDbEntity
  8
図
  6
CONTINUOUS
 62
     4
100
AcDbCircle
 10
925.2543989752971
 20
1870.915919085372
 30
0.0
 40
18.75
100
AcDbArc
 50
90.00000000000001
 51
180.0
  0
ARC
  5
1DD
330
1F
100
AcDbEntity
  8
図
  6
CONTINUOUS
 62
     4
100
AcDbCircle
 10
925.2543989752971
 20
1870.915919085372
 30
0.0
 40
16.25
100
AcDbArc
 50
90.00000000000001
 51
180.0
  0
LINE
  5
1DE
330
1F
100
AcDbEntity
  8
図
  6
CONTINUOUS
 62
     4
100
AcDbLine
 10
982.0735680756693
 20
1807.675919086092
 30
0.0
 11
982.0735680756693
 21
1832.505919085731
 31
0.0
  0
LINE
  5
1DF
330
1F
100
AcDbEntity
  8
図
  6
CONTINUOUS
 62
     4
100
AcDbLine
 10
982.0735680756693
 20
1835.005919085731
 30
0.0
 11
982.0735680756693
 21
1859.83591908609
 31
0.0
  0
LINE
  5
1E0
330
1F
100
AcDbEntity
  8
図
  6
CONTINUOUS
 62
     4
100
AcDbLine
 10
982.0735680756693
 20
1862.335919086093
 30
0.0
 11
982.0735680756702
 21
1887.165919085715
 31
0.0
  0
LINE
  5
1E1
330
1F
100
AcDbEntity
  8
図
  6
CONTINUOUS
 62
     4
100
AcDbLine
 10
979.5735680756693
 20
1807.675919086093
 30
0.0
 11
979.5735680756693
 21
1832.505919085731
 31
0.0
  0
LINE
  5
1E2
330
1F
100
AcDbEntity
  8
図
  6
CONTINUOUS
 62
     4
100
AcDbLine
 10
979.5735680756693
 20
1835.005919085731
 30
0.0
 11
979.5735680756693
 21
1859.83591908609
 31
0.0
  0
LINE
  5
1E3
330
1F
100
AcDbEntity
  8
図
  6
CONTINUOUS
 62
     4
100
AcDbLine
 10
979.5735680756693
 20
1862.335919086093
 30
0.0
 11
979.5735680756693
 21
1887.1659190857
 31
0.0
  0
LINE
  5
1E4
330
1F
100
AcDbEntity
  8
図
  6
CONTINUOUS
 62
     4
100
AcDbLine
 10
945.2543989752971
 20
1807.675919086092
 30
0.0
 11
945.2543989752971
 21
1832.505919085731
 31
0.0
  0
LINE
  5
1E5
330
1F
100
AcDbEntity
  8
図
  6
CONTINUOUS
 62
     4
100
AcDbLine
 10
945.2543989752971
 20
1835.005919085731
 30
0.0
 11
945.2543989752971
 21
1859.83591908609
 31
0.0
  0
LINE
  5
1E6
330
1F
100
AcDbEntity
  8
図
  6
CONTINUOUS
 62
     4
100
AcDbLine
 10
945.2543989752971
 20
1862.335919086093
 30
0.0
 11
945.2543989752971
 21
1887.165919085495
 31
0.0
  0
LINE
  5
1E7
330
1F
100
AcDbEntity
  8
図
  6
CONTINUOUS
 62
     4
100
AcDbLine
 10
942.7543989752971
 20
1807.675919086092
 30
0.0
 11
942.7543989752971
 21
1832.505919085731
 31
0.0
  0
LINE
  5
1E8
330
1F
100
AcDbEntity
  8
図
  6
CONTINUOUS
 62
     4
100
AcDbLine
 10
942.7543989752971
 20
1835.005919085731
 30
0.0
 11
942.7543989752971
 21
1859.83591908609
 31
0.0
  0
LINE
  5
1E9
330
1F
100
AcDbEntity
  8
図
  6
CONTINUOUS
 62
     4
100
AcDbLine
 10
942.7543989752971
 20
1862.335919086093
 30
0.0
 11
942.7543989752971
 21
1887.165919085479
 31
0.0
  0
LINE
  5
1EA
330
1F
100
AcDbEntity
  8
図
  6
CONTINUOUS
 62
     4
100
AcDbLine
 10
980.0735680756698
 20
1889.665919085374
 30
0.0
 11
999.5735680756693
 21
1889.665919085374
 31
0.0
  0
LINE
  5
1EB
330
1F
100
AcDbEntity
  8
図
  6
CONTINUOUS
 62
     4
100
AcDbLine
 10
1015.823568084043
 20
1870.915827576606
 30
0.0
 11
1015.825138357782
 21
1862.335919086093
 31
0.0
  0
LINE
  5
1EC
330
1F
100
AcDbEntity
  8
図
  6
CONTINUOUS
 62
     4
100
AcDbLine
 10
1016.825229874925
 20
1792.079128374412
 30
0.0
 11
1017.323568075669
 21
1792.079128374412
 31
0.0
  0
ARC
  5
1ED
330
1F
100
AcDbEntity
  8
図
  6
CONTINUOUS
 62
     4
100
AcDbCircle
 10
1016.825229874925
 20
1793.079128374411
 30
0.0
 40
1.0
100
AcDbArc
 50
180.0
 51
270.0
  0
ARC
  5
1EE
330
1F
100
AcDbEntity
  8
図
  6
CONTINUOUS
 62
     4
100
AcDbCircle
 10
1017.323568075669
 20
1793.079128374411
 30
0.0
 40
1.0
100
AcDbArc
 50
270.0
 51
0.0
  0
LINE
  5
1EF
330
1F
100
AcDbEntity
  8
図
  6
CONTINUOUS
 62
     4
100
AcDbLine
 10
911.9953177395669
 20
1764.097946150424
 30
0.0
 11
911.9953177395669
 21
1764.091346679896
 31
0.0
  0
ARC
  5
1F0
330
1F
100
AcDbEntity
  8
図
  6
CONTINUOUS
 62
     4
100
AcDbCircle
 10
910.9953177395669
 20
1764.091346679896
 30
0.0
 40
1.0
100
AcDbArc
 50
0.0
 51
70.99114536012799
  0
LINE
  5
1F1
330
1F
100
AcDbEntity
  8
図
  6
CONTINUOUS
 62
     4
100
AcDbLine
 10
925.2543989752971
 20
1777.845919086092
 30
0.0
 11
1003.089036466464
 21
1777.845919086093
 31
0.0
  0
LINE
  5
1F2
330
1F
100
AcDbEntity
  8
図
  6
CONTINUOUS
 62
     4
100
AcDbLine
 10
925.2544007626452
 20
1780.345919086089
 30
0.0
 11
942.7543989752971
 21
1780.345856528901
 31
0.0
  0
LINE
  5
1F3
330
1F
100
AcDbEntity
  8
図
  6
CONTINUOUS
 62
     4
100
AcDbLine
 10
945.2543989752971
 20
1780.345847592159
 30
0.0
 11
979.5735680756693
 21
1780.345724911533
 31
0.0
  0
ARC
  5
1F4
330
1F
100
AcDbEntity
  8
図
  6
CONTINUOUS
 62
     4
100
AcDbCircle
 10
925.2543989752971
 20
1796.595919086092
 30
0.0
 40
18.75
100
AcDbArc
 50
180.0
 51
270.0
  0
ARC
  5
1F5
330
1F
100
AcDbEntity
  8
図
  6
CONTINUOUS
 62
     4
100
AcDbCircle
 10
925.2543989752971
 20
1796.595919086092
 30
0.0
 40
16.25
100
AcDbArc
 50
180.0
 51
270.0
  0
LINE
  5
1F6
330
1F
100
AcDbEntity
  8
図
  6
CONTINUOUS
 62
     4
100
AcDbLine
 10
982.0735680756693
 20
1780.345717762138
 30
0.0
 11
982.0735680756693
 21
1805.175919086092
 31
0.0
  0
LINE
  5
1F7
330
1F
100
AcDbEntity
  8
図
  6
CONTINUOUS
 62
     4
100
AcDbLine
 10
979.5735680756693
 20
1780.345724911533
 30
0.0
 11
979.5735680756693
 21
1805.175919086092
 31
0.0
  0
LINE
  5
1F8
330
1F
100
AcDbEntity
  8
図
  6
CONTINUOUS
 62
     4
100
AcDbLine
 10
945.2543989752971
 20
1780.345847592159
 30
0.0
 11
945.2543989752971
 21
1805.175919086092
 31
0.0
  0
LINE
  5
1F9
330
1F
100
AcDbEntity
  8
図
  6
CONTINUOUS
 62
     4
100
AcDbLine
 10
942.7543989752971
 20
1780.345856528901
 30
0.0
 11
942.7543989752971
 21
1805.175919086092
 31
0.0
  0
LINE
  5
1FA
330
1F
100
AcDbEntity
  8
図
  6
CONTINUOUS
 62
     4
100
AcDbLine
 10
982.0735680756693
 20
1780.345717762138
 30
0.0
 11
1003.089036466464
 21
1780.345717762138
 31
0.0
  0
LINE
  5
1FB
330
1F
100
AcDbEntity
  8
図
  6
CONTINUOUS
 62
     4
100
AcDbLine
 10
1004.089036466464
 20
1779.345717762137
 30
0.0
 11
1004.089036466464
 21
1778.845919086093
 31
0.0
  0
ARC
  5
1FC
330
1F
100
AcDbEntity
  8
図
  6
CONTINUOUS
 62
     4
100
AcDbCircle
 10
1003.089036466464
 20
1779.345717762137
 30
0.0
 40
1.0
100
AcDbArc
 50
0.0
 51
90.00000000000001
  0
ARC
  5
1FD
330
1F
100
AcDbEntity
  8
図
  6
CONTINUOUS
 62
     4
100
AcDbCircle
 10
1003.089036466464
 20
1778.845919086093
 30
0.0
 40
1.0
100
AcDbArc
 50
270.0
 51
0.0
  0
LINE
  5
1FE
330
1F
100
AcDbEntity
  8
図
  6
CONTINUOUS
 62
     4
100
AcDbLine
 10
909.004398975298
 20
1805.175919086092
 30
0.0
 11
942.7543989752971
 21
1805.175919086092
 31
0.0
  0
LINE
  5
1FF
330
1F
100
AcDbEntity
  8
図
  6
CONTINUOUS
 62
     4
100
AcDbLine
 10
945.2543989752971
 20
1805.175919086092
 30
0.0
 11
979.5735680756693
 21
1805.175919086092
 31
0.0
  0
LINE
  5
200
330
1F
100
AcDbEntity
  8
図
  6
CONTINUOUS
 62
     4
100
AcDbLine
 10
909.004398975298
 20
1807.675919086092
 30
0.0
 11
942.7543989752971
 21
1807.675919086092
 31
0.0
  0
LINE
  5
201
330
1F
100
AcDbEntity
  8
図
  6
CONTINUOUS
 62
     4
100
AcDbLine
 10
945.2543989752971
 20
1807.675919086093
 30
0.0
 11
979.5735680756693
 21
1807.675919086093
 31
0.0
  0
LINE
  5
202
330
1F
100
AcDbEntity
  8
図
  6
CONTINUOUS
 62
     4
100
AcDbLine
 10
909.004398975298
 20
1796.595919086092
 30
0.0
 11
909.004398975298
 21
1805.175919086092
 31
0.0
  0
LINE
  5
203
330
1F
100
AcDbEntity
  8
図
  6
CONTINUOUS
 62
     4
100
AcDbLine
 10
925.2543989752971
 20
2359.189703107349
 30
0.0
 11
1003.089036466464
 21
2359.189703107349
 31
0.0
  0
LINE
  5
204
330
1F
100
AcDbEntity
  8
図
  6
CONTINUOUS
 62
     4
100
AcDbLine
 10
925.2544007626452
 20
2356.689703107353
 30
0.0
 11
942.7543989752971
 21
2356.689765664541
 31
0.0
  0
LINE
  5
205
330
1F
100
AcDbEntity
  8
図
  6
CONTINUOUS
 62
     4
100
AcDbLine
 10
945.2543989752971
 20
2356.689774601283
 30
0.0
 11
979.5735680756693
 21
2356.689897281909
 31
0.0
  0
LINE
  5
206
330
1F
100
AcDbEntity
  8
図
  6
CONTINUOUS
 62
     4
100
AcDbLine
 10
909.004398975298
 20
2331.85970310735
 30
0.0
 11
942.7543989752971
 21
2331.85970310735
 31
0.0
  0
LINE
  5
207
330
1F
100
AcDbEntity
  8
図
  6
CONTINUOUS
 62
     4
100
AcDbLine
 10
945.2543989752971
 20
2331.85970310735
 30
0.0
 11
979.5735680756693
 21
2331.85970310735
 31
0.0
  0
LINE
  5
208
330
1F
100
AcDbEntity
  8
図
  6
CONTINUOUS
 62
     4
100
AcDbLine
 10
909.004398975298
 20
2329.35970310735
 30
0.0
 11
942.7543989752971
 21
2329.35970310735
 31
0.0
  0
LINE
  5
209
330
1F
100
AcDbEntity
  8
図
  6
CONTINUOUS
 62
     4
100
AcDbLine
 10
945.2543989752971
 20
2329.359703107349
 30
0.0
 11
979.5735680756693
 21
2329.359703107349
 31
0.0
  0
LINE
  5
20A
330
1F
100
AcDbEntity
  8
図
  6
CONTINUOUS
 62
     4
100
AcDbLine
 10
909.004398975298
 20
2304.529703107711
 30
0.0
 11
942.7543989752971
 21
2304.529703107711
 31
0.0
  0
LINE
  5
20B
330
1F
100
AcDbEntity
  8
図
  6
CONTINUOUS
 62
     4
100
AcDbLine
 10
945.2543989752971
 20
2304.529703107711
 30
0.0
 11
979.5735680756693
 21
2304.529703107711
 31
0.0
  0
LINE
  5
20C
330
1F
100
AcDbEntity
  8
図
  6
CONTINUOUS
 62
     4
100
AcDbLine
 10
909.004398975298
 20
2302.029703107711
 30
0.0
 11
942.7543989752971
 21
2302.029703107711
 31
0.0
  0
LINE
  5
20D
330
1F
100
AcDbEntity
  8
図
  6
CONTINUOUS
 62
     4
100
AcDbLine
 10
945.2543989752971
 20
2302.029703107711
 30
0.0
 11
979.5735680756693
 21
2302.029703107711
 31
0.0
  0
LINE
  5
20E
330
1F
100
AcDbEntity
  8
図
  6
CONTINUOUS
 62
     4
100
AcDbLine
 10
909.004398975298
 20
2277.199703107352
 30
0.0
 11
942.7543989752971
 21
2277.199703107352
 31
0.0
  0
LINE
  5
20F
330
1F
100
AcDbEntity
  8
図
  6
CONTINUOUS
 62
     4
100
AcDbLine
 10
945.2543989752971
 20
2277.199703107352
 30
0.0
 11
979.5735680756693
 21
2277.199703107352
 31
0.0
  0
LINE
  5
210
330
1F
100
AcDbEntity
  8
図
  6
CONTINUOUS
 62
     4
100
AcDbLine
 10
909.004398975298
 20
2274.699703107349
 30
0.0
 11
942.7543989752971
 21
2274.699703107349
 31
0.0
  0
LINE
  5
211
330
1F
100
AcDbEntity
  8
図
  6
CONTINUOUS
 62
     4
100
AcDbLine
 10
945.2543989752971
 20
2274.699703107349
 30
0.0
 11
979.5735680756693
 21
2274.699703107349
 31
0.0
  0
LINE
  5
212
330
1F
100
AcDbEntity
  8
図
  6
CONTINUOUS
 62
     4
100
AcDbLine
 10
925.2543989752999
 20
2249.869703108068
 30
0.0
 11
942.7543989752971
 21
2249.869703107962
 31
0.0
  0
LINE
  5
213
330
1F
100
AcDbEntity
  8
図
  6
CONTINUOUS
 62
     4
100
AcDbLine
 10
945.2543989752971
 20
2249.869703107947
 30
0.0
 11
979.5735680756693
 21
2249.869703107742
 31
0.0
  0
LINE
  5
214
330
1F
100
AcDbEntity
  8
図
  6
CONTINUOUS
 62
     4
100
AcDbLine
 10
982.0735680756702
 20
2249.869703107727
 30
0.0
 11
999.573568075672
 21
2249.869703107621
 31
0.0
  0
LINE
  5
215
330
1F
100
AcDbEntity
  8
図
  6
CONTINUOUS
 62
     4
100
AcDbLine
 10
925.2543989752971
 20
2247.369703108068
 30
0.0
 11
980.0735680756698
 21
2247.369703108068
 31
0.0
  0
LINE
  5
216
330
1F
100
AcDbEntity
  8
図
  6
CONTINUOUS
 62
     4
100
AcDbLine
 10
909.004398975298
 20
2340.439703107349
 30
0.0
 11
909.004398975298
 21
2331.85970310735
 31
0.0
  0
LINE
  5
217
330
1F
100
AcDbEntity
  8
図
  6
CONTINUOUS
 62
     4
100
AcDbLine
 10
909.004398975298
 20
2329.35970310735
 30
0.0
 11
909.004398975298
 21
2304.529703107711
 31
0.0
  0
LINE
  5
218
330
1F
100
AcDbEntity
  8
図
  6
CONTINUOUS
 62
     4
100
AcDbLine
 10
909.004398975298
 20
2302.029703107711
 30
0.0
 11
909.004398975298
 21
2277.199703107352
 31
0.0
  0
LINE
  5
219
330
1F
100
AcDbEntity
  8
図
  6
CONTINUOUS
 62
     4
100
AcDbLine
 10
909.004398975298
 20
2274.699703107349
 30
0.0
 11
909.004398975298
 21
2266.11970310807
 31
0.0
  0
LINE
  5
21A
330
1F
100
AcDbEntity
  8
図
  6
CONTINUOUS
 62
     4
100
AcDbLine
 10
906.5043989752971
 20
2340.439703107349
 30
0.0
 11
906.5043989752971
 21
2266.11970310807
 31
0.0
  0
ARC
  5
21B
330
1F
100
AcDbEntity
  8
図
  6
CONTINUOUS
 62
     4
100
AcDbCircle
 10
925.2543989752971
 20
2266.11970310807
 30
0.0
 40
18.75
100
AcDbArc
 50
180.0
 51
270.0
  0
ARC
  5
21C
330
1F
100
AcDbEntity
  8
図
  6
CONTINUOUS
 62
     4
100
AcDbCircle
 10
925.2543989752971
 20
2266.11970310807
 30
0.0
 40
16.25
100
AcDbArc
 50
180.0
 51
270.0
  0
ARC
  5
21D
330
1F
100
AcDbEntity
  8
図
  6
CONTINUOUS
 62
     4
100
AcDbCircle
 10
925.2543989752971
 20
2340.439703107349
 30
0.0
 40
18.75
100
AcDbArc
 50
90.00000000000001
 51
180.0
  0
ARC
  5
21E
330
1F
100
AcDbEntity
  8
図
  6
CONTINUOUS
 62
     4
100
AcDbCircle
 10
925.2543989752971
 20
2340.439703107349
 30
0.0
 40
16.25
100
AcDbArc
 50
90.00000000000001
 51
180.0
  0
LINE
  5
21F
330
1F
100
AcDbEntity
  8
図
  6
CONTINUOUS
 62
     4
100
AcDbLine
 10
982.0735680756693
 20
2356.689904431304
 30
0.0
 11
982.0735680756693
 21
2331.85970310735
 31
0.0
  0
LINE
  5
220
330
1F
100
AcDbEntity
  8
図
  6
CONTINUOUS
 62
     4
100
AcDbLine
 10
982.0735680756693
 20
2329.35970310735
 30
0.0
 11
982.0735680756693
 21
2304.529703107711
 31
0.0
  0
LINE
  5
221
330
1F
100
AcDbEntity
  8
図
  6
CONTINUOUS
 62
     4
100
AcDbLine
 10
982.0735680756693
 20
2302.029703107711
 30
0.0
 11
982.0735680756693
 21
2277.199703107352
 31
0.0
  0
LINE
  5
222
330
1F
100
AcDbEntity
  8
図
  6
CONTINUOUS
 62
     4
100
AcDbLine
 10
982.0735680756693
 20
2274.699703107349
 30
0.0
 11
982.0735680756702
 21
2249.869703107727
 31
0.0
  0
LINE
  5
223
330
1F
100
AcDbEntity
  8
図
  6
CONTINUOUS
 62
     4
100
AcDbLine
 10
979.5735680756693
 20
2356.689897281909
 30
0.0
 11
979.5735680756693
 21
2331.85970310735
 31
0.0
  0
LINE
  5
224
330
1F
100
AcDbEntity
  8
図
  6
CONTINUOUS
 62
     4
100
AcDbLine
 10
979.5735680756693
 20
2329.359703107349
 30
0.0
 11
979.5735680756693
 21
2304.529703107711
 31
0.0
  0
LINE
  5
225
330
1F
100
AcDbEntity
  8
図
  6
CONTINUOUS
 62
     4
100
AcDbLine
 10
979.5735680756693
 20
2302.029703107711
 30
0.0
 11
979.5735680756693
 21
2277.199703107352
 31
0.0
  0
LINE
  5
226
330
1F
100
AcDbEntity
  8
図
  6
CONTINUOUS
 62
     4
100
AcDbLine
 10
979.5735680756693
 20
2274.699703107349
 30
0.0
 11
979.5735680756693
 21
2249.869703107742
 31
0.0
  0
LINE
  5
227
330
1F
100
AcDbEntity
  8
図
  6
CONTINUOUS
 62
     4
100
AcDbLine
 10
945.2543989752971
 20
2356.689774601283
 30
0.0
 11
945.2543989752971
 21
2331.85970310735
 31
0.0
  0
LINE
  5
228
330
1F
100
AcDbEntity
  8
図
  6
CONTINUOUS
 62
     4
100
AcDbLine
 10
945.2543989752971
 20
2329.35970310735
 30
0.0
 11
945.2543989752971
 21
2304.529703107711
 31
0.0
  0
LINE
  5
229
330
1F
100
AcDbEntity
  8
図
  6
CONTINUOUS
 62
     4
100
AcDbLine
 10
945.2543989752971
 20
2302.029703107711
 30
0.0
 11
945.2543989752971
 21
2277.199703107352
 31
0.0
  0
LINE
  5
22A
330
1F
100
AcDbEntity
  8
図
  6
CONTINUOUS
 62
     4
100
AcDbLine
 10
945.2543989752971
 20
2274.699703107349
 30
0.0
 11
945.2543989752971
 21
2249.869703107947
 31
0.0
  0
LINE
  5
22B
330
1F
100
AcDbEntity
  8
図
  6
CONTINUOUS
 62
     4
100
AcDbLine
 10
942.7543989752971
 20
2356.689765664541
 30
0.0
 11
942.7543989752971
 21
2331.85970310735
 31
0.0
  0
LINE
  5
22C
330
1F
100
AcDbEntity
  8
図
  6
CONTINUOUS
 62
     4
100
AcDbLine
 10
942.7543989752971
 20
2329.35970310735
 30
0.0
 11
942.7543989752971
 21
2304.529703107711
 31
0.0
  0
LINE
  5
22D
330
1F
100
AcDbEntity
  8
図
  6
CONTINUOUS
 62
     4
100
AcDbLine
 10
942.7543989752971
 20
2302.029703107711
 30
0.0
 11
942.7543989752971
 21
2277.199703107352
 31
0.0
  0
LINE
  5
22E
330
1F
100
AcDbEntity
  8
図
  6
CONTINUOUS
 62
     4
100
AcDbLine
 10
942.7543989752971
 20
2274.699703107349
 30
0.0
 11
942.7543989752971
 21
2249.869703107963
 31
0.0
  0
LINE
  5
22F
330
1F
100
AcDbEntity
  8
図
  6
CONTINUOUS
 62
     4
100
AcDbLine
 10
980.0735680756698
 20
2247.369703108068
 30
0.0
 11
999.5735680756693
 21
2247.369703108068
 31
0.0
  0
LINE
  5
230
330
1F
100
AcDbEntity
  8
図
  6
CONTINUOUS
 62
     4
100
AcDbLine
 10
982.0735680756693
 20
2356.689904431304
 30
0.0
 11
1003.089036466464
 21
2356.689904431304
 31
0.0
  0
LINE
  5
231
330
1F
100
AcDbEntity
  8
図
  6
CONTINUOUS
 62
     4
100
AcDbLine
 10
1004.089036466464
 20
2357.689904431305
 30
0.0
 11
1004.089036466464
 21
2358.189703107349
 31
0.0
  0
ARC
  5
232
330
1F
100
AcDbEntity
  8
図
  6
CONTINUOUS
 62
     4
100
AcDbCircle
 10
1003.089036466464
 20
2357.689904431305
 30
0.0
 40
1.0
100
AcDbArc
 50
270.0
 51
0.0
  0
ARC
  5
233
330
1F
100
AcDbEntity
  8
図
  6
CONTINUOUS
 62
     4
100
AcDbCircle
 10
1003.089036466464
 20
2358.189703107349
 30
0.0
 40
1.0
100
AcDbArc
 50
0.0
 51
89.9999999999991
  0
ARC
  5
234
330
1F
100
AcDbEntity
  8
図
  6
CONTINUOUS
 62
     4
100
AcDbCircle
 10
999.5735680756693
 20
2266.11970310807
 30
0.0
 40
18.75
100
AcDbArc
 50
270.0
 51
0.0
  0
ARC
  5
235
330
1F
100
AcDbEntity
  8
図
  6
CONTINUOUS
 62
     4
100
AcDbCircle
 10
999.5735680756693
 20
2266.11970310807
 30
0.0
 40
16.25
100
AcDbArc
 50
270.0
 51
0.0
  0
LINE
  5
236
330
1F
100
AcDbEntity
  8
図
  6
CONTINUOUS
 62
     4
100
AcDbLine
 10
982.0735680756693
 20
2274.699703107349
 30
0.0
 11
1015.825138357782
 21
2274.699703107349
 31
0.0
  0
LINE
  5
237
330
1F
100
AcDbEntity
  8
図
  6
CONTINUOUS
 62
     4
100
AcDbLine
 10
982.0735680756693
 20
2277.199703107352
 30
0.0
 11
1015.825229874925
 21
2277.199703107352
 31
0.0
  0
LINE
  5
238
330
1F
100
AcDbEntity
  8
図
  6
CONTINUOUS
 62
     4
100
AcDbLine
 10
982.0735680756693
 20
2302.029703107711
 30
0.0
 11
1015.825229874925
 21
2302.029703107711
 31
0.0
  0
LINE
  5
239
330
1F
100
AcDbEntity
  8
図
  6
CONTINUOUS
 62
     4
100
AcDbLine
 10
982.0735680756693
 20
2304.529703107711
 30
0.0
 11
1015.825229874925
 21
2304.529703107711
 31
0.0
  0
LINE
  5
23A
330
1F
100
AcDbEntity
  8
図
  6
CONTINUOUS
 62
     4
100
AcDbLine
 10
982.0735680756693
 20
2329.35970310735
 30
0.0
 11
1015.825229874925
 21
2329.35970310735
 31
0.0
  0
LINE
  5
23B
330
1F
100
AcDbEntity
  8
図
  6
CONTINUOUS
 62
     4
100
AcDbLine
 10
982.0735680756693
 20
2331.85970310735
 30
0.0
 11
1015.825229874925
 21
2331.85970310735
 31
0.0
  0
LINE
  5
23C
330
1F
100
AcDbEntity
  8
図
  6
CONTINUOUS
 62
     4
100
AcDbLine
 10
1016.825229874925
 20
2344.95649381903
 30
0.0
 11
1017.323568075669
 21
2344.95649381903
 31
0.0
  0
ARC
  5
23D
330
1F
100
AcDbEntity
  8
図
  6
CONTINUOUS
 62
     4
100
AcDbCircle
 10
1016.825229874925
 20
2343.956493819031
 30
0.0
 40
1.0
100
AcDbArc
 50
90.00000000000001
 51
180.0
  0
ARC
  5
23E
330
1F
100
AcDbEntity
  8
図
  6
CONTINUOUS
 62
     4
100
AcDbCircle
 10
1017.323568075669
 20
2343.956493819031
 30
0.0
 40
1.0
100
AcDbArc
 50
0.0
 51
89.99999999999446
  0
LINE
  5
23F
330
1F
100
AcDbEntity
  8
図
  6
CONTINUOUS
 62
     4
100
AcDbLine
 10
1015.825229874925
 20
2343.956493819031
 30
0.0
 11
1015.825229874925
 21
2331.85970310735
 31
0.0
  0
LINE
  5
240
330
1F
100
AcDbEntity
  8
図
  6
CONTINUOUS
 62
     4
100
AcDbLine
 10
1018.323568075669
 20
2343.956493819031
 30
0.0
 11
1018.323568075669
 21
2266.11970310807
 31
0.0
  0
LINE
  5
241
330
1F
100
AcDbEntity
  8
図
  6
CONTINUOUS
 62
     4
100
AcDbLine
 10
1015.825229874925
 20
2329.35970310735
 30
0.0
 11
1015.825229874925
 21
2304.529703107711
 31
0.0
  0
LINE
  5
242
330
1F
100
AcDbEntity
  8
図
  6
CONTINUOUS
 62
     4
100
AcDbLine
 10
1015.825229874925
 20
2302.029703107711
 30
0.0
 11
1015.825229874925
 21
2277.199703107352
 31
0.0
  0
LINE
  5
243
330
1F
100
AcDbEntity
  8
図
  6
CONTINUOUS
 62
     4
100
AcDbLine
 10
1015.823568084043
 20
2266.119794616836
 30
0.0
 11
1015.825138357782
 21
2274.699703107349
 31
0.0
  0
LINE
  5
244
330
1F
100
AcDbEntity
  8
図
  6
CONTINUOUS
 62
     4
100
AcDbLine
 10
530.0497030083225
 20
2359.189703107349
 30
0.0
 11
452.2150655171554
 21
2359.189703107349
 31
0.0
  0
LINE
  5
245
330
1F
100
AcDbEntity
  8
図
  6
CONTINUOUS
 62
     4
100
AcDbLine
 10
530.0497012209744
 20
2356.689703107353
 30
0.0
 11
512.5497030083225
 21
2356.689765664541
 31
0.0
  0
LINE
  5
246
330
1F
100
AcDbEntity
  8
図
  6
CONTINUOUS
 62
     4
100
AcDbLine
 10
510.0497030083225
 20
2356.689774601283
 30
0.0
 11
475.7305339079503
 21
2356.689897281909
 31
0.0
  0
LINE
  5
247
330
1F
100
AcDbEntity
  8
図
  6
CONTINUOUS
 62
     4
100
AcDbLine
 10
546.2997030083216
 20
2331.85970310735
 30
0.0
 11
512.5497030083225
 21
2331.85970310735
 31
0.0
  0
LINE
  5
248
330
1F
100
AcDbEntity
  8
図
  6
CONTINUOUS
 62
     4
100
AcDbLine
 10
510.0497030083225
 20
2331.85970310735
 30
0.0
 11
475.7305339079503
 21
2331.85970310735
 31
0.0
  0
LINE
  5
249
330
1F
100
AcDbEntity
  8
図
  6
CONTINUOUS
 62
     4
100
AcDbLine
 10
546.2997030083216
 20
2329.35970310735
 30
0.0
 11
512.5497030083225
 21
2329.35970310735
 31
0.0
  0
LINE
  5
24A
330
1F
100
AcDbEntity
  8
図
  6
CONTINUOUS
 62
     4
100
AcDbLine
 10
510.0497030083225
 20
2329.359703107349
 30
0.0
 11
475.7305339079503
 21
2329.359703107349
 31
0.0
  0
LINE
  5
24B
330
1F
100
AcDbEntity
  8
図
  6
CONTINUOUS
 62
     4
100
AcDbLine
 10
546.2997030083216
 20
2304.529703107711
 30
0.0
 11
512.5497030083225
 21
2304.529703107711
 31
0.0
  0
LINE
  5
24C
330
1F
100
AcDbEntity
  8
図
  6
CONTINUOUS
 62
     4
100
AcDbLine
 10
510.0497030083225
 20
2304.529703107711
 30
0.0
 11
475.7305339079503
 21
2304.529703107711
 31
0.0
  0
LINE
  5
24D
330
1F
100
AcDbEntity
  8
図
  6
CONTINUOUS
 62
     4
100
AcDbLine
 10
546.2997030083216
 20
2302.029703107711
 30
0.0
 11
512.5497030083225
 21
2302.029703107711
 31
0.0
  0
LINE
  5
24E
330
1F
100
AcDbEntity
  8
図
  6
CONTINUOUS
 62
     4
100
AcDbLine
 10
510.0497030083225
 20
2302.029703107711
 30
0.0
 11
475.7305339079503
 21
2302.029703107711
 31
0.0
  0
LINE
  5
24F
330
1F
100
AcDbEntity
  8
図
  6
CONTINUOUS
 62
     4
100
AcDbLine
 10
546.2997030083216
 20
2277.199703107352
 30
0.0
 11
512.5497030083225
 21
2277.199703107352
 31
0.0
  0
LINE
  5
250
330
1F
100
AcDbEntity
  8
図
  6
CONTINUOUS
 62
     4
100
AcDbLine
 10
510.0497030083225
 20
2277.199703107352
 30
0.0
 11
475.7305339079503
 21
2277.199703107352
 31
0.0
  0
LINE
  5
251
330
1F
100
AcDbEntity
  8
図
  6
CONTINUOUS
 62
     4
100
AcDbLine
 10
546.2997030083216
 20
2274.699703107349
 30
0.0
 11
512.5497030083225
 21
2274.699703107349
 31
0.0
  0
LINE
  5
252
330
1F
100
AcDbEntity
  8
図
  6
CONTINUOUS
 62
     4
100
AcDbLine
 10
510.0497030083225
 20
2274.699703107349
 30
0.0
 11
475.7305339079503
 21
2274.699703107349
 31
0.0
  0
LINE
  5
253
330
1F
100
AcDbEntity
  8
図
  6
CONTINUOUS
 62
     4
100
AcDbLine
 10
530.0497030083197
 20
2249.869703108068
 30
0.0
 11
512.5497030083225
 21
2249.869703107962
 31
0.0
  0
LINE
  5
254
330
1F
100
AcDbEntity
  8
図
  6
CONTINUOUS
 62
     4
100
AcDbLine
 10
510.0497030083225
 20
2249.869703107947
 30
0.0
 11
475.7305339079503
 21
2249.869703107742
 31
0.0
  0
LINE
  5
255
330
1F
100
AcDbEntity
  8
図
  6
CONTINUOUS
 62
     4
100
AcDbLine
 10
473.2305339079494
 20
2249.869703107727
 30
0.0
 11
455.7305339079476
 21
2249.869703107621
 31
0.0
  0
LINE
  5
256
330
1F
100
AcDbEntity
  8
図
  6
CONTINUOUS
 62
     4
100
AcDbLine
 10
530.0497030083225
 20
2247.369703108068
 30
0.0
 11
475.2305339079498
 21
2247.369703108068
 31
0.0
  0
LINE
  5
257
330
1F
100
AcDbEntity
  8
図
  6
CONTINUOUS
 62
     4
100
AcDbLine
 10
546.2997030083216
 20
2340.439703107349
 30
0.0
 11
546.2997030083216
 21
2331.85970310735
 31
0.0
  0
LINE
  5
258
330
1F
100
AcDbEntity
  8
図
  6
CONTINUOUS
 62
     4
100
AcDbLine
 10
546.2997030083216
 20
2329.35970310735
 30
0.0
 11
546.2997030083216
 21
2304.529703107711
 31
0.0
  0
LINE
  5
259
330
1F
100
AcDbEntity
  8
図
  6
CONTINUOUS
 62
     4
100
AcDbLine
 10
546.2997030083216
 20
2302.029703107711
 30
0.0
 11
546.2997030083216
 21
2277.199703107352
 31
0.0
  0
LINE
  5
25A
330
1F
100
AcDbEntity
  8
図
  6
CONTINUOUS
 62
     4
100
AcDbLine
 10
546.2997030083216
 20
2274.699703107349
 30
0.0
 11
546.2997030083216
 21
2266.11970310807
 31
0.0
  0
LINE
  5
25B
330
1F
100
AcDbEntity
  8
図
  6
CONTINUOUS
 62
     4
100
AcDbLine
 10
548.7997030083225
 20
2340.439703107349
 30
0.0
 11
548.7997030083225
 21
2266.11970310807
 31
0.0
  0
ARC
  5
25C
330
1F
100
AcDbEntity
  8
図
  6
CONTINUOUS
 62
     4
100
AcDbCircle
 10
530.0497030083225
 20
2266.11970310807
 30
0.0
 40
18.75
100
AcDbArc
 50
270.0
 51
0.0
  0
ARC
  5
25D
330
1F
100
AcDbEntity
  8
図
  6
CONTINUOUS
 62
     4
100
AcDbCircle
 10
530.0497030083225
 20
2266.11970310807
 30
0.0
 40
16.25
100
AcDbArc
 50
270.0
 51
0.0
  0
ARC
  5
25E
330
1F
100
AcDbEntity
  8
図
  6
CONTINUOUS
 62
     4
100
AcDbCircle
 10
530.0497030083225
 20
2340.439703107349
 30
0.0
 40
18.75
100
AcDbArc
 50
0.0
 51
90.00000000000001
  0
ARC
  5
25F
330
1F
100
AcDbEntity
  8
図
  6
CONTINUOUS
 62
     4
100
AcDbCircle
 10
530.0497030083225
 20
2340.439703107349
 30
0.0
 40
16.25
100
AcDbArc
 50
0.0
 51
90.00000000000001
  0
LINE
  5
260
330
1F
100
AcDbEntity
  8
図
  6
CONTINUOUS
 62
     4
100
AcDbLine
 10
473.2305339079503
 20
2356.689904431304
 30
0.0
 11
473.2305339079503
 21
2331.85970310735
 31
0.0
  0
LINE
  5
261
330
1F
100
AcDbEntity
  8
図
  6
CONTINUOUS
 62
     4
100
AcDbLine
 10
473.2305339079503
 20
2329.35970310735
 30
0.0
 11
473.2305339079503
 21
2304.529703107711
 31
0.0
  0
LINE
  5
262
330
1F
100
AcDbEntity
  8
図
  6
CONTINUOUS
 62
     4
100
AcDbLine
 10
473.2305339079503
 20
2302.029703107711
 30
0.0
 11
473.2305339079503
 21
2277.199703107352
 31
0.0
  0
LINE
  5
263
330
1F
100
AcDbEntity
  8
図
  6
CONTINUOUS
 62
     4
100
AcDbLine
 10
473.2305339079503
 20
2274.699703107349
 30
0.0
 11
473.2305339079494
 21
2249.869703107727
 31
0.0
  0
LINE
  5
264
330
1F
100
AcDbEntity
  8
図
  6
CONTINUOUS
 62
     4
100
AcDbLine
 10
475.7305339079503
 20
2356.689897281909
 30
0.0
 11
475.7305339079503
 21
2331.85970310735
 31
0.0
  0
LINE
  5
265
330
1F
100
AcDbEntity
  8
図
  6
CONTINUOUS
 62
     4
100
AcDbLine
 10
475.7305339079503
 20
2329.359703107349
 30
0.0
 11
475.7305339079503
 21
2304.529703107711
 31
0.0
  0
LINE
  5
266
330
1F
100
AcDbEntity
  8
図
  6
CONTINUOUS
 62
     4
100
AcDbLine
 10
475.7305339079503
 20
2302.029703107711
 30
0.0
 11
475.7305339079503
 21
2277.199703107352
 31
0.0
  0
LINE
  5
267
330
1F
100
AcDbEntity
  8
図
  6
CONTINUOUS
 62
     4
100
AcDbLine
 10
475.7305339079503
 20
2274.699703107349
 30
0.0
 11
475.7305339079503
 21
2249.869703107742
 31
0.0
  0
LINE
  5
268
330
1F
100
AcDbEntity
  8
図
  6
CONTINUOUS
 62
     4
100
AcDbLine
 10
510.0497030083225
 20
2356.689774601283
 30
0.0
 11
510.0497030083225
 21
2331.85970310735
 31
0.0
  0
LINE
  5
269
330
1F
100
AcDbEntity
  8
図
  6
CONTINUOUS
 62
     4
100
AcDbLine
 10
510.0497030083225
 20
2329.35970310735
 30
0.0
 11
510.0497030083225
 21
2304.529703107711
 31
0.0
  0
LINE
  5
26A
330
1F
100
AcDbEntity
  8
図
  6
CONTINUOUS
 62
     4
100
AcDbLine
 10
510.0497030083225
 20
2302.029703107711
 30
0.0
 11
510.0497030083225
 21
2277.199703107352
 31
0.0
  0
LINE
  5
26B
330
1F
100
AcDbEntity
  8
図
  6
CONTINUOUS
 62
     4
100
AcDbLine
 10
510.0497030083225
 20
2274.699703107349
 30
0.0
 11
510.0497030083225
 21
2249.869703107947
 31
0.0
  0
LINE
  5
26C
330
1F
100
AcDbEntity
  8
図
  6
CONTINUOUS
 62
     4
100
AcDbLine
 10
512.5497030083225
 20
2356.689765664541
 30
0.0
 11
512.5497030083225
 21
2331.85970310735
 31
0.0
  0
LINE
  5
26D
330
1F
100
AcDbEntity
  8
図
  6
CONTINUOUS
 62
     4
100
AcDbLine
 10
512.5497030083225
 20
2329.35970310735
 30
0.0
 11
512.5497030083225
 21
2304.529703107711
 31
0.0
  0
LINE
  5
26E
330
1F
100
AcDbEntity
  8
図
  6
CONTINUOUS
 62
     4
100
AcDbLine
 10
512.5497030083225
 20
2302.029703107711
 30
0.0
 11
512.5497030083225
 21
2277.199703107352
 31
0.0
  0
LINE
  5
26F
330
1F
100
AcDbEntity
  8
図
  6
CONTINUOUS
 62
     4
100
AcDbLine
 10
512.5497030083225
 20
2274.699703107349
 30
0.0
 11
512.5497030083225
 21
2249.869703107963
 31
0.0
  0
LINE
  5
270
330
1F
100
AcDbEntity
  8
図
  6
CONTINUOUS
 62
     4
100
AcDbLine
 10
475.2305339079498
 20
2247.369703108068
 30
0.0
 11
455.7305339079503
 21
2247.369703108068
 31
0.0
  0
LINE
  5
271
330
1F
100
AcDbEntity
  8
図
  6
CONTINUOUS
 62
     4
100
AcDbLine
 10
473.2305339079503
 20
2356.689904431304
 30
0.0
 11
452.2150655171554
 21
2356.689904431304
 31
0.0
  0
LINE
  5
272
330
1F
100
AcDbEntity
  8
図
  6
CONTINUOUS
 62
     4
100
AcDbLine
 10
451.2150655171554
 20
2357.689904431305
 30
0.0
 11
451.2150655171554
 21
2358.189703107349
 31
0.0
  0
ARC
  5
273
330
1F
100
AcDbEntity
  8
図
  6
CONTINUOUS
 62
     4
100
AcDbCircle
 10
452.2150655171554
 20
2357.689904431305
 30
0.0
 40
1.0
100
AcDbArc
 50
180.0
 51
270.0
  0
ARC
  5
274
330
1F
100
AcDbEntity
  8
図
  6
CONTINUOUS
 62
     4
100
AcDbCircle
 10
452.2150655171554
 20
2358.189703107349
 30
0.0
 40
1.0
100
AcDbArc
 50
90.00000000000001
 51
180.0
  0
LINE
  5
275
330
1F
100
AcDbEntity
  8
図
  6
CONTINUOUS
 62
     4
100
AcDbLine
 10
473.2305339079503
 20
2274.699703107349
 30
0.0
 11
439.4789636258374
 21
2274.699703107349
 31
0.0
  0
LINE
  5
276
330
1F
100
AcDbEntity
  8
図
  6
CONTINUOUS
 62
     4
100
AcDbLine
 10
473.2305339079503
 20
2277.199703107352
 30
0.0
 11
439.4788721086943
 21
2277.199703107352
 31
0.0
  0
LINE
  5
277
330
1F
100
AcDbEntity
  8
図
  6
CONTINUOUS
 62
     4
100
AcDbLine
 10
473.2305339079503
 20
2302.029703107711
 30
0.0
 11
439.4788721086943
 21
2302.029703107711
 31
0.0
  0
LINE
  5
278
330
1F
100
AcDbEntity
  8
図
  6
CONTINUOUS
 62
     4
100
AcDbLine
 10
473.2305339079503
 20
2304.529703107711
 30
0.0
 11
439.4788721086943
 21
2304.529703107711
 31
0.0
  0
LINE
  5
279
330
1F
100
AcDbEntity
  8
図
  6
CONTINUOUS
 62
     4
100
AcDbLine
 10
473.2305339079503
 20
2329.35970310735
 30
0.0
 11
439.4788721086943
 21
2329.35970310735
 31
0.0
  0
LINE
  5
27A
330
1F
100
AcDbEntity
  8
図
  6
CONTINUOUS
 62
     4
100
AcDbLine
 10
473.2305339079503
 20
2331.85970310735
 30
0.0
 11
439.4788721086943
 21
2331.85970310735
 31
0.0
  0
LINE
  5
27B
330
1F
100
AcDbEntity
  8
図
  6
CONTINUOUS
 62
     4
100
AcDbLine
 10
439.4788721086943
 20
2343.956493819031
 30
0.0
 11
439.4788721086943
 21
2331.85970310735
 31
0.0
  0
LINE
  5
27C
330
1F
100
AcDbEntity
  8
図
  6
CONTINUOUS
 62
     4
100
AcDbLine
 10
439.4788721086943
 20
2329.35970310735
 30
0.0
 11
439.4788721086943
 21
2304.529703107711
 31
0.0
  0
LINE
  5
27D
330
1F
100
AcDbEntity
  8
図
  6
CONTINUOUS
 62
     4
100
AcDbLine
 10
439.4788721086943
 20
2302.029703107711
 30
0.0
 11
439.4788721086943
 21
2277.199703107352
 31
0.0
  0
LINE
  5
27E
330
1F
100
AcDbEntity
  8
図
  6
CONTINUOUS
 62
     4
100
AcDbLine
 10
436.9805339079503
 20
2343.956493819031
 30
0.0
 11
436.9805339079503
 21
2266.11970310807
 31
0.0
  0
LINE
  5
27F
330
1F
100
AcDbEntity
  8
図
  6
CONTINUOUS
 62
     4
100
AcDbLine
 10
439.4805338995766
 20
2266.119794616836
 30
0.0
 11
439.4789636258374
 21
2274.699703107349
 31
0.0
  0
LINE
  5
280
330
1F
100
AcDbEntity
  8
図
  6
CONTINUOUS
 62
     4
100
AcDbLine
 10
438.4788721086943
 20
2344.95649381903
 30
0.0
 11
437.9805339079503
 21
2344.95649381903
 31
0.0
  0
ARC
  5
281
330
1F
100
AcDbEntity
  8
図
  6
CONTINUOUS
 62
     4
100
AcDbCircle
 10
438.4788721086943
 20
2343.956493819031
 30
0.0
 40
1.0
100
AcDbArc
 50
0.0
 51
90.00000000000001
  0
ARC
  5
282
330
1F
100
AcDbEntity
  8
図
  6
CONTINUOUS
 62
     4
100
AcDbCircle
 10
437.9805339079503
 20
2343.956493819031
 30
0.0
 40
1.0
100
AcDbArc
 50
90.0000000000065
 51
180.0
  0
ARC
  5
283
330
1F
100
AcDbEntity
  8
図
  6
CONTINUOUS
 62
     4
100
AcDbCircle
 10
455.7305339079503
 20
2266.11970310807
 30
0.0
 40
18.75
100
AcDbArc
 50
180.0
 51
270.0
  0
ARC
  5
284
330
1F
100
AcDbEntity
  8
図
  6
CONTINUOUS
 62
     4
100
AcDbCircle
 10
455.7305339079503
 20
2266.11970310807
 30
0.0
 40
16.25
100
AcDbArc
 50
180.0
 51
270.0
  0
LINE
  5
285
330
1F
100
AcDbEntity
  8
図
  6
CONTINUOUS
 62
     4
100
AcDbLine
 10
546.2997030083216
 20
1805.175919086092
 30
0.0
 11
512.5497030083225
 21
1805.175919086092
 31
0.0
  0
LINE
  5
286
330
1F
100
AcDbEntity
  8
図
  6
CONTINUOUS
 62
     4
100
AcDbLine
 10
510.0497030083225
 20
1805.175919086092
 30
0.0
 11
475.7305339079503
 21
1805.175919086092
 31
0.0
  0
LINE
  5
287
330
1F
100
AcDbEntity
  8
図
  6
CONTINUOUS
 62
     4
100
AcDbLine
 10
473.2305339079503
 20
1805.175919086092
 30
0.0
 11
439.4788721086943
 21
1805.175919086092
 31
0.0
  0
LINE
  5
288
330
1F
100
AcDbEntity
  8
図
  6
CONTINUOUS
 62
     4
100
AcDbLine
 10
546.2997030083216
 20
1807.675919086092
 30
0.0
 11
512.5497030083225
 21
1807.675919086092
 31
0.0
  0
LINE
  5
289
330
1F
100
AcDbEntity
  8
図
  6
CONTINUOUS
 62
     4
100
AcDbLine
 10
510.0497030083225
 20
1807.675919086093
 30
0.0
 11
475.7305339079503
 21
1807.675919086093
 31
0.0
  0
LINE
  5
28A
330
1F
100
AcDbEntity
  8
図
  6
CONTINUOUS
 62
     4
100
AcDbLine
 10
473.2305339079503
 20
1807.675919086092
 30
0.0
 11
439.4788721086943
 21
1807.675919086092
 31
0.0
  0
LINE
  5
28B
330
1F
100
AcDbEntity
  8
図
  6
CONTINUOUS
 62
     4
100
AcDbLine
 10
546.2997030083216
 20
1832.505919085731
 30
0.0
 11
512.5497030083225
 21
1832.505919085731
 31
0.0
  0
LINE
  5
28C
330
1F
100
AcDbEntity
  8
図
  6
CONTINUOUS
 62
     4
100
AcDbLine
 10
510.0497030083225
 20
1832.505919085731
 30
0.0
 11
475.7305339079503
 21
1832.505919085731
 31
0.0
  0
LINE
  5
28D
330
1F
100
AcDbEntity
  8
図
  6
CONTINUOUS
 62
     4
100
AcDbLine
 10
473.2305339079503
 20
1832.505919085731
 30
0.0
 11
439.4788721086943
 21
1832.505919085731
 31
0.0
  0
LINE
  5
28E
330
1F
100
AcDbEntity
  8
図
  6
CONTINUOUS
 62
     4
100
AcDbLine
 10
546.2997030083216
 20
1835.005919085731
 30
0.0
 11
512.5497030083225
 21
1835.005919085731
 31
0.0
  0
LINE
  5
28F
330
1F
100
AcDbEntity
  8
図
  6
CONTINUOUS
 62
     4
100
AcDbLine
 10
510.0497030083225
 20
1835.005919085731
 30
0.0
 11
475.7305339079503
 21
1835.005919085731
 31
0.0
  0
LINE
  5
290
330
1F
100
AcDbEntity
  8
図
  6
CONTINUOUS
 62
     4
100
AcDbLine
 10
473.2305339079503
 20
1835.005919085731
 30
0.0
 11
439.4788721086943
 21
1835.005919085731
 31
0.0
  0
LINE
  5
291
330
1F
100
AcDbEntity
  8
図
  6
CONTINUOUS
 62
     4
100
AcDbLine
 10
546.2997030083216
 20
1859.83591908609
 30
0.0
 11
512.5497030083225
 21
1859.83591908609
 31
0.0
  0
LINE
  5
292
330
1F
100
AcDbEntity
  8
図
  6
CONTINUOUS
 62
     4
100
AcDbLine
 10
510.0497030083225
 20
1859.83591908609
 30
0.0
 11
475.7305339079503
 21
1859.83591908609
 31
0.0
  0
LINE
  5
293
330
1F
100
AcDbEntity
  8
図
  6
CONTINUOUS
 62
     4
100
AcDbLine
 10
473.2305339079503
 20
1859.83591908609
 30
0.0
 11
439.4788721086943
 21
1859.83591908609
 31
0.0
  0
LINE
  5
294
330
1F
100
AcDbEntity
  8
図
  6
CONTINUOUS
 62
     4
100
AcDbLine
 10
546.2997030083216
 20
1862.335919086093
 30
0.0
 11
512.5497030083225
 21
1862.335919086093
 31
0.0
  0
LINE
  5
295
330
1F
100
AcDbEntity
  8
図
  6
CONTINUOUS
 62
     4
100
AcDbLine
 10
510.0497030083225
 20
1862.335919086093
 30
0.0
 11
475.7305339079503
 21
1862.335919086093
 31
0.0
  0
LINE
  5
296
330
1F
100
AcDbEntity
  8
図
  6
CONTINUOUS
 62
     4
100
AcDbLine
 10
473.2305339079503
 20
1862.335919086093
 30
0.0
 11
439.4789636258374
 21
1862.335919086093
 31
0.0
  0
LINE
  5
297
330
1F
100
AcDbEntity
  8
図
  6
CONTINUOUS
 62
     4
100
AcDbLine
 10
530.0497030083197
 20
1887.165919085374
 30
0.0
 11
512.5497030083225
 21
1887.16591908548
 31
0.0
  0
LINE
  5
298
330
1F
100
AcDbEntity
  8
図
  6
CONTINUOUS
 62
     4
100
AcDbLine
 10
510.0497030083225
 20
1887.165919085495
 30
0.0
 11
475.7305339079503
 21
1887.1659190857
 31
0.0
  0
LINE
  5
299
330
1F
100
AcDbEntity
  8
図
  6
CONTINUOUS
 62
     4
100
AcDbLine
 10
473.2305339079494
 20
1887.165919085715
 30
0.0
 11
455.7305339079476
 21
1887.165919085821
 31
0.0
  0
LINE
  5
29A
330
1F
100
AcDbEntity
  8
図
  6
CONTINUOUS
 62
     4
100
AcDbLine
 10
530.0497030083225
 20
1889.665919085374
 30
0.0
 11
475.2305339079498
 21
1889.665919085374
 31
0.0
  0
ARC
  5
29B
330
1F
100
AcDbEntity
  8
図
  6
CONTINUOUS
 62
     4
100
AcDbCircle
 10
455.7305339079503
 20
1870.915919085372
 30
0.0
 40
18.75
100
AcDbArc
 50
90.00000000000001
 51
180.0
  0
ARC
  5
29C
330
1F
100
AcDbEntity
  8
図
  6
CONTINUOUS
 62
     4
100
AcDbCircle
 10
455.7305339079503
 20
1870.915919085372
 30
0.0
 40
16.25
100
AcDbArc
 50
90.00000000000001
 51
180.0
  0
LINE
  5
29D
330
1F
100
AcDbEntity
  8
図
  6
CONTINUOUS
 62
     4
100
AcDbLine
 10
439.4788721086943
 20
1793.079128374411
 30
0.0
 11
439.4788721086943
 21
1805.175919086092
 31
0.0
  0
LINE
  5
29E
330
1F
100
AcDbEntity
  8
図
  6
CONTINUOUS
 62
     4
100
AcDbLine
 10
439.4788721086943
 20
1807.675919086092
 30
0.0
 11
439.4788721086943
 21
1832.505919085731
 31
0.0
  0
LINE
  5
29F
330
1F
100
AcDbEntity
  8
図
  6
CONTINUOUS
 62
     4
100
AcDbLine
 10
439.4788721086943
 20
1835.005919085731
 30
0.0
 11
439.4788721086943
 21
1859.83591908609
 31
0.0
  0
LINE
  5
2A0
330
1F
100
AcDbEntity
  8
図
  6
CONTINUOUS
 62
     4
100
AcDbLine
 10
436.9805339079503
 20
1793.079128374411
 30
0.0
 11
436.9805339079503
 21
1870.915919085372
 31
0.0
  0
LINE
  5
2A1
330
1F
100
AcDbEntity
  8
図
  6
CONTINUOUS
 62
     4
100
AcDbLine
 10
546.2997030083216
 20
1796.595919086092
 30
0.0
 11
546.2997030083216
 21
1805.175919086092
 31
0.0
  0
LINE
  5
2A2
330
1F
100
AcDbEntity
  8
図
  6
CONTINUOUS
 62
     4
100
AcDbLine
 10
546.2997030083216
 20
1807.675919086092
 30
0.0
 11
546.2997030083216
 21
1832.505919085731
 31
0.0
  0
LINE
  5
2A3
330
1F
100
AcDbEntity
  8
図
  6
CONTINUOUS
 62
     4
100
AcDbLine
 10
546.2997030083216
 20
1835.005919085731
 30
0.0
 11
546.2997030083216
 21
1859.83591908609
 31
0.0
  0
LINE
  5
2A4
330
1F
100
AcDbEntity
  8
図
  6
CONTINUOUS
 62
     4
100
AcDbLine
 10
546.2997030083216
 20
1862.335919086093
 30
0.0
 11
546.2997030083216
 21
1870.915919085372
 31
0.0
  0
LINE
  5
2A5
330
1F
100
AcDbEntity
  8
図
  6
CONTINUOUS
 62
     4
100
AcDbLine
 10
548.7997030083225
 20
1796.595919086092
 30
0.0
 11
548.7997030083225
 21
1870.915919085372
 31
0.0
  0
ARC
  5
2A6
330
1F
100
AcDbEntity
  8
図
  6
CONTINUOUS
 62
     4
100
AcDbCircle
 10
530.0497030083225
 20
1870.915919085372
 30
0.0
 40
18.75
100
AcDbArc
 50
0.0
 51
90.00000000000001
  0
ARC
  5
2A7
330
1F
100
AcDbEntity
  8
図
  6
CONTINUOUS
 62
     4
100
AcDbCircle
 10
530.0497030083225
 20
1870.915919085372
 30
0.0
 40
16.25
100
AcDbArc
 50
0.0
 51
90.00000000000001
  0
LINE
  5
2A8
330
1F
100
AcDbEntity
  8
図
  6
CONTINUOUS
 62
     4
100
AcDbLine
 10
473.2305339079503
 20
1807.675919086092
 30
0.0
 11
473.2305339079503
 21
1832.505919085731
 31
0.0
  0
LINE
  5
2A9
330
1F
100
AcDbEntity
  8
図
  6
CONTINUOUS
 62
     4
100
AcDbLine
 10
473.2305339079503
 20
1835.005919085731
 30
0.0
 11
473.2305339079503
 21
1859.83591908609
 31
0.0
  0
LINE
  5
2AA
330
1F
100
AcDbEntity
  8
図
  6
CONTINUOUS
 62
     4
100
AcDbLine
 10
473.2305339079503
 20
1862.335919086093
 30
0.0
 11
473.2305339079494
 21
1887.165919085715
 31
0.0
  0
LINE
  5
2AB
330
1F
100
AcDbEntity
  8
図
  6
CONTINUOUS
 62
     4
100
AcDbLine
 10
475.7305339079503
 20
1807.675919086093
 30
0.0
 11
475.7305339079503
 21
1832.505919085731
 31
0.0
  0
LINE
  5
2AC
330
1F
100
AcDbEntity
  8
図
  6
CONTINUOUS
 62
     4
100
AcDbLine
 10
475.7305339079503
 20
1835.005919085731
 30
0.0
 11
475.7305339079503
 21
1859.83591908609
 31
0.0
  0
LINE
  5
2AD
330
1F
100
AcDbEntity
  8
図
  6
CONTINUOUS
 62
     4
100
AcDbLine
 10
475.7305339079503
 20
1862.335919086093
 30
0.0
 11
475.7305339079503
 21
1887.1659190857
 31
0.0
  0
LINE
  5
2AE
330
1F
100
AcDbEntity
  8
図
  6
CONTINUOUS
 62
     4
100
AcDbLine
 10
510.0497030083225
 20
1807.675919086092
 30
0.0
 11
510.0497030083225
 21
1832.505919085731
 31
0.0
  0
LINE
  5
2AF
330
1F
100
AcDbEntity
  8
図
  6
CONTINUOUS
 62
     4
100
AcDbLine
 10
510.0497030083225
 20
1835.005919085731
 30
0.0
 11
510.0497030083225
 21
1859.83591908609
 31
0.0
  0
LINE
  5
2B0
330
1F
100
AcDbEntity
  8
図
  6
CONTINUOUS
 62
     4
100
AcDbLine
 10
510.0497030083225
 20
1862.335919086093
 30
0.0
 11
510.0497030083225
 21
1887.165919085495
 31
0.0
  0
LINE
  5
2B1
330
1F
100
AcDbEntity
  8
図
  6
CONTINUOUS
 62
     4
100
AcDbLine
 10
512.5497030083225
 20
1807.675919086092
 30
0.0
 11
512.5497030083225
 21
1832.505919085731
 31
0.0
  0
LINE
  5
2B2
330
1F
100
AcDbEntity
  8
図
  6
CONTINUOUS
 62
     4
100
AcDbLine
 10
512.5497030083225
 20
1835.005919085731
 30
0.0
 11
512.5497030083225
 21
1859.83591908609
 31
0.0
  0
LINE
  5
2B3
330
1F
100
AcDbEntity
  8
図
  6
CONTINUOUS
 62
     4
100
AcDbLine
 10
512.5497030083225
 20
1862.335919086093
 30
0.0
 11
512.5497030083225
 21
1887.165919085479
 31
0.0
  0
LINE
  5
2B4
330
1F
100
AcDbEntity
  8
図
  6
CONTINUOUS
 62
     4
100
AcDbLine
 10
475.2305339079498
 20
1889.665919085374
 30
0.0
 11
455.7305339079503
 21
1889.665919085374
 31
0.0
  0
LINE
  5
2B5
330
1F
100
AcDbEntity
  8
図
  6
CONTINUOUS
 62
     4
100
AcDbLine
 10
439.4805338995766
 20
1870.915827576606
 30
0.0
 11
439.4789636258374
 21
1862.335919086093
 31
0.0
  0
LINE
  5
2B6
330
1F
100
AcDbEntity
  8
図
  6
CONTINUOUS
 62
     4
100
AcDbLine
 10
438.4788721086943
 20
1792.079128374412
 30
0.0
 11
437.9805339079503
 21
1792.079128374412
 31
0.0
  0
ARC
  5
2B7
330
1F
100
AcDbEntity
  8
図
  6
CONTINUOUS
 62
     4
100
AcDbCircle
 10
438.4788721086943
 20
1793.079128374411
 30
0.0
 40
1.0
100
AcDbArc
 50
270.0
 51
0.0
  0
ARC
  5
2B8
330
1F
100
AcDbEntity
  8
図
  6
CONTINUOUS
 62
     4
100
AcDbCircle
 10
437.9805339079503
 20
1793.079128374411
 30
0.0
 40
1.0
100
AcDbArc
 50
180.0
 51
269.9999999999935
  0
LINE
  5
2B9
330
1F
100
AcDbEntity
  8
図
  6
CONTINUOUS
 62
     4
100
AcDbLine
 10
530.0497030083225
 20
1777.845919086092
 30
0.0
 11
452.2150655171554
 21
1777.845919086093
 31
0.0
  0
LINE
  5
2BA
330
1F
100
AcDbEntity
  8
図
  6
CONTINUOUS
 62
     4
100
AcDbLine
 10
530.0497012209744
 20
1780.345919086089
 30
0.0
 11
512.5497030083225
 21
1780.345856528901
 31
0.0
  0
LINE
  5
2BB
330
1F
100
AcDbEntity
  8
図
  6
CONTINUOUS
 62
     4
100
AcDbLine
 10
510.0497030083225
 20
1780.345847592159
 30
0.0
 11
475.7305339079503
 21
1780.345724911533
 31
0.0
  0
ARC
  5
2BC
330
1F
100
AcDbEntity
  8
図
  6
CONTINUOUS
 62
     4
100
AcDbCircle
 10
530.0497030083225
 20
1796.595919086092
 30
0.0
 40
18.75
100
AcDbArc
 50
270.0
 51
0.0
  0
ARC
  5
2BD
330
1F
100
AcDbEntity
  8
図
  6
CONTINUOUS
 62
     4
100
AcDbCircle
 10
530.0497030083225
 20
1796.595919086092
 30
0.0
 40
16.25
100
AcDbArc
 50
270.0
 51
0.0
  0
LINE
  5
2BE
330
1F
100
AcDbEntity
  8
図
  6
CONTINUOUS
 62
     4
100
AcDbLine
 10
473.2305339079503
 20
1780.345717762138
 30
0.0
 11
452.2150655171554
 21
1780.345717762138
 31
0.0
  0
LINE
  5
2BF
330
1F
100
AcDbEntity
  8
図
  6
CONTINUOUS
 62
     4
100
AcDbLine
 10
451.2150655171554
 20
1779.345717762137
 30
0.0
 11
451.2150655171554
 21
1778.845919086093
 31
0.0
  0
ARC
  5
2C0
330
1F
100
AcDbEntity
  8
図
  6
CONTINUOUS
 62
     4
100
AcDbCircle
 10
452.2150655171554
 20
1779.345717762137
 30
0.0
 40
1.0
100
AcDbArc
 50
90.00000000000001
 51
180.0
  0
ARC
  5
2C1
330
1F
100
AcDbEntity
  8
図
  6
CONTINUOUS
 62
     4
100
AcDbCircle
 10
452.2150655171554
 20
1778.845919086093
 30
0.0
 40
1.0
100
AcDbArc
 50
180.0
 51
270.0000000000034
  0
LINE
  5
2C2
330
1F
100
AcDbEntity
  8
図
  6
CONTINUOUS
 62
     4
100
AcDbLine
 10
512.5497030083225
 20
1780.345856528901
 30
0.0
 11
512.5497030083225
 21
1805.175919086092
 31
0.0
  0
LINE
  5
2C3
330
1F
100
AcDbEntity
  8
図
  6
CONTINUOUS
 62
     4
100
AcDbLine
 10
510.0497030083225
 20
1780.345847592159
 30
0.0
 11
510.0497030083225
 21
1805.175919086092
 31
0.0
  0
LINE
  5
2C4
330
1F
100
AcDbEntity
  8
図
  6
CONTINUOUS
 62
     4
100
AcDbLine
 10
475.7305339079503
 20
1780.345724911533
 30
0.0
 11
475.7305339079503
 21
1805.175919086092
 31
0.0
  0
LINE
  5
2C5
330
1F
100
AcDbEntity
  8
図
  6
CONTINUOUS
 62
     4
100
AcDbLine
 10
473.2305339079503
 20
1780.345717762138
 30
0.0
 11
473.2305339079503
 21
1805.175919086092
 31
0.0
  0
LINE
  5
2C6
330
1F
100
AcDbEntity
  8
図
  6
CONTINUOUS
 62
     2
100
AcDbLine
 10
458.5148631255916
 20
1038.49627796058
 30
0.0
 11
602.7893529271355
 21
1038.49627796058
 31
0.0
  0
LINE
  5
2C7
330
1F
100
AcDbEntity
  8
図
  6
CONTINUOUS
 62
     2
100
AcDbLine
 10
454.5172998175144
 20
1042.356679973771
 30
0.0
 11
454.3727418704293
 21
1046.496277960581
 31
0.0
  0
ARC
  5
2C8
330
1F
100
AcDbEntity
  8
図
  6
CONTINUOUS
 62
     2
100
AcDbCircle
 10
459.3853967546102
 20
1937.817811096721
 30
0.0
 40
10.0
100
AcDbArc
 50
180.0
 51
270.0
  0
ARC
  5
2C9
330
1F
100
AcDbEntity
  8
図
  6
CONTINUOUS
 62
     2
100
AcDbCircle
 10
596.9451839776343
 20
1800.253416683786
 30
0.0
 40
10.0
100
AcDbArc
 50
179.9973008525864
 51
270.0000000000007
  0
ARC
  5
2CA
330
1F
100
AcDbEntity
  8
図
  6
CONTINUOUS
 62
     2
100
AcDbCircle
 10
432.7547334010496
 20
1774.327657321703
 30
0.0
 40
4.5
100
AcDbArc
 50
134.9999999999995
 51
224.9999999999938
  0
ARC
  5
2CB
330
1F
100
AcDbEntity
  8
図
  6
CONTINUOUS
 62
     2
100
AcDbCircle
 10
433.4618401822363
 20
1773.620550540516
 30
0.0
 40
4.5
100
AcDbArc
 50
225.000000000001
 51
314.999999999999
  0
LINE
  5
2CC
330
1F
100
AcDbEntity
  8
図
  6
CONTINUOUS
 62
     2
100
AcDbLine
 10
429.5727528857101
 20
1771.145676806364
 30
0.0
 11
430.2798596668968
 21
1770.438570025177
 31
0.0
  0
LINE
  5
2CD
330
1F
100
AcDbEntity
  8
図
  6
CONTINUOUS
 62
     2
100
AcDbLine
 10
444.0684419000345
 20
1777.863191227636
 30
0.0
 11
436.6438206975758
 21
1770.438570025177
 31
0.0
  0
LINE
  5
2CE
330
1F
100
AcDbEntity
  8
図
  6
CONTINUOUS
 62
     2
100
AcDbLine
 10
436.9973740881692
 20
1784.934259039501
 30
0.0
 11
429.5727528857105
 21
1777.509637837042
 31
0.0
  0
CIRCLE
  5
2CF
330
1F
100
AcDbEntity
  8
図
  6
CONTINUOUS
 62
     2
100
AcDbCircle
 10
444.5805339079507
 20
1785.445919086093
 30
0.0
 40
7.599999999999998
  0
ARC
  5
2D0
330
1F
100
AcDbEntity
  8
図
  6
CONTINUOUS
 62
     2
100
AcDbCircle
 10
423.2173995941143
 20
1885.177811096722
 30
0.0
 40
1.0
100
AcDbArc
 50
161.0285855716295
 51
270.0
  0
ARC
  5
2D1
330
1F
100
AcDbEntity
  8
図
  6
CONTINUOUS
 62
     2
100
AcDbCircle
 10
423.2144461230409
 20
1885.177811096721
 30
0.0
 40
1.0
100
AcDbArc
 50
270.0
 51
341.013075695882
  0
ARC
  5
2D2
330
1F
100
AcDbEntity
  8
図
  6
CONTINUOUS
 62
     2
100
AcDbCircle
 10
544.3087842440527
 20
1764.091346679896
 30
0.0
 40
1.0
100
AcDbArc
 50
109.0088546398782
 51
180.0
  0
ARC
  5
2D3
330
1F
100
AcDbEntity
  8
図
  6
CONTINUOUS
 62
     2
100
AcDbCircle
 10
544.3087842440527
 20
1764.097946150423
 30
0.0
 40
1.0
100
AcDbArc
 50
180.0
 51
288.9742050223973
  0
LINE
  5
2D4
330
1F
100
AcDbEntity
  8
図
  6
CONTINUOUS
 62
     2
100
AcDbLine
 10
543.3087842440527
 20
1764.097946150424
 30
0.0
 11
543.3087842440527
 21
1764.091346679896
 31
0.0
  0
LINE
  5
2D5
330
1F
100
AcDbEntity
  8
図
  6
CONTINUOUS
 62
     2
100
AcDbLine
 10
423.2173995941143
 20
1884.177811096722
 30
0.0
 11
423.2144461230409
 21
1884.177811096722
 31
0.0
  0
ARC
  5
2D6
330
1F
100
AcDbEntity
  8
図
  6
CONTINUOUS
 62
     2
100
AcDbCircle
 10
447.8051026791859
 20
1876.725305136927
 30
0.0
 40
27.0
100
AcDbArc
 50
89.99846360137705
 51
161.0285855716398
  0
LINE
  5
2D7
330
1F
100
AcDbEntity
  8
図
  6
CONTINUOUS
 62
     2
100
AcDbLine
 10
535.8558047596734
 20
1903.722944048172
 30
0.0
 11
447.805826689977
 21
1903.72530512722
 31
0.0
  0
ARC
  5
2D8
330
1F
100
AcDbEntity
  8
図
  6
CONTINUOUS
 62
     2
100
AcDbCircle
 10
535.8550807488823
 20
1876.72294405788
 30
0.0
 40
27.0
100
AcDbArc
 50
0.0
 51
89.99846360138976
  0
LINE
  5
2D9
330
1F
100
AcDbEntity
  8
図
  6
CONTINUOUS
 62
     2
100
AcDbLine
 10
562.8550807488823
 20
1876.72294405788
 30
0.0
 11
562.8550807488823
 21
1788.685237526574
 31
0.0
  0
ARC
  5
2DA
330
1F
100
AcDbEntity
  8
図
  6
CONTINUOUS
 62
     2
100
AcDbCircle
 10
535.8550807488823
 20
1788.685237526574
 30
0.0
 40
27.0
100
AcDbArc
 50
288.9742050223845
 51
0.0
  0
ARC
  5
2DB
330
1F
100
AcDbEntity
  8
図
  6
CONTINUOUS
 62
     2
100
AcDbCircle
 10
535.83303051441
 20
1788.694370556343
 30
0.0
 40
25.02205190124688
100
AcDbArc
 50
289.0088546398804
 51
359.9790870839221
  0
LINE
  5
2DC
330
1F
100
AcDbEntity
  8
図
  6
CONTINUOUS
 62
     2
100
AcDbLine
 10
560.8550807488823
 20
1876.72294405788
 30
0.0
 11
560.8550807488823
 21
1788.685237526574
 31
0.0
  0
ARC
  5
2DD
330
1F
100
AcDbEntity
  8
図
  6
CONTINUOUS
 62
     2
100
AcDbCircle
 10
535.8550807488823
 20
1876.72294405788
 30
0.0
 40
25.0
100
AcDbArc
 50
0.0
 51
89.99846360138976
  0
LINE
  5
2DE
330
1F
100
AcDbEntity
  8
図
  6
CONTINUOUS
 62
     2
100
AcDbLine
 10
535.8557511292443
 20
1901.722944048892
 30
0.0
 11
447.8057730595478
 21
1901.725305127939
 31
0.0
  0
ARC
  5
2DF
330
1F
100
AcDbEntity
  8
図
  6
CONTINUOUS
 62
     2
100
AcDbCircle
 10
447.8091890159767
 20
1876.715439816541
 30
0.0
 40
25.00986554468181
100
AcDbArc
 50
90.00782570727732
 51
161.0130756958714
  0
ARC
  5
2E0
330
1F
100
AcDbEntity
  8
図
  6
CONTINUOUS
 62
     2
100
AcDbCircle
 10
535.8087842440532
 20
1788.677811096721
 30
0.0
 40
41.15
100
AcDbArc
 50
298.9729946209875
 51
0.0
  0
ARC
  5
2E1
330
1F
100
AcDbEntity
  8
図
  6
CONTINUOUS
 62
     2
100
AcDbCircle
 10
447.8119939572553
 20
1876.677811096722
 30
0.0
 40
41.15
100
AcDbArc
 50
90.00000000000009
 51
151.0270053790156
  0
ARC
  5
2E2
330
1F
100
AcDbEntity
  8
図
  6
CONTINUOUS
 62
     2
100
AcDbCircle
 10
448.9491785600057
 20
1927.82781109672
 30
0.0
 40
10.0
100
AcDbArc
 50
180.0
 51
270.0
  0
ARC
  5
2E3
330
1F
100
AcDbEntity
  8
図
  6
CONTINUOUS
 62
     2
100
AcDbCircle
 10
586.9593597090866
 20
1789.817198489183
 30
0.0
 40
10.0
100
AcDbArc
 50
180.0
 51
270.0
  0
LINE
  5
2E4
330
1F
100
AcDbEntity
  8
図
  6
CONTINUOUS
 62
     2
100
AcDbLine
 10
576.9593597090866
 20
1876.677811097724
 30
0.0
 11
576.9593597090866
 21
1789.817198489183
 31
0.0
  0
LINE
  5
2E5
330
1F
100
AcDbEntity
  8
図
  6
CONTINUOUS
 62
     2
100
AcDbLine
 10
586.9487842440535
 20
1876.677811096721
 30
0.0
 11
586.9451839887306
 21
1800.25388777388
 31
0.0
  0
LINE
  5
2E6
330
1F
100
AcDbEntity
  8
図
  6
CONTINUOUS
 62
     2
100
AcDbLine
 10
535.8087842440541
 20
1917.827811096721
 30
0.0
 11
448.9491785600057
 21
1917.827811096721
 31
0.0
  0
LINE
  5
2E7
330
1F
100
AcDbEntity
  8
図
  6
CONTINUOUS
 62
     2
100
AcDbLine
 10
535.8087842440541
 20
1927.817811096721
 30
0.0
 11
459.3853967546102
 21
1927.817811096721
 31
0.0
  0
ARC
  5
2E8
330
1F
100
AcDbEntity
  8
図
  6
CONTINUOUS
 62
     2
100
AcDbCircle
 10
535.8083773219569
 20
1876.676828699878
 30
0.0
 40
41.15098239885586
100
AcDbArc
 50
0.0013678213656662
 51
89.99943342983903
  0
ARC
  5
2E9
330
1F
100
AcDbEntity
  8
図
  6
CONTINUOUS
 62
     2
100
AcDbCircle
 10
535.8087842440536
 20
1876.677811096721
 30
0.0
 40
51.14
100
AcDbArc
 50
0.0
 51
90.00000000000001
  0
LINE
  5
2EA
330
1F
100
AcDbEntity
  8
図
  6
CONTINUOUS
 62
     2
100
AcDbLine
 10
422.8119939572553
 20
1752.677811096722
 30
0.0
 11
535.8087842440532
 21
1752.677811096722
 31
0.0
  0
ARC
  5
2EB
330
1F
100
AcDbEntity
  8
図
  6
CONTINUOUS
 62
     2
100
AcDbCircle
 10
419.8119939572553
 20
1875.177811096722
 30
0.0
 40
1.0
100
AcDbArc
 50
0.0
 51
90.00000000000001
  0
ARC
  5
2EC
330
1F
100
AcDbEntity
  8
図
  6
CONTINUOUS
 62
     2
100
AcDbCircle
 10
413.8119939572553
 20
1875.177811096722
 30
0.0
 40
1.0
100
AcDbArc
 50
90.00000000000001
 51
180.0
  0
ARC
  5
2ED
330
1F
100
AcDbEntity
  8
図
  6
CONTINUOUS
 62
     2
100
AcDbCircle
 10
414.3119939572553
 20
1876.177811096722
 30
0.0
 40
3.5
100
AcDbArc
 50
121.0027191338614
 51
134.2921064845654
  0
LINE
  5
2EE
330
1F
100
AcDbEntity
  8
図
  6
CONTINUOUS
 62
     2
100
AcDbLine
 10
421.1147695949867
 20
1879.177811096722
 30
0.0
 11
412.5092183195243
 21
1879.177811096722
 31
0.0
  0
ARC
  5
2EF
330
1F
100
AcDbEntity
  8
図
  6
CONTINUOUS
 62
     2
100
AcDbCircle
 10
419.3119939572553
 20
1876.177811096722
 30
0.0
 40
3.5
100
AcDbArc
 50
0.0
 51
58.99728086613938
  0
ARC
  5
2F0
330
1F
100
AcDbEntity
  8
図
  6
CONTINUOUS
 62
     2
100
AcDbCircle
 10
534.3087842440532
 20
1760.677811096721
 30
0.0
 40
1.0
100
AcDbArc
 50
0.0
 51
90.00000000000001
  0
ARC
  5
2F1
330
1F
100
AcDbEntity
  8
図
  6
CONTINUOUS
 62
     2
100
AcDbCircle
 10
534.3087842440527
 20
1754.677811096721
 30
0.0
 40
1.0
100
AcDbArc
 50
270.0
 51
0.0
  0
ARC
  5
2F2
330
1F
100
AcDbEntity
  8
図
  6
CONTINUOUS
 62
     2
100
AcDbCircle
 10
535.3087842440532
 20
1760.177811096721
 30
0.0
 40
3.500000000000452
100
AcDbArc
 50
31.00271913388426
 51
90.00000000000186
  0
LINE
  5
2F3
330
1F
100
AcDbEntity
  8
図
  6
CONTINUOUS
 62
     2
100
AcDbLine
 10
538.3087842440527
 20
1761.980586734454
 30
0.0
 11
538.3087842440527
 21
1753.375035458988
 31
0.0
  0
ARC
  5
2F4
330
1F
100
AcDbEntity
  8
図
  6
CONTINUOUS
 62
     2
100
AcDbCircle
 10
535.3087842440532
 20
1755.177811096722
 30
0.0
 40
3.500000000000452
100
AcDbArc
 50
315.7078935154286
 51
328.9972808661241
  0
LINE
  5
2F5
330
1F
100
AcDbEntity
  8
図
  6
CONTINUOUS
 62
     2
100
AcDbLine
 10
422.8119939572553
 20
1772.677811096722
 30
0.0
 11
422.8119939572553
 21
1876.177811096722
 31
0.0
  0
ARC
  5
2F6
330
1F
100
AcDbEntity
  8
図
  6
CONTINUOUS
 62
     2
100
AcDbCircle
 10
431.8119939572553
 20
1772.677811096722
 30
0.0
 40
9.0
100
AcDbArc
 50
180.0
 51
270.0
  0
LINE
  5
2F7
330
1F
100
AcDbEntity
  8
図
  6
CONTINUOUS
 62
     2
100
AcDbLine
 10
535.3087842440532
 20
1763.677811096722
 30
0.0
 11
431.8119939572553
 21
1763.677811096722
 31
0.0
  0
ARC
  5
2F8
330
1F
100
AcDbEntity
  8
図
  6
CONTINUOUS
 62
     2
100
AcDbCircle
 10
535.8087842440532
 20
1876.677811096722
 30
0.0
 40
31.0
100
AcDbArc
 50
0.0
 51
90.00000000000001
  0
ARC
  5
2F9
330
1F
100
AcDbEntity
  8
図
  6
CONTINUOUS
 62
     2
100
AcDbCircle
 10
535.8087842440536
 20
1876.677811096721
 30
0.0
 40
36.0
100
AcDbArc
 50
0.0
 51
90.00000000000001
  0
ARC
  5
2FA
330
1F
100
AcDbEntity
  8
図
  6
CONTINUOUS
 62
     2
100
AcDbCircle
 10
447.8119939572553
 20
1876.677811096722
 30
0.0
 40
31.0
100
AcDbArc
 50
90.00000000000014
 51
175.3743494204767
  0
ARC
  5
2FB
330
1F
100
AcDbEntity
  8
図
  6
CONTINUOUS
 62
     2
100
AcDbCircle
 10
447.8119939572553
 20
1876.677811096722
 30
0.0
 40
36.0
100
AcDbArc
 50
90.00000000000009
 51
180.0
  0
ARC
  5
2FC
330
1F
100
AcDbEntity
  8
図
  6
CONTINUOUS
 62
     2
100
AcDbCircle
 10
535.8087842440532
 20
1788.677811096721
 30
0.0
 40
36.0
100
AcDbArc
 50
270.0
 51
0.0
  0
ARC
  5
2FD
330
1F
100
AcDbEntity
  8
図
  6
CONTINUOUS
 62
     2
100
AcDbCircle
 10
535.8087842440532
 20
1788.677811096721
 30
0.0
 40
31.0
100
AcDbArc
 50
274.6256505795217
 51
0.0
  0
LINE
  5
2FE
330
1F
100
AcDbEntity
  8
図
  6
CONTINUOUS
 62
     2
100
AcDbLine
 10
535.8087842440532
 20
1907.677811096721
 30
0.0
 11
447.8119939572553
 21
1907.677811096721
 31
0.0
  0
LINE
  5
2FF
330
1F
100
AcDbEntity
  8
図
  6
CONTINUOUS
 62
     2
100
AcDbLine
 10
566.8087842440536
 20
1876.677811096722
 30
0.0
 11
566.8087842440532
 21
1788.677811096721
 31
0.0
  0
LINE
  5
300
330
1F
100
AcDbEntity
  8
図
  6
CONTINUOUS
 62
     2
100
AcDbLine
 10
535.8087842440536
 20
1912.677811096721
 30
0.0
 11
447.8119939572553
 21
1912.677811096721
 31
0.0
  0
LINE
  5
301
330
1F
100
AcDbEntity
  8
図
  6
CONTINUOUS
 62
     2
100
AcDbLine
 10
571.8087842440532
 20
1876.677811096721
 30
0.0
 11
571.8087842440532
 21
1788.677811096721
 31
0.0
  0
LINE
  5
302
330
1F
100
AcDbEntity
  8
図
  6
CONTINUOUS
 62
     2
100
AcDbLine
 10
534.3087842440527
 20
1753.677811096721
 30
0.0
 11
422.8119939572553
 21
1753.677811096721
 31
0.0
  0
LINE
  5
303
330
1F
100
AcDbEntity
  8
図
  6
CONTINUOUS
 62
     2
100
AcDbLine
 10
420.8119939572553
 20
1772.677811096722
 30
0.0
 11
420.8119939572553
 21
1875.177811096722
 31
0.0
  0
ARC
  5
304
330
1F
100
AcDbEntity
  8
図
  6
CONTINUOUS
 62
     2
100
AcDbCircle
 10
431.8119939572553
 20
1772.677811096722
 30
0.0
 40
11.0
100
AcDbArc
 50
180.0
 51
270.0
  0
LINE
  5
305
330
1F
100
AcDbEntity
  8
図
  6
CONTINUOUS
 62
     2
100
AcDbLine
 10
534.3087842440532
 20
1761.677811096721
 30
0.0
 11
431.8119939572553
 21
1761.677811096722
 31
0.0
  0
ARC
  5
306
330
1F
100
AcDbEntity
  8
図
  6
CONTINUOUS
 62
     2
100
AcDbCircle
 10
422.8119939572553
 20
1763.677811096721
 30
0.0
 40
10.0
100
AcDbArc
 50
180.0
 51
270.0
  0
LINE
  5
307
330
1F
100
AcDbEntity
  8
図
  6
CONTINUOUS
 62
     2
100
AcDbLine
 10
412.8119939572553
 20
1763.677811096721
 30
0.0
 11
412.8119939572553
 21
1875.177811096722
 31
0.0
  0
LINE
  5
308
330
1F
100
AcDbEntity
  8
図
  6
CONTINUOUS
 62
     2
100
AcDbLine
 10
419.8119939572553
 20
1876.177811096722
 30
0.0
 11
413.8119939572553
 21
1876.177811096722
 31
0.0
  0
LINE
  5
309
330
1F
100
AcDbEntity
  8
図
  6
CONTINUOUS
 62
     2
100
AcDbLine
 10
535.3087842440532
 20
1760.677811096721
 30
0.0
 11
535.3087842440527
 21
1754.677811096721
 31
0.0
  0
ARC
  5
30A
330
1F
100
AcDbEntity
  8
図
  6
CONTINUOUS
 62
     2
100
AcDbCircle
 10
422.8119939572553
 20
1763.677811096721
 30
0.0
 40
11.0
100
AcDbArc
 50
180.0
 51
270.0
  0
LINE
  5
30B
330
1F
100
AcDbEntity
  8
図
  6
CONTINUOUS
 62
     2
100
AcDbLine
 10
411.8119939572553
 20
1763.677811096721
 30
0.0
 11
411.8119939572553
 21
1876.677811096722
 31
0.0
  0
ARC
  5
30C
330
1F
100
AcDbEntity
  8
図
  6
CONTINUOUS
 62
     2
100
AcDbCircle
 10
422.6519939572554
 20
1763.517811096722
 30
0.0
 40
15.0
100
AcDbArc
 50
180.0
 51
270.0
  0
ARC
  5
30D
330
1F
100
AcDbEntity
  8
図
  6
CONTINUOUS
 62
     2
100
AcDbCircle
 10
995.9187052290094
 20
1937.817811096721
 30
0.0
 40
10.0
100
AcDbArc
 50
270.0
 51
0.0
  0
ARC
  5
30E
330
1F
100
AcDbEntity
  8
図
  6
CONTINUOUS
 62
     2
100
AcDbCircle
 10
858.3589180059853
 20
1800.253416683786
 30
0.0
 40
10.0
100
AcDbArc
 50
270.0
 51
0.0026991474135995
  0
ARC
  5
30F
330
1F
100
AcDbEntity
  8
図
  6
CONTINUOUS
 62
     2
100
AcDbCircle
 10
1022.54936858257
 20
1774.327657321703
 30
0.0
 40
4.5
100
AcDbArc
 50
315.0000000000041
 51
44.99999999999998
  0
ARC
  5
310
330
1F
100
AcDbEntity
  8
図
  6
CONTINUOUS
 62
     2
100
AcDbCircle
 10
1021.842261801383
 20
1773.620550540516
 30
0.0
 40
4.5
100
AcDbArc
 50
225.0
 51
314.999999999998
  0
LINE
  5
311
330
1F
100
AcDbEntity
  8
図
  6
CONTINUOUS
 62
     2
100
AcDbLine
 10
1025.73134909791
 20
1771.145676806364
 30
0.0
 11
1025.024242316723
 21
1770.438570025177
 31
0.0
  0
LINE
  5
312
330
1F
100
AcDbEntity
  8
図
  6
CONTINUOUS
 62
     2
100
AcDbLine
 10
1011.235660083585
 20
1777.863191227636
 30
0.0
 11
1018.660281286044
 21
1770.438570025177
 31
0.0
  0
LINE
  5
313
330
1F
100
AcDbEntity
  8
図
  6
CONTINUOUS
 62
     2
100
AcDbLine
 10
1018.30672789545
 20
1784.934259039501
 30
0.0
 11
1025.731349097909
 21
1777.509637837042
 31
0.0
  0
CIRCLE
  5
314
330
1F
100
AcDbEntity
  8
図
  6
CONTINUOUS
 62
     2
100
AcDbCircle
 10
1010.723568075669
 20
1785.445919086093
 30
0.0
 40
7.599999999999998
  0
ARC
  5
315
330
1F
100
AcDbEntity
  8
図
  6
CONTINUOUS
 62
     2
100
AcDbCircle
 10
1032.086702389505
 20
1885.177811096722
 30
0.0
 40
1.0
100
AcDbArc
 50
270.0
 51
18.97141442837267
  0
ARC
  5
316
330
1F
100
AcDbEntity
  8
図
  6
CONTINUOUS
 62
     2
100
AcDbCircle
 10
1032.089655860579
 20
1885.177811096721
 30
0.0
 40
1.0
100
AcDbArc
 50
198.986924304118
 51
270.0
  0
ARC
  5
317
330
1F
100
AcDbEntity
  8
図
  6
CONTINUOUS
 62
     2
100
AcDbCircle
 10
910.9953177395669
 20
1764.097946150423
 30
0.0
 40
1.0
100
AcDbArc
 50
251.0257949776027
 51
0.0
  0
LINE
  5
318
330
1F
100
AcDbEntity
  8
図
  6
CONTINUOUS
 62
     2
100
AcDbLine
 10
1032.086702389505
 20
1884.177811096722
 30
0.0
 11
1032.089655860579
 21
1884.177811096722
 31
0.0
  0
ARC
  5
319
330
1F
100
AcDbEntity
  8
図
  6
CONTINUOUS
 62
     2
100
AcDbCircle
 10
1007.498999304434
 20
1876.725305136927
 30
0.0
 40
27.0
100
AcDbArc
 50
18.97141442836023
 51
90.00153639862329
  0
LINE
  5
31A
330
1F
100
AcDbEntity
  8
図
  6
CONTINUOUS
 62
     2
100
AcDbLine
 10
919.4482972239462
 20
1903.722944048172
 30
0.0
 11
1007.498275293643
 21
1903.72530512722
 31
0.0
  0
ARC
  5
31B
330
1F
100
AcDbEntity
  8
図
  6
CONTINUOUS
 62
     2
100
AcDbCircle
 10
919.4490212347373
 20
1876.72294405788
 30
0.0
 40
27.0
100
AcDbArc
 50
90.00153639861027
 51
180.0
  0
LINE
  5
31C
330
1F
100
AcDbEntity
  8
図
  6
CONTINUOUS
 62
     2
100
AcDbLine
 10
892.4490212347373
 20
1876.72294405788
 30
0.0
 11
892.4490212347373
 21
1788.685237526574
 31
0.0
  0
ARC
  5
31D
330
1F
100
AcDbEntity
  8
図
  6
CONTINUOUS
 62
     2
100
AcDbCircle
 10
919.4490212347373
 20
1788.685237526574
 30
0.0
 40
27.0
100
AcDbArc
 50
180.0
 51
251.0257949776158
  0
ARC
  5
31E
330
1F
100
AcDbEntity
  8
図
  6
CONTINUOUS
 62
     2
100
AcDbCircle
 10
919.4710714692096
 20
1788.694370556343
 30
0.0
 40
25.02205190124688
100
AcDbArc
 50
180.0209129160779
 51
250.9911453601199
  0
LINE
  5
31F
330
1F
100
AcDbEntity
  8
図
  6
CONTINUOUS
 62
     2
100
AcDbLine
 10
894.4490212347373
 20
1876.72294405788
 30
0.0
 11
894.4490212347373
 21
1788.685237526574
 31
0.0
  0
ARC
  5
320
330
1F
100
AcDbEntity
  8
図
  6
CONTINUOUS
 62
     2
100
AcDbCircle
 10
919.4490212347373
 20
1876.72294405788
 30
0.0
 40
25.0
100
AcDbArc
 50
90.00153639861027
 51
180.0
  0
LINE
  5
321
330
1F
100
AcDbEntity
  8
図
  6
CONTINUOUS
 62
     2
100
AcDbLine
 10
919.4483508543753
 20
1901.722944048892
 30
0.0
 11
1007.498328924072
 21
1901.725305127939
 31
0.0
  0
ARC
  5
322
330
1F
100
AcDbEntity
  8
図
  6
CONTINUOUS
 62
     2
100
AcDbCircle
 10
1007.494912967643
 20
1876.715439816541
 30
0.0
 40
25.00986554468181
100
AcDbArc
 50
18.9869243041287
 51
89.99217429272313
  0
LINE
  5
323
330
1F
100
AcDbEntity
  8
図
  6
CONTINUOUS
 62
     2
100
AcDbLine
 10
899.5623676317664
 20
1752.677811096722
 30
0.0
 11
555.7418484209616
 21
1752.677811096722
 31
0.0
  0
ARC
  5
324
330
1F
100
AcDbEntity
  8
図
  6
CONTINUOUS
 62
     2
100
AcDbCircle
 10
919.4953177395664
 20
1788.677811096721
 30
0.0
 40
41.15
100
AcDbArc
 50
180.0
 51
241.0270053790126
  0
ARC
  5
325
330
1F
100
AcDbEntity
  8
図
  6
CONTINUOUS
 62
     2
100
AcDbCircle
 10
1007.492108026364
 20
1876.677811096722
 30
0.0
 40
41.15
100
AcDbArc
 50
28.97299462098461
 51
90.00000000000001
  0
ARC
  5
326
330
1F
100
AcDbEntity
  8
図
  6
CONTINUOUS
 62
     2
100
AcDbCircle
 10
1006.354923423614
 20
1927.82781109672
 30
0.0
 40
10.0
100
AcDbArc
 50
270.0
 51
0.0
  0
ARC
  5
327
330
1F
100
AcDbEntity
  8
図
  6
CONTINUOUS
 62
     2
100
AcDbCircle
 10
868.344742274533
 20
1789.817198489183
 30
0.0
 40
10.0
100
AcDbArc
 50
270.0
 51
0.0
  0
LINE
  5
328
330
1F
100
AcDbEntity
  8
図
  6
CONTINUOUS
 62
     2
100
AcDbLine
 10
878.344742274533
 20
1876.677811097724
 30
0.0
 11
878.344742274533
 21
1789.817198489183
 31
0.0
  0
LINE
  5
329
330
1F
100
AcDbEntity
  8
図
  6
CONTINUOUS
 62
     2
100
AcDbLine
 10
868.3553177395661
 20
1876.677811096721
 30
0.0
 11
868.358917994889
 21
1800.25388777388
 31
0.0
  0
LINE
  5
32A
330
1F
100
AcDbEntity
  8
図
  6
CONTINUOUS
 62
     2
100
AcDbLine
 10
919.4953177395655
 20
1917.827811096721
 30
0.0
 11
1006.354923423614
 21
1917.827811096721
 31
0.0
  0
LINE
  5
32B
330
1F
100
AcDbEntity
  8
図
  6
CONTINUOUS
 62
     2
100
AcDbLine
 10
919.4953177395655
 20
1927.817811096721
 30
0.0
 11
995.9187052290094
 21
1927.817811096721
 31
0.0
  0
ARC
  5
32C
330
1F
100
AcDbEntity
  8
図
  6
CONTINUOUS
 62
     2
100
AcDbCircle
 10
919.4957246616627
 20
1876.676828699878
 30
0.0
 40
41.15098239885586
100
AcDbArc
 50
90.00056657016103
 51
179.9986321786343
  0
ARC
  5
32D
330
1F
100
AcDbEntity
  8
図
  6
CONTINUOUS
 62
     2
100
AcDbCircle
 10
919.495317739566
 20
1876.677811096721
 30
0.0
 40
51.14
100
AcDbArc
 50
90.00000000000001
 51
180.0
  0
LINE
  5
32E
330
1F
100
AcDbEntity
  8
図
  6
CONTINUOUS
 62
     2
100
AcDbLine
 10
858.3589180059853
 20
1790.253416683785
 30
0.0
 11
596.9451668056845
 21
1790.253416683788
 31
0.0
  0
LINE
  5
32F
330
1F
100
AcDbEntity
  8
図
  6
CONTINUOUS
 62
     2
100
AcDbLine
 10
868.344742274533
 20
1779.817198489184
 30
0.0
 11
586.9593597090866
 21
1779.817198489185
 31
0.0
  0
LINE
  5
330
330
1F
100
AcDbEntity
  8
図
  6
CONTINUOUS
 62
     2
100
AcDbLine
 10
880.7474684306303
 20
1774.82405081541
 30
0.0
 11
574.5567476220976
 21
1774.82405081541
 31
0.0
  0
LINE
  5
331
330
1F
100
AcDbEntity
  8
図
  6
CONTINUOUS
 62
     2
100
AcDbLine
 10
1032.492108026364
 20
1752.677811096722
 30
0.0
 11
919.4953177395664
 21
1752.677811096722
 31
0.0
  0
ARC
  5
332
330
1F
100
AcDbEntity
  8
図
  6
CONTINUOUS
 62
     2
100
AcDbCircle
 10
1035.492108026364
 20
1875.177811096722
 30
0.0
 40
1.0
100
AcDbArc
 50
90.00000000000001
 51
180.0
  0
ARC
  5
333
330
1F
100
AcDbEntity
  8
図
  6
CONTINUOUS
 62
     2
100
AcDbCircle
 10
1041.492108026364
 20
1875.177811096722
 30
0.0
 40
1.0
100
AcDbArc
 50
0.0
 51
90.00000000000001
  0
ARC
  5
334
330
1F
100
AcDbEntity
  8
図
  6
CONTINUOUS
 62
     2
100
AcDbCircle
 10
1040.992108026364
 20
1876.177811096722
 30
0.0
 40
3.5
100
AcDbArc
 50
45.70789351543527
 51
58.99728086613776
  0
LINE
  5
335
330
1F
100
AcDbEntity
  8
図
  6
CONTINUOUS
 62
     2
100
AcDbLine
 10
1034.189332388633
 20
1879.177811096722
 30
0.0
 11
1042.794883664095
 21
1879.177811096722
 31
0.0
  0
ARC
  5
336
330
1F
100
AcDbEntity
  8
図
  6
CONTINUOUS
 62
     2
100
AcDbCircle
 10
1035.992108026364
 20
1876.177811096722
 30
0.0
 40
3.5
100
AcDbArc
 50
121.0027191338622
 51
180.0
  0
ARC
  5
337
330
1F
100
AcDbEntity
  8
図
  6
CONTINUOUS
 62
     2
100
AcDbCircle
 10
920.9953177395664
 20
1760.677811096721
 30
0.0
 40
1.0
100
AcDbArc
 50
90.00000000000001
 51
180.0
  0
ARC
  5
338
330
1F
100
AcDbEntity
  8
図
  6
CONTINUOUS
 62
     2
100
AcDbCircle
 10
920.9953177395669
 20
1754.677811096721
 30
0.0
 40
1.0
100
AcDbArc
 50
180.0
 51
270.0
  0
ARC
  5
339
330
1F
100
AcDbEntity
  8
図
  6
CONTINUOUS
 62
     2
100
AcDbCircle
 10
919.9953177395664
 20
1760.177811096721
 30
0.0
 40
3.500000000000452
100
AcDbArc
 50
90.00000000000001
 51
148.9972808661167
  0
LINE
  5
33A
330
1F
100
AcDbEntity
  8
図
  6
CONTINUOUS
 62
     2
100
AcDbLine
 10
916.9953177395669
 20
1761.980586734454
 30
0.0
 11
916.9953177395669
 21
1753.375035458988
 31
0.0
  0
ARC
  5
33B
330
1F
100
AcDbEntity
  8
図
  6
CONTINUOUS
 62
     2
100
AcDbCircle
 10
919.9953177395664
 20
1755.177811096722
 30
0.0
 40
3.500000000000452
100
AcDbArc
 50
211.0027191338769
 51
224.2921064845701
  0
LINE
  5
33C
330
1F
100
AcDbEntity
  8
図
  6
CONTINUOUS
 62
     2
100
AcDbLine
 10
1032.492108026364
 20
1772.677811096722
 30
0.0
 11
1032.492108026364
 21
1876.177811096722
 31
0.0
  0
ARC
  5
33D
330
1F
100
AcDbEntity
  8
図
  6
CONTINUOUS
 62
     2
100
AcDbCircle
 10
1023.492108026364
 20
1772.677811096722
 30
0.0
 40
9.0
100
AcDbArc
 50
270.0
 51
0.0
  0
LINE
  5
33E
330
1F
100
AcDbEntity
  8
図
  6
CONTINUOUS
 62
     2
100
AcDbLine
 10
919.9953177395664
 20
1763.677811096722
 30
0.0
 11
1023.492108026364
 21
1763.677811096722
 31
0.0
  0
ARC
  5
33F
330
1F
100
AcDbEntity
  8
図
  6
CONTINUOUS
 62
     2
100
AcDbCircle
 10
919.4953177395664
 20
1876.677811096722
 30
0.0
 40
31.0
100
AcDbArc
 50
90.00000000000001
 51
180.0
  0
ARC
  5
340
330
1F
100
AcDbEntity
  8
図
  6
CONTINUOUS
 62
     2
100
AcDbCircle
 10
919.495317739566
 20
1876.677811096721
 30
0.0
 40
36.0
100
AcDbArc
 50
90.00000000000001
 51
180.0
  0
ARC
  5
341
330
1F
100
AcDbEntity
  8
図
  6
CONTINUOUS
 62
     2
100
AcDbCircle
 10
1007.492108026364
 20
1876.677811096722
 30
0.0
 40
31.0
100
AcDbArc
 50
4.625650579523335
 51
90.00000000000001
  0
ARC
  5
342
330
1F
100
AcDbEntity
  8
図
  6
CONTINUOUS
 62
     2
100
AcDbCircle
 10
1007.492108026364
 20
1876.677811096722
 30
0.0
 40
36.0
100
AcDbArc
 50
0.0
 51
90.00000000000001
  0
ARC
  5
343
330
1F
100
AcDbEntity
  8
図
  6
CONTINUOUS
 62
     2
100
AcDbCircle
 10
919.4953177395664
 20
1788.677811096721
 30
0.0
 40
36.0
100
AcDbArc
 50
180.0
 51
270.0
  0
ARC
  5
344
330
1F
100
AcDbEntity
  8
図
  6
CONTINUOUS
 62
     2
100
AcDbCircle
 10
919.4953177395664
 20
1788.677811096721
 30
0.0
 40
31.0
100
AcDbArc
 50
180.0
 51
265.3743494204784
  0
LINE
  5
345
330
1F
100
AcDbEntity
  8
図
  6
CONTINUOUS
 62
     2
100
AcDbLine
 10
919.4953177395664
 20
1907.677811096721
 30
0.0
 11
1007.492108026364
 21
1907.677811096721
 31
0.0
  0
LINE
  5
346
330
1F
100
AcDbEntity
  8
図
  6
CONTINUOUS
 62
     2
100
AcDbLine
 10
888.495317739566
 20
1876.677811096722
 30
0.0
 11
888.4953177395664
 21
1788.677811096721
 31
0.0
  0
LINE
  5
347
330
1F
100
AcDbEntity
  8
図
  6
CONTINUOUS
 62
     2
100
AcDbLine
 10
919.495317739566
 20
1912.677811096721
 30
0.0
 11
1007.492108026364
 21
1912.677811096721
 31
0.0
  0
LINE
  5
348
330
1F
100
AcDbEntity
  8
図
  6
CONTINUOUS
 62
     2
100
AcDbLine
 10
883.4953177395664
 20
1876.677811096721
 30
0.0
 11
883.4953177395664
 21
1788.677811096721
 31
0.0
  0
LINE
  5
349
330
1F
100
AcDbEntity
  8
図
  6
CONTINUOUS
 62
     2
100
AcDbLine
 10
920.9953177395669
 20
1753.677811096721
 30
0.0
 11
1032.492108026364
 21
1753.677811096721
 31
0.0
  0
LINE
  5
34A
330
1F
100
AcDbEntity
  8
図
  6
CONTINUOUS
 62
     2
100
AcDbLine
 10
1034.492108026364
 20
1772.677811096722
 30
0.0
 11
1034.492108026364
 21
1875.177811096722
 31
0.0
  0
ARC
  5
34B
330
1F
100
AcDbEntity
  8
図
  6
CONTINUOUS
 62
     2
100
AcDbCircle
 10
1023.492108026364
 20
1772.677811096722
 30
0.0
 40
11.0
100
AcDbArc
 50
270.0
 51
0.0
  0
LINE
  5
34C
330
1F
100
AcDbEntity
  8
図
  6
CONTINUOUS
 62
     2
100
AcDbLine
 10
920.9953177395664
 20
1761.677811096721
 30
0.0
 11
1023.492108026364
 21
1761.677811096722
 31
0.0
  0
ARC
  5
34D
330
1F
100
AcDbEntity
  8
図
  6
CONTINUOUS
 62
     2
100
AcDbCircle
 10
1032.492108026364
 20
1763.677811096721
 30
0.0
 40
10.0
100
AcDbArc
 50
270.0
 51
0.0
  0
LINE
  5
34E
330
1F
100
AcDbEntity
  8
図
  6
CONTINUOUS
 62
     2
100
AcDbLine
 10
1042.492108026364
 20
1763.677811096721
 30
0.0
 11
1042.492108026364
 21
1875.177811096722
 31
0.0
  0
LINE
  5
34F
330
1F
100
AcDbEntity
  8
図
  6
CONTINUOUS
 62
     2
100
AcDbLine
 10
1035.492108026364
 20
1876.177811096722
 30
0.0
 11
1041.492108026364
 21
1876.177811096722
 31
0.0
  0
LINE
  5
350
330
1F
100
AcDbEntity
  8
図
  6
CONTINUOUS
 62
     2
100
AcDbLine
 10
919.9953177395664
 20
1760.677811096721
 30
0.0
 11
919.9953177395669
 21
1754.677811096721
 31
0.0
  0
ARC
  5
351
330
1F
100
AcDbEntity
  8
図
  6
CONTINUOUS
 62
     2
100
AcDbCircle
 10
1032.492108026364
 20
1763.677811096721
 30
0.0
 40
11.0
100
AcDbArc
 50
270.0
 51
0.0
  0
LINE
  5
352
330
1F
100
AcDbEntity
  8
図
  6
CONTINUOUS
 62
     2
100
AcDbLine
 10
1043.492108026364
 20
1763.677811096721
 30
0.0
 11
1043.492108026364
 21
1876.677811096722
 31
0.0
  0
ARC
  5
353
330
1F
100
AcDbEntity
  8
図
  6
CONTINUOUS
 62
     2
100
AcDbCircle
 10
1032.652108026364
 20
1763.517811096722
 30
0.0
 40
15.0
100
AcDbArc
 50
270.0
 51
0.0
  0
LINE
  5
354
330
1F
100
AcDbEntity
  8
図
  6
CONTINUOUS
 62
     2
100
AcDbLine
 10
422.6521080263633
 20
1748.517811096722
 30
0.0
 11
1032.652108026364
 21
1748.517811096721
 31
0.0
  0
LINE
  5
355
330
1F
100
AcDbEntity
  8
図
  6
CONTINUOUS
 62
     2
100
AcDbLine
 10
407.6519939572554
 20
2373.51781109672
 30
0.0
 11
407.6519939572552
 21
1763.517811096721
 31
0.0
  0
LINE
  5
356
330
1F
100
AcDbEntity
  8
図
  6
CONTINUOUS
 62
     2
100
AcDbLine
 10
411.8119939572553
 20
2240.424860988922
 30
0.0
 11
411.8119939572551
 21
1896.61076120452
 31
0.0
  0
LINE
  5
357
330
1F
100
AcDbEntity
  8
図
  6
CONTINUOUS
 62
     2
100
AcDbLine
 10
433.9560308862332
 20
1915.424872757889
 30
0.0
 11
433.9560308862328
 21
2221.610749435551
 31
0.0
  0
LINE
  5
358
330
1F
100
AcDbEntity
  8
図
  6
CONTINUOUS
 62
     2
100
AcDbLine
 10
438.9491785600056
 20
1927.827811096721
 30
0.0
 11
438.9491785600057
 21
2209.207811096722
 31
0.0
  0
LINE
  5
359
330
1F
100
AcDbEntity
  8
図
  6
CONTINUOUS
 62
     2
100
AcDbLine
 10
449.3853967546096
 20
1937.81781109672
 30
0.0
 11
449.3853967546102
 21
2199.217811096721
 31
0.0
  0
ARC
  5
35A
330
1F
100
AcDbEntity
  8
図
  6
CONTINUOUS
 62
     2
100
AcDbCircle
 10
459.3853967546102
 20
2199.217811096721
 30
0.0
 40
10.0
100
AcDbArc
 50
90.00000000000001
 51
180.0
  0
ARC
  5
35B
330
1F
100
AcDbEntity
  8
図
  6
CONTINUOUS
 62
     2
100
AcDbCircle
 10
596.9451839776343
 20
2336.782205509656
 30
0.0
 40
10.0
100
AcDbArc
 50
89.99999999999935
 51
180.0026991474136
  0
ARC
  5
35C
330
1F
100
AcDbEntity
  8
図
  6
CONTINUOUS
 62
     2
100
AcDbCircle
 10
432.7547334010496
 20
2362.707964871739
 30
0.0
 40
4.5
100
AcDbArc
 50
135.0000000000051
 51
225.0
  0
ARC
  5
35D
330
1F
100
AcDbEntity
  8
図
  6
CONTINUOUS
 62
     2
100
AcDbCircle
 10
433.4618401822363
 20
2363.415071652926
 30
0.0
 40
4.5
100
AcDbArc
 50
45.00000000000102
 51
134.999999999999
  0
LINE
  5
35E
330
1F
100
AcDbEntity
  8
図
  6
CONTINUOUS
 62
     2
100
AcDbLine
 10
429.5727528857101
 20
2365.889945387078
 30
0.0
 11
430.2798596668968
 21
2366.597052168265
 31
0.0
  0
LINE
  5
35F
330
1F
100
AcDbEntity
  8
図
  6
CONTINUOUS
 62
     2
100
AcDbLine
 10
444.0684419000345
 20
2359.172430965806
 30
0.0
 11
436.6438206975758
 21
2366.597052168265
 31
0.0
  0
LINE
  5
360
330
1F
100
AcDbEntity
  8
図
  6
CONTINUOUS
 62
     2
100
AcDbLine
 10
436.9973740881692
 20
2352.101363153941
 30
0.0
 11
429.5727528857105
 21
2359.5259843564
 31
0.0
  0
CIRCLE
  5
361
330
1F
100
AcDbEntity
  8
図
  6
CONTINUOUS
 62
     2
100
AcDbCircle
 10
444.5805339079507
 20
2351.589703107349
 30
0.0
 40
7.599999999999998
  0
ARC
  5
362
330
1F
100
AcDbEntity
  8
図
  6
CONTINUOUS
 62
     2
100
AcDbCircle
 10
423.2173995941143
 20
2251.85781109672
 30
0.0
 40
1.0
100
AcDbArc
 50
90.00000000000001
 51
198.9714144283706
  0
ARC
  5
363
330
1F
100
AcDbEntity
  8
図
  6
CONTINUOUS
 62
     2
100
AcDbCircle
 10
423.2144461230409
 20
2251.857811096721
 30
0.0
 40
1.0
100
AcDbArc
 50
18.98692430411804
 51
90.00000000000001
  0
ARC
  5
364
330
1F
100
AcDbEntity
  8
図
  6
CONTINUOUS
 62
     2
100
AcDbCircle
 10
544.3087842440527
 20
2372.944275513546
 30
0.0
 40
1.0
100
AcDbArc
 50
180.0
 51
250.9911453601218
  0
ARC
  5
365
330
1F
100
AcDbEntity
  8
図
  6
CONTINUOUS
 62
     2
100
AcDbCircle
 10
544.3087842440527
 20
2372.937676043019
 30
0.0
 40
1.0
100
AcDbArc
 50
71.02579497760894
 51
180.0
  0
LINE
  5
366
330
1F
100
AcDbEntity
  8
図
  6
CONTINUOUS
 62
     2
100
AcDbLine
 10
543.3087842440527
 20
2372.937676043018
 30
0.0
 11
543.3087842440527
 21
2372.944275513546
 31
0.0
  0
LINE
  5
367
330
1F
100
AcDbEntity
  8
図
  6
CONTINUOUS
 62
     2
100
AcDbLine
 10
423.2173995941143
 20
2252.85781109672
 30
0.0
 11
423.2144461230409
 21
2252.85781109672
 31
0.0
  0
ARC
  5
368
330
1F
100
AcDbEntity
  8
図
  6
CONTINUOUS
 62
     2
100
AcDbCircle
 10
447.8051026791859
 20
2260.310317056515
 30
0.0
 40
27.0
100
AcDbArc
 50
198.9714144283603
 51
270.0015363986231
  0
LINE
  5
369
330
1F
100
AcDbEntity
  8
図
  6
CONTINUOUS
 62
     2
100
AcDbLine
 10
535.8558047596734
 20
2233.31267814527
 30
0.0
 11
447.805826689977
 21
2233.310317066222
 31
0.0
  0
ARC
  5
36A
330
1F
100
AcDbEntity
  8
図
  6
CONTINUOUS
 62
     2
100
AcDbCircle
 10
535.8550807488823
 20
2260.312678135562
 30
0.0
 40
27.0
100
AcDbArc
 50
270.0015363986102
 51
0.0
  0
LINE
  5
36B
330
1F
100
AcDbEntity
  8
図
  6
CONTINUOUS
 62
     2
100
AcDbLine
 10
562.8550807488823
 20
2260.312678135562
 30
0.0
 11
562.8550807488823
 21
2348.350384666868
 31
0.0
  0
ARC
  5
36C
330
1F
100
AcDbEntity
  8
図
  6
CONTINUOUS
 62
     2
100
AcDbCircle
 10
535.8550807488823
 20
2348.350384666868
 30
0.0
 40
27.0
100
AcDbArc
 50
0.0
 51
71.0257949776158
  0
ARC
  5
36D
330
1F
100
AcDbEntity
  8
図
  6
CONTINUOUS
 62
     2
100
AcDbCircle
 10
535.83303051441
 20
2348.341251637099
 30
0.0
 40
25.02205190124688
100
AcDbArc
 50
0.0209129160778648
 51
70.99114536011992
  0
LINE
  5
36E
330
1F
100
AcDbEntity
  8
図
  6
CONTINUOUS
 62
     2
100
AcDbLine
 10
560.8550807488823
 20
2260.312678135562
 30
0.0
 11
560.8550807488823
 21
2348.350384666868
 31
0.0
  0
ARC
  5
36F
330
1F
100
AcDbEntity
  8
図
  6
CONTINUOUS
 62
     2
100
AcDbCircle
 10
535.8550807488823
 20
2260.312678135562
 30
0.0
 40
25.0
100
AcDbArc
 50
270.0015363986102
 51
0.0
  0
LINE
  5
370
330
1F
100
AcDbEntity
  8
図
  6
CONTINUOUS
 62
     2
100
AcDbLine
 10
535.8557511292443
 20
2235.31267814455
 30
0.0
 11
447.8057730595478
 21
2235.310317065503
 31
0.0
  0
ARC
  5
371
330
1F
100
AcDbEntity
  8
図
  6
CONTINUOUS
 62
     2
100
AcDbCircle
 10
447.8091890159767
 20
2260.320182376901
 30
0.0
 40
25.00986554468181
100
AcDbArc
 50
198.9869243041286
 51
269.9921742927228
  0
ARC
  5
372
330
1F
100
AcDbEntity
  8
図
  6
CONTINUOUS
 62
     2
100
AcDbCircle
 10
535.8087842440532
 20
2348.357811096721
 30
0.0
 40
41.15
100
AcDbArc
 50
0.0
 51
61.02700537901256
  0
ARC
  5
373
330
1F
100
AcDbEntity
  8
図
  6
CONTINUOUS
 62
     2
100
AcDbCircle
 10
447.8119939572553
 20
2260.35781109672
 30
0.0
 40
41.15
100
AcDbArc
 50
208.9729946209845
 51
270.0
  0
ARC
  5
374
330
1F
100
AcDbEntity
  8
図
  6
CONTINUOUS
 62
     2
100
AcDbCircle
 10
448.9491785600057
 20
2209.207811096722
 30
0.0
 40
10.0
100
AcDbArc
 50
90.00000000000001
 51
180.0
  0
ARC
  5
375
330
1F
100
AcDbEntity
  8
図
  6
CONTINUOUS
 62
     2
100
AcDbCircle
 10
586.9593597090866
 20
2347.218423704259
 30
0.0
 40
10.0
100
AcDbArc
 50
90.00000000000001
 51
180.0
  0
LINE
  5
376
330
1F
100
AcDbEntity
  8
図
  6
CONTINUOUS
 62
     2
100
AcDbLine
 10
576.9593597090866
 20
2260.357811095718
 30
0.0
 11
576.9593597090866
 21
2347.218423704259
 31
0.0
  0
LINE
  5
377
330
1F
100
AcDbEntity
  8
図
  6
CONTINUOUS
 62
     2
100
AcDbLine
 10
586.9487842440535
 20
2260.357811096721
 30
0.0
 11
586.9451839887306
 21
2336.781734419562
 31
0.0
  0
LINE
  5
378
330
1F
100
AcDbEntity
  8
図
  6
CONTINUOUS
 62
     2
100
AcDbLine
 10
535.8087842440541
 20
2219.207811096721
 30
0.0
 11
448.9491785600057
 21
2219.207811096721
 31
0.0
  0
LINE
  5
379
330
1F
100
AcDbEntity
  8
図
  6
CONTINUOUS
 62
     2
100
AcDbLine
 10
535.8087842440541
 20
2209.217811096721
 30
0.0
 11
459.3853967546102
 21
2209.217811096721
 31
0.0
  0
ARC
  5
37A
330
1F
100
AcDbEntity
  8
図
  6
CONTINUOUS
 62
     2
100
AcDbCircle
 10
535.8083773219569
 20
2260.358793493564
 30
0.0
 40
41.15098239885586
100
AcDbArc
 50
270.000566570161
 51
359.9986321786344
  0
ARC
  5
37B
330
1F
100
AcDbEntity
  8
図
  6
CONTINUOUS
 62
     2
100
AcDbCircle
 10
535.8087842440536
 20
2260.357811096721
 30
0.0
 40
51.14
100
AcDbArc
 50
270.0
 51
0.0
  0
LINE
  5
37C
330
1F
100
AcDbEntity
  8
図
  6
CONTINUOUS
 62
     2
100
AcDbLine
 10
422.8119939572553
 20
2384.35781109672
 30
0.0
 11
535.8087842440532
 21
2384.35781109672
 31
0.0
  0
ARC
  5
37D
330
1F
100
AcDbEntity
  8
図
  6
CONTINUOUS
 62
     2
100
AcDbCircle
 10
419.8119939572553
 20
2261.85781109672
 30
0.0
 40
1.0
100
AcDbArc
 50
270.0
 51
0.0
  0
ARC
  5
37E
330
1F
100
AcDbEntity
  8
図
  6
CONTINUOUS
 62
     2
100
AcDbCircle
 10
413.8119939572553
 20
2261.85781109672
 30
0.0
 40
1.0
100
AcDbArc
 50
180.0
 51
270.0
  0
ARC
  5
37F
330
1F
100
AcDbEntity
  8
図
  6
CONTINUOUS
 62
     2
100
AcDbCircle
 10
414.3119939572553
 20
2260.85781109672
 30
0.0
 40
3.5
100
AcDbArc
 50
225.7078935154353
 51
238.9972808661379
  0
LINE
  5
380
330
1F
100
AcDbEntity
  8
図
  6
CONTINUOUS
 62
     2
100
AcDbLine
 10
421.1147695949867
 20
2257.85781109672
 30
0.0
 11
412.5092183195243
 21
2257.85781109672
 31
0.0
  0
ARC
  5
381
330
1F
100
AcDbEntity
  8
図
  6
CONTINUOUS
 62
     2
100
AcDbCircle
 10
419.3119939572553
 20
2260.85781109672
 30
0.0
 40
3.5
100
AcDbArc
 50
301.0027191338622
 51
0.0
  0
ARC
  5
382
330
1F
100
AcDbEntity
  8
図
  6
CONTINUOUS
 62
     2
100
AcDbCircle
 10
534.3087842440532
 20
2376.357811096721
 30
0.0
 40
1.0
100
AcDbArc
 50
270.0
 51
0.0
  0
ARC
  5
383
330
1F
100
AcDbEntity
  8
図
  6
CONTINUOUS
 62
     2
100
AcDbCircle
 10
534.3087842440527
 20
2382.357811096721
 30
0.0
 40
1.0
100
AcDbArc
 50
0.0
 51
90.00000000000001
  0
ARC
  5
384
330
1F
100
AcDbEntity
  8
図
  6
CONTINUOUS
 62
     2
100
AcDbCircle
 10
535.3087842440532
 20
2376.857811096721
 30
0.0
 40
3.500000000000452
100
AcDbArc
 50
269.9999999999982
 51
328.9972808661167
  0
LINE
  5
385
330
1F
100
AcDbEntity
  8
図
  6
CONTINUOUS
 62
     2
100
AcDbLine
 10
538.3087842440527
 20
2375.055035458988
 30
0.0
 11
538.3087842440527
 21
2383.660586734454
 31
0.0
  0
ARC
  5
386
330
1F
100
AcDbEntity
  8
図
  6
CONTINUOUS
 62
     2
100
AcDbCircle
 10
535.3087842440532
 20
2381.85781109672
 30
0.0
 40
3.500000000000452
100
AcDbArc
 50
31.00271913387693
 51
44.29210648457146
  0
LINE
  5
387
330
1F
100
AcDbEntity
  8
図
  6
CONTINUOUS
 62
     2
100
AcDbLine
 10
422.8119939572553
 20
2364.35781109672
 30
0.0
 11
422.8119939572553
 21
2260.85781109672
 31
0.0
  0
ARC
  5
388
330
1F
100
AcDbEntity
  8
図
  6
CONTINUOUS
 62
     2
100
AcDbCircle
 10
431.8119939572553
 20
2364.35781109672
 30
0.0
 40
9.0
100
AcDbArc
 50
90.00000000000001
 51
180.0
  0
LINE
  5
389
330
1F
100
AcDbEntity
  8
図
  6
CONTINUOUS
 62
     2
100
AcDbLine
 10
535.3087842440532
 20
2373.35781109672
 30
0.0
 11
431.8119939572553
 21
2373.35781109672
 31
0.0
  0
ARC
  5
38A
330
1F
100
AcDbEntity
  8
図
  6
CONTINUOUS
 62
     2
100
AcDbCircle
 10
535.8087842440532
 20
2260.35781109672
 30
0.0
 40
31.0
100
AcDbArc
 50
269.9999999999999
 51
0.0
  0
ARC
  5
38B
330
1F
100
AcDbEntity
  8
図
  6
CONTINUOUS
 62
     2
100
AcDbCircle
 10
535.8087842440536
 20
2260.357811096721
 30
0.0
 40
36.0
100
AcDbArc
 50
269.9999999999999
 51
0.0
  0
ARC
  5
38C
330
1F
100
AcDbEntity
  8
図
  6
CONTINUOUS
 62
     2
100
AcDbCircle
 10
447.8119939572553
 20
2260.35781109672
 30
0.0
 40
31.0
100
AcDbArc
 50
184.6256505795233
 51
270.0
  0
ARC
  5
38D
330
1F
100
AcDbEntity
  8
図
  6
CONTINUOUS
 62
     2
100
AcDbCircle
 10
447.8119939572553
 20
2260.35781109672
 30
0.0
 40
36.0
100
AcDbArc
 50
180.0
 51
270.0
  0
ARC
  5
38E
330
1F
100
AcDbEntity
  8
図
  6
CONTINUOUS
 62
     2
100
AcDbCircle
 10
535.8087842440532
 20
2348.357811096721
 30
0.0
 40
36.0
100
AcDbArc
 50
0.0
 51
90.00000000000001
  0
ARC
  5
38F
330
1F
100
AcDbEntity
  8
図
  6
CONTINUOUS
 62
     2
100
AcDbCircle
 10
535.8087842440532
 20
2348.357811096721
 30
0.0
 40
31.0
100
AcDbArc
 50
0.0
 51
85.3743494204784
  0
LINE
  5
390
330
1F
100
AcDbEntity
  8
図
  6
CONTINUOUS
 62
     2
100
AcDbLine
 10
535.8087842440532
 20
2229.357811096721
 30
0.0
 11
447.8119939572553
 21
2229.357811096721
 31
0.0
  0
LINE
  5
391
330
1F
100
AcDbEntity
  8
図
  6
CONTINUOUS
 62
     2
100
AcDbLine
 10
566.8087842440536
 20
2260.35781109672
 30
0.0
 11
566.8087842440532
 21
2348.357811096721
 31
0.0
  0
LINE
  5
392
330
1F
100
AcDbEntity
  8
図
  6
CONTINUOUS
 62
     2
100
AcDbLine
 10
535.8087842440536
 20
2224.357811096721
 30
0.0
 11
447.8119939572553
 21
2224.357811096721
 31
0.0
  0
LINE
  5
393
330
1F
100
AcDbEntity
  8
図
  6
CONTINUOUS
 62
     2
100
AcDbLine
 10
571.8087842440532
 20
2260.357811096721
 30
0.0
 11
571.8087842440532
 21
2348.357811096721
 31
0.0
  0
LINE
  5
394
330
1F
100
AcDbEntity
  8
図
  6
CONTINUOUS
 62
     2
100
AcDbLine
 10
534.3087842440527
 20
2383.357811096721
 30
0.0
 11
422.8119939572553
 21
2383.357811096721
 31
0.0
  0
LINE
  5
395
330
1F
100
AcDbEntity
  8
図
  6
CONTINUOUS
 62
     2
100
AcDbLine
 10
420.8119939572553
 20
2364.35781109672
 30
0.0
 11
420.8119939572553
 21
2261.85781109672
 31
0.0
  0
ARC
  5
396
330
1F
100
AcDbEntity
  8
図
  6
CONTINUOUS
 62
     2
100
AcDbCircle
 10
431.8119939572553
 20
2364.35781109672
 30
0.0
 40
11.0
100
AcDbArc
 50
90.00000000000001
 51
180.0
  0
LINE
  5
397
330
1F
100
AcDbEntity
  8
図
  6
CONTINUOUS
 62
     2
100
AcDbLine
 10
534.3087842440532
 20
2375.357811096721
 30
0.0
 11
431.8119939572553
 21
2375.35781109672
 31
0.0
  0
ARC
  5
398
330
1F
100
AcDbEntity
  8
図
  6
CONTINUOUS
 62
     2
100
AcDbCircle
 10
422.8119939572553
 20
2373.357811096721
 30
0.0
 40
10.0
100
AcDbArc
 50
90.00000000000001
 51
180.0
  0
LINE
  5
399
330
1F
100
AcDbEntity
  8
図
  6
CONTINUOUS
 62
     2
100
AcDbLine
 10
412.8119939572553
 20
2373.357811096721
 30
0.0
 11
412.8119939572553
 21
2261.85781109672
 31
0.0
  0
LINE
  5
39A
330
1F
100
AcDbEntity
  8
図
  6
CONTINUOUS
 62
     2
100
AcDbLine
 10
419.8119939572553
 20
2260.85781109672
 30
0.0
 11
413.8119939572553
 21
2260.85781109672
 31
0.0
  0
LINE
  5
39B
330
1F
100
AcDbEntity
  8
図
  6
CONTINUOUS
 62
     2
100
AcDbLine
 10
535.3087842440532
 20
2376.357811096721
 30
0.0
 11
535.3087842440527
 21
2382.357811096721
 31
0.0
  0
ARC
  5
39C
330
1F
100
AcDbEntity
  8
図
  6
CONTINUOUS
 62
     2
100
AcDbCircle
 10
422.8119939572553
 20
2373.357811096721
 30
0.0
 40
11.0
100
AcDbArc
 50
90.00000000000001
 51
180.0
  0
LINE
  5
39D
330
1F
100
AcDbEntity
  8
図
  6
CONTINUOUS
 62
     2
100
AcDbLine
 10
411.8119939572553
 20
2373.357811096721
 30
0.0
 11
411.8119939572553
 21
2260.35781109672
 31
0.0
  0
ARC
  5
39E
330
1F
100
AcDbEntity
  8
図
  6
CONTINUOUS
 62
     2
100
AcDbCircle
 10
422.6519939572554
 20
2373.51781109672
 30
0.0
 40
15.0
100
AcDbArc
 50
90.00000000000001
 51
180.0
  0
ARC
  5
39F
330
1F
100
AcDbEntity
  8
図
  6
CONTINUOUS
 62
     2
100
AcDbCircle
 10
727.6521080263633
 20
1676.496277960581
 30
0.0
 40
600.0
100
AcDbArc
 50
252.3799259695363
 51
287.5128619862434
  0
ARC
  5
3A0
330
1F
100
AcDbEntity
  8
図
  6
CONTINUOUS
 62
     2
100
AcDbCircle
 10
548.9441842931519
 20
1113.821591111031
 30
0.0
 40
9.62780788194861
100
AcDbArc
 50
182.9999999999985
 51
252.3799259695363
  0
LINE
  5
3A1
330
1F
100
AcDbEntity
  8
図
  6
CONTINUOUS
 62
     2
100
AcDbLine
 10
407.6521080263633
 20
1046.49627796058
 30
0.0
 11
1047.652108026363
 21
1046.49627796058
 31
0.0
  0
ARC
  5
3A2
330
1F
100
AcDbEntity
  8
図
  6
CONTINUOUS
 62
     2
100
AcDbCircle
 10
414.7396666897944
 20
1163.496277960579
 30
0.0
 40
3.0
100
AcDbArc
 50
90.0000000000002
 51
178.0
  0
ARC
  5
3A3
330
1F
100
AcDbEntity
  8
図
  6
CONTINUOUS
 62
     2
100
AcDbCircle
 10
533.6957066652285
 20
1163.49627796058
 30
0.0
 40
3.0
100
AcDbArc
 50
2.999999999999777
 51
90.0000000000002
  0
ARC
  5
3A4
330
1F
100
AcDbEntity
  8
図
  6
CONTINUOUS
 62
     2
100
AcDbCircle
 10
921.6110621222074
 20
1163.423177202872
 30
0.0
 40
3.0
100
AcDbArc
 50
90.00000000000001
 51
176.9999999999997
  0
ARC
  5
3A5
330
1F
100
AcDbEntity
  8
図
  6
CONTINUOUS
 62
     2
100
AcDbCircle
 10
1040.567102097642
 20
1163.423177202872
 30
0.0
 40
3.0
100
AcDbArc
 50
2.000000000000081
 51
90.00000000000001
  0
ARC
  5
3A6
330
1F
100
AcDbEntity
  8
図
  6
CONTINUOUS
 62
     2
100
AcDbCircle
 10
905.1948408428334
 20
1113.843118346187
 30
0.0
 40
10.0
100
AcDbArc
 50
287.5128619862415
 51
357.0000000000023
  0
ARC
  5
3A7
330
1F
100
AcDbEntity
  8
図
  6
CONTINUOUS
 62
     2
100
AcDbCircle
 10
602.7893529271355
 20
1042.49627796058
 30
0.0
 40
4.0
100
AcDbArc
 50
270.0000000000002
 51
357.9999999999995
  0
ARC
  5
3A8
330
1F
100
AcDbEntity
  8
図
  6
CONTINUOUS
 62
     2
100
AcDbCircle
 10
458.5148631255915
 20
1042.49627796058
 30
0.0
 40
4.0
100
AcDbArc
 50
182.0000000000004
 51
270.0
  0
LINE
  5
3A9
330
1F
100
AcDbEntity
  8
図
  6
CONTINUOUS
 62
     2
100
AcDbLine
 10
606.7869162352113
 20
1042.35667997377
 30
0.0
 11
606.9314741822964
 21
1046.496277960581
 31
0.0
  0
ARC
  5
3AA
330
1F
100
AcDbEntity
  8
図
  6
CONTINUOUS
 62
     2
100
AcDbCircle
 10
888.48787966382
 20
1156.423177202871
 30
0.0
 40
5.0
100
AcDbArc
 50
90.00000000000001
 51
177.0000000000009
  0
ARC
  5
3AB
330
1F
100
AcDbEntity
  8
図
  6
CONTINUOUS
 62
     2
100
AcDbCircle
 10
566.8140395664764
 20
1156.473858779241
 30
0.0
 40
5.0
100
AcDbArc
 50
2.99999999999909
 51
89.99172458727088
  0
LINE
  5
3AC
330
1F
100
AcDbEntity
  8
図
  6
CONTINUOUS
 62
     2
100
AcDbLine
 10
883.4947319900471
 20
1156.684856984086
 30
0.0
 11
880.3238052619358
 21
1096.179970658228
 31
0.0
  0
LINE
  5
3AD
330
1F
100
AcDbEntity
  8
図
  6
CONTINUOUS
 62
     2
100
AcDbLine
 10
571.8071872402493
 20
1156.735538560456
 30
0.0
 11
574.9808030063505
 21
1096.179342333164
 31
0.0
  0
LINE
  5
3AE
330
1F
100
AcDbEntity
  8
図
  6
CONTINUOUS
 62
     2
100
AcDbLine
 10
918.5021295256479
 20
1161.423177202872
 30
0.0
 11
888.2398796638204
 21
1161.423177202872
 31
0.0
  0
LINE
  5
3AF
330
1F
100
AcDbEntity
  8
図
  6
CONTINUOUS
 62
     2
100
AcDbLine
 10
536.8055912150985
 20
1161.478113609359
 30
0.0
 11
566.8147617347377
 21
1161.473858727088
 31
0.0
  0
LINE
  5
3B0
330
1F
100
AcDbEntity
  8
図
  6
CONTINUOUS
 62
     2
100
AcDbLine
 10
918.6151735179437
 20
1163.5801850716
 30
0.0
 11
915.981136190379
 21
1113.319758783758
 31
0.0
  0
LINE
  5
3B1
330
1F
100
AcDbEntity
  8
図
  6
CONTINUOUS
 62
     2
100
AcDbLine
 10
1040.567102097642
 20
1166.423177202873
 30
0.0
 11
921.6110621222074
 21
1166.423177202873
 31
0.0
  0
LINE
  5
3B2
330
1F
100
AcDbEntity
  8
図
  6
CONTINUOUS
 62
     2
100
AcDbLine
 10
536.6915952694926
 20
1163.653285829309
 30
0.0
 11
539.3295709872973
 21
1113.317710578966
 31
0.0
  0
LINE
  5
3B3
330
1F
100
AcDbEntity
  8
図
  6
CONTINUOUS
 62
     2
100
AcDbLine
 10
414.7396666897944
 20
1166.496277960579
 30
0.0
 11
533.6957066652285
 21
1166.496277960581
 31
0.0
  0
LINE
  5
3B4
330
1F
100
AcDbEntity
  8
図
  6
CONTINUOUS
 62
     2
100
AcDbLine
 10
411.7414942087375
 20
1163.600976450687
 30
0.0
 11
407.6521080263633
 21
1046.49627796058
 31
0.0
  0
LINE
  5
3B5
330
1F
100
AcDbEntity
  8
図
  6
CONTINUOUS
 62
     2
100
AcDbLine
 10
1047.652108026363
 20
1046.49627796058
 30
0.0
 11
1043.565274578699
 21
1163.527875692979
 31
0.0
  0
LINE
  5
3B6
330
1F
100
AcDbEntity
  8
図
  6
CONTINUOUS
 62
     2
100
AcDbLine
 10
673.98222351925
 20
1046.49627796058
 30
0.0
 11
673.98222351925
 21
1076.496277970438
 31
0.0
  0
CIRCLE
  5
3B7
330
1F
100
AcDbEntity
  8
図
  6
CONTINUOUS
 62
     2
100
AcDbCircle
 10
530.6508407238325
 20
2068.517811096721
 30
0.0
 40
60.0
  0
ARC
  5
3B8
330
1F
100
AcDbEntity
  8
図
  6
CONTINUOUS
 62
     2
100
AcDbCircle
 10
995.9187052290094
 20
2199.217811096721
 30
0.0
 40
10.0
100
AcDbArc
 50
0.0
 51
90.00000000000001
  0
ARC
  5
3B9
330
1F
100
AcDbEntity
  8
図
  6
CONTINUOUS
 62
     2
100
AcDbCircle
 10
858.3589180059853
 20
2336.782205509656
 30
0.0
 40
10.0
100
AcDbArc
 50
359.9973008525859
 51
90.00000000000044
  0
ARC
  5
3BA
330
1F
100
AcDbEntity
  8
図
  6
CONTINUOUS
 62
     2
100
AcDbCircle
 10
1022.54936858257
 20
2362.707964871739
 30
0.0
 40
4.5
100
AcDbArc
 50
315.0000000000013
 51
44.99999999999666
  0
ARC
  5
3BB
330
1F
100
AcDbEntity
  8
図
  6
CONTINUOUS
 62
     2
100
AcDbCircle
 10
1021.842261801383
 20
2363.415071652926
 30
0.0
 40
4.5
100
AcDbArc
 50
45.0000000000009
 51
134.9999999999988
  0
LINE
  5
3BC
330
1F
100
AcDbEntity
  8
図
  6
CONTINUOUS
 62
     2
100
AcDbLine
 10
1025.73134909791
 20
2365.889945387078
 30
0.0
 11
1025.024242316723
 21
2366.597052168265
 31
0.0
  0
LINE
  5
3BD
330
1F
100
AcDbEntity
  8
図
  6
CONTINUOUS
 62
     2
100
AcDbLine
 10
1011.235660083585
 20
2359.172430965806
 30
0.0
 11
1018.660281286044
 21
2366.597052168265
 31
0.0
  0
LINE
  5
3BE
330
1F
100
AcDbEntity
  8
図
  6
CONTINUOUS
 62
     2
100
AcDbLine
 10
1018.30672789545
 20
2352.101363153941
 30
0.0
 11
1025.731349097909
 21
2359.5259843564
 31
0.0
  0
CIRCLE
  5
3BF
330
1F
100
AcDbEntity
  8
図
  6
CONTINUOUS
 62
     2
100
AcDbCircle
 10
1010.723568075669
 20
2351.589703107349
 30
0.0
 40
7.599999999999998
  0
ARC
  5
3C0
330
1F
100
AcDbEntity
  8
図
  6
CONTINUOUS
 62
     2
100
AcDbCircle
 10
1032.086702389505
 20
2251.85781109672
 30
0.0
 40
1.0
100
AcDbArc
 50
341.0285855716295
 51
90.00000000000001
  0
ARC
  5
3C1
330
1F
100
AcDbEntity
  8
図
  6
CONTINUOUS
 62
     2
100
AcDbCircle
 10
1032.089655860579
 20
2251.857811096721
 30
0.0
 40
1.0
100
AcDbArc
 50
90.00000000000001
 51
161.0130756958822
  0
ARC
  5
3C2
330
1F
100
AcDbEntity
  8
図
  6
CONTINUOUS
 62
     2
100
AcDbCircle
 10
910.9953177395669
 20
2372.944275513546
 30
0.0
 40
1.0
100
AcDbArc
 50
289.0088546398748
 51
0.0
  0
ARC
  5
3C3
330
1F
100
AcDbEntity
  8
図
  6
CONTINUOUS
 62
     2
100
AcDbCircle
 10
910.9953177395669
 20
2372.937676043019
 30
0.0
 40
1.0
100
AcDbArc
 50
0.0
 51
108.9742050223849
  0
LINE
  5
3C4
330
1F
100
AcDbEntity
  8
図
  6
CONTINUOUS
 62
     2
100
AcDbLine
 10
911.9953177395669
 20
2372.937676043018
 30
0.0
 11
911.9953177395669
 21
2372.944275513546
 31
0.0
  0
LINE
  5
3C5
330
1F
100
AcDbEntity
  8
図
  6
CONTINUOUS
 62
     2
100
AcDbLine
 10
1032.086702389505
 20
2252.85781109672
 30
0.0
 11
1032.089655860579
 21
2252.85781109672
 31
0.0
  0
ARC
  5
3C6
330
1F
100
AcDbEntity
  8
図
  6
CONTINUOUS
 62
     2
100
AcDbCircle
 10
1007.498999304434
 20
2260.310317056515
 30
0.0
 40
27.0
100
AcDbArc
 50
269.9984636013768
 51
341.02858557164
  0
LINE
  5
3C7
330
1F
100
AcDbEntity
  8
図
  6
CONTINUOUS
 62
     2
100
AcDbLine
 10
919.4482972239462
 20
2233.31267814527
 30
0.0
 11
1007.498275293643
 21
2233.310317066222
 31
0.0
  0
ARC
  5
3C8
330
1F
100
AcDbEntity
  8
図
  6
CONTINUOUS
 62
     2
100
AcDbCircle
 10
919.4490212347373
 20
2260.312678135562
 30
0.0
 40
27.0
100
AcDbArc
 50
180.0
 51
269.9984636013898
  0
LINE
  5
3C9
330
1F
100
AcDbEntity
  8
図
  6
CONTINUOUS
 62
     2
100
AcDbLine
 10
892.4490212347373
 20
2260.312678135562
 30
0.0
 11
892.4490212347373
 21
2348.350384666868
 31
0.0
  0
ARC
  5
3CA
330
1F
100
AcDbEntity
  8
図
  6
CONTINUOUS
 62
     2
100
AcDbCircle
 10
919.4490212347373
 20
2348.350384666868
 30
0.0
 40
27.0
100
AcDbArc
 50
108.974205022384
 51
180.0
  0
ARC
  5
3CB
330
1F
100
AcDbEntity
  8
図
  6
CONTINUOUS
 62
     2
100
AcDbCircle
 10
919.4710714692096
 20
2348.341251637099
 30
0.0
 40
25.02205190124688
100
AcDbArc
 50
109.0088546398799
 51
179.9790870839221
  0
LINE
  5
3CC
330
1F
100
AcDbEntity
  8
図
  6
CONTINUOUS
 62
     2
100
AcDbLine
 10
894.4490212347373
 20
2260.312678135562
 30
0.0
 11
894.4490212347373
 21
2348.350384666868
 31
0.0
  0
ARC
  5
3CD
330
1F
100
AcDbEntity
  8
図
  6
CONTINUOUS
 62
     2
100
AcDbCircle
 10
919.4490212347373
 20
2260.312678135562
 30
0.0
 40
25.0
100
AcDbArc
 50
180.0
 51
269.9984636013898
  0
LINE
  5
3CE
330
1F
100
AcDbEntity
  8
図
  6
CONTINUOUS
 62
     2
100
AcDbLine
 10
919.4483508543753
 20
2235.31267814455
 30
0.0
 11
1007.498328924072
 21
2235.310317065503
 31
0.0
  0
ARC
  5
3CF
330
1F
100
AcDbEntity
  8
図
  6
CONTINUOUS
 62
     2
100
AcDbCircle
 10
1007.494912967643
 20
2260.320182376901
 30
0.0
 40
25.00986554468181
100
AcDbArc
 50
270.0078257072771
 51
341.0130756958715
  0
LINE
  5
3D0
330
1F
100
AcDbEntity
  8
図
  6
CONTINUOUS
 62
     2
100
AcDbLine
 10
1043.492108026364
 20
2240.424860988922
 30
0.0
 11
1043.492108026364
 21
1896.610761204519
 31
0.0
  0
LINE
  5
3D1
330
1F
100
AcDbEntity
  8
図
  6
CONTINUOUS
 62
     2
100
AcDbLine
 10
899.5623676317664
 20
2384.35781109672
 30
0.0
 11
555.7418484209616
 21
2384.35781109672
 31
0.0
  0
ARC
  5
3D2
330
1F
100
AcDbEntity
  8
図
  6
CONTINUOUS
 62
     2
100
AcDbCircle
 10
919.4953177395664
 20
2348.357811096721
 30
0.0
 40
41.15
100
AcDbArc
 50
118.9729946209874
 51
180.0
  0
ARC
  5
3D3
330
1F
100
AcDbEntity
  8
図
  6
CONTINUOUS
 62
     2
100
AcDbCircle
 10
1007.492108026364
 20
2260.35781109672
 30
0.0
 40
41.15
100
AcDbArc
 50
270.0
 51
331.0270053790155
  0
ARC
  5
3D4
330
1F
100
AcDbEntity
  8
図
  6
CONTINUOUS
 62
     2
100
AcDbCircle
 10
1006.354923423614
 20
2209.207811096722
 30
0.0
 40
10.0
100
AcDbArc
 50
0.0
 51
90.00000000000031
  0
ARC
  5
3D5
330
1F
100
AcDbEntity
  8
図
  6
CONTINUOUS
 62
     2
100
AcDbCircle
 10
868.344742274533
 20
2347.218423704259
 30
0.0
 40
10.0
100
AcDbArc
 50
0.0
 51
90.00000000000009
  0
LINE
  5
3D6
330
1F
100
AcDbEntity
  8
図
  6
CONTINUOUS
 62
     2
100
AcDbLine
 10
878.344742274533
 20
2260.357811095718
 30
0.0
 11
878.344742274533
 21
2347.218423704259
 31
0.0
  0
LINE
  5
3D7
330
1F
100
AcDbEntity
  8
図
  6
CONTINUOUS
 62
     2
100
AcDbLine
 10
868.3553177395661
 20
2260.357811096721
 30
0.0
 11
868.358917994889
 21
2336.781734419562
 31
0.0
  0
LINE
  5
3D8
330
1F
100
AcDbEntity
  8
図
  6
CONTINUOUS
 62
     2
100
AcDbLine
 10
919.4953177395655
 20
2219.207811096721
 30
0.0
 11
1006.354923423614
 21
2219.207811096721
 31
0.0
  0
LINE
  5
3D9
330
1F
100
AcDbEntity
  8
図
  6
CONTINUOUS
 62
     2
100
AcDbLine
 10
919.4953177395655
 20
2209.217811096721
 30
0.0
 11
995.9187052290094
 21
2209.217811096721
 31
0.0
  0
ARC
  5
3DA
330
1F
100
AcDbEntity
  8
図
  6
CONTINUOUS
 62
     2
100
AcDbCircle
 10
919.4957246616627
 20
2260.358793493564
 30
0.0
 40
41.15098239885586
100
AcDbArc
 50
180.0013678213657
 51
269.999433429839
  0
ARC
  5
3DB
330
1F
100
AcDbEntity
  8
図
  6
CONTINUOUS
 62
     2
100
AcDbCircle
 10
919.495317739566
 20
2260.357811096721
 30
0.0
 40
51.14
100
AcDbArc
 50
180.0
 51
270.0
  0
LINE
  5
3DC
330
1F
100
AcDbEntity
  8
図
  6
CONTINUOUS
 62
     2
100
AcDbLine
 10
1021.348071097386
 20
1915.424872757889
 30
0.0
 11
1021.348071097387
 21
2221.610749435551
 31
0.0
  0
LINE
  5
3DD
330
1F
100
AcDbEntity
  8
図
  6
CONTINUOUS
 62
     2
100
AcDbLine
 10
1016.354923423614
 20
1927.827811096721
 30
0.0
 11
1016.354923423614
 21
2209.207811096722
 31
0.0
  0
LINE
  5
3DE
330
1F
100
AcDbEntity
  8
図
  6
CONTINUOUS
 62
     2
100
AcDbLine
 10
1005.91870522901
 20
1937.81781109672
 30
0.0
 11
1005.918705229009
 21
2199.217811096721
 31
0.0
  0
LINE
  5
3DF
330
1F
100
AcDbEntity
  8
図
  6
CONTINUOUS
 62
     2
100
AcDbLine
 10
858.3589180059853
 20
2346.782205509657
 30
0.0
 11
596.9451668056845
 21
2346.782205509654
 31
0.0
  0
LINE
  5
3E0
330
1F
100
AcDbEntity
  8
図
  6
CONTINUOUS
 62
     2
100
AcDbLine
 10
868.344742274533
 20
2357.218423704258
 30
0.0
 11
586.9593597090866
 21
2357.218423704257
 31
0.0
  0
LINE
  5
3E1
330
1F
100
AcDbEntity
  8
図
  6
CONTINUOUS
 62
     2
100
AcDbLine
 10
880.7474684306303
 20
2362.211571378032
 30
0.0
 11
574.5567476220976
 21
2362.211571378032
 31
0.0
  0
LINE
  5
3E2
330
1F
100
AcDbEntity
  8
図
  6
CONTINUOUS
 62
     2
100
AcDbLine
 10
1032.492108026364
 20
2384.35781109672
 30
0.0
 11
919.4953177395664
 21
2384.35781109672
 31
0.0
  0
ARC
  5
3E3
330
1F
100
AcDbEntity
  8
図
  6
CONTINUOUS
 62
     2
100
AcDbCircle
 10
1035.492108026364
 20
2261.85781109672
 30
0.0
 40
1.0
100
AcDbArc
 50
180.0
 51
270.0
  0
ARC
  5
3E4
330
1F
100
AcDbEntity
  8
図
  6
CONTINUOUS
 62
     2
100
AcDbCircle
 10
1041.492108026364
 20
2261.85781109672
 30
0.0
 40
1.0
100
AcDbArc
 50
270.0
 51
0.0
  0
ARC
  5
3E5
330
1F
100
AcDbEntity
  8
図
  6
CONTINUOUS
 62
     2
100
AcDbCircle
 10
1040.992108026364
 20
2260.85781109672
 30
0.0
 40
3.5
100
AcDbArc
 50
301.0027191338638
 51
314.2921064845635
  0
LINE
  5
3E6
330
1F
100
AcDbEntity
  8
図
  6
CONTINUOUS
 62
     2
100
AcDbLine
 10
1034.189332388633
 20
2257.85781109672
 30
0.0
 11
1042.794883664095
 21
2257.85781109672
 31
0.0
  0
ARC
  5
3E7
330
1F
100
AcDbEntity
  8
図
  6
CONTINUOUS
 62
     2
100
AcDbCircle
 10
1035.992108026364
 20
2260.85781109672
 30
0.0
 40
3.5
100
AcDbArc
 50
180.0
 51
238.9972808661362
  0
ARC
  5
3E8
330
1F
100
AcDbEntity
  8
図
  6
CONTINUOUS
 62
     2
100
AcDbCircle
 10
920.9953177395664
 20
2376.357811096721
 30
0.0
 40
1.0
100
AcDbArc
 50
179.9999999999992
 51
270.0
  0
ARC
  5
3E9
330
1F
100
AcDbEntity
  8
図
  6
CONTINUOUS
 62
     2
100
AcDbCircle
 10
920.9953177395669
 20
2382.357811096721
 30
0.0
 40
1.0
100
AcDbArc
 50
89.9999999999998
 51
180.0
  0
ARC
  5
3EA
330
1F
100
AcDbEntity
  8
図
  6
CONTINUOUS
 62
     2
100
AcDbCircle
 10
919.9953177395664
 20
2376.857811096721
 30
0.0
 40
3.500000000000452
100
AcDbArc
 50
211.0027191338808
 51
270.0000000000017
  0
LINE
  5
3EB
330
1F
100
AcDbEntity
  8
図
  6
CONTINUOUS
 62
     2
100
AcDbLine
 10
916.9953177395669
 20
2375.055035458988
 30
0.0
 11
916.9953177395669
 21
2383.660586734454
 31
0.0
  0
ARC
  5
3EC
330
1F
100
AcDbEntity
  8
図
  6
CONTINUOUS
 62
     2
100
AcDbCircle
 10
919.9953177395664
 20
2381.85781109672
 30
0.0
 40
3.500000000000452
100
AcDbArc
 50
135.7078935154298
 51
148.9972808661202
  0
LINE
  5
3ED
330
1F
100
AcDbEntity
  8
図
  6
CONTINUOUS
 62
     2
100
AcDbLine
 10
1032.492108026364
 20
2364.35781109672
 30
0.0
 11
1032.492108026364
 21
2260.85781109672
 31
0.0
  0
ARC
  5
3EE
330
1F
100
AcDbEntity
  8
図
  6
CONTINUOUS
 62
     2
100
AcDbCircle
 10
1023.492108026364
 20
2364.35781109672
 30
0.0
 40
9.0
100
AcDbArc
 50
0.0
 51
90.00000000000009
  0
LINE
  5
3EF
330
1F
100
AcDbEntity
  8
図
  6
CONTINUOUS
 62
     2
100
AcDbLine
 10
919.9953177395664
 20
2373.35781109672
 30
0.0
 11
1023.492108026364
 21
2373.35781109672
 31
0.0
  0
ARC
  5
3F0
330
1F
100
AcDbEntity
  8
図
  6
CONTINUOUS
 62
     2
100
AcDbCircle
 10
919.4953177395664
 20
2260.35781109672
 30
0.0
 40
31.0
100
AcDbArc
 50
179.9999999999999
 51
270.0
  0
ARC
  5
3F1
330
1F
100
AcDbEntity
  8
図
  6
CONTINUOUS
 62
     2
100
AcDbCircle
 10
919.495317739566
 20
2260.357811096721
 30
0.0
 40
36.0
100
AcDbArc
 50
180.0
 51
270.0
  0
ARC
  5
3F2
330
1F
100
AcDbEntity
  8
図
  6
CONTINUOUS
 62
     2
100
AcDbCircle
 10
1007.492108026364
 20
2260.35781109672
 30
0.0
 40
31.0
100
AcDbArc
 50
270.0
 51
355.3743494204767
  0
ARC
  5
3F3
330
1F
100
AcDbEntity
  8
図
  6
CONTINUOUS
 62
     2
100
AcDbCircle
 10
1007.492108026364
 20
2260.35781109672
 30
0.0
 40
36.0
100
AcDbArc
 50
270.0
 51
0.0
  0
ARC
  5
3F4
330
1F
100
AcDbEntity
  8
図
  6
CONTINUOUS
 62
     2
100
AcDbCircle
 10
919.4953177395664
 20
2348.357811096721
 30
0.0
 40
36.0
100
AcDbArc
 50
90.00000000000001
 51
180.0
  0
ARC
  5
3F5
330
1F
100
AcDbEntity
  8
図
  6
CONTINUOUS
 62
     2
100
AcDbCircle
 10
919.4953177395664
 20
2348.357811096721
 30
0.0
 40
31.0
100
AcDbArc
 50
94.62565057952163
 51
180.0
  0
LINE
  5
3F6
330
1F
100
AcDbEntity
  8
図
  6
CONTINUOUS
 62
     2
100
AcDbLine
 10
919.4953177395664
 20
2229.357811096721
 30
0.0
 11
1007.492108026364
 21
2229.357811096721
 31
0.0
  0
LINE
  5
3F7
330
1F
100
AcDbEntity
  8
図
  6
CONTINUOUS
 62
     2
100
AcDbLine
 10
888.495317739566
 20
2260.35781109672
 30
0.0
 11
888.4953177395664
 21
2348.357811096721
 31
0.0
  0
LINE
  5
3F8
330
1F
100
AcDbEntity
  8
図
  6
CONTINUOUS
 62
     2
100
AcDbLine
 10
919.495317739566
 20
2224.357811096721
 30
0.0
 11
1007.492108026364
 21
2224.357811096721
 31
0.0
  0
LINE
  5
3F9
330
1F
100
AcDbEntity
  8
図
  6
CONTINUOUS
 62
     2
100
AcDbLine
 10
883.4953177395664
 20
2260.357811096721
 30
0.0
 11
883.4953177395664
 21
2348.357811096721
 31
0.0
  0
LINE
  5
3FA
330
1F
100
AcDbEntity
  8
図
  6
CONTINUOUS
 62
     2
100
AcDbLine
 10
920.9953177395669
 20
2383.357811096721
 30
0.0
 11
1032.492108026364
 21
2383.357811096721
 31
0.0
  0
LINE
  5
3FB
330
1F
100
AcDbEntity
  8
図
  6
CONTINUOUS
 62
     2
100
AcDbLine
 10
1034.492108026364
 20
2364.35781109672
 30
0.0
 11
1034.492108026364
 21
2261.85781109672
 31
0.0
  0
ARC
  5
3FC
330
1F
100
AcDbEntity
  8
図
  6
CONTINUOUS
 62
     2
100
AcDbCircle
 10
1023.492108026364
 20
2364.35781109672
 30
0.0
 40
11.0
100
AcDbArc
 50
0.0
 51
90.00000000000009
  0
LINE
  5
3FD
330
1F
100
AcDbEntity
  8
図
  6
CONTINUOUS
 62
     2
100
AcDbLine
 10
920.9953177395664
 20
2375.357811096721
 30
0.0
 11
1023.492108026364
 21
2375.35781109672
 31
0.0
  0
ARC
  5
3FE
330
1F
100
AcDbEntity
  8
図
  6
CONTINUOUS
 62
     2
100
AcDbCircle
 10
1032.492108026364
 20
2373.357811096721
 30
0.0
 40
10.0
100
AcDbArc
 50
0.0
 51
90.00000000000009
  0
LINE
  5
3FF
330
1F
100
AcDbEntity
  8
図
  6
CONTINUOUS
 62
     2
100
AcDbLine
 10
1042.492108026364
 20
2373.357811096721
 30
0.0
 11
1042.492108026364
 21
2261.85781109672
 31
0.0
  0
LINE
  5
400
330
1F
100
AcDbEntity
  8
図
  6
CONTINUOUS
 62
     2
100
AcDbLine
 10
1035.492108026364
 20
2260.85781109672
 30
0.0
 11
1041.492108026364
 21
2260.85781109672
 31
0.0
  0
LINE
  5
401
330
1F
100
AcDbEntity
  8
図
  6
CONTINUOUS
 62
     2
100
AcDbLine
 10
919.9953177395664
 20
2376.357811096721
 30
0.0
 11
919.9953177395669
 21
2382.357811096721
 31
0.0
  0
ARC
  5
402
330
1F
100
AcDbEntity
  8
図
  6
CONTINUOUS
 62
     2
100
AcDbCircle
 10
1032.492108026364
 20
2373.357811096721
 30
0.0
 40
11.0
100
AcDbArc
 50
0.0
 51
90.00000000000009
  0
LINE
  5
403
330
1F
100
AcDbEntity
  8
図
  6
CONTINUOUS
 62
     2
100
AcDbLine
 10
1043.492108026364
 20
2373.357811096721
 30
0.0
 11
1043.492108026364
 21
2260.35781109672
 31
0.0
  0
ARC
  5
404
330
1F
100
AcDbEntity
  8
図
  6
CONTINUOUS
 62
     2
100
AcDbCircle
 10
1032.652108026364
 20
2373.51781109672
 30
0.0
 40
15.0
100
AcDbArc
 50
0.0
 51
90.00000000000001
  0
LINE
  5
405
330
1F
100
AcDbEntity
  8
図
  6
CONTINUOUS
 62
     2
100
AcDbLine
 10
1032.652108026364
 20
1748.51781109672
 30
0.0
 11
422.6521080263633
 21
1748.51781109672
 31
0.0
  0
LINE
  5
406
330
1F
100
AcDbEntity
  8
図
  6
CONTINUOUS
 62
     2
100
AcDbLine
 10
1047.652108026364
 20
2373.51781109672
 30
0.0
 11
1047.652108026364
 21
1763.51781109672
 31
0.0
  0
LINE
  5
407
330
1F
100
AcDbEntity
  8
図
  6
CONTINUOUS
 62
     2
100
AcDbLine
 10
422.6521080263633
 20
2388.51781109672
 30
0.0
 11
1032.652108026364
 21
2388.517811096721
 31
0.0
  0
LINE
  5
408
330
1F
100
AcDbEntity
  8
図
  6
CONTINUOUS
 62
     2
100
AcDbLine
 10
407.6521080263633
 20
1763.51781109672
 30
0.0
 11
407.6521080263633
 21
2373.51781109672
 31
0.0
  0
ARC
  5
409
330
1F
100
AcDbEntity
  8
図
  6
CONTINUOUS
 62
     2
100
AcDbCircle
 10
1464.2296856573
 20
2261.673325725053
 30
0.0
 40
3.0
100
AcDbArc
 50
180.0
 51
266.9999999999999
  0
ARC
  5
40A
330
1F
100
AcDbEntity
  8
図
  6
CONTINUOUS
 62
     2
100
AcDbCircle
 10
1464.2296856573
 20
2381.429365700487
 30
0.0
 40
3.0
100
AcDbArc
 50
91.99999999999993
 51
180.0
  0
ARC
  5
40B
330
1F
100
AcDbEntity
  8
図
  6
CONTINUOUS
 62
     2
100
AcDbCircle
 10
1464.156584899592
 20
1755.601930292641
 30
0.0
 40
3.0
100
AcDbArc
 50
180.0000000000002
 51
267.9999999999999
  0
ARC
  5
40C
330
1F
100
AcDbEntity
  8
図
  6
CONTINUOUS
 62
     2
100
AcDbCircle
 10
1464.156584899592
 20
1875.357970268075
 30
0.0
 40
3.0
100
AcDbArc
 50
92.99999999999997
 51
180.0000000000002
  0
LINE
  5
40D
330
1F
100
AcDbEntity
  8
図
  6
CONTINUOUS
 62
     2
100
AcDbLine
 10
1586.296182886401
 20
1992.379563420361
 30
0.0
 11
1581.16206745642
 21
1992.200276158886
 31
0.0
  0
LINE
  5
40E
330
1F
100
AcDbEntity
  8
図
  6
CONTINUOUS
 62
     2
100
AcDbLine
 10
1586.296182886401
 20
2144.649179838057
 30
0.0
 11
1581.16206745642
 21
2144.828467099531
 31
0.0
  0
ARC
  5
40F
330
1F
100
AcDbEntity
  8
図
  6
CONTINUOUS
 62
     2
100
AcDbCircle
 10
1586.156584899592
 20
1996.377126728438
 30
0.0
 40
4.0
100
AcDbArc
 50
272.0000000000038
 51
0.0
  0
ARC
  5
410
330
1F
100
AcDbEntity
  8
図
  6
CONTINUOUS
 62
     2
100
AcDbCircle
 10
1586.156584899592
 20
2140.651616529981
 30
0.0
 40
4.0
100
AcDbArc
 50
0.0
 51
87.9999999999964
  0
LINE
  5
411
330
1F
100
AcDbEntity
  8
図
  6
CONTINUOUS
 62
     2
100
AcDbLine
 10
1590.156584899592
 20
1996.377126728438
 30
0.0
 11
1590.156584899592
 21
2140.651616529981
 31
0.0
  0
LINE
  5
412
330
1F
100
AcDbEntity
  8
図
  6
CONTINUOUS
 62
     2
100
AcDbLine
 10
1470.968005876085
 20
2224.108995592893
 30
0.0
 11
1531.472892201944
 21
2220.938068864781
 31
0.0
  0
ARC
  5
413
330
1F
100
AcDbEntity
  8
図
  6
CONTINUOUS
 62
     2
100
AcDbCircle
 10
1471.179004080931
 20
1907.926303169322
 30
0.0
 40
5.0
100
AcDbArc
 50
93.00000000000558
 51
179.9917245872854
  0
LINE
  5
414
330
1F
100
AcDbEntity
  8
図
  6
CONTINUOUS
 62
     2
100
AcDbLine
 10
1470.917324299716
 20
1912.919450843095
 30
0.0
 11
1531.473520527009
 21
1916.093066609197
 31
0.0
  0
ARC
  5
415
330
1F
100
AcDbEntity
  8
図
  6
CONTINUOUS
 62
     2
100
AcDbCircle
 10
1517.52575610952
 20
1886.165908781347
 30
0.0
 40
5.0
100
AcDbArc
 50
273.0000000000057
 51
342.1534955929347
  0
ARC
  5
416
330
1F
100
AcDbEntity
  8
図
  6
CONTINUOUS
 62
     2
100
AcDbCircle
 10
1517.523665466986
 20
2250.869327826089
 30
0.0
 40
5.0
100
AcDbArc
 50
17.84716129697338
 51
86.9999999999944
  0
ARC
  5
417
330
1F
100
AcDbEntity
  8
図
  6
CONTINUOUS
 62
     2
100
AcDbCircle
 10
951.156584899591
 20
2068.514371629208
 30
0.0
 40
600.0
100
AcDbArc
 50
342.1534955929347
 51
17.84716129697338
  0
LINE
  5
418
330
1F
100
AcDbEntity
  8
図
  6
CONTINUOUS
 62
     2
100
AcDbLine
 10
1464.072677788571
 20
2258.67743712079
 30
0.0
 11
1517.785345248201
 21
2255.862475499862
 31
0.0
  0
ARC
  5
419
330
1F
100
AcDbEntity
  8
図
  6
CONTINUOUS
 62
     2
100
AcDbCircle
 10
1471.2296856573
 20
2229.102143266666
 30
0.0
 40
5.0
100
AcDbArc
 50
180.0
 51
266.9999999999944
  0
LINE
  5
41A
330
1F
100
AcDbEntity
  8
図
  6
CONTINUOUS
 62
     2
100
AcDbLine
 10
1466.229685657299
 20
2258.564393128495
 30
0.0
 11
1466.2296856573
 21
2229.102143266666
 31
0.0
  0
LINE
  5
41B
330
1F
100
AcDbEntity
  8
図
  6
CONTINUOUS
 62
     2
100
AcDbLine
 10
1461.2296856573
 20
2381.429365700487
 30
0.0
 11
1461.2296856573
 21
2261.673325725053
 31
0.0
  0
LINE
  5
41C
330
1F
100
AcDbEntity
  8
図
  6
CONTINUOUS
 62
     2
100
AcDbLine
 10
1463.999577030862
 20
1878.353858872337
 30
0.0
 11
1517.787435890735
 21
1881.172761107573
 31
0.0
  0
LINE
  5
41D
330
1F
100
AcDbEntity
  8
図
  6
CONTINUOUS
 62
     2
100
AcDbLine
 10
1466.174749250813
 20
1878.467854817943
 30
0.0
 11
1466.179004133083
 21
1907.927025335316
 31
0.0
  0
LINE
  5
41E
330
1F
100
AcDbEntity
  8
図
  6
CONTINUOUS
 62
     2
100
AcDbLine
 10
1461.156584899592
 20
1755.601930292641
 30
0.0
 11
1461.156584899591
 21
1875.357970268075
 31
0.0
  0
LINE
  5
41F
330
1F
100
AcDbEntity
  8
図
  6
CONTINUOUS
 62
     2
100
AcDbLine
 10
1464.051886409484
 20
1752.603757811583
 30
0.0
 11
1581.156584899591
 21
1748.514371629209
 31
0.0
  0
LINE
  5
420
330
1F
100
AcDbEntity
  8
図
  6
CONTINUOUS
 62
     2
100
AcDbLine
 10
1581.156584899591
 20
2388.514371629209
 30
0.0
 11
1464.124987167193
 21
2384.427538181544
 31
0.0
  0
LINE
  5
421
330
1F
100
AcDbEntity
  8
図
  6
CONTINUOUS
 62
     2
100
AcDbLine
 10
1581.156584899591
 20
1748.514371629209
 30
0.0
 11
1581.156584899591
 21
2388.514371629209
 31
0.0
  0
LINE
  5
422
330
1F
100
AcDbEntity
  8
図
  6
CONTINUOUS
 62
     6
100
AcDbLine
 10
574.3328712623534
 20
1108.542616504683
 30
0.0
 11
577.8277565310937
 21
1095.503452102101
 31
0.0
  0
LINE
  5
423
330
1F
100
AcDbEntity
  8
図
  6
CONTINUOUS
 62
     6
100
AcDbLine
 10
579.0079003131013
 20
1114.276110271683
 30
0.0
 11
584.4873036752806
 21
1093.826698528879
 31
0.0
  0
LINE
  5
424
330
1F
100
AcDbEntity
  8
図
  6
CONTINUOUS
 62
     6
100
AcDbLine
 10
580.0476081045126
 20
1094.935523092423
 30
0.0
 11
575.1248791204016
 21
1113.312929428983
 31
0.0
  0
LINE
  5
425
330
1F
100
AcDbEntity
  8
図
  6
CONTINUOUS
 62
     6
100
AcDbLine
 10
575.1441970079013
 20
1113.240834091284
 30
0.0
 11
579.0079003131013
 21
1114.276110271683
 31
0.0
  0
ARC
  5
426
330
1F
100
AcDbEntity
  8
図
  6
CONTINUOUS
 62
     6
100
AcDbCircle
 10
574.1589564217015
 20
1113.054098711683
 30
0.0
 40
1.0000000002
100
AcDbArc
 50
14.99995489900994
 51
96.57966131090035
  0
LINE
  5
427
330
1F
100
AcDbEntity
  8
図
  6
EXLTYPE3
 62
     6
100
AcDbLine
 10
1022.9
 20
2351.5197031074
 30
0.0
 11
997.6
 21
2351.5197031074
 31
0.0
  0
LINE
  5
428
330
1F
100
AcDbEntity
  8
図
  6
EXLTYPE3
 62
     6
100
AcDbLine
 10
1010.65356807567
 20
2364.7
 30
0.0
 11
1010.65356807567
 21
2338.3
 31
0.0
  0
LINE
  5
429
330
1F
100
AcDbEntity
  8
図
  6
EXLTYPE3
 62
     6
100
AcDbLine
 10
530.6508407238325
 20
1958.0
 30
0.0
 11
530.6508407238325
 21
2177.0
 31
0.0
  0
LINE
  5
42A
330
1F
100
AcDbEntity
  8
図
  6
EXLTYPE3
 62
     6
100
AcDbLine
 10
530.6508407238325
 20
1009.0
 30
0.0
 11
530.6508407238325
 21
1076.0
 31
0.0
  0
LINE
  5
42B
330
1F
100
AcDbEntity
  8
図
  6
EXLTYPE3
 62
     6
100
AcDbLine
 10
432.4041019836196
 20
2351.5197031074
 30
0.0
 11
457.7041019836196
 21
2351.5197031074
 31
0.0
  0
LINE
  5
42C
330
1F
100
AcDbEntity
  8
図
  6
EXLTYPE3
 62
     6
100
AcDbLine
 10
444.6505339079495
 20
2364.7
 30
0.0
 11
444.6505339079495
 21
2338.3
 31
0.0
  0
LINE
  5
42D
330
1F
100
AcDbEntity
  8
図
  6
EXLTYPE3
 62
     6
100
AcDbLine
 10
1022.9
 20
1785.515919086042
 30
0.0
 11
997.5999999999999
 21
1785.515919086042
 31
0.0
  0
LINE
  5
42E
330
1F
100
AcDbEntity
  8
図
  6
EXLTYPE3
 62
     6
100
AcDbLine
 10
1010.65356807567
 20
1772.335622193442
 30
0.0
 11
1010.65356807567
 21
1798.735622193442
 31
0.0
  0
LINE
  5
42F
330
1F
100
AcDbEntity
  8
図
  6
EXLTYPE3
 62
     6
100
AcDbLine
 10
432.4041019836196
 20
1785.515919086042
 30
0.0
 11
457.7041019836196
 21
1785.515919086042
 31
0.0
  0
LINE
  5
430
330
1F
100
AcDbEntity
  8
図
  6
EXLTYPE3
 62
     6
100
AcDbLine
 10
444.6505339079495
 20
1772.335622193442
 30
0.0
 11
444.6505339079495
 21
1798.735622193442
 31
0.0
  0
LINE
  5
431
330
1F
100
AcDbEntity
  8
図
  6
EXLTYPE3
 62
     6
100
AcDbLine
 10
1456.0
 20
2068.517811096721
 30
0.0
 11
1709.0
 21
2068.517811096721
 31
0.0
  0
LINE
  5
432
330
1F
100
AcDbEntity
  8
図
  6
EXLTYPE3
 62
     6
100
AcDbLine
 10
353.95998367864
 20
2068.517811096721
 30
0.0
 11
1111.0
 21
2068.517811096721
 31
0.0
  0
LINE
  5
433
330
1F
100
AcDbEntity
  8
図
  6
EXLTYPE3
 62
     6
100
AcDbLine
 10
727.6520509918092
 20
1138.0
 30
0.0
 11
727.6520509918091
 21
1003.777554900264
 31
0.0
  0
LINE
  5
434
330
1F
100
AcDbEntity
  8
図
  6
EXLTYPE3
 62
     6
100
AcDbLine
 10
727.6520509918096
 20
2417.0
 30
0.0
 11
727.6520509918096
 21
1687.0
 31
0.0
  0
LINE
  5
435
330
1F
100
AcDbEntity
  8
図
  6
CONTINUOUS
 62
     6
100
AcDbLine
 10
454.6521080263618
 20
1038.49627796058
 30
0.0
 11
454.5172998175148
 21
1042.356679973771
 31
0.0
  0
LINE
  5
436
330
1F
100
AcDbEntity
  8
図
  6
CONTINUOUS
 62
     6
100
AcDbLine
 10
454.6963263734
 20
1038.49627796058
 30
0.0
 11
458.5148631255916
 21
1038.49627796058
 31
0.0
  0
LINE
  5
437
330
1F
100
AcDbEntity
  8
図
  6
CONTINUOUS
 62
     6
100
AcDbLine
 10
606.6053550742653
 20
1038.49627796058
 30
0.0
 11
602.7868183220737
 21
1038.49627796058
 31
0.0
  0
LINE
  5
438
330
1F
100
AcDbEntity
  8
図
  6
CONTINUOUS
 62
     6
100
AcDbLine
 10
606.6495734213036
 20
1038.49627796058
 30
0.0
 11
606.7843816301504
 21
1042.356679973771
 31
0.0
  0
LINE
  5
439
330
1F
100
AcDbEntity
  8
図
  6
CONTINUOUS
 62
     4
100
AcDbLine
 10
606.6521080263997
 20
2068.517811096721
 30
0.0
 11
1005.918705229009
 21
2078.51781109672
 31
0.0
  0
LINE
  5
43A
330
1F
100
AcDbEntity
  8
図
  6
CONTINUOUS
 62
     4
100
AcDbLine
 10
606.6521080263269
 20
2068.517811096721
 30
0.0
 11
1005.91870522901
 21
2058.51781109672
 31
0.0
  0
LINE
  5
43B
330
1F
100
AcDbEntity
  8
図
  6
CONTINUOUS
 62
     4
100
AcDbLine
 10
606.65210802633
 20
2068.5178110967
 30
0.0
 11
603.65084072383
 21
2068.5178110967
 31
0.0
  0
LINE
  5
43C
330
1F
100
AcDbEntity
  8
図
  6
CONTINUOUS
 62
     4
100
AcDbLine
 10
602.9730621885564
 20
2078.442340425946
 30
0.0
 11
1005.918705229009
 21
2088.51781109672
 31
0.0
  0
LINE
  5
43D
330
1F
100
AcDbEntity
  8
図
  6
CONTINUOUS
 62
     4
100
AcDbLine
 10
602.9730621885617
 20
2058.593281767492
 30
0.0
 11
1005.91870522901
 21
2048.51781109672
 31
0.0
  0
DIMENSION
  5
43E
330
1F
100
AcDbEntity
  8
寸法
  6
CONTINUOUS
 62
     3
100
AcDbDimension
  2
*D20
 10
673.98222351925
 20
1046.4962779606
 30
0.0
 11
650.982223400041
 21
1141.4962779606
 31
0.0
 70
   160
  3
ISO-25
100
AcDbAlignedDimension
 13
727.65205099181
 23
1076.4962779606
 33
0.0
 14
727.65205099181
 24
1046.4962779606
 34
0.0
 50
90.0
100
AcDbRotatedDimension
1001
ACAD
1000
DSTYLE
1002
{
1070
   270
1070
     2
1070
     6
1000
EX_NORM
1070
     7
1000
EX_NORM
1070
    41
1040
30.0
1070
    42
1040
6.99999988079071
1070
    44
1040
10.0
1070
    73
1070
     0
1070
    74
1070
     0
1070
    75
1070
     0
1070
    76
1070
     0
1070
    77
1070
     1
1070
    78
1070
     8
1070
   140
1040
40.0
1070
   147
1040
0.0
1070
   173
1070
     1
1070
   176
1070
     3
1070
   177
1070
     3
1070
   178
1070
     2
1070
   271
1070
     1
1070
   277
1070
     2
1070
   279
1070
     2
1070
   280
1070
     1
1070
   287
1070
     5
1070
   340
1005
146
1002
}
  0
DIMENSION
  5
44D
330
1F
100
AcDbEntity
  8
寸法
  6
CONTINUOUS
 62
     3
100
AcDbDimension
  2
*D21
 10
1154.0
 20
1166.4231772029
 30
0.0
 11
1130.999999880791
 21
1106.45972758175
 31
0.0
 70
   160
  1
120
  3
ISO-25
100
AcDbAlignedDimension
 13
1047.65210802636
 23
1046.4962779606
 33
0.0
 14
1040.56710209764
 24
1166.4231772029
 34
0.0
 50
90.0
100
AcDbRotatedDimension
1001
ACAD
1000
DSTYLE
1002
{
1070
   270
1070
     2
1070
     6
1000
EX_NORM
1070
     7
1000
EX_NORM
1070
    41
1040
30.0
1070
    42
1040
6.99999988079071
1070
    44
1040
10.0
1070
    73
1070
     0
1070
    74
1070
     0
1070
    75
1070
     0
1070
    76
1070
     0
1070
    77
1070
     1
1070
    78
1070
     8
1070
   140
1040
40.0
1070
   147
1040
0.0
1070
   173
1070
     1
1070
   176
1070
     3
1070
   177
1070
     3
1070
   178
1070
     2
1070
   271
1070
     1
1070
   277
1070
     2
1070
   279
1070
     2
1070
   280
1070
     0
1070
   287
1070
     5
1070
   340
1005
146
1002
}
  0
DIMENSION
  5
45A
330
1F
100
AcDbEntity
  8
寸法
  6
CONTINUOUS
 62
     3
100
AcDbDimension
  2
*D22
 10
929.5
 20
2383.3578110967
 30
0.0
 11
906.4999998807914
 21
2448.3578110967
 31
0.0
 70
   160
  3
ISO-25
100
AcDbAlignedDimension
 13
919.9953177395702
 23
2373.3578110967
 33
0.0
 14
923.2
 24
2383.3578110967
 34
0.0
 50
90.0
100
AcDbRotatedDimension
1001
ACAD
1000
DSTYLE
1002
{
1070
   270
1070
     2
1070
     6
1000
EX_NORM
1070
     7
1000
EX_NORM
1070
    41
1040
30.0
1070
    42
1040
6.99999988079071
1070
    44
1040
10.0
1070
    73
1070
     0
1070
    74
1070
     0
1070
    75
1070
     0
1070
    76
1070
     0
1070
    77
1070
     1
1070
    78
1070
     8
1070
   140
1040
40.0
1070
   147
1040
0.0
1070
   173
1070
     1
1070
   176
1070
     3
1070
   177
1070
     3
1070
   178
1070
     2
1070
   271
1070
     1
1070
   277
1070
     2
1070
   279
1070
     2
1070
   280
1070
     2
1070
   287
1070
     5
1070
   340
1005
146
1002
}
  0
DIMENSION
  5
469
330
1F
100
AcDbEntity
  8
寸法
  6
CONTINUOUS
 62
     3
100
AcDbDimension
  2
*D23
 10
1110.7699622288
 20
2388.5178110967
 30
0.0
 11
1087.769962109591
 21
2286.5197031074
 31
0.0
 70
   160
  3
ISO-25
100
AcDbAlignedDimension
 13
1022.9
 23
2351.5197031074
 33
0.0
 14
1032.65210802636
 24
2388.5178110967
 34
0.0
 50
90.0
100
AcDbRotatedDimension
1001
ACAD
1000
DSTYLE
1002
{
1070
   270
1070
     2
1070
     6
1000
EX_NORM
1070
     7
1000
EX_NORM
1070
    41
1040
30.0
1070
    42
1040
6.999999880790824
1070
    44
1040
10.0
1070
    73
1070
     0
1070
    74
1070
     0
1070
    75
1070
     0
1070
    76
1070
     0
1070
    77
1070
     1
1070
    78
1070
     8
1070
   140
1040
40.0
1070
   147
1040
0.0
1070
   173
1070
     1
1070
   176
1070
     3
1070
   177
1070
     3
1070
   178
1070
     2
1070
   271
1070
     1
1070
   277
1070
     2
1070
   279
1070
     2
1070
   280
1070
     1
1070
   287
1070
     5
1070
   340
1005
146
1002
}
  0
DIMENSION
  5
478
330
1F
100
AcDbEntity
  8
寸法
  6
CONTINUOUS
 62
     3
100
AcDbDimension
  2
*D24
 10
407.6521080263601
 20
2165.0
 30
0.0
 11
610.6508407238307
 21
2188.000000119209
 31
0.0
 70
   160
  3
ISO-25
100
AcDbAlignedDimension
 13
530.65084072383
 23
2068.5178110967
 33
0.0
 14
407.6521080263601
 24
2068.5178110967
 34
0.0
100
AcDbRotatedDimension
1001
ACAD
1000
DSTYLE
1002
{
1070
   270
1070
     2
1070
     6
1000
EX_NORM
1070
     7
1000
EX_NORM
1070
    41
1040
30.0
1070
    42
1040
0.0
1070
    44
1040
0.0
1070
    73
1070
     0
1070
    74
1070
     0
1070
    75
1070
     1
1070
    76
1070
     1
1070
    77
1070
     1
1070
    78
1070
     8
1070
   140
1040
40.0
1070
   147
1040
0.0
1070
   173
1070
     1
1070
   176
1070
     3
1070
   177
1070
     3
1070
   178
1070
     2
1070
   271
1070
     1
1070
   277
1070
     2
1070
   279
1070
     2
1070
   280
1070
     1
1070
   287
1070
     5
1070
   340
1005
146
1002
}
  0
DIMENSION
  5
483
330
1F
100
AcDbEntity
  8
寸法
  6
CONTINUOUS
 62
     3
100
AcDbDimension
  2
*D25
 10
478.689316496766
 20
2098.51781109672
 30
0.0
 11
676.3847783700263
 21
2010.936395487002
 31
0.0
 70
   163
  3
ISO-25
100
AcDbDiametricDimension
 15
582.6123649508991
 25
2038.517811096721
 35
0.0
 40
0.0
1001
ACAD
1000
DSTYLE
1002
{
1070
   270
1070
     2
1070
     6
1000
EX_NORM
1070
     7
1000
EX_NORM
1070
    41
1040
30.0
1070
    73
1070
     0
1070
    74
1070
     0
1070
    77
1070
     1
1070
    78
1070
     8
1070
   140
1040
40.0
1070
   147
1040
0.0
1070
   173
1070
     1
1070
   176
1070
     3
1070
   177
1070
     3
1070
   178
1070
     2
1070
   271
1070
     1
1070
   277
1070
     2
1070
   279
1070
     2
1070
   280
1070
     1
1070
   287
1070
     5
1070
   340
1005
146
1002
}
  0
DIMENSION
  5
48E
330
1F
100
AcDbEntity
  8
寸法
  6
CONTINUOUS
 62
     3
100
AcDbDimension
  2
*D26
 10
494.1508407238324
 20
2131.737665572965
 30
0.0
 11
634.5694251141058
 21
1934.525543320515
 31
0.0
 70
   163
  3
ISO-25
100
AcDbDiametricDimension
 15
567.1508407238275
 25
2005.297956620435
 35
0.0
 40
0.0
1001
ACAD
1000
DSTYLE
1002
{
1070
   270
1070
     2
1070
     6
1000
EX_NORM
1070
     7
1000
EX_NORM
1070
    41
1040
30.0
1070
    73
1070
     0
1070
    74
1070
     0
1070
    77
1070
     1
1070
    78
1070
     8
1070
   140
1040
40.0
1070
   147
1040
0.0
1070
   173
1070
     1
1070
   176
1070
     3
1070
   177
1070
     3
1070
   178
1070
     2
1070
   271
1070
     1
1070
   277
1070
     2
1070
   279
1070
     2
1070
   280
1070
     1
1070
   287
1070
     5
1070
   340
1005
146
1002
}
  0
DIMENSION
  5
499
330
1F
100
AcDbEntity
  8
寸法
  6
CONTINUOUS
 62
     3
100
AcDbDimension
  2
*D27
 10
606.6495734213
 20
922.0
 30
0.0
 11
530.6729498973501
 21
945.0000001192093
 31
0.0
 70
   160
  1
%%c152
  3
ISO-25
100
AcDbAlignedDimension
 13
454.6963263734
 23
1038.4962779606
 33
0.0
 14
606.6495734213
 24
1038.4962779606
 34
0.0
100
AcDbRotatedDimension
1001
ACAD
1000
DSTYLE
1002
{
1070
   270
1070
     2
1070
     6
1000
EX_NORM
1070
     7
1000
EX_NORM
1070
    41
1040
30.0
1070
    42
1040
6.99999988079071
1070
    44
1040
10.0
1070
    73
1070
     0
1070
    74
1070
     0
1070
    75
1070
     0
1070
    76
1070
     0
1070
    77
1070
     1
1070
    78
1070
     8
1070
   140
1040
40.0
1070
   147
1040
0.0
1070
   173
1070
     1
1070
   176
1070
     3
1070
   177
1070
     3
1070
   178
1070
     2
1070
   271
1070
     1
1070
   277
1070
     2
1070
   279
1070
     2
1070
   280
1070
     0
1070
   287
1070
     5
1070
   340
1005
146
1002
}
  0
TEXT
  5
4A6
330
1F
100
AcDbEntity
  8
寸法
  6
CONTINUOUS
 62
     2
100
AcDbText
 10
1058.5620854582
 20
971.4774425641954
 30
0.0
 40
40.0
  1
ねじ部
 41
1.070588235294118
  7
EXCADSTD
 72
     5
 11
1162.5620854582
 21
971.4774425641954
 31
0.0
100
AcDbText
  0
LEADER
  5
4A7
330
1F
100
AcDbEntity
  8
寸法
  6
CONTINUOUS
 62
     3
100
AcDbLeader
  3
ISO-25
 76
     3
 10
1016.8477368381
 20
1040.2288138385
 30
0.0
 10
1058.5620854582
 20
967.9774426238
 30
0.0
 10
1162.0
 20
967.9774426238
 30
0.0
1001
ACAD
1000
DSTYLE
1002
{
1070
     5
1000
EX_NORM
1070
    41
1040
30.0
1070
   341
1005
4F
1002
}
  0
CIRCLE
  5
4A8
330
1F
100
AcDbEntity
  8
寸法
  6
EXLTYPE2
 62
     3
100
AcDbCircle
 10
1010.6535680757
 20
1117.0
 30
0.0
 40
77.0206644433868
  0
LINE
  5
4A9
330
1F
100
AcDbEntity
  8
寸法
  6
EXLTYPE3
 62
     6
100
AcDbLine
 10
1010.6535680757
 20
1186.0
 30
0.0
 11
1010.6535680757
 21
1016.0
 31
0.0
  0
DIMENSION
  5
4AA
330
1F
100
AcDbEntity
  8
詳細図
  6
CONTINUOUS
 62
     3
100
AcDbDimension
  2
*D28
 10
460.4720545934004
 20
183.0
 30
0.0
 11
479.9720545934004
 21
189.9000000357628
 31
0.0
 70
   160
  3
ISO-25
100
AcDbAlignedDimension
 13
450.4720545934005
 23
206.9258786226603
 33
0.0
 14
460.4720545934004
 24
206.9258786226603
 34
0.0
100
AcDbRotatedDimension
1001
ACAD
1000
DSTYLE
1002
{
1070
   270
1070
     2
1070
     6
1000
EX_NORM
1070
     7
1000
EX_NORM
1070
    41
1040
9.0
1070
    42
1040
2.099999964237213
1070
    44
1040
3.0
1070
    73
1070
     0
1070
    74
1070
     0
1070
    75
1070
     0
1070
    76
1070
     0
1070
    77
1070
     1
1070
    78
1070
     8
1070
   140
1040
12.0
1070
   147
1040
0.0
1070
   173
1070
     1
1070
   176
1070
     3
1070
   177
1070
     3
1070
   178
1070
     2
1070
   271
1070
     1
1070
   277
1070
     2
1070
   279
1070
     2
1070
   280
1070
     2
1070
   287
1070
     5
1070
   340
1005
146
1002
}
  0
DIMENSION
  5
4B9
330
1F
100
AcDbEntity
  8
詳細図
  6
CONTINUOUS
 62
     3
100
AcDbDimension
  2
*D29
 10
458.1720545934003
 20
290.1
 30
0.0
 11
516.3720545934003
 21
297.0000000357628
 31
0.0
 70
   160
  1
%%c5.4
  3
ISO-25
100
AcDbAlignedDimension
 13
452.7720545933997
 23
278.9258786226602
 33
0.0
 14
458.1720545934003
 24
278.9258786226602
 34
0.0
100
AcDbRotatedDimension
1001
ACAD
1000
DSTYLE
1002
{
1070
   270
1070
     2
1070
     6
1000
EX_NORM
1070
     7
1000
EX_NORM
1070
    41
1040
9.0
1070
    42
1040
2.099999964237213
1070
    44
1040
3.0
1070
    73
1070
     0
1070
    74
1070
     0
1070
    75
1070
     0
1070
    76
1070
     0
1070
    77
1070
     1
1070
    78
1070
     8
1070
   140
1040
12.0
1070
   147
1040
0.0
1070
   173
1070
     1
1070
   176
1070
     3
1070
   177
1070
     3
1070
   178
1070
     2
1070
   271
1070
     1
1070
   277
1070
     2
1070
   279
1070
     2
1070
   280
1070
     0
1070
   287
1070
     5
1070
   340
1005
146
1002
}
  0
DIMENSION
  5
4C8
330
1F
100
AcDbEntity
  8
詳細図
  6
CONTINUOUS
 62
     3
100
AcDbDimension
  2
*D30
 10
460.4720545934004
 20
306.9
 30
0.0
 11
517.7720545934005
 21
313.8000000357628
 31
0.0
 70
   160
  1
%%c10
  3
ISO-25
100
AcDbAlignedDimension
 13
450.4720545934005
 23
278.9258786226602
 33
0.0
 14
460.4720545934004
 24
278.9258786226602
 34
0.0
100
AcDbRotatedDimension
1001
ACAD
1000
DSTYLE
1002
{
1070
   270
1070
     2
1070
     6
1000
EX_NORM
1070
     7
1000
EX_NORM
1070
    41
1040
9.0
1070
    42
1040
2.099999964237213
1070
    44
1040
3.0
1070
    73
1070
     0
1070
    74
1070
     0
1070
    75
1070
     0
1070
    76
1070
     0
1070
    77
1070
     1
1070
    78
1070
     8
1070
   140
1040
12.0
1070
   147
1040
0.0
1070
   173
1070
     1
1070
   176
1070
     3
1070
   177
1070
     3
1070
   178
1070
     2
1070
   271
1070
     1
1070
   277
1070
     2
1070
   279
1070
     2
1070
   280
1070
     0
1070
   287
1070
     5
1070
   340
1005
146
1002
}
  0
DIMENSION
  5
4D7
330
1F
100
AcDbEntity
  8
詳細図
  6
CONTINUOUS
 62
     3
100
AcDbDimension
  2
*D31
 10
461.4720545934007
 20
342.9
 30
0.0
 11
485.4720545934007
 21
349.8000000357628
 31
0.0
 70
   160
  1
%%c12
  3
ISO-25
100
AcDbAlignedDimension
 13
449.4720545934005
 23
318.9258786226602
 33
0.0
 14
461.4720545934007
 24
318.9258786226602
 34
0.0
100
AcDbRotatedDimension
1001
ACAD
1000
DSTYLE
1002
{
1070
   270
1070
     2
1070
     6
1000
EX_NORM
1070
     7
1000
EX_NORM
1070
    41
1040
9.0
1070
    42
1040
2.099999964237213
1070
    44
1040
3.0
1070
    73
1070
     0
1070
    74
1070
     0
1070
    75
1070
     0
1070
    76
1070
     0
1070
    77
1070
     1
1070
    78
1070
     8
1070
   140
1040
12.0
1070
   147
1040
0.0
1070
   173
1070
     1
1070
   176
1070
     3
1070
   177
1070
     3
1070
   178
1070
     2
1070
   271
1070
     1
1070
   277
1070
     2
1070
   279
1070
     2
1070
   280
1070
     2
1070
   287
1070
     5
1070
   340
1005
146
1002
}
  0
DIMENSION
  5
4E6
330
1F
100
AcDbEntity
  8
詳細図
  6
CONTINUOUS
 62
     3
100
AcDbDimension
  2
*D32
 10
462.9469368859999
 20
359.1
 30
0.0
 11
486.9469368859999
 21
366.0000000357628
 31
0.0
 70
   160
  1
%%c15
  3
ISO-25
100
AcDbAlignedDimension
 13
447.9688287869001
 23
318.9258786226602
 33
0.0
 14
462.9469368859999
 24
318.9258786226602
 34
0.0
100
AcDbRotatedDimension
1001
ACAD
1000
DSTYLE
1002
{
1070
   270
1070
     2
1070
     6
1000
EX_NORM
1070
     7
1000
EX_NORM
1070
    41
1040
9.0
1070
    42
1040
2.099999964237213
1070
    44
1040
3.0
1070
    73
1070
     0
1070
    74
1070
     0
1070
    75
1070
     0
1070
    76
1070
     0
1070
    77
1070
     1
1070
    78
1070
     8
1070
   140
1040
12.0
1070
   147
1040
0.0
1070
   173
1070
     1
1070
   176
1070
     3
1070
   177
1070
     3
1070
   178
1070
     2
1070
   271
1070
     1
1070
   277
1070
     2
1070
   279
1070
     2
1070
   280
1070
     2
1070
   287
1070
     5
1070
   340
1005
146
1002
}
  0
TEXT
  5
4F5
330
1F
100
AcDbEntity
  8
詳細図
  6
CONTINUOUS
 62
     2
100
AcDbText
 10
398.7574278705675
 20
150.5245574867199
 30
0.0
 40
12.0
  1
ねじ部詳細図（Ｓ＝１：３）
 41
1.111363649368286
  7
EXCADSTD
 72
     5
 11
545.4574295871813
 21
150.5245574867199
 31
0.0
100
AcDbText
  0
LINE
  5
4F6
330
1F
100
AcDbEntity
  8
詳細図
  6
CONTINUOUS
 62
     2
100
AcDbLine
 10
450.4720545933732
 20
206.9258786226452
 30
0.0
 11
460.4720545933732
 21
206.9258786226452
 31
0.0
  0
LINE
  5
4F7
330
1F
100
AcDbEntity
  8
詳細図
  6
CONTINUOUS
 62
     2
100
AcDbLine
 10
462.4744169782224
 20
318.9258786226438
 30
0.0
 11
448.4413486947495
 21
318.9258786226461
 31
0.0
  0
LINE
  5
4F8
330
1F
100
AcDbEntity
  8
詳細図
  6
CONTINUOUS
 62
     2
100
AcDbLine
 10
459.7220545933732
 20
278.9258786226452
 30
0.0
 11
451.2220545933732
 21
278.9258786226452
 31
0.0
  0
LINE
  5
4F9
330
1F
100
AcDbEntity
  8
詳細図
  6
CONTINUOUS
 62
     2
100
AcDbLine
 10
493.4016623252654
 20
206.9258786226452
 30
0.0
 11
496.6036128670211
 21
206.9258786226452
 31
0.0
  0
LINE
  5
4FA
330
1F
100
AcDbEntity
  8
詳細図
  6
CONTINUOUS
 62
     2
100
AcDbLine
 10
478.4663405329337
 20
321.9258786226452
 30
0.0
 11
481.5178828364859
 21
321.9258786226452
 31
0.0
  0
LINE
  5
4FB
330
1F
100
AcDbEntity
  8
詳細図
  6
CONTINUOUS
 62
     2
100
AcDbLine
 10
462.9469368860499
 20
318.9258786226461
 30
0.0
 11
477.4873362120251
 21
321.8290970085251
 31
0.0
  0
LINE
  5
4FC
330
1F
100
AcDbEntity
  8
詳細図
  6
CONTINUOUS
 62
     2
100
AcDbLine
 10
461.4720545933732
 20
318.9258786226461
 30
0.0
 11
462.9469368860499
 21
318.9258786226461
 31
0.0
  0
LINE
  5
4FD
330
1F
100
AcDbEntity
  8
詳細図
  6
CONTINUOUS
 62
     2
100
AcDbLine
 10
460.4720545933732
 20
278.9258786226452
 30
0.0
 11
461.4720545933732
 21
318.9258786226461
 31
0.0
  0
LINE
  5
4FE
330
1F
100
AcDbEntity
  8
詳細図
  6
CONTINUOUS
 62
     2
100
AcDbLine
 10
458.1720545933739
 20
278.9258786226452
 30
0.0
 11
460.4720545933732
 21
278.9258786226452
 31
0.0
  0
ARC
  5
4FF
330
1F
100
AcDbEntity
  8
詳細図
  6
CONTINUOUS
 62
     2
100
AcDbCircle
 10
478.267563489372
 20
322.9258786226461
 30
0.0
 40
1.0
100
AcDbArc
 50
270.0
 51
0.0
  0
LINE
  5
500
330
1F
100
AcDbEntity
  8
詳細図
  6
CONTINUOUS
 62
     2
100
AcDbLine
 10
479.2675634893729
 20
323.9258786226452
 30
0.0
 11
479.2675634893729
 21
322.9258786226461
 31
0.0
  0
ARC
  5
501
330
1F
100
AcDbEntity
  8
詳細図
  6
CONTINUOUS
 62
     2
100
AcDbCircle
 10
482.2675634893729
 20
323.9258786226452
 30
0.0
 40
3.0
100
AcDbArc
 50
90.00000000000001
 51
180.0
  0
ARC
  5
502
330
1F
100
AcDbEntity
  8
詳細図
  6
CONTINUOUS
 62
     2
100
AcDbCircle
 10
469.9881950269227
 20
235.3696828904191
 30
0.0
 40
6.556998774005966
100
AcDbArc
 50
5.929841698782302
 51
173.6004237907581
  0
LINE
  5
503
330
1F
100
AcDbEntity
  8
詳細図
  6
CONTINUOUS
 62
     2
100
AcDbLine
 10
479.5902775363328
 20
218.5785822673098
 30
0.0
 11
476.5101082457439
 21
236.0470903663719
 31
0.0
  0
ARC
  5
504
330
1F
100
AcDbEntity
  8
詳細図
  6
CONTINUOUS
 62
     2
100
AcDbCircle
 10
481.5598930423574
 20
218.9258786226438
 30
0.0
 40
2.0
100
AcDbArc
 50
190.000000000005
 51
270.0
  0
LINE
  5
505
330
1F
100
AcDbEntity
  8
詳細図
  6
CONTINUOUS
 62
     2
100
AcDbLine
 10
481.8816937800028
 20
216.9258786226438
 30
0.0
 11
481.5598930423574
 21
216.9258786226438
 31
0.0
  0
LINE
  5
506
330
1F
100
AcDbEntity
  8
詳細図
  6
CONTINUOUS
 62
     2
100
AcDbLine
 10
478.3477119074377
 20
318.1258786226441
 30
0.0
 11
481.8816937800028
 21
216.9258786226438
 31
0.0
  0
LINE
  5
507
330
1F
100
AcDbEntity
  8
詳細図
  6
CONTINUOUS
 62
     2
100
AcDbLine
 10
430.5303512057343
 20
206.9258786226452
 30
0.0
 11
496.6036128670211
 21
206.9258786226452
 31
0.0
  0
LINE
  5
508
330
1F
100
AcDbEntity
  8
詳細図
  6
CONTINUOUS
 62
     2
100
AcDbLine
 10
463.4720545933732
 20
206.9258786226452
 30
0.0
 11
463.4720545933732
 21
314.335648001988
 31
0.0
  0
LINE
  5
509
330
1F
100
AcDbEntity
  8
詳細図
  6
CONTINUOUS
 62
     2
100
AcDbLine
 10
485.5178828364859
 20
326.9258786226452
 30
0.0
 11
430.5303512057343
 21
326.9258786226452
 31
0.0
  0
ARC
  5
50A
330
1F
100
AcDbEntity
  8
詳細図
  6
CONTINUOUS
 62
     2
100
AcDbCircle
 10
489.5178828364859
 20
323.9258786226452
 30
0.0
 40
3.0
100
AcDbArc
 50
0.0
 51
90.00000000000001
  0
ARC
  5
50B
330
1F
100
AcDbEntity
  8
詳細図
  6
CONTINUOUS
 62
     2
100
AcDbCircle
 10
488.3572276738222
 20
322.7258786226449
 30
0.0
 40
1.0
100
AcDbArc
 50
2.000000000003747
 51
90.00000000000001
  0
LINE
  5
50C
330
1F
100
AcDbEntity
  8
詳細図
  6
CONTINUOUS
 62
     2
100
AcDbLine
 10
489.3566185008411
 20
322.760778119347
 30
0.0
 11
493.4016623252654
 21
206.9258786226452
 31
0.0
  0
LINE
  5
50D
330
1F
100
AcDbEntity
  8
詳細図
  6
CONTINUOUS
 62
     2
100
AcDbLine
 10
492.5178828364859
 20
323.9258786226452
 30
0.0
 11
496.6036128670211
 21
206.9258786226438
 31
0.0
  0
ARC
  5
50E
330
1F
100
AcDbEntity
  8
詳細図
  6
CONTINUOUS
 62
     2
100
AcDbCircle
 10
486.7026645189625
 20
322.7258786226449
 30
0.0
 40
1.0
100
AcDbArc
 50
90.00000000000001
 51
173.7135157274766
  0
ARC
  5
50F
330
1F
100
AcDbEntity
  8
詳細図
  6
CONTINUOUS
 62
     2
100
AcDbCircle
 10
481.3984859173323
 20
319.1258786226459
 30
0.0
 40
1.0
100
AcDbArc
 50
270.0
 51
284.3480535483259
  0
ARC
  5
510
330
1F
100
AcDbEntity
  8
詳細図
  6
CONTINUOUS
 62
     2
100
AcDbCircle
 10
480.2971437824079
 20
323.4315252949619
 30
0.0
 40
5.444271342394336
100
AcDbArc
 50
284.3480535483006
 51
353.7135157274507
  0
ARC
  5
511
330
1F
100
AcDbEntity
  8
詳細図
  6
CONTINUOUS
 62
     2
100
AcDbCircle
 10
481.5178828364859
 20
322.9258786226461
 30
0.0
 40
1.0
100
AcDbArc
 50
270.0
 51
0.0
  0
LINE
  5
512
330
1F
100
AcDbEntity
  8
詳細図
  6
CONTINUOUS
 62
     2
100
AcDbLine
 10
482.5178828364859
 20
323.9258786226452
 30
0.0
 11
482.5178828364859
 21
322.9258786226461
 31
0.0
  0
LINE
  5
513
330
1F
100
AcDbEntity
  8
詳細図
  6
CONTINUOUS
 62
     2
100
AcDbLine
 10
460.4720545933732
 20
206.9258786226452
 30
0.0
 11
463.4720545933732
 21
206.9258786226452
 31
0.0
  0
ARC
  5
514
330
1F
100
AcDbEntity
  8
詳細図
  6
CONTINUOUS
 62
     2
100
AcDbCircle
 10
446.4720545933732
 20
317.1258786226441
 30
0.0
 40
1.0
100
AcDbArc
 50
0.0
 51
90.00000000000001
  0
LINE
  5
515
330
1F
100
AcDbEntity
  8
詳細図
  6
CONTINUOUS
 62
     2
100
AcDbLine
 10
447.4720545933732
 20
206.9258786226452
 30
0.0
 11
447.4720545933732
 21
317.1258786226441
 31
0.0
  0
LINE
  5
516
330
1F
100
AcDbEntity
  8
詳細図
  6
CONTINUOUS
 62
     2
100
AcDbLine
 10
450.4720545933732
 20
206.9258786226452
 30
0.0
 11
447.4720545933732
 21
206.9258786226452
 31
0.0
  0
ARC
  5
517
330
1F
100
AcDbEntity
  8
詳細図
  6
CONTINUOUS
 62
     2
100
AcDbCircle
 10
464.4720545933732
 20
314.335648001988
 30
0.0
 40
1.0
100
AcDbArc
 50
101.2915116390777
 51
180.0
  0
LINE
  5
518
330
1F
100
AcDbEntity
  8
詳細図
  6
CONTINUOUS
 62
     2
100
AcDbLine
 10
464.2762537291909
 20
315.316291679164
 30
0.0
 11
478.3477119074377
 21
318.1258786226441
 31
0.0
  0
LINE
  5
519
330
1F
100
AcDbEntity
  8
詳細図
  6
CONTINUOUS
 62
     2
100
AcDbLine
 10
462.9469368860499
 20
318.9258786226461
 30
0.0
 11
477.4873362120251
 21
321.8290970085251
 31
0.0
  0
LINE
  5
51A
330
1F
100
AcDbEntity
  8
詳細図
  6
CONTINUOUS
 62
     2
100
AcDbLine
 10
457.9021364265062
 20
212.9258786226438
 30
0.0
 11
450.4720545933732
 21
212.9258786226438
 31
0.0
  0
LINE
  5
51B
330
1F
100
AcDbEntity
  8
詳細図
  6
CONTINUOUS
 62
     2
100
AcDbLine
 10
460.4720545933732
 20
212.9258786226438
 30
0.0
 11
457.9021364265062
 21
212.9258786226438
 31
0.0
  0
LINE
  5
51C
330
1F
100
AcDbEntity
  8
詳細図
  6
CONTINUOUS
 62
     2
100
AcDbLine
 10
450.4720545933732
 20
206.9258786226452
 30
0.0
 11
450.4720545933732
 21
212.9258786226438
 31
0.0
  0
LINE
  5
51D
330
1F
100
AcDbEntity
  8
詳細図
  6
CONTINUOUS
 62
     2
100
AcDbLine
 10
460.4720545933732
 20
212.9258786226438
 30
0.0
 11
460.4720545933732
 21
206.9258786226452
 31
0.0
  0
LINE
  5
51E
330
1F
100
AcDbEntity
  8
詳細図
  6
CONTINUOUS
 62
     2
100
AcDbLine
 10
452.7720545933734
 20
278.9258786226452
 30
0.0
 11
450.4720545933732
 21
212.9258786226438
 31
0.0
  0
LINE
  5
51F
330
1F
100
AcDbEntity
  8
詳細図
  6
CONTINUOUS
 62
     2
100
AcDbLine
 10
460.4720545933732
 20
278.9258786226452
 30
0.0
 11
450.4720545933732
 21
278.9258786226452
 31
0.0
  0
LINE
  5
520
330
1F
100
AcDbEntity
  8
詳細図
  6
CONTINUOUS
 62
     2
100
AcDbLine
 10
458.1720545933739
 20
278.9258786226452
 30
0.0
 11
460.4720545933732
 21
212.9258786226438
 31
0.0
  0
ARC
  5
521
330
1F
100
AcDbEntity
  8
詳細図
  6
CONTINUOUS
 62
     2
100
AcDbCircle
 10
478.4663405329337
 20
316.9258786226452
 30
0.0
 40
5.0
100
AcDbArc
 50
90.00000000000001
 51
101.2915116390777
  0
LINE
  5
522
330
1F
100
AcDbEntity
  8
詳細図
  6
CONTINUOUS
 62
     2
100
AcDbLine
 10
478.3477119074395
 20
318.1258786226441
 30
0.0
 11
481.3984859173323
 21
318.1258786226441
 31
0.0
  0
ARC
  5
523
330
1F
100
AcDbEntity
  8
詳細図
  6
CONTINUOUS
 62
     2
100
AcDbCircle
 10
485.5178828364859
 20
323.9258786226452
 30
0.0
 40
3.0
100
AcDbArc
 50
90.00000000000001
 51
180.0
  0
LINE
  5
524
330
1F
100
AcDbEntity
  8
詳細図
  6
CONTINUOUS
 62
     2
100
AcDbLine
 10
486.7026645189625
 20
323.7258786226449
 30
0.0
 11
488.3572276738222
 21
323.7258786226449
 31
0.0
  0
LINE
  5
525
330
1F
100
AcDbEntity
  8
詳細図
  6
CONTINUOUS
 62
     2
100
AcDbLine
 10
485.5178828364859
 20
326.9258786226452
 30
0.0
 11
489.5178828364859
 21
326.9258786226452
 31
0.0
  0
LINE
  5
526
330
1F
100
AcDbEntity
  8
詳細図
  6
CONTINUOUS
 62
     2
100
AcDbLine
 10
463.0720545933735
 20
321.9258786226452
 30
0.0
 11
481.5178828364859
 21
321.9258786226452
 31
0.0
  0
LINE
  5
527
330
1F
100
AcDbEntity
  8
詳細図
  6
CONTINUOUS
 62
     2
100
AcDbLine
 10
446.4720545933732
 20
318.1258786226441
 30
0.0
 11
430.5303512057343
 21
318.1258786226441
 31
0.0
  0
LINE
  5
528
330
1F
100
AcDbEntity
  8
詳細図
  6
CONTINUOUS
 62
     2
100
AcDbLine
 10
447.8720545933728
 20
321.9258786226452
 30
0.0
 11
430.5303512057343
 21
321.9258786226452
 31
0.0
  0
LINE
  5
529
330
1F
100
AcDbEntity
  8
詳細図
  6
CONTINUOUS
 62
     2
100
AcDbLine
 10
460.4720545933732
 20
278.9258786226452
 30
0.0
 11
461.4720545933732
 21
318.9258786226461
 31
0.0
  0
LINE
  5
52A
330
1F
100
AcDbEntity
  8
詳細図
  6
CONTINUOUS
 62
     2
100
AcDbLine
 10
450.4720545933732
 20
278.9258786226452
 30
0.0
 11
449.4720545933732
 21
318.9258786226461
 31
0.0
  0
LINE
  5
52B
330
1F
100
AcDbEntity
  8
詳細図
  6
CONTINUOUS
 62
     2
100
AcDbLine
 10
463.0720545933735
 20
321.9258786226452
 30
0.0
 11
462.9469368860499
 21
318.9258786226461
 31
0.0
  0
LINE
  5
52C
330
1F
100
AcDbEntity
  8
詳細図
  6
CONTINUOUS
 62
     2
100
AcDbLine
 10
447.8720545933728
 20
321.9258786226452
 30
0.0
 11
447.968828786922
 21
318.9258786226461
 31
0.0
  0
LINE
  5
52D
330
1F
100
AcDbEntity
  8
詳細図
  6
CONTINUOUS
 62
     2
100
AcDbLine
 10
447.968828786922
 20
318.9258786226461
 30
0.0
 11
462.9469368860499
 21
318.9258786226461
 31
0.0
  0
LINE
  5
52E
330
1F
100
AcDbEntity
  8
詳細図
  6
CONTINUOUS
 62
     2
100
AcDbLine
 10
447.8720545933728
 20
321.9258786226452
 30
0.0
 11
463.0720545933735
 21
321.9258786226452
 31
0.0
  0
LINE
  5
52F
330
1F
100
AcDbEntity
  8
詳細図
  6
CONTINUOUS
 62
     2
100
AcDbLine
 10
462.9469368860499
 20
318.9258786226461
 30
0.0
 11
477.4873362120251
 21
321.829097008526
 31
0.0
  0
LINE
  5
530
330
1F
100
AcDbEntity
  8
詳細図
  6
CONTINUOUS
 62
     2
100
AcDbLine
 10
460.4720545933732
 20
212.9258786226438
 30
0.0
 11
450.4720545933732
 21
212.9258786226438
 31
0.0
  0
LINE
  5
531
330
1F
100
AcDbEntity
  8
詳細図
  6
CONTINUOUS
 62
     2
100
AcDbLine
 10
450.4720545933732
 20
206.9258786226452
 30
0.0
 11
450.4720545933732
 21
212.9258786226438
 31
0.0
  0
LINE
  5
532
330
1F
100
AcDbEntity
  8
詳細図
  6
CONTINUOUS
 62
     2
100
AcDbLine
 10
460.4720545933732
 20
212.9258786226438
 30
0.0
 11
460.4720545933732
 21
206.9258786226452
 31
0.0
  0
LINE
  5
533
330
1F
100
AcDbEntity
  8
詳細図
  6
CONTINUOUS
 62
     2
100
AcDbLine
 10
452.7720545933734
 20
278.9258786226452
 30
0.0
 11
450.4720545933732
 21
212.9258786226438
 31
0.0
  0
LINE
  5
534
330
1F
100
AcDbEntity
  8
詳細図
  6
CONTINUOUS
 62
     2
100
AcDbLine
 10
450.4720545933732
 20
206.9258786226452
 30
0.0
 11
460.4720545933732
 21
206.9258786226452
 31
0.0
  0
LINE
  5
535
330
1F
100
AcDbEntity
  8
詳細図
  6
CONTINUOUS
 62
     2
100
AcDbLine
 10
460.4720545933732
 20
278.9258786226452
 30
0.0
 11
450.4720545933732
 21
278.9258786226452
 31
0.0
  0
LINE
  5
536
330
1F
100
AcDbEntity
  8
詳細図
  6
CONTINUOUS
 62
     2
100
AcDbLine
 10
458.1720545933739
 20
278.9258786226452
 30
0.0
 11
460.4720545933732
 21
212.9258786226438
 31
0.0
  0
ARC
  5
537
330
1F
100
AcDbEntity
  8
詳細図
  6
CONTINUOUS
 62
     2
100
AcDbCircle
 10
478.4663405329337
 20
316.9258786226452
 30
0.0
 40
5.0
100
AcDbArc
 50
90.00000000000001
 51
101.2915116390777
  0
LINE
  5
538
330
1F
100
AcDbEntity
  8
詳細図
  6
CONTINUOUS
 62
     2
100
AcDbLine
 10
447.8720545933728
 20
321.9258786226452
 30
0.0
 11
430.5303512057343
 21
321.9258786226452
 31
0.0
  0
LINE
  5
539
330
1F
100
AcDbEntity
  8
詳細図
  6
CONTINUOUS
 62
     2
100
AcDbLine
 10
460.4720545933732
 20
278.9258786226452
 30
0.0
 11
461.4720545933732
 21
318.9258786226461
 31
0.0
  0
LINE
  5
53A
330
1F
100
AcDbEntity
  8
詳細図
  6
CONTINUOUS
 62
     2
100
AcDbLine
 10
450.4720545933732
 20
278.9258786226452
 30
0.0
 11
449.4720545933732
 21
318.9258786226461
 31
0.0
  0
LINE
  5
53B
330
1F
100
AcDbEntity
  8
詳細図
  6
CONTINUOUS
 62
     2
100
AcDbLine
 10
463.0720545933735
 20
321.9258786226452
 30
0.0
 11
462.9469368860499
 21
318.9258786226461
 31
0.0
  0
LINE
  5
53C
330
1F
100
AcDbEntity
  8
詳細図
  6
CONTINUOUS
 62
     2
100
AcDbLine
 10
447.8720545933728
 20
321.9258786226452
 30
0.0
 11
447.968828786922
 21
318.9258786226461
 31
0.0
  0
LINE
  5
53D
330
1F
100
AcDbEntity
  8
詳細図
  6
CONTINUOUS
 62
     2
100
AcDbLine
 10
447.968828786922
 20
318.9258786226461
 30
0.0
 11
462.9469368860499
 21
318.9258786226461
 31
0.0
  0
LINE
  5
53E
330
1F
100
AcDbEntity
  8
詳細図
  6
CONTINUOUS
 62
     2
100
AcDbLine
 10
447.8720545933728
 20
321.9258786226452
 30
0.0
 11
463.0720545933735
 21
321.9258786226452
 31
0.0
  0
LINE
  5
53F
330
1F
100
AcDbEntity
  8
詳細図
  6
CONTINUOUS
 62
     2
100
AcDbLine
 10
459.0613652655201
 20
289.8192842513869
 30
0.0
 11
464.4613652655197
 21
289.8192842513869
 31
0.0
  0
LINE
  5
540
330
1F
100
AcDbEntity
  8
詳細図
  6
CONTINUOUS
 62
     2
100
AcDbLine
 10
452.1239980562704
 20
206.9258786226452
 30
0.0
 11
458.820111130476
 21
206.9258786226452
 31
0.0
  0
LINE
  5
541
330
1F
100
AcDbEntity
  8
詳細図
  6
CONTINUOUS
 62
     6
100
AcDbLine
 10
401.4
 20
146.1
 30
0.0
 11
540.9
 21
146.1
 31
0.0
  0
DIMENSION
  5
542
330
1F
100
AcDbEntity
  8
詳細-寸法
  6
CONTINUOUS
 62
     3
100
AcDbDimension
  2
*D33
 10
410.3999999999999
 20
278.92587862265
 30
0.0
 11
403.4999999642371
 21
298.92587862265
 31
0.0
 70
   160
  3
ISO-25
100
AcDbAlignedDimension
 13
447.96882878692
 23
318.92587862265
 33
0.0
 14
450.4720545933699
 24
278.92587862265
 34
0.0
 50
90.0
100
AcDbRotatedDimension
1001
ACAD
1000
DSTYLE
1002
{
1070
   270
1070
     2
1070
     6
1000
EX_NORM
1070
     7
1000
EX_NORM
1070
    41
1040
9.0
1070
    42
1040
2.099999964237213
1070
    44
1040
3.000000000000171
1070
    73
1070
     0
1070
    74
1070
     0
1070
    75
1070
     0
1070
    76
1070
     0
1070
    77
1070
     1
1070
    78
1070
     8
1070
   140
1040
12.0
1070
   147
1040
0.0
1070
   173
1070
     1
1070
   176
1070
     3
1070
   177
1070
     3
1070
   178
1070
     2
1070
   271
1070
     1
1070
   277
1070
     2
1070
   279
1070
     2
1070
   280
1070
     0
1070
   287
1070
     5
1070
   340
1005
146
1002
}
  0
DIMENSION
  5
54F
330
1F
100
AcDbEntity
  8
詳細-寸法
  6
CONTINUOUS
 62
     3
100
AcDbDimension
  2
*D34
 10
410.3999999999999
 20
206.92587862265
 30
0.0
 11
403.4999999642371
 21
242.9258786226499
 31
0.0
 70
   160
  3
ISO-25
100
AcDbAlignedDimension
 13
450.4720545933699
 23
278.92587862265
 33
0.0
 14
440.0943224531899
 24
206.92587862265
 34
0.0
 50
90.0
100
AcDbRotatedDimension
1001
ACAD
1000
DSTYLE
1002
{
1070
   270
1070
     2
1070
     6
1000
EX_NORM
1070
     7
1000
EX_NORM
1070
    41
1040
9.0
1070
    42
1040
2.099999964237213
1070
    44
1040
3.000000000000114
1070
    73
1070
     0
1070
    74
1070
     0
1070
    75
1070
     0
1070
    76
1070
     0
1070
    77
1070
     1
1070
    78
1070
     8
1070
   140
1040
12.0
1070
   147
1040
0.0
1070
   173
1070
     1
1070
   176
1070
     3
1070
   177
1070
     3
1070
   178
1070
     2
1070
   271
1070
     1
1070
   277
1070
     2
1070
   279
1070
     2
1070
   280
1070
     0
1070
   287
1070
     5
1070
   340
1005
146
1002
}
  0
ENDSEC
  0
SECTION
  2
OBJECTS
  0
DICTIONARY
  5
C
330
0
100
AcDbDictionary
  3
ACAD_GROUP
350
D
  3
ACAD_LAYOUT
350
1A
  3
ACAD_MATERIAL
350
3B
  3
ACAD_MLEADERSTYLE
350
57E
  3
ACAD_MLINESTYLE
350
17
  3
ACAD_PLOTSETTINGS
350
19
  3
ACAD_VISUALSTYLE
350
2A
  3
ACDBHEADERROUNDTRIPXREC
350
55C
  3
ACDBVARIABLEDICTIONARY
350
57C
  0
DICTIONARY
  5
D
102
{ACAD_REACTORS
330
C
102
}
330
C
100
AcDbDictionary
  0
DICTIONARY
  5
1A
102
{ACAD_REACTORS
330
C
102
}
330
C
100
AcDbDictionary
  0
DICTIONARY
  5
3B
102
{ACAD_REACTORS
330
C
102
}
330
C
100
AcDbDictionary
  3
BYBLOCK
350
3D
  3
BYLAYER
350
3C
  3
GLOBAL
350
3E
  0
DICTIONARY
  5
57E
102
{ACAD_REACTORS
330
C
102
}
330
C
100
AcDbDictionary
  0
DICTIONARY
  5
17
102
{ACAD_REACTORS
330
C
102
}
330
C
100
AcDbDictionary
  3
STANDARD
350
18
  0
DICTIONARY
  5
19
102
{ACAD_REACTORS
330
C
102
}
330
C
100
AcDbDictionary
  0
DICTIONARY
  5
2A
102
{ACAD_REACTORS
330
C
102
}
330
C
100
AcDbDictionary
  3
2DWIREFRAME
350
2F
  3
3D_HIDDEN
350
31
  3
3DWIREFRAME
350
30
  3
BASIC
350
32
  3
BRIGHTEN
350
36
  3
COLORCHANGE
350
3A
  3
CONCEPTUAL
350
34
  3
DIM
350
35
  3
FACEPATTERN
350
39
  3
FLAT
350
2B
  3
FLATWITHEDGES
350
2C
  3
GOURAUD
350
2D
  3
GOURAUDWITHEDGES
350
2E
  3
LINEPATTERN
350
38
  3
REALISTIC
350
33
  3
THICKEN
350
37
  0
DICTIONARY
  5
55C
102
{ACAD_REACTORS
330
C
102
}
330
C
100
AcDbDictionary
  3
CEPSNTYPE
350
565
  3
DIMSTYLEDATA
350
57B
  3
FINGERPRINTGUID
350
566
  3
HYPERLINKBASE
350
55F
  3
INSUNITS
350
564
  3
LAYOUTDICT
350
561
  3
LWETCUNION
350
563
  3
PLOTSETDICT
350
562
  3
PSVPSCALE
350
568
  3
PUCSBASE
350
56B
  3
PUCSORGBACK
350
571
  3
PUCSORGBOTTOM
350
56D
  3
PUCSORGFRONT
350
570
  3
PUCSORGLEFT
350
56E
  3
PUCSORGRIGHT
350
56F
  3
PUCSORGTOP
350
56C
  3
PUCSORTHOREF
350
569
  3
PUCSORTHOVIEW
350
56A
  3
STYLESHEET
350
560
  3
TSTACKALIGN
350
55D
  3
TSTACKSIZE
350
55E
  3
UCSBASE
350
574
  3
UCSORGBACK
350
57A
  3
UCSORGBOTTOM
350
576
  3
UCSORGFRONT
350
579
  3
UCSORGLEFT
350
577
  3
UCSORGRIGHT
350
578
  3
UCSORGTOP
350
575
  3
UCSORTHOREF
350
572
  3
UCSORTHOVIEW
350
573
  3
VERSIONGUID
350
567
  0
DICTIONARY
  5
57C
102
{ACAD_REACTORS
330
C
102
}
330
C
100
AcDbDictionary
  3
DIMASSOC
350
581
  3
HIDETEXT
350
582
  3
PSOLHEIGHT
350
580
  3
PSOLWIDTH
350
57F
  0
MATERIAL
  5
3D
102
{ACAD_REACTORS
330
3B
102
}
102
{ACAD_XDICTIONARY
360
585
102
}
330
3B
100
AcDbMaterial
  1
ByBlock
  0
MATERIAL
  5
3C
102
{ACAD_REACTORS
330
3B
102
}
102
{ACAD_XDICTIONARY
360
583
102
}
330
3B
100
AcDbMaterial
  1
ByLayer
  0
MATERIAL
  5
3E
102
{ACAD_REACTORS
330
3B
102
}
102
{ACAD_XDICTIONARY
360
587
102
}
330
3B
100
AcDbMaterial
  1
Global
  0
MLINESTYLE
  5
18
102
{ACAD_REACTORS
330
17
102
}
330
17
100
AcDbMlineStyle
  2
Standard
 70
     0
  3

 62
   256
 51
90.0
 52
90.0
 71
     2
 49
0.5
 62
   256
  6
BYLAYER
 49
-0.5
 62
   256
  6
BYLAYER
  0
ACAD_PROXY_OBJECT
  5
2F
102
{ACAD_REACTORS
330
2A
102
}
330
2A
100
AcDbProxyObject
 90
      499
 91
      501
 93
      436
310
42CC9915DA5C99599C985B595049028333333333333E3BF0000000000000FB0107901411070040501600405405064090741402480A0340
1001
ACAD
1000
AcDbSavedByObjectVersion
1070
     0
  0
ACAD_PROXY_OBJECT
  5
31
102
{ACAD_REACTORS
330
2A
102
}
330
2A
100
AcDbProxyObject
 90
      499
 91
      501
 93
      500
310
424CD108121A5919195B90640502408333333333333E3BF0000000000000FB01079024090700405020000000000001110200405405064090740C02480A0340
1001
ACAD
1000
AcDbSavedByObjectVersion
1070
     0
  0
ACAD_PROXY_OBJECT
  5
30
102
{ACAD_REACTORS
330
2A
102
}
330
2A
100
AcDbProxyObject
 90
      499
 91
      501
 93
      436
310
42CCD915DA5C99599C985B595059028333333333333E3BF0000000000000FB0107901411070040501600405405064090741402480A0340
1001
ACAD
1000
AcDbSavedByObjectVersion
1070
     0
  0
ACAD_PROXY_OBJECT
  5
32
102
{ACAD_REACTORS
330
2A
102
}
330
2A
100
AcDbProxyObject
 90
      499
 91
      501
 93
      388
310
4150985CDA58D07406404333333333333E3BF0000000000000FB0107A41107004050150841D405064090741402480A0350
1001
ACAD
1000
AcDbSavedByObjectVersion
1070
     0
  0
ACAD_PROXY_OBJECT
  5
36
102
{ACAD_REACTORS
330
2A
102
}
330
2A
100
AcDbProxyObject
 90
      499
 91
      501
 93
      428
310
42109C9A59DA1D195B90C409028333333333333E3BF0000000000000FB010790141107004050150841D405064090741402480A029950
1001
ACAD
1000
AcDbSavedByObjectVersion
1070
     0
  0
ACAD_PROXY_OBJECT
  5
3A
102
{ACAD_REACTORS
330
2A
102
}
330
2A
100
AcDbProxyObject
 90
      499
 91
      501
 93
      452
310
42D0DBDB1BDC90DA185B99D95104090240C333333333333E3BF0000000000000FB0108901411070040501508421405064090741402480A0350
1001
ACAD
1000
AcDbSavedByObjectVersion
1070
     0
  0
ACAD_PROXY_OBJECT
  5
34
102
{ACAD_REACTORS
330
2A
102
}
330
2A
100
AcDbProxyObject
 90
      499
 91
      501
 93
      500
310
4290DBDB98D95C1D1D585B10940D028333333333333E3BF0000000000000FB0107902409070040501000000000000111010841D405064090740C02480A0340
1001
ACAD
1000
AcDbSavedByObjectVersion
1070
     0
  0
ACAD_PROXY_OBJECT
  5
35
102
{ACAD_REACTORS
330
2A
102
}
330
2A
100
AcDbProxyObject
 90
      499
 91
      501
 93
      412
310
40D11A5B50B409028333333333333E3BF0000000000000FB010790141107004050150841D405064090741402480A02677FFFFFD0
1001
ACAD
1000
AcDbSavedByObjectVersion
1070
     0
  0
ACAD_PROXY_OBJECT
  5
39
102
{ACAD_REACTORS
330
2A
102
}
330
2A
100
AcDbProxyObject
 90
      499
 91
      501
 93
      444
310
42D19858D95C185D1D195C9B90F409028333333333333E3BF0000000000000FB010790141107004050150841D405064090741402480A0350
1001
ACAD
1000
AcDbSavedByObjectVersion
1070
     0
  0
ACAD_PROXY_OBJECT
  5
2B
102
{ACAD_REACTORS
330
2A
102
}
330
2A
100
AcDbProxyObject
 90
      499
 91
      501
 93
      388
310
41119B185D240901404333333333333E3BF0000000000000F9010740A41107004050150841D405064090741402480A1B50
1001
ACAD
1000
AcDbSavedByObjectVersion
1070
     0
  0
ACAD_PROXY_OBJECT
  5
2C
102
{ACAD_REACTORS
330
2A
102
}
330
2A
100
AcDbProxyObject
 90
      499
 91
      501
 93
      476
310
43519B185D15DA5D1A115919D95CD0140901404333333333333E3BF0000000000000F9010740901411070040501600405405064090741402480A1B50
1001
ACAD
1000
AcDbSavedByObjectVersion
1070
     0
  0
ACAD_PROXY_OBJECT
  5
2D
102
{ACAD_REACTORS
330
2A
102
}
330
2A
100
AcDbProxyObject
 90
      499
 91
      501
 93
      412
310
41D1DBDD5C985D5910240902404333333333333E3BF0000000000000F9010740A411070040501641D405064090741402480A1B50
1001
ACAD
1000
AcDbSavedByObjectVersion
1070
     0
  0
ACAD_PROXY_OBJECT
  5
2E
102
{ACAD_REACTORS
330
2A
102
}
330
2A
100
AcDbProxyObject
 90
      499
 91
      501
 93
      500
310
4411DBDD5C985D5915DA5D1A115919D95CD0340902404333333333333E3BF0000000000000F9010740901411070040501600405405064090741402480A1B50
1001
ACAD
1000
AcDbSavedByObjectVersion
1070
     0
  0
ACAD_PROXY_OBJECT
  5
38
102
{ACAD_REACTORS
330
2A
102
}
330
2A
100
AcDbProxyObject
 90
      499
 91
      501
 93
      444
310
42D31A5B995C185D1D195C9B90E409028333333333333E3BF0000000000000FB010790141107004050750841D405064090741402483A0350
1001
ACAD
1000
AcDbSavedByObjectVersion
1070
     0
  0
ACAD_PROXY_OBJECT
  5
33
102
{ACAD_REACTORS
330
2A
102
}
330
2A
100
AcDbProxyObject
 90
      499
 91
      501
 93
      420
310
425499585B1A5CDD1A58D08409028333333333333E3BF0000000000000FB01079019070040501508421405064090741402480A1B40
1001
ACAD
1000
AcDbSavedByObjectVersion
1070
     0
  0
ACAD_PROXY_OBJECT
  5
37
102
{ACAD_REACTORS
330
2A
102
}
330
2A
100
AcDbProxyObject
 90
      499
 91
      501
 93
      412
310
41D51A1A58DAD95B90D409028333333333333E3BF0000000000000FB010790141107004050150C41D405064090741402480A0350
1001
ACAD
1000
AcDbSavedByObjectVersion
1070
     0
  0
XRECORD
  5
565
102
{ACAD_REACTORS
330
55C
102
}
330
55C
100
AcDbXrecord
 90
        0
  0
XRECORD
  5
57B
102
{ACAD_REACTORS
330
55C
102
}
330
55C
100
AcDbXrecord
1000
DSTYLE
1002
{
1070
   340
340
11
1002
}
  0
XRECORD
  5
566
102
{ACAD_REACTORS
330
55C
102
}
330
55C
100
AcDbXrecord
  1
{455A9FFB-EA17-4C44-9491-B3A6B3CF8A48}
  0
XRECORD
  5
55F
102
{ACAD_REACTORS
330
55C
102
}
330
55C
100
AcDbXrecord
  1

  0
XRECORD
  5
564
102
{ACAD_REACTORS
330
55C
102
}
330
55C
100
AcDbXrecord
 90
        4
  0
XRECORD
  5
561
102
{ACAD_REACTORS
330
55C
102
}
330
55C
100
AcDbXrecord
340
1A
  0
XRECORD
  5
563
102
{ACAD_REACTORS
330
55C
102
}
330
55C
100
AcDbXrecord
 90
    10781
  0
XRECORD
  5
562
102
{ACAD_REACTORS
330
55C
102
}
330
55C
100
AcDbXrecord
340
19
  0
XRECORD
  5
568
102
{ACAD_REACTORS
330
55C
102
}
330
55C
100
AcDbXrecord
 40
0.0
  0
XRECORD
  5
56B
102
{ACAD_REACTORS
330
55C
102
}
330
55C
100
AcDbXrecord
340
0
  0
XRECORD
  5
571
102
{ACAD_REACTORS
330
55C
102
}
330
55C
100
AcDbXrecord
 10
0.0
 20
0.0
 30
0.0
  0
XRECORD
  5
56D
102
{ACAD_REACTORS
330
55C
102
}
330
55C
100
AcDbXrecord
 10
0.0
 20
0.0
 30
0.0
  0
XRECORD
  5
570
102
{ACAD_REACTORS
330
55C
102
}
330
55C
100
AcDbXrecord
 10
0.0
 20
0.0
 30
0.0
  0
XRECORD
  5
56E
102
{ACAD_REACTORS
330
55C
102
}
330
55C
100
AcDbXrecord
 10
0.0
 20
0.0
 30
0.0
  0
XRECORD
  5
56F
102
{ACAD_REACTORS
330
55C
102
}
330
55C
100
AcDbXrecord
 10
0.0
 20
0.0
 30
0.0
  0
XRECORD
  5
56C
102
{ACAD_REACTORS
330
55C
102
}
330
55C
100
AcDbXrecord
 10
0.0
 20
0.0
 30
0.0
  0
XRECORD
  5
569
102
{ACAD_REACTORS
330
55C
102
}
330
55C
100
AcDbXrecord
340
0
  0
XRECORD
  5
56A
102
{ACAD_REACTORS
330
55C
102
}
330
55C
100
AcDbXrecord
 70
     0
  0
XRECORD
  5
560
102
{ACAD_REACTORS
330
55C
102
}
330
55C
100
AcDbXrecord
  1

  0
XRECORD
  5
55D
102
{ACAD_REACTORS
330
55C
102
}
330
55C
100
AcDbXrecord
 90
        1
  0
XRECORD
  5
55E
102
{ACAD_REACTORS
330
55C
102
}
330
55C
100
AcDbXrecord
 90
       70
  0
XRECORD
  5
574
102
{ACAD_REACTORS
330
55C
102
}
330
55C
100
AcDbXrecord
340
0
  0
XRECORD
  5
57A
102
{ACAD_REACTORS
330
55C
102
}
330
55C
100
AcDbXrecord
 10
0.0
 20
0.0
 30
0.0
  0
XRECORD
  5
576
102
{ACAD_REACTORS
330
55C
102
}
330
55C
100
AcDbXrecord
 10
0.0
 20
0.0
 30
0.0
  0
XRECORD
  5
579
102
{ACAD_REACTORS
330
55C
102
}
330
55C
100
AcDbXrecord
 10
0.0
 20
0.0
 30
0.0
  0
XRECORD
  5
577
102
{ACAD_REACTORS
330
55C
102
}
330
55C
100
AcDbXrecord
 10
0.0
 20
0.0
 30
0.0
  0
XRECORD
  5
578
102
{ACAD_REACTORS
330
55C
102
}
330
55C
100
AcDbXrecord
 10
0.0
 20
0.0
 30
0.0
  0
XRECORD
  5
575
102
{ACAD_REACTORS
330
55C
102
}
330
55C
100
AcDbXrecord
 10
0.0
 20
0.0
 30
0.0
  0
XRECORD
  5
572
102
{ACAD_REACTORS
330
55C
102
}
330
55C
100
AcDbXrecord
340
0
  0
XRECORD
  5
573
102
{ACAD_REACTORS
330
55C
102
}
330
55C
100
AcDbXrecord
 70
     0
  0
XRECORD
  5
567
102
{ACAD_REACTORS
330
55C
102
}
330
55C
100
AcDbXrecord
  1
{FAEB1C32-E019-11D5-929B-00C0DF256EC4}
  0
DICTIONARYVAR
  5
581
102
{ACAD_REACTORS
330
57C
102
}
330
57C
100
DictionaryVariables
280
     0
  1
2
  0
DICTIONARYVAR
  5
582
102
{ACAD_REACTORS
330
57C
102
}
330
57C
100
DictionaryVariables
280
     0
  1
1
  0
DICTIONARYVAR
  5
580
102
{ACAD_REACTORS
330
57C
102
}
330
57C
100
DictionaryVariables
280
     0
  1
80.000000
  0
DICTIONARYVAR
  5
57F
102
{ACAD_REACTORS
330
57C
102
}
330
57C
100
DictionaryVariables
280
     0
  1
5.000000
  0
DICTIONARY
  5
585
330
3D
100
AcDbDictionary
280
     1
  3
ACAD_XREC_ROUNDTRIP
360
586
  0
DICTIONARY
  5
583
330
3C
100
AcDbDictionary
280
     1
  3
ACAD_XREC_ROUNDTRIP
360
584
  0
DICTIONARY
  5
587
330
3E
100
AcDbDictionary
280
     1
  3
ACAD_XREC_ROUNDTRIP
360
588
  0
XRECORD
  5
586
102
{ACAD_REACTORS
330
585
102
}
330
585
100
AcDbXrecord
102
MATERIAL
148
0.0
149
0.0
149
0.0
 93
        0
 94
      127
282
     0
 72
     1
 77
     1
171
     1
175
     1
179
     1
273
     0
  0
XRECORD
  5
584
102
{ACAD_REACTORS
330
583
102
}
330
583
100
AcDbXrecord
102
MATERIAL
148
0.0
149
0.0
149
0.0
 93
        0
 94
      127
282
     0
 72
     1
 77
     1
171
     1
175
     1
179
     1
273
     0
  0
XRECORD
  5
588
102
{ACAD_REACTORS
330
587
102
}
330
587
100
AcDbXrecord
102
MATERIAL
148
0.0
149
0.0
149
0.0
 93
        0
 94
      127
282
     0
 72
     1
 77
     1
171
     1
175
     1
179
     1
273
     0
  0
ENDSEC
  0
EOF
