  0
SECTION
  2
HEADER
  9
$ACADVER
  1
AC1014
  9
$ACADMAINTVER
 70
     0
  9
$DWGCODEPAGE
  3
ANSI_932
  9
$INSBASE
 10
0.0
 20
0.0
 30
0.0
  9
$EXTMIN
 10
18.0
 20
13.5
 30
0.0
  9
$EXTMAX
 10
200.0
 20
288.5
 30
0.0
  9
$LIMMIN
 10
0.0
 20
0.0
  9
$LIMMAX
 10
210.0
 20
297.0
  9
$ORTHOMODE
 70
     0
  9
$REGENMODE
 70
     1
  9
$FILLMODE
 70
     1
  9
$QTEXTMODE
 70
     0
  9
$MIRRTEXT
 70
     1
  9
$DRAGMODE
 70
     2
  9
$LTSCALE
 40
1.0
  9
$OSMODE
 70
     0
  9
$ATTMODE
 70
     1
  9
$TEXTSIZE
 40
0.2
  9
$TRACEWID
 40
0.05
  9
$TEXTSTYLE
  7
STANDARD
  9
$CLAYER
  8
寸法
  9
$CELTYPE
  6
CONTINUOUS
  9
$CECOLOR
 62
   256
  9
$CELTSCALE
 40
1.0
  9
$DELOBJ
 70
     1
  9
$DISPSILH
 70
     0
  9
$DIMSCALE
 40
1.0
  9
$DIMASZ
 40
0.18
  9
$DIMEXO
 40
0.0625
  9
$DIMDLI
 40
0.38
  9
$DIMRND
 40
0.0
  9
$DIMDLE
 40
0.0
  9
$DIMEXE
 40
0.18
  9
$DIMTP
 40
0.0
  9
$DIMTM
 40
0.0
  9
$DIMTXT
 40
0.18
  9
$DIMCEN
 40
0.09
  9
$DIMTSZ
 40
0.0
  9
$DIMTOL
 70
     0
  9
$DIMLIM
 70
     0
  9
$DIMTIH
 70
     1
  9
$DIMTOH
 70
     1
  9
$DIMSE1
 70
     0
  9
$DIMSE2
 70
     0
  9
$DIMTAD
 70
     0
  9
$DIMZIN
 70
     0
  9
$DIMBLK
  1

  9
$DIMASO
 70
     1
  9
$DIMSHO
 70
     1
  9
$DIMPOST
  1

  9
$DIMAPOST
  1

  9
$DIMALT
 70
     0
  9
$DIMALTD
 70
     2
  9
$DIMALTF
 40
25.4
  9
$DIMLFAC
 40
1.0
  9
$DIMTOFL
 70
     0
  9
$DIMTVP
 40
0.0
  9
$DIMTIX
 70
     0
  9
$DIMSOXD
 70
     0
  9
$DIMSAH
 70
     0
  9
$DIMBLK1
  1

  9
$DIMBLK2
  1

  9
$DIMSTYLE
  2
STANDARD
  9
$DIMCLRD
 70
     0
  9
$DIMCLRE
 70
     0
  9
$DIMCLRT
 70
     0
  9
$DIMTFAC
 40
1.0
  9
$DIMGAP
 40
0.09
  9
$DIMJUST
 70
     0
  9
$DIMSD1
 70
     0
  9
$DIMSD2
 70
     0
  9
$DIMTOLJ
 70
     1
  9
$DIMTZIN
 70
     0
  9
$DIMALTZ
 70
     0
  9
$DIMALTTZ
 70
     0
  9
$DIMFIT
 70
     3
  9
$DIMUPT
 70
     0
  9
$DIMUNIT
 70
     2
  9
$DIMDEC
 70
     4
  9
$DIMTDEC
 70
     4
  9
$DIMALTU
 70
     2
  9
$DIMALTTD
 70
     2
  9
$DIMTXSTY
  7
STANDARD
  9
$DIMAUNIT
 70
     0
  9
$LUNITS
 70
     2
  9
$LUPREC
 70
     4
  9
$SKETCHINC
 40
0.1
  9
$FILLETRAD
 40
0.0
  9
$AUNITS
 70
     0
  9
$AUPREC
 70
     0
  9
$MENU
  1
acad
  9
$ELEVATION
 40
0.0
  9
$PELEVATION
 40
0.0
  9
$THICKNESS
 40
0.0
  9
$LIMCHECK
 70
     0
  9
$BLIPMODE
 70
     1
  9
$CHAMFERA
 40
0.0
  9
$CHAMFERB
 40
0.0
  9
$CHAMFERC
 40
0.0
  9
$CHAMFERD
 40
0.0
  9
$SKPOLY
 70
     0
  9
$TDCREATE
 40
2456610.308808241
  9
$TDUPDATE
 40
2456610.308808241
  9
$TDINDWG
 40
0.0000000000
  9
$TDUSRTIMER
 40
0.0000000000
  9
$USRTIMER
 70
     1
  9
$ANGBASE
 50
0.0
  9
$ANGDIR
 70
     0
  9
$PDMODE
 70
     0
  9
$PDSIZE
 40
0.0
  9
$PLINEWID
 40
0.0
  9
$COORDS
 70
     1
  9
$SPLFRAME
 70
     0
  9
$SPLINETYPE
 70
     6
  9
$SPLINESEGS
 70
     8
  9
$ATTDIA
 70
     0
  9
$ATTREQ
 70
     1
  9
$HANDLING
 70
     1
  9
$HANDSEED
  5
400
  9
$SURFTAB1
 70
     6
  9
$SURFTAB2
 70
     6
  9
$SURFTYPE
 70
     6
  9
$SURFU
 70
     6
  9
$SURFV
 70
     6
  9
$UCSNAME
  2

  9
$UCSORG
 10
0.0
 20
0.0
 30
0.0
  9
$UCSXDIR
 10
1.0
 20
0.0
 30
0.0
  9
$UCSYDIR
 10
0.0
 20
1.0
 30
0.0
  9
$PUCSNAME
  2

  9
$PUCSORG
 10
0.0
 20
0.0
 30
0.0
  9
$PUCSXDIR
 10
1.0
 20
0.0
 30
0.0
  9
$PUCSYDIR
 10
0.0
 20
1.0
 30
0.0
  9
$USERI1
 70
     0
  9
$USERI2
 70
     0
  9
$USERI3
 70
     0
  9
$USERI4
 70
     0
  9
$USERI5
 70
     0
  9
$USERR1
 40
0.0
  9
$USERR2
 40
0.0
  9
$USERR3
 40
0.0
  9
$USERR4
 40
0.0
  9
$USERR5
 40
0.0
  9
$WORLDVIEW
 70
     1
  9
$SHADEDGE
 70
     3
  9
$SHADEDIF
 70
    70
  9
$TILEMODE
 70
     1
  9
$MAXACTVP
 70
    16
  9
$PINSBASE
 10
0.0
 20
0.0
 30
0.0
  9
$PLIMCHECK
 70
     0
  9
$PEXTMIN
 10
1.000000E+20
 20
1.000000E+20
 30
1.000000E+20
  9
$PEXTMAX
 10
-1.000000E+20
 20
-1.000000E+20
 30
-1.000000E+20
  9
$PLIMMIN
 10
0.0
 20
0.0
  9
$PLIMMAX
 10
12.0
 20
9.0
  9
$UNITMODE
 70
     0
  9
$VISRETAIN
 70
     0
  9
$PLINEGEN
 70
     1
  9
$PSLTSCALE
 70
     0
  9
$TREEDEPTH
 70
  3020
  9
$PICKSTYLE
 70
     1
  9
$CMLSTYLE
  2
Standard
  9
$CMLJUST
 70
     0
  9
$CMLSCALE
 40
1.0
  9
$PROXYGRAPHICS
 70
     0
  9
$MEASUREMENT
 70
     0
  0
ENDSEC
  0
SECTION
  2
CLASSES
  0
CLASS
  1
LWPOLYLINE
  2
AcDbPolyline
  3
"AutoCAD"
 90
        0
280
     0
281
     1
  0
CLASS
  1
IMAGE
  2
AcDbRasterImage
  3
ISM
 90
      127
280
     0
281
     1
  0
CLASS
  1
OLE2FRAME
  2
AcDbOle2Frame
  3
""
 90
        0
280
     0
281
     1
  0
CLASS
  1
HATCH
  2
AcDbHatch
  3
"ACAD_SEDONA"
 90
        0
280
     0
281
     1
  0
CLASS
  1
DICTIONARYVAR
  2
AcDbDictionaryVar
  3
"AutoCAD"
 90
        0
280
     0
281
     0
  0
CLASS
  1
RASTERVARIABLES
  2
AcDbRasterVariables
  3
ISM
 90
        0
280
     0
281
     0
  0
CLASS
  1
IMAGEDEF
  2
AcDbRasterImageDef
  3
ISM
 90
        0
280
     0
281
     0
  0
CLASS
  1
IMAGEDEF_REACTOR
  2
AcDbRasterImageDefReactor
  3
ISM
 90
        1
280
     0
281
     0
  0
CLASS
  1
IDBUFFER
  2
AcDbIdBuffer
  3
"Acad"
 90
        0
280
     0
281
     0
  0
CLASS
  1
SPATIAL_FILTER
  2
AcDbSpatialFilter
  3
"Acad"
 90
        0
280
     0
281
     0
  0
CLASS
  1
XRECORD
  2
AcDbXrecord
  3
"<Built In>"
 90
        0
280
     0
281
     0
  0
CLASS
  1
SORTENTSTABLE
  2
AcDbSortentsTable
  3
"AutoCAD"
 90
        0
280
     0
281
     0
  0
CLASS
  1
LAYER_INDEX
  2
AcDbLayerIndex
  3
"Acad"
 90
        0
280
     0
281
     0
  0
CLASS
  1
SPATIAL_INDEX
  2
AcDbSpatialIndex
  3
"Acad"
 90
        0
280
     0
281
     0
  0
CLASS
  1
OBJECT_PTR
  2
CAseDLPNTableRecord
  3
"ASE-LPNTableRecord"
 90
        1
280
     0
281
     0
  0
CLASS
  1
LAYOUT
  2
AcDbLayout
  3
"AutoCAD 2000"
 90
        1
280
     0
281
     0
  0
CLASS
  1
PLOTSETTINGS
  2
AcDbPlotSettings
  3
"AutoCAD 2000"
 90
        1
280
     0
281
     0
  0
CLASS
  1
ACDBDICTIONARYWDFLT
  2
AcDbDictionaryWithDefault
  3
"AutoCAD 2000"
 90
        1
280
     0
281
     0
  0
CLASS
  1
ACDBPLACEHOLDER
  2
AcDbPlaceHolder
  3
"AutoCAD 2000"
 90
        1
280
     0
281
     0
  0
CLASS
  1
VBA_PROJECT
  2
AcDbVbaProject
  3
"acadvba"
 90
        1
280
     0
281
     0
  0
CLASS
  1
WIPEOUT
  2
AcDbWipeout
  3
WipeOut|AutoCAD Express Tool|expresstools@autodesk.com
 90
      127
280
     0
281
     1
  0
CLASS
  1
WIPEOUTVARIABLES
  2
AcDbWipeoutVariables
  3
WipeOut|AutoCAD Express Tool|expresstools@autodesk.com
 90
        0
280
     0
281
     0
  0
CLASS
  1
RTEXT
  2
RText
  3
RText|AutoCAD Express Tool|expresstools@autodesk.com
 90
        0
280
     0
281
     1
  0
CLASS
  1
ARCALIGNEDTEXT
  2
AcDbArcAlignedText
  3
ATEXT|AutoCAD Express Tool|expresstools@autodesk.com
 90
        0
280
     0
281
     1
  0
ENDSEC
  0
SECTION
  2
TABLES
  0
TABLE
  2
VPORT
  5
7
100
AcDbSymbolTable
 70
     1
  0
VPORT
  5
15
100
AcDbSymbolTableRecord
100
AcDbViewportTableRecord
  2
*ACTIVE
 70
     0
 10
0.0
 20
0.0
 11
1.0
 21
1.0
 12
1090.0
 22
1510.0
 13
0.0
 23
0.0
 14
1.0
 24
1.0
 15
0.0
 25
0.0
 16
0.0
 26
0.0
 36
1.0
 17
0.0
 27
0.0
 37
0.0
 40
2750.0
 41
1.722533
 42
50.0
 43
0.0
 44
0.0
 50
0.0
 51
0.0
 71
     0
 72
   100
 73
     1
 74
     1
 75
     0
 76
     0
 77
     0
 78
     0
  0
ENDTAB
  0
TABLE
  2
LTYPE
  5
4
100
AcDbSymbolTable
 70
     9
  0
LTYPE
  5
11
100
AcDbSymbolTableRecord
100
AcDbLinetypeTableRecord
  2
BYBLOCK
 70
    64
  3

 72
    65
 73
     0
 40
0.0
  0
LTYPE
  5
12
100
AcDbSymbolTableRecord
100
AcDbLinetypeTableRecord
  2
BYLAYER
 70
    64
  3

 72
    65
 73
     0
 40
0.0
  0
LTYPE
  5
13
100
AcDbSymbolTableRecord
100
AcDbLinetypeTableRecord
  2
CONTINUOUS
 70
    64
  3
実線
 72
    65
 73
     0
 40
0.0
  0
LTYPE
  5
1D
100
AcDbSymbolTableRecord
100
AcDbLinetypeTableRecord
  2
EXLTYPE1
 70
    64
  3
破線
 72
    65
 73
     2
 40
3.0
 49
2.0
 74
     0
 49
-1.0
 74
     0
  0
LTYPE
  5
1E
100
AcDbSymbolTableRecord
100
AcDbLinetypeTableRecord
  2
EXLTYPE2
 70
    64
  3
点線
 72
    65
 73
     2
 40
2.0
 49
1.0
 74
     0
 49
-1.0
 74
     0
  0
LTYPE
  5
1F
100
AcDbSymbolTableRecord
100
AcDbLinetypeTableRecord
  2
EXLTYPE3
 70
    64
  3
一点鎖線
 72
    65
 73
     4
 40
10.0
 49
7.0
 74
     0
 49
-1.0
 74
     0
 49
1.0
 74
     0
 49
-1.0
 74
     0
  0
LTYPE
  5
20
100
AcDbSymbolTableRecord
100
AcDbLinetypeTableRecord
  2
EXLTYPE4
 70
    64
  3
二点鎖線
 72
    65
 73
     6
 40
12.0
 49
7.0
 74
     0
 49
-1.0
 74
     0
 49
1.0
 74
     0
 49
-1.0
 74
     0
 49
1.0
 74
     0
 49
-1.0
 74
     0
  0
LTYPE
  5
21
100
AcDbSymbolTableRecord
100
AcDbLinetypeTableRecord
  2
EXLTYPE5
 70
    64
  3
三点鎖線
 72
    65
 73
     8
 40
37.0
 49
30.0
 74
     0
 49
-1.0
 74
     0
 49
1.0
 74
     0
 49
-1.0
 74
     0
 49
1.0
 74
     0
 49
-1.0
 74
     0
 49
1.0
 74
     0
 49
-1.0
 74
     0
  0
LTYPE
  5
22
100
AcDbSymbolTableRecord
100
AcDbLinetypeTableRecord
  2
EXLTYPE6
 70
    64
  3
四点鎖線
 72
    65
 73
    10
 40
39.0
 49
30.0
 74
     0
 49
-1.0
 74
     0
 49
1.0
 74
     0
 49
-1.0
 74
     0
 49
1.0
 74
     0
 49
-1.0
 74
     0
 49
1.0
 74
     0
 49
-1.0
 74
     0
 49
1.0
 74
     0
 49
-1.0
 74
     0
  0
ENDTAB
  0
TABLE
  2
LAYER
  5
2
100
AcDbSymbolTable
 70
     4
  0
LAYER
  5
14
100
AcDbSymbolTableRecord
100
AcDbLayerTableRecord
  2
0
 70
     0
 62
     7
  6
CONTINUOUS
  0
LAYER
  5
25
100
AcDbSymbolTableRecord
100
AcDbLayerTableRecord
  2
枠・表
 70
    64
 62
     7
  6
CONTINUOUS
  0
LAYER
  5
26
100
AcDbSymbolTableRecord
100
AcDbLayerTableRecord
  2
図
 70
    64
 62
     7
  6
CONTINUOUS
  0
LAYER
  5
27
100
AcDbSymbolTableRecord
100
AcDbLayerTableRecord
  2
寸法
 70
    64
 62
     7
  6
CONTINUOUS
  0
ENDTAB
  0
TABLE
  2
STYLE
  5
3
100
AcDbSymbolTable
 70
     4
  0
STYLE
  5
17
100
AcDbSymbolTableRecord
100
AcDbTextStyleTableRecord
  2
STANDARD
 70
     0
 40
0.0
 41
1.0
 50
0.0
 71
     0
 42
0.0
  3
monotxt
  4
extfont
  0
STYLE
  5
23
100
AcDbSymbolTableRecord
100
AcDbTextStyleTableRecord
  2
EXCADSTD
 70
    64
 40
0.0
 41
1.0
 50
0.0
 71
     0
 42
0.2
  3
monotxt
  4
extfont
  0
STYLE
  5
24
100
AcDbSymbolTableRecord
100
AcDbTextStyleTableRecord
  2
EXCADVERT
 70
    68
 40
0.0
 41
1.0
 50
0.0
 71
     0
 42
0.286885
  3
monotxt
  4
extfont
  0
STYLE
  5
34E
100
AcDbSymbolTableRecord
100
AcDbTextStyleTableRecord
  2
EXCADDIM1
 70
    64
 40
0.0
 41
0.84
 50
0.0
 71
     0
 42
0.2
  3
monotxt
  4
extfont
  0
ENDTAB
  0
TABLE
  2
VIEW
  5
5
100
AcDbSymbolTable
 70
     0
  0
ENDTAB
  0
TABLE
  2
UCS
  5
6
100
AcDbSymbolTable
 70
     0
  0
ENDTAB
  0
TABLE
  2
APPID
  5
8
100
AcDbSymbolTable
 70
     1
  0
APPID
  5
16
100
AcDbSymbolTableRecord
100
AcDbRegAppTableRecord
  2
ACAD
 70
     0
  0
ENDTAB
  0
TABLE
  2
DIMSTYLE
  5
9
100
AcDbSymbolTable
 70
     1
  0
DIMSTYLE
105
18
100
AcDbSymbolTableRecord
100
AcDbDimStyleTableRecord
  2
STANDARD
 70
     0
  3

  4

  5

  6

  7

 40
1.0
 41
0.18
 42
0.0625
 43
0.38
 44
0.18
 45
0.0
 46
0.0
 47
0.0
 48
0.0
 71
     0
 72
     0
 73
     1
 74
     1
 75
     0
 76
     0
 77
     0
 78
     0
140
0.18
141
0.09
142
0.0
143
25.4
144
1.0
145
0.0
146
1.0
147
0.09
170
     0
171
     2
172
     1
173
     0
174
     0
175
     0
176
     0
177
     0
178
     0
270
     2
271
     4
272
     4
273
     2
274
     2
275
     0
280
     0
281
     0
282
     0
283
     1
284
     0
285
     0
286
     0
287
     0
288
     0
340
17
  0
ENDTAB
  0
TABLE
  2
BLOCK_RECORD
  5
1
100
AcDbSymbolTable
 70
    28
  0
BLOCK_RECORD
  5
A
100
AcDbSymbolTableRecord
100
AcDbBlockTableRecord
  2
*MODEL_SPACE
  0
BLOCK_RECORD
  5
B
100
AcDbSymbolTableRecord
100
AcDbBlockTableRecord
  2
*PAPER_SPACE
  0
BLOCK_RECORD
  5
28
100
AcDbSymbolTableRecord
100
AcDbBlockTableRecord
  2
_EX_NORM
  0
BLOCK_RECORD
  5
29
100
AcDbSymbolTableRecord
100
AcDbBlockTableRecord
  2
_EX_BNORM
  0
BLOCK_RECORD
  5
2A
100
AcDbSymbolTableRecord
100
AcDbBlockTableRecord
  2
_EX_BCIR
  0
BLOCK_RECORD
  5
2B
100
AcDbSymbolTableRecord
100
AcDbBlockTableRecord
  2
_EX_RCIVIL
  0
BLOCK_RECORD
  5
2C
100
AcDbSymbolTableRecord
100
AcDbBlockTableRecord
  2
_EX_SLANT
  0
BLOCK_RECORD
  5
2D
100
AcDbSymbolTableRecord
100
AcDbBlockTableRecord
  2
_EX_NONE
  0
BLOCK_RECORD
  5
2E
100
AcDbSymbolTableRecord
100
AcDbBlockTableRecord
  2
_EX_CIVIL
  0
BLOCK_RECORD
  5
2F
100
AcDbSymbolTableRecord
100
AcDbBlockTableRecord
  2
_EX_WCIR
  0
BLOCK_RECORD
  5
30
100
AcDbSymbolTableRecord
100
AcDbBlockTableRecord
  2
_EX_WCIR2
  0
BLOCK_RECORD
  5
31
100
AcDbSymbolTableRecord
100
AcDbBlockTableRecord
  2
_EX_WNORM
  0
BLOCK_RECORD
  5
32
100
AcDbSymbolTableRecord
100
AcDbBlockTableRecord
  2
_EX_NNORM
  0
BLOCK_RECORD
  5
33
100
AcDbSymbolTableRecord
100
AcDbBlockTableRecord
  2
_EX_BBOX
  0
BLOCK_RECORD
  5
34
100
AcDbSymbolTableRecord
100
AcDbBlockTableRecord
  2
_EX_WBOX
  0
BLOCK_RECORD
  5
35
100
AcDbSymbolTableRecord
100
AcDbBlockTableRecord
  2
_EX_INTEGRAL
  0
BLOCK_RECORD
  5
343
100
AcDbSymbolTableRecord
100
AcDbBlockTableRecord
  2
*D14
  0
BLOCK_RECORD
  5
350
100
AcDbSymbolTableRecord
100
AcDbBlockTableRecord
  2
*D15
  0
BLOCK_RECORD
  5
35C
100
AcDbSymbolTableRecord
100
AcDbBlockTableRecord
  2
*D16
  0
BLOCK_RECORD
  5
368
100
AcDbSymbolTableRecord
100
AcDbBlockTableRecord
  2
*D17
  0
BLOCK_RECORD
  5
373
100
AcDbSymbolTableRecord
100
AcDbBlockTableRecord
  2
*D18
  0
BLOCK_RECORD
  5
381
100
AcDbSymbolTableRecord
100
AcDbBlockTableRecord
  2
*D19
  0
BLOCK_RECORD
  5
38D
100
AcDbSymbolTableRecord
100
AcDbBlockTableRecord
  2
*D20
  0
BLOCK_RECORD
  5
399
100
AcDbSymbolTableRecord
100
AcDbBlockTableRecord
  2
*D21
  0
BLOCK_RECORD
  5
3A7
100
AcDbSymbolTableRecord
100
AcDbBlockTableRecord
  2
*D22
  0
BLOCK_RECORD
  5
3B3
100
AcDbSymbolTableRecord
100
AcDbBlockTableRecord
  2
*D23
  0
BLOCK_RECORD
  5
3C1
100
AcDbSymbolTableRecord
100
AcDbBlockTableRecord
  2
*D24
  0
BLOCK_RECORD
  5
3CF
100
AcDbSymbolTableRecord
100
AcDbBlockTableRecord
  2
*D25
  0
BLOCK_RECORD
  5
3DB
100
AcDbSymbolTableRecord
100
AcDbBlockTableRecord
  2
*D26
  0
BLOCK_RECORD
  5
3E7
100
AcDbSymbolTableRecord
100
AcDbBlockTableRecord
  2
*D27
  0
ENDTAB
  0
ENDSEC
  0
SECTION
  2
BLOCKS
  0
BLOCK
  5
D
100
AcDbEntity
  8
0
100
AcDbBlockBegin
  2
*MODEL_SPACE
 70
     0
 10
0.0
 20
0.0
 30
0.0
  3
*MODEL_SPACE
  1

  0
ENDBLK
  5
E
100
AcDbEntity
  8
0
100
AcDbBlockEnd
  0
BLOCK
  5
F
100
AcDbEntity
 67
     1
  8
0
100
AcDbBlockBegin
  2
*PAPER_SPACE
 70
     0
 10
0.0
 20
0.0
 30
0.0
  3
*PAPER_SPACE
  1

  0
ENDBLK
  5
10
100
AcDbEntity
 67
     1
  8
0
100
AcDbBlockEnd
  0
BLOCK
  5
36
100
AcDbEntity
  8
0
100
AcDbBlockBegin
  2
_EX_NORM
 70
     0
 10
0.0
 20
0.0
 30
0.0
  3
_EX_NORM
  1

  0
LINE
  5
37
100
AcDbEntity
  8
0
  6
CONTINUOUS
 62
     0
100
AcDbLine
 10
0.0
 20
0.0
 30
0.0
 11
-1.0
 21
0.0
 31
0.0
  0
LINE
  5
38
100
AcDbEntity
  8
0
  6
CONTINUOUS
 62
     0
100
AcDbLine
 10
0.0
 20
0.0
 30
0.0
 11
-1.0
 21
0.166667
 31
0.0
  0
LINE
  5
39
100
AcDbEntity
  8
0
  6
CONTINUOUS
 62
     0
100
AcDbLine
 10
0.0
 20
0.0
 30
0.0
 11
-1.0
 21
-0.166667
 31
0.0
  0
ENDBLK
  5
3A
100
AcDbEntity
  8
0
100
AcDbBlockEnd
  0
BLOCK
  5
3B
100
AcDbEntity
  8
0
100
AcDbBlockBegin
  2
_EX_BNORM
 70
     0
 10
0.0
 20
0.0
 30
0.0
  3
_EX_BNORM
  1

  0
LINE
  5
3C
100
AcDbEntity
  8
0
  6
CONTINUOUS
 62
     0
100
AcDbLine
 10
0.0
 20
0.0
 30
0.0
 11
-1.0
 21
0.0
 31
0.0
  0
LINE
  5
3D
100
AcDbEntity
  8
0
  6
CONTINUOUS
 62
     0
100
AcDbLine
 10
0.0
 20
0.0
 30
0.0
 11
-1.0
 21
0.166667
 31
0.0
  0
LINE
  5
3E
100
AcDbEntity
  8
0
  6
CONTINUOUS
 62
     0
100
AcDbLine
 10
0.0
 20
0.0
 30
0.0
 11
-1.0
 21
-0.166667
 31
0.0
  0
LINE
  5
3F
100
AcDbEntity
  8
0
  6
CONTINUOUS
 62
     0
100
AcDbLine
 10
0.0
 20
0.0
 30
0.0
 11
-1.0
 21
0.083333
 31
0.0
  0
LINE
  5
40
100
AcDbEntity
  8
0
  6
CONTINUOUS
 62
     0
100
AcDbLine
 10
0.0
 20
0.0
 30
0.0
 11
-1.0
 21
-0.083333
 31
0.0
  0
LINE
  5
41
100
AcDbEntity
  8
0
  6
CONTINUOUS
 62
     0
100
AcDbLine
 10
-1.0
 20
0.166667
 30
0.0
 11
-1.0
 21
-0.166667
 31
0.0
  0
ENDBLK
  5
42
100
AcDbEntity
  8
0
100
AcDbBlockEnd
  0
BLOCK
  5
43
100
AcDbEntity
  8
0
100
AcDbBlockBegin
  2
_EX_BCIR
 70
     0
 10
0.0
 20
0.0
 30
0.0
  3
_EX_BCIR
  1

  0
LINE
  5
44
100
AcDbEntity
  8
0
  6
CONTINUOUS
 62
     0
100
AcDbLine
 10
0.0
 20
0.0
 30
0.0
 11
-1.0
 21
0.0
 31
0.0
  0
CIRCLE
  5
45
100
AcDbEntity
  8
0
  6
CONTINUOUS
 62
     0
100
AcDbCircle
 10
0.0
 20
0.0
 30
0.0
 40
0.5
  0
CIRCLE
  5
46
100
AcDbEntity
  8
0
  6
CONTINUOUS
 62
     0
100
AcDbCircle
 10
0.0
 20
0.0
 30
0.0
 40
0.25
  0
ENDBLK
  5
47
100
AcDbEntity
  8
0
100
AcDbBlockEnd
  0
BLOCK
  5
48
100
AcDbEntity
  8
0
100
AcDbBlockBegin
  2
_EX_RCIVIL
 70
     0
 10
0.0
 20
0.0
 30
0.0
  3
_EX_RCIVIL
  1

  0
LINE
  5
49
100
AcDbEntity
  8
0
  6
CONTINUOUS
 62
     0
100
AcDbLine
 10
0.0
 20
0.0
 30
0.0
 11
-1.0
 21
0.0
 31
0.0
  0
LINE
  5
4A
100
AcDbEntity
  8
0
  6
CONTINUOUS
 62
     0
100
AcDbLine
 10
-1.0
 20
-0.25
 30
0.0
 11
0.0
 21
-0.25
 31
0.0
  0
LINE
  5
4B
100
AcDbEntity
  8
0
  6
CONTINUOUS
 62
     0
100
AcDbLine
 10
-1.0
 20
-0.125
 30
0.0
 11
0.0
 21
-0.125
 31
0.0
  0
ENDBLK
  5
4C
100
AcDbEntity
  8
0
100
AcDbBlockEnd
  0
BLOCK
  5
4D
100
AcDbEntity
  8
0
100
AcDbBlockBegin
  2
_EX_SLANT
 70
     0
 10
0.0
 20
0.0
 30
0.0
  3
_EX_SLANT
  1

  0
LINE
  5
4E
100
AcDbEntity
  8
0
  6
CONTINUOUS
 62
     0
100
AcDbLine
 10
0.0
 20
0.0
 30
0.0
 11
-1.0
 21
0.0
 31
0.0
  0
LINE
  5
4F
100
AcDbEntity
  8
0
  6
CONTINUOUS
 62
     0
100
AcDbLine
 10
0.707107
 20
0.707107
 30
0.0
 11
-0.707107
 21
-0.707107
 31
0.0
  0
ENDBLK
  5
50
100
AcDbEntity
  8
0
100
AcDbBlockEnd
  0
BLOCK
  5
51
100
AcDbEntity
  8
0
100
AcDbBlockBegin
  2
_EX_NONE
 70
     0
 10
0.0
 20
0.0
 30
0.0
  3
_EX_NONE
  1

  0
LINE
  5
52
100
AcDbEntity
  8
0
  6
CONTINUOUS
 62
     0
100
AcDbLine
 10
0.0
 20
0.0
 30
0.0
 11
-1.0
 21
0.0
 31
0.0
  0
ENDBLK
  5
53
100
AcDbEntity
  8
0
100
AcDbBlockEnd
  0
BLOCK
  5
54
100
AcDbEntity
  8
0
100
AcDbBlockBegin
  2
_EX_CIVIL
 70
     0
 10
0.0
 20
0.0
 30
0.0
  3
_EX_CIVIL
  1

  0
LINE
  5
55
100
AcDbEntity
  8
0
  6
CONTINUOUS
 62
     0
100
AcDbLine
 10
0.0
 20
0.0
 30
0.0
 11
-1.0
 21
0.0
 31
0.0
  0
LINE
  5
56
100
AcDbEntity
  8
0
  6
CONTINUOUS
 62
     0
100
AcDbLine
 10
-1.0
 20
0.25
 30
0.0
 11
0.0
 21
0.25
 31
0.0
  0
LINE
  5
57
100
AcDbEntity
  8
0
  6
CONTINUOUS
 62
     0
100
AcDbLine
 10
-1.0
 20
0.125
 30
0.0
 11
0.0
 21
0.125
 31
0.0
  0
ENDBLK
  5
58
100
AcDbEntity
  8
0
100
AcDbBlockEnd
  0
BLOCK
  5
59
100
AcDbEntity
  8
0
100
AcDbBlockBegin
  2
_EX_WCIR
 70
     0
 10
0.0
 20
0.0
 30
0.0
  3
_EX_WCIR
  1

  0
LINE
  5
5A
100
AcDbEntity
  8
0
  6
CONTINUOUS
 62
     0
100
AcDbLine
 10
0.0
 20
0.0
 30
0.0
 11
-1.0
 21
0.0
 31
0.0
  0
CIRCLE
  5
5B
100
AcDbEntity
  8
0
  6
CONTINUOUS
 62
     0
100
AcDbCircle
 10
0.0
 20
0.0
 30
0.0
 40
0.5
  0
ENDBLK
  5
5C
100
AcDbEntity
  8
0
100
AcDbBlockEnd
  0
BLOCK
  5
5D
100
AcDbEntity
  8
0
100
AcDbBlockBegin
  2
_EX_WCIR2
 70
     0
 10
0.0
 20
0.0
 30
0.0
  3
_EX_WCIR2
  1

  0
LINE
  5
5E
100
AcDbEntity
  8
0
  6
CONTINUOUS
 62
     0
100
AcDbLine
 10
-0.5
 20
0.0
 30
0.0
 11
-1.0
 21
0.0
 31
0.0
  0
CIRCLE
  5
5F
100
AcDbEntity
  8
0
  6
CONTINUOUS
 62
     0
100
AcDbCircle
 10
0.0
 20
0.0
 30
0.0
 40
0.5
  0
ENDBLK
  5
60
100
AcDbEntity
  8
0
100
AcDbBlockEnd
  0
BLOCK
  5
61
100
AcDbEntity
  8
0
100
AcDbBlockBegin
  2
_EX_WNORM
 70
     0
 10
0.0
 20
0.0
 30
0.0
  3
_EX_WNORM
  1

  0
LINE
  5
62
100
AcDbEntity
  8
0
  6
CONTINUOUS
 62
     0
100
AcDbLine
 10
-1.0
 20
0.0
 30
0.0
 11
-1.0
 21
0.0
 31
0.0
  0
LINE
  5
63
100
AcDbEntity
  8
0
  6
CONTINUOUS
 62
     0
100
AcDbLine
 10
0.0
 20
0.0
 30
0.0
 11
-1.0
 21
0.166667
 31
0.0
  0
LINE
  5
64
100
AcDbEntity
  8
0
  6
CONTINUOUS
 62
     0
100
AcDbLine
 10
0.0
 20
0.0
 30
0.0
 11
-1.0
 21
-0.166667
 31
0.0
  0
LINE
  5
65
100
AcDbEntity
  8
0
  6
CONTINUOUS
 62
     0
100
AcDbLine
 10
-1.0
 20
0.166667
 30
0.0
 11
-1.0
 21
-0.166667
 31
0.0
  0
ENDBLK
  5
66
100
AcDbEntity
  8
0
100
AcDbBlockEnd
  0
BLOCK
  5
67
100
AcDbEntity
  8
0
100
AcDbBlockBegin
  2
_EX_NNORM
 70
     0
 10
0.0
 20
0.0
 30
0.0
  3
_EX_NNORM
  1

  0
LINE
  5
68
100
AcDbEntity
  8
0
  6
CONTINUOUS
 62
     0
100
AcDbLine
 10
0.0
 20
0.0
 30
0.0
 11
-1.0
 21
0.0
 31
0.0
  0
LINE
  5
69
100
AcDbEntity
  8
0
  6
CONTINUOUS
 62
     0
100
AcDbLine
 10
0.0
 20
0.0
 30
0.0
 11
-1.0
 21
0.166667
 31
0.0
  0
LINE
  5
6A
100
AcDbEntity
  8
0
  6
CONTINUOUS
 62
     0
100
AcDbLine
 10
0.0
 20
0.0
 30
0.0
 11
-1.0
 21
-0.166667
 31
0.0
  0
LINE
  5
6B
100
AcDbEntity
  8
0
  6
CONTINUOUS
 62
     0
100
AcDbLine
 10
-1.0
 20
0.166667
 30
0.0
 11
-1.0
 21
-0.166667
 31
0.0
  0
ENDBLK
  5
6C
100
AcDbEntity
  8
0
100
AcDbBlockEnd
  0
BLOCK
  5
6D
100
AcDbEntity
  8
0
100
AcDbBlockBegin
  2
_EX_BBOX
 70
     0
 10
0.0
 20
0.0
 30
0.0
  3
_EX_BBOX
  1

  0
LINE
  5
6E
100
AcDbEntity
  8
0
  6
CONTINUOUS
 62
     0
100
AcDbLine
 10
0.0
 20
0.0
 30
0.0
 11
-1.0
 21
0.0
 31
0.0
  0
LINE
  5
6F
100
AcDbEntity
  8
0
  6
CONTINUOUS
 62
     0
100
AcDbLine
 10
-0.5
 20
0.5
 30
0.0
 11
0.5
 21
0.5
 31
0.0
  0
LINE
  5
70
100
AcDbEntity
  8
0
  6
CONTINUOUS
 62
     0
100
AcDbLine
 10
0.5
 20
0.5
 30
0.0
 11
0.5
 21
-0.5
 31
0.0
  0
LINE
  5
71
100
AcDbEntity
  8
0
  6
CONTINUOUS
 62
     0
100
AcDbLine
 10
0.5
 20
-0.5
 30
0.0
 11
-0.5
 21
-0.5
 31
0.0
  0
LINE
  5
72
100
AcDbEntity
  8
0
  6
CONTINUOUS
 62
     0
100
AcDbLine
 10
-0.5
 20
-0.5
 30
0.0
 11
-0.5
 21
0.5
 31
0.0
  0
LINE
  5
73
100
AcDbEntity
  8
0
  6
CONTINUOUS
 62
     0
100
AcDbLine
 10
-0.25
 20
0.25
 30
0.0
 11
0.25
 21
0.25
 31
0.0
  0
LINE
  5
74
100
AcDbEntity
  8
0
  6
CONTINUOUS
 62
     0
100
AcDbLine
 10
0.25
 20
0.25
 30
0.0
 11
0.25
 21
-0.25
 31
0.0
  0
LINE
  5
75
100
AcDbEntity
  8
0
  6
CONTINUOUS
 62
     0
100
AcDbLine
 10
0.25
 20
-0.25
 30
0.0
 11
-0.25
 21
-0.25
 31
0.0
  0
LINE
  5
76
100
AcDbEntity
  8
0
  6
CONTINUOUS
 62
     0
100
AcDbLine
 10
-0.25
 20
-0.25
 30
0.0
 11
-0.25
 21
0.25
 31
0.0
  0
ENDBLK
  5
77
100
AcDbEntity
  8
0
100
AcDbBlockEnd
  0
BLOCK
  5
78
100
AcDbEntity
  8
0
100
AcDbBlockBegin
  2
_EX_WBOX
 70
     0
 10
0.0
 20
0.0
 30
0.0
  3
_EX_WBOX
  1

  0
LINE
  5
79
100
AcDbEntity
  8
0
  6
CONTINUOUS
 62
     0
100
AcDbLine
 10
-0.5
 20
0.0
 30
0.0
 11
-1.0
 21
0.0
 31
0.0
  0
LINE
  5
7A
100
AcDbEntity
  8
0
  6
CONTINUOUS
 62
     0
100
AcDbLine
 10
-0.5
 20
0.5
 30
0.0
 11
0.5
 21
0.5
 31
0.0
  0
LINE
  5
7B
100
AcDbEntity
  8
0
  6
CONTINUOUS
 62
     0
100
AcDbLine
 10
0.5
 20
0.5
 30
0.0
 11
0.5
 21
-0.5
 31
0.0
  0
LINE
  5
7C
100
AcDbEntity
  8
0
  6
CONTINUOUS
 62
     0
100
AcDbLine
 10
0.5
 20
-0.5
 30
0.0
 11
-0.5
 21
-0.5
 31
0.0
  0
LINE
  5
7D
100
AcDbEntity
  8
0
  6
CONTINUOUS
 62
     0
100
AcDbLine
 10
-0.5
 20
-0.5
 30
0.0
 11
-0.5
 21
0.5
 31
0.0
  0
ENDBLK
  5
7E
100
AcDbEntity
  8
0
100
AcDbBlockEnd
  0
BLOCK
  5
7F
100
AcDbEntity
  8
0
100
AcDbBlockBegin
  2
_EX_INTEGRAL
 70
     0
 10
0.0
 20
0.0
 30
0.0
  3
_EX_INTEGRAL
  1

  0
LINE
  5
80
100
AcDbEntity
  8
0
  6
CONTINUOUS
 62
     0
100
AcDbLine
 10
0.0
 20
0.0
 30
0.0
 11
-1.0
 21
0.0
 31
0.0
  0
ARC
  5
81
100
AcDbEntity
  8
0
  6
CONTINUOUS
 62
     0
100
AcDbCircle
 10
0.542115
 20
0.164992
 30
0.0
 40
0.56667
100
AcDbArc
 50
73.07249
 51
196.927513
  0
ARC
  5
82
100
AcDbEntity
  8
0
  6
CONTINUOUS
 62
     0
100
AcDbCircle
 10
-0.542115
 20
-0.164992
 30
0.0
 40
0.56667
100
AcDbArc
 50
253.072487
 51
16.927513
  0
ENDBLK
  5
83
100
AcDbEntity
  8
0
100
AcDbBlockEnd
  0
BLOCK
  5
344
100
AcDbEntity
  8
0
100
AcDbBlockBegin
  2
*D14
 70
    65
 10
0.0
 20
0.0
 30
0.0
  3
*D14
  1

  0
LINE
  5
345
100
AcDbEntity
  8
寸法
  6
CONTINUOUS
 62
     3
100
AcDbLine
 10
565.0011
 20
1617.093793
 30
0.0
 11
565.0011
 21
1764.0
 31
0.0
  0
LINE
  5
346
100
AcDbEntity
  8
寸法
  6
CONTINUOUS
 62
     3
100
AcDbLine
 10
914.9989
 20
1617.093793
 30
0.0
 11
914.9989
 21
1764.0
 31
0.0
  0
TEXT
  5
347
100
AcDbEntity
  8
寸法
  6
CONTINUOUS
 62
     2
100
AcDbText
 10
698.0
 20
1757.5
 30
0.0
 40
40.0
  1
355
 41
0.84
  7
EXCADSTD
 72
     1
 11
740.0
 21
1757.5
 31
0.0
100
AcDbText
  0
LINE
  5
348
100
AcDbEntity
  8
寸法
  6
CONTINUOUS
 62
     3
100
AcDbLine
 10
565.0011
 20
1754.0
 30
0.0
 11
914.9989
 21
1754.0
 31
0.0
  0
LINE
  5
349
100
AcDbEntity
  8
寸法
  6
CONTINUOUS
 62
     3
100
AcDbLine
 10
595.0011
 20
1759.0
 30
0.0
 11
565.0011
 21
1754.0
 31
0.0
  0
LINE
  5
34A
100
AcDbEntity
  8
寸法
  6
CONTINUOUS
 62
     3
100
AcDbLine
 10
565.0011
 20
1754.0
 30
0.0
 11
595.0011
 21
1749.0
 31
0.0
  0
LINE
  5
34B
100
AcDbEntity
  8
寸法
  6
CONTINUOUS
 62
     3
100
AcDbLine
 10
884.9989
 20
1749.0
 30
0.0
 11
914.9989
 21
1754.0
 31
0.0
  0
LINE
  5
34C
100
AcDbEntity
  8
寸法
  6
CONTINUOUS
 62
     3
100
AcDbLine
 10
914.9989
 20
1754.0
 30
0.0
 11
884.9989
 21
1759.0
 31
0.0
  0
ENDBLK
  5
34D
100
AcDbEntity
  8
0
100
AcDbBlockEnd
  0
BLOCK
  5
351
100
AcDbEntity
  8
0
100
AcDbBlockBegin
  2
*D15
 70
    65
 10
0.0
 20
0.0
 30
0.0
  3
*D15
  1

  0
LINE
  5
352
100
AcDbEntity
  8
寸法
  6
CONTINUOUS
 62
     3
100
AcDbLine
 10
910.0
 20
794.0
 30
0.0
 11
995.0
 21
794.0
 31
0.0
  0
LINE
  5
353
100
AcDbEntity
  8
寸法
  6
CONTINUOUS
 62
     3
100
AcDbLine
 10
918.0
 20
1614.0
 30
0.0
 11
995.0
 21
1614.0
 31
0.0
  0
LINE
  5
354
100
AcDbEntity
  8
寸法
  6
CONTINUOUS
 62
     3
100
AcDbLine
 10
985.0
 20
794.0
 30
0.0
 11
985.0
 21
1614.0
 31
0.0
  0
LINE
  5
355
100
AcDbEntity
  8
寸法
  6
CONTINUOUS
 62
     3
100
AcDbLine
 10
980.0
 20
824.0
 30
0.0
 11
985.0
 21
794.0
 31
0.0
  0
LINE
  5
356
100
AcDbEntity
  8
寸法
  6
CONTINUOUS
 62
     3
100
AcDbLine
 10
985.0
 20
794.0
 30
0.0
 11
990.0
 21
824.0
 31
0.0
  0
LINE
  5
357
100
AcDbEntity
  8
寸法
  6
CONTINUOUS
 62
     3
100
AcDbLine
 10
990.0
 20
1584.0
 30
0.0
 11
985.0
 21
1614.0
 31
0.0
  0
LINE
  5
358
100
AcDbEntity
  8
寸法
  6
CONTINUOUS
 62
     3
100
AcDbLine
 10
985.0
 20
1614.0
 30
0.0
 11
980.0
 21
1584.0
 31
0.0
  0
TEXT
  5
359
100
AcDbEntity
  8
寸法
  6
CONTINUOUS
 62
     2
100
AcDbText
 10
981.5
 20
1162.0
 30
0.0
 40
40.0
  1
820
 50
90.0
 41
0.84
  7
EXCADSTD
 72
     1
 11
981.5
 21
1204.0
 31
0.0
100
AcDbText
  0
ENDBLK
  5
35A
100
AcDbEntity
  8
0
100
AcDbBlockEnd
  0
BLOCK
  5
35D
100
AcDbEntity
  8
0
100
AcDbBlockBegin
  2
*D16
 70
    65
 10
0.0
 20
0.0
 30
0.0
  3
*D16
  1

  0
LINE
  5
35E
100
AcDbEntity
  8
寸法
  6
CONTINUOUS
 62
     3
100
AcDbLine
 10
910.0
 20
794.0
 30
0.0
 11
1065.0
 21
794.0
 31
0.0
  0
LINE
  5
35F
100
AcDbEntity
  8
寸法
  6
CONTINUOUS
 62
     3
100
AcDbLine
 10
916.592719
 20
1674.0
 30
0.0
 11
1065.0
 21
1674.0
 31
0.0
  0
LINE
  5
360
100
AcDbEntity
  8
寸法
  6
CONTINUOUS
 62
     3
100
AcDbLine
 10
1055.0
 20
794.0
 30
0.0
 11
1055.0
 21
1674.0
 31
0.0
  0
LINE
  5
361
100
AcDbEntity
  8
寸法
  6
CONTINUOUS
 62
     3
100
AcDbLine
 10
1050.0
 20
824.0
 30
0.0
 11
1055.0
 21
794.0
 31
0.0
  0
LINE
  5
362
100
AcDbEntity
  8
寸法
  6
CONTINUOUS
 62
     3
100
AcDbLine
 10
1055.0
 20
794.0
 30
0.0
 11
1060.0
 21
824.0
 31
0.0
  0
LINE
  5
363
100
AcDbEntity
  8
寸法
  6
CONTINUOUS
 62
     3
100
AcDbLine
 10
1060.0
 20
1644.0
 30
0.0
 11
1055.0
 21
1674.0
 31
0.0
  0
LINE
  5
364
100
AcDbEntity
  8
寸法
  6
CONTINUOUS
 62
     3
100
AcDbLine
 10
1055.0
 20
1674.0
 30
0.0
 11
1050.0
 21
1644.0
 31
0.0
  0
TEXT
  5
365
100
AcDbEntity
  8
寸法
  6
CONTINUOUS
 62
     2
100
AcDbText
 10
1051.5
 20
1192.0
 30
0.0
 40
40.0
  1
880
 50
90.0
 41
0.84
  7
EXCADSTD
 72
     1
 11
1051.5
 21
1234.0
 31
0.0
100
AcDbText
  0
ENDBLK
  5
366
100
AcDbEntity
  8
0
100
AcDbBlockEnd
  0
BLOCK
  5
369
100
AcDbEntity
  8
0
100
AcDbBlockBegin
  2
*D17
 70
    65
 10
0.0
 20
0.0
 30
0.0
  3
*D17
  1

  0
LINE
  5
36A
100
AcDbEntity
  8
寸法
  6
CONTINUOUS
 62
     3
100
AcDbLine
 10
665.0
 20
1213.0
 30
0.0
 11
665.0
 21
1105.0
 31
0.0
  0
TEXT
  5
36B
100
AcDbEntity
  8
寸法
  6
CONTINUOUS
 62
     2
100
AcDbText
 10
270.8
 20
1118.5
 30
0.0
 40
40.0
  1
75±10（壁排水）
 41
0.84
  7
EXCADSTD
 72
     1
 11
401.0
 21
1118.5
 31
0.0
100
AcDbText
  0
LINE
  5
36C
100
AcDbEntity
  8
寸法
  6
CONTINUOUS
 62
     3
100
AcDbLine
 10
240.0
 20
1115.0
 30
0.0
 11
770.0
 21
1115.0
 31
0.0
  0
LINE
  5
36D
100
AcDbEntity
  8
寸法
  6
CONTINUOUS
 62
     3
100
AcDbLine
 10
635.0
 20
1110.0
 30
0.0
 11
665.0
 21
1115.0
 31
0.0
  0
LINE
  5
36E
100
AcDbEntity
  8
寸法
  6
CONTINUOUS
 62
     3
100
AcDbLine
 10
665.0
 20
1115.0
 30
0.0
 11
635.0
 21
1120.0
 31
0.0
  0
LINE
  5
36F
100
AcDbEntity
  8
寸法
  6
CONTINUOUS
 62
     3
100
AcDbLine
 10
770.0
 20
1120.0
 30
0.0
 11
740.0
 21
1115.0
 31
0.0
  0
LINE
  5
370
100
AcDbEntity
  8
寸法
  6
CONTINUOUS
 62
     3
100
AcDbLine
 10
740.0
 20
1115.0
 30
0.0
 11
770.0
 21
1110.0
 31
0.0
  0
ENDBLK
  5
371
100
AcDbEntity
  8
0
100
AcDbBlockEnd
  0
BLOCK
  5
374
100
AcDbEntity
  8
0
100
AcDbBlockBegin
  2
*D18
 70
    65
 10
0.0
 20
0.0
 30
0.0
  3
*D18
  1

  0
LINE
  5
375
100
AcDbEntity
  8
寸法
  6
CONTINUOUS
 62
     3
100
AcDbLine
 10
835.0
 20
1278.3
 30
0.0
 11
835.0
 21
1035.0
 31
0.0
  0
TEXT
  5
376
100
AcDbEntity
  8
寸法
  6
CONTINUOUS
 62
     2
100
AcDbText
 10
270.8
 20
1048.5
 30
0.0
 40
40.0
  1
95±10（壁給水）
 41
0.84
  7
EXCADSTD
 72
     1
 11
401.0
 21
1048.5
 31
0.0
100
AcDbText
  0
LINE
  5
377
100
AcDbEntity
  8
寸法
  6
CONTINUOUS
 62
     3
100
AcDbLine
 10
245.999985
 20
1045.0
 30
0.0
 11
865.0
 21
1045.0
 31
0.0
  0
LINE
  5
378
100
AcDbEntity
  8
寸法
  6
CONTINUOUS
 62
     3
100
AcDbLine
 10
710.0
 20
1040.0
 30
0.0
 11
740.0
 21
1045.0
 31
0.0
  0
LINE
  5
379
100
AcDbEntity
  8
寸法
  6
CONTINUOUS
 62
     3
100
AcDbLine
 10
740.0
 20
1045.0
 30
0.0
 11
710.0
 21
1050.0
 31
0.0
  0
LINE
  5
37A
100
AcDbEntity
  8
寸法
  6
CONTINUOUS
 62
     3
100
AcDbLine
 10
865.0
 20
1050.0
 30
0.0
 11
835.0
 21
1045.0
 31
0.0
  0
LINE
  5
37B
100
AcDbEntity
  8
寸法
  6
CONTINUOUS
 62
     3
100
AcDbLine
 10
835.0
 20
1045.0
 30
0.0
 11
865.0
 21
1040.0
 31
0.0
  0
ENDBLK
  5
37C
100
AcDbEntity
  8
0
100
AcDbBlockEnd
  0
BLOCK
  5
382
100
AcDbEntity
  8
0
100
AcDbBlockBegin
  2
*D19
 70
    65
 10
0.0
 20
0.0
 30
0.0
  3
*D19
  1

  0
LINE
  5
383
100
AcDbEntity
  8
寸法
  6
CONTINUOUS
 62
     3
100
AcDbLine
 10
700.0
 20
759.0
 30
0.0
 11
700.0
 21
634.0
 31
0.0
  0
LINE
  5
384
100
AcDbEntity
  8
寸法
  6
CONTINUOUS
 62
     3
100
AcDbLine
 10
740.0
 20
789.0
 30
0.0
 11
740.0
 21
634.0
 31
0.0
  0
TEXT
  5
385
100
AcDbEntity
  8
寸法
  6
CONTINUOUS
 62
     2
100
AcDbText
 10
272.8
 20
647.5
 30
0.0
 40
40.0
  1
40±10（床排水）
 41
0.84
  7
EXCADSTD
 72
     1
 11
403.0
 21
647.5
 31
0.0
100
AcDbText
  0
LINE
  5
386
100
AcDbEntity
  8
寸法
  6
CONTINUOUS
 62
     3
100
AcDbLine
 10
245.999985
 20
644.0
 30
0.0
 11
770.0
 21
644.0
 31
0.0
  0
LINE
  5
387
100
AcDbEntity
  8
寸法
  6
CONTINUOUS
 62
     3
100
AcDbLine
 10
670.0
 20
639.0
 30
0.0
 11
700.0
 21
644.0
 31
0.0
  0
LINE
  5
388
100
AcDbEntity
  8
寸法
  6
CONTINUOUS
 62
     3
100
AcDbLine
 10
700.0
 20
644.0
 30
0.0
 11
670.0
 21
649.0
 31
0.0
  0
CIRCLE
  5
389
100
AcDbEntity
  8
寸法
  6
CONTINUOUS
 62
     3
100
AcDbCircle
 10
740.0
 20
644.0
 30
0.0
 40
5.0
  0
CIRCLE
  5
38A
100
AcDbEntity
  8
寸法
  6
CONTINUOUS
 62
     3
100
AcDbCircle
 10
740.0
 20
644.0
 30
0.0
 40
2.5
  0
ENDBLK
  5
38B
100
AcDbEntity
  8
0
100
AcDbBlockEnd
  0
BLOCK
  5
38E
100
AcDbEntity
  8
0
100
AcDbBlockBegin
  2
*D20
 70
    65
 10
0.0
 20
0.0
 30
0.0
  3
*D20
  1

  0
LINE
  5
38F
100
AcDbEntity
  8
寸法
  6
CONTINUOUS
 62
     3
100
AcDbLine
 10
575.0
 20
787.0
 30
0.0
 11
575.0
 21
564.0
 31
0.0
  0
LINE
  5
390
100
AcDbEntity
  8
寸法
  6
CONTINUOUS
 62
     3
100
AcDbLine
 10
905.0
 20
787.0
 30
0.0
 11
905.0
 21
564.0
 31
0.0
  0
TEXT
  5
391
100
AcDbEntity
  8
寸法
  6
CONTINUOUS
 62
     2
100
AcDbText
 10
698.0
 20
577.5
 30
0.0
 40
40.0
  1
330
 41
0.84
  7
EXCADSTD
 72
     1
 11
740.0
 21
577.5
 31
0.0
100
AcDbText
  0
LINE
  5
392
100
AcDbEntity
  8
寸法
  6
CONTINUOUS
 62
     3
100
AcDbLine
 10
575.0
 20
574.0
 30
0.0
 11
905.0
 21
574.0
 31
0.0
  0
LINE
  5
393
100
AcDbEntity
  8
寸法
  6
CONTINUOUS
 62
     3
100
AcDbLine
 10
605.0
 20
579.0
 30
0.0
 11
575.0
 21
574.0
 31
0.0
  0
LINE
  5
394
100
AcDbEntity
  8
寸法
  6
CONTINUOUS
 62
     3
100
AcDbLine
 10
575.0
 20
574.0
 30
0.0
 11
605.0
 21
569.0
 31
0.0
  0
LINE
  5
395
100
AcDbEntity
  8
寸法
  6
CONTINUOUS
 62
     3
100
AcDbLine
 10
875.0
 20
569.0
 30
0.0
 11
905.0
 21
574.0
 31
0.0
  0
LINE
  5
396
100
AcDbEntity
  8
寸法
  6
CONTINUOUS
 62
     3
100
AcDbLine
 10
905.0
 20
574.0
 30
0.0
 11
875.0
 21
579.0
 31
0.0
  0
ENDBLK
  5
397
100
AcDbEntity
  8
0
100
AcDbBlockEnd
  0
BLOCK
  5
39A
100
AcDbEntity
  8
0
100
AcDbBlockBegin
  2
*D21
 70
    65
 10
0.0
 20
0.0
 30
0.0
  3
*D21
  1

  0
LINE
  5
39B
100
AcDbEntity
  8
寸法
  6
CONTINUOUS
 62
     3
100
AcDbLine
 10
740.0
 20
789.0
 30
0.0
 11
740.0
 21
634.0
 31
0.0
  0
LINE
  5
39C
100
AcDbEntity
  8
寸法
  6
CONTINUOUS
 62
     3
100
AcDbLine
 10
835.0
 20
782.0
 30
0.0
 11
835.0
 21
634.0
 31
0.0
  0
TEXT
  5
39D
100
AcDbEntity
  8
寸法
  6
CONTINUOUS
 62
     2
100
AcDbText
 10
941.8
 20
647.5
 30
0.0
 40
40.0
  1
95±10（床給水）
 41
0.84
  7
EXCADSTD
 72
     1
 11
1072.0
 21
647.5
 31
0.0
100
AcDbText
  0
LINE
  5
39E
100
AcDbEntity
  8
寸法
  6
CONTINUOUS
 62
     3
100
AcDbLine
 10
710.0
 20
644.0
 30
0.0
 11
1228.499985
 21
644.0
 31
0.0
  0
CIRCLE
  5
39F
100
AcDbEntity
  8
寸法
  6
CONTINUOUS
 62
     3
100
AcDbCircle
 10
740.0
 20
644.0
 30
0.0
 40
5.0
  0
CIRCLE
  5
3A0
100
AcDbEntity
  8
寸法
  6
CONTINUOUS
 62
     3
100
AcDbCircle
 10
740.0
 20
644.0
 30
0.0
 40
2.5
  0
LINE
  5
3A1
100
AcDbEntity
  8
寸法
  6
CONTINUOUS
 62
     3
100
AcDbLine
 10
865.0
 20
649.0
 30
0.0
 11
835.0
 21
644.0
 31
0.0
  0
LINE
  5
3A2
100
AcDbEntity
  8
寸法
  6
CONTINUOUS
 62
     3
100
AcDbLine
 10
835.0
 20
644.0
 30
0.0
 11
865.0
 21
639.0
 31
0.0
  0
ENDBLK
  5
3A3
100
AcDbEntity
  8
0
100
AcDbBlockEnd
  0
BLOCK
  5
3A8
100
AcDbEntity
  8
0
100
AcDbBlockBegin
  2
*D22
 70
    65
 10
0.0
 20
0.0
 30
0.0
  3
*D22
  1

  0
LINE
  5
3A9
100
AcDbEntity
  8
寸法
  6
CONTINUOUS
 62
     3
100
AcDbLine
 10
1340.0
 20
1617.0
 30
0.0
 11
1340.0
 21
1764.0
 31
0.0
  0
LINE
  5
3AA
100
AcDbEntity
  8
寸法
  6
CONTINUOUS
 62
     3
100
AcDbLine
 10
1540.0
 20
1679.0
 30
0.0
 11
1540.0
 21
1764.0
 31
0.0
  0
TEXT
  5
3AB
100
AcDbEntity
  8
寸法
  6
CONTINUOUS
 62
     2
100
AcDbText
 10
1398.0
 20
1757.5
 30
0.0
 40
40.0
  1
200
 41
0.84
  7
EXCADSTD
 72
     1
 11
1440.0
 21
1757.5
 31
0.0
100
AcDbText
  0
LINE
  5
3AC
100
AcDbEntity
  8
寸法
  6
CONTINUOUS
 62
     3
100
AcDbLine
 10
1340.0
 20
1754.0
 30
0.0
 11
1540.0
 21
1754.0
 31
0.0
  0
LINE
  5
3AD
100
AcDbEntity
  8
寸法
  6
CONTINUOUS
 62
     3
100
AcDbLine
 10
1370.0
 20
1759.0
 30
0.0
 11
1340.0
 21
1754.0
 31
0.0
  0
LINE
  5
3AE
100
AcDbEntity
  8
寸法
  6
CONTINUOUS
 62
     3
100
AcDbLine
 10
1340.0
 20
1754.0
 30
0.0
 11
1370.0
 21
1749.0
 31
0.0
  0
LINE
  5
3AF
100
AcDbEntity
  8
寸法
  6
CONTINUOUS
 62
     3
100
AcDbLine
 10
1510.0
 20
1749.0
 30
0.0
 11
1540.0
 21
1754.0
 31
0.0
  0
LINE
  5
3B0
100
AcDbEntity
  8
寸法
  6
CONTINUOUS
 62
     3
100
AcDbLine
 10
1540.0
 20
1754.0
 30
0.0
 11
1510.0
 21
1759.0
 31
0.0
  0
ENDBLK
  5
3B1
100
AcDbEntity
  8
0
100
AcDbBlockEnd
  0
BLOCK
  5
3B4
100
AcDbEntity
  8
0
100
AcDbBlockBegin
  2
*D23
 70
    65
 10
0.0
 20
0.0
 30
0.0
  3
*D23
  1

  0
LINE
  5
3B5
100
AcDbEntity
  8
寸法
  6
CONTINUOUS
 62
     3
100
AcDbLine
 10
1547.0
 20
794.0
 30
0.0
 11
1840.0
 21
794.0
 31
0.0
  0
LINE
  5
3B6
100
AcDbEntity
  8
寸法
  6
CONTINUOUS
 62
     3
100
AcDbLine
 10
1588.25183
 20
1649.0
 30
0.0
 11
1840.0
 21
1649.0
 31
0.0
  0
LINE
  5
3B7
100
AcDbEntity
  8
寸法
  6
CONTINUOUS
 62
     3
100
AcDbLine
 10
1830.0
 20
794.0
 30
0.0
 11
1830.0
 21
1649.0
 31
0.0
  0
LINE
  5
3B8
100
AcDbEntity
  8
寸法
  6
CONTINUOUS
 62
     3
100
AcDbLine
 10
1825.0
 20
824.0
 30
0.0
 11
1830.0
 21
794.0
 31
0.0
  0
LINE
  5
3B9
100
AcDbEntity
  8
寸法
  6
CONTINUOUS
 62
     3
100
AcDbLine
 10
1830.0
 20
794.0
 30
0.0
 11
1835.0
 21
824.0
 31
0.0
  0
LINE
  5
3BA
100
AcDbEntity
  8
寸法
  6
CONTINUOUS
 62
     3
100
AcDbLine
 10
1835.0
 20
1619.0
 30
0.0
 11
1830.0
 21
1649.0
 31
0.0
  0
LINE
  5
3BB
100
AcDbEntity
  8
寸法
  6
CONTINUOUS
 62
     3
100
AcDbLine
 10
1830.0
 20
1649.0
 30
0.0
 11
1825.0
 21
1619.0
 31
0.0
  0
TEXT
  5
3BC
100
AcDbEntity
  8
寸法
  6
CONTINUOUS
 62
     2
100
AcDbText
 10
1826.5
 20
1078.7
 30
0.0
 40
40.0
  1
855（手洗器壁固定）
 50
90.0
 41
0.84
  7
EXCADSTD
 72
     1
 11
1826.5
 21
1221.5
 31
0.0
100
AcDbText
  0
ENDBLK
  5
3BD
100
AcDbEntity
  8
0
100
AcDbBlockEnd
  0
BLOCK
  5
3C2
100
AcDbEntity
  8
0
100
AcDbBlockBegin
  2
*D24
 70
    65
 10
0.0
 20
0.0
 30
0.0
  3
*D24
  1

  0
LINE
  5
3C3
100
AcDbEntity
  8
寸法
  6
CONTINUOUS
 62
     3
100
AcDbLine
 10
1547.0
 20
794.0
 30
0.0
 11
1770.0
 21
794.0
 31
0.0
  0
LINE
  5
3C4
100
AcDbEntity
  8
寸法
  6
CONTINUOUS
 62
     3
100
AcDbLine
 10
1579.0
 20
1399.0
 30
0.0
 11
1770.0
 21
1399.0
 31
0.0
  0
LINE
  5
3C5
100
AcDbEntity
  8
寸法
  6
CONTINUOUS
 62
     3
100
AcDbLine
 10
1760.0
 20
794.0
 30
0.0
 11
1760.0
 21
1399.0
 31
0.0
  0
LINE
  5
3C6
100
AcDbEntity
  8
寸法
  6
CONTINUOUS
 62
     3
100
AcDbLine
 10
1755.0
 20
824.0
 30
0.0
 11
1760.0
 21
794.0
 31
0.0
  0
LINE
  5
3C7
100
AcDbEntity
  8
寸法
  6
CONTINUOUS
 62
     3
100
AcDbLine
 10
1760.0
 20
794.0
 30
0.0
 11
1765.0
 21
824.0
 31
0.0
  0
LINE
  5
3C8
100
AcDbEntity
  8
寸法
  6
CONTINUOUS
 62
     3
100
AcDbLine
 10
1765.0
 20
1369.0
 30
0.0
 11
1760.0
 21
1399.0
 31
0.0
  0
LINE
  5
3C9
100
AcDbEntity
  8
寸法
  6
CONTINUOUS
 62
     3
100
AcDbLine
 10
1760.0
 20
1399.0
 30
0.0
 11
1755.0
 21
1369.0
 31
0.0
  0
TEXT
  5
3CA
100
AcDbEntity
  8
寸法
  6
CONTINUOUS
 62
     2
100
AcDbText
 10
1756.5
 20
915.9
 30
0.0
 40
40.0
  1
605（キャビネット壁固定）
 50
90.0
 41
0.84
  7
EXCADSTD
 72
     1
 11
1756.5
 21
1096.5
 31
0.0
100
AcDbText
  0
ENDBLK
  5
3CB
100
AcDbEntity
  8
0
100
AcDbBlockEnd
  0
BLOCK
  5
3D0
100
AcDbEntity
  8
0
100
AcDbBlockBegin
  2
*D25
 70
    65
 10
0.0
 20
0.0
 30
0.0
  3
*D25
  1

  0
LINE
  5
3D1
100
AcDbEntity
  8
寸法
  6
CONTINUOUS
 62
     3
100
AcDbLine
 10
1547.0
 20
794.0
 30
0.0
 11
1630.0
 21
794.0
 31
0.0
  0
LINE
  5
3D2
100
AcDbEntity
  8
寸法
  6
CONTINUOUS
 62
     3
100
AcDbLine
 10
1577.0
 20
1234.0
 30
0.0
 11
1630.0
 21
1234.0
 31
0.0
  0
LINE
  5
3D3
100
AcDbEntity
  8
寸法
  6
CONTINUOUS
 62
     3
100
AcDbLine
 10
1620.0
 20
794.0
 30
0.0
 11
1620.0
 21
1234.0
 31
0.0
  0
LINE
  5
3D4
100
AcDbEntity
  8
寸法
  6
CONTINUOUS
 62
     3
100
AcDbLine
 10
1615.0
 20
824.0
 30
0.0
 11
1620.0
 21
794.0
 31
0.0
  0
LINE
  5
3D5
100
AcDbEntity
  8
寸法
  6
CONTINUOUS
 62
     3
100
AcDbLine
 10
1620.0
 20
794.0
 30
0.0
 11
1625.0
 21
824.0
 31
0.0
  0
LINE
  5
3D6
100
AcDbEntity
  8
寸法
  6
CONTINUOUS
 62
     3
100
AcDbLine
 10
1625.0
 20
1204.0
 30
0.0
 11
1620.0
 21
1234.0
 31
0.0
  0
LINE
  5
3D7
100
AcDbEntity
  8
寸法
  6
CONTINUOUS
 62
     3
100
AcDbLine
 10
1620.0
 20
1234.0
 30
0.0
 11
1615.0
 21
1204.0
 31
0.0
  0
TEXT
  5
3D8
100
AcDbEntity
  8
寸法
  6
CONTINUOUS
 62
     2
100
AcDbText
 10
1616.5
 20
871.2
 30
0.0
 40
40.0
  1
440±10（壁排水）
 50
90.0
 41
0.84
  7
EXCADSTD
 72
     1
 11
1616.5
 21
1014.0
 31
0.0
100
AcDbText
  0
ENDBLK
  5
3D9
100
AcDbEntity
  8
0
100
AcDbBlockEnd
  0
BLOCK
  5
3DC
100
AcDbEntity
  8
0
100
AcDbBlockBegin
  2
*D26
 70
    65
 10
0.0
 20
0.0
 30
0.0
  3
*D26
  1

  0
LINE
  5
3DD
100
AcDbEntity
  8
寸法
  6
CONTINUOUS
 62
     3
100
AcDbLine
 10
1480.0
 20
757.0
 30
0.0
 11
1480.0
 21
704.0
 31
0.0
  0
LINE
  5
3DE
100
AcDbEntity
  8
寸法
  6
CONTINUOUS
 62
     3
100
AcDbLine
 10
1540.0
 20
787.0
 30
0.0
 11
1540.0
 21
704.0
 31
0.0
  0
TEXT
  5
3DF
100
AcDbEntity
  8
寸法
  6
CONTINUOUS
 62
     2
100
AcDbText
 10
1597.2
 20
717.5
 30
0.0
 40
40.0
  1
60±10（床給排水）
 41
0.84
  7
EXCADSTD
 72
     1
 11
1740.0
 21
717.5
 31
0.0
100
AcDbText
  0
LINE
  5
3E0
100
AcDbEntity
  8
寸法
  6
CONTINUOUS
 62
     3
100
AcDbLine
 10
1450.0
 20
714.0
 30
0.0
 11
1913.499985
 21
714.0
 31
0.0
  0
LINE
  5
3E1
100
AcDbEntity
  8
寸法
  6
CONTINUOUS
 62
     3
100
AcDbLine
 10
1450.0
 20
709.0
 30
0.0
 11
1480.0
 21
714.0
 31
0.0
  0
LINE
  5
3E2
100
AcDbEntity
  8
寸法
  6
CONTINUOUS
 62
     3
100
AcDbLine
 10
1480.0
 20
714.0
 30
0.0
 11
1450.0
 21
719.0
 31
0.0
  0
LINE
  5
3E3
100
AcDbEntity
  8
寸法
  6
CONTINUOUS
 62
     3
100
AcDbLine
 10
1570.0
 20
719.0
 30
0.0
 11
1540.0
 21
714.0
 31
0.0
  0
LINE
  5
3E4
100
AcDbEntity
  8
寸法
  6
CONTINUOUS
 62
     3
100
AcDbLine
 10
1540.0
 20
714.0
 30
0.0
 11
1570.0
 21
709.0
 31
0.0
  0
ENDBLK
  5
3E5
100
AcDbEntity
  8
0
100
AcDbBlockEnd
  0
BLOCK
  5
3E8
100
AcDbEntity
  8
0
100
AcDbBlockBegin
  2
*D27
 70
    65
 10
0.0
 20
0.0
 30
0.0
  3
*D27
  1

  0
LINE
  5
3E9
100
AcDbEntity
  8
寸法
  6
CONTINUOUS
 62
     3
100
AcDbLine
 10
1562.0
 20
1299.0
 30
0.0
 11
1700.0
 21
1299.0
 31
0.0
  0
LINE
  5
3EA
100
AcDbEntity
  8
寸法
  6
CONTINUOUS
 62
     3
100
AcDbLine
 10
1690.0
 20
1299.0
 30
0.0
 11
1690.0
 21
794.0
 31
0.0
  0
LINE
  5
3EB
100
AcDbEntity
  8
寸法
  6
CONTINUOUS
 62
     3
100
AcDbLine
 10
1695.0
 20
1269.0
 30
0.0
 11
1690.0
 21
1299.0
 31
0.0
  0
LINE
  5
3EC
100
AcDbEntity
  8
寸法
  6
CONTINUOUS
 62
     3
100
AcDbLine
 10
1690.0
 20
1299.0
 30
0.0
 11
1685.0
 21
1269.0
 31
0.0
  0
LINE
  5
3ED
100
AcDbEntity
  8
寸法
  6
CONTINUOUS
 62
     3
100
AcDbLine
 10
1685.0
 20
824.0
 30
0.0
 11
1690.0
 21
794.0
 31
0.0
  0
LINE
  5
3EE
100
AcDbEntity
  8
寸法
  6
CONTINUOUS
 62
     3
100
AcDbLine
 10
1690.0
 20
794.0
 30
0.0
 11
1695.0
 21
824.0
 31
0.0
  0
TEXT
  5
3EF
100
AcDbEntity
  8
寸法
  6
CONTINUOUS
 62
     2
100
AcDbText
 10
1686.5
 20
903.7
 30
0.0
 40
40.0
  1
505±10（壁給水）
 50
90.0
 41
0.84
  7
EXCADSTD
 72
     1
 11
1686.5
 21
1046.5
 31
0.0
100
AcDbText
  0
ENDBLK
  5
3F0
100
AcDbEntity
  8
0
100
AcDbBlockEnd
  0
ENDSEC
  0
SECTION
  2
ENTITIES
  0
LINE
  5
84
100
AcDbEntity
  8
枠・表
  6
CONTINUOUS
 62
     7
100
AcDbLine
 10
180.0
 20
135.0
 30
0.0
 11
2000.0
 21
135.0
 31
0.0
  0
LINE
  5
85
100
AcDbEntity
  8
枠・表
  6
CONTINUOUS
 62
     7
100
AcDbLine
 10
2000.0
 20
135.0
 30
0.0
 11
2000.0
 21
2885.0
 31
0.0
  0
LINE
  5
86
100
AcDbEntity
  8
枠・表
  6
CONTINUOUS
 62
     7
100
AcDbLine
 10
180.0
 20
135.0
 30
0.0
 11
180.0
 21
2885.0
 31
0.0
  0
LINE
  5
87
100
AcDbEntity
  8
枠・表
  6
CONTINUOUS
 62
     7
100
AcDbLine
 10
180.0
 20
2885.0
 30
0.0
 11
2000.0
 21
2885.0
 31
0.0
  0
LINE
  5
88
100
AcDbEntity
  8
枠・表
  6
CONTINUOUS
 62
     7
100
AcDbLine
 10
180.0
 20
355.0
 30
0.0
 11
2000.0
 21
355.0
 31
0.0
  0
LINE
  5
89
100
AcDbEntity
  8
枠・表
  6
CONTINUOUS
 62
     6
100
AcDbLine
 10
2000.0
 20
235.0
 30
0.0
 11
750.0
 21
235.0
 31
0.0
  0
LINE
  5
8A
100
AcDbEntity
  8
枠・表
  6
CONTINUOUS
 62
     6
100
AcDbLine
 10
1860.0
 20
355.0
 30
0.0
 11
1860.0
 21
235.0
 31
0.0
  0
LINE
  5
8B
100
AcDbEntity
  8
枠・表
  6
CONTINUOUS
 62
     6
100
AcDbLine
 10
1810.0
 20
355.0
 30
0.0
 11
1810.0
 21
235.0
 31
0.0
  0
LINE
  5
8C
100
AcDbEntity
  8
枠・表
  6
CONTINUOUS
 62
     6
100
AcDbLine
 10
1440.0
 20
355.0
 30
0.0
 11
1440.0
 21
135.0
 31
0.0
  0
LINE
  5
8D
100
AcDbEntity
  8
枠・表
  6
CONTINUOUS
 62
     6
100
AcDbLine
 10
1390.0
 20
355.0
 30
0.0
 11
1390.0
 21
135.0
 31
0.0
  0
LINE
  5
8E
100
AcDbEntity
  8
枠・表
  6
CONTINUOUS
 62
     6
100
AcDbLine
 10
800.0
 20
355.0
 30
0.0
 11
800.0
 21
235.0
 31
0.0
  0
LINE
  5
8F
100
AcDbEntity
  8
枠・表
  6
CONTINUOUS
 62
     6
100
AcDbLine
 10
750.0
 20
355.0
 30
0.0
 11
750.0
 21
135.0
 31
0.0
  0
LINE
  5
90
100
AcDbEntity
  8
枠・表
  6
CONTINUOUS
 62
     6
100
AcDbLine
 10
620.0
 20
355.0
 30
0.0
 11
620.0
 21
135.0
 31
0.0
  0
LINE
  5
91
100
AcDbEntity
  8
枠・表
  6
CONTINUOUS
 62
     6
100
AcDbLine
 10
490.0
 20
355.0
 30
0.0
 11
490.0
 21
135.0
 31
0.0
  0
LINE
  5
92
100
AcDbEntity
  8
枠・表
  6
CONTINUOUS
 62
     6
100
AcDbLine
 10
335.0
 20
355.0
 30
0.0
 11
335.0
 21
135.0
 31
0.0
  0
LINE
  5
93
100
AcDbEntity
  8
枠・表
  6
CONTINUOUS
 62
     6
100
AcDbLine
 10
180.0
 20
305.0
 30
0.0
 11
750.0
 21
305.0
 31
0.0
  0
LINE
  5
94
100
AcDbEntity
  8
枠・表
  6
CONTINUOUS
 62
     6
100
AcDbLine
 10
1892.653809
 20
258.00293
 30
0.0
 11
1969.993897
 21
336.699829
 31
0.0
  0
LINE
  5
95
100
AcDbEntity
  8
枠・表
  6
EXLTYPE2
 62
     6
100
AcDbLine
 10
180.0
 20
185.0
 30
0.0
 11
490.0
 21
185.0
 31
0.0
  0
CIRCLE
  5
96
100
AcDbEntity
  8
枠・表
  6
CONTINUOUS
 62
     6
100
AcDbCircle
 10
230.0
 20
160.0
 30
0.0
 40
1.0
  0
CIRCLE
  5
97
100
AcDbEntity
  8
枠・表
  6
CONTINUOUS
 62
     6
100
AcDbCircle
 10
280.0
 20
160.0
 30
0.0
 40
1.0
  0
CIRCLE
  5
98
100
AcDbEntity
  8
枠・表
  6
CONTINUOUS
 62
     6
100
AcDbCircle
 10
385.0
 20
160.0
 30
0.0
 40
1.0
  0
CIRCLE
  5
99
100
AcDbEntity
  8
枠・表
  6
CONTINUOUS
 62
     6
100
AcDbCircle
 10
435.0
 20
160.0
 30
0.0
 40
1.0
  0
TEXT
  5
9A
100
AcDbEntity
  8
枠・表
  6
CONTINUOUS
 62
     2
100
AcDbText
 10
1890.537109
 20
302.722778
 30
0.0
 40
30.0
  1
１
 41
0.826
  7
EXCADSTD
 72
     5
 11
1914.13711
 21
302.722778
 31
0.0
100
AcDbText
  0
TEXT
  5
9B
100
AcDbEntity
  8
枠・表
  6
CONTINUOUS
 62
     2
100
AcDbText
 10
202.5
 20
308.75
 30
0.0
 40
42.5
  1
製図
 41
1.087059
  7
EXCADSTD
 72
     5
 11
303.326
 21
308.75
 31
0.0
100
AcDbText
  0
TEXT
  5
9C
100
AcDbEntity
  8
枠・表
  6
CONTINUOUS
 62
     2
100
AcDbText
 10
357.5
 20
308.75
 30
0.0
 40
42.5
  1
写図
 41
1.087059
  7
EXCADSTD
 72
     5
 11
458.326
 21
308.75
 31
0.0
100
AcDbText
  0
TEXT
  5
9D
100
AcDbEntity
  8
枠・表
  6
CONTINUOUS
 62
     2
100
AcDbText
 10
507.5
 20
308.75
 30
0.0
 40
42.5
  1
検図
 41
0.938824
  7
EXCADSTD
 72
     5
 11
594.577
 21
308.75
 31
0.0
100
AcDbText
  0
TEXT
  5
9E
100
AcDbEntity
  8
枠・表
  6
CONTINUOUS
 62
     2
100
AcDbText
 10
637.5
 20
308.75
 30
0.0
 40
42.5
  1
承認
 41
0.938824
  7
EXCADSTD
 72
     5
 11
724.577
 21
308.75
 31
0.0
100
AcDbText
  0
TEXT
  5
9F
100
AcDbEntity
  8
枠・表
  6
CONTINUOUS
 62
     2
100
AcDbText
 10
755.75
 20
298.75
 30
0.0
 40
42.5
  1
品
 41
0.84
  7
EXCADSTD
 72
     5
 11
789.75
 21
298.75
 31
0.0
100
AcDbText
  0
TEXT
  5
A0
100
AcDbEntity
  8
枠・表
  6
CONTINUOUS
 62
     2
100
AcDbText
 10
755.75
 20
248.75
 30
0.0
 40
42.5
  1
名
 41
0.84
  7
EXCADSTD
 72
     5
 11
789.75
 21
248.75
 31
0.0
100
AcDbText
  0
TEXT
  5
A1
100
AcDbEntity
  8
枠・表
  6
CONTINUOUS
 62
     2
100
AcDbText
 10
1395.75
 20
298.75
 30
0.0
 40
42.5
  1
品
 41
0.84
  7
EXCADSTD
 72
     5
 11
1429.75
 21
298.75
 31
0.0
100
AcDbText
  0
TEXT
  5
A2
100
AcDbEntity
  8
枠・表
  6
CONTINUOUS
 62
     2
100
AcDbText
 10
1395.75
 20
248.75
 30
0.0
 40
42.5
  1
番
 41
0.84
  7
EXCADSTD
 72
     5
 11
1429.75
 21
248.75
 31
0.0
100
AcDbText
  0
TEXT
  5
A3
100
AcDbEntity
  8
枠・表
  6
CONTINUOUS
 62
     2
100
AcDbText
 10
1816.75
 20
298.75
 30
0.0
 40
42.5
  1
尺
 41
0.84
  7
EXCADSTD
 72
     5
 11
1850.75
 21
298.75
 31
0.0
100
AcDbText
  0
TEXT
  5
A4
100
AcDbEntity
  8
枠・表
  6
CONTINUOUS
 62
     2
100
AcDbText
 10
1816.75
 20
248.75
 30
0.0
 40
42.5
  1
度
 41
0.84
  7
EXCADSTD
 72
     5
 11
1850.75
 21
248.75
 31
0.0
100
AcDbText
  0
TEXT
  5
A5
100
AcDbEntity
  8
枠・表
  6
CONTINUOUS
 62
     2
100
AcDbText
 10
1395.75
 20
185.75
 30
0.0
 40
42.5
  1
図
 41
0.84
  7
EXCADSTD
 72
     5
 11
1429.75
 21
185.75
 31
0.0
100
AcDbText
  0
TEXT
  5
A6
100
AcDbEntity
  8
枠・表
  6
CONTINUOUS
 62
     2
100
AcDbText
 10
1395.75
 20
142.75
 30
0.0
 40
42.5
  1
番
 41
0.84
  7
EXCADSTD
 72
     5
 11
1429.75
 21
142.75
 31
0.0
100
AcDbText
  0
LINE
  5
A7
100
AcDbEntity
  8
枠・表
  6
CONTINUOUS
 62
     6
100
AcDbLine
 10
1250.0
 20
2710.0
 30
0.0
 11
1950.0
 21
2710.0
 31
0.0
  0
LINE
  5
A8
100
AcDbEntity
  8
枠・表
  6
CONTINUOUS
 62
     6
100
AcDbLine
 10
1250.0
 20
2655.0
 30
0.0
 11
1950.0
 21
2655.0
 31
0.0
  0
TEXT
  5
A9
100
AcDbEntity
  8
枠・表
  6
CONTINUOUS
 62
     2
100
AcDbText
 10
1630.0
 20
2717.5
 30
0.0
 40
40.0
  1
品名
 41
1.47
  7
EXCADSTD
 72
     5
 11
1758.324
 21
2717.5
 31
0.0
100
AcDbText
  0
TEXT
  5
AA
100
AcDbEntity
  8
枠・表
  6
CONTINUOUS
 62
     2
100
AcDbText
 10
1859.0
 20
2717.5
 30
0.0
 40
40.0
  1
個数
 41
0.861
  7
EXCADSTD
 72
     5
 11
1934.1612
 21
2717.5
 31
0.0
100
AcDbText
  0
TEXT
  5
AB
100
AcDbEntity
  8
枠・表
  6
CONTINUOUS
 62
     2
100
AcDbText
 10
1877.5
 20
2662.5
 30
0.0
 40
40.0
  1
１
 41
0.945
  7
EXCADSTD
 72
     5
 11
1913.5
 21
2662.5
 31
0.0
100
AcDbText
  0
TEXT
  5
AC
100
AcDbEntity
  8
枠・表
  6
CONTINUOUS
 62
     2
100
AcDbText
 10
1330.0
 20
2717.5
 30
0.0
 40
40.0
  1
品番
 41
1.47
  7
EXCADSTD
 72
     5
 11
1458.324
 21
2717.5
 31
0.0
100
AcDbText
  0
LINE
  5
AD
100
AcDbEntity
  8
枠・表
  6
CONTINUOUS
 62
     6
100
AcDbLine
 10
1250.0
 20
2765.0
 30
0.0
 11
1950.0
 21
2765.0
 31
0.0
  0
LINE
  5
AE
100
AcDbEntity
  8
枠・表
  6
CONTINUOUS
 62
     6
100
AcDbLine
 10
1250.0
 20
2600.0
 30
0.0
 11
1950.0
 21
2600.0
 31
0.0
  0
LINE
  5
AF
100
AcDbEntity
  8
枠・表
  6
CONTINUOUS
 62
     6
100
AcDbLine
 10
1250.0
 20
2545.0
 30
0.0
 11
1950.0
 21
2545.0
 31
0.0
  0
LINE
  5
B0
100
AcDbEntity
  8
枠・表
  6
CONTINUOUS
 62
     6
100
AcDbLine
 10
1250.0
 20
2545.0
 30
0.0
 11
1250.0
 21
2765.0
 31
0.0
  0
LINE
  5
B1
100
AcDbEntity
  8
枠・表
  6
CONTINUOUS
 62
     6
100
AcDbLine
 10
1550.0
 20
2545.0
 30
0.0
 11
1550.0
 21
2765.0
 31
0.0
  0
LINE
  5
B2
100
AcDbEntity
  8
枠・表
  6
CONTINUOUS
 62
     6
100
AcDbLine
 10
1850.0
 20
2545.0
 30
0.0
 11
1850.0
 21
2765.0
 31
0.0
  0
LINE
  5
B3
100
AcDbEntity
  8
枠・表
  6
CONTINUOUS
 62
     6
100
AcDbLine
 10
1950.0
 20
2545.0
 30
0.0
 11
1950.0
 21
2765.0
 31
0.0
  0
TEXT
  5
B4
100
AcDbEntity
  8
枠・表
  6
CONTINUOUS
 62
     2
100
AcDbText
 10
1560.0
 20
2607.5
 30
0.0
 40
40.0
  1
アングル形止水栓（共用形）
 41
0.436154
  7
EXCADSTD
 72
     5
 11
1830.000031
 21
2607.5
 31
0.0
100
AcDbText
  0
TEXT
  5
B5
100
AcDbEntity
  8
枠・表
  6
CONTINUOUS
 62
     2
100
AcDbText
 10
1560.0
 20
2552.5
 30
0.0
 40
40.0
  1
ストレート形止水栓（共用形）
 41
0.435
  7
EXCADSTD
 72
     5
 11
1850.0
 21
2552.5
 31
0.0
100
AcDbText
  0
TEXT
  5
B6
100
AcDbEntity
  8
枠・表
  6
CONTINUOUS
 62
     2
100
AcDbText
 10
1877.5
 20
2607.5
 30
0.0
 40
40.0
  1
１
 41
0.945
  7
EXCADSTD
 72
     5
 11
1913.5
 21
2607.5
 31
0.0
100
AcDbText
  0
TEXT
  5
B7
100
AcDbEntity
  8
枠・表
  6
CONTINUOUS
 62
     2
100
AcDbText
 10
1877.5
 20
2552.5
 30
0.0
 40
40.0
  1
１
 41
0.945
  7
EXCADSTD
 72
     5
 11
1913.5
 21
2552.5
 31
0.0
100
AcDbText
  0
TEXT
  5
B8
100
AcDbEntity
  8
枠・表
  6
CONTINUOUS
 62
     2
100
AcDbText
 10
1270.0
 20
2485.0
 30
0.0
 40
40.0
  1
※止水栓は別途
 41
0.801
  7
EXCADSTD
 72
     5
 11
1536.999999
 21
2485.0
 31
0.0
100
AcDbText
  0
TEXT
  5
B9
100
AcDbEntity
  8
枠・表
  6
CONTINUOUS
 62
     2
100
AcDbText
 10
1270.0
 20
2445.0
 30
0.0
 40
40.0
  1
※壁排水の場合、排水Ｌ管（44131）別途
 41
0.702999
  7
EXCADSTD
 72
     5
 11
1942.499998
 21
2445.0
 31
0.0
100
AcDbText
  0
TEXT
  5
BA
100
AcDbEntity
  8
枠・表
  6
CONTINUOUS
 62
     2
100
AcDbText
 10
1931.279297
 20
258.348846
 30
0.0
 40
30.0
  1
１０
 41
0.791
  7
EXCADSTD
 72
     5
 11
1983.067198
 21
258.348846
 31
0.0
100
AcDbText
  0
TEXT
  5
BB
100
AcDbEntity
  8
枠・表
  6
CONTINUOUS
 62
     2
100
AcDbText
 10
1260.0
 20
2607.5
 30
0.0
 40
40.0
  1
ＮＬ２２１Ｆ６０ＷＹ
 41
0.4998
  7
EXCADSTD
 72
     5
 11
1497.999984
 21
2607.5
 31
0.0
100
AcDbText
  0
TEXT
  5
BC
100
AcDbEntity
  8
枠・表
  6
CONTINUOUS
 62
     2
100
AcDbText
 10
1260.0
 20
2552.5
 30
0.0
 40
40.0
  1
ＮＬ２１１Ｆ４３５ＷＹ３０
 41
0.474923
  7
EXCADSTD
 72
     5
 11
1553.999991
 21
2552.5
 31
0.0
100
AcDbText
  0
TEXT
  5
BD
100
AcDbEntity
  8
枠・表
  6
CONTINUOUS
 62
     2
100
AcDbText
 10
184.5
 20
140.0
 30
0.0
 40
40.0
  1
13
 41
0.5
  7
EXCADSTD
 72
     5
 11
216.5
 21
140.0
 31
0.0
100
AcDbText
  0
TEXT
  5
BE
100
AcDbEntity
  8
枠・表
  6
CONTINUOUS
 62
     7
100
AcDbText
 10
770.0
 20
155.0
 30
0.0
 40
60.0
  1
ジャニス工業株式会社
 41
0.84
  7
EXCADSTD
 72
     5
 11
1370.0
 21
155.0
 31
0.0
100
AcDbText
  0
TEXT
  5
BF
100
AcDbEntity
  8
枠・表
  6
CONTINUOUS
 62
     2
100
AcDbText
 10
1260.0
 20
2662.5
 30
0.0
 40
40.0
  1
ＬＴＣＫ３５０１
 41
0.651
  7
EXCADSTD
 72
     5
 11
1507.999995
 21
2662.5
 31
0.0
100
AcDbText
  0
TEXT
  5
C0
100
AcDbEntity
  8
枠・表
  6
CONTINUOUS
 62
     2
100
AcDbText
 10
961.000001
 20
265.0
 30
0.0
 40
60.0
  1
手洗キャビ
 41
0.7504
  7
EXCADSTD
 72
     5
 11
1228.999999
 21
265.0
 31
0.0
100
AcDbText
  0
TEXT
  5
C1
100
AcDbEntity
  8
枠・表
  6
CONTINUOUS
 62
     2
100
AcDbText
 10
1469.0
 20
270.0
 30
0.0
 40
50.0
  1
ＬＴＣＫ３５０１
 41
0.5838
  7
EXCADSTD
 72
     5
 11
1746.999998
 21
270.0
 31
0.0
100
AcDbText
  0
TEXT
  5
C2
100
AcDbEntity
  8
枠・表
  6
CONTINUOUS
 62
     2
100
AcDbText
 10
1560.0
 20
2662.5
 30
0.0
 40
40.0
  1
手洗キャビ
 41
0.63
  7
EXCADSTD
 72
     5
 11
1709.999998
 21
2662.5
 31
0.0
100
AcDbText
  0
TEXT
  5
C3
100
AcDbEntity
  8
枠・表
  6
CONTINUOUS
 62
     2
100
AcDbText
 10
243.75
 20
140.0
 30
0.0
 40
40.0
  1
9
 41
0.5625
  7
EXCADSTD
 72
     5
 11
258.375
 21
140.0
 31
0.0
100
AcDbText
  0
TEXT
  5
C4
100
AcDbEntity
  8
枠・表
  6
CONTINUOUS
 62
     2
100
AcDbText
 10
288.0
 20
140.0
 30
0.0
 40
40.0
  1
17
 41
0.5
  7
EXCADSTD
 72
     5
 11
320.0
 21
140.0
 31
0.0
100
AcDbText
  0
TEXT
  5
C5
100
AcDbEntity
  8
枠・表
  6
CONTINUOUS
 62
     2
100
AcDbText
 10
207.5
 20
220.0
 30
0.0
 40
50.0
  1
中村
 41
0.882
  7
EXCADSTD
 72
     5
 11
303.743
 21
220.0
 31
0.0
100
AcDbText
  0
TEXT
  5
C6
100
AcDbEntity
  8
枠・表
  6
CONTINUOUS
 62
     7
100
AcDbText
 10
1452.000002
 20
151.5
 30
0.0
 40
70.0
  1
ＬＵ７１７５３０
 41
0.804
  7
EXCADSTD
 72
     5
 11
1987.999998
 21
151.5
 31
0.0
100
AcDbText
  0
POLYLINE
  5
C7
100
AcDbEntity
  8
図
  6
CONTINUOUS
 62
     3
100
AcDb2dPolyline
 66
     1
 10
0.0
 20
0.0
 30
0.0
 70
   128
  0
VERTEX
  5
C8
100
AcDbEntity
  8
図
  6
CONTINUOUS
 62
     3
100
AcDbVertex
100
AcDb2dVertex
 10
1343.00001
 20
794.0
 30
0.0
  0
VERTEX
  5
C9
100
AcDbEntity
  8
図
  6
CONTINUOUS
 62
     3
100
AcDbVertex
100
AcDb2dVertex
 10
1324.00001
 20
843.0
 30
0.0
  0
SEQEND
  5
CA
100
AcDbEntity
  8
図
  6
CONTINUOUS
 62
     3
  0
LINE
  5
CB
100
AcDbEntity
  8
図
  6
CONTINUOUS
 62
     3
100
AcDbLine
 10
1327.492368
 20
820.1632
 30
0.0
 11
1343.00001
 21
794.0
 31
0.0
  0
LINE
  5
CC
100
AcDbEntity
  8
図
  6
CONTINUOUS
 62
     3
100
AcDbLine
 10
1343.00001
 20
794.0
 30
0.0
 11
1336.815981
 21
823.778479
 31
0.0
  0
LINE
  5
CD
100
AcDbEntity
  8
図
  6
CONTINUOUS
 62
     2
100
AcDbLine
 10
577.0
 20
914.0
 30
0.0
 11
903.0
 21
914.0
 31
0.0
  0
LINE
  5
CE
100
AcDbEntity
  8
図
  6
CONTINUOUS
 62
     2
100
AcDbLine
 10
575.0
 20
794.0
 30
0.0
 11
905.0
 21
794.0
 31
0.0
  0
LINE
  5
CF
100
AcDbEntity
  8
図
  6
CONTINUOUS
 62
     6
100
AcDbLine
 10
684.0
 20
764.0
 30
0.0
 11
716.0
 21
764.0
 31
0.0
  0
LINE
  5
D0
100
AcDbEntity
  8
図
  6
CONTINUOUS
 62
     6
100
AcDbLine
 10
825.0
 20
787.0
 30
0.0
 11
845.0
 21
787.0
 31
0.0
  0
LINE
  5
D1
100
AcDbEntity
  8
図
  6
CONTINUOUS
 62
     6
100
AcDbLine
 10
684.0
 20
898.0
 30
0.0
 11
684.0
 21
764.0
 31
0.0
  0
LINE
  5
D2
100
AcDbEntity
  8
図
  6
EXLTYPE3
 62
     6
100
AcDbLine
 10
700.0
 20
898.0
 30
0.0
 11
700.0
 21
754.0
 31
0.0
  0
LINE
  5
D3
100
AcDbEntity
  8
図
  6
CONTINUOUS
 62
     6
100
AcDbLine
 10
716.0
 20
898.0
 30
0.0
 11
716.0
 21
764.0
 31
0.0
  0
LINE
  5
D4
100
AcDbEntity
  8
図
  6
CONTINUOUS
 62
     6
100
AcDbLine
 10
825.0
 20
787.0
 30
0.0
 11
825.0
 21
898.0
 31
0.0
  0
LINE
  5
D5
100
AcDbEntity
  8
図
  6
EXLTYPE3
 62
     6
100
AcDbLine
 10
835.0
 20
898.0
 30
0.0
 11
835.0
 21
777.0
 31
0.0
  0
LINE
  5
D6
100
AcDbEntity
  8
図
  6
CONTINUOUS
 62
     6
100
AcDbLine
 10
845.0
 20
787.0
 30
0.0
 11
845.0
 21
898.0
 31
0.0
  0
LINE
  5
D7
100
AcDbEntity
  8
図
  6
CONTINUOUS
 62
     2
100
AcDbLine
 10
1405.0
 20
914.0
 30
0.0
 11
1390.0
 21
914.0
 31
0.0
  0
LINE
  5
D8
100
AcDbEntity
  8
図
  6
CONTINUOUS
 62
     2
100
AcDbLine
 10
1407.0
 20
924.0
 30
0.0
 11
1427.0
 21
924.0
 31
0.0
  0
LINE
  5
D9
100
AcDbEntity
  8
図
  6
CONTINUOUS
 62
     2
100
AcDbLine
 10
1412.0
 20
794.0
 30
0.0
 11
1540.0
 21
794.0
 31
0.0
  0
LINE
  5
DA
100
AcDbEntity
  8
図
  6
CONTINUOUS
 62
     2
100
AcDbLine
 10
1412.0
 20
924.0
 30
0.0
 11
1412.0
 21
794.0
 31
0.0
  0
LINE
  5
DB
100
AcDbEntity
  8
図
  6
CONTINUOUS
 62
     2
100
AcDbLine
 10
1427.0
 20
924.0
 30
0.0
 11
1427.0
 21
794.0
 31
0.0
  0
LINE
  5
DC
100
AcDbEntity
  8
図
  6
EXLTYPE3
 62
     6
100
AcDbLine
 10
1480.0
 20
1010.0
 30
0.0
 11
1480.0
 21
754.0
 31
0.0
  0
LINE
  5
DD
100
AcDbEntity
  8
図
  6
CONTINUOUS
 62
     6
100
AcDbLine
 10
1464.0
 20
764.0
 30
0.0
 11
1496.0
 21
764.0
 31
0.0
  0
LINE
  5
DE
100
AcDbEntity
  8
図
  6
CONTINUOUS
 62
     6
100
AcDbLine
 10
1464.0
 20
1010.0
 30
0.0
 11
1464.0
 21
764.0
 31
0.0
  0
LINE
  5
DF
100
AcDbEntity
  8
図
  6
CONTINUOUS
 62
     6
100
AcDbLine
 10
1496.0
 20
1010.0
 30
0.0
 11
1496.0
 21
764.0
 31
0.0
  0
LINE
  5
E0
100
AcDbEntity
  8
図
  6
CONTINUOUS
 62
     6
100
AcDbLine
 10
1470.0
 20
787.0
 30
0.0
 11
1490.0
 21
787.0
 31
0.0
  0
LINE
  5
E1
100
AcDbEntity
  8
図
  6
CONTINUOUS
 62
     6
100
AcDbLine
 10
1470.0
 20
787.0
 30
0.0
 11
1470.0
 21
1010.0
 31
0.0
  0
LINE
  5
E2
100
AcDbEntity
  8
図
  6
CONTINUOUS
 62
     6
100
AcDbLine
 10
1490.0
 20
787.0
 30
0.0
 11
1490.0
 21
1010.0
 31
0.0
  0
CIRCLE
  5
E3
100
AcDbEntity
  8
図
  6
CONTINUOUS
 62
     2
100
AcDbCircle
 10
715.0
 20
2315.0
 30
0.0
 40
30.5
  0
CIRCLE
  5
E4
100
AcDbEntity
  8
図
  6
CONTINUOUS
 62
     2
100
AcDbCircle
 10
715.0
 20
2315.0
 30
0.0
 40
20.5
  0
LINE
  5
E5
100
AcDbEntity
  8
図
  6
CONTINUOUS
 62
     2
100
AcDbLine
 10
635.0
 20
2349.631825
 30
0.0
 11
635.0
 21
2265.0
 31
0.0
  0
ARC
  5
E6
100
AcDbEntity
  8
図
  6
CONTINUOUS
 62
     2
100
AcDbCircle
 10
645.0
 20
2349.631825
 30
0.0
 40
10.0
100
AcDbArc
 50
90.0
 51
180.0
  0
LINE
  5
E7
100
AcDbEntity
  8
図
  6
CONTINUOUS
 62
     2
100
AcDbLine
 10
755.0
 20
2359.631825
 30
0.0
 11
645.0
 21
2359.631825
 31
0.0
  0
ARC
  5
E8
100
AcDbEntity
  8
図
  6
CONTINUOUS
 62
     2
100
AcDbCircle
 10
755.0
 20
2349.631825
 30
0.0
 40
10.0
100
AcDbArc
 50
0.0
 51
90.0
  0
ARC
  5
E9
100
AcDbEntity
  8
図
  6
CONTINUOUS
 62
     2
100
AcDbCircle
 10
755.0
 20
2265.0
 30
0.0
 40
10.0
100
AcDbArc
 50
270.0
 51
0.0
  0
LINE
  5
EA
100
AcDbEntity
  8
図
  6
CONTINUOUS
 62
     2
100
AcDbLine
 10
755.0
 20
2255.0
 30
0.0
 11
645.0
 21
2255.0
 31
0.0
  0
ARC
  5
EB
100
AcDbEntity
  8
図
  6
CONTINUOUS
 62
     2
100
AcDbCircle
 10
645.0
 20
2265.0
 30
0.0
 40
10.0
100
AcDbArc
 50
180.0
 51
270.0
  0
LINE
  5
EC
100
AcDbEntity
  8
図
  6
CONTINUOUS
 62
     2
100
AcDbLine
 10
564.0
 20
2374.0
 30
0.0
 11
564.0
 21
2390.0
 31
0.0
  0
ARC
  5
ED
100
AcDbEntity
  8
図
  6
CONTINUOUS
 62
     2
100
AcDbCircle
 10
566.5
 20
2374.0
 30
0.0
 40
4.0
100
AcDbArc
 50
180.0
 51
270.0
  0
ARC
  5
EE
100
AcDbEntity
  8
図
  6
CONTINUOUS
 62
     2
100
AcDbCircle
 10
568.0
 20
2374.0
 30
0.0
 40
4.0
100
AcDbArc
 50
180.0
 51
270.0
  0
LINE
  5
EF
100
AcDbEntity
  8
図
  6
CONTINUOUS
 62
     2
100
AcDbLine
 10
562.5
 20
2390.0
 30
0.0
 11
917.5
 21
2390.0
 31
0.0
  0
LINE
  5
F0
100
AcDbEntity
  8
図
  6
CONTINUOUS
 62
     2
100
AcDbLine
 10
916.0
 20
2374.0
 30
0.0
 11
916.0
 21
2390.0
 31
0.0
  0
ARC
  5
F1
100
AcDbEntity
  8
図
  6
CONTINUOUS
 62
     2
100
AcDbCircle
 10
913.5
 20
2374.0
 30
0.0
 40
4.0
100
AcDbArc
 50
270.0
 51
0.0
  0
ARC
  5
F2
100
AcDbEntity
  8
図
  6
CONTINUOUS
 62
     2
100
AcDbCircle
 10
912.0
 20
2374.0
 30
0.0
 40
4.0
100
AcDbArc
 50
270.0
 51
0.0
  0
LINE
  5
F3
100
AcDbEntity
  8
図
  6
CONTINUOUS
 62
     2
100
AcDbLine
 10
566.5
 20
2370.0
 30
0.0
 11
913.5
 21
2370.0
 31
0.0
  0
LINE
  5
F4
100
AcDbEntity
  8
図
  6
CONTINUOUS
 62
     2
100
AcDbLine
 10
562.5
 20
2390.0
 30
0.0
 11
562.5
 21
2218.117584
 31
0.0
  0
LINE
  5
F5
100
AcDbEntity
  8
図
  6
CONTINUOUS
 62
     2
100
AcDbLine
 10
917.5
 20
2390.0
 30
0.0
 11
917.5
 21
2218.117584
 31
0.0
  0
ARC
  5
F6
100
AcDbEntity
  8
図
  6
CONTINUOUS
 62
     2
100
AcDbCircle
 10
580.5
 20
2355.804391
 30
0.0
 40
10.0
100
AcDbArc
 50
90.0
 51
180.0
  0
LINE
  5
F7
100
AcDbEntity
  8
図
  6
CONTINUOUS
 62
     2
100
AcDbLine
 10
570.5
 20
2355.804391
 30
0.0
 11
570.5
 21
2218.117584
 31
0.0
  0
ARC
  5
F8
100
AcDbEntity
  8
図
  6
CONTINUOUS
 62
     2
100
AcDbCircle
 10
582.5
 20
2218.117584
 30
0.0
 40
12.0
100
AcDbArc
 50
180.0
 51
267.73205
  0
ARC
  5
F9
100
AcDbEntity
  8
図
  6
CONTINUOUS
 62
     2
100
AcDbCircle
 10
582.5
 20
2218.117584
 30
0.0
 40
20.0
100
AcDbArc
 50
180.0
 51
267.73205
  0
ARC
  5
FA
100
AcDbEntity
  8
図
  6
CONTINUOUS
 62
     2
100
AcDbCircle
 10
740.0
 20
6195.0
 30
0.0
 40
3992.0
100
AcDbArc
 50
267.73205
 51
272.26795
  0
ARC
  5
FB
100
AcDbEntity
  8
図
  6
CONTINUOUS
 62
     2
100
AcDbCircle
 10
740.0
 20
6195.0
 30
0.0
 40
4000.0
100
AcDbArc
 50
267.73205
 51
272.26795
  0
ARC
  5
FC
100
AcDbEntity
  8
図
  6
CONTINUOUS
 62
     2
100
AcDbCircle
 10
897.5
 20
2218.117584
 30
0.0
 40
12.0
100
AcDbArc
 50
272.26795
 51
0.0
  0
ARC
  5
FD
100
AcDbEntity
  8
図
  6
CONTINUOUS
 62
     2
100
AcDbCircle
 10
897.5
 20
2218.117584
 30
0.0
 40
20.0
100
AcDbArc
 50
272.26795
 51
0.0
  0
ARC
  5
FE
100
AcDbEntity
  8
図
  6
CONTINUOUS
 62
     2
100
AcDbCircle
 10
801.0
 20
2213.467255
 30
0.0
 40
10.0
100
AcDbArc
 50
270.877745
 51
0.0
  0
ARC
  5
FF
100
AcDbEntity
  8
図
  6
CONTINUOUS
 62
     2
100
AcDbCircle
 10
801.0
 20
2355.804391
 30
0.0
 40
10.0
100
AcDbArc
 50
0.0
 51
90.0
  0
ARC
  5
100
100
AcDbEntity
  8
図
  6
CONTINUOUS
 62
     2
100
AcDbCircle
 10
899.5
 20
2355.804391
 30
0.0
 40
10.0
100
AcDbArc
 50
0.0
 51
90.0
  0
LINE
  5
101
100
AcDbEntity
  8
図
  6
CONTINUOUS
 62
     2
100
AcDbLine
 10
909.5
 20
2355.804391
 30
0.0
 11
909.5
 21
2218.117584
 31
0.0
  0
LINE
  5
102
100
AcDbEntity
  8
図
  6
EXLTYPE3
 62
     6
100
AcDbLine
 10
667.0
 20
2315.0
 30
0.0
 11
926.0
 21
2315.0
 31
0.0
  0
LINE
  5
103
100
AcDbEntity
  8
図
  6
EXLTYPE3
 62
     6
100
AcDbLine
 10
715.0
 20
2359.631825
 30
0.0
 11
715.0
 21
2255.0
 31
0.0
  0
LINE
  5
104
100
AcDbEntity
  8
図
  6
EXLTYPE3
 62
     6
100
AcDbLine
 10
740.0
 20
2401.77232
 30
0.0
 11
740.0
 21
2181.0
 31
0.0
  0
LINE
  5
105
100
AcDbEntity
  8
図
  6
CONTINUOUS
 62
     6
100
AcDbLine
 10
570.5
 20
2218.117584
 30
0.0
 11
635.0
 21
2265.0
 31
0.0
  0
LINE
  5
106
100
AcDbEntity
  8
図
  6
CONTINUOUS
 62
     6
100
AcDbLine
 10
582.025126
 20
2206.126984
 30
0.0
 11
645.0
 21
2255.0
 31
0.0
  0
LINE
  5
107
100
AcDbEntity
  8
図
  6
CONTINUOUS
 62
     6
100
AcDbLine
 10
811.0
 20
2213.467255
 30
0.0
 11
765.0
 21
2265.0
 31
0.0
  0
LINE
  5
108
100
AcDbEntity
  8
図
  6
CONTINUOUS
 62
     6
100
AcDbLine
 10
755.0
 20
2255.0
 30
0.0
 11
801.153189
 21
2203.468428
 31
0.0
  0
LINE
  5
109
100
AcDbEntity
  8
図
  6
CONTINUOUS
 62
     6
100
AcDbLine
 10
811.0
 20
2355.804391
 30
0.0
 11
765.0
 21
2349.631825
 31
0.0
  0
LINE
  5
10A
100
AcDbEntity
  8
図
  6
CONTINUOUS
 62
     6
100
AcDbLine
 10
755.0
 20
2359.631825
 30
0.0
 11
801.0
 21
2365.804391
 31
0.0
  0
LINE
  5
10B
100
AcDbEntity
  8
図
  6
CONTINUOUS
 62
     6
100
AcDbLine
 10
570.5
 20
2355.804391
 30
0.0
 11
635.0
 21
2349.631825
 31
0.0
  0
LINE
  5
10C
100
AcDbEntity
  8
図
  6
CONTINUOUS
 62
     6
100
AcDbLine
 10
580.5
 20
2365.804391
 30
0.0
 11
645.0
 21
2359.631825
 31
0.0
  0
TEXT
  5
10D
100
AcDbEntity
  8
図
  6
CONTINUOUS
 62
     2
100
AcDbText
 10
1250.50001
 20
794.0
 30
0.0
 40
40.0
  1
F.L.
 41
0.4125
  7
EXCADSTD
 72
     5
 11
1310.99561
 21
794.0
 31
0.0
100
AcDbText
  0
LINE
  5
10E
100
AcDbEntity
  8
図
  6
EXLTYPE4
 62
     6
100
AcDbLine
 10
1241.0
 20
794.0
 30
0.0
 11
1540.0
 21
794.0
 31
0.0
  0
LINE
  5
10F
100
AcDbEntity
  8
図
  6
EXLTYPE4
 62
     6
100
AcDbLine
 10
1188.0
 20
2390.0
 30
0.0
 11
454.0
 21
2390.0
 31
0.0
  0
LINE
  5
110
100
AcDbEntity
  8
図
  6
EXLTYPE4
 62
     6
100
AcDbLine
 10
454.0
 20
794.0
 30
0.0
 11
1148.0
 21
794.0
 31
0.0
  0
LINE
  5
111
100
AcDbEntity
  8
図
  6
CONTINUOUS
 62
     2
100
AcDbLine
 10
765.0
 20
2265.0
 30
0.0
 11
765.0
 21
2305.5
 31
0.0
  0
LINE
  5
112
100
AcDbEntity
  8
図
  6
CONTINUOUS
 62
     2
100
AcDbLine
 10
765.0
 20
2324.5
 30
0.0
 11
765.0
 21
2349.631825
 31
0.0
  0
LINE
  5
113
100
AcDbEntity
  8
図
  6
EXLTYPE3
 62
     6
100
AcDbLine
 10
852.0
 20
2279.0
 30
0.0
 11
852.0
 21
2344.9
 31
0.0
  0
LINE
  5
114
100
AcDbEntity
  8
図
  6
CONTINUOUS
 62
     6
100
AcDbLine
 10
848.55242
 20
2292.808292
 30
0.0
 11
815.516703
 21
2298.188491
 31
0.0
  0
ARC
  5
115
100
AcDbEntity
  8
図
  6
CONTINUOUS
 62
     6
100
AcDbCircle
 10
792.71315
 20
2321.6
 30
0.0
 40
1.419022
100
AcDbArc
 50
219.906099
 51
336.434739
  0
ARC
  5
116
100
AcDbEntity
  8
図
  6
CONTINUOUS
 62
     6
100
AcDbCircle
 10
792.71315
 20
2308.4
 30
0.0
 40
1.419022
100
AcDbArc
 50
23.565261
 51
140.093901
  0
ELLIPSE
  5
117
100
AcDbEntity
  8
図
  6
CONTINUOUS
 62
     6
100
AcDbEllipse
 10
807.844955
 20
2315.0
 30
0.0
 11
0.0000000000000009
 21
15.500000000000009
 31
0.0
210
0.0
220
0.0
230
1.0
 40
0.967858
 41
1.9702661805466022
 42
1.1713264730432327
  0
ELLIPSE
  5
118
100
AcDbEntity
  8
図
  6
CONTINUOUS
 62
     6
100
AcDbEllipse
 10
785.983558
 20
2315.0
 30
0.0
 11
0.0000000000000006
 21
10.0
 31
0.0
210
0.0
220
0.0
230
1.0
 40
0.685959
 41
5.3176360755095917
 42
4.1071418852597521
  0
LINE
  5
119
100
AcDbEntity
  8
図
  6
CONTINUOUS
 62
     6
100
AcDbLine
 10
785.983558
 20
2325.0
 30
0.0
 11
796.38288
 21
2325.0
 31
0.0
  0
LINE
  5
11A
100
AcDbEntity
  8
図
  6
CONTINUOUS
 62
     6
100
AcDbLine
 10
785.983558
 20
2305.0
 30
0.0
 11
796.38288
 21
2305.0
 31
0.0
  0
LINE
  5
11B
100
AcDbEntity
  8
図
  6
CONTINUOUS
 62
     6
100
AcDbLine
 10
815.683995
 20
2331.838962
 30
0.0
 11
805.688745
 21
2330.339062
 31
0.0
  0
ELLIPSE
  5
11C
100
AcDbEntity
  8
図
  6
CONTINUOUS
 62
     6
100
AcDbEllipse
 10
817.798027
 20
2315.0
 30
0.0
 11
-0.0000000000000103
 21
16.996839464599816
 31
0.0
210
0.0
220
0.0
230
1.0
 40
0.914669
 41
3.0061989202155814
 42
0.1364040368357887
  0
LINE
  5
11D
100
AcDbEntity
  8
図
  6
CONTINUOUS
 62
     6
100
AcDbLine
 10
848.55242
 20
2337.191708
 30
0.0
 11
815.516703
 21
2331.811509
 31
0.0
  0
ELLIPSE
  5
11E
100
AcDbEntity
  8
図
  6
CONTINUOUS
 62
     6
100
AcDbEllipse
 10
852.0
 20
2315.0
 30
0.0
 11
-0.0000000000000136
 21
22.47069124129985
 31
0.0
210
0.0
220
0.0
230
1.0
 40
0.976685
 41
2.9844131635980702
 42
0.1577414859812738
  0
LINE
  5
11F
100
AcDbEntity
  8
図
  6
CONTINUOUS
 62
     6
100
AcDbLine
 10
815.683995
 20
2298.161038
 30
0.0
 11
805.688745
 21
2299.660938
 31
0.0
  0
LINE
  5
120
100
AcDbEntity
  8
図
  6
CONTINUOUS
 62
     6
100
AcDbLine
 10
815.454087
 20
2298.195538
 30
0.0
 11
815.515915
 21
2298.184195
 31
0.0
  0
LINE
  5
121
100
AcDbEntity
  8
図
  6
CONTINUOUS
 62
     6
100
AcDbLine
 10
770.674718
 20
2301.0
 30
0.0
 11
801.406696
 21
2301.0
 31
0.0
  0
ELLIPSE
  5
122
100
AcDbEntity
  8
図
  6
CONTINUOUS
 62
     6
100
AcDbEllipse
 10
770.674718
 20
2315.0
 30
0.0
 11
-0.2234164830233683
 21
13.998217182395523
 31
0.0
210
0.0
220
0.0
230
1.0
 40
0.585714
 41
6.255955351618355
 42
3.1143626982380859
  0
LINE
  5
123
100
AcDbEntity
  8
図
  6
CONTINUOUS
 62
     6
100
AcDbLine
 10
770.674718
 20
2329.0
 30
0.0
 11
801.406696
 21
2329.0
 31
0.0
  0
LINE
  5
124
100
AcDbEntity
  8
図
  6
CONTINUOUS
 62
     2
100
AcDbLine
 10
811.0
 20
2331.136076
 30
0.0
 11
811.0
 21
2355.804391
 31
0.0
  0
LINE
  5
125
100
AcDbEntity
  8
図
  6
CONTINUOUS
 62
     2
100
AcDbLine
 10
811.0
 20
2213.467255
 30
0.0
 11
811.0
 21
2298.863924
 31
0.0
  0
LINE
  5
126
100
AcDbEntity
  8
図
  6
EXLTYPE3
 62
     6
100
AcDbLine
 10
740.0
 20
1694.5
 30
0.0
 11
740.0
 21
794.0
 31
0.0
  0
LINE
  5
127
100
AcDbEntity
  8
図
  6
CONTINUOUS
 62
     2
100
AcDbLine
 10
577.0
 20
1470.0
 30
0.0
 11
577.0
 21
914.0
 31
0.0
  0
LINE
  5
128
100
AcDbEntity
  8
図
  6
CONTINUOUS
 62
     2
100
AcDbLine
 10
577.0
 20
1470.0
 30
0.0
 11
903.0
 21
1470.0
 31
0.0
  0
LINE
  5
129
100
AcDbEntity
  8
図
  6
CONTINUOUS
 62
     2
100
AcDbLine
 10
903.0
 20
914.0
 30
0.0
 11
903.0
 21
1470.0
 31
0.0
  0
LINE
  5
12A
100
AcDbEntity
  8
図
  6
CONTINUOUS
 62
     2
100
AcDbLine
 10
575.0
 20
794.0
 30
0.0
 11
575.0
 21
1474.0
 31
0.0
  0
LINE
  5
12B
100
AcDbEntity
  8
図
  6
CONTINUOUS
 62
     2
100
AcDbLine
 10
905.0
 20
794.0
 30
0.0
 11
905.0
 21
1474.0
 31
0.0
  0
LINE
  5
12C
100
AcDbEntity
  8
図
  6
CONTINUOUS
 62
     2
100
AcDbLine
 10
871.0
 20
1436.0
 30
0.0
 11
871.0
 21
1424.0
 31
0.0
  0
LINE
  5
12D
100
AcDbEntity
  8
図
  6
CONTINUOUS
 62
     2
100
AcDbLine
 10
881.0
 20
1436.0
 30
0.0
 11
881.0
 21
1424.0
 31
0.0
  0
LINE
  5
12E
100
AcDbEntity
  8
図
  6
CONTINUOUS
 62
     2
100
AcDbLine
 10
609.0
 20
1436.0
 30
0.0
 11
609.0
 21
1424.0
 31
0.0
  0
LINE
  5
12F
100
AcDbEntity
  8
図
  6
CONTINUOUS
 62
     2
100
AcDbLine
 10
599.0
 20
1436.0
 30
0.0
 11
599.0
 21
1424.0
 31
0.0
  0
LINE
  5
130
100
AcDbEntity
  8
図
  6
CONTINUOUS
 62
     2
100
AcDbLine
 10
599.0
 20
1436.0
 30
0.0
 11
881.0
 21
1436.0
 31
0.0
  0
LINE
  5
131
100
AcDbEntity
  8
図
  6
CONTINUOUS
 62
     2
100
AcDbLine
 10
599.0
 20
1424.0
 30
0.0
 11
881.0
 21
1424.0
 31
0.0
  0
LINE
  5
132
100
AcDbEntity
  8
図
  6
CONTINUOUS
 62
     2
100
AcDbLine
 10
585.0
 20
1494.0
 30
0.0
 11
585.0
 21
1474.0
 31
0.0
  0
LINE
  5
133
100
AcDbEntity
  8
図
  6
CONTINUOUS
 62
     2
100
AcDbLine
 10
895.0
 20
1494.0
 30
0.0
 11
895.0
 21
1474.0
 31
0.0
  0
LINE
  5
134
100
AcDbEntity
  8
図
  6
CONTINUOUS
 62
     2
100
AcDbLine
 10
575.0
 20
1494.0
 30
0.0
 11
905.0
 21
1494.0
 31
0.0
  0
LINE
  5
135
100
AcDbEntity
  8
図
  6
CONTINUOUS
 62
     6
100
AcDbLine
 10
845.0
 20
1411.5
 30
0.0
 11
845.0
 21
1386.5
 31
0.0
  0
LINE
  5
136
100
AcDbEntity
  8
図
  6
CONTINUOUS
 62
     6
100
AcDbLine
 10
857.5
 20
1399.0
 30
0.0
 11
832.5
 21
1399.0
 31
0.0
  0
LINE
  5
137
100
AcDbEntity
  8
図
  6
CONTINUOUS
 62
     6
100
AcDbLine
 10
635.0
 20
1411.5
 30
0.0
 11
635.0
 21
1386.5
 31
0.0
  0
LINE
  5
138
100
AcDbEntity
  8
図
  6
CONTINUOUS
 62
     6
100
AcDbLine
 10
622.5
 20
1399.0
 30
0.0
 11
647.5
 21
1399.0
 31
0.0
  0
CIRCLE
  5
139
100
AcDbEntity
  8
図
  6
EXLTYPE2
 62
     6
100
AcDbCircle
 10
635.0
 20
1399.0
 30
0.0
 40
2.5
  0
CIRCLE
  5
13A
100
AcDbEntity
  8
図
  6
EXLTYPE2
 62
     6
100
AcDbCircle
 10
845.0
 20
1399.0
 30
0.0
 40
2.5
  0
LINE
  5
13B
100
AcDbEntity
  8
図
  6
CONTINUOUS
 62
     2
100
AcDbLine
 10
905.0
 20
1494.0
 30
0.0
 11
914.985175
 21
1609.655939
 31
0.0
  0
ARC
  5
13C
100
AcDbEntity
  8
図
  6
CONTINUOUS
 62
     2
100
AcDbCircle
 10
911.0
 20
1610.0
 30
0.0
 40
4.0
100
AcDbArc
 50
355.065595
 51
90.0
  0
ARC
  5
13D
100
AcDbEntity
  8
図
  6
CONTINUOUS
 62
     2
100
AcDbCircle
 10
570.407281
 20
1670.0
 30
0.0
 40
4.0
100
AcDbArc
 50
90.0
 51
178.656392
  0
LINE
  5
13E
100
AcDbEntity
  8
図
  6
CONTINUOUS
 62
     2
100
AcDbLine
 10
575.0
 20
1494.0
 30
0.0
 11
565.014825
 21
1609.655939
 31
0.0
  0
LINE
  5
13F
100
AcDbEntity
  8
図
  6
CONTINUOUS
 62
     2
100
AcDbLine
 10
565.0011
 20
1610.093793
 30
0.0
 11
566.408381
 21
1670.093793
 31
0.0
  0
LINE
  5
140
100
AcDbEntity
  8
図
  6
CONTINUOUS
 62
     2
100
AcDbLine
 10
914.9989
 20
1610.093793
 30
0.0
 11
913.591619
 21
1670.093793
 31
0.0
  0
ARC
  5
141
100
AcDbEntity
  8
図
  6
CONTINUOUS
 62
     2
100
AcDbCircle
 10
909.592719
 20
1670.0
 30
0.0
 40
4.0
100
AcDbArc
 50
1.343608
 51
90.0
  0
LINE
  5
142
100
AcDbEntity
  8
図
  6
CONTINUOUS
 62
     2
100
AcDbLine
 10
569.0
 20
1614.0
 30
0.0
 11
911.0
 21
1614.0
 31
0.0
  0
ARC
  5
143
100
AcDbEntity
  8
図
  6
CONTINUOUS
 62
     2
100
AcDbCircle
 10
569.0
 20
1610.0
 30
0.0
 40
4.0
100
AcDbArc
 50
90.0
 51
184.934405
  0
CIRCLE
  5
144
100
AcDbEntity
  8
図
  6
CONTINUOUS
 62
     6
100
AcDbCircle
 10
665.0
 20
1234.0
 30
0.0
 40
16.0
  0
LINE
  5
145
100
AcDbEntity
  8
図
  6
CONTINUOUS
 62
     6
100
AcDbLine
 10
665.0
 20
1260.0
 30
0.0
 11
665.0
 21
1208.0
 31
0.0
  0
LINE
  5
146
100
AcDbEntity
  8
図
  6
CONTINUOUS
 62
     6
100
AcDbLine
 10
639.0
 20
1234.0
 30
0.0
 11
691.0
 21
1234.0
 31
0.0
  0
LINE
  5
147
100
AcDbEntity
  8
図
  6
CONTINUOUS
 62
     6
100
AcDbLine
 10
580.5
 20
1649.0
 30
0.0
 11
602.5
 21
1649.0
 31
0.0
  0
LINE
  5
148
100
AcDbEntity
  8
図
  6
CONTINUOUS
 62
     6
100
AcDbLine
 10
591.5
 20
1638.0
 30
0.0
 11
591.5
 21
1660.0
 31
0.0
  0
CIRCLE
  5
149
100
AcDbEntity
  8
図
  6
CONTINUOUS
 62
     2
100
AcDbCircle
 10
591.5
 20
1649.0
 30
0.0
 40
11.5
  0
LINE
  5
14A
100
AcDbEntity
  8
図
  6
CONTINUOUS
 62
     6
100
AcDbLine
 10
899.5
 20
1649.0
 30
0.0
 11
877.5
 21
1649.0
 31
0.0
  0
LINE
  5
14B
100
AcDbEntity
  8
図
  6
CONTINUOUS
 62
     6
100
AcDbLine
 10
888.5
 20
1638.0
 30
0.0
 11
888.5
 21
1660.0
 31
0.0
  0
CIRCLE
  5
14C
100
AcDbEntity
  8
図
  6
CONTINUOUS
 62
     2
100
AcDbCircle
 10
888.5
 20
1649.0
 30
0.0
 40
11.5
  0
LINE
  5
14D
100
AcDbEntity
  8
図
  6
CONTINUOUS
 62
     2
100
AcDbLine
 10
575.0
 20
1474.0
 30
0.0
 11
905.0
 21
1474.0
 31
0.0
  0
LINE
  5
14E
100
AcDbEntity
  8
図
  6
CONTINUOUS
 62
     2
100
AcDbLine
 10
1405.0
 20
1474.0
 30
0.0
 11
1540.0
 21
1474.0
 31
0.0
  0
LINE
  5
14F
100
AcDbEntity
  8
図
  6
CONTINUOUS
 62
     2
100
AcDbLine
 10
1405.0
 20
1470.0
 30
0.0
 11
1390.0
 21
1470.0
 31
0.0
  0
LINE
  5
150
100
AcDbEntity
  8
図
  6
CONTINUOUS
 62
     2
100
AcDbLine
 10
1405.0
 20
914.0
 30
0.0
 11
1405.0
 21
1470.0
 31
0.0
  0
LINE
  5
151
100
AcDbEntity
  8
図
  6
CONTINUOUS
 62
     2
100
AcDbLine
 10
1390.0
 20
914.0
 30
0.0
 11
1390.0
 21
1470.0
 31
0.0
  0
LINE
  5
152
100
AcDbEntity
  8
図
  6
CONTINUOUS
 62
     2
100
AcDbLine
 10
1407.0
 20
1474.0
 30
0.0
 11
1407.0
 21
924.0
 31
0.0
  0
LINE
  5
153
100
AcDbEntity
  8
図
  6
CONTINUOUS
 62
     2
100
AcDbLine
 10
1364.0
 20
1436.0
 30
0.0
 11
1390.0
 21
1436.0
 31
0.0
  0
LINE
  5
154
100
AcDbEntity
  8
図
  6
CONTINUOUS
 62
     2
100
AcDbLine
 10
1364.0
 20
1424.0
 30
0.0
 11
1390.0
 21
1424.0
 31
0.0
  0
ARC
  5
155
100
AcDbEntity
  8
図
  6
CONTINUOUS
 62
     2
100
AcDbCircle
 10
1364.0
 20
1430.0
 30
0.0
 40
6.0
100
AcDbArc
 50
90.0
 51
270.0
  0
LINE
  5
156
100
AcDbEntity
  8
図
  6
CONTINUOUS
 62
     2
100
AcDbLine
 10
1540.0
 20
1494.0
 30
0.0
 11
1540.0
 21
794.0
 31
0.0
  0
LINE
  5
157
100
AcDbEntity
  8
図
  6
CONTINUOUS
 62
     2
100
AcDbLine
 10
1405.0
 20
1474.0
 30
0.0
 11
1405.0
 21
1494.0
 31
0.0
  0
LINE
  5
158
100
AcDbEntity
  8
図
  6
CONTINUOUS
 62
     6
100
AcDbLine
 10
1540.0
 20
1401.0
 30
0.0
 11
1572.0
 21
1399.0
 31
0.0
  0
LINE
  5
159
100
AcDbEntity
  8
図
  6
CONTINUOUS
 62
     6
100
AcDbLine
 10
1540.0
 20
1397.0
 30
0.0
 11
1572.0
 21
1399.0
 31
0.0
  0
LINE
  5
15A
100
AcDbEntity
  8
図
  6
CONTINUOUS
 62
     6
100
AcDbLine
 10
1530.0
 20
1399.0
 30
0.0
 11
1582.0
 21
1399.0
 31
0.0
  0
LINE
  5
15B
100
AcDbEntity
  8
図
  6
CONTINUOUS
 62
     2
100
AcDbLine
 10
1540.0
 20
1674.0
 30
0.0
 11
1540.0
 21
1494.0
 31
0.0
  0
LINE
  5
15C
100
AcDbEntity
  8
図
  6
CONTINUOUS
 62
     2
100
AcDbLine
 10
1370.0
 20
1494.0
 30
0.0
 11
1540.0
 21
1494.0
 31
0.0
  0
LINE
  5
15D
100
AcDbEntity
  8
図
  6
CONTINUOUS
 62
     2
100
AcDbLine
 10
1523.73006
 20
1674.0
 30
0.0
 11
1540.0
 21
1674.0
 31
0.0
  0
ARC
  5
15E
100
AcDbEntity
  8
図
  6
CONTINUOUS
 62
     2
100
AcDbCircle
 10
1523.73006
 20
1670.0
 30
0.0
 40
4.0
100
AcDbArc
 50
90.0
 51
176.0
  0
ARC
  5
15F
100
AcDbEntity
  8
図
  6
CONTINUOUS
 62
     2
100
AcDbCircle
 10
1512.074331
 20
1618.0
 30
0.0
 40
4.0
100
AcDbArc
 50
270.0
 51
356.0
  0
ARC
  5
160
100
AcDbEntity
  8
図
  6
CONTINUOUS
 62
     2
100
AcDbCircle
 10
4258.123102
 20
2305.63104
 30
0.0
 40
3000.0
100
AcDbArc
 50
193.42584
 51
195.696622
  0
ARC
  5
161
100
AcDbEntity
  8
図
  6
CONTINUOUS
 62
     2
100
AcDbCircle
 10
1344.0
 20
1610.0
 30
0.0
 40
4.0
100
AcDbArc
 50
90.0
 51
193.42584
  0
LINE
  5
162
100
AcDbEntity
  8
図
  6
CONTINUOUS
 62
     2
100
AcDbLine
 10
1519.739804
 20
1670.279026
 30
0.0
 11
1516.064587
 21
1617.720974
 31
0.0
  0
LINE
  5
163
100
AcDbEntity
  8
図
  6
CONTINUOUS
 62
     2
100
AcDbLine
 10
1344.0
 20
1614.0
 30
0.0
 11
1512.074331
 21
1614.0
 31
0.0
  0
LINE
  5
164
100
AcDbEntity
  8
図
  6
CONTINUOUS
 62
     6
100
AcDbLine
 10
1570.0
 20
1250.0
 30
0.0
 11
1570.0
 21
1218.0
 31
0.0
  0
LINE
  5
165
100
AcDbEntity
  8
図
  6
CONTINUOUS
 62
     6
100
AcDbLine
 10
1500.0
 20
1250.0
 30
0.0
 11
1570.0
 21
1250.0
 31
0.0
  0
LINE
  5
166
100
AcDbEntity
  8
図
  6
CONTINUOUS
 62
     6
100
AcDbLine
 10
1500.0
 20
1218.0
 30
0.0
 11
1570.0
 21
1218.0
 31
0.0
  0
LINE
  5
167
100
AcDbEntity
  8
図
  6
CONTINUOUS
 62
     6
100
AcDbLine
 10
1500.0
 20
1234.0
 30
0.0
 11
1580.0
 21
1234.0
 31
0.0
  0
LINE
  5
168
100
AcDbEntity
  8
図
  6
CONTINUOUS
 62
     2
100
AcDbLine
 10
1511.073517
 20
1661.030038
 30
0.0
 11
1509.469118
 21
1638.086065
 31
0.0
  0
LINE
  5
169
100
AcDbEntity
  8
図
  6
CONTINUOUS
 62
     2
100
AcDbLine
 10
1511.073517
 20
1661.030038
 30
0.0
 11
1519.054029
 21
1660.471987
 31
0.0
  0
LINE
  5
16A
100
AcDbEntity
  8
図
  6
CONTINUOUS
 62
     2
100
AcDbLine
 10
1509.469118
 20
1638.086065
 30
0.0
 11
1517.44963
 21
1637.528013
 31
0.0
  0
LINE
  5
16B
100
AcDbEntity
  8
図
  6
CONTINUOUS
 62
     6
100
AcDbLine
 10
1540.0
 20
1650.964373
 30
0.0
 11
1581.25183
 21
1649.0
 31
0.0
  0
LINE
  5
16C
100
AcDbEntity
  8
図
  6
CONTINUOUS
 62
     6
100
AcDbLine
 10
1540.0
 20
1647.035627
 30
0.0
 11
1581.25183
 21
1649.0
 31
0.0
  0
LINE
  5
16D
100
AcDbEntity
  8
図
  6
CONTINUOUS
 62
     6
100
AcDbLine
 10
1513.25183
 20
1649.0
 30
0.0
 11
1591.25183
 21
1649.0
 31
0.0
  0
LINE
  5
16E
100
AcDbEntity
  8
図
  6
EXLTYPE4
 62
     6
100
AcDbLine
 10
1540.0
 20
794.0
 30
0.0
 11
1540.0
 21
2018.0
 31
0.0
  0
LINE
  5
16F
100
AcDbEntity
  8
図
  6
CONTINUOUS
 62
     6
100
AcDbLine
 10
1547.0
 20
1289.0
 30
0.0
 11
1547.0
 21
1309.0
 31
0.0
  0
LINE
  5
170
100
AcDbEntity
  8
図
  6
CONTINUOUS
 62
     6
100
AcDbLine
 10
1547.0
 20
1309.0
 30
0.0
 11
1500.0
 21
1309.0
 31
0.0
  0
LINE
  5
171
100
AcDbEntity
  8
図
  6
CONTINUOUS
 62
     6
100
AcDbLine
 10
1547.0
 20
1289.0
 30
0.0
 11
1500.0
 21
1289.0
 31
0.0
  0
LINE
  5
172
100
AcDbEntity
  8
図
  6
CONTINUOUS
 62
     6
100
AcDbLine
 10
1500.0
 20
1299.0
 30
0.0
 11
1557.0
 21
1299.0
 31
0.0
  0
CIRCLE
  5
173
100
AcDbEntity
  8
図
  6
CONTINUOUS
 62
     6
100
AcDbCircle
 10
835.0
 20
1299.0
 30
0.0
 40
10.0
  0
LINE
  5
174
100
AcDbEntity
  8
図
  6
CONTINUOUS
 62
     6
100
AcDbLine
 10
815.0
 20
1299.0
 30
0.0
 11
855.0
 21
1299.0
 31
0.0
  0
LINE
  5
175
100
AcDbEntity
  8
図
  6
CONTINUOUS
 62
     6
100
AcDbLine
 10
835.0
 20
1279.0
 30
0.0
 11
835.0
 21
1319.0
 31
0.0
  0
LINE
  5
176
100
AcDbEntity
  8
図
  6
CONTINUOUS
 62
     6
100
AcDbLine
 10
762.179569
 20
1675.697717
 30
0.0
 11
764.494682
 21
1669.336996
 31
0.0
  0
ARC
  5
177
100
AcDbEntity
  8
図
  6
CONTINUOUS
 62
     6
100
AcDbCircle
 10
765.434375
 20
1669.679016
 30
0.0
 40
1.0
100
AcDbArc
 50
200.0
 51
250.0
  0
ARC
  5
178
100
AcDbEntity
  8
図
  6
CONTINUOUS
 62
     6
100
AcDbCircle
 10
795.066249
 20
1658.893834
 30
0.0
 40
1.0
100
AcDbArc
 50
250.0
 51
289.13144
  0
POLYLINE
  5
179
100
AcDbEntity
  8
図
  6
CONTINUOUS
 62
     6
100
AcDb2dPolyline
 66
     1
 10
0.0
 20
0.0
 30
0.0
 70
   128
  0
VERTEX
  5
17A
100
AcDbEntity
  8
図
  6
CONTINUOUS
 62
     6
100
AcDbVertex
100
AcDb2dVertex
 10
813.685146
 20
1659.937201
 30
0.0
  0
VERTEX
  5
17B
100
AcDbEntity
  8
図
  6
CONTINUOUS
 62
     6
100
AcDbVertex
100
AcDb2dVertex
 10
813.681928
 20
1659.945815
 30
0.0
  0
VERTEX
  5
17C
100
AcDbEntity
  8
図
  6
CONTINUOUS
 62
     6
100
AcDbVertex
100
AcDb2dVertex
 10
813.672701
 20
1659.970302
 30
0.0
  0
VERTEX
  5
17D
100
AcDbEntity
  8
図
  6
CONTINUOUS
 62
     6
100
AcDbVertex
100
AcDb2dVertex
 10
813.658105
 20
1660.008629
 30
0.0
  0
VERTEX
  5
17E
100
AcDbEntity
  8
図
  6
CONTINUOUS
 62
     6
100
AcDbVertex
100
AcDb2dVertex
 10
813.638783
 20
1660.058764
 30
0.0
  0
VERTEX
  5
17F
100
AcDbEntity
  8
図
  6
CONTINUOUS
 62
     6
100
AcDbVertex
100
AcDb2dVertex
 10
813.615374
 20
1660.118674
 30
0.0
  0
VERTEX
  5
180
100
AcDbEntity
  8
図
  6
CONTINUOUS
 62
     6
100
AcDbVertex
100
AcDb2dVertex
 10
813.588519
 20
1660.186326
 30
0.0
  0
VERTEX
  5
181
100
AcDbEntity
  8
図
  6
CONTINUOUS
 62
     6
100
AcDbVertex
100
AcDb2dVertex
 10
813.558859
 20
1660.259688
 30
0.0
  0
VERTEX
  5
182
100
AcDbEntity
  8
図
  6
CONTINUOUS
 62
     6
100
AcDbVertex
100
AcDb2dVertex
 10
813.527036
 20
1660.336727
 30
0.0
  0
VERTEX
  5
183
100
AcDbEntity
  8
図
  6
CONTINUOUS
 62
     6
100
AcDbVertex
100
AcDb2dVertex
 10
813.493688
 20
1660.41541
 30
0.0
  0
VERTEX
  5
184
100
AcDbEntity
  8
図
  6
CONTINUOUS
 62
     6
100
AcDbVertex
100
AcDb2dVertex
 10
813.459458
 20
1660.493705
 30
0.0
  0
VERTEX
  5
185
100
AcDbEntity
  8
図
  6
CONTINUOUS
 62
     6
100
AcDbVertex
100
AcDb2dVertex
 10
813.424987
 20
1660.569579
 30
0.0
  0
VERTEX
  5
186
100
AcDbEntity
  8
図
  6
CONTINUOUS
 62
     6
100
AcDbVertex
100
AcDb2dVertex
 10
813.375177
 20
1660.672997
 30
0.0
  0
VERTEX
  5
187
100
AcDbEntity
  8
図
  6
CONTINUOUS
 62
     6
100
AcDbVertex
100
AcDb2dVertex
 10
813.325929
 20
1660.767868
 30
0.0
  0
VERTEX
  5
188
100
AcDbEntity
  8
図
  6
CONTINUOUS
 62
     6
100
AcDbVertex
100
AcDb2dVertex
 10
813.276956
 20
1660.855136
 30
0.0
  0
VERTEX
  5
189
100
AcDbEntity
  8
図
  6
CONTINUOUS
 62
     6
100
AcDbVertex
100
AcDb2dVertex
 10
813.227968
 20
1660.935745
 30
0.0
  0
VERTEX
  5
18A
100
AcDbEntity
  8
図
  6
CONTINUOUS
 62
     6
100
AcDbVertex
100
AcDb2dVertex
 10
813.178679
 20
1661.010639
 30
0.0
  0
VERTEX
  5
18B
100
AcDbEntity
  8
図
  6
CONTINUOUS
 62
     6
100
AcDbVertex
100
AcDb2dVertex
 10
813.128799
 20
1661.080762
 30
0.0
  0
VERTEX
  5
18C
100
AcDbEntity
  8
図
  6
CONTINUOUS
 62
     6
100
AcDbVertex
100
AcDb2dVertex
 10
813.078041
 20
1661.147058
 30
0.0
  0
VERTEX
  5
18D
100
AcDbEntity
  8
図
  6
CONTINUOUS
 62
     6
100
AcDbVertex
100
AcDb2dVertex
 10
813.026116
 20
1661.21047
 30
0.0
  0
VERTEX
  5
18E
100
AcDbEntity
  8
図
  6
CONTINUOUS
 62
     6
100
AcDbVertex
100
AcDb2dVertex
 10
812.972737
 20
1661.271943
 30
0.0
  0
VERTEX
  5
18F
100
AcDbEntity
  8
図
  6
CONTINUOUS
 62
     6
100
AcDbVertex
100
AcDb2dVertex
 10
812.917616
 20
1661.33242
 30
0.0
  0
VERTEX
  5
190
100
AcDbEntity
  8
図
  6
CONTINUOUS
 62
     6
100
AcDbVertex
100
AcDb2dVertex
 10
812.860464
 20
1661.392846
 30
0.0
  0
VERTEX
  5
191
100
AcDbEntity
  8
図
  6
CONTINUOUS
 62
     6
100
AcDbVertex
100
AcDb2dVertex
 10
812.801063
 20
1661.453958
 30
0.0
  0
VERTEX
  5
192
100
AcDbEntity
  8
図
  6
CONTINUOUS
 62
     6
100
AcDbVertex
100
AcDb2dVertex
 10
812.739482
 20
1661.515675
 30
0.0
  0
VERTEX
  5
193
100
AcDbEntity
  8
図
  6
CONTINUOUS
 62
     6
100
AcDbVertex
100
AcDb2dVertex
 10
812.675855
 20
1661.577707
 30
0.0
  0
VERTEX
  5
194
100
AcDbEntity
  8
図
  6
CONTINUOUS
 62
     6
100
AcDbVertex
100
AcDb2dVertex
 10
812.610321
 20
1661.639766
 30
0.0
  0
VERTEX
  5
195
100
AcDbEntity
  8
図
  6
CONTINUOUS
 62
     6
100
AcDbVertex
100
AcDb2dVertex
 10
812.543016
 20
1661.701563
 30
0.0
  0
VERTEX
  5
196
100
AcDbEntity
  8
図
  6
CONTINUOUS
 62
     6
100
AcDbVertex
100
AcDb2dVertex
 10
812.474078
 20
1661.76281
 30
0.0
  0
VERTEX
  5
197
100
AcDbEntity
  8
図
  6
CONTINUOUS
 62
     6
100
AcDbVertex
100
AcDb2dVertex
 10
812.403642
 20
1661.823219
 30
0.0
  0
VERTEX
  5
198
100
AcDbEntity
  8
図
  6
CONTINUOUS
 62
     6
100
AcDbVertex
100
AcDb2dVertex
 10
812.331847
 20
1661.8825
 30
0.0
  0
VERTEX
  5
199
100
AcDbEntity
  8
図
  6
CONTINUOUS
 62
     6
100
AcDbVertex
100
AcDb2dVertex
 10
812.25883
 20
1661.940366
 30
0.0
  0
VERTEX
  5
19A
100
AcDbEntity
  8
図
  6
CONTINUOUS
 62
     6
100
AcDbVertex
100
AcDb2dVertex
 10
812.184727
 20
1661.996527
 30
0.0
  0
VERTEX
  5
19B
100
AcDbEntity
  8
図
  6
CONTINUOUS
 62
     6
100
AcDbVertex
100
AcDb2dVertex
 10
812.109675
 20
1662.050696
 30
0.0
  0
VERTEX
  5
19C
100
AcDbEntity
  8
図
  6
CONTINUOUS
 62
     6
100
AcDbVertex
100
AcDb2dVertex
 10
812.033781
 20
1662.102636
 30
0.0
  0
VERTEX
  5
19D
100
AcDbEntity
  8
図
  6
CONTINUOUS
 62
     6
100
AcDbVertex
100
AcDb2dVertex
 10
811.957026
 20
1662.152321
 30
0.0
  0
VERTEX
  5
19E
100
AcDbEntity
  8
図
  6
CONTINUOUS
 62
     6
100
AcDbVertex
100
AcDb2dVertex
 10
811.879362
 20
1662.199775
 30
0.0
  0
VERTEX
  5
19F
100
AcDbEntity
  8
図
  6
CONTINUOUS
 62
     6
100
AcDbVertex
100
AcDb2dVertex
 10
811.800738
 20
1662.245024
 30
0.0
  0
VERTEX
  5
1A0
100
AcDbEntity
  8
図
  6
CONTINUOUS
 62
     6
100
AcDbVertex
100
AcDb2dVertex
 10
811.721106
 20
1662.288093
 30
0.0
  0
VERTEX
  5
1A1
100
AcDbEntity
  8
図
  6
CONTINUOUS
 62
     6
100
AcDbVertex
100
AcDb2dVertex
 10
811.640416
 20
1662.329008
 30
0.0
  0
VERTEX
  5
1A2
100
AcDbEntity
  8
図
  6
CONTINUOUS
 62
     6
100
AcDbVertex
100
AcDb2dVertex
 10
811.558619
 20
1662.367795
 30
0.0
  0
VERTEX
  5
1A3
100
AcDbEntity
  8
図
  6
CONTINUOUS
 62
     6
100
AcDbVertex
100
AcDb2dVertex
 10
811.475666
 20
1662.404478
 30
0.0
  0
VERTEX
  5
1A4
100
AcDbEntity
  8
図
  6
CONTINUOUS
 62
     6
100
AcDbVertex
100
AcDb2dVertex
 10
811.391509
 20
1662.439083
 30
0.0
  0
VERTEX
  5
1A5
100
AcDbEntity
  8
図
  6
CONTINUOUS
 62
     6
100
AcDbVertex
100
AcDb2dVertex
 10
811.306096
 20
1662.471636
 30
0.0
  0
VERTEX
  5
1A6
100
AcDbEntity
  8
図
  6
CONTINUOUS
 62
     6
100
AcDbVertex
100
AcDb2dVertex
 10
811.21938
 20
1662.502161
 30
0.0
  0
VERTEX
  5
1A7
100
AcDbEntity
  8
図
  6
CONTINUOUS
 62
     6
100
AcDbVertex
100
AcDb2dVertex
 10
811.131372
 20
1662.530691
 30
0.0
  0
VERTEX
  5
1A8
100
AcDbEntity
  8
図
  6
CONTINUOUS
 62
     6
100
AcDbVertex
100
AcDb2dVertex
 10
811.04232
 20
1662.557279
 30
0.0
  0
VERTEX
  5
1A9
100
AcDbEntity
  8
図
  6
CONTINUOUS
 62
     6
100
AcDbVertex
100
AcDb2dVertex
 10
810.952535
 20
1662.581985
 30
0.0
  0
VERTEX
  5
1AA
100
AcDbEntity
  8
図
  6
CONTINUOUS
 62
     6
100
AcDbVertex
100
AcDb2dVertex
 10
810.862326
 20
1662.60487
 30
0.0
  0
VERTEX
  5
1AB
100
AcDbEntity
  8
図
  6
CONTINUOUS
 62
     6
100
AcDbVertex
100
AcDb2dVertex
 10
810.772004
 20
1662.625994
 30
0.0
  0
VERTEX
  5
1AC
100
AcDbEntity
  8
図
  6
CONTINUOUS
 62
     6
100
AcDbVertex
100
AcDb2dVertex
 10
810.681878
 20
1662.645417
 30
0.0
  0
VERTEX
  5
1AD
100
AcDbEntity
  8
図
  6
CONTINUOUS
 62
     6
100
AcDbVertex
100
AcDb2dVertex
 10
810.592257
 20
1662.663199
 30
0.0
  0
VERTEX
  5
1AE
100
AcDbEntity
  8
図
  6
CONTINUOUS
 62
     6
100
AcDbVertex
100
AcDb2dVertex
 10
810.503451
 20
1662.679401
 30
0.0
  0
VERTEX
  5
1AF
100
AcDbEntity
  8
図
  6
CONTINUOUS
 62
     6
100
AcDbVertex
100
AcDb2dVertex
 10
810.415771
 20
1662.694083
 30
0.0
  0
VERTEX
  5
1B0
100
AcDbEntity
  8
図
  6
CONTINUOUS
 62
     6
100
AcDbVertex
100
AcDb2dVertex
 10
810.329526
 20
1662.707304
 30
0.0
  0
VERTEX
  5
1B1
100
AcDbEntity
  8
図
  6
CONTINUOUS
 62
     6
100
AcDbVertex
100
AcDb2dVertex
 10
810.245025
 20
1662.719125
 30
0.0
  0
VERTEX
  5
1B2
100
AcDbEntity
  8
図
  6
CONTINUOUS
 62
     6
100
AcDbVertex
100
AcDb2dVertex
 10
810.162375
 20
1662.729542
 30
0.0
  0
VERTEX
  5
1B3
100
AcDbEntity
  8
図
  6
CONTINUOUS
 62
     6
100
AcDbVertex
100
AcDb2dVertex
 10
810.080863
 20
1662.738292
 30
0.0
  0
VERTEX
  5
1B4
100
AcDbEntity
  8
図
  6
CONTINUOUS
 62
     6
100
AcDbVertex
100
AcDb2dVertex
 10
809.999573
 20
1662.745048
 30
0.0
  0
VERTEX
  5
1B5
100
AcDbEntity
  8
図
  6
CONTINUOUS
 62
     6
100
AcDbVertex
100
AcDb2dVertex
 10
809.917588
 20
1662.749483
 30
0.0
  0
VERTEX
  5
1B6
100
AcDbEntity
  8
図
  6
CONTINUOUS
 62
     6
100
AcDbVertex
100
AcDb2dVertex
 10
809.833993
 20
1662.751271
 30
0.0
  0
VERTEX
  5
1B7
100
AcDbEntity
  8
図
  6
CONTINUOUS
 62
     6
100
AcDbVertex
100
AcDb2dVertex
 10
809.747872
 20
1662.750083
 30
0.0
  0
VERTEX
  5
1B8
100
AcDbEntity
  8
図
  6
CONTINUOUS
 62
     6
100
AcDbVertex
100
AcDb2dVertex
 10
809.658307
 20
1662.745594
 30
0.0
  0
VERTEX
  5
1B9
100
AcDbEntity
  8
図
  6
CONTINUOUS
 62
     6
100
AcDbVertex
100
AcDb2dVertex
 10
809.564383
 20
1662.737475
 30
0.0
  0
VERTEX
  5
1BA
100
AcDbEntity
  8
図
  6
CONTINUOUS
 62
     6
100
AcDbVertex
100
AcDb2dVertex
 10
809.465183
 20
1662.725401
 30
0.0
  0
VERTEX
  5
1BB
100
AcDbEntity
  8
図
  6
CONTINUOUS
 62
     6
100
AcDbVertex
100
AcDb2dVertex
 10
809.359792
 20
1662.709043
 30
0.0
  0
VERTEX
  5
1BC
100
AcDbEntity
  8
図
  6
CONTINUOUS
 62
     6
100
AcDbVertex
100
AcDb2dVertex
 10
809.247292
 20
1662.688076
 30
0.0
  0
VERTEX
  5
1BD
100
AcDbEntity
  8
図
  6
CONTINUOUS
 62
     6
100
AcDbVertex
100
AcDb2dVertex
 10
809.16287
 20
1662.670322
 30
0.0
  0
VERTEX
  5
1BE
100
AcDbEntity
  8
図
  6
CONTINUOUS
 62
     6
100
AcDbVertex
100
AcDb2dVertex
 10
809.076496
 20
1662.650801
 30
0.0
  0
VERTEX
  5
1BF
100
AcDbEntity
  8
図
  6
CONTINUOUS
 62
     6
100
AcDbVertex
100
AcDb2dVertex
 10
808.990274
 20
1662.63024
 30
0.0
  0
VERTEX
  5
1C0
100
AcDbEntity
  8
図
  6
CONTINUOUS
 62
     6
100
AcDbVertex
100
AcDb2dVertex
 10
808.906312
 20
1662.609369
 30
0.0
  0
VERTEX
  5
1C1
100
AcDbEntity
  8
図
  6
CONTINUOUS
 62
     6
100
AcDbVertex
100
AcDb2dVertex
 10
808.826713
 20
1662.588917
 30
0.0
  0
VERTEX
  5
1C2
100
AcDbEntity
  8
図
  6
CONTINUOUS
 62
     6
100
AcDbVertex
100
AcDb2dVertex
 10
808.753584
 20
1662.569611
 30
0.0
  0
VERTEX
  5
1C3
100
AcDbEntity
  8
図
  6
CONTINUOUS
 62
     6
100
AcDbVertex
100
AcDb2dVertex
 10
808.68903
 20
1662.552182
 30
0.0
  0
VERTEX
  5
1C4
100
AcDbEntity
  8
図
  6
CONTINUOUS
 62
     6
100
AcDbVertex
100
AcDb2dVertex
 10
808.635156
 20
1662.537357
 30
0.0
  0
VERTEX
  5
1C5
100
AcDbEntity
  8
図
  6
CONTINUOUS
 62
     6
100
AcDbVertex
100
AcDb2dVertex
 10
808.594068
 20
1662.525866
 30
0.0
  0
VERTEX
  5
1C6
100
AcDbEntity
  8
図
  6
CONTINUOUS
 62
     6
100
AcDbVertex
100
AcDb2dVertex
 10
808.567871
 20
1662.518437
 30
0.0
  0
VERTEX
  5
1C7
100
AcDbEntity
  8
図
  6
CONTINUOUS
 62
     6
100
AcDbVertex
100
AcDb2dVertex
 10
808.558671
 20
1662.515798
 30
0.0
  0
SEQEND
  5
1C8
100
AcDbEntity
  8
図
  6
CONTINUOUS
 62
     6
  0
LINE
  5
1C9
100
AcDbEntity
  8
図
  6
CONTINUOUS
 62
     6
100
AcDbLine
 10
795.393985
 20
1657.949065
 30
0.0
 11
808.558659
 21
1662.515833
 31
0.0
  0
LINE
  5
1CA
100
AcDbEntity
  8
図
  6
CONTINUOUS
 62
     6
100
AcDbLine
 10
762.762889
 20
1676.974543
 30
0.0
 11
799.923441
 21
1691.141418
 31
0.0
  0
ARC
  5
1CB
100
AcDbEntity
  8
図
  6
CONTINUOUS
 62
     6
100
AcDbCircle
 10
763.119114
 20
1676.040143
 30
0.0
 40
1.0
100
AcDbArc
 50
110.86856
 51
200.0
  0
POLYLINE
  5
1CC
100
AcDbEntity
  8
図
  6
CONTINUOUS
 62
     6
100
AcDb2dPolyline
 66
     1
 10
0.0
 20
0.0
 30
0.0
 70
   128
  0
VERTEX
  5
1CD
100
AcDbEntity
  8
図
  6
CONTINUOUS
 62
     6
100
AcDbVertex
100
AcDb2dVertex
 10
799.923425
 20
1691.141458
 30
0.0
  0
VERTEX
  5
1CE
100
AcDbEntity
  8
図
  6
CONTINUOUS
 62
     6
100
AcDbVertex
100
AcDb2dVertex
 10
799.933491
 20
1691.146026
 30
0.0
  0
VERTEX
  5
1CF
100
AcDbEntity
  8
図
  6
CONTINUOUS
 62
     6
100
AcDbVertex
100
AcDb2dVertex
 10
799.962074
 20
1691.15912
 30
0.0
  0
VERTEX
  5
1D0
100
AcDbEntity
  8
図
  6
CONTINUOUS
 62
     6
100
AcDbVertex
100
AcDb2dVertex
 10
800.006755
 20
1691.17982
 30
0.0
  0
VERTEX
  5
1D1
100
AcDbEntity
  8
図
  6
CONTINUOUS
 62
     6
100
AcDbVertex
100
AcDb2dVertex
 10
800.065114
 20
1691.207206
 30
0.0
  0
VERTEX
  5
1D2
100
AcDbEntity
  8
図
  6
CONTINUOUS
 62
     6
100
AcDbVertex
100
AcDb2dVertex
 10
800.134729
 20
1691.240361
 30
0.0
  0
VERTEX
  5
1D3
100
AcDbEntity
  8
図
  6
CONTINUOUS
 62
     6
100
AcDbVertex
100
AcDb2dVertex
 10
800.213182
 20
1691.278364
 30
0.0
  0
VERTEX
  5
1D4
100
AcDbEntity
  8
図
  6
CONTINUOUS
 62
     6
100
AcDbVertex
100
AcDb2dVertex
 10
800.29805
 20
1691.320297
 30
0.0
  0
VERTEX
  5
1D5
100
AcDbEntity
  8
図
  6
CONTINUOUS
 62
     6
100
AcDbVertex
100
AcDb2dVertex
 10
800.386916
 20
1691.365241
 30
0.0
  0
VERTEX
  5
1D6
100
AcDbEntity
  8
図
  6
CONTINUOUS
 62
     6
100
AcDbVertex
100
AcDb2dVertex
 10
800.477357
 20
1691.412276
 30
0.0
  0
VERTEX
  5
1D7
100
AcDbEntity
  8
図
  6
CONTINUOUS
 62
     6
100
AcDbVertex
100
AcDb2dVertex
 10
800.566955
 20
1691.460484
 30
0.0
  0
VERTEX
  5
1D8
100
AcDbEntity
  8
図
  6
CONTINUOUS
 62
     6
100
AcDbVertex
100
AcDb2dVertex
 10
800.653288
 20
1691.508946
 30
0.0
  0
VERTEX
  5
1D9
100
AcDbEntity
  8
図
  6
CONTINUOUS
 62
     6
100
AcDbVertex
100
AcDb2dVertex
 10
800.76171
 20
1691.573688
 30
0.0
  0
VERTEX
  5
1DA
100
AcDbEntity
  8
図
  6
CONTINUOUS
 62
     6
100
AcDbVertex
100
AcDb2dVertex
 10
800.860732
 20
1691.637544
 30
0.0
  0
VERTEX
  5
1DB
100
AcDbEntity
  8
図
  6
CONTINUOUS
 62
     6
100
AcDbVertex
100
AcDb2dVertex
 10
800.951348
 20
1691.700846
 30
0.0
  0
VERTEX
  5
1DC
100
AcDbEntity
  8
図
  6
CONTINUOUS
 62
     6
100
AcDbVertex
100
AcDb2dVertex
 10
801.034555
 20
1691.763927
 30
0.0
  0
VERTEX
  5
1DD
100
AcDbEntity
  8
図
  6
CONTINUOUS
 62
     6
100
AcDbVertex
100
AcDb2dVertex
 10
801.111349
 20
1691.827117
 30
0.0
  0
VERTEX
  5
1DE
100
AcDbEntity
  8
図
  6
CONTINUOUS
 62
     6
100
AcDbVertex
100
AcDb2dVertex
 10
801.182725
 20
1691.890749
 30
0.0
  0
VERTEX
  5
1DF
100
AcDbEntity
  8
図
  6
CONTINUOUS
 62
     6
100
AcDbVertex
100
AcDb2dVertex
 10
801.249678
 20
1691.955154
 30
0.0
  0
VERTEX
  5
1E0
100
AcDbEntity
  8
図
  6
CONTINUOUS
 62
     6
100
AcDbVertex
100
AcDb2dVertex
 10
801.313204
 20
1692.020664
 30
0.0
  0
VERTEX
  5
1E1
100
AcDbEntity
  8
図
  6
CONTINUOUS
 62
     6
100
AcDbVertex
100
AcDb2dVertex
 10
801.3743
 20
1692.08761
 30
0.0
  0
VERTEX
  5
1E2
100
AcDbEntity
  8
図
  6
CONTINUOUS
 62
     6
100
AcDbVertex
100
AcDb2dVertex
 10
801.43396
 20
1692.156324
 30
0.0
  0
VERTEX
  5
1E3
100
AcDbEntity
  8
図
  6
CONTINUOUS
 62
     6
100
AcDbVertex
100
AcDb2dVertex
 10
801.49318
 20
1692.227137
 30
0.0
  0
VERTEX
  5
1E4
100
AcDbEntity
  8
図
  6
CONTINUOUS
 62
     6
100
AcDbVertex
100
AcDb2dVertex
 10
801.552734
 20
1692.300314
 30
0.0
  0
VERTEX
  5
1E5
100
AcDbEntity
  8
図
  6
CONTINUOUS
 62
     6
100
AcDbVertex
100
AcDb2dVertex
 10
801.612507
 20
1692.375839
 30
0.0
  0
VERTEX
  5
1E6
100
AcDbEntity
  8
図
  6
CONTINUOUS
 62
     6
100
AcDbVertex
100
AcDb2dVertex
 10
801.672159
 20
1692.453632
 30
0.0
  0
VERTEX
  5
1E7
100
AcDbEntity
  8
図
  6
CONTINUOUS
 62
     6
100
AcDbVertex
100
AcDb2dVertex
 10
801.731353
 20
1692.53361
 30
0.0
  0
VERTEX
  5
1E8
100
AcDbEntity
  8
図
  6
CONTINUOUS
 62
     6
100
AcDbVertex
100
AcDb2dVertex
 10
801.789752
 20
1692.615691
 30
0.0
  0
VERTEX
  5
1E9
100
AcDbEntity
  8
図
  6
CONTINUOUS
 62
     6
100
AcDbVertex
100
AcDb2dVertex
 10
801.847017
 20
1692.699793
 30
0.0
  0
VERTEX
  5
1EA
100
AcDbEntity
  8
図
  6
CONTINUOUS
 62
     6
100
AcDbVertex
100
AcDb2dVertex
 10
801.90281
 20
1692.785833
 30
0.0
  0
VERTEX
  5
1EB
100
AcDbEntity
  8
図
  6
CONTINUOUS
 62
     6
100
AcDbVertex
100
AcDb2dVertex
 10
801.956793
 20
1692.87373
 30
0.0
  0
VERTEX
  5
1EC
100
AcDbEntity
  8
図
  6
CONTINUOUS
 62
     6
100
AcDbVertex
100
AcDb2dVertex
 10
802.008628
 20
1692.963401
 30
0.0
  0
VERTEX
  5
1ED
100
AcDbEntity
  8
図
  6
CONTINUOUS
 62
     6
100
AcDbVertex
100
AcDb2dVertex
 10
802.057978
 20
1693.054765
 30
0.0
  0
VERTEX
  5
1EE
100
AcDbEntity
  8
図
  6
CONTINUOUS
 62
     6
100
AcDbVertex
100
AcDb2dVertex
 10
802.104505
 20
1693.147739
 30
0.0
  0
VERTEX
  5
1EF
100
AcDbEntity
  8
図
  6
CONTINUOUS
 62
     6
100
AcDbVertex
100
AcDb2dVertex
 10
802.14795
 20
1693.242202
 30
0.0
  0
VERTEX
  5
1F0
100
AcDbEntity
  8
図
  6
CONTINUOUS
 62
     6
100
AcDbVertex
100
AcDb2dVertex
 10
802.18838
 20
1693.337873
 30
0.0
  0
VERTEX
  5
1F1
100
AcDbEntity
  8
図
  6
CONTINUOUS
 62
     6
100
AcDbVertex
100
AcDb2dVertex
 10
802.22594
 20
1693.434432
 30
0.0
  0
VERTEX
  5
1F2
100
AcDbEntity
  8
図
  6
CONTINUOUS
 62
     6
100
AcDbVertex
100
AcDb2dVertex
 10
802.260776
 20
1693.531559
 30
0.0
  0
VERTEX
  5
1F3
100
AcDbEntity
  8
図
  6
CONTINUOUS
 62
     6
100
AcDbVertex
100
AcDb2dVertex
 10
802.293033
 20
1693.628935
 30
0.0
  0
VERTEX
  5
1F4
100
AcDbEntity
  8
図
  6
CONTINUOUS
 62
     6
100
AcDbVertex
100
AcDb2dVertex
 10
802.322858
 20
1693.726239
 30
0.0
  0
VERTEX
  5
1F5
100
AcDbEntity
  8
図
  6
CONTINUOUS
 62
     6
100
AcDbVertex
100
AcDb2dVertex
 10
802.350397
 20
1693.823151
 30
0.0
  0
VERTEX
  5
1F6
100
AcDbEntity
  8
図
  6
CONTINUOUS
 62
     6
100
AcDbVertex
100
AcDb2dVertex
 10
802.375794
 20
1693.919352
 30
0.0
  0
VERTEX
  5
1F7
100
AcDbEntity
  8
図
  6
CONTINUOUS
 62
     6
100
AcDbVertex
100
AcDb2dVertex
 10
802.399196
 20
1694.014521
 30
0.0
  0
VERTEX
  5
1F8
100
AcDbEntity
  8
図
  6
CONTINUOUS
 62
     6
100
AcDbVertex
100
AcDb2dVertex
 10
802.420749
 20
1694.108338
 30
0.0
  0
VERTEX
  5
1F9
100
AcDbEntity
  8
図
  6
CONTINUOUS
 62
     6
100
AcDbVertex
100
AcDb2dVertex
 10
802.440599
 20
1694.200484
 30
0.0
  0
VERTEX
  5
1FA
100
AcDbEntity
  8
図
  6
CONTINUOUS
 62
     6
100
AcDbVertex
100
AcDb2dVertex
 10
802.458807
 20
1694.290859
 30
0.0
  0
VERTEX
  5
1FB
100
AcDbEntity
  8
図
  6
CONTINUOUS
 62
     6
100
AcDbVertex
100
AcDb2dVertex
 10
802.475096
 20
1694.380242
 30
0.0
  0
VERTEX
  5
1FC
100
AcDbEntity
  8
図
  6
CONTINUOUS
 62
     6
100
AcDbVertex
100
AcDb2dVertex
 10
802.489105
 20
1694.469633
 30
0.0
  0
VERTEX
  5
1FD
100
AcDbEntity
  8
図
  6
CONTINUOUS
 62
     6
100
AcDbVertex
100
AcDb2dVertex
 10
802.500474
 20
1694.560032
 30
0.0
  0
VERTEX
  5
1FE
100
AcDbEntity
  8
図
  6
CONTINUOUS
 62
     6
100
AcDbVertex
100
AcDb2dVertex
 10
802.508842
 20
1694.652438
 30
0.0
  0
VERTEX
  5
1FF
100
AcDbEntity
  8
図
  6
CONTINUOUS
 62
     6
100
AcDbVertex
100
AcDb2dVertex
 10
802.513847
 20
1694.747852
 30
0.0
  0
VERTEX
  5
200
100
AcDbEntity
  8
図
  6
CONTINUOUS
 62
     6
100
AcDbVertex
100
AcDb2dVertex
 10
802.51513
 20
1694.847272
 30
0.0
  0
VERTEX
  5
201
100
AcDbEntity
  8
図
  6
CONTINUOUS
 62
     6
100
AcDbVertex
100
AcDb2dVertex
 10
802.512328
 20
1694.9517
 30
0.0
  0
VERTEX
  5
202
100
AcDbEntity
  8
図
  6
CONTINUOUS
 62
     6
100
AcDbVertex
100
AcDb2dVertex
 10
802.505081
 20
1695.062134
 30
0.0
  0
VERTEX
  5
203
100
AcDbEntity
  8
図
  6
CONTINUOUS
 62
     6
100
AcDbVertex
100
AcDb2dVertex
 10
802.493028
 20
1695.179574
 30
0.0
  0
VERTEX
  5
204
100
AcDbEntity
  8
図
  6
CONTINUOUS
 62
     6
100
AcDbVertex
100
AcDb2dVertex
 10
802.475809
 20
1695.30502
 30
0.0
  0
VERTEX
  5
205
100
AcDbEntity
  8
図
  6
CONTINUOUS
 62
     6
100
AcDbVertex
100
AcDb2dVertex
 10
802.460254
 20
1695.399844
 30
0.0
  0
VERTEX
  5
206
100
AcDbEntity
  8
図
  6
CONTINUOUS
 62
     6
100
AcDbVertex
100
AcDb2dVertex
 10
802.442617
 20
1695.49691
 30
0.0
  0
VERTEX
  5
207
100
AcDbEntity
  8
図
  6
CONTINUOUS
 62
     6
100
AcDbVertex
100
AcDb2dVertex
 10
802.423649
 20
1695.593841
 30
0.0
  0
VERTEX
  5
208
100
AcDbEntity
  8
図
  6
CONTINUOUS
 62
     6
100
AcDbVertex
100
AcDb2dVertex
 10
802.4041
 20
1695.688263
 30
0.0
  0
VERTEX
  5
209
100
AcDbEntity
  8
図
  6
CONTINUOUS
 62
     6
100
AcDbVertex
100
AcDb2dVertex
 10
802.384722
 20
1695.7778
 30
0.0
  0
VERTEX
  5
20A
100
AcDbEntity
  8
図
  6
CONTINUOUS
 62
     6
100
AcDbVertex
100
AcDb2dVertex
 10
802.366264
 20
1695.860079
 30
0.0
  0
VERTEX
  5
20B
100
AcDbEntity
  8
図
  6
CONTINUOUS
 62
     6
100
AcDbVertex
100
AcDb2dVertex
 10
802.349479
 20
1695.932724
 30
0.0
  0
VERTEX
  5
20C
100
AcDbEntity
  8
図
  6
CONTINUOUS
 62
     6
100
AcDbVertex
100
AcDb2dVertex
 10
802.335117
 20
1695.993359
 30
0.0
  0
VERTEX
  5
20D
100
AcDbEntity
  8
図
  6
CONTINUOUS
 62
     6
100
AcDbVertex
100
AcDb2dVertex
 10
802.323928
 20
1696.039611
 30
0.0
  0
VERTEX
  5
20E
100
AcDbEntity
  8
図
  6
CONTINUOUS
 62
     6
100
AcDbVertex
100
AcDb2dVertex
 10
802.316665
 20
1696.069103
 30
0.0
  0
VERTEX
  5
20F
100
AcDbEntity
  8
図
  6
CONTINUOUS
 62
     6
100
AcDbVertex
100
AcDb2dVertex
 10
802.314077
 20
1696.079462
 30
0.0
  0
SEQEND
  5
210
100
AcDbEntity
  8
図
  6
CONTINUOUS
 62
     6
  0
ARC
  5
211
100
AcDbEntity
  8
図
  6
CONTINUOUS
 62
     6
100
AcDbCircle
 10
801.94402
 20
1698.929221
 30
0.0
 40
0.5
100
AcDbArc
 50
197.611815
 51
290.0
  0
LINE
  5
212
100
AcDbEntity
  8
図
  6
CONTINUOUS
 62
     6
100
AcDbLine
 10
801.945583
 20
1697.250643
 30
0.0
 11
802.314146
 21
1696.079186
 31
0.0
  0
ARC
  5
213
100
AcDbEntity
  8
図
  6
CONTINUOUS
 62
     6
100
AcDbCircle
 10
802.422534
 20
1697.400701
 30
0.0
 40
0.5
100
AcDbArc
 50
110.0
 51
197.464599
  0
LINE
  5
214
100
AcDbEntity
  8
図
  6
CONTINUOUS
 62
     6
100
AcDbLine
 10
779.452492
 20
1721.07204
 30
0.0
 11
821.579981
 21
1736.405192
 31
0.0
  0
ARC
  5
215
100
AcDbEntity
  8
図
  6
CONTINUOUS
 62
     6
100
AcDbCircle
 10
832.874635
 20
1710.187044
 30
0.0
 40
0.5
100
AcDbArc
 50
290.0
 51
20.0
  0
LINE
  5
216
100
AcDbEntity
  8
図
  6
CONTINUOUS
 62
     6
100
AcDbLine
 10
833.336956
 20
1710.377463
 30
0.0
 11
833.344481
 21
1710.358054
 31
0.0
  0
ARC
  5
217
100
AcDbEntity
  8
図
  6
CONTINUOUS
 62
     6
100
AcDbCircle
 10
833.524303
 20
1708.720819
 30
0.0
 40
0.5
100
AcDbArc
 50
22.179156
 51
110.0
  0
ARC
  5
218
100
AcDbEntity
  8
図
  6
CONTINUOUS
 62
     6
100
AcDbCircle
 10
821.922096
 20
1735.465534
 30
0.0
 40
1.0
100
AcDbArc
 50
22.385956
 51
110.0
  0
ARC
  5
219
100
AcDbEntity
  8
図
  6
CONTINUOUS
 62
     6
100
AcDbCircle
 10
820.493961
 20
1721.865486
 30
0.0
 40
9.0
100
AcDbArc
 50
348.636955
 51
22.385944
  0
ARC
  5
21A
100
AcDbEntity
  8
図
  6
CONTINUOUS
 62
     6
100
AcDbCircle
 10
783.248929
 20
1710.641457
 30
0.0
 40
0.5
100
AcDbArc
 50
200.0
 51
290.0
  0
ARC
  5
21B
100
AcDbEntity
  8
図
  6
CONTINUOUS
 62
     6
100
AcDbCircle
 10
793.486387
 20
1709.046698
 30
0.0
 40
4.5
100
AcDbArc
 50
17.611815
 51
110.0
  0
LINE
  5
21C
100
AcDbEntity
  8
図
  6
CONTINUOUS
 62
     6
100
AcDbLine
 10
783.419939
 20
1710.171611
 30
0.0
 11
791.947296
 21
1713.275315
 31
0.0
  0
ARC
  5
21D
100
AcDbEntity
  8
図
  6
CONTINUOUS
 62
     6
100
AcDbCircle
 10
779.623516
 20
1720.602199
 30
0.0
 40
0.5
100
AcDbArc
 50
110.0
 51
200.0
  0
ARC
  5
21E
100
AcDbEntity
  8
図
  6
CONTINUOUS
 62
     6
100
AcDbCircle
 10
820.493961
 20
1721.865486
 30
0.0
 40
9.0
100
AcDbArc
 50
22.385944
 51
56.134933
  0
LINE
  5
21F
100
AcDbEntity
  8
図
  6
EXLTYPE1
 62
     6
100
AcDbLine
 10
802.281561
 20
1697.881483
 30
0.0
 11
802.280779
 21
1697.881199
 31
0.0
  0
LINE
  5
220
100
AcDbEntity
  8
図
  6
EXLTYPE1
 62
     6
100
AcDbLine
 10
833.089568
 20
1709.839606
 30
0.0
 11
833.090162
 21
1709.839823
 31
0.0
  0
LINE
  5
221
100
AcDbEntity
  8
図
  6
CONTINUOUS
 62
     6
100
AcDbLine
 10
833.045645
 20
1709.717197
 30
0.0
 11
817.599955
 21
1704.095426
 31
0.0
  0
LINE
  5
222
100
AcDbEntity
  8
図
  6
CONTINUOUS
 62
     6
100
AcDbLine
 10
817.599955
 20
1704.095426
 30
0.0
 11
802.11503
 21
1698.459374
 31
0.0
  0
LINE
  5
223
100
AcDbEntity
  8
図
  6
CONTINUOUS
 62
     6
100
AcDbLine
 10
794.724229
 20
1657.954141
 30
0.0
 11
779.113821
 21
1663.635865
 31
0.0
  0
LINE
  5
224
100
AcDbEntity
  8
図
  6
CONTINUOUS
 62
     6
100
AcDbLine
 10
779.113821
 20
1663.635865
 30
0.0
 11
765.092266
 21
1668.739293
 31
0.0
  0
LINE
  5
225
100
AcDbEntity
  8
図
  6
CONTINUOUS
 62
     6
100
AcDbLine
 10
822.846736
 20
1735.846375
 30
0.0
 11
827.436692
 21
1724.70255
 31
0.0
  0
LINE
  5
226
100
AcDbEntity
  8
図
  6
CONTINUOUS
 62
     6
100
AcDbLine
 10
827.436692
 20
1724.70255
 30
0.0
 11
833.336956
 21
1710.377463
 31
0.0
  0
LINE
  5
227
100
AcDbEntity
  8
図
  6
CONTINUOUS
 62
     6
100
AcDbLine
 10
797.775464
 20
1710.408247
 30
0.0
 11
801.467456
 21
1698.777937
 31
0.0
  0
LINE
  5
228
100
AcDbEntity
  8
図
  6
CONTINUOUS
 62
     6
100
AcDbLine
 10
779.153669
 20
1720.431189
 30
0.0
 11
782.779083
 21
1710.470447
 31
0.0
  0
LINE
  5
229
100
AcDbEntity
  8
図
  6
CONTINUOUS
 62
     6
100
AcDbLine
 10
768.977354
 20
1664.563696
 30
0.0
 11
769.015159
 21
1664.549936
 31
0.0
  0
LINE
  5
22A
100
AcDbEntity
  8
図
  6
CONTINUOUS
 62
     6
100
AcDbLine
 10
767.83751
 20
1667.740107
 30
0.0
 11
766.195813
 21
1663.229582
 31
0.0
  0
LINE
  5
22B
100
AcDbEntity
  8
図
  6
CONTINUOUS
 62
     6
100
AcDbLine
 10
766.195813
 20
1663.229582
 30
0.0
 11
788.748436
 21
1655.021099
 31
0.0
  0
LINE
  5
22C
100
AcDbEntity
  8
図
  6
CONTINUOUS
 62
     6
100
AcDbLine
 10
790.390133
 20
1659.531623
 30
0.0
 11
788.748436
 21
1655.021099
 31
0.0
  0
LINE
  5
22D
100
AcDbEntity
  8
図
  6
CONTINUOUS
 62
     6
100
AcDbLine
 10
813.685003
 20
1659.937585
 30
0.0
 11
828.137869
 21
1614.0
 31
0.0
  0
LINE
  5
22E
100
AcDbEntity
  8
図
  6
CONTINUOUS
 62
     6
100
AcDbLine
 10
872.678913
 20
1614.0
 30
0.0
 11
833.987307
 21
1708.909571
 31
0.0
  0
LINE
  5
22F
100
AcDbEntity
  8
図
  6
CONTINUOUS
 62
     2
100
AcDbLine
 10
569.9
 20
1674.0
 30
0.0
 11
762.797488
 21
1674.0
 31
0.0
  0
LINE
  5
230
100
AcDbEntity
  8
図
  6
CONTINUOUS
 62
     2
100
AcDbLine
 10
848.218826
 20
1674.0
 30
0.0
 11
909.592719
 21
1674.0
 31
0.0
  0
LINE
  5
231
100
AcDbEntity
  8
図
  6
CONTINUOUS
 62
     6
100
AcDbLine
 10
1447.973391
 20
1704.284796
 30
0.0
 11
1449.5
 21
1731.205676
 31
0.0
  0
LINE
  5
232
100
AcDbEntity
  8
図
  6
CONTINUOUS
 62
     6
100
AcDbLine
 10
1482.045398
 20
1703.953465
 30
0.0
 11
1480.5
 21
1731.205676
 31
0.0
  0
LINE
  5
233
100
AcDbEntity
  8
図
  6
CONTINUOUS
 62
     6
100
AcDbLine
 10
1482.022866
 20
1704.707564
 30
0.0
 11
1482.023589
 21
1704.720326
 31
0.0
  0
POLYLINE
  5
234
100
AcDbEntity
  8
図
  6
CONTINUOUS
 62
     6
100
AcDb2dPolyline
 66
     1
 10
0.0
 20
0.0
 30
0.0
 70
   128
  0
VERTEX
  5
235
100
AcDbEntity
  8
図
  6
CONTINUOUS
 62
     6
100
AcDbVertex
100
AcDb2dVertex
 10
1482.018545
 20
1704.762991
 30
0.0
  0
VERTEX
  5
236
100
AcDbEntity
  8
図
  6
CONTINUOUS
 62
     6
100
AcDbVertex
100
AcDb2dVertex
 10
1482.026432
 20
1704.824022
 30
0.0
  0
SEQEND
  5
237
100
AcDbEntity
  8
図
  6
CONTINUOUS
 62
     6
  0
POLYLINE
  5
238
100
AcDbEntity
  8
図
  6
CONTINUOUS
 62
     6
100
AcDb2dPolyline
 66
     1
 10
0.0
 20
0.0
 30
0.0
 70
   128
  0
VERTEX
  5
239
100
AcDbEntity
  8
図
  6
CONTINUOUS
 62
     6
100
AcDbVertex
100
AcDb2dVertex
 10
1482.02338
 20
1704.720338
 30
0.0
  0
VERTEX
  5
23A
100
AcDbEntity
  8
図
  6
CONTINUOUS
 62
     6
100
AcDbVertex
100
AcDb2dVertex
 10
1482.025229
 20
1704.759983
 30
0.0
  0
SEQEND
  5
23B
100
AcDbEntity
  8
図
  6
CONTINUOUS
 62
     6
  0
POLYLINE
  5
23C
100
AcDbEntity
  8
図
  6
CONTINUOUS
 62
     6
100
AcDb2dPolyline
 66
     1
 10
0.0
 20
0.0
 30
0.0
 70
   128
  0
VERTEX
  5
23D
100
AcDbEntity
  8
図
  6
CONTINUOUS
 62
     6
100
AcDbVertex
100
AcDb2dVertex
 10
1482.025229
 20
1704.759983
 30
0.0
  0
VERTEX
  5
23E
100
AcDbEntity
  8
図
  6
CONTINUOUS
 62
     6
100
AcDbVertex
100
AcDb2dVertex
 10
1482.026432
 20
1704.824022
 30
0.0
  0
SEQEND
  5
23F
100
AcDbEntity
  8
図
  6
CONTINUOUS
 62
     6
  0
LINE
  5
240
100
AcDbEntity
  8
図
  6
CONTINUOUS
 62
     6
100
AcDbLine
 10
1447.976456
 20
1704.719636
 30
0.0
 11
1447.977152
 21
1704.707405
 31
0.0
  0
POLYLINE
  5
241
100
AcDbEntity
  8
図
  6
CONTINUOUS
 62
     6
100
AcDb2dPolyline
 66
     1
 10
0.0
 20
0.0
 30
0.0
 70
   128
  0
VERTEX
  5
242
100
AcDbEntity
  8
図
  6
CONTINUOUS
 62
     6
100
AcDbVertex
100
AcDb2dVertex
 10
1447.976679
 20
1704.719649
 30
0.0
  0
VERTEX
  5
243
100
AcDbEntity
  8
図
  6
CONTINUOUS
 62
     6
100
AcDbVertex
100
AcDb2dVertex
 10
1448.004507
 20
1704.467916
 30
0.0
  0
SEQEND
  5
244
100
AcDbEntity
  8
図
  6
CONTINUOUS
 62
     6
  0
POLYLINE
  5
245
100
AcDbEntity
  8
図
  6
CONTINUOUS
 62
     6
100
AcDb2dPolyline
 66
     1
 10
0.0
 20
0.0
 30
0.0
 70
   128
  0
VERTEX
  5
246
100
AcDbEntity
  8
図
  6
CONTINUOUS
 62
     6
100
AcDbVertex
100
AcDb2dVertex
 10
1447.973578
 20
1704.823995
 30
0.0
  0
VERTEX
  5
247
100
AcDbEntity
  8
図
  6
CONTINUOUS
 62
     6
100
AcDbVertex
100
AcDb2dVertex
 10
1447.974804
 20
1704.759327
 30
0.0
  0
SEQEND
  5
248
100
AcDbEntity
  8
図
  6
CONTINUOUS
 62
     6
  0
POLYLINE
  5
249
100
AcDbEntity
  8
図
  6
CONTINUOUS
 62
     6
100
AcDb2dPolyline
 66
     1
 10
0.0
 20
0.0
 30
0.0
 70
   128
  0
VERTEX
  5
24A
100
AcDbEntity
  8
図
  6
CONTINUOUS
 62
     6
100
AcDbVertex
100
AcDb2dVertex
 10
1447.974804
 20
1704.759327
 30
0.0
  0
VERTEX
  5
24B
100
AcDbEntity
  8
図
  6
CONTINUOUS
 62
     6
100
AcDbVertex
100
AcDb2dVertex
 10
1447.976666
 20
1704.719648
 30
0.0
  0
SEQEND
  5
24C
100
AcDbEntity
  8
図
  6
CONTINUOUS
 62
     6
  0
POLYLINE
  5
24D
100
AcDbEntity
  8
図
  6
CONTINUOUS
 62
     6
100
AcDb2dPolyline
 66
     1
 10
0.0
 20
0.0
 30
0.0
 70
   128
  0
VERTEX
  5
24E
100
AcDbEntity
  8
図
  6
CONTINUOUS
 62
     6
100
AcDbVertex
100
AcDb2dVertex
 10
1457.89682
 20
1709.57928
 30
0.0
  0
VERTEX
  5
24F
100
AcDbEntity
  8
図
  6
CONTINUOUS
 62
     6
100
AcDbVertex
100
AcDb2dVertex
 10
1457.877754
 20
1709.576051
 30
0.0
  0
VERTEX
  5
250
100
AcDbEntity
  8
図
  6
CONTINUOUS
 62
     6
100
AcDbVertex
100
AcDb2dVertex
 10
1457.823445
 20
1709.566814
 30
0.0
  0
VERTEX
  5
251
100
AcDbEntity
  8
図
  6
CONTINUOUS
 62
     6
100
AcDbVertex
100
AcDb2dVertex
 10
1457.738231
 20
1709.55225
 30
0.0
  0
VERTEX
  5
252
100
AcDbEntity
  8
図
  6
CONTINUOUS
 62
     6
100
AcDbVertex
100
AcDb2dVertex
 10
1457.626444
 20
1709.533036
 30
0.0
  0
VERTEX
  5
253
100
AcDbEntity
  8
図
  6
CONTINUOUS
 62
     6
100
AcDbVertex
100
AcDb2dVertex
 10
1457.492422
 20
1709.509852
 30
0.0
  0
VERTEX
  5
254
100
AcDbEntity
  8
図
  6
CONTINUOUS
 62
     6
100
AcDbVertex
100
AcDb2dVertex
 10
1457.340498
 20
1709.483376
 30
0.0
  0
VERTEX
  5
255
100
AcDbEntity
  8
図
  6
CONTINUOUS
 62
     6
100
AcDbVertex
100
AcDb2dVertex
 10
1457.175009
 20
1709.454288
 30
0.0
  0
VERTEX
  5
256
100
AcDbEntity
  8
図
  6
CONTINUOUS
 62
     6
100
AcDbVertex
100
AcDb2dVertex
 10
1457.000289
 20
1709.423265
 30
0.0
  0
VERTEX
  5
257
100
AcDbEntity
  8
図
  6
CONTINUOUS
 62
     6
100
AcDbVertex
100
AcDb2dVertex
 10
1456.820675
 20
1709.390987
 30
0.0
  0
VERTEX
  5
258
100
AcDbEntity
  8
図
  6
CONTINUOUS
 62
     6
100
AcDbVertex
100
AcDb2dVertex
 10
1456.6405
 20
1709.358132
 30
0.0
  0
VERTEX
  5
259
100
AcDbEntity
  8
図
  6
CONTINUOUS
 62
     6
100
AcDbVertex
100
AcDb2dVertex
 10
1456.464101
 20
1709.325379
 30
0.0
  0
VERTEX
  5
25A
100
AcDbEntity
  8
図
  6
CONTINUOUS
 62
     6
100
AcDbVertex
100
AcDb2dVertex
 10
1456.178512
 20
1709.270699
 30
0.0
  0
VERTEX
  5
25B
100
AcDbEntity
  8
図
  6
CONTINUOUS
 62
     6
100
AcDbVertex
100
AcDb2dVertex
 10
1455.914088
 20
1709.217826
 30
0.0
  0
VERTEX
  5
25C
100
AcDbEntity
  8
図
  6
CONTINUOUS
 62
     6
100
AcDbVertex
100
AcDb2dVertex
 10
1455.668096
 20
1709.166263
 30
0.0
  0
VERTEX
  5
25D
100
AcDbEntity
  8
図
  6
CONTINUOUS
 62
     6
100
AcDbVertex
100
AcDb2dVertex
 10
1455.437801
 20
1709.115516
 30
0.0
  0
VERTEX
  5
25E
100
AcDbEntity
  8
図
  6
CONTINUOUS
 62
     6
100
AcDbVertex
100
AcDb2dVertex
 10
1455.220469
 20
1709.06509
 30
0.0
  0
VERTEX
  5
25F
100
AcDbEntity
  8
図
  6
CONTINUOUS
 62
     6
100
AcDbVertex
100
AcDb2dVertex
 10
1455.013366
 20
1709.014489
 30
0.0
  0
VERTEX
  5
260
100
AcDbEntity
  8
図
  6
CONTINUOUS
 62
     6
100
AcDbVertex
100
AcDb2dVertex
 10
1454.813757
 20
1708.963219
 30
0.0
  0
VERTEX
  5
261
100
AcDbEntity
  8
図
  6
CONTINUOUS
 62
     6
100
AcDbVertex
100
AcDb2dVertex
 10
1454.618909
 20
1708.910785
 30
0.0
  0
VERTEX
  5
262
100
AcDbEntity
  8
図
  6
CONTINUOUS
 62
     6
100
AcDbVertex
100
AcDb2dVertex
 10
1454.426087
 20
1708.856691
 30
0.0
  0
VERTEX
  5
263
100
AcDbEntity
  8
図
  6
CONTINUOUS
 62
     6
100
AcDbVertex
100
AcDb2dVertex
 10
1454.232557
 20
1708.800443
 30
0.0
  0
VERTEX
  5
264
100
AcDbEntity
  8
図
  6
CONTINUOUS
 62
     6
100
AcDbVertex
100
AcDb2dVertex
 10
1454.035586
 20
1708.741545
 30
0.0
  0
VERTEX
  5
265
100
AcDbEntity
  8
図
  6
CONTINUOUS
 62
     6
100
AcDbVertex
100
AcDb2dVertex
 10
1453.856133
 20
1708.686732
 30
0.0
  0
VERTEX
  5
266
100
AcDbEntity
  8
図
  6
CONTINUOUS
 62
     6
100
AcDbVertex
100
AcDb2dVertex
 10
1453.672476
 20
1708.629532
 30
0.0
  0
VERTEX
  5
267
100
AcDbEntity
  8
図
  6
CONTINUOUS
 62
     6
100
AcDbVertex
100
AcDb2dVertex
 10
1453.485274
 20
1708.570032
 30
0.0
  0
VERTEX
  5
268
100
AcDbEntity
  8
図
  6
CONTINUOUS
 62
     6
100
AcDbVertex
100
AcDb2dVertex
 10
1453.295187
 20
1708.50832
 30
0.0
  0
VERTEX
  5
269
100
AcDbEntity
  8
図
  6
CONTINUOUS
 62
     6
100
AcDbVertex
100
AcDb2dVertex
 10
1453.102874
 20
1708.444484
 30
0.0
  0
VERTEX
  5
26A
100
AcDbEntity
  8
図
  6
CONTINUOUS
 62
     6
100
AcDbVertex
100
AcDb2dVertex
 10
1452.908996
 20
1708.378614
 30
0.0
  0
VERTEX
  5
26B
100
AcDbEntity
  8
図
  6
CONTINUOUS
 62
     6
100
AcDbVertex
100
AcDb2dVertex
 10
1452.71421
 20
1708.310797
 30
0.0
  0
VERTEX
  5
26C
100
AcDbEntity
  8
図
  6
CONTINUOUS
 62
     6
100
AcDbVertex
100
AcDb2dVertex
 10
1452.519178
 20
1708.241121
 30
0.0
  0
VERTEX
  5
26D
100
AcDbEntity
  8
図
  6
CONTINUOUS
 62
     6
100
AcDbVertex
100
AcDb2dVertex
 10
1452.324559
 20
1708.169674
 30
0.0
  0
VERTEX
  5
26E
100
AcDbEntity
  8
図
  6
CONTINUOUS
 62
     6
100
AcDbVertex
100
AcDb2dVertex
 10
1452.131012
 20
1708.096546
 30
0.0
  0
VERTEX
  5
26F
100
AcDbEntity
  8
図
  6
CONTINUOUS
 62
     6
100
AcDbVertex
100
AcDb2dVertex
 10
1451.939196
 20
1708.021824
 30
0.0
  0
VERTEX
  5
270
100
AcDbEntity
  8
図
  6
CONTINUOUS
 62
     6
100
AcDbVertex
100
AcDb2dVertex
 10
1451.778244
 20
1707.957198
 30
0.0
  0
VERTEX
  5
271
100
AcDbEntity
  8
図
  6
CONTINUOUS
 62
     6
100
AcDbVertex
100
AcDb2dVertex
 10
1451.618954
 20
1707.891231
 30
0.0
  0
VERTEX
  5
272
100
AcDbEntity
  8
図
  6
CONTINUOUS
 62
     6
100
AcDbVertex
100
AcDb2dVertex
 10
1451.46127
 20
1707.823665
 30
0.0
  0
VERTEX
  5
273
100
AcDbEntity
  8
図
  6
CONTINUOUS
 62
     6
100
AcDbVertex
100
AcDb2dVertex
 10
1451.305132
 20
1707.754243
 30
0.0
  0
VERTEX
  5
274
100
AcDbEntity
  8
図
  6
CONTINUOUS
 62
     6
100
AcDbVertex
100
AcDb2dVertex
 10
1451.150482
 20
1707.682705
 30
0.0
  0
VERTEX
  5
275
100
AcDbEntity
  8
図
  6
CONTINUOUS
 62
     6
100
AcDbVertex
100
AcDb2dVertex
 10
1450.997263
 20
1707.608795
 30
0.0
  0
VERTEX
  5
276
100
AcDbEntity
  8
図
  6
CONTINUOUS
 62
     6
100
AcDbVertex
100
AcDb2dVertex
 10
1450.845416
 20
1707.532254
 30
0.0
  0
VERTEX
  5
277
100
AcDbEntity
  8
図
  6
CONTINUOUS
 62
     6
100
AcDbVertex
100
AcDb2dVertex
 10
1450.694883
 20
1707.452826
 30
0.0
  0
VERTEX
  5
278
100
AcDbEntity
  8
図
  6
CONTINUOUS
 62
     6
100
AcDbVertex
100
AcDb2dVertex
 10
1450.545606
 20
1707.370251
 30
0.0
  0
VERTEX
  5
279
100
AcDbEntity
  8
図
  6
CONTINUOUS
 62
     6
100
AcDbVertex
100
AcDb2dVertex
 10
1450.397528
 20
1707.284273
 30
0.0
  0
VERTEX
  5
27A
100
AcDbEntity
  8
図
  6
CONTINUOUS
 62
     6
100
AcDbVertex
100
AcDb2dVertex
 10
1450.250588
 20
1707.194633
 30
0.0
  0
VERTEX
  5
27B
100
AcDbEntity
  8
図
  6
CONTINUOUS
 62
     6
100
AcDbVertex
100
AcDb2dVertex
 10
1450.12997
 20
1707.117664
 30
0.0
  0
VERTEX
  5
27C
100
AcDbEntity
  8
図
  6
CONTINUOUS
 62
     6
100
AcDbVertex
100
AcDb2dVertex
 10
1450.010244
 20
1707.038351
 30
0.0
  0
VERTEX
  5
27D
100
AcDbEntity
  8
図
  6
CONTINUOUS
 62
     6
100
AcDbVertex
100
AcDb2dVertex
 10
1449.891562
 20
1706.957029
 30
0.0
  0
VERTEX
  5
27E
100
AcDbEntity
  8
図
  6
CONTINUOUS
 62
     6
100
AcDbVertex
100
AcDb2dVertex
 10
1449.774077
 20
1706.874032
 30
0.0
  0
VERTEX
  5
27F
100
AcDbEntity
  8
図
  6
CONTINUOUS
 62
     6
100
AcDbVertex
100
AcDb2dVertex
 10
1449.65794
 20
1706.789694
 30
0.0
  0
VERTEX
  5
280
100
AcDbEntity
  8
図
  6
CONTINUOUS
 62
     6
100
AcDbVertex
100
AcDb2dVertex
 10
1449.543305
 20
1706.70435
 30
0.0
  0
VERTEX
  5
281
100
AcDbEntity
  8
図
  6
CONTINUOUS
 62
     6
100
AcDbVertex
100
AcDb2dVertex
 10
1449.430325
 20
1706.618334
 30
0.0
  0
VERTEX
  5
282
100
AcDbEntity
  8
図
  6
CONTINUOUS
 62
     6
100
AcDbVertex
100
AcDb2dVertex
 10
1449.31915
 20
1706.531982
 30
0.0
  0
VERTEX
  5
283
100
AcDbEntity
  8
図
  6
CONTINUOUS
 62
     6
100
AcDbVertex
100
AcDb2dVertex
 10
1449.209935
 20
1706.445626
 30
0.0
  0
VERTEX
  5
284
100
AcDbEntity
  8
図
  6
CONTINUOUS
 62
     6
100
AcDbVertex
100
AcDb2dVertex
 10
1449.102831
 20
1706.359602
 30
0.0
  0
VERTEX
  5
285
100
AcDbEntity
  8
図
  6
CONTINUOUS
 62
     6
100
AcDbVertex
100
AcDb2dVertex
 10
1448.997992
 20
1706.274245
 30
0.0
  0
VERTEX
  5
286
100
AcDbEntity
  8
図
  6
CONTINUOUS
 62
     6
100
AcDbVertex
100
AcDb2dVertex
 10
1448.915753
 20
1706.206326
 30
0.0
  0
VERTEX
  5
287
100
AcDbEntity
  8
図
  6
CONTINUOUS
 62
     6
100
AcDbVertex
100
AcDb2dVertex
 10
1448.835303
 20
1706.137825
 30
0.0
  0
VERTEX
  5
288
100
AcDbEntity
  8
図
  6
CONTINUOUS
 62
     6
100
AcDbVertex
100
AcDb2dVertex
 10
1448.75688
 20
1706.067516
 30
0.0
  0
VERTEX
  5
289
100
AcDbEntity
  8
図
  6
CONTINUOUS
 62
     6
100
AcDbVertex
100
AcDb2dVertex
 10
1448.680721
 20
1705.994176
 30
0.0
  0
VERTEX
  5
28A
100
AcDbEntity
  8
図
  6
CONTINUOUS
 62
     6
100
AcDbVertex
100
AcDb2dVertex
 10
1448.607064
 20
1705.916579
 30
0.0
  0
VERTEX
  5
28B
100
AcDbEntity
  8
図
  6
CONTINUOUS
 62
     6
100
AcDbVertex
100
AcDb2dVertex
 10
1448.536147
 20
1705.833501
 30
0.0
  0
VERTEX
  5
28C
100
AcDbEntity
  8
図
  6
CONTINUOUS
 62
     6
100
AcDbVertex
100
AcDb2dVertex
 10
1448.468208
 20
1705.743717
 30
0.0
  0
VERTEX
  5
28D
100
AcDbEntity
  8
図
  6
CONTINUOUS
 62
     6
100
AcDbVertex
100
AcDb2dVertex
 10
1448.403483
 20
1705.646001
 30
0.0
  0
VERTEX
  5
28E
100
AcDbEntity
  8
図
  6
CONTINUOUS
 62
     6
100
AcDbVertex
100
AcDb2dVertex
 10
1448.342211
 20
1705.53913
 30
0.0
  0
VERTEX
  5
28F
100
AcDbEntity
  8
図
  6
CONTINUOUS
 62
     6
100
AcDbVertex
100
AcDb2dVertex
 10
1448.284629
 20
1705.421879
 30
0.0
  0
VERTEX
  5
290
100
AcDbEntity
  8
図
  6
CONTINUOUS
 62
     6
100
AcDbVertex
100
AcDb2dVertex
 10
1448.230975
 20
1705.293023
 30
0.0
  0
VERTEX
  5
291
100
AcDbEntity
  8
図
  6
CONTINUOUS
 62
     6
100
AcDbVertex
100
AcDb2dVertex
 10
1448.189338
 20
1705.176272
 30
0.0
  0
VERTEX
  5
292
100
AcDbEntity
  8
図
  6
CONTINUOUS
 62
     6
100
AcDbVertex
100
AcDb2dVertex
 10
1448.150792
 20
1705.054059
 30
0.0
  0
VERTEX
  5
293
100
AcDbEntity
  8
図
  6
CONTINUOUS
 62
     6
100
AcDbVertex
100
AcDb2dVertex
 10
1448.115522
 20
1704.929877
 30
0.0
  0
VERTEX
  5
294
100
AcDbEntity
  8
図
  6
CONTINUOUS
 62
     6
100
AcDbVertex
100
AcDb2dVertex
 10
1448.083713
 20
1704.807219
 30
0.0
  0
VERTEX
  5
295
100
AcDbEntity
  8
図
  6
CONTINUOUS
 62
     6
100
AcDbVertex
100
AcDb2dVertex
 10
1448.055548
 20
1704.68958
 30
0.0
  0
VERTEX
  5
296
100
AcDbEntity
  8
図
  6
CONTINUOUS
 62
     6
100
AcDbVertex
100
AcDb2dVertex
 10
1448.031211
 20
1704.580454
 30
0.0
  0
VERTEX
  5
297
100
AcDbEntity
  8
図
  6
CONTINUOUS
 62
     6
100
AcDbVertex
100
AcDb2dVertex
 10
1448.010887
 20
1704.483334
 30
0.0
  0
VERTEX
  5
298
100
AcDbEntity
  8
図
  6
CONTINUOUS
 62
     6
100
AcDbVertex
100
AcDb2dVertex
 10
1447.994759
 20
1704.401714
 30
0.0
  0
VERTEX
  5
299
100
AcDbEntity
  8
図
  6
CONTINUOUS
 62
     6
100
AcDbVertex
100
AcDb2dVertex
 10
1447.983011
 20
1704.339089
 30
0.0
  0
VERTEX
  5
29A
100
AcDbEntity
  8
図
  6
CONTINUOUS
 62
     6
100
AcDbVertex
100
AcDb2dVertex
 10
1447.975827
 20
1704.298951
 30
0.0
  0
VERTEX
  5
29B
100
AcDbEntity
  8
図
  6
CONTINUOUS
 62
     6
100
AcDbVertex
100
AcDb2dVertex
 10
1447.973391
 20
1704.284796
 30
0.0
  0
SEQEND
  5
29C
100
AcDbEntity
  8
図
  6
CONTINUOUS
 62
     6
  0
POLYLINE
  5
29D
100
AcDbEntity
  8
図
  6
CONTINUOUS
 62
     6
100
AcDb2dPolyline
 66
     1
 10
0.0
 20
0.0
 30
0.0
 70
   128
  0
VERTEX
  5
29E
100
AcDbEntity
  8
図
  6
CONTINUOUS
 62
     6
100
AcDbVertex
100
AcDb2dVertex
 10
1481.996839
 20
1704.618881
 30
0.0
  0
VERTEX
  5
29F
100
AcDbEntity
  8
図
  6
CONTINUOUS
 62
     6
100
AcDbVertex
100
AcDb2dVertex
 10
1481.994297
 20
1704.62792
 30
0.0
  0
VERTEX
  5
2A0
100
AcDbEntity
  8
図
  6
CONTINUOUS
 62
     6
100
AcDbVertex
100
AcDb2dVertex
 10
1481.986943
 20
1704.653628
 30
0.0
  0
VERTEX
  5
2A1
100
AcDbEntity
  8
図
  6
CONTINUOUS
 62
     6
100
AcDbVertex
100
AcDb2dVertex
 10
1481.975188
 20
1704.693888
 30
0.0
  0
VERTEX
  5
2A2
100
AcDbEntity
  8
図
  6
CONTINUOUS
 62
     6
100
AcDbVertex
100
AcDb2dVertex
 10
1481.959442
 20
1704.746583
 30
0.0
  0
VERTEX
  5
2A3
100
AcDbEntity
  8
図
  6
CONTINUOUS
 62
     6
100
AcDbVertex
100
AcDb2dVertex
 10
1481.940116
 20
1704.809598
 30
0.0
  0
VERTEX
  5
2A4
100
AcDbEntity
  8
図
  6
CONTINUOUS
 62
     6
100
AcDbVertex
100
AcDb2dVertex
 10
1481.91762
 20
1704.880814
 30
0.0
  0
VERTEX
  5
2A5
100
AcDbEntity
  8
図
  6
CONTINUOUS
 62
     6
100
AcDbVertex
100
AcDb2dVertex
 10
1481.892365
 20
1704.958117
 30
0.0
  0
VERTEX
  5
2A6
100
AcDbEntity
  8
図
  6
CONTINUOUS
 62
     6
100
AcDbVertex
100
AcDb2dVertex
 10
1481.86476
 20
1705.039389
 30
0.0
  0
VERTEX
  5
2A7
100
AcDbEntity
  8
図
  6
CONTINUOUS
 62
     6
100
AcDbVertex
100
AcDb2dVertex
 10
1481.835217
 20
1705.122514
 30
0.0
  0
VERTEX
  5
2A8
100
AcDbEntity
  8
図
  6
CONTINUOUS
 62
     6
100
AcDbVertex
100
AcDb2dVertex
 10
1481.804146
 20
1705.205376
 30
0.0
  0
VERTEX
  5
2A9
100
AcDbEntity
  8
図
  6
CONTINUOUS
 62
     6
100
AcDbVertex
100
AcDb2dVertex
 10
1481.771957
 20
1705.285858
 30
0.0
  0
VERTEX
  5
2AA
100
AcDbEntity
  8
図
  6
CONTINUOUS
 62
     6
100
AcDbVertex
100
AcDb2dVertex
 10
1481.713444
 20
1705.417485
 30
0.0
  0
VERTEX
  5
2AB
100
AcDbEntity
  8
図
  6
CONTINUOUS
 62
     6
100
AcDbVertex
100
AcDb2dVertex
 10
1481.652753
 20
1705.536522
 30
0.0
  0
VERTEX
  5
2AC
100
AcDbEntity
  8
図
  6
CONTINUOUS
 62
     6
100
AcDbVertex
100
AcDb2dVertex
 10
1481.589902
 20
1705.644322
 30
0.0
  0
VERTEX
  5
2AD
100
AcDbEntity
  8
図
  6
CONTINUOUS
 62
     6
100
AcDbVertex
100
AcDb2dVertex
 10
1481.524905
 20
1705.742234
 30
0.0
  0
VERTEX
  5
2AE
100
AcDbEntity
  8
図
  6
CONTINUOUS
 62
     6
100
AcDbVertex
100
AcDb2dVertex
 10
1481.45778
 20
1705.83161
 30
0.0
  0
VERTEX
  5
2AF
100
AcDbEntity
  8
図
  6
CONTINUOUS
 62
     6
100
AcDbVertex
100
AcDb2dVertex
 10
1481.388543
 20
1705.913801
 30
0.0
  0
VERTEX
  5
2B0
100
AcDbEntity
  8
図
  6
CONTINUOUS
 62
     6
100
AcDbVertex
100
AcDb2dVertex
 10
1481.317208
 20
1705.990156
 30
0.0
  0
VERTEX
  5
2B1
100
AcDbEntity
  8
図
  6
CONTINUOUS
 62
     6
100
AcDbVertex
100
AcDb2dVertex
 10
1481.243793
 20
1706.062029
 30
0.0
  0
VERTEX
  5
2B2
100
AcDbEntity
  8
図
  6
CONTINUOUS
 62
     6
100
AcDbVertex
100
AcDb2dVertex
 10
1481.168313
 20
1706.130768
 30
0.0
  0
VERTEX
  5
2B3
100
AcDbEntity
  8
図
  6
CONTINUOUS
 62
     6
100
AcDbVertex
100
AcDb2dVertex
 10
1481.090784
 20
1706.197725
 30
0.0
  0
VERTEX
  5
2B4
100
AcDbEntity
  8
図
  6
CONTINUOUS
 62
     6
100
AcDbVertex
100
AcDb2dVertex
 10
1481.011223
 20
1706.264252
 30
0.0
  0
VERTEX
  5
2B5
100
AcDbEntity
  8
図
  6
CONTINUOUS
 62
     6
100
AcDbVertex
100
AcDb2dVertex
 10
1480.90889
 20
1706.348426
 30
0.0
  0
VERTEX
  5
2B6
100
AcDbEntity
  8
図
  6
CONTINUOUS
 62
     6
100
AcDbVertex
100
AcDb2dVertex
 10
1480.803636
 20
1706.433655
 30
0.0
  0
VERTEX
  5
2B7
100
AcDbEntity
  8
図
  6
CONTINUOUS
 62
     6
100
AcDbVertex
100
AcDb2dVertex
 10
1480.695697
 20
1706.519557
 30
0.0
  0
VERTEX
  5
2B8
100
AcDbEntity
  8
図
  6
CONTINUOUS
 62
     6
100
AcDbVertex
100
AcDb2dVertex
 10
1480.585308
 20
1706.605748
 30
0.0
  0
VERTEX
  5
2B9
100
AcDbEntity
  8
図
  6
CONTINUOUS
 62
     6
100
AcDbVertex
100
AcDb2dVertex
 10
1480.472705
 20
1706.691843
 30
0.0
  0
VERTEX
  5
2BA
100
AcDbEntity
  8
図
  6
CONTINUOUS
 62
     6
100
AcDbVertex
100
AcDb2dVertex
 10
1480.358124
 20
1706.777459
 30
0.0
  0
VERTEX
  5
2BB
100
AcDbEntity
  8
図
  6
CONTINUOUS
 62
     6
100
AcDbVertex
100
AcDb2dVertex
 10
1480.241799
 20
1706.862212
 30
0.0
  0
VERTEX
  5
2BC
100
AcDbEntity
  8
図
  6
CONTINUOUS
 62
     6
100
AcDbVertex
100
AcDb2dVertex
 10
1480.123966
 20
1706.945718
 30
0.0
  0
VERTEX
  5
2BD
100
AcDbEntity
  8
図
  6
CONTINUOUS
 62
     6
100
AcDbVertex
100
AcDb2dVertex
 10
1480.004861
 20
1707.027595
 30
0.0
  0
VERTEX
  5
2BE
100
AcDbEntity
  8
図
  6
CONTINUOUS
 62
     6
100
AcDbVertex
100
AcDb2dVertex
 10
1479.884718
 20
1707.107457
 30
0.0
  0
VERTEX
  5
2BF
100
AcDbEntity
  8
図
  6
CONTINUOUS
 62
     6
100
AcDbVertex
100
AcDb2dVertex
 10
1479.763774
 20
1707.184922
 30
0.0
  0
VERTEX
  5
2C0
100
AcDbEntity
  8
図
  6
CONTINUOUS
 62
     6
100
AcDbVertex
100
AcDb2dVertex
 10
1479.616183
 20
1707.275315
 30
0.0
  0
VERTEX
  5
2C1
100
AcDbEntity
  8
図
  6
CONTINUOUS
 62
     6
100
AcDbVertex
100
AcDb2dVertex
 10
1479.467671
 20
1707.361889
 30
0.0
  0
VERTEX
  5
2C2
100
AcDbEntity
  8
図
  6
CONTINUOUS
 62
     6
100
AcDbVertex
100
AcDb2dVertex
 10
1479.31815
 20
1707.44492
 30
0.0
  0
VERTEX
  5
2C3
100
AcDbEntity
  8
図
  6
CONTINUOUS
 62
     6
100
AcDbVertex
100
AcDb2dVertex
 10
1479.167535
 20
1707.524686
 30
0.0
  0
VERTEX
  5
2C4
100
AcDbEntity
  8
図
  6
CONTINUOUS
 62
     6
100
AcDbVertex
100
AcDb2dVertex
 10
1479.015739
 20
1707.601463
 30
0.0
  0
VERTEX
  5
2C5
100
AcDbEntity
  8
図
  6
CONTINUOUS
 62
     6
100
AcDbVertex
100
AcDb2dVertex
 10
1478.862673
 20
1707.675529
 30
0.0
  0
VERTEX
  5
2C6
100
AcDbEntity
  8
図
  6
CONTINUOUS
 62
     6
100
AcDbVertex
100
AcDb2dVertex
 10
1478.708251
 20
1707.747159
 30
0.0
  0
VERTEX
  5
2C7
100
AcDbEntity
  8
図
  6
CONTINUOUS
 62
     6
100
AcDbVertex
100
AcDb2dVertex
 10
1478.552386
 20
1707.816632
 30
0.0
  0
VERTEX
  5
2C8
100
AcDbEntity
  8
図
  6
CONTINUOUS
 62
     6
100
AcDbVertex
100
AcDb2dVertex
 10
1478.394991
 20
1707.884224
 30
0.0
  0
VERTEX
  5
2C9
100
AcDbEntity
  8
図
  6
CONTINUOUS
 62
     6
100
AcDbVertex
100
AcDb2dVertex
 10
1478.235979
 20
1707.950211
 30
0.0
  0
VERTEX
  5
2CA
100
AcDbEntity
  8
図
  6
CONTINUOUS
 62
     6
100
AcDbVertex
100
AcDb2dVertex
 10
1478.075263
 20
1708.014871
 30
0.0
  0
VERTEX
  5
2CB
100
AcDbEntity
  8
図
  6
CONTINUOUS
 62
     6
100
AcDbVertex
100
AcDb2dVertex
 10
1477.88299
 20
1708.089924
 30
0.0
  0
VERTEX
  5
2CC
100
AcDbEntity
  8
図
  6
CONTINUOUS
 62
     6
100
AcDbVertex
100
AcDb2dVertex
 10
1477.688886
 20
1708.163412
 30
0.0
  0
VERTEX
  5
2CD
100
AcDbEntity
  8
図
  6
CONTINUOUS
 62
     6
100
AcDbVertex
100
AcDb2dVertex
 10
1477.493626
 20
1708.235241
 30
0.0
  0
VERTEX
  5
2CE
100
AcDbEntity
  8
図
  6
CONTINUOUS
 62
     6
100
AcDbVertex
100
AcDb2dVertex
 10
1477.297886
 20
1708.305317
 30
0.0
  0
VERTEX
  5
2CF
100
AcDbEntity
  8
図
  6
CONTINUOUS
 62
     6
100
AcDbVertex
100
AcDb2dVertex
 10
1477.102341
 20
1708.373545
 30
0.0
  0
VERTEX
  5
2D0
100
AcDbEntity
  8
図
  6
CONTINUOUS
 62
     6
100
AcDbVertex
100
AcDb2dVertex
 10
1476.907665
 20
1708.43983
 30
0.0
  0
VERTEX
  5
2D1
100
AcDbEntity
  8
図
  6
CONTINUOUS
 62
     6
100
AcDbVertex
100
AcDb2dVertex
 10
1476.714535
 20
1708.504078
 30
0.0
  0
VERTEX
  5
2D2
100
AcDbEntity
  8
図
  6
CONTINUOUS
 62
     6
100
AcDbVertex
100
AcDb2dVertex
 10
1476.523624
 20
1708.566193
 30
0.0
  0
VERTEX
  5
2D3
100
AcDbEntity
  8
図
  6
CONTINUOUS
 62
     6
100
AcDbVertex
100
AcDb2dVertex
 10
1476.335608
 20
1708.626082
 30
0.0
  0
VERTEX
  5
2D4
100
AcDbEntity
  8
図
  6
CONTINUOUS
 62
     6
100
AcDbVertex
100
AcDb2dVertex
 10
1476.151162
 20
1708.683649
 30
0.0
  0
VERTEX
  5
2D5
100
AcDbEntity
  8
図
  6
CONTINUOUS
 62
     6
100
AcDbVertex
100
AcDb2dVertex
 10
1475.970962
 20
1708.7388
 30
0.0
  0
VERTEX
  5
2D6
100
AcDbEntity
  8
図
  6
CONTINUOUS
 62
     6
100
AcDbVertex
100
AcDb2dVertex
 10
1475.772777
 20
1708.798168
 30
0.0
  0
VERTEX
  5
2D7
100
AcDbEntity
  8
図
  6
CONTINUOUS
 62
     6
100
AcDbVertex
100
AcDb2dVertex
 10
1475.578101
 20
1708.854837
 30
0.0
  0
VERTEX
  5
2D8
100
AcDbEntity
  8
図
  6
CONTINUOUS
 62
     6
100
AcDbVertex
100
AcDb2dVertex
 10
1475.384166
 20
1708.909309
 30
0.0
  0
VERTEX
  5
2D9
100
AcDbEntity
  8
図
  6
CONTINUOUS
 62
     6
100
AcDbVertex
100
AcDb2dVertex
 10
1475.188207
 20
1708.962088
 30
0.0
  0
VERTEX
  5
2DA
100
AcDbEntity
  8
図
  6
CONTINUOUS
 62
     6
100
AcDbVertex
100
AcDb2dVertex
 10
1474.987457
 20
1709.013678
 30
0.0
  0
VERTEX
  5
2DB
100
AcDbEntity
  8
図
  6
CONTINUOUS
 62
     6
100
AcDbVertex
100
AcDb2dVertex
 10
1474.779148
 20
1709.06458
 30
0.0
  0
VERTEX
  5
2DC
100
AcDbEntity
  8
図
  6
CONTINUOUS
 62
     6
100
AcDbVertex
100
AcDb2dVertex
 10
1474.560513
 20
1709.115299
 30
0.0
  0
VERTEX
  5
2DD
100
AcDbEntity
  8
図
  6
CONTINUOUS
 62
     6
100
AcDbVertex
100
AcDb2dVertex
 10
1474.328786
 20
1709.166337
 30
0.0
  0
VERTEX
  5
2DE
100
AcDbEntity
  8
図
  6
CONTINUOUS
 62
     6
100
AcDbVertex
100
AcDb2dVertex
 10
1474.081201
 20
1709.218198
 30
0.0
  0
VERTEX
  5
2DF
100
AcDbEntity
  8
図
  6
CONTINUOUS
 62
     6
100
AcDbVertex
100
AcDb2dVertex
 10
1473.81499
 20
1709.271384
 30
0.0
  0
VERTEX
  5
2E0
100
AcDbEntity
  8
図
  6
CONTINUOUS
 62
     6
100
AcDbVertex
100
AcDb2dVertex
 10
1473.527386
 20
1709.3264
 30
0.0
  0
VERTEX
  5
2E1
100
AcDbEntity
  8
図
  6
CONTINUOUS
 62
     6
100
AcDbVertex
100
AcDb2dVertex
 10
1473.351897
 20
1709.358958
 30
0.0
  0
VERTEX
  5
2E2
100
AcDbEntity
  8
図
  6
CONTINUOUS
 62
     6
100
AcDbVertex
100
AcDb2dVertex
 10
1473.172708
 20
1709.391614
 30
0.0
  0
VERTEX
  5
2E3
100
AcDbEntity
  8
図
  6
CONTINUOUS
 62
     6
100
AcDbVertex
100
AcDb2dVertex
 10
1472.99412
 20
1709.423695
 30
0.0
  0
VERTEX
  5
2E4
100
AcDbEntity
  8
図
  6
CONTINUOUS
 62
     6
100
AcDbVertex
100
AcDb2dVertex
 10
1472.820434
 20
1709.454526
 30
0.0
  0
VERTEX
  5
2E5
100
AcDbEntity
  8
図
  6
CONTINUOUS
 62
     6
100
AcDbVertex
100
AcDb2dVertex
 10
1472.655951
 20
1709.483433
 30
0.0
  0
VERTEX
  5
2E6
100
AcDbEntity
  8
図
  6
CONTINUOUS
 62
     6
100
AcDbVertex
100
AcDb2dVertex
 10
1472.504972
 20
1709.509742
 30
0.0
  0
VERTEX
  5
2E7
100
AcDbEntity
  8
図
  6
CONTINUOUS
 62
     6
100
AcDbVertex
100
AcDb2dVertex
 10
1472.371799
 20
1709.532779
 30
0.0
  0
VERTEX
  5
2E8
100
AcDbEntity
  8
図
  6
CONTINUOUS
 62
     6
100
AcDbVertex
100
AcDb2dVertex
 10
1472.260732
 20
1709.55187
 30
0.0
  0
VERTEX
  5
2E9
100
AcDbEntity
  8
図
  6
CONTINUOUS
 62
     6
100
AcDbVertex
100
AcDb2dVertex
 10
1472.176074
 20
1709.566341
 30
0.0
  0
VERTEX
  5
2EA
100
AcDbEntity
  8
図
  6
CONTINUOUS
 62
     6
100
AcDbVertex
100
AcDb2dVertex
 10
1472.122124
 20
1709.575518
 30
0.0
  0
VERTEX
  5
2EB
100
AcDbEntity
  8
図
  6
CONTINUOUS
 62
     6
100
AcDbVertex
100
AcDb2dVertex
 10
1472.103185
 20
1709.578727
 30
0.0
  0
SEQEND
  5
2EC
100
AcDbEntity
  8
図
  6
CONTINUOUS
 62
     6
  0
POLYLINE
  5
2ED
100
AcDbEntity
  8
図
  6
CONTINUOUS
 62
     6
100
AcDb2dPolyline
 66
     1
 10
0.0
 20
0.0
 30
0.0
 70
   128
  0
VERTEX
  5
2EE
100
AcDbEntity
  8
図
  6
CONTINUOUS
 62
     6
100
AcDbVertex
100
AcDb2dVertex
 10
1448.004507
 20
1704.467916
 30
0.0
  0
VERTEX
  5
2EF
100
AcDbEntity
  8
図
  6
CONTINUOUS
 62
     6
100
AcDbVertex
100
AcDb2dVertex
 10
1448.006189
 20
1704.459562
 30
0.0
  0
SEQEND
  5
2F0
100
AcDbEntity
  8
図
  6
CONTINUOUS
 62
     6
  0
POLYLINE
  5
2F1
100
AcDbEntity
  8
図
  6
CONTINUOUS
 62
     6
100
AcDb2dPolyline
 66
     1
 10
0.0
 20
0.0
 30
0.0
 70
   128
  0
VERTEX
  5
2F2
100
AcDbEntity
  8
図
  6
CONTINUOUS
 62
     6
100
AcDbVertex
100
AcDb2dVertex
 10
1482.026599
 20
1704.823986
 30
0.0
  0
VERTEX
  5
2F3
100
AcDbEntity
  8
図
  6
CONTINUOUS
 62
     6
100
AcDbVertex
100
AcDb2dVertex
 10
1481.996839
 20
1705.158104
 30
0.0
  0
SEQEND
  5
2F4
100
AcDbEntity
  8
図
  6
CONTINUOUS
 62
     6
  0
POLYLINE
  5
2F5
100
AcDbEntity
  8
図
  6
CONTINUOUS
 62
     6
100
AcDb2dPolyline
 66
     1
 10
0.0
 20
0.0
 30
0.0
 70
   128
  0
VERTEX
  5
2F6
100
AcDbEntity
  8
図
  6
CONTINUOUS
 62
     6
100
AcDbVertex
100
AcDb2dVertex
 10
1482.014184
 20
1704.63702
 30
0.0
  0
VERTEX
  5
2F7
100
AcDbEntity
  8
図
  6
CONTINUOUS
 62
     6
100
AcDbVertex
100
AcDb2dVertex
 10
1482.02337
 20
1704.720339
 30
0.0
  0
SEQEND
  5
2F8
100
AcDbEntity
  8
図
  6
CONTINUOUS
 62
     6
  0
POLYLINE
  5
2F9
100
AcDbEntity
  8
図
  6
CONTINUOUS
 62
     6
100
AcDb2dPolyline
 66
     1
 10
0.0
 20
0.0
 30
0.0
 70
   128
  0
VERTEX
  5
2FA
100
AcDbEntity
  8
図
  6
CONTINUOUS
 62
     6
100
AcDbVertex
100
AcDb2dVertex
 10
1472.103185
 20
1709.578727
 30
0.0
  0
VERTEX
  5
2FB
100
AcDbEntity
  8
図
  6
CONTINUOUS
 62
     6
100
AcDbVertex
100
AcDb2dVertex
 10
1472.08649
 20
1709.581173
 30
0.0
  0
VERTEX
  5
2FC
100
AcDbEntity
  8
図
  6
CONTINUOUS
 62
     6
100
AcDbVertex
100
AcDb2dVertex
 10
1472.038853
 20
1709.588128
 30
0.0
  0
VERTEX
  5
2FD
100
AcDbEntity
  8
図
  6
CONTINUOUS
 62
     6
100
AcDbVertex
100
AcDb2dVertex
 10
1471.963947
 20
1709.599015
 30
0.0
  0
VERTEX
  5
2FE
100
AcDbEntity
  8
図
  6
CONTINUOUS
 62
     6
100
AcDbVertex
100
AcDb2dVertex
 10
1471.865447
 20
1709.613258
 30
0.0
  0
VERTEX
  5
2FF
100
AcDbEntity
  8
図
  6
CONTINUOUS
 62
     6
100
AcDbVertex
100
AcDb2dVertex
 10
1471.747025
 20
1709.630282
 30
0.0
  0
VERTEX
  5
300
100
AcDbEntity
  8
図
  6
CONTINUOUS
 62
     6
100
AcDbVertex
100
AcDb2dVertex
 10
1471.612356
 20
1709.64951
 30
0.0
  0
VERTEX
  5
301
100
AcDbEntity
  8
図
  6
CONTINUOUS
 62
     6
100
AcDbVertex
100
AcDb2dVertex
 10
1471.465112
 20
1709.670367
 30
0.0
  0
VERTEX
  5
302
100
AcDbEntity
  8
図
  6
CONTINUOUS
 62
     6
100
AcDbVertex
100
AcDb2dVertex
 10
1471.308967
 20
1709.692276
 30
0.0
  0
VERTEX
  5
303
100
AcDbEntity
  8
図
  6
CONTINUOUS
 62
     6
100
AcDbVertex
100
AcDb2dVertex
 10
1471.147594
 20
1709.714662
 30
0.0
  0
VERTEX
  5
304
100
AcDbEntity
  8
図
  6
CONTINUOUS
 62
     6
100
AcDbVertex
100
AcDb2dVertex
 10
1470.984668
 20
1709.736948
 30
0.0
  0
VERTEX
  5
305
100
AcDbEntity
  8
図
  6
CONTINUOUS
 62
     6
100
AcDbVertex
100
AcDb2dVertex
 10
1470.82386
 20
1709.758558
 30
0.0
  0
VERTEX
  5
306
100
AcDbEntity
  8
図
  6
CONTINUOUS
 62
     6
100
AcDbVertex
100
AcDb2dVertex
 10
1470.483026
 20
1709.802699
 30
0.0
  0
VERTEX
  5
307
100
AcDbEntity
  8
図
  6
CONTINUOUS
 62
     6
100
AcDbVertex
100
AcDb2dVertex
 10
1470.167908
 20
1709.841129
 30
0.0
  0
VERTEX
  5
308
100
AcDbEntity
  8
図
  6
CONTINUOUS
 62
     6
100
AcDbVertex
100
AcDb2dVertex
 10
1469.875206
 20
1709.87441
 30
0.0
  0
VERTEX
  5
309
100
AcDbEntity
  8
図
  6
CONTINUOUS
 62
     6
100
AcDbVertex
100
AcDb2dVertex
 10
1469.601619
 20
1709.9031
 30
0.0
  0
VERTEX
  5
30A
100
AcDbEntity
  8
図
  6
CONTINUOUS
 62
     6
100
AcDbVertex
100
AcDb2dVertex
 10
1469.343847
 20
1709.927758
 30
0.0
  0
VERTEX
  5
30B
100
AcDbEntity
  8
図
  6
CONTINUOUS
 62
     6
100
AcDbVertex
100
AcDb2dVertex
 10
1469.09859
 20
1709.948945
 30
0.0
  0
VERTEX
  5
30C
100
AcDbEntity
  8
図
  6
CONTINUOUS
 62
     6
100
AcDbVertex
100
AcDb2dVertex
 10
1468.862545
 20
1709.967218
 30
0.0
  0
VERTEX
  5
30D
100
AcDbEntity
  8
図
  6
CONTINUOUS
 62
     6
100
AcDbVertex
100
AcDb2dVertex
 10
1468.632414
 20
1709.983139
 30
0.0
  0
VERTEX
  5
30E
100
AcDbEntity
  8
図
  6
CONTINUOUS
 62
     6
100
AcDbVertex
100
AcDb2dVertex
 10
1468.404896
 20
1709.997265
 30
0.0
  0
VERTEX
  5
30F
100
AcDbEntity
  8
図
  6
CONTINUOUS
 62
     6
100
AcDbVertex
100
AcDb2dVertex
 10
1468.176688
 20
1710.010157
 30
0.0
  0
VERTEX
  5
310
100
AcDbEntity
  8
図
  6
CONTINUOUS
 62
     6
100
AcDbVertex
100
AcDb2dVertex
 10
1467.944492
 20
1710.022373
 30
0.0
  0
VERTEX
  5
311
100
AcDbEntity
  8
図
  6
CONTINUOUS
 62
     6
100
AcDbVertex
100
AcDb2dVertex
 10
1467.699304
 20
1710.034663
 30
0.0
  0
VERTEX
  5
312
100
AcDbEntity
  8
図
  6
CONTINUOUS
 62
     6
100
AcDbVertex
100
AcDb2dVertex
 10
1467.447136
 20
1710.046647
 30
0.0
  0
VERTEX
  5
313
100
AcDbEntity
  8
図
  6
CONTINUOUS
 62
     6
100
AcDbVertex
100
AcDb2dVertex
 10
1467.188684
 20
1710.05814
 30
0.0
  0
VERTEX
  5
314
100
AcDbEntity
  8
図
  6
CONTINUOUS
 62
     6
100
AcDbVertex
100
AcDb2dVertex
 10
1466.924646
 20
1710.068958
 30
0.0
  0
VERTEX
  5
315
100
AcDbEntity
  8
図
  6
CONTINUOUS
 62
     6
100
AcDbVertex
100
AcDb2dVertex
 10
1466.655718
 20
1710.078917
 30
0.0
  0
VERTEX
  5
316
100
AcDbEntity
  8
図
  6
CONTINUOUS
 62
     6
100
AcDbVertex
100
AcDb2dVertex
 10
1466.382596
 20
1710.087831
 30
0.0
  0
VERTEX
  5
317
100
AcDbEntity
  8
図
  6
CONTINUOUS
 62
     6
100
AcDbVertex
100
AcDb2dVertex
 10
1466.105979
 20
1710.095518
 30
0.0
  0
VERTEX
  5
318
100
AcDbEntity
  8
図
  6
CONTINUOUS
 62
     6
100
AcDbVertex
100
AcDb2dVertex
 10
1465.826562
 20
1710.101792
 30
0.0
  0
VERTEX
  5
319
100
AcDbEntity
  8
図
  6
CONTINUOUS
 62
     6
100
AcDbVertex
100
AcDb2dVertex
 10
1465.545043
 20
1710.106469
 30
0.0
  0
VERTEX
  5
31A
100
AcDbEntity
  8
図
  6
CONTINUOUS
 62
     6
100
AcDbVertex
100
AcDb2dVertex
 10
1465.262119
 20
1710.109365
 30
0.0
  0
VERTEX
  5
31B
100
AcDbEntity
  8
図
  6
CONTINUOUS
 62
     6
100
AcDbVertex
100
AcDb2dVertex
 10
1464.978485
 20
1710.110296
 30
0.0
  0
VERTEX
  5
31C
100
AcDbEntity
  8
図
  6
CONTINUOUS
 62
     6
100
AcDbVertex
100
AcDb2dVertex
 10
1464.695268
 20
1710.109141
 30
0.0
  0
VERTEX
  5
31D
100
AcDbEntity
  8
図
  6
CONTINUOUS
 62
     6
100
AcDbVertex
100
AcDb2dVertex
 10
1464.412741
 20
1710.106027
 30
0.0
  0
VERTEX
  5
31E
100
AcDbEntity
  8
図
  6
CONTINUOUS
 62
     6
100
AcDbVertex
100
AcDb2dVertex
 10
1464.131608
 20
1710.101139
 30
0.0
  0
VERTEX
  5
31F
100
AcDbEntity
  8
図
  6
CONTINUOUS
 62
     6
100
AcDbVertex
100
AcDb2dVertex
 10
1463.85257
 20
1710.094661
 30
0.0
  0
VERTEX
  5
320
100
AcDbEntity
  8
図
  6
CONTINUOUS
 62
     6
100
AcDbVertex
100
AcDb2dVertex
 10
1463.576331
 20
1710.086777
 30
0.0
  0
VERTEX
  5
321
100
AcDbEntity
  8
図
  6
CONTINUOUS
 62
     6
100
AcDbVertex
100
AcDb2dVertex
 10
1463.303593
 20
1710.077671
 30
0.0
  0
VERTEX
  5
322
100
AcDbEntity
  8
図
  6
CONTINUOUS
 62
     6
100
AcDbVertex
100
AcDb2dVertex
 10
1463.035059
 20
1710.067528
 30
0.0
  0
VERTEX
  5
323
100
AcDbEntity
  8
図
  6
CONTINUOUS
 62
     6
100
AcDbVertex
100
AcDb2dVertex
 10
1462.77143
 20
1710.056533
 30
0.0
  0
VERTEX
  5
324
100
AcDbEntity
  8
図
  6
CONTINUOUS
 62
     6
100
AcDbVertex
100
AcDb2dVertex
 10
1462.513411
 20
1710.044869
 30
0.0
  0
VERTEX
  5
325
100
AcDbEntity
  8
図
  6
CONTINUOUS
 62
     6
100
AcDbVertex
100
AcDb2dVertex
 10
1462.261703
 20
1710.032722
 30
0.0
  0
VERTEX
  5
326
100
AcDbEntity
  8
図
  6
CONTINUOUS
 62
     6
100
AcDbVertex
100
AcDb2dVertex
 10
1462.017009
 20
1710.020275
 30
0.0
  0
VERTEX
  5
327
100
AcDbEntity
  8
図
  6
CONTINUOUS
 62
     6
100
AcDbVertex
100
AcDb2dVertex
 10
1461.785989
 20
1710.007948
 30
0.0
  0
VERTEX
  5
328
100
AcDbEntity
  8
図
  6
CONTINUOUS
 62
     6
100
AcDbVertex
100
AcDb2dVertex
 10
1461.558955
 20
1709.994955
 30
0.0
  0
VERTEX
  5
329
100
AcDbEntity
  8
図
  6
CONTINUOUS
 62
     6
100
AcDbVertex
100
AcDb2dVertex
 10
1461.332604
 20
1709.980735
 30
0.0
  0
VERTEX
  5
32A
100
AcDbEntity
  8
図
  6
CONTINUOUS
 62
     6
100
AcDbVertex
100
AcDb2dVertex
 10
1461.103639
 20
1709.96473
 30
0.0
  0
VERTEX
  5
32B
100
AcDbEntity
  8
図
  6
CONTINUOUS
 62
     6
100
AcDbVertex
100
AcDb2dVertex
 10
1460.868758
 20
1709.946383
 30
0.0
  0
VERTEX
  5
32C
100
AcDbEntity
  8
図
  6
CONTINUOUS
 62
     6
100
AcDbVertex
100
AcDb2dVertex
 10
1460.624662
 20
1709.925133
 30
0.0
  0
VERTEX
  5
32D
100
AcDbEntity
  8
図
  6
CONTINUOUS
 62
     6
100
AcDbVertex
100
AcDb2dVertex
 10
1460.368052
 20
1709.900423
 30
0.0
  0
VERTEX
  5
32E
100
AcDbEntity
  8
図
  6
CONTINUOUS
 62
     6
100
AcDbVertex
100
AcDb2dVertex
 10
1460.095626
 20
1709.871694
 30
0.0
  0
VERTEX
  5
32F
100
AcDbEntity
  8
図
  6
CONTINUOUS
 62
     6
100
AcDbVertex
100
AcDb2dVertex
 10
1459.804085
 20
1709.838387
 30
0.0
  0
VERTEX
  5
330
100
AcDbEntity
  8
図
  6
CONTINUOUS
 62
     6
100
AcDbVertex
100
AcDb2dVertex
 10
1459.490129
 20
1709.799944
 30
0.0
  0
VERTEX
  5
331
100
AcDbEntity
  8
図
  6
CONTINUOUS
 62
     6
100
AcDbVertex
100
AcDb2dVertex
 10
1459.150458
 20
1709.755805
 30
0.0
  0
VERTEX
  5
332
100
AcDbEntity
  8
図
  6
CONTINUOUS
 62
     6
100
AcDbVertex
100
AcDb2dVertex
 10
1458.992732
 20
1709.734549
 30
0.0
  0
VERTEX
  5
333
100
AcDbEntity
  8
図
  6
CONTINUOUS
 62
     6
100
AcDbVertex
100
AcDb2dVertex
 10
1458.832985
 20
1709.712646
 30
0.0
  0
VERTEX
  5
334
100
AcDbEntity
  8
図
  6
CONTINUOUS
 62
     6
100
AcDbVertex
100
AcDb2dVertex
 10
1458.674808
 20
1709.690659
 30
0.0
  0
VERTEX
  5
335
100
AcDbEntity
  8
図
  6
CONTINUOUS
 62
     6
100
AcDbVertex
100
AcDb2dVertex
 10
1458.521793
 20
1709.669151
 30
0.0
  0
VERTEX
  5
336
100
AcDbEntity
  8
図
  6
CONTINUOUS
 62
     6
100
AcDbVertex
100
AcDb2dVertex
 10
1458.377529
 20
1709.648684
 30
0.0
  0
VERTEX
  5
337
100
AcDbEntity
  8
図
  6
CONTINUOUS
 62
     6
100
AcDbVertex
100
AcDb2dVertex
 10
1458.245607
 20
1709.629823
 30
0.0
  0
VERTEX
  5
338
100
AcDbEntity
  8
図
  6
CONTINUOUS
 62
     6
100
AcDbVertex
100
AcDb2dVertex
 10
1458.129619
 20
1709.613128
 30
0.0
  0
VERTEX
  5
339
100
AcDbEntity
  8
図
  6
CONTINUOUS
 62
     6
100
AcDbVertex
100
AcDb2dVertex
 10
1458.033156
 20
1709.599164
 30
0.0
  0
VERTEX
  5
33A
100
AcDbEntity
  8
図
  6
CONTINUOUS
 62
     6
100
AcDbVertex
100
AcDb2dVertex
 10
1457.959807
 20
1709.588493
 30
0.0
  0
VERTEX
  5
33B
100
AcDbEntity
  8
図
  6
CONTINUOUS
 62
     6
100
AcDbVertex
100
AcDb2dVertex
 10
1457.913165
 20
1709.581677
 30
0.0
  0
VERTEX
  5
33C
100
AcDbEntity
  8
図
  6
CONTINUOUS
 62
     6
100
AcDbVertex
100
AcDb2dVertex
 10
1457.89682
 20
1709.57928
 30
0.0
  0
SEQEND
  5
33D
100
AcDbEntity
  8
図
  6
CONTINUOUS
 62
     6
  0
ELLIPSE
  5
33E
100
AcDbEntity
  8
図
  6
CONTINUOUS
 62
     6
100
AcDbEllipse
 10
1465.0
 20
1731.205676
 30
0.0
 11
15.500000000000009
 21
0.0
 31
0.0
210
0.0
220
0.0
230
1.0
 40
0.339345
 41
0.0
 42
3.1415926535897931
  0
LINE
  5
33F
100
AcDbEntity
  8
図
  6
CONTINUOUS
 62
     6
100
AcDbLine
 10
1448.004748
 20
1704.282983
 30
0.0
 11
1442.785719
 21
1614.0
 31
0.0
  0
LINE
  5
340
100
AcDbEntity
  8
図
  6
CONTINUOUS
 62
     6
100
AcDbLine
 10
1487.214281
 20
1614.0
 30
0.0
 11
1482.014404
 21
1703.951673
 31
0.0
  0
LINE
  5
341
100
AcDbEntity
  8
図
  6
EXLTYPE3
 62
     6
100
AcDbLine
 10
903.0
 20
1192.0
 30
0.0
 11
577.0
 21
914.0
 31
0.0
  0
LINE
  5
342
100
AcDbEntity
  8
図
  6
EXLTYPE3
 62
     6
100
AcDbLine
 10
577.0
 20
1470.0
 30
0.0
 11
903.0
 21
1192.0
 31
0.0
  0
DIMENSION
  5
34F
100
AcDbEntity
  8
寸法
  6
CONTINUOUS
 62
     3
100
AcDbDimension
  2
*D14
 10
914.9989
 20
1754.0
 30
0.0
 11
740.0
 21
1777.5
 31
0.0
 70
   160
  1
355
  3
STANDARD
100
AcDbAlignedDimension
 13
565.0011
 23
1610.093793
 33
0.0
 14
914.9989
 24
1610.093793
 34
0.0
100
AcDbRotatedDimension
1001
ACAD
1000
DSTYLE
1002
{
1070
     6
1000
_EX_NORM
1070
     7
1000
_EX_NORM
1070
    41
1040
30.0
1070
    42
1040
7.0
1070
    44
1040
10.0
1070
    73
1070
     0
1070
    74
1070
     0
1070
    75
1070
     0
1070
    76
1070
     0
1070
    77
1070
     1
1070
    78
1070
     8
1070
   140
1040
40.0
1070
   147
1040
3.5
1070
   173
1070
     1
1070
   176
1070
     3
1070
   177
1070
     3
1070
   178
1070
     2
1070
   271
1070
     2
1070
   279
1070
     2
1070
   280
1070
     0
1070
   287
1070
     5
1070
   340
1005
34E
1002
}
  0
DIMENSION
  5
35B
100
AcDbEntity
  8
寸法
  6
CONTINUOUS
 62
     2
100
AcDbDimension
  2
*D15
 10
985.0
 20
1614.0
 30
0.0
 11
961.5
 21
1204.0
 31
0.0
 70
   160
  1
820
  3
STANDARD
100
AcDbAlignedDimension
 13
905.0
 23
794.0
 33
0.0
 14
911.0
 24
1614.0
 34
0.0
 50
90.0
100
AcDbRotatedDimension
1001
ACAD
1000
DSTYLE
1002
{
1070
     6
1000
_EX_NORM
1070
     7
1000
_EX_NORM
1070
    41
1040
30.0
1070
    42
1040
5.0
1070
    44
1040
10.0
1070
    73
1070
     0
1070
    74
1070
     0
1070
    75
1070
     0
1070
    76
1070
     0
1070
    77
1070
     1
1070
    78
1070
     8
1070
   140
1040
40.0
1070
   147
1040
3.5
1070
   173
1070
     1
1070
   176
1070
     3
1070
   177
1070
     3
1070
   178
1070
     2
1070
   271
1070
     2
1070
   279
1070
     2
1070
   280
1070
     0
1070
   287
1070
     5
1070
   340
1005
34E
1002
}
  0
DIMENSION
  5
367
100
AcDbEntity
  8
寸法
  6
CONTINUOUS
 62
     2
100
AcDbDimension
  2
*D16
 10
1055.0
 20
1674.0
 30
0.0
 11
1031.5
 21
1234.0
 31
0.0
 70
   160
  1
880
  3
STANDARD
100
AcDbAlignedDimension
 13
905.0
 23
794.0
 33
0.0
 14
909.592719
 24
1674.0
 34
0.0
 50
90.0
100
AcDbRotatedDimension
1001
ACAD
1000
DSTYLE
1002
{
1070
     6
1000
_EX_NORM
1070
     7
1000
_EX_NORM
1070
    41
1040
30.0
1070
    42
1040
5.0
1070
    44
1040
10.0
1070
    73
1070
     0
1070
    74
1070
     0
1070
    75
1070
     0
1070
    76
1070
     0
1070
    77
1070
     1
1070
    78
1070
     8
1070
   140
1040
40.0
1070
   147
1040
3.5
1070
   173
1070
     1
1070
   176
1070
     3
1070
   177
1070
     3
1070
   178
1070
     2
1070
   271
1070
     2
1070
   279
1070
     2
1070
   280
1070
     0
1070
   287
1070
     5
1070
   340
1005
34E
1002
}
  0
DIMENSION
  5
372
100
AcDbEntity
  8
寸法
  6
CONTINUOUS
 62
     3
100
AcDbDimension
  2
*D17
 10
740.0
 20
1115.0
 30
0.0
 11
401.0
 21
1138.5
 31
0.0
 70
   160
  1
75±10（壁排水）
  3
STANDARD
100
AcDbAlignedDimension
 13
665.0
 23
1218.0
 33
0.0
 14
740.0
 24
954.0
 34
0.0
100
AcDbRotatedDimension
1001
ACAD
1000
DSTYLE
1002
{
1070
     6
1000
_EX_NORM
1070
     7
1000
_EX_NORM
1070
    41
1040
30.0
1070
    42
1040
5.0
1070
    44
1040
10.0
1070
    73
1070
     0
1070
    74
1070
     0
1070
    75
1070
     0
1070
    76
1070
     1
1070
    77
1070
     1
1070
    78
1070
     8
1070
   140
1040
40.0
1070
   147
1040
3.5
1070
   173
1070
     1
1070
   176
1070
     3
1070
   177
1070
     3
1070
   178
1070
     2
1070
   271
1070
     2
1070
   279
1070
     2
1070
   280
1070
     0
1070
   287
1070
     5
1070
   340
1005
34E
1002
}
  0
DIMENSION
  5
37D
100
AcDbEntity
  8
寸法
  6
CONTINUOUS
 62
     3
100
AcDbDimension
  2
*D18
 10
835.0
 20
1045.0
 30
0.0
 11
401.0
 21
1068.5
 31
0.0
 70
   160
  1
95±10（壁給水）
  3
STANDARD
100
AcDbAlignedDimension
 13
740.0
 23
954.0
 33
0.0
 14
835.0
 24
1279.0
 34
0.0
100
AcDbRotatedDimension
1001
ACAD
1000
DSTYLE
1002
{
1070
     6
1000
_EX_NORM
1070
     7
1000
_EX_NORM
1070
    41
1040
30.0
1070
    42
1040
0.7
1070
    44
1040
10.0
1070
    73
1070
     0
1070
    74
1070
     0
1070
    75
1070
     1
1070
    76
1070
     0
1070
    77
1070
     1
1070
    78
1070
     8
1070
   140
1040
40.0
1070
   147
1040
3.5
1070
   173
1070
     1
1070
   176
1070
     3
1070
   177
1070
     3
1070
   178
1070
     2
1070
   271
1070
     2
1070
   279
1070
     2
1070
   280
1070
     0
1070
   287
1070
     5
1070
   340
1005
34E
1002
}
  0
LEADER
  5
37E
100
AcDbEntity
  8
寸法
  6
CONTINUOUS
 62
     3
100
AcDbLeader
  3
STANDARD
 73
     3
 74
     1
 75
     0
 40
0.0
 76
     3
 10
684.0
 20
764.0
 30
0.0
 10
534.0
 20
701.0
 30
0.0
 10
212.0
 20
701.0
 30
0.0
 77
     3
1001
ACAD
1000
DSTYLE
1002
{
1070
    41
1040
30.0
1070
     5
1000
_EX_NORM
1070
     6
1000
_EX_NORM
1070
     7
1000
_EX_NORM
1070
   341
1005
28
1002
}
  0
TEXT
  5
37F
100
AcDbEntity
  8
寸法
  6
CONTINUOUS
 62
     2
100
AcDbText
 10
219.0
 20
744.5
 30
0.0
 40
40.0
  1
４０又５０塩ビ管
 41
0.65625
  7
EXCADSTD
 72
     5
 11
469.0
 21
744.5
 31
0.0
100
AcDbText
  0
TEXT
  5
380
100
AcDbEntity
  8
寸法
  6
CONTINUOUS
 62
     2
100
AcDbText
 10
219.0
 20
704.5
 30
0.0
 40
40.0
  1
（４０～５０立上げ）
 41
0.651
  7
EXCADSTD
 72
     5
 11
529.0
 21
704.5
 31
0.0
100
AcDbText
  0
DIMENSION
  5
38C
100
AcDbEntity
  8
寸法
  6
CONTINUOUS
 62
     3
100
AcDbDimension
  2
*D19
 10
740.0
 20
644.0
 30
0.0
 11
403.0
 21
667.5
 31
0.0
 70
   160
  1
40±10（床排水）
  3
STANDARD
100
AcDbAlignedDimension
 13
700.0
 23
764.0
 33
0.0
 14
740.0
 24
794.0
 34
0.0
100
AcDbRotatedDimension
1001
ACAD
1000
DSTYLE
1002
{
1070
     6
1000
_EX_NORM
1070
     7
1000
_EX_BCIR
1070
    41
1040
30.0
1070
    42
1040
5.0
1070
    44
1040
10.0
1070
    73
1070
     0
1070
    74
1070
     0
1070
    75
1070
     0
1070
    76
1070
     0
1070
    77
1070
     1
1070
    78
1070
     8
1070
   140
1040
40.0
1070
   147
1040
3.5
1070
   173
1070
     1
1070
   176
1070
     3
1070
   177
1070
     3
1070
   178
1070
     2
1070
   271
1070
     2
1070
   279
1070
     2
1070
   280
1070
     0
1070
   287
1070
     5
1070
   340
1005
34E
1002
}
  0
DIMENSION
  5
398
100
AcDbEntity
  8
寸法
  6
CONTINUOUS
 62
     3
100
AcDbDimension
  2
*D20
 10
905.0
 20
574.0
 30
0.0
 11
740.0
 21
597.5
 31
0.0
 70
   160
  1
330
  3
STANDARD
100
AcDbAlignedDimension
 13
575.0
 23
794.0
 33
0.0
 14
905.0
 24
794.0
 34
0.0
100
AcDbRotatedDimension
1001
ACAD
1000
DSTYLE
1002
{
1070
     6
1000
_EX_NORM
1070
     7
1000
_EX_NORM
1070
    41
1040
30.0
1070
    42
1040
7.0
1070
    44
1040
10.0
1070
    73
1070
     0
1070
    74
1070
     0
1070
    75
1070
     0
1070
    76
1070
     0
1070
    77
1070
     1
1070
    78
1070
     8
1070
   140
1040
40.0
1070
   147
1040
3.5
1070
   173
1070
     1
1070
   176
1070
     3
1070
   177
1070
     3
1070
   178
1070
     2
1070
   271
1070
     2
1070
   279
1070
     2
1070
   280
1070
     0
1070
   287
1070
     5
1070
   340
1005
34E
1002
}
  0
DIMENSION
  5
3A4
100
AcDbEntity
  8
寸法
  6
CONTINUOUS
 62
     3
100
AcDbDimension
  2
*D21
 10
835.0
 20
644.0
 30
0.0
 11
1072.0
 21
667.5
 31
0.0
 70
   160
  1
95±10（床給水）
  3
STANDARD
100
AcDbAlignedDimension
 13
740.0
 23
794.0
 33
0.0
 14
835.0
 24
787.0
 34
0.0
100
AcDbRotatedDimension
1001
ACAD
1000
DSTYLE
1002
{
1070
     6
1000
_EX_BCIR
1070
     7
1000
_EX_NORM
1070
    41
1040
10.0
1070
    42
1040
5.0
1070
    44
1040
10.0
1070
    73
1070
     0
1070
    74
1070
     0
1070
    75
1070
     0
1070
    76
1070
     0
1070
    77
1070
     1
1070
    78
1070
     8
1070
   140
1040
40.0
1070
   147
1040
3.5
1070
   173
1070
     1
1070
   176
1070
     3
1070
   177
1070
     3
1070
   178
1070
     2
1070
   271
1070
     2
1070
   279
1070
     2
1070
   280
1070
     0
1070
   287
1070
     5
1070
   340
1005
34E
1002
}
  0
LEADER
  5
3A5
100
AcDbEntity
  8
寸法
  6
CONTINUOUS
 62
     3
100
AcDbLeader
  3
STANDARD
 73
     3
 74
     1
 75
     0
 40
0.0
 76
     3
 10
845.0
 20
787.0
 30
0.0
 10
951.0
 20
714.0
 30
0.0
 10
1066.0
 20
714.0
 30
0.0
 77
     3
1001
ACAD
1000
DSTYLE
1002
{
1070
    41
1040
30.0
1070
     5
1000
_EX_NORM
1070
     6
1000
_EX_NORM
1070
     7
1000
_EX_NORM
1070
   341
1005
28
1002
}
  0
TEXT
  5
3A6
100
AcDbEntity
  8
寸法
  6
CONTINUOUS
 62
     2
100
AcDbText
 10
956.0
 20
717.5
 30
0.0
 40
40.0
  1
Ｒ１/２
 41
0.605
  7
EXCADSTD
 72
     5
 11
1066.0
 21
717.5
 31
0.0
100
AcDbText
  0
DIMENSION
  5
3B2
100
AcDbEntity
  8
寸法
  6
CONTINUOUS
 62
     3
100
AcDbDimension
  2
*D22
 10
1540.0
 20
1754.0
 30
0.0
 11
1440.0
 21
1777.5
 31
0.0
 70
   160
  1
200
  3
STANDARD
100
AcDbAlignedDimension
 13
1340.0
 23
1610.0
 33
0.0
 14
1540.0
 24
1674.0
 34
0.0
100
AcDbRotatedDimension
1001
ACAD
1000
DSTYLE
1002
{
1070
     6
1000
_EX_NORM
1070
     7
1000
_EX_NORM
1070
    41
1040
30.0
1070
    42
1040
7.0
1070
    44
1040
10.0
1070
    73
1070
     0
1070
    74
1070
     0
1070
    75
1070
     0
1070
    76
1070
     0
1070
    77
1070
     1
1070
    78
1070
     8
1070
   140
1040
40.0
1070
   147
1040
3.5
1070
   173
1070
     1
1070
   176
1070
     3
1070
   177
1070
     3
1070
   178
1070
     2
1070
   271
1070
     2
1070
   279
1070
     2
1070
   280
1070
     0
1070
   287
1070
     5
1070
   340
1005
34E
1002
}
  0
DIMENSION
  5
3BE
100
AcDbEntity
  8
寸法
  6
CONTINUOUS
 62
     2
100
AcDbDimension
  2
*D23
 10
1830.0
 20
1649.0
 30
0.0
 11
1806.5
 21
1221.5
 31
0.0
 70
   160
  1
855（手洗器壁固定）
  3
STANDARD
100
AcDbAlignedDimension
 13
1540.0
 23
794.0
 33
0.0
 14
1581.25183
 24
1649.0
 34
0.0
 50
90.0
100
AcDbRotatedDimension
1001
ACAD
1000
DSTYLE
1002
{
1070
     6
1000
_EX_NORM
1070
     7
1000
_EX_NORM
1070
    41
1040
30.0
1070
    42
1040
7.0
1070
    44
1040
10.0
1070
    73
1070
     0
1070
    74
1070
     0
1070
    75
1070
     0
1070
    76
1070
     0
1070
    77
1070
     1
1070
    78
1070
     8
1070
   140
1040
40.0
1070
   147
1040
3.5
1070
   173
1070
     1
1070
   176
1070
     3
1070
   177
1070
     3
1070
   178
1070
     2
1070
   271
1070
     2
1070
   279
1070
     2
1070
   280
1070
     0
1070
   287
1070
     5
1070
   340
1005
34E
1002
}
  0
TEXT
  5
3BF
100
AcDbEntity
  8
寸法
  6
CONTINUOUS
 62
     2
100
AcDbText
 10
1657.0
 20
1518.5
 30
0.0
 40
40.0
  1
Ｒ１/２
 41
0.605
  7
EXCADSTD
 72
     5
 11
1767.0
 21
1518.5
 31
0.0
100
AcDbText
  0
LEADER
  5
3C0
100
AcDbEntity
  8
寸法
  6
CONTINUOUS
 62
     3
100
AcDbLeader
  3
STANDARD
 73
     3
 74
     1
 75
     0
 40
0.0
 76
     3
 10
1547.0
 20
1309.0
 30
0.0
 10
1652.0
 20
1515.0
 30
0.0
 10
1768.0
 20
1515.0
 30
0.0
 77
     3
1001
ACAD
1000
DSTYLE
1002
{
1070
    41
1040
30.0
1070
     5
1000
_EX_NORM
1070
     6
1000
_EX_NORM
1070
     7
1000
_EX_NORM
1070
   341
1005
28
1002
}
  0
DIMENSION
  5
3CC
100
AcDbEntity
  8
寸法
  6
CONTINUOUS
 62
     2
100
AcDbDimension
  2
*D24
 10
1760.0
 20
1399.0
 30
0.0
 11
1736.5
 21
1096.5
 31
0.0
 70
   160
  1
605（キャビネット壁固定）
  3
STANDARD
100
AcDbAlignedDimension
 13
1540.0
 23
794.0
 33
0.0
 14
1572.0
 24
1399.0
 34
0.0
 50
90.0
100
AcDbRotatedDimension
1001
ACAD
1000
DSTYLE
1002
{
1070
     6
1000
_EX_NORM
1070
     7
1000
_EX_NORM
1070
    41
1040
30.0
1070
    42
1040
7.0
1070
    44
1040
10.0
1070
    73
1070
     0
1070
    74
1070
     0
1070
    75
1070
     0
1070
    76
1070
     0
1070
    77
1070
     1
1070
    78
1070
     8
1070
   140
1040
40.0
1070
   147
1040
3.5
1070
   173
1070
     1
1070
   176
1070
     3
1070
   177
1070
     3
1070
   178
1070
     2
1070
   271
1070
     2
1070
   279
1070
     2
1070
   280
1070
     0
1070
   287
1070
     5
1070
   340
1005
34E
1002
}
  0
TEXT
  5
3CD
100
AcDbEntity
  8
寸法
  6
CONTINUOUS
 62
     2
100
AcDbText
 10
1671.0
 20
1449.5
 30
0.0
 40
40.0
  1
φ３２
 41
0.7
  7
EXCADSTD
 72
     5
 11
1771.0
 21
1449.5
 31
0.0
100
AcDbText
  0
LEADER
  5
3CE
100
AcDbEntity
  8
寸法
  6
CONTINUOUS
 62
     3
100
AcDbLeader
  3
STANDARD
 73
     3
 74
     1
 75
     0
 40
0.0
 76
     3
 10
1570.0
 20
1250.0
 30
0.0
 10
1666.0
 20
1446.0
 30
0.0
 10
1772.0
 20
1446.0
 30
0.0
 77
     3
1001
ACAD
1000
DSTYLE
1002
{
1070
    41
1040
30.0
1070
     5
1000
_EX_NORM
1070
     6
1000
_EX_NORM
1070
     7
1000
_EX_NORM
1070
   341
1005
28
1002
}
  0
DIMENSION
  5
3DA
100
AcDbEntity
  8
寸法
  6
CONTINUOUS
 62
     2
100
AcDbDimension
  2
*D25
 10
1620.0
 20
1234.0
 30
0.0
 11
1596.5
 21
1014.0
 31
0.0
 70
   160
  1
440±10（壁排水）
  3
STANDARD
100
AcDbAlignedDimension
 13
1540.0
 23
794.0
 33
0.0
 14
1570.0
 24
1234.0
 34
0.0
 50
90.0
100
AcDbRotatedDimension
1001
ACAD
1000
DSTYLE
1002
{
1070
     6
1000
_EX_NORM
1070
     7
1000
_EX_NORM
1070
    41
1040
30.0
1070
    42
1040
7.0
1070
    44
1040
10.0
1070
    73
1070
     0
1070
    74
1070
     0
1070
    75
1070
     0
1070
    76
1070
     0
1070
    77
1070
     1
1070
    78
1070
     8
1070
   140
1040
40.0
1070
   147
1040
3.5
1070
   173
1070
     1
1070
   176
1070
     3
1070
   177
1070
     3
1070
   178
1070
     2
1070
   271
1070
     2
1070
   279
1070
     2
1070
   280
1070
     0
1070
   287
1070
     5
1070
   340
1005
34E
1002
}
  0
DIMENSION
  5
3E6
100
AcDbEntity
  8
寸法
  6
CONTINUOUS
 62
     3
100
AcDbDimension
  2
*D26
 10
1540.0
 20
714.0
 30
0.0
 11
1740.0
 21
737.5
 31
0.0
 70
   160
  1
60±10（床給排水）
  3
STANDARD
100
AcDbAlignedDimension
 13
1480.0
 23
764.0
 33
0.0
 14
1540.0
 24
794.0
 34
0.0
100
AcDbRotatedDimension
1001
ACAD
1000
DSTYLE
1002
{
1070
     6
1000
_EX_NORM
1070
     7
1000
_EX_NORM
1070
    41
1040
30.0
1070
    42
1040
7.0
1070
    44
1040
10.0
1070
    73
1070
     0
1070
    74
1070
     0
1070
    75
1070
     0
1070
    76
1070
     0
1070
    77
1070
     1
1070
    78
1070
     8
1070
   140
1040
40.0
1070
   147
1040
3.5
1070
   173
1070
     1
1070
   176
1070
     3
1070
   177
1070
     3
1070
   178
1070
     2
1070
   271
1070
     2
1070
   279
1070
     2
1070
   280
1070
     2
1070
   287
1070
     5
1070
   340
1005
34E
1002
}
  0
DIMENSION
  5
3F1
100
AcDbEntity
  8
寸法
  6
CONTINUOUS
 62
     2
100
AcDbDimension
  2
*D27
 10
1690.0
 20
794.0
 30
0.0
 11
1666.5
 21
1046.5
 31
0.0
 70
   160
  1
505±10（壁給水）
  3
STANDARD
100
AcDbAlignedDimension
 13
1557.0
 23
1299.0
 33
0.0
 14
1690.0
 24
794.0
 34
0.0
 50
90.0
100
AcDbRotatedDimension
1001
ACAD
1000
DSTYLE
1002
{
1070
     6
1000
_EX_NORM
1070
     7
1000
_EX_NORM
1070
    41
1040
30.0
1070
    42
1040
5.0
1070
    44
1040
10.0
1070
    73
1070
     0
1070
    74
1070
     0
1070
    75
1070
     0
1070
    76
1070
     1
1070
    77
1070
     1
1070
    78
1070
     8
1070
   140
1040
40.0
1070
   147
1040
3.5
1070
   173
1070
     1
1070
   176
1070
     3
1070
   177
1070
     3
1070
   178
1070
     2
1070
   271
1070
     2
1070
   279
1070
     2
1070
   280
1070
     0
1070
   287
1070
     5
1070
   340
1005
34E
1002
}
  0
POLYLINE
  5
3F2
100
AcDbEntity
  8
寸法
  6
CONTINUOUS
 62
     3
100
AcDb2dPolyline
 66
     1
 10
0.0
 20
0.0
 30
0.0
 70
   128
  0
VERTEX
  5
3F3
100
AcDbEntity
  8
寸法
  6
CONTINUOUS
 62
     3
100
AcDbVertex
100
AcDb2dVertex
 10
1071.2
 20
2390.0
 30
0.0
  0
VERTEX
  5
3F4
100
AcDbEntity
  8
寸法
  6
CONTINUOUS
 62
     3
100
AcDbVertex
100
AcDb2dVertex
 10
1094.2
 20
2340.5
 30
0.0
  0
SEQEND
  5
3F5
100
AcDbEntity
  8
寸法
  6
CONTINUOUS
 62
     3
  0
LINE
  5
3F6
100
AcDbEntity
  8
寸法
  6
CONTINUOUS
 62
     3
100
AcDbLine
 10
1088.375833
 20
2364.900383
 30
0.0
 11
1071.2
 21
2390.0
 31
0.0
  0
LINE
  5
3F7
100
AcDbEntity
  8
寸法
  6
CONTINUOUS
 62
     3
100
AcDbLine
 10
1071.2
 20
2390.0
 30
0.0
 11
1079.306993
 21
2360.686579
 31
0.0
  0
TEXT
  5
3F8
100
AcDbEntity
  8
寸法
  6
CONTINUOUS
 62
     2
100
AcDbText
 10
1122.0
 20
2350.0
 30
0.0
 40
40.0
  1
W.L.
 41
0.4125
  7
EXCADSTD
 72
     5
 11
1182.4956
 21
2350.0
 31
0.0
100
AcDbText
  0
POLYLINE
  5
3F9
100
AcDbEntity
  8
寸法
  6
CONTINUOUS
 62
     3
100
AcDb2dPolyline
 66
     1
 10
0.0
 20
0.0
 30
0.0
 70
   128
  0
VERTEX
  5
3FA
100
AcDbEntity
  8
寸法
  6
CONTINUOUS
 62
     3
100
AcDbVertex
100
AcDb2dVertex
 10
1540.0
 20
1881.00001
 30
0.0
  0
VERTEX
  5
3FB
100
AcDbEntity
  8
寸法
  6
CONTINUOUS
 62
     3
100
AcDbVertex
100
AcDb2dVertex
 10
1494.0
 20
1901.00001
 30
0.0
  0
SEQEND
  5
3FC
100
AcDbEntity
  8
寸法
  6
CONTINUOUS
 62
     3
  0
LINE
  5
3FD
100
AcDbEntity
  8
寸法
  6
CONTINUOUS
 62
     3
100
AcDbLine
 10
1510.494268
 20
1888.376443
 30
0.0
 11
1540.0
 21
1881.00001
 31
0.0
  0
LINE
  5
3FE
100
AcDbEntity
  8
寸法
  6
CONTINUOUS
 62
     3
100
AcDbLine
 10
1540.0
 20
1881.00001
 30
0.0
 11
1514.481529
 21
1897.547144
 31
0.0
  0
TEXT
  5
3FF
100
AcDbEntity
  8
寸法
  6
CONTINUOUS
 62
     2
100
AcDbText
 10
1540.0
 20
1950.00001
 30
0.0
 40
40.0
  1
W.L.
 50
90.0
 41
0.4125
  7
EXCADSTD
 72
     5
 11
1540.0
 21
2010.49561
 31
0.0
100
AcDbText
  0
ENDSEC
  0
SECTION
  2
OBJECTS
  0
DICTIONARY
  5
19
100
AcDbDictionary
  3
ACAD_GROUP
350
1A
  3
ACAD_MLINESTYLE
350
1B
  0
DICTIONARY
  5
1A
102
{ACAD_REACTORS
330
19
102
}
100
AcDbDictionary
  0
DICTIONARY
  5
1B
102
{ACAD_REACTORS
330
19
102
}
100
AcDbDictionary
  3
STANDARD
350
1C
  0
MLINESTYLE
  5
1C
102
{ACAD_REACTORS
330
1B
102
}
100
AcDbMlineStyle
  2
Standard
 70
     0
  3

 62
     0
 51
90.0
 52
90.0
 71
     2
 49
0.5
 62
   256
  6
ByLayer
 49
-0.5
 62
   256
  6
ByLayer
  0
ENDSEC
  0
EOF
