  0
SECTION
  2
HEADER
  9
$ACADVER
  1
AC1014
  9
$ACADMAINTVER
 70
     0
  9
$DWGCODEPAGE
  3
ANSI_932
  9
$INSBASE
 10
0.0
 20
0.0
 30
0.0
  9
$EXTMIN
 10
-2.0
 20
11.5
 30
0.0
  9
$EXTMAX
 10
200.0
 20
291.5
 30
0.0
  9
$LIMMIN
 10
0.0
 20
0.0
  9
$LIMMAX
 10
210.0
 20
297.0
  9
$ORTHOMODE
 70
     0
  9
$REGENMODE
 70
     1
  9
$FILLMODE
 70
     1
  9
$QTEXTMODE
 70
     0
  9
$MIRRTEXT
 70
     1
  9
$DRAGMODE
 70
     2
  9
$LTSCALE
 40
1.0
  9
$OSMODE
 70
     0
  9
$ATTMODE
 70
     1
  9
$TEXTSIZE
 40
0.2
  9
$TRACEWID
 40
0.05
  9
$TEXTSTYLE
  7
STANDARD
  9
$CLAYER
  8
洗面器
  9
$CELTYPE
  6
CONTINUOUS
  9
$CECOLOR
 62
   256
  9
$CELTSCALE
 40
1.0
  9
$DELOBJ
 70
     1
  9
$DISPSILH
 70
     0
  9
$DIMSCALE
 40
1.0
  9
$DIMASZ
 40
0.18
  9
$DIMEXO
 40
0.0625
  9
$DIMDLI
 40
0.38
  9
$DIMRND
 40
0.0
  9
$DIMDLE
 40
0.0
  9
$DIMEXE
 40
0.18
  9
$DIMTP
 40
0.0
  9
$DIMTM
 40
0.0
  9
$DIMTXT
 40
0.18
  9
$DIMCEN
 40
0.09
  9
$DIMTSZ
 40
0.0
  9
$DIMTOL
 70
     0
  9
$DIMLIM
 70
     0
  9
$DIMTIH
 70
     1
  9
$DIMTOH
 70
     1
  9
$DIMSE1
 70
     0
  9
$DIMSE2
 70
     0
  9
$DIMTAD
 70
     0
  9
$DIMZIN
 70
     0
  9
$DIMBLK
  1

  9
$DIMASO
 70
     1
  9
$DIMSHO
 70
     1
  9
$DIMPOST
  1

  9
$DIMAPOST
  1

  9
$DIMALT
 70
     0
  9
$DIMALTD
 70
     2
  9
$DIMALTF
 40
25.4
  9
$DIMLFAC
 40
1.0
  9
$DIMTOFL
 70
     0
  9
$DIMTVP
 40
0.0
  9
$DIMTIX
 70
     0
  9
$DIMSOXD
 70
     0
  9
$DIMSAH
 70
     0
  9
$DIMBLK1
  1

  9
$DIMBLK2
  1

  9
$DIMSTYLE
  2
STANDARD
  9
$DIMCLRD
 70
     0
  9
$DIMCLRE
 70
     0
  9
$DIMCLRT
 70
     0
  9
$DIMTFAC
 40
1.0
  9
$DIMGAP
 40
0.09
  9
$DIMJUST
 70
     0
  9
$DIMSD1
 70
     0
  9
$DIMSD2
 70
     0
  9
$DIMTOLJ
 70
     1
  9
$DIMTZIN
 70
     0
  9
$DIMALTZ
 70
     0
  9
$DIMALTTZ
 70
     0
  9
$DIMFIT
 70
     3
  9
$DIMUPT
 70
     0
  9
$DIMUNIT
 70
     2
  9
$DIMDEC
 70
     4
  9
$DIMTDEC
 70
     4
  9
$DIMALTU
 70
     2
  9
$DIMALTTD
 70
     2
  9
$DIMTXSTY
  7
STANDARD
  9
$DIMAUNIT
 70
     0
  9
$LUNITS
 70
     2
  9
$LUPREC
 70
     4
  9
$SKETCHINC
 40
0.1
  9
$FILLETRAD
 40
0.0
  9
$AUNITS
 70
     0
  9
$AUPREC
 70
     0
  9
$MENU
  1
acad
  9
$ELEVATION
 40
0.0
  9
$PELEVATION
 40
0.0
  9
$THICKNESS
 40
0.0
  9
$LIMCHECK
 70
     0
  9
$BLIPMODE
 70
     1
  9
$CHAMFERA
 40
0.0
  9
$CHAMFERB
 40
0.0
  9
$CHAMFERC
 40
0.0
  9
$CHAMFERD
 40
0.0
  9
$SKPOLY
 70
     0
  9
$TDCREATE
 40
2456631.277350556
  9
$TDUPDATE
 40
2456631.277350556
  9
$TDINDWG
 40
0.0000000000
  9
$TDUSRTIMER
 40
0.0000000000
  9
$USRTIMER
 70
     1
  9
$ANGBASE
 50
0.0
  9
$ANGDIR
 70
     0
  9
$PDMODE
 70
     0
  9
$PDSIZE
 40
0.0
  9
$PLINEWID
 40
0.0
  9
$COORDS
 70
     1
  9
$SPLFRAME
 70
     0
  9
$SPLINETYPE
 70
     6
  9
$SPLINESEGS
 70
     8
  9
$ATTDIA
 70
     0
  9
$ATTREQ
 70
     1
  9
$HANDLING
 70
     1
  9
$HANDSEED
  5
771
  9
$SURFTAB1
 70
     6
  9
$SURFTAB2
 70
     6
  9
$SURFTYPE
 70
     6
  9
$SURFU
 70
     6
  9
$SURFV
 70
     6
  9
$UCSNAME
  2

  9
$UCSORG
 10
0.0
 20
0.0
 30
0.0
  9
$UCSXDIR
 10
1.0
 20
0.0
 30
0.0
  9
$UCSYDIR
 10
0.0
 20
1.0
 30
0.0
  9
$PUCSNAME
  2

  9
$PUCSORG
 10
0.0
 20
0.0
 30
0.0
  9
$PUCSXDIR
 10
1.0
 20
0.0
 30
0.0
  9
$PUCSYDIR
 10
0.0
 20
1.0
 30
0.0
  9
$USERI1
 70
     0
  9
$USERI2
 70
     0
  9
$USERI3
 70
     0
  9
$USERI4
 70
     0
  9
$USERI5
 70
     0
  9
$USERR1
 40
0.0
  9
$USERR2
 40
0.0
  9
$USERR3
 40
0.0
  9
$USERR4
 40
0.0
  9
$USERR5
 40
0.0
  9
$WORLDVIEW
 70
     1
  9
$SHADEDGE
 70
     3
  9
$SHADEDIF
 70
    70
  9
$TILEMODE
 70
     1
  9
$MAXACTVP
 70
    16
  9
$PINSBASE
 10
0.0
 20
0.0
 30
0.0
  9
$PLIMCHECK
 70
     0
  9
$PEXTMIN
 10
1.000000E+20
 20
1.000000E+20
 30
1.000000E+20
  9
$PEXTMAX
 10
-1.000000E+20
 20
-1.000000E+20
 30
-1.000000E+20
  9
$PLIMMIN
 10
0.0
 20
0.0
  9
$PLIMMAX
 10
12.0
 20
9.0
  9
$UNITMODE
 70
     0
  9
$VISRETAIN
 70
     0
  9
$PLINEGEN
 70
     1
  9
$PSLTSCALE
 70
     0
  9
$TREEDEPTH
 70
  3020
  9
$PICKSTYLE
 70
     1
  9
$CMLSTYLE
  2
Standard
  9
$CMLJUST
 70
     0
  9
$CMLSCALE
 40
1.0
  9
$PROXYGRAPHICS
 70
     0
  9
$MEASUREMENT
 70
     0
  0
ENDSEC
  0
SECTION
  2
CLASSES
  0
CLASS
  1
LWPOLYLINE
  2
AcDbPolyline
  3
"AutoCAD"
 90
        0
280
     0
281
     1
  0
CLASS
  1
IMAGE
  2
AcDbRasterImage
  3
ISM
 90
      127
280
     0
281
     1
  0
CLASS
  1
OLE2FRAME
  2
AcDbOle2Frame
  3
""
 90
        0
280
     0
281
     1
  0
CLASS
  1
HATCH
  2
AcDbHatch
  3
"ACAD_SEDONA"
 90
        0
280
     0
281
     1
  0
CLASS
  1
DICTIONARYVAR
  2
AcDbDictionaryVar
  3
"AutoCAD"
 90
        0
280
     0
281
     0
  0
CLASS
  1
RASTERVARIABLES
  2
AcDbRasterVariables
  3
ISM
 90
        0
280
     0
281
     0
  0
CLASS
  1
IMAGEDEF
  2
AcDbRasterImageDef
  3
ISM
 90
        0
280
     0
281
     0
  0
CLASS
  1
IMAGEDEF_REACTOR
  2
AcDbRasterImageDefReactor
  3
ISM
 90
        1
280
     0
281
     0
  0
CLASS
  1
IDBUFFER
  2
AcDbIdBuffer
  3
"Acad"
 90
        0
280
     0
281
     0
  0
CLASS
  1
SPATIAL_FILTER
  2
AcDbSpatialFilter
  3
"Acad"
 90
        0
280
     0
281
     0
  0
CLASS
  1
XRECORD
  2
AcDbXrecord
  3
"<Built In>"
 90
        0
280
     0
281
     0
  0
CLASS
  1
SORTENTSTABLE
  2
AcDbSortentsTable
  3
"AutoCAD"
 90
        0
280
     0
281
     0
  0
CLASS
  1
LAYER_INDEX
  2
AcDbLayerIndex
  3
"Acad"
 90
        0
280
     0
281
     0
  0
CLASS
  1
SPATIAL_INDEX
  2
AcDbSpatialIndex
  3
"Acad"
 90
        0
280
     0
281
     0
  0
CLASS
  1
OBJECT_PTR
  2
CAseDLPNTableRecord
  3
"ASE-LPNTableRecord"
 90
        1
280
     0
281
     0
  0
CLASS
  1
LAYOUT
  2
AcDbLayout
  3
"AutoCAD 2000"
 90
        1
280
     0
281
     0
  0
CLASS
  1
PLOTSETTINGS
  2
AcDbPlotSettings
  3
"AutoCAD 2000"
 90
        1
280
     0
281
     0
  0
CLASS
  1
ACDBDICTIONARYWDFLT
  2
AcDbDictionaryWithDefault
  3
"AutoCAD 2000"
 90
        1
280
     0
281
     0
  0
CLASS
  1
ACDBPLACEHOLDER
  2
AcDbPlaceHolder
  3
"AutoCAD 2000"
 90
        1
280
     0
281
     0
  0
CLASS
  1
VBA_PROJECT
  2
AcDbVbaProject
  3
"acadvba"
 90
        1
280
     0
281
     0
  0
CLASS
  1
WIPEOUT
  2
AcDbWipeout
  3
WipeOut|AutoCAD Express Tool|expresstools@autodesk.com
 90
      127
280
     0
281
     1
  0
CLASS
  1
WIPEOUTVARIABLES
  2
AcDbWipeoutVariables
  3
WipeOut|AutoCAD Express Tool|expresstools@autodesk.com
 90
        0
280
     0
281
     0
  0
CLASS
  1
RTEXT
  2
RText
  3
RText|AutoCAD Express Tool|expresstools@autodesk.com
 90
        0
280
     0
281
     1
  0
CLASS
  1
ARCALIGNEDTEXT
  2
AcDbArcAlignedText
  3
ATEXT|AutoCAD Express Tool|expresstools@autodesk.com
 90
        0
280
     0
281
     1
  0
ENDSEC
  0
SECTION
  2
TABLES
  0
TABLE
  2
VPORT
  5
7
100
AcDbSymbolTable
 70
     1
  0
VPORT
  5
15
100
AcDbSymbolTableRecord
100
AcDbViewportTableRecord
  2
*ACTIVE
 70
     0
 10
0.0
 20
0.0
 11
1.0
 21
1.0
 12
990.0
 22
1515.0
 13
0.0
 23
0.0
 14
1.0
 24
1.0
 15
0.0
 25
0.0
 16
0.0
 26
0.0
 36
1.0
 17
0.0
 27
0.0
 37
0.0
 40
2800.0
 41
1.722533
 42
50.0
 43
0.0
 44
0.0
 50
0.0
 51
0.0
 71
     0
 72
   100
 73
     1
 74
     1
 75
     0
 76
     0
 77
     0
 78
     0
  0
ENDTAB
  0
TABLE
  2
LTYPE
  5
4
100
AcDbSymbolTable
 70
     9
  0
LTYPE
  5
11
100
AcDbSymbolTableRecord
100
AcDbLinetypeTableRecord
  2
BYBLOCK
 70
    64
  3

 72
    65
 73
     0
 40
0.0
  0
LTYPE
  5
12
100
AcDbSymbolTableRecord
100
AcDbLinetypeTableRecord
  2
BYLAYER
 70
    64
  3

 72
    65
 73
     0
 40
0.0
  0
LTYPE
  5
13
100
AcDbSymbolTableRecord
100
AcDbLinetypeTableRecord
  2
CONTINUOUS
 70
    64
  3
実線
 72
    65
 73
     0
 40
0.0
  0
LTYPE
  5
1D
100
AcDbSymbolTableRecord
100
AcDbLinetypeTableRecord
  2
EXLTYPE1
 70
    64
  3
破線
 72
    65
 73
     2
 40
3.0
 49
2.0
 74
     0
 49
-1.0
 74
     0
  0
LTYPE
  5
1E
100
AcDbSymbolTableRecord
100
AcDbLinetypeTableRecord
  2
EXLTYPE2
 70
    64
  3
点線
 72
    65
 73
     2
 40
2.0
 49
1.0
 74
     0
 49
-1.0
 74
     0
  0
LTYPE
  5
1F
100
AcDbSymbolTableRecord
100
AcDbLinetypeTableRecord
  2
EXLTYPE3
 70
    64
  3
一点鎖線
 72
    65
 73
     4
 40
10.0
 49
7.0
 74
     0
 49
-1.0
 74
     0
 49
1.0
 74
     0
 49
-1.0
 74
     0
  0
LTYPE
  5
20
100
AcDbSymbolTableRecord
100
AcDbLinetypeTableRecord
  2
EXLTYPE4
 70
    64
  3
二点鎖線
 72
    65
 73
     6
 40
12.0
 49
7.0
 74
     0
 49
-1.0
 74
     0
 49
1.0
 74
     0
 49
-1.0
 74
     0
 49
1.0
 74
     0
 49
-1.0
 74
     0
  0
LTYPE
  5
21
100
AcDbSymbolTableRecord
100
AcDbLinetypeTableRecord
  2
EXLTYPE5
 70
    64
  3
三点鎖線
 72
    65
 73
     8
 40
37.0
 49
30.0
 74
     0
 49
-1.0
 74
     0
 49
1.0
 74
     0
 49
-1.0
 74
     0
 49
1.0
 74
     0
 49
-1.0
 74
     0
 49
1.0
 74
     0
 49
-1.0
 74
     0
  0
LTYPE
  5
22
100
AcDbSymbolTableRecord
100
AcDbLinetypeTableRecord
  2
EXLTYPE6
 70
    64
  3
四点鎖線
 72
    65
 73
    10
 40
39.0
 49
30.0
 74
     0
 49
-1.0
 74
     0
 49
1.0
 74
     0
 49
-1.0
 74
     0
 49
1.0
 74
     0
 49
-1.0
 74
     0
 49
1.0
 74
     0
 49
-1.0
 74
     0
 49
1.0
 74
     0
 49
-1.0
 74
     0
  0
ENDTAB
  0
TABLE
  2
LAYER
  5
2
100
AcDbSymbolTable
 70
     8
  0
LAYER
  5
14
100
AcDbSymbolTableRecord
100
AcDbLayerTableRecord
  2
0
 70
     0
 62
     7
  6
CONTINUOUS
  0
LAYER
  5
25
100
AcDbSymbolTableRecord
100
AcDbLayerTableRecord
  2
枠_
 70
    64
 62
     7
  6
CONTINUOUS
  0
LAYER
  5
26
100
AcDbSymbolTableRecord
100
AcDbLayerTableRecord
  2
洗面器
 70
    64
 62
     7
  6
CONTINUOUS
  0
LAYER
  5
27
100
AcDbSymbolTableRecord
100
AcDbLayerTableRecord
  2
水栓
 70
    64
 62
     7
  6
CONTINUOUS
  0
LAYER
  5
28
100
AcDbSymbolTableRecord
100
AcDbLayerTableRecord
  2
止水栓
 70
    64
 62
     7
  6
CONTINUOUS
  0
LAYER
  5
29
100
AcDbSymbolTableRecord
100
AcDbLayerTableRecord
  2
トラップ
 70
    64
 62
     7
  6
CONTINUOUS
  0
LAYER
  5
2A
100
AcDbSymbolTableRecord
100
AcDbLayerTableRecord
  2
寸法
 70
    64
 62
     7
  6
CONTINUOUS
  0
LAYER
  5
2B
100
AcDbSymbolTableRecord
100
AcDbLayerTableRecord
  2
器具明細表
 70
    64
 62
     7
  6
CONTINUOUS
  0
ENDTAB
  0
TABLE
  2
STYLE
  5
3
100
AcDbSymbolTable
 70
     6
  0
STYLE
  5
17
100
AcDbSymbolTableRecord
100
AcDbTextStyleTableRecord
  2
STANDARD
 70
     0
 40
0.0
 41
1.0
 50
0.0
 71
     0
 42
0.0
  3
monotxt
  4
extfont
  0
STYLE
  5
23
100
AcDbSymbolTableRecord
100
AcDbTextStyleTableRecord
  2
EXCADSTD
 70
    64
 40
0.0
 41
1.0
 50
0.0
 71
     0
 42
0.2
  3
monotxt
  4
extfont
  0
STYLE
  5
24
100
AcDbSymbolTableRecord
100
AcDbTextStyleTableRecord
  2
EXCADVERT
 70
    68
 40
0.0
 41
1.0
 50
0.0
 71
     0
 42
0.286885
  3
monotxt
  4
extfont
  0
STYLE
  5
189
100
AcDbSymbolTableRecord
100
AcDbTextStyleTableRecord
  2
EXCADTTF1
 70
    64
 40
0.0
 41
1.0
 50
0.0
 71
     0
 42
0.2
  3
MS Gothic.ttf
  4

1001
ACAD
1000
MS Gothic
1071
    32817
  0
STYLE
  5
379
100
AcDbSymbolTableRecord
100
AcDbTextStyleTableRecord
  2
EXCADDIM1
 70
    64
 40
0.0
 41
0.84
 50
0.0
 71
     0
 42
0.2
  3
monotxt
  4
extfont
  0
STYLE
  5
6AD
100
AcDbSymbolTableRecord
100
AcDbTextStyleTableRecord
  2
EXCADDIM2
 70
    64
 40
0.0
 41
0.95
 50
0.0
 71
     0
 42
0.2
  3
monotxt
  4
extfont
  0
ENDTAB
  0
TABLE
  2
VIEW
  5
5
100
AcDbSymbolTable
 70
     0
  0
ENDTAB
  0
TABLE
  2
UCS
  5
6
100
AcDbSymbolTable
 70
     0
  0
ENDTAB
  0
TABLE
  2
APPID
  5
8
100
AcDbSymbolTable
 70
     1
  0
APPID
  5
16
100
AcDbSymbolTableRecord
100
AcDbRegAppTableRecord
  2
ACAD
 70
     0
  0
ENDTAB
  0
TABLE
  2
DIMSTYLE
  5
9
100
AcDbSymbolTable
 70
     1
  0
DIMSTYLE
105
18
100
AcDbSymbolTableRecord
100
AcDbDimStyleTableRecord
  2
STANDARD
 70
     0
  3

  4

  5

  6

  7

 40
1.0
 41
0.18
 42
0.0625
 43
0.38
 44
0.18
 45
0.0
 46
0.0
 47
0.0
 48
0.0
 71
     0
 72
     0
 73
     1
 74
     1
 75
     0
 76
     0
 77
     0
 78
     0
140
0.18
141
0.09
142
0.0
143
25.4
144
1.0
145
0.0
146
1.0
147
0.09
170
     0
171
     2
172
     1
173
     0
174
     0
175
     0
176
     0
177
     0
178
     0
270
     2
271
     4
272
     4
273
     2
274
     2
275
     0
280
     0
281
     0
282
     0
283
     1
284
     0
285
     0
286
     0
287
     0
288
     0
340
17
  0
ENDTAB
  0
TABLE
  2
BLOCK_RECORD
  5
1
100
AcDbSymbolTable
 70
    31
  0
BLOCK_RECORD
  5
A
100
AcDbSymbolTableRecord
100
AcDbBlockTableRecord
  2
*MODEL_SPACE
  0
BLOCK_RECORD
  5
B
100
AcDbSymbolTableRecord
100
AcDbBlockTableRecord
  2
*PAPER_SPACE
  0
BLOCK_RECORD
  5
2C
100
AcDbSymbolTableRecord
100
AcDbBlockTableRecord
  2
_EX_NORM
  0
BLOCK_RECORD
  5
2D
100
AcDbSymbolTableRecord
100
AcDbBlockTableRecord
  2
_EX_BNORM
  0
BLOCK_RECORD
  5
2E
100
AcDbSymbolTableRecord
100
AcDbBlockTableRecord
  2
_EX_BCIR
  0
BLOCK_RECORD
  5
2F
100
AcDbSymbolTableRecord
100
AcDbBlockTableRecord
  2
_EX_RCIVIL
  0
BLOCK_RECORD
  5
30
100
AcDbSymbolTableRecord
100
AcDbBlockTableRecord
  2
_EX_SLANT
  0
BLOCK_RECORD
  5
31
100
AcDbSymbolTableRecord
100
AcDbBlockTableRecord
  2
_EX_NONE
  0
BLOCK_RECORD
  5
32
100
AcDbSymbolTableRecord
100
AcDbBlockTableRecord
  2
_EX_CIVIL
  0
BLOCK_RECORD
  5
33
100
AcDbSymbolTableRecord
100
AcDbBlockTableRecord
  2
_EX_WCIR
  0
BLOCK_RECORD
  5
34
100
AcDbSymbolTableRecord
100
AcDbBlockTableRecord
  2
_EX_WCIR2
  0
BLOCK_RECORD
  5
35
100
AcDbSymbolTableRecord
100
AcDbBlockTableRecord
  2
_EX_WNORM
  0
BLOCK_RECORD
  5
36
100
AcDbSymbolTableRecord
100
AcDbBlockTableRecord
  2
_EX_NNORM
  0
BLOCK_RECORD
  5
37
100
AcDbSymbolTableRecord
100
AcDbBlockTableRecord
  2
_EX_BBOX
  0
BLOCK_RECORD
  5
38
100
AcDbSymbolTableRecord
100
AcDbBlockTableRecord
  2
_EX_WBOX
  0
BLOCK_RECORD
  5
39
100
AcDbSymbolTableRecord
100
AcDbBlockTableRecord
  2
_EX_INTEGRAL
  0
BLOCK_RECORD
  5
36E
100
AcDbSymbolTableRecord
100
AcDbBlockTableRecord
  2
*D14
  0
BLOCK_RECORD
  5
4C4
100
AcDbSymbolTableRecord
100
AcDbBlockTableRecord
  2
*D15
  0
BLOCK_RECORD
  5
4E3
100
AcDbSymbolTableRecord
100
AcDbBlockTableRecord
  2
*D16
  0
BLOCK_RECORD
  5
6A2
100
AcDbSymbolTableRecord
100
AcDbBlockTableRecord
  2
*D17
  0
BLOCK_RECORD
  5
6AF
100
AcDbSymbolTableRecord
100
AcDbBlockTableRecord
  2
*D18
  0
BLOCK_RECORD
  5
6BB
100
AcDbSymbolTableRecord
100
AcDbBlockTableRecord
  2
*D19
  0
BLOCK_RECORD
  5
6C7
100
AcDbSymbolTableRecord
100
AcDbBlockTableRecord
  2
*D20
  0
BLOCK_RECORD
  5
6D3
100
AcDbSymbolTableRecord
100
AcDbBlockTableRecord
  2
*D21
  0
BLOCK_RECORD
  5
6DF
100
AcDbSymbolTableRecord
100
AcDbBlockTableRecord
  2
*D22
  0
BLOCK_RECORD
  5
6EB
100
AcDbSymbolTableRecord
100
AcDbBlockTableRecord
  2
*D23
  0
BLOCK_RECORD
  5
6F6
100
AcDbSymbolTableRecord
100
AcDbBlockTableRecord
  2
*D24
  0
BLOCK_RECORD
  5
702
100
AcDbSymbolTableRecord
100
AcDbBlockTableRecord
  2
*D25
  0
BLOCK_RECORD
  5
70D
100
AcDbSymbolTableRecord
100
AcDbBlockTableRecord
  2
*D26
  0
BLOCK_RECORD
  5
718
100
AcDbSymbolTableRecord
100
AcDbBlockTableRecord
  2
*D27
  0
BLOCK_RECORD
  5
724
100
AcDbSymbolTableRecord
100
AcDbBlockTableRecord
  2
*D28
  0
BLOCK_RECORD
  5
731
100
AcDbSymbolTableRecord
100
AcDbBlockTableRecord
  2
*D29
  0
BLOCK_RECORD
  5
73D
100
AcDbSymbolTableRecord
100
AcDbBlockTableRecord
  2
*D30
  0
ENDTAB
  0
ENDSEC
  0
SECTION
  2
BLOCKS
  0
BLOCK
  5
D
100
AcDbEntity
  8
0
100
AcDbBlockBegin
  2
*MODEL_SPACE
 70
     0
 10
0.0
 20
0.0
 30
0.0
  3
*MODEL_SPACE
  1

  0
ENDBLK
  5
E
100
AcDbEntity
  8
0
100
AcDbBlockEnd
  0
BLOCK
  5
F
100
AcDbEntity
 67
     1
  8
0
100
AcDbBlockBegin
  2
*PAPER_SPACE
 70
     0
 10
0.0
 20
0.0
 30
0.0
  3
*PAPER_SPACE
  1

  0
ENDBLK
  5
10
100
AcDbEntity
 67
     1
  8
0
100
AcDbBlockEnd
  0
BLOCK
  5
3A
100
AcDbEntity
  8
0
100
AcDbBlockBegin
  2
_EX_NORM
 70
     0
 10
0.0
 20
0.0
 30
0.0
  3
_EX_NORM
  1

  0
LINE
  5
3B
100
AcDbEntity
  8
0
  6
CONTINUOUS
 62
     0
100
AcDbLine
 10
0.0
 20
0.0
 30
0.0
 11
-1.0
 21
0.0
 31
0.0
  0
LINE
  5
3C
100
AcDbEntity
  8
0
  6
CONTINUOUS
 62
     0
100
AcDbLine
 10
0.0
 20
0.0
 30
0.0
 11
-1.0
 21
0.166667
 31
0.0
  0
LINE
  5
3D
100
AcDbEntity
  8
0
  6
CONTINUOUS
 62
     0
100
AcDbLine
 10
0.0
 20
0.0
 30
0.0
 11
-1.0
 21
-0.166667
 31
0.0
  0
ENDBLK
  5
3E
100
AcDbEntity
  8
0
100
AcDbBlockEnd
  0
BLOCK
  5
3F
100
AcDbEntity
  8
0
100
AcDbBlockBegin
  2
_EX_BNORM
 70
     0
 10
0.0
 20
0.0
 30
0.0
  3
_EX_BNORM
  1

  0
LINE
  5
40
100
AcDbEntity
  8
0
  6
CONTINUOUS
 62
     0
100
AcDbLine
 10
0.0
 20
0.0
 30
0.0
 11
-1.0
 21
0.0
 31
0.0
  0
LINE
  5
41
100
AcDbEntity
  8
0
  6
CONTINUOUS
 62
     0
100
AcDbLine
 10
0.0
 20
0.0
 30
0.0
 11
-1.0
 21
0.166667
 31
0.0
  0
LINE
  5
42
100
AcDbEntity
  8
0
  6
CONTINUOUS
 62
     0
100
AcDbLine
 10
0.0
 20
0.0
 30
0.0
 11
-1.0
 21
-0.166667
 31
0.0
  0
LINE
  5
43
100
AcDbEntity
  8
0
  6
CONTINUOUS
 62
     0
100
AcDbLine
 10
0.0
 20
0.0
 30
0.0
 11
-1.0
 21
0.083333
 31
0.0
  0
LINE
  5
44
100
AcDbEntity
  8
0
  6
CONTINUOUS
 62
     0
100
AcDbLine
 10
0.0
 20
0.0
 30
0.0
 11
-1.0
 21
-0.083333
 31
0.0
  0
LINE
  5
45
100
AcDbEntity
  8
0
  6
CONTINUOUS
 62
     0
100
AcDbLine
 10
-1.0
 20
0.166667
 30
0.0
 11
-1.0
 21
-0.166667
 31
0.0
  0
ENDBLK
  5
46
100
AcDbEntity
  8
0
100
AcDbBlockEnd
  0
BLOCK
  5
47
100
AcDbEntity
  8
0
100
AcDbBlockBegin
  2
_EX_BCIR
 70
     0
 10
0.0
 20
0.0
 30
0.0
  3
_EX_BCIR
  1

  0
LINE
  5
48
100
AcDbEntity
  8
0
  6
CONTINUOUS
 62
     0
100
AcDbLine
 10
0.0
 20
0.0
 30
0.0
 11
-1.0
 21
0.0
 31
0.0
  0
CIRCLE
  5
49
100
AcDbEntity
  8
0
  6
CONTINUOUS
 62
     0
100
AcDbCircle
 10
0.0
 20
0.0
 30
0.0
 40
0.5
  0
CIRCLE
  5
4A
100
AcDbEntity
  8
0
  6
CONTINUOUS
 62
     0
100
AcDbCircle
 10
0.0
 20
0.0
 30
0.0
 40
0.25
  0
ENDBLK
  5
4B
100
AcDbEntity
  8
0
100
AcDbBlockEnd
  0
BLOCK
  5
4C
100
AcDbEntity
  8
0
100
AcDbBlockBegin
  2
_EX_RCIVIL
 70
     0
 10
0.0
 20
0.0
 30
0.0
  3
_EX_RCIVIL
  1

  0
LINE
  5
4D
100
AcDbEntity
  8
0
  6
CONTINUOUS
 62
     0
100
AcDbLine
 10
0.0
 20
0.0
 30
0.0
 11
-1.0
 21
0.0
 31
0.0
  0
LINE
  5
4E
100
AcDbEntity
  8
0
  6
CONTINUOUS
 62
     0
100
AcDbLine
 10
-1.0
 20
-0.25
 30
0.0
 11
0.0
 21
-0.25
 31
0.0
  0
LINE
  5
4F
100
AcDbEntity
  8
0
  6
CONTINUOUS
 62
     0
100
AcDbLine
 10
-1.0
 20
-0.125
 30
0.0
 11
0.0
 21
-0.125
 31
0.0
  0
ENDBLK
  5
50
100
AcDbEntity
  8
0
100
AcDbBlockEnd
  0
BLOCK
  5
51
100
AcDbEntity
  8
0
100
AcDbBlockBegin
  2
_EX_SLANT
 70
     0
 10
0.0
 20
0.0
 30
0.0
  3
_EX_SLANT
  1

  0
LINE
  5
52
100
AcDbEntity
  8
0
  6
CONTINUOUS
 62
     0
100
AcDbLine
 10
0.0
 20
0.0
 30
0.0
 11
-1.0
 21
0.0
 31
0.0
  0
LINE
  5
53
100
AcDbEntity
  8
0
  6
CONTINUOUS
 62
     0
100
AcDbLine
 10
0.707107
 20
0.707107
 30
0.0
 11
-0.707107
 21
-0.707107
 31
0.0
  0
ENDBLK
  5
54
100
AcDbEntity
  8
0
100
AcDbBlockEnd
  0
BLOCK
  5
55
100
AcDbEntity
  8
0
100
AcDbBlockBegin
  2
_EX_NONE
 70
     0
 10
0.0
 20
0.0
 30
0.0
  3
_EX_NONE
  1

  0
LINE
  5
56
100
AcDbEntity
  8
0
  6
CONTINUOUS
 62
     0
100
AcDbLine
 10
0.0
 20
0.0
 30
0.0
 11
-1.0
 21
0.0
 31
0.0
  0
ENDBLK
  5
57
100
AcDbEntity
  8
0
100
AcDbBlockEnd
  0
BLOCK
  5
58
100
AcDbEntity
  8
0
100
AcDbBlockBegin
  2
_EX_CIVIL
 70
     0
 10
0.0
 20
0.0
 30
0.0
  3
_EX_CIVIL
  1

  0
LINE
  5
59
100
AcDbEntity
  8
0
  6
CONTINUOUS
 62
     0
100
AcDbLine
 10
0.0
 20
0.0
 30
0.0
 11
-1.0
 21
0.0
 31
0.0
  0
LINE
  5
5A
100
AcDbEntity
  8
0
  6
CONTINUOUS
 62
     0
100
AcDbLine
 10
-1.0
 20
0.25
 30
0.0
 11
0.0
 21
0.25
 31
0.0
  0
LINE
  5
5B
100
AcDbEntity
  8
0
  6
CONTINUOUS
 62
     0
100
AcDbLine
 10
-1.0
 20
0.125
 30
0.0
 11
0.0
 21
0.125
 31
0.0
  0
ENDBLK
  5
5C
100
AcDbEntity
  8
0
100
AcDbBlockEnd
  0
BLOCK
  5
5D
100
AcDbEntity
  8
0
100
AcDbBlockBegin
  2
_EX_WCIR
 70
     0
 10
0.0
 20
0.0
 30
0.0
  3
_EX_WCIR
  1

  0
LINE
  5
5E
100
AcDbEntity
  8
0
  6
CONTINUOUS
 62
     0
100
AcDbLine
 10
0.0
 20
0.0
 30
0.0
 11
-1.0
 21
0.0
 31
0.0
  0
CIRCLE
  5
5F
100
AcDbEntity
  8
0
  6
CONTINUOUS
 62
     0
100
AcDbCircle
 10
0.0
 20
0.0
 30
0.0
 40
0.5
  0
ENDBLK
  5
60
100
AcDbEntity
  8
0
100
AcDbBlockEnd
  0
BLOCK
  5
61
100
AcDbEntity
  8
0
100
AcDbBlockBegin
  2
_EX_WCIR2
 70
     0
 10
0.0
 20
0.0
 30
0.0
  3
_EX_WCIR2
  1

  0
LINE
  5
62
100
AcDbEntity
  8
0
  6
CONTINUOUS
 62
     0
100
AcDbLine
 10
-0.5
 20
0.0
 30
0.0
 11
-1.0
 21
0.0
 31
0.0
  0
CIRCLE
  5
63
100
AcDbEntity
  8
0
  6
CONTINUOUS
 62
     0
100
AcDbCircle
 10
0.0
 20
0.0
 30
0.0
 40
0.5
  0
ENDBLK
  5
64
100
AcDbEntity
  8
0
100
AcDbBlockEnd
  0
BLOCK
  5
65
100
AcDbEntity
  8
0
100
AcDbBlockBegin
  2
_EX_WNORM
 70
     0
 10
0.0
 20
0.0
 30
0.0
  3
_EX_WNORM
  1

  0
LINE
  5
66
100
AcDbEntity
  8
0
  6
CONTINUOUS
 62
     0
100
AcDbLine
 10
-1.0
 20
0.0
 30
0.0
 11
-1.0
 21
0.0
 31
0.0
  0
LINE
  5
67
100
AcDbEntity
  8
0
  6
CONTINUOUS
 62
     0
100
AcDbLine
 10
0.0
 20
0.0
 30
0.0
 11
-1.0
 21
0.166667
 31
0.0
  0
LINE
  5
68
100
AcDbEntity
  8
0
  6
CONTINUOUS
 62
     0
100
AcDbLine
 10
0.0
 20
0.0
 30
0.0
 11
-1.0
 21
-0.166667
 31
0.0
  0
LINE
  5
69
100
AcDbEntity
  8
0
  6
CONTINUOUS
 62
     0
100
AcDbLine
 10
-1.0
 20
0.166667
 30
0.0
 11
-1.0
 21
-0.166667
 31
0.0
  0
ENDBLK
  5
6A
100
AcDbEntity
  8
0
100
AcDbBlockEnd
  0
BLOCK
  5
6B
100
AcDbEntity
  8
0
100
AcDbBlockBegin
  2
_EX_NNORM
 70
     0
 10
0.0
 20
0.0
 30
0.0
  3
_EX_NNORM
  1

  0
LINE
  5
6C
100
AcDbEntity
  8
0
  6
CONTINUOUS
 62
     0
100
AcDbLine
 10
0.0
 20
0.0
 30
0.0
 11
-1.0
 21
0.0
 31
0.0
  0
LINE
  5
6D
100
AcDbEntity
  8
0
  6
CONTINUOUS
 62
     0
100
AcDbLine
 10
0.0
 20
0.0
 30
0.0
 11
-1.0
 21
0.166667
 31
0.0
  0
LINE
  5
6E
100
AcDbEntity
  8
0
  6
CONTINUOUS
 62
     0
100
AcDbLine
 10
0.0
 20
0.0
 30
0.0
 11
-1.0
 21
-0.166667
 31
0.0
  0
LINE
  5
6F
100
AcDbEntity
  8
0
  6
CONTINUOUS
 62
     0
100
AcDbLine
 10
-1.0
 20
0.166667
 30
0.0
 11
-1.0
 21
-0.166667
 31
0.0
  0
ENDBLK
  5
70
100
AcDbEntity
  8
0
100
AcDbBlockEnd
  0
BLOCK
  5
71
100
AcDbEntity
  8
0
100
AcDbBlockBegin
  2
_EX_BBOX
 70
     0
 10
0.0
 20
0.0
 30
0.0
  3
_EX_BBOX
  1

  0
LINE
  5
72
100
AcDbEntity
  8
0
  6
CONTINUOUS
 62
     0
100
AcDbLine
 10
0.0
 20
0.0
 30
0.0
 11
-1.0
 21
0.0
 31
0.0
  0
LINE
  5
73
100
AcDbEntity
  8
0
  6
CONTINUOUS
 62
     0
100
AcDbLine
 10
-0.5
 20
0.5
 30
0.0
 11
0.5
 21
0.5
 31
0.0
  0
LINE
  5
74
100
AcDbEntity
  8
0
  6
CONTINUOUS
 62
     0
100
AcDbLine
 10
0.5
 20
0.5
 30
0.0
 11
0.5
 21
-0.5
 31
0.0
  0
LINE
  5
75
100
AcDbEntity
  8
0
  6
CONTINUOUS
 62
     0
100
AcDbLine
 10
0.5
 20
-0.5
 30
0.0
 11
-0.5
 21
-0.5
 31
0.0
  0
LINE
  5
76
100
AcDbEntity
  8
0
  6
CONTINUOUS
 62
     0
100
AcDbLine
 10
-0.5
 20
-0.5
 30
0.0
 11
-0.5
 21
0.5
 31
0.0
  0
LINE
  5
77
100
AcDbEntity
  8
0
  6
CONTINUOUS
 62
     0
100
AcDbLine
 10
-0.25
 20
0.25
 30
0.0
 11
0.25
 21
0.25
 31
0.0
  0
LINE
  5
78
100
AcDbEntity
  8
0
  6
CONTINUOUS
 62
     0
100
AcDbLine
 10
0.25
 20
0.25
 30
0.0
 11
0.25
 21
-0.25
 31
0.0
  0
LINE
  5
79
100
AcDbEntity
  8
0
  6
CONTINUOUS
 62
     0
100
AcDbLine
 10
0.25
 20
-0.25
 30
0.0
 11
-0.25
 21
-0.25
 31
0.0
  0
LINE
  5
7A
100
AcDbEntity
  8
0
  6
CONTINUOUS
 62
     0
100
AcDbLine
 10
-0.25
 20
-0.25
 30
0.0
 11
-0.25
 21
0.25
 31
0.0
  0
ENDBLK
  5
7B
100
AcDbEntity
  8
0
100
AcDbBlockEnd
  0
BLOCK
  5
7C
100
AcDbEntity
  8
0
100
AcDbBlockBegin
  2
_EX_WBOX
 70
     0
 10
0.0
 20
0.0
 30
0.0
  3
_EX_WBOX
  1

  0
LINE
  5
7D
100
AcDbEntity
  8
0
  6
CONTINUOUS
 62
     0
100
AcDbLine
 10
-0.5
 20
0.0
 30
0.0
 11
-1.0
 21
0.0
 31
0.0
  0
LINE
  5
7E
100
AcDbEntity
  8
0
  6
CONTINUOUS
 62
     0
100
AcDbLine
 10
-0.5
 20
0.5
 30
0.0
 11
0.5
 21
0.5
 31
0.0
  0
LINE
  5
7F
100
AcDbEntity
  8
0
  6
CONTINUOUS
 62
     0
100
AcDbLine
 10
0.5
 20
0.5
 30
0.0
 11
0.5
 21
-0.5
 31
0.0
  0
LINE
  5
80
100
AcDbEntity
  8
0
  6
CONTINUOUS
 62
     0
100
AcDbLine
 10
0.5
 20
-0.5
 30
0.0
 11
-0.5
 21
-0.5
 31
0.0
  0
LINE
  5
81
100
AcDbEntity
  8
0
  6
CONTINUOUS
 62
     0
100
AcDbLine
 10
-0.5
 20
-0.5
 30
0.0
 11
-0.5
 21
0.5
 31
0.0
  0
ENDBLK
  5
82
100
AcDbEntity
  8
0
100
AcDbBlockEnd
  0
BLOCK
  5
83
100
AcDbEntity
  8
0
100
AcDbBlockBegin
  2
_EX_INTEGRAL
 70
     0
 10
0.0
 20
0.0
 30
0.0
  3
_EX_INTEGRAL
  1

  0
LINE
  5
84
100
AcDbEntity
  8
0
  6
CONTINUOUS
 62
     0
100
AcDbLine
 10
0.0
 20
0.0
 30
0.0
 11
-1.0
 21
0.0
 31
0.0
  0
ARC
  5
85
100
AcDbEntity
  8
0
  6
CONTINUOUS
 62
     0
100
AcDbCircle
 10
0.542115
 20
0.164992
 30
0.0
 40
0.56667
100
AcDbArc
 50
73.07249
 51
196.927513
  0
ARC
  5
86
100
AcDbEntity
  8
0
  6
CONTINUOUS
 62
     0
100
AcDbCircle
 10
-0.542115
 20
-0.164992
 30
0.0
 40
0.56667
100
AcDbArc
 50
253.072487
 51
16.927513
  0
ENDBLK
  5
87
100
AcDbEntity
  8
0
100
AcDbBlockEnd
  0
BLOCK
  5
36F
100
AcDbEntity
  8
0
100
AcDbBlockBegin
  2
*D14
 70
    65
 10
0.0
 20
0.0
 30
0.0
  3
*D14
  1

  0
LINE
  5
370
100
AcDbEntity
  8
洗面器
  6
CONTINUOUS
 62
     3
100
AcDbLine
 10
848.0
 20
1135.969971
 30
0.0
 11
962.694458
 21
1135.969971
 31
0.0
  0
LINE
  5
371
100
AcDbEntity
  8
洗面器
  6
CONTINUOUS
 62
     3
100
AcDbLine
 10
953.0
 20
610.969971
 30
0.0
 11
962.694458
 21
610.969971
 31
0.0
  0
LINE
  5
372
100
AcDbEntity
  8
洗面器
  6
CONTINUOUS
 62
     3
100
AcDbLine
 10
952.694458
 20
1135.969971
 30
0.0
 11
952.694458
 21
610.969971
 31
0.0
  0
LINE
  5
373
100
AcDbEntity
  8
洗面器
  6
CONTINUOUS
 62
     3
100
AcDbLine
 10
957.694458
 20
1105.969971
 30
0.0
 11
952.694458
 21
1135.969971
 31
0.0
  0
LINE
  5
374
100
AcDbEntity
  8
洗面器
  6
CONTINUOUS
 62
     3
100
AcDbLine
 10
952.694458
 20
1135.969971
 30
0.0
 11
947.694458
 21
1105.969971
 31
0.0
  0
LINE
  5
375
100
AcDbEntity
  8
洗面器
  6
CONTINUOUS
 62
     3
100
AcDbLine
 10
947.694458
 20
640.969971
 30
0.0
 11
952.694458
 21
610.969971
 31
0.0
  0
LINE
  5
376
100
AcDbEntity
  8
洗面器
  6
CONTINUOUS
 62
     3
100
AcDbLine
 10
952.694458
 20
610.969971
 30
0.0
 11
957.694458
 21
640.969971
 31
0.0
  0
TEXT
  5
377
100
AcDbEntity
  8
洗面器
  6
CONTINUOUS
 62
     2
100
AcDbText
 10
947.694458
 20
829.789971
 30
0.0
 40
40.0
  1
525
 50
90.0
 41
0.84
  7
EXCADSTD
 72
     1
 11
947.694458
 21
873.469971
 31
0.0
100
AcDbText
  0
ENDBLK
  5
378
100
AcDbEntity
  8
0
100
AcDbBlockEnd
  0
BLOCK
  5
4C5
100
AcDbEntity
  8
0
100
AcDbBlockBegin
  2
*D15
 70
    65
 10
0.0
 20
0.0
 30
0.0
  3
*D15
  1

  0
LINE
  5
4C6
100
AcDbEntity
  8
止水栓
  6
CONTINUOUS
 62
     3
100
AcDbLine
 10
685.463013
 20
531.0
 30
0.0
 11
685.463013
 21
461.0
 31
0.0
  0
LINE
  5
4C7
100
AcDbEntity
  8
止水栓
  6
CONTINUOUS
 62
     3
100
AcDbLine
 10
800.463013
 20
596.1
 30
0.0
 11
800.463013
 21
461.0
 31
0.0
  0
LINE
  5
4C8
100
AcDbEntity
  8
止水栓
  6
CONTINUOUS
 62
     3
100
AcDbLine
 10
655.463013
 20
471.0
 30
0.0
 11
1083.963017
 21
471.0
 31
0.0
  0
LINE
  5
4C9
100
AcDbEntity
  8
止水栓
  6
CONTINUOUS
 62
     3
100
AcDbLine
 10
655.463013
 20
466.0
 30
0.0
 11
685.463013
 21
471.0
 31
0.0
  0
LINE
  5
4CA
100
AcDbEntity
  8
止水栓
  6
CONTINUOUS
 62
     3
100
AcDbLine
 10
685.463013
 20
471.0
 30
0.0
 11
655.463013
 21
476.0
 31
0.0
  0
LINE
  5
4CB
100
AcDbEntity
  8
止水栓
  6
CONTINUOUS
 62
     3
100
AcDbLine
 10
830.463013
 20
476.0
 30
0.0
 11
800.463013
 21
471.0
 31
0.0
  0
LINE
  5
4CC
100
AcDbEntity
  8
止水栓
  6
CONTINUOUS
 62
     3
100
AcDbLine
 10
800.463013
 20
471.0
 30
0.0
 11
830.463013
 21
466.0
 31
0.0
  0
TEXT
  5
4CD
100
AcDbEntity
  8
止水栓
  6
CONTINUOUS
 62
     2
100
AcDbText
 10
850.463013
 20
474.5
 30
0.0
 40
40.0
  1
115（床給水）
 41
0.84
  7
EXCADSTD
 72
     1
 11
955.463013
 21
474.5
 31
0.0
100
AcDbText
  0
ENDBLK
  5
4CE
100
AcDbEntity
  8
0
100
AcDbBlockEnd
  0
BLOCK
  5
4E4
100
AcDbEntity
  8
0
100
AcDbBlockBegin
  2
*D16
 70
    65
 10
0.0
 20
0.0
 30
0.0
  3
*D16
  1

  0
LINE
  5
4E5
100
AcDbEntity
  8
止水栓
  6
CONTINUOUS
 62
     3
100
AcDbLine
 10
1639.039185
 20
591.1
 30
0.0
 11
1639.039185
 21
526.0
 31
0.0
  0
LINE
  5
4E6
100
AcDbEntity
  8
止水栓
  6
CONTINUOUS
 62
     3
100
AcDbLine
 10
1704.039185
 20
605.969971
 30
0.0
 11
1704.039185
 21
526.0
 31
0.0
  0
LINE
  5
4E7
100
AcDbEntity
  8
止水栓
  6
CONTINUOUS
 62
     3
100
AcDbLine
 10
1609.039185
 20
536.0
 30
0.0
 11
1957.539188
 21
536.0
 31
0.0
  0
LINE
  5
4E8
100
AcDbEntity
  8
止水栓
  6
CONTINUOUS
 62
     3
100
AcDbLine
 10
1609.039185
 20
531.0
 30
0.0
 11
1639.039185
 21
536.0
 31
0.0
  0
LINE
  5
4E9
100
AcDbEntity
  8
止水栓
  6
CONTINUOUS
 62
     3
100
AcDbLine
 10
1639.039185
 20
536.0
 30
0.0
 11
1609.039185
 21
541.0
 31
0.0
  0
LINE
  5
4EA
100
AcDbEntity
  8
止水栓
  6
CONTINUOUS
 62
     3
100
AcDbLine
 10
1734.039185
 20
541.0
 30
0.0
 11
1704.039185
 21
536.0
 31
0.0
  0
LINE
  5
4EB
100
AcDbEntity
  8
止水栓
  6
CONTINUOUS
 62
     3
100
AcDbLine
 10
1704.039185
 20
536.0
 30
0.0
 11
1734.039185
 21
531.0
 31
0.0
  0
TEXT
  5
4EC
100
AcDbEntity
  8
止水栓
  6
CONTINUOUS
 62
     2
100
AcDbText
 10
1751.639185
 20
539.5
 30
0.0
 40
40.0
  1
65（床給水）
 41
0.84
  7
EXCADSTD
 72
     1
 11
1844.039185
 21
539.5
 31
0.0
100
AcDbText
  0
ENDBLK
  5
4ED
100
AcDbEntity
  8
0
100
AcDbBlockEnd
  0
BLOCK
  5
6A3
100
AcDbEntity
  8
0
100
AcDbBlockBegin
  2
*D17
 70
    65
 10
0.0
 20
0.0
 30
0.0
  3
*D17
  1

  0
LINE
  5
6A4
100
AcDbEntity
  8
寸法
  6
CONTINUOUS
 62
     3
100
AcDbLine
 10
680.463013
 20
2455.355713
 30
0.0
 11
587.463013
 21
2455.355713
 31
0.0
  0
LINE
  5
6A5
100
AcDbEntity
  8
寸法
  6
CONTINUOUS
 62
     3
100
AcDbLine
 10
680.463013
 20
2235.355713
 30
0.0
 11
587.463013
 21
2235.355713
 31
0.0
  0
TEXT
  5
6A6
100
AcDbEntity
  8
寸法
  6
CONTINUOUS
 62
     2
100
AcDbText
 10
594.463013
 20
2297.055713
 30
0.0
 40
40.0
  1
220
 50
90.0
 41
0.945
  7
EXCADSTD
 72
     1
 11
594.463013
 21
2345.355713
 31
0.0
100
AcDbText
  0
LINE
  5
6A7
100
AcDbEntity
  8
寸法
  6
CONTINUOUS
 62
     3
100
AcDbLine
 10
597.463013
 20
2455.355713
 30
0.0
 11
597.463013
 21
2235.355713
 31
0.0
  0
LINE
  5
6A8
100
AcDbEntity
  8
寸法
  6
CONTINUOUS
 62
     3
100
AcDbLine
 10
602.463013
 20
2425.355713
 30
0.0
 11
597.463013
 21
2455.355713
 31
0.0
  0
LINE
  5
6A9
100
AcDbEntity
  8
寸法
  6
CONTINUOUS
 62
     3
100
AcDbLine
 10
597.463013
 20
2455.355713
 30
0.0
 11
592.463013
 21
2425.355713
 31
0.0
  0
LINE
  5
6AA
100
AcDbEntity
  8
寸法
  6
CONTINUOUS
 62
     3
100
AcDbLine
 10
592.463013
 20
2265.355713
 30
0.0
 11
597.463013
 21
2235.355713
 31
0.0
  0
LINE
  5
6AB
100
AcDbEntity
  8
寸法
  6
CONTINUOUS
 62
     3
100
AcDbLine
 10
597.463013
 20
2235.355713
 30
0.0
 11
602.463013
 21
2265.355713
 31
0.0
  0
ENDBLK
  5
6AC
100
AcDbEntity
  8
0
100
AcDbBlockEnd
  0
BLOCK
  5
6B0
100
AcDbEntity
  8
0
100
AcDbBlockBegin
  2
*D18
 70
    65
 10
0.0
 20
0.0
 30
0.0
  3
*D18
  1

  0
LINE
  5
6B1
100
AcDbEntity
  8
寸法
  6
CONTINUOUS
 62
     3
100
AcDbLine
 10
535.463013
 20
2307.869758
 30
0.0
 11
535.463013
 21
2263.0
 31
0.0
  0
LINE
  5
6B2
100
AcDbEntity
  8
寸法
  6
CONTINUOUS
 62
     3
100
AcDbLine
 10
835.463013
 20
2307.869758
 30
0.0
 11
835.463013
 21
2263.0
 31
0.0
  0
TEXT
  5
6B3
100
AcDbEntity
  8
寸法
  6
CONTINUOUS
 62
     2
100
AcDbText
 10
637.163013
 20
2276.0
 30
0.0
 40
40.0
  1
300
 41
0.945
  7
EXCADSTD
 72
     1
 11
685.463013
 21
2276.0
 31
0.0
100
AcDbText
  0
LINE
  5
6B4
100
AcDbEntity
  8
寸法
  6
CONTINUOUS
 62
     3
100
AcDbLine
 10
535.463013
 20
2273.0
 30
0.0
 11
835.463013
 21
2273.0
 31
0.0
  0
LINE
  5
6B5
100
AcDbEntity
  8
寸法
  6
CONTINUOUS
 62
     3
100
AcDbLine
 10
565.463013
 20
2278.0
 30
0.0
 11
535.463013
 21
2273.0
 31
0.0
  0
LINE
  5
6B6
100
AcDbEntity
  8
寸法
  6
CONTINUOUS
 62
     3
100
AcDbLine
 10
535.463013
 20
2273.0
 30
0.0
 11
565.463013
 21
2268.0
 31
0.0
  0
LINE
  5
6B7
100
AcDbEntity
  8
寸法
  6
CONTINUOUS
 62
     3
100
AcDbLine
 10
805.463013
 20
2268.0
 30
0.0
 11
835.463013
 21
2273.0
 31
0.0
  0
LINE
  5
6B8
100
AcDbEntity
  8
寸法
  6
CONTINUOUS
 62
     3
100
AcDbLine
 10
835.463013
 20
2273.0
 30
0.0
 11
805.463013
 21
2278.0
 31
0.0
  0
ENDBLK
  5
6B9
100
AcDbEntity
  8
0
100
AcDbBlockEnd
  0
BLOCK
  5
6BC
100
AcDbEntity
  8
0
100
AcDbBlockBegin
  2
*D19
 70
    65
 10
0.0
 20
0.0
 30
0.0
  3
*D19
  1

  0
LINE
  5
6BD
100
AcDbEntity
  8
寸法
  6
CONTINUOUS
 62
     3
100
AcDbLine
 10
875.463013
 20
2515.355713
 30
0.0
 11
956.463013
 21
2515.355713
 31
0.0
  0
LINE
  5
6BE
100
AcDbEntity
  8
寸法
  6
CONTINUOUS
 62
     3
100
AcDbLine
 10
835.163013
 20
2450.355713
 30
0.0
 11
956.463013
 21
2450.355713
 31
0.0
  0
TEXT
  5
6BF
100
AcDbEntity
  8
寸法
  6
CONTINUOUS
 62
     2
100
AcDbText
 10
943.463013
 20
2449.255713
 30
0.0
 40
40.0
  1
65
 50
90.0
 41
0.945
  7
EXCADSTD
 72
     1
 11
943.463013
 21
2482.855713
 31
0.0
100
AcDbText
  0
LINE
  5
6C0
100
AcDbEntity
  8
寸法
  6
CONTINUOUS
 62
     3
100
AcDbLine
 10
946.463013
 20
2545.355713
 30
0.0
 11
946.463013
 21
2420.355713
 31
0.0
  0
LINE
  5
6C1
100
AcDbEntity
  8
寸法
  6
CONTINUOUS
 62
     3
100
AcDbLine
 10
941.463013
 20
2545.355713
 30
0.0
 11
946.463013
 21
2515.355713
 31
0.0
  0
LINE
  5
6C2
100
AcDbEntity
  8
寸法
  6
CONTINUOUS
 62
     3
100
AcDbLine
 10
946.463013
 20
2515.355713
 30
0.0
 11
951.463013
 21
2545.355713
 31
0.0
  0
LINE
  5
6C3
100
AcDbEntity
  8
寸法
  6
CONTINUOUS
 62
     3
100
AcDbLine
 10
951.463013
 20
2420.355713
 30
0.0
 11
946.463013
 21
2450.355713
 31
0.0
  0
LINE
  5
6C4
100
AcDbEntity
  8
寸法
  6
CONTINUOUS
 62
     3
100
AcDbLine
 10
946.463013
 20
2450.355713
 30
0.0
 11
941.463013
 21
2420.355713
 31
0.0
  0
ENDBLK
  5
6C5
100
AcDbEntity
  8
0
100
AcDbBlockEnd
  0
BLOCK
  5
6C8
100
AcDbEntity
  8
0
100
AcDbBlockBegin
  2
*D20
 70
    65
 10
0.0
 20
0.0
 30
0.0
  3
*D20
  1

  0
LINE
  5
6C9
100
AcDbEntity
  8
寸法
  6
CONTINUOUS
 62
     3
100
AcDbLine
 10
951.463013
 20
2515.355713
 30
0.0
 11
1016.463013
 21
2515.355713
 31
0.0
  0
LINE
  5
6CA
100
AcDbEntity
  8
寸法
  6
CONTINUOUS
 62
     3
100
AcDbLine
 10
690.463013
 20
2195.355713
 30
0.0
 11
1016.463013
 21
2195.355713
 31
0.0
  0
TEXT
  5
6CB
100
AcDbEntity
  8
寸法
  6
CONTINUOUS
 62
     2
100
AcDbText
 10
1003.463013
 20
2307.055713
 30
0.0
 40
40.0
  1
320
 50
90.0
 41
0.945
  7
EXCADSTD
 72
     1
 11
1003.463013
 21
2355.355713
 31
0.0
100
AcDbText
  0
LINE
  5
6CC
100
AcDbEntity
  8
寸法
  6
CONTINUOUS
 62
     3
100
AcDbLine
 10
1006.463013
 20
2515.355713
 30
0.0
 11
1006.463013
 21
2195.355713
 31
0.0
  0
LINE
  5
6CD
100
AcDbEntity
  8
寸法
  6
CONTINUOUS
 62
     3
100
AcDbLine
 10
1011.463013
 20
2485.355713
 30
0.0
 11
1006.463013
 21
2515.355713
 31
0.0
  0
LINE
  5
6CE
100
AcDbEntity
  8
寸法
  6
CONTINUOUS
 62
     3
100
AcDbLine
 10
1006.463013
 20
2515.355713
 30
0.0
 11
1001.463013
 21
2485.355713
 31
0.0
  0
LINE
  5
6CF
100
AcDbEntity
  8
寸法
  6
CONTINUOUS
 62
     3
100
AcDbLine
 10
1001.463013
 20
2225.355713
 30
0.0
 11
1006.463013
 21
2195.355713
 31
0.0
  0
LINE
  5
6D0
100
AcDbEntity
  8
寸法
  6
CONTINUOUS
 62
     3
100
AcDbLine
 10
1006.463013
 20
2195.355713
 30
0.0
 11
1011.463013
 21
2225.355713
 31
0.0
  0
ENDBLK
  5
6D1
100
AcDbEntity
  8
0
100
AcDbBlockEnd
  0
BLOCK
  5
6D4
100
AcDbEntity
  8
0
100
AcDbBlockBegin
  2
*D21
 70
    65
 10
0.0
 20
0.0
 30
0.0
  3
*D21
  1

  0
LINE
  5
6D5
100
AcDbEntity
  8
寸法
  6
CONTINUOUS
 62
     3
100
AcDbLine
 10
485.463013
 20
2268.81952
 30
0.0
 11
485.463013
 21
2105.35556
 31
0.0
  0
LINE
  5
6D6
100
AcDbEntity
  8
寸法
  6
CONTINUOUS
 62
     3
100
AcDbLine
 10
885.463013
 20
2268.81952
 30
0.0
 11
885.463013
 21
2105.35556
 31
0.0
  0
TEXT
  5
6D7
100
AcDbEntity
  8
寸法
  6
CONTINUOUS
 62
     2
100
AcDbText
 10
637.163013
 20
2118.35556
 30
0.0
 40
40.0
  1
400
 41
0.945
  7
EXCADSTD
 72
     1
 11
685.463013
 21
2118.35556
 31
0.0
100
AcDbText
  0
LINE
  5
6D8
100
AcDbEntity
  8
寸法
  6
CONTINUOUS
 62
     3
100
AcDbLine
 10
485.463013
 20
2115.35556
 30
0.0
 11
885.463013
 21
2115.35556
 31
0.0
  0
LINE
  5
6D9
100
AcDbEntity
  8
寸法
  6
CONTINUOUS
 62
     3
100
AcDbLine
 10
515.463013
 20
2120.35556
 30
0.0
 11
485.463013
 21
2115.35556
 31
0.0
  0
LINE
  5
6DA
100
AcDbEntity
  8
寸法
  6
CONTINUOUS
 62
     3
100
AcDbLine
 10
485.463013
 20
2115.35556
 30
0.0
 11
515.463013
 21
2110.35556
 31
0.0
  0
LINE
  5
6DB
100
AcDbEntity
  8
寸法
  6
CONTINUOUS
 62
     3
100
AcDbLine
 10
855.463013
 20
2110.35556
 30
0.0
 11
885.463013
 21
2115.35556
 31
0.0
  0
LINE
  5
6DC
100
AcDbEntity
  8
寸法
  6
CONTINUOUS
 62
     3
100
AcDbLine
 10
885.463013
 20
2115.35556
 30
0.0
 11
855.463013
 21
2120.35556
 31
0.0
  0
ENDBLK
  5
6DD
100
AcDbEntity
  8
0
100
AcDbBlockEnd
  0
BLOCK
  5
6E0
100
AcDbEntity
  8
0
100
AcDbBlockBegin
  2
*D22
 70
    65
 10
0.0
 20
0.0
 30
0.0
  3
*D22
  1

  0
LINE
  5
6E1
100
AcDbEntity
  8
寸法
  6
CONTINUOUS
 62
     3
100
AcDbLine
 10
722.855152
 20
1202.970703
 30
0.0
 11
962.694458
 21
1202.970703
 31
0.0
  0
TEXT
  5
6E2
100
AcDbEntity
  8
寸法
  6
CONTINUOUS
 62
     2
100
AcDbText
 10
949.694458
 20
1237.170703
 30
0.0
 40
40.0
  1
165
 50
90.0
 41
0.945
  7
EXCADSTD
 72
     1
 11
949.694458
 21
1285.470703
 31
0.0
100
AcDbText
  0
LINE
  5
6E3
100
AcDbEntity
  8
寸法
  6
CONTINUOUS
 62
     3
100
AcDbLine
 10
952.694458
 20
1202.970703
 30
0.0
 11
952.694458
 21
1367.970703
 31
0.0
  0
LINE
  5
6E4
100
AcDbEntity
  8
寸法
  6
CONTINUOUS
 62
     3
100
AcDbLine
 10
947.694458
 20
1232.970703
 30
0.0
 11
952.694458
 21
1202.970703
 31
0.0
  0
LINE
  5
6E5
100
AcDbEntity
  8
寸法
  6
CONTINUOUS
 62
     3
100
AcDbLine
 10
952.694458
 20
1202.970703
 30
0.0
 11
957.694458
 21
1232.970703
 31
0.0
  0
LINE
  5
6E6
100
AcDbEntity
  8
寸法
  6
CONTINUOUS
 62
     3
100
AcDbLine
 10
957.694458
 20
1337.970703
 30
0.0
 11
952.694458
 21
1367.970703
 31
0.0
  0
LINE
  5
6E7
100
AcDbEntity
  8
寸法
  6
CONTINUOUS
 62
     3
100
AcDbLine
 10
952.694458
 20
1367.970703
 30
0.0
 11
947.694458
 21
1337.970703
 31
0.0
  0
LINE
  5
6E8
100
AcDbEntity
  8
寸法
  6
CONTINUOUS
 62
     3
100
AcDbLine
 10
690.463013
 20
1367.970703
 30
0.0
 11
1022.694458
 21
1367.970703
 31
0.0
  0
ENDBLK
  5
6E9
100
AcDbEntity
  8
0
100
AcDbBlockEnd
  0
BLOCK
  5
6EC
100
AcDbEntity
  8
0
100
AcDbBlockBegin
  2
*D23
 70
    65
 10
0.0
 20
0.0
 30
0.0
  3
*D23
  1

  0
TEXT
  5
6ED
100
AcDbEntity
  8
寸法
  6
CONTINUOUS
 62
     2
100
AcDbText
 10
949.694458
 20
1449.370703
 30
0.0
 40
40.0
  1
45
 50
90.0
 41
0.945
  7
EXCADSTD
 72
     1
 11
949.694458
 21
1482.970703
 31
0.0
100
AcDbText
  0
LINE
  5
6EE
100
AcDbEntity
  8
寸法
  6
CONTINUOUS
 62
     3
100
AcDbLine
 10
870.463831
 20
1412.970703
 30
0.0
 11
962.694458
 21
1412.970703
 31
0.0
  0
LINE
  5
6EF
100
AcDbEntity
  8
寸法
  6
CONTINUOUS
 62
     3
100
AcDbLine
 10
952.694458
 20
1337.970703
 30
0.0
 11
952.694458
 21
1525.970705
 31
0.0
  0
LINE
  5
6F0
100
AcDbEntity
  8
寸法
  6
CONTINUOUS
 62
     3
100
AcDbLine
 10
957.694458
 20
1337.970703
 30
0.0
 11
952.694458
 21
1367.970703
 31
0.0
  0
LINE
  5
6F1
100
AcDbEntity
  8
寸法
  6
CONTINUOUS
 62
     3
100
AcDbLine
 10
952.694458
 20
1367.970703
 30
0.0
 11
947.694458
 21
1337.970703
 31
0.0
  0
LINE
  5
6F2
100
AcDbEntity
  8
寸法
  6
CONTINUOUS
 62
     3
100
AcDbLine
 10
947.694458
 20
1442.970703
 30
0.0
 11
952.694458
 21
1412.970703
 31
0.0
  0
LINE
  5
6F3
100
AcDbEntity
  8
寸法
  6
CONTINUOUS
 62
     3
100
AcDbLine
 10
952.694458
 20
1412.970703
 30
0.0
 11
957.694458
 21
1442.970703
 31
0.0
  0
ENDBLK
  5
6F4
100
AcDbEntity
  8
0
100
AcDbBlockEnd
  0
BLOCK
  5
6F7
100
AcDbEntity
  8
0
100
AcDbBlockBegin
  2
*D24
 70
    65
 10
0.0
 20
0.0
 30
0.0
  3
*D24
  1

  0
LINE
  5
6F8
100
AcDbEntity
  8
寸法
  6
CONTINUOUS
 62
     3
100
AcDbLine
 10
1529.039185
 20
471.0
 30
0.0
 11
1977.0
 21
471.0
 31
0.0
  0
LINE
  5
6F9
100
AcDbEntity
  8
寸法
  6
CONTINUOUS
 62
     3
100
AcDbLine
 10
1529.039185
 20
466.0
 30
0.0
 11
1559.039185
 21
471.0
 31
0.0
  0
LINE
  5
6FA
100
AcDbEntity
  8
寸法
  6
CONTINUOUS
 62
     3
100
AcDbLine
 10
1559.039185
 20
471.0
 30
0.0
 11
1529.039185
 21
476.0
 31
0.0
  0
LINE
  5
6FB
100
AcDbEntity
  8
寸法
  6
CONTINUOUS
 62
     3
100
AcDbLine
 10
1734.039185
 20
476.0
 30
0.0
 11
1704.039185
 21
471.0
 31
0.0
  0
LINE
  5
6FC
100
AcDbEntity
  8
寸法
  6
CONTINUOUS
 62
     3
100
AcDbLine
 10
1704.039185
 20
471.0
 30
0.0
 11
1734.039185
 21
466.0
 31
0.0
  0
TEXT
  5
6FD
100
AcDbEntity
  8
寸法
  6
CONTINUOUS
 62
     2
100
AcDbText
 10
1754.039185
 20
474.0
 30
0.0
 40
40.0
  1
145（床排水）
 41
0.84
  7
EXCADSTD
 72
     1
 11
1859.039185
 21
474.0
 31
0.0
100
AcDbText
  0
LINE
  5
6FE
100
AcDbEntity
  8
寸法
  6
CONTINUOUS
 62
     3
100
AcDbLine
 10
1559.039185
 20
568.000008
 30
0.0
 11
1559.039185
 21
461.0
 31
0.0
  0
LINE
  5
6FF
100
AcDbEntity
  8
寸法
  6
CONTINUOUS
 62
     3
100
AcDbLine
 10
1704.039185
 20
602.000004
 30
0.0
 11
1704.039185
 21
461.0
 31
0.0
  0
ENDBLK
  5
700
100
AcDbEntity
  8
0
100
AcDbBlockEnd
  0
BLOCK
  5
703
100
AcDbEntity
  8
0
100
AcDbBlockBegin
  2
*D25
 70
    65
 10
0.0
 20
0.0
 30
0.0
  3
*D25
  1

  0
LINE
  5
704
100
AcDbEntity
  8
寸法
  6
CONTINUOUS
 62
     3
100
AcDbLine
 10
1734.039185
 20
1085.969971
 30
0.0
 11
1812.0
 21
1085.969971
 31
0.0
  0
TEXT
  5
705
100
AcDbEntity
  8
寸法
  6
CONTINUOUS
 62
     2
100
AcDbText
 10
1799.0
 20
800.169971
 30
0.0
 40
40.0
  1
475
 50
90.0
 41
0.945
  7
EXCADSTD
 72
     1
 11
1799.0
 21
848.469971
 31
0.0
100
AcDbText
  0
LINE
  5
706
100
AcDbEntity
  8
寸法
  6
CONTINUOUS
 62
     3
100
AcDbLine
 10
1802.0
 20
1085.969971
 30
0.0
 11
1802.0
 21
610.969971
 31
0.0
  0
LINE
  5
707
100
AcDbEntity
  8
寸法
  6
CONTINUOUS
 62
     3
100
AcDbLine
 10
1807.0
 20
1055.969971
 30
0.0
 11
1802.0
 21
1085.969971
 31
0.0
  0
LINE
  5
708
100
AcDbEntity
  8
寸法
  6
CONTINUOUS
 62
     3
100
AcDbLine
 10
1802.0
 20
1085.969971
 30
0.0
 11
1797.0
 21
1055.969971
 31
0.0
  0
LINE
  5
709
100
AcDbEntity
  8
寸法
  6
CONTINUOUS
 62
     3
100
AcDbLine
 10
1797.0
 20
640.969971
 30
0.0
 11
1802.0
 21
610.969971
 31
0.0
  0
LINE
  5
70A
100
AcDbEntity
  8
寸法
  6
CONTINUOUS
 62
     3
100
AcDbLine
 10
1802.0
 20
610.969971
 30
0.0
 11
1807.0
 21
640.969971
 31
0.0
  0
ENDBLK
  5
70B
100
AcDbEntity
  8
0
100
AcDbBlockEnd
  0
BLOCK
  5
70E
100
AcDbEntity
  8
0
100
AcDbBlockBegin
  2
*D26
 70
    65
 10
0.0
 20
0.0
 30
0.0
  3
*D26
  1

  0
LINE
  5
70F
100
AcDbEntity
  8
寸法
  6
CONTINUOUS
 62
     3
100
AcDbLine
 10
1619.039185
 20
1112.5
 30
0.0
 11
1619.039185
 21
906.0
 31
0.0
  0
TEXT
  5
710
100
AcDbEntity
  8
寸法
  6
CONTINUOUS
 62
     2
100
AcDbText
 10
1627.099185
 20
929.5
 30
0.0
 40
40.0
  1
85
 41
0.945
  7
EXCADSTD
 72
     1
 11
1661.539185
 21
929.5
 31
0.0
100
AcDbText
  0
LINE
  5
711
100
AcDbEntity
  8
寸法
  6
CONTINUOUS
 62
     3
100
AcDbLine
 10
1574.039185
 20
926.0
 30
0.0
 11
1749.039185
 21
926.0
 31
0.0
  0
LINE
  5
712
100
AcDbEntity
  8
寸法
  6
CONTINUOUS
 62
     3
100
AcDbLine
 10
1584.039185
 20
920.166667
 30
0.0
 11
1619.039185
 21
926.0
 31
0.0
  0
LINE
  5
713
100
AcDbEntity
  8
寸法
  6
CONTINUOUS
 62
     3
100
AcDbLine
 10
1619.039185
 20
926.0
 30
0.0
 11
1584.039185
 21
931.833333
 31
0.0
  0
LINE
  5
714
100
AcDbEntity
  8
寸法
  6
CONTINUOUS
 62
     3
100
AcDbLine
 10
1739.039185
 20
931.833333
 30
0.0
 11
1704.039185
 21
926.0
 31
0.0
  0
LINE
  5
715
100
AcDbEntity
  8
寸法
  6
CONTINUOUS
 62
     3
100
AcDbLine
 10
1704.039185
 20
926.0
 30
0.0
 11
1739.039185
 21
920.166667
 31
0.0
  0
ENDBLK
  5
716
100
AcDbEntity
  8
0
100
AcDbBlockEnd
  0
BLOCK
  5
719
100
AcDbEntity
  8
0
100
AcDbBlockBegin
  2
*D27
 70
    65
 10
0.0
 20
0.0
 30
0.0
  3
*D27
  1

  0
TEXT
  5
71A
100
AcDbEntity
  8
寸法
  6
CONTINUOUS
 62
     2
100
AcDbText
 10
635.483029
 20
2593.855713
 30
0.0
 40
40.0
  1
150
 41
0.945
  7
EXCADSTD
 72
     1
 11
685.463029
 21
2593.855713
 31
0.0
100
AcDbText
  0
LINE
  5
71B
100
AcDbEntity
  8
寸法
  6
CONTINUOUS
 62
     3
100
AcDbLine
 10
610.463029
 20
2590.355713
 30
0.0
 11
760.463029
 21
2590.355713
 31
0.0
  0
LINE
  5
71C
100
AcDbEntity
  8
寸法
  6
CONTINUOUS
 62
     3
100
AcDbLine
 10
645.463029
 20
2596.189046
 30
0.0
 11
610.463029
 21
2590.355713
 31
0.0
  0
LINE
  5
71D
100
AcDbEntity
  8
寸法
  6
CONTINUOUS
 62
     3
100
AcDbLine
 10
610.463029
 20
2590.355713
 30
0.0
 11
645.463029
 21
2584.52238
 31
0.0
  0
LINE
  5
71E
100
AcDbEntity
  8
寸法
  6
CONTINUOUS
 62
     3
100
AcDbLine
 10
725.463029
 20
2584.52238
 30
0.0
 11
760.463029
 21
2590.355713
 31
0.0
  0
LINE
  5
71F
100
AcDbEntity
  8
寸法
  6
CONTINUOUS
 62
     3
100
AcDbLine
 10
760.463029
 20
2590.355713
 30
0.0
 11
725.463029
 21
2596.189046
 31
0.0
  0
LINE
  5
720
100
AcDbEntity
  8
寸法
  6
CONTINUOUS
 62
     3
100
AcDbLine
 10
760.463029
 20
2515.355713
 30
0.0
 11
760.463029
 21
2610.355713
 31
0.0
  0
LINE
  5
721
100
AcDbEntity
  8
寸法
  6
CONTINUOUS
 62
     3
100
AcDbLine
 10
610.463029
 20
2515.355713
 30
0.0
 11
610.463029
 21
2610.355713
 31
0.0
  0
ENDBLK
  5
722
100
AcDbEntity
  8
0
100
AcDbBlockEnd
  0
BLOCK
  5
725
100
AcDbEntity
  8
0
100
AcDbBlockBegin
  2
*D28
 70
    65
 10
0.0
 20
0.0
 30
0.0
  3
*D28
  1

  0
LINE
  5
726
100
AcDbEntity
  8
寸法
  6
CONTINUOUS
 62
     3
100
AcDbLine
 10
1733.93944
 20
1387.970719
 30
0.0
 11
1822.0
 21
1387.970719
 31
0.0
  0
LINE
  5
727
100
AcDbEntity
  8
寸法
  6
CONTINUOUS
 62
     3
100
AcDbLine
 10
1711.039184
 20
1412.970703
 30
0.0
 11
1822.0
 21
1412.970703
 31
0.0
  0
TEXT
  5
728
100
AcDbEntity
  8
寸法
  6
CONTINUOUS
 62
     2
100
AcDbText
 10
1798.5
 20
1454.530703
 30
0.0
 40
40.0
  1
25
 50
90.0
 41
0.945
  7
EXCADSTD
 72
     1
 11
1798.5
 21
1488.970703
 31
0.0
100
AcDbText
  0
LINE
  5
729
100
AcDbEntity
  8
寸法
  6
CONTINUOUS
 62
     3
100
AcDbLine
 10
1802.0
 20
1342.970719
 30
0.0
 11
1802.0
 21
1533.470705
 31
0.0
  0
LINE
  5
72A
100
AcDbEntity
  8
寸法
  6
CONTINUOUS
 62
     3
100
AcDbLine
 10
1807.833333
 20
1352.970719
 30
0.0
 11
1802.0
 21
1387.970719
 31
0.0
  0
LINE
  5
72B
100
AcDbEntity
  8
寸法
  6
CONTINUOUS
 62
     3
100
AcDbLine
 10
1802.0
 20
1387.970719
 30
0.0
 11
1796.166667
 21
1352.970719
 31
0.0
  0
LINE
  5
72C
100
AcDbEntity
  8
寸法
  6
CONTINUOUS
 62
     3
100
AcDbLine
 10
1796.166667
 20
1447.970703
 30
0.0
 11
1802.0
 21
1412.970703
 31
0.0
  0
LINE
  5
72D
100
AcDbEntity
  8
寸法
  6
CONTINUOUS
 62
     3
100
AcDbLine
 10
1802.0
 20
1412.970703
 30
0.0
 11
1807.833333
 21
1447.970703
 31
0.0
  0
ENDBLK
  5
72E
100
AcDbEntity
  8
0
100
AcDbBlockEnd
  0
BLOCK
  5
732
100
AcDbEntity
  8
0
100
AcDbBlockBegin
  2
*D29
 70
    65
 10
0.0
 20
0.0
 30
0.0
  3
*D29
  1

  0
LINE
  5
733
100
AcDbEntity
  8
寸法
  6
CONTINUOUS
 62
     3
100
AcDbLine
 10
1807.0
 20
1387.970719
 30
0.0
 11
1892.0
 21
1387.970719
 31
0.0
  0
LINE
  5
734
100
AcDbEntity
  8
寸法
  6
CONTINUOUS
 62
     3
100
AcDbLine
 10
1709.039185
 20
610.969971
 30
0.0
 11
1892.0
 21
610.969971
 31
0.0
  0
TEXT
  5
735
100
AcDbEntity
  8
寸法
  6
CONTINUOUS
 62
     2
100
AcDbText
 10
1879.0
 20
921.770345
 30
0.0
 40
40.0
  1
（780）
 50
90.0
 41
0.945
  7
EXCADSTD
 72
     1
 11
1879.0
 21
999.470345
 31
0.0
100
AcDbText
  0
LINE
  5
736
100
AcDbEntity
  8
寸法
  6
CONTINUOUS
 62
     3
100
AcDbLine
 10
1882.0
 20
1387.970719
 30
0.0
 11
1882.0
 21
610.969971
 31
0.0
  0
LINE
  5
737
100
AcDbEntity
  8
寸法
  6
CONTINUOUS
 62
     3
100
AcDbLine
 10
1887.0
 20
1357.970719
 30
0.0
 11
1882.0
 21
1387.970719
 31
0.0
  0
LINE
  5
738
100
AcDbEntity
  8
寸法
  6
CONTINUOUS
 62
     3
100
AcDbLine
 10
1882.0
 20
1387.970719
 30
0.0
 11
1877.0
 21
1357.970719
 31
0.0
  0
LINE
  5
739
100
AcDbEntity
  8
寸法
  6
CONTINUOUS
 62
     3
100
AcDbLine
 10
1877.0
 20
640.969971
 30
0.0
 11
1882.0
 21
610.969971
 31
0.0
  0
LINE
  5
73A
100
AcDbEntity
  8
寸法
  6
CONTINUOUS
 62
     3
100
AcDbLine
 10
1882.0
 20
610.969971
 30
0.0
 11
1887.0
 21
640.969971
 31
0.0
  0
ENDBLK
  5
73B
100
AcDbEntity
  8
0
100
AcDbBlockEnd
  0
BLOCK
  5
73E
100
AcDbEntity
  8
0
100
AcDbBlockBegin
  2
*D30
 70
    65
 10
0.0
 20
0.0
 30
0.0
  3
*D30
  1

  0
LINE
  5
73F
100
AcDbEntity
  8
寸法
  6
CONTINUOUS
 62
     3
100
AcDbLine
 10
685.463013
 20
982.76944
 30
0.0
 11
685.463013
 21
526.0
 31
0.0
  0
LINE
  5
740
100
AcDbEntity
  8
寸法
  6
CONTINUOUS
 62
     3
100
AcDbLine
 10
711.866516
 20
580.969971
 30
0.0
 11
711.866516
 21
526.0
 31
0.0
  0
TEXT
  5
741
100
AcDbEntity
  8
寸法
  6
CONTINUOUS
 62
     2
100
AcDbText
 10
477.063013
 20
539.5
 30
0.0
 40
40.0
  1
26（床排水）
 41
0.84
  7
EXCADSTD
 72
     1
 11
569.463013
 21
539.5
 31
0.0
100
AcDbText
  0
LINE
  5
742
100
AcDbEntity
  8
寸法
  6
CONTINUOUS
 62
     3
100
AcDbLine
 10
741.866516
 20
536.0
 30
0.0
 11
464.0
 21
536.0
 31
0.0
  0
LINE
  5
743
100
AcDbEntity
  8
寸法
  6
CONTINUOUS
 62
     3
100
AcDbLine
 10
741.866516
 20
541.0
 30
0.0
 11
711.866516
 21
536.0
 31
0.0
  0
LINE
  5
744
100
AcDbEntity
  8
寸法
  6
CONTINUOUS
 62
     3
100
AcDbLine
 10
711.866516
 20
536.0
 30
0.0
 11
741.866516
 21
531.0
 31
0.0
  0
LINE
  5
745
100
AcDbEntity
  8
寸法
  6
CONTINUOUS
 62
     3
100
AcDbLine
 10
655.463013
 20
531.0
 30
0.0
 11
685.463013
 21
536.0
 31
0.0
  0
LINE
  5
746
100
AcDbEntity
  8
寸法
  6
CONTINUOUS
 62
     3
100
AcDbLine
 10
685.463013
 20
536.0
 30
0.0
 11
655.463013
 21
541.0
 31
0.0
  0
ENDBLK
  5
747
100
AcDbEntity
  8
0
100
AcDbBlockEnd
  0
ENDSEC
  0
SECTION
  2
ENTITIES
  0
TEXT
  5
88
100
AcDbEntity
  8
枠_
  6
CONTINUOUS
 62
     2
100
AcDbText
 10
842.5
 20
243.75
 30
0.0
 40
62.5
  1
そで付大形手洗器
 41
0.8484
  7
EXCADSTD
 72
     5
 11
1347.5
 21
243.75
 31
0.0
100
AcDbText
  0
LINE
  5
89
100
AcDbEntity
  8
枠_
  6
CONTINUOUS
 62
     7
100
AcDbLine
 10
180.0
 20
115.0
 30
0.0
 11
2000.0
 21
115.0
 31
0.0
  0
LINE
  5
8A
100
AcDbEntity
  8
枠_
  6
CONTINUOUS
 62
     7
100
AcDbLine
 10
2000.0
 20
115.0
 30
0.0
 11
2000.0
 21
2915.0
 31
0.0
  0
LINE
  5
8B
100
AcDbEntity
  8
枠_
  6
CONTINUOUS
 62
     7
100
AcDbLine
 10
180.0
 20
115.0
 30
0.0
 11
180.0
 21
2915.0
 31
0.0
  0
LINE
  5
8C
100
AcDbEntity
  8
枠_
  6
CONTINUOUS
 62
     7
100
AcDbLine
 10
180.0
 20
2915.0
 30
0.0
 11
2000.0
 21
2915.0
 31
0.0
  0
LINE
  5
8D
100
AcDbEntity
  8
枠_
  6
CONTINUOUS
 62
     7
100
AcDbLine
 10
180.0
 20
335.0
 30
0.0
 11
2000.0
 21
335.0
 31
0.0
  0
LINE
  5
8E
100
AcDbEntity
  8
枠_
  6
CONTINUOUS
 62
     6
100
AcDbLine
 10
2000.0
 20
215.0
 30
0.0
 11
750.0
 21
215.0
 31
0.0
  0
LINE
  5
8F
100
AcDbEntity
  8
枠_
  6
CONTINUOUS
 62
     6
100
AcDbLine
 10
1860.0
 20
335.0
 30
0.0
 11
1860.0
 21
215.0
 31
0.0
  0
LINE
  5
90
100
AcDbEntity
  8
枠_
  6
CONTINUOUS
 62
     6
100
AcDbLine
 10
1810.0
 20
335.0
 30
0.0
 11
1810.0
 21
215.0
 31
0.0
  0
LINE
  5
91
100
AcDbEntity
  8
枠_
  6
CONTINUOUS
 62
     6
100
AcDbLine
 10
1440.0
 20
335.0
 30
0.0
 11
1440.0
 21
115.0
 31
0.0
  0
LINE
  5
92
100
AcDbEntity
  8
枠_
  6
CONTINUOUS
 62
     6
100
AcDbLine
 10
1390.0
 20
335.0
 30
0.0
 11
1390.0
 21
115.0
 31
0.0
  0
LINE
  5
93
100
AcDbEntity
  8
枠_
  6
CONTINUOUS
 62
     6
100
AcDbLine
 10
800.0
 20
335.0
 30
0.0
 11
800.0
 21
215.0
 31
0.0
  0
LINE
  5
94
100
AcDbEntity
  8
枠_
  6
CONTINUOUS
 62
     6
100
AcDbLine
 10
750.0
 20
335.0
 30
0.0
 11
750.0
 21
115.0
 31
0.0
  0
LINE
  5
95
100
AcDbEntity
  8
枠_
  6
CONTINUOUS
 62
     6
100
AcDbLine
 10
620.0
 20
335.0
 30
0.0
 11
620.0
 21
115.0
 31
0.0
  0
LINE
  5
96
100
AcDbEntity
  8
枠_
  6
CONTINUOUS
 62
     6
100
AcDbLine
 10
490.0
 20
335.0
 30
0.0
 11
490.0
 21
115.0
 31
0.0
  0
LINE
  5
97
100
AcDbEntity
  8
枠_
  6
CONTINUOUS
 62
     6
100
AcDbLine
 10
335.0
 20
335.0
 30
0.0
 11
335.0
 21
115.0
 31
0.0
  0
LINE
  5
98
100
AcDbEntity
  8
枠_
  6
CONTINUOUS
 62
     6
100
AcDbLine
 10
180.0
 20
285.0
 30
0.0
 11
750.0
 21
285.0
 31
0.0
  0
LINE
  5
99
100
AcDbEntity
  8
枠_
  6
CONTINUOUS
 62
     6
100
AcDbLine
 10
1892.653809
 20
238.00293
 30
0.0
 11
1969.993897
 21
316.699829
 31
0.0
  0
LINE
  5
9A
100
AcDbEntity
  8
枠_
  6
EXLTYPE2
 62
     6
100
AcDbLine
 10
180.0
 20
165.0
 30
0.0
 11
490.0
 21
165.0
 31
0.0
  0
CIRCLE
  5
9B
100
AcDbEntity
  8
枠_
  6
CONTINUOUS
 62
     6
100
AcDbCircle
 10
230.0
 20
140.0
 30
0.0
 40
1.0
  0
CIRCLE
  5
9C
100
AcDbEntity
  8
枠_
  6
CONTINUOUS
 62
     6
100
AcDbCircle
 10
280.0
 20
140.0
 30
0.0
 40
1.0
  0
CIRCLE
  5
9D
100
AcDbEntity
  8
枠_
  6
CONTINUOUS
 62
     6
100
AcDbCircle
 10
385.0
 20
140.0
 30
0.0
 40
1.0
  0
CIRCLE
  5
9E
100
AcDbEntity
  8
枠_
  6
CONTINUOUS
 62
     6
100
AcDbCircle
 10
435.0
 20
140.0
 30
0.0
 40
1.0
  0
LINE
  5
9F
100
AcDbEntity
  8
枠_
  6
EXLTYPE2
 62
     6
100
AcDbLine
 10
170.0
 20
1515.0
 30
0.0
 11
-20.0
 21
1515.0
 31
0.0
  0
TEXT
  5
A0
100
AcDbEntity
  8
枠_
  6
CONTINUOUS
 62
     2
100
AcDbText
 10
1890.537109
 20
282.722778
 30
0.0
 40
30.0
  1
１
 41
0.826
  7
EXCADSTD
 72
     5
 11
1914.13711
 21
282.722778
 31
0.0
100
AcDbText
  0
TEXT
  5
A1
100
AcDbEntity
  8
枠_
  6
CONTINUOUS
 62
     2
100
AcDbText
 10
1931.279297
 20
238.348846
 30
0.0
 40
30.0
  1
１０
 41
0.791
  7
EXCADSTD
 72
     5
 11
1983.067198
 21
238.348846
 31
0.0
100
AcDbText
  0
TEXT
  5
A2
100
AcDbEntity
  8
枠_
  6
CONTINUOUS
 62
     2
100
AcDbText
 10
202.5
 20
288.75
 30
0.0
 40
42.5
  1
製図
 41
1.087059
  7
EXCADSTD
 72
     5
 11
303.326
 21
288.75
 31
0.0
100
AcDbText
  0
TEXT
  5
A3
100
AcDbEntity
  8
枠_
  6
CONTINUOUS
 62
     2
100
AcDbText
 10
357.5
 20
288.75
 30
0.0
 40
42.5
  1
写図
 41
1.087059
  7
EXCADSTD
 72
     5
 11
458.326
 21
288.75
 31
0.0
100
AcDbText
  0
TEXT
  5
A4
100
AcDbEntity
  8
枠_
  6
CONTINUOUS
 62
     2
100
AcDbText
 10
507.5
 20
288.75
 30
0.0
 40
42.5
  1
検図
 41
0.938824
  7
EXCADSTD
 72
     5
 11
594.577
 21
288.75
 31
0.0
100
AcDbText
  0
TEXT
  5
A5
100
AcDbEntity
  8
枠_
  6
CONTINUOUS
 62
     2
100
AcDbText
 10
637.5
 20
288.75
 30
0.0
 40
42.5
  1
承認
 41
0.938824
  7
EXCADSTD
 72
     5
 11
724.577
 21
288.75
 31
0.0
100
AcDbText
  0
TEXT
  5
A6
100
AcDbEntity
  8
枠_
  6
CONTINUOUS
 62
     2
100
AcDbText
 10
753.75
 20
278.75
 30
0.0
 40
42.5
  1
品
 41
0.84
  7
EXCADSTD
 72
     5
 11
787.75
 21
278.75
 31
0.0
100
AcDbText
  0
TEXT
  5
A7
100
AcDbEntity
  8
枠_
  6
CONTINUOUS
 62
     2
100
AcDbText
 10
753.75
 20
228.75
 30
0.0
 40
42.5
  1
名
 41
0.84
  7
EXCADSTD
 72
     5
 11
787.75
 21
228.75
 31
0.0
100
AcDbText
  0
TEXT
  5
A8
100
AcDbEntity
  8
枠_
  6
CONTINUOUS
 62
     2
100
AcDbText
 10
1393.75
 20
278.75
 30
0.0
 40
42.5
  1
品
 41
0.84
  7
EXCADSTD
 72
     5
 11
1427.75
 21
278.75
 31
0.0
100
AcDbText
  0
TEXT
  5
A9
100
AcDbEntity
  8
枠_
  6
CONTINUOUS
 62
     2
100
AcDbText
 10
1393.75
 20
228.75
 30
0.0
 40
42.5
  1
番
 41
0.84
  7
EXCADSTD
 72
     5
 11
1427.75
 21
228.75
 31
0.0
100
AcDbText
  0
TEXT
  5
AA
100
AcDbEntity
  8
枠_
  6
CONTINUOUS
 62
     2
100
AcDbText
 10
1813.75
 20
278.75
 30
0.0
 40
42.5
  1
尺
 41
0.84
  7
EXCADSTD
 72
     5
 11
1847.75
 21
278.75
 31
0.0
100
AcDbText
  0
TEXT
  5
AB
100
AcDbEntity
  8
枠_
  6
CONTINUOUS
 62
     2
100
AcDbText
 10
1813.75
 20
228.75
 30
0.0
 40
42.5
  1
度
 41
0.84
  7
EXCADSTD
 72
     5
 11
1847.75
 21
228.75
 31
0.0
100
AcDbText
  0
TEXT
  5
AC
100
AcDbEntity
  8
枠_
  6
CONTINUOUS
 62
     2
100
AcDbText
 10
1393.75
 20
165.75
 30
0.0
 40
42.5
  1
図
 41
0.84
  7
EXCADSTD
 72
     5
 11
1427.75
 21
165.75
 31
0.0
100
AcDbText
  0
TEXT
  5
AD
100
AcDbEntity
  8
枠_
  6
CONTINUOUS
 62
     2
100
AcDbText
 10
1393.75
 20
122.75
 30
0.0
 40
42.5
  1
番
 41
0.84
  7
EXCADSTD
 72
     5
 11
1427.75
 21
122.75
 31
0.0
100
AcDbText
  0
LINE
  5
AE
100
AcDbEntity
  8
枠_
  6
CONTINUOUS
 62
     7
100
AcDbLine
 10
439.0
 20
610.969971
 30
0.0
 11
1104.0
 21
610.969971
 31
0.0
  0
TEXT
  5
AF
100
AcDbEntity
  8
枠_
  6
CONTINUOUS
 62
     2
100
AcDbText
 10
1459.0
 20
243.75
 30
0.0
 40
62.5
  1
Ｌ１３１＃
 41
0.821184
  7
EXCADSTD
 72
     5
 11
1764.5
 21
243.75
 31
0.0
100
AcDbText
  0
LINE
  5
B0
100
AcDbEntity
  8
枠_
  6
EXLTYPE3
 62
     6
100
AcDbLine
 10
622.763013
 20
1387.970703
 30
0.0
 11
598.663013
 21
1387.970703
 31
0.0
  0
LINE
  5
B1
100
AcDbEntity
  8
枠_
  6
EXLTYPE3
 62
     6
100
AcDbLine
 10
610.463013
 20
1400.5
 30
0.0
 11
610.463013
 21
1375.670703
 31
0.0
  0
LINE
  5
B2
100
AcDbEntity
  8
枠_
  6
EXLTYPE3
 62
     6
100
AcDbLine
 10
748.163013
 20
1387.970703
 30
0.0
 11
772.263013
 21
1387.970703
 31
0.0
  0
LINE
  5
B3
100
AcDbEntity
  8
枠_
  6
EXLTYPE3
 62
     6
100
AcDbLine
 10
760.463013
 20
1400.5
 30
0.0
 11
760.463013
 21
1375.670703
 31
0.0
  0
LINE
  5
B4
100
AcDbEntity
  8
枠_
  6
CONTINUOUS
 62
     6
100
AcDbLine
 10
812.462982
 20
1410.470703
 30
0.0
 11
812.462982
 21
1411.720703
 31
0.0
  0
LINE
  5
B5
100
AcDbEntity
  8
枠_
  6
CONTINUOUS
 62
     6
100
AcDbLine
 10
812.462982
 20
1410.470703
 30
0.0
 11
820.463013
 21
1372.970703
 31
0.0
  0
LINE
  5
B6
100
AcDbEntity
  8
枠_
  6
CONTINUOUS
 62
     6
100
AcDbLine
 10
805.213074
 20
1424.620636
 30
0.0
 11
805.213074
 21
1433.120697
 31
0.0
  0
LINE
  5
B7
100
AcDbEntity
  8
枠_
  6
CONTINUOUS
 62
     6
100
AcDbLine
 10
795.712952
 20
1424.620636
 30
0.0
 11
795.712952
 21
1433.120697
 31
0.0
  0
LINE
  5
B8
100
AcDbEntity
  8
枠_
  6
CONTINUOUS
 62
     6
100
AcDbLine
 10
806.463074
 20
1433.120697
 30
0.0
 11
805.954651
 21
1437.262085
 31
0.0
  0
ARC
  5
B9
100
AcDbEntity
  8
枠_
  6
CONTINUOUS
 62
     6
100
AcDbCircle
 10
800.463013
 20
1436.587799
 30
0.0
 40
5.532779
100
AcDbArc
 50
7.000167
 51
172.999832
  0
LINE
  5
BA
100
AcDbEntity
  8
枠_
  6
CONTINUOUS
 62
     6
100
AcDbLine
 10
794.462952
 20
1433.120697
 30
0.0
 11
794.971527
 21
1437.262085
 31
0.0
  0
LINE
  5
BB
100
AcDbEntity
  8
枠_
  6
CONTINUOUS
 62
     6
100
AcDbLine
 10
772.812561
 20
1433.120697
 30
0.0
 11
828.113617
 21
1433.120697
 31
0.0
  0
ARC
  5
BC
100
AcDbEntity
  8
枠_
  6
CONTINUOUS
 62
     6
100
AcDbCircle
 10
800.463013
 20
1431.536682
 30
0.0
 40
17.083826
100
AcDbArc
 50
65.811432
 51
114.188568
  0
ARC
  5
BD
100
AcDbEntity
  8
枠_
  6
CONTINUOUS
 62
     6
100
AcDbCircle
 10
821.59964
 20
1436.939514
 30
0.0
 40
6.0
100
AcDbArc
 50
6.99977
 51
81.190689
  0
LINE
  5
BE
100
AcDbEntity
  8
枠_
  6
CONTINUOUS
 62
     6
100
AcDbLine
 10
828.113617
 20
1433.120697
 30
0.0
 11
827.554993
 21
1437.670715
 31
0.0
  0
ARC
  5
BF
100
AcDbEntity
  8
枠_
  6
CONTINUOUS
 62
     6
100
AcDbCircle
 10
791.892151
 20
1245.227631
 30
0.0
 40
200.0
100
AcDbArc
 50
81.191528
 51
85.534775
  0
ARC
  5
C0
100
AcDbEntity
  8
枠_
  6
CONTINUOUS
 62
     6
100
AcDbCircle
 10
779.326538
 20
1436.939667
 30
0.0
 40
6.0
100
AcDbArc
 50
98.807861
 51
173.000229
  0
ARC
  5
C1
100
AcDbEntity
  8
枠_
  6
CONTINUOUS
 62
     6
100
AcDbCircle
 10
809.03418
 20
1245.227783
 30
0.0
 40
200.0
100
AcDbArc
 50
94.465317
 51
98.808472
  0
LINE
  5
C2
100
AcDbEntity
  8
枠_
  6
CONTINUOUS
 62
     6
100
AcDbLine
 10
772.812561
 20
1433.120697
 30
0.0
 11
773.371185
 21
1437.670868
 31
0.0
  0
LINE
  5
C3
100
AcDbEntity
  8
枠_
  6
CONTINUOUS
 62
     6
100
AcDbLine
 10
793.463043
 20
1444.620636
 30
0.0
 11
807.462982
 21
1444.620636
 31
0.0
  0
LINE
  5
C4
100
AcDbEntity
  8
枠_
  6
CONTINUOUS
 62
     6
100
AcDbLine
 10
793.463043
 20
1447.120636
 30
0.0
 11
807.462982
 21
1447.120636
 31
0.0
  0
LINE
  5
C5
100
AcDbEntity
  8
枠_
  6
CONTINUOUS
 62
     6
100
AcDbLine
 10
807.462982
 20
1447.120636
 30
0.0
 11
807.462982
 21
1444.620636
 31
0.0
  0
LINE
  5
C6
100
AcDbEntity
  8
枠_
  6
CONTINUOUS
 62
     6
100
AcDbLine
 10
793.463043
 20
1447.120636
 30
0.0
 11
793.463043
 21
1444.620636
 31
0.0
  0
ARC
  5
C7
100
AcDbEntity
  8
枠_
  6
CONTINUOUS
 62
     6
100
AcDbCircle
 10
791.712936
 20
1415.495728
 30
0.0
 40
5.500047
100
AcDbArc
 50
122.777451
 51
140.599655
  0
LINE
  5
C8
100
AcDbEntity
  8
枠_
  6
CONTINUOUS
 62
     6
100
AcDbLine
 10
795.162796
 20
1424.620636
 30
0.0
 11
788.735336
 21
1420.120056
 31
0.0
  0
LINE
  5
C9
100
AcDbEntity
  8
枠_
  6
CONTINUOUS
 62
     6
100
AcDbLine
 10
795.162796
 20
1424.620636
 30
0.0
 11
805.762924
 21
1424.620636
 31
0.0
  0
LINE
  5
CA
100
AcDbEntity
  8
枠_
  6
CONTINUOUS
 62
     6
100
AcDbLine
 10
812.189621
 20
1420.120667
 30
0.0
 11
805.762924
 21
1424.620636
 31
0.0
  0
ARC
  5
CB
100
AcDbEntity
  8
枠_
  6
CONTINUOUS
 62
     6
100
AcDbCircle
 10
809.212936
 20
1415.495728
 30
0.0
 40
5.500022
100
AcDbArc
 50
39.400345
 51
57.234024
  0
LINE
  5
CC
100
AcDbEntity
  8
枠_
  6
CONTINUOUS
 62
     6
100
AcDbLine
 10
812.189621
 20
1420.120667
 30
0.0
 11
788.736252
 21
1420.120667
 31
0.0
  0
POLYLINE
  5
CD
100
AcDbEntity
  8
枠_
  6
CONTINUOUS
 62
     6
100
AcDb2dPolyline
 66
     1
 10
0.0
 20
0.0
 30
0.0
 70
   128
  0
VERTEX
  5
CE
100
AcDbEntity
  8
枠_
  6
CONTINUOUS
 62
     6
100
AcDbVertex
100
AcDb2dVertex
 10
801.908554
 20
1415.49588
 30
0.0
  0
VERTEX
  5
CF
100
AcDbEntity
  8
枠_
  6
CONTINUOUS
 62
     6
100
AcDbVertex
100
AcDb2dVertex
 10
801.92778
 20
1415.80014
 30
0.0
  0
VERTEX
  5
D0
100
AcDbEntity
  8
枠_
  6
CONTINUOUS
 62
     6
100
AcDbVertex
100
AcDb2dVertex
 10
801.985458
 20
1416.102112
 30
0.0
  0
VERTEX
  5
D1
100
AcDbEntity
  8
枠_
  6
CONTINUOUS
 62
     6
100
AcDbVertex
100
AcDb2dVertex
 10
802.080826
 20
1416.399353
 30
0.0
  0
VERTEX
  5
D2
100
AcDbEntity
  8
枠_
  6
CONTINUOUS
 62
     6
100
AcDbVertex
100
AcDb2dVertex
 10
802.213425
 20
1416.689728
 30
0.0
  0
VERTEX
  5
D3
100
AcDbEntity
  8
枠_
  6
CONTINUOUS
 62
     6
100
AcDbVertex
100
AcDb2dVertex
 10
802.382187
 20
1416.971252
 30
0.0
  0
VERTEX
  5
D4
100
AcDbEntity
  8
枠_
  6
CONTINUOUS
 62
     6
100
AcDbVertex
100
AcDb2dVertex
 10
802.585739
 20
1417.241333
 30
0.0
  0
VERTEX
  5
D5
100
AcDbEntity
  8
枠_
  6
CONTINUOUS
 62
     6
100
AcDbVertex
100
AcDb2dVertex
 10
802.822708
 20
1417.498138
 30
0.0
  0
VERTEX
  5
D6
100
AcDbEntity
  8
枠_
  6
CONTINUOUS
 62
     6
100
AcDbVertex
100
AcDb2dVertex
 10
803.09111
 20
1417.739838
 30
0.0
  0
VERTEX
  5
D7
100
AcDbEntity
  8
枠_
  6
CONTINUOUS
 62
     6
100
AcDbVertex
100
AcDb2dVertex
 10
803.388962
 20
1417.964294
 30
0.0
  0
VERTEX
  5
D8
100
AcDbEntity
  8
枠_
  6
CONTINUOUS
 62
     6
100
AcDbVertex
100
AcDb2dVertex
 10
803.714127
 20
1418.169983
 30
0.0
  0
VERTEX
  5
D9
100
AcDbEntity
  8
枠_
  6
CONTINUOUS
 62
     6
100
AcDbVertex
100
AcDb2dVertex
 10
804.063858
 20
1418.355377
 30
0.0
  0
VERTEX
  5
DA
100
AcDbEntity
  8
枠_
  6
CONTINUOUS
 62
     6
100
AcDbVertex
100
AcDb2dVertex
 10
804.435867
 20
1418.518951
 30
0.0
  0
VERTEX
  5
DB
100
AcDbEntity
  8
枠_
  6
CONTINUOUS
 62
     6
100
AcDbVertex
100
AcDb2dVertex
 10
804.82695
 20
1418.659485
 30
0.0
  0
VERTEX
  5
DC
100
AcDbEntity
  8
枠_
  6
CONTINUOUS
 62
     6
100
AcDbVertex
100
AcDb2dVertex
 10
805.23436
 20
1418.776062
 30
0.0
  0
VERTEX
  5
DD
100
AcDbEntity
  8
枠_
  6
CONTINUOUS
 62
     6
100
AcDbVertex
100
AcDb2dVertex
 10
805.654739
 20
1418.86792
 30
0.0
  0
VERTEX
  5
DE
100
AcDbEntity
  8
枠_
  6
CONTINUOUS
 62
     6
100
AcDbVertex
100
AcDb2dVertex
 10
806.08519
 20
1418.933838
 30
0.0
  0
VERTEX
  5
DF
100
AcDbEntity
  8
枠_
  6
CONTINUOUS
 62
     6
100
AcDbVertex
100
AcDb2dVertex
 10
806.522354
 20
1418.973663
 30
0.0
  0
VERTEX
  5
E0
100
AcDbEntity
  8
枠_
  6
CONTINUOUS
 62
     6
100
AcDbVertex
100
AcDb2dVertex
 10
806.962875
 20
1418.986939
 30
0.0
  0
VERTEX
  5
E1
100
AcDbEntity
  8
枠_
  6
CONTINUOUS
 62
     6
100
AcDbVertex
100
AcDb2dVertex
 10
807.403397
 20
1418.973663
 30
0.0
  0
VERTEX
  5
E2
100
AcDbEntity
  8
枠_
  6
CONTINUOUS
 62
     6
100
AcDbVertex
100
AcDb2dVertex
 10
807.840561
 20
1418.933838
 30
0.0
  0
VERTEX
  5
E3
100
AcDbEntity
  8
枠_
  6
CONTINUOUS
 62
     6
100
AcDbVertex
100
AcDb2dVertex
 10
808.271011
 20
1418.86792
 30
0.0
  0
VERTEX
  5
E4
100
AcDbEntity
  8
枠_
  6
CONTINUOUS
 62
     6
100
AcDbVertex
100
AcDb2dVertex
 10
808.691544
 20
1418.776367
 30
0.0
  0
VERTEX
  5
E5
100
AcDbEntity
  8
枠_
  6
CONTINUOUS
 62
     6
100
AcDbVertex
100
AcDb2dVertex
 10
809.098953
 20
1418.65979
 30
0.0
  0
VERTEX
  5
E6
100
AcDbEntity
  8
枠_
  6
CONTINUOUS
 62
     6
100
AcDbVertex
100
AcDb2dVertex
 10
809.490189
 20
1418.518951
 30
0.0
  0
VERTEX
  5
E7
100
AcDbEntity
  8
枠_
  6
CONTINUOUS
 62
     6
100
AcDbVertex
100
AcDb2dVertex
 10
809.862045
 20
1418.355225
 30
0.0
  0
VERTEX
  5
E8
100
AcDbEntity
  8
枠_
  6
CONTINUOUS
 62
     6
100
AcDbVertex
100
AcDb2dVertex
 10
810.211929
 20
1418.16983
 30
0.0
  0
VERTEX
  5
E9
100
AcDbEntity
  8
枠_
  6
CONTINUOUS
 62
     6
100
AcDbVertex
100
AcDb2dVertex
 10
810.537094
 20
1417.964294
 30
0.0
  0
VERTEX
  5
EA
100
AcDbEntity
  8
枠_
  6
CONTINUOUS
 62
     6
100
AcDbVertex
100
AcDb2dVertex
 10
810.834946
 20
1417.739685
 30
0.0
  0
VERTEX
  5
EB
100
AcDbEntity
  8
枠_
  6
CONTINUOUS
 62
     6
100
AcDbVertex
100
AcDb2dVertex
 10
811.103348
 20
1417.498138
 30
0.0
  0
VERTEX
  5
EC
100
AcDbEntity
  8
枠_
  6
CONTINUOUS
 62
     6
100
AcDbVertex
100
AcDb2dVertex
 10
811.340317
 20
1417.241333
 30
0.0
  0
VERTEX
  5
ED
100
AcDbEntity
  8
枠_
  6
CONTINUOUS
 62
     6
100
AcDbVertex
100
AcDb2dVertex
 10
811.543869
 20
1416.971252
 30
0.0
  0
VERTEX
  5
EE
100
AcDbEntity
  8
枠_
  6
CONTINUOUS
 62
     6
100
AcDbVertex
100
AcDb2dVertex
 10
811.712631
 20
1416.68988
 30
0.0
  0
VERTEX
  5
EF
100
AcDbEntity
  8
枠_
  6
CONTINUOUS
 62
     6
100
AcDbVertex
100
AcDb2dVertex
 10
811.84523
 20
1416.399353
 30
0.0
  0
VERTEX
  5
F0
100
AcDbEntity
  8
枠_
  6
CONTINUOUS
 62
     6
100
AcDbVertex
100
AcDb2dVertex
 10
811.940598
 20
1416.101959
 30
0.0
  0
VERTEX
  5
F1
100
AcDbEntity
  8
枠_
  6
CONTINUOUS
 62
     6
100
AcDbVertex
100
AcDb2dVertex
 10
811.998276
 20
1415.80014
 30
0.0
  0
VERTEX
  5
F2
100
AcDbEntity
  8
枠_
  6
CONTINUOUS
 62
     6
100
AcDbVertex
100
AcDb2dVertex
 10
812.017349
 20
1415.49588
 30
0.0
  0
VERTEX
  5
F3
100
AcDbEntity
  8
枠_
  6
CONTINUOUS
 62
     6
100
AcDbVertex
100
AcDb2dVertex
 10
811.998123
 20
1415.19162
 30
0.0
  0
VERTEX
  5
F4
100
AcDbEntity
  8
枠_
  6
CONTINUOUS
 62
     6
100
AcDbVertex
100
AcDb2dVertex
 10
811.940445
 20
1414.889648
 30
0.0
  0
VERTEX
  5
F5
100
AcDbEntity
  8
枠_
  6
CONTINUOUS
 62
     6
100
AcDbVertex
100
AcDb2dVertex
 10
811.84523
 20
1414.592102
 30
0.0
  0
VERTEX
  5
F6
100
AcDbEntity
  8
枠_
  6
CONTINUOUS
 62
     6
100
AcDbVertex
100
AcDb2dVertex
 10
811.712631
 20
1414.301727
 30
0.0
  0
VERTEX
  5
F7
100
AcDbEntity
  8
枠_
  6
CONTINUOUS
 62
     6
100
AcDbVertex
100
AcDb2dVertex
 10
811.543869
 20
1414.020203
 30
0.0
  0
VERTEX
  5
F8
100
AcDbEntity
  8
枠_
  6
CONTINUOUS
 62
     6
100
AcDbVertex
100
AcDb2dVertex
 10
811.340317
 20
1413.750275
 30
0.0
  0
VERTEX
  5
F9
100
AcDbEntity
  8
枠_
  6
CONTINUOUS
 62
     6
100
AcDbVertex
100
AcDb2dVertex
 10
811.103348
 20
1413.493469
 30
0.0
  0
VERTEX
  5
FA
100
AcDbEntity
  8
枠_
  6
CONTINUOUS
 62
     6
100
AcDbVertex
100
AcDb2dVertex
 10
810.834946
 20
1413.25177
 30
0.0
  0
VERTEX
  5
FB
100
AcDbEntity
  8
枠_
  6
CONTINUOUS
 62
     6
100
AcDbVertex
100
AcDb2dVertex
 10
810.537094
 20
1413.027161
 30
0.0
  0
VERTEX
  5
FC
100
AcDbEntity
  8
枠_
  6
CONTINUOUS
 62
     6
100
AcDbVertex
100
AcDb2dVertex
 10
810.211929
 20
1412.821472
 30
0.0
  0
VERTEX
  5
FD
100
AcDbEntity
  8
枠_
  6
CONTINUOUS
 62
     6
100
AcDbVertex
100
AcDb2dVertex
 10
809.862198
 20
1412.636078
 30
0.0
  0
VERTEX
  5
FE
100
AcDbEntity
  8
枠_
  6
CONTINUOUS
 62
     6
100
AcDbVertex
100
AcDb2dVertex
 10
809.490189
 20
1412.472504
 30
0.0
  0
VERTEX
  5
FF
100
AcDbEntity
  8
枠_
  6
CONTINUOUS
 62
     6
100
AcDbVertex
100
AcDb2dVertex
 10
809.099106
 20
1412.33197
 30
0.0
  0
VERTEX
  5
100
100
AcDbEntity
  8
枠_
  6
CONTINUOUS
 62
     6
100
AcDbVertex
100
AcDb2dVertex
 10
808.691696
 20
1412.215393
 30
0.0
  0
VERTEX
  5
101
100
AcDbEntity
  8
枠_
  6
CONTINUOUS
 62
     6
100
AcDbVertex
100
AcDb2dVertex
 10
808.271011
 20
1412.123688
 30
0.0
  0
VERTEX
  5
102
100
AcDbEntity
  8
枠_
  6
CONTINUOUS
 62
     6
100
AcDbVertex
100
AcDb2dVertex
 10
807.840561
 20
1412.05777
 30
0.0
  0
VERTEX
  5
103
100
AcDbEntity
  8
枠_
  6
CONTINUOUS
 62
     6
100
AcDbVertex
100
AcDb2dVertex
 10
807.403244
 20
1412.017944
 30
0.0
  0
VERTEX
  5
104
100
AcDbEntity
  8
枠_
  6
CONTINUOUS
 62
     6
100
AcDbVertex
100
AcDb2dVertex
 10
806.962875
 20
1412.004822
 30
0.0
  0
VERTEX
  5
105
100
AcDbEntity
  8
枠_
  6
CONTINUOUS
 62
     6
100
AcDbVertex
100
AcDb2dVertex
 10
806.522354
 20
1412.018097
 30
0.0
  0
VERTEX
  5
106
100
AcDbEntity
  8
枠_
  6
CONTINUOUS
 62
     6
100
AcDbVertex
100
AcDb2dVertex
 10
806.08519
 20
1412.057922
 30
0.0
  0
VERTEX
  5
107
100
AcDbEntity
  8
枠_
  6
CONTINUOUS
 62
     6
100
AcDbVertex
100
AcDb2dVertex
 10
805.654739
 20
1412.123688
 30
0.0
  0
VERTEX
  5
108
100
AcDbEntity
  8
枠_
  6
CONTINUOUS
 62
     6
100
AcDbVertex
100
AcDb2dVertex
 10
805.234207
 20
1412.21524
 30
0.0
  0
VERTEX
  5
109
100
AcDbEntity
  8
枠_
  6
CONTINUOUS
 62
     6
100
AcDbVertex
100
AcDb2dVertex
 10
804.826798
 20
1412.331818
 30
0.0
  0
SEQEND
  5
10A
100
AcDbEntity
  8
枠_
  6
CONTINUOUS
 62
     6
  0
POLYLINE
  5
10B
100
AcDbEntity
  8
枠_
  6
CONTINUOUS
 62
     6
100
AcDb2dPolyline
 66
     1
 10
0.0
 20
0.0
 30
0.0
 70
   128
  0
VERTEX
  5
10C
100
AcDbEntity
  8
枠_
  6
CONTINUOUS
 62
     6
100
AcDbVertex
100
AcDb2dVertex
 10
804.826798
 20
1412.331818
 30
0.0
  0
VERTEX
  5
10D
100
AcDbEntity
  8
枠_
  6
CONTINUOUS
 62
     6
100
AcDbVertex
100
AcDb2dVertex
 10
804.435867
 20
1412.472504
 30
0.0
  0
VERTEX
  5
10E
100
AcDbEntity
  8
枠_
  6
CONTINUOUS
 62
     6
100
AcDbVertex
100
AcDb2dVertex
 10
804.064011
 20
1412.636231
 30
0.0
  0
VERTEX
  5
10F
100
AcDbEntity
  8
枠_
  6
CONTINUOUS
 62
     6
100
AcDbVertex
100
AcDb2dVertex
 10
803.714127
 20
1412.821625
 30
0.0
  0
VERTEX
  5
110
100
AcDbEntity
  8
枠_
  6
CONTINUOUS
 62
     6
100
AcDbVertex
100
AcDb2dVertex
 10
803.388962
 20
1413.027161
 30
0.0
  0
VERTEX
  5
111
100
AcDbEntity
  8
枠_
  6
CONTINUOUS
 62
     6
100
AcDbVertex
100
AcDb2dVertex
 10
803.09111
 20
1413.25177
 30
0.0
  0
VERTEX
  5
112
100
AcDbEntity
  8
枠_
  6
CONTINUOUS
 62
     6
100
AcDbVertex
100
AcDb2dVertex
 10
802.822708
 20
1413.493317
 30
0.0
  0
VERTEX
  5
113
100
AcDbEntity
  8
枠_
  6
CONTINUOUS
 62
     6
100
AcDbVertex
100
AcDb2dVertex
 10
802.585739
 20
1413.750275
 30
0.0
  0
VERTEX
  5
114
100
AcDbEntity
  8
枠_
  6
CONTINUOUS
 62
     6
100
AcDbVertex
100
AcDb2dVertex
 10
802.382187
 20
1414.020355
 30
0.0
  0
VERTEX
  5
115
100
AcDbEntity
  8
枠_
  6
CONTINUOUS
 62
     6
100
AcDbVertex
100
AcDb2dVertex
 10
802.213425
 20
1414.301727
 30
0.0
  0
VERTEX
  5
116
100
AcDbEntity
  8
枠_
  6
CONTINUOUS
 62
     6
100
AcDbVertex
100
AcDb2dVertex
 10
802.080826
 20
1414.592102
 30
0.0
  0
SEQEND
  5
117
100
AcDbEntity
  8
枠_
  6
CONTINUOUS
 62
     6
  0
POLYLINE
  5
118
100
AcDbEntity
  8
枠_
  6
CONTINUOUS
 62
     6
100
AcDb2dPolyline
 66
     1
 10
0.0
 20
0.0
 30
0.0
 70
   128
  0
VERTEX
  5
119
100
AcDbEntity
  8
枠_
  6
CONTINUOUS
 62
     6
100
AcDbVertex
100
AcDb2dVertex
 10
802.080826
 20
1414.592102
 30
0.0
  0
VERTEX
  5
11A
100
AcDbEntity
  8
枠_
  6
CONTINUOUS
 62
     6
100
AcDbVertex
100
AcDb2dVertex
 10
801.985458
 20
1414.889496
 30
0.0
  0
VERTEX
  5
11B
100
AcDbEntity
  8
枠_
  6
CONTINUOUS
 62
     6
100
AcDbVertex
100
AcDb2dVertex
 10
801.927933
 20
1415.191315
 30
0.0
  0
VERTEX
  5
11C
100
AcDbEntity
  8
枠_
  6
CONTINUOUS
 62
     6
100
AcDbVertex
100
AcDb2dVertex
 10
801.908707
 20
1415.495575
 30
0.0
  0
SEQEND
  5
11D
100
AcDbEntity
  8
枠_
  6
CONTINUOUS
 62
     6
  0
LINE
  5
11E
100
AcDbEntity
  8
枠_
  6
CONTINUOUS
 62
     6
100
AcDbLine
 10
813.462967
 20
1418.986786
 30
0.0
 11
813.462967
 21
1412.004669
 31
0.0
  0
ARC
  5
11F
100
AcDbEntity
  8
枠_
  6
CONTINUOUS
 62
     6
100
AcDbCircle
 10
809.212936
 20
1415.495728
 30
0.0
 40
5.500029
100
AcDbArc
 50
316.656998
 51
320.599655
  0
POLYLINE
  5
120
100
AcDbEntity
  8
枠_
  6
CONTINUOUS
 62
     6
100
AcDb2dPolyline
 66
     1
 10
0.0
 20
0.0
 30
0.0
 70
   128
  0
VERTEX
  5
121
100
AcDbEntity
  8
枠_
  6
CONTINUOUS
 62
     6
100
AcDbVertex
100
AcDb2dVertex
 10
799.017319
 20
1415.49588
 30
0.0
  0
VERTEX
  5
122
100
AcDbEntity
  8
枠_
  6
CONTINUOUS
 62
     6
100
AcDbVertex
100
AcDb2dVertex
 10
798.998093
 20
1415.80014
 30
0.0
  0
VERTEX
  5
123
100
AcDbEntity
  8
枠_
  6
CONTINUOUS
 62
     6
100
AcDbVertex
100
AcDb2dVertex
 10
798.940414
 20
1416.102112
 30
0.0
  0
VERTEX
  5
124
100
AcDbEntity
  8
枠_
  6
CONTINUOUS
 62
     6
100
AcDbVertex
100
AcDb2dVertex
 10
798.845047
 20
1416.399353
 30
0.0
  0
VERTEX
  5
125
100
AcDbEntity
  8
枠_
  6
CONTINUOUS
 62
     6
100
AcDbVertex
100
AcDb2dVertex
 10
798.712448
 20
1416.689728
 30
0.0
  0
VERTEX
  5
126
100
AcDbEntity
  8
枠_
  6
CONTINUOUS
 62
     6
100
AcDbVertex
100
AcDb2dVertex
 10
798.543686
 20
1416.971252
 30
0.0
  0
VERTEX
  5
127
100
AcDbEntity
  8
枠_
  6
CONTINUOUS
 62
     6
100
AcDbVertex
100
AcDb2dVertex
 10
798.340134
 20
1417.241333
 30
0.0
  0
VERTEX
  5
128
100
AcDbEntity
  8
枠_
  6
CONTINUOUS
 62
     6
100
AcDbVertex
100
AcDb2dVertex
 10
798.103165
 20
1417.498138
 30
0.0
  0
VERTEX
  5
129
100
AcDbEntity
  8
枠_
  6
CONTINUOUS
 62
     6
100
AcDbVertex
100
AcDb2dVertex
 10
797.834763
 20
1417.739838
 30
0.0
  0
VERTEX
  5
12A
100
AcDbEntity
  8
枠_
  6
CONTINUOUS
 62
     6
100
AcDbVertex
100
AcDb2dVertex
 10
797.536911
 20
1417.964294
 30
0.0
  0
VERTEX
  5
12B
100
AcDbEntity
  8
枠_
  6
CONTINUOUS
 62
     6
100
AcDbVertex
100
AcDb2dVertex
 10
797.211746
 20
1418.169983
 30
0.0
  0
VERTEX
  5
12C
100
AcDbEntity
  8
枠_
  6
CONTINUOUS
 62
     6
100
AcDbVertex
100
AcDb2dVertex
 10
796.862015
 20
1418.355377
 30
0.0
  0
VERTEX
  5
12D
100
AcDbEntity
  8
枠_
  6
CONTINUOUS
 62
     6
100
AcDbVertex
100
AcDb2dVertex
 10
796.490005
 20
1418.518951
 30
0.0
  0
VERTEX
  5
12E
100
AcDbEntity
  8
枠_
  6
CONTINUOUS
 62
     6
100
AcDbVertex
100
AcDb2dVertex
 10
796.098923
 20
1418.659485
 30
0.0
  0
VERTEX
  5
12F
100
AcDbEntity
  8
枠_
  6
CONTINUOUS
 62
     6
100
AcDbVertex
100
AcDb2dVertex
 10
795.691513
 20
1418.776062
 30
0.0
  0
VERTEX
  5
130
100
AcDbEntity
  8
枠_
  6
CONTINUOUS
 62
     6
100
AcDbVertex
100
AcDb2dVertex
 10
795.271133
 20
1418.86792
 30
0.0
  0
VERTEX
  5
131
100
AcDbEntity
  8
枠_
  6
CONTINUOUS
 62
     6
100
AcDbVertex
100
AcDb2dVertex
 10
794.840683
 20
1418.933838
 30
0.0
  0
VERTEX
  5
132
100
AcDbEntity
  8
枠_
  6
CONTINUOUS
 62
     6
100
AcDbVertex
100
AcDb2dVertex
 10
794.403519
 20
1418.973663
 30
0.0
  0
VERTEX
  5
133
100
AcDbEntity
  8
枠_
  6
CONTINUOUS
 62
     6
100
AcDbVertex
100
AcDb2dVertex
 10
793.962997
 20
1418.986939
 30
0.0
  0
VERTEX
  5
134
100
AcDbEntity
  8
枠_
  6
CONTINUOUS
 62
     6
100
AcDbVertex
100
AcDb2dVertex
 10
793.522476
 20
1418.973663
 30
0.0
  0
VERTEX
  5
135
100
AcDbEntity
  8
枠_
  6
CONTINUOUS
 62
     6
100
AcDbVertex
100
AcDb2dVertex
 10
793.085312
 20
1418.933838
 30
0.0
  0
VERTEX
  5
136
100
AcDbEntity
  8
枠_
  6
CONTINUOUS
 62
     6
100
AcDbVertex
100
AcDb2dVertex
 10
792.654862
 20
1418.86792
 30
0.0
  0
VERTEX
  5
137
100
AcDbEntity
  8
枠_
  6
CONTINUOUS
 62
     6
100
AcDbVertex
100
AcDb2dVertex
 10
792.234329
 20
1418.776367
 30
0.0
  0
VERTEX
  5
138
100
AcDbEntity
  8
枠_
  6
CONTINUOUS
 62
     6
100
AcDbVertex
100
AcDb2dVertex
 10
791.82692
 20
1418.65979
 30
0.0
  0
VERTEX
  5
139
100
AcDbEntity
  8
枠_
  6
CONTINUOUS
 62
     6
100
AcDbVertex
100
AcDb2dVertex
 10
791.435684
 20
1418.518951
 30
0.0
  0
VERTEX
  5
13A
100
AcDbEntity
  8
枠_
  6
CONTINUOUS
 62
     6
100
AcDbVertex
100
AcDb2dVertex
 10
791.063827
 20
1418.355225
 30
0.0
  0
VERTEX
  5
13B
100
AcDbEntity
  8
枠_
  6
CONTINUOUS
 62
     6
100
AcDbVertex
100
AcDb2dVertex
 10
790.713944
 20
1418.16983
 30
0.0
  0
VERTEX
  5
13C
100
AcDbEntity
  8
枠_
  6
CONTINUOUS
 62
     6
100
AcDbVertex
100
AcDb2dVertex
 10
790.388779
 20
1417.964294
 30
0.0
  0
VERTEX
  5
13D
100
AcDbEntity
  8
枠_
  6
CONTINUOUS
 62
     6
100
AcDbVertex
100
AcDb2dVertex
 10
790.090927
 20
1417.739685
 30
0.0
  0
VERTEX
  5
13E
100
AcDbEntity
  8
枠_
  6
CONTINUOUS
 62
     6
100
AcDbVertex
100
AcDb2dVertex
 10
789.822525
 20
1417.498138
 30
0.0
  0
VERTEX
  5
13F
100
AcDbEntity
  8
枠_
  6
CONTINUOUS
 62
     6
100
AcDbVertex
100
AcDb2dVertex
 10
789.585556
 20
1417.241333
 30
0.0
  0
VERTEX
  5
140
100
AcDbEntity
  8
枠_
  6
CONTINUOUS
 62
     6
100
AcDbVertex
100
AcDb2dVertex
 10
789.382004
 20
1416.971252
 30
0.0
  0
VERTEX
  5
141
100
AcDbEntity
  8
枠_
  6
CONTINUOUS
 62
     6
100
AcDbVertex
100
AcDb2dVertex
 10
789.213242
 20
1416.68988
 30
0.0
  0
VERTEX
  5
142
100
AcDbEntity
  8
枠_
  6
CONTINUOUS
 62
     6
100
AcDbVertex
100
AcDb2dVertex
 10
789.080643
 20
1416.399353
 30
0.0
  0
VERTEX
  5
143
100
AcDbEntity
  8
枠_
  6
CONTINUOUS
 62
     6
100
AcDbVertex
100
AcDb2dVertex
 10
788.985275
 20
1416.101959
 30
0.0
  0
VERTEX
  5
144
100
AcDbEntity
  8
枠_
  6
CONTINUOUS
 62
     6
100
AcDbVertex
100
AcDb2dVertex
 10
788.927597
 20
1415.80014
 30
0.0
  0
VERTEX
  5
145
100
AcDbEntity
  8
枠_
  6
CONTINUOUS
 62
     6
100
AcDbVertex
100
AcDb2dVertex
 10
788.908524
 20
1415.49588
 30
0.0
  0
VERTEX
  5
146
100
AcDbEntity
  8
枠_
  6
CONTINUOUS
 62
     6
100
AcDbVertex
100
AcDb2dVertex
 10
788.92775
 20
1415.19162
 30
0.0
  0
VERTEX
  5
147
100
AcDbEntity
  8
枠_
  6
CONTINUOUS
 62
     6
100
AcDbVertex
100
AcDb2dVertex
 10
788.985428
 20
1414.889648
 30
0.0
  0
VERTEX
  5
148
100
AcDbEntity
  8
枠_
  6
CONTINUOUS
 62
     6
100
AcDbVertex
100
AcDb2dVertex
 10
789.080643
 20
1414.592102
 30
0.0
  0
VERTEX
  5
149
100
AcDbEntity
  8
枠_
  6
CONTINUOUS
 62
     6
100
AcDbVertex
100
AcDb2dVertex
 10
789.213242
 20
1414.301727
 30
0.0
  0
VERTEX
  5
14A
100
AcDbEntity
  8
枠_
  6
CONTINUOUS
 62
     6
100
AcDbVertex
100
AcDb2dVertex
 10
789.382004
 20
1414.020203
 30
0.0
  0
VERTEX
  5
14B
100
AcDbEntity
  8
枠_
  6
CONTINUOUS
 62
     6
100
AcDbVertex
100
AcDb2dVertex
 10
789.585556
 20
1413.750275
 30
0.0
  0
VERTEX
  5
14C
100
AcDbEntity
  8
枠_
  6
CONTINUOUS
 62
     6
100
AcDbVertex
100
AcDb2dVertex
 10
789.822525
 20
1413.493469
 30
0.0
  0
VERTEX
  5
14D
100
AcDbEntity
  8
枠_
  6
CONTINUOUS
 62
     6
100
AcDbVertex
100
AcDb2dVertex
 10
790.090927
 20
1413.25177
 30
0.0
  0
VERTEX
  5
14E
100
AcDbEntity
  8
枠_
  6
CONTINUOUS
 62
     6
100
AcDbVertex
100
AcDb2dVertex
 10
790.388779
 20
1413.027161
 30
0.0
  0
VERTEX
  5
14F
100
AcDbEntity
  8
枠_
  6
CONTINUOUS
 62
     6
100
AcDbVertex
100
AcDb2dVertex
 10
790.713944
 20
1412.821472
 30
0.0
  0
VERTEX
  5
150
100
AcDbEntity
  8
枠_
  6
CONTINUOUS
 62
     6
100
AcDbVertex
100
AcDb2dVertex
 10
791.063675
 20
1412.636078
 30
0.0
  0
VERTEX
  5
151
100
AcDbEntity
  8
枠_
  6
CONTINUOUS
 62
     6
100
AcDbVertex
100
AcDb2dVertex
 10
791.435684
 20
1412.472504
 30
0.0
  0
VERTEX
  5
152
100
AcDbEntity
  8
枠_
  6
CONTINUOUS
 62
     6
100
AcDbVertex
100
AcDb2dVertex
 10
791.826767
 20
1412.33197
 30
0.0
  0
VERTEX
  5
153
100
AcDbEntity
  8
枠_
  6
CONTINUOUS
 62
     6
100
AcDbVertex
100
AcDb2dVertex
 10
792.234177
 20
1412.215393
 30
0.0
  0
VERTEX
  5
154
100
AcDbEntity
  8
枠_
  6
CONTINUOUS
 62
     6
100
AcDbVertex
100
AcDb2dVertex
 10
792.654862
 20
1412.123688
 30
0.0
  0
VERTEX
  5
155
100
AcDbEntity
  8
枠_
  6
CONTINUOUS
 62
     6
100
AcDbVertex
100
AcDb2dVertex
 10
793.085312
 20
1412.05777
 30
0.0
  0
VERTEX
  5
156
100
AcDbEntity
  8
枠_
  6
CONTINUOUS
 62
     6
100
AcDbVertex
100
AcDb2dVertex
 10
793.522629
 20
1412.017944
 30
0.0
  0
VERTEX
  5
157
100
AcDbEntity
  8
枠_
  6
CONTINUOUS
 62
     6
100
AcDbVertex
100
AcDb2dVertex
 10
793.962997
 20
1412.004822
 30
0.0
  0
VERTEX
  5
158
100
AcDbEntity
  8
枠_
  6
CONTINUOUS
 62
     6
100
AcDbVertex
100
AcDb2dVertex
 10
794.403519
 20
1412.018097
 30
0.0
  0
VERTEX
  5
159
100
AcDbEntity
  8
枠_
  6
CONTINUOUS
 62
     6
100
AcDbVertex
100
AcDb2dVertex
 10
794.840683
 20
1412.057922
 30
0.0
  0
VERTEX
  5
15A
100
AcDbEntity
  8
枠_
  6
CONTINUOUS
 62
     6
100
AcDbVertex
100
AcDb2dVertex
 10
795.271133
 20
1412.123688
 30
0.0
  0
VERTEX
  5
15B
100
AcDbEntity
  8
枠_
  6
CONTINUOUS
 62
     6
100
AcDbVertex
100
AcDb2dVertex
 10
795.691666
 20
1412.21524
 30
0.0
  0
VERTEX
  5
15C
100
AcDbEntity
  8
枠_
  6
CONTINUOUS
 62
     6
100
AcDbVertex
100
AcDb2dVertex
 10
796.099075
 20
1412.331818
 30
0.0
  0
SEQEND
  5
15D
100
AcDbEntity
  8
枠_
  6
CONTINUOUS
 62
     6
  0
POLYLINE
  5
15E
100
AcDbEntity
  8
枠_
  6
CONTINUOUS
 62
     6
100
AcDb2dPolyline
 66
     1
 10
0.0
 20
0.0
 30
0.0
 70
   128
  0
VERTEX
  5
15F
100
AcDbEntity
  8
枠_
  6
CONTINUOUS
 62
     6
100
AcDbVertex
100
AcDb2dVertex
 10
796.099075
 20
1412.331818
 30
0.0
  0
VERTEX
  5
160
100
AcDbEntity
  8
枠_
  6
CONTINUOUS
 62
     6
100
AcDbVertex
100
AcDb2dVertex
 10
796.490005
 20
1412.472504
 30
0.0
  0
VERTEX
  5
161
100
AcDbEntity
  8
枠_
  6
CONTINUOUS
 62
     6
100
AcDbVertex
100
AcDb2dVertex
 10
796.861862
 20
1412.636231
 30
0.0
  0
VERTEX
  5
162
100
AcDbEntity
  8
枠_
  6
CONTINUOUS
 62
     6
100
AcDbVertex
100
AcDb2dVertex
 10
797.211746
 20
1412.821625
 30
0.0
  0
VERTEX
  5
163
100
AcDbEntity
  8
枠_
  6
CONTINUOUS
 62
     6
100
AcDbVertex
100
AcDb2dVertex
 10
797.536911
 20
1413.027161
 30
0.0
  0
VERTEX
  5
164
100
AcDbEntity
  8
枠_
  6
CONTINUOUS
 62
     6
100
AcDbVertex
100
AcDb2dVertex
 10
797.834763
 20
1413.25177
 30
0.0
  0
VERTEX
  5
165
100
AcDbEntity
  8
枠_
  6
CONTINUOUS
 62
     6
100
AcDbVertex
100
AcDb2dVertex
 10
798.103165
 20
1413.493317
 30
0.0
  0
VERTEX
  5
166
100
AcDbEntity
  8
枠_
  6
CONTINUOUS
 62
     6
100
AcDbVertex
100
AcDb2dVertex
 10
798.340134
 20
1413.750275
 30
0.0
  0
VERTEX
  5
167
100
AcDbEntity
  8
枠_
  6
CONTINUOUS
 62
     6
100
AcDbVertex
100
AcDb2dVertex
 10
798.543686
 20
1414.020355
 30
0.0
  0
VERTEX
  5
168
100
AcDbEntity
  8
枠_
  6
CONTINUOUS
 62
     6
100
AcDbVertex
100
AcDb2dVertex
 10
798.712448
 20
1414.301727
 30
0.0
  0
VERTEX
  5
169
100
AcDbEntity
  8
枠_
  6
CONTINUOUS
 62
     6
100
AcDbVertex
100
AcDb2dVertex
 10
798.845047
 20
1414.592102
 30
0.0
  0
SEQEND
  5
16A
100
AcDbEntity
  8
枠_
  6
CONTINUOUS
 62
     6
  0
POLYLINE
  5
16B
100
AcDbEntity
  8
枠_
  6
CONTINUOUS
 62
     6
100
AcDb2dPolyline
 66
     1
 10
0.0
 20
0.0
 30
0.0
 70
   128
  0
VERTEX
  5
16C
100
AcDbEntity
  8
枠_
  6
CONTINUOUS
 62
     6
100
AcDbVertex
100
AcDb2dVertex
 10
798.845047
 20
1414.592102
 30
0.0
  0
VERTEX
  5
16D
100
AcDbEntity
  8
枠_
  6
CONTINUOUS
 62
     6
100
AcDbVertex
100
AcDb2dVertex
 10
798.940414
 20
1414.889496
 30
0.0
  0
VERTEX
  5
16E
100
AcDbEntity
  8
枠_
  6
CONTINUOUS
 62
     6
100
AcDbVertex
100
AcDb2dVertex
 10
798.99794
 20
1415.191315
 30
0.0
  0
VERTEX
  5
16F
100
AcDbEntity
  8
枠_
  6
CONTINUOUS
 62
     6
100
AcDbVertex
100
AcDb2dVertex
 10
799.017166
 20
1415.495575
 30
0.0
  0
SEQEND
  5
170
100
AcDbEntity
  8
枠_
  6
CONTINUOUS
 62
     6
  0
LINE
  5
171
100
AcDbEntity
  8
枠_
  6
CONTINUOUS
 62
     6
100
AcDbLine
 10
813.462626
 20
1418.986786
 30
0.0
 11
813.462626
 21
1411.720703
 31
0.0
  0
LINE
  5
172
100
AcDbEntity
  8
枠_
  6
CONTINUOUS
 62
     6
100
AcDbLine
 10
787.462906
 20
1418.986786
 30
0.0
 11
787.462906
 21
1412.004243
 31
0.0
  0
LINE
  5
173
100
AcDbEntity
  8
枠_
  6
CONTINUOUS
 62
     6
100
AcDbLine
 10
792.860446
 20
1410.470703
 30
0.0
 11
812.462982
 21
1410.470703
 31
0.0
  0
LINE
  5
174
100
AcDbEntity
  8
枠_
  6
CONTINUOUS
 62
     6
100
AcDbLine
 10
788.434204
 20
1411.720703
 30
0.0
 11
813.212875
 21
1411.720703
 31
0.0
  0
ARC
  5
175
100
AcDbEntity
  8
枠_
  6
CONTINUOUS
 62
     6
100
AcDbCircle
 10
757.208163
 20
1398.938026
 30
0.0
 40
16.997074
100
AcDbArc
 50
90.613973
 51
149.135451
  0
LINE
  5
176
100
AcDbEntity
  8
枠_
  6
CONTINUOUS
 62
     6
100
AcDbLine
 10
742.618172
 20
1407.657699
 30
0.0
 11
738.024039
 21
1399.970673
 31
0.0
  0
ARC
  5
177
100
AcDbEntity
  8
枠_
  6
CONTINUOUS
 62
     6
100
AcDbCircle
 10
767.992438
 20
1395.346223
 30
0.0
 40
10.398192
100
AcDbArc
 50
60.575913
 51
150.000327
  0
LINE
  5
178
100
AcDbEntity
  8
枠_
  6
CONTINUOUS
 62
     6
100
AcDbLine
 10
756.814518
 20
1396.78183
 30
0.0
 11
758.987311
 21
1400.545268
 31
0.0
  0
ARC
  5
179
100
AcDbEntity
  8
枠_
  6
CONTINUOUS
 62
     6
100
AcDbCircle
 10
724.263783
 20
1352.403695
 30
0.0
 40
62.068007
100
AcDbArc
 50
19.351493
 51
54.124083
  0
ARC
  5
17A
100
AcDbEntity
  8
枠_
  6
CONTINUOUS
 62
     6
100
AcDbCircle
 10
755.807368
 20
1287.727645
 30
0.0
 40
128.21384
100
AcDbArc
 50
66.409683
 51
89.416424
  0
ARC
  5
17B
100
AcDbEntity
  8
枠_
  6
CONTINUOUS
 62
     6
100
AcDbCircle
 10
675.090968
 20
1230.064141
 30
0.0
 40
200.0
100
AcDbArc
 50
45.604924
 51
60.656201
  0
LINE
  5
17C
100
AcDbEntity
  8
枠_
  6
CONTINUOUS
 62
     6
100
AcDbLine
 10
738.024039
 20
1399.970673
 30
0.0
 11
749.863139
 21
1399.970673
 31
0.0
  0
LINE
  5
17D
100
AcDbEntity
  8
枠_
  6
CONTINUOUS
 62
     6
100
AcDbLine
 10
753.498238
 20
1407.388203
 30
0.0
 11
749.863139
 21
1399.970673
 31
0.0
  0
ARC
  5
17E
100
AcDbEntity
  8
枠_
  6
CONTINUOUS
 62
     6
100
AcDbCircle
 10
766.724772
 20
1400.906293
 30
0.0
 40
14.729438
100
AcDbArc
 50
95.01514
 51
153.891976
  0
LINE
  5
17F
100
AcDbEntity
  8
枠_
  6
CONTINUOUS
 62
     6
100
AcDbLine
 10
756.814518
 20
1396.78183
 30
0.0
 11
749.863139
 21
1399.970673
 31
0.0
  0
LINE
  5
180
100
AcDbEntity
  8
枠_
  6
CONTINUOUS
 62
     6
100
AcDbLine
 10
745.02992
 20
1396.78183
 30
0.0
 11
738.212453
 21
1399.909243
 31
0.0
  0
LINE
  5
181
100
AcDbEntity
  8
枠_
  6
CONTINUOUS
 62
     6
100
AcDbLine
 10
756.814518
 20
1396.78183
 30
0.0
 11
745.02992
 21
1396.78183
 31
0.0
  0
LINE
  5
182
100
AcDbEntity
  8
枠_
  6
EXLTYPE3
 62
     6
100
AcDbLine
 10
685.463013
 20
1416.970703
 30
0.0
 11
685.463013
 21
975.0
 31
0.0
  0
TEXT
  5
183
100
AcDbEntity
  8
枠_
  6
CONTINUOUS
 62
     6
100
AcDbText
 10
182.044116
 20
126.950073
 30
0.0
 40
25.0
  1
２０
 41
0.75768
  7
EXCADSTD
 72
     5
 11
223.382775
 21
126.950073
 31
0.0
100
AcDbText
  0
TEXT
  5
184
100
AcDbEntity
  8
枠_
  6
CONTINUOUS
 62
     6
100
AcDbText
 10
636.0
 20
200.0
 30
0.0
 40
50.0
  1
古林
 41
0.8568
  7
EXCADSTD
 72
     5
 11
729.4932
 21
200.0
 31
0.0
100
AcDbText
  0
TEXT
  5
185
100
AcDbEntity
  8
枠_
  6
CONTINUOUS
 62
     7
100
AcDbText
 10
1454.25
 20
130.75
 30
0.0
 40
70.0
  1
Ｌ０１３１０６２
 41
0.795
  7
EXCADSTD
 72
     5
 11
1984.25
 21
130.75
 31
0.0
100
AcDbText
  0
TEXT
  5
186
100
AcDbEntity
  8
枠_
  6
CONTINUOUS
 62
     6
100
AcDbText
 10
213.5
 20
200.0
 30
0.0
 40
50.0
  1
間瀬
 41
0.7728
  7
EXCADSTD
 72
     5
 11
297.8272
 21
200.0
 31
0.0
100
AcDbText
  0
TEXT
  5
187
100
AcDbEntity
  8
枠_
  6
CONTINUOUS
 62
     6
100
AcDbText
 10
234.944116
 20
126.950073
 30
0.0
 40
25.0
  1
１０
 41
0.75768
  7
EXCADSTD
 72
     5
 11
276.282775
 21
126.950073
 31
0.0
100
AcDbText
  0
TEXT
  5
188
100
AcDbEntity
  8
枠_
  6
CONTINUOUS
 62
     6
100
AcDbText
 10
284.044116
 20
126.950073
 30
0.0
 40
25.0
  1
３１
 41
0.75768
  7
EXCADSTD
 72
     5
 11
325.382775
 21
126.950073
 31
0.0
100
AcDbText
  0
TEXT
  5
18A
100
AcDbEntity
  8
枠_
  6
CONTINUOUS
 62
     2
100
AcDbText
 10
770.0
 20
135.0
 30
0.0
 40
45.0
  1
ジャニス工業株式会社
  7
EXCADTTF1
 72
     5
 11
1370.0
 21
135.0
 31
0.0
100
AcDbText
  0
LINE
  5
18B
100
AcDbEntity
  8
枠_
  6
CONTINUOUS
 62
     7
100
AcDbLine
 10
1226.0
 20
610.969971
 30
0.0
 11
1704.039185
 21
610.969971
 31
0.0
  0
TEXT
  5
18C
100
AcDbEntity
  8
枠_
  6
CONTINUOUS
 62
     2
100
AcDbText
 10
1700.539185
 20
1574.7
 30
0.0
 40
40.0
  1
Ｗ．Ｌ
 50
90.0
 41
0.833
  7
EXCADSTD
 72
     5
 11
1700.539185
 21
1693.7
 31
0.0
100
AcDbText
  0
LINE
  5
18D
100
AcDbEntity
  8
枠_
  6
CONTINUOUS
 62
     6
100
AcDbLine
 10
1651.039459
 20
1410.720575
 30
0.0
 11
1651.039459
 21
1408.720606
 31
0.0
  0
LINE
  5
18E
100
AcDbEntity
  8
枠_
  6
CONTINUOUS
 62
     6
100
AcDbLine
 10
1627.03952
 20
1408.720606
 30
0.0
 11
1651.039459
 21
1408.720606
 31
0.0
  0
ARC
  5
18F
100
AcDbEntity
  8
枠_
  6
CONTINUOUS
 62
     6
100
AcDbCircle
 10
1647.789185
 20
1414.4956
 30
0.0
 40
5.500029
100
AcDbArc
 50
316.656998
 51
57.235367
  0
LINE
  5
190
100
AcDbEntity
  8
枠_
  6
CONTINUOUS
 62
     6
100
AcDbLine
 10
1644.33902
 20
1423.620508
 30
0.0
 11
1650.765717
 21
1419.120539
 31
0.0
  0
LINE
  5
191
100
AcDbEntity
  8
枠_
  6
CONTINUOUS
 62
     6
100
AcDbLine
 10
1633.739197
 20
1423.620508
 30
0.0
 11
1644.33902
 21
1423.620508
 31
0.0
  0
LINE
  5
192
100
AcDbEntity
  8
枠_
  6
CONTINUOUS
 62
     6
100
AcDbLine
 10
1627.312042
 20
1419.120234
 30
0.0
 11
1633.739197
 21
1423.620508
 31
0.0
  0
ARC
  5
193
100
AcDbEntity
  8
枠_
  6
CONTINUOUS
 62
     6
100
AcDbCircle
 10
1630.289185
 20
1414.4956
 30
0.0
 40
5.500056
100
AcDbArc
 50
122.771713
 51
223.343002
  0
LINE
  5
194
100
AcDbEntity
  8
枠_
  6
CONTINUOUS
 62
     6
100
AcDbLine
 10
1626.289246
 20
1410.720575
 30
0.0
 11
1651.789123
 21
1410.720575
 31
0.0
  0
LINE
  5
195
100
AcDbEntity
  8
枠_
  6
CONTINUOUS
 62
     6
100
AcDbLine
 10
1627.312042
 20
1419.120234
 30
0.0
 11
1650.766174
 21
1419.120234
 31
0.0
  0
POLYLINE
  5
196
100
AcDbEntity
  8
枠_
  6
CONTINUOUS
 62
     6
100
AcDb2dPolyline
 66
     1
 10
0.0
 20
0.0
 30
0.0
 70
   128
  0
VERTEX
  5
197
100
AcDbEntity
  8
枠_
  6
CONTINUOUS
 62
     6
100
AcDbVertex
100
AcDb2dVertex
 10
1630.699341
 20
1414.495752
 30
0.0
  0
VERTEX
  5
198
100
AcDbEntity
  8
枠_
  6
CONTINUOUS
 62
     6
100
AcDbVertex
100
AcDb2dVertex
 10
1630.688202
 20
1414.800013
 30
0.0
  0
VERTEX
  5
199
100
AcDbEntity
  8
枠_
  6
CONTINUOUS
 62
     6
100
AcDbVertex
100
AcDb2dVertex
 10
1630.65509
 20
1415.101984
 30
0.0
  0
VERTEX
  5
19A
100
AcDbEntity
  8
枠_
  6
CONTINUOUS
 62
     6
100
AcDbVertex
100
AcDb2dVertex
 10
1630.599548
 20
1415.399225
 30
0.0
  0
VERTEX
  5
19B
100
AcDbEntity
  8
枠_
  6
CONTINUOUS
 62
     6
100
AcDbVertex
100
AcDb2dVertex
 10
1630.522949
 20
1415.6896
 30
0.0
  0
VERTEX
  5
19C
100
AcDbEntity
  8
枠_
  6
CONTINUOUS
 62
     6
100
AcDbVertex
100
AcDb2dVertex
 10
1630.425446
 20
1415.970972
 30
0.0
  0
VERTEX
  5
19D
100
AcDbEntity
  8
枠_
  6
CONTINUOUS
 62
     6
100
AcDbVertex
100
AcDb2dVertex
 10
1630.308258
 20
1416.241205
 30
0.0
  0
VERTEX
  5
19E
100
AcDbEntity
  8
枠_
  6
CONTINUOUS
 62
     6
100
AcDbVertex
100
AcDb2dVertex
 10
1630.171387
 20
1416.498011
 30
0.0
  0
VERTEX
  5
19F
100
AcDbEntity
  8
枠_
  6
CONTINUOUS
 62
     6
100
AcDbVertex
100
AcDb2dVertex
 10
1630.01651
 20
1416.73971
 30
0.0
  0
VERTEX
  5
1A0
100
AcDbEntity
  8
枠_
  6
CONTINUOUS
 62
     6
100
AcDbVertex
100
AcDb2dVertex
 10
1629.844543
 20
1416.964167
 30
0.0
  0
VERTEX
  5
1A1
100
AcDbEntity
  8
枠_
  6
CONTINUOUS
 62
     6
100
AcDbVertex
100
AcDb2dVertex
 10
1629.65686
 20
1417.169855
 30
0.0
  0
VERTEX
  5
1A2
100
AcDbEntity
  8
枠_
  6
CONTINUOUS
 62
     6
100
AcDbVertex
100
AcDb2dVertex
 10
1629.454987
 20
1417.35525
 30
0.0
  0
VERTEX
  5
1A3
100
AcDbEntity
  8
枠_
  6
CONTINUOUS
 62
     6
100
AcDbVertex
100
AcDb2dVertex
 10
1629.240143
 20
1417.518824
 30
0.0
  0
VERTEX
  5
1A4
100
AcDbEntity
  8
枠_
  6
CONTINUOUS
 62
     6
100
AcDbVertex
100
AcDb2dVertex
 10
1629.014313
 20
1417.659357
 30
0.0
  0
VERTEX
  5
1A5
100
AcDbEntity
  8
枠_
  6
CONTINUOUS
 62
     6
100
AcDbVertex
100
AcDb2dVertex
 10
1628.779022
 20
1417.775934
 30
0.0
  0
VERTEX
  5
1A6
100
AcDbEntity
  8
枠_
  6
CONTINUOUS
 62
     6
100
AcDbVertex
100
AcDb2dVertex
 10
1628.536407
 20
1417.867792
 30
0.0
  0
VERTEX
  5
1A7
100
AcDbEntity
  8
枠_
  6
CONTINUOUS
 62
     6
100
AcDbVertex
100
AcDb2dVertex
 10
1628.287842
 20
1417.93371
 30
0.0
  0
VERTEX
  5
1A8
100
AcDbEntity
  8
枠_
  6
CONTINUOUS
 62
     6
100
AcDbVertex
100
AcDb2dVertex
 10
1628.035614
 20
1417.973383
 30
0.0
  0
VERTEX
  5
1A9
100
AcDbEntity
  8
枠_
  6
CONTINUOUS
 62
     6
100
AcDbVertex
100
AcDb2dVertex
 10
1627.780945
 20
1417.986811
 30
0.0
  0
VERTEX
  5
1AA
100
AcDbEntity
  8
枠_
  6
CONTINUOUS
 62
     6
100
AcDbVertex
100
AcDb2dVertex
 10
1627.526581
 20
1417.973536
 30
0.0
  0
VERTEX
  5
1AB
100
AcDbEntity
  8
枠_
  6
CONTINUOUS
 62
     6
100
AcDbVertex
100
AcDb2dVertex
 10
1627.274048
 20
1417.93371
 30
0.0
  0
VERTEX
  5
1AC
100
AcDbEntity
  8
枠_
  6
CONTINUOUS
 62
     6
100
AcDbVertex
100
AcDb2dVertex
 10
1627.02594
 20
1417.867792
 30
0.0
  0
VERTEX
  5
1AD
100
AcDbEntity
  8
枠_
  6
CONTINUOUS
 62
     6
100
AcDbVertex
100
AcDb2dVertex
 10
1626.783173
 20
1417.776087
 30
0.0
  0
VERTEX
  5
1AE
100
AcDbEntity
  8
枠_
  6
CONTINUOUS
 62
     6
100
AcDbVertex
100
AcDb2dVertex
 10
1626.548035
 20
1417.65951
 30
0.0
  0
VERTEX
  5
1AF
100
AcDbEntity
  8
枠_
  6
CONTINUOUS
 62
     6
100
AcDbVertex
100
AcDb2dVertex
 10
1626.321747
 20
1417.518824
 30
0.0
  0
VERTEX
  5
1B0
100
AcDbEntity
  8
枠_
  6
CONTINUOUS
 62
     6
100
AcDbVertex
100
AcDb2dVertex
 10
1626.107056
 20
1417.35525
 30
0.0
  0
VERTEX
  5
1B1
100
AcDbEntity
  8
枠_
  6
CONTINUOUS
 62
     6
100
AcDbVertex
100
AcDb2dVertex
 10
1625.904877
 20
1417.169855
 30
0.0
  0
VERTEX
  5
1B2
100
AcDbEntity
  8
枠_
  6
CONTINUOUS
 62
     6
100
AcDbVertex
100
AcDb2dVertex
 10
1625.717651
 20
1416.964167
 30
0.0
  0
VERTEX
  5
1B3
100
AcDbEntity
  8
枠_
  6
CONTINUOUS
 62
     6
100
AcDbVertex
100
AcDb2dVertex
 10
1625.545685
 20
1416.739557
 30
0.0
  0
VERTEX
  5
1B4
100
AcDbEntity
  8
枠_
  6
CONTINUOUS
 62
     6
100
AcDbVertex
100
AcDb2dVertex
 10
1625.390961
 20
1416.498011
 30
0.0
  0
VERTEX
  5
1B5
100
AcDbEntity
  8
枠_
  6
CONTINUOUS
 62
     6
100
AcDbVertex
100
AcDb2dVertex
 10
1625.253632
 20
1416.241205
 30
0.0
  0
VERTEX
  5
1B6
100
AcDbEntity
  8
枠_
  6
CONTINUOUS
 62
     6
100
AcDbVertex
100
AcDb2dVertex
 10
1625.135986
 20
1415.971125
 30
0.0
  0
VERTEX
  5
1B7
100
AcDbEntity
  8
枠_
  6
CONTINUOUS
 62
     6
100
AcDbVertex
100
AcDb2dVertex
 10
1625.038483
 20
1415.689753
 30
0.0
  0
VERTEX
  5
1B8
100
AcDbEntity
  8
枠_
  6
CONTINUOUS
 62
     6
100
AcDbVertex
100
AcDb2dVertex
 10
1624.962036
 20
1415.399225
 30
0.0
  0
VERTEX
  5
1B9
100
AcDbEntity
  8
枠_
  6
CONTINUOUS
 62
     6
100
AcDbVertex
100
AcDb2dVertex
 10
1624.906952
 20
1415.101832
 30
0.0
  0
VERTEX
  5
1BA
100
AcDbEntity
  8
枠_
  6
CONTINUOUS
 62
     6
100
AcDbVertex
100
AcDb2dVertex
 10
1624.873688
 20
1414.79986
 30
0.0
  0
VERTEX
  5
1BB
100
AcDbEntity
  8
枠_
  6
CONTINUOUS
 62
     6
100
AcDbVertex
100
AcDb2dVertex
 10
1624.863007
 20
1414.495752
 30
0.0
  0
VERTEX
  5
1BC
100
AcDbEntity
  8
枠_
  6
CONTINUOUS
 62
     6
100
AcDbVertex
100
AcDb2dVertex
 10
1624.874145
 20
1414.191492
 30
0.0
  0
VERTEX
  5
1BD
100
AcDbEntity
  8
枠_
  6
CONTINUOUS
 62
     6
100
AcDbVertex
100
AcDb2dVertex
 10
1624.907562
 20
1413.889521
 30
0.0
  0
VERTEX
  5
1BE
100
AcDbEntity
  8
枠_
  6
CONTINUOUS
 62
     6
100
AcDbVertex
100
AcDb2dVertex
 10
1624.962036
 20
1413.591974
 30
0.0
  0
VERTEX
  5
1BF
100
AcDbEntity
  8
枠_
  6
CONTINUOUS
 62
     6
100
AcDbVertex
100
AcDb2dVertex
 10
1625.038635
 20
1413.3016
 30
0.0
  0
VERTEX
  5
1C0
100
AcDbEntity
  8
枠_
  6
CONTINUOUS
 62
     6
100
AcDbVertex
100
AcDb2dVertex
 10
1625.135986
 20
1413.020228
 30
0.0
  0
VERTEX
  5
1C1
100
AcDbEntity
  8
枠_
  6
CONTINUOUS
 62
     6
100
AcDbVertex
100
AcDb2dVertex
 10
1625.253632
 20
1412.750147
 30
0.0
  0
VERTEX
  5
1C2
100
AcDbEntity
  8
枠_
  6
CONTINUOUS
 62
     6
100
AcDbVertex
100
AcDb2dVertex
 10
1625.39035
 20
1412.493342
 30
0.0
  0
VERTEX
  5
1C3
100
AcDbEntity
  8
枠_
  6
CONTINUOUS
 62
     6
100
AcDbVertex
100
AcDb2dVertex
 10
1625.545227
 20
1412.251642
 30
0.0
  0
VERTEX
  5
1C4
100
AcDbEntity
  8
枠_
  6
CONTINUOUS
 62
     6
100
AcDbVertex
100
AcDb2dVertex
 10
1625.717651
 20
1412.027033
 30
0.0
  0
VERTEX
  5
1C5
100
AcDbEntity
  8
枠_
  6
CONTINUOUS
 62
     6
100
AcDbVertex
100
AcDb2dVertex
 10
1625.905335
 20
1411.821344
 30
0.0
  0
VERTEX
  5
1C6
100
AcDbEntity
  8
枠_
  6
CONTINUOUS
 62
     6
100
AcDbVertex
100
AcDb2dVertex
 10
1626.107513
 20
1411.63595
 30
0.0
  0
VERTEX
  5
1C7
100
AcDbEntity
  8
枠_
  6
CONTINUOUS
 62
     6
100
AcDbVertex
100
AcDb2dVertex
 10
1626.321747
 20
1411.472376
 30
0.0
  0
VERTEX
  5
1C8
100
AcDbEntity
  8
枠_
  6
CONTINUOUS
 62
     6
100
AcDbVertex
100
AcDb2dVertex
 10
1626.547577
 20
1411.331843
 30
0.0
  0
VERTEX
  5
1C9
100
AcDbEntity
  8
枠_
  6
CONTINUOUS
 62
     6
100
AcDbVertex
100
AcDb2dVertex
 10
1626.782562
 20
1411.215265
 30
0.0
  0
VERTEX
  5
1CA
100
AcDbEntity
  8
枠_
  6
CONTINUOUS
 62
     6
100
AcDbVertex
100
AcDb2dVertex
 10
1627.02594
 20
1411.12356
 30
0.0
  0
VERTEX
  5
1CB
100
AcDbEntity
  8
枠_
  6
CONTINUOUS
 62
     6
100
AcDbVertex
100
AcDb2dVertex
 10
1627.274506
 20
1411.057642
 30
0.0
  0
VERTEX
  5
1CC
100
AcDbEntity
  8
枠_
  6
CONTINUOUS
 62
     6
100
AcDbVertex
100
AcDb2dVertex
 10
1627.527039
 20
1411.017969
 30
0.0
  0
VERTEX
  5
1CD
100
AcDbEntity
  8
枠_
  6
CONTINUOUS
 62
     6
100
AcDbVertex
100
AcDb2dVertex
 10
1627.780945
 20
1411.004694
 30
0.0
  0
VERTEX
  5
1CE
100
AcDbEntity
  8
枠_
  6
CONTINUOUS
 62
     6
100
AcDbVertex
100
AcDb2dVertex
 10
1628.035309
 20
1411.017969
 30
0.0
  0
VERTEX
  5
1CF
100
AcDbEntity
  8
枠_
  6
CONTINUOUS
 62
     6
100
AcDbVertex
100
AcDb2dVertex
 10
1628.287537
 20
1411.057795
 30
0.0
  0
VERTEX
  5
1D0
100
AcDbEntity
  8
枠_
  6
CONTINUOUS
 62
     6
100
AcDbVertex
100
AcDb2dVertex
 10
1628.536407
 20
1411.12356
 30
0.0
  0
VERTEX
  5
1D1
100
AcDbEntity
  8
枠_
  6
CONTINUOUS
 62
     6
100
AcDbVertex
100
AcDb2dVertex
 10
1628.779175
 20
1411.215265
 30
0.0
  0
VERTEX
  5
1D2
100
AcDbEntity
  8
枠_
  6
CONTINUOUS
 62
     6
100
AcDbVertex
100
AcDb2dVertex
 10
1629.014618
 20
1411.331843
 30
0.0
  0
SEQEND
  5
1D3
100
AcDbEntity
  8
枠_
  6
CONTINUOUS
 62
     6
  0
POLYLINE
  5
1D4
100
AcDbEntity
  8
枠_
  6
CONTINUOUS
 62
     6
100
AcDb2dPolyline
 66
     1
 10
0.0
 20
0.0
 30
0.0
 70
   128
  0
VERTEX
  5
1D5
100
AcDbEntity
  8
枠_
  6
CONTINUOUS
 62
     6
100
AcDbVertex
100
AcDb2dVertex
 10
1629.014618
 20
1411.331843
 30
0.0
  0
VERTEX
  5
1D6
100
AcDbEntity
  8
枠_
  6
CONTINUOUS
 62
     6
100
AcDbVertex
100
AcDb2dVertex
 10
1629.240143
 20
1411.472376
 30
0.0
  0
VERTEX
  5
1D7
100
AcDbEntity
  8
枠_
  6
CONTINUOUS
 62
     6
100
AcDbVertex
100
AcDb2dVertex
 10
1629.454834
 20
1411.63595
 30
0.0
  0
VERTEX
  5
1D8
100
AcDbEntity
  8
枠_
  6
CONTINUOUS
 62
     6
100
AcDbVertex
100
AcDb2dVertex
 10
1629.65686
 20
1411.821344
 30
0.0
  0
VERTEX
  5
1D9
100
AcDbEntity
  8
枠_
  6
CONTINUOUS
 62
     6
100
AcDbVertex
100
AcDb2dVertex
 10
1629.844543
 20
1412.027033
 30
0.0
  0
VERTEX
  5
1DA
100
AcDbEntity
  8
枠_
  6
CONTINUOUS
 62
     6
100
AcDbVertex
100
AcDb2dVertex
 10
1630.01651
 20
1412.251642
 30
0.0
  0
VERTEX
  5
1DB
100
AcDbEntity
  8
枠_
  6
CONTINUOUS
 62
     6
100
AcDbVertex
100
AcDb2dVertex
 10
1630.171539
 20
1412.493189
 30
0.0
  0
VERTEX
  5
1DC
100
AcDbEntity
  8
枠_
  6
CONTINUOUS
 62
     6
100
AcDbVertex
100
AcDb2dVertex
 10
1630.308258
 20
1412.750147
 30
0.0
  0
VERTEX
  5
1DD
100
AcDbEntity
  8
枠_
  6
CONTINUOUS
 62
     6
100
AcDbVertex
100
AcDb2dVertex
 10
1630.425751
 20
1413.020228
 30
0.0
  0
VERTEX
  5
1DE
100
AcDbEntity
  8
枠_
  6
CONTINUOUS
 62
     6
100
AcDbVertex
100
AcDb2dVertex
 10
1630.523254
 20
1413.3016
 30
0.0
  0
VERTEX
  5
1DF
100
AcDbEntity
  8
枠_
  6
CONTINUOUS
 62
     6
100
AcDbVertex
100
AcDb2dVertex
 10
1630.599548
 20
1413.591974
 30
0.0
  0
SEQEND
  5
1E0
100
AcDbEntity
  8
枠_
  6
CONTINUOUS
 62
     6
  0
POLYLINE
  5
1E1
100
AcDbEntity
  8
枠_
  6
CONTINUOUS
 62
     6
100
AcDb2dPolyline
 66
     1
 10
0.0
 20
0.0
 30
0.0
 70
   128
  0
VERTEX
  5
1E2
100
AcDbEntity
  8
枠_
  6
CONTINUOUS
 62
     6
100
AcDbVertex
100
AcDb2dVertex
 10
1630.599548
 20
1413.591974
 30
0.0
  0
VERTEX
  5
1E3
100
AcDbEntity
  8
枠_
  6
CONTINUOUS
 62
     6
100
AcDbVertex
100
AcDb2dVertex
 10
1630.654633
 20
1413.889368
 30
0.0
  0
VERTEX
  5
1E4
100
AcDbEntity
  8
枠_
  6
CONTINUOUS
 62
     6
100
AcDbVertex
100
AcDb2dVertex
 10
1630.687744
 20
1414.19134
 30
0.0
  0
VERTEX
  5
1E5
100
AcDbEntity
  8
枠_
  6
CONTINUOUS
 62
     6
100
AcDbVertex
100
AcDb2dVertex
 10
1630.69873
 20
1414.4956
 30
0.0
  0
SEQEND
  5
1E6
100
AcDbEntity
  8
枠_
  6
CONTINUOUS
 62
     6
  0
POLYLINE
  5
1E7
100
AcDbEntity
  8
枠_
  6
CONTINUOUS
 62
     6
100
AcDb2dPolyline
 66
     1
 10
0.0
 20
0.0
 30
0.0
 70
   128
  0
VERTEX
  5
1E8
100
AcDbEntity
  8
枠_
  6
CONTINUOUS
 62
     6
100
AcDbVertex
100
AcDb2dVertex
 10
1644.875366
 20
1414.495752
 30
0.0
  0
VERTEX
  5
1E9
100
AcDbEntity
  8
枠_
  6
CONTINUOUS
 62
     6
100
AcDbVertex
100
AcDb2dVertex
 10
1644.853088
 20
1414.800013
 30
0.0
  0
VERTEX
  5
1EA
100
AcDbEntity
  8
枠_
  6
CONTINUOUS
 62
     6
100
AcDbVertex
100
AcDb2dVertex
 10
1644.78656
 20
1415.101984
 30
0.0
  0
VERTEX
  5
1EB
100
AcDbEntity
  8
枠_
  6
CONTINUOUS
 62
     6
100
AcDbVertex
100
AcDb2dVertex
 10
1644.676544
 20
1415.399225
 30
0.0
  0
VERTEX
  5
1EC
100
AcDbEntity
  8
枠_
  6
CONTINUOUS
 62
     6
100
AcDbVertex
100
AcDb2dVertex
 10
1644.523346
 20
1415.6896
 30
0.0
  0
VERTEX
  5
1ED
100
AcDbEntity
  8
枠_
  6
CONTINUOUS
 62
     6
100
AcDbVertex
100
AcDb2dVertex
 10
1644.328644
 20
1415.970972
 30
0.0
  0
VERTEX
  5
1EE
100
AcDbEntity
  8
枠_
  6
CONTINUOUS
 62
     6
100
AcDbVertex
100
AcDb2dVertex
 10
1644.093506
 20
1416.241205
 30
0.0
  0
VERTEX
  5
1EF
100
AcDbEntity
  8
枠_
  6
CONTINUOUS
 62
     6
100
AcDbVertex
100
AcDb2dVertex
 10
1643.819916
 20
1416.498011
 30
0.0
  0
VERTEX
  5
1F0
100
AcDbEntity
  8
枠_
  6
CONTINUOUS
 62
     6
100
AcDbVertex
100
AcDb2dVertex
 10
1643.509857
 20
1416.73971
 30
0.0
  0
VERTEX
  5
1F1
100
AcDbEntity
  8
枠_
  6
CONTINUOUS
 62
     6
100
AcDbVertex
100
AcDb2dVertex
 10
1643.166077
 20
1416.964167
 30
0.0
  0
VERTEX
  5
1F2
100
AcDbEntity
  8
枠_
  6
CONTINUOUS
 62
     6
100
AcDbVertex
100
AcDb2dVertex
 10
1642.79071
 20
1417.169855
 30
0.0
  0
VERTEX
  5
1F3
100
AcDbEntity
  8
枠_
  6
CONTINUOUS
 62
     6
100
AcDbVertex
100
AcDb2dVertex
 10
1642.38681
 20
1417.35525
 30
0.0
  0
VERTEX
  5
1F4
100
AcDbEntity
  8
枠_
  6
CONTINUOUS
 62
     6
100
AcDbVertex
100
AcDb2dVertex
 10
1641.957581
 20
1417.518824
 30
0.0
  0
VERTEX
  5
1F5
100
AcDbEntity
  8
枠_
  6
CONTINUOUS
 62
     6
100
AcDbVertex
100
AcDb2dVertex
 10
1641.506073
 20
1417.659357
 30
0.0
  0
VERTEX
  5
1F6
100
AcDbEntity
  8
枠_
  6
CONTINUOUS
 62
     6
100
AcDbVertex
100
AcDb2dVertex
 10
1641.035797
 20
1417.775934
 30
0.0
  0
VERTEX
  5
1F7
100
AcDbEntity
  8
枠_
  6
CONTINUOUS
 62
     6
100
AcDbVertex
100
AcDb2dVertex
 10
1640.549805
 20
1417.867792
 30
0.0
  0
VERTEX
  5
1F8
100
AcDbEntity
  8
枠_
  6
CONTINUOUS
 62
     6
100
AcDbVertex
100
AcDb2dVertex
 10
1640.052673
 20
1417.93371
 30
0.0
  0
VERTEX
  5
1F9
100
AcDbEntity
  8
枠_
  6
CONTINUOUS
 62
     6
100
AcDbVertex
100
AcDb2dVertex
 10
1639.547913
 20
1417.973383
 30
0.0
  0
VERTEX
  5
1FA
100
AcDbEntity
  8
枠_
  6
CONTINUOUS
 62
     6
100
AcDbVertex
100
AcDb2dVertex
 10
1639.039337
 20
1417.986811
 30
0.0
  0
VERTEX
  5
1FB
100
AcDbEntity
  8
枠_
  6
CONTINUOUS
 62
     6
100
AcDbVertex
100
AcDb2dVertex
 10
1638.530762
 20
1417.973536
 30
0.0
  0
VERTEX
  5
1FC
100
AcDbEntity
  8
枠_
  6
CONTINUOUS
 62
     6
100
AcDbVertex
100
AcDb2dVertex
 10
1638.025848
 20
1417.93371
 30
0.0
  0
VERTEX
  5
1FD
100
AcDbEntity
  8
枠_
  6
CONTINUOUS
 62
     6
100
AcDbVertex
100
AcDb2dVertex
 10
1637.528717
 20
1417.867792
 30
0.0
  0
VERTEX
  5
1FE
100
AcDbEntity
  8
枠_
  6
CONTINUOUS
 62
     6
100
AcDbVertex
100
AcDb2dVertex
 10
1637.043182
 20
1417.776087
 30
0.0
  0
VERTEX
  5
1FF
100
AcDbEntity
  8
枠_
  6
CONTINUOUS
 62
     6
100
AcDbVertex
100
AcDb2dVertex
 10
1636.572754
 20
1417.65951
 30
0.0
  0
VERTEX
  5
200
100
AcDbEntity
  8
枠_
  6
CONTINUOUS
 62
     6
100
AcDbVertex
100
AcDb2dVertex
 10
1636.121094
 20
1417.518824
 30
0.0
  0
VERTEX
  5
201
100
AcDbEntity
  8
枠_
  6
CONTINUOUS
 62
     6
100
AcDbVertex
100
AcDb2dVertex
 10
1635.691711
 20
1417.35525
 30
0.0
  0
VERTEX
  5
202
100
AcDbEntity
  8
枠_
  6
CONTINUOUS
 62
     6
100
AcDbVertex
100
AcDb2dVertex
 10
1635.287506
 20
1417.169855
 30
0.0
  0
VERTEX
  5
203
100
AcDbEntity
  8
枠_
  6
CONTINUOUS
 62
     6
100
AcDbVertex
100
AcDb2dVertex
 10
1634.912445
 20
1416.964167
 30
0.0
  0
VERTEX
  5
204
100
AcDbEntity
  8
枠_
  6
CONTINUOUS
 62
     6
100
AcDbVertex
100
AcDb2dVertex
 10
1634.568512
 20
1416.739557
 30
0.0
  0
VERTEX
  5
205
100
AcDbEntity
  8
枠_
  6
CONTINUOUS
 62
     6
100
AcDbVertex
100
AcDb2dVertex
 10
1634.258606
 20
1416.498011
 30
0.0
  0
VERTEX
  5
206
100
AcDbEntity
  8
枠_
  6
CONTINUOUS
 62
     6
100
AcDbVertex
100
AcDb2dVertex
 10
1633.985168
 20
1416.241205
 30
0.0
  0
VERTEX
  5
207
100
AcDbEntity
  8
枠_
  6
CONTINUOUS
 62
     6
100
AcDbVertex
100
AcDb2dVertex
 10
1633.750183
 20
1415.971125
 30
0.0
  0
VERTEX
  5
208
100
AcDbEntity
  8
枠_
  6
CONTINUOUS
 62
     6
100
AcDbVertex
100
AcDb2dVertex
 10
1633.555481
 20
1415.689753
 30
0.0
  0
VERTEX
  5
209
100
AcDbEntity
  8
枠_
  6
CONTINUOUS
 62
     6
100
AcDbVertex
100
AcDb2dVertex
 10
1633.401977
 20
1415.399225
 30
0.0
  0
VERTEX
  5
20A
100
AcDbEntity
  8
枠_
  6
CONTINUOUS
 62
     6
100
AcDbVertex
100
AcDb2dVertex
 10
1633.291809
 20
1415.101832
 30
0.0
  0
VERTEX
  5
20B
100
AcDbEntity
  8
枠_
  6
CONTINUOUS
 62
     6
100
AcDbVertex
100
AcDb2dVertex
 10
1633.225433
 20
1414.79986
 30
0.0
  0
VERTEX
  5
20C
100
AcDbEntity
  8
枠_
  6
CONTINUOUS
 62
     6
100
AcDbVertex
100
AcDb2dVertex
 10
1633.203155
 20
1414.495752
 30
0.0
  0
VERTEX
  5
20D
100
AcDbEntity
  8
枠_
  6
CONTINUOUS
 62
     6
100
AcDbVertex
100
AcDb2dVertex
 10
1633.225433
 20
1414.191492
 30
0.0
  0
VERTEX
  5
20E
100
AcDbEntity
  8
枠_
  6
CONTINUOUS
 62
     6
100
AcDbVertex
100
AcDb2dVertex
 10
1633.291962
 20
1413.889521
 30
0.0
  0
VERTEX
  5
20F
100
AcDbEntity
  8
枠_
  6
CONTINUOUS
 62
     6
100
AcDbVertex
100
AcDb2dVertex
 10
1633.401977
 20
1413.591974
 30
0.0
  0
VERTEX
  5
210
100
AcDbEntity
  8
枠_
  6
CONTINUOUS
 62
     6
100
AcDbVertex
100
AcDb2dVertex
 10
1633.555176
 20
1413.3016
 30
0.0
  0
VERTEX
  5
211
100
AcDbEntity
  8
枠_
  6
CONTINUOUS
 62
     6
100
AcDbVertex
100
AcDb2dVertex
 10
1633.749878
 20
1413.020228
 30
0.0
  0
VERTEX
  5
212
100
AcDbEntity
  8
枠_
  6
CONTINUOUS
 62
     6
100
AcDbVertex
100
AcDb2dVertex
 10
1633.985168
 20
1412.750147
 30
0.0
  0
VERTEX
  5
213
100
AcDbEntity
  8
枠_
  6
CONTINUOUS
 62
     6
100
AcDbVertex
100
AcDb2dVertex
 10
1634.258758
 20
1412.493342
 30
0.0
  0
VERTEX
  5
214
100
AcDbEntity
  8
枠_
  6
CONTINUOUS
 62
     6
100
AcDbVertex
100
AcDb2dVertex
 10
1634.568817
 20
1412.251642
 30
0.0
  0
VERTEX
  5
215
100
AcDbEntity
  8
枠_
  6
CONTINUOUS
 62
     6
100
AcDbVertex
100
AcDb2dVertex
 10
1634.912445
 20
1412.027033
 30
0.0
  0
VERTEX
  5
216
100
AcDbEntity
  8
枠_
  6
CONTINUOUS
 62
     6
100
AcDbVertex
100
AcDb2dVertex
 10
1635.287811
 20
1411.821344
 30
0.0
  0
VERTEX
  5
217
100
AcDbEntity
  8
枠_
  6
CONTINUOUS
 62
     6
100
AcDbVertex
100
AcDb2dVertex
 10
1635.691711
 20
1411.63595
 30
0.0
  0
VERTEX
  5
218
100
AcDbEntity
  8
枠_
  6
CONTINUOUS
 62
     6
100
AcDbVertex
100
AcDb2dVertex
 10
1636.121094
 20
1411.472376
 30
0.0
  0
VERTEX
  5
219
100
AcDbEntity
  8
枠_
  6
CONTINUOUS
 62
     6
100
AcDbVertex
100
AcDb2dVertex
 10
1636.572601
 20
1411.331843
 30
0.0
  0
VERTEX
  5
21A
100
AcDbEntity
  8
枠_
  6
CONTINUOUS
 62
     6
100
AcDbVertex
100
AcDb2dVertex
 10
1637.042877
 20
1411.215265
 30
0.0
  0
VERTEX
  5
21B
100
AcDbEntity
  8
枠_
  6
CONTINUOUS
 62
     6
100
AcDbVertex
100
AcDb2dVertex
 10
1637.528717
 20
1411.12356
 30
0.0
  0
VERTEX
  5
21C
100
AcDbEntity
  8
枠_
  6
CONTINUOUS
 62
     6
100
AcDbVertex
100
AcDb2dVertex
 10
1638.025848
 20
1411.057642
 30
0.0
  0
VERTEX
  5
21D
100
AcDbEntity
  8
枠_
  6
CONTINUOUS
 62
     6
100
AcDbVertex
100
AcDb2dVertex
 10
1638.530609
 20
1411.017969
 30
0.0
  0
VERTEX
  5
21E
100
AcDbEntity
  8
枠_
  6
CONTINUOUS
 62
     6
100
AcDbVertex
100
AcDb2dVertex
 10
1639.039337
 20
1411.004694
 30
0.0
  0
VERTEX
  5
21F
100
AcDbEntity
  8
枠_
  6
CONTINUOUS
 62
     6
100
AcDbVertex
100
AcDb2dVertex
 10
1639.547913
 20
1411.017969
 30
0.0
  0
VERTEX
  5
220
100
AcDbEntity
  8
枠_
  6
CONTINUOUS
 62
     6
100
AcDbVertex
100
AcDb2dVertex
 10
1640.052826
 20
1411.057795
 30
0.0
  0
VERTEX
  5
221
100
AcDbEntity
  8
枠_
  6
CONTINUOUS
 62
     6
100
AcDbVertex
100
AcDb2dVertex
 10
1640.549805
 20
1411.12356
 30
0.0
  0
VERTEX
  5
222
100
AcDbEntity
  8
枠_
  6
CONTINUOUS
 62
     6
100
AcDbVertex
100
AcDb2dVertex
 10
1641.035339
 20
1411.215265
 30
0.0
  0
VERTEX
  5
223
100
AcDbEntity
  8
枠_
  6
CONTINUOUS
 62
     6
100
AcDbVertex
100
AcDb2dVertex
 10
1641.505768
 20
1411.331843
 30
0.0
  0
SEQEND
  5
224
100
AcDbEntity
  8
枠_
  6
CONTINUOUS
 62
     6
  0
POLYLINE
  5
225
100
AcDbEntity
  8
枠_
  6
CONTINUOUS
 62
     6
100
AcDb2dPolyline
 66
     1
 10
0.0
 20
0.0
 30
0.0
 70
   128
  0
VERTEX
  5
226
100
AcDbEntity
  8
枠_
  6
CONTINUOUS
 62
     6
100
AcDbVertex
100
AcDb2dVertex
 10
1641.505768
 20
1411.331843
 30
0.0
  0
VERTEX
  5
227
100
AcDbEntity
  8
枠_
  6
CONTINUOUS
 62
     6
100
AcDbVertex
100
AcDb2dVertex
 10
1641.957581
 20
1411.472376
 30
0.0
  0
VERTEX
  5
228
100
AcDbEntity
  8
枠_
  6
CONTINUOUS
 62
     6
100
AcDbVertex
100
AcDb2dVertex
 10
1642.386963
 20
1411.63595
 30
0.0
  0
VERTEX
  5
229
100
AcDbEntity
  8
枠_
  6
CONTINUOUS
 62
     6
100
AcDbVertex
100
AcDb2dVertex
 10
1642.791168
 20
1411.821344
 30
0.0
  0
VERTEX
  5
22A
100
AcDbEntity
  8
枠_
  6
CONTINUOUS
 62
     6
100
AcDbVertex
100
AcDb2dVertex
 10
1643.166077
 20
1412.027033
 30
0.0
  0
VERTEX
  5
22B
100
AcDbEntity
  8
枠_
  6
CONTINUOUS
 62
     6
100
AcDbVertex
100
AcDb2dVertex
 10
1643.51001
 20
1412.251642
 30
0.0
  0
VERTEX
  5
22C
100
AcDbEntity
  8
枠_
  6
CONTINUOUS
 62
     6
100
AcDbVertex
100
AcDb2dVertex
 10
1643.819916
 20
1412.493189
 30
0.0
  0
VERTEX
  5
22D
100
AcDbEntity
  8
枠_
  6
CONTINUOUS
 62
     6
100
AcDbVertex
100
AcDb2dVertex
 10
1644.093506
 20
1412.750147
 30
0.0
  0
VERTEX
  5
22E
100
AcDbEntity
  8
枠_
  6
CONTINUOUS
 62
     6
100
AcDbVertex
100
AcDb2dVertex
 10
1644.328491
 20
1413.020228
 30
0.0
  0
VERTEX
  5
22F
100
AcDbEntity
  8
枠_
  6
CONTINUOUS
 62
     6
100
AcDbVertex
100
AcDb2dVertex
 10
1644.523193
 20
1413.3016
 30
0.0
  0
VERTEX
  5
230
100
AcDbEntity
  8
枠_
  6
CONTINUOUS
 62
     6
100
AcDbVertex
100
AcDb2dVertex
 10
1644.676544
 20
1413.591974
 30
0.0
  0
SEQEND
  5
231
100
AcDbEntity
  8
枠_
  6
CONTINUOUS
 62
     6
  0
POLYLINE
  5
232
100
AcDbEntity
  8
枠_
  6
CONTINUOUS
 62
     6
100
AcDb2dPolyline
 66
     1
 10
0.0
 20
0.0
 30
0.0
 70
   128
  0
VERTEX
  5
233
100
AcDbEntity
  8
枠_
  6
CONTINUOUS
 62
     6
100
AcDbVertex
100
AcDb2dVertex
 10
1644.676544
 20
1413.591974
 30
0.0
  0
VERTEX
  5
234
100
AcDbEntity
  8
枠_
  6
CONTINUOUS
 62
     6
100
AcDbVertex
100
AcDb2dVertex
 10
1644.786713
 20
1413.889368
 30
0.0
  0
VERTEX
  5
235
100
AcDbEntity
  8
枠_
  6
CONTINUOUS
 62
     6
100
AcDbVertex
100
AcDb2dVertex
 10
1644.853088
 20
1414.19134
 30
0.0
  0
VERTEX
  5
236
100
AcDbEntity
  8
枠_
  6
CONTINUOUS
 62
     6
100
AcDbVertex
100
AcDb2dVertex
 10
1644.875519
 20
1414.4956
 30
0.0
  0
SEQEND
  5
237
100
AcDbEntity
  8
枠_
  6
CONTINUOUS
 62
     6
  0
POLYLINE
  5
238
100
AcDbEntity
  8
枠_
  6
CONTINUOUS
 62
     6
100
AcDb2dPolyline
 66
     1
 10
0.0
 20
0.0
 30
0.0
 70
   128
  0
VERTEX
  5
239
100
AcDbEntity
  8
枠_
  6
CONTINUOUS
 62
     6
100
AcDbVertex
100
AcDb2dVertex
 10
1653.289215
 20
1414.495752
 30
0.0
  0
VERTEX
  5
23A
100
AcDbEntity
  8
枠_
  6
CONTINUOUS
 62
     6
100
AcDbVertex
100
AcDb2dVertex
 10
1653.277924
 20
1414.800013
 30
0.0
  0
VERTEX
  5
23B
100
AcDbEntity
  8
枠_
  6
CONTINUOUS
 62
     6
100
AcDbVertex
100
AcDb2dVertex
 10
1653.244354
 20
1415.101984
 30
0.0
  0
VERTEX
  5
23C
100
AcDbEntity
  8
枠_
  6
CONTINUOUS
 62
     6
100
AcDbVertex
100
AcDb2dVertex
 10
1653.188354
 20
1415.399225
 30
0.0
  0
VERTEX
  5
23D
100
AcDbEntity
  8
枠_
  6
CONTINUOUS
 62
     6
100
AcDbVertex
100
AcDb2dVertex
 10
1653.110687
 20
1415.689753
 30
0.0
  0
VERTEX
  5
23E
100
AcDbEntity
  8
枠_
  6
CONTINUOUS
 62
     6
100
AcDbVertex
100
AcDb2dVertex
 10
1653.011963
 20
1415.971125
 30
0.0
  0
VERTEX
  5
23F
100
AcDbEntity
  8
枠_
  6
CONTINUOUS
 62
     6
100
AcDbVertex
100
AcDb2dVertex
 10
1652.893402
 20
1416.241205
 30
0.0
  0
VERTEX
  5
240
100
AcDbEntity
  8
枠_
  6
CONTINUOUS
 62
     6
100
AcDbVertex
100
AcDb2dVertex
 10
1652.754852
 20
1416.498011
 30
0.0
  0
VERTEX
  5
241
100
AcDbEntity
  8
枠_
  6
CONTINUOUS
 62
     6
100
AcDbVertex
100
AcDb2dVertex
 10
1652.597839
 20
1416.73971
 30
0.0
  0
VERTEX
  5
242
100
AcDbEntity
  8
枠_
  6
CONTINUOUS
 62
     6
100
AcDbVertex
100
AcDb2dVertex
 10
1652.423584
 20
1416.964472
 30
0.0
  0
VERTEX
  5
243
100
AcDbEntity
  8
枠_
  6
CONTINUOUS
 62
     6
100
AcDbVertex
100
AcDb2dVertex
 10
1652.23346
 20
1417.17016
 30
0.0
  0
VERTEX
  5
244
100
AcDbEntity
  8
枠_
  6
CONTINUOUS
 62
     6
100
AcDbVertex
100
AcDb2dVertex
 10
1652.028839
 20
1417.355555
 30
0.0
  0
VERTEX
  5
245
100
AcDbEntity
  8
枠_
  6
CONTINUOUS
 62
     6
100
AcDbVertex
100
AcDb2dVertex
 10
1651.811706
 20
1417.519281
 30
0.0
  0
VERTEX
  5
246
100
AcDbEntity
  8
枠_
  6
CONTINUOUS
 62
     6
100
AcDbVertex
100
AcDb2dVertex
 10
1651.582977
 20
1417.659815
 30
0.0
  0
VERTEX
  5
247
100
AcDbEntity
  8
枠_
  6
CONTINUOUS
 62
     6
100
AcDbVertex
100
AcDb2dVertex
 10
1651.344635
 20
1417.776392
 30
0.0
  0
VERTEX
  5
248
100
AcDbEntity
  8
枠_
  6
CONTINUOUS
 62
     6
100
AcDbVertex
100
AcDb2dVertex
 10
1651.099121
 20
1417.867945
 30
0.0
  0
VERTEX
  5
249
100
AcDbEntity
  8
枠_
  6
CONTINUOUS
 62
     6
100
AcDbVertex
100
AcDb2dVertex
 10
1650.847504
 20
1417.933863
 30
0.0
  0
VERTEX
  5
24A
100
AcDbEntity
  8
枠_
  6
CONTINUOUS
 62
     6
100
AcDbVertex
100
AcDb2dVertex
 10
1650.591919
 20
1417.973536
 30
0.0
  0
VERTEX
  5
24B
100
AcDbEntity
  8
枠_
  6
CONTINUOUS
 62
     6
100
AcDbVertex
100
AcDb2dVertex
 10
1650.334351
 20
1417.986963
 30
0.0
  0
VERTEX
  5
24C
100
AcDbEntity
  8
枠_
  6
CONTINUOUS
 62
     6
100
AcDbVertex
100
AcDb2dVertex
 10
1650.076782
 20
1417.973688
 30
0.0
  0
VERTEX
  5
24D
100
AcDbEntity
  8
枠_
  6
CONTINUOUS
 62
     6
100
AcDbVertex
100
AcDb2dVertex
 10
1649.82135
 20
1417.933863
 30
0.0
  0
VERTEX
  5
24E
100
AcDbEntity
  8
枠_
  6
CONTINUOUS
 62
     6
100
AcDbVertex
100
AcDb2dVertex
 10
1649.56958
 20
1417.867945
 30
0.0
  0
VERTEX
  5
24F
100
AcDbEntity
  8
枠_
  6
CONTINUOUS
 62
     6
100
AcDbVertex
100
AcDb2dVertex
 10
1649.323761
 20
1417.776239
 30
0.0
  0
VERTEX
  5
250
100
AcDbEntity
  8
枠_
  6
CONTINUOUS
 62
     6
100
AcDbVertex
100
AcDb2dVertex
 10
1649.085724
 20
1417.659662
 30
0.0
  0
VERTEX
  5
251
100
AcDbEntity
  8
枠_
  6
CONTINUOUS
 62
     6
100
AcDbVertex
100
AcDb2dVertex
 10
1648.856689
 20
1417.519281
 30
0.0
  0
VERTEX
  5
252
100
AcDbEntity
  8
枠_
  6
CONTINUOUS
 62
     6
100
AcDbVertex
100
AcDb2dVertex
 10
1648.639252
 20
1417.355555
 30
0.0
  0
VERTEX
  5
253
100
AcDbEntity
  8
枠_
  6
CONTINUOUS
 62
     6
100
AcDbVertex
100
AcDb2dVertex
 10
1648.434631
 20
1417.17016
 30
0.0
  0
VERTEX
  5
254
100
AcDbEntity
  8
枠_
  6
CONTINUOUS
 62
     6
100
AcDbVertex
100
AcDb2dVertex
 10
1648.244507
 20
1416.964472
 30
0.0
  0
VERTEX
  5
255
100
AcDbEntity
  8
枠_
  6
CONTINUOUS
 62
     6
100
AcDbVertex
100
AcDb2dVertex
 10
1648.070251
 20
1416.739863
 30
0.0
  0
VERTEX
  5
256
100
AcDbEntity
  8
枠_
  6
CONTINUOUS
 62
     6
100
AcDbVertex
100
AcDb2dVertex
 10
1647.913086
 20
1416.498163
 30
0.0
  0
VERTEX
  5
257
100
AcDbEntity
  8
枠_
  6
CONTINUOUS
 62
     6
100
AcDbVertex
100
AcDb2dVertex
 10
1647.775299
 20
1416.241205
 30
0.0
  0
VERTEX
  5
258
100
AcDbEntity
  8
枠_
  6
CONTINUOUS
 62
     6
100
AcDbVertex
100
AcDb2dVertex
 10
1647.65628
 20
1415.970972
 30
0.0
  0
VERTEX
  5
259
100
AcDbEntity
  8
枠_
  6
CONTINUOUS
 62
     6
100
AcDbVertex
100
AcDb2dVertex
 10
1647.557861
 20
1415.6896
 30
0.0
  0
VERTEX
  5
25A
100
AcDbEntity
  8
枠_
  6
CONTINUOUS
 62
     6
100
AcDbVertex
100
AcDb2dVertex
 10
1647.479736
 20
1415.399225
 30
0.0
  0
VERTEX
  5
25B
100
AcDbEntity
  8
枠_
  6
CONTINUOUS
 62
     6
100
AcDbVertex
100
AcDb2dVertex
 10
1647.423889
 20
1415.101832
 30
0.0
  0
VERTEX
  5
25C
100
AcDbEntity
  8
枠_
  6
CONTINUOUS
 62
     6
100
AcDbVertex
100
AcDb2dVertex
 10
1647.390167
 20
1414.79986
 30
0.0
  0
VERTEX
  5
25D
100
AcDbEntity
  8
枠_
  6
CONTINUOUS
 62
     6
100
AcDbVertex
100
AcDb2dVertex
 10
1647.379486
 20
1414.495752
 30
0.0
  0
VERTEX
  5
25E
100
AcDbEntity
  8
枠_
  6
CONTINUOUS
 62
     6
100
AcDbVertex
100
AcDb2dVertex
 10
1647.390778
 20
1414.191492
 30
0.0
  0
VERTEX
  5
25F
100
AcDbEntity
  8
枠_
  6
CONTINUOUS
 62
     6
100
AcDbVertex
100
AcDb2dVertex
 10
1647.424499
 20
1413.889521
 30
0.0
  0
VERTEX
  5
260
100
AcDbEntity
  8
枠_
  6
CONTINUOUS
 62
     6
100
AcDbVertex
100
AcDb2dVertex
 10
1647.479736
 20
1413.591974
 30
0.0
  0
VERTEX
  5
261
100
AcDbEntity
  8
枠_
  6
CONTINUOUS
 62
     6
100
AcDbVertex
100
AcDb2dVertex
 10
1647.557251
 20
1413.301447
 30
0.0
  0
VERTEX
  5
262
100
AcDbEntity
  8
枠_
  6
CONTINUOUS
 62
     6
100
AcDbVertex
100
AcDb2dVertex
 10
1647.65567
 20
1413.020075
 30
0.0
  0
VERTEX
  5
263
100
AcDbEntity
  8
枠_
  6
CONTINUOUS
 62
     6
100
AcDbVertex
100
AcDb2dVertex
 10
1647.775299
 20
1412.749994
 30
0.0
  0
VERTEX
  5
264
100
AcDbEntity
  8
枠_
  6
CONTINUOUS
 62
     6
100
AcDbVertex
100
AcDb2dVertex
 10
1647.913849
 20
1412.493189
 30
0.0
  0
VERTEX
  5
265
100
AcDbEntity
  8
枠_
  6
CONTINUOUS
 62
     6
100
AcDbVertex
100
AcDb2dVertex
 10
1648.071014
 20
1412.25149
 30
0.0
  0
VERTEX
  5
266
100
AcDbEntity
  8
枠_
  6
CONTINUOUS
 62
     6
100
AcDbVertex
100
AcDb2dVertex
 10
1648.244507
 20
1412.02688
 30
0.0
  0
VERTEX
  5
267
100
AcDbEntity
  8
枠_
  6
CONTINUOUS
 62
     6
100
AcDbVertex
100
AcDb2dVertex
 10
1648.434479
 20
1411.821192
 30
0.0
  0
VERTEX
  5
268
100
AcDbEntity
  8
枠_
  6
CONTINUOUS
 62
     6
100
AcDbVertex
100
AcDb2dVertex
 10
1648.638794
 20
1411.635798
 30
0.0
  0
VERTEX
  5
269
100
AcDbEntity
  8
枠_
  6
CONTINUOUS
 62
     6
100
AcDbVertex
100
AcDb2dVertex
 10
1648.856689
 20
1411.472071
 30
0.0
  0
VERTEX
  5
26A
100
AcDbEntity
  8
枠_
  6
CONTINUOUS
 62
     6
100
AcDbVertex
100
AcDb2dVertex
 10
1649.085266
 20
1411.331537
 30
0.0
  0
VERTEX
  5
26B
100
AcDbEntity
  8
枠_
  6
CONTINUOUS
 62
     6
100
AcDbVertex
100
AcDb2dVertex
 10
1649.323303
 20
1411.21496
 30
0.0
  0
VERTEX
  5
26C
100
AcDbEntity
  8
枠_
  6
CONTINUOUS
 62
     6
100
AcDbVertex
100
AcDb2dVertex
 10
1649.56958
 20
1411.123255
 30
0.0
  0
VERTEX
  5
26D
100
AcDbEntity
  8
枠_
  6
CONTINUOUS
 62
     6
100
AcDbVertex
100
AcDb2dVertex
 10
1649.82135
 20
1411.057337
 30
0.0
  0
VERTEX
  5
26E
100
AcDbEntity
  8
枠_
  6
CONTINUOUS
 62
     6
100
AcDbVertex
100
AcDb2dVertex
 10
1650.076935
 20
1411.017664
 30
0.0
  0
VERTEX
  5
26F
100
AcDbEntity
  8
枠_
  6
CONTINUOUS
 62
     6
100
AcDbVertex
100
AcDb2dVertex
 10
1650.334351
 20
1411.004236
 30
0.0
  0
VERTEX
  5
270
100
AcDbEntity
  8
枠_
  6
CONTINUOUS
 62
     6
100
AcDbVertex
100
AcDb2dVertex
 10
1650.591919
 20
1411.017511
 30
0.0
  0
VERTEX
  5
271
100
AcDbEntity
  8
枠_
  6
CONTINUOUS
 62
     6
100
AcDbVertex
100
AcDb2dVertex
 10
1650.847504
 20
1411.057337
 30
0.0
  0
VERTEX
  5
272
100
AcDbEntity
  8
枠_
  6
CONTINUOUS
 62
     6
100
AcDbVertex
100
AcDb2dVertex
 10
1651.099121
 20
1411.123255
 30
0.0
  0
VERTEX
  5
273
100
AcDbEntity
  8
枠_
  6
CONTINUOUS
 62
     6
100
AcDbVertex
100
AcDb2dVertex
 10
1651.34494
 20
1411.21496
 30
0.0
  0
VERTEX
  5
274
100
AcDbEntity
  8
枠_
  6
CONTINUOUS
 62
     6
100
AcDbVertex
100
AcDb2dVertex
 10
1651.58313
 20
1411.331537
 30
0.0
  0
SEQEND
  5
275
100
AcDbEntity
  8
枠_
  6
CONTINUOUS
 62
     6
  0
POLYLINE
  5
276
100
AcDbEntity
  8
枠_
  6
CONTINUOUS
 62
     6
100
AcDb2dPolyline
 66
     1
 10
0.0
 20
0.0
 30
0.0
 70
   128
  0
VERTEX
  5
277
100
AcDbEntity
  8
枠_
  6
CONTINUOUS
 62
     6
100
AcDbVertex
100
AcDb2dVertex
 10
1651.58313
 20
1411.331537
 30
0.0
  0
VERTEX
  5
278
100
AcDbEntity
  8
枠_
  6
CONTINUOUS
 62
     6
100
AcDbVertex
100
AcDb2dVertex
 10
1651.811706
 20
1411.472071
 30
0.0
  0
VERTEX
  5
279
100
AcDbEntity
  8
枠_
  6
CONTINUOUS
 62
     6
100
AcDbVertex
100
AcDb2dVertex
 10
1652.028992
 20
1411.635798
 30
0.0
  0
VERTEX
  5
27A
100
AcDbEntity
  8
枠_
  6
CONTINUOUS
 62
     6
100
AcDbVertex
100
AcDb2dVertex
 10
1652.23346
 20
1411.821192
 30
0.0
  0
VERTEX
  5
27B
100
AcDbEntity
  8
枠_
  6
CONTINUOUS
 62
     6
100
AcDbVertex
100
AcDb2dVertex
 10
1652.423584
 20
1412.02688
 30
0.0
  0
VERTEX
  5
27C
100
AcDbEntity
  8
枠_
  6
CONTINUOUS
 62
     6
100
AcDbVertex
100
AcDb2dVertex
 10
1652.597687
 20
1412.25149
 30
0.0
  0
VERTEX
  5
27D
100
AcDbEntity
  8
枠_
  6
CONTINUOUS
 62
     6
100
AcDbVertex
100
AcDb2dVertex
 10
1652.754547
 20
1412.493189
 30
0.0
  0
VERTEX
  5
27E
100
AcDbEntity
  8
枠_
  6
CONTINUOUS
 62
     6
100
AcDbVertex
100
AcDb2dVertex
 10
1652.893402
 20
1412.749994
 30
0.0
  0
VERTEX
  5
27F
100
AcDbEntity
  8
枠_
  6
CONTINUOUS
 62
     6
100
AcDbVertex
100
AcDb2dVertex
 10
1653.012421
 20
1413.020228
 30
0.0
  0
VERTEX
  5
280
100
AcDbEntity
  8
枠_
  6
CONTINUOUS
 62
     6
100
AcDbVertex
100
AcDb2dVertex
 10
1653.110992
 20
1413.3016
 30
0.0
  0
VERTEX
  5
281
100
AcDbEntity
  8
枠_
  6
CONTINUOUS
 62
     6
100
AcDbVertex
100
AcDb2dVertex
 10
1653.188354
 20
1413.591974
 30
0.0
  0
SEQEND
  5
282
100
AcDbEntity
  8
枠_
  6
CONTINUOUS
 62
     6
  0
POLYLINE
  5
283
100
AcDbEntity
  8
枠_
  6
CONTINUOUS
 62
     6
100
AcDb2dPolyline
 66
     1
 10
0.0
 20
0.0
 30
0.0
 70
   128
  0
VERTEX
  5
284
100
AcDbEntity
  8
枠_
  6
CONTINUOUS
 62
     6
100
AcDbVertex
100
AcDb2dVertex
 10
1653.188354
 20
1413.591974
 30
0.0
  0
VERTEX
  5
285
100
AcDbEntity
  8
枠_
  6
CONTINUOUS
 62
     6
100
AcDbVertex
100
AcDb2dVertex
 10
1653.244049
 20
1413.889368
 30
0.0
  0
VERTEX
  5
286
100
AcDbEntity
  8
枠_
  6
CONTINUOUS
 62
     6
100
AcDbVertex
100
AcDb2dVertex
 10
1653.277466
 20
1414.19134
 30
0.0
  0
VERTEX
  5
287
100
AcDbEntity
  8
枠_
  6
CONTINUOUS
 62
     6
100
AcDbVertex
100
AcDb2dVertex
 10
1653.288605
 20
1414.4956
 30
0.0
  0
SEQEND
  5
288
100
AcDbEntity
  8
枠_
  6
CONTINUOUS
 62
     6
  0
LINE
  5
289
100
AcDbEntity
  8
枠_
  6
CONTINUOUS
 62
     6
100
AcDbLine
 10
1634.289123
 20
1423.620508
 30
0.0
 11
1634.289123
 21
1433.620508
 31
0.0
  0
LINE
  5
28A
100
AcDbEntity
  8
枠_
  6
CONTINUOUS
 62
     6
100
AcDbLine
 10
1643.789246
 20
1423.620508
 30
0.0
 11
1643.789246
 21
1433.620508
 31
0.0
  0
ARC
  5
28B
100
AcDbEntity
  8
枠_
  6
CONTINUOUS
 62
     6
100
AcDbCircle
 10
1639.039185
 20
1431.536615
 30
0.0
 40
17.083893
100
AcDbArc
 50
65.811432
 51
114.188568
  0
LINE
  5
28C
100
AcDbEntity
  8
枠_
  6
CONTINUOUS
 62
     6
100
AcDbLine
 10
1632.039215
 20
1444.620569
 30
0.0
 11
1646.039154
 21
1444.620569
 31
0.0
  0
LINE
  5
28D
100
AcDbEntity
  8
枠_
  6
CONTINUOUS
 62
     6
100
AcDbLine
 10
1632.039215
 20
1447.120569
 30
0.0
 11
1646.039154
 21
1447.120569
 31
0.0
  0
LINE
  5
28E
100
AcDbEntity
  8
枠_
  6
CONTINUOUS
 62
     6
100
AcDbLine
 10
1608.039123
 20
1433.620508
 30
0.0
 11
1657.539246
 21
1433.620508
 31
0.0
  0
ARC
  5
28F
100
AcDbEntity
  8
枠_
  6
CONTINUOUS
 62
     6
100
AcDbCircle
 10
1651.002533
 20
1437.62472
 30
0.0
 40
6.000073
100
AcDbArc
 50
6.999768
 51
78.842346
  0
LINE
  5
290
100
AcDbEntity
  8
枠_
  6
CONTINUOUS
 62
     6
100
AcDbLine
 10
1657.539246
 20
1433.620508
 30
0.0
 11
1656.957886
 21
1438.355921
 31
0.0
  0
ARC
  5
291
100
AcDbEntity
  8
枠_
  6
CONTINUOUS
 62
     6
100
AcDbCircle
 10
1613.460876
 20
1247.291773
 30
0.0
 40
199.999847
100
AcDbArc
 50
78.842133
 51
80.625183
  0
ARC
  5
292
100
AcDbEntity
  8
枠_
  6
CONTINUOUS
 62
     6
100
AcDbCircle
 10
1614.534485
 20
1437.287806
 30
0.0
 40
6.000053
100
AcDbArc
 50
96.938187
 51
172.998627
  0
ARC
  5
293
100
AcDbEntity
  8
枠_
  6
CONTINUOUS
 62
     6
100
AcDbCircle
 10
1637.96878
 20
1244.70846
 30
0.0
 40
200.0
100
AcDbArc
 50
91.699005
 51
96.938034
  0
LINE
  5
294
100
AcDbEntity
  8
枠_
  6
CONTINUOUS
 62
     6
100
AcDbLine
 10
1608.039123
 20
1433.620508
 30
0.0
 11
1608.579132
 21
1438.019159
 31
0.0
  0
LINE
  5
295
100
AcDbEntity
  8
枠_
  6
CONTINUOUS
 62
     6
100
AcDbLine
 10
1646.039154
 20
1447.120569
 30
0.0
 11
1646.039154
 21
1444.620569
 31
0.0
  0
LINE
  5
296
100
AcDbEntity
  8
枠_
  6
CONTINUOUS
 62
     6
100
AcDbLine
 10
1632.039215
 20
1447.120569
 30
0.0
 11
1632.039215
 21
1444.620569
 31
0.0
  0
LINE
  5
297
100
AcDbEntity
  8
枠_
  6
CONTINUOUS
 62
     6
100
AcDbLine
 10
1580.274414
 20
1399.970673
 30
0.0
 11
1584.569544
 21
1396.889173
 31
0.0
  0
ARC
  5
298
100
AcDbEntity
  8
枠_
  6
CONTINUOUS
 62
     6
100
AcDbCircle
 10
1590.858568
 20
1446.916613
 30
0.0
 40
50.421191
100
AcDbArc
 50
262.83485
 51
277.16515
  0
LINE
  5
299
100
AcDbEntity
  8
枠_
  6
CONTINUOUS
 62
     6
100
AcDbLine
 10
1580.274414
 20
1399.970673
 30
0.0
 11
1584.972902
 21
1409.522775
 31
0.0
  0
ARC
  5
29A
100
AcDbEntity
  8
枠_
  6
CONTINUOUS
 62
     6
100
AcDbCircle
 10
1594.152968
 20
1405.007285
 30
0.0
 40
10.230506
100
AcDbArc
 50
71.777841
 51
153.808349
  0
LINE
  5
29B
100
AcDbEntity
  8
枠_
  6
CONTINUOUS
 62
     6
100
AcDbLine
 10
1585.491997
 20
1396.78183
 30
0.0
 11
1588.827757
 21
1403.563485
 31
0.0
  0
LINE
  5
29C
100
AcDbEntity
  8
枠_
  6
CONTINUOUS
 62
     6
100
AcDbLine
 10
1627.03952
 20
1410.720575
 30
0.0
 11
1627.03952
 21
1408.720606
 31
0.0
  0
LINE
  5
29D
100
AcDbEntity
  8
枠_
  6
CONTINUOUS
 62
     6
100
AcDbLine
 10
1627.03952
 20
1408.720606
 30
0.0
 11
1626.351552
 21
1405.847467
 31
0.0
  0
LINE
  5
29E
100
AcDbEntity
  8
枠_
  6
CONTINUOUS
 62
     6
100
AcDbLine
 10
1597.147591
 20
1396.889173
 30
0.0
 11
1599.002108
 21
1400.659436
 31
0.0
  0
ARC
  5
29F
100
AcDbEntity
  8
枠_
  6
CONTINUOUS
 62
     6
100
AcDbCircle
 10
1592.330999
 20
1401.84031
 30
0.0
 40
3.904105
100
AcDbArc
 50
41.318164
 51
153.808349
  0
LINE
  5
2A0
100
AcDbEntity
  8
枠_
  6
CONTINUOUS
 62
     6
100
AcDbLine
 10
1627.03952
 20
1410.184009
 30
0.0
 11
1619.353505
 21
1413.130134
 31
0.0
  0
LINE
  5
2A1
100
AcDbEntity
  8
枠_
  6
CONTINUOUS
 62
     6
100
AcDbLine
 10
1594.152968
 20
1415.237791
 30
0.0
 11
1608.653849
 21
1415.237791
 31
0.0
  0
ARC
  5
2A2
100
AcDbEntity
  8
枠_
  6
CONTINUOUS
 62
     6
100
AcDbCircle
 10
1607.966253
 20
1383.42243
 30
0.0
 40
31.815361
100
AcDbArc
 50
69.027684
 51
90.0
  0
LINE
  5
2A3
100
AcDbEntity
  8
枠_
  6
CONTINUOUS
 62
     6
100
AcDbLine
 10
1623.89199
 20
1404.551733
 30
0.0
 11
1597.35207
 21
1414.724743
 31
0.0
  0
ARC
  5
2A4
100
AcDbEntity
  8
枠_
  6
CONTINUOUS
 62
     6
100
AcDbCircle
 10
1624.553672
 20
1406.277966
 30
0.0
 40
1.848703
100
AcDbArc
 50
249.027684
 51
346.534166
  0
LINE
  5
2A5
100
AcDbEntity
  8
枠_
  6
CONTINUOUS
 62
     6
100
AcDbLine
 10
1602.65582
 20
1396.986562
 30
0.0
 11
1594.923946
 21
1404.758984
 31
0.0
  0
LINE
  5
2A6
100
AcDbEntity
  8
枠_
  6
CONTINUOUS
 62
     6
100
AcDbLine
 10
1651.039459
 20
1408.720606
 30
0.0
 11
1651.963115
 21
1404.862891
 31
0.0
  0
TEXT
  5
2A7
100
AcDbEntity
  8
枠_
  6
CONTINUOUS
 62
     2
100
AcDbText
 10
1266.0
 20
614.469971
 30
0.0
 40
40.0
  1
Ｆ．Ｌ
 41
0.833
  7
EXCADSTD
 72
     5
 11
1385.0
 21
614.469971
 31
0.0
100
AcDbText
  0
LINE
  5
2A8
100
AcDbEntity
  8
枠_
  6
CONTINUOUS
 62
     7
100
AcDbLine
 10
1704.039185
 20
610.969971
 30
0.0
 11
1704.039185
 21
1697.291229
 31
0.0
  0
LINE
  5
2A9
100
AcDbEntity
  8
枠_
  6
CONTINUOUS
 62
     6
100
AcDbLine
 10
1243.00293
 20
2157.636353
 30
0.0
 11
1943.00293
 21
2157.636353
 31
0.0
  0
LINE
  5
2AA
100
AcDbEntity
  8
枠_
  6
CONTINUOUS
 62
     6
100
AcDbLine
 10
1243.00293
 20
2092.636353
 30
0.0
 11
1943.00293
 21
2092.636353
 31
0.0
  0
LINE
  5
2AB
100
AcDbEntity
  8
枠_
  6
CONTINUOUS
 62
     6
100
AcDbLine
 10
1573.00293
 20
2157.636658
 30
0.0
 11
1573.00293
 21
2092.636963
 31
0.0
  0
LINE
  5
2AC
100
AcDbEntity
  8
枠_
  6
CONTINUOUS
 62
     6
100
AcDbLine
 10
1853.00293
 20
2157.636658
 30
0.0
 11
1853.00293
 21
2092.636963
 31
0.0
  0
LINE
  5
2AD
100
AcDbEntity
  8
枠_
  6
CONTINUOUS
 62
     6
100
AcDbLine
 10
1943.00293
 20
2157.636658
 30
0.0
 11
1943.00293
 21
2092.636963
 31
0.0
  0
LINE
  5
2AE
100
AcDbEntity
  8
枠_
  6
CONTINUOUS
 62
     6
100
AcDbLine
 10
1243.00293
 20
2157.636658
 30
0.0
 11
1243.00293
 21
2092.636963
 31
0.0
  0
TEXT
  5
2AF
100
AcDbEntity
  8
枠_
  6
CONTINUOUS
 62
     2
100
AcDbText
 10
1878.00293
 20
2101.0177
 30
0.0
 40
47.5
  1
１
 41
0.834695
  7
EXCADSTD
 72
     5
 11
1915.762928
 21
2101.0177
 31
0.0
100
AcDbText
  0
TEXT
  5
2B0
100
AcDbEntity
  8
枠_
  6
CONTINUOUS
 62
     2
100
AcDbText
 10
1245.986786
 20
2100.116821
 30
0.0
 40
50.0
  1
ＮＬ２００Ｙ
 41
0.644
  7
EXCADSTD
 72
     5
 11
1475.986785
 21
2100.116821
 31
0.0
100
AcDbText
  0
TEXT
  5
2B1
100
AcDbEntity
  8
枠_
  6
CONTINUOUS
 62
     2
100
AcDbText
 10
1576.921387
 20
2098.417603
 30
0.0
 40
50.0
  1
ストレート形止水栓（共用形）
 41
0.3312
  7
EXCADSTD
 72
     5
 11
1852.921408
 21
2098.417603
 31
0.0
100
AcDbText
  0
TEXT
  5
2B2
100
AcDbEntity
  8
枠_
  6
CONTINUOUS
 62
     2
100
AcDbText
 10
1245.986786
 20
2165.117126
 30
0.0
 40
50.0
  1
ストレート形止水栓の場合
 41
0.6328
  7
EXCADSTD
 72
     5
 11
1697.986785
 21
2165.117126
 31
0.0
100
AcDbText
  0
LEADER
  5
2B3
100
AcDbEntity
  8
洗面器
  6
CONTINUOUS
 62
     6
100
AcDbLeader
  3
STANDARD
 73
     3
 74
     1
 75
     0
 40
0.0
 76
     2
 10
607.114886
 20
1394.681892
 30
0.0
 10
559.086365
 20
1490.953186
 30
0.0
 77
     6
1001
ACAD
1000
DSTYLE
1002
{
1070
    41
1040
35.0
1070
     5
1000
_EX_NORM
1070
     6
1000
_EX_NORM
1070
     7
1000
_EX_NORM
1070
   341
1005
2C
1002
}
  0
POLYLINE
  5
2B4
100
AcDbEntity
  8
洗面器
  6
CONTINUOUS
 62
     3
100
AcDb2dPolyline
 66
     1
 10
0.0
 20
0.0
 30
0.0
 70
   128
  0
VERTEX
  5
2B5
100
AcDbEntity
  8
洗面器
  6
CONTINUOUS
 62
     3
100
AcDbVertex
100
AcDb2dVertex
 10
719.270386
 20
1519.009064
 30
0.0
  0
VERTEX
  5
2B6
100
AcDbEntity
  8
洗面器
  6
CONTINUOUS
 62
     3
100
AcDbVertex
100
AcDb2dVertex
 10
685.463013
 20
1509.950378
 30
0.0
  0
VERTEX
  5
2B7
100
AcDbEntity
  8
洗面器
  6
CONTINUOUS
 62
     3
100
AcDbVertex
100
AcDb2dVertex
 10
719.270386
 20
1500.891693
 30
0.0
  0
SEQEND
  5
2B8
100
AcDbEntity
  8
洗面器
  6
CONTINUOUS
 62
     3
  0
LINE
  5
2B9
100
AcDbEntity
  8
洗面器
  6
CONTINUOUS
 62
     3
100
AcDbLine
 10
685.463013
 20
1509.950378
 30
0.0
 11
800.463013
 21
1509.950378
 31
0.0
  0
POLYLINE
  5
2BA
100
AcDbEntity
  8
洗面器
  6
CONTINUOUS
 62
     3
100
AcDb2dPolyline
 66
     1
 10
0.0
 20
0.0
 30
0.0
 70
   128
  0
VERTEX
  5
2BB
100
AcDbEntity
  8
洗面器
  6
CONTINUOUS
 62
     3
100
AcDbVertex
100
AcDb2dVertex
 10
766.65564
 20
1500.891693
 30
0.0
  0
VERTEX
  5
2BC
100
AcDbEntity
  8
洗面器
  6
CONTINUOUS
 62
     3
100
AcDbVertex
100
AcDb2dVertex
 10
800.463013
 20
1509.950378
 30
0.0
  0
VERTEX
  5
2BD
100
AcDbEntity
  8
洗面器
  6
CONTINUOUS
 62
     3
100
AcDbVertex
100
AcDb2dVertex
 10
766.65564
 20
1519.009064
 30
0.0
  0
SEQEND
  5
2BE
100
AcDbEntity
  8
洗面器
  6
CONTINUOUS
 62
     3
  0
TEXT
  5
2BF
100
AcDbEntity
  8
洗面器
  6
CONTINUOUS
 62
     2
100
AcDbText
 10
686.283325
 20
1514.950684
 30
0.0
 40
40.0
  1
１１５
 41
0.833
  7
EXCADSTD
 72
     5
 11
805.283325
 21
1514.950684
 31
0.0
100
AcDbText
  0
LINE
  5
2C0
100
AcDbEntity
  8
洗面器
  6
CONTINUOUS
 62
     3
100
AcDbLine
 10
952.694458
 20
1528.5
 30
0.0
 11
952.694458
 21
1226.968506
 31
0.0
  0
CIRCLE
  5
2C1
100
AcDbEntity
  8
洗面器
  6
CONTINUOUS
 62
     6
100
AcDbCircle
 10
610.463013
 20
1387.970703
 30
0.0
 40
7.5
  0
LINE
  5
2C2
100
AcDbEntity
  8
洗面器
  6
CONTINUOUS
 62
     7
100
AcDbLine
 10
717.963013
 20
1202.970703
 30
0.0
 11
652.963013
 21
1202.970703
 31
0.0
  0
ARC
  5
2C3
100
AcDbEntity
  8
洗面器
  6
CONTINUOUS
 62
     7
100
AcDbCircle
 10
533.653334
 20
1302.970703
 30
0.0
 40
10.0
100
AcDbArc
 50
270.0
 51
303.739003
  0
ARC
  5
2C4
100
AcDbEntity
  8
洗面器
  6
CONTINUOUS
 62
     7
100
AcDbCircle
 10
508.584074
 20
1302.970703
 30
0.0
 40
10.0
100
AcDbArc
 50
215.653557
 51
270.0
  0
ARC
  5
2C5
100
AcDbEntity
  8
洗面器
  6
CONTINUOUS
 62
     7
100
AcDbCircle
 10
565.463013
 20
1343.772496
 30
0.0
 40
80.0
100
AcDbArc
 50
180.0
 51
215.653557
  0
LINE
  5
2C6
100
AcDbEntity
  8
洗面器
  6
CONTINUOUS
 62
     7
100
AcDbLine
 10
533.653334
 20
1292.970703
 30
0.0
 11
508.584074
 21
1292.970703
 31
0.0
  0
LINE
  5
2C7
100
AcDbEntity
  8
洗面器
  6
CONTINUOUS
 62
     7
100
AcDbLine
 10
485.463013
 20
1376.757951
 30
0.0
 11
485.463013
 21
1343.772496
 31
0.0
  0
ARC
  5
2C8
100
AcDbEntity
  8
洗面器
  6
CONTINUOUS
 62
     7
100
AcDbCircle
 10
829.714886
 20
1362.963698
 30
0.0
 40
50.0
100
AcDbArc
 50
53.923939
 51
87.679854
  0
LINE
  5
2C9
100
AcDbEntity
  8
洗面器
  6
CONTINUOUS
 62
     7
100
AcDbLine
 10
650.100069
 20
1205.553184
 30
0.0
 11
646.643562
 21
1230.147507
 31
0.0
  0
ARC
  5
2CA
100
AcDbEntity
  8
洗面器
  6
CONTINUOUS
 62
     7
100
AcDbCircle
 10
653.070873
 20
1205.970703
 30
0.0
 40
3.0
100
AcDbArc
 50
188.0
 51
270.0
  0
ARC
  5
2CB
100
AcDbEntity
  8
洗面器
  6
CONTINUOUS
 62
     7
100
AcDbCircle
 10
713.150504
 20
1425.993886
 30
0.0
 40
200.0
100
AcDbArc
 50
217.979337
 51
248.119125
  0
ARC
  5
2CC
100
AcDbEntity
  8
洗面器
  6
CONTINUOUS
 62
     7
100
AcDbCircle
 10
569.835706
 20
1248.797451
 30
0.0
 40
55.145263
100
AcDbArc
 50
104.455486
 51
123.739003
  0
ARC
  5
2CD
100
AcDbEntity
  8
洗面器
  6
CONTINUOUS
 62
     7
100
AcDbCircle
 10
539.739302
 20
1290.610892
 30
0.0
 40
20.0
100
AcDbArc
 50
37.979337
 51
90.0
  0
ARC
  5
2CE
100
AcDbEntity
  8
洗面器
  6
CONTINUOUS
 62
     7
100
AcDbCircle
 10
633.770077
 20
1228.338257
 30
0.0
 40
13.0
100
AcDbArc
 50
8.0
 51
68.119125
  0
ARC
  5
2CF
100
AcDbEntity
  8
洗面器
  6
CONTINUOUS
 62
     7
100
AcDbCircle
 10
717.855152
 20
1205.970703
 30
0.0
 40
3.0
100
AcDbArc
 50
270.0
 51
352.0
  0
ARC
  5
2D0
100
AcDbEntity
  8
洗面器
  6
CONTINUOUS
 62
     7
100
AcDbCircle
 10
495.451575
 20
1383.804051
 30
0.0
 40
9.78076
100
AcDbArc
 50
176.621468
 51
258.672065
  0
ARC
  5
2D1
100
AcDbEntity
  8
洗面器
  6
CONTINUOUS
 62
     7
100
AcDbCircle
 10
506.064679
 20
1436.783008
 30
0.0
 40
63.812305
100
AcDbArc
 50
258.672065
 51
270.0
  0
ARC
  5
2D2
100
AcDbEntity
  8
洗面器
  6
CONTINUOUS
 62
     7
100
AcDbCircle
 10
853.269235
 20
1395.293137
 30
0.0
 40
10.0
100
AcDbArc
 50
2.078193
 51
53.923939
  0
ARC
  5
2D3
100
AcDbEntity
  8
洗面器
  6
CONTINUOUS
 62
     7
100
AcDbCircle
 10
541.211139
 20
1362.963698
 30
0.0
 40
50.0
100
AcDbArc
 50
92.320146
 51
126.076061
  0
ARC
  5
2D4
100
AcDbEntity
  8
洗面器
  6
CONTINUOUS
 62
     7
100
AcDbCircle
 10
517.656791
 20
1395.293137
 30
0.0
 40
10.0
100
AcDbArc
 50
126.076061
 51
177.921807
  0
LINE
  5
2D5
100
AcDbEntity
  8
洗面器
  6
CONTINUOUS
 62
     7
100
AcDbLine
 10
507.663368
 20
1395.655771
 30
0.0
 11
507.663368
 21
1384.470703
 31
0.0
  0
ARC
  5
2D6
100
AcDbEntity
  8
洗面器
  6
CONTINUOUS
 62
     7
100
AcDbCircle
 10
519.163368
 20
1384.470703
 30
0.0
 40
11.5
100
AcDbArc
 50
180.0
 51
270.0
  0
LINE
  5
2D7
100
AcDbEntity
  8
洗面器
  6
EXLTYPE3
 62
     6
100
AcDbLine
 10
610.463013
 20
1397.570703
 30
0.0
 11
610.463013
 21
1375.670703
 31
0.0
  0
LINE
  5
2D8
100
AcDbEntity
  8
洗面器
  6
EXLTYPE3
 62
     6
100
AcDbLine
 10
622.763013
 20
1387.970703
 30
0.0
 11
598.663013
 21
1387.970703
 31
0.0
  0
ARC
  5
2D9
100
AcDbEntity
  8
洗面器
  6
CONTINUOUS
 62
     7
100
AcDbCircle
 10
505.462195
 20
1394.382872
 30
0.0
 40
18.587831
100
AcDbArc
 50
90.0
 51
170.843387
  0
ARC
  5
2DA
100
AcDbEntity
  8
洗面器
  6
CONTINUOUS
 62
     7
100
AcDbCircle
 10
614.80631
 20
1376.757951
 30
0.0
 40
129.343298
100
AcDbArc
 50
170.843387
 51
180.0
  0
ARC
  5
2DB
100
AcDbEntity
  8
洗面器
  6
CONTINUOUS
 62
     7
100
AcDbCircle
 10
865.463831
 20
1394.382872
 30
0.0
 40
18.587831
100
AcDbArc
 50
9.156613
 51
90.0
  0
LINE
  5
2DC
100
AcDbEntity
  8
洗面器
  6
CONTINUOUS
 62
     7
100
AcDbLine
 10
851.762657
 20
1372.970703
 30
0.0
 11
504.2949
 21
1372.970703
 31
0.0
  0
LINE
  5
2DD
100
AcDbEntity
  8
洗面器
  6
CONTINUOUS
 62
     6
100
AcDbLine
 10
598.0
 20
1387.970703
 30
0.0
 11
624.6
 21
1387.970703
 31
0.0
  0
ARC
  5
2DE
100
AcDbEntity
  8
洗面器
  6
CONTINUOUS
 62
     7
100
AcDbCircle
 10
837.272691
 20
1302.970703
 30
0.0
 40
10.0
100
AcDbArc
 50
236.260997
 51
270.0
  0
ARC
  5
2DF
100
AcDbEntity
  8
洗面器
  6
CONTINUOUS
 62
     7
100
AcDbCircle
 10
862.341951
 20
1302.970703
 30
0.0
 40
10.0
100
AcDbArc
 50
270.0
 51
324.346443
  0
ARC
  5
2E0
100
AcDbEntity
  8
洗面器
  6
CONTINUOUS
 62
     7
100
AcDbCircle
 10
805.463013
 20
1343.772496
 30
0.0
 40
80.0
100
AcDbArc
 50
324.346443
 51
0.0
  0
LINE
  5
2E1
100
AcDbEntity
  8
洗面器
  6
CONTINUOUS
 62
     7
100
AcDbLine
 10
837.272691
 20
1292.970703
 30
0.0
 11
862.341951
 21
1292.970703
 31
0.0
  0
LINE
  5
2E2
100
AcDbEntity
  8
洗面器
  6
CONTINUOUS
 62
     7
100
AcDbLine
 10
885.463013
 20
1376.757951
 30
0.0
 11
885.463013
 21
1343.772496
 31
0.0
  0
ARC
  5
2E3
100
AcDbEntity
  8
洗面器
  6
CONTINUOUS
 62
     7
100
AcDbCircle
 10
801.090319
 20
1248.797451
 30
0.0
 40
55.145263
100
AcDbArc
 50
56.260997
 51
75.544514
  0
ARC
  5
2E4
100
AcDbEntity
  8
洗面器
  6
CONTINUOUS
 62
     7
100
AcDbCircle
 10
831.186723
 20
1290.610892
 30
0.0
 40
20.0
100
AcDbArc
 50
90.0
 51
142.020663
  0
ARC
  5
2E5
100
AcDbEntity
  8
洗面器
  6
CONTINUOUS
 62
     7
100
AcDbCircle
 10
875.474451
 20
1383.804051
 30
0.0
 40
9.78076
100
AcDbArc
 50
281.327935
 51
3.378532
  0
ARC
  5
2E6
100
AcDbEntity
  8
洗面器
  6
CONTINUOUS
 62
     7
100
AcDbCircle
 10
864.861346
 20
1436.783008
 30
0.0
 40
63.812305
100
AcDbArc
 50
270.0
 51
281.327935
  0
ARC
  5
2E7
100
AcDbEntity
  8
洗面器
  6
CONTINUOUS
 62
     7
100
AcDbCircle
 10
829.714886
 20
1362.963698
 30
0.0
 40
50.0
100
AcDbArc
 50
53.923939
 51
87.679854
  0
ARC
  5
2E8
100
AcDbEntity
  8
洗面器
  6
CONTINUOUS
 62
     7
100
AcDbCircle
 10
853.269235
 20
1395.293137
 30
0.0
 40
10.0
100
AcDbArc
 50
2.078193
 51
53.923939
  0
LINE
  5
2E9
100
AcDbEntity
  8
洗面器
  6
CONTINUOUS
 62
     7
100
AcDbLine
 10
863.262657
 20
1395.655771
 30
0.0
 11
863.262657
 21
1384.470703
 31
0.0
  0
ARC
  5
2EA
100
AcDbEntity
  8
洗面器
  6
CONTINUOUS
 62
     7
100
AcDbCircle
 10
851.762657
 20
1384.470703
 30
0.0
 40
11.5
100
AcDbArc
 50
270.0
 51
0.0
  0
ARC
  5
2EB
100
AcDbEntity
  8
洗面器
  6
CONTINUOUS
 62
     7
100
AcDbCircle
 10
865.463831
 20
1394.382872
 30
0.0
 40
18.587831
100
AcDbArc
 50
9.156613
 51
90.0
  0
ARC
  5
2EC
100
AcDbEntity
  8
洗面器
  6
CONTINUOUS
 62
     7
100
AcDbCircle
 10
756.119715
 20
1376.757951
 30
0.0
 40
129.343298
100
AcDbArc
 50
0.0
 51
9.156613
  0
ARC
  5
2ED
100
AcDbEntity
  8
洗面器
  6
CONTINUOUS
 62
     7
100
AcDbCircle
 10
657.775521
 20
1425.993886
 30
0.0
 40
200.0
100
AcDbArc
 50
291.880875
 51
322.020663
  0
ARC
  5
2EE
100
AcDbEntity
  8
洗面器
  6
CONTINUOUS
 62
     7
100
AcDbCircle
 10
737.155948
 20
1228.338257
 30
0.0
 40
13.0
100
AcDbArc
 50
111.880875
 51
172.0
  0
LINE
  5
2EF
100
AcDbEntity
  8
洗面器
  6
CONTINUOUS
 62
     7
100
AcDbLine
 10
720.825957
 20
1205.553184
 30
0.0
 11
724.282463
 21
1230.147507
 31
0.0
  0
ARC
  5
2F0
100
AcDbEntity
  8
洗面器
  6
CONTINUOUS
 62
     7
100
AcDbCircle
 10
685.463013
 20
4652.659214
 30
0.0
 40
3284.688511
100
AcDbArc
 50
266.807052
 51
273.130948
  0
ARC
  5
2F1
100
AcDbEntity
  8
洗面器
  6
CONTINUOUS
 62
     7
100
AcDbCircle
 10
685.463013
 20
-2682.529297
 30
0.0
 40
4002.5
100
AcDbArc
 50
87.211264
 51
92.788736
  0
CIRCLE
  5
2F2
100
AcDbEntity
  8
洗面器
  6
CONTINUOUS
 62
     6
100
AcDbCircle
 10
760.463013
 20
1387.970703
 30
0.0
 40
7.5
  0
LINE
  5
2F3
100
AcDbEntity
  8
洗面器
  6
EXLTYPE3
 62
     6
100
AcDbLine
 10
760.463013
 20
1397.570703
 30
0.0
 11
760.463013
 21
1375.670703
 31
0.0
  0
LINE
  5
2F4
100
AcDbEntity
  8
洗面器
  6
EXLTYPE3
 62
     6
100
AcDbLine
 10
748.163013
 20
1387.970703
 30
0.0
 11
772.263013
 21
1387.970703
 31
0.0
  0
LINE
  5
2F5
100
AcDbEntity
  8
洗面器
  6
CONTINUOUS
 62
     6
100
AcDbLine
 10
772.926025
 20
1387.970703
 30
0.0
 11
746.326025
 21
1387.970703
 31
0.0
  0
LINE
  5
2F6
100
AcDbEntity
  8
洗面器
  6
CONTINUOUS
 62
     7
100
AcDbLine
 10
745.617307
 20
1412.970703
 30
0.0
 11
505.462195
 21
1412.970703
 31
0.0
  0
LINE
  5
2F7
100
AcDbEntity
  8
洗面器
  6
CONTINUOUS
 62
     7
100
AcDbLine
 10
865.463831
 20
1412.970703
 30
0.0
 11
815.462967
 21
1412.970703
 31
0.0
  0
LINE
  5
2F8
100
AcDbEntity
  8
洗面器
  6
CONTINUOUS
 62
     3
100
AcDbLine
 10
685.463013
 20
1416.970703
 30
0.0
 11
685.463013
 21
1529.950378
 31
0.0
  0
LINE
  5
2F9
100
AcDbEntity
  8
洗面器
  6
CONTINUOUS
 62
     3
100
AcDbLine
 10
800.463013
 20
1368.0
 30
0.0
 11
800.463013
 21
1529.950378
 31
0.0
  0
LINE
  5
2FA
100
AcDbEntity
  8
洗面器
  6
CONTINUOUS
 62
     2
100
AcDbLine
 10
721.663013
 20
1239.570703
 30
0.0
 11
649.263013
 21
1239.570703
 31
0.0
  0
LINE
  5
2FB
100
AcDbEntity
  8
洗面器
  6
CONTINUOUS
 62
     7
100
AcDbLine
 10
500.463013
 20
2515.355713
 30
0.0
 11
870.463013
 21
2515.355713
 31
0.0
  0
ARC
  5
2FC
100
AcDbEntity
  8
洗面器
  6
CONTINUOUS
 62
     7
100
AcDbCircle
 10
685.463013
 20
2795.355713
 30
0.0
 40
600.0
100
AcDbArc
 50
254.973886
 51
285.026114
  0
LINE
  5
2FD
100
AcDbEntity
  8
洗面器
  6
CONTINUOUS
 62
     7
100
AcDbLine
 10
870.463013
 20
2515.355713
 30
0.0
 11
885.345837
 21
2277.567501
 31
0.0
  0
ARC
  5
2FE
100
AcDbEntity
  8
洗面器
  6
CONTINUOUS
 62
     7
100
AcDbCircle
 10
685.463013
 20
2535.355713
 30
0.0
 40
300.0
100
AcDbArc
 50
247.975687
 51
292.619865
  0
ARC
  5
2FF
100
AcDbEntity
  8
洗面器
  6
CONTINUOUS
 62
     7
100
AcDbCircle
 10
595.463013
 20
2312.869758
 30
0.0
 40
60.0
100
AcDbArc
 50
180.0
 51
247.975687
  0
ARC
  5
300
100
AcDbEntity
  8
洗面器
  6
CONTINUOUS
 62
     7
100
AcDbCircle
 10
676.537445
 20
2312.869758
 30
0.0
 40
141.074433
100
AcDbArc
 50
107.973084
 51
180.0
  0
ARC
  5
301
100
AcDbEntity
  8
洗面器
  6
CONTINUOUS
 62
     7
100
AcDbCircle
 10
685.463013
 20
2285.355713
 30
0.0
 40
170.0
100
AcDbArc
 50
72.026916
 51
107.973084
  0
ARC
  5
302
100
AcDbEntity
  8
洗面器
  6
CONTINUOUS
 62
     7
100
AcDbCircle
 10
775.463013
 20
2312.869758
 30
0.0
 40
60.0
100
AcDbArc
 50
292.024313
 51
0.0
  0
LINE
  5
303
100
AcDbEntity
  8
洗面器
  6
CONTINUOUS
 62
     7
100
AcDbLine
 10
501.967556
 20
2312.306207
 30
0.0
 11
514.804808
 21
2443.13849
 31
0.0
  0
LINE
  5
304
100
AcDbEntity
  8
洗面器
  6
CONTINUOUS
 62
     7
100
AcDbLine
 10
868.95847
 20
2312.306207
 30
0.0
 11
856.121218
 21
2443.13849
 31
0.0
  0
LINE
  5
305
100
AcDbEntity
  8
洗面器
  6
CONTINUOUS
 62
     7
100
AcDbLine
 10
564.565844
 20
2488.255942
 30
0.0
 11
806.360182
 21
2488.255942
 31
0.0
  0
ARC
  5
306
100
AcDbEntity
  8
洗面器
  6
CONTINUOUS
 62
     7
100
AcDbCircle
 10
564.565844
 20
2438.255942
 30
0.0
 40
50.0
100
AcDbArc
 50
90.0
 51
174.396081
  0
ARC
  5
307
100
AcDbEntity
  8
洗面器
  6
CONTINUOUS
 62
     7
100
AcDbCircle
 10
806.360182
 20
2438.255942
 30
0.0
 40
50.0
100
AcDbArc
 50
5.603919
 51
90.0
  0
LINE
  5
308
100
AcDbEntity
  8
洗面器
  6
CONTINUOUS
 62
     7
100
AcDbLine
 10
500.463013
 20
2515.355713
 30
0.0
 11
485.580188
 21
2277.567501
 31
0.0
  0
ARC
  5
309
100
AcDbEntity
  8
洗面器
  6
CONTINUOUS
 62
     7
100
AcDbCircle
 10
825.463013
 20
2273.81952
 30
0.0
 40
60.0
100
AcDbArc
 50
285.026114
 51
3.581389
  0
ARC
  5
30A
100
AcDbEntity
  8
洗面器
  6
CONTINUOUS
 62
     7
100
AcDbCircle
 10
545.463013
 20
2273.81952
 30
0.0
 40
60.0
100
AcDbArc
 50
176.418611
 51
254.973886
  0
LINE
  5
30B
100
AcDbEntity
  8
洗面器
  6
EXLTYPE3
 62
     6
100
AcDbLine
 10
685.463013
 20
2524.055713
 30
0.0
 11
685.463013
 21
2188.355713
 31
0.0
  0
CIRCLE
  5
30C
100
AcDbEntity
  8
洗面器
  6
CONTINUOUS
 62
     6
100
AcDbCircle
 10
685.463013
 20
2370.355713
 30
0.0
 40
17.5
  0
CIRCLE
  5
30D
100
AcDbEntity
  8
洗面器
  6
CONTINUOUS
 62
     6
100
AcDbCircle
 10
685.463013
 20
2370.355713
 30
0.0
 40
26.99997
  0
LINE
  5
30E
100
AcDbEntity
  8
洗面器
  6
CONTINUOUS
 62
     6
100
AcDbLine
 10
645.463013
 20
2370.355713
 30
0.0
 11
681.571869
 21
2370.355713
 31
0.0
  0
CIRCLE
  5
30F
100
AcDbEntity
  8
洗面器
  6
CONTINUOUS
 62
     6
100
AcDbCircle
 10
685.463013
 20
2370.355713
 30
0.0
 40
3.000031
  0
ARC
  5
310
100
AcDbEntity
  8
洗面器
  6
CONTINUOUS
 62
     6
100
AcDbCircle
 10
685.463013
 20
2377.55542
 30
0.0
 40
7.199972
100
AcDbArc
 50
294.051636
 51
245.948364
  0
ARC
  5
311
100
AcDbEntity
  8
洗面器
  6
CONTINUOUS
 62
     6
100
AcDbCircle
 10
685.463013
 20
2377.55542
 30
0.0
 40
8.400059
100
AcDbArc
 50
290.361038
 51
249.63887
  0
LINE
  5
312
100
AcDbEntity
  8
洗面器
  6
CONTINUOUS
 62
     6
100
AcDbLine
 10
688.823151
 20
2370.355713
 30
0.0
 11
725.463013
 21
2370.355713
 31
0.0
  0
CIRCLE
  5
313
100
AcDbEntity
  8
洗面器
  6
CONTINUOUS
 62
     6
100
AcDbCircle
 10
687.372803
 20
2387.184326
 30
0.0
 40
1.750031
  0
CIRCLE
  5
314
100
AcDbEntity
  8
洗面器
  6
CONTINUOUS
 62
     6
100
AcDbCircle
 10
687.735504
 20
2391.354248
 30
0.0
 40
1.750031
  0
CIRCLE
  5
315
100
AcDbEntity
  8
洗面器
  6
CONTINUOUS
 62
     6
100
AcDbCircle
 10
686.82898
 20
2396.066162
 30
0.0
 40
1.750031
  0
CIRCLE
  5
316
100
AcDbEntity
  8
洗面器
  6
CONTINUOUS
 62
     6
100
AcDbCircle
 10
684.291138
 20
2399.874756
 30
0.0
 40
1.750031
  0
CIRCLE
  5
317
100
AcDbEntity
  8
洗面器
  6
CONTINUOUS
 62
     6
100
AcDbCircle
 10
680.121674
 20
2401.866943
 30
0.0
 40
1.750031
  0
CIRCLE
  5
318
100
AcDbEntity
  8
洗面器
  6
CONTINUOUS
 62
     6
100
AcDbCircle
 10
676.858582
 20
2404.950439
 30
0.0
 40
1.750031
  0
CIRCLE
  5
319
100
AcDbEntity
  8
洗面器
  6
CONTINUOUS
 62
     6
100
AcDbCircle
 10
672.507996
 20
2405.675537
 30
0.0
 40
1.750031
  0
CIRCLE
  5
31A
100
AcDbEntity
  8
洗面器
  6
CONTINUOUS
 62
     6
100
AcDbCircle
 10
615.463013
 20
2465.355713
 30
0.0
 40
6.99997
  0
ARC
  5
31B
100
AcDbEntity
  8
洗面器
  6
CONTINUOUS
 62
     6
100
AcDbCircle
 10
615.463013
 20
2465.355713
 30
0.0
 40
5.00003
100
AcDbArc
 50
36.874435
 51
143.125565
  0
LINE
  5
31C
100
AcDbEntity
  8
洗面器
  6
CONTINUOUS
 62
     6
100
AcDbLine
 10
611.463074
 20
2468.356201
 30
0.0
 11
611.463074
 21
2462.355225
 31
0.0
  0
ARC
  5
31D
100
AcDbEntity
  8
洗面器
  6
CONTINUOUS
 62
     6
100
AcDbCircle
 10
615.463013
 20
2465.355713
 30
0.0
 40
5.00003
100
AcDbArc
 50
216.874435
 51
323.125565
  0
ARC
  5
31E
100
AcDbEntity
  8
洗面器
  6
CONTINUOUS
 62
     6
100
AcDbCircle
 10
615.463013
 20
2458.156006
 30
0.0
 40
8.400022
100
AcDbArc
 50
118.432846
 51
61.567139
  0
ARC
  5
31F
100
AcDbEntity
  8
洗面器
  6
CONTINUOUS
 62
     6
100
AcDbCircle
 10
615.463013
 20
2458.156006
 30
0.0
 40
7.200036
100
AcDbArc
 50
123.749695
 51
56.250488
  0
CIRCLE
  5
320
100
AcDbEntity
  8
洗面器
  6
CONTINUOUS
 62
     6
100
AcDbCircle
 10
614.792389
 20
2450.118896
 30
0.0
 40
1.750031
  0
LINE
  5
321
100
AcDbEntity
  8
洗面器
  6
CONTINUOUS
 62
     6
100
AcDbLine
 10
619.462952
 20
2468.356201
 30
0.0
 11
619.462952
 21
2462.355225
 31
0.0
  0
CIRCLE
  5
322
100
AcDbEntity
  8
洗面器
  6
CONTINUOUS
 62
     6
100
AcDbCircle
 10
620.846924
 20
2429.452393
 30
0.0
 40
1.750031
  0
CIRCLE
  5
323
100
AcDbEntity
  8
洗面器
  6
CONTINUOUS
 62
     6
100
AcDbCircle
 10
619.578003
 20
2433.439209
 30
0.0
 40
1.750031
  0
CIRCLE
  5
324
100
AcDbEntity
  8
洗面器
  6
CONTINUOUS
 62
     6
100
AcDbCircle
 10
618.127655
 20
2437.428467
 30
0.0
 40
1.750031
  0
CIRCLE
  5
325
100
AcDbEntity
  8
洗面器
  6
CONTINUOUS
 62
     6
100
AcDbCircle
 10
617.221283
 20
2441.598389
 30
0.0
 40
1.750031
  0
CIRCLE
  5
326
100
AcDbEntity
  8
洗面器
  6
CONTINUOUS
 62
     6
100
AcDbCircle
 10
616.858734
 20
2446.129639
 30
0.0
 40
1.750031
  0
CIRCLE
  5
327
100
AcDbEntity
  8
洗面器
  6
CONTINUOUS
 62
     6
100
AcDbCircle
 10
622.863013
 20
2425.7
 30
0.0
 40
1.750031
  0
CIRCLE
  5
328
100
AcDbEntity
  8
洗面器
  6
CONTINUOUS
 62
     6
100
AcDbCircle
 10
664.518799
 20
2398.241455
 30
0.0
 40
1.750031
  0
CIRCLE
  5
329
100
AcDbEntity
  8
洗面器
  6
CONTINUOUS
 62
     6
100
AcDbCircle
 10
663.249725
 20
2394.254639
 30
0.0
 40
1.750031
  0
CIRCLE
  5
32A
100
AcDbEntity
  8
洗面器
  6
CONTINUOUS
 62
     6
100
AcDbCircle
 10
661.618256
 20
2390.265381
 30
0.0
 40
1.750031
  0
CIRCLE
  5
32B
100
AcDbEntity
  8
洗面器
  6
CONTINUOUS
 62
     6
100
AcDbCircle
 10
659.986786
 20
2386.095459
 30
0.0
 40
1.750031
  0
CIRCLE
  5
32C
100
AcDbEntity
  8
洗面器
  6
CONTINUOUS
 62
     6
100
AcDbCircle
 10
658.173889
 20
2382.469971
 30
0.0
 40
1.750031
  0
CIRCLE
  5
32D
100
AcDbEntity
  8
洗面器
  6
CONTINUOUS
 62
     6
100
AcDbCircle
 10
656.361145
 20
2379.027588
 30
0.0
 40
1.750031
  0
CIRCLE
  5
32E
100
AcDbEntity
  8
洗面器
  6
CONTINUOUS
 62
     6
100
AcDbCircle
 10
653.098053
 20
2375.763428
 30
0.0
 40
1.750031
  0
CIRCLE
  5
32F
100
AcDbEntity
  8
洗面器
  6
CONTINUOUS
 62
     6
100
AcDbCircle
 10
649.29129
 20
2376.669189
 30
0.0
 40
1.750031
  0
CIRCLE
  5
330
100
AcDbEntity
  8
洗面器
  6
CONTINUOUS
 62
     6
100
AcDbCircle
 10
646.753296
 20
2380.114014
 30
0.0
 40
1.750031
  0
CIRCLE
  5
331
100
AcDbEntity
  8
洗面器
  6
CONTINUOUS
 62
     6
100
AcDbCircle
 10
646.028198
 20
2384.4646
 30
0.0
 40
1.750031
  0
CIRCLE
  5
332
100
AcDbEntity
  8
洗面器
  6
CONTINUOUS
 62
     6
100
AcDbCircle
 10
647.297119
 20
2388.634521
 30
0.0
 40
1.750031
  0
CIRCLE
  5
333
100
AcDbEntity
  8
洗面器
  6
CONTINUOUS
 62
     6
100
AcDbCircle
 10
648.928741
 20
2392.804443
 30
0.0
 40
1.750031
  0
CIRCLE
  5
334
100
AcDbEntity
  8
洗面器
  6
CONTINUOUS
 62
     6
100
AcDbCircle
 10
649.653839
 20
2397.516357
 30
0.0
 40
1.750031
  0
CIRCLE
  5
335
100
AcDbEntity
  8
洗面器
  6
CONTINUOUS
 62
     6
100
AcDbCircle
 10
649.110016
 20
2402.230713
 30
0.0
 40
1.750031
  0
CIRCLE
  5
336
100
AcDbEntity
  8
洗面器
  6
CONTINUOUS
 62
     6
100
AcDbCircle
 10
669.038922
 20
2404.401416
 30
0.0
 40
1.750031
  0
CIRCLE
  5
337
100
AcDbEntity
  8
洗面器
  6
CONTINUOUS
 62
     6
100
AcDbCircle
 10
666.682355
 20
2401.392822
 30
0.0
 40
1.750031
  0
CIRCLE
  5
338
100
AcDbEntity
  8
洗面器
  6
CONTINUOUS
 62
     6
100
AcDbCircle
 10
625.353296
 20
2422.118701
 30
0.0
 40
1.750031
  0
CIRCLE
  5
339
100
AcDbEntity
  8
洗面器
  6
CONTINUOUS
 62
     6
100
AcDbCircle
 10
627.559668
 20
2418.551221
 30
0.0
 40
1.750031
  0
CIRCLE
  5
33A
100
AcDbEntity
  8
洗面器
  6
CONTINUOUS
 62
     6
100
AcDbCircle
 10
630.159668
 20
2415.151221
 30
0.0
 40
1.750031
  0
CIRCLE
  5
33B
100
AcDbEntity
  8
洗面器
  6
CONTINUOUS
 62
     6
100
AcDbCircle
 10
634.359668
 20
2413.151221
 30
0.0
 40
1.750031
  0
CIRCLE
  5
33C
100
AcDbEntity
  8
洗面器
  6
CONTINUOUS
 62
     6
100
AcDbCircle
 10
638.059668
 20
2410.951221
 30
0.0
 40
1.750031
  0
CIRCLE
  5
33D
100
AcDbEntity
  8
洗面器
  6
CONTINUOUS
 62
     6
100
AcDbCircle
 10
641.856627
 20
2407.904128
 30
0.0
 40
1.750031
  0
CIRCLE
  5
33E
100
AcDbEntity
  8
洗面器
  6
CONTINUOUS
 62
     6
100
AcDbCircle
 10
644.813288
 20
2405.315099
 30
0.0
 40
1.750031
  0
LINE
  5
33F
100
AcDbEntity
  8
洗面器
  6
EXLTYPE3
 62
     6
100
AcDbLine
 10
762.363013
 20
2450.355713
 30
0.0
 11
835.163013
 21
2450.355713
 31
0.0
  0
ARC
  5
340
100
AcDbEntity
  8
洗面器
  6
CONTINUOUS
 62
     7
100
AcDbCircle
 10
694.38858
 20
2312.869758
 30
0.0
 40
141.074433
100
AcDbArc
 50
59.424459
 51
72.026916
  0
ARC
  5
341
100
AcDbEntity
  8
洗面器
  6
CONTINUOUS
 62
     7
100
AcDbCircle
 10
694.38858
 20
2312.869758
 30
0.0
 40
141.074433
100
AcDbArc
 50
0.0
 51
48.494384
  0
ARC
  5
342
100
AcDbEntity
  8
洗面器
  6
CONTINUOUS
 62
     6
100
AcDbCircle
 10
610.463437
 20
2488.75643
 30
0.0
 40
7.499933
100
AcDbArc
 50
183.826324
 51
356.173676
  0
ARC
  5
343
100
AcDbEntity
  8
洗面器
  6
CONTINUOUS
 62
     6
100
AcDbCircle
 10
637.388825
 20
2525.02722
 30
0.0
 40
30.0
100
AcDbArc
 50
153.834961
 51
173.821533
  0
ARC
  5
344
100
AcDbEntity
  8
洗面器
  6
CONTINUOUS
 62
     6
100
AcDbCircle
 10
583.537201
 20
2525.02722
 30
0.0
 40
30.0
100
AcDbArc
 50
6.178467
 51
26.165039
  0
LINE
  5
345
100
AcDbEntity
  8
洗面器
  6
CONTINUOUS
 62
     6
100
AcDbLine
 10
613.362946
 20
2515.355713
 30
0.0
 11
613.362946
 21
2528.25598
 31
0.0
  0
LINE
  5
346
100
AcDbEntity
  8
洗面器
  6
CONTINUOUS
 62
     6
100
AcDbLine
 10
607.56308
 20
2515.355713
 30
0.0
 11
607.56308
 21
2528.25598
 31
0.0
  0
ARC
  5
347
100
AcDbEntity
  8
洗面器
  6
CONTINUOUS
 62
     6
100
AcDbCircle
 10
760.462588
 20
2488.75643
 30
0.0
 40
7.499933
100
AcDbArc
 50
183.826324
 51
356.173676
  0
ARC
  5
348
100
AcDbEntity
  8
洗面器
  6
CONTINUOUS
 62
     6
100
AcDbCircle
 10
733.537201
 20
2525.02722
 30
0.0
 40
30.0
100
AcDbArc
 50
6.178467
 51
26.165039
  0
ARC
  5
349
100
AcDbEntity
  8
洗面器
  6
CONTINUOUS
 62
     6
100
AcDbCircle
 10
787.388825
 20
2525.02722
 30
0.0
 40
30.0
100
AcDbArc
 50
153.834961
 51
173.821533
  0
LINE
  5
34A
100
AcDbEntity
  8
洗面器
  6
CONTINUOUS
 62
     6
100
AcDbLine
 10
757.56308
 20
2515.355713
 30
0.0
 11
757.56308
 21
2528.25598
 31
0.0
  0
LINE
  5
34B
100
AcDbEntity
  8
洗面器
  6
CONTINUOUS
 62
     6
100
AcDbLine
 10
763.362946
 20
2515.355713
 30
0.0
 11
763.362946
 21
2528.25598
 31
0.0
  0
LINE
  5
34C
100
AcDbEntity
  8
洗面器
  6
EXLTYPE3
 62
     6
100
AcDbLine
 10
800.463013
 20
2483.0
 30
0.0
 11
800.463013
 21
2412.5
 31
0.0
  0
LINE
  5
34D
100
AcDbEntity
  8
洗面器
  6
EXLTYPE3
 62
     6
100
AcDbLine
 10
760.0
 20
1135.969971
 30
0.0
 11
841.0
 21
1135.969971
 31
0.0
  0
ARC
  5
34E
100
AcDbEntity
  8
洗面器
  6
CONTINUOUS
 62
     6
100
AcDbCircle
 10
1713.710691
 20
1414.896515
 30
0.0
 40
30.0
100
AcDbArc
 50
276.178467
 51
296.165039
  0
ARC
  5
34F
100
AcDbEntity
  8
洗面器
  6
CONTINUOUS
 62
     6
100
AcDbCircle
 10
1713.710691
 20
1361.044891
 30
0.0
 40
30.0
100
AcDbArc
 50
63.834961
 51
83.821533
  0
LINE
  5
350
100
AcDbEntity
  8
洗面器
  6
CONTINUOUS
 62
     6
100
AcDbLine
 10
1704.039185
 20
1390.870636
 30
0.0
 11
1716.939451
 21
1390.870636
 31
0.0
  0
LINE
  5
351
100
AcDbEntity
  8
洗面器
  6
CONTINUOUS
 62
     6
100
AcDbLine
 10
1704.039185
 20
1385.07077
 30
0.0
 11
1716.939451
 21
1385.07077
 31
0.0
  0
LINE
  5
352
100
AcDbEntity
  8
洗面器
  6
CONTINUOUS
 62
     7
100
AcDbLine
 10
1591.539185
 20
1202.970703
 30
0.0
 11
1526.539185
 21
1202.970703
 31
0.0
  0
ARC
  5
353
100
AcDbEntity
  8
洗面器
  6
CONTINUOUS
 62
     7
100
AcDbCircle
 10
1526.647045
 20
1205.970703
 30
0.0
 40
3.0
100
AcDbArc
 50
188.0
 51
270.0
  0
ARC
  5
354
100
AcDbEntity
  8
洗面器
  6
CONTINUOUS
 62
     7
100
AcDbCircle
 10
1598.536712
 20
1202.294636
 30
0.0
 40
5.0
100
AcDbArc
 50
102.821833
 51
152.644608
  0
ARC
  5
355
100
AcDbEntity
  8
洗面器
  6
CONTINUOUS
 62
     7
100
AcDbCircle
 10
1591.431324
 20
1205.970703
 30
0.0
 40
3.0
100
AcDbArc
 50
270.0
 51
332.644608
  0
ARC
  5
356
100
AcDbEntity
  8
洗面器
  6
CONTINUOUS
 62
     7
100
AcDbCircle
 10
1526.647045
 20
1205.970703
 30
0.0
 40
3.0
100
AcDbArc
 50
188.0
 51
270.0
  0
ARC
  5
357
100
AcDbEntity
  8
洗面器
  6
CONTINUOUS
 62
     7
100
AcDbCircle
 10
1648.711404
 20
1507.942029
 30
0.0
 40
302.5
100
AcDbArc
 50
237.802219
 51
243.455574
  0
LINE
  5
358
100
AcDbEntity
  8
洗面器
  6
CONTINUOUS
 62
     7
100
AcDbLine
 10
1523.676241
 20
1205.553184
 30
0.0
 11
1520.59059
 21
1227.508728
 31
0.0
  0
ARC
  5
359
100
AcDbEntity
  8
洗面器
  6
CONTINUOUS
 62
     7
100
AcDbCircle
 10
1572.781204
 20
1387.356562
 30
0.0
 40
160.0
100
AcDbArc
 50
206.432231
 51
237.802219
  0
LINE
  5
35A
100
AcDbEntity
  8
洗面器
  6
CONTINUOUS
 62
     7
100
AcDbLine
 10
1680.839083
 20
1409.708189
 30
0.0
 11
1704.039185
 21
1412.970703
 31
0.0
  0
ARC
  5
35B
100
AcDbEntity
  8
洗面器
  6
CONTINUOUS
 62
     7
100
AcDbCircle
 10
838.620338
 20
6338.266739
 30
0.0
 40
5000.0
100
AcDbArc
 50
276.313805
 51
279.695653
  0
LINE
  5
35C
100
AcDbEntity
  8
洗面器
  6
CONTINUOUS
 62
     7
100
AcDbLine
 10
1384.082315
 20
1362.969312
 30
0.0
 11
1389.304202
 21
1323.470678
 31
0.0
  0
ARC
  5
35D
100
AcDbEntity
  8
洗面器
  6
CONTINUOUS
 62
     7
100
AcDbCircle
 10
1394.261072
 20
1324.125998
 30
0.0
 40
5.0
100
AcDbArc
 50
187.531072
 51
265.177092
  0
ARC
  5
35E
100
AcDbEntity
  8
洗面器
  6
CONTINUOUS
 62
     7
100
AcDbCircle
 10
1389.039185
 20
1363.624632
 30
0.0
 40
5.0
100
AcDbArc
 50
98.004729
 51
187.531072
  0
ARC
  5
35F
100
AcDbEntity
  8
洗面器
  6
CONTINUOUS
 62
     7
100
AcDbCircle
 10
1754.82641
 20
1121.830143
 30
0.0
 40
150.0
100
AcDbArc
 50
109.790475
 51
129.466308
  0
LINE
  5
360
100
AcDbEntity
  8
洗面器
  6
CONTINUOUS
 62
     7
100
AcDbLine
 10
1393.84069
 20
1319.143701
 30
0.0
 11
1704.039185
 21
1292.970703
 31
0.0
  0
ARC
  5
361
100
AcDbEntity
  8
洗面器
  6
CONTINUOUS
 62
     7
100
AcDbCircle
 10
1507.717105
 20
1225.699478
 30
0.0
 40
13.0
100
AcDbArc
 50
8.0
 51
63.455574
  0
LINE
  5
362
100
AcDbEntity
  8
洗面器
  6
CONTINUOUS
 62
     2
100
AcDbLine
 10
1593.239185
 20
1206.200279
 30
0.0
 11
1563.639185
 21
1206.200279
 31
0.0
  0
LINE
  5
363
100
AcDbEntity
  8
洗面器
  6
CONTINUOUS
 62
     2
100
AcDbLine
 10
1647.402813
 20
1294.725196
 30
0.0
 11
1647.572862
 21
1297.735049
 31
0.0
  0
LINE
  5
364
100
AcDbEntity
  8
洗面器
  6
CONTINUOUS
 62
     2
100
AcDbLine
 10
1569.700104
 20
1239.570703
 30
0.0
 11
1525.139185
 21
1239.570703
 31
0.0
  0
ARC
  5
365
100
AcDbEntity
  8
洗面器
  6
CONTINUOUS
 62
     2
100
AcDbCircle
 10
1569.700104
 20
1526.857051
 30
0.0
 40
287.286348
100
AcDbArc
 50
270.0
 51
275.066847
  0
ARC
  5
366
100
AcDbEntity
  8
洗面器
  6
CONTINUOUS
 62
     2
100
AcDbCircle
 10
1589.994363
 20
1297.968631
 30
0.0
 40
57.5
100
AcDbArc
 50
275.066847
 51
312.472803
  0
ARC
  5
367
100
AcDbEntity
  8
洗面器
  6
CONTINUOUS
 62
     2
100
AcDbCircle
 10
1589.994363
 20
1297.968631
 30
0.0
 40
57.5
100
AcDbArc
 50
346.441044
 51
356.766368
  0
ARC
  5
368
100
AcDbEntity
  8
洗面器
  6
CONTINUOUS
 62
     7
100
AcDbCircle
 10
1564.1391
 20
1353.429689
 30
0.0
 40
150.0
100
AcDbArc
 50
282.821833
 51
289.139822
  0
ARC
  5
369
100
AcDbEntity
  8
洗面器
  6
CONTINUOUS
 62
     7
100
AcDbCircle
 10
1564.1391
 20
1353.429689
 30
0.0
 40
150.0
100
AcDbArc
 50
297.183617
 51
309.466308
  0
LINE
  5
36A
100
AcDbEntity
  8
洗面器
  6
EXLTYPE3
 62
     6
100
AcDbLine
 10
1559.039185
 20
576.0
 30
0.0
 11
1559.039185
 21
1216.0
 31
0.0
  0
LINE
  5
36B
100
AcDbEntity
  8
洗面器
  6
EXLTYPE3
 62
     6
100
AcDbLine
 10
711.866364
 20
582.8
 30
0.0
 11
711.866364
 21
656.0
 31
0.0
  0
TEXT
  5
36C
100
AcDbEntity
  8
洗面器
  6
CONTINUOUS
 62
     2
100
AcDbText
 10
347.086548
 20
1495.953186
 30
0.0
 40
40.0
  1
ＮＴ７Ａ（２）
 41
0.696
  7
EXCADSTD
 72
     5
 11
579.086547
 21
1495.953186
 31
0.0
100
AcDbText
  0
LINE
  5
36D
100
AcDbEntity
  8
洗面器
  6
CONTINUOUS
 62
     6
100
AcDbLine
 10
352.0
 20
1490.953186
 30
0.0
 11
559.086365
 21
1490.953186
 31
0.0
  0
DIMENSION
  5
37A
100
AcDbEntity
  8
洗面器
  6
CONTINUOUS
 62
     2
100
AcDbDimension
  2
*D14
 10
952.694458
 20
610.969971
 30
0.0
 11
927.694458
 21
873.469971
 31
0.0
 70
   160
  3
STANDARD
100
AcDbAlignedDimension
 13
841.0
 23
1135.969971
 33
0.0
 14
946.0
 24
610.969971
 34
0.0
 50
90.0
100
AcDbRotatedDimension
1001
ACAD
1000
DSTYLE
1002
{
1070
     6
1000
_EX_NORM
1070
     7
1000
_EX_NORM
1070
    41
1040
30.0
1070
    42
1040
7.0
1070
    44
1040
10.0
1070
    73
1070
     0
1070
    74
1070
     0
1070
    75
1070
     0
1070
    76
1070
     0
1070
    77
1070
     1
1070
    78
1070
     8
1070
   140
1040
40.0
1070
   147
1040
5.0
1070
   173
1070
     1
1070
   176
1070
     3
1070
   177
1070
     3
1070
   178
1070
     2
1070
   271
1070
     1
1070
   279
1070
     2
1070
   280
1070
     0
1070
   287
1070
     5
1070
   340
1005
379
1002
}
  0
LEADER
  5
37B
100
AcDbEntity
  8
水栓
  6
CONTINUOUS
 62
     6
100
AcDbLeader
  3
STANDARD
 73
     3
 74
     1
 75
     0
 40
0.0
 76
     2
 10
1610.530217
 20
1441.756192
 30
0.0
 10
1526.241923
 20
1517.506662
 30
0.0
 77
     6
1001
ACAD
1000
DSTYLE
1002
{
1070
    41
1040
35.0
1070
     5
1000
_EX_NORM
1070
     6
1000
_EX_NORM
1070
     7
1000
_EX_NORM
1070
   341
1005
2C
1002
}
  0
CIRCLE
  5
37C
100
AcDbEntity
  8
水栓
  6
CONTINUOUS
 62
     6
100
AcDbCircle
 10
800.463013
 20
2450.355713
 30
0.0
 40
5.500031
  0
CIRCLE
  5
37D
100
AcDbEntity
  8
水栓
  6
CONTINUOUS
 62
     6
100
AcDbCircle
 10
800.463013
 20
2450.355713
 30
0.0
 40
6.99997
  0
ARC
  5
37E
100
AcDbEntity
  8
水栓
  6
CONTINUOUS
 62
     6
100
AcDbCircle
 10
800.463013
 20
2450.355713
 30
0.0
 40
20.000038
100
AcDbArc
 50
298.338077
 51
9.662317
  0
ARC
  5
37F
100
AcDbEntity
  8
水栓
  6
CONTINUOUS
 62
     6
100
AcDbCircle
 10
800.463165
 20
2450.355977
 30
0.0
 40
19.999981
100
AcDbArc
 50
58.336955
 51
129.662702
  0
LINE
  5
380
100
AcDbEntity
  8
水栓
  6
CONTINUOUS
 62
     6
100
AcDbLine
 10
738.029876
 20
2399.943263
 30
0.0
 11
758.200491
 21
2420.113862
 31
0.0
  0
ARC
  5
381
100
AcDbEntity
  8
水栓
  6
CONTINUOUS
 62
     6
100
AcDbCircle
 10
592.03045
 20
2586.283894
 30
0.0
 40
235.0
100
AcDbArc
 50
315.000017
 51
324.226947
  0
ARC
  5
382
100
AcDbEntity
  8
水栓
  6
CONTINUOUS
 62
     6
100
AcDbCircle
 10
936.392177
 20
2241.923829
 30
0.0
 40
235.0
100
AcDbArc
 50
127.169912
 51
135.000046
  0
LINE
  5
383
100
AcDbEntity
  8
水栓
  6
CONTINUOUS
 62
     6
100
AcDbLine
 10
750.050647
 20
2387.922357
 30
0.0
 11
770.222136
 21
2408.093861
 31
0.0
  0
ARC
  5
384
100
AcDbEntity
  8
水栓
  6
CONTINUOUS
 62
     6
100
AcDbCircle
 10
658.356882
 20
2512.249848
 30
0.0
 40
134.999924
100
AcDbArc
 50
315.000034
 51
333.534806
  0
LINE
  5
385
100
AcDbEntity
  8
水栓
  6
CONTINUOUS
 62
     6
100
AcDbLine
 10
738.90257
 20
2401.876871
 30
0.0
 11
753.816291
 21
2416.790529
 31
0.0
  0
ARC
  5
386
100
AcDbEntity
  8
水栓
  6
CONTINUOUS
 62
     6
100
AcDbCircle
 10
741.023952
 20
2399.755619
 30
0.0
 40
2.999996
100
AcDbArc
 50
135.001785
 51
203.427322
  0
ARC
  5
387
100
AcDbEntity
  8
水栓
  6
CONTINUOUS
 62
     6
100
AcDbCircle
 10
756.622346
 20
2406.514956
 30
0.0
 40
20.000029
100
AcDbArc
 50
203.428574
 51
246.571426
  0
ARC
  5
388
100
AcDbEntity
  8
水栓
  6
CONTINUOUS
 62
     6
100
AcDbCircle
 10
749.863057
 20
2390.916533
 30
0.0
 40
3.000056
100
AcDbArc
 50
246.571259
 51
314.998947
  0
LINE
  5
389
100
AcDbEntity
  8
水栓
  6
CONTINUOUS
 62
     6
100
AcDbLine
 10
751.984362
 20
2388.795149
 30
0.0
 11
766.898596
 21
2403.709391
 31
0.0
  0
ARC
  5
38A
100
AcDbEntity
  8
水栓
  6
CONTINUOUS
 62
     6
100
AcDbCircle
 10
862.358006
 20
2308.250072
 30
0.0
 40
135.000095
100
AcDbArc
 50
119.579243
 51
135.000046
  0
LINE
  5
38B
100
AcDbEntity
  8
水栓
  6
CONTINUOUS
 62
     6
100
AcDbLine
 10
808.067913
 20
2424.132567
 30
0.0
 11
811.485626
 21
2439.731697
 31
0.0
  0
ARC
  5
38C
100
AcDbEntity
  8
水栓
  6
CONTINUOUS
 62
     6
100
AcDbCircle
 10
831.022171
 20
2435.451289
 30
0.0
 40
20.000029
100
AcDbArc
 50
140.357666
 51
167.641922
  0
LINE
  5
38D
100
AcDbEntity
  8
水栓
  6
CONTINUOUS
 62
     6
100
AcDbLine
 10
815.621305
 20
2448.211162
 30
0.0
 11
825.809181
 21
2460.507571
 31
0.0
  0
ARC
  5
38E
100
AcDbEntity
  8
水栓
  6
CONTINUOUS
 62
     6
100
AcDbCircle
 10
821.189013
 20
2464.33554
 30
0.0
 40
5.999942
100
AcDbArc
 50
320.357086
 51
107.643311
  0
LINE
  5
38F
100
AcDbEntity
  8
水栓
  6
CONTINUOUS
 62
     6
100
AcDbLine
 10
819.370479
 20
2470.053302
 30
0.0
 11
804.152828
 21
2465.213503
 31
0.0
  0
ARC
  5
390
100
AcDbEntity
  8
水栓
  6
CONTINUOUS
 62
     6
100
AcDbCircle
 10
798.091297
 20
2484.27283
 30
0.0
 40
19.999962
100
AcDbArc
 50
260.356094
 51
287.642532
  0
LINE
  5
391
100
AcDbEntity
  8
水栓
  6
CONTINUOUS
 62
     6
100
AcDbLine
 10
794.740834
 20
2464.555505
 30
0.0
 11
778.998309
 21
2467.230511
 31
0.0
  0
ARC
  5
392
100
AcDbEntity
  8
水栓
  6
CONTINUOUS
 62
     6
100
AcDbCircle
 10
777.993232
 20
2461.315302
 30
0.0
 40
5.99999
100
AcDbArc
 50
80.356705
 51
227.641891
  0
LINE
  5
393
100
AcDbEntity
  8
水栓
  6
CONTINUOUS
 62
     6
100
AcDbLine
 10
773.950625
 20
2456.881574
 30
0.0
 11
785.751029
 21
2446.122123
 31
0.0
  0
ARC
  5
394
100
AcDbEntity
  8
水栓
  6
CONTINUOUS
 62
     6
100
AcDbCircle
 10
772.275712
 20
2431.343183
 30
0.0
 40
20.000019
100
AcDbArc
 50
20.357117
 51
47.641693
  0
LINE
  5
395
100
AcDbEntity
  8
水栓
  6
CONTINUOUS
 62
     6
100
AcDbLine
 10
791.026584
 20
2438.300603
 30
0.0
 11
796.581679
 21
2423.329372
 31
0.0
  0
ARC
  5
396
100
AcDbEntity
  8
水栓
  6
CONTINUOUS
 62
     6
100
AcDbCircle
 10
802.206925
 20
2425.416612
 30
0.0
 40
5.999997
100
AcDbArc
 50
200.357315
 51
347.6427
  0
TEXT
  5
397
100
AcDbEntity
  8
水栓
  6
CONTINUOUS
 62
     2
100
AcDbText
 10
1417.711021
 20
1522.308083
 30
0.0
 40
40.0
  1
ＮＬ１
 41
0.833
  7
EXCADSTD
 72
     5
 11
1536.711021
 21
1522.308083
 31
0.0
100
AcDbText
  0
LINE
  5
398
100
AcDbEntity
  8
水栓
  6
CONTINUOUS
 62
     6
100
AcDbLine
 10
1415.0
 20
1517.506662
 30
0.0
 11
1526.241923
 21
1517.506662
 31
0.0
  0
LEADER
  5
399
100
AcDbEntity
  8
止水栓
  6
CONTINUOUS
 62
     6
100
AcDbLeader
  3
STANDARD
 73
     3
 74
     1
 75
     0
 40
0.0
 76
     2
 10
1707.902398
 20
1146.37675
 30
0.0
 10
1761.242542
 20
1227.273846
 30
0.0
 77
     6
1001
ACAD
1000
DSTYLE
1002
{
1070
    41
1040
35.0
1070
     5
1000
_EX_NORM
1070
     6
1000
_EX_NORM
1070
     7
1000
_EX_NORM
1070
   341
1005
2C
1002
}
  0
LEADER
  5
39A
100
AcDbEntity
  8
止水栓
  6
CONTINUOUS
 62
     6
100
AcDbLeader
  3
STANDARD
 73
     3
 74
     1
 75
     0
 40
0.0
 76
     2
 10
1571.529063
 20
1153.867322
 30
0.0
 10
1455.00061
 20
1092.0
 30
0.0
 77
     6
1001
ACAD
1000
DSTYLE
1002
{
1070
    41
1040
35.0
1070
     5
1000
_EX_NORM
1070
     6
1000
_EX_NORM
1070
     7
1000
_EX_NORM
1070
   341
1005
2C
1002
}
  0
LINE
  5
39B
100
AcDbEntity
  8
止水栓
  6
EXLTYPE3
 62
     6
100
AcDbLine
 10
800.463013
 20
1121.0
 30
0.0
 11
800.463013
 21
1281.0
 31
0.0
  0
LINE
  5
39C
100
AcDbEntity
  8
止水栓
  6
CONTINUOUS
 62
     6
100
AcDbLine
 10
758.334259
 20
1135.969971
 30
0.0
 11
783.596558
 21
1135.969971
 31
0.0
  0
LINE
  5
39D
100
AcDbEntity
  8
止水栓
  6
CONTINUOUS
 62
     6
100
AcDbLine
 10
817.596497
 20
1135.969971
 30
0.0
 11
840.628723
 21
1135.969971
 31
0.0
  0
ARC
  5
39E
100
AcDbEntity
  8
止水栓
  6
CONTINUOUS
 62
     6
100
AcDbCircle
 10
800.463013
 20
1135.969971
 30
0.0
 40
27.499991
100
AcDbArc
 50
114.719742
 51
196.96022
  0
ARC
  5
39F
100
AcDbEntity
  8
止水栓
  6
CONTINUOUS
 62
     6
100
AcDbCircle
 10
800.463013
 20
1135.969971
 30
0.0
 40
27.500029
100
AcDbArc
 50
220.435089
 51
319.56488
  0
ARC
  5
3A0
100
AcDbEntity
  8
止水栓
  6
CONTINUOUS
 62
     6
100
AcDbCircle
 10
800.463013
 20
1135.969971
 30
0.0
 40
27.499924
100
AcDbArc
 50
343.039642
 51
65.280273
  0
ARC
  5
3A1
100
AcDbEntity
  8
止水栓
  6
CONTINUOUS
 62
     6
100
AcDbCircle
 10
800.329498
 20
1102.633484
 30
0.0
 40
20.0
100
AcDbArc
 50
76.357468
 51
103.642548
  0
LINE
  5
3A2
100
AcDbEntity
  8
止水栓
  6
CONTINUOUS
 62
     6
100
AcDbLine
 10
805.046753
 20
1122.069214
 30
0.0
 11
820.564941
 21
1118.302734
 31
0.0
  0
ARC
  5
3A3
100
AcDbEntity
  8
止水栓
  6
CONTINUOUS
 62
     6
100
AcDbCircle
 10
821.980194
 20
1124.133423
 30
0.0
 40
5.99999
100
AcDbArc
 50
256.356689
 51
43.642914
  0
LINE
  5
3A4
100
AcDbEntity
  8
止水栓
  6
CONTINUOUS
 62
     6
100
AcDbLine
 10
826.322082
 20
1128.274353
 30
0.0
 11
815.301117
 21
1139.830292
 31
0.0
  0
ARC
  5
3A5
100
AcDbEntity
  8
止水栓
  6
CONTINUOUS
 62
     6
100
AcDbCircle
 10
829.774383
 20
1153.633392
 30
0.0
 40
20.000019
100
AcDbArc
 50
196.357086
 51
223.642334
  0
LINE
  5
3A6
100
AcDbEntity
  8
止水栓
  6
CONTINUOUS
 62
     6
100
AcDbLine
 10
810.583862
 20
1148.000915
 30
0.0
 11
806.086639
 21
1163.323181
 31
0.0
  0
ARC
  5
3A7
100
AcDbEntity
  8
止水栓
  6
CONTINUOUS
 62
     6
100
AcDbCircle
 10
800.329498
 20
1161.633423
 30
0.0
 40
5.999997
100
AcDbArc
 50
16.3573
 51
163.642685
  0
LINE
  5
3A8
100
AcDbEntity
  8
止水栓
  6
CONTINUOUS
 62
     6
100
AcDbLine
 10
794.572357
 20
1163.323181
 30
0.0
 11
790.075134
 21
1148.000915
 31
0.0
  0
ARC
  5
3A9
100
AcDbEntity
  8
止水栓
  6
CONTINUOUS
 62
     6
100
AcDbCircle
 10
770.884613
 20
1153.633392
 30
0.0
 40
20.000029
100
AcDbArc
 50
316.357697
 51
343.642883
  0
LINE
  5
3AA
100
AcDbEntity
  8
止水栓
  6
CONTINUOUS
 62
     6
100
AcDbLine
 10
780.094055
 20
1118.302734
 30
0.0
 11
795.612244
 21
1122.069214
 31
0.0
  0
LINE
  5
3AB
100
AcDbEntity
  8
止水栓
  6
CONTINUOUS
 62
     6
100
AcDbLine
 10
791.463074
 20
1135.969971
 30
0.0
 11
809.462952
 21
1135.969971
 31
0.0
  0
CIRCLE
  5
3AC
100
AcDbEntity
  8
止水栓
  6
CONTINUOUS
 62
     6
100
AcDbCircle
 10
800.463013
 20
1135.969971
 30
0.0
 40
6.99997
  0
ARC
  5
3AD
100
AcDbEntity
  8
止水栓
  6
CONTINUOUS
 62
     6
100
AcDbCircle
 10
768.329529
 20
1136.633423
 30
0.0
 40
44.999943
100
AcDbArc
 50
8.024372
 51
14.835184
  0
ARC
  5
3AE
100
AcDbEntity
  8
止水栓
  6
CONTINUOUS
 62
     6
100
AcDbCircle
 10
840.829529
 20
1155.836304
 30
0.0
 40
30.0
100
AcDbArc
 50
180.000015
 51
194.835464
  0
LINE
  5
3AF
100
AcDbEntity
  8
止水栓
  6
CONTINUOUS
 62
     6
100
AcDbLine
 10
810.829529
 20
1155.836304
 30
0.0
 11
810.829529
 21
1159.96991
 31
0.0
  0
LINE
  5
3B0
100
AcDbEntity
  8
止水栓
  6
CONTINUOUS
 62
     6
100
AcDbLine
 10
789.829468
 20
1155.836304
 30
0.0
 11
789.829468
 21
1159.96991
 31
0.0
  0
ARC
  5
3B1
100
AcDbEntity
  8
止水栓
  6
CONTINUOUS
 62
     6
100
AcDbCircle
 10
759.829468
 20
1155.836304
 30
0.0
 40
29.999933
100
AcDbArc
 50
345.164908
 51
0.0
  0
ARC
  5
3B2
100
AcDbEntity
  8
止水栓
  6
CONTINUOUS
 62
     6
100
AcDbCircle
 10
832.329468
 20
1136.633423
 30
0.0
 40
45.000067
100
AcDbArc
 50
165.164886
 51
171.975677
  0
LINE
  5
3B3
100
AcDbEntity
  8
止水栓
  6
CONTINUOUS
 62
     6
100
AcDbLine
 10
807.070855
 20
1159.96991
 30
0.0
 11
811.298889
 21
1159.96991
 31
0.0
  0
ARC
  5
3B4
100
AcDbEntity
  8
止水栓
  6
CONTINUOUS
 62
     6
100
AcDbCircle
 10
802.079376
 20
1165.969971
 30
0.0
 40
11.000004
100
AcDbArc
 50
326.943909
 51
332.420471
  0
LINE
  5
3B5
100
AcDbEntity
  8
止水栓
  6
CONTINUOUS
 62
     6
100
AcDbLine
 10
811.829437
 20
1160.877197
 30
0.0
 11
811.829437
 21
1171.062744
 31
0.0
  0
ARC
  5
3B6
100
AcDbEntity
  8
止水栓
  6
CONTINUOUS
 62
     6
100
AcDbCircle
 10
802.079376
 20
1165.969971
 30
0.0
 40
11.000004
100
AcDbArc
 50
27.579529
 51
33.056091
  0
LINE
  5
3B7
100
AcDbEntity
  8
止水栓
  6
CONTINUOUS
 62
     6
100
AcDbLine
 10
789.360107
 20
1171.970032
 30
0.0
 11
811.298889
 21
1171.970032
 31
0.0
  0
ARC
  5
3B8
100
AcDbEntity
  8
止水栓
  6
CONTINUOUS
 62
     6
100
AcDbCircle
 10
798.57962
 20
1165.969971
 30
0.0
 40
11.000004
100
AcDbArc
 50
146.943909
 51
152.420471
  0
LINE
  5
3B9
100
AcDbEntity
  8
止水栓
  6
CONTINUOUS
 62
     6
100
AcDbLine
 10
788.829559
 20
1160.877197
 30
0.0
 11
788.829559
 21
1171.062744
 31
0.0
  0
ARC
  5
3BA
100
AcDbEntity
  8
止水栓
  6
CONTINUOUS
 62
     6
100
AcDbCircle
 10
798.57962
 20
1165.969971
 30
0.0
 40
11.000004
100
AcDbArc
 50
207.579529
 51
213.056091
  0
LINE
  5
3BB
100
AcDbEntity
  8
止水栓
  6
CONTINUOUS
 62
     6
100
AcDbLine
 10
789.360107
 20
1159.96991
 30
0.0
 11
793.588142
 21
1159.96991
 31
0.0
  0
POLYLINE
  5
3BC
100
AcDbEntity
  8
止水栓
  6
CONTINUOUS
 62
     6
100
AcDb2dPolyline
 66
     1
 10
0.0
 20
0.0
 30
0.0
 70
   128
  0
VERTEX
  5
3BD
100
AcDbEntity
  8
止水栓
  6
CONTINUOUS
 62
     6
100
AcDbVertex
100
AcDb2dVertex
 10
810.909485
 20
1165.969971
 30
0.0
  0
VERTEX
  5
3BE
100
AcDbEntity
  8
止水栓
  6
CONTINUOUS
 62
     6
100
AcDbVertex
100
AcDb2dVertex
 10
810.891022
 20
1165.490692
 30
0.0
  0
VERTEX
  5
3BF
100
AcDbEntity
  8
止水栓
  6
CONTINUOUS
 62
     6
100
AcDbVertex
100
AcDb2dVertex
 10
810.83609
 20
1165.014923
 30
0.0
  0
VERTEX
  5
3C0
100
AcDbEntity
  8
止水栓
  6
CONTINUOUS
 62
     6
100
AcDbVertex
100
AcDb2dVertex
 10
810.744995
 20
1164.546631
 30
0.0
  0
VERTEX
  5
3C1
100
AcDbEntity
  8
止水栓
  6
CONTINUOUS
 62
     6
100
AcDbVertex
100
AcDb2dVertex
 10
810.618347
 20
1164.08902
 30
0.0
  0
VERTEX
  5
3C2
100
AcDbEntity
  8
止水栓
  6
CONTINUOUS
 62
     6
100
AcDbVertex
100
AcDb2dVertex
 10
810.457062
 20
1163.645752
 30
0.0
  0
VERTEX
  5
3C3
100
AcDbEntity
  8
止水栓
  6
CONTINUOUS
 62
     6
100
AcDbVertex
100
AcDb2dVertex
 10
810.262817
 20
1163.220032
 30
0.0
  0
VERTEX
  5
3C4
100
AcDbEntity
  8
止水栓
  6
CONTINUOUS
 62
     6
100
AcDbVertex
100
AcDb2dVertex
 10
810.036529
 20
1162.815369
 30
0.0
  0
VERTEX
  5
3C5
100
AcDbEntity
  8
止水栓
  6
CONTINUOUS
 62
     6
100
AcDbVertex
100
AcDb2dVertex
 10
809.780182
 20
1162.434814
 30
0.0
  0
VERTEX
  5
3C6
100
AcDbEntity
  8
止水栓
  6
CONTINUOUS
 62
     6
100
AcDbVertex
100
AcDb2dVertex
 10
809.495605
 20
1162.080963
 30
0.0
  0
VERTEX
  5
3C7
100
AcDbEntity
  8
止水栓
  6
CONTINUOUS
 62
     6
100
AcDbVertex
100
AcDb2dVertex
 10
809.185089
 20
1161.756866
 30
0.0
  0
VERTEX
  5
3C8
100
AcDbEntity
  8
止水栓
  6
CONTINUOUS
 62
     6
100
AcDbVertex
100
AcDb2dVertex
 10
808.850922
 20
1161.464813
 30
0.0
  0
VERTEX
  5
3C9
100
AcDbEntity
  8
止水栓
  6
CONTINUOUS
 62
     6
100
AcDbVertex
100
AcDb2dVertex
 10
808.49585
 20
1161.206787
 30
0.0
  0
VERTEX
  5
3CA
100
AcDbEntity
  8
止水栓
  6
CONTINUOUS
 62
     6
100
AcDbVertex
100
AcDb2dVertex
 10
808.122314
 20
1160.98523
 30
0.0
  0
VERTEX
  5
3CB
100
AcDbEntity
  8
止水栓
  6
CONTINUOUS
 62
     6
100
AcDbVertex
100
AcDb2dVertex
 10
807.733215
 20
1160.801666
 30
0.0
  0
VERTEX
  5
3CC
100
AcDbEntity
  8
止水栓
  6
CONTINUOUS
 62
     6
100
AcDbVertex
100
AcDb2dVertex
 10
807.331604
 20
1160.657318
 30
0.0
  0
VERTEX
  5
3CD
100
AcDbEntity
  8
止水栓
  6
CONTINUOUS
 62
     6
100
AcDbVertex
100
AcDb2dVertex
 10
807.128052
 20
1160.600555
 30
0.0
  0
VERTEX
  5
3CE
100
AcDbEntity
  8
止水栓
  6
CONTINUOUS
 62
     6
100
AcDbVertex
100
AcDb2dVertex
 10
806.922668
 20
1160.554016
 30
0.0
  0
VERTEX
  5
3CF
100
AcDbEntity
  8
止水栓
  6
CONTINUOUS
 62
     6
100
AcDbVertex
100
AcDb2dVertex
 10
806.900557
 20
1160.550122
 30
0.0
  0
SEQEND
  5
3D0
100
AcDbEntity
  8
止水栓
  6
CONTINUOUS
 62
     6
  0
LINE
  5
3D1
100
AcDbEntity
  8
止水栓
  6
CONTINUOUS
 62
     6
100
AcDbLine
 10
799.336914
 20
1166.887329
 30
0.0
 11
799.333207
 21
1166.910123
 31
0.0
  0
LINE
  5
3D2
100
AcDbEntity
  8
止水栓
  6
CONTINUOUS
 62
     6
100
AcDbLine
 10
799.203133
 20
1167.526746
 30
0.0
 11
799.113373
 21
1167.851074
 31
0.0
  0
LINE
  5
3D3
100
AcDbEntity
  8
止水栓
  6
CONTINUOUS
 62
     6
100
AcDbLine
 10
799.113373
 20
1167.851074
 30
0.0
 11
798.95224
 21
1168.294342
 31
0.0
  0
LINE
  5
3D4
100
AcDbEntity
  8
止水栓
  6
CONTINUOUS
 62
     6
100
AcDbLine
 10
798.95224
 20
1168.294342
 30
0.0
 11
798.757843
 21
1168.720062
 31
0.0
  0
LINE
  5
3D5
100
AcDbEntity
  8
止水栓
  6
CONTINUOUS
 62
     6
100
AcDbLine
 10
798.757843
 20
1168.720062
 30
0.0
 11
798.531555
 21
1169.124725
 31
0.0
  0
LINE
  5
3D6
100
AcDbEntity
  8
止水栓
  6
CONTINUOUS
 62
     6
100
AcDbLine
 10
798.531555
 20
1169.124725
 30
0.0
 11
798.275207
 21
1169.505279
 31
0.0
  0
LINE
  5
3D7
100
AcDbEntity
  8
止水栓
  6
CONTINUOUS
 62
     6
100
AcDbLine
 10
798.275207
 20
1169.505279
 30
0.0
 11
797.990631
 21
1169.859131
 31
0.0
  0
LINE
  5
3D8
100
AcDbEntity
  8
止水栓
  6
CONTINUOUS
 62
     6
100
AcDbLine
 10
797.990631
 20
1169.859131
 30
0.0
 11
797.680115
 21
1170.183227
 31
0.0
  0
LINE
  5
3D9
100
AcDbEntity
  8
止水栓
  6
CONTINUOUS
 62
     6
100
AcDbLine
 10
797.680115
 20
1170.183227
 30
0.0
 11
797.345947
 21
1170.475281
 31
0.0
  0
LINE
  5
3DA
100
AcDbEntity
  8
止水栓
  6
CONTINUOUS
 62
     6
100
AcDbLine
 10
797.345947
 20
1170.475281
 30
0.0
 11
796.990875
 21
1170.733154
 31
0.0
  0
LINE
  5
3DB
100
AcDbEntity
  8
止水栓
  6
CONTINUOUS
 62
     6
100
AcDbLine
 10
796.990875
 20
1170.733154
 30
0.0
 11
796.61734
 21
1170.954712
 31
0.0
  0
LINE
  5
3DC
100
AcDbEntity
  8
止水栓
  6
CONTINUOUS
 62
     6
100
AcDbLine
 10
796.61734
 20
1170.954712
 30
0.0
 11
796.228241
 21
1171.138275
 31
0.0
  0
LINE
  5
3DD
100
AcDbEntity
  8
止水栓
  6
CONTINUOUS
 62
     6
100
AcDbLine
 10
796.228241
 20
1171.138275
 30
0.0
 11
795.82663
 21
1171.282623
 31
0.0
  0
LINE
  5
3DE
100
AcDbEntity
  8
止水栓
  6
CONTINUOUS
 62
     6
100
AcDbLine
 10
795.82663
 20
1171.282623
 30
0.0
 11
795.415405
 21
1171.386383
 31
0.0
  0
LINE
  5
3DF
100
AcDbEntity
  8
止水栓
  6
CONTINUOUS
 62
     6
100
AcDbLine
 10
795.415405
 20
1171.386383
 30
0.0
 11
794.997925
 21
1171.449097
 31
0.0
  0
LINE
  5
3E0
100
AcDbEntity
  8
止水栓
  6
CONTINUOUS
 62
     6
100
AcDbLine
 10
794.997925
 20
1171.449097
 30
0.0
 11
794.577087
 21
1171.470001
 31
0.0
  0
LINE
  5
3E1
100
AcDbEntity
  8
止水栓
  6
CONTINUOUS
 62
     6
100
AcDbLine
 10
794.577087
 20
1171.470001
 30
0.0
 11
794.156403
 21
1171.449097
 31
0.0
  0
LINE
  5
3E2
100
AcDbEntity
  8
止水栓
  6
CONTINUOUS
 62
     6
100
AcDbLine
 10
794.156403
 20
1171.449097
 30
0.0
 11
793.738769
 21
1171.386383
 31
0.0
  0
LINE
  5
3E3
100
AcDbEntity
  8
止水栓
  6
CONTINUOUS
 62
     6
100
AcDbLine
 10
793.738769
 20
1171.386383
 30
0.0
 11
793.327545
 21
1171.282623
 31
0.0
  0
LINE
  5
3E4
100
AcDbEntity
  8
止水栓
  6
CONTINUOUS
 62
     6
100
AcDbLine
 10
793.327545
 20
1171.282623
 30
0.0
 11
792.925934
 21
1171.138275
 31
0.0
  0
LINE
  5
3E5
100
AcDbEntity
  8
止水栓
  6
CONTINUOUS
 62
     6
100
AcDbLine
 10
792.925934
 20
1171.138275
 30
0.0
 11
792.536835
 21
1170.954712
 31
0.0
  0
LINE
  5
3E6
100
AcDbEntity
  8
止水栓
  6
CONTINUOUS
 62
     6
100
AcDbLine
 10
792.536835
 20
1170.954712
 30
0.0
 11
792.163299
 21
1170.733154
 31
0.0
  0
LINE
  5
3E7
100
AcDbEntity
  8
止水栓
  6
CONTINUOUS
 62
     6
100
AcDbLine
 10
792.163299
 20
1170.733154
 30
0.0
 11
791.808075
 21
1170.475281
 31
0.0
  0
LINE
  5
3E8
100
AcDbEntity
  8
止水栓
  6
CONTINUOUS
 62
     6
100
AcDbLine
 10
791.808075
 20
1170.475281
 30
0.0
 11
791.47406
 21
1170.183075
 31
0.0
  0
LINE
  5
3E9
100
AcDbEntity
  8
止水栓
  6
CONTINUOUS
 62
     6
100
AcDbLine
 10
791.47406
 20
1170.183075
 30
0.0
 11
791.163391
 21
1169.859131
 31
0.0
  0
LINE
  5
3EA
100
AcDbEntity
  8
止水栓
  6
CONTINUOUS
 62
     6
100
AcDbLine
 10
791.163391
 20
1169.859131
 30
0.0
 11
790.878967
 21
1169.505279
 31
0.0
  0
LINE
  5
3EB
100
AcDbEntity
  8
止水栓
  6
CONTINUOUS
 62
     6
100
AcDbLine
 10
790.878967
 20
1169.505279
 30
0.0
 11
790.62262
 21
1169.124725
 31
0.0
  0
LINE
  5
3EC
100
AcDbEntity
  8
止水栓
  6
CONTINUOUS
 62
     6
100
AcDbLine
 10
790.62262
 20
1169.124725
 30
0.0
 11
790.396332
 21
1168.720062
 31
0.0
  0
LINE
  5
3ED
100
AcDbEntity
  8
止水栓
  6
CONTINUOUS
 62
     6
100
AcDbLine
 10
790.396332
 20
1168.720062
 30
0.0
 11
790.201935
 21
1168.294495
 31
0.0
  0
LINE
  5
3EE
100
AcDbEntity
  8
止水栓
  6
CONTINUOUS
 62
     6
100
AcDbLine
 10
790.201935
 20
1168.294495
 30
0.0
 11
790.040802
 21
1167.851074
 31
0.0
  0
LINE
  5
3EF
100
AcDbEntity
  8
止水栓
  6
CONTINUOUS
 62
     6
100
AcDbLine
 10
790.040802
 20
1167.851074
 30
0.0
 11
789.914001
 21
1167.393463
 31
0.0
  0
LINE
  5
3F0
100
AcDbEntity
  8
止水栓
  6
CONTINUOUS
 62
     6
100
AcDbLine
 10
789.914001
 20
1167.393463
 30
0.0
 11
789.822906
 21
1166.925018
 31
0.0
  0
LINE
  5
3F1
100
AcDbEntity
  8
止水栓
  6
CONTINUOUS
 62
     6
100
AcDbLine
 10
789.822906
 20
1166.925018
 30
0.0
 11
789.767975
 21
1166.449249
 31
0.0
  0
LINE
  5
3F2
100
AcDbEntity
  8
止水栓
  6
CONTINUOUS
 62
     6
100
AcDbLine
 10
789.767975
 20
1166.449249
 30
0.0
 11
789.749512
 21
1165.969971
 31
0.0
  0
LINE
  5
3F3
100
AcDbEntity
  8
止水栓
  6
CONTINUOUS
 62
     6
100
AcDbLine
 10
789.749512
 20
1165.969971
 30
0.0
 11
789.767975
 21
1165.490692
 31
0.0
  0
LINE
  5
3F4
100
AcDbEntity
  8
止水栓
  6
CONTINUOUS
 62
     6
100
AcDbLine
 10
789.767975
 20
1165.490692
 30
0.0
 11
789.822906
 21
1165.014923
 31
0.0
  0
LINE
  5
3F5
100
AcDbEntity
  8
止水栓
  6
CONTINUOUS
 62
     6
100
AcDbLine
 10
789.822906
 20
1165.014923
 30
0.0
 11
789.914001
 21
1164.546631
 31
0.0
  0
LINE
  5
3F6
100
AcDbEntity
  8
止水栓
  6
CONTINUOUS
 62
     6
100
AcDbLine
 10
789.914001
 20
1164.546631
 30
0.0
 11
790.040649
 21
1164.08902
 31
0.0
  0
LINE
  5
3F7
100
AcDbEntity
  8
止水栓
  6
CONTINUOUS
 62
     6
100
AcDbLine
 10
790.040649
 20
1164.08902
 30
0.0
 11
790.201935
 21
1163.645752
 31
0.0
  0
LINE
  5
3F8
100
AcDbEntity
  8
止水栓
  6
CONTINUOUS
 62
     6
100
AcDbLine
 10
790.201935
 20
1163.645752
 30
0.0
 11
790.396332
 21
1163.220032
 31
0.0
  0
LINE
  5
3F9
100
AcDbEntity
  8
止水栓
  6
CONTINUOUS
 62
     6
100
AcDbLine
 10
790.396332
 20
1163.220032
 30
0.0
 11
790.62262
 21
1162.815369
 31
0.0
  0
LINE
  5
3FA
100
AcDbEntity
  8
止水栓
  6
CONTINUOUS
 62
     6
100
AcDbLine
 10
790.62262
 20
1162.815369
 30
0.0
 11
790.878967
 21
1162.434814
 31
0.0
  0
LINE
  5
3FB
100
AcDbEntity
  8
止水栓
  6
CONTINUOUS
 62
     6
100
AcDbLine
 10
790.878967
 20
1162.434814
 30
0.0
 11
791.163391
 21
1162.080963
 31
0.0
  0
LINE
  5
3FC
100
AcDbEntity
  8
止水栓
  6
CONTINUOUS
 62
     6
100
AcDbLine
 10
791.163391
 20
1162.080963
 30
0.0
 11
791.473907
 21
1161.756866
 31
0.0
  0
LINE
  5
3FD
100
AcDbEntity
  8
止水栓
  6
CONTINUOUS
 62
     6
100
AcDbLine
 10
791.473907
 20
1161.756866
 30
0.0
 11
791.808075
 21
1161.464813
 31
0.0
  0
LINE
  5
3FE
100
AcDbEntity
  8
止水栓
  6
CONTINUOUS
 62
     6
100
AcDbLine
 10
791.808075
 20
1161.464813
 30
0.0
 11
792.163299
 21
1161.20694
 31
0.0
  0
LINE
  5
3FF
100
AcDbEntity
  8
止水栓
  6
CONTINUOUS
 62
     6
100
AcDbLine
 10
792.163299
 20
1161.20694
 30
0.0
 11
792.536835
 21
1160.985382
 31
0.0
  0
LINE
  5
400
100
AcDbEntity
  8
止水栓
  6
CONTINUOUS
 62
     6
100
AcDbLine
 10
792.536835
 20
1160.985382
 30
0.0
 11
792.925934
 21
1160.801819
 31
0.0
  0
LINE
  5
401
100
AcDbEntity
  8
止水栓
  6
CONTINUOUS
 62
     6
100
AcDbLine
 10
792.925934
 20
1160.801819
 30
0.0
 11
793.327545
 21
1160.657318
 31
0.0
  0
LINE
  5
402
100
AcDbEntity
  8
止水栓
  6
CONTINUOUS
 62
     6
100
AcDbLine
 10
793.327545
 20
1160.657318
 30
0.0
 11
793.531097
 21
1160.600555
 31
0.0
  0
LINE
  5
403
100
AcDbEntity
  8
止水栓
  6
CONTINUOUS
 62
     6
100
AcDbLine
 10
793.531097
 20
1160.600555
 30
0.0
 11
793.736481
 21
1160.554016
 31
0.0
  0
LINE
  5
404
100
AcDbEntity
  8
止水栓
  6
CONTINUOUS
 62
     6
100
AcDbLine
 10
793.736481
 20
1160.554016
 30
0.0
 11
793.758447
 21
1160.550147
 31
0.0
  0
LINE
  5
405
100
AcDbEntity
  8
止水栓
  6
CONTINUOUS
 62
     6
100
AcDbLine
 10
810.909485
 20
1165.969971
 30
0.0
 11
810.891022
 21
1166.449249
 31
0.0
  0
LINE
  5
406
100
AcDbEntity
  8
止水栓
  6
CONTINUOUS
 62
     6
100
AcDbLine
 10
810.891022
 20
1166.449249
 30
0.0
 11
810.83609
 21
1166.925018
 31
0.0
  0
LINE
  5
407
100
AcDbEntity
  8
止水栓
  6
CONTINUOUS
 62
     6
100
AcDbLine
 10
810.83609
 20
1166.925018
 30
0.0
 11
810.744995
 21
1167.393463
 31
0.0
  0
LINE
  5
408
100
AcDbEntity
  8
止水栓
  6
CONTINUOUS
 62
     6
100
AcDbLine
 10
810.744995
 20
1167.393463
 30
0.0
 11
810.618347
 21
1167.851074
 31
0.0
  0
LINE
  5
409
100
AcDbEntity
  8
止水栓
  6
CONTINUOUS
 62
     6
100
AcDbLine
 10
810.618347
 20
1167.851074
 30
0.0
 11
810.457062
 21
1168.294342
 31
0.0
  0
LINE
  5
40A
100
AcDbEntity
  8
止水栓
  6
CONTINUOUS
 62
     6
100
AcDbLine
 10
810.457062
 20
1168.294342
 30
0.0
 11
810.262817
 21
1168.720062
 31
0.0
  0
LINE
  5
40B
100
AcDbEntity
  8
止水栓
  6
CONTINUOUS
 62
     6
100
AcDbLine
 10
810.262817
 20
1168.720062
 30
0.0
 11
810.036529
 21
1169.124725
 31
0.0
  0
LINE
  5
40C
100
AcDbEntity
  8
止水栓
  6
CONTINUOUS
 62
     6
100
AcDbLine
 10
810.036529
 20
1169.124725
 30
0.0
 11
809.780182
 21
1169.505279
 31
0.0
  0
LINE
  5
40D
100
AcDbEntity
  8
止水栓
  6
CONTINUOUS
 62
     6
100
AcDbLine
 10
809.780182
 20
1169.505279
 30
0.0
 11
809.495605
 21
1169.859131
 31
0.0
  0
LINE
  5
40E
100
AcDbEntity
  8
止水栓
  6
CONTINUOUS
 62
     6
100
AcDbLine
 10
809.495605
 20
1169.859131
 30
0.0
 11
809.185089
 21
1170.183227
 31
0.0
  0
LINE
  5
40F
100
AcDbEntity
  8
止水栓
  6
CONTINUOUS
 62
     6
100
AcDbLine
 10
809.185089
 20
1170.183227
 30
0.0
 11
808.850922
 21
1170.475281
 31
0.0
  0
LINE
  5
410
100
AcDbEntity
  8
止水栓
  6
CONTINUOUS
 62
     6
100
AcDbLine
 10
808.850922
 20
1170.475281
 30
0.0
 11
808.49585
 21
1170.733154
 31
0.0
  0
LINE
  5
411
100
AcDbEntity
  8
止水栓
  6
CONTINUOUS
 62
     6
100
AcDbLine
 10
808.49585
 20
1170.733154
 30
0.0
 11
808.122314
 21
1170.954712
 31
0.0
  0
LINE
  5
412
100
AcDbEntity
  8
止水栓
  6
CONTINUOUS
 62
     6
100
AcDbLine
 10
808.122314
 20
1170.954712
 30
0.0
 11
807.733215
 21
1171.138275
 31
0.0
  0
LINE
  5
413
100
AcDbEntity
  8
止水栓
  6
CONTINUOUS
 62
     6
100
AcDbLine
 10
807.733215
 20
1171.138275
 30
0.0
 11
807.331604
 21
1171.282623
 31
0.0
  0
LINE
  5
414
100
AcDbEntity
  8
止水栓
  6
CONTINUOUS
 62
     6
100
AcDbLine
 10
807.331604
 20
1171.282623
 30
0.0
 11
806.92038
 21
1171.386383
 31
0.0
  0
LINE
  5
415
100
AcDbEntity
  8
止水栓
  6
CONTINUOUS
 62
     6
100
AcDbLine
 10
806.92038
 20
1171.386383
 30
0.0
 11
806.502899
 21
1171.449097
 31
0.0
  0
LINE
  5
416
100
AcDbEntity
  8
止水栓
  6
CONTINUOUS
 62
     6
100
AcDbLine
 10
806.502899
 20
1171.449097
 30
0.0
 11
806.082062
 21
1171.470001
 31
0.0
  0
LINE
  5
417
100
AcDbEntity
  8
止水栓
  6
CONTINUOUS
 62
     6
100
AcDbLine
 10
806.082062
 20
1171.470001
 30
0.0
 11
805.661377
 21
1171.449097
 31
0.0
  0
LINE
  5
418
100
AcDbEntity
  8
止水栓
  6
CONTINUOUS
 62
     6
100
AcDbLine
 10
805.661377
 20
1171.449097
 30
0.0
 11
805.243744
 21
1171.386383
 31
0.0
  0
LINE
  5
419
100
AcDbEntity
  8
止水栓
  6
CONTINUOUS
 62
     6
100
AcDbLine
 10
805.243744
 20
1171.386383
 30
0.0
 11
804.832519
 21
1171.282623
 31
0.0
  0
LINE
  5
41A
100
AcDbEntity
  8
止水栓
  6
CONTINUOUS
 62
     6
100
AcDbLine
 10
804.832519
 20
1171.282623
 30
0.0
 11
804.430908
 21
1171.138275
 31
0.0
  0
LINE
  5
41B
100
AcDbEntity
  8
止水栓
  6
CONTINUOUS
 62
     6
100
AcDbLine
 10
804.430908
 20
1171.138275
 30
0.0
 11
804.041809
 21
1170.954712
 31
0.0
  0
LINE
  5
41C
100
AcDbEntity
  8
止水栓
  6
CONTINUOUS
 62
     6
100
AcDbLine
 10
804.041809
 20
1170.954712
 30
0.0
 11
803.668274
 21
1170.733154
 31
0.0
  0
LINE
  5
41D
100
AcDbEntity
  8
止水栓
  6
CONTINUOUS
 62
     6
100
AcDbLine
 10
803.668274
 20
1170.733154
 30
0.0
 11
803.313049
 21
1170.475281
 31
0.0
  0
LINE
  5
41E
100
AcDbEntity
  8
止水栓
  6
CONTINUOUS
 62
     6
100
AcDbLine
 10
803.313049
 20
1170.475281
 30
0.0
 11
802.979034
 21
1170.183075
 31
0.0
  0
LINE
  5
41F
100
AcDbEntity
  8
止水栓
  6
CONTINUOUS
 62
     6
100
AcDbLine
 10
802.979034
 20
1170.183075
 30
0.0
 11
802.668365
 21
1169.859131
 31
0.0
  0
LINE
  5
420
100
AcDbEntity
  8
止水栓
  6
CONTINUOUS
 62
     6
100
AcDbLine
 10
802.668365
 20
1169.859131
 30
0.0
 11
802.383942
 21
1169.505279
 31
0.0
  0
LINE
  5
421
100
AcDbEntity
  8
止水栓
  6
CONTINUOUS
 62
     6
100
AcDbLine
 10
802.383942
 20
1169.505279
 30
0.0
 11
802.127441
 21
1169.124725
 31
0.0
  0
LINE
  5
422
100
AcDbEntity
  8
止水栓
  6
CONTINUOUS
 62
     6
100
AcDbLine
 10
802.127441
 20
1169.124725
 30
0.0
 11
801.901306
 21
1168.720062
 31
0.0
  0
LINE
  5
423
100
AcDbEntity
  8
止水栓
  6
CONTINUOUS
 62
     6
100
AcDbLine
 10
801.901306
 20
1168.720062
 30
0.0
 11
801.706909
 21
1168.294495
 31
0.0
  0
LINE
  5
424
100
AcDbEntity
  8
止水栓
  6
CONTINUOUS
 62
     6
100
AcDbLine
 10
801.706909
 20
1168.294495
 30
0.0
 11
801.545776
 21
1167.851074
 31
0.0
  0
LINE
  5
425
100
AcDbEntity
  8
止水栓
  6
CONTINUOUS
 62
     6
100
AcDbLine
 10
801.545776
 20
1167.851074
 30
0.0
 11
801.455905
 21
1167.526738
 31
0.0
  0
ARC
  5
426
100
AcDbEntity
  8
止水栓
  6
CONTINUOUS
 62
     6
100
AcDbCircle
 10
778.678802
 20
1124.133423
 30
0.0
 40
5.999942
100
AcDbArc
 50
136.357117
 51
283.643311
  0
LINE
  5
427
100
AcDbEntity
  8
止水栓
  6
CONTINUOUS
 62
     6
100
AcDbLine
 10
785.35788
 20
1139.830292
 30
0.0
 11
774.336914
 21
1128.274353
 31
0.0
  0
LINE
  5
428
100
AcDbEntity
  8
止水栓
  6
CONTINUOUS
 62
     6
100
AcDbLine
 10
794.113013
 20
1171.970032
 30
0.0
 11
794.113013
 21
1279.665186
 31
0.0
  0
LINE
  5
429
100
AcDbEntity
  8
止水栓
  6
CONTINUOUS
 62
     6
100
AcDbLine
 10
806.813013
 20
1171.970032
 30
0.0
 11
806.813013
 21
1292.622877
 31
0.0
  0
LINE
  5
42A
100
AcDbEntity
  8
止水栓
  6
CONTINUOUS
 62
     6
100
AcDbLine
 10
1702.039185
 20
1163.469971
 30
0.0
 11
1704.039185
 21
1163.469971
 31
0.0
  0
ARC
  5
42B
100
AcDbEntity
  8
止水栓
  6
CONTINUOUS
 62
     6
100
AcDbCircle
 10
1702.039185
 20
1150.469971
 30
0.0
 40
13.0
100
AcDbArc
 50
90.0
 51
153.948532
  0
ARC
  5
42C
100
AcDbEntity
  8
止水栓
  6
CONTINUOUS
 62
     6
100
AcDbCircle
 10
1713.089508
 20
1145.068069
 30
0.0
 40
25.300003
100
AcDbArc
 50
153.948517
 51
171.943867
  0
LINE
  5
42D
100
AcDbEntity
  8
止水栓
  6
CONTINUOUS
 62
     6
100
AcDbLine
 10
1712.516586
 20
1146.232559
 30
0.0
 11
1712.516586
 21
1125.707382
 31
0.0
  0
LINE
  5
42E
100
AcDbEntity
  8
止水栓
  6
CONTINUOUS
 62
     6
100
AcDbLine
 10
1704.039185
 20
1125.442459
 30
0.0
 11
1712.516586
 21
1125.707382
 31
0.0
  0
LINE
  5
42F
100
AcDbEntity
  8
止水栓
  6
CONTINUOUS
 62
     6
100
AcDbLine
 10
1712.516586
 20
1125.707382
 30
0.0
 11
1713.879181
 21
1127.069977
 31
0.0
  0
LINE
  5
430
100
AcDbEntity
  8
止水栓
  6
CONTINUOUS
 62
     6
100
AcDbLine
 10
1713.879181
 20
1127.069977
 30
0.0
 11
1713.879181
 21
1144.869965
 31
0.0
  0
LINE
  5
431
100
AcDbEntity
  8
止水栓
  6
CONTINUOUS
 62
     6
100
AcDbLine
 10
1712.516586
 20
1146.232559
 30
0.0
 11
1713.879181
 21
1144.869965
 31
0.0
  0
LINE
  5
432
100
AcDbEntity
  8
止水栓
  6
CONTINUOUS
 62
     6
100
AcDbLine
 10
1688.039185
 20
1123.326248
 30
0.0
 11
1688.039185
 21
1148.613693
 31
0.0
  0
ARC
  5
433
100
AcDbEntity
  8
止水栓
  6
CONTINUOUS
 62
     6
100
AcDbCircle
 10
1713.089508
 20
1126.871872
 30
0.0
 40
25.300003
100
AcDbArc
 50
188.056133
 51
206.051483
  0
ARC
  5
434
100
AcDbEntity
  8
止水栓
  6
CONTINUOUS
 62
     6
100
AcDbCircle
 10
1702.039185
 20
1121.469971
 30
0.0
 40
13.0
100
AcDbArc
 50
206.051468
 51
270.0
  0
LINE
  5
435
100
AcDbEntity
  8
止水栓
  6
CONTINUOUS
 62
     6
100
AcDbLine
 10
1702.039185
 20
1108.469971
 30
0.0
 11
1704.039185
 21
1108.469971
 31
0.0
  0
LINE
  5
436
100
AcDbEntity
  8
止水栓
  6
CONTINUOUS
 62
     6
100
AcDbLine
 10
1704.039185
 20
1146.497473
 30
0.0
 11
1712.516586
 21
1146.232559
 31
0.0
  0
LINE
  5
437
100
AcDbEntity
  8
止水栓
  6
CONTINUOUS
 62
     6
100
AcDbLine
 10
1647.039185
 20
1146.469971
 30
0.0
 11
1688.039185
 21
1146.469971
 31
0.0
  0
LINE
  5
438
100
AcDbEntity
  8
止水栓
  6
CONTINUOUS
 62
     6
100
AcDbLine
 10
1629.464185
 20
1154.108016
 30
0.0
 11
1629.464185
 21
1159.369971
 31
0.0
  0
LINE
  5
439
100
AcDbEntity
  8
止水栓
  6
CONTINUOUS
 62
     6
100
AcDbLine
 10
1608.614185
 20
1159.369971
 30
0.0
 11
1608.614185
 21
1154.108016
 31
0.0
  0
LINE
  5
43A
100
AcDbEntity
  8
止水栓
  6
CONTINUOUS
 62
     6
100
AcDbLine
 10
1605.950806
 20
1147.969971
 30
0.0
 11
1603.063664
 21
1147.969971
 31
0.0
  0
LINE
  5
43B
100
AcDbEntity
  8
止水栓
  6
CONTINUOUS
 62
     6
100
AcDbLine
 10
1603.063664
 20
1123.969971
 30
0.0
 11
1605.660096
 21
1123.969971
 31
0.0
  0
ARC
  5
43C
100
AcDbEntity
  8
止水栓
  6
CONTINUOUS
 62
     6
100
AcDbCircle
 10
1605.660096
 20
1093.969971
 30
0.0
 40
30.0
100
AcDbArc
 50
81.450921
 51
90.0
  0
LINE
  5
43D
100
AcDbEntity
  8
止水栓
  6
CONTINUOUS
 62
     6
100
AcDbLine
 10
1608.389185
 20
1153.718305
 30
0.0
 11
1608.389185
 21
1151.969971
 31
0.0
  0
ARC
  5
43E
100
AcDbEntity
  8
止水栓
  6
CONTINUOUS
 62
     6
100
AcDbCircle
 10
1604.389185
 20
1151.969971
 30
0.0
 40
4.0
100
AcDbArc
 50
292.979724
 51
0.0
  0
ARC
  5
43F
100
AcDbEntity
  8
止水栓
  6
CONTINUOUS
 62
     6
100
AcDbCircle
 10
1628.539185
 20
1092.969971
 30
0.0
 40
30.5
100
AcDbArc
 50
90.0
 51
96.025575
  0
ARC
  5
440
100
AcDbEntity
  8
止水栓
  6
CONTINUOUS
 62
     6
100
AcDbCircle
 10
1634.789185
 20
1153.528747
 30
0.0
 40
5.0
100
AcDbArc
 50
179.813143
 51
279.270585
  0
ARC
  5
441
100
AcDbEntity
  8
止水栓
  6
CONTINUOUS
 62
     6
100
AcDbCircle
 10
1634.064247
 20
1157.969971
 30
0.0
 40
9.5
100
AcDbArc
 50
279.270585
 51
298.571611
  0
ARC
  5
442
100
AcDbEntity
  8
止水栓
  6
CONTINUOUS
 62
     6
100
AcDbCircle
 10
1641.91869
 20
1128.393036
 30
0.0
 40
6.923065
100
AcDbArc
 50
241.428389
 51
317.699765
  0
ARC
  5
443
100
AcDbEntity
  8
止水栓
  6
CONTINUOUS
 62
     6
100
AcDbCircle
 10
1641.91869
 20
1143.546906
 30
0.0
 40
6.923065
100
AcDbArc
 50
42.300235
 51
118.571611
  0
ARC
  5
444
100
AcDbEntity
  8
止水栓
  6
CONTINUOUS
 62
     6
100
AcDbCircle
 10
1634.064247
 20
1113.969971
 30
0.0
 40
9.5
100
AcDbArc
 50
61.428389
 51
90.0
  0
LINE
  5
445
100
AcDbEntity
  8
止水栓
  6
CONTINUOUS
 62
     6
100
AcDbLine
 10
1628.339185
 20
1123.469971
 30
0.0
 11
1634.064247
 21
1123.469971
 31
0.0
  0
LINE
  5
446
100
AcDbEntity
  8
止水栓
  6
CONTINUOUS
 62
     6
100
AcDbLine
 10
1605.950806
 20
1147.969971
 30
0.0
 11
1605.950806
 21
1148.287398
 31
0.0
  0
LINE
  5
447
100
AcDbEntity
  8
止水栓
  6
CONTINUOUS
 62
     6
100
AcDbLine
 10
1582.039185
 20
1140.719971
 30
0.0
 11
1590.163664
 21
1140.719971
 31
0.0
  0
LINE
  5
448
100
AcDbEntity
  8
止水栓
  6
CONTINUOUS
 62
     6
100
AcDbLine
 10
1582.039185
 20
1131.219971
 30
0.0
 11
1590.163664
 21
1131.219971
 31
0.0
  0
ARC
  5
449
100
AcDbEntity
  8
止水栓
  6
CONTINUOUS
 62
     6
100
AcDbCircle
 10
1599.288747
 20
1144.719971
 30
0.0
 40
5.5
100
AcDbArc
 50
46.658242
 51
147.187626
  0
LINE
  5
44A
100
AcDbEntity
  8
止水栓
  6
CONTINUOUS
 62
     6
100
AcDbLine
 10
1590.163664
 20
1141.269971
 30
0.0
 11
1594.666274
 21
1147.700364
 31
0.0
  0
ARC
  5
44B
100
AcDbEntity
  8
止水栓
  6
CONTINUOUS
 62
     6
100
AcDbCircle
 10
1599.288747
 20
1127.219971
 30
0.0
 40
5.5
100
AcDbArc
 50
212.812374
 51
313.341758
  0
LINE
  5
44C
100
AcDbEntity
  8
止水栓
  6
CONTINUOUS
 62
     6
100
AcDbLine
 10
1590.163664
 20
1130.669971
 30
0.0
 11
1594.666274
 21
1124.239577
 31
0.0
  0
LINE
  5
44D
100
AcDbEntity
  8
止水栓
  6
CONTINUOUS
 62
     6
100
AcDbLine
 10
1647.039185
 20
1146.447471
 30
0.0
 11
1647.759185
 21
1146.469971
 31
0.0
  0
LINE
  5
44E
100
AcDbEntity
  8
止水栓
  6
CONTINUOUS
 62
     6
100
AcDbLine
 10
1629.464185
 20
1155.969971
 30
0.0
 11
1608.614185
 21
1155.969971
 31
0.0
  0
LINE
  5
44F
100
AcDbEntity
  8
止水栓
  6
CONTINUOUS
 62
     6
100
AcDbLine
 10
1604.539185
 20
1123.969971
 30
0.0
 11
1604.539185
 21
1147.969971
 31
0.0
  0
LINE
  5
450
100
AcDbEntity
  8
止水栓
  6
CONTINUOUS
 62
     6
100
AcDbLine
 10
1603.063664
 20
1148.719971
 30
0.0
 11
1603.063664
 21
1123.219971
 31
0.0
  0
LINE
  5
451
100
AcDbEntity
  8
止水栓
  6
CONTINUOUS
 62
     6
100
AcDbLine
 10
1590.163664
 20
1141.269971
 30
0.0
 11
1590.163664
 21
1130.669971
 31
0.0
  0
ARC
  5
452
100
AcDbEntity
  8
止水栓
  6
CONTINUOUS
 62
     6
100
AcDbCircle
 10
1617.289185
 20
1165.369971
 30
0.0
 40
11.0
100
AcDbArc
 50
146.944269
 51
213.055731
  0
ARC
  5
453
100
AcDbEntity
  8
止水栓
  6
CONTINUOUS
 62
     6
100
AcDbCircle
 10
1620.789185
 20
1165.369971
 30
0.0
 40
11.0
100
AcDbArc
 50
326.944269
 51
33.055731
  0
LINE
  5
454
100
AcDbEntity
  8
止水栓
  6
CONTINUOUS
 62
     6
100
AcDbLine
 10
1630.008729
 20
1171.369971
 30
0.0
 11
1608.06964
 21
1171.369971
 31
0.0
  0
LINE
  5
455
100
AcDbEntity
  8
止水栓
  6
CONTINUOUS
 62
     6
100
AcDbLine
 10
1630.008729
 20
1159.369971
 30
0.0
 11
1608.06964
 21
1159.369971
 31
0.0
  0
LINE
  5
456
100
AcDbEntity
  8
止水栓
  6
CONTINUOUS
 62
     6
100
AcDbLine
 10
1581.539185
 20
1117.469971
 30
0.0
 11
1577.381345
 21
1117.980489
 31
0.0
  0
ARC
  5
457
100
AcDbEntity
  8
止水栓
  6
CONTINUOUS
 62
     6
100
AcDbCircle
 10
1581.600119
 20
1117.966244
 30
0.0
 40
0.5
100
AcDbArc
 50
263.0
 51
0.0
  0
LINE
  5
458
100
AcDbEntity
  8
止水栓
  6
CONTINUOUS
 62
     6
100
AcDbLine
 10
1581.47825
 20
1166.966244
 30
0.0
 11
1577.320411
 21
1166.455725
 31
0.0
  0
ARC
  5
459
100
AcDbEntity
  8
止水栓
  6
CONTINUOUS
 62
     6
100
AcDbCircle
 10
1581.539185
 20
1166.469971
 30
0.0
 40
0.5
100
AcDbArc
 50
0.0
 51
97.0
  0
LINE
  5
45A
100
AcDbEntity
  8
止水栓
  6
CONTINUOUS
 62
     6
100
AcDbLine
 10
1568.709758
 20
1143.219971
 30
0.0
 11
1570.709758
 21
1143.219971
 31
0.0
  0
LINE
  5
45B
100
AcDbEntity
  8
止水栓
  6
CONTINUOUS
 62
     6
100
AcDbLine
 10
1568.709758
 20
1128.719971
 30
0.0
 11
1570.709758
 21
1128.719971
 31
0.0
  0
ARC
  5
45C
100
AcDbEntity
  8
止水栓
  6
CONTINUOUS
 62
     6
100
AcDbCircle
 10
1578.112561
 20
1123.935766
 30
0.0
 40
6.0
100
AcDbArc
 50
188.193688
 51
263.0
  0
ARC
  5
45D
100
AcDbEntity
  8
止水栓
  6
CONTINUOUS
 62
     6
100
AcDbCircle
 10
1578.051627
 20
1160.500448
 30
0.0
 40
6.0
100
AcDbArc
 50
97.0
 51
175.644686
  0
LINE
  5
45E
100
AcDbEntity
  8
止水栓
  6
CONTINUOUS
 62
     6
100
AcDbLine
 10
1570.709758
 20
1128.719971
 30
0.0
 11
1570.709758
 21
1143.219971
 31
0.0
  0
ARC
  5
45F
100
AcDbEntity
  8
止水栓
  6
CONTINUOUS
 62
     6
100
AcDbCircle
 10
1594.491008
 20
1135.969971
 30
0.0
 40
26.78125
100
AcDbArc
 50
164.293373
 51
195.706627
  0
LINE
  5
460
100
AcDbEntity
  8
止水栓
  6
CONTINUOUS
 62
     6
100
AcDbLine
 10
1582.039185
 20
1117.727033
 30
0.0
 11
1582.039185
 21
1166.469971
 31
0.0
  0
LINE
  5
461
100
AcDbEntity
  8
止水栓
  6
CONTINUOUS
 62
     6
100
AcDbLine
 10
1570.709758
 20
1128.719971
 30
0.0
 11
1572.296577
 21
1122.461207
 31
0.0
  0
LINE
  5
462
100
AcDbEntity
  8
止水栓
  6
CONTINUOUS
 62
     6
100
AcDbLine
 10
1570.709758
 20
1143.109827
 30
0.0
 11
1572.068953
 21
1160.956097
 31
0.0
  0
LINE
  5
463
100
AcDbEntity
  8
止水栓
  6
CONTINUOUS
 62
     6
100
AcDbLine
 10
1625.389185
 20
1171.369971
 30
0.0
 11
1625.389185
 21
1198.969971
 31
0.0
  0
LINE
  5
464
100
AcDbEntity
  8
止水栓
  6
CONTINUOUS
 62
     6
100
AcDbLine
 10
1650.379181
 20
1145.374344
 30
0.0
 11
1647.039185
 21
1145.269971
 31
0.0
  0
LINE
  5
465
100
AcDbEntity
  8
止水栓
  6
CONTINUOUS
 62
     6
100
AcDbLine
 10
1650.379181
 20
1145.374344
 30
0.0
 11
1652.276871
 21
1146.469971
 31
0.0
  0
LINE
  5
466
100
AcDbEntity
  8
止水栓
  6
CONTINUOUS
 62
     6
100
AcDbLine
 10
1609.689185
 20
1159.369971
 30
0.0
 11
1609.689185
 21
1155.969971
 31
0.0
  0
LINE
  5
467
100
AcDbEntity
  8
止水栓
  6
CONTINUOUS
 62
     6
100
AcDbLine
 10
1609.689185
 20
1155.969971
 30
0.0
 11
1608.389185
 21
1153.718305
 31
0.0
  0
LINE
  5
468
100
AcDbEntity
  8
止水栓
  6
CONTINUOUS
 62
     6
100
AcDbLine
 10
1628.389185
 20
1159.369971
 30
0.0
 11
1628.389185
 21
1155.969971
 31
0.0
  0
LINE
  5
469
100
AcDbEntity
  8
止水栓
  6
CONTINUOUS
 62
     6
100
AcDbLine
 10
1628.389185
 20
1155.969971
 30
0.0
 11
1629.789211
 21
1153.545054
 31
0.0
  0
ELLIPSE
  5
46A
100
AcDbEntity
  8
止水栓
  6
CONTINUOUS
 62
     6
100
AcDbEllipse
 10
1641.91869
 20
1135.969971
 30
0.0
 11
-0.0000000000000038
 21
6.3047601064600123
 31
0.0
210
0.0
220
0.0
230
1.0
 40
0.772031
 41
4.7123889803846923
 42
0.7497124734958363
  0
ELLIPSE
  5
46B
100
AcDbEntity
  8
止水栓
  6
CONTINUOUS
 62
     6
100
AcDbEllipse
 10
1641.91869
 20
1146.795288
 30
0.0
 11
-4.8674696202900023
 21
-0.0000000000000037
 31
0.0
210
0.0
220
0.0
230
1.0
 40
0.647642
 41
0.8230684336678639
 42
5.4601168735118684
  0
ARC
  5
46C
100
AcDbEntity
  8
止水栓
  6
CONTINUOUS
 62
     6
100
AcDbCircle
 10
1605.086613
 20
1166.084056
 30
0.0
 40
42.122584
100
AcDbArc
 50
317.493045
 51
322.956935
  0
ARC
  5
46D
100
AcDbEntity
  8
止水栓
  6
CONTINUOUS
 62
     6
100
AcDbCircle
 10
1622.161843
 20
1120.281969
 30
0.0
 40
29.260121
100
AcDbArc
 50
55.801855
 51
61.465193
  0
ARC
  5
46E
100
AcDbEntity
  8
止水栓
  6
CONTINUOUS
 62
     6
100
AcDbCircle
 10
1622.161843
 20
1173.308607
 30
0.0
 40
29.260121
100
AcDbArc
 50
298.534807
 51
304.198145
  0
LINE
  5
46F
100
AcDbEntity
  8
止水栓
  6
CONTINUOUS
 62
     6
100
AcDbLine
 10
1603.063664
 20
1124.784971
 30
0.0
 11
1604.539185
 21
1124.784971
 31
0.0
  0
LINE
  5
470
100
AcDbEntity
  8
止水栓
  6
CONTINUOUS
 62
     6
100
AcDbLine
 10
1603.063664
 20
1147.154971
 30
0.0
 11
1604.539185
 21
1147.154971
 31
0.0
  0
LINE
  5
471
100
AcDbEntity
  8
止水栓
  6
CONTINUOUS
 62
     6
100
AcDbLine
 10
1604.539185
 20
1147.154971
 30
0.0
 11
1605.950806
 21
1147.969971
 31
0.0
  0
LINE
  5
472
100
AcDbEntity
  8
止水栓
  6
CONTINUOUS
 62
     6
100
AcDbLine
 10
1604.539185
 20
1124.784971
 30
0.0
 11
1605.953288
 21
1123.968538
 31
0.0
  0
ELLIPSE
  5
473
100
AcDbEntity
  8
止水栓
  6
CONTINUOUS
 62
     6
100
AcDbEllipse
 10
1599.288747
 20
1135.969971
 30
0.0
 11
-0.0000000000000035
 21
5.8363087649600125
 31
0.0
210
0.0
220
0.0
230
1.0
 40
0.598162
 41
1.5707963267948972
 42
4.7123889803846923
  0
ELLIPSE
  5
474
100
AcDbEntity
  8
止水栓
  6
CONTINUOUS
 62
     6
100
AcDbEllipse
 10
1599.288747
 20
1124.71164
 30
0.0
 11
3.4910600109400001
 21
0.0000000000000022
 31
0.0
210
0.0
220
0.0
230
1.0
 40
0.835894
 41
0.0
 42
6.2831853071796004
  0
ELLIPSE
  5
475
100
AcDbEntity
  8
止水栓
  6
CONTINUOUS
 62
     6
100
AcDbEllipse
 10
1599.288747
 20
1135.969971
 30
0.0
 11
0.0000000000000041
 21
-5.8363087649600125
 31
0.0
210
0.0
220
0.0
230
1.0
 40
0.598162
 41
1.5707963267948972
 42
4.7123889803846923
  0
ELLIPSE
  5
476
100
AcDbEntity
  8
止水栓
  6
CONTINUOUS
 62
     6
100
AcDbEllipse
 10
1599.288747
 20
1147.228301
 30
0.0
 11
-3.4910600109400001
 21
-0.0000000000000027
 31
0.0
210
0.0
220
0.0
230
1.0
 40
0.835894
 41
0.0
 42
6.2831853071796004
  0
ELLIPSE
  5
477
100
AcDbEntity
  8
止水栓
  6
CONTINUOUS
 62
     6
100
AcDbEllipse
 10
1619.039185
 20
1165.369971
 30
0.0
 11
-5.5056788863900143
 21
0.0000000000000007
 31
0.0
210
0.0
220
0.0
230
1.0
 40
0.925024
 41
1.5707963267948972
 42
4.7123889803846923
  0
ELLIPSE
  5
478
100
AcDbEntity
  8
止水栓
  6
CONTINUOUS
 62
     6
100
AcDbEllipse
 10
1628.998477
 20
1165.369971
 30
0.0
 11
-0.0000000000000031
 21
5.0928871968700005
 31
0.0
210
0.0
220
0.0
230
1.0
 40
0.540526
 41
0.0
 42
6.2831853071796004
  0
ELLIPSE
  5
479
100
AcDbEntity
  8
止水栓
  6
CONTINUOUS
 62
     6
100
AcDbEllipse
 10
1609.079892
 20
1165.369971
 30
0.0
 11
-0.0000000000000031
 21
5.0928871968700005
 31
0.0
210
0.0
220
0.0
230
1.0
 40
0.540526
 41
0.0
 42
6.2831853071796004
  0
ELLIPSE
  5
47A
100
AcDbEntity
  8
止水栓
  6
CONTINUOUS
 62
     6
100
AcDbEllipse
 10
1619.039185
 20
1165.369971
 30
0.0
 11
5.5056788863900143
 21
0.0
 31
0.0
210
0.0
220
0.0
230
1.0
 40
0.925024
 41
1.5707963267948972
 42
4.7123889803846923
  0
LINE
  5
47B
100
AcDbEntity
  8
止水栓
  6
CONTINUOUS
 62
     6
100
AcDbLine
 10
1568.709758
 20
1128.719971
 30
0.0
 11
1568.709758
 21
1143.219971
 31
0.0
  0
LINE
  5
47C
100
AcDbEntity
  8
止水栓
  6
CONTINUOUS
 62
     6
100
AcDbLine
 10
1568.709758
 20
1134.711021
 30
0.0
 11
1570.709758
 21
1134.711021
 31
0.0
  0
LINE
  5
47D
100
AcDbEntity
  8
止水栓
  6
CONTINUOUS
 62
     6
100
AcDbLine
 10
1568.709758
 20
1133.490325
 30
0.0
 11
1570.709758
 21
1133.490325
 31
0.0
  0
LINE
  5
47E
100
AcDbEntity
  8
止水栓
  6
CONTINUOUS
 62
     6
100
AcDbLine
 10
1568.709758
 20
1132.344971
 30
0.0
 11
1570.709758
 21
1132.344971
 31
0.0
  0
LINE
  5
47F
100
AcDbEntity
  8
止水栓
  6
CONTINUOUS
 62
     6
100
AcDbLine
 10
1568.709758
 20
1131.309761
 30
0.0
 11
1570.709758
 21
1131.309761
 31
0.0
  0
LINE
  5
480
100
AcDbEntity
  8
止水栓
  6
CONTINUOUS
 62
     6
100
AcDbLine
 10
1568.709758
 20
1130.416148
 30
0.0
 11
1570.709758
 21
1130.416148
 31
0.0
  0
LINE
  5
481
100
AcDbEntity
  8
止水栓
  6
CONTINUOUS
 62
     6
100
AcDbLine
 10
1568.709758
 20
1129.691287
 30
0.0
 11
1570.709758
 21
1129.691287
 31
0.0
  0
LINE
  5
482
100
AcDbEntity
  8
止水栓
  6
CONTINUOUS
 62
     6
100
AcDbLine
 10
1568.709758
 20
1129.157199
 30
0.0
 11
1570.709758
 21
1129.157199
 31
0.0
  0
LINE
  5
483
100
AcDbEntity
  8
止水栓
  6
CONTINUOUS
 62
     6
100
AcDbLine
 10
1568.709758
 20
1128.830114
 30
0.0
 11
1570.709758
 21
1128.830114
 31
0.0
  0
LINE
  5
484
100
AcDbEntity
  8
止水栓
  6
CONTINUOUS
 62
     6
100
AcDbLine
 10
1568.709758
 20
1137.22892
 30
0.0
 11
1570.709758
 21
1137.22892
 31
0.0
  0
LINE
  5
485
100
AcDbEntity
  8
止水栓
  6
CONTINUOUS
 62
     6
100
AcDbLine
 10
1568.709758
 20
1138.449617
 30
0.0
 11
1570.709758
 21
1138.449617
 31
0.0
  0
LINE
  5
486
100
AcDbEntity
  8
止水栓
  6
CONTINUOUS
 62
     6
100
AcDbLine
 10
1568.709758
 20
1139.594971
 30
0.0
 11
1570.709758
 21
1139.594971
 31
0.0
  0
LINE
  5
487
100
AcDbEntity
  8
止水栓
  6
CONTINUOUS
 62
     6
100
AcDbLine
 10
1568.709758
 20
1140.630181
 30
0.0
 11
1570.709758
 21
1140.630181
 31
0.0
  0
LINE
  5
488
100
AcDbEntity
  8
止水栓
  6
CONTINUOUS
 62
     6
100
AcDbLine
 10
1568.709758
 20
1141.523793
 30
0.0
 11
1570.709758
 21
1141.523793
 31
0.0
  0
LINE
  5
489
100
AcDbEntity
  8
止水栓
  6
CONTINUOUS
 62
     6
100
AcDbLine
 10
1568.709758
 20
1142.248655
 30
0.0
 11
1570.709758
 21
1142.248655
 31
0.0
  0
LINE
  5
48A
100
AcDbEntity
  8
止水栓
  6
CONTINUOUS
 62
     6
100
AcDbLine
 10
1568.709758
 20
1142.782742
 30
0.0
 11
1570.709758
 21
1142.782742
 31
0.0
  0
LINE
  5
48B
100
AcDbEntity
  8
止水栓
  6
CONTINUOUS
 62
     6
100
AcDbLine
 10
1568.709758
 20
1143.109827
 30
0.0
 11
1570.709758
 21
1143.109827
 31
0.0
  0
LINE
  5
48C
100
AcDbEntity
  8
止水栓
  6
CONTINUOUS
 62
     6
100
AcDbLine
 10
1568.709758
 20
1135.969971
 30
0.0
 11
1570.709758
 21
1135.969971
 31
0.0
  0
LINE
  5
48D
100
AcDbEntity
  8
止水栓
  6
CONTINUOUS
 62
     6
100
AcDbLine
 10
1704.039185
 20
1126.617462
 30
0.0
 11
1713.729492
 21
1126.920288
 31
0.0
  0
LINE
  5
48E
100
AcDbEntity
  8
止水栓
  6
CONTINUOUS
 62
     6
100
AcDbLine
 10
1704.039185
 20
1145.32247
 30
0.0
 11
1713.729492
 21
1145.019653
 31
0.0
  0
LINE
  5
48F
100
AcDbEntity
  8
止水栓
  6
EXLTYPE3
 62
     6
100
AcDbLine
 10
1717.679181
 20
1135.969971
 30
0.0
 11
1563.039185
 21
1135.969971
 31
0.0
  0
LINE
  5
490
100
AcDbEntity
  8
止水栓
  6
CONTINUOUS
 62
     6
100
AcDbLine
 10
1647.039185
 20
1148.206236
 30
0.0
 11
1647.039185
 21
1123.733705
 31
0.0
  0
LINE
  5
491
100
AcDbEntity
  8
止水栓
  6
CONTINUOUS
 62
     6
100
AcDbLine
 10
1650.379181
 20
1125.469971
 30
0.0
 11
1650.379181
 21
1146.469971
 31
0.0
  0
LINE
  5
492
100
AcDbEntity
  8
止水栓
  6
CONTINUOUS
 62
     6
100
AcDbLine
 10
1647.039185
 20
1125.469971
 30
0.0
 11
1688.039185
 21
1125.469971
 31
0.0
  0
LINE
  5
493
100
AcDbEntity
  8
止水栓
  6
CONTINUOUS
 62
     6
100
AcDbLine
 10
1647.039185
 20
1125.492471
 30
0.0
 11
1647.759185
 21
1125.469971
 31
0.0
  0
LINE
  5
494
100
AcDbEntity
  8
止水栓
  6
CONTINUOUS
 62
     6
100
AcDbLine
 10
1650.379181
 20
1126.565598
 30
0.0
 11
1647.039185
 21
1126.66997
 31
0.0
  0
LINE
  5
495
100
AcDbEntity
  8
止水栓
  6
CONTINUOUS
 62
     6
100
AcDbLine
 10
1650.379181
 20
1126.565598
 30
0.0
 11
1652.276871
 21
1125.469971
 31
0.0
  0
ARC
  5
496
100
AcDbEntity
  8
止水栓
  6
CONTINUOUS
 62
     6
100
AcDbCircle
 10
1622.161843
 20
1151.657972
 30
0.0
 40
29.260121
100
AcDbArc
 50
298.534807
 51
304.198145
  0
ELLIPSE
  5
497
100
AcDbEntity
  8
止水栓
  6
CONTINUOUS
 62
     6
100
AcDbEllipse
 10
1641.91869
 20
1125.144653
 30
0.0
 11
4.8674696202900023
 21
0.0000000000000031
 31
0.0
210
0.0
220
0.0
230
1.0
 40
0.647642
 41
3.9646610872575119
 42
2.3185242199219314
  0
ARC
  5
498
100
AcDbEntity
  8
止水栓
  6
CONTINUOUS
 62
     6
100
AcDbCircle
 10
1622.161843
 20
1098.631334
 30
0.0
 40
29.260121
100
AcDbArc
 50
55.801855
 51
61.465193
  0
ELLIPSE
  5
499
100
AcDbEntity
  8
止水栓
  6
CONTINUOUS
 62
     6
100
AcDbEllipse
 10
1641.91869
 20
1135.969971
 30
0.0
 11
0.0000000000000044
 21
-6.3047601064600123
 31
0.0
210
0.0
220
0.0
230
1.0
 40
0.772031
 41
5.5334728336837546
 42
1.5707963267948972
  0
ARC
  5
49A
100
AcDbEntity
  8
止水栓
  6
CONTINUOUS
 62
     6
100
AcDbCircle
 10
1605.086613
 20
1105.855886
 30
0.0
 40
42.122584
100
AcDbArc
 50
37.043065
 51
42.506955
  0
LINE
  5
49B
100
AcDbEntity
  8
止水栓
  6
CONTINUOUS
 62
     6
100
AcDbLine
 10
1612.689185
 20
1171.369971
 30
0.0
 11
1612.689185
 21
1198.969971
 31
0.0
  0
LINE
  5
49C
100
AcDbEntity
  8
止水栓
  6
CONTINUOUS
 62
     6
100
AcDbLine
 10
1631.442253
 20
1260.392039
 30
0.0
 11
1614.605717
 21
1210.617236
 31
0.0
  0
LINE
  5
49D
100
AcDbEntity
  8
止水栓
  6
CONTINUOUS
 62
     6
100
AcDbLine
 10
1643.472653
 20
1256.322706
 30
0.0
 11
1626.636117
 21
1206.547902
 31
0.0
  0
ARC
  5
49E
100
AcDbEntity
  8
止水栓
  6
CONTINUOUS
 62
     6
100
AcDbCircle
 10
1609.039185
 20
1267.969971
 30
0.0
 40
23.65
100
AcDbArc
 50
341.311677
 51
0.0
  0
ARC
  5
49F
100
AcDbEntity
  8
止水栓
  6
CONTINUOUS
 62
     6
100
AcDbCircle
 10
1609.039185
 20
1267.969971
 30
0.0
 40
36.35
100
AcDbArc
 50
341.311677
 51
0.0
  0
ARC
  5
4A0
100
AcDbEntity
  8
止水栓
  6
CONTINUOUS
 62
     6
100
AcDbCircle
 10
1649.039185
 20
1198.969971
 30
0.0
 40
36.35
100
AcDbArc
 50
161.311677
 51
180.0
  0
ARC
  5
4A1
100
AcDbEntity
  8
止水栓
  6
CONTINUOUS
 62
     6
100
AcDbCircle
 10
1649.039185
 20
1198.969971
 30
0.0
 40
23.65
100
AcDbArc
 50
161.311677
 51
180.0
  0
LINE
  5
4A2
100
AcDbEntity
  8
止水栓
  6
CONTINUOUS
 62
     6
100
AcDbLine
 10
1761.242542
 20
1227.273846
 30
0.0
 11
1857.2
 21
1227.273846
 31
0.0
  0
TEXT
  5
4A3
100
AcDbEntity
  8
止水栓
  6
CONTINUOUS
 62
     2
100
AcDbText
 10
1761.242542
 20
1232.273846
 30
0.0
 40
40.0
  1
Ｒ
 41
0.9912
  7
EXCADSTD
 72
     5
 11
1799.00254
 21
1232.273846
 31
0.0
100
AcDbText
  0
TEXT
  5
4A4
100
AcDbEntity
  8
止水栓
  6
CONTINUOUS
 62
     6
100
AcDbText
 10
1804.107379
 20
1233.381482
 30
0.0
 40
40.0
  1
／ 
 41
0.9912
  7
EXCADSTD
 72
     5
 11
1841.867378
 21
1233.381482
 31
0.0
100
AcDbText
  0
TEXT
  5
4A5
100
AcDbEntity
  8
止水栓
  6
CONTINUOUS
 62
     2
100
AcDbText
 10
1792.513751
 20
1248.804456
 30
0.0
 40
25.0
  1
１
 41
0.9912
  7
EXCADSTD
 72
     5
 11
1816.113752
 21
1248.804456
 31
0.0
100
AcDbText
  0
TEXT
  5
4A6
100
AcDbEntity
  8
止水栓
  6
CONTINUOUS
 62
     2
100
AcDbText
 10
1827.772693
 20
1231.22038
 30
0.0
 40
25.0
  1
２
 41
0.9912
  7
EXCADSTD
 72
     5
 11
1851.372693
 21
1231.22038
 31
0.0
100
AcDbText
  0
LINE
  5
4A7
100
AcDbEntity
  8
止水栓
  6
CONTINUOUS
 62
     6
100
AcDbLine
 10
1632.689185
 20
1298.990859
 30
0.0
 11
1632.689185
 21
1267.8
 31
0.0
  0
LINE
  5
4A8
100
AcDbEntity
  8
止水栓
  6
CONTINUOUS
 62
     6
100
AcDbLine
 10
1645.389185
 20
1267.8
 30
0.0
 11
1645.389185
 21
1297.919297
 31
0.0
  0
ARC
  5
4A9
100
AcDbEntity
  8
止水栓
  6
CONTINUOUS
 62
     6
100
AcDbCircle
 10
1619.039185
 20
1182.969971
 30
0.0
 40
60.0
100
AcDbArc
 50
261.450921
 51
276.146672
  0
LINE
  5
4AA
100
AcDbEntity
  8
止水栓
  6
EXLTYPE3
 62
     6
100
AcDbLine
 10
1619.039185
 20
1192.8
 30
0.0
 11
1619.039185
 21
1119.5
 31
0.0
  0
LINE
  5
4AB
100
AcDbEntity
  8
止水栓
  6
CONTINUOUS
 62
     6
100
AcDbLine
 10
1296.091075
 20
1092.0
 30
0.0
 11
1455.00061
 21
1092.0
 31
0.0
  0
TEXT
  5
4AC
100
AcDbEntity
  8
止水栓
  6
CONTINUOUS
 62
     2
100
AcDbText
 10
1293.313342
 20
1097.0
 30
0.0
 40
40.0
  1
ＮＬ２Ｙ
 41
0.819
  7
EXCADSTD
 72
     5
 11
1449.313342
 21
1097.0
 31
0.0
100
AcDbText
  0
LEADER
  5
4AD
100
AcDbEntity
  8
止水栓
  6
CONTINUOUS
 62
     6
100
AcDbLeader
  3
STANDARD
 73
     3
 74
     1
 75
     0
 40
0.0
 76
     2
 10
810.801734
 20
608.806852
 30
0.0
 10
852.574784
 20
536.636403
 30
0.0
 77
     6
1001
ACAD
1000
DSTYLE
1002
{
1070
    41
1040
35.0
1070
     5
1000
_EX_NORM
1070
     6
1000
_EX_NORM
1070
     7
1000
_EX_NORM
1070
   341
1005
2C
1002
}
  0
LINE
  5
4AE
100
AcDbEntity
  8
止水栓
  6
CONTINUOUS
 62
     6
100
AcDbLine
 10
827.963013
 20
610.969971
 30
0.0
 11
827.963013
 21
612.96994
 31
0.0
  0
ARC
  5
4AF
100
AcDbEntity
  8
止水栓
  6
CONTINUOUS
 62
     6
100
AcDbCircle
 10
814.962982
 20
612.96994
 30
0.0
 40
13.000002
100
AcDbArc
 50
0.0
 51
66.735184
  0
ARC
  5
4B0
100
AcDbEntity
  8
止水栓
  6
CONTINUOUS
 62
     6
100
AcDbCircle
 10
810.104736
 20
601.670044
 30
0.0
 40
25.299997
100
AcDbArc
 50
66.735397
 51
90.0
  0
LINE
  5
4B1
100
AcDbEntity
  8
止水栓
  6
CONTINUOUS
 62
     6
100
AcDbLine
 10
790.821289
 20
626.970032
 30
0.0
 11
810.104736
 21
626.970032
 31
0.0
  0
ARC
  5
4B2
100
AcDbEntity
  8
止水栓
  6
CONTINUOUS
 62
     6
100
AcDbCircle
 10
790.821289
 20
601.670044
 30
0.0
 40
25.299997
100
AcDbArc
 50
90.0
 51
113.264603
  0
ARC
  5
4B3
100
AcDbEntity
  8
止水栓
  6
CONTINUOUS
 62
     6
100
AcDbCircle
 10
785.963043
 20
612.96994
 30
0.0
 40
13.000002
100
AcDbArc
 50
113.264816
 51
180.0
  0
LINE
  5
4B4
100
AcDbEntity
  8
止水栓
  6
CONTINUOUS
 62
     6
100
AcDbLine
 10
772.963013
 20
610.969971
 30
0.0
 11
772.963013
 21
612.96994
 31
0.0
  0
LINE
  5
4B5
100
AcDbEntity
  8
止水栓
  6
CONTINUOUS
 62
     6
100
AcDbLine
 10
790.271057
 20
604.111908
 30
0.0
 11
791.713013
 21
602.669952
 31
0.0
  0
LINE
  5
4B6
100
AcDbEntity
  8
止水栓
  6
CONTINUOUS
 62
     6
100
AcDbLine
 10
791.713013
 20
602.669952
 30
0.0
 11
809.213013
 21
602.669952
 31
0.0
  0
LINE
  5
4B7
100
AcDbEntity
  8
止水栓
  6
CONTINUOUS
 62
     6
100
AcDbLine
 10
790.271057
 20
604.111908
 30
0.0
 11
790.056671
 21
610.969971
 31
0.0
  0
LINE
  5
4B8
100
AcDbEntity
  8
止水栓
  6
CONTINUOUS
 62
     6
100
AcDbLine
 10
810.654968
 20
604.111908
 30
0.0
 11
810.869354
 21
610.969971
 31
0.0
  0
LINE
  5
4B9
100
AcDbEntity
  8
止水栓
  6
CONTINUOUS
 62
     6
100
AcDbLine
 10
790.271057
 20
604.111908
 30
0.0
 11
810.654968
 21
604.111908
 31
0.0
  0
LINE
  5
4BA
100
AcDbEntity
  8
止水栓
  6
CONTINUOUS
 62
     6
100
AcDbLine
 10
791.509918
 20
602.873047
 30
0.0
 11
791.256775
 21
610.969971
 31
0.0
  0
LINE
  5
4BB
100
AcDbEntity
  8
止水栓
  6
CONTINUOUS
 62
     6
100
AcDbLine
 10
809.66925
 20
610.969971
 30
0.0
 11
809.416107
 21
602.873047
 31
0.0
  0
LINE
  5
4BC
100
AcDbEntity
  8
止水栓
  6
CONTINUOUS
 62
     6
100
AcDbLine
 10
810.654968
 20
604.111908
 30
0.0
 11
809.213013
 21
602.669952
 31
0.0
  0
TEXT
  5
4BD
100
AcDbEntity
  8
止水栓
  6
CONTINUOUS
 62
     2
100
AcDbText
 10
852.574784
 20
541.636403
 30
0.0
 40
40.0
  1
Ｒ
 41
0.9912
  7
EXCADSTD
 72
     5
 11
890.334782
 21
541.636403
 31
0.0
100
AcDbText
  0
TEXT
  5
4BE
100
AcDbEntity
  8
止水栓
  6
CONTINUOUS
 62
     6
100
AcDbText
 10
896.839621
 20
542.744039
 30
0.0
 40
40.0
  1
／ 
 41
0.9912
  7
EXCADSTD
 72
     5
 11
934.59962
 21
542.744039
 31
0.0
100
AcDbText
  0
TEXT
  5
4BF
100
AcDbEntity
  8
止水栓
  6
CONTINUOUS
 62
     2
100
AcDbText
 10
885.245993
 20
558.167013
 30
0.0
 40
25.0
  1
１
 41
0.9912
  7
EXCADSTD
 72
     5
 11
908.845994
 21
558.167013
 31
0.0
100
AcDbText
  0
TEXT
  5
4C0
100
AcDbEntity
  8
止水栓
  6
CONTINUOUS
 62
     2
100
AcDbText
 10
920.504935
 20
540.582937
 30
0.0
 40
25.0
  1
２
 41
0.9912
  7
EXCADSTD
 72
     5
 11
944.104935
 21
540.582937
 31
0.0
100
AcDbText
  0
LINE
  5
4C1
100
AcDbEntity
  8
止水栓
  6
CONTINUOUS
 62
     6
100
AcDbLine
 10
852.574784
 20
536.636403
 30
0.0
 11
949.880301
 21
536.636403
 31
0.0
  0
LINE
  5
4C2
100
AcDbEntity
  8
止水栓
  6
EXLTYPE4
 62
     6
100
AcDbLine
 10
789.962982
 20
626.970032
 30
0.0
 11
789.962982
 21
882.0
 31
0.0
  0
LINE
  5
4C3
100
AcDbEntity
  8
止水栓
  6
EXLTYPE4
 62
     6
100
AcDbLine
 10
810.963043
 20
626.970032
 30
0.0
 11
810.963043
 21
882.0
 31
0.0
  0
DIMENSION
  5
4CF
100
AcDbEntity
  8
止水栓
  6
CONTINUOUS
 62
     2
100
AcDbDimension
  2
*D15
 10
800.463013
 20
471.0
 30
0.0
 11
955.463013
 21
494.5
 31
0.0
 70
   160
  1
115（床給水）
  3
STANDARD
100
AcDbAlignedDimension
 13
685.463013
 23
536.0
 33
0.0
 14
800.463013
 24
585.0
 34
0.0
100
AcDbRotatedDimension
1001
ACAD
1000
DSTYLE
1002
{
1070
     6
1000
_EX_NORM
1070
     7
1000
_EX_NORM
1070
    41
1040
30.0
1070
    42
1040
5.0
1070
    44
1040
10.0
1070
    73
1070
     0
1070
    74
1070
     0
1070
    75
1070
     0
1070
    76
1070
     0
1070
    77
1070
     1
1070
    78
1070
     8
1070
   140
1040
40.0
1070
   147
1040
3.5
1070
   173
1070
     1
1070
   176
1070
     3
1070
   177
1070
     3
1070
   178
1070
     2
1070
   271
1070
     2
1070
   279
1070
     2
1070
   280
1070
     2
1070
   287
1070
     5
1070
   340
1005
379
1002
}
  0
LINE
  5
4D0
100
AcDbEntity
  8
止水栓
  6
EXLTYPE3
 62
     6
100
AcDbLine
 10
800.463013
 20
892.0
 30
0.0
 11
800.463013
 21
596.1
 31
0.0
  0
LINE
  5
4D1
100
AcDbEntity
  8
止水栓
  6
CONTINUOUS
 62
     6
100
AcDbLine
 10
1666.539185
 20
610.969971
 30
0.0
 11
1666.539185
 21
612.96994
 31
0.0
  0
ARC
  5
4D2
100
AcDbEntity
  8
止水栓
  6
CONTINUOUS
 62
     6
100
AcDbCircle
 10
1653.539154
 20
612.96994
 30
0.0
 40
13.000002
100
AcDbArc
 50
0.0
 51
66.735184
  0
ARC
  5
4D3
100
AcDbEntity
  8
止水栓
  6
CONTINUOUS
 62
     6
100
AcDbCircle
 10
1648.680908
 20
601.670044
 30
0.0
 40
25.299997
100
AcDbArc
 50
66.735397
 51
90.0
  0
LINE
  5
4D4
100
AcDbEntity
  8
止水栓
  6
CONTINUOUS
 62
     6
100
AcDbLine
 10
1629.397461
 20
626.970032
 30
0.0
 11
1648.680908
 21
626.970032
 31
0.0
  0
ARC
  5
4D5
100
AcDbEntity
  8
止水栓
  6
CONTINUOUS
 62
     6
100
AcDbCircle
 10
1629.397461
 20
601.670044
 30
0.0
 40
25.299997
100
AcDbArc
 50
90.0
 51
113.264603
  0
ARC
  5
4D6
100
AcDbEntity
  8
止水栓
  6
CONTINUOUS
 62
     6
100
AcDbCircle
 10
1624.539215
 20
612.96994
 30
0.0
 40
13.000002
100
AcDbArc
 50
113.264816
 51
180.0
  0
LINE
  5
4D7
100
AcDbEntity
  8
止水栓
  6
CONTINUOUS
 62
     6
100
AcDbLine
 10
1611.539185
 20
610.969971
 30
0.0
 11
1611.539185
 21
612.96994
 31
0.0
  0
LINE
  5
4D8
100
AcDbEntity
  8
止水栓
  6
CONTINUOUS
 62
     6
100
AcDbLine
 10
1628.847229
 20
604.111908
 30
0.0
 11
1630.289185
 21
602.669952
 31
0.0
  0
LINE
  5
4D9
100
AcDbEntity
  8
止水栓
  6
CONTINUOUS
 62
     6
100
AcDbLine
 10
1630.289185
 20
602.669952
 30
0.0
 11
1647.789185
 21
602.669952
 31
0.0
  0
LINE
  5
4DA
100
AcDbEntity
  8
止水栓
  6
CONTINUOUS
 62
     6
100
AcDbLine
 10
1628.847229
 20
604.111908
 30
0.0
 11
1628.632843
 21
610.969971
 31
0.0
  0
LINE
  5
4DB
100
AcDbEntity
  8
止水栓
  6
CONTINUOUS
 62
     6
100
AcDbLine
 10
1649.23114
 20
604.111908
 30
0.0
 11
1649.445526
 21
610.969971
 31
0.0
  0
LINE
  5
4DC
100
AcDbEntity
  8
止水栓
  6
CONTINUOUS
 62
     6
100
AcDbLine
 10
1628.847229
 20
604.111908
 30
0.0
 11
1649.23114
 21
604.111908
 31
0.0
  0
LINE
  5
4DD
100
AcDbEntity
  8
止水栓
  6
CONTINUOUS
 62
     6
100
AcDbLine
 10
1630.08609
 20
602.873047
 30
0.0
 11
1629.832947
 21
610.969971
 31
0.0
  0
LINE
  5
4DE
100
AcDbEntity
  8
止水栓
  6
CONTINUOUS
 62
     6
100
AcDbLine
 10
1648.245422
 20
610.969971
 30
0.0
 11
1647.992279
 21
602.873047
 31
0.0
  0
LINE
  5
4DF
100
AcDbEntity
  8
止水栓
  6
CONTINUOUS
 62
     6
100
AcDbLine
 10
1649.23114
 20
604.111908
 30
0.0
 11
1647.789185
 21
602.669952
 31
0.0
  0
LINE
  5
4E0
100
AcDbEntity
  8
止水栓
  6
EXLTYPE4
 62
     6
100
AcDbLine
 10
1628.539154
 20
626.970032
 30
0.0
 11
1628.539154
 21
882.0
 31
0.0
  0
LINE
  5
4E1
100
AcDbEntity
  8
止水栓
  6
EXLTYPE4
 62
     6
100
AcDbLine
 10
1649.539215
 20
626.970032
 30
0.0
 11
1649.539215
 21
882.0
 31
0.0
  0
LINE
  5
4E2
100
AcDbEntity
  8
止水栓
  6
EXLTYPE3
 62
     6
100
AcDbLine
 10
1639.039185
 20
892.0
 30
0.0
 11
1639.039185
 21
596.1
 31
0.0
  0
DIMENSION
  5
4EE
100
AcDbEntity
  8
止水栓
  6
CONTINUOUS
 62
     2
100
AcDbDimension
  2
*D16
 10
1704.039185
 20
536.0
 30
0.0
 11
1844.039185
 21
559.5
 31
0.0
 70
   160
  1
65（床給水）
  3
STANDARD
100
AcDbAlignedDimension
 13
1639.039185
 23
596.1
 33
0.0
 14
1704.039185
 24
610.969971
 34
0.0
100
AcDbRotatedDimension
1001
ACAD
1000
DSTYLE
1002
{
1070
     6
1000
_EX_NORM
1070
     7
1000
_EX_NORM
1070
    41
1040
30.0
1070
    42
1040
5.0
1070
    44
1040
10.0
1070
    73
1070
     0
1070
    74
1070
     0
1070
    75
1070
     0
1070
    76
1070
     0
1070
    77
1070
     1
1070
    78
1070
     8
1070
   140
1040
40.0
1070
   147
1040
3.5
1070
   173
1070
     1
1070
   176
1070
     3
1070
   177
1070
     3
1070
   178
1070
     2
1070
   271
1070
     2
1070
   279
1070
     2
1070
   280
1070
     2
1070
   287
1070
     5
1070
   340
1005
379
1002
}
  0
LEADER
  5
4EF
100
AcDbEntity
  8
トラップ
  6
CONTINUOUS
 62
     6
100
AcDbLeader
  3
STANDARD
 73
     3
 74
     1
 75
     0
 40
0.0
 76
     2
 10
1546.34214
 20
894.999977
 30
0.0
 10
1477.092873
 20
835.294685
 30
0.0
 77
     6
1001
ACAD
1000
DSTYLE
1002
{
1070
    41
1040
35.0
1070
     5
1000
_EX_NORM
1070
     6
1000
_EX_NORM
1070
     7
1000
_EX_NORM
1070
   341
1005
2C
1002
}
  0
POLYLINE
  5
4F0
100
AcDbEntity
  8
トラップ
  6
CONTINUOUS
 62
     6
100
AcDb2dPolyline
 66
     1
 10
0.0
 20
0.0
 30
0.0
 70
   128
  0
VERTEX
  5
4F1
100
AcDbEntity
  8
トラップ
  6
CONTINUOUS
 62
     6
100
AcDbVertex
100
AcDb2dVertex
 10
1546.332123
 20
598.469971
 30
0.0
  0
VERTEX
  5
4F2
100
AcDbEntity
  8
トラップ
  6
CONTINUOUS
 62
     6
100
AcDbVertex
100
AcDb2dVertex
 10
1511.909028
 20
537.985976
 30
0.0
  0
SEQEND
  5
4F3
100
AcDbEntity
  8
トラップ
  6
CONTINUOUS
 62
     6
  0
LINE
  5
4F4
100
AcDbEntity
  8
トラップ
  6
CONTINUOUS
 62
     6
100
AcDbLine
 10
1534.089825
 20
565.166008
 30
0.0
 11
1546.332123
 21
598.469971
 31
0.0
  0
LINE
  5
4F5
100
AcDbEntity
  8
トラップ
  6
CONTINUOUS
 62
     6
100
AcDbLine
 10
1546.332123
 20
598.469971
 30
0.0
 11
1523.950286
 21
570.936697
 31
0.0
  0
POLYLINE
  5
4F6
100
AcDbEntity
  8
トラップ
  6
CONTINUOUS
 62
     6
100
AcDb2dPolyline
 66
     1
 10
0.0
 20
0.0
 30
0.0
 70
   128
  0
VERTEX
  5
4F7
100
AcDbEntity
  8
トラップ
  6
CONTINUOUS
 62
     6
100
AcDbVertex
100
AcDb2dVertex
 10
1720.0
 20
1098.670166
 30
0.0
  0
VERTEX
  5
4F8
100
AcDbEntity
  8
トラップ
  6
CONTINUOUS
 62
     6
100
AcDbVertex
100
AcDb2dVertex
 10
1757.136582
 20
1147.300476
 30
0.0
  0
SEQEND
  5
4F9
100
AcDbEntity
  8
トラップ
  6
CONTINUOUS
 62
     6
  0
LINE
  5
4FA
100
AcDbEntity
  8
トラップ
  6
CONTINUOUS
 62
     6
100
AcDbLine
 10
1736.606119
 20
1130.027216
 30
0.0
 11
1720.0
 21
1098.670166
 31
0.0
  0
LINE
  5
4FB
100
AcDbEntity
  8
トラップ
  6
CONTINUOUS
 62
     6
100
AcDbLine
 10
1720.0
 20
1098.670166
 30
0.0
 11
1745.878345
 21
1122.946472
 31
0.0
  0
LEADER
  5
4FC
100
AcDbEntity
  8
トラップ
  6
CONTINUOUS
 62
     6
100
AcDbLeader
  3
STANDARD
 73
     3
 74
     1
 75
     0
 40
0.0
 76
     2
 10
1546.339911
 20
1057.000032
 30
0.0
 10
1477.090644
 20
997.29474
 30
0.0
 77
     6
1001
ACAD
1000
DSTYLE
1002
{
1070
    41
1040
35.0
1070
     5
1000
_EX_NORM
1070
     6
1000
_EX_NORM
1070
     7
1000
_EX_NORM
1070
   341
1005
2C
1002
}
  0
LINE
  5
4FD
100
AcDbEntity
  8
トラップ
  6
CONTINUOUS
 62
     6
100
AcDbLine
 10
658.962463
 20
1196.972168
 30
0.0
 11
711.962341
 21
1196.972168
 31
0.0
  0
LINE
  5
4FE
100
AcDbEntity
  8
トラップ
  6
CONTINUOUS
 62
     6
100
AcDbLine
 10
711.962341
 20
1198.97168
 30
0.0
 11
711.962341
 21
1196.972168
 31
0.0
  0
LINE
  5
4FF
100
AcDbEntity
  8
トラップ
  6
CONTINUOUS
 62
     6
100
AcDbLine
 10
658.962463
 20
1198.97168
 30
0.0
 11
658.962463
 21
1196.972168
 31
0.0
  0
LINE
  5
500
100
AcDbEntity
  8
トラップ
  6
CONTINUOUS
 62
     6
100
AcDbLine
 10
710.999817
 20
1202.970703
 30
0.0
 11
714.463104
 21
1200.971191
 31
0.0
  0
LINE
  5
501
100
AcDbEntity
  8
トラップ
  6
CONTINUOUS
 62
     6
100
AcDbLine
 10
659.925446
 20
1202.970703
 30
0.0
 11
656.462158
 21
1200.971191
 31
0.0
  0
LINE
  5
502
100
AcDbEntity
  8
トラップ
  6
CONTINUOUS
 62
     6
100
AcDbLine
 10
656.462463
 20
1200.971191
 30
0.0
 11
714.462341
 21
1200.971191
 31
0.0
  0
LINE
  5
503
100
AcDbEntity
  8
トラップ
  6
CONTINUOUS
 62
     6
100
AcDbLine
 10
656.462463
 20
1198.97168
 30
0.0
 11
714.462341
 21
1198.97168
 31
0.0
  0
LINE
  5
504
100
AcDbEntity
  8
トラップ
  6
CONTINUOUS
 62
     6
100
AcDbLine
 10
714.462341
 20
1200.971191
 30
0.0
 11
714.462341
 21
1198.97168
 31
0.0
  0
LINE
  5
505
100
AcDbEntity
  8
トラップ
  6
CONTINUOUS
 62
     6
100
AcDbLine
 10
656.462463
 20
1200.971191
 30
0.0
 11
656.462463
 21
1198.97168
 31
0.0
  0
LINE
  5
506
100
AcDbEntity
  8
トラップ
  6
CONTINUOUS
 62
     6
100
AcDbLine
 10
702.962402
 20
1189.972656
 30
0.0
 11
705.462402
 21
1191.47168
 31
0.0
  0
LINE
  5
507
100
AcDbEntity
  8
トラップ
  6
CONTINUOUS
 62
     6
100
AcDbLine
 10
665.462402
 20
1191.47168
 30
0.0
 11
667.962402
 21
1189.972656
 31
0.0
  0
LINE
  5
508
100
AcDbEntity
  8
トラップ
  6
CONTINUOUS
 62
     6
100
AcDbLine
 10
667.962402
 20
1189.972656
 30
0.0
 11
702.962402
 21
1189.972656
 31
0.0
  0
LINE
  5
509
100
AcDbEntity
  8
トラップ
  6
CONTINUOUS
 62
     6
100
AcDbLine
 10
705.462402
 20
1196.972168
 30
0.0
 11
705.462402
 21
1191.47168
 31
0.0
  0
LINE
  5
50A
100
AcDbEntity
  8
トラップ
  6
CONTINUOUS
 62
     6
100
AcDbLine
 10
665.462402
 20
1196.972168
 30
0.0
 11
665.462402
 21
1191.47168
 31
0.0
  0
ARC
  5
50B
100
AcDbEntity
  8
トラップ
  6
CONTINUOUS
 62
     6
100
AcDbCircle
 10
669.441132
 20
1199.057129
 30
0.0
 40
8.483931
100
AcDbArc
 50
243.392502
 51
296.606125
  0
ARC
  5
50C
100
AcDbEntity
  8
トラップ
  6
CONTINUOUS
 62
     6
100
AcDbCircle
 10
685.462555
 20
1223.141602
 30
0.0
 40
32.567711
100
AcDbArc
 50
256.510895
 51
283.489105
  0
ARC
  5
50D
100
AcDbEntity
  8
トラップ
  6
CONTINUOUS
 62
     6
100
AcDbCircle
 10
701.484131
 20
1199.057129
 30
0.0
 40
8.483658
100
AcDbArc
 50
243.393875
 51
296.606125
  0
LINE
  5
50E
100
AcDbEntity
  8
トラップ
  6
CONTINUOUS
 62
     6
100
AcDbLine
 10
673.240723
 20
1191.47168
 30
0.0
 11
677.865662
 21
1191.47168
 31
0.0
  0
LINE
  5
50F
100
AcDbEntity
  8
トラップ
  6
CONTINUOUS
 62
     6
100
AcDbLine
 10
693.059448
 20
1191.47168
 30
0.0
 11
697.68454
 21
1191.47168
 31
0.0
  0
LINE
  5
510
100
AcDbEntity
  8
トラップ
  6
CONTINUOUS
 62
     6
100
AcDbLine
 10
697.68454
 20
1196.972168
 30
0.0
 11
697.68454
 21
1191.47168
 31
0.0
  0
LINE
  5
511
100
AcDbEntity
  8
トラップ
  6
CONTINUOUS
 62
     6
100
AcDbLine
 10
693.059448
 20
1196.972168
 30
0.0
 11
693.059448
 21
1191.47168
 31
0.0
  0
LINE
  5
512
100
AcDbEntity
  8
トラップ
  6
CONTINUOUS
 62
     6
100
AcDbLine
 10
677.865662
 20
1196.972168
 30
0.0
 11
677.865662
 21
1191.47168
 31
0.0
  0
LINE
  5
513
100
AcDbEntity
  8
トラップ
  6
CONTINUOUS
 62
     6
100
AcDbLine
 10
673.240723
 20
1196.972168
 30
0.0
 11
673.240723
 21
1191.47168
 31
0.0
  0
LINE
  5
514
100
AcDbEntity
  8
トラップ
  6
CONTINUOUS
 62
     6
100
AcDbLine
 10
667.962402
 20
1183.471191
 30
0.0
 11
702.962402
 21
1183.471191
 31
0.0
  0
ARC
  5
515
100
AcDbEntity
  8
トラップ
  6
CONTINUOUS
 62
     6
100
AcDbCircle
 10
674.526428
 20
1177.970703
 30
0.0
 40
8.563983
100
AcDbArc
 50
140.037827
 51
219.962143
  0
LINE
  5
516
100
AcDbEntity
  8
トラップ
  6
CONTINUOUS
 62
     6
100
AcDbLine
 10
667.962402
 20
1172.470215
 30
0.0
 11
702.962402
 21
1172.470215
 31
0.0
  0
ARC
  5
517
100
AcDbEntity
  8
トラップ
  6
CONTINUOUS
 62
     6
100
AcDbCircle
 10
696.398377
 20
1177.970703
 30
0.0
 40
8.563983
100
AcDbArc
 50
320.037842
 51
39.962158
  0
LINE
  5
518
100
AcDbEntity
  8
トラップ
  6
CONTINUOUS
 62
     6
100
AcDbLine
 10
701.462463
 20
1189.972656
 30
0.0
 11
701.462463
 21
1183.471191
 31
0.0
  0
LINE
  5
519
100
AcDbEntity
  8
トラップ
  6
CONTINUOUS
 62
     6
100
AcDbLine
 10
669.462341
 20
1189.972656
 30
0.0
 11
669.462341
 21
1183.471191
 31
0.0
  0
ELLIPSE
  5
51A
100
AcDbEntity
  8
トラップ
  6
CONTINUOUS
 62
     6
100
AcDbEllipse
 10
669.874668
 20
1177.970215
 30
0.0
 11
0.0000000000000034
 21
-4.8408111789410002
 31
0.0
210
0.0
220
0.0
230
1.0
 40
0.774825
 41
0.0
 42
6.2831853071796004
  0
ELLIPSE
  5
51B
100
AcDbEntity
  8
トラップ
  6
CONTINUOUS
 62
     6
100
AcDbEllipse
 10
685.463013
 20
1177.970215
 30
0.0
 11
7.4992041114520003
 21
0.0
 31
0.0
210
0.0
220
0.0
230
1.0
 40
0.64551
 41
0.0
 42
6.2831853071796004
  0
ELLIPSE
  5
51C
100
AcDbEntity
  8
トラップ
  6
CONTINUOUS
 62
     6
100
AcDbEllipse
 10
701.051357
 20
1177.970215
 30
0.0
 11
0.0000000000000034
 21
-4.8408111789410002
 31
0.0
210
0.0
220
0.0
230
1.0
 40
0.774825
 41
0.0
 42
6.2831853071796004
  0
ARC
  5
51D
100
AcDbEntity
  8
トラップ
  6
CONTINUOUS
 62
     6
100
AcDbCircle
 10
674.526428
 20
1117.468994
 30
0.0
 40
8.563983
100
AcDbArc
 50
140.037827
 51
219.962143
  0
LINE
  5
51E
100
AcDbEntity
  8
トラップ
  6
CONTINUOUS
 62
     6
100
AcDbLine
 10
667.962402
 20
1111.968506
 30
0.0
 11
702.962402
 21
1111.968506
 31
0.0
  0
ARC
  5
51F
100
AcDbEntity
  8
トラップ
  6
CONTINUOUS
 62
     6
100
AcDbCircle
 10
696.398377
 20
1117.468994
 30
0.0
 40
8.563983
100
AcDbArc
 50
320.037842
 51
39.962158
  0
LINE
  5
520
100
AcDbEntity
  8
トラップ
  6
CONTINUOUS
 62
     6
100
AcDbLine
 10
667.962402
 20
1122.969482
 30
0.0
 11
702.962402
 21
1122.969482
 31
0.0
  0
ELLIPSE
  5
521
100
AcDbEntity
  8
トラップ
  6
CONTINUOUS
 62
     6
100
AcDbEllipse
 10
669.874668
 20
1117.468506
 30
0.0
 11
0.0000000000000034
 21
-4.8408112788940008
 31
0.0
210
0.0
220
0.0
230
1.0
 40
0.774825
 41
0.0
 42
6.2831853071796004
  0
ELLIPSE
  5
522
100
AcDbEntity
  8
トラップ
  6
CONTINUOUS
 62
     6
100
AcDbEllipse
 10
685.463013
 20
1117.468506
 30
0.0
 11
7.4992041182000024
 21
0.0
 31
0.0
210
0.0
220
0.0
230
1.0
 40
0.64551
 41
0.0
 42
6.2831853071796004
  0
ELLIPSE
  5
523
100
AcDbEntity
  8
トラップ
  6
CONTINUOUS
 62
     6
100
AcDbEllipse
 10
701.051357
 20
1117.468506
 30
0.0
 11
0.0000000000000034
 21
-4.8408112788940008
 31
0.0
210
0.0
220
0.0
230
1.0
 40
0.774825
 41
0.0
 42
6.2831853071796004
  0
LINE
  5
524
100
AcDbEntity
  8
トラップ
  6
CONTINUOUS
 62
     6
100
AcDbLine
 10
672.76297
 20
1122.969482
 30
0.0
 11
672.76297
 21
1172.470215
 31
0.0
  0
LINE
  5
525
100
AcDbEntity
  8
トラップ
  6
CONTINUOUS
 62
     6
100
AcDbLine
 10
698.163055
 20
1122.969482
 30
0.0
 11
698.163055
 21
1172.470215
 31
0.0
  0
ARC
  5
526
100
AcDbEntity
  8
トラップ
  6
CONTINUOUS
 62
     6
100
AcDbCircle
 10
685.463013
 20
1000.469482
 30
0.0
 40
12.700043
100
AcDbArc
 50
180.000015
 51
0.0
  0
LINE
  5
527
100
AcDbEntity
  8
トラップ
  6
CONTINUOUS
 62
     6
100
AcDbLine
 10
671.762909
 20
1069.468506
 30
0.0
 11
699.162811
 21
1069.468506
 31
0.0
  0
LINE
  5
528
100
AcDbEntity
  8
トラップ
  6
CONTINUOUS
 62
     6
100
AcDbLine
 10
671.762909
 20
1069.375732
 30
0.0
 11
671.762604
 21
1111.968506
 31
0.0
  0
LINE
  5
529
100
AcDbEntity
  8
トラップ
  6
CONTINUOUS
 62
     6
100
AcDbLine
 10
672.762817
 20
1065.645264
 30
0.0
 11
671.762909
 21
1069.375732
 31
0.0
  0
LINE
  5
52A
100
AcDbEntity
  8
トラップ
  6
CONTINUOUS
 62
     6
100
AcDbLine
 10
672.762817
 20
1065.645264
 30
0.0
 11
672.763123
 21
1000.469482
 31
0.0
  0
LINE
  5
52B
100
AcDbEntity
  8
トラップ
  6
CONTINUOUS
 62
     6
100
AcDbLine
 10
698.162903
 20
1065.645264
 30
0.0
 11
698.163208
 21
1000.469482
 31
0.0
  0
LINE
  5
52C
100
AcDbEntity
  8
トラップ
  6
CONTINUOUS
 62
     6
100
AcDbLine
 10
698.162903
 20
1065.645264
 30
0.0
 11
699.162811
 21
1069.378174
 31
0.0
  0
ARC
  5
52D
100
AcDbEntity
  8
トラップ
  6
CONTINUOUS
 62
     6
100
AcDbCircle
 10
685.463013
 20
1085.969971
 30
0.0
 40
30.0
100
AcDbArc
 50
119.932042
 51
244.954442
  0
ARC
  5
52E
100
AcDbEntity
  8
トラップ
  6
CONTINUOUS
 62
     6
100
AcDbCircle
 10
685.463013
 20
1085.969971
 30
0.0
 40
30.0
100
AcDbArc
 50
295.04505
 51
60.067958
  0
LINE
  5
52F
100
AcDbEntity
  8
トラップ
  6
EXLTYPE2
 62
     6
100
AcDbLine
 10
699.166473
 20
585.969971
 30
0.0
 11
724.566559
 21
585.969971
 31
0.0
  0
LINE
  5
530
100
AcDbEntity
  8
トラップ
  6
EXLTYPE2
 62
     6
100
AcDbLine
 10
724.566559
 20
585.969971
 30
0.0
 11
724.566406
 21
610.969971
 31
0.0
  0
LINE
  5
531
100
AcDbEntity
  8
トラップ
  6
EXLTYPE2
 62
     6
100
AcDbLine
 10
699.166473
 20
585.969971
 30
0.0
 11
699.166321
 21
610.969971
 31
0.0
  0
ARC
  5
532
100
AcDbEntity
  8
トラップ
  6
EXLTYPE2
 62
     6
100
AcDbCircle
 10
729.866394
 20
612.96994
 30
0.0
 40
11.999998
100
AcDbArc
 50
0.0
 51
90.0
  0
LINE
  5
533
100
AcDbEntity
  8
トラップ
  6
EXLTYPE2
 62
     6
100
AcDbLine
 10
741.866364
 20
610.969971
 30
0.0
 11
741.866364
 21
612.96994
 31
0.0
  0
ARC
  5
534
100
AcDbEntity
  8
トラップ
  6
EXLTYPE2
 62
     6
100
AcDbCircle
 10
693.866333
 20
612.96994
 30
0.0
 40
11.999998
100
AcDbArc
 50
90.0
 51
180.000732
  0
LINE
  5
535
100
AcDbEntity
  8
トラップ
  6
EXLTYPE2
 62
     6
100
AcDbLine
 10
693.866333
 20
624.96991
 30
0.0
 11
729.866394
 21
624.96991
 31
0.0
  0
LINE
  5
536
100
AcDbEntity
  8
トラップ
  6
EXLTYPE2
 62
     6
100
AcDbLine
 10
681.866364
 20
610.969971
 30
0.0
 11
681.866364
 21
612.969788
 31
0.0
  0
LINE
  5
537
100
AcDbEntity
  8
トラップ
  6
CONTINUOUS
 62
     6
100
AcDbLine
 10
667.463135
 20
1047.969482
 30
0.0
 11
667.463135
 21
1036.968506
 31
0.0
  0
LINE
  5
538
100
AcDbEntity
  8
トラップ
  6
CONTINUOUS
 62
     6
100
AcDbLine
 10
703.463196
 20
1047.969482
 30
0.0
 11
703.463196
 21
1036.968506
 31
0.0
  0
LINE
  5
539
100
AcDbEntity
  8
トラップ
  6
CONTINUOUS
 62
     6
100
AcDbLine
 10
667.463135
 20
1047.969482
 30
0.0
 11
672.763275
 21
1047.969482
 31
0.0
  0
LINE
  5
53A
100
AcDbEntity
  8
トラップ
  6
CONTINUOUS
 62
     6
100
AcDbLine
 10
698.163361
 20
1047.969482
 30
0.0
 11
703.463196
 21
1047.969482
 31
0.0
  0
LINE
  5
53B
100
AcDbEntity
  8
トラップ
  6
CONTINUOUS
 62
     6
100
AcDbLine
 10
667.463135
 20
1036.968506
 30
0.0
 11
672.763275
 21
1036.968506
 31
0.0
  0
LINE
  5
53C
100
AcDbEntity
  8
トラップ
  6
CONTINUOUS
 62
     6
100
AcDbLine
 10
698.163361
 20
1036.968506
 30
0.0
 11
703.463196
 21
1036.968506
 31
0.0
  0
ARC
  5
53D
100
AcDbEntity
  8
トラップ
  6
CONTINUOUS
 62
     6
100
AcDbCircle
 10
711.863057
 20
1085.97148
 30
0.0
 40
12.700059
100
AcDbArc
 50
0.0
 51
180.000411
  0
LINE
  5
53E
100
AcDbEntity
  8
トラップ
  6
EXLTYPE4
 62
     6
100
AcDbLine
 10
724.566254
 20
624.96991
 30
0.0
 11
724.562925
 21
1085.97148
 31
0.0
  0
LINE
  5
53F
100
AcDbEntity
  8
トラップ
  6
EXLTYPE4
 62
     6
100
AcDbLine
 10
699.166168
 20
624.96991
 30
0.0
 11
699.162871
 21
1085.971389
 31
0.0
  0
LINE
  5
540
100
AcDbEntity
  8
トラップ
  6
CONTINUOUS
 62
     6
100
AcDbLine
 10
699.162871
 20
1085.971389
 30
0.0
 11
699.162871
 21
1111.968506
 31
0.0
  0
LINE
  5
541
100
AcDbEntity
  8
トラップ
  6
CONTINUOUS
 62
     6
100
AcDbLine
 10
1584.574768
 20
1202.970703
 30
0.0
 11
1588.038055
 21
1200.971191
 31
0.0
  0
LINE
  5
542
100
AcDbEntity
  8
トラップ
  6
CONTINUOUS
 62
     6
100
AcDbLine
 10
1533.50116
 20
1202.970703
 30
0.0
 11
1530.038025
 21
1200.971191
 31
0.0
  0
LINE
  5
543
100
AcDbEntity
  8
トラップ
  6
CONTINUOUS
 62
     6
100
AcDbLine
 10
1530.038177
 20
1200.971191
 30
0.0
 11
1588.038055
 21
1200.971191
 31
0.0
  0
LINE
  5
544
100
AcDbEntity
  8
トラップ
  6
CONTINUOUS
 62
     6
100
AcDbLine
 10
1530.038177
 20
1198.97168
 30
0.0
 11
1588.038055
 21
1198.97168
 31
0.0
  0
LINE
  5
545
100
AcDbEntity
  8
トラップ
  6
CONTINUOUS
 62
     6
100
AcDbLine
 10
1588.038055
 20
1200.971191
 30
0.0
 11
1588.038055
 21
1198.97168
 31
0.0
  0
LINE
  5
546
100
AcDbEntity
  8
トラップ
  6
CONTINUOUS
 62
     6
100
AcDbLine
 10
1530.038177
 20
1200.971191
 30
0.0
 11
1530.038177
 21
1198.97168
 31
0.0
  0
LINE
  5
547
100
AcDbEntity
  8
トラップ
  6
CONTINUOUS
 62
     6
100
AcDbLine
 10
1532.538177
 20
1196.972168
 30
0.0
 11
1585.538055
 21
1196.972168
 31
0.0
  0
LINE
  5
548
100
AcDbEntity
  8
トラップ
  6
CONTINUOUS
 62
     6
100
AcDbLine
 10
1585.538055
 20
1198.97168
 30
0.0
 11
1585.538055
 21
1196.972168
 31
0.0
  0
LINE
  5
549
100
AcDbEntity
  8
トラップ
  6
CONTINUOUS
 62
     6
100
AcDbLine
 10
1532.538177
 20
1198.97168
 30
0.0
 11
1532.538177
 21
1196.972168
 31
0.0
  0
LINE
  5
54A
100
AcDbEntity
  8
トラップ
  6
CONTINUOUS
 62
     6
100
AcDbLine
 10
1540.538208
 20
1191.47168
 30
0.0
 11
1541.538269
 21
1189.972656
 31
0.0
  0
LINE
  5
54B
100
AcDbEntity
  8
トラップ
  6
CONTINUOUS
 62
     6
100
AcDbLine
 10
1576.538269
 20
1189.972656
 30
0.0
 11
1577.53833
 21
1191.47168
 31
0.0
  0
LINE
  5
54C
100
AcDbEntity
  8
トラップ
  6
CONTINUOUS
 62
     6
100
AcDbLine
 10
1541.538269
 20
1189.972656
 30
0.0
 11
1576.538269
 21
1189.972656
 31
0.0
  0
LINE
  5
54D
100
AcDbEntity
  8
トラップ
  6
CONTINUOUS
 62
     6
100
AcDbLine
 10
1577.538177
 20
1196.972168
 30
0.0
 11
1577.53833
 21
1191.47168
 31
0.0
  0
LINE
  5
54E
100
AcDbEntity
  8
トラップ
  6
CONTINUOUS
 62
     6
100
AcDbLine
 10
1540.538055
 20
1196.972168
 30
0.0
 11
1540.538208
 21
1191.47168
 31
0.0
  0
ARC
  5
54F
100
AcDbEntity
  8
トラップ
  6
CONTINUOUS
 62
     6
100
AcDbCircle
 10
1549.789307
 20
1205.177734
 30
0.0
 40
15.204964
100
AcDbArc
 50
244.343979
 51
295.655243
  0
ARC
  5
550
100
AcDbEntity
  8
トラップ
  6
CONTINUOUS
 62
     6
100
AcDbCircle
 10
1568.288605
 20
1205.172852
 30
0.0
 40
15.199289
100
AcDbArc
 50
244.340698
 51
295.659302
  0
LINE
  5
551
100
AcDbEntity
  8
トラップ
  6
CONTINUOUS
 62
     6
100
AcDbLine
 10
1540.538208
 20
1191.47168
 30
0.0
 11
1543.206055
 21
1191.47168
 31
0.0
  0
LINE
  5
552
100
AcDbEntity
  8
トラップ
  6
CONTINUOUS
 62
     6
100
AcDbLine
 10
1556.372406
 20
1191.47168
 30
0.0
 11
1561.706726
 21
1191.47168
 31
0.0
  0
LINE
  5
553
100
AcDbEntity
  8
トラップ
  6
CONTINUOUS
 62
     6
100
AcDbLine
 10
1574.870483
 20
1191.47168
 30
0.0
 11
1577.53833
 21
1191.47168
 31
0.0
  0
LINE
  5
554
100
AcDbEntity
  8
トラップ
  6
CONTINUOUS
 62
     6
100
AcDbLine
 10
1574.870483
 20
1196.972168
 30
0.0
 11
1574.870483
 21
1191.47168
 31
0.0
  0
LINE
  5
555
100
AcDbEntity
  8
トラップ
  6
CONTINUOUS
 62
     6
100
AcDbLine
 10
1561.706726
 20
1196.972168
 30
0.0
 11
1561.706726
 21
1191.47168
 31
0.0
  0
LINE
  5
556
100
AcDbEntity
  8
トラップ
  6
CONTINUOUS
 62
     6
100
AcDbLine
 10
1556.372406
 20
1196.972168
 30
0.0
 11
1556.372406
 21
1191.47168
 31
0.0
  0
LINE
  5
557
100
AcDbEntity
  8
トラップ
  6
CONTINUOUS
 62
     6
100
AcDbLine
 10
1543.206055
 20
1196.972168
 30
0.0
 11
1543.206055
 21
1191.47168
 31
0.0
  0
LINE
  5
558
100
AcDbEntity
  8
トラップ
  6
CONTINUOUS
 62
     6
100
AcDbLine
 10
1575.03833
 20
1189.972656
 30
0.0
 11
1575.03833
 21
1183.471191
 31
0.0
  0
LINE
  5
559
100
AcDbEntity
  8
トラップ
  6
CONTINUOUS
 62
     6
100
AcDbLine
 10
1543.038208
 20
1189.972656
 30
0.0
 11
1543.038208
 21
1183.471191
 31
0.0
  0
LINE
  5
55A
100
AcDbEntity
  8
トラップ
  6
CONTINUOUS
 62
     6
100
AcDbLine
 10
1541.538422
 20
1172.470215
 30
0.0
 11
1576.538422
 21
1172.470215
 31
0.0
  0
LINE
  5
55B
100
AcDbEntity
  8
トラップ
  6
CONTINUOUS
 62
     6
100
AcDbLine
 10
1541.538269
 20
1183.471191
 30
0.0
 11
1576.538269
 21
1183.471191
 31
0.0
  0
ARC
  5
55C
100
AcDbEntity
  8
トラップ
  6
CONTINUOUS
 62
     6
100
AcDbCircle
 10
1548.1026
 20
1177.970703
 30
0.0
 40
8.564217
100
AcDbArc
 50
140.039139
 51
145.597
  0
ARC
  5
55D
100
AcDbEntity
  8
トラップ
  6
CONTINUOUS
 62
     6
100
AcDbCircle
 10
1548.1026
 20
1177.970703
 30
0.0
 40
8.564211
100
AcDbArc
 50
214.403
 51
219.961517
  0
ARC
  5
55E
100
AcDbEntity
  8
トラップ
  6
CONTINUOUS
 62
     6
100
AcDbCircle
 10
1569.974701
 20
1177.970703
 30
0.0
 40
8.563749
100
AcDbArc
 50
320.03653
 51
325.594696
  0
ARC
  5
55F
100
AcDbEntity
  8
トラップ
  6
CONTINUOUS
 62
     6
100
AcDbCircle
 10
1569.974701
 20
1177.970703
 30
0.0
 40
8.563708
100
AcDbArc
 50
34.405304
 51
39.964127
  0
LINE
  5
560
100
AcDbEntity
  8
トラップ
  6
CONTINUOUS
 62
     6
100
AcDbLine
 10
1541.039612
 20
1173.131836
 30
0.0
 11
1541.039612
 21
1182.80957
 31
0.0
  0
LINE
  5
561
100
AcDbEntity
  8
トラップ
  6
CONTINUOUS
 62
     6
100
AcDbLine
 10
1577.039673
 20
1173.131836
 30
0.0
 11
1577.039673
 21
1182.80957
 31
0.0
  0
ELLIPSE
  5
562
100
AcDbEntity
  8
トラップ
  6
CONTINUOUS
 62
     6
100
AcDbEllipse
 10
1550.039856
 20
1177.971191
 30
0.0
 11
6.4957905275820025
 21
0.0
 31
0.0
210
0.0
220
0.0
230
1.0
 40
0.744999
 41
0.0
 42
6.2831853071796004
  0
ELLIPSE
  5
563
100
AcDbEntity
  8
トラップ
  6
CONTINUOUS
 62
     6
100
AcDbEllipse
 10
1568.038513
 20
1177.971191
 30
0.0
 11
6.4957905275820025
 21
0.0
 31
0.0
210
0.0
220
0.0
230
1.0
 40
0.744999
 41
0.0
 42
6.2831853071796004
  0
LINE
  5
564
100
AcDbEntity
  8
トラップ
  6
CONTINUOUS
 62
     6
100
AcDbLine
 10
1704.039185
 20
1098.670166
 30
0.0
 11
1734.039185
 21
1098.670166
 31
0.0
  0
LINE
  5
565
100
AcDbEntity
  8
トラップ
  6
CONTINUOUS
 62
     6
100
AcDbLine
 10
1734.039185
 20
1098.670166
 30
0.0
 11
1734.039185
 21
1073.269775
 31
0.0
  0
LINE
  5
566
100
AcDbEntity
  8
トラップ
  6
CONTINUOUS
 62
     6
100
AcDbLine
 10
1704.039185
 20
1073.269775
 30
0.0
 11
1734.039185
 21
1073.269775
 31
0.0
  0
LINE
  5
567
100
AcDbEntity
  8
トラップ
  6
CONTINUOUS
 62
     6
100
AcDbLine
 10
1702.039673
 20
1055.969971
 30
0.0
 11
1704.039185
 21
1055.969971
 31
0.0
  0
ARC
  5
568
100
AcDbEntity
  8
トラップ
  6
CONTINUOUS
 62
     6
100
AcDbCircle
 10
1702.039673
 20
1067.969482
 30
0.0
 40
11.99997
100
AcDbArc
 50
180.000015
 51
270.0
  0
LINE
  5
569
100
AcDbEntity
  8
トラップ
  6
CONTINUOUS
 62
     6
100
AcDbLine
 10
1690.040161
 20
1103.970459
 30
0.0
 11
1690.040161
 21
1067.969482
 31
0.0
  0
LINE
  5
56A
100
AcDbEntity
  8
トラップ
  6
CONTINUOUS
 62
     6
100
AcDbLine
 10
1546.339905
 20
1172.470215
 30
0.0
 11
1546.339905
 21
1122.969482
 31
0.0
  0
POLYLINE
  5
56B
100
AcDbEntity
  8
トラップ
  6
CONTINUOUS
 62
     6
100
AcDb2dPolyline
 66
     1
 10
0.0
 20
0.0
 30
0.0
 70
   128
  0
VERTEX
  5
56C
100
AcDbEntity
  8
トラップ
  6
CONTINUOUS
 62
     6
100
AcDbVertex
100
AcDb2dVertex
 10
1641.809138
 20
1041.717041
 30
0.0
  0
VERTEX
  5
56D
100
AcDbEntity
  8
トラップ
  6
CONTINUOUS
 62
     6
100
AcDbVertex
100
AcDb2dVertex
 10
1641.881464
 20
1042.129639
 30
0.0
  0
VERTEX
  5
56E
100
AcDbEntity
  8
トラップ
  6
CONTINUOUS
 62
     6
100
AcDbVertex
100
AcDb2dVertex
 10
1641.924952
 20
1042.547119
 30
0.0
  0
VERTEX
  5
56F
100
AcDbEntity
  8
トラップ
  6
CONTINUOUS
 62
     6
100
AcDbVertex
100
AcDb2dVertex
 10
1641.939448
 20
1042.969482
 30
0.0
  0
SEQEND
  5
570
100
AcDbEntity
  8
トラップ
  6
CONTINUOUS
 62
     6
  0
POLYLINE
  5
571
100
AcDbEntity
  8
トラップ
  6
CONTINUOUS
 62
     6
100
AcDb2dPolyline
 66
     1
 10
0.0
 20
0.0
 30
0.0
 70
   128
  0
VERTEX
  5
572
100
AcDbEntity
  8
トラップ
  6
CONTINUOUS
 62
     6
100
AcDbVertex
100
AcDb2dVertex
 10
1641.939753
 20
1042.969482
 30
0.0
  0
VERTEX
  5
573
100
AcDbEntity
  8
トラップ
  6
CONTINUOUS
 62
     6
100
AcDbVertex
100
AcDb2dVertex
 10
1641.925257
 20
1043.391846
 30
0.0
  0
VERTEX
  5
574
100
AcDbEntity
  8
トラップ
  6
CONTINUOUS
 62
     6
100
AcDbVertex
100
AcDb2dVertex
 10
1641.88177
 20
1043.809326
 30
0.0
  0
VERTEX
  5
575
100
AcDbEntity
  8
トラップ
  6
CONTINUOUS
 62
     6
100
AcDbVertex
100
AcDb2dVertex
 10
1641.809138
 20
1044.221924
 30
0.0
  0
VERTEX
  5
576
100
AcDbEntity
  8
トラップ
  6
CONTINUOUS
 62
     6
100
AcDbVertex
100
AcDb2dVertex
 10
1641.708582
 20
1044.624756
 30
0.0
  0
VERTEX
  5
577
100
AcDbEntity
  8
トラップ
  6
CONTINUOUS
 62
     6
100
AcDbVertex
100
AcDb2dVertex
 10
1641.580714
 20
1045.015381
 30
0.0
  0
VERTEX
  5
578
100
AcDbEntity
  8
トラップ
  6
CONTINUOUS
 62
     6
100
AcDbVertex
100
AcDb2dVertex
 10
1641.426447
 20
1045.391357
 30
0.0
  0
VERTEX
  5
579
100
AcDbEntity
  8
トラップ
  6
CONTINUOUS
 62
     6
100
AcDbVertex
100
AcDb2dVertex
 10
1641.246851
 20
1045.747803
 30
0.0
  0
VERTEX
  5
57A
100
AcDbEntity
  8
トラップ
  6
CONTINUOUS
 62
     6
100
AcDbVertex
100
AcDb2dVertex
 10
1641.043452
 20
1046.082275
 30
0.0
  0
VERTEX
  5
57B
100
AcDbEntity
  8
トラップ
  6
CONTINUOUS
 62
     6
100
AcDbVertex
100
AcDb2dVertex
 10
1640.817927
 20
1046.394775
 30
0.0
  0
VERTEX
  5
57C
100
AcDbEntity
  8
トラップ
  6
CONTINUOUS
 62
     6
100
AcDbVertex
100
AcDb2dVertex
 10
1640.571497
 20
1046.68042
 30
0.0
  0
VERTEX
  5
57D
100
AcDbEntity
  8
トラップ
  6
CONTINUOUS
 62
     6
100
AcDbVertex
100
AcDb2dVertex
 10
1640.306605
 20
1046.936768
 30
0.0
  0
VERTEX
  5
57E
100
AcDbEntity
  8
トラップ
  6
CONTINUOUS
 62
     6
100
AcDbVertex
100
AcDb2dVertex
 10
1640.024165
 20
1047.163818
 30
0.0
  0
VERTEX
  5
57F
100
AcDbEntity
  8
トラップ
  6
CONTINUOUS
 62
     6
100
AcDbVertex
100
AcDb2dVertex
 10
1639.727686
 20
1047.359131
 30
0.0
  0
VERTEX
  5
580
100
AcDbEntity
  8
トラップ
  6
CONTINUOUS
 62
     6
100
AcDbVertex
100
AcDb2dVertex
 10
1639.418696
 20
1047.520264
 30
0.0
  0
VERTEX
  5
581
100
AcDbEntity
  8
トラップ
  6
CONTINUOUS
 62
     6
100
AcDbVertex
100
AcDb2dVertex
 10
1639.100245
 20
1047.647217
 30
0.0
  0
VERTEX
  5
582
100
AcDbEntity
  8
トラップ
  6
CONTINUOUS
 62
     6
100
AcDbVertex
100
AcDb2dVertex
 10
1638.774012
 20
1047.737549
 30
0.0
  0
VERTEX
  5
583
100
AcDbEntity
  8
トラップ
  6
CONTINUOUS
 62
     6
100
AcDbVertex
100
AcDb2dVertex
 10
1638.442591
 20
1047.793701
 30
0.0
  0
VERTEX
  5
584
100
AcDbEntity
  8
トラップ
  6
CONTINUOUS
 62
     6
100
AcDbVertex
100
AcDb2dVertex
 10
1638.108576
 20
1047.810791
 30
0.0
  0
VERTEX
  5
585
100
AcDbEntity
  8
トラップ
  6
CONTINUOUS
 62
     6
100
AcDbVertex
100
AcDb2dVertex
 10
1637.774561
 20
1047.79126
 30
0.0
  0
VERTEX
  5
586
100
AcDbEntity
  8
トラップ
  6
CONTINUOUS
 62
     6
100
AcDbVertex
100
AcDb2dVertex
 10
1637.44314
 20
1047.737549
 30
0.0
  0
VERTEX
  5
587
100
AcDbEntity
  8
トラップ
  6
CONTINUOUS
 62
     6
100
AcDbVertex
100
AcDb2dVertex
 10
1637.117213
 20
1047.647217
 30
0.0
  0
VERTEX
  5
588
100
AcDbEntity
  8
トラップ
  6
CONTINUOUS
 62
     6
100
AcDbVertex
100
AcDb2dVertex
 10
1636.798457
 20
1047.520264
 30
0.0
  0
VERTEX
  5
589
100
AcDbEntity
  8
トラップ
  6
CONTINUOUS
 62
     6
100
AcDbVertex
100
AcDb2dVertex
 10
1636.489771
 20
1047.359131
 30
0.0
  0
VERTEX
  5
58A
100
AcDbEntity
  8
トラップ
  6
CONTINUOUS
 62
     6
100
AcDbVertex
100
AcDb2dVertex
 10
1636.19314
 20
1047.163818
 30
0.0
  0
VERTEX
  5
58B
100
AcDbEntity
  8
トラップ
  6
CONTINUOUS
 62
     6
100
AcDbVertex
100
AcDb2dVertex
 10
1635.911311
 20
1046.936768
 30
0.0
  0
VERTEX
  5
58C
100
AcDbEntity
  8
トラップ
  6
CONTINUOUS
 62
     6
100
AcDbVertex
100
AcDb2dVertex
 10
1635.646113
 20
1046.68042
 30
0.0
  0
VERTEX
  5
58D
100
AcDbEntity
  8
トラップ
  6
CONTINUOUS
 62
     6
100
AcDbVertex
100
AcDb2dVertex
 10
1635.399683
 20
1046.394775
 30
0.0
  0
VERTEX
  5
58E
100
AcDbEntity
  8
トラップ
  6
CONTINUOUS
 62
     6
100
AcDbVertex
100
AcDb2dVertex
 10
1635.173853
 20
1046.082275
 30
0.0
  0
VERTEX
  5
58F
100
AcDbEntity
  8
トラップ
  6
CONTINUOUS
 62
     6
100
AcDbVertex
100
AcDb2dVertex
 10
1634.970301
 20
1045.747803
 30
0.0
  0
VERTEX
  5
590
100
AcDbEntity
  8
トラップ
  6
CONTINUOUS
 62
     6
100
AcDbVertex
100
AcDb2dVertex
 10
1634.79101
 20
1045.391357
 30
0.0
  0
VERTEX
  5
591
100
AcDbEntity
  8
トラップ
  6
CONTINUOUS
 62
     6
100
AcDbVertex
100
AcDb2dVertex
 10
1634.636744
 20
1045.015381
 30
0.0
  0
VERTEX
  5
592
100
AcDbEntity
  8
トラップ
  6
CONTINUOUS
 62
     6
100
AcDbVertex
100
AcDb2dVertex
 10
1634.508875
 20
1044.627197
 30
0.0
  0
VERTEX
  5
593
100
AcDbEntity
  8
トラップ
  6
CONTINUOUS
 62
     6
100
AcDbVertex
100
AcDb2dVertex
 10
1634.408472
 20
1044.221924
 30
0.0
  0
VERTEX
  5
594
100
AcDbEntity
  8
トラップ
  6
CONTINUOUS
 62
     6
100
AcDbVertex
100
AcDb2dVertex
 10
1634.336298
 20
1043.809326
 30
0.0
  0
VERTEX
  5
595
100
AcDbEntity
  8
トラップ
  6
CONTINUOUS
 62
     6
100
AcDbVertex
100
AcDb2dVertex
 10
1634.292811
 20
1043.391846
 30
0.0
  0
VERTEX
  5
596
100
AcDbEntity
  8
トラップ
  6
CONTINUOUS
 62
     6
100
AcDbVertex
100
AcDb2dVertex
 10
1634.277705
 20
1042.969482
 30
0.0
  0
VERTEX
  5
597
100
AcDbEntity
  8
トラップ
  6
CONTINUOUS
 62
     6
100
AcDbVertex
100
AcDb2dVertex
 10
1634.292353
 20
1042.547119
 30
0.0
  0
VERTEX
  5
598
100
AcDbEntity
  8
トラップ
  6
CONTINUOUS
 62
     6
100
AcDbVertex
100
AcDb2dVertex
 10
1634.335841
 20
1042.129639
 30
0.0
  0
VERTEX
  5
599
100
AcDbEntity
  8
トラップ
  6
CONTINUOUS
 62
     6
100
AcDbVertex
100
AcDb2dVertex
 10
1634.408472
 20
1041.717041
 30
0.0
  0
VERTEX
  5
59A
100
AcDbEntity
  8
トラップ
  6
CONTINUOUS
 62
     6
100
AcDbVertex
100
AcDb2dVertex
 10
1634.509028
 20
1041.314209
 30
0.0
  0
VERTEX
  5
59B
100
AcDbEntity
  8
トラップ
  6
CONTINUOUS
 62
     6
100
AcDbVertex
100
AcDb2dVertex
 10
1634.637049
 20
1040.923584
 30
0.0
  0
VERTEX
  5
59C
100
AcDbEntity
  8
トラップ
  6
CONTINUOUS
 62
     6
100
AcDbVertex
100
AcDb2dVertex
 10
1634.79101
 20
1040.547607
 30
0.0
  0
VERTEX
  5
59D
100
AcDbEntity
  8
トラップ
  6
CONTINUOUS
 62
     6
100
AcDbVertex
100
AcDb2dVertex
 10
1634.970606
 20
1040.191162
 30
0.0
  0
VERTEX
  5
59E
100
AcDbEntity
  8
トラップ
  6
CONTINUOUS
 62
     6
100
AcDbVertex
100
AcDb2dVertex
 10
1635.174158
 20
1039.85669
 30
0.0
  0
VERTEX
  5
59F
100
AcDbEntity
  8
トラップ
  6
CONTINUOUS
 62
     6
100
AcDbVertex
100
AcDb2dVertex
 10
1635.399683
 20
1039.54419
 30
0.0
  0
VERTEX
  5
5A0
100
AcDbEntity
  8
トラップ
  6
CONTINUOUS
 62
     6
100
AcDbVertex
100
AcDb2dVertex
 10
1635.646113
 20
1039.258545
 30
0.0
  0
VERTEX
  5
5A1
100
AcDbEntity
  8
トラップ
  6
CONTINUOUS
 62
     6
100
AcDbVertex
100
AcDb2dVertex
 10
1635.911158
 20
1039.002197
 30
0.0
  0
VERTEX
  5
5A2
100
AcDbEntity
  8
トラップ
  6
CONTINUOUS
 62
     6
100
AcDbVertex
100
AcDb2dVertex
 10
1636.19314
 20
1038.777588
 30
0.0
  0
VERTEX
  5
5A3
100
AcDbEntity
  8
トラップ
  6
CONTINUOUS
 62
     6
100
AcDbVertex
100
AcDb2dVertex
 10
1636.489619
 20
1038.582275
 30
0.0
  0
VERTEX
  5
5A4
100
AcDbEntity
  8
トラップ
  6
CONTINUOUS
 62
     6
100
AcDbVertex
100
AcDb2dVertex
 10
1636.798304
 20
1038.421143
 30
0.0
  0
VERTEX
  5
5A5
100
AcDbEntity
  8
トラップ
  6
CONTINUOUS
 62
     6
100
AcDbVertex
100
AcDb2dVertex
 10
1637.117213
 20
1038.291748
 30
0.0
  0
VERTEX
  5
5A6
100
AcDbEntity
  8
トラップ
  6
CONTINUOUS
 62
     6
100
AcDbVertex
100
AcDb2dVertex
 10
1637.443598
 20
1038.201416
 30
0.0
  0
VERTEX
  5
5A7
100
AcDbEntity
  8
トラップ
  6
CONTINUOUS
 62
     6
100
AcDbVertex
100
AcDb2dVertex
 10
1637.775019
 20
1038.145264
 30
0.0
  0
VERTEX
  5
5A8
100
AcDbEntity
  8
トラップ
  6
CONTINUOUS
 62
     6
100
AcDbVertex
100
AcDb2dVertex
 10
1638.108576
 20
1038.128174
 30
0.0
  0
VERTEX
  5
5A9
100
AcDbEntity
  8
トラップ
  6
CONTINUOUS
 62
     6
100
AcDbVertex
100
AcDb2dVertex
 10
1638.442439
 20
1038.147705
 30
0.0
  0
VERTEX
  5
5AA
100
AcDbEntity
  8
トラップ
  6
CONTINUOUS
 62
     6
100
AcDbVertex
100
AcDb2dVertex
 10
1638.773707
 20
1038.201416
 30
0.0
  0
VERTEX
  5
5AB
100
AcDbEntity
  8
トラップ
  6
CONTINUOUS
 62
     6
100
AcDbVertex
100
AcDb2dVertex
 10
1639.100245
 20
1038.291748
 30
0.0
  0
VERTEX
  5
5AC
100
AcDbEntity
  8
トラップ
  6
CONTINUOUS
 62
     6
100
AcDbVertex
100
AcDb2dVertex
 10
1639.419001
 20
1038.418701
 30
0.0
  0
VERTEX
  5
5AD
100
AcDbEntity
  8
トラップ
  6
CONTINUOUS
 62
     6
100
AcDbVertex
100
AcDb2dVertex
 10
1639.727686
 20
1038.579834
 30
0.0
  0
SEQEND
  5
5AE
100
AcDbEntity
  8
トラップ
  6
CONTINUOUS
 62
     6
  0
POLYLINE
  5
5AF
100
AcDbEntity
  8
トラップ
  6
CONTINUOUS
 62
     6
100
AcDb2dPolyline
 66
     1
 10
0.0
 20
0.0
 30
0.0
 70
   128
  0
VERTEX
  5
5B0
100
AcDbEntity
  8
トラップ
  6
CONTINUOUS
 62
     6
100
AcDbVertex
100
AcDb2dVertex
 10
1639.727686
 20
1038.579834
 30
0.0
  0
VERTEX
  5
5B1
100
AcDbEntity
  8
トラップ
  6
CONTINUOUS
 62
     6
100
AcDbVertex
100
AcDb2dVertex
 10
1640.024165
 20
1038.777588
 30
0.0
  0
VERTEX
  5
5B2
100
AcDbEntity
  8
トラップ
  6
CONTINUOUS
 62
     6
100
AcDbVertex
100
AcDb2dVertex
 10
1640.305994
 20
1039.004639
 30
0.0
  0
VERTEX
  5
5B3
100
AcDbEntity
  8
トラップ
  6
CONTINUOUS
 62
     6
100
AcDbVertex
100
AcDb2dVertex
 10
1640.570887
 20
1039.260986
 30
0.0
  0
VERTEX
  5
5B4
100
AcDbEntity
  8
トラップ
  6
CONTINUOUS
 62
     6
100
AcDbVertex
100
AcDb2dVertex
 10
1640.817927
 20
1039.54419
 30
0.0
  0
VERTEX
  5
5B5
100
AcDbEntity
  8
トラップ
  6
CONTINUOUS
 62
     6
100
AcDbVertex
100
AcDb2dVertex
 10
1641.043757
 20
1039.85669
 30
0.0
  0
VERTEX
  5
5B6
100
AcDbEntity
  8
トラップ
  6
CONTINUOUS
 62
     6
100
AcDbVertex
100
AcDb2dVertex
 10
1641.247309
 20
1040.191162
 30
0.0
  0
VERTEX
  5
5B7
100
AcDbEntity
  8
トラップ
  6
CONTINUOUS
 62
     6
100
AcDbVertex
100
AcDb2dVertex
 10
1641.426447
 20
1040.547607
 30
0.0
  0
VERTEX
  5
5B8
100
AcDbEntity
  8
トラップ
  6
CONTINUOUS
 62
     6
100
AcDbVertex
100
AcDb2dVertex
 10
1641.580714
 20
1040.923584
 30
0.0
  0
VERTEX
  5
5B9
100
AcDbEntity
  8
トラップ
  6
CONTINUOUS
 62
     6
100
AcDbVertex
100
AcDb2dVertex
 10
1641.708735
 20
1041.311768
 30
0.0
  0
VERTEX
  5
5BA
100
AcDbEntity
  8
トラップ
  6
CONTINUOUS
 62
     6
100
AcDbVertex
100
AcDb2dVertex
 10
1641.809138
 20
1041.717041
 30
0.0
  0
SEQEND
  5
5BB
100
AcDbEntity
  8
トラップ
  6
CONTINUOUS
 62
     6
  0
POLYLINE
  5
5BC
100
AcDbEntity
  8
トラップ
  6
CONTINUOUS
 62
     6
100
AcDb2dPolyline
 66
     1
 10
0.0
 20
0.0
 30
0.0
 70
   128
  0
VERTEX
  5
5BD
100
AcDbEntity
  8
トラップ
  6
CONTINUOUS
 62
     6
100
AcDbVertex
100
AcDb2dVertex
 10
1629.683283
 20
1041.717041
 30
0.0
  0
VERTEX
  5
5BE
100
AcDbEntity
  8
トラップ
  6
CONTINUOUS
 62
     6
100
AcDbVertex
100
AcDb2dVertex
 10
1629.824885
 20
1042.129639
 30
0.0
  0
VERTEX
  5
5BF
100
AcDbEntity
  8
トラップ
  6
CONTINUOUS
 62
     6
100
AcDbVertex
100
AcDb2dVertex
 10
1629.910334
 20
1042.547119
 30
0.0
  0
VERTEX
  5
5C0
100
AcDbEntity
  8
トラップ
  6
CONTINUOUS
 62
     6
100
AcDbVertex
100
AcDb2dVertex
 10
1629.939173
 20
1042.969482
 30
0.0
  0
SEQEND
  5
5C1
100
AcDbEntity
  8
トラップ
  6
CONTINUOUS
 62
     6
  0
POLYLINE
  5
5C2
100
AcDbEntity
  8
トラップ
  6
CONTINUOUS
 62
     6
100
AcDb2dPolyline
 66
     1
 10
0.0
 20
0.0
 30
0.0
 70
   128
  0
VERTEX
  5
5C3
100
AcDbEntity
  8
トラップ
  6
CONTINUOUS
 62
     6
100
AcDbVertex
100
AcDb2dVertex
 10
1629.938563
 20
1042.969482
 30
0.0
  0
VERTEX
  5
5C4
100
AcDbEntity
  8
トラップ
  6
CONTINUOUS
 62
     6
100
AcDbVertex
100
AcDb2dVertex
 10
1629.909876
 20
1043.391846
 30
0.0
  0
VERTEX
  5
5C5
100
AcDbEntity
  8
トラップ
  6
CONTINUOUS
 62
     6
100
AcDbVertex
100
AcDb2dVertex
 10
1629.824427
 20
1043.809326
 30
0.0
  0
VERTEX
  5
5C6
100
AcDbEntity
  8
トラップ
  6
CONTINUOUS
 62
     6
100
AcDbVertex
100
AcDb2dVertex
 10
1629.683283
 20
1044.221924
 30
0.0
  0
VERTEX
  5
5C7
100
AcDbEntity
  8
トラップ
  6
CONTINUOUS
 62
     6
100
AcDbVertex
100
AcDb2dVertex
 10
1629.486597
 20
1044.624756
 30
0.0
  0
VERTEX
  5
5C8
100
AcDbEntity
  8
トラップ
  6
CONTINUOUS
 62
     6
100
AcDbVertex
100
AcDb2dVertex
 10
1629.236201
 20
1045.015381
 30
0.0
  0
VERTEX
  5
5C9
100
AcDbEntity
  8
トラップ
  6
CONTINUOUS
 62
     6
100
AcDbVertex
100
AcDb2dVertex
 10
1628.933924
 20
1045.391357
 30
0.0
  0
VERTEX
  5
5CA
100
AcDbEntity
  8
トラップ
  6
CONTINUOUS
 62
     6
100
AcDbVertex
100
AcDb2dVertex
 10
1628.582362
 20
1045.747803
 30
0.0
  0
VERTEX
  5
5CB
100
AcDbEntity
  8
トラップ
  6
CONTINUOUS
 62
     6
100
AcDbVertex
100
AcDb2dVertex
 10
1628.184107
 20
1046.082275
 30
0.0
  0
VERTEX
  5
5CC
100
AcDbEntity
  8
トラップ
  6
CONTINUOUS
 62
     6
100
AcDbVertex
100
AcDb2dVertex
 10
1627.74206
 20
1046.392334
 30
0.0
  0
VERTEX
  5
5CD
100
AcDbEntity
  8
トラップ
  6
CONTINUOUS
 62
     6
100
AcDbVertex
100
AcDb2dVertex
 10
1627.25973
 20
1046.677978
 30
0.0
  0
VERTEX
  5
5CE
100
AcDbEntity
  8
トラップ
  6
CONTINUOUS
 62
     6
100
AcDbVertex
100
AcDb2dVertex
 10
1626.740473
 20
1046.934326
 30
0.0
  0
VERTEX
  5
5CF
100
AcDbEntity
  8
トラップ
  6
CONTINUOUS
 62
     6
100
AcDbVertex
100
AcDb2dVertex
 10
1626.189021
 20
1047.161377
 30
0.0
  0
VERTEX
  5
5D0
100
AcDbEntity
  8
トラップ
  6
CONTINUOUS
 62
     6
100
AcDbVertex
100
AcDb2dVertex
 10
1625.608729
 20
1047.35669
 30
0.0
  0
VERTEX
  5
5D1
100
AcDbEntity
  8
トラップ
  6
CONTINUOUS
 62
     6
100
AcDbVertex
100
AcDb2dVertex
 10
1625.004176
 20
1047.517822
 30
0.0
  0
VERTEX
  5
5D2
100
AcDbEntity
  8
トラップ
  6
CONTINUOUS
 62
     6
100
AcDbVertex
100
AcDb2dVertex
 10
1624.380701
 20
1047.644775
 30
0.0
  0
VERTEX
  5
5D3
100
AcDbEntity
  8
トラップ
  6
CONTINUOUS
 62
     6
100
AcDbVertex
100
AcDb2dVertex
 10
1623.742121
 20
1047.737549
 30
0.0
  0
VERTEX
  5
5D4
100
AcDbEntity
  8
トラップ
  6
CONTINUOUS
 62
     6
100
AcDbVertex
100
AcDb2dVertex
 10
1623.09347
 20
1047.79126
 30
0.0
  0
VERTEX
  5
5D5
100
AcDbEntity
  8
トラップ
  6
CONTINUOUS
 62
     6
100
AcDbVertex
100
AcDb2dVertex
 10
1622.439631
 20
1047.810791
 30
0.0
  0
VERTEX
  5
5D6
100
AcDbEntity
  8
トラップ
  6
CONTINUOUS
 62
     6
100
AcDbVertex
100
AcDb2dVertex
 10
1621.785944
 20
1047.79126
 30
0.0
  0
VERTEX
  5
5D7
100
AcDbEntity
  8
トラップ
  6
CONTINUOUS
 62
     6
100
AcDbVertex
100
AcDb2dVertex
 10
1621.137293
 20
1047.737549
 30
0.0
  0
VERTEX
  5
5D8
100
AcDbEntity
  8
トラップ
  6
CONTINUOUS
 62
     6
100
AcDbVertex
100
AcDb2dVertex
 10
1620.498866
 20
1047.644775
 30
0.0
  0
VERTEX
  5
5D9
100
AcDbEntity
  8
トラップ
  6
CONTINUOUS
 62
     6
100
AcDbVertex
100
AcDb2dVertex
 10
1619.874934
 20
1047.517822
 30
0.0
  0
VERTEX
  5
5DA
100
AcDbEntity
  8
トラップ
  6
CONTINUOUS
 62
     6
100
AcDbVertex
100
AcDb2dVertex
 10
1619.270686
 20
1047.35669
 30
0.0
  0
VERTEX
  5
5DB
100
AcDbEntity
  8
トラップ
  6
CONTINUOUS
 62
     6
100
AcDbVertex
100
AcDb2dVertex
 10
1618.690241
 20
1047.161377
 30
0.0
  0
VERTEX
  5
5DC
100
AcDbEntity
  8
トラップ
  6
CONTINUOUS
 62
     6
100
AcDbVertex
100
AcDb2dVertex
 10
1618.138483
 20
1046.934326
 30
0.0
  0
VERTEX
  5
5DD
100
AcDbEntity
  8
トラップ
  6
CONTINUOUS
 62
     6
100
AcDbVertex
100
AcDb2dVertex
 10
1617.619379
 20
1046.677978
 30
0.0
  0
VERTEX
  5
5DE
100
AcDbEntity
  8
トラップ
  6
CONTINUOUS
 62
     6
100
AcDbVertex
100
AcDb2dVertex
 10
1617.137202
 20
1046.392334
 30
0.0
  0
VERTEX
  5
5DF
100
AcDbEntity
  8
トラップ
  6
CONTINUOUS
 62
     6
100
AcDbVertex
100
AcDb2dVertex
 10
1616.695155
 20
1046.079834
 30
0.0
  0
VERTEX
  5
5E0
100
AcDbEntity
  8
トラップ
  6
CONTINUOUS
 62
     6
100
AcDbVertex
100
AcDb2dVertex
 10
1616.296748
 20
1045.745361
 30
0.0
  0
VERTEX
  5
5E1
100
AcDbEntity
  8
トラップ
  6
CONTINUOUS
 62
     6
100
AcDbVertex
100
AcDb2dVertex
 10
1615.945795
 20
1045.391357
 30
0.0
  0
VERTEX
  5
5E2
100
AcDbEntity
  8
トラップ
  6
CONTINUOUS
 62
     6
100
AcDbVertex
100
AcDb2dVertex
 10
1615.643824
 20
1045.015381
 30
0.0
  0
VERTEX
  5
5E3
100
AcDbEntity
  8
トラップ
  6
CONTINUOUS
 62
     6
100
AcDbVertex
100
AcDb2dVertex
 10
1615.39358
 20
1044.624756
 30
0.0
  0
VERTEX
  5
5E4
100
AcDbEntity
  8
トラップ
  6
CONTINUOUS
 62
     6
100
AcDbVertex
100
AcDb2dVertex
 10
1615.196589
 20
1044.221924
 30
0.0
  0
VERTEX
  5
5E5
100
AcDbEntity
  8
トラップ
  6
CONTINUOUS
 62
     6
100
AcDbVertex
100
AcDb2dVertex
 10
1615.054987
 20
1043.809326
 30
0.0
  0
VERTEX
  5
5E6
100
AcDbEntity
  8
トラップ
  6
CONTINUOUS
 62
     6
100
AcDbVertex
100
AcDb2dVertex
 10
1614.969691
 20
1043.391846
 30
0.0
  0
VERTEX
  5
5E7
100
AcDbEntity
  8
トラップ
  6
CONTINUOUS
 62
     6
100
AcDbVertex
100
AcDb2dVertex
 10
1614.941157
 20
1042.969482
 30
0.0
  0
VERTEX
  5
5E8
100
AcDbEntity
  8
トラップ
  6
CONTINUOUS
 62
     6
100
AcDbVertex
100
AcDb2dVertex
 10
1614.969843
 20
1042.547119
 30
0.0
  0
VERTEX
  5
5E9
100
AcDbEntity
  8
トラップ
  6
CONTINUOUS
 62
     6
100
AcDbVertex
100
AcDb2dVertex
 10
1615.055445
 20
1042.129639
 30
0.0
  0
VERTEX
  5
5EA
100
AcDbEntity
  8
トラップ
  6
CONTINUOUS
 62
     6
100
AcDbVertex
100
AcDb2dVertex
 10
1615.196589
 20
1041.717041
 30
0.0
  0
VERTEX
  5
5EB
100
AcDbEntity
  8
トラップ
  6
CONTINUOUS
 62
     6
100
AcDbVertex
100
AcDb2dVertex
 10
1615.393427
 20
1041.314209
 30
0.0
  0
VERTEX
  5
5EC
100
AcDbEntity
  8
トラップ
  6
CONTINUOUS
 62
     6
100
AcDbVertex
100
AcDb2dVertex
 10
1615.643671
 20
1040.923584
 30
0.0
  0
VERTEX
  5
5ED
100
AcDbEntity
  8
トラップ
  6
CONTINUOUS
 62
     6
100
AcDbVertex
100
AcDb2dVertex
 10
1615.945795
 20
1040.550049
 30
0.0
  0
VERTEX
  5
5EE
100
AcDbEntity
  8
トラップ
  6
CONTINUOUS
 62
     6
100
AcDbVertex
100
AcDb2dVertex
 10
1616.297358
 20
1040.193603
 30
0.0
  0
VERTEX
  5
5EF
100
AcDbEntity
  8
トラップ
  6
CONTINUOUS
 62
     6
100
AcDbVertex
100
AcDb2dVertex
 10
1616.695765
 20
1039.859131
 30
0.0
  0
VERTEX
  5
5F0
100
AcDbEntity
  8
トラップ
  6
CONTINUOUS
 62
     6
100
AcDbVertex
100
AcDb2dVertex
 10
1617.137202
 20
1039.546631
 30
0.0
  0
VERTEX
  5
5F1
100
AcDbEntity
  8
トラップ
  6
CONTINUOUS
 62
     6
100
AcDbVertex
100
AcDb2dVertex
 10
1617.619532
 20
1039.260986
 30
0.0
  0
VERTEX
  5
5F2
100
AcDbEntity
  8
トラップ
  6
CONTINUOUS
 62
     6
100
AcDbVertex
100
AcDb2dVertex
 10
1618.138331
 20
1039.004639
 30
0.0
  0
VERTEX
  5
5F3
100
AcDbEntity
  8
トラップ
  6
CONTINUOUS
 62
     6
100
AcDbVertex
100
AcDb2dVertex
 10
1618.690241
 20
1038.777588
 30
0.0
  0
VERTEX
  5
5F4
100
AcDbEntity
  8
トラップ
  6
CONTINUOUS
 62
     6
100
AcDbVertex
100
AcDb2dVertex
 10
1619.27038
 20
1038.582275
 30
0.0
  0
VERTEX
  5
5F5
100
AcDbEntity
  8
トラップ
  6
CONTINUOUS
 62
     6
100
AcDbVertex
100
AcDb2dVertex
 10
1619.874628
 20
1038.421143
 30
0.0
  0
VERTEX
  5
5F6
100
AcDbEntity
  8
トラップ
  6
CONTINUOUS
 62
     6
100
AcDbVertex
100
AcDb2dVertex
 10
1620.498866
 20
1038.29419
 30
0.0
  0
VERTEX
  5
5F7
100
AcDbEntity
  8
トラップ
  6
CONTINUOUS
 62
     6
100
AcDbVertex
100
AcDb2dVertex
 10
1621.137598
 20
1038.201416
 30
0.0
  0
VERTEX
  5
5F8
100
AcDbEntity
  8
トラップ
  6
CONTINUOUS
 62
     6
100
AcDbVertex
100
AcDb2dVertex
 10
1621.786097
 20
1038.147705
 30
0.0
  0
VERTEX
  5
5F9
100
AcDbEntity
  8
トラップ
  6
CONTINUOUS
 62
     6
100
AcDbVertex
100
AcDb2dVertex
 10
1622.439631
 20
1038.128174
 30
0.0
  0
VERTEX
  5
5FA
100
AcDbEntity
  8
トラップ
  6
CONTINUOUS
 62
     6
100
AcDbVertex
100
AcDb2dVertex
 10
1623.093165
 20
1038.147705
 30
0.0
  0
VERTEX
  5
5FB
100
AcDbEntity
  8
トラップ
  6
CONTINUOUS
 62
     6
100
AcDbVertex
100
AcDb2dVertex
 10
1623.741663
 20
1038.201416
 30
0.0
  0
VERTEX
  5
5FC
100
AcDbEntity
  8
トラップ
  6
CONTINUOUS
 62
     6
100
AcDbVertex
100
AcDb2dVertex
 10
1624.380701
 20
1038.29419
 30
0.0
  0
VERTEX
  5
5FD
100
AcDbEntity
  8
トラップ
  6
CONTINUOUS
 62
     6
100
AcDbVertex
100
AcDb2dVertex
 10
1625.004633
 20
1038.421143
 30
0.0
  0
VERTEX
  5
5FE
100
AcDbEntity
  8
トラップ
  6
CONTINUOUS
 62
     6
100
AcDbVertex
100
AcDb2dVertex
 10
1625.609034
 20
1038.582275
 30
0.0
  0
SEQEND
  5
5FF
100
AcDbEntity
  8
トラップ
  6
CONTINUOUS
 62
     6
  0
POLYLINE
  5
600
100
AcDbEntity
  8
トラップ
  6
CONTINUOUS
 62
     6
100
AcDb2dPolyline
 66
     1
 10
0.0
 20
0.0
 30
0.0
 70
   128
  0
VERTEX
  5
601
100
AcDbEntity
  8
トラップ
  6
CONTINUOUS
 62
     6
100
AcDbVertex
100
AcDb2dVertex
 10
1625.609034
 20
1038.582275
 30
0.0
  0
VERTEX
  5
602
100
AcDbEntity
  8
トラップ
  6
CONTINUOUS
 62
     6
100
AcDbVertex
100
AcDb2dVertex
 10
1626.189021
 20
1038.777588
 30
0.0
  0
VERTEX
  5
603
100
AcDbEntity
  8
トラップ
  6
CONTINUOUS
 62
     6
100
AcDbVertex
100
AcDb2dVertex
 10
1626.740626
 20
1039.004639
 30
0.0
  0
VERTEX
  5
604
100
AcDbEntity
  8
トラップ
  6
CONTINUOUS
 62
     6
100
AcDbVertex
100
AcDb2dVertex
 10
1627.259577
 20
1039.260986
 30
0.0
  0
VERTEX
  5
605
100
AcDbEntity
  8
トラップ
  6
CONTINUOUS
 62
     6
100
AcDbVertex
100
AcDb2dVertex
 10
1627.74206
 20
1039.546631
 30
0.0
  0
VERTEX
  5
606
100
AcDbEntity
  8
トラップ
  6
CONTINUOUS
 62
     6
100
AcDbVertex
100
AcDb2dVertex
 10
1628.183955
 20
1039.859131
 30
0.0
  0
VERTEX
  5
607
100
AcDbEntity
  8
トラップ
  6
CONTINUOUS
 62
     6
100
AcDbVertex
100
AcDb2dVertex
 10
1628.582056
 20
1040.193603
 30
0.0
  0
VERTEX
  5
608
100
AcDbEntity
  8
トラップ
  6
CONTINUOUS
 62
     6
100
AcDbVertex
100
AcDb2dVertex
 10
1628.933924
 20
1040.550049
 30
0.0
  0
VERTEX
  5
609
100
AcDbEntity
  8
トラップ
  6
CONTINUOUS
 62
     6
100
AcDbVertex
100
AcDb2dVertex
 10
1629.235896
 20
1040.926025
 30
0.0
  0
VERTEX
  5
60A
100
AcDbEntity
  8
トラップ
  6
CONTINUOUS
 62
     6
100
AcDbVertex
100
AcDb2dVertex
 10
1629.486292
 20
1041.31665
 30
0.0
  0
VERTEX
  5
60B
100
AcDbEntity
  8
トラップ
  6
CONTINUOUS
 62
     6
100
AcDbVertex
100
AcDb2dVertex
 10
1629.683283
 20
1041.717041
 30
0.0
  0
SEQEND
  5
60C
100
AcDbEntity
  8
トラップ
  6
CONTINUOUS
 62
     6
  0
POLYLINE
  5
60D
100
AcDbEntity
  8
トラップ
  6
CONTINUOUS
 62
     6
100
AcDb2dPolyline
 66
     1
 10
0.0
 20
0.0
 30
0.0
 70
   128
  0
VERTEX
  5
60E
100
AcDbEntity
  8
トラップ
  6
CONTINUOUS
 62
     6
100
AcDbVertex
100
AcDb2dVertex
 10
1610.472468
 20
1041.717041
 30
0.0
  0
VERTEX
  5
60F
100
AcDbEntity
  8
トラップ
  6
CONTINUOUS
 62
     6
100
AcDbVertex
100
AcDb2dVertex
 10
1610.544794
 20
1042.129639
 30
0.0
  0
VERTEX
  5
610
100
AcDbEntity
  8
トラップ
  6
CONTINUOUS
 62
     6
100
AcDbVertex
100
AcDb2dVertex
 10
1610.588282
 20
1042.547119
 30
0.0
  0
VERTEX
  5
611
100
AcDbEntity
  8
トラップ
  6
CONTINUOUS
 62
     6
100
AcDbVertex
100
AcDb2dVertex
 10
1610.602625
 20
1042.969482
 30
0.0
  0
SEQEND
  5
612
100
AcDbEntity
  8
トラップ
  6
CONTINUOUS
 62
     6
  0
POLYLINE
  5
613
100
AcDbEntity
  8
トラップ
  6
CONTINUOUS
 62
     6
100
AcDb2dPolyline
 66
     1
 10
0.0
 20
0.0
 30
0.0
 70
   128
  0
VERTEX
  5
614
100
AcDbEntity
  8
トラップ
  6
CONTINUOUS
 62
     6
100
AcDbVertex
100
AcDb2dVertex
 10
1610.603236
 20
1042.969482
 30
0.0
  0
VERTEX
  5
615
100
AcDbEntity
  8
トラップ
  6
CONTINUOUS
 62
     6
100
AcDbVertex
100
AcDb2dVertex
 10
1610.588587
 20
1043.391846
 30
0.0
  0
VERTEX
  5
616
100
AcDbEntity
  8
トラップ
  6
CONTINUOUS
 62
     6
100
AcDbVertex
100
AcDb2dVertex
 10
1610.5451
 20
1043.809326
 30
0.0
  0
VERTEX
  5
617
100
AcDbEntity
  8
トラップ
  6
CONTINUOUS
 62
     6
100
AcDbVertex
100
AcDb2dVertex
 10
1610.472468
 20
1044.221924
 30
0.0
  0
VERTEX
  5
618
100
AcDbEntity
  8
トラップ
  6
CONTINUOUS
 62
     6
100
AcDbVertex
100
AcDb2dVertex
 10
1610.371912
 20
1044.624756
 30
0.0
  0
VERTEX
  5
619
100
AcDbEntity
  8
トラップ
  6
CONTINUOUS
 62
     6
100
AcDbVertex
100
AcDb2dVertex
 10
1610.243891
 20
1045.015381
 30
0.0
  0
VERTEX
  5
61A
100
AcDbEntity
  8
トラップ
  6
CONTINUOUS
 62
     6
100
AcDbVertex
100
AcDb2dVertex
 10
1610.08993
 20
1045.391357
 30
0.0
  0
VERTEX
  5
61B
100
AcDbEntity
  8
トラップ
  6
CONTINUOUS
 62
     6
100
AcDbVertex
100
AcDb2dVertex
 10
1609.910334
 20
1045.747803
 30
0.0
  0
VERTEX
  5
61C
100
AcDbEntity
  8
トラップ
  6
CONTINUOUS
 62
     6
100
AcDbVertex
100
AcDb2dVertex
 10
1609.706782
 20
1046.082275
 30
0.0
  0
VERTEX
  5
61D
100
AcDbEntity
  8
トラップ
  6
CONTINUOUS
 62
     6
100
AcDbVertex
100
AcDb2dVertex
 10
1609.480799
 20
1046.394775
 30
0.0
  0
VERTEX
  5
61E
100
AcDbEntity
  8
トラップ
  6
CONTINUOUS
 62
     6
100
AcDbVertex
100
AcDb2dVertex
 10
1609.234217
 20
1046.68042
 30
0.0
  0
VERTEX
  5
61F
100
AcDbEntity
  8
トラップ
  6
CONTINUOUS
 62
     6
100
AcDbVertex
100
AcDb2dVertex
 10
1608.968867
 20
1046.936768
 30
0.0
  0
VERTEX
  5
620
100
AcDbEntity
  8
トラップ
  6
CONTINUOUS
 62
     6
100
AcDbVertex
100
AcDb2dVertex
 10
1608.687189
 20
1047.163818
 30
0.0
  0
VERTEX
  5
621
100
AcDbEntity
  8
トラップ
  6
CONTINUOUS
 62
     6
100
AcDbVertex
100
AcDb2dVertex
 10
1608.390711
 20
1047.359131
 30
0.0
  0
VERTEX
  5
622
100
AcDbEntity
  8
トラップ
  6
CONTINUOUS
 62
     6
100
AcDbVertex
100
AcDb2dVertex
 10
1608.081721
 20
1047.520264
 30
0.0
  0
VERTEX
  5
623
100
AcDbEntity
  8
トラップ
  6
CONTINUOUS
 62
     6
100
AcDbVertex
100
AcDb2dVertex
 10
1607.763422
 20
1047.647217
 30
0.0
  0
VERTEX
  5
624
100
AcDbEntity
  8
トラップ
  6
CONTINUOUS
 62
     6
100
AcDbVertex
100
AcDb2dVertex
 10
1607.437189
 20
1047.737549
 30
0.0
  0
VERTEX
  5
625
100
AcDbEntity
  8
トラップ
  6
CONTINUOUS
 62
     6
100
AcDbVertex
100
AcDb2dVertex
 10
1607.105769
 20
1047.793701
 30
0.0
  0
VERTEX
  5
626
100
AcDbEntity
  8
トラップ
  6
CONTINUOUS
 62
     6
100
AcDbVertex
100
AcDb2dVertex
 10
1606.771601
 20
1047.810791
 30
0.0
  0
VERTEX
  5
627
100
AcDbEntity
  8
トラップ
  6
CONTINUOUS
 62
     6
100
AcDbVertex
100
AcDb2dVertex
 10
1606.437586
 20
1047.79126
 30
0.0
  0
VERTEX
  5
628
100
AcDbEntity
  8
トラップ
  6
CONTINUOUS
 62
     6
100
AcDbVertex
100
AcDb2dVertex
 10
1606.106165
 20
1047.737549
 30
0.0
  0
VERTEX
  5
629
100
AcDbEntity
  8
トラップ
  6
CONTINUOUS
 62
     6
100
AcDbVertex
100
AcDb2dVertex
 10
1605.779627
 20
1047.647217
 30
0.0
  0
VERTEX
  5
62A
100
AcDbEntity
  8
トラップ
  6
CONTINUOUS
 62
     6
100
AcDbVertex
100
AcDb2dVertex
 10
1605.460871
 20
1047.520264
 30
0.0
  0
VERTEX
  5
62B
100
AcDbEntity
  8
トラップ
  6
CONTINUOUS
 62
     6
100
AcDbVertex
100
AcDb2dVertex
 10
1605.151881
 20
1047.359131
 30
0.0
  0
VERTEX
  5
62C
100
AcDbEntity
  8
トラップ
  6
CONTINUOUS
 62
     6
100
AcDbVertex
100
AcDb2dVertex
 10
1604.855555
 20
1047.163818
 30
0.0
  0
VERTEX
  5
62D
100
AcDbEntity
  8
トラップ
  6
CONTINUOUS
 62
     6
100
AcDbVertex
100
AcDb2dVertex
 10
1604.573573
 20
1046.936768
 30
0.0
  0
VERTEX
  5
62E
100
AcDbEntity
  8
トラップ
  6
CONTINUOUS
 62
     6
100
AcDbVertex
100
AcDb2dVertex
 10
1604.308222
 20
1046.68042
 30
0.0
  0
VERTEX
  5
62F
100
AcDbEntity
  8
トラップ
  6
CONTINUOUS
 62
     6
100
AcDbVertex
100
AcDb2dVertex
 10
1604.061945
 20
1046.394775
 30
0.0
  0
VERTEX
  5
630
100
AcDbEntity
  8
トラップ
  6
CONTINUOUS
 62
     6
100
AcDbVertex
100
AcDb2dVertex
 10
1603.836115
 20
1046.082275
 30
0.0
  0
VERTEX
  5
631
100
AcDbEntity
  8
トラップ
  6
CONTINUOUS
 62
     6
100
AcDbVertex
100
AcDb2dVertex
 10
1603.63241
 20
1045.747803
 30
0.0
  0
VERTEX
  5
632
100
AcDbEntity
  8
トラップ
  6
CONTINUOUS
 62
     6
100
AcDbVertex
100
AcDb2dVertex
 10
1603.45312
 20
1045.391357
 30
0.0
  0
VERTEX
  5
633
100
AcDbEntity
  8
トラップ
  6
CONTINUOUS
 62
     6
100
AcDbVertex
100
AcDb2dVertex
 10
1603.298853
 20
1045.015381
 30
0.0
  0
VERTEX
  5
634
100
AcDbEntity
  8
トラップ
  6
CONTINUOUS
 62
     6
100
AcDbVertex
100
AcDb2dVertex
 10
1603.170832
 20
1044.627197
 30
0.0
  0
VERTEX
  5
635
100
AcDbEntity
  8
トラップ
  6
CONTINUOUS
 62
     6
100
AcDbVertex
100
AcDb2dVertex
 10
1603.070582
 20
1044.221924
 30
0.0
  0
VERTEX
  5
636
100
AcDbEntity
  8
トラップ
  6
CONTINUOUS
 62
     6
100
AcDbVertex
100
AcDb2dVertex
 10
1602.998408
 20
1043.809326
 30
0.0
  0
VERTEX
  5
637
100
AcDbEntity
  8
トラップ
  6
CONTINUOUS
 62
     6
100
AcDbVertex
100
AcDb2dVertex
 10
1602.95492
 20
1043.391846
 30
0.0
  0
VERTEX
  5
638
100
AcDbEntity
  8
トラップ
  6
CONTINUOUS
 62
     6
100
AcDbVertex
100
AcDb2dVertex
 10
1602.939814
 20
1042.969482
 30
0.0
  0
VERTEX
  5
639
100
AcDbEntity
  8
トラップ
  6
CONTINUOUS
 62
     6
100
AcDbVertex
100
AcDb2dVertex
 10
1602.954462
 20
1042.547119
 30
0.0
  0
VERTEX
  5
63A
100
AcDbEntity
  8
トラップ
  6
CONTINUOUS
 62
     6
100
AcDbVertex
100
AcDb2dVertex
 10
1602.99795
 20
1042.129639
 30
0.0
  0
VERTEX
  5
63B
100
AcDbEntity
  8
トラップ
  6
CONTINUOUS
 62
     6
100
AcDbVertex
100
AcDb2dVertex
 10
1603.070582
 20
1041.717041
 30
0.0
  0
VERTEX
  5
63C
100
AcDbEntity
  8
トラップ
  6
CONTINUOUS
 62
     6
100
AcDbVertex
100
AcDb2dVertex
 10
1603.171137
 20
1041.314209
 30
0.0
  0
VERTEX
  5
63D
100
AcDbEntity
  8
トラップ
  6
CONTINUOUS
 62
     6
100
AcDbVertex
100
AcDb2dVertex
 10
1603.299158
 20
1040.923584
 30
0.0
  0
VERTEX
  5
63E
100
AcDbEntity
  8
トラップ
  6
CONTINUOUS
 62
     6
100
AcDbVertex
100
AcDb2dVertex
 10
1603.45312
 20
1040.547607
 30
0.0
  0
VERTEX
  5
63F
100
AcDbEntity
  8
トラップ
  6
CONTINUOUS
 62
     6
100
AcDbVertex
100
AcDb2dVertex
 10
1603.632716
 20
1040.191162
 30
0.0
  0
VERTEX
  5
640
100
AcDbEntity
  8
トラップ
  6
CONTINUOUS
 62
     6
100
AcDbVertex
100
AcDb2dVertex
 10
1603.836268
 20
1039.85669
 30
0.0
  0
VERTEX
  5
641
100
AcDbEntity
  8
トラップ
  6
CONTINUOUS
 62
     6
100
AcDbVertex
100
AcDb2dVertex
 10
1604.061945
 20
1039.54419
 30
0.0
  0
VERTEX
  5
642
100
AcDbEntity
  8
トラップ
  6
CONTINUOUS
 62
     6
100
AcDbVertex
100
AcDb2dVertex
 10
1604.308375
 20
1039.258545
 30
0.0
  0
VERTEX
  5
643
100
AcDbEntity
  8
トラップ
  6
CONTINUOUS
 62
     6
100
AcDbVertex
100
AcDb2dVertex
 10
1604.57342
 20
1039.002197
 30
0.0
  0
VERTEX
  5
644
100
AcDbEntity
  8
トラップ
  6
CONTINUOUS
 62
     6
100
AcDbVertex
100
AcDb2dVertex
 10
1604.855555
 20
1038.777588
 30
0.0
  0
VERTEX
  5
645
100
AcDbEntity
  8
トラップ
  6
CONTINUOUS
 62
     6
100
AcDbVertex
100
AcDb2dVertex
 10
1605.152033
 20
1038.582275
 30
0.0
  0
VERTEX
  5
646
100
AcDbEntity
  8
トラップ
  6
CONTINUOUS
 62
     6
100
AcDbVertex
100
AcDb2dVertex
 10
1605.460566
 20
1038.421143
 30
0.0
  0
VERTEX
  5
647
100
AcDbEntity
  8
トラップ
  6
CONTINUOUS
 62
     6
100
AcDbVertex
100
AcDb2dVertex
 10
1605.779627
 20
1038.291748
 30
0.0
  0
VERTEX
  5
648
100
AcDbEntity
  8
トラップ
  6
CONTINUOUS
 62
     6
100
AcDbVertex
100
AcDb2dVertex
 10
1606.106013
 20
1038.201416
 30
0.0
  0
VERTEX
  5
649
100
AcDbEntity
  8
トラップ
  6
CONTINUOUS
 62
     6
100
AcDbVertex
100
AcDb2dVertex
 10
1606.437281
 20
1038.145264
 30
0.0
  0
VERTEX
  5
64A
100
AcDbEntity
  8
トラップ
  6
CONTINUOUS
 62
     6
100
AcDbVertex
100
AcDb2dVertex
 10
1606.771601
 20
1038.128174
 30
0.0
  0
VERTEX
  5
64B
100
AcDbEntity
  8
トラップ
  6
CONTINUOUS
 62
     6
100
AcDbVertex
100
AcDb2dVertex
 10
1607.105616
 20
1038.147705
 30
0.0
  0
VERTEX
  5
64C
100
AcDbEntity
  8
トラップ
  6
CONTINUOUS
 62
     6
100
AcDbVertex
100
AcDb2dVertex
 10
1607.437037
 20
1038.201416
 30
0.0
  0
VERTEX
  5
64D
100
AcDbEntity
  8
トラップ
  6
CONTINUOUS
 62
     6
100
AcDbVertex
100
AcDb2dVertex
 10
1607.763422
 20
1038.291748
 30
0.0
  0
VERTEX
  5
64E
100
AcDbEntity
  8
トラップ
  6
CONTINUOUS
 62
     6
100
AcDbVertex
100
AcDb2dVertex
 10
1608.082178
 20
1038.418701
 30
0.0
  0
VERTEX
  5
64F
100
AcDbEntity
  8
トラップ
  6
CONTINUOUS
 62
     6
100
AcDbVertex
100
AcDb2dVertex
 10
1608.391169
 20
1038.579834
 30
0.0
  0
SEQEND
  5
650
100
AcDbEntity
  8
トラップ
  6
CONTINUOUS
 62
     6
  0
POLYLINE
  5
651
100
AcDbEntity
  8
トラップ
  6
CONTINUOUS
 62
     6
100
AcDb2dPolyline
 66
     1
 10
0.0
 20
0.0
 30
0.0
 70
   128
  0
VERTEX
  5
652
100
AcDbEntity
  8
トラップ
  6
CONTINUOUS
 62
     6
100
AcDbVertex
100
AcDb2dVertex
 10
1608.391169
 20
1038.579834
 30
0.0
  0
VERTEX
  5
653
100
AcDbEntity
  8
トラップ
  6
CONTINUOUS
 62
     6
100
AcDbVertex
100
AcDb2dVertex
 10
1608.687189
 20
1038.777588
 30
0.0
  0
VERTEX
  5
654
100
AcDbEntity
  8
トラップ
  6
CONTINUOUS
 62
     6
100
AcDbVertex
100
AcDb2dVertex
 10
1608.969019
 20
1039.004639
 30
0.0
  0
VERTEX
  5
655
100
AcDbEntity
  8
トラップ
  6
CONTINUOUS
 62
     6
100
AcDbVertex
100
AcDb2dVertex
 10
1609.234064
 20
1039.260986
 30
0.0
  0
VERTEX
  5
656
100
AcDbEntity
  8
トラップ
  6
CONTINUOUS
 62
     6
100
AcDbVertex
100
AcDb2dVertex
 10
1609.480799
 20
1039.54419
 30
0.0
  0
VERTEX
  5
657
100
AcDbEntity
  8
トラップ
  6
CONTINUOUS
 62
     6
100
AcDbVertex
100
AcDb2dVertex
 10
1609.706629
 20
1039.85669
 30
0.0
  0
VERTEX
  5
658
100
AcDbEntity
  8
トラップ
  6
CONTINUOUS
 62
     6
100
AcDbVertex
100
AcDb2dVertex
 10
1609.909876
 20
1040.191162
 30
0.0
  0
VERTEX
  5
659
100
AcDbEntity
  8
トラップ
  6
CONTINUOUS
 62
     6
100
AcDbVertex
100
AcDb2dVertex
 10
1610.08993
 20
1040.547607
 30
0.0
  0
VERTEX
  5
65A
100
AcDbEntity
  8
トラップ
  6
CONTINUOUS
 62
     6
100
AcDbVertex
100
AcDb2dVertex
 10
1610.244196
 20
1040.923584
 30
0.0
  0
VERTEX
  5
65B
100
AcDbEntity
  8
トラップ
  6
CONTINUOUS
 62
     6
100
AcDbVertex
100
AcDb2dVertex
 10
1610.372218
 20
1041.311768
 30
0.0
  0
VERTEX
  5
65C
100
AcDbEntity
  8
トラップ
  6
CONTINUOUS
 62
     6
100
AcDbVertex
100
AcDb2dVertex
 10
1610.472468
 20
1041.717041
 30
0.0
  0
SEQEND
  5
65D
100
AcDbEntity
  8
トラップ
  6
CONTINUOUS
 62
     6
  0
LINE
  5
65E
100
AcDbEntity
  8
トラップ
  6
CONTINUOUS
 62
     6
100
AcDbLine
 10
1609.739588
 20
1048.469971
 30
0.0
 11
1609.739588
 21
1054.270752
 31
0.0
  0
LINE
  5
65F
100
AcDbEntity
  8
トラップ
  6
CONTINUOUS
 62
     6
100
AcDbLine
 10
1609.739588
 20
1032.168701
 30
0.0
 11
1609.739588
 21
1037.468994
 31
0.0
  0
LINE
  5
660
100
AcDbEntity
  8
トラップ
  6
CONTINUOUS
 62
     6
100
AcDbLine
 10
1635.139674
 20
1048.469971
 30
0.0
 11
1635.139674
 21
1054.270752
 31
0.0
  0
LINE
  5
661
100
AcDbEntity
  8
トラップ
  6
CONTINUOUS
 62
     6
100
AcDbLine
 10
1635.139674
 20
1032.168701
 30
0.0
 11
1635.139674
 21
1037.468994
 31
0.0
  0
LINE
  5
662
100
AcDbEntity
  8
トラップ
  6
CONTINUOUS
 62
     6
100
AcDbLine
 10
1604.939631
 20
1037.468994
 30
0.0
 11
1639.939631
 21
1037.468994
 31
0.0
  0
LINE
  5
663
100
AcDbEntity
  8
トラップ
  6
CONTINUOUS
 62
     6
100
AcDbLine
 10
1604.939631
 20
1048.469971
 30
0.0
 11
1639.939631
 21
1048.469971
 31
0.0
  0
ARC
  5
664
100
AcDbEntity
  8
トラップ
  6
CONTINUOUS
 62
     6
100
AcDbCircle
 10
1633.375605
 20
1042.969482
 30
0.0
 40
8.563983
100
AcDbArc
 50
320.037842
 51
39.962158
  0
ARC
  5
665
100
AcDbEntity
  8
トラップ
  6
CONTINUOUS
 62
     6
100
AcDbCircle
 10
1611.503657
 20
1042.969482
 30
0.0
 40
8.563983
100
AcDbArc
 50
140.037827
 51
219.962143
  0
ARC
  5
666
100
AcDbEntity
  8
トラップ
  6
CONTINUOUS
 62
     6
100
AcDbCircle
 10
1654.139613
 20
1054.270752
 30
0.0
 40
44.400024
100
AcDbArc
 50
89.999969
 51
180.000015
  0
ARC
  5
667
100
AcDbEntity
  8
トラップ
  6
CONTINUOUS
 62
     6
100
AcDbCircle
 10
1654.139613
 20
1054.270752
 30
0.0
 40
18.999939
100
AcDbArc
 50
89.999969
 51
180.000015
  0
ARC
  5
668
100
AcDbEntity
  8
トラップ
  6
CONTINUOUS
 62
     6
100
AcDbCircle
 10
1590.739649
 20
1032.168701
 30
0.0
 40
44.400024
100
AcDbArc
 50
180.000015
 51
0.0
  0
LINE
  5
669
100
AcDbEntity
  8
トラップ
  6
CONTINUOUS
 62
     6
100
AcDbLine
 10
1546.339167
 20
1065.735596
 30
0.0
 11
1546.339625
 21
1032.168701
 31
0.0
  0
ARC
  5
66A
100
AcDbEntity
  8
トラップ
  6
CONTINUOUS
 62
     6
100
AcDbCircle
 10
1590.739649
 20
1032.168701
 30
0.0
 40
18.999939
100
AcDbArc
 50
180.000015
 51
0.0
  0
LINE
  5
66B
100
AcDbEntity
  8
トラップ
  6
CONTINUOUS
 62
     6
100
AcDbLine
 10
1571.739252
 20
1065.735596
 30
0.0
 11
1571.73971
 21
1032.168701
 31
0.0
  0
LINE
  5
66C
100
AcDbEntity
  8
トラップ
  6
CONTINUOUS
 62
     6
100
AcDbLine
 10
1571.739252
 20
1065.735596
 30
0.0
 11
1572.739161
 21
1069.468506
 31
0.0
  0
LINE
  5
66D
100
AcDbEntity
  8
トラップ
  6
CONTINUOUS
 62
     6
100
AcDbLine
 10
1546.339167
 20
1065.735596
 30
0.0
 11
1545.339259
 21
1069.468506
 31
0.0
  0
LINE
  5
66E
100
AcDbEntity
  8
トラップ
  6
CONTINUOUS
 62
     6
100
AcDbLine
 10
1545.339259
 20
1069.468506
 30
0.0
 11
1572.739161
 21
1069.468506
 31
0.0
  0
LINE
  5
66F
100
AcDbEntity
  8
トラップ
  6
CONTINUOUS
 62
     6
100
AcDbLine
 10
1572.739161
 20
1069.468506
 30
0.0
 11
1572.738703
 21
1111.968506
 31
0.0
  0
LINE
  5
670
100
AcDbEntity
  8
トラップ
  6
CONTINUOUS
 62
     6
100
AcDbLine
 10
1545.339259
 20
1069.468506
 30
0.0
 11
1545.338801
 21
1111.968506
 31
0.0
  0
LINE
  5
671
100
AcDbEntity
  8
トラップ
  6
CONTINUOUS
 62
     6
100
AcDbLine
 10
1541.539032
 20
1111.968506
 30
0.0
 11
1576.539032
 21
1111.968506
 31
0.0
  0
ARC
  5
672
100
AcDbEntity
  8
トラップ
  6
CONTINUOUS
 62
     6
100
AcDbCircle
 10
1569.975311
 20
1117.468994
 30
0.0
 40
8.563749
100
AcDbArc
 50
320.03653
 51
325.574875
  0
ARC
  5
673
100
AcDbEntity
  8
トラップ
  6
CONTINUOUS
 62
     6
100
AcDbCircle
 10
1548.10321
 20
1117.468994
 30
0.0
 40
8.564217
100
AcDbArc
 50
140.039139
 51
145.577164
  0
ARC
  5
674
100
AcDbEntity
  8
トラップ
  6
CONTINUOUS
 62
     6
100
AcDbCircle
 10
1548.10321
 20
1117.468994
 30
0.0
 40
8.564206
100
AcDbArc
 50
214.422836
 51
219.961517
  0
LINE
  5
675
100
AcDbEntity
  8
トラップ
  6
CONTINUOUS
 62
     6
100
AcDbLine
 10
1541.039612
 20
1112.627685
 30
0.0
 11
1541.039612
 21
1122.310303
 31
0.0
  0
ELLIPSE
  5
676
100
AcDbEntity
  8
トラップ
  6
CONTINUOUS
 62
     6
100
AcDbEllipse
 10
1550.039632
 20
1117.468506
 30
0.0
 11
6.4955670142090023
 21
0.0
 31
0.0
210
0.0
220
0.0
230
1.0
 40
0.745399
 41
0.0
 42
6.2831853071796004
  0
ELLIPSE
  5
677
100
AcDbEntity
  8
トラップ
  6
CONTINUOUS
 62
     6
100
AcDbEllipse
 10
1568.038737
 20
1117.468506
 30
0.0
 11
6.4955670142090023
 21
0.0
 31
0.0
210
0.0
220
0.0
230
1.0
 40
0.745399
 41
0.0
 42
6.2831853071796004
  0
LINE
  5
678
100
AcDbEntity
  8
トラップ
  6
CONTINUOUS
 62
     6
100
AcDbLine
 10
1653.906797
 20
1098.670166
 30
0.0
 11
1690.040161
 21
1098.670166
 31
0.0
  0
LINE
  5
679
100
AcDbEntity
  8
トラップ
  6
CONTINUOUS
 62
     6
100
AcDbLine
 10
1653.953087
 20
1073.269775
 30
0.0
 11
1690.040161
 21
1073.269775
 31
0.0
  0
LINE
  5
67A
100
AcDbEntity
  8
トラップ
  6
EXLTYPE2
 62
     6
100
AcDbLine
 10
1546.346314
 20
585.969971
 30
0.0
 11
1571.746399
 21
585.969971
 31
0.0
  0
LINE
  5
67B
100
AcDbEntity
  8
トラップ
  6
EXLTYPE2
 62
     6
100
AcDbLine
 10
1571.746094
 20
610.969971
 30
0.0
 11
1571.746399
 21
585.969971
 31
0.0
  0
LINE
  5
67C
100
AcDbEntity
  8
トラップ
  6
EXLTYPE2
 62
     6
100
AcDbLine
 10
1546.346008
 20
610.969971
 30
0.0
 11
1546.346314
 21
585.969971
 31
0.0
  0
ARC
  5
67D
100
AcDbEntity
  8
トラップ
  6
EXLTYPE2
 62
     6
100
AcDbCircle
 10
1577.046539
 20
612.96994
 30
0.0
 40
11.999998
100
AcDbArc
 50
0.0
 51
90.0
  0
LINE
  5
67E
100
AcDbEntity
  8
トラップ
  6
EXLTYPE2
 62
     6
100
AcDbLine
 10
1589.046509
 20
610.969971
 30
0.0
 11
1589.046509
 21
612.96994
 31
0.0
  0
ARC
  5
67F
100
AcDbEntity
  8
トラップ
  6
EXLTYPE2
 62
     6
100
AcDbCircle
 10
1541.046478
 20
612.96994
 30
0.0
 40
11.999998
100
AcDbArc
 50
90.0
 51
180.0
  0
LINE
  5
680
100
AcDbEntity
  8
トラップ
  6
EXLTYPE2
 62
     6
100
AcDbLine
 10
1541.046478
 20
624.96991
 30
0.0
 11
1577.046539
 21
624.96991
 31
0.0
  0
LINE
  5
681
100
AcDbEntity
  8
トラップ
  6
EXLTYPE2
 62
     6
100
AcDbLine
 10
1529.046509
 20
610.969971
 30
0.0
 11
1529.046509
 21
612.96994
 31
0.0
  0
LINE
  5
682
100
AcDbEntity
  8
トラップ
  6
EXLTYPE3
 62
     6
100
AcDbLine
 10
1734.039185
 20
1085.969971
 30
0.0
 11
1653.953087
 21
1085.969971
 31
0.0
  0
LINE
  5
683
100
AcDbEntity
  8
トラップ
  6
CONTINUOUS
 62
     6
100
AcDbLine
 10
1571.73999
 20
1172.470215
 30
0.0
 11
1571.73999
 21
1156.636807
 31
0.0
  0
LINE
  5
684
100
AcDbEntity
  8
トラップ
  6
CONTINUOUS
 62
     6
100
AcDbLine
 10
1541.538879
 20
1122.969482
 30
0.0
 11
1572.190881
 21
1122.969482
 31
0.0
  0
LINE
  5
685
100
AcDbEntity
  8
トラップ
  6
CONTINUOUS
 62
     6
100
AcDbLine
 10
1577.039673
 20
1112.627685
 30
0.0
 11
1577.039673
 21
1118.03247
 31
0.0
  0
ARC
  5
686
100
AcDbEntity
  8
トラップ
  6
CONTINUOUS
 62
     6
100
AcDbCircle
 10
1702.039673
 20
1103.970459
 30
0.0
 40
11.99997
100
AcDbArc
 50
137.963793
 51
179.999985
  0
TEXT
  5
687
100
AcDbEntity
  8
トラップ
  6
CONTINUOUS
 62
     2
100
AcDbText
 10
1752.983758
 20
1151.488556
 30
0.0
 40
40.0
  1
２５
 41
0.861
  7
EXCADSTD
 72
     5
 11
1828.144958
 21
1151.488556
 31
0.0
100
AcDbText
  0
LINE
  5
688
100
AcDbEntity
  8
トラップ
  6
CONTINUOUS
 62
     6
100
AcDbLine
 10
1757.136582
 20
1147.300476
 30
0.0
 11
1829.0
 21
1147.300476
 31
0.0
  0
TEXT
  5
689
100
AcDbEntity
  8
トラップ
  6
CONTINUOUS
 62
     2
100
AcDbText
 10
1294.181288
 20
1002.29474
 30
0.0
 40
40.0
  1
ＮＬ３１Ｐ
 41
0.8106
  7
EXCADSTD
 72
     5
 11
1487.181287
 21
1002.29474
 31
0.0
100
AcDbText
  0
LINE
  5
68A
100
AcDbEntity
  8
トラップ
  6
CONTINUOUS
 62
     6
100
AcDbLine
 10
1296.091075
 20
997.29474
 30
0.0
 11
1477.090644
 21
997.29474
 31
0.0
  0
LINE
  5
68B
100
AcDbEntity
  8
トラップ
  6
CONTINUOUS
 62
     6
100
AcDbLine
 10
1511.909028
 20
537.985976
 30
0.0
 11
1431.628724
 21
537.985976
 31
0.0
  0
TEXT
  5
68C
100
AcDbEntity
  8
トラップ
  6
CONTINUOUS
 62
     2
100
AcDbText
 10
1432.228425
 20
542.174056
 30
0.0
 40
40.0
  1
２５
 41
0.861
  7
EXCADSTD
 72
     5
 11
1507.389625
 21
542.174056
 31
0.0
100
AcDbText
  0
LINE
  5
68D
100
AcDbEntity
  8
トラップ
  6
CONTINUOUS
 62
     6
100
AcDbLine
 10
1291.002661
 20
835.294685
 30
0.0
 11
1477.092873
 21
835.294685
 31
0.0
  0
TEXT
  5
68E
100
AcDbEntity
  8
トラップ
  6
CONTINUOUS
 62
     2
100
AcDbText
 10
1289.092873
 20
840.294685
 30
0.0
 40
40.0
  1
ＮＬ３１Ｓ
 41
0.8106
  7
EXCADSTD
 72
     5
 11
1482.092872
 21
840.294685
 31
0.0
100
AcDbText
  0
ARC
  5
68F
100
AcDbEntity
  8
トラップ
  6
EXLTYPE4
 62
     6
100
AcDbCircle
 10
1590.739624
 20
1054.270142
 30
0.0
 40
18.999939
100
AcDbArc
 50
0.0
 51
179.999985
  0
LINE
  5
690
100
AcDbEntity
  8
トラップ
  6
EXLTYPE4
 62
     6
100
AcDbLine
 10
1546.340256
 20
1031.931898
 30
0.0
 11
1546.345856
 21
624.96991
 31
0.0
  0
ARC
  5
691
100
AcDbEntity
  8
トラップ
  6
EXLTYPE4
 62
     6
100
AcDbCircle
 10
1590.739624
 20
1054.270142
 30
0.0
 40
44.400024
100
AcDbArc
 50
0.0
 51
179.999985
  0
LINE
  5
692
100
AcDbEntity
  8
トラップ
  6
EXLTYPE4
 62
     6
100
AcDbLine
 10
1571.740334
 20
1032.168696
 30
0.0
 11
1571.745941
 21
624.96991
 31
0.0
  0
LEADER
  5
693
100
AcDbEntity
  8
トラップ
  6
CONTINUOUS
 62
     6
100
AcDbLeader
  3
STANDARD
 73
     3
 74
     1
 75
     0
 40
0.0
 76
     2
 10
1628.539154
 20
805.0
 30
0.0
 10
1477.094428
 20
722.294699
 30
0.0
 77
     6
1001
ACAD
1000
DSTYLE
1002
{
1070
    41
1040
35.0
1070
     5
1000
_EX_NORM
1070
     6
1000
_EX_NORM
1070
     7
1000
_EX_NORM
1070
   341
1005
2C
1002
}
  0
TEXT
  5
694
100
AcDbEntity
  8
トラップ
  6
CONTINUOUS
 62
     2
100
AcDbText
 10
1254.0
 20
727.294699
 30
0.0
 40
40.0
  1
ＮＬ２００Ｙ
 41
0.805
  7
EXCADSTD
 72
     5
 11
1483.999999
 21
727.294699
 31
0.0
100
AcDbText
  0
LINE
  5
695
100
AcDbEntity
  8
トラップ
  6
CONTINUOUS
 62
     6
100
AcDbLine
 10
1260.0
 20
722.294699
 30
0.0
 11
1477.094428
 21
722.294699
 31
0.0
  0
POLYLINE
  5
696
100
AcDbEntity
  8
寸法
  6
CONTINUOUS
 62
     3
100
AcDb2dPolyline
 66
     1
 10
0.0
 20
0.0
 30
0.0
 70
   128
  0
VERTEX
  5
697
100
AcDbEntity
  8
寸法
  6
CONTINUOUS
 62
     3
100
AcDbVertex
100
AcDb2dVertex
 10
1003.635773
 20
644.777344
 30
0.0
  0
VERTEX
  5
698
100
AcDbEntity
  8
寸法
  6
CONTINUOUS
 62
     3
100
AcDbVertex
100
AcDb2dVertex
 10
1012.694458
 20
610.969971
 30
0.0
  0
VERTEX
  5
699
100
AcDbEntity
  8
寸法
  6
CONTINUOUS
 62
     3
100
AcDbVertex
100
AcDb2dVertex
 10
1021.753143
 20
644.777344
 30
0.0
  0
SEQEND
  5
69A
100
AcDbEntity
  8
寸法
  6
CONTINUOUS
 62
     3
  0
POLYLINE
  5
69B
100
AcDbEntity
  8
寸法
  6
CONTINUOUS
 62
     3
100
AcDb2dPolyline
 66
     1
 10
0.0
 20
0.0
 30
0.0
 70
   128
  0
VERTEX
  5
69C
100
AcDbEntity
  8
寸法
  6
CONTINUOUS
 62
     3
100
AcDbVertex
100
AcDb2dVertex
 10
1021.753143
 20
1334.16333
 30
0.0
  0
VERTEX
  5
69D
100
AcDbEntity
  8
寸法
  6
CONTINUOUS
 62
     3
100
AcDbVertex
100
AcDb2dVertex
 10
1012.694458
 20
1367.970703
 30
0.0
  0
VERTEX
  5
69E
100
AcDbEntity
  8
寸法
  6
CONTINUOUS
 62
     3
100
AcDbVertex
100
AcDb2dVertex
 10
1003.635773
 20
1334.16333
 30
0.0
  0
SEQEND
  5
69F
100
AcDbEntity
  8
寸法
  6
CONTINUOUS
 62
     3
  0
LINE
  5
6A0
100
AcDbEntity
  8
寸法
  6
CONTINUOUS
 62
     3
100
AcDbLine
 10
1012.694458
 20
610.969971
 30
0.0
 11
1012.694458
 21
1367.970703
 31
0.0
  0
TEXT
  5
6A1
100
AcDbEntity
  8
寸法
  6
CONTINUOUS
 62
     2
100
AcDbText
 10
1007.694458
 20
935.086182
 30
0.0
 40
40.0
  1
７６０
 50
90.0
 41
0.833
  7
EXCADSTD
 72
     5
 11
1007.694458
 21
1054.086181
 31
0.0
100
AcDbText
  0
DIMENSION
  5
6AE
100
AcDbEntity
  8
寸法
  6
CONTINUOUS
 62
     3
100
AcDbDimension
  2
*D17
 10
597.463013
 20
2235.355713
 30
0.0
 11
574.463013
 21
2345.355713
 31
0.0
 70
   160
  3
STANDARD
100
AcDbAlignedDimension
 13
685.463013
 23
2455.355713
 33
0.0
 14
685.463013
 24
2235.355713
 34
0.0
 50
90.0
100
AcDbRotatedDimension
1001
ACAD
1000
DSTYLE
1002
{
1070
     6
1000
_EX_NORM
1070
     7
1000
_EX_NORM
1070
    41
1040
30.0
1070
    42
1040
5.0
1070
    44
1040
10.0
1070
    73
1070
     0
1070
    74
1070
     0
1070
    75
1070
     0
1070
    76
1070
     0
1070
    77
1070
     1
1070
    78
1070
     8
1070
   140
1040
40.0
1070
   147
1040
3.0
1070
   173
1070
     1
1070
   176
1070
     3
1070
   177
1070
     3
1070
   178
1070
     2
1070
   271
1070
     2
1070
   279
1070
     2
1070
   280
1070
     0
1070
   287
1070
     5
1070
   340
1005
6AD
1002
}
  0
DIMENSION
  5
6BA
100
AcDbEntity
  8
寸法
  6
CONTINUOUS
 62
     3
100
AcDbDimension
  2
*D18
 10
835.463013
 20
2273.0
 30
0.0
 11
685.463013
 21
2296.0
 31
0.0
 70
   160
  3
STANDARD
100
AcDbAlignedDimension
 13
535.463013
 23
2312.869758
 33
0.0
 14
835.463013
 24
2312.869758
 34
0.0
100
AcDbRotatedDimension
1001
ACAD
1000
DSTYLE
1002
{
1070
     6
1000
_EX_NORM
1070
     7
1000
_EX_NORM
1070
    41
1040
30.0
1070
    42
1040
5.0
1070
    44
1040
10.0
1070
    73
1070
     0
1070
    74
1070
     0
1070
    75
1070
     0
1070
    76
1070
     0
1070
    77
1070
     1
1070
    78
1070
     8
1070
   140
1040
40.0
1070
   147
1040
3.0
1070
   173
1070
     1
1070
   176
1070
     3
1070
   177
1070
     3
1070
   178
1070
     2
1070
   271
1070
     2
1070
   279
1070
     2
1070
   280
1070
     0
1070
   287
1070
     5
1070
   340
1005
6AD
1002
}
  0
DIMENSION
  5
6C6
100
AcDbEntity
  8
寸法
  6
CONTINUOUS
 62
     3
100
AcDbDimension
  2
*D19
 10
946.463013
 20
2450.355713
 30
0.0
 11
923.463013
 21
2482.855713
 31
0.0
 70
   160
  3
STANDARD
100
AcDbAlignedDimension
 13
870.463013
 23
2515.355713
 33
0.0
 14
835.163013
 24
2450.355713
 34
0.0
 50
90.0
100
AcDbRotatedDimension
1001
ACAD
1000
DSTYLE
1002
{
1070
     6
1000
_EX_NORM
1070
     7
1000
_EX_NORM
1070
    41
1040
30.0
1070
    42
1040
5.0
1070
    44
1040
10.0
1070
    73
1070
     0
1070
    74
1070
     0
1070
    75
1070
     0
1070
    76
1070
     0
1070
    77
1070
     1
1070
    78
1070
     8
1070
   140
1040
40.0
1070
   147
1040
3.0
1070
   173
1070
     1
1070
   176
1070
     3
1070
   177
1070
     3
1070
   178
1070
     2
1070
   271
1070
     2
1070
   279
1070
     2
1070
   280
1070
     0
1070
   287
1070
     5
1070
   340
1005
6AD
1002
}
  0
DIMENSION
  5
6D2
100
AcDbEntity
  8
寸法
  6
CONTINUOUS
 62
     3
100
AcDbDimension
  2
*D20
 10
1006.463013
 20
2195.355713
 30
0.0
 11
983.463013
 21
2355.355713
 31
0.0
 70
   160
  3
STANDARD
100
AcDbAlignedDimension
 13
946.463013
 23
2515.355713
 33
0.0
 14
685.463013
 24
2195.355713
 34
0.0
 50
90.0
100
AcDbRotatedDimension
1001
ACAD
1000
DSTYLE
1002
{
1070
     6
1000
_EX_NORM
1070
     7
1000
_EX_NORM
1070
    41
1040
30.0
1070
    42
1040
5.0
1070
    44
1040
10.0
1070
    73
1070
     0
1070
    74
1070
     0
1070
    75
1070
     0
1070
    76
1070
     0
1070
    77
1070
     1
1070
    78
1070
     8
1070
   140
1040
40.0
1070
   147
1040
3.0
1070
   173
1070
     1
1070
   176
1070
     3
1070
   177
1070
     3
1070
   178
1070
     2
1070
   271
1070
     2
1070
   279
1070
     2
1070
   280
1070
     0
1070
   287
1070
     5
1070
   340
1005
6AD
1002
}
  0
DIMENSION
  5
6DE
100
AcDbEntity
  8
寸法
  6
CONTINUOUS
 62
     3
100
AcDbDimension
  2
*D21
 10
885.463013
 20
2115.35556
 30
0.0
 11
685.463013
 21
2138.35556
 31
0.0
 70
   160
  3
STANDARD
100
AcDbAlignedDimension
 13
485.463013
 23
2273.81952
 33
0.0
 14
885.463013
 24
2273.81952
 34
0.0
100
AcDbRotatedDimension
1001
ACAD
1000
DSTYLE
1002
{
1070
     6
1000
_EX_NORM
1070
     7
1000
_EX_NORM
1070
    41
1040
30.0
1070
    42
1040
5.0
1070
    44
1040
10.0
1070
    73
1070
     0
1070
    74
1070
     0
1070
    75
1070
     0
1070
    76
1070
     0
1070
    77
1070
     1
1070
    78
1070
     8
1070
   140
1040
40.0
1070
   147
1040
3.0
1070
   173
1070
     1
1070
   176
1070
     3
1070
   177
1070
     3
1070
   178
1070
     2
1070
   271
1070
     2
1070
   279
1070
     2
1070
   280
1070
     0
1070
   287
1070
     5
1070
   340
1005
6AD
1002
}
  0
DIMENSION
  5
6EA
100
AcDbEntity
  8
寸法
  6
CONTINUOUS
 62
     3
100
AcDbDimension
  2
*D22
 10
952.694458
 20
1367.970703
 30
0.0
 11
929.694458
 21
1285.470703
 31
0.0
 70
   160
  3
STANDARD
100
AcDbAlignedDimension
 13
717.855152
 23
1202.970703
 33
0.0
 14
685.463013
 24
1367.970703
 34
0.0
 50
90.0
100
AcDbRotatedDimension
1001
ACAD
1000
DSTYLE
1002
{
1070
     6
1000
_EX_NORM
1070
     7
1000
_EX_NORM
1070
    41
1040
30.0
1070
    42
1040
5.0
1070
    44
1040
10.0
1070
    73
1070
     0
1070
    74
1070
     0
1070
    75
1070
     0
1070
    76
1070
     0
1070
    77
1070
     1
1070
    78
1070
     8
1070
   140
1040
40.0
1070
   147
1040
3.0
1070
   173
1070
     1
1070
   176
1070
     3
1070
   177
1070
     3
1070
   178
1070
     2
1070
   271
1070
     2
1070
   279
1070
     2
1070
   280
1070
     0
1070
   287
1070
     5
1070
   340
1005
6AD
1002
}
  0
DIMENSION
  5
6F5
100
AcDbEntity
  8
寸法
  6
CONTINUOUS
 62
     3
100
AcDbDimension
  2
*D23
 10
952.694458
 20
1412.970703
 30
0.0
 11
929.694458
 21
1482.970703
 31
0.0
 70
   160
  3
STANDARD
100
AcDbAlignedDimension
 13
685.463013
 23
1367.970703
 33
0.0
 14
865.463831
 24
1412.970703
 34
0.0
 50
90.0
100
AcDbRotatedDimension
1001
ACAD
1000
DSTYLE
1002
{
1070
     6
1000
_EX_NORM
1070
     7
1000
_EX_NORM
1070
    41
1040
30.0
1070
    42
1040
5.0
1070
    44
1040
10.0
1070
    73
1070
     0
1070
    74
1070
     0
1070
    75
1070
     1
1070
    76
1070
     0
1070
    77
1070
     1
1070
    78
1070
     8
1070
   140
1040
40.0
1070
   147
1040
3.0
1070
   173
1070
     1
1070
   176
1070
     3
1070
   177
1070
     3
1070
   178
1070
     2
1070
   271
1070
     2
1070
   279
1070
     2
1070
   280
1070
     2
1070
   287
1070
     5
1070
   340
1005
6AD
1002
}
  0
DIMENSION
  5
701
100
AcDbEntity
  8
寸法
  6
CONTINUOUS
 62
     3
100
AcDbDimension
  2
*D24
 10
1704.039185
 20
471.0
 30
0.0
 11
1859.039185
 21
494.0
 31
0.0
 70
   160
  1
145（床排水）
  3
STANDARD
100
AcDbAlignedDimension
 13
1559.039185
 23
896.0
 33
0.0
 14
1704.039185
 24
896.0
 34
0.0
100
AcDbRotatedDimension
1001
ACAD
1000
DSTYLE
1002
{
1070
     6
1000
_EX_NORM
1070
     7
1000
_EX_NORM
1070
    41
1040
30.0
1070
    42
1040
327.999992
1070
    44
1040
10.0
1070
    73
1070
     0
1070
    74
1070
     0
1070
    75
1070
     0
1070
    76
1070
     0
1070
    77
1070
     1
1070
    78
1070
     8
1070
   140
1040
40.0
1070
   147
1040
3.0
1070
   173
1070
     1
1070
   176
1070
     3
1070
   177
1070
     3
1070
   178
1070
     2
1070
   271
1070
     2
1070
   279
1070
     2
1070
   280
1070
     0
1070
   287
1070
     5
1070
   340
1005
379
1002
}
  0
DIMENSION
  5
70C
100
AcDbEntity
  8
寸法
  6
CONTINUOUS
 62
     3
100
AcDbDimension
  2
*D25
 10
1802.0
 20
610.969971
 30
0.0
 11
1779.0
 21
848.469971
 31
0.0
 70
   160
  3
STANDARD
100
AcDbAlignedDimension
 13
1704.039185
 23
1085.969971
 33
0.0
 14
1704.039185
 24
610.969971
 34
0.0
 50
90.0
100
AcDbRotatedDimension
1001
ACAD
1000
DSTYLE
1002
{
1070
     6
1000
_EX_NORM
1070
     7
1000
_EX_NORM
1070
    41
1040
30.0
1070
    42
1040
30.0
1070
    44
1040
10.0
1070
    73
1070
     0
1070
    74
1070
     0
1070
    75
1070
     0
1070
    76
1070
     1
1070
    77
1070
     1
1070
    78
1070
     8
1070
   140
1040
40.0
1070
   147
1040
3.0
1070
   173
1070
     1
1070
   176
1070
     3
1070
   177
1070
     3
1070
   178
1070
     2
1070
   271
1070
     2
1070
   279
1070
     2
1070
   280
1070
     0
1070
   287
1070
     5
1070
   340
1005
6AD
1002
}
  0
DIMENSION
  5
717
100
AcDbEntity
  8
寸法
  6
CONTINUOUS
 62
     3
100
AcDbDimension
  2
*D26
 10
1704.039185
 20
926.0
 30
0.0
 11
1661.539185
 21
949.5
 31
0.0
 70
   160
  3
STANDARD
100
AcDbAlignedDimension
 13
1619.039185
 23
1119.5
 33
0.0
 14
1704.039185
 24
1105.5
 34
0.0
100
AcDbRotatedDimension
1001
ACAD
1000
DSTYLE
1002
{
1070
     6
1000
_EX_NORM
1070
     7
1000
_EX_NORM
1070
    41
1040
35.0
1070
    42
1040
7.0
1070
    44
1040
20.0
1070
    73
1070
     0
1070
    74
1070
     0
1070
    75
1070
     0
1070
    76
1070
     1
1070
    77
1070
     1
1070
    78
1070
     0
1070
   140
1040
40.0
1070
   147
1040
3.5
1070
   173
1070
     1
1070
   176
1070
     3
1070
   177
1070
     3
1070
   178
1070
     2
1070
   271
1070
     0
1070
   279
1070
     2
1070
   280
1070
     0
1070
   287
1070
     5
1070
   340
1005
6AD
1002
}
  0
DIMENSION
  5
723
100
AcDbEntity
  8
寸法
  6
CONTINUOUS
 62
     3
100
AcDbDimension
  2
*D27
 10
760.463029
 20
2590.355713
 30
0.0
 11
685.463029
 21
2613.855713
 31
0.0
 70
   160
  3
STANDARD
100
AcDbAlignedDimension
 13
610.463029
 23
2538.255968
 33
0.0
 14
760.463029
 24
2538.255968
 34
0.0
100
AcDbRotatedDimension
1001
ACAD
1000
DSTYLE
1002
{
1070
     6
1000
_EX_NORM
1070
     7
1000
_EX_NORM
1070
    41
1040
35.0
1070
    42
1040
0.0
1070
    44
1040
0.0
1070
    73
1070
     0
1070
    74
1070
     0
1070
    75
1070
     0
1070
    76
1070
     0
1070
    77
1070
     1
1070
    78
1070
     0
1070
   140
1040
40.0
1070
   147
1040
3.5
1070
   173
1070
     1
1070
   176
1070
     3
1070
   177
1070
     3
1070
   178
1070
     2
1070
   271
1070
     0
1070
   279
1070
     2
1070
   280
1070
     0
1070
   287
1070
     5
1070
   340
1005
6AD
1002
}
  0
DIMENSION
  5
72F
100
AcDbEntity
  8
寸法
  6
CONTINUOUS
 62
     3
100
AcDbDimension
  2
*D28
 10
1802.0
 20
1412.970703
 30
0.0
 11
1778.5
 21
1488.970703
 31
0.0
 70
   160
  3
STANDARD
100
AcDbAlignedDimension
 13
1726.93944
 23
1387.970719
 33
0.0
 14
1704.039185
 24
1412.970703
 34
0.0
 50
90.0
100
AcDbRotatedDimension
1001
ACAD
1000
DSTYLE
1002
{
1070
     6
1000
_EX_NORM
1070
     7
1000
_EX_NORM
1070
    41
1040
35.0
1070
    42
1040
7.0
1070
    44
1040
20.0
1070
    73
1070
     0
1070
    74
1070
     0
1070
    75
1070
     0
1070
    76
1070
     0
1070
    77
1070
     1
1070
    78
1070
     0
1070
   140
1040
40.0
1070
   147
1040
3.5
1070
   173
1070
     1
1070
   176
1070
     3
1070
   177
1070
     3
1070
   178
1070
     2
1070
   271
1070
     0
1070
   279
1070
     2
1070
   280
1070
     2
1070
   287
1070
     5
1070
   340
1005
6AD
1002
}
  0
LINE
  5
730
100
AcDbEntity
  8
寸法
  6
CONTINUOUS
 62
     3
100
AcDbLine
 10
1734.039185
 20
610.969971
 30
0.0
 11
1812.0
 21
610.969971
 31
0.0
  0
DIMENSION
  5
73C
100
AcDbEntity
  8
寸法
  6
CONTINUOUS
 62
     3
100
AcDbDimension
  2
*D29
 10
1882.0
 20
610.969971
 30
0.0
 11
1859.0
 21
999.470345
 31
0.0
 70
   160
  1
（780）
  3
STANDARD
100
AcDbAlignedDimension
 13
1802.0
 23
1387.970719
 33
0.0
 14
1704.039185
 24
610.969971
 34
0.0
 50
90.0
100
AcDbRotatedDimension
1001
ACAD
1000
DSTYLE
1002
{
1070
     6
1000
_EX_NORM
1070
     7
1000
_EX_NORM
1070
    41
1040
30.0
1070
    42
1040
5.0
1070
    44
1040
10.0
1070
    73
1070
     0
1070
    74
1070
     0
1070
    75
1070
     0
1070
    76
1070
     0
1070
    77
1070
     1
1070
    78
1070
     8
1070
   140
1040
40.0
1070
   147
1040
3.0
1070
   173
1070
     1
1070
   176
1070
     3
1070
   177
1070
     3
1070
   178
1070
     2
1070
   271
1070
     2
1070
   279
1070
     2
1070
   280
1070
     0
1070
   287
1070
     5
1070
   340
1005
6AD
1002
}
  0
DIMENSION
  5
748
100
AcDbEntity
  8
寸法
  6
CONTINUOUS
 62
     3
100
AcDbDimension
  2
*D30
 10
685.463013
 20
536.0
 30
0.0
 11
569.463013
 21
559.5
 31
0.0
 70
   160
  1
26（床排水）
  3
STANDARD
100
AcDbAlignedDimension
 13
711.866516
 23
987.76944
 33
0.0
 14
685.463013
 24
585.969971
 34
0.0
100
AcDbRotatedDimension
1001
ACAD
1000
DSTYLE
1002
{
1070
     6
1000
_EX_NORM
1070
     7
1000
_EX_NORM
1070
    41
1040
30.0
1070
    42
1040
0.0
1070
    44
1040
0.0
1070
    73
1070
     0
1070
    74
1070
     0
1070
    75
1070
     0
1070
    76
1070
     0
1070
    77
1070
     1
1070
    78
1070
     8
1070
   140
1040
40.0
1070
   147
1040
3.5
1070
   173
1070
     1
1070
   176
1070
     3
1070
   177
1070
     3
1070
   178
1070
     2
1070
   271
1070
     2
1070
   279
1070
     2
1070
   280
1070
     0
1070
   287
1070
     5
1070
   340
1005
379
1002
}
  0
LINE
  5
749
100
AcDbEntity
  8
器具明細表
  6
CONTINUOUS
 62
     6
100
AcDbLine
 10
1243.00293
 20
2352.636047
 30
0.0
 11
1943.00293
 21
2352.636047
 31
0.0
  0
LINE
  5
74A
100
AcDbEntity
  8
器具明細表
  6
CONTINUOUS
 62
     6
100
AcDbLine
 10
1243.00293
 20
2417.636047
 30
0.0
 11
1943.00293
 21
2417.636047
 31
0.0
  0
LINE
  5
74B
100
AcDbEntity
  8
器具明細表
  6
CONTINUOUS
 62
     6
100
AcDbLine
 10
1243.00293
 20
2482.636047
 30
0.0
 11
1943.00293
 21
2482.636047
 31
0.0
  0
LINE
  5
74C
100
AcDbEntity
  8
器具明細表
  6
CONTINUOUS
 62
     6
100
AcDbLine
 10
1243.00293
 20
2547.635742
 30
0.0
 11
1943.00293
 21
2547.635742
 31
0.0
  0
LINE
  5
74D
100
AcDbEntity
  8
器具明細表
  6
CONTINUOUS
 62
     6
100
AcDbLine
 10
1243.00293
 20
2612.635742
 30
0.0
 11
1943.00293
 21
2612.635742
 31
0.0
  0
LINE
  5
74E
100
AcDbEntity
  8
器具明細表
  6
CONTINUOUS
 62
     6
100
AcDbLine
 10
1243.00293
 20
2677.635742
 30
0.0
 11
1943.00293
 21
2677.635742
 31
0.0
  0
LINE
  5
74F
100
AcDbEntity
  8
器具明細表
  6
CONTINUOUS
 62
     6
100
AcDbLine
 10
1243.00293
 20
2742.635742
 30
0.0
 11
1943.00293
 21
2742.635742
 31
0.0
  0
TEXT
  5
750
100
AcDbEntity
  8
器具明細表
  6
CONTINUOUS
 62
     2
100
AcDbText
 10
1260.053711
 20
2754.640137
 30
0.0
 40
60.0
  1
器　具　明　細
 41
0.91
  7
EXCADSTD
 72
     5
 11
1715.053711
 21
2754.640137
 31
0.0
100
AcDbText
  0
TEXT
  5
751
100
AcDbEntity
  8
器具明細表
  6
CONTINUOUS
 62
     2
100
AcDbText
 10
1293.40332
 20
2682.635742
 30
0.0
 40
55.0
  1
品　　番
 41
0.859091
  7
EXCADSTD
 72
     5
 11
1518.40332
 21
2682.635742
 31
0.0
100
AcDbText
  0
TEXT
  5
752
100
AcDbEntity
  8
器具明細表
  6
CONTINUOUS
 62
     2
100
AcDbText
 10
1858.00293
 20
2682.635742
 30
0.0
 40
55.0
  1
個数
 41
0.664364
  7
EXCADSTD
 72
     5
 11
1937.74713
 21
2682.635742
 31
0.0
100
AcDbText
  0
TEXT
  5
753
100
AcDbEntity
  8
器具明細表
  6
CONTINUOUS
 62
     2
100
AcDbText
 10
1623.02002
 20
2682.635742
 30
0.0
 40
55.0
  1
品　　名
 41
0.687273
  7
EXCADSTD
 72
     5
 11
1803.02002
 21
2682.635742
 31
0.0
100
AcDbText
  0
TEXT
  5
754
100
AcDbEntity
  8
器具明細表
  6
CONTINUOUS
 62
     2
100
AcDbText
 10
1878.00293
 20
2556.249023
 30
0.0
 40
47.5
  1
１
 41
0.834695
  7
EXCADSTD
 72
     5
 11
1915.762928
 21
2556.249023
 31
0.0
100
AcDbText
  0
TEXT
  5
755
100
AcDbEntity
  8
器具明細表
  6
CONTINUOUS
 62
     2
100
AcDbText
 10
1878.00293
 20
2490.101868
 30
0.0
 40
47.5
  1
１
 41
0.834695
  7
EXCADSTD
 72
     5
 11
1915.762928
 21
2490.101868
 31
0.0
100
AcDbText
  0
TEXT
  5
756
100
AcDbEntity
  8
器具明細表
  6
CONTINUOUS
 62
     2
100
AcDbText
 10
1878.00293
 20
2426.017395
 30
0.0
 40
47.5
  1
１
 41
0.834695
  7
EXCADSTD
 72
     5
 11
1915.762928
 21
2426.017395
 31
0.0
100
AcDbText
  0
TEXT
  5
757
100
AcDbEntity
  8
器具明細表
  6
CONTINUOUS
 62
     2
100
AcDbText
 10
1576.921387
 20
2357.636047
 30
0.0
 40
50.0
  1
化粧頭付木ねじ
 41
0.6408
  7
EXCADSTD
 72
     5
 11
1843.921386
 21
2357.636047
 31
0.0
100
AcDbText
  0
TEXT
  5
758
100
AcDbEntity
  8
器具明細表
  6
CONTINUOUS
 62
     2
100
AcDbText
 10
1878.00293
 20
2621.617676
 30
0.0
 40
47.5
  1
１
 41
0.834695
  7
EXCADSTD
 72
     5
 11
1915.762928
 21
2621.617676
 31
0.0
100
AcDbText
  0
LINE
  5
759
100
AcDbEntity
  8
器具明細表
  6
CONTINUOUS
 62
     6
100
AcDbLine
 10
1243.00293
 20
2742.635742
 30
0.0
 11
1243.00293
 21
2352.636047
 31
0.0
  0
LINE
  5
75A
100
AcDbEntity
  8
器具明細表
  6
CONTINUOUS
 62
     6
100
AcDbLine
 10
1573.00293
 20
2742.635742
 30
0.0
 11
1573.00293
 21
2352.636047
 31
0.0
  0
LINE
  5
75B
100
AcDbEntity
  8
器具明細表
  6
CONTINUOUS
 62
     6
100
AcDbLine
 10
1853.00293
 20
2742.635742
 30
0.0
 11
1853.00293
 21
2352.636047
 31
0.0
  0
LINE
  5
75C
100
AcDbEntity
  8
器具明細表
  6
CONTINUOUS
 62
     6
100
AcDbLine
 10
1943.00293
 20
2742.635742
 30
0.0
 11
1943.00293
 21
2352.636047
 31
0.0
  0
TEXT
  5
75D
100
AcDbEntity
  8
器具明細表
  6
CONTINUOUS
 62
     2
100
AcDbText
 10
1576.921387
 20
2553.414551
 30
0.0
 40
50.0
  1
立水栓
 41
0.6664
  7
EXCADSTD
 72
     5
 11
1695.921386
 21
2553.414551
 31
0.0
100
AcDbText
  0
TEXT
  5
75E
100
AcDbEntity
  8
器具明細表
  6
CONTINUOUS
 62
     2
100
AcDbText
 10
1576.921387
 20
2617.635742
 30
0.0
 40
50.0
  1
手洗器
 41
0.6664
  7
EXCADSTD
 72
     5
 11
1695.921386
 21
2617.635742
 31
0.0
100
AcDbText
  0
TEXT
  5
75F
100
AcDbEntity
  8
器具明細表
  6
CONTINUOUS
 62
     2
100
AcDbText
 10
1245.986786
 20
2620.116211
 30
0.0
 40
50.0
  1
Ｌ１３１＃
 41
0.7056
  7
EXCADSTD
 72
     5
 11
1455.986786
 21
2620.116211
 31
0.0
100
AcDbText
  0
TEXT
  5
760
100
AcDbEntity
  8
器具明細表
  6
CONTINUOUS
 62
     2
100
AcDbText
 10
1576.921387
 20
2423.414856
 30
0.0
 40
50.0
  1
Ｐトラップ
 41
0.64848
  7
EXCADSTD
 72
     5
 11
1769.921386
 21
2423.414856
 31
0.0
100
AcDbText
  0
TEXT
  5
761
100
AcDbEntity
  8
器具明細表
  6
CONTINUOUS
 62
     2
100
AcDbText
 10
1245.986786
 20
2425.115601
 30
0.0
 40
50.0
  1
ＮＬ３１Ｐ
 41
0.7056
  7
EXCADSTD
 72
     5
 11
1455.986786
 21
2425.115601
 31
0.0
100
AcDbText
  0
LINE
  5
762
100
AcDbEntity
  8
器具明細表
  6
CONTINUOUS
 62
     6
100
AcDbLine
 10
1243.00293
 20
2222.636353
 30
0.0
 11
1943.00293
 21
2222.636353
 31
0.0
  0
LINE
  5
763
100
AcDbEntity
  8
器具明細表
  6
CONTINUOUS
 62
     6
100
AcDbLine
 10
1243.00293
 20
2287.636047
 30
0.0
 11
1943.00293
 21
2287.636047
 31
0.0
  0
TEXT
  5
764
100
AcDbEntity
  8
器具明細表
  6
CONTINUOUS
 62
     2
100
AcDbText
 10
1878.00293
 20
2230.102173
 30
0.0
 40
47.5
  1
１
 41
0.834695
  7
EXCADSTD
 72
     5
 11
1915.762928
 21
2230.102173
 31
0.0
100
AcDbText
  0
LINE
  5
765
100
AcDbEntity
  8
器具明細表
  6
CONTINUOUS
 62
     6
100
AcDbLine
 10
1243.00293
 20
2287.636047
 30
0.0
 11
1243.00293
 21
2222.636353
 31
0.0
  0
LINE
  5
766
100
AcDbEntity
  8
器具明細表
  6
CONTINUOUS
 62
     6
100
AcDbLine
 10
1573.00293
 20
2287.636047
 30
0.0
 11
1573.00293
 21
2222.636353
 31
0.0
  0
LINE
  5
767
100
AcDbEntity
  8
器具明細表
  6
CONTINUOUS
 62
     6
100
AcDbLine
 10
1853.00293
 20
2287.636047
 30
0.0
 11
1853.00293
 21
2222.636353
 31
0.0
  0
LINE
  5
768
100
AcDbEntity
  8
器具明細表
  6
CONTINUOUS
 62
     6
100
AcDbLine
 10
1943.00293
 20
2287.636047
 30
0.0
 11
1943.00293
 21
2222.636353
 31
0.0
  0
TEXT
  5
769
100
AcDbEntity
  8
器具明細表
  6
CONTINUOUS
 62
     2
100
AcDbText
 10
1245.986786
 20
2295.116211
 30
0.0
 40
50.0
  1
Ｓトラップの場合
 41
0.693
  7
EXCADSTD
 72
     5
 11
1575.986786
 21
2295.116211
 31
0.0
100
AcDbText
  0
TEXT
  5
76A
100
AcDbEntity
  8
器具明細表
  6
CONTINUOUS
 62
     2
100
AcDbText
 10
1576.921387
 20
2228.414856
 30
0.0
 40
50.0
  1
Ｓトラップ
 41
0.64848
  7
EXCADSTD
 72
     5
 11
1769.921386
 21
2228.414856
 31
0.0
100
AcDbText
  0
TEXT
  5
76B
100
AcDbEntity
  8
器具明細表
  6
CONTINUOUS
 62
     2
100
AcDbText
 10
1245.986786
 20
2230.115601
 30
0.0
 40
50.0
  1
ＮＬ３１Ｓ
 41
0.7056
  7
EXCADSTD
 72
     5
 11
1455.986786
 21
2230.115601
 31
0.0
100
AcDbText
  0
TEXT
  5
76C
100
AcDbEntity
  8
器具明細表
  6
CONTINUOUS
 62
     2
100
AcDbText
 10
1576.921387
 20
2488.414856
 30
0.0
 40
50.0
  1
アングル形止水栓（共用形）
 41
0.365723
  7
EXCADSTD
 72
     5
 11
1859.921374
 21
2488.414856
 31
0.0
100
AcDbText
  0
TEXT
  5
76D
100
AcDbEntity
  8
器具明細表
  6
CONTINUOUS
 62
     2
100
AcDbText
 10
1245.986786
 20
2490.115601
 30
0.0
 40
50.0
  1
ＮＬ２Ｙ
 41
0.714
  7
EXCADSTD
 72
     5
 11
1415.986786
 21
2490.115601
 31
0.0
100
AcDbText
  0
TEXT
  5
76E
100
AcDbEntity
  8
器具明細表
  6
CONTINUOUS
 62
     2
100
AcDbText
 10
1878.00293
 20
2361.386047
 30
0.0
 40
47.5
  1
１
 41
0.834695
  7
EXCADSTD
 72
     5
 11
1915.762928
 21
2361.386047
 31
0.0
100
AcDbText
  0
TEXT
  5
76F
100
AcDbEntity
  8
器具明細表
  6
CONTINUOUS
 62
     2
100
AcDbText
 10
1245.986786
 20
2555.116211
 30
0.0
 40
50.0
  1
ＮＬ１
 41
0.728
  7
EXCADSTD
 72
     5
 11
1375.986786
 21
2555.116211
 31
0.0
100
AcDbText
  0
TEXT
  5
770
100
AcDbEntity
  8
器具明細表
  6
CONTINUOUS
 62
     2
100
AcDbText
 10
1245.986786
 20
2360.115601
 30
0.0
 40
50.0
  1
ＮＴ７Ａ（２）
 41
0.696
  7
EXCADSTD
 72
     5
 11
1535.986786
 21
2360.115601
 31
0.0
100
AcDbText
  0
ENDSEC
  0
SECTION
  2
OBJECTS
  0
DICTIONARY
  5
19
100
AcDbDictionary
  3
ACAD_GROUP
350
1A
  3
ACAD_MLINESTYLE
350
1B
  0
DICTIONARY
  5
1A
102
{ACAD_REACTORS
330
19
102
}
100
AcDbDictionary
  0
DICTIONARY
  5
1B
102
{ACAD_REACTORS
330
19
102
}
100
AcDbDictionary
  3
STANDARD
350
1C
  0
MLINESTYLE
  5
1C
102
{ACAD_REACTORS
330
1B
102
}
100
AcDbMlineStyle
  2
Standard
 70
     0
  3

 62
     0
 51
90.0
 52
90.0
 71
     2
 49
0.5
 62
   256
  6
ByLayer
 49
-0.5
 62
   256
  6
ByLayer
  0
ENDSEC
  0
EOF
