  0
SECTION
  2
HEADER
  9
$ACADVER
  1
AC1014
  9
$ACADMAINTVER
 70
     0
  9
$DWGCODEPAGE
  3
ANSI_932
  9
$INSBASE
 10
0.0
 20
0.0
 30
0.0
  9
$EXTMIN
 10
18.0
 20
13.5
 30
0.0
  9
$EXTMAX
 10
200.0
 20
288.5
 30
0.0
  9
$LIMMIN
 10
0.0
 20
0.0
  9
$LIMMAX
 10
210.0
 20
297.0
  9
$ORTHOMODE
 70
     0
  9
$REGENMODE
 70
     1
  9
$FILLMODE
 70
     1
  9
$QTEXTMODE
 70
     0
  9
$MIRRTEXT
 70
     1
  9
$DRAGMODE
 70
     2
  9
$LTSCALE
 40
1.0
  9
$OSMODE
 70
     0
  9
$ATTMODE
 70
     1
  9
$TEXTSIZE
 40
0.2
  9
$TRACEWID
 40
0.05
  9
$TEXTSTYLE
  7
STANDARD
  9
$CLAYER
  8
寸法
  9
$CELTYPE
  6
CONTINUOUS
  9
$CECOLOR
 62
   256
  9
$CELTSCALE
 40
1.0
  9
$DELOBJ
 70
     1
  9
$DISPSILH
 70
     0
  9
$DIMSCALE
 40
1.0
  9
$DIMASZ
 40
0.18
  9
$DIMEXO
 40
0.0625
  9
$DIMDLI
 40
0.38
  9
$DIMRND
 40
0.0
  9
$DIMDLE
 40
0.0
  9
$DIMEXE
 40
0.18
  9
$DIMTP
 40
0.0
  9
$DIMTM
 40
0.0
  9
$DIMTXT
 40
0.18
  9
$DIMCEN
 40
0.09
  9
$DIMTSZ
 40
0.0
  9
$DIMTOL
 70
     0
  9
$DIMLIM
 70
     0
  9
$DIMTIH
 70
     1
  9
$DIMTOH
 70
     1
  9
$DIMSE1
 70
     0
  9
$DIMSE2
 70
     0
  9
$DIMTAD
 70
     0
  9
$DIMZIN
 70
     0
  9
$DIMBLK
  1

  9
$DIMASO
 70
     1
  9
$DIMSHO
 70
     1
  9
$DIMPOST
  1

  9
$DIMAPOST
  1

  9
$DIMALT
 70
     0
  9
$DIMALTD
 70
     2
  9
$DIMALTF
 40
25.4
  9
$DIMLFAC
 40
1.0
  9
$DIMTOFL
 70
     0
  9
$DIMTVP
 40
0.0
  9
$DIMTIX
 70
     0
  9
$DIMSOXD
 70
     0
  9
$DIMSAH
 70
     0
  9
$DIMBLK1
  1

  9
$DIMBLK2
  1

  9
$DIMSTYLE
  2
STANDARD
  9
$DIMCLRD
 70
     0
  9
$DIMCLRE
 70
     0
  9
$DIMCLRT
 70
     0
  9
$DIMTFAC
 40
1.0
  9
$DIMGAP
 40
0.09
  9
$DIMJUST
 70
     0
  9
$DIMSD1
 70
     0
  9
$DIMSD2
 70
     0
  9
$DIMTOLJ
 70
     1
  9
$DIMTZIN
 70
     0
  9
$DIMALTZ
 70
     0
  9
$DIMALTTZ
 70
     0
  9
$DIMFIT
 70
     3
  9
$DIMUPT
 70
     0
  9
$DIMUNIT
 70
     2
  9
$DIMDEC
 70
     4
  9
$DIMTDEC
 70
     4
  9
$DIMALTU
 70
     2
  9
$DIMALTTD
 70
     2
  9
$DIMTXSTY
  7
STANDARD
  9
$DIMAUNIT
 70
     0
  9
$LUNITS
 70
     2
  9
$LUPREC
 70
     4
  9
$SKETCHINC
 40
0.1
  9
$FILLETRAD
 40
0.0
  9
$AUNITS
 70
     0
  9
$AUPREC
 70
     0
  9
$MENU
  1
acad
  9
$ELEVATION
 40
0.0
  9
$PELEVATION
 40
0.0
  9
$THICKNESS
 40
0.0
  9
$LIMCHECK
 70
     0
  9
$BLIPMODE
 70
     1
  9
$CHAMFERA
 40
0.0
  9
$CHAMFERB
 40
0.0
  9
$CHAMFERC
 40
0.0
  9
$CHAMFERD
 40
0.0
  9
$SKPOLY
 70
     0
  9
$TDCREATE
 40
2456924.914528681
  9
$TDUPDATE
 40
2456924.914528681
  9
$TDINDWG
 40
0.0000000000
  9
$TDUSRTIMER
 40
0.0000000000
  9
$USRTIMER
 70
     1
  9
$ANGBASE
 50
0.0
  9
$ANGDIR
 70
     0
  9
$PDMODE
 70
     0
  9
$PDSIZE
 40
0.0
  9
$PLINEWID
 40
0.0
  9
$COORDS
 70
     1
  9
$SPLFRAME
 70
     0
  9
$SPLINETYPE
 70
     6
  9
$SPLINESEGS
 70
     8
  9
$ATTDIA
 70
     0
  9
$ATTREQ
 70
     1
  9
$HANDLING
 70
     1
  9
$HANDSEED
  5
1AA
  9
$SURFTAB1
 70
     6
  9
$SURFTAB2
 70
     6
  9
$SURFTYPE
 70
     6
  9
$SURFU
 70
     6
  9
$SURFV
 70
     6
  9
$UCSNAME
  2

  9
$UCSORG
 10
0.0
 20
0.0
 30
0.0
  9
$UCSXDIR
 10
1.0
 20
0.0
 30
0.0
  9
$UCSYDIR
 10
0.0
 20
1.0
 30
0.0
  9
$PUCSNAME
  2

  9
$PUCSORG
 10
0.0
 20
0.0
 30
0.0
  9
$PUCSXDIR
 10
1.0
 20
0.0
 30
0.0
  9
$PUCSYDIR
 10
0.0
 20
1.0
 30
0.0
  9
$USERI1
 70
     0
  9
$USERI2
 70
     0
  9
$USERI3
 70
     0
  9
$USERI4
 70
     0
  9
$USERI5
 70
     0
  9
$USERR1
 40
0.0
  9
$USERR2
 40
0.0
  9
$USERR3
 40
0.0
  9
$USERR4
 40
0.0
  9
$USERR5
 40
0.0
  9
$WORLDVIEW
 70
     1
  9
$SHADEDGE
 70
     3
  9
$SHADEDIF
 70
    70
  9
$TILEMODE
 70
     1
  9
$MAXACTVP
 70
    16
  9
$PINSBASE
 10
0.0
 20
0.0
 30
0.0
  9
$PLIMCHECK
 70
     0
  9
$PEXTMIN
 10
1.000000E+20
 20
1.000000E+20
 30
1.000000E+20
  9
$PEXTMAX
 10
-1.000000E+20
 20
-1.000000E+20
 30
-1.000000E+20
  9
$PLIMMIN
 10
0.0
 20
0.0
  9
$PLIMMAX
 10
12.0
 20
9.0
  9
$UNITMODE
 70
     0
  9
$VISRETAIN
 70
     0
  9
$PLINEGEN
 70
     1
  9
$PSLTSCALE
 70
     0
  9
$TREEDEPTH
 70
  3020
  9
$PICKSTYLE
 70
     1
  9
$CMLSTYLE
  2
Standard
  9
$CMLJUST
 70
     0
  9
$CMLSCALE
 40
1.0
  9
$PROXYGRAPHICS
 70
     0
  9
$MEASUREMENT
 70
     0
  0
ENDSEC
  0
SECTION
  2
CLASSES
  0
CLASS
  1
LWPOLYLINE
  2
AcDbPolyline
  3
"AutoCAD"
 90
        0
280
     0
281
     1
  0
CLASS
  1
IMAGE
  2
AcDbRasterImage
  3
ISM
 90
      127
280
     0
281
     1
  0
CLASS
  1
OLE2FRAME
  2
AcDbOle2Frame
  3
""
 90
        0
280
     0
281
     1
  0
CLASS
  1
HATCH
  2
AcDbHatch
  3
"ACAD_SEDONA"
 90
        0
280
     0
281
     1
  0
CLASS
  1
DICTIONARYVAR
  2
AcDbDictionaryVar
  3
"AutoCAD"
 90
        0
280
     0
281
     0
  0
CLASS
  1
RASTERVARIABLES
  2
AcDbRasterVariables
  3
ISM
 90
        0
280
     0
281
     0
  0
CLASS
  1
IMAGEDEF
  2
AcDbRasterImageDef
  3
ISM
 90
        0
280
     0
281
     0
  0
CLASS
  1
IMAGEDEF_REACTOR
  2
AcDbRasterImageDefReactor
  3
ISM
 90
        1
280
     0
281
     0
  0
CLASS
  1
IDBUFFER
  2
AcDbIdBuffer
  3
"Acad"
 90
        0
280
     0
281
     0
  0
CLASS
  1
SPATIAL_FILTER
  2
AcDbSpatialFilter
  3
"Acad"
 90
        0
280
     0
281
     0
  0
CLASS
  1
XRECORD
  2
AcDbXrecord
  3
"<Built In>"
 90
        0
280
     0
281
     0
  0
CLASS
  1
SORTENTSTABLE
  2
AcDbSortentsTable
  3
"AutoCAD"
 90
        0
280
     0
281
     0
  0
CLASS
  1
LAYER_INDEX
  2
AcDbLayerIndex
  3
"Acad"
 90
        0
280
     0
281
     0
  0
CLASS
  1
SPATIAL_INDEX
  2
AcDbSpatialIndex
  3
"Acad"
 90
        0
280
     0
281
     0
  0
CLASS
  1
OBJECT_PTR
  2
CAseDLPNTableRecord
  3
"ASE-LPNTableRecord"
 90
        1
280
     0
281
     0
  0
CLASS
  1
LAYOUT
  2
AcDbLayout
  3
"AutoCAD 2000"
 90
        1
280
     0
281
     0
  0
CLASS
  1
PLOTSETTINGS
  2
AcDbPlotSettings
  3
"AutoCAD 2000"
 90
        1
280
     0
281
     0
  0
CLASS
  1
ACDBDICTIONARYWDFLT
  2
AcDbDictionaryWithDefault
  3
"AutoCAD 2000"
 90
        1
280
     0
281
     0
  0
CLASS
  1
ACDBPLACEHOLDER
  2
AcDbPlaceHolder
  3
"AutoCAD 2000"
 90
        1
280
     0
281
     0
  0
CLASS
  1
VBA_PROJECT
  2
AcDbVbaProject
  3
"acadvba"
 90
        1
280
     0
281
     0
  0
CLASS
  1
WIPEOUT
  2
AcDbWipeout
  3
WipeOut|AutoCAD Express Tool|expresstools@autodesk.com
 90
      127
280
     0
281
     1
  0
CLASS
  1
WIPEOUTVARIABLES
  2
AcDbWipeoutVariables
  3
WipeOut|AutoCAD Express Tool|expresstools@autodesk.com
 90
        0
280
     0
281
     0
  0
CLASS
  1
RTEXT
  2
RText
  3
RText|AutoCAD Express Tool|expresstools@autodesk.com
 90
        0
280
     0
281
     1
  0
CLASS
  1
ARCALIGNEDTEXT
  2
AcDbArcAlignedText
  3
ATEXT|AutoCAD Express Tool|expresstools@autodesk.com
 90
        0
280
     0
281
     1
  0
ENDSEC
  0
SECTION
  2
TABLES
  0
TABLE
  2
VPORT
  5
7
100
AcDbSymbolTable
 70
     1
  0
VPORT
  5
15
100
AcDbSymbolTableRecord
100
AcDbViewportTableRecord
  2
*ACTIVE
 70
     0
 10
0.0
 20
0.0
 11
1.0
 21
1.0
 12
545.0
 22
755.0
 13
0.0
 23
0.0
 14
1.0
 24
1.0
 15
0.0
 25
0.0
 16
0.0
 26
0.0
 36
1.0
 17
0.0
 27
0.0
 37
0.0
 40
1375.0
 41
1.722533
 42
50.0
 43
0.0
 44
0.0
 50
0.0
 51
0.0
 71
     0
 72
   100
 73
     1
 74
     1
 75
     0
 76
     0
 77
     0
 78
     0
  0
ENDTAB
  0
TABLE
  2
LTYPE
  5
4
100
AcDbSymbolTable
 70
     9
  0
LTYPE
  5
11
100
AcDbSymbolTableRecord
100
AcDbLinetypeTableRecord
  2
BYBLOCK
 70
    64
  3

 72
    65
 73
     0
 40
0.0
  0
LTYPE
  5
12
100
AcDbSymbolTableRecord
100
AcDbLinetypeTableRecord
  2
BYLAYER
 70
    64
  3

 72
    65
 73
     0
 40
0.0
  0
LTYPE
  5
13
100
AcDbSymbolTableRecord
100
AcDbLinetypeTableRecord
  2
CONTINUOUS
 70
    64
  3
実線
 72
    65
 73
     0
 40
0.0
  0
LTYPE
  5
1D
100
AcDbSymbolTableRecord
100
AcDbLinetypeTableRecord
  2
EXLTYPE1
 70
    64
  3
破線
 72
    65
 73
     2
 40
3.0
 49
2.0
 74
     0
 49
-1.0
 74
     0
  0
LTYPE
  5
1E
100
AcDbSymbolTableRecord
100
AcDbLinetypeTableRecord
  2
EXLTYPE2
 70
    64
  3
点線
 72
    65
 73
     2
 40
2.0
 49
1.0
 74
     0
 49
-1.0
 74
     0
  0
LTYPE
  5
1F
100
AcDbSymbolTableRecord
100
AcDbLinetypeTableRecord
  2
EXLTYPE3
 70
    64
  3
一点鎖線
 72
    65
 73
     4
 40
10.0
 49
7.0
 74
     0
 49
-1.0
 74
     0
 49
1.0
 74
     0
 49
-1.0
 74
     0
  0
LTYPE
  5
20
100
AcDbSymbolTableRecord
100
AcDbLinetypeTableRecord
  2
EXLTYPE4
 70
    64
  3
二点鎖線
 72
    65
 73
     6
 40
12.0
 49
7.0
 74
     0
 49
-1.0
 74
     0
 49
1.0
 74
     0
 49
-1.0
 74
     0
 49
1.0
 74
     0
 49
-1.0
 74
     0
  0
LTYPE
  5
21
100
AcDbSymbolTableRecord
100
AcDbLinetypeTableRecord
  2
EXLTYPE5
 70
    64
  3
三点鎖線
 72
    65
 73
     8
 40
37.0
 49
30.0
 74
     0
 49
-1.0
 74
     0
 49
1.0
 74
     0
 49
-1.0
 74
     0
 49
1.0
 74
     0
 49
-1.0
 74
     0
 49
1.0
 74
     0
 49
-1.0
 74
     0
  0
LTYPE
  5
22
100
AcDbSymbolTableRecord
100
AcDbLinetypeTableRecord
  2
EXLTYPE6
 70
    64
  3
四点鎖線
 72
    65
 73
    10
 40
39.0
 49
30.0
 74
     0
 49
-1.0
 74
     0
 49
1.0
 74
     0
 49
-1.0
 74
     0
 49
1.0
 74
     0
 49
-1.0
 74
     0
 49
1.0
 74
     0
 49
-1.0
 74
     0
 49
1.0
 74
     0
 49
-1.0
 74
     0
  0
ENDTAB
  0
TABLE
  2
LAYER
  5
2
100
AcDbSymbolTable
 70
     6
  0
LAYER
  5
14
100
AcDbSymbolTableRecord
100
AcDbLayerTableRecord
  2
0
 70
     0
 62
     7
  6
CONTINUOUS
  0
LAYER
  5
25
100
AcDbSymbolTableRecord
100
AcDbLayerTableRecord
  2
枠・表
 70
    64
 62
     7
  6
CONTINUOUS
  0
LAYER
  5
26
100
AcDbSymbolTableRecord
100
AcDbLayerTableRecord
  2
本体
 70
    64
 62
     7
  6
CONTINUOUS
  0
LAYER
  5
27
100
AcDbSymbolTableRecord
100
AcDbLayerTableRecord
  2
寸法
 70
    64
 62
     7
  6
CONTINUOUS
  0
LAYER
  5
28
100
AcDbSymbolTableRecord
100
AcDbLayerTableRecord
  2
部材
 70
    64
 62
     7
  6
CONTINUOUS
  0
LAYER
  5
29
100
AcDbSymbolTableRecord
100
AcDbLayerTableRecord
  2
部材寸法
 70
    64
 62
     7
  6
CONTINUOUS
  0
ENDTAB
  0
TABLE
  2
STYLE
  5
3
100
AcDbSymbolTable
 70
     4
  0
STYLE
  5
17
100
AcDbSymbolTableRecord
100
AcDbTextStyleTableRecord
  2
STANDARD
 70
     0
 40
0.0
 41
1.0
 50
0.0
 71
     0
 42
0.0
  3
monotxt
  4
extfont
  0
STYLE
  5
23
100
AcDbSymbolTableRecord
100
AcDbTextStyleTableRecord
  2
EXCADSTD
 70
    64
 40
0.0
 41
1.0
 50
0.0
 71
     0
 42
0.2
  3
monotxt
  4
extfont
  0
STYLE
  5
24
100
AcDbSymbolTableRecord
100
AcDbTextStyleTableRecord
  2
EXCADVERT
 70
    68
 40
0.0
 41
1.0
 50
0.0
 71
     0
 42
0.286885
  3
monotxt
  4
extfont
  0
STYLE
  5
16C
100
AcDbSymbolTableRecord
100
AcDbTextStyleTableRecord
  2
EXCADDIM1
 70
    64
 40
0.0
 41
0.84
 50
0.0
 71
     0
 42
0.2
  3
monotxt
  4
extfont
  0
ENDTAB
  0
TABLE
  2
VIEW
  5
5
100
AcDbSymbolTable
 70
     0
  0
ENDTAB
  0
TABLE
  2
UCS
  5
6
100
AcDbSymbolTable
 70
     0
  0
ENDTAB
  0
TABLE
  2
APPID
  5
8
100
AcDbSymbolTable
 70
     1
  0
APPID
  5
16
100
AcDbSymbolTableRecord
100
AcDbRegAppTableRecord
  2
ACAD
 70
     0
  0
ENDTAB
  0
TABLE
  2
DIMSTYLE
  5
9
100
AcDbSymbolTable
 70
     1
  0
DIMSTYLE
105
18
100
AcDbSymbolTableRecord
100
AcDbDimStyleTableRecord
  2
STANDARD
 70
     0
  3

  4

  5

  6

  7

 40
1.0
 41
0.18
 42
0.0625
 43
0.38
 44
0.18
 45
0.0
 46
0.0
 47
0.0
 48
0.0
 71
     0
 72
     0
 73
     1
 74
     1
 75
     0
 76
     0
 77
     0
 78
     0
140
0.18
141
0.09
142
0.0
143
25.4
144
1.0
145
0.0
146
1.0
147
0.09
170
     0
171
     2
172
     1
173
     0
174
     0
175
     0
176
     0
177
     0
178
     0
270
     2
271
     4
272
     4
273
     2
274
     2
275
     0
280
     0
281
     0
282
     0
283
     1
284
     0
285
     0
286
     0
287
     0
288
     0
340
17
  0
ENDTAB
  0
TABLE
  2
BLOCK_RECORD
  5
1
100
AcDbSymbolTable
 70
    20
  0
BLOCK_RECORD
  5
A
100
AcDbSymbolTableRecord
100
AcDbBlockTableRecord
  2
*MODEL_SPACE
  0
BLOCK_RECORD
  5
B
100
AcDbSymbolTableRecord
100
AcDbBlockTableRecord
  2
*PAPER_SPACE
  0
BLOCK_RECORD
  5
2A
100
AcDbSymbolTableRecord
100
AcDbBlockTableRecord
  2
_EX_NORM
  0
BLOCK_RECORD
  5
2B
100
AcDbSymbolTableRecord
100
AcDbBlockTableRecord
  2
_EX_BNORM
  0
BLOCK_RECORD
  5
2C
100
AcDbSymbolTableRecord
100
AcDbBlockTableRecord
  2
_EX_BCIR
  0
BLOCK_RECORD
  5
2D
100
AcDbSymbolTableRecord
100
AcDbBlockTableRecord
  2
_EX_RCIVIL
  0
BLOCK_RECORD
  5
2E
100
AcDbSymbolTableRecord
100
AcDbBlockTableRecord
  2
_EX_SLANT
  0
BLOCK_RECORD
  5
2F
100
AcDbSymbolTableRecord
100
AcDbBlockTableRecord
  2
_EX_NONE
  0
BLOCK_RECORD
  5
30
100
AcDbSymbolTableRecord
100
AcDbBlockTableRecord
  2
_EX_CIVIL
  0
BLOCK_RECORD
  5
31
100
AcDbSymbolTableRecord
100
AcDbBlockTableRecord
  2
_EX_WCIR
  0
BLOCK_RECORD
  5
32
100
AcDbSymbolTableRecord
100
AcDbBlockTableRecord
  2
_EX_WCIR2
  0
BLOCK_RECORD
  5
33
100
AcDbSymbolTableRecord
100
AcDbBlockTableRecord
  2
_EX_WNORM
  0
BLOCK_RECORD
  5
34
100
AcDbSymbolTableRecord
100
AcDbBlockTableRecord
  2
_EX_NNORM
  0
BLOCK_RECORD
  5
35
100
AcDbSymbolTableRecord
100
AcDbBlockTableRecord
  2
_EX_BBOX
  0
BLOCK_RECORD
  5
36
100
AcDbSymbolTableRecord
100
AcDbBlockTableRecord
  2
_EX_WBOX
  0
BLOCK_RECORD
  5
37
100
AcDbSymbolTableRecord
100
AcDbBlockTableRecord
  2
_EX_INTEGRAL
  0
BLOCK_RECORD
  5
161
100
AcDbSymbolTableRecord
100
AcDbBlockTableRecord
  2
*D14
  0
BLOCK_RECORD
  5
16E
100
AcDbSymbolTableRecord
100
AcDbBlockTableRecord
  2
*D15
  0
BLOCK_RECORD
  5
17A
100
AcDbSymbolTableRecord
100
AcDbBlockTableRecord
  2
*D16
  0
BLOCK_RECORD
  5
186
100
AcDbSymbolTableRecord
100
AcDbBlockTableRecord
  2
*D17
  0
BLOCK_RECORD
  5
192
100
AcDbSymbolTableRecord
100
AcDbBlockTableRecord
  2
*D18
  0
BLOCK_RECORD
  5
19E
100
AcDbSymbolTableRecord
100
AcDbBlockTableRecord
  2
*D19
  0
ENDTAB
  0
ENDSEC
  0
SECTION
  2
BLOCKS
  0
BLOCK
  5
D
100
AcDbEntity
  8
0
100
AcDbBlockBegin
  2
*MODEL_SPACE
 70
     0
 10
0.0
 20
0.0
 30
0.0
  3
*MODEL_SPACE
  1

  0
ENDBLK
  5
E
100
AcDbEntity
  8
0
100
AcDbBlockEnd
  0
BLOCK
  5
F
100
AcDbEntity
 67
     1
  8
0
100
AcDbBlockBegin
  2
*PAPER_SPACE
 70
     0
 10
0.0
 20
0.0
 30
0.0
  3
*PAPER_SPACE
  1

  0
ENDBLK
  5
10
100
AcDbEntity
 67
     1
  8
0
100
AcDbBlockEnd
  0
BLOCK
  5
38
100
AcDbEntity
  8
0
100
AcDbBlockBegin
  2
_EX_NORM
 70
     0
 10
0.0
 20
0.0
 30
0.0
  3
_EX_NORM
  1

  0
LINE
  5
39
100
AcDbEntity
  8
0
  6
CONTINUOUS
 62
     0
100
AcDbLine
 10
0.0
 20
0.0
 30
0.0
 11
-1.0
 21
0.0
 31
0.0
  0
LINE
  5
3A
100
AcDbEntity
  8
0
  6
CONTINUOUS
 62
     0
100
AcDbLine
 10
0.0
 20
0.0
 30
0.0
 11
-1.0
 21
0.166667
 31
0.0
  0
LINE
  5
3B
100
AcDbEntity
  8
0
  6
CONTINUOUS
 62
     0
100
AcDbLine
 10
0.0
 20
0.0
 30
0.0
 11
-1.0
 21
-0.166667
 31
0.0
  0
ENDBLK
  5
3C
100
AcDbEntity
  8
0
100
AcDbBlockEnd
  0
BLOCK
  5
3D
100
AcDbEntity
  8
0
100
AcDbBlockBegin
  2
_EX_BNORM
 70
     0
 10
0.0
 20
0.0
 30
0.0
  3
_EX_BNORM
  1

  0
LINE
  5
3E
100
AcDbEntity
  8
0
  6
CONTINUOUS
 62
     0
100
AcDbLine
 10
0.0
 20
0.0
 30
0.0
 11
-1.0
 21
0.0
 31
0.0
  0
LINE
  5
3F
100
AcDbEntity
  8
0
  6
CONTINUOUS
 62
     0
100
AcDbLine
 10
0.0
 20
0.0
 30
0.0
 11
-1.0
 21
0.166667
 31
0.0
  0
LINE
  5
40
100
AcDbEntity
  8
0
  6
CONTINUOUS
 62
     0
100
AcDbLine
 10
0.0
 20
0.0
 30
0.0
 11
-1.0
 21
-0.166667
 31
0.0
  0
LINE
  5
41
100
AcDbEntity
  8
0
  6
CONTINUOUS
 62
     0
100
AcDbLine
 10
0.0
 20
0.0
 30
0.0
 11
-1.0
 21
0.083333
 31
0.0
  0
LINE
  5
42
100
AcDbEntity
  8
0
  6
CONTINUOUS
 62
     0
100
AcDbLine
 10
0.0
 20
0.0
 30
0.0
 11
-1.0
 21
-0.083333
 31
0.0
  0
LINE
  5
43
100
AcDbEntity
  8
0
  6
CONTINUOUS
 62
     0
100
AcDbLine
 10
-1.0
 20
0.166667
 30
0.0
 11
-1.0
 21
-0.166667
 31
0.0
  0
ENDBLK
  5
44
100
AcDbEntity
  8
0
100
AcDbBlockEnd
  0
BLOCK
  5
45
100
AcDbEntity
  8
0
100
AcDbBlockBegin
  2
_EX_BCIR
 70
     0
 10
0.0
 20
0.0
 30
0.0
  3
_EX_BCIR
  1

  0
LINE
  5
46
100
AcDbEntity
  8
0
  6
CONTINUOUS
 62
     0
100
AcDbLine
 10
0.0
 20
0.0
 30
0.0
 11
-1.0
 21
0.0
 31
0.0
  0
CIRCLE
  5
47
100
AcDbEntity
  8
0
  6
CONTINUOUS
 62
     0
100
AcDbCircle
 10
0.0
 20
0.0
 30
0.0
 40
0.5
  0
CIRCLE
  5
48
100
AcDbEntity
  8
0
  6
CONTINUOUS
 62
     0
100
AcDbCircle
 10
0.0
 20
0.0
 30
0.0
 40
0.25
  0
ENDBLK
  5
49
100
AcDbEntity
  8
0
100
AcDbBlockEnd
  0
BLOCK
  5
4A
100
AcDbEntity
  8
0
100
AcDbBlockBegin
  2
_EX_RCIVIL
 70
     0
 10
0.0
 20
0.0
 30
0.0
  3
_EX_RCIVIL
  1

  0
LINE
  5
4B
100
AcDbEntity
  8
0
  6
CONTINUOUS
 62
     0
100
AcDbLine
 10
0.0
 20
0.0
 30
0.0
 11
-1.0
 21
0.0
 31
0.0
  0
LINE
  5
4C
100
AcDbEntity
  8
0
  6
CONTINUOUS
 62
     0
100
AcDbLine
 10
-1.0
 20
-0.25
 30
0.0
 11
0.0
 21
-0.25
 31
0.0
  0
LINE
  5
4D
100
AcDbEntity
  8
0
  6
CONTINUOUS
 62
     0
100
AcDbLine
 10
-1.0
 20
-0.125
 30
0.0
 11
0.0
 21
-0.125
 31
0.0
  0
ENDBLK
  5
4E
100
AcDbEntity
  8
0
100
AcDbBlockEnd
  0
BLOCK
  5
4F
100
AcDbEntity
  8
0
100
AcDbBlockBegin
  2
_EX_SLANT
 70
     0
 10
0.0
 20
0.0
 30
0.0
  3
_EX_SLANT
  1

  0
LINE
  5
50
100
AcDbEntity
  8
0
  6
CONTINUOUS
 62
     0
100
AcDbLine
 10
0.0
 20
0.0
 30
0.0
 11
-1.0
 21
0.0
 31
0.0
  0
LINE
  5
51
100
AcDbEntity
  8
0
  6
CONTINUOUS
 62
     0
100
AcDbLine
 10
0.707107
 20
0.707107
 30
0.0
 11
-0.707107
 21
-0.707107
 31
0.0
  0
ENDBLK
  5
52
100
AcDbEntity
  8
0
100
AcDbBlockEnd
  0
BLOCK
  5
53
100
AcDbEntity
  8
0
100
AcDbBlockBegin
  2
_EX_NONE
 70
     0
 10
0.0
 20
0.0
 30
0.0
  3
_EX_NONE
  1

  0
LINE
  5
54
100
AcDbEntity
  8
0
  6
CONTINUOUS
 62
     0
100
AcDbLine
 10
0.0
 20
0.0
 30
0.0
 11
-1.0
 21
0.0
 31
0.0
  0
ENDBLK
  5
55
100
AcDbEntity
  8
0
100
AcDbBlockEnd
  0
BLOCK
  5
56
100
AcDbEntity
  8
0
100
AcDbBlockBegin
  2
_EX_CIVIL
 70
     0
 10
0.0
 20
0.0
 30
0.0
  3
_EX_CIVIL
  1

  0
LINE
  5
57
100
AcDbEntity
  8
0
  6
CONTINUOUS
 62
     0
100
AcDbLine
 10
0.0
 20
0.0
 30
0.0
 11
-1.0
 21
0.0
 31
0.0
  0
LINE
  5
58
100
AcDbEntity
  8
0
  6
CONTINUOUS
 62
     0
100
AcDbLine
 10
-1.0
 20
0.25
 30
0.0
 11
0.0
 21
0.25
 31
0.0
  0
LINE
  5
59
100
AcDbEntity
  8
0
  6
CONTINUOUS
 62
     0
100
AcDbLine
 10
-1.0
 20
0.125
 30
0.0
 11
0.0
 21
0.125
 31
0.0
  0
ENDBLK
  5
5A
100
AcDbEntity
  8
0
100
AcDbBlockEnd
  0
BLOCK
  5
5B
100
AcDbEntity
  8
0
100
AcDbBlockBegin
  2
_EX_WCIR
 70
     0
 10
0.0
 20
0.0
 30
0.0
  3
_EX_WCIR
  1

  0
LINE
  5
5C
100
AcDbEntity
  8
0
  6
CONTINUOUS
 62
     0
100
AcDbLine
 10
0.0
 20
0.0
 30
0.0
 11
-1.0
 21
0.0
 31
0.0
  0
CIRCLE
  5
5D
100
AcDbEntity
  8
0
  6
CONTINUOUS
 62
     0
100
AcDbCircle
 10
0.0
 20
0.0
 30
0.0
 40
0.5
  0
ENDBLK
  5
5E
100
AcDbEntity
  8
0
100
AcDbBlockEnd
  0
BLOCK
  5
5F
100
AcDbEntity
  8
0
100
AcDbBlockBegin
  2
_EX_WCIR2
 70
     0
 10
0.0
 20
0.0
 30
0.0
  3
_EX_WCIR2
  1

  0
LINE
  5
60
100
AcDbEntity
  8
0
  6
CONTINUOUS
 62
     0
100
AcDbLine
 10
-0.5
 20
0.0
 30
0.0
 11
-1.0
 21
0.0
 31
0.0
  0
CIRCLE
  5
61
100
AcDbEntity
  8
0
  6
CONTINUOUS
 62
     0
100
AcDbCircle
 10
0.0
 20
0.0
 30
0.0
 40
0.5
  0
ENDBLK
  5
62
100
AcDbEntity
  8
0
100
AcDbBlockEnd
  0
BLOCK
  5
63
100
AcDbEntity
  8
0
100
AcDbBlockBegin
  2
_EX_WNORM
 70
     0
 10
0.0
 20
0.0
 30
0.0
  3
_EX_WNORM
  1

  0
LINE
  5
64
100
AcDbEntity
  8
0
  6
CONTINUOUS
 62
     0
100
AcDbLine
 10
-1.0
 20
0.0
 30
0.0
 11
-1.0
 21
0.0
 31
0.0
  0
LINE
  5
65
100
AcDbEntity
  8
0
  6
CONTINUOUS
 62
     0
100
AcDbLine
 10
0.0
 20
0.0
 30
0.0
 11
-1.0
 21
0.166667
 31
0.0
  0
LINE
  5
66
100
AcDbEntity
  8
0
  6
CONTINUOUS
 62
     0
100
AcDbLine
 10
0.0
 20
0.0
 30
0.0
 11
-1.0
 21
-0.166667
 31
0.0
  0
LINE
  5
67
100
AcDbEntity
  8
0
  6
CONTINUOUS
 62
     0
100
AcDbLine
 10
-1.0
 20
0.166667
 30
0.0
 11
-1.0
 21
-0.166667
 31
0.0
  0
ENDBLK
  5
68
100
AcDbEntity
  8
0
100
AcDbBlockEnd
  0
BLOCK
  5
69
100
AcDbEntity
  8
0
100
AcDbBlockBegin
  2
_EX_NNORM
 70
     0
 10
0.0
 20
0.0
 30
0.0
  3
_EX_NNORM
  1

  0
LINE
  5
6A
100
AcDbEntity
  8
0
  6
CONTINUOUS
 62
     0
100
AcDbLine
 10
0.0
 20
0.0
 30
0.0
 11
-1.0
 21
0.0
 31
0.0
  0
LINE
  5
6B
100
AcDbEntity
  8
0
  6
CONTINUOUS
 62
     0
100
AcDbLine
 10
0.0
 20
0.0
 30
0.0
 11
-1.0
 21
0.166667
 31
0.0
  0
LINE
  5
6C
100
AcDbEntity
  8
0
  6
CONTINUOUS
 62
     0
100
AcDbLine
 10
0.0
 20
0.0
 30
0.0
 11
-1.0
 21
-0.166667
 31
0.0
  0
LINE
  5
6D
100
AcDbEntity
  8
0
  6
CONTINUOUS
 62
     0
100
AcDbLine
 10
-1.0
 20
0.166667
 30
0.0
 11
-1.0
 21
-0.166667
 31
0.0
  0
ENDBLK
  5
6E
100
AcDbEntity
  8
0
100
AcDbBlockEnd
  0
BLOCK
  5
6F
100
AcDbEntity
  8
0
100
AcDbBlockBegin
  2
_EX_BBOX
 70
     0
 10
0.0
 20
0.0
 30
0.0
  3
_EX_BBOX
  1

  0
LINE
  5
70
100
AcDbEntity
  8
0
  6
CONTINUOUS
 62
     0
100
AcDbLine
 10
0.0
 20
0.0
 30
0.0
 11
-1.0
 21
0.0
 31
0.0
  0
LINE
  5
71
100
AcDbEntity
  8
0
  6
CONTINUOUS
 62
     0
100
AcDbLine
 10
-0.5
 20
0.5
 30
0.0
 11
0.5
 21
0.5
 31
0.0
  0
LINE
  5
72
100
AcDbEntity
  8
0
  6
CONTINUOUS
 62
     0
100
AcDbLine
 10
0.5
 20
0.5
 30
0.0
 11
0.5
 21
-0.5
 31
0.0
  0
LINE
  5
73
100
AcDbEntity
  8
0
  6
CONTINUOUS
 62
     0
100
AcDbLine
 10
0.5
 20
-0.5
 30
0.0
 11
-0.5
 21
-0.5
 31
0.0
  0
LINE
  5
74
100
AcDbEntity
  8
0
  6
CONTINUOUS
 62
     0
100
AcDbLine
 10
-0.5
 20
-0.5
 30
0.0
 11
-0.5
 21
0.5
 31
0.0
  0
LINE
  5
75
100
AcDbEntity
  8
0
  6
CONTINUOUS
 62
     0
100
AcDbLine
 10
-0.25
 20
0.25
 30
0.0
 11
0.25
 21
0.25
 31
0.0
  0
LINE
  5
76
100
AcDbEntity
  8
0
  6
CONTINUOUS
 62
     0
100
AcDbLine
 10
0.25
 20
0.25
 30
0.0
 11
0.25
 21
-0.25
 31
0.0
  0
LINE
  5
77
100
AcDbEntity
  8
0
  6
CONTINUOUS
 62
     0
100
AcDbLine
 10
0.25
 20
-0.25
 30
0.0
 11
-0.25
 21
-0.25
 31
0.0
  0
LINE
  5
78
100
AcDbEntity
  8
0
  6
CONTINUOUS
 62
     0
100
AcDbLine
 10
-0.25
 20
-0.25
 30
0.0
 11
-0.25
 21
0.25
 31
0.0
  0
ENDBLK
  5
79
100
AcDbEntity
  8
0
100
AcDbBlockEnd
  0
BLOCK
  5
7A
100
AcDbEntity
  8
0
100
AcDbBlockBegin
  2
_EX_WBOX
 70
     0
 10
0.0
 20
0.0
 30
0.0
  3
_EX_WBOX
  1

  0
LINE
  5
7B
100
AcDbEntity
  8
0
  6
CONTINUOUS
 62
     0
100
AcDbLine
 10
-0.5
 20
0.0
 30
0.0
 11
-1.0
 21
0.0
 31
0.0
  0
LINE
  5
7C
100
AcDbEntity
  8
0
  6
CONTINUOUS
 62
     0
100
AcDbLine
 10
-0.5
 20
0.5
 30
0.0
 11
0.5
 21
0.5
 31
0.0
  0
LINE
  5
7D
100
AcDbEntity
  8
0
  6
CONTINUOUS
 62
     0
100
AcDbLine
 10
0.5
 20
0.5
 30
0.0
 11
0.5
 21
-0.5
 31
0.0
  0
LINE
  5
7E
100
AcDbEntity
  8
0
  6
CONTINUOUS
 62
     0
100
AcDbLine
 10
0.5
 20
-0.5
 30
0.0
 11
-0.5
 21
-0.5
 31
0.0
  0
LINE
  5
7F
100
AcDbEntity
  8
0
  6
CONTINUOUS
 62
     0
100
AcDbLine
 10
-0.5
 20
-0.5
 30
0.0
 11
-0.5
 21
0.5
 31
0.0
  0
ENDBLK
  5
80
100
AcDbEntity
  8
0
100
AcDbBlockEnd
  0
BLOCK
  5
81
100
AcDbEntity
  8
0
100
AcDbBlockBegin
  2
_EX_INTEGRAL
 70
     0
 10
0.0
 20
0.0
 30
0.0
  3
_EX_INTEGRAL
  1

  0
LINE
  5
82
100
AcDbEntity
  8
0
  6
CONTINUOUS
 62
     0
100
AcDbLine
 10
0.0
 20
0.0
 30
0.0
 11
-1.0
 21
0.0
 31
0.0
  0
ARC
  5
83
100
AcDbEntity
  8
0
  6
CONTINUOUS
 62
     0
100
AcDbCircle
 10
0.542115
 20
0.164992
 30
0.0
 40
0.56667
100
AcDbArc
 50
73.07249
 51
196.927513
  0
ARC
  5
84
100
AcDbEntity
  8
0
  6
CONTINUOUS
 62
     0
100
AcDbCircle
 10
-0.542115
 20
-0.164992
 30
0.0
 40
0.56667
100
AcDbArc
 50
253.072487
 51
16.927513
  0
ENDBLK
  5
85
100
AcDbEntity
  8
0
100
AcDbBlockEnd
  0
BLOCK
  5
162
100
AcDbEntity
  8
0
100
AcDbBlockBegin
  2
*D14
 70
    65
 10
0.0
 20
0.0
 30
0.0
  3
*D14
  1

  0
LINE
  5
163
100
AcDbEntity
  8
寸法
  6
CONTINUOUS
 62
     3
100
AcDbLine
 10
271.0
 20
1146.5
 30
0.0
 11
571.0
 21
1146.5
 31
0.0
  0
LINE
  5
164
100
AcDbEntity
  8
寸法
  6
CONTINUOUS
 62
     3
100
AcDbLine
 10
286.0
 20
1149.0
 30
0.0
 11
271.0
 21
1146.5
 31
0.0
  0
LINE
  5
165
100
AcDbEntity
  8
寸法
  6
CONTINUOUS
 62
     3
100
AcDbLine
 10
271.0
 20
1146.5
 30
0.0
 11
286.0
 21
1144.0
 31
0.0
  0
LINE
  5
166
100
AcDbEntity
  8
寸法
  6
CONTINUOUS
 62
     3
100
AcDbLine
 10
556.0
 20
1144.0
 30
0.0
 11
571.0
 21
1146.5
 31
0.0
  0
LINE
  5
167
100
AcDbEntity
  8
寸法
  6
CONTINUOUS
 62
     3
100
AcDbLine
 10
571.0
 20
1146.5
 30
0.0
 11
556.0
 21
1149.0
 31
0.0
  0
TEXT
  5
168
100
AcDbEntity
  8
寸法
  6
CONTINUOUS
 62
     2
100
AcDbText
 10
400.0
 20
1148.25
 30
0.0
 40
20.0
  1
300
 41
0.84
  7
EXCADSTD
 72
     1
 11
421.0
 21
1148.25
 31
0.0
100
AcDbText
  0
LINE
  5
169
100
AcDbEntity
  8
寸法
  6
CONTINUOUS
 62
     3
100
AcDbLine
 10
271.0
 20
1082.0
 30
0.0
 11
271.0
 21
1151.5
 31
0.0
  0
LINE
  5
16A
100
AcDbEntity
  8
寸法
  6
CONTINUOUS
 62
     3
100
AcDbLine
 10
571.0
 20
1082.0
 30
0.0
 11
571.0
 21
1151.5
 31
0.0
  0
ENDBLK
  5
16B
100
AcDbEntity
  8
0
100
AcDbBlockEnd
  0
BLOCK
  5
16F
100
AcDbEntity
  8
0
100
AcDbBlockBegin
  2
*D15
 70
    65
 10
0.0
 20
0.0
 30
0.0
  3
*D15
  1

  0
LINE
  5
170
100
AcDbEntity
  8
寸法
  6
CONTINUOUS
 62
     3
100
AcDbLine
 10
573.5
 20
577.2
 30
0.0
 11
622.0
 21
577.2
 31
0.0
  0
LINE
  5
171
100
AcDbEntity
  8
寸法
  6
CONTINUOUS
 62
     3
100
AcDbLine
 10
573.5
 20
1079.8
 30
0.0
 11
622.0
 21
1079.8
 31
0.0
  0
LINE
  5
172
100
AcDbEntity
  8
寸法
  6
CONTINUOUS
 62
     3
100
AcDbLine
 10
617.0
 20
577.2
 30
0.0
 11
617.0
 21
1079.8
 31
0.0
  0
LINE
  5
173
100
AcDbEntity
  8
寸法
  6
CONTINUOUS
 62
     3
100
AcDbLine
 10
614.5
 20
592.2
 30
0.0
 11
617.0
 21
577.2
 31
0.0
  0
LINE
  5
174
100
AcDbEntity
  8
寸法
  6
CONTINUOUS
 62
     3
100
AcDbLine
 10
617.0
 20
577.2
 30
0.0
 11
619.5
 21
592.2
 31
0.0
  0
LINE
  5
175
100
AcDbEntity
  8
寸法
  6
CONTINUOUS
 62
     3
100
AcDbLine
 10
619.5
 20
1064.8
 30
0.0
 11
617.0
 21
1079.8
 31
0.0
  0
LINE
  5
176
100
AcDbEntity
  8
寸法
  6
CONTINUOUS
 62
     3
100
AcDbLine
 10
617.0
 20
1079.8
 30
0.0
 11
614.5
 21
1064.8
 31
0.0
  0
TEXT
  5
177
100
AcDbEntity
  8
寸法
  6
CONTINUOUS
 62
     2
100
AcDbText
 10
615.25
 20
807.5
 30
0.0
 40
20.0
  1
503
 50
90.0
 41
0.84
  7
EXCADSTD
 72
     1
 11
615.25
 21
828.5
 31
0.0
100
AcDbText
  0
ENDBLK
  5
178
100
AcDbEntity
  8
0
100
AcDbBlockEnd
  0
BLOCK
  5
17B
100
AcDbEntity
  8
0
100
AcDbBlockBegin
  2
*D16
 70
    65
 10
0.0
 20
0.0
 30
0.0
  3
*D16
  1

  0
LINE
  5
17C
100
AcDbEntity
  8
寸法
  6
CONTINUOUS
 62
     3
100
AcDbLine
 10
755.3
 20
1083.3
 30
0.0
 11
755.3
 21
1121.5
 31
0.0
  0
LINE
  5
17D
100
AcDbEntity
  8
寸法
  6
CONTINUOUS
 62
     3
100
AcDbLine
 10
743.7
 20
1083.3
 30
0.0
 11
743.7
 21
1121.5
 31
0.0
  0
LINE
  5
17E
100
AcDbEntity
  8
寸法
  6
CONTINUOUS
 62
     3
100
AcDbLine
 10
770.3
 20
1116.5
 30
0.0
 11
671.949998
 21
1116.5
 31
0.0
  0
LINE
  5
17F
100
AcDbEntity
  8
寸法
  6
CONTINUOUS
 62
     3
100
AcDbLine
 10
770.3
 20
1119.0
 30
0.0
 11
755.3
 21
1116.5
 31
0.0
  0
LINE
  5
180
100
AcDbEntity
  8
寸法
  6
CONTINUOUS
 62
     3
100
AcDbLine
 10
755.3
 20
1116.5
 30
0.0
 11
770.3
 21
1114.0
 31
0.0
  0
LINE
  5
181
100
AcDbEntity
  8
寸法
  6
CONTINUOUS
 62
     3
100
AcDbLine
 10
728.7
 20
1114.0
 30
0.0
 11
743.7
 21
1116.5
 31
0.0
  0
LINE
  5
182
100
AcDbEntity
  8
寸法
  6
CONTINUOUS
 62
     3
100
AcDbLine
 10
743.7
 20
1116.5
 30
0.0
 11
728.7
 21
1119.0
 31
0.0
  0
TEXT
  5
183
100
AcDbEntity
  8
寸法
  6
CONTINUOUS
 62
     2
100
AcDbText
 10
678.1
 20
1118.25
 30
0.0
 40
20.0
  1
11.6
 41
0.84
  7
EXCADSTD
 72
     1
 11
701.2
 21
1118.25
 31
0.0
100
AcDbText
  0
ENDBLK
  5
184
100
AcDbEntity
  8
0
100
AcDbBlockEnd
  0
BLOCK
  5
187
100
AcDbEntity
  8
0
100
AcDbBlockBegin
  2
*D17
 70
    65
 10
0.0
 20
0.0
 30
0.0
  3
*D17
  1

  0
LINE
  5
188
100
AcDbEntity
  8
寸法
  6
CONTINUOUS
 62
     3
100
AcDbLine
 10
301.0
 20
1116.5
 30
0.0
 11
541.0
 21
1116.5
 31
0.0
  0
LINE
  5
189
100
AcDbEntity
  8
寸法
  6
CONTINUOUS
 62
     3
100
AcDbLine
 10
316.0
 20
1119.0
 30
0.0
 11
301.0
 21
1116.5
 31
0.0
  0
LINE
  5
18A
100
AcDbEntity
  8
寸法
  6
CONTINUOUS
 62
     3
100
AcDbLine
 10
301.0
 20
1116.5
 30
0.0
 11
316.0
 21
1114.0
 31
0.0
  0
LINE
  5
18B
100
AcDbEntity
  8
寸法
  6
CONTINUOUS
 62
     3
100
AcDbLine
 10
526.0
 20
1114.0
 30
0.0
 11
541.0
 21
1116.5
 31
0.0
  0
LINE
  5
18C
100
AcDbEntity
  8
寸法
  6
CONTINUOUS
 62
     3
100
AcDbLine
 10
541.0
 20
1116.5
 30
0.0
 11
526.0
 21
1119.0
 31
0.0
  0
TEXT
  5
18D
100
AcDbEntity
  8
寸法
  6
CONTINUOUS
 62
     2
100
AcDbText
 10
400.0
 20
1118.25
 30
0.0
 40
20.0
  1
240
 41
0.84
  7
EXCADSTD
 72
     1
 11
421.0
 21
1118.25
 31
0.0
100
AcDbText
  0
LINE
  5
18E
100
AcDbEntity
  8
寸法
  6
CONTINUOUS
 62
     3
100
AcDbLine
 10
301.0
 20
1076.3
 30
0.0
 11
301.0
 21
1121.5
 31
0.0
  0
LINE
  5
18F
100
AcDbEntity
  8
寸法
  6
CONTINUOUS
 62
     3
100
AcDbLine
 10
541.0
 20
1076.3
 30
0.0
 11
541.0
 21
1121.5
 31
0.0
  0
ENDBLK
  5
190
100
AcDbEntity
  8
0
100
AcDbBlockEnd
  0
BLOCK
  5
193
100
AcDbEntity
  8
0
100
AcDbBlockBegin
  2
*D18
 70
    65
 10
0.0
 20
0.0
 30
0.0
  3
*D18
  1

  0
LINE
  5
194
100
AcDbEntity
  8
寸法
  6
CONTINUOUS
 62
     3
100
AcDbLine
 10
805.0
 20
525.449998
 30
0.0
 11
805.0
 21
612.2
 31
0.0
  0
LINE
  5
195
100
AcDbEntity
  8
寸法
  6
CONTINUOUS
 62
     3
100
AcDbLine
 10
807.5
 20
562.2
 30
0.0
 11
805.0
 21
577.2
 31
0.0
  0
LINE
  5
196
100
AcDbEntity
  8
寸法
  6
CONTINUOUS
 62
     3
100
AcDbLine
 10
805.0
 20
577.2
 30
0.0
 11
802.5
 21
562.2
 31
0.0
  0
LINE
  5
197
100
AcDbEntity
  8
寸法
  6
CONTINUOUS
 62
     3
100
AcDbLine
 10
802.5
 20
612.2
 30
0.0
 11
805.0
 21
597.2
 31
0.0
  0
LINE
  5
198
100
AcDbEntity
  8
寸法
  6
CONTINUOUS
 62
     3
100
AcDbLine
 10
805.0
 20
597.2
 30
0.0
 11
807.5
 21
612.2
 31
0.0
  0
TEXT
  5
199
100
AcDbEntity
  8
寸法
  6
CONTINUOUS
 62
     2
100
AcDbText
 10
803.25
 20
530.0
 30
0.0
 40
20.0
  1
20
 50
90.0
 41
0.84
  7
EXCADSTD
 72
     1
 11
803.25
 21
544.7
 31
0.0
100
AcDbText
  0
LINE
  5
19A
100
AcDbEntity
  8
寸法
  6
CONTINUOUS
 62
     3
100
AcDbLine
 10
758.8
 20
577.2
 30
0.0
 11
810.0
 21
577.2
 31
0.0
  0
LINE
  5
19B
100
AcDbEntity
  8
寸法
  6
CONTINUOUS
 62
     3
100
AcDbLine
 10
785.7
 20
597.2
 30
0.0
 11
810.0
 21
597.2
 31
0.0
  0
ENDBLK
  5
19C
100
AcDbEntity
  8
0
100
AcDbBlockEnd
  0
BLOCK
  5
19F
100
AcDbEntity
  8
0
100
AcDbBlockBegin
  2
*D19
 70
    65
 10
0.0
 20
0.0
 30
0.0
  3
*D19
  1

  0
LINE
  5
1A0
100
AcDbEntity
  8
寸法
  6
CONTINUOUS
 62
     3
100
AcDbLine
 10
805.0
 20
597.2
 30
0.0
 11
805.0
 21
1069.3
 31
0.0
  0
LINE
  5
1A1
100
AcDbEntity
  8
寸法
  6
CONTINUOUS
 62
     3
100
AcDbLine
 10
802.5
 20
612.2
 30
0.0
 11
805.0
 21
597.2
 31
0.0
  0
LINE
  5
1A2
100
AcDbEntity
  8
寸法
  6
CONTINUOUS
 62
     3
100
AcDbLine
 10
805.0
 20
597.2
 30
0.0
 11
807.5
 21
612.2
 31
0.0
  0
LINE
  5
1A3
100
AcDbEntity
  8
寸法
  6
CONTINUOUS
 62
     3
100
AcDbLine
 10
807.5
 20
1054.3
 30
0.0
 11
805.0
 21
1069.3
 31
0.0
  0
LINE
  5
1A4
100
AcDbEntity
  8
寸法
  6
CONTINUOUS
 62
     3
100
AcDbLine
 10
805.0
 20
1069.3
 30
0.0
 11
802.5
 21
1054.3
 31
0.0
  0
TEXT
  5
1A5
100
AcDbEntity
  8
寸法
  6
CONTINUOUS
 62
     2
100
AcDbText
 10
803.25
 20
812.25
 30
0.0
 40
20.0
  1
472
 50
90.0
 41
0.84
  7
EXCADSTD
 72
     1
 11
803.25
 21
833.25
 31
0.0
100
AcDbText
  0
LINE
  5
1A6
100
AcDbEntity
  8
寸法
  6
CONTINUOUS
 62
     3
100
AcDbLine
 10
785.7
 20
597.2
 30
0.0
 11
810.0
 21
597.2
 31
0.0
  0
LINE
  5
1A7
100
AcDbEntity
  8
寸法
  6
CONTINUOUS
 62
     3
100
AcDbLine
 10
785.7
 20
1069.3
 30
0.0
 11
810.0
 21
1069.3
 31
0.0
  0
ENDBLK
  5
1A8
100
AcDbEntity
  8
0
100
AcDbBlockEnd
  0
ENDSEC
  0
SECTION
  2
ENTITIES
  0
LINE
  5
86
100
AcDbEntity
  8
枠・表
  6
CONTINUOUS
 62
     7
100
AcDbLine
 10
90.0
 20
67.5
 30
0.0
 11
1000.0
 21
67.5
 31
0.0
  0
LINE
  5
87
100
AcDbEntity
  8
枠・表
  6
CONTINUOUS
 62
     7
100
AcDbLine
 10
1000.0
 20
67.5
 30
0.0
 11
1000.0
 21
1442.5
 31
0.0
  0
LINE
  5
88
100
AcDbEntity
  8
枠・表
  6
CONTINUOUS
 62
     7
100
AcDbLine
 10
90.0
 20
67.5
 30
0.0
 11
90.0
 21
1442.5
 31
0.0
  0
LINE
  5
89
100
AcDbEntity
  8
枠・表
  6
CONTINUOUS
 62
     7
100
AcDbLine
 10
90.0
 20
1442.5
 30
0.0
 11
1000.0
 21
1442.5
 31
0.0
  0
LINE
  5
8A
100
AcDbEntity
  8
枠・表
  6
CONTINUOUS
 62
     7
100
AcDbLine
 10
90.0
 20
177.5
 30
0.0
 11
1000.0
 21
177.5
 31
0.0
  0
LINE
  5
8B
100
AcDbEntity
  8
枠・表
  6
CONTINUOUS
 62
     6
100
AcDbLine
 10
1000.0
 20
117.5
 30
0.0
 11
375.0
 21
117.5
 31
0.0
  0
LINE
  5
8C
100
AcDbEntity
  8
枠・表
  6
CONTINUOUS
 62
     6
100
AcDbLine
 10
930.0
 20
177.5
 30
0.0
 11
930.0
 21
117.5
 31
0.0
  0
LINE
  5
8D
100
AcDbEntity
  8
枠・表
  6
CONTINUOUS
 62
     6
100
AcDbLine
 10
905.0
 20
177.5
 30
0.0
 11
905.0
 21
117.5
 31
0.0
  0
LINE
  5
8E
100
AcDbEntity
  8
枠・表
  6
CONTINUOUS
 62
     6
100
AcDbLine
 10
720.0
 20
177.5
 30
0.0
 11
720.0
 21
67.5
 31
0.0
  0
LINE
  5
8F
100
AcDbEntity
  8
枠・表
  6
CONTINUOUS
 62
     6
100
AcDbLine
 10
695.0
 20
177.5
 30
0.0
 11
695.0
 21
67.5
 31
0.0
  0
LINE
  5
90
100
AcDbEntity
  8
枠・表
  6
CONTINUOUS
 62
     6
100
AcDbLine
 10
400.0
 20
177.5
 30
0.0
 11
400.0
 21
117.5
 31
0.0
  0
LINE
  5
91
100
AcDbEntity
  8
枠・表
  6
CONTINUOUS
 62
     6
100
AcDbLine
 10
375.0
 20
177.5
 30
0.0
 11
375.0
 21
67.5
 31
0.0
  0
LINE
  5
92
100
AcDbEntity
  8
枠・表
  6
CONTINUOUS
 62
     6
100
AcDbLine
 10
310.0
 20
177.5
 30
0.0
 11
310.0
 21
67.5
 31
0.0
  0
LINE
  5
93
100
AcDbEntity
  8
枠・表
  6
CONTINUOUS
 62
     6
100
AcDbLine
 10
245.0
 20
177.5
 30
0.0
 11
245.0
 21
67.5
 31
0.0
  0
LINE
  5
94
100
AcDbEntity
  8
枠・表
  6
CONTINUOUS
 62
     6
100
AcDbLine
 10
167.5
 20
177.5
 30
0.0
 11
167.5
 21
67.5
 31
0.0
  0
LINE
  5
95
100
AcDbEntity
  8
枠・表
  6
CONTINUOUS
 62
     6
100
AcDbLine
 10
90.0
 20
152.5
 30
0.0
 11
375.0
 21
152.5
 31
0.0
  0
LINE
  5
96
100
AcDbEntity
  8
枠・表
  6
CONTINUOUS
 62
     6
100
AcDbLine
 10
946.326904
 20
129.001465
 30
0.0
 11
984.996948
 21
168.349915
 31
0.0
  0
CIRCLE
  5
97
100
AcDbEntity
  8
枠・表
  6
CONTINUOUS
 62
     6
100
AcDbCircle
 10
115.0
 20
80.0
 30
0.0
 40
0.5
  0
CIRCLE
  5
98
100
AcDbEntity
  8
枠・表
  6
CONTINUOUS
 62
     6
100
AcDbCircle
 10
140.0
 20
80.0
 30
0.0
 40
0.5
  0
CIRCLE
  5
99
100
AcDbEntity
  8
枠・表
  6
CONTINUOUS
 62
     6
100
AcDbCircle
 10
192.5
 20
80.0
 30
0.0
 40
0.5
  0
CIRCLE
  5
9A
100
AcDbEntity
  8
枠・表
  6
CONTINUOUS
 62
     6
100
AcDbCircle
 10
217.5
 20
80.0
 30
0.0
 40
0.5
  0
TEXT
  5
9B
100
AcDbEntity
  8
枠・表
  6
CONTINUOUS
 62
     2
100
AcDbText
 10
945.268555
 20
151.361389
 30
0.0
 40
15.0
  1
１
 41
0.826
  7
EXCADSTD
 72
     5
 11
957.068555
 21
151.361389
 31
0.0
100
AcDbText
  0
TEXT
  5
9C
100
AcDbEntity
  8
枠・表
  6
CONTINUOUS
 62
     2
100
AcDbText
 10
101.25
 20
154.375
 30
0.0
 40
21.25
  1
製図
 41
1.087059
  7
EXCADSTD
 72
     5
 11
151.663
 21
154.375
 31
0.0
100
AcDbText
  0
TEXT
  5
9D
100
AcDbEntity
  8
枠・表
  6
CONTINUOUS
 62
     2
100
AcDbText
 10
178.75
 20
154.375
 30
0.0
 40
21.25
  1
写図
 41
1.087059
  7
EXCADSTD
 72
     5
 11
229.163
 21
154.375
 31
0.0
100
AcDbText
  0
TEXT
  5
9E
100
AcDbEntity
  8
枠・表
  6
CONTINUOUS
 62
     2
100
AcDbText
 10
253.75
 20
154.375
 30
0.0
 40
21.25
  1
検図
 41
0.938824
  7
EXCADSTD
 72
     5
 11
297.2885
 21
154.375
 31
0.0
100
AcDbText
  0
TEXT
  5
9F
100
AcDbEntity
  8
枠・表
  6
CONTINUOUS
 62
     2
100
AcDbText
 10
318.75
 20
154.375
 30
0.0
 40
21.25
  1
承認
 41
0.938824
  7
EXCADSTD
 72
     5
 11
362.2885
 21
154.375
 31
0.0
100
AcDbText
  0
TEXT
  5
A0
100
AcDbEntity
  8
枠・表
  6
CONTINUOUS
 62
     2
100
AcDbText
 10
377.875
 20
149.375
 30
0.0
 40
21.25
  1
品
 41
0.84
  7
EXCADSTD
 72
     5
 11
394.875
 21
149.375
 31
0.0
100
AcDbText
  0
TEXT
  5
A1
100
AcDbEntity
  8
枠・表
  6
CONTINUOUS
 62
     2
100
AcDbText
 10
377.875
 20
124.375
 30
0.0
 40
21.25
  1
名
 41
0.84
  7
EXCADSTD
 72
     5
 11
394.875
 21
124.375
 31
0.0
100
AcDbText
  0
TEXT
  5
A2
100
AcDbEntity
  8
枠・表
  6
CONTINUOUS
 62
     2
100
AcDbText
 10
697.875
 20
149.375
 30
0.0
 40
21.25
  1
品
 41
0.84
  7
EXCADSTD
 72
     5
 11
714.875
 21
149.375
 31
0.0
100
AcDbText
  0
TEXT
  5
A3
100
AcDbEntity
  8
枠・表
  6
CONTINUOUS
 62
     2
100
AcDbText
 10
697.875
 20
124.375
 30
0.0
 40
21.25
  1
番
 41
0.84
  7
EXCADSTD
 72
     5
 11
714.875
 21
124.375
 31
0.0
100
AcDbText
  0
TEXT
  5
A4
100
AcDbEntity
  8
枠・表
  6
CONTINUOUS
 62
     2
100
AcDbText
 10
908.375
 20
149.375
 30
0.0
 40
21.25
  1
尺
 41
0.84
  7
EXCADSTD
 72
     5
 11
925.375
 21
149.375
 31
0.0
100
AcDbText
  0
TEXT
  5
A5
100
AcDbEntity
  8
枠・表
  6
CONTINUOUS
 62
     2
100
AcDbText
 10
908.375
 20
124.375
 30
0.0
 40
21.25
  1
度
 41
0.84
  7
EXCADSTD
 72
     5
 11
925.375
 21
124.375
 31
0.0
100
AcDbText
  0
TEXT
  5
A6
100
AcDbEntity
  8
枠・表
  6
CONTINUOUS
 62
     2
100
AcDbText
 10
697.875
 20
92.875
 30
0.0
 40
21.25
  1
図
 41
0.84
  7
EXCADSTD
 72
     5
 11
714.875
 21
92.875
 31
0.0
100
AcDbText
  0
TEXT
  5
A7
100
AcDbEntity
  8
枠・表
  6
CONTINUOUS
 62
     2
100
AcDbText
 10
697.875
 20
71.375
 30
0.0
 40
21.25
  1
番
 41
0.84
  7
EXCADSTD
 72
     5
 11
714.875
 21
71.375
 31
0.0
100
AcDbText
  0
TEXT
  5
A8
100
AcDbEntity
  8
枠・表
  6
CONTINUOUS
 62
     2
100
AcDbText
 10
101.25
 20
110.0
 30
0.0
 40
25.0
  1
中村
 41
0.924
  7
EXCADSTD
 72
     5
 11
151.663
 21
110.0
 31
0.0
100
AcDbText
  0
LINE
  5
A9
100
AcDbEntity
  8
枠・表
  6
EXLTYPE2
 62
     6
100
AcDbLine
 10
90.0
 20
92.5
 30
0.0
 11
245.0
 21
92.5
 31
0.0
  0
TEXT
  5
AA
100
AcDbEntity
  8
枠・表
  6
CONTINUOUS
 62
     7
100
AcDbText
 10
385.0
 20
77.5
 30
0.0
 40
30.0
  1
ジャニス工業株式会社
 41
0.84
  7
EXCADSTD
 72
     5
 11
685.0
 21
77.5
 31
0.0
100
AcDbText
  0
TEXT
  5
AB
100
AcDbEntity
  8
枠・表
  6
CONTINUOUS
 62
     2
100
AcDbText
 10
965.639648
 20
129.174423
 30
0.0
 40
15.0
  1
５
 41
0.826
  7
EXCADSTD
 72
     5
 11
977.439649
 21
129.174423
 31
0.0
100
AcDbText
  0
TEXT
  5
AC
100
AcDbEntity
  8
枠・表
  6
CONTINUOUS
 62
     2
100
AcDbText
 10
92.25
 20
70.0
 30
0.0
 40
20.0
  1
14
 41
0.5
  7
EXCADSTD
 72
     5
 11
108.25
 21
70.0
 31
0.0
100
AcDbText
  0
TEXT
  5
AD
100
AcDbEntity
  8
枠・表
  6
CONTINUOUS
 62
     2
100
AcDbText
 10
405.0
 20
150.0
 30
0.0
 40
25.0
  1
300㎜幅
 41
0.72072
  7
EXCADSTD
 72
     5
 11
501.25
 21
150.0
 31
0.0
100
AcDbText
  0
TEXT
  5
AE
100
AcDbEntity
  8
枠・表
  6
CONTINUOUS
 62
     2
100
AcDbText
 10
510.0
 20
120.0
 30
0.0
 40
25.0
  1
化粧鏡
 41
0.84
  7
EXCADSTD
 72
     5
 11
585.0
 21
120.0
 31
0.0
100
AcDbText
  0
TEXT
  5
AF
100
AcDbEntity
  8
枠・表
  6
CONTINUOUS
 62
     2
100
AcDbText
 10
780.0
 20
135.0
 30
0.0
 40
25.0
  1
ＮＭ９
 41
0.728
  7
EXCADSTD
 72
     5
 11
845.0
 21
135.0
 31
0.0
100
AcDbText
  0
TEXT
  5
B0
100
AcDbEntity
  8
枠・表
  6
CONTINUOUS
 62
     2
100
AcDbText
 10
797.5
 20
80.0
 30
0.0
 40
25.0
  1
６４１７００
 41
0.7
  7
EXCADSTD
 72
     5
 11
922.5
 21
80.0
 31
0.0
100
AcDbText
  0
TEXT
  5
B1
100
AcDbEntity
  8
枠・表
  6
CONTINUOUS
 62
     2
100
AcDbText
 10
121.875
 20
70.0
 30
0.0
 40
20.0
  1
6
 41
0.5625
  7
EXCADSTD
 72
     5
 11
129.1875
 21
70.0
 31
0.0
100
AcDbText
  0
TEXT
  5
B2
100
AcDbEntity
  8
枠・表
  6
CONTINUOUS
 62
     2
100
AcDbText
 10
148.375
 20
70.0
 30
0.0
 40
20.0
  1
9
 41
0.5625
  7
EXCADSTD
 72
     5
 11
155.6875
 21
70.0
 31
0.0
100
AcDbText
  0
LINE
  5
B3
100
AcDbEntity
  8
本体
  6
EXLTYPE2
 62
     6
100
AcDbLine
 10
371.0
 20
728.5
 30
0.0
 11
471.0
 21
728.5
 31
0.0
  0
LINE
  5
B4
100
AcDbEntity
  8
本体
  6
EXLTYPE2
 62
     6
100
AcDbLine
 10
371.0
 20
628.5
 30
0.0
 11
471.0
 21
628.5
 31
0.0
  0
LINE
  5
B5
100
AcDbEntity
  8
本体
  6
EXLTYPE2
 62
     6
100
AcDbLine
 10
371.0
 20
928.5
 30
0.0
 11
471.0
 21
928.5
 31
0.0
  0
LINE
  5
B6
100
AcDbEntity
  8
本体
  6
EXLTYPE2
 62
     6
100
AcDbLine
 10
371.0
 20
1028.5
 30
0.0
 11
471.0
 21
1028.5
 31
0.0
  0
LINE
  5
B7
100
AcDbEntity
  8
本体
  6
EXLTYPE2
 62
     6
100
AcDbLine
 10
371.0
 20
728.5
 30
0.0
 11
371.0
 21
628.5
 31
0.0
  0
LINE
  5
B8
100
AcDbEntity
  8
本体
  6
EXLTYPE2
 62
     6
100
AcDbLine
 10
371.0
 20
1028.5
 30
0.0
 11
371.0
 21
928.5
 31
0.0
  0
LINE
  5
B9
100
AcDbEntity
  8
本体
  6
EXLTYPE2
 62
     6
100
AcDbLine
 10
471.0
 20
728.5
 30
0.0
 11
471.0
 21
628.5
 31
0.0
  0
LINE
  5
BA
100
AcDbEntity
  8
本体
  6
EXLTYPE2
 62
     6
100
AcDbLine
 10
471.0
 20
1028.5
 30
0.0
 11
471.0
 21
928.5
 31
0.0
  0
LINE
  5
BB
100
AcDbEntity
  8
本体
  6
EXLTYPE3
 62
     6
100
AcDbLine
 10
421.0
 20
1081.5
 30
0.0
 11
421.0
 21
575.5
 31
0.0
  0
LINE
  5
BC
100
AcDbEntity
  8
本体
  6
CONTINUOUS
 62
     2
100
AcDbLine
 10
271.0
 20
1078.5
 30
0.0
 11
271.0
 21
578.5
 31
0.0
  0
LINE
  5
BD
100
AcDbEntity
  8
本体
  6
CONTINUOUS
 62
     2
100
AcDbLine
 10
571.0
 20
1078.5
 30
0.0
 11
571.0
 21
578.5
 31
0.0
  0
LINE
  5
BE
100
AcDbEntity
  8
本体
  6
CONTINUOUS
 62
     2
100
AcDbLine
 10
570.0
 20
1079.8
 30
0.0
 11
272.0
 21
1079.8
 31
0.0
  0
LINE
  5
BF
100
AcDbEntity
  8
本体
  6
CONTINUOUS
 62
     2
100
AcDbLine
 10
273.0
 20
1065.8
 30
0.0
 11
272.0
 21
1066.8
 31
0.0
  0
LINE
  5
C0
100
AcDbEntity
  8
本体
  6
CONTINUOUS
 62
     2
100
AcDbLine
 10
569.0
 20
1065.8
 30
0.0
 11
570.0
 21
1066.8
 31
0.0
  0
LINE
  5
C1
100
AcDbEntity
  8
本体
  6
CONTINUOUS
 62
     2
100
AcDbLine
 10
569.0
 20
1065.8
 30
0.0
 11
273.0
 21
1065.8
 31
0.0
  0
LINE
  5
C2
100
AcDbEntity
  8
本体
  6
CONTINUOUS
 62
     6
100
AcDbLine
 10
536.5
 20
1054.3
 30
0.0
 11
545.5
 21
1054.3
 31
0.0
  0
LINE
  5
C3
100
AcDbEntity
  8
本体
  6
CONTINUOUS
 62
     6
100
AcDbLine
 10
541.0
 20
1049.8
 30
0.0
 11
541.0
 21
1073.8
 31
0.0
  0
LINE
  5
C4
100
AcDbEntity
  8
本体
  6
CONTINUOUS
 62
     6
100
AcDbLine
 10
536.5
 20
1069.3
 30
0.0
 11
545.5
 21
1069.3
 31
0.0
  0
ARC
  5
C5
100
AcDbEntity
  8
本体
  6
EXLTYPE2
 62
     6
100
AcDbCircle
 10
541.0
 20
1069.3
 30
0.0
 40
2.5
100
AcDbArc
 50
0.0
 51
180.0
  0
ARC
  5
C6
100
AcDbEntity
  8
本体
  6
EXLTYPE2
 62
     6
100
AcDbCircle
 10
541.0
 20
1069.3
 30
0.0
 40
3.5
100
AcDbArc
 50
0.0
 51
180.0
  0
LINE
  5
C7
100
AcDbEntity
  8
本体
  6
CONTINUOUS
 62
     6
100
AcDbLine
 10
305.5
 20
1054.3
 30
0.0
 11
296.5
 21
1054.3
 31
0.0
  0
LINE
  5
C8
100
AcDbEntity
  8
本体
  6
CONTINUOUS
 62
     6
100
AcDbLine
 10
301.0
 20
1049.8
 30
0.0
 11
301.0
 21
1073.8
 31
0.0
  0
LINE
  5
C9
100
AcDbEntity
  8
本体
  6
CONTINUOUS
 62
     6
100
AcDbLine
 10
305.5
 20
1069.3
 30
0.0
 11
296.5
 21
1069.3
 31
0.0
  0
ARC
  5
CA
100
AcDbEntity
  8
本体
  6
EXLTYPE2
 62
     6
100
AcDbCircle
 10
301.0
 20
1069.3
 30
0.0
 40
2.5
100
AcDbArc
 50
0.0
 51
180.0
  0
ARC
  5
CB
100
AcDbEntity
  8
本体
  6
EXLTYPE2
 62
     6
100
AcDbCircle
 10
301.0
 20
1069.3
 30
0.0
 40
3.5
100
AcDbArc
 50
0.0
 51
180.0
  0
LINE
  5
CC
100
AcDbEntity
  8
本体
  6
CONTINUOUS
 62
     2
100
AcDbLine
 10
570.0
 20
577.2
 30
0.0
 11
272.0
 21
577.2
 31
0.0
  0
LINE
  5
CD
100
AcDbEntity
  8
本体
  6
EXLTYPE3
 62
     6
100
AcDbLine
 10
421.0
 20
611.2
 30
0.0
 11
421.0
 21
575.2
 31
0.0
  0
LINE
  5
CE
100
AcDbEntity
  8
本体
  6
CONTINUOUS
 62
     2
100
AcDbLine
 10
273.0
 20
591.2
 30
0.0
 11
272.0
 21
590.2
 31
0.0
  0
LINE
  5
CF
100
AcDbEntity
  8
本体
  6
CONTINUOUS
 62
     2
100
AcDbLine
 10
569.0
 20
591.2
 30
0.0
 11
570.0
 21
590.2
 31
0.0
  0
LINE
  5
D0
100
AcDbEntity
  8
本体
  6
CONTINUOUS
 62
     2
100
AcDbLine
 10
569.0
 20
591.2
 30
0.0
 11
273.0
 21
591.2
 31
0.0
  0
LINE
  5
D1
100
AcDbEntity
  8
本体
  6
CONTINUOUS
 62
     6
100
AcDbLine
 10
541.0
 20
607.2
 30
0.0
 11
541.0
 21
583.2
 31
0.0
  0
ARC
  5
D2
100
AcDbEntity
  8
本体
  6
EXLTYPE2
 62
     6
100
AcDbCircle
 10
541.0
 20
587.7
 30
0.0
 40
3.5
100
AcDbArc
 50
180.0
 51
0.0
  0
LINE
  5
D3
100
AcDbEntity
  8
本体
  6
CONTINUOUS
 62
     6
100
AcDbLine
 10
536.5
 20
597.2
 30
0.0
 11
545.5
 21
597.2
 31
0.0
  0
LINE
  5
D4
100
AcDbEntity
  8
本体
  6
CONTINUOUS
 62
     6
100
AcDbLine
 10
301.0
 20
607.2
 30
0.0
 11
301.0
 21
583.2
 31
0.0
  0
LINE
  5
D5
100
AcDbEntity
  8
本体
  6
EXLTYPE2
 62
     6
100
AcDbLine
 10
315.0
 20
591.2
 30
0.0
 11
315.0
 21
578.5
 31
0.0
  0
LINE
  5
D6
100
AcDbEntity
  8
本体
  6
EXLTYPE2
 62
     6
100
AcDbLine
 10
287.0
 20
591.2
 30
0.0
 11
287.0
 21
578.5
 31
0.0
  0
ARC
  5
D7
100
AcDbEntity
  8
本体
  6
EXLTYPE2
 62
     6
100
AcDbCircle
 10
301.0
 20
587.7
 30
0.0
 40
3.5
100
AcDbArc
 50
180.0
 51
0.0
  0
LINE
  5
D8
100
AcDbEntity
  8
本体
  6
CONTINUOUS
 62
     6
100
AcDbLine
 10
305.5
 20
597.2
 30
0.0
 11
296.5
 21
597.2
 31
0.0
  0
LINE
  5
D9
100
AcDbEntity
  8
本体
  6
EXLTYPE2
 62
     6
100
AcDbLine
 10
571.0
 20
1078.5
 30
0.0
 11
271.0
 21
1078.5
 31
0.0
  0
LINE
  5
DA
100
AcDbEntity
  8
本体
  6
EXLTYPE2
 62
     6
100
AcDbLine
 10
571.0
 20
578.5
 30
0.0
 11
271.0
 21
578.5
 31
0.0
  0
LINE
  5
DB
100
AcDbEntity
  8
本体
  6
CONTINUOUS
 62
     2
100
AcDbLine
 10
570.0
 20
590.2
 30
0.0
 11
570.0
 21
577.2
 31
0.0
  0
LINE
  5
DC
100
AcDbEntity
  8
本体
  6
CONTINUOUS
 62
     2
100
AcDbLine
 10
272.0
 20
590.2
 30
0.0
 11
272.0
 21
577.2
 31
0.0
  0
LINE
  5
DD
100
AcDbEntity
  8
本体
  6
CONTINUOUS
 62
     2
100
AcDbLine
 10
272.0
 20
1066.8
 30
0.0
 11
272.0
 21
1079.8
 31
0.0
  0
LINE
  5
DE
100
AcDbEntity
  8
本体
  6
CONTINUOUS
 62
     2
100
AcDbLine
 10
570.0
 20
1066.8
 30
0.0
 11
570.0
 21
1079.8
 31
0.0
  0
LINE
  5
DF
100
AcDbEntity
  8
本体
  6
EXLTYPE2
 62
     6
100
AcDbLine
 10
555.0
 20
1047.8
 30
0.0
 11
555.0
 21
1078.5
 31
0.0
  0
LINE
  5
E0
100
AcDbEntity
  8
本体
  6
EXLTYPE2
 62
     6
100
AcDbLine
 10
527.0
 20
1047.8
 30
0.0
 11
527.0
 21
1078.5
 31
0.0
  0
LINE
  5
E1
100
AcDbEntity
  8
本体
  6
EXLTYPE2
 62
     6
100
AcDbLine
 10
538.5
 20
1054.3
 30
0.0
 11
538.5
 21
1069.3
 31
0.0
  0
LINE
  5
E2
100
AcDbEntity
  8
本体
  6
EXLTYPE2
 62
     6
100
AcDbLine
 10
543.5
 20
1054.3
 30
0.0
 11
543.5
 21
1069.3
 31
0.0
  0
LINE
  5
E3
100
AcDbEntity
  8
本体
  6
EXLTYPE2
 62
     6
100
AcDbLine
 10
544.5
 20
1069.3
 30
0.0
 11
544.5
 21
1054.3
 31
0.0
  0
LINE
  5
E4
100
AcDbEntity
  8
本体
  6
EXLTYPE2
 62
     6
100
AcDbLine
 10
537.5
 20
1054.3
 30
0.0
 11
537.5
 21
1069.3
 31
0.0
  0
LINE
  5
E5
100
AcDbEntity
  8
本体
  6
EXLTYPE2
 62
     6
100
AcDbLine
 10
287.0
 20
1047.8
 30
0.0
 11
287.0
 21
1078.5
 31
0.0
  0
LINE
  5
E6
100
AcDbEntity
  8
本体
  6
EXLTYPE2
 62
     6
100
AcDbLine
 10
315.0
 20
1047.8
 30
0.0
 11
315.0
 21
1078.5
 31
0.0
  0
LINE
  5
E7
100
AcDbEntity
  8
本体
  6
EXLTYPE2
 62
     6
100
AcDbLine
 10
304.5
 20
1054.3
 30
0.0
 11
304.5
 21
1069.3
 31
0.0
  0
LINE
  5
E8
100
AcDbEntity
  8
本体
  6
EXLTYPE2
 62
     6
100
AcDbLine
 10
303.5
 20
1054.3
 30
0.0
 11
303.5
 21
1069.3
 31
0.0
  0
LINE
  5
E9
100
AcDbEntity
  8
本体
  6
EXLTYPE2
 62
     6
100
AcDbLine
 10
298.5
 20
1054.3
 30
0.0
 11
298.5
 21
1069.3
 31
0.0
  0
LINE
  5
EA
100
AcDbEntity
  8
本体
  6
EXLTYPE2
 62
     6
100
AcDbLine
 10
297.5
 20
1069.3
 30
0.0
 11
297.5
 21
1054.3
 31
0.0
  0
LINE
  5
EB
100
AcDbEntity
  8
本体
  6
EXLTYPE2
 62
     6
100
AcDbLine
 10
272.0
 20
1047.8
 30
0.0
 11
272.0
 21
1066.8
 31
0.0
  0
LINE
  5
EC
100
AcDbEntity
  8
本体
  6
EXLTYPE2
 62
     6
100
AcDbLine
 10
570.0
 20
1047.8
 30
0.0
 11
272.0
 21
1047.8
 31
0.0
  0
LINE
  5
ED
100
AcDbEntity
  8
本体
  6
EXLTYPE2
 62
     6
100
AcDbLine
 10
570.0
 20
1047.8
 30
0.0
 11
570.0
 21
1066.8
 31
0.0
  0
ARC
  5
EE
100
AcDbEntity
  8
本体
  6
EXLTYPE2
 62
     6
100
AcDbCircle
 10
541.0
 20
1054.3
 30
0.0
 40
3.5
100
AcDbArc
 50
180.0
 51
0.0
  0
ARC
  5
EF
100
AcDbEntity
  8
本体
  6
EXLTYPE2
 62
     6
100
AcDbCircle
 10
541.0
 20
1054.3
 30
0.0
 40
2.5
100
AcDbArc
 50
180.0
 51
0.0
  0
ARC
  5
F0
100
AcDbEntity
  8
本体
  6
EXLTYPE2
 62
     6
100
AcDbCircle
 10
301.0
 20
1054.3
 30
0.0
 40
3.5
100
AcDbArc
 50
180.0
 51
0.0
  0
ARC
  5
F1
100
AcDbEntity
  8
本体
  6
EXLTYPE2
 62
     6
100
AcDbCircle
 10
301.0
 20
1054.3
 30
0.0
 40
2.5
100
AcDbArc
 50
180.0
 51
0.0
  0
LINE
  5
F2
100
AcDbEntity
  8
本体
  6
EXLTYPE2
 62
     6
100
AcDbLine
 10
555.0
 20
609.2
 30
0.0
 11
555.0
 21
578.5
 31
0.0
  0
LINE
  5
F3
100
AcDbEntity
  8
本体
  6
EXLTYPE2
 62
     6
100
AcDbLine
 10
527.0
 20
609.2
 30
0.0
 11
527.0
 21
578.5
 31
0.0
  0
LINE
  5
F4
100
AcDbEntity
  8
本体
  6
EXLTYPE2
 62
     6
100
AcDbLine
 10
544.5
 20
587.7
 30
0.0
 11
544.5
 21
602.7
 31
0.0
  0
LINE
  5
F5
100
AcDbEntity
  8
本体
  6
EXLTYPE2
 62
     6
100
AcDbLine
 10
537.5
 20
602.7
 30
0.0
 11
537.5
 21
587.7
 31
0.0
  0
LINE
  5
F6
100
AcDbEntity
  8
本体
  6
EXLTYPE2
 62
     6
100
AcDbLine
 10
304.5
 20
602.7
 30
0.0
 11
304.5
 21
587.7
 31
0.0
  0
LINE
  5
F7
100
AcDbEntity
  8
本体
  6
EXLTYPE2
 62
     6
100
AcDbLine
 10
297.5
 20
587.7
 30
0.0
 11
297.5
 21
602.7
 31
0.0
  0
LINE
  5
F8
100
AcDbEntity
  8
本体
  6
EXLTYPE2
 62
     6
100
AcDbLine
 10
272.0
 20
609.2
 30
0.0
 11
272.0
 21
590.2
 31
0.0
  0
LINE
  5
F9
100
AcDbEntity
  8
本体
  6
EXLTYPE2
 62
     6
100
AcDbLine
 10
570.0
 20
609.2
 30
0.0
 11
272.0
 21
609.2
 31
0.0
  0
CIRCLE
  5
FA
100
AcDbEntity
  8
本体
  6
EXLTYPE2
 62
     6
100
AcDbCircle
 10
301.0
 20
597.2
 30
0.0
 40
2.5
  0
ARC
  5
FB
100
AcDbEntity
  8
本体
  6
EXLTYPE2
 62
     6
100
AcDbCircle
 10
301.0
 20
602.7
 30
0.0
 40
3.5
100
AcDbArc
 50
0.0
 51
180.0
  0
CIRCLE
  5
FC
100
AcDbEntity
  8
本体
  6
EXLTYPE2
 62
     6
100
AcDbCircle
 10
541.0
 20
597.2
 30
0.0
 40
2.5
  0
ARC
  5
FD
100
AcDbEntity
  8
本体
  6
EXLTYPE2
 62
     6
100
AcDbCircle
 10
541.0
 20
602.7
 30
0.0
 40
3.5
100
AcDbArc
 50
0.0
 51
180.0
  0
LINE
  5
FE
100
AcDbEntity
  8
本体
  6
EXLTYPE2
 62
     6
100
AcDbLine
 10
570.0
 20
609.2
 30
0.0
 11
570.0
 21
590.2
 31
0.0
  0
LINE
  5
FF
100
AcDbEntity
  8
本体
  6
CONTINUOUS
 62
     2
100
AcDbLine
 10
755.0
 20
728.5
 30
0.0
 11
755.0
 21
628.5
 31
0.0
  0
LINE
  5
100
100
AcDbEntity
  8
本体
  6
CONTINUOUS
 62
     2
100
AcDbLine
 10
755.0
 20
1028.5
 30
0.0
 11
755.0
 21
928.5
 31
0.0
  0
LINE
  5
101
100
AcDbEntity
  8
本体
  6
CONTINUOUS
 62
     2
100
AcDbLine
 10
745.0
 20
578.5
 30
0.0
 11
750.0
 21
578.5
 31
0.0
  0
LINE
  5
102
100
AcDbEntity
  8
本体
  6
CONTINUOUS
 62
     2
100
AcDbLine
 10
750.0
 20
628.5
 30
0.0
 11
755.0
 21
628.5
 31
0.0
  0
LINE
  5
103
100
AcDbEntity
  8
本体
  6
CONTINUOUS
 62
     2
100
AcDbLine
 10
750.0
 20
728.5
 30
0.0
 11
755.0
 21
728.5
 31
0.0
  0
LINE
  5
104
100
AcDbEntity
  8
本体
  6
CONTINUOUS
 62
     2
100
AcDbLine
 10
750.0
 20
928.5
 30
0.0
 11
755.0
 21
928.5
 31
0.0
  0
LINE
  5
105
100
AcDbEntity
  8
本体
  6
CONTINUOUS
 62
     2
100
AcDbLine
 10
750.0
 20
1028.5
 30
0.0
 11
755.0
 21
1028.5
 31
0.0
  0
LINE
  5
106
100
AcDbEntity
  8
本体
  6
CONTINUOUS
 62
     2
100
AcDbLine
 10
745.0
 20
1078.5
 30
0.0
 11
750.0
 21
1078.5
 31
0.0
  0
LINE
  5
107
100
AcDbEntity
  8
本体
  6
CONTINUOUS
 62
     2
100
AcDbLine
 10
750.0
 20
1078.5
 30
0.0
 11
750.0
 21
578.5
 31
0.0
  0
LINE
  5
108
100
AcDbEntity
  8
本体
  6
CONTINUOUS
 62
     2
100
AcDbLine
 10
745.0
 20
1078.5
 30
0.0
 11
745.0
 21
578.5
 31
0.0
  0
LINE
  5
109
100
AcDbEntity
  8
本体
  6
CONTINUOUS
 62
     2
100
AcDbLine
 10
755.3
 20
577.2
 30
0.0
 11
743.7
 21
577.2
 31
0.0
  0
LINE
  5
10A
100
AcDbEntity
  8
本体
  6
CONTINUOUS
 62
     2
100
AcDbLine
 10
745.0
 20
578.5
 30
0.0
 11
754.0
 21
578.5
 31
0.0
  0
LINE
  5
10B
100
AcDbEntity
  8
本体
  6
CONTINUOUS
 62
     2
100
AcDbLine
 10
743.7
 20
591.2
 30
0.0
 11
745.0
 21
591.2
 31
0.0
  0
LINE
  5
10C
100
AcDbEntity
  8
本体
  6
CONTINUOUS
 62
     2
100
AcDbLine
 10
755.3
 20
609.2
 30
0.0
 11
755.3
 21
577.2
 31
0.0
  0
LINE
  5
10D
100
AcDbEntity
  8
本体
  6
CONTINUOUS
 62
     2
100
AcDbLine
 10
754.0
 20
578.5
 30
0.0
 11
754.0
 21
609.2
 31
0.0
  0
LINE
  5
10E
100
AcDbEntity
  8
本体
  6
CONTINUOUS
 62
     2
100
AcDbLine
 10
743.7
 20
591.2
 30
0.0
 11
743.7
 21
577.2
 31
0.0
  0
LINE
  5
10F
100
AcDbEntity
  8
本体
  6
CONTINUOUS
 62
     2
100
AcDbLine
 10
745.0
 20
591.2
 30
0.0
 11
745.0
 21
578.5
 31
0.0
  0
LINE
  5
110
100
AcDbEntity
  8
本体
  6
CONTINUOUS
 62
     2
100
AcDbLine
 10
750.0
 20
609.2
 30
0.0
 11
755.3
 21
609.2
 31
0.0
  0
LINE
  5
111
100
AcDbEntity
  8
本体
  6
CONTINUOUS
 62
     2
100
AcDbLine
 10
750.0
 20
578.5
 30
0.0
 11
750.0
 21
609.2
 31
0.0
  0
LINE
  5
112
100
AcDbEntity
  8
本体
  6
CONTINUOUS
 62
     2
100
AcDbLine
 10
754.0
 20
599.7
 30
0.0
 11
755.3
 21
599.7
 31
0.0
  0
LINE
  5
113
100
AcDbEntity
  8
本体
  6
CONTINUOUS
 62
     2
100
AcDbLine
 10
754.0
 20
594.7
 30
0.0
 11
755.3
 21
594.7
 31
0.0
  0
LINE
  5
114
100
AcDbEntity
  8
本体
  6
CONTINUOUS
 62
     2
100
AcDbLine
 10
754.0
 20
606.2
 30
0.0
 11
750.0
 21
606.2
 31
0.0
  0
LINE
  5
115
100
AcDbEntity
  8
本体
  6
CONTINUOUS
 62
     2
100
AcDbLine
 10
750.0
 20
584.2
 30
0.0
 11
754.0
 21
584.2
 31
0.0
  0
LINE
  5
116
100
AcDbEntity
  8
本体
  6
CONTINUOUS
 62
     2
100
AcDbLine
 10
752.2
 20
601.2
 30
0.0
 11
752.5
 21
601.2
 31
0.0
  0
LINE
  5
117
100
AcDbEntity
  8
本体
  6
CONTINUOUS
 62
     2
100
AcDbLine
 10
752.2
 20
593.2
 30
0.0
 11
752.5
 21
593.2
 31
0.0
  0
LINE
  5
118
100
AcDbEntity
  8
本体
  6
CONTINUOUS
 62
     2
100
AcDbLine
 10
752.2
 20
593.2
 30
0.0
 11
752.2
 21
601.2
 31
0.0
  0
LINE
  5
119
100
AcDbEntity
  8
本体
  6
CONTINUOUS
 62
     2
100
AcDbLine
 10
755.0
 20
598.7
 30
0.0
 11
752.5
 21
601.2
 31
0.0
  0
LINE
  5
11A
100
AcDbEntity
  8
本体
  6
CONTINUOUS
 62
     2
100
AcDbLine
 10
755.0
 20
595.7
 30
0.0
 11
752.5
 21
593.2
 31
0.0
  0
LINE
  5
11B
100
AcDbEntity
  8
本体
  6
CONTINUOUS
 62
     2
100
AcDbLine
 10
755.0
 20
595.7
 30
0.0
 11
755.0
 21
598.7
 31
0.0
  0
LINE
  5
11C
100
AcDbEntity
  8
本体
  6
CONTINUOUS
 62
     6
100
AcDbLine
 10
752.5
 20
593.2
 30
0.0
 11
752.5
 21
601.2
 31
0.0
  0
LINE
  5
11D
100
AcDbEntity
  8
本体
  6
CONTINUOUS
 62
     6
100
AcDbLine
 10
760.9
 20
599.2
 30
0.0
 11
761.7
 21
595.2
 31
0.0
  0
LINE
  5
11E
100
AcDbEntity
  8
本体
  6
CONTINUOUS
 62
     6
100
AcDbLine
 10
762.5
 20
599.2
 30
0.0
 11
763.3
 21
595.2
 31
0.0
  0
LINE
  5
11F
100
AcDbEntity
  8
本体
  6
CONTINUOUS
 62
     6
100
AcDbLine
 10
764.1
 20
599.2
 30
0.0
 11
764.9
 21
595.2
 31
0.0
  0
LINE
  5
120
100
AcDbEntity
  8
本体
  6
CONTINUOUS
 62
     6
100
AcDbLine
 10
765.7
 20
599.2
 30
0.0
 11
766.5
 21
595.2
 31
0.0
  0
LINE
  5
121
100
AcDbEntity
  8
本体
  6
CONTINUOUS
 62
     6
100
AcDbLine
 10
767.3
 20
599.2
 30
0.0
 11
768.1
 21
595.2
 31
0.0
  0
LINE
  5
122
100
AcDbEntity
  8
本体
  6
CONTINUOUS
 62
     6
100
AcDbLine
 10
768.9
 20
599.2
 30
0.0
 11
769.7
 21
595.2
 31
0.0
  0
LINE
  5
123
100
AcDbEntity
  8
本体
  6
CONTINUOUS
 62
     6
100
AcDbLine
 10
770.5
 20
599.2
 30
0.0
 11
771.3
 21
595.2
 31
0.0
  0
LINE
  5
124
100
AcDbEntity
  8
本体
  6
CONTINUOUS
 62
     6
100
AcDbLine
 10
772.1
 20
599.2
 30
0.0
 11
772.9
 21
595.2
 31
0.0
  0
LINE
  5
125
100
AcDbEntity
  8
本体
  6
CONTINUOUS
 62
     6
100
AcDbLine
 10
773.7
 20
599.2
 30
0.0
 11
774.5
 21
595.2
 31
0.0
  0
LINE
  5
126
100
AcDbEntity
  8
本体
  6
CONTINUOUS
 62
     6
100
AcDbLine
 10
775.3
 20
599.2
 30
0.0
 11
776.1
 21
595.2
 31
0.0
  0
LINE
  5
127
100
AcDbEntity
  8
本体
  6
CONTINUOUS
 62
     6
100
AcDbLine
 10
776.9
 20
599.2
 30
0.0
 11
777.7
 21
595.2
 31
0.0
  0
ARC
  5
128
100
AcDbEntity
  8
本体
  6
CONTINUOUS
 62
     2
100
AcDbCircle
 10
775.661652
 20
610.7
 30
0.0
 40
15.0
100
AcDbArc
 50
270.0
 51
295.841933
  0
ARC
  5
129
100
AcDbEntity
  8
本体
  6
CONTINUOUS
 62
     2
100
AcDbCircle
 10
775.661652
 20
583.7
 30
0.0
 40
15.0
100
AcDbArc
 50
64.158067
 51
90.0
  0
LINE
  5
12A
100
AcDbEntity
  8
本体
  6
CONTINUOUS
 62
     6
100
AcDbLine
 10
780.238209
 20
598.508954
 30
0.0
 11
780.729613
 21
596.051936
 31
0.0
  0
LINE
  5
12B
100
AcDbEntity
  8
本体
  6
CONTINUOUS
 62
     6
100
AcDbLine
 10
778.554468
 20
598.927659
 30
0.0
 11
779.217331
 21
595.613345
 31
0.0
  0
LINE
  5
12C
100
AcDbEntity
  8
本体
  6
CONTINUOUS
 62
     2
100
AcDbLine
 10
755.0
 20
598.7
 30
0.0
 11
775.661652
 21
598.7
 31
0.0
  0
LINE
  5
12D
100
AcDbEntity
  8
本体
  6
CONTINUOUS
 62
     2
100
AcDbLine
 10
755.0
 20
595.7
 30
0.0
 11
775.661652
 21
595.7
 31
0.0
  0
LINE
  5
12E
100
AcDbEntity
  8
本体
  6
CONTINUOUS
 62
     6
100
AcDbLine
 10
759.3
 20
599.2
 30
0.0
 11
760.1
 21
595.2
 31
0.0
  0
LINE
  5
12F
100
AcDbEntity
  8
本体
  6
CONTINUOUS
 62
     6
100
AcDbLine
 10
757.7
 20
599.2
 30
0.0
 11
758.5
 21
595.2
 31
0.0
  0
LINE
  5
130
100
AcDbEntity
  8
本体
  6
CONTINUOUS
 62
     6
100
AcDbLine
 10
756.1
 20
599.2
 30
0.0
 11
756.9
 21
595.2
 31
0.0
  0
LINE
  5
131
100
AcDbEntity
  8
本体
  6
EXLTYPE3
 62
     6
100
AcDbLine
 10
785.2
 20
597.2
 30
0.0
 11
749.2
 21
597.2
 31
0.0
  0
LINE
  5
132
100
AcDbEntity
  8
本体
  6
CONTINUOUS
 62
     2
100
AcDbLine
 10
755.3
 20
1079.8
 30
0.0
 11
743.7
 21
1079.8
 31
0.0
  0
LINE
  5
133
100
AcDbEntity
  8
本体
  6
CONTINUOUS
 62
     2
100
AcDbLine
 10
745.0
 20
1078.5
 30
0.0
 11
754.0
 21
1078.5
 31
0.0
  0
LINE
  5
134
100
AcDbEntity
  8
本体
  6
CONTINUOUS
 62
     2
100
AcDbLine
 10
743.7
 20
1065.8
 30
0.0
 11
745.0
 21
1065.8
 31
0.0
  0
LINE
  5
135
100
AcDbEntity
  8
本体
  6
CONTINUOUS
 62
     2
100
AcDbLine
 10
755.3
 20
1047.8
 30
0.0
 11
755.3
 21
1079.8
 31
0.0
  0
LINE
  5
136
100
AcDbEntity
  8
本体
  6
CONTINUOUS
 62
     2
100
AcDbLine
 10
754.0
 20
1078.5
 30
0.0
 11
754.0
 21
1047.8
 31
0.0
  0
LINE
  5
137
100
AcDbEntity
  8
本体
  6
CONTINUOUS
 62
     2
100
AcDbLine
 10
743.7
 20
1065.8
 30
0.0
 11
743.7
 21
1079.8
 31
0.0
  0
LINE
  5
138
100
AcDbEntity
  8
本体
  6
CONTINUOUS
 62
     2
100
AcDbLine
 10
745.0
 20
1065.8
 30
0.0
 11
745.0
 21
1078.5
 31
0.0
  0
LINE
  5
139
100
AcDbEntity
  8
本体
  6
CONTINUOUS
 62
     2
100
AcDbLine
 10
750.0
 20
1047.8
 30
0.0
 11
755.3
 21
1047.8
 31
0.0
  0
LINE
  5
13A
100
AcDbEntity
  8
本体
  6
CONTINUOUS
 62
     2
100
AcDbLine
 10
750.0
 20
1078.5
 30
0.0
 11
750.0
 21
1047.8
 31
0.0
  0
LINE
  5
13B
100
AcDbEntity
  8
本体
  6
CONTINUOUS
 62
     2
100
AcDbLine
 10
754.0
 20
1051.8
 30
0.0
 11
755.3
 21
1051.8
 31
0.0
  0
LINE
  5
13C
100
AcDbEntity
  8
本体
  6
CONTINUOUS
 62
     2
100
AcDbLine
 10
754.0
 20
1071.8
 30
0.0
 11
755.3
 21
1071.8
 31
0.0
  0
LINE
  5
13D
100
AcDbEntity
  8
本体
  6
CONTINUOUS
 62
     2
100
AcDbLine
 10
754.0
 20
1050.8
 30
0.0
 11
750.0
 21
1050.8
 31
0.0
  0
LINE
  5
13E
100
AcDbEntity
  8
本体
  6
CONTINUOUS
 62
     2
100
AcDbLine
 10
750.0
 20
1072.8
 30
0.0
 11
754.0
 21
1072.8
 31
0.0
  0
LINE
  5
13F
100
AcDbEntity
  8
本体
  6
CONTINUOUS
 62
     2
100
AcDbLine
 10
752.2
 20
1073.3
 30
0.0
 11
752.5
 21
1073.3
 31
0.0
  0
LINE
  5
140
100
AcDbEntity
  8
本体
  6
CONTINUOUS
 62
     2
100
AcDbLine
 10
752.2
 20
1065.3
 30
0.0
 11
752.5
 21
1065.3
 31
0.0
  0
LINE
  5
141
100
AcDbEntity
  8
本体
  6
CONTINUOUS
 62
     2
100
AcDbLine
 10
752.2
 20
1065.3
 30
0.0
 11
752.2
 21
1073.3
 31
0.0
  0
LINE
  5
142
100
AcDbEntity
  8
本体
  6
CONTINUOUS
 62
     2
100
AcDbLine
 10
755.0
 20
1070.8
 30
0.0
 11
752.5
 21
1073.3
 31
0.0
  0
LINE
  5
143
100
AcDbEntity
  8
本体
  6
CONTINUOUS
 62
     2
100
AcDbLine
 10
755.0
 20
1067.8
 30
0.0
 11
752.5
 21
1065.3
 31
0.0
  0
LINE
  5
144
100
AcDbEntity
  8
本体
  6
CONTINUOUS
 62
     2
100
AcDbLine
 10
755.0
 20
1067.8
 30
0.0
 11
755.0
 21
1070.8
 31
0.0
  0
LINE
  5
145
100
AcDbEntity
  8
本体
  6
CONTINUOUS
 62
     6
100
AcDbLine
 10
752.5
 20
1065.3
 30
0.0
 11
752.5
 21
1073.3
 31
0.0
  0
LINE
  5
146
100
AcDbEntity
  8
本体
  6
CONTINUOUS
 62
     6
100
AcDbLine
 10
760.9
 20
1071.3
 30
0.0
 11
761.7
 21
1067.3
 31
0.0
  0
LINE
  5
147
100
AcDbEntity
  8
本体
  6
CONTINUOUS
 62
     6
100
AcDbLine
 10
762.5
 20
1071.3
 30
0.0
 11
763.3
 21
1067.3
 31
0.0
  0
LINE
  5
148
100
AcDbEntity
  8
本体
  6
CONTINUOUS
 62
     6
100
AcDbLine
 10
764.1
 20
1071.3
 30
0.0
 11
764.9
 21
1067.3
 31
0.0
  0
LINE
  5
149
100
AcDbEntity
  8
本体
  6
CONTINUOUS
 62
     6
100
AcDbLine
 10
765.7
 20
1071.3
 30
0.0
 11
766.5
 21
1067.3
 31
0.0
  0
LINE
  5
14A
100
AcDbEntity
  8
本体
  6
CONTINUOUS
 62
     6
100
AcDbLine
 10
767.3
 20
1071.3
 30
0.0
 11
768.1
 21
1067.3
 31
0.0
  0
LINE
  5
14B
100
AcDbEntity
  8
本体
  6
CONTINUOUS
 62
     6
100
AcDbLine
 10
768.9
 20
1071.3
 30
0.0
 11
769.7
 21
1067.3
 31
0.0
  0
LINE
  5
14C
100
AcDbEntity
  8
本体
  6
CONTINUOUS
 62
     6
100
AcDbLine
 10
770.5
 20
1071.3
 30
0.0
 11
771.3
 21
1067.3
 31
0.0
  0
LINE
  5
14D
100
AcDbEntity
  8
本体
  6
CONTINUOUS
 62
     6
100
AcDbLine
 10
772.1
 20
1071.3
 30
0.0
 11
772.9
 21
1067.3
 31
0.0
  0
LINE
  5
14E
100
AcDbEntity
  8
本体
  6
CONTINUOUS
 62
     6
100
AcDbLine
 10
773.7
 20
1071.3
 30
0.0
 11
774.5
 21
1067.3
 31
0.0
  0
LINE
  5
14F
100
AcDbEntity
  8
本体
  6
CONTINUOUS
 62
     6
100
AcDbLine
 10
775.3
 20
1071.3
 30
0.0
 11
776.1
 21
1067.3
 31
0.0
  0
LINE
  5
150
100
AcDbEntity
  8
本体
  6
CONTINUOUS
 62
     6
100
AcDbLine
 10
776.9
 20
1071.3
 30
0.0
 11
777.7
 21
1067.3
 31
0.0
  0
ARC
  5
151
100
AcDbEntity
  8
本体
  6
CONTINUOUS
 62
     2
100
AcDbCircle
 10
775.661652
 20
1082.8
 30
0.0
 40
15.0
100
AcDbArc
 50
270.0
 51
295.841933
  0
ARC
  5
152
100
AcDbEntity
  8
本体
  6
CONTINUOUS
 62
     2
100
AcDbCircle
 10
775.661652
 20
1055.8
 30
0.0
 40
15.0
100
AcDbArc
 50
64.158067
 51
90.0
  0
LINE
  5
153
100
AcDbEntity
  8
本体
  6
CONTINUOUS
 62
     6
100
AcDbLine
 10
780.238209
 20
1070.608954
 30
0.0
 11
780.729613
 21
1068.151936
 31
0.0
  0
LINE
  5
154
100
AcDbEntity
  8
本体
  6
CONTINUOUS
 62
     6
100
AcDbLine
 10
778.554468
 20
1071.027659
 30
0.0
 11
779.217331
 21
1067.713345
 31
0.0
  0
LINE
  5
155
100
AcDbEntity
  8
本体
  6
CONTINUOUS
 62
     2
100
AcDbLine
 10
755.0
 20
1070.8
 30
0.0
 11
775.661652
 21
1070.8
 31
0.0
  0
LINE
  5
156
100
AcDbEntity
  8
本体
  6
CONTINUOUS
 62
     2
100
AcDbLine
 10
755.0
 20
1067.8
 30
0.0
 11
775.661652
 21
1067.8
 31
0.0
  0
LINE
  5
157
100
AcDbEntity
  8
本体
  6
CONTINUOUS
 62
     6
100
AcDbLine
 10
759.3
 20
1071.3
 30
0.0
 11
760.1
 21
1067.3
 31
0.0
  0
LINE
  5
158
100
AcDbEntity
  8
本体
  6
CONTINUOUS
 62
     6
100
AcDbLine
 10
757.7
 20
1071.3
 30
0.0
 11
758.5
 21
1067.3
 31
0.0
  0
LINE
  5
159
100
AcDbEntity
  8
本体
  6
CONTINUOUS
 62
     6
100
AcDbLine
 10
756.1
 20
1071.3
 30
0.0
 11
756.9
 21
1067.3
 31
0.0
  0
LINE
  5
15A
100
AcDbEntity
  8
本体
  6
EXLTYPE3
 62
     6
100
AcDbLine
 10
785.2
 20
1069.3
 30
0.0
 11
749.2
 21
1069.3
 31
0.0
  0
LINE
  5
15B
100
AcDbEntity
  8
本体
  6
CONTINUOUS
 62
     6
100
AcDbLine
 10
349.064466
 20
777.635534
 30
0.0
 11
335.414466
 21
763.985534
 31
0.0
  0
LINE
  5
15C
100
AcDbEntity
  8
本体
  6
CONTINUOUS
 62
     6
100
AcDbLine
 10
362.1
 20
783.6
 30
0.0
 11
333.0
 21
754.5
 31
0.0
  0
LINE
  5
15D
100
AcDbEntity
  8
本体
  6
CONTINUOUS
 62
     6
100
AcDbLine
 10
360.985534
 20
775.414466
 30
0.0
 11
347.535534
 21
761.964466
 31
0.0
  0
LINE
  5
15E
100
AcDbEntity
  8
本体
  6
CONTINUOUS
 62
     6
100
AcDbLine
 10
493.564466
 20
894.135534
 30
0.0
 11
479.914466
 21
880.485534
 31
0.0
  0
LINE
  5
15F
100
AcDbEntity
  8
本体
  6
CONTINUOUS
 62
     6
100
AcDbLine
 10
506.6
 20
900.1
 30
0.0
 11
477.5
 21
871.0
 31
0.0
  0
LINE
  5
160
100
AcDbEntity
  8
本体
  6
CONTINUOUS
 62
     6
100
AcDbLine
 10
505.485534
 20
891.914466
 30
0.0
 11
492.035534
 21
878.464466
 31
0.0
  0
DIMENSION
  5
16D
100
AcDbEntity
  8
寸法
  6
CONTINUOUS
 62
     3
100
AcDbDimension
  2
*D14
 10
571.0
 20
1146.5
 30
0.0
 11
421.0
 21
1158.25
 31
0.0
 70
   160
  3
STANDARD
100
AcDbAlignedDimension
 13
271.0
 23
1078.5
 33
0.0
 14
571.0
 24
1078.5
 34
0.0
100
AcDbRotatedDimension
1001
ACAD
1000
DSTYLE
1002
{
1070
     6
1000
_EX_NORM
1070
     7
1000
_EX_NORM
1070
    41
1040
15.0
1070
    42
1040
3.5
1070
    44
1040
5.0
1070
    73
1070
     0
1070
    74
1070
     0
1070
    75
1070
     0
1070
    76
1070
     0
1070
    77
1070
     1
1070
    78
1070
     8
1070
   140
1040
20.0
1070
   147
1040
1.75
1070
   173
1070
     1
1070
   176
1070
     3
1070
   177
1070
     3
1070
   178
1070
     2
1070
   271
1070
     2
1070
   279
1070
     2
1070
   280
1070
     0
1070
   287
1070
     5
1070
   340
1005
16C
1002
}
  0
DIMENSION
  5
179
100
AcDbEntity
  8
寸法
  6
CONTINUOUS
 62
     2
100
AcDbDimension
  2
*D15
 10
617.0
 20
1079.8
 30
0.0
 11
605.25
 21
828.5
 31
0.0
 70
   160
  1
503
  3
STANDARD
100
AcDbAlignedDimension
 13
570.0
 23
577.2
 33
0.0
 14
570.0
 24
1079.8
 34
0.0
 50
90.0
100
AcDbRotatedDimension
1001
ACAD
1000
DSTYLE
1002
{
1070
     6
1000
_EX_NORM
1070
     7
1000
_EX_NORM
1070
    41
1040
15.0
1070
    42
1040
3.5
1070
    44
1040
5.0
1070
    73
1070
     0
1070
    74
1070
     0
1070
    75
1070
     0
1070
    76
1070
     0
1070
    77
1070
     1
1070
    78
1070
     8
1070
   140
1040
20.0
1070
   147
1040
1.75
1070
   173
1070
     1
1070
   176
1070
     3
1070
   177
1070
     3
1070
   178
1070
     2
1070
   271
1070
     2
1070
   279
1070
     2
1070
   280
1070
     0
1070
   287
1070
     5
1070
   340
1005
16C
1002
}
  0
DIMENSION
  5
185
100
AcDbEntity
  8
寸法
  6
CONTINUOUS
 62
     2
100
AcDbDimension
  2
*D16
 10
743.7
 20
1116.5
 30
0.0
 11
701.2
 21
1128.25
 31
0.0
 70
   160
  3
STANDARD
100
AcDbAlignedDimension
 13
755.3
 23
1079.8
 33
0.0
 14
743.7
 24
1079.8
 34
0.0
100
AcDbRotatedDimension
1001
ACAD
1000
DSTYLE
1002
{
1070
     6
1000
_EX_NORM
1070
     7
1000
_EX_NORM
1070
    41
1040
15.0
1070
    42
1040
3.5
1070
    44
1040
5.0
1070
    73
1070
     0
1070
    74
1070
     0
1070
    75
1070
     0
1070
    76
1070
     0
1070
    77
1070
     1
1070
    78
1070
     8
1070
   140
1040
20.0
1070
   147
1040
1.75
1070
   173
1070
     1
1070
   176
1070
     3
1070
   177
1070
     3
1070
   178
1070
     2
1070
   271
1070
     2
1070
   279
1070
     2
1070
   280
1070
     2
1070
   287
1070
     5
1070
   340
1005
16C
1002
}
  0
DIMENSION
  5
191
100
AcDbEntity
  8
寸法
  6
CONTINUOUS
 62
     3
100
AcDbDimension
  2
*D17
 10
541.0
 20
1116.5
 30
0.0
 11
421.0
 21
1128.25
 31
0.0
 70
   160
  3
STANDARD
100
AcDbAlignedDimension
 13
301.0
 23
1072.8
 33
0.0
 14
541.0
 24
1072.8
 34
0.0
100
AcDbRotatedDimension
1001
ACAD
1000
DSTYLE
1002
{
1070
     6
1000
_EX_NORM
1070
     7
1000
_EX_NORM
1070
    41
1040
15.0
1070
    42
1040
3.5
1070
    44
1040
5.0
1070
    73
1070
     0
1070
    74
1070
     0
1070
    75
1070
     0
1070
    76
1070
     0
1070
    77
1070
     1
1070
    78
1070
     8
1070
   140
1040
20.0
1070
   147
1040
1.75
1070
   173
1070
     1
1070
   176
1070
     3
1070
   177
1070
     3
1070
   178
1070
     2
1070
   271
1070
     2
1070
   279
1070
     2
1070
   280
1070
     0
1070
   287
1070
     5
1070
   340
1005
16C
1002
}
  0
DIMENSION
  5
19D
100
AcDbEntity
  8
寸法
  6
CONTINUOUS
 62
     3
100
AcDbDimension
  2
*D18
 10
805.0
 20
597.2
 30
0.0
 11
793.25
 21
544.7
 31
0.0
 70
   160
  3
STANDARD
100
AcDbAlignedDimension
 13
755.3
 23
577.2
 33
0.0
 14
782.2
 24
597.2
 34
0.0
 50
90.0
100
AcDbRotatedDimension
1001
ACAD
1000
DSTYLE
1002
{
1070
     6
1000
_EX_NORM
1070
     7
1000
_EX_NORM
1070
    41
1040
15.0
1070
    42
1040
3.5
1070
    44
1040
5.0
1070
    73
1070
     0
1070
    74
1070
     0
1070
    75
1070
     0
1070
    76
1070
     0
1070
    77
1070
     1
1070
    78
1070
     8
1070
   140
1040
20.0
1070
   147
1040
1.75
1070
   173
1070
     1
1070
   176
1070
     3
1070
   177
1070
     3
1070
   178
1070
     2
1070
   271
1070
     2
1070
   279
1070
     2
1070
   280
1070
     1
1070
   287
1070
     5
1070
   340
1005
16C
1002
}
  0
DIMENSION
  5
1A9
100
AcDbEntity
  8
寸法
  6
CONTINUOUS
 62
     3
100
AcDbDimension
  2
*D19
 10
805.0
 20
1069.3
 30
0.0
 11
793.25
 21
833.25
 31
0.0
 70
   160
  1
472
  3
STANDARD
100
AcDbAlignedDimension
 13
782.2
 23
597.2
 33
0.0
 14
782.2
 24
1069.3
 34
0.0
 50
90.0
100
AcDbRotatedDimension
1001
ACAD
1000
DSTYLE
1002
{
1070
     6
1000
_EX_NORM
1070
     7
1000
_EX_NORM
1070
    41
1040
15.0
1070
    42
1040
3.5
1070
    44
1040
5.0
1070
    73
1070
     0
1070
    74
1070
     0
1070
    75
1070
     0
1070
    76
1070
     0
1070
    77
1070
     1
1070
    78
1070
     8
1070
   140
1040
20.0
1070
   147
1040
1.75
1070
   173
1070
     1
1070
   176
1070
     3
1070
   177
1070
     3
1070
   178
1070
     2
1070
   271
1070
     2
1070
   279
1070
     2
1070
   280
1070
     0
1070
   287
1070
     5
1070
   340
1005
16C
1002
}
  0
ENDSEC
  0
SECTION
  2
OBJECTS
  0
DICTIONARY
  5
19
100
AcDbDictionary
  3
ACAD_GROUP
350
1A
  3
ACAD_MLINESTYLE
350
1B
  0
DICTIONARY
  5
1A
102
{ACAD_REACTORS
330
19
102
}
100
AcDbDictionary
  0
DICTIONARY
  5
1B
102
{ACAD_REACTORS
330
19
102
}
100
AcDbDictionary
  3
STANDARD
350
1C
  0
MLINESTYLE
  5
1C
102
{ACAD_REACTORS
330
1B
102
}
100
AcDbMlineStyle
  2
Standard
 70
     0
  3

 62
     0
 51
90.0
 52
90.0
 71
     2
 49
0.5
 62
   256
  6
ByLayer
 49
-0.5
 62
   256
  6
ByLayer
  0
ENDSEC
  0
EOF
