  0
SECTION
  2
HEADER
  9
$ACADVER
  1
AC1014
  9
$ACADMAINTVER
 70
     0
  9
$DWGCODEPAGE
  3
ANSI_932
  9
$INSBASE
 10
0.0
 20
0.0
 30
0.0
  9
$EXTMIN
 10
18.0
 20
13.5
 30
0.0
  9
$EXTMAX
 10
200.0
 20
288.5
 30
0.0
  9
$LIMMIN
 10
0.0
 20
0.0
  9
$LIMMAX
 10
210.0
 20
297.0
  9
$ORTHOMODE
 70
     0
  9
$REGENMODE
 70
     1
  9
$FILLMODE
 70
     1
  9
$QTEXTMODE
 70
     0
  9
$MIRRTEXT
 70
     1
  9
$DRAGMODE
 70
     2
  9
$LTSCALE
 40
1.0
  9
$OSMODE
 70
     0
  9
$ATTMODE
 70
     1
  9
$TEXTSIZE
 40
0.2
  9
$TRACEWID
 40
0.05
  9
$TEXTSTYLE
  7
STANDARD
  9
$CLAYER
  8
洗面器
  9
$CELTYPE
  6
CONTINUOUS
  9
$CECOLOR
 62
   256
  9
$CELTSCALE
 40
1.0
  9
$DELOBJ
 70
     1
  9
$DISPSILH
 70
     0
  9
$DIMSCALE
 40
1.0
  9
$DIMASZ
 40
0.18
  9
$DIMEXO
 40
0.0625
  9
$DIMDLI
 40
0.38
  9
$DIMRND
 40
0.0
  9
$DIMDLE
 40
0.0
  9
$DIMEXE
 40
0.18
  9
$DIMTP
 40
0.0
  9
$DIMTM
 40
0.0
  9
$DIMTXT
 40
0.18
  9
$DIMCEN
 40
0.09
  9
$DIMTSZ
 40
0.0
  9
$DIMTOL
 70
     0
  9
$DIMLIM
 70
     0
  9
$DIMTIH
 70
     1
  9
$DIMTOH
 70
     1
  9
$DIMSE1
 70
     0
  9
$DIMSE2
 70
     0
  9
$DIMTAD
 70
     0
  9
$DIMZIN
 70
     0
  9
$DIMBLK
  1

  9
$DIMASO
 70
     1
  9
$DIMSHO
 70
     1
  9
$DIMPOST
  1

  9
$DIMAPOST
  1

  9
$DIMALT
 70
     0
  9
$DIMALTD
 70
     2
  9
$DIMALTF
 40
25.4
  9
$DIMLFAC
 40
1.0
  9
$DIMTOFL
 70
     0
  9
$DIMTVP
 40
0.0
  9
$DIMTIX
 70
     0
  9
$DIMSOXD
 70
     0
  9
$DIMSAH
 70
     0
  9
$DIMBLK1
  1

  9
$DIMBLK2
  1

  9
$DIMSTYLE
  2
STANDARD
  9
$DIMCLRD
 70
     0
  9
$DIMCLRE
 70
     0
  9
$DIMCLRT
 70
     0
  9
$DIMTFAC
 40
1.0
  9
$DIMGAP
 40
0.09
  9
$DIMJUST
 70
     0
  9
$DIMSD1
 70
     0
  9
$DIMSD2
 70
     0
  9
$DIMTOLJ
 70
     1
  9
$DIMTZIN
 70
     0
  9
$DIMALTZ
 70
     0
  9
$DIMALTTZ
 70
     0
  9
$DIMFIT
 70
     3
  9
$DIMUPT
 70
     0
  9
$DIMUNIT
 70
     2
  9
$DIMDEC
 70
     4
  9
$DIMTDEC
 70
     4
  9
$DIMALTU
 70
     2
  9
$DIMALTTD
 70
     2
  9
$DIMTXSTY
  7
STANDARD
  9
$DIMAUNIT
 70
     0
  9
$LUNITS
 70
     2
  9
$LUPREC
 70
     4
  9
$SKETCHINC
 40
0.1
  9
$FILLETRAD
 40
0.0
  9
$AUNITS
 70
     0
  9
$AUPREC
 70
     0
  9
$MENU
  1
acad
  9
$ELEVATION
 40
0.0
  9
$PELEVATION
 40
0.0
  9
$THICKNESS
 40
0.0
  9
$LIMCHECK
 70
     0
  9
$BLIPMODE
 70
     1
  9
$CHAMFERA
 40
0.0
  9
$CHAMFERB
 40
0.0
  9
$CHAMFERC
 40
0.0
  9
$CHAMFERD
 40
0.0
  9
$SKPOLY
 70
     0
  9
$TDCREATE
 40
2456926.208577361
  9
$TDUPDATE
 40
2456926.208577361
  9
$TDINDWG
 40
0.0000000000
  9
$TDUSRTIMER
 40
0.0000000000
  9
$USRTIMER
 70
     1
  9
$ANGBASE
 50
0.0
  9
$ANGDIR
 70
     0
  9
$PDMODE
 70
     0
  9
$PDSIZE
 40
0.0
  9
$PLINEWID
 40
0.0
  9
$COORDS
 70
     1
  9
$SPLFRAME
 70
     0
  9
$SPLINETYPE
 70
     6
  9
$SPLINESEGS
 70
     8
  9
$ATTDIA
 70
     0
  9
$ATTREQ
 70
     1
  9
$HANDLING
 70
     1
  9
$HANDSEED
  5
4D4
  9
$SURFTAB1
 70
     6
  9
$SURFTAB2
 70
     6
  9
$SURFTYPE
 70
     6
  9
$SURFU
 70
     6
  9
$SURFV
 70
     6
  9
$UCSNAME
  2

  9
$UCSORG
 10
0.0
 20
0.0
 30
0.0
  9
$UCSXDIR
 10
1.0
 20
0.0
 30
0.0
  9
$UCSYDIR
 10
0.0
 20
1.0
 30
0.0
  9
$PUCSNAME
  2

  9
$PUCSORG
 10
0.0
 20
0.0
 30
0.0
  9
$PUCSXDIR
 10
1.0
 20
0.0
 30
0.0
  9
$PUCSYDIR
 10
0.0
 20
1.0
 30
0.0
  9
$USERI1
 70
     0
  9
$USERI2
 70
     0
  9
$USERI3
 70
     0
  9
$USERI4
 70
     0
  9
$USERI5
 70
     0
  9
$USERR1
 40
0.0
  9
$USERR2
 40
0.0
  9
$USERR3
 40
0.0
  9
$USERR4
 40
0.0
  9
$USERR5
 40
0.0
  9
$WORLDVIEW
 70
     1
  9
$SHADEDGE
 70
     3
  9
$SHADEDIF
 70
    70
  9
$TILEMODE
 70
     1
  9
$MAXACTVP
 70
    16
  9
$PINSBASE
 10
0.0
 20
0.0
 30
0.0
  9
$PLIMCHECK
 70
     0
  9
$PEXTMIN
 10
1.000000E+20
 20
1.000000E+20
 30
1.000000E+20
  9
$PEXTMAX
 10
-1.000000E+20
 20
-1.000000E+20
 30
-1.000000E+20
  9
$PLIMMIN
 10
0.0
 20
0.0
  9
$PLIMMAX
 10
12.0
 20
9.0
  9
$UNITMODE
 70
     0
  9
$VISRETAIN
 70
     0
  9
$PLINEGEN
 70
     1
  9
$PSLTSCALE
 70
     0
  9
$TREEDEPTH
 70
  3020
  9
$PICKSTYLE
 70
     1
  9
$CMLSTYLE
  2
Standard
  9
$CMLJUST
 70
     0
  9
$CMLSCALE
 40
1.0
  9
$PROXYGRAPHICS
 70
     0
  9
$MEASUREMENT
 70
     0
  0
ENDSEC
  0
SECTION
  2
CLASSES
  0
CLASS
  1
LWPOLYLINE
  2
AcDbPolyline
  3
"AutoCAD"
 90
        0
280
     0
281
     1
  0
CLASS
  1
IMAGE
  2
AcDbRasterImage
  3
ISM
 90
      127
280
     0
281
     1
  0
CLASS
  1
OLE2FRAME
  2
AcDbOle2Frame
  3
""
 90
        0
280
     0
281
     1
  0
CLASS
  1
HATCH
  2
AcDbHatch
  3
"ACAD_SEDONA"
 90
        0
280
     0
281
     1
  0
CLASS
  1
DICTIONARYVAR
  2
AcDbDictionaryVar
  3
"AutoCAD"
 90
        0
280
     0
281
     0
  0
CLASS
  1
RASTERVARIABLES
  2
AcDbRasterVariables
  3
ISM
 90
        0
280
     0
281
     0
  0
CLASS
  1
IMAGEDEF
  2
AcDbRasterImageDef
  3
ISM
 90
        0
280
     0
281
     0
  0
CLASS
  1
IMAGEDEF_REACTOR
  2
AcDbRasterImageDefReactor
  3
ISM
 90
        1
280
     0
281
     0
  0
CLASS
  1
IDBUFFER
  2
AcDbIdBuffer
  3
"Acad"
 90
        0
280
     0
281
     0
  0
CLASS
  1
SPATIAL_FILTER
  2
AcDbSpatialFilter
  3
"Acad"
 90
        0
280
     0
281
     0
  0
CLASS
  1
XRECORD
  2
AcDbXrecord
  3
"<Built In>"
 90
        0
280
     0
281
     0
  0
CLASS
  1
SORTENTSTABLE
  2
AcDbSortentsTable
  3
"AutoCAD"
 90
        0
280
     0
281
     0
  0
CLASS
  1
LAYER_INDEX
  2
AcDbLayerIndex
  3
"Acad"
 90
        0
280
     0
281
     0
  0
CLASS
  1
SPATIAL_INDEX
  2
AcDbSpatialIndex
  3
"Acad"
 90
        0
280
     0
281
     0
  0
CLASS
  1
OBJECT_PTR
  2
CAseDLPNTableRecord
  3
"ASE-LPNTableRecord"
 90
        1
280
     0
281
     0
  0
CLASS
  1
LAYOUT
  2
AcDbLayout
  3
"AutoCAD 2000"
 90
        1
280
     0
281
     0
  0
CLASS
  1
PLOTSETTINGS
  2
AcDbPlotSettings
  3
"AutoCAD 2000"
 90
        1
280
     0
281
     0
  0
CLASS
  1
ACDBDICTIONARYWDFLT
  2
AcDbDictionaryWithDefault
  3
"AutoCAD 2000"
 90
        1
280
     0
281
     0
  0
CLASS
  1
ACDBPLACEHOLDER
  2
AcDbPlaceHolder
  3
"AutoCAD 2000"
 90
        1
280
     0
281
     0
  0
CLASS
  1
VBA_PROJECT
  2
AcDbVbaProject
  3
"acadvba"
 90
        1
280
     0
281
     0
  0
CLASS
  1
WIPEOUT
  2
AcDbWipeout
  3
WipeOut|AutoCAD Express Tool|expresstools@autodesk.com
 90
      127
280
     0
281
     1
  0
CLASS
  1
WIPEOUTVARIABLES
  2
AcDbWipeoutVariables
  3
WipeOut|AutoCAD Express Tool|expresstools@autodesk.com
 90
        0
280
     0
281
     0
  0
CLASS
  1
RTEXT
  2
RText
  3
RText|AutoCAD Express Tool|expresstools@autodesk.com
 90
        0
280
     0
281
     1
  0
CLASS
  1
ARCALIGNEDTEXT
  2
AcDbArcAlignedText
  3
ATEXT|AutoCAD Express Tool|expresstools@autodesk.com
 90
        0
280
     0
281
     1
  0
ENDSEC
  0
SECTION
  2
TABLES
  0
TABLE
  2
VPORT
  5
7
100
AcDbSymbolTable
 70
     1
  0
VPORT
  5
15
100
AcDbSymbolTableRecord
100
AcDbViewportTableRecord
  2
*ACTIVE
 70
     0
 10
0.0
 20
0.0
 11
1.0
 21
1.0
 12
1090.0
 22
1510.0
 13
0.0
 23
0.0
 14
1.0
 24
1.0
 15
0.0
 25
0.0
 16
0.0
 26
0.0
 36
1.0
 17
0.0
 27
0.0
 37
0.0
 40
2750.0
 41
1.722533
 42
50.0
 43
0.0
 44
0.0
 50
0.0
 51
0.0
 71
     0
 72
   100
 73
     1
 74
     1
 75
     0
 76
     0
 77
     0
 78
     0
  0
ENDTAB
  0
TABLE
  2
LTYPE
  5
4
100
AcDbSymbolTable
 70
     9
  0
LTYPE
  5
11
100
AcDbSymbolTableRecord
100
AcDbLinetypeTableRecord
  2
BYBLOCK
 70
    64
  3

 72
    65
 73
     0
 40
0.0
  0
LTYPE
  5
12
100
AcDbSymbolTableRecord
100
AcDbLinetypeTableRecord
  2
BYLAYER
 70
    64
  3

 72
    65
 73
     0
 40
0.0
  0
LTYPE
  5
13
100
AcDbSymbolTableRecord
100
AcDbLinetypeTableRecord
  2
CONTINUOUS
 70
    64
  3
実線
 72
    65
 73
     0
 40
0.0
  0
LTYPE
  5
1D
100
AcDbSymbolTableRecord
100
AcDbLinetypeTableRecord
  2
EXLTYPE1
 70
    64
  3
破線
 72
    65
 73
     2
 40
3.0
 49
2.0
 74
     0
 49
-1.0
 74
     0
  0
LTYPE
  5
1E
100
AcDbSymbolTableRecord
100
AcDbLinetypeTableRecord
  2
EXLTYPE2
 70
    64
  3
点線
 72
    65
 73
     2
 40
2.0
 49
1.0
 74
     0
 49
-1.0
 74
     0
  0
LTYPE
  5
1F
100
AcDbSymbolTableRecord
100
AcDbLinetypeTableRecord
  2
EXLTYPE3
 70
    64
  3
一点鎖線
 72
    65
 73
     4
 40
10.0
 49
7.0
 74
     0
 49
-1.0
 74
     0
 49
1.0
 74
     0
 49
-1.0
 74
     0
  0
LTYPE
  5
20
100
AcDbSymbolTableRecord
100
AcDbLinetypeTableRecord
  2
EXLTYPE4
 70
    64
  3
二点鎖線
 72
    65
 73
     6
 40
12.0
 49
7.0
 74
     0
 49
-1.0
 74
     0
 49
1.0
 74
     0
 49
-1.0
 74
     0
 49
1.0
 74
     0
 49
-1.0
 74
     0
  0
LTYPE
  5
21
100
AcDbSymbolTableRecord
100
AcDbLinetypeTableRecord
  2
EXLTYPE5
 70
    64
  3
三点鎖線
 72
    65
 73
     8
 40
37.0
 49
30.0
 74
     0
 49
-1.0
 74
     0
 49
1.0
 74
     0
 49
-1.0
 74
     0
 49
1.0
 74
     0
 49
-1.0
 74
     0
 49
1.0
 74
     0
 49
-1.0
 74
     0
  0
LTYPE
  5
22
100
AcDbSymbolTableRecord
100
AcDbLinetypeTableRecord
  2
EXLTYPE6
 70
    64
  3
四点鎖線
 72
    65
 73
    10
 40
39.0
 49
30.0
 74
     0
 49
-1.0
 74
     0
 49
1.0
 74
     0
 49
-1.0
 74
     0
 49
1.0
 74
     0
 49
-1.0
 74
     0
 49
1.0
 74
     0
 49
-1.0
 74
     0
 49
1.0
 74
     0
 49
-1.0
 74
     0
  0
ENDTAB
  0
TABLE
  2
LAYER
  5
2
100
AcDbSymbolTable
 70
     9
  0
LAYER
  5
14
100
AcDbSymbolTableRecord
100
AcDbLayerTableRecord
  2
0
 70
     0
 62
     7
  6
CONTINUOUS
  0
LAYER
  5
25
100
AcDbSymbolTableRecord
100
AcDbLayerTableRecord
  2
枠・表
 70
    64
 62
     7
  6
CONTINUOUS
  0
LAYER
  5
26
100
AcDbSymbolTableRecord
100
AcDbLayerTableRecord
  2
洗面器
 70
    64
 62
     7
  6
CONTINUOUS
  0
LAYER
  5
27
100
AcDbSymbolTableRecord
100
AcDbLayerTableRecord
  2
ｷｬﾋﾞﾈｯﾄ
 70
    64
 62
     7
  6
CONTINUOUS
  0
LAYER
  5
28
100
AcDbSymbolTableRecord
100
AcDbLayerTableRecord
  2
水栓
 70
    64
 62
     7
  6
CONTINUOUS
  0
LAYER
  5
29
100
AcDbSymbolTableRecord
100
AcDbLayerTableRecord
  2
排水
 70
    64
 62
     7
  6
CONTINUOUS
  0
LAYER
  5
2A
100
AcDbSymbolTableRecord
100
AcDbLayerTableRecord
  2
付属
 70
    64
 62
     7
  6
CONTINUOUS
  0
LAYER
  5
2B
100
AcDbSymbolTableRecord
100
AcDbLayerTableRecord
  2
壁
 70
    64
 62
     7
  6
CONTINUOUS
  0
LAYER
  5
2C
100
AcDbSymbolTableRecord
100
AcDbLayerTableRecord
  2
寸法
 70
    64
 62
     7
  6
CONTINUOUS
  0
ENDTAB
  0
TABLE
  2
STYLE
  5
3
100
AcDbSymbolTable
 70
     4
  0
STYLE
  5
17
100
AcDbSymbolTableRecord
100
AcDbTextStyleTableRecord
  2
STANDARD
 70
     0
 40
0.0
 41
1.0
 50
0.0
 71
     0
 42
0.0
  3
monotxt
  4
extfont
  0
STYLE
  5
23
100
AcDbSymbolTableRecord
100
AcDbTextStyleTableRecord
  2
EXCADSTD
 70
    64
 40
0.0
 41
1.0
 50
0.0
 71
     0
 42
0.2
  3
monotxt
  4
extfont
  0
STYLE
  5
24
100
AcDbSymbolTableRecord
100
AcDbTextStyleTableRecord
  2
EXCADVERT
 70
    68
 40
0.0
 41
1.0
 50
0.0
 71
     0
 42
0.286885
  3
monotxt
  4
extfont
  0
STYLE
  5
3DB
100
AcDbSymbolTableRecord
100
AcDbTextStyleTableRecord
  2
EXCADDIM1
 70
    64
 40
0.0
 41
0.84
 50
0.0
 71
     0
 42
0.2
  3
monotxt
  4
extfont
  0
ENDTAB
  0
TABLE
  2
VIEW
  5
5
100
AcDbSymbolTable
 70
     0
  0
ENDTAB
  0
TABLE
  2
UCS
  5
6
100
AcDbSymbolTable
 70
     0
  0
ENDTAB
  0
TABLE
  2
APPID
  5
8
100
AcDbSymbolTable
 70
     1
  0
APPID
  5
16
100
AcDbSymbolTableRecord
100
AcDbRegAppTableRecord
  2
ACAD
 70
     0
  0
ENDTAB
  0
TABLE
  2
DIMSTYLE
  5
9
100
AcDbSymbolTable
 70
     1
  0
DIMSTYLE
105
18
100
AcDbSymbolTableRecord
100
AcDbDimStyleTableRecord
  2
STANDARD
 70
     0
  3

  4

  5

  6

  7

 40
1.0
 41
0.18
 42
0.0625
 43
0.38
 44
0.18
 45
0.0
 46
0.0
 47
0.0
 48
0.0
 71
     0
 72
     0
 73
     1
 74
     1
 75
     0
 76
     0
 77
     0
 78
     0
140
0.18
141
0.09
142
0.0
143
25.4
144
1.0
145
0.0
146
1.0
147
0.09
170
     0
171
     2
172
     1
173
     0
174
     0
175
     0
176
     0
177
     0
178
     0
270
     2
271
     4
272
     4
273
     2
274
     2
275
     0
280
     0
281
     0
282
     0
283
     1
284
     0
285
     0
286
     0
287
     0
288
     0
340
17
  0
ENDTAB
  0
TABLE
  2
BLOCK_RECORD
  5
1
100
AcDbSymbolTable
 70
    33
  0
BLOCK_RECORD
  5
A
100
AcDbSymbolTableRecord
100
AcDbBlockTableRecord
  2
*MODEL_SPACE
  0
BLOCK_RECORD
  5
B
100
AcDbSymbolTableRecord
100
AcDbBlockTableRecord
  2
*PAPER_SPACE
  0
BLOCK_RECORD
  5
2D
100
AcDbSymbolTableRecord
100
AcDbBlockTableRecord
  2
_EX_NORM
  0
BLOCK_RECORD
  5
2E
100
AcDbSymbolTableRecord
100
AcDbBlockTableRecord
  2
_EX_BNORM
  0
BLOCK_RECORD
  5
2F
100
AcDbSymbolTableRecord
100
AcDbBlockTableRecord
  2
_EX_BCIR
  0
BLOCK_RECORD
  5
30
100
AcDbSymbolTableRecord
100
AcDbBlockTableRecord
  2
_EX_RCIVIL
  0
BLOCK_RECORD
  5
31
100
AcDbSymbolTableRecord
100
AcDbBlockTableRecord
  2
_EX_SLANT
  0
BLOCK_RECORD
  5
32
100
AcDbSymbolTableRecord
100
AcDbBlockTableRecord
  2
_EX_NONE
  0
BLOCK_RECORD
  5
33
100
AcDbSymbolTableRecord
100
AcDbBlockTableRecord
  2
_EX_CIVIL
  0
BLOCK_RECORD
  5
34
100
AcDbSymbolTableRecord
100
AcDbBlockTableRecord
  2
_EX_WCIR
  0
BLOCK_RECORD
  5
35
100
AcDbSymbolTableRecord
100
AcDbBlockTableRecord
  2
_EX_WCIR2
  0
BLOCK_RECORD
  5
36
100
AcDbSymbolTableRecord
100
AcDbBlockTableRecord
  2
_EX_WNORM
  0
BLOCK_RECORD
  5
37
100
AcDbSymbolTableRecord
100
AcDbBlockTableRecord
  2
_EX_NNORM
  0
BLOCK_RECORD
  5
38
100
AcDbSymbolTableRecord
100
AcDbBlockTableRecord
  2
_EX_BBOX
  0
BLOCK_RECORD
  5
39
100
AcDbSymbolTableRecord
100
AcDbBlockTableRecord
  2
_EX_WBOX
  0
BLOCK_RECORD
  5
3A
100
AcDbSymbolTableRecord
100
AcDbBlockTableRecord
  2
_EX_INTEGRAL
  0
BLOCK_RECORD
  5
3D0
100
AcDbSymbolTableRecord
100
AcDbBlockTableRecord
  2
*D14
  0
BLOCK_RECORD
  5
3E6
100
AcDbSymbolTableRecord
100
AcDbBlockTableRecord
  2
*D15
  0
BLOCK_RECORD
  5
3F2
100
AcDbSymbolTableRecord
100
AcDbBlockTableRecord
  2
*D16
  0
BLOCK_RECORD
  5
3FD
100
AcDbSymbolTableRecord
100
AcDbBlockTableRecord
  2
*D17
  0
BLOCK_RECORD
  5
408
100
AcDbSymbolTableRecord
100
AcDbBlockTableRecord
  2
*D18
  0
BLOCK_RECORD
  5
413
100
AcDbSymbolTableRecord
100
AcDbBlockTableRecord
  2
*D19
  0
BLOCK_RECORD
  5
41E
100
AcDbSymbolTableRecord
100
AcDbBlockTableRecord
  2
*D20
  0
BLOCK_RECORD
  5
429
100
AcDbSymbolTableRecord
100
AcDbBlockTableRecord
  2
*D21
  0
BLOCK_RECORD
  5
434
100
AcDbSymbolTableRecord
100
AcDbBlockTableRecord
  2
*D22
  0
BLOCK_RECORD
  5
440
100
AcDbSymbolTableRecord
100
AcDbBlockTableRecord
  2
*D23
  0
BLOCK_RECORD
  5
44C
100
AcDbSymbolTableRecord
100
AcDbBlockTableRecord
  2
*D24
  0
BLOCK_RECORD
  5
457
100
AcDbSymbolTableRecord
100
AcDbBlockTableRecord
  2
*D25
  0
BLOCK_RECORD
  5
462
100
AcDbSymbolTableRecord
100
AcDbBlockTableRecord
  2
*D26
  0
BLOCK_RECORD
  5
476
100
AcDbSymbolTableRecord
100
AcDbBlockTableRecord
  2
*D27
  0
BLOCK_RECORD
  5
482
100
AcDbSymbolTableRecord
100
AcDbBlockTableRecord
  2
*D28
  0
BLOCK_RECORD
  5
48E
100
AcDbSymbolTableRecord
100
AcDbBlockTableRecord
  2
*D29
  0
BLOCK_RECORD
  5
4B1
100
AcDbSymbolTableRecord
100
AcDbBlockTableRecord
  2
*D30
  0
BLOCK_RECORD
  5
4BD
100
AcDbSymbolTableRecord
100
AcDbBlockTableRecord
  2
*D31
  0
BLOCK_RECORD
  5
4C8
100
AcDbSymbolTableRecord
100
AcDbBlockTableRecord
  2
*D32
  0
ENDTAB
  0
ENDSEC
  0
SECTION
  2
BLOCKS
  0
BLOCK
  5
D
100
AcDbEntity
  8
0
100
AcDbBlockBegin
  2
*MODEL_SPACE
 70
     0
 10
0.0
 20
0.0
 30
0.0
  3
*MODEL_SPACE
  1

  0
ENDBLK
  5
E
100
AcDbEntity
  8
0
100
AcDbBlockEnd
  0
BLOCK
  5
F
100
AcDbEntity
 67
     1
  8
0
100
AcDbBlockBegin
  2
*PAPER_SPACE
 70
     0
 10
0.0
 20
0.0
 30
0.0
  3
*PAPER_SPACE
  1

  0
ENDBLK
  5
10
100
AcDbEntity
 67
     1
  8
0
100
AcDbBlockEnd
  0
BLOCK
  5
3B
100
AcDbEntity
  8
0
100
AcDbBlockBegin
  2
_EX_NORM
 70
     0
 10
0.0
 20
0.0
 30
0.0
  3
_EX_NORM
  1

  0
LINE
  5
3C
100
AcDbEntity
  8
0
  6
CONTINUOUS
 62
     0
100
AcDbLine
 10
0.0
 20
0.0
 30
0.0
 11
-1.0
 21
0.0
 31
0.0
  0
LINE
  5
3D
100
AcDbEntity
  8
0
  6
CONTINUOUS
 62
     0
100
AcDbLine
 10
0.0
 20
0.0
 30
0.0
 11
-1.0
 21
0.166667
 31
0.0
  0
LINE
  5
3E
100
AcDbEntity
  8
0
  6
CONTINUOUS
 62
     0
100
AcDbLine
 10
0.0
 20
0.0
 30
0.0
 11
-1.0
 21
-0.166667
 31
0.0
  0
ENDBLK
  5
3F
100
AcDbEntity
  8
0
100
AcDbBlockEnd
  0
BLOCK
  5
40
100
AcDbEntity
  8
0
100
AcDbBlockBegin
  2
_EX_BNORM
 70
     0
 10
0.0
 20
0.0
 30
0.0
  3
_EX_BNORM
  1

  0
LINE
  5
41
100
AcDbEntity
  8
0
  6
CONTINUOUS
 62
     0
100
AcDbLine
 10
0.0
 20
0.0
 30
0.0
 11
-1.0
 21
0.0
 31
0.0
  0
LINE
  5
42
100
AcDbEntity
  8
0
  6
CONTINUOUS
 62
     0
100
AcDbLine
 10
0.0
 20
0.0
 30
0.0
 11
-1.0
 21
0.166667
 31
0.0
  0
LINE
  5
43
100
AcDbEntity
  8
0
  6
CONTINUOUS
 62
     0
100
AcDbLine
 10
0.0
 20
0.0
 30
0.0
 11
-1.0
 21
-0.166667
 31
0.0
  0
LINE
  5
44
100
AcDbEntity
  8
0
  6
CONTINUOUS
 62
     0
100
AcDbLine
 10
0.0
 20
0.0
 30
0.0
 11
-1.0
 21
0.083333
 31
0.0
  0
LINE
  5
45
100
AcDbEntity
  8
0
  6
CONTINUOUS
 62
     0
100
AcDbLine
 10
0.0
 20
0.0
 30
0.0
 11
-1.0
 21
-0.083333
 31
0.0
  0
LINE
  5
46
100
AcDbEntity
  8
0
  6
CONTINUOUS
 62
     0
100
AcDbLine
 10
-1.0
 20
0.166667
 30
0.0
 11
-1.0
 21
-0.166667
 31
0.0
  0
ENDBLK
  5
47
100
AcDbEntity
  8
0
100
AcDbBlockEnd
  0
BLOCK
  5
48
100
AcDbEntity
  8
0
100
AcDbBlockBegin
  2
_EX_BCIR
 70
     0
 10
0.0
 20
0.0
 30
0.0
  3
_EX_BCIR
  1

  0
LINE
  5
49
100
AcDbEntity
  8
0
  6
CONTINUOUS
 62
     0
100
AcDbLine
 10
0.0
 20
0.0
 30
0.0
 11
-1.0
 21
0.0
 31
0.0
  0
CIRCLE
  5
4A
100
AcDbEntity
  8
0
  6
CONTINUOUS
 62
     0
100
AcDbCircle
 10
0.0
 20
0.0
 30
0.0
 40
0.5
  0
CIRCLE
  5
4B
100
AcDbEntity
  8
0
  6
CONTINUOUS
 62
     0
100
AcDbCircle
 10
0.0
 20
0.0
 30
0.0
 40
0.25
  0
ENDBLK
  5
4C
100
AcDbEntity
  8
0
100
AcDbBlockEnd
  0
BLOCK
  5
4D
100
AcDbEntity
  8
0
100
AcDbBlockBegin
  2
_EX_RCIVIL
 70
     0
 10
0.0
 20
0.0
 30
0.0
  3
_EX_RCIVIL
  1

  0
LINE
  5
4E
100
AcDbEntity
  8
0
  6
CONTINUOUS
 62
     0
100
AcDbLine
 10
0.0
 20
0.0
 30
0.0
 11
-1.0
 21
0.0
 31
0.0
  0
LINE
  5
4F
100
AcDbEntity
  8
0
  6
CONTINUOUS
 62
     0
100
AcDbLine
 10
-1.0
 20
-0.25
 30
0.0
 11
0.0
 21
-0.25
 31
0.0
  0
LINE
  5
50
100
AcDbEntity
  8
0
  6
CONTINUOUS
 62
     0
100
AcDbLine
 10
-1.0
 20
-0.125
 30
0.0
 11
0.0
 21
-0.125
 31
0.0
  0
ENDBLK
  5
51
100
AcDbEntity
  8
0
100
AcDbBlockEnd
  0
BLOCK
  5
52
100
AcDbEntity
  8
0
100
AcDbBlockBegin
  2
_EX_SLANT
 70
     0
 10
0.0
 20
0.0
 30
0.0
  3
_EX_SLANT
  1

  0
LINE
  5
53
100
AcDbEntity
  8
0
  6
CONTINUOUS
 62
     0
100
AcDbLine
 10
0.0
 20
0.0
 30
0.0
 11
-1.0
 21
0.0
 31
0.0
  0
LINE
  5
54
100
AcDbEntity
  8
0
  6
CONTINUOUS
 62
     0
100
AcDbLine
 10
0.707107
 20
0.707107
 30
0.0
 11
-0.707107
 21
-0.707107
 31
0.0
  0
ENDBLK
  5
55
100
AcDbEntity
  8
0
100
AcDbBlockEnd
  0
BLOCK
  5
56
100
AcDbEntity
  8
0
100
AcDbBlockBegin
  2
_EX_NONE
 70
     0
 10
0.0
 20
0.0
 30
0.0
  3
_EX_NONE
  1

  0
LINE
  5
57
100
AcDbEntity
  8
0
  6
CONTINUOUS
 62
     0
100
AcDbLine
 10
0.0
 20
0.0
 30
0.0
 11
-1.0
 21
0.0
 31
0.0
  0
ENDBLK
  5
58
100
AcDbEntity
  8
0
100
AcDbBlockEnd
  0
BLOCK
  5
59
100
AcDbEntity
  8
0
100
AcDbBlockBegin
  2
_EX_CIVIL
 70
     0
 10
0.0
 20
0.0
 30
0.0
  3
_EX_CIVIL
  1

  0
LINE
  5
5A
100
AcDbEntity
  8
0
  6
CONTINUOUS
 62
     0
100
AcDbLine
 10
0.0
 20
0.0
 30
0.0
 11
-1.0
 21
0.0
 31
0.0
  0
LINE
  5
5B
100
AcDbEntity
  8
0
  6
CONTINUOUS
 62
     0
100
AcDbLine
 10
-1.0
 20
0.25
 30
0.0
 11
0.0
 21
0.25
 31
0.0
  0
LINE
  5
5C
100
AcDbEntity
  8
0
  6
CONTINUOUS
 62
     0
100
AcDbLine
 10
-1.0
 20
0.125
 30
0.0
 11
0.0
 21
0.125
 31
0.0
  0
ENDBLK
  5
5D
100
AcDbEntity
  8
0
100
AcDbBlockEnd
  0
BLOCK
  5
5E
100
AcDbEntity
  8
0
100
AcDbBlockBegin
  2
_EX_WCIR
 70
     0
 10
0.0
 20
0.0
 30
0.0
  3
_EX_WCIR
  1

  0
LINE
  5
5F
100
AcDbEntity
  8
0
  6
CONTINUOUS
 62
     0
100
AcDbLine
 10
0.0
 20
0.0
 30
0.0
 11
-1.0
 21
0.0
 31
0.0
  0
CIRCLE
  5
60
100
AcDbEntity
  8
0
  6
CONTINUOUS
 62
     0
100
AcDbCircle
 10
0.0
 20
0.0
 30
0.0
 40
0.5
  0
ENDBLK
  5
61
100
AcDbEntity
  8
0
100
AcDbBlockEnd
  0
BLOCK
  5
62
100
AcDbEntity
  8
0
100
AcDbBlockBegin
  2
_EX_WCIR2
 70
     0
 10
0.0
 20
0.0
 30
0.0
  3
_EX_WCIR2
  1

  0
LINE
  5
63
100
AcDbEntity
  8
0
  6
CONTINUOUS
 62
     0
100
AcDbLine
 10
-0.5
 20
0.0
 30
0.0
 11
-1.0
 21
0.0
 31
0.0
  0
CIRCLE
  5
64
100
AcDbEntity
  8
0
  6
CONTINUOUS
 62
     0
100
AcDbCircle
 10
0.0
 20
0.0
 30
0.0
 40
0.5
  0
ENDBLK
  5
65
100
AcDbEntity
  8
0
100
AcDbBlockEnd
  0
BLOCK
  5
66
100
AcDbEntity
  8
0
100
AcDbBlockBegin
  2
_EX_WNORM
 70
     0
 10
0.0
 20
0.0
 30
0.0
  3
_EX_WNORM
  1

  0
LINE
  5
67
100
AcDbEntity
  8
0
  6
CONTINUOUS
 62
     0
100
AcDbLine
 10
-1.0
 20
0.0
 30
0.0
 11
-1.0
 21
0.0
 31
0.0
  0
LINE
  5
68
100
AcDbEntity
  8
0
  6
CONTINUOUS
 62
     0
100
AcDbLine
 10
0.0
 20
0.0
 30
0.0
 11
-1.0
 21
0.166667
 31
0.0
  0
LINE
  5
69
100
AcDbEntity
  8
0
  6
CONTINUOUS
 62
     0
100
AcDbLine
 10
0.0
 20
0.0
 30
0.0
 11
-1.0
 21
-0.166667
 31
0.0
  0
LINE
  5
6A
100
AcDbEntity
  8
0
  6
CONTINUOUS
 62
     0
100
AcDbLine
 10
-1.0
 20
0.166667
 30
0.0
 11
-1.0
 21
-0.166667
 31
0.0
  0
ENDBLK
  5
6B
100
AcDbEntity
  8
0
100
AcDbBlockEnd
  0
BLOCK
  5
6C
100
AcDbEntity
  8
0
100
AcDbBlockBegin
  2
_EX_NNORM
 70
     0
 10
0.0
 20
0.0
 30
0.0
  3
_EX_NNORM
  1

  0
LINE
  5
6D
100
AcDbEntity
  8
0
  6
CONTINUOUS
 62
     0
100
AcDbLine
 10
0.0
 20
0.0
 30
0.0
 11
-1.0
 21
0.0
 31
0.0
  0
LINE
  5
6E
100
AcDbEntity
  8
0
  6
CONTINUOUS
 62
     0
100
AcDbLine
 10
0.0
 20
0.0
 30
0.0
 11
-1.0
 21
0.166667
 31
0.0
  0
LINE
  5
6F
100
AcDbEntity
  8
0
  6
CONTINUOUS
 62
     0
100
AcDbLine
 10
0.0
 20
0.0
 30
0.0
 11
-1.0
 21
-0.166667
 31
0.0
  0
LINE
  5
70
100
AcDbEntity
  8
0
  6
CONTINUOUS
 62
     0
100
AcDbLine
 10
-1.0
 20
0.166667
 30
0.0
 11
-1.0
 21
-0.166667
 31
0.0
  0
ENDBLK
  5
71
100
AcDbEntity
  8
0
100
AcDbBlockEnd
  0
BLOCK
  5
72
100
AcDbEntity
  8
0
100
AcDbBlockBegin
  2
_EX_BBOX
 70
     0
 10
0.0
 20
0.0
 30
0.0
  3
_EX_BBOX
  1

  0
LINE
  5
73
100
AcDbEntity
  8
0
  6
CONTINUOUS
 62
     0
100
AcDbLine
 10
0.0
 20
0.0
 30
0.0
 11
-1.0
 21
0.0
 31
0.0
  0
LINE
  5
74
100
AcDbEntity
  8
0
  6
CONTINUOUS
 62
     0
100
AcDbLine
 10
-0.5
 20
0.5
 30
0.0
 11
0.5
 21
0.5
 31
0.0
  0
LINE
  5
75
100
AcDbEntity
  8
0
  6
CONTINUOUS
 62
     0
100
AcDbLine
 10
0.5
 20
0.5
 30
0.0
 11
0.5
 21
-0.5
 31
0.0
  0
LINE
  5
76
100
AcDbEntity
  8
0
  6
CONTINUOUS
 62
     0
100
AcDbLine
 10
0.5
 20
-0.5
 30
0.0
 11
-0.5
 21
-0.5
 31
0.0
  0
LINE
  5
77
100
AcDbEntity
  8
0
  6
CONTINUOUS
 62
     0
100
AcDbLine
 10
-0.5
 20
-0.5
 30
0.0
 11
-0.5
 21
0.5
 31
0.0
  0
LINE
  5
78
100
AcDbEntity
  8
0
  6
CONTINUOUS
 62
     0
100
AcDbLine
 10
-0.25
 20
0.25
 30
0.0
 11
0.25
 21
0.25
 31
0.0
  0
LINE
  5
79
100
AcDbEntity
  8
0
  6
CONTINUOUS
 62
     0
100
AcDbLine
 10
0.25
 20
0.25
 30
0.0
 11
0.25
 21
-0.25
 31
0.0
  0
LINE
  5
7A
100
AcDbEntity
  8
0
  6
CONTINUOUS
 62
     0
100
AcDbLine
 10
0.25
 20
-0.25
 30
0.0
 11
-0.25
 21
-0.25
 31
0.0
  0
LINE
  5
7B
100
AcDbEntity
  8
0
  6
CONTINUOUS
 62
     0
100
AcDbLine
 10
-0.25
 20
-0.25
 30
0.0
 11
-0.25
 21
0.25
 31
0.0
  0
ENDBLK
  5
7C
100
AcDbEntity
  8
0
100
AcDbBlockEnd
  0
BLOCK
  5
7D
100
AcDbEntity
  8
0
100
AcDbBlockBegin
  2
_EX_WBOX
 70
     0
 10
0.0
 20
0.0
 30
0.0
  3
_EX_WBOX
  1

  0
LINE
  5
7E
100
AcDbEntity
  8
0
  6
CONTINUOUS
 62
     0
100
AcDbLine
 10
-0.5
 20
0.0
 30
0.0
 11
-1.0
 21
0.0
 31
0.0
  0
LINE
  5
7F
100
AcDbEntity
  8
0
  6
CONTINUOUS
 62
     0
100
AcDbLine
 10
-0.5
 20
0.5
 30
0.0
 11
0.5
 21
0.5
 31
0.0
  0
LINE
  5
80
100
AcDbEntity
  8
0
  6
CONTINUOUS
 62
     0
100
AcDbLine
 10
0.5
 20
0.5
 30
0.0
 11
0.5
 21
-0.5
 31
0.0
  0
LINE
  5
81
100
AcDbEntity
  8
0
  6
CONTINUOUS
 62
     0
100
AcDbLine
 10
0.5
 20
-0.5
 30
0.0
 11
-0.5
 21
-0.5
 31
0.0
  0
LINE
  5
82
100
AcDbEntity
  8
0
  6
CONTINUOUS
 62
     0
100
AcDbLine
 10
-0.5
 20
-0.5
 30
0.0
 11
-0.5
 21
0.5
 31
0.0
  0
ENDBLK
  5
83
100
AcDbEntity
  8
0
100
AcDbBlockEnd
  0
BLOCK
  5
84
100
AcDbEntity
  8
0
100
AcDbBlockBegin
  2
_EX_INTEGRAL
 70
     0
 10
0.0
 20
0.0
 30
0.0
  3
_EX_INTEGRAL
  1

  0
LINE
  5
85
100
AcDbEntity
  8
0
  6
CONTINUOUS
 62
     0
100
AcDbLine
 10
0.0
 20
0.0
 30
0.0
 11
-1.0
 21
0.0
 31
0.0
  0
ARC
  5
86
100
AcDbEntity
  8
0
  6
CONTINUOUS
 62
     0
100
AcDbCircle
 10
0.542115
 20
0.164992
 30
0.0
 40
0.56667
100
AcDbArc
 50
73.07249
 51
196.927513
  0
ARC
  5
87
100
AcDbEntity
  8
0
  6
CONTINUOUS
 62
     0
100
AcDbCircle
 10
-0.542115
 20
-0.164992
 30
0.0
 40
0.56667
100
AcDbArc
 50
253.072487
 51
16.927513
  0
ENDBLK
  5
88
100
AcDbEntity
  8
0
100
AcDbBlockEnd
  0
BLOCK
  5
3D1
100
AcDbEntity
  8
0
100
AcDbBlockBegin
  2
*D14
 70
    65
 10
0.0
 20
0.0
 30
0.0
  3
*D14
  1

  0
LINE
  5
3D2
100
AcDbEntity
  8
寸法
  6
CONTINUOUS
 62
     3
100
AcDbLine
 10
552.5
 20
2542.0
 30
0.0
 11
552.5
 21
2615.0
 31
0.0
  0
LINE
  5
3D3
100
AcDbEntity
  8
寸法
  6
CONTINUOUS
 62
     3
100
AcDbLine
 10
582.5
 20
2542.0
 30
0.0
 11
582.5
 21
2615.0
 31
0.0
  0
TEXT
  5
3D4
100
AcDbEntity
  8
寸法
  6
CONTINUOUS
 62
     2
100
AcDbText
 10
402.9
 20
2608.5
 30
0.0
 40
40.0
  1
30以上
 41
0.84
  7
EXCADSTD
 72
     1
 11
457.5
 21
2608.5
 31
0.0
100
AcDbText
  0
LINE
  5
3D5
100
AcDbEntity
  8
寸法
  6
CONTINUOUS
 62
     3
100
AcDbLine
 10
388.999996
 20
2605.0
 30
0.0
 11
612.5
 21
2605.0
 31
0.0
  0
LINE
  5
3D6
100
AcDbEntity
  8
寸法
  6
CONTINUOUS
 62
     3
100
AcDbLine
 10
522.5
 20
2600.0
 30
0.0
 11
552.5
 21
2605.0
 31
0.0
  0
LINE
  5
3D7
100
AcDbEntity
  8
寸法
  6
CONTINUOUS
 62
     3
100
AcDbLine
 10
552.5
 20
2605.0
 30
0.0
 11
522.5
 21
2610.0
 31
0.0
  0
LINE
  5
3D8
100
AcDbEntity
  8
寸法
  6
CONTINUOUS
 62
     3
100
AcDbLine
 10
612.5
 20
2610.0
 30
0.0
 11
582.5
 21
2605.0
 31
0.0
  0
LINE
  5
3D9
100
AcDbEntity
  8
寸法
  6
CONTINUOUS
 62
     3
100
AcDbLine
 10
582.5
 20
2605.0
 30
0.0
 11
612.5
 21
2600.0
 31
0.0
  0
ENDBLK
  5
3DA
100
AcDbEntity
  8
0
100
AcDbBlockEnd
  0
BLOCK
  5
3E7
100
AcDbEntity
  8
0
100
AcDbBlockBegin
  2
*D15
 70
    65
 10
0.0
 20
0.0
 30
0.0
  3
*D15
  1

  0
LINE
  5
3E8
100
AcDbEntity
  8
寸法
  6
CONTINUOUS
 62
     3
100
AcDbLine
 10
877.5
 20
2542.0
 30
0.0
 11
877.5
 21
2615.0
 31
0.0
  0
LINE
  5
3E9
100
AcDbEntity
  8
寸法
  6
CONTINUOUS
 62
     3
100
AcDbLine
 10
907.5
 20
2542.0
 30
0.0
 11
907.5
 21
2615.0
 31
0.0
  0
TEXT
  5
3EA
100
AcDbEntity
  8
寸法
  6
CONTINUOUS
 62
     2
100
AcDbText
 10
947.9
 20
2608.5
 30
0.0
 40
40.0
  1
30以上
 41
0.84
  7
EXCADSTD
 72
     1
 11
1002.5
 21
2608.5
 31
0.0
100
AcDbText
  0
LINE
  5
3EB
100
AcDbEntity
  8
寸法
  6
CONTINUOUS
 62
     3
100
AcDbLine
 10
847.5
 20
2605.0
 30
0.0
 11
1071.000004
 21
2605.0
 31
0.0
  0
LINE
  5
3EC
100
AcDbEntity
  8
寸法
  6
CONTINUOUS
 62
     3
100
AcDbLine
 10
847.5
 20
2600.0
 30
0.0
 11
877.5
 21
2605.0
 31
0.0
  0
LINE
  5
3ED
100
AcDbEntity
  8
寸法
  6
CONTINUOUS
 62
     3
100
AcDbLine
 10
877.5
 20
2605.0
 30
0.0
 11
847.5
 21
2610.0
 31
0.0
  0
LINE
  5
3EE
100
AcDbEntity
  8
寸法
  6
CONTINUOUS
 62
     3
100
AcDbLine
 10
937.5
 20
2610.0
 30
0.0
 11
907.5
 21
2605.0
 31
0.0
  0
LINE
  5
3EF
100
AcDbEntity
  8
寸法
  6
CONTINUOUS
 62
     3
100
AcDbLine
 10
907.5
 20
2605.0
 30
0.0
 11
937.5
 21
2600.0
 31
0.0
  0
ENDBLK
  5
3F0
100
AcDbEntity
  8
0
100
AcDbBlockEnd
  0
BLOCK
  5
3F3
100
AcDbEntity
  8
0
100
AcDbBlockBegin
  2
*D16
 70
    65
 10
0.0
 20
0.0
 30
0.0
  3
*D16
  1

  0
LINE
  5
3F4
100
AcDbEntity
  8
寸法
  6
CONTINUOUS
 62
     3
100
AcDbLine
 10
895.81621
 20
2394.0
 30
0.0
 11
991.0
 21
2394.0
 31
0.0
  0
TEXT
  5
3F5
100
AcDbEntity
  8
寸法
  6
CONTINUOUS
 62
     2
100
AcDbText
 10
977.5
 20
2299.6
 30
0.0
 40
40.0
  1
33
 50
90.0
 41
0.84
  7
EXCADSTD
 72
     1
 11
977.5
 21
2329.0
 31
0.0
100
AcDbText
  0
LINE
  5
3F6
100
AcDbEntity
  8
寸法
  6
CONTINUOUS
 62
     3
100
AcDbLine
 10
981.0
 20
2457.0
 30
0.0
 11
981.0
 21
2290.499996
 31
0.0
  0
LINE
  5
3F7
100
AcDbEntity
  8
寸法
  6
CONTINUOUS
 62
     3
100
AcDbLine
 10
976.0
 20
2457.0
 30
0.0
 11
981.0
 21
2427.0
 31
0.0
  0
LINE
  5
3F8
100
AcDbEntity
  8
寸法
  6
CONTINUOUS
 62
     3
100
AcDbLine
 10
981.0
 20
2427.0
 30
0.0
 11
986.0
 21
2457.0
 31
0.0
  0
LINE
  5
3F9
100
AcDbEntity
  8
寸法
  6
CONTINUOUS
 62
     3
100
AcDbLine
 10
986.0
 20
2364.0
 30
0.0
 11
981.0
 21
2394.0
 31
0.0
  0
LINE
  5
3FA
100
AcDbEntity
  8
寸法
  6
CONTINUOUS
 62
     3
100
AcDbLine
 10
981.0
 20
2394.0
 30
0.0
 11
976.0
 21
2364.0
 31
0.0
  0
ENDBLK
  5
3FB
100
AcDbEntity
  8
0
100
AcDbBlockEnd
  0
BLOCK
  5
3FE
100
AcDbEntity
  8
0
100
AcDbBlockBegin
  2
*D17
 70
    65
 10
0.0
 20
0.0
 30
0.0
  3
*D17
  1

  0
LINE
  5
3FF
100
AcDbEntity
  8
寸法
  6
CONTINUOUS
 62
     3
100
AcDbLine
 10
737.0
 20
2282.0
 30
0.0
 11
1051.0
 21
2282.0
 31
0.0
  0
TEXT
  5
400
100
AcDbEntity
  8
寸法
  6
CONTINUOUS
 62
     2
100
AcDbText
 10
1037.5
 20
2312.5
 30
0.0
 40
40.0
  1
145
 50
90.0
 41
0.84
  7
EXCADSTD
 72
     1
 11
1037.5
 21
2354.5
 31
0.0
100
AcDbText
  0
LINE
  5
401
100
AcDbEntity
  8
寸法
  6
CONTINUOUS
 62
     3
100
AcDbLine
 10
1041.0
 20
2427.0
 30
0.0
 11
1041.0
 21
2282.0
 31
0.0
  0
LINE
  5
402
100
AcDbEntity
  8
寸法
  6
CONTINUOUS
 62
     3
100
AcDbLine
 10
1046.0
 20
2397.0
 30
0.0
 11
1041.0
 21
2427.0
 31
0.0
  0
LINE
  5
403
100
AcDbEntity
  8
寸法
  6
CONTINUOUS
 62
     3
100
AcDbLine
 10
1041.0
 20
2427.0
 30
0.0
 11
1036.0
 21
2397.0
 31
0.0
  0
LINE
  5
404
100
AcDbEntity
  8
寸法
  6
CONTINUOUS
 62
     3
100
AcDbLine
 10
1036.0
 20
2312.0
 30
0.0
 11
1041.0
 21
2282.0
 31
0.0
  0
LINE
  5
405
100
AcDbEntity
  8
寸法
  6
CONTINUOUS
 62
     3
100
AcDbLine
 10
1041.0
 20
2282.0
 30
0.0
 11
1046.0
 21
2312.0
 31
0.0
  0
ENDBLK
  5
406
100
AcDbEntity
  8
0
100
AcDbBlockEnd
  0
BLOCK
  5
409
100
AcDbEntity
  8
0
100
AcDbBlockBegin
  2
*D18
 70
    65
 10
0.0
 20
0.0
 30
0.0
  3
*D18
  1

  0
LINE
  5
40A
100
AcDbEntity
  8
寸法
  6
CONTINUOUS
 62
     3
100
AcDbLine
 10
879.5
 20
2517.0
 30
0.0
 11
1051.0
 21
2517.0
 31
0.0
  0
TEXT
  5
40B
100
AcDbEntity
  8
寸法
  6
CONTINUOUS
 62
     2
100
AcDbText
 10
1037.5
 20
2455.2
 30
0.0
 40
40.0
  1
90
 50
90.0
 41
0.84
  7
EXCADSTD
 72
     1
 11
1037.5
 21
2484.6
 31
0.0
100
AcDbText
  0
LINE
  5
40C
100
AcDbEntity
  8
寸法
  6
CONTINUOUS
 62
     3
100
AcDbLine
 10
1041.0
 20
2427.0
 30
0.0
 11
1041.0
 21
2517.0
 31
0.0
  0
LINE
  5
40D
100
AcDbEntity
  8
寸法
  6
CONTINUOUS
 62
     3
100
AcDbLine
 10
1036.0
 20
2457.0
 30
0.0
 11
1041.0
 21
2427.0
 31
0.0
  0
LINE
  5
40E
100
AcDbEntity
  8
寸法
  6
CONTINUOUS
 62
     3
100
AcDbLine
 10
1041.0
 20
2427.0
 30
0.0
 11
1046.0
 21
2457.0
 31
0.0
  0
LINE
  5
40F
100
AcDbEntity
  8
寸法
  6
CONTINUOUS
 62
     3
100
AcDbLine
 10
1046.0
 20
2487.0
 30
0.0
 11
1041.0
 21
2517.0
 31
0.0
  0
LINE
  5
410
100
AcDbEntity
  8
寸法
  6
CONTINUOUS
 62
     3
100
AcDbLine
 10
1041.0
 20
2517.0
 30
0.0
 11
1036.0
 21
2487.0
 31
0.0
  0
ENDBLK
  5
411
100
AcDbEntity
  8
0
100
AcDbBlockEnd
  0
BLOCK
  5
414
100
AcDbEntity
  8
0
100
AcDbBlockBegin
  2
*D19
 70
    65
 10
0.0
 20
0.0
 30
0.0
  3
*D19
  1

  0
LINE
  5
415
100
AcDbEntity
  8
寸法
  6
CONTINUOUS
 62
     3
100
AcDbLine
 10
902.0
 20
1405.0
 30
0.0
 11
991.0
 21
1405.0
 31
0.0
  0
TEXT
  5
416
100
AcDbEntity
  8
寸法
  6
CONTINUOUS
 62
     2
100
AcDbText
 10
977.5
 20
1013.0
 30
0.0
 40
40.0
  1
700
 50
90.0
 41
0.84
  7
EXCADSTD
 72
     1
 11
977.5
 21
1055.0
 31
0.0
100
AcDbText
  0
LINE
  5
417
100
AcDbEntity
  8
寸法
  6
CONTINUOUS
 62
     3
100
AcDbLine
 10
981.0
 20
705.0
 30
0.0
 11
981.0
 21
1405.0
 31
0.0
  0
LINE
  5
418
100
AcDbEntity
  8
寸法
  6
CONTINUOUS
 62
     3
100
AcDbLine
 10
976.0
 20
735.0
 30
0.0
 11
981.0
 21
705.0
 31
0.0
  0
LINE
  5
419
100
AcDbEntity
  8
寸法
  6
CONTINUOUS
 62
     3
100
AcDbLine
 10
981.0
 20
705.0
 30
0.0
 11
986.0
 21
735.0
 31
0.0
  0
LINE
  5
41A
100
AcDbEntity
  8
寸法
  6
CONTINUOUS
 62
     3
100
AcDbLine
 10
986.0
 20
1375.0
 30
0.0
 11
981.0
 21
1405.0
 31
0.0
  0
LINE
  5
41B
100
AcDbEntity
  8
寸法
  6
CONTINUOUS
 62
     3
100
AcDbLine
 10
981.0
 20
1405.0
 30
0.0
 11
976.0
 21
1375.0
 31
0.0
  0
ENDBLK
  5
41C
100
AcDbEntity
  8
0
100
AcDbBlockEnd
  0
BLOCK
  5
41F
100
AcDbEntity
  8
0
100
AcDbBlockBegin
  2
*D20
 70
    65
 10
0.0
 20
0.0
 30
0.0
  3
*D20
  1

  0
LINE
  5
420
100
AcDbEntity
  8
寸法
  6
CONTINUOUS
 62
     3
100
AcDbLine
 10
896.0
 20
1785.0
 30
0.0
 11
991.0
 21
1785.0
 31
0.0
  0
TEXT
  5
421
100
AcDbEntity
  8
寸法
  6
CONTINUOUS
 62
     2
100
AcDbText
 10
977.5
 20
1553.0
 30
0.0
 40
40.0
  1
380
 50
90.0
 41
0.84
  7
EXCADSTD
 72
     1
 11
977.5
 21
1595.0
 31
0.0
100
AcDbText
  0
LINE
  5
422
100
AcDbEntity
  8
寸法
  6
CONTINUOUS
 62
     3
100
AcDbLine
 10
981.0
 20
1405.0
 30
0.0
 11
981.0
 21
1785.0
 31
0.0
  0
LINE
  5
423
100
AcDbEntity
  8
寸法
  6
CONTINUOUS
 62
     3
100
AcDbLine
 10
976.0
 20
1435.0
 30
0.0
 11
981.0
 21
1405.0
 31
0.0
  0
LINE
  5
424
100
AcDbEntity
  8
寸法
  6
CONTINUOUS
 62
     3
100
AcDbLine
 10
981.0
 20
1405.0
 30
0.0
 11
986.0
 21
1435.0
 31
0.0
  0
LINE
  5
425
100
AcDbEntity
  8
寸法
  6
CONTINUOUS
 62
     3
100
AcDbLine
 10
986.0
 20
1755.0
 30
0.0
 11
981.0
 21
1785.0
 31
0.0
  0
LINE
  5
426
100
AcDbEntity
  8
寸法
  6
CONTINUOUS
 62
     3
100
AcDbLine
 10
981.0
 20
1785.0
 30
0.0
 11
976.0
 21
1755.0
 31
0.0
  0
ENDBLK
  5
427
100
AcDbEntity
  8
0
100
AcDbBlockEnd
  0
BLOCK
  5
42A
100
AcDbEntity
  8
0
100
AcDbBlockBegin
  2
*D21
 70
    65
 10
0.0
 20
0.0
 30
0.0
  3
*D21
  1

  0
LINE
  5
42B
100
AcDbEntity
  8
寸法
  6
CONTINUOUS
 62
     3
100
AcDbLine
 10
896.0
 20
1785.0
 30
0.0
 11
1051.0
 21
1785.0
 31
0.0
  0
TEXT
  5
42C
100
AcDbEntity
  8
寸法
  6
CONTINUOUS
 62
     2
100
AcDbText
 10
1037.5
 20
1190.4
 30
0.0
 40
40.0
  1
1080
 50
90.0
 41
0.84
  7
EXCADSTD
 72
     1
 11
1037.5
 21
1245.0
 31
0.0
100
AcDbText
  0
LINE
  5
42D
100
AcDbEntity
  8
寸法
  6
CONTINUOUS
 62
     3
100
AcDbLine
 10
1041.0
 20
705.0
 30
0.0
 11
1041.0
 21
1785.0
 31
0.0
  0
LINE
  5
42E
100
AcDbEntity
  8
寸法
  6
CONTINUOUS
 62
     3
100
AcDbLine
 10
1036.0
 20
735.0
 30
0.0
 11
1041.0
 21
705.0
 31
0.0
  0
LINE
  5
42F
100
AcDbEntity
  8
寸法
  6
CONTINUOUS
 62
     3
100
AcDbLine
 10
1041.0
 20
705.0
 30
0.0
 11
1046.0
 21
735.0
 31
0.0
  0
LINE
  5
430
100
AcDbEntity
  8
寸法
  6
CONTINUOUS
 62
     3
100
AcDbLine
 10
1046.0
 20
1755.0
 30
0.0
 11
1041.0
 21
1785.0
 31
0.0
  0
LINE
  5
431
100
AcDbEntity
  8
寸法
  6
CONTINUOUS
 62
     3
100
AcDbLine
 10
1041.0
 20
1785.0
 30
0.0
 11
1036.0
 21
1755.0
 31
0.0
  0
ENDBLK
  5
432
100
AcDbEntity
  8
0
100
AcDbBlockEnd
  0
BLOCK
  5
435
100
AcDbEntity
  8
0
100
AcDbBlockBegin
  2
*D22
 70
    65
 10
0.0
 20
0.0
 30
0.0
  3
*D22
  1

  0
LINE
  5
436
100
AcDbEntity
  8
寸法
  6
CONTINUOUS
 62
     3
100
AcDbLine
 10
605.0
 20
1772.5
 30
0.0
 11
605.0
 21
1848.0
 31
0.0
  0
LINE
  5
437
100
AcDbEntity
  8
寸法
  6
CONTINUOUS
 62
     3
100
AcDbLine
 10
855.0
 20
1772.5
 30
0.0
 11
855.0
 21
1848.0
 31
0.0
  0
TEXT
  5
438
100
AcDbEntity
  8
寸法
  6
CONTINUOUS
 62
     2
100
AcDbText
 10
688.0
 20
1841.5
 30
0.0
 40
40.0
  1
250
 41
0.84
  7
EXCADSTD
 72
     1
 11
730.0
 21
1841.5
 31
0.0
100
AcDbText
  0
LINE
  5
439
100
AcDbEntity
  8
寸法
  6
CONTINUOUS
 62
     3
100
AcDbLine
 10
605.0
 20
1838.0
 30
0.0
 11
855.0
 21
1838.0
 31
0.0
  0
LINE
  5
43A
100
AcDbEntity
  8
寸法
  6
CONTINUOUS
 62
     3
100
AcDbLine
 10
635.0
 20
1843.0
 30
0.0
 11
605.0
 21
1838.0
 31
0.0
  0
LINE
  5
43B
100
AcDbEntity
  8
寸法
  6
CONTINUOUS
 62
     3
100
AcDbLine
 10
605.0
 20
1838.0
 30
0.0
 11
635.0
 21
1833.0
 31
0.0
  0
LINE
  5
43C
100
AcDbEntity
  8
寸法
  6
CONTINUOUS
 62
     3
100
AcDbLine
 10
825.0
 20
1833.0
 30
0.0
 11
855.0
 21
1838.0
 31
0.0
  0
LINE
  5
43D
100
AcDbEntity
  8
寸法
  6
CONTINUOUS
 62
     3
100
AcDbLine
 10
855.0
 20
1838.0
 30
0.0
 11
825.0
 21
1843.0
 31
0.0
  0
ENDBLK
  5
43E
100
AcDbEntity
  8
0
100
AcDbBlockEnd
  0
BLOCK
  5
441
100
AcDbEntity
  8
0
100
AcDbBlockBegin
  2
*D23
 70
    65
 10
0.0
 20
0.0
 30
0.0
  3
*D23
  1

  0
LINE
  5
442
100
AcDbEntity
  8
寸法
  6
CONTINUOUS
 62
     3
100
AcDbLine
 10
565.0
 20
1786.0
 30
0.0
 11
565.0
 21
1908.0
 31
0.0
  0
LINE
  5
443
100
AcDbEntity
  8
寸法
  6
CONTINUOUS
 62
     3
100
AcDbLine
 10
895.0
 20
1786.0
 30
0.0
 11
895.0
 21
1908.0
 31
0.0
  0
TEXT
  5
444
100
AcDbEntity
  8
寸法
  6
CONTINUOUS
 62
     2
100
AcDbText
 10
688.0
 20
1901.5
 30
0.0
 40
40.0
  1
330
 41
0.84
  7
EXCADSTD
 72
     1
 11
730.0
 21
1901.5
 31
0.0
100
AcDbText
  0
LINE
  5
445
100
AcDbEntity
  8
寸法
  6
CONTINUOUS
 62
     3
100
AcDbLine
 10
565.0
 20
1898.0
 30
0.0
 11
895.0
 21
1898.0
 31
0.0
  0
LINE
  5
446
100
AcDbEntity
  8
寸法
  6
CONTINUOUS
 62
     3
100
AcDbLine
 10
595.0
 20
1903.0
 30
0.0
 11
565.0
 21
1898.0
 31
0.0
  0
LINE
  5
447
100
AcDbEntity
  8
寸法
  6
CONTINUOUS
 62
     3
100
AcDbLine
 10
565.0
 20
1898.0
 30
0.0
 11
595.0
 21
1893.0
 31
0.0
  0
LINE
  5
448
100
AcDbEntity
  8
寸法
  6
CONTINUOUS
 62
     3
100
AcDbLine
 10
865.0
 20
1893.0
 30
0.0
 11
895.0
 21
1898.0
 31
0.0
  0
LINE
  5
449
100
AcDbEntity
  8
寸法
  6
CONTINUOUS
 62
     3
100
AcDbLine
 10
895.0
 20
1898.0
 30
0.0
 11
865.0
 21
1903.0
 31
0.0
  0
ENDBLK
  5
44A
100
AcDbEntity
  8
0
100
AcDbBlockEnd
  0
BLOCK
  5
44D
100
AcDbEntity
  8
0
100
AcDbBlockBegin
  2
*D24
 70
    65
 10
0.0
 20
0.0
 30
0.0
  3
*D24
  1

  0
LINE
  5
44E
100
AcDbEntity
  8
寸法
  6
CONTINUOUS
 62
     3
100
AcDbLine
 10
545.5
 20
895.0
 30
0.0
 11
504.0
 21
895.0
 31
0.0
  0
TEXT
  5
44F
100
AcDbEntity
  8
寸法
  6
CONTINUOUS
 62
     2
100
AcDbText
 10
510.5
 20
758.0
 30
0.0
 40
40.0
  1
190
 50
90.0
 41
0.84
  7
EXCADSTD
 72
     1
 11
510.5
 21
800.0
 31
0.0
100
AcDbText
  0
LINE
  5
450
100
AcDbEntity
  8
寸法
  6
CONTINUOUS
 62
     3
100
AcDbLine
 10
514.0
 20
705.0
 30
0.0
 11
514.0
 21
895.0
 31
0.0
  0
LINE
  5
451
100
AcDbEntity
  8
寸法
  6
CONTINUOUS
 62
     3
100
AcDbLine
 10
509.0
 20
735.0
 30
0.0
 11
514.0
 21
705.0
 31
0.0
  0
LINE
  5
452
100
AcDbEntity
  8
寸法
  6
CONTINUOUS
 62
     3
100
AcDbLine
 10
514.0
 20
705.0
 30
0.0
 11
519.0
 21
735.0
 31
0.0
  0
LINE
  5
453
100
AcDbEntity
  8
寸法
  6
CONTINUOUS
 62
     3
100
AcDbLine
 10
519.0
 20
865.0
 30
0.0
 11
514.0
 21
895.0
 31
0.0
  0
LINE
  5
454
100
AcDbEntity
  8
寸法
  6
CONTINUOUS
 62
     3
100
AcDbLine
 10
514.0
 20
895.0
 30
0.0
 11
509.0
 21
865.0
 31
0.0
  0
ENDBLK
  5
455
100
AcDbEntity
  8
0
100
AcDbBlockEnd
  0
BLOCK
  5
458
100
AcDbEntity
  8
0
100
AcDbBlockBegin
  2
*D25
 70
    65
 10
0.0
 20
0.0
 30
0.0
  3
*D25
  1

  0
LINE
  5
459
100
AcDbEntity
  8
寸法
  6
CONTINUOUS
 62
     3
100
AcDbLine
 10
545.5
 20
1285.0
 30
0.0
 11
504.0
 21
1285.0
 31
0.0
  0
TEXT
  5
45A
100
AcDbEntity
  8
寸法
  6
CONTINUOUS
 62
     2
100
AcDbText
 10
510.5
 20
985.0
 30
0.0
 40
40.0
  1
390（壁固定）
 50
90.0
 41
0.84
  7
EXCADSTD
 72
     1
 11
510.5
 21
1090.0
 31
0.0
100
AcDbText
  0
LINE
  5
45B
100
AcDbEntity
  8
寸法
  6
CONTINUOUS
 62
     3
100
AcDbLine
 10
514.0
 20
895.0
 30
0.0
 11
514.0
 21
1285.0
 31
0.0
  0
LINE
  5
45C
100
AcDbEntity
  8
寸法
  6
CONTINUOUS
 62
     3
100
AcDbLine
 10
509.0
 20
925.0
 30
0.0
 11
514.0
 21
895.0
 31
0.0
  0
LINE
  5
45D
100
AcDbEntity
  8
寸法
  6
CONTINUOUS
 62
     3
100
AcDbLine
 10
514.0
 20
895.0
 30
0.0
 11
519.0
 21
925.0
 31
0.0
  0
LINE
  5
45E
100
AcDbEntity
  8
寸法
  6
CONTINUOUS
 62
     3
100
AcDbLine
 10
519.0
 20
1255.0
 30
0.0
 11
514.0
 21
1285.0
 31
0.0
  0
LINE
  5
45F
100
AcDbEntity
  8
寸法
  6
CONTINUOUS
 62
     3
100
AcDbLine
 10
514.0
 20
1285.0
 30
0.0
 11
509.0
 21
1255.0
 31
0.0
  0
ENDBLK
  5
460
100
AcDbEntity
  8
0
100
AcDbBlockEnd
  0
BLOCK
  5
463
100
AcDbEntity
  8
0
100
AcDbBlockBegin
  2
*D26
 70
    65
 10
0.0
 20
0.0
 30
0.0
  3
*D26
  1

  0
LINE
  5
464
100
AcDbEntity
  8
寸法
  6
CONTINUOUS
 62
     3
100
AcDbLine
 10
594.5
 20
1762.0
 30
0.0
 11
444.0
 21
1762.0
 31
0.0
  0
TEXT
  5
465
100
AcDbEntity
  8
寸法
  6
CONTINUOUS
 62
     2
100
AcDbText
 10
450.5
 20
1115.9
 30
0.0
 40
40.0
  1
1057（壁固定）
 50
90.0
 41
0.84
  7
EXCADSTD
 72
     1
 11
450.5
 21
1233.5
 31
0.0
100
AcDbText
  0
LINE
  5
466
100
AcDbEntity
  8
寸法
  6
CONTINUOUS
 62
     3
100
AcDbLine
 10
454.0
 20
705.0
 30
0.0
 11
454.0
 21
1762.0
 31
0.0
  0
LINE
  5
467
100
AcDbEntity
  8
寸法
  6
CONTINUOUS
 62
     3
100
AcDbLine
 10
449.0
 20
735.0
 30
0.0
 11
454.0
 21
705.0
 31
0.0
  0
LINE
  5
468
100
AcDbEntity
  8
寸法
  6
CONTINUOUS
 62
     3
100
AcDbLine
 10
454.0
 20
705.0
 30
0.0
 11
459.0
 21
735.0
 31
0.0
  0
LINE
  5
469
100
AcDbEntity
  8
寸法
  6
CONTINUOUS
 62
     3
100
AcDbLine
 10
459.0
 20
1732.0
 30
0.0
 11
454.0
 21
1762.0
 31
0.0
  0
LINE
  5
46A
100
AcDbEntity
  8
寸法
  6
CONTINUOUS
 62
     3
100
AcDbLine
 10
454.0
 20
1762.0
 30
0.0
 11
449.0
 21
1732.0
 31
0.0
  0
ENDBLK
  5
46B
100
AcDbEntity
  8
0
100
AcDbBlockEnd
  0
BLOCK
  5
477
100
AcDbEntity
  8
0
100
AcDbBlockBegin
  2
*D27
 70
    65
 10
0.0
 20
0.0
 30
0.0
  3
*D27
  1

  0
LINE
  5
478
100
AcDbEntity
  8
寸法
  6
CONTINUOUS
 62
     3
100
AcDbLine
 10
587.5
 20
698.0
 30
0.0
 11
587.5
 21
526.0
 31
0.0
  0
LINE
  5
479
100
AcDbEntity
  8
寸法
  6
CONTINUOUS
 62
     3
100
AcDbLine
 10
872.5
 20
698.0
 30
0.0
 11
872.5
 21
526.0
 31
0.0
  0
TEXT
  5
47A
100
AcDbEntity
  8
寸法
  6
CONTINUOUS
 62
     2
100
AcDbText
 10
616.0
 20
539.5
 30
0.0
 40
40.0
  1
285
 41
0.84
  7
EXCADSTD
 72
     1
 11
658.0
 21
539.5
 31
0.0
100
AcDbText
  0
LINE
  5
47B
100
AcDbEntity
  8
寸法
  6
CONTINUOUS
 62
     3
100
AcDbLine
 10
587.5
 20
536.0
 30
0.0
 11
872.5
 21
536.0
 31
0.0
  0
LINE
  5
47C
100
AcDbEntity
  8
寸法
  6
CONTINUOUS
 62
     3
100
AcDbLine
 10
617.5
 20
541.0
 30
0.0
 11
587.5
 21
536.0
 31
0.0
  0
LINE
  5
47D
100
AcDbEntity
  8
寸法
  6
CONTINUOUS
 62
     3
100
AcDbLine
 10
587.5
 20
536.0
 30
0.0
 11
617.5
 21
531.0
 31
0.0
  0
LINE
  5
47E
100
AcDbEntity
  8
寸法
  6
CONTINUOUS
 62
     3
100
AcDbLine
 10
842.5
 20
531.0
 30
0.0
 11
872.5
 21
536.0
 31
0.0
  0
LINE
  5
47F
100
AcDbEntity
  8
寸法
  6
CONTINUOUS
 62
     3
100
AcDbLine
 10
872.5
 20
536.0
 30
0.0
 11
842.5
 21
541.0
 31
0.0
  0
ENDBLK
  5
480
100
AcDbEntity
  8
0
100
AcDbBlockEnd
  0
BLOCK
  5
483
100
AcDbEntity
  8
0
100
AcDbBlockBegin
  2
*D28
 70
    65
 10
0.0
 20
0.0
 30
0.0
  3
*D28
  1

  0
LINE
  5
484
100
AcDbEntity
  8
寸法
  6
CONTINUOUS
 62
     3
100
AcDbLine
 10
872.5
 20
698.0
 30
0.0
 11
872.5
 21
526.0
 31
0.0
  0
LINE
  5
485
100
AcDbEntity
  8
寸法
  6
CONTINUOUS
 62
     3
100
AcDbLine
 10
887.5
 20
698.0
 30
0.0
 11
887.5
 21
526.0
 31
0.0
  0
TEXT
  5
486
100
AcDbEntity
  8
寸法
  6
CONTINUOUS
 62
     2
100
AcDbText
 10
923.1
 20
539.5
 30
0.0
 40
40.0
  1
15
 41
0.84
  7
EXCADSTD
 72
     1
 11
952.5
 21
539.5
 31
0.0
100
AcDbText
  0
LINE
  5
487
100
AcDbEntity
  8
寸法
  6
CONTINUOUS
 62
     3
100
AcDbLine
 10
842.5
 20
536.0
 30
0.0
 11
991.000004
 21
536.0
 31
0.0
  0
LINE
  5
488
100
AcDbEntity
  8
寸法
  6
CONTINUOUS
 62
     3
100
AcDbLine
 10
842.5
 20
531.0
 30
0.0
 11
872.5
 21
536.0
 31
0.0
  0
LINE
  5
489
100
AcDbEntity
  8
寸法
  6
CONTINUOUS
 62
     3
100
AcDbLine
 10
872.5
 20
536.0
 30
0.0
 11
842.5
 21
541.0
 31
0.0
  0
LINE
  5
48A
100
AcDbEntity
  8
寸法
  6
CONTINUOUS
 62
     3
100
AcDbLine
 10
917.5
 20
541.0
 30
0.0
 11
887.5
 21
536.0
 31
0.0
  0
LINE
  5
48B
100
AcDbEntity
  8
寸法
  6
CONTINUOUS
 62
     3
100
AcDbLine
 10
887.5
 20
536.0
 30
0.0
 11
917.5
 21
531.0
 31
0.0
  0
ENDBLK
  5
48C
100
AcDbEntity
  8
0
100
AcDbBlockEnd
  0
BLOCK
  5
48F
100
AcDbEntity
  8
0
100
AcDbBlockBegin
  2
*D29
 70
    65
 10
0.0
 20
0.0
 30
0.0
  3
*D29
  1

  0
LINE
  5
490
100
AcDbEntity
  8
寸法
  6
CONTINUOUS
 62
     3
100
AcDbLine
 10
572.5
 20
698.0
 30
0.0
 11
572.5
 21
526.0
 31
0.0
  0
LINE
  5
491
100
AcDbEntity
  8
寸法
  6
CONTINUOUS
 62
     3
100
AcDbLine
 10
587.5
 20
698.0
 30
0.0
 11
587.5
 21
526.0
 31
0.0
  0
TEXT
  5
492
100
AcDbEntity
  8
寸法
  6
CONTINUOUS
 62
     2
100
AcDbText
 10
478.1
 20
539.5
 30
0.0
 40
40.0
  1
15
 41
0.84
  7
EXCADSTD
 72
     1
 11
507.5
 21
539.5
 31
0.0
100
AcDbText
  0
LINE
  5
493
100
AcDbEntity
  8
寸法
  6
CONTINUOUS
 62
     3
100
AcDbLine
 10
468.999996
 20
536.0
 30
0.0
 11
617.5
 21
536.0
 31
0.0
  0
LINE
  5
494
100
AcDbEntity
  8
寸法
  6
CONTINUOUS
 62
     3
100
AcDbLine
 10
542.5
 20
531.0
 30
0.0
 11
572.5
 21
536.0
 31
0.0
  0
LINE
  5
495
100
AcDbEntity
  8
寸法
  6
CONTINUOUS
 62
     3
100
AcDbLine
 10
572.5
 20
536.0
 30
0.0
 11
542.5
 21
541.0
 31
0.0
  0
LINE
  5
496
100
AcDbEntity
  8
寸法
  6
CONTINUOUS
 62
     3
100
AcDbLine
 10
617.5
 20
541.0
 30
0.0
 11
587.5
 21
536.0
 31
0.0
  0
LINE
  5
497
100
AcDbEntity
  8
寸法
  6
CONTINUOUS
 62
     3
100
AcDbLine
 10
587.5
 20
536.0
 30
0.0
 11
617.5
 21
531.0
 31
0.0
  0
ENDBLK
  5
498
100
AcDbEntity
  8
0
100
AcDbBlockEnd
  0
BLOCK
  5
4B2
100
AcDbEntity
  8
0
100
AcDbBlockBegin
  2
*D30
 70
    65
 10
0.0
 20
0.0
 30
0.0
  3
*D30
  1

  0
LINE
  5
4B3
100
AcDbEntity
  8
寸法
  6
CONTINUOUS
 62
     3
100
AcDbLine
 10
1757.0
 20
1745.0
 30
0.0
 11
1850.0
 21
1745.0
 31
0.0
  0
LINE
  5
4B4
100
AcDbEntity
  8
寸法
  6
CONTINUOUS
 62
     3
100
AcDbLine
 10
1757.0
 20
1790.0
 30
0.0
 11
1850.0
 21
1790.0
 31
0.0
  0
TEXT
  5
4B5
100
AcDbEntity
  8
寸法
  6
CONTINUOUS
 62
     2
100
AcDbText
 10
1836.5
 20
1830.4
 30
0.0
 40
40.0
  1
45以上
 50
90.0
 41
0.84
  7
EXCADSTD
 72
     1
 11
1836.5
 21
1885.0
 31
0.0
100
AcDbText
  0
LINE
  5
4B6
100
AcDbEntity
  8
寸法
  6
CONTINUOUS
 62
     3
100
AcDbLine
 10
1840.0
 20
1715.0
 30
0.0
 11
1840.0
 21
1953.500004
 31
0.0
  0
LINE
  5
4B7
100
AcDbEntity
  8
寸法
  6
CONTINUOUS
 62
     3
100
AcDbLine
 10
1845.0
 20
1715.0
 30
0.0
 11
1840.0
 21
1745.0
 31
0.0
  0
LINE
  5
4B8
100
AcDbEntity
  8
寸法
  6
CONTINUOUS
 62
     3
100
AcDbLine
 10
1840.0
 20
1745.0
 30
0.0
 11
1835.0
 21
1715.0
 31
0.0
  0
LINE
  5
4B9
100
AcDbEntity
  8
寸法
  6
CONTINUOUS
 62
     3
100
AcDbLine
 10
1835.0
 20
1820.0
 30
0.0
 11
1840.0
 21
1790.0
 31
0.0
  0
LINE
  5
4BA
100
AcDbEntity
  8
寸法
  6
CONTINUOUS
 62
     3
100
AcDbLine
 10
1840.0
 20
1790.0
 30
0.0
 11
1845.0
 21
1820.0
 31
0.0
  0
ENDBLK
  5
4BB
100
AcDbEntity
  8
0
100
AcDbBlockEnd
  0
BLOCK
  5
4BE
100
AcDbEntity
  8
0
100
AcDbBlockBegin
  2
*D31
 70
    65
 10
0.0
 20
0.0
 30
0.0
  3
*D31
  1

  0
LINE
  5
4BF
100
AcDbEntity
  8
寸法
  6
CONTINUOUS
 62
     3
100
AcDbLine
 10
545.5
 20
2535.0
 30
0.0
 11
495.5
 21
2535.0
 31
0.0
  0
TEXT
  5
4C0
100
AcDbEntity
  8
寸法
  6
CONTINUOUS
 62
     2
100
AcDbText
 10
502.0
 20
2460.6
 30
0.0
 40
40.0
  1
90
 50
90.0
 41
0.84
  7
EXCADSTD
 72
     1
 11
502.0
 21
2490.0
 31
0.0
100
AcDbText
  0
LINE
  5
4C1
100
AcDbEntity
  8
寸法
  6
CONTINUOUS
 62
     3
100
AcDbLine
 10
505.5
 20
2445.0
 30
0.0
 11
505.5
 21
2535.0
 31
0.0
  0
LINE
  5
4C2
100
AcDbEntity
  8
寸法
  6
CONTINUOUS
 62
     3
100
AcDbLine
 10
500.5
 20
2475.0
 30
0.0
 11
505.5
 21
2445.0
 31
0.0
  0
LINE
  5
4C3
100
AcDbEntity
  8
寸法
  6
CONTINUOUS
 62
     3
100
AcDbLine
 10
505.5
 20
2445.0
 30
0.0
 11
510.5
 21
2475.0
 31
0.0
  0
LINE
  5
4C4
100
AcDbEntity
  8
寸法
  6
CONTINUOUS
 62
     3
100
AcDbLine
 10
510.5
 20
2505.0
 30
0.0
 11
505.5
 21
2535.0
 31
0.0
  0
LINE
  5
4C5
100
AcDbEntity
  8
寸法
  6
CONTINUOUS
 62
     3
100
AcDbLine
 10
505.5
 20
2535.0
 30
0.0
 11
500.5
 21
2505.0
 31
0.0
  0
ENDBLK
  5
4C6
100
AcDbEntity
  8
0
100
AcDbBlockEnd
  0
BLOCK
  5
4C9
100
AcDbEntity
  8
0
100
AcDbBlockBegin
  2
*D32
 70
    65
 10
0.0
 20
0.0
 30
0.0
  3
*D32
  1

  0
LINE
  5
4CA
100
AcDbEntity
  8
寸法
  6
CONTINUOUS
 62
     3
100
AcDbLine
 10
1642.0
 20
698.0
 30
0.0
 11
1642.0
 21
466.0
 31
0.0
  0
LINE
  5
4CB
100
AcDbEntity
  8
寸法
  6
CONTINUOUS
 62
     3
100
AcDbLine
 10
1682.0
 20
883.3
 30
0.0
 11
1682.0
 21
466.0
 31
0.0
  0
TEXT
  5
4CC
100
AcDbEntity
  8
寸法
  6
CONTINUOUS
 62
     2
100
AcDbText
 10
1409.6
 20
479.5
 30
0.0
 40
40.0
  1
40（壁固定）
 41
0.84
  7
EXCADSTD
 72
     1
 11
1502.0
 21
479.5
 31
0.0
100
AcDbText
  0
LINE
  5
4CD
100
AcDbEntity
  8
寸法
  6
CONTINUOUS
 62
     3
100
AcDbLine
 10
1388.499996
 20
476.0
 30
0.0
 11
1712.0
 21
476.0
 31
0.0
  0
LINE
  5
4CE
100
AcDbEntity
  8
寸法
  6
CONTINUOUS
 62
     3
100
AcDbLine
 10
1612.0
 20
471.0
 30
0.0
 11
1642.0
 21
476.0
 31
0.0
  0
LINE
  5
4CF
100
AcDbEntity
  8
寸法
  6
CONTINUOUS
 62
     3
100
AcDbLine
 10
1642.0
 20
476.0
 30
0.0
 11
1612.0
 21
481.0
 31
0.0
  0
LINE
  5
4D0
100
AcDbEntity
  8
寸法
  6
CONTINUOUS
 62
     3
100
AcDbLine
 10
1712.0
 20
481.0
 30
0.0
 11
1682.0
 21
476.0
 31
0.0
  0
LINE
  5
4D1
100
AcDbEntity
  8
寸法
  6
CONTINUOUS
 62
     3
100
AcDbLine
 10
1682.0
 20
476.0
 30
0.0
 11
1712.0
 21
471.0
 31
0.0
  0
ENDBLK
  5
4D2
100
AcDbEntity
  8
0
100
AcDbBlockEnd
  0
ENDSEC
  0
SECTION
  2
ENTITIES
  0
LINE
  5
89
100
AcDbEntity
  8
枠・表
  6
CONTINUOUS
 62
     7
100
AcDbLine
 10
2000.0
 20
135.0
 30
0.0
 11
2000.0
 21
2885.0
 31
0.0
  0
LINE
  5
8A
100
AcDbEntity
  8
枠・表
  6
CONTINUOUS
 62
     7
100
AcDbLine
 10
180.0
 20
135.0
 30
0.0
 11
180.0
 21
2885.0
 31
0.0
  0
LINE
  5
8B
100
AcDbEntity
  8
枠・表
  6
CONTINUOUS
 62
     7
100
AcDbLine
 10
180.0
 20
2885.0
 30
0.0
 11
2000.0
 21
2885.0
 31
0.0
  0
TEXT
  5
8C
100
AcDbEntity
  8
枠・表
  6
CONTINUOUS
 62
     2
100
AcDbText
 10
1890.537109
 20
302.722778
 30
0.0
 40
30.0
  1
１
 41
0.826
  7
EXCADSTD
 72
     5
 11
1914.13711
 21
302.722778
 31
0.0
100
AcDbText
  0
TEXT
  5
8D
100
AcDbEntity
  8
枠・表
  6
CONTINUOUS
 62
     2
100
AcDbText
 10
202.5
 20
308.75
 30
0.0
 40
42.5
  1
製図
 41
1.087059
  7
EXCADSTD
 72
     5
 11
303.326
 21
308.75
 31
0.0
100
AcDbText
  0
TEXT
  5
8E
100
AcDbEntity
  8
枠・表
  6
CONTINUOUS
 62
     2
100
AcDbText
 10
357.5
 20
308.75
 30
0.0
 40
42.5
  1
写図
 41
1.087059
  7
EXCADSTD
 72
     5
 11
458.326
 21
308.75
 31
0.0
100
AcDbText
  0
TEXT
  5
8F
100
AcDbEntity
  8
枠・表
  6
CONTINUOUS
 62
     2
100
AcDbText
 10
507.5
 20
308.75
 30
0.0
 40
42.5
  1
検図
 41
0.938824
  7
EXCADSTD
 72
     5
 11
594.577
 21
308.75
 31
0.0
100
AcDbText
  0
TEXT
  5
90
100
AcDbEntity
  8
枠・表
  6
CONTINUOUS
 62
     2
100
AcDbText
 10
637.5
 20
308.75
 30
0.0
 40
42.5
  1
承認
 41
0.938824
  7
EXCADSTD
 72
     5
 11
724.577
 21
308.75
 31
0.0
100
AcDbText
  0
TEXT
  5
91
100
AcDbEntity
  8
枠・表
  6
CONTINUOUS
 62
     2
100
AcDbText
 10
755.75
 20
298.75
 30
0.0
 40
42.5
  1
品
 41
0.84
  7
EXCADSTD
 72
     5
 11
789.75
 21
298.75
 31
0.0
100
AcDbText
  0
TEXT
  5
92
100
AcDbEntity
  8
枠・表
  6
CONTINUOUS
 62
     2
100
AcDbText
 10
755.75
 20
248.75
 30
0.0
 40
42.5
  1
名
 41
0.84
  7
EXCADSTD
 72
     5
 11
789.75
 21
248.75
 31
0.0
100
AcDbText
  0
TEXT
  5
93
100
AcDbEntity
  8
枠・表
  6
CONTINUOUS
 62
     2
100
AcDbText
 10
1395.75
 20
298.75
 30
0.0
 40
42.5
  1
品
 41
0.84
  7
EXCADSTD
 72
     5
 11
1429.75
 21
298.75
 31
0.0
100
AcDbText
  0
TEXT
  5
94
100
AcDbEntity
  8
枠・表
  6
CONTINUOUS
 62
     2
100
AcDbText
 10
1395.75
 20
248.75
 30
0.0
 40
42.5
  1
番
 41
0.84
  7
EXCADSTD
 72
     5
 11
1429.75
 21
248.75
 31
0.0
100
AcDbText
  0
TEXT
  5
95
100
AcDbEntity
  8
枠・表
  6
CONTINUOUS
 62
     2
100
AcDbText
 10
1816.75
 20
298.75
 30
0.0
 40
42.5
  1
尺
 41
0.84
  7
EXCADSTD
 72
     5
 11
1850.75
 21
298.75
 31
0.0
100
AcDbText
  0
TEXT
  5
96
100
AcDbEntity
  8
枠・表
  6
CONTINUOUS
 62
     2
100
AcDbText
 10
1816.75
 20
248.75
 30
0.0
 40
42.5
  1
度
 41
0.84
  7
EXCADSTD
 72
     5
 11
1850.75
 21
248.75
 31
0.0
100
AcDbText
  0
TEXT
  5
97
100
AcDbEntity
  8
枠・表
  6
CONTINUOUS
 62
     2
100
AcDbText
 10
1395.75
 20
185.75
 30
0.0
 40
42.5
  1
図
 41
0.84
  7
EXCADSTD
 72
     5
 11
1429.75
 21
185.75
 31
0.0
100
AcDbText
  0
TEXT
  5
98
100
AcDbEntity
  8
枠・表
  6
CONTINUOUS
 62
     2
100
AcDbText
 10
1395.75
 20
142.75
 30
0.0
 40
42.5
  1
番
 41
0.84
  7
EXCADSTD
 72
     5
 11
1429.75
 21
142.75
 31
0.0
100
AcDbText
  0
TEXT
  5
99
100
AcDbEntity
  8
枠・表
  6
CONTINUOUS
 62
     2
100
AcDbText
 10
1931.279297
 20
258.348846
 30
0.0
 40
30.0
  1
１０
 41
0.791
  7
EXCADSTD
 72
     5
 11
1983.067198
 21
258.348846
 31
0.0
100
AcDbText
  0
LINE
  5
9A
100
AcDbEntity
  8
枠・表
  6
CONTINUOUS
 62
     7
100
AcDbLine
 10
180.0
 20
135.0
 30
0.0
 11
2000.0
 21
135.0
 31
0.0
  0
LINE
  5
9B
100
AcDbEntity
  8
枠・表
  6
CONTINUOUS
 62
     7
100
AcDbLine
 10
180.0
 20
355.0
 30
0.0
 11
2000.0
 21
355.0
 31
0.0
  0
LINE
  5
9C
100
AcDbEntity
  8
枠・表
  6
CONTINUOUS
 62
     6
100
AcDbLine
 10
2000.0
 20
235.0
 30
0.0
 11
750.0
 21
235.0
 31
0.0
  0
LINE
  5
9D
100
AcDbEntity
  8
枠・表
  6
CONTINUOUS
 62
     6
100
AcDbLine
 10
1860.0
 20
355.0
 30
0.0
 11
1860.0
 21
235.0
 31
0.0
  0
LINE
  5
9E
100
AcDbEntity
  8
枠・表
  6
CONTINUOUS
 62
     6
100
AcDbLine
 10
1810.0
 20
355.0
 30
0.0
 11
1810.0
 21
235.0
 31
0.0
  0
LINE
  5
9F
100
AcDbEntity
  8
枠・表
  6
CONTINUOUS
 62
     6
100
AcDbLine
 10
1440.0
 20
355.0
 30
0.0
 11
1440.0
 21
135.0
 31
0.0
  0
LINE
  5
A0
100
AcDbEntity
  8
枠・表
  6
CONTINUOUS
 62
     6
100
AcDbLine
 10
1390.0
 20
355.0
 30
0.0
 11
1390.0
 21
135.0
 31
0.0
  0
LINE
  5
A1
100
AcDbEntity
  8
枠・表
  6
CONTINUOUS
 62
     6
100
AcDbLine
 10
800.0
 20
355.0
 30
0.0
 11
800.0
 21
235.0
 31
0.0
  0
LINE
  5
A2
100
AcDbEntity
  8
枠・表
  6
CONTINUOUS
 62
     6
100
AcDbLine
 10
750.0
 20
355.0
 30
0.0
 11
750.0
 21
135.0
 31
0.0
  0
LINE
  5
A3
100
AcDbEntity
  8
枠・表
  6
CONTINUOUS
 62
     6
100
AcDbLine
 10
620.0
 20
355.0
 30
0.0
 11
620.0
 21
135.0
 31
0.0
  0
LINE
  5
A4
100
AcDbEntity
  8
枠・表
  6
CONTINUOUS
 62
     6
100
AcDbLine
 10
490.0
 20
355.0
 30
0.0
 11
490.0
 21
135.0
 31
0.0
  0
LINE
  5
A5
100
AcDbEntity
  8
枠・表
  6
CONTINUOUS
 62
     6
100
AcDbLine
 10
335.0
 20
355.0
 30
0.0
 11
335.0
 21
135.0
 31
0.0
  0
LINE
  5
A6
100
AcDbEntity
  8
枠・表
  6
CONTINUOUS
 62
     6
100
AcDbLine
 10
180.0
 20
305.0
 30
0.0
 11
750.0
 21
305.0
 31
0.0
  0
LINE
  5
A7
100
AcDbEntity
  8
枠・表
  6
CONTINUOUS
 62
     6
100
AcDbLine
 10
1892.653809
 20
258.00293
 30
0.0
 11
1969.993897
 21
336.699829
 31
0.0
  0
CIRCLE
  5
A8
100
AcDbEntity
  8
枠・表
  6
CONTINUOUS
 62
     6
100
AcDbCircle
 10
230.0
 20
160.0
 30
0.0
 40
1.0
  0
CIRCLE
  5
A9
100
AcDbEntity
  8
枠・表
  6
CONTINUOUS
 62
     6
100
AcDbCircle
 10
280.0
 20
160.0
 30
0.0
 40
1.0
  0
CIRCLE
  5
AA
100
AcDbEntity
  8
枠・表
  6
CONTINUOUS
 62
     6
100
AcDbCircle
 10
385.0
 20
160.0
 30
0.0
 40
1.0
  0
CIRCLE
  5
AB
100
AcDbEntity
  8
枠・表
  6
CONTINUOUS
 62
     6
100
AcDbCircle
 10
435.0
 20
160.0
 30
0.0
 40
1.0
  0
LINE
  5
AC
100
AcDbEntity
  8
枠・表
  6
EXLTYPE2
 62
     6
100
AcDbLine
 10
180.0
 20
185.0
 30
0.0
 11
490.0
 21
185.0
 31
0.0
  0
TEXT
  5
AD
100
AcDbEntity
  8
枠・表
  6
CONTINUOUS
 62
     7
100
AcDbText
 10
770.0
 20
155.0
 30
0.0
 40
60.0
  1
ジャニス工業株式会社
 41
0.84
  7
EXCADSTD
 72
     5
 11
1370.0
 21
155.0
 31
0.0
100
AcDbText
  0
TEXT
  5
AE
100
AcDbEntity
  8
枠・表
  6
CONTINUOUS
 62
     2
100
AcDbText
 10
184.5
 20
140.0
 30
0.0
 40
40.0
  1
14
 41
0.5
  7
EXCADSTD
 72
     5
 11
216.5
 21
140.0
 31
0.0
100
AcDbText
  0
TEXT
  5
AF
100
AcDbEntity
  8
枠・表
  6
CONTINUOUS
 62
     2
100
AcDbText
 10
207.5
 20
220.0
 30
0.0
 40
50.0
  1
中村
 41
0.882
  7
EXCADSTD
 72
     5
 11
303.743
 21
220.0
 31
0.0
100
AcDbText
  0
TEXT
  5
B0
100
AcDbEntity
  8
枠・表
  6
CONTINUOUS
 62
     2
100
AcDbText
 10
810.0
 20
295.0
 30
0.0
 40
50.0
  1
330㎜幅
 41
0.72072
  7
EXCADSTD
 72
     5
 11
1002.5
 21
295.0
 31
0.0
100
AcDbText
  0
TEXT
  5
B1
100
AcDbEntity
  8
枠・表
  6
CONTINUOUS
 62
     2
100
AcDbText
 10
810.0
 20
245.0
 30
0.0
 40
50.0
  1
  埋込手洗キャビ
 41
0.856099
  7
EXCADSTD
 72
     5
 11
1250.0
 21
245.0
 31
0.0
100
AcDbText
  0
TEXT
  5
B2
100
AcDbEntity
  8
枠・表
  6
CONTINUOUS
 62
     7
100
AcDbText
 10
1452.000002
 20
151.5
 30
0.0
 40
70.0
  1
ＬＵ７１７５５０
 41
0.804
  7
EXCADSTD
 72
     5
 11
1987.999998
 21
151.5
 31
0.0
100
AcDbText
  0
TEXT
  5
B3
100
AcDbEntity
  8
枠・表
  6
CONTINUOUS
 62
     2
100
AcDbText
 10
1450.0
 20
270.0
 30
0.0
 40
50.0
  1
ＬＴＣＭ３３０Ｒ－０(色)
 41
0.415015
  7
EXCADSTD
 72
     5
 11
1761.999989
 21
270.0
 31
0.0
100
AcDbText
  0
TEXT
  5
B4
100
AcDbEntity
  8
枠・表
  6
CONTINUOUS
 62
     2
100
AcDbText
 10
243.75
 20
140.0
 30
0.0
 40
40.0
  1
6
 41
0.5625
  7
EXCADSTD
 72
     5
 11
258.375
 21
140.0
 31
0.0
100
AcDbText
  0
TEXT
  5
B5
100
AcDbEntity
  8
枠・表
  6
CONTINUOUS
 62
     2
100
AcDbText
 10
296.75
 20
140.0
 30
0.0
 40
40.0
  1
9
 41
0.5625
  7
EXCADSTD
 72
     5
 11
311.375
 21
140.0
 31
0.0
100
AcDbText
  0
CIRCLE
  5
B6
100
AcDbEntity
  8
洗面器
  6
EXLTYPE2
 62
     6
100
AcDbCircle
 10
855.0
 20
1762.0
 30
0.0
 40
3.5
  0
CIRCLE
  5
B7
100
AcDbEntity
  8
洗面器
  6
EXLTYPE2
 62
     6
100
AcDbCircle
 10
605.0
 20
1762.0
 30
0.0
 40
3.5
  0
ARC
  5
B8
100
AcDbEntity
  8
洗面器
  6
CONTINUOUS
 62
     6
100
AcDbCircle
 10
640.0
 20
1590.0
 30
0.0
 40
50.0
100
AcDbArc
 50
90.0
 51
126.869898
  0
LINE
  5
B9
100
AcDbEntity
  8
洗面器
  6
CONTINUOUS
 62
     6
100
AcDbLine
 10
820.0
 20
1640.0
 30
0.0
 11
640.0
 21
1640.0
 31
0.0
  0
ARC
  5
BA
100
AcDbEntity
  8
洗面器
  6
CONTINUOUS
 62
     6
100
AcDbCircle
 10
820.0
 20
1590.0
 30
0.0
 40
50.0
100
AcDbArc
 50
53.130102
 51
90.0
  0
ARC
  5
BB
100
AcDbEntity
  8
洗面器
  6
CONTINUOUS
 62
     6
100
AcDbCircle
 10
748.447542
 20
2217.0
 30
0.0
 40
500.0
100
AcDbArc
 50
270.0
 51
283.341127
  0
ARC
  5
BC
100
AcDbEntity
  8
洗面器
  6
CONTINUOUS
 62
     6
100
AcDbCircle
 10
711.552458
 20
2217.0
 30
0.0
 40
500.0
100
AcDbArc
 50
256.658873
 51
270.0
  0
LINE
  5
BD
100
AcDbEntity
  8
洗面器
  6
CONTINUOUS
 62
     6
100
AcDbLine
 10
748.447542
 20
1717.0
 30
0.0
 11
711.552458
 21
1717.0
 31
0.0
  0
ARC
  5
BE
100
AcDbEntity
  8
洗面器
  6
CONTINUOUS
 62
     4
100
AcDbCircle
 10
571.0
 20
1779.0
 30
0.0
 40
6.0
100
AcDbArc
 50
90.0
 51
180.0
  0
LINE
  5
BF
100
AcDbEntity
  8
洗面器
  6
CONTINUOUS
 62
     4
100
AcDbLine
 10
565.0
 20
1405.0
 30
0.0
 11
565.0
 21
1779.0
 31
0.0
  0
ARC
  5
C0
100
AcDbEntity
  8
洗面器
  6
CONTINUOUS
 62
     4
100
AcDbCircle
 10
576.0
 20
1776.0
 30
0.0
 40
6.0
100
AcDbArc
 50
90.0
 51
180.0
  0
ARC
  5
C1
100
AcDbEntity
  8
洗面器
  6
CONTINUOUS
 62
     4
100
AcDbCircle
 10
602.0
 20
1720.0
 30
0.0
 40
12.0
100
AcDbArc
 50
90.0
 51
180.0
  0
ARC
  5
C2
100
AcDbEntity
  8
洗面器
  6
CONTINUOUS
 62
     4
100
AcDbCircle
 10
610.0
 20
1573.008227
 30
0.0
 40
40.0
100
AcDbArc
 50
180.0
 51
257.626375
  0
LINE
  5
C3
100
AcDbEntity
  8
洗面器
  6
CONTINUOUS
 62
     4
100
AcDbLine
 10
570.0
 20
1573.008227
 30
0.0
 11
570.0
 21
1776.0
 31
0.0
  0
ARC
  5
C4
100
AcDbEntity
  8
洗面器
  6
CONTINUOUS
 62
     4
100
AcDbCircle
 10
620.0
 20
1574.107769
 30
0.0
 40
30.0
100
AcDbArc
 50
180.0
 51
245.957924
  0
LINE
  5
C5
100
AcDbEntity
  8
洗面器
  6
CONTINUOUS
 62
     4
100
AcDbLine
 10
590.0
 20
1720.0
 30
0.0
 11
590.0
 21
1574.107769
 31
0.0
  0
ARC
  5
C6
100
AcDbEntity
  8
洗面器
  6
CONTINUOUS
 62
     4
100
AcDbCircle
 10
889.0
 20
1779.0
 30
0.0
 40
6.0
100
AcDbArc
 50
0.0
 51
90.0
  0
LINE
  5
C7
100
AcDbEntity
  8
洗面器
  6
CONTINUOUS
 62
     4
100
AcDbLine
 10
895.0
 20
1405.0
 30
0.0
 11
895.0
 21
1779.0
 31
0.0
  0
ARC
  5
C8
100
AcDbEntity
  8
洗面器
  6
CONTINUOUS
 62
     4
100
AcDbCircle
 10
884.0
 20
1776.0
 30
0.0
 40
6.0
100
AcDbArc
 50
0.0
 51
90.0
  0
ARC
  5
C9
100
AcDbEntity
  8
洗面器
  6
CONTINUOUS
 62
     4
100
AcDbCircle
 10
858.0
 20
1720.0
 30
0.0
 40
12.0
100
AcDbArc
 50
0.0
 51
90.0
  0
ARC
  5
CA
100
AcDbEntity
  8
洗面器
  6
CONTINUOUS
 62
     4
100
AcDbCircle
 10
850.0
 20
1573.008227
 30
0.0
 40
40.0
100
AcDbArc
 50
282.373625
 51
0.0
  0
LINE
  5
CB
100
AcDbEntity
  8
洗面器
  6
CONTINUOUS
 62
     4
100
AcDbLine
 10
890.0
 20
1573.008227
 30
0.0
 11
890.0
 21
1776.0
 31
0.0
  0
ARC
  5
CC
100
AcDbEntity
  8
洗面器
  6
CONTINUOUS
 62
     4
100
AcDbCircle
 10
840.0
 20
1574.107769
 30
0.0
 40
30.0
100
AcDbArc
 50
294.042076
 51
0.0
  0
LINE
  5
CD
100
AcDbEntity
  8
洗面器
  6
CONTINUOUS
 62
     4
100
AcDbLine
 10
870.0
 20
1720.0
 30
0.0
 11
870.0
 21
1574.107769
 31
0.0
  0
LINE
  5
CE
100
AcDbEntity
  8
洗面器
  6
CONTINUOUS
 62
     4
100
AcDbLine
 10
571.0
 20
1785.0
 30
0.0
 11
889.0
 21
1785.0
 31
0.0
  0
LINE
  5
CF
100
AcDbEntity
  8
洗面器
  6
CONTINUOUS
 62
     4
100
AcDbLine
 10
884.0
 20
1782.0
 30
0.0
 11
576.0
 21
1782.0
 31
0.0
  0
LINE
  5
D0
100
AcDbEntity
  8
洗面器
  6
CONTINUOUS
 62
     4
100
AcDbLine
 10
602.0
 20
1732.0
 30
0.0
 11
858.0
 21
1732.0
 31
0.0
  0
ARC
  5
D1
100
AcDbEntity
  8
洗面器
  6
CONTINUOUS
 62
     4
100
AcDbCircle
 10
730.0
 20
1820.684329
 30
0.0
 40
300.0
100
AcDbArc
 50
245.957924
 51
294.042076
  0
ARC
  5
D2
100
AcDbEntity
  8
洗面器
  6
CONTINUOUS
 62
     4
100
AcDbCircle
 10
730.0
 20
2120.0
 30
0.0
 40
600.0
100
AcDbArc
 50
257.626375
 51
282.373625
  0
LINE
  5
D3
100
AcDbEntity
  8
洗面器
  6
CONTINUOUS
 62
     4
100
AcDbLine
 10
895.0
 20
1405.0
 30
0.0
 11
565.0
 21
1405.0
 31
0.0
  0
LINE
  5
D4
100
AcDbEntity
  8
洗面器
  6
EXLTYPE3
 62
     6
100
AcDbLine
 10
730.0
 20
1790.0
 30
0.0
 11
730.0
 21
684.999998
 31
0.0
  0
ARC
  5
D5
100
AcDbEntity
  8
洗面器
  6
EXLTYPE2
 62
     6
100
AcDbCircle
 10
636.172178
 20
1395.0
 30
0.0
 40
10.0
100
AcDbArc
 50
7.125016
 51
90.0
  0
LINE
  5
D6
100
AcDbEntity
  8
洗面器
  6
EXLTYPE2
 62
     6
100
AcDbLine
 10
646.094957
 20
1396.240347
 30
0.0
 11
648.686052
 21
1375.511583
 31
0.0
  0
ARC
  5
D7
100
AcDbEntity
  8
洗面器
  6
EXLTYPE2
 62
     6
100
AcDbCircle
 10
660.593387
 20
1377.0
 30
0.0
 40
12.0
100
AcDbArc
 50
187.125016
 51
270.0
  0
LINE
  5
D8
100
AcDbEntity
  8
洗面器
  6
EXLTYPE2
 62
     6
100
AcDbLine
 10
799.406613
 20
1365.0
 30
0.0
 11
660.593387
 21
1365.0
 31
0.0
  0
ARC
  5
D9
100
AcDbEntity
  8
洗面器
  6
EXLTYPE2
 62
     6
100
AcDbCircle
 10
799.406613
 20
1377.0
 30
0.0
 40
12.0
100
AcDbArc
 50
270.0
 51
352.874984
  0
LINE
  5
DA
100
AcDbEntity
  8
洗面器
  6
EXLTYPE2
 62
     6
100
AcDbLine
 10
813.905043
 20
1396.240347
 30
0.0
 11
811.313948
 21
1375.511583
 31
0.0
  0
ARC
  5
DB
100
AcDbEntity
  8
洗面器
  6
EXLTYPE2
 62
     6
100
AcDbCircle
 10
823.827822
 20
1395.0
 30
0.0
 40
10.0
100
AcDbArc
 50
90.0
 51
172.874984
  0
LINE
  5
DC
100
AcDbEntity
  8
洗面器
  6
CONTINUOUS
 62
     4
100
AcDbLine
 10
1697.0
 20
1439.132146
 30
0.0
 11
1697.0
 21
1536.142935
 31
0.0
  0
LINE
  5
DD
100
AcDbEntity
  8
洗面器
  6
CONTINUOUS
 62
     4
100
AcDbLine
 10
1646.547321
 20
1425.413393
 30
0.0
 11
1687.905357
 21
1429.173214
 31
0.0
  0
ARC
  5
DE
100
AcDbEntity
  8
洗面器
  6
CONTINUOUS
 62
     4
100
AcDbCircle
 10
1687.0
 20
1439.132146
 30
0.0
 40
10.0
100
AcDbArc
 50
275.194429
 51
0.0
  0
LINE
  5
DF
100
AcDbEntity
  8
洗面器
  6
CONTINUOUS
 62
     4
100
AcDbLine
 10
1689.353087
 20
1546.083903
 30
0.0
 11
1691.243769
 21
1545.197791
 31
0.0
  0
ARC
  5
E0
100
AcDbEntity
  8
洗面器
  6
CONTINUOUS
 62
     4
100
AcDbCircle
 10
1687.0
 20
1536.142935
 30
0.0
 40
10.0
100
AcDbArc
 50
0.0
 51
64.888772
  0
LINE
  5
E1
100
AcDbEntity
  8
洗面器
  6
CONTINUOUS
 62
     4
100
AcDbLine
 10
1697.0
 20
1599.703083
 30
0.0
 11
1697.0
 21
1701.210526
 31
0.0
  0
ARC
  5
E2
100
AcDbEntity
  8
洗面器
  6
CONTINUOUS
 62
     4
100
AcDbCircle
 10
1687.0
 20
1599.703083
 30
0.0
 40
10.0
100
AcDbArc
 50
288.468963
 51
0.0
  0
ARC
  5
E3
100
AcDbEntity
  8
洗面器
  6
CONTINUOUS
 62
     4
100
AcDbCircle
 10
1687.0
 20
1701.210526
 30
0.0
 40
10.0
100
AcDbArc
 50
0.0
 51
68.459024
  0
ARC
  5
E4
100
AcDbEntity
  8
洗面器
  6
CONTINUOUS
 62
     4
100
AcDbCircle
 10
1647.0
 20
1420.433927
 30
0.0
 40
5.0
100
AcDbArc
 50
95.194429
 51
180.0
  0
LINE
  5
E5
100
AcDbEntity
  8
洗面器
  6
CONTINUOUS
 62
     4
100
AcDbLine
 10
1642.0
 20
1776.811495
 30
0.0
 11
1642.0
 21
1781.714902
 31
0.0
  0
LINE
  5
E6
100
AcDbEntity
  8
洗面器
  6
CONTINUOUS
 62
     4
100
AcDbLine
 10
1609.0
 20
1777.433927
 30
0.0
 11
1609.0
 21
1732.0
 31
0.0
  0
LINE
  5
E7
100
AcDbEntity
  8
洗面器
  6
CONTINUOUS
 62
     4
100
AcDbLine
 10
1613.547321
 20
1782.413393
 30
0.0
 11
1638.728393
 21
1784.702581
 31
0.0
  0
ARC
  5
E8
100
AcDbEntity
  8
洗面器
  6
CONTINUOUS
 62
     4
100
AcDbCircle
 10
1639.0
 20
1781.714902
 30
0.0
 40
3.0
100
AcDbArc
 50
0.0
 51
95.194429
  0
ARC
  5
E9
100
AcDbEntity
  8
洗面器
  6
CONTINUOUS
 62
     4
100
AcDbCircle
 10
1614.0
 20
1777.433927
 30
0.0
 40
5.0
100
AcDbArc
 50
95.194429
 51
180.0
  0
LINE
  5
EA
100
AcDbEntity
  8
洗面器
  6
CONTINUOUS
 62
     4
100
AcDbLine
 10
1512.0
 20
1405.0
 30
0.0
 11
1522.0
 21
1405.0
 31
0.0
  0
ARC
  5
EB
100
AcDbEntity
  8
洗面器
  6
CONTINUOUS
 62
     4
100
AcDbCircle
 10
1579.0
 20
1564.243547
 30
0.0
 40
30.0
100
AcDbArc
 50
284.86769
 51
0.0
  0
LINE
  5
EC
100
AcDbEntity
  8
洗面器
  6
CONTINUOUS
 62
     4
100
AcDbLine
 10
1609.0
 20
1732.0
 30
0.0
 11
1609.0
 21
1564.243547
 31
0.0
  0
ARC
  5
ED
100
AcDbEntity
  8
洗面器
  6
CONTINUOUS
 62
     4
100
AcDbCircle
 10
4478.731678
 20
1850.536921
 30
0.0
 40
3000.0
100
AcDbArc
 50
186.414044
 51
188.540722
  0
ARC
  5
EE
100
AcDbEntity
  8
洗面器
  6
CONTINUOUS
 62
     4
100
AcDbCircle
 10
1458.403734
 20
2018.508382
 30
0.0
 40
500.0
100
AcDbArc
 50
274.954501
 51
284.903589
  0
ARC
  5
EF
100
AcDbEntity
  8
洗面器
  6
CONTINUOUS
 62
     4
100
AcDbCircle
 10
1501.974016
 20
1515.901213
 30
0.0
 40
4.492157
100
AcDbArc
 50
94.954501
 51
186.414044
  0
LINE
  5
F0
100
AcDbEntity
  8
洗面器
  6
CONTINUOUS
 62
     4
100
AcDbLine
 10
1642.0
 20
1405.0
 30
0.0
 11
1642.0
 21
1420.433927
 31
0.0
  0
ARC
  5
F1
100
AcDbEntity
  8
洗面器
  6
CONTINUOUS
 62
     4
100
AcDbCircle
 10
683.219861
 20
1634.378478
 30
0.0
 40
1010.0
100
AcDbArc
 50
354.98478
 51
355.271567
  0
ARC
  5
F2
100
AcDbEntity
  8
洗面器
  6
CONTINUOUS
 62
     4
100
AcDbCircle
 10
1692.0
 20
1502.844029
 30
0.0
 40
10.0
100
AcDbArc
 50
180.0
 51
266.301956
  0
LINE
  5
F3
100
AcDbEntity
  8
洗面器
  6
CONTINUOUS
 62
     4
100
AcDbLine
 10
1682.0
 20
1502.844029
 30
0.0
 11
1682.0
 21
1580.287021
 31
0.0
  0
LINE
  5
F4
100
AcDbEntity
  8
洗面器
  6
CONTINUOUS
 62
     4
100
AcDbLine
 10
1691.355018
 20
1492.864851
 30
0.0
 11
1697.0
 21
1492.5
 31
0.0
  0
ARC
  5
F5
100
AcDbEntity
  8
洗面器
  6
CONTINUOUS
 62
     4
100
AcDbCircle
 10
1692.0
 20
1555.887163
 30
0.0
 40
10.0
100
AcDbArc
 50
180.0
 51
244.888772
  0
LINE
  5
F6
100
AcDbEntity
  8
洗面器
  6
CONTINUOUS
 62
     4
100
AcDbLine
 10
1687.756231
 20
1546.832307
 30
0.0
 11
1689.353087
 21
1546.083903
 31
0.0
  0
ARC
  5
F7
100
AcDbEntity
  8
洗面器
  6
CONTINUOUS
 62
     4
100
AcDbCircle
 10
1692.0
 20
1580.287021
 30
0.0
 40
10.0
100
AcDbArc
 50
108.468963
 51
180.0
  0
LINE
  5
F8
100
AcDbEntity
  8
洗面器
  6
CONTINUOUS
 62
     4
100
AcDbLine
 10
1688.832091
 20
1589.771975
 30
0.0
 11
1690.167909
 21
1590.218129
 31
0.0
  0
ARC
  5
F9
100
AcDbEntity
  8
洗面器
  6
CONTINUOUS
 62
     4
100
AcDbCircle
 10
1580.156803
 20
1560.188705
 30
0.0
 40
110.0
100
AcDbArc
 50
355.271567
 51
14.962981
  0
LINE
  5
FA
100
AcDbEntity
  8
洗面器
  6
CONTINUOUS
 62
     4
100
AcDbLine
 10
1642.0
 20
1776.811495
 30
0.0
 11
1642.0
 21
1420.0
 31
0.0
  0
LINE
  5
FB
100
AcDbEntity
  8
洗面器
  6
CONTINUOUS
 62
     4
100
AcDbLine
 10
1690.671665
 20
1710.512079
 30
0.0
 11
1642.0
 21
1729.724578
 31
0.0
  0
LINE
  5
FC
100
AcDbEntity
  8
洗面器
  6
CONTINUOUS
 62
     4
100
AcDbLine
 10
1522.0
 20
1405.0
 30
0.0
 11
1642.0
 21
1405.0
 31
0.0
  0
LINE
  5
FD
100
AcDbEntity
  8
洗面器
  6
EXLTYPE3
 62
     6
100
AcDbLine
 10
1587.0
 20
1420.0
 30
0.0
 11
1587.0
 21
1273.699998
 31
0.0
  0
LINE
  5
FE
100
AcDbEntity
  8
洗面器
  6
EXLTYPE2
 62
     6
100
AcDbLine
 10
1625.103627
 20
1405.0
 30
0.0
 11
1627.343735
 21
1370.361904
 31
0.0
  0
ARC
  5
FF
100
AcDbEntity
  8
洗面器
  6
EXLTYPE2
 62
     6
100
AcDbCircle
 10
1632.333312
 20
1370.684589
 30
0.0
 40
5.0
100
AcDbArc
 50
183.700269
 51
266.020389
  0
LINE
  5
100
100
AcDbEntity
  8
洗面器
  6
EXLTYPE2
 62
     6
100
AcDbLine
 10
1631.986305
 20
1365.696645
 30
0.0
 11
1638.791796
 21
1365.223192
 31
0.0
  0
ARC
  5
101
100
AcDbEntity
  8
洗面器
  6
EXLTYPE2
 62
     6
100
AcDbCircle
 10
1639.0
 20
1368.215959
 30
0.0
 40
3.0
100
AcDbArc
 50
266.020389
 51
0.0
  0
LINE
  5
102
100
AcDbEntity
  8
洗面器
  6
EXLTYPE2
 62
     6
100
AcDbLine
 10
1642.0
 20
1405.0
 30
0.0
 11
1642.0
 21
1368.215959
 31
0.0
  0
LINE
  5
103
100
AcDbEntity
  8
洗面器
  6
CONTINUOUS
 62
     6
100
AcDbLine
 10
762.85
 20
2372.0
 30
0.0
 11
697.15
 21
2372.0
 31
0.0
  0
LINE
  5
104
100
AcDbEntity
  8
洗面器
  6
EXLTYPE3
 62
     6
100
AcDbLine
 10
730.0
 20
2277.0
 30
0.0
 11
730.0
 21
2482.128309
 31
0.0
  0
LINE
  5
105
100
AcDbEntity
  8
洗面器
  6
CONTINUOUS
 62
     4
100
AcDbLine
 10
604.235871
 20
2472.830455
 30
0.0
 11
600.41531
 21
2426.983724
 31
0.0
  0
LINE
  5
106
100
AcDbEntity
  8
洗面器
  6
CONTINUOUS
 62
     4
100
AcDbLine
 10
642.000564
 20
2482.0
 30
0.0
 11
614.201329
 21
2482.0
 31
0.0
  0
ARC
  5
107
100
AcDbEntity
  8
洗面器
  6
CONTINUOUS
 62
     4
100
AcDbCircle
 10
642.000564
 20
2472.0
 30
0.0
 40
10.0
100
AcDbArc
 50
12.684321
 51
90.0
  0
ARC
  5
108
100
AcDbEntity
  8
洗面器
  6
CONTINUOUS
 62
     4
100
AcDbCircle
 10
614.201329
 20
2472.0
 30
0.0
 40
10.0
100
AcDbArc
 50
90.0
 51
175.236358
  0
ARC
  5
109
100
AcDbEntity
  8
洗面器
  6
CONTINUOUS
 62
     4
100
AcDbCircle
 10
1590.0
 20
2394.0
 30
0.0
 40
1000.0
100
AcDbArc
 50
180.0
 51
182.99803
  0
ARC
  5
10A
100
AcDbEntity
  8
洗面器
  6
CONTINUOUS
 62
     4
100
AcDbCircle
 10
570.215033
 20
2422.0
 30
0.0
 40
5.0
100
AcDbArc
 50
90.0
 51
182.411866
  0
ARC
  5
10B
100
AcDbEntity
  8
洗面器
  6
CONTINUOUS
 62
     4
100
AcDbCircle
 10
631.31392
 20
2343.790443
 30
0.0
 40
40.0
100
AcDbArc
 50
182.99803
 51
254.089945
  0
LINE
  5
10C
100
AcDbEntity
  8
洗面器
  6
CONTINUOUS
 62
     4
100
AcDbLine
 10
565.219462
 20
2421.789587
 30
0.0
 11
566.188219
 21
2398.789587
 31
0.0
  0
ARC
  5
10D
100
AcDbEntity
  8
洗面器
  6
CONTINUOUS
 62
     4
100
AcDbCircle
 10
570.215033
 20
2422.0
 30
0.0
 40
5.0
100
AcDbArc
 50
90.0
 51
182.411866
  0
LINE
  5
10E
100
AcDbEntity
  8
洗面器
  6
CONTINUOUS
 62
     4
100
AcDbLine
 10
566.188219
 20
2398.789587
 30
0.0
 11
566.389956
 21
2394.0
 31
0.0
  0
LINE
  5
10F
100
AcDbEntity
  8
洗面器
  6
CONTINUOUS
 62
     4
100
AcDbLine
 10
566.389956
 20
2394.0
 30
0.0
 11
568.498478
 21
2343.939989
 31
0.0
  0
ARC
  5
110
100
AcDbEntity
  8
洗面器
  6
CONTINUOUS
 62
     4
100
AcDbCircle
 10
571.18379
 20
2399.0
 30
0.0
 40
5.0
100
AcDbArc
 50
182.411866
 51
270.0
  0
ARC
  5
111
100
AcDbEntity
  8
洗面器
  6
CONTINUOUS
 62
     4
100
AcDbCircle
 10
618.454185
 20
2346.044118
 30
0.0
 40
50.0
100
AcDbArc
 50
182.411866
 51
255.647927
  0
ARC
  5
112
100
AcDbEntity
  8
洗面器
  6
CONTINUOUS
 62
     4
100
AcDbCircle
 10
667.744371
 20
2448.703075
 30
0.0
 40
10.0
100
AcDbArc
 50
192.684321
 51
277.163052
  0
ARC
  5
113
100
AcDbEntity
  8
洗面器
  6
CONTINUOUS
 62
     4
100
AcDbCircle
 10
732.584955
 20
1932.76151
 30
0.0
 40
510.0
100
AcDbArc
 50
93.131441
 51
97.163052
  0
LINE
  5
114
100
AcDbEntity
  8
洗面器
  6
CONTINUOUS
 62
     4
100
AcDbLine
 10
657.988424
 20
2446.507282
 30
0.0
 11
651.75651
 21
2474.195792
 31
0.0
  0
LINE
  5
115
100
AcDbEntity
  8
洗面器
  6
CONTINUOUS
 62
     4
100
AcDbLine
 10
855.764129
 20
2472.830455
 30
0.0
 11
859.58469
 21
2426.983724
 31
0.0
  0
LINE
  5
116
100
AcDbEntity
  8
洗面器
  6
CONTINUOUS
 62
     4
100
AcDbLine
 10
817.999436
 20
2482.0
 30
0.0
 11
845.798671
 21
2482.0
 31
0.0
  0
ARC
  5
117
100
AcDbEntity
  8
洗面器
  6
CONTINUOUS
 62
     4
100
AcDbCircle
 10
817.999436
 20
2472.0
 30
0.0
 40
10.0
100
AcDbArc
 50
90.0
 51
167.315679
  0
ARC
  5
118
100
AcDbEntity
  8
洗面器
  6
CONTINUOUS
 62
     4
100
AcDbCircle
 10
845.798671
 20
2472.0
 30
0.0
 40
10.0
100
AcDbArc
 50
4.763642
 51
90.0
  0
ARC
  5
119
100
AcDbEntity
  8
洗面器
  6
CONTINUOUS
 62
     4
100
AcDbCircle
 10
-130.0
 20
2394.0
 30
0.0
 40
1000.0
100
AcDbArc
 50
357.00197
 51
0.0
  0
ARC
  5
11A
100
AcDbEntity
  8
洗面器
  6
CONTINUOUS
 62
     4
100
AcDbCircle
 10
889.784967
 20
2422.0
 30
0.0
 40
5.0
100
AcDbArc
 50
357.588134
 51
90.0
  0
ARC
  5
11B
100
AcDbEntity
  8
洗面器
  6
CONTINUOUS
 62
     4
100
AcDbCircle
 10
828.68608
 20
2343.790443
 30
0.0
 40
40.0
100
AcDbArc
 50
285.910055
 51
357.00197
  0
LINE
  5
11C
100
AcDbEntity
  8
洗面器
  6
CONTINUOUS
 62
     4
100
AcDbLine
 10
894.780538
 20
2421.789587
 30
0.0
 11
893.811781
 21
2398.789587
 31
0.0
  0
ARC
  5
11D
100
AcDbEntity
  8
洗面器
  6
CONTINUOUS
 62
     4
100
AcDbCircle
 10
889.784967
 20
2422.0
 30
0.0
 40
5.0
100
AcDbArc
 50
357.588134
 51
90.0
  0
LINE
  5
11E
100
AcDbEntity
  8
洗面器
  6
CONTINUOUS
 62
     4
100
AcDbLine
 10
893.811781
 20
2398.789587
 30
0.0
 11
893.610044
 21
2394.0
 31
0.0
  0
LINE
  5
11F
100
AcDbEntity
  8
洗面器
  6
CONTINUOUS
 62
     4
100
AcDbLine
 10
893.610044
 20
2394.0
 30
0.0
 11
891.501522
 21
2343.939989
 31
0.0
  0
ARC
  5
120
100
AcDbEntity
  8
洗面器
  6
CONTINUOUS
 62
     4
100
AcDbCircle
 10
888.81621
 20
2399.0
 30
0.0
 40
5.0
100
AcDbArc
 50
270.0
 51
357.588134
  0
ARC
  5
121
100
AcDbEntity
  8
洗面器
  6
CONTINUOUS
 62
     4
100
AcDbCircle
 10
841.545815
 20
2346.044118
 30
0.0
 40
50.0
100
AcDbArc
 50
284.352073
 51
357.588134
  0
ARC
  5
122
100
AcDbEntity
  8
洗面器
  6
CONTINUOUS
 62
     4
100
AcDbCircle
 10
792.255629
 20
2448.703075
 30
0.0
 40
10.0
100
AcDbArc
 50
262.836948
 51
347.315679
  0
ARC
  5
123
100
AcDbEntity
  8
洗面器
  6
CONTINUOUS
 62
     4
100
AcDbCircle
 10
727.415045
 20
1932.76151
 30
0.0
 40
510.0
100
AcDbArc
 50
82.836948
 51
86.868559
  0
LINE
  5
124
100
AcDbEntity
  8
洗面器
  6
CONTINUOUS
 62
     4
100
AcDbLine
 10
802.011576
 20
2446.507282
 30
0.0
 11
808.24349
 21
2474.195792
 31
0.0
  0
ARC
  5
125
100
AcDbEntity
  8
洗面器
  6
CONTINUOUS
 62
     4
100
AcDbCircle
 10
732.584955
 20
1932.76151
 30
0.0
 40
544.372937
100
AcDbArc
 50
82.065375
 51
98.467115
  0
LINE
  5
126
100
AcDbEntity
  8
洗面器
  6
CONTINUOUS
 62
     4
100
AcDbLine
 10
704.725308
 20
2442.0
 30
0.0
 11
755.274692
 21
2442.0
 31
0.0
  0
LINE
  5
127
100
AcDbEntity
  8
洗面器
  6
CONTINUOUS
 62
     4
100
AcDbLine
 10
888.81621
 20
2394.0
 30
0.0
 11
571.18379
 21
2394.0
 31
0.0
  0
LINE
  5
128
100
AcDbEntity
  8
洗面器
  6
CONTINUOUS
 62
     4
100
AcDbLine
 10
570.215033
 20
2427.0
 30
0.0
 11
889.784967
 21
2427.0
 31
0.0
  0
ARC
  5
129
100
AcDbEntity
  8
洗面器
  6
CONTINUOUS
 62
     4
100
AcDbCircle
 10
730.0
 20
2690.0
 30
0.0
 40
400.0
100
AcDbArc
 50
254.089945
 51
285.910055
  0
ARC
  5
12A
100
AcDbEntity
  8
洗面器
  6
CONTINUOUS
 62
     4
100
AcDbCircle
 10
730.0
 20
2782.0
 30
0.0
 40
500.0
100
AcDbArc
 50
255.647927
 51
284.352073
  0
TEXT
  5
12B
100
AcDbEntity
  8
洗面器
  6
CONTINUOUS
 62
     2
100
AcDbText
 10
642.0
 20
2559.0
 30
0.0
 40
40.0
  1
（壁開口）
 41
0.7056
  7
EXCADSTD
 72
     5
 11
810.0
 21
2559.0
 31
0.0
100
AcDbText
  0
TEXT
  5
12C
100
AcDbEntity
  8
洗面器
  6
CONTINUOUS
 62
     2
100
AcDbText
 10
1892.0
 20
1137.0
 30
0.0
 40
40.0
  1
（壁開口）
 50
90.0
 41
0.7056
  7
EXCADSTD
 72
     5
 11
1892.0
 21
1305.0
 31
0.0
100
AcDbText
  0
TEXT
  5
12D
100
AcDbEntity
  8
洗面器
  6
CONTINUOUS
 62
     2
100
AcDbText
 10
1212.8
 20
547.8
 30
0.0
 40
40.0
  1
（床給排水、仕上壁面より）
 41
0.684923
  7
EXCADSTD
 72
     5
 11
1636.799999
 21
547.8
 31
0.0
100
AcDbText
  0
TEXT
  5
12E
100
AcDbEntity
  8
洗面器
  6
CONTINUOUS
 62
     2
100
AcDbText
 10
830.0
 20
423.0
 30
0.0
 40
40.0
  1
（床給水）
 41
0.7056
  7
EXCADSTD
 72
     5
 11
998.0
 21
423.0
 31
0.0
100
AcDbText
  0
LINE
  5
12F
100
AcDbEntity
  8
ｷｬﾋﾞﾈｯﾄ
  6
EXLTYPE2
 62
     6
100
AcDbLine
 10
857.5
 20
795.0
 30
0.0
 11
602.5
 21
795.0
 31
0.0
  0
LINE
  5
130
100
AcDbEntity
  8
ｷｬﾋﾞﾈｯﾄ
  6
EXLTYPE2
 62
     6
100
AcDbLine
 10
602.5
 20
1405.0
 30
0.0
 11
602.5
 21
705.0
 31
0.0
  0
LINE
  5
131
100
AcDbEntity
  8
ｷｬﾋﾞﾈｯﾄ
  6
EXLTYPE2
 62
     6
100
AcDbLine
 10
857.5
 20
1405.0
 30
0.0
 11
857.5
 21
705.0
 31
0.0
  0
LINE
  5
132
100
AcDbEntity
  8
ｷｬﾋﾞﾈｯﾄ
  6
EXLTYPE2
 62
     6
100
AcDbLine
 10
872.5
 20
835.0
 30
0.0
 11
587.5
 21
835.0
 31
0.0
  0
LINE
  5
133
100
AcDbEntity
  8
ｷｬﾋﾞﾈｯﾄ
  6
EXLTYPE2
 62
     6
100
AcDbLine
 10
857.5
 20
837.0
 30
0.0
 11
602.5
 21
837.0
 31
0.0
  0
LINE
  5
134
100
AcDbEntity
  8
ｷｬﾋﾞﾈｯﾄ
  6
EXLTYPE2
 62
     6
100
AcDbLine
 10
590.0
 20
1355.0
 30
0.0
 11
870.0
 21
1355.0
 31
0.0
  0
LINE
  5
135
100
AcDbEntity
  8
ｷｬﾋﾞﾈｯﾄ
  6
CONTINUOUS
 62
     2
100
AcDbLine
 10
887.5
 20
705.0
 30
0.0
 11
572.5
 21
705.0
 31
0.0
  0
LINE
  5
136
100
AcDbEntity
  8
ｷｬﾋﾞﾈｯﾄ
  6
CONTINUOUS
 62
     2
100
AcDbLine
 10
887.5
 20
1405.0
 30
0.0
 11
887.5
 21
705.0
 31
0.0
  0
LINE
  5
137
100
AcDbEntity
  8
ｷｬﾋﾞﾈｯﾄ
  6
CONTINUOUS
 62
     2
100
AcDbLine
 10
887.5
 20
1405.0
 30
0.0
 11
572.5
 21
1405.0
 31
0.0
  0
LINE
  5
138
100
AcDbEntity
  8
ｷｬﾋﾞﾈｯﾄ
  6
CONTINUOUS
 62
     2
100
AcDbLine
 10
572.5
 20
1405.0
 30
0.0
 11
572.5
 21
705.0
 31
0.0
  0
LINE
  5
139
100
AcDbEntity
  8
ｷｬﾋﾞﾈｯﾄ
  6
CONTINUOUS
 62
     2
100
AcDbLine
 10
590.0
 20
1357.0
 30
0.0
 11
590.0
 21
827.0
 31
0.0
  0
LINE
  5
13A
100
AcDbEntity
  8
ｷｬﾋﾞﾈｯﾄ
  6
CONTINUOUS
 62
     2
100
AcDbLine
 10
590.0
 20
827.0
 30
0.0
 11
870.0
 21
827.0
 31
0.0
  0
LINE
  5
13B
100
AcDbEntity
  8
ｷｬﾋﾞﾈｯﾄ
  6
CONTINUOUS
 62
     2
100
AcDbLine
 10
870.0
 20
1357.0
 30
0.0
 11
870.0
 21
827.0
 31
0.0
  0
LINE
  5
13C
100
AcDbEntity
  8
ｷｬﾋﾞﾈｯﾄ
  6
EXLTYPE2
 62
     6
100
AcDbLine
 10
870.0
 20
1357.0
 30
0.0
 11
590.0
 21
1357.0
 31
0.0
  0
LINE
  5
13D
100
AcDbEntity
  8
ｷｬﾋﾞﾈｯﾄ
  6
CONTINUOUS
 62
     2
100
AcDbLine
 10
869.0
 20
1355.2
 30
0.0
 11
591.0
 21
1355.2
 31
0.0
  0
LINE
  5
13E
100
AcDbEntity
  8
ｷｬﾋﾞﾈｯﾄ
  6
CONTINUOUS
 62
     2
100
AcDbLine
 10
869.0
 20
1399.0
 30
0.0
 11
869.0
 21
1355.2
 31
0.0
  0
ARC
  5
13F
100
AcDbEntity
  8
ｷｬﾋﾞﾈｯﾄ
  6
CONTINUOUS
 62
     2
100
AcDbCircle
 10
866.0
 20
1399.0
 30
0.0
 40
3.0
100
AcDbArc
 50
0.0
 51
90.0
  0
LINE
  5
140
100
AcDbEntity
  8
ｷｬﾋﾞﾈｯﾄ
  6
CONTINUOUS
 62
     2
100
AcDbLine
 10
866.0
 20
1402.0
 30
0.0
 11
594.0
 21
1402.0
 31
0.0
  0
ARC
  5
141
100
AcDbEntity
  8
ｷｬﾋﾞﾈｯﾄ
  6
CONTINUOUS
 62
     2
100
AcDbCircle
 10
594.0
 20
1399.0
 30
0.0
 40
3.0
100
AcDbArc
 50
90.0
 51
180.0
  0
LINE
  5
142
100
AcDbEntity
  8
ｷｬﾋﾞﾈｯﾄ
  6
CONTINUOUS
 62
     2
100
AcDbLine
 10
591.0
 20
1399.0
 30
0.0
 11
591.0
 21
1355.2
 31
0.0
  0
ARC
  5
143
100
AcDbEntity
  8
ｷｬﾋﾞﾈｯﾄ
  6
CONTINUOUS
 62
     2
100
AcDbCircle
 10
594.0
 20
1374.0
 30
0.0
 40
3.0
100
AcDbArc
 50
90.0
 51
180.0
  0
LINE
  5
144
100
AcDbEntity
  8
ｷｬﾋﾞﾈｯﾄ
  6
CONTINUOUS
 62
     2
100
AcDbLine
 10
594.0
 20
1377.0
 30
0.0
 11
866.0
 21
1377.0
 31
0.0
  0
ARC
  5
145
100
AcDbEntity
  8
ｷｬﾋﾞﾈｯﾄ
  6
CONTINUOUS
 62
     2
100
AcDbCircle
 10
866.0
 20
1374.0
 30
0.0
 40
3.0
100
AcDbArc
 50
0.0
 51
90.0
  0
LINE
  5
146
100
AcDbEntity
  8
ｷｬﾋﾞﾈｯﾄ
  6
CONTINUOUS
 62
     6
100
AcDbLine
 10
869.0
 20
1369.863185
 30
0.0
 11
591.0
 21
1369.863185
 31
0.0
  0
LINE
  5
147
100
AcDbEntity
  8
ｷｬﾋﾞﾈｯﾄ
  6
CONTINUOUS
 62
     6
100
AcDbLine
 10
869.0
 20
1368.2
 30
0.0
 11
591.0
 21
1368.2
 31
0.0
  0
LINE
  5
148
100
AcDbEntity
  8
ｷｬﾋﾞﾈｯﾄ
  6
CONTINUOUS
 62
     6
100
AcDbLine
 10
869.0
 20
1366.2
 30
0.0
 11
591.0
 21
1366.2
 31
0.0
  0
LINE
  5
149
100
AcDbEntity
  8
ｷｬﾋﾞﾈｯﾄ
  6
CONTINUOUS
 62
     6
100
AcDbLine
 10
869.0
 20
1364.2
 30
0.0
 11
591.0
 21
1364.2
 31
0.0
  0
LINE
  5
14A
100
AcDbEntity
  8
ｷｬﾋﾞﾈｯﾄ
  6
CONTINUOUS
 62
     6
100
AcDbLine
 10
869.0
 20
1362.2
 30
0.0
 11
591.0
 21
1362.2
 31
0.0
  0
LINE
  5
14B
100
AcDbEntity
  8
ｷｬﾋﾞﾈｯﾄ
  6
EXLTYPE3
 62
     6
100
AcDbLine
 10
591.832912
 20
1401.074543
 30
0.0
 11
870.0
 21
1092.0
 31
0.0
  0
LINE
  5
14C
100
AcDbEntity
  8
ｷｬﾋﾞﾈｯﾄ
  6
EXLTYPE3
 62
     6
100
AcDbLine
 10
870.0
 20
1092.0
 30
0.0
 11
590.0
 21
827.0
 31
0.0
  0
LINE
  5
14D
100
AcDbEntity
  8
ｷｬﾋﾞﾈｯﾄ
  6
CONTINUOUS
 62
     6
100
AcDbLine
 10
890.0
 20
897.0
 30
0.0
 11
890.8
 21
893.0
 31
0.0
  0
LINE
  5
14E
100
AcDbEntity
  8
ｷｬﾋﾞﾈｯﾄ
  6
CONTINUOUS
 62
     6
100
AcDbLine
 10
891.6
 20
897.0
 30
0.0
 11
892.4
 21
893.0
 31
0.0
  0
LINE
  5
14F
100
AcDbEntity
  8
ｷｬﾋﾞﾈｯﾄ
  6
CONTINUOUS
 62
     6
100
AcDbLine
 10
893.2
 20
897.0
 30
0.0
 11
894.0
 21
893.0
 31
0.0
  0
LINE
  5
150
100
AcDbEntity
  8
ｷｬﾋﾞﾈｯﾄ
  6
CONTINUOUS
 62
     6
100
AcDbLine
 10
894.8
 20
897.0
 30
0.0
 11
895.6
 21
893.0
 31
0.0
  0
LINE
  5
151
100
AcDbEntity
  8
ｷｬﾋﾞﾈｯﾄ
  6
CONTINUOUS
 62
     6
100
AcDbLine
 10
896.4
 20
897.0
 30
0.0
 11
897.2
 21
893.0
 31
0.0
  0
LINE
  5
152
100
AcDbEntity
  8
ｷｬﾋﾞﾈｯﾄ
  6
CONTINUOUS
 62
     6
100
AcDbLine
 10
898.0
 20
897.0
 30
0.0
 11
898.8
 21
893.0
 31
0.0
  0
LINE
  5
153
100
AcDbEntity
  8
ｷｬﾋﾞﾈｯﾄ
  6
CONTINUOUS
 62
     6
100
AcDbLine
 10
899.6
 20
897.0
 30
0.0
 11
900.4
 21
893.0
 31
0.0
  0
LINE
  5
154
100
AcDbEntity
  8
ｷｬﾋﾞﾈｯﾄ
  6
CONTINUOUS
 62
     6
100
AcDbLine
 10
901.2
 20
897.0
 30
0.0
 11
902.0
 21
893.0
 31
0.0
  0
LINE
  5
155
100
AcDbEntity
  8
ｷｬﾋﾞﾈｯﾄ
  6
CONTINUOUS
 62
     6
100
AcDbLine
 10
906.181041
 20
896.094793
 30
0.0
 11
906.588518
 21
894.057411
 31
0.0
  0
LINE
  5
156
100
AcDbEntity
  8
ｷｬﾋﾞﾈｯﾄ
  6
CONTINUOUS
 62
     6
100
AcDbLine
 10
904.480964
 20
896.595179
 30
0.0
 11
905.088125
 21
893.559377
 31
0.0
  0
LINE
  5
157
100
AcDbEntity
  8
ｷｬﾋﾞﾈｯﾄ
  6
CONTINUOUS
 62
     6
100
AcDbLine
 10
902.82242
 20
896.887902
 30
0.0
 11
903.556259
 21
893.218704
 31
0.0
  0
LINE
  5
158
100
AcDbEntity
  8
ｷｬﾋﾞﾈｯﾄ
  6
CONTINUOUS
 62
     6
100
AcDbLine
 10
888.4
 20
897.0
 30
0.0
 11
889.2
 21
893.0
 31
0.0
  0
ARC
  5
159
100
AcDbEntity
  8
ｷｬﾋﾞﾈｯﾄ
  6
CONTINUOUS
 62
     6
100
AcDbCircle
 10
900.961652
 20
881.5
 30
0.0
 40
15.0
100
AcDbArc
 50
64.158067
 51
90.0
  0
ARC
  5
15A
100
AcDbEntity
  8
ｷｬﾋﾞﾈｯﾄ
  6
CONTINUOUS
 62
     6
100
AcDbCircle
 10
900.961652
 20
908.5
 30
0.0
 40
15.0
100
AcDbArc
 50
270.0
 51
295.841933
  0
LINE
  5
15B
100
AcDbEntity
  8
ｷｬﾋﾞﾈｯﾄ
  6
CONTINUOUS
 62
     6
100
AcDbLine
 10
850.0
 20
895.0
 30
0.0
 11
912.5
 21
895.0
 31
0.0
  0
LINE
  5
15C
100
AcDbEntity
  8
ｷｬﾋﾞﾈｯﾄ
  6
CONTINUOUS
 62
     6
100
AcDbLine
 10
890.0
 20
1287.0
 30
0.0
 11
890.8
 21
1283.0
 31
0.0
  0
LINE
  5
15D
100
AcDbEntity
  8
ｷｬﾋﾞﾈｯﾄ
  6
CONTINUOUS
 62
     6
100
AcDbLine
 10
891.6
 20
1287.0
 30
0.0
 11
892.4
 21
1283.0
 31
0.0
  0
LINE
  5
15E
100
AcDbEntity
  8
ｷｬﾋﾞﾈｯﾄ
  6
CONTINUOUS
 62
     6
100
AcDbLine
 10
893.2
 20
1287.0
 30
0.0
 11
894.0
 21
1283.0
 31
0.0
  0
LINE
  5
15F
100
AcDbEntity
  8
ｷｬﾋﾞﾈｯﾄ
  6
CONTINUOUS
 62
     6
100
AcDbLine
 10
894.8
 20
1287.0
 30
0.0
 11
895.6
 21
1283.0
 31
0.0
  0
LINE
  5
160
100
AcDbEntity
  8
ｷｬﾋﾞﾈｯﾄ
  6
CONTINUOUS
 62
     6
100
AcDbLine
 10
896.4
 20
1287.0
 30
0.0
 11
897.2
 21
1283.0
 31
0.0
  0
LINE
  5
161
100
AcDbEntity
  8
ｷｬﾋﾞﾈｯﾄ
  6
CONTINUOUS
 62
     6
100
AcDbLine
 10
898.0
 20
1287.0
 30
0.0
 11
898.8
 21
1283.0
 31
0.0
  0
LINE
  5
162
100
AcDbEntity
  8
ｷｬﾋﾞﾈｯﾄ
  6
CONTINUOUS
 62
     6
100
AcDbLine
 10
899.6
 20
1287.0
 30
0.0
 11
900.4
 21
1283.0
 31
0.0
  0
LINE
  5
163
100
AcDbEntity
  8
ｷｬﾋﾞﾈｯﾄ
  6
CONTINUOUS
 62
     6
100
AcDbLine
 10
901.2
 20
1287.0
 30
0.0
 11
902.0
 21
1283.0
 31
0.0
  0
LINE
  5
164
100
AcDbEntity
  8
ｷｬﾋﾞﾈｯﾄ
  6
CONTINUOUS
 62
     6
100
AcDbLine
 10
906.181041
 20
1286.094793
 30
0.0
 11
906.588518
 21
1284.057411
 31
0.0
  0
LINE
  5
165
100
AcDbEntity
  8
ｷｬﾋﾞﾈｯﾄ
  6
CONTINUOUS
 62
     6
100
AcDbLine
 10
904.480964
 20
1286.595179
 30
0.0
 11
905.088125
 21
1283.559377
 31
0.0
  0
LINE
  5
166
100
AcDbEntity
  8
ｷｬﾋﾞﾈｯﾄ
  6
CONTINUOUS
 62
     6
100
AcDbLine
 10
902.82242
 20
1286.887902
 30
0.0
 11
903.556259
 21
1283.218704
 31
0.0
  0
LINE
  5
167
100
AcDbEntity
  8
ｷｬﾋﾞﾈｯﾄ
  6
CONTINUOUS
 62
     6
100
AcDbLine
 10
888.4
 20
1287.0
 30
0.0
 11
889.2
 21
1283.0
 31
0.0
  0
ARC
  5
168
100
AcDbEntity
  8
ｷｬﾋﾞﾈｯﾄ
  6
CONTINUOUS
 62
     6
100
AcDbCircle
 10
900.961652
 20
1271.5
 30
0.0
 40
15.0
100
AcDbArc
 50
64.158067
 51
90.0
  0
ARC
  5
169
100
AcDbEntity
  8
ｷｬﾋﾞﾈｯﾄ
  6
CONTINUOUS
 62
     6
100
AcDbCircle
 10
900.961652
 20
1298.5
 30
0.0
 40
15.0
100
AcDbArc
 50
270.0
 51
295.841933
  0
LINE
  5
16A
100
AcDbEntity
  8
ｷｬﾋﾞﾈｯﾄ
  6
CONTINUOUS
 62
     6
100
AcDbLine
 10
850.0
 20
1285.0
 30
0.0
 11
912.5
 21
1285.0
 31
0.0
  0
LINE
  5
16B
100
AcDbEntity
  8
ｷｬﾋﾞﾈｯﾄ
  6
CONTINUOUS
 62
     6
100
AcDbLine
 10
570.0
 20
1283.0
 30
0.0
 11
569.2
 21
1287.0
 31
0.0
  0
LINE
  5
16C
100
AcDbEntity
  8
ｷｬﾋﾞﾈｯﾄ
  6
CONTINUOUS
 62
     6
100
AcDbLine
 10
568.4
 20
1283.0
 30
0.0
 11
567.6
 21
1287.0
 31
0.0
  0
LINE
  5
16D
100
AcDbEntity
  8
ｷｬﾋﾞﾈｯﾄ
  6
CONTINUOUS
 62
     6
100
AcDbLine
 10
566.8
 20
1283.0
 30
0.0
 11
566.0
 21
1287.0
 31
0.0
  0
LINE
  5
16E
100
AcDbEntity
  8
ｷｬﾋﾞﾈｯﾄ
  6
CONTINUOUS
 62
     6
100
AcDbLine
 10
565.2
 20
1283.0
 30
0.0
 11
564.4
 21
1287.0
 31
0.0
  0
LINE
  5
16F
100
AcDbEntity
  8
ｷｬﾋﾞﾈｯﾄ
  6
CONTINUOUS
 62
     6
100
AcDbLine
 10
563.6
 20
1283.0
 30
0.0
 11
562.8
 21
1287.0
 31
0.0
  0
LINE
  5
170
100
AcDbEntity
  8
ｷｬﾋﾞﾈｯﾄ
  6
CONTINUOUS
 62
     6
100
AcDbLine
 10
562.0
 20
1283.0
 30
0.0
 11
561.2
 21
1287.0
 31
0.0
  0
LINE
  5
171
100
AcDbEntity
  8
ｷｬﾋﾞﾈｯﾄ
  6
CONTINUOUS
 62
     6
100
AcDbLine
 10
560.4
 20
1283.0
 30
0.0
 11
559.6
 21
1287.0
 31
0.0
  0
LINE
  5
172
100
AcDbEntity
  8
ｷｬﾋﾞﾈｯﾄ
  6
CONTINUOUS
 62
     6
100
AcDbLine
 10
558.8
 20
1283.0
 30
0.0
 11
558.0
 21
1287.0
 31
0.0
  0
LINE
  5
173
100
AcDbEntity
  8
ｷｬﾋﾞﾈｯﾄ
  6
CONTINUOUS
 62
     6
100
AcDbLine
 10
553.818959
 20
1283.905207
 30
0.0
 11
553.411482
 21
1285.942589
 31
0.0
  0
LINE
  5
174
100
AcDbEntity
  8
ｷｬﾋﾞﾈｯﾄ
  6
CONTINUOUS
 62
     6
100
AcDbLine
 10
555.519036
 20
1283.404821
 30
0.0
 11
554.911875
 21
1286.440623
 31
0.0
  0
LINE
  5
175
100
AcDbEntity
  8
ｷｬﾋﾞﾈｯﾄ
  6
CONTINUOUS
 62
     6
100
AcDbLine
 10
557.17758
 20
1283.112098
 30
0.0
 11
556.443741
 21
1286.781296
 31
0.0
  0
LINE
  5
176
100
AcDbEntity
  8
ｷｬﾋﾞﾈｯﾄ
  6
CONTINUOUS
 62
     6
100
AcDbLine
 10
571.6
 20
1283.0
 30
0.0
 11
570.8
 21
1287.0
 31
0.0
  0
ARC
  5
177
100
AcDbEntity
  8
ｷｬﾋﾞﾈｯﾄ
  6
CONTINUOUS
 62
     6
100
AcDbCircle
 10
559.038348
 20
1298.5
 30
0.0
 40
15.0
100
AcDbArc
 50
244.158067
 51
270.0
  0
ARC
  5
178
100
AcDbEntity
  8
ｷｬﾋﾞﾈｯﾄ
  6
CONTINUOUS
 62
     6
100
AcDbCircle
 10
559.038348
 20
1271.5
 30
0.0
 40
15.0
100
AcDbArc
 50
90.0
 51
115.841933
  0
LINE
  5
179
100
AcDbEntity
  8
ｷｬﾋﾞﾈｯﾄ
  6
CONTINUOUS
 62
     6
100
AcDbLine
 10
610.0
 20
1285.0
 30
0.0
 11
547.5
 21
1285.0
 31
0.0
  0
LINE
  5
17A
100
AcDbEntity
  8
ｷｬﾋﾞﾈｯﾄ
  6
CONTINUOUS
 62
     6
100
AcDbLine
 10
570.0
 20
893.0
 30
0.0
 11
569.2
 21
897.0
 31
0.0
  0
LINE
  5
17B
100
AcDbEntity
  8
ｷｬﾋﾞﾈｯﾄ
  6
CONTINUOUS
 62
     6
100
AcDbLine
 10
568.4
 20
893.0
 30
0.0
 11
567.6
 21
897.0
 31
0.0
  0
LINE
  5
17C
100
AcDbEntity
  8
ｷｬﾋﾞﾈｯﾄ
  6
CONTINUOUS
 62
     6
100
AcDbLine
 10
566.8
 20
893.0
 30
0.0
 11
566.0
 21
897.0
 31
0.0
  0
LINE
  5
17D
100
AcDbEntity
  8
ｷｬﾋﾞﾈｯﾄ
  6
CONTINUOUS
 62
     6
100
AcDbLine
 10
565.2
 20
893.0
 30
0.0
 11
564.4
 21
897.0
 31
0.0
  0
LINE
  5
17E
100
AcDbEntity
  8
ｷｬﾋﾞﾈｯﾄ
  6
CONTINUOUS
 62
     6
100
AcDbLine
 10
563.6
 20
893.0
 30
0.0
 11
562.8
 21
897.0
 31
0.0
  0
LINE
  5
17F
100
AcDbEntity
  8
ｷｬﾋﾞﾈｯﾄ
  6
CONTINUOUS
 62
     6
100
AcDbLine
 10
562.0
 20
893.0
 30
0.0
 11
561.2
 21
897.0
 31
0.0
  0
LINE
  5
180
100
AcDbEntity
  8
ｷｬﾋﾞﾈｯﾄ
  6
CONTINUOUS
 62
     6
100
AcDbLine
 10
560.4
 20
893.0
 30
0.0
 11
559.6
 21
897.0
 31
0.0
  0
LINE
  5
181
100
AcDbEntity
  8
ｷｬﾋﾞﾈｯﾄ
  6
CONTINUOUS
 62
     6
100
AcDbLine
 10
558.8
 20
893.0
 30
0.0
 11
558.0
 21
897.0
 31
0.0
  0
LINE
  5
182
100
AcDbEntity
  8
ｷｬﾋﾞﾈｯﾄ
  6
CONTINUOUS
 62
     6
100
AcDbLine
 10
553.818959
 20
893.905207
 30
0.0
 11
553.411482
 21
895.942589
 31
0.0
  0
LINE
  5
183
100
AcDbEntity
  8
ｷｬﾋﾞﾈｯﾄ
  6
CONTINUOUS
 62
     6
100
AcDbLine
 10
555.519036
 20
893.404821
 30
0.0
 11
554.911875
 21
896.440623
 31
0.0
  0
LINE
  5
184
100
AcDbEntity
  8
ｷｬﾋﾞﾈｯﾄ
  6
CONTINUOUS
 62
     6
100
AcDbLine
 10
557.17758
 20
893.112098
 30
0.0
 11
556.443741
 21
896.781296
 31
0.0
  0
LINE
  5
185
100
AcDbEntity
  8
ｷｬﾋﾞﾈｯﾄ
  6
CONTINUOUS
 62
     6
100
AcDbLine
 10
571.6
 20
893.0
 30
0.0
 11
570.8
 21
897.0
 31
0.0
  0
ARC
  5
186
100
AcDbEntity
  8
ｷｬﾋﾞﾈｯﾄ
  6
CONTINUOUS
 62
     6
100
AcDbCircle
 10
559.038348
 20
908.5
 30
0.0
 40
15.0
100
AcDbArc
 50
244.158067
 51
270.0
  0
ARC
  5
187
100
AcDbEntity
  8
ｷｬﾋﾞﾈｯﾄ
  6
CONTINUOUS
 62
     6
100
AcDbCircle
 10
559.038348
 20
881.5
 30
0.0
 40
15.0
100
AcDbArc
 50
90.0
 51
115.841933
  0
LINE
  5
188
100
AcDbEntity
  8
ｷｬﾋﾞﾈｯﾄ
  6
CONTINUOUS
 62
     6
100
AcDbLine
 10
610.0
 20
895.0
 30
0.0
 11
547.5
 21
895.0
 31
0.0
  0
LINE
  5
189
100
AcDbEntity
  8
ｷｬﾋﾞﾈｯﾄ
  6
CONTINUOUS
 62
     6
100
AcDbLine
 10
887.5
 20
1286.5
 30
0.0
 11
900.961652
 21
1286.5
 31
0.0
  0
LINE
  5
18A
100
AcDbEntity
  8
ｷｬﾋﾞﾈｯﾄ
  6
CONTINUOUS
 62
     6
100
AcDbLine
 10
887.5
 20
1283.5
 30
0.0
 11
900.961652
 21
1283.5
 31
0.0
  0
LINE
  5
18B
100
AcDbEntity
  8
ｷｬﾋﾞﾈｯﾄ
  6
CONTINUOUS
 62
     6
100
AcDbLine
 10
887.5
 20
896.5
 30
0.0
 11
900.961652
 21
896.5
 31
0.0
  0
LINE
  5
18C
100
AcDbEntity
  8
ｷｬﾋﾞﾈｯﾄ
  6
CONTINUOUS
 62
     6
100
AcDbLine
 10
887.5
 20
893.5
 30
0.0
 11
900.961652
 21
893.5
 31
0.0
  0
LINE
  5
18D
100
AcDbEntity
  8
ｷｬﾋﾞﾈｯﾄ
  6
CONTINUOUS
 62
     6
100
AcDbLine
 10
572.5
 20
893.5
 30
0.0
 11
559.038348
 21
893.5
 31
0.0
  0
LINE
  5
18E
100
AcDbEntity
  8
ｷｬﾋﾞﾈｯﾄ
  6
CONTINUOUS
 62
     6
100
AcDbLine
 10
572.5
 20
896.5
 30
0.0
 11
559.038348
 21
896.5
 31
0.0
  0
LINE
  5
18F
100
AcDbEntity
  8
ｷｬﾋﾞﾈｯﾄ
  6
CONTINUOUS
 62
     6
100
AcDbLine
 10
572.5
 20
1283.5
 30
0.0
 11
559.038348
 21
1283.5
 31
0.0
  0
LINE
  5
190
100
AcDbEntity
  8
ｷｬﾋﾞﾈｯﾄ
  6
CONTINUOUS
 62
     6
100
AcDbLine
 10
572.5
 20
1286.5
 30
0.0
 11
559.038348
 21
1286.5
 31
0.0
  0
LINE
  5
191
100
AcDbEntity
  8
ｷｬﾋﾞﾈｯﾄ
  6
CONTINUOUS
 62
     2
100
AcDbLine
 10
587.5
 20
1405.0
 30
0.0
 11
587.5
 21
705.0
 31
0.0
  0
LINE
  5
192
100
AcDbEntity
  8
ｷｬﾋﾞﾈｯﾄ
  6
CONTINUOUS
 62
     2
100
AcDbLine
 10
872.5
 20
1405.0
 30
0.0
 11
872.5
 21
705.0
 31
0.0
  0
LINE
  5
193
100
AcDbEntity
  8
ｷｬﾋﾞﾈｯﾄ
  6
CONTINUOUS
 62
     2
100
AcDbLine
 10
1548.0
 20
1405.0
 30
0.0
 11
1732.0
 21
1405.0
 31
0.0
  0
LINE
  5
194
100
AcDbEntity
  8
ｷｬﾋﾞﾈｯﾄ
  6
CONTINUOUS
 62
     2
100
AcDbLine
 10
1568.0
 20
835.0
 30
0.0
 11
1568.0
 21
705.0
 31
0.0
  0
LINE
  5
195
100
AcDbEntity
  8
ｷｬﾋﾞﾈｯﾄ
  6
CONTINUOUS
 62
     2
100
AcDbLine
 10
1548.0
 20
835.0
 30
0.0
 11
1568.0
 21
835.0
 31
0.0
  0
LINE
  5
196
100
AcDbEntity
  8
ｷｬﾋﾞﾈｯﾄ
  6
CONTINUOUS
 62
     2
100
AcDbLine
 10
1548.0
 20
1405.0
 30
0.0
 11
1548.0
 21
835.0
 31
0.0
  0
LINE
  5
197
100
AcDbEntity
  8
ｷｬﾋﾞﾈｯﾄ
  6
CONTINUOUS
 62
     2
100
AcDbLine
 10
1568.0
 20
705.0
 30
0.0
 11
1732.0
 21
705.0
 31
0.0
  0
LINE
  5
198
100
AcDbEntity
  8
ｷｬﾋﾞﾈｯﾄ
  6
CONTINUOUS
 62
     2
100
AcDbLine
 10
1642.0
 20
1420.0
 30
0.0
 11
1732.0
 21
1420.0
 31
0.0
  0
LINE
  5
199
100
AcDbEntity
  8
ｷｬﾋﾞﾈｯﾄ
  6
CONTINUOUS
 62
     2
100
AcDbLine
 10
1732.0
 20
1420.0
 30
0.0
 11
1732.0
 21
705.0
 31
0.0
  0
LINE
  5
19A
100
AcDbEntity
  8
ｷｬﾋﾞﾈｯﾄ
  6
CONTINUOUS
 62
     2
100
AcDbLine
 10
1568.0
 20
705.5
 30
0.0
 11
1553.0
 21
705.5
 31
0.0
  0
LINE
  5
19B
100
AcDbEntity
  8
ｷｬﾋﾞﾈｯﾄ
  6
CONTINUOUS
 62
     2
100
AcDbLine
 10
1525.8
 20
1355.0
 30
0.0
 11
1525.8
 21
829.0
 31
0.0
  0
LINE
  5
19C
100
AcDbEntity
  8
ｷｬﾋﾞﾈｯﾄ
  6
CONTINUOUS
 62
     2
100
AcDbLine
 10
1544.8
 20
1355.0
 30
0.0
 11
1544.8
 21
829.0
 31
0.0
  0
ARC
  5
19D
100
AcDbEntity
  8
ｷｬﾋﾞﾈｯﾄ
  6
CONTINUOUS
 62
     2
100
AcDbCircle
 10
1527.8
 20
829.0
 30
0.0
 40
2.0
100
AcDbArc
 50
180.0
 51
270.0
  0
LINE
  5
19E
100
AcDbEntity
  8
ｷｬﾋﾞﾈｯﾄ
  6
CONTINUOUS
 62
     2
100
AcDbLine
 10
1527.8
 20
827.0
 30
0.0
 11
1542.8
 21
827.0
 31
0.0
  0
ARC
  5
19F
100
AcDbEntity
  8
ｷｬﾋﾞﾈｯﾄ
  6
CONTINUOUS
 62
     2
100
AcDbCircle
 10
1542.8
 20
829.0
 30
0.0
 40
2.0
100
AcDbArc
 50
270.0
 51
0.0
  0
LINE
  5
1A0
100
AcDbEntity
  8
ｷｬﾋﾞﾈｯﾄ
  6
CONTINUOUS
 62
     2
100
AcDbLine
 10
1527.8
 20
1357.0
 30
0.0
 11
1542.8
 21
1357.0
 31
0.0
  0
ARC
  5
1A1
100
AcDbEntity
  8
ｷｬﾋﾞﾈｯﾄ
  6
CONTINUOUS
 62
     2
100
AcDbCircle
 10
1542.8
 20
1355.0
 30
0.0
 40
2.0
100
AcDbArc
 50
0.0
 51
90.0
  0
ARC
  5
1A2
100
AcDbEntity
  8
ｷｬﾋﾞﾈｯﾄ
  6
CONTINUOUS
 62
     2
100
AcDbCircle
 10
1527.8
 20
1355.0
 30
0.0
 40
2.0
100
AcDbArc
 50
90.0
 51
180.0
  0
LINE
  5
1A3
100
AcDbEntity
  8
ｷｬﾋﾞﾈｯﾄ
  6
CONTINUOUS
 62
     2
100
AcDbLine
 10
1542.0
 20
1399.5
 30
0.0
 11
1544.0
 21
1389.0
 31
0.0
  0
LINE
  5
1A4
100
AcDbEntity
  8
ｷｬﾋﾞﾈｯﾄ
  6
CONTINUOUS
 62
     2
100
AcDbLine
 10
1542.0
 20
1399.5
 30
0.0
 11
1542.0
 21
1401.0
 31
0.0
  0
ARC
  5
1A5
100
AcDbEntity
  8
ｷｬﾋﾞﾈｯﾄ
  6
CONTINUOUS
 62
     2
100
AcDbCircle
 10
1545.0
 20
1401.0
 30
0.0
 40
1.0
100
AcDbArc
 50
0.0
 51
90.0
  0
ARC
  5
1A6
100
AcDbEntity
  8
ｷｬﾋﾞﾈｯﾄ
  6
CONTINUOUS
 62
     2
100
AcDbCircle
 10
1543.0
 20
1401.0
 30
0.0
 40
1.0
100
AcDbArc
 50
90.0
 51
180.0
  0
LINE
  5
1A7
100
AcDbEntity
  8
ｷｬﾋﾞﾈｯﾄ
  6
CONTINUOUS
 62
     2
100
AcDbLine
 10
1543.0
 20
1402.0
 30
0.0
 11
1545.0
 21
1402.0
 31
0.0
  0
LINE
  5
1A8
100
AcDbEntity
  8
ｷｬﾋﾞﾈｯﾄ
  6
CONTINUOUS
 62
     2
100
AcDbLine
 10
1546.0
 20
1357.0
 30
0.0
 11
1546.0
 21
1401.0
 31
0.0
  0
LINE
  5
1A9
100
AcDbEntity
  8
ｷｬﾋﾞﾈｯﾄ
  6
CONTINUOUS
 62
     2
100
AcDbLine
 10
1525.8
 20
1357.0
 30
0.0
 11
1546.0
 21
1357.0
 31
0.0
  0
LINE
  5
1AA
100
AcDbEntity
  8
ｷｬﾋﾞﾈｯﾄ
  6
CONTINUOUS
 62
     2
100
AcDbLine
 10
1525.8
 20
1355.2
 30
0.0
 11
1525.8
 21
1357.0
 31
0.0
  0
LINE
  5
1AB
100
AcDbEntity
  8
ｷｬﾋﾞﾈｯﾄ
  6
CONTINUOUS
 62
     2
100
AcDbLine
 10
1526.6
 20
1369.5
 30
0.0
 11
1529.229587
 21
1375.751022
 31
0.0
  0
LINE
  5
1AC
100
AcDbEntity
  8
ｷｬﾋﾞﾈｯﾄ
  6
CONTINUOUS
 62
     2
100
AcDbLine
 10
1527.570413
 20
1376.448978
 30
0.0
 11
1524.8
 21
1369.863185
 31
0.0
  0
ARC
  5
1AD
100
AcDbEntity
  8
ｷｬﾋﾞﾈｯﾄ
  6
CONTINUOUS
 62
     2
100
AcDbCircle
 10
1528.6
 20
1362.0
 30
0.0
 40
2.0
100
AcDbArc
 50
180.0
 51
270.0
  0
ARC
  5
1AE
100
AcDbEntity
  8
ｷｬﾋﾞﾈｯﾄ
  6
CONTINUOUS
 62
     2
100
AcDbCircle
 10
1542.0
 20
1362.0
 30
0.0
 40
2.0
100
AcDbArc
 50
270.0
 51
0.0
  0
LINE
  5
1AF
100
AcDbEntity
  8
ｷｬﾋﾞﾈｯﾄ
  6
CONTINUOUS
 62
     2
100
AcDbLine
 10
1526.6
 20
1362.0
 30
0.0
 11
1526.6
 21
1369.5
 31
0.0
  0
LINE
  5
1B0
100
AcDbEntity
  8
ｷｬﾋﾞﾈｯﾄ
  6
CONTINUOUS
 62
     2
100
AcDbLine
 10
1544.0
 20
1362.0
 30
0.0
 11
1544.0
 21
1389.0
 31
0.0
  0
LINE
  5
1B1
100
AcDbEntity
  8
ｷｬﾋﾞﾈｯﾄ
  6
CONTINUOUS
 62
     2
100
AcDbLine
 10
1528.6
 20
1360.0
 30
0.0
 11
1542.0
 21
1360.0
 31
0.0
  0
ARC
  5
1B2
100
AcDbEntity
  8
ｷｬﾋﾞﾈｯﾄ
  6
CONTINUOUS
 62
     2
100
AcDbCircle
 10
1528.4
 20
1376.1
 30
0.0
 40
0.9
100
AcDbArc
 50
337.185208
 51
157.185208
  0
ARC
  5
1B3
100
AcDbEntity
  8
ｷｬﾋﾞﾈｯﾄ
  6
CONTINUOUS
 62
     2
100
AcDbCircle
 10
1525.8
 20
1356.2
 30
0.0
 40
1.0
100
AcDbArc
 50
180.0
 51
270.0
  0
ARC
  5
1B4
100
AcDbEntity
  8
ｷｬﾋﾞﾈｯﾄ
  6
CONTINUOUS
 62
     2
100
AcDbCircle
 10
1526.616667
 20
1367.2
 30
0.0
 40
1.816667
100
AcDbArc
 50
146.601512
 51
213.398488
  0
ARC
  5
1B5
100
AcDbEntity
  8
ｷｬﾋﾞﾈｯﾄ
  6
CONTINUOUS
 62
     2
100
AcDbCircle
 10
1526.616667
 20
1365.2
 30
0.0
 40
1.816667
100
AcDbArc
 50
146.601512
 51
213.398488
  0
ARC
  5
1B6
100
AcDbEntity
  8
ｷｬﾋﾞﾈｯﾄ
  6
CONTINUOUS
 62
     2
100
AcDbCircle
 10
1526.616667
 20
1363.2
 30
0.0
 40
1.816667
100
AcDbArc
 50
146.601512
 51
213.398488
  0
ARC
  5
1B7
100
AcDbEntity
  8
ｷｬﾋﾞﾈｯﾄ
  6
CONTINUOUS
 62
     2
100
AcDbCircle
 10
1526.616667
 20
1369.2
 30
0.0
 40
1.816667
100
AcDbArc
 50
180.0
 51
213.398488
  0
ARC
  5
1B8
100
AcDbEntity
  8
ｷｬﾋﾞﾈｯﾄ
  6
CONTINUOUS
 62
     2
100
AcDbCircle
 10
1526.616667
 20
1361.2
 30
0.0
 40
1.816667
100
AcDbArc
 50
146.601512
 51
180.0
  0
LINE
  5
1B9
100
AcDbEntity
  8
ｷｬﾋﾞﾈｯﾄ
  6
CONTINUOUS
 62
     2
100
AcDbLine
 10
1524.8
 20
1369.2
 30
0.0
 11
1524.8
 21
1369.863185
 31
0.0
  0
LINE
  5
1BA
100
AcDbEntity
  8
ｷｬﾋﾞﾈｯﾄ
  6
CONTINUOUS
 62
     2
100
AcDbLine
 10
1524.8
 20
1356.2
 30
0.0
 11
1524.8
 21
1361.2
 31
0.0
  0
LINE
  5
1BB
100
AcDbEntity
  8
ｷｬﾋﾞﾈｯﾄ
  6
CONTINUOUS
 62
     6
100
AcDbLine
 10
1682.0
 20
1275.0
 30
0.0
 11
1682.0
 21
1295.0
 31
0.0
  0
LINE
  5
1BC
100
AcDbEntity
  8
ｷｬﾋﾞﾈｯﾄ
  6
CONTINUOUS
 62
     6
100
AcDbLine
 10
1672.0
 20
1285.0
 30
0.0
 11
1692.0
 21
1285.0
 31
0.0
  0
LINE
  5
1BD
100
AcDbEntity
  8
ｷｬﾋﾞﾈｯﾄ
  6
CONTINUOUS
 62
     6
100
AcDbLine
 10
1682.0
 20
885.0
 30
0.0
 11
1682.0
 21
905.0
 31
0.0
  0
LINE
  5
1BE
100
AcDbEntity
  8
ｷｬﾋﾞﾈｯﾄ
  6
CONTINUOUS
 62
     6
100
AcDbLine
 10
1672.0
 20
895.0
 30
0.0
 11
1692.0
 21
895.0
 31
0.0
  0
LINE
  5
1BF
100
AcDbEntity
  8
ｷｬﾋﾞﾈｯﾄ
  6
CONTINUOUS
 62
     2
100
AcDbLine
 10
1553.0
 20
835.0
 30
0.0
 11
1553.0
 21
705.5
 31
0.0
  0
LINE
  5
1C0
100
AcDbEntity
  8
ｷｬﾋﾞﾈｯﾄ
  6
CONTINUOUS
 62
     2
100
AcDbLine
 10
1642.0
 20
1420.0
 30
0.0
 11
1642.0
 21
1405.0
 31
0.0
  0
LINE
  5
1C1
100
AcDbEntity
  8
ｷｬﾋﾞﾈｯﾄ
  6
EXLTYPE2
 62
     6
100
AcDbLine
 10
1714.0
 20
1405.0
 30
0.0
 11
1714.0
 21
795.0
 31
0.0
  0
LINE
  5
1C2
100
AcDbEntity
  8
ｷｬﾋﾞﾈｯﾄ
  6
EXLTYPE2
 62
     6
100
AcDbLine
 10
1717.0
 20
1405.0
 30
0.0
 11
1717.0
 21
795.0
 31
0.0
  0
LINE
  5
1C3
100
AcDbEntity
  8
ｷｬﾋﾞﾈｯﾄ
  6
EXLTYPE2
 62
     6
100
AcDbLine
 10
1717.0
 20
1365.0
 30
0.0
 11
1732.0
 21
1365.0
 31
0.0
  0
CIRCLE
  5
1C4
100
AcDbEntity
  8
ｷｬﾋﾞﾈｯﾄ
  6
EXLTYPE2
 62
     6
100
AcDbCircle
 10
1682.0
 20
1285.0
 30
0.0
 40
4.7
  0
CIRCLE
  5
1C5
100
AcDbEntity
  8
ｷｬﾋﾞﾈｯﾄ
  6
EXLTYPE2
 62
     6
100
AcDbCircle
 10
1682.0
 20
895.0
 30
0.0
 40
4.7
  0
LINE
  5
1C6
100
AcDbEntity
  8
ｷｬﾋﾞﾈｯﾄ
  6
EXLTYPE2
 62
     6
100
AcDbLine
 10
1699.0
 20
835.0
 30
0.0
 11
1699.0
 21
795.0
 31
0.0
  0
LINE
  5
1C7
100
AcDbEntity
  8
ｷｬﾋﾞﾈｯﾄ
  6
EXLTYPE2
 62
     6
100
AcDbLine
 10
1699.0
 20
795.0
 30
0.0
 11
1717.0
 21
795.0
 31
0.0
  0
LINE
  5
1C8
100
AcDbEntity
  8
ｷｬﾋﾞﾈｯﾄ
  6
EXLTYPE2
 62
     6
100
AcDbLine
 10
1548.0
 20
837.0
 30
0.0
 11
1714.0
 21
837.0
 31
0.0
  0
LINE
  5
1C9
100
AcDbEntity
  8
ｷｬﾋﾞﾈｯﾄ
  6
EXLTYPE2
 62
     6
100
AcDbLine
 10
1568.0
 20
835.0
 30
0.0
 11
1714.0
 21
835.0
 31
0.0
  0
LINE
  5
1CA
100
AcDbEntity
  8
ｷｬﾋﾞﾈｯﾄ
  6
EXLTYPE2
 62
     6
100
AcDbLine
 10
1657.0
 20
1405.0
 30
0.0
 11
1657.0
 21
1365.0
 31
0.0
  0
LINE
  5
1CB
100
AcDbEntity
  8
ｷｬﾋﾞﾈｯﾄ
  6
EXLTYPE2
 62
     6
100
AcDbLine
 10
1657.0
 20
1365.0
 30
0.0
 11
1642.0
 21
1365.0
 31
0.0
  0
LINE
  5
1CC
100
AcDbEntity
  8
ｷｬﾋﾞﾈｯﾄ
  6
EXLTYPE2
 62
     6
100
AcDbLine
 10
1642.0
 20
1405.0
 30
0.0
 11
1642.0
 21
1365.0
 31
0.0
  0
LINE
  5
1CD
100
AcDbEntity
  8
ｷｬﾋﾞﾈｯﾄ
  6
CONTINUOUS
 62
     6
100
AcDbLine
 10
1640.0
 20
1405.0
 30
0.0
 11
1640.0
 21
705.0
 31
0.0
  0
LINE
  5
1CE
100
AcDbEntity
  8
ｷｬﾋﾞﾈｯﾄ
  6
CONTINUOUS
 62
     6
100
AcDbLine
 10
1641.5
 20
1405.0
 30
0.0
 11
1641.5
 21
705.0
 31
0.0
  0
LINE
  5
1CF
100
AcDbEntity
  8
ｷｬﾋﾞﾈｯﾄ
  6
CONTINUOUS
 62
     6
100
AcDbLine
 10
1655.0
 20
1405.0
 30
0.0
 11
1655.0
 21
705.0
 31
0.0
  0
LINE
  5
1D0
100
AcDbEntity
  8
ｷｬﾋﾞﾈｯﾄ
  6
CONTINUOUS
 62
     2
100
AcDbLine
 10
587.5
 20
2517.0
 30
0.0
 11
872.5
 21
2517.0
 31
0.0
  0
LINE
  5
1D1
100
AcDbEntity
  8
ｷｬﾋﾞﾈｯﾄ
  6
CONTINUOUS
 62
     2
100
AcDbLine
 10
587.5
 20
2427.0
 30
0.0
 11
872.5
 21
2427.0
 31
0.0
  0
LINE
  5
1D2
100
AcDbEntity
  8
ｷｬﾋﾞﾈｯﾄ
  6
CONTINUOUS
 62
     2
100
AcDbLine
 10
874.0
 20
2440.0
 30
0.0
 11
872.5
 21
2440.0
 31
0.0
  0
LINE
  5
1D3
100
AcDbEntity
  8
ｷｬﾋﾞﾈｯﾄ
  6
CONTINUOUS
 62
     2
100
AcDbLine
 10
586.0
 20
2440.0
 30
0.0
 11
587.5
 21
2440.0
 31
0.0
  0
LINE
  5
1D4
100
AcDbEntity
  8
ｷｬﾋﾞﾈｯﾄ
  6
CONTINUOUS
 62
     6
100
AcDbLine
 10
890.0
 20
2469.0
 30
0.0
 11
890.8
 21
2465.0
 31
0.0
  0
LINE
  5
1D5
100
AcDbEntity
  8
ｷｬﾋﾞﾈｯﾄ
  6
CONTINUOUS
 62
     6
100
AcDbLine
 10
891.6
 20
2469.0
 30
0.0
 11
892.4
 21
2465.0
 31
0.0
  0
LINE
  5
1D6
100
AcDbEntity
  8
ｷｬﾋﾞﾈｯﾄ
  6
CONTINUOUS
 62
     6
100
AcDbLine
 10
893.2
 20
2469.0
 30
0.0
 11
894.0
 21
2465.0
 31
0.0
  0
LINE
  5
1D7
100
AcDbEntity
  8
ｷｬﾋﾞﾈｯﾄ
  6
CONTINUOUS
 62
     6
100
AcDbLine
 10
894.8
 20
2469.0
 30
0.0
 11
895.6
 21
2465.0
 31
0.0
  0
LINE
  5
1D8
100
AcDbEntity
  8
ｷｬﾋﾞﾈｯﾄ
  6
CONTINUOUS
 62
     6
100
AcDbLine
 10
896.4
 20
2469.0
 30
0.0
 11
897.2
 21
2465.0
 31
0.0
  0
LINE
  5
1D9
100
AcDbEntity
  8
ｷｬﾋﾞﾈｯﾄ
  6
CONTINUOUS
 62
     6
100
AcDbLine
 10
898.0
 20
2469.0
 30
0.0
 11
898.8
 21
2465.0
 31
0.0
  0
LINE
  5
1DA
100
AcDbEntity
  8
ｷｬﾋﾞﾈｯﾄ
  6
CONTINUOUS
 62
     6
100
AcDbLine
 10
899.6
 20
2469.0
 30
0.0
 11
900.4
 21
2465.0
 31
0.0
  0
LINE
  5
1DB
100
AcDbEntity
  8
ｷｬﾋﾞﾈｯﾄ
  6
CONTINUOUS
 62
     6
100
AcDbLine
 10
901.2
 20
2469.0
 30
0.0
 11
902.0
 21
2465.0
 31
0.0
  0
LINE
  5
1DC
100
AcDbEntity
  8
ｷｬﾋﾞﾈｯﾄ
  6
CONTINUOUS
 62
     6
100
AcDbLine
 10
906.181041
 20
2468.094793
 30
0.0
 11
906.588518
 21
2466.057411
 31
0.0
  0
LINE
  5
1DD
100
AcDbEntity
  8
ｷｬﾋﾞﾈｯﾄ
  6
CONTINUOUS
 62
     6
100
AcDbLine
 10
904.480964
 20
2468.595179
 30
0.0
 11
905.088125
 21
2465.559377
 31
0.0
  0
LINE
  5
1DE
100
AcDbEntity
  8
ｷｬﾋﾞﾈｯﾄ
  6
CONTINUOUS
 62
     6
100
AcDbLine
 10
902.82242
 20
2468.887902
 30
0.0
 11
903.556259
 21
2465.218704
 31
0.0
  0
LINE
  5
1DF
100
AcDbEntity
  8
ｷｬﾋﾞﾈｯﾄ
  6
CONTINUOUS
 62
     6
100
AcDbLine
 10
888.4
 20
2469.0
 30
0.0
 11
889.2
 21
2465.0
 31
0.0
  0
LINE
  5
1E0
100
AcDbEntity
  8
ｷｬﾋﾞﾈｯﾄ
  6
CONTINUOUS
 62
     6
100
AcDbLine
 10
886.8
 20
2469.0
 30
0.0
 11
887.6
 21
2465.0
 31
0.0
  0
LINE
  5
1E1
100
AcDbEntity
  8
ｷｬﾋﾞﾈｯﾄ
  6
CONTINUOUS
 62
     6
100
AcDbLine
 10
885.2
 20
2469.0
 30
0.0
 11
886.0
 21
2465.0
 31
0.0
  0
LINE
  5
1E2
100
AcDbEntity
  8
ｷｬﾋﾞﾈｯﾄ
  6
CONTINUOUS
 62
     6
100
AcDbLine
 10
883.6
 20
2469.0
 30
0.0
 11
884.4
 21
2465.0
 31
0.0
  0
LINE
  5
1E3
100
AcDbEntity
  8
ｷｬﾋﾞﾈｯﾄ
  6
CONTINUOUS
 62
     6
100
AcDbLine
 10
882.0
 20
2469.0
 30
0.0
 11
882.8
 21
2465.0
 31
0.0
  0
LINE
  5
1E4
100
AcDbEntity
  8
ｷｬﾋﾞﾈｯﾄ
  6
CONTINUOUS
 62
     6
100
AcDbLine
 10
880.4
 20
2469.0
 30
0.0
 11
881.2
 21
2465.0
 31
0.0
  0
LINE
  5
1E5
100
AcDbEntity
  8
ｷｬﾋﾞﾈｯﾄ
  6
CONTINUOUS
 62
     6
100
AcDbLine
 10
878.8
 20
2469.0
 30
0.0
 11
879.6
 21
2465.0
 31
0.0
  0
LINE
  5
1E6
100
AcDbEntity
  8
ｷｬﾋﾞﾈｯﾄ
  6
CONTINUOUS
 62
     6
100
AcDbLine
 10
877.2
 20
2469.0
 30
0.0
 11
878.0
 21
2465.0
 31
0.0
  0
LINE
  5
1E7
100
AcDbEntity
  8
ｷｬﾋﾞﾈｯﾄ
  6
CONTINUOUS
 62
     6
100
AcDbLine
 10
875.6
 20
2469.0
 30
0.0
 11
876.4
 21
2465.0
 31
0.0
  0
LINE
  5
1E8
100
AcDbEntity
  8
ｷｬﾋﾞﾈｯﾄ
  6
CONTINUOUS
 62
     6
100
AcDbLine
 10
874.0
 20
2469.0
 30
0.0
 11
874.8
 21
2465.0
 31
0.0
  0
ARC
  5
1E9
100
AcDbEntity
  8
ｷｬﾋﾞﾈｯﾄ
  6
CONTINUOUS
 62
     6
100
AcDbCircle
 10
900.961652
 20
2453.5
 30
0.0
 40
15.0
100
AcDbArc
 50
64.158067
 51
90.0
  0
ARC
  5
1EA
100
AcDbEntity
  8
ｷｬﾋﾞﾈｯﾄ
  6
CONTINUOUS
 62
     6
100
AcDbCircle
 10
900.961652
 20
2480.5
 30
0.0
 40
15.0
100
AcDbArc
 50
270.0
 51
295.841933
  0
LINE
  5
1EB
100
AcDbEntity
  8
ｷｬﾋﾞﾈｯﾄ
  6
CONTINUOUS
 62
     6
100
AcDbLine
 10
850.0
 20
2467.0
 30
0.0
 11
912.5
 21
2467.0
 31
0.0
  0
LINE
  5
1EC
100
AcDbEntity
  8
ｷｬﾋﾞﾈｯﾄ
  6
CONTINUOUS
 62
     6
100
AcDbLine
 10
570.0
 20
2465.0
 30
0.0
 11
569.2
 21
2469.0
 31
0.0
  0
LINE
  5
1ED
100
AcDbEntity
  8
ｷｬﾋﾞﾈｯﾄ
  6
CONTINUOUS
 62
     6
100
AcDbLine
 10
568.4
 20
2465.0
 30
0.0
 11
567.6
 21
2469.0
 31
0.0
  0
LINE
  5
1EE
100
AcDbEntity
  8
ｷｬﾋﾞﾈｯﾄ
  6
CONTINUOUS
 62
     6
100
AcDbLine
 10
566.8
 20
2465.0
 30
0.0
 11
566.0
 21
2469.0
 31
0.0
  0
LINE
  5
1EF
100
AcDbEntity
  8
ｷｬﾋﾞﾈｯﾄ
  6
CONTINUOUS
 62
     6
100
AcDbLine
 10
565.2
 20
2465.0
 30
0.0
 11
564.4
 21
2469.0
 31
0.0
  0
LINE
  5
1F0
100
AcDbEntity
  8
ｷｬﾋﾞﾈｯﾄ
  6
CONTINUOUS
 62
     6
100
AcDbLine
 10
563.6
 20
2465.0
 30
0.0
 11
562.8
 21
2469.0
 31
0.0
  0
LINE
  5
1F1
100
AcDbEntity
  8
ｷｬﾋﾞﾈｯﾄ
  6
CONTINUOUS
 62
     6
100
AcDbLine
 10
562.0
 20
2465.0
 30
0.0
 11
561.2
 21
2469.0
 31
0.0
  0
LINE
  5
1F2
100
AcDbEntity
  8
ｷｬﾋﾞﾈｯﾄ
  6
CONTINUOUS
 62
     6
100
AcDbLine
 10
560.4
 20
2465.0
 30
0.0
 11
559.6
 21
2469.0
 31
0.0
  0
LINE
  5
1F3
100
AcDbEntity
  8
ｷｬﾋﾞﾈｯﾄ
  6
CONTINUOUS
 62
     6
100
AcDbLine
 10
558.8
 20
2465.0
 30
0.0
 11
558.0
 21
2469.0
 31
0.0
  0
LINE
  5
1F4
100
AcDbEntity
  8
ｷｬﾋﾞﾈｯﾄ
  6
CONTINUOUS
 62
     6
100
AcDbLine
 10
553.818959
 20
2465.905207
 30
0.0
 11
553.411482
 21
2467.942589
 31
0.0
  0
LINE
  5
1F5
100
AcDbEntity
  8
ｷｬﾋﾞﾈｯﾄ
  6
CONTINUOUS
 62
     6
100
AcDbLine
 10
555.519036
 20
2465.404821
 30
0.0
 11
554.911875
 21
2468.440623
 31
0.0
  0
LINE
  5
1F6
100
AcDbEntity
  8
ｷｬﾋﾞﾈｯﾄ
  6
CONTINUOUS
 62
     6
100
AcDbLine
 10
557.17758
 20
2465.112098
 30
0.0
 11
556.443741
 21
2468.781296
 31
0.0
  0
LINE
  5
1F7
100
AcDbEntity
  8
ｷｬﾋﾞﾈｯﾄ
  6
CONTINUOUS
 62
     6
100
AcDbLine
 10
571.6
 20
2465.0
 30
0.0
 11
570.8
 21
2469.0
 31
0.0
  0
LINE
  5
1F8
100
AcDbEntity
  8
ｷｬﾋﾞﾈｯﾄ
  6
CONTINUOUS
 62
     6
100
AcDbLine
 10
573.2
 20
2465.0
 30
0.0
 11
572.4
 21
2469.0
 31
0.0
  0
LINE
  5
1F9
100
AcDbEntity
  8
ｷｬﾋﾞﾈｯﾄ
  6
CONTINUOUS
 62
     6
100
AcDbLine
 10
574.8
 20
2465.0
 30
0.0
 11
574.0
 21
2469.0
 31
0.0
  0
LINE
  5
1FA
100
AcDbEntity
  8
ｷｬﾋﾞﾈｯﾄ
  6
CONTINUOUS
 62
     6
100
AcDbLine
 10
576.4
 20
2465.0
 30
0.0
 11
575.6
 21
2469.0
 31
0.0
  0
LINE
  5
1FB
100
AcDbEntity
  8
ｷｬﾋﾞﾈｯﾄ
  6
CONTINUOUS
 62
     6
100
AcDbLine
 10
578.0
 20
2465.0
 30
0.0
 11
577.2
 21
2469.0
 31
0.0
  0
LINE
  5
1FC
100
AcDbEntity
  8
ｷｬﾋﾞﾈｯﾄ
  6
CONTINUOUS
 62
     6
100
AcDbLine
 10
579.6
 20
2465.0
 30
0.0
 11
578.8
 21
2469.0
 31
0.0
  0
LINE
  5
1FD
100
AcDbEntity
  8
ｷｬﾋﾞﾈｯﾄ
  6
CONTINUOUS
 62
     6
100
AcDbLine
 10
581.2
 20
2465.0
 30
0.0
 11
580.4
 21
2469.0
 31
0.0
  0
LINE
  5
1FE
100
AcDbEntity
  8
ｷｬﾋﾞﾈｯﾄ
  6
CONTINUOUS
 62
     6
100
AcDbLine
 10
582.8
 20
2465.0
 30
0.0
 11
582.0
 21
2469.0
 31
0.0
  0
LINE
  5
1FF
100
AcDbEntity
  8
ｷｬﾋﾞﾈｯﾄ
  6
CONTINUOUS
 62
     6
100
AcDbLine
 10
584.4
 20
2465.0
 30
0.0
 11
583.6
 21
2469.0
 31
0.0
  0
LINE
  5
200
100
AcDbEntity
  8
ｷｬﾋﾞﾈｯﾄ
  6
CONTINUOUS
 62
     6
100
AcDbLine
 10
586.0
 20
2465.0
 30
0.0
 11
585.2
 21
2469.0
 31
0.0
  0
ARC
  5
201
100
AcDbEntity
  8
ｷｬﾋﾞﾈｯﾄ
  6
CONTINUOUS
 62
     6
100
AcDbCircle
 10
559.038348
 20
2480.5
 30
0.0
 40
15.0
100
AcDbArc
 50
244.158067
 51
270.0
  0
ARC
  5
202
100
AcDbEntity
  8
ｷｬﾋﾞﾈｯﾄ
  6
CONTINUOUS
 62
     6
100
AcDbCircle
 10
559.038348
 20
2453.5
 30
0.0
 40
15.0
100
AcDbArc
 50
90.0
 51
115.841933
  0
LINE
  5
203
100
AcDbEntity
  8
ｷｬﾋﾞﾈｯﾄ
  6
CONTINUOUS
 62
     6
100
AcDbLine
 10
610.0
 20
2467.0
 30
0.0
 11
547.5
 21
2467.0
 31
0.0
  0
LINE
  5
204
100
AcDbEntity
  8
ｷｬﾋﾞﾈｯﾄ
  6
CONTINUOUS
 62
     6
100
AcDbLine
 10
587.5
 20
2468.5
 30
0.0
 11
559.038348
 21
2468.5
 31
0.0
  0
LINE
  5
205
100
AcDbEntity
  8
ｷｬﾋﾞﾈｯﾄ
  6
CONTINUOUS
 62
     6
100
AcDbLine
 10
587.5
 20
2465.5
 30
0.0
 11
559.038348
 21
2465.5
 31
0.0
  0
LINE
  5
206
100
AcDbEntity
  8
ｷｬﾋﾞﾈｯﾄ
  6
CONTINUOUS
 62
     6
100
AcDbLine
 10
872.5
 20
2468.5
 30
0.0
 11
900.961652
 21
2468.5
 31
0.0
  0
LINE
  5
207
100
AcDbEntity
  8
ｷｬﾋﾞﾈｯﾄ
  6
CONTINUOUS
 62
     6
100
AcDbLine
 10
872.5
 20
2465.5
 30
0.0
 11
900.961652
 21
2465.5
 31
0.0
  0
LINE
  5
208
100
AcDbEntity
  8
ｷｬﾋﾞﾈｯﾄ
  6
CONTINUOUS
 62
     2
100
AcDbLine
 10
587.5
 20
2517.0
 30
0.0
 11
587.5
 21
2427.0
 31
0.0
  0
LINE
  5
209
100
AcDbEntity
  8
ｷｬﾋﾞﾈｯﾄ
  6
CONTINUOUS
 62
     2
100
AcDbLine
 10
586.0
 20
2427.0
 30
0.0
 11
586.0
 21
2440.0
 31
0.0
  0
LINE
  5
20A
100
AcDbEntity
  8
ｷｬﾋﾞﾈｯﾄ
  6
CONTINUOUS
 62
     2
100
AcDbLine
 10
872.5
 20
2517.0
 30
0.0
 11
872.5
 21
2427.0
 31
0.0
  0
LINE
  5
20B
100
AcDbEntity
  8
ｷｬﾋﾞﾈｯﾄ
  6
CONTINUOUS
 62
     2
100
AcDbLine
 10
874.0
 20
2440.0
 30
0.0
 11
874.0
 21
2427.0
 31
0.0
  0
ARC
  5
20C
100
AcDbEntity
  8
ｷｬﾋﾞﾈｯﾄ
  6
CONTINUOUS
 62
     2
100
AcDbCircle
 10
780.0
 20
2477.0
 30
0.0
 40
17.5
100
AcDbArc
 50
347.785695
 51
182.256025
  0
LINE
  5
20D
100
AcDbEntity
  8
水栓
  6
EXLTYPE3
 62
     6
100
AcDbLine
 10
1647.0
 20
1680.0
 30
0.0
 11
1576.400051
 21
1680.0
 31
0.0
  0
ARC
  5
20E
100
AcDbEntity
  8
水栓
  6
CONTINUOUS
 62
     2
100
AcDbCircle
 10
740.914193
 20
1664.447495
 30
0.0
 40
2.0
100
AcDbArc
 50
125.059807
 51
204.561442
  0
ARC
  5
20F
100
AcDbEntity
  8
水栓
  6
CONTINUOUS
 62
     2
100
AcDbCircle
 10
730.0
 20
1680.0
 30
0.0
 40
17.0
100
AcDbArc
 50
305.059807
 51
234.940193
  0
ARC
  5
210
100
AcDbEntity
  8
水栓
  6
CONTINUOUS
 62
     2
100
AcDbCircle
 10
719.085807
 20
1664.447495
 30
0.0
 40
2.0
100
AcDbArc
 50
335.438558
 51
54.940193
  0
LINE
  5
211
100
AcDbEntity
  8
水栓
  6
CONTINUOUS
 62
     2
100
AcDbLine
 10
739.199901
 20
1668.0
 30
0.0
 11
739.199939
 21
1668.0
 31
0.0
  0
ARC
  5
212
100
AcDbEntity
  8
水栓
  6
CONTINUOUS
 62
     2
100
AcDbCircle
 10
730.0
 20
1659.459469
 30
0.0
 40
10.0
100
AcDbArc
 50
155.438558
 51
24.561442
  0
ARC
  5
213
100
AcDbEntity
  8
水栓
  6
CONTINUOUS
 62
     2
100
AcDbCircle
 10
730.0
 20
1680.0
 30
0.0
 40
18.999625
100
AcDbArc
 50
298.964123
 51
241.035877
  0
LINE
  5
214
100
AcDbEntity
  8
水栓
  6
CONTINUOUS
 62
     2
100
AcDbLine
 10
720.001666
 20
1650.529838
 30
0.0
 11
719.0
 21
1664.729832
 31
0.0
  0
ELLIPSE
  5
215
100
AcDbEntity
  8
水栓
  6
CONTINUOUS
 62
     2
100
AcDbEllipse
 10
730.0
 20
1650.577083
 30
0.0
 11
9.9999999999999964
 21
0.0
 31
0.0
210
0.0
220
0.0
230
1.0
 40
0.258819
 41
2.3997824733589077
 42
0.74181018023089
  0
LINE
  5
216
100
AcDbEntity
  8
水栓
  6
CONTINUOUS
 62
     2
100
AcDbLine
 10
739.998334
 20
1650.529838
 30
0.0
 11
741.0
 21
1664.729832
 31
0.0
  0
ELLIPSE
  5
217
100
AcDbEntity
  8
水栓
  6
CONTINUOUS
 62
     6
100
AcDbEllipse
 10
730.0
 20
1650.554343
 30
0.0
 11
8.5000000000000018
 21
0.0
 31
0.0
210
0.0
220
0.0
230
1.0
 40
0.258819
 41
5.4824063893389257
 42
0.6243621413411731
  0
ELLIPSE
  5
218
100
AcDbEntity
  8
水栓
  6
CONTINUOUS
 62
     6
100
AcDbEllipse
 10
730.0
 20
1649.671216
 30
0.0
 11
6.5000000000000062
 21
0.0
 31
0.0
210
0.0
220
0.0
230
1.0
 40
0.258819
 41
2.5357820966574938
 42
0.6058105569322988
  0
ELLIPSE
  5
219
100
AcDbEntity
  8
水栓
  6
CONTINUOUS
 62
     6
100
AcDbEllipse
 10
730.0
 20
1650.554343
 30
0.0
 11
8.5000000000000018
 21
0.0
 31
0.0
210
0.0
220
0.0
230
1.0
 40
0.258819
 41
2.5172305122486236
 42
3.9423715714254546
  0
LINE
  5
21A
100
AcDbEntity
  8
水栓
  6
CONTINUOUS
 62
     6
100
AcDbLine
 10
785.0
 20
1145.0
 30
0.0
 11
825.0
 21
1145.0
 31
0.0
  0
LINE
  5
21B
100
AcDbEntity
  8
水栓
  6
EXLTYPE3
 62
     6
100
AcDbLine
 10
805.0
 20
1189.7
 30
0.0
 11
805.0
 21
687.0
 31
0.0
  0
ARC
  5
21C
100
AcDbEntity
  8
水栓
  6
EXLTYPE2
 62
     6
100
AcDbCircle
 10
754.5
 20
1164.843135
 30
0.0
 40
40.0
100
AcDbArc
 50
345.638488
 51
0.0
  0
ARC
  5
21D
100
AcDbEntity
  8
水栓
  6
EXLTYPE2
 62
     6
100
AcDbCircle
 10
855.5
 20
1164.843135
 30
0.0
 40
40.0
100
AcDbArc
 50
180.0
 51
194.361512
  0
ARC
  5
21E
100
AcDbEntity
  8
水栓
  6
EXLTYPE2
 62
     6
100
AcDbCircle
 10
785.25
 20
1124.865389
 30
0.0
 40
7.5
100
AcDbArc
 50
338.96053
 51
0.0
  0
ARC
  5
21F
100
AcDbEntity
  8
水栓
  6
EXLTYPE2
 62
     6
100
AcDbCircle
 10
824.75
 20
1124.865389
 30
0.0
 40
7.5
100
AcDbArc
 50
180.0
 51
201.03947
  0
LINE
  5
220
100
AcDbEntity
  8
水栓
  6
EXLTYPE2
 62
     6
100
AcDbLine
 10
818.0
 20
1139.163691
 30
0.0
 11
818.0
 21
1150.836309
 31
0.0
  0
LINE
  5
221
100
AcDbEntity
  8
水栓
  6
EXLTYPE2
 62
     6
100
AcDbLine
 10
816.554392
 20
1153.340176
 30
0.0
 11
806.445608
 21
1159.176485
 31
0.0
  0
LINE
  5
222
100
AcDbEntity
  8
水栓
  6
EXLTYPE2
 62
     6
100
AcDbLine
 10
803.554392
 20
1159.176485
 30
0.0
 11
793.445608
 21
1153.340176
 31
0.0
  0
LINE
  5
223
100
AcDbEntity
  8
水栓
  6
EXLTYPE2
 62
     6
100
AcDbLine
 10
792.0
 20
1150.836309
 30
0.0
 11
792.0
 21
1139.163691
 31
0.0
  0
LINE
  5
224
100
AcDbEntity
  8
水栓
  6
EXLTYPE2
 62
     6
100
AcDbLine
 10
793.445608
 20
1136.659824
 30
0.0
 11
803.554392
 21
1130.823515
 31
0.0
  0
LINE
  5
225
100
AcDbEntity
  8
水栓
  6
EXLTYPE2
 62
     6
100
AcDbLine
 10
806.445608
 20
1130.823515
 30
0.0
 11
816.554392
 21
1136.659824
 31
0.0
  0
ARC
  5
226
100
AcDbEntity
  8
水栓
  6
EXLTYPE2
 62
     6
100
AcDbCircle
 10
805.0
 20
1145.0
 30
0.0
 40
14.25
100
AcDbArc
 50
264.177545
 51
275.822455
  0
ARC
  5
227
100
AcDbEntity
  8
水栓
  6
EXLTYPE2
 62
     6
100
AcDbCircle
 10
805.0
 20
1145.0
 30
0.0
 40
14.25
100
AcDbArc
 50
324.177545
 51
335.822455
  0
ARC
  5
228
100
AcDbEntity
  8
水栓
  6
EXLTYPE2
 62
     6
100
AcDbCircle
 10
805.0
 20
1145.0
 30
0.0
 40
14.25
100
AcDbArc
 50
24.177545
 51
35.822455
  0
ARC
  5
229
100
AcDbEntity
  8
水栓
  6
EXLTYPE2
 62
     6
100
AcDbCircle
 10
805.0
 20
1145.0
 30
0.0
 40
14.25
100
AcDbArc
 50
84.177545
 51
95.822455
  0
ARC
  5
22A
100
AcDbEntity
  8
水栓
  6
EXLTYPE2
 62
     6
100
AcDbCircle
 10
805.0
 20
1145.0
 30
0.0
 40
14.25
100
AcDbArc
 50
144.177545
 51
155.822455
  0
ARC
  5
22B
100
AcDbEntity
  8
水栓
  6
EXLTYPE2
 62
     6
100
AcDbCircle
 10
805.0
 20
1145.0
 30
0.0
 40
14.25
100
AcDbArc
 50
204.177545
 51
215.822455
  0
CIRCLE
  5
22C
100
AcDbEntity
  8
水栓
  6
EXLTYPE2
 62
     6
100
AcDbCircle
 10
805.0
 20
1145.0
 30
0.0
 40
4.75
  0
ARC
  5
22D
100
AcDbEntity
  8
水栓
  6
EXLTYPE2
 62
     6
100
AcDbCircle
 10
832.0
 20
1145.0
 30
0.0
 40
40.0
100
AcDbArc
 50
165.638488
 51
169.811239
  0
ARC
  5
22E
100
AcDbEntity
  8
水栓
  6
EXLTYPE2
 62
     6
100
AcDbCircle
 10
778.0
 20
1145.0
 30
0.0
 40
40.0
100
AcDbArc
 50
10.188761
 51
14.361512
  0
LINE
  5
22F
100
AcDbEntity
  8
水栓
  6
EXLTYPE2
 62
     6
100
AcDbLine
 10
792.75
 20
1137.71989
 30
0.0
 11
792.75
 21
1124.865389
 31
0.0
  0
LINE
  5
230
100
AcDbEntity
  8
水栓
  6
EXLTYPE2
 62
     6
100
AcDbLine
 10
817.25
 20
1137.71989
 30
0.0
 11
817.25
 21
1124.865389
 31
0.0
  0
LINE
  5
231
100
AcDbEntity
  8
水栓
  6
EXLTYPE2
 62
     6
100
AcDbLine
 10
794.030456
 20
1167.7
 30
0.0
 11
815.969544
 21
1167.7
 31
0.0
  0
LINE
  5
232
100
AcDbEntity
  8
水栓
  6
EXLTYPE2
 62
     6
100
AcDbLine
 10
794.030456
 20
1179.7
 30
0.0
 11
815.969544
 21
1179.7
 31
0.0
  0
LINE
  5
233
100
AcDbEntity
  8
水栓
  6
EXLTYPE2
 62
     6
100
AcDbLine
 10
793.5
 20
1178.792887
 30
0.0
 11
793.5
 21
1168.607113
 31
0.0
  0
LINE
  5
234
100
AcDbEntity
  8
水栓
  6
EXLTYPE2
 62
     6
100
AcDbLine
 10
816.5
 20
1178.792887
 30
0.0
 11
816.5
 21
1168.607113
 31
0.0
  0
ARC
  5
235
100
AcDbEntity
  8
水栓
  6
EXLTYPE2
 62
     6
100
AcDbCircle
 10
803.25
 20
1173.7
 30
0.0
 40
11.0
100
AcDbArc
 50
146.944269
 51
152.419801
  0
ARC
  5
236
100
AcDbEntity
  8
水栓
  6
EXLTYPE2
 62
     6
100
AcDbCircle
 10
803.25
 20
1173.7
 30
0.0
 40
11.0
100
AcDbArc
 50
207.580199
 51
213.055731
  0
ARC
  5
237
100
AcDbEntity
  8
水栓
  6
EXLTYPE2
 62
     6
100
AcDbCircle
 10
806.75
 20
1173.7
 30
0.0
 40
11.0
100
AcDbArc
 50
326.944269
 51
332.419801
  0
ARC
  5
238
100
AcDbEntity
  8
水栓
  6
EXLTYPE2
 62
     6
100
AcDbCircle
 10
806.75
 20
1173.7
 30
0.0
 40
11.0
100
AcDbArc
 50
27.580199
 51
33.055731
  0
LINE
  5
239
100
AcDbEntity
  8
水栓
  6
EXLTYPE2
 62
     6
100
AcDbLine
 10
794.5
 20
1167.7
 30
0.0
 11
794.5
 21
1164.843135
 31
0.0
  0
LINE
  5
23A
100
AcDbEntity
  8
水栓
  6
EXLTYPE2
 62
     6
100
AcDbLine
 10
815.5
 20
1167.7
 30
0.0
 11
815.5
 21
1164.843135
 31
0.0
  0
CIRCLE
  5
23B
100
AcDbEntity
  8
水栓
  6
EXLTYPE2
 62
     6
100
AcDbCircle
 10
805.0
 20
1145.0
 30
0.0
 40
12.074349
  0
LINE
  5
23C
100
AcDbEntity
  8
水栓
  6
EXLTYPE2
 62
     6
100
AcDbLine
 10
794.25
 20
853.0
 30
0.0
 11
815.75
 21
853.0
 31
0.0
  0
ARC
  5
23D
100
AcDbEntity
  8
水栓
  6
EXLTYPE2
 62
     6
100
AcDbCircle
 10
795.420523
 20
827.727092
 30
0.0
 40
25.3
100
AcDbArc
 50
92.651778
 51
113.580837
  0
ARC
  5
23E
100
AcDbEntity
  8
水栓
  6
EXLTYPE2
 62
     6
100
AcDbCircle
 10
790.5
 20
839.0
 30
0.0
 40
13.0
100
AcDbArc
 50
113.580837
 51
180.0
  0
LINE
  5
23F
100
AcDbEntity
  8
水栓
  6
EXLTYPE2
 62
     6
100
AcDbLine
 10
777.5
 20
839.0
 30
0.0
 11
777.5
 21
837.0
 31
0.0
  0
LINE
  5
240
100
AcDbEntity
  8
水栓
  6
EXLTYPE2
 62
     6
100
AcDbLine
 10
777.5
 20
837.0
 30
0.0
 11
832.5
 21
837.0
 31
0.0
  0
LINE
  5
241
100
AcDbEntity
  8
水栓
  6
EXLTYPE2
 62
     6
100
AcDbLine
 10
832.5
 20
839.0
 30
0.0
 11
832.5
 21
837.0
 31
0.0
  0
ARC
  5
242
100
AcDbEntity
  8
水栓
  6
EXLTYPE2
 62
     6
100
AcDbCircle
 10
819.5
 20
839.0
 30
0.0
 40
13.0
100
AcDbArc
 50
0.0
 51
66.419163
  0
ARC
  5
243
100
AcDbEntity
  8
水栓
  6
EXLTYPE2
 62
     6
100
AcDbCircle
 10
814.579477
 20
827.727092
 30
0.0
 40
25.3
100
AcDbArc
 50
66.419163
 51
87.348222
  0
LINE
  5
244
100
AcDbEntity
  8
水栓
  6
EXLTYPE2
 62
     6
100
AcDbLine
 10
794.5
 20
697.0
 30
0.0
 11
794.5
 21
1110.0
 31
0.0
  0
LINE
  5
245
100
AcDbEntity
  8
水栓
  6
EXLTYPE2
 62
     6
100
AcDbLine
 10
815.5
 20
697.0
 30
0.0
 11
815.5
 21
1110.0
 31
0.0
  0
LINE
  5
246
100
AcDbEntity
  8
水栓
  6
EXLTYPE2
 62
     6
100
AcDbLine
 10
792.75
 20
1110.0
 30
0.0
 11
817.25
 21
1110.0
 31
0.0
  0
LINE
  5
247
100
AcDbEntity
  8
水栓
  6
EXLTYPE2
 62
     6
100
AcDbLine
 10
792.25
 20
1110.288675
 30
0.0
 11
792.25
 21
1122.172807
 31
0.0
  0
LINE
  5
248
100
AcDbEntity
  8
水栓
  6
EXLTYPE2
 62
     6
100
AcDbLine
 10
817.75
 20
1110.288675
 30
0.0
 11
817.75
 21
1122.172807
 31
0.0
  0
LINE
  5
249
100
AcDbEntity
  8
水栓
  6
EXLTYPE2
 62
     6
100
AcDbLine
 10
792.75
 20
1110.0
 30
0.0
 11
792.25
 21
1110.288675
 31
0.0
  0
LINE
  5
24A
100
AcDbEntity
  8
水栓
  6
EXLTYPE2
 62
     6
100
AcDbLine
 10
817.25
 20
1110.0
 30
0.0
 11
817.75
 21
1110.288675
 31
0.0
  0
LINE
  5
24B
100
AcDbEntity
  8
水栓
  6
CONTINUOUS
 62
     6
100
AcDbLine
 10
815.5
 20
697.0
 30
0.0
 11
794.5
 21
697.0
 31
0.0
  0
ARC
  5
24C
100
AcDbEntity
  8
水栓
  6
CONTINUOUS
 62
     2
100
AcDbCircle
 10
1581.899456
 20
1649.959469
 30
0.0
 40
0.5
100
AcDbArc
 50
180.0
 51
270.0
  0
LINE
  5
24D
100
AcDbEntity
  8
水栓
  6
CONTINUOUS
 62
     2
100
AcDbLine
 10
1592.999456
 20
1649.959469
 30
0.0
 11
1592.999456
 21
1659.034093
 31
0.0
  0
ARC
  5
24E
100
AcDbEntity
  8
水栓
  6
CONTINUOUS
 62
     2
100
AcDbCircle
 10
1597.499456
 20
1659.034093
 30
0.0
 40
4.5
100
AcDbArc
 50
87.611815
 51
180.0
  0
ARC
  5
24F
100
AcDbEntity
  8
水栓
  6
CONTINUOUS
 62
     2
100
AcDbCircle
 10
1592.499456
 20
1649.959469
 30
0.0
 40
0.5
100
AcDbArc
 50
270.0
 51
0.0
  0
LINE
  5
250
100
AcDbEntity
  8
水栓
  6
CONTINUOUS
 62
     2
100
AcDbLine
 10
1581.899456
 20
1649.459469
 30
0.0
 11
1592.499456
 21
1649.459469
 31
0.0
  0
ARC
  5
251
100
AcDbEntity
  8
水栓
  6
CONTINUOUS
 62
     2
100
AcDbCircle
 10
1582.399856
 20
1694.789841
 30
0.0
 40
1.0
100
AcDbArc
 50
92.386712
 51
180.000756
  0
LINE
  5
252
100
AcDbEntity
  8
水栓
  6
CONTINUOUS
 62
     2
100
AcDbLine
 10
1581.400448
 20
1649.959469
 30
0.0
 11
1581.399856
 21
1694.789727
 31
0.0
  0
LINE
  5
253
100
AcDbEntity
  8
水栓
  6
CONTINUOUS
 62
     2
100
AcDbLine
 10
1597.688425
 20
1663.570782
 30
0.0
 11
1609.0
 21
1663.099616
 31
0.0
  0
LINE
  5
254
100
AcDbEntity
  8
水栓
  6
CONTINUOUS
 62
     2
100
AcDbLine
 10
1582.358212
 20
1695.788973
 30
0.0
 11
1609.0
 21
1696.8994
 31
0.0
  0
LINE
  5
255
100
AcDbEntity
  8
水栓
  6
CONTINUOUS
 62
     2
100
AcDbLine
 10
1581.400272
 20
1663.248373
 30
0.0
 11
1592.999456
 21
1662.765227
 31
0.0
  0
LINE
  5
256
100
AcDbEntity
  8
水栓
  6
EXLTYPE3
 62
     6
100
AcDbLine
 10
1657.0
 20
1189.7
 30
0.0
 11
1657.0
 21
684.999998
 31
0.0
  0
LINE
  5
257
100
AcDbEntity
  8
水栓
  6
CONTINUOUS
 62
     6
100
AcDbLine
 10
1605.0
 20
1145.0
 30
0.0
 11
1681.722432
 21
1145.0
 31
0.0
  0
ARC
  5
258
100
AcDbEntity
  8
水栓
  6
EXLTYPE2
 62
     6
100
AcDbCircle
 10
1707.5
 20
1164.843135
 30
0.0
 40
40.0
100
AcDbArc
 50
180.0
 51
194.361512
  0
ARC
  5
259
100
AcDbEntity
  8
水栓
  6
EXLTYPE2
 62
     6
100
AcDbCircle
 10
1630.0
 20
1145.0
 30
0.0
 40
40.0
100
AcDbArc
 50
352.14831
 51
14.361512
  0
ARC
  5
25A
100
AcDbEntity
  8
水栓
  6
EXLTYPE2
 62
     6
100
AcDbCircle
 10
1709.25
 20
1134.071254
 30
0.0
 40
40.0
100
AcDbArc
 50
172.14831
 51
180.0
  0
ARC
  5
25B
100
AcDbEntity
  8
水栓
  6
EXLTYPE2
 62
     6
100
AcDbCircle
 10
1676.75
 20
1124.865389
 30
0.0
 40
7.5
100
AcDbArc
 50
180.0
 51
227.906502
  0
LINE
  5
25C
100
AcDbEntity
  8
水栓
  6
EXLTYPE2
 62
     6
100
AcDbLine
 10
1669.25
 20
1134.071254
 30
0.0
 11
1669.25
 21
1124.865389
 31
0.0
  0
ARC
  5
25D
100
AcDbEntity
  8
水栓
  6
EXLTYPE2
 62
     6
100
AcDbCircle
 10
1637.25
 20
1124.865389
 30
0.0
 40
7.5
100
AcDbArc
 50
312.093498
 51
0.0
  0
ARC
  5
25E
100
AcDbEntity
  8
水栓
  6
EXLTYPE2
 62
     6
100
AcDbCircle
 10
1639.0
 20
1164.5
 30
0.0
 40
7.5
100
AcDbArc
 50
270.0
 51
0.0
  0
ARC
  5
25F
100
AcDbEntity
  8
水栓
  6
EXLTYPE2
 62
     6
100
AcDbCircle
 10
1637.25
 20
1125.5
 30
0.0
 40
7.5
100
AcDbArc
 50
0.0
 51
90.0
  0
LINE
  5
260
100
AcDbEntity
  8
水栓
  6
EXLTYPE2
 62
     6
100
AcDbLine
 10
1644.75
 20
1125.5
 30
0.0
 11
1644.75
 21
1124.865389
 31
0.0
  0
LINE
  5
261
100
AcDbEntity
  8
水栓
  6
EXLTYPE2
 62
     6
100
AcDbLine
 10
1633.5
 20
1157.0
 30
0.0
 11
1639.0
 21
1157.0
 31
0.0
  0
LINE
  5
262
100
AcDbEntity
  8
水栓
  6
EXLTYPE2
 62
     6
100
AcDbLine
 10
1633.5
 20
1133.0
 30
0.0
 11
1637.25
 21
1133.0
 31
0.0
  0
LINE
  5
263
100
AcDbEntity
  8
水栓
  6
EXLTYPE2
 62
     6
100
AcDbLine
 10
1620.6
 20
1150.3
 30
0.0
 11
1620.6
 21
1139.7
 31
0.0
  0
LINE
  5
264
100
AcDbEntity
  8
水栓
  6
EXLTYPE2
 62
     6
100
AcDbLine
 10
1633.5
 20
1157.75
 30
0.0
 11
1633.5
 21
1132.25
 31
0.0
  0
ARC
  5
265
100
AcDbEntity
  8
水栓
  6
EXLTYPE2
 62
     6
100
AcDbCircle
 10
1629.725083
 20
1153.75
 30
0.0
 40
5.5
100
AcDbArc
 50
46.658242
 51
142.812374
  0
LINE
  5
266
100
AcDbEntity
  8
水栓
  6
EXLTYPE2
 62
     6
100
AcDbLine
 10
1620.6
 20
1150.3
 30
0.0
 11
1625.34345
 21
1157.074349
 31
0.0
  0
ARC
  5
267
100
AcDbEntity
  8
水栓
  6
EXLTYPE2
 62
     6
100
AcDbCircle
 10
1629.725083
 20
1136.25
 30
0.0
 40
5.5
100
AcDbArc
 50
217.187626
 51
313.341758
  0
LINE
  5
268
100
AcDbEntity
  8
水栓
  6
EXLTYPE2
 62
     6
100
AcDbLine
 10
1620.6
 20
1139.7
 30
0.0
 11
1625.34345
 21
1132.925651
 31
0.0
  0
LINE
  5
269
100
AcDbEntity
  8
水栓
  6
EXLTYPE2
 62
     6
100
AcDbLine
 10
1625.34345
 20
1157.074349
 30
0.0
 11
1625.34345
 21
1132.925651
 31
0.0
  0
ARC
  5
26A
100
AcDbEntity
  8
水栓
  6
EXLTYPE2
 62
     6
100
AcDbCircle
 10
1658.75
 20
1173.7
 30
0.0
 40
11.0
100
AcDbArc
 50
326.944269
 51
33.055731
  0
LINE
  5
26B
100
AcDbEntity
  8
水栓
  6
EXLTYPE2
 62
     6
100
AcDbLine
 10
1667.969544
 20
1167.7
 30
0.0
 11
1646.030456
 21
1167.7
 31
0.0
  0
LINE
  5
26C
100
AcDbEntity
  8
水栓
  6
EXLTYPE2
 62
     6
100
AcDbLine
 10
1667.969544
 20
1179.7
 30
0.0
 11
1646.030456
 21
1179.7
 31
0.0
  0
ARC
  5
26D
100
AcDbEntity
  8
水栓
  6
EXLTYPE2
 62
     6
100
AcDbCircle
 10
1655.25
 20
1173.7
 30
0.0
 40
11.0
100
AcDbArc
 50
146.944269
 51
213.055731
  0
LINE
  5
26E
100
AcDbEntity
  8
水栓
  6
EXLTYPE2
 62
     6
100
AcDbLine
 10
1646.5
 20
1167.7
 30
0.0
 11
1646.5
 21
1164.5
 31
0.0
  0
LINE
  5
26F
100
AcDbEntity
  8
水栓
  6
EXLTYPE2
 62
     6
100
AcDbLine
 10
1667.5
 20
1167.7
 30
0.0
 11
1667.5
 21
1164.843135
 31
0.0
  0
LINE
  5
270
100
AcDbEntity
  8
水栓
  6
EXLTYPE2
 62
     6
100
AcDbLine
 10
1615.0
 20
1140.25
 30
0.0
 11
1620.6
 21
1140.25
 31
0.0
  0
LINE
  5
271
100
AcDbEntity
  8
水栓
  6
EXLTYPE2
 62
     6
100
AcDbLine
 10
1615.0
 20
1149.75
 30
0.0
 11
1620.6
 21
1149.75
 31
0.0
  0
LINE
  5
272
100
AcDbEntity
  8
水栓
  6
EXLTYPE2
 62
     6
100
AcDbLine
 10
1615.0
 20
1149.75
 30
0.0
 11
1615.0
 21
1140.25
 31
0.0
  0
LINE
  5
273
100
AcDbEntity
  8
水栓
  6
EXLTYPE2
 62
     6
100
AcDbLine
 10
1646.25
 20
853.0
 30
0.0
 11
1667.75
 21
853.0
 31
0.0
  0
ARC
  5
274
100
AcDbEntity
  8
水栓
  6
EXLTYPE2
 62
     6
100
AcDbCircle
 10
1647.420523
 20
827.727092
 30
0.0
 40
25.3
100
AcDbArc
 50
92.651778
 51
113.580837
  0
ARC
  5
275
100
AcDbEntity
  8
水栓
  6
EXLTYPE2
 62
     6
100
AcDbCircle
 10
1642.5
 20
839.0
 30
0.0
 40
13.0
100
AcDbArc
 50
113.580837
 51
180.0
  0
LINE
  5
276
100
AcDbEntity
  8
水栓
  6
EXLTYPE2
 62
     6
100
AcDbLine
 10
1629.5
 20
839.0
 30
0.0
 11
1629.5
 21
837.0
 31
0.0
  0
LINE
  5
277
100
AcDbEntity
  8
水栓
  6
EXLTYPE2
 62
     6
100
AcDbLine
 10
1629.5
 20
837.0
 30
0.0
 11
1684.5
 21
837.0
 31
0.0
  0
LINE
  5
278
100
AcDbEntity
  8
水栓
  6
EXLTYPE2
 62
     6
100
AcDbLine
 10
1684.5
 20
839.0
 30
0.0
 11
1684.5
 21
837.0
 31
0.0
  0
ARC
  5
279
100
AcDbEntity
  8
水栓
  6
EXLTYPE2
 62
     6
100
AcDbCircle
 10
1671.5
 20
839.0
 30
0.0
 40
13.0
100
AcDbArc
 50
0.0
 51
66.419163
  0
ARC
  5
27A
100
AcDbEntity
  8
水栓
  6
EXLTYPE2
 62
     6
100
AcDbCircle
 10
1666.579477
 20
827.727092
 30
0.0
 40
25.3
100
AcDbArc
 50
66.419163
 51
87.348222
  0
LINE
  5
27B
100
AcDbEntity
  8
水栓
  6
EXLTYPE2
 62
     6
100
AcDbLine
 10
1646.5
 20
697.0
 30
0.0
 11
1646.5
 21
1110.0
 31
0.0
  0
LINE
  5
27C
100
AcDbEntity
  8
水栓
  6
EXLTYPE2
 62
     6
100
AcDbLine
 10
1667.5
 20
697.0
 30
0.0
 11
1667.5
 21
1110.0
 31
0.0
  0
LINE
  5
27D
100
AcDbEntity
  8
水栓
  6
EXLTYPE2
 62
     6
100
AcDbLine
 10
1669.25
 20
1110.0
 30
0.0
 11
1671.722432
 21
1111.427459
 31
0.0
  0
LINE
  5
27E
100
AcDbEntity
  8
水栓
  6
EXLTYPE2
 62
     6
100
AcDbLine
 10
1671.722432
 20
1111.427459
 30
0.0
 11
1671.722432
 21
1119.3
 31
0.0
  0
LINE
  5
27F
100
AcDbEntity
  8
水栓
  6
EXLTYPE2
 62
     6
100
AcDbLine
 10
1644.75
 20
1110.0
 30
0.0
 11
1642.277568
 21
1111.427459
 31
0.0
  0
LINE
  5
280
100
AcDbEntity
  8
水栓
  6
EXLTYPE2
 62
     6
100
AcDbLine
 10
1642.277568
 20
1111.427459
 30
0.0
 11
1642.277568
 21
1119.3
 31
0.0
  0
LINE
  5
281
100
AcDbEntity
  8
水栓
  6
EXLTYPE2
 62
     6
100
AcDbLine
 10
1669.25
 20
1110.0
 30
0.0
 11
1644.75
 21
1110.0
 31
0.0
  0
LINE
  5
282
100
AcDbEntity
  8
水栓
  6
CONTINUOUS
 62
     6
100
AcDbLine
 10
1667.5
 20
697.0
 30
0.0
 11
1646.5
 21
697.0
 31
0.0
  0
LINE
  5
283
100
AcDbEntity
  8
水栓
  6
EXLTYPE2
 62
     6
100
AcDbLine
 10
810.0
 20
1179.7
 30
0.0
 11
810.0
 21
1405.0
 31
0.0
  0
LINE
  5
284
100
AcDbEntity
  8
水栓
  6
EXLTYPE2
 62
     6
100
AcDbLine
 10
800.0
 20
1179.7
 30
0.0
 11
800.0
 21
1405.0
 31
0.0
  0
ARC
  5
285
100
AcDbEntity
  8
水栓
  6
CONTINUOUS
 62
     2
100
AcDbCircle
 10
715.210159
 20
2367.399856
 30
0.0
 40
1.0
100
AcDbArc
 50
182.386712
 51
270.000756
  0
ARC
  5
286
100
AcDbEntity
  8
水栓
  6
CONTINUOUS
 62
     2
100
AcDbCircle
 10
744.789841
 20
2367.399856
 30
0.0
 40
1.0
100
AcDbArc
 50
269.999244
 51
357.613288
  0
LINE
  5
287
100
AcDbEntity
  8
水栓
  6
CONTINUOUS
 62
     2
100
AcDbLine
 10
744.817791
 20
2366.400247
 30
0.0
 11
715.210273
 21
2366.399856
 31
0.0
  0
LINE
  5
288
100
AcDbEntity
  8
水栓
  6
CONTINUOUS
 62
     2
100
AcDbLine
 10
714.211027
 20
2367.358212
 30
0.0
 11
713.1006
 21
2394.0
 31
0.0
  0
LINE
  5
289
100
AcDbEntity
  8
水栓
  6
CONTINUOUS
 62
     2
100
AcDbLine
 10
745.788973
 20
2367.358212
 30
0.0
 11
746.8994
 21
2394.0
 31
0.0
  0
LINE
  5
28A
100
AcDbEntity
  8
排水
  6
EXLTYPE2
 62
     6
100
AcDbLine
 10
751.25
 20
1386.2
 30
0.0
 11
751.25
 21
1372.7
 31
0.0
  0
ARC
  5
28B
100
AcDbEntity
  8
排水
  6
EXLTYPE2
 62
     6
100
AcDbCircle
 10
749.75
 20
1372.7
 30
0.0
 40
1.5
100
AcDbArc
 50
270.0
 51
0.0
  0
ARC
  5
28C
100
AcDbEntity
  8
排水
  6
EXLTYPE2
 62
     6
100
AcDbCircle
 10
756.5
 20
1388.2
 30
0.0
 40
2.0
100
AcDbArc
 50
270.0
 51
0.0
  0
LINE
  5
28D
100
AcDbEntity
  8
排水
  6
EXLTYPE2
 62
     6
100
AcDbLine
 10
708.75
 20
1386.2
 30
0.0
 11
708.75
 21
1372.7
 31
0.0
  0
ARC
  5
28E
100
AcDbEntity
  8
排水
  6
EXLTYPE2
 62
     6
100
AcDbCircle
 10
710.25
 20
1372.7
 30
0.0
 40
1.5
100
AcDbArc
 50
180.0
 51
270.0
  0
ARC
  5
28F
100
AcDbEntity
  8
排水
  6
EXLTYPE2
 62
     6
100
AcDbCircle
 10
703.5
 20
1388.2
 30
0.0
 40
2.0
100
AcDbArc
 50
180.0
 51
270.0
  0
LINE
  5
290
100
AcDbEntity
  8
排水
  6
EXLTYPE2
 62
     6
100
AcDbLine
 10
703.5
 20
1386.2
 30
0.0
 11
756.5
 21
1386.2
 31
0.0
  0
LINE
  5
291
100
AcDbEntity
  8
排水
  6
EXLTYPE2
 62
     6
100
AcDbLine
 10
701.5
 20
1405.0
 30
0.0
 11
701.5
 21
1388.2
 31
0.0
  0
LINE
  5
292
100
AcDbEntity
  8
排水
  6
EXLTYPE2
 62
     6
100
AcDbLine
 10
758.5
 20
1405.0
 30
0.0
 11
758.5
 21
1388.2
 31
0.0
  0
LINE
  5
293
100
AcDbEntity
  8
排水
  6
EXLTYPE2
 62
     6
100
AcDbLine
 10
714.000624
 20
1321.588135
 30
0.0
 11
713.8
 21
1364.7
 31
0.0
  0
LINE
  5
294
100
AcDbEntity
  8
排水
  6
EXLTYPE2
 62
     6
100
AcDbLine
 10
745.999376
 20
1321.588135
 30
0.0
 11
746.2
 21
1364.7
 31
0.0
  0
LINE
  5
295
100
AcDbEntity
  8
排水
  6
EXLTYPE2
 62
     6
100
AcDbLine
 10
711.75
 20
1303.788135
 30
0.0
 11
711.75
 21
1263.699998
 31
0.0
  0
LINE
  5
296
100
AcDbEntity
  8
排水
  6
EXLTYPE2
 62
     6
100
AcDbLine
 10
748.25
 20
1303.788135
 30
0.0
 11
748.25
 21
1263.699998
 31
0.0
  0
LINE
  5
297
100
AcDbEntity
  8
排水
  6
EXLTYPE2
 62
     6
100
AcDbLine
 10
711.75
 20
1263.699998
 30
0.0
 11
713.0
 21
1262.699998
 31
0.0
  0
LINE
  5
298
100
AcDbEntity
  8
排水
  6
EXLTYPE2
 62
     6
100
AcDbLine
 10
747.0
 20
1262.699998
 30
0.0
 11
748.25
 21
1263.699998
 31
0.0
  0
LINE
  5
299
100
AcDbEntity
  8
排水
  6
EXLTYPE2
 62
     6
100
AcDbLine
 10
705.75
 20
1303.788135
 30
0.0
 11
754.25
 21
1303.788135
 31
0.0
  0
LINE
  5
29A
100
AcDbEntity
  8
排水
  6
EXLTYPE2
 62
     6
100
AcDbLine
 10
705.75
 20
1318.588135
 30
0.0
 11
705.75
 21
1303.788135
 31
0.0
  0
LINE
  5
29B
100
AcDbEntity
  8
排水
  6
EXLTYPE2
 62
     6
100
AcDbLine
 10
708.75
 20
1321.588135
 30
0.0
 11
751.25
 21
1321.588135
 31
0.0
  0
LINE
  5
29C
100
AcDbEntity
  8
排水
  6
EXLTYPE2
 62
     6
100
AcDbLine
 10
754.25
 20
1318.588135
 30
0.0
 11
754.25
 21
1303.788135
 31
0.0
  0
ARC
  5
29D
100
AcDbEntity
  8
排水
  6
EXLTYPE2
 62
     6
100
AcDbCircle
 10
708.75
 20
1318.588135
 30
0.0
 40
3.0
100
AcDbArc
 50
90.0
 51
180.0
  0
ARC
  5
29E
100
AcDbEntity
  8
排水
  6
EXLTYPE2
 62
     6
100
AcDbCircle
 10
751.25
 20
1318.588135
 30
0.0
 40
3.0
100
AcDbArc
 50
0.0
 51
90.0
  0
LINE
  5
29F
100
AcDbEntity
  8
排水
  6
EXLTYPE2
 62
     6
100
AcDbLine
 10
756.75
 20
1251.099447
 30
0.0
 11
805.25
 21
1251.099447
 31
0.0
  0
LINE
  5
2A0
100
AcDbEntity
  8
排水
  6
EXLTYPE2
 62
     6
100
AcDbLine
 10
756.75
 20
1265.899447
 30
0.0
 11
756.75
 21
1251.099447
 31
0.0
  0
LINE
  5
2A1
100
AcDbEntity
  8
排水
  6
EXLTYPE2
 62
     6
100
AcDbLine
 10
759.75
 20
1268.899447
 30
0.0
 11
802.25
 21
1268.899447
 31
0.0
  0
LINE
  5
2A2
100
AcDbEntity
  8
排水
  6
EXLTYPE2
 62
     6
100
AcDbLine
 10
805.25
 20
1265.899447
 30
0.0
 11
805.25
 21
1251.099447
 31
0.0
  0
ARC
  5
2A3
100
AcDbEntity
  8
排水
  6
EXLTYPE2
 62
     6
100
AcDbCircle
 10
759.75
 20
1265.899447
 30
0.0
 40
3.0
100
AcDbArc
 50
90.0
 51
180.0
  0
ARC
  5
2A4
100
AcDbEntity
  8
排水
  6
EXLTYPE2
 62
     6
100
AcDbCircle
 10
802.25
 20
1265.899447
 30
0.0
 40
3.0
100
AcDbArc
 50
0.0
 51
90.0
  0
LINE
  5
2A5
100
AcDbEntity
  8
排水
  6
EXLTYPE2
 62
     6
100
AcDbLine
 10
713.0
 20
1262.699998
 30
0.0
 11
713.0
 21
1231.699996
 31
0.0
  0
ARC
  5
2A6
100
AcDbEntity
  8
排水
  6
EXLTYPE2
 62
     6
100
AcDbCircle
 10
754.875
 20
1229.074997
 30
0.0
 40
7.875
100
AcDbArc
 50
180.0
 51
0.0
  0
LINE
  5
2A7
100
AcDbEntity
  8
排水
  6
EXLTYPE2
 62
     6
100
AcDbLine
 10
747.0
 20
1262.699998
 30
0.0
 11
747.0
 21
1229.074997
 31
0.0
  0
LINE
  5
2A8
100
AcDbEntity
  8
排水
  6
EXLTYPE2
 62
     6
100
AcDbLine
 10
762.75
 20
1251.099447
 30
0.0
 11
762.75
 21
1229.074997
 31
0.0
  0
LINE
  5
2A9
100
AcDbEntity
  8
排水
  6
EXLTYPE2
 62
     6
100
AcDbLine
 10
747.0
 20
1237.7
 30
0.0
 11
762.75
 21
1237.7
 31
0.0
  0
LINE
  5
2AA
100
AcDbEntity
  8
排水
  6
EXLTYPE2
 62
     6
100
AcDbLine
 10
781.0
 20
1221.999997
 30
0.0
 11
798.25
 21
1221.999997
 31
0.0
  0
LINE
  5
2AB
100
AcDbEntity
  8
排水
  6
EXLTYPE2
 62
     6
100
AcDbLine
 10
799.25
 20
1251.099447
 30
0.0
 11
799.25
 21
1222.999997
 31
0.0
  0
ARC
  5
2AC
100
AcDbEntity
  8
排水
  6
EXLTYPE2
 62
     6
100
AcDbCircle
 10
798.25
 20
1222.999997
 30
0.0
 40
1.0
100
AcDbArc
 50
270.0
 51
0.0
  0
LINE
  5
2AD
100
AcDbEntity
  8
排水
  6
EXLTYPE2
 62
     6
100
AcDbLine
 10
740.0
 20
1189.699996
 30
0.0
 11
770.0
 21
1189.699996
 31
0.0
  0
LINE
  5
2AE
100
AcDbEntity
  8
排水
  6
EXLTYPE2
 62
     6
100
AcDbLine
 10
740.0
 20
1192.469906
 30
0.0
 11
770.0
 21
1192.469906
 31
0.0
  0
ARC
  5
2AF
100
AcDbEntity
  8
排水
  6
EXLTYPE2
 62
     6
100
AcDbCircle
 10
755.0
 20
1231.699996
 30
0.0
 40
42.0
100
AcDbArc
 50
180.0
 51
249.075168
  0
ARC
  5
2B0
100
AcDbEntity
  8
排水
  6
EXLTYPE2
 62
     6
100
AcDbCircle
 10
755.0
 20
1231.699996
 30
0.0
 40
42.0
100
AcDbArc
 50
290.924832
 51
346.646853
  0
LINE
  5
2B1
100
AcDbEntity
  8
排水
  6
EXLTYPE2
 62
     6
100
AcDbLine
 10
740.0
 20
1192.469906
 30
0.0
 11
740.0
 21
1177.2
 31
0.0
  0
LINE
  5
2B2
100
AcDbEntity
  8
排水
  6
EXLTYPE2
 62
     6
100
AcDbLine
 10
741.5
 20
1175.7
 30
0.0
 11
768.5
 21
1175.7
 31
0.0
  0
LINE
  5
2B3
100
AcDbEntity
  8
排水
  6
EXLTYPE2
 62
     6
100
AcDbLine
 10
770.0
 20
1192.469906
 30
0.0
 11
770.0
 21
1177.2
 31
0.0
  0
ARC
  5
2B4
100
AcDbEntity
  8
排水
  6
EXLTYPE2
 62
     6
100
AcDbCircle
 10
741.5
 20
1177.2
 30
0.0
 40
1.5
100
AcDbArc
 50
180.0
 51
270.0
  0
ARC
  5
2B5
100
AcDbEntity
  8
排水
  6
EXLTYPE2
 62
     6
100
AcDbCircle
 10
768.5
 20
1177.2
 30
0.0
 40
1.5
100
AcDbArc
 50
270.0
 51
0.0
  0
ARC
  5
2B6
100
AcDbEntity
  8
排水
  6
EXLTYPE2
 62
     6
100
AcDbCircle
 10
755.5
 20
1293.499998
 30
0.0
 40
9.5
100
AcDbArc
 50
0.0
 51
139.743387
  0
LINE
  5
2B7
100
AcDbEntity
  8
排水
  6
EXLTYPE2
 62
     6
100
AcDbLine
 10
765.0
 20
1293.499998
 30
0.0
 11
765.0
 21
1268.899447
 31
0.0
  0
LINE
  5
2B8
100
AcDbEntity
  8
排水
  6
EXLTYPE2
 62
     6
100
AcDbLine
 10
797.0
 20
1293.499998
 30
0.0
 11
797.0
 21
1268.899447
 31
0.0
  0
LINE
  5
2B9
100
AcDbEntity
  8
排水
  6
EXLTYPE2
 62
     6
100
AcDbLine
 10
711.75
 20
1263.699998
 30
0.0
 11
748.25
 21
1263.699998
 31
0.0
  0
LINE
  5
2BA
100
AcDbEntity
  8
排水
  6
EXLTYPE2
 62
     6
100
AcDbLine
 10
713.0
 20
1262.699998
 30
0.0
 11
747.0
 21
1262.699998
 31
0.0
  0
ARC
  5
2BB
100
AcDbEntity
  8
排水
  6
EXLTYPE2
 62
     6
100
AcDbCircle
 10
755.5
 20
1293.499998
 30
0.0
 40
41.5
100
AcDbArc
 50
0.0
 51
103.152805
  0
LINE
  5
2BC
100
AcDbEntity
  8
排水
  6
EXLTYPE2
 62
     6
100
AcDbLine
 10
746.2
 20
1364.7
 30
0.0
 11
749.75
 21
1371.2
 31
0.0
  0
LINE
  5
2BD
100
AcDbEntity
  8
排水
  6
EXLTYPE2
 62
     6
100
AcDbLine
 10
713.8
 20
1364.7
 30
0.0
 11
710.25
 21
1371.2
 31
0.0
  0
LINE
  5
2BE
100
AcDbEntity
  8
排水
  6
EXLTYPE2
 62
     6
100
AcDbLine
 10
710.25
 20
1371.2
 30
0.0
 11
749.75
 21
1371.2
 31
0.0
  0
LINE
  5
2BF
100
AcDbEntity
  8
排水
  6
EXLTYPE2
 62
     6
100
AcDbLine
 10
713.8
 20
1364.7
 30
0.0
 11
746.2
 21
1364.7
 31
0.0
  0
LINE
  5
2C0
100
AcDbEntity
  8
排水
  6
EXLTYPE2
 62
     6
100
AcDbLine
 10
757.0
 20
770.000002
 30
0.0
 11
757.0
 21
759.0
 31
0.0
  0
LINE
  5
2C1
100
AcDbEntity
  8
排水
  6
EXLTYPE2
 62
     6
100
AcDbLine
 10
750.700005
 20
775.046518
 30
0.0
 11
750.700005
 21
772.999994
 31
0.0
  0
ARC
  5
2C2
100
AcDbEntity
  8
排水
  6
EXLTYPE2
 62
     6
100
AcDbCircle
 10
754.0
 20
770.000002
 30
0.0
 40
3.0
100
AcDbArc
 50
359.999995
 51
89.999997
  0
ARC
  5
2C3
100
AcDbEntity
  8
排水
  6
EXLTYPE2
 62
     6
100
AcDbCircle
 10
758.0
 20
759.0
 30
0.0
 40
1.0
100
AcDbArc
 50
180.0
 51
270.0
  0
ARC
  5
2C4
100
AcDbEntity
  8
排水
  6
EXLTYPE2
 62
     6
100
AcDbCircle
 10
760.500004
 20
755.0
 30
0.0
 40
3.0
100
AcDbArc
 50
359.999995
 51
89.999997
  0
LINE
  5
2C5
100
AcDbEntity
  8
排水
  6
EXLTYPE2
 62
     6
100
AcDbLine
 10
752.999996
 20
790.846517
 30
0.0
 11
752.999996
 21
775.046518
 31
0.0
  0
ARC
  5
2C6
100
AcDbEntity
  8
排水
  6
EXLTYPE2
 62
     6
100
AcDbCircle
 10
750.999996
 20
790.846517
 30
0.0
 40
2.0
100
AcDbArc
 50
0.000009
 51
90.000004
  0
LINE
  5
2C7
100
AcDbEntity
  8
排水
  6
EXLTYPE2
 62
     6
100
AcDbLine
 10
703.0
 20
770.000002
 30
0.0
 11
703.0
 21
759.0
 31
0.0
  0
LINE
  5
2C8
100
AcDbEntity
  8
排水
  6
EXLTYPE2
 62
     6
100
AcDbLine
 10
709.299995
 20
775.046518
 30
0.0
 11
709.299995
 21
772.999994
 31
0.0
  0
LINE
  5
2C9
100
AcDbEntity
  8
排水
  6
EXLTYPE2
 62
     6
100
AcDbLine
 10
696.499996
 20
755.0
 30
0.0
 11
696.499996
 21
735.499998
 31
0.0
  0
ARC
  5
2CA
100
AcDbEntity
  8
排水
  6
EXLTYPE2
 62
     6
100
AcDbCircle
 10
706.0
 20
770.000002
 30
0.0
 40
3.0
100
AcDbArc
 50
90.000003
 51
180.000005
  0
ARC
  5
2CB
100
AcDbEntity
  8
排水
  6
EXLTYPE2
 62
     6
100
AcDbCircle
 10
702.0
 20
759.0
 30
0.0
 40
1.0
100
AcDbArc
 50
270.0
 51
0.0
  0
ARC
  5
2CC
100
AcDbEntity
  8
排水
  6
EXLTYPE2
 62
     6
100
AcDbCircle
 10
699.499996
 20
755.0
 30
0.0
 40
3.0
100
AcDbArc
 50
90.000003
 51
180.000005
  0
ARC
  5
2CD
100
AcDbEntity
  8
排水
  6
EXLTYPE2
 62
     6
100
AcDbCircle
 10
696.999996
 20
735.499998
 30
0.0
 40
0.5
100
AcDbArc
 50
180.0
 51
270.0
  0
LINE
  5
2CE
100
AcDbEntity
  8
排水
  6
EXLTYPE2
 62
     6
100
AcDbLine
 10
707.000004
 20
790.846517
 30
0.0
 11
707.000004
 21
775.046518
 31
0.0
  0
ARC
  5
2CF
100
AcDbEntity
  8
排水
  6
EXLTYPE2
 62
     6
100
AcDbCircle
 10
709.000004
 20
790.846517
 30
0.0
 40
2.0
100
AcDbArc
 50
89.999996
 51
179.999991
  0
LINE
  5
2D0
100
AcDbEntity
  8
排水
  6
EXLTYPE2
 62
     6
100
AcDbLine
 10
750.999996
 20
792.846517
 30
0.0
 11
709.000004
 21
792.846517
 31
0.0
  0
LINE
  5
2D1
100
AcDbEntity
  8
排水
  6
EXLTYPE2
 62
     6
100
AcDbLine
 10
752.999996
 20
775.046518
 30
0.0
 11
707.000004
 21
775.046518
 31
0.0
  0
LINE
  5
2D2
100
AcDbEntity
  8
排水
  6
EXLTYPE2
 62
     6
100
AcDbLine
 10
754.0
 20
773.000002
 30
0.0
 11
706.0
 21
773.000002
 31
0.0
  0
LINE
  5
2D3
100
AcDbEntity
  8
排水
  6
EXLTYPE2
 62
     6
100
AcDbLine
 10
760.500004
 20
758.0
 30
0.0
 11
699.499996
 21
758.0
 31
0.0
  0
LINE
  5
2D4
100
AcDbEntity
  8
排水
  6
EXLTYPE2
 62
     6
100
AcDbLine
 10
763.000004
 20
734.999998
 30
0.0
 11
696.999996
 21
734.999998
 31
0.0
  0
LINE
  5
2D5
100
AcDbEntity
  8
排水
  6
EXLTYPE2
 62
     6
100
AcDbLine
 10
763.500004
 20
755.0
 30
0.0
 11
763.500004
 21
735.499998
 31
0.0
  0
ARC
  5
2D6
100
AcDbEntity
  8
排水
  6
EXLTYPE2
 62
     6
100
AcDbCircle
 10
763.000004
 20
735.499998
 30
0.0
 40
0.5
100
AcDbArc
 50
270.0
 51
0.0
  0
LINE
  5
2D7
100
AcDbEntity
  8
排水
  6
CONTINUOUS
 62
     6
100
AcDbLine
 10
714.0
 20
694.999998
 30
0.0
 11
746.0
 21
694.999998
 31
0.0
  0
LINE
  5
2D8
100
AcDbEntity
  8
排水
  6
EXLTYPE2
 62
     6
100
AcDbLine
 10
714.0
 20
694.999998
 30
0.0
 11
714.0
 21
1222.589562
 31
0.0
  0
LINE
  5
2D9
100
AcDbEntity
  8
排水
  6
EXLTYPE2
 62
     6
100
AcDbLine
 10
746.0
 20
694.999998
 30
0.0
 11
746.0
 21
1175.7
 31
0.0
  0
LINE
  5
2DA
100
AcDbEntity
  8
排水
  6
EXLTYPE2
 62
     6
100
AcDbLine
 10
1603.2
 20
1364.7
 30
0.0
 11
1606.75
 21
1371.2
 31
0.0
  0
LINE
  5
2DB
100
AcDbEntity
  8
排水
  6
EXLTYPE2
 62
     6
100
AcDbLine
 10
1608.25
 20
1386.2
 30
0.0
 11
1608.25
 21
1372.7
 31
0.0
  0
ARC
  5
2DC
100
AcDbEntity
  8
排水
  6
EXLTYPE2
 62
     6
100
AcDbCircle
 10
1606.75
 20
1372.7
 30
0.0
 40
1.5
100
AcDbArc
 50
270.0
 51
0.0
  0
LINE
  5
2DD
100
AcDbEntity
  8
排水
  6
EXLTYPE2
 62
     6
100
AcDbLine
 10
1570.8
 20
1364.7
 30
0.0
 11
1567.25
 21
1371.2
 31
0.0
  0
LINE
  5
2DE
100
AcDbEntity
  8
排水
  6
EXLTYPE2
 62
     6
100
AcDbLine
 10
1565.75
 20
1386.2
 30
0.0
 11
1565.75
 21
1372.7
 31
0.0
  0
ARC
  5
2DF
100
AcDbEntity
  8
排水
  6
EXLTYPE2
 62
     6
100
AcDbCircle
 10
1567.25
 20
1372.7
 30
0.0
 40
1.5
100
AcDbArc
 50
180.0
 51
270.0
  0
LINE
  5
2E0
100
AcDbEntity
  8
排水
  6
EXLTYPE2
 62
     6
100
AcDbLine
 10
1567.25
 20
1371.2
 30
0.0
 11
1606.75
 21
1371.2
 31
0.0
  0
LINE
  5
2E1
100
AcDbEntity
  8
排水
  6
EXLTYPE2
 62
     6
100
AcDbLine
 10
1561.6
 20
1400.7
 30
0.0
 11
1561.6
 21
1388.2
 31
0.0
  0
ARC
  5
2E2
100
AcDbEntity
  8
排水
  6
EXLTYPE2
 62
     6
100
AcDbCircle
 10
1563.6
 20
1388.2
 30
0.0
 40
2.0
100
AcDbArc
 50
180.0
 51
270.0
  0
LINE
  5
2E3
100
AcDbEntity
  8
排水
  6
EXLTYPE2
 62
     6
100
AcDbLine
 10
1612.4
 20
1400.7
 30
0.0
 11
1612.4
 21
1388.2
 31
0.0
  0
ARC
  5
2E4
100
AcDbEntity
  8
排水
  6
EXLTYPE2
 62
     6
100
AcDbCircle
 10
1610.4
 20
1388.2
 30
0.0
 40
2.0
100
AcDbArc
 50
270.0
 51
0.0
  0
LINE
  5
2E5
100
AcDbEntity
  8
排水
  6
EXLTYPE2
 62
     6
100
AcDbLine
 10
1563.6
 20
1386.2
 30
0.0
 11
1610.4
 21
1386.2
 31
0.0
  0
LINE
  5
2E6
100
AcDbEntity
  8
排水
  6
EXLTYPE2
 62
     6
100
AcDbLine
 10
1570.8
 20
1364.7
 30
0.0
 11
1603.2
 21
1364.7
 31
0.0
  0
LINE
  5
2E7
100
AcDbEntity
  8
排水
  6
EXLTYPE2
 62
     6
100
AcDbLine
 10
1558.5
 20
1405.0
 30
0.0
 11
1558.5
 21
1400.7
 31
0.0
  0
LINE
  5
2E8
100
AcDbEntity
  8
排水
  6
EXLTYPE2
 62
     6
100
AcDbLine
 10
1615.5
 20
1405.0
 30
0.0
 11
1615.5
 21
1400.7
 31
0.0
  0
LINE
  5
2E9
100
AcDbEntity
  8
排水
  6
EXLTYPE2
 62
     6
100
AcDbLine
 10
1571.000624
 20
1321.588135
 30
0.0
 11
1570.8
 21
1364.7
 31
0.0
  0
LINE
  5
2EA
100
AcDbEntity
  8
排水
  6
EXLTYPE2
 62
     6
100
AcDbLine
 10
1558.5
 20
1400.7
 30
0.0
 11
1615.5
 21
1400.7
 31
0.0
  0
LINE
  5
2EB
100
AcDbEntity
  8
排水
  6
EXLTYPE2
 62
     6
100
AcDbLine
 10
1568.75
 20
1303.788135
 30
0.0
 11
1568.75
 21
1263.699998
 31
0.0
  0
LINE
  5
2EC
100
AcDbEntity
  8
排水
  6
EXLTYPE2
 62
     6
100
AcDbLine
 10
1568.75
 20
1263.699998
 30
0.0
 11
1570.0
 21
1262.699998
 31
0.0
  0
LINE
  5
2ED
100
AcDbEntity
  8
排水
  6
EXLTYPE2
 62
     6
100
AcDbLine
 10
1562.75
 20
1318.588135
 30
0.0
 11
1562.75
 21
1303.788135
 31
0.0
  0
ARC
  5
2EE
100
AcDbEntity
  8
排水
  6
EXLTYPE2
 62
     6
100
AcDbCircle
 10
1565.75
 20
1318.588135
 30
0.0
 40
3.0
100
AcDbArc
 50
90.0
 51
180.0
  0
LINE
  5
2EF
100
AcDbEntity
  8
排水
  6
EXLTYPE2
 62
     6
100
AcDbLine
 10
1581.289286
 20
1189.699996
 30
0.0
 11
1611.289286
 21
1189.699996
 31
0.0
  0
LINE
  5
2F0
100
AcDbEntity
  8
排水
  6
EXLTYPE2
 62
     6
100
AcDbLine
 10
1581.289286
 20
1192.469906
 30
0.0
 11
1611.289286
 21
1192.469906
 31
0.0
  0
LINE
  5
2F1
100
AcDbEntity
  8
排水
  6
EXLTYPE2
 62
     6
100
AcDbLine
 10
1581.289286
 20
1192.469906
 30
0.0
 11
1581.289286
 21
1177.2
 31
0.0
  0
LINE
  5
2F2
100
AcDbEntity
  8
排水
  6
EXLTYPE2
 62
     6
100
AcDbLine
 10
1582.789286
 20
1175.7
 30
0.0
 11
1609.789286
 21
1175.7
 31
0.0
  0
LINE
  5
2F3
100
AcDbEntity
  8
排水
  6
EXLTYPE2
 62
     6
100
AcDbLine
 10
1611.289286
 20
1192.469906
 30
0.0
 11
1611.289286
 21
1177.2
 31
0.0
  0
ARC
  5
2F4
100
AcDbEntity
  8
排水
  6
EXLTYPE2
 62
     6
100
AcDbCircle
 10
1582.789286
 20
1177.2
 30
0.0
 40
1.5
100
AcDbArc
 50
180.0
 51
270.0
  0
ARC
  5
2F5
100
AcDbEntity
  8
排水
  6
EXLTYPE2
 62
     6
100
AcDbCircle
 10
1609.789286
 20
1177.2
 30
0.0
 40
1.5
100
AcDbArc
 50
270.0
 51
0.0
  0
LINE
  5
2F6
100
AcDbEntity
  8
排水
  6
EXLTYPE2
 62
     6
100
AcDbLine
 10
1581.328571
 20
1251.099447
 30
0.0
 11
1629.828571
 21
1251.099447
 31
0.0
  0
LINE
  5
2F7
100
AcDbEntity
  8
排水
  6
EXLTYPE2
 62
     6
100
AcDbLine
 10
1581.328571
 20
1265.899447
 30
0.0
 11
1581.328571
 21
1251.099447
 31
0.0
  0
LINE
  5
2F8
100
AcDbEntity
  8
排水
  6
EXLTYPE2
 62
     6
100
AcDbLine
 10
1584.328571
 20
1268.899447
 30
0.0
 11
1626.828571
 21
1268.899447
 31
0.0
  0
LINE
  5
2F9
100
AcDbEntity
  8
排水
  6
EXLTYPE2
 62
     6
100
AcDbLine
 10
1629.828571
 20
1265.899447
 30
0.0
 11
1629.828571
 21
1251.099447
 31
0.0
  0
ARC
  5
2FA
100
AcDbEntity
  8
排水
  6
EXLTYPE2
 62
     6
100
AcDbCircle
 10
1584.328571
 20
1265.899447
 30
0.0
 40
3.0
100
AcDbArc
 50
90.0
 51
180.0
  0
ARC
  5
2FB
100
AcDbEntity
  8
排水
  6
EXLTYPE2
 62
     6
100
AcDbCircle
 10
1626.828571
 20
1265.899447
 30
0.0
 40
3.0
100
AcDbArc
 50
0.0
 51
90.0
  0
LINE
  5
2FC
100
AcDbEntity
  8
排水
  6
EXLTYPE2
 62
     6
100
AcDbLine
 10
1623.828571
 20
1251.099447
 30
0.0
 11
1623.828571
 21
1222.999997
 31
0.0
  0
ARC
  5
2FD
100
AcDbEntity
  8
排水
  6
EXLTYPE2
 62
     6
100
AcDbCircle
 10
1622.828571
 20
1222.999997
 30
0.0
 40
1.0
100
AcDbArc
 50
270.0
 51
0.0
  0
ARC
  5
2FE
100
AcDbEntity
  8
排水
  6
EXLTYPE2
 62
     6
100
AcDbCircle
 10
1588.328571
 20
1222.999997
 30
0.0
 40
1.0
100
AcDbArc
 50
180.0
 51
270.0
  0
LINE
  5
2FF
100
AcDbEntity
  8
排水
  6
EXLTYPE2
 62
     6
100
AcDbLine
 10
1587.328571
 20
1251.099447
 30
0.0
 11
1587.328571
 21
1222.999997
 31
0.0
  0
LINE
  5
300
100
AcDbEntity
  8
排水
  6
EXLTYPE2
 62
     6
100
AcDbLine
 10
1588.328571
 20
1221.999997
 30
0.0
 11
1622.828571
 21
1221.999997
 31
0.0
  0
ARC
  5
301
100
AcDbEntity
  8
排水
  6
EXLTYPE2
 62
     6
100
AcDbCircle
 10
1631.289286
 20
1293.289284
 30
0.0
 40
41.710714
100
AcDbArc
 50
0.0
 51
180.0
  0
ARC
  5
302
100
AcDbEntity
  8
排水
  6
EXLTYPE2
 62
     6
100
AcDbCircle
 10
1631.289286
 20
1293.289284
 30
0.0
 40
9.710714
100
AcDbArc
 50
0.0
 51
180.0
  0
LINE
  5
303
100
AcDbEntity
  8
排水
  6
EXLTYPE2
 62
     6
100
AcDbLine
 10
1565.75
 20
1321.588135
 30
0.0
 11
1600.646852
 21
1321.588135
 31
0.0
  0
LINE
  5
304
100
AcDbEntity
  8
排水
  6
EXLTYPE2
 62
     6
100
AcDbLine
 10
1562.75
 20
1303.788135
 30
0.0
 11
1590.921504
 21
1303.788135
 31
0.0
  0
LINE
  5
305
100
AcDbEntity
  8
排水
  6
EXLTYPE2
 62
     6
100
AcDbLine
 10
1568.75
 20
1263.699998
 30
0.0
 11
1581.328571
 21
1263.699998
 31
0.0
  0
LINE
  5
306
100
AcDbEntity
  8
排水
  6
EXLTYPE2
 62
     6
100
AcDbLine
 10
1570.0
 20
1262.699998
 30
0.0
 11
1581.328571
 21
1262.699998
 31
0.0
  0
LINE
  5
307
100
AcDbEntity
  8
排水
  6
EXLTYPE2
 62
     6
100
AcDbLine
 10
1570.0
 20
1262.699998
 30
0.0
 11
1570.0
 21
1220.321205
 31
0.0
  0
ARC
  5
308
100
AcDbEntity
  8
排水
  6
EXLTYPE2
 62
     6
100
AcDbCircle
 10
1610.0
 20
1220.321205
 30
0.0
 40
40.0
100
AcDbArc
 50
180.0
 51
224.129503
  0
LINE
  5
309
100
AcDbEntity
  8
排水
  6
EXLTYPE2
 62
     6
100
AcDbLine
 10
1590.714039
 20
1221.999997
 30
0.0
 11
1590.714039
 21
1217.888135
 31
0.0
  0
LINE
  5
30A
100
AcDbEntity
  8
排水
  6
EXLTYPE2
 62
     6
100
AcDbLine
 10
1620.443104
 20
1221.999997
 30
0.0
 11
1620.443104
 21
1209.273487
 31
0.0
  0
ARC
  5
30B
100
AcDbEntity
  8
排水
  6
EXLTYPE2
 62
     6
100
AcDbCircle
 10
1600.443104
 20
1209.273487
 30
0.0
 40
20.0
100
AcDbArc
 50
302.840967
 51
0.0
  0
LINE
  5
30C
100
AcDbEntity
  8
排水
  6
EXLTYPE2
 62
     6
100
AcDbLine
 10
1589.578571
 20
1293.289284
 30
0.0
 11
1589.578571
 21
1268.899447
 31
0.0
  0
LINE
  5
30D
100
AcDbEntity
  8
排水
  6
EXLTYPE2
 62
     6
100
AcDbLine
 10
1621.578571
 20
1293.289284
 30
0.0
 11
1621.578571
 21
1268.899447
 31
0.0
  0
LINE
  5
30E
100
AcDbEntity
  8
排水
  6
EXLTYPE2
 62
     6
100
AcDbLine
 10
1603.010368
 20
1323.950114
 30
0.0
 11
1603.2
 21
1364.7
 31
0.0
  0
LINE
  5
30F
100
AcDbEntity
  8
排水
  6
EXLTYPE2
 62
     6
100
AcDbLine
 10
1641.0
 20
694.999998
 30
0.0
 11
1641.0
 21
1293.289284
 31
0.0
  0
LINE
  5
310
100
AcDbEntity
  8
排水
  6
EXLTYPE2
 62
     6
100
AcDbLine
 10
1673.0
 20
694.999998
 30
0.0
 11
1673.0
 21
1293.289284
 31
0.0
  0
LINE
  5
311
100
AcDbEntity
  8
排水
  6
EXLTYPE2
 62
     6
100
AcDbLine
 10
1684.0
 20
770.000002
 30
0.0
 11
1684.0
 21
759.0
 31
0.0
  0
LINE
  5
312
100
AcDbEntity
  8
排水
  6
EXLTYPE2
 62
     6
100
AcDbLine
 10
1677.700005
 20
775.046518
 30
0.0
 11
1677.700005
 21
772.999994
 31
0.0
  0
LINE
  5
313
100
AcDbEntity
  8
排水
  6
EXLTYPE2
 62
     6
100
AcDbLine
 10
1690.500004
 20
755.0
 30
0.0
 11
1690.500004
 21
735.499998
 31
0.0
  0
ARC
  5
314
100
AcDbEntity
  8
排水
  6
EXLTYPE2
 62
     6
100
AcDbCircle
 10
1681.0
 20
770.000002
 30
0.0
 40
3.0
100
AcDbArc
 50
359.999995
 51
89.999997
  0
ARC
  5
315
100
AcDbEntity
  8
排水
  6
EXLTYPE2
 62
     6
100
AcDbCircle
 10
1685.0
 20
759.0
 30
0.0
 40
1.0
100
AcDbArc
 50
180.0
 51
270.0
  0
ARC
  5
316
100
AcDbEntity
  8
排水
  6
EXLTYPE2
 62
     6
100
AcDbCircle
 10
1687.500004
 20
755.0
 30
0.0
 40
3.0
100
AcDbArc
 50
359.999995
 51
89.999997
  0
ARC
  5
317
100
AcDbEntity
  8
排水
  6
EXLTYPE2
 62
     6
100
AcDbCircle
 10
1690.000004
 20
735.499998
 30
0.0
 40
0.5
100
AcDbArc
 50
270.0
 51
0.0
  0
LINE
  5
318
100
AcDbEntity
  8
排水
  6
EXLTYPE2
 62
     6
100
AcDbLine
 10
1679.999996
 20
790.846517
 30
0.0
 11
1679.999996
 21
775.046518
 31
0.0
  0
ARC
  5
319
100
AcDbEntity
  8
排水
  6
EXLTYPE2
 62
     6
100
AcDbCircle
 10
1677.999996
 20
790.846517
 30
0.0
 40
2.0
100
AcDbArc
 50
0.000009
 51
90.000004
  0
LINE
  5
31A
100
AcDbEntity
  8
排水
  6
EXLTYPE2
 62
     6
100
AcDbLine
 10
1630.0
 20
770.000002
 30
0.0
 11
1630.0
 21
759.0
 31
0.0
  0
LINE
  5
31B
100
AcDbEntity
  8
排水
  6
EXLTYPE2
 62
     6
100
AcDbLine
 10
1636.299995
 20
775.046518
 30
0.0
 11
1636.299995
 21
772.999994
 31
0.0
  0
LINE
  5
31C
100
AcDbEntity
  8
排水
  6
EXLTYPE2
 62
     6
100
AcDbLine
 10
1623.499996
 20
755.0
 30
0.0
 11
1623.499996
 21
735.499998
 31
0.0
  0
ARC
  5
31D
100
AcDbEntity
  8
排水
  6
EXLTYPE2
 62
     6
100
AcDbCircle
 10
1633.0
 20
770.000002
 30
0.0
 40
3.0
100
AcDbArc
 50
90.000003
 51
180.000005
  0
ARC
  5
31E
100
AcDbEntity
  8
排水
  6
EXLTYPE2
 62
     6
100
AcDbCircle
 10
1629.0
 20
759.0
 30
0.0
 40
1.0
100
AcDbArc
 50
270.0
 51
0.0
  0
ARC
  5
31F
100
AcDbEntity
  8
排水
  6
EXLTYPE2
 62
     6
100
AcDbCircle
 10
1626.499996
 20
755.0
 30
0.0
 40
3.0
100
AcDbArc
 50
90.000003
 51
180.000005
  0
ARC
  5
320
100
AcDbEntity
  8
排水
  6
EXLTYPE2
 62
     6
100
AcDbCircle
 10
1623.999996
 20
735.499998
 30
0.0
 40
0.5
100
AcDbArc
 50
180.0
 51
270.0
  0
LINE
  5
321
100
AcDbEntity
  8
排水
  6
EXLTYPE2
 62
     6
100
AcDbLine
 10
1634.000004
 20
790.846517
 30
0.0
 11
1634.000004
 21
775.046518
 31
0.0
  0
ARC
  5
322
100
AcDbEntity
  8
排水
  6
EXLTYPE2
 62
     6
100
AcDbCircle
 10
1636.000004
 20
790.846517
 30
0.0
 40
2.0
100
AcDbArc
 50
89.999996
 51
179.999991
  0
LINE
  5
323
100
AcDbEntity
  8
排水
  6
EXLTYPE2
 62
     6
100
AcDbLine
 10
1677.999996
 20
792.846517
 30
0.0
 11
1636.000004
 21
792.846517
 31
0.0
  0
LINE
  5
324
100
AcDbEntity
  8
排水
  6
EXLTYPE2
 62
     6
100
AcDbLine
 10
1679.999996
 20
775.046518
 30
0.0
 11
1634.000004
 21
775.046518
 31
0.0
  0
LINE
  5
325
100
AcDbEntity
  8
排水
  6
EXLTYPE2
 62
     6
100
AcDbLine
 10
1681.0
 20
773.000002
 30
0.0
 11
1633.0
 21
773.000002
 31
0.0
  0
LINE
  5
326
100
AcDbEntity
  8
排水
  6
EXLTYPE2
 62
     6
100
AcDbLine
 10
1687.500004
 20
758.0
 30
0.0
 11
1626.499996
 21
758.0
 31
0.0
  0
LINE
  5
327
100
AcDbEntity
  8
排水
  6
EXLTYPE2
 62
     6
100
AcDbLine
 10
1690.000004
 20
734.999998
 30
0.0
 11
1623.999996
 21
734.999998
 31
0.0
  0
LINE
  5
328
100
AcDbEntity
  8
排水
  6
CONTINUOUS
 62
     6
100
AcDbLine
 10
1641.0
 20
694.999998
 30
0.0
 11
1673.0
 21
694.999998
 31
0.0
  0
ARC
  5
329
100
AcDbEntity
  8
排水
  6
CONTINUOUS
 62
     2
100
AcDbCircle
 10
730.0
 20
2372.0
 30
0.0
 40
14.5
100
AcDbArc
 50
202.719223
 51
337.282289
  0
ARC
  5
32A
100
AcDbEntity
  8
排水
  6
CONTINUOUS
 62
     6
100
AcDbCircle
 10
730.0
 20
2372.0
 30
0.0
 40
17.0
100
AcDbArc
 50
162.325725
 51
17.674275
  0
LINE
  5
32B
100
AcDbEntity
  8
排水
  6
CONTINUOUS
 62
     6
100
AcDbLine
 10
728.0
 20
2357.638593
 30
0.0
 11
728.0
 21
2366.400247
 31
0.0
  0
LINE
  5
32C
100
AcDbEntity
  8
排水
  6
CONTINUOUS
 62
     6
100
AcDbLine
 10
732.0
 20
2357.638593
 30
0.0
 11
732.0
 21
2366.400247
 31
0.0
  0
ARC
  5
32D
100
AcDbEntity
  8
排水
  6
CONTINUOUS
 62
     2
100
AcDbCircle
 10
730.0
 20
2372.0
 30
0.0
 40
27.85
100
AcDbArc
 50
127.819522
 51
52.180478
  0
LINE
  5
32E
100
AcDbEntity
  8
付属
  6
CONTINUOUS
 62
     6
100
AcDbLine
 10
595.0
 20
1762.0
 30
0.0
 11
615.0
 21
1762.0
 31
0.0
  0
LINE
  5
32F
100
AcDbEntity
  8
付属
  6
CONTINUOUS
 62
     6
100
AcDbLine
 10
605.0
 20
1752.0
 30
0.0
 11
605.0
 21
1772.0
 31
0.0
  0
CIRCLE
  5
330
100
AcDbEntity
  8
付属
  6
CONTINUOUS
 62
     2
100
AcDbCircle
 10
605.0
 20
1762.0
 30
0.0
 40
11.5
  0
LINE
  5
331
100
AcDbEntity
  8
付属
  6
CONTINUOUS
 62
     6
100
AcDbLine
 10
845.0
 20
1762.0
 30
0.0
 11
865.0
 21
1762.0
 31
0.0
  0
LINE
  5
332
100
AcDbEntity
  8
付属
  6
CONTINUOUS
 62
     6
100
AcDbLine
 10
855.0
 20
1752.0
 30
0.0
 11
855.0
 21
1772.0
 31
0.0
  0
CIRCLE
  5
333
100
AcDbEntity
  8
付属
  6
CONTINUOUS
 62
     2
100
AcDbCircle
 10
855.0
 20
1762.0
 30
0.0
 40
11.5
  0
CIRCLE
  5
334
100
AcDbEntity
  8
付属
  6
EXLTYPE2
 62
     6
100
AcDbCircle
 10
670.0
 20
1385.02
 30
0.0
 40
3.5
  0
CIRCLE
  5
335
100
AcDbEntity
  8
付属
  6
EXLTYPE2
 62
     6
100
AcDbCircle
 10
670.0
 20
1385.02
 30
0.0
 40
6.0
  0
LINE
  5
336
100
AcDbEntity
  8
付属
  6
EXLTYPE2
 62
     6
100
AcDbLine
 10
668.515076
 20
1386.504924
 30
0.0
 11
671.484924
 21
1383.535076
 31
0.0
  0
LINE
  5
337
100
AcDbEntity
  8
付属
  6
EXLTYPE2
 62
     6
100
AcDbLine
 10
668.515076
 20
1383.535076
 30
0.0
 11
671.484924
 21
1386.504924
 31
0.0
  0
CIRCLE
  5
338
100
AcDbEntity
  8
付属
  6
EXLTYPE2
 62
     6
100
AcDbCircle
 10
790.0
 20
1385.02
 30
0.0
 40
3.5
  0
CIRCLE
  5
339
100
AcDbEntity
  8
付属
  6
EXLTYPE2
 62
     6
100
AcDbCircle
 10
790.0
 20
1385.02
 30
0.0
 40
6.0
  0
LINE
  5
33A
100
AcDbEntity
  8
付属
  6
EXLTYPE2
 62
     6
100
AcDbLine
 10
788.515076
 20
1386.504924
 30
0.0
 11
791.484924
 21
1383.535076
 31
0.0
  0
LINE
  5
33B
100
AcDbEntity
  8
付属
  6
EXLTYPE2
 62
     6
100
AcDbLine
 10
788.515076
 20
1383.535076
 30
0.0
 11
791.484924
 21
1386.504924
 31
0.0
  0
LINE
  5
33C
100
AcDbEntity
  8
付属
  6
CONTINUOUS
 62
     6
100
AcDbLine
 10
670.0
 20
1375.02
 30
0.0
 11
670.0
 21
1395.02
 31
0.0
  0
LINE
  5
33D
100
AcDbEntity
  8
付属
  6
CONTINUOUS
 62
     6
100
AcDbLine
 10
660.0
 20
1385.02
 30
0.0
 11
680.0
 21
1385.02
 31
0.0
  0
LINE
  5
33E
100
AcDbEntity
  8
付属
  6
CONTINUOUS
 62
     6
100
AcDbLine
 10
790.0
 20
1375.02
 30
0.0
 11
790.0
 21
1395.02
 31
0.0
  0
LINE
  5
33F
100
AcDbEntity
  8
付属
  6
CONTINUOUS
 62
     6
100
AcDbLine
 10
780.0
 20
1385.02
 30
0.0
 11
800.0
 21
1385.02
 31
0.0
  0
LINE
  5
340
100
AcDbEntity
  8
付属
  6
CONTINUOUS
 62
     2
100
AcDbLine
 10
1601.5
 20
1773.5
 30
0.0
 11
1609.0
 21
1773.5
 31
0.0
  0
LINE
  5
341
100
AcDbEntity
  8
付属
  6
CONTINUOUS
 62
     2
100
AcDbLine
 10
1601.5
 20
1773.5
 30
0.0
 11
1601.0
 21
1773.0
 31
0.0
  0
LINE
  5
342
100
AcDbEntity
  8
付属
  6
CONTINUOUS
 62
     2
100
AcDbLine
 10
1601.0
 20
1751.0
 30
0.0
 11
1601.0
 21
1773.0
 31
0.0
  0
LINE
  5
343
100
AcDbEntity
  8
付属
  6
CONTINUOUS
 62
     2
100
AcDbLine
 10
1601.5
 20
1750.5
 30
0.0
 11
1609.0
 21
1750.5
 31
0.0
  0
LINE
  5
344
100
AcDbEntity
  8
付属
  6
CONTINUOUS
 62
     2
100
AcDbLine
 10
1601.0
 20
1751.0
 30
0.0
 11
1601.5
 21
1750.5
 31
0.0
  0
LINE
  5
345
100
AcDbEntity
  8
付属
  6
CONTINUOUS
 62
     2
100
AcDbLine
 10
1609.0
 20
1750.5
 30
0.0
 11
1609.0
 21
1773.5
 31
0.0
  0
LINE
  5
346
100
AcDbEntity
  8
付属
  6
CONTINUOUS
 62
     6
100
AcDbLine
 10
1601.5
 20
1773.5
 30
0.0
 11
1601.5
 21
1750.5
 31
0.0
  0
ARC
  5
347
100
AcDbEntity
  8
付属
  6
CONTINUOUS
 62
     6
100
AcDbCircle
 10
1671.843154
 20
1748.9
 30
0.0
 40
15.0
100
AcDbArc
 50
60.848336
 51
90.0
  0
ARC
  5
348
100
AcDbEntity
  8
付属
  6
CONTINUOUS
 62
     6
100
AcDbCircle
 10
1671.843154
 20
1775.1
 30
0.0
 40
15.0
100
AcDbArc
 50
270.0
 51
299.151664
  0
LINE
  5
349
100
AcDbEntity
  8
付属
  6
CONTINUOUS
 62
     6
100
AcDbLine
 10
1642.75
 20
1764.9
 30
0.0
 11
1644.05
 21
1759.1
 31
0.0
  0
LINE
  5
34A
100
AcDbEntity
  8
付属
  6
CONTINUOUS
 62
     6
100
AcDbLine
 10
1645.35
 20
1764.9
 30
0.0
 11
1646.65
 21
1759.1
 31
0.0
  0
LINE
  5
34B
100
AcDbEntity
  8
付属
  6
CONTINUOUS
 62
     6
100
AcDbLine
 10
1647.95
 20
1764.9
 30
0.0
 11
1649.25
 21
1759.1
 31
0.0
  0
LINE
  5
34C
100
AcDbEntity
  8
付属
  6
CONTINUOUS
 62
     6
100
AcDbLine
 10
1650.55
 20
1764.9
 30
0.0
 11
1651.85
 21
1759.1
 31
0.0
  0
LINE
  5
34D
100
AcDbEntity
  8
付属
  6
CONTINUOUS
 62
     6
100
AcDbLine
 10
1653.15
 20
1764.9
 30
0.0
 11
1654.45
 21
1759.1
 31
0.0
  0
LINE
  5
34E
100
AcDbEntity
  8
付属
  6
CONTINUOUS
 62
     6
100
AcDbLine
 10
1655.75
 20
1764.9
 30
0.0
 11
1657.05
 21
1759.1
 31
0.0
  0
LINE
  5
34F
100
AcDbEntity
  8
付属
  6
CONTINUOUS
 62
     6
100
AcDbLine
 10
1658.35
 20
1764.9
 30
0.0
 11
1659.65
 21
1759.1
 31
0.0
  0
LINE
  5
350
100
AcDbEntity
  8
付属
  6
CONTINUOUS
 62
     6
100
AcDbLine
 10
1660.95
 20
1764.9
 30
0.0
 11
1662.25
 21
1759.1
 31
0.0
  0
LINE
  5
351
100
AcDbEntity
  8
付属
  6
CONTINUOUS
 62
     6
100
AcDbLine
 10
1663.55
 20
1764.9
 30
0.0
 11
1664.85
 21
1759.1
 31
0.0
  0
LINE
  5
352
100
AcDbEntity
  8
付属
  6
CONTINUOUS
 62
     6
100
AcDbLine
 10
1666.15
 20
1764.9
 30
0.0
 11
1667.45
 21
1759.1
 31
0.0
  0
LINE
  5
353
100
AcDbEntity
  8
付属
  6
CONTINUOUS
 62
     6
100
AcDbLine
 10
1668.75
 20
1764.9
 30
0.0
 11
1670.05
 21
1759.1
 31
0.0
  0
LINE
  5
354
100
AcDbEntity
  8
付属
  6
CONTINUOUS
 62
     6
100
AcDbLine
 10
1671.35
 20
1764.9
 30
0.0
 11
1672.65
 21
1759.1
 31
0.0
  0
LINE
  5
355
100
AcDbEntity
  8
付属
  6
CONTINUOUS
 62
     6
100
AcDbLine
 10
1676.720698
 20
1764.138424
 30
0.0
 11
1677.609043
 21
1760.175037
 31
0.0
  0
LINE
  5
356
100
AcDbEntity
  8
付属
  6
CONTINUOUS
 62
     6
100
AcDbLine
 10
1673.982193
 20
1764.756371
 30
0.0
 11
1675.171547
 21
1759.450022
 31
0.0
  0
LINE
  5
357
100
AcDbEntity
  8
付属
  6
EXLTYPE3
 62
     6
100
AcDbLine
 10
1596.0
 20
1762.0
 30
0.0
 11
1684.15
 21
1762.0
 31
0.0
  0
LINE
  5
358
100
AcDbEntity
  8
付属
  6
CONTINUOUS
 62
     6
100
AcDbLine
 10
1642.0
 20
1763.9
 30
0.0
 11
1671.843154
 21
1763.9
 31
0.0
  0
LINE
  5
359
100
AcDbEntity
  8
付属
  6
CONTINUOUS
 62
     6
100
AcDbLine
 10
1642.0
 20
1760.1
 30
0.0
 11
1671.843154
 21
1760.1
 31
0.0
  0
LINE
  5
35A
100
AcDbEntity
  8
付属
  6
EXLTYPE3
 62
     6
100
AcDbLine
 10
1680.0
 20
1385.02
 30
0.0
 11
1617.4
 21
1385.02
 31
0.0
  0
LINE
  5
35B
100
AcDbEntity
  8
付属
  6
EXLTYPE2
 62
     6
100
AcDbLine
 10
1658.0
 20
1403.02
 30
0.0
 11
1661.0
 21
1391.02
 31
0.0
  0
LINE
  5
35C
100
AcDbEntity
  8
付属
  6
EXLTYPE2
 62
     6
100
AcDbLine
 10
1661.0
 20
1379.02
 30
0.0
 11
1658.0
 21
1368.02
 31
0.0
  0
LINE
  5
35D
100
AcDbEntity
  8
付属
  6
EXLTYPE2
 62
     6
100
AcDbLine
 10
1658.0
 20
1403.02
 30
0.0
 11
1657.0
 21
1403.02
 31
0.0
  0
LINE
  5
35E
100
AcDbEntity
  8
付属
  6
EXLTYPE2
 62
     6
100
AcDbLine
 10
1658.0
 20
1368.02
 30
0.0
 11
1657.0
 21
1368.02
 31
0.0
  0
LINE
  5
35F
100
AcDbEntity
  8
付属
  6
EXLTYPE2
 62
     6
100
AcDbLine
 10
1657.0
 20
1403.02
 30
0.0
 11
1657.0
 21
1368.02
 31
0.0
  0
ARC
  5
360
100
AcDbEntity
  8
付属
  6
EXLTYPE2
 62
     6
100
AcDbCircle
 10
1624.020976
 20
1382.82
 30
0.0
 40
1.3
100
AcDbArc
 50
196.60155
 51
270.0
  0
ARC
  5
361
100
AcDbEntity
  8
付属
  6
EXLTYPE2
 62
     6
100
AcDbCircle
 10
1624.020976
 20
1387.22
 30
0.0
 40
1.3
100
AcDbArc
 50
90.0
 51
163.39845
  0
ARC
  5
362
100
AcDbEntity
  8
付属
  6
EXLTYPE2
 62
     6
100
AcDbCircle
 10
1631.4
 20
1385.02
 30
0.0
 40
9.0
100
AcDbArc
 50
163.39845
 51
196.60155
  0
LINE
  5
363
100
AcDbEntity
  8
付属
  6
EXLTYPE2
 62
     6
100
AcDbLine
 10
1625.0
 20
1388.52
 30
0.0
 11
1624.020976
 21
1388.52
 31
0.0
  0
LINE
  5
364
100
AcDbEntity
  8
付属
  6
EXLTYPE2
 62
     6
100
AcDbLine
 10
1625.0
 20
1381.52
 30
0.0
 11
1624.020976
 21
1381.52
 31
0.0
  0
LINE
  5
365
100
AcDbEntity
  8
付属
  6
EXLTYPE2
 62
     6
100
AcDbLine
 10
1626.0
 20
1391.02
 30
0.0
 11
1626.0
 21
1379.02
 31
0.0
  0
LINE
  5
366
100
AcDbEntity
  8
付属
  6
EXLTYPE2
 62
     6
100
AcDbLine
 10
1625.0
 20
1391.02
 30
0.0
 11
1625.0
 21
1379.02
 31
0.0
  0
LINE
  5
367
100
AcDbEntity
  8
付属
  6
EXLTYPE2
 62
     6
100
AcDbLine
 10
1626.0
 20
1391.02
 30
0.0
 11
1625.0
 21
1391.02
 31
0.0
  0
LINE
  5
368
100
AcDbEntity
  8
付属
  6
EXLTYPE2
 62
     6
100
AcDbLine
 10
1626.0
 20
1379.02
 30
0.0
 11
1625.0
 21
1379.02
 31
0.0
  0
LINE
  5
369
100
AcDbEntity
  8
付属
  6
EXLTYPE2
 62
     6
100
AcDbLine
 10
1642.0
 20
1387.02
 30
0.0
 11
1657.0
 21
1387.02
 31
0.0
  0
LINE
  5
36A
100
AcDbEntity
  8
付属
  6
EXLTYPE2
 62
     6
100
AcDbLine
 10
1642.0
 20
1383.02
 30
0.0
 11
1657.0
 21
1383.02
 31
0.0
  0
LINE
  5
36B
100
AcDbEntity
  8
付属
  6
EXLTYPE2
 62
     6
100
AcDbLine
 10
1661.0
 20
1391.02
 30
0.0
 11
1661.0
 21
1379.02
 31
0.0
  0
LINE
  5
36C
100
AcDbEntity
  8
付属
  6
EXLTYPE2
 62
     6
100
AcDbLine
 10
1675.0
 20
1383.02
 30
0.0
 11
1675.0
 21
1387.02
 31
0.0
  0
LINE
  5
36D
100
AcDbEntity
  8
付属
  6
EXLTYPE2
 62
     6
100
AcDbLine
 10
1661.0
 20
1387.02
 30
0.0
 11
1675.0
 21
1387.02
 31
0.0
  0
LINE
  5
36E
100
AcDbEntity
  8
付属
  6
EXLTYPE2
 62
     6
100
AcDbLine
 10
1661.0
 20
1383.02
 30
0.0
 11
1675.0
 21
1383.02
 31
0.0
  0
LINE
  5
36F
100
AcDbEntity
  8
付属
  6
CONTINUOUS
 62
     2
100
AcDbLine
 10
843.5
 20
2386.5
 30
0.0
 11
843.5
 21
2394.0
 31
0.0
  0
LINE
  5
370
100
AcDbEntity
  8
付属
  6
CONTINUOUS
 62
     2
100
AcDbLine
 10
843.5
 20
2386.5
 30
0.0
 11
844.0
 21
2386.0
 31
0.0
  0
LINE
  5
371
100
AcDbEntity
  8
付属
  6
CONTINUOUS
 62
     2
100
AcDbLine
 10
866.0
 20
2386.0
 30
0.0
 11
844.0
 21
2386.0
 31
0.0
  0
LINE
  5
372
100
AcDbEntity
  8
付属
  6
CONTINUOUS
 62
     2
100
AcDbLine
 10
866.5
 20
2386.5
 30
0.0
 11
866.5
 21
2394.0
 31
0.0
  0
LINE
  5
373
100
AcDbEntity
  8
付属
  6
CONTINUOUS
 62
     2
100
AcDbLine
 10
866.0
 20
2386.0
 30
0.0
 11
866.5
 21
2386.5
 31
0.0
  0
LINE
  5
374
100
AcDbEntity
  8
付属
  6
CONTINUOUS
 62
     2
100
AcDbLine
 10
866.5
 20
2394.0
 30
0.0
 11
843.5
 21
2394.0
 31
0.0
  0
LINE
  5
375
100
AcDbEntity
  8
付属
  6
CONTINUOUS
 62
     6
100
AcDbLine
 10
843.5
 20
2386.5
 30
0.0
 11
866.5
 21
2386.5
 31
0.0
  0
ARC
  5
376
100
AcDbEntity
  8
付属
  6
CONTINUOUS
 62
     6
100
AcDbCircle
 10
868.1
 20
2456.843154
 30
0.0
 40
15.0
100
AcDbArc
 50
150.848336
 51
180.0
  0
ARC
  5
377
100
AcDbEntity
  8
付属
  6
CONTINUOUS
 62
     6
100
AcDbCircle
 10
841.9
 20
2456.843154
 30
0.0
 40
15.0
100
AcDbArc
 50
0.0
 51
29.151664
  0
LINE
  5
378
100
AcDbEntity
  8
付属
  6
CONTINUOUS
 62
     6
100
AcDbLine
 10
852.1
 20
2427.75
 30
0.0
 11
857.9
 21
2429.05
 31
0.0
  0
LINE
  5
379
100
AcDbEntity
  8
付属
  6
CONTINUOUS
 62
     6
100
AcDbLine
 10
852.1
 20
2430.35
 30
0.0
 11
857.9
 21
2431.65
 31
0.0
  0
LINE
  5
37A
100
AcDbEntity
  8
付属
  6
CONTINUOUS
 62
     6
100
AcDbLine
 10
852.1
 20
2432.95
 30
0.0
 11
857.9
 21
2434.25
 31
0.0
  0
LINE
  5
37B
100
AcDbEntity
  8
付属
  6
CONTINUOUS
 62
     6
100
AcDbLine
 10
852.1
 20
2435.55
 30
0.0
 11
857.9
 21
2436.85
 31
0.0
  0
LINE
  5
37C
100
AcDbEntity
  8
付属
  6
CONTINUOUS
 62
     6
100
AcDbLine
 10
852.1
 20
2438.15
 30
0.0
 11
857.9
 21
2439.45
 31
0.0
  0
LINE
  5
37D
100
AcDbEntity
  8
付属
  6
CONTINUOUS
 62
     6
100
AcDbLine
 10
852.1
 20
2440.75
 30
0.0
 11
857.9
 21
2442.05
 31
0.0
  0
LINE
  5
37E
100
AcDbEntity
  8
付属
  6
CONTINUOUS
 62
     6
100
AcDbLine
 10
852.1
 20
2443.35
 30
0.0
 11
857.9
 21
2444.65
 31
0.0
  0
LINE
  5
37F
100
AcDbEntity
  8
付属
  6
CONTINUOUS
 62
     6
100
AcDbLine
 10
852.1
 20
2445.95
 30
0.0
 11
857.9
 21
2447.25
 31
0.0
  0
LINE
  5
380
100
AcDbEntity
  8
付属
  6
CONTINUOUS
 62
     6
100
AcDbLine
 10
852.1
 20
2448.55
 30
0.0
 11
857.9
 21
2449.85
 31
0.0
  0
LINE
  5
381
100
AcDbEntity
  8
付属
  6
CONTINUOUS
 62
     6
100
AcDbLine
 10
852.1
 20
2451.15
 30
0.0
 11
857.9
 21
2452.45
 31
0.0
  0
LINE
  5
382
100
AcDbEntity
  8
付属
  6
CONTINUOUS
 62
     6
100
AcDbLine
 10
852.1
 20
2453.75
 30
0.0
 11
857.9
 21
2455.05
 31
0.0
  0
LINE
  5
383
100
AcDbEntity
  8
付属
  6
CONTINUOUS
 62
     6
100
AcDbLine
 10
852.1
 20
2456.35
 30
0.0
 11
857.9
 21
2457.65
 31
0.0
  0
LINE
  5
384
100
AcDbEntity
  8
付属
  6
CONTINUOUS
 62
     6
100
AcDbLine
 10
852.861576
 20
2461.720698
 30
0.0
 11
856.824963
 21
2462.609043
 31
0.0
  0
LINE
  5
385
100
AcDbEntity
  8
付属
  6
CONTINUOUS
 62
     6
100
AcDbLine
 10
852.243629
 20
2458.982193
 30
0.0
 11
857.549978
 21
2460.171547
 31
0.0
  0
LINE
  5
386
100
AcDbEntity
  8
付属
  6
EXLTYPE3
 62
     6
100
AcDbLine
 10
855.0
 20
2381.0
 30
0.0
 11
855.0
 21
2469.15
 31
0.0
  0
LINE
  5
387
100
AcDbEntity
  8
付属
  6
CONTINUOUS
 62
     2
100
AcDbLine
 10
593.5
 20
2386.5
 30
0.0
 11
593.5
 21
2394.0
 31
0.0
  0
LINE
  5
388
100
AcDbEntity
  8
付属
  6
CONTINUOUS
 62
     2
100
AcDbLine
 10
593.5
 20
2386.5
 30
0.0
 11
594.0
 21
2386.0
 31
0.0
  0
LINE
  5
389
100
AcDbEntity
  8
付属
  6
CONTINUOUS
 62
     2
100
AcDbLine
 10
616.0
 20
2386.0
 30
0.0
 11
594.0
 21
2386.0
 31
0.0
  0
LINE
  5
38A
100
AcDbEntity
  8
付属
  6
CONTINUOUS
 62
     2
100
AcDbLine
 10
616.5
 20
2386.5
 30
0.0
 11
616.5
 21
2394.0
 31
0.0
  0
LINE
  5
38B
100
AcDbEntity
  8
付属
  6
CONTINUOUS
 62
     2
100
AcDbLine
 10
616.0
 20
2386.0
 30
0.0
 11
616.5
 21
2386.5
 31
0.0
  0
LINE
  5
38C
100
AcDbEntity
  8
付属
  6
CONTINUOUS
 62
     2
100
AcDbLine
 10
616.5
 20
2394.0
 30
0.0
 11
593.5
 21
2394.0
 31
0.0
  0
LINE
  5
38D
100
AcDbEntity
  8
付属
  6
CONTINUOUS
 62
     6
100
AcDbLine
 10
593.5
 20
2386.5
 30
0.0
 11
616.5
 21
2386.5
 31
0.0
  0
ARC
  5
38E
100
AcDbEntity
  8
付属
  6
CONTINUOUS
 62
     6
100
AcDbCircle
 10
618.1
 20
2456.843154
 30
0.0
 40
15.0
100
AcDbArc
 50
150.848336
 51
180.0
  0
ARC
  5
38F
100
AcDbEntity
  8
付属
  6
CONTINUOUS
 62
     6
100
AcDbCircle
 10
591.9
 20
2456.843154
 30
0.0
 40
15.0
100
AcDbArc
 50
0.0
 51
29.151664
  0
LINE
  5
390
100
AcDbEntity
  8
付属
  6
CONTINUOUS
 62
     6
100
AcDbLine
 10
602.1
 20
2427.75
 30
0.0
 11
607.9
 21
2429.05
 31
0.0
  0
LINE
  5
391
100
AcDbEntity
  8
付属
  6
CONTINUOUS
 62
     6
100
AcDbLine
 10
602.1
 20
2430.35
 30
0.0
 11
607.9
 21
2431.65
 31
0.0
  0
LINE
  5
392
100
AcDbEntity
  8
付属
  6
CONTINUOUS
 62
     6
100
AcDbLine
 10
602.1
 20
2432.95
 30
0.0
 11
607.9
 21
2434.25
 31
0.0
  0
LINE
  5
393
100
AcDbEntity
  8
付属
  6
CONTINUOUS
 62
     6
100
AcDbLine
 10
602.1
 20
2435.55
 30
0.0
 11
607.9
 21
2436.85
 31
0.0
  0
LINE
  5
394
100
AcDbEntity
  8
付属
  6
CONTINUOUS
 62
     6
100
AcDbLine
 10
602.1
 20
2438.15
 30
0.0
 11
607.9
 21
2439.45
 31
0.0
  0
LINE
  5
395
100
AcDbEntity
  8
付属
  6
CONTINUOUS
 62
     6
100
AcDbLine
 10
602.1
 20
2440.75
 30
0.0
 11
607.9
 21
2442.05
 31
0.0
  0
LINE
  5
396
100
AcDbEntity
  8
付属
  6
CONTINUOUS
 62
     6
100
AcDbLine
 10
602.1
 20
2443.35
 30
0.0
 11
607.9
 21
2444.65
 31
0.0
  0
LINE
  5
397
100
AcDbEntity
  8
付属
  6
CONTINUOUS
 62
     6
100
AcDbLine
 10
602.1
 20
2445.95
 30
0.0
 11
607.9
 21
2447.25
 31
0.0
  0
LINE
  5
398
100
AcDbEntity
  8
付属
  6
CONTINUOUS
 62
     6
100
AcDbLine
 10
602.1
 20
2448.55
 30
0.0
 11
607.9
 21
2449.85
 31
0.0
  0
LINE
  5
399
100
AcDbEntity
  8
付属
  6
CONTINUOUS
 62
     6
100
AcDbLine
 10
602.1
 20
2451.15
 30
0.0
 11
607.9
 21
2452.45
 31
0.0
  0
LINE
  5
39A
100
AcDbEntity
  8
付属
  6
CONTINUOUS
 62
     6
100
AcDbLine
 10
602.1
 20
2453.75
 30
0.0
 11
607.9
 21
2455.05
 31
0.0
  0
LINE
  5
39B
100
AcDbEntity
  8
付属
  6
CONTINUOUS
 62
     6
100
AcDbLine
 10
602.1
 20
2456.35
 30
0.0
 11
607.9
 21
2457.65
 31
0.0
  0
LINE
  5
39C
100
AcDbEntity
  8
付属
  6
CONTINUOUS
 62
     6
100
AcDbLine
 10
602.861576
 20
2461.720698
 30
0.0
 11
606.824963
 21
2462.609043
 31
0.0
  0
LINE
  5
39D
100
AcDbEntity
  8
付属
  6
CONTINUOUS
 62
     6
100
AcDbLine
 10
602.243629
 20
2458.982193
 30
0.0
 11
607.549978
 21
2460.171547
 31
0.0
  0
LINE
  5
39E
100
AcDbEntity
  8
付属
  6
EXLTYPE3
 62
     6
100
AcDbLine
 10
605.0
 20
2381.0
 30
0.0
 11
605.0
 21
2469.15
 31
0.0
  0
LINE
  5
39F
100
AcDbEntity
  8
付属
  6
CONTINUOUS
 62
     6
100
AcDbLine
 10
853.1
 20
2427.0
 30
0.0
 11
853.1
 21
2456.843154
 31
0.0
  0
LINE
  5
3A0
100
AcDbEntity
  8
付属
  6
CONTINUOUS
 62
     6
100
AcDbLine
 10
856.9
 20
2427.0
 30
0.0
 11
856.9
 21
2456.843154
 31
0.0
  0
LINE
  5
3A1
100
AcDbEntity
  8
付属
  6
CONTINUOUS
 62
     6
100
AcDbLine
 10
603.1
 20
2427.0
 30
0.0
 11
603.1
 21
2456.843154
 31
0.0
  0
LINE
  5
3A2
100
AcDbEntity
  8
付属
  6
CONTINUOUS
 62
     6
100
AcDbLine
 10
606.9
 20
2427.0
 30
0.0
 11
606.9
 21
2456.843154
 31
0.0
  0
LINE
  5
3A3
100
AcDbEntity
  8
壁
  6
CONTINUOUS
 62
     1
100
AcDbLine
 10
1642.0
 20
1745.0
 30
0.0
 11
1750.0
 21
1745.0
 31
0.0
  0
LINE
  5
3A4
100
AcDbEntity
  8
壁
  6
CONTINUOUS
 62
     1
100
AcDbLine
 10
1660.0
 20
1790.0
 30
0.0
 11
1750.0
 21
1790.0
 31
0.0
  0
LINE
  5
3A5
100
AcDbEntity
  8
壁
  6
CONTINUOUS
 62
     1
100
AcDbLine
 10
1660.0
 20
1745.0
 30
0.0
 11
1750.0
 21
1790.0
 31
0.0
  0
LINE
  5
3A6
100
AcDbEntity
  8
壁
  6
CONTINUOUS
 62
     1
100
AcDbLine
 10
1660.0
 20
1790.0
 30
0.0
 11
1750.0
 21
1745.0
 31
0.0
  0
TEXT
  5
3A7
100
AcDbEntity
  8
壁
  6
CONTINUOUS
 62
     2
100
AcDbText
 10
1637.0
 20
2107.0
 30
0.0
 40
40.0
  1
Ｗ.Ｌ.
 50
90.0
 41
0.552
  7
EXCADSTD
 72
     5
 11
1637.0
 21
2203.0
 31
0.0
100
AcDbText
  0
TEXT
  5
3A8
100
AcDbEntity
  8
壁
  6
CONTINUOUS
 62
     2
100
AcDbText
 10
1350.0
 20
710.0
 30
0.0
 40
40.0
  1
Ｆ.Ｌ.
 41
0.552
  7
EXCADSTD
 72
     5
 11
1446.0
 21
710.0
 31
0.0
100
AcDbText
  0
POLYLINE
  5
3A9
100
AcDbEntity
  8
壁
  6
CONTINUOUS
 62
     3
100
AcDb2dPolyline
 66
     1
 10
0.0
 20
0.0
 30
0.0
 70
   128
  0
VERTEX
  5
3AA
100
AcDbEntity
  8
壁
  6
CONTINUOUS
 62
     3
100
AcDbVertex
100
AcDb2dVertex
 10
1462.0
 20
705.0
 30
0.0
  0
VERTEX
  5
3AB
100
AcDbEntity
  8
壁
  6
CONTINUOUS
 62
     3
100
AcDbVertex
100
AcDb2dVertex
 10
1444.0
 20
734.0
 30
0.0
  0
SEQEND
  5
3AC
100
AcDbEntity
  8
壁
  6
CONTINUOUS
 62
     3
  0
LINE
  5
3AD
100
AcDbEntity
  8
壁
  6
CONTINUOUS
 62
     3
100
AcDbLine
 10
1441.930913
 20
727.852391
 30
0.0
 11
1462.0
 21
705.0
 31
0.0
  0
LINE
  5
3AE
100
AcDbEntity
  8
壁
  6
CONTINUOUS
 62
     3
100
AcDbLine
 10
1462.0
 20
705.0
 30
0.0
 11
1450.427315
 21
733.126019
 31
0.0
  0
POLYLINE
  5
3AF
100
AcDbEntity
  8
壁
  6
CONTINUOUS
 62
     3
100
AcDb2dPolyline
 66
     1
 10
0.0
 20
0.0
 30
0.0
 70
   128
  0
VERTEX
  5
3B0
100
AcDbEntity
  8
壁
  6
CONTINUOUS
 62
     3
100
AcDbVertex
100
AcDb2dVertex
 10
1642.0
 20
2090.9
 30
0.0
  0
VERTEX
  5
3B1
100
AcDbEntity
  8
壁
  6
CONTINUOUS
 62
     3
100
AcDbVertex
100
AcDb2dVertex
 10
1610.4
 20
2104.0
 30
0.0
  0
SEQEND
  5
3B2
100
AcDbEntity
  8
壁
  6
CONTINUOUS
 62
     3
  0
LINE
  5
3B3
100
AcDbEntity
  8
壁
  6
CONTINUOUS
 62
     3
100
AcDbLine
 10
1612.372209
 20
2097.769789
 30
0.0
 11
1642.0
 21
2090.9
 31
0.0
  0
LINE
  5
3B4
100
AcDbEntity
  8
壁
  6
CONTINUOUS
 62
     3
100
AcDbLine
 10
1642.0
 20
2090.9
 30
0.0
 11
1616.201751
 21
2107.007462
 31
0.0
  0
LINE
  5
3B5
100
AcDbEntity
  8
壁
  6
EXLTYPE4
 62
     1
100
AcDbLine
 10
330.0
 20
705.0
 30
0.0
 11
1200.0
 21
705.0
 31
0.0
  0
LINE
  5
3B6
100
AcDbEntity
  8
壁
  6
EXLTYPE4
 62
     1
100
AcDbLine
 10
1350.0
 20
705.0
 30
0.0
 11
1750.0
 21
705.0
 31
0.0
  0
LINE
  5
3B7
100
AcDbEntity
  8
壁
  6
EXLTYPE4
 62
     1
100
AcDbLine
 10
1750.0
 20
1790.0
 30
0.0
 11
1750.0
 21
705.0
 31
0.0
  0
LINE
  5
3B8
100
AcDbEntity
  8
壁
  6
EXLTYPE4
 62
     1
100
AcDbLine
 10
1660.0
 20
2205.0
 30
0.0
 11
1660.0
 21
1745.0
 31
0.0
  0
LINE
  5
3B9
100
AcDbEntity
  8
壁
  6
EXLTYPE4
 62
     1
100
AcDbLine
 10
1642.0
 20
2205.0
 30
0.0
 11
1642.0
 21
705.0
 31
0.0
  0
LINE
  5
3BA
100
AcDbEntity
  8
壁
  6
EXLTYPE4
 62
     1
100
AcDbLine
 10
582.5
 20
1745.0
 30
0.0
 11
877.5
 21
1745.0
 31
0.0
  0
LINE
  5
3BB
100
AcDbEntity
  8
壁
  6
EXLTYPE4
 62
     1
100
AcDbLine
 10
582.5
 20
1745.0
 30
0.0
 11
582.5
 21
705.0
 31
0.0
  0
LINE
  5
3BC
100
AcDbEntity
  8
壁
  6
EXLTYPE4
 62
     1
100
AcDbLine
 10
877.5
 20
1745.0
 30
0.0
 11
877.5
 21
705.0
 31
0.0
  0
POLYLINE
  5
3BD
100
AcDbEntity
  8
壁
  6
CONTINUOUS
 62
     3
100
AcDb2dPolyline
 66
     1
 10
0.0
 20
0.0
 30
0.0
 70
   128
  0
VERTEX
  5
3BE
100
AcDbEntity
  8
壁
  6
CONTINUOUS
 62
     3
100
AcDbVertex
100
AcDb2dVertex
 10
1081.0
 20
2427.0
 30
0.0
  0
VERTEX
  5
3BF
100
AcDbEntity
  8
壁
  6
CONTINUOUS
 62
     3
100
AcDbVertex
100
AcDb2dVertex
 10
1102.0
 20
2397.0
 30
0.0
  0
SEQEND
  5
3C0
100
AcDbEntity
  8
壁
  6
CONTINUOUS
 62
     3
  0
LINE
  5
3C1
100
AcDbEntity
  8
壁
  6
CONTINUOUS
 62
     3
100
AcDbLine
 10
1102.30003
 20
2405.290354
 30
0.0
 11
1081.0
 21
2427.0
 31
0.0
  0
LINE
  5
3C2
100
AcDbEntity
  8
壁
  6
CONTINUOUS
 62
     3
100
AcDbLine
 10
1081.0
 20
2427.0
 30
0.0
 11
1094.107711
 21
2399.555731
 31
0.0
  0
TEXT
  5
3C3
100
AcDbEntity
  8
壁
  6
CONTINUOUS
 62
     2
100
AcDbText
 10
1103.0
 20
2380.0
 30
0.0
 40
40.0
  1
Ｗ.Ｌ.
 41
0.552
  7
EXCADSTD
 72
     5
 11
1199.0
 21
2380.0
 31
0.0
100
AcDbText
  0
LINE
  5
3C4
100
AcDbEntity
  8
壁
  6
CONTINUOUS
 62
     1
100
AcDbLine
 10
877.5
 20
2427.0
 30
0.0
 11
877.5
 21
2535.0
 31
0.0
  0
LINE
  5
3C5
100
AcDbEntity
  8
壁
  6
CONTINUOUS
 62
     1
100
AcDbLine
 10
877.5
 20
2535.0
 30
0.0
 11
907.5
 21
2445.0
 31
0.0
  0
LINE
  5
3C6
100
AcDbEntity
  8
壁
  6
CONTINUOUS
 62
     1
100
AcDbLine
 10
877.5
 20
2445.0
 30
0.0
 11
907.5
 21
2535.0
 31
0.0
  0
LINE
  5
3C7
100
AcDbEntity
  8
壁
  6
CONTINUOUS
 62
     1
100
AcDbLine
 10
907.5
 20
2445.0
 30
0.0
 11
907.5
 21
2535.0
 31
0.0
  0
LINE
  5
3C8
100
AcDbEntity
  8
壁
  6
CONTINUOUS
 62
     1
100
AcDbLine
 10
582.5
 20
2427.0
 30
0.0
 11
582.5
 21
2535.0
 31
0.0
  0
LINE
  5
3C9
100
AcDbEntity
  8
壁
  6
CONTINUOUS
 62
     1
100
AcDbLine
 10
552.5
 20
2535.0
 30
0.0
 11
582.5
 21
2445.0
 31
0.0
  0
LINE
  5
3CA
100
AcDbEntity
  8
壁
  6
CONTINUOUS
 62
     1
100
AcDbLine
 10
552.5
 20
2445.0
 30
0.0
 11
582.5
 21
2535.0
 31
0.0
  0
LINE
  5
3CB
100
AcDbEntity
  8
壁
  6
CONTINUOUS
 62
     1
100
AcDbLine
 10
552.5
 20
2445.0
 30
0.0
 11
552.5
 21
2535.0
 31
0.0
  0
LINE
  5
3CC
100
AcDbEntity
  8
壁
  6
EXLTYPE4
 62
     1
100
AcDbLine
 10
330.0
 20
2445.0
 30
0.0
 11
582.5
 21
2445.0
 31
0.0
  0
LINE
  5
3CD
100
AcDbEntity
  8
壁
  6
EXLTYPE4
 62
     1
100
AcDbLine
 10
330.0
 20
2427.0
 30
0.0
 11
1200.0
 21
2427.0
 31
0.0
  0
LINE
  5
3CE
100
AcDbEntity
  8
壁
  6
EXLTYPE4
 62
     1
100
AcDbLine
 10
877.5
 20
2445.0
 30
0.0
 11
1200.0
 21
2445.0
 31
0.0
  0
LINE
  5
3CF
100
AcDbEntity
  8
壁
  6
EXLTYPE4
 62
     1
100
AcDbLine
 10
552.5
 20
2535.0
 30
0.0
 11
907.5
 21
2535.0
 31
0.0
  0
DIMENSION
  5
3DC
100
AcDbEntity
  8
寸法
  6
CONTINUOUS
 62
     3
100
AcDbDimension
  2
*D14
 10
582.5
 20
2605.0
 30
0.0
 11
457.5
 21
2628.5
 31
0.0
 70
   160
  1
30以上
  3
STANDARD
100
AcDbAlignedDimension
 13
552.5
 23
2535.0
 33
0.0
 14
582.5
 24
2535.0
 34
0.0
100
AcDbRotatedDimension
1001
ACAD
1000
DSTYLE
1002
{
1070
     6
1000
_EX_NORM
1070
     7
1000
_EX_NORM
1070
    41
1040
30.0
1070
    42
1040
7.0
1070
    44
1040
10.0
1070
    73
1070
     0
1070
    74
1070
     0
1070
    75
1070
     0
1070
    76
1070
     0
1070
    77
1070
     1
1070
    78
1070
     0
1070
   140
1040
40.0
1070
   147
1040
3.5
1070
   173
1070
     1
1070
   176
1070
     3
1070
   177
1070
     3
1070
   178
1070
     2
1070
   271
1070
     0
1070
   279
1070
     2
1070
   280
1070
     1
1070
   287
1070
     5
1070
   340
1005
3DB
1002
}
  0
LINE
  5
3DD
100
AcDbEntity
  8
寸法
  6
CONTINUOUS
 62
     3
100
AcDbLine
 10
582.5
 20
2542.0
 30
0.0
 11
582.5
 21
2615.0
 31
0.0
  0
LINE
  5
3DE
100
AcDbEntity
  8
寸法
  6
CONTINUOUS
 62
     3
100
AcDbLine
 10
877.5
 20
2542.0
 30
0.0
 11
877.5
 21
2615.0
 31
0.0
  0
TEXT
  5
3DF
100
AcDbEntity
  8
寸法
  6
CONTINUOUS
 62
     2
100
AcDbText
 10
664.0
 20
2608.5
 30
0.0
 40
40.0
  1
２９５
 41
0.7
  7
EXCADSTD
 72
     5
 11
764.0
 21
2608.5
 31
0.0
100
AcDbText
  0
TEXT
  5
3E0
100
AcDbEntity
  8
寸法
  6
CONTINUOUS
 62
     2
100
AcDbText
 10
759.0
 20
2608.5
 30
0.0
 40
23.999998
  1
±３
 41
0.735
  7
EXCADSTD
 72
     5
 11
797.497198
 21
2608.5
 31
0.0
100
AcDbText
  0
LINE
  5
3E1
100
AcDbEntity
  8
寸法
  6
CONTINUOUS
 62
     3
100
AcDbLine
 10
582.5
 20
2605.0
 30
0.0
 11
877.5
 21
2605.0
 31
0.0
  0
LINE
  5
3E2
100
AcDbEntity
  8
寸法
  6
CONTINUOUS
 62
     3
100
AcDbLine
 10
612.5
 20
2610.0
 30
0.0
 11
582.5
 21
2605.0
 31
0.0
  0
LINE
  5
3E3
100
AcDbEntity
  8
寸法
  6
CONTINUOUS
 62
     3
100
AcDbLine
 10
582.5
 20
2605.0
 30
0.0
 11
612.5
 21
2600.0
 31
0.0
  0
LINE
  5
3E4
100
AcDbEntity
  8
寸法
  6
CONTINUOUS
 62
     3
100
AcDbLine
 10
847.5
 20
2600.0
 30
0.0
 11
877.5
 21
2605.0
 31
0.0
  0
LINE
  5
3E5
100
AcDbEntity
  8
寸法
  6
CONTINUOUS
 62
     3
100
AcDbLine
 10
877.5
 20
2605.0
 30
0.0
 11
847.5
 21
2610.0
 31
0.0
  0
DIMENSION
  5
3F1
100
AcDbEntity
  8
寸法
  6
CONTINUOUS
 62
     3
100
AcDbDimension
  2
*D15
 10
907.5
 20
2605.0
 30
0.0
 11
1002.5
 21
2628.5
 31
0.0
 70
   160
  1
30以上
  3
STANDARD
100
AcDbAlignedDimension
 13
877.5
 23
2535.0
 33
0.0
 14
907.5
 24
2535.0
 34
0.0
100
AcDbRotatedDimension
1001
ACAD
1000
DSTYLE
1002
{
1070
     6
1000
_EX_NORM
1070
     7
1000
_EX_NORM
1070
    41
1040
30.0
1070
    42
1040
7.0
1070
    44
1040
10.0
1070
    73
1070
     0
1070
    74
1070
     0
1070
    75
1070
     0
1070
    76
1070
     0
1070
    77
1070
     1
1070
    78
1070
     0
1070
   140
1040
40.0
1070
   147
1040
3.5
1070
   173
1070
     1
1070
   176
1070
     3
1070
   177
1070
     3
1070
   178
1070
     2
1070
   271
1070
     0
1070
   279
1070
     2
1070
   280
1070
     2
1070
   287
1070
     5
1070
   340
1005
3DB
1002
}
  0
DIMENSION
  5
3FC
100
AcDbEntity
  8
寸法
  6
CONTINUOUS
 62
     3
100
AcDbDimension
  2
*D16
 10
981.0
 20
2394.0
 30
0.0
 11
957.5
 21
2329.0
 31
0.0
 70
   160
  3
STANDARD
100
AcDbAlignedDimension
 13
889.784967
 23
2427.0
 33
0.0
 14
888.81621
 24
2394.0
 34
0.0
 50
90.0
100
AcDbRotatedDimension
1001
ACAD
1000
DSTYLE
1002
{
1070
     6
1000
_EX_NORM
1070
     7
1000
_EX_NORM
1070
    41
1040
30.0
1070
    42
1040
7.0
1070
    44
1040
10.0
1070
    73
1070
     0
1070
    74
1070
     0
1070
    75
1070
     1
1070
    76
1070
     0
1070
    77
1070
     1
1070
    78
1070
     0
1070
   140
1040
40.0
1070
   147
1040
3.5
1070
   173
1070
     1
1070
   176
1070
     3
1070
   177
1070
     3
1070
   178
1070
     2
1070
   271
1070
     0
1070
   279
1070
     2
1070
   280
1070
     2
1070
   287
1070
     5
1070
   340
1005
3DB
1002
}
  0
DIMENSION
  5
407
100
AcDbEntity
  8
寸法
  6
CONTINUOUS
 62
     3
100
AcDbDimension
  2
*D17
 10
1041.0
 20
2282.0
 30
0.0
 11
1017.5
 21
2354.5
 31
0.0
 70
   160
  3
STANDARD
100
AcDbAlignedDimension
 13
880.0
 23
2427.0
 33
0.0
 14
730.0
 24
2282.0
 34
0.0
 50
90.0
100
AcDbRotatedDimension
1001
ACAD
1000
DSTYLE
1002
{
1070
     6
1000
_EX_NORM
1070
     7
1000
_EX_NORM
1070
    41
1040
30.0
1070
    42
1040
7.0
1070
    44
1040
10.0
1070
    73
1070
     0
1070
    74
1070
     0
1070
    75
1070
     1
1070
    76
1070
     0
1070
    77
1070
     1
1070
    78
1070
     0
1070
   140
1040
40.0
1070
   147
1040
3.5
1070
   173
1070
     1
1070
   176
1070
     3
1070
   177
1070
     3
1070
   178
1070
     2
1070
   271
1070
     0
1070
   279
1070
     2
1070
   280
1070
     0
1070
   287
1070
     5
1070
   340
1005
3DB
1002
}
  0
DIMENSION
  5
412
100
AcDbEntity
  8
寸法
  6
CONTINUOUS
 62
     3
100
AcDbDimension
  2
*D18
 10
1041.0
 20
2517.0
 30
0.0
 11
1017.5
 21
2484.6
 31
0.0
 70
   160
  3
STANDARD
100
AcDbAlignedDimension
 13
889.784967
 23
2427.0
 33
0.0
 14
872.5
 24
2517.0
 34
0.0
 50
90.0
100
AcDbRotatedDimension
1001
ACAD
1000
DSTYLE
1002
{
1070
     6
1000
_EX_NORM
1070
     7
1000
_EX_NORM
1070
    41
1040
30.0
1070
    42
1040
7.0
1070
    44
1040
10.0
1070
    73
1070
     0
1070
    74
1070
     0
1070
    75
1070
     1
1070
    76
1070
     0
1070
    77
1070
     1
1070
    78
1070
     0
1070
   140
1040
40.0
1070
   147
1040
3.5
1070
   173
1070
     1
1070
   176
1070
     3
1070
   177
1070
     3
1070
   178
1070
     2
1070
   271
1070
     0
1070
   279
1070
     2
1070
   280
1070
     0
1070
   287
1070
     5
1070
   340
1005
3DB
1002
}
  0
DIMENSION
  5
41D
100
AcDbEntity
  8
寸法
  6
CONTINUOUS
 62
     3
100
AcDbDimension
  2
*D19
 10
981.0
 20
1405.0
 30
0.0
 11
957.5
 21
1055.0
 31
0.0
 70
   160
  3
STANDARD
100
AcDbAlignedDimension
 13
832.5
 23
705.0
 33
0.0
 14
895.0
 24
1405.0
 34
0.0
 50
90.0
100
AcDbRotatedDimension
1001
ACAD
1000
DSTYLE
1002
{
1070
     6
1000
_EX_NORM
1070
     7
1000
_EX_NORM
1070
    41
1040
30.0
1070
    42
1040
7.0
1070
    44
1040
10.0
1070
    73
1070
     0
1070
    74
1070
     0
1070
    75
1070
     1
1070
    76
1070
     0
1070
    77
1070
     1
1070
    78
1070
     0
1070
   140
1040
40.0
1070
   147
1040
3.5
1070
   173
1070
     1
1070
   176
1070
     3
1070
   177
1070
     3
1070
   178
1070
     2
1070
   271
1070
     0
1070
   279
1070
     2
1070
   280
1070
     0
1070
   287
1070
     5
1070
   340
1005
3DB
1002
}
  0
DIMENSION
  5
428
100
AcDbEntity
  8
寸法
  6
CONTINUOUS
 62
     3
100
AcDbDimension
  2
*D20
 10
981.0
 20
1785.0
 30
0.0
 11
957.5
 21
1595.0
 31
0.0
 70
   160
  3
STANDARD
100
AcDbAlignedDimension
 13
895.0
 23
1405.0
 33
0.0
 14
889.0
 24
1785.0
 34
0.0
 50
90.0
100
AcDbRotatedDimension
1001
ACAD
1000
DSTYLE
1002
{
1070
     6
1000
_EX_NORM
1070
     7
1000
_EX_NORM
1070
    41
1040
30.0
1070
    42
1040
7.0
1070
    44
1040
10.0
1070
    73
1070
     0
1070
    74
1070
     0
1070
    75
1070
     1
1070
    76
1070
     0
1070
    77
1070
     1
1070
    78
1070
     0
1070
   140
1040
40.0
1070
   147
1040
3.5
1070
   173
1070
     1
1070
   176
1070
     3
1070
   177
1070
     3
1070
   178
1070
     2
1070
   271
1070
     0
1070
   279
1070
     2
1070
   280
1070
     0
1070
   287
1070
     5
1070
   340
1005
3DB
1002
}
  0
DIMENSION
  5
433
100
AcDbEntity
  8
寸法
  6
CONTINUOUS
 62
     3
100
AcDbDimension
  2
*D21
 10
1041.0
 20
1785.0
 30
0.0
 11
1017.5
 21
1245.0
 31
0.0
 70
   160
  3
STANDARD
100
AcDbAlignedDimension
 13
832.5
 23
705.0
 33
0.0
 14
889.0
 24
1785.0
 34
0.0
 50
90.0
100
AcDbRotatedDimension
1001
ACAD
1000
DSTYLE
1002
{
1070
     6
1000
_EX_NORM
1070
     7
1000
_EX_NORM
1070
    41
1040
30.0
1070
    42
1040
7.0
1070
    44
1040
10.0
1070
    73
1070
     0
1070
    74
1070
     0
1070
    75
1070
     1
1070
    76
1070
     0
1070
    77
1070
     1
1070
    78
1070
     0
1070
   140
1040
40.0
1070
   147
1040
3.5
1070
   173
1070
     1
1070
   176
1070
     3
1070
   177
1070
     3
1070
   178
1070
     2
1070
   271
1070
     0
1070
   279
1070
     2
1070
   280
1070
     0
1070
   287
1070
     5
1070
   340
1005
3DB
1002
}
  0
DIMENSION
  5
43F
100
AcDbEntity
  8
寸法
  6
CONTINUOUS
 62
     3
100
AcDbDimension
  2
*D22
 10
855.0
 20
1838.0
 30
0.0
 11
730.0
 21
1861.5
 31
0.0
 70
   160
  3
STANDARD
100
AcDbAlignedDimension
 13
605.0
 23
1765.5
 33
0.0
 14
855.0
 24
1765.5
 34
0.0
100
AcDbRotatedDimension
1001
ACAD
1000
DSTYLE
1002
{
1070
     6
1000
_EX_NORM
1070
     7
1000
_EX_NORM
1070
    41
1040
30.0
1070
    42
1040
7.0
1070
    44
1040
10.0
1070
    73
1070
     0
1070
    74
1070
     0
1070
    75
1070
     0
1070
    76
1070
     0
1070
    77
1070
     1
1070
    78
1070
     0
1070
   140
1040
40.0
1070
   147
1040
3.5
1070
   173
1070
     1
1070
   176
1070
     3
1070
   177
1070
     3
1070
   178
1070
     2
1070
   271
1070
     0
1070
   279
1070
     2
1070
   280
1070
     0
1070
   287
1070
     5
1070
   340
1005
3DB
1002
}
  0
DIMENSION
  5
44B
100
AcDbEntity
  8
寸法
  6
CONTINUOUS
 62
     3
100
AcDbDimension
  2
*D23
 10
895.0
 20
1898.0
 30
0.0
 11
730.0
 21
1921.5
 31
0.0
 70
   160
  3
STANDARD
100
AcDbAlignedDimension
 13
565.0
 23
1779.0
 33
0.0
 14
895.0
 24
1779.0
 34
0.0
100
AcDbRotatedDimension
1001
ACAD
1000
DSTYLE
1002
{
1070
     6
1000
_EX_NORM
1070
     7
1000
_EX_NORM
1070
    41
1040
30.0
1070
    42
1040
7.0
1070
    44
1040
10.0
1070
    73
1070
     0
1070
    74
1070
     0
1070
    75
1070
     0
1070
    76
1070
     0
1070
    77
1070
     1
1070
    78
1070
     0
1070
   140
1040
40.0
1070
   147
1040
3.5
1070
   173
1070
     1
1070
   176
1070
     3
1070
   177
1070
     3
1070
   178
1070
     2
1070
   271
1070
     0
1070
   279
1070
     2
1070
   280
1070
     0
1070
   287
1070
     5
1070
   340
1005
3DB
1002
}
  0
DIMENSION
  5
456
100
AcDbEntity
  8
寸法
  6
CONTINUOUS
 62
     3
100
AcDbDimension
  2
*D24
 10
514.0
 20
895.0
 30
0.0
 11
490.5
 21
800.0
 31
0.0
 70
   160
  3
STANDARD
100
AcDbAlignedDimension
 13
572.5
 23
705.0
 33
0.0
 14
552.5
 24
895.0
 34
0.0
 50
90.0
100
AcDbRotatedDimension
1001
ACAD
1000
DSTYLE
1002
{
1070
     6
1000
_EX_NORM
1070
     7
1000
_EX_NORM
1070
    41
1040
30.0
1070
    42
1040
7.0
1070
    44
1040
10.0
1070
    73
1070
     0
1070
    74
1070
     0
1070
    75
1070
     1
1070
    76
1070
     0
1070
    77
1070
     1
1070
    78
1070
     0
1070
   140
1040
40.0
1070
   147
1040
3.5
1070
   173
1070
     1
1070
   176
1070
     3
1070
   177
1070
     3
1070
   178
1070
     2
1070
   271
1070
     0
1070
   279
1070
     2
1070
   280
1070
     0
1070
   287
1070
     5
1070
   340
1005
3DB
1002
}
  0
DIMENSION
  5
461
100
AcDbEntity
  8
寸法
  6
CONTINUOUS
 62
     3
100
AcDbDimension
  2
*D25
 10
514.0
 20
1285.0
 30
0.0
 11
490.5
 21
1090.0
 31
0.0
 70
   160
  1
390（壁固定）
  3
STANDARD
100
AcDbAlignedDimension
 13
552.5
 23
895.0
 33
0.0
 14
552.5
 24
1285.0
 34
0.0
 50
90.0
100
AcDbRotatedDimension
1001
ACAD
1000
DSTYLE
1002
{
1070
     6
1000
_EX_NORM
1070
     7
1000
_EX_NORM
1070
    41
1040
30.0
1070
    42
1040
7.0
1070
    44
1040
10.0
1070
    73
1070
     0
1070
    74
1070
     0
1070
    75
1070
     1
1070
    76
1070
     0
1070
    77
1070
     1
1070
    78
1070
     0
1070
   140
1040
40.0
1070
   147
1040
3.5
1070
   173
1070
     1
1070
   176
1070
     3
1070
   177
1070
     3
1070
   178
1070
     2
1070
   271
1070
     0
1070
   279
1070
     2
1070
   280
1070
     0
1070
   287
1070
     5
1070
   340
1005
3DB
1002
}
  0
DIMENSION
  5
46C
100
AcDbEntity
  8
寸法
  6
CONTINUOUS
 62
     3
100
AcDbDimension
  2
*D26
 10
454.0
 20
1762.0
 30
0.0
 11
430.5
 21
1233.5
 31
0.0
 70
   160
  1
1057（壁固定）
  3
STANDARD
100
AcDbAlignedDimension
 13
572.5
 23
705.0
 33
0.0
 14
601.5
 24
1762.0
 34
0.0
 50
90.0
100
AcDbRotatedDimension
1001
ACAD
1000
DSTYLE
1002
{
1070
     6
1000
_EX_NORM
1070
     7
1000
_EX_NORM
1070
    41
1040
30.0
1070
    42
1040
7.0
1070
    44
1040
10.0
1070
    73
1070
     0
1070
    74
1070
     0
1070
    75
1070
     1
1070
    76
1070
     0
1070
    77
1070
     1
1070
    78
1070
     0
1070
   140
1040
40.0
1070
   147
1040
3.5
1070
   173
1070
     1
1070
   176
1070
     3
1070
   177
1070
     3
1070
   178
1070
     2
1070
   271
1070
     0
1070
   279
1070
     2
1070
   280
1070
     0
1070
   287
1070
     5
1070
   340
1005
3DB
1002
}
  0
LINE
  5
46D
100
AcDbEntity
  8
寸法
  6
CONTINUOUS
 62
     3
100
AcDbLine
 10
730.0
 20
687.999998
 30
0.0
 11
730.0
 21
466.0
 31
0.0
  0
LINE
  5
46E
100
AcDbEntity
  8
寸法
  6
CONTINUOUS
 62
     3
100
AcDbLine
 10
805.0
 20
690.0
 30
0.0
 11
805.0
 21
466.0
 31
0.0
  0
TEXT
  5
46F
100
AcDbEntity
  8
寸法
  6
CONTINUOUS
 62
     2
100
AcDbText
 10
835.0
 20
479.5
 30
0.0
 40
40.0
  1
７５
 41
0.735
  7
EXCADSTD
 72
     5
 11
899.162
 21
479.5
 31
0.0
100
AcDbText
  0
TEXT
  5
470
100
AcDbEntity
  8
寸法
  6
CONTINUOUS
 62
     2
100
AcDbText
 10
900.0
 20
479.5
 30
0.0
 40
23.999998
  1
±１０
 41
0.7
  7
EXCADSTD
 72
     5
 11
959.999996
 21
479.5
 31
0.0
100
AcDbText
  0
LINE
  5
471
100
AcDbEntity
  8
寸法
  6
CONTINUOUS
 62
     3
100
AcDbLine
 10
700.0
 20
476.0
 30
0.0
 11
958.500004
 21
476.0
 31
0.0
  0
LINE
  5
472
100
AcDbEntity
  8
寸法
  6
CONTINUOUS
 62
     3
100
AcDbLine
 10
700.0
 20
471.0
 30
0.0
 11
730.0
 21
476.0
 31
0.0
  0
LINE
  5
473
100
AcDbEntity
  8
寸法
  6
CONTINUOUS
 62
     3
100
AcDbLine
 10
730.0
 20
476.0
 30
0.0
 11
700.0
 21
481.0
 31
0.0
  0
LINE
  5
474
100
AcDbEntity
  8
寸法
  6
CONTINUOUS
 62
     3
100
AcDbLine
 10
835.0
 20
481.0
 30
0.0
 11
805.0
 21
476.0
 31
0.0
  0
LINE
  5
475
100
AcDbEntity
  8
寸法
  6
CONTINUOUS
 62
     3
100
AcDbLine
 10
805.0
 20
476.0
 30
0.0
 11
835.0
 21
471.0
 31
0.0
  0
DIMENSION
  5
481
100
AcDbEntity
  8
寸法
  6
CONTINUOUS
 62
     3
100
AcDbDimension
  2
*D27
 10
872.5
 20
536.0
 30
0.0
 11
658.0
 21
559.5
 31
0.0
 70
   160
  3
STANDARD
100
AcDbAlignedDimension
 13
587.5
 23
705.0
 33
0.0
 14
872.5
 24
705.0
 34
0.0
100
AcDbRotatedDimension
1001
ACAD
1000
DSTYLE
1002
{
1070
     6
1000
_EX_NORM
1070
     7
1000
_EX_NORM
1070
    41
1040
30.0
1070
    42
1040
7.0
1070
    44
1040
10.0
1070
    73
1070
     0
1070
    74
1070
     0
1070
    75
1070
     0
1070
    76
1070
     0
1070
    77
1070
     1
1070
    78
1070
     0
1070
   140
1040
40.0
1070
   147
1040
3.5
1070
   173
1070
     1
1070
   176
1070
     3
1070
   177
1070
     3
1070
   178
1070
     2
1070
   271
1070
     0
1070
   279
1070
     2
1070
   280
1070
     0
1070
   287
1070
     5
1070
   340
1005
3DB
1002
}
  0
DIMENSION
  5
48D
100
AcDbEntity
  8
寸法
  6
CONTINUOUS
 62
     3
100
AcDbDimension
  2
*D28
 10
887.5
 20
536.0
 30
0.0
 11
952.5
 21
559.5
 31
0.0
 70
   160
  3
STANDARD
100
AcDbAlignedDimension
 13
872.5
 23
705.0
 33
0.0
 14
887.5
 24
705.0
 34
0.0
100
AcDbRotatedDimension
1001
ACAD
1000
DSTYLE
1002
{
1070
     6
1000
_EX_NORM
1070
     7
1000
_EX_NORM
1070
    41
1040
30.0
1070
    42
1040
7.0
1070
    44
1040
10.0
1070
    73
1070
     0
1070
    74
1070
     0
1070
    75
1070
     0
1070
    76
1070
     0
1070
    77
1070
     1
1070
    78
1070
     0
1070
   140
1040
40.0
1070
   147
1040
3.5
1070
   173
1070
     1
1070
   176
1070
     3
1070
   177
1070
     3
1070
   178
1070
     2
1070
   271
1070
     0
1070
   279
1070
     2
1070
   280
1070
     2
1070
   287
1070
     5
1070
   340
1005
3DB
1002
}
  0
DIMENSION
  5
499
100
AcDbEntity
  8
寸法
  6
CONTINUOUS
 62
     3
100
AcDbDimension
  2
*D29
 10
587.5
 20
536.0
 30
0.0
 11
507.5
 21
559.5
 31
0.0
 70
   160
  3
STANDARD
100
AcDbAlignedDimension
 13
572.5
 23
705.0
 33
0.0
 14
587.5
 24
705.0
 34
0.0
100
AcDbRotatedDimension
1001
ACAD
1000
DSTYLE
1002
{
1070
     6
1000
_EX_NORM
1070
     7
1000
_EX_NORM
1070
    41
1040
30.0
1070
    42
1040
7.0
1070
    44
1040
10.0
1070
    73
1070
     0
1070
    74
1070
     0
1070
    75
1070
     0
1070
    76
1070
     0
1070
    77
1070
     1
1070
    78
1070
     0
1070
   140
1040
40.0
1070
   147
1040
3.5
1070
   173
1070
     1
1070
   176
1070
     3
1070
   177
1070
     3
1070
   178
1070
     2
1070
   271
1070
     0
1070
   279
1070
     2
1070
   280
1070
     1
1070
   287
1070
     5
1070
   340
1005
3DB
1002
}
  0
TEXT
  5
49A
100
AcDbEntity
  8
寸法
  6
CONTINUOUS
 62
     2
100
AcDbText
 10
210.000001
 20
642.5
 30
0.0
 40
40.0
  1
ＶＰ･ＶＵ４０･５０
 41
0.62784
  7
EXCADSTD
 72
     5
 11
498.0
 21
642.5
 31
0.0
100
AcDbText
  0
TEXT
  5
49B
100
AcDbEntity
  8
寸法
  6
CONTINUOUS
 62
     2
100
AcDbText
 10
210.000001
 20
602.5
 30
0.0
 40
40.0
  1
４０～５０ミリ立上げ
 41
0.6888
  7
EXCADSTD
 72
     5
 11
538.0
 21
602.5
 31
0.0
100
AcDbText
  0
LEADER
  5
49C
100
AcDbEntity
  8
寸法
  6
CONTINUOUS
 62
     3
100
AcDbLeader
  3
STANDARD
 73
     3
 74
     1
 75
     0
 40
0.0
 76
     3
 10
714.0
 20
734.999998
 30
0.0
 10
543.0
 20
599.0
 30
0.0
 10
211.0
 20
599.0
 30
0.0
 77
     3
1001
ACAD
1000
DSTYLE
1002
{
1070
    41
1040
30.0
1070
     5
1000
_EX_NORM
1070
     6
1000
_EX_NORM
1070
     7
1000
_EX_NORM
1070
   341
1005
2D
1002
}
  0
TEXT
  5
49D
100
AcDbEntity
  8
寸法
  6
CONTINUOUS
 62
     2
100
AcDbText
 10
926.0
 20
610.5
 30
0.0
 40
40.0
  1
Ｒ１/２
 41
0.638
  7
EXCADSTD
 72
     5
 11
1042.0
 21
610.5
 31
0.0
100
AcDbText
  0
LEADER
  5
49E
100
AcDbEntity
  8
寸法
  6
CONTINUOUS
 62
     3
100
AcDbLeader
  3
STANDARD
 73
     3
 74
     1
 75
     0
 40
0.0
 76
     3
 10
815.5
 20
697.0
 30
0.0
 10
921.0
 20
607.0
 30
0.0
 10
1031.0
 20
607.0
 30
0.0
 77
     3
1001
ACAD
1000
DSTYLE
1002
{
1070
    41
1040
30.0
1070
     5
1000
_EX_NORM
1070
     6
1000
_EX_NORM
1070
     7
1000
_EX_NORM
1070
   341
1005
2D
1002
}
  0
LINE
  5
49F
100
AcDbEntity
  8
寸法
  6
CONTINUOUS
 62
     3
100
AcDbLine
 10
1642.0
 20
698.0
 30
0.0
 11
1642.0
 21
586.0
 31
0.0
  0
LINE
  5
4A0
100
AcDbEntity
  8
寸法
  6
CONTINUOUS
 62
     3
100
AcDbLine
 10
1657.0
 20
687.999998
 30
0.0
 11
1657.0
 21
586.0
 31
0.0
  0
TEXT
  5
4A1
100
AcDbEntity
  8
寸法
  6
CONTINUOUS
 62
     2
100
AcDbText
 10
1492.0
 20
599.5
 30
0.0
 40
40.0
  1
１５
 41
0.735
  7
EXCADSTD
 72
     5
 11
1556.162
 21
599.5
 31
0.0
100
AcDbText
  0
TEXT
  5
4A2
100
AcDbEntity
  8
寸法
  6
CONTINUOUS
 62
     2
100
AcDbText
 10
1557.0
 20
599.5
 30
0.0
 40
23.999998
  1
±１０
 41
0.7
  7
EXCADSTD
 72
     5
 11
1616.999996
 21
599.5
 31
0.0
100
AcDbText
  0
LINE
  5
4A3
100
AcDbEntity
  8
寸法
  6
CONTINUOUS
 62
     3
100
AcDbLine
 10
1488.499996
 20
596.0
 30
0.0
 11
1687.0
 21
596.0
 31
0.0
  0
LINE
  5
4A4
100
AcDbEntity
  8
寸法
  6
CONTINUOUS
 62
     3
100
AcDbLine
 10
1612.0
 20
591.0
 30
0.0
 11
1642.0
 21
596.0
 31
0.0
  0
LINE
  5
4A5
100
AcDbEntity
  8
寸法
  6
CONTINUOUS
 62
     3
100
AcDbLine
 10
1642.0
 20
596.0
 30
0.0
 11
1612.0
 21
601.0
 31
0.0
  0
LINE
  5
4A6
100
AcDbEntity
  8
寸法
  6
CONTINUOUS
 62
     3
100
AcDbLine
 10
1687.0
 20
601.0
 30
0.0
 11
1657.0
 21
596.0
 31
0.0
  0
LINE
  5
4A7
100
AcDbEntity
  8
寸法
  6
CONTINUOUS
 62
     3
100
AcDbLine
 10
1657.0
 20
596.0
 30
0.0
 11
1687.0
 21
591.0
 31
0.0
  0
LINE
  5
4A8
100
AcDbEntity
  8
寸法
  6
CONTINUOUS
 62
     3
100
AcDbLine
 10
1757.0
 20
705.0
 30
0.0
 11
1850.0
 21
705.0
 31
0.0
  0
LINE
  5
4A9
100
AcDbEntity
  8
寸法
  6
CONTINUOUS
 62
     3
100
AcDbLine
 10
1757.0
 20
1745.0
 30
0.0
 11
1850.0
 21
1745.0
 31
0.0
  0
TEXT
  5
4AA
100
AcDbEntity
  8
寸法
  6
CONTINUOUS
 62
     2
100
AcDbText
 10
1836.5
 20
1144.0
 30
0.0
 40
40.0
  1
１０４０
 50
90.0
 41
0.6825
  7
EXCADSTD
 72
     5
 11
1836.5
 21
1274.0
 31
0.0
100
AcDbText
  0
TEXT
  5
4AB
100
AcDbEntity
  8
寸法
  6
CONTINUOUS
 62
     2
100
AcDbText
 10
1836.5
 20
1269.0
 30
0.0
 40
23.999998
  1
±３
 50
90.0
 41
0.735
  7
EXCADSTD
 72
     5
 11
1836.5
 21
1307.497198
 31
0.0
100
AcDbText
  0
LINE
  5
4AC
100
AcDbEntity
  8
寸法
  6
CONTINUOUS
 62
     3
100
AcDbLine
 10
1840.0
 20
705.0
 30
0.0
 11
1840.0
 21
1745.0
 31
0.0
  0
LINE
  5
4AD
100
AcDbEntity
  8
寸法
  6
CONTINUOUS
 62
     3
100
AcDbLine
 10
1835.0
 20
735.0
 30
0.0
 11
1840.0
 21
705.0
 31
0.0
  0
LINE
  5
4AE
100
AcDbEntity
  8
寸法
  6
CONTINUOUS
 62
     3
100
AcDbLine
 10
1840.0
 20
705.0
 30
0.0
 11
1845.0
 21
735.0
 31
0.0
  0
LINE
  5
4AF
100
AcDbEntity
  8
寸法
  6
CONTINUOUS
 62
     3
100
AcDbLine
 10
1845.0
 20
1715.0
 30
0.0
 11
1840.0
 21
1745.0
 31
0.0
  0
LINE
  5
4B0
100
AcDbEntity
  8
寸法
  6
CONTINUOUS
 62
     3
100
AcDbLine
 10
1840.0
 20
1745.0
 30
0.0
 11
1835.0
 21
1715.0
 31
0.0
  0
DIMENSION
  5
4BC
100
AcDbEntity
  8
寸法
  6
CONTINUOUS
 62
     3
100
AcDbDimension
  2
*D30
 10
1840.0
 20
1790.0
 30
0.0
 11
1816.5
 21
1885.0
 31
0.0
 70
   160
  1
45以上
  3
STANDARD
100
AcDbAlignedDimension
 13
1750.0
 23
1745.0
 33
0.0
 14
1750.0
 24
1790.0
 34
0.0
 50
90.0
100
AcDbRotatedDimension
1001
ACAD
1000
DSTYLE
1002
{
1070
     6
1000
_EX_NORM
1070
     7
1000
_EX_NORM
1070
    41
1040
30.0
1070
    42
1040
7.0
1070
    44
1040
10.0
1070
    73
1070
     0
1070
    74
1070
     0
1070
    75
1070
     0
1070
    76
1070
     0
1070
    77
1070
     1
1070
    78
1070
     0
1070
   140
1040
40.0
1070
   147
1040
3.5
1070
   173
1070
     1
1070
   176
1070
     3
1070
   177
1070
     3
1070
   178
1070
     2
1070
   271
1070
     0
1070
   279
1070
     2
1070
   280
1070
     2
1070
   287
1070
     5
1070
   340
1005
3DB
1002
}
  0
DIMENSION
  5
4C7
100
AcDbEntity
  8
寸法
  6
CONTINUOUS
 62
     3
100
AcDbDimension
  2
*D31
 10
505.5
 20
2535.0
 30
0.0
 11
482.0
 21
2490.0
 31
0.0
 70
   160
  3
STANDARD
100
AcDbAlignedDimension
 13
552.5
 23
2445.0
 33
0.0
 14
552.5
 24
2535.0
 34
0.0
 50
90.0
100
AcDbRotatedDimension
1001
ACAD
1000
DSTYLE
1002
{
1070
     6
1000
_EX_NORM
1070
     7
1000
_EX_NORM
1070
    41
1040
30.0
1070
    42
1040
7.0
1070
    44
1040
10.0
1070
    73
1070
     0
1070
    74
1070
     0
1070
    75
1070
     1
1070
    76
1070
     0
1070
    77
1070
     1
1070
    78
1070
     0
1070
   140
1040
40.0
1070
   147
1040
3.5
1070
   173
1070
     1
1070
   176
1070
     3
1070
   177
1070
     3
1070
   178
1070
     2
1070
   271
1070
     0
1070
   279
1070
     2
1070
   280
1070
     0
1070
   287
1070
     5
1070
   340
1005
3DB
1002
}
  0
DIMENSION
  5
4D3
100
AcDbEntity
  8
寸法
  6
CONTINUOUS
 62
     3
100
AcDbDimension
  2
*D32
 10
1682.0
 20
476.0
 30
0.0
 11
1502.0
 21
499.5
 31
0.0
 70
   160
  1
40（壁固定）
  3
STANDARD
100
AcDbAlignedDimension
 13
1642.0
 23
705.0
 33
0.0
 14
1682.0
 24
890.3
 34
0.0
100
AcDbRotatedDimension
1001
ACAD
1000
DSTYLE
1002
{
1070
     6
1000
_EX_NORM
1070
     7
1000
_EX_NORM
1070
    41
1040
30.0
1070
    42
1040
7.0
1070
    44
1040
10.0
1070
    73
1070
     0
1070
    74
1070
     0
1070
    75
1070
     0
1070
    76
1070
     0
1070
    77
1070
     1
1070
    78
1070
     0
1070
   140
1040
40.0
1070
   147
1040
3.5
1070
   173
1070
     1
1070
   176
1070
     3
1070
   177
1070
     3
1070
   178
1070
     2
1070
   271
1070
     0
1070
   279
1070
     2
1070
   280
1070
     1
1070
   287
1070
     5
1070
   340
1005
3DB
1002
}
  0
ENDSEC
  0
SECTION
  2
OBJECTS
  0
DICTIONARY
  5
19
100
AcDbDictionary
  3
ACAD_GROUP
350
1A
  3
ACAD_MLINESTYLE
350
1B
  0
DICTIONARY
  5
1A
102
{ACAD_REACTORS
330
19
102
}
100
AcDbDictionary
  0
DICTIONARY
  5
1B
102
{ACAD_REACTORS
330
19
102
}
100
AcDbDictionary
  3
STANDARD
350
1C
  0
MLINESTYLE
  5
1C
102
{ACAD_REACTORS
330
1B
102
}
100
AcDbMlineStyle
  2
Standard
 70
     0
  3

 62
     0
 51
90.0
 52
90.0
 71
     2
 49
0.5
 62
   256
  6
ByLayer
 49
-0.5
 62
   256
  6
ByLayer
  0
ENDSEC
  0
EOF
