  0
SECTION
  2
HEADER
  9
$ACADVER
  1
AC1014
  9
$ACADMAINTVER
 70
     9
  9
$DWGCODEPAGE
  3
ANSI_932
  9
$INSBASE
 10
0.0
 20
0.0
 30
0.0
  9
$EXTMIN
 10
0.7000000000000085
 20
12.5
 30
0.0
  9
$EXTMAX
 10
200.0000000000001
 20
287.5
 30
0.0
  9
$LIMMIN
 10
0.0
 20
0.0
  9
$LIMMAX
 10
210.0
 20
297.0
  9
$ORTHOMODE
 70
     0
  9
$REGENMODE
 70
     1
  9
$FILLMODE
 70
     1
  9
$QTEXTMODE
 70
     0
  9
$MIRRTEXT
 70
     1
  9
$DRAGMODE
 70
     2
  9
$LTSCALE
 40
1.0
  9
$OSMODE
 70
    37
  9
$ATTMODE
 70
     1
  9
$TEXTSIZE
 40
2.5
  9
$TRACEWID
 40
1.0
  9
$TEXTSTYLE
  7
STANDARD
  9
$CLAYER
  8
化粧台
  9
$CELTYPE
  6
BYLAYER
  9
$CECOLOR
 62
   256
  9
$CELTSCALE
 40
1.0
  9
$DELOBJ
 70
     1
  9
$DISPSILH
 70
     0
  9
$DIMSCALE
 40
1.0
  9
$DIMASZ
 40
2.5
  9
$DIMEXO
 40
0.625
  9
$DIMDLI
 40
3.75
  9
$DIMRND
 40
0.0
  9
$DIMDLE
 40
0.0
  9
$DIMEXE
 40
1.25
  9
$DIMTP
 40
0.0
  9
$DIMTM
 40
0.0
  9
$DIMTXT
 40
2.5
  9
$DIMCEN
 40
2.5
  9
$DIMTSZ
 40
0.0
  9
$DIMTOL
 70
     0
  9
$DIMLIM
 70
     0
  9
$DIMTIH
 70
     0
  9
$DIMTOH
 70
     0
  9
$DIMSE1
 70
     0
  9
$DIMSE2
 70
     0
  9
$DIMTAD
 70
     1
  9
$DIMZIN
 70
     8
  9
$DIMBLK
  1

  9
$DIMASO
 70
     1
  9
$DIMSHO
 70
     1
  9
$DIMPOST
  1

  9
$DIMAPOST
  1

  9
$DIMALT
 70
     0
  9
$DIMALTD
 70
     3
  9
$DIMALTF
 40
0.03937007874016
  9
$DIMLFAC
 40
1.0
  9
$DIMTOFL
 70
     1
  9
$DIMTVP
 40
0.0
  9
$DIMTIX
 70
     0
  9
$DIMSOXD
 70
     0
  9
$DIMSAH
 70
     0
  9
$DIMBLK1
  1

  9
$DIMBLK2
  1

  9
$DIMSTYLE
  2
ISO-25
  9
$DIMCLRD
 70
     0
  9
$DIMCLRE
 70
     0
  9
$DIMCLRT
 70
     0
  9
$DIMTFAC
 40
1.0
  9
$DIMGAP
 40
0.625
  9
$DIMJUST
 70
     0
  9
$DIMSD1
 70
     0
  9
$DIMSD2
 70
     0
  9
$DIMTOLJ
 70
     0
  9
$DIMTZIN
 70
     8
  9
$DIMALTZ
 70
     0
  9
$DIMALTTZ
 70
     0
  9
$DIMFIT
 70
     3
  9
$DIMUPT
 70
     0
  9
$DIMUNIT
 70
     2
  9
$DIMDEC
 70
     2
  9
$DIMTDEC
 70
     2
  9
$DIMALTU
 70
     2
  9
$DIMALTTD
 70
     3
  9
$DIMTXSTY
  7
STANDARD
  9
$DIMAUNIT
 70
     0
  9
$LUNITS
 70
     2
  9
$LUPREC
 70
     4
  9
$SKETCHINC
 40
1.0
  9
$FILLETRAD
 40
10.0
  9
$AUNITS
 70
     0
  9
$AUPREC
 70
     0
  9
$MENU
  1
.
  9
$ELEVATION
 40
0.0
  9
$PELEVATION
 40
0.0
  9
$THICKNESS
 40
0.0
  9
$LIMCHECK
 70
     0
  9
$CHAMFERA
 40
10.0
  9
$CHAMFERB
 40
10.0
  9
$CHAMFERC
 40
20.0
  9
$CHAMFERD
 40
0.0
  9
$SKPOLY
 70
     0
  9
$TDCREATE
 40
2457329.547962951
  9
$TDUPDATE
 40
2457329.547963136
  9
$TDINDWG
 40
0.0000000116
  9
$TDUSRTIMER
 40
0.0000000116
  9
$USRTIMER
 70
     1
  9
$ANGBASE
 50
0.0
  9
$ANGDIR
 70
     0
  9
$PDMODE
 70
     0
  9
$PDSIZE
 40
0.0
  9
$PLINEWID
 40
0.0
  9
$COORDS
 70
     1
  9
$SPLFRAME
 70
     0
  9
$SPLINETYPE
 70
     6
  9
$SPLINESEGS
 70
     8
  9
$ATTDIA
 70
     0
  9
$ATTREQ
 70
     1
  9
$HANDLING
 70
     1
  9
$HANDSEED
  5
50E
  9
$SURFTAB1
 70
     6
  9
$SURFTAB2
 70
     6
  9
$SURFTYPE
 70
     6
  9
$SURFU
 70
     6
  9
$SURFV
 70
     6
  9
$UCSNAME
  2

  9
$UCSORG
 10
0.0
 20
0.0
 30
0.0
  9
$UCSXDIR
 10
1.0
 20
0.0
 30
0.0
  9
$UCSYDIR
 10
0.0
 20
1.0
 30
0.0
  9
$PUCSNAME
  2

  9
$PUCSORG
 10
0.0
 20
0.0
 30
0.0
  9
$PUCSXDIR
 10
1.0
 20
0.0
 30
0.0
  9
$PUCSYDIR
 10
0.0
 20
1.0
 30
0.0
  9
$USERI1
 70
     0
  9
$USERI2
 70
     0
  9
$USERI3
 70
     0
  9
$USERI4
 70
     0
  9
$USERI5
 70
     0
  9
$USERR1
 40
0.0
  9
$USERR2
 40
0.0
  9
$USERR3
 40
0.0
  9
$USERR4
 40
0.0
  9
$USERR5
 40
0.0
  9
$WORLDVIEW
 70
     1
  9
$SHADEDGE
 70
     3
  9
$SHADEDIF
 70
    70
  9
$TILEMODE
 70
     1
  9
$MAXACTVP
 70
    64
  9
$PINSBASE
 10
0.0
 20
0.0
 30
0.0
  9
$PLIMCHECK
 70
     0
  9
$PEXTMIN
 10
1.000000000000000E+20
 20
1.000000000000000E+20
 30
1.000000000000000E+20
  9
$PEXTMAX
 10
-1.000000000000000E+20
 20
-1.000000000000000E+20
 30
-1.000000000000000E+20
  9
$PLIMMIN
 10
0.0
 20
0.0
  9
$PLIMMAX
 10
420.0
 20
297.0
  9
$UNITMODE
 70
     0
  9
$VISRETAIN
 70
     1
  9
$PLINEGEN
 70
     0
  9
$PSLTSCALE
 70
     1
  9
$TREEDEPTH
 70
  3020
  9
$PICKSTYLE
 70
     1
  9
$CMLSTYLE
  2
STANDARD
  9
$CMLJUST
 70
     0
  9
$CMLSCALE
 40
20.0
  9
$PROXYGRAPHICS
 70
     1
  9
$MEASUREMENT
 70
     1
  0
ENDSEC
  0
SECTION
  2
CLASSES
  0
CLASS
  1
ACDBDICTIONARYWDFLT
  2
AcDbDictionaryWithDefault
  3
ObjectDBX Classes
 90
        0
280
     0
281
     0
  0
CLASS
  1
VISUALSTYLE
  2
AcDbVisualStyle
  3
ObjectDBX Classes
 90
     4095
280
     0
281
     0
  0
CLASS
  1
MATERIAL
  2
AcDbMaterial
  3
ObjectDBX Classes
 90
     1153
280
     0
281
     0
  0
CLASS
  1
SUN
  2
AcDbSun
  3
SCENEOE
 90
     1024
280
     0
281
     0
  0
CLASS
  1
DICTIONARYVAR
  2
AcDbDictionaryVar
  3
ObjectDBX Classes
 90
        0
280
     0
281
     0
  0
CLASS
  1
XRECORD
  2
AcDbXrecord
  3
AutoCAD 2000
 90
        0
280
     0
281
     0
  0
CLASS
  1
LWPOLYLINE
  2
AcDbPolyline
  3
AutoCAD 2000
 90
        0
280
     0
281
     1
  0
CLASS
  1
HATCH
  2
AcDbHatch
  3
AutoCAD 2000
 90
        0
280
     0
281
     1
  0
CLASS
  1
ACDBPLACEHOLDER
  2
AcDbPlaceHolder
  3
ObjectDBX Classes
 90
        0
280
     0
281
     0
  0
CLASS
  1
LAYOUT
  2
AcDbLayout
  3
ObjectDBX Classes
 90
        0
280
     0
281
     0
  0
ENDSEC
  0
SECTION
  2
TABLES
  0
TABLE
  2
VPORT
  5
8
330
0
100
AcDbSymbolTable
 70
     1
  0
VPORT
  5
29
330
8
100
AcDbSymbolTableRecord
100
AcDbViewportTableRecord
  2
*ACTIVE
 70
     0
 10
0.0
 20
0.0
 11
1.0
 21
1.0
 12
1505.250000000001
 22
2250.0
 13
0.0
 23
0.0
 14
10.0
 24
10.0
 15
10.0
 25
10.0
 16
0.0
 26
0.0
 36
1.0
 17
0.0
 27
0.0
 37
0.0
 40
4125.0
 41
0.7247272727272729
 42
50.0
 43
0.0
 44
0.0
 50
0.0
 51
0.0
 71
     0
 72
  1000
 73
     1
 74
     3
 75
     0
 76
     0
 77
     0
 78
     0
  0
ENDTAB
  0
TABLE
  2
LTYPE
  5
5
330
0
100
AcDbSymbolTable
 70
     7
  0
LTYPE
  5
14
330
5
100
AcDbSymbolTableRecord
100
AcDbLinetypeTableRecord
  2
BYBLOCK
 70
     0
  3

 72
    65
 73
     0
 40
0.0
  0
LTYPE
  5
15
330
5
100
AcDbSymbolTableRecord
100
AcDbLinetypeTableRecord
  2
BYLAYER
 70
     0
  3

 72
    65
 73
     0
 40
0.0
  0
LTYPE
  5
16
330
5
100
AcDbSymbolTableRecord
100
AcDbLinetypeTableRecord
  2
CONTINUOUS
 70
     0
  3
Solid line
 72
    65
 73
     0
 40
0.0
  0
LTYPE
  5
40
330
5
100
AcDbSymbolTableRecord
100
AcDbLinetypeTableRecord
  2
EXLTYPE1
 70
     0
  3
破線
 72
    65
 73
     2
 40
3.0
 49
2.0
 74
     0
 49
-1.0
 74
     0
  0
LTYPE
  5
41
330
5
100
AcDbSymbolTableRecord
100
AcDbLinetypeTableRecord
  2
EXLTYPE2
 70
     0
  3
点線
 72
    65
 73
     2
 40
2.0
 49
1.0
 74
     0
 49
-1.0
 74
     0
  0
LTYPE
  5
42
330
5
100
AcDbSymbolTableRecord
100
AcDbLinetypeTableRecord
  2
EXLTYPE3
 70
     0
  3
一点鎖線
 72
    65
 73
     4
 40
10.0
 49
7.0
 74
     0
 49
-1.0
 74
     0
 49
1.0
 74
     0
 49
-1.0
 74
     0
  0
LTYPE
  5
43
330
5
100
AcDbSymbolTableRecord
100
AcDbLinetypeTableRecord
  2
EXLTYPE4
 70
     0
  3
二点鎖線
 72
    65
 73
     6
 40
12.0
 49
7.0
 74
     0
 49
-1.0
 74
     0
 49
1.0
 74
     0
 49
-1.0
 74
     0
 49
1.0
 74
     0
 49
-1.0
 74
     0
  0
LTYPE
  5
44
330
5
100
AcDbSymbolTableRecord
100
AcDbLinetypeTableRecord
  2
EXLTYPE5
 70
     0
  3
三点鎖線
 72
    65
 73
     8
 40
37.0
 49
30.0
 74
     0
 49
-1.0
 74
     0
 49
1.0
 74
     0
 49
-1.0
 74
     0
 49
1.0
 74
     0
 49
-1.0
 74
     0
 49
1.0
 74
     0
 49
-1.0
 74
     0
  0
LTYPE
  5
45
330
5
100
AcDbSymbolTableRecord
100
AcDbLinetypeTableRecord
  2
EXLTYPE6
 70
     0
  3
四点鎖線
 72
    65
 73
    10
 40
39.0
 49
30.0
 74
     0
 49
-1.0
 74
     0
 49
1.0
 74
     0
 49
-1.0
 74
     0
 49
1.0
 74
     0
 49
-1.0
 74
     0
 49
1.0
 74
     0
 49
-1.0
 74
     0
 49
1.0
 74
     0
 49
-1.0
 74
     0
  0
ENDTAB
  0
TABLE
  2
LAYER
  5
2
330
0
100
AcDbSymbolTable
 70
     7
  0
LAYER
  5
10
330
2
100
AcDbSymbolTableRecord
100
AcDbLayerTableRecord
  2
0
 70
     0
 62
     7
  6
CONTINUOUS
  0
LAYER
  5
48
330
2
100
AcDbSymbolTableRecord
100
AcDbLayerTableRecord
  2
枠_表
 70
     0
 62
     7
  6
CONTINUOUS
  0
LAYER
  5
49
330
2
100
AcDbSymbolTableRecord
100
AcDbLayerTableRecord
  2
化粧台
 70
     0
 62
     7
  6
CONTINUOUS
  0
LAYER
  5
4A
330
2
100
AcDbSymbolTableRecord
100
AcDbLayerTableRecord
  2
鏡台
 70
     0
 62
     7
  6
CONTINUOUS
  0
LAYER
  5
4B
330
2
100
AcDbSymbolTableRecord
100
AcDbLayerTableRecord
  2
付属金具
 70
     0
 62
     7
  6
CONTINUOUS
  0
LAYER
  5
4C
330
2
100
AcDbSymbolTableRecord
100
AcDbLayerTableRecord
  2
寸法
 70
     0
 62
     7
  6
CONTINUOUS
  0
LAYER
  5
470
330
2
100
AcDbSymbolTableRecord
100
AcDbLayerTableRecord
  2
DEFPOINTS
 70
     0
 62
     7
  6
CONTINUOUS
  0
ENDTAB
  0
TABLE
  2
STYLE
  5
3
330
0
100
AcDbSymbolTable
 70
     5
  0
STYLE
  5
11
330
3
100
AcDbSymbolTableRecord
100
AcDbTextStyleTableRecord
  2
STANDARD
 70
     0
 40
0.0
 41
1.0
 50
0.0
 71
     0
 42
2.5
  3
monotxt
  4
extfont
  0
STYLE
  5
46
330
3
100
AcDbSymbolTableRecord
100
AcDbTextStyleTableRecord
  2
EXCADSTD
 70
     0
 40
0.0
 41
1.0
 50
0.0
 71
     0
 42
0.2
  3
monotxt
  4
extfont
  0
STYLE
  5
47
330
3
100
AcDbSymbolTableRecord
100
AcDbTextStyleTableRecord
  2
EXCADVERT
 70
     4
 40
0.0
 41
1.0
 50
0.0
 71
     0
 42
0.286885
  3
monotxt
  4
extfont
  0
STYLE
  5
D3
330
3
100
AcDbSymbolTableRecord
100
AcDbTextStyleTableRecord
  2
EXCADTTF1
 70
     0
 40
0.0
 41
1.0
 50
0.0
 71
     0
 42
0.2
  3
MSGOTHIC.TTC
  4

1001
ACAD
1000
MS Gothic
1071
    32817
  0
STYLE
  5
46E
330
3
100
AcDbSymbolTableRecord
100
AcDbTextStyleTableRecord
  2
EXCADDIM1
 70
     0
 40
0.0
 41
0.84
 50
0.0
 71
     0
 42
0.2
  3
monotxt
  4
extfont
  0
ENDTAB
  0
TABLE
  2
VIEW
  5
6
330
0
100
AcDbSymbolTable
 70
     0
  0
ENDTAB
  0
TABLE
  2
UCS
  5
7
330
0
100
AcDbSymbolTable
 70
     0
  0
ENDTAB
  0
TABLE
  2
APPID
  5
9
330
0
100
AcDbSymbolTable
 70
     1
  0
APPID
  5
12
330
9
100
AcDbSymbolTableRecord
100
AcDbRegAppTableRecord
  2
ACAD
 70
     0
  0
ENDTAB
  0
TABLE
  2
DIMSTYLE
  5
A
330
0
100
AcDbSymbolTable
 70
     1
  0
DIMSTYLE
105
27
102
{ACAD_REACTORS
330
46F
330
47D
330
48A
330
49F
330
4AB
330
4B7
330
4C7
330
4D3
102
}
330
A
100
AcDbSymbolTableRecord
100
AcDbDimStyleTableRecord
  2
ISO-25
 70
     0
  3

  4

  5

  6

  7

 40
1.0
 41
2.5
 42
0.625
 43
3.75
 44
1.25
 45
0.0
 46
0.0
 47
0.0
 48
0.0
140
2.5
141
2.5
142
0.0
143
0.03937007874016
144
1.0
145
0.0
146
1.0
147
0.625
 71
     0
 72
     0
 73
     0
 74
     0
 75
     0
 76
     0
 77
     1
 78
     8
170
     0
171
     3
172
     1
173
     0
174
     0
175
     0
176
     0
177
     0
178
     0
270
     2
271
     2
272
     2
273
     2
274
     3
340
11
275
     0
280
     0
281
     0
282
     0
283
     0
284
     8
285
     0
286
     0
287
     5
288
     0
  0
ENDTAB
  0
TABLE
  2
BLOCK_RECORD
  5
1
330
0
100
AcDbSymbolTable
 70
    23
  0
BLOCK_RECORD
  5
1F
330
1
100
AcDbSymbolTableRecord
100
AcDbBlockTableRecord
  2
*MODEL_SPACE
  0
BLOCK_RECORD
  5
1B
330
1
100
AcDbSymbolTableRecord
100
AcDbBlockTableRecord
  2
*PAPER_SPACE
  0
BLOCK_RECORD
  5
4D
330
1
100
AcDbSymbolTableRecord
100
AcDbBlockTableRecord
  2
EX_NORM
  0
BLOCK_RECORD
  5
50
330
1
100
AcDbSymbolTableRecord
100
AcDbBlockTableRecord
  2
EX_BNORM
  0
BLOCK_RECORD
  5
53
330
1
100
AcDbSymbolTableRecord
100
AcDbBlockTableRecord
  2
EX_BCIR
  0
BLOCK_RECORD
  5
56
330
1
100
AcDbSymbolTableRecord
100
AcDbBlockTableRecord
  2
EX_RCIVIL
  0
BLOCK_RECORD
  5
59
330
1
100
AcDbSymbolTableRecord
100
AcDbBlockTableRecord
  2
EX_SLANT
  0
BLOCK_RECORD
  5
5C
330
1
100
AcDbSymbolTableRecord
100
AcDbBlockTableRecord
  2
EX_NONE
  0
BLOCK_RECORD
  5
5F
330
1
100
AcDbSymbolTableRecord
100
AcDbBlockTableRecord
  2
EX_CIVIL
  0
BLOCK_RECORD
  5
62
330
1
100
AcDbSymbolTableRecord
100
AcDbBlockTableRecord
  2
EX_WCIR
  0
BLOCK_RECORD
  5
65
330
1
100
AcDbSymbolTableRecord
100
AcDbBlockTableRecord
  2
EX_WCIR2
  0
BLOCK_RECORD
  5
68
330
1
100
AcDbSymbolTableRecord
100
AcDbBlockTableRecord
  2
EX_WNORM
  0
BLOCK_RECORD
  5
6B
330
1
100
AcDbSymbolTableRecord
100
AcDbBlockTableRecord
  2
EX_NNORM
  0
BLOCK_RECORD
  5
6E
330
1
100
AcDbSymbolTableRecord
100
AcDbBlockTableRecord
  2
EX_BBOX
  0
BLOCK_RECORD
  5
71
330
1
100
AcDbSymbolTableRecord
100
AcDbBlockTableRecord
  2
EX_WBOX
  0
BLOCK_RECORD
  5
74
330
1
100
AcDbSymbolTableRecord
100
AcDbBlockTableRecord
  2
EX_INTEGRAL
  0
BLOCK_RECORD
  5
471
330
1
100
AcDbSymbolTableRecord
100
AcDbBlockTableRecord
  2
*D15
  0
BLOCK_RECORD
  5
47E
330
1
100
AcDbSymbolTableRecord
100
AcDbBlockTableRecord
  2
*D16
  0
BLOCK_RECORD
  5
48B
330
1
100
AcDbSymbolTableRecord
100
AcDbBlockTableRecord
  2
*D17
  0
BLOCK_RECORD
  5
4A0
330
1
100
AcDbSymbolTableRecord
100
AcDbBlockTableRecord
  2
*D18
  0
BLOCK_RECORD
  5
4AC
330
1
100
AcDbSymbolTableRecord
100
AcDbBlockTableRecord
  2
*D19
  0
BLOCK_RECORD
  5
4B8
330
1
100
AcDbSymbolTableRecord
100
AcDbBlockTableRecord
  2
*D20
  0
BLOCK_RECORD
  5
4C8
330
1
100
AcDbSymbolTableRecord
100
AcDbBlockTableRecord
  2
*D21
  0
BLOCK_RECORD
  5
4D4
330
1
100
AcDbSymbolTableRecord
100
AcDbBlockTableRecord
  2
*D22
  0
ENDTAB
  0
ENDSEC
  0
SECTION
  2
BLOCKS
  0
BLOCK
  5
20
330
1F
100
AcDbEntity
  8
0
100
AcDbBlockBegin
  2
*MODEL_SPACE
 70
     0
 10
0.0
 20
0.0
 30
0.0
  3
*MODEL_SPACE
  1

  0
ENDBLK
  5
21
330
1F
100
AcDbEntity
  8
0
100
AcDbBlockEnd
  0
BLOCK
  5
1C
330
1B
100
AcDbEntity
 67
     1
  8
0
100
AcDbBlockBegin
  2
*PAPER_SPACE
 70
     0
 10
0.0
 20
0.0
 30
0.0
  3
*PAPER_SPACE
  1

  0
ENDBLK
  5
1D
330
1B
100
AcDbEntity
 67
     1
  8
0
100
AcDbBlockEnd
  0
BLOCK
  5
4E
330
4D
100
AcDbEntity
  8
0
100
AcDbBlockBegin
  2
EX_NORM
 70
     0
 10
0.0
 20
0.0
 30
0.0
  3
EX_NORM
  1

  0
LINE
  5
77
330
4D
100
AcDbEntity
  8
0
  6
CONTINUOUS
 62
     0
100
AcDbLine
 10
0.0
 20
0.0
 30
0.0
 11
-1.0
 21
0.0
 31
0.0
  0
LINE
  5
78
330
4D
100
AcDbEntity
  8
0
  6
CONTINUOUS
 62
     0
100
AcDbLine
 10
0.0
 20
0.0
 30
0.0
 11
-1.0
 21
0.166666667
 31
0.0
  0
LINE
  5
79
330
4D
100
AcDbEntity
  8
0
  6
CONTINUOUS
 62
     0
100
AcDbLine
 10
0.0
 20
0.0
 30
0.0
 11
-1.0
 21
-0.166666667
 31
0.0
  0
ENDBLK
  5
4F
330
4D
100
AcDbEntity
  8
0
100
AcDbBlockEnd
  0
BLOCK
  5
51
330
50
100
AcDbEntity
  8
0
100
AcDbBlockBegin
  2
EX_BNORM
 70
     0
 10
0.0
 20
0.0
 30
0.0
  3
EX_BNORM
  1

  0
LINE
  5
7A
330
50
100
AcDbEntity
  8
0
  6
CONTINUOUS
 62
     0
100
AcDbLine
 10
0.0
 20
0.0
 30
0.0
 11
-1.0
 21
0.0
 31
0.0
  0
LINE
  5
7B
330
50
100
AcDbEntity
  8
0
  6
CONTINUOUS
 62
     0
100
AcDbLine
 10
0.0
 20
0.0
 30
0.0
 11
-1.0
 21
0.166666667
 31
0.0
  0
LINE
  5
7C
330
50
100
AcDbEntity
  8
0
  6
CONTINUOUS
 62
     0
100
AcDbLine
 10
0.0
 20
0.0
 30
0.0
 11
-1.0
 21
-0.166666667
 31
0.0
  0
LINE
  5
7D
330
50
100
AcDbEntity
  8
0
  6
CONTINUOUS
 62
     0
100
AcDbLine
 10
0.0
 20
0.0
 30
0.0
 11
-1.0
 21
0.083333333
 31
0.0
  0
LINE
  5
7E
330
50
100
AcDbEntity
  8
0
  6
CONTINUOUS
 62
     0
100
AcDbLine
 10
0.0
 20
0.0
 30
0.0
 11
-1.0
 21
-0.083333333
 31
0.0
  0
LINE
  5
7F
330
50
100
AcDbEntity
  8
0
  6
CONTINUOUS
 62
     0
100
AcDbLine
 10
-1.0
 20
0.166666667
 30
0.0
 11
-1.0
 21
-0.166666667
 31
0.0
  0
ENDBLK
  5
52
330
50
100
AcDbEntity
  8
0
100
AcDbBlockEnd
  0
BLOCK
  5
54
330
53
100
AcDbEntity
  8
0
100
AcDbBlockBegin
  2
EX_BCIR
 70
     0
 10
0.0
 20
0.0
 30
0.0
  3
EX_BCIR
  1

  0
LINE
  5
80
330
53
100
AcDbEntity
  8
0
  6
CONTINUOUS
 62
     0
100
AcDbLine
 10
0.0
 20
0.0
 30
0.0
 11
-1.0
 21
0.0
 31
0.0
  0
CIRCLE
  5
81
330
53
100
AcDbEntity
  8
0
  6
CONTINUOUS
 62
     0
100
AcDbCircle
 10
0.0
 20
0.0
 30
0.0
 40
0.5
  0
CIRCLE
  5
82
330
53
100
AcDbEntity
  8
0
  6
CONTINUOUS
 62
     0
100
AcDbCircle
 10
0.0
 20
0.0
 30
0.0
 40
0.25
  0
ENDBLK
  5
55
330
53
100
AcDbEntity
  8
0
100
AcDbBlockEnd
  0
BLOCK
  5
57
330
56
100
AcDbEntity
  8
0
100
AcDbBlockBegin
  2
EX_RCIVIL
 70
     0
 10
0.0
 20
0.0
 30
0.0
  3
EX_RCIVIL
  1

  0
LINE
  5
83
330
56
100
AcDbEntity
  8
0
  6
CONTINUOUS
 62
     0
100
AcDbLine
 10
0.0
 20
0.0
 30
0.0
 11
-1.0
 21
0.0
 31
0.0
  0
LINE
  5
84
330
56
100
AcDbEntity
  8
0
  6
CONTINUOUS
 62
     0
100
AcDbLine
 10
-1.0
 20
-0.25
 30
0.0
 11
0.0
 21
-0.25
 31
0.0
  0
LINE
  5
85
330
56
100
AcDbEntity
  8
0
  6
CONTINUOUS
 62
     0
100
AcDbLine
 10
-1.0
 20
-0.125
 30
0.0
 11
0.0
 21
-0.125
 31
0.0
  0
ENDBLK
  5
58
330
56
100
AcDbEntity
  8
0
100
AcDbBlockEnd
  0
BLOCK
  5
5A
330
59
100
AcDbEntity
  8
0
100
AcDbBlockBegin
  2
EX_SLANT
 70
     0
 10
0.0
 20
0.0
 30
0.0
  3
EX_SLANT
  1

  0
LINE
  5
86
330
59
100
AcDbEntity
  8
0
  6
CONTINUOUS
 62
     0
100
AcDbLine
 10
0.0
 20
0.0
 30
0.0
 11
-1.0
 21
0.0
 31
0.0
  0
LINE
  5
87
330
59
100
AcDbEntity
  8
0
  6
CONTINUOUS
 62
     0
100
AcDbLine
 10
0.707106781
 20
0.707106781
 30
0.0
 11
-0.707106781
 21
-0.707106781
 31
0.0
  0
ENDBLK
  5
5B
330
59
100
AcDbEntity
  8
0
100
AcDbBlockEnd
  0
BLOCK
  5
5D
330
5C
100
AcDbEntity
  8
0
100
AcDbBlockBegin
  2
EX_NONE
 70
     0
 10
0.0
 20
0.0
 30
0.0
  3
EX_NONE
  1

  0
LINE
  5
88
330
5C
100
AcDbEntity
  8
0
  6
CONTINUOUS
 62
     0
100
AcDbLine
 10
0.0
 20
0.0
 30
0.0
 11
-1.0
 21
0.0
 31
0.0
  0
ENDBLK
  5
5E
330
5C
100
AcDbEntity
  8
0
100
AcDbBlockEnd
  0
BLOCK
  5
60
330
5F
100
AcDbEntity
  8
0
100
AcDbBlockBegin
  2
EX_CIVIL
 70
     0
 10
0.0
 20
0.0
 30
0.0
  3
EX_CIVIL
  1

  0
LINE
  5
89
330
5F
100
AcDbEntity
  8
0
  6
CONTINUOUS
 62
     0
100
AcDbLine
 10
0.0
 20
0.0
 30
0.0
 11
-1.0
 21
0.0
 31
0.0
  0
LINE
  5
8A
330
5F
100
AcDbEntity
  8
0
  6
CONTINUOUS
 62
     0
100
AcDbLine
 10
-1.0
 20
0.25
 30
0.0
 11
0.0
 21
0.25
 31
0.0
  0
LINE
  5
8B
330
5F
100
AcDbEntity
  8
0
  6
CONTINUOUS
 62
     0
100
AcDbLine
 10
-1.0
 20
0.125
 30
0.0
 11
0.0
 21
0.125
 31
0.0
  0
ENDBLK
  5
61
330
5F
100
AcDbEntity
  8
0
100
AcDbBlockEnd
  0
BLOCK
  5
63
330
62
100
AcDbEntity
  8
0
100
AcDbBlockBegin
  2
EX_WCIR
 70
     0
 10
0.0
 20
0.0
 30
0.0
  3
EX_WCIR
  1

  0
LINE
  5
8C
330
62
100
AcDbEntity
  8
0
  6
CONTINUOUS
 62
     0
100
AcDbLine
 10
0.0
 20
0.0
 30
0.0
 11
-1.0
 21
0.0
 31
0.0
  0
CIRCLE
  5
8D
330
62
100
AcDbEntity
  8
0
  6
CONTINUOUS
 62
     0
100
AcDbCircle
 10
0.0
 20
0.0
 30
0.0
 40
0.5
  0
ENDBLK
  5
64
330
62
100
AcDbEntity
  8
0
100
AcDbBlockEnd
  0
BLOCK
  5
66
330
65
100
AcDbEntity
  8
0
100
AcDbBlockBegin
  2
EX_WCIR2
 70
     0
 10
0.0
 20
0.0
 30
0.0
  3
EX_WCIR2
  1

  0
LINE
  5
8E
330
65
100
AcDbEntity
  8
0
  6
CONTINUOUS
 62
     0
100
AcDbLine
 10
-0.5
 20
0.0
 30
0.0
 11
-1.0
 21
0.0
 31
0.0
  0
CIRCLE
  5
8F
330
65
100
AcDbEntity
  8
0
  6
CONTINUOUS
 62
     0
100
AcDbCircle
 10
0.0
 20
0.0
 30
0.0
 40
0.5
  0
ENDBLK
  5
67
330
65
100
AcDbEntity
  8
0
100
AcDbBlockEnd
  0
BLOCK
  5
69
330
68
100
AcDbEntity
  8
0
100
AcDbBlockBegin
  2
EX_WNORM
 70
     0
 10
0.0
 20
0.0
 30
0.0
  3
EX_WNORM
  1

  0
LINE
  5
90
330
68
100
AcDbEntity
  8
0
  6
CONTINUOUS
 62
     0
100
AcDbLine
 10
-1.0
 20
0.0
 30
0.0
 11
-1.0
 21
0.0
 31
0.0
  0
LINE
  5
91
330
68
100
AcDbEntity
  8
0
  6
CONTINUOUS
 62
     0
100
AcDbLine
 10
0.0
 20
0.0
 30
0.0
 11
-1.0
 21
0.166666667
 31
0.0
  0
LINE
  5
92
330
68
100
AcDbEntity
  8
0
  6
CONTINUOUS
 62
     0
100
AcDbLine
 10
0.0
 20
0.0
 30
0.0
 11
-1.0
 21
-0.166666667
 31
0.0
  0
LINE
  5
93
330
68
100
AcDbEntity
  8
0
  6
CONTINUOUS
 62
     0
100
AcDbLine
 10
-1.0
 20
0.166666667
 30
0.0
 11
-1.0
 21
-0.166666667
 31
0.0
  0
ENDBLK
  5
6A
330
68
100
AcDbEntity
  8
0
100
AcDbBlockEnd
  0
BLOCK
  5
6C
330
6B
100
AcDbEntity
  8
0
100
AcDbBlockBegin
  2
EX_NNORM
 70
     0
 10
0.0
 20
0.0
 30
0.0
  3
EX_NNORM
  1

  0
LINE
  5
94
330
6B
100
AcDbEntity
  8
0
  6
CONTINUOUS
 62
     0
100
AcDbLine
 10
0.0
 20
0.0
 30
0.0
 11
-1.0
 21
0.0
 31
0.0
  0
LINE
  5
95
330
6B
100
AcDbEntity
  8
0
  6
CONTINUOUS
 62
     0
100
AcDbLine
 10
0.0
 20
0.0
 30
0.0
 11
-1.0
 21
0.166666667
 31
0.0
  0
LINE
  5
96
330
6B
100
AcDbEntity
  8
0
  6
CONTINUOUS
 62
     0
100
AcDbLine
 10
0.0
 20
0.0
 30
0.0
 11
-1.0
 21
-0.166666667
 31
0.0
  0
LINE
  5
97
330
6B
100
AcDbEntity
  8
0
  6
CONTINUOUS
 62
     0
100
AcDbLine
 10
-1.0
 20
0.166666667
 30
0.0
 11
-1.0
 21
-0.166666667
 31
0.0
  0
ENDBLK
  5
6D
330
6B
100
AcDbEntity
  8
0
100
AcDbBlockEnd
  0
BLOCK
  5
6F
330
6E
100
AcDbEntity
  8
0
100
AcDbBlockBegin
  2
EX_BBOX
 70
     0
 10
0.0
 20
0.0
 30
0.0
  3
EX_BBOX
  1

  0
LINE
  5
98
330
6E
100
AcDbEntity
  8
0
  6
CONTINUOUS
 62
     0
100
AcDbLine
 10
0.0
 20
0.0
 30
0.0
 11
-1.0
 21
0.0
 31
0.0
  0
LINE
  5
99
330
6E
100
AcDbEntity
  8
0
  6
CONTINUOUS
 62
     0
100
AcDbLine
 10
-0.5
 20
0.5
 30
0.0
 11
0.5
 21
0.5
 31
0.0
  0
LINE
  5
9A
330
6E
100
AcDbEntity
  8
0
  6
CONTINUOUS
 62
     0
100
AcDbLine
 10
0.5
 20
0.5
 30
0.0
 11
0.5
 21
-0.5
 31
0.0
  0
LINE
  5
9B
330
6E
100
AcDbEntity
  8
0
  6
CONTINUOUS
 62
     0
100
AcDbLine
 10
0.5
 20
-0.5
 30
0.0
 11
-0.5
 21
-0.5
 31
0.0
  0
LINE
  5
9C
330
6E
100
AcDbEntity
  8
0
  6
CONTINUOUS
 62
     0
100
AcDbLine
 10
-0.5
 20
-0.5
 30
0.0
 11
-0.5
 21
0.5
 31
0.0
  0
LINE
  5
9D
330
6E
100
AcDbEntity
  8
0
  6
CONTINUOUS
 62
     0
100
AcDbLine
 10
-0.25
 20
0.25
 30
0.0
 11
0.25
 21
0.25
 31
0.0
  0
LINE
  5
9E
330
6E
100
AcDbEntity
  8
0
  6
CONTINUOUS
 62
     0
100
AcDbLine
 10
0.25
 20
0.25
 30
0.0
 11
0.25
 21
-0.25
 31
0.0
  0
LINE
  5
9F
330
6E
100
AcDbEntity
  8
0
  6
CONTINUOUS
 62
     0
100
AcDbLine
 10
0.25
 20
-0.25
 30
0.0
 11
-0.25
 21
-0.25
 31
0.0
  0
LINE
  5
A0
330
6E
100
AcDbEntity
  8
0
  6
CONTINUOUS
 62
     0
100
AcDbLine
 10
-0.25
 20
-0.25
 30
0.0
 11
-0.25
 21
0.25
 31
0.0
  0
ENDBLK
  5
70
330
6E
100
AcDbEntity
  8
0
100
AcDbBlockEnd
  0
BLOCK
  5
72
330
71
100
AcDbEntity
  8
0
100
AcDbBlockBegin
  2
EX_WBOX
 70
     0
 10
0.0
 20
0.0
 30
0.0
  3
EX_WBOX
  1

  0
LINE
  5
A1
330
71
100
AcDbEntity
  8
0
  6
CONTINUOUS
 62
     0
100
AcDbLine
 10
-0.5
 20
0.0
 30
0.0
 11
-1.0
 21
0.0
 31
0.0
  0
LINE
  5
A2
330
71
100
AcDbEntity
  8
0
  6
CONTINUOUS
 62
     0
100
AcDbLine
 10
-0.5
 20
0.5
 30
0.0
 11
0.5
 21
0.5
 31
0.0
  0
LINE
  5
A3
330
71
100
AcDbEntity
  8
0
  6
CONTINUOUS
 62
     0
100
AcDbLine
 10
0.5
 20
0.5
 30
0.0
 11
0.5
 21
-0.5
 31
0.0
  0
LINE
  5
A4
330
71
100
AcDbEntity
  8
0
  6
CONTINUOUS
 62
     0
100
AcDbLine
 10
0.5
 20
-0.5
 30
0.0
 11
-0.5
 21
-0.5
 31
0.0
  0
LINE
  5
A5
330
71
100
AcDbEntity
  8
0
  6
CONTINUOUS
 62
     0
100
AcDbLine
 10
-0.5
 20
-0.5
 30
0.0
 11
-0.5
 21
0.5
 31
0.0
  0
ENDBLK
  5
73
330
71
100
AcDbEntity
  8
0
100
AcDbBlockEnd
  0
BLOCK
  5
75
330
74
100
AcDbEntity
  8
0
100
AcDbBlockBegin
  2
EX_INTEGRAL
 70
     0
 10
0.0
 20
0.0
 30
0.0
  3
EX_INTEGRAL
  1

  0
LINE
  5
A6
330
74
100
AcDbEntity
  8
0
  6
CONTINUOUS
 62
     0
100
AcDbLine
 10
0.0
 20
0.0
 30
0.0
 11
-1.0
 21
0.0
 31
0.0
  0
ARC
  5
A7
330
74
100
AcDbEntity
  8
0
  6
CONTINUOUS
 62
     0
100
AcDbCircle
 10
0.542115
 20
0.164992
 30
0.0
 40
0.56667
100
AcDbArc
 50
73.07249033629006
 51
196.9275130221199
  0
ARC
  5
A8
330
74
100
AcDbEntity
  8
0
  6
CONTINUOUS
 62
     0
100
AcDbCircle
 10
-0.542115
 20
-0.164992
 30
0.0
 40
0.56667
100
AcDbArc
 50
253.0724869220464
 51
16.9275130559125
  0
ENDBLK
  5
76
330
74
100
AcDbEntity
  8
0
100
AcDbBlockEnd
  0
BLOCK
  5
472
330
471
100
AcDbEntity
  8
0
100
AcDbBlockBegin
  2
*D15
 70
     1
 10
0.0
 20
0.0
 30
0.0
  3
*D15
  1

  0
LINE
  5
474
330
471
100
AcDbEntity
  8
寸法
  6
CONTINUOUS
 62
     3
100
AcDbLine
 10
694.9999999999993
 20
3550.000000178814
 30
0.0
 11
694.9999999999993
 21
3195.5
 31
0.0
  0
LINE
  5
475
330
471
100
AcDbEntity
  8
寸法
  6
CONTINUOUS
 62
     3
100
AcDbLine
 10
1144.999999999998
 20
3550.000000178814
 30
0.0
 11
1144.999999999998
 21
3195.5
 31
0.0
  0
LINE
  5
476
330
471
100
AcDbEntity
  8
寸法
  6
CONTINUOUS
 62
     3
100
AcDbLine
 10
739.999996185302
 20
3210.5
 30
0.0
 11
1100.000003814696
 21
3210.5
 31
0.0
  0
INSERT
  5
477
330
471
100
AcDbEntity
  8
寸法
 62
     3
100
AcDbBlockReference
  2
EX_NORM
 10
694.9999999999993
 20
3210.5
 30
0.0
 41
44.99999618530273
 42
44.99999618530273
 43
44.99999618530273
 50
180.0
  0
INSERT
  5
478
330
471
100
AcDbEntity
  8
寸法
 62
     3
100
AcDbBlockReference
  2
EX_NORM
 10
1144.999999999998
 20
3210.5
 30
0.0
 41
44.99999618530273
 42
44.99999618530273
 43
44.99999618530273
  0
MTEXT
  5
479
330
471
100
AcDbEntity
  8
寸法
 62
     2
100
AcDbMText
 10
919.9999999999991
 20
3245.749999910593
 30
0.0
 40
59.99999618530273
 41
0.0
 71
     5
 72
     1
  1
%%c450
  7
EXCADDIM1
  0
POINT
  5
47A
330
471
100
AcDbEntity
  8
DEFPOINTS
 62
     0
100
AcDbPoint
 10
694.9999999999993
 20
3560.5
 30
0.0
  0
POINT
  5
47B
330
471
100
AcDbEntity
  8
DEFPOINTS
 62
     0
100
AcDbPoint
 10
1144.999999999998
 20
3560.5
 30
0.0
  0
POINT
  5
47C
330
471
100
AcDbEntity
  8
DEFPOINTS
 62
     0
100
AcDbPoint
 10
1144.999999999998
 20
3210.5
 30
0.0
  0
ENDBLK
  5
473
330
471
100
AcDbEntity
  8
0
100
AcDbBlockEnd
  0
BLOCK
  5
47F
330
47E
100
AcDbEntity
  8
0
100
AcDbBlockBegin
  2
*D16
 70
     1
 10
0.0
 20
0.0
 30
0.0
  3
*D16
  1

  0
LINE
  5
481
330
47E
100
AcDbEntity
  8
寸法
  6
CONTINUOUS
 62
     3
100
AcDbLine
 10
619.9999999999993
 20
3365.5
 30
0.0
 11
619.9999999999993
 21
3120.5
 31
0.0
  0
LINE
  5
482
330
47E
100
AcDbEntity
  8
寸法
  6
CONTINUOUS
 62
     3
100
AcDbLine
 10
1219.999999999997
 20
3365.5
 30
0.0
 11
1219.999999999997
 21
3120.5
 31
0.0
  0
LINE
  5
483
330
47E
100
AcDbEntity
  8
寸法
  6
CONTINUOUS
 62
     3
100
AcDbLine
 10
664.999996185302
 20
3120.5
 30
0.0
 11
1175.000003814695
 21
3120.5
 31
0.0
  0
INSERT
  5
484
330
47E
100
AcDbEntity
  8
寸法
 62
     3
100
AcDbBlockReference
  2
EX_NORM
 10
619.9999999999993
 20
3120.5
 30
0.0
 41
44.99999618530273
 42
44.99999618530273
 43
44.99999618530273
 50
180.0
  0
INSERT
  5
485
330
47E
100
AcDbEntity
  8
寸法
 62
     3
100
AcDbBlockReference
  2
EX_NORM
 10
1219.999999999997
 20
3120.5
 30
0.0
 41
44.99999618530273
 42
44.99999618530273
 43
44.99999618530273
  0
MTEXT
  5
486
330
47E
100
AcDbEntity
  8
寸法
 62
     2
100
AcDbMText
 10
919.9999999999986
 20
3155.749999910593
 30
0.0
 40
59.99999618530273
 41
0.0
 71
     5
 72
     1
  1
600
  7
EXCADDIM1
  0
POINT
  5
487
330
47E
100
AcDbEntity
  8
DEFPOINTS
 62
     0
100
AcDbPoint
 10
619.9999999999993
 20
3365.5
 30
0.0
  0
POINT
  5
488
330
47E
100
AcDbEntity
  8
DEFPOINTS
 62
     0
100
AcDbPoint
 10
1219.999999999997
 20
3365.5
 30
0.0
  0
POINT
  5
489
330
47E
100
AcDbEntity
  8
DEFPOINTS
 62
     0
100
AcDbPoint
 10
1219.999999999997
 20
3120.5
 30
0.0
  0
ENDBLK
  5
480
330
47E
100
AcDbEntity
  8
0
100
AcDbBlockEnd
  0
BLOCK
  5
48C
330
48B
100
AcDbEntity
  8
0
100
AcDbBlockBegin
  2
*D17
 70
     1
 10
0.0
 20
0.0
 30
0.0
  3
*D17
  1

  0
LINE
  5
48E
330
48B
100
AcDbEntity
  8
寸法
  6
CONTINUOUS
 62
     3
100
AcDbLine
 10
930.4999998211854
 20
3335.5
 30
0.0
 11
1429.999999999997
 21
3335.5
 31
0.0
  0
LINE
  5
48F
330
48B
100
AcDbEntity
  8
寸法
  6
CONTINUOUS
 62
     3
100
AcDbLine
 10
1414.999999999997
 20
3380.499996185303
 30
0.0
 11
1414.999999999997
 21
3770.500003814697
 31
0.0
  0
INSERT
  5
490
330
48B
100
AcDbEntity
  8
寸法
 62
     3
100
AcDbBlockReference
  2
EX_NORM
 10
1414.999999999997
 20
3335.5
 30
0.0
 41
44.99999618530273
 42
44.99999618530273
 43
44.99999618530273
 50
270.0
  0
INSERT
  5
491
330
48B
100
AcDbEntity
  8
寸法
 62
     3
100
AcDbBlockReference
  2
EX_NORM
 10
1414.999999999997
 20
3815.5
 30
0.0
 41
44.99999618530273
 42
44.99999618530273
 43
44.99999618530273
 50
90.0
  0
MTEXT
  5
492
330
48B
100
AcDbEntity
  8
寸法
 62
     2
100
AcDbMText
 10
1379.750000089405
 20
3575.499999999999
 30
0.0
 40
59.99999618530273
 41
0.0
 71
     5
 72
     1
  1
480
  7
EXCADDIM1
 11
0.0
 21
1.0
 31
0.0
  0
POINT
  5
493
330
48B
100
AcDbEntity
  8
DEFPOINTS
 62
     0
100
AcDbPoint
 10
919.9999999999993
 20
3335.5
 30
0.0
  0
POINT
  5
494
330
48B
100
AcDbEntity
  8
DEFPOINTS
 62
     0
100
AcDbPoint
 10
1219.999999999997
 20
3815.5
 30
0.0
  0
POINT
  5
495
330
48B
100
AcDbEntity
  8
DEFPOINTS
 62
     0
100
AcDbPoint
 10
1414.999999999997
 20
3815.5
 30
0.0
  0
ENDBLK
  5
48D
330
48B
100
AcDbEntity
  8
0
100
AcDbBlockEnd
  0
BLOCK
  5
4A1
330
4A0
100
AcDbEntity
  8
0
100
AcDbBlockBegin
  2
*D18
 70
     1
 10
0.0
 20
0.0
 30
0.0
  3
*D18
  1

  0
LINE
  5
4A3
330
4A0
100
AcDbEntity
  8
寸法
  6
CONTINUOUS
 62
     3
100
AcDbLine
 10
1230.499999821184
 20
1788.0
 30
0.0
 11
1339.999999999998
 21
1788.0
 31
0.0
  0
LINE
  5
4A4
330
4A0
100
AcDbEntity
  8
寸法
  6
CONTINUOUS
 62
     3
100
AcDbLine
 10
1324.999999999998
 20
1132.999996185303
 30
0.0
 11
1324.999999999998
 21
1743.000003814697
 31
0.0
  0
INSERT
  5
4A5
330
4A0
100
AcDbEntity
  8
寸法
 62
     3
100
AcDbBlockReference
  2
EX_NORM
 10
1324.999999999998
 20
1088.0
 30
0.0
 41
44.99999618530273
 42
44.99999618530273
 43
44.99999618530273
 50
270.0
  0
INSERT
  5
4A6
330
4A0
100
AcDbEntity
  8
寸法
 62
     3
100
AcDbBlockReference
  2
EX_NORM
 10
1324.999999999998
 20
1788.0
 30
0.0
 41
44.99999618530273
 42
44.99999618530273
 43
44.99999618530273
 50
90.0
  0
MTEXT
  5
4A7
330
4A0
100
AcDbEntity
  8
寸法
 62
     2
100
AcDbMText
 10
1289.750000089406
 20
1437.999999999996
 30
0.0
 40
59.99999618530273
 41
0.0
 71
     5
 72
     1
  1
700
  7
EXCADDIM1
 11
0.0
 21
1.0
 31
0.0
  0
POINT
  5
4A8
330
4A0
100
AcDbEntity
  8
DEFPOINTS
 62
     0
100
AcDbPoint
 10
1217.999999999997
 20
1088.0
 30
0.0
  0
POINT
  5
4A9
330
4A0
100
AcDbEntity
  8
DEFPOINTS
 62
     0
100
AcDbPoint
 10
1219.999999999997
 20
1788.0
 30
0.0
  0
POINT
  5
4AA
330
4A0
100
AcDbEntity
  8
DEFPOINTS
 62
     0
100
AcDbPoint
 10
1324.999999999998
 20
1788.0
 30
0.0
  0
ENDBLK
  5
4A2
330
4A0
100
AcDbEntity
  8
0
100
AcDbBlockEnd
  0
BLOCK
  5
4AD
330
4AC
100
AcDbEntity
  8
0
100
AcDbBlockBegin
  2
*D19
 70
     1
 10
0.0
 20
0.0
 30
0.0
  3
*D19
  1

  0
LINE
  5
4AF
330
4AC
100
AcDbEntity
  8
寸法
  6
CONTINUOUS
 62
     3
100
AcDbLine
 10
1230.499999821184
 20
1788.0
 30
0.0
 11
1339.999999999997
 21
1788.0
 31
0.0
  0
LINE
  5
4B0
330
4AC
100
AcDbEntity
  8
寸法
  6
CONTINUOUS
 62
     3
100
AcDbLine
 10
1324.999999999997
 20
1832.999996185303
 30
0.0
 11
1324.999999999997
 21
1913.000003814697
 31
0.0
  0
INSERT
  5
4B1
330
4AC
100
AcDbEntity
  8
寸法
 62
     3
100
AcDbBlockReference
  2
EX_NORM
 10
1324.999999999997
 20
1788.0
 30
0.0
 41
44.99999618530273
 42
44.99999618530273
 43
44.99999618530273
 50
270.0
  0
INSERT
  5
4B2
330
4AC
100
AcDbEntity
  8
寸法
 62
     3
100
AcDbBlockReference
  2
EX_NORM
 10
1324.999999999997
 20
1958.0
 30
0.0
 41
44.99999618530273
 42
44.99999618530273
 43
44.99999618530273
 50
90.0
  0
MTEXT
  5
4B3
330
4AC
100
AcDbEntity
  8
寸法
 62
     2
100
AcDbMText
 10
1289.750000089405
 20
1872.999999999998
 30
0.0
 40
59.99999618530273
 41
0.0
 71
     5
 72
     1
  1
170
  7
EXCADDIM1
 11
0.0
 21
1.0
 31
0.0
  0
POINT
  5
4B4
330
4AC
100
AcDbEntity
  8
DEFPOINTS
 62
     0
100
AcDbPoint
 10
1219.999999999997
 20
1788.0
 30
0.0
  0
POINT
  5
4B5
330
4AC
100
AcDbEntity
  8
DEFPOINTS
 62
     0
100
AcDbPoint
 10
919.9999999999991
 20
1958.0
 30
0.0
  0
POINT
  5
4B6
330
4AC
100
AcDbEntity
  8
DEFPOINTS
 62
     0
100
AcDbPoint
 10
1324.999999999997
 20
1958.0
 30
0.0
  0
ENDBLK
  5
4AE
330
4AC
100
AcDbEntity
  8
0
100
AcDbBlockEnd
  0
BLOCK
  5
4B9
330
4B8
100
AcDbEntity
  8
0
100
AcDbBlockBegin
  2
*D20
 70
     1
 10
0.0
 20
0.0
 30
0.0
  3
*D20
  1

  0
LINE
  5
4BB
330
4B8
100
AcDbEntity
  8
寸法
  6
CONTINUOUS
 62
     3
100
AcDbLine
 10
1228.499999821184
 20
1088.0
 30
0.0
 11
1430.000000000002
 21
1088.0
 31
0.0
  0
LINE
  5
4BC
330
4B8
100
AcDbEntity
  8
寸法
  6
CONTINUOUS
 62
     3
100
AcDbLine
 10
1415.000000000002
 20
1132.999996185303
 30
0.0
 11
1415.000000000002
 21
1913.000003814697
 31
0.0
  0
INSERT
  5
4BD
330
4B8
100
AcDbEntity
  8
寸法
 62
     3
100
AcDbBlockReference
  2
EX_NORM
 10
1415.000000000002
 20
1088.0
 30
0.0
 41
44.99999618530273
 42
44.99999618530273
 43
44.99999618530273
 50
270.0
  0
INSERT
  5
4BE
330
4B8
100
AcDbEntity
  8
寸法
 62
     3
100
AcDbBlockReference
  2
EX_NORM
 10
1415.000000000002
 20
1958.0
 30
0.0
 41
44.99999618530273
 42
44.99999618530273
 43
44.99999618530273
 50
90.0
  0
MTEXT
  5
4BF
330
4B8
100
AcDbEntity
  8
寸法
 62
     2
100
AcDbMText
 10
1379.750000089409
 20
1522.999999999998
 30
0.0
 40
59.99999618530273
 41
0.0
 71
     5
 72
     1
  1
870
  7
EXCADDIM1
 11
0.0
 21
1.0
 31
0.0
  0
POINT
  5
4C0
330
4B8
100
AcDbEntity
  8
DEFPOINTS
 62
     0
100
AcDbPoint
 10
1217.999999999997
 20
1088.0
 30
0.0
  0
POINT
  5
4C1
330
4B8
100
AcDbEntity
  8
DEFPOINTS
 62
     0
100
AcDbPoint
 10
930.4999998211988
 20
1958.0
 30
0.0
  0
POINT
  5
4C2
330
4B8
100
AcDbEntity
  8
DEFPOINTS
 62
     0
100
AcDbPoint
 10
1415.000000000002
 20
1958.0
 30
0.0
  0
ENDBLK
  5
4BA
330
4B8
100
AcDbEntity
  8
0
100
AcDbBlockEnd
  0
BLOCK
  5
4C9
330
4C8
100
AcDbEntity
  8
0
100
AcDbBlockBegin
  2
*D21
 70
     1
 10
0.0
 20
0.0
 30
0.0
  3
*D21
  1

  0
LINE
  5
4CB
330
4C8
100
AcDbEntity
  8
寸法
  6
CONTINUOUS
 62
     3
100
AcDbLine
 10
1230.499999821184
 20
3385.5
 30
0.0
 11
1339.999999999998
 21
3385.5
 31
0.0
  0
LINE
  5
4CC
330
4C8
100
AcDbEntity
  8
寸法
  6
CONTINUOUS
 62
     3
100
AcDbLine
 10
1324.999999999998
 20
3430.499996185303
 30
0.0
 11
1324.999999999998
 21
3770.500003814697
 31
0.0
  0
INSERT
  5
4CD
330
4C8
100
AcDbEntity
  8
寸法
 62
     3
100
AcDbBlockReference
  2
EX_NORM
 10
1324.999999999998
 20
3385.5
 30
0.0
 41
44.99999618530273
 42
44.99999618530273
 43
44.99999618530273
 50
270.0
  0
INSERT
  5
4CE
330
4C8
100
AcDbEntity
  8
寸法
 62
     3
100
AcDbBlockReference
  2
EX_NORM
 10
1324.999999999998
 20
3815.5
 30
0.0
 41
44.99999618530273
 42
44.99999618530273
 43
44.99999618530273
 50
90.0
  0
MTEXT
  5
4CF
330
4C8
100
AcDbEntity
  8
寸法
 62
     2
100
AcDbMText
 10
1289.750000089406
 20
3600.5
 30
0.0
 40
59.99999618530273
 41
0.0
 71
     5
 72
     1
  1
430
  7
EXCADDIM1
 11
0.0
 21
1.0
 31
0.0
  0
POINT
  5
4D0
330
4C8
100
AcDbEntity
  8
DEFPOINTS
 62
     0
100
AcDbPoint
 10
1219.999999999998
 20
3385.5
 30
0.0
  0
POINT
  5
4D1
330
4C8
100
AcDbEntity
  8
DEFPOINTS
 62
     0
100
AcDbPoint
 10
1219.999999999998
 20
3815.5
 30
0.0
  0
POINT
  5
4D2
330
4C8
100
AcDbEntity
  8
DEFPOINTS
 62
     0
100
AcDbPoint
 10
1324.999999999998
 20
3815.5
 30
0.0
  0
ENDBLK
  5
4CA
330
4C8
100
AcDbEntity
  8
0
100
AcDbBlockEnd
  0
BLOCK
  5
4D5
330
4D4
100
AcDbEntity
  8
0
100
AcDbBlockBegin
  2
*D22
 70
     1
 10
0.0
 20
0.0
 30
0.0
  3
*D22
  1

  0
LINE
  5
4D7
330
4D4
100
AcDbEntity
  8
寸法
  6
CONTINUOUS
 62
     3
100
AcDbLine
 10
2465.5
 20
1528.0
 30
0.0
 11
2570.0
 21
1528.0
 31
0.0
  0
LINE
  5
4D8
330
4D4
100
AcDbEntity
  8
寸法
  6
CONTINUOUS
 62
     3
100
AcDbLine
 10
2555.0
 20
1483.000003814697
 30
0.0
 11
2555.0
 21
1132.999996185303
 31
0.0
  0
INSERT
  5
4D9
330
4D4
100
AcDbEntity
  8
寸法
 62
     3
100
AcDbBlockReference
  2
EX_NORM
 10
2555.0
 20
1528.0
 30
0.0
 41
44.99999618530273
 42
44.99999618530273
 43
44.99999618530273
 50
90.0
  0
INSERT
  5
4DA
330
4D4
100
AcDbEntity
  8
寸法
 62
     3
100
AcDbBlockReference
  2
EX_NORM
 10
2555.0
 20
1088.0
 30
0.0
 41
44.99999618530273
 42
44.99999618530273
 43
44.99999618530273
 50
270.0
  0
MTEXT
  5
4DB
330
4D4
100
AcDbEntity
  8
寸法
 62
     2
100
AcDbMText
 10
2519.750000089407
 20
1308.0
 30
0.0
 40
59.99999618530273
 41
0.0
 71
     5
 72
     1
  1
440（壁給水）
  7
EXCADDIM1
 11
0.0
 21
1.0
 31
0.0
  0
POINT
  5
4DC
330
4D4
100
AcDbEntity
  8
DEFPOINTS
 62
     0
100
AcDbPoint
 10
2458.0
 20
1528.0
 30
0.0
  0
POINT
  5
4DD
330
4D4
100
AcDbEntity
  8
DEFPOINTS
 62
     0
100
AcDbPoint
 10
2555.0
 20
1088.0
 30
0.0
  0
POINT
  5
4DE
330
4D4
100
AcDbEntity
  8
DEFPOINTS
 62
     0
100
AcDbPoint
 10
2555.0
 20
1088.0
 30
0.0
  0
ENDBLK
  5
4D6
330
4D4
100
AcDbEntity
  8
0
100
AcDbBlockEnd
  0
ENDSEC
  0
SECTION
  2
ENTITIES
  0
LINE
  5
A9
330
1F
100
AcDbEntity
  8
枠_表
  6
CONTINUOUS
 62
     7
100
AcDbLine
 10
17.99999999999999
 20
12.5
 30
0.0
 11
200.0
 21
12.5
 31
0.0
  0
LINE
  5
AA
330
1F
100
AcDbEntity
  8
枠_表
  6
CONTINUOUS
 62
     7
100
AcDbLine
 10
200.0
 20
12.5
 30
0.0
 11
200.0
 21
287.5
 31
0.0
  0
LINE
  5
AB
330
1F
100
AcDbEntity
  8
枠_表
  6
CONTINUOUS
 62
     7
100
AcDbLine
 10
17.99999999999999
 20
12.5
 30
0.0
 11
17.99999999999999
 21
287.5
 31
0.0
  0
LINE
  5
AC
330
1F
100
AcDbEntity
  8
枠_表
  6
CONTINUOUS
 62
     7
100
AcDbLine
 10
17.99999999999999
 20
287.5
 30
0.0
 11
200.0
 21
287.5
 31
0.0
  0
LINE
  5
AD
330
1F
100
AcDbEntity
  8
枠_表
  6
CONTINUOUS
 62
     7
100
AcDbLine
 10
17.99999999999999
 20
34.5
 30
0.0
 11
200.0
 21
34.5
 31
0.0
  0
LINE
  5
AE
330
1F
100
AcDbEntity
  8
枠_表
  6
CONTINUOUS
 62
     6
100
AcDbLine
 10
200.0
 20
22.5
 30
0.0
 11
74.99999999999984
 21
22.5
 31
0.0
  0
LINE
  5
AF
330
1F
100
AcDbEntity
  8
枠_表
  6
CONTINUOUS
 62
     6
100
AcDbLine
 10
186.0
 20
34.5
 30
0.0
 11
186.0
 21
22.5
 31
0.0
  0
LINE
  5
B0
330
1F
100
AcDbEntity
  8
枠_表
  6
CONTINUOUS
 62
     6
100
AcDbLine
 10
181.0
 20
34.5
 30
0.0
 11
181.0
 21
22.5
 31
0.0
  0
LINE
  5
B1
330
1F
100
AcDbEntity
  8
枠_表
  6
CONTINUOUS
 62
     6
100
AcDbLine
 10
144.0
 20
34.5
 30
0.0
 11
144.0
 21
12.5
 31
0.0
  0
LINE
  5
B2
330
1F
100
AcDbEntity
  8
枠_表
  6
CONTINUOUS
 62
     6
100
AcDbLine
 10
139.0
 20
34.5
 30
0.0
 11
139.0
 21
12.5
 31
0.0
  0
LINE
  5
B3
330
1F
100
AcDbEntity
  8
枠_表
  6
CONTINUOUS
 62
     6
100
AcDbLine
 10
79.99999999999984
 20
34.5
 30
0.0
 11
79.99999999999984
 21
22.5
 31
0.0
  0
LINE
  5
B4
330
1F
100
AcDbEntity
  8
枠_表
  6
CONTINUOUS
 62
     6
100
AcDbLine
 10
74.99999999999984
 20
34.5
 30
0.0
 11
74.99999999999984
 21
12.5
 31
0.0
  0
LINE
  5
B5
330
1F
100
AcDbEntity
  8
枠_表
  6
CONTINUOUS
 62
     6
100
AcDbLine
 10
61.99999999999984
 20
34.5
 30
0.0
 11
61.99999999999984
 21
12.5
 31
0.0
  0
LINE
  5
B6
330
1F
100
AcDbEntity
  8
枠_表
  6
CONTINUOUS
 62
     6
100
AcDbLine
 10
48.99999999999984
 20
34.5
 30
0.0
 11
48.99999999999984
 21
12.5
 31
0.0
  0
LINE
  5
B7
330
1F
100
AcDbEntity
  8
枠_表
  6
CONTINUOUS
 62
     6
100
AcDbLine
 10
33.4999999999999
 20
34.5
 30
0.0
 11
33.4999999999999
 21
12.5
 31
0.0
  0
LINE
  5
B8
330
1F
100
AcDbEntity
  8
枠_表
  6
CONTINUOUS
 62
     6
100
AcDbLine
 10
17.99999999999999
 20
29.5
 30
0.0
 11
74.99999999999984
 21
29.5
 31
0.0
  0
LINE
  5
B9
330
1F
100
AcDbEntity
  8
枠_表
  6
CONTINUOUS
 62
     6
100
AcDbLine
 10
189.26538086
 20
24.80029296999999
 30
0.0
 11
196.99938965
 21
32.66998291000004
 31
0.0
  0
CIRCLE
  5
BA
330
1F
100
AcDbEntity
  8
枠_表
  6
CONTINUOUS
 62
     6
100
AcDbCircle
 10
22.99999999999999
 20
15.0
 30
0.0
 40
0.10000002
  0
CIRCLE
  5
BB
330
1F
100
AcDbEntity
  8
枠_表
  6
CONTINUOUS
 62
     6
100
AcDbCircle
 10
27.99999999999999
 20
15.0
 30
0.0
 40
0.10000002
  0
CIRCLE
  5
BC
330
1F
100
AcDbEntity
  8
枠_表
  6
CONTINUOUS
 62
     6
100
AcDbCircle
 10
38.4999999999999
 20
15.0
 30
0.0
 40
0.10000002
  0
CIRCLE
  5
BD
330
1F
100
AcDbEntity
  8
枠_表
  6
CONTINUOUS
 62
     6
100
AcDbCircle
 10
43.4999999999999
 20
15.0
 30
0.0
 40
0.10000002
  0
LINE
  5
BE
330
1F
100
AcDbEntity
  8
枠_表
  6
EXLTYPE2
 62
     6
100
AcDbLine
 10
17.99999999999999
 20
17.5
 30
0.0
 11
48.99999999999984
 21
17.5
 31
0.0
  0
TEXT
  5
BF
330
1F
100
AcDbEntity
  8
枠_表
  6
CONTINUOUS
 62
     2
100
AcDbText
 10
189.05371094
 20
29.27227783000001
 30
0.0
 40
3.0
  1
１
 41
1.101333351135257
  7
EXCADSTD
 72
     5
 11
191.413710978147
 21
29.27227783000001
 31
0.0
100
AcDbText
  0
TEXT
  5
C0
330
1F
100
AcDbEntity
  8
枠_表
  6
CONTINUOUS
 62
     2
100
AcDbText
 10
193.12792969
 20
24.83488463999993
 30
0.0
 40
3.0
  1
１５
 41
1.098531230663528
  7
EXCADSTD
 72
     5
 11
198.3067197774138
 21
24.83488463999993
 31
0.0
100
AcDbText
  0
TEXT
  5
C1
330
1F
100
AcDbEntity
  8
枠_表
  6
CONTINUOUS
 62
     2
100
AcDbText
 10
20.24999999999999
 20
29.875
 30
0.0
 40
4.25
  1
製図
 41
1.509694117647059
  7
EXCADSTD
 72
     5
 11
30.33259999999999
 21
29.875
 31
0.0
100
AcDbText
  0
TEXT
  5
C2
330
1F
100
AcDbEntity
  8
枠_表
  6
CONTINUOUS
 62
     2
100
AcDbText
 10
35.7499999999999
 20
29.875
 30
0.0
 40
4.25
  1
写図
 41
1.509694117647059
  7
EXCADSTD
 72
     5
 11
45.8325999999999
 21
29.875
 31
0.0
100
AcDbText
  0
TEXT
  5
C3
330
1F
100
AcDbEntity
  8
枠_表
  6
CONTINUOUS
 62
     2
100
AcDbText
 10
50.74999999999984
 20
29.875
 30
0.0
 40
4.25
  1
検図
 41
1.303826737967915
  7
EXCADSTD
 72
     5
 11
59.45769999999985
 21
29.875
 31
0.0
100
AcDbText
  0
TEXT
  5
C4
330
1F
100
AcDbEntity
  8
枠_表
  6
CONTINUOUS
 62
     2
100
AcDbText
 10
63.74999999999984
 20
29.875
 30
0.0
 40
4.25
  1
承認
 41
1.303826737967915
  7
EXCADSTD
 72
     5
 11
72.45769999999985
 21
29.875
 31
0.0
100
AcDbText
  0
TEXT
  5
C5
330
1F
100
AcDbEntity
  8
枠_表
  6
CONTINUOUS
 62
     2
100
AcDbText
 10
75.57499999999983
 20
28.875
 30
0.0
 40
4.25
  1
品
 41
1.120000000000002
  7
EXCADSTD
 72
     5
 11
78.97499999999984
 21
28.875
 31
0.0
100
AcDbText
  0
TEXT
  5
C6
330
1F
100
AcDbEntity
  8
枠_表
  6
CONTINUOUS
 62
     2
100
AcDbText
 10
75.57499999999983
 20
23.875
 30
0.0
 40
4.25
  1
名
 41
1.120000000000002
  7
EXCADSTD
 72
     5
 11
78.97499999999984
 21
23.875
 31
0.0
100
AcDbText
  0
TEXT
  5
C7
330
1F
100
AcDbEntity
  8
枠_表
  6
CONTINUOUS
 62
     2
100
AcDbText
 10
139.575
 20
28.875
 30
0.0
 40
4.25
  1
品
 41
1.120000000000002
  7
EXCADSTD
 72
     5
 11
142.975
 21
28.875
 31
0.0
100
AcDbText
  0
TEXT
  5
C8
330
1F
100
AcDbEntity
  8
枠_表
  6
CONTINUOUS
 62
     2
100
AcDbText
 10
139.575
 20
23.875
 30
0.0
 40
4.25
  1
番
 41
1.120000000000002
  7
EXCADSTD
 72
     5
 11
142.975
 21
23.875
 31
0.0
100
AcDbText
  0
TEXT
  5
C9
330
1F
100
AcDbEntity
  8
枠_表
  6
CONTINUOUS
 62
     2
100
AcDbText
 10
181.675
 20
28.875
 30
0.0
 40
4.25
  1
尺
 41
1.120000000000002
  7
EXCADSTD
 72
     5
 11
185.075
 21
28.875
 31
0.0
100
AcDbText
  0
TEXT
  5
CA
330
1F
100
AcDbEntity
  8
枠_表
  6
CONTINUOUS
 62
     2
100
AcDbText
 10
181.675
 20
23.875
 30
0.0
 40
4.25
  1
度
 41
1.120000000000002
  7
EXCADSTD
 72
     5
 11
185.075
 21
23.875
 31
0.0
100
AcDbText
  0
TEXT
  5
CB
330
1F
100
AcDbEntity
  8
枠_表
  6
CONTINUOUS
 62
     2
100
AcDbText
 10
139.575
 20
17.57500000000005
 30
0.0
 40
4.25
  1
図
 41
1.120000000000002
  7
EXCADSTD
 72
     5
 11
142.975
 21
17.57500000000005
 31
0.0
100
AcDbText
  0
TEXT
  5
CC
330
1F
100
AcDbEntity
  8
枠_表
  6
CONTINUOUS
 62
     2
100
AcDbText
 10
139.575
 20
13.27499999999998
 30
0.0
 40
4.25
  1
番
 41
1.120000000000002
  7
EXCADSTD
 72
     5
 11
142.975
 21
13.27499999999998
 31
0.0
100
AcDbText
  0
LINE
  5
CD
330
1F
100
AcDbEntity
  8
枠_表
  6
CONTINUOUS
 62
     6
100
AcDbLine
 10
124.9999999999999
 20
282.5
 30
0.0
 11
195.0
 21
282.5
 31
0.0
  0
LINE
  5
CE
330
1F
100
AcDbEntity
  8
枠_表
  6
CONTINUOUS
 62
     6
100
AcDbLine
 10
124.9999999999999
 20
277.0
 30
0.0
 11
195.0
 21
277.0
 31
0.0
  0
LINE
  5
CF
330
1F
100
AcDbEntity
  8
枠_表
  6
CONTINUOUS
 62
     6
100
AcDbLine
 10
124.9999999999999
 20
271.5
 30
0.0
 11
195.0
 21
271.5
 31
0.0
  0
TEXT
  5
D0
330
1F
100
AcDbEntity
  8
枠_表
  6
CONTINUOUS
 62
     2
100
AcDbText
 10
133.0
 20
277.75
 30
0.0
 40
4.0
  1
品番
 41
2.041518181818183
  7
EXCADSTD
 72
     5
 11
145.8324
 21
277.75
 31
0.0
100
AcDbText
  0
TEXT
  5
D1
330
1F
100
AcDbEntity
  8
枠_表
  6
CONTINUOUS
 62
     2
100
AcDbText
 10
168.0
 20
277.75
 30
0.0
 40
4.0
  1
品名
 41
2.041518181818183
  7
EXCADSTD
 72
     5
 11
180.8324
 21
277.75
 31
0.0
100
AcDbText
  0
TEXT
  5
D2
330
1F
100
AcDbEntity
  8
枠_表
  6
CONTINUOUS
 62
     2
100
AcDbText
 10
156.0000000000001
 20
272.25
 30
0.0
 40
4.0
  1
洗面化粧台
 41
1.086206896551724
  7
EXCADSTD
 72
     5
 11
174.0000000000001
 21
272.25
 31
0.0
100
AcDbText
  0
TEXT
  5
D4
330
1F
100
AcDbEntity
  8
枠_表
  6
CONTINUOUS
 62
     2
100
AcDbText
 10
76.99999999999996
 20
14.5
 30
0.0
 40
4.5
  1
ジャニス工業株式会社
 41
1.025641025641025
  7
EXCADTTF1
 72
     5
 11
136.9999999999999
 21
14.5
 31
0.0
100
AcDbText
  0
TEXT
  5
D5
330
1F
100
AcDbEntity
  8
枠_表
  6
CONTINUOUS
 62
     2
100
AcDbText
 10
63.49999999999939
 20
21.0
 30
0.0
 40
5.0
  1
古林
 41
1.22491090909091
  7
EXCADSTD
 72
     5
 11
73.1242999999994
 21
21.0
 31
0.0
100
AcDbText
  0
LINE
  5
D6
330
1F
100
AcDbEntity
  8
枠_表
  6
EXLTYPE2
 62
     6
100
AcDbLine
 10
18.0
 20
150.0
 30
0.0
 11
0.6999999999999993
 21
150.0
 31
0.0
  0
TEXT
  5
D7
330
1F
100
AcDbEntity
  8
枠_表
  6
CONTINUOUS
 62
     2
100
AcDbText
 10
89.89999999999985
 20
28.5
 30
0.0
 40
5.0
  1
600㎜幅
 41
0.8693548387096776
  7
EXCADSTD
 72
     5
 11
109.1499999999998
 21
28.5
 31
0.0
100
AcDbText
  0
TEXT
  5
D8
330
1F
100
AcDbEntity
  8
枠_表
  6
CONTINUOUS
 62
     2
100
AcDbText
 10
89.89999999999985
 20
23.5
 30
0.0
 40
5.0
  1
　洗面化粧台
 41
1.32
  7
EXCADSTD
 72
     5
 11
122.8999999999998
 21
23.5
 31
0.0
100
AcDbText
  0
TEXT
  5
D9
330
1F
100
AcDbEntity
  8
枠_表
  6
CONTINUOUS
 62
     2
100
AcDbText
 10
145.0
 20
26.0
 30
0.0
 40
5.0
  1
ＬＵ６０２ＴＳＤＲ型
 41
0.8542372881355933
  7
EXCADSTD
 72
     5
 11
181.0
 21
26.0
 31
0.0
100
AcDbText
  0
TEXT
  5
DA
330
1F
100
AcDbEntity
  8
枠_表
  6
CONTINUOUS
 62
     2
100
AcDbText
 10
18.44999998999997
 20
13.0
 30
0.0
 40
4.0
  1
21
 41
0.5419354838709677
  7
EXCADSTD
 72
     5
 11
21.64999998999997
 21
13.0
 31
0.0
100
AcDbText
  0
TEXT
  5
DB
330
1F
100
AcDbEntity
  8
枠_表
  6
CONTINUOUS
 62
     2
100
AcDbText
 10
20.74999999999948
 20
21.0
 30
0.0
 40
5.0
  1
間瀬
 41
1.224910909090909
  7
EXCADSTD
 72
     5
 11
30.37429999999948
 21
21.0
 31
0.0
100
AcDbText
  0
TEXT
  5
DC
330
1F
100
AcDbEntity
  8
枠_表
  6
CONTINUOUS
 62
     2
100
AcDbText
 10
23.49999999999999
 20
13.0
 30
0.0
 40
4.0
  1
10
 41
0.454054054054054
  7
EXCADSTD
 72
     5
 11
26.69999999999999
 21
13.0
 31
0.0
100
AcDbText
  0
TEXT
  5
DD
330
1F
100
AcDbEntity
  8
枠_表
  6
CONTINUOUS
 62
     2
100
AcDbText
 10
28.80000000999998
 20
13.0
 30
0.0
 40
4.0
  1
30
 41
0.454054054054054
  7
EXCADSTD
 72
     5
 11
32.00000000999998
 21
13.0
 31
0.0
100
AcDbText
  0
TEXT
  5
DE
330
1F
100
AcDbEntity
  8
枠_表
  6
CONTINUOUS
 62
     2
100
AcDbText
 10
50.49999999999939
 20
21.0
 30
0.0
 40
5.0
  1
中村
 41
1.224910909090909
  7
EXCADSTD
 72
     5
 11
60.12429999999939
 21
21.0
 31
0.0
100
AcDbText
  0
TEXT
  5
DF
330
1F
100
AcDbEntity
  8
枠_表
  6
CONTINUOUS
 62
     2
100
AcDbText
 10
125.3999999999999
 20
261.5
 30
0.0
 40
4.0
  1
※選択部材（別途手配）
 41
0.9692307660212882
  7
EXCADSTD
 72
     5
 11
161.3999998807906
 21
261.5
 31
0.0
100
AcDbText
  0
TEXT
  5
E0
330
1F
100
AcDbEntity
  8
枠_表
  6
CONTINUOUS
 62
     2
100
AcDbText
 10
170.5000000000001
 20
255.75
 30
0.0
 40
4.0
  1
品名
 41
2.041518181818183
  7
EXCADSTD
 72
     5
 11
183.3324000000001
 21
255.75
 31
0.0
100
AcDbText
  0
TEXT
  5
E1
330
1F
100
AcDbEntity
  8
枠_表
  6
CONTINUOUS
 62
     2
100
AcDbText
 10
135.5
 20
255.75
 30
0.0
 40
4.0
  1
品番
 41
2.041518181818183
  7
EXCADSTD
 72
     5
 11
148.3324
 21
255.75
 31
0.0
100
AcDbText
  0
TEXT
  5
E2
330
1F
100
AcDbEntity
  8
枠_表
  6
CONTINUOUS
 62
     2
100
AcDbText
 10
161.0000000000001
 20
222.75
 30
0.0
 40
4.0
  1
ストレート形止水栓
 41
1.056603773584906
  7
EXCADSTD
 72
     5
 11
193.0000000000001
 21
222.75
 31
0.0
100
AcDbText
  0
TEXT
  5
E3
330
1F
100
AcDbEntity
  8
枠_表
  6
CONTINUOUS
 62
     2
100
AcDbText
 10
161.0000000000001
 20
228.25
 30
0.0
 40
4.0
  1
アングル形止水栓
 41
1.061170212765957
  7
EXCADSTD
 72
     5
 11
189.5000000000001
 21
228.25
 31
0.0
100
AcDbText
  0
TEXT
  5
E4
330
1F
100
AcDbEntity
  8
枠_表
  6
CONTINUOUS
 62
     2
100
AcDbText
 10
161.0000000000001
 20
233.75
 30
0.0
 40
4.0
  1
配管アダプター
 41
1.067073170731707
  7
EXCADSTD
 72
     5
 11
186.0000000000001
 21
233.75
 31
0.0
100
AcDbText
  0
TEXT
  5
E5
330
1F
100
AcDbEntity
  8
枠_表
  6
CONTINUOUS
 62
     2
100
AcDbText
 10
161.0000000000001
 20
239.25
 30
0.0
 40
4.0
  1
ボトルトラップ
 41
1.067073170731707
  7
EXCADSTD
 72
     5
 11
186.0000000000001
 21
239.25
 31
0.0
100
AcDbText
  0
TEXT
  5
E6
330
1F
100
AcDbEntity
  8
枠_表
  6
CONTINUOUS
 62
     2
100
AcDbText
 10
161.0000000000001
 20
244.75
 30
0.0
 40
4.0
  1
Ｓトラップ
 41
1.086206896551724
  7
EXCADSTD
 72
     5
 11
179.0000000000001
 21
244.75
 31
0.0
100
AcDbText
  0
TEXT
  5
E7
330
1F
100
AcDbEntity
  8
枠_表
  6
CONTINUOUS
 62
     2
100
AcDbText
 10
161.0000000000001
 20
250.25
 30
0.0
 40
4.0
  1
Ｐトラップ
 41
1.086206896551724
  7
EXCADSTD
 72
     5
 11
179.0000000000001
 21
250.25
 31
0.0
100
AcDbText
  0
LINE
  5
E8
330
1F
100
AcDbEntity
  8
枠_表
  6
CONTINUOUS
 62
     6
100
AcDbLine
 10
160.0
 20
222.0
 30
0.0
 11
160.0
 21
260.5
 31
0.0
  0
TEXT
  5
E9
330
1F
100
AcDbEntity
  8
枠_表
  6
CONTINUOUS
 62
     2
100
AcDbText
 10
125.9999999999999
 20
228.25
 30
0.0
 40
4.0
  1
ＮＬ２２１－７５ＷＭＹ
 41
0.8211538429443651
  7
EXCADSTD
 72
     5
 11
156.4999998807906
 21
228.25
 31
0.0
100
AcDbText
  0
TEXT
  5
EA
330
1F
100
AcDbEntity
  8
枠_表
  6
CONTINUOUS
 62
     2
100
AcDbText
 10
125.9999999999999
 20
239.25
 30
0.0
 40
4.0
  1
Ｐ２２３２
 41
0.8629310316052923
  7
EXCADSTD
 72
     5
 11
140.2999999523162
 21
239.25
 31
0.0
100
AcDbText
  0
TEXT
  5
EB
330
1F
100
AcDbEntity
  8
枠_表
  6
CONTINUOUS
 62
     2
100
AcDbText
 10
125.9999999999999
 20
244.75
 30
0.0
 40
4.0
  1
Ｐ２２３３
 41
0.8629310316052923
  7
EXCADSTD
 72
     5
 11
140.2999999523162
 21
244.75
 31
0.0
100
AcDbText
  0
TEXT
  5
EC
330
1F
100
AcDbEntity
  8
枠_表
  6
CONTINUOUS
 62
     2
100
AcDbText
 10
125.9999999999999
 20
250.25
 30
0.0
 40
4.0
  1
Ｐ２２３４
 41
0.8629310316052923
  7
EXCADSTD
 72
     5
 11
140.2999999523162
 21
250.25
 31
0.0
100
AcDbText
  0
LINE
  5
ED
330
1F
100
AcDbEntity
  8
枠_表
  6
CONTINUOUS
 62
     6
100
AcDbLine
 10
195.0
 20
222.0
 30
0.0
 11
195.0
 21
260.5
 31
0.0
  0
LINE
  5
EE
330
1F
100
AcDbEntity
  8
枠_表
  6
CONTINUOUS
 62
     6
100
AcDbLine
 10
124.9999999999999
 20
222.0
 30
0.0
 11
124.9999999999999
 21
260.5
 31
0.0
  0
LINE
  5
EF
330
1F
100
AcDbEntity
  8
枠_表
  6
CONTINUOUS
 62
     6
100
AcDbLine
 10
124.9999999999999
 20
222.0
 30
0.0
 11
195.0
 21
222.0
 31
0.0
  0
LINE
  5
F0
330
1F
100
AcDbEntity
  8
枠_表
  6
CONTINUOUS
 62
     6
100
AcDbLine
 10
124.9999999999999
 20
227.5
 30
0.0
 11
195.0
 21
227.5
 31
0.0
  0
LINE
  5
F1
330
1F
100
AcDbEntity
  8
枠_表
  6
CONTINUOUS
 62
     6
100
AcDbLine
 10
124.9999999999999
 20
233.0
 30
0.0
 11
195.0
 21
233.0
 31
0.0
  0
LINE
  5
F2
330
1F
100
AcDbEntity
  8
枠_表
  6
CONTINUOUS
 62
     6
100
AcDbLine
 10
124.9999999999999
 20
238.5
 30
0.0
 11
195.0
 21
238.5
 31
0.0
  0
LINE
  5
F3
330
1F
100
AcDbEntity
  8
枠_表
  6
CONTINUOUS
 62
     6
100
AcDbLine
 10
124.9999999999999
 20
244.0
 30
0.0
 11
195.0
 21
244.0
 31
0.0
  0
LINE
  5
F4
330
1F
100
AcDbEntity
  8
枠_表
  6
CONTINUOUS
 62
     6
100
AcDbLine
 10
124.9999999999999
 20
249.5
 30
0.0
 11
195.0
 21
249.5
 31
0.0
  0
LINE
  5
F5
330
1F
100
AcDbEntity
  8
枠_表
  6
CONTINUOUS
 62
     6
100
AcDbLine
 10
124.9999999999999
 20
255.0
 30
0.0
 11
195.0
 21
255.0
 31
0.0
  0
LINE
  5
F6
330
1F
100
AcDbEntity
  8
枠_表
  6
CONTINUOUS
 62
     6
100
AcDbLine
 10
124.9999999999999
 20
260.5
 30
0.0
 11
195.0
 21
260.5
 31
0.0
  0
LINE
  5
F7
330
1F
100
AcDbEntity
  8
枠_表
  6
CONTINUOUS
 62
     6
100
AcDbLine
 10
124.9999999999999
 20
271.5
 30
0.0
 11
124.9999999999999
 21
282.5
 31
0.0
  0
LINE
  5
F8
330
1F
100
AcDbEntity
  8
枠_表
  6
CONTINUOUS
 62
     6
100
AcDbLine
 10
155.0
 20
271.5
 30
0.0
 11
155.0
 21
282.5
 31
0.0
  0
LINE
  5
F9
330
1F
100
AcDbEntity
  8
枠_表
  6
CONTINUOUS
 62
     6
100
AcDbLine
 10
195.0
 20
271.5
 30
0.0
 11
195.0
 21
282.5
 31
0.0
  0
TEXT
  5
FA
330
1F
100
AcDbEntity
  8
枠_表
  6
CONTINUOUS
 62
     2
100
AcDbText
 10
125.9999999999999
 20
272.25
 30
0.0
 40
4.0
  1
ＬＵ６０２ＴＳＤＲ
 41
0.8287735817567354
  7
EXCADSTD
 72
     5
 11
151.0999999046325
 21
272.25
 31
0.0
100
AcDbText
  0
TEXT
  5
FB
330
1F
100
AcDbEntity
  8
枠_表
  6
CONTINUOUS
 62
     2
100
AcDbText
 10
125.9999999999999
 20
222.75
 30
0.0
 40
4.0
  1
ＮＬ２１１－４２０ＷＹ
 41
0.8211538429443651
  7
EXCADSTD
 72
     5
 11
156.4999998807906
 21
222.75
 31
0.0
100
AcDbText
  0
TEXT
  5
FC
330
1F
100
AcDbEntity
  8
枠_表
  6
CONTINUOUS
 62
     2
100
AcDbText
 10
125.9999999999999
 20
233.75
 30
0.0
 40
4.0
  1
ＬＵＭＥＨ７０－２０－３２Ｂ
 41
0.6662650569734804
  7
EXCADSTD
 72
     5
 11
157.5999998450278
 21
233.75
 31
0.0
100
AcDbText
  0
TEXT
  5
FD
330
1F
100
AcDbEntity
  8
枠_表
  6
CONTINUOUS
 62
     7
100
AcDbText
 10
145.200000166893
 20
14.14999999999998
 30
0.0
 40
7.0
  1
ＬＵ２１６４４１
 41
1.140425524813064
  7
EXCADSTD
 72
     5
 11
198.799999833107
 21
14.14999999999998
 31
0.0
100
AcDbText
  0
POLYLINE
  5
FE
330
1F
100
AcDbEntity
  8
化粧台
  6
CONTINUOUS
 62
     3
100
AcDb2dPolyline
 66
     1
 10
0.0
 20
0.0
 30
0.0
 70
   128
  0
VERTEX
  5
FF
330
FE
100
AcDbEntity
  8
化粧台
  6
CONTINUOUS
 62
     3
100
AcDbVertex
100
AcDb2dVertex
 10
1601.999999999997
 20
3815.5
 30
0.0
  0
VERTEX
  5
100
330
FE
100
AcDbEntity
  8
化粧台
  6
CONTINUOUS
 62
     3
100
AcDbVertex
100
AcDb2dVertex
 10
1624.999999999997
 20
3766.0
 30
0.0
  0
SEQEND
  5
101
330
FE
100
AcDbEntity
  8
化粧台
  6
CONTINUOUS
 62
     3
  0
LINE
  5
102
330
1F
100
AcDbEntity
  8
化粧台
  6
CONTINUOUS
 62
     3
100
AcDbLine
 10
1627.763749118669
 20
3777.850574621249
 30
0.0
 11
1601.999999999997
 21
3815.5
 31
0.0
  0
LINE
  5
103
330
1F
100
AcDbEntity
  8
化粧台
  6
CONTINUOUS
 62
     3
100
AcDbLine
 10
1601.999999999997
 20
3815.5
 30
0.0
 11
1614.16048958401
 21
3771.529868170801
 31
0.0
  0
POLYLINE
  5
104
330
1F
100
AcDbEntity
  8
化粧台
  6
CONTINUOUS
 62
     3
100
AcDb2dPolyline
 66
     1
 10
0.0
 20
0.0
 30
0.0
 70
   128
  0
VERTEX
  5
105
330
104
100
AcDbEntity
  8
化粧台
  6
CONTINUOUS
 62
     3
100
AcDbVertex
100
AcDb2dVertex
 10
2450.0
 20
2260.0
 30
0.0
  0
VERTEX
  5
106
330
104
100
AcDbEntity
  8
化粧台
  6
CONTINUOUS
 62
     3
100
AcDbVertex
100
AcDb2dVertex
 10
2404.0
 20
2280.0
 30
0.0
  0
SEQEND
  5
107
330
104
100
AcDbEntity
  8
化粧台
  6
CONTINUOUS
 62
     3
  0
LINE
  5
108
330
1F
100
AcDbEntity
  8
化粧台
  6
CONTINUOUS
 62
     3
100
AcDbLine
 10
2405.741401632997
 20
2271.064649591751
 30
0.0
 11
2450.0
 21
2260.0
 31
0.0
  0
LINE
  5
109
330
1F
100
AcDbEntity
  8
化粧台
  6
CONTINUOUS
 62
     3
100
AcDbLine
 10
2450.0
 20
2260.0
 30
0.0
 11
2411.722293304213
 21
2284.820700435549
 31
0.0
  0
POLYLINE
  5
10A
330
1F
100
AcDbEntity
  8
化粧台
  6
CONTINUOUS
 62
     3
100
AcDb2dPolyline
 66
     1
 10
0.0
 20
0.0
 30
0.0
 70
   128
  0
VERTEX
  5
10B
330
10A
100
AcDbEntity
  8
化粧台
  6
CONTINUOUS
 62
     3
100
AcDbVertex
100
AcDb2dVertex
 10
1947.999999999997
 20
1088.0
 30
0.0
  0
VERTEX
  5
10C
330
10A
100
AcDbEntity
  8
化粧台
  6
CONTINUOUS
 62
     3
100
AcDbVertex
100
AcDb2dVertex
 10
1928.999999999997
 20
1137.0
 30
0.0
  0
SEQEND
  5
10D
330
10A
100
AcDbEntity
  8
化粧台
  6
CONTINUOUS
 62
     3
  0
LINE
  5
10E
330
1F
100
AcDbEntity
  8
化粧台
  6
CONTINUOUS
 62
     3
100
AcDbLine
 10
1924.738536730782
 20
1127.244799994075
 30
0.0
 11
1947.999999999997
 21
1088.0
 31
0.0
  0
LINE
  5
10F
330
1F
100
AcDbEntity
  8
化粧台
  6
CONTINUOUS
 62
     3
100
AcDbLine
 10
1947.999999999997
 20
1088.0
 30
0.0
 11
1938.723956365034
 21
1132.667717811438
 31
0.0
  0
LINE
  5
110
330
1F
100
AcDbEntity
  8
化粧台
  6
CONTINUOUS
 62
     2
100
AcDbLine
 10
672.0000000000073
 20
1337.999999999999
 30
0.0
 11
1167.999999999988
 21
1338.0
 31
0.0
  0
LINE
  5
111
330
1F
100
AcDbEntity
  8
化粧台
  6
CONTINUOUS
 62
     2
100
AcDbLine
 10
672.0000000000073
 20
1737.999999999999
 30
0.0
 11
1167.999999999987
 21
1738.000000000001
 31
0.0
  0
LINE
  5
112
330
1F
100
AcDbEntity
  8
化粧台
  6
CONTINUOUS
 62
     2
100
AcDbLine
 10
620.0
 20
1787.999999999999
 30
0.0
 11
1219.999999999997
 21
1787.999999999999
 31
0.0
  0
LINE
  5
113
330
1F
100
AcDbEntity
  8
化粧台
  6
EXLTYPE4
 62
     6
100
AcDbLine
 10
1728.999999999997
 20
1088.0
 30
0.0
 11
320.0
 21
1088.0
 31
0.0
  0
CIRCLE
  5
114
330
1F
100
AcDbEntity
  8
化粧台
  6
CONTINUOUS
 62
     2
100
AcDbCircle
 10
1087.999999999998
 20
1707.999999999999
 30
0.0
 40
5.0
  0
LINE
  5
115
330
1F
100
AcDbEntity
  8
化粧台
  6
CONTINUOUS
 62
     6
100
AcDbLine
 10
1074.999999999997
 20
1707.999999999999
 30
0.0
 11
1100.999999999997
 21
1707.999999999999
 31
0.0
  0
LINE
  5
116
330
1F
100
AcDbEntity
  8
化粧台
  6
CONTINUOUS
 62
     6
100
AcDbLine
 10
1087.999999999997
 20
1720.999999999999
 30
0.0
 11
1087.999999999997
 21
1694.999999999999
 31
0.0
  0
LINE
  5
117
330
1F
100
AcDbEntity
  8
化粧台
  6
CONTINUOUS
 62
     6
100
AcDbLine
 10
1209.414213562986
 20
1777.999999999999
 30
0.0
 11
1167.999999999987
 21
1736.585786436998
 31
0.0
  0
LINE
  5
118
330
1F
100
AcDbEntity
  8
化粧台
  6
CONTINUOUS
 62
     6
100
AcDbLine
 10
1217.999999999988
 20
1777.999999999999
 30
0.0
 11
1209.414213562986
 21
1777.999999999999
 31
0.0
  0
LINE
  5
119
330
1F
100
AcDbEntity
  8
化粧台
  6
CONTINUOUS
 62
     2
100
AcDbLine
 10
1168.000000000305
 20
1737.99999999969
 30
0.0
 11
1209.000000000612
 21
1778.999999999999
 31
0.0
  0
LINE
  5
11A
330
1F
100
AcDbEntity
  8
化粧台
  6
CONTINUOUS
 62
     2
100
AcDbLine
 10
1209.000000000612
 20
1778.999999999999
 30
0.0
 11
1219.999999999997
 21
1778.999999999999
 31
0.0
  0
LINE
  5
11B
330
1F
100
AcDbEntity
  8
化粧台
  6
CONTINUOUS
 62
     2
100
AcDbLine
 10
1167.999999999987
 20
1737.999999999999
 30
0.0
 11
1167.999999999988
 21
1087.999999999999
 31
0.0
  0
LINE
  5
11C
330
1F
100
AcDbEntity
  8
化粧台
  6
CONTINUOUS
 62
     2
100
AcDbLine
 10
1217.999999999988
 20
1778.999999999999
 30
0.0
 11
1217.99999999999
 21
1087.999999999999
 31
0.0
  0
LINE
  5
11D
330
1F
100
AcDbEntity
  8
化粧台
  6
CONTINUOUS
 62
     2
100
AcDbLine
 10
1167.999999999988
 20
1087.999999999999
 30
0.0
 11
1217.999999999988
 21
1087.999999999999
 31
0.0
  0
LINE
  5
11E
330
1F
100
AcDbEntity
  8
化粧台
  6
CONTINUOUS
 62
     2
100
AcDbLine
 10
1219.999999999997
 20
1787.999999999999
 30
0.0
 11
1219.999999999997
 21
1778.999999999999
 31
0.0
  0
CIRCLE
  5
11F
330
1F
100
AcDbEntity
  8
化粧台
  6
CONTINUOUS
 62
     2
100
AcDbCircle
 10
752.0
 20
1707.999999999999
 30
0.0
 40
5.0
  0
LINE
  5
120
330
1F
100
AcDbEntity
  8
化粧台
  6
CONTINUOUS
 62
     6
100
AcDbLine
 10
764.9999999999991
 20
1707.999999999999
 30
0.0
 11
738.9999999999991
 21
1707.999999999999
 31
0.0
  0
LINE
  5
121
330
1F
100
AcDbEntity
  8
化粧台
  6
CONTINUOUS
 62
     6
100
AcDbLine
 10
752.0000000000009
 20
1720.999999999999
 30
0.0
 11
752.0000000000009
 21
1694.999999999999
 31
0.0
  0
LINE
  5
122
330
1F
100
AcDbEntity
  8
化粧台
  6
CONTINUOUS
 62
     6
100
AcDbLine
 10
630.5857864370082
 20
1777.999999999999
 30
0.0
 11
622.0000000000073
 21
1777.999999999999
 31
0.0
  0
LINE
  5
123
330
1F
100
AcDbEntity
  8
化粧台
  6
CONTINUOUS
 62
     6
100
AcDbLine
 10
672.0000000000073
 20
1736.585786436999
 30
0.0
 11
630.5857864370082
 21
1777.999999999999
 31
0.0
  0
LINE
  5
124
330
1F
100
AcDbEntity
  8
化粧台
  6
CONTINUOUS
 62
     2
100
AcDbLine
 10
671.9999999996908
 20
1737.99999999969
 30
0.0
 11
630.9999999993815
 21
1778.999999999999
 31
0.0
  0
LINE
  5
125
330
1F
100
AcDbEntity
  8
化粧台
  6
CONTINUOUS
 62
     2
100
AcDbLine
 10
630.9999999993815
 20
1778.999999999999
 30
0.0
 11
620.0
 21
1778.999999999999
 31
0.0
  0
LINE
  5
126
330
1F
100
AcDbEntity
  8
化粧台
  6
CONTINUOUS
 62
     2
100
AcDbLine
 10
672.0000000000073
 20
1737.999999999999
 30
0.0
 11
672.0000000000073
 21
1087.999999999999
 31
0.0
  0
LINE
  5
127
330
1F
100
AcDbEntity
  8
化粧台
  6
CONTINUOUS
 62
     2
100
AcDbLine
 10
622.0000000000073
 20
1778.999999999999
 30
0.0
 11
622.0000000000073
 21
1087.999999999999
 31
0.0
  0
LINE
  5
128
330
1F
100
AcDbEntity
  8
化粧台
  6
CONTINUOUS
 62
     2
100
AcDbLine
 10
672.0000000000073
 20
1087.999999999999
 30
0.0
 11
622.0000000000073
 21
1087.999999999999
 31
0.0
  0
LINE
  5
129
330
1F
100
AcDbEntity
  8
化粧台
  6
CONTINUOUS
 62
     2
100
AcDbLine
 10
620.0
 20
1787.999999999999
 30
0.0
 11
620.0
 21
1778.999999999999
 31
0.0
  0
LINE
  5
12A
330
1F
100
AcDbEntity
  8
化粧台
  6
EXLTYPE3
 62
     6
100
AcDbLine
 10
2191.999999999982
 20
1798.0
 30
0.0
 11
2191.999999999982
 21
1545.000000000001
 31
0.0
  0
LINE
  5
12B
330
1F
100
AcDbEntity
  8
化粧台
  6
EXLTYPE2
 62
     6
100
AcDbLine
 10
2019.999999999997
 20
1737.9999999994
 30
0.0
 11
2450.000000000002
 21
1737.9999999994
 31
0.0
  0
LINE
  5
12C
330
1F
100
AcDbEntity
  8
化粧台
  6
CONTINUOUS
 62
     2
100
AcDbLine
 10
2450.000000000002
 20
1788.0
 30
0.0
 11
2019.999999999997
 21
1788.0
 31
0.0
  0
LINE
  5
12D
330
1F
100
AcDbEntity
  8
化粧台
  6
CONTINUOUS
 62
     2
100
AcDbLine
 10
2019.999999999998
 20
1088.0
 30
0.0
 11
2450.0
 21
1088.0
 31
0.0
  0
LINE
  5
12E
330
1F
100
AcDbEntity
  8
化粧台
  6
CONTINUOUS
 62
     2
100
AcDbLine
 10
2019.999999999998
 20
1788.0
 30
0.0
 11
2019.999999999998
 21
1088.0
 31
0.0
  0
LINE
  5
12F
330
1F
100
AcDbEntity
  8
化粧台
  6
CONTINUOUS
 62
     6
100
AcDbLine
 10
2448.500000000004
 20
1588.5
 30
0.0
 11
2473.5
 21
1588.5
 31
0.0
  0
LINE
  5
130
330
1F
100
AcDbEntity
  8
化粧台
  6
CONTINUOUS
 62
     6
100
AcDbLine
 10
2473.5
 20
1537.5
 30
0.0
 11
2473.5
 21
1588.5
 31
0.0
  0
LINE
  5
131
330
1F
100
AcDbEntity
  8
化粧台
  6
CONTINUOUS
 62
     6
100
AcDbLine
 10
2448.500000000004
 20
1537.5
 30
0.0
 11
2473.5
 21
1537.5
 31
0.0
  0
LINE
  5
132
330
1F
100
AcDbEntity
  8
化粧台
  6
EXLTYPE2
 62
     6
100
AcDbLine
 10
2431.4
 20
1337.9999999994
 30
0.0
 11
2448.9
 21
1337.9999999994
 31
0.0
  0
LINE
  5
133
330
1F
100
AcDbEntity
  8
化粧台
  6
EXLTYPE2
 62
     6
100
AcDbLine
 10
2431.4
 20
1737.9999999992
 30
0.0
 11
2431.4
 21
1337.9999999994
 31
0.0
  0
LINE
  5
134
330
1F
100
AcDbEntity
  8
化粧台
  6
EXLTYPE3
 62
     6
100
AcDbLine
 10
2483.5
 20
1563.0
 30
0.0
 11
2306.0
 21
1563.0
 31
0.0
  0
ARC
  5
135
330
1F
100
AcDbEntity
  8
化粧台
  6
EXLTYPE2
 62
     6
100
AcDbCircle
 10
2254.0
 20
1517.99999999995
 30
0.0
 40
10.0
100
AcDbArc
 50
143.1301023541561
 51
216.8698976458443
  0
ARC
  5
136
330
1F
100
AcDbEntity
  8
化粧台
  6
EXLTYPE2
 62
     6
100
AcDbCircle
 10
2282.0
 20
1517.99999999995
 30
0.0
 40
10.0
100
AcDbArc
 50
323.1301023541562
 51
36.869897645844
  0
LINE
  5
137
330
1F
100
AcDbEntity
  8
化粧台
  6
EXLTYPE2
 62
     6
100
AcDbLine
 10
2246.0
 20
1511.999999999949
 30
0.0
 11
2290.0
 21
1511.999999999949
 31
0.0
  0
LINE
  5
138
330
1F
100
AcDbEntity
  8
化粧台
  6
EXLTYPE2
 62
     6
100
AcDbLine
 10
2246.0
 20
1523.99999999995
 30
0.0
 11
2290.0
 21
1523.99999999995
 31
0.0
  0
ELLIPSE
  5
139
330
1F
100
AcDbEntity
  8
化粧台
  6
EXLTYPE2
 62
     6
100
AcDbEllipse
 10
2286.64343196472
 20
1517.99999999995
 30
0.0
 11
3.673969509765456E-16
 21
6.000047544032152
 31
0.0
210
0.0
220
0.0
230
1.0
 40
0.8927542650237573
 41
0.0
 42
6.283185307179586
  0
ELLIPSE
  5
13A
330
1F
100
AcDbEntity
  8
化粧台
  6
EXLTYPE2
 62
     6
100
AcDbEllipse
 10
2268.0
 20
1517.99999999995
 30
0.0
 11
10.66536450385001
 21
0.0
 31
0.0
210
0.0
220
0.0
230
1.0
 40
0.5625686771262349
 41
0.0
 42
6.283185307179586
  0
ELLIPSE
  5
13B
330
1F
100
AcDbEntity
  8
化粧台
  6
EXLTYPE2
 62
     6
100
AcDbEllipse
 10
2249.356568035281
 20
1517.99999999995
 30
0.0
 11
3.673969509765480E-16
 21
6.00004754403219
 31
0.0
210
0.0
220
0.0
230
1.0
 40
0.8927542650237517
 41
0.0
 42
6.283185307179586
  0
LINE
  5
13C
330
1F
100
AcDbEntity
  8
化粧台
  6
EXLTYPE2
 62
     6
100
AcDbLine
 10
2252.0
 20
1511.999999999949
 30
0.0
 11
2252.0
 21
1508.999999999949
 31
0.0
  0
LINE
  5
13D
330
1F
100
AcDbEntity
  8
化粧台
  6
EXLTYPE2
 62
     6
100
AcDbLine
 10
2284.0
 20
1511.999999999949
 30
0.0
 11
2284.0
 21
1508.99999999995
 31
0.0
  0
LINE
  5
13E
330
1F
100
AcDbEntity
  8
化粧台
  6
EXLTYPE2
 62
     6
100
AcDbLine
 10
2306.000000000002
 20
1547.000000000002
 30
0.0
 11
2389.900000000002
 21
1547.000000000002
 31
0.0
  0
LINE
  5
13F
330
1F
100
AcDbEntity
  8
化粧台
  6
EXLTYPE2
 62
     6
100
AcDbLine
 10
2306.0
 20
1579.000000000002
 30
0.0
 11
2389.900000000002
 21
1579.000000000002
 31
0.0
  0
LINE
  5
140
330
1F
100
AcDbEntity
  8
化粧台
  6
EXLTYPE2
 62
     6
100
AcDbLine
 10
2443.5
 20
1543.000000000002
 30
0.0
 11
2446.500000000004
 21
1543.000000000002
 31
0.0
  0
LINE
  5
141
330
1F
100
AcDbEntity
  8
化粧台
  6
EXLTYPE2
 62
     6
100
AcDbLine
 10
2443.5
 20
1583.000000000002
 30
0.0
 11
2446.500000000004
 21
1583.000000000002
 31
0.0
  0
LINE
  5
142
330
1F
100
AcDbEntity
  8
化粧台
  6
EXLTYPE2
 62
     6
100
AcDbLine
 10
2446.500000000004
 20
1593.0
 30
0.0
 11
2448.5
 21
1593.0
 31
0.0
  0
LINE
  5
143
330
1F
100
AcDbEntity
  8
化粧台
  6
EXLTYPE2
 62
     6
100
AcDbLine
 10
2446.500000000004
 20
1533.0
 30
0.0
 11
2448.5
 21
1533.0
 31
0.0
  0
LINE
  5
144
330
1F
100
AcDbEntity
  8
化粧台
  6
EXLTYPE2
 62
     6
100
AcDbLine
 10
2446.500000000004
 20
1533.0
 30
0.0
 11
2446.500000000004
 21
1593.0
 31
0.0
  0
LINE
  5
145
330
1F
100
AcDbEntity
  8
化粧台
  6
EXLTYPE2
 62
     6
100
AcDbLine
 10
2448.500000000004
 20
1533.0
 30
0.0
 11
2448.500000000004
 21
1593.0
 31
0.0
  0
LINE
  5
146
330
1F
100
AcDbEntity
  8
化粧台
  6
EXLTYPE2
 62
     6
100
AcDbLine
 10
2443.5
 20
1541.0
 30
0.0
 11
2443.5
 21
1585.0
 31
0.0
  0
LINE
  5
147
330
1F
100
AcDbEntity
  8
化粧台
  6
EXLTYPE2
 62
     6
100
AcDbLine
 10
2431.5
 20
1541.0
 30
0.0
 11
2431.5
 21
1585.0
 31
0.0
  0
ELLIPSE
  5
148
330
1F
100
AcDbEntity
  8
化粧台
  6
EXLTYPE2
 62
     6
100
AcDbEllipse
 10
2437.5
 20
1544.35656803528
 30
0.0
 11
-6.00004754403219
 21
-4.594318843831032E-15
 31
0.0
210
0.0
220
0.0
230
1.0
 40
0.8927542650237517
 41
0.0
 42
6.283185307179586
  0
ELLIPSE
  5
149
330
1F
100
AcDbEntity
  8
化粧台
  6
EXLTYPE2
 62
     6
100
AcDbEllipse
 10
2437.5
 20
1563.0
 30
0.0
 11
-6.451494717847500E-15
 21
10.66536450385001
 31
0.0
210
0.0
220
0.0
230
1.0
 40
0.5625686771262349
 41
0.0
 42
6.283185307179586
  0
ELLIPSE
  5
14A
330
1F
100
AcDbEntity
  8
化粧台
  6
EXLTYPE2
 62
     6
100
AcDbEllipse
 10
2437.5
 20
1581.64343196472
 30
0.0
 11
-6.000047544032152
 21
-4.594318843831003E-15
 31
0.0
210
0.0
220
0.0
230
1.0
 40
0.8927542650237573
 41
0.0
 42
6.283185307179586
  0
ARC
  5
14B
330
1F
100
AcDbEntity
  8
化粧台
  6
EXLTYPE2
 62
     6
100
AcDbCircle
 10
2437.5
 20
1577.0
 30
0.0
 40
10.0
100
AcDbArc
 50
53.13010235415626
 51
126.869897645844
  0
ARC
  5
14C
330
1F
100
AcDbEntity
  8
化粧台
  6
EXLTYPE2
 62
     6
100
AcDbCircle
 10
2437.5
 20
1549.0
 30
0.0
 40
10.0
100
AcDbArc
 50
233.1301023541561
 51
306.8698976458444
  0
LINE
  5
14D
330
1F
100
AcDbEntity
  8
化粧台
  6
EXLTYPE2
 62
     6
100
AcDbLine
 10
2400.902990000001
 20
1530.000000000001
 30
0.0
 11
2429.900000000002
 21
1530.000000000001
 31
0.0
  0
LINE
  5
14E
330
1F
100
AcDbEntity
  8
化粧台
  6
EXLTYPE2
 62
     6
100
AcDbLine
 10
2400.902990000001
 20
1596.000000000001
 30
0.0
 11
2429.900000000002
 21
1596.000000000001
 31
0.0
  0
LINE
  5
14F
330
1F
100
AcDbEntity
  8
化粧台
  6
EXLTYPE2
 62
     6
100
AcDbLine
 10
2429.900000000002
 20
1596.000000000001
 30
0.0
 11
2429.900000000002
 21
1530.000000000001
 31
0.0
  0
ARC
  5
150
330
1F
100
AcDbEntity
  8
化粧台
  6
EXLTYPE2
 62
     6
100
AcDbCircle
 10
2400.902990000001
 20
1541.002992000001
 30
0.0
 40
11.002992
100
AcDbArc
 50
180.0000000000002
 51
270.0000000000002
  0
ARC
  5
151
330
1F
100
AcDbEntity
  8
化粧台
  6
EXLTYPE2
 62
     6
100
AcDbCircle
 10
2400.902990000001
 20
1584.997008
 30
0.0
 40
11.002992
100
AcDbArc
 50
90.00000000000009
 51
180.0000000000002
  0
LINE
  5
152
330
1F
100
AcDbEntity
  8
化粧台
  6
EXLTYPE2
 62
     6
100
AcDbLine
 10
2389.900000000002
 20
1584.997008
 30
0.0
 11
2389.900000000002
 21
1541.002992000001
 31
0.0
  0
ARC
  5
153
330
1F
100
AcDbEntity
  8
化粧台
  6
EXLTYPE2
 62
     6
100
AcDbCircle
 10
2306.000000000002
 20
1524.999999999949
 30
0.0
 40
22.00000000000069
100
AcDbArc
 50
90.00000000000004
 51
182.6052512650556
  0
ARC
  5
154
330
1F
100
AcDbEntity
  8
化粧台
  6
EXLTYPE2
 62
     6
100
AcDbCircle
 10
2306.0
 20
1524.999999999948
 30
0.0
 40
54.00000000000068
100
AcDbArc
 50
90.00000000000004
 51
181.0610936076217
  0
ARC
  5
155
330
1F
100
AcDbEntity
  8
化粧台
  6
EXLTYPE2
 62
     6
100
AcDbCircle
 10
2178.0
 20
1600.99999999995
 30
0.0
 40
10.0
100
AcDbArc
 50
143.1301023541561
 51
216.8698976458443
  0
ARC
  5
156
330
1F
100
AcDbEntity
  8
化粧台
  6
EXLTYPE2
 62
     6
100
AcDbCircle
 10
2206.0
 20
1600.99999999995
 30
0.0
 40
10.0
100
AcDbArc
 50
323.1301023541562
 51
36.869897645844
  0
LINE
  5
157
330
1F
100
AcDbEntity
  8
化粧台
  6
EXLTYPE2
 62
     6
100
AcDbLine
 10
2170.0
 20
1594.99999999995
 30
0.0
 11
2214.0
 21
1594.99999999995
 31
0.0
  0
ELLIPSE
  5
158
330
1F
100
AcDbEntity
  8
化粧台
  6
EXLTYPE2
 62
     6
100
AcDbEllipse
 10
2210.64343196472
 20
1600.99999999995
 30
0.0
 11
3.673969509765456E-16
 21
6.000047544032152
 31
0.0
210
0.0
220
0.0
230
1.0
 40
0.8927542650237573
 41
0.0
 42
6.283185307179586
  0
ELLIPSE
  5
159
330
1F
100
AcDbEntity
  8
化粧台
  6
EXLTYPE2
 62
     6
100
AcDbEllipse
 10
2192.0
 20
1600.99999999995
 30
0.0
 11
10.66536450385001
 21
0.0
 31
0.0
210
0.0
220
0.0
230
1.0
 40
0.5625686771262349
 41
0.0
 42
6.283185307179586
  0
ELLIPSE
  5
15A
330
1F
100
AcDbEntity
  8
化粧台
  6
EXLTYPE2
 62
     6
100
AcDbEllipse
 10
2173.356568035281
 20
1600.99999999995
 30
0.0
 11
3.673969509765480E-16
 21
6.00004754403219
 31
0.0
210
0.0
220
0.0
230
1.0
 40
0.8927542650237517
 41
0.0
 42
6.283185307179586
  0
LINE
  5
15B
330
1F
100
AcDbEntity
  8
化粧台
  6
EXLTYPE2
 62
     6
100
AcDbLine
 10
2175.25
 20
1594.99999999995
 30
0.0
 11
2175.25
 21
1545.774886499951
 31
0.0
  0
LINE
  5
15C
330
1F
100
AcDbEntity
  8
化粧台
  6
EXLTYPE2
 62
     6
100
AcDbLine
 10
2208.749999999999
 20
1594.99999999995
 30
0.0
 11
2208.749999999999
 21
1545.774886499951
 31
0.0
  0
LINE
  5
15D
330
1F
100
AcDbEntity
  8
化粧台
  6
EXLTYPE2
 62
     6
100
AcDbLine
 10
2208.750000000031
 20
1545.77488649992
 30
0.0
 11
2208.0
 21
1545.024886499889
 31
0.0
  0
LINE
  5
15E
330
1F
100
AcDbEntity
  8
化粧台
  6
EXLTYPE2
 62
     6
100
AcDbLine
 10
2175.250000000013
 20
1545.774886499962
 30
0.0
 11
2176.0
 21
1545.024886499973
 31
0.0
  0
LINE
  5
15F
330
1F
100
AcDbEntity
  8
化粧台
  6
EXLTYPE2
 62
     6
100
AcDbLine
 10
2176.0
 20
1545.399886499969
 30
0.0
 11
2208.0
 21
1545.399886499969
 31
0.0
  0
ARC
  5
160
330
1F
100
AcDbEntity
  8
化粧台
  6
EXLTYPE2
 62
     6
100
AcDbCircle
 10
2230.0
 20
1508.99999999995
 30
0.0
 40
54.00000000000048
100
AcDbArc
 50
179.9999999999998
 51
0.0
  0
ARC
  5
161
330
1F
100
AcDbEntity
  8
化粧台
  6
EXLTYPE2
 62
     6
100
AcDbCircle
 10
2230.0
 20
1508.99999999995
 30
0.0
 40
21.99999999999954
100
AcDbArc
 50
179.9999999999995
 51
0.0
  0
LINE
  5
162
330
1F
100
AcDbEntity
  8
化粧台
  6
EXLTYPE2
 62
     6
100
AcDbLine
 10
2208.0
 20
1545.024886499889
 30
0.0
 11
2208.0
 21
1508.999999999949
 31
0.0
  0
LINE
  5
163
330
1F
100
AcDbEntity
  8
化粧台
  6
EXLTYPE2
 62
     6
100
AcDbLine
 10
2176.0
 20
1545.024886499969
 30
0.0
 11
2176.0
 21
1508.999999999951
 31
0.0
  0
LINE
  5
164
330
1F
100
AcDbEntity
  8
化粧台
  6
EXLTYPE2
 62
     6
100
AcDbLine
 10
2170.0
 20
1606.99999999995
 30
0.0
 11
2214.0
 21
1606.99999999995
 31
0.0
  0
LINE
  5
165
330
1F
100
AcDbEntity
  8
化粧台
  6
EXLTYPE4
 62
     6
100
AcDbLine
 10
2380.5
 20
1288.0
 30
0.0
 11
2380.5
 21
1080.0
 31
0.0
  0
LINE
  5
166
330
1F
100
AcDbEntity
  8
化粧台
  6
EXLTYPE4
 62
     6
100
AcDbLine
 10
2359.5
 20
1288.0
 30
0.0
 11
2359.5
 21
1080.0
 31
0.0
  0
LINE
  5
167
330
1F
100
AcDbEntity
  8
化粧台
  6
EXLTYPE3
 62
     6
100
AcDbLine
 10
2370.0
 20
1298.0
 30
0.0
 11
2370.0
 21
1070.0
 31
0.0
  0
LINE
  5
168
330
1F
100
AcDbEntity
  8
化粧台
  6
EXLTYPE3
 62
     6
100
AcDbLine
 10
2320.0
 20
1298.0
 30
0.0
 11
2320.0
 21
1048.0
 31
0.0
  0
LINE
  5
169
330
1F
100
AcDbEntity
  8
化粧台
  6
EXLTYPE4
 62
     6
100
AcDbLine
 10
2304.000000000002
 20
1288.0
 30
0.0
 11
2304.000000000002
 21
1058.0
 31
0.0
  0
LINE
  5
16A
330
1F
100
AcDbEntity
  8
化粧台
  6
EXLTYPE4
 62
     6
100
AcDbLine
 10
2336.000000000002
 20
1288.0
 30
0.0
 11
2336.000000000002
 21
1058.0
 31
0.0
  0
LINE
  5
16B
330
1F
100
AcDbEntity
  8
化粧台
  6
CONTINUOUS
 62
     6
100
AcDbLine
 10
2304.000000000002
 20
1058.0
 30
0.0
 11
2336.000000000002
 21
1058.0
 31
0.0
  0
LINE
  5
16C
330
1F
100
AcDbEntity
  8
化粧台
  6
CONTINUOUS
 62
     6
100
AcDbLine
 10
2380.5
 20
1080.0
 30
0.0
 11
2359.5
 21
1080.0
 31
0.0
  0
LINE
  5
16D
330
1F
100
AcDbEntity
  8
化粧台
  6
EXLTYPE3
 62
     6
100
AcDbLine
 10
2317.5
 20
1633.0
 30
0.0
 11
2488.499999999999
 21
1633.0
 31
0.0
  0
LINE
  5
16E
330
1F
100
AcDbEntity
  8
化粧台
  6
EXLTYPE4
 62
     6
100
AcDbLine
 10
2327.5
 20
1617.000000000002
 30
0.0
 11
2478.499999999999
 21
1617.000000000002
 31
0.0
  0
LINE
  5
16F
330
1F
100
AcDbEntity
  8
化粧台
  6
EXLTYPE4
 62
     6
100
AcDbLine
 10
2327.5
 20
1649.000000000001
 30
0.0
 11
2478.499999999999
 21
1649.0
 31
0.0
  0
LINE
  5
170
330
1F
100
AcDbEntity
  8
化粧台
  6
CONTINUOUS
 62
     6
100
AcDbLine
 10
2478.5
 20
1617.000000000001
 30
0.0
 11
2478.5
 21
1649.0
 31
0.0
  0
LINE
  5
171
330
1F
100
AcDbEntity
  8
化粧台
  6
EXLTYPE2
 62
     6
100
AcDbLine
 10
2247.500000000002
 20
1738.5
 30
0.0
 11
2242.500000000002
 21
1738.5
 31
0.0
  0
LINE
  5
172
330
1F
100
AcDbEntity
  8
化粧台
  6
EXLTYPE2
 62
     6
100
AcDbLine
 10
2176.000000000002
 20
1731.0
 30
0.0
 11
2172.000000000002
 21
1733.0
 31
0.0
  0
LINE
  5
173
330
1F
100
AcDbEntity
  8
化粧台
  6
EXLTYPE2
 62
     6
100
AcDbLine
 10
2208.000000000002
 20
1731.0
 30
0.0
 11
2212.000000000002
 21
1733.0
 31
0.0
  0
LINE
  5
174
330
1F
100
AcDbEntity
  8
化粧台
  6
EXLTYPE2
 62
     6
100
AcDbLine
 10
2208.000000000002
 20
1731.0
 30
0.0
 11
2176.000000000002
 21
1731.0
 31
0.0
  0
LINE
  5
175
330
1F
100
AcDbEntity
  8
化粧台
  6
EXLTYPE2
 62
     6
100
AcDbLine
 10
2212.000000000002
 20
1733.0
 30
0.0
 11
2172.000000000002
 21
1733.0
 31
0.0
  0
LINE
  5
176
330
1F
100
AcDbEntity
  8
化粧台
  6
EXLTYPE2
 62
     6
100
AcDbLine
 10
2212.000000000002
 20
1736.821608
 30
0.0
 11
2212.000000000002
 21
1733.0
 31
0.0
  0
ARC
  5
177
330
1F
100
AcDbEntity
  8
化粧台
  6
EXLTYPE2
 62
     6
100
AcDbCircle
 10
2215.000000000002
 20
1736.821608
 30
0.0
 40
3.000000000000003
100
AcDbArc
 50
96.48307400000006
 51
180.0
  0
LINE
  5
178
330
1F
100
AcDbEntity
  8
化粧台
  6
EXLTYPE2
 62
     6
100
AcDbLine
 10
2214.661264000004
 20
1739.802424
 30
0.0
 11
2234.000000000002
 21
1742.0
 31
0.0
  0
LINE
  5
179
330
1F
100
AcDbEntity
  8
化粧台
  6
EXLTYPE2
 62
     6
100
AcDbLine
 10
2263.000000000002
 20
1739.0
 30
0.0
 11
2254.000000000002
 21
1739.0
 31
0.0
  0
ARC
  5
17A
330
1F
100
AcDbEntity
  8
化粧台
  6
EXLTYPE2
 62
     6
100
AcDbCircle
 10
2263.000000000002
 20
1742.0
 30
0.0
 40
3.000000000000003
100
AcDbArc
 50
270.0000000000002
 51
0.0
  0
LINE
  5
17B
330
1F
100
AcDbEntity
  8
化粧台
  6
EXLTYPE2
 62
     6
100
AcDbLine
 10
2254.000000000002
 20
1738.0
 30
0.0
 11
2247.500000000002
 21
1738.0
 31
0.0
  0
LINE
  5
17C
330
1F
100
AcDbEntity
  8
化粧台
  6
EXLTYPE2
 62
     6
100
AcDbLine
 10
2242.500000000002
 20
1739.5
 30
0.0
 11
2234.000000000002
 21
1739.5
 31
0.0
  0
LINE
  5
17D
330
1F
100
AcDbEntity
  8
化粧台
  6
EXLTYPE2
 62
     6
100
AcDbLine
 10
2207.875000000002
 20
1731.0
 30
0.0
 11
2207.875000000002
 21
1606.99999999995
 31
0.0
  0
LINE
  5
17E
330
1F
100
AcDbEntity
  8
化粧台
  6
EXLTYPE2
 62
     6
100
AcDbLine
 10
2176.125000000002
 20
1731.0
 30
0.0
 11
2176.125000000002
 21
1606.99999999995
 31
0.0
  0
LINE
  5
17F
330
1F
100
AcDbEntity
  8
化粧台
  6
EXLTYPE2
 62
     6
100
AcDbLine
 10
2219.500000000004
 20
1788.0
 30
0.0
 11
2219.500000000004
 21
1786.33333333333
 31
0.0
  0
LINE
  5
180
330
1F
100
AcDbEntity
  8
化粧台
  6
EXLTYPE2
 62
     6
100
AcDbLine
 10
2164.500000000004
 20
1788.0
 30
0.0
 11
2164.500000000004
 21
1786.33333333333
 31
0.0
  0
LINE
  5
181
330
1F
100
AcDbEntity
  8
化粧台
  6
EXLTYPE2
 62
     6
100
AcDbLine
 10
2371.5
 20
1657.651716065571
 30
0.0
 11
2347.714659731244
 21
1788.0
 31
0.0
  0
LINE
  5
182
330
1F
100
AcDbEntity
  8
化粧台
  6
EXLTYPE2
 62
     6
100
AcDbLine
 10
2334.5
 20
1788.0
 30
0.0
 11
2358.5
 21
1656.475339050099
 31
0.0
  0
LINE
  5
183
330
1F
100
AcDbEntity
  8
化粧台
  6
EXLTYPE2
 62
     6
100
AcDbLine
 10
2327.630271252505
 20
1788.0
 30
0.0
 11
2308.325036024313
 21
1650.636113773615
 31
0.0
  0
LINE
  5
184
330
1F
100
AcDbEntity
  8
化粧台
  6
EXLTYPE2
 62
     6
100
AcDbLine
 10
2314.266644436768
 20
1649.801075167856
 30
0.0
 11
2333.68923668762
 21
1788.0
 31
0.0
  0
LINE
  5
185
330
1F
100
AcDbEntity
  8
化粧台
  6
EXLTYPE2
 62
     6
100
AcDbLine
 10
2341.981486687694
 20
1747.0
 30
0.0
 11
2266.000000000002
 21
1747.0
 31
0.0
  0
LINE
  5
186
330
1F
100
AcDbEntity
  8
化粧台
  6
EXLTYPE2
 62
     6
100
AcDbLine
 10
2387.000000000002
 20
1747.0
 30
0.0
 11
2355.196146418936
 21
1747.0
 31
0.0
  0
LINE
  5
187
330
1F
100
AcDbEntity
  8
化粧台
  6
EXLTYPE2
 62
     6
100
AcDbLine
 10
2340.8866349773
 20
1753.0
 30
0.0
 11
2266.000000000002
 21
1753.0
 31
0.0
  0
LINE
  5
188
330
1F
100
AcDbEntity
  8
化粧台
  6
EXLTYPE2
 62
     6
100
AcDbLine
 10
2387.000000000002
 20
1753.0
 30
0.0
 11
2354.101294708542
 21
1753.0
 31
0.0
  0
POLYLINE
  5
189
330
1F
100
AcDbEntity
  8
化粧台
  6
EXLTYPE2
 62
     6
100
AcDb2dPolyline
 66
     1
 10
0.0
 20
0.0
 30
0.0
 70
   128
  0
VERTEX
  5
18A
330
189
100
AcDbEntity
  8
化粧台
  6
EXLTYPE2
 62
     6
100
AcDbVertex
100
AcDb2dVertex
 10
2170.584808000004
 20
1774.000204
 30
0.0
  0
VERTEX
  5
18B
330
189
100
AcDbEntity
  8
化粧台
  6
EXLTYPE2
 62
     6
100
AcDbVertex
100
AcDb2dVertex
 10
2170.596946000004
 20
1773.734399999999
 30
0.0
  0
VERTEX
  5
18C
330
189
100
AcDbEntity
  8
化粧台
  6
EXLTYPE2
 62
     6
100
AcDbVertex
100
AcDb2dVertex
 10
2170.631740000003
 20
1773.476546
 30
0.0
  0
VERTEX
  5
18D
330
189
100
AcDbEntity
  8
化粧台
  6
EXLTYPE2
 62
     6
100
AcDbVertex
100
AcDb2dVertex
 10
2170.686292000004
 20
1773.23489
 30
0.0
  0
VERTEX
  5
18E
330
189
100
AcDbEntity
  8
化粧台
  6
EXLTYPE2
 62
     6
100
AcDbVertex
100
AcDb2dVertex
 10
2170.757064000004
 20
1773.010399999999
 30
0.0
  0
VERTEX
  5
18F
330
189
100
AcDbEntity
  8
化粧台
  6
EXLTYPE2
 62
     6
100
AcDbVertex
100
AcDb2dVertex
 10
2170.852764000003
 20
1772.77821
 30
0.0
  0
VERTEX
  5
190
330
189
100
AcDbEntity
  8
化粧台
  6
EXLTYPE2
 62
     6
100
AcDbVertex
100
AcDb2dVertex
 10
2170.961394000004
 20
1772.568298
 30
0.0
  0
VERTEX
  5
191
330
189
100
AcDbEntity
  8
化粧台
  6
EXLTYPE2
 62
     6
100
AcDbVertex
100
AcDb2dVertex
 10
2171.079238000004
 20
1772.380126
 30
0.0
  0
VERTEX
  5
192
330
189
100
AcDbEntity
  8
化粧台
  6
EXLTYPE2
 62
     6
100
AcDbVertex
100
AcDb2dVertex
 10
2171.308210000003
 20
1772.087611999999
 30
0.0
  0
VERTEX
  5
193
330
189
100
AcDbEntity
  8
化粧台
  6
EXLTYPE2
 62
     6
100
AcDbVertex
100
AcDb2dVertex
 10
2171.552738000004
 20
1771.845890000001
 30
0.0
  0
VERTEX
  5
194
330
189
100
AcDbEntity
  8
化粧台
  6
EXLTYPE2
 62
     6
100
AcDbVertex
100
AcDb2dVertex
 10
2171.806316000004
 20
1771.646556
 30
0.0
  0
VERTEX
  5
195
330
189
100
AcDbEntity
  8
化粧台
  6
EXLTYPE2
 62
     6
100
AcDbVertex
100
AcDb2dVertex
 10
2172.197242000004
 20
1771.405189999999
 30
0.0
  0
VERTEX
  5
196
330
189
100
AcDbEntity
  8
化粧台
  6
EXLTYPE2
 62
     6
100
AcDbVertex
100
AcDb2dVertex
 10
2172.596570000004
 20
1771.220906
 30
0.0
  0
VERTEX
  5
197
330
189
100
AcDbEntity
  8
化粧台
  6
EXLTYPE2
 62
     6
100
AcDbVertex
100
AcDb2dVertex
 10
2173.002012000003
 20
1771.084806000001
 30
0.0
  0
VERTEX
  5
198
330
189
100
AcDbEntity
  8
化粧台
  6
EXLTYPE2
 62
     6
100
AcDbVertex
100
AcDb2dVertex
 10
2173.411284000004
 20
1770.987986
 30
0.0
  0
VERTEX
  5
199
330
189
100
AcDbEntity
  8
化粧台
  6
EXLTYPE2
 62
     6
100
AcDbVertex
100
AcDb2dVertex
 10
2173.822104000003
 20
1770.921546
 30
0.0
  0
VERTEX
  5
19A
330
189
100
AcDbEntity
  8
化粧台
  6
EXLTYPE2
 62
     6
100
AcDbVertex
100
AcDb2dVertex
 10
2174.232184000003
 20
1770.876586
 30
0.0
  0
VERTEX
  5
19B
330
189
100
AcDbEntity
  8
化粧台
  6
EXLTYPE2
 62
     6
100
AcDbVertex
100
AcDb2dVertex
 10
2174.821524000003
 20
1770.840952
 30
0.0
  0
VERTEX
  5
19C
330
189
100
AcDbEntity
  8
化粧台
  6
EXLTYPE2
 62
     6
100
AcDbVertex
100
AcDb2dVertex
 10
2175.411268000004
 20
1770.841178000001
 30
0.0
  0
VERTEX
  5
19D
330
189
100
AcDbEntity
  8
化粧台
  6
EXLTYPE2
 62
     6
100
AcDbVertex
100
AcDb2dVertex
 10
2176.000600000003
 20
1770.877296000001
 30
0.0
  0
VERTEX
  5
19E
330
189
100
AcDbEntity
  8
化粧台
  6
EXLTYPE2
 62
     6
100
AcDbVertex
100
AcDb2dVertex
 10
2176.614344000004
 20
1770.95707
 30
0.0
  0
VERTEX
  5
19F
330
189
100
AcDbEntity
  8
化粧台
  6
EXLTYPE2
 62
     6
100
AcDbVertex
100
AcDb2dVertex
 10
2177.225340000003
 20
1771.095294000001
 30
0.0
  0
VERTEX
  5
1A0
330
189
100
AcDbEntity
  8
化粧台
  6
EXLTYPE2
 62
     6
100
AcDbVertex
100
AcDb2dVertex
 10
2177.562402000004
 20
1771.203774
 30
0.0
  0
VERTEX
  5
1A1
330
189
100
AcDbEntity
  8
化粧台
  6
EXLTYPE2
 62
     6
100
AcDbVertex
100
AcDb2dVertex
 10
2177.897218000004
 20
1771.342581999999
 30
0.0
  0
VERTEX
  5
1A2
330
189
100
AcDbEntity
  8
化粧台
  6
EXLTYPE2
 62
     6
100
AcDbVertex
100
AcDb2dVertex
 10
2178.226952000003
 20
1771.519844
 30
0.0
  0
VERTEX
  5
1A3
330
189
100
AcDbEntity
  8
化粧台
  6
EXLTYPE2
 62
     6
100
AcDbVertex
100
AcDb2dVertex
 10
2178.548766000004
 20
1771.743678000001
 30
0.0
  0
VERTEX
  5
1A4
330
189
100
AcDbEntity
  8
化粧台
  6
EXLTYPE2
 62
     6
100
AcDbVertex
100
AcDb2dVertex
 10
2178.782716000004
 20
1771.948528000001
 30
0.0
  0
VERTEX
  5
1A5
330
189
100
AcDbEntity
  8
化粧台
  6
EXLTYPE2
 62
     6
100
AcDbVertex
100
AcDb2dVertex
 10
2179.006626000004
 20
1772.193542000001
 30
0.0
  0
VERTEX
  5
1A6
330
189
100
AcDbEntity
  8
化粧台
  6
EXLTYPE2
 62
     6
100
AcDbVertex
100
AcDb2dVertex
 10
2179.149188000004
 20
1772.385028000001
 30
0.0
  0
VERTEX
  5
1A7
330
189
100
AcDbEntity
  8
化粧台
  6
EXLTYPE2
 62
     6
100
AcDbVertex
100
AcDb2dVertex
 10
2179.282650000003
 20
1772.601986
 30
0.0
  0
VERTEX
  5
1A8
330
189
100
AcDbEntity
  8
化粧台
  6
EXLTYPE2
 62
     6
100
AcDbVertex
100
AcDb2dVertex
 10
2179.402790000002
 20
1772.846264
 30
0.0
  0
VERTEX
  5
1A9
330
189
100
AcDbEntity
  8
化粧台
  6
EXLTYPE2
 62
     6
100
AcDbVertex
100
AcDb2dVertex
 10
2179.494372000003
 20
1773.087092
 30
0.0
  0
VERTEX
  5
1AA
330
189
100
AcDbEntity
  8
化粧台
  6
EXLTYPE2
 62
     6
100
AcDbVertex
100
AcDb2dVertex
 10
2179.567722000004
 20
1773.351294
 30
0.0
  0
VERTEX
  5
1AB
330
189
100
AcDbEntity
  8
化粧台
  6
EXLTYPE2
 62
     6
100
AcDbVertex
100
AcDb2dVertex
 10
2179.612842000003
 20
1773.600428
 30
0.0
  0
VERTEX
  5
1AC
330
189
100
AcDbEntity
  8
化粧台
  6
EXLTYPE2
 62
     6
100
AcDbVertex
100
AcDb2dVertex
 10
2179.636902000004
 20
1773.860774000001
 30
0.0
  0
VERTEX
  5
1AD
330
189
100
AcDbEntity
  8
化粧台
  6
EXLTYPE2
 62
     6
100
AcDbVertex
100
AcDb2dVertex
 10
2179.640192000003
 20
1774.000204
 30
0.0
  0
VERTEX
  5
1AE
330
189
100
AcDbEntity
  8
化粧台
  6
EXLTYPE2
 62
     6
100
AcDbVertex
100
AcDb2dVertex
 10
2179.628038000003
 20
1774.265804000001
 30
0.0
  0
VERTEX
  5
1AF
330
189
100
AcDbEntity
  8
化粧台
  6
EXLTYPE2
 62
     6
100
AcDbVertex
100
AcDb2dVertex
 10
2179.593260000004
 20
1774.52346
 30
0.0
  0
VERTEX
  5
1B0
330
189
100
AcDbEntity
  8
化粧台
  6
EXLTYPE2
 62
     6
100
AcDbVertex
100
AcDb2dVertex
 10
2179.538708000002
 20
1774.765117999999
 30
0.0
  0
VERTEX
  5
1B1
330
189
100
AcDbEntity
  8
化粧台
  6
EXLTYPE2
 62
     6
100
AcDbVertex
100
AcDb2dVertex
 10
2179.467936000003
 20
1774.989608
 30
0.0
  0
VERTEX
  5
1B2
330
189
100
AcDbEntity
  8
化粧台
  6
EXLTYPE2
 62
     6
100
AcDbVertex
100
AcDb2dVertex
 10
2179.372236000003
 20
1775.221798
 30
0.0
  0
VERTEX
  5
1B3
330
189
100
AcDbEntity
  8
化粧台
  6
EXLTYPE2
 62
     6
100
AcDbVertex
100
AcDb2dVertex
 10
2179.263606000003
 20
1775.431708
 30
0.0
  0
VERTEX
  5
1B4
330
189
100
AcDbEntity
  8
化粧台
  6
EXLTYPE2
 62
     6
100
AcDbVertex
100
AcDb2dVertex
 10
2179.145762000002
 20
1775.619882000001
 30
0.0
  0
VERTEX
  5
1B5
330
189
100
AcDbEntity
  8
化粧台
  6
EXLTYPE2
 62
     6
100
AcDbVertex
100
AcDb2dVertex
 10
2178.916790000003
 20
1775.912396
 30
0.0
  0
VERTEX
  5
1B6
330
189
100
AcDbEntity
  8
化粧台
  6
EXLTYPE2
 62
     6
100
AcDbVertex
100
AcDb2dVertex
 10
2178.672262000002
 20
1776.154116
 30
0.0
  0
VERTEX
  5
1B7
330
189
100
AcDbEntity
  8
化粧台
  6
EXLTYPE2
 62
     6
100
AcDbVertex
100
AcDb2dVertex
 10
2178.418686000003
 20
1776.353450000001
 30
0.0
  0
VERTEX
  5
1B8
330
189
100
AcDbEntity
  8
化粧台
  6
EXLTYPE2
 62
     6
100
AcDbVertex
100
AcDb2dVertex
 10
2178.027758000002
 20
1776.594818
 30
0.0
  0
VERTEX
  5
1B9
330
189
100
AcDbEntity
  8
化粧台
  6
EXLTYPE2
 62
     6
100
AcDbVertex
100
AcDb2dVertex
 10
2177.628430000003
 20
1776.7791
 30
0.0
  0
VERTEX
  5
1BA
330
189
100
AcDbEntity
  8
化粧台
  6
EXLTYPE2
 62
     6
100
AcDbVertex
100
AcDb2dVertex
 10
2177.222988000004
 20
1776.915202
 30
0.0
  0
VERTEX
  5
1BB
330
189
100
AcDbEntity
  8
化粧台
  6
EXLTYPE2
 62
     6
100
AcDbVertex
100
AcDb2dVertex
 10
2176.813716000003
 20
1777.012022000001
 30
0.0
  0
VERTEX
  5
1BC
330
189
100
AcDbEntity
  8
化粧台
  6
EXLTYPE2
 62
     6
100
AcDbVertex
100
AcDb2dVertex
 10
2176.402896000004
 20
1777.078461999999
 30
0.0
  0
VERTEX
  5
1BD
330
189
100
AcDbEntity
  8
化粧台
  6
EXLTYPE2
 62
     6
100
AcDbVertex
100
AcDb2dVertex
 10
2175.992818000003
 20
1777.123422000001
 30
0.0
  0
VERTEX
  5
1BE
330
189
100
AcDbEntity
  8
化粧台
  6
EXLTYPE2
 62
     6
100
AcDbVertex
100
AcDb2dVertex
 10
2175.403478000002
 20
1777.159056
 30
0.0
  0
VERTEX
  5
1BF
330
189
100
AcDbEntity
  8
化粧台
  6
EXLTYPE2
 62
     6
100
AcDbVertex
100
AcDb2dVertex
 10
2174.813732000003
 20
1777.15883
 30
0.0
  0
VERTEX
  5
1C0
330
189
100
AcDbEntity
  8
化粧台
  6
EXLTYPE2
 62
     6
100
AcDbVertex
100
AcDb2dVertex
 10
2174.224400000003
 20
1777.12271
 30
0.0
  0
VERTEX
  5
1C1
330
189
100
AcDbEntity
  8
化粧台
  6
EXLTYPE2
 62
     6
100
AcDbVertex
100
AcDb2dVertex
 10
2173.610658000004
 20
1777.042938000001
 30
0.0
  0
VERTEX
  5
1C2
330
189
100
AcDbEntity
  8
化粧台
  6
EXLTYPE2
 62
     6
100
AcDbVertex
100
AcDb2dVertex
 10
2172.999660000004
 20
1776.904714
 30
0.0
  0
VERTEX
  5
1C3
330
189
100
AcDbEntity
  8
化粧台
  6
EXLTYPE2
 62
     6
100
AcDbVertex
100
AcDb2dVertex
 10
2172.662598000003
 20
1776.796233999999
 30
0.0
  0
VERTEX
  5
1C4
330
189
100
AcDbEntity
  8
化粧台
  6
EXLTYPE2
 62
     6
100
AcDbVertex
100
AcDb2dVertex
 10
2172.327782000003
 20
1776.657426
 30
0.0
  0
VERTEX
  5
1C5
330
189
100
AcDbEntity
  8
化粧台
  6
EXLTYPE2
 62
     6
100
AcDbVertex
100
AcDb2dVertex
 10
2171.998048000004
 20
1776.480164000001
 30
0.0
  0
VERTEX
  5
1C6
330
189
100
AcDbEntity
  8
化粧台
  6
EXLTYPE2
 62
     6
100
AcDbVertex
100
AcDb2dVertex
 10
2171.676234000003
 20
1776.256327999999
 30
0.0
  0
VERTEX
  5
1C7
330
189
100
AcDbEntity
  8
化粧台
  6
EXLTYPE2
 62
     6
100
AcDbVertex
100
AcDb2dVertex
 10
2171.442284000003
 20
1776.05148
 30
0.0
  0
VERTEX
  5
1C8
330
189
100
AcDbEntity
  8
化粧台
  6
EXLTYPE2
 62
     6
100
AcDbVertex
100
AcDb2dVertex
 10
2171.218374000002
 20
1775.806463999999
 30
0.0
  0
VERTEX
  5
1C9
330
189
100
AcDbEntity
  8
化粧台
  6
EXLTYPE2
 62
     6
100
AcDbVertex
100
AcDb2dVertex
 10
2171.075812000003
 20
1775.61498
 30
0.0
  0
VERTEX
  5
1CA
330
189
100
AcDbEntity
  8
化粧台
  6
EXLTYPE2
 62
     6
100
AcDbVertex
100
AcDb2dVertex
 10
2170.942350000003
 20
1775.398021999999
 30
0.0
  0
VERTEX
  5
1CB
330
189
100
AcDbEntity
  8
化粧台
  6
EXLTYPE2
 62
     6
100
AcDbVertex
100
AcDb2dVertex
 10
2170.822210000004
 20
1775.153742
 30
0.0
  0
VERTEX
  5
1CC
330
189
100
AcDbEntity
  8
化粧台
  6
EXLTYPE2
 62
     6
100
AcDbVertex
100
AcDb2dVertex
 10
2170.730630000004
 20
1774.912915999999
 30
0.0
  0
VERTEX
  5
1CD
330
189
100
AcDbEntity
  8
化粧台
  6
EXLTYPE2
 62
     6
100
AcDbVertex
100
AcDb2dVertex
 10
2170.657278000003
 20
1774.648714000001
 30
0.0
  0
VERTEX
  5
1CE
330
189
100
AcDbEntity
  8
化粧台
  6
EXLTYPE2
 62
     6
100
AcDbVertex
100
AcDb2dVertex
 10
2170.612158000004
 20
1774.399579999999
 30
0.0
  0
VERTEX
  5
1CF
330
189
100
AcDbEntity
  8
化粧台
  6
EXLTYPE2
 62
     6
100
AcDbVertex
100
AcDb2dVertex
 10
2170.588098000002
 20
1774.139234
 30
0.0
  0
VERTEX
  5
1D0
330
189
100
AcDbEntity
  8
化粧台
  6
EXLTYPE2
 62
     6
100
AcDbVertex
100
AcDb2dVertex
 10
2170.584808000004
 20
1774.000204
 30
0.0
  0
SEQEND
  5
1D1
330
189
100
AcDbEntity
  8
化粧台
  6
EXLTYPE2
 62
     6
  0
POLYLINE
  5
1D2
330
1F
100
AcDbEntity
  8
化粧台
  6
EXLTYPE2
 62
     6
100
AcDb2dPolyline
 66
     1
 10
0.0
 20
0.0
 30
0.0
 70
   128
  0
VERTEX
  5
1D3
330
1D2
100
AcDbEntity
  8
化粧台
  6
EXLTYPE2
 62
     6
100
AcDbVertex
100
AcDb2dVertex
 10
2191.999996000003
 20
1770.837726
 30
0.0
  0
VERTEX
  5
1D4
330
1D2
100
AcDbEntity
  8
化粧台
  6
EXLTYPE2
 62
     6
100
AcDbVertex
100
AcDb2dVertex
 10
2192.584264000003
 20
1770.84151
 30
0.0
  0
VERTEX
  5
1D5
330
1D2
100
AcDbEntity
  8
化粧台
  6
EXLTYPE2
 62
     6
100
AcDbVertex
100
AcDb2dVertex
 10
2193.168428000003
 20
1770.853598
 30
0.0
  0
VERTEX
  5
1D6
330
1D2
100
AcDbEntity
  8
化粧台
  6
EXLTYPE2
 62
     6
100
AcDbVertex
100
AcDb2dVertex
 10
2193.752438000004
 20
1770.874954000001
 30
0.0
  0
VERTEX
  5
1D7
330
1D2
100
AcDbEntity
  8
化粧台
  6
EXLTYPE2
 62
     6
100
AcDbVertex
100
AcDb2dVertex
 10
2194.335972000003
 20
1770.906714000001
 30
0.0
  0
VERTEX
  5
1D8
330
1D2
100
AcDbEntity
  8
化粧台
  6
EXLTYPE2
 62
     6
100
AcDbVertex
100
AcDb2dVertex
 10
2194.918502000003
 20
1770.94994
 30
0.0
  0
VERTEX
  5
1D9
330
1D2
100
AcDbEntity
  8
化粧台
  6
EXLTYPE2
 62
     6
100
AcDbVertex
100
AcDb2dVertex
 10
2195.499996000003
 20
1771.005332000001
 30
0.0
  0
VERTEX
  5
1DA
330
1D2
100
AcDbEntity
  8
化粧台
  6
EXLTYPE2
 62
     6
100
AcDbVertex
100
AcDb2dVertex
 10
2196.214676000004
 20
1771.092144
 30
0.0
  0
VERTEX
  5
1DB
330
1D2
100
AcDbEntity
  8
化粧台
  6
EXLTYPE2
 62
     6
100
AcDbVertex
100
AcDb2dVertex
 10
2196.927784000004
 20
1771.205857999999
 30
0.0
  0
VERTEX
  5
1DC
330
1D2
100
AcDbEntity
  8
化粧台
  6
EXLTYPE2
 62
     6
100
AcDbVertex
100
AcDb2dVertex
 10
2197.633550000003
 20
1771.355165999999
 30
0.0
  0
VERTEX
  5
1DD
330
1D2
100
AcDbEntity
  8
化粧台
  6
EXLTYPE2
 62
     6
100
AcDbVertex
100
AcDb2dVertex
 10
2198.326208000003
 20
1771.54876
 30
0.0
  0
VERTEX
  5
1DE
330
1D2
100
AcDbEntity
  8
化粧台
  6
EXLTYPE2
 62
     6
100
AcDbVertex
100
AcDb2dVertex
 10
2198.999996000003
 20
1771.795332
 30
0.0
  0
VERTEX
  5
1DF
330
1D2
100
AcDbEntity
  8
化粧台
  6
EXLTYPE2
 62
     6
100
AcDbVertex
100
AcDb2dVertex
 10
2199.441340000003
 20
1771.998572
 30
0.0
  0
VERTEX
  5
1E0
330
1D2
100
AcDbEntity
  8
化粧台
  6
EXLTYPE2
 62
     6
100
AcDbVertex
100
AcDb2dVertex
 10
2199.863524000003
 20
1772.240342000001
 30
0.0
  0
VERTEX
  5
1E1
330
1D2
100
AcDbEntity
  8
化粧台
  6
EXLTYPE2
 62
     6
100
AcDbVertex
100
AcDb2dVertex
 10
2200.254054000003
 20
1772.527066000001
 30
0.0
  0
VERTEX
  5
1E2
330
1D2
100
AcDbEntity
  8
化粧台
  6
EXLTYPE2
 62
     6
100
AcDbVertex
100
AcDb2dVertex
 10
2200.510384000003
 20
1772.768545999999
 30
0.0
  0
VERTEX
  5
1E3
330
1D2
100
AcDbEntity
  8
化粧台
  6
EXLTYPE2
 62
     6
100
AcDbVertex
100
AcDb2dVertex
 10
2200.732678000003
 20
1773.041123999999
 30
0.0
  0
VERTEX
  5
1E4
330
1D2
100
AcDbEntity
  8
化粧台
  6
EXLTYPE2
 62
     6
100
AcDbVertex
100
AcDb2dVertex
 10
2200.856990000002
 20
1773.243904000001
 30
0.0
  0
VERTEX
  5
1E5
330
1D2
100
AcDbEntity
  8
化粧台
  6
EXLTYPE2
 62
     6
100
AcDbVertex
100
AcDb2dVertex
 10
2200.955522000002
 20
1773.46126
 30
0.0
  0
VERTEX
  5
1E6
330
1D2
100
AcDbEntity
  8
化粧台
  6
EXLTYPE2
 62
     6
100
AcDbVertex
100
AcDb2dVertex
 10
2201.022442000004
 20
1773.688918
 30
0.0
  0
VERTEX
  5
1E7
330
1D2
100
AcDbEntity
  8
化粧台
  6
EXLTYPE2
 62
     6
100
AcDbVertex
100
AcDb2dVertex
 10
2201.053858000003
 20
1773.938924
 30
0.0
  0
VERTEX
  5
1E8
330
1D2
100
AcDbEntity
  8
化粧台
  6
EXLTYPE2
 62
     6
100
AcDbVertex
100
AcDb2dVertex
 10
2201.043040000003
 20
1774.190628
 30
0.0
  0
VERTEX
  5
1E9
330
1D2
100
AcDbEntity
  8
化粧台
  6
EXLTYPE2
 62
     6
100
AcDbVertex
100
AcDb2dVertex
 10
2200.990162000004
 20
1774.436392
 30
0.0
  0
VERTEX
  5
1EA
330
1D2
100
AcDbEntity
  8
化粧台
  6
EXLTYPE2
 62
     6
100
AcDbVertex
100
AcDb2dVertex
 10
2200.900018000003
 20
1774.671262
 30
0.0
  0
VERTEX
  5
1EB
330
1D2
100
AcDbEntity
  8
化粧台
  6
EXLTYPE2
 62
     6
100
AcDbVertex
100
AcDb2dVertex
 10
2200.721402000003
 20
1774.974700000001
 30
0.0
  0
VERTEX
  5
1EC
330
1D2
100
AcDbEntity
  8
化粧台
  6
EXLTYPE2
 62
     6
100
AcDbVertex
100
AcDb2dVertex
 10
2200.496342000004
 20
1775.246302
 30
0.0
  0
VERTEX
  5
1ED
330
1D2
100
AcDbEntity
  8
化粧台
  6
EXLTYPE2
 62
     6
100
AcDbVertex
100
AcDb2dVertex
 10
2200.219596000003
 20
1775.501758
 30
0.0
  0
VERTEX
  5
1EE
330
1D2
100
AcDbEntity
  8
化粧台
  6
EXLTYPE2
 62
     6
100
AcDbVertex
100
AcDb2dVertex
 10
2199.914938000004
 20
1775.725702
 30
0.0
  0
VERTEX
  5
1EF
330
1D2
100
AcDbEntity
  8
化粧台
  6
EXLTYPE2
 62
     6
100
AcDbVertex
100
AcDb2dVertex
 10
2199.591798000004
 20
1775.920994
 30
0.0
  0
VERTEX
  5
1F0
330
1D2
100
AcDbEntity
  8
化粧台
  6
EXLTYPE2
 62
     6
100
AcDbVertex
100
AcDb2dVertex
 10
2199.087092000004
 20
1776.168718000001
 30
0.0
  0
VERTEX
  5
1F1
330
1D2
100
AcDbEntity
  8
化粧台
  6
EXLTYPE2
 62
     6
100
AcDbVertex
100
AcDb2dVertex
 10
2198.561414000004
 20
1776.37284
 30
0.0
  0
VERTEX
  5
1F2
330
1D2
100
AcDbEntity
  8
化粧台
  6
EXLTYPE2
 62
     6
100
AcDbVertex
100
AcDb2dVertex
 10
2198.021714000003
 20
1776.540186
 30
0.0
  0
VERTEX
  5
1F3
330
1D2
100
AcDbEntity
  8
化粧台
  6
EXLTYPE2
 62
     6
100
AcDbVertex
100
AcDb2dVertex
 10
2197.474940000002
 20
1776.677582
 30
0.0
  0
VERTEX
  5
1F4
330
1D2
100
AcDbEntity
  8
化粧台
  6
EXLTYPE2
 62
     6
100
AcDbVertex
100
AcDb2dVertex
 10
2196.980480000004
 20
1776.781046
 30
0.0
  0
VERTEX
  5
1F5
330
1D2
100
AcDbEntity
  8
化粧台
  6
EXLTYPE2
 62
     6
100
AcDbVertex
100
AcDb2dVertex
 10
2196.482862000003
 20
1776.86825
 30
0.0
  0
VERTEX
  5
1F6
330
1D2
100
AcDbEntity
  8
化粧台
  6
EXLTYPE2
 62
     6
100
AcDbVertex
100
AcDb2dVertex
 10
2195.982220000004
 20
1776.940790000001
 30
0.0
  0
VERTEX
  5
1F7
330
1D2
100
AcDbEntity
  8
化粧台
  6
EXLTYPE2
 62
     6
100
AcDbVertex
100
AcDb2dVertex
 10
2195.479844000004
 20
1777.000076
 30
0.0
  0
VERTEX
  5
1F8
330
1D2
100
AcDbEntity
  8
化粧台
  6
EXLTYPE2
 62
     6
100
AcDbVertex
100
AcDb2dVertex
 10
2194.975704000003
 20
1777.047712
 30
0.0
  0
VERTEX
  5
1F9
330
1D2
100
AcDbEntity
  8
化粧台
  6
EXLTYPE2
 62
     6
100
AcDbVertex
100
AcDb2dVertex
 10
2194.470706000002
 20
1777.085208
 30
0.0
  0
VERTEX
  5
1FA
330
1D2
100
AcDbEntity
  8
化粧台
  6
EXLTYPE2
 62
     6
100
AcDbVertex
100
AcDb2dVertex
 10
2193.965666000002
 20
1777.114090000001
 30
0.0
  0
VERTEX
  5
1FB
330
1D2
100
AcDbEntity
  8
化粧台
  6
EXLTYPE2
 62
     6
100
AcDbVertex
100
AcDb2dVertex
 10
2193.460260000004
 20
1777.1358
 30
0.0
  0
VERTEX
  5
1FC
330
1D2
100
AcDbEntity
  8
化粧台
  6
EXLTYPE2
 62
     6
100
AcDbVertex
100
AcDb2dVertex
 10
2192.771122000004
 20
1777.155608000001
 30
0.0
  0
VERTEX
  5
1FD
330
1D2
100
AcDbEntity
  8
化粧台
  6
EXLTYPE2
 62
     6
100
AcDbVertex
100
AcDb2dVertex
 10
2192.081752000004
 20
1777.163914000001
 30
0.0
  0
VERTEX
  5
1FE
330
1D2
100
AcDbEntity
  8
化粧台
  6
EXLTYPE2
 62
     6
100
AcDbVertex
100
AcDb2dVertex
 10
2191.392146000004
 20
1777.160003999999
 30
0.0
  0
VERTEX
  5
1FF
330
1D2
100
AcDbEntity
  8
化粧台
  6
EXLTYPE2
 62
     6
100
AcDbVertex
100
AcDb2dVertex
 10
2190.702734000003
 20
1777.14321
 30
0.0
  0
VERTEX
  5
200
330
1D2
100
AcDbEntity
  8
化粧台
  6
EXLTYPE2
 62
     6
100
AcDbVertex
100
AcDb2dVertex
 10
2190.014062000004
 20
1777.11298
 30
0.0
  0
VERTEX
  5
201
330
1D2
100
AcDbEntity
  8
化粧台
  6
EXLTYPE2
 62
     6
100
AcDbVertex
100
AcDb2dVertex
 10
2189.326132000004
 20
1777.069092
 30
0.0
  0
VERTEX
  5
202
330
1D2
100
AcDbEntity
  8
化粧台
  6
EXLTYPE2
 62
     6
100
AcDbVertex
100
AcDb2dVertex
 10
2188.518988000004
 20
1776.998610000001
 30
0.0
  0
VERTEX
  5
203
330
1D2
100
AcDbEntity
  8
化粧台
  6
EXLTYPE2
 62
     6
100
AcDbVertex
100
AcDb2dVertex
 10
2187.712534000004
 20
1776.900525999999
 30
0.0
  0
VERTEX
  5
204
330
1D2
100
AcDbEntity
  8
化粧台
  6
EXLTYPE2
 62
     6
100
AcDbVertex
100
AcDb2dVertex
 10
2186.912332000004
 20
1776.764884
 30
0.0
  0
VERTEX
  5
205
330
1D2
100
AcDbEntity
  8
化粧台
  6
EXLTYPE2
 62
     6
100
AcDbVertex
100
AcDb2dVertex
 10
2186.123948000003
 20
1776.581728000001
 30
0.0
  0
VERTEX
  5
206
330
1D2
100
AcDbEntity
  8
化粧台
  6
EXLTYPE2
 62
     6
100
AcDbVertex
100
AcDb2dVertex
 10
2185.352946000003
 20
1776.341104000001
 30
0.0
  0
VERTEX
  5
207
330
1D2
100
AcDbEntity
  8
化粧台
  6
EXLTYPE2
 62
     6
100
AcDbVertex
100
AcDb2dVertex
 10
2184.847228000003
 20
1776.13941
 30
0.0
  0
VERTEX
  5
208
330
1D2
100
AcDbEntity
  8
化粧台
  6
EXLTYPE2
 62
     6
100
AcDbVertex
100
AcDb2dVertex
 10
2184.360106000002
 20
1775.894813999999
 30
0.0
  0
VERTEX
  5
209
330
1D2
100
AcDbEntity
  8
化粧台
  6
EXLTYPE2
 62
     6
100
AcDbVertex
100
AcDb2dVertex
 10
2183.905016000003
 20
1775.598844
 30
0.0
  0
VERTEX
  5
20A
330
1D2
100
AcDbEntity
  8
化粧台
  6
EXLTYPE2
 62
     6
100
AcDbVertex
100
AcDb2dVertex
 10
2183.619550000004
 20
1775.361000000001
 30
0.0
  0
VERTEX
  5
20B
330
1D2
100
AcDbEntity
  8
化粧台
  6
EXLTYPE2
 62
     6
100
AcDbVertex
100
AcDb2dVertex
 10
2183.365984000002
 20
1775.089982
 30
0.0
  0
VERTEX
  5
20C
330
1D2
100
AcDbEntity
  8
化粧台
  6
EXLTYPE2
 62
     6
100
AcDbVertex
100
AcDb2dVertex
 10
2183.219268000003
 20
1774.886364
 30
0.0
  0
VERTEX
  5
20D
330
1D2
100
AcDbEntity
  8
化粧台
  6
EXLTYPE2
 62
     6
100
AcDbVertex
100
AcDb2dVertex
 10
2183.097776000003
 20
1774.665886000001
 30
0.0
  0
VERTEX
  5
20E
330
1D2
100
AcDbEntity
  8
化粧台
  6
EXLTYPE2
 62
     6
100
AcDbVertex
100
AcDb2dVertex
 10
2183.008364000003
 20
1774.432094
 30
0.0
  0
VERTEX
  5
20F
330
1D2
100
AcDbEntity
  8
化粧台
  6
EXLTYPE2
 62
     6
100
AcDbVertex
100
AcDb2dVertex
 10
2182.956310000004
 20
1774.183616
 30
0.0
  0
VERTEX
  5
210
330
1D2
100
AcDbEntity
  8
化粧台
  6
EXLTYPE2
 62
     6
100
AcDbVertex
100
AcDb2dVertex
 10
2182.946270000003
 20
1773.930044000001
 30
0.0
  0
VERTEX
  5
211
330
1D2
100
AcDbEntity
  8
化粧台
  6
EXLTYPE2
 62
     6
100
AcDbVertex
100
AcDb2dVertex
 10
2182.980008000003
 20
1773.678558
 30
0.0
  0
VERTEX
  5
212
330
1D2
100
AcDbEntity
  8
化粧台
  6
EXLTYPE2
 62
     6
100
AcDbVertex
100
AcDb2dVertex
 10
2183.053894000003
 20
1773.435648000001
 30
0.0
  0
VERTEX
  5
213
330
1D2
100
AcDbEntity
  8
化粧台
  6
EXLTYPE2
 62
     6
100
AcDbVertex
100
AcDb2dVertex
 10
2183.201040000004
 20
1773.142524000001
 30
0.0
  0
VERTEX
  5
214
330
1D2
100
AcDbEntity
  8
化粧台
  6
EXLTYPE2
 62
     6
100
AcDbVertex
100
AcDb2dVertex
 10
2183.393688000002
 20
1772.876420000001
 30
0.0
  0
VERTEX
  5
215
330
1D2
100
AcDbEntity
  8
化粧台
  6
EXLTYPE2
 62
     6
100
AcDbVertex
100
AcDb2dVertex
 10
2183.626104000003
 20
1772.63278
 30
0.0
  0
VERTEX
  5
216
330
1D2
100
AcDbEntity
  8
化粧台
  6
EXLTYPE2
 62
     6
100
AcDbVertex
100
AcDb2dVertex
 10
2183.885350000003
 20
1772.415838000001
 30
0.0
  0
VERTEX
  5
217
330
1D2
100
AcDbEntity
  8
化粧台
  6
EXLTYPE2
 62
     6
100
AcDbVertex
100
AcDb2dVertex
 10
2184.163024000004
 20
1772.223958
 30
0.0
  0
VERTEX
  5
218
330
1D2
100
AcDbEntity
  8
化粧台
  6
EXLTYPE2
 62
     6
100
AcDbVertex
100
AcDb2dVertex
 10
2184.580552000004
 20
1771.987118000001
 30
0.0
  0
VERTEX
  5
219
330
1D2
100
AcDbEntity
  8
化粧台
  6
EXLTYPE2
 62
     6
100
AcDbVertex
100
AcDb2dVertex
 10
2185.018312000002
 20
1771.786588000001
 30
0.0
  0
VERTEX
  5
21A
330
1D2
100
AcDbEntity
  8
化粧台
  6
EXLTYPE2
 62
     6
100
AcDbVertex
100
AcDb2dVertex
 10
2185.470082000004
 20
1771.617334
 30
0.0
  0
VERTEX
  5
21B
330
1D2
100
AcDbEntity
  8
化粧台
  6
EXLTYPE2
 62
     6
100
AcDbVertex
100
AcDb2dVertex
 10
2185.929642000003
 20
1771.474328
 30
0.0
  0
VERTEX
  5
21C
330
1D2
100
AcDbEntity
  8
化粧台
  6
EXLTYPE2
 62
     6
100
AcDbVertex
100
AcDb2dVertex
 10
2186.663138000004
 20
1771.290832000001
 30
0.0
  0
VERTEX
  5
21D
330
1D2
100
AcDbEntity
  8
化粧台
  6
EXLTYPE2
 62
     6
100
AcDbVertex
100
AcDb2dVertex
 10
2187.407028000004
 20
1771.149866
 30
0.0
  0
VERTEX
  5
21E
330
1D2
100
AcDbEntity
  8
化粧台
  6
EXLTYPE2
 62
     6
100
AcDbVertex
100
AcDb2dVertex
 10
2188.157402000003
 20
1771.043806
 30
0.0
  0
VERTEX
  5
21F
330
1D2
100
AcDbEntity
  8
化粧台
  6
EXLTYPE2
 62
     6
100
AcDbVertex
100
AcDb2dVertex
 10
2188.910356000003
 20
1770.965028000001
 30
0.0
  0
VERTEX
  5
220
330
1D2
100
AcDbEntity
  8
化粧台
  6
EXLTYPE2
 62
     6
100
AcDbVertex
100
AcDb2dVertex
 10
2189.424154000003
 20
1770.923596000001
 30
0.0
  0
VERTEX
  5
221
330
1D2
100
AcDbEntity
  8
化粧台
  6
EXLTYPE2
 62
     6
100
AcDbVertex
100
AcDb2dVertex
 10
2189.938590000004
 20
1770.891009999999
 30
0.0
  0
VERTEX
  5
222
330
1D2
100
AcDbEntity
  8
化粧台
  6
EXLTYPE2
 62
     6
100
AcDbVertex
100
AcDb2dVertex
 10
2190.453642000003
 20
1770.866755999999
 30
0.0
  0
VERTEX
  5
223
330
1D2
100
AcDbEntity
  8
化粧台
  6
EXLTYPE2
 62
     6
100
AcDbVertex
100
AcDb2dVertex
 10
2190.969002000004
 20
1770.850224
 30
0.0
  0
VERTEX
  5
224
330
1D2
100
AcDbEntity
  8
化粧台
  6
EXLTYPE2
 62
     6
100
AcDbVertex
100
AcDb2dVertex
 10
2191.484464000003
 20
1770.840768
 30
0.0
  0
VERTEX
  5
225
330
1D2
100
AcDbEntity
  8
化粧台
  6
EXLTYPE2
 62
     6
100
AcDbVertex
100
AcDb2dVertex
 10
2191.999996000003
 20
1770.837726
 30
0.0
  0
SEQEND
  5
226
330
1D2
100
AcDbEntity
  8
化粧台
  6
EXLTYPE2
 62
     6
  0
POLYLINE
  5
227
330
1F
100
AcDbEntity
  8
化粧台
  6
EXLTYPE2
 62
     6
100
AcDb2dPolyline
 66
     1
 10
0.0
 20
0.0
 30
0.0
 70
   128
  0
VERTEX
  5
228
330
227
100
AcDbEntity
  8
化粧台
  6
EXLTYPE2
 62
     6
100
AcDbVertex
100
AcDb2dVertex
 10
2204.359798000004
 20
1774.000204
 30
0.0
  0
VERTEX
  5
229
330
227
100
AcDbEntity
  8
化粧台
  6
EXLTYPE2
 62
     6
100
AcDbVertex
100
AcDb2dVertex
 10
2204.371936000004
 20
1773.734399999999
 30
0.0
  0
VERTEX
  5
22A
330
227
100
AcDbEntity
  8
化粧台
  6
EXLTYPE2
 62
     6
100
AcDbVertex
100
AcDb2dVertex
 10
2204.406730000003
 20
1773.476546
 30
0.0
  0
VERTEX
  5
22B
330
227
100
AcDbEntity
  8
化粧台
  6
EXLTYPE2
 62
     6
100
AcDbVertex
100
AcDb2dVertex
 10
2204.461282000002
 20
1773.23489
 30
0.0
  0
VERTEX
  5
22C
330
227
100
AcDbEntity
  8
化粧台
  6
EXLTYPE2
 62
     6
100
AcDbVertex
100
AcDb2dVertex
 10
2204.532054000003
 20
1773.010399999999
 30
0.0
  0
VERTEX
  5
22D
330
227
100
AcDbEntity
  8
化粧台
  6
EXLTYPE2
 62
     6
100
AcDbVertex
100
AcDb2dVertex
 10
2204.627754000003
 20
1772.77821
 30
0.0
  0
VERTEX
  5
22E
330
227
100
AcDbEntity
  8
化粧台
  6
EXLTYPE2
 62
     6
100
AcDbVertex
100
AcDb2dVertex
 10
2204.736384000004
 20
1772.568298
 30
0.0
  0
VERTEX
  5
22F
330
227
100
AcDbEntity
  8
化粧台
  6
EXLTYPE2
 62
     6
100
AcDbVertex
100
AcDb2dVertex
 10
2204.854228000002
 20
1772.380126
 30
0.0
  0
VERTEX
  5
230
330
227
100
AcDbEntity
  8
化粧台
  6
EXLTYPE2
 62
     6
100
AcDbVertex
100
AcDb2dVertex
 10
2205.083200000003
 20
1772.087611999999
 30
0.0
  0
VERTEX
  5
231
330
227
100
AcDbEntity
  8
化粧台
  6
EXLTYPE2
 62
     6
100
AcDbVertex
100
AcDb2dVertex
 10
2205.327730000003
 20
1771.845890000001
 30
0.0
  0
VERTEX
  5
232
330
227
100
AcDbEntity
  8
化粧台
  6
EXLTYPE2
 62
     6
100
AcDbVertex
100
AcDb2dVertex
 10
2205.581306000002
 20
1771.646556
 30
0.0
  0
VERTEX
  5
233
330
227
100
AcDbEntity
  8
化粧台
  6
EXLTYPE2
 62
     6
100
AcDbVertex
100
AcDb2dVertex
 10
2205.972234000003
 20
1771.405189999999
 30
0.0
  0
VERTEX
  5
234
330
227
100
AcDbEntity
  8
化粧台
  6
EXLTYPE2
 62
     6
100
AcDbVertex
100
AcDb2dVertex
 10
2206.371560000004
 20
1771.220906
 30
0.0
  0
VERTEX
  5
235
330
227
100
AcDbEntity
  8
化粧台
  6
EXLTYPE2
 62
     6
100
AcDbVertex
100
AcDb2dVertex
 10
2206.777002000003
 20
1771.084806000001
 30
0.0
  0
VERTEX
  5
236
330
227
100
AcDbEntity
  8
化粧台
  6
EXLTYPE2
 62
     6
100
AcDbVertex
100
AcDb2dVertex
 10
2207.186276000003
 20
1770.987986
 30
0.0
  0
VERTEX
  5
237
330
227
100
AcDbEntity
  8
化粧台
  6
EXLTYPE2
 62
     6
100
AcDbVertex
100
AcDb2dVertex
 10
2207.597094000003
 20
1770.921546
 30
0.0
  0
VERTEX
  5
238
330
227
100
AcDbEntity
  8
化粧台
  6
EXLTYPE2
 62
     6
100
AcDbVertex
100
AcDb2dVertex
 10
2208.007174000004
 20
1770.876586
 30
0.0
  0
VERTEX
  5
239
330
227
100
AcDbEntity
  8
化粧台
  6
EXLTYPE2
 62
     6
100
AcDbVertex
100
AcDb2dVertex
 10
2208.596514000003
 20
1770.840952
 30
0.0
  0
VERTEX
  5
23A
330
227
100
AcDbEntity
  8
化粧台
  6
EXLTYPE2
 62
     6
100
AcDbVertex
100
AcDb2dVertex
 10
2209.186260000003
 20
1770.841178000001
 30
0.0
  0
VERTEX
  5
23B
330
227
100
AcDbEntity
  8
化粧台
  6
EXLTYPE2
 62
     6
100
AcDbVertex
100
AcDb2dVertex
 10
2209.775592000004
 20
1770.877296000001
 30
0.0
  0
VERTEX
  5
23C
330
227
100
AcDbEntity
  8
化粧台
  6
EXLTYPE2
 62
     6
100
AcDbVertex
100
AcDb2dVertex
 10
2210.389334000004
 20
1770.95707
 30
0.0
  0
VERTEX
  5
23D
330
227
100
AcDbEntity
  8
化粧台
  6
EXLTYPE2
 62
     6
100
AcDbVertex
100
AcDb2dVertex
 10
2211.000332000004
 20
1771.095294000001
 30
0.0
  0
VERTEX
  5
23E
330
227
100
AcDbEntity
  8
化粧台
  6
EXLTYPE2
 62
     6
100
AcDbVertex
100
AcDb2dVertex
 10
2211.337392000004
 20
1771.203774
 30
0.0
  0
VERTEX
  5
23F
330
227
100
AcDbEntity
  8
化粧台
  6
EXLTYPE2
 62
     6
100
AcDbVertex
100
AcDb2dVertex
 10
2211.672208000002
 20
1771.342581999999
 30
0.0
  0
VERTEX
  5
240
330
227
100
AcDbEntity
  8
化粧台
  6
EXLTYPE2
 62
     6
100
AcDbVertex
100
AcDb2dVertex
 10
2212.001942000003
 20
1771.519844
 30
0.0
  0
VERTEX
  5
241
330
227
100
AcDbEntity
  8
化粧台
  6
EXLTYPE2
 62
     6
100
AcDbVertex
100
AcDb2dVertex
 10
2212.323756000004
 20
1771.743678000001
 30
0.0
  0
VERTEX
  5
242
330
227
100
AcDbEntity
  8
化粧台
  6
EXLTYPE2
 62
     6
100
AcDbVertex
100
AcDb2dVertex
 10
2212.557706000004
 20
1771.948528000001
 30
0.0
  0
VERTEX
  5
243
330
227
100
AcDbEntity
  8
化粧台
  6
EXLTYPE2
 62
     6
100
AcDbVertex
100
AcDb2dVertex
 10
2212.781616000002
 20
1772.193542000001
 30
0.0
  0
VERTEX
  5
244
330
227
100
AcDbEntity
  8
化粧台
  6
EXLTYPE2
 62
     6
100
AcDbVertex
100
AcDb2dVertex
 10
2212.924178000003
 20
1772.385028000001
 30
0.0
  0
VERTEX
  5
245
330
227
100
AcDbEntity
  8
化粧台
  6
EXLTYPE2
 62
     6
100
AcDbVertex
100
AcDb2dVertex
 10
2213.057640000003
 20
1772.601986
 30
0.0
  0
VERTEX
  5
246
330
227
100
AcDbEntity
  8
化粧台
  6
EXLTYPE2
 62
     6
100
AcDbVertex
100
AcDb2dVertex
 10
2213.177780000004
 20
1772.846264
 30
0.0
  0
VERTEX
  5
247
330
227
100
AcDbEntity
  8
化粧台
  6
EXLTYPE2
 62
     6
100
AcDbVertex
100
AcDb2dVertex
 10
2213.269362000003
 20
1773.087092
 30
0.0
  0
VERTEX
  5
248
330
227
100
AcDbEntity
  8
化粧台
  6
EXLTYPE2
 62
     6
100
AcDbVertex
100
AcDb2dVertex
 10
2213.342714000004
 20
1773.351294
 30
0.0
  0
VERTEX
  5
249
330
227
100
AcDbEntity
  8
化粧台
  6
EXLTYPE2
 62
     6
100
AcDbVertex
100
AcDb2dVertex
 10
2213.387832000003
 20
1773.600428
 30
0.0
  0
VERTEX
  5
24A
330
227
100
AcDbEntity
  8
化粧台
  6
EXLTYPE2
 62
     6
100
AcDbVertex
100
AcDb2dVertex
 10
2213.411894000003
 20
1773.860774000001
 30
0.0
  0
VERTEX
  5
24B
330
227
100
AcDbEntity
  8
化粧台
  6
EXLTYPE2
 62
     6
100
AcDbVertex
100
AcDb2dVertex
 10
2213.415184000004
 20
1774.000204
 30
0.0
  0
VERTEX
  5
24C
330
227
100
AcDbEntity
  8
化粧台
  6
EXLTYPE2
 62
     6
100
AcDbVertex
100
AcDb2dVertex
 10
2213.403028000003
 20
1774.265804000001
 30
0.0
  0
VERTEX
  5
24D
330
227
100
AcDbEntity
  8
化粧台
  6
EXLTYPE2
 62
     6
100
AcDbVertex
100
AcDb2dVertex
 10
2213.368250000004
 20
1774.52346
 30
0.0
  0
VERTEX
  5
24E
330
227
100
AcDbEntity
  8
化粧台
  6
EXLTYPE2
 62
     6
100
AcDbVertex
100
AcDb2dVertex
 10
2213.313700000003
 20
1774.765117999999
 30
0.0
  0
VERTEX
  5
24F
330
227
100
AcDbEntity
  8
化粧台
  6
EXLTYPE2
 62
     6
100
AcDbVertex
100
AcDb2dVertex
 10
2213.242928000004
 20
1774.989608
 30
0.0
  0
VERTEX
  5
250
330
227
100
AcDbEntity
  8
化粧台
  6
EXLTYPE2
 62
     6
100
AcDbVertex
100
AcDb2dVertex
 10
2213.147228000004
 20
1775.221798
 30
0.0
  0
VERTEX
  5
251
330
227
100
AcDbEntity
  8
化粧台
  6
EXLTYPE2
 62
     6
100
AcDbVertex
100
AcDb2dVertex
 10
2213.038598000003
 20
1775.431708
 30
0.0
  0
VERTEX
  5
252
330
227
100
AcDbEntity
  8
化粧台
  6
EXLTYPE2
 62
     6
100
AcDbVertex
100
AcDb2dVertex
 10
2212.920754000003
 20
1775.619882000001
 30
0.0
  0
VERTEX
  5
253
330
227
100
AcDbEntity
  8
化粧台
  6
EXLTYPE2
 62
     6
100
AcDbVertex
100
AcDb2dVertex
 10
2212.691782000004
 20
1775.912396
 30
0.0
  0
VERTEX
  5
254
330
227
100
AcDbEntity
  8
化粧台
  6
EXLTYPE2
 62
     6
100
AcDbVertex
100
AcDb2dVertex
 10
2212.447252000004
 20
1776.154116
 30
0.0
  0
VERTEX
  5
255
330
227
100
AcDbEntity
  8
化粧台
  6
EXLTYPE2
 62
     6
100
AcDbVertex
100
AcDb2dVertex
 10
2212.193676000003
 20
1776.353450000001
 30
0.0
  0
VERTEX
  5
256
330
227
100
AcDbEntity
  8
化粧台
  6
EXLTYPE2
 62
     6
100
AcDbVertex
100
AcDb2dVertex
 10
2211.802748000004
 20
1776.594818
 30
0.0
  0
VERTEX
  5
257
330
227
100
AcDbEntity
  8
化粧台
  6
EXLTYPE2
 62
     6
100
AcDbVertex
100
AcDb2dVertex
 10
2211.403422000004
 20
1776.7791
 30
0.0
  0
VERTEX
  5
258
330
227
100
AcDbEntity
  8
化粧台
  6
EXLTYPE2
 62
     6
100
AcDbVertex
100
AcDb2dVertex
 10
2210.997980000002
 20
1776.915202
 30
0.0
  0
VERTEX
  5
259
330
227
100
AcDbEntity
  8
化粧台
  6
EXLTYPE2
 62
     6
100
AcDbVertex
100
AcDb2dVertex
 10
2210.588706000003
 20
1777.012022000001
 30
0.0
  0
VERTEX
  5
25A
330
227
100
AcDbEntity
  8
化粧台
  6
EXLTYPE2
 62
     6
100
AcDbVertex
100
AcDb2dVertex
 10
2210.177888000004
 20
1777.078461999999
 30
0.0
  0
VERTEX
  5
25B
330
227
100
AcDbEntity
  8
化粧台
  6
EXLTYPE2
 62
     6
100
AcDbVertex
100
AcDb2dVertex
 10
2209.767808000003
 20
1777.123422000001
 30
0.0
  0
VERTEX
  5
25C
330
227
100
AcDbEntity
  8
化粧台
  6
EXLTYPE2
 62
     6
100
AcDbVertex
100
AcDb2dVertex
 10
2209.178468000004
 20
1777.159056
 30
0.0
  0
VERTEX
  5
25D
330
227
100
AcDbEntity
  8
化粧台
  6
EXLTYPE2
 62
     6
100
AcDbVertex
100
AcDb2dVertex
 10
2208.588722000003
 20
1777.15883
 30
0.0
  0
VERTEX
  5
25E
330
227
100
AcDbEntity
  8
化粧台
  6
EXLTYPE2
 62
     6
100
AcDbVertex
100
AcDb2dVertex
 10
2207.999390000003
 20
1777.12271
 30
0.0
  0
VERTEX
  5
25F
330
227
100
AcDbEntity
  8
化粧台
  6
EXLTYPE2
 62
     6
100
AcDbVertex
100
AcDb2dVertex
 10
2207.385648000004
 20
1777.042938000001
 30
0.0
  0
VERTEX
  5
260
330
227
100
AcDbEntity
  8
化粧台
  6
EXLTYPE2
 62
     6
100
AcDbVertex
100
AcDb2dVertex
 10
2206.774650000003
 20
1776.904714
 30
0.0
  0
VERTEX
  5
261
330
227
100
AcDbEntity
  8
化粧台
  6
EXLTYPE2
 62
     6
100
AcDbVertex
100
AcDb2dVertex
 10
2206.437590000004
 20
1776.796233999999
 30
0.0
  0
VERTEX
  5
262
330
227
100
AcDbEntity
  8
化粧台
  6
EXLTYPE2
 62
     6
100
AcDbVertex
100
AcDb2dVertex
 10
2206.102772000004
 20
1776.657426
 30
0.0
  0
VERTEX
  5
263
330
227
100
AcDbEntity
  8
化粧台
  6
EXLTYPE2
 62
     6
100
AcDbVertex
100
AcDb2dVertex
 10
2205.773040000002
 20
1776.480164000001
 30
0.0
  0
VERTEX
  5
264
330
227
100
AcDbEntity
  8
化粧台
  6
EXLTYPE2
 62
     6
100
AcDbVertex
100
AcDb2dVertex
 10
2205.451226000003
 20
1776.256327999999
 30
0.0
  0
VERTEX
  5
265
330
227
100
AcDbEntity
  8
化粧台
  6
EXLTYPE2
 62
     6
100
AcDbVertex
100
AcDb2dVertex
 10
2205.217276000003
 20
1776.05148
 30
0.0
  0
VERTEX
  5
266
330
227
100
AcDbEntity
  8
化粧台
  6
EXLTYPE2
 62
     6
100
AcDbVertex
100
AcDb2dVertex
 10
2204.993366000003
 20
1775.806463999999
 30
0.0
  0
VERTEX
  5
267
330
227
100
AcDbEntity
  8
化粧台
  6
EXLTYPE2
 62
     6
100
AcDbVertex
100
AcDb2dVertex
 10
2204.850804000004
 20
1775.61498
 30
0.0
  0
VERTEX
  5
268
330
227
100
AcDbEntity
  8
化粧台
  6
EXLTYPE2
 62
     6
100
AcDbVertex
100
AcDb2dVertex
 10
2204.717342000004
 20
1775.398021999999
 30
0.0
  0
VERTEX
  5
269
330
227
100
AcDbEntity
  8
化粧台
  6
EXLTYPE2
 62
     6
100
AcDbVertex
100
AcDb2dVertex
 10
2204.597202000003
 20
1775.153742
 30
0.0
  0
VERTEX
  5
26A
330
227
100
AcDbEntity
  8
化粧台
  6
EXLTYPE2
 62
     6
100
AcDbVertex
100
AcDb2dVertex
 10
2204.505620000004
 20
1774.912915999999
 30
0.0
  0
VERTEX
  5
26B
330
227
100
AcDbEntity
  8
化粧台
  6
EXLTYPE2
 62
     6
100
AcDbVertex
100
AcDb2dVertex
 10
2204.432268000003
 20
1774.648714000001
 30
0.0
  0
VERTEX
  5
26C
330
227
100
AcDbEntity
  8
化粧台
  6
EXLTYPE2
 62
     6
100
AcDbVertex
100
AcDb2dVertex
 10
2204.387150000003
 20
1774.399579999999
 30
0.0
  0
VERTEX
  5
26D
330
227
100
AcDbEntity
  8
化粧台
  6
EXLTYPE2
 62
     6
100
AcDbVertex
100
AcDb2dVertex
 10
2204.363088000004
 20
1774.139234
 30
0.0
  0
VERTEX
  5
26E
330
227
100
AcDbEntity
  8
化粧台
  6
EXLTYPE2
 62
     6
100
AcDbVertex
100
AcDb2dVertex
 10
2204.359798000004
 20
1774.000204
 30
0.0
  0
SEQEND
  5
26F
330
227
100
AcDbEntity
  8
化粧台
  6
EXLTYPE2
 62
     6
  0
LINE
  5
270
330
1F
100
AcDbEntity
  8
化粧台
  6
EXLTYPE2
 62
     6
100
AcDbLine
 10
2203.322576000003
 20
1777.83333333333
 30
0.0
 11
2203.322576000003
 21
1784.83333333333
 31
0.0
  0
LINE
  5
271
330
1F
100
AcDbEntity
  8
化粧台
  6
EXLTYPE2
 62
     6
100
AcDbLine
 10
2202.064512000003
 20
1777.83333333333
 30
0.0
 11
2202.064512000003
 21
1784.83333333333
 31
0.0
  0
LINE
  5
272
330
1F
100
AcDbEntity
  8
化粧台
  6
EXLTYPE2
 62
     6
100
AcDbLine
 10
2180.677416000003
 20
1777.83333333333
 30
0.0
 11
2180.677416000003
 21
1784.83333333333
 31
0.0
  0
LINE
  5
273
330
1F
100
AcDbEntity
  8
化粧台
  6
EXLTYPE2
 62
     6
100
AcDbLine
 10
2181.935480000002
 20
1777.83333333333
 30
0.0
 11
2181.935480000002
 21
1784.83333333333
 31
0.0
  0
LINE
  5
274
330
1F
100
AcDbEntity
  8
化粧台
  6
EXLTYPE2
 62
     6
100
AcDbLine
 10
2164.500000000002
 20
1787.33333333333
 30
0.0
 11
2219.500000000002
 21
1787.33333333333
 31
0.0
  0
LINE
  5
275
330
1F
100
AcDbEntity
  8
化粧台
  6
EXLTYPE2
 62
     6
100
AcDbLine
 10
2212.967736000003
 20
1777.83333333333
 30
0.0
 11
2212.967736000003
 21
1784.83333333333
 31
0.0
  0
LINE
  5
276
330
1F
100
AcDbEntity
  8
化粧台
  6
EXLTYPE2
 62
     6
100
AcDbLine
 10
2171.032256000003
 20
1777.83333333333
 30
0.0
 11
2212.967736000003
 21
1777.83333333333
 31
0.0
  0
LINE
  5
277
330
1F
100
AcDbEntity
  8
化粧台
  6
EXLTYPE2
 62
     6
100
AcDbLine
 10
2171.032256000003
 20
1777.83333333333
 30
0.0
 11
2171.032256000003
 21
1784.83333333333
 31
0.0
  0
LINE
  5
278
330
1F
100
AcDbEntity
  8
化粧台
  6
EXLTYPE2
 62
     6
100
AcDbLine
 10
2166.000000000002
 20
1784.83333333333
 30
0.0
 11
2218.000000000002
 21
1784.83333333333
 31
0.0
  0
LINE
  5
279
330
1F
100
AcDbEntity
  8
化粧台
  6
EXLTYPE2
 62
     6
100
AcDbLine
 10
2166.000000000002
 20
1784.83333333333
 30
0.0
 11
2166.000000000002
 21
1786.33333333333
 31
0.0
  0
LINE
  5
27A
330
1F
100
AcDbEntity
  8
化粧台
  6
EXLTYPE2
 62
     6
100
AcDbLine
 10
2218.000000000002
 20
1784.83333333333
 30
0.0
 11
2218.000000000002
 21
1786.33333333333
 31
0.0
  0
LINE
  5
27B
330
1F
100
AcDbEntity
  8
化粧台
  6
EXLTYPE2
 62
     6
100
AcDbLine
 10
2212.000000000002
 20
1770.5
 30
0.0
 11
2172.000000000002
 21
1770.5
 31
0.0
  0
LINE
  5
27C
330
1F
100
AcDbEntity
  8
化粧台
  6
EXLTYPE2
 62
     6
100
AcDbLine
 10
2247.500000000002
 20
1761.5
 30
0.0
 11
2242.500000000002
 21
1761.5
 31
0.0
  0
LINE
  5
27D
330
1F
100
AcDbEntity
  8
化粧台
  6
EXLTYPE2
 62
     6
100
AcDbLine
 10
2174.500000000002
 20
1777.83333333333
 30
0.0
 11
2174.500000000002
 21
1777.5
 31
0.0
  0
LINE
  5
27E
330
1F
100
AcDbEntity
  8
化粧台
  6
EXLTYPE2
 62
     6
100
AcDbLine
 10
2209.500000000002
 20
1777.83333333333
 30
0.0
 11
2209.500000000002
 21
1777.5
 31
0.0
  0
LINE
  5
27F
330
1F
100
AcDbEntity
  8
化粧台
  6
EXLTYPE2
 62
     6
100
AcDbLine
 10
2166.000000000002
 20
1786.33333333333
 30
0.0
 11
2218.000000000002
 21
1786.33333333333
 31
0.0
  0
LINE
  5
280
330
1F
100
AcDbEntity
  8
化粧台
  6
EXLTYPE2
 62
     6
100
AcDbLine
 10
2164.500000000002
 20
1786.33333333333
 30
0.0
 11
2219.500000000002
 21
1786.33333333333
 31
0.0
  0
LINE
  5
281
330
1F
100
AcDbEntity
  8
化粧台
  6
EXLTYPE2
 62
     6
100
AcDbLine
 10
2210.000000000002
 20
1777.5
 30
0.0
 11
2174.000000000002
 21
1777.5
 31
0.0
  0
ARC
  5
282
330
1F
100
AcDbEntity
  8
化粧台
  6
EXLTYPE2
 62
     6
100
AcDbCircle
 10
2210.000000000002
 20
1774.0
 30
0.0
 40
3.500000000000002
100
AcDbArc
 50
270.0000000000002
 51
90.00000000000004
  0
ARC
  5
283
330
1F
100
AcDbEntity
  8
化粧台
  6
EXLTYPE2
 62
     6
100
AcDbCircle
 10
2174.000000000002
 20
1774.0
 30
0.0
 40
3.500000000000002
100
AcDbArc
 50
90.00000000000004
 51
270.0000000000002
  0
LINE
  5
284
330
1F
100
AcDbEntity
  8
化粧台
  6
EXLTYPE2
 62
     6
100
AcDbLine
 10
2172.000000000002
 20
1770.5
 30
0.0
 11
2172.000000000002
 21
1733.0
 31
0.0
  0
ARC
  5
285
330
1F
100
AcDbEntity
  8
化粧台
  6
EXLTYPE2
 62
     6
100
AcDbCircle
 10
2215.000000000002
 20
1763.178400000001
 30
0.0
 40
3.000000000000003
100
AcDbArc
 50
180.0
 51
263.5169260000002
  0
LINE
  5
286
330
1F
100
AcDbEntity
  8
化粧台
  6
EXLTYPE2
 62
     6
100
AcDbLine
 10
2214.661264000004
 20
1760.197584
 30
0.0
 11
2234.000000000002
 21
1758.0
 31
0.0
  0
LINE
  5
287
330
1F
100
AcDbEntity
  8
化粧台
  6
EXLTYPE2
 62
     6
100
AcDbLine
 10
2212.000000000002
 20
1770.5
 30
0.0
 11
2212.000000000002
 21
1763.178400000001
 31
0.0
  0
LINE
  5
288
330
1F
100
AcDbEntity
  8
化粧台
  6
EXLTYPE2
 62
     6
100
AcDbLine
 10
2234.000000000002
 20
1760.5
 30
0.0
 11
2234.000000000002
 21
1739.5
 31
0.0
  0
LINE
  5
289
330
1F
100
AcDbEntity
  8
化粧台
  6
EXLTYPE2
 62
     6
100
AcDbLine
 10
2263.000000000002
 20
1761.0
 30
0.0
 11
2254.000000000002
 21
1761.0
 31
0.0
  0
ARC
  5
28A
330
1F
100
AcDbEntity
  8
化粧台
  6
EXLTYPE2
 62
     6
100
AcDbCircle
 10
2263.000000000002
 20
1758.0
 30
0.0
 40
3.000000000000003
100
AcDbArc
 50
0.0
 51
90.00000000000004
  0
LINE
  5
28B
330
1F
100
AcDbEntity
  8
化粧台
  6
EXLTYPE2
 62
     6
100
AcDbLine
 10
2254.000000000002
 20
1762.0
 30
0.0
 11
2247.500000000002
 21
1762.0
 31
0.0
  0
LINE
  5
28C
330
1F
100
AcDbEntity
  8
化粧台
  6
EXLTYPE2
 62
     6
100
AcDbLine
 10
2242.500000000002
 20
1761.5
 30
0.0
 11
2242.500000000002
 21
1738.5
 31
0.0
  0
LINE
  5
28D
330
1F
100
AcDbEntity
  8
化粧台
  6
EXLTYPE2
 62
     6
100
AcDbLine
 10
2266.000000000002
 20
1758.0
 30
0.0
 11
2266.000000000002
 21
1742.0
 31
0.0
  0
LINE
  5
28E
330
1F
100
AcDbEntity
  8
化粧台
  6
EXLTYPE2
 62
     6
100
AcDbLine
 10
2242.500000000002
 20
1760.5
 30
0.0
 11
2234.000000000002
 21
1760.5
 31
0.0
  0
LINE
  5
28F
330
1F
100
AcDbEntity
  8
化粧台
  6
EXLTYPE2
 62
     6
100
AcDbLine
 10
2254.000000000002
 20
1762.0
 30
0.0
 11
2254.000000000002
 21
1738.0
 31
0.0
  0
LINE
  5
290
330
1F
100
AcDbEntity
  8
化粧台
  6
EXLTYPE2
 62
     6
100
AcDbLine
 10
2247.500000000002
 20
1762.0
 30
0.0
 11
2247.500000000002
 21
1738.0
 31
0.0
  0
LINE
  5
291
330
1F
100
AcDbEntity
  8
化粧台
  6
EXLTYPE2
 62
     6
100
AcDbLine
 10
2387.000000000002
 20
1753.0
 30
0.0
 11
2387.000000000002
 21
1747.0
 31
0.0
  0
LINE
  5
292
330
1F
100
AcDbEntity
  8
化粧台
  6
EXLTYPE2
 62
     6
100
AcDbLine
 10
2308.325036024319
 20
1650.636113773615
 30
0.0
 11
2314.266644436768
 21
1649.801075167856
 31
0.0
  0
LINE
  5
293
330
1F
100
AcDbEntity
  8
化粧台
  6
CONTINUOUS
 62
     2
100
AcDbLine
 10
1970.873535956265
 20
1940.176474810494
 30
0.0
 11
2075.000000000002
 21
1788.0
 31
0.0
  0
LINE
  5
294
330
1F
100
AcDbEntity
  8
化粧台
  6
CONTINUOUS
 62
     2
100
AcDbLine
 10
2419.995215170637
 20
1952.781309810367
 30
0.0
 11
2413.00257047937
 21
1788.0
 31
0.0
  0
ARC
  5
295
330
1F
100
AcDbEntity
  8
化粧台
  6
CONTINUOUS
 62
     2
100
AcDbCircle
 10
2415.000000000002
 20
1953.0
 30
0.0
 40
5.0
100
AcDbArc
 50
357.4931953294174
 51
91.3019526725733
  0
ARC
  5
296
330
1F
100
AcDbEntity
  8
化粧台
  6
CONTINUOUS
 62
     2
100
AcDbCircle
 10
1974.999999999997
 20
1943.0
 30
0.0
 40
5.0
100
AcDbArc
 50
91.30195267257358
 51
214.3818111228703
  0
LINE
  5
297
330
1F
100
AcDbEntity
  8
化粧台
  6
CONTINUOUS
 62
     2
100
AcDbLine
 10
1974.886392973231
 20
1947.998709177724
 30
0.0
 11
2414.886392973235
 21
1957.998709177725
 31
0.0
  0
LINE
  5
298
330
1F
100
AcDbEntity
  8
化粧台
  6
CONTINUOUS
 62
     6
100
AcDbLine
 10
2417.500000000002
 20
1707.999999999998
 30
0.0
 11
2491.9
 21
1707.999999999998
 31
0.0
  0
LINE
  5
299
330
1F
100
AcDbEntity
  8
化粧台
  6
CONTINUOUS
 62
     6
100
AcDbLine
 10
2481.900000000004
 20
1707.999999999998
 30
0.0
 11
2449.400000000004
 21
1706.0
 31
0.0
  0
LINE
  5
29A
330
1F
100
AcDbEntity
  8
化粧台
  6
CONTINUOUS
 62
     6
100
AcDbLine
 10
2449.400000000004
 20
1710.0
 30
0.0
 11
2481.900000000004
 21
1707.999999999998
 31
0.0
  0
LINE
  5
29B
330
1F
100
AcDbEntity
  8
化粧台
  6
CONTINUOUS
 62
     2
100
AcDbLine
 10
2450.0
 20
1788.0
 30
0.0
 11
2450.0
 21
1088.0
 31
0.0
  0
TEXT
  5
29C
330
1F
100
AcDbEntity
  8
化粧台
  6
CONTINUOUS
 62
     2
100
AcDbText
 10
1821.499999999997
 20
1088.0
 30
0.0
 40
59.99999618530273
  1
F.L.
 41
0.6227488631227187
  7
EXCADSTD
 72
     5
 11
1912.243399999998
 21
1088.0
 31
0.0
100
AcDbText
  0
LINE
  5
29D
330
1F
100
AcDbEntity
  8
化粧台
  6
EXLTYPE4
 62
     6
100
AcDbLine
 10
2450.0
 20
1088.0
 30
0.0
 11
1821.499999999997
 21
1088.0
 31
0.0
  0
LINE
  5
29E
330
1F
100
AcDbEntity
  8
化粧台
  6
CONTINUOUS
 62
     2
100
AcDbLine
 10
935.8750000000027
 20
1730.999999999999
 30
0.0
 11
935.8750000000027
 21
1606.999999999949
 31
0.0
  0
LINE
  5
29F
330
1F
100
AcDbEntity
  8
化粧台
  6
CONTINUOUS
 62
     2
100
AcDbLine
 10
904.1250000000027
 20
1730.999999999999
 30
0.0
 11
904.1250000000027
 21
1606.999999999949
 31
0.0
  0
LINE
  5
2A0
330
1F
100
AcDbEntity
  8
化粧台
  6
EXLTYPE4
 62
     6
100
AcDbLine
 10
834.5000000000009
 20
1287.999999999999
 30
0.0
 11
834.5000000000009
 21
1079.999999999999
 31
0.0
  0
LINE
  5
2A1
330
1F
100
AcDbEntity
  8
化粧台
  6
EXLTYPE4
 62
     6
100
AcDbLine
 10
855.5000000000009
 20
1287.999999999999
 30
0.0
 11
855.5000000000009
 21
1079.999999999999
 31
0.0
  0
LINE
  5
2A2
330
1F
100
AcDbEntity
  8
化粧台
  6
EXLTYPE3
 62
     6
100
AcDbLine
 10
845.0000000000009
 20
1297.999999999999
 30
0.0
 11
845.0000000000009
 21
1069.999999999999
 31
0.0
  0
LINE
  5
2A3
330
1F
100
AcDbEntity
  8
化粧台
  6
CONTINUOUS
 62
     6
100
AcDbLine
 10
834.5000000000009
 20
1079.999999999999
 30
0.0
 11
855.5000000000009
 21
1079.999999999999
 31
0.0
  0
LINE
  5
2A4
330
1F
100
AcDbEntity
  8
化粧台
  6
EXLTYPE4
 62
     6
100
AcDbLine
 10
1005.499999999998
 20
1287.999999999999
 30
0.0
 11
1005.499999999998
 21
1079.999999999999
 31
0.0
  0
LINE
  5
2A5
330
1F
100
AcDbEntity
  8
化粧台
  6
EXLTYPE4
 62
     6
100
AcDbLine
 10
984.4999999999984
 20
1287.999999999999
 30
0.0
 11
984.4999999999984
 21
1079.999999999999
 31
0.0
  0
LINE
  5
2A6
330
1F
100
AcDbEntity
  8
化粧台
  6
EXLTYPE3
 62
     6
100
AcDbLine
 10
994.9999999999984
 20
1297.999999999999
 30
0.0
 11
994.9999999999984
 21
1069.999999999999
 31
0.0
  0
LINE
  5
2A7
330
1F
100
AcDbEntity
  8
化粧台
  6
CONTINUOUS
 62
     6
100
AcDbLine
 10
1005.499999999998
 20
1079.999999999999
 30
0.0
 11
984.4999999999984
 21
1079.999999999999
 31
0.0
  0
LINE
  5
2A8
330
1F
100
AcDbEntity
  8
化粧台
  6
EXLTYPE4
 62
     6
100
AcDbLine
 10
904.0000000000009
 20
1287.999999999999
 30
0.0
 11
904.0000000000009
 21
1058.0
 31
0.0
  0
LINE
  5
2A9
330
1F
100
AcDbEntity
  8
化粧台
  6
EXLTYPE4
 62
     6
100
AcDbLine
 10
936.0000000000009
 20
1287.999999999999
 30
0.0
 11
936.0000000000009
 21
1058.0
 31
0.0
  0
LINE
  5
2AA
330
1F
100
AcDbEntity
  8
化粧台
  6
CONTINUOUS
 62
     6
100
AcDbLine
 10
904.0000000000009
 20
1058.0
 30
0.0
 11
936.0000000000009
 21
1058.0
 31
0.0
  0
LINE
  5
2AB
330
1F
100
AcDbEntity
  8
化粧台
  6
CONTINUOUS
 62
     6
100
AcDbLine
 10
962.9999999999984
 20
1563.0
 30
0.0
 11
877.0
 21
1563.0
 31
0.0
  0
ARC
  5
2AC
330
1F
100
AcDbEntity
  8
化粧台
  6
CONTINUOUS
 62
     6
100
AcDbCircle
 10
920.0
 20
1471.0
 30
0.0
 40
15.99999999999955
100
AcDbArc
 50
180.0
 51
0.0
  0
LINE
  5
2AD
330
1F
100
AcDbEntity
  8
化粧台
  6
CONTINUOUS
 62
     6
100
AcDbLine
 10
936.0
 20
1545.399886499968
 30
0.0
 11
936.0
 21
1471.0
 31
0.0
  0
LINE
  5
2AE
330
1F
100
AcDbEntity
  8
化粧台
  6
CONTINUOUS
 62
     6
100
AcDbLine
 10
904.0000000000009
 20
1545.399886499968
 30
0.0
 11
904.0000000000009
 21
1471.0
 31
0.0
  0
ARC
  5
2AF
330
1F
100
AcDbEntity
  8
化粧台
  6
CONTINUOUS
 62
     6
100
AcDbCircle
 10
920.0
 20
1563.0
 30
0.0
 40
33.0
100
AcDbArc
 50
299.0025460266706
 51
59.49751333740528
  0
ARC
  5
2B0
330
1F
100
AcDbEntity
  8
化粧台
  6
CONTINUOUS
 62
     6
100
AcDbCircle
 10
920.0
 20
1563.0
 30
0.0
 40
33.0
100
AcDbArc
 50
120.5024866625967
 51
240.9974539733312
  0
LINE
  5
2B1
330
1F
100
AcDbEntity
  8
化粧台
  6
CONTINUOUS
 62
     6
100
AcDbLine
 10
936.0
 20
1523.999999999949
 30
0.0
 11
941.5
 21
1523.999999999949
 31
0.0
  0
LINE
  5
2B2
330
1F
100
AcDbEntity
  8
化粧台
  6
CONTINUOUS
 62
     6
100
AcDbLine
 10
936.0
 20
1511.999999999949
 30
0.0
 11
941.5
 21
1511.999999999949
 31
0.0
  0
LINE
  5
2B3
330
1F
100
AcDbEntity
  8
化粧台
  6
CONTINUOUS
 62
     6
100
AcDbLine
 10
898.5
 20
1511.999999999949
 30
0.0
 11
904.0000000000009
 21
1511.999999999949
 31
0.0
  0
LINE
  5
2B4
330
1F
100
AcDbEntity
  8
化粧台
  6
CONTINUOUS
 62
     6
100
AcDbLine
 10
898.5
 20
1523.999999999949
 30
0.0
 11
904.0000000000009
 21
1523.999999999949
 31
0.0
  0
ELLIPSE
  5
2B5
330
1F
100
AcDbEntity
  8
化粧台
  6
CONTINUOUS
 62
     6
100
AcDbEllipse
 10
930.75
 20
1517.999999999949
 30
0.0
 11
9.236476601000053
 21
0.0
 31
0.0
210
0.0
220
0.0
230
1.0
 40
0.6495983543497932
 41
5.316947084024834
 42
7.249423530334343
  0
ELLIPSE
  5
2B6
330
1F
100
AcDbEntity
  8
化粧台
  6
CONTINUOUS
 62
     6
100
AcDbEllipse
 10
909.25
 20
1517.999999999949
 30
0.0
 11
9.236476601000053
 21
0.0
 31
0.0
210
0.0
220
0.0
230
1.0
 40
0.6495983543497932
 41
2.175354430434986
 42
4.107830876744602
  0
LINE
  5
2B7
330
1F
100
AcDbEntity
  8
化粧台
  6
CONTINUOUS
 62
     6
100
AcDbLine
 10
898.5
 20
1523.999999999949
 30
0.0
 11
898.5
 21
1511.999999999949
 31
0.0
  0
LINE
  5
2B8
330
1F
100
AcDbEntity
  8
化粧台
  6
CONTINUOUS
 62
     6
100
AcDbLine
 10
941.5
 20
1523.999999999949
 30
0.0
 11
941.5
 21
1511.999999999949
 31
0.0
  0
LINE
  5
2B9
330
1F
100
AcDbEntity
  8
化粧台
  6
CONTINUOUS
 62
     6
100
AcDbLine
 10
898.5
 20
1606.999999999949
 30
0.0
 11
941.5
 21
1606.999999999949
 31
0.0
  0
LINE
  5
2BA
330
1F
100
AcDbEntity
  8
化粧台
  6
CONTINUOUS
 62
     6
100
AcDbLine
 10
898.5
 20
1594.999999999949
 30
0.0
 11
941.5
 21
1594.999999999949
 31
0.0
  0
LINE
  5
2BB
330
1F
100
AcDbEntity
  8
化粧台
  6
CONTINUOUS
 62
     6
100
AcDbLine
 10
898.5
 20
1606.999999999949
 30
0.0
 11
898.5
 21
1594.999999999949
 31
0.0
  0
ELLIPSE
  5
2BC
330
1F
100
AcDbEntity
  8
化粧台
  6
CONTINUOUS
 62
     6
100
AcDbEllipse
 10
909.25
 20
1600.999999999949
 30
0.0
 11
9.236476601000053
 21
0.0
 31
0.0
210
0.0
220
0.0
230
1.0
 40
0.6495983543497931
 41
0.0
 42
6.283185307179586
  0
LINE
  5
2BD
330
1F
100
AcDbEntity
  8
化粧台
  6
CONTINUOUS
 62
     6
100
AcDbLine
 10
941.5
 20
1606.999999999949
 30
0.0
 11
941.5
 21
1594.999999999949
 31
0.0
  0
ELLIPSE
  5
2BE
330
1F
100
AcDbEntity
  8
化粧台
  6
CONTINUOUS
 62
     6
100
AcDbEllipse
 10
930.75
 20
1600.999999999949
 30
0.0
 11
9.236476601000053
 21
0.0
 31
0.0
210
0.0
220
0.0
230
1.0
 40
0.6495983543497931
 41
0.0
 42
6.283185307179586
  0
LINE
  5
2BF
330
1F
100
AcDbEntity
  8
化粧台
  6
CONTINUOUS
 62
     6
100
AcDbLine
 10
904.0
 20
1545.399886499968
 30
0.0
 11
936.0
 21
1545.399886499968
 31
0.0
  0
LINE
  5
2C0
330
1F
100
AcDbEntity
  8
化粧台
  6
CONTINUOUS
 62
     6
100
AcDbLine
 10
903.2500000000118
 20
1545.774886499961
 30
0.0
 11
904.0
 21
1545.024886499972
 31
0.0
  0
LINE
  5
2C1
330
1F
100
AcDbEntity
  8
化粧台
  6
CONTINUOUS
 62
     6
100
AcDbLine
 10
936.75000000003
 20
1545.774886499919
 30
0.0
 11
936.0
 21
1545.024886499888
 31
0.0
  0
LINE
  5
2C2
330
1F
100
AcDbEntity
  8
化粧台
  6
CONTINUOUS
 62
     6
100
AcDbLine
 10
936.7499999999982
 20
1594.999999999949
 30
0.0
 11
936.7499999999982
 21
1545.77488649995
 31
0.0
  0
LINE
  5
2C3
330
1F
100
AcDbEntity
  8
化粧台
  6
CONTINUOUS
 62
     6
100
AcDbLine
 10
903.2500000000009
 20
1594.999999999949
 30
0.0
 11
903.2500000000009
 21
1545.77488649995
 31
0.0
  0
ARC
  5
2C4
330
1F
100
AcDbEntity
  8
化粧台
  6
CONTINUOUS
 62
     2
100
AcDbCircle
 10
1138.499999999997
 20
1656.47533905005
 30
0.0
 40
300.0
100
AcDbArc
 50
164.231638666689
 51
180.0
  0
ARC
  5
2C5
330
1F
100
AcDbEntity
  8
化粧台
  6
CONTINUOUS
 62
     2
100
AcDbCircle
 10
1138.499999999997
 20
1656.47533905005
 30
0.0
 40
287.0
100
AcDbArc
 50
163.4974479361903
 51
180.0
  0
ARC
  5
2C6
330
1F
100
AcDbEntity
  8
化粧台
  6
CONTINUOUS
 62
     2
100
AcDbCircle
 10
701.5000000000027
 20
1656.47533905005
 30
0.0
 40
287.0
100
AcDbArc
 50
0.0
 51
16.50255206380972
  0
ARC
  5
2C7
330
1F
100
AcDbEntity
  8
化粧台
  6
CONTINUOUS
 62
     2
100
AcDbCircle
 10
701.5000000000027
 20
1656.47533905005
 30
0.0
 40
300.0
100
AcDbArc
 50
0.0
 51
15.76836133331106
  0
LINE
  5
2C8
330
1F
100
AcDbEntity
  8
化粧台
  6
CONTINUOUS
 62
     2
100
AcDbLine
 10
940.0
 20
1737.999999999999
 30
0.0
 11
939.9999999999991
 21
1733.0
 31
0.0
  0
LINE
  5
2C9
330
1F
100
AcDbEntity
  8
化粧台
  6
CONTINUOUS
 62
     2
100
AcDbLine
 10
900.0
 20
1737.999999999999
 30
0.0
 11
900.0000000000027
 21
1733.0
 31
0.0
  0
LINE
  5
2CA
330
1F
100
AcDbEntity
  8
化粧台
  6
CONTINUOUS
 62
     2
100
AcDbLine
 10
940.0000000000027
 20
1733.0
 30
0.0
 11
900.0000000000027
 21
1733.0
 31
0.0
  0
LINE
  5
2CB
330
1F
100
AcDbEntity
  8
化粧台
  6
CONTINUOUS
 62
     2
100
AcDbLine
 10
936.0000000000027
 20
1730.999999999999
 30
0.0
 11
904.0000000000027
 21
1730.999999999999
 31
0.0
  0
LINE
  5
2CC
330
1F
100
AcDbEntity
  8
化粧台
  6
CONTINUOUS
 62
     2
100
AcDbLine
 10
904.0000000000027
 20
1730.999999999999
 30
0.0
 11
900.0000000000027
 21
1733.0
 31
0.0
  0
LINE
  5
2CD
330
1F
100
AcDbEntity
  8
化粧台
  6
CONTINUOUS
 62
     2
100
AcDbLine
 10
936.0000000000027
 20
1730.999999999999
 30
0.0
 11
940.0000000000027
 21
1733.0
 31
0.0
  0
LINE
  5
2CE
330
1F
100
AcDbEntity
  8
化粧台
  6
CONTINUOUS
 62
     6
100
AcDbLine
 10
821.6435055525053
 20
1949.0
 30
0.0
 11
1018.356494447488
 21
1949.0
 31
0.0
  0
ARC
  5
2CF
330
1F
100
AcDbEntity
  8
化粧台
  6
CONTINUOUS
 62
     2
100
AcDbCircle
 10
920.0
 20
6785.500000000005
 30
0.0
 40
4837.500000000005
100
AcDbArc
 50
267.4553150987836
 51
272.5446849012167
  0
ARC
  5
2D0
330
1F
100
AcDbEntity
  8
化粧台
  6
CONTINUOUS
 62
     2
100
AcDbCircle
 10
1139.999999999998
 20
1948.0
 30
0.0
 40
5.0
100
AcDbArc
 50
340.6141401105788
 51
87.39609465484251
  0
ARC
  5
2D1
330
1F
100
AcDbEntity
  8
化粧台
  6
CONTINUOUS
 62
     2
100
AcDbCircle
 10
700.0
 20
1948.0
 30
0.0
 40
5.0
100
AcDbArc
 50
92.60390534515754
 51
199.3858598894216
  0
LINE
  5
2D2
330
1F
100
AcDbEntity
  8
化粧台
  6
CONTINUOUS
 62
     2
100
AcDbLine
 10
751.0
 20
1787.999999999999
 30
0.0
 11
1088.999999999998
 21
1787.999999999999
 31
0.0
  0
LINE
  5
2D3
330
1F
100
AcDbEntity
  8
化粧台
  6
CONTINUOUS
 62
     2
100
AcDbLine
 10
1088.999999999998
 20
1787.999999999999
 30
0.0
 11
1144.71652301881
 21
1946.340358287754
 31
0.0
  0
LINE
  5
2D4
330
1F
100
AcDbEntity
  8
化粧台
  6
CONTINUOUS
 62
     2
100
AcDbLine
 10
695.2834769811889
 20
1946.340358287754
 30
0.0
 11
751.0
 21
1787.999999999999
 31
0.0
  0
TEXT
  5
2D5
330
1F
100
AcDbEntity
  8
化粧台
  6
CONTINUOUS
 62
     2
100
AcDbText
 10
2450.0
 20
2296.000000536442
 30
0.0
 40
59.99999618530273
  1
W.L.
 50
90.0
 41
0.5571963512150626
  7
EXCADSTD
 72
     5
 11
2450.0
 21
2386.743400536442
 31
0.0
100
AcDbText
  0
LINE
  5
2D6
330
1F
100
AcDbEntity
  8
化粧台
  6
EXLTYPE4
 62
     6
100
AcDbLine
 10
2450.0
 20
1088.0
 30
0.0
 11
2450.0
 21
2431.5
 31
0.0
  0
LINE
  5
2D7
330
1F
100
AcDbEntity
  8
化粧台
  6
CONTINUOUS
 62
     2
100
AcDbLine
 10
620.0000000000002
 20
3385.499999999999
 30
0.0
 11
778.5786437626996
 21
3385.499999999999
 31
0.0
  0
LINE
  5
2D8
330
1F
100
AcDbEntity
  8
化粧台
  6
CONTINUOUS
 62
     2
100
AcDbLine
 10
620.0000000000002
 20
3385.499999999999
 30
0.0
 11
620.0000000000002
 21
3815.499999999999
 31
0.0
  0
LINE
  5
2D9
330
1F
100
AcDbEntity
  8
化粧台
  6
CONTINUOUS
 62
     2
100
AcDbLine
 10
1061.421356237298
 20
3385.499999999999
 30
0.0
 11
1219.999999999997
 21
3385.499999999999
 31
0.0
  0
LINE
  5
2DA
330
1F
100
AcDbEntity
  8
化粧台
  6
CONTINUOUS
 62
     2
100
AcDbLine
 10
1219.999999999997
 20
3385.5
 30
0.0
 11
1219.999999999997
 21
3815.499999999999
 31
0.0
  0
LINE
  5
2DB
330
1F
100
AcDbEntity
  8
化粧台
  6
CONTINUOUS
 62
     2
100
AcDbLine
 10
620.0000000000002
 20
3815.499999999999
 30
0.0
 11
1219.999999999997
 21
3815.499999999999
 31
0.0
  0
LINE
  5
2DC
330
1F
100
AcDbEntity
  8
化粧台
  6
EXLTYPE4
 62
     6
100
AcDbLine
 10
332.9999999999998
 20
3815.5
 30
0.0
 11
1742.999999999997
 21
3815.5
 31
0.0
  0
LINE
  5
2DD
330
1F
100
AcDbEntity
  8
化粧台
  6
CONTINUOUS
 62
     6
100
AcDbLine
 10
1085.999999999997
 20
3815.500000000003
 30
0.0
 11
1087.999999999999
 21
3848.000000000003
 31
0.0
  0
LINE
  5
2DE
330
1F
100
AcDbEntity
  8
化粧台
  6
CONTINUOUS
 62
     6
100
AcDbLine
 10
1087.999999999999
 20
3848.000000000003
 30
0.0
 11
1089.999999999997
 21
3815.500000000003
 31
0.0
  0
LINE
  5
2DF
330
1F
100
AcDbEntity
  8
化粧台
  6
CONTINUOUS
 62
     6
100
AcDbLine
 10
1087.999999999999
 20
3800.499999999999
 30
0.0
 11
1087.999999999999
 21
3857.999999999999
 31
0.0
  0
LINE
  5
2E0
330
1F
100
AcDbEntity
  8
化粧台
  6
CONTINUOUS
 62
     6
100
AcDbLine
 10
750.0000000000011
 20
3815.500000000003
 30
0.0
 11
752.000000000002
 21
3848.000000000003
 31
0.0
  0
LINE
  5
2E1
330
1F
100
AcDbEntity
  8
化粧台
  6
CONTINUOUS
 62
     6
100
AcDbLine
 10
752.000000000002
 20
3848.000000000003
 30
0.0
 11
754.0000000000002
 21
3815.500000000003
 31
0.0
  0
LINE
  5
2E2
330
1F
100
AcDbEntity
  8
化粧台
  6
CONTINUOUS
 62
     6
100
AcDbLine
 10
752.000000000002
 20
3800.499999999999
 30
0.0
 11
752.000000000002
 21
3857.999999999999
 31
0.0
  0
CIRCLE
  5
2E3
330
1F
100
AcDbEntity
  8
化粧台
  6
CONTINUOUS
 62
     2
100
AcDbCircle
 10
920.0000000000011
 20
3557.499999999999
 30
0.0
 40
18.0
  0
LINE
  5
2E4
330
1F
100
AcDbEntity
  8
化粧台
  6
EXLTYPE3
 62
     6
100
AcDbLine
 10
920.0000000000002
 20
3825.499999999999
 30
0.0
 11
920.0000000000002
 21
3325.499999999999
 31
0.0
  0
CIRCLE
  5
2E5
330
1F
100
AcDbEntity
  8
化粧台
  6
CONTINUOUS
 62
     2
100
AcDbCircle
 10
920.0000000000002
 20
3560.499999999999
 30
0.0
 40
220.0000000000001
  0
CIRCLE
  5
2E6
330
1F
100
AcDbEntity
  8
化粧台
  6
CONTINUOUS
 62
     2
100
AcDbCircle
 10
920.0000000000002
 20
3560.499999999999
 30
0.0
 40
225.0000000000001
  0
ARC
  5
2E7
330
1F
100
AcDbEntity
  8
化粧台
  6
CONTINUOUS
 62
     2
100
AcDbCircle
 10
920.0000000000002
 20
3567.929987018267
 30
0.0
 40
212.5700129817332
100
AcDbArc
 50
9.763897427589361
 51
170.2361025724106
  0
ARC
  5
2E8
330
1F
100
AcDbEntity
  8
化粧台
  6
CONTINUOUS
 62
     2
100
AcDbCircle
 10
759.784821240097
 20
3595.499999999999
 30
0.0
 40
50.00000000000004
100
AcDbArc
 50
90.00000000000004
 51
170.2361025724106
  0
ARC
  5
2E9
330
1F
100
AcDbEntity
  8
化粧台
  6
CONTINUOUS
 62
     2
100
AcDbCircle
 10
1080.215178759902
 20
3595.499999999999
 30
0.0
 40
50.00000000000004
100
AcDbArc
 50
9.763897427589361
 51
90.00000000000004
  0
LINE
  5
2EA
330
1F
100
AcDbEntity
  8
化粧台
  6
CONTINUOUS
 62
     6
100
AcDbLine
 10
953.7499999999984
 20
3706.499999999988
 30
0.0
 11
886.2500000000002
 21
3706.499999999988
 31
0.0
  0
ARC
  5
2EB
330
1F
100
AcDbEntity
  8
化粧台
  6
CONTINUOUS
 62
     6
100
AcDbCircle
 10
868.0384757736103
 20
3587.499999999999
 30
0.0
 40
50.00000000000004
100
AcDbArc
 50
90.00000000000004
 51
171.7867892961641
  0
ARC
  5
2EC
330
1F
100
AcDbEntity
  8
化粧台
  6
CONTINUOUS
 62
     6
100
AcDbCircle
 10
971.9615242263883
 20
3587.499999999999
 30
0.0
 40
50.00000000000004
100
AcDbArc
 50
8.213210703835998
 51
90.00000000000004
  0
ARC
  5
2ED
330
1F
100
AcDbEntity
  8
化粧台
  6
CONTINUOUS
 62
     6
100
AcDbCircle
 10
920.0000000000002
 20
3579.999999998155
 30
0.0
 40
102.4999999995951
100
AcDbArc
 50
171.7867892961641
 51
8.213210703835998
  0
LINE
  5
2EE
330
1F
100
AcDbEntity
  8
化粧台
  6
CONTINUOUS
 62
     6
100
AcDbLine
 10
883.1000000000006
 20
3557.499999999999
 30
0.0
 11
956.899999999998
 21
3557.499999999999
 31
0.0
  0
TEXT
  5
2EF
330
1F
100
AcDbEntity
  8
化粧台
  6
CONTINUOUS
 62
     2
100
AcDbText
 10
1644.000000536439
 20
3755.500003814697
 30
0.0
 40
59.99999618530273
  1
W.L.
 41
0.5571963512150641
  7
EXCADSTD
 72
     5
 11
1734.743400536439
 21
3755.500003814697
 31
0.0
100
AcDbText
  0
ARC
  5
2F0
330
1F
100
AcDbEntity
  8
化粧台
  6
CONTINUOUS
 62
     6
100
AcDbCircle
 10
845.0
 20
1527.999999999999
 30
0.0
 40
27.50000000000002
100
AcDbArc
 50
114.7198511829102
 51
65.28014881708874
  0
LINE
  5
2F1
330
1F
100
AcDbEntity
  8
化粧台
  6
CONTINUOUS
 62
     6
100
AcDbLine
 10
845.0
 20
1557.999999999999
 30
0.0
 11
845.0
 21
1497.999999999999
 31
0.0
  0
LINE
  5
2F2
330
1F
100
AcDbEntity
  8
化粧台
  6
CONTINUOUS
 62
     6
100
AcDbLine
 10
815.0
 20
1527.999999999999
 30
0.0
 11
875.0
 21
1527.999999999999
 31
0.0
  0
LINE
  5
2F3
330
1F
100
AcDbEntity
  8
化粧台
  6
CONTINUOUS
 62
     6
100
AcDbLine
 10
834.5
 20
1550.699999999999
 30
0.0
 11
834.5
 21
1536.948929172443
 31
0.0
  0
LINE
  5
2F4
330
1F
100
AcDbEntity
  8
化粧台
  6
CONTINUOUS
 62
     6
100
AcDbLine
 10
855.5
 20
1550.699999999999
 30
0.0
 11
855.5
 21
1536.948929172442
 31
0.0
  0
CIRCLE
  5
2F5
330
1F
100
AcDbEntity
  8
化粧台
  6
CONTINUOUS
 62
     6
100
AcDbCircle
 10
845.0
 20
1527.999999999999
 30
0.0
 40
12.07434891639
  0
CIRCLE
  5
2F6
330
1F
100
AcDbEntity
  8
化粧台
  6
CONTINUOUS
 62
     6
100
AcDbCircle
 10
845.0
 20
1527.999999999999
 30
0.0
 40
4.75
  0
ARC
  5
2F7
330
1F
100
AcDbEntity
  8
化粧台
  6
CONTINUOUS
 62
     6
100
AcDbCircle
 10
845.0
 20
1527.999999999999
 30
0.0
 40
14.25000000000001
100
AcDbArc
 50
204.1775448336003
 51
215.8224551664
  0
ARC
  5
2F8
330
1F
100
AcDbEntity
  8
化粧台
  6
CONTINUOUS
 62
     6
100
AcDbCircle
 10
845.0
 20
1527.999999999999
 30
0.0
 40
14.25000000000001
100
AcDbArc
 50
144.1775448336404
 51
155.8224551663601
  0
ARC
  5
2F9
330
1F
100
AcDbEntity
  8
化粧台
  6
CONTINUOUS
 62
     6
100
AcDbCircle
 10
845.0
 20
1527.999999999999
 30
0.0
 40
14.25000000000001
100
AcDbArc
 50
84.1775448336001
 51
95.82245516635992
  0
ARC
  5
2FA
330
1F
100
AcDbEntity
  8
化粧台
  6
CONTINUOUS
 62
     6
100
AcDbCircle
 10
845.0
 20
1527.999999999999
 30
0.0
 40
14.25000000000001
100
AcDbArc
 50
24.17754483359991
 51
35.82245516639971
  0
ARC
  5
2FB
330
1F
100
AcDbEntity
  8
化粧台
  6
CONTINUOUS
 62
     6
100
AcDbCircle
 10
845.0
 20
1527.999999999999
 30
0.0
 40
14.25000000000001
100
AcDbArc
 50
324.1775448336001
 51
335.8224551664001
  0
ARC
  5
2FC
330
1F
100
AcDbEntity
  8
化粧台
  6
CONTINUOUS
 62
     6
100
AcDbCircle
 10
845.0
 20
1527.999999999999
 30
0.0
 40
14.25000000000001
100
AcDbArc
 50
264.1775448336001
 51
275.8224551664
  0
LINE
  5
2FD
330
1F
100
AcDbEntity
  8
化粧台
  6
CONTINUOUS
 62
     6
100
AcDbLine
 10
846.4456083452096
 20
1513.823515368319
 30
0.0
 11
856.5543916547895
 21
1519.659824133279
 31
0.0
  0
LINE
  5
2FE
330
1F
100
AcDbEntity
  8
化粧台
  6
CONTINUOUS
 62
     6
100
AcDbLine
 10
833.4456083452096
 20
1519.659824133279
 30
0.0
 11
843.5543916547895
 21
1513.823515368319
 31
0.0
  0
LINE
  5
2FF
330
1F
100
AcDbEntity
  8
化粧台
  6
CONTINUOUS
 62
     6
100
AcDbLine
 10
832.0
 20
1533.83630876496
 30
0.0
 11
832.0
 21
1522.163691235039
 31
0.0
  0
LINE
  5
300
330
1F
100
AcDbEntity
  8
化粧台
  6
CONTINUOUS
 62
     6
100
AcDbLine
 10
843.5543916547904
 20
1542.176484631679
 30
0.0
 11
833.4456083452096
 21
1536.340175866719
 31
0.0
  0
LINE
  5
301
330
1F
100
AcDbEntity
  8
化粧台
  6
CONTINUOUS
 62
     6
100
AcDbLine
 10
856.5543916547895
 20
1536.340175866719
 30
0.0
 11
846.4456083452096
 21
1542.176484631679
 31
0.0
  0
LINE
  5
302
330
1F
100
AcDbEntity
  8
化粧台
  6
CONTINUOUS
 62
     6
100
AcDbLine
 10
858.0
 20
1522.163691235039
 30
0.0
 11
858.0
 21
1533.83630876496
 31
0.0
  0
ELLIPSE
  5
303
330
1F
100
AcDbEntity
  8
化粧台
  6
CONTINUOUS
 62
     6
100
AcDbEllipse
 10
850.75097110965
 20
1556.699999999999
 30
0.0
 11
3.118494002032691E-16
 21
5.09288719687
 31
0.0
210
0.0
220
0.0
230
1.0
 40
0.936409683937426
 41
0.0
 42
6.283185307179586
  0
ELLIPSE
  5
304
330
1F
100
AcDbEntity
  8
化粧台
  6
CONTINUOUS
 62
     6
100
AcDbEllipse
 10
839.24902889035
 20
1556.699999999999
 30
0.0
 11
-9.355482006098073E-16
 21
-5.09288719687
 31
0.0
210
0.0
220
0.0
230
1.0
 40
0.936409683937426
 41
0.0
 42
6.283185307179586
  0
LINE
  5
305
330
1F
100
AcDbEntity
  8
化粧台
  6
CONTINUOUS
 62
     2
100
AcDbLine
 10
855.9695444572899
 20
1550.699999999999
 30
0.0
 11
834.0304555427101
 21
1550.699999999999
 31
0.0
  0
LINE
  5
306
330
1F
100
AcDbEntity
  8
化粧台
  6
CONTINUOUS
 62
     2
100
AcDbLine
 10
855.9695444572899
 20
1562.699999999999
 30
0.0
 11
834.0304555427101
 21
1562.699999999999
 31
0.0
  0
LINE
  5
307
330
1F
100
AcDbEntity
  8
化粧台
  6
CONTINUOUS
 62
     2
100
AcDbLine
 10
856.5
 20
1561.792887196869
 30
0.0
 11
856.5
 21
1551.607112803129
 31
0.0
  0
LINE
  5
308
330
1F
100
AcDbEntity
  8
化粧台
  6
CONTINUOUS
 62
     2
100
AcDbLine
 10
833.5
 20
1561.792887196869
 30
0.0
 11
833.5
 21
1551.607112803129
 31
0.0
  0
ARC
  5
309
330
1F
100
AcDbEntity
  8
化粧台
  6
CONTINUOUS
 62
     2
100
AcDbCircle
 10
846.75
 20
1556.699999999999
 30
0.0
 40
11.0
100
AcDbArc
 50
27.58019920360115
 51
33.05573115089945
  0
ARC
  5
30A
330
1F
100
AcDbEntity
  8
化粧台
  6
CONTINUOUS
 62
     2
100
AcDbCircle
 10
846.75
 20
1556.699999999999
 30
0.0
 40
11.0
100
AcDbArc
 50
326.9442688491007
 51
332.4198007963992
  0
ARC
  5
30B
330
1F
100
AcDbEntity
  8
化粧台
  6
CONTINUOUS
 62
     2
100
AcDbCircle
 10
843.25
 20
1556.699999999999
 30
0.0
 40
11.0
100
AcDbArc
 50
207.5801992036012
 51
213.0557311508995
  0
ARC
  5
30C
330
1F
100
AcDbEntity
  8
化粧台
  6
CONTINUOUS
 62
     2
100
AcDbCircle
 10
843.25
 20
1556.699999999999
 30
0.0
 40
11.0
100
AcDbArc
 50
146.9442688491492
 51
152.4198007964095
  0
LINE
  5
30D
330
1F
100
AcDbEntity
  8
化粧台
  6
CONTINUOUS
 62
     2
100
AcDbLine
 10
838.4999999999973
 20
1562.699999999999
 30
0.0
 11
838.4999999999973
 21
1656.47533905005
 31
0.0
  0
LINE
  5
30E
330
1F
100
AcDbEntity
  8
化粧台
  6
CONTINUOUS
 62
     2
100
AcDbLine
 10
851.4999999999973
 20
1656.47533905005
 30
0.0
 11
851.4999999999973
 21
1562.699999999999
 31
0.0
  0
LINE
  5
30F
330
1F
100
AcDbEntity
  8
化粧台
  6
CONTINUOUS
 62
     2
100
AcDbLine
 10
1001.500000000002
 20
1562.699999999999
 30
0.0
 11
1001.500000000002
 21
1656.47533905005
 31
0.0
  0
LINE
  5
310
330
1F
100
AcDbEntity
  8
化粧台
  6
CONTINUOUS
 62
     2
100
AcDbLine
 10
988.500000000002
 20
1656.47533905005
 30
0.0
 11
988.500000000002
 21
1562.699999999999
 31
0.0
  0
ARC
  5
311
330
1F
100
AcDbEntity
  8
化粧台
  6
CONTINUOUS
 62
     6
100
AcDbCircle
 10
995.0000000000003
 20
1527.999999999999
 30
0.0
 40
27.50000000000002
100
AcDbArc
 50
114.7198511829113
 51
65.28014881709005
  0
LINE
  5
312
330
1F
100
AcDbEntity
  8
化粧台
  6
CONTINUOUS
 62
     6
100
AcDbLine
 10
995.0000000000003
 20
1557.999999999999
 30
0.0
 11
995.0000000000003
 21
1497.999999999999
 31
0.0
  0
LINE
  5
313
330
1F
100
AcDbEntity
  8
化粧台
  6
CONTINUOUS
 62
     6
100
AcDbLine
 10
1025.0
 20
1527.999999999999
 30
0.0
 11
965.0000000000003
 21
1527.999999999999
 31
0.0
  0
LINE
  5
314
330
1F
100
AcDbEntity
  8
化粧台
  6
CONTINUOUS
 62
     6
100
AcDbLine
 10
1005.5
 20
1550.699999999999
 30
0.0
 11
1005.5
 21
1536.948929172443
 31
0.0
  0
LINE
  5
315
330
1F
100
AcDbEntity
  8
化粧台
  6
CONTINUOUS
 62
     6
100
AcDbLine
 10
984.5000000000003
 20
1550.699999999999
 30
0.0
 11
984.5000000000003
 21
1536.948929172442
 31
0.0
  0
CIRCLE
  5
316
330
1F
100
AcDbEntity
  8
化粧台
  6
CONTINUOUS
 62
     6
100
AcDbCircle
 10
995.0000000000003
 20
1527.999999999999
 30
0.0
 40
12.07434891639
  0
CIRCLE
  5
317
330
1F
100
AcDbEntity
  8
化粧台
  6
CONTINUOUS
 62
     6
100
AcDbCircle
 10
995.0000000000003
 20
1527.999999999999
 30
0.0
 40
4.75
  0
ARC
  5
318
330
1F
100
AcDbEntity
  8
化粧台
  6
CONTINUOUS
 62
     6
100
AcDbCircle
 10
995.0000000000003
 20
1527.999999999999
 30
0.0
 40
14.25000000000001
100
AcDbArc
 50
324.1775448336002
 51
335.8224551664001
  0
ARC
  5
319
330
1F
100
AcDbEntity
  8
化粧台
  6
CONTINUOUS
 62
     6
100
AcDbCircle
 10
995.0000000000003
 20
1527.999999999999
 30
0.0
 40
14.25000000000001
100
AcDbArc
 50
24.17754483363996
 51
35.82245516635925
  0
ARC
  5
31A
330
1F
100
AcDbEntity
  8
化粧台
  6
CONTINUOUS
 62
     6
100
AcDbCircle
 10
995.0000000000003
 20
1527.999999999999
 30
0.0
 40
14.25000000000001
100
AcDbArc
 50
84.17754483364021
 51
95.82245516639985
  0
ARC
  5
31B
330
1F
100
AcDbEntity
  8
化粧台
  6
CONTINUOUS
 62
     6
100
AcDbCircle
 10
995.0000000000003
 20
1527.999999999999
 30
0.0
 40
14.25000000000001
100
AcDbArc
 50
144.1775448336004
 51
155.8224551664001
  0
ARC
  5
31C
330
1F
100
AcDbEntity
  8
化粧台
  6
CONTINUOUS
 62
     6
100
AcDbCircle
 10
995.0000000000003
 20
1527.999999999999
 30
0.0
 40
14.25000000000001
100
AcDbArc
 50
204.1775448335999
 51
215.8224551663999
  0
ARC
  5
31D
330
1F
100
AcDbEntity
  8
化粧台
  6
CONTINUOUS
 62
     6
100
AcDbCircle
 10
995.0000000000003
 20
1527.999999999999
 30
0.0
 40
14.25000000000001
100
AcDbArc
 50
264.1775448336003
 51
275.8224551663999
  0
LINE
  5
31E
330
1F
100
AcDbEntity
  8
化粧台
  6
CONTINUOUS
 62
     6
100
AcDbLine
 10
993.5543916547907
 20
1513.823515368319
 30
0.0
 11
983.4456083452109
 21
1519.659824133279
 31
0.0
  0
LINE
  5
31F
330
1F
100
AcDbEntity
  8
化粧台
  6
CONTINUOUS
 62
     6
100
AcDbLine
 10
1006.554391654791
 20
1519.659824133279
 30
0.0
 11
996.4456083452109
 21
1513.823515368319
 31
0.0
  0
LINE
  5
320
330
1F
100
AcDbEntity
  8
化粧台
  6
CONTINUOUS
 62
     6
100
AcDbLine
 10
1008.0
 20
1533.83630876496
 30
0.0
 11
1008.0
 21
1522.163691235039
 31
0.0
  0
LINE
  5
321
330
1F
100
AcDbEntity
  8
化粧台
  6
CONTINUOUS
 62
     6
100
AcDbLine
 10
996.44560834521
 20
1542.176484631679
 30
0.0
 11
1006.554391654791
 21
1536.340175866719
 31
0.0
  0
LINE
  5
322
330
1F
100
AcDbEntity
  8
化粧台
  6
CONTINUOUS
 62
     6
100
AcDbLine
 10
983.4456083452109
 20
1536.340175866719
 30
0.0
 11
993.5543916547907
 21
1542.176484631679
 31
0.0
  0
LINE
  5
323
330
1F
100
AcDbEntity
  8
化粧台
  6
CONTINUOUS
 62
     6
100
AcDbLine
 10
982.0000000000003
 20
1522.163691235039
 30
0.0
 11
982.0000000000003
 21
1533.83630876496
 31
0.0
  0
ELLIPSE
  5
324
330
1F
100
AcDbEntity
  8
化粧台
  6
CONTINUOUS
 62
     6
100
AcDbEllipse
 10
989.2490288903504
 20
1556.699999999999
 30
0.0
 11
3.118494002032691E-16
 21
5.09288719687
 31
0.0
210
0.0
220
0.0
230
1.0
 40
0.936409683937426
 41
0.0
 42
6.283185307179586
  0
ELLIPSE
  5
325
330
1F
100
AcDbEntity
  8
化粧台
  6
CONTINUOUS
 62
     6
100
AcDbEllipse
 10
1000.75097110965
 20
1556.699999999999
 30
0.0
 11
-9.355482006098073E-16
 21
-5.09288719687
 31
0.0
210
0.0
220
0.0
230
1.0
 40
0.936409683937426
 41
0.0
 42
6.283185307179586
  0
LINE
  5
326
330
1F
100
AcDbEntity
  8
化粧台
  6
CONTINUOUS
 62
     2
100
AcDbLine
 10
984.0304555427105
 20
1550.699999999999
 30
0.0
 11
1005.96954445729
 21
1550.699999999999
 31
0.0
  0
LINE
  5
327
330
1F
100
AcDbEntity
  8
化粧台
  6
CONTINUOUS
 62
     2
100
AcDbLine
 10
984.0304555427105
 20
1562.699999999999
 30
0.0
 11
1005.96954445729
 21
1562.699999999999
 31
0.0
  0
LINE
  5
328
330
1F
100
AcDbEntity
  8
化粧台
  6
CONTINUOUS
 62
     2
100
AcDbLine
 10
983.5000000000003
 20
1561.792887196869
 30
0.0
 11
983.5000000000003
 21
1551.607112803129
 31
0.0
  0
LINE
  5
329
330
1F
100
AcDbEntity
  8
化粧台
  6
CONTINUOUS
 62
     2
100
AcDbLine
 10
1006.5
 20
1561.792887196869
 30
0.0
 11
1006.5
 21
1551.607112803129
 31
0.0
  0
ARC
  5
32A
330
1F
100
AcDbEntity
  8
化粧台
  6
CONTINUOUS
 62
     2
100
AcDbCircle
 10
993.2500000000003
 20
1556.699999999999
 30
0.0
 40
11.0
100
AcDbArc
 50
146.9442688491009
 51
152.4198007963989
  0
ARC
  5
32B
330
1F
100
AcDbEntity
  8
化粧台
  6
CONTINUOUS
 62
     2
100
AcDbCircle
 10
993.2500000000003
 20
1556.699999999999
 30
0.0
 40
11.0
100
AcDbArc
 50
207.5801992036012
 51
213.0557311508992
  0
ARC
  5
32C
330
1F
100
AcDbEntity
  8
化粧台
  6
CONTINUOUS
 62
     2
100
AcDbCircle
 10
996.7500000000003
 20
1556.699999999999
 30
0.0
 40
11.0
100
AcDbArc
 50
326.9442688491009
 51
332.419800796399
  0
ARC
  5
32D
330
1F
100
AcDbEntity
  8
化粧台
  6
CONTINUOUS
 62
     2
100
AcDbCircle
 10
996.7500000000003
 20
1556.699999999999
 30
0.0
 40
11.0
100
AcDbArc
 50
27.58019920359056
 51
33.05573115085122
  0
LINE
  5
32E
330
1F
100
AcDbEntity
  8
化粧台
  6
CONTINUOUS
 62
     6
100
AcDbLine
 10
2458.0
 20
1538.5
 30
0.0
 11
2458.0
 21
1517.5
 31
0.0
  0
LINE
  5
32F
330
1F
100
AcDbEntity
  8
化粧台
  6
CONTINUOUS
 62
     6
100
AcDbLine
 10
2365.0
 20
1558.0
 30
0.0
 11
2365.0
 21
1498.0
 31
0.0
  0
LINE
  5
330
330
1F
100
AcDbEntity
  8
化粧台
  6
EXLTYPE3
 62
     6
100
AcDbLine
 10
2322.0
 20
1528.0
 30
0.0
 11
2467.999999999999
 21
1528.0
 31
0.0
  0
LINE
  5
331
330
1F
100
AcDbEntity
  8
化粧台
  6
EXLTYPE2
 62
     6
100
AcDbLine
 10
2393.0
 20
1517.5
 30
0.0
 11
2415.4
 21
1517.5
 31
0.0
  0
LINE
  5
332
330
1F
100
AcDbEntity
  8
化粧台
  6
EXLTYPE2
 62
     6
100
AcDbLine
 10
2393.0
 20
1538.5
 30
0.0
 11
2415.4
 21
1538.5
 31
0.0
  0
LINE
  5
333
330
1F
100
AcDbEntity
  8
化粧台
  6
EXLTYPE2
 62
     6
100
AcDbLine
 10
2431.4
 20
1517.5
 30
0.0
 11
2458.0
 21
1517.5
 31
0.0
  0
LINE
  5
334
330
1F
100
AcDbEntity
  8
化粧台
  6
EXLTYPE2
 62
     6
100
AcDbLine
 10
2431.4
 20
1538.5
 30
0.0
 11
2458.0
 21
1538.5
 31
0.0
  0
LINE
  5
335
330
1F
100
AcDbEntity
  8
化粧台
  6
EXLTYPE2
 62
     6
100
AcDbLine
 10
2415.4
 20
1517.25
 30
0.0
 11
2415.4
 21
1538.75
 31
0.0
  0
LINE
  5
336
330
1F
100
AcDbEntity
  8
化粧台
  6
EXLTYPE2
 62
     6
100
AcDbLine
 10
2429.4
 20
1500.5
 30
0.0
 11
2431.4
 21
1500.5
 31
0.0
  0
ARC
  5
337
330
1F
100
AcDbEntity
  8
化粧台
  6
EXLTYPE2
 62
     6
100
AcDbCircle
 10
2429.4
 20
1513.5
 30
0.0
 40
13.00000000000001
100
AcDbArc
 50
203.5808366037087
 51
270.0000000000002
  0
ARC
  5
338
330
1F
100
AcDbEntity
  8
化粧台
  6
EXLTYPE2
 62
     6
100
AcDbCircle
 10
2440.672907943694
 20
1518.420522989787
 30
0.0
 40
25.3
100
AcDbArc
 50
182.6517777161361
 51
203.5808366037087
  0
LINE
  5
339
330
1F
100
AcDbEntity
  8
化粧台
  6
EXLTYPE2
 62
     6
100
AcDbLine
 10
2429.4
 20
1555.5
 30
0.0
 11
2431.4
 21
1555.5
 31
0.0
  0
ARC
  5
33A
330
1F
100
AcDbEntity
  8
化粧台
  6
EXLTYPE2
 62
     6
100
AcDbCircle
 10
2429.4
 20
1542.5
 30
0.0
 40
13.00000000000001
100
AcDbArc
 50
90.00000000000004
 51
156.4191633962913
  0
ARC
  5
33B
330
1F
100
AcDbEntity
  8
化粧台
  6
EXLTYPE2
 62
     6
100
AcDbCircle
 10
2440.672907943694
 20
1537.579477010213
 30
0.0
 40
25.3
100
AcDbArc
 50
156.4191633962913
 51
177.3482222838639
  0
LINE
  5
33C
330
1F
100
AcDbEntity
  8
化粧台
  6
EXLTYPE2
 62
     6
100
AcDbLine
 10
2431.4
 20
1500.5
 30
0.0
 11
2431.4
 21
1555.5
 31
0.0
  0
ARC
  5
33D
330
1F
100
AcDbEntity
  8
化粧台
  6
EXLTYPE2
 62
     6
100
AcDbCircle
 10
2386.233492688986
 20
1516.958176101744
 30
0.0
 40
6.48477522399863
100
AcDbArc
 50
334.5814208763676
 51
34.58142087631842
  0
ARC
  5
33E
330
1F
100
AcDbEntity
  8
化粧台
  6
EXLTYPE2
 62
     6
100
AcDbCircle
 10
2386.233492688988
 20
1539.041823898255
 30
0.0
 40
6.484775223996668
100
AcDbArc
 50
325.4185791236709
 51
25.41857912362466
  0
LINE
  5
33F
330
1F
100
AcDbEntity
  8
化粧台
  6
EXLTYPE2
 62
     6
100
AcDbLine
 10
2332.0
 20
1532.75
 30
0.0
 11
2332.0
 21
1523.25
 31
0.0
  0
LINE
  5
340
330
1F
100
AcDbEntity
  8
化粧台
  6
EXLTYPE2
 62
     6
100
AcDbLine
 10
2332.0
 20
1523.25
 30
0.0
 11
2337.600000000001
 21
1523.25
 31
0.0
  0
LINE
  5
341
330
1F
100
AcDbEntity
  8
化粧台
  6
EXLTYPE2
 62
     6
100
AcDbLine
 10
2332.0
 20
1532.75
 30
0.0
 11
2337.600000000001
 21
1532.75
 31
0.0
  0
LINE
  5
342
330
1F
100
AcDbEntity
  8
化粧台
  6
EXLTYPE2
 62
     6
100
AcDbLine
 10
2375.5
 20
1544.0
 30
0.0
 11
2375.5
 21
1550.699999999999
 31
0.0
  0
LINE
  5
343
330
1F
100
AcDbEntity
  8
化粧台
  6
EXLTYPE2
 62
     6
100
AcDbLine
 10
2354.5
 20
1544.0
 30
0.0
 11
2354.5
 21
1550.699999999999
 31
0.0
  0
LINE
  5
344
330
1F
100
AcDbEntity
  8
化粧台
  6
EXLTYPE2
 62
     6
100
AcDbLine
 10
2391.57254079757
 20
1535.361215932169
 30
0.0
 11
2386.0
 21
1535.361215932169
 31
0.0
  0
ARC
  5
345
330
1F
100
AcDbEntity
  8
化粧台
  6
EXLTYPE2
 62
     6
100
AcDbCircle
 10
2368.350108933172
 20
1528.0
 30
0.0
 40
24.36121593222906
100
AcDbArc
 50
342.4120462260467
 51
17.58795377395367
  0
LINE
  5
346
330
1F
100
AcDbEntity
  8
化粧台
  6
EXLTYPE2
 62
     6
100
AcDbLine
 10
2391.57254079757
 20
1520.638784067829
 30
0.0
 11
2386.0
 21
1520.638784067829
 31
0.0
  0
ARC
  5
347
330
1F
100
AcDbEntity
  8
化粧台
  6
EXLTYPE2
 62
     6
100
AcDbCircle
 10
2386.60996418852
 20
1516.958176101744
 30
0.0
 40
3.730808399165755
100
AcDbArc
 50
99.40974969436748
 51
210.0722396099043
  0
ARC
  5
348
330
1F
100
AcDbEntity
  8
化粧台
  6
EXLTYPE2
 62
     6
100
AcDbCircle
 10
2393.160901979815
 20
1528.0
 30
0.0
 40
10.26966490030429
100
AcDbArc
 50
134.209728477994
 51
225.790271522007
  0
ARC
  5
349
330
1F
100
AcDbEntity
  8
化粧台
  6
EXLTYPE2
 62
     6
100
AcDbCircle
 10
2386.60996418852
 20
1539.041823898255
 30
0.0
 40
3.730808399165569
100
AcDbArc
 50
149.9277603900981
 51
260.590250305647
  0
LINE
  5
34A
330
1F
100
AcDbEntity
  8
化粧台
  6
EXLTYPE2
 62
     6
100
AcDbLine
 10
2350.5
 20
1515.5
 30
0.0
 11
2381.10587997238
 21
1515.5
 31
0.0
  0
LINE
  5
34B
330
1F
100
AcDbEntity
  8
化粧台
  6
EXLTYPE2
 62
     6
100
AcDbLine
 10
2350.5
 20
1540.5
 30
0.0
 11
2351.0
 21
1540.5
 31
0.0
  0
ELLIPSE
  5
34C
330
1F
100
AcDbEntity
  8
化粧台
  6
EXLTYPE2
 62
     6
100
AcDbEllipse
 10
2346.72508278236
 20
1539.295087933359
 30
0.0
 11
-3.49106001094
 21
-2.673152616792092E-15
 31
0.0
210
0.0
220
0.0
230
1.0
 40
0.8464225929603442
 41
0.0
 42
6.283185307179586
  0
ELLIPSE
  5
34D
330
1F
100
AcDbEntity
  8
化粧台
  6
EXLTYPE2
 62
     6
100
AcDbEllipse
 10
2346.72508278236
 20
1528.0
 30
0.0
 11
-3.530391779415926E-15
 21
5.83630876496
 31
0.0
210
0.0
220
0.0
230
1.0
 40
0.5981623234020119
 41
0.0
 42
6.283185307179586
  0
ELLIPSE
  5
34E
330
1F
100
AcDbEntity
  8
化粧台
  6
EXLTYPE2
 62
     6
100
AcDbEllipse
 10
2346.72508278236
 20
1516.70491206664
 30
0.0
 11
-3.49106001094
 21
-2.673152616792092E-15
 31
0.0
210
0.0
220
0.0
230
1.0
 40
0.8464225929603442
 41
0.0
 42
6.283185307179586
  0
LINE
  5
34F
330
1F
100
AcDbEntity
  8
化粧台
  6
EXLTYPE2
 62
     6
100
AcDbLine
 10
2342.34345017772
 20
1515.925651083609
 30
0.0
 11
2342.34345017772
 21
1540.074348916489
 31
0.0
  0
LINE
  5
350
330
1F
100
AcDbEntity
  8
化粧台
  6
EXLTYPE2
 62
     6
100
AcDbLine
 10
2337.600000000001
 20
1533.299999999999
 30
0.0
 11
2342.34345017772
 21
1540.07434891639
 31
0.0
  0
ARC
  5
351
330
1F
100
AcDbEntity
  8
化粧台
  6
EXLTYPE2
 62
     6
100
AcDbCircle
 10
2346.72508278236
 20
1536.75
 30
0.0
 40
5.5
100
AcDbArc
 50
46.65824177279989
 51
142.8123740608007
  0
LINE
  5
352
330
1F
100
AcDbEntity
  8
化粧台
  6
EXLTYPE2
 62
     6
100
AcDbLine
 10
2337.600000000001
 20
1522.699999999999
 30
0.0
 11
2342.34345017772
 21
1515.925651083609
 31
0.0
  0
ARC
  5
353
330
1F
100
AcDbEntity
  8
化粧台
  6
EXLTYPE2
 62
     6
100
AcDbCircle
 10
2346.72508278236
 20
1519.25
 30
0.0
 40
5.5
100
AcDbArc
 50
217.1876259392006
 51
313.3417582272002
  0
LINE
  5
354
330
1F
100
AcDbEntity
  8
化粧台
  6
EXLTYPE2
 62
     6
100
AcDbLine
 10
2350.5
 20
1515.25
 30
0.0
 11
2350.5
 21
1540.75
 31
0.0
  0
LINE
  5
355
330
1F
100
AcDbEntity
  8
化粧台
  6
EXLTYPE2
 62
     6
100
AcDbLine
 10
2337.600000000001
 20
1522.699999999999
 30
0.0
 11
2337.600000000001
 21
1533.299999999999
 31
0.0
  0
LINE
  5
356
330
1F
100
AcDbEntity
  8
化粧台
  6
EXLTYPE2
 62
     6
100
AcDbLine
 10
2379.0
 20
1540.5
 30
0.0
 11
2381.105879972376
 21
1540.5
 31
0.0
  0
ARC
  5
357
330
1F
100
AcDbEntity
  8
化粧台
  6
EXLTYPE2
 62
     6
100
AcDbCircle
 10
2379.0
 20
1544.0
 30
0.0
 40
3.500000000000002
100
AcDbArc
 50
180.0
 51
270.0000000000002
  0
ARC
  5
358
330
1F
100
AcDbEntity
  8
化粧台
  6
EXLTYPE2
 62
     6
100
AcDbCircle
 10
2351.0
 20
1544.0
 30
0.0
 40
3.500000000000002
100
AcDbArc
 50
270.0000000000002
 51
0.0
  0
LINE
  5
359
330
1F
100
AcDbEntity
  8
化粧台
  6
EXLTYPE2
 62
     6
100
AcDbLine
 10
2391.57254079757
 20
1513.27756813566
 30
0.0
 11
2386.0
 21
1513.27756813566
 31
0.0
  0
LINE
  5
35A
330
1F
100
AcDbEntity
  8
化粧台
  6
EXLTYPE2
 62
     6
100
AcDbLine
 10
2391.57254079757
 20
1542.722431864339
 30
0.0
 11
2386.0
 21
1542.722431864339
 31
0.0
  0
LINE
  5
35B
330
1F
100
AcDbEntity
  8
化粧台
  6
EXLTYPE2
 62
     6
100
AcDbLine
 10
2393.0
 20
1540.25
 30
0.0
 11
2393.0
 21
1515.75
 31
0.0
  0
LINE
  5
35C
330
1F
100
AcDbEntity
  8
化粧台
  6
EXLTYPE2
 62
     6
100
AcDbLine
 10
2392.999999999999
 20
1515.75
 30
0.0
 11
2391.572540797568
 21
1513.27756813566
 31
0.0
  0
LINE
  5
35D
330
1F
100
AcDbEntity
  8
化粧台
  6
EXLTYPE2
 62
     6
100
AcDbLine
 10
2392.999999999999
 20
1540.249999999999
 30
0.0
 11
2391.572540797568
 21
1542.722431864339
 31
0.0
  0
ARC
  5
35E
330
1F
100
AcDbEntity
  8
化粧台
  6
EXLTYPE2
 62
     6
100
AcDbCircle
 10
2381.105879972376
 20
1509.0
 30
0.0
 40
6.500000000000004
100
AcDbArc
 50
41.1541700736668
 51
90.00000000000004
  0
ARC
  5
35F
330
1F
100
AcDbEntity
  8
化粧台
  6
EXLTYPE2
 62
     6
100
AcDbCircle
 10
2381.105879972376
 20
1547.0
 30
0.0
 40
6.500000000000004
100
AcDbArc
 50
270.0000000000002
 51
318.8458299263331
  0
ARC
  5
360
330
1F
100
AcDbEntity
  8
化粧台
  6
EXLTYPE2
 62
     6
100
AcDbCircle
 10
2363.249999999999
 20
1556.699999999999
 30
0.0
 40
11.0
100
AcDbArc
 50
146.9442688491499
 51
213.0557311508992
  0
LINE
  5
361
330
1F
100
AcDbEntity
  8
化粧台
  6
EXLTYPE2
 62
     6
100
AcDbLine
 10
2375.969544457289
 20
1550.699999999999
 30
0.0
 11
2354.030455542709
 21
1550.699999999999
 31
0.0
  0
ARC
  5
362
330
1F
100
AcDbEntity
  8
化粧台
  6
EXLTYPE2
 62
     6
100
AcDbCircle
 10
2366.749999999999
 20
1556.699999999999
 30
0.0
 40
11.0
100
AcDbArc
 50
326.9442688491002
 51
33.05573115089992
  0
LINE
  5
363
330
1F
100
AcDbEntity
  8
化粧台
  6
EXLTYPE2
 62
     6
100
AcDbLine
 10
2375.969544457289
 20
1562.699999999999
 30
0.0
 11
2354.030455542709
 21
1562.699999999999
 31
0.0
  0
ELLIPSE
  5
364
330
1F
100
AcDbEntity
  8
化粧台
  6
EXLTYPE2
 62
     6
100
AcDbEllipse
 10
2355.02177364984
 20
1556.699999999999
 30
0.0
 11
-9.355482006098073E-16
 21
-5.09288719687
 31
0.0
210
0.0
220
0.0
230
1.0
 40
0.544244068775661
 41
0.0
 42
6.283185307179586
  0
ELLIPSE
  5
365
330
1F
100
AcDbEntity
  8
化粧台
  6
EXLTYPE2
 62
     6
100
AcDbEllipse
 10
2364.999999999999
 20
1556.699999999999
 30
0.0
 11
5.50567888639
 21
0.0
 31
0.0
210
0.0
220
0.0
230
1.0
 40
0.9250243797290071
 41
0.0
 42
6.283185307179586
  0
ELLIPSE
  5
366
330
1F
100
AcDbEntity
  8
化粧台
  6
EXLTYPE2
 62
     6
100
AcDbEllipse
 10
2374.978226350161
 20
1556.699999999999
 30
0.0
 11
3.118494002032691E-16
 21
5.09288719687
 31
0.0
210
0.0
220
0.0
230
1.0
 40
0.544244068775661
 41
0.0
 42
6.283185307179586
  0
LINE
  5
367
330
1F
100
AcDbEntity
  8
化粧台
  6
EXLTYPE2
 62
     6
100
AcDbLine
 10
2371.499999999999
 20
1657.651716065574
 30
0.0
 11
2371.499999999999
 21
1562.699999999999
 31
0.0
  0
LINE
  5
368
330
1F
100
AcDbEntity
  8
化粧台
  6
EXLTYPE2
 62
     6
100
AcDbLine
 10
2358.499999999999
 20
1656.475339050107
 30
0.0
 11
2358.499999999999
 21
1562.699999999999
 31
0.0
  0
POLYLINE
  5
369
330
1F
100
AcDbEntity
  8
化粧台
  6
CONTINUOUS
 62
     2
100
AcDb2dPolyline
 66
     1
 10
0.0
 20
0.0
 30
0.0
 70
   128
  0
VERTEX
  5
36A
330
369
100
AcDbEntity
  8
化粧台
  6
CONTINUOUS
 62
     2
100
AcDbVertex
100
AcDb2dVertex
 10
2316.017563042749
 20
2068.981902445319
 30
0.0
  0
VERTEX
  5
36B
330
369
100
AcDbEntity
  8
化粧台
  6
CONTINUOUS
 62
     2
100
AcDbVertex
100
AcDb2dVertex
 10
2316.017565617754
 20
2068.978089308168
 30
0.0
  0
VERTEX
  5
36C
330
369
100
AcDbEntity
  8
化粧台
  6
CONTINUOUS
 62
     2
100
AcDbVertex
100
AcDb2dVertex
 10
2316.017570842468
 20
2068.967261247228
 30
0.0
  0
VERTEX
  5
36D
330
369
100
AcDbEntity
  8
化粧台
  6
CONTINUOUS
 62
     2
100
AcDbVertex
100
AcDb2dVertex
 10
2316.017574966432
 20
2068.95033528827
 30
0.0
  0
VERTEX
  5
36E
330
369
100
AcDbEntity
  8
化粧台
  6
CONTINUOUS
 62
     2
100
AcDbVertex
100
AcDb2dVertex
 10
2316.017574239192
 20
2068.928228457067
 30
0.0
  0
VERTEX
  5
36F
330
369
100
AcDbEntity
  8
化粧台
  6
CONTINUOUS
 62
     2
100
AcDbVertex
100
AcDb2dVertex
 10
2316.017564910289
 20
2068.901857779388
 30
0.0
  0
VERTEX
  5
370
330
369
100
AcDbEntity
  8
化粧台
  6
CONTINUOUS
 62
     2
100
AcDbVertex
100
AcDb2dVertex
 10
2316.01754322927
 20
2068.872140281005
 30
0.0
  0
VERTEX
  5
371
330
369
100
AcDbEntity
  8
化粧台
  6
CONTINUOUS
 62
     2
100
AcDbVertex
100
AcDb2dVertex
 10
2316.017505445678
 20
2068.839992987689
 30
0.0
  0
VERTEX
  5
372
330
369
100
AcDbEntity
  8
化粧台
  6
CONTINUOUS
 62
     2
100
AcDbVertex
100
AcDb2dVertex
 10
2316.017447809055
 20
2068.806332925211
 30
0.0
  0
VERTEX
  5
373
330
369
100
AcDbEntity
  8
化粧台
  6
CONTINUOUS
 62
     2
100
AcDbVertex
100
AcDb2dVertex
 10
2316.017366568947
 20
2068.772077119344
 30
0.0
  0
VERTEX
  5
374
330
369
100
AcDbEntity
  8
化粧台
  6
CONTINUOUS
 62
     2
100
AcDbVertex
100
AcDb2dVertex
 10
2316.017257974896
 20
2068.738142595855
 30
0.0
  0
VERTEX
  5
375
330
369
100
AcDbEntity
  8
化粧台
  6
CONTINUOUS
 62
     2
100
AcDbVertex
100
AcDb2dVertex
 10
2316.017118276448
 20
2068.705446380519
 30
0.0
  0
VERTEX
  5
376
330
369
100
AcDbEntity
  8
化粧台
  6
CONTINUOUS
 62
     2
100
AcDbVertex
100
AcDb2dVertex
 10
2316.016952104258
 20
2068.67588737835
 30
0.0
  0
VERTEX
  5
377
330
369
100
AcDbEntity
  8
化粧台
  6
CONTINUOUS
 62
     2
100
AcDbVertex
100
AcDb2dVertex
 10
2316.016755093212
 20
2068.648090701531
 30
0.0
  0
VERTEX
  5
378
330
369
100
AcDbEntity
  8
化粧台
  6
CONTINUOUS
 62
     2
100
AcDbVertex
100
AcDb2dVertex
 10
2316.016528558204
 20
2068.62183037054
 30
0.0
  0
VERTEX
  5
379
330
369
100
AcDbEntity
  8
化粧台
  6
CONTINUOUS
 62
     2
100
AcDbVertex
100
AcDb2dVertex
 10
2316.016273814132
 20
2068.596880405853
 30
0.0
  0
VERTEX
  5
37A
330
369
100
AcDbEntity
  8
化粧台
  6
CONTINUOUS
 62
     2
100
AcDbVertex
100
AcDb2dVertex
 10
2316.015992175893
 20
2068.57301482795
 30
0.0
  0
VERTEX
  5
37B
330
369
100
AcDbEntity
  8
化粧台
  6
CONTINUOUS
 62
     2
100
AcDbVertex
100
AcDb2dVertex
 10
2316.015684958383
 20
2068.550007657307
 30
0.0
  0
VERTEX
  5
37C
330
369
100
AcDbEntity
  8
化粧台
  6
CONTINUOUS
 62
     2
100
AcDbVertex
100
AcDb2dVertex
 10
2316.015353476498
 20
2068.527632914403
 30
0.0
  0
VERTEX
  5
37D
330
369
100
AcDbEntity
  8
化粧台
  6
CONTINUOUS
 62
     2
100
AcDbVertex
100
AcDb2dVertex
 10
2316.014999045135
 20
2068.505664619713
 30
0.0
  0
VERTEX
  5
37E
330
369
100
AcDbEntity
  8
化粧台
  6
CONTINUOUS
 62
     2
100
AcDbVertex
100
AcDb2dVertex
 10
2316.014622979192
 20
2068.483876793719
 30
0.0
  0
VERTEX
  5
37F
330
369
100
AcDbEntity
  8
化粧台
  6
CONTINUOUS
 62
     2
100
AcDbVertex
100
AcDb2dVertex
 10
2316.014226593565
 20
2068.462043456894
 30
0.0
  0
VERTEX
  5
380
330
369
100
AcDbEntity
  8
化粧台
  6
CONTINUOUS
 62
     2
100
AcDbVertex
100
AcDb2dVertex
 10
2316.01381120315
 20
2068.439938629719
 30
0.0
  0
VERTEX
  5
381
330
369
100
AcDbEntity
  8
化粧台
  6
CONTINUOUS
 62
     2
100
AcDbVertex
100
AcDb2dVertex
 10
2316.013438970567
 20
2068.420544064211
 30
0.0
  0
VERTEX
  5
382
330
369
100
AcDbEntity
  8
化粧台
  6
CONTINUOUS
 62
     2
100
AcDbVertex
100
AcDb2dVertex
 10
2316.013052304307
 20
2068.400803714723
 30
0.0
  0
VERTEX
  5
383
330
369
100
AcDbEntity
  8
化粧台
  6
CONTINUOUS
 62
     2
100
AcDbVertex
100
AcDb2dVertex
 10
2316.012649884602
 20
2068.380740582807
 30
0.0
  0
VERTEX
  5
384
330
369
100
AcDbEntity
  8
化粧台
  6
CONTINUOUS
 62
     2
100
AcDbVertex
100
AcDb2dVertex
 10
2316.012230391685
 20
2068.360377670014
 30
0.0
  0
VERTEX
  5
385
330
369
100
AcDbEntity
  8
化粧台
  6
CONTINUOUS
 62
     2
100
AcDbVertex
100
AcDb2dVertex
 10
2316.011792505791
 20
2068.339737977898
 30
0.0
  0
VERTEX
  5
386
330
369
100
AcDbEntity
  8
化粧台
  6
CONTINUOUS
 62
     2
100
AcDbVertex
100
AcDb2dVertex
 10
2316.011334907151
 20
2068.31884450801
 30
0.0
  0
VERTEX
  5
387
330
369
100
AcDbEntity
  8
化粧台
  6
CONTINUOUS
 62
     2
100
AcDbVertex
100
AcDb2dVertex
 10
2316.010856276
 20
2068.297720261902
 30
0.0
  0
VERTEX
  5
388
330
369
100
AcDbEntity
  8
化粧台
  6
CONTINUOUS
 62
     2
100
AcDbVertex
100
AcDb2dVertex
 10
2316.010355292571
 20
2068.276388241127
 30
0.0
  0
VERTEX
  5
389
330
369
100
AcDbEntity
  8
化粧台
  6
CONTINUOUS
 62
     2
100
AcDbVertex
100
AcDb2dVertex
 10
2316.009830637097
 20
2068.254871447236
 30
0.0
  0
VERTEX
  5
38A
330
369
100
AcDbEntity
  8
化粧台
  6
CONTINUOUS
 62
     2
100
AcDbVertex
100
AcDb2dVertex
 10
2316.009280989812
 20
2068.233192881783
 30
0.0
  0
VERTEX
  5
38B
330
369
100
AcDbEntity
  8
化粧台
  6
CONTINUOUS
 62
     2
100
AcDbVertex
100
AcDb2dVertex
 10
2316.008705030948
 20
2068.211375546319
 30
0.0
  0
VERTEX
  5
38C
330
369
100
AcDbEntity
  8
化粧台
  6
CONTINUOUS
 62
     2
100
AcDbVertex
100
AcDb2dVertex
 10
2316.008236886984
 20
2068.194271697501
 30
0.0
  0
VERTEX
  5
38D
330
369
100
AcDbEntity
  8
化粧台
  6
CONTINUOUS
 62
     2
100
AcDbVertex
100
AcDb2dVertex
 10
2316.007754811124
 20
2068.177159318775
 30
0.0
  0
VERTEX
  5
38E
330
369
100
AcDbEntity
  8
化粧台
  6
CONTINUOUS
 62
     2
100
AcDbVertex
100
AcDb2dVertex
 10
2316.007261708497
 20
2068.160100423187
 30
0.0
  0
VERTEX
  5
38F
330
369
100
AcDbEntity
  8
化粧台
  6
CONTINUOUS
 62
     2
100
AcDbVertex
100
AcDb2dVertex
 10
2316.006760484231
 20
2068.143157023785
 30
0.0
  0
VERTEX
  5
390
330
369
100
AcDbEntity
  8
化粧台
  6
CONTINUOUS
 62
     2
100
AcDbVertex
100
AcDb2dVertex
 10
2316.006254043458
 20
2068.126391133612
 30
0.0
  0
VERTEX
  5
391
330
369
100
AcDbEntity
  8
化粧台
  6
CONTINUOUS
 62
     2
100
AcDbVertex
100
AcDb2dVertex
 10
2316.005745291309
 20
2068.109864765717
 30
0.0
  0
VERTEX
  5
392
330
369
100
AcDbEntity
  8
化粧台
  6
CONTINUOUS
 62
     2
100
AcDbVertex
100
AcDb2dVertex
 10
2316.005237132911
 20
2068.093639933146
 30
0.0
  0
VERTEX
  5
393
330
369
100
AcDbEntity
  8
化粧台
  6
CONTINUOUS
 62
     2
100
AcDbVertex
100
AcDb2dVertex
 10
2316.004732473397
 20
2068.077778648943
 30
0.0
  0
VERTEX
  5
394
330
369
100
AcDbEntity
  8
化粧台
  6
CONTINUOUS
 62
     2
100
AcDbVertex
100
AcDb2dVertex
 10
2316.004234217895
 20
2068.062342926158
 30
0.0
  0
VERTEX
  5
395
330
369
100
AcDbEntity
  8
化粧台
  6
CONTINUOUS
 62
     2
100
AcDbVertex
100
AcDb2dVertex
 10
2316.003745271535
 20
2068.047394777834
 30
0.0
  0
VERTEX
  5
396
330
369
100
AcDbEntity
  8
化粧台
  6
CONTINUOUS
 62
     2
100
AcDbVertex
100
AcDb2dVertex
 10
2316.003268539449
 20
2068.032996217019
 30
0.0
  0
VERTEX
  5
397
330
369
100
AcDbEntity
  8
化粧台
  6
CONTINUOUS
 62
     2
100
AcDbVertex
100
AcDb2dVertex
 10
2316.00297715141
 20
2068.024281688124
 30
0.0
  0
VERTEX
  5
398
330
369
100
AcDbEntity
  8
化粧台
  6
CONTINUOUS
 62
     2
100
AcDbVertex
100
AcDb2dVertex
 10
2316.002686388876
 20
2068.015675442001
 30
0.0
  0
VERTEX
  5
399
330
369
100
AcDbEntity
  8
化粧台
  6
CONTINUOUS
 62
     2
100
AcDbVertex
100
AcDb2dVertex
 10
2316.002390974366
 20
2068.007046977687
 30
0.0
  0
VERTEX
  5
39A
330
369
100
AcDbEntity
  8
化粧台
  6
CONTINUOUS
 62
     2
100
AcDbVertex
100
AcDb2dVertex
 10
2316.002085630403
 20
2067.998265794224
 30
0.0
  0
VERTEX
  5
39B
330
369
100
AcDbEntity
  8
化粧台
  6
CONTINUOUS
 62
     2
100
AcDbVertex
100
AcDb2dVertex
 10
2316.001765079508
 20
2067.989201390647
 30
0.0
  0
VERTEX
  5
39C
330
369
100
AcDbEntity
  8
化粧台
  6
CONTINUOUS
 62
     2
100
AcDbVertex
100
AcDb2dVertex
 10
2316.001424044201
 20
2067.979723265998
 30
0.0
  0
VERTEX
  5
39D
330
369
100
AcDbEntity
  8
化粧台
  6
CONTINUOUS
 62
     2
100
AcDbVertex
100
AcDb2dVertex
 10
2316.001057247006
 20
2067.969700919316
 30
0.0
  0
VERTEX
  5
39E
330
369
100
AcDbEntity
  8
化粧台
  6
CONTINUOUS
 62
     2
100
AcDbVertex
100
AcDb2dVertex
 10
2316.000659410441
 20
2067.959003849637
 30
0.0
  0
VERTEX
  5
39F
330
369
100
AcDbEntity
  8
化粧台
  6
CONTINUOUS
 62
     2
100
AcDbVertex
100
AcDb2dVertex
 10
2316.000225257029
 20
2067.947501556002
 30
0.0
  0
VERTEX
  5
3A0
330
369
100
AcDbEntity
  8
化粧台
  6
CONTINUOUS
 62
     2
100
AcDbVertex
100
AcDb2dVertex
 10
2315.999749509291
 20
2067.935063537449
 30
0.0
  0
VERTEX
  5
3A1
330
369
100
AcDbEntity
  8
化粧台
  6
CONTINUOUS
 62
     2
100
AcDbVertex
100
AcDb2dVertex
 10
2315.99922688975
 20
2067.921559293019
 30
0.0
  0
VERTEX
  5
3A2
330
369
100
AcDbEntity
  8
化粧台
  6
CONTINUOUS
 62
     2
100
AcDbVertex
100
AcDb2dVertex
 10
2315.999039265315
 20
2067.916744377638
 30
0.0
  0
VERTEX
  5
3A3
330
369
100
AcDbEntity
  8
化粧台
  6
CONTINUOUS
 62
     2
100
AcDbVertex
100
AcDb2dVertex
 10
2315.99884982073
 20
2067.911896134572
 30
0.0
  0
VERTEX
  5
3A4
330
369
100
AcDbEntity
  8
化粧台
  6
CONTINUOUS
 62
     2
100
AcDbVertex
100
AcDb2dVertex
 10
2315.998662704543
 20
2067.907118206417
 30
0.0
  0
VERTEX
  5
3A5
330
369
100
AcDbEntity
  8
化粧台
  6
CONTINUOUS
 62
     2
100
AcDbVertex
100
AcDb2dVertex
 10
2315.998482065304
 20
2067.902514235771
 30
0.0
  0
VERTEX
  5
3A6
330
369
100
AcDbEntity
  8
化粧台
  6
CONTINUOUS
 62
     2
100
AcDbVertex
100
AcDb2dVertex
 10
2315.998312051562
 20
2067.89818786523
 30
0.0
  0
VERTEX
  5
3A7
330
369
100
AcDbEntity
  8
化粧台
  6
CONTINUOUS
 62
     2
100
AcDbVertex
100
AcDb2dVertex
 10
2315.998156811863
 20
2067.894242737391
 30
0.0
  0
VERTEX
  5
3A8
330
369
100
AcDbEntity
  8
化粧台
  6
CONTINUOUS
 62
     2
100
AcDbVertex
100
AcDb2dVertex
 10
2315.998020494758
 20
2067.890782494851
 30
0.0
  0
VERTEX
  5
3A9
330
369
100
AcDbEntity
  8
化粧台
  6
CONTINUOUS
 62
     2
100
AcDbVertex
100
AcDb2dVertex
 10
2315.997907248796
 20
2067.887910780208
 30
0.0
  0
VERTEX
  5
3AA
330
369
100
AcDbEntity
  8
化粧台
  6
CONTINUOUS
 62
     2
100
AcDbVertex
100
AcDb2dVertex
 10
2315.997821222524
 20
2067.885731236056
 30
0.0
  0
VERTEX
  5
3AB
330
369
100
AcDbEntity
  8
化粧台
  6
CONTINUOUS
 62
     2
100
AcDbVertex
100
AcDb2dVertex
 10
2315.997766564492
 20
2067.884347504995
 30
0.0
  0
VERTEX
  5
3AC
330
369
100
AcDbEntity
  8
化粧台
  6
CONTINUOUS
 62
     2
100
AcDbVertex
100
AcDb2dVertex
 10
2315.997747423248
 20
2067.883863229619
 30
0.0
  0
SEQEND
  5
3AD
330
369
100
AcDbEntity
  8
化粧台
  6
CONTINUOUS
 62
     2
  0
ARC
  5
3AE
330
1F
100
AcDbEntity
  8
化粧台
  6
CONTINUOUS
 62
     2
100
AcDbCircle
 10
2373.107634770288
 20
1987.377355165994
 30
0.0
 40
4.0
100
AcDbArc
 50
90.00000000000004
 51
152.0000000000157
  0
LINE
  5
3AF
330
1F
100
AcDbEntity
  8
化粧台
  6
CONTINUOUS
 62
     2
100
AcDbLine
 10
2388.168597735204
 20
2000.218439598568
 30
0.0
 11
2388.168597735204
 21
1988.536270733422
 31
0.0
  0
ARC
  5
3B0
330
1F
100
AcDbEntity
  8
化粧台
  6
CONTINUOUS
 62
     2
100
AcDbCircle
 10
2370.617513245793
 20
1994.377355165996
 30
0.0
 40
18.55108448941109
100
AcDbArc
 50
342.298206924487
 51
17.70179307551334
  0
ARC
  5
3B1
330
1F
100
AcDbEntity
  8
化粧台
  6
CONTINUOUS
 62
     2
100
AcDbCircle
 10
2373.668597735204
 20
1989.651130687875
 30
0.0
 40
0.5
100
AcDbArc
 50
180.0
 51
266.9147122891804
  0
ARC
  5
3B2
330
1F
100
AcDbEntity
  8
化粧台
  6
CONTINUOUS
 62
     2
100
AcDbCircle
 10
2387.813914373982
 20
1988.88869053036
 30
0.0
 40
0.5
100
AcDbArc
 50
266.9147122891804
 51
342.2982069244847
  0
LINE
  5
3B3
330
1F
100
AcDbEntity
  8
化粧台
  6
CONTINUOUS
 62
     2
100
AcDbLine
 10
2373.64168653067
 20
1989.15185542605
 30
0.0
 11
2387.787003169448
 21
1988.389415268535
 31
0.0
  0
LINE
  5
3B4
330
1F
100
AcDbEntity
  8
化粧台
  6
CONTINUOUS
 62
     2
100
AcDbLine
 10
2309.925576107132
 20
2082.998321199392
 30
0.0
 11
2245.030886779231
 21
2094.441005832595
 31
0.0
  0
LINE
  5
3B5
330
1F
100
AcDbEntity
  8
化粧台
  6
CONTINUOUS
 62
     2
100
AcDbLine
 10
2223.196642246251
 20
2038.978998280227
 30
0.0
 11
2315.999999999955
 21
2022.615262407908
 31
0.0
  0
LINE
  5
3B6
330
1F
100
AcDbEntity
  8
化粧台
  6
CONTINUOUS
 62
     2
100
AcDbLine
 10
2252.847710805345
 20
2003.28791652985
 30
0.0
 11
2315.999999999955
 21
1992.152464051336
 31
0.0
  0
ARC
  5
3B7
330
1F
100
AcDbEntity
  8
化粧台
  6
CONTINUOUS
 62
     2
100
AcDbCircle
 10
2373.668597735204
 20
1999.103579644115
 30
0.0
 40
0.5
100
AcDbArc
 50
93.08528771081971
 51
180.0
  0
ARC
  5
3B8
330
1F
100
AcDbEntity
  8
化粧台
  6
CONTINUOUS
 62
     2
100
AcDbCircle
 10
2387.813914373985
 20
1999.866019801632
 30
0.0
 40
0.5
100
AcDbArc
 50
17.70179307551546
 51
93.08528771081971
  0
LINE
  5
3B9
330
1F
100
AcDbEntity
  8
化粧台
  6
CONTINUOUS
 62
     2
100
AcDbLine
 10
2373.64168653067
 20
1999.60285490594
 30
0.0
 11
2387.787003169448
 21
2000.365295063457
 31
0.0
  0
ARC
  5
3BA
330
1F
100
AcDbEntity
  8
化粧台
  6
CONTINUOUS
 62
     2
100
AcDbCircle
 10
2363.999999999957
 20
2054.38386322962
 30
0.0
 40
2.0
100
AcDbArc
 50
0.0
 51
91.59964278381122
  0
LINE
  5
3BB
330
1F
100
AcDbEntity
  8
化粧台
  6
CONTINUOUS
 62
     2
100
AcDbLine
 10
2365.499999999955
 20
2050.38386322962
 30
0.0
 11
2365.999999999955
 21
2049.88386322962
 31
0.0
  0
LINE
  5
3BC
330
1F
100
AcDbEntity
  8
化粧台
  6
CONTINUOUS
 62
     2
100
AcDbLine
 10
2365.999999999957
 20
2054.38386322962
 30
0.0
 11
2365.999999999957
 21
2050.38386322962
 31
0.0
  0
ARC
  5
3BD
330
1F
100
AcDbEntity
  8
化粧台
  6
CONTINUOUS
 62
     2
100
AcDbCircle
 10
2363.91625378029
 20
2057.382694096923
 30
0.0
 40
1.0
100
AcDbArc
 50
192.5742827824677
 51
271.5996427838118
  0
LINE
  5
3BE
330
1F
100
AcDbEntity
  8
化粧台
  6
CONTINUOUS
 62
     2
100
AcDbLine
 10
2316.499999999955
 20
2050.38386322962
 30
0.0
 11
2315.999999999955
 21
2049.88386322962
 31
0.0
  0
LINE
  5
3BF
330
1F
100
AcDbEntity
  8
化粧台
  6
CONTINUOUS
 62
     2
100
AcDbLine
 10
2318.084007032093
 20
2056.38386322962
 30
0.0
 11
2317.999999999957
 21
2056.38386322962
 31
0.0
  0
ARC
  5
3C0
330
1F
100
AcDbEntity
  8
化粧台
  6
CONTINUOUS
 62
     2
100
AcDbCircle
 10
2318.084007032093
 20
2057.38386322962
 30
0.0
 40
1.0
100
AcDbArc
 50
270.0000000000002
 51
347.4227966668945
  0
LINE
  5
3C1
330
1F
100
AcDbEntity
  8
化粧台
  6
CONTINUOUS
 62
     2
100
AcDbLine
 10
2315.999999999957
 20
2054.38386322962
 30
0.0
 11
2315.999999999957
 21
2050.383863229621
 31
0.0
  0
ARC
  5
3C2
330
1F
100
AcDbEntity
  8
化粧台
  6
CONTINUOUS
 62
     2
100
AcDbCircle
 10
2317.999999999957
 20
2054.38386322962
 30
0.0
 40
2.0
100
AcDbArc
 50
90.00000000000004
 51
180.0
  0
ARC
  5
3C3
330
1F
100
AcDbEntity
  8
化粧台
  6
CONTINUOUS
 62
     2
100
AcDbCircle
 10
2340.999999999953
 20
1919.899864122711
 30
0.0
 40
179.0833333331876
100
AcDbArc
 50
82.53720600166491
 51
97.46279399833509
  0
ARC
  5
3C4
330
1F
100
AcDbEntity
  8
化粧台
  6
CONTINUOUS
 62
     2
100
AcDbCircle
 10
2340.999999999953
 20
1919.899864122711
 30
0.0
 40
179.0833333331876
100
AcDbArc
 50
82.53720600166491
 51
97.46279399833509
  0
ARC
  5
3C5
330
1F
100
AcDbEntity
  8
化粧台
  6
CONTINUOUS
 62
     2
100
AcDbCircle
 10
2363.999999999959
 20
2095.483197455897
 30
0.0
 40
2.0
100
AcDbArc
 50
0.0
 51
90.00000000000004
  0
ARC
  5
3C6
330
1F
100
AcDbEntity
  8
化粧台
  6
CONTINUOUS
 62
     2
100
AcDbCircle
 10
2363.999999999959
 20
2095.483197455897
 30
0.0
 40
2.0
100
AcDbArc
 50
0.0
 51
90.00000000000004
  0
LINE
  5
3C7
330
1F
100
AcDbEntity
  8
化粧台
  6
CONTINUOUS
 62
     2
100
AcDbLine
 10
2365.999999999959
 20
2066.618667765865
 30
0.0
 11
2365.999999999959
 21
2095.483197455897
 31
0.0
  0
LINE
  5
3C8
330
1F
100
AcDbEntity
  8
化粧台
  6
CONTINUOUS
 62
     2
100
AcDbLine
 10
2365.999999999959
 20
2066.618667765865
 30
0.0
 11
2365.999999999959
 21
2095.483197455897
 31
0.0
  0
LINE
  5
3C9
330
1F
100
AcDbEntity
  8
化粧台
  6
CONTINUOUS
 62
     2
100
AcDbLine
 10
2311.720341316141
 20
2090.297555258151
 30
0.0
 11
2312.935878559808
 21
2097.191209529238
 31
0.0
  0
ARC
  5
3CA
330
1F
100
AcDbEntity
  8
化粧台
  6
CONTINUOUS
 62
     2
100
AcDbCircle
 10
2312.443474683304
 20
2097.278033618069
 30
0.0
 40
0.5
100
AcDbArc
 50
350.0000000000475
 51
79.99999999999613
  0
ARC
  5
3CB
330
1F
100
AcDbEntity
  8
化粧台
  6
CONTINUOUS
 62
     2
100
AcDbCircle
 10
2312.994161992148
 20
2094.642366057872
 30
0.0
 40
0.5
100
AcDbArc
 50
170.0000000000474
 51
259.9999999999962
  0
ARC
  5
3CC
330
1F
100
AcDbEntity
  8
化粧台
  6
CONTINUOUS
 62
     2
100
AcDbCircle
 10
2310.012400195966
 20
2083.490725075896
 30
0.0
 40
0.5
100
AcDbArc
 50
259.9999999999962
 51
349.9999999999964
  0
ARC
  5
3CD
330
1F
100
AcDbEntity
  8
化粧台
  6
CONTINUOUS
 62
     2
100
AcDbCircle
 10
2311.431328393147
 20
2085.779096280762
 30
0.0
 40
0.5
100
AcDbArc
 50
79.99999999999613
 51
170.0000000000474
  0
LINE
  5
3CE
330
1F
100
AcDbEntity
  8
化粧台
  6
CONTINUOUS
 62
     2
100
AcDbLine
 10
2310.504804072475
 20
2083.403900987064
 30
0.0
 11
2311.720341316143
 21
2090.297555258151
 31
0.0
  0
ARC
  5
3CF
330
1F
100
AcDbEntity
  8
化粧台
  6
CONTINUOUS
 62
     2
100
AcDbCircle
 10
2321.069440018166
 20
2073.98386322962
 30
0.0
 40
7.55007125855991
100
AcDbArc
 50
137.5077625694678
 51
222.4922374305324
  0
ARC
  5
3D0
330
1F
100
AcDbEntity
  8
化粧台
  6
CONTINUOUS
 62
     2
100
AcDbCircle
 10
2317.999999999955
 20
2095.483197455897
 30
0.0
 40
2.0
100
AcDbArc
 50
90.00000000000004
 51
180.0
  0
ARC
  5
3D1
330
1F
100
AcDbEntity
  8
化粧台
  6
CONTINUOUS
 62
     2
100
AcDbCircle
 10
2317.999999999955
 20
2095.483197455897
 30
0.0
 40
2.0
100
AcDbArc
 50
90.00000000000004
 51
180.0
  0
LINE
  5
3D2
330
1F
100
AcDbEntity
  8
化粧台
  6
CONTINUOUS
 62
     2
100
AcDbLine
 10
2315.999999999955
 20
2079.08386322962
 30
0.0
 11
2315.502252576617
 21
2079.08386322962
 31
0.0
  0
ARC
  5
3D3
330
1F
100
AcDbEntity
  8
化粧台
  6
CONTINUOUS
 62
     2
100
AcDbCircle
 10
2294.334229433686
 20
2011.204123138295
 30
0.0
 40
78.0
100
AcDbArc
 50
160.1509730893505
 51
174.7549748694838
  0
LINE
  5
3D4
330
1F
100
AcDbEntity
  8
化粧台
  6
CONTINUOUS
 62
     2
100
AcDbLine
 10
2243.070284598552
 20
2003.667247595459
 30
0.0
 11
2221.404514032281
 21
2007.487507504133
 31
0.0
  0
LINE
  5
3D5
330
1F
100
AcDbEntity
  8
化粧台
  6
CONTINUOUS
 62
     2
100
AcDbLine
 10
2221.404514032281
 20
2007.487507504132
 30
0.0
 11
2243.070284598552
 21
2003.66724759546
 31
0.0
  0
LINE
  5
3D6
330
1F
100
AcDbEntity
  8
化粧台
  6
CONTINUOUS
 62
     2
100
AcDbLine
 10
2243.070284598552
 20
2003.667247595459
 30
0.0
 11
2244.155348173686
 21
2004.062178439094
 31
0.0
  0
LINE
  5
3D7
330
1F
100
AcDbEntity
  8
化粧台
  6
CONTINUOUS
 62
     2
100
AcDbLine
 10
2243.070284598552
 20
2003.66724759546
 30
0.0
 11
2244.155348173683
 21
2004.062178439095
 31
0.0
  0
LINE
  5
3D8
330
1F
100
AcDbEntity
  8
化粧台
  6
CONTINUOUS
 62
     2
100
AcDbLine
 10
2248.402914443251
 20
2010.875012351876
 30
0.0
 11
2252.847710805345
 21
2003.28791652985
 31
0.0
  0
LINE
  5
3D9
330
1F
100
AcDbEntity
  8
化粧台
  6
CONTINUOUS
 62
     2
100
AcDbLine
 10
2221.404514032284
 20
2007.487507504132
 30
0.0
 11
2220.519962101392
 21
2008.2297347031
 31
0.0
  0
LINE
  5
3DA
330
1F
100
AcDbEntity
  8
化粧台
  6
CONTINUOUS
 62
     2
100
AcDbLine
 10
2221.404514032281
 20
2007.487507504132
 30
0.0
 11
2220.51996210139
 21
2008.2297347031
 31
0.0
  0
ARC
  5
3DB
330
1F
100
AcDbEntity
  8
化粧台
  6
CONTINUOUS
 62
     2
100
AcDbCircle
 10
2218.65245141173
 20
2018.151674896675
 30
0.0
 40
2.0
100
AcDbArc
 50
174.7549748694831
 51
259.9999999999939
  0
ARC
  5
3DC
330
1F
100
AcDbEntity
  8
化粧台
  6
CONTINUOUS
 62
     2
100
AcDbCircle
 10
2222.849345890917
 20
2037.009382774203
 30
0.0
 40
2.0
100
AcDbArc
 50
79.99999999999385
 51
160.1509730893505
  0
LINE
  5
3DD
330
1F
100
AcDbEntity
  8
化粧台
  6
CONTINUOUS
 62
     2
100
AcDbLine
 10
2244.146757458812
 20
2095.612328298107
 30
0.0
 11
2246.404183768481
 21
2108.414829087264
 31
0.0
  0
ARC
  5
3DE
330
1F
100
AcDbEntity
  8
化粧台
  6
CONTINUOUS
 62
     2
100
AcDbCircle
 10
2245.131565211824
 20
2095.438680120439
 30
0.0
 40
1.0
100
AcDbArc
 50
169.9999999999962
 51
259.9999999999962
  0
ARC
  5
3DF
330
1F
100
AcDbEntity
  8
化粧台
  6
CONTINUOUS
 62
     2
100
AcDbCircle
 10
2247.388991521495
 20
2108.241180909597
 30
0.0
 40
1.0
100
AcDbArc
 50
79.99999999999613
 51
169.9999999999962
  0
LINE
  5
3E0
330
1F
100
AcDbEntity
  8
化粧台
  6
CONTINUOUS
 62
     2
100
AcDbLine
 10
2315.99999999996
 20
2059.919937955087
 30
0.0
 11
2315.99999999996
 21
2067.88386322962
 31
0.0
  0
LINE
  5
3E1
330
1F
100
AcDbEntity
  8
化粧台
  6
CONTINUOUS
 62
     2
100
AcDbLine
 10
2315.999999999955
 20
2059.919937955087
 30
0.0
 11
2315.999999999955
 21
2073.983863229622
 31
0.0
  0
LINE
  5
3E2
330
1F
100
AcDbEntity
  8
化粧台
  6
CONTINUOUS
 62
     2
100
AcDbLine
 10
2312.907337903317
 20
2094.149962181365
 30
0.0
 11
2315.999999999955
 21
2093.604642411514
 31
0.0
  0
LINE
  5
3E3
330
1F
100
AcDbEntity
  8
化粧台
  6
CONTINUOUS
 62
     2
100
AcDbLine
 10
2311.518152481981
 20
2086.271500157268
 30
0.0
 11
2315.999999999955
 21
2085.481229516428
 31
0.0
  0
LINE
  5
3E4
330
1F
100
AcDbEntity
  8
化粧台
  6
CONTINUOUS
 62
     2
100
AcDbLine
 10
2340.99999999995
 20
2059.919937955087
 30
0.0
 11
2365.999999999959
 21
2066.618667765865
 31
0.0
  0
LINE
  5
3E5
330
1F
100
AcDbEntity
  8
化粧台
  6
CONTINUOUS
 62
     2
100
AcDbLine
 10
2315.999999999955
 20
2059.919937955087
 30
0.0
 11
2340.99999999995
 21
2059.919937955087
 31
0.0
  0
ARC
  5
3E6
330
1F
100
AcDbEntity
  8
化粧台
  6
CONTINUOUS
 62
     2
100
AcDbCircle
 10
2341.020088784958
 20
2052.266622388519
 30
0.0
 40
22.5
100
AcDbArc
 50
160.1141478017083
 51
167.4227966668966
  0
ARC
  5
3E7
330
1F
100
AcDbEntity
  8
化粧台
  6
CONTINUOUS
 62
     2
100
AcDbCircle
 10
2340.979911214955
 20
2052.266622388519
 30
0.0
 40
22.5
100
AcDbArc
 50
12.57428278246711
 51
34.16720412636025
  0
LINE
  5
3E8
330
1F
100
AcDbEntity
  8
化粧台
  6
CONTINUOUS
 62
     2
100
AcDbLine
 10
2373.168597735204
 20
1999.103579644116
 30
0.0
 11
2373.168597735204
 21
1994.377355165995
 31
0.0
  0
LINE
  5
3E9
330
1F
100
AcDbEntity
  8
化粧台
  6
CONTINUOUS
 62
     2
100
AcDbLine
 10
2373.168597735204
 20
1994.377355165995
 30
0.0
 11
2373.168597735204
 21
1989.651130687875
 31
0.0
  0
LINE
  5
3EA
330
1F
100
AcDbEntity
  8
化粧台
  6
CONTINUOUS
 62
     2
100
AcDbLine
 10
2365.999999999955
 20
2049.88386322962
 30
0.0
 11
2365.999999999955
 21
1988.920219624741
 31
0.0
  0
LINE
  5
3EB
330
1F
100
AcDbEntity
  8
化粧台
  6
CONTINUOUS
 62
     2
100
AcDbLine
 10
2233.630798148068
 20
2013.479735016881
 30
0.0
 11
2248.402914443251
 21
2010.875012351876
 31
0.0
  0
LINE
  5
3EC
330
1F
100
AcDbEntity
  8
化粧台
  6
CONTINUOUS
 62
     2
100
AcDbLine
 10
2218.305155056397
 20
2016.18205939065
 30
0.0
 11
2233.630798148068
 21
2013.479735016879
 31
0.0
  0
LINE
  5
3ED
330
1F
100
AcDbEntity
  8
化粧台
  6
CONTINUOUS
 62
     2
100
AcDbLine
 10
2221.813105111922
 20
2015.563513148883
 30
0.0
 11
2220.519962101392
 21
2008.2297347031
 31
0.0
  0
LINE
  5
3EE
330
1F
100
AcDbEntity
  8
化粧台
  6
CONTINUOUS
 62
     2
100
AcDbLine
 10
2245.448491184215
 20
2011.395956884877
 30
0.0
 11
2244.155348173686
 21
2004.062178439094
 31
0.0
  0
LINE
  5
3EF
330
1F
100
AcDbEntity
  8
化粧台
  6
CONTINUOUS
 62
     2
100
AcDbLine
 10
2315.999999999955
 20
2049.88386322962
 30
0.0
 11
2315.999999999953
 21
2022.615262407909
 31
0.0
  0
LINE
  5
3F0
330
1F
100
AcDbEntity
  8
化粧台
  6
CONTINUOUS
 62
     2
100
AcDbLine
 10
2315.999999999955
 20
2093.604642411507
 30
0.0
 11
2315.999999999955
 21
2095.483197455897
 31
0.0
  0
LINE
  5
3F1
330
1F
100
AcDbEntity
  8
化粧台
  6
CONTINUOUS
 62
     2
100
AcDbLine
 10
2315.999999999955
 20
2073.983863229622
 30
0.0
 11
2315.999999999955
 21
2085.481229516432
 31
0.0
  0
ARC
  5
3F2
330
1F
100
AcDbEntity
  8
化粧台
  6
CONTINUOUS
 62
     2
100
AcDbCircle
 10
2298.58322704945
 20
2007.383863229625
 30
0.0
 40
23.13740480126591
100
AcDbArc
 50
318.8295003524858
 51
41.17049964751445
  0
ARC
  5
3F3
330
1F
100
AcDbEntity
  8
化粧台
  6
CONTINUOUS
 62
     2
100
AcDbCircle
 10
2311.184405712157
 20
2089.54293596397
 30
0.0
 40
6.29979425145349
100
AcDbArc
 50
319.854088080027
 51
40.14591191997305
  0
LINE
  5
3F4
330
1F
100
AcDbEntity
  8
化粧台
  6
CONTINUOUS
 62
     2
100
AcDbLine
 10
2340.999999999955
 20
2050.38386322962
 30
0.0
 11
2365.999999999957
 21
2050.38386322962
 31
0.0
  0
LINE
  5
3F5
330
1F
100
AcDbEntity
  8
化粧台
  6
CONTINUOUS
 62
     2
100
AcDbLine
 10
2315.999999999957
 20
2050.38386322962
 30
0.0
 11
2340.999999999955
 21
2050.38386322962
 31
0.0
  0
LINE
  5
3F6
330
1F
100
AcDbEntity
  8
化粧台
  6
CONTINUOUS
 62
     2
100
AcDbLine
 10
2312.344509642359
 20
2097.80319713088
 30
0.0
 11
2247.56263969916
 21
2109.225988662612
 31
0.0
  0
ARC
  5
3F7
330
1F
100
AcDbEntity
  8
化粧台
  6
CONTINUOUS
 62
     2
100
AcDbCircle
 10
2373.107634770288
 20
1987.377355165994
 30
0.0
 40
10.0
100
AcDbArc
 50
90.00000000000004
 51
135.2970679141359
  0
LINE
  5
3F8
330
1F
100
AcDbEntity
  8
化粧台
  6
CONTINUOUS
 62
     2
100
AcDbLine
 10
2365.999999999955
 20
1982.53005622017
 30
0.0
 11
2369.575844398853
 21
1989.255241417138
 31
0.0
  0
LINE
  5
3F9
330
1F
100
AcDbEntity
  8
化粧台
  6
CONTINUOUS
 62
     2
100
AcDbLine
 10
2315.999999999955
 20
1992.152464051336
 30
0.0
 11
2315.999999999955
 21
1955.751291155614
 31
0.0
  0
LINE
  5
3FA
330
1F
100
AcDbEntity
  8
化粧台
  6
CONTINUOUS
 62
     2
100
AcDbLine
 10
2365.999999999955
 20
1988.920219624741
 30
0.0
 11
2365.999999999955
 21
1956.887654791978
 31
0.0
  0
LINE
  5
3FB
330
1F
100
AcDbEntity
  8
化粧台
  6
CONTINUOUS
 62
     2
100
AcDbLine
 10
895.000000000011
 20
2049.88386322962
 30
0.0
 11
895.000000000011
 21
1948.383863229621
 31
0.0
  0
LINE
  5
3FC
330
1F
100
AcDbEntity
  8
化粧台
  6
CONTINUOUS
 62
     2
100
AcDbLine
 10
945.000000000011
 20
2049.88386322962
 30
0.0
 11
945.000000000011
 21
1948.383863229621
 31
0.0
  0
LINE
  5
3FD
330
1F
100
AcDbEntity
  8
化粧台
  6
CONTINUOUS
 62
     2
100
AcDbLine
 10
945.000000000011
 20
2095.4831974559
 30
0.0
 11
945.000000000011
 21
2059.91993795509
 31
0.0
  0
LINE
  5
3FE
330
1F
100
AcDbEntity
  8
化粧台
  6
CONTINUOUS
 62
     2
100
AcDbLine
 10
895.000000000011
 20
2095.483197455901
 30
0.0
 11
895.000000000011
 21
2059.919937955087
 31
0.0
  0
ARC
  5
3FF
330
1F
100
AcDbEntity
  8
化粧台
  6
CONTINUOUS
 62
     2
100
AcDbCircle
 10
920.000000000011
 20
2021.682011887633
 30
0.0
 40
15.00000000000001
100
AcDbArc
 50
322.9040503969896
 51
217.0959496030113
  0
ELLIPSE
  5
400
330
1F
100
AcDbEntity
  8
化粧台
  6
CONTINUOUS
 62
     2
100
AcDbEllipse
 10
920.000000000011
 20
2012.211821256691
 30
0.0
 11
-12.0
 21
1.469576158976824E-15
 31
0.0
210
0.0
220
0.0
230
1.0
 40
0.2210297627753829
 41
3.141592653589793
 42
6.283185307179586
  0
ELLIPSE
  5
401
330
1F
100
AcDbEntity
  8
化粧台
  6
CONTINUOUS
 62
     2
100
AcDbEllipse
 10
920.000000000011
 20
2002.991405671183
 30
0.0
 11
-12.0
 21
1.469576158976824E-15
 31
0.0
210
0.0
220
0.0
230
1.0
 40
0.1736481776669242
 41
0.0
 42
6.283185307179586
  0
LINE
  5
402
330
1F
100
AcDbEntity
  8
化粧台
  6
CONTINUOUS
 62
     2
100
AcDbLine
 10
908.0000000000124
 20
2002.991405671182
 30
0.0
 11
908.0000000000124
 21
2012.42341089559
 31
0.0
  0
LINE
  5
403
330
1F
100
AcDbEntity
  8
化粧台
  6
CONTINUOUS
 62
     2
100
AcDbLine
 10
932.0000000000124
 20
2002.991405671182
 30
0.0
 11
932.0000000000124
 21
2012.423410895589
 31
0.0
  0
LINE
  5
404
330
1F
100
AcDbEntity
  8
化粧台
  6
CONTINUOUS
 62
     2
100
AcDbLine
 10
943.0000000000101
 20
2056.38386322962
 30
0.0
 11
897.0558308131214
 21
2056.383083807822
 31
0.0
  0
LINE
  5
405
330
1F
100
AcDbEntity
  8
化粧台
  6
CONTINUOUS
 62
     2
100
AcDbLine
 10
945.0000000000124
 20
2059.919937955093
 30
0.0
 11
895.0000000000101
 21
2059.919937955081
 31
0.0
  0
ARC
  5
406
330
1F
100
AcDbEntity
  8
化粧台
  6
CONTINUOUS
 62
     2
100
AcDbCircle
 10
897.0000000000092
 20
2054.38386322962
 30
0.0
 40
2.0
100
AcDbArc
 50
88.4003572161888
 51
180.0
  0
LINE
  5
407
330
1F
100
AcDbEntity
  8
化粧台
  6
CONTINUOUS
 62
     2
100
AcDbLine
 10
895.5000000000124
 20
2050.38386322962
 30
0.0
 11
895.000000000011
 21
2049.88386322962
 31
0.0
  0
LINE
  5
408
330
1F
100
AcDbEntity
  8
化粧台
  6
CONTINUOUS
 62
     2
100
AcDbLine
 10
895.0000000000101
 20
2054.38386322962
 30
0.0
 11
895.0000000000101
 21
2050.38386322962
 31
0.0
  0
ARC
  5
409
330
1F
100
AcDbEntity
  8
化粧台
  6
CONTINUOUS
 62
     2
100
AcDbCircle
 10
920.020088785012
 20
2052.266622388519
 30
0.0
 40
22.5
100
AcDbArc
 50
160.1141478017408
 51
167.4257172175327
  0
ARC
  5
40A
330
1F
100
AcDbEntity
  8
化粧台
  6
CONTINUOUS
 62
     2
100
AcDbCircle
 10
897.0837462196761
 20
2057.382694096923
 30
0.0
 40
1.0
100
AcDbArc
 50
268.400357216189
 51
347.4257172175328
  0
ARC
  5
40B
330
1F
100
AcDbEntity
  8
化粧台
  6
CONTINUOUS
 62
     2
100
AcDbCircle
 10
943.0000000000101
 20
2054.38386322962
 30
0.0
 40
2.0
100
AcDbArc
 50
0.0
 51
90.00000000000004
  0
LINE
  5
40C
330
1F
100
AcDbEntity
  8
化粧台
  6
CONTINUOUS
 62
     2
100
AcDbLine
 10
944.5000000000124
 20
2050.38386322962
 30
0.0
 11
945.000000000011
 21
2049.88386322962
 31
0.0
  0
LINE
  5
40D
330
1F
100
AcDbEntity
  8
化粧台
  6
CONTINUOUS
 62
     2
100
AcDbLine
 10
945.0000000000101
 20
2054.38386322962
 30
0.0
 11
945.0000000000101
 21
2050.383863229621
 31
0.0
  0
ARC
  5
40E
330
1F
100
AcDbEntity
  8
化粧台
  6
CONTINUOUS
 62
     2
100
AcDbCircle
 10
942.9159929678741
 20
2057.38386322962
 30
0.0
 40
1.0
100
AcDbArc
 50
192.577203333104
 51
270.0000000000002
  0
LINE
  5
40F
330
1F
100
AcDbEntity
  8
化粧台
  6
CONTINUOUS
 62
     2
100
AcDbLine
 10
942.9159929678741
 20
2056.38386322962
 30
0.0
 11
943.0000000000101
 21
2056.38386322962
 31
0.0
  0
ARC
  5
410
330
1F
100
AcDbEntity
  8
化粧台
  6
CONTINUOUS
 62
     2
100
AcDbCircle
 10
919.9799112150082
 20
2052.266622388519
 30
0.0
 40
22.5
100
AcDbArc
 50
12.57720333310406
 51
19.88585219829311
  0
ELLIPSE
  5
411
330
1F
100
AcDbEntity
  8
化粧台
  6
CONTINUOUS
 62
     2
100
AcDbEllipse
 10
920.0000000000101
 20
2102.01357869269
 30
0.0
 11
-7.500000000000004
 21
9.184850993605154E-16
 31
0.0
210
0.0
220
0.0
230
1.0
 40
0.9636802955882259
 41
0.0
 42
6.283185307179586
  0
LINE
  5
412
330
1F
100
AcDbEntity
  8
化粧台
  6
CONTINUOUS
 62
     2
100
AcDbLine
 10
927.5000000000092
 20
2090.225923416306
 30
0.0
 11
927.5000000000092
 21
2102.01357869269
 31
0.0
  0
LINE
  5
413
330
1F
100
AcDbEntity
  8
化粧台
  6
CONTINUOUS
 62
     2
100
AcDbLine
 10
912.5000000000101
 20
2090.225923416306
 30
0.0
 11
912.5000000000101
 21
2102.01357869269
 31
0.0
  0
ARC
  5
414
330
1F
100
AcDbEntity
  8
化粧台
  6
CONTINUOUS
 62
     2
100
AcDbCircle
 10
897.0000000000101
 20
2095.483197455901
 30
0.0
 40
2.0
100
AcDbArc
 50
97.46279399830908
 51
180.0
  0
ARC
  5
415
330
1F
100
AcDbEntity
  8
化粧台
  6
CONTINUOUS
 62
     2
100
AcDbCircle
 10
943.0000000000101
 20
2095.4831974559
 30
0.0
 40
2.0
100
AcDbArc
 50
0.0
 51
82.53720600166474
  0
ELLIPSE
  5
416
330
1F
100
AcDbEntity
  8
化粧台
  6
CONTINUOUS
 62
     2
100
AcDbEllipse
 10
920.0000000000101
 20
2090.225923416306
 30
0.0
 11
-7.500000000000004
 21
9.184850993605154E-16
 31
0.0
210
0.0
220
0.0
230
1.0
 40
0.9636802955882259
 41
0.0
 42
3.141592653589793
  0
ARC
  5
417
330
1F
100
AcDbEntity
  8
化粧台
  6
CONTINUOUS
 62
     2
100
AcDbCircle
 10
920.000000000011
 20
2169.580524823615
 30
0.0
 40
154.6227815628025
100
AcDbArc
 50
264.9181466667475
 51
275.0818533332528
  0
ARC
  5
418
330
1F
100
AcDbEntity
  8
化粧台
  6
CONTINUOUS
 62
     2
100
AcDbCircle
 10
920.0000000000101
 20
1919.899864122714
 30
0.0
 40
179.0833333331876
100
AcDbArc
 50
92.40024603941616
 51
97.46279399833533
  0
ARC
  5
419
330
1F
100
AcDbEntity
  8
化粧台
  6
CONTINUOUS
 62
     2
100
AcDbCircle
 10
920.0000000000101
 20
1919.899864122714
 30
0.0
 40
179.0833333331876
100
AcDbArc
 50
82.53720600166474
 51
87.59975396058384
  0
CIRCLE
  5
41A
330
1F
100
AcDbEntity
  8
化粧台
  6
CONTINUOUS
 62
     2
100
AcDbCircle
 10
920.0000000000101
 20
2073.983863229623
 30
0.0
 40
5.099999999999
  0
LINE
  5
41B
330
1F
100
AcDbEntity
  8
化粧台
  6
CONTINUOUS
 62
     2
100
AcDbLine
 10
920.000000000011
 20
2050.38386322962
 30
0.0
 11
895.0000000000101
 21
2050.38386322962
 31
0.0
  0
LINE
  5
41C
330
1F
100
AcDbEntity
  8
化粧台
  6
CONTINUOUS
 62
     2
100
AcDbLine
 10
945.0000000000101
 20
2050.38386322962
 30
0.0
 11
920.000000000011
 21
2050.38386322962
 31
0.0
  0
LINE
  5
41D
330
1F
100
AcDbEntity
  8
化粧台
  6
EXLTYPE3
 62
     6
100
AcDbLine
 10
920.0
 20
2115.15
 30
0.0
 11
920.0
 21
1048.0
 31
0.0
  0
ARC
  5
41E
330
1F
100
AcDbEntity
  8
化粧台
  6
CONTINUOUS
 62
     2
100
AcDbCircle
 10
920.0
 20
-2889.500000000005
 30
0.0
 40
4847.500000000005
100
AcDbArc
 50
90.29549269471686
 51
92.60390534515777
  0
ARC
  5
41F
330
1F
100
AcDbEntity
  8
化粧台
  6
CONTINUOUS
 62
     2
100
AcDbCircle
 10
920.0
 20
-2889.500000000005
 30
0.0
 40
4847.500000000005
100
AcDbArc
 50
87.39609465484229
 51
89.70450730528287
  0
CIRCLE
  5
420
330
1F
100
AcDbEntity
  8
化粧台
  6
CONTINUOUS
 62
     2
100
AcDbCircle
 10
920.0000000000007
 20
3706.499999999999
 30
0.0
 40
25.00000000010004
  0
ELLIPSE
  5
421
330
1F
100
AcDbEntity
  8
化粧台
  6
CONTINUOUS
 62
     2
100
AcDbEllipse
 10
920.0000000000007
 20
3612.940536449099
 30
0.0
 11
-7.500000000000006
 21
9.184850993605156E-16
 31
0.0
210
0.0
220
0.0
230
1.0
 40
0.4388120546666563
 41
0.0
 42
6.283185307179586
  0
ELLIPSE
  5
422
330
1F
100
AcDbEntity
  8
化粧台
  6
CONTINUOUS
 62
     2
100
AcDbEllipse
 10
920.0000000000007
 20
3588.7145230735
 30
0.0
 11
-15.00000000000001
 21
1.836970198721031E-15
 31
0.0
210
0.0
220
0.0
230
1.0
 40
0.4362793889666742
 41
0.0
 42
6.283185307179586
  0
LINE
  5
423
330
1F
100
AcDbEntity
  8
化粧台
  6
CONTINUOUS
 62
     2
100
AcDbLine
 10
905.0000000000007
 20
3588.7145230735
 30
0.0
 11
905.0000000000007
 21
3686.499999999874
 31
0.0
  0
LINE
  5
424
330
1F
100
AcDbEntity
  8
化粧台
  6
CONTINUOUS
 62
     2
100
AcDbLine
 10
935.0000000000007
 20
3588.7145230735
 30
0.0
 11
935.0000000000007
 21
3686.499999999874
 31
0.0
  0
LINE
  5
425
330
1F
100
AcDbEntity
  8
化粧台
  6
CONTINUOUS
 62
     2
100
AcDbLine
 10
912.5000000000007
 20
3612.940536449099
 30
0.0
 11
912.5000000000007
 21
3682.651519964471
 31
0.0
  0
LINE
  5
426
330
1F
100
AcDbEntity
  8
化粧台
  6
CONTINUOUS
 62
     2
100
AcDbLine
 10
927.5000000000007
 20
3612.940536449099
 30
0.0
 11
927.5000000000007
 21
3682.651519964471
 31
0.0
  0
LINE
  5
427
330
1F
100
AcDbEntity
  8
化粧台
  6
CONTINUOUS
 62
     6
100
AcDbLine
 10
905.0000000000007
 20
3637.499999999999
 30
0.0
 11
868.0384757736103
 21
3637.499999999999
 31
0.0
  0
LINE
  5
428
330
1F
100
AcDbEntity
  8
化粧台
  6
CONTINUOUS
 62
     2
100
AcDbLine
 10
759.784821240097
 20
3645.499999999999
 30
0.0
 11
905.0000000000007
 21
3645.499999999999
 31
0.0
  0
LINE
  5
429
330
1F
100
AcDbEntity
  8
化粧台
  6
CONTINUOUS
 62
     2
100
AcDbLine
 10
935.0000000000007
 20
3645.499999999999
 30
0.0
 11
1080.215178759902
 21
3645.499999999999
 31
0.0
  0
LINE
  5
42A
330
1F
100
AcDbEntity
  8
化粧台
  6
CONTINUOUS
 62
     6
100
AcDbLine
 10
971.9615242263883
 20
3637.499999999999
 30
0.0
 11
935.0000000000007
 21
3637.499999999999
 31
0.0
  0
ARC
  5
42B
330
1F
100
AcDbEntity
  8
化粧台
  6
CONTINUOUS
 62
     2
100
AcDbCircle
 10
920.0000000000011
 20
3557.499999999999
 30
0.0
 40
27.00000000000002
100
AcDbArc
 50
107.6430770091208
 51
72.35692299088116
  0
LINE
  5
42C
330
1F
100
AcDbEntity
  8
化粧台
  6
CONTINUOUS
 62
     2
100
AcDbLine
 10
914.1589155674322
 20
3753.668597735305
 30
0.0
 11
925.8410844325775
 21
3753.668597735305
 31
0.0
  0
ARC
  5
42D
330
1F
100
AcDbEntity
  8
化粧台
  6
CONTINUOUS
 62
     2
100
AcDbCircle
 10
920.000000000004
 20
3736.117513245893
 30
0.0
 40
18.55108448941109
100
AcDbArc
 50
72.29820692448698
 51
107.7017930755134
  0
ARC
  5
42E
330
1F
100
AcDbEntity
  8
化粧台
  6
CONTINUOUS
 62
     2
100
AcDbCircle
 10
924.7262244781253
 20
3739.168597735305
 30
0.0
 40
0.5
100
AcDbArc
 50
270.0000000000002
 51
356.9147122891804
  0
ARC
  5
42F
330
1F
100
AcDbEntity
  8
化粧台
  6
CONTINUOUS
 62
     2
100
AcDbCircle
 10
925.4886646356402
 20
3753.313914374082
 30
0.0
 40
0.5
100
AcDbArc
 50
356.9147122891804
 51
72.29820692448467
  0
LINE
  5
430
330
1F
100
AcDbEntity
  8
化粧台
  6
CONTINUOUS
 62
     2
100
AcDbLine
 10
925.2254997399499
 20
3739.14168653077
 30
0.0
 11
925.9879398974648
 21
3753.287003169548
 31
0.0
  0
ARC
  5
431
330
1F
100
AcDbEntity
  8
化粧台
  6
CONTINUOUS
 62
     2
100
AcDbCircle
 10
915.2737755218853
 20
3739.168597735305
 30
0.0
 40
0.5
100
AcDbArc
 50
183.0852877108198
 51
270.0000000000002
  0
ARC
  5
432
330
1F
100
AcDbEntity
  8
化粧台
  6
CONTINUOUS
 62
     2
100
AcDbCircle
 10
914.5113353643677
 20
3753.313914374085
 30
0.0
 40
0.5
100
AcDbArc
 50
107.7017930755155
 51
183.0852877108198
  0
LINE
  5
433
330
1F
100
AcDbEntity
  8
化粧台
  6
CONTINUOUS
 62
     2
100
AcDbLine
 10
914.7745002600599
 20
3739.14168653077
 30
0.0
 11
914.0120601025432
 21
3753.287003169548
 31
0.0
  0
LINE
  5
434
330
1F
100
AcDbEntity
  8
化粧台
  6
CONTINUOUS
 62
     2
100
AcDbLine
 10
915.2737755218844
 20
3738.668597735304
 30
0.0
 11
920.0000000000049
 21
3738.668597735304
 31
0.0
  0
LINE
  5
435
330
1F
100
AcDbEntity
  8
化粧台
  6
CONTINUOUS
 62
     2
100
AcDbLine
 10
920.0000000000049
 20
3738.668597735304
 30
0.0
 11
924.7262244781253
 21
3738.668597735304
 31
0.0
  0
LINE
  5
436
330
1F
100
AcDbEntity
  8
化粧台
  6
CONTINUOUS
 62
     2
100
AcDbLine
 10
917.00000000001
 20
3738.668597735304
 30
0.0
 11
917.00000000001
 21
3731.319347292083
 31
0.0
  0
LINE
  5
437
330
1F
100
AcDbEntity
  8
化粧台
  6
CONTINUOUS
 62
     2
100
AcDbLine
 10
922.9999999999877
 20
3738.668597735304
 30
0.0
 11
922.9999999999877
 21
3731.319347292083
 31
0.0
  0
LINE
  5
438
330
1F
100
AcDbEntity
  8
寸法
  6
CONTINUOUS
 62
     3
100
AcDbLine
 10
2370.0
 20
1069.500000178814
 30
0.0
 11
2370.0
 21
953.0
 31
0.0
  0
LINE
  5
439
330
1F
100
AcDbEntity
  8
寸法
  6
CONTINUOUS
 62
     3
100
AcDbLine
 10
2450.0
 20
1077.500000178814
 30
0.0
 11
2450.0
 21
953.0
 31
0.0
  0
TEXT
  5
43A
330
1F
100
AcDbEntity
  8
寸法
  6
CONTINUOUS
 62
     2
100
AcDbText
 10
2495.0
 20
973.249999910593
 30
0.0
 40
59.99999618530273
  1
８０
 41
1.020759090909089
  7
EXCADSTD
 72
     5
 11
2591.242993881035
 21
973.249999910593
 31
0.0
100
AcDbText
  0
TEXT
  5
43B
330
1F
100
AcDbEntity
  8
寸法
  6
CONTINUOUS
 62
     2
100
AcDbText
 10
2592.5
 20
973.249999910593
 30
0.0
 40
48.0
  1
（床給水）
 41
0.9655172413793105
  7
EXCADSTD
 72
     5
 11
2784.5
 21
973.249999910593
 31
0.0
100
AcDbText
  0
LINE
  5
43C
330
1F
100
AcDbEntity
  8
寸法
  6
CONTINUOUS
 62
     3
100
AcDbLine
 10
2325.0
 20
968.0
 30
0.0
 11
2782.249994277955
 21
968.0
 31
0.0
  0
LINE
  5
43D
330
1F
100
AcDbEntity
  8
寸法
  6
CONTINUOUS
 62
     3
100
AcDbLine
 10
2325.0
 20
960.5
 30
0.0
 11
2370.0
 21
968.0
 31
0.0
  0
LINE
  5
43E
330
1F
100
AcDbEntity
  8
寸法
  6
CONTINUOUS
 62
     3
100
AcDbLine
 10
2370.0
 20
968.0
 30
0.0
 11
2325.0
 21
975.5000000000001
 31
0.0
  0
LINE
  5
43F
330
1F
100
AcDbEntity
  8
寸法
  6
CONTINUOUS
 62
     3
100
AcDbLine
 10
2495.0
 20
975.5
 30
0.0
 11
2450.0
 21
968.0
 31
0.0
  0
LINE
  5
440
330
1F
100
AcDbEntity
  8
寸法
  6
CONTINUOUS
 62
     3
100
AcDbLine
 10
2450.0
 20
968.0
 30
0.0
 11
2495.0
 21
960.5
 31
0.0
  0
LINE
  5
441
330
1F
100
AcDbEntity
  8
寸法
  6
CONTINUOUS
 62
     3
100
AcDbLine
 10
2320.0
 20
1047.500000178814
 30
0.0
 11
2320.0
 21
863.0
 31
0.0
  0
LINE
  5
442
330
1F
100
AcDbEntity
  8
寸法
  6
CONTINUOUS
 62
     3
100
AcDbLine
 10
2450.0
 20
1077.500000178814
 30
0.0
 11
2450.0
 21
863.0
 31
0.0
  0
TEXT
  5
443
330
1F
100
AcDbEntity
  8
寸法
  6
CONTINUOUS
 62
     2
100
AcDbText
 10
2495.0
 20
883.249999910593
 30
0.0
 40
59.99999618530273
  1
１３０
 41
1.029411764705882
  7
EXCADSTD
 72
     5
 11
2644.999990463257
 21
883.249999910593
 31
0.0
100
AcDbText
  0
TEXT
  5
444
330
1F
100
AcDbEntity
  8
寸法
  6
CONTINUOUS
 62
     2
100
AcDbText
 10
2637.5
 20
883.249999910593
 30
0.0
 40
48.0
  1
（Ｓトラップ）
 41
0.9390243902439025
  7
EXCADSTD
 72
     5
 11
2901.5
 21
883.249999910593
 31
0.0
100
AcDbText
  0
LINE
  5
445
330
1F
100
AcDbEntity
  8
寸法
  6
CONTINUOUS
 62
     3
100
AcDbLine
 10
2275.0
 20
878.0
 30
0.0
 11
2899.250011444092
 21
878.0
 31
0.0
  0
LINE
  5
446
330
1F
100
AcDbEntity
  8
寸法
  6
CONTINUOUS
 62
     3
100
AcDbLine
 10
2275.0
 20
870.5
 30
0.0
 11
2320.0
 21
878.0
 31
0.0
  0
LINE
  5
447
330
1F
100
AcDbEntity
  8
寸法
  6
CONTINUOUS
 62
     3
100
AcDbLine
 10
2320.0
 20
878.0
 30
0.0
 11
2275.0
 21
885.5000000000001
 31
0.0
  0
LINE
  5
448
330
1F
100
AcDbEntity
  8
寸法
  6
CONTINUOUS
 62
     3
100
AcDbLine
 10
2495.0
 20
885.5
 30
0.0
 11
2450.0
 21
878.0
 31
0.0
  0
LINE
  5
449
330
1F
100
AcDbEntity
  8
寸法
  6
CONTINUOUS
 62
     3
100
AcDbLine
 10
2450.0
 20
878.0
 30
0.0
 11
2495.0
 21
870.5
 31
0.0
  0
LINE
  5
44A
330
1F
100
AcDbEntity
  8
寸法
  6
CONTINUOUS
 62
     3
100
AcDbLine
 10
2460.499999821187
 20
1088.0
 30
0.0
 11
2840.0
 21
1087.999999999997
 31
0.0
  0
LINE
  5
44B
330
1F
100
AcDbEntity
  8
寸法
  6
CONTINUOUS
 62
     3
100
AcDbLine
 10
2492.399999821186
 20
1708.0
 30
0.0
 11
2840.0
 21
1708.0
 31
0.0
  0
TEXT
  5
44C
330
1F
100
AcDbEntity
  8
寸法
  6
CONTINUOUS
 62
     2
100
AcDbText
 10
2819.750000089407
 20
1234.499999999998
 30
0.0
 40
59.99999618530273
  1
６２０
 50
90.0
 41
1.029411764705882
  7
EXCADSTD
 72
     5
 11
2819.750000089407
 21
1384.499990463255
 31
0.0
100
AcDbText
  0
TEXT
  5
44D
330
1F
100
AcDbEntity
  8
寸法
  6
CONTINUOUS
 62
     2
100
AcDbText
 10
2819.750000089407
 20
1376.999999999998
 30
0.0
 40
48.0
  1
（壁固定）
 50
90.0
 41
0.9655172413793105
  7
EXCADSTD
 72
     5
 11
2819.750000089407
 21
1568.999999999998
 31
0.0
100
AcDbText
  0
LINE
  5
44E
330
1F
100
AcDbEntity
  8
寸法
  6
CONTINUOUS
 62
     3
100
AcDbLine
 10
2825.0
 20
1087.999999999997
 30
0.0
 11
2825.0
 21
1708.0
 31
0.0
  0
LINE
  5
44F
330
1F
100
AcDbEntity
  8
寸法
  6
CONTINUOUS
 62
     3
100
AcDbLine
 10
2817.5
 20
1132.999999999997
 30
0.0
 11
2825.0
 21
1087.999999999997
 31
0.0
  0
LINE
  5
450
330
1F
100
AcDbEntity
  8
寸法
  6
CONTINUOUS
 62
     3
100
AcDbLine
 10
2825.0
 20
1087.999999999997
 30
0.0
 11
2832.5
 21
1132.999999999997
 31
0.0
  0
LINE
  5
451
330
1F
100
AcDbEntity
  8
寸法
  6
CONTINUOUS
 62
     3
100
AcDbLine
 10
2832.5
 20
1663.0
 30
0.0
 11
2825.0
 21
1708.0
 31
0.0
  0
LINE
  5
452
330
1F
100
AcDbEntity
  8
寸法
  6
CONTINUOUS
 62
     3
100
AcDbLine
 10
2825.0
 20
1708.0
 30
0.0
 11
2817.5
 21
1663.0
 31
0.0
  0
LINE
  5
453
330
1F
100
AcDbEntity
  8
寸法
  6
CONTINUOUS
 62
     3
100
AcDbLine
 10
2460.499999821187
 20
1088.0
 30
0.0
 11
2660.0
 21
1087.999999999998
 31
0.0
  0
LINE
  5
454
330
1F
100
AcDbEntity
  8
寸法
  6
CONTINUOUS
 62
     3
100
AcDbLine
 10
2483.999999821187
 20
1563.0
 30
0.0
 11
2660.0
 21
1563.0
 31
0.0
  0
TEXT
  5
455
330
1F
100
AcDbEntity
  8
寸法
  6
CONTINUOUS
 62
     2
100
AcDbText
 10
2639.750000089407
 20
1125.999999999999
 30
0.0
 40
59.99999618530273
  1
４７５
 50
90.0
 41
1.029411764705882
  7
EXCADSTD
 72
     5
 11
2639.750000089407
 21
1275.999990463256
 31
0.0
100
AcDbText
  0
TEXT
  5
456
330
1F
100
AcDbEntity
  8
寸法
  6
CONTINUOUS
 62
     2
100
AcDbText
 10
2639.750000089407
 20
1268.499999999999
 30
0.0
 40
48.0
  1
（Ｐトラップ）
 50
90.0
 41
0.9390243902439025
  7
EXCADSTD
 72
     5
 11
2639.750000089407
 21
1532.499999999999
 31
0.0
100
AcDbText
  0
LINE
  5
457
330
1F
100
AcDbEntity
  8
寸法
  6
CONTINUOUS
 62
     3
100
AcDbLine
 10
2645.0
 20
1087.999999999998
 30
0.0
 11
2645.0
 21
1563.0
 31
0.0
  0
LINE
  5
458
330
1F
100
AcDbEntity
  8
寸法
  6
CONTINUOUS
 62
     3
100
AcDbLine
 10
2637.5
 20
1132.999999999998
 30
0.0
 11
2645.0
 21
1087.999999999998
 31
0.0
  0
LINE
  5
459
330
1F
100
AcDbEntity
  8
寸法
  6
CONTINUOUS
 62
     3
100
AcDbLine
 10
2645.0
 20
1087.999999999998
 30
0.0
 11
2652.5
 21
1132.999999999998
 31
0.0
  0
LINE
  5
45A
330
1F
100
AcDbEntity
  8
寸法
  6
CONTINUOUS
 62
     3
100
AcDbLine
 10
2652.5
 20
1518.0
 30
0.0
 11
2645.0
 21
1563.0
 31
0.0
  0
LINE
  5
45B
330
1F
100
AcDbEntity
  8
寸法
  6
CONTINUOUS
 62
     3
100
AcDbLine
 10
2645.0
 20
1563.0
 30
0.0
 11
2637.5
 21
1518.0
 31
0.0
  0
LINE
  5
45C
330
1F
100
AcDbEntity
  8
寸法
  6
CONTINUOUS
 62
     3
100
AcDbLine
 10
2460.499999821187
 20
1088.0
 30
0.0
 11
2750.0
 21
1087.999999999998
 31
0.0
  0
LINE
  5
45D
330
1F
100
AcDbEntity
  8
寸法
  6
CONTINUOUS
 62
     3
100
AcDbLine
 10
2488.999999821187
 20
1633.0
 30
0.0
 11
2750.0
 21
1633.0
 31
0.0
  0
TEXT
  5
45E
330
1F
100
AcDbEntity
  8
寸法
  6
CONTINUOUS
 62
     2
100
AcDbText
 10
2729.750000089407
 20
1124.999999999999
 30
0.0
 40
59.99999618530273
  1
５４５
 50
90.0
 41
1.029411764705882
  7
EXCADSTD
 72
     5
 11
2729.750000089407
 21
1274.999990463256
 31
0.0
100
AcDbText
  0
TEXT
  5
45F
330
1F
100
AcDbEntity
  8
寸法
  6
CONTINUOUS
 62
     2
100
AcDbText
 10
2729.750000089407
 20
1267.499999999999
 30
0.0
 40
48.0
  1
（ボトルトラップ）
 50
90.0
 41
0.9245283018867926
  7
EXCADSTD
 72
     5
 11
2729.750000089407
 21
1603.499999999999
 31
0.0
100
AcDbText
  0
LINE
  5
460
330
1F
100
AcDbEntity
  8
寸法
  6
CONTINUOUS
 62
     3
100
AcDbLine
 10
2735.0
 20
1087.999999999998
 30
0.0
 11
2735.0
 21
1633.0
 31
0.0
  0
LINE
  5
461
330
1F
100
AcDbEntity
  8
寸法
  6
CONTINUOUS
 62
     3
100
AcDbLine
 10
2727.5
 20
1132.999999999998
 30
0.0
 11
2735.0
 21
1087.999999999998
 31
0.0
  0
LINE
  5
462
330
1F
100
AcDbEntity
  8
寸法
  6
CONTINUOUS
 62
     3
100
AcDbLine
 10
2735.0
 20
1087.999999999998
 30
0.0
 11
2742.5
 21
1132.999999999998
 31
0.0
  0
LINE
  5
463
330
1F
100
AcDbEntity
  8
寸法
  6
CONTINUOUS
 62
     3
100
AcDbLine
 10
2742.5
 20
1588.0
 30
0.0
 11
2735.0
 21
1633.0
 31
0.0
  0
LINE
  5
464
330
1F
100
AcDbEntity
  8
寸法
  6
CONTINUOUS
 62
     3
100
AcDbLine
 10
2735.0
 20
1633.0
 30
0.0
 11
2727.5
 21
1588.0
 31
0.0
  0
LINE
  5
465
330
1F
100
AcDbEntity
  8
寸法
  6
CONTINUOUS
 62
     3
100
AcDbLine
 10
752.0000000000002
 20
3858.499999821186
 30
0.0
 11
752.0000000000002
 21
3920.5
 31
0.0
  0
LINE
  5
466
330
1F
100
AcDbEntity
  8
寸法
  6
CONTINUOUS
 62
     3
100
AcDbLine
 10
1087.999999999997
 20
3858.499999821186
 30
0.0
 11
1087.999999999997
 21
3920.5
 31
0.0
  0
TEXT
  5
467
330
1F
100
AcDbEntity
  8
寸法
  6
CONTINUOUS
 62
     2
100
AcDbText
 10
756.4999999999991
 20
3910.749999910593
 30
0.0
 40
59.99999618530273
  1
３３６
 41
1.029411764705882
  7
EXCADSTD
 72
     5
 11
906.4999904632559
 21
3910.749999910593
 31
0.0
100
AcDbText
  0
TEXT
  5
468
330
1F
100
AcDbEntity
  8
寸法
  6
CONTINUOUS
 62
     2
100
AcDbText
 10
898.9999999999991
 20
3910.749999910593
 30
0.0
 40
48.0
  1
（壁固定）
 41
0.9655172413793105
  7
EXCADSTD
 72
     5
 11
1090.999999999999
 21
3910.749999910593
 31
0.0
100
AcDbText
  0
LINE
  5
469
330
1F
100
AcDbEntity
  8
寸法
  6
CONTINUOUS
 62
     3
100
AcDbLine
 10
752.0000000000005
 20
3905.5
 30
0.0
 11
1087.999999999998
 21
3905.5
 31
0.0
  0
LINE
  5
46A
330
1F
100
AcDbEntity
  8
寸法
  6
CONTINUOUS
 62
     3
100
AcDbLine
 10
797.0000000000002
 20
3913.0
 30
0.0
 11
752.0000000000002
 21
3905.5
 31
0.0
  0
LINE
  5
46B
330
1F
100
AcDbEntity
  8
寸法
  6
CONTINUOUS
 62
     3
100
AcDbLine
 10
752.0000000000002
 20
3905.5
 30
0.0
 11
797.0000000000002
 21
3898.0
 31
0.0
  0
LINE
  5
46C
330
1F
100
AcDbEntity
  8
寸法
  6
CONTINUOUS
 62
     3
100
AcDbLine
 10
1042.999999999997
 20
3898.0
 30
0.0
 11
1087.999999999997
 21
3905.5
 31
0.0
  0
LINE
  5
46D
330
1F
100
AcDbEntity
  8
寸法
  6
CONTINUOUS
 62
     3
100
AcDbLine
 10
1087.999999999997
 20
3905.5
 30
0.0
 11
1042.999999999997
 21
3913.0
 31
0.0
  0
DIMENSION
  5
46F
330
1F
100
AcDbEntity
  8
寸法
  6
CONTINUOUS
 62
     3
100
AcDbDimension
  2
*D15
 10
1144.999999999998
 20
3210.5
 30
0.0
 11
919.9999999999991
 21
3245.749999910593
 31
0.0
 70
   160
  1
%%c450
  3
ISO-25
100
AcDbAlignedDimension
 13
694.9999999999993
 23
3560.5
 33
0.0
 14
1144.999999999998
 24
3560.5
 34
0.0
100
AcDbRotatedDimension
1001
ACAD
1000
DSTYLE
1002
{
1070
   270
1070
     2
1070
     6
1000
EX_NORM
1070
     7
1000
EX_NORM
1070
    41
1040
44.99999618530273
1070
    42
1040
10.49999982118607
1070
    44
1040
15.0
1070
    73
1070
     0
1070
    74
1070
     0
1070
    75
1070
     0
1070
    76
1070
     0
1070
    77
1070
     1
1070
    78
1070
     0
1070
   140
1040
59.99999618530273
1070
   147
1040
0.0
1070
   173
1070
     1
1070
   176
1070
     3
1070
   177
1070
     3
1070
   178
1070
     2
1070
   271
1070
     0
1070
   277
1070
     2
1070
   279
1070
     2
1070
   280
1070
     0
1070
   287
1070
     5
1070
   340
1005
46E
1002
}
  0
DIMENSION
  5
47D
330
1F
100
AcDbEntity
  8
寸法
  6
CONTINUOUS
 62
     3
100
AcDbDimension
  2
*D16
 10
1219.999999999997
 20
3120.5
 30
0.0
 11
919.9999999999986
 21
3155.749999910593
 31
0.0
 70
   160
  3
ISO-25
100
AcDbAlignedDimension
 13
619.9999999999993
 23
3365.5
 33
0.0
 14
1219.999999999997
 24
3365.5
 34
0.0
100
AcDbRotatedDimension
1001
ACAD
1000
DSTYLE
1002
{
1070
   270
1070
     2
1070
     6
1000
EX_NORM
1070
     7
1000
EX_NORM
1070
    41
1040
44.99999618530273
1070
    42
1040
0.0
1070
    44
1040
0.0
1070
    73
1070
     0
1070
    74
1070
     0
1070
    75
1070
     0
1070
    76
1070
     0
1070
    77
1070
     1
1070
    78
1070
     0
1070
   140
1040
59.99999618530273
1070
   147
1040
0.0
1070
   173
1070
     1
1070
   176
1070
     3
1070
   177
1070
     3
1070
   178
1070
     2
1070
   271
1070
     0
1070
   277
1070
     2
1070
   279
1070
     2
1070
   280
1070
     0
1070
   287
1070
     5
1070
   340
1005
46E
1002
}
  0
DIMENSION
  5
48A
330
1F
100
AcDbEntity
  8
寸法
  6
CONTINUOUS
 62
     3
100
AcDbDimension
  2
*D17
 10
1414.999999999997
 20
3815.5
 30
0.0
 11
1379.750000089405
 21
3575.499999999999
 31
0.0
 70
   160
  3
ISO-25
100
AcDbAlignedDimension
 13
919.9999999999993
 23
3335.5
 33
0.0
 14
1219.999999999997
 24
3815.5
 34
0.0
 50
90.0
100
AcDbRotatedDimension
1001
ACAD
1000
DSTYLE
1002
{
1070
   270
1070
     2
1070
     6
1000
EX_NORM
1070
     7
1000
EX_NORM
1070
    41
1040
44.99999618530273
1070
    42
1040
10.49999982118607
1070
    44
1040
15.0
1070
    73
1070
     0
1070
    74
1070
     0
1070
    75
1070
     0
1070
    76
1070
     1
1070
    77
1070
     1
1070
    78
1070
     0
1070
   140
1040
59.99999618530273
1070
   147
1040
0.0
1070
   173
1070
     1
1070
   176
1070
     3
1070
   177
1070
     3
1070
   178
1070
     2
1070
   271
1070
     0
1070
   277
1070
     2
1070
   279
1070
     2
1070
   280
1070
     0
1070
   287
1070
     5
1070
   340
1005
46E
1002
}
  0
LINE
  5
496
330
1F
100
AcDbEntity
  8
寸法
  6
CONTINUOUS
 62
     3
100
AcDbLine
 10
844.9999999999991
 20
1069.500000178814
 30
0.0
 11
844.9999999999991
 21
953.0
 31
0.0
  0
LINE
  5
497
330
1F
100
AcDbEntity
  8
寸法
  6
CONTINUOUS
 62
     3
100
AcDbLine
 10
994.9999999999978
 20
1069.500000178814
 30
0.0
 11
994.9999999999978
 21
953.0
 31
0.0
  0
TEXT
  5
498
330
1F
100
AcDbEntity
  8
寸法
  6
CONTINUOUS
 62
     2
100
AcDbText
 10
1039.999999999998
 20
973.249999910593
 30
0.0
 40
59.99999618530273
  1
１５０
 41
1.029411764705882
  7
EXCADSTD
 72
     5
 11
1189.999990463255
 21
973.249999910593
 31
0.0
100
AcDbText
  0
TEXT
  5
499
330
1F
100
AcDbEntity
  8
寸法
  6
CONTINUOUS
 62
     2
100
AcDbText
 10
1182.499999999998
 20
973.249999910593
 30
0.0
 40
48.0
  1
（壁･床給水）
 41
0.853658536585366
  7
EXCADSTD
 72
     5
 11
1422.499999999998
 21
973.249999910593
 31
0.0
100
AcDbText
  0
LINE
  5
49A
330
1F
100
AcDbEntity
  8
寸法
  6
CONTINUOUS
 62
     3
100
AcDbLine
 10
799.9999999999992
 20
968.0
 30
0.0
 11
1420.250005722044
 21
968.0
 31
0.0
  0
LINE
  5
49B
330
1F
100
AcDbEntity
  8
寸法
  6
CONTINUOUS
 62
     3
100
AcDbLine
 10
799.9999999999991
 20
960.5
 30
0.0
 11
844.9999999999991
 21
968.0
 31
0.0
  0
LINE
  5
49C
330
1F
100
AcDbEntity
  8
寸法
  6
CONTINUOUS
 62
     3
100
AcDbLine
 10
844.9999999999991
 20
968.0
 30
0.0
 11
799.9999999999991
 21
975.5000000000001
 31
0.0
  0
LINE
  5
49D
330
1F
100
AcDbEntity
  8
寸法
  6
CONTINUOUS
 62
     3
100
AcDbLine
 10
1039.999999999998
 20
975.5
 30
0.0
 11
994.9999999999978
 21
968.0
 31
0.0
  0
LINE
  5
49E
330
1F
100
AcDbEntity
  8
寸法
  6
CONTINUOUS
 62
     3
100
AcDbLine
 10
994.9999999999978
 20
968.0
 30
0.0
 11
1039.999999999998
 21
960.5
 31
0.0
  0
DIMENSION
  5
49F
330
1F
100
AcDbEntity
  8
寸法
  6
CONTINUOUS
 62
     3
100
AcDbDimension
  2
*D18
 10
1324.999999999998
 20
1788.0
 30
0.0
 11
1289.750000089406
 21
1437.999999999996
 31
0.0
 70
   160
  3
ISO-25
100
AcDbAlignedDimension
 13
1217.999999999997
 23
1088.0
 33
0.0
 14
1219.999999999997
 24
1788.0
 34
0.0
 50
90.0
100
AcDbRotatedDimension
1001
ACAD
1000
DSTYLE
1002
{
1070
   270
1070
     2
1070
     6
1000
EX_NORM
1070
     7
1000
EX_NORM
1070
    41
1040
44.99999618530273
1070
    42
1040
10.49999982118607
1070
    44
1040
15.0
1070
    73
1070
     0
1070
    74
1070
     0
1070
    75
1070
     1
1070
    76
1070
     0
1070
    77
1070
     1
1070
    78
1070
     0
1070
   140
1040
59.99999618530273
1070
   147
1040
0.0
1070
   173
1070
     1
1070
   176
1070
     3
1070
   177
1070
     3
1070
   178
1070
     2
1070
   271
1070
     0
1070
   277
1070
     2
1070
   279
1070
     2
1070
   280
1070
     0
1070
   287
1070
     5
1070
   340
1005
46E
1002
}
  0
DIMENSION
  5
4AB
330
1F
100
AcDbEntity
  8
寸法
  6
CONTINUOUS
 62
     3
100
AcDbDimension
  2
*D19
 10
1324.999999999997
 20
1958.0
 30
0.0
 11
1289.750000089405
 21
1872.999999999998
 31
0.0
 70
   160
  3
ISO-25
100
AcDbAlignedDimension
 13
1219.999999999997
 23
1788.0
 33
0.0
 14
919.9999999999991
 24
1958.0
 34
0.0
 50
90.0
100
AcDbRotatedDimension
1001
ACAD
1000
DSTYLE
1002
{
1070
   270
1070
     2
1070
     6
1000
EX_NORM
1070
     7
1000
EX_NORM
1070
    41
1040
44.99999618530273
1070
    42
1040
10.49999982118607
1070
    44
1040
15.0
1070
    73
1070
     0
1070
    74
1070
     0
1070
    75
1070
     0
1070
    76
1070
     1
1070
    77
1070
     1
1070
    78
1070
     0
1070
   140
1040
59.99999618530273
1070
   147
1040
0.0
1070
   173
1070
     1
1070
   176
1070
     3
1070
   177
1070
     3
1070
   178
1070
     2
1070
   271
1070
     0
1070
   277
1070
     2
1070
   279
1070
     2
1070
   280
1070
     0
1070
   287
1070
     5
1070
   340
1005
46E
1002
}
  0
DIMENSION
  5
4B7
330
1F
100
AcDbEntity
  8
寸法
  6
CONTINUOUS
 62
     3
100
AcDbDimension
  2
*D20
 10
1415.000000000002
 20
1958.0
 30
0.0
 11
1379.750000089409
 21
1522.999999999998
 31
0.0
 70
   160
  3
ISO-25
100
AcDbAlignedDimension
 13
1217.999999999997
 23
1088.0
 33
0.0
 14
930.4999998211988
 24
1958.0
 34
0.0
 50
90.0
100
AcDbRotatedDimension
1001
ACAD
1000
DSTYLE
1002
{
1070
   270
1070
     2
1070
     6
1000
EX_NORM
1070
     7
1000
EX_NORM
1070
    41
1040
44.99999618530273
1070
    42
1040
10.49999982118607
1070
    44
1040
15.0
1070
    73
1070
     0
1070
    74
1070
     0
1070
    75
1070
     0
1070
    76
1070
     1
1070
    77
1070
     1
1070
    78
1070
     0
1070
   140
1040
59.99999618530273
1070
   147
1040
0.0
1070
   173
1070
     1
1070
   176
1070
     3
1070
   177
1070
     3
1070
   178
1070
     2
1070
   271
1070
     0
1070
   277
1070
     2
1070
   279
1070
     2
1070
   280
1070
     0
1070
   287
1070
     5
1070
   340
1005
46E
1002
}
  0
TEXT
  5
4C3
330
1F
100
AcDbEntity
  8
寸法
  6
CONTINUOUS
 62
     2
100
AcDbText
 10
2670.0
 20
1737.749999910593
 30
0.0
 40
59.99999618530273
  1
Ｒ１/２
 41
0.8342465643686785
  7
EXCADSTD
 72
     5
 11
2843.99998664856
 21
1737.749999910593
 31
0.0
100
AcDbText
  0
LEADER
  5
4C4
330
1F
100
AcDbEntity
  8
寸法
  6
CONTINUOUS
 62
     3
100
AcDbLeader
  3
ISO-25
 76
     3
 10
2458.0
 20
1538.5
 30
0.0
 10
2662.5
 20
1732.5
 30
0.0
 10
2827.5
 20
1732.5
 30
0.0
1001
ACAD
1000
DSTYLE
1002
{
1070
     5
1000
EX_NORM
1070
    41
1040
45.0
1070
   341
1005
4D
1002
}
  0
TEXT
  5
4C5
330
1F
100
AcDbEntity
  8
寸法
  6
CONTINUOUS
 62
     2
100
AcDbText
 10
2574.7171850083
 20
1855.993701819792
 30
0.0
 40
59.99999618530273
  1
ＶＰ･ＶＵ５０
 41
0.9048780357546915
  7
EXCADSTD
 72
     5
 11
2892.717160212768
 21
1855.993701819792
 31
0.0
100
AcDbText
  0
LEADER
  5
4C6
330
1F
100
AcDbEntity
  8
寸法
  6
CONTINUOUS
 62
     3
100
AcDbLeader
  3
ISO-25
 76
     3
 10
2473.5
 20
1588.5
 30
0.0
 10
2567.2171850083
 20
1850.743701909199
 30
0.0
 10
2871.7171850083
 20
1850.743701909199
 30
0.0
1001
ACAD
1000
DSTYLE
1002
{
1070
     5
1000
EX_NORM
1070
    41
1040
45.0
1070
   341
1005
4D
1002
}
  0
DIMENSION
  5
4C7
330
1F
100
AcDbEntity
  8
寸法
  6
CONTINUOUS
 62
     3
100
AcDbDimension
  2
*D21
 10
1324.999999999998
 20
3815.5
 30
0.0
 11
1289.750000089406
 21
3600.5
 31
0.0
 70
   160
  3
ISO-25
100
AcDbAlignedDimension
 13
1219.999999999998
 23
3385.5
 33
0.0
 14
1219.999999999998
 24
3815.5
 34
0.0
 50
90.0
100
AcDbRotatedDimension
1001
ACAD
1000
DSTYLE
1002
{
1070
   270
1070
     2
1070
     6
1000
EX_NORM
1070
     7
1000
EX_NORM
1070
    41
1040
44.99999618530273
1070
    42
1040
10.49999982118607
1070
    44
1040
15.0
1070
    73
1070
     0
1070
    74
1070
     0
1070
    75
1070
     0
1070
    76
1070
     1
1070
    77
1070
     1
1070
    78
1070
     0
1070
   140
1040
59.99999618530273
1070
   147
1040
0.0
1070
   173
1070
     1
1070
   176
1070
     3
1070
   177
1070
     3
1070
   178
1070
     2
1070
   271
1070
     0
1070
   277
1070
     2
1070
   279
1070
     2
1070
   280
1070
     0
1070
   287
1070
     5
1070
   340
1005
46E
1002
}
  0
DIMENSION
  5
4D3
330
1F
100
AcDbEntity
  8
寸法
  6
CONTINUOUS
 62
     3
100
AcDbDimension
  2
*D22
 10
2555.0
 20
1088.0
 30
0.0
 11
2519.750000089407
 21
1308.0
 31
0.0
 70
   160
  1
440（壁給水）
  3
ISO-25
100
AcDbAlignedDimension
 13
2458.0
 23
1528.0
 33
0.0
 14
2555.0
 24
1088.0
 34
0.0
 50
90.0
100
AcDbRotatedDimension
1001
ACAD
1000
DSTYLE
1002
{
1070
   270
1070
     2
1070
     6
1000
EX_NORM
1070
     7
1000
EX_NORM
1070
    41
1040
44.99999618530273
1070
    42
1040
7.5
1070
    44
1040
15.0
1070
    73
1070
     0
1070
    74
1070
     0
1070
    75
1070
     0
1070
    76
1070
     1
1070
    77
1070
     1
1070
    78
1070
     8
1070
   140
1040
59.99999618530273
1070
   147
1040
0.0
1070
   173
1070
     1
1070
   176
1070
     3
1070
   177
1070
     3
1070
   178
1070
     2
1070
   271
1070
     2
1070
   277
1070
     2
1070
   279
1070
     2
1070
   280
1070
     0
1070
   287
1070
     5
1070
   340
1005
46E
1002
}
  0
LINE
  5
4DF
330
1F
100
AcDbEntity
  8
寸法
  6
CONTINUOUS
 62
     3
100
AcDbLine
 10
945.000000000011
 20
1958.0
 30
0.0
 11
1339.999999999998
 21
1958.0
 31
0.0
  0
LINE
  5
4E0
330
1F
100
AcDbEntity
  8
寸法
  6
CONTINUOUS
 62
     3
100
AcDbLine
 10
945.000000000011
 20
1958.0
 30
0.0
 11
1430.000000000002
 21
1958.0
 31
0.0
  0
ENDSEC
  0
SECTION
  2
OBJECTS
  0
DICTIONARY
  5
C
330
0
100
AcDbDictionary
  3
ACAD_GROUP
350
D
  3
ACAD_LAYOUT
350
1A
  3
ACAD_MATERIAL
350
3B
  3
ACAD_MLEADERSTYLE
350
503
  3
ACAD_MLINESTYLE
350
17
  3
ACAD_PLOTSETTINGS
350
19
  3
ACAD_VISUALSTYLE
350
2A
  3
ACDBHEADERROUNDTRIPXREC
350
4E1
  3
ACDBVARIABLEDICTIONARY
350
501
  0
DICTIONARY
  5
D
102
{ACAD_REACTORS
330
C
102
}
330
C
100
AcDbDictionary
  0
DICTIONARY
  5
1A
102
{ACAD_REACTORS
330
C
102
}
330
C
100
AcDbDictionary
  0
DICTIONARY
  5
3B
102
{ACAD_REACTORS
330
C
102
}
330
C
100
AcDbDictionary
  3
BYBLOCK
350
3D
  3
BYLAYER
350
3C
  3
GLOBAL
350
3E
  0
DICTIONARY
  5
503
102
{ACAD_REACTORS
330
C
102
}
330
C
100
AcDbDictionary
  0
DICTIONARY
  5
17
102
{ACAD_REACTORS
330
C
102
}
330
C
100
AcDbDictionary
  3
STANDARD
350
18
  0
DICTIONARY
  5
19
102
{ACAD_REACTORS
330
C
102
}
330
C
100
AcDbDictionary
  0
DICTIONARY
  5
2A
102
{ACAD_REACTORS
330
C
102
}
330
C
100
AcDbDictionary
  3
2DWIREFRAME
350
2F
  3
3D_HIDDEN
350
31
  3
3DWIREFRAME
350
30
  3
BASIC
350
32
  3
BRIGHTEN
350
36
  3
COLORCHANGE
350
3A
  3
CONCEPTUAL
350
34
  3
DIM
350
35
  3
FACEPATTERN
350
39
  3
FLAT
350
2B
  3
FLATWITHEDGES
350
2C
  3
GOURAUD
350
2D
  3
GOURAUDWITHEDGES
350
2E
  3
LINEPATTERN
350
38
  3
REALISTIC
350
33
  3
THICKEN
350
37
  0
DICTIONARY
  5
4E1
102
{ACAD_REACTORS
330
C
102
}
330
C
100
AcDbDictionary
  3
CEPSNTYPE
350
4EA
  3
DIMSTYLEDATA
350
500
  3
FINGERPRINTGUID
350
4EB
  3
HYPERLINKBASE
350
4E4
  3
INSUNITS
350
4E9
  3
LAYOUTDICT
350
4E6
  3
LWETCUNION
350
4E8
  3
PLOTSETDICT
350
4E7
  3
PSVPSCALE
350
4ED
  3
PUCSBASE
350
4F0
  3
PUCSORGBACK
350
4F6
  3
PUCSORGBOTTOM
350
4F2
  3
PUCSORGFRONT
350
4F5
  3
PUCSORGLEFT
350
4F3
  3
PUCSORGRIGHT
350
4F4
  3
PUCSORGTOP
350
4F1
  3
PUCSORTHOREF
350
4EE
  3
PUCSORTHOVIEW
350
4EF
  3
STYLESHEET
350
4E5
  3
TSTACKALIGN
350
4E2
  3
TSTACKSIZE
350
4E3
  3
UCSBASE
350
4F9
  3
UCSORGBACK
350
4FF
  3
UCSORGBOTTOM
350
4FB
  3
UCSORGFRONT
350
4FE
  3
UCSORGLEFT
350
4FC
  3
UCSORGRIGHT
350
4FD
  3
UCSORGTOP
350
4FA
  3
UCSORTHOREF
350
4F7
  3
UCSORTHOVIEW
350
4F8
  3
VERSIONGUID
350
4EC
  0
DICTIONARY
  5
501
102
{ACAD_REACTORS
330
C
102
}
330
C
100
AcDbDictionary
  3
DIMASSOC
350
506
  3
HIDETEXT
350
507
  3
PSOLHEIGHT
350
505
  3
PSOLWIDTH
350
504
  0
MATERIAL
  5
3D
102
{ACAD_REACTORS
330
3B
102
}
102
{ACAD_XDICTIONARY
360
50A
102
}
330
3B
100
AcDbMaterial
  1
ByBlock
  0
MATERIAL
  5
3C
102
{ACAD_REACTORS
330
3B
102
}
102
{ACAD_XDICTIONARY
360
508
102
}
330
3B
100
AcDbMaterial
  1
ByLayer
  0
MATERIAL
  5
3E
102
{ACAD_REACTORS
330
3B
102
}
102
{ACAD_XDICTIONARY
360
50C
102
}
330
3B
100
AcDbMaterial
  1
Global
  0
MLINESTYLE
  5
18
102
{ACAD_REACTORS
330
17
102
}
330
17
100
AcDbMlineStyle
  2
Standard
 70
     0
  3

 62
   256
 51
90.0
 52
90.0
 71
     2
 49
0.5
 62
   256
  6
BYLAYER
 49
-0.5
 62
   256
  6
BYLAYER
  0
ACAD_PROXY_OBJECT
  5
2F
102
{ACAD_REACTORS
330
2A
102
}
330
2A
100
AcDbProxyObject
 90
      499
 91
      501
 93
      436
310
42CC9915DA5C99599C985B595049028333333333333E3BF0000000000000FB0107901411070040501600405405064090741402480A0340
1001
ACAD
1000
AcDbSavedByObjectVersion
1070
     0
  0
ACAD_PROXY_OBJECT
  5
31
102
{ACAD_REACTORS
330
2A
102
}
330
2A
100
AcDbProxyObject
 90
      499
 91
      501
 93
      500
310
424CD108121A5919195B90640502408333333333333E3BF0000000000000FB01079024090700405020000000000001110200405405064090740C02480A0340
1001
ACAD
1000
AcDbSavedByObjectVersion
1070
     0
  0
ACAD_PROXY_OBJECT
  5
30
102
{ACAD_REACTORS
330
2A
102
}
330
2A
100
AcDbProxyObject
 90
      499
 91
      501
 93
      436
310
42CCD915DA5C99599C985B595059028333333333333E3BF0000000000000FB0107901411070040501600405405064090741402480A0340
1001
ACAD
1000
AcDbSavedByObjectVersion
1070
     0
  0
ACAD_PROXY_OBJECT
  5
32
102
{ACAD_REACTORS
330
2A
102
}
330
2A
100
AcDbProxyObject
 90
      499
 91
      501
 93
      388
310
4150985CDA58D07406404333333333333E3BF0000000000000FB0107A41107004050150841D405064090741402480A0350
1001
ACAD
1000
AcDbSavedByObjectVersion
1070
     0
  0
ACAD_PROXY_OBJECT
  5
36
102
{ACAD_REACTORS
330
2A
102
}
330
2A
100
AcDbProxyObject
 90
      499
 91
      501
 93
      428
310
42109C9A59DA1D195B90C409028333333333333E3BF0000000000000FB010790141107004050150841D405064090741402480A029950
1001
ACAD
1000
AcDbSavedByObjectVersion
1070
     0
  0
ACAD_PROXY_OBJECT
  5
3A
102
{ACAD_REACTORS
330
2A
102
}
330
2A
100
AcDbProxyObject
 90
      499
 91
      501
 93
      452
310
42D0DBDB1BDC90DA185B99D95104090240C333333333333E3BF0000000000000FB0108901411070040501508421405064090741402480A0350
1001
ACAD
1000
AcDbSavedByObjectVersion
1070
     0
  0
ACAD_PROXY_OBJECT
  5
34
102
{ACAD_REACTORS
330
2A
102
}
330
2A
100
AcDbProxyObject
 90
      499
 91
      501
 93
      500
310
4290DBDB98D95C1D1D585B10940D028333333333333E3BF0000000000000FB0107902409070040501000000000000111010841D405064090740C02480A0340
1001
ACAD
1000
AcDbSavedByObjectVersion
1070
     0
  0
ACAD_PROXY_OBJECT
  5
35
102
{ACAD_REACTORS
330
2A
102
}
330
2A
100
AcDbProxyObject
 90
      499
 91
      501
 93
      412
310
40D11A5B50B409028333333333333E3BF0000000000000FB010790141107004050150841D405064090741402480A02677FFFFFD0
1001
ACAD
1000
AcDbSavedByObjectVersion
1070
     0
  0
ACAD_PROXY_OBJECT
  5
39
102
{ACAD_REACTORS
330
2A
102
}
330
2A
100
AcDbProxyObject
 90
      499
 91
      501
 93
      444
310
42D19858D95C185D1D195C9B90F409028333333333333E3BF0000000000000FB010790141107004050150841D405064090741402480A0350
1001
ACAD
1000
AcDbSavedByObjectVersion
1070
     0
  0
ACAD_PROXY_OBJECT
  5
2B
102
{ACAD_REACTORS
330
2A
102
}
330
2A
100
AcDbProxyObject
 90
      499
 91
      501
 93
      388
310
41119B185D240901404333333333333E3BF0000000000000F9010740A41107004050150841D405064090741402480A1B50
1001
ACAD
1000
AcDbSavedByObjectVersion
1070
     0
  0
ACAD_PROXY_OBJECT
  5
2C
102
{ACAD_REACTORS
330
2A
102
}
330
2A
100
AcDbProxyObject
 90
      499
 91
      501
 93
      476
310
43519B185D15DA5D1A115919D95CD0140901404333333333333E3BF0000000000000F9010740901411070040501600405405064090741402480A1B50
1001
ACAD
1000
AcDbSavedByObjectVersion
1070
     0
  0
ACAD_PROXY_OBJECT
  5
2D
102
{ACAD_REACTORS
330
2A
102
}
330
2A
100
AcDbProxyObject
 90
      499
 91
      501
 93
      412
310
41D1DBDD5C985D5910240902404333333333333E3BF0000000000000F9010740A411070040501641D405064090741402480A1B50
1001
ACAD
1000
AcDbSavedByObjectVersion
1070
     0
  0
ACAD_PROXY_OBJECT
  5
2E
102
{ACAD_REACTORS
330
2A
102
}
330
2A
100
AcDbProxyObject
 90
      499
 91
      501
 93
      500
310
4411DBDD5C985D5915DA5D1A115919D95CD0340902404333333333333E3BF0000000000000F9010740901411070040501600405405064090741402480A1B50
1001
ACAD
1000
AcDbSavedByObjectVersion
1070
     0
  0
ACAD_PROXY_OBJECT
  5
38
102
{ACAD_REACTORS
330
2A
102
}
330
2A
100
AcDbProxyObject
 90
      499
 91
      501
 93
      444
310
42D31A5B995C185D1D195C9B90E409028333333333333E3BF0000000000000FB010790141107004050750841D405064090741402483A0350
1001
ACAD
1000
AcDbSavedByObjectVersion
1070
     0
  0
ACAD_PROXY_OBJECT
  5
33
102
{ACAD_REACTORS
330
2A
102
}
330
2A
100
AcDbProxyObject
 90
      499
 91
      501
 93
      420
310
425499585B1A5CDD1A58D08409028333333333333E3BF0000000000000FB01079019070040501508421405064090741402480A1B40
1001
ACAD
1000
AcDbSavedByObjectVersion
1070
     0
  0
ACAD_PROXY_OBJECT
  5
37
102
{ACAD_REACTORS
330
2A
102
}
330
2A
100
AcDbProxyObject
 90
      499
 91
      501
 93
      412
310
41D51A1A58DAD95B90D409028333333333333E3BF0000000000000FB010790141107004050150C41D405064090741402480A0350
1001
ACAD
1000
AcDbSavedByObjectVersion
1070
     0
  0
XRECORD
  5
4EA
102
{ACAD_REACTORS
330
4E1
102
}
330
4E1
100
AcDbXrecord
 90
        0
  0
XRECORD
  5
500
102
{ACAD_REACTORS
330
4E1
102
}
330
4E1
100
AcDbXrecord
1000
DSTYLE
1002
{
1070
   340
340
11
1002
}
  0
XRECORD
  5
4EB
102
{ACAD_REACTORS
330
4E1
102
}
330
4E1
100
AcDbXrecord
  1
{F7155098-47FF-4B9F-BE82-51AA6C121F50}
  0
XRECORD
  5
4E4
102
{ACAD_REACTORS
330
4E1
102
}
330
4E1
100
AcDbXrecord
  1

  0
XRECORD
  5
4E9
102
{ACAD_REACTORS
330
4E1
102
}
330
4E1
100
AcDbXrecord
 90
        4
  0
XRECORD
  5
4E6
102
{ACAD_REACTORS
330
4E1
102
}
330
4E1
100
AcDbXrecord
340
1A
  0
XRECORD
  5
4E8
102
{ACAD_REACTORS
330
4E1
102
}
330
4E1
100
AcDbXrecord
 90
    10781
  0
XRECORD
  5
4E7
102
{ACAD_REACTORS
330
4E1
102
}
330
4E1
100
AcDbXrecord
340
19
  0
XRECORD
  5
4ED
102
{ACAD_REACTORS
330
4E1
102
}
330
4E1
100
AcDbXrecord
 40
0.0
  0
XRECORD
  5
4F0
102
{ACAD_REACTORS
330
4E1
102
}
330
4E1
100
AcDbXrecord
340
0
  0
XRECORD
  5
4F6
102
{ACAD_REACTORS
330
4E1
102
}
330
4E1
100
AcDbXrecord
 10
0.0
 20
0.0
 30
0.0
  0
XRECORD
  5
4F2
102
{ACAD_REACTORS
330
4E1
102
}
330
4E1
100
AcDbXrecord
 10
0.0
 20
0.0
 30
0.0
  0
XRECORD
  5
4F5
102
{ACAD_REACTORS
330
4E1
102
}
330
4E1
100
AcDbXrecord
 10
0.0
 20
0.0
 30
0.0
  0
XRECORD
  5
4F3
102
{ACAD_REACTORS
330
4E1
102
}
330
4E1
100
AcDbXrecord
 10
0.0
 20
0.0
 30
0.0
  0
XRECORD
  5
4F4
102
{ACAD_REACTORS
330
4E1
102
}
330
4E1
100
AcDbXrecord
 10
0.0
 20
0.0
 30
0.0
  0
XRECORD
  5
4F1
102
{ACAD_REACTORS
330
4E1
102
}
330
4E1
100
AcDbXrecord
 10
0.0
 20
0.0
 30
0.0
  0
XRECORD
  5
4EE
102
{ACAD_REACTORS
330
4E1
102
}
330
4E1
100
AcDbXrecord
340
0
  0
XRECORD
  5
4EF
102
{ACAD_REACTORS
330
4E1
102
}
330
4E1
100
AcDbXrecord
 70
     0
  0
XRECORD
  5
4E5
102
{ACAD_REACTORS
330
4E1
102
}
330
4E1
100
AcDbXrecord
  1

  0
XRECORD
  5
4E2
102
{ACAD_REACTORS
330
4E1
102
}
330
4E1
100
AcDbXrecord
 90
        1
  0
XRECORD
  5
4E3
102
{ACAD_REACTORS
330
4E1
102
}
330
4E1
100
AcDbXrecord
 90
       70
  0
XRECORD
  5
4F9
102
{ACAD_REACTORS
330
4E1
102
}
330
4E1
100
AcDbXrecord
340
0
  0
XRECORD
  5
4FF
102
{ACAD_REACTORS
330
4E1
102
}
330
4E1
100
AcDbXrecord
 10
0.0
 20
0.0
 30
0.0
  0
XRECORD
  5
4FB
102
{ACAD_REACTORS
330
4E1
102
}
330
4E1
100
AcDbXrecord
 10
0.0
 20
0.0
 30
0.0
  0
XRECORD
  5
4FE
102
{ACAD_REACTORS
330
4E1
102
}
330
4E1
100
AcDbXrecord
 10
0.0
 20
0.0
 30
0.0
  0
XRECORD
  5
4FC
102
{ACAD_REACTORS
330
4E1
102
}
330
4E1
100
AcDbXrecord
 10
0.0
 20
0.0
 30
0.0
  0
XRECORD
  5
4FD
102
{ACAD_REACTORS
330
4E1
102
}
330
4E1
100
AcDbXrecord
 10
0.0
 20
0.0
 30
0.0
  0
XRECORD
  5
4FA
102
{ACAD_REACTORS
330
4E1
102
}
330
4E1
100
AcDbXrecord
 10
0.0
 20
0.0
 30
0.0
  0
XRECORD
  5
4F7
102
{ACAD_REACTORS
330
4E1
102
}
330
4E1
100
AcDbXrecord
340
0
  0
XRECORD
  5
4F8
102
{ACAD_REACTORS
330
4E1
102
}
330
4E1
100
AcDbXrecord
 70
     0
  0
XRECORD
  5
4EC
102
{ACAD_REACTORS
330
4E1
102
}
330
4E1
100
AcDbXrecord
  1
{FAEB1C32-E019-11D5-929B-00C0DF256EC4}
  0
DICTIONARYVAR
  5
506
102
{ACAD_REACTORS
330
501
102
}
330
501
100
DictionaryVariables
280
     0
  1
2
  0
DICTIONARYVAR
  5
507
102
{ACAD_REACTORS
330
501
102
}
330
501
100
DictionaryVariables
280
     0
  1
1
  0
DICTIONARYVAR
  5
505
102
{ACAD_REACTORS
330
501
102
}
330
501
100
DictionaryVariables
280
     0
  1
80.000000
  0
DICTIONARYVAR
  5
504
102
{ACAD_REACTORS
330
501
102
}
330
501
100
DictionaryVariables
280
     0
  1
5.000000
  0
DICTIONARY
  5
50A
330
3D
100
AcDbDictionary
280
     1
  3
ACAD_XREC_ROUNDTRIP
360
50B
  0
DICTIONARY
  5
508
330
3C
100
AcDbDictionary
280
     1
  3
ACAD_XREC_ROUNDTRIP
360
509
  0
DICTIONARY
  5
50C
330
3E
100
AcDbDictionary
280
     1
  3
ACAD_XREC_ROUNDTRIP
360
50D
  0
XRECORD
  5
50B
102
{ACAD_REACTORS
330
50A
102
}
330
50A
100
AcDbXrecord
102
MATERIAL
148
0.0
149
0.0
149
0.0
 93
        0
 94
      127
282
     0
 72
     1
 77
     1
171
     1
175
     1
179
     1
273
     0
  0
XRECORD
  5
509
102
{ACAD_REACTORS
330
508
102
}
330
508
100
AcDbXrecord
102
MATERIAL
148
0.0
149
0.0
149
0.0
 93
        0
 94
      127
282
     0
 72
     1
 77
     1
171
     1
175
     1
179
     1
273
     0
  0
XRECORD
  5
50D
102
{ACAD_REACTORS
330
50C
102
}
330
50C
100
AcDbXrecord
102
MATERIAL
148
0.0
149
0.0
149
0.0
 93
        0
 94
      127
282
     0
 72
     1
 77
     1
171
     1
175
     1
179
     1
273
     0
  0
ENDSEC
  0
EOF
