  0
SECTION
  2
HEADER
  9
$ACADVER
  1
AC1014
  9
$ACADMAINTVER
 70
     9
  9
$DWGCODEPAGE
  3
ANSI_932
  9
$INSBASE
 10
0.0
 20
0.0
 30
0.0
  9
$EXTMIN
 10
0.0000000000000092
 20
12.5
 30
0.0
  9
$EXTMAX
 10
200.0
 20
287.5
 30
0.0
  9
$LIMMIN
 10
0.0
 20
0.0
  9
$LIMMAX
 10
210.0
 20
297.0
  9
$ORTHOMODE
 70
     0
  9
$REGENMODE
 70
     1
  9
$FILLMODE
 70
     1
  9
$QTEXTMODE
 70
     0
  9
$MIRRTEXT
 70
     1
  9
$DRAGMODE
 70
     2
  9
$LTSCALE
 40
1.0
  9
$OSMODE
 70
    37
  9
$ATTMODE
 70
     1
  9
$TEXTSIZE
 40
2.5
  9
$TRACEWID
 40
1.0
  9
$TEXTSTYLE
  7
STANDARD
  9
$CLAYER
  8
化粧台
  9
$CELTYPE
  6
BYLAYER
  9
$CECOLOR
 62
   256
  9
$CELTSCALE
 40
1.0
  9
$DELOBJ
 70
     1
  9
$DISPSILH
 70
     0
  9
$DIMSCALE
 40
1.0
  9
$DIMASZ
 40
2.5
  9
$DIMEXO
 40
0.625
  9
$DIMDLI
 40
3.75
  9
$DIMRND
 40
0.0
  9
$DIMDLE
 40
0.0
  9
$DIMEXE
 40
1.25
  9
$DIMTP
 40
0.0
  9
$DIMTM
 40
0.0
  9
$DIMTXT
 40
2.5
  9
$DIMCEN
 40
2.5
  9
$DIMTSZ
 40
0.0
  9
$DIMTOL
 70
     0
  9
$DIMLIM
 70
     0
  9
$DIMTIH
 70
     0
  9
$DIMTOH
 70
     0
  9
$DIMSE1
 70
     0
  9
$DIMSE2
 70
     0
  9
$DIMTAD
 70
     1
  9
$DIMZIN
 70
     8
  9
$DIMBLK
  1

  9
$DIMASO
 70
     1
  9
$DIMSHO
 70
     1
  9
$DIMPOST
  1

  9
$DIMAPOST
  1

  9
$DIMALT
 70
     0
  9
$DIMALTD
 70
     3
  9
$DIMALTF
 40
0.03937007874016
  9
$DIMLFAC
 40
1.0
  9
$DIMTOFL
 70
     1
  9
$DIMTVP
 40
0.0
  9
$DIMTIX
 70
     0
  9
$DIMSOXD
 70
     0
  9
$DIMSAH
 70
     0
  9
$DIMBLK1
  1

  9
$DIMBLK2
  1

  9
$DIMSTYLE
  2
ISO-25
  9
$DIMCLRD
 70
     0
  9
$DIMCLRE
 70
     0
  9
$DIMCLRT
 70
     0
  9
$DIMTFAC
 40
1.0
  9
$DIMGAP
 40
0.625
  9
$DIMJUST
 70
     0
  9
$DIMSD1
 70
     0
  9
$DIMSD2
 70
     0
  9
$DIMTOLJ
 70
     0
  9
$DIMTZIN
 70
     8
  9
$DIMALTZ
 70
     0
  9
$DIMALTTZ
 70
     0
  9
$DIMFIT
 70
     3
  9
$DIMUPT
 70
     0
  9
$DIMUNIT
 70
     2
  9
$DIMDEC
 70
     2
  9
$DIMTDEC
 70
     2
  9
$DIMALTU
 70
     2
  9
$DIMALTTD
 70
     3
  9
$DIMTXSTY
  7
STANDARD
  9
$DIMAUNIT
 70
     0
  9
$LUNITS
 70
     2
  9
$LUPREC
 70
     4
  9
$SKETCHINC
 40
1.0
  9
$FILLETRAD
 40
10.0
  9
$AUNITS
 70
     0
  9
$AUPREC
 70
     0
  9
$MENU
  1
.
  9
$ELEVATION
 40
0.0
  9
$PELEVATION
 40
0.0
  9
$THICKNESS
 40
0.0
  9
$LIMCHECK
 70
     0
  9
$CHAMFERA
 40
10.0
  9
$CHAMFERB
 40
10.0
  9
$CHAMFERC
 40
20.0
  9
$CHAMFERD
 40
0.0
  9
$SKPOLY
 70
     0
  9
$TDCREATE
 40
2457329.586874549
  9
$TDUPDATE
 40
2457329.586874734
  9
$TDINDWG
 40
0.0000000116
  9
$TDUSRTIMER
 40
0.0000000116
  9
$USRTIMER
 70
     1
  9
$ANGBASE
 50
0.0
  9
$ANGDIR
 70
     0
  9
$PDMODE
 70
     0
  9
$PDSIZE
 40
0.0
  9
$PLINEWID
 40
0.0
  9
$COORDS
 70
     1
  9
$SPLFRAME
 70
     0
  9
$SPLINETYPE
 70
     6
  9
$SPLINESEGS
 70
     8
  9
$ATTDIA
 70
     0
  9
$ATTREQ
 70
     1
  9
$HANDLING
 70
     1
  9
$HANDSEED
  5
5AA
  9
$SURFTAB1
 70
     6
  9
$SURFTAB2
 70
     6
  9
$SURFTYPE
 70
     6
  9
$SURFU
 70
     6
  9
$SURFV
 70
     6
  9
$UCSNAME
  2

  9
$UCSORG
 10
0.0
 20
0.0
 30
0.0
  9
$UCSXDIR
 10
1.0
 20
0.0
 30
0.0
  9
$UCSYDIR
 10
0.0
 20
1.0
 30
0.0
  9
$PUCSNAME
  2

  9
$PUCSORG
 10
0.0
 20
0.0
 30
0.0
  9
$PUCSXDIR
 10
1.0
 20
0.0
 30
0.0
  9
$PUCSYDIR
 10
0.0
 20
1.0
 30
0.0
  9
$USERI1
 70
     0
  9
$USERI2
 70
     0
  9
$USERI3
 70
     0
  9
$USERI4
 70
     0
  9
$USERI5
 70
     0
  9
$USERR1
 40
0.0
  9
$USERR2
 40
0.0
  9
$USERR3
 40
0.0
  9
$USERR4
 40
0.0
  9
$USERR5
 40
0.0
  9
$WORLDVIEW
 70
     1
  9
$SHADEDGE
 70
     3
  9
$SHADEDIF
 70
    70
  9
$TILEMODE
 70
     1
  9
$MAXACTVP
 70
    64
  9
$PINSBASE
 10
0.0
 20
0.0
 30
0.0
  9
$PLIMCHECK
 70
     0
  9
$PEXTMIN
 10
1.000000000000000E+20
 20
1.000000000000000E+20
 30
1.000000000000000E+20
  9
$PEXTMAX
 10
-1.000000000000000E+20
 20
-1.000000000000000E+20
 30
-1.000000000000000E+20
  9
$PLIMMIN
 10
0.0
 20
0.0
  9
$PLIMMAX
 10
420.0
 20
297.0
  9
$UNITMODE
 70
     0
  9
$VISRETAIN
 70
     1
  9
$PLINEGEN
 70
     0
  9
$PSLTSCALE
 70
     1
  9
$TREEDEPTH
 70
  3020
  9
$PICKSTYLE
 70
     1
  9
$CMLSTYLE
  2
STANDARD
  9
$CMLJUST
 70
     0
  9
$CMLSCALE
 40
20.0
  9
$PROXYGRAPHICS
 70
     1
  9
$MEASUREMENT
 70
     1
  0
ENDSEC
  0
SECTION
  2
CLASSES
  0
CLASS
  1
ACDBDICTIONARYWDFLT
  2
AcDbDictionaryWithDefault
  3
ObjectDBX Classes
 90
        0
280
     0
281
     0
  0
CLASS
  1
VISUALSTYLE
  2
AcDbVisualStyle
  3
ObjectDBX Classes
 90
     4095
280
     0
281
     0
  0
CLASS
  1
MATERIAL
  2
AcDbMaterial
  3
ObjectDBX Classes
 90
     1153
280
     0
281
     0
  0
CLASS
  1
SUN
  2
AcDbSun
  3
SCENEOE
 90
     1024
280
     0
281
     0
  0
CLASS
  1
DICTIONARYVAR
  2
AcDbDictionaryVar
  3
ObjectDBX Classes
 90
        0
280
     0
281
     0
  0
CLASS
  1
XRECORD
  2
AcDbXrecord
  3
AutoCAD 2000
 90
        0
280
     0
281
     0
  0
CLASS
  1
LWPOLYLINE
  2
AcDbPolyline
  3
AutoCAD 2000
 90
        0
280
     0
281
     1
  0
CLASS
  1
HATCH
  2
AcDbHatch
  3
AutoCAD 2000
 90
        0
280
     0
281
     1
  0
CLASS
  1
ACDBPLACEHOLDER
  2
AcDbPlaceHolder
  3
ObjectDBX Classes
 90
        0
280
     0
281
     0
  0
CLASS
  1
LAYOUT
  2
AcDbLayout
  3
ObjectDBX Classes
 90
        0
280
     0
281
     0
  0
ENDSEC
  0
SECTION
  2
TABLES
  0
TABLE
  2
VPORT
  5
8
330
0
100
AcDbSymbolTable
 70
     1
  0
VPORT
  5
29
330
8
100
AcDbSymbolTableRecord
100
AcDbViewportTableRecord
  2
*ACTIVE
 70
     0
 10
0.0
 20
0.0
 11
1.0
 21
1.0
 12
1500.0
 22
2250.0
 13
0.0
 23
0.0
 14
10.0
 24
10.0
 15
10.0
 25
10.0
 16
0.0
 26
0.0
 36
1.0
 17
0.0
 27
0.0
 37
0.0
 40
4125.0
 41
0.7272727272727274
 42
50.0
 43
0.0
 44
0.0
 50
0.0
 51
0.0
 71
     0
 72
  1000
 73
     1
 74
     3
 75
     0
 76
     0
 77
     0
 78
     0
  0
ENDTAB
  0
TABLE
  2
LTYPE
  5
5
330
0
100
AcDbSymbolTable
 70
     7
  0
LTYPE
  5
14
330
5
100
AcDbSymbolTableRecord
100
AcDbLinetypeTableRecord
  2
BYBLOCK
 70
     0
  3

 72
    65
 73
     0
 40
0.0
  0
LTYPE
  5
15
330
5
100
AcDbSymbolTableRecord
100
AcDbLinetypeTableRecord
  2
BYLAYER
 70
     0
  3

 72
    65
 73
     0
 40
0.0
  0
LTYPE
  5
16
330
5
100
AcDbSymbolTableRecord
100
AcDbLinetypeTableRecord
  2
CONTINUOUS
 70
     0
  3
Solid line
 72
    65
 73
     0
 40
0.0
  0
LTYPE
  5
40
330
5
100
AcDbSymbolTableRecord
100
AcDbLinetypeTableRecord
  2
EXLTYPE1
 70
     0
  3
破線
 72
    65
 73
     2
 40
3.0
 49
2.0
 74
     0
 49
-1.0
 74
     0
  0
LTYPE
  5
41
330
5
100
AcDbSymbolTableRecord
100
AcDbLinetypeTableRecord
  2
EXLTYPE2
 70
     0
  3
点線
 72
    65
 73
     2
 40
2.0
 49
1.0
 74
     0
 49
-1.0
 74
     0
  0
LTYPE
  5
42
330
5
100
AcDbSymbolTableRecord
100
AcDbLinetypeTableRecord
  2
EXLTYPE3
 70
     0
  3
一点鎖線
 72
    65
 73
     4
 40
10.0
 49
7.0
 74
     0
 49
-1.0
 74
     0
 49
1.0
 74
     0
 49
-1.0
 74
     0
  0
LTYPE
  5
43
330
5
100
AcDbSymbolTableRecord
100
AcDbLinetypeTableRecord
  2
EXLTYPE4
 70
     0
  3
二点鎖線
 72
    65
 73
     6
 40
12.0
 49
7.0
 74
     0
 49
-1.0
 74
     0
 49
1.0
 74
     0
 49
-1.0
 74
     0
 49
1.0
 74
     0
 49
-1.0
 74
     0
  0
LTYPE
  5
44
330
5
100
AcDbSymbolTableRecord
100
AcDbLinetypeTableRecord
  2
EXLTYPE5
 70
     0
  3
三点鎖線
 72
    65
 73
     8
 40
37.0
 49
30.0
 74
     0
 49
-1.0
 74
     0
 49
1.0
 74
     0
 49
-1.0
 74
     0
 49
1.0
 74
     0
 49
-1.0
 74
     0
 49
1.0
 74
     0
 49
-1.0
 74
     0
  0
LTYPE
  5
45
330
5
100
AcDbSymbolTableRecord
100
AcDbLinetypeTableRecord
  2
EXLTYPE6
 70
     0
  3
四点鎖線
 72
    65
 73
    10
 40
39.0
 49
30.0
 74
     0
 49
-1.0
 74
     0
 49
1.0
 74
     0
 49
-1.0
 74
     0
 49
1.0
 74
     0
 49
-1.0
 74
     0
 49
1.0
 74
     0
 49
-1.0
 74
     0
 49
1.0
 74
     0
 49
-1.0
 74
     0
  0
ENDTAB
  0
TABLE
  2
LAYER
  5
2
330
0
100
AcDbSymbolTable
 70
     7
  0
LAYER
  5
10
330
2
100
AcDbSymbolTableRecord
100
AcDbLayerTableRecord
  2
0
 70
     0
 62
     7
  6
CONTINUOUS
  0
LAYER
  5
48
330
2
100
AcDbSymbolTableRecord
100
AcDbLayerTableRecord
  2
枠_表
 70
     0
 62
     7
  6
CONTINUOUS
  0
LAYER
  5
49
330
2
100
AcDbSymbolTableRecord
100
AcDbLayerTableRecord
  2
化粧台
 70
     0
 62
     7
  6
CONTINUOUS
  0
LAYER
  5
4A
330
2
100
AcDbSymbolTableRecord
100
AcDbLayerTableRecord
  2
鏡台
 70
     0
 62
     7
  6
CONTINUOUS
  0
LAYER
  5
4B
330
2
100
AcDbSymbolTableRecord
100
AcDbLayerTableRecord
  2
付属金具
 70
     0
 62
     7
  6
CONTINUOUS
  0
LAYER
  5
4C
330
2
100
AcDbSymbolTableRecord
100
AcDbLayerTableRecord
  2
寸法
 70
     0
 62
     7
  6
CONTINUOUS
  0
LAYER
  5
142
330
2
100
AcDbSymbolTableRecord
100
AcDbLayerTableRecord
  2
DEFPOINTS
 70
     0
 62
     7
  6
CONTINUOUS
  0
ENDTAB
  0
TABLE
  2
STYLE
  5
3
330
0
100
AcDbSymbolTable
 70
     5
  0
STYLE
  5
11
330
3
100
AcDbSymbolTableRecord
100
AcDbTextStyleTableRecord
  2
STANDARD
 70
     0
 40
0.0
 41
1.0
 50
0.0
 71
     0
 42
2.5
  3
monotxt
  4
extfont
  0
STYLE
  5
46
330
3
100
AcDbSymbolTableRecord
100
AcDbTextStyleTableRecord
  2
EXCADSTD
 70
     0
 40
0.0
 41
1.0
 50
0.0
 71
     0
 42
0.2
  3
monotxt
  4
extfont
  0
STYLE
  5
47
330
3
100
AcDbSymbolTableRecord
100
AcDbTextStyleTableRecord
  2
EXCADVERT
 70
     4
 40
0.0
 41
1.0
 50
0.0
 71
     0
 42
0.286885
  3
monotxt
  4
extfont
  0
STYLE
  5
CD
330
3
100
AcDbSymbolTableRecord
100
AcDbTextStyleTableRecord
  2
EXCADTTF1
 70
     0
 40
0.0
 41
1.0
 50
0.0
 71
     0
 42
0.2
  3
MSGOTHIC.TTC
  4

1001
ACAD
1000
MS Gothic
1071
    32817
  0
STYLE
  5
140
330
3
100
AcDbSymbolTableRecord
100
AcDbTextStyleTableRecord
  2
EXCADDIM1
 70
     0
 40
0.0
 41
0.84
 50
0.0
 71
     0
 42
0.2
  3
monotxt
  4
extfont
  0
ENDTAB
  0
TABLE
  2
VIEW
  5
6
330
0
100
AcDbSymbolTable
 70
     0
  0
ENDTAB
  0
TABLE
  2
UCS
  5
7
330
0
100
AcDbSymbolTable
 70
     0
  0
ENDTAB
  0
TABLE
  2
APPID
  5
9
330
0
100
AcDbSymbolTable
 70
     1
  0
APPID
  5
12
330
9
100
AcDbSymbolTableRecord
100
AcDbRegAppTableRecord
  2
ACAD
 70
     0
  0
ENDTAB
  0
TABLE
  2
DIMSTYLE
  5
A
330
0
100
AcDbSymbolTable
 70
     1
  0
DIMSTYLE
105
27
102
{ACAD_REACTORS
330
141
330
14F
330
15C
330
168
330
174
330
181
330
18E
330
4E5
330
4F2
330
4FF
330
50B
330
520
330
52C
330
539
330
548
330
556
330
562
330
56F
102
}
330
A
100
AcDbSymbolTableRecord
100
AcDbDimStyleTableRecord
  2
ISO-25
 70
     0
  3

  4

  5

  6

  7

 40
1.0
 41
2.5
 42
0.625
 43
3.75
 44
1.25
 45
0.0
 46
0.0
 47
0.0
 48
0.0
140
2.5
141
2.5
142
0.0
143
0.03937007874016
144
1.0
145
0.0
146
1.0
147
0.625
 71
     0
 72
     0
 73
     0
 74
     0
 75
     0
 76
     0
 77
     1
 78
     8
170
     0
171
     3
172
     1
173
     0
174
     0
175
     0
176
     0
177
     0
178
     0
270
     2
271
     2
272
     2
273
     2
274
     3
340
11
275
     0
280
     0
281
     0
282
     0
283
     0
284
     8
285
     0
286
     0
287
     5
288
     0
  0
ENDTAB
  0
TABLE
  2
BLOCK_RECORD
  5
1
330
0
100
AcDbSymbolTable
 70
    33
  0
BLOCK_RECORD
  5
1F
330
1
100
AcDbSymbolTableRecord
100
AcDbBlockTableRecord
  2
*MODEL_SPACE
  0
BLOCK_RECORD
  5
1B
330
1
100
AcDbSymbolTableRecord
100
AcDbBlockTableRecord
  2
*PAPER_SPACE
  0
BLOCK_RECORD
  5
4D
330
1
100
AcDbSymbolTableRecord
100
AcDbBlockTableRecord
  2
EX_NORM
  0
BLOCK_RECORD
  5
50
330
1
100
AcDbSymbolTableRecord
100
AcDbBlockTableRecord
  2
EX_BNORM
  0
BLOCK_RECORD
  5
53
330
1
100
AcDbSymbolTableRecord
100
AcDbBlockTableRecord
  2
EX_BCIR
  0
BLOCK_RECORD
  5
56
330
1
100
AcDbSymbolTableRecord
100
AcDbBlockTableRecord
  2
EX_RCIVIL
  0
BLOCK_RECORD
  5
59
330
1
100
AcDbSymbolTableRecord
100
AcDbBlockTableRecord
  2
EX_SLANT
  0
BLOCK_RECORD
  5
5C
330
1
100
AcDbSymbolTableRecord
100
AcDbBlockTableRecord
  2
EX_NONE
  0
BLOCK_RECORD
  5
5F
330
1
100
AcDbSymbolTableRecord
100
AcDbBlockTableRecord
  2
EX_CIVIL
  0
BLOCK_RECORD
  5
62
330
1
100
AcDbSymbolTableRecord
100
AcDbBlockTableRecord
  2
EX_WCIR
  0
BLOCK_RECORD
  5
65
330
1
100
AcDbSymbolTableRecord
100
AcDbBlockTableRecord
  2
EX_WCIR2
  0
BLOCK_RECORD
  5
68
330
1
100
AcDbSymbolTableRecord
100
AcDbBlockTableRecord
  2
EX_WNORM
  0
BLOCK_RECORD
  5
6B
330
1
100
AcDbSymbolTableRecord
100
AcDbBlockTableRecord
  2
EX_NNORM
  0
BLOCK_RECORD
  5
6E
330
1
100
AcDbSymbolTableRecord
100
AcDbBlockTableRecord
  2
EX_BBOX
  0
BLOCK_RECORD
  5
71
330
1
100
AcDbSymbolTableRecord
100
AcDbBlockTableRecord
  2
EX_WBOX
  0
BLOCK_RECORD
  5
74
330
1
100
AcDbSymbolTableRecord
100
AcDbBlockTableRecord
  2
EX_INTEGRAL
  0
BLOCK_RECORD
  5
143
330
1
100
AcDbSymbolTableRecord
100
AcDbBlockTableRecord
  2
*D15
  0
BLOCK_RECORD
  5
150
330
1
100
AcDbSymbolTableRecord
100
AcDbBlockTableRecord
  2
*D16
  0
BLOCK_RECORD
  5
15D
330
1
100
AcDbSymbolTableRecord
100
AcDbBlockTableRecord
  2
*D17
  0
BLOCK_RECORD
  5
169
330
1
100
AcDbSymbolTableRecord
100
AcDbBlockTableRecord
  2
*D18
  0
BLOCK_RECORD
  5
175
330
1
100
AcDbSymbolTableRecord
100
AcDbBlockTableRecord
  2
*D19
  0
BLOCK_RECORD
  5
182
330
1
100
AcDbSymbolTableRecord
100
AcDbBlockTableRecord
  2
*D20
  0
BLOCK_RECORD
  5
18F
330
1
100
AcDbSymbolTableRecord
100
AcDbBlockTableRecord
  2
*D21
  0
BLOCK_RECORD
  5
4E6
330
1
100
AcDbSymbolTableRecord
100
AcDbBlockTableRecord
  2
*D22
  0
BLOCK_RECORD
  5
4F3
330
1
100
AcDbSymbolTableRecord
100
AcDbBlockTableRecord
  2
*D23
  0
BLOCK_RECORD
  5
500
330
1
100
AcDbSymbolTableRecord
100
AcDbBlockTableRecord
  2
*D24
  0
BLOCK_RECORD
  5
50C
330
1
100
AcDbSymbolTableRecord
100
AcDbBlockTableRecord
  2
*D25
  0
BLOCK_RECORD
  5
521
330
1
100
AcDbSymbolTableRecord
100
AcDbBlockTableRecord
  2
*D26
  0
BLOCK_RECORD
  5
52D
330
1
100
AcDbSymbolTableRecord
100
AcDbBlockTableRecord
  2
*D27
  0
BLOCK_RECORD
  5
53A
330
1
100
AcDbSymbolTableRecord
100
AcDbBlockTableRecord
  2
*D28
  0
BLOCK_RECORD
  5
549
330
1
100
AcDbSymbolTableRecord
100
AcDbBlockTableRecord
  2
*D29
  0
BLOCK_RECORD
  5
557
330
1
100
AcDbSymbolTableRecord
100
AcDbBlockTableRecord
  2
*D30
  0
BLOCK_RECORD
  5
563
330
1
100
AcDbSymbolTableRecord
100
AcDbBlockTableRecord
  2
*D31
  0
BLOCK_RECORD
  5
570
330
1
100
AcDbSymbolTableRecord
100
AcDbBlockTableRecord
  2
*D32
  0
ENDTAB
  0
ENDSEC
  0
SECTION
  2
BLOCKS
  0
BLOCK
  5
20
330
1F
100
AcDbEntity
  8
0
100
AcDbBlockBegin
  2
*MODEL_SPACE
 70
     0
 10
0.0
 20
0.0
 30
0.0
  3
*MODEL_SPACE
  1

  0
ENDBLK
  5
21
330
1F
100
AcDbEntity
  8
0
100
AcDbBlockEnd
  0
BLOCK
  5
1C
330
1B
100
AcDbEntity
 67
     1
  8
0
100
AcDbBlockBegin
  2
*PAPER_SPACE
 70
     0
 10
0.0
 20
0.0
 30
0.0
  3
*PAPER_SPACE
  1

  0
ENDBLK
  5
1D
330
1B
100
AcDbEntity
 67
     1
  8
0
100
AcDbBlockEnd
  0
BLOCK
  5
4E
330
4D
100
AcDbEntity
  8
0
100
AcDbBlockBegin
  2
EX_NORM
 70
     0
 10
0.0
 20
0.0
 30
0.0
  3
EX_NORM
  1

  0
LINE
  5
77
330
4D
100
AcDbEntity
  8
0
  6
CONTINUOUS
 62
     0
100
AcDbLine
 10
0.0
 20
0.0
 30
0.0
 11
-1.0
 21
0.0
 31
0.0
  0
LINE
  5
78
330
4D
100
AcDbEntity
  8
0
  6
CONTINUOUS
 62
     0
100
AcDbLine
 10
0.0
 20
0.0
 30
0.0
 11
-1.0
 21
0.166666667
 31
0.0
  0
LINE
  5
79
330
4D
100
AcDbEntity
  8
0
  6
CONTINUOUS
 62
     0
100
AcDbLine
 10
0.0
 20
0.0
 30
0.0
 11
-1.0
 21
-0.166666667
 31
0.0
  0
ENDBLK
  5
4F
330
4D
100
AcDbEntity
  8
0
100
AcDbBlockEnd
  0
BLOCK
  5
51
330
50
100
AcDbEntity
  8
0
100
AcDbBlockBegin
  2
EX_BNORM
 70
     0
 10
0.0
 20
0.0
 30
0.0
  3
EX_BNORM
  1

  0
LINE
  5
7A
330
50
100
AcDbEntity
  8
0
  6
CONTINUOUS
 62
     0
100
AcDbLine
 10
0.0
 20
0.0
 30
0.0
 11
-1.0
 21
0.0
 31
0.0
  0
LINE
  5
7B
330
50
100
AcDbEntity
  8
0
  6
CONTINUOUS
 62
     0
100
AcDbLine
 10
0.0
 20
0.0
 30
0.0
 11
-1.0
 21
0.166666667
 31
0.0
  0
LINE
  5
7C
330
50
100
AcDbEntity
  8
0
  6
CONTINUOUS
 62
     0
100
AcDbLine
 10
0.0
 20
0.0
 30
0.0
 11
-1.0
 21
-0.166666667
 31
0.0
  0
LINE
  5
7D
330
50
100
AcDbEntity
  8
0
  6
CONTINUOUS
 62
     0
100
AcDbLine
 10
0.0
 20
0.0
 30
0.0
 11
-1.0
 21
0.083333333
 31
0.0
  0
LINE
  5
7E
330
50
100
AcDbEntity
  8
0
  6
CONTINUOUS
 62
     0
100
AcDbLine
 10
0.0
 20
0.0
 30
0.0
 11
-1.0
 21
-0.083333333
 31
0.0
  0
LINE
  5
7F
330
50
100
AcDbEntity
  8
0
  6
CONTINUOUS
 62
     0
100
AcDbLine
 10
-1.0
 20
0.166666667
 30
0.0
 11
-1.0
 21
-0.166666667
 31
0.0
  0
ENDBLK
  5
52
330
50
100
AcDbEntity
  8
0
100
AcDbBlockEnd
  0
BLOCK
  5
54
330
53
100
AcDbEntity
  8
0
100
AcDbBlockBegin
  2
EX_BCIR
 70
     0
 10
0.0
 20
0.0
 30
0.0
  3
EX_BCIR
  1

  0
LINE
  5
80
330
53
100
AcDbEntity
  8
0
  6
CONTINUOUS
 62
     0
100
AcDbLine
 10
0.0
 20
0.0
 30
0.0
 11
-1.0
 21
0.0
 31
0.0
  0
CIRCLE
  5
81
330
53
100
AcDbEntity
  8
0
  6
CONTINUOUS
 62
     0
100
AcDbCircle
 10
0.0
 20
0.0
 30
0.0
 40
0.5
  0
CIRCLE
  5
82
330
53
100
AcDbEntity
  8
0
  6
CONTINUOUS
 62
     0
100
AcDbCircle
 10
0.0
 20
0.0
 30
0.0
 40
0.25
  0
ENDBLK
  5
55
330
53
100
AcDbEntity
  8
0
100
AcDbBlockEnd
  0
BLOCK
  5
57
330
56
100
AcDbEntity
  8
0
100
AcDbBlockBegin
  2
EX_RCIVIL
 70
     0
 10
0.0
 20
0.0
 30
0.0
  3
EX_RCIVIL
  1

  0
LINE
  5
83
330
56
100
AcDbEntity
  8
0
  6
CONTINUOUS
 62
     0
100
AcDbLine
 10
0.0
 20
0.0
 30
0.0
 11
-1.0
 21
0.0
 31
0.0
  0
LINE
  5
84
330
56
100
AcDbEntity
  8
0
  6
CONTINUOUS
 62
     0
100
AcDbLine
 10
-1.0
 20
-0.25
 30
0.0
 11
0.0
 21
-0.25
 31
0.0
  0
LINE
  5
85
330
56
100
AcDbEntity
  8
0
  6
CONTINUOUS
 62
     0
100
AcDbLine
 10
-1.0
 20
-0.125
 30
0.0
 11
0.0
 21
-0.125
 31
0.0
  0
ENDBLK
  5
58
330
56
100
AcDbEntity
  8
0
100
AcDbBlockEnd
  0
BLOCK
  5
5A
330
59
100
AcDbEntity
  8
0
100
AcDbBlockBegin
  2
EX_SLANT
 70
     0
 10
0.0
 20
0.0
 30
0.0
  3
EX_SLANT
  1

  0
LINE
  5
86
330
59
100
AcDbEntity
  8
0
  6
CONTINUOUS
 62
     0
100
AcDbLine
 10
0.0
 20
0.0
 30
0.0
 11
-1.0
 21
0.0
 31
0.0
  0
LINE
  5
87
330
59
100
AcDbEntity
  8
0
  6
CONTINUOUS
 62
     0
100
AcDbLine
 10
0.707106781
 20
0.707106781
 30
0.0
 11
-0.707106781
 21
-0.707106781
 31
0.0
  0
ENDBLK
  5
5B
330
59
100
AcDbEntity
  8
0
100
AcDbBlockEnd
  0
BLOCK
  5
5D
330
5C
100
AcDbEntity
  8
0
100
AcDbBlockBegin
  2
EX_NONE
 70
     0
 10
0.0
 20
0.0
 30
0.0
  3
EX_NONE
  1

  0
LINE
  5
88
330
5C
100
AcDbEntity
  8
0
  6
CONTINUOUS
 62
     0
100
AcDbLine
 10
0.0
 20
0.0
 30
0.0
 11
-1.0
 21
0.0
 31
0.0
  0
ENDBLK
  5
5E
330
5C
100
AcDbEntity
  8
0
100
AcDbBlockEnd
  0
BLOCK
  5
60
330
5F
100
AcDbEntity
  8
0
100
AcDbBlockBegin
  2
EX_CIVIL
 70
     0
 10
0.0
 20
0.0
 30
0.0
  3
EX_CIVIL
  1

  0
LINE
  5
89
330
5F
100
AcDbEntity
  8
0
  6
CONTINUOUS
 62
     0
100
AcDbLine
 10
0.0
 20
0.0
 30
0.0
 11
-1.0
 21
0.0
 31
0.0
  0
LINE
  5
8A
330
5F
100
AcDbEntity
  8
0
  6
CONTINUOUS
 62
     0
100
AcDbLine
 10
-1.0
 20
0.25
 30
0.0
 11
0.0
 21
0.25
 31
0.0
  0
LINE
  5
8B
330
5F
100
AcDbEntity
  8
0
  6
CONTINUOUS
 62
     0
100
AcDbLine
 10
-1.0
 20
0.125
 30
0.0
 11
0.0
 21
0.125
 31
0.0
  0
ENDBLK
  5
61
330
5F
100
AcDbEntity
  8
0
100
AcDbBlockEnd
  0
BLOCK
  5
63
330
62
100
AcDbEntity
  8
0
100
AcDbBlockBegin
  2
EX_WCIR
 70
     0
 10
0.0
 20
0.0
 30
0.0
  3
EX_WCIR
  1

  0
LINE
  5
8C
330
62
100
AcDbEntity
  8
0
  6
CONTINUOUS
 62
     0
100
AcDbLine
 10
0.0
 20
0.0
 30
0.0
 11
-1.0
 21
0.0
 31
0.0
  0
CIRCLE
  5
8D
330
62
100
AcDbEntity
  8
0
  6
CONTINUOUS
 62
     0
100
AcDbCircle
 10
0.0
 20
0.0
 30
0.0
 40
0.5
  0
ENDBLK
  5
64
330
62
100
AcDbEntity
  8
0
100
AcDbBlockEnd
  0
BLOCK
  5
66
330
65
100
AcDbEntity
  8
0
100
AcDbBlockBegin
  2
EX_WCIR2
 70
     0
 10
0.0
 20
0.0
 30
0.0
  3
EX_WCIR2
  1

  0
LINE
  5
8E
330
65
100
AcDbEntity
  8
0
  6
CONTINUOUS
 62
     0
100
AcDbLine
 10
-0.5
 20
0.0
 30
0.0
 11
-1.0
 21
0.0
 31
0.0
  0
CIRCLE
  5
8F
330
65
100
AcDbEntity
  8
0
  6
CONTINUOUS
 62
     0
100
AcDbCircle
 10
0.0
 20
0.0
 30
0.0
 40
0.5
  0
ENDBLK
  5
67
330
65
100
AcDbEntity
  8
0
100
AcDbBlockEnd
  0
BLOCK
  5
69
330
68
100
AcDbEntity
  8
0
100
AcDbBlockBegin
  2
EX_WNORM
 70
     0
 10
0.0
 20
0.0
 30
0.0
  3
EX_WNORM
  1

  0
LINE
  5
90
330
68
100
AcDbEntity
  8
0
  6
CONTINUOUS
 62
     0
100
AcDbLine
 10
-1.0
 20
0.0
 30
0.0
 11
-1.0
 21
0.0
 31
0.0
  0
LINE
  5
91
330
68
100
AcDbEntity
  8
0
  6
CONTINUOUS
 62
     0
100
AcDbLine
 10
0.0
 20
0.0
 30
0.0
 11
-1.0
 21
0.166666667
 31
0.0
  0
LINE
  5
92
330
68
100
AcDbEntity
  8
0
  6
CONTINUOUS
 62
     0
100
AcDbLine
 10
0.0
 20
0.0
 30
0.0
 11
-1.0
 21
-0.166666667
 31
0.0
  0
LINE
  5
93
330
68
100
AcDbEntity
  8
0
  6
CONTINUOUS
 62
     0
100
AcDbLine
 10
-1.0
 20
0.166666667
 30
0.0
 11
-1.0
 21
-0.166666667
 31
0.0
  0
ENDBLK
  5
6A
330
68
100
AcDbEntity
  8
0
100
AcDbBlockEnd
  0
BLOCK
  5
6C
330
6B
100
AcDbEntity
  8
0
100
AcDbBlockBegin
  2
EX_NNORM
 70
     0
 10
0.0
 20
0.0
 30
0.0
  3
EX_NNORM
  1

  0
LINE
  5
94
330
6B
100
AcDbEntity
  8
0
  6
CONTINUOUS
 62
     0
100
AcDbLine
 10
0.0
 20
0.0
 30
0.0
 11
-1.0
 21
0.0
 31
0.0
  0
LINE
  5
95
330
6B
100
AcDbEntity
  8
0
  6
CONTINUOUS
 62
     0
100
AcDbLine
 10
0.0
 20
0.0
 30
0.0
 11
-1.0
 21
0.166666667
 31
0.0
  0
LINE
  5
96
330
6B
100
AcDbEntity
  8
0
  6
CONTINUOUS
 62
     0
100
AcDbLine
 10
0.0
 20
0.0
 30
0.0
 11
-1.0
 21
-0.166666667
 31
0.0
  0
LINE
  5
97
330
6B
100
AcDbEntity
  8
0
  6
CONTINUOUS
 62
     0
100
AcDbLine
 10
-1.0
 20
0.166666667
 30
0.0
 11
-1.0
 21
-0.166666667
 31
0.0
  0
ENDBLK
  5
6D
330
6B
100
AcDbEntity
  8
0
100
AcDbBlockEnd
  0
BLOCK
  5
6F
330
6E
100
AcDbEntity
  8
0
100
AcDbBlockBegin
  2
EX_BBOX
 70
     0
 10
0.0
 20
0.0
 30
0.0
  3
EX_BBOX
  1

  0
LINE
  5
98
330
6E
100
AcDbEntity
  8
0
  6
CONTINUOUS
 62
     0
100
AcDbLine
 10
0.0
 20
0.0
 30
0.0
 11
-1.0
 21
0.0
 31
0.0
  0
LINE
  5
99
330
6E
100
AcDbEntity
  8
0
  6
CONTINUOUS
 62
     0
100
AcDbLine
 10
-0.5
 20
0.5
 30
0.0
 11
0.5
 21
0.5
 31
0.0
  0
LINE
  5
9A
330
6E
100
AcDbEntity
  8
0
  6
CONTINUOUS
 62
     0
100
AcDbLine
 10
0.5
 20
0.5
 30
0.0
 11
0.5
 21
-0.5
 31
0.0
  0
LINE
  5
9B
330
6E
100
AcDbEntity
  8
0
  6
CONTINUOUS
 62
     0
100
AcDbLine
 10
0.5
 20
-0.5
 30
0.0
 11
-0.5
 21
-0.5
 31
0.0
  0
LINE
  5
9C
330
6E
100
AcDbEntity
  8
0
  6
CONTINUOUS
 62
     0
100
AcDbLine
 10
-0.5
 20
-0.5
 30
0.0
 11
-0.5
 21
0.5
 31
0.0
  0
LINE
  5
9D
330
6E
100
AcDbEntity
  8
0
  6
CONTINUOUS
 62
     0
100
AcDbLine
 10
-0.25
 20
0.25
 30
0.0
 11
0.25
 21
0.25
 31
0.0
  0
LINE
  5
9E
330
6E
100
AcDbEntity
  8
0
  6
CONTINUOUS
 62
     0
100
AcDbLine
 10
0.25
 20
0.25
 30
0.0
 11
0.25
 21
-0.25
 31
0.0
  0
LINE
  5
9F
330
6E
100
AcDbEntity
  8
0
  6
CONTINUOUS
 62
     0
100
AcDbLine
 10
0.25
 20
-0.25
 30
0.0
 11
-0.25
 21
-0.25
 31
0.0
  0
LINE
  5
A0
330
6E
100
AcDbEntity
  8
0
  6
CONTINUOUS
 62
     0
100
AcDbLine
 10
-0.25
 20
-0.25
 30
0.0
 11
-0.25
 21
0.25
 31
0.0
  0
ENDBLK
  5
70
330
6E
100
AcDbEntity
  8
0
100
AcDbBlockEnd
  0
BLOCK
  5
72
330
71
100
AcDbEntity
  8
0
100
AcDbBlockBegin
  2
EX_WBOX
 70
     0
 10
0.0
 20
0.0
 30
0.0
  3
EX_WBOX
  1

  0
LINE
  5
A1
330
71
100
AcDbEntity
  8
0
  6
CONTINUOUS
 62
     0
100
AcDbLine
 10
-0.5
 20
0.0
 30
0.0
 11
-1.0
 21
0.0
 31
0.0
  0
LINE
  5
A2
330
71
100
AcDbEntity
  8
0
  6
CONTINUOUS
 62
     0
100
AcDbLine
 10
-0.5
 20
0.5
 30
0.0
 11
0.5
 21
0.5
 31
0.0
  0
LINE
  5
A3
330
71
100
AcDbEntity
  8
0
  6
CONTINUOUS
 62
     0
100
AcDbLine
 10
0.5
 20
0.5
 30
0.0
 11
0.5
 21
-0.5
 31
0.0
  0
LINE
  5
A4
330
71
100
AcDbEntity
  8
0
  6
CONTINUOUS
 62
     0
100
AcDbLine
 10
0.5
 20
-0.5
 30
0.0
 11
-0.5
 21
-0.5
 31
0.0
  0
LINE
  5
A5
330
71
100
AcDbEntity
  8
0
  6
CONTINUOUS
 62
     0
100
AcDbLine
 10
-0.5
 20
-0.5
 30
0.0
 11
-0.5
 21
0.5
 31
0.0
  0
ENDBLK
  5
73
330
71
100
AcDbEntity
  8
0
100
AcDbBlockEnd
  0
BLOCK
  5
75
330
74
100
AcDbEntity
  8
0
100
AcDbBlockBegin
  2
EX_INTEGRAL
 70
     0
 10
0.0
 20
0.0
 30
0.0
  3
EX_INTEGRAL
  1

  0
LINE
  5
A6
330
74
100
AcDbEntity
  8
0
  6
CONTINUOUS
 62
     0
100
AcDbLine
 10
0.0
 20
0.0
 30
0.0
 11
-1.0
 21
0.0
 31
0.0
  0
ARC
  5
A7
330
74
100
AcDbEntity
  8
0
  6
CONTINUOUS
 62
     0
100
AcDbCircle
 10
0.542115
 20
0.164992
 30
0.0
 40
0.56667
100
AcDbArc
 50
73.07249033629006
 51
196.9275130221199
  0
ARC
  5
A8
330
74
100
AcDbEntity
  8
0
  6
CONTINUOUS
 62
     0
100
AcDbCircle
 10
-0.542115
 20
-0.164992
 30
0.0
 40
0.56667
100
AcDbArc
 50
253.0724869220464
 51
16.9275130559125
  0
ENDBLK
  5
76
330
74
100
AcDbEntity
  8
0
100
AcDbBlockEnd
  0
BLOCK
  5
144
330
143
100
AcDbEntity
  8
0
100
AcDbBlockBegin
  2
*D15
 70
     1
 10
0.0
 20
0.0
 30
0.0
  3
*D15
  1

  0
LINE
  5
146
330
143
100
AcDbEntity
  8
化粧台
  6
CONTINUOUS
 62
     3
100
AcDbLine
 10
545.0
 20
2704.499999821186
 30
0.0
 11
545.0
 21
2965.5
 31
0.0
  0
LINE
  5
147
330
143
100
AcDbEntity
  8
化粧台
  6
CONTINUOUS
 62
     3
100
AcDbLine
 10
1295.0
 20
2704.499999821186
 30
0.0
 11
1295.0
 21
2965.5
 31
0.0
  0
LINE
  5
148
330
143
100
AcDbEntity
  8
化粧台
  6
CONTINUOUS
 62
     3
100
AcDbLine
 10
589.9999961853027
 20
2950.5
 30
0.0
 11
1250.000003814697
 21
2950.5
 31
0.0
  0
INSERT
  5
149
330
143
100
AcDbEntity
  8
化粧台
 62
     3
100
AcDbBlockReference
  2
EX_NORM
 10
545.0
 20
2950.5
 30
0.0
 41
44.99999618530273
 42
44.99999618530273
 43
44.99999618530273
 50
180.0
  0
INSERT
  5
14A
330
143
100
AcDbEntity
  8
化粧台
 62
     3
100
AcDbBlockReference
  2
EX_NORM
 10
1295.0
 20
2950.5
 30
0.0
 41
44.99999618530273
 42
44.99999618530273
 43
44.99999618530273
  0
MTEXT
  5
14B
330
143
100
AcDbEntity
  8
化粧台
 62
     2
100
AcDbMText
 10
920.0
 20
2985.749999910593
 30
0.0
 40
59.99999618530273
 41
0.0
 71
     5
 72
     1
  1
750
  7
EXCADDIM1
  0
POINT
  5
14C
330
143
100
AcDbEntity
  8
DEFPOINTS
 62
     0
100
AcDbPoint
 10
545.0
 20
2694.0
 30
0.0
  0
POINT
  5
14D
330
143
100
AcDbEntity
  8
DEFPOINTS
 62
     0
100
AcDbPoint
 10
1295.0
 20
2694.0
 30
0.0
  0
POINT
  5
14E
330
143
100
AcDbEntity
  8
DEFPOINTS
 62
     0
100
AcDbPoint
 10
1295.0
 20
2950.5
 30
0.0
  0
ENDBLK
  5
145
330
143
100
AcDbEntity
  8
0
100
AcDbBlockEnd
  0
BLOCK
  5
151
330
150
100
AcDbEntity
  8
0
100
AcDbBlockBegin
  2
*D16
 70
     1
 10
0.0
 20
0.0
 30
0.0
  3
*D16
  1

  0
LINE
  5
153
330
150
100
AcDbEntity
  8
化粧台
  6
CONTINUOUS
 62
     3
100
AcDbLine
 10
1305.499999821186
 20
2694.0
 30
0.0
 11
1598.999999999999
 21
2694.0
 31
0.0
  0
LINE
  5
154
330
150
100
AcDbEntity
  8
化粧台
  6
CONTINUOUS
 62
     3
100
AcDbLine
 10
1305.499999821186
 20
1894.0
 30
0.0
 11
1598.999999999999
 21
1894.0
 31
0.0
  0
LINE
  5
155
330
150
100
AcDbEntity
  8
化粧台
  6
CONTINUOUS
 62
     3
100
AcDbLine
 10
1583.999999999999
 20
2649.000003814697
 30
0.0
 11
1583.999999999999
 21
1938.999996185303
 31
0.0
  0
INSERT
  5
156
330
150
100
AcDbEntity
  8
化粧台
 62
     3
100
AcDbBlockReference
  2
EX_NORM
 10
1583.999999999999
 20
2694.0
 30
0.0
 41
44.99999618530273
 42
44.99999618530273
 43
44.99999618530273
 50
90.0
  0
INSERT
  5
157
330
150
100
AcDbEntity
  8
化粧台
 62
     3
100
AcDbBlockReference
  2
EX_NORM
 10
1583.999999999999
 20
1894.0
 30
0.0
 41
44.99999618530273
 42
44.99999618530273
 43
44.99999618530273
 50
270.0
  0
MTEXT
  5
158
330
150
100
AcDbEntity
  8
化粧台
 62
     2
100
AcDbMText
 10
1548.750000089407
 20
2294.0
 30
0.0
 40
59.99999618530273
 41
0.0
 71
     5
 72
     1
  1
800
  7
EXCADDIM1
 11
0.0
 21
1.0
 31
0.0
  0
POINT
  5
159
330
150
100
AcDbEntity
  8
DEFPOINTS
 62
     0
100
AcDbPoint
 10
1295.0
 20
2694.0
 30
0.0
  0
POINT
  5
15A
330
150
100
AcDbEntity
  8
DEFPOINTS
 62
     0
100
AcDbPoint
 10
1295.0
 20
1894.0
 30
0.0
  0
POINT
  5
15B
330
150
100
AcDbEntity
  8
DEFPOINTS
 62
     0
100
AcDbPoint
 10
1583.999999999999
 20
1894.0
 30
0.0
  0
ENDBLK
  5
152
330
150
100
AcDbEntity
  8
0
100
AcDbBlockEnd
  0
BLOCK
  5
15E
330
15D
100
AcDbEntity
  8
0
100
AcDbBlockBegin
  2
*D17
 70
     1
 10
0.0
 20
0.0
 30
0.0
  3
*D17
  1

  0
LINE
  5
160
330
15D
100
AcDbEntity
  8
化粧台
  6
CONTINUOUS
 62
     3
100
AcDbLine
 10
1305.499999821186
 20
1894.0
 30
0.0
 11
1599.0
 21
1894.0
 31
0.0
  0
LINE
  5
161
330
15D
100
AcDbEntity
  8
化粧台
  6
CONTINUOUS
 62
     3
100
AcDbLine
 10
1584.0
 20
838.9999961853027
 30
0.0
 11
1584.0
 21
1849.000003814697
 31
0.0
  0
INSERT
  5
162
330
15D
100
AcDbEntity
  8
化粧台
 62
     3
100
AcDbBlockReference
  2
EX_NORM
 10
1584.0
 20
794.0
 30
0.0
 41
44.99999618530273
 42
44.99999618530273
 43
44.99999618530273
 50
270.0
  0
INSERT
  5
163
330
15D
100
AcDbEntity
  8
化粧台
 62
     3
100
AcDbBlockReference
  2
EX_NORM
 10
1584.0
 20
1894.0
 30
0.0
 41
44.99999618530273
 42
44.99999618530273
 43
44.99999618530273
 50
90.0
  0
MTEXT
  5
164
330
15D
100
AcDbEntity
  8
化粧台
 62
     2
100
AcDbMText
 10
1548.750000089407
 20
1344.0
 30
0.0
 40
59.99999618530273
 41
0.0
 71
     5
 72
     1
  1
1100
  7
EXCADDIM1
 11
0.0
 21
1.0
 31
0.0
  0
POINT
  5
165
330
15D
100
AcDbEntity
  8
DEFPOINTS
 62
     0
100
AcDbPoint
 10
1368.0
 20
794.0
 30
0.0
  0
POINT
  5
166
330
15D
100
AcDbEntity
  8
DEFPOINTS
 62
     0
100
AcDbPoint
 10
1295.0
 20
1894.0
 30
0.0
  0
POINT
  5
167
330
15D
100
AcDbEntity
  8
DEFPOINTS
 62
     0
100
AcDbPoint
 10
1584.0
 20
1894.0
 30
0.0
  0
ENDBLK
  5
15F
330
15D
100
AcDbEntity
  8
0
100
AcDbBlockEnd
  0
BLOCK
  5
16A
330
169
100
AcDbEntity
  8
0
100
AcDbBlockBegin
  2
*D18
 70
     1
 10
0.0
 20
0.0
 30
0.0
  3
*D18
  1

  0
LINE
  5
16C
330
169
100
AcDbEntity
  8
化粧台
  6
CONTINUOUS
 62
     3
100
AcDbLine
 10
1305.499999821186
 20
2694.0
 30
0.0
 11
1692.0
 21
2694.0
 31
0.0
  0
LINE
  5
16D
330
169
100
AcDbEntity
  8
化粧台
  6
CONTINUOUS
 62
     3
100
AcDbLine
 10
1677.0
 20
838.9999961853027
 30
0.0
 11
1677.0
 21
2649.000003814697
 31
0.0
  0
INSERT
  5
16E
330
169
100
AcDbEntity
  8
化粧台
 62
     3
100
AcDbBlockReference
  2
EX_NORM
 10
1677.0
 20
794.0
 30
0.0
 41
44.99999618530273
 42
44.99999618530273
 43
44.99999618530273
 50
270.0
  0
INSERT
  5
16F
330
169
100
AcDbEntity
  8
化粧台
 62
     3
100
AcDbBlockReference
  2
EX_NORM
 10
1677.0
 20
2694.0
 30
0.0
 41
44.99999618530273
 42
44.99999618530273
 43
44.99999618530273
 50
90.0
  0
MTEXT
  5
170
330
169
100
AcDbEntity
  8
化粧台
 62
     2
100
AcDbMText
 10
1641.750000089408
 20
1744.0
 30
0.0
 40
59.99999618530273
 41
0.0
 71
     5
 72
     1
  1
1900
  7
EXCADDIM1
 11
1.196703554964379E-16
 21
1.0
 31
0.0
  0
POINT
  5
171
330
169
100
AcDbEntity
  8
DEFPOINTS
 62
     0
100
AcDbPoint
 10
1368.0
 20
794.0
 30
0.0
  0
POINT
  5
172
330
169
100
AcDbEntity
  8
DEFPOINTS
 62
     0
100
AcDbPoint
 10
1295.0
 20
2694.0
 30
0.0
  0
POINT
  5
173
330
169
100
AcDbEntity
  8
DEFPOINTS
 62
     0
100
AcDbPoint
 10
1677.0
 20
2694.0
 30
0.0
  0
ENDBLK
  5
16B
330
169
100
AcDbEntity
  8
0
100
AcDbBlockEnd
  0
BLOCK
  5
176
330
175
100
AcDbEntity
  8
0
100
AcDbBlockBegin
  2
*D19
 70
     1
 10
0.0
 20
0.0
 30
0.0
  3
*D19
  1

  0
LINE
  5
178
330
175
100
AcDbEntity
  8
化粧台
  6
CONTINUOUS
 62
     3
100
AcDbLine
 10
645.0
 20
2652.499999821186
 30
0.0
 11
645.0
 21
2875.5
 31
0.0
  0
LINE
  5
179
330
175
100
AcDbEntity
  8
化粧台
  6
CONTINUOUS
 62
     3
100
AcDbLine
 10
1195.0
 20
2652.499999821186
 30
0.0
 11
1195.0
 21
2875.5
 31
0.0
  0
LINE
  5
17A
330
175
100
AcDbEntity
  8
化粧台
  6
CONTINUOUS
 62
     3
100
AcDbLine
 10
689.9999961853027
 20
2860.5
 30
0.0
 11
1150.000003814697
 21
2860.5
 31
0.0
  0
INSERT
  5
17B
330
175
100
AcDbEntity
  8
化粧台
 62
     3
100
AcDbBlockReference
  2
EX_NORM
 10
645.0
 20
2860.5
 30
0.0
 41
44.99999618530273
 42
44.99999618530273
 43
44.99999618530273
 50
180.0
  0
INSERT
  5
17C
330
175
100
AcDbEntity
  8
化粧台
 62
     3
100
AcDbBlockReference
  2
EX_NORM
 10
1195.0
 20
2860.5
 30
0.0
 41
44.99999618530273
 42
44.99999618530273
 43
44.99999618530273
  0
MTEXT
  5
17D
330
175
100
AcDbEntity
  8
化粧台
 62
     2
100
AcDbMText
 10
920.0000000000002
 20
2895.749999910593
 30
0.0
 40
59.99999618530273
 41
0.0
 71
     5
 72
     1
  1
550
  7
EXCADDIM1
  0
POINT
  5
17E
330
175
100
AcDbEntity
  8
DEFPOINTS
 62
     0
100
AcDbPoint
 10
645.0
 20
2642.0
 30
0.0
  0
POINT
  5
17F
330
175
100
AcDbEntity
  8
DEFPOINTS
 62
     0
100
AcDbPoint
 10
1195.0
 20
2642.0
 30
0.0
  0
POINT
  5
180
330
175
100
AcDbEntity
  8
DEFPOINTS
 62
     0
100
AcDbPoint
 10
1195.0
 20
2860.5
 30
0.0
  0
ENDBLK
  5
177
330
175
100
AcDbEntity
  8
0
100
AcDbBlockEnd
  0
BLOCK
  5
183
330
182
100
AcDbEntity
  8
0
100
AcDbBlockBegin
  2
*D20
 70
     1
 10
0.0
 20
0.0
 30
0.0
  3
*D20
  1

  0
LINE
  5
185
330
182
100
AcDbEntity
  8
化粧台
  6
CONTINUOUS
 62
     3
100
AcDbLine
 10
695.0
 20
1905.500000178814
 30
0.0
 11
695.0
 21
1809.0
 31
0.0
  0
LINE
  5
186
330
182
100
AcDbEntity
  8
化粧台
  6
CONTINUOUS
 62
     3
100
AcDbLine
 10
1145.0
 20
1905.500000178814
 30
0.0
 11
1145.0
 21
1809.0
 31
0.0
  0
LINE
  5
187
330
182
100
AcDbEntity
  8
化粧台
  6
CONTINUOUS
 62
     3
100
AcDbLine
 10
739.9999961853027
 20
1824.0
 30
0.0
 11
1100.000003814697
 21
1824.0
 31
0.0
  0
INSERT
  5
188
330
182
100
AcDbEntity
  8
化粧台
 62
     3
100
AcDbBlockReference
  2
EX_NORM
 10
695.0
 20
1824.0
 30
0.0
 41
44.99999618530273
 42
44.99999618530273
 43
44.99999618530273
 50
180.0
  0
INSERT
  5
189
330
182
100
AcDbEntity
  8
化粧台
 62
     3
100
AcDbBlockReference
  2
EX_NORM
 10
1145.0
 20
1824.0
 30
0.0
 41
44.99999618530273
 42
44.99999618530273
 43
44.99999618530273
  0
MTEXT
  5
18A
330
182
100
AcDbEntity
  8
化粧台
 62
     2
100
AcDbMText
 10
919.9999999999999
 20
1859.249999910593
 30
0.0
 40
59.99999618530273
 41
0.0
 71
     5
 72
     1
  1
450
  7
EXCADDIM1
  0
POINT
  5
18B
330
182
100
AcDbEntity
  8
DEFPOINTS
 62
     0
100
AcDbPoint
 10
695.0
 20
1916.0
 30
0.0
  0
POINT
  5
18C
330
182
100
AcDbEntity
  8
DEFPOINTS
 62
     0
100
AcDbPoint
 10
1145.0
 20
1916.0
 30
0.0
  0
POINT
  5
18D
330
182
100
AcDbEntity
  8
DEFPOINTS
 62
     0
100
AcDbPoint
 10
1145.0
 20
1824.0
 30
0.0
  0
ENDBLK
  5
184
330
182
100
AcDbEntity
  8
0
100
AcDbBlockEnd
  0
BLOCK
  5
190
330
18F
100
AcDbEntity
  8
0
100
AcDbBlockBegin
  2
*D21
 70
     1
 10
0.0
 20
0.0
 30
0.0
  3
*D21
  1

  0
LINE
  5
192
330
18F
100
AcDbEntity
  8
化粧台
  6
CONTINUOUS
 62
     3
100
AcDbLine
 10
1105.0
 20
2717.576696651786
 30
0.0
 11
1105.0
 21
2785.5
 31
0.0
  0
LINE
  5
193
330
18F
100
AcDbEntity
  8
化粧台
  6
CONTINUOUS
 62
     3
100
AcDbLine
 10
1295.0
 20
2704.499999821186
 30
0.0
 11
1295.0
 21
2785.5
 31
0.0
  0
LINE
  5
194
330
18F
100
AcDbEntity
  8
化粧台
  6
CONTINUOUS
 62
     3
100
AcDbLine
 10
1149.999996185303
 20
2770.5
 30
0.0
 11
1250.000003814697
 21
2770.5
 31
0.0
  0
INSERT
  5
195
330
18F
100
AcDbEntity
  8
化粧台
 62
     3
100
AcDbBlockReference
  2
EX_NORM
 10
1105.0
 20
2770.5
 30
0.0
 41
44.99999618530273
 42
44.99999618530273
 43
44.99999618530273
 50
180.0
  0
INSERT
  5
196
330
18F
100
AcDbEntity
  8
化粧台
 62
     3
100
AcDbBlockReference
  2
EX_NORM
 10
1295.0
 20
2770.5
 30
0.0
 41
44.99999618530273
 42
44.99999618530273
 43
44.99999618530273
  0
MTEXT
  5
197
330
18F
100
AcDbEntity
  8
化粧台
 62
     2
100
AcDbMText
 10
1415.0
 20
2805.749999910593
 30
0.0
 40
59.99999618530273
 41
0.0
 71
     5
 72
     1
  1
190
  7
EXCADDIM1
  0
POINT
  5
198
330
18F
100
AcDbEntity
  8
DEFPOINTS
 62
     0
100
AcDbPoint
 10
1105.0
 20
2707.0766968306
 30
0.0
  0
POINT
  5
199
330
18F
100
AcDbEntity
  8
DEFPOINTS
 62
     0
100
AcDbPoint
 10
1295.0
 20
2694.0
 30
0.0
  0
POINT
  5
19A
330
18F
100
AcDbEntity
  8
DEFPOINTS
 62
     0
100
AcDbPoint
 10
1295.0
 20
2770.5
 30
0.0
  0
ENDBLK
  5
191
330
18F
100
AcDbEntity
  8
0
100
AcDbBlockEnd
  0
BLOCK
  5
4E7
330
4E6
100
AcDbEntity
  8
0
100
AcDbBlockBegin
  2
*D22
 70
     1
 10
0.0
 20
0.0
 30
0.0
  3
*D22
  1

  0
LINE
  5
4E9
330
4E6
100
AcDbEntity
  8
寸法
  6
CONTINUOUS
 62
     3
100
AcDbLine
 10
694.9999999999989
 20
3766.000000178814
 30
0.0
 11
694.9999999999989
 21
3411.5
 31
0.0
  0
LINE
  5
4EA
330
4E6
100
AcDbEntity
  8
寸法
  6
CONTINUOUS
 62
     3
100
AcDbLine
 10
1144.999999999998
 20
3766.000000178814
 30
0.0
 11
1144.999999999998
 21
3411.5
 31
0.0
  0
LINE
  5
4EB
330
4E6
100
AcDbEntity
  8
寸法
  6
CONTINUOUS
 62
     3
100
AcDbLine
 10
739.9999961853016
 20
3426.5
 30
0.0
 11
1100.000003814695
 21
3426.5
 31
0.0
  0
INSERT
  5
4EC
330
4E6
100
AcDbEntity
  8
寸法
 62
     3
100
AcDbBlockReference
  2
EX_NORM
 10
694.9999999999989
 20
3426.5
 30
0.0
 41
44.99999618530273
 42
44.99999618530273
 43
44.99999618530273
 50
180.0
  0
INSERT
  5
4ED
330
4E6
100
AcDbEntity
  8
寸法
 62
     3
100
AcDbBlockReference
  2
EX_NORM
 10
1144.999999999998
 20
3426.5
 30
0.0
 41
44.99999618530273
 42
44.99999618530273
 43
44.99999618530273
  0
MTEXT
  5
4EE
330
4E6
100
AcDbEntity
  8
寸法
 62
     2
100
AcDbMText
 10
919.9999999999986
 20
3461.749999910593
 30
0.0
 40
59.99999618530273
 41
0.0
 71
     5
 72
     1
  1
%%c450
  7
EXCADDIM1
  0
POINT
  5
4EF
330
4E6
100
AcDbEntity
  8
DEFPOINTS
 62
     0
100
AcDbPoint
 10
694.9999999999989
 20
3776.5
 30
0.0
  0
POINT
  5
4F0
330
4E6
100
AcDbEntity
  8
DEFPOINTS
 62
     0
100
AcDbPoint
 10
1144.999999999998
 20
3776.5
 30
0.0
  0
POINT
  5
4F1
330
4E6
100
AcDbEntity
  8
DEFPOINTS
 62
     0
100
AcDbPoint
 10
1144.999999999998
 20
3426.5
 30
0.0
  0
ENDBLK
  5
4E8
330
4E6
100
AcDbEntity
  8
0
100
AcDbBlockEnd
  0
BLOCK
  5
4F4
330
4F3
100
AcDbEntity
  8
0
100
AcDbBlockBegin
  2
*D23
 70
     1
 10
0.0
 20
0.0
 30
0.0
  3
*D23
  1

  0
LINE
  5
4F6
330
4F3
100
AcDbEntity
  8
寸法
  6
CONTINUOUS
 62
     3
100
AcDbLine
 10
544.9999999999998
 20
3571.000000178814
 30
0.0
 11
544.9999999999998
 21
3321.5
 31
0.0
  0
LINE
  5
4F7
330
4F3
100
AcDbEntity
  8
寸法
  6
CONTINUOUS
 62
     3
100
AcDbLine
 10
1294.999999999998
 20
3571.000000178814
 30
0.0
 11
1294.999999999998
 21
3321.5
 31
0.0
  0
LINE
  5
4F8
330
4F3
100
AcDbEntity
  8
寸法
  6
CONTINUOUS
 62
     3
100
AcDbLine
 10
589.9999961853025
 20
3336.5
 30
0.0
 11
1250.000003814695
 21
3336.5
 31
0.0
  0
INSERT
  5
4F9
330
4F3
100
AcDbEntity
  8
寸法
 62
     3
100
AcDbBlockReference
  2
EX_NORM
 10
544.9999999999998
 20
3336.5
 30
0.0
 41
44.99999618530273
 42
44.99999618530273
 43
44.99999618530273
 50
180.0
  0
INSERT
  5
4FA
330
4F3
100
AcDbEntity
  8
寸法
 62
     3
100
AcDbBlockReference
  2
EX_NORM
 10
1294.999999999998
 20
3336.5
 30
0.0
 41
44.99999618530273
 42
44.99999618530273
 43
44.99999618530273
  0
MTEXT
  5
4FB
330
4F3
100
AcDbEntity
  8
寸法
 62
     2
100
AcDbMText
 10
919.9999999999991
 20
3371.749999910593
 30
0.0
 40
59.99999618530273
 41
0.0
 71
     5
 72
     1
  1
750
  7
EXCADDIM1
  0
POINT
  5
4FC
330
4F3
100
AcDbEntity
  8
DEFPOINTS
 62
     0
100
AcDbPoint
 10
544.9999999999998
 20
3581.5
 30
0.0
  0
POINT
  5
4FD
330
4F3
100
AcDbEntity
  8
DEFPOINTS
 62
     0
100
AcDbPoint
 10
1294.999999999998
 20
3581.5
 30
0.0
  0
POINT
  5
4FE
330
4F3
100
AcDbEntity
  8
DEFPOINTS
 62
     0
100
AcDbPoint
 10
1294.999999999998
 20
3336.5
 30
0.0
  0
ENDBLK
  5
4F5
330
4F3
100
AcDbEntity
  8
0
100
AcDbBlockEnd
  0
BLOCK
  5
501
330
500
100
AcDbEntity
  8
0
100
AcDbBlockBegin
  2
*D24
 70
     1
 10
0.0
 20
0.0
 30
0.0
  3
*D24
  1

  0
LINE
  5
503
330
500
100
AcDbEntity
  8
寸法
  6
CONTINUOUS
 62
     3
100
AcDbLine
 10
1305.499999821184
 20
3581.5
 30
0.0
 11
1414.999999999998
 21
3581.5
 31
0.0
  0
LINE
  5
504
330
500
100
AcDbEntity
  8
寸法
  6
CONTINUOUS
 62
     3
100
AcDbLine
 10
1399.999999999998
 20
3626.499996185303
 30
0.0
 11
1399.999999999998
 21
3986.500003814697
 31
0.0
  0
INSERT
  5
505
330
500
100
AcDbEntity
  8
寸法
 62
     3
100
AcDbBlockReference
  2
EX_NORM
 10
1399.999999999998
 20
3581.5
 30
0.0
 41
44.99999618530273
 42
44.99999618530273
 43
44.99999618530273
 50
270.0
  0
INSERT
  5
506
330
500
100
AcDbEntity
  8
寸法
 62
     3
100
AcDbBlockReference
  2
EX_NORM
 10
1399.999999999998
 20
4031.5
 30
0.0
 41
44.99999618530273
 42
44.99999618530273
 43
44.99999618530273
 50
90.0
  0
MTEXT
  5
507
330
500
100
AcDbEntity
  8
寸法
 62
     2
100
AcDbMText
 10
1364.750000089406
 20
3806.499999999999
 30
0.0
 40
59.99999618530273
 41
0.0
 71
     5
 72
     1
  1
450
  7
EXCADDIM1
 11
0.0
 21
1.0
 31
0.0
  0
POINT
  5
508
330
500
100
AcDbEntity
  8
DEFPOINTS
 62
     0
100
AcDbPoint
 10
1294.999999999998
 20
3581.5
 30
0.0
  0
POINT
  5
509
330
500
100
AcDbEntity
  8
DEFPOINTS
 62
     0
100
AcDbPoint
 10
1294.999999999998
 20
4031.5
 30
0.0
  0
POINT
  5
50A
330
500
100
AcDbEntity
  8
DEFPOINTS
 62
     0
100
AcDbPoint
 10
1399.999999999998
 20
4031.5
 30
0.0
  0
ENDBLK
  5
502
330
500
100
AcDbEntity
  8
0
100
AcDbBlockEnd
  0
BLOCK
  5
50D
330
50C
100
AcDbEntity
  8
0
100
AcDbBlockBegin
  2
*D25
 70
     1
 10
0.0
 20
0.0
 30
0.0
  3
*D25
  1

  0
LINE
  5
50F
330
50C
100
AcDbEntity
  8
寸法
  6
CONTINUOUS
 62
     3
100
AcDbLine
 10
930.4999998211849
 20
3551.5
 30
0.0
 11
1504.999999999998
 21
3551.5
 31
0.0
  0
LINE
  5
510
330
50C
100
AcDbEntity
  8
寸法
  6
CONTINUOUS
 62
     3
100
AcDbLine
 10
1489.999999999998
 20
3596.499996185303
 30
0.0
 11
1489.999999999998
 21
3986.500003814697
 31
0.0
  0
INSERT
  5
511
330
50C
100
AcDbEntity
  8
寸法
 62
     3
100
AcDbBlockReference
  2
EX_NORM
 10
1489.999999999998
 20
3551.5
 30
0.0
 41
44.99999618530273
 42
44.99999618530273
 43
44.99999618530273
 50
270.0
  0
INSERT
  5
512
330
50C
100
AcDbEntity
  8
寸法
 62
     3
100
AcDbBlockReference
  2
EX_NORM
 10
1489.999999999998
 20
4031.5
 30
0.0
 41
44.99999618530273
 42
44.99999618530273
 43
44.99999618530273
 50
90.0
  0
MTEXT
  5
513
330
50C
100
AcDbEntity
  8
寸法
 62
     2
100
AcDbMText
 10
1454.750000089406
 20
3791.499999999999
 30
0.0
 40
59.99999618530273
 41
0.0
 71
     5
 72
     1
  1
480
  7
EXCADDIM1
 11
0.0
 21
1.0
 31
0.0
  0
POINT
  5
514
330
50C
100
AcDbEntity
  8
DEFPOINTS
 62
     0
100
AcDbPoint
 10
919.9999999999989
 20
3551.5
 30
0.0
  0
POINT
  5
515
330
50C
100
AcDbEntity
  8
DEFPOINTS
 62
     0
100
AcDbPoint
 10
1294.999999999998
 20
4031.5
 30
0.0
  0
POINT
  5
516
330
50C
100
AcDbEntity
  8
DEFPOINTS
 62
     0
100
AcDbPoint
 10
1489.999999999998
 20
4031.5
 30
0.0
  0
ENDBLK
  5
50E
330
50C
100
AcDbEntity
  8
0
100
AcDbBlockEnd
  0
BLOCK
  5
522
330
521
100
AcDbEntity
  8
0
100
AcDbBlockBegin
  2
*D26
 70
     1
 10
0.0
 20
0.0
 30
0.0
  3
*D26
  1

  0
LINE
  5
524
330
521
100
AcDbEntity
  8
寸法
  6
CONTINUOUS
 62
     3
100
AcDbLine
 10
1305.499999821184
 20
1494.0
 30
0.0
 11
1414.999999999999
 21
1494.0
 31
0.0
  0
LINE
  5
525
330
521
100
AcDbEntity
  8
寸法
  6
CONTINUOUS
 62
     3
100
AcDbLine
 10
1399.999999999999
 20
838.9999961853028
 30
0.0
 11
1399.999999999999
 21
1449.000003814697
 31
0.0
  0
INSERT
  5
526
330
521
100
AcDbEntity
  8
寸法
 62
     3
100
AcDbBlockReference
  2
EX_NORM
 10
1399.999999999999
 20
794.0000000000001
 30
0.0
 41
44.99999618530273
 42
44.99999618530273
 43
44.99999618530273
 50
270.0
  0
INSERT
  5
527
330
521
100
AcDbEntity
  8
寸法
 62
     3
100
AcDbBlockReference
  2
EX_NORM
 10
1399.999999999999
 20
1494.0
 30
0.0
 41
44.99999618530273
 42
44.99999618530273
 43
44.99999618530273
 50
90.0
  0
MTEXT
  5
528
330
521
100
AcDbEntity
  8
寸法
 62
     2
100
AcDbMText
 10
1364.750000089407
 20
1143.999999999996
 30
0.0
 40
59.99999618530273
 41
0.0
 71
     5
 72
     1
  1
700
  7
EXCADDIM1
 11
0.0
 21
1.0
 31
0.0
  0
POINT
  5
529
330
521
100
AcDbEntity
  8
DEFPOINTS
 62
     0
100
AcDbPoint
 10
1292.999999999998
 20
794.0
 30
0.0
  0
POINT
  5
52A
330
521
100
AcDbEntity
  8
DEFPOINTS
 62
     0
100
AcDbPoint
 10
1294.999999999998
 20
1494.0
 30
0.0
  0
POINT
  5
52B
330
521
100
AcDbEntity
  8
DEFPOINTS
 62
     0
100
AcDbPoint
 10
1399.999999999999
 20
1494.0
 30
0.0
  0
ENDBLK
  5
523
330
521
100
AcDbEntity
  8
0
100
AcDbBlockEnd
  0
BLOCK
  5
52E
330
52D
100
AcDbEntity
  8
0
100
AcDbBlockBegin
  2
*D27
 70
     1
 10
0.0
 20
0.0
 30
0.0
  3
*D27
  1

  0
LINE
  5
530
330
52D
100
AcDbEntity
  8
寸法
  6
CONTINUOUS
 62
     3
100
AcDbLine
 10
1305.499999821184
 20
1494.0
 30
0.0
 11
1414.999999999998
 21
1494.0
 31
0.0
  0
LINE
  5
531
330
52D
100
AcDbEntity
  8
寸法
  6
CONTINUOUS
 62
     3
100
AcDbLine
 10
930.4999998211852
 20
1664.0
 30
0.0
 11
1414.999999999998
 21
1664.0
 31
0.0
  0
LINE
  5
532
330
52D
100
AcDbEntity
  8
寸法
  6
CONTINUOUS
 62
     3
100
AcDbLine
 10
1399.999999999998
 20
1538.999996185303
 30
0.0
 11
1399.999999999998
 21
1619.000003814697
 31
0.0
  0
INSERT
  5
533
330
52D
100
AcDbEntity
  8
寸法
 62
     3
100
AcDbBlockReference
  2
EX_NORM
 10
1399.999999999998
 20
1494.0
 30
0.0
 41
44.99999618530273
 42
44.99999618530273
 43
44.99999618530273
 50
270.0
  0
INSERT
  5
534
330
52D
100
AcDbEntity
  8
寸法
 62
     3
100
AcDbBlockReference
  2
EX_NORM
 10
1399.999999999998
 20
1664.0
 30
0.0
 41
44.99999618530273
 42
44.99999618530273
 43
44.99999618530273
 50
90.0
  0
MTEXT
  5
535
330
52D
100
AcDbEntity
  8
寸法
 62
     2
100
AcDbMText
 10
1364.750000089405
 20
1578.999999999998
 30
0.0
 40
59.99999618530273
 41
0.0
 71
     5
 72
     1
  1
170
  7
EXCADDIM1
 11
0.0
 21
1.0
 31
0.0
  0
POINT
  5
536
330
52D
100
AcDbEntity
  8
DEFPOINTS
 62
     0
100
AcDbPoint
 10
1294.999999999998
 20
1494.0
 30
0.0
  0
POINT
  5
537
330
52D
100
AcDbEntity
  8
DEFPOINTS
 62
     0
100
AcDbPoint
 10
919.9999999999991
 20
1664.0
 30
0.0
  0
POINT
  5
538
330
52D
100
AcDbEntity
  8
DEFPOINTS
 62
     0
100
AcDbPoint
 10
1399.999999999998
 20
1664.0
 30
0.0
  0
ENDBLK
  5
52F
330
52D
100
AcDbEntity
  8
0
100
AcDbBlockEnd
  0
BLOCK
  5
53B
330
53A
100
AcDbEntity
  8
0
100
AcDbBlockBegin
  2
*D28
 70
     1
 10
0.0
 20
0.0
 30
0.0
  3
*D28
  1

  0
LINE
  5
53D
330
53A
100
AcDbEntity
  8
寸法
  6
CONTINUOUS
 62
     3
100
AcDbLine
 10
1303.499999821184
 20
794.0
 30
0.0
 11
1505.000000000003
 21
794.0000000000001
 31
0.0
  0
LINE
  5
53E
330
53A
100
AcDbEntity
  8
寸法
  6
CONTINUOUS
 62
     3
100
AcDbLine
 10
940.9999996423858
 20
1664.0
 30
0.0
 11
1505.000000000003
 21
1664.0
 31
0.0
  0
LINE
  5
53F
330
53A
100
AcDbEntity
  8
寸法
  6
CONTINUOUS
 62
     3
100
AcDbLine
 10
1490.000000000003
 20
838.9999961853028
 30
0.0
 11
1490.000000000003
 21
1619.000003814697
 31
0.0
  0
INSERT
  5
540
330
53A
100
AcDbEntity
  8
寸法
 62
     3
100
AcDbBlockReference
  2
EX_NORM
 10
1490.000000000003
 20
794.0000000000001
 30
0.0
 41
44.99999618530273
 42
44.99999618530273
 43
44.99999618530273
 50
270.0
  0
INSERT
  5
541
330
53A
100
AcDbEntity
  8
寸法
 62
     3
100
AcDbBlockReference
  2
EX_NORM
 10
1490.000000000003
 20
1664.0
 30
0.0
 41
44.99999618530273
 42
44.99999618530273
 43
44.99999618530273
 50
90.0
  0
MTEXT
  5
542
330
53A
100
AcDbEntity
  8
寸法
 62
     2
100
AcDbMText
 10
1454.750000089409
 20
1228.999999999998
 30
0.0
 40
59.99999618530273
 41
0.0
 71
     5
 72
     1
  1
870
  7
EXCADDIM1
 11
0.0
 21
1.0
 31
0.0
  0
POINT
  5
543
330
53A
100
AcDbEntity
  8
DEFPOINTS
 62
     0
100
AcDbPoint
 10
1292.999999999998
 20
794.0
 30
0.0
  0
POINT
  5
544
330
53A
100
AcDbEntity
  8
DEFPOINTS
 62
     0
100
AcDbPoint
 10
930.4999998211997
 20
1664.0
 30
0.0
  0
POINT
  5
545
330
53A
100
AcDbEntity
  8
DEFPOINTS
 62
     0
100
AcDbPoint
 10
1490.000000000003
 20
1664.0
 30
0.0
  0
ENDBLK
  5
53C
330
53A
100
AcDbEntity
  8
0
100
AcDbBlockEnd
  0
BLOCK
  5
54A
330
549
100
AcDbEntity
  8
0
100
AcDbBlockBegin
  2
*D29
 70
     1
 10
0.0
 20
0.0
 30
0.0
  3
*D29
  1

  0
LINE
  5
54C
330
549
100
AcDbEntity
  8
寸法
  6
CONTINUOUS
 62
     3
100
AcDbLine
 10
2454.99999999995
 20
1233.999999999995
 30
0.0
 11
2559.49999999995
 21
1233.999999999995
 31
0.0
  0
LINE
  5
54D
330
549
100
AcDbEntity
  8
寸法
  6
CONTINUOUS
 62
     3
100
AcDbLine
 10
2544.49999999995
 20
1189.000003814692
 30
0.0
 11
2544.49999999995
 21
838.9999961852977
 31
0.0
  0
INSERT
  5
54E
330
549
100
AcDbEntity
  8
寸法
 62
     3
100
AcDbBlockReference
  2
EX_NORM
 10
2544.49999999995
 20
1233.999999999995
 30
0.0
 41
44.99999618530273
 42
44.99999618530273
 43
44.99999618530273
 50
90.0
  0
INSERT
  5
54F
330
549
100
AcDbEntity
  8
寸法
 62
     3
100
AcDbBlockReference
  2
EX_NORM
 10
2544.49999999995
 20
793.999999999995
 30
0.0
 41
44.99999618530273
 42
44.99999618530273
 43
44.99999618530273
 50
270.0
  0
MTEXT
  5
550
330
549
100
AcDbEntity
  8
寸法
 62
     2
100
AcDbMText
 10
2509.250000089357
 20
1013.999999999995
 30
0.0
 40
59.99999618530273
 41
0.0
 71
     5
 72
     1
  1
440（壁給水）
  7
EXCADDIM1
 11
0.0
 21
1.0
 31
0.0
  0
POINT
  5
551
330
549
100
AcDbEntity
  8
DEFPOINTS
 62
     0
100
AcDbPoint
 10
2447.49999999995
 20
1233.999999999995
 30
0.0
  0
POINT
  5
552
330
549
100
AcDbEntity
  8
DEFPOINTS
 62
     0
100
AcDbPoint
 10
2544.49999999995
 20
793.999999999995
 30
0.0
  0
POINT
  5
553
330
549
100
AcDbEntity
  8
DEFPOINTS
 62
     0
100
AcDbPoint
 10
2544.49999999995
 20
793.999999999995
 30
0.0
  0
ENDBLK
  5
54B
330
549
100
AcDbEntity
  8
0
100
AcDbBlockEnd
  0
BLOCK
  5
558
330
557
100
AcDbEntity
  8
0
100
AcDbBlockBegin
  2
*D30
 70
     1
 10
0.0
 20
0.0
 30
0.0
  3
*D30
  1

  0
LINE
  5
55A
330
557
100
AcDbEntity
  8
寸法
  6
CONTINUOUS
 62
     3
100
AcDbLine
 10
2319.5
 20
2704.499999821186
 30
0.0
 11
2319.5
 21
2785.5
 31
0.0
  0
LINE
  5
55B
330
557
100
AcDbEntity
  8
寸法
  6
CONTINUOUS
 62
     3
100
AcDbLine
 10
2364.499996185303
 20
2770.5
 30
0.0
 11
2394.500003814697
 21
2770.5
 31
0.0
  0
INSERT
  5
55C
330
557
100
AcDbEntity
  8
寸法
 62
     3
100
AcDbBlockReference
  2
EX_NORM
 10
2319.5
 20
2770.5
 30
0.0
 41
44.99999618530273
 42
44.99999618530273
 43
44.99999618530273
 50
180.0
  0
INSERT
  5
55D
330
557
100
AcDbEntity
  8
寸法
 62
     3
100
AcDbBlockReference
  2
EX_NORM
 10
2439.5
 20
2770.5
 30
0.0
 41
44.99999618530273
 42
44.99999618530273
 43
44.99999618530273
  0
MTEXT
  5
55E
330
557
100
AcDbEntity
  8
寸法
 62
     2
100
AcDbMText
 10
2379.5
 20
2805.749999910593
 30
0.0
 40
59.99999618530273
 41
0.0
 71
     5
 72
     1
  1
120
  7
EXCADDIM1
  0
POINT
  5
55F
330
557
100
AcDbEntity
  8
DEFPOINTS
 62
     0
100
AcDbPoint
 10
2319.5
 20
2694.0
 30
0.0
  0
POINT
  5
560
330
557
100
AcDbEntity
  8
DEFPOINTS
 62
     0
100
AcDbPoint
 10
2439.5
 20
2694.0
 30
0.0
  0
POINT
  5
561
330
557
100
AcDbEntity
  8
DEFPOINTS
 62
     0
100
AcDbPoint
 10
2439.5
 20
2770.5
 30
0.0
  0
ENDBLK
  5
559
330
557
100
AcDbEntity
  8
0
100
AcDbBlockEnd
  0
BLOCK
  5
564
330
563
100
AcDbEntity
  8
0
100
AcDbBlockBegin
  2
*D31
 70
     1
 10
0.0
 20
0.0
 30
0.0
  3
*D31
  1

  0
LINE
  5
566
330
563
100
AcDbEntity
  8
寸法
  6
CONTINUOUS
 62
     3
100
AcDbLine
 10
2449.999999821186
 20
794.0
 30
0.0
 11
2931.0
 21
794.0
 31
0.0
  0
LINE
  5
567
330
563
100
AcDbEntity
  8
寸法
  6
CONTINUOUS
 62
     3
100
AcDbLine
 10
2482.499999821186
 20
1924.0
 30
0.0
 11
2931.0
 21
1924.0
 31
0.0
  0
LINE
  5
568
330
563
100
AcDbEntity
  8
寸法
  6
CONTINUOUS
 62
     3
100
AcDbLine
 10
2916.0
 20
838.9999961853027
 30
0.0
 11
2916.0
 21
1879.000003814697
 31
0.0
  0
INSERT
  5
569
330
563
100
AcDbEntity
  8
寸法
 62
     3
100
AcDbBlockReference
  2
EX_NORM
 10
2916.0
 20
794.0
 30
0.0
 41
44.99999618530273
 42
44.99999618530273
 43
44.99999618530273
 50
270.0
  0
INSERT
  5
56A
330
563
100
AcDbEntity
  8
寸法
 62
     3
100
AcDbBlockReference
  2
EX_NORM
 10
2916.0
 20
1924.0
 30
0.0
 41
44.99999618530273
 42
44.99999618530273
 43
44.99999618530273
 50
90.0
  0
MTEXT
  5
56B
330
563
100
AcDbEntity
  8
寸法
 62
     2
100
AcDbMText
 10
2880.750000089407
 20
1358.999999999997
 30
0.0
 40
59.99999618530273
 41
0.0
 71
     5
 72
     1
  1
1130
  7
EXCADDIM1
 11
0.0
 21
1.0
 31
0.0
  0
POINT
  5
56C
330
563
100
AcDbEntity
  8
DEFPOINTS
 62
     0
100
AcDbPoint
 10
2439.5
 20
794.0
 30
0.0
  0
POINT
  5
56D
330
563
100
AcDbEntity
  8
DEFPOINTS
 62
     0
100
AcDbPoint
 10
2472.0
 20
1924.0
 30
0.0
  0
POINT
  5
56E
330
563
100
AcDbEntity
  8
DEFPOINTS
 62
     0
100
AcDbPoint
 10
2916.0
 20
1924.0
 30
0.0
  0
ENDBLK
  5
565
330
563
100
AcDbEntity
  8
0
100
AcDbBlockEnd
  0
BLOCK
  5
571
330
570
100
AcDbEntity
  8
0
100
AcDbBlockBegin
  2
*D32
 70
     1
 10
0.0
 20
0.0
 30
0.0
  3
*D32
  1

  0
LINE
  5
573
330
570
100
AcDbEntity
  8
寸法
  6
CONTINUOUS
 62
     3
100
AcDbLine
 10
2482.499999821186
 20
1924.0
 30
0.0
 11
2931.0
 21
1924.0
 31
0.0
  0
LINE
  5
574
330
570
100
AcDbEntity
  8
寸法
  6
CONTINUOUS
 62
     3
100
AcDbLine
 10
2482.499999821186
 20
2634.0
 30
0.0
 11
2931.0
 21
2634.0
 31
0.0
  0
LINE
  5
575
330
570
100
AcDbEntity
  8
寸法
  6
CONTINUOUS
 62
     3
100
AcDbLine
 10
2916.0
 20
1968.999996185303
 30
0.0
 11
2916.0
 21
2117.000010299681
 31
0.0
  0
LINE
  5
576
330
570
100
AcDbEntity
  8
寸法
  6
CONTINUOUS
 62
     3
100
AcDbLine
 10
2916.0
 20
2589.000003814697
 30
0.0
 11
2916.0
 21
2440.999989700315
 31
0.0
  0
INSERT
  5
577
330
570
100
AcDbEntity
  8
寸法
 62
     3
100
AcDbBlockReference
  2
EX_NORM
 10
2916.0
 20
1924.0
 30
0.0
 41
44.99999618530273
 42
44.99999618530273
 43
44.99999618530273
 50
270.0
  0
INSERT
  5
578
330
570
100
AcDbEntity
  8
寸法
 62
     3
100
AcDbBlockReference
  2
EX_NORM
 10
2916.0
 20
2634.0
 30
0.0
 41
44.99999618530273
 42
44.99999618530273
 43
44.99999618530273
 50
90.0
  0
MTEXT
  5
579
330
570
100
AcDbEntity
  8
寸法
 62
     2
100
AcDbMText
 10
2880.750000089407
 20
2278.999999999998
 30
0.0
 40
59.99999618530273
 41
0.0
 71
     5
 72
     1
  1
710(壁固定)
  7
EXCADDIM1
 11
0.0
 21
1.0
 31
0.0
  0
POINT
  5
57A
330
570
100
AcDbEntity
  8
DEFPOINTS
 62
     0
100
AcDbPoint
 10
2472.0
 20
1924.0
 30
0.0
  0
POINT
  5
57B
330
570
100
AcDbEntity
  8
DEFPOINTS
 62
     0
100
AcDbPoint
 10
2472.0
 20
2634.0
 30
0.0
  0
POINT
  5
57C
330
570
100
AcDbEntity
  8
DEFPOINTS
 62
     0
100
AcDbPoint
 10
2916.0
 20
2634.0
 30
0.0
  0
ENDBLK
  5
572
330
570
100
AcDbEntity
  8
0
100
AcDbBlockEnd
  0
ENDSEC
  0
SECTION
  2
ENTITIES
  0
LINE
  5
A9
330
1F
100
AcDbEntity
  8
枠_表
  6
CONTINUOUS
 62
     7
100
AcDbLine
 10
17.99999999999999
 20
12.5
 30
0.0
 11
200.0
 21
12.5
 31
0.0
  0
LINE
  5
AA
330
1F
100
AcDbEntity
  8
枠_表
  6
CONTINUOUS
 62
     7
100
AcDbLine
 10
200.0
 20
12.5
 30
0.0
 11
200.0
 21
287.5
 31
0.0
  0
LINE
  5
AB
330
1F
100
AcDbEntity
  8
枠_表
  6
CONTINUOUS
 62
     7
100
AcDbLine
 10
17.99999999999999
 20
12.5
 30
0.0
 11
17.99999999999999
 21
287.5
 31
0.0
  0
LINE
  5
AC
330
1F
100
AcDbEntity
  8
枠_表
  6
CONTINUOUS
 62
     7
100
AcDbLine
 10
17.99999999999999
 20
287.5
 30
0.0
 11
200.0
 21
287.5
 31
0.0
  0
LINE
  5
AD
330
1F
100
AcDbEntity
  8
枠_表
  6
CONTINUOUS
 62
     7
100
AcDbLine
 10
17.99999999999999
 20
34.5
 30
0.0
 11
200.0
 21
34.5
 31
0.0
  0
LINE
  5
AE
330
1F
100
AcDbEntity
  8
枠_表
  6
CONTINUOUS
 62
     6
100
AcDbLine
 10
200.0
 20
22.5
 30
0.0
 11
74.99999999999982
 21
22.5
 31
0.0
  0
LINE
  5
AF
330
1F
100
AcDbEntity
  8
枠_表
  6
CONTINUOUS
 62
     6
100
AcDbLine
 10
186.0
 20
34.5
 30
0.0
 11
186.0
 21
22.5
 31
0.0
  0
LINE
  5
B0
330
1F
100
AcDbEntity
  8
枠_表
  6
CONTINUOUS
 62
     6
100
AcDbLine
 10
181.0
 20
34.5
 30
0.0
 11
181.0
 21
22.5
 31
0.0
  0
LINE
  5
B1
330
1F
100
AcDbEntity
  8
枠_表
  6
CONTINUOUS
 62
     6
100
AcDbLine
 10
144.0
 20
34.5
 30
0.0
 11
144.0
 21
12.5
 31
0.0
  0
LINE
  5
B2
330
1F
100
AcDbEntity
  8
枠_表
  6
CONTINUOUS
 62
     6
100
AcDbLine
 10
139.0
 20
34.5
 30
0.0
 11
139.0
 21
12.5
 31
0.0
  0
LINE
  5
B3
330
1F
100
AcDbEntity
  8
枠_表
  6
CONTINUOUS
 62
     6
100
AcDbLine
 10
79.99999999999982
 20
34.5
 30
0.0
 11
79.99999999999982
 21
22.5
 31
0.0
  0
LINE
  5
B4
330
1F
100
AcDbEntity
  8
枠_表
  6
CONTINUOUS
 62
     6
100
AcDbLine
 10
74.99999999999982
 20
34.5
 30
0.0
 11
74.99999999999982
 21
12.5
 31
0.0
  0
LINE
  5
B5
330
1F
100
AcDbEntity
  8
枠_表
  6
CONTINUOUS
 62
     6
100
AcDbLine
 10
61.99999999999982
 20
34.5
 30
0.0
 11
61.99999999999982
 21
12.5
 31
0.0
  0
LINE
  5
B6
330
1F
100
AcDbEntity
  8
枠_表
  6
CONTINUOUS
 62
     6
100
AcDbLine
 10
48.99999999999982
 20
34.5
 30
0.0
 11
48.99999999999982
 21
12.5
 31
0.0
  0
LINE
  5
B7
330
1F
100
AcDbEntity
  8
枠_表
  6
CONTINUOUS
 62
     6
100
AcDbLine
 10
33.49999999999993
 20
34.5
 30
0.0
 11
33.49999999999993
 21
12.5
 31
0.0
  0
LINE
  5
B8
330
1F
100
AcDbEntity
  8
枠_表
  6
CONTINUOUS
 62
     6
100
AcDbLine
 10
17.99999999999999
 20
29.5
 30
0.0
 11
74.99999999999982
 21
29.5
 31
0.0
  0
LINE
  5
B9
330
1F
100
AcDbEntity
  8
枠_表
  6
CONTINUOUS
 62
     6
100
AcDbLine
 10
189.2653808599999
 20
24.80029296999999
 30
0.0
 11
196.99938965
 21
32.66998290999999
 31
0.0
  0
CIRCLE
  5
BA
330
1F
100
AcDbEntity
  8
枠_表
  6
CONTINUOUS
 62
     6
100
AcDbCircle
 10
22.99999999999999
 20
15.0
 30
0.0
 40
0.10000002
  0
CIRCLE
  5
BB
330
1F
100
AcDbEntity
  8
枠_表
  6
CONTINUOUS
 62
     6
100
AcDbCircle
 10
27.99999999999999
 20
15.0
 30
0.0
 40
0.10000002
  0
CIRCLE
  5
BC
330
1F
100
AcDbEntity
  8
枠_表
  6
CONTINUOUS
 62
     6
100
AcDbCircle
 10
38.49999999999993
 20
15.0
 30
0.0
 40
0.10000002
  0
CIRCLE
  5
BD
330
1F
100
AcDbEntity
  8
枠_表
  6
CONTINUOUS
 62
     6
100
AcDbCircle
 10
43.49999999999993
 20
15.0
 30
0.0
 40
0.10000002
  0
LINE
  5
BE
330
1F
100
AcDbEntity
  8
枠_表
  6
EXLTYPE2
 62
     6
100
AcDbLine
 10
17.99999999999999
 20
17.5
 30
0.0
 11
48.99999999999982
 21
17.5
 31
0.0
  0
TEXT
  5
BF
330
1F
100
AcDbEntity
  8
枠_表
  6
CONTINUOUS
 62
     2
100
AcDbText
 10
189.05371094
 20
29.27227783000001
 30
0.0
 40
3.0
  1
１
 41
1.101333351135257
  7
EXCADSTD
 72
     5
 11
191.413710978147
 21
29.27227783000001
 31
0.0
100
AcDbText
  0
TEXT
  5
C0
330
1F
100
AcDbEntity
  8
枠_表
  6
CONTINUOUS
 62
     2
100
AcDbText
 10
193.12792969
 20
24.83488463999998
 30
0.0
 40
3.0
  1
１５
 41
1.098531230663534
  7
EXCADSTD
 72
     5
 11
198.3067197774138
 21
24.83488463999998
 31
0.0
100
AcDbText
  0
TEXT
  5
C1
330
1F
100
AcDbEntity
  8
枠_表
  6
CONTINUOUS
 62
     2
100
AcDbText
 10
20.24999999999999
 20
29.875
 30
0.0
 40
4.25
  1
製図
 41
1.509694117647059
  7
EXCADSTD
 72
     5
 11
30.33259999999999
 21
29.875
 31
0.0
100
AcDbText
  0
TEXT
  5
C2
330
1F
100
AcDbEntity
  8
枠_表
  6
CONTINUOUS
 62
     2
100
AcDbText
 10
35.74999999999993
 20
29.875
 30
0.0
 40
4.25
  1
写図
 41
1.509694117647059
  7
EXCADSTD
 72
     5
 11
45.83259999999993
 21
29.875
 31
0.0
100
AcDbText
  0
TEXT
  5
C3
330
1F
100
AcDbEntity
  8
枠_表
  6
CONTINUOUS
 62
     2
100
AcDbText
 10
50.74999999999982
 20
29.875
 30
0.0
 40
4.25
  1
検図
 41
1.303826737967915
  7
EXCADSTD
 72
     5
 11
59.45769999999982
 21
29.875
 31
0.0
100
AcDbText
  0
TEXT
  5
C4
330
1F
100
AcDbEntity
  8
枠_表
  6
CONTINUOUS
 62
     2
100
AcDbText
 10
63.74999999999982
 20
29.875
 30
0.0
 40
4.25
  1
承認
 41
1.303826737967915
  7
EXCADSTD
 72
     5
 11
72.45769999999982
 21
29.875
 31
0.0
100
AcDbText
  0
TEXT
  5
C5
330
1F
100
AcDbEntity
  8
枠_表
  6
CONTINUOUS
 62
     2
100
AcDbText
 10
75.5749999999998
 20
28.875
 30
0.0
 40
4.25
  1
品
 41
1.120000000000002
  7
EXCADSTD
 72
     5
 11
78.97499999999981
 21
28.875
 31
0.0
100
AcDbText
  0
TEXT
  5
C6
330
1F
100
AcDbEntity
  8
枠_表
  6
CONTINUOUS
 62
     2
100
AcDbText
 10
75.5749999999998
 20
23.875
 30
0.0
 40
4.25
  1
名
 41
1.120000000000002
  7
EXCADSTD
 72
     5
 11
78.97499999999981
 21
23.875
 31
0.0
100
AcDbText
  0
TEXT
  5
C7
330
1F
100
AcDbEntity
  8
枠_表
  6
CONTINUOUS
 62
     2
100
AcDbText
 10
139.5749999999999
 20
28.875
 30
0.0
 40
4.25
  1
品
 41
1.120000000000002
  7
EXCADSTD
 72
     5
 11
142.9749999999999
 21
28.875
 31
0.0
100
AcDbText
  0
TEXT
  5
C8
330
1F
100
AcDbEntity
  8
枠_表
  6
CONTINUOUS
 62
     2
100
AcDbText
 10
139.5749999999999
 20
23.875
 30
0.0
 40
4.25
  1
番
 41
1.120000000000002
  7
EXCADSTD
 72
     5
 11
142.9749999999999
 21
23.875
 31
0.0
100
AcDbText
  0
TEXT
  5
C9
330
1F
100
AcDbEntity
  8
枠_表
  6
CONTINUOUS
 62
     2
100
AcDbText
 10
181.675
 20
28.875
 30
0.0
 40
4.25
  1
尺
 41
1.120000000000002
  7
EXCADSTD
 72
     5
 11
185.075
 21
28.875
 31
0.0
100
AcDbText
  0
TEXT
  5
CA
330
1F
100
AcDbEntity
  8
枠_表
  6
CONTINUOUS
 62
     2
100
AcDbText
 10
181.675
 20
23.875
 30
0.0
 40
4.25
  1
度
 41
1.120000000000002
  7
EXCADSTD
 72
     5
 11
185.075
 21
23.875
 31
0.0
100
AcDbText
  0
TEXT
  5
CB
330
1F
100
AcDbEntity
  8
枠_表
  6
CONTINUOUS
 62
     2
100
AcDbText
 10
139.5749999999999
 20
17.57499999999999
 30
0.0
 40
4.25
  1
図
 41
1.120000000000002
  7
EXCADSTD
 72
     5
 11
142.9749999999999
 21
17.57499999999999
 31
0.0
100
AcDbText
  0
TEXT
  5
CC
330
1F
100
AcDbEntity
  8
枠_表
  6
CONTINUOUS
 62
     2
100
AcDbText
 10
139.5749999999999
 20
13.27499999999998
 30
0.0
 40
4.25
  1
番
 41
1.120000000000002
  7
EXCADSTD
 72
     5
 11
142.9749999999999
 21
13.27499999999998
 31
0.0
100
AcDbText
  0
TEXT
  5
CE
330
1F
100
AcDbEntity
  8
枠_表
  6
CONTINUOUS
 62
     2
100
AcDbText
 10
76.99999999999993
 20
14.5
 30
0.0
 40
4.5
  1
ジャニス工業株式会社
 41
1.025641025641026
  7
EXCADTTF1
 72
     5
 11
136.9999999999999
 21
14.5
 31
0.0
100
AcDbText
  0
TEXT
  5
CF
330
1F
100
AcDbEntity
  8
枠_表
  6
CONTINUOUS
 62
     2
100
AcDbText
 10
63.49999999999942
 20
21.0
 30
0.0
 40
5.0
  1
古林
 41
1.22491090909091
  7
EXCADSTD
 72
     5
 11
73.12429999999942
 21
21.0
 31
0.0
100
AcDbText
  0
LINE
  5
D0
330
1F
100
AcDbEntity
  8
枠_表
  6
EXLTYPE2
 62
     1
100
AcDbLine
 10
18.0
 20
150.0
 30
0.0
 11
0.0
 21
150.0
 31
0.0
  0
TEXT
  5
D1
330
1F
100
AcDbEntity
  8
枠_表
  6
CONTINUOUS
 62
     2
100
AcDbText
 10
80.99999999999982
 20
28.5
 30
0.0
 40
5.0
  1
750㎜幅
 41
0.8693548387096776
  7
EXCADSTD
 72
     5
 11
100.2499999999998
 21
28.5
 31
0.0
100
AcDbText
  0
TEXT
  5
D2
330
1F
100
AcDbEntity
  8
枠_表
  6
CONTINUOUS
 62
     2
100
AcDbText
 10
80.99999999999982
 20
23.5
 30
0.0
 40
5.0
  1
　洗面化粧ユニット
 41
1.307547169811321
  7
EXCADSTD
 72
     5
 11
130.4999999999998
 21
23.5
 31
0.0
100
AcDbText
  0
TEXT
  5
D3
330
1F
100
AcDbEntity
  8
枠_表
  6
CONTINUOUS
 62
     2
100
AcDbText
 10
20.74999999999948
 20
21.0
 30
0.0
 40
5.0
  1
間瀬
 41
1.224910909090909
  7
EXCADSTD
 72
     5
 11
30.37429999999948
 21
21.0
 31
0.0
100
AcDbText
  0
LINE
  5
D4
330
1F
100
AcDbEntity
  8
枠_表
  6
CONTINUOUS
 62
     6
100
AcDbLine
 10
124.9999999999999
 20
283.7
 30
0.0
 11
195.0
 21
283.7
 31
0.0
  0
LINE
  5
D5
330
1F
100
AcDbEntity
  8
枠_表
  6
CONTINUOUS
 62
     6
100
AcDbLine
 10
124.9999999999999
 20
278.2
 30
0.0
 11
195.0
 21
278.2
 31
0.0
  0
LINE
  5
D6
330
1F
100
AcDbEntity
  8
枠_表
  6
CONTINUOUS
 62
     6
100
AcDbLine
 10
124.9999999999999
 20
272.7
 30
0.0
 11
195.0
 21
272.7
 31
0.0
  0
TEXT
  5
D7
330
1F
100
AcDbEntity
  8
枠_表
  6
CONTINUOUS
 62
     2
100
AcDbText
 10
133.0
 20
278.95
 30
0.0
 40
4.0
  1
品番
 41
2.041518181818183
  7
EXCADSTD
 72
     5
 11
145.8324
 21
278.95
 31
0.0
100
AcDbText
  0
TEXT
  5
D8
330
1F
100
AcDbEntity
  8
枠_表
  6
CONTINUOUS
 62
     2
100
AcDbText
 10
168.0
 20
278.95
 30
0.0
 40
4.0
  1
品名
 41
2.041518181818183
  7
EXCADSTD
 72
     5
 11
180.8324
 21
278.95
 31
0.0
100
AcDbText
  0
TEXT
  5
D9
330
1F
100
AcDbEntity
  8
枠_表
  6
CONTINUOUS
 62
     2
100
AcDbText
 10
156.0000000000001
 20
273.45
 30
0.0
 40
4.0
  1
洗面化粧台
 41
1.086206896551724
  7
EXCADSTD
 72
     5
 11
174.0000000000001
 21
273.45
 31
0.0
100
AcDbText
  0
LINE
  5
DA
330
1F
100
AcDbEntity
  8
枠_表
  6
CONTINUOUS
 62
     6
100
AcDbLine
 10
124.9999999999999
 20
267.2
 30
0.0
 11
195.0
 21
267.2
 31
0.0
  0
LINE
  5
DB
330
1F
100
AcDbEntity
  8
枠_表
  6
CONTINUOUS
 62
     6
100
AcDbLine
 10
124.9999999999999
 20
267.2
 30
0.0
 11
124.9999999999999
 21
283.7
 31
0.0
  0
LINE
  5
DC
330
1F
100
AcDbEntity
  8
枠_表
  6
CONTINUOUS
 62
     6
100
AcDbLine
 10
155.0
 20
267.2
 30
0.0
 11
155.0
 21
283.7
 31
0.0
  0
LINE
  5
DD
330
1F
100
AcDbEntity
  8
枠_表
  6
CONTINUOUS
 62
     6
100
AcDbLine
 10
195.0
 20
267.2
 30
0.0
 11
195.0
 21
283.7
 31
0.0
  0
TEXT
  5
DE
330
1F
100
AcDbEntity
  8
枠_表
  6
CONTINUOUS
 62
     2
100
AcDbText
 10
125.9999999999999
 20
273.45
 30
0.0
 40
4.0
  1
ＬＵ７５２ＴＳＤＲ
 41
0.8287735817567363
  7
EXCADSTD
 72
     5
 11
151.0999999046325
 21
273.45
 31
0.0
100
AcDbText
  0
TEXT
  5
DF
330
1F
100
AcDbEntity
  8
枠_表
  6
CONTINUOUS
 62
     2
100
AcDbText
 10
156.0000000000001
 20
267.95
 30
0.0
 40
4.0
  1
化粧鏡台
 41
1.103260869565218
  7
EXCADSTD
 72
     5
 11
170.5000000000001
 21
267.95
 31
0.0
100
AcDbText
  0
TEXT
  5
E0
330
1F
100
AcDbEntity
  8
枠_表
  6
CONTINUOUS
 62
     2
100
AcDbText
 10
125.3999999999998
 20
262.3
 30
0.0
 40
4.0
  1
※化粧鏡台
 41
1.013793100570811
  7
EXCADSTD
 72
     5
 11
142.1999999523161
 21
262.3
 31
0.0
100
AcDbText
  0
TEXT
  5
E1
330
1F
100
AcDbEntity
  8
枠_表
  6
CONTINUOUS
 62
     2
100
AcDbText
 10
125.3999999999998
 20
258.3
 30
0.0
 40
4.0
  1
　電源：１００Ｖ，５０/６０Ｈｚ
 41
0.9083044950215465
  7
EXCADSTD
 72
     5
 11
175.3999998211859
 21
258.3
 31
0.0
100
AcDbText
  0
TEXT
  5
E2
330
1F
100
AcDbEntity
  8
枠_表
  6
CONTINUOUS
 62
     2
100
AcDbText
 10
125.3999999999998
 20
254.3
 30
0.0
 40
4.0
  1
　コンセント容量：１２００Ｗ
 41
0.961445779865047
  7
EXCADSTD
 72
     5
 11
170.9999998450278
 21
254.3
 31
0.0
100
AcDbText
  0
TEXT
  5
E3
330
1F
100
AcDbEntity
  8
枠_表
  6
CONTINUOUS
 62
     2
100
AcDbText
 10
125.3999999999998
 20
250.3
 30
0.0
 40
4.0
  1
※選択部材（別途手配）
 41
0.969230766021289
  7
EXCADSTD
 72
     5
 11
161.3999998807906
 21
250.3
 31
0.0
100
AcDbText
  0
LINE
  5
E4
330
1F
100
AcDbEntity
  8
枠_表
  6
CONTINUOUS
 62
     6
100
AcDbLine
 10
124.9999999999999
 20
248.9
 30
0.0
 11
195.0
 21
248.9
 31
0.0
  0
LINE
  5
E5
330
1F
100
AcDbEntity
  8
枠_表
  6
CONTINUOUS
 62
     6
100
AcDbLine
 10
124.9999999999999
 20
243.4
 30
0.0
 11
195.0
 21
243.4
 31
0.0
  0
LINE
  5
E6
330
1F
100
AcDbEntity
  8
枠_表
  6
CONTINUOUS
 62
     6
100
AcDbLine
 10
124.9999999999999
 20
237.9
 30
0.0
 11
195.0
 21
237.9
 31
0.0
  0
LINE
  5
E7
330
1F
100
AcDbEntity
  8
枠_表
  6
CONTINUOUS
 62
     6
100
AcDbLine
 10
124.9999999999999
 20
232.4
 30
0.0
 11
195.0
 21
232.4
 31
0.0
  0
LINE
  5
E8
330
1F
100
AcDbEntity
  8
枠_表
  6
CONTINUOUS
 62
     6
100
AcDbLine
 10
124.9999999999999
 20
226.9
 30
0.0
 11
195.0
 21
226.9
 31
0.0
  0
LINE
  5
E9
330
1F
100
AcDbEntity
  8
枠_表
  6
CONTINUOUS
 62
     6
100
AcDbLine
 10
124.9999999999999
 20
221.4
 30
0.0
 11
195.0
 21
221.4
 31
0.0
  0
LINE
  5
EA
330
1F
100
AcDbEntity
  8
枠_表
  6
CONTINUOUS
 62
     6
100
AcDbLine
 10
124.9999999999999
 20
215.9
 30
0.0
 11
195.0
 21
215.9
 31
0.0
  0
LINE
  5
EB
330
1F
100
AcDbEntity
  8
枠_表
  6
CONTINUOUS
 62
     6
100
AcDbLine
 10
124.9999999999999
 20
210.4
 30
0.0
 11
195.0
 21
210.4
 31
0.0
  0
LINE
  5
EC
330
1F
100
AcDbEntity
  8
枠_表
  6
CONTINUOUS
 62
     6
100
AcDbLine
 10
124.9999999999999
 20
210.4
 30
0.0
 11
124.9999999999999
 21
248.9
 31
0.0
  0
LINE
  5
ED
330
1F
100
AcDbEntity
  8
枠_表
  6
CONTINUOUS
 62
     6
100
AcDbLine
 10
195.0
 20
210.4
 30
0.0
 11
195.0
 21
248.9
 31
0.0
  0
TEXT
  5
EE
330
1F
100
AcDbEntity
  8
枠_表
  6
CONTINUOUS
 62
     2
100
AcDbText
 10
125.9999999999999
 20
238.65
 30
0.0
 40
4.0
  1
Ｐ２２３４
 41
0.8629310316052939
  7
EXCADSTD
 72
     5
 11
140.2999999523162
 21
238.65
 31
0.0
100
AcDbText
  0
TEXT
  5
EF
330
1F
100
AcDbEntity
  8
枠_表
  6
CONTINUOUS
 62
     2
100
AcDbText
 10
125.9999999999999
 20
233.15
 30
0.0
 40
4.0
  1
Ｐ２２３３
 41
0.8629310316052939
  7
EXCADSTD
 72
     5
 11
140.2999999523162
 21
233.15
 31
0.0
100
AcDbText
  0
TEXT
  5
F0
330
1F
100
AcDbEntity
  8
枠_表
  6
CONTINUOUS
 62
     2
100
AcDbText
 10
125.9999999999999
 20
227.65
 30
0.0
 40
4.0
  1
Ｐ２２３２
 41
0.8629310316052939
  7
EXCADSTD
 72
     5
 11
140.2999999523162
 21
227.65
 31
0.0
100
AcDbText
  0
TEXT
  5
F1
330
1F
100
AcDbEntity
  8
枠_表
  6
CONTINUOUS
 62
     2
100
AcDbText
 10
125.9999999999999
 20
216.65
 30
0.0
 40
4.0
  1
ＮＬ２２１－７５ＷＭＹ
 41
0.8211538429443659
  7
EXCADSTD
 72
     5
 11
156.4999998807906
 21
216.65
 31
0.0
100
AcDbText
  0
LINE
  5
F2
330
1F
100
AcDbEntity
  8
枠_表
  6
CONTINUOUS
 62
     6
100
AcDbLine
 10
160.0
 20
210.4
 30
0.0
 11
160.0
 21
248.9
 31
0.0
  0
TEXT
  5
F3
330
1F
100
AcDbEntity
  8
枠_表
  6
CONTINUOUS
 62
     2
100
AcDbText
 10
161.0000000000001
 20
238.65
 30
0.0
 40
4.0
  1
Ｐトラップ
 41
1.086206896551724
  7
EXCADSTD
 72
     5
 11
179.0000000000001
 21
238.65
 31
0.0
100
AcDbText
  0
TEXT
  5
F4
330
1F
100
AcDbEntity
  8
枠_表
  6
CONTINUOUS
 62
     2
100
AcDbText
 10
161.0000000000001
 20
233.15
 30
0.0
 40
4.0
  1
Ｓトラップ
 41
1.086206896551724
  7
EXCADSTD
 72
     5
 11
179.0000000000001
 21
233.15
 31
0.0
100
AcDbText
  0
TEXT
  5
F5
330
1F
100
AcDbEntity
  8
枠_表
  6
CONTINUOUS
 62
     2
100
AcDbText
 10
161.0000000000001
 20
227.65
 30
0.0
 40
4.0
  1
ボトルトラップ
 41
1.067073170731707
  7
EXCADSTD
 72
     5
 11
186.0000000000001
 21
227.65
 31
0.0
100
AcDbText
  0
TEXT
  5
F6
330
1F
100
AcDbEntity
  8
枠_表
  6
CONTINUOUS
 62
     2
100
AcDbText
 10
161.0000000000001
 20
222.15
 30
0.0
 40
4.0
  1
配管アダプター
 41
1.067073170731707
  7
EXCADSTD
 72
     5
 11
186.0000000000001
 21
222.15
 31
0.0
100
AcDbText
  0
TEXT
  5
F7
330
1F
100
AcDbEntity
  8
枠_表
  6
CONTINUOUS
 62
     2
100
AcDbText
 10
161.0000000000001
 20
216.65
 30
0.0
 40
4.0
  1
アングル形止水栓
 41
1.061170212765957
  7
EXCADSTD
 72
     5
 11
189.5000000000001
 21
216.65
 31
0.0
100
AcDbText
  0
TEXT
  5
F8
330
1F
100
AcDbEntity
  8
枠_表
  6
CONTINUOUS
 62
     2
100
AcDbText
 10
161.0000000000001
 20
211.15
 30
0.0
 40
4.0
  1
ストレート形止水栓
 41
1.056603773584906
  7
EXCADSTD
 72
     5
 11
193.0000000000001
 21
211.15
 31
0.0
100
AcDbText
  0
TEXT
  5
F9
330
1F
100
AcDbEntity
  8
枠_表
  6
CONTINUOUS
 62
     2
100
AcDbText
 10
135.5
 20
244.15
 30
0.0
 40
4.0
  1
品番
 41
2.041518181818183
  7
EXCADSTD
 72
     5
 11
148.3324
 21
244.15
 31
0.0
100
AcDbText
  0
TEXT
  5
FA
330
1F
100
AcDbEntity
  8
枠_表
  6
CONTINUOUS
 62
     2
100
AcDbText
 10
170.5000000000001
 20
244.15
 30
0.0
 40
4.0
  1
品名
 41
2.041518181818183
  7
EXCADSTD
 72
     5
 11
183.3324000000001
 21
244.15
 31
0.0
100
AcDbText
  0
TEXT
  5
FB
330
1F
100
AcDbEntity
  8
枠_表
  6
CONTINUOUS
 62
     2
100
AcDbText
 10
125.9999999999999
 20
211.15
 30
0.0
 40
4.0
  1
ＮＬ２１１－４２０ＷＹ
 41
0.8211538429443659
  7
EXCADSTD
 72
     5
 11
156.4999998807906
 21
211.15
 31
0.0
100
AcDbText
  0
TEXT
  5
FC
330
1F
100
AcDbEntity
  8
枠_表
  6
CONTINUOUS
 62
     2
100
AcDbText
 10
125.9999999999999
 20
222.15
 30
0.0
 40
4.0
  1
ＬＵＭＥＨ７０－２０－３２Ｂ
 41
0.6662650569734804
  7
EXCADSTD
 72
     5
 11
157.5999998450278
 21
222.15
 31
0.0
100
AcDbText
  0
TEXT
  5
FD
330
1F
100
AcDbEntity
  8
枠_表
  6
CONTINUOUS
 62
     2
100
AcDbText
 10
18.44999998999997
 20
13.0
 30
0.0
 40
4.0
  1
22
 41
0.454054054054054
  7
EXCADSTD
 72
     5
 11
21.64999998999997
 21
13.0
 31
0.0
100
AcDbText
  0
TEXT
  5
FE
330
1F
100
AcDbEntity
  8
枠_表
  6
CONTINUOUS
 62
     2
100
AcDbText
 10
24.37499999999999
 20
13.0
 30
0.0
 40
4.0
  1
9
 41
0.4798828124999995
  7
EXCADSTD
 72
     5
 11
25.83749999999999
 21
13.0
 31
0.0
100
AcDbText
  0
TEXT
  5
FF
330
1F
100
AcDbEntity
  8
枠_表
  6
CONTINUOUS
 62
     2
100
AcDbText
 10
29.67500000999998
 20
13.0
 30
0.0
 40
4.0
  1
3
 41
0.4516544117647054
  7
EXCADSTD
 72
     5
 11
31.13750000999998
 21
13.0
 31
0.0
100
AcDbText
  0
TEXT
  5
100
330
1F
100
AcDbEntity
  8
枠_表
  6
CONTINUOUS
 62
     2
100
AcDbText
 10
125.9999999999999
 20
267.95
 30
0.0
 40
4.0
  1
ＬＵＭ７５１ＣＳＫＨ
 41
0.8245762680041594
  7
EXCADSTD
 72
     5
 11
153.7999998927115
 21
267.95
 31
0.0
100
AcDbText
  0
TEXT
  5
101
330
1F
100
AcDbEntity
  8
枠_表
  6
CONTINUOUS
 62
     2
100
AcDbText
 10
145.0
 20
28.5
 30
0.0
 40
5.0
  1
ＬＵ７５２ＴＳＤＲ型
 41
0.8542372881355933
  7
EXCADSTD
 72
     5
 11
181.0
 21
28.5
 31
0.0
100
AcDbText
  0
TEXT
  5
102
330
1F
100
AcDbEntity
  8
枠_表
  6
CONTINUOUS
 62
     2
100
AcDbText
 10
145.0
 20
23.5
 30
0.0
 40
5.0
  1
ＬＵＭ７５１ＣＳＫＨ
 41
0.8542372881355933
  7
EXCADSTD
 72
     5
 11
181.0
 21
23.5
 31
0.0
100
AcDbText
  0
TEXT
  5
103
330
1F
100
AcDbEntity
  8
枠_表
  6
CONTINUOUS
 62
     7
100
AcDbText
 10
145.200000166893
 20
14.14999999999998
 30
0.0
 40
7.0
  1
ＬＵ３１７１４０
 41
1.140425524813064
  7
EXCADSTD
 72
     5
 11
198.799999833107
 21
14.14999999999998
 31
0.0
100
AcDbText
  0
POLYLINE
  5
104
330
1F
100
AcDbEntity
  8
化粧台
  6
CONTINUOUS
 62
     3
100
AcDb2dPolyline
 66
     1
 10
0.0
 20
0.0
 30
0.0
 70
   128
  0
VERTEX
  5
105
330
104
100
AcDbEntity
  8
化粧台
  6
CONTINUOUS
 62
     3
100
AcDbVertex
100
AcDb2dVertex
 10
1601.999999999997
 20
4031.5
 30
0.0
  0
VERTEX
  5
106
330
104
100
AcDbEntity
  8
化粧台
  6
CONTINUOUS
 62
     3
100
AcDbVertex
100
AcDb2dVertex
 10
1624.999999999997
 20
3982.0
 30
0.0
  0
SEQEND
  5
107
330
104
100
AcDbEntity
  8
化粧台
  6
CONTINUOUS
 62
     3
  0
LINE
  5
108
330
1F
100
AcDbEntity
  8
化粧台
  6
CONTINUOUS
 62
     3
100
AcDbLine
 10
1627.763749118668
 20
3993.850574621249
 30
0.0
 11
1601.999999999997
 21
4031.5
 31
0.0
  0
LINE
  5
109
330
1F
100
AcDbEntity
  8
化粧台
  6
CONTINUOUS
 62
     3
100
AcDbLine
 10
1601.999999999997
 20
4031.5
 30
0.0
 11
1614.16048958401
 21
3987.529868170801
 31
0.0
  0
POLYLINE
  5
10A
330
1F
100
AcDbEntity
  8
化粧台
  6
CONTINUOUS
 62
     3
100
AcDb2dPolyline
 66
     1
 10
0.0
 20
0.0
 30
0.0
 70
   128
  0
VERTEX
  5
10B
330
10A
100
AcDbEntity
  8
化粧台
  6
CONTINUOUS
 62
     3
100
AcDbVertex
100
AcDb2dVertex
 10
2439.5
 20
2885.5
 30
0.0
  0
VERTEX
  5
10C
330
10A
100
AcDbEntity
  8
化粧台
  6
CONTINUOUS
 62
     3
100
AcDbVertex
100
AcDb2dVertex
 10
2393.5
 20
2905.5
 30
0.0
  0
SEQEND
  5
10D
330
10A
100
AcDbEntity
  8
化粧台
  6
CONTINUOUS
 62
     3
  0
LINE
  5
10E
330
1F
100
AcDbEntity
  8
化粧台
  6
CONTINUOUS
 62
     3
100
AcDbLine
 10
2395.241401632996
 20
2896.564649591751
 30
0.0
 11
2439.5
 21
2885.5
 31
0.0
  0
LINE
  5
10F
330
1F
100
AcDbEntity
  8
化粧台
  6
CONTINUOUS
 62
     3
100
AcDbLine
 10
2439.5
 20
2885.5
 30
0.0
 11
2401.222293304213
 21
2910.320700435549
 31
0.0
  0
POLYLINE
  5
110
330
1F
100
AcDbEntity
  8
化粧台
  6
CONTINUOUS
 62
     3
100
AcDb2dPolyline
 66
     1
 10
0.0
 20
0.0
 30
0.0
 70
   128
  0
VERTEX
  5
111
330
110
100
AcDbEntity
  8
化粧台
  6
CONTINUOUS
 62
     3
100
AcDbVertex
100
AcDb2dVertex
 10
1937.499999999997
 20
794.0
 30
0.0
  0
VERTEX
  5
112
330
110
100
AcDbEntity
  8
化粧台
  6
CONTINUOUS
 62
     3
100
AcDbVertex
100
AcDb2dVertex
 10
1918.499999999997
 20
843.0
 30
0.0
  0
SEQEND
  5
113
330
110
100
AcDbEntity
  8
化粧台
  6
CONTINUOUS
 62
     3
  0
LINE
  5
114
330
1F
100
AcDbEntity
  8
化粧台
  6
CONTINUOUS
 62
     3
100
AcDbLine
 10
1914.238536730782
 20
833.2447999940749
 30
0.0
 11
1937.499999999997
 21
794.0
 31
0.0
  0
LINE
  5
115
330
1F
100
AcDbEntity
  8
化粧台
  6
CONTINUOUS
 62
     3
100
AcDbLine
 10
1937.499999999997
 20
794.0
 30
0.0
 11
1928.223956365034
 21
838.667717811438
 31
0.0
  0
LINE
  5
116
330
1F
100
AcDbEntity
  8
化粧台
  6
EXLTYPE4
 62
     6
100
AcDbLine
 10
332.9999999999999
 20
4031.5
 30
0.0
 11
1742.999999999997
 21
4031.5
 31
0.0
  0
TEXT
  5
117
330
1F
100
AcDbEntity
  8
化粧台
  6
CONTINUOUS
 62
     2
100
AcDbText
 10
1644.000000536439
 20
3971.500003814697
 30
0.0
 40
59.99999618530273
  1
W.L.
 41
0.5571963512150641
  7
EXCADSTD
 72
     5
 11
1734.743400536439
 21
3971.500003814697
 31
0.0
100
AcDbText
  0
LINE
  5
118
330
1F
100
AcDbEntity
  8
化粧台
  6
CONTINUOUS
 62
     2
100
AcDbLine
 10
544.9999999999998
 20
3581.499999999999
 30
0.0
 11
544.9999999999998
 21
4031.5
 31
0.0
  0
LINE
  5
119
330
1F
100
AcDbEntity
  8
化粧台
  6
CONTINUOUS
 62
     2
100
AcDbLine
 10
1294.999999999998
 20
3581.499999999999
 30
0.0
 11
1294.999999999998
 21
4031.5
 31
0.0
  0
LINE
  5
11A
330
1F
100
AcDbEntity
  8
化粧台
  6
CONTINUOUS
 62
     2
100
AcDbLine
 10
544.9999999999998
 20
4031.5
 30
0.0
 11
1294.999999999998
 21
4031.5
 31
0.0
  0
LINE
  5
11B
330
1F
100
AcDbEntity
  8
化粧台
  6
CONTINUOUS
 62
     6
100
AcDbLine
 10
971.9615242263878
 20
3853.5
 30
0.0
 11
932.4999999999998
 21
3853.5
 31
0.0
  0
LINE
  5
11C
330
1F
100
AcDbEntity
  8
化粧台
  6
CONTINUOUS
 62
     2
100
AcDbLine
 10
932.4999999999998
 20
3861.5
 30
0.0
 11
1080.215178759901
 21
3861.5
 31
0.0
  0
LINE
  5
11D
330
1F
100
AcDbEntity
  8
化粧台
  6
CONTINUOUS
 62
     2
100
AcDbLine
 10
759.7848212400966
 20
3861.5
 30
0.0
 11
907.4999999999998
 21
3861.5
 31
0.0
  0
LINE
  5
11E
330
1F
100
AcDbEntity
  8
化粧台
  6
CONTINUOUS
 62
     6
100
AcDbLine
 10
907.4999999999998
 20
3853.5
 30
0.0
 11
868.0384757736099
 21
3853.5
 31
0.0
  0
ARC
  5
11F
330
1F
100
AcDbEntity
  8
化粧台
  6
CONTINUOUS
 62
     2
100
AcDbCircle
 10
919.9999999999998
 20
3922.5
 30
0.0
 40
27.50000000000002
100
AcDbArc
 50
96.26291312613884
 51
242.9643082105881
  0
ARC
  5
120
330
1F
100
AcDbEntity
  8
化粧台
  6
CONTINUOUS
 62
     2
100
AcDbCircle
 10
919.9999999999998
 20
3922.5
 30
0.0
 40
27.50000000000002
100
AcDbArc
 50
297.0356917894127
 51
83.73708687386414
  0
LINE
  5
121
330
1F
100
AcDbEntity
  8
化粧台
  6
CONTINUOUS
 62
     2
100
AcDbLine
 10
922.9999999999998
 20
3970.668497429699
 30
0.0
 11
916.9999999999998
 21
3970.668497429699
 31
0.0
  0
LINE
  5
122
330
1F
100
AcDbEntity
  8
化粧台
  6
CONTINUOUS
 62
     2
100
AcDbLine
 10
916.9999999999998
 20
3942.779299790698
 30
0.0
 11
916.9999999999998
 21
3970.668497429699
 31
0.0
  0
LINE
  5
123
330
1F
100
AcDbEntity
  8
化粧台
  6
CONTINUOUS
 62
     2
100
AcDbLine
 10
922.999999999998
 20
3970.668497429699
 30
0.0
 11
922.999999999998
 21
3942.779299790673
 31
0.0
  0
LINE
  5
124
330
1F
100
AcDbEntity
  8
化粧台
  6
CONTINUOUS
 62
     2
100
AcDbLine
 10
932.4999999999998
 20
3795.41069852328
 30
0.0
 11
932.4999999999998
 21
3906.251923190728
 31
0.0
  0
LINE
  5
125
330
1F
100
AcDbEntity
  8
化粧台
  6
CONTINUOUS
 62
     2
100
AcDbLine
 10
907.4999999999998
 20
3795.41069852328
 30
0.0
 11
907.4999999999998
 21
3906.251923190728
 31
0.0
  0
ELLIPSE
  5
126
330
1F
100
AcDbEntity
  8
化粧台
  6
CONTINUOUS
 62
     2
100
AcDbEllipse
 10
919.9999999999998
 20
3795.41069852328
 30
0.0
 11
-12.5
 21
1.530808498934191E-15
 31
0.0
210
0.0
220
0.0
230
1.0
 40
0.258819045104001
 41
0.0
 42
6.283185307179586
  0
LINE
  5
127
330
1F
100
AcDbEntity
  8
化粧台
  6
CONTINUOUS
 62
     2
100
AcDbLine
 10
923.9999999999998
 20
3852.0
 30
0.0
 11
923.9999999999998
 21
3902.394030737116
 31
0.0
  0
LINE
  5
128
330
1F
100
AcDbEntity
  8
化粧台
  6
CONTINUOUS
 62
     2
100
AcDbLine
 10
915.9999999999998
 20
3852.0
 30
0.0
 11
915.9999999999998
 21
3902.394030737116
 31
0.0
  0
LINE
  5
129
330
1F
100
AcDbEntity
  8
化粧台
  6
CONTINUOUS
 62
     2
100
AcDbLine
 10
915.9999999999998
 20
3852.0
 30
0.0
 11
923.9999999999998
 21
3852.0
 31
0.0
  0
CIRCLE
  5
12A
330
1F
100
AcDbEntity
  8
化粧台
  6
CONTINUOUS
 62
     2
100
AcDbCircle
 10
919.9999999999998
 20
3922.5
 30
0.0
 40
20.5
  0
LINE
  5
12B
330
1F
100
AcDbEntity
  8
化粧台
  6
CONTINUOUS
 62
     6
100
AcDbLine
 10
883.1000000000001
 20
3773.499999999999
 30
0.0
 11
956.8999999999976
 21
3773.499999999999
 31
0.0
  0
ARC
  5
12C
330
1F
100
AcDbEntity
  8
化粧台
  6
CONTINUOUS
 62
     6
100
AcDbCircle
 10
919.9999999999998
 20
3795.999999998155
 30
0.0
 40
102.4999999995951
100
AcDbArc
 50
171.7867892961641
 51
8.213210703835998
  0
ARC
  5
12D
330
1F
100
AcDbEntity
  8
化粧台
  6
CONTINUOUS
 62
     6
100
AcDbCircle
 10
971.9615242263878
 20
3803.499999999999
 30
0.0
 40
50.00000000000004
100
AcDbArc
 50
8.213210703835998
 51
90.00000000000004
  0
ARC
  5
12E
330
1F
100
AcDbEntity
  8
化粧台
  6
CONTINUOUS
 62
     6
100
AcDbCircle
 10
868.0384757736099
 20
3803.499999999999
 30
0.0
 40
50.00000000000004
100
AcDbArc
 50
90.00000000000004
 51
171.7867892961641
  0
LINE
  5
12F
330
1F
100
AcDbEntity
  8
化粧台
  6
CONTINUOUS
 62
     6
100
AcDbLine
 10
953.749999999998
 20
3922.499999999989
 30
0.0
 11
886.2499999999998
 21
3922.499999999989
 31
0.0
  0
ARC
  5
130
330
1F
100
AcDbEntity
  8
化粧台
  6
CONTINUOUS
 62
     2
100
AcDbCircle
 10
1080.215178759901
 20
3811.499999999999
 30
0.0
 40
50.00000000000004
100
AcDbArc
 50
9.763897427589361
 51
90.00000000000004
  0
ARC
  5
131
330
1F
100
AcDbEntity
  8
化粧台
  6
CONTINUOUS
 62
     2
100
AcDbCircle
 10
759.7848212400966
 20
3811.499999999999
 30
0.0
 40
50.00000000000004
100
AcDbArc
 50
90.00000000000004
 51
170.2361025724106
  0
ARC
  5
132
330
1F
100
AcDbEntity
  8
化粧台
  6
CONTINUOUS
 62
     2
100
AcDbCircle
 10
919.9999999999998
 20
3783.929987018267
 30
0.0
 40
212.5700129817332
100
AcDbArc
 50
9.763897427589361
 51
170.2361025724106
  0
CIRCLE
  5
133
330
1F
100
AcDbEntity
  8
化粧台
  6
CONTINUOUS
 62
     2
100
AcDbCircle
 10
919.9999999999998
 20
3776.499999999999
 30
0.0
 40
225.0000000000001
  0
CIRCLE
  5
134
330
1F
100
AcDbEntity
  8
化粧台
  6
CONTINUOUS
 62
     2
100
AcDbCircle
 10
919.9999999999998
 20
3776.499999999999
 30
0.0
 40
220.0000000000001
  0
LINE
  5
135
330
1F
100
AcDbEntity
  8
化粧台
  6
EXLTYPE3
 62
     6
100
AcDbLine
 10
919.9999999999998
 20
4041.5
 30
0.0
 11
919.9999999999998
 21
3541.499999999999
 31
0.0
  0
LINE
  5
136
330
1F
100
AcDbEntity
  8
化粧台
  6
CONTINUOUS
 62
     2
100
AcDbLine
 10
544.9999999999998
 20
3581.499999999999
 30
0.0
 11
807.7502783967809
 21
3581.499999999999
 31
0.0
  0
LINE
  5
137
330
1F
100
AcDbEntity
  8
化粧台
  6
CONTINUOUS
 62
     2
100
AcDbLine
 10
1032.249721603217
 20
3581.499999999999
 30
0.0
 11
1294.999999999998
 21
3581.499999999999
 31
0.0
  0
LINE
  5
138
330
1F
100
AcDbEntity
  8
化粧台
  6
CONTINUOUS
 62
     6
100
AcDbLine
 10
677.0000000000007
 20
4016.5
 30
0.0
 11
677.0000000000007
 21
4074.0
 31
0.0
  0
LINE
  5
139
330
1F
100
AcDbEntity
  8
化粧台
  6
CONTINUOUS
 62
     6
100
AcDbLine
 10
677.0000000000007
 20
4064.000000000004
 30
0.0
 11
678.9999999999998
 21
4031.500000000004
 31
0.0
  0
LINE
  5
13A
330
1F
100
AcDbEntity
  8
化粧台
  6
CONTINUOUS
 62
     6
100
AcDbLine
 10
674.9999999999998
 20
4031.500000000004
 30
0.0
 11
677.0000000000007
 21
4064.000000000004
 31
0.0
  0
LINE
  5
13B
330
1F
100
AcDbEntity
  8
化粧台
  6
CONTINUOUS
 62
     6
100
AcDbLine
 10
1163.0
 20
4016.5
 30
0.0
 11
1163.0
 21
4074.0
 31
0.0
  0
LINE
  5
13C
330
1F
100
AcDbEntity
  8
化粧台
  6
CONTINUOUS
 62
     6
100
AcDbLine
 10
1163.0
 20
4064.000000000004
 30
0.0
 11
1164.999999999998
 21
4031.500000000004
 31
0.0
  0
LINE
  5
13D
330
1F
100
AcDbEntity
  8
化粧台
  6
CONTINUOUS
 62
     6
100
AcDbLine
 10
1160.999999999998
 20
4031.500000000004
 30
0.0
 11
1163.0
 21
4064.000000000004
 31
0.0
  0
CIRCLE
  5
13E
330
1F
100
AcDbEntity
  8
化粧台
  6
CONTINUOUS
 62
     2
100
AcDbCircle
 10
920.0000000000007
 20
3773.499999999999
 30
0.0
 40
18.0
  0
ARC
  5
13F
330
1F
100
AcDbEntity
  8
化粧台
  6
CONTINUOUS
 62
     2
100
AcDbCircle
 10
920.0000000000007
 20
3773.499999999999
 30
0.0
 40
27.00000000000002
100
AcDbArc
 50
117.578467978125
 51
62.42153202187891
  0
DIMENSION
  5
141
330
1F
100
AcDbEntity
  8
化粧台
  6
CONTINUOUS
 62
     3
100
AcDbDimension
  2
*D15
 10
1295.0
 20
2950.5
 30
0.0
 11
920.0
 21
2985.749999910593
 31
0.0
 70
   160
  3
ISO-25
100
AcDbAlignedDimension
 13
545.0
 23
2694.0
 33
0.0
 14
1295.0
 24
2694.0
 34
0.0
100
AcDbRotatedDimension
1001
ACAD
1000
DSTYLE
1002
{
1070
   270
1070
     2
1070
     6
1000
EX_NORM
1070
     7
1000
EX_NORM
1070
    41
1040
44.99999618530273
1070
    42
1040
10.49999982118607
1070
    44
1040
15.0
1070
    73
1070
     0
1070
    74
1070
     0
1070
    75
1070
     0
1070
    76
1070
     0
1070
    77
1070
     1
1070
    78
1070
     8
1070
   140
1040
59.99999618530273
1070
   147
1040
0.0
1070
   173
1070
     1
1070
   176
1070
     3
1070
   177
1070
     3
1070
   178
1070
     2
1070
   271
1070
     2
1070
   277
1070
     2
1070
   279
1070
     2
1070
   280
1070
     0
1070
   287
1070
     5
1070
   340
1005
140
1002
}
  0
DIMENSION
  5
14F
330
1F
100
AcDbEntity
  8
化粧台
  6
CONTINUOUS
 62
     3
100
AcDbDimension
  2
*D16
 10
1583.999999999999
 20
1894.0
 30
0.0
 11
1548.750000089407
 21
2294.0
 31
0.0
 70
   160
  3
ISO-25
100
AcDbAlignedDimension
 13
1295.0
 23
2694.0
 33
0.0
 14
1295.0
 24
1894.0
 34
0.0
 50
90.0
100
AcDbRotatedDimension
1001
ACAD
1000
DSTYLE
1002
{
1070
   270
1070
     2
1070
     6
1000
EX_NORM
1070
     7
1000
EX_NORM
1070
    41
1040
44.99999618530273
1070
    42
1040
10.49999982118607
1070
    44
1040
15.0
1070
    73
1070
     0
1070
    74
1070
     0
1070
    75
1070
     0
1070
    76
1070
     0
1070
    77
1070
     1
1070
    78
1070
     8
1070
   140
1040
59.99999618530273
1070
   147
1040
0.0
1070
   173
1070
     1
1070
   176
1070
     3
1070
   177
1070
     3
1070
   178
1070
     2
1070
   271
1070
     2
1070
   277
1070
     2
1070
   279
1070
     2
1070
   280
1070
     0
1070
   287
1070
     5
1070
   340
1005
140
1002
}
  0
DIMENSION
  5
15C
330
1F
100
AcDbEntity
  8
化粧台
  6
CONTINUOUS
 62
     3
100
AcDbDimension
  2
*D17
 10
1584.0
 20
1894.0
 30
0.0
 11
1548.750000089407
 21
1344.0
 31
0.0
 70
   160
  3
ISO-25
100
AcDbAlignedDimension
 13
1368.0
 23
794.0
 33
0.0
 14
1295.0
 24
1894.0
 34
0.0
 50
90.0
100
AcDbRotatedDimension
1001
ACAD
1000
DSTYLE
1002
{
1070
   270
1070
     2
1070
     6
1000
EX_NORM
1070
     7
1000
EX_NORM
1070
    41
1040
44.99999618530273
1070
    42
1040
10.49999982118607
1070
    44
1040
15.0
1070
    73
1070
     0
1070
    74
1070
     0
1070
    75
1070
     1
1070
    76
1070
     0
1070
    77
1070
     1
1070
    78
1070
     8
1070
   140
1040
59.99999618530273
1070
   147
1040
0.0
1070
   173
1070
     1
1070
   176
1070
     3
1070
   177
1070
     3
1070
   178
1070
     2
1070
   271
1070
     2
1070
   277
1070
     2
1070
   279
1070
     2
1070
   280
1070
     0
1070
   287
1070
     5
1070
   340
1005
140
1002
}
  0
DIMENSION
  5
168
330
1F
100
AcDbEntity
  8
化粧台
  6
CONTINUOUS
 62
     3
100
AcDbDimension
  2
*D18
 10
1677.0
 20
2694.0
 30
0.0
 11
1641.750000089408
 21
1744.0
 31
0.0
 70
   160
  3
ISO-25
100
AcDbAlignedDimension
 13
1368.0
 23
794.0
 33
0.0
 14
1295.0
 24
2694.0
 34
0.0
 50
90.0
100
AcDbRotatedDimension
1001
ACAD
1000
DSTYLE
1002
{
1070
   270
1070
     2
1070
     6
1000
EX_NORM
1070
     7
1000
EX_NORM
1070
    41
1040
44.99999618530273
1070
    42
1040
10.49999982118607
1070
    44
1040
15.0
1070
    73
1070
     0
1070
    74
1070
     0
1070
    75
1070
     1
1070
    76
1070
     0
1070
    77
1070
     1
1070
    78
1070
     8
1070
   140
1040
59.99999618530273
1070
   147
1040
0.0
1070
   173
1070
     1
1070
   176
1070
     3
1070
   177
1070
     3
1070
   178
1070
     2
1070
   271
1070
     2
1070
   277
1070
     2
1070
   279
1070
     2
1070
   280
1070
     0
1070
   287
1070
     5
1070
   340
1005
140
1002
}
  0
DIMENSION
  5
174
330
1F
100
AcDbEntity
  8
化粧台
  6
CONTINUOUS
 62
     3
100
AcDbDimension
  2
*D19
 10
1195.0
 20
2860.5
 30
0.0
 11
920.0000000000002
 21
2895.749999910593
 31
0.0
 70
   160
  3
ISO-25
100
AcDbAlignedDimension
 13
645.0
 23
2642.0
 33
0.0
 14
1195.0
 24
2642.0
 34
0.0
100
AcDbRotatedDimension
1001
ACAD
1000
DSTYLE
1002
{
1070
   270
1070
     2
1070
     6
1000
EX_NORM
1070
     7
1000
EX_NORM
1070
    41
1040
44.99999618530273
1070
    42
1040
10.49999982118607
1070
    44
1040
15.0
1070
    73
1070
     0
1070
    74
1070
     0
1070
    75
1070
     0
1070
    76
1070
     0
1070
    77
1070
     1
1070
    78
1070
     8
1070
   140
1040
59.99999618530273
1070
   147
1040
0.0
1070
   173
1070
     1
1070
   176
1070
     3
1070
   177
1070
     3
1070
   178
1070
     2
1070
   271
1070
     2
1070
   277
1070
     2
1070
   279
1070
     2
1070
   280
1070
     0
1070
   287
1070
     5
1070
   340
1005
140
1002
}
  0
DIMENSION
  5
181
330
1F
100
AcDbEntity
  8
化粧台
  6
CONTINUOUS
 62
     3
100
AcDbDimension
  2
*D20
 10
1145.0
 20
1824.0
 30
0.0
 11
919.9999999999999
 21
1859.249999910593
 31
0.0
 70
   160
  3
ISO-25
100
AcDbAlignedDimension
 13
695.0
 23
1916.0
 33
0.0
 14
1145.0
 24
1916.0
 34
0.0
100
AcDbRotatedDimension
1001
ACAD
1000
DSTYLE
1002
{
1070
   270
1070
     2
1070
     6
1000
EX_NORM
1070
     7
1000
EX_NORM
1070
    41
1040
44.99999618530273
1070
    42
1040
10.49999982118607
1070
    44
1040
15.0
1070
    73
1070
     0
1070
    74
1070
     0
1070
    75
1070
     0
1070
    76
1070
     0
1070
    77
1070
     1
1070
    78
1070
     8
1070
   140
1040
59.99999618530273
1070
   147
1040
0.0
1070
   173
1070
     1
1070
   176
1070
     3
1070
   177
1070
     3
1070
   178
1070
     2
1070
   271
1070
     2
1070
   277
1070
     2
1070
   279
1070
     2
1070
   280
1070
     0
1070
   287
1070
     5
1070
   340
1005
140
1002
}
  0
DIMENSION
  5
18E
330
1F
100
AcDbEntity
  8
化粧台
  6
CONTINUOUS
 62
     3
100
AcDbDimension
  2
*D21
 10
1295.0
 20
2770.5
 30
0.0
 11
1415.0
 21
2805.749999910593
 31
0.0
 70
   160
  3
ISO-25
100
AcDbAlignedDimension
 13
1105.0
 23
2707.0766968306
 33
0.0
 14
1295.0
 24
2694.0
 34
0.0
100
AcDbRotatedDimension
1001
ACAD
1000
DSTYLE
1002
{
1070
   270
1070
     2
1070
     6
1000
EX_NORM
1070
     7
1000
EX_NORM
1070
    41
1040
44.99999618530273
1070
    42
1040
10.49999982118607
1070
    44
1040
15.0
1070
    73
1070
     0
1070
    74
1070
     0
1070
    75
1070
     0
1070
    76
1070
     0
1070
    77
1070
     1
1070
    78
1070
     8
1070
   140
1040
59.99999618530273
1070
   147
1040
0.0
1070
   173
1070
     1
1070
   176
1070
     3
1070
   177
1070
     3
1070
   178
1070
     2
1070
   271
1070
     2
1070
   277
1070
     2
1070
   279
1070
     2
1070
   280
1070
     2
1070
   287
1070
     5
1070
   340
1005
140
1002
}
  0
TEXT
  5
19B
330
1F
100
AcDbEntity
  8
化粧台
  6
CONTINUOUS
 62
     2
100
AcDbText
 10
1347.0
 20
2892.749999910593
 30
0.0
 40
59.99999618530273
  1
コード長さ；０.９ｍ
 41
0.9568047195073408
  7
EXCADSTD
 72
     5
 11
1808.999963760376
 21
2892.749999910593
 31
0.0
100
AcDbText
  0
LEADER
  5
19C
330
1F
100
AcDbEntity
  8
化粧台
  6
CONTINUOUS
 62
     3
100
AcDbLeader
  3
ISO-25
 76
     3
 10
1086.6298280222
 20
2721.9666730809
 30
0.0
 10
1339.5
 20
2887.5
 30
0.0
 10
1810.5
 20
2887.5
 30
0.0
1001
ACAD
1000
DSTYLE
1002
{
1070
     5
1000
EX_NORM
1070
    41
1040
45.0
1070
   341
1005
4D
1002
}
  0
LINE
  5
19D
330
1F
100
AcDbEntity
  8
化粧台
  6
EXLTYPE4
 62
     6
100
AcDbLine
 10
1728.999999999997
 20
794.0
 30
0.0
 11
320.0
 21
794.0
 31
0.0
  0
LINE
  5
19E
330
1F
100
AcDbEntity
  8
化粧台
  6
CONTINUOUS
 62
     2
100
AcDbLine
 10
545.0
 20
1493.999999999999
 30
0.0
 11
545.0
 21
1484.999999999999
 31
0.0
  0
LINE
  5
19F
330
1F
100
AcDbEntity
  8
化粧台
  6
CONTINUOUS
 62
     2
100
AcDbLine
 10
597.0000000000073
 20
793.9999999999991
 30
0.0
 11
547.0000000000073
 21
793.9999999999991
 31
0.0
  0
LINE
  5
1A0
330
1F
100
AcDbEntity
  8
化粧台
  6
CONTINUOUS
 62
     2
100
AcDbLine
 10
547.0000000000073
 20
1484.999999999999
 30
0.0
 11
547.0000000000073
 21
793.9999999999991
 31
0.0
  0
LINE
  5
1A1
330
1F
100
AcDbEntity
  8
化粧台
  6
CONTINUOUS
 62
     2
100
AcDbLine
 10
597.0000000000073
 20
1443.999999999999
 30
0.0
 11
597.0000000000073
 21
793.9999999999991
 31
0.0
  0
LINE
  5
1A2
330
1F
100
AcDbEntity
  8
化粧台
  6
CONTINUOUS
 62
     2
100
AcDbLine
 10
555.9999999993815
 20
1484.999999999999
 30
0.0
 11
545.0
 21
1484.999999999999
 31
0.0
  0
LINE
  5
1A3
330
1F
100
AcDbEntity
  8
化粧台
  6
CONTINUOUS
 62
     2
100
AcDbLine
 10
596.9999999996908
 20
1443.99999999969
 30
0.0
 11
555.9999999993815
 21
1484.999999999999
 31
0.0
  0
LINE
  5
1A4
330
1F
100
AcDbEntity
  8
化粧台
  6
CONTINUOUS
 62
     6
100
AcDbLine
 10
597.0000000000073
 20
1442.585786436999
 30
0.0
 11
555.5857864370082
 21
1483.999999999999
 31
0.0
  0
LINE
  5
1A5
330
1F
100
AcDbEntity
  8
化粧台
  6
CONTINUOUS
 62
     6
100
AcDbLine
 10
555.5857864370082
 20
1483.999999999999
 30
0.0
 11
547.0000000000073
 21
1483.999999999999
 31
0.0
  0
LINE
  5
1A6
330
1F
100
AcDbEntity
  8
化粧台
  6
CONTINUOUS
 62
     2
100
AcDbLine
 10
1294.999999999998
 20
1493.999999999999
 30
0.0
 11
1294.999999999998
 21
1484.999999999999
 31
0.0
  0
LINE
  5
1A7
330
1F
100
AcDbEntity
  8
化粧台
  6
CONTINUOUS
 62
     2
100
AcDbLine
 10
1242.999999999989
 20
793.9999999999991
 30
0.0
 11
1292.999999999989
 21
793.9999999999991
 31
0.0
  0
LINE
  5
1A8
330
1F
100
AcDbEntity
  8
化粧台
  6
CONTINUOUS
 62
     2
100
AcDbLine
 10
1292.999999999989
 20
1484.999999999999
 30
0.0
 11
1292.999999999991
 21
793.9999999999991
 31
0.0
  0
LINE
  5
1A9
330
1F
100
AcDbEntity
  8
化粧台
  6
CONTINUOUS
 62
     2
100
AcDbLine
 10
1242.999999999987
 20
1443.999999999999
 30
0.0
 11
1242.999999999989
 21
793.9999999999991
 31
0.0
  0
LINE
  5
1AA
330
1F
100
AcDbEntity
  8
化粧台
  6
CONTINUOUS
 62
     2
100
AcDbLine
 10
1284.000000000613
 20
1484.999999999999
 30
0.0
 11
1294.999999999998
 21
1484.999999999999
 31
0.0
  0
LINE
  5
1AB
330
1F
100
AcDbEntity
  8
化粧台
  6
CONTINUOUS
 62
     2
100
AcDbLine
 10
1243.000000000305
 20
1443.99999999969
 30
0.0
 11
1284.000000000613
 21
1484.999999999999
 31
0.0
  0
LINE
  5
1AC
330
1F
100
AcDbEntity
  8
化粧台
  6
CONTINUOUS
 62
     6
100
AcDbLine
 10
1292.999999999989
 20
1483.999999999999
 30
0.0
 11
1284.414213562986
 21
1483.999999999999
 31
0.0
  0
LINE
  5
1AD
330
1F
100
AcDbEntity
  8
化粧台
  6
CONTINUOUS
 62
     6
100
AcDbLine
 10
1284.414213562986
 20
1483.999999999999
 30
0.0
 11
1242.999999999987
 21
1442.585786436998
 31
0.0
  0
LINE
  5
1AE
330
1F
100
AcDbEntity
  8
化粧台
  6
CONTINUOUS
 62
     2
100
AcDbLine
 10
545.0
 20
1493.999999999999
 30
0.0
 11
1294.999999999998
 21
1493.999999999999
 31
0.0
  0
LINE
  5
1AF
330
1F
100
AcDbEntity
  8
化粧台
  6
CONTINUOUS
 62
     2
100
AcDbLine
 10
597.0000000000073
 20
1443.999999999999
 30
0.0
 11
1242.999999999987
 21
1444.000000000001
 31
0.0
  0
LINE
  5
1B0
330
1F
100
AcDbEntity
  8
化粧台
  6
CONTINUOUS
 62
     6
100
AcDbLine
 10
677.0
 20
1426.999999999999
 30
0.0
 11
677.0
 21
1400.999999999999
 31
0.0
  0
LINE
  5
1B1
330
1F
100
AcDbEntity
  8
化粧台
  6
CONTINUOUS
 62
     6
100
AcDbLine
 10
689.9999999999982
 20
1413.999999999999
 30
0.0
 11
663.9999999999982
 21
1413.999999999999
 31
0.0
  0
LINE
  5
1B2
330
1F
100
AcDbEntity
  8
化粧台
  6
CONTINUOUS
 62
     6
100
AcDbLine
 10
1162.999999999998
 20
1426.999999999999
 30
0.0
 11
1162.999999999998
 21
1400.999999999999
 31
0.0
  0
LINE
  5
1B3
330
1F
100
AcDbEntity
  8
化粧台
  6
CONTINUOUS
 62
     6
100
AcDbLine
 10
1149.999999999998
 20
1413.999999999999
 30
0.0
 11
1175.999999999998
 21
1413.999999999999
 31
0.0
  0
LINE
  5
1B4
330
1F
100
AcDbEntity
  8
化粧台
  6
CONTINUOUS
 62
     2
100
AcDbLine
 10
597.0000000000073
 20
1043.999999999999
 30
0.0
 11
1242.999999999989
 21
1044.0
 31
0.0
  0
LINE
  5
1B5
330
1F
100
AcDbEntity
  8
化粧台
  6
CONTINUOUS
 62
     2
100
AcDbLine
 10
695.2834769811889
 20
1652.340358287754
 30
0.0
 11
751.0
 21
1493.999999999999
 31
0.0
  0
LINE
  5
1B6
330
1F
100
AcDbEntity
  8
化粧台
  6
CONTINUOUS
 62
     2
100
AcDbLine
 10
1088.999999999998
 20
1493.999999999999
 30
0.0
 11
1144.716523018809
 21
1652.340358287754
 31
0.0
  0
LINE
  5
1B7
330
1F
100
AcDbEntity
  8
化粧台
  6
CONTINUOUS
 62
     2
100
AcDbLine
 10
751.0
 20
1493.999999999999
 30
0.0
 11
1088.999999999998
 21
1493.999999999999
 31
0.0
  0
ARC
  5
1B8
330
1F
100
AcDbEntity
  8
化粧台
  6
CONTINUOUS
 62
     2
100
AcDbCircle
 10
700.0
 20
1654.0
 30
0.0
 40
5.0
100
AcDbArc
 50
92.60390534515754
 51
199.3858598894216
  0
ARC
  5
1B9
330
1F
100
AcDbEntity
  8
化粧台
  6
CONTINUOUS
 62
     2
100
AcDbCircle
 10
1139.999999999998
 20
1654.0
 30
0.0
 40
5.0
100
AcDbArc
 50
340.6141401105788
 51
87.39609465484251
  0
ARC
  5
1BA
330
1F
100
AcDbEntity
  8
化粧台
  6
CONTINUOUS
 62
     2
100
AcDbCircle
 10
920.0
 20
6491.500000000005
 30
0.0
 40
4837.500000000005
100
AcDbArc
 50
267.4553150987836
 51
272.5446849012167
  0
LINE
  5
1BB
330
1F
100
AcDbEntity
  8
化粧台
  6
CONTINUOUS
 62
     6
100
AcDbLine
 10
821.6435055525053
 20
1655.0
 30
0.0
 11
1018.356494447487
 21
1655.0
 31
0.0
  0
LINE
  5
1BC
330
1F
100
AcDbEntity
  8
化粧台
  6
CONTINUOUS
 62
     2
100
AcDbLine
 10
892.5
 20
1660.5
 30
0.0
 11
947.4999999999982
 21
1660.5
 31
0.0
  0
LINE
  5
1BD
330
1F
100
AcDbEntity
  8
化粧台
  6
CONTINUOUS
 62
     2
100
AcDbLine
 10
892.5
 20
1660.5
 30
0.0
 11
892.5
 21
1655.0
 31
0.0
  0
LINE
  5
1BE
330
1F
100
AcDbEntity
  8
化粧台
  6
CONTINUOUS
 62
     2
100
AcDbLine
 10
947.4999999999982
 20
1660.5
 30
0.0
 11
947.4999999999982
 21
1655.0
 31
0.0
  0
LINE
  5
1BF
330
1F
100
AcDbEntity
  8
化粧台
  6
CONTINUOUS
 62
     2
100
AcDbLine
 10
899.5
 20
1800.0
 30
0.0
 11
940.5
 21
1800.0
 31
0.0
  0
LINE
  5
1C0
330
1F
100
AcDbEntity
  8
化粧台
  6
CONTINUOUS
 62
     2
100
AcDbLine
 10
899.5
 20
1777.5
 30
0.0
 11
940.5
 21
1777.5
 31
0.0
  0
LINE
  5
1C1
330
1F
100
AcDbEntity
  8
化粧台
  6
CONTINUOUS
 62
     2
100
AcDbLine
 10
899.5
 20
1780.0
 30
0.0
 11
940.5
 21
1780.0
 31
0.0
  0
CIRCLE
  5
1C2
330
1F
100
AcDbEntity
  8
化粧台
  6
CONTINUOUS
 62
     2
100
AcDbCircle
 10
920.0
 20
1793.0
 30
0.0
 40
4.0
  0
ELLIPSE
  5
1C3
330
1F
100
AcDbEntity
  8
化粧台
  6
CONTINUOUS
 62
     2
100
AcDbEllipse
 10
920.0
 20
1722.0
 30
0.0
 11
-9.0
 21
-6.891423658068509E-15
 31
0.0
210
0.0
220
0.0
230
1.0
 40
0.4226182617411117
 41
0.0
 42
6.283185307179586
  0
LINE
  5
1C4
330
1F
100
AcDbEntity
  8
化粧台
  6
CONTINUOUS
 62
     2
100
AcDbLine
 10
899.5
 20
1800.0
 30
0.0
 11
899.5
 21
1660.5
 31
0.0
  0
LINE
  5
1C5
330
1F
100
AcDbEntity
  8
化粧台
  6
CONTINUOUS
 62
     2
100
AcDbLine
 10
940.5
 20
1800.0
 30
0.0
 11
940.5
 21
1660.5
 31
0.0
  0
ELLIPSE
  5
1C6
330
1F
100
AcDbEntity
  8
化粧台
  6
CONTINUOUS
 62
     2
100
AcDbEllipse
 10
920.0
 20
1744.00146950761
 30
0.0
 11
12.50000000000001
 21
0.0
 31
0.0
210
0.0
220
0.0
230
1.0
 40
0.9659258262887984
 41
0.0
 42
6.283185307179586
  0
LINE
  5
1C7
330
1F
100
AcDbEntity
  8
化粧台
  6
CONTINUOUS
 62
     2
100
AcDbLine
 10
907.5
 20
1744.00146950761
 30
0.0
 11
907.5
 21
1714.574072828609
 31
0.0
  0
LINE
  5
1C8
330
1F
100
AcDbEntity
  8
化粧台
  6
CONTINUOUS
 62
     2
100
AcDbLine
 10
932.5
 20
1744.00146950761
 30
0.0
 11
932.5
 21
1714.574072828609
 31
0.0
  0
ELLIPSE
  5
1C9
330
1F
100
AcDbEntity
  8
化粧台
  6
CONTINUOUS
 62
     2
100
AcDbEllipse
 10
920.0
 20
1714.574072828609
 30
0.0
 11
12.50000000000001
 21
0.0
 31
0.0
210
0.0
220
0.0
230
1.0
 40
0.9659258262887984
 41
3.141592653589793
 42
6.283185307179586
  0
ELLIPSE
  5
1CA
330
1F
100
AcDbEntity
  8
化粧台
  6
CONTINUOUS
 62
     2
100
AcDbEllipse
 10
920.0
 20
1727.17464371606
 30
0.0
 11
9.0
 21
0.0
 31
0.0
210
0.0
220
0.0
230
1.0
 40
0.2628117460600001
 41
0.0
 42
3.141592653589793
  0
LINE
  5
1CB
330
1F
100
AcDbEntity
  8
化粧台
  6
CONTINUOUS
 62
     2
100
AcDbLine
 10
911.0
 20
1727.17464371606
 30
0.0
 11
911.0
 21
1722.0
 31
0.0
  0
LINE
  5
1CC
330
1F
100
AcDbEntity
  8
化粧台
  6
CONTINUOUS
 62
     2
100
AcDbLine
 10
929.0
 20
1727.17464371606
 30
0.0
 11
929.0
 21
1722.0
 31
0.0
  0
ARC
  5
1CD
330
1F
100
AcDbEntity
  8
化粧台
  6
CONTINUOUS
 62
     2
100
AcDbCircle
 10
920.0
 20
-3183.500000000005
 30
0.0
 40
4847.500000000005
100
AcDbArc
 50
90.24230365778001
 51
92.60390534515777
  0
ARC
  5
1CE
330
1F
100
AcDbEntity
  8
化粧台
  6
CONTINUOUS
 62
     2
100
AcDbCircle
 10
920.0
 20
-3183.500000000005
 30
0.0
 40
4847.500000000005
100
AcDbArc
 50
87.39609465484229
 51
89.75769634222006
  0
LINE
  5
1CF
330
1F
100
AcDbEntity
  8
化粧台
  6
CONTINUOUS
 62
     2
100
AcDbLine
 10
936.0000000000027
 20
1436.999999999999
 30
0.0
 11
940.0000000000027
 21
1439.0
 31
0.0
  0
LINE
  5
1D0
330
1F
100
AcDbEntity
  8
化粧台
  6
CONTINUOUS
 62
     2
100
AcDbLine
 10
904.0000000000027
 20
1436.999999999999
 30
0.0
 11
900.0000000000027
 21
1439.0
 31
0.0
  0
LINE
  5
1D1
330
1F
100
AcDbEntity
  8
化粧台
  6
CONTINUOUS
 62
     2
100
AcDbLine
 10
936.0000000000027
 20
1436.999999999999
 30
0.0
 11
904.0000000000027
 21
1436.999999999999
 31
0.0
  0
LINE
  5
1D2
330
1F
100
AcDbEntity
  8
化粧台
  6
CONTINUOUS
 62
     2
100
AcDbLine
 10
940.0000000000027
 20
1439.0
 30
0.0
 11
900.0000000000027
 21
1439.0
 31
0.0
  0
LINE
  5
1D3
330
1F
100
AcDbEntity
  8
化粧台
  6
CONTINUOUS
 62
     2
100
AcDbLine
 10
900.0
 20
1443.999999999999
 30
0.0
 11
900.0000000000027
 21
1439.0
 31
0.0
  0
LINE
  5
1D4
330
1F
100
AcDbEntity
  8
化粧台
  6
CONTINUOUS
 62
     2
100
AcDbLine
 10
940.0
 20
1443.999999999999
 30
0.0
 11
939.9999999999991
 21
1439.0
 31
0.0
  0
ARC
  5
1D5
330
1F
100
AcDbEntity
  8
化粧台
  6
CONTINUOUS
 62
     2
100
AcDbCircle
 10
996.749999999998
 20
1217.699999999999
 30
0.0
 40
11.0
100
AcDbArc
 50
27.58019920359027
 51
33.05573115085006
  0
ARC
  5
1D6
330
1F
100
AcDbEntity
  8
化粧台
  6
CONTINUOUS
 62
     2
100
AcDbCircle
 10
996.749999999998
 20
1217.699999999999
 30
0.0
 40
11.0
100
AcDbArc
 50
326.9442688491004
 51
332.4198007964001
  0
ARC
  5
1D7
330
1F
100
AcDbEntity
  8
化粧台
  6
CONTINUOUS
 62
     2
100
AcDbCircle
 10
993.249999999998
 20
1217.699999999999
 30
0.0
 40
11.0
100
AcDbArc
 50
207.5801992036001
 51
213.0557311509001
  0
ARC
  5
1D8
330
1F
100
AcDbEntity
  8
化粧台
  6
CONTINUOUS
 62
     2
100
AcDbCircle
 10
993.249999999998
 20
1217.699999999999
 30
0.0
 40
11.0
100
AcDbArc
 50
146.9442688490998
 51
152.4198007963999
  0
LINE
  5
1D9
330
1F
100
AcDbEntity
  8
化粧台
  6
CONTINUOUS
 62
     2
100
AcDbLine
 10
1006.499999999998
 20
1222.792887196869
 30
0.0
 11
1006.499999999998
 21
1212.607112803129
 31
0.0
  0
LINE
  5
1DA
330
1F
100
AcDbEntity
  8
化粧台
  6
CONTINUOUS
 62
     2
100
AcDbLine
 10
983.499999999998
 20
1222.792887196869
 30
0.0
 11
983.499999999998
 21
1212.607112803129
 31
0.0
  0
LINE
  5
1DB
330
1F
100
AcDbEntity
  8
化粧台
  6
CONTINUOUS
 62
     2
100
AcDbLine
 10
984.0304555427081
 20
1223.699999999999
 30
0.0
 11
1005.969544457288
 21
1223.699999999999
 31
0.0
  0
LINE
  5
1DC
330
1F
100
AcDbEntity
  8
化粧台
  6
CONTINUOUS
 62
     2
100
AcDbLine
 10
984.0304555427081
 20
1211.699999999999
 30
0.0
 11
1005.969544457288
 21
1211.699999999999
 31
0.0
  0
LINE
  5
1DD
330
1F
100
AcDbEntity
  8
化粧台
  6
CONTINUOUS
 62
     2
100
AcDbLine
 10
988.5000000000016
 20
1362.47533905005
 30
0.0
 11
988.5000000000016
 21
1223.699999999999
 31
0.0
  0
LINE
  5
1DE
330
1F
100
AcDbEntity
  8
化粧台
  6
CONTINUOUS
 62
     2
100
AcDbLine
 10
1001.500000000002
 20
1223.7
 30
0.0
 11
1001.500000000002
 21
1362.47533905005
 31
0.0
  0
ARC
  5
1DF
330
1F
100
AcDbEntity
  8
化粧台
  6
CONTINUOUS
 62
     2
100
AcDbCircle
 10
701.5000000000027
 20
1362.47533905005
 30
0.0
 40
300.0
100
AcDbArc
 50
0.0
 51
15.76836133331106
  0
ARC
  5
1E0
330
1F
100
AcDbEntity
  8
化粧台
  6
CONTINUOUS
 62
     2
100
AcDbCircle
 10
701.5000000000027
 20
1362.47533905005
 30
0.0
 40
287.0
100
AcDbArc
 50
0.0
 51
16.50255206380972
  0
ARC
  5
1E1
330
1F
100
AcDbEntity
  8
化粧台
  6
CONTINUOUS
 62
     2
100
AcDbCircle
 10
843.25
 20
1217.699999999999
 30
0.0
 40
11.0
100
AcDbArc
 50
146.9442688491492
 51
152.4198007964095
  0
ARC
  5
1E2
330
1F
100
AcDbEntity
  8
化粧台
  6
CONTINUOUS
 62
     2
100
AcDbCircle
 10
843.25
 20
1217.699999999999
 30
0.0
 40
11.0
100
AcDbArc
 50
207.5801992036012
 51
213.0557311508995
  0
ARC
  5
1E3
330
1F
100
AcDbEntity
  8
化粧台
  6
CONTINUOUS
 62
     2
100
AcDbCircle
 10
846.75
 20
1217.699999999999
 30
0.0
 40
11.0
100
AcDbArc
 50
326.9442688491007
 51
332.4198007963992
  0
ARC
  5
1E4
330
1F
100
AcDbEntity
  8
化粧台
  6
CONTINUOUS
 62
     2
100
AcDbCircle
 10
846.75
 20
1217.699999999999
 30
0.0
 40
11.0
100
AcDbArc
 50
27.58019920360115
 51
33.05573115089945
  0
LINE
  5
1E5
330
1F
100
AcDbEntity
  8
化粧台
  6
CONTINUOUS
 62
     2
100
AcDbLine
 10
833.5
 20
1222.792887196869
 30
0.0
 11
833.5
 21
1212.607112803129
 31
0.0
  0
LINE
  5
1E6
330
1F
100
AcDbEntity
  8
化粧台
  6
CONTINUOUS
 62
     2
100
AcDbLine
 10
856.5
 20
1222.792887196869
 30
0.0
 11
856.5
 21
1212.607112803129
 31
0.0
  0
LINE
  5
1E7
330
1F
100
AcDbEntity
  8
化粧台
  6
CONTINUOUS
 62
     2
100
AcDbLine
 10
855.9695444572899
 20
1223.699999999999
 30
0.0
 11
834.0304555427101
 21
1223.699999999999
 31
0.0
  0
LINE
  5
1E8
330
1F
100
AcDbEntity
  8
化粧台
  6
CONTINUOUS
 62
     2
100
AcDbLine
 10
855.9695444572899
 20
1211.699999999999
 30
0.0
 11
834.0304555427101
 21
1211.699999999999
 31
0.0
  0
LINE
  5
1E9
330
1F
100
AcDbEntity
  8
化粧台
  6
CONTINUOUS
 62
     2
100
AcDbLine
 10
851.4999999999973
 20
1362.47533905005
 30
0.0
 11
851.4999999999973
 21
1223.699999999999
 31
0.0
  0
ARC
  5
1EA
330
1F
100
AcDbEntity
  8
化粧台
  6
CONTINUOUS
 62
     2
100
AcDbCircle
 10
1138.499999999996
 20
1362.47533905005
 30
0.0
 40
287.0
100
AcDbArc
 50
163.4974479361903
 51
180.0
  0
LINE
  5
1EB
330
1F
100
AcDbEntity
  8
化粧台
  6
CONTINUOUS
 62
     2
100
AcDbLine
 10
838.4999999999973
 20
1223.7
 30
0.0
 11
838.4999999999973
 21
1362.47533905005
 31
0.0
  0
ARC
  5
1EC
330
1F
100
AcDbEntity
  8
化粧台
  6
CONTINUOUS
 62
     2
100
AcDbCircle
 10
1138.499999999996
 20
1362.47533905005
 30
0.0
 40
300.0
100
AcDbArc
 50
164.231638666689
 51
180.0
  0
ELLIPSE
  5
1ED
330
1F
100
AcDbEntity
  8
化粧台
  6
CONTINUOUS
 62
     6
100
AcDbEllipse
 10
839.24902889035
 20
1217.699999999999
 30
0.0
 11
-9.355482006098073E-16
 21
-5.09288719687
 31
0.0
210
0.0
220
0.0
230
1.0
 40
0.936409683937426
 41
0.0
 42
6.283185307179586
  0
ELLIPSE
  5
1EE
330
1F
100
AcDbEntity
  8
化粧台
  6
CONTINUOUS
 62
     6
100
AcDbEllipse
 10
850.75097110965
 20
1217.699999999999
 30
0.0
 11
3.118494002032691E-16
 21
5.09288719687
 31
0.0
210
0.0
220
0.0
230
1.0
 40
0.936409683937426
 41
0.0
 42
6.283185307179586
  0
ELLIPSE
  5
1EF
330
1F
100
AcDbEntity
  8
化粧台
  6
CONTINUOUS
 62
     6
100
AcDbEllipse
 10
989.249028890348
 20
1217.699999999999
 30
0.0
 11
-9.355482006098073E-16
 21
-5.09288719687
 31
0.0
210
0.0
220
0.0
230
1.0
 40
0.936409683937426
 41
0.0
 42
6.283185307179586
  0
ELLIPSE
  5
1F0
330
1F
100
AcDbEntity
  8
化粧台
  6
CONTINUOUS
 62
     6
100
AcDbEllipse
 10
1000.750971109648
 20
1217.699999999999
 30
0.0
 11
3.118494002032691E-16
 21
5.09288719687
 31
0.0
210
0.0
220
0.0
230
1.0
 40
0.936409683937426
 41
0.0
 42
6.283185307179586
  0
CIRCLE
  5
1F1
330
1F
100
AcDbEntity
  8
化粧台
  6
CONTINUOUS
 62
     2
100
AcDbCircle
 10
677.0
 20
1413.999999999999
 30
0.0
 40
5.0
  0
CIRCLE
  5
1F2
330
1F
100
AcDbEntity
  8
化粧台
  6
CONTINUOUS
 62
     2
100
AcDbCircle
 10
1162.999999999998
 20
1413.999999999999
 30
0.0
 40
5.0
  0
LINE
  5
1F3
330
1F
100
AcDbEntity
  8
化粧台
  6
CONTINUOUS
 62
     6
100
AcDbLine
 10
903.2500000000009
 20
1300.999999999949
 30
0.0
 11
903.2500000000009
 21
1251.77488649995
 31
0.0
  0
LINE
  5
1F4
330
1F
100
AcDbEntity
  8
化粧台
  6
CONTINUOUS
 62
     6
100
AcDbLine
 10
936.7499999999982
 20
1300.999999999949
 30
0.0
 11
936.7499999999982
 21
1251.77488649995
 31
0.0
  0
LINE
  5
1F5
330
1F
100
AcDbEntity
  8
化粧台
  6
CONTINUOUS
 62
     6
100
AcDbLine
 10
936.75000000003
 20
1251.774886499919
 30
0.0
 11
936.0
 21
1251.024886499888
 31
0.0
  0
LINE
  5
1F6
330
1F
100
AcDbEntity
  8
化粧台
  6
CONTINUOUS
 62
     6
100
AcDbLine
 10
903.2500000000118
 20
1251.774886499961
 30
0.0
 11
904.0
 21
1251.024886499972
 31
0.0
  0
LINE
  5
1F7
330
1F
100
AcDbEntity
  8
化粧台
  6
CONTINUOUS
 62
     6
100
AcDbLine
 10
904.0
 20
1251.399886499968
 30
0.0
 11
936.0
 21
1251.399886499968
 31
0.0
  0
ELLIPSE
  5
1F8
330
1F
100
AcDbEntity
  8
化粧台
  6
CONTINUOUS
 62
     6
100
AcDbEllipse
 10
930.75
 20
1306.999999999949
 30
0.0
 11
9.236476601000053
 21
0.0
 31
0.0
210
0.0
220
0.0
230
1.0
 40
0.6495983543497931
 41
0.0
 42
6.283185307179586
  0
LINE
  5
1F9
330
1F
100
AcDbEntity
  8
化粧台
  6
CONTINUOUS
 62
     6
100
AcDbLine
 10
941.5
 20
1312.999999999949
 30
0.0
 11
941.5
 21
1300.999999999949
 31
0.0
  0
ELLIPSE
  5
1FA
330
1F
100
AcDbEntity
  8
化粧台
  6
CONTINUOUS
 62
     6
100
AcDbEllipse
 10
909.25
 20
1306.999999999949
 30
0.0
 11
9.236476601000053
 21
0.0
 31
0.0
210
0.0
220
0.0
230
1.0
 40
0.6495983543497931
 41
0.0
 42
6.283185307179586
  0
LINE
  5
1FB
330
1F
100
AcDbEntity
  8
化粧台
  6
CONTINUOUS
 62
     6
100
AcDbLine
 10
898.5
 20
1312.999999999949
 30
0.0
 11
898.5
 21
1300.999999999949
 31
0.0
  0
LINE
  5
1FC
330
1F
100
AcDbEntity
  8
化粧台
  6
CONTINUOUS
 62
     6
100
AcDbLine
 10
898.5
 20
1300.999999999949
 30
0.0
 11
941.5
 21
1300.999999999949
 31
0.0
  0
LINE
  5
1FD
330
1F
100
AcDbEntity
  8
化粧台
  6
CONTINUOUS
 62
     6
100
AcDbLine
 10
898.5
 20
1312.999999999949
 30
0.0
 11
941.5
 21
1312.999999999949
 31
0.0
  0
LINE
  5
1FE
330
1F
100
AcDbEntity
  8
化粧台
  6
CONTINUOUS
 62
     6
100
AcDbLine
 10
941.5
 20
1229.999999999949
 30
0.0
 11
941.5
 21
1217.999999999949
 31
0.0
  0
LINE
  5
1FF
330
1F
100
AcDbEntity
  8
化粧台
  6
CONTINUOUS
 62
     6
100
AcDbLine
 10
898.5
 20
1229.999999999949
 30
0.0
 11
898.5
 21
1217.999999999949
 31
0.0
  0
ELLIPSE
  5
200
330
1F
100
AcDbEntity
  8
化粧台
  6
CONTINUOUS
 62
     6
100
AcDbEllipse
 10
909.25
 20
1223.999999999949
 30
0.0
 11
9.236476601000053
 21
0.0
 31
0.0
210
0.0
220
0.0
230
1.0
 40
0.6495983543497932
 41
2.175354430434986
 42
4.107830876744602
  0
ELLIPSE
  5
201
330
1F
100
AcDbEntity
  8
化粧台
  6
CONTINUOUS
 62
     6
100
AcDbEllipse
 10
930.75
 20
1223.999999999949
 30
0.0
 11
9.236476601000053
 21
0.0
 31
0.0
210
0.0
220
0.0
230
1.0
 40
0.6495983543497932
 41
5.316947084024834
 42
7.249423530334343
  0
LINE
  5
202
330
1F
100
AcDbEntity
  8
化粧台
  6
CONTINUOUS
 62
     6
100
AcDbLine
 10
898.5
 20
1229.999999999949
 30
0.0
 11
904.0000000000009
 21
1229.999999999949
 31
0.0
  0
LINE
  5
203
330
1F
100
AcDbEntity
  8
化粧台
  6
CONTINUOUS
 62
     6
100
AcDbLine
 10
898.5
 20
1217.999999999949
 30
0.0
 11
904.0000000000009
 21
1217.999999999949
 31
0.0
  0
LINE
  5
204
330
1F
100
AcDbEntity
  8
化粧台
  6
CONTINUOUS
 62
     6
100
AcDbLine
 10
936.0
 20
1217.999999999949
 30
0.0
 11
941.5
 21
1217.999999999949
 31
0.0
  0
LINE
  5
205
330
1F
100
AcDbEntity
  8
化粧台
  6
CONTINUOUS
 62
     6
100
AcDbLine
 10
936.0
 20
1229.999999999949
 30
0.0
 11
941.5
 21
1229.999999999949
 31
0.0
  0
ARC
  5
206
330
1F
100
AcDbEntity
  8
化粧台
  6
CONTINUOUS
 62
     6
100
AcDbCircle
 10
920.0
 20
1269.0
 30
0.0
 40
33.0
100
AcDbArc
 50
120.5024866625967
 51
240.9974539733312
  0
ARC
  5
207
330
1F
100
AcDbEntity
  8
化粧台
  6
CONTINUOUS
 62
     6
100
AcDbCircle
 10
920.0
 20
1269.0
 30
0.0
 40
33.0
100
AcDbArc
 50
299.0025460266706
 51
59.49751333740528
  0
LINE
  5
208
330
1F
100
AcDbEntity
  8
化粧台
  6
CONTINUOUS
 62
     6
100
AcDbLine
 10
904.0000000000009
 20
1251.399886499968
 30
0.0
 11
904.0000000000009
 21
1177.0
 31
0.0
  0
LINE
  5
209
330
1F
100
AcDbEntity
  8
化粧台
  6
CONTINUOUS
 62
     6
100
AcDbLine
 10
936.0
 20
1251.399886499968
 30
0.0
 11
936.0
 21
1177.0
 31
0.0
  0
ARC
  5
20A
330
1F
100
AcDbEntity
  8
化粧台
  6
CONTINUOUS
 62
     6
100
AcDbCircle
 10
920.0
 20
1177.0
 30
0.0
 40
15.99999999999955
100
AcDbArc
 50
180.0
 51
0.0
  0
LINE
  5
20B
330
1F
100
AcDbEntity
  8
化粧台
  6
CONTINUOUS
 62
     6
100
AcDbLine
 10
962.999999999998
 20
1269.0
 30
0.0
 11
877.0
 21
1269.0
 31
0.0
  0
LINE
  5
20C
330
1F
100
AcDbEntity
  8
化粧台
  6
CONTINUOUS
 62
     6
100
AcDbLine
 10
858.0
 20
1183.163691235039
 30
0.0
 11
858.0
 21
1194.83630876496
 31
0.0
  0
LINE
  5
20D
330
1F
100
AcDbEntity
  8
化粧台
  6
CONTINUOUS
 62
     6
100
AcDbLine
 10
856.5543916547895
 20
1197.340175866719
 30
0.0
 11
846.4456083452096
 21
1203.176484631679
 31
0.0
  0
LINE
  5
20E
330
1F
100
AcDbEntity
  8
化粧台
  6
CONTINUOUS
 62
     6
100
AcDbLine
 10
843.5543916547904
 20
1203.176484631679
 30
0.0
 11
833.4456083452096
 21
1197.340175866719
 31
0.0
  0
LINE
  5
20F
330
1F
100
AcDbEntity
  8
化粧台
  6
CONTINUOUS
 62
     6
100
AcDbLine
 10
832.0
 20
1194.83630876496
 30
0.0
 11
832.0
 21
1183.163691235039
 31
0.0
  0
LINE
  5
210
330
1F
100
AcDbEntity
  8
化粧台
  6
CONTINUOUS
 62
     6
100
AcDbLine
 10
833.4456083452096
 20
1180.659824133279
 30
0.0
 11
843.5543916547895
 21
1174.823515368319
 31
0.0
  0
LINE
  5
211
330
1F
100
AcDbEntity
  8
化粧台
  6
CONTINUOUS
 62
     6
100
AcDbLine
 10
846.4456083452096
 20
1174.823515368319
 30
0.0
 11
856.5543916547895
 21
1180.659824133279
 31
0.0
  0
ARC
  5
212
330
1F
100
AcDbEntity
  8
化粧台
  6
CONTINUOUS
 62
     6
100
AcDbCircle
 10
845.0
 20
1188.999999999999
 30
0.0
 40
14.25000000000001
100
AcDbArc
 50
264.1775448336001
 51
275.8224551664
  0
ARC
  5
213
330
1F
100
AcDbEntity
  8
化粧台
  6
CONTINUOUS
 62
     6
100
AcDbCircle
 10
845.0
 20
1188.999999999999
 30
0.0
 40
14.25000000000001
100
AcDbArc
 50
324.1775448336001
 51
335.8224551664001
  0
ARC
  5
214
330
1F
100
AcDbEntity
  8
化粧台
  6
CONTINUOUS
 62
     6
100
AcDbCircle
 10
845.0
 20
1188.999999999999
 30
0.0
 40
14.25000000000001
100
AcDbArc
 50
24.17754483359991
 51
35.82245516639971
  0
ARC
  5
215
330
1F
100
AcDbEntity
  8
化粧台
  6
CONTINUOUS
 62
     6
100
AcDbCircle
 10
845.0
 20
1188.999999999999
 30
0.0
 40
14.25000000000001
100
AcDbArc
 50
84.1775448336001
 51
95.82245516635992
  0
ARC
  5
216
330
1F
100
AcDbEntity
  8
化粧台
  6
CONTINUOUS
 62
     6
100
AcDbCircle
 10
845.0
 20
1188.999999999999
 30
0.0
 40
14.25000000000001
100
AcDbArc
 50
144.1775448336404
 51
155.8224551663601
  0
ARC
  5
217
330
1F
100
AcDbEntity
  8
化粧台
  6
CONTINUOUS
 62
     6
100
AcDbCircle
 10
845.0
 20
1188.999999999999
 30
0.0
 40
14.25000000000001
100
AcDbArc
 50
204.1775448336003
 51
215.8224551664
  0
CIRCLE
  5
218
330
1F
100
AcDbEntity
  8
化粧台
  6
CONTINUOUS
 62
     6
100
AcDbCircle
 10
845.0
 20
1188.999999999999
 30
0.0
 40
4.75
  0
CIRCLE
  5
219
330
1F
100
AcDbEntity
  8
化粧台
  6
CONTINUOUS
 62
     6
100
AcDbCircle
 10
845.0
 20
1188.999999999999
 30
0.0
 40
12.07434891639
  0
LINE
  5
21A
330
1F
100
AcDbEntity
  8
化粧台
  6
CONTINUOUS
 62
     6
100
AcDbLine
 10
855.5
 20
1211.699999999999
 30
0.0
 11
855.5
 21
1197.948929172442
 31
0.0
  0
LINE
  5
21B
330
1F
100
AcDbEntity
  8
化粧台
  6
CONTINUOUS
 62
     6
100
AcDbLine
 10
834.5
 20
1211.699999999999
 30
0.0
 11
834.5
 21
1197.948929172443
 31
0.0
  0
LINE
  5
21C
330
1F
100
AcDbEntity
  8
化粧台
  6
CONTINUOUS
 62
     6
100
AcDbLine
 10
815.0
 20
1188.999999999999
 30
0.0
 11
875.0
 21
1188.999999999999
 31
0.0
  0
LINE
  5
21D
330
1F
100
AcDbEntity
  8
化粧台
  6
CONTINUOUS
 62
     6
100
AcDbLine
 10
845.0
 20
1218.999999999999
 30
0.0
 11
845.0
 21
1158.999999999999
 31
0.0
  0
LINE
  5
21E
330
1F
100
AcDbEntity
  8
化粧台
  6
CONTINUOUS
 62
     6
100
AcDbLine
 10
1007.999999999998
 20
1183.163691235039
 30
0.0
 11
1007.999999999998
 21
1194.83630876496
 31
0.0
  0
LINE
  5
21F
330
1F
100
AcDbEntity
  8
化粧台
  6
CONTINUOUS
 62
     6
100
AcDbLine
 10
1006.554391654788
 20
1197.340175866719
 30
0.0
 11
996.4456083452076
 21
1203.176484631679
 31
0.0
  0
LINE
  5
220
330
1F
100
AcDbEntity
  8
化粧台
  6
CONTINUOUS
 62
     6
100
AcDbLine
 10
993.5543916547883
 20
1203.176484631679
 30
0.0
 11
983.4456083452076
 21
1197.340175866719
 31
0.0
  0
LINE
  5
221
330
1F
100
AcDbEntity
  8
化粧台
  6
CONTINUOUS
 62
     6
100
AcDbLine
 10
981.999999999998
 20
1194.83630876496
 30
0.0
 11
981.999999999998
 21
1183.163691235039
 31
0.0
  0
LINE
  5
222
330
1F
100
AcDbEntity
  8
化粧台
  6
CONTINUOUS
 62
     6
100
AcDbLine
 10
983.4456083452076
 20
1180.659824133279
 30
0.0
 11
993.5543916547883
 21
1174.823515368319
 31
0.0
  0
LINE
  5
223
330
1F
100
AcDbEntity
  8
化粧台
  6
CONTINUOUS
 62
     6
100
AcDbLine
 10
996.4456083452076
 20
1174.823515368319
 30
0.0
 11
1006.554391654788
 21
1180.659824133279
 31
0.0
  0
ARC
  5
224
330
1F
100
AcDbEntity
  8
化粧台
  6
CONTINUOUS
 62
     6
100
AcDbCircle
 10
994.999999999998
 20
1188.999999999999
 30
0.0
 40
14.25000000000001
100
AcDbArc
 50
264.1775448336001
 51
275.8224551664
  0
ARC
  5
225
330
1F
100
AcDbEntity
  8
化粧台
  6
CONTINUOUS
 62
     6
100
AcDbCircle
 10
994.999999999998
 20
1188.999999999999
 30
0.0
 40
14.25000000000001
100
AcDbArc
 50
324.1775448336001
 51
335.8224551664001
  0
ARC
  5
226
330
1F
100
AcDbEntity
  8
化粧台
  6
CONTINUOUS
 62
     6
100
AcDbCircle
 10
994.999999999998
 20
1188.999999999999
 30
0.0
 40
14.25000000000001
100
AcDbArc
 50
24.17754483359991
 51
35.82245516639971
  0
ARC
  5
227
330
1F
100
AcDbEntity
  8
化粧台
  6
CONTINUOUS
 62
     6
100
AcDbCircle
 10
994.999999999998
 20
1188.999999999999
 30
0.0
 40
14.25000000000001
100
AcDbArc
 50
84.1775448336001
 51
95.82245516635992
  0
ARC
  5
228
330
1F
100
AcDbEntity
  8
化粧台
  6
CONTINUOUS
 62
     6
100
AcDbCircle
 10
994.999999999998
 20
1188.999999999999
 30
0.0
 40
14.25000000000001
100
AcDbArc
 50
144.1775448336404
 51
155.8224551663601
  0
ARC
  5
229
330
1F
100
AcDbEntity
  8
化粧台
  6
CONTINUOUS
 62
     6
100
AcDbCircle
 10
994.999999999998
 20
1188.999999999999
 30
0.0
 40
14.25000000000001
100
AcDbArc
 50
204.1775448336003
 51
215.8224551664
  0
CIRCLE
  5
22A
330
1F
100
AcDbEntity
  8
化粧台
  6
CONTINUOUS
 62
     6
100
AcDbCircle
 10
994.999999999998
 20
1188.999999999999
 30
0.0
 40
4.75
  0
CIRCLE
  5
22B
330
1F
100
AcDbEntity
  8
化粧台
  6
CONTINUOUS
 62
     6
100
AcDbCircle
 10
994.999999999998
 20
1188.999999999999
 30
0.0
 40
12.07434891639
  0
LINE
  5
22C
330
1F
100
AcDbEntity
  8
化粧台
  6
CONTINUOUS
 62
     6
100
AcDbLine
 10
1005.499999999998
 20
1211.699999999999
 30
0.0
 11
1005.499999999998
 21
1197.948929172442
 31
0.0
  0
LINE
  5
22D
330
1F
100
AcDbEntity
  8
化粧台
  6
CONTINUOUS
 62
     6
100
AcDbLine
 10
984.499999999998
 20
1211.699999999999
 30
0.0
 11
984.499999999998
 21
1197.948929172443
 31
0.0
  0
LINE
  5
22E
330
1F
100
AcDbEntity
  8
化粧台
  6
CONTINUOUS
 62
     6
100
AcDbLine
 10
964.999999999998
 20
1188.999999999999
 30
0.0
 11
1024.999999999998
 21
1188.999999999999
 31
0.0
  0
LINE
  5
22F
330
1F
100
AcDbEntity
  8
化粧台
  6
CONTINUOUS
 62
     6
100
AcDbLine
 10
994.999999999998
 20
1218.999999999999
 30
0.0
 11
994.999999999998
 21
1158.999999999999
 31
0.0
  0
ARC
  5
230
330
1F
100
AcDbEntity
  8
化粧台
  6
CONTINUOUS
 62
     6
100
AcDbCircle
 10
845.0
 20
1188.999999999999
 30
0.0
 40
27.50000000000002
100
AcDbArc
 50
114.7198511829102
 51
65.28014881708874
  0
ARC
  5
231
330
1F
100
AcDbEntity
  8
化粧台
  6
CONTINUOUS
 62
     6
100
AcDbCircle
 10
994.999999999998
 20
1188.999999999999
 30
0.0
 40
27.50000000000002
100
AcDbArc
 50
114.7198511829092
 51
65.28014881708823
  0
LINE
  5
232
330
1F
100
AcDbEntity
  8
化粧台
  6
CONTINUOUS
 62
     6
100
AcDbLine
 10
904.0000000000009
 20
764.0
 30
0.0
 11
936.0000000000009
 21
764.0
 31
0.0
  0
LINE
  5
233
330
1F
100
AcDbEntity
  8
化粧台
  6
EXLTYPE4
 62
     6
100
AcDbLine
 10
936.0000000000009
 20
993.9999999999991
 30
0.0
 11
936.0000000000009
 21
764.0
 31
0.0
  0
LINE
  5
234
330
1F
100
AcDbEntity
  8
化粧台
  6
EXLTYPE4
 62
     6
100
AcDbLine
 10
904.0000000000009
 20
993.9999999999991
 30
0.0
 11
904.0000000000009
 21
764.0
 31
0.0
  0
LINE
  5
235
330
1F
100
AcDbEntity
  8
化粧台
  6
CONTINUOUS
 62
     6
100
AcDbLine
 10
1005.499999999998
 20
785.9999999999991
 30
0.0
 11
984.499999999998
 21
785.9999999999991
 31
0.0
  0
LINE
  5
236
330
1F
100
AcDbEntity
  8
化粧台
  6
EXLTYPE3
 62
     6
100
AcDbLine
 10
994.999999999998
 20
1003.999999999999
 30
0.0
 11
994.999999999998
 21
775.9999999999991
 31
0.0
  0
LINE
  5
237
330
1F
100
AcDbEntity
  8
化粧台
  6
EXLTYPE4
 62
     6
100
AcDbLine
 10
984.499999999998
 20
993.9999999999991
 30
0.0
 11
984.499999999998
 21
785.9999999999991
 31
0.0
  0
LINE
  5
238
330
1F
100
AcDbEntity
  8
化粧台
  6
EXLTYPE4
 62
     6
100
AcDbLine
 10
1005.499999999998
 20
993.9999999999991
 30
0.0
 11
1005.499999999998
 21
785.9999999999991
 31
0.0
  0
LINE
  5
239
330
1F
100
AcDbEntity
  8
化粧台
  6
CONTINUOUS
 62
     6
100
AcDbLine
 10
834.5000000000009
 20
785.9999999999991
 30
0.0
 11
855.5000000000009
 21
785.9999999999991
 31
0.0
  0
LINE
  5
23A
330
1F
100
AcDbEntity
  8
化粧台
  6
EXLTYPE3
 62
     6
100
AcDbLine
 10
845.0000000000009
 20
1003.999999999999
 30
0.0
 11
845.0000000000009
 21
775.9999999999991
 31
0.0
  0
LINE
  5
23B
330
1F
100
AcDbEntity
  8
化粧台
  6
EXLTYPE4
 62
     6
100
AcDbLine
 10
855.5000000000009
 20
993.9999999999991
 30
0.0
 11
855.5000000000009
 21
785.9999999999991
 31
0.0
  0
LINE
  5
23C
330
1F
100
AcDbEntity
  8
化粧台
  6
EXLTYPE4
 62
     6
100
AcDbLine
 10
834.5000000000009
 20
993.9999999999991
 30
0.0
 11
834.5000000000009
 21
785.9999999999991
 31
0.0
  0
LINE
  5
23D
330
1F
100
AcDbEntity
  8
化粧台
  6
CONTINUOUS
 62
     2
100
AcDbLine
 10
904.1250000000027
 20
1436.999999999999
 30
0.0
 11
904.1250000000027
 21
1312.999999999949
 31
0.0
  0
LINE
  5
23E
330
1F
100
AcDbEntity
  8
化粧台
  6
CONTINUOUS
 62
     2
100
AcDbLine
 10
935.8750000000027
 20
1436.999999999999
 30
0.0
 11
935.8750000000027
 21
1312.999999999949
 31
0.0
  0
LINE
  5
23F
330
1F
100
AcDbEntity
  8
化粧台
  6
CONTINUOUS
 62
     2
100
AcDbLine
 10
545.0
 20
2694.0
 30
0.0
 11
1295.0
 21
2694.0
 31
0.0
  0
LINE
  5
240
330
1F
100
AcDbEntity
  8
化粧台
  6
CONTINUOUS
 62
     2
100
AcDbLine
 10
545.0
 20
1894.0
 30
0.0
 11
1295.0
 21
1894.0
 31
0.0
  0
LINE
  5
241
330
1F
100
AcDbEntity
  8
化粧台
  6
CONTINUOUS
 62
     2
100
AcDbLine
 10
545.0
 20
2694.0
 30
0.0
 11
545.0
 21
1894.0
 31
0.0
  0
LINE
  5
242
330
1F
100
AcDbEntity
  8
化粧台
  6
CONTINUOUS
 62
     2
100
AcDbLine
 10
1295.0
 20
2694.0
 30
0.0
 11
1295.0
 21
1894.0
 31
0.0
  0
LINE
  5
243
330
1F
100
AcDbEntity
  8
化粧台
  6
CONTINUOUS
 62
     2
100
AcDbLine
 10
1280.0
 20
2694.0
 30
0.0
 11
1280.0
 21
1894.0
 31
0.0
  0
LINE
  5
244
330
1F
100
AcDbEntity
  8
化粧台
  6
CONTINUOUS
 62
     2
100
AcDbLine
 10
560.0
 20
2694.0
 30
0.0
 11
560.0
 21
1894.0
 31
0.0
  0
LINE
  5
245
330
1F
100
AcDbEntity
  8
化粧台
  6
CONTINUOUS
 62
     2
100
AcDbLine
 10
560.0
 20
1912.0
 30
0.0
 11
1280.0
 21
1912.0
 31
0.0
  0
LINE
  5
246
330
1F
100
AcDbEntity
  8
化粧台
  6
CONTINUOUS
 62
     2
100
AcDbLine
 10
560.0
 20
2678.5
 30
0.0
 11
1280.0
 21
2678.5
 31
0.0
  0
LINE
  5
247
330
1F
100
AcDbEntity
  8
化粧台
  6
CONTINUOUS
 62
     2
100
AcDbLine
 10
1085.0
 20
2678.5
 30
0.0
 11
1085.0
 21
1912.0
 31
0.0
  0
LINE
  5
248
330
1F
100
AcDbEntity
  8
化粧台
  6
CONTINUOUS
 62
     2
100
AcDbLine
 10
1070.0
 20
2678.5
 30
0.0
 11
1070.0
 21
1912.0
 31
0.0
  0
LINE
  5
249
330
1F
100
AcDbEntity
  8
化粧台
  6
CONTINUOUS
 62
     2
100
AcDbLine
 10
1085.0
 20
2017.0
 30
0.0
 11
1280.0
 21
2017.0
 31
0.0
  0
LINE
  5
24A
330
1F
100
AcDbEntity
  8
化粧台
  6
CONTINUOUS
 62
     2
100
AcDbLine
 10
1085.0
 20
1977.0
 30
0.0
 11
1280.0
 21
1977.0
 31
0.0
  0
LINE
  5
24B
330
1F
100
AcDbEntity
  8
化粧台
  6
CONTINUOUS
 62
     2
100
AcDbLine
 10
1085.0
 20
2207.0
 30
0.0
 11
1280.0
 21
2207.0
 31
0.0
  0
LINE
  5
24C
330
1F
100
AcDbEntity
  8
化粧台
  6
CONTINUOUS
 62
     2
100
AcDbLine
 10
1085.0
 20
2247.0
 30
0.0
 11
1280.0
 21
2247.0
 31
0.0
  0
LINE
  5
24D
330
1F
100
AcDbEntity
  8
化粧台
  6
CONTINUOUS
 62
     2
100
AcDbLine
 10
1085.0
 20
2497.0
 30
0.0
 11
1280.0
 21
2497.0
 31
0.0
  0
LINE
  5
24E
330
1F
100
AcDbEntity
  8
化粧台
  6
CONTINUOUS
 62
     2
100
AcDbLine
 10
1085.0
 20
2457.0
 30
0.0
 11
1280.0
 21
2457.0
 31
0.0
  0
LINE
  5
24F
330
1F
100
AcDbEntity
  8
化粧台
  6
CONTINUOUS
 62
     6
100
AcDbLine
 10
1168.25
 20
1948.6
 30
0.0
 11
1168.25
 21
1925.4
 31
0.0
  0
LINE
  5
250
330
1F
100
AcDbEntity
  8
化粧台
  6
CONTINUOUS
 62
     6
100
AcDbLine
 10
1196.75
 20
1948.6
 30
0.0
 11
1196.75
 21
1925.4
 31
0.0
  0
LINE
  5
251
330
1F
100
AcDbEntity
  8
化粧台
  6
CONTINUOUS
 62
     6
100
AcDbLine
 10
1168.25
 20
1925.4
 30
0.0
 11
1196.75
 21
1925.4
 31
0.0
  0
LINE
  5
252
330
1F
100
AcDbEntity
  8
化粧台
  6
CONTINUOUS
 62
     6
100
AcDbLine
 10
1168.25
 20
1948.6
 30
0.0
 11
1196.75
 21
1948.6
 31
0.0
  0
LINE
  5
253
330
1F
100
AcDbEntity
  8
化粧台
  6
CONTINUOUS
 62
     6
100
AcDbLine
 10
1123.25
 20
1948.6
 30
0.0
 11
1123.25
 21
1925.4
 31
0.0
  0
LINE
  5
254
330
1F
100
AcDbEntity
  8
化粧台
  6
CONTINUOUS
 62
     6
100
AcDbLine
 10
1151.75
 20
1948.6
 30
0.0
 11
1151.75
 21
1925.4
 31
0.0
  0
LINE
  5
255
330
1F
100
AcDbEntity
  8
化粧台
  6
CONTINUOUS
 62
     6
100
AcDbLine
 10
1123.25
 20
1925.4
 30
0.0
 11
1151.75
 21
1925.4
 31
0.0
  0
LINE
  5
256
330
1F
100
AcDbEntity
  8
化粧台
  6
CONTINUOUS
 62
     6
100
AcDbLine
 10
1123.25
 20
1948.6
 30
0.0
 11
1151.75
 21
1948.6
 31
0.0
  0
LINE
  5
257
330
1F
100
AcDbEntity
  8
化粧台
  6
CONTINUOUS
 62
     6
100
AcDbLine
 10
1213.25
 20
1948.6
 30
0.0
 11
1213.25
 21
1925.4
 31
0.0
  0
LINE
  5
258
330
1F
100
AcDbEntity
  8
化粧台
  6
CONTINUOUS
 62
     6
100
AcDbLine
 10
1241.75
 20
1948.6
 30
0.0
 11
1241.75
 21
1925.4
 31
0.0
  0
LINE
  5
259
330
1F
100
AcDbEntity
  8
化粧台
  6
CONTINUOUS
 62
     6
100
AcDbLine
 10
1213.25
 20
1925.4
 30
0.0
 11
1241.75
 21
1925.4
 31
0.0
  0
LINE
  5
25A
330
1F
100
AcDbEntity
  8
化粧台
  6
CONTINUOUS
 62
     6
100
AcDbLine
 10
1213.25
 20
1948.6
 30
0.0
 11
1241.75
 21
1948.6
 31
0.0
  0
ARC
  5
25B
330
1F
100
AcDbEntity
  8
化粧台
  6
CONTINUOUS
 62
     6
100
AcDbCircle
 10
1098.0
 20
1951.5
 30
0.0
 40
3.000000000000002
100
AcDbArc
 50
90.00000000000004
 51
180.0
  0
LINE
  5
25C
330
1F
100
AcDbEntity
  8
化粧台
  6
CONTINUOUS
 62
     6
100
AcDbLine
 10
1095.0
 20
1951.5
 30
0.0
 11
1095.0
 21
1922.5
 31
0.0
  0
ARC
  5
25D
330
1F
100
AcDbEntity
  8
化粧台
  6
CONTINUOUS
 62
     6
100
AcDbCircle
 10
1098.0
 20
1922.5
 30
0.0
 40
3.000000000000002
100
AcDbArc
 50
180.0
 51
270.0000000000002
  0
LINE
  5
25E
330
1F
100
AcDbEntity
  8
化粧台
  6
CONTINUOUS
 62
     6
100
AcDbLine
 10
1098.0
 20
1919.5
 30
0.0
 11
1267.0
 21
1919.5
 31
0.0
  0
ARC
  5
25F
330
1F
100
AcDbEntity
  8
化粧台
  6
CONTINUOUS
 62
     6
100
AcDbCircle
 10
1267.0
 20
1922.5
 30
0.0
 40
3.000000000000002
100
AcDbArc
 50
270.0000000000002
 51
0.0
  0
LINE
  5
260
330
1F
100
AcDbEntity
  8
化粧台
  6
CONTINUOUS
 62
     6
100
AcDbLine
 10
1270.0
 20
1951.5
 30
0.0
 11
1270.0
 21
1922.5
 31
0.0
  0
LINE
  5
261
330
1F
100
AcDbEntity
  8
化粧台
  6
CONTINUOUS
 62
     6
100
AcDbLine
 10
1098.0
 20
1954.5
 30
0.0
 11
1267.0
 21
1954.5
 31
0.0
  0
ARC
  5
262
330
1F
100
AcDbEntity
  8
化粧台
  6
CONTINUOUS
 62
     6
100
AcDbCircle
 10
1267.0
 20
1951.5
 30
0.0
 40
3.000000000000002
100
AcDbArc
 50
0.0
 51
90.00000000000004
  0
CIRCLE
  5
263
330
1F
100
AcDbEntity
  8
化粧台
  6
CONTINUOUS
 62
     6
100
AcDbCircle
 10
1227.5
 20
1937.0
 30
0.0
 40
11.0
  0
LINE
  5
264
330
1F
100
AcDbEntity
  8
化粧台
  6
CONTINUOUS
 62
     6
100
AcDbLine
 10
1170.249999999993
 20
1945.6
 30
0.0
 11
1170.249999999993
 21
1928.4
 31
0.0
  0
LINE
  5
265
330
1F
100
AcDbEntity
  8
化粧台
  6
CONTINUOUS
 62
     6
100
AcDbLine
 10
1194.75
 20
1945.6
 30
0.0
 11
1194.75
 21
1928.4
 31
0.0
  0
LINE
  5
266
330
1F
100
AcDbEntity
  8
化粧台
  6
CONTINUOUS
 62
     6
100
AcDbLine
 10
1192.75
 20
1945.6
 30
0.0
 11
1192.75
 21
1928.4
 31
0.0
  0
LINE
  5
267
330
1F
100
AcDbEntity
  8
化粧台
  6
CONTINUOUS
 62
     6
100
AcDbLine
 10
1170.25
 20
1928.4
 30
0.0
 11
1194.75
 21
1928.4
 31
0.0
  0
LINE
  5
268
330
1F
100
AcDbEntity
  8
化粧台
  6
CONTINUOUS
 62
     6
100
AcDbLine
 10
1170.25
 20
1945.6
 30
0.0
 11
1194.75
 21
1945.6
 31
0.0
  0
CIRCLE
  5
269
330
1F
100
AcDbEntity
  8
化粧台
  6
CONTINUOUS
 62
     6
100
AcDbCircle
 10
1189.049999999999
 20
1937.0
 30
0.0
 40
1.0
  0
LINE
  5
26A
330
1F
100
AcDbEntity
  8
化粧台
  6
CONTINUOUS
 62
     6
100
AcDbLine
 10
1125.249999999993
 20
1945.6
 30
0.0
 11
1125.249999999993
 21
1928.4
 31
0.0
  0
LINE
  5
26B
330
1F
100
AcDbEntity
  8
化粧台
  6
CONTINUOUS
 62
     6
100
AcDbLine
 10
1149.75
 20
1945.6
 30
0.0
 11
1149.75
 21
1928.4
 31
0.0
  0
LINE
  5
26C
330
1F
100
AcDbEntity
  8
化粧台
  6
CONTINUOUS
 62
     6
100
AcDbLine
 10
1147.75
 20
1945.6
 30
0.0
 11
1147.75
 21
1928.4
 31
0.0
  0
LINE
  5
26D
330
1F
100
AcDbEntity
  8
化粧台
  6
CONTINUOUS
 62
     6
100
AcDbLine
 10
1125.25
 20
1928.4
 30
0.0
 11
1149.75
 21
1928.4
 31
0.0
  0
LINE
  5
26E
330
1F
100
AcDbEntity
  8
化粧台
  6
CONTINUOUS
 62
     6
100
AcDbLine
 10
1125.25
 20
1945.6
 30
0.0
 11
1149.75
 21
1945.6
 31
0.0
  0
CIRCLE
  5
26F
330
1F
100
AcDbEntity
  8
化粧台
  6
CONTINUOUS
 62
     6
100
AcDbCircle
 10
1144.049999999999
 20
1937.0
 30
0.0
 40
1.0
  0
LINE
  5
270
330
1F
100
AcDbEntity
  8
化粧台
  6
CONTINUOUS
 62
     6
100
AcDbLine
 10
1223.5
 20
1943.0
 30
0.0
 11
1231.5
 21
1943.0
 31
0.0
  0
LINE
  5
271
330
1F
100
AcDbEntity
  8
化粧台
  6
CONTINUOUS
 62
     6
100
AcDbLine
 10
1223.5
 20
1931.0
 30
0.0
 11
1231.5
 21
1931.0
 31
0.0
  0
LINE
  5
272
330
1F
100
AcDbEntity
  8
化粧台
  6
CONTINUOUS
 62
     2
100
AcDbLine
 10
560.0
 20
1953.0
 30
0.0
 11
1070.0
 21
1953.0
 31
0.0
  0
LINE
  5
273
330
1F
100
AcDbEntity
  8
化粧台
  6
CONTINUOUS
 62
     2
100
AcDbLine
 10
560.0
 20
2576.5
 30
0.0
 11
1070.0
 21
2576.5
 31
0.0
  0
LINE
  5
274
330
1F
100
AcDbEntity
  8
化粧台
  6
CONTINUOUS
 62
     2
100
AcDbLine
 10
560.0
 20
2567.5
 30
0.0
 11
1070.0
 21
2567.5
 31
0.0
  0
LINE
  5
275
330
1F
100
AcDbEntity
  8
化粧台
  6
CONTINUOUS
 62
     6
100
AcDbLine
 10
560.0
 20
2675.5
 30
0.0
 11
1070.0
 21
2675.5
 31
0.0
  0
LINE
  5
276
330
1F
100
AcDbEntity
  8
化粧台
  6
CONTINUOUS
 62
     6
100
AcDbLine
 10
560.0
 20
2584.5
 30
0.0
 11
1070.0
 21
2584.5
 31
0.0
  0
LINE
  5
277
330
1F
100
AcDbEntity
  8
化粧台
  6
CONTINUOUS
 62
     5
100
AcDbLine
 10
1085.0
 20
2492.75
 30
0.0
 11
1280.0
 21
2492.75
 31
0.0
  0
LINE
  5
278
330
1F
100
AcDbEntity
  8
化粧台
  6
CONTINUOUS
 62
     5
100
AcDbLine
 10
1085.0
 20
2486.75
 30
0.0
 11
1280.0
 21
2486.75
 31
0.0
  0
LINE
  5
279
330
1F
100
AcDbEntity
  8
化粧台
  6
CONTINUOUS
 62
     5
100
AcDbLine
 10
1085.0
 20
2480.75
 30
0.0
 11
1280.0
 21
2480.75
 31
0.0
  0
LINE
  5
27A
330
1F
100
AcDbEntity
  8
化粧台
  6
CONTINUOUS
 62
     5
100
AcDbLine
 10
1085.0
 20
2474.75
 30
0.0
 11
1280.0
 21
2474.75
 31
0.0
  0
LINE
  5
27B
330
1F
100
AcDbEntity
  8
化粧台
  6
CONTINUOUS
 62
     5
100
AcDbLine
 10
1085.0
 20
2468.75
 30
0.0
 11
1280.0
 21
2468.75
 31
0.0
  0
LINE
  5
27C
330
1F
100
AcDbEntity
  8
化粧台
  6
CONTINUOUS
 62
     5
100
AcDbLine
 10
1085.0
 20
2462.75
 30
0.0
 11
1280.0
 21
2462.75
 31
0.0
  0
LINE
  5
27D
330
1F
100
AcDbEntity
  8
化粧台
  6
CONTINUOUS
 62
     5
100
AcDbLine
 10
1085.0
 20
2242.75
 30
0.0
 11
1280.0
 21
2242.75
 31
0.0
  0
LINE
  5
27E
330
1F
100
AcDbEntity
  8
化粧台
  6
CONTINUOUS
 62
     5
100
AcDbLine
 10
1085.0
 20
2236.75
 30
0.0
 11
1280.0
 21
2236.75
 31
0.0
  0
LINE
  5
27F
330
1F
100
AcDbEntity
  8
化粧台
  6
CONTINUOUS
 62
     5
100
AcDbLine
 10
1085.0
 20
2230.75
 30
0.0
 11
1280.0
 21
2230.75
 31
0.0
  0
LINE
  5
280
330
1F
100
AcDbEntity
  8
化粧台
  6
CONTINUOUS
 62
     5
100
AcDbLine
 10
1085.0
 20
2224.75
 30
0.0
 11
1280.0
 21
2224.75
 31
0.0
  0
LINE
  5
281
330
1F
100
AcDbEntity
  8
化粧台
  6
CONTINUOUS
 62
     5
100
AcDbLine
 10
1085.0
 20
2218.75
 30
0.0
 11
1280.0
 21
2218.75
 31
0.0
  0
LINE
  5
282
330
1F
100
AcDbEntity
  8
化粧台
  6
CONTINUOUS
 62
     5
100
AcDbLine
 10
1085.0
 20
2212.75
 30
0.0
 11
1280.0
 21
2212.75
 31
0.0
  0
LINE
  5
283
330
1F
100
AcDbEntity
  8
化粧台
  6
CONTINUOUS
 62
     5
100
AcDbLine
 10
1085.0
 20
2012.75
 30
0.0
 11
1280.0
 21
2012.75
 31
0.0
  0
LINE
  5
284
330
1F
100
AcDbEntity
  8
化粧台
  6
CONTINUOUS
 62
     5
100
AcDbLine
 10
1085.0
 20
2006.75
 30
0.0
 11
1280.0
 21
2006.75
 31
0.0
  0
LINE
  5
285
330
1F
100
AcDbEntity
  8
化粧台
  6
CONTINUOUS
 62
     5
100
AcDbLine
 10
1085.0
 20
2000.75
 30
0.0
 11
1280.0
 21
2000.75
 31
0.0
  0
LINE
  5
286
330
1F
100
AcDbEntity
  8
化粧台
  6
CONTINUOUS
 62
     5
100
AcDbLine
 10
1085.0
 20
1994.75
 30
0.0
 11
1280.0
 21
1994.75
 31
0.0
  0
LINE
  5
287
330
1F
100
AcDbEntity
  8
化粧台
  6
CONTINUOUS
 62
     5
100
AcDbLine
 10
1085.0
 20
1988.75
 30
0.0
 11
1280.0
 21
1988.75
 31
0.0
  0
LINE
  5
288
330
1F
100
AcDbEntity
  8
化粧台
  6
CONTINUOUS
 62
     5
100
AcDbLine
 10
1085.0
 20
1982.75
 30
0.0
 11
1280.0
 21
1982.75
 31
0.0
  0
LINE
  5
289
330
1F
100
AcDbEntity
  8
化粧台
  6
CONTINUOUS
 62
     5
100
AcDbLine
 10
560.0
 20
1948.75
 30
0.0
 11
1070.0
 21
1948.75
 31
0.0
  0
LINE
  5
28A
330
1F
100
AcDbEntity
  8
化粧台
  6
CONTINUOUS
 62
     5
100
AcDbLine
 10
560.0
 20
1942.75
 30
0.0
 11
1070.0
 21
1942.75
 31
0.0
  0
LINE
  5
28B
330
1F
100
AcDbEntity
  8
化粧台
  6
CONTINUOUS
 62
     5
100
AcDbLine
 10
560.0
 20
1936.75
 30
0.0
 11
1070.0
 21
1936.75
 31
0.0
  0
LINE
  5
28C
330
1F
100
AcDbEntity
  8
化粧台
  6
CONTINUOUS
 62
     5
100
AcDbLine
 10
560.0
 20
1930.75
 30
0.0
 11
1070.0
 21
1930.75
 31
0.0
  0
LINE
  5
28D
330
1F
100
AcDbEntity
  8
化粧台
  6
CONTINUOUS
 62
     5
100
AcDbLine
 10
560.0
 20
1924.75
 30
0.0
 11
1070.0
 21
1924.75
 31
0.0
  0
LINE
  5
28E
330
1F
100
AcDbEntity
  8
化粧台
  6
CONTINUOUS
 62
     5
100
AcDbLine
 10
560.0
 20
1918.75
 30
0.0
 11
1070.0
 21
1918.75
 31
0.0
  0
LINE
  5
28F
330
1F
100
AcDbEntity
  8
化粧台
  6
CONTINUOUS
 62
     5
100
AcDbLine
 10
560.0
 20
2666.5
 30
0.0
 11
1070.0
 21
2666.5
 31
0.0
  0
LINE
  5
290
330
1F
100
AcDbEntity
  8
化粧台
  6
CONTINUOUS
 62
     5
100
AcDbLine
 10
560.0
 20
2657.5
 30
0.0
 11
1070.0
 21
2657.5
 31
0.0
  0
LINE
  5
291
330
1F
100
AcDbEntity
  8
化粧台
  6
CONTINUOUS
 62
     5
100
AcDbLine
 10
560.0
 20
2648.5
 30
0.0
 11
1070.0
 21
2648.5
 31
0.0
  0
LINE
  5
292
330
1F
100
AcDbEntity
  8
化粧台
  6
CONTINUOUS
 62
     5
100
AcDbLine
 10
560.0
 20
2639.5
 30
0.0
 11
1070.0
 21
2639.5
 31
0.0
  0
LINE
  5
293
330
1F
100
AcDbEntity
  8
化粧台
  6
CONTINUOUS
 62
     5
100
AcDbLine
 10
560.0
 20
2630.5
 30
0.0
 11
1070.0
 21
2630.5
 31
0.0
  0
LINE
  5
294
330
1F
100
AcDbEntity
  8
化粧台
  6
CONTINUOUS
 62
     5
100
AcDbLine
 10
560.0
 20
2621.5
 30
0.0
 11
1070.0
 21
2621.5
 31
0.0
  0
LINE
  5
295
330
1F
100
AcDbEntity
  8
化粧台
  6
CONTINUOUS
 62
     5
100
AcDbLine
 10
560.0
 20
2612.5
 30
0.0
 11
1070.0
 21
2612.5
 31
0.0
  0
LINE
  5
296
330
1F
100
AcDbEntity
  8
化粧台
  6
CONTINUOUS
 62
     5
100
AcDbLine
 10
560.0
 20
2603.5
 30
0.0
 11
1070.0
 21
2603.5
 31
0.0
  0
LINE
  5
297
330
1F
100
AcDbEntity
  8
化粧台
  6
CONTINUOUS
 62
     5
100
AcDbLine
 10
560.0
 20
2594.5
 30
0.0
 11
1070.0
 21
2594.5
 31
0.0
  0
LINE
  5
298
330
1F
100
AcDbEntity
  8
化粧台
  6
CONTINUOUS
 62
     6
100
AcDbLine
 10
942.7144660940685
 20
2466.785533905902
 30
0.0
 11
929.9644660940685
 21
2454.035533905905
 31
0.0
  0
LINE
  5
299
330
1F
100
AcDbEntity
  8
化粧台
  6
CONTINUOUS
 62
     6
100
AcDbLine
 10
921.9999999999982
 20
2438.999999999974
 30
0.0
 11
954.5000000000018
 21
2471.499999999971
 31
0.0
  0
LINE
  5
29A
330
1F
100
AcDbEntity
  8
化粧台
  6
CONTINUOUS
 62
     6
100
AcDbLine
 10
932.5355339059333
 20
2442.464466094037
 30
0.0
 11
947.5355339059352
 21
2457.464466094035
 31
0.0
  0
LINE
  5
29B
330
1F
100
AcDbEntity
  8
化粧台
  6
CONTINUOUS
 62
     6
100
AcDbLine
 10
692.2144660940685
 20
2256.785533905902
 30
0.0
 11
679.4644660940685
 21
2244.035533905905
 31
0.0
  0
LINE
  5
29C
330
1F
100
AcDbEntity
  8
化粧台
  6
CONTINUOUS
 62
     6
100
AcDbLine
 10
671.4999999999982
 20
2228.999999999974
 30
0.0
 11
704.0000000000018
 21
2261.499999999971
 31
0.0
  0
LINE
  5
29D
330
1F
100
AcDbEntity
  8
化粧台
  6
CONTINUOUS
 62
     6
100
AcDbLine
 10
682.0355339059333
 20
2232.464466094037
 30
0.0
 11
697.0355339059352
 21
2247.464466094035
 31
0.0
  0
LINE
  5
29E
330
1F
100
AcDbEntity
  8
化粧台
  6
CONTINUOUS
 62
     6
100
AcDbLine
 10
879.7144660940685
 20
2070.785533905902
 30
0.0
 11
866.9644660940685
 21
2058.035533905905
 31
0.0
  0
LINE
  5
29F
330
1F
100
AcDbEntity
  8
化粧台
  6
CONTINUOUS
 62
     6
100
AcDbLine
 10
858.9999999999982
 20
2042.999999999974
 30
0.0
 11
891.5000000000018
 21
2075.499999999971
 31
0.0
  0
LINE
  5
2A0
330
1F
100
AcDbEntity
  8
化粧台
  6
CONTINUOUS
 62
     6
100
AcDbLine
 10
869.5355339059333
 20
2046.464466094037
 30
0.0
 11
884.5355339059352
 21
2061.464466094035
 31
0.0
  0
LINE
  5
2A1
330
1F
100
AcDbEntity
  8
化粧台
  6
CONTINUOUS
 62
     6
100
AcDbLine
 10
1105.0
 20
2668.5
 30
0.0
 11
1105.0
 21
2722.0766968306
 31
0.0
  0
CIRCLE
  5
2A2
330
1F
100
AcDbEntity
  8
化粧台
  6
CONTINUOUS
 62
     2
100
AcDbCircle
 10
1195.0
 20
2634.0
 30
0.0
 40
8.0
  0
LINE
  5
2A3
330
1F
100
AcDbEntity
  8
化粧台
  6
CONTINUOUS
 62
     6
100
AcDbLine
 10
1208.0
 20
2634.0
 30
0.0
 11
1182.0
 21
2634.0
 31
0.0
  0
LINE
  5
2A4
330
1F
100
AcDbEntity
  8
化粧台
  6
CONTINUOUS
 62
     6
100
AcDbLine
 10
1195.0
 20
2647.0
 30
0.0
 11
1195.0
 21
2620.999999999999
 31
0.0
  0
LINE
  5
2A5
330
1F
100
AcDbEntity
  8
化粧台
  6
CONTINUOUS
 62
     6
100
AcDbLine
 10
658.0
 20
2634.0
 30
0.0
 11
632.0
 21
2634.0
 31
0.0
  0
LINE
  5
2A6
330
1F
100
AcDbEntity
  8
化粧台
  6
CONTINUOUS
 62
     6
100
AcDbLine
 10
645.0
 20
2647.0
 30
0.0
 11
645.0
 21
2620.999999999999
 31
0.0
  0
CIRCLE
  5
2A7
330
1F
100
AcDbEntity
  8
化粧台
  6
EXLTYPE2
 62
     6
100
AcDbCircle
 10
645.0
 20
2634.0
 30
0.0
 40
8.0
  0
LINE
  5
2A8
330
1F
100
AcDbEntity
  8
化粧台
  6
CONTINUOUS
 62
     6
100
AcDbLine
 10
1158.0
 20
1924.0
 30
0.0
 11
1132.0
 21
1924.0
 31
0.0
  0
LINE
  5
2A9
330
1F
100
AcDbEntity
  8
化粧台
  6
CONTINUOUS
 62
     6
100
AcDbLine
 10
1145.0
 20
1937.0
 30
0.0
 11
1145.0
 21
1910.999999999999
 31
0.0
  0
CIRCLE
  5
2AA
330
1F
100
AcDbEntity
  8
化粧台
  6
EXLTYPE2
 62
     6
100
AcDbCircle
 10
1145.0
 20
1924.0
 30
0.0
 40
8.0
  0
LINE
  5
2AB
330
1F
100
AcDbEntity
  8
化粧台
  6
CONTINUOUS
 62
     6
100
AcDbLine
 10
708.0
 20
1924.0
 30
0.0
 11
682.0
 21
1924.0
 31
0.0
  0
LINE
  5
2AC
330
1F
100
AcDbEntity
  8
化粧台
  6
CONTINUOUS
 62
     6
100
AcDbLine
 10
695.0
 20
1937.0
 30
0.0
 11
695.0
 21
1910.999999999999
 31
0.0
  0
CIRCLE
  5
2AD
330
1F
100
AcDbEntity
  8
化粧台
  6
EXLTYPE2
 62
     6
100
AcDbCircle
 10
695.0
 20
1924.0
 30
0.0
 40
8.0
  0
ARC
  5
2AE
330
1F
100
AcDbEntity
  8
化粧台
  6
CONTINUOUS
 62
     6
100
AcDbCircle
 10
1038.189941000001
 20
2605.748657
 30
0.0
 40
120.0000000000001
100
AcDbArc
 50
62.42312600000036
 51
85.40960699999981
  0
ARC
  5
2AF
330
1F
100
AcDbEntity
  8
化粧台
  6
CONTINUOUS
 62
     6
100
AcDbCircle
 10
1039.416992000001
 20
2611.644652999999
 30
0.0
 40
120.0000000000001
100
AcDbArc
 50
60.77813700000012
 51
86.65087900000037
  0
ARC
  5
2B0
330
1F
100
AcDbEntity
  8
化粧台
  6
CONTINUOUS
 62
     6
100
AcDbCircle
 10
1031.015259000001
 20
2722.627807999999
 30
0.0
 40
17.00025
100
AcDbArc
 50
321.9271240000002
 51
18.07110600000342
  0
ARC
  5
2B1
330
1F
100
AcDbEntity
  8
化粧台
  6
CONTINUOUS
 62
     6
100
AcDbCircle
 10
1063.338562000002
 20
2733.174561
 30
0.0
 40
17.000208
100
AcDbArc
 50
169.9989619999992
 51
198.0710450000017
  0
ARC
  5
2B2
330
1F
100
AcDbEntity
  8
化粧台
  6
CONTINUOUS
 62
     6
100
AcDbCircle
 10
1063.338379000002
 20
2733.174682999999
 30
0.0
 40
17.000029
100
AcDbArc
 50
141.9263919999981
 51
169.9989619999976
  0
ARC
  5
2B3
330
1F
100
AcDbEntity
  8
化粧台
  6
CONTINUOUS
 62
     6
100
AcDbCircle
 10
1023.015259000001
 20
2722.627807999999
 30
0.0
 40
17.00025
100
AcDbArc
 50
321.9271240000002
 51
18.07110600000342
  0
ARC
  5
2B4
330
1F
100
AcDbEntity
  8
化粧台
  6
CONTINUOUS
 62
     6
100
AcDbCircle
 10
1055.338562000002
 20
2733.174561
 30
0.0
 40
17.000208
100
AcDbArc
 50
169.9989619999992
 51
198.0710449999985
  0
ARC
  5
2B5
330
1F
100
AcDbEntity
  8
化粧台
  6
CONTINUOUS
 62
     6
100
AcDbCircle
 10
1055.338379000002
 20
2733.174682999999
 30
0.0
 40
17.000029
100
AcDbArc
 50
141.9263919999981
 51
169.9989619999976
  0
ARC
  5
2B6
330
1F
100
AcDbEntity
  8
化粧台
  6
CONTINUOUS
 62
     6
100
AcDbCircle
 10
1078.000000000001
 20
2694.0
 30
0.0
 40
24.00000000000002
100
AcDbArc
 50
0.0
 51
49.00903300000166
  0
ARC
  5
2B7
330
1F
100
AcDbEntity
  8
化粧台
  6
CONTINUOUS
 62
     6
100
AcDbCircle
 10
1078.000000000001
 20
2694.0
 30
0.0
 40
30.00000000000002
100
AcDbArc
 50
0.0
 51
48.2063289999998
  0
LINE
  5
2B8
330
1F
100
AcDbEntity
  8
化粧台
  6
CONTINUOUS
 62
     6
100
AcDbLine
 10
985.4961040016269
 20
2731.301999941891
 30
0.0
 11
988.3556492763264
 21
2741.923743061398
 31
0.0
  0
LINE
  5
2B9
330
1F
100
AcDbEntity
  8
化粧台
  6
CONTINUOUS
 62
     6
100
AcDbLine
 10
999.4975689511202
 20
2727.53264126346
 30
0.0
 11
1002.686460917171
 21
2741.690269151895
 31
0.0
  0
LINE
  5
2BA
330
1F
100
AcDbEntity
  8
化粧台
  6
CONTINUOUS
 62
     6
100
AcDbLine
 10
1005.091033999332
 20
2730.998954871214
 30
0.0
 11
1007.527977281984
 21
2740.051114082836
 31
0.0
  0
LINE
  5
2BB
330
1F
100
AcDbEntity
  8
化粧台
  6
CONTINUOUS
 62
     6
100
AcDbLine
 10
1002.686460917171
 20
2741.690269151895
 30
0.0
 11
1024.197370603747
 21
2734.407453694856
 31
0.0
  0
LINE
  5
2BC
330
1F
100
AcDbEntity
  8
化粧台
  6
CONTINUOUS
 62
     6
100
AcDbLine
 10
1022.347618042749
 20
2727.531794358076
 30
0.0
 11
1003.372881232362
 21
2731.344190206494
 31
0.0
  0
LINE
  5
2BD
330
1F
100
AcDbEntity
  8
化粧台
  6
CONTINUOUS
 62
     6
100
AcDbLine
 10
982.7851066328249
 20
2715.462132417867
 30
0.0
 11
986.9445557942827
 21
2730.912080556155
 31
0.0
  0
LINE
  5
2BE
330
1F
100
AcDbEntity
  8
化粧台
  6
CONTINUOUS
 62
     6
100
AcDbLine
 10
991.4757496621505
 20
2713.122510919909
 30
0.0
 11
995.6351295474788
 21
2728.572358629901
 31
0.0
  0
LINE
  5
2BF
330
1F
100
AcDbEntity
  8
化粧台
  6
CONTINUOUS
 62
     6
100
AcDbLine
 10
988.3557193704228
 20
2741.923842914466
 30
0.0
 11
999.9430270047296
 21
2738.804251064559
 31
0.0
  0
LINE
  5
2C0
330
1F
100
AcDbEntity
  8
化粧台
  6
CONTINUOUS
 62
     6
100
AcDbLine
 10
997.0835815842902
 20
2728.182437851419
 30
0.0
 11
999.9430270047296
 21
2738.804251064559
 31
0.0
  0
LINE
  5
2C1
330
1F
100
AcDbEntity
  8
化粧台
  6
CONTINUOUS
 62
     6
100
AcDbLine
 10
999.4975689511202
 20
2727.53264126346
 30
0.0
 11
999.8607163838979
 21
2729.085942792342
 31
0.0
  0
LINE
  5
2C2
330
1F
100
AcDbEntity
  8
化粧台
  6
CONTINUOUS
 62
     6
100
AcDbLine
 10
982.5992694487022
 20
2732.081940535319
 30
0.0
 11
987.1614839333224
 21
2745.420950935551
 31
0.0
  0
LINE
  5
2C3
330
1F
100
AcDbEntity
  8
化粧台
  6
CONTINUOUS
 62
     6
100
AcDbLine
 10
999.4975689511202
 20
2727.53264126346
 30
0.0
 11
982.5992694487022
 21
2732.081940535319
 31
0.0
  0
LINE
  5
2C4
330
1F
100
AcDbEntity
  8
化粧台
  6
CONTINUOUS
 62
     6
100
AcDbLine
 10
1001.98017893735
 20
2742.398290809708
 30
0.0
 11
988.3676207441467
 21
2746.063032272225
 31
0.0
  0
LINE
  5
2C5
330
1F
100
AcDbEntity
  8
化粧台
  6
CONTINUOUS
 62
     6
100
AcDbLine
 10
1023.510226618678
 20
2728.252307013785
 30
0.0
 11
1024.842340728011
 21
2733.200332443165
 31
0.0
  0
ARC
  5
2C6
330
1F
100
AcDbEntity
  8
化粧台
  6
CONTINUOUS
 62
     6
100
AcDbCircle
 10
1002.781929906297
 20
2728.402984236284
 30
0.0
 40
3.000000000000002
100
AcDbArc
 50
78.6395105753558
 51
166.8414765753472
  0
ARC
  5
2C7
330
1F
100
AcDbEntity
  8
化粧台
  6
CONTINUOUS
 62
     6
100
AcDbCircle
 10
1023.876705299574
 20
2733.460279739016
 30
0.0
 40
1.0
100
AcDbArc
 50
344.9322965753466
 51
71.29569957527904
  0
ARC
  5
2C8
330
1F
100
AcDbEntity
  8
化粧台
  6
CONTINUOUS
 62
     6
100
AcDbCircle
 10
1022.544592008885
 20
2728.512253735175
 30
0.0
 40
1.0
100
AcDbArc
 50
258.63951057539
 51
344.9322355753438
  0
ARC
  5
2C9
330
1F
100
AcDbEntity
  8
化粧台
  6
CONTINUOUS
 62
     6
100
AcDbCircle
 10
989.4520053678762
 20
2722.915617032078
 30
0.0
 40
10.0
100
AcDbArc
 50
228.18858357535
 51
281.6758575753462
  0
ARC
  5
2CA
330
1F
100
AcDbEntity
  8
化粧台
  6
CONTINUOUS
 62
     6
100
AcDbCircle
 10
988.1076740228846
 20
2745.097397663051
 30
0.0
 40
1.0
100
AcDbArc
 50
74.93223557530246
 51
161.1184535753969
  0
ARC
  5
2CB
330
1F
100
AcDbEntity
  8
化粧台
  6
CONTINUOUS
 62
     6
100
AcDbCircle
 10
1001.720232216
 20
2741.432656200585
 30
0.0
 40
1.0
100
AcDbArc
 50
346.8413545753107
 51
74.93223557550463
  0
ARC
  5
2CC
330
1F
100
AcDbEntity
  8
化粧台
  6
CONTINUOUS
 62
     6
100
AcDbCircle
 10
1002.781929906297
 20
2728.402984236284
 30
0.0
 40
3.000000000000002
100
AcDbArc
 50
78.6395105753558
 51
166.8414765753472
  0
ARC
  5
2CD
330
1F
100
AcDbEntity
  8
化粧台
  6
CONTINUOUS
 62
     6
100
AcDbCircle
 10
1023.876705299574
 20
2733.460279739016
 30
0.0
 40
1.0
100
AcDbArc
 50
344.9322965753466
 51
71.29569957527904
  0
ARC
  5
2CE
330
1F
100
AcDbEntity
  8
化粧台
  6
CONTINUOUS
 62
     6
100
AcDbCircle
 10
1022.544592008885
 20
2728.512253735175
 30
0.0
 40
1.0
100
AcDbArc
 50
258.63951057539
 51
344.9322355753438
  0
ARC
  5
2CF
330
1F
100
AcDbEntity
  8
化粧台
  6
CONTINUOUS
 62
     6
100
AcDbCircle
 10
989.4520053678762
 20
2722.915617032078
 30
0.0
 40
10.0
100
AcDbArc
 50
228.18858357535
 51
281.6758575753462
  0
ARC
  5
2D0
330
1F
100
AcDbEntity
  8
化粧台
  6
CONTINUOUS
 62
     6
100
AcDbCircle
 10
988.1076740228846
 20
2745.097397663051
 30
0.0
 40
1.0
100
AcDbArc
 50
74.93223557530246
 51
161.1184535753969
  0
ARC
  5
2D1
330
1F
100
AcDbEntity
  8
化粧台
  6
CONTINUOUS
 62
     6
100
AcDbCircle
 10
1001.720232216
 20
2741.432656200585
 30
0.0
 40
1.0
100
AcDbArc
 50
346.8413545753107
 51
74.93223557550463
  0
ARC
  5
2D2
330
1F
100
AcDbEntity
  8
化粧台
  6
CONTINUOUS
 62
     6
100
AcDbCircle
 10
1049.883301000001
 20
2881.149475
 30
0.0
 40
150.0
100
AcDbArc
 50
260.3954581211362
 51
265.6141359999995
  0
ARC
  5
2D3
330
1F
100
AcDbEntity
  8
化粧台
  6
CONTINUOUS
 62
     6
100
AcDbCircle
 10
1050.165039
 20
2875.656677000001
 30
0.0
 40
150.0
100
AcDbArc
 50
259.7434884679459
 51
265.9890140000002
  0
LINE
  5
2D4
330
1F
100
AcDbEntity
  8
化粧台
  6
EXLTYPE3
 62
     6
100
AcDbLine
 10
920.0
 20
2704.5
 30
0.0
 11
920.0
 21
754.0000000000001
 31
0.0
  0
TEXT
  5
2D5
330
1F
100
AcDbEntity
  8
化粧台
  6
CONTINUOUS
 62
     2
100
AcDbText
 10
1810.999999999997
 20
794.0
 30
0.0
 40
59.99999618530273
  1
F.L.
 41
0.6227488631227187
  7
EXCADSTD
 72
     5
 11
1901.743399999997
 21
794.0
 31
0.0
100
AcDbText
  0
LINE
  5
2D6
330
1F
100
AcDbEntity
  8
化粧台
  6
CONTINUOUS
 62
     2
100
AcDbLine
 10
2439.5
 20
1494.0
 30
0.0
 11
2439.5
 21
794.0
 31
0.0
  0
LINE
  5
2D7
330
1F
100
AcDbEntity
  8
化粧台
  6
CONTINUOUS
 62
     6
100
AcDbLine
 10
2438.900000000003
 20
1416.0
 30
0.0
 11
2471.400000000003
 21
1413.999999999998
 31
0.0
  0
LINE
  5
2D8
330
1F
100
AcDbEntity
  8
化粧台
  6
CONTINUOUS
 62
     6
100
AcDbLine
 10
2471.400000000003
 20
1413.999999999998
 30
0.0
 11
2438.900000000003
 21
1412.0
 31
0.0
  0
LINE
  5
2D9
330
1F
100
AcDbEntity
  8
化粧台
  6
CONTINUOUS
 62
     6
100
AcDbLine
 10
2407.000000000002
 20
1413.999999999998
 30
0.0
 11
2481.4
 21
1413.999999999998
 31
0.0
  0
LINE
  5
2DA
330
1F
100
AcDbEntity
  8
化粧台
  6
CONTINUOUS
 62
     2
100
AcDbLine
 10
2310.0
 20
1800.383863229599
 30
0.0
 11
2351.0
 21
1800.383863229599
 31
0.0
  0
LINE
  5
2DB
330
1F
100
AcDbEntity
  8
化粧台
  6
CONTINUOUS
 62
     2
100
AcDbLine
 10
2310.0
 20
1777.883863229599
 30
0.0
 11
2351.0
 21
1777.883863229599
 31
0.0
  0
LINE
  5
2DC
330
1F
100
AcDbEntity
  8
化粧台
  6
CONTINUOUS
 62
     2
100
AcDbLine
 10
2310.0
 20
1780.383863229599
 30
0.0
 11
2351.0
 21
1780.383863229599
 31
0.0
  0
LINE
  5
2DD
330
1F
100
AcDbEntity
  8
化粧台
  6
CONTINUOUS
 62
     2
100
AcDbLine
 10
2207.343229916671
 20
1726.187427585266
 30
0.0
 11
2223.656770083329
 21
1718.580298873934
 31
0.0
  0
LINE
  5
2DE
330
1F
100
AcDbEntity
  8
化粧台
  6
CONTINUOUS
 62
     2
100
AcDbLine
 10
2260.0
 20
1797.383863229599
 30
0.0
 11
2260.0
 21
1789.383863229599
 31
0.0
  0
LINE
  5
2DF
330
1F
100
AcDbEntity
  8
化粧台
  6
CONTINUOUS
 62
     2
100
AcDbLine
 10
2260.0
 20
1797.383863229599
 30
0.0
 11
2310.0
 21
1797.383863229599
 31
0.0
  0
LINE
  5
2E0
330
1F
100
AcDbEntity
  8
化粧台
  6
CONTINUOUS
 62
     2
100
AcDbLine
 10
2260.0
 20
1789.383863229599
 30
0.0
 11
2310.0
 21
1789.383863229599
 31
0.0
  0
LINE
  5
2E1
330
1F
100
AcDbEntity
  8
化粧台
  6
CONTINUOUS
 62
     2
100
AcDbLine
 10
2310.0
 20
1800.383863229599
 30
0.0
 11
2310.0
 21
1797.383863229599
 31
0.0
  0
LINE
  5
2E2
330
1F
100
AcDbEntity
  8
化粧台
  6
CONTINUOUS
 62
     2
100
AcDbLine
 10
2206.645936587071
 20
1756.459405565822
 30
0.0
 11
2200.175460459508
 21
1732.311259908594
 31
0.0
  0
LINE
  5
2E3
330
1F
100
AcDbEntity
  8
化粧台
  6
CONTINUOUS
 62
     2
100
AcDbLine
 10
2207.343229916671
 20
1726.187427585266
 30
0.0
 11
2209.085534890926
 21
1729.923812660196
 31
0.0
  0
LINE
  5
2E4
330
1F
100
AcDbEntity
  8
化粧台
  6
CONTINUOUS
 62
     2
100
AcDbLine
 10
2223.656770083329
 20
1718.580298873934
 30
0.0
 11
2226.740417095116
 21
1725.193201231115
 31
0.0
  0
LINE
  5
2E5
330
1F
100
AcDbEntity
  8
化粧台
  6
CONTINUOUS
 62
     2
100
AcDbLine
 10
2310.0
 20
1728.765767739853
 30
0.0
 11
2206.645936587071
 21
1756.459405565822
 31
0.0
  0
ELLIPSE
  5
2E6
330
1F
100
AcDbEntity
  8
化粧台
  6
CONTINUOUS
 62
     2
100
AcDbEllipse
 10
2217.91297599302
 20
1727.558506945659
 30
0.0
 11
8.82744110209002
 21
-2.365305714539992
 31
0.0
210
0.0
220
0.0
230
1.0
 40
0.2008080480591833
 41
6.212399125644338
 42
9.424777960772342
  0
LINE
  5
2E7
330
1F
100
AcDbEntity
  8
化粧台
  6
CONTINUOUS
 62
     2
100
AcDbLine
 10
2310.0
 20
1702.883863229601
 30
0.0
 11
2226.74041709511
 21
1725.193201231117
 31
0.0
  0
LINE
  5
2E8
330
1F
100
AcDbEntity
  8
化粧台
  6
CONTINUOUS
 62
     2
100
AcDbLine
 10
2209.085534890928
 20
1729.923812660194
 30
0.0
 11
2200.175460459508
 21
1732.311259908594
 31
0.0
  0
ELLIPSE
  5
2E9
330
1F
100
AcDbEntity
  8
化粧台
  6
CONTINUOUS
 62
     6
100
AcDbEllipse
 10
2310.0
 20
1793.383863229599
 30
0.0
 11
-2.419605899270905E-15
 21
4.0
 31
0.0
210
0.0
220
0.0
230
1.0
 40
0.0985076842800083
 41
3.141592653589783
 42
6.283185307179586
  0
ELLIPSE
  5
2EA
330
1F
100
AcDbEntity
  8
化粧台
  6
CONTINUOUS
 62
     6
100
AcDbEllipse
 10
2310.0
 20
1715.824815484724
 30
0.0
 11
-7.828001104670888E-15
 21
12.94095225512499
 31
0.0
210
0.0
220
0.0
230
1.0
 40
0.3285633937059089
 41
2.96596886574654
 42
6.283185307179586
  0
LINE
  5
2EB
330
1F
100
AcDbEntity
  8
化粧台
  6
CONTINUOUS
 62
     2
100
AcDbLine
 10
2310.0
 20
1789.383863229599
 30
0.0
 11
2310.0
 21
1728.765767739849
 31
0.0
  0
LINE
  5
2EC
330
1F
100
AcDbEntity
  8
化粧台
  6
CONTINUOUS
 62
     2
100
AcDbLine
 10
2378.66849742968
 20
1752.234817952478
 30
0.0
 11
2377.833458823921
 21
1746.293209540023
 31
0.0
  0
LINE
  5
2ED
330
1F
100
AcDbEntity
  8
化粧台
  6
CONTINUOUS
 62
     2
100
AcDbLine
 10
2378.66849742968
 20
1752.234817952478
 30
0.0
 11
2361.833940261073
 21
1754.600760668794
 31
0.0
  0
LINE
  5
2EE
330
1F
100
AcDbEntity
  8
化粧台
  6
CONTINUOUS
 62
     2
100
AcDbLine
 10
2360.998901655317
 20
1748.659152256345
 30
0.0
 11
2377.833458823923
 21
1746.293209540028
 31
0.0
  0
ARC
  5
2EF
330
1F
100
AcDbEntity
  8
化粧台
  6
CONTINUOUS
 62
     2
100
AcDbCircle
 10
2360.720555453394
 20
1746.678616118863
 30
0.0
 40
8.0
100
AcDbArc
 50
82.00000000001323
 51
172.000000000012
  0
ARC
  5
2F0
330
1F
100
AcDbEntity
  8
化粧台
  6
CONTINUOUS
 62
     2
100
AcDbCircle
 10
2360.720555453398
 20
1746.678616118861
 30
0.0
 40
2.0
100
AcDbArc
 50
82.00000000000892
 51
172.000000000012
  0
LINE
  5
2F1
330
1F
100
AcDbEntity
  8
化粧台
  6
CONTINUOUS
 62
     2
100
AcDbLine
 10
2352.798410903462
 20
1747.792000926542
 30
0.0
 11
2351.0
 21
1734.995642435628
 31
0.0
  0
LINE
  5
2F2
330
1F
100
AcDbEntity
  8
化粧台
  6
CONTINUOUS
 62
     2
100
AcDbLine
 10
2351.0
 20
1691.883863229597
 30
0.0
 11
2358.740019315912
 21
1746.956962320783
 31
0.0
  0
LINE
  5
2F3
330
1F
100
AcDbEntity
  8
化粧台
  6
EXLTYPE3
 62
     6
100
AcDbLine
 10
2330.499999999602
 20
1815.0
 30
0.0
 11
2330.499999999602
 21
1640.0
 31
0.0
  0
LINE
  5
2F4
330
1F
100
AcDbEntity
  8
化粧台
  6
CONTINUOUS
 62
     2
100
AcDbLine
 10
1964.38639297323
 20
1653.998709177724
 30
0.0
 11
2404.386392973234
 21
1663.998709177725
 31
0.0
  0
ARC
  5
2F5
330
1F
100
AcDbEntity
  8
化粧台
  6
CONTINUOUS
 62
     2
100
AcDbCircle
 10
1964.499999999996
 20
1649.0
 30
0.0
 40
5.0
100
AcDbArc
 50
91.30195267257358
 51
214.3818111228703
  0
ARC
  5
2F6
330
1F
100
AcDbEntity
  8
化粧台
  6
CONTINUOUS
 62
     2
100
AcDbCircle
 10
2404.500000000002
 20
1659.0
 30
0.0
 40
5.0
100
AcDbArc
 50
357.4931953294174
 51
91.3019526725733
  0
LINE
  5
2F7
330
1F
100
AcDbEntity
  8
化粧台
  6
CONTINUOUS
 62
     2
100
AcDbLine
 10
2351.0
 20
1800.383863229599
 30
0.0
 11
2351.0
 21
1662.785382064697
 31
0.0
  0
LINE
  5
2F8
330
1F
100
AcDbEntity
  8
化粧台
  6
CONTINUOUS
 62
     2
100
AcDbLine
 10
2310.0
 20
1702.883863229601
 30
0.0
 11
2310.0
 21
1661.853563882878
 31
0.0
  0
LINE
  5
2F9
330
1F
100
AcDbEntity
  8
化粧台
  6
CONTINUOUS
 62
     2
100
AcDbLine
 10
2409.495215170637
 20
1658.781309810367
 30
0.0
 11
2402.50257047937
 21
1494.0
 31
0.0
  0
LINE
  5
2FA
330
1F
100
AcDbEntity
  8
化粧台
  6
CONTINUOUS
 62
     2
100
AcDbLine
 10
1960.373535956265
 20
1646.176474810494
 30
0.0
 11
2064.500000000002
 21
1494.0
 31
0.0
  0
LINE
  5
2FB
330
1F
100
AcDbEntity
  8
化粧台
  6
EXLTYPE2
 62
     6
100
AcDbLine
 10
2297.825036024318
 20
1356.636113773615
 30
0.0
 11
2303.766644436768
 21
1355.801075167856
 31
0.0
  0
LINE
  5
2FC
330
1F
100
AcDbEntity
  8
化粧台
  6
EXLTYPE2
 62
     6
100
AcDbLine
 10
2376.500000000002
 20
1459.0
 30
0.0
 11
2376.500000000002
 21
1453.0
 31
0.0
  0
LINE
  5
2FD
330
1F
100
AcDbEntity
  8
化粧台
  6
EXLTYPE2
 62
     6
100
AcDbLine
 10
2237.000000000002
 20
1468.0
 30
0.0
 11
2237.000000000002
 21
1444.0
 31
0.0
  0
LINE
  5
2FE
330
1F
100
AcDbEntity
  8
化粧台
  6
EXLTYPE2
 62
     6
100
AcDbLine
 10
2243.500000000002
 20
1468.0
 30
0.0
 11
2243.500000000002
 21
1444.0
 31
0.0
  0
LINE
  5
2FF
330
1F
100
AcDbEntity
  8
化粧台
  6
EXLTYPE2
 62
     6
100
AcDbLine
 10
2232.000000000002
 20
1466.5
 30
0.0
 11
2223.500000000002
 21
1466.5
 31
0.0
  0
LINE
  5
300
330
1F
100
AcDbEntity
  8
化粧台
  6
EXLTYPE2
 62
     6
100
AcDbLine
 10
2255.500000000002
 20
1464.0
 30
0.0
 11
2255.500000000002
 21
1448.0
 31
0.0
  0
LINE
  5
301
330
1F
100
AcDbEntity
  8
化粧台
  6
EXLTYPE2
 62
     6
100
AcDbLine
 10
2232.000000000002
 20
1467.5
 30
0.0
 11
2232.000000000002
 21
1444.5
 31
0.0
  0
LINE
  5
302
330
1F
100
AcDbEntity
  8
化粧台
  6
EXLTYPE2
 62
     6
100
AcDbLine
 10
2243.500000000002
 20
1468.0
 30
0.0
 11
2237.000000000002
 21
1468.0
 31
0.0
  0
ARC
  5
303
330
1F
100
AcDbEntity
  8
化粧台
  6
EXLTYPE2
 62
     6
100
AcDbCircle
 10
2252.500000000002
 20
1464.0
 30
0.0
 40
3.000000000000003
100
AcDbArc
 50
0.0
 51
90.00000000000004
  0
LINE
  5
304
330
1F
100
AcDbEntity
  8
化粧台
  6
EXLTYPE2
 62
     6
100
AcDbLine
 10
2252.500000000002
 20
1467.0
 30
0.0
 11
2243.500000000002
 21
1467.0
 31
0.0
  0
LINE
  5
305
330
1F
100
AcDbEntity
  8
化粧台
  6
EXLTYPE2
 62
     6
100
AcDbLine
 10
2223.500000000002
 20
1466.5
 30
0.0
 11
2223.500000000002
 21
1445.5
 31
0.0
  0
LINE
  5
306
330
1F
100
AcDbEntity
  8
化粧台
  6
EXLTYPE2
 62
     6
100
AcDbLine
 10
2201.500000000002
 20
1476.5
 30
0.0
 11
2201.500000000002
 21
1469.178400000001
 31
0.0
  0
LINE
  5
307
330
1F
100
AcDbEntity
  8
化粧台
  6
EXLTYPE2
 62
     6
100
AcDbLine
 10
2204.161264000004
 20
1466.197584
 30
0.0
 11
2223.500000000002
 21
1464.0
 31
0.0
  0
ARC
  5
308
330
1F
100
AcDbEntity
  8
化粧台
  6
EXLTYPE2
 62
     6
100
AcDbCircle
 10
2204.500000000002
 20
1469.178400000001
 30
0.0
 40
3.000000000000003
100
AcDbArc
 50
180.0
 51
263.5169260000002
  0
LINE
  5
309
330
1F
100
AcDbEntity
  8
化粧台
  6
EXLTYPE2
 62
     6
100
AcDbLine
 10
2161.500000000002
 20
1476.5
 30
0.0
 11
2161.500000000002
 21
1439.0
 31
0.0
  0
ARC
  5
30A
330
1F
100
AcDbEntity
  8
化粧台
  6
EXLTYPE2
 62
     6
100
AcDbCircle
 10
2163.500000000002
 20
1480.0
 30
0.0
 40
3.500000000000002
100
AcDbArc
 50
90.00000000000004
 51
270.0000000000002
  0
ARC
  5
30B
330
1F
100
AcDbEntity
  8
化粧台
  6
EXLTYPE2
 62
     6
100
AcDbCircle
 10
2199.500000000002
 20
1480.0
 30
0.0
 40
3.500000000000002
100
AcDbArc
 50
270.0000000000002
 51
90.00000000000004
  0
LINE
  5
30C
330
1F
100
AcDbEntity
  8
化粧台
  6
EXLTYPE2
 62
     6
100
AcDbLine
 10
2199.500000000002
 20
1483.5
 30
0.0
 11
2163.500000000002
 21
1483.5
 31
0.0
  0
LINE
  5
30D
330
1F
100
AcDbEntity
  8
化粧台
  6
EXLTYPE2
 62
     6
100
AcDbLine
 10
2154.000000000002
 20
1492.33333333333
 30
0.0
 11
2209.000000000002
 21
1492.33333333333
 31
0.0
  0
LINE
  5
30E
330
1F
100
AcDbEntity
  8
化粧台
  6
EXLTYPE2
 62
     6
100
AcDbLine
 10
2155.500000000002
 20
1492.33333333333
 30
0.0
 11
2207.500000000002
 21
1492.33333333333
 31
0.0
  0
LINE
  5
30F
330
1F
100
AcDbEntity
  8
化粧台
  6
EXLTYPE2
 62
     6
100
AcDbLine
 10
2199.000000000002
 20
1483.83333333333
 30
0.0
 11
2199.000000000002
 21
1483.5
 31
0.0
  0
LINE
  5
310
330
1F
100
AcDbEntity
  8
化粧台
  6
EXLTYPE2
 62
     6
100
AcDbLine
 10
2164.000000000002
 20
1483.83333333333
 30
0.0
 11
2164.000000000002
 21
1483.5
 31
0.0
  0
LINE
  5
311
330
1F
100
AcDbEntity
  8
化粧台
  6
EXLTYPE2
 62
     6
100
AcDbLine
 10
2237.000000000002
 20
1467.5
 30
0.0
 11
2232.000000000002
 21
1467.5
 31
0.0
  0
LINE
  5
312
330
1F
100
AcDbEntity
  8
化粧台
  6
EXLTYPE2
 62
     6
100
AcDbLine
 10
2201.500000000002
 20
1476.5
 30
0.0
 11
2161.500000000002
 21
1476.5
 31
0.0
  0
LINE
  5
313
330
1F
100
AcDbEntity
  8
化粧台
  6
EXLTYPE2
 62
     6
100
AcDbLine
 10
2207.500000000002
 20
1490.83333333333
 30
0.0
 11
2207.500000000002
 21
1492.33333333333
 31
0.0
  0
LINE
  5
314
330
1F
100
AcDbEntity
  8
化粧台
  6
EXLTYPE2
 62
     6
100
AcDbLine
 10
2155.500000000002
 20
1490.83333333333
 30
0.0
 11
2155.500000000002
 21
1492.33333333333
 31
0.0
  0
LINE
  5
315
330
1F
100
AcDbEntity
  8
化粧台
  6
EXLTYPE2
 62
     6
100
AcDbLine
 10
2155.500000000002
 20
1490.83333333333
 30
0.0
 11
2207.500000000002
 21
1490.83333333333
 31
0.0
  0
LINE
  5
316
330
1F
100
AcDbEntity
  8
化粧台
  6
EXLTYPE2
 62
     6
100
AcDbLine
 10
2160.532256000002
 20
1483.83333333333
 30
0.0
 11
2160.532256000002
 21
1490.83333333333
 31
0.0
  0
LINE
  5
317
330
1F
100
AcDbEntity
  8
化粧台
  6
EXLTYPE2
 62
     6
100
AcDbLine
 10
2160.532256000002
 20
1483.83333333333
 30
0.0
 11
2202.467736000002
 21
1483.83333333333
 31
0.0
  0
LINE
  5
318
330
1F
100
AcDbEntity
  8
化粧台
  6
EXLTYPE2
 62
     6
100
AcDbLine
 10
2202.467736000002
 20
1483.83333333333
 30
0.0
 11
2202.467736000002
 21
1490.83333333333
 31
0.0
  0
LINE
  5
319
330
1F
100
AcDbEntity
  8
化粧台
  6
EXLTYPE2
 62
     6
100
AcDbLine
 10
2154.000000000002
 20
1493.33333333333
 30
0.0
 11
2209.000000000002
 21
1493.33333333333
 31
0.0
  0
LINE
  5
31A
330
1F
100
AcDbEntity
  8
化粧台
  6
EXLTYPE2
 62
     6
100
AcDbLine
 10
2171.435480000002
 20
1483.83333333333
 30
0.0
 11
2171.435480000002
 21
1490.83333333333
 31
0.0
  0
LINE
  5
31B
330
1F
100
AcDbEntity
  8
化粧台
  6
EXLTYPE2
 62
     6
100
AcDbLine
 10
2170.177416000002
 20
1483.83333333333
 30
0.0
 11
2170.177416000002
 21
1490.83333333333
 31
0.0
  0
LINE
  5
31C
330
1F
100
AcDbEntity
  8
化粧台
  6
EXLTYPE2
 62
     6
100
AcDbLine
 10
2191.564512000003
 20
1483.83333333333
 30
0.0
 11
2191.564512000003
 21
1490.83333333333
 31
0.0
  0
LINE
  5
31D
330
1F
100
AcDbEntity
  8
化粧台
  6
EXLTYPE2
 62
     6
100
AcDbLine
 10
2192.822576000002
 20
1483.83333333333
 30
0.0
 11
2192.822576000002
 21
1490.83333333333
 31
0.0
  0
POLYLINE
  5
31E
330
1F
100
AcDbEntity
  8
化粧台
  6
EXLTYPE2
 62
     6
100
AcDb2dPolyline
 66
     1
 10
0.0
 20
0.0
 30
0.0
 70
   128
  0
VERTEX
  5
31F
330
31E
100
AcDbEntity
  8
化粧台
  6
EXLTYPE2
 62
     6
100
AcDbVertex
100
AcDb2dVertex
 10
2193.859798000003
 20
1480.000204
 30
0.0
  0
VERTEX
  5
320
330
31E
100
AcDbEntity
  8
化粧台
  6
EXLTYPE2
 62
     6
100
AcDbVertex
100
AcDb2dVertex
 10
2193.871936000003
 20
1479.734399999999
 30
0.0
  0
VERTEX
  5
321
330
31E
100
AcDbEntity
  8
化粧台
  6
EXLTYPE2
 62
     6
100
AcDbVertex
100
AcDb2dVertex
 10
2193.906730000002
 20
1479.476546
 30
0.0
  0
VERTEX
  5
322
330
31E
100
AcDbEntity
  8
化粧台
  6
EXLTYPE2
 62
     6
100
AcDbVertex
100
AcDb2dVertex
 10
2193.961282000002
 20
1479.23489
 30
0.0
  0
VERTEX
  5
323
330
31E
100
AcDbEntity
  8
化粧台
  6
EXLTYPE2
 62
     6
100
AcDbVertex
100
AcDb2dVertex
 10
2194.032054000003
 20
1479.010399999999
 30
0.0
  0
VERTEX
  5
324
330
31E
100
AcDbEntity
  8
化粧台
  6
EXLTYPE2
 62
     6
100
AcDbVertex
100
AcDb2dVertex
 10
2194.127754000003
 20
1478.77821
 30
0.0
  0
VERTEX
  5
325
330
31E
100
AcDbEntity
  8
化粧台
  6
EXLTYPE2
 62
     6
100
AcDbVertex
100
AcDb2dVertex
 10
2194.236384000003
 20
1478.568298
 30
0.0
  0
VERTEX
  5
326
330
31E
100
AcDbEntity
  8
化粧台
  6
EXLTYPE2
 62
     6
100
AcDbVertex
100
AcDb2dVertex
 10
2194.354228000002
 20
1478.380126
 30
0.0
  0
VERTEX
  5
327
330
31E
100
AcDbEntity
  8
化粧台
  6
EXLTYPE2
 62
     6
100
AcDbVertex
100
AcDb2dVertex
 10
2194.583200000003
 20
1478.087611999999
 30
0.0
  0
VERTEX
  5
328
330
31E
100
AcDbEntity
  8
化粧台
  6
EXLTYPE2
 62
     6
100
AcDbVertex
100
AcDb2dVertex
 10
2194.827730000003
 20
1477.845890000001
 30
0.0
  0
VERTEX
  5
329
330
31E
100
AcDbEntity
  8
化粧台
  6
EXLTYPE2
 62
     6
100
AcDbVertex
100
AcDb2dVertex
 10
2195.081306000002
 20
1477.646556
 30
0.0
  0
VERTEX
  5
32A
330
31E
100
AcDbEntity
  8
化粧台
  6
EXLTYPE2
 62
     6
100
AcDbVertex
100
AcDb2dVertex
 10
2195.472234000003
 20
1477.405189999999
 30
0.0
  0
VERTEX
  5
32B
330
31E
100
AcDbEntity
  8
化粧台
  6
EXLTYPE2
 62
     6
100
AcDbVertex
100
AcDb2dVertex
 10
2195.871560000003
 20
1477.220906
 30
0.0
  0
VERTEX
  5
32C
330
31E
100
AcDbEntity
  8
化粧台
  6
EXLTYPE2
 62
     6
100
AcDbVertex
100
AcDb2dVertex
 10
2196.277002000003
 20
1477.084806000001
 30
0.0
  0
VERTEX
  5
32D
330
31E
100
AcDbEntity
  8
化粧台
  6
EXLTYPE2
 62
     6
100
AcDbVertex
100
AcDb2dVertex
 10
2196.686276000002
 20
1476.987986
 30
0.0
  0
VERTEX
  5
32E
330
31E
100
AcDbEntity
  8
化粧台
  6
EXLTYPE2
 62
     6
100
AcDbVertex
100
AcDb2dVertex
 10
2197.097094000002
 20
1476.921546
 30
0.0
  0
VERTEX
  5
32F
330
31E
100
AcDbEntity
  8
化粧台
  6
EXLTYPE2
 62
     6
100
AcDbVertex
100
AcDb2dVertex
 10
2197.507174000004
 20
1476.876586
 30
0.0
  0
VERTEX
  5
330
330
31E
100
AcDbEntity
  8
化粧台
  6
EXLTYPE2
 62
     6
100
AcDbVertex
100
AcDb2dVertex
 10
2198.096514000003
 20
1476.840952
 30
0.0
  0
VERTEX
  5
331
330
31E
100
AcDbEntity
  8
化粧台
  6
EXLTYPE2
 62
     6
100
AcDbVertex
100
AcDb2dVertex
 10
2198.686260000002
 20
1476.841178000001
 30
0.0
  0
VERTEX
  5
332
330
31E
100
AcDbEntity
  8
化粧台
  6
EXLTYPE2
 62
     6
100
AcDbVertex
100
AcDb2dVertex
 10
2199.275592000004
 20
1476.877296000001
 30
0.0
  0
VERTEX
  5
333
330
31E
100
AcDbEntity
  8
化粧台
  6
EXLTYPE2
 62
     6
100
AcDbVertex
100
AcDb2dVertex
 10
2199.889334000003
 20
1476.95707
 30
0.0
  0
VERTEX
  5
334
330
31E
100
AcDbEntity
  8
化粧台
  6
EXLTYPE2
 62
     6
100
AcDbVertex
100
AcDb2dVertex
 10
2200.500332000003
 20
1477.095294000001
 30
0.0
  0
VERTEX
  5
335
330
31E
100
AcDbEntity
  8
化粧台
  6
EXLTYPE2
 62
     6
100
AcDbVertex
100
AcDb2dVertex
 10
2200.837392000003
 20
1477.203774
 30
0.0
  0
VERTEX
  5
336
330
31E
100
AcDbEntity
  8
化粧台
  6
EXLTYPE2
 62
     6
100
AcDbVertex
100
AcDb2dVertex
 10
2201.172208000002
 20
1477.342581999999
 30
0.0
  0
VERTEX
  5
337
330
31E
100
AcDbEntity
  8
化粧台
  6
EXLTYPE2
 62
     6
100
AcDbVertex
100
AcDb2dVertex
 10
2201.501942000003
 20
1477.519844
 30
0.0
  0
VERTEX
  5
338
330
31E
100
AcDbEntity
  8
化粧台
  6
EXLTYPE2
 62
     6
100
AcDbVertex
100
AcDb2dVertex
 10
2201.823756000003
 20
1477.743678000001
 30
0.0
  0
VERTEX
  5
339
330
31E
100
AcDbEntity
  8
化粧台
  6
EXLTYPE2
 62
     6
100
AcDbVertex
100
AcDb2dVertex
 10
2202.057706000003
 20
1477.948528000001
 30
0.0
  0
VERTEX
  5
33A
330
31E
100
AcDbEntity
  8
化粧台
  6
EXLTYPE2
 62
     6
100
AcDbVertex
100
AcDb2dVertex
 10
2202.281616000002
 20
1478.193542000001
 30
0.0
  0
VERTEX
  5
33B
330
31E
100
AcDbEntity
  8
化粧台
  6
EXLTYPE2
 62
     6
100
AcDbVertex
100
AcDb2dVertex
 10
2202.424178000003
 20
1478.385028000001
 30
0.0
  0
VERTEX
  5
33C
330
31E
100
AcDbEntity
  8
化粧台
  6
EXLTYPE2
 62
     6
100
AcDbVertex
100
AcDb2dVertex
 10
2202.557640000003
 20
1478.601986
 30
0.0
  0
VERTEX
  5
33D
330
31E
100
AcDbEntity
  8
化粧台
  6
EXLTYPE2
 62
     6
100
AcDbVertex
100
AcDb2dVertex
 10
2202.677780000004
 20
1478.846264
 30
0.0
  0
VERTEX
  5
33E
330
31E
100
AcDbEntity
  8
化粧台
  6
EXLTYPE2
 62
     6
100
AcDbVertex
100
AcDb2dVertex
 10
2202.769362000003
 20
1479.087092
 30
0.0
  0
VERTEX
  5
33F
330
31E
100
AcDbEntity
  8
化粧台
  6
EXLTYPE2
 62
     6
100
AcDbVertex
100
AcDb2dVertex
 10
2202.842714000004
 20
1479.351294
 30
0.0
  0
VERTEX
  5
340
330
31E
100
AcDbEntity
  8
化粧台
  6
EXLTYPE2
 62
     6
100
AcDbVertex
100
AcDb2dVertex
 10
2202.887832000002
 20
1479.600428
 30
0.0
  0
VERTEX
  5
341
330
31E
100
AcDbEntity
  8
化粧台
  6
EXLTYPE2
 62
     6
100
AcDbVertex
100
AcDb2dVertex
 10
2202.911894000003
 20
1479.860774000001
 30
0.0
  0
VERTEX
  5
342
330
31E
100
AcDbEntity
  8
化粧台
  6
EXLTYPE2
 62
     6
100
AcDbVertex
100
AcDb2dVertex
 10
2202.915184000003
 20
1480.000204
 30
0.0
  0
VERTEX
  5
343
330
31E
100
AcDbEntity
  8
化粧台
  6
EXLTYPE2
 62
     6
100
AcDbVertex
100
AcDb2dVertex
 10
2202.903028000002
 20
1480.265804000001
 30
0.0
  0
VERTEX
  5
344
330
31E
100
AcDbEntity
  8
化粧台
  6
EXLTYPE2
 62
     6
100
AcDbVertex
100
AcDb2dVertex
 10
2202.868250000003
 20
1480.52346
 30
0.0
  0
VERTEX
  5
345
330
31E
100
AcDbEntity
  8
化粧台
  6
EXLTYPE2
 62
     6
100
AcDbVertex
100
AcDb2dVertex
 10
2202.813700000002
 20
1480.765117999999
 30
0.0
  0
VERTEX
  5
346
330
31E
100
AcDbEntity
  8
化粧台
  6
EXLTYPE2
 62
     6
100
AcDbVertex
100
AcDb2dVertex
 10
2202.742928000003
 20
1480.989608
 30
0.0
  0
VERTEX
  5
347
330
31E
100
AcDbEntity
  8
化粧台
  6
EXLTYPE2
 62
     6
100
AcDbVertex
100
AcDb2dVertex
 10
2202.647228000003
 20
1481.221798
 30
0.0
  0
VERTEX
  5
348
330
31E
100
AcDbEntity
  8
化粧台
  6
EXLTYPE2
 62
     6
100
AcDbVertex
100
AcDb2dVertex
 10
2202.538598000003
 20
1481.431708
 30
0.0
  0
VERTEX
  5
349
330
31E
100
AcDbEntity
  8
化粧台
  6
EXLTYPE2
 62
     6
100
AcDbVertex
100
AcDb2dVertex
 10
2202.420754000002
 20
1481.619882000001
 30
0.0
  0
VERTEX
  5
34A
330
31E
100
AcDbEntity
  8
化粧台
  6
EXLTYPE2
 62
     6
100
AcDbVertex
100
AcDb2dVertex
 10
2202.191782000004
 20
1481.912396
 30
0.0
  0
VERTEX
  5
34B
330
31E
100
AcDbEntity
  8
化粧台
  6
EXLTYPE2
 62
     6
100
AcDbVertex
100
AcDb2dVertex
 10
2201.947252000004
 20
1482.154116
 30
0.0
  0
VERTEX
  5
34C
330
31E
100
AcDbEntity
  8
化粧台
  6
EXLTYPE2
 62
     6
100
AcDbVertex
100
AcDb2dVertex
 10
2201.693676000003
 20
1482.353450000001
 30
0.0
  0
VERTEX
  5
34D
330
31E
100
AcDbEntity
  8
化粧台
  6
EXLTYPE2
 62
     6
100
AcDbVertex
100
AcDb2dVertex
 10
2201.302748000004
 20
1482.594818
 30
0.0
  0
VERTEX
  5
34E
330
31E
100
AcDbEntity
  8
化粧台
  6
EXLTYPE2
 62
     6
100
AcDbVertex
100
AcDb2dVertex
 10
2200.903422000003
 20
1482.7791
 30
0.0
  0
VERTEX
  5
34F
330
31E
100
AcDbEntity
  8
化粧台
  6
EXLTYPE2
 62
     6
100
AcDbVertex
100
AcDb2dVertex
 10
2200.497980000002
 20
1482.915202
 30
0.0
  0
VERTEX
  5
350
330
31E
100
AcDbEntity
  8
化粧台
  6
EXLTYPE2
 62
     6
100
AcDbVertex
100
AcDb2dVertex
 10
2200.088706000002
 20
1483.012022000001
 30
0.0
  0
VERTEX
  5
351
330
31E
100
AcDbEntity
  8
化粧台
  6
EXLTYPE2
 62
     6
100
AcDbVertex
100
AcDb2dVertex
 10
2199.677888000004
 20
1483.078461999999
 30
0.0
  0
VERTEX
  5
352
330
31E
100
AcDbEntity
  8
化粧台
  6
EXLTYPE2
 62
     6
100
AcDbVertex
100
AcDb2dVertex
 10
2199.267808000002
 20
1483.123422000001
 30
0.0
  0
VERTEX
  5
353
330
31E
100
AcDbEntity
  8
化粧台
  6
EXLTYPE2
 62
     6
100
AcDbVertex
100
AcDb2dVertex
 10
2198.678468000004
 20
1483.159056
 30
0.0
  0
VERTEX
  5
354
330
31E
100
AcDbEntity
  8
化粧台
  6
EXLTYPE2
 62
     6
100
AcDbVertex
100
AcDb2dVertex
 10
2198.088722000002
 20
1483.15883
 30
0.0
  0
VERTEX
  5
355
330
31E
100
AcDbEntity
  8
化粧台
  6
EXLTYPE2
 62
     6
100
AcDbVertex
100
AcDb2dVertex
 10
2197.499390000003
 20
1483.12271
 30
0.0
  0
VERTEX
  5
356
330
31E
100
AcDbEntity
  8
化粧台
  6
EXLTYPE2
 62
     6
100
AcDbVertex
100
AcDb2dVertex
 10
2196.885648000003
 20
1483.042938000001
 30
0.0
  0
VERTEX
  5
357
330
31E
100
AcDbEntity
  8
化粧台
  6
EXLTYPE2
 62
     6
100
AcDbVertex
100
AcDb2dVertex
 10
2196.274650000003
 20
1482.904714
 30
0.0
  0
VERTEX
  5
358
330
31E
100
AcDbEntity
  8
化粧台
  6
EXLTYPE2
 62
     6
100
AcDbVertex
100
AcDb2dVertex
 10
2195.937590000003
 20
1482.796233999999
 30
0.0
  0
VERTEX
  5
359
330
31E
100
AcDbEntity
  8
化粧台
  6
EXLTYPE2
 62
     6
100
AcDbVertex
100
AcDb2dVertex
 10
2195.602772000004
 20
1482.657426
 30
0.0
  0
VERTEX
  5
35A
330
31E
100
AcDbEntity
  8
化粧台
  6
EXLTYPE2
 62
     6
100
AcDbVertex
100
AcDb2dVertex
 10
2195.273040000002
 20
1482.480164000001
 30
0.0
  0
VERTEX
  5
35B
330
31E
100
AcDbEntity
  8
化粧台
  6
EXLTYPE2
 62
     6
100
AcDbVertex
100
AcDb2dVertex
 10
2194.951226000003
 20
1482.256327999999
 30
0.0
  0
VERTEX
  5
35C
330
31E
100
AcDbEntity
  8
化粧台
  6
EXLTYPE2
 62
     6
100
AcDbVertex
100
AcDb2dVertex
 10
2194.717276000003
 20
1482.05148
 30
0.0
  0
VERTEX
  5
35D
330
31E
100
AcDbEntity
  8
化粧台
  6
EXLTYPE2
 62
     6
100
AcDbVertex
100
AcDb2dVertex
 10
2194.493366000002
 20
1481.806463999999
 30
0.0
  0
VERTEX
  5
35E
330
31E
100
AcDbEntity
  8
化粧台
  6
EXLTYPE2
 62
     6
100
AcDbVertex
100
AcDb2dVertex
 10
2194.350804000003
 20
1481.61498
 30
0.0
  0
VERTEX
  5
35F
330
31E
100
AcDbEntity
  8
化粧台
  6
EXLTYPE2
 62
     6
100
AcDbVertex
100
AcDb2dVertex
 10
2194.217342000004
 20
1481.398021999999
 30
0.0
  0
VERTEX
  5
360
330
31E
100
AcDbEntity
  8
化粧台
  6
EXLTYPE2
 62
     6
100
AcDbVertex
100
AcDb2dVertex
 10
2194.097202000003
 20
1481.153742
 30
0.0
  0
VERTEX
  5
361
330
31E
100
AcDbEntity
  8
化粧台
  6
EXLTYPE2
 62
     6
100
AcDbVertex
100
AcDb2dVertex
 10
2194.005620000004
 20
1480.912915999999
 30
0.0
  0
VERTEX
  5
362
330
31E
100
AcDbEntity
  8
化粧台
  6
EXLTYPE2
 62
     6
100
AcDbVertex
100
AcDb2dVertex
 10
2193.932268000002
 20
1480.648714000001
 30
0.0
  0
VERTEX
  5
363
330
31E
100
AcDbEntity
  8
化粧台
  6
EXLTYPE2
 62
     6
100
AcDbVertex
100
AcDb2dVertex
 10
2193.887150000002
 20
1480.399579999999
 30
0.0
  0
VERTEX
  5
364
330
31E
100
AcDbEntity
  8
化粧台
  6
EXLTYPE2
 62
     6
100
AcDbVertex
100
AcDb2dVertex
 10
2193.863088000004
 20
1480.139234
 30
0.0
  0
VERTEX
  5
365
330
31E
100
AcDbEntity
  8
化粧台
  6
EXLTYPE2
 62
     6
100
AcDbVertex
100
AcDb2dVertex
 10
2193.859798000003
 20
1480.000204
 30
0.0
  0
SEQEND
  5
366
330
31E
100
AcDbEntity
  8
化粧台
  6
EXLTYPE2
 62
     6
  0
POLYLINE
  5
367
330
1F
100
AcDbEntity
  8
化粧台
  6
EXLTYPE2
 62
     6
100
AcDb2dPolyline
 66
     1
 10
0.0
 20
0.0
 30
0.0
 70
   128
  0
VERTEX
  5
368
330
367
100
AcDbEntity
  8
化粧台
  6
EXLTYPE2
 62
     6
100
AcDbVertex
100
AcDb2dVertex
 10
2181.499996000002
 20
1476.837726
 30
0.0
  0
VERTEX
  5
369
330
367
100
AcDbEntity
  8
化粧台
  6
EXLTYPE2
 62
     6
100
AcDbVertex
100
AcDb2dVertex
 10
2182.084264000003
 20
1476.84151
 30
0.0
  0
VERTEX
  5
36A
330
367
100
AcDbEntity
  8
化粧台
  6
EXLTYPE2
 62
     6
100
AcDbVertex
100
AcDb2dVertex
 10
2182.668428000003
 20
1476.853598
 30
0.0
  0
VERTEX
  5
36B
330
367
100
AcDbEntity
  8
化粧台
  6
EXLTYPE2
 62
     6
100
AcDbVertex
100
AcDb2dVertex
 10
2183.252438000003
 20
1476.874954000001
 30
0.0
  0
VERTEX
  5
36C
330
367
100
AcDbEntity
  8
化粧台
  6
EXLTYPE2
 62
     6
100
AcDbVertex
100
AcDb2dVertex
 10
2183.835972000003
 20
1476.906714000001
 30
0.0
  0
VERTEX
  5
36D
330
367
100
AcDbEntity
  8
化粧台
  6
EXLTYPE2
 62
     6
100
AcDbVertex
100
AcDb2dVertex
 10
2184.418502000002
 20
1476.94994
 30
0.0
  0
VERTEX
  5
36E
330
367
100
AcDbEntity
  8
化粧台
  6
EXLTYPE2
 62
     6
100
AcDbVertex
100
AcDb2dVertex
 10
2184.999996000002
 20
1477.005332000001
 30
0.0
  0
VERTEX
  5
36F
330
367
100
AcDbEntity
  8
化粧台
  6
EXLTYPE2
 62
     6
100
AcDbVertex
100
AcDb2dVertex
 10
2185.714676000003
 20
1477.092144
 30
0.0
  0
VERTEX
  5
370
330
367
100
AcDbEntity
  8
化粧台
  6
EXLTYPE2
 62
     6
100
AcDbVertex
100
AcDb2dVertex
 10
2186.427784000003
 20
1477.205857999999
 30
0.0
  0
VERTEX
  5
371
330
367
100
AcDbEntity
  8
化粧台
  6
EXLTYPE2
 62
     6
100
AcDbVertex
100
AcDb2dVertex
 10
2187.133550000002
 20
1477.355165999999
 30
0.0
  0
VERTEX
  5
372
330
367
100
AcDbEntity
  8
化粧台
  6
EXLTYPE2
 62
     6
100
AcDbVertex
100
AcDb2dVertex
 10
2187.826208000002
 20
1477.54876
 30
0.0
  0
VERTEX
  5
373
330
367
100
AcDbEntity
  8
化粧台
  6
EXLTYPE2
 62
     6
100
AcDbVertex
100
AcDb2dVertex
 10
2188.499996000002
 20
1477.795332
 30
0.0
  0
VERTEX
  5
374
330
367
100
AcDbEntity
  8
化粧台
  6
EXLTYPE2
 62
     6
100
AcDbVertex
100
AcDb2dVertex
 10
2188.941340000003
 20
1477.998572
 30
0.0
  0
VERTEX
  5
375
330
367
100
AcDbEntity
  8
化粧台
  6
EXLTYPE2
 62
     6
100
AcDbVertex
100
AcDb2dVertex
 10
2189.363524000002
 20
1478.240342000001
 30
0.0
  0
VERTEX
  5
376
330
367
100
AcDbEntity
  8
化粧台
  6
EXLTYPE2
 62
     6
100
AcDbVertex
100
AcDb2dVertex
 10
2189.754054000003
 20
1478.527066000001
 30
0.0
  0
VERTEX
  5
377
330
367
100
AcDbEntity
  8
化粧台
  6
EXLTYPE2
 62
     6
100
AcDbVertex
100
AcDb2dVertex
 10
2190.010384000003
 20
1478.768545999999
 30
0.0
  0
VERTEX
  5
378
330
367
100
AcDbEntity
  8
化粧台
  6
EXLTYPE2
 62
     6
100
AcDbVertex
100
AcDb2dVertex
 10
2190.232678000002
 20
1479.041123999999
 30
0.0
  0
VERTEX
  5
379
330
367
100
AcDbEntity
  8
化粧台
  6
EXLTYPE2
 62
     6
100
AcDbVertex
100
AcDb2dVertex
 10
2190.356990000002
 20
1479.243904000001
 30
0.0
  0
VERTEX
  5
37A
330
367
100
AcDbEntity
  8
化粧台
  6
EXLTYPE2
 62
     6
100
AcDbVertex
100
AcDb2dVertex
 10
2190.455522000002
 20
1479.46126
 30
0.0
  0
VERTEX
  5
37B
330
367
100
AcDbEntity
  8
化粧台
  6
EXLTYPE2
 62
     6
100
AcDbVertex
100
AcDb2dVertex
 10
2190.522442000003
 20
1479.688918
 30
0.0
  0
VERTEX
  5
37C
330
367
100
AcDbEntity
  8
化粧台
  6
EXLTYPE2
 62
     6
100
AcDbVertex
100
AcDb2dVertex
 10
2190.553858000003
 20
1479.938924
 30
0.0
  0
VERTEX
  5
37D
330
367
100
AcDbEntity
  8
化粧台
  6
EXLTYPE2
 62
     6
100
AcDbVertex
100
AcDb2dVertex
 10
2190.543040000002
 20
1480.190628
 30
0.0
  0
VERTEX
  5
37E
330
367
100
AcDbEntity
  8
化粧台
  6
EXLTYPE2
 62
     6
100
AcDbVertex
100
AcDb2dVertex
 10
2190.490162000004
 20
1480.436392
 30
0.0
  0
VERTEX
  5
37F
330
367
100
AcDbEntity
  8
化粧台
  6
EXLTYPE2
 62
     6
100
AcDbVertex
100
AcDb2dVertex
 10
2190.400018000002
 20
1480.671262
 30
0.0
  0
VERTEX
  5
380
330
367
100
AcDbEntity
  8
化粧台
  6
EXLTYPE2
 62
     6
100
AcDbVertex
100
AcDb2dVertex
 10
2190.221402000003
 20
1480.974700000001
 30
0.0
  0
VERTEX
  5
381
330
367
100
AcDbEntity
  8
化粧台
  6
EXLTYPE2
 62
     6
100
AcDbVertex
100
AcDb2dVertex
 10
2189.996342000004
 20
1481.246302
 30
0.0
  0
VERTEX
  5
382
330
367
100
AcDbEntity
  8
化粧台
  6
EXLTYPE2
 62
     6
100
AcDbVertex
100
AcDb2dVertex
 10
2189.719596000003
 20
1481.501758
 30
0.0
  0
VERTEX
  5
383
330
367
100
AcDbEntity
  8
化粧台
  6
EXLTYPE2
 62
     6
100
AcDbVertex
100
AcDb2dVertex
 10
2189.414938000004
 20
1481.725702
 30
0.0
  0
VERTEX
  5
384
330
367
100
AcDbEntity
  8
化粧台
  6
EXLTYPE2
 62
     6
100
AcDbVertex
100
AcDb2dVertex
 10
2189.091798000003
 20
1481.920994
 30
0.0
  0
VERTEX
  5
385
330
367
100
AcDbEntity
  8
化粧台
  6
EXLTYPE2
 62
     6
100
AcDbVertex
100
AcDb2dVertex
 10
2188.587092000003
 20
1482.168718000001
 30
0.0
  0
VERTEX
  5
386
330
367
100
AcDbEntity
  8
化粧台
  6
EXLTYPE2
 62
     6
100
AcDbVertex
100
AcDb2dVertex
 10
2188.061414000003
 20
1482.37284
 30
0.0
  0
VERTEX
  5
387
330
367
100
AcDbEntity
  8
化粧台
  6
EXLTYPE2
 62
     6
100
AcDbVertex
100
AcDb2dVertex
 10
2187.521714000002
 20
1482.540186
 30
0.0
  0
VERTEX
  5
388
330
367
100
AcDbEntity
  8
化粧台
  6
EXLTYPE2
 62
     6
100
AcDbVertex
100
AcDb2dVertex
 10
2186.974940000002
 20
1482.677582
 30
0.0
  0
VERTEX
  5
389
330
367
100
AcDbEntity
  8
化粧台
  6
EXLTYPE2
 62
     6
100
AcDbVertex
100
AcDb2dVertex
 10
2186.480480000004
 20
1482.781046
 30
0.0
  0
VERTEX
  5
38A
330
367
100
AcDbEntity
  8
化粧台
  6
EXLTYPE2
 62
     6
100
AcDbVertex
100
AcDb2dVertex
 10
2185.982862000003
 20
1482.86825
 30
0.0
  0
VERTEX
  5
38B
330
367
100
AcDbEntity
  8
化粧台
  6
EXLTYPE2
 62
     6
100
AcDbVertex
100
AcDb2dVertex
 10
2185.482220000004
 20
1482.940790000001
 30
0.0
  0
VERTEX
  5
38C
330
367
100
AcDbEntity
  8
化粧台
  6
EXLTYPE2
 62
     6
100
AcDbVertex
100
AcDb2dVertex
 10
2184.979844000003
 20
1483.000076
 30
0.0
  0
VERTEX
  5
38D
330
367
100
AcDbEntity
  8
化粧台
  6
EXLTYPE2
 62
     6
100
AcDbVertex
100
AcDb2dVertex
 10
2184.475704000002
 20
1483.047712
 30
0.0
  0
VERTEX
  5
38E
330
367
100
AcDbEntity
  8
化粧台
  6
EXLTYPE2
 62
     6
100
AcDbVertex
100
AcDb2dVertex
 10
2183.970706000002
 20
1483.085208
 30
0.0
  0
VERTEX
  5
38F
330
367
100
AcDbEntity
  8
化粧台
  6
EXLTYPE2
 62
     6
100
AcDbVertex
100
AcDb2dVertex
 10
2183.465666000002
 20
1483.114090000001
 30
0.0
  0
VERTEX
  5
390
330
367
100
AcDbEntity
  8
化粧台
  6
EXLTYPE2
 62
     6
100
AcDbVertex
100
AcDb2dVertex
 10
2182.960260000003
 20
1483.1358
 30
0.0
  0
VERTEX
  5
391
330
367
100
AcDbEntity
  8
化粧台
  6
EXLTYPE2
 62
     6
100
AcDbVertex
100
AcDb2dVertex
 10
2182.271122000004
 20
1483.155608000001
 30
0.0
  0
VERTEX
  5
392
330
367
100
AcDbEntity
  8
化粧台
  6
EXLTYPE2
 62
     6
100
AcDbVertex
100
AcDb2dVertex
 10
2181.581752000004
 20
1483.163914000001
 30
0.0
  0
VERTEX
  5
393
330
367
100
AcDbEntity
  8
化粧台
  6
EXLTYPE2
 62
     6
100
AcDbVertex
100
AcDb2dVertex
 10
2180.892146000004
 20
1483.160003999999
 30
0.0
  0
VERTEX
  5
394
330
367
100
AcDbEntity
  8
化粧台
  6
EXLTYPE2
 62
     6
100
AcDbVertex
100
AcDb2dVertex
 10
2180.202734000002
 20
1483.14321
 30
0.0
  0
VERTEX
  5
395
330
367
100
AcDbEntity
  8
化粧台
  6
EXLTYPE2
 62
     6
100
AcDbVertex
100
AcDb2dVertex
 10
2179.514062000004
 20
1483.11298
 30
0.0
  0
VERTEX
  5
396
330
367
100
AcDbEntity
  8
化粧台
  6
EXLTYPE2
 62
     6
100
AcDbVertex
100
AcDb2dVertex
 10
2178.826132000004
 20
1483.069092
 30
0.0
  0
VERTEX
  5
397
330
367
100
AcDbEntity
  8
化粧台
  6
EXLTYPE2
 62
     6
100
AcDbVertex
100
AcDb2dVertex
 10
2178.018988000003
 20
1482.998610000001
 30
0.0
  0
VERTEX
  5
398
330
367
100
AcDbEntity
  8
化粧台
  6
EXLTYPE2
 62
     6
100
AcDbVertex
100
AcDb2dVertex
 10
2177.212534000004
 20
1482.900525999999
 30
0.0
  0
VERTEX
  5
399
330
367
100
AcDbEntity
  8
化粧台
  6
EXLTYPE2
 62
     6
100
AcDbVertex
100
AcDb2dVertex
 10
2176.412332000004
 20
1482.764884
 30
0.0
  0
VERTEX
  5
39A
330
367
100
AcDbEntity
  8
化粧台
  6
EXLTYPE2
 62
     6
100
AcDbVertex
100
AcDb2dVertex
 10
2175.623948000002
 20
1482.581728000001
 30
0.0
  0
VERTEX
  5
39B
330
367
100
AcDbEntity
  8
化粧台
  6
EXLTYPE2
 62
     6
100
AcDbVertex
100
AcDb2dVertex
 10
2174.852946000003
 20
1482.341104000001
 30
0.0
  0
VERTEX
  5
39C
330
367
100
AcDbEntity
  8
化粧台
  6
EXLTYPE2
 62
     6
100
AcDbVertex
100
AcDb2dVertex
 10
2174.347228000002
 20
1482.13941
 30
0.0
  0
VERTEX
  5
39D
330
367
100
AcDbEntity
  8
化粧台
  6
EXLTYPE2
 62
     6
100
AcDbVertex
100
AcDb2dVertex
 10
2173.860106000002
 20
1481.894813999999
 30
0.0
  0
VERTEX
  5
39E
330
367
100
AcDbEntity
  8
化粧台
  6
EXLTYPE2
 62
     6
100
AcDbVertex
100
AcDb2dVertex
 10
2173.405016000002
 20
1481.598844
 30
0.0
  0
VERTEX
  5
39F
330
367
100
AcDbEntity
  8
化粧台
  6
EXLTYPE2
 62
     6
100
AcDbVertex
100
AcDb2dVertex
 10
2173.119550000003
 20
1481.361000000001
 30
0.0
  0
VERTEX
  5
3A0
330
367
100
AcDbEntity
  8
化粧台
  6
EXLTYPE2
 62
     6
100
AcDbVertex
100
AcDb2dVertex
 10
2172.865984000002
 20
1481.089982
 30
0.0
  0
VERTEX
  5
3A1
330
367
100
AcDbEntity
  8
化粧台
  6
EXLTYPE2
 62
     6
100
AcDbVertex
100
AcDb2dVertex
 10
2172.719268000003
 20
1480.886364
 30
0.0
  0
VERTEX
  5
3A2
330
367
100
AcDbEntity
  8
化粧台
  6
EXLTYPE2
 62
     6
100
AcDbVertex
100
AcDb2dVertex
 10
2172.597776000002
 20
1480.665886000001
 30
0.0
  0
VERTEX
  5
3A3
330
367
100
AcDbEntity
  8
化粧台
  6
EXLTYPE2
 62
     6
100
AcDbVertex
100
AcDb2dVertex
 10
2172.508364000003
 20
1480.432094
 30
0.0
  0
VERTEX
  5
3A4
330
367
100
AcDbEntity
  8
化粧台
  6
EXLTYPE2
 62
     6
100
AcDbVertex
100
AcDb2dVertex
 10
2172.456310000003
 20
1480.183616
 30
0.0
  0
VERTEX
  5
3A5
330
367
100
AcDbEntity
  8
化粧台
  6
EXLTYPE2
 62
     6
100
AcDbVertex
100
AcDb2dVertex
 10
2172.446270000002
 20
1479.930044000001
 30
0.0
  0
VERTEX
  5
3A6
330
367
100
AcDbEntity
  8
化粧台
  6
EXLTYPE2
 62
     6
100
AcDbVertex
100
AcDb2dVertex
 10
2172.480008000002
 20
1479.678558
 30
0.0
  0
VERTEX
  5
3A7
330
367
100
AcDbEntity
  8
化粧台
  6
EXLTYPE2
 62
     6
100
AcDbVertex
100
AcDb2dVertex
 10
2172.553894000002
 20
1479.435648000001
 30
0.0
  0
VERTEX
  5
3A8
330
367
100
AcDbEntity
  8
化粧台
  6
EXLTYPE2
 62
     6
100
AcDbVertex
100
AcDb2dVertex
 10
2172.701040000004
 20
1479.142524000001
 30
0.0
  0
VERTEX
  5
3A9
330
367
100
AcDbEntity
  8
化粧台
  6
EXLTYPE2
 62
     6
100
AcDbVertex
100
AcDb2dVertex
 10
2172.893688000002
 20
1478.876420000001
 30
0.0
  0
VERTEX
  5
3AA
330
367
100
AcDbEntity
  8
化粧台
  6
EXLTYPE2
 62
     6
100
AcDbVertex
100
AcDb2dVertex
 10
2173.126104000003
 20
1478.63278
 30
0.0
  0
VERTEX
  5
3AB
330
367
100
AcDbEntity
  8
化粧台
  6
EXLTYPE2
 62
     6
100
AcDbVertex
100
AcDb2dVertex
 10
2173.385350000002
 20
1478.415838000001
 30
0.0
  0
VERTEX
  5
3AC
330
367
100
AcDbEntity
  8
化粧台
  6
EXLTYPE2
 62
     6
100
AcDbVertex
100
AcDb2dVertex
 10
2173.663024000003
 20
1478.223958
 30
0.0
  0
VERTEX
  5
3AD
330
367
100
AcDbEntity
  8
化粧台
  6
EXLTYPE2
 62
     6
100
AcDbVertex
100
AcDb2dVertex
 10
2174.080552000003
 20
1477.987118000001
 30
0.0
  0
VERTEX
  5
3AE
330
367
100
AcDbEntity
  8
化粧台
  6
EXLTYPE2
 62
     6
100
AcDbVertex
100
AcDb2dVertex
 10
2174.518312000002
 20
1477.786588000001
 30
0.0
  0
VERTEX
  5
3AF
330
367
100
AcDbEntity
  8
化粧台
  6
EXLTYPE2
 62
     6
100
AcDbVertex
100
AcDb2dVertex
 10
2174.970082000003
 20
1477.617334
 30
0.0
  0
VERTEX
  5
3B0
330
367
100
AcDbEntity
  8
化粧台
  6
EXLTYPE2
 62
     6
100
AcDbVertex
100
AcDb2dVertex
 10
2175.429642000003
 20
1477.474328
 30
0.0
  0
VERTEX
  5
3B1
330
367
100
AcDbEntity
  8
化粧台
  6
EXLTYPE2
 62
     6
100
AcDbVertex
100
AcDb2dVertex
 10
2176.163138000004
 20
1477.290832000001
 30
0.0
  0
VERTEX
  5
3B2
330
367
100
AcDbEntity
  8
化粧台
  6
EXLTYPE2
 62
     6
100
AcDbVertex
100
AcDb2dVertex
 10
2176.907028000003
 20
1477.149866
 30
0.0
  0
VERTEX
  5
3B3
330
367
100
AcDbEntity
  8
化粧台
  6
EXLTYPE2
 62
     6
100
AcDbVertex
100
AcDb2dVertex
 10
2177.657402000003
 20
1477.043806
 30
0.0
  0
VERTEX
  5
3B4
330
367
100
AcDbEntity
  8
化粧台
  6
EXLTYPE2
 62
     6
100
AcDbVertex
100
AcDb2dVertex
 10
2178.410356000002
 20
1476.965028000001
 30
0.0
  0
VERTEX
  5
3B5
330
367
100
AcDbEntity
  8
化粧台
  6
EXLTYPE2
 62
     6
100
AcDbVertex
100
AcDb2dVertex
 10
2178.924154000002
 20
1476.923596000001
 30
0.0
  0
VERTEX
  5
3B6
330
367
100
AcDbEntity
  8
化粧台
  6
EXLTYPE2
 62
     6
100
AcDbVertex
100
AcDb2dVertex
 10
2179.438590000003
 20
1476.891009999999
 30
0.0
  0
VERTEX
  5
3B7
330
367
100
AcDbEntity
  8
化粧台
  6
EXLTYPE2
 62
     6
100
AcDbVertex
100
AcDb2dVertex
 10
2179.953642000002
 20
1476.866755999999
 30
0.0
  0
VERTEX
  5
3B8
330
367
100
AcDbEntity
  8
化粧台
  6
EXLTYPE2
 62
     6
100
AcDbVertex
100
AcDb2dVertex
 10
2180.469002000003
 20
1476.850224
 30
0.0
  0
VERTEX
  5
3B9
330
367
100
AcDbEntity
  8
化粧台
  6
EXLTYPE2
 62
     6
100
AcDbVertex
100
AcDb2dVertex
 10
2180.984464000003
 20
1476.840768
 30
0.0
  0
VERTEX
  5
3BA
330
367
100
AcDbEntity
  8
化粧台
  6
EXLTYPE2
 62
     6
100
AcDbVertex
100
AcDb2dVertex
 10
2181.499996000002
 20
1476.837726
 30
0.0
  0
SEQEND
  5
3BB
330
367
100
AcDbEntity
  8
化粧台
  6
EXLTYPE2
 62
     6
  0
POLYLINE
  5
3BC
330
1F
100
AcDbEntity
  8
化粧台
  6
EXLTYPE2
 62
     6
100
AcDb2dPolyline
 66
     1
 10
0.0
 20
0.0
 30
0.0
 70
   128
  0
VERTEX
  5
3BD
330
3BC
100
AcDbEntity
  8
化粧台
  6
EXLTYPE2
 62
     6
100
AcDbVertex
100
AcDb2dVertex
 10
2160.084808000003
 20
1480.000204
 30
0.0
  0
VERTEX
  5
3BE
330
3BC
100
AcDbEntity
  8
化粧台
  6
EXLTYPE2
 62
     6
100
AcDbVertex
100
AcDb2dVertex
 10
2160.096946000003
 20
1479.734399999999
 30
0.0
  0
VERTEX
  5
3BF
330
3BC
100
AcDbEntity
  8
化粧台
  6
EXLTYPE2
 62
     6
100
AcDbVertex
100
AcDb2dVertex
 10
2160.131740000003
 20
1479.476546
 30
0.0
  0
VERTEX
  5
3C0
330
3BC
100
AcDbEntity
  8
化粧台
  6
EXLTYPE2
 62
     6
100
AcDbVertex
100
AcDb2dVertex
 10
2160.186292000004
 20
1479.23489
 30
0.0
  0
VERTEX
  5
3C1
330
3BC
100
AcDbEntity
  8
化粧台
  6
EXLTYPE2
 62
     6
100
AcDbVertex
100
AcDb2dVertex
 10
2160.257064000003
 20
1479.010399999999
 30
0.0
  0
VERTEX
  5
3C2
330
3BC
100
AcDbEntity
  8
化粧台
  6
EXLTYPE2
 62
     6
100
AcDbVertex
100
AcDb2dVertex
 10
2160.352764000003
 20
1478.77821
 30
0.0
  0
VERTEX
  5
3C3
330
3BC
100
AcDbEntity
  8
化粧台
  6
EXLTYPE2
 62
     6
100
AcDbVertex
100
AcDb2dVertex
 10
2160.461394000004
 20
1478.568298
 30
0.0
  0
VERTEX
  5
3C4
330
3BC
100
AcDbEntity
  8
化粧台
  6
EXLTYPE2
 62
     6
100
AcDbVertex
100
AcDb2dVertex
 10
2160.579238000004
 20
1478.380126
 30
0.0
  0
VERTEX
  5
3C5
330
3BC
100
AcDbEntity
  8
化粧台
  6
EXLTYPE2
 62
     6
100
AcDbVertex
100
AcDb2dVertex
 10
2160.808210000003
 20
1478.087611999999
 30
0.0
  0
VERTEX
  5
3C6
330
3BC
100
AcDbEntity
  8
化粧台
  6
EXLTYPE2
 62
     6
100
AcDbVertex
100
AcDb2dVertex
 10
2161.052738000004
 20
1477.845890000001
 30
0.0
  0
VERTEX
  5
3C7
330
3BC
100
AcDbEntity
  8
化粧台
  6
EXLTYPE2
 62
     6
100
AcDbVertex
100
AcDb2dVertex
 10
2161.306316000004
 20
1477.646556
 30
0.0
  0
VERTEX
  5
3C8
330
3BC
100
AcDbEntity
  8
化粧台
  6
EXLTYPE2
 62
     6
100
AcDbVertex
100
AcDb2dVertex
 10
2161.697242000004
 20
1477.405189999999
 30
0.0
  0
VERTEX
  5
3C9
330
3BC
100
AcDbEntity
  8
化粧台
  6
EXLTYPE2
 62
     6
100
AcDbVertex
100
AcDb2dVertex
 10
2162.096570000003
 20
1477.220906
 30
0.0
  0
VERTEX
  5
3CA
330
3BC
100
AcDbEntity
  8
化粧台
  6
EXLTYPE2
 62
     6
100
AcDbVertex
100
AcDb2dVertex
 10
2162.502012000003
 20
1477.084806000001
 30
0.0
  0
VERTEX
  5
3CB
330
3BC
100
AcDbEntity
  8
化粧台
  6
EXLTYPE2
 62
     6
100
AcDbVertex
100
AcDb2dVertex
 10
2162.911284000003
 20
1476.987986
 30
0.0
  0
VERTEX
  5
3CC
330
3BC
100
AcDbEntity
  8
化粧台
  6
EXLTYPE2
 62
     6
100
AcDbVertex
100
AcDb2dVertex
 10
2163.322104000003
 20
1476.921546
 30
0.0
  0
VERTEX
  5
3CD
330
3BC
100
AcDbEntity
  8
化粧台
  6
EXLTYPE2
 62
     6
100
AcDbVertex
100
AcDb2dVertex
 10
2163.732184000002
 20
1476.876586
 30
0.0
  0
VERTEX
  5
3CE
330
3BC
100
AcDbEntity
  8
化粧台
  6
EXLTYPE2
 62
     6
100
AcDbVertex
100
AcDb2dVertex
 10
2164.321524000003
 20
1476.840952
 30
0.0
  0
VERTEX
  5
3CF
330
3BC
100
AcDbEntity
  8
化粧台
  6
EXLTYPE2
 62
     6
100
AcDbVertex
100
AcDb2dVertex
 10
2164.911268000003
 20
1476.841178000001
 30
0.0
  0
VERTEX
  5
3D0
330
3BC
100
AcDbEntity
  8
化粧台
  6
EXLTYPE2
 62
     6
100
AcDbVertex
100
AcDb2dVertex
 10
2165.500600000003
 20
1476.877296000001
 30
0.0
  0
VERTEX
  5
3D1
330
3BC
100
AcDbEntity
  8
化粧台
  6
EXLTYPE2
 62
     6
100
AcDbVertex
100
AcDb2dVertex
 10
2166.114344000003
 20
1476.95707
 30
0.0
  0
VERTEX
  5
3D2
330
3BC
100
AcDbEntity
  8
化粧台
  6
EXLTYPE2
 62
     6
100
AcDbVertex
100
AcDb2dVertex
 10
2166.725340000003
 20
1477.095294000001
 30
0.0
  0
VERTEX
  5
3D3
330
3BC
100
AcDbEntity
  8
化粧台
  6
EXLTYPE2
 62
     6
100
AcDbVertex
100
AcDb2dVertex
 10
2167.062402000003
 20
1477.203774
 30
0.0
  0
VERTEX
  5
3D4
330
3BC
100
AcDbEntity
  8
化粧台
  6
EXLTYPE2
 62
     6
100
AcDbVertex
100
AcDb2dVertex
 10
2167.397218000004
 20
1477.342581999999
 30
0.0
  0
VERTEX
  5
3D5
330
3BC
100
AcDbEntity
  8
化粧台
  6
EXLTYPE2
 62
     6
100
AcDbVertex
100
AcDb2dVertex
 10
2167.726952000003
 20
1477.519844
 30
0.0
  0
VERTEX
  5
3D6
330
3BC
100
AcDbEntity
  8
化粧台
  6
EXLTYPE2
 62
     6
100
AcDbVertex
100
AcDb2dVertex
 10
2168.048766000004
 20
1477.743678000001
 30
0.0
  0
VERTEX
  5
3D7
330
3BC
100
AcDbEntity
  8
化粧台
  6
EXLTYPE2
 62
     6
100
AcDbVertex
100
AcDb2dVertex
 10
2168.282716000003
 20
1477.948528000001
 30
0.0
  0
VERTEX
  5
3D8
330
3BC
100
AcDbEntity
  8
化粧台
  6
EXLTYPE2
 62
     6
100
AcDbVertex
100
AcDb2dVertex
 10
2168.506626000004
 20
1478.193542000001
 30
0.0
  0
VERTEX
  5
3D9
330
3BC
100
AcDbEntity
  8
化粧台
  6
EXLTYPE2
 62
     6
100
AcDbVertex
100
AcDb2dVertex
 10
2168.649188000003
 20
1478.385028000001
 30
0.0
  0
VERTEX
  5
3DA
330
3BC
100
AcDbEntity
  8
化粧台
  6
EXLTYPE2
 62
     6
100
AcDbVertex
100
AcDb2dVertex
 10
2168.782650000003
 20
1478.601986
 30
0.0
  0
VERTEX
  5
3DB
330
3BC
100
AcDbEntity
  8
化粧台
  6
EXLTYPE2
 62
     6
100
AcDbVertex
100
AcDb2dVertex
 10
2168.902790000002
 20
1478.846264
 30
0.0
  0
VERTEX
  5
3DC
330
3BC
100
AcDbEntity
  8
化粧台
  6
EXLTYPE2
 62
     6
100
AcDbVertex
100
AcDb2dVertex
 10
2168.994372000003
 20
1479.087092
 30
0.0
  0
VERTEX
  5
3DD
330
3BC
100
AcDbEntity
  8
化粧台
  6
EXLTYPE2
 62
     6
100
AcDbVertex
100
AcDb2dVertex
 10
2169.067722000003
 20
1479.351294
 30
0.0
  0
VERTEX
  5
3DE
330
3BC
100
AcDbEntity
  8
化粧台
  6
EXLTYPE2
 62
     6
100
AcDbVertex
100
AcDb2dVertex
 10
2169.112842000002
 20
1479.600428
 30
0.0
  0
VERTEX
  5
3DF
330
3BC
100
AcDbEntity
  8
化粧台
  6
EXLTYPE2
 62
     6
100
AcDbVertex
100
AcDb2dVertex
 10
2169.136902000004
 20
1479.860774000001
 30
0.0
  0
VERTEX
  5
3E0
330
3BC
100
AcDbEntity
  8
化粧台
  6
EXLTYPE2
 62
     6
100
AcDbVertex
100
AcDb2dVertex
 10
2169.140192000003
 20
1480.000204
 30
0.0
  0
VERTEX
  5
3E1
330
3BC
100
AcDbEntity
  8
化粧台
  6
EXLTYPE2
 62
     6
100
AcDbVertex
100
AcDb2dVertex
 10
2169.128038000003
 20
1480.265804000001
 30
0.0
  0
VERTEX
  5
3E2
330
3BC
100
AcDbEntity
  8
化粧台
  6
EXLTYPE2
 62
     6
100
AcDbVertex
100
AcDb2dVertex
 10
2169.093260000003
 20
1480.52346
 30
0.0
  0
VERTEX
  5
3E3
330
3BC
100
AcDbEntity
  8
化粧台
  6
EXLTYPE2
 62
     6
100
AcDbVertex
100
AcDb2dVertex
 10
2169.038708000002
 20
1480.765117999999
 30
0.0
  0
VERTEX
  5
3E4
330
3BC
100
AcDbEntity
  8
化粧台
  6
EXLTYPE2
 62
     6
100
AcDbVertex
100
AcDb2dVertex
 10
2168.967936000003
 20
1480.989608
 30
0.0
  0
VERTEX
  5
3E5
330
3BC
100
AcDbEntity
  8
化粧台
  6
EXLTYPE2
 62
     6
100
AcDbVertex
100
AcDb2dVertex
 10
2168.872236000003
 20
1481.221798
 30
0.0
  0
VERTEX
  5
3E6
330
3BC
100
AcDbEntity
  8
化粧台
  6
EXLTYPE2
 62
     6
100
AcDbVertex
100
AcDb2dVertex
 10
2168.763606000002
 20
1481.431708
 30
0.0
  0
VERTEX
  5
3E7
330
3BC
100
AcDbEntity
  8
化粧台
  6
EXLTYPE2
 62
     6
100
AcDbVertex
100
AcDb2dVertex
 10
2168.645762000002
 20
1481.619882000001
 30
0.0
  0
VERTEX
  5
3E8
330
3BC
100
AcDbEntity
  8
化粧台
  6
EXLTYPE2
 62
     6
100
AcDbVertex
100
AcDb2dVertex
 10
2168.416790000003
 20
1481.912396
 30
0.0
  0
VERTEX
  5
3E9
330
3BC
100
AcDbEntity
  8
化粧台
  6
EXLTYPE2
 62
     6
100
AcDbVertex
100
AcDb2dVertex
 10
2168.172262000002
 20
1482.154116
 30
0.0
  0
VERTEX
  5
3EA
330
3BC
100
AcDbEntity
  8
化粧台
  6
EXLTYPE2
 62
     6
100
AcDbVertex
100
AcDb2dVertex
 10
2167.918686000003
 20
1482.353450000001
 30
0.0
  0
VERTEX
  5
3EB
330
3BC
100
AcDbEntity
  8
化粧台
  6
EXLTYPE2
 62
     6
100
AcDbVertex
100
AcDb2dVertex
 10
2167.527758000002
 20
1482.594818
 30
0.0
  0
VERTEX
  5
3EC
330
3BC
100
AcDbEntity
  8
化粧台
  6
EXLTYPE2
 62
     6
100
AcDbVertex
100
AcDb2dVertex
 10
2167.128430000002
 20
1482.7791
 30
0.0
  0
VERTEX
  5
3ED
330
3BC
100
AcDbEntity
  8
化粧台
  6
EXLTYPE2
 62
     6
100
AcDbVertex
100
AcDb2dVertex
 10
2166.722988000003
 20
1482.915202
 30
0.0
  0
VERTEX
  5
3EE
330
3BC
100
AcDbEntity
  8
化粧台
  6
EXLTYPE2
 62
     6
100
AcDbVertex
100
AcDb2dVertex
 10
2166.313716000002
 20
1483.012022000001
 30
0.0
  0
VERTEX
  5
3EF
330
3BC
100
AcDbEntity
  8
化粧台
  6
EXLTYPE2
 62
     6
100
AcDbVertex
100
AcDb2dVertex
 10
2165.902896000003
 20
1483.078461999999
 30
0.0
  0
VERTEX
  5
3F0
330
3BC
100
AcDbEntity
  8
化粧台
  6
EXLTYPE2
 62
     6
100
AcDbVertex
100
AcDb2dVertex
 10
2165.492818000002
 20
1483.123422000001
 30
0.0
  0
VERTEX
  5
3F1
330
3BC
100
AcDbEntity
  8
化粧台
  6
EXLTYPE2
 62
     6
100
AcDbVertex
100
AcDb2dVertex
 10
2164.903478000002
 20
1483.159056
 30
0.0
  0
VERTEX
  5
3F2
330
3BC
100
AcDbEntity
  8
化粧台
  6
EXLTYPE2
 62
     6
100
AcDbVertex
100
AcDb2dVertex
 10
2164.313732000002
 20
1483.15883
 30
0.0
  0
VERTEX
  5
3F3
330
3BC
100
AcDbEntity
  8
化粧台
  6
EXLTYPE2
 62
     6
100
AcDbVertex
100
AcDb2dVertex
 10
2163.724400000003
 20
1483.12271
 30
0.0
  0
VERTEX
  5
3F4
330
3BC
100
AcDbEntity
  8
化粧台
  6
EXLTYPE2
 62
     6
100
AcDbVertex
100
AcDb2dVertex
 10
2163.110658000003
 20
1483.042938000001
 30
0.0
  0
VERTEX
  5
3F5
330
3BC
100
AcDbEntity
  8
化粧台
  6
EXLTYPE2
 62
     6
100
AcDbVertex
100
AcDb2dVertex
 10
2162.499660000003
 20
1482.904714
 30
0.0
  0
VERTEX
  5
3F6
330
3BC
100
AcDbEntity
  8
化粧台
  6
EXLTYPE2
 62
     6
100
AcDbVertex
100
AcDb2dVertex
 10
2162.162598000003
 20
1482.796233999999
 30
0.0
  0
VERTEX
  5
3F7
330
3BC
100
AcDbEntity
  8
化粧台
  6
EXLTYPE2
 62
     6
100
AcDbVertex
100
AcDb2dVertex
 10
2161.827782000002
 20
1482.657426
 30
0.0
  0
VERTEX
  5
3F8
330
3BC
100
AcDbEntity
  8
化粧台
  6
EXLTYPE2
 62
     6
100
AcDbVertex
100
AcDb2dVertex
 10
2161.498048000003
 20
1482.480164000001
 30
0.0
  0
VERTEX
  5
3F9
330
3BC
100
AcDbEntity
  8
化粧台
  6
EXLTYPE2
 62
     6
100
AcDbVertex
100
AcDb2dVertex
 10
2161.176234000002
 20
1482.256327999999
 30
0.0
  0
VERTEX
  5
3FA
330
3BC
100
AcDbEntity
  8
化粧台
  6
EXLTYPE2
 62
     6
100
AcDbVertex
100
AcDb2dVertex
 10
2160.942284000002
 20
1482.05148
 30
0.0
  0
VERTEX
  5
3FB
330
3BC
100
AcDbEntity
  8
化粧台
  6
EXLTYPE2
 62
     6
100
AcDbVertex
100
AcDb2dVertex
 10
2160.718374000002
 20
1481.806463999999
 30
0.0
  0
VERTEX
  5
3FC
330
3BC
100
AcDbEntity
  8
化粧台
  6
EXLTYPE2
 62
     6
100
AcDbVertex
100
AcDb2dVertex
 10
2160.575812000003
 20
1481.61498
 30
0.0
  0
VERTEX
  5
3FD
330
3BC
100
AcDbEntity
  8
化粧台
  6
EXLTYPE2
 62
     6
100
AcDbVertex
100
AcDb2dVertex
 10
2160.442350000003
 20
1481.398021999999
 30
0.0
  0
VERTEX
  5
3FE
330
3BC
100
AcDbEntity
  8
化粧台
  6
EXLTYPE2
 62
     6
100
AcDbVertex
100
AcDb2dVertex
 10
2160.322210000004
 20
1481.153742
 30
0.0
  0
VERTEX
  5
3FF
330
3BC
100
AcDbEntity
  8
化粧台
  6
EXLTYPE2
 62
     6
100
AcDbVertex
100
AcDb2dVertex
 10
2160.230630000004
 20
1480.912915999999
 30
0.0
  0
VERTEX
  5
400
330
3BC
100
AcDbEntity
  8
化粧台
  6
EXLTYPE2
 62
     6
100
AcDbVertex
100
AcDb2dVertex
 10
2160.157278000002
 20
1480.648714000001
 30
0.0
  0
VERTEX
  5
401
330
3BC
100
AcDbEntity
  8
化粧台
  6
EXLTYPE2
 62
     6
100
AcDbVertex
100
AcDb2dVertex
 10
2160.112158000004
 20
1480.399579999999
 30
0.0
  0
VERTEX
  5
402
330
3BC
100
AcDbEntity
  8
化粧台
  6
EXLTYPE2
 62
     6
100
AcDbVertex
100
AcDb2dVertex
 10
2160.088098000002
 20
1480.139234
 30
0.0
  0
VERTEX
  5
403
330
3BC
100
AcDbEntity
  8
化粧台
  6
EXLTYPE2
 62
     6
100
AcDbVertex
100
AcDb2dVertex
 10
2160.084808000003
 20
1480.000204
 30
0.0
  0
SEQEND
  5
404
330
3BC
100
AcDbEntity
  8
化粧台
  6
EXLTYPE2
 62
     6
  0
LINE
  5
405
330
1F
100
AcDbEntity
  8
化粧台
  6
EXLTYPE2
 62
     6
100
AcDbLine
 10
2376.500000000002
 20
1459.0
 30
0.0
 11
2343.601294708542
 21
1459.0
 31
0.0
  0
LINE
  5
406
330
1F
100
AcDbEntity
  8
化粧台
  6
EXLTYPE2
 62
     6
100
AcDbLine
 10
2330.3866349773
 20
1459.0
 30
0.0
 11
2255.500000000002
 21
1459.0
 31
0.0
  0
LINE
  5
407
330
1F
100
AcDbEntity
  8
化粧台
  6
EXLTYPE2
 62
     6
100
AcDbLine
 10
2376.500000000002
 20
1453.0
 30
0.0
 11
2344.696146418935
 21
1453.0
 31
0.0
  0
LINE
  5
408
330
1F
100
AcDbEntity
  8
化粧台
  6
EXLTYPE2
 62
     6
100
AcDbLine
 10
2331.481486687693
 20
1453.0
 30
0.0
 11
2255.500000000002
 21
1453.0
 31
0.0
  0
LINE
  5
409
330
1F
100
AcDbEntity
  8
化粧台
  6
EXLTYPE2
 62
     6
100
AcDbLine
 10
2303.766644436768
 20
1355.801075167856
 30
0.0
 11
2323.18923668762
 21
1494.0
 31
0.0
  0
LINE
  5
40A
330
1F
100
AcDbEntity
  8
化粧台
  6
EXLTYPE2
 62
     6
100
AcDbLine
 10
2317.130271252505
 20
1494.0
 30
0.0
 11
2297.825036024313
 21
1356.636113773615
 31
0.0
  0
LINE
  5
40B
330
1F
100
AcDbEntity
  8
化粧台
  6
EXLTYPE2
 62
     6
100
AcDbLine
 10
2324.0
 20
1494.0
 30
0.0
 11
2348.0
 21
1362.475339050099
 31
0.0
  0
LINE
  5
40C
330
1F
100
AcDbEntity
  8
化粧台
  6
EXLTYPE2
 62
     6
100
AcDbLine
 10
2361.0
 20
1363.651716065571
 30
0.0
 11
2337.214659731244
 21
1494.0
 31
0.0
  0
LINE
  5
40D
330
1F
100
AcDbEntity
  8
化粧台
  6
EXLTYPE2
 62
     6
100
AcDbLine
 10
2154.000000000004
 20
1494.0
 30
0.0
 11
2154.000000000004
 21
1492.33333333333
 31
0.0
  0
LINE
  5
40E
330
1F
100
AcDbEntity
  8
化粧台
  6
EXLTYPE2
 62
     6
100
AcDbLine
 10
2209.000000000004
 20
1494.0
 30
0.0
 11
2209.000000000004
 21
1492.33333333333
 31
0.0
  0
LINE
  5
40F
330
1F
100
AcDbEntity
  8
化粧台
  6
EXLTYPE2
 62
     6
100
AcDbLine
 10
2165.625000000002
 20
1437.0
 30
0.0
 11
2165.625000000002
 21
1312.99999999995
 31
0.0
  0
LINE
  5
410
330
1F
100
AcDbEntity
  8
化粧台
  6
EXLTYPE2
 62
     6
100
AcDbLine
 10
2197.375000000002
 20
1437.0
 30
0.0
 11
2197.375000000002
 21
1312.99999999995
 31
0.0
  0
LINE
  5
411
330
1F
100
AcDbEntity
  8
化粧台
  6
EXLTYPE2
 62
     6
100
AcDbLine
 10
2232.000000000002
 20
1445.5
 30
0.0
 11
2223.500000000002
 21
1445.5
 31
0.0
  0
LINE
  5
412
330
1F
100
AcDbEntity
  8
化粧台
  6
EXLTYPE2
 62
     6
100
AcDbLine
 10
2243.500000000002
 20
1444.0
 30
0.0
 11
2237.000000000002
 21
1444.0
 31
0.0
  0
ARC
  5
413
330
1F
100
AcDbEntity
  8
化粧台
  6
EXLTYPE2
 62
     6
100
AcDbCircle
 10
2252.500000000002
 20
1448.0
 30
0.0
 40
3.000000000000003
100
AcDbArc
 50
270.0000000000002
 51
0.0
  0
LINE
  5
414
330
1F
100
AcDbEntity
  8
化粧台
  6
EXLTYPE2
 62
     6
100
AcDbLine
 10
2252.500000000002
 20
1445.0
 30
0.0
 11
2243.500000000002
 21
1445.0
 31
0.0
  0
LINE
  5
415
330
1F
100
AcDbEntity
  8
化粧台
  6
EXLTYPE2
 62
     6
100
AcDbLine
 10
2204.161264000004
 20
1445.802424
 30
0.0
 11
2223.500000000002
 21
1448.0
 31
0.0
  0
ARC
  5
416
330
1F
100
AcDbEntity
  8
化粧台
  6
EXLTYPE2
 62
     6
100
AcDbCircle
 10
2204.500000000002
 20
1442.821608
 30
0.0
 40
3.000000000000003
100
AcDbArc
 50
96.48307400000006
 51
180.0
  0
LINE
  5
417
330
1F
100
AcDbEntity
  8
化粧台
  6
EXLTYPE2
 62
     6
100
AcDbLine
 10
2201.500000000002
 20
1442.821608
 30
0.0
 11
2201.500000000002
 21
1439.0
 31
0.0
  0
LINE
  5
418
330
1F
100
AcDbEntity
  8
化粧台
  6
EXLTYPE2
 62
     6
100
AcDbLine
 10
2201.500000000002
 20
1439.0
 30
0.0
 11
2161.500000000002
 21
1439.0
 31
0.0
  0
LINE
  5
419
330
1F
100
AcDbEntity
  8
化粧台
  6
EXLTYPE2
 62
     6
100
AcDbLine
 10
2197.500000000002
 20
1437.0
 30
0.0
 11
2165.500000000002
 21
1437.0
 31
0.0
  0
LINE
  5
41A
330
1F
100
AcDbEntity
  8
化粧台
  6
EXLTYPE2
 62
     6
100
AcDbLine
 10
2197.500000000002
 20
1437.0
 30
0.0
 11
2201.500000000002
 21
1439.0
 31
0.0
  0
LINE
  5
41B
330
1F
100
AcDbEntity
  8
化粧台
  6
EXLTYPE2
 62
     6
100
AcDbLine
 10
2165.500000000002
 20
1437.0
 30
0.0
 11
2161.500000000002
 21
1439.0
 31
0.0
  0
LINE
  5
41C
330
1F
100
AcDbEntity
  8
化粧台
  6
EXLTYPE2
 62
     6
100
AcDbLine
 10
2237.000000000002
 20
1444.5
 30
0.0
 11
2232.000000000002
 21
1444.5
 31
0.0
  0
LINE
  5
41D
330
1F
100
AcDbEntity
  8
化粧台
  6
EXLTYPE2
 62
     6
100
AcDbLine
 10
2347.999999999998
 20
1362.475339050107
 30
0.0
 11
2347.999999999998
 21
1223.699999999999
 31
0.0
  0
LINE
  5
41E
330
1F
100
AcDbEntity
  8
化粧台
  6
EXLTYPE2
 62
     6
100
AcDbLine
 10
2360.999999999998
 20
1363.651716065574
 30
0.0
 11
2360.999999999998
 21
1223.699999999999
 31
0.0
  0
LINE
  5
41F
330
1F
100
AcDbEntity
  8
化粧台
  6
CONTINUOUS
 62
     6
100
AcDbLine
 10
2468.0
 20
1323.000000000001
 30
0.0
 11
2468.0
 21
1355.0
 31
0.0
  0
LINE
  5
420
330
1F
100
AcDbEntity
  8
化粧台
  6
EXLTYPE4
 62
     6
100
AcDbLine
 10
2317.0
 20
1355.000000000001
 30
0.0
 11
2467.999999999998
 21
1355.0
 31
0.0
  0
LINE
  5
421
330
1F
100
AcDbEntity
  8
化粧台
  6
EXLTYPE4
 62
     6
100
AcDbLine
 10
2317.0
 20
1323.000000000002
 30
0.0
 11
2467.999999999998
 21
1323.000000000002
 31
0.0
  0
LINE
  5
422
330
1F
100
AcDbEntity
  8
化粧台
  6
EXLTYPE3
 62
     6
100
AcDbLine
 10
2307.0
 20
1339.0
 30
0.0
 11
2477.999999999998
 21
1339.0
 31
0.0
  0
LINE
  5
423
330
1F
100
AcDbEntity
  8
化粧台
  6
CONTINUOUS
 62
     6
100
AcDbLine
 10
2370.0
 20
786.0
 30
0.0
 11
2349.0
 21
786.0
 31
0.0
  0
LINE
  5
424
330
1F
100
AcDbEntity
  8
化粧台
  6
CONTINUOUS
 62
     6
100
AcDbLine
 10
2293.500000000002
 20
764.0
 30
0.0
 11
2325.500000000002
 21
764.0
 31
0.0
  0
LINE
  5
425
330
1F
100
AcDbEntity
  8
化粧台
  6
EXLTYPE4
 62
     6
100
AcDbLine
 10
2325.500000000002
 20
994.0
 30
0.0
 11
2325.500000000002
 21
764.0
 31
0.0
  0
LINE
  5
426
330
1F
100
AcDbEntity
  8
化粧台
  6
EXLTYPE4
 62
     6
100
AcDbLine
 10
2293.500000000002
 20
994.0
 30
0.0
 11
2293.500000000002
 21
764.0
 31
0.0
  0
LINE
  5
427
330
1F
100
AcDbEntity
  8
化粧台
  6
EXLTYPE3
 62
     6
100
AcDbLine
 10
2309.5
 20
1004.0
 30
0.0
 11
2309.5
 21
754.0
 31
0.0
  0
LINE
  5
428
330
1F
100
AcDbEntity
  8
化粧台
  6
EXLTYPE3
 62
     6
100
AcDbLine
 10
2359.5
 20
1004.0
 30
0.0
 11
2359.5
 21
776.0
 31
0.0
  0
LINE
  5
429
330
1F
100
AcDbEntity
  8
化粧台
  6
EXLTYPE4
 62
     6
100
AcDbLine
 10
2349.0
 20
994.0
 30
0.0
 11
2349.0
 21
786.0
 31
0.0
  0
LINE
  5
42A
330
1F
100
AcDbEntity
  8
化粧台
  6
EXLTYPE4
 62
     6
100
AcDbLine
 10
2370.0
 20
994.0
 30
0.0
 11
2370.0
 21
786.0
 31
0.0
  0
LINE
  5
42B
330
1F
100
AcDbEntity
  8
化粧台
  6
EXLTYPE2
 62
     6
100
AcDbLine
 10
2159.5
 20
1312.99999999995
 30
0.0
 11
2203.5
 21
1312.99999999995
 31
0.0
  0
LINE
  5
42C
330
1F
100
AcDbEntity
  8
化粧台
  6
EXLTYPE2
 62
     6
100
AcDbLine
 10
2165.5
 20
1251.024886499969
 30
0.0
 11
2165.5
 21
1214.999999999951
 31
0.0
  0
LINE
  5
42D
330
1F
100
AcDbEntity
  8
化粧台
  6
EXLTYPE2
 62
     6
100
AcDbLine
 10
2197.5
 20
1251.024886499889
 30
0.0
 11
2197.5
 21
1214.999999999949
 31
0.0
  0
ARC
  5
42E
330
1F
100
AcDbEntity
  8
化粧台
  6
EXLTYPE2
 62
     6
100
AcDbCircle
 10
2219.5
 20
1214.99999999995
 30
0.0
 40
21.99999999999954
100
AcDbArc
 50
179.9999999999995
 51
0.0
  0
ARC
  5
42F
330
1F
100
AcDbEntity
  8
化粧台
  6
EXLTYPE2
 62
     6
100
AcDbCircle
 10
2219.5
 20
1214.99999999995
 30
0.0
 40
54.00000000000048
100
AcDbArc
 50
179.9999999999998
 51
0.0
  0
LINE
  5
430
330
1F
100
AcDbEntity
  8
化粧台
  6
EXLTYPE2
 62
     6
100
AcDbLine
 10
2165.5
 20
1251.399886499969
 30
0.0
 11
2197.5
 21
1251.399886499969
 31
0.0
  0
LINE
  5
431
330
1F
100
AcDbEntity
  8
化粧台
  6
EXLTYPE2
 62
     6
100
AcDbLine
 10
2164.750000000013
 20
1251.774886499962
 30
0.0
 11
2165.5
 21
1251.024886499973
 31
0.0
  0
LINE
  5
432
330
1F
100
AcDbEntity
  8
化粧台
  6
EXLTYPE2
 62
     6
100
AcDbLine
 10
2198.250000000031
 20
1251.77488649992
 30
0.0
 11
2197.5
 21
1251.024886499889
 31
0.0
  0
LINE
  5
433
330
1F
100
AcDbEntity
  8
化粧台
  6
EXLTYPE2
 62
     6
100
AcDbLine
 10
2198.249999999998
 20
1300.99999999995
 30
0.0
 11
2198.249999999998
 21
1251.774886499951
 31
0.0
  0
LINE
  5
434
330
1F
100
AcDbEntity
  8
化粧台
  6
EXLTYPE2
 62
     6
100
AcDbLine
 10
2164.75
 20
1300.99999999995
 30
0.0
 11
2164.75
 21
1251.774886499951
 31
0.0
  0
ELLIPSE
  5
435
330
1F
100
AcDbEntity
  8
化粧台
  6
EXLTYPE2
 62
     6
100
AcDbEllipse
 10
2162.85656803528
 20
1306.99999999995
 30
0.0
 11
3.673969509765480E-16
 21
6.00004754403219
 31
0.0
210
0.0
220
0.0
230
1.0
 40
0.8927542650237517
 41
0.0
 42
6.283185307179586
  0
ELLIPSE
  5
436
330
1F
100
AcDbEntity
  8
化粧台
  6
EXLTYPE2
 62
     6
100
AcDbEllipse
 10
2181.5
 20
1306.99999999995
 30
0.0
 11
10.66536450385001
 21
0.0
 31
0.0
210
0.0
220
0.0
230
1.0
 40
0.5625686771262349
 41
0.0
 42
6.283185307179586
  0
ELLIPSE
  5
437
330
1F
100
AcDbEntity
  8
化粧台
  6
EXLTYPE2
 62
     6
100
AcDbEllipse
 10
2200.14343196472
 20
1306.99999999995
 30
0.0
 11
3.673969509765456E-16
 21
6.000047544032152
 31
0.0
210
0.0
220
0.0
230
1.0
 40
0.8927542650237573
 41
0.0
 42
6.283185307179586
  0
LINE
  5
438
330
1F
100
AcDbEntity
  8
化粧台
  6
EXLTYPE2
 62
     6
100
AcDbLine
 10
2159.5
 20
1300.99999999995
 30
0.0
 11
2203.5
 21
1300.99999999995
 31
0.0
  0
ARC
  5
439
330
1F
100
AcDbEntity
  8
化粧台
  6
EXLTYPE2
 62
     6
100
AcDbCircle
 10
2195.5
 20
1306.99999999995
 30
0.0
 40
10.0
100
AcDbArc
 50
323.1301023541562
 51
36.869897645844
  0
ARC
  5
43A
330
1F
100
AcDbEntity
  8
化粧台
  6
EXLTYPE2
 62
     6
100
AcDbCircle
 10
2167.5
 20
1306.99999999995
 30
0.0
 40
10.0
100
AcDbArc
 50
143.1301023541561
 51
216.8698976458443
  0
ARC
  5
43B
330
1F
100
AcDbEntity
  8
化粧台
  6
EXLTYPE2
 62
     6
100
AcDbCircle
 10
2295.5
 20
1230.999999999948
 30
0.0
 40
54.00000000000068
100
AcDbArc
 50
90.00000000000004
 51
181.0610936076217
  0
ARC
  5
43C
330
1F
100
AcDbEntity
  8
化粧台
  6
EXLTYPE2
 62
     6
100
AcDbCircle
 10
2295.500000000002
 20
1230.999999999949
 30
0.0
 40
22.00000000000069
100
AcDbArc
 50
90.00000000000004
 51
182.6052512650556
  0
LINE
  5
43D
330
1F
100
AcDbEntity
  8
化粧台
  6
EXLTYPE2
 62
     6
100
AcDbLine
 10
2379.400000000001
 20
1290.997008
 30
0.0
 11
2379.400000000001
 21
1247.002992000001
 31
0.0
  0
ARC
  5
43E
330
1F
100
AcDbEntity
  8
化粧台
  6
EXLTYPE2
 62
     6
100
AcDbCircle
 10
2390.402990000001
 20
1290.997008
 30
0.0
 40
11.002992
100
AcDbArc
 50
90.00000000000009
 51
180.0000000000002
  0
ARC
  5
43F
330
1F
100
AcDbEntity
  8
化粧台
  6
EXLTYPE2
 62
     6
100
AcDbCircle
 10
2390.402990000001
 20
1247.002992000001
 30
0.0
 40
11.002992
100
AcDbArc
 50
180.0000000000002
 51
270.0000000000002
  0
LINE
  5
440
330
1F
100
AcDbEntity
  8
化粧台
  6
EXLTYPE2
 62
     6
100
AcDbLine
 10
2419.400000000001
 20
1302.000000000001
 30
0.0
 11
2419.400000000001
 21
1236.000000000001
 31
0.0
  0
LINE
  5
441
330
1F
100
AcDbEntity
  8
化粧台
  6
EXLTYPE2
 62
     6
100
AcDbLine
 10
2390.402990000001
 20
1302.000000000001
 30
0.0
 11
2419.400000000001
 21
1302.000000000001
 31
0.0
  0
LINE
  5
442
330
1F
100
AcDbEntity
  8
化粧台
  6
EXLTYPE2
 62
     6
100
AcDbLine
 10
2390.402990000001
 20
1236.000000000001
 30
0.0
 11
2419.400000000001
 21
1236.000000000001
 31
0.0
  0
ARC
  5
443
330
1F
100
AcDbEntity
  8
化粧台
  6
EXLTYPE2
 62
     6
100
AcDbCircle
 10
2427.0
 20
1255.0
 30
0.0
 40
10.0
100
AcDbArc
 50
233.1301023541561
 51
306.8698976458444
  0
ARC
  5
444
330
1F
100
AcDbEntity
  8
化粧台
  6
EXLTYPE2
 62
     6
100
AcDbCircle
 10
2427.0
 20
1283.0
 30
0.0
 40
10.0
100
AcDbArc
 50
53.13010235415626
 51
126.869897645844
  0
ELLIPSE
  5
445
330
1F
100
AcDbEntity
  8
化粧台
  6
EXLTYPE2
 62
     6
100
AcDbEllipse
 10
2427.0
 20
1287.64343196472
 30
0.0
 11
-6.000047544032152
 21
-4.594318843831003E-15
 31
0.0
210
0.0
220
0.0
230
1.0
 40
0.8927542650237573
 41
0.0
 42
6.283185307179586
  0
ELLIPSE
  5
446
330
1F
100
AcDbEntity
  8
化粧台
  6
EXLTYPE2
 62
     6
100
AcDbEllipse
 10
2427.0
 20
1269.0
 30
0.0
 11
-6.451494717847500E-15
 21
10.66536450385001
 31
0.0
210
0.0
220
0.0
230
1.0
 40
0.5625686771262349
 41
0.0
 42
6.283185307179586
  0
ELLIPSE
  5
447
330
1F
100
AcDbEntity
  8
化粧台
  6
EXLTYPE2
 62
     6
100
AcDbEllipse
 10
2427.0
 20
1250.35656803528
 30
0.0
 11
-6.00004754403219
 21
-4.594318843831032E-15
 31
0.0
210
0.0
220
0.0
230
1.0
 40
0.8927542650237517
 41
0.0
 42
6.283185307179586
  0
LINE
  5
448
330
1F
100
AcDbEntity
  8
化粧台
  6
EXLTYPE2
 62
     6
100
AcDbLine
 10
2421.0
 20
1247.0
 30
0.0
 11
2421.0
 21
1291.0
 31
0.0
  0
LINE
  5
449
330
1F
100
AcDbEntity
  8
化粧台
  6
EXLTYPE2
 62
     6
100
AcDbLine
 10
2433.0
 20
1247.0
 30
0.0
 11
2433.0
 21
1291.0
 31
0.0
  0
LINE
  5
44A
330
1F
100
AcDbEntity
  8
化粧台
  6
EXLTYPE2
 62
     6
100
AcDbLine
 10
2438.000000000004
 20
1239.0
 30
0.0
 11
2438.000000000004
 21
1299.0
 31
0.0
  0
LINE
  5
44B
330
1F
100
AcDbEntity
  8
化粧台
  6
EXLTYPE2
 62
     6
100
AcDbLine
 10
2436.000000000004
 20
1239.0
 30
0.0
 11
2436.000000000004
 21
1299.0
 31
0.0
  0
LINE
  5
44C
330
1F
100
AcDbEntity
  8
化粧台
  6
EXLTYPE2
 62
     6
100
AcDbLine
 10
2436.000000000004
 20
1239.0
 30
0.0
 11
2438.0
 21
1239.0
 31
0.0
  0
LINE
  5
44D
330
1F
100
AcDbEntity
  8
化粧台
  6
EXLTYPE2
 62
     6
100
AcDbLine
 10
2436.000000000004
 20
1299.0
 30
0.0
 11
2438.0
 21
1299.0
 31
0.0
  0
LINE
  5
44E
330
1F
100
AcDbEntity
  8
化粧台
  6
EXLTYPE2
 62
     6
100
AcDbLine
 10
2433.0
 20
1289.000000000002
 30
0.0
 11
2436.000000000004
 21
1289.000000000002
 31
0.0
  0
LINE
  5
44F
330
1F
100
AcDbEntity
  8
化粧台
  6
EXLTYPE2
 62
     6
100
AcDbLine
 10
2433.0
 20
1249.000000000002
 30
0.0
 11
2436.000000000004
 21
1249.000000000002
 31
0.0
  0
LINE
  5
450
330
1F
100
AcDbEntity
  8
化粧台
  6
EXLTYPE2
 62
     6
100
AcDbLine
 10
2295.5
 20
1285.000000000002
 30
0.0
 11
2379.400000000001
 21
1285.000000000002
 31
0.0
  0
LINE
  5
451
330
1F
100
AcDbEntity
  8
化粧台
  6
EXLTYPE2
 62
     6
100
AcDbLine
 10
2295.500000000002
 20
1253.000000000002
 30
0.0
 11
2379.400000000001
 21
1253.000000000002
 31
0.0
  0
LINE
  5
452
330
1F
100
AcDbEntity
  8
化粧台
  6
EXLTYPE2
 62
     6
100
AcDbLine
 10
2273.5
 20
1217.999999999949
 30
0.0
 11
2273.5
 21
1214.99999999995
 31
0.0
  0
LINE
  5
453
330
1F
100
AcDbEntity
  8
化粧台
  6
EXLTYPE2
 62
     6
100
AcDbLine
 10
2241.5
 20
1217.999999999949
 30
0.0
 11
2241.5
 21
1214.999999999949
 31
0.0
  0
ELLIPSE
  5
454
330
1F
100
AcDbEntity
  8
化粧台
  6
EXLTYPE2
 62
     6
100
AcDbEllipse
 10
2238.85656803528
 20
1223.99999999995
 30
0.0
 11
3.673969509765480E-16
 21
6.00004754403219
 31
0.0
210
0.0
220
0.0
230
1.0
 40
0.8927542650237517
 41
0.0
 42
6.283185307179586
  0
ELLIPSE
  5
455
330
1F
100
AcDbEntity
  8
化粧台
  6
EXLTYPE2
 62
     6
100
AcDbEllipse
 10
2257.5
 20
1223.99999999995
 30
0.0
 11
10.66536450385001
 21
0.0
 31
0.0
210
0.0
220
0.0
230
1.0
 40
0.5625686771262349
 41
0.0
 42
6.283185307179586
  0
ELLIPSE
  5
456
330
1F
100
AcDbEntity
  8
化粧台
  6
EXLTYPE2
 62
     6
100
AcDbEllipse
 10
2276.14343196472
 20
1223.99999999995
 30
0.0
 11
3.673969509765456E-16
 21
6.000047544032152
 31
0.0
210
0.0
220
0.0
230
1.0
 40
0.8927542650237573
 41
0.0
 42
6.283185307179586
  0
LINE
  5
457
330
1F
100
AcDbEntity
  8
化粧台
  6
EXLTYPE2
 62
     6
100
AcDbLine
 10
2235.5
 20
1229.99999999995
 30
0.0
 11
2279.5
 21
1229.99999999995
 31
0.0
  0
LINE
  5
458
330
1F
100
AcDbEntity
  8
化粧台
  6
EXLTYPE2
 62
     6
100
AcDbLine
 10
2235.5
 20
1217.999999999949
 30
0.0
 11
2279.5
 21
1217.999999999949
 31
0.0
  0
ARC
  5
459
330
1F
100
AcDbEntity
  8
化粧台
  6
EXLTYPE2
 62
     6
100
AcDbCircle
 10
2271.5
 20
1223.99999999995
 30
0.0
 40
10.0
100
AcDbArc
 50
323.1301023541562
 51
36.869897645844
  0
ARC
  5
45A
330
1F
100
AcDbEntity
  8
化粧台
  6
EXLTYPE2
 62
     6
100
AcDbCircle
 10
2243.5
 20
1223.99999999995
 30
0.0
 40
10.0
100
AcDbArc
 50
143.1301023541561
 51
216.8698976458443
  0
LINE
  5
45B
330
1F
100
AcDbEntity
  8
化粧台
  6
EXLTYPE3
 62
     6
100
AcDbLine
 10
2473.0
 20
1269.0
 30
0.0
 11
2295.5
 21
1269.0
 31
0.0
  0
LINE
  5
45C
330
1F
100
AcDbEntity
  8
化粧台
  6
EXLTYPE2
 62
     6
100
AcDbLine
 10
2420.9
 20
1443.9999999992
 30
0.0
 11
2420.9
 21
1043.9999999994
 31
0.0
  0
LINE
  5
45D
330
1F
100
AcDbEntity
  8
化粧台
  6
EXLTYPE2
 62
     6
100
AcDbLine
 10
2420.9
 20
1043.9999999994
 30
0.0
 11
2438.4
 21
1043.9999999994
 31
0.0
  0
LINE
  5
45E
330
1F
100
AcDbEntity
  8
化粧台
  6
CONTINUOUS
 62
     6
100
AcDbLine
 10
2438.000000000004
 20
1243.5
 30
0.0
 11
2463.0
 21
1243.5
 31
0.0
  0
LINE
  5
45F
330
1F
100
AcDbEntity
  8
化粧台
  6
CONTINUOUS
 62
     6
100
AcDbLine
 10
2463.0
 20
1243.5
 30
0.0
 11
2463.0
 21
1294.5
 31
0.0
  0
LINE
  5
460
330
1F
100
AcDbEntity
  8
化粧台
  6
CONTINUOUS
 62
     6
100
AcDbLine
 10
2438.000000000004
 20
1294.5
 30
0.0
 11
2463.0
 21
1294.5
 31
0.0
  0
LINE
  5
461
330
1F
100
AcDbEntity
  8
化粧台
  6
EXLTYPE3
 62
     6
100
AcDbLine
 10
2181.499999999982
 20
1504.0
 30
0.0
 11
2181.499999999982
 21
1251.000000000001
 31
0.0
  0
LINE
  5
462
330
1F
100
AcDbEntity
  8
化粧台
  6
EXLTYPE4
 62
     6
100
AcDbLine
 10
2439.5
 20
794.0
 30
0.0
 11
1810.999999999997
 21
794.0
 31
0.0
  0
LINE
  5
463
330
1F
100
AcDbEntity
  8
化粧台
  6
CONTINUOUS
 62
     2
100
AcDbLine
 10
1989.499999999999
 20
1494.0
 30
0.0
 11
1989.499999999999
 21
794.0
 31
0.0
  0
LINE
  5
464
330
1F
100
AcDbEntity
  8
化粧台
  6
CONTINUOUS
 62
     2
100
AcDbLine
 10
1989.499999999999
 20
794.0
 30
0.0
 11
2439.5
 21
794.0
 31
0.0
  0
LINE
  5
465
330
1F
100
AcDbEntity
  8
化粧台
  6
CONTINUOUS
 62
     2
100
AcDbLine
 10
2439.500000000002
 20
1494.0
 30
0.0
 11
1989.499999999996
 21
1494.0
 31
0.0
  0
LINE
  5
466
330
1F
100
AcDbEntity
  8
化粧台
  6
EXLTYPE2
 62
     6
100
AcDbLine
 10
1989.499999999996
 20
1443.9999999994
 30
0.0
 11
2439.500000000002
 21
1443.9999999994
 31
0.0
  0
LINE
  5
467
330
1F
100
AcDbEntity
  8
化粧台
  6
CONTINUOUS
 62
     6
100
AcDbLine
 10
2447.49999999995
 20
1244.499999999995
 30
0.0
 11
2447.49999999995
 21
1223.499999999995
 31
0.0
  0
LINE
  5
468
330
1F
100
AcDbEntity
  8
化粧台
  6
EXLTYPE2
 62
     6
100
AcDbLine
 10
2420.89999999995
 20
1223.499999999995
 30
0.0
 11
2447.49999999995
 21
1223.499999999995
 31
0.0
  0
LINE
  5
469
330
1F
100
AcDbEntity
  8
化粧台
  6
EXLTYPE2
 62
     6
100
AcDbLine
 10
2420.89999999995
 20
1244.499999999995
 30
0.0
 11
2447.49999999995
 21
1244.499999999995
 31
0.0
  0
LINE
  5
46A
330
1F
100
AcDbEntity
  8
化粧台
  6
EXLTYPE2
 62
     6
100
AcDbLine
 10
2418.89999999995
 20
1261.499999999995
 30
0.0
 11
2420.89999999995
 21
1261.499999999995
 31
0.0
  0
ARC
  5
46B
330
1F
100
AcDbEntity
  8
化粧台
  6
EXLTYPE2
 62
     6
100
AcDbCircle
 10
2418.89999999995
 20
1248.499999999995
 30
0.0
 40
13.00000000000001
100
AcDbArc
 50
90.00000000000004
 51
156.4191633962913
  0
ARC
  5
46C
330
1F
100
AcDbEntity
  8
化粧台
  6
EXLTYPE2
 62
     6
100
AcDbCircle
 10
2430.172907943644
 20
1243.579477010208
 30
0.0
 40
25.3
100
AcDbArc
 50
156.4191633962913
 51
177.3482222838639
  0
LINE
  5
46D
330
1F
100
AcDbEntity
  8
化粧台
  6
EXLTYPE2
 62
     6
100
AcDbLine
 10
2404.89999999995
 20
1223.249999999995
 30
0.0
 11
2404.89999999995
 21
1244.749999999995
 31
0.0
  0
ARC
  5
46E
330
1F
100
AcDbEntity
  8
化粧台
  6
EXLTYPE2
 62
     6
100
AcDbCircle
 10
2418.89999999995
 20
1219.499999999995
 30
0.0
 40
13.00000000000001
100
AcDbArc
 50
203.5808366037087
 51
270.0000000000002
  0
ARC
  5
46F
330
1F
100
AcDbEntity
  8
化粧台
  6
EXLTYPE2
 62
     6
100
AcDbCircle
 10
2430.172907943644
 20
1224.420522989782
 30
0.0
 40
25.3
100
AcDbArc
 50
182.6517777161361
 51
203.5808366037087
  0
LINE
  5
470
330
1F
100
AcDbEntity
  8
化粧台
  6
EXLTYPE2
 62
     6
100
AcDbLine
 10
2418.89999999995
 20
1206.499999999995
 30
0.0
 11
2420.89999999995
 21
1206.499999999995
 31
0.0
  0
LINE
  5
471
330
1F
100
AcDbEntity
  8
化粧台
  6
EXLTYPE2
 62
     6
100
AcDbLine
 10
2382.49999999995
 20
1223.499999999995
 30
0.0
 11
2404.89999999995
 21
1223.499999999995
 31
0.0
  0
LINE
  5
472
330
1F
100
AcDbEntity
  8
化粧台
  6
EXLTYPE2
 62
     6
100
AcDbLine
 10
2382.49999999995
 20
1244.499999999995
 30
0.0
 11
2404.89999999995
 21
1244.499999999995
 31
0.0
  0
LINE
  5
473
330
1F
100
AcDbEntity
  8
化粧台
  6
CONTINUOUS
 62
     6
100
AcDbLine
 10
2354.49999999995
 20
1263.999999999995
 30
0.0
 11
2354.49999999995
 21
1203.999999999995
 31
0.0
  0
ARC
  5
474
330
1F
100
AcDbEntity
  8
化粧台
  6
EXLTYPE2
 62
     6
100
AcDbCircle
 10
2375.733492688936
 20
1222.958176101739
 30
0.0
 40
6.48477522399863
100
AcDbArc
 50
334.5814208763676
 51
34.58142087631842
  0
ARC
  5
475
330
1F
100
AcDbEntity
  8
化粧台
  6
EXLTYPE2
 62
     6
100
AcDbCircle
 10
2375.733492688938
 20
1245.04182389825
 30
0.0
 40
6.484775223996668
100
AcDbArc
 50
325.4185791236709
 51
25.41857912362466
  0
LINE
  5
476
330
1F
100
AcDbEntity
  8
化粧台
  6
EXLTYPE2
 62
     6
100
AcDbLine
 10
2321.49999999995
 20
1238.749999999995
 30
0.0
 11
2321.49999999995
 21
1229.249999999995
 31
0.0
  0
LINE
  5
477
330
1F
100
AcDbEntity
  8
化粧台
  6
EXLTYPE2
 62
     6
100
AcDbLine
 10
2321.49999999995
 20
1229.249999999995
 30
0.0
 11
2327.099999999951
 21
1229.249999999995
 31
0.0
  0
LINE
  5
478
330
1F
100
AcDbEntity
  8
化粧台
  6
EXLTYPE2
 62
     6
100
AcDbLine
 10
2321.49999999995
 20
1238.749999999995
 30
0.0
 11
2327.099999999951
 21
1238.749999999995
 31
0.0
  0
LINE
  5
479
330
1F
100
AcDbEntity
  8
化粧台
  6
EXLTYPE2
 62
     6
100
AcDbLine
 10
2364.99999999995
 20
1249.999999999995
 30
0.0
 11
2364.99999999995
 21
1256.699999999994
 31
0.0
  0
LINE
  5
47A
330
1F
100
AcDbEntity
  8
化粧台
  6
EXLTYPE2
 62
     6
100
AcDbLine
 10
2343.99999999995
 20
1249.999999999995
 30
0.0
 11
2343.99999999995
 21
1256.699999999994
 31
0.0
  0
LINE
  5
47B
330
1F
100
AcDbEntity
  8
化粧台
  6
EXLTYPE2
 62
     6
100
AcDbLine
 10
2381.07254079752
 20
1241.361215932164
 30
0.0
 11
2375.49999999995
 21
1241.361215932164
 31
0.0
  0
ARC
  5
47C
330
1F
100
AcDbEntity
  8
化粧台
  6
EXLTYPE2
 62
     6
100
AcDbCircle
 10
2357.850108933122
 20
1233.999999999995
 30
0.0
 40
24.36121593222906
100
AcDbArc
 50
342.4120462260467
 51
17.58795377395367
  0
LINE
  5
47D
330
1F
100
AcDbEntity
  8
化粧台
  6
EXLTYPE2
 62
     6
100
AcDbLine
 10
2381.07254079752
 20
1226.638784067824
 30
0.0
 11
2375.49999999995
 21
1226.638784067824
 31
0.0
  0
ARC
  5
47E
330
1F
100
AcDbEntity
  8
化粧台
  6
EXLTYPE2
 62
     6
100
AcDbCircle
 10
2376.10996418847
 20
1222.958176101739
 30
0.0
 40
3.730808399165755
100
AcDbArc
 50
99.40974969436748
 51
210.0722396099043
  0
ARC
  5
47F
330
1F
100
AcDbEntity
  8
化粧台
  6
EXLTYPE2
 62
     6
100
AcDbCircle
 10
2382.660901979765
 20
1233.999999999995
 30
0.0
 40
10.26966490030429
100
AcDbArc
 50
134.209728477994
 51
225.790271522007
  0
ARC
  5
480
330
1F
100
AcDbEntity
  8
化粧台
  6
EXLTYPE2
 62
     6
100
AcDbCircle
 10
2376.10996418847
 20
1245.04182389825
 30
0.0
 40
3.730808399165569
100
AcDbArc
 50
149.9277603900981
 51
260.590250305647
  0
LINE
  5
481
330
1F
100
AcDbEntity
  8
化粧台
  6
EXLTYPE2
 62
     6
100
AcDbLine
 10
2339.99999999995
 20
1221.499999999995
 30
0.0
 11
2370.60587997233
 21
1221.499999999995
 31
0.0
  0
LINE
  5
482
330
1F
100
AcDbEntity
  8
化粧台
  6
EXLTYPE2
 62
     6
100
AcDbLine
 10
2339.99999999995
 20
1246.499999999995
 30
0.0
 11
2340.49999999995
 21
1246.499999999995
 31
0.0
  0
ELLIPSE
  5
483
330
1F
100
AcDbEntity
  8
化粧台
  6
EXLTYPE2
 62
     6
100
AcDbEllipse
 10
2336.22508278231
 20
1245.295087933354
 30
0.0
 11
-3.49106001094
 21
-2.673152616792092E-15
 31
0.0
210
0.0
220
0.0
230
1.0
 40
0.8464225929603442
 41
0.0
 42
6.283185307179586
  0
ELLIPSE
  5
484
330
1F
100
AcDbEntity
  8
化粧台
  6
EXLTYPE2
 62
     6
100
AcDbEllipse
 10
2336.22508278231
 20
1233.999999999995
 30
0.0
 11
-3.530391779415926E-15
 21
5.83630876496
 31
0.0
210
0.0
220
0.0
230
1.0
 40
0.5981623234020119
 41
0.0
 42
6.283185307179586
  0
ELLIPSE
  5
485
330
1F
100
AcDbEntity
  8
化粧台
  6
EXLTYPE2
 62
     6
100
AcDbEllipse
 10
2336.22508278231
 20
1222.704912066635
 30
0.0
 11
-3.49106001094
 21
-2.673152616792092E-15
 31
0.0
210
0.0
220
0.0
230
1.0
 40
0.8464225929603442
 41
0.0
 42
6.283185307179586
  0
LINE
  5
486
330
1F
100
AcDbEntity
  8
化粧台
  6
EXLTYPE2
 62
     6
100
AcDbLine
 10
2331.84345017767
 20
1221.925651083604
 30
0.0
 11
2331.84345017767
 21
1246.074348916484
 31
0.0
  0
LINE
  5
487
330
1F
100
AcDbEntity
  8
化粧台
  6
EXLTYPE2
 62
     6
100
AcDbLine
 10
2327.099999999951
 20
1239.299999999994
 30
0.0
 11
2331.84345017767
 21
1246.074348916385
 31
0.0
  0
ARC
  5
488
330
1F
100
AcDbEntity
  8
化粧台
  6
EXLTYPE2
 62
     6
100
AcDbCircle
 10
2336.22508278231
 20
1242.749999999995
 30
0.0
 40
5.5
100
AcDbArc
 50
46.65824177279989
 51
142.8123740608007
  0
LINE
  5
489
330
1F
100
AcDbEntity
  8
化粧台
  6
EXLTYPE2
 62
     6
100
AcDbLine
 10
2327.099999999951
 20
1228.699999999994
 30
0.0
 11
2331.84345017767
 21
1221.925651083604
 31
0.0
  0
ARC
  5
48A
330
1F
100
AcDbEntity
  8
化粧台
  6
EXLTYPE2
 62
     6
100
AcDbCircle
 10
2336.22508278231
 20
1225.249999999995
 30
0.0
 40
5.5
100
AcDbArc
 50
217.1876259392006
 51
313.3417582272002
  0
LINE
  5
48B
330
1F
100
AcDbEntity
  8
化粧台
  6
EXLTYPE2
 62
     6
100
AcDbLine
 10
2339.99999999995
 20
1221.249999999995
 30
0.0
 11
2339.99999999995
 21
1246.749999999995
 31
0.0
  0
LINE
  5
48C
330
1F
100
AcDbEntity
  8
化粧台
  6
EXLTYPE2
 62
     6
100
AcDbLine
 10
2327.099999999951
 20
1228.699999999994
 30
0.0
 11
2327.099999999951
 21
1239.299999999994
 31
0.0
  0
LINE
  5
48D
330
1F
100
AcDbEntity
  8
化粧台
  6
EXLTYPE2
 62
     6
100
AcDbLine
 10
2368.49999999995
 20
1246.499999999995
 30
0.0
 11
2370.605879972326
 21
1246.499999999995
 31
0.0
  0
ARC
  5
48E
330
1F
100
AcDbEntity
  8
化粧台
  6
EXLTYPE2
 62
     6
100
AcDbCircle
 10
2368.49999999995
 20
1249.999999999995
 30
0.0
 40
3.500000000000002
100
AcDbArc
 50
180.0
 51
270.0000000000002
  0
ARC
  5
48F
330
1F
100
AcDbEntity
  8
化粧台
  6
EXLTYPE2
 62
     6
100
AcDbCircle
 10
2340.49999999995
 20
1249.999999999995
 30
0.0
 40
3.500000000000002
100
AcDbArc
 50
270.0000000000002
 51
0.0
  0
LINE
  5
490
330
1F
100
AcDbEntity
  8
化粧台
  6
EXLTYPE2
 62
     6
100
AcDbLine
 10
2381.07254079752
 20
1219.277568135655
 30
0.0
 11
2375.49999999995
 21
1219.277568135655
 31
0.0
  0
LINE
  5
491
330
1F
100
AcDbEntity
  8
化粧台
  6
EXLTYPE2
 62
     6
100
AcDbLine
 10
2381.07254079752
 20
1248.722431864334
 30
0.0
 11
2375.49999999995
 21
1248.722431864334
 31
0.0
  0
LINE
  5
492
330
1F
100
AcDbEntity
  8
化粧台
  6
EXLTYPE2
 62
     6
100
AcDbLine
 10
2382.49999999995
 20
1246.249999999995
 30
0.0
 11
2382.49999999995
 21
1221.749999999995
 31
0.0
  0
LINE
  5
493
330
1F
100
AcDbEntity
  8
化粧台
  6
EXLTYPE2
 62
     6
100
AcDbLine
 10
2382.499999999949
 20
1221.749999999995
 30
0.0
 11
2381.072540797518
 21
1219.277568135655
 31
0.0
  0
LINE
  5
494
330
1F
100
AcDbEntity
  8
化粧台
  6
EXLTYPE2
 62
     6
100
AcDbLine
 10
2382.499999999949
 20
1246.249999999994
 30
0.0
 11
2381.072540797518
 21
1248.722431864334
 31
0.0
  0
ARC
  5
495
330
1F
100
AcDbEntity
  8
化粧台
  6
EXLTYPE2
 62
     6
100
AcDbCircle
 10
2370.605879972326
 20
1214.999999999995
 30
0.0
 40
6.500000000000004
100
AcDbArc
 50
41.1541700736668
 51
90.00000000000004
  0
ARC
  5
496
330
1F
100
AcDbEntity
  8
化粧台
  6
EXLTYPE2
 62
     6
100
AcDbCircle
 10
2370.605879972326
 20
1252.999999999995
 30
0.0
 40
6.500000000000004
100
AcDbArc
 50
270.0000000000002
 51
318.8458299263331
  0
ARC
  5
497
330
1F
100
AcDbEntity
  8
化粧台
  6
EXLTYPE2
 62
     6
100
AcDbCircle
 10
2352.749999999949
 20
1262.699999999994
 30
0.0
 40
11.0
100
AcDbArc
 50
146.9442688491499
 51
213.0557311508992
  0
LINE
  5
498
330
1F
100
AcDbEntity
  8
化粧台
  6
EXLTYPE2
 62
     6
100
AcDbLine
 10
2365.469544457238
 20
1256.699999999994
 30
0.0
 11
2343.530455542659
 21
1256.699999999994
 31
0.0
  0
ARC
  5
499
330
1F
100
AcDbEntity
  8
化粧台
  6
EXLTYPE2
 62
     6
100
AcDbCircle
 10
2356.249999999949
 20
1262.699999999994
 30
0.0
 40
11.0
100
AcDbArc
 50
326.9442688491002
 51
33.05573115089992
  0
LINE
  5
49A
330
1F
100
AcDbEntity
  8
化粧台
  6
EXLTYPE2
 62
     6
100
AcDbLine
 10
2365.469544457238
 20
1268.699999999994
 30
0.0
 11
2343.530455542659
 21
1268.699999999994
 31
0.0
  0
ELLIPSE
  5
49B
330
1F
100
AcDbEntity
  8
化粧台
  6
EXLTYPE2
 62
     6
100
AcDbEllipse
 10
2344.52177364979
 20
1262.699999999994
 30
0.0
 11
-9.355482006098073E-16
 21
-5.09288719687
 31
0.0
210
0.0
220
0.0
230
1.0
 40
0.544244068775661
 41
0.0
 42
6.283185307179586
  0
ELLIPSE
  5
49C
330
1F
100
AcDbEntity
  8
化粧台
  6
EXLTYPE2
 62
     6
100
AcDbEllipse
 10
2354.499999999949
 20
1262.699999999994
 30
0.0
 11
5.50567888639
 21
0.0
 31
0.0
210
0.0
220
0.0
230
1.0
 40
0.9250243797290071
 41
0.0
 42
6.283185307179586
  0
ELLIPSE
  5
49D
330
1F
100
AcDbEntity
  8
化粧台
  6
EXLTYPE2
 62
     6
100
AcDbEllipse
 10
2364.478226350111
 20
1262.699999999994
 30
0.0
 11
3.118494002032691E-16
 21
5.09288719687
 31
0.0
210
0.0
220
0.0
230
1.0
 40
0.544244068775661
 41
0.0
 42
6.283185307179586
  0
LINE
  5
49E
330
1F
100
AcDbEntity
  8
化粧台
  6
EXLTYPE3
 62
     6
100
AcDbLine
 10
2311.49999999995
 20
1233.999999999995
 30
0.0
 11
2457.499999999949
 21
1233.999999999995
 31
0.0
  0
TEXT
  5
49F
330
1F
100
AcDbEntity
  8
化粧台
  6
CONTINUOUS
 62
     2
100
AcDbText
 10
2439.5
 20
2921.500000536442
 30
0.0
 40
59.99999618530273
  1
W.L.
 50
90.0
 41
0.5571963512150626
  7
EXCADSTD
 72
     5
 11
2439.5
 21
3012.243400536442
 31
0.0
100
AcDbText
  0
LINE
  5
4A0
330
1F
100
AcDbEntity
  8
化粧台
  6
EXLTYPE4
 62
     6
100
AcDbLine
 10
2439.5
 20
794.0
 30
0.0
 11
2439.5
 21
3016.5
 31
0.0
  0
LINE
  5
4A1
330
1F
100
AcDbEntity
  8
鏡台
  6
CONTINUOUS
 62
     2
100
AcDbLine
 10
2319.5
 20
2694.0
 30
0.0
 11
2319.5
 21
1894.0
 31
0.0
  0
LINE
  5
4A2
330
1F
100
AcDbEntity
  8
鏡台
  6
CONTINUOUS
 62
     2
100
AcDbLine
 10
2439.5
 20
2694.0
 30
0.0
 11
2439.5
 21
1894.0
 31
0.0
  0
LINE
  5
4A3
330
1F
100
AcDbEntity
  8
鏡台
  6
CONTINUOUS
 62
     2
100
AcDbLine
 10
2319.5
 20
2694.0
 30
0.0
 11
2439.5
 21
2694.0
 31
0.0
  0
LINE
  5
4A4
330
1F
100
AcDbEntity
  8
鏡台
  6
CONTINUOUS
 62
     2
100
AcDbLine
 10
2319.5
 20
1894.0
 30
0.0
 11
2439.5
 21
1894.0
 31
0.0
  0
LINE
  5
4A5
330
1F
100
AcDbEntity
  8
鏡台
  6
CONTINUOUS
 62
     6
100
AcDbLine
 10
2439.500000000002
 20
2636.0
 30
0.0
 11
2472.0
 21
2634.0
 31
0.0
  0
LINE
  5
4A6
330
1F
100
AcDbEntity
  8
鏡台
  6
CONTINUOUS
 62
     6
100
AcDbLine
 10
2472.0
 20
2634.0
 30
0.0
 11
2439.5
 21
2632.0
 31
0.0
  0
LINE
  5
4A7
330
1F
100
AcDbEntity
  8
鏡台
  6
CONTINUOUS
 62
     6
100
AcDbLine
 10
2429.499999999998
 20
2634.0
 30
0.0
 11
2481.999999999998
 21
2634.0
 31
0.0
  0
LINE
  5
4A8
330
1F
100
AcDbEntity
  8
鏡台
  6
CONTINUOUS
 62
     6
100
AcDbLine
 10
2439.500000000002
 20
1926.0
 30
0.0
 11
2472.0
 21
1924.0
 31
0.0
  0
LINE
  5
4A9
330
1F
100
AcDbEntity
  8
鏡台
  6
CONTINUOUS
 62
     6
100
AcDbLine
 10
2472.0
 20
1924.0
 30
0.0
 11
2439.5
 21
1922.0
 31
0.0
  0
LINE
  5
4AA
330
1F
100
AcDbEntity
  8
鏡台
  6
CONTINUOUS
 62
     6
100
AcDbLine
 10
2429.499999999998
 20
1924.0
 30
0.0
 11
2481.999999999998
 21
1924.0
 31
0.0
  0
LINE
  5
4AB
330
1F
100
AcDbEntity
  8
鏡台
  6
CONTINUOUS
 62
     6
100
AcDbLine
 10
2399.5
 20
1897.0
 30
0.0
 11
2399.5
 21
1894.0
 31
0.0
  0
LINE
  5
4AC
330
1F
100
AcDbEntity
  8
鏡台
  6
CONTINUOUS
 62
     6
100
AcDbLine
 10
2436.5
 20
1934.0
 30
0.0
 11
2439.5
 21
1934.0
 31
0.0
  0
LINE
  5
4AD
330
1F
100
AcDbEntity
  8
鏡台
  6
EXLTYPE2
 62
     6
100
AcDbLine
 10
2399.5
 20
1897.0
 30
0.0
 11
2436.5
 21
1897.0
 31
0.0
  0
LINE
  5
4AE
330
1F
100
AcDbEntity
  8
鏡台
  6
EXLTYPE2
 62
     6
100
AcDbLine
 10
2436.5
 20
1934.0
 30
0.0
 11
2436.5
 21
1897.0
 31
0.0
  0
LINE
  5
4AF
330
1F
100
AcDbEntity
  8
寸法
  6
CONTINUOUS
 62
     3
100
AcDbLine
 10
2359.5
 20
775.5000001788139
 30
0.0
 11
2359.5
 21
659.0
 31
0.0
  0
LINE
  5
4B0
330
1F
100
AcDbEntity
  8
寸法
  6
CONTINUOUS
 62
     3
100
AcDbLine
 10
2439.5
 20
783.5000001788138
 30
0.0
 11
2439.5
 21
659.0
 31
0.0
  0
TEXT
  5
4B1
330
1F
100
AcDbEntity
  8
寸法
  6
CONTINUOUS
 62
     2
100
AcDbText
 10
2484.5
 20
679.249999910593
 30
0.0
 40
59.99999618530273
  1
８０
 41
1.020759090909089
  7
EXCADSTD
 72
     5
 11
2580.742993881035
 21
679.249999910593
 31
0.0
100
AcDbText
  0
TEXT
  5
4B2
330
1F
100
AcDbEntity
  8
寸法
  6
CONTINUOUS
 62
     2
100
AcDbText
 10
2582.0
 20
679.249999910593
 30
0.0
 40
48.0
  1
（床給水）
 41
0.9655172413793105
  7
EXCADSTD
 72
     5
 11
2774.0
 21
679.249999910593
 31
0.0
100
AcDbText
  0
LINE
  5
4B3
330
1F
100
AcDbEntity
  8
寸法
  6
CONTINUOUS
 62
     3
100
AcDbLine
 10
2314.5
 20
674.0
 30
0.0
 11
2771.749994277954
 21
674.0
 31
0.0
  0
LINE
  5
4B4
330
1F
100
AcDbEntity
  8
寸法
  6
CONTINUOUS
 62
     3
100
AcDbLine
 10
2314.5
 20
666.5
 30
0.0
 11
2359.5
 21
674.0
 31
0.0
  0
LINE
  5
4B5
330
1F
100
AcDbEntity
  8
寸法
  6
CONTINUOUS
 62
     3
100
AcDbLine
 10
2359.5
 20
674.0
 30
0.0
 11
2314.5
 21
681.5000000000001
 31
0.0
  0
LINE
  5
4B6
330
1F
100
AcDbEntity
  8
寸法
  6
CONTINUOUS
 62
     3
100
AcDbLine
 10
2484.5
 20
681.5
 30
0.0
 11
2439.5
 21
674.0
 31
0.0
  0
LINE
  5
4B7
330
1F
100
AcDbEntity
  8
寸法
  6
CONTINUOUS
 62
     3
100
AcDbLine
 10
2439.5
 20
674.0
 30
0.0
 11
2484.5
 21
666.5
 31
0.0
  0
LINE
  5
4B8
330
1F
100
AcDbEntity
  8
寸法
  6
CONTINUOUS
 62
     3
100
AcDbLine
 10
2309.5
 20
753.5000001788138
 30
0.0
 11
2309.5
 21
569.0
 31
0.0
  0
LINE
  5
4B9
330
1F
100
AcDbEntity
  8
寸法
  6
CONTINUOUS
 62
     3
100
AcDbLine
 10
2439.5
 20
783.5000001788138
 30
0.0
 11
2439.5
 21
569.0
 31
0.0
  0
TEXT
  5
4BA
330
1F
100
AcDbEntity
  8
寸法
  6
CONTINUOUS
 62
     2
100
AcDbText
 10
2484.5
 20
589.249999910593
 30
0.0
 40
59.99999618530273
  1
１３０
 41
1.029411764705882
  7
EXCADSTD
 72
     5
 11
2634.499990463257
 21
589.249999910593
 31
0.0
100
AcDbText
  0
TEXT
  5
4BB
330
1F
100
AcDbEntity
  8
寸法
  6
CONTINUOUS
 62
     2
100
AcDbText
 10
2627.0
 20
589.249999910593
 30
0.0
 40
48.0
  1
（Ｓトラップ）
 41
0.9390243902439025
  7
EXCADSTD
 72
     5
 11
2891.0
 21
589.249999910593
 31
0.0
100
AcDbText
  0
LINE
  5
4BC
330
1F
100
AcDbEntity
  8
寸法
  6
CONTINUOUS
 62
     3
100
AcDbLine
 10
2264.5
 20
584.0
 30
0.0
 11
2888.750011444092
 21
584.0
 31
0.0
  0
LINE
  5
4BD
330
1F
100
AcDbEntity
  8
寸法
  6
CONTINUOUS
 62
     3
100
AcDbLine
 10
2264.5
 20
576.5
 30
0.0
 11
2309.5
 21
584.0
 31
0.0
  0
LINE
  5
4BE
330
1F
100
AcDbEntity
  8
寸法
  6
CONTINUOUS
 62
     3
100
AcDbLine
 10
2309.5
 20
584.0
 30
0.0
 11
2264.5
 21
591.5000000000001
 31
0.0
  0
LINE
  5
4BF
330
1F
100
AcDbEntity
  8
寸法
  6
CONTINUOUS
 62
     3
100
AcDbLine
 10
2484.5
 20
591.5
 30
0.0
 11
2439.5
 21
584.0
 31
0.0
  0
LINE
  5
4C0
330
1F
100
AcDbEntity
  8
寸法
  6
CONTINUOUS
 62
     3
100
AcDbLine
 10
2439.5
 20
584.0
 30
0.0
 11
2484.5
 21
576.5
 31
0.0
  0
LINE
  5
4C1
330
1F
100
AcDbEntity
  8
寸法
  6
CONTINUOUS
 62
     3
100
AcDbLine
 10
2449.999999821186
 20
794.0
 30
0.0
 11
2829.5
 21
793.9999999999972
 31
0.0
  0
LINE
  5
4C2
330
1F
100
AcDbEntity
  8
寸法
  6
CONTINUOUS
 62
     3
100
AcDbLine
 10
2481.899999821186
 20
1414.0
 30
0.0
 11
2829.5
 21
1414.0
 31
0.0
  0
TEXT
  5
4C3
330
1F
100
AcDbEntity
  8
寸法
  6
CONTINUOUS
 62
     2
100
AcDbText
 10
2809.250000089407
 20
940.4999999999985
 30
0.0
 40
59.99999618530273
  1
６２０
 50
90.0
 41
1.029411764705883
  7
EXCADSTD
 72
     5
 11
2809.250000089407
 21
1090.499990463255
 31
0.0
100
AcDbText
  0
TEXT
  5
4C4
330
1F
100
AcDbEntity
  8
寸法
  6
CONTINUOUS
 62
     2
100
AcDbText
 10
2809.250000089407
 20
1082.999999999999
 30
0.0
 40
48.0
  1
（壁固定）
 50
90.0
 41
0.9655172413793105
  7
EXCADSTD
 72
     5
 11
2809.250000089407
 21
1274.999999999999
 31
0.0
100
AcDbText
  0
LINE
  5
4C5
330
1F
100
AcDbEntity
  8
寸法
  6
CONTINUOUS
 62
     3
100
AcDbLine
 10
2814.5
 20
793.9999999999973
 30
0.0
 11
2814.5
 21
1414.0
 31
0.0
  0
LINE
  5
4C6
330
1F
100
AcDbEntity
  8
寸法
  6
CONTINUOUS
 62
     3
100
AcDbLine
 10
2807.0
 20
838.9999999999973
 30
0.0
 11
2814.5
 21
793.9999999999973
 31
0.0
  0
LINE
  5
4C7
330
1F
100
AcDbEntity
  8
寸法
  6
CONTINUOUS
 62
     3
100
AcDbLine
 10
2814.5
 20
793.9999999999973
 30
0.0
 11
2822.0
 21
838.9999999999973
 31
0.0
  0
LINE
  5
4C8
330
1F
100
AcDbEntity
  8
寸法
  6
CONTINUOUS
 62
     3
100
AcDbLine
 10
2822.0
 20
1369.0
 30
0.0
 11
2814.5
 21
1414.0
 31
0.0
  0
LINE
  5
4C9
330
1F
100
AcDbEntity
  8
寸法
  6
CONTINUOUS
 62
     3
100
AcDbLine
 10
2814.5
 20
1414.0
 30
0.0
 11
2807.0
 21
1369.0
 31
0.0
  0
LINE
  5
4CA
330
1F
100
AcDbEntity
  8
寸法
  6
CONTINUOUS
 62
     3
100
AcDbLine
 10
2449.999999821186
 20
793.9999999999999
 30
0.0
 11
2649.5
 21
793.9999999999981
 31
0.0
  0
LINE
  5
4CB
330
1F
100
AcDbEntity
  8
寸法
  6
CONTINUOUS
 62
     3
100
AcDbLine
 10
2473.499999821186
 20
1269.0
 30
0.0
 11
2649.5
 21
1269.0
 31
0.0
  0
TEXT
  5
4CC
330
1F
100
AcDbEntity
  8
寸法
  6
CONTINUOUS
 62
     2
100
AcDbText
 10
2629.250000089407
 20
831.9999999999987
 30
0.0
 40
59.99999618530273
  1
４７５
 50
90.0
 41
1.029411764705882
  7
EXCADSTD
 72
     5
 11
2629.250000089407
 21
981.9999904632556
 31
0.0
100
AcDbText
  0
TEXT
  5
4CD
330
1F
100
AcDbEntity
  8
寸法
  6
CONTINUOUS
 62
     2
100
AcDbText
 10
2629.250000089407
 20
974.4999999999987
 30
0.0
 40
48.0
  1
（Ｐトラップ）
 50
90.0
 41
0.9390243902439022
  7
EXCADSTD
 72
     5
 11
2629.250000089407
 21
1238.499999999999
 31
0.0
100
AcDbText
  0
LINE
  5
4CE
330
1F
100
AcDbEntity
  8
寸法
  6
CONTINUOUS
 62
     3
100
AcDbLine
 10
2634.5
 20
793.9999999999982
 30
0.0
 11
2634.5
 21
1269.0
 31
0.0
  0
LINE
  5
4CF
330
1F
100
AcDbEntity
  8
寸法
  6
CONTINUOUS
 62
     3
100
AcDbLine
 10
2627.0
 20
838.9999999999982
 30
0.0
 11
2634.5
 21
793.9999999999982
 31
0.0
  0
LINE
  5
4D0
330
1F
100
AcDbEntity
  8
寸法
  6
CONTINUOUS
 62
     3
100
AcDbLine
 10
2634.5
 20
793.9999999999982
 30
0.0
 11
2642.0
 21
838.9999999999982
 31
0.0
  0
LINE
  5
4D1
330
1F
100
AcDbEntity
  8
寸法
  6
CONTINUOUS
 62
     3
100
AcDbLine
 10
2642.0
 20
1224.0
 30
0.0
 11
2634.5
 21
1269.0
 31
0.0
  0
LINE
  5
4D2
330
1F
100
AcDbEntity
  8
寸法
  6
CONTINUOUS
 62
     3
100
AcDbLine
 10
2634.5
 20
1269.0
 30
0.0
 11
2627.0
 21
1224.0
 31
0.0
  0
LINE
  5
4D3
330
1F
100
AcDbEntity
  8
寸法
  6
CONTINUOUS
 62
     3
100
AcDbLine
 10
2449.999999821186
 20
794.0
 30
0.0
 11
2739.5
 21
793.9999999999981
 31
0.0
  0
LINE
  5
4D4
330
1F
100
AcDbEntity
  8
寸法
  6
CONTINUOUS
 62
     3
100
AcDbLine
 10
2478.499999821186
 20
1339.0
 30
0.0
 11
2739.5
 21
1339.0
 31
0.0
  0
TEXT
  5
4D5
330
1F
100
AcDbEntity
  8
寸法
  6
CONTINUOUS
 62
     2
100
AcDbText
 10
2719.250000089407
 20
830.9999999999992
 30
0.0
 40
59.99999618530273
  1
５４５
 50
90.0
 41
1.029411764705882
  7
EXCADSTD
 72
     5
 11
2719.250000089407
 21
980.999990463256
 31
0.0
100
AcDbText
  0
TEXT
  5
4D6
330
1F
100
AcDbEntity
  8
寸法
  6
CONTINUOUS
 62
     2
100
AcDbText
 10
2719.250000089407
 20
973.4999999999992
 30
0.0
 40
48.0
  1
（ボトルトラップ）
 50
90.0
 41
0.9245283018867922
  7
EXCADSTD
 72
     5
 11
2719.250000089407
 21
1309.499999999999
 31
0.0
100
AcDbText
  0
LINE
  5
4D7
330
1F
100
AcDbEntity
  8
寸法
  6
CONTINUOUS
 62
     3
100
AcDbLine
 10
2724.5
 20
793.9999999999982
 30
0.0
 11
2724.5
 21
1339.0
 31
0.0
  0
LINE
  5
4D8
330
1F
100
AcDbEntity
  8
寸法
  6
CONTINUOUS
 62
     3
100
AcDbLine
 10
2717.0
 20
838.9999999999982
 30
0.0
 11
2724.5
 21
793.9999999999982
 31
0.0
  0
LINE
  5
4D9
330
1F
100
AcDbEntity
  8
寸法
  6
CONTINUOUS
 62
     3
100
AcDbLine
 10
2724.5
 20
793.9999999999982
 30
0.0
 11
2732.0
 21
838.9999999999982
 31
0.0
  0
LINE
  5
4DA
330
1F
100
AcDbEntity
  8
寸法
  6
CONTINUOUS
 62
     3
100
AcDbLine
 10
2732.0
 20
1294.0
 30
0.0
 11
2724.5
 21
1339.0
 31
0.0
  0
LINE
  5
4DB
330
1F
100
AcDbEntity
  8
寸法
  6
CONTINUOUS
 62
     3
100
AcDbLine
 10
2724.5
 20
1339.0
 30
0.0
 11
2717.0
 21
1294.0
 31
0.0
  0
LINE
  5
4DC
330
1F
100
AcDbEntity
  8
寸法
  6
CONTINUOUS
 62
     3
100
AcDbLine
 10
676.9999999999998
 20
4074.499999821186
 30
0.0
 11
676.9999999999998
 21
4136.5
 31
0.0
  0
LINE
  5
4DD
330
1F
100
AcDbEntity
  8
寸法
  6
CONTINUOUS
 62
     3
100
AcDbLine
 10
1162.999999999998
 20
4074.499999821186
 30
0.0
 11
1162.999999999998
 21
4136.5
 31
0.0
  0
TEXT
  5
4DE
330
1F
100
AcDbEntity
  8
寸法
  6
CONTINUOUS
 62
     2
100
AcDbText
 10
756.4999999999991
 20
4126.749999910593
 30
0.0
 40
59.99999618530273
  1
４８６
 41
1.029411764705882
  7
EXCADSTD
 72
     5
 11
906.4999904632559
 21
4126.749999910593
 31
0.0
100
AcDbText
  0
TEXT
  5
4DF
330
1F
100
AcDbEntity
  8
寸法
  6
CONTINUOUS
 62
     2
100
AcDbText
 10
898.9999999999991
 20
4126.749999910593
 30
0.0
 40
48.0
  1
（壁固定）
 41
0.9655172413793105
  7
EXCADSTD
 72
     5
 11
1090.999999999999
 21
4126.749999910593
 31
0.0
100
AcDbText
  0
LINE
  5
4E0
330
1F
100
AcDbEntity
  8
寸法
  6
CONTINUOUS
 62
     3
100
AcDbLine
 10
677.0
 20
4121.5
 30
0.0
 11
1162.999999999998
 21
4121.5
 31
0.0
  0
LINE
  5
4E1
330
1F
100
AcDbEntity
  8
寸法
  6
CONTINUOUS
 62
     3
100
AcDbLine
 10
721.9999999999998
 20
4129.0
 30
0.0
 11
676.9999999999998
 21
4121.5
 31
0.0
  0
LINE
  5
4E2
330
1F
100
AcDbEntity
  8
寸法
  6
CONTINUOUS
 62
     3
100
AcDbLine
 10
676.9999999999998
 20
4121.5
 30
0.0
 11
721.9999999999998
 21
4114.0
 31
0.0
  0
LINE
  5
4E3
330
1F
100
AcDbEntity
  8
寸法
  6
CONTINUOUS
 62
     3
100
AcDbLine
 10
1117.999999999998
 20
4114.0
 30
0.0
 11
1162.999999999998
 21
4121.5
 31
0.0
  0
LINE
  5
4E4
330
1F
100
AcDbEntity
  8
寸法
  6
CONTINUOUS
 62
     3
100
AcDbLine
 10
1162.999999999998
 20
4121.5
 30
0.0
 11
1117.999999999998
 21
4129.0
 31
0.0
  0
DIMENSION
  5
4E5
330
1F
100
AcDbEntity
  8
寸法
  6
CONTINUOUS
 62
     3
100
AcDbDimension
  2
*D22
 10
1144.999999999998
 20
3426.5
 30
0.0
 11
919.9999999999986
 21
3461.749999910593
 31
0.0
 70
   160
  1
%%c450
  3
ISO-25
100
AcDbAlignedDimension
 13
694.9999999999989
 23
3776.5
 33
0.0
 14
1144.999999999998
 24
3776.5
 34
0.0
100
AcDbRotatedDimension
1001
ACAD
1000
DSTYLE
1002
{
1070
   270
1070
     2
1070
     6
1000
EX_NORM
1070
     7
1000
EX_NORM
1070
    41
1040
44.99999618530273
1070
    42
1040
10.49999982118607
1070
    44
1040
15.0
1070
    73
1070
     0
1070
    74
1070
     0
1070
    75
1070
     0
1070
    76
1070
     0
1070
    77
1070
     1
1070
    78
1070
     0
1070
   140
1040
59.99999618530273
1070
   147
1040
0.0
1070
   173
1070
     1
1070
   176
1070
     3
1070
   177
1070
     3
1070
   178
1070
     2
1070
   271
1070
     0
1070
   277
1070
     2
1070
   279
1070
     2
1070
   280
1070
     0
1070
   287
1070
     5
1070
   340
1005
140
1002
}
  0
DIMENSION
  5
4F2
330
1F
100
AcDbEntity
  8
寸法
  6
CONTINUOUS
 62
     3
100
AcDbDimension
  2
*D23
 10
1294.999999999998
 20
3336.5
 30
0.0
 11
919.9999999999991
 21
3371.749999910593
 31
0.0
 70
   160
  3
ISO-25
100
AcDbAlignedDimension
 13
544.9999999999998
 23
3581.5
 33
0.0
 14
1294.999999999998
 24
3581.5
 34
0.0
100
AcDbRotatedDimension
1001
ACAD
1000
DSTYLE
1002
{
1070
   270
1070
     2
1070
     6
1000
EX_NORM
1070
     7
1000
EX_NORM
1070
    41
1040
44.99999618530273
1070
    42
1040
10.49999982118607
1070
    44
1040
15.0
1070
    73
1070
     0
1070
    74
1070
     0
1070
    75
1070
     0
1070
    76
1070
     0
1070
    77
1070
     1
1070
    78
1070
     0
1070
   140
1040
59.99999618530273
1070
   147
1040
0.0
1070
   173
1070
     1
1070
   176
1070
     3
1070
   177
1070
     3
1070
   178
1070
     2
1070
   271
1070
     0
1070
   277
1070
     2
1070
   279
1070
     2
1070
   280
1070
     0
1070
   287
1070
     5
1070
   340
1005
140
1002
}
  0
DIMENSION
  5
4FF
330
1F
100
AcDbEntity
  8
寸法
  6
CONTINUOUS
 62
     3
100
AcDbDimension
  2
*D24
 10
1399.999999999998
 20
4031.5
 30
0.0
 11
1364.750000089406
 21
3806.499999999999
 31
0.0
 70
   160
  3
ISO-25
100
AcDbAlignedDimension
 13
1294.999999999998
 23
3581.5
 33
0.0
 14
1294.999999999998
 24
4031.5
 34
0.0
 50
90.0
100
AcDbRotatedDimension
1001
ACAD
1000
DSTYLE
1002
{
1070
   270
1070
     2
1070
     6
1000
EX_NORM
1070
     7
1000
EX_NORM
1070
    41
1040
44.99999618530273
1070
    42
1040
10.49999982118607
1070
    44
1040
15.0
1070
    73
1070
     0
1070
    74
1070
     0
1070
    75
1070
     0
1070
    76
1070
     1
1070
    77
1070
     1
1070
    78
1070
     0
1070
   140
1040
59.99999618530273
1070
   147
1040
0.0
1070
   173
1070
     1
1070
   176
1070
     3
1070
   177
1070
     3
1070
   178
1070
     2
1070
   271
1070
     0
1070
   277
1070
     2
1070
   279
1070
     2
1070
   280
1070
     0
1070
   287
1070
     5
1070
   340
1005
140
1002
}
  0
DIMENSION
  5
50B
330
1F
100
AcDbEntity
  8
寸法
  6
CONTINUOUS
 62
     3
100
AcDbDimension
  2
*D25
 10
1489.999999999998
 20
4031.5
 30
0.0
 11
1454.750000089406
 21
3791.499999999999
 31
0.0
 70
   160
  3
ISO-25
100
AcDbAlignedDimension
 13
919.9999999999989
 23
3551.5
 33
0.0
 14
1294.999999999998
 24
4031.5
 34
0.0
 50
90.0
100
AcDbRotatedDimension
1001
ACAD
1000
DSTYLE
1002
{
1070
   270
1070
     2
1070
     6
1000
EX_NORM
1070
     7
1000
EX_NORM
1070
    41
1040
44.99999618530273
1070
    42
1040
10.49999982118607
1070
    44
1040
15.0
1070
    73
1070
     0
1070
    74
1070
     0
1070
    75
1070
     0
1070
    76
1070
     1
1070
    77
1070
     1
1070
    78
1070
     0
1070
   140
1040
59.99999618530273
1070
   147
1040
0.0
1070
   173
1070
     1
1070
   176
1070
     3
1070
   177
1070
     3
1070
   178
1070
     2
1070
   271
1070
     0
1070
   277
1070
     2
1070
   279
1070
     2
1070
   280
1070
     0
1070
   287
1070
     5
1070
   340
1005
140
1002
}
  0
LINE
  5
517
330
1F
100
AcDbEntity
  8
寸法
  6
CONTINUOUS
 62
     3
100
AcDbLine
 10
844.9999999999991
 20
775.5000001788139
 30
0.0
 11
844.9999999999991
 21
659.0
 31
0.0
  0
LINE
  5
518
330
1F
100
AcDbEntity
  8
寸法
  6
CONTINUOUS
 62
     3
100
AcDbLine
 10
994.9999999999967
 20
775.5000001788139
 30
0.0
 11
994.9999999999967
 21
659.0
 31
0.0
  0
TEXT
  5
519
330
1F
100
AcDbEntity
  8
寸法
  6
CONTINUOUS
 62
     2
100
AcDbText
 10
1039.999999999997
 20
679.249999910593
 30
0.0
 40
59.99999618530273
  1
１５０
 41
1.029411764705882
  7
EXCADSTD
 72
     5
 11
1189.999990463254
 21
679.249999910593
 31
0.0
100
AcDbText
  0
TEXT
  5
51A
330
1F
100
AcDbEntity
  8
寸法
  6
CONTINUOUS
 62
     2
100
AcDbText
 10
1182.499999999997
 20
679.249999910593
 30
0.0
 40
48.0
  1
（壁･床給水）
 41
0.853658536585366
  7
EXCADSTD
 72
     5
 11
1422.499999999997
 21
679.249999910593
 31
0.0
100
AcDbText
  0
LINE
  5
51B
330
1F
100
AcDbEntity
  8
寸法
  6
CONTINUOUS
 62
     3
100
AcDbLine
 10
799.9999999999991
 20
674.0
 30
0.0
 11
1420.250005722043
 21
674.0
 31
0.0
  0
LINE
  5
51C
330
1F
100
AcDbEntity
  8
寸法
  6
CONTINUOUS
 62
     3
100
AcDbLine
 10
799.9999999999991
 20
666.5
 30
0.0
 11
844.9999999999991
 21
674.0
 31
0.0
  0
LINE
  5
51D
330
1F
100
AcDbEntity
  8
寸法
  6
CONTINUOUS
 62
     3
100
AcDbLine
 10
844.9999999999991
 20
674.0
 30
0.0
 11
799.9999999999991
 21
681.5000000000001
 31
0.0
  0
LINE
  5
51E
330
1F
100
AcDbEntity
  8
寸法
  6
CONTINUOUS
 62
     3
100
AcDbLine
 10
1039.999999999997
 20
681.5
 30
0.0
 11
994.9999999999967
 21
674.0
 31
0.0
  0
LINE
  5
51F
330
1F
100
AcDbEntity
  8
寸法
  6
CONTINUOUS
 62
     3
100
AcDbLine
 10
994.9999999999967
 20
674.0
 30
0.0
 11
1039.999999999997
 21
666.5
 31
0.0
  0
DIMENSION
  5
520
330
1F
100
AcDbEntity
  8
寸法
  6
CONTINUOUS
 62
     3
100
AcDbDimension
  2
*D26
 10
1399.999999999999
 20
1494.0
 30
0.0
 11
1364.750000089407
 21
1143.999999999996
 31
0.0
 70
   160
  3
ISO-25
100
AcDbAlignedDimension
 13
1292.999999999998
 23
794.0
 33
0.0
 14
1294.999999999998
 24
1494.0
 34
0.0
 50
90.0
100
AcDbRotatedDimension
1001
ACAD
1000
DSTYLE
1002
{
1070
   270
1070
     2
1070
     6
1000
EX_NORM
1070
     7
1000
EX_NORM
1070
    41
1040
44.99999618530273
1070
    42
1040
10.49999982118607
1070
    44
1040
15.0
1070
    73
1070
     0
1070
    74
1070
     0
1070
    75
1070
     1
1070
    76
1070
     0
1070
    77
1070
     1
1070
    78
1070
     0
1070
   140
1040
59.99999618530273
1070
   147
1040
0.0
1070
   173
1070
     1
1070
   176
1070
     3
1070
   177
1070
     3
1070
   178
1070
     2
1070
   271
1070
     0
1070
   277
1070
     2
1070
   279
1070
     2
1070
   280
1070
     0
1070
   287
1070
     5
1070
   340
1005
140
1002
}
  0
DIMENSION
  5
52C
330
1F
100
AcDbEntity
  8
寸法
  6
CONTINUOUS
 62
     3
100
AcDbDimension
  2
*D27
 10
1399.999999999998
 20
1664.0
 30
0.0
 11
1364.750000089405
 21
1578.999999999998
 31
0.0
 70
   160
  3
ISO-25
100
AcDbAlignedDimension
 13
1294.999999999998
 23
1494.0
 33
0.0
 14
919.9999999999991
 24
1664.0
 34
0.0
 50
90.0
100
AcDbRotatedDimension
1001
ACAD
1000
DSTYLE
1002
{
1070
   270
1070
     2
1070
     6
1000
EX_NORM
1070
     7
1000
EX_NORM
1070
    41
1040
44.99999618530273
1070
    42
1040
10.49999982118607
1070
    44
1040
15.0
1070
    73
1070
     0
1070
    74
1070
     0
1070
    75
1070
     0
1070
    76
1070
     0
1070
    77
1070
     1
1070
    78
1070
     0
1070
   140
1040
59.99999618530273
1070
   147
1040
0.0
1070
   173
1070
     1
1070
   176
1070
     3
1070
   177
1070
     3
1070
   178
1070
     2
1070
   271
1070
     0
1070
   277
1070
     2
1070
   279
1070
     2
1070
   280
1070
     0
1070
   287
1070
     5
1070
   340
1005
140
1002
}
  0
DIMENSION
  5
539
330
1F
100
AcDbEntity
  8
寸法
  6
CONTINUOUS
 62
     3
100
AcDbDimension
  2
*D28
 10
1490.000000000003
 20
1664.0
 30
0.0
 11
1454.750000089409
 21
1228.999999999998
 31
0.0
 70
   160
  3
ISO-25
100
AcDbAlignedDimension
 13
1292.999999999998
 23
794.0
 33
0.0
 14
930.4999998211997
 24
1664.0
 34
0.0
 50
90.0
100
AcDbRotatedDimension
1001
ACAD
1000
DSTYLE
1002
{
1070
   270
1070
     2
1070
     6
1000
EX_NORM
1070
     7
1000
EX_NORM
1070
    41
1040
44.99999618530273
1070
    42
1040
10.49999982118607
1070
    44
1040
15.0
1070
    73
1070
     0
1070
    74
1070
     0
1070
    75
1070
     0
1070
    76
1070
     0
1070
    77
1070
     1
1070
    78
1070
     0
1070
   140
1040
59.99999618530273
1070
   147
1040
0.0
1070
   173
1070
     1
1070
   176
1070
     3
1070
   177
1070
     3
1070
   178
1070
     2
1070
   271
1070
     0
1070
   277
1070
     2
1070
   279
1070
     2
1070
   280
1070
     0
1070
   287
1070
     5
1070
   340
1005
140
1002
}
  0
TEXT
  5
546
330
1F
100
AcDbEntity
  8
寸法
  6
CONTINUOUS
 62
     2
100
AcDbText
 10
2564.2171850083
 20
1561.993701819792
 30
0.0
 40
59.99999618530273
  1
ＶＰ･ＶＵ５０
 41
0.9048780357546915
  7
EXCADSTD
 72
     5
 11
2882.217160212767
 21
1561.993701819792
 31
0.0
100
AcDbText
  0
LEADER
  5
547
330
1F
100
AcDbEntity
  8
寸法
  6
CONTINUOUS
 62
     3
100
AcDbLeader
  3
ISO-25
 76
     3
 10
2463.0
 20
1294.5
 30
0.0
 10
2556.7171850083
 20
1556.743701909199
 30
0.0
 10
2861.2171850083
 20
1556.743701909199
 30
0.0
1001
ACAD
1000
DSTYLE
1002
{
1070
     5
1000
EX_NORM
1070
    41
1040
45.0
1070
   341
1005
4D
1002
}
  0
DIMENSION
  5
548
330
1F
100
AcDbEntity
  8
寸法
  6
CONTINUOUS
 62
     3
100
AcDbDimension
  2
*D29
 10
2544.49999999995
 20
793.999999999995
 30
0.0
 11
2509.250000089357
 21
1013.999999999995
 31
0.0
 70
   160
  1
440（壁給水）
  3
ISO-25
100
AcDbAlignedDimension
 13
2447.49999999995
 23
1233.999999999995
 33
0.0
 14
2544.49999999995
 24
793.999999999995
 34
0.0
 50
90.0
100
AcDbRotatedDimension
1001
ACAD
1000
DSTYLE
1002
{
1070
   270
1070
     2
1070
     6
1000
EX_NORM
1070
     7
1000
EX_NORM
1070
    41
1040
44.99999618530273
1070
    42
1040
7.5
1070
    44
1040
15.0
1070
    73
1070
     0
1070
    74
1070
     0
1070
    75
1070
     0
1070
    76
1070
     1
1070
    77
1070
     1
1070
    78
1070
     8
1070
   140
1040
59.99999618530273
1070
   147
1040
0.0
1070
   173
1070
     1
1070
   176
1070
     3
1070
   177
1070
     3
1070
   178
1070
     2
1070
   271
1070
     2
1070
   277
1070
     2
1070
   279
1070
     2
1070
   280
1070
     0
1070
   287
1070
     5
1070
   340
1005
140
1002
}
  0
TEXT
  5
554
330
1F
100
AcDbEntity
  8
寸法
  6
CONTINUOUS
 62
     2
100
AcDbText
 10
2659.49999999995
 20
1443.749999910588
 30
0.0
 40
59.99999618530273
  1
Ｒ１/２
 41
0.8342465643686785
  7
EXCADSTD
 72
     5
 11
2833.49998664851
 21
1443.749999910588
 31
0.0
100
AcDbText
  0
LEADER
  5
555
330
1F
100
AcDbEntity
  8
寸法
  6
CONTINUOUS
 62
     3
100
AcDbLeader
  3
ISO-25
 76
     3
 10
2447.49999999995
 20
1244.499999999995
 30
0.0
 10
2651.99999999995
 20
1438.499999999995
 30
0.0
 10
2816.99999999995
 20
1438.499999999995
 30
0.0
1001
ACAD
1000
DSTYLE
1002
{
1070
     5
1000
EX_NORM
1070
    41
1040
45.0
1070
   341
1005
4D
1002
}
  0
DIMENSION
  5
556
330
1F
100
AcDbEntity
  8
寸法
  6
CONTINUOUS
 62
     3
100
AcDbDimension
  2
*D30
 10
2439.5
 20
2770.5
 30
0.0
 11
2379.5
 21
2805.749999910593
 31
0.0
 70
   160
  3
ISO-25
100
AcDbAlignedDimension
 13
2319.5
 23
2694.0
 33
0.0
 14
2439.5
 24
2694.0
 34
0.0
100
AcDbRotatedDimension
1001
ACAD
1000
DSTYLE
1002
{
1070
   270
1070
     2
1070
     6
1000
EX_NORM
1070
     7
1000
EX_NORM
1070
    41
1040
44.99999618530273
1070
    42
1040
10.49999982118607
1070
    44
1040
15.0
1070
    73
1070
     0
1070
    74
1070
     0
1070
    75
1070
     0
1070
    76
1070
     1
1070
    77
1070
     1
1070
    78
1070
     8
1070
   140
1040
59.99999618530273
1070
   147
1040
0.0
1070
   173
1070
     1
1070
   176
1070
     3
1070
   177
1070
     3
1070
   178
1070
     2
1070
   271
1070
     2
1070
   277
1070
     2
1070
   279
1070
     2
1070
   280
1070
     0
1070
   287
1070
     5
1070
   340
1005
140
1002
}
  0
DIMENSION
  5
562
330
1F
100
AcDbEntity
  8
寸法
  6
CONTINUOUS
 62
     3
100
AcDbDimension
  2
*D31
 10
2916.0
 20
1924.0
 30
0.0
 11
2880.750000089407
 21
1358.999999999997
 31
0.0
 70
   160
  3
ISO-25
100
AcDbAlignedDimension
 13
2439.5
 23
794.0
 33
0.0
 14
2472.0
 24
1924.0
 34
0.0
 50
90.0
100
AcDbRotatedDimension
1001
ACAD
1000
DSTYLE
1002
{
1070
   270
1070
     2
1070
     6
1000
EX_NORM
1070
     7
1000
EX_NORM
1070
    41
1040
44.99999618530273
1070
    42
1040
10.49999982118607
1070
    44
1040
15.0
1070
    73
1070
     0
1070
    74
1070
     0
1070
    75
1070
     0
1070
    76
1070
     0
1070
    77
1070
     1
1070
    78
1070
     8
1070
   140
1040
59.99999618530273
1070
   147
1040
0.0
1070
   173
1070
     1
1070
   176
1070
     3
1070
   177
1070
     3
1070
   178
1070
     2
1070
   271
1070
     2
1070
   277
1070
     2
1070
   279
1070
     2
1070
   280
1070
     0
1070
   287
1070
     5
1070
   340
1005
140
1002
}
  0
DIMENSION
  5
56F
330
1F
100
AcDbEntity
  8
寸法
  6
CONTINUOUS
 62
     3
100
AcDbDimension
  2
*D32
 10
2916.0
 20
2634.0
 30
0.0
 11
2880.750000089407
 21
2278.999999999998
 31
0.0
 70
   160
  1
710(壁固定)
  3
ISO-25
100
AcDbAlignedDimension
 13
2472.0
 23
1924.0
 33
0.0
 14
2472.0
 24
2634.0
 34
0.0
 50
90.0
100
AcDbRotatedDimension
1001
ACAD
1000
DSTYLE
1002
{
1070
   270
1070
     2
1070
     6
1000
EX_NORM
1070
     7
1000
EX_NORM
1070
    41
1040
44.99999618530273
1070
    42
1040
10.49999982118607
1070
    44
1040
15.0
1070
    73
1070
     0
1070
    74
1070
     0
1070
    75
1070
     0
1070
    76
1070
     0
1070
    77
1070
     1
1070
    78
1070
     8
1070
   140
1040
59.99999618530273
1070
   147
1040
0.0
1070
   173
1070
     1
1070
   176
1070
     3
1070
   177
1070
     3
1070
   178
1070
     2
1070
   271
1070
     2
1070
   277
1070
     2
1070
   279
1070
     2
1070
   280
1070
     0
1070
   287
1070
     5
1070
   340
1005
140
1002
}
  0
ENDSEC
  0
SECTION
  2
OBJECTS
  0
DICTIONARY
  5
C
330
0
100
AcDbDictionary
  3
ACAD_GROUP
350
D
  3
ACAD_LAYOUT
350
1A
  3
ACAD_MATERIAL
350
3B
  3
ACAD_MLEADERSTYLE
350
59F
  3
ACAD_MLINESTYLE
350
17
  3
ACAD_PLOTSETTINGS
350
19
  3
ACAD_VISUALSTYLE
350
2A
  3
ACDBHEADERROUNDTRIPXREC
350
57D
  3
ACDBVARIABLEDICTIONARY
350
59D
  0
DICTIONARY
  5
D
102
{ACAD_REACTORS
330
C
102
}
330
C
100
AcDbDictionary
  0
DICTIONARY
  5
1A
102
{ACAD_REACTORS
330
C
102
}
330
C
100
AcDbDictionary
  0
DICTIONARY
  5
3B
102
{ACAD_REACTORS
330
C
102
}
330
C
100
AcDbDictionary
  3
BYBLOCK
350
3D
  3
BYLAYER
350
3C
  3
GLOBAL
350
3E
  0
DICTIONARY
  5
59F
102
{ACAD_REACTORS
330
C
102
}
330
C
100
AcDbDictionary
  0
DICTIONARY
  5
17
102
{ACAD_REACTORS
330
C
102
}
330
C
100
AcDbDictionary
  3
STANDARD
350
18
  0
DICTIONARY
  5
19
102
{ACAD_REACTORS
330
C
102
}
330
C
100
AcDbDictionary
  0
DICTIONARY
  5
2A
102
{ACAD_REACTORS
330
C
102
}
330
C
100
AcDbDictionary
  3
2DWIREFRAME
350
2F
  3
3D_HIDDEN
350
31
  3
3DWIREFRAME
350
30
  3
BASIC
350
32
  3
BRIGHTEN
350
36
  3
COLORCHANGE
350
3A
  3
CONCEPTUAL
350
34
  3
DIM
350
35
  3
FACEPATTERN
350
39
  3
FLAT
350
2B
  3
FLATWITHEDGES
350
2C
  3
GOURAUD
350
2D
  3
GOURAUDWITHEDGES
350
2E
  3
LINEPATTERN
350
38
  3
REALISTIC
350
33
  3
THICKEN
350
37
  0
DICTIONARY
  5
57D
102
{ACAD_REACTORS
330
C
102
}
330
C
100
AcDbDictionary
  3
CEPSNTYPE
350
586
  3
DIMSTYLEDATA
350
59C
  3
FINGERPRINTGUID
350
587
  3
HYPERLINKBASE
350
580
  3
INSUNITS
350
585
  3
LAYOUTDICT
350
582
  3
LWETCUNION
350
584
  3
PLOTSETDICT
350
583
  3
PSVPSCALE
350
589
  3
PUCSBASE
350
58C
  3
PUCSORGBACK
350
592
  3
PUCSORGBOTTOM
350
58E
  3
PUCSORGFRONT
350
591
  3
PUCSORGLEFT
350
58F
  3
PUCSORGRIGHT
350
590
  3
PUCSORGTOP
350
58D
  3
PUCSORTHOREF
350
58A
  3
PUCSORTHOVIEW
350
58B
  3
STYLESHEET
350
581
  3
TSTACKALIGN
350
57E
  3
TSTACKSIZE
350
57F
  3
UCSBASE
350
595
  3
UCSORGBACK
350
59B
  3
UCSORGBOTTOM
350
597
  3
UCSORGFRONT
350
59A
  3
UCSORGLEFT
350
598
  3
UCSORGRIGHT
350
599
  3
UCSORGTOP
350
596
  3
UCSORTHOREF
350
593
  3
UCSORTHOVIEW
350
594
  3
VERSIONGUID
350
588
  0
DICTIONARY
  5
59D
102
{ACAD_REACTORS
330
C
102
}
330
C
100
AcDbDictionary
  3
DIMASSOC
350
5A2
  3
HIDETEXT
350
5A3
  3
PSOLHEIGHT
350
5A1
  3
PSOLWIDTH
350
5A0
  0
MATERIAL
  5
3D
102
{ACAD_REACTORS
330
3B
102
}
102
{ACAD_XDICTIONARY
360
5A6
102
}
330
3B
100
AcDbMaterial
  1
ByBlock
  0
MATERIAL
  5
3C
102
{ACAD_REACTORS
330
3B
102
}
102
{ACAD_XDICTIONARY
360
5A4
102
}
330
3B
100
AcDbMaterial
  1
ByLayer
  0
MATERIAL
  5
3E
102
{ACAD_REACTORS
330
3B
102
}
102
{ACAD_XDICTIONARY
360
5A8
102
}
330
3B
100
AcDbMaterial
  1
Global
  0
MLINESTYLE
  5
18
102
{ACAD_REACTORS
330
17
102
}
330
17
100
AcDbMlineStyle
  2
Standard
 70
     0
  3

 62
   256
 51
90.0
 52
90.0
 71
     2
 49
0.5
 62
   256
  6
BYLAYER
 49
-0.5
 62
   256
  6
BYLAYER
  0
ACAD_PROXY_OBJECT
  5
2F
102
{ACAD_REACTORS
330
2A
102
}
330
2A
100
AcDbProxyObject
 90
      499
 91
      501
 93
      436
310
42CC9915DA5C99599C985B595049028333333333333E3BF0000000000000FB0107901411070040501600405405064090741402480A0340
1001
ACAD
1000
AcDbSavedByObjectVersion
1070
     0
  0
ACAD_PROXY_OBJECT
  5
31
102
{ACAD_REACTORS
330
2A
102
}
330
2A
100
AcDbProxyObject
 90
      499
 91
      501
 93
      500
310
424CD108121A5919195B90640502408333333333333E3BF0000000000000FB01079024090700405020000000000001110200405405064090740C02480A0340
1001
ACAD
1000
AcDbSavedByObjectVersion
1070
     0
  0
ACAD_PROXY_OBJECT
  5
30
102
{ACAD_REACTORS
330
2A
102
}
330
2A
100
AcDbProxyObject
 90
      499
 91
      501
 93
      436
310
42CCD915DA5C99599C985B595059028333333333333E3BF0000000000000FB0107901411070040501600405405064090741402480A0340
1001
ACAD
1000
AcDbSavedByObjectVersion
1070
     0
  0
ACAD_PROXY_OBJECT
  5
32
102
{ACAD_REACTORS
330
2A
102
}
330
2A
100
AcDbProxyObject
 90
      499
 91
      501
 93
      388
310
4150985CDA58D07406404333333333333E3BF0000000000000FB0107A41107004050150841D405064090741402480A0350
1001
ACAD
1000
AcDbSavedByObjectVersion
1070
     0
  0
ACAD_PROXY_OBJECT
  5
36
102
{ACAD_REACTORS
330
2A
102
}
330
2A
100
AcDbProxyObject
 90
      499
 91
      501
 93
      428
310
42109C9A59DA1D195B90C409028333333333333E3BF0000000000000FB010790141107004050150841D405064090741402480A029950
1001
ACAD
1000
AcDbSavedByObjectVersion
1070
     0
  0
ACAD_PROXY_OBJECT
  5
3A
102
{ACAD_REACTORS
330
2A
102
}
330
2A
100
AcDbProxyObject
 90
      499
 91
      501
 93
      452
310
42D0DBDB1BDC90DA185B99D95104090240C333333333333E3BF0000000000000FB0108901411070040501508421405064090741402480A0350
1001
ACAD
1000
AcDbSavedByObjectVersion
1070
     0
  0
ACAD_PROXY_OBJECT
  5
34
102
{ACAD_REACTORS
330
2A
102
}
330
2A
100
AcDbProxyObject
 90
      499
 91
      501
 93
      500
310
4290DBDB98D95C1D1D585B10940D028333333333333E3BF0000000000000FB0107902409070040501000000000000111010841D405064090740C02480A0340
1001
ACAD
1000
AcDbSavedByObjectVersion
1070
     0
  0
ACAD_PROXY_OBJECT
  5
35
102
{ACAD_REACTORS
330
2A
102
}
330
2A
100
AcDbProxyObject
 90
      499
 91
      501
 93
      412
310
40D11A5B50B409028333333333333E3BF0000000000000FB010790141107004050150841D405064090741402480A02677FFFFFD0
1001
ACAD
1000
AcDbSavedByObjectVersion
1070
     0
  0
ACAD_PROXY_OBJECT
  5
39
102
{ACAD_REACTORS
330
2A
102
}
330
2A
100
AcDbProxyObject
 90
      499
 91
      501
 93
      444
310
42D19858D95C185D1D195C9B90F409028333333333333E3BF0000000000000FB010790141107004050150841D405064090741402480A0350
1001
ACAD
1000
AcDbSavedByObjectVersion
1070
     0
  0
ACAD_PROXY_OBJECT
  5
2B
102
{ACAD_REACTORS
330
2A
102
}
330
2A
100
AcDbProxyObject
 90
      499
 91
      501
 93
      388
310
41119B185D240901404333333333333E3BF0000000000000F9010740A41107004050150841D405064090741402480A1B50
1001
ACAD
1000
AcDbSavedByObjectVersion
1070
     0
  0
ACAD_PROXY_OBJECT
  5
2C
102
{ACAD_REACTORS
330
2A
102
}
330
2A
100
AcDbProxyObject
 90
      499
 91
      501
 93
      476
310
43519B185D15DA5D1A115919D95CD0140901404333333333333E3BF0000000000000F9010740901411070040501600405405064090741402480A1B50
1001
ACAD
1000
AcDbSavedByObjectVersion
1070
     0
  0
ACAD_PROXY_OBJECT
  5
2D
102
{ACAD_REACTORS
330
2A
102
}
330
2A
100
AcDbProxyObject
 90
      499
 91
      501
 93
      412
310
41D1DBDD5C985D5910240902404333333333333E3BF0000000000000F9010740A411070040501641D405064090741402480A1B50
1001
ACAD
1000
AcDbSavedByObjectVersion
1070
     0
  0
ACAD_PROXY_OBJECT
  5
2E
102
{ACAD_REACTORS
330
2A
102
}
330
2A
100
AcDbProxyObject
 90
      499
 91
      501
 93
      500
310
4411DBDD5C985D5915DA5D1A115919D95CD0340902404333333333333E3BF0000000000000F9010740901411070040501600405405064090741402480A1B50
1001
ACAD
1000
AcDbSavedByObjectVersion
1070
     0
  0
ACAD_PROXY_OBJECT
  5
38
102
{ACAD_REACTORS
330
2A
102
}
330
2A
100
AcDbProxyObject
 90
      499
 91
      501
 93
      444
310
42D31A5B995C185D1D195C9B90E409028333333333333E3BF0000000000000FB010790141107004050750841D405064090741402483A0350
1001
ACAD
1000
AcDbSavedByObjectVersion
1070
     0
  0
ACAD_PROXY_OBJECT
  5
33
102
{ACAD_REACTORS
330
2A
102
}
330
2A
100
AcDbProxyObject
 90
      499
 91
      501
 93
      420
310
425499585B1A5CDD1A58D08409028333333333333E3BF0000000000000FB01079019070040501508421405064090741402480A1B40
1001
ACAD
1000
AcDbSavedByObjectVersion
1070
     0
  0
ACAD_PROXY_OBJECT
  5
37
102
{ACAD_REACTORS
330
2A
102
}
330
2A
100
AcDbProxyObject
 90
      499
 91
      501
 93
      412
310
41D51A1A58DAD95B90D409028333333333333E3BF0000000000000FB010790141107004050150C41D405064090741402480A0350
1001
ACAD
1000
AcDbSavedByObjectVersion
1070
     0
  0
XRECORD
  5
586
102
{ACAD_REACTORS
330
57D
102
}
330
57D
100
AcDbXrecord
 90
        0
  0
XRECORD
  5
59C
102
{ACAD_REACTORS
330
57D
102
}
330
57D
100
AcDbXrecord
1000
DSTYLE
1002
{
1070
   340
340
11
1002
}
  0
XRECORD
  5
587
102
{ACAD_REACTORS
330
57D
102
}
330
57D
100
AcDbXrecord
  1
{BA4626FB-076B-4107-BB2B-95367841DC5D}
  0
XRECORD
  5
580
102
{ACAD_REACTORS
330
57D
102
}
330
57D
100
AcDbXrecord
  1

  0
XRECORD
  5
585
102
{ACAD_REACTORS
330
57D
102
}
330
57D
100
AcDbXrecord
 90
        4
  0
XRECORD
  5
582
102
{ACAD_REACTORS
330
57D
102
}
330
57D
100
AcDbXrecord
340
1A
  0
XRECORD
  5
584
102
{ACAD_REACTORS
330
57D
102
}
330
57D
100
AcDbXrecord
 90
    10781
  0
XRECORD
  5
583
102
{ACAD_REACTORS
330
57D
102
}
330
57D
100
AcDbXrecord
340
19
  0
XRECORD
  5
589
102
{ACAD_REACTORS
330
57D
102
}
330
57D
100
AcDbXrecord
 40
0.0
  0
XRECORD
  5
58C
102
{ACAD_REACTORS
330
57D
102
}
330
57D
100
AcDbXrecord
340
0
  0
XRECORD
  5
592
102
{ACAD_REACTORS
330
57D
102
}
330
57D
100
AcDbXrecord
 10
0.0
 20
0.0
 30
0.0
  0
XRECORD
  5
58E
102
{ACAD_REACTORS
330
57D
102
}
330
57D
100
AcDbXrecord
 10
0.0
 20
0.0
 30
0.0
  0
XRECORD
  5
591
102
{ACAD_REACTORS
330
57D
102
}
330
57D
100
AcDbXrecord
 10
0.0
 20
0.0
 30
0.0
  0
XRECORD
  5
58F
102
{ACAD_REACTORS
330
57D
102
}
330
57D
100
AcDbXrecord
 10
0.0
 20
0.0
 30
0.0
  0
XRECORD
  5
590
102
{ACAD_REACTORS
330
57D
102
}
330
57D
100
AcDbXrecord
 10
0.0
 20
0.0
 30
0.0
  0
XRECORD
  5
58D
102
{ACAD_REACTORS
330
57D
102
}
330
57D
100
AcDbXrecord
 10
0.0
 20
0.0
 30
0.0
  0
XRECORD
  5
58A
102
{ACAD_REACTORS
330
57D
102
}
330
57D
100
AcDbXrecord
340
0
  0
XRECORD
  5
58B
102
{ACAD_REACTORS
330
57D
102
}
330
57D
100
AcDbXrecord
 70
     0
  0
XRECORD
  5
581
102
{ACAD_REACTORS
330
57D
102
}
330
57D
100
AcDbXrecord
  1

  0
XRECORD
  5
57E
102
{ACAD_REACTORS
330
57D
102
}
330
57D
100
AcDbXrecord
 90
        1
  0
XRECORD
  5
57F
102
{ACAD_REACTORS
330
57D
102
}
330
57D
100
AcDbXrecord
 90
       70
  0
XRECORD
  5
595
102
{ACAD_REACTORS
330
57D
102
}
330
57D
100
AcDbXrecord
340
0
  0
XRECORD
  5
59B
102
{ACAD_REACTORS
330
57D
102
}
330
57D
100
AcDbXrecord
 10
0.0
 20
0.0
 30
0.0
  0
XRECORD
  5
597
102
{ACAD_REACTORS
330
57D
102
}
330
57D
100
AcDbXrecord
 10
0.0
 20
0.0
 30
0.0
  0
XRECORD
  5
59A
102
{ACAD_REACTORS
330
57D
102
}
330
57D
100
AcDbXrecord
 10
0.0
 20
0.0
 30
0.0
  0
XRECORD
  5
598
102
{ACAD_REACTORS
330
57D
102
}
330
57D
100
AcDbXrecord
 10
0.0
 20
0.0
 30
0.0
  0
XRECORD
  5
599
102
{ACAD_REACTORS
330
57D
102
}
330
57D
100
AcDbXrecord
 10
0.0
 20
0.0
 30
0.0
  0
XRECORD
  5
596
102
{ACAD_REACTORS
330
57D
102
}
330
57D
100
AcDbXrecord
 10
0.0
 20
0.0
 30
0.0
  0
XRECORD
  5
593
102
{ACAD_REACTORS
330
57D
102
}
330
57D
100
AcDbXrecord
340
0
  0
XRECORD
  5
594
102
{ACAD_REACTORS
330
57D
102
}
330
57D
100
AcDbXrecord
 70
     0
  0
XRECORD
  5
588
102
{ACAD_REACTORS
330
57D
102
}
330
57D
100
AcDbXrecord
  1
{FAEB1C32-E019-11D5-929B-00C0DF256EC4}
  0
DICTIONARYVAR
  5
5A2
102
{ACAD_REACTORS
330
59D
102
}
330
59D
100
DictionaryVariables
280
     0
  1
2
  0
DICTIONARYVAR
  5
5A3
102
{ACAD_REACTORS
330
59D
102
}
330
59D
100
DictionaryVariables
280
     0
  1
1
  0
DICTIONARYVAR
  5
5A1
102
{ACAD_REACTORS
330
59D
102
}
330
59D
100
DictionaryVariables
280
     0
  1
80.000000
  0
DICTIONARYVAR
  5
5A0
102
{ACAD_REACTORS
330
59D
102
}
330
59D
100
DictionaryVariables
280
     0
  1
5.000000
  0
DICTIONARY
  5
5A6
330
3D
100
AcDbDictionary
280
     1
  3
ACAD_XREC_ROUNDTRIP
360
5A7
  0
DICTIONARY
  5
5A4
330
3C
100
AcDbDictionary
280
     1
  3
ACAD_XREC_ROUNDTRIP
360
5A5
  0
DICTIONARY
  5
5A8
330
3E
100
AcDbDictionary
280
     1
  3
ACAD_XREC_ROUNDTRIP
360
5A9
  0
XRECORD
  5
5A7
102
{ACAD_REACTORS
330
5A6
102
}
330
5A6
100
AcDbXrecord
102
MATERIAL
148
0.0
149
0.0
149
0.0
 93
        0
 94
      127
282
     0
 72
     1
 77
     1
171
     1
175
     1
179
     1
273
     0
  0
XRECORD
  5
5A5
102
{ACAD_REACTORS
330
5A4
102
}
330
5A4
100
AcDbXrecord
102
MATERIAL
148
0.0
149
0.0
149
0.0
 93
        0
 94
      127
282
     0
 72
     1
 77
     1
171
     1
175
     1
179
     1
273
     0
  0
XRECORD
  5
5A9
102
{ACAD_REACTORS
330
5A8
102
}
330
5A8
100
AcDbXrecord
102
MATERIAL
148
0.0
149
0.0
149
0.0
 93
        0
 94
      127
282
     0
 72
     1
 77
     1
171
     1
175
     1
179
     1
273
     0
  0
ENDSEC
  0
EOF
