  0
SECTION
  2
HEADER
  9
$ACADVER
  1
AC1014
  9
$ACADMAINTVER
 70
     9
  9
$DWGCODEPAGE
  3
ANSI_932
  9
$INSBASE
 10
0.0
 20
0.0
 30
0.0
  9
$EXTMIN
 10
-0.7999999999940336
 20
13.4
 30
0.0
  9
$EXTMAX
 10
204.200000000006
 20
288.4
 30
0.0
  9
$LIMMIN
 10
0.0
 20
0.0
  9
$LIMMAX
 10
210.0
 20
297.0
  9
$ORTHOMODE
 70
     0
  9
$REGENMODE
 70
     1
  9
$FILLMODE
 70
     1
  9
$QTEXTMODE
 70
     0
  9
$MIRRTEXT
 70
     1
  9
$DRAGMODE
 70
     2
  9
$LTSCALE
 40
1.0
  9
$OSMODE
 70
    37
  9
$ATTMODE
 70
     1
  9
$TEXTSIZE
 40
2.5
  9
$TRACEWID
 40
1.0
  9
$TEXTSTYLE
  7
STANDARD
  9
$CLAYER
  8
化粧台
  9
$CELTYPE
  6
BYLAYER
  9
$CECOLOR
 62
   256
  9
$CELTSCALE
 40
1.0
  9
$DELOBJ
 70
     1
  9
$DISPSILH
 70
     0
  9
$DIMSCALE
 40
1.0
  9
$DIMASZ
 40
2.5
  9
$DIMEXO
 40
0.625
  9
$DIMDLI
 40
3.75
  9
$DIMRND
 40
0.0
  9
$DIMDLE
 40
0.0
  9
$DIMEXE
 40
1.25
  9
$DIMTP
 40
0.0
  9
$DIMTM
 40
0.0
  9
$DIMTXT
 40
2.5
  9
$DIMCEN
 40
2.5
  9
$DIMTSZ
 40
0.0
  9
$DIMTOL
 70
     0
  9
$DIMLIM
 70
     0
  9
$DIMTIH
 70
     0
  9
$DIMTOH
 70
     0
  9
$DIMSE1
 70
     0
  9
$DIMSE2
 70
     0
  9
$DIMTAD
 70
     1
  9
$DIMZIN
 70
     8
  9
$DIMBLK
  1

  9
$DIMASO
 70
     1
  9
$DIMSHO
 70
     1
  9
$DIMPOST
  1

  9
$DIMAPOST
  1

  9
$DIMALT
 70
     0
  9
$DIMALTD
 70
     3
  9
$DIMALTF
 40
0.03937007874016
  9
$DIMLFAC
 40
1.0
  9
$DIMTOFL
 70
     1
  9
$DIMTVP
 40
0.0
  9
$DIMTIX
 70
     0
  9
$DIMSOXD
 70
     0
  9
$DIMSAH
 70
     0
  9
$DIMBLK1
  1

  9
$DIMBLK2
  1

  9
$DIMSTYLE
  2
ISO-25
  9
$DIMCLRD
 70
     0
  9
$DIMCLRE
 70
     0
  9
$DIMCLRT
 70
     0
  9
$DIMTFAC
 40
1.0
  9
$DIMGAP
 40
0.625
  9
$DIMJUST
 70
     0
  9
$DIMSD1
 70
     0
  9
$DIMSD2
 70
     0
  9
$DIMTOLJ
 70
     0
  9
$DIMTZIN
 70
     8
  9
$DIMALTZ
 70
     0
  9
$DIMALTTZ
 70
     0
  9
$DIMFIT
 70
     3
  9
$DIMUPT
 70
     0
  9
$DIMUNIT
 70
     2
  9
$DIMDEC
 70
     2
  9
$DIMTDEC
 70
     2
  9
$DIMALTU
 70
     2
  9
$DIMALTTD
 70
     3
  9
$DIMTXSTY
  7
STANDARD
  9
$DIMAUNIT
 70
     0
  9
$LUNITS
 70
     2
  9
$LUPREC
 70
     4
  9
$SKETCHINC
 40
1.0
  9
$FILLETRAD
 40
10.0
  9
$AUNITS
 70
     0
  9
$AUPREC
 70
     0
  9
$MENU
  1
.
  9
$ELEVATION
 40
0.0
  9
$PELEVATION
 40
0.0
  9
$THICKNESS
 40
0.0
  9
$LIMCHECK
 70
     0
  9
$CHAMFERA
 40
10.0
  9
$CHAMFERB
 40
10.0
  9
$CHAMFERC
 40
20.0
  9
$CHAMFERD
 40
0.0
  9
$SKPOLY
 70
     0
  9
$TDCREATE
 40
2457432.486860706
  9
$TDUPDATE
 40
2457432.486861065
  9
$TDINDWG
 40
0.0000000116
  9
$TDUSRTIMER
 40
0.0000000116
  9
$USRTIMER
 70
     1
  9
$ANGBASE
 50
0.0
  9
$ANGDIR
 70
     0
  9
$PDMODE
 70
     0
  9
$PDSIZE
 40
0.0
  9
$PLINEWID
 40
0.0
  9
$COORDS
 70
     1
  9
$SPLFRAME
 70
     0
  9
$SPLINETYPE
 70
     6
  9
$SPLINESEGS
 70
     8
  9
$ATTDIA
 70
     0
  9
$ATTREQ
 70
     1
  9
$HANDLING
 70
     1
  9
$HANDSEED
  5
6D4
  9
$SURFTAB1
 70
     6
  9
$SURFTAB2
 70
     6
  9
$SURFTYPE
 70
     6
  9
$SURFU
 70
     6
  9
$SURFV
 70
     6
  9
$UCSNAME
  2

  9
$UCSORG
 10
0.0
 20
0.0
 30
0.0
  9
$UCSXDIR
 10
1.0
 20
0.0
 30
0.0
  9
$UCSYDIR
 10
0.0
 20
1.0
 30
0.0
  9
$PUCSNAME
  2

  9
$PUCSORG
 10
0.0
 20
0.0
 30
0.0
  9
$PUCSXDIR
 10
1.0
 20
0.0
 30
0.0
  9
$PUCSYDIR
 10
0.0
 20
1.0
 30
0.0
  9
$USERI1
 70
     0
  9
$USERI2
 70
     0
  9
$USERI3
 70
     0
  9
$USERI4
 70
     0
  9
$USERI5
 70
     0
  9
$USERR1
 40
0.0
  9
$USERR2
 40
0.0
  9
$USERR3
 40
0.0
  9
$USERR4
 40
0.0
  9
$USERR5
 40
0.0
  9
$WORLDVIEW
 70
     1
  9
$SHADEDGE
 70
     3
  9
$SHADEDIF
 70
    70
  9
$TILEMODE
 70
     1
  9
$MAXACTVP
 70
    64
  9
$PINSBASE
 10
0.0
 20
0.0
 30
0.0
  9
$PLIMCHECK
 70
     0
  9
$PEXTMIN
 10
1.000000000000000E+20
 20
1.000000000000000E+20
 30
1.000000000000000E+20
  9
$PEXTMAX
 10
-1.000000000000000E+20
 20
-1.000000000000000E+20
 30
-1.000000000000000E+20
  9
$PLIMMIN
 10
0.0
 20
0.0
  9
$PLIMMAX
 10
420.0
 20
297.0
  9
$UNITMODE
 70
     0
  9
$VISRETAIN
 70
     1
  9
$PLINEGEN
 70
     0
  9
$PSLTSCALE
 70
     1
  9
$TREEDEPTH
 70
  3020
  9
$PICKSTYLE
 70
     1
  9
$CMLSTYLE
  2
STANDARD
  9
$CMLJUST
 70
     0
  9
$CMLSCALE
 40
20.0
  9
$PROXYGRAPHICS
 70
     1
  9
$MEASUREMENT
 70
     1
  0
ENDSEC
  0
SECTION
  2
CLASSES
  0
CLASS
  1
ACDBDICTIONARYWDFLT
  2
AcDbDictionaryWithDefault
  3
ObjectDBX Classes
 90
        0
280
     0
281
     0
  0
CLASS
  1
VISUALSTYLE
  2
AcDbVisualStyle
  3
ObjectDBX Classes
 90
     4095
280
     0
281
     0
  0
CLASS
  1
MATERIAL
  2
AcDbMaterial
  3
ObjectDBX Classes
 90
     1153
280
     0
281
     0
  0
CLASS
  1
SUN
  2
AcDbSun
  3
SCENEOE
 90
     1024
280
     0
281
     0
  0
CLASS
  1
DICTIONARYVAR
  2
AcDbDictionaryVar
  3
ObjectDBX Classes
 90
        0
280
     0
281
     0
  0
CLASS
  1
XRECORD
  2
AcDbXrecord
  3
AutoCAD 2000
 90
        0
280
     0
281
     0
  0
CLASS
  1
LWPOLYLINE
  2
AcDbPolyline
  3
AutoCAD 2000
 90
        0
280
     0
281
     1
  0
CLASS
  1
HATCH
  2
AcDbHatch
  3
AutoCAD 2000
 90
        0
280
     0
281
     1
  0
CLASS
  1
ACDBPLACEHOLDER
  2
AcDbPlaceHolder
  3
ObjectDBX Classes
 90
        0
280
     0
281
     0
  0
CLASS
  1
LAYOUT
  2
AcDbLayout
  3
ObjectDBX Classes
 90
        0
280
     0
281
     0
  0
ENDSEC
  0
SECTION
  2
TABLES
  0
TABLE
  2
VPORT
  5
8
330
0
100
AcDbSymbolTable
 70
     1
  0
VPORT
  5
29
330
8
100
AcDbSymbolTableRecord
100
AcDbViewportTableRecord
  2
*ACTIVE
 70
     0
 10
0.0
 20
0.0
 11
1.0
 21
1.0
 12
1525.50000000009
 22
2263.5
 13
0.0
 23
0.0
 14
10.0
 24
10.0
 15
10.0
 25
10.0
 16
0.0
 26
0.0
 36
1.0
 17
0.0
 27
0.0
 37
0.0
 40
4125.0
 41
0.7454545454545458
 42
50.0
 43
0.0
 44
0.0
 50
0.0
 51
0.0
 71
     0
 72
  1000
 73
     1
 74
     3
 75
     0
 76
     0
 77
     0
 78
     0
  0
ENDTAB
  0
TABLE
  2
LTYPE
  5
5
330
0
100
AcDbSymbolTable
 70
     7
  0
LTYPE
  5
14
330
5
100
AcDbSymbolTableRecord
100
AcDbLinetypeTableRecord
  2
BYBLOCK
 70
     0
  3

 72
    65
 73
     0
 40
0.0
  0
LTYPE
  5
15
330
5
100
AcDbSymbolTableRecord
100
AcDbLinetypeTableRecord
  2
BYLAYER
 70
     0
  3

 72
    65
 73
     0
 40
0.0
  0
LTYPE
  5
16
330
5
100
AcDbSymbolTableRecord
100
AcDbLinetypeTableRecord
  2
CONTINUOUS
 70
     0
  3
Solid line
 72
    65
 73
     0
 40
0.0
  0
LTYPE
  5
40
330
5
100
AcDbSymbolTableRecord
100
AcDbLinetypeTableRecord
  2
EXLTYPE1
 70
     0
  3
破線
 72
    65
 73
     2
 40
3.0
 49
2.0
 74
     0
 49
-1.0
 74
     0
  0
LTYPE
  5
41
330
5
100
AcDbSymbolTableRecord
100
AcDbLinetypeTableRecord
  2
EXLTYPE2
 70
     0
  3
点線
 72
    65
 73
     2
 40
2.0
 49
1.0
 74
     0
 49
-1.0
 74
     0
  0
LTYPE
  5
42
330
5
100
AcDbSymbolTableRecord
100
AcDbLinetypeTableRecord
  2
EXLTYPE3
 70
     0
  3
一点鎖線
 72
    65
 73
     4
 40
10.0
 49
7.0
 74
     0
 49
-1.0
 74
     0
 49
1.0
 74
     0
 49
-1.0
 74
     0
  0
LTYPE
  5
43
330
5
100
AcDbSymbolTableRecord
100
AcDbLinetypeTableRecord
  2
EXLTYPE4
 70
     0
  3
二点鎖線
 72
    65
 73
     6
 40
12.0
 49
7.0
 74
     0
 49
-1.0
 74
     0
 49
1.0
 74
     0
 49
-1.0
 74
     0
 49
1.0
 74
     0
 49
-1.0
 74
     0
  0
LTYPE
  5
44
330
5
100
AcDbSymbolTableRecord
100
AcDbLinetypeTableRecord
  2
EXLTYPE5
 70
     0
  3
三点鎖線
 72
    65
 73
     8
 40
37.0
 49
30.0
 74
     0
 49
-1.0
 74
     0
 49
1.0
 74
     0
 49
-1.0
 74
     0
 49
1.0
 74
     0
 49
-1.0
 74
     0
 49
1.0
 74
     0
 49
-1.0
 74
     0
  0
LTYPE
  5
45
330
5
100
AcDbSymbolTableRecord
100
AcDbLinetypeTableRecord
  2
EXLTYPE6
 70
     0
  3
四点鎖線
 72
    65
 73
    10
 40
39.0
 49
30.0
 74
     0
 49
-1.0
 74
     0
 49
1.0
 74
     0
 49
-1.0
 74
     0
 49
1.0
 74
     0
 49
-1.0
 74
     0
 49
1.0
 74
     0
 49
-1.0
 74
     0
 49
1.0
 74
     0
 49
-1.0
 74
     0
  0
ENDTAB
  0
TABLE
  2
LAYER
  5
2
330
0
100
AcDbSymbolTable
 70
     7
  0
LAYER
  5
10
330
2
100
AcDbSymbolTableRecord
100
AcDbLayerTableRecord
  2
0
 70
     0
 62
     7
  6
CONTINUOUS
  0
LAYER
  5
48
330
2
100
AcDbSymbolTableRecord
100
AcDbLayerTableRecord
  2
枠_表
 70
     0
 62
     7
  6
CONTINUOUS
  0
LAYER
  5
49
330
2
100
AcDbSymbolTableRecord
100
AcDbLayerTableRecord
  2
化粧台
 70
     0
 62
     7
  6
CONTINUOUS
  0
LAYER
  5
4A
330
2
100
AcDbSymbolTableRecord
100
AcDbLayerTableRecord
  2
鏡台
 70
     0
 62
     7
  6
CONTINUOUS
  0
LAYER
  5
4B
330
2
100
AcDbSymbolTableRecord
100
AcDbLayerTableRecord
  2
付属金具
 70
     0
 62
     7
  6
CONTINUOUS
  0
LAYER
  5
4C
330
2
100
AcDbSymbolTableRecord
100
AcDbLayerTableRecord
  2
寸法
 70
     0
 62
     7
  6
CONTINUOUS
  0
LAYER
  5
11D
330
2
100
AcDbSymbolTableRecord
100
AcDbLayerTableRecord
  2
DEFPOINTS
 70
     0
 62
     7
  6
CONTINUOUS
  0
ENDTAB
  0
TABLE
  2
STYLE
  5
3
330
0
100
AcDbSymbolTable
 70
     5
  0
STYLE
  5
11
330
3
100
AcDbSymbolTableRecord
100
AcDbTextStyleTableRecord
  2
STANDARD
 70
     0
 40
0.0
 41
1.0
 50
0.0
 71
     0
 42
2.5
  3
monotxt
  4
extfont
  0
STYLE
  5
46
330
3
100
AcDbSymbolTableRecord
100
AcDbTextStyleTableRecord
  2
EXCADSTD
 70
     0
 40
0.0
 41
1.0
 50
0.0
 71
     0
 42
0.2
  3
monotxt
  4
extfont
  0
STYLE
  5
47
330
3
100
AcDbSymbolTableRecord
100
AcDbTextStyleTableRecord
  2
EXCADVERT
 70
     4
 40
0.0
 41
1.0
 50
0.0
 71
     0
 42
0.286885
  3
monotxt
  4
extfont
  0
STYLE
  5
CB
330
3
100
AcDbSymbolTableRecord
100
AcDbTextStyleTableRecord
  2
EXCADTTF1
 70
     0
 40
0.0
 41
1.0
 50
0.0
 71
     0
 42
0.2
  3
MSGOTHIC.TTC
  4

1001
ACAD
1000
MS Gothic
1071
    32817
  0
STYLE
  5
11B
330
3
100
AcDbSymbolTableRecord
100
AcDbTextStyleTableRecord
  2
EXCADDIM1
 70
     0
 40
0.0
 41
0.84
 50
0.0
 71
     0
 42
0.2
  3
monotxt
  4
extfont
  0
ENDTAB
  0
TABLE
  2
VIEW
  5
6
330
0
100
AcDbSymbolTable
 70
     0
  0
ENDTAB
  0
TABLE
  2
UCS
  5
7
330
0
100
AcDbSymbolTable
 70
     0
  0
ENDTAB
  0
TABLE
  2
APPID
  5
9
330
0
100
AcDbSymbolTable
 70
     1
  0
APPID
  5
12
330
9
100
AcDbSymbolTableRecord
100
AcDbRegAppTableRecord
  2
ACAD
 70
     0
  0
ENDTAB
  0
TABLE
  2
DIMSTYLE
  5
A
330
0
100
AcDbSymbolTable
 70
     1
  0
DIMSTYLE
105
27
102
{ACAD_REACTORS
330
11C
330
128
330
135
330
144
330
151
330
15F
330
16E
330
17B
330
188
330
196
330
1A3
330
1B3
330
1C0
330
1CD
330
1DA
330
1F1
330
200
330
385
330
619
330
626
330
635
330
644
330
653
330
669
330
676
330
683
330
691
102
}
330
A
100
AcDbSymbolTableRecord
100
AcDbDimStyleTableRecord
  2
ISO-25
 70
     0
  3

  4

  5

  6

  7

 40
1.0
 41
2.5
 42
0.625
 43
3.75
 44
1.25
 45
0.0
 46
0.0
 47
0.0
 48
0.0
140
2.5
141
2.5
142
0.0
143
0.03937007874016
144
1.0
145
0.0
146
1.0
147
0.625
 71
     0
 72
     0
 73
     0
 74
     0
 75
     0
 76
     0
 77
     1
 78
     8
170
     0
171
     3
172
     1
173
     0
174
     0
175
     0
176
     0
177
     0
178
     0
270
     2
271
     2
272
     2
273
     2
274
     3
340
11
275
     0
280
     0
281
     0
282
     0
283
     0
284
     8
285
     0
286
     0
287
     5
288
     0
  0
ENDTAB
  0
TABLE
  2
BLOCK_RECORD
  5
1
330
0
100
AcDbSymbolTable
 70
    42
  0
BLOCK_RECORD
  5
1F
330
1
100
AcDbSymbolTableRecord
100
AcDbBlockTableRecord
  2
*MODEL_SPACE
  0
BLOCK_RECORD
  5
1B
330
1
100
AcDbSymbolTableRecord
100
AcDbBlockTableRecord
  2
*PAPER_SPACE
  0
BLOCK_RECORD
  5
4D
330
1
100
AcDbSymbolTableRecord
100
AcDbBlockTableRecord
  2
EX_NORM
  0
BLOCK_RECORD
  5
50
330
1
100
AcDbSymbolTableRecord
100
AcDbBlockTableRecord
  2
EX_BNORM
  0
BLOCK_RECORD
  5
53
330
1
100
AcDbSymbolTableRecord
100
AcDbBlockTableRecord
  2
EX_BCIR
  0
BLOCK_RECORD
  5
56
330
1
100
AcDbSymbolTableRecord
100
AcDbBlockTableRecord
  2
EX_RCIVIL
  0
BLOCK_RECORD
  5
59
330
1
100
AcDbSymbolTableRecord
100
AcDbBlockTableRecord
  2
EX_SLANT
  0
BLOCK_RECORD
  5
5C
330
1
100
AcDbSymbolTableRecord
100
AcDbBlockTableRecord
  2
EX_NONE
  0
BLOCK_RECORD
  5
5F
330
1
100
AcDbSymbolTableRecord
100
AcDbBlockTableRecord
  2
EX_CIVIL
  0
BLOCK_RECORD
  5
62
330
1
100
AcDbSymbolTableRecord
100
AcDbBlockTableRecord
  2
EX_WCIR
  0
BLOCK_RECORD
  5
65
330
1
100
AcDbSymbolTableRecord
100
AcDbBlockTableRecord
  2
EX_WCIR2
  0
BLOCK_RECORD
  5
68
330
1
100
AcDbSymbolTableRecord
100
AcDbBlockTableRecord
  2
EX_WNORM
  0
BLOCK_RECORD
  5
6B
330
1
100
AcDbSymbolTableRecord
100
AcDbBlockTableRecord
  2
EX_NNORM
  0
BLOCK_RECORD
  5
6E
330
1
100
AcDbSymbolTableRecord
100
AcDbBlockTableRecord
  2
EX_BBOX
  0
BLOCK_RECORD
  5
71
330
1
100
AcDbSymbolTableRecord
100
AcDbBlockTableRecord
  2
EX_WBOX
  0
BLOCK_RECORD
  5
74
330
1
100
AcDbSymbolTableRecord
100
AcDbBlockTableRecord
  2
EX_INTEGRAL
  0
BLOCK_RECORD
  5
11E
330
1
100
AcDbSymbolTableRecord
100
AcDbBlockTableRecord
  2
*D15
  0
BLOCK_RECORD
  5
129
330
1
100
AcDbSymbolTableRecord
100
AcDbBlockTableRecord
  2
*D16
  0
BLOCK_RECORD
  5
136
330
1
100
AcDbSymbolTableRecord
100
AcDbBlockTableRecord
  2
*D17
  0
BLOCK_RECORD
  5
145
330
1
100
AcDbSymbolTableRecord
100
AcDbBlockTableRecord
  2
*D18
  0
BLOCK_RECORD
  5
152
330
1
100
AcDbSymbolTableRecord
100
AcDbBlockTableRecord
  2
*D19
  0
BLOCK_RECORD
  5
160
330
1
100
AcDbSymbolTableRecord
100
AcDbBlockTableRecord
  2
*D20
  0
BLOCK_RECORD
  5
16F
330
1
100
AcDbSymbolTableRecord
100
AcDbBlockTableRecord
  2
*D21
  0
BLOCK_RECORD
  5
17C
330
1
100
AcDbSymbolTableRecord
100
AcDbBlockTableRecord
  2
*D22
  0
BLOCK_RECORD
  5
189
330
1
100
AcDbSymbolTableRecord
100
AcDbBlockTableRecord
  2
*D23
  0
BLOCK_RECORD
  5
197
330
1
100
AcDbSymbolTableRecord
100
AcDbBlockTableRecord
  2
*D24
  0
BLOCK_RECORD
  5
1A4
330
1
100
AcDbSymbolTableRecord
100
AcDbBlockTableRecord
  2
*D25
  0
BLOCK_RECORD
  5
1B4
330
1
100
AcDbSymbolTableRecord
100
AcDbBlockTableRecord
  2
*D26
  0
BLOCK_RECORD
  5
1C1
330
1
100
AcDbSymbolTableRecord
100
AcDbBlockTableRecord
  2
*D27
  0
BLOCK_RECORD
  5
1CE
330
1
100
AcDbSymbolTableRecord
100
AcDbBlockTableRecord
  2
*D28
  0
BLOCK_RECORD
  5
1DB
330
1
100
AcDbSymbolTableRecord
100
AcDbBlockTableRecord
  2
*D29
  0
BLOCK_RECORD
  5
1F2
330
1
100
AcDbSymbolTableRecord
100
AcDbBlockTableRecord
  2
*D30
  0
BLOCK_RECORD
  5
201
330
1
100
AcDbSymbolTableRecord
100
AcDbBlockTableRecord
  2
*D31
  0
BLOCK_RECORD
  5
386
330
1
100
AcDbSymbolTableRecord
100
AcDbBlockTableRecord
  2
*D32
  0
BLOCK_RECORD
  5
61A
330
1
100
AcDbSymbolTableRecord
100
AcDbBlockTableRecord
  2
*D33
  0
BLOCK_RECORD
  5
627
330
1
100
AcDbSymbolTableRecord
100
AcDbBlockTableRecord
  2
*D34
  0
BLOCK_RECORD
  5
636
330
1
100
AcDbSymbolTableRecord
100
AcDbBlockTableRecord
  2
*D35
  0
BLOCK_RECORD
  5
645
330
1
100
AcDbSymbolTableRecord
100
AcDbBlockTableRecord
  2
*D36
  0
BLOCK_RECORD
  5
654
330
1
100
AcDbSymbolTableRecord
100
AcDbBlockTableRecord
  2
*D37
  0
BLOCK_RECORD
  5
66A
330
1
100
AcDbSymbolTableRecord
100
AcDbBlockTableRecord
  2
*D38
  0
BLOCK_RECORD
  5
677
330
1
100
AcDbSymbolTableRecord
100
AcDbBlockTableRecord
  2
*D39
  0
BLOCK_RECORD
  5
684
330
1
100
AcDbSymbolTableRecord
100
AcDbBlockTableRecord
  2
*D40
  0
BLOCK_RECORD
  5
692
330
1
100
AcDbSymbolTableRecord
100
AcDbBlockTableRecord
  2
*D41
  0
ENDTAB
  0
ENDSEC
  0
SECTION
  2
BLOCKS
  0
BLOCK
  5
20
330
1F
100
AcDbEntity
  8
0
100
AcDbBlockBegin
  2
*MODEL_SPACE
 70
     0
 10
0.0
 20
0.0
 30
0.0
  3
*MODEL_SPACE
  1

  0
ENDBLK
  5
21
330
1F
100
AcDbEntity
  8
0
100
AcDbBlockEnd
  0
BLOCK
  5
1C
330
1B
100
AcDbEntity
 67
     1
  8
0
100
AcDbBlockBegin
  2
*PAPER_SPACE
 70
     0
 10
0.0
 20
0.0
 30
0.0
  3
*PAPER_SPACE
  1

  0
ENDBLK
  5
1D
330
1B
100
AcDbEntity
 67
     1
  8
0
100
AcDbBlockEnd
  0
BLOCK
  5
4E
330
4D
100
AcDbEntity
  8
0
100
AcDbBlockBegin
  2
EX_NORM
 70
     0
 10
0.0
 20
0.0
 30
0.0
  3
EX_NORM
  1

  0
LINE
  5
77
330
4D
100
AcDbEntity
  8
0
  6
CONTINUOUS
 62
     0
100
AcDbLine
 10
0.0
 20
0.0
 30
0.0
 11
-1.0
 21
0.0
 31
0.0
  0
LINE
  5
78
330
4D
100
AcDbEntity
  8
0
  6
CONTINUOUS
 62
     0
100
AcDbLine
 10
0.0
 20
0.0
 30
0.0
 11
-1.0
 21
0.166666667
 31
0.0
  0
LINE
  5
79
330
4D
100
AcDbEntity
  8
0
  6
CONTINUOUS
 62
     0
100
AcDbLine
 10
0.0
 20
0.0
 30
0.0
 11
-1.0
 21
-0.166666667
 31
0.0
  0
ENDBLK
  5
4F
330
4D
100
AcDbEntity
  8
0
100
AcDbBlockEnd
  0
BLOCK
  5
51
330
50
100
AcDbEntity
  8
0
100
AcDbBlockBegin
  2
EX_BNORM
 70
     0
 10
0.0
 20
0.0
 30
0.0
  3
EX_BNORM
  1

  0
LINE
  5
7A
330
50
100
AcDbEntity
  8
0
  6
CONTINUOUS
 62
     0
100
AcDbLine
 10
0.0
 20
0.0
 30
0.0
 11
-1.0
 21
0.0
 31
0.0
  0
LINE
  5
7B
330
50
100
AcDbEntity
  8
0
  6
CONTINUOUS
 62
     0
100
AcDbLine
 10
0.0
 20
0.0
 30
0.0
 11
-1.0
 21
0.166666667
 31
0.0
  0
LINE
  5
7C
330
50
100
AcDbEntity
  8
0
  6
CONTINUOUS
 62
     0
100
AcDbLine
 10
0.0
 20
0.0
 30
0.0
 11
-1.0
 21
-0.166666667
 31
0.0
  0
LINE
  5
7D
330
50
100
AcDbEntity
  8
0
  6
CONTINUOUS
 62
     0
100
AcDbLine
 10
0.0
 20
0.0
 30
0.0
 11
-1.0
 21
0.083333333
 31
0.0
  0
LINE
  5
7E
330
50
100
AcDbEntity
  8
0
  6
CONTINUOUS
 62
     0
100
AcDbLine
 10
0.0
 20
0.0
 30
0.0
 11
-1.0
 21
-0.083333333
 31
0.0
  0
LINE
  5
7F
330
50
100
AcDbEntity
  8
0
  6
CONTINUOUS
 62
     0
100
AcDbLine
 10
-1.0
 20
0.166666667
 30
0.0
 11
-1.0
 21
-0.166666667
 31
0.0
  0
ENDBLK
  5
52
330
50
100
AcDbEntity
  8
0
100
AcDbBlockEnd
  0
BLOCK
  5
54
330
53
100
AcDbEntity
  8
0
100
AcDbBlockBegin
  2
EX_BCIR
 70
     0
 10
0.0
 20
0.0
 30
0.0
  3
EX_BCIR
  1

  0
LINE
  5
80
330
53
100
AcDbEntity
  8
0
  6
CONTINUOUS
 62
     0
100
AcDbLine
 10
0.0
 20
0.0
 30
0.0
 11
-1.0
 21
0.0
 31
0.0
  0
CIRCLE
  5
81
330
53
100
AcDbEntity
  8
0
  6
CONTINUOUS
 62
     0
100
AcDbCircle
 10
0.0
 20
0.0
 30
0.0
 40
0.5
  0
CIRCLE
  5
82
330
53
100
AcDbEntity
  8
0
  6
CONTINUOUS
 62
     0
100
AcDbCircle
 10
0.0
 20
0.0
 30
0.0
 40
0.25
  0
ENDBLK
  5
55
330
53
100
AcDbEntity
  8
0
100
AcDbBlockEnd
  0
BLOCK
  5
57
330
56
100
AcDbEntity
  8
0
100
AcDbBlockBegin
  2
EX_RCIVIL
 70
     0
 10
0.0
 20
0.0
 30
0.0
  3
EX_RCIVIL
  1

  0
LINE
  5
83
330
56
100
AcDbEntity
  8
0
  6
CONTINUOUS
 62
     0
100
AcDbLine
 10
0.0
 20
0.0
 30
0.0
 11
-1.0
 21
0.0
 31
0.0
  0
LINE
  5
84
330
56
100
AcDbEntity
  8
0
  6
CONTINUOUS
 62
     0
100
AcDbLine
 10
-1.0
 20
-0.25
 30
0.0
 11
0.0
 21
-0.25
 31
0.0
  0
LINE
  5
85
330
56
100
AcDbEntity
  8
0
  6
CONTINUOUS
 62
     0
100
AcDbLine
 10
-1.0
 20
-0.125
 30
0.0
 11
0.0
 21
-0.125
 31
0.0
  0
ENDBLK
  5
58
330
56
100
AcDbEntity
  8
0
100
AcDbBlockEnd
  0
BLOCK
  5
5A
330
59
100
AcDbEntity
  8
0
100
AcDbBlockBegin
  2
EX_SLANT
 70
     0
 10
0.0
 20
0.0
 30
0.0
  3
EX_SLANT
  1

  0
LINE
  5
86
330
59
100
AcDbEntity
  8
0
  6
CONTINUOUS
 62
     0
100
AcDbLine
 10
0.0
 20
0.0
 30
0.0
 11
-1.0
 21
0.0
 31
0.0
  0
LINE
  5
87
330
59
100
AcDbEntity
  8
0
  6
CONTINUOUS
 62
     0
100
AcDbLine
 10
0.707106781
 20
0.707106781
 30
0.0
 11
-0.707106781
 21
-0.707106781
 31
0.0
  0
ENDBLK
  5
5B
330
59
100
AcDbEntity
  8
0
100
AcDbBlockEnd
  0
BLOCK
  5
5D
330
5C
100
AcDbEntity
  8
0
100
AcDbBlockBegin
  2
EX_NONE
 70
     0
 10
0.0
 20
0.0
 30
0.0
  3
EX_NONE
  1

  0
LINE
  5
88
330
5C
100
AcDbEntity
  8
0
  6
CONTINUOUS
 62
     0
100
AcDbLine
 10
0.0
 20
0.0
 30
0.0
 11
-1.0
 21
0.0
 31
0.0
  0
ENDBLK
  5
5E
330
5C
100
AcDbEntity
  8
0
100
AcDbBlockEnd
  0
BLOCK
  5
60
330
5F
100
AcDbEntity
  8
0
100
AcDbBlockBegin
  2
EX_CIVIL
 70
     0
 10
0.0
 20
0.0
 30
0.0
  3
EX_CIVIL
  1

  0
LINE
  5
89
330
5F
100
AcDbEntity
  8
0
  6
CONTINUOUS
 62
     0
100
AcDbLine
 10
0.0
 20
0.0
 30
0.0
 11
-1.0
 21
0.0
 31
0.0
  0
LINE
  5
8A
330
5F
100
AcDbEntity
  8
0
  6
CONTINUOUS
 62
     0
100
AcDbLine
 10
-1.0
 20
0.25
 30
0.0
 11
0.0
 21
0.25
 31
0.0
  0
LINE
  5
8B
330
5F
100
AcDbEntity
  8
0
  6
CONTINUOUS
 62
     0
100
AcDbLine
 10
-1.0
 20
0.125
 30
0.0
 11
0.0
 21
0.125
 31
0.0
  0
ENDBLK
  5
61
330
5F
100
AcDbEntity
  8
0
100
AcDbBlockEnd
  0
BLOCK
  5
63
330
62
100
AcDbEntity
  8
0
100
AcDbBlockBegin
  2
EX_WCIR
 70
     0
 10
0.0
 20
0.0
 30
0.0
  3
EX_WCIR
  1

  0
LINE
  5
8C
330
62
100
AcDbEntity
  8
0
  6
CONTINUOUS
 62
     0
100
AcDbLine
 10
0.0
 20
0.0
 30
0.0
 11
-1.0
 21
0.0
 31
0.0
  0
CIRCLE
  5
8D
330
62
100
AcDbEntity
  8
0
  6
CONTINUOUS
 62
     0
100
AcDbCircle
 10
0.0
 20
0.0
 30
0.0
 40
0.5
  0
ENDBLK
  5
64
330
62
100
AcDbEntity
  8
0
100
AcDbBlockEnd
  0
BLOCK
  5
66
330
65
100
AcDbEntity
  8
0
100
AcDbBlockBegin
  2
EX_WCIR2
 70
     0
 10
0.0
 20
0.0
 30
0.0
  3
EX_WCIR2
  1

  0
LINE
  5
8E
330
65
100
AcDbEntity
  8
0
  6
CONTINUOUS
 62
     0
100
AcDbLine
 10
-0.5
 20
0.0
 30
0.0
 11
-1.0
 21
0.0
 31
0.0
  0
CIRCLE
  5
8F
330
65
100
AcDbEntity
  8
0
  6
CONTINUOUS
 62
     0
100
AcDbCircle
 10
0.0
 20
0.0
 30
0.0
 40
0.5
  0
ENDBLK
  5
67
330
65
100
AcDbEntity
  8
0
100
AcDbBlockEnd
  0
BLOCK
  5
69
330
68
100
AcDbEntity
  8
0
100
AcDbBlockBegin
  2
EX_WNORM
 70
     0
 10
0.0
 20
0.0
 30
0.0
  3
EX_WNORM
  1

  0
LINE
  5
90
330
68
100
AcDbEntity
  8
0
  6
CONTINUOUS
 62
     0
100
AcDbLine
 10
-1.0
 20
0.0
 30
0.0
 11
-1.0
 21
0.0
 31
0.0
  0
LINE
  5
91
330
68
100
AcDbEntity
  8
0
  6
CONTINUOUS
 62
     0
100
AcDbLine
 10
0.0
 20
0.0
 30
0.0
 11
-1.0
 21
0.166666667
 31
0.0
  0
LINE
  5
92
330
68
100
AcDbEntity
  8
0
  6
CONTINUOUS
 62
     0
100
AcDbLine
 10
0.0
 20
0.0
 30
0.0
 11
-1.0
 21
-0.166666667
 31
0.0
  0
LINE
  5
93
330
68
100
AcDbEntity
  8
0
  6
CONTINUOUS
 62
     0
100
AcDbLine
 10
-1.0
 20
0.166666667
 30
0.0
 11
-1.0
 21
-0.166666667
 31
0.0
  0
ENDBLK
  5
6A
330
68
100
AcDbEntity
  8
0
100
AcDbBlockEnd
  0
BLOCK
  5
6C
330
6B
100
AcDbEntity
  8
0
100
AcDbBlockBegin
  2
EX_NNORM
 70
     0
 10
0.0
 20
0.0
 30
0.0
  3
EX_NNORM
  1

  0
LINE
  5
94
330
6B
100
AcDbEntity
  8
0
  6
CONTINUOUS
 62
     0
100
AcDbLine
 10
0.0
 20
0.0
 30
0.0
 11
-1.0
 21
0.0
 31
0.0
  0
LINE
  5
95
330
6B
100
AcDbEntity
  8
0
  6
CONTINUOUS
 62
     0
100
AcDbLine
 10
0.0
 20
0.0
 30
0.0
 11
-1.0
 21
0.166666667
 31
0.0
  0
LINE
  5
96
330
6B
100
AcDbEntity
  8
0
  6
CONTINUOUS
 62
     0
100
AcDbLine
 10
0.0
 20
0.0
 30
0.0
 11
-1.0
 21
-0.166666667
 31
0.0
  0
LINE
  5
97
330
6B
100
AcDbEntity
  8
0
  6
CONTINUOUS
 62
     0
100
AcDbLine
 10
-1.0
 20
0.166666667
 30
0.0
 11
-1.0
 21
-0.166666667
 31
0.0
  0
ENDBLK
  5
6D
330
6B
100
AcDbEntity
  8
0
100
AcDbBlockEnd
  0
BLOCK
  5
6F
330
6E
100
AcDbEntity
  8
0
100
AcDbBlockBegin
  2
EX_BBOX
 70
     0
 10
0.0
 20
0.0
 30
0.0
  3
EX_BBOX
  1

  0
LINE
  5
98
330
6E
100
AcDbEntity
  8
0
  6
CONTINUOUS
 62
     0
100
AcDbLine
 10
0.0
 20
0.0
 30
0.0
 11
-1.0
 21
0.0
 31
0.0
  0
LINE
  5
99
330
6E
100
AcDbEntity
  8
0
  6
CONTINUOUS
 62
     0
100
AcDbLine
 10
-0.5
 20
0.5
 30
0.0
 11
0.5
 21
0.5
 31
0.0
  0
LINE
  5
9A
330
6E
100
AcDbEntity
  8
0
  6
CONTINUOUS
 62
     0
100
AcDbLine
 10
0.5
 20
0.5
 30
0.0
 11
0.5
 21
-0.5
 31
0.0
  0
LINE
  5
9B
330
6E
100
AcDbEntity
  8
0
  6
CONTINUOUS
 62
     0
100
AcDbLine
 10
0.5
 20
-0.5
 30
0.0
 11
-0.5
 21
-0.5
 31
0.0
  0
LINE
  5
9C
330
6E
100
AcDbEntity
  8
0
  6
CONTINUOUS
 62
     0
100
AcDbLine
 10
-0.5
 20
-0.5
 30
0.0
 11
-0.5
 21
0.5
 31
0.0
  0
LINE
  5
9D
330
6E
100
AcDbEntity
  8
0
  6
CONTINUOUS
 62
     0
100
AcDbLine
 10
-0.25
 20
0.25
 30
0.0
 11
0.25
 21
0.25
 31
0.0
  0
LINE
  5
9E
330
6E
100
AcDbEntity
  8
0
  6
CONTINUOUS
 62
     0
100
AcDbLine
 10
0.25
 20
0.25
 30
0.0
 11
0.25
 21
-0.25
 31
0.0
  0
LINE
  5
9F
330
6E
100
AcDbEntity
  8
0
  6
CONTINUOUS
 62
     0
100
AcDbLine
 10
0.25
 20
-0.25
 30
0.0
 11
-0.25
 21
-0.25
 31
0.0
  0
LINE
  5
A0
330
6E
100
AcDbEntity
  8
0
  6
CONTINUOUS
 62
     0
100
AcDbLine
 10
-0.25
 20
-0.25
 30
0.0
 11
-0.25
 21
0.25
 31
0.0
  0
ENDBLK
  5
70
330
6E
100
AcDbEntity
  8
0
100
AcDbBlockEnd
  0
BLOCK
  5
72
330
71
100
AcDbEntity
  8
0
100
AcDbBlockBegin
  2
EX_WBOX
 70
     0
 10
0.0
 20
0.0
 30
0.0
  3
EX_WBOX
  1

  0
LINE
  5
A1
330
71
100
AcDbEntity
  8
0
  6
CONTINUOUS
 62
     0
100
AcDbLine
 10
-0.5
 20
0.0
 30
0.0
 11
-1.0
 21
0.0
 31
0.0
  0
LINE
  5
A2
330
71
100
AcDbEntity
  8
0
  6
CONTINUOUS
 62
     0
100
AcDbLine
 10
-0.5
 20
0.5
 30
0.0
 11
0.5
 21
0.5
 31
0.0
  0
LINE
  5
A3
330
71
100
AcDbEntity
  8
0
  6
CONTINUOUS
 62
     0
100
AcDbLine
 10
0.5
 20
0.5
 30
0.0
 11
0.5
 21
-0.5
 31
0.0
  0
LINE
  5
A4
330
71
100
AcDbEntity
  8
0
  6
CONTINUOUS
 62
     0
100
AcDbLine
 10
0.5
 20
-0.5
 30
0.0
 11
-0.5
 21
-0.5
 31
0.0
  0
LINE
  5
A5
330
71
100
AcDbEntity
  8
0
  6
CONTINUOUS
 62
     0
100
AcDbLine
 10
-0.5
 20
-0.5
 30
0.0
 11
-0.5
 21
0.5
 31
0.0
  0
ENDBLK
  5
73
330
71
100
AcDbEntity
  8
0
100
AcDbBlockEnd
  0
BLOCK
  5
75
330
74
100
AcDbEntity
  8
0
100
AcDbBlockBegin
  2
EX_INTEGRAL
 70
     0
 10
0.0
 20
0.0
 30
0.0
  3
EX_INTEGRAL
  1

  0
LINE
  5
A6
330
74
100
AcDbEntity
  8
0
  6
CONTINUOUS
 62
     0
100
AcDbLine
 10
0.0
 20
0.0
 30
0.0
 11
-1.0
 21
0.0
 31
0.0
  0
ARC
  5
A7
330
74
100
AcDbEntity
  8
0
  6
CONTINUOUS
 62
     0
100
AcDbCircle
 10
0.542115
 20
0.164992
 30
0.0
 40
0.56667
100
AcDbArc
 50
73.07249033629006
 51
196.9275130221199
  0
ARC
  5
A8
330
74
100
AcDbEntity
  8
0
  6
CONTINUOUS
 62
     0
100
AcDbCircle
 10
-0.542115
 20
-0.164992
 30
0.0
 40
0.56667
100
AcDbArc
 50
253.0724869220464
 51
16.9275130559125
  0
ENDBLK
  5
76
330
74
100
AcDbEntity
  8
0
100
AcDbBlockEnd
  0
BLOCK
  5
11F
330
11E
100
AcDbEntity
  8
0
100
AcDbBlockBegin
  2
*D15
 70
     1
 10
0.0
 20
0.0
 30
0.0
  3
*D15
  1

  0
LINE
  5
121
330
11E
100
AcDbEntity
  8
化粧台
  6
CONTINUOUS
 62
     3
100
AcDbLine
 10
1612.5
 20
1637.000003814797
 30
0.0
 11
1612.5
 21
941.9999961853027
 31
0.0
  0
INSERT
  5
122
330
11E
100
AcDbEntity
  8
化粧台
 62
     3
100
AcDbBlockReference
  2
EX_NORM
 10
1612.5
 20
1682.0000000001
 30
0.0
 41
44.99999618530273
 42
44.99999618530273
 43
44.99999618530273
 50
90.0
  0
INSERT
  5
123
330
11E
100
AcDbEntity
  8
化粧台
 62
     3
100
AcDbBlockReference
  2
EX_NORM
 10
1612.5
 20
897.0
 30
0.0
 41
44.99999618530273
 42
44.99999618530273
 43
44.99999618530273
 50
270.0
  0
MTEXT
  5
124
330
11E
100
AcDbEntity
  8
化粧台
 62
     2
100
AcDbMText
 10
1575.0
 20
1289.50000000005
 30
0.0
 40
59.99999618530273
 41
0.0
 71
     5
 72
     1
  1
785
  7
EXCADDIM1
 11
0.0
 21
1.0
 31
0.0
  0
POINT
  5
125
330
11E
100
AcDbEntity
  8
DEFPOINTS
 62
     0
100
AcDbPoint
 10
1479.474995203788
 20
1682.0000000001
 30
0.0
  0
POINT
  5
126
330
11E
100
AcDbEntity
  8
DEFPOINTS
 62
     0
100
AcDbPoint
 10
1479.474995203788
 20
897.0
 30
0.0
  0
POINT
  5
127
330
11E
100
AcDbEntity
  8
DEFPOINTS
 62
     0
100
AcDbPoint
 10
1612.5
 20
897.0
 30
0.0
  0
ENDBLK
  5
120
330
11E
100
AcDbEntity
  8
0
100
AcDbBlockEnd
  0
BLOCK
  5
12A
330
129
100
AcDbEntity
  8
0
100
AcDbBlockBegin
  2
*D16
 70
     1
 10
0.0
 20
0.0
 30
0.0
  3
*D16
  1

  0
LINE
  5
12C
330
129
100
AcDbEntity
  8
化粧台
  6
CONTINUOUS
 62
     3
100
AcDbLine
 10
1298.999999642475
 20
2812.0000000001
 30
0.0
 11
1627.499999999998
 21
2812.0000000001
 31
0.0
  0
LINE
  5
12D
330
129
100
AcDbEntity
  8
化粧台
  6
CONTINUOUS
 62
     3
100
AcDbLine
 10
1263.474995024975
 20
1682.0000000001
 30
0.0
 11
1627.499999999998
 21
1682.0000000001
 31
0.0
  0
LINE
  5
12E
330
129
100
AcDbEntity
  8
化粧台
  6
CONTINUOUS
 62
     3
100
AcDbLine
 10
1612.5
 20
2767.000003814797
 30
0.0
 11
1612.5
 21
1726.999996185403
 31
0.0
  0
INSERT
  5
12F
330
129
100
AcDbEntity
  8
化粧台
 62
     3
100
AcDbBlockReference
  2
EX_NORM
 10
1612.5
 20
2812.0000000001
 30
0.0
 41
44.99999618530273
 42
44.99999618530273
 43
44.99999618530273
 50
90.0
  0
INSERT
  5
130
330
129
100
AcDbEntity
  8
化粧台
 62
     3
100
AcDbBlockReference
  2
EX_NORM
 10
1612.5
 20
1682.0000000001
 30
0.0
 41
44.99999618530273
 42
44.99999618530273
 43
44.99999618530273
 50
270.0
  0
MTEXT
  5
131
330
129
100
AcDbEntity
  8
化粧台
 62
     2
100
AcDbMText
 10
1575.0
 20
2247.0000000001
 30
0.0
 40
59.99999618530273
 41
0.0
 71
     5
 72
     1
  1
1130
  7
EXCADDIM1
 11
0.0
 21
1.0
 31
0.0
  0
POINT
  5
132
330
129
100
AcDbEntity
  8
DEFPOINTS
 62
     0
100
AcDbPoint
 10
1288.499999821289
 20
2812.0000000001
 30
0.0
  0
POINT
  5
133
330
129
100
AcDbEntity
  8
DEFPOINTS
 62
     0
100
AcDbPoint
 10
1252.974995203788
 20
1682.0000000001
 30
0.0
  0
POINT
  5
134
330
129
100
AcDbEntity
  8
DEFPOINTS
 62
     0
100
AcDbPoint
 10
1612.5
 20
1682.0000000001
 30
0.0
  0
ENDBLK
  5
12B
330
129
100
AcDbEntity
  8
0
100
AcDbBlockEnd
  0
BLOCK
  5
137
330
136
100
AcDbEntity
  8
0
100
AcDbBlockBegin
  2
*D17
 70
     1
 10
0.0
 20
0.0
 30
0.0
  3
*D17
  1

  0
LINE
  5
139
330
136
100
AcDbEntity
  8
化粧台
  6
CONTINUOUS
 62
     3
100
AcDbLine
 10
1288.499999821275
 20
2812.0000000001
 30
0.0
 11
1747.499999999998
 21
2812.0000000001
 31
0.0
  0
LINE
  5
13A
330
136
100
AcDbEntity
  8
化粧台
  6
CONTINUOUS
 62
     3
100
AcDbLine
 10
1265.499999821275
 20
897.0
 30
0.0
 11
1747.499999999998
 21
897.0
 31
0.0
  0
LINE
  5
13B
330
136
100
AcDbEntity
  8
化粧台
  6
CONTINUOUS
 62
     3
100
AcDbLine
 10
1732.499999999999
 20
2767.000003814797
 30
0.0
 11
1732.499999999999
 21
941.9999961853027
 31
0.0
  0
INSERT
  5
13C
330
136
100
AcDbEntity
  8
化粧台
 62
     3
100
AcDbBlockReference
  2
EX_NORM
 10
1732.499999999999
 20
2812.0000000001
 30
0.0
 41
44.99999618530273
 42
44.99999618530273
 43
44.99999618530273
 50
90.0
  0
INSERT
  5
13D
330
136
100
AcDbEntity
  8
化粧台
 62
     3
100
AcDbBlockReference
  2
EX_NORM
 10
1732.499999999999
 20
897.0
 30
0.0
 41
44.99999618530273
 42
44.99999618530273
 43
44.99999618530273
 50
270.0
  0
MTEXT
  5
13E
330
136
100
AcDbEntity
  8
化粧台
 62
     2
100
AcDbMText
 10
1694.999999999999
 20
1854.50000000005
 30
0.0
 40
59.99999618530273
 41
0.0
 71
     5
 72
     1
  1
1915
  7
EXCADDIM1
 11
1.187329897875824E-16
 21
1.0
 31
0.0
  0
POINT
  5
13F
330
136
100
AcDbEntity
  8
DEFPOINTS
 62
     0
100
AcDbPoint
 10
1278.000000000088
 20
2812.0000000001
 30
0.0
  0
POINT
  5
140
330
136
100
AcDbEntity
  8
DEFPOINTS
 62
     0
100
AcDbPoint
 10
1255.000000000088
 20
897.0
 30
0.0
  0
POINT
  5
141
330
136
100
AcDbEntity
  8
DEFPOINTS
 62
     0
100
AcDbPoint
 10
1732.499999999999
 20
897.0
 30
0.0
  0
ENDBLK
  5
138
330
136
100
AcDbEntity
  8
0
100
AcDbBlockEnd
  0
BLOCK
  5
146
330
145
100
AcDbEntity
  8
0
100
AcDbBlockBegin
  2
*D18
 70
     1
 10
0.0
 20
0.0
 30
0.0
  3
*D18
  1

  0
LINE
  5
148
330
145
100
AcDbEntity
  8
化粧台
  6
CONTINUOUS
 62
     3
100
AcDbLine
 10
1280.499999821234
 20
897.0000000001
 30
0.0
 11
1494.0
 21
897.0000000001002
 31
0.0
  0
LINE
  5
149
330
145
100
AcDbEntity
  8
化粧台
  6
CONTINUOUS
 62
     3
100
AcDbLine
 10
993.4999998212355
 20
1647.0000000001
 30
0.0
 11
1494.0
 21
1647.0000000001
 31
0.0
  0
LINE
  5
14A
330
145
100
AcDbEntity
  8
化粧台
  6
CONTINUOUS
 62
     3
100
AcDbLine
 10
1479.0
 20
941.9999961854029
 30
0.0
 11
1479.0
 21
1602.000003814797
 31
0.0
  0
INSERT
  5
14B
330
145
100
AcDbEntity
  8
化粧台
 62
     3
100
AcDbBlockReference
  2
EX_NORM
 10
1479.0
 20
897.0000000001002
 30
0.0
 41
44.99999618530273
 42
44.99999618530273
 43
44.99999618530273
 50
270.0
  0
INSERT
  5
14C
330
145
100
AcDbEntity
  8
化粧台
 62
     3
100
AcDbBlockReference
  2
EX_NORM
 10
1479.0
 20
1647.0000000001
 30
0.0
 41
44.99999618530273
 42
44.99999618530273
 43
44.99999618530273
 50
90.0
  0
MTEXT
  5
14D
330
145
100
AcDbEntity
  8
化粧台
 62
     2
100
AcDbMText
 10
1443.750000089407
 20
1272.000000000098
 30
0.0
 40
59.99999618530273
 41
0.0
 71
     5
 72
     1
  1
750
  7
EXCADDIM1
 11
0.0
 21
1.0
 31
0.0
  0
POINT
  5
14E
330
145
100
AcDbEntity
  8
DEFPOINTS
 62
     0
100
AcDbPoint
 10
1270.000000000048
 20
897.0000000001
 30
0.0
  0
POINT
  5
14F
330
145
100
AcDbEntity
  8
DEFPOINTS
 62
     0
100
AcDbPoint
 10
983.0000000000495
 20
1647.0000000001
 30
0.0
  0
POINT
  5
150
330
145
100
AcDbEntity
  8
DEFPOINTS
 62
     0
100
AcDbPoint
 10
1479.0
 20
1647.0000000001
 30
0.0
  0
ENDBLK
  5
147
330
145
100
AcDbEntity
  8
0
100
AcDbBlockEnd
  0
BLOCK
  5
153
330
152
100
AcDbEntity
  8
0
100
AcDbBlockBegin
  2
*D19
 70
     1
 10
0.0
 20
0.0
 30
0.0
  3
*D19
  1

  0
LINE
  5
155
330
152
100
AcDbEntity
  8
化粧台
  6
CONTINUOUS
 62
     3
100
AcDbLine
 10
683.0000000000493
 20
2817.499999821286
 30
0.0
 11
683.0000000000493
 21
3033.0
 31
0.0
  0
LINE
  5
156
330
152
100
AcDbEntity
  8
化粧台
  6
CONTINUOUS
 62
     3
100
AcDbLine
 10
1283.000000000088
 20
2817.499999821286
 30
0.0
 11
1283.000000000088
 21
3033.0
 31
0.0
  0
LINE
  5
157
330
152
100
AcDbEntity
  8
化粧台
  6
CONTINUOUS
 62
     3
100
AcDbLine
 10
727.9999961853521
 20
3018.0
 30
0.0
 11
1238.000003814786
 21
3018.0
 31
0.0
  0
INSERT
  5
158
330
152
100
AcDbEntity
  8
化粧台
 62
     3
100
AcDbBlockReference
  2
EX_NORM
 10
683.0000000000493
 20
3018.0
 30
0.0
 41
44.99999618530273
 42
44.99999618530273
 43
44.99999618530273
 50
180.0
  0
INSERT
  5
159
330
152
100
AcDbEntity
  8
化粧台
 62
     3
100
AcDbBlockReference
  2
EX_NORM
 10
1283.000000000088
 20
3018.0
 30
0.0
 41
44.99999618530273
 42
44.99999618530273
 43
44.99999618530273
  0
MTEXT
  5
15A
330
152
100
AcDbEntity
  8
化粧台
 62
     2
100
AcDbMText
 10
983.0000000000691
 20
3055.5
 30
0.0
 40
59.99999618530273
 41
0.0
 71
     5
 72
     1
  1
600
  7
EXCADDIM1
  0
POINT
  5
15B
330
152
100
AcDbEntity
  8
DEFPOINTS
 62
     0
100
AcDbPoint
 10
683.0000000000493
 20
2807.0000000001
 30
0.0
  0
POINT
  5
15C
330
152
100
AcDbEntity
  8
DEFPOINTS
 62
     0
100
AcDbPoint
 10
1283.000000000088
 20
2807.0000000001
 30
0.0
  0
POINT
  5
15D
330
152
100
AcDbEntity
  8
DEFPOINTS
 62
     0
100
AcDbPoint
 10
1283.000000000088
 20
3018.0
 30
0.0
  0
ENDBLK
  5
154
330
152
100
AcDbEntity
  8
0
100
AcDbBlockEnd
  0
BLOCK
  5
161
330
160
100
AcDbEntity
  8
0
100
AcDbBlockBegin
  2
*D20
 70
     1
 10
0.0
 20
0.0
 30
0.0
  3
*D20
  1

  0
LINE
  5
163
330
160
100
AcDbEntity
  8
化粧台
  6
CONTINUOUS
 62
     3
100
AcDbLine
 10
1298.814876767675
 20
1682.0000000001
 30
0.0
 11
1494.0
 21
1682.0000000001
 31
0.0
  0
LINE
  5
164
330
160
100
AcDbEntity
  8
化粧台
  6
CONTINUOUS
 62
     3
100
AcDbLine
 10
1324.799999821274
 20
1697.0000000001
 30
0.0
 11
1494.0
 21
1697.0000000001
 31
0.0
  0
LINE
  5
165
330
160
100
AcDbEntity
  8
化粧台
  6
CONTINUOUS
 62
     3
100
AcDbLine
 10
1479.0
 20
1682.0000000001
 30
0.0
 11
1479.0
 21
1697.0000000001
 31
0.0
  0
LINE
  5
166
330
160
100
AcDbEntity
  8
化粧台
  6
CONTINUOUS
 62
     3
100
AcDbLine
 10
1479.0
 20
1652.000001907449
 30
0.0
 11
1479.0
 21
1622.000003814797
 31
0.0
  0
LINE
  5
167
330
160
100
AcDbEntity
  8
化粧台
  6
CONTINUOUS
 62
     3
100
AcDbLine
 10
1479.0
 20
1726.999998092751
 30
0.0
 11
1479.0
 21
1756.999996185403
 31
0.0
  0
INSERT
  5
168
330
160
100
AcDbEntity
  8
化粧台
 62
     3
100
AcDbBlockReference
  2
EX_NORM
 10
1479.0
 20
1682.0000000001
 30
0.0
 41
29.99999809265137
 42
29.99999809265137
 43
29.99999809265137
 50
90.0
  0
INSERT
  5
169
330
160
100
AcDbEntity
  8
化粧台
 62
     3
100
AcDbBlockReference
  2
EX_NORM
 10
1479.0
 20
1697.0000000001
 30
0.0
 41
29.99999809265137
 42
29.99999809265137
 43
29.99999809265137
 50
270.0
  0
MTEXT
  5
16A
330
160
100
AcDbEntity
  8
化粧台
 62
     2
100
AcDbMText
 10
1441.499999999999
 20
1780.999999910692
 30
0.0
 40
59.99999618530273
 41
0.0
 71
     5
 72
     1
  1
15
  7
EXCADDIM1
 11
0.0
 21
1.0
 31
0.0
  0
POINT
  5
16B
330
160
100
AcDbEntity
  8
DEFPOINTS
 62
     0
100
AcDbPoint
 10
1288.314876946489
 20
1682.0000000001
 30
0.0
  0
POINT
  5
16C
330
160
100
AcDbEntity
  8
DEFPOINTS
 62
     0
100
AcDbPoint
 10
1314.300000000088
 20
1697.0000000001
 30
0.0
  0
POINT
  5
16D
330
160
100
AcDbEntity
  8
DEFPOINTS
 62
     0
100
AcDbPoint
 10
1479.0
 20
1697.0000000001
 30
0.0
  0
ENDBLK
  5
162
330
160
100
AcDbEntity
  8
0
100
AcDbBlockEnd
  0
BLOCK
  5
170
330
16F
100
AcDbEntity
  8
0
100
AcDbBlockBegin
  2
*D21
 70
     1
 10
0.0
 20
0.0
 30
0.0
  3
*D21
  1

  0
LINE
  5
172
330
16F
100
AcDbEntity
  8
化粧台
  6
CONTINUOUS
 62
     3
100
AcDbLine
 10
683.0000000001294
 20
3648.0
 30
0.0
 11
683.0000000001294
 21
3390.0
 31
0.0
  0
LINE
  5
173
330
16F
100
AcDbEntity
  8
化粧台
  6
CONTINUOUS
 62
     3
100
AcDbLine
 10
1283.000000000088
 20
3648.0
 30
0.0
 11
1283.000000000088
 21
3390.0
 31
0.0
  0
LINE
  5
174
330
16F
100
AcDbEntity
  8
化粧台
  6
CONTINUOUS
 62
     3
100
AcDbLine
 10
727.9999961854321
 20
3405.0
 30
0.0
 11
1238.000003814786
 21
3405.0
 31
0.0
  0
INSERT
  5
175
330
16F
100
AcDbEntity
  8
化粧台
 62
     3
100
AcDbBlockReference
  2
EX_NORM
 10
683.0000000001294
 20
3405.0
 30
0.0
 41
44.99999618530273
 42
44.99999618530273
 43
44.99999618530273
 50
180.0
  0
INSERT
  5
176
330
16F
100
AcDbEntity
  8
化粧台
 62
     3
100
AcDbBlockReference
  2
EX_NORM
 10
1283.000000000088
 20
3405.0
 30
0.0
 41
44.99999618530273
 42
44.99999618530273
 43
44.99999618530273
  0
MTEXT
  5
177
330
16F
100
AcDbEntity
  8
化粧台
 62
     2
100
AcDbMText
 10
983.0000000001091
 20
3440.249999910593
 30
0.0
 40
59.99999618530273
 41
0.0
 71
     5
 72
     1
  1
600
  7
EXCADDIM1
  0
POINT
  5
178
330
16F
100
AcDbEntity
  8
DEFPOINTS
 62
     0
100
AcDbPoint
 10
683.0000000001294
 20
3649.50000000004
 30
0.0
  0
POINT
  5
179
330
16F
100
AcDbEntity
  8
DEFPOINTS
 62
     0
100
AcDbPoint
 10
1283.000000000088
 20
3649.50000000004
 30
0.0
  0
POINT
  5
17A
330
16F
100
AcDbEntity
  8
DEFPOINTS
 62
     0
100
AcDbPoint
 10
1283.000000000088
 20
3405.0
 30
0.0
  0
ENDBLK
  5
171
330
16F
100
AcDbEntity
  8
0
100
AcDbBlockEnd
  0
BLOCK
  5
17D
330
17C
100
AcDbEntity
  8
0
100
AcDbBlockBegin
  2
*D22
 70
     1
 10
0.0
 20
0.0
 30
0.0
  3
*D22
  1

  0
LINE
  5
17F
330
17C
100
AcDbEntity
  8
化粧台
  6
CONTINUOUS
 62
     3
100
AcDbLine
 10
1288.499999821275
 20
3671.50000000004
 30
0.0
 11
1435.5
 21
3671.50000000004
 31
0.0
  0
LINE
  5
180
330
17C
100
AcDbEntity
  8
化粧台
  6
CONTINUOUS
 62
     3
100
AcDbLine
 10
1420.5
 20
3926.500003814737
 30
0.0
 11
1420.5
 21
3716.499996185342
 31
0.0
  0
INSERT
  5
181
330
17C
100
AcDbEntity
  8
化粧台
 62
     3
100
AcDbBlockReference
  2
EX_NORM
 10
1420.5
 20
3971.50000000004
 30
0.0
 41
44.99999618530273
 42
44.99999618530273
 43
44.99999618530273
 50
90.0
  0
INSERT
  5
182
330
17C
100
AcDbEntity
  8
化粧台
 62
     3
100
AcDbBlockReference
  2
EX_NORM
 10
1420.5
 20
3671.50000000004
 30
0.0
 41
44.99999618530273
 42
44.99999618530273
 43
44.99999618530273
 50
270.0
  0
MTEXT
  5
183
330
17C
100
AcDbEntity
  8
化粧台
 62
     2
100
AcDbMText
 10
1385.250000089408
 20
3821.50000000004
 30
0.0
 40
59.99999618530273
 41
0.0
 71
     5
 72
     1
  1
300
  7
EXCADDIM1
 11
0.0
 21
1.0
 31
0.0
  0
POINT
  5
184
330
17C
100
AcDbEntity
  8
DEFPOINTS
 62
     0
100
AcDbPoint
 10
1283.000000000088
 20
3971.50000000004
 30
0.0
  0
POINT
  5
185
330
17C
100
AcDbEntity
  8
DEFPOINTS
 62
     0
100
AcDbPoint
 10
1278.000000000088
 20
3671.50000000004
 30
0.0
  0
POINT
  5
186
330
17C
100
AcDbEntity
  8
DEFPOINTS
 62
     0
100
AcDbPoint
 10
1420.5
 20
3671.50000000004
 30
0.0
  0
ENDBLK
  5
17E
330
17C
100
AcDbEntity
  8
0
100
AcDbBlockEnd
  0
BLOCK
  5
18A
330
189
100
AcDbEntity
  8
0
100
AcDbBlockBegin
  2
*D23
 70
     1
 10
0.0
 20
0.0
 30
0.0
  3
*D23
  1

  0
LINE
  5
18C
330
189
100
AcDbEntity
  8
化粧台
  6
CONTINUOUS
 62
     3
100
AcDbLine
 10
1103.000000000088
 20
4022.399999821186
 30
0.0
 11
1103.000000000088
 21
4105.5
 31
0.0
  0
LINE
  5
18D
330
189
100
AcDbEntity
  8
化粧台
  6
CONTINUOUS
 62
     3
100
AcDbLine
 10
1193.000000000088
 20
4010.099999821186
 30
0.0
 11
1193.000000000088
 21
4105.5
 31
0.0
  0
LINE
  5
18E
330
189
100
AcDbEntity
  8
化粧台
  6
CONTINUOUS
 62
     3
100
AcDbLine
 10
1132.999998092739
 20
4090.5
 30
0.0
 11
1163.000001907437
 21
4090.5
 31
0.0
  0
INSERT
  5
18F
330
189
100
AcDbEntity
  8
化粧台
 62
     3
100
AcDbBlockReference
  2
EX_NORM
 10
1103.000000000088
 20
4090.5
 30
0.0
 41
29.99999809265137
 42
29.99999809265137
 43
29.99999809265137
 50
180.0
  0
INSERT
  5
190
330
189
100
AcDbEntity
  8
化粧台
 62
     3
100
AcDbBlockReference
  2
EX_NORM
 10
1193.000000000088
 20
4090.5
 30
0.0
 41
29.99999809265137
 42
29.99999809265137
 43
29.99999809265137
  0
MTEXT
  5
191
330
189
100
AcDbEntity
  8
化粧台
 62
     2
100
AcDbMText
 10
1396.999999463647
 20
4128.0
 30
0.0
 40
59.99999618530273
 41
0.0
 71
     5
 72
     1
  1
90（壁給水）
  7
EXCADDIM1
  0
POINT
  5
192
330
189
100
AcDbEntity
  8
DEFPOINTS
 62
     0
100
AcDbPoint
 10
1103.000000000088
 20
4011.9
 30
0.0
  0
POINT
  5
193
330
189
100
AcDbEntity
  8
DEFPOINTS
 62
     0
100
AcDbPoint
 10
1193.000000000088
 20
3999.6
 30
0.0
  0
POINT
  5
194
330
189
100
AcDbEntity
  8
DEFPOINTS
 62
     0
100
AcDbPoint
 10
1193.000000000088
 20
4090.5
 30
0.0
  0
ENDBLK
  5
18B
330
189
100
AcDbEntity
  8
0
100
AcDbBlockEnd
  0
BLOCK
  5
198
330
197
100
AcDbEntity
  8
0
100
AcDbBlockBegin
  2
*D24
 70
     1
 10
0.0
 20
0.0
 30
0.0
  3
*D24
  1

  0
LINE
  5
19A
330
197
100
AcDbEntity
  8
化粧台
  6
CONTINUOUS
 62
     3
100
AcDbLine
 10
1104.000000000188
 20
841.5000001787739
 30
0.0
 11
1104.000000000188
 21
727.5
 31
0.0
  0
LINE
  5
19B
330
197
100
AcDbEntity
  8
化粧台
  6
CONTINUOUS
 62
     3
100
AcDbLine
 10
1194.000000000187
 20
841.5000001788139
 30
0.0
 11
1194.000000000187
 21
727.5
 31
0.0
  0
LINE
  5
19C
330
197
100
AcDbEntity
  8
化粧台
  6
CONTINUOUS
 62
     3
100
AcDbLine
 10
1148.99999618549
 20
742.5
 30
0.0
 11
1149.000003814884
 21
742.5
 31
0.0
  0
INSERT
  5
19D
330
197
100
AcDbEntity
  8
化粧台
 62
     3
100
AcDbBlockReference
  2
EX_NORM
 10
1104.000000000188
 20
742.5
 30
0.0
 41
44.99999618530273
 42
44.99999618530273
 43
44.99999618530273
 50
180.0
  0
INSERT
  5
19E
330
197
100
AcDbEntity
  8
化粧台
 62
     3
100
AcDbBlockReference
  2
EX_NORM
 10
1194.000000000187
 20
742.5
 30
0.0
 41
44.99999618530273
 42
44.99999618530273
 43
44.99999618530273
  0
MTEXT
  5
19F
330
197
100
AcDbEntity
  8
化粧台
 62
     2
100
AcDbMText
 10
1430.999999284931
 20
780.0
 30
0.0
 40
59.99999618530273
 41
0.0
 71
     5
 72
     1
  1
  90（床給水）
  7
EXCADDIM1
  0
POINT
  5
1A0
330
197
100
AcDbEntity
  8
DEFPOINTS
 62
     0
100
AcDbPoint
 10
1104.000000000188
 20
851.99999999996
 30
0.0
  0
POINT
  5
1A1
330
197
100
AcDbEntity
  8
DEFPOINTS
 62
     0
100
AcDbPoint
 10
1194.000000000187
 20
852.0
 30
0.0
  0
POINT
  5
1A2
330
197
100
AcDbEntity
  8
DEFPOINTS
 62
     0
100
AcDbPoint
 10
1194.000000000187
 20
742.5
 30
0.0
  0
ENDBLK
  5
199
330
197
100
AcDbEntity
  8
0
100
AcDbBlockEnd
  0
BLOCK
  5
1A5
330
1A4
100
AcDbEntity
  8
0
100
AcDbBlockBegin
  2
*D25
 70
     1
 10
0.0
 20
0.0
 30
0.0
  3
*D25
  1

  0
LINE
  5
1A7
330
1A4
100
AcDbEntity
  8
化粧台
  6
CONTINUOUS
 62
     3
100
AcDbLine
 10
984.0000000001875
 20
807.0000001788139
 30
0.0
 11
984.0000000001875
 21
727.5
 31
0.0
  0
LINE
  5
1A8
330
1A4
100
AcDbEntity
  8
化粧台
  6
CONTINUOUS
 62
     3
100
AcDbLine
 10
1104.000000000188
 20
841.5000001787739
 30
0.0
 11
1104.000000000188
 21
727.5
 31
0.0
  0
LINE
  5
1A9
330
1A4
100
AcDbEntity
  8
化粧台
  6
CONTINUOUS
 62
     3
100
AcDbLine
 10
1028.99999618549
 20
742.5
 30
0.0
 11
1059.000003814885
 21
742.5
 31
0.0
  0
INSERT
  5
1AA
330
1A4
100
AcDbEntity
  8
化粧台
 62
     3
100
AcDbBlockReference
  2
EX_NORM
 10
984.0000000001875
 20
742.5
 30
0.0
 41
44.99999618530273
 42
44.99999618530273
 43
44.99999618530273
 50
180.0
  0
INSERT
  5
1AB
330
1A4
100
AcDbEntity
  8
化粧台
 62
     3
100
AcDbBlockReference
  2
EX_NORM
 10
1104.000000000188
 20
742.5
 30
0.0
 41
44.99999618530273
 42
44.99999618530273
 43
44.99999618530273
  0
MTEXT
  5
1AC
330
1A4
100
AcDbEntity
  8
化粧台
 62
     2
100
AcDbMText
 10
1044.000000000188
 20
780.0
 30
0.0
 40
59.99999618530273
 41
0.0
 71
     5
 72
     1
  1
120
  7
EXCADDIM1
  0
POINT
  5
1AD
330
1A4
100
AcDbEntity
  8
DEFPOINTS
 62
     0
100
AcDbPoint
 10
984.0000000001875
 20
817.5
 30
0.0
  0
POINT
  5
1AE
330
1A4
100
AcDbEntity
  8
DEFPOINTS
 62
     0
100
AcDbPoint
 10
1104.000000000188
 20
851.99999999996
 30
0.0
  0
POINT
  5
1AF
330
1A4
100
AcDbEntity
  8
DEFPOINTS
 62
     0
100
AcDbPoint
 10
1104.000000000188
 20
742.5
 30
0.0
  0
ENDBLK
  5
1A6
330
1A4
100
AcDbEntity
  8
0
100
AcDbBlockEnd
  0
BLOCK
  5
1B5
330
1B4
100
AcDbEntity
  8
0
100
AcDbBlockBegin
  2
*D26
 70
     1
 10
0.0
 20
0.0
 30
0.0
  3
*D26
  1

  0
LINE
  5
1B7
330
1B4
100
AcDbEntity
  8
化粧台
  6
CONTINUOUS
 62
     3
100
AcDbLine
 10
2268.500000000087
 20
886.5000001788139
 30
0.0
 11
2268.500000000087
 21
643.5
 31
0.0
  0
LINE
  5
1B8
330
1B4
100
AcDbEntity
  8
化粧台
  6
CONTINUOUS
 62
     3
100
AcDbLine
 10
2528.000000000088
 20
886.5000001788139
 30
0.0
 11
2528.000000000088
 21
643.5
 31
0.0
  0
LINE
  5
1B9
330
1B4
100
AcDbEntity
  8
化粧台
  6
CONTINUOUS
 62
     3
100
AcDbLine
 10
2313.49999618539
 20
658.5
 30
0.0
 11
2483.000003814785
 21
658.5
 31
0.0
  0
INSERT
  5
1BA
330
1B4
100
AcDbEntity
  8
化粧台
 62
     3
100
AcDbBlockReference
  2
EX_NORM
 10
2268.500000000087
 20
658.5
 30
0.0
 41
44.99999618530273
 42
44.99999618530273
 43
44.99999618530273
 50
180.0
  0
INSERT
  5
1BB
330
1B4
100
AcDbEntity
  8
化粧台
 62
     3
100
AcDbBlockReference
  2
EX_NORM
 10
2528.000000000088
 20
658.5
 30
0.0
 41
44.99999618530273
 42
44.99999618530273
 43
44.99999618530273
  0
MTEXT
  5
1BC
330
1B4
100
AcDbEntity
  8
化粧台
 62
     2
100
AcDbMText
 10
2398.250000000088
 20
696.0
 30
0.0
 40
59.99999618530273
 41
0.0
 71
     5
 72
     1
  1
260
  7
EXCADDIM1
  0
POINT
  5
1BD
330
1B4
100
AcDbEntity
  8
DEFPOINTS
 62
     0
100
AcDbPoint
 10
2268.500000000087
 20
897.0
 30
0.0
  0
POINT
  5
1BE
330
1B4
100
AcDbEntity
  8
DEFPOINTS
 62
     0
100
AcDbPoint
 10
2528.000000000088
 20
897.0
 30
0.0
  0
POINT
  5
1BF
330
1B4
100
AcDbEntity
  8
DEFPOINTS
 62
     0
100
AcDbPoint
 10
2528.000000000088
 20
658.5
 30
0.0
  0
ENDBLK
  5
1B6
330
1B4
100
AcDbEntity
  8
0
100
AcDbBlockEnd
  0
BLOCK
  5
1C2
330
1C1
100
AcDbEntity
  8
0
100
AcDbBlockBegin
  2
*D27
 70
     1
 10
0.0
 20
0.0
 30
0.0
  3
*D27
  1

  0
LINE
  5
1C4
330
1C1
100
AcDbEntity
  8
化粧台
  6
CONTINUOUS
 62
     3
100
AcDbLine
 10
2548.999999642473
 20
897.0
 30
0.0
 11
2688.0
 21
896.9999999999999
 31
0.0
  0
LINE
  5
1C5
330
1C1
100
AcDbEntity
  8
化粧台
  6
CONTINUOUS
 62
     3
100
AcDbLine
 10
2561.500005543273
 20
1217.0
 30
0.0
 11
2688.0
 21
1217.0
 31
0.0
  0
LINE
  5
1C6
330
1C1
100
AcDbEntity
  8
化粧台
  6
CONTINUOUS
 62
     3
100
AcDbLine
 10
2673.0
 20
941.9999961853026
 30
0.0
 11
2673.0
 21
1172.000003814697
 31
0.0
  0
INSERT
  5
1C7
330
1C1
100
AcDbEntity
  8
化粧台
 62
     3
100
AcDbBlockReference
  2
EX_NORM
 10
2673.0
 20
896.9999999999999
 30
0.0
 41
44.99999618530273
 42
44.99999618530273
 43
44.99999618530273
 50
270.0
  0
INSERT
  5
1C8
330
1C1
100
AcDbEntity
  8
化粧台
 62
     3
100
AcDbBlockReference
  2
EX_NORM
 10
2673.0
 20
1217.0
 30
0.0
 41
44.99999618530273
 42
44.99999618530273
 43
44.99999618530273
 50
90.0
  0
MTEXT
  5
1C9
330
1C1
100
AcDbEntity
  8
化粧台
 62
     2
100
AcDbMText
 10
2635.5
 20
1057.0
 30
0.0
 40
59.99999618530273
 41
0.0
 71
     5
 72
     1
  1
320（壁給水）
  7
EXCADDIM1
 11
0.0
 21
1.0
 31
0.0
  0
POINT
  5
1CA
330
1C1
100
AcDbEntity
  8
DEFPOINTS
 62
     0
100
AcDbPoint
 10
2538.499999821287
 20
897.0
 30
0.0
  0
POINT
  5
1CB
330
1C1
100
AcDbEntity
  8
DEFPOINTS
 62
     0
100
AcDbPoint
 10
2551.000005722087
 20
1217.0
 30
0.0
  0
POINT
  5
1CC
330
1C1
100
AcDbEntity
  8
DEFPOINTS
 62
     0
100
AcDbPoint
 10
2673.0
 20
1217.0
 30
0.0
  0
ENDBLK
  5
1C3
330
1C1
100
AcDbEntity
  8
0
100
AcDbBlockEnd
  0
BLOCK
  5
1CF
330
1CE
100
AcDbEntity
  8
0
100
AcDbBlockBegin
  2
*D28
 70
     1
 10
0.0
 20
0.0
 30
0.0
  3
*D28
  1

  0
LINE
  5
1D1
330
1CE
100
AcDbEntity
  8
化粧台
  6
CONTINUOUS
 62
     3
100
AcDbLine
 10
2548.999999642473
 20
897.0
 30
0.0
 11
2790.0
 21
896.9999999999999
 31
0.0
  0
LINE
  5
1D2
330
1CE
100
AcDbEntity
  8
化粧台
  6
CONTINUOUS
 62
     3
100
AcDbLine
 10
2567.249999821274
 20
1372.0
 30
0.0
 11
2790.0
 21
1372.0
 31
0.0
  0
LINE
  5
1D3
330
1CE
100
AcDbEntity
  8
化粧台
  6
CONTINUOUS
 62
     3
100
AcDbLine
 10
2775.0
 20
941.9999961853026
 30
0.0
 11
2775.0
 21
1327.000003814697
 31
0.0
  0
INSERT
  5
1D4
330
1CE
100
AcDbEntity
  8
化粧台
 62
     3
100
AcDbBlockReference
  2
EX_NORM
 10
2775.0
 20
896.9999999999999
 30
0.0
 41
44.99999618530273
 42
44.99999618530273
 43
44.99999618530273
 50
270.0
  0
INSERT
  5
1D5
330
1CE
100
AcDbEntity
  8
化粧台
 62
     3
100
AcDbBlockReference
  2
EX_NORM
 10
2775.0
 20
1372.0
 30
0.0
 41
44.99999618530273
 42
44.99999618530273
 43
44.99999618530273
 50
90.0
  0
MTEXT
  5
1D6
330
1CE
100
AcDbEntity
  8
化粧台
 62
     2
100
AcDbMText
 10
2737.5
 20
1134.5
 30
0.0
 40
59.99999618530273
 41
0.0
 71
     5
 72
     1
  1
475（壁排水）
  7
EXCADDIM1
 11
0.0
 21
1.0
 31
0.0
  0
POINT
  5
1D7
330
1CE
100
AcDbEntity
  8
DEFPOINTS
 62
     0
100
AcDbPoint
 10
2538.499999821287
 20
897.0
 30
0.0
  0
POINT
  5
1D8
330
1CE
100
AcDbEntity
  8
DEFPOINTS
 62
     0
100
AcDbPoint
 10
2556.750000000088
 20
1372.0
 30
0.0
  0
POINT
  5
1D9
330
1CE
100
AcDbEntity
  8
DEFPOINTS
 62
     0
100
AcDbPoint
 10
2775.0
 20
1372.0
 30
0.0
  0
ENDBLK
  5
1D0
330
1CE
100
AcDbEntity
  8
0
100
AcDbBlockEnd
  0
BLOCK
  5
1DC
330
1DB
100
AcDbEntity
  8
0
100
AcDbBlockBegin
  2
*D29
 70
     1
 10
0.0
 20
0.0
 30
0.0
  3
*D29
  1

  0
LINE
  5
1DE
330
1DB
100
AcDbEntity
  8
化粧台
  6
CONTINUOUS
 62
     3
100
AcDbLine
 10
2443.000000000086
 20
841.5000001788139
 30
0.0
 11
2443.000000000086
 21
762.0
 31
0.0
  0
LINE
  5
1DF
330
1DB
100
AcDbEntity
  8
化粧台
  6
CONTINUOUS
 62
     3
100
AcDbLine
 10
2528.000000000088
 20
886.5000001788139
 30
0.0
 11
2528.000000000088
 21
762.0
 31
0.0
  0
LINE
  5
1E0
330
1DB
100
AcDbEntity
  8
化粧台
  6
CONTINUOUS
 62
     3
100
AcDbLine
 10
2443.000000000086
 20
777.0
 30
0.0
 11
2528.000000000088
 21
777.0
 31
0.0
  0
LINE
  5
1E1
330
1DB
100
AcDbEntity
  8
化粧台
  6
CONTINUOUS
 62
     3
100
AcDbLine
 10
2398.000003814784
 20
777.0
 30
0.0
 11
2353.000007629481
 21
777.0
 31
0.0
  0
LINE
  5
1E2
330
1DB
100
AcDbEntity
  8
化粧台
  6
CONTINUOUS
 62
     3
100
AcDbLine
 10
2572.999996185391
 20
777.0
 30
0.0
 11
2617.999992370694
 21
777.0
 31
0.0
  0
INSERT
  5
1E3
330
1DB
100
AcDbEntity
  8
化粧台
 62
     3
100
AcDbBlockReference
  2
EX_NORM
 10
2443.000000000086
 20
777.0
 30
0.0
 41
44.99999618530273
 42
44.99999618530273
 43
44.99999618530273
  0
INSERT
  5
1E4
330
1DB
100
AcDbEntity
  8
化粧台
 62
     3
100
AcDbBlockReference
  2
EX_NORM
 10
2528.000000000088
 20
777.0
 30
0.0
 41
44.99999618530273
 42
44.99999618530273
 43
44.99999618530273
 50
180.0
  0
MTEXT
  5
1E5
330
1DB
100
AcDbEntity
  8
化粧台
 62
     2
100
AcDbMText
 10
2770.999997139065
 20
814.5
 30
0.0
 40
59.99999618530273
 41
0.0
 71
     5
 72
     1
  1
85（床・給排水）
  7
EXCADDIM1
  0
POINT
  5
1E6
330
1DB
100
AcDbEntity
  8
DEFPOINTS
 62
     0
100
AcDbPoint
 10
2443.000000000086
 20
852.0
 30
0.0
  0
POINT
  5
1E7
330
1DB
100
AcDbEntity
  8
DEFPOINTS
 62
     0
100
AcDbPoint
 10
2528.000000000088
 20
897.0
 30
0.0
  0
POINT
  5
1E8
330
1DB
100
AcDbEntity
  8
DEFPOINTS
 62
     0
100
AcDbPoint
 10
2528.000000000088
 20
777.0
 30
0.0
  0
ENDBLK
  5
1DD
330
1DB
100
AcDbEntity
  8
0
100
AcDbBlockEnd
  0
BLOCK
  5
1F3
330
1F2
100
AcDbEntity
  8
0
100
AcDbBlockBegin
  2
*D30
 70
     1
 10
0.0
 20
0.0
 30
0.0
  3
*D30
  1

  0
LINE
  5
1F5
330
1F2
100
AcDbEntity
  8
化粧台
  6
CONTINUOUS
 62
     3
100
AcDbLine
 10
983.0000000000857
 20
3992.999999821186
 30
0.0
 11
983.0000000000857
 21
4105.5
 31
0.0
  0
LINE
  5
1F6
330
1F2
100
AcDbEntity
  8
化粧台
  6
CONTINUOUS
 62
     3
100
AcDbLine
 10
1023.000000000086
 20
4018.499999821186
 30
0.0
 11
1023.000000000086
 21
4105.5
 31
0.0
  0
LINE
  5
1F7
330
1F2
100
AcDbEntity
  8
化粧台
  6
CONTINUOUS
 62
     3
100
AcDbLine
 10
983.0000000000857
 20
4090.5
 30
0.0
 11
1023.000000000086
 21
4090.5
 31
0.0
  0
LINE
  5
1F8
330
1F2
100
AcDbEntity
  8
化粧台
  6
CONTINUOUS
 62
     3
100
AcDbLine
 10
953.0000019074344
 20
4090.5
 30
0.0
 11
923.000003814783
 21
4090.5
 31
0.0
  0
LINE
  5
1F9
330
1F2
100
AcDbEntity
  8
化粧台
  6
CONTINUOUS
 62
     3
100
AcDbLine
 10
1052.999998092737
 20
4090.5
 30
0.0
 11
1082.999996185388
 21
4090.5
 31
0.0
  0
INSERT
  5
1FA
330
1F2
100
AcDbEntity
  8
化粧台
 62
     3
100
AcDbBlockReference
  2
EX_NORM
 10
983.0000000000857
 20
4090.5
 30
0.0
 41
29.99999809265137
 42
29.99999809265137
 43
29.99999809265137
  0
INSERT
  5
1FB
330
1F2
100
AcDbEntity
  8
化粧台
 62
     3
100
AcDbBlockReference
  2
EX_NORM
 10
1023.000000000086
 20
4090.5
 30
0.0
 41
29.99999809265137
 42
29.99999809265137
 43
29.99999809265137
 50
180.0
  0
MTEXT
  5
1FC
330
1F2
100
AcDbEntity
  8
化粧台
 62
     2
100
AcDbMText
 10
779.0000005365278
 20
4128.0
 30
0.0
 40
59.99999618530273
 41
0.0
 71
     5
 72
     1
  1
40（壁排水）
  7
EXCADDIM1
  0
POINT
  5
1FD
330
1F2
100
AcDbEntity
  8
DEFPOINTS
 62
     0
100
AcDbPoint
 10
983.0000000000857
 20
3982.5
 30
0.0
  0
POINT
  5
1FE
330
1F2
100
AcDbEntity
  8
DEFPOINTS
 62
     0
100
AcDbPoint
 10
1023.000000000086
 20
4008.0
 30
0.0
  0
POINT
  5
1FF
330
1F2
100
AcDbEntity
  8
DEFPOINTS
 62
     0
100
AcDbPoint
 10
1023.000000000086
 20
4090.5
 30
0.0
  0
ENDBLK
  5
1F4
330
1F2
100
AcDbEntity
  8
0
100
AcDbBlockEnd
  0
BLOCK
  5
202
330
201
100
AcDbEntity
  8
0
100
AcDbBlockBegin
  2
*D31
 70
     1
 10
0.0
 20
0.0
 30
0.0
  3
*D31
  1

  0
LINE
  5
204
330
201
100
AcDbEntity
  8
化粧台
  6
CONTINUOUS
 62
     3
100
AcDbLine
 10
1293.499999821247
 20
3971.5
 30
0.0
 11
1547.999999999999
 21
3971.5
 31
0.0
  0
LINE
  5
205
330
201
100
AcDbEntity
  8
化粧台
  6
CONTINUOUS
 62
     3
100
AcDbLine
 10
993.4999998212472
 20
3601.5
 30
0.0
 11
1547.999999999999
 21
3601.5
 31
0.0
  0
LINE
  5
206
330
201
100
AcDbEntity
  8
化粧台
  6
CONTINUOUS
 62
     3
100
AcDbLine
 10
1533.0
 20
3926.500003814697
 30
0.0
 11
1533.0
 21
3646.499996185303
 31
0.0
  0
INSERT
  5
207
330
201
100
AcDbEntity
  8
化粧台
 62
     3
100
AcDbBlockReference
  2
EX_NORM
 10
1533.0
 20
3971.5
 30
0.0
 41
44.99999618530273
 42
44.99999618530273
 43
44.99999618530273
 50
90.0
  0
INSERT
  5
208
330
201
100
AcDbEntity
  8
化粧台
 62
     3
100
AcDbBlockReference
  2
EX_NORM
 10
1533.0
 20
3601.5
 30
0.0
 41
44.99999618530273
 42
44.99999618530273
 43
44.99999618530273
 50
270.0
  0
MTEXT
  5
209
330
201
100
AcDbEntity
  8
化粧台
 62
     2
100
AcDbMText
 10
1495.5
 20
3786.5
 30
0.0
 40
59.99999618530273
 41
0.0
 71
     5
 72
     1
  1
370
  7
EXCADDIM1
 11
0.0
 21
1.0
 31
0.0
  0
POINT
  5
20A
330
201
100
AcDbEntity
  8
DEFPOINTS
 62
     0
100
AcDbPoint
 10
1283.000000000061
 20
3971.5
 30
0.0
  0
POINT
  5
20B
330
201
100
AcDbEntity
  8
DEFPOINTS
 62
     0
100
AcDbPoint
 10
983.0000000000612
 20
3601.5
 30
0.0
  0
POINT
  5
20C
330
201
100
AcDbEntity
  8
DEFPOINTS
 62
     0
100
AcDbPoint
 10
1533.0
 20
3601.5
 30
0.0
  0
ENDBLK
  5
203
330
201
100
AcDbEntity
  8
0
100
AcDbBlockEnd
  0
BLOCK
  5
387
330
386
100
AcDbEntity
  8
0
100
AcDbBlockBegin
  2
*D32
 70
     1
 10
0.0
 20
0.0
 30
0.0
  3
*D32
  1

  0
LINE
  5
389
330
386
100
AcDbEntity
  8
化粧台
  6
CONTINUOUS
 62
     3
100
AcDbLine
 10
2584.831878287686
 20
1427.0
 30
0.0
 11
2889.0
 21
1427.0
 31
0.0
  0
LINE
  5
38A
330
386
100
AcDbEntity
  8
化粧台
  6
CONTINUOUS
 62
     3
100
AcDbLine
 10
2816.999999821186
 20
897.0
 30
0.0
 11
2889.0
 21
897.0
 31
0.0
  0
LINE
  5
38B
330
386
100
AcDbEntity
  8
化粧台
  6
CONTINUOUS
 62
     3
100
AcDbLine
 10
2874.0
 20
1382.000003814697
 30
0.0
 11
2874.0
 21
941.9999961853027
 31
0.0
  0
INSERT
  5
38C
330
386
100
AcDbEntity
  8
化粧台
 62
     3
100
AcDbBlockReference
  2
EX_NORM
 10
2874.0
 20
1427.0
 30
0.0
 41
44.99999618530273
 42
44.99999618530273
 43
44.99999618530273
 50
90.0
  0
INSERT
  5
38D
330
386
100
AcDbEntity
  8
化粧台
 62
     3
100
AcDbBlockReference
  2
EX_NORM
 10
2874.0
 20
897.0
 30
0.0
 41
44.99999618530273
 42
44.99999618530273
 43
44.99999618530273
 50
270.0
  0
MTEXT
  5
38E
330
386
100
AcDbEntity
  8
化粧台
 62
     2
100
AcDbMText
 10
2836.5
 20
1162.0
 30
0.0
 40
59.99999618530273
 41
0.0
 71
     5
 72
     1
  1
530（壁固定）
  7
EXCADDIM1
 11
0.0
 21
1.0
 31
0.0
  0
POINT
  5
38F
330
386
100
AcDbEntity
  8
DEFPOINTS
 62
     0
100
AcDbPoint
 10
2574.3318784665
 20
1427.0
 30
0.0
  0
POINT
  5
390
330
386
100
AcDbEntity
  8
DEFPOINTS
 62
     0
100
AcDbPoint
 10
2806.5
 20
897.0
 30
0.0
  0
POINT
  5
391
330
386
100
AcDbEntity
  8
DEFPOINTS
 62
     0
100
AcDbPoint
 10
2874.0
 20
897.0
 30
0.0
  0
ENDBLK
  5
388
330
386
100
AcDbEntity
  8
0
100
AcDbBlockEnd
  0
BLOCK
  5
61B
330
61A
100
AcDbEntity
  8
0
100
AcDbBlockBegin
  2
*D33
 70
     1
 10
0.0
 20
0.0
 30
0.0
  3
*D33
  1

  0
LINE
  5
61D
330
61A
100
AcDbEntity
  8
化粧台
  6
CONTINUOUS
 62
     3
100
AcDbLine
 10
699.50000000013
 20
890.0000001788139
 30
0.0
 11
699.50000000013
 21
613.5
 31
0.0
  0
LINE
  5
61E
330
61A
100
AcDbEntity
  8
化粧台
  6
CONTINUOUS
 62
     3
100
AcDbLine
 10
1266.5000000001
 20
890.0000001788139
 30
0.0
 11
1266.5000000001
 21
613.5
 31
0.0
  0
LINE
  5
61F
330
61A
100
AcDbEntity
  8
化粧台
  6
CONTINUOUS
 62
     3
100
AcDbLine
 10
744.4999961854327
 20
628.5
 30
0.0
 11
1221.500003814797
 21
628.5
 31
0.0
  0
INSERT
  5
620
330
61A
100
AcDbEntity
  8
化粧台
 62
     3
100
AcDbBlockReference
  2
EX_NORM
 10
699.50000000013
 20
628.5
 30
0.0
 41
44.99999618530273
 42
44.99999618530273
 43
44.99999618530273
 50
180.0
  0
INSERT
  5
621
330
61A
100
AcDbEntity
  8
化粧台
 62
     3
100
AcDbBlockReference
  2
EX_NORM
 10
1266.5000000001
 20
628.5
 30
0.0
 41
44.99999618530273
 42
44.99999618530273
 43
44.99999618530273
  0
MTEXT
  5
622
330
61A
100
AcDbEntity
  8
化粧台
 62
     2
100
AcDbMText
 10
983.000000000115
 20
663.749999910593
 30
0.0
 40
59.99999618530273
 41
0.0
 71
     5
 72
     1
  1
567
  7
EXCADDIM1
  0
POINT
  5
623
330
61A
100
AcDbEntity
  8
DEFPOINTS
 62
     0
100
AcDbPoint
 10
699.50000000013
 20
900.5
 30
0.0
  0
POINT
  5
624
330
61A
100
AcDbEntity
  8
DEFPOINTS
 62
     0
100
AcDbPoint
 10
1266.5000000001
 20
900.5
 30
0.0
  0
POINT
  5
625
330
61A
100
AcDbEntity
  8
DEFPOINTS
 62
     0
100
AcDbPoint
 10
1266.5000000001
 20
628.5
 30
0.0
  0
ENDBLK
  5
61C
330
61A
100
AcDbEntity
  8
0
100
AcDbBlockEnd
  0
BLOCK
  5
628
330
627
100
AcDbEntity
  8
0
100
AcDbBlockBegin
  2
*D34
 70
     1
 10
0.0
 20
0.0
 30
0.0
  3
*D34
  1

  0
LINE
  5
62A
330
627
100
AcDbEntity
  8
化粧台
  6
CONTINUOUS
 62
     3
100
AcDbLine
 10
703.00000000009
 20
2672.499999821286
 30
0.0
 11
703.00000000009
 21
2911.5
 31
0.0
  0
LINE
  5
62B
330
627
100
AcDbEntity
  8
化粧台
  6
CONTINUOUS
 62
     3
100
AcDbLine
 10
683.00000000009
 20
2814.499999821286
 30
0.0
 11
683.00000000009
 21
2911.5
 31
0.0
  0
LINE
  5
62C
330
627
100
AcDbEntity
  8
化粧台
  6
CONTINUOUS
 62
     3
100
AcDbLine
 10
703.00000000009
 20
2896.5
 30
0.0
 11
683.00000000009
 21
2896.5
 31
0.0
  0
LINE
  5
62D
330
627
100
AcDbEntity
  8
化粧台
  6
CONTINUOUS
 62
     3
100
AcDbLine
 10
747.9999961853928
 20
2896.5
 30
0.0
 11
792.9999923706955
 21
2896.5
 31
0.0
  0
LINE
  5
62E
330
627
100
AcDbEntity
  8
化粧台
  6
CONTINUOUS
 62
     3
100
AcDbLine
 10
638.0000038147873
 20
2896.5
 30
0.0
 11
593.0000076294846
 21
2896.5
 31
0.0
  0
INSERT
  5
62F
330
627
100
AcDbEntity
  8
化粧台
 62
     3
100
AcDbBlockReference
  2
EX_NORM
 10
703.00000000009
 20
2896.5
 30
0.0
 41
44.99999618530273
 42
44.99999618530273
 43
44.99999618530273
 50
180.0
  0
INSERT
  5
630
330
627
100
AcDbEntity
  8
化粧台
 62
     3
100
AcDbBlockReference
  2
EX_NORM
 10
683.00000000009
 20
2896.5
 30
0.0
 41
44.99999618530273
 42
44.99999618530273
 43
44.99999618530273
  0
MTEXT
  5
631
330
627
100
AcDbEntity
  8
化粧台
 62
     2
100
AcDbMText
 10
585.500000000091
 20
2931.749999910593
 30
0.0
 40
59.99999618530273
 41
0.0
 71
     5
 72
     1
  1
20
  7
EXCADDIM1
  0
POINT
  5
632
330
627
100
AcDbEntity
  8
DEFPOINTS
 62
     0
100
AcDbPoint
 10
703.00000000009
 20
2662.0000000001
 30
0.0
  0
POINT
  5
633
330
627
100
AcDbEntity
  8
DEFPOINTS
 62
     0
100
AcDbPoint
 10
683.00000000009
 20
2804.0000000001
 30
0.0
  0
POINT
  5
634
330
627
100
AcDbEntity
  8
DEFPOINTS
 62
     0
100
AcDbPoint
 10
683.00000000009
 20
2896.5
 30
0.0
  0
ENDBLK
  5
629
330
627
100
AcDbEntity
  8
0
100
AcDbBlockEnd
  0
BLOCK
  5
637
330
636
100
AcDbEntity
  8
0
100
AcDbBlockBegin
  2
*D35
 70
     1
 10
0.0
 20
0.0
 30
0.0
  3
*D35
  1

  0
LINE
  5
639
330
636
100
AcDbEntity
  8
化粧台
  6
CONTINUOUS
 62
     3
100
AcDbLine
 10
1208.0000000001
 20
2672.499999821286
 30
0.0
 11
1208.0000000001
 21
2908.5
 31
0.0
  0
LINE
  5
63A
330
636
100
AcDbEntity
  8
化粧台
  6
CONTINUOUS
 62
     3
100
AcDbLine
 10
1283.0000000001
 20
2814.499999821286
 30
0.0
 11
1283.0000000001
 21
2908.5
 31
0.0
  0
LINE
  5
63B
330
636
100
AcDbEntity
  8
化粧台
  6
CONTINUOUS
 62
     3
100
AcDbLine
 10
1208.0000000001
 20
2893.5
 30
0.0
 11
1283.0000000001
 21
2893.5
 31
0.0
  0
LINE
  5
63C
330
636
100
AcDbEntity
  8
化粧台
  6
CONTINUOUS
 62
     3
100
AcDbLine
 10
1163.000003814797
 20
2893.5
 30
0.0
 11
1118.000007629495
 21
2893.5
 31
0.0
  0
LINE
  5
63D
330
636
100
AcDbEntity
  8
化粧台
  6
CONTINUOUS
 62
     3
100
AcDbLine
 10
1327.999996185403
 20
2893.5
 30
0.0
 11
1372.999992370706
 21
2893.5
 31
0.0
  0
INSERT
  5
63E
330
636
100
AcDbEntity
  8
化粧台
 62
     3
100
AcDbBlockReference
  2
EX_NORM
 10
1208.0000000001
 20
2893.5
 30
0.0
 41
44.99999618530273
 42
44.99999618530273
 43
44.99999618530273
  0
INSERT
  5
63F
330
636
100
AcDbEntity
  8
化粧台
 62
     3
100
AcDbBlockReference
  2
EX_NORM
 10
1283.0000000001
 20
2893.5
 30
0.0
 41
44.99999618530273
 42
44.99999618530273
 43
44.99999618530273
 50
180.0
  0
MTEXT
  5
640
330
636
100
AcDbEntity
  8
化粧台
 62
     2
100
AcDbMText
 10
1380.5000000001
 20
2928.749999910593
 30
0.0
 40
59.99999618530273
 41
0.0
 71
     5
 72
     1
  1
75
  7
EXCADDIM1
  0
POINT
  5
641
330
636
100
AcDbEntity
  8
DEFPOINTS
 62
     0
100
AcDbPoint
 10
1208.0000000001
 20
2662.0000000001
 30
0.0
  0
POINT
  5
642
330
636
100
AcDbEntity
  8
DEFPOINTS
 62
     0
100
AcDbPoint
 10
1283.0000000001
 20
2804.0000000001
 30
0.0
  0
POINT
  5
643
330
636
100
AcDbEntity
  8
DEFPOINTS
 62
     0
100
AcDbPoint
 10
1283.0000000001
 20
2893.5
 30
0.0
  0
ENDBLK
  5
638
330
636
100
AcDbEntity
  8
0
100
AcDbBlockEnd
  0
BLOCK
  5
646
330
645
100
AcDbEntity
  8
0
100
AcDbBlockBegin
  2
*D36
 70
     1
 10
0.0
 20
0.0
 30
0.0
  3
*D36
  1

  0
LINE
  5
648
330
645
100
AcDbEntity
  8
化粧台
  6
CONTINUOUS
 62
     3
100
AcDbLine
 10
758.00000000009
 20
1772.499999821286
 30
0.0
 11
758.00000000009
 21
1834.2
 31
0.0
  0
LINE
  5
649
330
645
100
AcDbEntity
  8
化粧台
  6
CONTINUOUS
 62
     3
100
AcDbLine
 10
683.00000000009
 20
1772.999999821186
 30
0.0
 11
683.00000000009
 21
1834.2
 31
0.0
  0
LINE
  5
64A
330
645
100
AcDbEntity
  8
化粧台
  6
CONTINUOUS
 62
     3
100
AcDbLine
 10
758.00000000009
 20
1819.2
 30
0.0
 11
683.00000000009
 21
1819.2
 31
0.0
  0
LINE
  5
64B
330
645
100
AcDbEntity
  8
化粧台
  6
CONTINUOUS
 62
     3
100
AcDbLine
 10
802.9999961853928
 20
1819.2
 30
0.0
 11
847.9999923706955
 21
1819.2
 31
0.0
  0
LINE
  5
64C
330
645
100
AcDbEntity
  8
化粧台
  6
CONTINUOUS
 62
     3
100
AcDbLine
 10
638.0000038147873
 20
1819.2
 30
0.0
 11
593.0000076294846
 21
1819.2
 31
0.0
  0
INSERT
  5
64D
330
645
100
AcDbEntity
  8
化粧台
 62
     3
100
AcDbBlockReference
  2
EX_NORM
 10
758.00000000009
 20
1819.2
 30
0.0
 41
44.99999618530273
 42
44.99999618530273
 43
44.99999618530273
 50
180.0
  0
INSERT
  5
64E
330
645
100
AcDbEntity
  8
化粧台
 62
     3
100
AcDbBlockReference
  2
EX_NORM
 10
683.00000000009
 20
1819.2
 30
0.0
 41
44.99999618530273
 42
44.99999618530273
 43
44.99999618530273
  0
MTEXT
  5
64F
330
645
100
AcDbEntity
  8
化粧台
 62
     2
100
AcDbMText
 10
585.5000000000906
 20
1854.449999910593
 30
0.0
 40
59.99999618530273
 41
0.0
 71
     5
 72
     1
  1
75
  7
EXCADDIM1
  0
POINT
  5
650
330
645
100
AcDbEntity
  8
DEFPOINTS
 62
     0
100
AcDbPoint
 10
758.00000000009
 20
1762.0000000001
 30
0.0
  0
POINT
  5
651
330
645
100
AcDbEntity
  8
DEFPOINTS
 62
     0
100
AcDbPoint
 10
683.00000000009
 20
1762.5
 30
0.0
  0
POINT
  5
652
330
645
100
AcDbEntity
  8
DEFPOINTS
 62
     0
100
AcDbPoint
 10
683.00000000009
 20
1819.2
 30
0.0
  0
ENDBLK
  5
647
330
645
100
AcDbEntity
  8
0
100
AcDbBlockEnd
  0
BLOCK
  5
655
330
654
100
AcDbEntity
  8
0
100
AcDbBlockBegin
  2
*D37
 70
     1
 10
0.0
 20
0.0
 30
0.0
  3
*D37
  1

  0
LINE
  5
657
330
654
100
AcDbEntity
  8
化粧台
  6
CONTINUOUS
 62
     3
100
AcDbLine
 10
2528.0000000001
 20
2822.499999821286
 30
0.0
 11
2528.0000000001
 21
2904.0
 31
0.0
  0
LINE
  5
658
330
654
100
AcDbEntity
  8
化粧台
  6
CONTINUOUS
 62
     3
100
AcDbLine
 10
2351.0000000001
 20
2808.499999821286
 30
0.0
 11
2351.0000000001
 21
2904.0
 31
0.0
  0
LINE
  5
659
330
654
100
AcDbEntity
  8
化粧台
  6
CONTINUOUS
 62
     3
100
AcDbLine
 10
2483.000003814797
 20
2889.0
 30
0.0
 11
2395.999996185403
 21
2889.0
 31
0.0
  0
INSERT
  5
65A
330
654
100
AcDbEntity
  8
化粧台
 62
     3
100
AcDbBlockReference
  2
EX_NORM
 10
2528.0000000001
 20
2889.0
 30
0.0
 41
44.99999618530273
 42
44.99999618530273
 43
44.99999618530273
  0
INSERT
  5
65B
330
654
100
AcDbEntity
  8
化粧台
 62
     3
100
AcDbBlockReference
  2
EX_NORM
 10
2351.0000000001
 20
2889.0
 30
0.0
 41
44.99999618530273
 42
44.99999618530273
 43
44.99999618530273
 50
180.0
  0
MTEXT
  5
65C
330
654
100
AcDbEntity
  8
化粧台
 62
     2
100
AcDbMText
 10
2648.000000000101
 20
2924.249999910592
 30
0.0
 40
59.99999618530273
 41
0.0
 71
     5
 72
     1
  1
177
  7
EXCADDIM1
  0
POINT
  5
65D
330
654
100
AcDbEntity
  8
DEFPOINTS
 62
     0
100
AcDbPoint
 10
2528.0000000001
 20
2812.0000000001
 30
0.0
  0
POINT
  5
65E
330
654
100
AcDbEntity
  8
DEFPOINTS
 62
     0
100
AcDbPoint
 10
2351.0000000001
 20
2798.0000000001
 30
0.0
  0
POINT
  5
65F
330
654
100
AcDbEntity
  8
DEFPOINTS
 62
     0
100
AcDbPoint
 10
2351.0000000001
 20
2889.0
 30
0.0
  0
ENDBLK
  5
656
330
654
100
AcDbEntity
  8
0
100
AcDbBlockEnd
  0
BLOCK
  5
66B
330
66A
100
AcDbEntity
  8
0
100
AcDbBlockBegin
  2
*D38
 70
     1
 10
0.0
 20
0.0
 30
0.0
  3
*D38
  1

  0
LINE
  5
66D
330
66A
100
AcDbEntity
  8
化粧台
  6
CONTINUOUS
 62
     3
100
AcDbLine
 10
2548.999999642486
 20
897.0
 30
0.0
 11
2994.0
 21
896.9999999999999
 31
0.0
  0
LINE
  5
66E
330
66A
100
AcDbEntity
  8
化粧台
  6
CONTINUOUS
 62
     3
100
AcDbLine
 10
2585.999999821286
 20
1731.9999833108
 30
0.0
 11
2994.0
 21
1731.9999833108
 31
0.0
  0
LINE
  5
66F
330
66A
100
AcDbEntity
  8
化粧台
  6
CONTINUOUS
 62
     3
100
AcDbLine
 10
2979.0
 20
941.9999961853026
 30
0.0
 11
2979.0
 21
1686.999987125497
 31
0.0
  0
INSERT
  5
670
330
66A
100
AcDbEntity
  8
化粧台
 62
     3
100
AcDbBlockReference
  2
EX_NORM
 10
2979.0
 20
896.9999999999999
 30
0.0
 41
44.99999618530273
 42
44.99999618530273
 43
44.99999618530273
 50
270.0
  0
INSERT
  5
671
330
66A
100
AcDbEntity
  8
化粧台
 62
     3
100
AcDbBlockReference
  2
EX_NORM
 10
2979.0
 20
1731.9999833108
 30
0.0
 41
44.99999618530273
 42
44.99999618530273
 43
44.99999618530273
 50
90.0
  0
MTEXT
  5
672
330
66A
100
AcDbEntity
  8
化粧台
 62
     2
100
AcDbMText
 10
2943.750000089407
 20
1314.4999916554
 30
0.0
 40
59.99999618530273
 41
0.0
 71
     5
 72
     1
  1
835（壁固定）
  7
EXCADDIM1
 11
0.0
 21
1.0
 31
0.0
  0
POINT
  5
673
330
66A
100
AcDbEntity
  8
DEFPOINTS
 62
     0
100
AcDbPoint
 10
2538.4999998213
 20
897.0
 30
0.0
  0
POINT
  5
674
330
66A
100
AcDbEntity
  8
DEFPOINTS
 62
     0
100
AcDbPoint
 10
2575.5000000001
 20
1731.9999833108
 30
0.0
  0
POINT
  5
675
330
66A
100
AcDbEntity
  8
DEFPOINTS
 62
     0
100
AcDbPoint
 10
2979.0
 20
1731.9999833108
 30
0.0
  0
ENDBLK
  5
66C
330
66A
100
AcDbEntity
  8
0
100
AcDbBlockEnd
  0
BLOCK
  5
678
330
677
100
AcDbEntity
  8
0
100
AcDbBlockBegin
  2
*D39
 70
     1
 10
0.0
 20
0.0
 30
0.0
  3
*D39
  1

  0
LINE
  5
67A
330
677
100
AcDbEntity
  8
化粧台
  6
CONTINUOUS
 62
     3
100
AcDbLine
 10
2585.999999821286
 20
1731.9999833108
 30
0.0
 11
2994.0
 21
1731.9999833108
 31
0.0
  0
LINE
  5
67B
330
677
100
AcDbEntity
  8
化粧台
  6
CONTINUOUS
 62
     3
100
AcDbLine
 10
2570.999999821286
 20
2132.0000000001
 30
0.0
 11
2994.0
 21
2132.0000000001
 31
0.0
  0
LINE
  5
67C
330
677
100
AcDbEntity
  8
化粧台
  6
CONTINUOUS
 62
     3
100
AcDbLine
 10
2979.0
 20
1776.999979496103
 30
0.0
 11
2979.0
 21
2087.000003814797
 31
0.0
  0
INSERT
  5
67D
330
677
100
AcDbEntity
  8
化粧台
 62
     3
100
AcDbBlockReference
  2
EX_NORM
 10
2979.0
 20
1731.9999833108
 30
0.0
 41
44.99999618530273
 42
44.99999618530273
 43
44.99999618530273
 50
270.0
  0
INSERT
  5
67E
330
677
100
AcDbEntity
  8
化粧台
 62
     3
100
AcDbBlockReference
  2
EX_NORM
 10
2979.0
 20
2132.0000000001
 30
0.0
 41
44.99999618530273
 42
44.99999618530273
 43
44.99999618530273
 50
90.0
  0
MTEXT
  5
67F
330
677
100
AcDbEntity
  8
化粧台
 62
     2
100
AcDbMText
 10
2943.750000089407
 20
1931.99999165545
 30
0.0
 40
59.99999618530273
 41
0.0
 71
     5
 72
     1
  1
400
  7
EXCADDIM1
 11
0.0
 21
1.0
 31
0.0
  0
POINT
  5
680
330
677
100
AcDbEntity
  8
DEFPOINTS
 62
     0
100
AcDbPoint
 10
2575.5000000001
 20
1731.9999833108
 30
0.0
  0
POINT
  5
681
330
677
100
AcDbEntity
  8
DEFPOINTS
 62
     0
100
AcDbPoint
 10
2560.5000000001
 20
2132.0000000001
 30
0.0
  0
POINT
  5
682
330
677
100
AcDbEntity
  8
DEFPOINTS
 62
     0
100
AcDbPoint
 10
2979.0
 20
2132.0000000001
 30
0.0
  0
ENDBLK
  5
679
330
677
100
AcDbEntity
  8
0
100
AcDbBlockEnd
  0
BLOCK
  5
685
330
684
100
AcDbEntity
  8
0
100
AcDbBlockBegin
  2
*D40
 70
     1
 10
0.0
 20
0.0
 30
0.0
  3
*D40
  1

  0
LINE
  5
687
330
684
100
AcDbEntity
  8
化粧台
  6
CONTINUOUS
 62
     3
100
AcDbLine
 10
2570.999999821286
 20
2132.0000000001
 30
0.0
 11
2994.0
 21
2132.0000000001
 31
0.0
  0
LINE
  5
688
330
684
100
AcDbEntity
  8
化粧台
  6
CONTINUOUS
 62
     3
100
AcDbLine
 10
2585.999999821286
 20
2632.0000000001
 30
0.0
 11
2994.0
 21
2632.0000000001
 31
0.0
  0
LINE
  5
689
330
684
100
AcDbEntity
  8
化粧台
  6
CONTINUOUS
 62
     3
100
AcDbLine
 10
2979.0
 20
2176.999996185403
 30
0.0
 11
2979.0
 21
2587.000003814797
 31
0.0
  0
INSERT
  5
68A
330
684
100
AcDbEntity
  8
化粧台
 62
     3
100
AcDbBlockReference
  2
EX_NORM
 10
2979.0
 20
2132.0000000001
 30
0.0
 41
44.99999618530273
 42
44.99999618530273
 43
44.99999618530273
 50
270.0
  0
INSERT
  5
68B
330
684
100
AcDbEntity
  8
化粧台
 62
     3
100
AcDbBlockReference
  2
EX_NORM
 10
2979.0
 20
2632.0000000001
 30
0.0
 41
44.99999618530273
 42
44.99999618530273
 43
44.99999618530273
 50
90.0
  0
MTEXT
  5
68C
330
684
100
AcDbEntity
  8
化粧台
 62
     2
100
AcDbMText
 10
2943.750000089407
 20
2382.0000000001
 30
0.0
 40
59.99999618530273
 41
0.0
 71
     5
 72
     1
  1
500
  7
EXCADDIM1
 11
0.0
 21
1.0
 31
0.0
  0
POINT
  5
68D
330
684
100
AcDbEntity
  8
DEFPOINTS
 62
     0
100
AcDbPoint
 10
2560.5000000001
 20
2132.0000000001
 30
0.0
  0
POINT
  5
68E
330
684
100
AcDbEntity
  8
DEFPOINTS
 62
     0
100
AcDbPoint
 10
2575.5000000001
 20
2632.0000000001
 30
0.0
  0
POINT
  5
68F
330
684
100
AcDbEntity
  8
DEFPOINTS
 62
     0
100
AcDbPoint
 10
2979.0
 20
2632.0000000001
 30
0.0
  0
ENDBLK
  5
686
330
684
100
AcDbEntity
  8
0
100
AcDbBlockEnd
  0
BLOCK
  5
693
330
692
100
AcDbEntity
  8
0
100
AcDbBlockBegin
  2
*D41
 70
     1
 10
0.0
 20
0.0
 30
0.0
  3
*D41
  1

  0
LINE
  5
695
330
692
100
AcDbEntity
  8
寸法
  6
CONTINUOUS
 62
     3
100
AcDbLine
 10
1178.000000000088
 20
4035.0
 30
0.0
 11
1178.000000000088
 21
4219.5
 31
0.0
  0
LINE
  5
696
330
692
100
AcDbEntity
  8
寸法
  6
CONTINUOUS
 62
     3
100
AcDbLine
 10
832.9999961853921
 20
4204.5
 30
0.0
 11
1133.000003814786
 21
4204.5
 31
0.0
  0
INSERT
  5
697
330
692
100
AcDbEntity
  8
寸法
 62
     3
100
AcDbBlockReference
  2
EX_NORM
 10
788.0000000000894
 20
4204.5
 30
0.0
 41
44.99999618530273
 42
44.99999618530273
 43
44.99999618530273
 50
180.0
  0
INSERT
  5
698
330
692
100
AcDbEntity
  8
寸法
 62
     3
100
AcDbBlockReference
  2
EX_NORM
 10
1178.000000000088
 20
4204.5
 30
0.0
 41
44.99999618530273
 42
44.99999618530273
 43
44.99999618530273
  0
MTEXT
  5
699
330
692
100
AcDbEntity
  8
寸法
 62
     2
100
AcDbMText
 10
983.0000000000891
 20
4239.749999910593
 30
0.0
 40
59.99999618530273
 41
0.0
 71
     5
 72
     1
  1
390（壁固定）
  7
EXCADDIM1
  0
POINT
  5
69A
330
692
100
AcDbEntity
  8
DEFPOINTS
 62
     0
100
AcDbPoint
 10
788.0000000000894
 20
4004.0
 30
0.0
  0
POINT
  5
69B
330
692
100
AcDbEntity
  8
DEFPOINTS
 62
     0
100
AcDbPoint
 10
1178.000000000088
 20
4004.0
 30
0.0
  0
POINT
  5
69C
330
692
100
AcDbEntity
  8
DEFPOINTS
 62
     0
100
AcDbPoint
 10
1178.000000000088
 20
4204.5
 30
0.0
  0
ENDBLK
  5
694
330
692
100
AcDbEntity
  8
0
100
AcDbBlockEnd
  0
ENDSEC
  0
SECTION
  2
ENTITIES
  0
LINE
  5
A9
330
1F
100
AcDbEntity
  8
枠_表
  6
CONTINUOUS
 62
     7
100
AcDbLine
 10
333.0000000000857
 20
201.0
 30
0.0
 11
3063.00000000009
 21
201.0
 31
0.0
  0
LINE
  5
AA
330
1F
100
AcDbEntity
  8
枠_表
  6
CONTINUOUS
 62
     7
100
AcDbLine
 10
3063.00000000009
 20
201.0
 30
0.0
 11
3063.00000000009
 21
4326.0
 31
0.0
  0
LINE
  5
AB
330
1F
100
AcDbEntity
  8
枠_表
  6
CONTINUOUS
 62
     7
100
AcDbLine
 10
333.0000000000857
 20
201.0
 30
0.0
 11
333.0000000000857
 21
4326.0
 31
0.0
  0
LINE
  5
AC
330
1F
100
AcDbEntity
  8
枠_表
  6
CONTINUOUS
 62
     7
100
AcDbLine
 10
333.0000000000857
 20
4326.0
 30
0.0
 11
3063.00000000009
 21
4326.0
 31
0.0
  0
LINE
  5
AD
330
1F
100
AcDbEntity
  8
枠_表
  6
CONTINUOUS
 62
     7
100
AcDbLine
 10
333.0000000000857
 20
531.0
 30
0.0
 11
3063.00000000009
 21
531.0
 31
0.0
  0
LINE
  5
AE
330
1F
100
AcDbEntity
  8
枠_表
  6
CONTINUOUS
 62
     6
100
AcDbLine
 10
3063.00000000009
 20
351.0
 30
0.0
 11
1188.000000000087
 21
351.0
 31
0.0
  0
LINE
  5
AF
330
1F
100
AcDbEntity
  8
枠_表
  6
CONTINUOUS
 62
     6
100
AcDbLine
 10
2853.000000000091
 20
531.0
 30
0.0
 11
2853.000000000091
 21
351.0
 31
0.0
  0
LINE
  5
B0
330
1F
100
AcDbEntity
  8
枠_表
  6
CONTINUOUS
 62
     6
100
AcDbLine
 10
2778.000000000089
 20
531.0
 30
0.0
 11
2778.000000000089
 21
351.0
 31
0.0
  0
LINE
  5
B1
330
1F
100
AcDbEntity
  8
枠_表
  6
CONTINUOUS
 62
     6
100
AcDbLine
 10
2223.000000000085
 20
531.0
 30
0.0
 11
2223.000000000085
 21
201.0
 31
0.0
  0
LINE
  5
B2
330
1F
100
AcDbEntity
  8
枠_表
  6
CONTINUOUS
 62
     6
100
AcDbLine
 10
2148.000000000085
 20
531.0
 30
0.0
 11
2148.000000000085
 21
201.0
 31
0.0
  0
LINE
  5
B3
330
1F
100
AcDbEntity
  8
枠_表
  6
CONTINUOUS
 62
     6
100
AcDbLine
 10
1263.000000000087
 20
531.0
 30
0.0
 11
1263.000000000087
 21
351.0
 31
0.0
  0
LINE
  5
B4
330
1F
100
AcDbEntity
  8
枠_表
  6
CONTINUOUS
 62
     6
100
AcDbLine
 10
1188.000000000087
 20
531.0
 30
0.0
 11
1188.000000000087
 21
201.0
 31
0.0
  0
LINE
  5
B5
330
1F
100
AcDbEntity
  8
枠_表
  6
CONTINUOUS
 62
     6
100
AcDbLine
 10
993.0000000000875
 20
531.0
 30
0.0
 11
993.0000000000875
 21
201.0
 31
0.0
  0
LINE
  5
B6
330
1F
100
AcDbEntity
  8
枠_表
  6
CONTINUOUS
 62
     6
100
AcDbLine
 10
798.0000000000875
 20
531.0
 30
0.0
 11
798.0000000000875
 21
201.0
 31
0.0
  0
LINE
  5
B7
330
1F
100
AcDbEntity
  8
枠_表
  6
CONTINUOUS
 62
     6
100
AcDbLine
 10
565.5000000000857
 20
531.0
 30
0.0
 11
565.5000000000857
 21
201.0
 31
0.0
  0
LINE
  5
B8
330
1F
100
AcDbEntity
  8
枠_表
  6
CONTINUOUS
 62
     6
100
AcDbLine
 10
333.0000000000857
 20
456.0
 30
0.0
 11
1188.000000000087
 21
456.0
 31
0.0
  0
LINE
  5
B9
330
1F
100
AcDbEntity
  8
枠_表
  6
CONTINUOUS
 62
     6
100
AcDbLine
 10
2901.980712900092
 20
385.5043945499997
 30
0.0
 11
3017.99084475009
 21
503.5497436500009
 31
0.0
  0
CIRCLE
  5
BA
330
1F
100
AcDbEntity
  8
枠_表
  6
CONTINUOUS
 62
     6
100
AcDbCircle
 10
640.5000000000857
 20
238.5
 30
0.0
 40
1.5000003
  0
CIRCLE
  5
BB
330
1F
100
AcDbEntity
  8
枠_表
  6
CONTINUOUS
 62
     6
100
AcDbCircle
 10
715.5000000000857
 20
238.5
 30
0.0
 40
1.5000003
  0
LINE
  5
BC
330
1F
100
AcDbEntity
  8
枠_表
  6
EXLTYPE2
 62
     6
100
AcDbLine
 10
333.0000000000857
 20
276.0
 30
0.0
 11
798.0000000000875
 21
276.0
 31
0.0
  0
TEXT
  5
BD
330
1F
100
AcDbEntity
  8
枠_表
  6
CONTINUOUS
 62
     2
100
AcDbText
 10
2898.80566410009
 20
452.5841674500002
 30
0.0
 40
44.99999618530273
  1
１
 41
1.101333426694527
  7
EXCADSTD
 72
     5
 11
2934.20566410009
 21
452.5841674500002
 31
0.0
100
AcDbText
  0
TEXT
  5
BE
330
1F
100
AcDbEntity
  8
枠_表
  6
CONTINUOUS
 62
     2
100
AcDbText
 10
2959.91894535009
 20
386.0232695999989
 30
0.0
 40
44.99999618530273
  1
１５
 41
1.098531308335248
  7
EXCADSTD
 72
     5
 11
3037.600795568625
 21
386.0232695999989
 31
0.0
100
AcDbText
  0
TEXT
  5
BF
330
1F
100
AcDbEntity
  8
枠_表
  6
CONTINUOUS
 62
     2
100
AcDbText
 10
366.7500000000857
 20
461.6250019073486
 30
0.0
 40
63.74999618530273
  1
製図
 41
1.509694103275156
  7
EXCADSTD
 72
     5
 11
517.9889895104311
 21
461.6250019073486
 31
0.0
100
AcDbText
  0
TEXT
  5
C0
330
1F
100
AcDbEntity
  8
枠_表
  6
CONTINUOUS
 62
     2
100
AcDbText
 10
599.2500000000857
 20
461.6250019073486
 30
0.0
 40
63.74999618530273
  1
写図
 41
1.509694103275156
  7
EXCADSTD
 72
     5
 11
750.4889895104311
 21
461.6250019073486
 31
0.0
100
AcDbText
  0
TEXT
  5
C1
330
1F
100
AcDbEntity
  8
枠_表
  6
CONTINUOUS
 62
     2
100
AcDbText
 10
824.2499991060179
 20
461.6250019073486
 30
0.0
 40
63.74999618530273
  1
検図
 41
1.303826754906227
  7
EXCADSTD
 72
     5
 11
954.8654929870527
 21
461.6250019073486
 31
0.0
100
AcDbText
  0
TEXT
  5
C2
330
1F
100
AcDbEntity
  8
枠_表
  6
CONTINUOUS
 62
     2
100
AcDbText
 10
1019.249999106018
 20
461.6250019073486
 30
0.0
 40
63.74999618530273
  1
承認
 41
1.303826754906227
  7
EXCADSTD
 72
     5
 11
1149.865492987053
 21
461.6250019073486
 31
0.0
100
AcDbText
  0
TEXT
  5
C3
330
1F
100
AcDbEntity
  8
枠_表
  6
CONTINUOUS
 62
     2
100
AcDbText
 10
1196.625000000087
 20
446.6250019073486
 30
0.0
 40
63.74999618530273
  1
品
 41
1.119999999999999
  7
EXCADSTD
 72
     5
 11
1247.624996948329
 21
446.6250019073486
 31
0.0
100
AcDbText
  0
TEXT
  5
C4
330
1F
100
AcDbEntity
  8
枠_表
  6
CONTINUOUS
 62
     2
100
AcDbText
 10
1196.625000000087
 20
371.6250019073486
 30
0.0
 40
63.74999618530273
  1
名
 41
1.119999999999999
  7
EXCADSTD
 72
     5
 11
1247.624996948329
 21
371.6250019073486
 31
0.0
100
AcDbText
  0
TEXT
  5
C5
330
1F
100
AcDbEntity
  8
枠_表
  6
CONTINUOUS
 62
     2
100
AcDbText
 10
2156.625000000085
 20
446.6250019073486
 30
0.0
 40
63.74999618530273
  1
品
 41
1.120000000000004
  7
EXCADSTD
 72
     5
 11
2207.624996948327
 21
446.6250019073486
 31
0.0
100
AcDbText
  0
TEXT
  5
C6
330
1F
100
AcDbEntity
  8
枠_表
  6
CONTINUOUS
 62
     2
100
AcDbText
 10
2156.625000000085
 20
371.6250019073486
 30
0.0
 40
63.74999618530273
  1
番
 41
1.120000000000004
  7
EXCADSTD
 72
     5
 11
2207.624996948327
 21
371.6250019073486
 31
0.0
100
AcDbText
  0
TEXT
  5
C7
330
1F
100
AcDbEntity
  8
枠_表
  6
CONTINUOUS
 62
     2
100
AcDbText
 10
2788.125000000092
 20
446.6250019073486
 30
0.0
 40
63.74999618530273
  1
尺
 41
1.120000000000004
  7
EXCADSTD
 72
     5
 11
2839.124996948334
 21
446.6250019073486
 31
0.0
100
AcDbText
  0
TEXT
  5
C8
330
1F
100
AcDbEntity
  8
枠_表
  6
CONTINUOUS
 62
     2
100
AcDbText
 10
2788.125000000092
 20
371.6250019073486
 30
0.0
 40
63.74999618530273
  1
度
 41
1.120000000000004
  7
EXCADSTD
 72
     5
 11
2839.124996948334
 21
371.6250019073486
 31
0.0
100
AcDbText
  0
TEXT
  5
C9
330
1F
100
AcDbEntity
  8
枠_表
  6
CONTINUOUS
 62
     2
100
AcDbText
 10
2156.625000000085
 20
277.1250019073495
 30
0.0
 40
63.74999618530273
  1
図
 41
1.120000000000004
  7
EXCADSTD
 72
     5
 11
2207.624996948327
 21
277.1250019073495
 31
0.0
100
AcDbText
  0
TEXT
  5
CA
330
1F
100
AcDbEntity
  8
枠_表
  6
CONTINUOUS
 62
     2
100
AcDbText
 10
2156.625000000085
 20
212.6250019073486
 30
0.0
 40
63.74999618530273
  1
番
 41
1.120000000000004
  7
EXCADSTD
 72
     5
 11
2207.624996948327
 21
212.6250019073486
 31
0.0
100
AcDbText
  0
TEXT
  5
CC
330
1F
100
AcDbEntity
  8
枠_表
  6
CONTINUOUS
 62
     2
100
AcDbText
 10
1218.000000000088
 20
231.0000038146973
 30
0.0
 40
67.4999942779541
  1
ジャニス工業株式会社
 41
1.025641044209626
  7
EXCADTTF1
 72
     5
 11
2117.999940000088
 21
231.0000038146973
 31
0.0
100
AcDbText
  0
CIRCLE
  5
CD
330
1F
100
AcDbEntity
  8
枠_表
  6
CONTINUOUS
 62
     6
100
AcDbCircle
 10
408.0000000000857
 20
238.5
 30
0.0
 40
1.5000003
  0
CIRCLE
  5
CE
330
1F
100
AcDbEntity
  8
枠_表
  6
CONTINUOUS
 62
     6
100
AcDbCircle
 10
483.0000000000857
 20
238.5
 30
0.0
 40
1.5000003
  0
TEXT
  5
CF
330
1F
100
AcDbEntity
  8
枠_表
  6
CONTINUOUS
 62
     2
100
AcDbText
 10
1278.000000000087
 20
441.0
 30
0.0
 40
74.99999237060547
  1
600㎜幅
 41
0.8693548467492553
  7
EXCADSTD
 72
     5
 11
1566.749973297206
 21
441.0
 31
0.0
100
AcDbText
  0
TEXT
  5
D0
330
1F
100
AcDbEntity
  8
枠_表
  6
CONTINUOUS
 62
     2
100
AcDbText
 10
1278.000000000087
 20
366.0000076293945
 30
0.0
 40
74.99999237060547
  1
　洗面化粧ユニット
 41
1.307547181903193
  7
EXCADSTD
 72
     5
 11
2020.499931335536
 21
366.0000076293945
 31
0.0
100
AcDbText
  0
TEXT
  5
D1
330
1F
100
AcDbEntity
  8
枠_表
  6
CONTINUOUS
 62
     2
100
AcDbText
 10
1908.000000000081
 20
4209.750001907349
 30
0.0
 40
59.99999618530273
  1
品番
 41
2.041518237445143
  7
EXCADSTD
 72
     5
 11
2100.485993006978
 21
4209.750001907349
 31
0.0
100
AcDbText
  0
TEXT
  5
D2
330
1F
100
AcDbEntity
  8
枠_表
  6
CONTINUOUS
 62
     2
100
AcDbText
 10
2358.000000000088
 20
4209.750001907349
 30
0.0
 40
59.99999618530273
  1
品名
 41
2.041518237445141
  7
EXCADSTD
 72
     5
 11
2550.485993006985
 21
4209.750001907349
 31
0.0
100
AcDbText
  0
TEXT
  5
D3
330
1F
100
AcDbEntity
  8
枠_表
  6
CONTINUOUS
 62
     2
100
AcDbText
 10
2851.500000536533
 20
4209.750001907349
 30
0.0
 40
59.99999618530273
  1
個数
 41
1.195746439659873
  7
EXCADSTD
 72
     5
 11
2964.241800536533
 21
4209.750001907349
 31
0.0
100
AcDbText
  0
LINE
  5
D4
330
1F
100
AcDbEntity
  8
枠_表
  6
CONTINUOUS
 62
     6
100
AcDbLine
 10
1788.000000000079
 20
4198.5
 30
0.0
 11
2988.000000000091
 21
4198.5
 31
0.0
  0
LINE
  5
D5
330
1F
100
AcDbEntity
  8
枠_表
  6
CONTINUOUS
 62
     6
100
AcDbLine
 10
1788.000000000079
 20
4281.0
 30
0.0
 11
2988.000000000091
 21
4281.0
 31
0.0
  0
LINE
  5
D6
330
1F
100
AcDbEntity
  8
枠_表
  6
EXLTYPE2
 62
     1
100
AcDbLine
 10
333.0000000000894
 20
2263.5
 30
0.0
 11
-11.99999999991064
 21
2263.5
 31
0.0
  0
TEXT
  5
D7
330
1F
100
AcDbEntity
  8
枠_表
  6
CONTINUOUS
 62
     2
100
AcDbText
 10
374.2500000000784
 20
328.5000038146973
 30
0.0
 40
74.99999237060547
  1
亀井
 41
1.224910918732915
  7
EXCADSTD
 72
     5
 11
518.6144864509413
 21
328.5000038146973
 31
0.0
100
AcDbText
  0
TEXT
  5
D8
330
1F
100
AcDbEntity
  8
枠_表
  6
CONTINUOUS
 62
     2
100
AcDbText
 10
2879.250000000091
 20
4119.000001907349
 30
0.0
 40
59.99999618530273
  1
１
 41
1.260000080108648
  7
EXCADSTD
 72
     5
 11
2933.250000000091
 21
4119.000001907349
 31
0.0
100
AcDbText
  0
LINE
  5
D9
330
1F
100
AcDbEntity
  8
枠_表
  6
CONTINUOUS
 62
     6
100
AcDbLine
 10
1788.000000000079
 20
4116.0
 30
0.0
 11
2988.000000000091
 21
4116.0
 31
0.0
  0
LINE
  5
DA
330
1F
100
AcDbEntity
  8
枠_表
  6
CONTINUOUS
 62
     6
100
AcDbLine
 10
1788.000000000079
 20
4033.499999999998
 30
0.0
 11
2988.000000000091
 21
4033.499999999998
 31
0.0
  0
TEXT
  5
DB
330
1F
100
AcDbEntity
  8
枠_表
  6
CONTINUOUS
 62
     2
100
AcDbText
 10
2879.250000000091
 20
4044.750001907349
 30
0.0
 40
59.99999618530273
  1
１
 41
1.260000080108648
  7
EXCADSTD
 72
     5
 11
2933.250000000091
 21
4044.750001907349
 31
0.0
100
AcDbText
  0
LINE
  5
DC
330
1F
100
AcDbEntity
  8
枠_表
  6
CONTINUOUS
 62
     6
100
AcDbLine
 10
1788.000000000079
 20
3868.5
 30
0.0
 11
1788.000000000079
 21
3950.999999999996
 31
0.0
  0
LINE
  5
DD
330
1F
100
AcDbEntity
  8
枠_表
  6
CONTINUOUS
 62
     6
100
AcDbLine
 10
2238.000000000083
 20
3868.5
 30
0.0
 11
2238.000000000083
 21
3950.999999999996
 31
0.0
  0
LINE
  5
DE
330
1F
100
AcDbEntity
  8
枠_表
  6
CONTINUOUS
 62
     6
100
AcDbLine
 10
1788.000000000079
 20
3703.5
 30
0.0
 11
1788.000000000079
 21
3785.999999999996
 31
0.0
  0
LINE
  5
DF
330
1F
100
AcDbEntity
  8
枠_表
  6
CONTINUOUS
 62
     6
100
AcDbLine
 10
2238.000000000083
 20
3703.5
 30
0.0
 11
2238.000000000083
 21
3785.999999999996
 31
0.0
  0
LINE
  5
E0
330
1F
100
AcDbEntity
  8
枠_表
  6
CONTINUOUS
 62
     6
100
AcDbLine
 10
2988.000000000091
 20
3703.5
 30
0.0
 11
2988.000000000091
 21
3785.999999999996
 31
0.0
  0
LINE
  5
E1
330
1F
100
AcDbEntity
  8
枠_表
  6
CONTINUOUS
 62
     6
100
AcDbLine
 10
2838.000000000091
 20
3703.5
 30
0.0
 11
2838.000000000091
 21
3785.999999999996
 31
0.0
  0
TEXT
  5
E2
330
1F
100
AcDbEntity
  8
枠_表
  6
CONTINUOUS
 62
     2
100
AcDbText
 10
2879.250000000091
 20
3714.750001907345
 30
0.0
 40
59.99999618530273
  1
２
 41
1.260000080108648
  7
EXCADSTD
 72
     5
 11
2933.250000000091
 21
3714.750001907345
 31
0.0
100
AcDbText
  0
LINE
  5
E3
330
1F
100
AcDbEntity
  8
枠_表
  6
CONTINUOUS
 62
     6
100
AcDbLine
 10
1788.000000000079
 20
3703.499999999996
 30
0.0
 11
2988.000000000091
 21
3703.499999999996
 31
0.0
  0
LINE
  5
E4
330
1F
100
AcDbEntity
  8
枠_表
  6
CONTINUOUS
 62
     6
100
AcDbLine
 10
1788.000000000079
 20
3785.999999999996
 30
0.0
 11
2988.000000000091
 21
3785.999999999996
 31
0.0
  0
LINE
  5
E5
330
1F
100
AcDbEntity
  8
枠_表
  6
CONTINUOUS
 62
     6
100
AcDbLine
 10
2988.000000000091
 20
3868.5
 30
0.0
 11
2988.000000000091
 21
3950.999999999996
 31
0.0
  0
LINE
  5
E6
330
1F
100
AcDbEntity
  8
枠_表
  6
CONTINUOUS
 62
     6
100
AcDbLine
 10
2838.000000000091
 20
3868.5
 30
0.0
 11
2838.000000000091
 21
3950.999999999996
 31
0.0
  0
TEXT
  5
E7
330
1F
100
AcDbEntity
  8
枠_表
  6
CONTINUOUS
 62
     2
100
AcDbText
 10
2879.250000000091
 20
3879.750001907345
 30
0.0
 40
59.99999618530273
  1
２
 41
1.260000080108648
  7
EXCADSTD
 72
     5
 11
2933.250000000091
 21
3879.750001907345
 31
0.0
100
AcDbText
  0
LINE
  5
E8
330
1F
100
AcDbEntity
  8
枠_表
  6
CONTINUOUS
 62
     6
100
AcDbLine
 10
1788.000000000079
 20
3868.499999999996
 30
0.0
 11
2988.000000000091
 21
3868.499999999996
 31
0.0
  0
LINE
  5
E9
330
1F
100
AcDbEntity
  8
枠_表
  6
CONTINUOUS
 62
     6
100
AcDbLine
 10
1788.000000000079
 20
3950.999999999996
 30
0.0
 11
2988.000000000091
 21
3950.999999999996
 31
0.0
  0
TEXT
  5
EA
330
1F
100
AcDbEntity
  8
枠_表
  6
CONTINUOUS
 62
     2
100
AcDbText
 10
2253.000000000086
 20
3714.750001907345
 30
0.0
 40
59.99999618530273
  1
ストレート形止水栓（共用形）
 41
0.7590361351947703
  7
EXCADSTD
 72
     5
 11
2792.999958992091
 21
3714.750001907345
 31
0.0
100
AcDbText
  0
TEXT
  5
EB
330
1F
100
AcDbEntity
  8
枠_表
  6
CONTINUOUS
 62
     2
100
AcDbText
 10
1803.000000000081
 20
3962.250001907345
 30
0.0
 40
59.99999618530273
  1
止水栓手配品番（アングル形の場合）
 41
0.9564356294638243
  7
EXCADSTD
 72
     5
 11
2630.999935150227
 21
3962.250001907345
 31
0.0
100
AcDbText
  0
TEXT
  5
EC
330
1F
100
AcDbEntity
  8
枠_表
  6
CONTINUOUS
 62
     2
100
AcDbText
 10
2253.000000000087
 20
3879.750001907345
 30
0.0
 40
59.99999618530273
  1
アングル形止水栓（共用形）
 41
0.8159090676452161
  7
EXCADSTD
 72
     5
 11
2791.499950409023
 21
3879.750001907345
 31
0.0
100
AcDbText
  0
LINE
  5
ED
330
1F
100
AcDbEntity
  8
枠_表
  6
CONTINUOUS
 62
     6
100
AcDbLine
 10
1788.000000000079
 20
3538.5
 30
0.0
 11
1788.000000000079
 21
3620.999999999996
 31
0.0
  0
LINE
  5
EE
330
1F
100
AcDbEntity
  8
枠_表
  6
CONTINUOUS
 62
     6
100
AcDbLine
 10
2238.000000000083
 20
3538.5
 30
0.0
 11
2238.000000000083
 21
3620.999999999996
 31
0.0
  0
LINE
  5
EF
330
1F
100
AcDbEntity
  8
枠_表
  6
CONTINUOUS
 62
     6
100
AcDbLine
 10
2988.000000000091
 20
3538.5
 30
0.0
 11
2988.000000000091
 21
3620.999999999996
 31
0.0
  0
LINE
  5
F0
330
1F
100
AcDbEntity
  8
枠_表
  6
CONTINUOUS
 62
     6
100
AcDbLine
 10
2838.000000000091
 20
3538.5
 30
0.0
 11
2838.000000000091
 21
3620.999999999996
 31
0.0
  0
LINE
  5
F1
330
1F
100
AcDbEntity
  8
枠_表
  6
CONTINUOUS
 62
     6
100
AcDbLine
 10
1788.000000000079
 20
3538.499999999996
 30
0.0
 11
2988.000000000091
 21
3538.499999999996
 31
0.0
  0
LINE
  5
F2
330
1F
100
AcDbEntity
  8
枠_表
  6
CONTINUOUS
 62
     6
100
AcDbLine
 10
1788.000000000079
 20
3620.999999999996
 30
0.0
 11
2988.000000000091
 21
3620.999999999996
 31
0.0
  0
TEXT
  5
F3
330
1F
100
AcDbEntity
  8
枠_表
  6
CONTINUOUS
 62
     2
100
AcDbText
 10
1803.000000000081
 20
3797.250001907345
 30
0.0
 40
59.99999618530273
  1
止水栓手配品番（一般地、ストレート形の場合）
 41
0.9511450238992228
  7
EXCADSTD
 72
     5
 11
2870.999916076741
 21
3797.250001907345
 31
0.0
100
AcDbText
  0
LINE
  5
F4
330
1F
100
AcDbEntity
  8
枠_表
  6
CONTINUOUS
 62
     6
100
AcDbLine
 10
2838.000000000091
 20
4033.5
 30
0.0
 11
2838.000000000091
 21
4281.0
 31
0.0
  0
LINE
  5
F5
330
1F
100
AcDbEntity
  8
枠_表
  6
CONTINUOUS
 62
     6
100
AcDbLine
 10
2988.000000000091
 20
4033.5
 30
0.0
 11
2988.000000000091
 21
4281.0
 31
0.0
  0
TEXT
  5
F6
330
1F
100
AcDbEntity
  8
枠_表
  6
CONTINUOUS
 62
     7
100
AcDbText
 10
2240.999996244996
 20
225.7500038146973
 30
0.0
 40
104.9999923706055
  1
ＬＵ２１７１７０
 41
1.140425547142764
  7
EXCADSTD
 72
     5
 11
3044.99994856128
 21
225.7500038146973
 31
0.0
100
AcDbText
  0
TEXT
  5
F7
330
1F
100
AcDbEntity
  8
枠_表
  6
CONTINUOUS
 62
     2
100
AcDbText
 10
1803.000000000079
 20
3549.750001907345
 30
0.0
 40
59.99999618530273
  1
Ｐ２３７６
 41
0.8025861811911906
  7
EXCADSTD
 72
     5
 11
2002.499980926593
 21
3549.750001907345
 31
0.0
100
AcDbText
  0
TEXT
  5
F8
330
1F
100
AcDbEntity
  8
枠_表
  6
CONTINUOUS
 62
     2
100
AcDbText
 10
1803.000000000081
 20
3632.250001907345
 30
0.0
 40
59.99999618530273
  1
トラップ手配品番（壁排水の場合）
 41
0.9578947227879565
  7
EXCADSTD
 72
     5
 11
2582.999938964925
 21
3632.250001907345
 31
0.0
100
AcDbText
  0
TEXT
  5
F9
330
1F
100
AcDbEntity
  8
枠_表
  6
CONTINUOUS
 62
     2
100
AcDbText
 10
2253.000000000086
 20
3549.750001907345
 30
0.0
 40
59.99999618530273
  1
壁排水トラップセット
 41
0.7711864312489822
  7
EXCADSTD
 72
     5
 11
2642.999970436183
 21
3549.750001907345
 31
0.0
100
AcDbText
  0
TEXT
  5
FA
330
1F
100
AcDbEntity
  8
枠_表
  6
CONTINUOUS
 62
     2
100
AcDbText
 10
1815.000000000081
 20
3469.500003814694
 30
0.0
 40
52.49999618530273
  1
※止水栓は別途 ※壁排水トラップセットはオプション
 41
0.8873333147321416
  7
EXCADSTD
 72
     5
 11
2813.249906539998
 21
3469.500003814694
 31
0.0
100
AcDbText
  0
TEXT
  5
FB
330
1F
100
AcDbEntity
  8
枠_表
  6
CONTINUOUS
 62
     2
100
AcDbText
 10
1815.000000000081
 20
3409.500007629391
 30
0.0
 40
52.49999618530273
  1
※化粧鏡台
 41
0.9862068805162137
  7
EXCADSTD
 72
     5
 11
2029.499980926595
 21
3409.500007629391
 31
0.0
100
AcDbText
  0
TEXT
  5
FC
330
1F
100
AcDbEntity
  8
枠_表
  6
CONTINUOUS
 62
     2
100
AcDbText
 10
1815.000000000081
 20
3349.500011444088
 30
0.0
 40
52.49999618530273
  1
・電源：１００Ｖ，５０/６０Ｈｚ
 41
0.8771626116554141
  7
EXCADSTD
 72
     5
 11
2448.749940872273
 21
3349.500011444088
 31
0.0
100
AcDbText
  0
TEXT
  5
FD
330
1F
100
AcDbEntity
  8
枠_表
  6
CONTINUOUS
 62
     2
100
AcDbText
 10
1815.000000000081
 20
3289.500015258785
 30
0.0
 40
52.49999618530273
  1
・コンセント容量：１２００Ｗ
 41
0.9301204637187122
  7
EXCADSTD
 72
     5
 11
2393.999946594319
 21
3289.500015258785
 31
0.0
100
AcDbText
  0
TEXT
  5
FE
330
1F
100
AcDbEntity
  8
枠_表
  6
CONTINUOUS
 62
     2
100
AcDbText
 10
1815.000000000081
 20
3229.500019073483
 30
0.0
 40
52.49999618530273
  1
・電源コードの取出しは、左または右
 41
0.9247524568305027
  7
EXCADSTD
 72
     5
 11
2515.499935150227
 21
3229.500019073483
 31
0.0
100
AcDbText
  0
TEXT
  5
FF
330
1F
100
AcDbEntity
  8
枠_表
  6
CONTINUOUS
 62
     2
100
AcDbText
 10
2879.250000000091
 20
3549.750001907345
 30
0.0
 40
59.99999618530273
  1
１
 41
1.260000080108648
  7
EXCADSTD
 72
     5
 11
2933.250000000091
 21
3549.750001907345
 31
0.0
100
AcDbText
  0
TEXT
  5
100
330
1F
100
AcDbEntity
  8
枠_表
  6
CONTINUOUS
 62
     2
100
AcDbText
 10
1803.000000000081
 20
4127.250001907349
 30
0.0
 40
59.99999618530273
  1
ＬＵ６０１ＡＳＤ
 41
0.7446808984093657
  7
EXCADSTD
 72
     5
 11
2103.000000000081
 21
4127.250001907349
 31
0.0
100
AcDbText
  0
TEXT
  5
101
330
1F
100
AcDbEntity
  8
枠_表
  6
CONTINUOUS
 62
     2
100
AcDbText
 10
815.2500000000584
 20
328.5000038146973
 30
0.0
 40
74.99999237060547
  1
村上
 41
1.224910918732915
  7
EXCADSTD
 72
     5
 11
959.6144864509213
 21
328.5000038146973
 31
0.0
100
AcDbText
  0
TEXT
  5
102
330
1F
100
AcDbEntity
  8
枠_表
  6
CONTINUOUS
 62
     2
100
AcDbText
 10
1011.750000000058
 20
336.0000038146973
 30
0.0
 40
74.99999237060547
  1
間瀬
 41
1.224910918732915
  7
EXCADSTD
 72
     5
 11
1156.114486450921
 21
336.0000038146973
 31
0.0
100
AcDbText
  0
TEXT
  5
103
330
1F
100
AcDbEntity
  8
枠_表
  6
CONTINUOUS
 62
     2
100
AcDbText
 10
2253.000000000083
 20
4127.250001907349
 30
0.0
 40
59.99999618530273
  1
洗面化粧台
 41
1.164655246460579
  7
EXCADSTD
 72
     5
 11
2542.500000000083
 21
4127.250001907349
 31
0.0
100
AcDbText
  0
LINE
  5
104
330
1F
100
AcDbEntity
  8
枠_表
  6
CONTINUOUS
 62
     6
100
AcDbLine
 10
1788.000000000079
 20
4033.5
 30
0.0
 11
1788.000000000079
 21
4281.0
 31
0.0
  0
LINE
  5
105
330
1F
100
AcDbEntity
  8
枠_表
  6
CONTINUOUS
 62
     6
100
AcDbLine
 10
2238.000000000083
 20
4033.5
 30
0.0
 11
2238.000000000083
 21
4281.0
 31
0.0
  0
TEXT
  5
106
330
1F
100
AcDbEntity
  8
枠_表
  6
CONTINUOUS
 62
     2
100
AcDbText
 10
2253.000000000085
 20
4044.750001907347
 30
0.0
 40
59.99999618530273
  1
化粧鏡台（くもり止めヒーター付）
 41
0.6631578619438285
  7
EXCADSTD
 72
     5
 11
2792.999938964928
 21
4044.750001907347
 31
0.0
100
AcDbText
  0
TEXT
  5
107
330
1F
100
AcDbEntity
  8
枠_表
  6
CONTINUOUS
 62
     2
100
AcDbText
 10
1803.000000000081
 20
4044.750001907347
 30
0.0
 40
59.99999618530273
  1
ＬＵＭ６０１ＳＫＨ
 41
0.7396226885333776
  7
EXCADSTD
 72
     5
 11
2139.000000000081
 21
4044.750001907347
 31
0.0
100
AcDbText
  0
TEXT
  5
108
330
1F
100
AcDbEntity
  8
枠_表
  6
CONTINUOUS
 62
     2
100
AcDbText
 10
2238.000000000085
 20
441.0
 30
0.0
 40
74.99999237060547
  1
ＬＵ６０１ＡＳＤ
 41
0.7446808794711528
  7
EXCADSTD
 72
     5
 11
2612.999976158227
 21
441.0
 31
0.0
100
AcDbText
  0
TEXT
  5
109
330
1F
100
AcDbEntity
  8
枠_表
  6
CONTINUOUS
 62
     2
100
AcDbText
 10
2238.000000000085
 20
366.0000076293945
 30
0.0
 40
74.99999237060547
  1
ＬＵＭ６０１ＳＫＨ
 41
0.7396226697238015
  7
EXCADSTD
 72
     5
 11
2657.999973297204
 21
366.0000076293945
 31
0.0
100
AcDbText
  0
TEXT
  5
10A
330
1F
100
AcDbEntity
  8
枠_表
  6
CONTINUOUS
 62
     2
100
AcDbText
 10
1803.000000000079
 20
3879.750001907345
 30
0.0
 40
59.99999618530273
  1
ＮＬ２２１－７５ＷＭＹ
 41
0.6784615987141962
  7
EXCADSTD
 72
     5
 11
2181.000009536822
 21
3879.750001907345
 31
0.0
100
AcDbText
  0
TEXT
  5
10B
330
1F
100
AcDbEntity
  8
枠_表
  6
CONTINUOUS
 62
     2
100
AcDbText
 10
1803.000000000079
 20
3714.750001907345
 30
0.0
 40
59.99999618530273
  1
ＮＬ２１１－３００ＷＭＹ
 41
0.6778168692835037
  7
EXCADSTD
 72
     5
 11
2215.499954223712
 21
3714.750001907345
 31
0.0
100
AcDbText
  0
TEXT
  5
10C
330
1F
100
AcDbEntity
  8
枠_表
  6
CONTINUOUS
 62
     2
100
AcDbText
 10
339.7499998500882
 20
208.5000019073486
 30
0.0
 40
59.99999618530273
  1
28
 41
0.4540540865305326
  7
EXCADSTD
 72
     5
 11
387.7500002315579
 21
208.5000019073486
 31
0.0
100
AcDbText
  0
TEXT
  5
10D
330
1F
100
AcDbEntity
  8
枠_表
  6
CONTINUOUS
 62
     2
100
AcDbText
 10
428.6250000000857
 20
208.5000019073486
 30
0.0
 40
59.99999618530273
  1
2
 41
0.4516544404801219
  7
EXCADSTD
 72
     5
 11
450.5625000000857
 21
208.5000019073486
 31
0.0
100
AcDbText
  0
TEXT
  5
10E
330
1F
100
AcDbEntity
  8
枠_表
  6
CONTINUOUS
 62
     2
100
AcDbText
 10
495.0000001500869
 20
208.5000019073486
 30
0.0
 40
59.99999618530273
  1
12
 41
0.4540540865305326
  7
EXCADSTD
 72
     5
 11
543.0000005315566
 21
208.5000019073486
 31
0.0
100
AcDbText
  0
POLYLINE
  5
10F
330
1F
100
AcDbEntity
  8
化粧台
  6
CONTINUOUS
 62
     3
100
AcDb2dPolyline
 66
     1
 10
0.0
 20
0.0
 30
0.0
 70
   128
  0
VERTEX
  5
110
330
10F
100
AcDbEntity
  8
化粧台
  6
CONTINUOUS
 62
     3
100
AcDbVertex
100
AcDb2dVertex
 10
2026.000000000085
 20
897.0
 30
0.0
  0
VERTEX
  5
111
330
10F
100
AcDbEntity
  8
化粧台
  6
CONTINUOUS
 62
     3
100
AcDbVertex
100
AcDb2dVertex
 10
2007.000000000085
 20
946.0
 30
0.0
  0
SEQEND
  5
112
330
10F
100
AcDbEntity
  8
化粧台
  6
CONTINUOUS
 62
     3
  0
LINE
  5
113
330
1F
100
AcDbEntity
  8
化粧台
  6
CONTINUOUS
 62
     3
100
AcDbLine
 10
2002.73853673087
 20
936.2447999940749
 30
0.0
 11
2026.000000000085
 21
897.0
 31
0.0
  0
LINE
  5
114
330
1F
100
AcDbEntity
  8
化粧台
  6
CONTINUOUS
 62
     3
100
AcDbLine
 10
2026.000000000085
 20
897.0
 30
0.0
 11
2016.723956365122
 21
941.667717811438
 31
0.0
  0
POLYLINE
  5
115
330
1F
100
AcDbEntity
  8
化粧台
  6
CONTINUOUS
 62
     3
100
AcDb2dPolyline
 66
     1
 10
0.0
 20
0.0
 30
0.0
 70
   128
  0
VERTEX
  5
116
330
115
100
AcDbEntity
  8
化粧台
  6
CONTINUOUS
 62
     3
100
AcDbVertex
100
AcDb2dVertex
 10
2528.000000000088
 20
2958.5
 30
0.0
  0
VERTEX
  5
117
330
115
100
AcDbEntity
  8
化粧台
  6
CONTINUOUS
 62
     3
100
AcDbVertex
100
AcDb2dVertex
 10
2482.000000000088
 20
2978.5
 30
0.0
  0
SEQEND
  5
118
330
115
100
AcDbEntity
  8
化粧台
  6
CONTINUOUS
 62
     3
  0
LINE
  5
119
330
1F
100
AcDbEntity
  8
化粧台
  6
CONTINUOUS
 62
     3
100
AcDbLine
 10
2483.741401633084
 20
2969.564649591751
 30
0.0
 11
2528.000000000088
 21
2958.5
 31
0.0
  0
LINE
  5
11A
330
1F
100
AcDbEntity
  8
化粧台
  6
CONTINUOUS
 62
     3
100
AcDbLine
 10
2528.000000000088
 20
2958.5
 30
0.0
 11
2489.722293304301
 21
2983.320700435549
 31
0.0
  0
DIMENSION
  5
11C
330
1F
100
AcDbEntity
  8
化粧台
  6
CONTINUOUS
 62
     3
100
AcDbDimension
  2
*D15
 10
1612.5
 20
897.0
 30
0.0
 11
1575.0
 21
1289.50000000005
 31
0.0
 70
   160
  3
ISO-25
100
AcDbAlignedDimension
 13
1479.474995203788
 23
1682.0000000001
 33
0.0
 14
1479.474995203788
 24
897.0
 34
0.0
 50
90.0
100
AcDbRotatedDimension
1001
ACAD
1000
DSTYLE
1002
{
1070
   270
1070
     2
1070
     6
1000
EX_NORM
1070
     7
1000
EX_NORM
1070
    41
1040
44.99999618530273
1070
    42
1040
0.0
1070
    44
1040
0.0
1070
    73
1070
     0
1070
    74
1070
     0
1070
    75
1070
     1
1070
    76
1070
     1
1070
    77
1070
     1
1070
    78
1070
     8
1070
   140
1040
59.99999618530273
1070
   147
1040
0.0
1070
   173
1070
     1
1070
   176
1070
     3
1070
   177
1070
     3
1070
   178
1070
     2
1070
   271
1070
     1
1070
   277
1070
     2
1070
   279
1070
     2
1070
   280
1070
     0
1070
   287
1070
     5
1070
   340
1005
11B
1002
}
  0
DIMENSION
  5
128
330
1F
100
AcDbEntity
  8
化粧台
  6
CONTINUOUS
 62
     3
100
AcDbDimension
  2
*D16
 10
1612.5
 20
1682.0000000001
 30
0.0
 11
1575.0
 21
2247.0000000001
 31
0.0
 70
   160
  3
ISO-25
100
AcDbAlignedDimension
 13
1288.499999821289
 23
2812.0000000001
 33
0.0
 14
1252.974995203788
 24
1682.0000000001
 34
0.0
 50
90.0
100
AcDbRotatedDimension
1001
ACAD
1000
DSTYLE
1002
{
1070
   270
1070
     2
1070
     6
1000
EX_NORM
1070
     7
1000
EX_NORM
1070
    41
1040
44.99999618530273
1070
    42
1040
10.49999982118607
1070
    44
1040
14.99999999999841
1070
    73
1070
     0
1070
    74
1070
     0
1070
    75
1070
     0
1070
    76
1070
     0
1070
    77
1070
     1
1070
    78
1070
     8
1070
   140
1040
59.99999618530273
1070
   147
1040
0.0
1070
   173
1070
     1
1070
   176
1070
     3
1070
   177
1070
     3
1070
   178
1070
     2
1070
   271
1070
     1
1070
   277
1070
     2
1070
   279
1070
     2
1070
   280
1070
     0
1070
   287
1070
     5
1070
   340
1005
11B
1002
}
  0
DIMENSION
  5
135
330
1F
100
AcDbEntity
  8
化粧台
  6
CONTINUOUS
 62
     3
100
AcDbDimension
  2
*D17
 10
1732.499999999999
 20
897.0
 30
0.0
 11
1694.999999999999
 21
1854.50000000005
 31
0.0
 70
   160
  3
ISO-25
100
AcDbAlignedDimension
 13
1278.000000000088
 23
2812.0000000001
 33
0.0
 14
1255.000000000088
 24
897.0
 34
0.0
 50
90.0
100
AcDbRotatedDimension
1001
ACAD
1000
DSTYLE
1002
{
1070
   270
1070
     2
1070
     6
1000
EX_NORM
1070
     7
1000
EX_NORM
1070
    41
1040
44.99999618530273
1070
    42
1040
10.49999982118607
1070
    44
1040
14.99999999999864
1070
    73
1070
     0
1070
    74
1070
     0
1070
    75
1070
     0
1070
    76
1070
     0
1070
    77
1070
     1
1070
    78
1070
     8
1070
   140
1040
59.99999618530273
1070
   147
1040
0.0
1070
   173
1070
     1
1070
   176
1070
     3
1070
   177
1070
     3
1070
   178
1070
     2
1070
   271
1070
     1
1070
   277
1070
     2
1070
   279
1070
     2
1070
   280
1070
     0
1070
   287
1070
     5
1070
   340
1005
11B
1002
}
  0
LINE
  5
142
330
1F
100
AcDbEntity
  8
化粧台
  6
CONTINUOUS
 62
     3
100
AcDbLine
 10
1288.314876946474
 20
1682.0000000001
 30
0.0
 11
1443.000000000088
 21
1682.0000000001
 31
0.0
  0
LINE
  5
143
330
1F
100
AcDbEntity
  8
化粧台
  6
CONTINUOUS
 62
     3
100
AcDbLine
 10
1280.499999821234
 20
897.0000000001
 30
0.0
 11
1443.000000000048
 21
897.0000000000991
 31
0.0
  0
DIMENSION
  5
144
330
1F
100
AcDbEntity
  8
化粧台
  6
CONTINUOUS
 62
     3
100
AcDbDimension
  2
*D18
 10
1479.0
 20
1647.0000000001
 30
0.0
 11
1443.750000089407
 21
1272.000000000098
 31
0.0
 70
   160
  3
ISO-25
100
AcDbAlignedDimension
 13
1270.000000000048
 23
897.0000000001
 33
0.0
 14
983.0000000000495
 24
1647.0000000001
 34
0.0
 50
90.0
100
AcDbRotatedDimension
1001
ACAD
1000
DSTYLE
1002
{
1070
   270
1070
     2
1070
     6
1000
EX_NORM
1070
     7
1000
EX_NORM
1070
    41
1040
44.99999618530273
1070
    42
1040
10.49999982118607
1070
    44
1040
14.99999999999977
1070
    73
1070
     0
1070
    74
1070
     0
1070
    75
1070
     0
1070
    76
1070
     0
1070
    77
1070
     1
1070
    78
1070
     0
1070
   140
1040
59.99999618530273
1070
   147
1040
0.0
1070
   173
1070
     1
1070
   176
1070
     3
1070
   177
1070
     3
1070
   178
1070
     2
1070
   271
1070
     0
1070
   277
1070
     2
1070
   279
1070
     2
1070
   280
1070
     0
1070
   287
1070
     5
1070
   340
1005
11B
1002
}
  0
DIMENSION
  5
151
330
1F
100
AcDbEntity
  8
化粧台
  6
CONTINUOUS
 62
     3
100
AcDbDimension
  2
*D19
 10
1283.000000000088
 20
3018.0
 30
0.0
 11
983.0000000000691
 21
3055.5
 31
0.0
 70
   160
  3
ISO-25
100
AcDbAlignedDimension
 13
683.0000000000493
 23
2807.0000000001
 33
0.0
 14
1283.000000000088
 24
2807.0000000001
 34
0.0
100
AcDbRotatedDimension
1001
ACAD
1000
DSTYLE
1002
{
1070
   270
1070
     2
1070
     6
1000
EX_NORM
1070
     7
1000
EX_NORM
1070
    41
1040
44.99999618530273
1070
    42
1040
10.49999982118607
1070
    44
1040
15.0
1070
    73
1070
     0
1070
    74
1070
     0
1070
    75
1070
     0
1070
    76
1070
     0
1070
    77
1070
     1
1070
    78
1070
     8
1070
   140
1040
59.99999618530273
1070
   147
1040
0.0
1070
   173
1070
     1
1070
   176
1070
     3
1070
   177
1070
     3
1070
   178
1070
     2
1070
   271
1070
     1
1070
   277
1070
     2
1070
   279
1070
     2
1070
   280
1070
     0
1070
   287
1070
     5
1070
   340
1005
11B
1002
}
  0
LINE
  5
15E
330
1F
100
AcDbEntity
  8
化粧台
  6
CONTINUOUS
 62
     3
100
AcDbLine
 10
1356.149999821274
 20
1682.0000000001
 30
0.0
 11
1447.050000000088
 21
1682.0000000001
 31
0.0
  0
DIMENSION
  5
15F
330
1F
100
AcDbEntity
  8
化粧台
  6
CONTINUOUS
 62
     3
100
AcDbDimension
  2
*D20
 10
1479.0
 20
1697.0000000001
 30
0.0
 11
1441.499999999999
 21
1780.999999910692
 31
0.0
 70
   160
  3
ISO-25
100
AcDbAlignedDimension
 13
1288.314876946489
 23
1682.0000000001
 33
0.0
 14
1314.300000000088
 24
1697.0000000001
 34
0.0
 50
90.0
100
AcDbRotatedDimension
1001
ACAD
1000
DSTYLE
1002
{
1070
   270
1070
     2
1070
     6
1000
EX_NORM
1070
     7
1000
EX_NORM
1070
    41
1040
29.99999809265137
1070
    42
1040
10.49999982118607
1070
    44
1040
15.0
1070
    73
1070
     0
1070
    74
1070
     0
1070
    75
1070
     0
1070
    76
1070
     0
1070
    77
1070
     1
1070
    78
1070
     8
1070
   140
1040
59.99999618530273
1070
   147
1040
0.0
1070
   173
1070
     1
1070
   176
1070
     3
1070
   177
1070
     3
1070
   178
1070
     2
1070
   271
1070
     1
1070
   277
1070
     2
1070
   279
1070
     2
1070
   280
1070
     2
1070
   287
1070
     5
1070
   340
1005
11B
1002
}
  0
DIMENSION
  5
16E
330
1F
100
AcDbEntity
  8
化粧台
  6
CONTINUOUS
 62
     3
100
AcDbDimension
  2
*D21
 10
1283.000000000088
 20
3405.0
 30
0.0
 11
983.0000000001091
 21
3440.249999910593
 31
0.0
 70
   160
  3
ISO-25
100
AcDbAlignedDimension
 13
683.0000000001294
 23
3649.50000000004
 33
0.0
 14
1283.000000000088
 24
3649.50000000004
 34
0.0
100
AcDbRotatedDimension
1001
ACAD
1000
DSTYLE
1002
{
1070
   270
1070
     2
1070
     6
1000
EX_NORM
1070
     7
1000
EX_NORM
1070
    41
1040
44.99999618530273
1070
    42
1040
1.500000000039563
1070
    44
1040
15.0
1070
    73
1070
     0
1070
    74
1070
     0
1070
    75
1070
     0
1070
    76
1070
     0
1070
    77
1070
     1
1070
    78
1070
     0
1070
   140
1040
59.99999618530273
1070
   147
1040
0.0
1070
   173
1070
     1
1070
   176
1070
     3
1070
   177
1070
     3
1070
   178
1070
     2
1070
   271
1070
     0
1070
   277
1070
     2
1070
   279
1070
     2
1070
   280
1070
     0
1070
   287
1070
     5
1070
   340
1005
11B
1002
}
  0
DIMENSION
  5
17B
330
1F
100
AcDbEntity
  8
化粧台
  6
CONTINUOUS
 62
     3
100
AcDbDimension
  2
*D22
 10
1420.5
 20
3671.50000000004
 30
0.0
 11
1385.250000089408
 21
3821.50000000004
 31
0.0
 70
   160
  3
ISO-25
100
AcDbAlignedDimension
 13
1283.000000000088
 23
3971.50000000004
 33
0.0
 14
1278.000000000088
 24
3671.50000000004
 34
0.0
 50
90.0
100
AcDbRotatedDimension
1001
ACAD
1000
DSTYLE
1002
{
1070
   270
1070
     2
1070
     6
1000
EX_NORM
1070
     7
1000
EX_NORM
1070
    41
1040
44.99999618530273
1070
    42
1040
10.49999982118607
1070
    44
1040
15.0
1070
    73
1070
     0
1070
    74
1070
     0
1070
    75
1070
     1
1070
    76
1070
     0
1070
    77
1070
     1
1070
    78
1070
     0
1070
   140
1040
59.99999618530273
1070
   147
1040
0.0
1070
   173
1070
     1
1070
   176
1070
     3
1070
   177
1070
     3
1070
   178
1070
     2
1070
   271
1070
     0
1070
   277
1070
     2
1070
   279
1070
     2
1070
   280
1070
     0
1070
   287
1070
     5
1070
   340
1005
11B
1002
}
  0
LINE
  5
187
330
1F
100
AcDbEntity
  8
化粧台
  6
CONTINUOUS
 62
     3
100
AcDbLine
 10
993.4999998212754
 20
3971.5
 30
0.0
 11
1473.000000000088
 21
3971.5
 31
0.0
  0
DIMENSION
  5
188
330
1F
100
AcDbEntity
  8
化粧台
  6
CONTINUOUS
 62
     3
100
AcDbDimension
  2
*D23
 10
1193.000000000088
 20
4090.5
 30
0.0
 11
1396.999999463647
 21
4128.0
 31
0.0
 70
   160
  1
90（壁給水）
  3
ISO-25
100
AcDbAlignedDimension
 13
1103.000000000088
 23
4011.9
 33
0.0
 14
1193.000000000088
 24
3999.6
 34
0.0
100
AcDbRotatedDimension
1001
ACAD
1000
DSTYLE
1002
{
1070
   270
1070
     2
1070
     6
1000
EX_NORM
1070
     7
1000
EX_NORM
1070
    41
1040
29.99999809265137
1070
    42
1040
10.49999982118607
1070
    44
1040
15.0
1070
    73
1070
     0
1070
    74
1070
     0
1070
    75
1070
     0
1070
    76
1070
     0
1070
    77
1070
     1
1070
    78
1070
     8
1070
   140
1040
59.99999618530273
1070
   147
1040
0.0
1070
   173
1070
     1
1070
   176
1070
     3
1070
   177
1070
     3
1070
   178
1070
     2
1070
   271
1070
     1
1070
   277
1070
     2
1070
   279
1070
     2
1070
   280
1070
     2
1070
   287
1070
     5
1070
   340
1005
11B
1002
}
  0
LINE
  5
195
330
1F
100
AcDbEntity
  8
化粧台
  6
CONTINUOUS
 62
     3
100
AcDbLine
 10
1104.000000000188
 20
852.0
 30
0.0
 11
1104.000000000188
 21
759.0
 31
0.0
  0
DIMENSION
  5
196
330
1F
100
AcDbEntity
  8
化粧台
  6
CONTINUOUS
 62
     3
100
AcDbDimension
  2
*D24
 10
1194.000000000187
 20
742.5
 30
0.0
 11
1430.999999284931
 21
780.0
 31
0.0
 70
   160
  1
  90（床給水）
  3
ISO-25
100
AcDbAlignedDimension
 13
1104.000000000188
 23
851.99999999996
 33
0.0
 14
1194.000000000187
 24
852.0
 34
0.0
100
AcDbRotatedDimension
1001
ACAD
1000
DSTYLE
1002
{
1070
   270
1070
     2
1070
     6
1000
EX_NORM
1070
     7
1000
EX_NORM
1070
    41
1040
44.99999618530273
1070
    42
1040
10.49999982118607
1070
    44
1040
15.0
1070
    73
1070
     0
1070
    74
1070
     0
1070
    75
1070
     0
1070
    76
1070
     0
1070
    77
1070
     1
1070
    78
1070
     8
1070
   140
1040
59.99999618530273
1070
   147
1040
0.0
1070
   173
1070
     1
1070
   176
1070
     3
1070
   177
1070
     3
1070
   178
1070
     2
1070
   271
1070
     1
1070
   277
1070
     2
1070
   279
1070
     2
1070
   280
1070
     2
1070
   287
1070
     5
1070
   340
1005
11B
1002
}
  0
DIMENSION
  5
1A3
330
1F
100
AcDbEntity
  8
化粧台
  6
CONTINUOUS
 62
     3
100
AcDbDimension
  2
*D25
 10
1104.000000000188
 20
742.5
 30
0.0
 11
1044.000000000188
 21
780.0
 31
0.0
 70
   160
  3
ISO-25
100
AcDbAlignedDimension
 13
984.0000000001875
 23
817.5
 33
0.0
 14
1104.000000000188
 24
851.99999999996
 34
0.0
100
AcDbRotatedDimension
1001
ACAD
1000
DSTYLE
1002
{
1070
   270
1070
     2
1070
     6
1000
EX_NORM
1070
     7
1000
EX_NORM
1070
    41
1040
44.99999618530273
1070
    42
1040
10.49999982118607
1070
    44
1040
15.0
1070
    73
1070
     0
1070
    74
1070
     0
1070
    75
1070
     0
1070
    76
1070
     0
1070
    77
1070
     1
1070
    78
1070
     8
1070
   140
1040
59.99999618530273
1070
   147
1040
0.0
1070
   173
1070
     1
1070
   176
1070
     3
1070
   177
1070
     3
1070
   178
1070
     2
1070
   271
1070
     1
1070
   277
1070
     2
1070
   279
1070
     2
1070
   280
1070
     0
1070
   287
1070
     5
1070
   340
1005
11B
1002
}
  0
TEXT
  5
1B0
330
1F
100
AcDbEntity
  8
化粧台
  6
CONTINUOUS
 62
     2
100
AcDbText
 10
708.0000003577154
 20
752.249999910593
 30
0.0
 40
59.99999618530273
  1
床排水
 41
1.070588224822399
  7
EXCADSTD
 72
     5
 11
863.9999889136236
 21
752.249999910593
 31
0.0
100
AcDbText
  0
LEADER
  5
1B1
330
1F
100
AcDbEntity
  8
化粧台
  6
CONTINUOUS
 62
     3
100
AcDbLeader
  3
ISO-25
 76
     3
 10
967.0000000000875
 20
863.0
 30
0.0
 10
844.5000000000875
 20
750.0
 30
0.0
 10
707.2500000000875
 20
750.0
 30
0.0
1001
ACAD
1000
DSTYLE
1002
{
1070
     5
1000
EX_NORM
1070
    41
1040
45.0
1070
   341
1005
4D
1002
}
  0
LINE
  5
1B2
330
1F
100
AcDbEntity
  8
化粧台
  6
CONTINUOUS
 62
     3
100
AcDbLine
 10
2528.000000000086
 20
886.5000001788521
 30
0.0
 11
2528.000000000086
 21
808.0000000001
 31
0.0
  0
DIMENSION
  5
1B3
330
1F
100
AcDbEntity
  8
化粧台
  6
CONTINUOUS
 62
     3
100
AcDbDimension
  2
*D26
 10
2528.000000000088
 20
658.5
 30
0.0
 11
2398.250000000088
 21
696.0
 31
0.0
 70
   160
  1
260
  3
ISO-25
100
AcDbAlignedDimension
 13
2268.500000000087
 23
897.0
 33
0.0
 14
2528.000000000088
 24
897.0
 34
0.0
100
AcDbRotatedDimension
1001
ACAD
1000
DSTYLE
1002
{
1070
   270
1070
     2
1070
     6
1000
EX_NORM
1070
     7
1000
EX_NORM
1070
    41
1040
44.99999618530273
1070
    42
1040
10.49999982118607
1070
    44
1040
15.0
1070
    73
1070
     0
1070
    74
1070
     0
1070
    75
1070
     0
1070
    76
1070
     0
1070
    77
1070
     1
1070
    78
1070
     8
1070
   140
1040
59.99999618530273
1070
   147
1040
0.0
1070
   173
1070
     1
1070
   176
1070
     3
1070
   177
1070
     3
1070
   178
1070
     2
1070
   271
1070
     1
1070
   277
1070
     2
1070
   279
1070
     2
1070
   280
1070
     0
1070
   287
1070
     5
1070
   340
1005
11B
1002
}
  0
DIMENSION
  5
1C0
330
1F
100
AcDbEntity
  8
化粧台
  6
CONTINUOUS
 62
     3
100
AcDbDimension
  2
*D27
 10
2673.0
 20
1217.0
 30
0.0
 11
2635.5
 21
1057.0
 31
0.0
 70
   160
  1
320（壁給水）
  3
ISO-25
100
AcDbAlignedDimension
 13
2538.499999821287
 23
897.0
 33
0.0
 14
2551.000005722087
 24
1217.0
 34
0.0
 50
90.0
100
AcDbRotatedDimension
1001
ACAD
1000
DSTYLE
1002
{
1070
   270
1070
     2
1070
     6
1000
EX_NORM
1070
     7
1000
EX_NORM
1070
    41
1040
44.99999618530273
1070
    42
1040
10.49999982118607
1070
    44
1040
15.0
1070
    73
1070
     0
1070
    74
1070
     0
1070
    75
1070
     0
1070
    76
1070
     0
1070
    77
1070
     1
1070
    78
1070
     8
1070
   140
1040
59.99999618530273
1070
   147
1040
0.0
1070
   173
1070
     1
1070
   176
1070
     3
1070
   177
1070
     3
1070
   178
1070
     2
1070
   271
1070
     1
1070
   277
1070
     2
1070
   279
1070
     2
1070
   280
1070
     0
1070
   287
1070
     5
1070
   340
1005
11B
1002
}
  0
DIMENSION
  5
1CD
330
1F
100
AcDbEntity
  8
化粧台
  6
CONTINUOUS
 62
     3
100
AcDbDimension
  2
*D28
 10
2775.0
 20
1372.0
 30
0.0
 11
2737.5
 21
1134.5
 31
0.0
 70
   160
  1
475（壁排水）
  3
ISO-25
100
AcDbAlignedDimension
 13
2538.499999821287
 23
897.0
 33
0.0
 14
2556.750000000088
 24
1372.0
 34
0.0
 50
90.0
100
AcDbRotatedDimension
1001
ACAD
1000
DSTYLE
1002
{
1070
   270
1070
     2
1070
     6
1000
EX_NORM
1070
     7
1000
EX_NORM
1070
    41
1040
44.99999618530273
1070
    42
1040
10.49999982118607
1070
    44
1040
15.0
1070
    73
1070
     0
1070
    74
1070
     0
1070
    75
1070
     0
1070
    76
1070
     0
1070
    77
1070
     1
1070
    78
1070
     8
1070
   140
1040
59.99999618530273
1070
   147
1040
0.0
1070
   173
1070
     1
1070
   176
1070
     3
1070
   177
1070
     3
1070
   178
1070
     2
1070
   271
1070
     1
1070
   277
1070
     2
1070
   279
1070
     2
1070
   280
1070
     0
1070
   287
1070
     5
1070
   340
1005
11B
1002
}
  0
DIMENSION
  5
1DA
330
1F
100
AcDbEntity
  8
化粧台
  6
CONTINUOUS
 62
     3
100
AcDbDimension
  2
*D29
 10
2528.000000000088
 20
777.0
 30
0.0
 11
2770.999997139065
 21
814.5
 31
0.0
 70
   160
  1
85（床・給排水）
  3
ISO-25
100
AcDbAlignedDimension
 13
2443.000000000086
 23
852.0
 33
0.0
 14
2528.000000000088
 24
897.0
 34
0.0
100
AcDbRotatedDimension
1001
ACAD
1000
DSTYLE
1002
{
1070
   270
1070
     2
1070
     6
1000
EX_NORM
1070
     7
1000
EX_NORM
1070
    41
1040
44.99999618530273
1070
    42
1040
10.49999982118607
1070
    44
1040
15.0
1070
    73
1070
     0
1070
    74
1070
     0
1070
    75
1070
     0
1070
    76
1070
     0
1070
    77
1070
     1
1070
    78
1070
     8
1070
   140
1040
59.99999618530273
1070
   147
1040
0.0
1070
   173
1070
     1
1070
   176
1070
     3
1070
   177
1070
     3
1070
   178
1070
     2
1070
   271
1070
     1
1070
   277
1070
     2
1070
   279
1070
     2
1070
   280
1070
     2
1070
   287
1070
     5
1070
   340
1005
11B
1002
}
  0
LINE
  5
1E9
330
1F
100
AcDbEntity
  8
化粧台
  6
CONTINUOUS
 62
     3
100
AcDbLine
 10
2528.000000000088
 20
1724.999999821146
 30
0.0
 11
2528.000000000088
 21
1862.99999999996
 31
0.0
  0
TEXT
  5
1EA
330
1F
100
AcDbEntity
  8
化粧台
  6
CONTINUOUS
 62
     2
100
AcDbText
 10
2573.000000000087
 20
1855.49999999996
 30
0.0
 40
59.99999618530273
  1
１００
 41
1.070588224822399
  7
EXCADSTD
 72
     5
 11
2728.999988555996
 21
1855.49999999996
 31
0.0
100
AcDbText
  0
LINE
  5
1EB
330
1F
100
AcDbEntity
  8
化粧台
  6
CONTINUOUS
 62
     3
100
AcDbLine
 10
2383.000000000088
 20
1848.0
 30
0.0
 11
2736.499994278042
 21
1848.0
 31
0.0
  0
LINE
  5
1EC
330
1F
100
AcDbEntity
  8
化粧台
  6
CONTINUOUS
 62
     3
100
AcDbLine
 10
2383.000000000088
 20
1840.5
 30
0.0
 11
2428.000000000088
 21
1848.0
 31
0.0
  0
LINE
  5
1ED
330
1F
100
AcDbEntity
  8
化粧台
  6
CONTINUOUS
 62
     3
100
AcDbLine
 10
2428.000000000088
 20
1848.0
 30
0.0
 11
2383.000000000088
 21
1855.5
 31
0.0
  0
LINE
  5
1EE
330
1F
100
AcDbEntity
  8
化粧台
  6
CONTINUOUS
 62
     3
100
AcDbLine
 10
2573.000000000088
 20
1855.5
 30
0.0
 11
2528.000000000088
 21
1848.0
 31
0.0
  0
LINE
  5
1EF
330
1F
100
AcDbEntity
  8
化粧台
  6
CONTINUOUS
 62
     3
100
AcDbLine
 10
2528.000000000088
 20
1848.0
 30
0.0
 11
2573.000000000088
 21
1840.5
 31
0.0
  0
LINE
  5
1F0
330
1F
100
AcDbEntity
  8
化粧台
  6
CONTINUOUS
 62
     3
100
AcDbLine
 10
2428.000000000088
 20
1722.795839721386
 30
0.0
 11
2428.000000000088
 21
1863.0
 31
0.0
  0
DIMENSION
  5
1F1
330
1F
100
AcDbEntity
  8
化粧台
  6
CONTINUOUS
 62
     3
100
AcDbDimension
  2
*D30
 10
1023.000000000086
 20
4090.5
 30
0.0
 11
779.0000005365278
 21
4128.0
 31
0.0
 70
   160
  1
40（壁排水）
  3
ISO-25
100
AcDbAlignedDimension
 13
983.0000000000857
 23
3982.5
 33
0.0
 14
1023.000000000086
 24
4008.0
 34
0.0
100
AcDbRotatedDimension
1001
ACAD
1000
DSTYLE
1002
{
1070
   270
1070
     2
1070
     6
1000
EX_NORM
1070
     7
1000
EX_NORM
1070
    41
1040
29.99999809265137
1070
    42
1040
10.49999982118607
1070
    44
1040
15.0
1070
    73
1070
     0
1070
    74
1070
     0
1070
    75
1070
     0
1070
    76
1070
     0
1070
    77
1070
     1
1070
    78
1070
     8
1070
   140
1040
59.99999618530273
1070
   147
1040
0.0
1070
   173
1070
     1
1070
   176
1070
     3
1070
   177
1070
     3
1070
   178
1070
     2
1070
   271
1070
     1
1070
   277
1070
     2
1070
   279
1070
     2
1070
   280
1070
     0
1070
   287
1070
     5
1070
   340
1005
11B
1002
}
  0
DIMENSION
  5
200
330
1F
100
AcDbEntity
  8
化粧台
  6
CONTINUOUS
 62
     3
100
AcDbDimension
  2
*D31
 10
1533.0
 20
3601.5
 30
0.0
 11
1495.5
 21
3786.5
 31
0.0
 70
   160
  3
ISO-25
100
AcDbAlignedDimension
 13
1283.000000000061
 23
3971.5
 33
0.0
 14
983.0000000000612
 24
3601.5
 34
0.0
 50
90.0
100
AcDbRotatedDimension
1001
ACAD
1000
DSTYLE
1002
{
1070
   270
1070
     2
1070
     6
1000
EX_NORM
1070
     7
1000
EX_NORM
1070
    41
1040
44.99999618530273
1070
    42
1040
10.49999982118607
1070
    44
1040
14.99999999999909
1070
    73
1070
     0
1070
    74
1070
     0
1070
    75
1070
     0
1070
    76
1070
     0
1070
    77
1070
     1
1070
    78
1070
     8
1070
   140
1040
59.99999618530273
1070
   147
1040
0.0
1070
   173
1070
     1
1070
   176
1070
     3
1070
   177
1070
     3
1070
   178
1070
     2
1070
   271
1070
     1
1070
   277
1070
     2
1070
   279
1070
     2
1070
   280
1070
     0
1070
   287
1070
     5
1070
   340
1005
11B
1002
}
  0
LINE
  5
20D
330
1F
100
AcDbEntity
  8
化粧台
  6
EXLTYPE4
 62
     6
100
AcDbLine
 10
2528.000000000088
 20
897.0
 30
0.0
 11
1899.500000000085
 21
897.0
 31
0.0
  0
TEXT
  5
20E
330
1F
100
AcDbEntity
  8
化粧台
  6
CONTINUOUS
 62
     2
100
AcDbText
 10
1899.500000000085
 20
897.0
 30
0.0
 40
59.99999618530273
  1
F.L.
 41
0.6227488631227187
  7
EXCADSTD
 72
     5
 11
1990.243400000085
 21
897.0
 31
0.0
100
AcDbText
  0
TEXT
  5
20F
330
1F
100
AcDbEntity
  8
化粧台
  6
CONTINUOUS
 62
     2
100
AcDbText
 10
2528.000000000088
 20
2994.500000536442
 30
0.0
 40
59.99999618530273
  1
W.L.
 50
90.0
 41
0.5571963512150626
  7
EXCADSTD
 72
     5
 11
2528.000000000088
 21
3085.243400536442
 31
0.0
100
AcDbText
  0
LINE
  5
210
330
1F
100
AcDbEntity
  8
化粧台
  6
EXLTYPE4
 62
     6
100
AcDbLine
 10
2528.000000000088
 20
897.0
 30
0.0
 11
2528.000000000086
 21
3093.5
 31
0.0
  0
LINE
  5
211
330
1F
100
AcDbEntity
  8
化粧台
  6
CONTINUOUS
 62
     2
100
AcDbLine
 10
1213.000000000916
 20
1682.000000000068
 30
0.0
 11
1277.814877125247
 21
1682.000000000068
 31
0.0
  0
LINE
  5
212
330
1F
100
AcDbEntity
  8
化粧台
  6
CONTINUOUS
 62
     2
100
AcDbLine
 10
688.1851228749313
 20
1682.000000000068
 30
0.0
 11
1163.000000000916
 21
1682.000000000068
 31
0.0
  0
LINE
  5
213
330
1F
100
AcDbEntity
  8
化粧台
  6
CONTINUOUS
 62
     2
100
AcDbLine
 10
688.1851228749913
 20
1682.000000000067
 30
0.0
 11
1163.000000000976
 21
1682.000000000067
 31
0.0
  0
LINE
  5
214
330
1F
100
AcDbEntity
  8
化粧台
  6
CONTINUOUS
 62
     2
100
AcDbLine
 10
1213.000000000976
 20
1682.000000000067
 30
0.0
 11
1277.814877125307
 21
1682.000000000067
 31
0.0
  0
CIRCLE
  5
215
330
1F
100
AcDbEntity
  8
化粧台
  6
CONTINUOUS
 62
     1
100
AcDbCircle
 10
1113.000000000088
 20
2362.0000000001
 30
0.0
 40
5.0
  0
LINE
  5
216
330
1F
100
AcDbEntity
  8
化粧台
  6
CONTINUOUS
 62
     1
100
AcDbLine
 10
1128.000000000087
 20
2362.000000000109
 30
0.0
 11
1098.000000000088
 21
2362.000000000109
 31
0.0
  0
LINE
  5
217
330
1F
100
AcDbEntity
  8
化粧台
  6
CONTINUOUS
 62
     1
100
AcDbLine
 10
1113.000000000088
 20
2377.000000000109
 30
0.0
 11
1113.000000000088
 21
2347.000000000109
 31
0.0
  0
LINE
  5
218
330
1F
100
AcDbEntity
  8
化粧台
  6
CONTINUOUS
 62
     6
100
AcDbLine
 10
1073.500000000088
 20
1942.000000000118
 30
0.0
 11
1073.500000000088
 21
1890.5000000001
 31
0.0
  0
LINE
  5
219
330
1F
100
AcDbEntity
  8
化粧台
  6
CONTINUOUS
 62
     6
100
AcDbLine
 10
1272.500000000088
 20
1942.000000000118
 30
0.0
 11
1272.500000000088
 21
1890.5000000001
 31
0.0
  0
LINE
  5
21A
330
1F
100
AcDbEntity
  8
化粧台
  6
CONTINUOUS
 62
     6
100
AcDbLine
 10
1273.500000000088
 20
1947.0000000001
 30
0.0
 11
1273.500000000088
 21
1942.000000000118
 31
0.0
  0
LINE
  5
21B
330
1F
100
AcDbEntity
  8
化粧台
  6
CONTINUOUS
 62
     6
100
AcDbLine
 10
1072.500000000088
 20
1942.000000000118
 30
0.0
 11
1273.500000000088
 21
1942.000000000118
 31
0.0
  0
LINE
  5
21C
330
1F
100
AcDbEntity
  8
化粧台
  6
CONTINUOUS
 62
     6
100
AcDbLine
 10
1072.500000000088
 20
1947.0000000001
 30
0.0
 11
1072.500000000088
 21
1942.000000000118
 31
0.0
  0
LINE
  5
21D
330
1F
100
AcDbEntity
  8
化粧台
  6
CONTINUOUS
 62
     6
100
AcDbLine
 10
1073.500000000088
 20
2244.000000000118
 30
0.0
 11
1073.500000000088
 21
2192.5000000001
 31
0.0
  0
LINE
  5
21E
330
1F
100
AcDbEntity
  8
化粧台
  6
CONTINUOUS
 62
     6
100
AcDbLine
 10
1272.500000000088
 20
2244.000000000118
 30
0.0
 11
1272.500000000088
 21
2192.5000000001
 31
0.0
  0
LINE
  5
21F
330
1F
100
AcDbEntity
  8
化粧台
  6
CONTINUOUS
 62
     6
100
AcDbLine
 10
1273.500000000088
 20
2249.0000000001
 30
0.0
 11
1273.500000000088
 21
2244.000000000118
 31
0.0
  0
LINE
  5
220
330
1F
100
AcDbEntity
  8
化粧台
  6
CONTINUOUS
 62
     6
100
AcDbLine
 10
1072.500000000088
 20
2244.000000000118
 30
0.0
 11
1273.500000000088
 21
2244.000000000118
 31
0.0
  0
LINE
  5
221
330
1F
100
AcDbEntity
  8
化粧台
  6
CONTINUOUS
 62
     6
100
AcDbLine
 10
1072.500000000088
 20
2249.0000000001
 30
0.0
 11
1072.500000000088
 21
2244.000000000118
 31
0.0
  0
LINE
  5
222
330
1F
100
AcDbEntity
  8
化粧台
  6
CONTINUOUS
 62
     6
100
AcDbLine
 10
1272.500000000088
 20
2497.000000000118
 30
0.0
 11
1272.500000000088
 21
2445.5000000001
 31
0.0
  0
LINE
  5
223
330
1F
100
AcDbEntity
  8
化粧台
  6
CONTINUOUS
 62
     6
100
AcDbLine
 10
1273.500000000088
 20
2502.0000000001
 30
0.0
 11
1273.500000000088
 21
2497.000000000118
 31
0.0
  0
LINE
  5
224
330
1F
100
AcDbEntity
  8
化粧台
  6
CONTINUOUS
 62
     6
100
AcDbLine
 10
1072.500000000088
 20
2497.000000000118
 30
0.0
 11
1273.500000000088
 21
2497.000000000118
 31
0.0
  0
LINE
  5
225
330
1F
100
AcDbEntity
  8
化粧台
  6
CONTINUOUS
 62
     6
100
AcDbLine
 10
1072.500000000088
 20
2502.0000000001
 30
0.0
 11
1072.500000000088
 21
2497.000000000118
 31
0.0
  0
LINE
  5
226
330
1F
100
AcDbEntity
  8
化粧台
  6
CONTINUOUS
 62
     6
100
AcDbLine
 10
1073.500000000088
 20
2497.000000000118
 30
0.0
 11
1073.500000000088
 21
2445.5000000001
 31
0.0
  0
LINE
  5
227
330
1F
100
AcDbEntity
  8
化粧台
  6
CONTINUOUS
 62
     6
100
AcDbLine
 10
940.4568542495883
 20
2095.893145751099
 30
0.0
 11
910.7568542495885
 21
2066.1931457511
 31
0.0
  0
LINE
  5
228
330
1F
100
AcDbEntity
  8
化粧台
  6
CONTINUOUS
 62
     6
100
AcDbLine
 10
923.9431457505882
 20
2102.006854249099
 30
0.0
 11
904.9931457505884
 21
2083.0568542491
 31
0.0
  0
LINE
  5
229
330
1F
100
AcDbEntity
  8
化粧台
  6
CONTINUOUS
 62
     6
100
AcDbLine
 10
946.5830085890877
 20
2113.333008589099
 30
0.0
 11
893.5500000000877
 21
2060.300000000099
 31
0.0
  0
LINE
  5
22A
330
1F
100
AcDbEntity
  8
化粧台
  6
CONTINUOUS
 62
     6
100
AcDbLine
 10
820.4568542495883
 20
2307.393145751099
 30
0.0
 11
790.7568542495885
 21
2277.6931457511
 31
0.0
  0
LINE
  5
22B
330
1F
100
AcDbEntity
  8
化粧台
  6
CONTINUOUS
 62
     6
100
AcDbLine
 10
803.9431457505882
 20
2313.506854249099
 30
0.0
 11
784.9931457505884
 21
2294.5568542491
 31
0.0
  0
LINE
  5
22C
330
1F
100
AcDbEntity
  8
化粧台
  6
CONTINUOUS
 62
     6
100
AcDbLine
 10
826.5830085890877
 20
2324.833008589099
 30
0.0
 11
773.5500000000877
 21
2271.800000000099
 31
0.0
  0
LINE
  5
22D
330
1F
100
AcDbEntity
  8
化粧台
  6
CONTINUOUS
 62
     6
100
AcDbLine
 10
976.4568542495883
 20
2569.893145751099
 30
0.0
 11
946.7568542495885
 21
2540.1931457511
 31
0.0
  0
LINE
  5
22E
330
1F
100
AcDbEntity
  8
化粧台
  6
CONTINUOUS
 62
     6
100
AcDbLine
 10
959.9431457505882
 20
2576.006854249099
 30
0.0
 11
940.9931457505884
 21
2557.0568542491
 31
0.0
  0
LINE
  5
22F
330
1F
100
AcDbEntity
  8
化粧台
  6
CONTINUOUS
 62
     6
100
AcDbLine
 10
982.5830085890877
 20
2587.333008589099
 30
0.0
 11
929.5500000000877
 21
2534.300000000099
 31
0.0
  0
ARC
  5
230
330
1F
100
AcDbEntity
  8
化粧台
  6
CONTINUOUS
 62
     6
100
AcDbCircle
 10
1283.000000000088
 20
1724.0000000001
 30
0.0
 40
24.00000000000002
100
AcDbArc
 50
270.0000000000002
 51
319.0090329999999
  0
ARC
  5
231
330
1F
100
AcDbEntity
  8
化粧台
  6
CONTINUOUS
 62
     6
100
AcDbCircle
 10
1283.000000000088
 20
1724.0000000001
 30
0.0
 40
30.00000000000002
100
AcDbArc
 50
270.0000000000002
 51
318.2063289999991
  0
ARC
  5
232
330
1F
100
AcDbEntity
  8
化粧台
  6
CONTINUOUS
 62
     6
100
AcDbCircle
 10
1322.174683000088
 20
1746.661621000099
 30
0.0
 40
17.000029
100
AcDbArc
 50
51.92639200000016
 51
79.99896199999789
  0
ARC
  5
233
330
1F
100
AcDbEntity
  8
化粧台
  6
CONTINUOUS
 62
     6
100
AcDbCircle
 10
1322.174561000088
 20
1746.661438000099
 30
0.0
 40
17.000208
100
AcDbArc
 50
79.99896199999944
 51
108.0710449999981
  0
ARC
  5
234
330
1F
100
AcDbEntity
  8
化粧台
  6
CONTINUOUS
 62
     6
100
AcDbCircle
 10
1311.627808000088
 20
1778.9847410001
 30
0.0
 40
17.00025
100
AcDbArc
 50
231.9271239999991
 51
288.0711059999998
  0
ARC
  5
235
330
1F
100
AcDbEntity
  8
化粧台
  6
CONTINUOUS
 62
     6
100
AcDbCircle
 10
1322.174683000088
 20
1738.661621000099
 30
0.0
 40
17.000029
100
AcDbArc
 50
51.92639200000016
 51
79.99896199999789
  0
ARC
  5
236
330
1F
100
AcDbEntity
  8
化粧台
  6
CONTINUOUS
 62
     6
100
AcDbCircle
 10
1322.174561000088
 20
1738.661438000099
 30
0.0
 40
17.000208
100
AcDbArc
 50
79.99896199999944
 51
108.0710449999981
  0
ARC
  5
237
330
1F
100
AcDbEntity
  8
化粧台
  6
CONTINUOUS
 62
     6
100
AcDbCircle
 10
1311.627808000088
 20
1770.9847410001
 30
0.0
 40
17.00025
100
AcDbArc
 50
231.9271239999991
 51
288.0711059999998
  0
ARC
  5
238
330
1F
100
AcDbEntity
  8
化粧台
  6
CONTINUOUS
 62
     6
100
AcDbCircle
 10
1321.711716785088
 20
1802.6220647846
 30
0.0
 40
1.0
100
AcDbArc
 50
164.9999999999553
 51
253.0908809999582
  0
ARC
  5
239
330
1F
100
AcDbEntity
  8
化粧台
  6
CONTINUOUS
 62
     6
100
AcDbCircle
 10
1325.360344084088
 20
1816.238950969799
 30
0.0
 40
1.0
100
AcDbArc
 50
78.8137819999758
 51
165.0000000000056
  0
ARC
  5
23A
330
1F
100
AcDbEntity
  8
化粧台
  6
CONTINUOUS
 62
     6
100
AcDbCircle
 10
1343.883656701089
 20
1803.9619192268
 30
0.0
 40
10.0
100
AcDbArc
 50
318.2563779999982
 51
11.74365199999793
  0
ARC
  5
23B
330
1F
100
AcDbEntity
  8
化粧台
  6
CONTINUOUS
 62
     6
100
AcDbCircle
 10
1322.459963018089
 20
1778.1265368616
 30
0.0
 40
1.0
100
AcDbArc
 50
255.0000000000056
 51
341.2927249999935
  0
ARC
  5
23C
330
1F
100
AcDbEntity
  8
化粧台
  6
CONTINUOUS
 62
     6
100
AcDbCircle
 10
1317.510355234089
 20
1779.4527608014
 30
0.0
 40
1.0
100
AcDbArc
 50
168.6365359999535
 51
254.9999389999938
  0
ARC
  5
23D
330
1F
100
AcDbEntity
  8
化粧台
  6
CONTINUOUS
 62
     6
100
AcDbCircle
 10
1332.456094715089
 20
1795.175058917799
 30
0.0
 40
3.000000000000002
100
AcDbArc
 50
73.09075899999961
 51
161.29272500001
  0
ARC
  5
23E
330
1F
100
AcDbEntity
  8
化粧台
  6
CONTINUOUS
 62
     6
100
AcDbCircle
 10
1200.644653000088
 20
1762.5830080001
 30
0.0
 40
120.0000000000001
100
AcDbArc
 50
330.778137
 51
356.6508789999999
  0
ARC
  5
23F
330
1F
100
AcDbEntity
  8
化粧台
  6
CONTINUOUS
 62
     6
100
AcDbCircle
 10
1194.748657000089
 20
1763.810059000099
 30
0.0
 40
120.0000000000001
100
AcDbArc
 50
332.4231260000005
 51
355.4096070000001
  0
ARC
  5
240
330
1F
100
AcDbEntity
  8
化粧台
  6
CONTINUOUS
 62
     6
100
AcDbCircle
 10
1321.711716785088
 20
1802.6220647846
 30
0.0
 40
1.0
100
AcDbArc
 50
164.9999999999553
 51
253.0908809999582
  0
ARC
  5
241
330
1F
100
AcDbEntity
  8
化粧台
  6
CONTINUOUS
 62
     6
100
AcDbCircle
 10
1325.360344084088
 20
1816.238950969799
 30
0.0
 40
1.0
100
AcDbArc
 50
78.8137819999758
 51
165.0000000000056
  0
ARC
  5
242
330
1F
100
AcDbEntity
  8
化粧台
  6
CONTINUOUS
 62
     6
100
AcDbCircle
 10
1343.883656701089
 20
1803.9619192268
 30
0.0
 40
10.0
100
AcDbArc
 50
318.2563779999982
 51
11.74365199999793
  0
ARC
  5
243
330
1F
100
AcDbEntity
  8
化粧台
  6
CONTINUOUS
 62
     6
100
AcDbCircle
 10
1322.459963018089
 20
1778.1265368616
 30
0.0
 40
1.0
100
AcDbArc
 50
255.0000000000056
 51
341.2927249999935
  0
ARC
  5
244
330
1F
100
AcDbEntity
  8
化粧台
  6
CONTINUOUS
 62
     6
100
AcDbCircle
 10
1317.510355234089
 20
1779.4527608014
 30
0.0
 40
1.0
100
AcDbArc
 50
168.6365359999535
 51
254.9999389999938
  0
ARC
  5
245
330
1F
100
AcDbEntity
  8
化粧台
  6
CONTINUOUS
 62
     6
100
AcDbCircle
 10
1332.456094715089
 20
1795.175058917799
 30
0.0
 40
3.000000000000002
100
AcDbArc
 50
73.09075899999961
 51
161.29272500001
  0
ARC
  5
246
330
1F
100
AcDbEntity
  8
化粧台
  6
CONTINUOUS
 62
     6
100
AcDbCircle
 10
1470.149475000085
 20
1752.1166990001
 30
0.0
 40
150.0
100
AcDbArc
 50
170.3937176707998
 51
175.6141359999999
  0
ARC
  5
247
330
1F
100
AcDbEntity
  8
化粧台
  6
CONTINUOUS
 62
     6
100
AcDbCircle
 10
1464.656677000086
 20
1751.834961000101
 30
0.0
 40
150.0
100
AcDbArc
 50
169.7364188339999
 51
175.9890140000003
  0
LINE
  5
248
330
1F
100
AcDbEntity
  8
化粧台
  6
CONTINUOUS
 62
     6
100
AcDbLine
 10
1322.201123577089
 20
1777.160604855
 30
0.0
 11
1317.251515880088
 21
1778.486827798501
 31
0.0
  0
LINE
  5
249
330
1F
100
AcDbEntity
  8
化粧台
  6
CONTINUOUS
 62
     6
100
AcDbLine
 10
1320.745784779088
 20
1802.8809042253
 30
0.0
 11
1324.394412078088
 21
1816.4977904106
 31
0.0
  0
LINE
  5
24A
330
1F
100
AcDbEntity
  8
化粧台
  6
CONTINUOUS
 62
     6
100
AcDbLine
 10
1334.854861994088
 20
1797.5813920858
 30
0.0
 11
1339.384198338089
 21
1814.4850532934
 31
0.0
  0
LINE
  5
24B
330
1F
100
AcDbEntity
  8
化粧台
  6
CONTINUOUS
 62
     6
100
AcDbLine
 10
1339.384198338089
 20
1814.4850532934
 30
0.0
 11
1325.554394119089
 21
1817.2199234412
 31
0.0
  0
LINE
  5
24C
330
1F
100
AcDbEntity
  8
化粧台
  6
CONTINUOUS
 62
     6
100
AcDbLine
 10
1334.854861994088
 20
1797.5813920858
 30
0.0
 11
1333.328637359088
 21
1798.0453533569
 31
0.0
  0
LINE
  5
24D
330
1F
100
AcDbEntity
  8
化粧台
  6
CONTINUOUS
 62
     6
100
AcDbLine
 10
1335.501971683088
 20
1799.9961011083
 30
0.0
 11
1324.876848791089
 21
1802.843223792201
 31
0.0
  0
LINE
  5
24E
330
1F
100
AcDbEntity
  8
化粧台
  6
CONTINUOUS
 62
     6
100
AcDbLine
 10
1327.982567844088
 20
1814.434257425399
 30
0.0
 11
1324.876848791089
 21
1802.843223792201
 31
0.0
  0
LINE
  5
24F
330
1F
100
AcDbEntity
  8
化粧台
  6
CONTINUOUS
 62
     6
100
AcDbLine
 10
1351.344993955089
 20
1797.303922931
 30
0.0
 11
1335.890230303089
 21
1801.444999572799
 31
0.0
  0
LINE
  5
250
330
1F
100
AcDbEntity
  8
化粧台
  6
CONTINUOUS
 62
     6
100
AcDbLine
 10
1353.674427211089
 20
1805.997302350001
 30
0.0
 11
1338.219541936088
 21
1810.1383693549
 31
0.0
  0
LINE
  5
251
330
1F
100
AcDbEntity
  8
化粧台
  6
CONTINUOUS
 62
     6
100
AcDbLine
 10
1323.407174018089
 20
1777.8057711294
 30
0.0
 11
1329.614595965087
 21
1796.1372443899
 31
0.0
  0
LINE
  5
252
330
1F
100
AcDbEntity
  8
化粧台
  6
CONTINUOUS
 62
     6
100
AcDbLine
 10
1321.004666241087
 20
1801.9149284018
 30
0.0
 11
1316.529978233089
 21
1779.6498031213
 31
0.0
  0
LINE
  5
253
330
1F
100
AcDbEntity
  8
化粧台
  6
CONTINUOUS
 62
     6
100
AcDbLine
 10
1329.052538554087
 20
1794.477326369599
 30
0.0
 11
1319.997530400088
 21
1796.903662349299
 31
0.0
  0
LINE
  5
254
330
1F
100
AcDbEntity
  8
化粧台
  6
CONTINUOUS
 62
     6
100
AcDbLine
 10
1334.854861994088
 20
1797.5813920858
 30
0.0
 11
1321.004666241087
 21
1801.9149284018
 31
0.0
  0
LINE
  5
255
330
1F
100
AcDbEntity
  8
化粧台
  6
CONTINUOUS
 62
     6
100
AcDbLine
 10
1338.607801639089
 20
1811.587266910299
 30
0.0
 11
1327.982689379088
 21
1814.4342680584
 31
0.0
  0
LINE
  5
256
330
1F
100
AcDbEntity
  8
化粧台
  6
CONTINUOUS
 62
     6
100
AcDbLine
 10
1253.000000000088
 20
1697.0000000001
 30
0.0
 11
1316.076696830688
 21
1697.0000000001
 31
0.0
  0
ARC
  5
257
330
1F
100
AcDbEntity
  8
化粧台
  6
CONTINUOUS
 62
     2
100
AcDbCircle
 10
691.0000000000894
 20
2804.0000000001
 30
0.0
 40
8.0
100
AcDbArc
 50
90.00000000000004
 51
180.0
  0
ARC
  5
258
330
1F
100
AcDbEntity
  8
化粧台
  6
CONTINUOUS
 62
     2
100
AcDbCircle
 10
1275.000000000088
 20
2804.0000000001
 30
0.0
 40
8.0
100
AcDbArc
 50
0.0
 51
90.00000000000004
  0
ARC
  5
259
330
1F
100
AcDbEntity
  8
化粧台
  6
CONTINUOUS
 62
     2
100
AcDbCircle
 10
1275.000000000088
 20
1690.0000000001
 30
0.0
 40
8.0
100
AcDbArc
 50
270.0000000000002
 51
0.0
  0
ARC
  5
25A
330
1F
100
AcDbEntity
  8
化粧台
  6
CONTINUOUS
 62
     2
100
AcDbCircle
 10
691.0000000000894
 20
1690.0000000001
 30
0.0
 40
8.0
100
AcDbArc
 50
180.0000000000002
 51
270.0000000000002
  0
LINE
  5
25B
330
1F
100
AcDbEntity
  8
化粧台
  6
CONTINUOUS
 62
     2
100
AcDbLine
 10
683.0000000000894
 20
2804.0000000001
 30
0.0
 11
683.0000000000894
 21
1690.0000000001
 31
0.0
  0
LINE
  5
25C
330
1F
100
AcDbEntity
  8
化粧台
  6
CONTINUOUS
 62
     2
100
AcDbLine
 10
1283.000000000088
 20
2804.0000000001
 30
0.0
 11
1283.000000000088
 21
1690.0000000001
 31
0.0
  0
LINE
  5
25D
330
1F
100
AcDbEntity
  8
化粧台
  6
CONTINUOUS
 62
     2
100
AcDbLine
 10
691.0000000000894
 20
2812.0000000001
 30
0.0
 11
1275.000000000088
 21
2812.0000000001
 31
0.0
  0
LINE
  5
25E
330
1F
100
AcDbEntity
  8
化粧台
  6
CONTINUOUS
 62
     6
100
AcDbLine
 10
812.7149448718885
 20
2798.0000000001
 30
0.0
 11
812.7149448718885
 21
2708.0000000001
 31
0.0
  0
LINE
  5
25F
330
1F
100
AcDbEntity
  8
化粧台
  6
CONTINUOUS
 62
     6
100
AcDbLine
 10
1153.285055128291
 20
2798.0000000001
 30
0.0
 11
1153.285055128291
 21
2708.0000000001
 31
0.0
  0
ARC
  5
260
330
1F
100
AcDbEntity
  8
化粧台
  6
CONTINUOUS
 62
     6
100
AcDbCircle
 10
983.0000000000875
 20
5605.200000001476
 30
0.0
 40
2902.200000001376
100
AcDbArc
 50
266.6362684044902
 51
273.3637315955098
  0
CIRCLE
  5
261
330
1F
100
AcDbEntity
  8
化粧台
  6
CONTINUOUS
 62
     2
100
AcDbCircle
 10
758.0000000000884
 20
1732.0000000001
 30
0.0
 40
7.000000000000004
  0
LINE
  5
262
330
1F
100
AcDbEntity
  8
化粧台
  6
CONTINUOUS
 62
     6
100
AcDbLine
 10
758.0000000000875
 20
1762.000000000098
 30
0.0
 11
758.0000000000875
 21
1702.000000000098
 31
0.0
  0
ARC
  5
263
330
1F
100
AcDbEntity
  8
化粧台
  6
CONTINUOUS
 62
     6
100
AcDbCircle
 10
1097.000000000088
 20
2284.5000000001
 30
0.0
 40
8.0
100
AcDbArc
 50
180.0
 51
270.0000000000002
  0
LINE
  5
264
330
1F
100
AcDbEntity
  8
化粧台
  6
CONTINUOUS
 62
     6
100
AcDbLine
 10
1097.000000000088
 20
2276.5000000001
 30
0.0
 11
1119.000000000087
 21
2276.5000000001
 31
0.0
  0
LINE
  5
265
330
1F
100
AcDbEntity
  8
化粧台
  6
CONTINUOUS
 62
     6
100
AcDbLine
 10
1089.000000000088
 20
2418.5000000001
 30
0.0
 11
1089.000000000088
 21
2284.5000000001
 31
0.0
  0
ARC
  5
266
330
1F
100
AcDbEntity
  8
化粧台
  6
CONTINUOUS
 62
     6
100
AcDbCircle
 10
1119.000000000087
 20
2284.5000000001
 30
0.0
 40
8.0
100
AcDbArc
 50
270.0000000000002
 51
0.0
  0
LINE
  5
267
330
1F
100
AcDbEntity
  8
化粧台
  6
CONTINUOUS
 62
     6
100
AcDbLine
 10
1127.000000000087
 20
2418.5000000001
 30
0.0
 11
1127.000000000087
 21
2284.5000000001
 31
0.0
  0
ARC
  5
268
330
1F
100
AcDbEntity
  8
化粧台
  6
CONTINUOUS
 62
     6
100
AcDbCircle
 10
1119.000000000087
 20
2418.5000000001
 30
0.0
 40
8.0
100
AcDbArc
 50
0.0
 51
90.00000000000004
  0
LINE
  5
269
330
1F
100
AcDbEntity
  8
化粧台
  6
CONTINUOUS
 62
     6
100
AcDbLine
 10
1097.000000000088
 20
2426.5000000001
 30
0.0
 11
1119.000000000087
 21
2426.5000000001
 31
0.0
  0
ARC
  5
26A
330
1F
100
AcDbEntity
  8
化粧台
  6
CONTINUOUS
 62
     6
100
AcDbCircle
 10
1097.000000000088
 20
2418.5000000001
 30
0.0
 40
8.0
100
AcDbArc
 50
90.00000000000004
 51
180.0
  0
LINE
  5
26B
330
1F
100
AcDbEntity
  8
化粧台
  6
CONTINUOUS
 62
     6
100
AcDbLine
 10
1103.500000000088
 20
2323.000000000089
 30
0.0
 11
1112.500000000094
 21
2323.000000000089
 31
0.0
  0
LINE
  5
26C
330
1F
100
AcDbEntity
  8
化粧台
  6
CONTINUOUS
 62
     6
100
AcDbLine
 10
1104.500000000088
 20
2335.000000000089
 30
0.0
 11
1111.500000000096
 21
2335.000000000089
 31
0.0
  0
LINE
  5
26D
330
1F
100
AcDbEntity
  8
化粧台
  6
CONTINUOUS
 62
     6
100
AcDbLine
 10
1096.400000000099
 20
2343.250000000106
 30
0.0
 11
1119.600000000096
 21
2343.250000000106
 31
0.0
  0
LINE
  5
26E
330
1F
100
AcDbEntity
  8
化粧台
  6
CONTINUOUS
 62
     6
100
AcDbLine
 10
1119.600000000096
 20
2314.750000000106
 30
0.0
 11
1119.600000000096
 21
2343.250000000106
 31
0.0
  0
LINE
  5
26F
330
1F
100
AcDbEntity
  8
化粧台
  6
CONTINUOUS
 62
     6
100
AcDbLine
 10
1096.400000000097
 20
2314.750000000106
 30
0.0
 11
1119.600000000096
 21
2314.750000000106
 31
0.0
  0
LINE
  5
270
330
1F
100
AcDbEntity
  8
化粧台
  6
CONTINUOUS
 62
     6
100
AcDbLine
 10
1096.400000000097
 20
2314.750000000106
 30
0.0
 11
1096.400000000099
 21
2343.250000000106
 31
0.0
  0
LINE
  5
271
330
1F
100
AcDbEntity
  8
化粧台
  6
CONTINUOUS
 62
     6
100
AcDbLine
 10
1100.2000000001
 20
2385.750000000106
 30
0.0
 11
1100.200000000098
 21
2362.250000000106
 31
0.0
  0
LINE
  5
272
330
1F
100
AcDbEntity
  8
化粧台
  6
CONTINUOUS
 62
     6
100
AcDbLine
 10
1100.200000000098
 20
2362.250000000106
 30
0.0
 11
1115.800000000099
 21
2362.250000000106
 31
0.0
  0
LINE
  5
273
330
1F
100
AcDbEntity
  8
化粧台
  6
CONTINUOUS
 62
     6
100
AcDbLine
 10
1115.800000000099
 20
2385.750000000106
 30
0.0
 11
1100.2000000001
 21
2385.750000000106
 31
0.0
  0
LINE
  5
274
330
1F
100
AcDbEntity
  8
化粧台
  6
CONTINUOUS
 62
     6
100
AcDbLine
 10
1115.800000000099
 20
2385.750000000106
 30
0.0
 11
1115.800000000099
 21
2362.250000000106
 31
0.0
  0
LINE
  5
275
330
1F
100
AcDbEntity
  8
化粧台
  6
CONTINUOUS
 62
     6
100
AcDbLine
 10
1096.400000000097
 20
2388.250000000106
 30
0.0
 11
1119.600000000096
 21
2388.250000000106
 31
0.0
  0
LINE
  5
276
330
1F
100
AcDbEntity
  8
化粧台
  6
CONTINUOUS
 62
     6
100
AcDbLine
 10
1119.600000000096
 20
2359.750000000106
 30
0.0
 11
1119.600000000096
 21
2388.250000000106
 31
0.0
  0
LINE
  5
277
330
1F
100
AcDbEntity
  8
化粧台
  6
CONTINUOUS
 62
     6
100
AcDbLine
 10
1096.400000000097
 20
2359.750000000106
 30
0.0
 11
1119.600000000096
 21
2359.750000000106
 31
0.0
  0
LINE
  5
278
330
1F
100
AcDbEntity
  8
化粧台
  6
CONTINUOUS
 62
     6
100
AcDbLine
 10
1096.400000000097
 20
2359.750000000106
 30
0.0
 11
1096.400000000097
 21
2388.250000000106
 31
0.0
  0
LINE
  5
279
330
1F
100
AcDbEntity
  8
化粧台
  6
CONTINUOUS
 62
     6
100
AcDbLine
 10
1111.000000000099
 20
2380.2500000001
 30
0.0
 11
1105.000000000099
 21
2380.2500000001
 31
0.0
  0
CIRCLE
  5
27A
330
1F
100
AcDbEntity
  8
化粧台
  6
CONTINUOUS
 62
     2
100
AcDbCircle
 10
1208.000000000088
 20
2132.0000000001
 30
0.0
 40
7.000000000000004
  0
LINE
  5
27B
330
1F
100
AcDbEntity
  8
化粧台
  6
CONTINUOUS
 62
     6
100
AcDbLine
 10
1208.000000000088
 20
2162.000000000098
 30
0.0
 11
1208.000000000088
 21
2102.000000000098
 31
0.0
  0
LINE
  5
27C
330
1F
100
AcDbEntity
  8
化粧台
  6
CONTINUOUS
 62
     6
100
AcDbLine
 10
1238.000000000088
 20
2132.000000000098
 30
0.0
 11
1178.000000000088
 21
2132.000000000098
 31
0.0
  0
CIRCLE
  5
27D
330
1F
100
AcDbEntity
  8
化粧台
  6
CONTINUOUS
 62
     2
100
AcDbCircle
 10
1208.000000000088
 20
2632.0000000001
 30
0.0
 40
7.000000000000004
  0
LINE
  5
27E
330
1F
100
AcDbEntity
  8
化粧台
  6
CONTINUOUS
 62
     6
100
AcDbLine
 10
1208.000000000088
 20
2662.000000000098
 30
0.0
 11
1208.000000000088
 21
2602.000000000098
 31
0.0
  0
LINE
  5
27F
330
1F
100
AcDbEntity
  8
化粧台
  6
CONTINUOUS
 62
     6
100
AcDbLine
 10
1238.000000000088
 20
2632.000000000098
 30
0.0
 11
1178.000000000088
 21
2632.000000000098
 31
0.0
  0
CIRCLE
  5
280
330
1F
100
AcDbEntity
  8
化粧台
  6
CONTINUOUS
 62
     2
100
AcDbCircle
 10
703.0000000000884
 20
2632.0000000001
 30
0.0
 40
7.000000000000004
  0
LINE
  5
281
330
1F
100
AcDbEntity
  8
化粧台
  6
CONTINUOUS
 62
     6
100
AcDbLine
 10
703.0000000000875
 20
2662.000000000098
 30
0.0
 11
703.0000000000875
 21
2602.000000000098
 31
0.0
  0
LINE
  5
282
330
1F
100
AcDbEntity
  8
化粧台
  6
CONTINUOUS
 62
     6
100
AcDbLine
 10
733.0000000000875
 20
2632.000000000098
 30
0.0
 11
673.0000000000875
 21
2632.000000000098
 31
0.0
  0
LINE
  5
283
330
1F
100
AcDbEntity
  8
化粧台
  6
CONTINUOUS
 62
     2
100
AcDbLine
 10
1139.200000000082
 20
2447.775718818499
 30
0.0
 11
1139.200000000082
 21
2249.0000000001
 31
0.0
  0
LINE
  5
284
330
1F
100
AcDbEntity
  8
化粧台
  6
CONTINUOUS
 62
     2
100
AcDbLine
 10
1074.182715645589
 20
2447.775718818499
 30
0.0
 11
1139.200000000082
 21
2447.775718818499
 31
0.0
  0
ARC
  5
285
330
1F
100
AcDbEntity
  8
化粧台
  6
CONTINUOUS
 62
     2
100
AcDbCircle
 10
1173.000000000088
 20
3739.000000000075
 30
0.0
 40
1295.0
100
AcDbArc
 50
268.504388190688
 51
274.295676223796
  0
ARC
  5
286
330
1F
100
AcDbEntity
  8
化粧台
  6
CONTINUOUS
 62
     2
100
AcDbCircle
 10
1095.000000000096
 20
2433.000000000087
 30
0.0
 40
10.0
100
AcDbArc
 50
90.00000000000004
 51
180.0
  0
LINE
  5
287
330
1F
100
AcDbEntity
  8
化粧台
  6
CONTINUOUS
 62
     2
100
AcDbLine
 10
1085.000000000096
 20
2433.000000000087
 30
0.0
 11
1085.000000000096
 21
2270.000000000098
 31
0.0
  0
LINE
  5
288
330
1F
100
AcDbEntity
  8
化粧台
  6
CONTINUOUS
 62
     2
100
AcDbLine
 10
1095.000000000096
 20
2443.000000000087
 30
0.0
 11
1121.00000000009
 21
2443.000000000087
 31
0.0
  0
ARC
  5
289
330
1F
100
AcDbEntity
  8
化粧台
  6
CONTINUOUS
 62
     2
100
AcDbCircle
 10
1121.00000000009
 20
2433.000000000087
 30
0.0
 40
10.0
100
AcDbArc
 50
0.0
 51
90.00000000000004
  0
LINE
  5
28A
330
1F
100
AcDbEntity
  8
化粧台
  6
CONTINUOUS
 62
     2
100
AcDbLine
 10
1131.000000000092
 20
2433.000000000087
 30
0.0
 11
1131.000000000092
 21
2270.000000000098
 31
0.0
  0
ARC
  5
28B
330
1F
100
AcDbEntity
  8
化粧台
  6
CONTINUOUS
 62
     2
100
AcDbCircle
 10
1121.00000000009
 20
2270.000000000098
 30
0.0
 40
10.0
100
AcDbArc
 50
270.0000000000002
 51
0.0
  0
LINE
  5
28C
330
1F
100
AcDbEntity
  8
化粧台
  6
CONTINUOUS
 62
     2
100
AcDbLine
 10
1095.000000000096
 20
2260.000000000098
 30
0.0
 11
1121.00000000009
 21
2260.000000000098
 31
0.0
  0
ARC
  5
28D
330
1F
100
AcDbEntity
  8
化粧台
  6
CONTINUOUS
 62
     2
100
AcDbCircle
 10
1095.000000000096
 20
2270.000000000098
 30
0.0
 40
10.0
100
AcDbArc
 50
180.0
 51
270.0000000000002
  0
LINE
  5
28E
330
1F
100
AcDbEntity
  8
化粧台
  6
CONTINUOUS
 62
     6
100
AcDbLine
 10
1153.285055128291
 20
2782.000000000104
 30
0.0
 11
812.7149448718885
 21
2782.0000000001
 31
0.0
  0
LINE
  5
28F
330
1F
100
AcDbEntity
  8
化粧台
  6
CONTINUOUS
 62
     6
100
AcDbLine
 10
1153.285055128291
 20
2787.000000000104
 30
0.0
 11
812.7149448718885
 21
2787.0000000001
 31
0.0
  0
LINE
  5
290
330
1F
100
AcDbEntity
  8
化粧台
  6
CONTINUOUS
 62
     2
100
AcDbLine
 10
1153.285055128291
 20
2798.0000000001
 30
0.0
 11
812.7149448718885
 21
2798.0000000001
 31
0.0
  0
ARC
  5
291
330
1F
100
AcDbEntity
  8
化粧台
  6
CONTINUOUS
 62
     2
100
AcDbCircle
 10
1267.000000000088
 20
2699.0000000001
 30
0.0
 40
3.000000000000002
100
AcDbArc
 50
0.0
 51
90.00000000000004
  0
ARC
  5
292
330
1F
100
AcDbEntity
  8
化粧台
  6
CONTINUOUS
 62
     2
100
AcDbCircle
 10
1079.000000000088
 20
2699.0000000001
 30
0.0
 40
3.000000000000002
100
AcDbArc
 50
90.00000000000004
 51
180.0
  0
LINE
  5
293
330
1F
100
AcDbEntity
  8
化粧台
  6
CONTINUOUS
 62
     2
100
AcDbLine
 10
1270.000000000088
 20
2699.0000000001
 30
0.0
 11
1270.000000000088
 21
2502.0000000001
 31
0.0
  0
LINE
  5
294
330
1F
100
AcDbEntity
  8
化粧台
  6
CONTINUOUS
 62
     2
100
AcDbLine
 10
1076.000000000088
 20
2699.0000000001
 30
0.0
 11
1076.000000000088
 21
2502.0000000001
 31
0.0
  0
ARC
  5
295
330
1F
100
AcDbEntity
  8
化粧台
  6
CONTINUOUS
 62
     2
100
AcDbCircle
 10
1173.000000000088
 20
3486.000000000075
 30
0.0
 40
1295.0
100
AcDbArc
 50
265.7043237762043
 51
274.295676223796
  0
LINE
  5
296
330
1F
100
AcDbEntity
  8
化粧台
  6
CONTINUOUS
 62
     2
100
AcDbLine
 10
1076.000000000088
 20
2447.637928387314
 30
0.0
 11
1076.000000000088
 21
2249.0000000001
 31
0.0
  0
LINE
  5
297
330
1F
100
AcDbEntity
  8
化粧台
  6
CONTINUOUS
 62
     2
100
AcDbLine
 10
1270.000000000088
 20
2447.637928387316
 30
0.0
 11
1270.000000000088
 21
2249.0000000001
 31
0.0
  0
LINE
  5
298
330
1F
100
AcDbEntity
  8
化粧台
  6
CONTINUOUS
 62
     2
100
AcDbLine
 10
1270.000000000088
 20
2194.637928387316
 30
0.0
 11
1270.000000000088
 21
1947.0000000001
 31
0.0
  0
LINE
  5
299
330
1F
100
AcDbEntity
  8
化粧台
  6
CONTINUOUS
 62
     2
100
AcDbLine
 10
1076.000000000088
 20
2194.637928387314
 30
0.0
 11
1076.000000000088
 21
1947.0000000001
 31
0.0
  0
LINE
  5
29A
330
1F
100
AcDbEntity
  8
化粧台
  6
CONTINUOUS
 62
     2
100
AcDbLine
 10
1074.182715645589
 20
1892.775718818499
 30
0.0
 11
1271.817284354588
 21
1892.775718818499
 31
0.0
  0
ARC
  5
29B
330
1F
100
AcDbEntity
  8
化粧台
  6
CONTINUOUS
 62
     2
100
AcDbCircle
 10
1274.000000000088
 20
1893.5000000001
 30
0.0
 40
3.000000000000002
100
AcDbArc
 50
270.0000000000002
 51
0.0
  0
LINE
  5
29C
330
1F
100
AcDbEntity
  8
化粧台
  6
CONTINUOUS
 62
     2
100
AcDbLine
 10
1277.000000000088
 20
1944.0000000001
 30
0.0
 11
1277.000000000088
 21
1893.5000000001
 31
0.0
  0
LINE
  5
29D
330
1F
100
AcDbEntity
  8
化粧台
  6
CONTINUOUS
 62
     2
100
AcDbLine
 10
1274.000000000088
 20
1890.5000000001
 30
0.0
 11
1272.500000000088
 21
1890.5000000001
 31
0.0
  0
ARC
  5
29E
330
1F
100
AcDbEntity
  8
化粧台
  6
CONTINUOUS
 62
     2
100
AcDbCircle
 10
1274.000000000088
 20
1944.0000000001
 30
0.0
 40
3.000000000000002
100
AcDbArc
 50
0.0
 51
90.00000000000004
  0
LINE
  5
29F
330
1F
100
AcDbEntity
  8
化粧台
  6
CONTINUOUS
 62
     2
100
AcDbLine
 10
1072.000000000088
 20
1947.0000000001
 30
0.0
 11
1274.000000000088
 21
1947.0000000001
 31
0.0
  0
ARC
  5
2A0
330
1F
100
AcDbEntity
  8
化粧台
  6
CONTINUOUS
 62
     2
100
AcDbCircle
 10
1072.000000000088
 20
1893.5000000001
 30
0.0
 40
3.000000000000002
100
AcDbArc
 50
180.0
 51
270.0000000000002
  0
LINE
  5
2A1
330
1F
100
AcDbEntity
  8
化粧台
  6
CONTINUOUS
 62
     2
100
AcDbLine
 10
1069.000000000088
 20
1944.0000000001
 30
0.0
 11
1069.000000000088
 21
1893.5000000001
 31
0.0
  0
LINE
  5
2A2
330
1F
100
AcDbEntity
  8
化粧台
  6
CONTINUOUS
 62
     2
100
AcDbLine
 10
1073.500000000088
 20
1890.5000000001
 30
0.0
 11
1072.000000000088
 21
1890.5000000001
 31
0.0
  0
ARC
  5
2A3
330
1F
100
AcDbEntity
  8
化粧台
  6
CONTINUOUS
 62
     2
100
AcDbCircle
 10
1072.000000000088
 20
1944.0000000001
 30
0.0
 40
3.000000000000002
100
AcDbArc
 50
90.00000000000004
 51
180.0
  0
ARC
  5
2A4
330
1F
100
AcDbEntity
  8
化粧台
  6
CONTINUOUS
 62
     2
100
AcDbCircle
 10
1173.000000000088
 20
944.600000000104
 30
0.0
 40
962.8999999999953
100
AcDbArc
 50
84.68994072327212
 51
95.31005927672784
  0
ARC
  5
2A5
330
1F
100
AcDbEntity
  8
化粧台
  6
CONTINUOUS
 62
     2
100
AcDbCircle
 10
1261.186514439957
 20
1893.410596837502
 30
0.0
 40
10.0
100
AcDbArc
 50
16.69924423399711
 51
84.68994072326981
  0
LINE
  5
2A6
330
1F
100
AcDbEntity
  8
化粧台
  6
CONTINUOUS
 62
     2
100
AcDbLine
 10
1272.500000000088
 20
1890.5000000001
 30
0.0
 11
1270.764777292169
 21
1896.284075693166
 31
0.0
  0
ARC
  5
2A7
330
1F
100
AcDbEntity
  8
化粧台
  6
CONTINUOUS
 62
     2
100
AcDbCircle
 10
1084.81348556022
 20
1893.410596837502
 30
0.0
 40
10.0
100
AcDbArc
 50
95.3100592767302
 51
163.3007557660029
  0
LINE
  5
2A8
330
1F
100
AcDbEntity
  8
化粧台
  6
CONTINUOUS
 62
     2
100
AcDbLine
 10
1073.500000000088
 20
1890.5000000001
 30
0.0
 11
1075.235222708009
 21
1896.284075693166
 31
0.0
  0
ARC
  5
2A9
330
1F
100
AcDbEntity
  8
化粧台
  6
CONTINUOUS
 62
     2
100
AcDbCircle
 10
1274.000000000088
 20
2195.5000000001
 30
0.0
 40
3.000000000000002
100
AcDbArc
 50
270.0000000000002
 51
0.0
  0
LINE
  5
2AA
330
1F
100
AcDbEntity
  8
化粧台
  6
CONTINUOUS
 62
     2
100
AcDbLine
 10
1277.000000000088
 20
2246.0000000001
 30
0.0
 11
1277.000000000088
 21
2195.5000000001
 31
0.0
  0
LINE
  5
2AB
330
1F
100
AcDbEntity
  8
化粧台
  6
CONTINUOUS
 62
     2
100
AcDbLine
 10
1274.000000000088
 20
2192.5000000001
 30
0.0
 11
1272.500000000088
 21
2192.5000000001
 31
0.0
  0
ARC
  5
2AC
330
1F
100
AcDbEntity
  8
化粧台
  6
CONTINUOUS
 62
     2
100
AcDbCircle
 10
1274.000000000088
 20
2246.0000000001
 30
0.0
 40
3.000000000000002
100
AcDbArc
 50
0.0
 51
90.00000000000004
  0
LINE
  5
2AD
330
1F
100
AcDbEntity
  8
化粧台
  6
CONTINUOUS
 62
     2
100
AcDbLine
 10
1072.000000000088
 20
2249.0000000001
 30
0.0
 11
1274.000000000088
 21
2249.0000000001
 31
0.0
  0
ARC
  5
2AE
330
1F
100
AcDbEntity
  8
化粧台
  6
CONTINUOUS
 62
     2
100
AcDbCircle
 10
1072.000000000088
 20
2195.5000000001
 30
0.0
 40
3.000000000000002
100
AcDbArc
 50
180.0
 51
270.0000000000002
  0
LINE
  5
2AF
330
1F
100
AcDbEntity
  8
化粧台
  6
CONTINUOUS
 62
     2
100
AcDbLine
 10
1069.000000000088
 20
2246.0000000001
 30
0.0
 11
1069.000000000088
 21
2195.5000000001
 31
0.0
  0
LINE
  5
2B0
330
1F
100
AcDbEntity
  8
化粧台
  6
CONTINUOUS
 62
     2
100
AcDbLine
 10
1073.500000000088
 20
2192.5000000001
 30
0.0
 11
1072.000000000088
 21
2192.5000000001
 31
0.0
  0
ARC
  5
2B1
330
1F
100
AcDbEntity
  8
化粧台
  6
CONTINUOUS
 62
     2
100
AcDbCircle
 10
1072.000000000088
 20
2246.0000000001
 30
0.0
 40
3.000000000000002
100
AcDbArc
 50
90.00000000000004
 51
180.0
  0
ARC
  5
2B2
330
1F
100
AcDbEntity
  8
化粧台
  6
CONTINUOUS
 62
     2
100
AcDbCircle
 10
1173.000000000088
 20
1246.600000000104
 30
0.0
 40
962.8999999999953
100
AcDbArc
 50
84.68994072327212
 51
95.31005927672784
  0
ARC
  5
2B3
330
1F
100
AcDbEntity
  8
化粧台
  6
CONTINUOUS
 62
     2
100
AcDbCircle
 10
1261.186514439957
 20
2195.410596837502
 30
0.0
 40
10.0
100
AcDbArc
 50
16.69924423399711
 51
84.68994072326981
  0
LINE
  5
2B4
330
1F
100
AcDbEntity
  8
化粧台
  6
CONTINUOUS
 62
     2
100
AcDbLine
 10
1272.500000000088
 20
2192.5000000001
 30
0.0
 11
1270.764777292169
 21
2198.284075693166
 31
0.0
  0
ARC
  5
2B5
330
1F
100
AcDbEntity
  8
化粧台
  6
CONTINUOUS
 62
     2
100
AcDbCircle
 10
1084.81348556022
 20
2195.410596837502
 30
0.0
 40
10.0
100
AcDbArc
 50
95.3100592767302
 51
163.3007557660029
  0
LINE
  5
2B6
330
1F
100
AcDbEntity
  8
化粧台
  6
CONTINUOUS
 62
     2
100
AcDbLine
 10
1073.500000000088
 20
2192.5000000001
 30
0.0
 11
1075.235222708009
 21
2198.284075693166
 31
0.0
  0
ARC
  5
2B7
330
1F
100
AcDbEntity
  8
化粧台
  6
CONTINUOUS
 62
     2
100
AcDbCircle
 10
1274.000000000088
 20
2448.5000000001
 30
0.0
 40
3.000000000000002
100
AcDbArc
 50
270.0000000000002
 51
0.0
  0
LINE
  5
2B8
330
1F
100
AcDbEntity
  8
化粧台
  6
CONTINUOUS
 62
     2
100
AcDbLine
 10
1277.000000000088
 20
2499.0000000001
 30
0.0
 11
1277.000000000088
 21
2448.5000000001
 31
0.0
  0
LINE
  5
2B9
330
1F
100
AcDbEntity
  8
化粧台
  6
CONTINUOUS
 62
     2
100
AcDbLine
 10
1274.000000000088
 20
2445.5000000001
 30
0.0
 11
1272.500000000088
 21
2445.5000000001
 31
0.0
  0
ARC
  5
2BA
330
1F
100
AcDbEntity
  8
化粧台
  6
CONTINUOUS
 62
     2
100
AcDbCircle
 10
1274.000000000088
 20
2499.0000000001
 30
0.0
 40
3.000000000000002
100
AcDbArc
 50
0.0
 51
90.00000000000004
  0
LINE
  5
2BB
330
1F
100
AcDbEntity
  8
化粧台
  6
CONTINUOUS
 62
     2
100
AcDbLine
 10
1072.000000000088
 20
2502.0000000001
 30
0.0
 11
1274.000000000088
 21
2502.0000000001
 31
0.0
  0
ARC
  5
2BC
330
1F
100
AcDbEntity
  8
化粧台
  6
CONTINUOUS
 62
     2
100
AcDbCircle
 10
1072.000000000088
 20
2448.5000000001
 30
0.0
 40
3.000000000000002
100
AcDbArc
 50
180.0
 51
270.0000000000002
  0
LINE
  5
2BD
330
1F
100
AcDbEntity
  8
化粧台
  6
CONTINUOUS
 62
     2
100
AcDbLine
 10
1069.000000000088
 20
2499.0000000001
 30
0.0
 11
1069.000000000088
 21
2448.5000000001
 31
0.0
  0
LINE
  5
2BE
330
1F
100
AcDbEntity
  8
化粧台
  6
CONTINUOUS
 62
     2
100
AcDbLine
 10
1073.500000000088
 20
2445.5000000001
 30
0.0
 11
1072.000000000088
 21
2445.5000000001
 31
0.0
  0
ARC
  5
2BF
330
1F
100
AcDbEntity
  8
化粧台
  6
CONTINUOUS
 62
     2
100
AcDbCircle
 10
1072.000000000088
 20
2499.0000000001
 30
0.0
 40
3.000000000000002
100
AcDbArc
 50
90.00000000000004
 51
180.0
  0
ARC
  5
2C0
330
1F
100
AcDbEntity
  8
化粧台
  6
CONTINUOUS
 62
     2
100
AcDbCircle
 10
1173.000000000088
 20
1499.600000000104
 30
0.0
 40
962.8999999999953
100
AcDbArc
 50
84.68994072327212
 51
95.31005927672784
  0
ARC
  5
2C1
330
1F
100
AcDbEntity
  8
化粧台
  6
CONTINUOUS
 62
     2
100
AcDbCircle
 10
1261.186514439957
 20
2448.410596837502
 30
0.0
 40
10.0
100
AcDbArc
 50
16.69924423399711
 51
84.68994072326981
  0
LINE
  5
2C2
330
1F
100
AcDbEntity
  8
化粧台
  6
CONTINUOUS
 62
     2
100
AcDbLine
 10
1272.500000000088
 20
2445.5000000001
 30
0.0
 11
1270.764777292169
 21
2451.284075693166
 31
0.0
  0
ARC
  5
2C3
330
1F
100
AcDbEntity
  8
化粧台
  6
CONTINUOUS
 62
     2
100
AcDbCircle
 10
1084.81348556022
 20
2448.410596837502
 30
0.0
 40
10.0
100
AcDbArc
 50
95.3100592767302
 51
163.3007557660029
  0
LINE
  5
2C4
330
1F
100
AcDbEntity
  8
化粧台
  6
CONTINUOUS
 62
     2
100
AcDbLine
 10
1073.500000000088
 20
2445.5000000001
 30
0.0
 11
1075.235222708009
 21
2451.284075693166
 31
0.0
  0
LINE
  5
2C5
330
1F
100
AcDbEntity
  8
化粧台
  6
CONTINUOUS
 62
     2
100
AcDbLine
 10
1153.500000000092
 20
2812.0000000001
 30
0.0
 11
1153.500000000092
 21
2702.0000000001
 31
0.0
  0
LINE
  5
2C6
330
1F
100
AcDbEntity
  8
化粧台
  6
CONTINUOUS
 62
     2
100
AcDbLine
 10
812.5000000000884
 20
2812.0000000001
 30
0.0
 11
812.5000000000884
 21
2702.0000000001
 31
0.0
  0
LINE
  5
2C7
330
1F
100
AcDbEntity
  8
化粧台
  6
CONTINUOUS
 62
     2
100
AcDbLine
 10
780.6515307717457
 20
1942.500000000131
 30
0.0
 11
722.1213203436293
 21
1942.500000000131
 31
0.0
  0
LINE
  5
2C8
330
1F
100
AcDbEntity
  8
化粧台
  6
CONTINUOUS
 62
     2
100
AcDbLine
 10
985.6515307717457
 20
1942.500000000131
 30
0.0
 11
795.3484692284312
 21
1942.500000000131
 31
0.0
  0
LINE
  5
2C9
330
1F
100
AcDbEntity
  8
化粧台
  6
CONTINUOUS
 62
     2
100
AcDbLine
 10
1058.878679656508
 20
1942.500000000131
 30
0.0
 11
1000.348469228431
 21
1942.500000000131
 31
0.0
  0
LINE
  5
2CA
330
1F
100
AcDbEntity
  8
化粧台
  6
CONTINUOUS
 62
     2
100
AcDbLine
 10
985.5166852265386
 20
2700.500000000131
 30
0.0
 11
795.4833147736383
 21
2700.500000000131
 31
0.0
  0
LINE
  5
2CB
330
1F
100
AcDbEntity
  8
化粧台
  6
CONTINUOUS
 62
     2
100
AcDbLine
 10
1058.878679656508
 20
2700.500000000131
 30
0.0
 11
1000.483314773638
 21
2700.500000000131
 31
0.0
  0
LINE
  5
2CC
330
1F
100
AcDbEntity
  8
化粧台
  6
CONTINUOUS
 62
     2
100
AcDbLine
 10
780.5166852265386
 20
2700.500000000131
 30
0.0
 11
722.1213203436293
 21
2700.500000000131
 31
0.0
  0
LINE
  5
2CD
330
1F
100
AcDbEntity
  8
化粧台
  6
CONTINUOUS
 62
     2
100
AcDbLine
 10
1061.00000000007
 20
2698.378679656571
 30
0.0
 11
1058.878679656508
 21
2700.500000000131
 31
0.0
  0
LINE
  5
2CE
330
1F
100
AcDbEntity
  8
化粧台
  6
CONTINUOUS
 62
     2
100
AcDbLine
 10
1061.00000000007
 20
2698.378679656571
 30
0.0
 11
1061.00000000007
 21
1944.621320343691
 31
0.0
  0
LINE
  5
2CF
330
1F
100
AcDbEntity
  8
化粧台
  6
CONTINUOUS
 62
     2
100
AcDbLine
 10
720.0000000000693
 20
2698.378679656571
 30
0.0
 11
722.1213203436293
 21
2700.500000000131
 31
0.0
  0
LINE
  5
2D0
330
1F
100
AcDbEntity
  8
化粧台
  6
CONTINUOUS
 62
     2
100
AcDbLine
 10
720.0000000000693
 20
2698.378679656571
 30
0.0
 11
720.0000000000693
 21
1944.621320343691
 31
0.0
  0
LINE
  5
2D1
330
1F
100
AcDbEntity
  8
化粧台
  6
CONTINUOUS
 62
     2
100
AcDbLine
 10
1061.00000000007
 20
1944.621320343691
 30
0.0
 11
1058.878679656508
 21
1942.500000000131
 31
0.0
  0
LINE
  5
2D2
330
1F
100
AcDbEntity
  8
化粧台
  6
CONTINUOUS
 62
     2
100
AcDbLine
 10
722.1213203436293
 20
1942.500000000131
 30
0.0
 11
720.0000000000693
 21
1944.621320343691
 31
0.0
  0
LINE
  5
2D3
330
1F
100
AcDbEntity
  8
化粧台
  6
CONTINUOUS
 62
     2
100
AcDbLine
 10
1000.500000000088
 20
2702.000000000067
 30
0.0
 11
985.5000000000884
 21
2702.000000000067
 31
0.0
  0
ARC
  5
2D4
330
1F
100
AcDbEntity
  8
化粧台
  6
CONTINUOUS
 62
     2
100
AcDbCircle
 10
993.0000000000884
 20
2701.0000000001
 30
0.0
 40
7.500000000000006
100
AcDbArc
 50
180.0
 51
0.0
  0
LINE
  5
2D5
330
1F
100
AcDbEntity
  8
化粧台
  6
CONTINUOUS
 62
     2
100
AcDbLine
 10
1000.500000000088
 20
2701.0000000001
 30
0.0
 11
1000.500000000088
 21
2702.000000000067
 31
0.0
  0
LINE
  5
2D6
330
1F
100
AcDbEntity
  8
化粧台
  6
CONTINUOUS
 62
     2
100
AcDbLine
 10
985.5000000000884
 20
2701.0000000001
 30
0.0
 11
985.5000000000884
 21
2702.000000000067
 31
0.0
  0
LINE
  5
2D7
330
1F
100
AcDbEntity
  8
化粧台
  6
CONTINUOUS
 62
     2
100
AcDbLine
 10
780.5000000000884
 20
2702.000000000067
 30
0.0
 11
795.5000000000884
 21
2702.000000000067
 31
0.0
  0
ARC
  5
2D8
330
1F
100
AcDbEntity
  8
化粧台
  6
CONTINUOUS
 62
     2
100
AcDbCircle
 10
788.0000000000884
 20
2701.0000000001
 30
0.0
 40
7.500000000000006
100
AcDbArc
 50
180.0
 51
0.0
  0
LINE
  5
2D9
330
1F
100
AcDbEntity
  8
化粧台
  6
CONTINUOUS
 62
     2
100
AcDbLine
 10
780.5000000000884
 20
2701.0000000001
 30
0.0
 11
780.5000000000884
 21
2702.000000000067
 31
0.0
  0
LINE
  5
2DA
330
1F
100
AcDbEntity
  8
化粧台
  6
CONTINUOUS
 62
     2
100
AcDbLine
 10
795.5000000000884
 20
2701.0000000001
 30
0.0
 11
795.5000000000884
 21
2702.000000000067
 31
0.0
  0
LINE
  5
2DB
330
1F
100
AcDbEntity
  8
化粧台
  6
CONTINUOUS
 62
     2
100
AcDbLine
 10
1000.500000000088
 20
1940.000000000133
 30
0.0
 11
985.5000000000884
 21
1940.000000000133
 31
0.0
  0
ARC
  5
2DC
330
1F
100
AcDbEntity
  8
化粧台
  6
CONTINUOUS
 62
     2
100
AcDbCircle
 10
993.0000000000884
 20
1941.0000000001
 30
0.0
 40
7.500000000000006
100
AcDbArc
 50
0.0
 51
180.0
  0
LINE
  5
2DD
330
1F
100
AcDbEntity
  8
化粧台
  6
CONTINUOUS
 62
     2
100
AcDbLine
 10
1000.500000000088
 20
1941.0000000001
 30
0.0
 11
1000.500000000088
 21
1940.000000000133
 31
0.0
  0
LINE
  5
2DE
330
1F
100
AcDbEntity
  8
化粧台
  6
CONTINUOUS
 62
     2
100
AcDbLine
 10
985.5000000000884
 20
1941.0000000001
 30
0.0
 11
985.5000000000884
 21
1940.000000000133
 31
0.0
  0
LINE
  5
2DF
330
1F
100
AcDbEntity
  8
化粧台
  6
CONTINUOUS
 62
     2
100
AcDbLine
 10
780.5000000000884
 20
1940.000000000133
 30
0.0
 11
795.5000000000884
 21
1940.000000000133
 31
0.0
  0
ARC
  5
2E0
330
1F
100
AcDbEntity
  8
化粧台
  6
CONTINUOUS
 62
     2
100
AcDbCircle
 10
788.0000000000884
 20
1941.0000000001
 30
0.0
 40
7.500000000000006
100
AcDbArc
 50
0.0
 51
180.0
  0
LINE
  5
2E1
330
1F
100
AcDbEntity
  8
化粧台
  6
CONTINUOUS
 62
     2
100
AcDbLine
 10
780.5000000000884
 20
1941.0000000001
 30
0.0
 11
780.5000000000884
 21
1940.000000000133
 31
0.0
  0
LINE
  5
2E2
330
1F
100
AcDbEntity
  8
化粧台
  6
CONTINUOUS
 62
     2
100
AcDbLine
 10
795.5000000000884
 20
1941.0000000001
 30
0.0
 11
795.5000000000884
 21
1940.000000000133
 31
0.0
  0
LINE
  5
2E3
330
1F
100
AcDbEntity
  8
化粧台
  6
CONTINUOUS
 62
     2
100
AcDbLine
 10
683.0000000000894
 20
2702.0000000001
 30
0.0
 11
1283.000000000088
 21
2702.0000000001
 31
0.0
  0
LEADER
  5
2E4
330
1F
100
AcDbEntity
  8
化粧台
  6
CONTINUOUS
 62
     3
100
AcDbLeader
  3
ISO-25
 76
     3
 10
1325.554342469489
 20
1817.2199528181
 30
0.0
 10
1390.500000000088
 20
1920.0
 30
0.0
 10
1392.474995203788
 20
2658.0
 30
0.0
1001
ACAD
1000
DSTYLE
1002
{
1070
     5
1000
EX_NORM
1070
    41
1040
45.0
1070
   341
1005
4D
1002
}
  0
LINE
  5
2E5
330
1F
100
AcDbEntity
  8
化粧台
  6
CONTINUOUS
 62
     2
100
AcDbLine
 10
2528.00000000009
 20
1682.000000000058
 30
0.0
 11
2501.707881475481
 21
1682.000000000058
 31
0.0
  0
LINE
  5
2E6
330
1F
100
AcDbEntity
  8
化粧台
  6
CONTINUOUS
 62
     2
100
AcDbLine
 10
2528.00000000009
 20
1682.000000000058
 30
0.0
 11
2528.00000000009
 21
1627.000000000058
 31
0.0
  0
ARC
  5
2E7
330
1F
100
AcDbEntity
  8
化粧台
  6
CONTINUOUS
 62
     2
100
AcDbCircle
 10
2503.000000671061
 20
1687.0000000001
 30
0.0
 40
5.0
100
AcDbArc
 50
180.0
 51
270.0000000000002
  0
LINE
  5
2E8
330
1F
100
AcDbEntity
  8
化粧台
  6
CONTINUOUS
 62
     2
100
AcDbLine
 10
2528.000000000086
 20
1627.00000000004
 30
0.0
 11
2528.000000000086
 21
897.0000000000382
 31
0.0
  0
LINE
  5
2E9
330
1F
100
AcDbEntity
  8
化粧台
  6
CONTINUOUS
 62
     2
100
AcDbLine
 10
2528.000000000108
 20
1682.00000000006
 30
0.0
 11
2501.7078814755
 21
1682.00000000006
 31
0.0
  0
LINE
  5
2EA
330
1F
100
AcDbEntity
  8
化粧台
  6
CONTINUOUS
 62
     6
100
AcDbLine
 10
2495.000000000086
 20
1947.0000000001
 30
0.0
 11
2495.000000000086
 21
1891.051351351451
 31
0.0
  0
LINE
  5
2EB
330
1F
100
AcDbEntity
  8
化粧台
  6
CONTINUOUS
 62
     6
100
AcDbLine
 10
2404.500000000086
 20
1942.0000000001
 30
0.0
 11
2495.000000000086
 21
1942.0000000001
 31
0.0
  0
LINE
  5
2EC
330
1F
100
AcDbEntity
  8
化粧台
  6
CONTINUOUS
 62
     6
100
AcDbLine
 10
2495.000000000086
 20
2249.0000000001
 30
0.0
 11
2495.000000000086
 21
2193.051351351451
 31
0.0
  0
LINE
  5
2ED
330
1F
100
AcDbEntity
  8
化粧台
  6
CONTINUOUS
 62
     6
100
AcDbLine
 10
2404.500000000086
 20
2244.0000000001
 30
0.0
 11
2495.000000000086
 21
2244.0000000001
 31
0.0
  0
LINE
  5
2EE
330
1F
100
AcDbEntity
  8
化粧台
  6
CONTINUOUS
 62
     6
100
AcDbLine
 10
2404.500000000086
 20
2497.0000000001
 30
0.0
 11
2495.000000000086
 21
2497.0000000001
 31
0.0
  0
LINE
  5
2EF
330
1F
100
AcDbEntity
  8
化粧台
  6
CONTINUOUS
 62
     6
100
AcDbLine
 10
2495.000000000086
 20
2502.0000000001
 30
0.0
 11
2495.000000000086
 21
2446.051351351451
 31
0.0
  0
ARC
  5
2F0
330
1F
100
AcDbEntity
  8
化粧台
  6
CONTINUOUS
 62
     2
100
AcDbCircle
 10
2503.000000000086
 20
1687.0000000001
 30
0.0
 40
5.0
100
AcDbArc
 50
180.0
 51
270.0000000000002
  0
LINE
  5
2F1
330
1F
100
AcDbEntity
  8
化粧台
  6
CONTINUOUS
 62
     2
100
AcDbLine
 10
2498.000000000086
 20
1687.0000000001
 30
0.0
 11
2498.000000000086
 21
2806.163889660165
 31
0.0
  0
ARC
  5
2F2
330
1F
100
AcDbEntity
  8
化粧台
  6
CONTINUOUS
 62
     2
100
AcDbCircle
 10
2461.000000000086
 20
2706.853747659276
 30
0.0
 40
3.000000000000002
100
AcDbArc
 50
180.0
 51
267.1375947738941
  0
LINE
  5
2F3
330
1F
100
AcDbEntity
  8
化粧台
  6
CONTINUOUS
 62
     2
100
AcDbLine
 10
2498.000000000086
 20
2702.0000000001
 30
0.0
 11
2460.850187149254
 21
2703.857490642642
 31
0.0
  0
LINE
  5
2F4
330
1F
100
AcDbEntity
  8
化粧台
  6
CONTINUOUS
 62
     2
100
AcDbLine
 10
2458.000000000086
 20
2802.47506218954
 30
0.0
 11
2458.000000000086
 21
2706.853747659276
 31
0.0
  0
ARC
  5
2F5
330
1F
100
AcDbEntity
  8
化粧台
  6
CONTINUOUS
 62
     2
100
AcDbCircle
 10
2503.000000000086
 20
2806.163889660165
 30
0.0
 40
5.0
100
AcDbArc
 50
91.90915243299736
 51
180.0
  0
ARC
  5
2F6
330
1F
100
AcDbEntity
  8
化粧台
  6
CONTINUOUS
 62
     2
100
AcDbCircle
 10
2463.000000000086
 20
2802.47506218954
 30
0.0
 40
5.0
100
AcDbArc
 50
95.7105931375006
 51
180.0
  0
LINE
  5
2F7
330
1F
100
AcDbEntity
  8
化粧台
  6
CONTINUOUS
 62
     2
100
AcDbLine
 10
2462.502481404982
 20
2807.450248140589
 30
0.0
 11
2498.000000000086
 21
2811.0000000001
 31
0.0
  0
LINE
  5
2F8
330
1F
100
AcDbEntity
  8
化粧台
  6
CONTINUOUS
 62
     2
100
AcDbLine
 10
2478.000000000086
 20
2449.175675675775
 30
0.0
 11
2478.000000000086
 21
2249.0000000001
 31
0.0
  0
LINE
  5
2F9
330
1F
100
AcDbEntity
  8
化粧台
  6
CONTINUOUS
 62
     2
100
AcDbLine
 10
2405.500000000086
 20
1942.0000000001
 30
0.0
 11
2405.500000000086
 21
1907.5000000001
 31
0.0
  0
LINE
  5
2FA
330
1F
100
AcDbEntity
  8
化粧台
  6
CONTINUOUS
 62
     2
100
AcDbLine
 10
2404.500000000086
 20
1947.0000000001
 30
0.0
 11
2498.000000000086
 21
1947.0000000001
 31
0.0
  0
LINE
  5
2FB
330
1F
100
AcDbEntity
  8
化粧台
  6
CONTINUOUS
 62
     2
100
AcDbLine
 10
2405.500000000086
 20
1907.5000000001
 30
0.0
 11
2498.000000000086
 21
1890.5000000001
 31
0.0
  0
LINE
  5
2FC
330
1F
100
AcDbEntity
  8
化粧台
  6
CONTINUOUS
 62
     2
100
AcDbLine
 10
2404.500000000086
 20
1947.0000000001
 30
0.0
 11
2404.500000000086
 21
1942.0000000001
 31
0.0
  0
LINE
  5
2FD
330
1F
100
AcDbEntity
  8
化粧台
  6
CONTINUOUS
 62
     2
100
AcDbLine
 10
2405.500000000086
 20
2244.0000000001
 30
0.0
 11
2405.500000000086
 21
2209.5000000001
 31
0.0
  0
LINE
  5
2FE
330
1F
100
AcDbEntity
  8
化粧台
  6
CONTINUOUS
 62
     2
100
AcDbLine
 10
2404.500000000086
 20
2249.0000000001
 30
0.0
 11
2498.000000000086
 21
2249.0000000001
 31
0.0
  0
LINE
  5
2FF
330
1F
100
AcDbEntity
  8
化粧台
  6
CONTINUOUS
 62
     2
100
AcDbLine
 10
2405.500000000086
 20
2209.5000000001
 30
0.0
 11
2498.000000000086
 21
2192.5000000001
 31
0.0
  0
LINE
  5
300
330
1F
100
AcDbEntity
  8
化粧台
  6
CONTINUOUS
 62
     2
100
AcDbLine
 10
2404.500000000086
 20
2249.0000000001
 30
0.0
 11
2404.500000000086
 21
2244.0000000001
 31
0.0
  0
LINE
  5
301
330
1F
100
AcDbEntity
  8
化粧台
  6
CONTINUOUS
 62
     2
100
AcDbLine
 10
2405.500000000086
 20
2497.0000000001
 30
0.0
 11
2405.500000000086
 21
2462.5000000001
 31
0.0
  0
LINE
  5
302
330
1F
100
AcDbEntity
  8
化粧台
  6
CONTINUOUS
 62
     2
100
AcDbLine
 10
2404.500000000086
 20
2502.0000000001
 30
0.0
 11
2498.000000000086
 21
2502.0000000001
 31
0.0
  0
LINE
  5
303
330
1F
100
AcDbEntity
  8
化粧台
  6
CONTINUOUS
 62
     2
100
AcDbLine
 10
2405.500000000086
 20
2462.5000000001
 30
0.0
 11
2498.000000000086
 21
2445.5000000001
 31
0.0
  0
LINE
  5
304
330
1F
100
AcDbEntity
  8
化粧台
  6
CONTINUOUS
 62
     2
100
AcDbLine
 10
2404.500000000086
 20
2502.0000000001
 30
0.0
 11
2404.500000000086
 21
2497.0000000001
 31
0.0
  0
LINE
  5
305
330
1F
100
AcDbEntity
  8
化粧台
  6
CONTINUOUS
 62
     6
100
AcDbLine
 10
2351.000000000085
 20
2782.0000000001
 30
0.0
 11
2458.000000000086
 21
2782.0000000001
 31
0.0
  0
LINE
  5
306
330
1F
100
AcDbEntity
  8
化粧台
  6
CONTINUOUS
 62
     6
100
AcDbLine
 10
2351.000000000085
 20
2787.0000000001
 30
0.0
 11
2458.000000000086
 21
2787.0000000001
 31
0.0
  0
LINE
  5
307
330
1F
100
AcDbEntity
  8
化粧台
  6
CONTINUOUS
 62
     2
100
AcDbLine
 10
2351.000000000085
 20
2798.0000000001
 30
0.0
 11
2458.000000000086
 21
2798.0000000001
 31
0.0
  0
LINE
  5
308
330
1F
100
AcDbEntity
  8
化粧台
  6
CONTINUOUS
 62
     2
100
AcDbLine
 10
2351.000000000085
 20
2703.0000000001
 30
0.0
 11
2458.000000000086
 21
2708.0000000001
 31
0.0
  0
LINE
  5
309
330
1F
100
AcDbEntity
  8
化粧台
  6
CONTINUOUS
 62
     2
100
AcDbLine
 10
2351.000000000085
 20
2798.0000000001
 30
0.0
 11
2351.000000000085
 21
2703.0000000001
 31
0.0
  0
LINE
  5
30A
330
1F
100
AcDbEntity
  8
化粧台
  6
CONTINUOUS
 62
     2
100
AcDbLine
 10
2498.000000000086
 20
2811.0000000001
 30
0.0
 11
2528.000000000086
 21
2812.0000000001
 31
0.0
  0
LINE
  5
30B
330
1F
100
AcDbEntity
  8
化粧台
  6
CONTINUOUS
 62
     2
100
AcDbLine
 10
2528.000000000086
 20
1682.0000000001
 30
0.0
 11
2528.000000000086
 21
2812.0000000001
 31
0.0
  0
LINE
  5
30C
330
1F
100
AcDbEntity
  8
化粧台
  6
CONTINUOUS
 62
     6
100
AcDbLine
 10
788.0000000000894
 20
3956.8
 30
0.0
 11
788.0000000000894
 21
4019.000000000002
 31
0.0
  0
LINE
  5
30D
330
1F
100
AcDbEntity
  8
化粧台
  6
CONTINUOUS
 62
     6
100
AcDbLine
 10
788.0000000000894
 20
4004.000000000002
 30
0.0
 11
786.0000000000894
 21
3971.500000000002
 31
0.0
  0
LINE
  5
30E
330
1F
100
AcDbEntity
  8
化粧台
  6
CONTINUOUS
 62
     6
100
AcDbLine
 10
790.0000000000912
 20
3971.500000000002
 30
0.0
 11
788.0000000000894
 21
4004.000000000002
 31
0.0
  0
LINE
  5
30F
330
1F
100
AcDbEntity
  8
化粧台
  6
CONTINUOUS
 62
     6
100
AcDbLine
 10
1178.000000000088
 20
3956.8
 30
0.0
 11
1178.000000000088
 21
4019.000000000002
 31
0.0
  0
LINE
  5
310
330
1F
100
AcDbEntity
  8
化粧台
  6
CONTINUOUS
 62
     6
100
AcDbLine
 10
1178.000000000088
 20
4004.000000000002
 30
0.0
 11
1176.000000000088
 21
3971.500000000002
 31
0.0
  0
LINE
  5
311
330
1F
100
AcDbEntity
  8
化粧台
  6
CONTINUOUS
 62
     6
100
AcDbLine
 10
1180.00000000009
 20
3971.500000000002
 30
0.0
 11
1178.000000000088
 21
4004.000000000002
 31
0.0
  0
ARC
  5
312
330
1F
100
AcDbEntity
  8
化粧台
  6
CONTINUOUS
 62
     2
100
AcDbCircle
 10
688.0000000000894
 20
3946.500000000038
 30
0.0
 40
5.0
100
AcDbArc
 50
180.0
 51
270.0000000000002
  0
ARC
  5
313
330
1F
100
AcDbEntity
  8
化粧台
  6
CONTINUOUS
 62
     2
100
AcDbCircle
 10
781.2575899817696
 20
3666.500000000038
 30
0.0
 40
5.0
100
AcDbArc
 50
51.72879195205692
 51
90.00000000000004
  0
ARC
  5
314
330
1F
100
AcDbEntity
  8
化粧台
  6
CONTINUOUS
 62
     2
100
AcDbCircle
 10
688.0000000000894
 20
3676.500000000038
 30
0.0
 40
5.0
100
AcDbArc
 50
180.0
 51
270.0000000000002
  0
LINE
  5
315
330
1F
100
AcDbEntity
  8
化粧台
  6
CONTINUOUS
 62
     2
100
AcDbLine
 10
683.0000000000894
 20
3971.500000000038
 30
0.0
 11
683.0000000000894
 21
3676.500000000038
 31
0.0
  0
LINE
  5
316
330
1F
100
AcDbEntity
  8
化粧台
  6
CONTINUOUS
 62
     2
100
AcDbLine
 10
781.2575899817696
 20
3671.500000000038
 30
0.0
 11
688.0000000000894
 21
3671.500000000038
 31
0.0
  0
ELLIPSE
  5
317
330
1F
100
AcDbEntity
  8
化粧台
  6
CONTINUOUS
 62
     2
100
AcDbEllipse
 10
983.0000000000894
 20
3917.67389827691
 30
0.0
 11
12.00000000000001
 21
0.0
 31
0.0
210
0.0
220
0.0
230
1.0
 40
0.2903763590166665
 41
0.0
 42
6.283185307179586
  0
LINE
  5
318
330
1F
100
AcDbEntity
  8
化粧台
  6
CONTINUOUS
 62
     6
100
AcDbLine
 10
998.0000000000894
 20
3917.673898276938
 30
0.0
 11
968.0000000000894
 21
3917.673898276938
 31
0.0
  0
ARC
  5
319
330
1F
100
AcDbEntity
  8
化粧台
  6
CONTINUOUS
 62
     2
100
AcDbCircle
 10
983.0000000000894
 20
4009.4721187686
 30
0.0
 40
112.9721187685906
100
AcDbArc
 50
224.0817618104601
 51
315.9182381895401
  0
ARC
  5
31A
330
1F
100
AcDbEntity
  8
化粧台
  6
CONTINUOUS
 62
     2
100
AcDbCircle
 10
1278.000000000088
 20
3946.500000000038
 30
0.0
 40
5.0
100
AcDbArc
 50
270.0000000000002
 51
0.0
  0
LINE
  5
31B
330
1F
100
AcDbEntity
  8
化粧台
  6
CONTINUOUS
 62
     2
100
AcDbLine
 10
688.0000000000894
 20
3941.500000000038
 30
0.0
 11
1278.000000000088
 21
3941.500000000038
 31
0.0
  0
LINE
  5
31C
330
1F
100
AcDbEntity
  8
化粧台
  6
CONTINUOUS
 62
     2
100
AcDbLine
 10
683.0000000000894
 20
3971.500000000038
 30
0.0
 11
1283.000000000088
 21
3971.500000000038
 31
0.0
  0
ARC
  5
31D
330
1F
100
AcDbEntity
  8
化粧台
  6
CONTINUOUS
 62
     2
100
AcDbCircle
 10
1184.742410018408
 20
3666.500000000038
 30
0.0
 40
5.0
100
AcDbArc
 50
90.00000000000004
 51
128.2712080479444
  0
LINE
  5
31E
330
1F
100
AcDbEntity
  8
化粧台
  6
EXLTYPE3
 62
     6
100
AcDbLine
 10
1166.000000000088
 20
3871.500000000038
 30
0.0
 11
1210.000000000088
 21
3871.500000000038
 31
0.0
  0
LINE
  5
31F
330
1F
100
AcDbEntity
  8
化粧台
  6
EXLTYPE3
 62
     6
100
AcDbLine
 10
1188.000000000088
 20
3849.500000000038
 30
0.0
 11
1188.000000000088
 21
3893.500000000038
 31
0.0
  0
ARC
  5
320
330
1F
100
AcDbEntity
  8
化粧台
  6
CONTINUOUS
 62
     2
100
AcDbCircle
 10
1278.000000000088
 20
3676.500000000038
 30
0.0
 40
5.0
100
AcDbArc
 50
270.0000000000002
 51
0.0
  0
ARC
  5
321
330
1F
100
AcDbEntity
  8
化粧台
  6
CONTINUOUS
 62
     2
100
AcDbCircle
 10
983.0000000000894
 20
3922.214285714324
 30
0.0
 40
320.7142857142863
100
AcDbArc
 50
231.7287919520556
 51
308.2712080479444
  0
LINE
  5
322
330
1F
100
AcDbEntity
  8
化粧台
  6
CONTINUOUS
 62
     2
100
AcDbLine
 10
1283.000000000088
 20
3971.500000000038
 30
0.0
 11
1283.000000000088
 21
3676.500000000038
 31
0.0
  0
LINE
  5
323
330
1F
100
AcDbEntity
  8
化粧台
  6
CONTINUOUS
 62
     2
100
AcDbLine
 10
1184.742410018408
 20
3671.500000000038
 30
0.0
 11
1278.000000000088
 21
3671.500000000038
 31
0.0
  0
LINE
  5
324
330
1F
100
AcDbEntity
  8
化粧台
  6
EXLTYPE3
 62
     6
100
AcDbLine
 10
937.5000000000894
 20
3846.500000000038
 30
0.0
 11
1028.500000000089
 21
3846.500000000038
 31
0.0
  0
ARC
  5
325
330
1F
100
AcDbEntity
  8
化粧台
  6
CONTINUOUS
 62
     2
100
AcDbCircle
 10
983.0000000000894
 20
3781.500000000038
 30
0.0
 40
170.0
100
AcDbArc
 50
29.97878780140052
 51
61.48608474031997
  0
LINE
  5
326
330
1F
100
AcDbEntity
  8
化粧台
  6
CONTINUOUS
 62
     6
100
AcDbLine
 10
1174.662461703573
 20
3846.55063230001
 30
0.0
 11
1175.800881948831
 21
3849.678416217667
 31
0.0
  0
LINE
  5
327
330
1F
100
AcDbEntity
  8
化粧台
  6
CONTINUOUS
 62
     6
100
AcDbLine
 10
1182.180002669861
 20
3843.814471153406
 30
0.0
 11
1183.31842291512
 21
3846.94225507107
 31
0.0
  0
ELLIPSE
  5
328
330
1F
100
AcDbEntity
  8
化粧台
  6
CONTINUOUS
 62
     6
100
AcDbEllipse
 10
1177.985766940477
 20
3843.986120795752
 30
0.0
 11
-7.047694655894399
 21
2.565151074942548
 31
0.0
210
0.0
220
0.0
230
1.0
 40
0.2006868301783938
 41
3.141592653589788
 42
6.283185307179586
  0
ELLIPSE
  5
329
330
1F
100
AcDbEntity
  8
化粧台
  6
CONTINUOUS
 62
     6
100
AcDbEllipse
 10
1155.38903214272
 20
3781.902102185509
 30
0.0
 11
-7.047694655894399
 21
2.565151074942548
 31
0.0
210
0.0
220
0.0
230
1.0
 40
0.2006868301783938
 41
0.0
 42
6.283185307179586
  0
LINE
  5
32A
330
1F
100
AcDbEntity
  8
化粧台
  6
CONTINUOUS
 62
     6
100
AcDbLine
 10
1165.745708475958
 20
3888.967323355522
 30
0.0
 11
1168.628289726806
 21
3887.303064294372
 31
0.0
  0
LINE
  5
32B
330
1F
100
AcDbEntity
  8
化粧台
  6
CONTINUOUS
 62
     6
100
AcDbLine
 10
1161.745708475958
 20
3882.039120125248
 30
0.0
 11
1164.628289726813
 21
3880.374861064092
 31
0.0
  0
ELLIPSE
  5
32C
330
1F
100
AcDbEntity
  8
化粧台
  6
CONTINUOUS
 62
     6
100
AcDbEllipse
 10
1162.643071765656
 20
3886.139829341916
 30
0.0
 11
3.750000000000112
 21
6.495190528383489
 31
0.0
210
0.0
220
0.0
230
1.0
 40
0.2006868301783902
 41
3.141592653589788
 42
6.283185307179586
  0
ELLIPSE
  5
32D
330
1F
100
AcDbEntity
  8
化粧台
  6
CONTINUOUS
 62
     6
100
AcDbEllipse
 10
1105.42613071899
 20
3919.174045657416
 30
0.0
 11
3.750000000000112
 21
6.495190528383489
 31
0.0
210
0.0
220
0.0
230
1.0
 40
0.2006868301783902
 41
0.0
 42
6.283185307179586
  0
LINE
  5
32E
330
1F
100
AcDbEntity
  8
化粧台
  6
CONTINUOUS
 62
     6
100
AcDbLine
 10
1160.314471153322
 20
3865.680002669812
 30
0.0
 11
1163.442255070985
 21
3866.818422915047
 31
0.0
  0
LINE
  5
32F
330
1F
100
AcDbEntity
  8
化粧台
  6
CONTINUOUS
 62
     6
100
AcDbLine
 10
1163.050632299926
 20
3858.162461703526
 30
0.0
 11
1166.178416217598
 21
3859.300881948764
 31
0.0
  0
LINE
  5
330
330
1F
100
AcDbEntity
  8
化粧台
  6
CONTINUOUS
 62
     6
100
AcDbLine
 10
1163.051271870597
 20
3854.438072284567
 30
0.0
 11
1100.967253260359
 21
3831.841337486811
 31
0.0
  0
LINE
  5
331
330
1F
100
AcDbEntity
  8
化粧台
  6
CONTINUOUS
 62
     6
100
AcDbLine
 10
1157.920969720711
 20
3868.533461596358
 30
0.0
 11
1095.836951110474
 21
3845.936726798602
 31
0.0
  0
ELLIPSE
  5
332
330
1F
100
AcDbEntity
  8
化粧台
  6
CONTINUOUS
 62
     6
100
AcDbEllipse
 10
1160.486120795654
 20
3861.48576694046
 30
0.0
 11
-2.56515107494252
 21
7.047694655894312
 31
0.0
210
0.0
220
0.0
230
1.0
 40
0.2006868301783963
 41
3.141592653589788
 42
6.283185307179586
  0
ARC
  5
333
330
1F
100
AcDbEntity
  8
化粧台
  6
CONTINUOUS
 62
     6
100
AcDbCircle
 10
1187.999999999968
 20
3871.500000000025
 30
0.0
 40
27.00000000000002
100
AcDbArc
 50
233.7489885958695
 51
166.2510114040933
  0
LINE
  5
334
330
1F
100
AcDbEntity
  8
化粧台
  6
CONTINUOUS
 62
     6
100
AcDbLine
 10
1079.154223073047
 20
3815.920710485913
 30
0.0
 11
1174.336449734138
 21
3850.564207821732
 31
0.0
  0
LINE
  5
335
330
1F
100
AcDbEntity
  8
化粧台
  6
CONTINUOUS
 62
     6
100
AcDbLine
 10
1068.893618773275
 20
3844.111489109492
 30
0.0
 11
1164.075845434379
 21
3878.754986445313
 31
0.0
  0
CIRCLE
  5
336
330
1F
100
AcDbEntity
  8
化粧台
  6
CONTINUOUS
 62
     6
100
AcDbCircle
 10
1187.999999999968
 20
3871.500000000025
 30
0.0
 40
24.99999999999103
  0
ELLIPSE
  5
337
330
1F
100
AcDbEntity
  8
化粧台
  6
CONTINUOUS
 62
     6
100
AcDbEllipse
 10
1098.402102185413
 20
3838.889032142703
 30
0.0
 11
-2.56515107494252
 21
7.047694655894312
 31
0.0
210
0.0
220
0.0
230
1.0
 40
0.2006868301783963
 41
0.0
 42
6.283185307179586
  0
ELLIPSE
  5
338
330
1F
100
AcDbEntity
  8
化粧台
  6
CONTINUOUS
 62
     6
100
AcDbEllipse
 10
1074.023920923162
 20
3830.016099797696
 30
0.0
 11
-5.130302149885037
 21
14.09538931178862
 31
0.0
210
0.0
220
0.0
230
1.0
 40
0.2032242918773345
 41
0.0
 42
6.283185307179586
  0
ARC
  5
339
330
1F
100
AcDbEntity
  8
化粧台
  6
CONTINUOUS
 62
     6
100
AcDbCircle
 10
688.0000000000894
 20
3938.433478461557
 30
0.0
 40
5.0
100
AcDbArc
 50
180.0
 51
264.2241517557764
  0
LINE
  5
33A
330
1F
100
AcDbEntity
  8
化粧台
  6
CONTINUOUS
 62
     6
100
AcDbLine
 10
698.0000000001312
 20
3932.39646065621
 30
0.0
 11
687.4968154076817
 21
3933.458862369238
 31
0.0
  0
LINE
  5
33B
330
1F
100
AcDbEntity
  8
化粧台
  6
CONTINUOUS
 62
     6
100
AcDbLine
 10
901.8467290691699
 20
3930.87920409891
 30
0.0
 11
698.0000000001312
 21
3932.39646065621
 31
0.0
  0
LINE
  5
33C
330
1F
100
AcDbEntity
  8
化粧台
  6
CONTINUOUS
 62
     6
100
AcDbLine
 10
698.0000000000894
 20
3932.396460656214
 30
0.0
 11
698.0000000000894
 21
3671.500000000038
 31
0.0
  0
LINE
  5
33D
330
1F
100
AcDbEntity
  8
化粧台
  6
CONTINUOUS
 62
     6
100
AcDbLine
 10
1064.153270931009
 20
3930.87920409891
 30
0.0
 11
1268.000000000048
 21
3932.39646065621
 31
0.0
  0
LINE
  5
33E
330
1F
100
AcDbEntity
  8
化粧台
  6
CONTINUOUS
 62
     6
100
AcDbLine
 10
1268.000000000048
 20
3932.39646065621
 30
0.0
 11
1278.503184592496
 21
3933.458862369238
 31
0.0
  0
ARC
  5
33F
330
1F
100
AcDbEntity
  8
化粧台
  6
CONTINUOUS
 62
     6
100
AcDbCircle
 10
1278.000000000088
 20
3938.433478461557
 30
0.0
 40
5.0
100
AcDbArc
 50
275.7758482442237
 51
0.0
  0
LINE
  5
340
330
1F
100
AcDbEntity
  8
化粧台
  6
CONTINUOUS
 62
     6
100
AcDbLine
 10
1268.000000000088
 20
3932.396460656214
 30
0.0
 11
1268.000000000088
 21
3671.500000000038
 31
0.0
  0
LINE
  5
341
330
1F
100
AcDbEntity
  8
化粧台
  6
CONTINUOUS
 62
     6
100
AcDbLine
 10
1193.000000000088
 20
3908.55
 30
0.0
 11
1193.000000000088
 21
4053.3
 31
0.0
  0
LINE
  5
342
330
1F
100
AcDbEntity
  8
化粧台
  6
CONTINUOUS
 62
     6
100
AcDbLine
 10
1103.000000000088
 20
3949.8
 30
0.0
 11
1103.000000000088
 21
4011.9
 31
0.0
  0
LINE
  5
343
330
1F
100
AcDbEntity
  8
化粧台
  6
CONTINUOUS
 62
     6
100
AcDbLine
 10
1182.50000000009
 20
3979.5
 30
0.0
 11
1203.500000000088
 21
3979.5
 31
0.0
  0
LINE
  5
344
330
1F
100
AcDbEntity
  8
化粧台
  6
CONTINUOUS
 62
     6
100
AcDbLine
 10
1203.500000000088
 20
3971.5
 30
0.0
 11
1203.500000000088
 21
3979.5
 31
0.0
  0
LINE
  5
345
330
1F
100
AcDbEntity
  8
化粧台
  6
CONTINUOUS
 62
     6
100
AcDbLine
 10
1182.50000000009
 20
3971.5
 30
0.0
 11
1182.50000000009
 21
3979.5
 31
0.0
  0
LINE
  5
346
330
1F
100
AcDbEntity
  8
化粧台
  6
CONTINUOUS
 62
     6
100
AcDbLine
 10
1193.000000000088
 20
3956.5
 30
0.0
 11
1193.000000000088
 21
3994.5
 31
0.0
  0
LINE
  5
347
330
1F
100
AcDbEntity
  8
化粧台
  6
CONTINUOUS
 62
     6
100
AcDbLine
 10
1092.500000000091
 20
3979.5
 30
0.0
 11
1113.500000000091
 21
3979.5
 31
0.0
  0
LINE
  5
348
330
1F
100
AcDbEntity
  8
化粧台
  6
CONTINUOUS
 62
     6
100
AcDbLine
 10
1113.500000000091
 20
3971.5
 30
0.0
 11
1113.500000000091
 21
3979.5
 31
0.0
  0
LINE
  5
349
330
1F
100
AcDbEntity
  8
化粧台
  6
CONTINUOUS
 62
     6
100
AcDbLine
 10
1092.500000000091
 20
3971.5
 30
0.0
 11
1092.500000000091
 21
3979.5
 31
0.0
  0
LINE
  5
34A
330
1F
100
AcDbEntity
  8
化粧台
  6
CONTINUOUS
 62
     6
100
AcDbLine
 10
1103.000000000089
 20
3956.5
 30
0.0
 11
1103.000000000089
 21
3994.5
 31
0.0
  0
LINE
  5
34B
330
1F
100
AcDbEntity
  8
化粧台
  6
CONTINUOUS
 62
     6
100
AcDbLine
 10
1006.700000000127
 20
3991.5
 30
0.0
 11
1038.700000000126
 21
3991.5
 31
0.0
  0
LINE
  5
34C
330
1F
100
AcDbEntity
  8
化粧台
  6
CONTINUOUS
 62
     6
100
AcDbLine
 10
1006.700000000127
 20
3991.5
 30
0.0
 11
1006.700000000127
 21
3971.5
 31
0.0
  0
LINE
  5
34D
330
1F
100
AcDbEntity
  8
化粧台
  6
CONTINUOUS
 62
     6
100
AcDbLine
 10
1038.700000000126
 20
3991.5
 30
0.0
 11
1038.700000000126
 21
3971.5
 31
0.0
  0
CIRCLE
  5
34E
330
1F
100
AcDbEntity
  8
化粧台
  6
CONTINUOUS
 62
     6
100
AcDbCircle
 10
983.0000000000803
 20
3846.500000000029
 30
0.0
 40
30.50000000000002
  0
CIRCLE
  5
34F
330
1F
100
AcDbEntity
  8
化粧台
  6
CONTINUOUS
 62
     6
100
AcDbCircle
 10
983.0000000000803
 20
3846.500000000029
 30
0.0
 40
20.5
  0
LINE
  5
350
330
1F
100
AcDbEntity
  8
化粧台
  6
EXLTYPE3
 62
     6
100
AcDbLine
 10
937.5000000000803
 20
3846.500000000029
 30
0.0
 11
1028.50000000008
 21
3846.500000000029
 31
0.0
  0
CIRCLE
  5
351
330
1F
100
AcDbEntity
  8
化粧台
  6
CONTINUOUS
 62
     6
100
AcDbCircle
 10
1005.544414420546
 20
3883.654982783959
 30
0.0
 40
2.1000366
  0
CIRCLE
  5
352
330
1F
100
AcDbEntity
  8
化粧台
  6
CONTINUOUS
 62
     6
100
AcDbCircle
 10
1002.716533540546
 20
3887.265295223959
 30
0.0
 40
2.1000366
  0
CIRCLE
  5
353
330
1F
100
AcDbEntity
  8
化粧台
  6
CONTINUOUS
 62
     6
100
AcDbCircle
 10
1026.413691700546
 20
3853.986623423959
 30
0.0
 40
2.1000366
  0
CIRCLE
  5
354
330
1F
100
AcDbEntity
  8
化粧台
  6
CONTINUOUS
 62
     6
100
AcDbCircle
 10
1021.845576460546
 20
3852.899709263959
 30
0.0
 40
2.1000366
  0
CIRCLE
  5
355
330
1F
100
AcDbEntity
  8
化粧台
  6
CONTINUOUS
 62
     6
100
AcDbCircle
 10
1017.929866060546
 20
3856.816701503959
 30
0.0
 40
2.1000366
  0
CIRCLE
  5
356
330
1F
100
AcDbEntity
  8
化粧台
  6
CONTINUOUS
 62
     6
100
AcDbCircle
 10
1015.754573020546
 20
3860.947560863959
 30
0.0
 40
2.1000366
  0
CIRCLE
  5
357
330
1F
100
AcDbEntity
  8
化粧台
  6
CONTINUOUS
 62
     6
100
AcDbCircle
 10
1013.579096980546
 20
3865.298146823959
 30
0.0
 40
2.1000366
  0
CIRCLE
  5
358
330
1F
100
AcDbEntity
  8
化粧台
  6
CONTINUOUS
 62
     6
100
AcDbCircle
 10
1011.621333340546
 20
3870.302053103959
 30
0.0
 40
2.1000366
  0
CIRCLE
  5
359
330
1F
100
AcDbEntity
  8
化粧台
  6
CONTINUOUS
 62
     6
100
AcDbCircle
 10
1009.663569700546
 20
3875.089162463959
 30
0.0
 40
2.1000366
  0
CIRCLE
  5
35A
330
1F
100
AcDbEntity
  8
化粧台
  6
CONTINUOUS
 62
     6
100
AcDbCircle
 10
1008.140681500546
 20
3879.873342143959
 30
0.0
 40
2.1000366
  0
CIRCLE
  5
35B
330
1F
100
AcDbEntity
  8
化粧台
  6
CONTINUOUS
 62
     6
100
AcDbCircle
 10
998.5536453405459
 20
3888.794240543959
 30
0.0
 40
2.1000366
  0
CIRCLE
  5
35C
330
1F
100
AcDbEntity
  8
化粧台
  6
CONTINUOUS
 62
     6
100
AcDbCircle
 10
993.3329421405454
 20
3887.924123423959
 30
0.0
 40
2.1000366
  0
CIRCLE
  5
35D
330
1F
100
AcDbEntity
  8
化粧台
  6
CONTINUOUS
 62
     6
100
AcDbCircle
 10
989.4172317405457
 20
3884.223928103959
 30
0.0
 40
2.1000366
  0
CIRCLE
  5
35E
330
1F
100
AcDbEntity
  8
化粧台
  6
CONTINUOUS
 62
     6
100
AcDbCircle
 10
984.4138748205462
 20
3881.833303103959
 30
0.0
 40
2.1000366
  0
CIRCLE
  5
35F
330
1F
100
AcDbEntity
  8
化粧台
  6
CONTINUOUS
 62
     6
100
AcDbCircle
 10
981.3684646605454
 20
3877.262990543959
 30
0.0
 40
2.1000366
  0
CIRCLE
  5
360
330
1F
100
AcDbEntity
  8
化粧台
  6
CONTINUOUS
 62
     6
100
AcDbCircle
 10
980.2806350205458
 20
3871.608693623959
 30
0.0
 40
2.1000366
  0
CIRCLE
  5
361
330
1F
100
AcDbEntity
  8
化粧台
  6
CONTINUOUS
 62
     6
100
AcDbCircle
 10
980.7158768205456
 20
3866.604787463959
 30
0.0
 40
2.1000366
  0
ARC
  5
362
330
1F
100
AcDbEntity
  8
化粧台
  6
CONTINUOUS
 62
     6
100
AcDbCircle
 10
983.0076248205462
 20
3855.050099903959
 30
0.0
 40
10.08007044000001
100
AcDbArc
 50
290.361129760002
 51
249.6389617899985
  0
ARC
  5
363
330
1F
100
AcDbEntity
  8
化粧台
  6
CONTINUOUS
 62
     6
100
AcDbCircle
 10
983.0076248205462
 20
3855.050099903959
 30
0.0
 40
8.639966040000004
100
AcDbArc
 50
294.0516357400017
 51
245.9483642599983
  0
CIRCLE
  5
364
330
1F
100
AcDbEntity
  8
化粧台
  6
CONTINUOUS
 62
     6
100
AcDbCircle
 10
983.0076248205462
 20
3846.410451503959
 30
0.0
 40
3.600036600000004
  0
LINE
  5
365
330
1F
100
AcDbEntity
  8
化粧台
  6
CONTINUOUS
 62
     6
100
AcDbLine
 10
1031.007624820546
 20
3846.410451503959
 30
0.0
 11
987.676997380546
 21
3846.410451503959
 31
0.0
  0
CIRCLE
  5
366
330
1F
100
AcDbEntity
  8
化粧台
  6
CONTINUOUS
 62
     6
100
AcDbCircle
 10
1043.228563315635
 20
3858.882764427241
 30
0.0
 40
2.1000366
  0
CIRCLE
  5
367
330
1F
100
AcDbEntity
  8
化粧台
  6
CONTINUOUS
 62
     6
100
AcDbCircle
 10
1048.016005680616
 20
3860.875895735342
 30
0.0
 40
2.1000366
  0
CIRCLE
  5
368
330
1F
100
AcDbEntity
  8
化粧台
  6
CONTINUOUS
 62
     6
100
AcDbCircle
 10
1039.543061041626
 20
3856.055799635542
 30
0.0
 40
2.1000366
  0
CIRCLE
  5
369
330
1F
100
AcDbEntity
  8
化粧台
  6
CONTINUOUS
 62
     6
100
AcDbCircle
 10
1035.975414295496
 20
3853.017370012243
 30
0.0
 40
2.1000366
  0
CIRCLE
  5
36A
330
1F
100
AcDbEntity
  8
化粧台
  6
CONTINUOUS
 62
     6
100
AcDbCircle
 10
1031.214046434436
 20
3853.187883693859
 30
0.0
 40
2.1000366
  0
CIRCLE
  5
36B
330
1F
100
AcDbEntity
  8
化粧台
  6
CONTINUOUS
 62
     6
100
AcDbCircle
 10
1051.512480853216
 20
3864.956395337059
 30
0.0
 40
2.1000366
  0
CIRCLE
  5
36C
330
1F
100
AcDbEntity
  8
化粧台
  6
CONTINUOUS
 62
     6
100
AcDbCircle
 10
1053.637137332237
 20
3870.079645700759
 30
0.0
 40
2.1000366
  0
CIRCLE
  5
36D
330
1F
100
AcDbEntity
  8
化粧台
  6
CONTINUOUS
 62
     6
100
AcDbCircle
 10
1055.116200034266
 20
3874.773254559159
 30
0.0
 40
2.1000366
  0
CIRCLE
  5
36E
330
1F
100
AcDbEntity
  8
化粧台
  6
CONTINUOUS
 62
     6
100
AcDbCircle
 10
1057.795840335076
 20
3885.210754647459
 30
0.0
 40
2.1000366
  0
CIRCLE
  5
36F
330
1F
100
AcDbEntity
  8
化粧台
  6
CONTINUOUS
 62
     6
100
AcDbCircle
 10
1057.143252495076
 20
3879.553528047459
 30
0.0
 40
2.1000366
  0
CIRCLE
  5
370
330
1F
100
AcDbEntity
  8
化粧台
  6
CONTINUOUS
 62
     6
100
AcDbCircle
 10
1077.519814141346
 20
3888.772113773859
 30
0.0
 40
2.1000366
  0
CIRCLE
  5
371
330
1F
100
AcDbEntity
  8
化粧台
  6
CONTINUOUS
 62
     6
100
AcDbCircle
 10
1081.541763648717
 20
3886.142529433642
 30
0.0
 40
2.1000366
  0
CIRCLE
  5
372
330
1F
100
AcDbEntity
  8
化粧台
  6
CONTINUOUS
 62
     6
100
AcDbCircle
 10
1072.558697672106
 20
3890.291123057759
 30
0.0
 40
2.1000366
  0
CIRCLE
  5
373
330
1F
100
AcDbEntity
  8
化粧台
  6
CONTINUOUS
 62
     6
100
AcDbCircle
 10
1067.729900962439
 20
3890.316715952558
 30
0.0
 40
2.1000366
  0
CIRCLE
  5
374
330
1F
100
AcDbEntity
  8
化粧台
  6
CONTINUOUS
 62
     6
100
AcDbCircle
 10
1062.951913319212
 20
3888.912017984499
 30
0.0
 40
2.1000366
  0
CIRCLE
  5
375
330
1F
100
AcDbEntity
  8
化粧台
  6
CONTINUOUS
 62
     6
100
AcDbCircle
 10
1085.700165997556
 20
3883.269457354342
 30
0.0
 40
2.1000366
  0
CIRCLE
  5
376
330
1F
100
AcDbEntity
  8
化粧台
  6
CONTINUOUS
 62
     6
100
AcDbCircle
 10
1090.174802680326
 20
3881.439026258842
 30
0.0
 40
2.1000366
  0
CIRCLE
  5
377
330
1F
100
AcDbEntity
  8
化粧台
  6
CONTINUOUS
 62
     6
100
AcDbCircle
 10
1095.153803776286
 20
3879.972542075642
 30
0.0
 40
2.1000366
  0
CIRCLE
  5
378
330
1F
100
AcDbEntity
  8
化粧台
  6
CONTINUOUS
 62
     6
100
AcDbCircle
 10
1100.036062717525
 20
3878.676218052642
 30
0.0
 40
2.1000366
  0
CIRCLE
  5
379
330
1F
100
AcDbEntity
  8
化粧台
  6
CONTINUOUS
 62
     6
100
AcDbCircle
 10
1110.193803407227
 20
3875.360789394858
 30
0.0
 40
2.1000366
  0
CIRCLE
  5
37A
330
1F
100
AcDbEntity
  8
化粧台
  6
CONTINUOUS
 62
     6
100
AcDbCircle
 10
1114.215752914595
 20
3872.731205054642
 30
0.0
 40
2.1000366
  0
CIRCLE
  5
37B
330
1F
100
AcDbEntity
  8
化粧台
  6
CONTINUOUS
 62
     6
100
AcDbCircle
 10
1105.232686937986
 20
3876.879798678759
 30
0.0
 40
2.1000366
  0
CIRCLE
  5
37C
330
1F
100
AcDbEntity
  8
化粧台
  6
CONTINUOUS
 62
     6
100
AcDbCircle
 10
1118.374155263436
 20
3869.858132975342
 30
0.0
 40
2.1000366
  0
CIRCLE
  5
37D
330
1F
100
AcDbEntity
  8
化粧台
  6
CONTINUOUS
 62
     6
100
AcDbCircle
 10
1122.848791946205
 20
3868.027701879842
 30
0.0
 40
2.1000366
  0
ARC
  5
37E
330
1F
100
AcDbEntity
  8
化粧台
  6
CONTINUOUS
 62
     6
100
AcDbCircle
 10
1127.827793042166
 20
3866.561217696642
 30
0.0
 40
2.1000366
100
AcDbArc
 50
353.434807188079
 51
226.5651928119227
  0
LINE
  5
37F
330
1F
100
AcDbEntity
  8
化粧台
  6
EXLTYPE2
 62
     6
100
AcDbLine
 10
1185.033461596369
 20
3841.420969720809
 30
0.0
 11
1162.436726798612
 21
3779.336951110569
 31
0.0
  0
LINE
  5
380
330
1F
100
AcDbEntity
  8
化粧台
  6
EXLTYPE2
 62
     6
100
AcDbLine
 10
1170.938072284577
 20
3846.551271870695
 30
0.0
 11
1148.341337486821
 21
3784.467253260455
 31
0.0
  0
LINE
  5
381
330
1F
100
AcDbEntity
  8
化粧台
  6
EXLTYPE2
 62
     6
100
AcDbLine
 10
1158.893071765656
 20
3879.644638813534
 30
0.0
 11
1101.676130718992
 21
3912.678855129033
 31
0.0
  0
LINE
  5
382
330
1F
100
AcDbEntity
  8
化粧台
  6
EXLTYPE2
 62
     6
100
AcDbLine
 10
1166.393071765658
 20
3892.635019870303
 30
0.0
 11
1109.176130718994
 21
3925.669236185802
 31
0.0
  0
ARC
  5
383
330
1F
100
AcDbEntity
  8
化粧台
  6
CONTINUOUS
 62
     2
100
AcDbCircle
 10
983.0000000000894
 20
3781.500000000038
 30
0.0
 40
170.0
100
AcDbArc
 50
118.5139152596804
 51
19.8173968582466
  0
LINE
  5
384
330
1F
100
AcDbEntity
  8
化粧台
  6
EXLTYPE3
 62
     6
100
AcDbLine
 10
983.0000000000894
 20
3982.5
 30
0.0
 11
983.0000000000894
 21
3586.5
 31
0.0
  0
DIMENSION
  5
385
330
1F
100
AcDbEntity
  8
化粧台
  6
CONTINUOUS
 62
     3
100
AcDbDimension
  2
*D32
 10
2874.0
 20
897.0
 30
0.0
 11
2836.5
 21
1162.0
 31
0.0
 70
   160
  1
530（壁固定）
  3
ISO-25
100
AcDbAlignedDimension
 13
2574.3318784665
 23
1427.0
 33
0.0
 14
2806.5
 24
897.0
 34
0.0
 50
90.0
100
AcDbRotatedDimension
1001
ACAD
1000
DSTYLE
1002
{
1070
   270
1070
     2
1070
     6
1000
EX_NORM
1070
     7
1000
EX_NORM
1070
    41
1040
44.99999618530273
1070
    42
1040
10.49999982118607
1070
    44
1040
14.99999999999955
1070
    73
1070
     0
1070
    74
1070
     0
1070
    75
1070
     0
1070
    76
1070
     0
1070
    77
1070
     1
1070
    78
1070
     8
1070
   140
1040
59.99999618530273
1070
   147
1040
0.0
1070
   173
1070
     1
1070
   176
1070
     3
1070
   177
1070
     3
1070
   178
1070
     2
1070
   271
1070
     1
1070
   277
1070
     2
1070
   279
1070
     2
1070
   280
1070
     0
1070
   287
1070
     5
1070
   340
1005
11B
1002
}
  0
POLYLINE
  5
392
330
1F
100
AcDbEntity
  8
化粧台
  6
CONTINUOUS
 62
     3
100
AcDb2dPolyline
 66
     1
 10
0.0
 20
0.0
 30
0.0
 70
   128
  0
VERTEX
  5
393
330
392
100
AcDbEntity
  8
化粧台
  6
CONTINUOUS
 62
     3
100
AcDbVertex
100
AcDb2dVertex
 10
591.4999999999848
 20
897.0
 30
0.0
  0
VERTEX
  5
394
330
392
100
AcDbEntity
  8
化粧台
  6
CONTINUOUS
 62
     3
100
AcDbVertex
100
AcDb2dVertex
 10
572.4999999999848
 20
946.0
 30
0.0
  0
SEQEND
  5
395
330
392
100
AcDbEntity
  8
化粧台
  6
CONTINUOUS
 62
     3
  0
LINE
  5
396
330
1F
100
AcDbEntity
  8
化粧台
  6
CONTINUOUS
 62
     3
100
AcDbLine
 10
568.2385367307695
 20
936.2447999940749
 30
0.0
 11
591.4999999999848
 21
897.0
 31
0.0
  0
LINE
  5
397
330
1F
100
AcDbEntity
  8
化粧台
  6
CONTINUOUS
 62
     3
100
AcDbLine
 10
591.4999999999848
 20
897.0
 30
0.0
 11
582.2239563650215
 21
941.667717811438
 31
0.0
  0
TEXT
  5
398
330
1F
100
AcDbEntity
  8
化粧台
  6
CONTINUOUS
 62
     2
100
AcDbText
 10
464.9999999999848
 20
897.0
 30
0.0
 40
59.99999618530273
  1
F.L.
 41
0.6227488631227183
  7
EXCADSTD
 72
     5
 11
555.7433999999848
 21
897.0
 31
0.0
100
AcDbText
  0
LINE
  5
399
330
1F
100
AcDbEntity
  8
化粧台
  6
EXLTYPE4
 62
     6
100
AcDbLine
 10
1792.000000000085
 20
897.0
 30
0.0
 11
451.5
 21
896.9999999999999
 31
0.0
  0
LINE
  5
39A
330
1F
100
AcDbEntity
  8
化粧台
  6
EXLTYPE3
 62
     6
100
AcDbLine
 10
983.0000000000495
 20
2854.5
 30
0.0
 11
983.0000000000495
 21
887.0000000000391
 31
0.0
  0
LINE
  5
39B
330
1F
100
AcDbEntity
  8
化粧台
  6
CONTINUOUS
 62
     6
100
AcDbLine
 10
782.7
 20
1731.999983310809
 30
0.0
 11
733.0000025146494
 21
1731.999983310809
 31
0.0
  0
LINE
  5
39C
330
1F
100
AcDbEntity
  8
化粧台
  6
CONTINUOUS
 62
     3
100
AcDbLine
 10
982.0000000000509
 20
995.4999998808307
 30
0.0
 11
982.0000000000509
 21
1085.000000119209
 31
0.0
  0
LINE
  5
39D
330
1F
100
AcDbEntity
  8
化粧台
  6
CONTINUOUS
 62
     3
100
AcDbLine
 10
984.000000000091
 20
995.4999998807907
 30
0.0
 11
984.000000000091
 21
1084.799999713898
 31
0.0
  0
LINE
  5
39E
330
1F
100
AcDbEntity
  8
化粧台
  6
EXLTYPE2
 62
     6
100
AcDbLine
 10
983.0000000000919
 20
1459.00000000004
 30
0.0
 11
983.0000000000919
 21
1476.00000000004
 31
0.0
  0
LINE
  5
39F
330
1F
100
AcDbEntity
  8
化粧台
  6
EXLTYPE2
 62
     6
100
AcDbLine
 10
948.0000000000919
 20
1476.00000000004
 30
0.0
 11
1018.000000000092
 21
1476.00000000004
 31
0.0
  0
ARC
  5
3A0
330
1F
100
AcDbEntity
  8
化粧台
  6
EXLTYPE2
 62
     6
100
AcDbCircle
 10
1007.251837728091
 20
1460.385594593441
 30
0.0
 40
4.385594593380002
100
AcDbArc
 50
198.4177055184001
 51
270.0000000000002
  0
LINE
  5
3A1
330
1F
100
AcDbEntity
  8
化粧台
  6
EXLTYPE2
 62
     6
100
AcDbLine
 10
1003.090880199093
 20
1459.00000000004
 30
0.0
 11
1003.090880199093
 21
1476.00000000004
 31
0.0
  0
ARC
  5
3A2
330
1F
100
AcDbEntity
  8
化粧台
  6
EXLTYPE2
 62
     6
100
AcDbCircle
 10
993.0454401000907
 20
1474.318477799141
 30
0.0
 40
18.31847779905
100
AcDbArc
 50
236.7442298452004
 51
303.2557701548001
  0
ARC
  5
3A3
330
1F
100
AcDbEntity
  8
化粧台
  6
EXLTYPE2
 62
     6
100
AcDbCircle
 10
972.954559900093
 20
1474.318477799141
 30
0.0
 40
18.31847779905
100
AcDbArc
 50
236.7442298452004
 51
303.2557701548001
  0
LINE
  5
3A4
330
1F
100
AcDbEntity
  8
化粧台
  6
EXLTYPE2
 62
     6
100
AcDbLine
 10
962.909119801091
 20
1459.00000000004
 30
0.0
 11
962.909119801091
 21
1476.00000000004
 31
0.0
  0
ARC
  5
3A5
330
1F
100
AcDbEntity
  8
化粧台
  6
EXLTYPE2
 62
     6
100
AcDbCircle
 10
958.7481622720925
 20
1460.385594593441
 30
0.0
 40
4.385594593380002
100
AcDbArc
 50
270.0000000000002
 51
341.5822944816002
  0
LINE
  5
3A6
330
1F
100
AcDbEntity
  8
化粧台
  6
EXLTYPE2
 62
     6
100
AcDbLine
 10
1018.000000000092
 20
1483.50000000004
 30
0.0
 11
1013.813953488462
 21
1486.50000000004
 31
0.0
  0
LINE
  5
3A7
330
1F
100
AcDbEntity
  8
化粧台
  6
EXLTYPE2
 62
     6
100
AcDbLine
 10
948.0000000000919
 20
1483.50000000004
 30
0.0
 11
952.1860465117215
 21
1486.50000000004
 31
0.0
  0
LINE
  5
3A8
330
1F
100
AcDbEntity
  8
化粧台
  6
EXLTYPE2
 62
     6
100
AcDbLine
 10
1018.000000000092
 20
1483.50000000004
 30
0.0
 11
1018.000000000092
 21
1476.00000000004
 31
0.0
  0
LINE
  5
3A9
330
1F
100
AcDbEntity
  8
化粧台
  6
EXLTYPE2
 62
     6
100
AcDbLine
 10
948.0000000000919
 20
1483.50000000004
 30
0.0
 11
948.0000000000919
 21
1476.00000000004
 31
0.0
  0
LINE
  5
3AA
330
1F
100
AcDbEntity
  8
化粧台
  6
EXLTYPE2
 62
     6
100
AcDbLine
 10
1011.412795258094
 20
1459.00000000004
 30
0.0
 11
1009.250000000092
 21
1456.00000000004
 31
0.0
  0
LINE
  5
3AB
330
1F
100
AcDbEntity
  8
化粧台
  6
EXLTYPE2
 62
     6
100
AcDbLine
 10
1011.412795258094
 20
1476.00000000004
 30
0.0
 11
1011.412795258094
 21
1459.00000000004
 31
0.0
  0
LINE
  5
3AC
330
1F
100
AcDbEntity
  8
化粧台
  6
EXLTYPE2
 62
     6
100
AcDbLine
 10
1009.250000000092
 20
1456.00000000004
 30
0.0
 11
1009.250000000092
 21
1431.50000000004
 31
0.0
  0
LINE
  5
3AD
330
1F
100
AcDbEntity
  8
化粧台
  6
EXLTYPE2
 62
     6
100
AcDbLine
 10
998.7500000000919
 20
1422.50000000004
 30
0.0
 11
998.7500000000919
 21
1376.50000000004
 31
0.0
  0
LINE
  5
3AE
330
1F
100
AcDbEntity
  8
化粧台
  6
EXLTYPE2
 62
     6
100
AcDbLine
 10
954.5872047420935
 20
1459.00000000004
 30
0.0
 11
956.7500000000919
 21
1456.00000000004
 31
0.0
  0
LINE
  5
3AF
330
1F
100
AcDbEntity
  8
化粧台
  6
EXLTYPE2
 62
     6
100
AcDbLine
 10
954.5872047420935
 20
1476.00000000004
 30
0.0
 11
954.5872047420935
 21
1459.00000000004
 31
0.0
  0
LINE
  5
3B0
330
1F
100
AcDbEntity
  8
化粧台
  6
EXLTYPE2
 62
     6
100
AcDbLine
 10
967.2500000000919
 20
1422.50000000004
 30
0.0
 11
967.2500000000919
 21
1376.50000000004
 31
0.0
  0
LINE
  5
3B1
330
1F
100
AcDbEntity
  8
化粧台
  6
EXLTYPE2
 62
     6
100
AcDbLine
 10
956.7500000000919
 20
1456.00000000004
 30
0.0
 11
956.7500000000919
 21
1431.50000000004
 31
0.0
  0
LINE
  5
3B2
330
1F
100
AcDbEntity
  8
化粧台
  6
EXLTYPE2
 62
     6
100
AcDbLine
 10
956.7500000000919
 20
1456.00000000004
 30
0.0
 11
1009.250000000092
 21
1456.00000000004
 31
0.0
  0
LINE
  5
3B3
330
1F
100
AcDbEntity
  8
化粧台
  6
EXLTYPE2
 62
     6
100
AcDbLine
 10
967.2500000000919
 20
1376.50000000004
 30
0.0
 11
998.7500000000919
 21
1376.50000000004
 31
0.0
  0
LINE
  5
3B4
330
1F
100
AcDbEntity
  8
化粧台
  6
EXLTYPE2
 62
     6
100
AcDbLine
 10
1009.250000000092
 20
1431.50000000004
 30
0.0
 11
998.7500000000919
 21
1422.50000000004
 31
0.0
  0
LINE
  5
3B5
330
1F
100
AcDbEntity
  8
化粧台
  6
EXLTYPE2
 62
     6
100
AcDbLine
 10
956.7500000000919
 20
1431.50000000004
 30
0.0
 11
967.2500000000919
 21
1422.50000000004
 31
0.0
  0
LINE
  5
3B6
330
1F
100
AcDbEntity
  8
化粧台
  6
EXLTYPE2
 62
     6
100
AcDbLine
 10
956.7500000000919
 20
1431.50000000004
 30
0.0
 11
1009.250000000092
 21
1431.50000000004
 31
0.0
  0
LINE
  5
3B7
330
1F
100
AcDbEntity
  8
化粧台
  6
EXLTYPE2
 62
     6
100
AcDbLine
 10
967.2500000000919
 20
1422.50000000004
 30
0.0
 11
998.7500000000919
 21
1422.50000000004
 31
0.0
  0
LINE
  5
3B8
330
1F
100
AcDbEntity
  8
化粧台
  6
EXLTYPE2
 62
     6
100
AcDbLine
 10
1001.250000000092
 20
1394.700000000041
 30
0.0
 11
1001.250000000092
 21
1354.611863703343
 31
0.0
  0
LINE
  5
3B9
330
1F
100
AcDbEntity
  8
化粧台
  6
EXLTYPE2
 62
     6
100
AcDbLine
 10
964.7500000000919
 20
1394.700000000041
 30
0.0
 11
964.7500000000919
 21
1354.611863703343
 31
0.0
  0
LINE
  5
3BA
330
1F
100
AcDbEntity
  8
化粧台
  6
EXLTYPE2
 62
     6
100
AcDbLine
 10
1001.250000000092
 20
1354.611863703343
 30
0.0
 11
1000.000000000092
 21
1353.61186367134
 31
0.0
  0
LINE
  5
3BB
330
1F
100
AcDbEntity
  8
化粧台
  6
EXLTYPE2
 62
     6
100
AcDbLine
 10
966.0000000000919
 20
1353.61186367134
 30
0.0
 11
964.7500000000919
 21
1354.611863703343
 31
0.0
  0
LINE
  5
3BC
330
1F
100
AcDbEntity
  8
化粧台
  6
EXLTYPE2
 62
     6
100
AcDbLine
 10
1000.000000000095
 20
1353.611863671344
 30
0.0
 11
966.0000000000919
 21
1353.611863671344
 31
0.0
  0
LINE
  5
3BD
330
1F
100
AcDbEntity
  8
化粧台
  6
EXLTYPE2
 62
     6
100
AcDbLine
 10
1007.250000000092
 20
1394.700000000041
 30
0.0
 11
958.7500000000919
 21
1394.700000000041
 31
0.0
  0
LINE
  5
3BE
330
1F
100
AcDbEntity
  8
化粧台
  6
EXLTYPE2
 62
     6
100
AcDbLine
 10
1007.250000000092
 20
1409.50000000004
 30
0.0
 11
1007.250000000092
 21
1394.700000000041
 31
0.0
  0
LINE
  5
3BF
330
1F
100
AcDbEntity
  8
化粧台
  6
EXLTYPE2
 62
     6
100
AcDbLine
 10
1004.250000000092
 20
1412.50000000004
 30
0.0
 11
961.7500000000919
 21
1412.50000000004
 31
0.0
  0
LINE
  5
3C0
330
1F
100
AcDbEntity
  8
化粧台
  6
EXLTYPE2
 62
     6
100
AcDbLine
 10
958.7500000000919
 20
1409.50000000004
 30
0.0
 11
958.7500000000919
 21
1394.700000000041
 31
0.0
  0
ARC
  5
3C1
330
1F
100
AcDbEntity
  8
化粧台
  6
EXLTYPE2
 62
     6
100
AcDbCircle
 10
1004.250000000092
 20
1409.50000000004
 30
0.0
 40
3.000000000000002
100
AcDbArc
 50
0.0
 51
90.00000000000001
  0
ARC
  5
3C2
330
1F
100
AcDbEntity
  8
化粧台
  6
EXLTYPE2
 62
     6
100
AcDbCircle
 10
961.7500000000919
 20
1409.50000000004
 30
0.0
 40
3.000000000000002
100
AcDbArc
 50
90.00000000000001
 51
180.0
  0
LINE
  5
3C3
330
1F
100
AcDbEntity
  8
化粧台
  6
EXLTYPE2
 62
     6
100
AcDbLine
 10
966.0000000000919
 20
1353.611863671344
 30
0.0
 11
966.0000000000919
 21
1319.98686234378
 31
0.0
  0
ARC
  5
3C4
330
1F
100
AcDbEntity
  8
化粧台
  6
EXLTYPE2
 62
     6
100
AcDbCircle
 10
922.2231693721924
 20
1356.811312276041
 30
0.0
 40
3.000000000000002
100
AcDbArc
 50
90.00000000000001
 51
180.0
  0
LINE
  5
3C5
330
1F
100
AcDbEntity
  8
化粧台
  6
EXLTYPE2
 62
     6
100
AcDbLine
 10
961.7231693721924
 20
1342.011312276041
 30
0.0
 11
961.7231693721924
 21
1319.98686234378
 31
0.0
  0
LINE
  5
3C6
330
1F
100
AcDbEntity
  8
化粧台
  6
EXLTYPE2
 62
     6
100
AcDbLine
 10
925.2231693721924
 20
1342.011312276041
 30
0.0
 11
925.2231693721924
 21
1313.911862369041
 31
0.0
  0
LINE
  5
3C7
330
1F
100
AcDbEntity
  8
化粧台
  6
EXLTYPE2
 62
     6
100
AcDbLine
 10
1000.000000000095
 20
1353.611863671344
 30
0.0
 11
1000.000000000095
 21
1321.918261759489
 31
0.0
  0
ARC
  5
3C8
330
1F
100
AcDbEntity
  8
化粧台
  6
EXLTYPE2
 62
     6
100
AcDbCircle
 10
963.2365846861403
 20
1390.148448271008
 30
0.0
 40
3.763415313933366
100
AcDbArc
 50
66.28804661525457
 51
180.0
  0
LINE
  5
3C9
330
1F
100
AcDbEntity
  8
化粧台
  6
EXLTYPE2
 62
     6
100
AcDbLine
 10
959.4731693721924
 20
1390.148448271008
 30
0.0
 11
959.4731693721924
 21
1359.811312276041
 31
0.0
  0
LINE
  5
3CA
330
1F
100
AcDbEntity
  8
化粧台
  6
EXLTYPE2
 62
     6
100
AcDbLine
 10
927.4731693721924
 20
1390.148448270989
 30
0.0
 11
927.4731693721924
 21
1359.811312276041
 31
0.0
  0
LINE
  5
3CB
330
1F
100
AcDbEntity
  8
化粧台
  6
EXLTYPE2
 62
     6
100
AcDbLine
 10
964.7500000000919
 20
1359.811312276041
 30
0.0
 11
922.2231693721924
 21
1359.811312276041
 31
0.0
  0
LINE
  5
3CC
330
1F
100
AcDbEntity
  8
化粧台
  6
EXLTYPE2
 62
     6
100
AcDbLine
 10
966.0000000000919
 20
1342.011312276041
 30
0.0
 11
919.2231693721924
 21
1342.011312276041
 31
0.0
  0
ARC
  5
3CD
330
1F
100
AcDbEntity
  8
化粧台
  6
EXLTYPE2
 62
     6
100
AcDbCircle
 10
963.2365846861403
 20
1390.148448270989
 30
0.0
 40
35.76341531395246
100
AcDbArc
 50
89.94725080561494
 51
180.0
  0
LINE
  5
3CE
330
1F
100
AcDbEntity
  8
化粧台
  6
EXLTYPE2
 62
     6
100
AcDbLine
 10
1016.500003814789
 20
936.5000019073414
 30
0.0
 11
1016.500003814789
 21
916.9999999999927
 31
0.0
  0
ARC
  5
3CF
330
1F
100
AcDbEntity
  8
化粧台
  6
EXLTYPE2
 62
     6
100
AcDbCircle
 10
1016.000003814789
 20
916.9999999999927
 30
0.0
 40
0.5
100
AcDbArc
 50
270.0000000000002
 51
0.0
  0
LINE
  5
3D0
330
1F
100
AcDbEntity
  8
化粧台
  6
EXLTYPE2
 62
     6
100
AcDbLine
 10
949.4999961853982
 20
936.5000019073414
 30
0.0
 11
949.4999961853982
 21
916.9999999999927
 31
0.0
  0
ARC
  5
3D1
330
1F
100
AcDbEntity
  8
化粧台
  6
EXLTYPE2
 62
     6
100
AcDbCircle
 10
949.9999961853982
 20
916.9999999999927
 30
0.0
 40
0.5
100
AcDbArc
 50
180.0
 51
270.0000000000002
  0
LINE
  5
3D2
330
1F
100
AcDbEntity
  8
化粧台
  6
EXLTYPE2
 62
     6
100
AcDbLine
 10
1016.000003814789
 20
916.4999999999927
 30
0.0
 11
949.9999961853946
 21
916.4999999999927
 31
0.0
  0
LINE
  5
3D3
330
1F
100
AcDbEntity
  8
化粧台
  6
EXLTYPE2
 62
     6
100
AcDbLine
 10
1010.000000000092
 20
951.50000381469
 30
0.0
 11
1010.000000000092
 21
940.5000019073414
 31
0.0
  0
ARC
  5
3D4
330
1F
100
AcDbEntity
  8
化粧台
  6
EXLTYPE2
 62
     6
100
AcDbCircle
 10
1007.000000000092
 20
951.50000381469
 30
0.0
 40
3.000000000000002
100
AcDbArc
 50
359.9999949910431
 51
89.99999749552043
  0
ARC
  5
3D5
330
1F
100
AcDbEntity
  8
化粧台
  6
EXLTYPE2
 62
     6
100
AcDbCircle
 10
1011.000000000092
 20
940.5000019073414
 30
0.0
 40
1.0
100
AcDbArc
 50
180.0
 51
270.0000000000002
  0
ARC
  5
3D6
330
1F
100
AcDbEntity
  8
化粧台
  6
EXLTYPE2
 62
     6
100
AcDbCircle
 10
1013.500003814789
 20
936.5000019073414
 30
0.0
 40
3.000000000000002
100
AcDbArc
 50
359.9999949910431
 51
89.99999749552043
  0
LINE
  5
3D7
330
1F
100
AcDbEntity
  8
化粧台
  6
EXLTYPE2
 62
     6
100
AcDbLine
 10
1005.999996185395
 20
972.3465188789305
 30
0.0
 11
1005.999996185395
 21
956.54651964187
 31
0.0
  0
ARC
  5
3D8
330
1F
100
AcDbEntity
  8
化粧台
  6
EXLTYPE2
 62
     6
100
AcDbCircle
 10
1003.999996185395
 20
972.3465188789305
 30
0.0
 40
2.0
100
AcDbArc
 50
0.0000086514229809
 51
90.0000043257139
  0
LINE
  5
3D9
330
1F
100
AcDbEntity
  8
化粧台
  6
EXLTYPE2
 62
     6
100
AcDbLine
 10
956.0000000000955
 20
951.50000381469
 30
0.0
 11
956.0000000000955
 21
940.5000019073414
 31
0.0
  0
ARC
  5
3DA
330
1F
100
AcDbEntity
  8
化粧台
  6
EXLTYPE2
 62
     6
100
AcDbCircle
 10
959.0000000000955
 20
951.50000381469
 30
0.0
 40
3.000000000000002
100
AcDbArc
 50
90.00000250448174
 51
180.000005008957
  0
ARC
  5
3DB
330
1F
100
AcDbEntity
  8
化粧台
  6
EXLTYPE2
 62
     6
100
AcDbCircle
 10
955.0000000000955
 20
940.5000019073414
 30
0.0
 40
1.0
100
AcDbArc
 50
270.0000000000002
 51
0.0
  0
ARC
  5
3DC
330
1F
100
AcDbEntity
  8
化粧台
  6
EXLTYPE2
 62
     6
100
AcDbCircle
 10
952.4999961853982
 20
936.5000019073414
 30
0.0
 40
3.000000000000002
100
AcDbArc
 50
90.00000250448174
 51
180.000005008957
  0
LINE
  5
3DD
330
1F
100
AcDbEntity
  8
化粧台
  6
EXLTYPE2
 62
     6
100
AcDbLine
 10
960.0000038147928
 20
972.3465188789305
 30
0.0
 11
960.0000038147928
 21
956.54651964187
 31
0.0
  0
ARC
  5
3DE
330
1F
100
AcDbEntity
  8
化粧台
  6
EXLTYPE2
 62
     6
100
AcDbCircle
 10
962.0000038147928
 20
972.3465188789305
 30
0.0
 40
2.0
100
AcDbArc
 50
89.99999567428607
 51
179.9999913485771
  0
LINE
  5
3DF
330
1F
100
AcDbEntity
  8
化粧台
  6
EXLTYPE2
 62
     6
100
AcDbLine
 10
1003.999996185395
 20
974.3465188789305
 30
0.0
 11
962.0000038147928
 21
974.3465188789305
 31
0.0
  0
LINE
  5
3E0
330
1F
100
AcDbEntity
  8
化粧台
  6
EXLTYPE2
 62
     6
100
AcDbLine
 10
1005.999996185395
 20
956.54651964187
 30
0.0
 11
960.0000038147928
 21
956.54651964187
 31
0.0
  0
LINE
  5
3E1
330
1F
100
AcDbEntity
  8
化粧台
  6
EXLTYPE2
 62
     6
100
AcDbLine
 10
1007.000000000092
 20
954.50000381469
 30
0.0
 11
959.0000000000955
 21
954.50000381469
 31
0.0
  0
LINE
  5
3E2
330
1F
100
AcDbEntity
  8
化粧台
  6
EXLTYPE2
 62
     6
100
AcDbLine
 10
1013.500003814789
 20
939.5000019073414
 30
0.0
 11
952.4999961853982
 21
939.5000019073414
 31
0.0
  0
LINE
  5
3E3
330
1F
100
AcDbEntity
  8
化粧台
  6
EXLTYPE2
 62
     6
100
AcDbLine
 10
978.2365846860894
 20
1280.611861335172
 30
0.0
 11
948.2365846860894
 21
1280.611861335172
 31
0.0
  0
LINE
  5
3E4
330
1F
100
AcDbEntity
  8
化粧台
  6
EXLTYPE2
 62
     6
100
AcDbLine
 10
978.236584686093
 20
1283.381770843342
 30
0.0
 11
948.236584686093
 21
1283.381770843342
 31
0.0
  0
LINE
  5
3E5
330
1F
100
AcDbEntity
  8
化粧台
  6
EXLTYPE2
 62
     6
100
AcDbLine
 10
978.2365846860894
 20
1283.381770843305
 30
0.0
 11
978.2365846860894
 21
1268.111865271341
 31
0.0
  0
LINE
  5
3E6
330
1F
100
AcDbEntity
  8
化粧台
  6
EXLTYPE2
 62
     6
100
AcDbLine
 10
976.7365846860894
 20
1266.611865271341
 30
0.0
 11
949.7365846860894
 21
1266.611865271341
 31
0.0
  0
LINE
  5
3E7
330
1F
100
AcDbEntity
  8
化粧台
  6
EXLTYPE2
 62
     6
100
AcDbLine
 10
948.2365846860894
 20
1283.381770843309
 30
0.0
 11
948.2365846860894
 21
1268.111865271341
 31
0.0
  0
ARC
  5
3E8
330
1F
100
AcDbEntity
  8
化粧台
  6
EXLTYPE2
 62
     6
100
AcDbCircle
 10
976.7365846860894
 20
1268.111865271341
 30
0.0
 40
1.5
100
AcDbArc
 50
270.0000000000002
 51
0.0
  0
ARC
  5
3E9
330
1F
100
AcDbEntity
  8
化粧台
  6
EXLTYPE2
 62
     6
100
AcDbCircle
 10
949.7365846860894
 20
1268.111865271341
 30
0.0
 40
1.5
100
AcDbArc
 50
180.0
 51
270.0000000000002
  0
ARC
  5
3EA
330
1F
100
AcDbEntity
  8
化粧台
  6
EXLTYPE2
 62
     6
100
AcDbCircle
 10
926.2231693721924
 20
1313.911862369041
 30
0.0
 40
1.0
100
AcDbArc
 50
180.0
 51
270.0000000000002
  0
ARC
  5
3EB
330
1F
100
AcDbEntity
  8
化粧台
  6
EXLTYPE2
 62
     6
100
AcDbCircle
 10
969.5981693722943
 20
1319.98686234378
 30
0.0
 40
7.87499999998454
100
AcDbArc
 50
180.0
 51
223.2429562691451
  0
ARC
  5
3EC
330
1F
100
AcDbEntity
  8
化粧台
  6
EXLTYPE2
 62
     6
100
AcDbCircle
 10
958.1250000000919
 20
1319.98686234378
 30
0.0
 40
7.87499999998454
100
AcDbArc
 50
284.0576142764539
 51
0.0
  0
ARC
  5
3ED
330
1F
100
AcDbEntity
  8
化粧台
  6
EXLTYPE2
 62
     6
100
AcDbCircle
 10
972.8681222531895
 20
1321.041926938087
 30
0.0
 40
45.0
100
AcDbArc
 50
190.4086772393206
 51
236.8134006511469
  0
ARC
  5
3EE
330
1F
100
AcDbEntity
  8
化粧台
  6
EXLTYPE2
 62
     6
100
AcDbCircle
 10
955.0000000000955
 20
1321.918261759489
 30
0.0
 40
45.0
100
AcDbArc
 50
301.0889746232344
 51
0.0
  0
LINE
  5
3EF
330
1F
100
AcDbEntity
  8
化粧台
  6
EXLTYPE2
 62
     6
100
AcDbLine
 10
936.9000000000933
 20
1312.911862369041
 30
0.0
 11
926.2231693721924
 21
1312.911862369041
 31
0.0
  0
LINE
  5
3F0
330
1F
100
AcDbEntity
  8
化粧台
  6
EXLTYPE2
 62
     6
100
AcDbLine
 10
967.0000000000919
 20
900.50000000004
 30
0.0
 11
967.0000000000919
 21
1266.611865271341
 31
0.0
  0
LINE
  5
3F1
330
1F
100
AcDbEntity
  8
化粧台
  6
EXLTYPE2
 62
     6
100
AcDbLine
 10
999.0000000000919
 20
900.50000000004
 30
0.0
 11
999.0000000000919
 21
1312.484280627425
 31
0.0
  0
LINE
  5
3F2
330
1F
100
AcDbEntity
  8
化粧台
  6
CONTINUOUS
 62
     6
100
AcDbLine
 10
967.0000000000919
 20
866.5000000000401
 30
0.0
 11
999.0000000000919
 21
866.5000000000401
 31
0.0
  0
LINE
  5
3F3
330
1F
100
AcDbEntity
  8
化粧台
  6
CONTINUOUS
 62
     6
100
AcDbLine
 10
967.0000000000919
 20
866.5000000000401
 30
0.0
 11
967.0000000000919
 21
900.50000000004
 31
0.0
  0
LINE
  5
3F4
330
1F
100
AcDbEntity
  8
化粧台
  6
CONTINUOUS
 62
     6
100
AcDbLine
 10
999.0000000000919
 20
866.5000000000401
 30
0.0
 11
999.0000000000919
 21
900.50000000004
 31
0.0
  0
LINE
  5
3F5
330
1F
100
AcDbEntity
  8
化粧台
  6
CONTINUOUS
 62
     6
100
AcDbLine
 10
1203.500000000051
 20
888.50000000004
 30
0.0
 11
1182.500000000051
 21
888.50000000004
 31
0.0
  0
LINE
  5
3F6
330
1F
100
AcDbEntity
  8
化粧台
  6
CONTINUOUS
 62
     6
100
AcDbLine
 10
1182.500000000051
 20
900.50000000004
 30
0.0
 11
1182.500000000051
 21
888.50000000004
 31
0.0
  0
LINE
  5
3F7
330
1F
100
AcDbEntity
  8
化粧台
  6
CONTINUOUS
 62
     6
100
AcDbLine
 10
1203.500000000051
 20
900.50000000004
 30
0.0
 11
1203.500000000051
 21
888.50000000004
 31
0.0
  0
LINE
  5
3F8
330
1F
100
AcDbEntity
  8
化粧台
  6
EXLTYPE3
 62
     6
100
AcDbLine
 10
1193.000000000051
 20
1283.00000000004
 30
0.0
 11
1193.000000000051
 21
873.50000000004
 31
0.0
  0
LINE
  5
3F9
330
1F
100
AcDbEntity
  8
化粧台
  6
CONTINUOUS
 62
     6
100
AcDbLine
 10
1113.500000000051
 20
888.5
 30
0.0
 11
1092.500000000051
 21
888.5
 31
0.0
  0
LINE
  5
3FA
330
1F
100
AcDbEntity
  8
化粧台
  6
CONTINUOUS
 62
     6
100
AcDbLine
 10
1092.500000000051
 20
900.5
 30
0.0
 11
1092.500000000051
 21
888.5
 31
0.0
  0
LINE
  5
3FB
330
1F
100
AcDbEntity
  8
化粧台
  6
CONTINUOUS
 62
     6
100
AcDbLine
 10
1113.500000000051
 20
900.5
 30
0.0
 11
1113.500000000051
 21
888.5
 31
0.0
  0
LINE
  5
3FC
330
1F
100
AcDbEntity
  8
化粧台
  6
EXLTYPE3
 62
     6
100
AcDbLine
 10
1103.000000000051
 20
1286.0
 30
0.0
 11
1103.000000000051
 21
873.5
 31
0.0
  0
ARC
  5
3FD
330
1F
100
AcDbEntity
  8
化粧台
  6
EXLTYPE2
 62
     6
100
AcDbCircle
 10
1142.500000000051
 20
1240.343134833023
 30
0.0
 40
40.0
100
AcDbArc
 50
345.6384884370835
 51
0.0
  0
ARC
  5
3FE
330
1F
100
AcDbEntity
  8
化粧台
  6
EXLTYPE2
 62
     6
100
AcDbCircle
 10
1243.500000000051
 20
1240.343134833023
 30
0.0
 40
40.0
100
AcDbArc
 50
180.0
 51
194.3615115629164
  0
LINE
  5
3FF
330
1F
100
AcDbEntity
  8
化粧台
  6
EXLTYPE2
 62
     6
100
AcDbLine
 10
1180.75000000004
 20
1185.50000000004
 30
0.0
 11
1205.250000000062
 21
1185.50000000004
 31
0.0
  0
LINE
  5
400
330
1F
100
AcDbEntity
  8
化粧台
  6
EXLTYPE2
 62
     6
100
AcDbLine
 10
1180.250000000051
 20
1185.78867513463
 30
0.0
 11
1180.250000000051
 21
1197.672806948645
 31
0.0
  0
LINE
  5
401
330
1F
100
AcDbEntity
  8
化粧台
  6
EXLTYPE2
 62
     6
100
AcDbLine
 10
1205.750000000051
 20
1185.78867513463
 30
0.0
 11
1205.750000000051
 21
1197.672806948645
 31
0.0
  0
ARC
  5
402
330
1F
100
AcDbEntity
  8
化粧台
  6
EXLTYPE2
 62
     6
100
AcDbCircle
 10
1173.250000000051
 20
1200.365389352213
 30
0.0
 40
7.500000000000004
100
AcDbArc
 50
338.9605302186827
 51
0.0
  0
LINE
  5
403
330
1F
100
AcDbEntity
  8
化粧台
  6
EXLTYPE2
 62
     6
100
AcDbLine
 10
1180.750000000051
 20
1185.500000000036
 30
0.0
 11
1180.250000000051
 21
1185.78867513463
 31
0.0
  0
LINE
  5
404
330
1F
100
AcDbEntity
  8
化粧台
  6
EXLTYPE2
 62
     6
100
AcDbLine
 10
1205.250000000055
 20
1185.500000000036
 30
0.0
 11
1205.750000000051
 21
1185.78867513463
 31
0.0
  0
ARC
  5
405
330
1F
100
AcDbEntity
  8
化粧台
  6
EXLTYPE2
 62
     6
100
AcDbCircle
 10
1212.750000000051
 20
1200.365389352213
 30
0.0
 40
7.500000000000004
100
AcDbArc
 50
180.0
 51
201.039469781297
  0
LINE
  5
406
330
1F
100
AcDbEntity
  8
化粧台
  6
EXLTYPE2
 62
     6
100
AcDbLine
 10
1206.000000000051
 20
1214.66369123508
 30
0.0
 11
1206.000000000051
 21
1226.336308765
 31
0.0
  0
LINE
  5
407
330
1F
100
AcDbEntity
  8
化粧台
  6
EXLTYPE2
 62
     6
100
AcDbLine
 10
1204.554391654841
 20
1228.840175866761
 30
0.0
 11
1194.445608345261
 21
1234.67648463172
 31
0.0
  0
LINE
  5
408
330
1F
100
AcDbEntity
  8
化粧台
  6
EXLTYPE2
 62
     6
100
AcDbLine
 10
1191.554391654841
 20
1234.67648463172
 30
0.0
 11
1181.445608345261
 21
1228.840175866761
 31
0.0
  0
LINE
  5
409
330
1F
100
AcDbEntity
  8
化粧台
  6
EXLTYPE2
 62
     6
100
AcDbLine
 10
1180.000000000051
 20
1226.336308765
 30
0.0
 11
1180.000000000051
 21
1214.66369123508
 31
0.0
  0
LINE
  5
40A
330
1F
100
AcDbEntity
  8
化粧台
  6
EXLTYPE2
 62
     6
100
AcDbLine
 10
1181.445608345261
 20
1212.159824133319
 30
0.0
 11
1191.554391654841
 21
1206.32351536836
 31
0.0
  0
LINE
  5
40B
330
1F
100
AcDbEntity
  8
化粧台
  6
EXLTYPE2
 62
     6
100
AcDbLine
 10
1194.445608345261
 20
1206.32351536836
 30
0.0
 11
1204.554391654841
 21
1212.159824133319
 31
0.0
  0
ARC
  5
40C
330
1F
100
AcDbEntity
  8
化粧台
  6
EXLTYPE2
 62
     6
100
AcDbCircle
 10
1193.000000000051
 20
1220.50000000004
 30
0.0
 40
14.25000000000001
100
AcDbArc
 50
264.1775448336001
 51
275.8224551664
  0
ARC
  5
40D
330
1F
100
AcDbEntity
  8
化粧台
  6
EXLTYPE2
 62
     6
100
AcDbCircle
 10
1193.000000000051
 20
1220.50000000004
 30
0.0
 40
14.25000000000001
100
AcDbArc
 50
324.1775448336006
 51
335.8224551664001
  0
ARC
  5
40E
330
1F
100
AcDbEntity
  8
化粧台
  6
EXLTYPE2
 62
     6
100
AcDbCircle
 10
1193.000000000051
 20
1220.50000000004
 30
0.0
 40
14.25000000000001
100
AcDbArc
 50
24.17754483359991
 51
35.82245516639971
  0
ARC
  5
40F
330
1F
100
AcDbEntity
  8
化粧台
  6
EXLTYPE2
 62
     6
100
AcDbCircle
 10
1193.000000000051
 20
1220.50000000004
 30
0.0
 40
14.25000000000001
100
AcDbArc
 50
84.17754483360022
 51
95.82245516636002
  0
ARC
  5
410
330
1F
100
AcDbEntity
  8
化粧台
  6
EXLTYPE2
 62
     6
100
AcDbCircle
 10
1193.000000000051
 20
1220.50000000004
 30
0.0
 40
14.25000000000001
100
AcDbArc
 50
144.1775448336397
 51
155.8224551663601
  0
ARC
  5
411
330
1F
100
AcDbEntity
  8
化粧台
  6
EXLTYPE2
 62
     6
100
AcDbCircle
 10
1193.000000000051
 20
1220.50000000004
 30
0.0
 40
14.25000000000001
100
AcDbArc
 50
204.1775448336
 51
215.8224551663998
  0
CIRCLE
  5
412
330
1F
100
AcDbEntity
  8
化粧台
  6
EXLTYPE2
 62
     6
100
AcDbCircle
 10
1193.000000000051
 20
1220.50000000004
 30
0.0
 40
4.75
  0
ARC
  5
413
330
1F
100
AcDbEntity
  8
化粧台
  6
EXLTYPE2
 62
     6
100
AcDbCircle
 10
1220.000000000051
 20
1220.50000000004
 30
0.0
 40
40.0
100
AcDbArc
 50
165.6384884370866
 51
169.8112385239512
  0
ARC
  5
414
330
1F
100
AcDbEntity
  8
化粧台
  6
EXLTYPE2
 62
     6
100
AcDbCircle
 10
1166.000000000051
 20
1220.50000000004
 30
0.0
 40
40.0
100
AcDbArc
 50
10.18876147604892
 51
14.36151156291657
  0
LINE
  5
415
330
1F
100
AcDbEntity
  8
化粧台
  6
EXLTYPE2
 62
     6
100
AcDbLine
 10
1180.750000000051
 20
1213.219890110759
 30
0.0
 11
1180.750000000051
 21
1200.365389352213
 31
0.0
  0
LINE
  5
416
330
1F
100
AcDbEntity
  8
化粧台
  6
EXLTYPE2
 62
     6
100
AcDbLine
 10
1205.250000000051
 20
1213.219890110759
 30
0.0
 11
1205.250000000051
 21
1200.365389352213
 31
0.0
  0
LINE
  5
417
330
1F
100
AcDbEntity
  8
化粧台
  6
EXLTYPE2
 62
     6
100
AcDbLine
 10
1182.030455542761
 20
1243.200000000041
 30
0.0
 11
1203.969544457341
 21
1243.200000000041
 31
0.0
  0
LINE
  5
418
330
1F
100
AcDbEntity
  8
化粧台
  6
EXLTYPE2
 62
     6
100
AcDbLine
 10
1182.030455542761
 20
1255.200000000041
 30
0.0
 11
1203.969544457341
 21
1255.200000000041
 31
0.0
  0
LINE
  5
419
330
1F
100
AcDbEntity
  8
化粧台
  6
EXLTYPE2
 62
     6
100
AcDbLine
 10
1181.500000000051
 20
1254.292887196909
 30
0.0
 11
1181.500000000051
 21
1244.107112803169
 31
0.0
  0
LINE
  5
41A
330
1F
100
AcDbEntity
  8
化粧台
  6
EXLTYPE2
 62
     6
100
AcDbLine
 10
1204.500000000051
 20
1254.292887196909
 30
0.0
 11
1204.500000000051
 21
1244.107112803169
 31
0.0
  0
ARC
  5
41B
330
1F
100
AcDbEntity
  8
化粧台
  6
EXLTYPE2
 62
     6
100
AcDbCircle
 10
1191.250000000051
 20
1249.200000000041
 30
0.0
 40
11.0
100
AcDbArc
 50
146.9442688490998
 51
152.4198007963999
  0
ARC
  5
41C
330
1F
100
AcDbEntity
  8
化粧台
  6
EXLTYPE2
 62
     6
100
AcDbCircle
 10
1191.250000000051
 20
1249.200000000041
 30
0.0
 40
11.0
100
AcDbArc
 50
207.5801992036001
 51
213.0557311509001
  0
ARC
  5
41D
330
1F
100
AcDbEntity
  8
化粧台
  6
EXLTYPE2
 62
     6
100
AcDbCircle
 10
1194.750000000051
 20
1249.200000000041
 30
0.0
 40
11.0
100
AcDbArc
 50
326.9442688491004
 51
332.4198007964001
  0
ARC
  5
41E
330
1F
100
AcDbEntity
  8
化粧台
  6
EXLTYPE2
 62
     6
100
AcDbCircle
 10
1194.750000000051
 20
1249.200000000041
 30
0.0
 40
11.0
100
AcDbArc
 50
27.58019920359027
 51
33.05573115085006
  0
LINE
  5
41F
330
1F
100
AcDbEntity
  8
化粧台
  6
EXLTYPE2
 62
     6
100
AcDbLine
 10
1182.500000000051
 20
1243.200000000041
 30
0.0
 11
1182.500000000051
 21
1240.34313483302
 31
0.0
  0
LINE
  5
420
330
1F
100
AcDbEntity
  8
化粧台
  6
EXLTYPE2
 62
     6
100
AcDbLine
 10
1203.500000000051
 20
1243.200000000041
 30
0.0
 11
1203.500000000051
 21
1240.34313483302
 31
0.0
  0
ARC
  5
421
330
1F
100
AcDbEntity
  8
化粧台
  6
EXLTYPE2
 62
     6
100
AcDbCircle
 10
1052.500000000051
 20
1240.343134832983
 30
0.0
 40
40.0
100
AcDbArc
 50
345.6384884370835
 51
0.0
  0
ARC
  5
422
330
1F
100
AcDbEntity
  8
化粧台
  6
EXLTYPE2
 62
     6
100
AcDbCircle
 10
1153.500000000051
 20
1240.343134832983
 30
0.0
 40
40.0
100
AcDbArc
 50
180.0
 51
194.3615115629164
  0
LINE
  5
423
330
1F
100
AcDbEntity
  8
化粧台
  6
EXLTYPE2
 62
     6
100
AcDbLine
 10
1090.75000000004
 20
1185.5
 30
0.0
 11
1115.250000000062
 21
1185.5
 31
0.0
  0
LINE
  5
424
330
1F
100
AcDbEntity
  8
化粧台
  6
EXLTYPE2
 62
     6
100
AcDbLine
 10
1090.250000000051
 20
1185.78867513459
 30
0.0
 11
1090.250000000051
 21
1197.672806948605
 31
0.0
  0
LINE
  5
425
330
1F
100
AcDbEntity
  8
化粧台
  6
EXLTYPE2
 62
     6
100
AcDbLine
 10
1115.750000000051
 20
1185.78867513459
 30
0.0
 11
1115.750000000051
 21
1197.672806948605
 31
0.0
  0
ARC
  5
426
330
1F
100
AcDbEntity
  8
化粧台
  6
EXLTYPE2
 62
     6
100
AcDbCircle
 10
1083.250000000051
 20
1200.365389352173
 30
0.0
 40
7.500000000000004
100
AcDbArc
 50
338.9605302186827
 51
0.0
  0
LINE
  5
427
330
1F
100
AcDbEntity
  8
化粧台
  6
EXLTYPE2
 62
     6
100
AcDbLine
 10
1090.750000000051
 20
1185.499999999996
 30
0.0
 11
1090.250000000051
 21
1185.78867513459
 31
0.0
  0
LINE
  5
428
330
1F
100
AcDbEntity
  8
化粧台
  6
EXLTYPE2
 62
     6
100
AcDbLine
 10
1115.250000000055
 20
1185.499999999996
 30
0.0
 11
1115.750000000051
 21
1185.78867513459
 31
0.0
  0
ARC
  5
429
330
1F
100
AcDbEntity
  8
化粧台
  6
EXLTYPE2
 62
     6
100
AcDbCircle
 10
1122.750000000051
 20
1200.365389352173
 30
0.0
 40
7.500000000000004
100
AcDbArc
 50
180.0
 51
201.039469781297
  0
LINE
  5
42A
330
1F
100
AcDbEntity
  8
化粧台
  6
EXLTYPE2
 62
     6
100
AcDbLine
 10
1116.000000000051
 20
1214.66369123504
 30
0.0
 11
1116.000000000051
 21
1226.33630876496
 31
0.0
  0
LINE
  5
42B
330
1F
100
AcDbEntity
  8
化粧台
  6
EXLTYPE2
 62
     6
100
AcDbLine
 10
1114.554391654841
 20
1228.840175866721
 30
0.0
 11
1104.445608345261
 21
1234.67648463168
 31
0.0
  0
LINE
  5
42C
330
1F
100
AcDbEntity
  8
化粧台
  6
EXLTYPE2
 62
     6
100
AcDbLine
 10
1101.554391654841
 20
1234.67648463168
 30
0.0
 11
1091.445608345261
 21
1228.840175866721
 31
0.0
  0
LINE
  5
42D
330
1F
100
AcDbEntity
  8
化粧台
  6
EXLTYPE2
 62
     6
100
AcDbLine
 10
1090.000000000051
 20
1226.33630876496
 30
0.0
 11
1090.000000000051
 21
1214.66369123504
 31
0.0
  0
LINE
  5
42E
330
1F
100
AcDbEntity
  8
化粧台
  6
EXLTYPE2
 62
     6
100
AcDbLine
 10
1091.445608345261
 20
1212.159824133279
 30
0.0
 11
1101.554391654841
 21
1206.32351536832
 31
0.0
  0
LINE
  5
42F
330
1F
100
AcDbEntity
  8
化粧台
  6
EXLTYPE2
 62
     6
100
AcDbLine
 10
1104.445608345261
 20
1206.32351536832
 30
0.0
 11
1114.554391654841
 21
1212.159824133279
 31
0.0
  0
ARC
  5
430
330
1F
100
AcDbEntity
  8
化粧台
  6
EXLTYPE2
 62
     6
100
AcDbCircle
 10
1103.000000000051
 20
1220.5
 30
0.0
 40
14.25000000000001
100
AcDbArc
 50
264.1775448336001
 51
275.8224551664
  0
ARC
  5
431
330
1F
100
AcDbEntity
  8
化粧台
  6
EXLTYPE2
 62
     6
100
AcDbCircle
 10
1103.000000000051
 20
1220.5
 30
0.0
 40
14.25000000000001
100
AcDbArc
 50
324.1775448336006
 51
335.8224551664001
  0
ARC
  5
432
330
1F
100
AcDbEntity
  8
化粧台
  6
EXLTYPE2
 62
     6
100
AcDbCircle
 10
1103.000000000051
 20
1220.5
 30
0.0
 40
14.25000000000001
100
AcDbArc
 50
24.17754483359991
 51
35.82245516639971
  0
ARC
  5
433
330
1F
100
AcDbEntity
  8
化粧台
  6
EXLTYPE2
 62
     6
100
AcDbCircle
 10
1103.000000000051
 20
1220.5
 30
0.0
 40
14.25000000000001
100
AcDbArc
 50
84.17754483360022
 51
95.82245516636002
  0
ARC
  5
434
330
1F
100
AcDbEntity
  8
化粧台
  6
EXLTYPE2
 62
     6
100
AcDbCircle
 10
1103.000000000051
 20
1220.5
 30
0.0
 40
14.25000000000001
100
AcDbArc
 50
144.1775448336397
 51
155.8224551663601
  0
ARC
  5
435
330
1F
100
AcDbEntity
  8
化粧台
  6
EXLTYPE2
 62
     6
100
AcDbCircle
 10
1103.000000000051
 20
1220.5
 30
0.0
 40
14.25000000000001
100
AcDbArc
 50
204.1775448336
 51
215.8224551663998
  0
CIRCLE
  5
436
330
1F
100
AcDbEntity
  8
化粧台
  6
EXLTYPE2
 62
     6
100
AcDbCircle
 10
1103.000000000051
 20
1220.5
 30
0.0
 40
4.75
  0
ARC
  5
437
330
1F
100
AcDbEntity
  8
化粧台
  6
EXLTYPE2
 62
     6
100
AcDbCircle
 10
1130.000000000051
 20
1220.5
 30
0.0
 40
40.0
100
AcDbArc
 50
165.6384884370866
 51
169.8112385239512
  0
ARC
  5
438
330
1F
100
AcDbEntity
  8
化粧台
  6
EXLTYPE2
 62
     6
100
AcDbCircle
 10
1076.000000000051
 20
1220.5
 30
0.0
 40
40.0
100
AcDbArc
 50
10.18876147604892
 51
14.36151156291657
  0
LINE
  5
439
330
1F
100
AcDbEntity
  8
化粧台
  6
EXLTYPE2
 62
     6
100
AcDbLine
 10
1090.750000000051
 20
1213.219890110719
 30
0.0
 11
1090.750000000051
 21
1200.365389352173
 31
0.0
  0
LINE
  5
43A
330
1F
100
AcDbEntity
  8
化粧台
  6
EXLTYPE2
 62
     6
100
AcDbLine
 10
1115.250000000051
 20
1213.219890110719
 30
0.0
 11
1115.250000000051
 21
1200.365389352173
 31
0.0
  0
LINE
  5
43B
330
1F
100
AcDbEntity
  8
化粧台
  6
EXLTYPE2
 62
     6
100
AcDbLine
 10
1092.030455542761
 20
1243.200000000001
 30
0.0
 11
1113.969544457341
 21
1243.200000000001
 31
0.0
  0
LINE
  5
43C
330
1F
100
AcDbEntity
  8
化粧台
  6
EXLTYPE2
 62
     6
100
AcDbLine
 10
1092.030455542761
 20
1255.200000000001
 30
0.0
 11
1113.969544457341
 21
1255.200000000001
 31
0.0
  0
LINE
  5
43D
330
1F
100
AcDbEntity
  8
化粧台
  6
EXLTYPE2
 62
     6
100
AcDbLine
 10
1091.500000000051
 20
1254.292887196869
 30
0.0
 11
1091.500000000051
 21
1244.107112803129
 31
0.0
  0
LINE
  5
43E
330
1F
100
AcDbEntity
  8
化粧台
  6
EXLTYPE2
 62
     6
100
AcDbLine
 10
1114.500000000051
 20
1254.292887196869
 30
0.0
 11
1114.500000000051
 21
1244.107112803129
 31
0.0
  0
ARC
  5
43F
330
1F
100
AcDbEntity
  8
化粧台
  6
EXLTYPE2
 62
     6
100
AcDbCircle
 10
1101.250000000051
 20
1249.200000000001
 30
0.0
 40
11.0
100
AcDbArc
 50
146.9442688490998
 51
152.4198007963999
  0
ARC
  5
440
330
1F
100
AcDbEntity
  8
化粧台
  6
EXLTYPE2
 62
     6
100
AcDbCircle
 10
1101.250000000051
 20
1249.200000000001
 30
0.0
 40
11.0
100
AcDbArc
 50
207.5801992036001
 51
213.0557311509001
  0
ARC
  5
441
330
1F
100
AcDbEntity
  8
化粧台
  6
EXLTYPE2
 62
     6
100
AcDbCircle
 10
1104.750000000051
 20
1249.200000000001
 30
0.0
 40
11.0
100
AcDbArc
 50
326.9442688491004
 51
332.4198007964001
  0
ARC
  5
442
330
1F
100
AcDbEntity
  8
化粧台
  6
EXLTYPE2
 62
     6
100
AcDbCircle
 10
1104.750000000051
 20
1249.200000000001
 30
0.0
 40
11.0
100
AcDbArc
 50
27.58019920359027
 51
33.05573115085006
  0
LINE
  5
443
330
1F
100
AcDbEntity
  8
化粧台
  6
EXLTYPE2
 62
     6
100
AcDbLine
 10
1092.500000000051
 20
1243.200000000001
 30
0.0
 11
1092.500000000051
 21
1240.34313483298
 31
0.0
  0
LINE
  5
444
330
1F
100
AcDbEntity
  8
化粧台
  6
EXLTYPE2
 62
     6
100
AcDbLine
 10
1113.500000000051
 20
1243.200000000001
 30
0.0
 11
1113.500000000051
 21
1240.34313483298
 31
0.0
  0
LINE
  5
445
330
1F
100
AcDbEntity
  8
化粧台
  6
CONTINUOUS
 62
     6
100
AcDbLine
 10
1076.40000000005
 20
1220.50000000004
 30
0.0
 11
1123.05000000005
 21
1220.50000000004
 31
0.0
  0
LINE
  5
446
330
1F
100
AcDbEntity
  8
化粧台
  6
CONTINUOUS
 62
     6
100
AcDbLine
 10
1173.00000000005
 20
1220.50000000004
 30
0.0
 11
1220.500000000051
 21
1220.50000000004
 31
0.0
  0
LINE
  5
447
330
1F
100
AcDbEntity
  8
化粧台
  6
EXLTYPE2
 62
     6
100
AcDbLine
 10
1096.000000000055
 20
1255.200000000001
 30
0.0
 11
1096.000000000055
 21
1469.450000000039
 31
0.0
  0
LINE
  5
448
330
1F
100
AcDbEntity
  8
化粧台
  6
EXLTYPE2
 62
     6
100
AcDbLine
 10
1110.000000000047
 20
1255.200000000039
 30
0.0
 11
1110.000000000047
 21
1475.15000000004
 31
0.0
  0
LINE
  5
449
330
1F
100
AcDbEntity
  8
化粧台
  6
EXLTYPE2
 62
     6
100
AcDbLine
 10
1092.500000000051
 20
1185.5
 30
0.0
 11
1092.500000000051
 21
900.5
 31
0.0
  0
LINE
  5
44A
330
1F
100
AcDbEntity
  8
化粧台
  6
EXLTYPE2
 62
     6
100
AcDbLine
 10
1113.500000000051
 20
1185.50000000004
 30
0.0
 11
1113.500000000051
 21
900.5
 31
0.0
  0
LINE
  5
44B
330
1F
100
AcDbEntity
  8
化粧台
  6
EXLTYPE2
 62
     6
100
AcDbLine
 10
1182.500000000051
 20
1185.50000000004
 30
0.0
 11
1182.500000000051
 21
900.50000000004
 31
0.0
  0
LINE
  5
44C
330
1F
100
AcDbEntity
  8
化粧台
  6
EXLTYPE2
 62
     6
100
AcDbLine
 10
1203.500000000051
 20
1185.50000000004
 30
0.0
 11
1203.500000000051
 21
900.50000000004
 31
0.0
  0
LINE
  5
44D
330
1F
100
AcDbEntity
  8
化粧台
  6
CONTINUOUS
 62
     2
100
AcDbLine
 10
714.500000000131
 20
900.5
 30
0.0
 11
699.500000000131
 21
900.5
 31
0.0
  0
LINE
  5
44E
330
1F
100
AcDbEntity
  8
化粧台
  6
CONTINUOUS
 62
     2
100
AcDbLine
 10
713.0000000001237
 20
900.5
 30
0.0
 11
713.0000000001237
 21
897.0
 31
0.0
  0
LINE
  5
44F
330
1F
100
AcDbEntity
  8
化粧台
  6
CONTINUOUS
 62
     2
100
AcDbLine
 10
701.0000000001237
 20
900.5
 30
0.0
 11
701.0000000001237
 21
897.0
 31
0.0
  0
LINE
  5
450
330
1F
100
AcDbEntity
  8
化粧台
  6
CONTINUOUS
 62
     2
100
AcDbLine
 10
701.0000000001237
 20
897.0
 30
0.0
 11
713.0000000001237
 21
897.0
 31
0.0
  0
LINE
  5
451
330
1F
100
AcDbEntity
  8
化粧台
  6
CONTINUOUS
 62
     2
100
AcDbLine
 10
1251.500000000134
 20
900.5
 30
0.0
 11
1266.500000000134
 21
900.5
 31
0.0
  0
LINE
  5
452
330
1F
100
AcDbEntity
  8
化粧台
  6
CONTINUOUS
 62
     2
100
AcDbLine
 10
1253.000000000141
 20
900.5
 30
0.0
 11
1253.000000000141
 21
897.0
 31
0.0
  0
LINE
  5
453
330
1F
100
AcDbEntity
  8
化粧台
  6
CONTINUOUS
 62
     2
100
AcDbLine
 10
1265.000000000141
 20
900.5
 30
0.0
 11
1265.000000000141
 21
897.0
 31
0.0
  0
LINE
  5
454
330
1F
100
AcDbEntity
  8
化粧台
  6
CONTINUOUS
 62
     2
100
AcDbLine
 10
1265.000000000141
 20
897.0
 30
0.0
 11
1253.000000000141
 21
897.0
 31
0.0
  0
LINE
  5
455
330
1F
100
AcDbEntity
  8
化粧台
  6
CONTINUOUS
 62
     2
100
AcDbLine
 10
1251.500000000134
 20
987.5
 30
0.0
 11
1251.500000000134
 21
900.5
 31
0.0
  0
LINE
  5
456
330
1F
100
AcDbEntity
  8
化粧台
  6
CONTINUOUS
 62
     2
100
AcDbLine
 10
714.500000000131
 20
987.5
 30
0.0
 11
714.500000000131
 21
900.5
 31
0.0
  0
LINE
  5
457
330
1F
100
AcDbEntity
  8
化粧台
  6
CONTINUOUS
 62
     2
100
AcDbLine
 10
1251.500000000131
 20
987.5
 30
0.0
 11
714.500000000131
 21
987.5
 31
0.0
  0
LINE
  5
458
330
1F
100
AcDbEntity
  8
化粧台
  6
CONTINUOUS
 62
     2
100
AcDbLine
 10
984.000000000091
 20
988.5000000000396
 30
0.0
 11
1263.000000000131
 21
988.5000000000396
 31
0.0
  0
LINE
  5
459
330
1F
100
AcDbEntity
  8
化粧台
  6
CONTINUOUS
 62
     2
100
AcDbLine
 10
703.000000000091
 20
988.5000000000396
 30
0.0
 11
982.0000000000919
 21
988.5000000000396
 31
0.0
  0
LINE
  5
45A
330
1F
100
AcDbEntity
  8
化粧台
  6
CONTINUOUS
 62
     2
100
AcDbLine
 10
982.0000000000919
 20
1073.1
 30
0.0
 11
982.0000000000919
 21
988.5
 31
0.0
  0
LINE
  5
45B
330
1F
100
AcDbEntity
  8
化粧台
  6
CONTINUOUS
 62
     2
100
AcDbLine
 10
984.000000000091
 20
1073.1
 30
0.0
 11
984.000000000091
 21
988.5
 31
0.0
  0
LINE
  5
45C
330
1F
100
AcDbEntity
  8
化粧台
  6
CONTINUOUS
 62
     2
100
AcDbLine
 10
984.000000000091
 20
1478.5
 30
0.0
 11
984.000000000091
 21
1131.9
 31
0.0
  0
LINE
  5
45D
330
1F
100
AcDbEntity
  8
化粧台
  6
CONTINUOUS
 62
     2
100
AcDbLine
 10
982.0000000000919
 20
1478.5
 30
0.0
 11
982.0000000000919
 21
1131.9
 31
0.0
  0
LINE
  5
45E
330
1F
100
AcDbEntity
  8
化粧台
  6
CONTINUOUS
 62
     2
100
AcDbLine
 10
703.0000000000928
 20
1478.5
 30
0.0
 11
703.0000000000919
 21
988.4999999999995
 31
0.0
  0
LINE
  5
45F
330
1F
100
AcDbEntity
  8
化粧台
  6
CONTINUOUS
 62
     2
100
AcDbLine
 10
1263.000000000092
 20
1478.5
 30
0.0
 11
1263.000000000092
 21
988.4999999999995
 31
0.0
  0
LINE
  5
460
330
1F
100
AcDbEntity
  8
化粧台
  6
CONTINUOUS
 62
     2
100
AcDbLine
 10
1263.000000000131
 20
1478.50000000004
 30
0.0
 11
984.000000000091
 21
1478.50000000004
 31
0.0
  0
LINE
  5
461
330
1F
100
AcDbEntity
  8
化粧台
  6
CONTINUOUS
 62
     2
100
AcDbLine
 10
1265.000000000164
 20
1485.5
 30
0.0
 11
701.0000000001637
 21
1485.5
 31
0.0
  0
LINE
  5
462
330
1F
100
AcDbEntity
  8
化粧台
  6
CONTINUOUS
 62
     2
100
AcDbLine
 10
982.0000000000919
 20
1478.50000000004
 30
0.0
 11
703.000000000091
 21
1478.50000000004
 31
0.0
  0
ARC
  5
463
330
1F
100
AcDbEntity
  8
化粧台
  6
CONTINUOUS
 62
     2
100
AcDbCircle
 10
855.3702665095443
 20
1436.0
 30
0.0
 40
2.0
100
AcDbArc
 50
90.00000000000001
 51
163.1507203771844
  0
ARC
  5
464
330
1F
100
AcDbEntity
  8
化粧台
  6
CONTINUOUS
 62
     2
100
AcDbCircle
 10
855.3702665095443
 20
1431.0
 30
0.0
 40
2.0
100
AcDbArc
 50
196.8492796228166
 51
270.0
  0
ARC
  5
465
330
1F
100
AcDbEntity
  8
化粧台
  6
CONTINUOUS
 62
     2
100
AcDbCircle
 10
863.6250000000937
 20
1433.5
 30
0.0
 40
10.625
100
AcDbArc
 50
163.1507203771702
 51
196.8492796228299
  0
ARC
  5
466
330
1F
100
AcDbEntity
  8
化粧台
  6
CONTINUOUS
 62
     2
100
AcDbCircle
 10
912.5000000000937
 20
2518.185482900405
 30
0.0
 40
1090.685482900405
100
AcDbArc
 50
266.9919716782234
 51
273.0080283217766
  0
ARC
  5
467
330
1F
100
AcDbEntity
  8
化粧台
  6
CONTINUOUS
 62
     2
100
AcDbCircle
 10
912.5000000000937
 20
348.8145170995949
 30
0.0
 40
1090.685482900405
100
AcDbArc
 50
86.99197167822344
 51
93.00802832177662
  0
ARC
  5
468
330
1F
100
AcDbEntity
  8
化粧台
  6
CONTINUOUS
 62
     2
100
AcDbCircle
 10
961.3750000000937
 20
1433.5
 30
0.0
 40
10.625
100
AcDbArc
 50
343.1507203771704
 51
16.8492796228307
  0
ARC
  5
469
330
1F
100
AcDbEntity
  8
化粧台
  6
CONTINUOUS
 62
     2
100
AcDbCircle
 10
969.629733490643
 20
1431.0
 30
0.0
 40
2.0
100
AcDbArc
 50
270.0
 51
343.1507203771844
  0
ARC
  5
46A
330
1F
100
AcDbEntity
  8
化粧台
  6
CONTINUOUS
 62
     2
100
AcDbCircle
 10
969.629733490643
 20
1436.0
 30
0.0
 40
2.0
100
AcDbArc
 50
16.84927962281563
 51
90.00000000000001
  0
ARC
  5
46B
330
1F
100
AcDbEntity
  8
化粧台
  6
CONTINUOUS
 62
     2
100
AcDbCircle
 10
1110.62973349064
 20
1436.0
 30
0.0
 40
2.0
100
AcDbArc
 50
16.84927962281586
 51
90.00000000000001
  0
ARC
  5
46C
330
1F
100
AcDbEntity
  8
化粧台
  6
CONTINUOUS
 62
     2
100
AcDbCircle
 10
1110.62973349064
 20
1431.0
 30
0.0
 40
2.0
100
AcDbArc
 50
270.0000000000002
 51
343.1507203771823
  0
ARC
  5
46D
330
1F
100
AcDbEntity
  8
化粧台
  6
CONTINUOUS
 62
     2
100
AcDbCircle
 10
1102.375000000091
 20
1433.5
 30
0.0
 40
10.625
100
AcDbArc
 50
343.15072037717
 51
16.84927962283012
  0
ARC
  5
46E
330
1F
100
AcDbEntity
  8
化粧台
  6
CONTINUOUS
 62
     2
100
AcDbCircle
 10
1053.500000000091
 20
2518.185482900405
 30
0.0
 40
1090.685482900405
100
AcDbArc
 50
266.9919716782235
 51
273.0080283217767
  0
ARC
  5
46F
330
1F
100
AcDbEntity
  8
化粧台
  6
CONTINUOUS
 62
     2
100
AcDbCircle
 10
1053.500000000091
 20
348.8145170995949
 30
0.0
 40
1090.685482900405
100
AcDbArc
 50
86.99197167822338
 51
93.00802832177656
  0
ARC
  5
470
330
1F
100
AcDbEntity
  8
化粧台
  6
CONTINUOUS
 62
     2
100
AcDbCircle
 10
1004.625000000091
 20
1433.5
 30
0.0
 40
10.625
100
AcDbArc
 50
163.1507203771698
 51
196.8492796228301
  0
ARC
  5
471
330
1F
100
AcDbEntity
  8
化粧台
  6
CONTINUOUS
 62
     2
100
AcDbCircle
 10
996.3702665095407
 20
1431.0
 30
0.0
 40
2.0
100
AcDbArc
 50
196.8492796228176
 51
270.0000000000002
  0
ARC
  5
472
330
1F
100
AcDbEntity
  8
化粧台
  6
CONTINUOUS
 62
     2
100
AcDbCircle
 10
996.3702665095407
 20
1436.0
 30
0.0
 40
2.0
100
AcDbArc
 50
90.00000000000001
 51
163.1507203771841
  0
CIRCLE
  5
473
330
1F
100
AcDbEntity
  8
化粧台
  6
EXLTYPE2
 62
     6
100
AcDbCircle
 10
992.0000000000919
 20
1470.5
 30
0.0
 40
4.0
  0
CIRCLE
  5
474
330
1F
100
AcDbEntity
  8
化粧台
  6
EXLTYPE2
 62
     6
100
AcDbCircle
 10
974.0000000001728
 20
1470.5
 30
0.0
 40
4.0
  0
CIRCLE
  5
475
330
1F
100
AcDbEntity
  8
化粧台
  6
EXLTYPE2
 62
     6
100
AcDbCircle
 10
974.0000000001728
 20
996.4999999999995
 30
0.0
 40
4.0
  0
CIRCLE
  5
476
330
1F
100
AcDbEntity
  8
化粧台
  6
EXLTYPE2
 62
     6
100
AcDbCircle
 10
992.0000000000919
 20
996.4999999999995
 30
0.0
 40
4.0
  0
LINE
  5
477
330
1F
100
AcDbEntity
  8
化粧台
  6
CONTINUOUS
 62
     2
100
AcDbLine
 10
789.9964931642726
 20
1617.000000000108
 30
0.0
 11
688.2565282704509
 21
1617.000000000108
 31
0.0
  0
ARC
  5
478
330
1F
100
AcDbEntity
  8
化粧台
  6
CONTINUOUS
 62
     2
100
AcDbCircle
 10
787.5350115097426
 20
1645.104339212761
 30
0.0
 40
3.000000000000002
100
AcDbArc
 50
87.51044707800041
 51
202.7033731173424
  0
ARC
  5
479
330
1F
100
AcDbEntity
  8
化粧台
  6
CONTINUOUS
 62
     2
100
AcDbCircle
 10
688.2565282704509
 20
1620.000000000108
 30
0.0
 40
3.000000000000002
100
AcDbArc
 50
182.082565279727
 51
270.0000000000002
  0
LINE
  5
47A
330
1F
100
AcDbEntity
  8
化粧台
  6
CONTINUOUS
 62
     2
100
AcDbLine
 10
685.2585097766114
 20
1619.890981145787
 30
0.0
 11
683.1884253852022
 21
1676.818301909572
 31
0.0
  0
ARC
  5
47B
330
1F
100
AcDbEntity
  8
化粧台
  6
CONTINUOUS
 62
     2
100
AcDbCircle
 10
789.9964931642726
 20
1602.000000000108
 30
0.0
 40
15.00000000000001
100
AcDbArc
 50
32.90482742074656
 51
90.00000000000001
  0
ARC
  5
47C
330
1F
100
AcDbEntity
  8
化粧台
  6
CONTINUOUS
 62
     2
100
AcDbCircle
 10
688.1851228749347
 20
1677.000000000108
 30
0.0
 40
5.0
100
AcDbArc
 50
90.00000000000001
 51
182.0825652797287
  0
ARC
  5
47D
330
1F
100
AcDbEntity
  8
化粧台
  6
CONTINUOUS
 62
     2
100
AcDbCircle
 10
704.4359574453738
 20
1671.739070429828
 30
0.0
 40
20.0
100
AcDbArc
 50
232.1446748345211
 51
267.5104470780012
  0
LINE
  5
47E
330
1F
100
AcDbEntity
  8
化粧台
  6
CONTINUOUS
 62
     2
100
AcDbLine
 10
813.000000000091
 20
1647.000000000108
 30
0.0
 11
703.5672129598479
 21
1651.757947262727
 31
0.0
  0
ARC
  5
47F
330
1F
100
AcDbEntity
  8
化粧台
  6
CONTINUOUS
 62
     2
100
AcDbCircle
 10
689.0942137840248
 20
1652.000000000108
 30
0.0
 40
5.0
100
AcDbArc
 50
52.14467483452227
 51
182.0825652797287
  0
LINE
  5
480
330
1F
100
AcDbEntity
  8
化粧台
  6
CONTINUOUS
 62
     2
100
AcDbLine
 10
813.000000000091
 20
1647.000000000108
 30
0.0
 11
1153.000000000092
 21
1647.000000000108
 31
0.0
  0
ARC
  5
481
330
1F
100
AcDbEntity
  8
化粧台
  6
CONTINUOUS
 62
     2
100
AcDbCircle
 10
983.0000000000919
 20
1726.882636433079
 30
0.0
 40
214.8826364329721
100
AcDbArc
 50
202.703373117341
 51
337.2966268826593
  0
LINE
  5
482
330
1F
100
AcDbEntity
  8
化粧台
  6
CONTINUOUS
 62
     2
100
AcDbLine
 10
1176.003506835911
 20
1617.000000000108
 30
0.0
 11
1277.743471729732
 21
1617.000000000108
 31
0.0
  0
ARC
  5
483
330
1F
100
AcDbEntity
  8
化粧台
  6
CONTINUOUS
 62
     2
100
AcDbCircle
 10
1176.003506835911
 20
1602.000000000108
 30
0.0
 40
15.00000000000001
100
AcDbArc
 50
90.00000000000001
 51
147.0951725792534
  0
ARC
  5
484
330
1F
100
AcDbEntity
  8
化粧台
  6
CONTINUOUS
 62
     2
100
AcDbCircle
 10
1277.743471729732
 20
1620.000000000108
 30
0.0
 40
3.000000000000002
100
AcDbArc
 50
270.0000000000002
 51
357.9174347202712
  0
ARC
  5
485
330
1F
100
AcDbEntity
  8
化粧台
  6
CONTINUOUS
 62
     2
100
AcDbCircle
 10
1277.81487712525
 20
1677.000000000108
 30
0.0
 40
5.0
100
AcDbArc
 50
357.9174347202689
 51
90.00000000000001
  0
ARC
  5
486
330
1F
100
AcDbEntity
  8
化粧台
  6
CONTINUOUS
 62
     2
100
AcDbCircle
 10
1261.564042554809
 20
1671.739070429828
 30
0.0
 40
20.0
100
AcDbArc
 50
272.4895529219991
 51
307.8553251654786
  0
ARC
  5
487
330
1F
100
AcDbEntity
  8
化粧台
  6
CONTINUOUS
 62
     2
100
AcDbCircle
 10
1276.905786216158
 20
1652.000000000108
 30
0.0
 40
5.0
100
AcDbArc
 50
357.9174347202689
 51
127.8553251654777
  0
LINE
  5
488
330
1F
100
AcDbEntity
  8
化粧台
  6
CONTINUOUS
 62
     2
100
AcDbLine
 10
1280.741490223572
 20
1619.890981145787
 30
0.0
 11
1282.811574614983
 21
1676.818301909572
 31
0.0
  0
LINE
  5
489
330
1F
100
AcDbEntity
  8
化粧台
  6
CONTINUOUS
 62
     6
100
AcDbLine
 10
1163.000000000921
 20
1754.521739130599
 30
0.0
 11
1188.000000000919
 21
1754.521739130599
 31
0.0
  0
LINE
  5
48A
330
1F
100
AcDbEntity
  8
化粧台
  6
CONTINUOUS
 62
     6
100
AcDbLine
 10
1188.000000000919
 20
1754.521739130599
 30
0.0
 11
1213.000000000921
 21
1754.521739130599
 31
0.0
  0
ARC
  5
48B
330
1F
100
AcDbEntity
  8
化粧台
  6
CONTINUOUS
 62
     6
100
AcDbCircle
 10
1145.583227050415
 20
1711.521739130604
 30
0.0
 40
23.13740480126591
100
AcDbArc
 50
318.8295003524853
 51
41.17049964751445
  0
LINE
  5
48C
330
1F
100
AcDbEntity
  8
化粧台
  6
CONTINUOUS
 62
     6
100
AcDbLine
 10
1163.000000000919
 20
1696.290339952315
 30
0.0
 11
1163.000000000919
 21
1653.61803033238
 31
0.0
  0
LINE
  5
48D
330
1F
100
AcDbEntity
  8
化粧台
  6
CONTINUOUS
 62
     6
100
AcDbLine
 10
1080.630798149033
 20
1717.61761091786
 30
0.0
 11
1095.402914444215
 21
1715.012888252855
 31
0.0
  0
LINE
  5
48E
330
1F
100
AcDbEntity
  8
化粧台
  6
CONTINUOUS
 62
     6
100
AcDbLine
 10
1213.000000000919
 20
1693.05809552572
 30
0.0
 11
1213.000000000918
 21
1653.618030332381
 31
0.0
  0
LINE
  5
48F
330
1F
100
AcDbEntity
  8
化粧台
  6
CONTINUOUS
 62
     6
100
AcDbLine
 10
1095.402914444215
 20
1715.012888252855
 30
0.0
 11
1099.84771080631
 21
1707.425792430829
 31
0.0
  0
LINE
  5
490
330
1F
100
AcDbEntity
  8
化粧台
  6
CONTINUOUS
 62
     6
100
AcDbLine
 10
1099.84771080631
 20
1707.425792430829
 30
0.0
 11
1163.000000000919
 21
1696.290339952315
 31
0.0
  0
LINE
  5
491
330
1F
100
AcDbEntity
  8
化粧台
  6
CONTINUOUS
 62
     6
100
AcDbLine
 10
1162.964238346362
 20
1653.432334994203
 30
0.0
 11
1161.000000000918
 21
1648.5217391306
 31
0.0
  0
ARC
  5
492
330
1F
100
AcDbEntity
  8
化粧台
  6
CONTINUOUS
 62
     6
100
AcDbCircle
 10
1162.500000000918
 20
1653.61803033238
 30
0.0
 40
0.5
100
AcDbArc
 50
338.1985905136144
 51
0.0
  0
ARC
  5
493
330
1F
100
AcDbEntity
  8
化粧台
  6
CONTINUOUS
 62
     6
100
AcDbCircle
 10
1162.500000000919
 20
1653.61803033238
 30
0.0
 40
0.5
100
AcDbArc
 50
338.1985905136144
 51
0.0
  0
ARC
  5
494
330
1F
100
AcDbEntity
  8
化粧台
  6
CONTINUOUS
 62
     6
100
AcDbCircle
 10
1213.500000000921
 20
1653.618030332381
 30
0.0
 40
0.5
100
AcDbArc
 50
180.0
 51
201.8014094863857
  0
ARC
  5
495
330
1F
100
AcDbEntity
  8
化粧台
  6
CONTINUOUS
 62
     6
100
AcDbCircle
 10
1213.500000000921
 20
1653.618030332381
 30
0.0
 40
0.5
100
AcDbArc
 50
180.0
 51
201.8014094863857
  0
LINE
  5
496
330
1F
100
AcDbEntity
  8
化粧台
  6
CONTINUOUS
 62
     6
100
AcDbLine
 10
1213.035761655477
 20
1653.432334994204
 30
0.0
 11
1215.000000000921
 21
1648.5217391306
 31
0.0
  0
ARC
  5
497
330
1F
100
AcDbEntity
  8
化粧台
  6
CONTINUOUS
 62
     6
100
AcDbCircle
 10
1188.020088785922
 20
1756.404498289498
 30
0.0
 40
22.5
100
AcDbArc
 50
160.114147801709
 51
169.4561209550643
  0
LINE
  5
498
330
1F
100
AcDbEntity
  8
化粧台
  6
CONTINUOUS
 62
     6
100
AcDbLine
 10
1163.000000000921
 20
1758.521739130599
 30
0.0
 11
1163.000000000918
 21
1726.753138308888
 31
0.0
  0
ARC
  5
499
330
1F
100
AcDbEntity
  8
化粧台
  6
CONTINUOUS
 62
     6
100
AcDbCircle
 10
1165.000000000921
 20
1758.521739130599
 30
0.0
 40
2.0
100
AcDbArc
 50
90.00000000000001
 51
179.9999999999936
  0
LINE
  5
49A
330
1F
100
AcDbEntity
  8
化粧台
  6
CONTINUOUS
 62
     6
100
AcDbLine
 10
1213.000000000919
 20
1758.521739130599
 30
0.0
 11
1213.000000000919
 21
1693.05809552572
 31
0.0
  0
LINE
  5
49B
330
1F
100
AcDbEntity
  8
化粧台
  6
CONTINUOUS
 62
     6
100
AcDbLine
 10
1211.000000000921
 20
1760.521739130599
 30
0.0
 11
1165.000000000921
 21
1760.521739130599
 31
0.0
  0
ARC
  5
49C
330
1F
100
AcDbEntity
  8
化粧台
  6
CONTINUOUS
 62
     6
100
AcDbCircle
 10
1211.000000000921
 20
1758.521739130599
 30
0.0
 40
2.0
100
AcDbArc
 50
0.0
 51
90.00000000000001
  0
ARC
  5
49D
330
1F
100
AcDbEntity
  8
化粧台
  6
CONTINUOUS
 62
     6
100
AcDbCircle
 10
1187.979911215919
 20
1756.404498289498
 30
0.0
 40
22.5
100
AcDbArc
 50
10.54387904493575
 51
19.88585219831368
  0
LINE
  5
49E
330
1F
100
AcDbEntity
  8
化粧台
  6
CONTINUOUS
 62
     6
100
AcDbLine
 10
1067.123947364659
 20
1743.658673192485
 30
0.0
 11
1163.000000000919
 21
1726.753138308887
 31
0.0
  0
LINE
  5
49F
330
1F
100
AcDbEntity
  8
化粧台
  6
CONTINUOUS
 62
     6
100
AcDbLine
 10
1063.07794482502
 20
1720.712652547301
 30
0.0
 11
1080.630798149033
 21
1717.617610917858
 31
0.0
  0
LINE
  5
4A0
330
1F
100
AcDbEntity
  8
化粧台
  6
CONTINUOUS
 62
     6
100
AcDbLine
 10
1068.813105112887
 20
1719.701389049862
 30
0.0
 11
1067.419706280235
 21
1711.799031582778
 31
0.0
  0
LINE
  5
4A1
330
1F
100
AcDbEntity
  8
化粧台
  6
CONTINUOUS
 62
     6
100
AcDbLine
 10
1067.419706280237
 20
1711.799031582778
 30
0.0
 11
1091.055092352529
 21
1707.631475318769
 31
0.0
  0
LINE
  5
4A2
330
1F
100
AcDbEntity
  8
化粧台
  6
CONTINUOUS
 62
     6
100
AcDbLine
 10
1092.448491185181
 20
1715.533832785856
 30
0.0
 11
1091.055092352529
 21
1707.631475318769
 31
0.0
  0
LINE
  5
4A3
330
1F
100
AcDbEntity
  8
化粧台
  6
CONTINUOUS
 62
     6
100
AcDbLine
 10
1188.000000000919
 20
1648.5217391306
 30
0.0
 11
1161.000000000921
 21
1648.5217391306
 31
0.0
  0
LINE
  5
4A4
330
1F
100
AcDbEntity
  8
化粧台
  6
CONTINUOUS
 62
     6
100
AcDbLine
 10
1188.000000000919
 20
1648.5217391306
 30
0.0
 11
1215.000000000918
 21
1648.5217391306
 31
0.0
  0
LINE
  5
4A5
330
1F
100
AcDbEntity
  8
化粧台
  6
CONTINUOUS
 62
     6
100
AcDbLine
 10
1213.000000000918
 20
1653.618030332379
 30
0.0
 11
1163.000000000919
 21
1653.618030332379
 31
0.0
  0
LINE
  5
4A6
330
1F
100
AcDbEntity
  8
化粧台
  6
CONTINUOUS
 62
     6
100
AcDbLine
 10
1063.07794482502
 20
1720.712652547301
 30
0.0
 11
1067.123947364659
 21
1743.658673192485
 31
0.0
  0
ARC
  5
4A7
330
1F
100
AcDbEntity
  8
化粧台
  6
CONTINUOUS
 62
     6
100
AcDbCircle
 10
1158.184405713121
 20
1793.680811864949
 30
0.0
 40
6.29979425145349
100
AcDbArc
 50
319.8540880800269
 51
40.14591191997305
  0
LINE
  5
4A8
330
1F
100
AcDbEntity
  8
化粧台
  6
CONTINUOUS
 62
     6
100
AcDbLine
 10
1163.000000000919
 20
1778.121739130601
 30
0.0
 11
1163.000000000919
 21
1789.619105417411
 31
0.0
  0
LINE
  5
4A9
330
1F
100
AcDbEntity
  8
化粧台
  6
CONTINUOUS
 62
     6
100
AcDbLine
 10
1163.000000000919
 20
1764.057813856066
 30
0.0
 11
1163.000000000918
 21
1778.121739130601
 31
0.0
  0
LINE
  5
4AA
330
1F
100
AcDbEntity
  8
化粧台
  6
CONTINUOUS
 62
     6
100
AcDbLine
 10
1163.000000000925
 20
1764.057813856066
 30
0.0
 11
1163.000000000925
 21
1772.021739130599
 31
0.0
  0
LINE
  5
4AB
330
1F
100
AcDbEntity
  8
化粧台
  6
CONTINUOUS
 62
     6
100
AcDbLine
 10
1163.000000000919
 20
1783.221739130599
 30
0.0
 11
1162.502252577581
 21
1783.221739130599
 31
0.0
  0
LINE
  5
4AC
330
1F
100
AcDbEntity
  8
化粧台
  6
CONTINUOUS
 62
     6
100
AcDbLine
 10
1163.000000000919
 20
1773.021739130599
 30
0.0
 11
1162.502252577583
 21
1773.021739130598
 31
0.0
  0
ARC
  5
4AD
330
1F
100
AcDbEntity
  8
化粧台
  6
CONTINUOUS
 62
     6
100
AcDbCircle
 10
1168.069440019131
 20
1778.121739130599
 30
0.0
 40
7.55007125855991
100
AcDbArc
 50
137.5077625694678
 51
222.4922374305324
  0
POLYLINE
  5
4AE
330
1F
100
AcDbEntity
  8
化粧台
  6
CONTINUOUS
 62
     6
100
AcDb2dPolyline
 66
     1
 10
0.0
 20
0.0
 30
0.0
 70
   128
  0
VERTEX
  5
4AF
330
4AE
100
AcDbEntity
  8
化粧台
  6
CONTINUOUS
 62
     6
100
AcDbVertex
100
AcDb2dVertex
 10
1163.017563043712
 20
1773.119778346298
 30
0.0
  0
VERTEX
  5
4B0
330
4AE
100
AcDbEntity
  8
化粧台
  6
CONTINUOUS
 62
     6
100
AcDbVertex
100
AcDb2dVertex
 10
1163.017565618718
 20
1773.115965209146
 30
0.0
  0
VERTEX
  5
4B1
330
4AE
100
AcDbEntity
  8
化粧台
  6
CONTINUOUS
 62
     6
100
AcDbVertex
100
AcDb2dVertex
 10
1163.017570843431
 20
1773.105137148207
 30
0.0
  0
VERTEX
  5
4B2
330
4AE
100
AcDbEntity
  8
化粧台
  6
CONTINUOUS
 62
     6
100
AcDbVertex
100
AcDb2dVertex
 10
1163.017574967395
 20
1773.08821118925
 30
0.0
  0
VERTEX
  5
4B3
330
4AE
100
AcDbEntity
  8
化粧台
  6
CONTINUOUS
 62
     6
100
AcDbVertex
100
AcDb2dVertex
 10
1163.017574240155
 20
1773.066104358046
 30
0.0
  0
VERTEX
  5
4B4
330
4AE
100
AcDbEntity
  8
化粧台
  6
CONTINUOUS
 62
     6
100
AcDbVertex
100
AcDb2dVertex
 10
1163.017564911253
 20
1773.039733680367
 30
0.0
  0
VERTEX
  5
4B5
330
4AE
100
AcDbEntity
  8
化粧台
  6
CONTINUOUS
 62
     6
100
AcDbVertex
100
AcDb2dVertex
 10
1163.017543230233
 20
1773.010016181984
 30
0.0
  0
VERTEX
  5
4B6
330
4AE
100
AcDbEntity
  8
化粧台
  6
CONTINUOUS
 62
     6
100
AcDbVertex
100
AcDb2dVertex
 10
1163.01750544664
 20
1772.977868888669
 30
0.0
  0
VERTEX
  5
4B7
330
4AE
100
AcDbEntity
  8
化粧台
  6
CONTINUOUS
 62
     6
100
AcDbVertex
100
AcDb2dVertex
 10
1163.017447810018
 20
1772.944208826191
 30
0.0
  0
VERTEX
  5
4B8
330
4AE
100
AcDbEntity
  8
化粧台
  6
CONTINUOUS
 62
     6
100
AcDbVertex
100
AcDb2dVertex
 10
1163.01736656991
 20
1772.909953020322
 30
0.0
  0
VERTEX
  5
4B9
330
4AE
100
AcDbEntity
  8
化粧台
  6
CONTINUOUS
 62
     6
100
AcDbVertex
100
AcDb2dVertex
 10
1163.017257975859
 20
1772.876018496835
 30
0.0
  0
VERTEX
  5
4BA
330
4AE
100
AcDbEntity
  8
化粧台
  6
CONTINUOUS
 62
     6
100
AcDbVertex
100
AcDb2dVertex
 10
1163.017118277411
 20
1772.843322281498
 30
0.0
  0
VERTEX
  5
4BB
330
4AE
100
AcDbEntity
  8
化粧台
  6
CONTINUOUS
 62
     6
100
AcDbVertex
100
AcDb2dVertex
 10
1163.016952105222
 20
1772.813763279329
 30
0.0
  0
VERTEX
  5
4BC
330
4AE
100
AcDbEntity
  8
化粧台
  6
CONTINUOUS
 62
     6
100
AcDbVertex
100
AcDb2dVertex
 10
1163.016755094175
 20
1772.78596660251
 30
0.0
  0
VERTEX
  5
4BD
330
4AE
100
AcDbEntity
  8
化粧台
  6
CONTINUOUS
 62
     6
100
AcDbVertex
100
AcDb2dVertex
 10
1163.016528559167
 20
1772.759706271519
 30
0.0
  0
VERTEX
  5
4BE
330
4AE
100
AcDbEntity
  8
化粧台
  6
CONTINUOUS
 62
     6
100
AcDbVertex
100
AcDb2dVertex
 10
1163.016273815096
 20
1772.734756306832
 30
0.0
  0
VERTEX
  5
4BF
330
4AE
100
AcDbEntity
  8
化粧台
  6
CONTINUOUS
 62
     6
100
AcDbVertex
100
AcDb2dVertex
 10
1163.015992176857
 20
1772.710890728929
 30
0.0
  0
VERTEX
  5
4C0
330
4AE
100
AcDbEntity
  8
化粧台
  6
CONTINUOUS
 62
     6
100
AcDbVertex
100
AcDb2dVertex
 10
1163.015684959347
 20
1772.687883558286
 30
0.0
  0
VERTEX
  5
4C1
330
4AE
100
AcDbEntity
  8
化粧台
  6
CONTINUOUS
 62
     6
100
AcDbVertex
100
AcDb2dVertex
 10
1163.015353477463
 20
1772.665508815381
 30
0.0
  0
VERTEX
  5
4C2
330
4AE
100
AcDbEntity
  8
化粧台
  6
CONTINUOUS
 62
     6
100
AcDbVertex
100
AcDb2dVertex
 10
1163.0149990461
 20
1772.643540520693
 30
0.0
  0
VERTEX
  5
4C3
330
4AE
100
AcDbEntity
  8
化粧台
  6
CONTINUOUS
 62
     6
100
AcDbVertex
100
AcDb2dVertex
 10
1163.014622980157
 20
1772.621752694697
 30
0.0
  0
VERTEX
  5
4C4
330
4AE
100
AcDbEntity
  8
化粧台
  6
CONTINUOUS
 62
     6
100
AcDbVertex
100
AcDb2dVertex
 10
1163.01422659453
 20
1772.599919357874
 30
0.0
  0
VERTEX
  5
4C5
330
4AE
100
AcDbEntity
  8
化粧台
  6
CONTINUOUS
 62
     6
100
AcDbVertex
100
AcDb2dVertex
 10
1163.013811204115
 20
1772.577814530699
 30
0.0
  0
VERTEX
  5
4C6
330
4AE
100
AcDbEntity
  8
化粧台
  6
CONTINUOUS
 62
     6
100
AcDbVertex
100
AcDb2dVertex
 10
1163.013438971532
 20
1772.558419965191
 30
0.0
  0
VERTEX
  5
4C7
330
4AE
100
AcDbEntity
  8
化粧台
  6
CONTINUOUS
 62
     6
100
AcDbVertex
100
AcDb2dVertex
 10
1163.013052305272
 20
1772.538679615702
 30
0.0
  0
VERTEX
  5
4C8
330
4AE
100
AcDbEntity
  8
化粧台
  6
CONTINUOUS
 62
     6
100
AcDbVertex
100
AcDb2dVertex
 10
1163.012649885567
 20
1772.518616483786
 30
0.0
  0
VERTEX
  5
4C9
330
4AE
100
AcDbEntity
  8
化粧台
  6
CONTINUOUS
 62
     6
100
AcDbVertex
100
AcDb2dVertex
 10
1163.012230392651
 20
1772.498253570993
 30
0.0
  0
VERTEX
  5
4CA
330
4AE
100
AcDbEntity
  8
化粧台
  6
CONTINUOUS
 62
     6
100
AcDbVertex
100
AcDb2dVertex
 10
1163.011792506756
 20
1772.477613878877
 30
0.0
  0
VERTEX
  5
4CB
330
4AE
100
AcDbEntity
  8
化粧台
  6
CONTINUOUS
 62
     6
100
AcDbVertex
100
AcDb2dVertex
 10
1163.011334908116
 20
1772.456720408988
 30
0.0
  0
VERTEX
  5
4CC
330
4AE
100
AcDbEntity
  8
化粧台
  6
CONTINUOUS
 62
     6
100
AcDbVertex
100
AcDb2dVertex
 10
1163.010856276965
 20
1772.43559616288
 30
0.0
  0
VERTEX
  5
4CD
330
4AE
100
AcDbEntity
  8
化粧台
  6
CONTINUOUS
 62
     6
100
AcDbVertex
100
AcDb2dVertex
 10
1163.010355293536
 20
1772.414264142105
 30
0.0
  0
VERTEX
  5
4CE
330
4AE
100
AcDbEntity
  8
化粧台
  6
CONTINUOUS
 62
     6
100
AcDbVertex
100
AcDb2dVertex
 10
1163.009830638062
 20
1772.392747348215
 30
0.0
  0
VERTEX
  5
4CF
330
4AE
100
AcDbEntity
  8
化粧台
  6
CONTINUOUS
 62
     6
100
AcDbVertex
100
AcDb2dVertex
 10
1163.009280990776
 20
1772.371068782762
 30
0.0
  0
VERTEX
  5
4D0
330
4AE
100
AcDbEntity
  8
化粧台
  6
CONTINUOUS
 62
     6
100
AcDbVertex
100
AcDb2dVertex
 10
1163.008705031913
 20
1772.349251447298
 30
0.0
  0
VERTEX
  5
4D1
330
4AE
100
AcDbEntity
  8
化粧台
  6
CONTINUOUS
 62
     6
100
AcDbVertex
100
AcDb2dVertex
 10
1163.00823688795
 20
1772.33214759848
 30
0.0
  0
VERTEX
  5
4D2
330
4AE
100
AcDbEntity
  8
化粧台
  6
CONTINUOUS
 62
     6
100
AcDbVertex
100
AcDb2dVertex
 10
1163.007754812089
 20
1772.315035219754
 30
0.0
  0
VERTEX
  5
4D3
330
4AE
100
AcDbEntity
  8
化粧台
  6
CONTINUOUS
 62
     6
100
AcDbVertex
100
AcDb2dVertex
 10
1163.007261709461
 20
1772.297976324167
 30
0.0
  0
VERTEX
  5
4D4
330
4AE
100
AcDbEntity
  8
化粧台
  6
CONTINUOUS
 62
     6
100
AcDbVertex
100
AcDb2dVertex
 10
1163.006760485196
 20
1772.281032924764
 30
0.0
  0
VERTEX
  5
4D5
330
4AE
100
AcDbEntity
  8
化粧台
  6
CONTINUOUS
 62
     6
100
AcDbVertex
100
AcDb2dVertex
 10
1163.006254044423
 20
1772.264267034592
 30
0.0
  0
VERTEX
  5
4D6
330
4AE
100
AcDbEntity
  8
化粧台
  6
CONTINUOUS
 62
     6
100
AcDbVertex
100
AcDb2dVertex
 10
1163.005745292273
 20
1772.247740666696
 30
0.0
  0
VERTEX
  5
4D7
330
4AE
100
AcDbEntity
  8
化粧台
  6
CONTINUOUS
 62
     6
100
AcDbVertex
100
AcDb2dVertex
 10
1163.005237133876
 20
1772.231515834124
 30
0.0
  0
VERTEX
  5
4D8
330
4AE
100
AcDbEntity
  8
化粧台
  6
CONTINUOUS
 62
     6
100
AcDbVertex
100
AcDb2dVertex
 10
1163.004732474361
 20
1772.215654549923
 30
0.0
  0
VERTEX
  5
4D9
330
4AE
100
AcDbEntity
  8
化粧台
  6
CONTINUOUS
 62
     6
100
AcDbVertex
100
AcDb2dVertex
 10
1163.004234218859
 20
1772.200218827137
 30
0.0
  0
VERTEX
  5
4DA
330
4AE
100
AcDbEntity
  8
化粧台
  6
CONTINUOUS
 62
     6
100
AcDbVertex
100
AcDb2dVertex
 10
1163.003745272499
 20
1772.185270678813
 30
0.0
  0
VERTEX
  5
4DB
330
4AE
100
AcDbEntity
  8
化粧台
  6
CONTINUOUS
 62
     6
100
AcDbVertex
100
AcDb2dVertex
 10
1163.003268540412
 20
1772.170872117998
 30
0.0
  0
VERTEX
  5
4DC
330
4AE
100
AcDbEntity
  8
化粧台
  6
CONTINUOUS
 62
     6
100
AcDbVertex
100
AcDb2dVertex
 10
1163.002977152373
 20
1772.162157589103
 30
0.0
  0
VERTEX
  5
4DD
330
4AE
100
AcDbEntity
  8
化粧台
  6
CONTINUOUS
 62
     6
100
AcDbVertex
100
AcDb2dVertex
 10
1163.002686389839
 20
1772.15355134298
 30
0.0
  0
VERTEX
  5
4DE
330
4AE
100
AcDbEntity
  8
化粧台
  6
CONTINUOUS
 62
     6
100
AcDbVertex
100
AcDb2dVertex
 10
1163.002390975329
 20
1772.144922878667
 30
0.0
  0
VERTEX
  5
4DF
330
4AE
100
AcDbEntity
  8
化粧台
  6
CONTINUOUS
 62
     6
100
AcDbVertex
100
AcDb2dVertex
 10
1163.002085631366
 20
1772.136141695203
 30
0.0
  0
VERTEX
  5
4E0
330
4AE
100
AcDbEntity
  8
化粧台
  6
CONTINUOUS
 62
     6
100
AcDbVertex
100
AcDb2dVertex
 10
1163.001765080471
 20
1772.127077291627
 30
0.0
  0
VERTEX
  5
4E1
330
4AE
100
AcDbEntity
  8
化粧台
  6
CONTINUOUS
 62
     6
100
AcDbVertex
100
AcDb2dVertex
 10
1163.001424045164
 20
1772.117599166977
 30
0.0
  0
VERTEX
  5
4E2
330
4AE
100
AcDbEntity
  8
化粧台
  6
CONTINUOUS
 62
     6
100
AcDbVertex
100
AcDb2dVertex
 10
1163.001057247968
 20
1772.107576820295
 30
0.0
  0
VERTEX
  5
4E3
330
4AE
100
AcDbEntity
  8
化粧台
  6
CONTINUOUS
 62
     6
100
AcDbVertex
100
AcDb2dVertex
 10
1163.000659411403
 20
1772.096879750616
 30
0.0
  0
VERTEX
  5
4E4
330
4AE
100
AcDbEntity
  8
化粧台
  6
CONTINUOUS
 62
     6
100
AcDbVertex
100
AcDb2dVertex
 10
1163.000225257992
 20
1772.085377456981
 30
0.0
  0
VERTEX
  5
4E5
330
4AE
100
AcDbEntity
  8
化粧台
  6
CONTINUOUS
 62
     6
100
AcDbVertex
100
AcDb2dVertex
 10
1162.999749510255
 20
1772.072939438428
 30
0.0
  0
VERTEX
  5
4E6
330
4AE
100
AcDbEntity
  8
化粧台
  6
CONTINUOUS
 62
     6
100
AcDbVertex
100
AcDb2dVertex
 10
1162.999226890713
 20
1772.059435193998
 30
0.0
  0
VERTEX
  5
4E7
330
4AE
100
AcDbEntity
  8
化粧台
  6
CONTINUOUS
 62
     6
100
AcDbVertex
100
AcDb2dVertex
 10
1162.999039266278
 20
1772.054620278617
 30
0.0
  0
VERTEX
  5
4E8
330
4AE
100
AcDbEntity
  8
化粧台
  6
CONTINUOUS
 62
     6
100
AcDbVertex
100
AcDb2dVertex
 10
1162.998849821693
 20
1772.04977203555
 30
0.0
  0
VERTEX
  5
4E9
330
4AE
100
AcDbEntity
  8
化粧台
  6
CONTINUOUS
 62
     6
100
AcDbVertex
100
AcDb2dVertex
 10
1162.998662705507
 20
1772.044994107396
 30
0.0
  0
VERTEX
  5
4EA
330
4AE
100
AcDbEntity
  8
化粧台
  6
CONTINUOUS
 62
     6
100
AcDbVertex
100
AcDb2dVertex
 10
1162.998482066268
 20
1772.04039013675
 30
0.0
  0
VERTEX
  5
4EB
330
4AE
100
AcDbEntity
  8
化粧台
  6
CONTINUOUS
 62
     6
100
AcDbVertex
100
AcDb2dVertex
 10
1162.998312052525
 20
1772.036063766209
 30
0.0
  0
VERTEX
  5
4EC
330
4AE
100
AcDbEntity
  8
化粧台
  6
CONTINUOUS
 62
     6
100
AcDbVertex
100
AcDb2dVertex
 10
1162.998156812826
 20
1772.03211863837
 30
0.0
  0
VERTEX
  5
4ED
330
4AE
100
AcDbEntity
  8
化粧台
  6
CONTINUOUS
 62
     6
100
AcDbVertex
100
AcDb2dVertex
 10
1162.998020495722
 20
1772.02865839583
 30
0.0
  0
VERTEX
  5
4EE
330
4AE
100
AcDbEntity
  8
化粧台
  6
CONTINUOUS
 62
     6
100
AcDbVertex
100
AcDb2dVertex
 10
1162.99790724976
 20
1772.025786681187
 30
0.0
  0
VERTEX
  5
4EF
330
4AE
100
AcDbEntity
  8
化粧台
  6
CONTINUOUS
 62
     6
100
AcDbVertex
100
AcDb2dVertex
 10
1162.997821223488
 20
1772.023607137035
 30
0.0
  0
VERTEX
  5
4F0
330
4AE
100
AcDbEntity
  8
化粧台
  6
CONTINUOUS
 62
     6
100
AcDbVertex
100
AcDb2dVertex
 10
1162.997766565456
 20
1772.022223405974
 30
0.0
  0
VERTEX
  5
4F1
330
4AE
100
AcDbEntity
  8
化粧台
  6
CONTINUOUS
 62
     6
100
AcDbVertex
100
AcDb2dVertex
 10
1162.997747424212
 20
1772.021739130598
 30
0.0
  0
SEQEND
  5
4F2
330
4AE
100
AcDbEntity
  8
化粧台
  6
CONTINUOUS
 62
     6
  0
LINE
  5
4F3
330
1F
100
AcDbEntity
  8
化粧台
  6
CONTINUOUS
 62
     6
100
AcDbLine
 10
1213.000000000923
 20
1764.057813856066
 30
0.0
 11
1213.000000000923
 21
1799.621073356876
 31
0.0
  0
LINE
  5
4F4
330
1F
100
AcDbEntity
  8
化粧台
  6
CONTINUOUS
 62
     6
100
AcDbLine
 10
1160.022702649606
 20
1801.821489306724
 30
0.0
 11
1093.577831947111
 21
1813.537512741252
 31
0.0
  0
LINE
  5
4F5
330
1F
100
AcDbEntity
  8
化粧台
  6
CONTINUOUS
 62
     6
100
AcDbLine
 10
1157.417979984605
 20
1787.049373011537
 30
0.0
 11
1090.973109282108
 21
1798.765396446066
 31
0.0
  0
LINE
  5
4F6
330
1F
100
AcDbEntity
  8
化粧台
  6
CONTINUOUS
 62
     6
100
AcDbLine
 10
1090.97310928211
 20
1798.765396446073
 30
0.0
 11
1093.577831947111
 21
1813.537512741252
 31
0.0
  0
LINE
  5
4F7
330
1F
100
AcDbEntity
  8
化粧台
  6
CONTINUOUS
 62
     6
100
AcDbLine
 10
1157.417979984605
 20
1787.049373011537
 30
0.0
 11
1160.022702649608
 21
1801.821489306724
 31
0.0
  0
LINE
  5
4F8
330
1F
100
AcDbEntity
  8
化粧台
  6
CONTINUOUS
 62
     6
100
AcDbLine
 10
1159.414934027774
 20
1798.374662171178
 30
0.0
 11
1163.000000000919
 21
1797.742518312493
 31
0.0
  0
LINE
  5
4F9
330
1F
100
AcDbEntity
  8
化粧台
  6
CONTINUOUS
 62
     6
100
AcDbLine
 10
1158.025748606439
 20
1790.496200147081
 30
0.0
 11
1163.000000000919
 21
1789.619105417407
 31
0.0
  0
LINE
  5
4FA
330
1F
100
AcDbEntity
  8
化粧台
  6
CONTINUOUS
 62
     6
100
AcDbLine
 10
1163.000000000919
 20
1764.057813856066
 30
0.0
 11
1213.000000000923
 21
1764.057813856066
 31
0.0
  0
LINE
  5
4FB
330
1F
100
AcDbEntity
  8
化粧台
  6
CONTINUOUS
 62
     6
100
AcDbLine
 10
1163.000000000919
 20
1797.742518312486
 30
0.0
 11
1163.000000000919
 21
1801.367490143984
 31
0.0
  0
ARC
  5
4FC
330
1F
100
AcDbEntity
  8
化粧台
  6
CONTINUOUS
 62
     6
100
AcDbCircle
 10
1188.000000000918
 20
1624.03774002369
 30
0.0
 40
179.0833333331875
100
AcDbArc
 50
81.97531013013682
 51
98.02468986986013
  0
LINE
  5
4FD
330
1F
100
AcDbEntity
  8
化粧台
  6
CONTINUOUS
 62
     6
100
AcDbLine
 10
1213.000000000923
 20
1770.756543666844
 30
0.0
 11
1213.000000000923
 21
1801.367490143982
 31
0.0
  0
LINE
  5
4FE
330
1F
100
AcDbEntity
  8
化粧台
  6
CONTINUOUS
 62
     2
100
AcDbLine
 10
1153.000000000092
 20
1647.000000000108
 30
0.0
 11
1262.432787040337
 21
1651.757947262727
 31
0.0
  0
ARC
  5
4FF
330
1F
100
AcDbEntity
  8
化粧台
  6
CONTINUOUS
 62
     6
100
AcDbCircle
 10
1162.500000000925
 20
1653.618030332379
 30
0.0
 40
0.5
100
AcDbArc
 50
338.1985905136144
 51
0.0
  0
ARC
  5
500
330
1F
100
AcDbEntity
  8
化粧台
  6
CONTINUOUS
 62
     6
100
AcDbCircle
 10
1162.500000000923
 20
1653.618030332379
 30
0.0
 40
0.5
100
AcDbArc
 50
338.1985905136144
 51
0.0
  0
LINE
  5
501
330
1F
100
AcDbEntity
  8
化粧台
  6
CONTINUOUS
 62
     6
100
AcDbLine
 10
1162.964238346368
 20
1653.432334994202
 30
0.0
 11
1161.000000000923
 21
1648.521739130599
 31
0.0
  0
LINE
  5
502
330
1F
100
AcDbEntity
  8
化粧台
  6
CONTINUOUS
 62
     6
100
AcDbLine
 10
1162.964238346331
 20
1653.432334994264
 30
0.0
 11
1161.000000000886
 21
1648.521739130661
 31
0.0
  0
ARC
  5
503
330
1F
100
AcDbEntity
  8
化粧台
  6
CONTINUOUS
 62
     6
100
AcDbCircle
 10
1162.500000000886
 20
1653.618030332441
 30
0.0
 40
0.5
100
AcDbArc
 50
338.1985905136144
 51
0.0
  0
ARC
  5
504
330
1F
100
AcDbEntity
  8
化粧台
  6
CONTINUOUS
 62
     6
100
AcDbCircle
 10
1162.500000000888
 20
1653.618030332441
 30
0.0
 40
0.5
100
AcDbArc
 50
338.1985905136144
 51
0.0
  0
LINE
  5
505
330
1F
100
AcDbEntity
  8
化粧台
  6
CONTINUOUS
 62
     6
100
AcDbLine
 10
1160.314677500891
 20
1658.21340620014
 30
0.0
 11
1160.314677500891
 21
1659.42835350014
 31
0.0
  0
LINE
  5
506
330
1F
100
AcDbEntity
  8
化粧台
  6
CONTINUOUS
 62
     6
100
AcDbLine
 10
1160.314677500891
 20
1660.67272180014
 30
0.0
 11
1160.581397100891
 21
1660.90977890014
 31
0.0
  0
LINE
  5
507
330
1F
100
AcDbEntity
  8
化粧台
  6
CONTINUOUS
 62
     6
100
AcDbLine
 10
1160.314677500891
 20
1660.67272180014
 30
0.0
 11
1160.314677500891
 21
1659.42835350014
 31
0.0
  0
LINE
  5
508
330
1F
100
AcDbEntity
  8
化粧台
  6
CONTINUOUS
 62
     6
100
AcDbLine
 10
1160.581397100891
 20
1660.90977890014
 30
0.0
 11
1163.000000000891
 21
1660.90977890014
 31
0.0
  0
POLYLINE
  5
509
330
1F
100
AcDbEntity
  8
化粧台
  6
CONTINUOUS
 62
     6
100
AcDb2dPolyline
 66
     1
 10
0.0
 20
0.0
 30
0.0
 70
   128
  0
VERTEX
  5
50A
330
509
100
AcDbEntity
  8
化粧台
  6
CONTINUOUS
 62
     6
100
AcDbVertex
100
AcDb2dVertex
 10
1160.314677500891
 20
1658.21340620014
 30
0.0
  0
VERTEX
  5
50B
330
509
100
AcDbEntity
  8
化粧台
  6
CONTINUOUS
 62
     6
100
AcDbVertex
100
AcDb2dVertex
 10
1160.581397100891
 20
1657.94668660014
 30
0.0
  0
VERTEX
  5
50C
330
509
100
AcDbEntity
  8
化粧台
  6
CONTINUOUS
 62
     6
100
AcDbVertex
100
AcDb2dVertex
 10
1161.835946550241
 20
1657.94668660014
 30
0.0
  0
SEQEND
  5
50D
330
509
100
AcDbEntity
  8
化粧台
  6
CONTINUOUS
 62
     6
  0
POLYLINE
  5
50E
330
1F
100
AcDbEntity
  8
化粧台
  6
CONTINUOUS
 62
     6
100
AcDb2dPolyline
 66
     1
 10
0.0
 20
0.0
 30
0.0
 70
   128
  0
VERTEX
  5
50F
330
50E
100
AcDbEntity
  8
化粧台
  6
CONTINUOUS
 62
     6
100
AcDbVertex
100
AcDb2dVertex
 10
1162.224420673659
 20
1657.94668660014
 30
0.0
  0
VERTEX
  5
510
330
50E
100
AcDbEntity
  8
化粧台
  6
CONTINUOUS
 62
     6
100
AcDbVertex
100
AcDb2dVertex
 10
1163.000000000891
 20
1657.94668660014
 30
0.0
  0
SEQEND
  5
511
330
50E
100
AcDbEntity
  8
化粧台
  6
CONTINUOUS
 62
     6
  0
SPLINE
  5
512
330
1F
100
AcDbEntity
  8
化粧台
  6
CONTINUOUS
 62
     6
100
AcDbSpline
210
0.0
220
0.0
230
1.0
 70
     8
 71
     3
 72
    11
 73
     7
 74
     0
 42
0.00000001
 43
0.00000001
 12
1.0
 22
0.0
 32
0.0
 13
1.0
 23
0.0
 33
0.0
 40
0.0
 40
0.0
 40
0.0
 40
0.0
 40
1.0
 40
1.0
 40
1.0
 40
2.0
 40
2.0
 40
2.0
 40
2.0
 10
1161.899921258053
 20
1660.168945772188
 30
0.0
 10
1162.300964823591
 20
1660.168945772188
 30
0.0
 10
1162.625923455319
 20
1659.844107718803
 30
0.0
 10
1162.625923455319
 20
1659.443064153265
 30
0.0
 10
1162.625923455319
 20
1659.13373581132
 30
0.0
 10
1162.432600066576
 20
1658.869743418054
 30
0.0
 10
1162.16015260006
 20
1658.765175626185
 30
0.0
  0
ELLIPSE
  5
513
330
1F
100
AcDbEntity
  8
化粧台
  6
CONTINUOUS
 62
     6
100
AcDbEllipse
 10
1160.44384322459
 20
1657.22258608054
 30
0.0
 11
-0.9999999999999996
 21
-1.75
 31
0.0
210
0.0
220
0.0
230
1.0
 40
0.5574667979075156
 41
2.76655311412044
 42
2.86495270709261
  0
SPLINE
  5
514
330
1F
100
AcDbEntity
  8
化粧台
  6
CONTINUOUS
 62
     6
100
AcDbSpline
210
0.0
220
0.0
230
1.0
 70
     8
 71
     3
 72
    11
 73
     7
 74
     0
 42
0.00000001
 43
0.00000001
 12
1.0
 22
0.0
 32
0.0
 13
1.0
 23
0.0
 33
0.0
 40
0.0
 40
0.0
 40
0.0
 40
0.0
 40
1.0
 40
1.0
 40
1.0
 40
2.0
 40
2.0
 40
2.0
 40
2.0
 10
1161.731695610521
 20
1658.736763485249
 30
0.0
 10
1161.411873610538
 20
1658.81260905734
 30
0.0
 10
1161.173919060788
 20
1659.099945790123
 30
0.0
 10
1161.173919060788
 20
1659.443064153265
 30
0.0
 10
1161.173919060788
 20
1659.844107718803
 30
0.0
 10
1161.498998270857
 20
1660.168945772188
 30
0.0
 10
1161.899921258053
 20
1660.168945772188
 30
0.0
  0
CIRCLE
  5
515
330
1F
100
AcDbEntity
  8
化粧台
  6
CONTINUOUS
 62
     6
100
AcDbCircle
 10
1159.504149660535
 20
1655.794920628582
 30
0.0
 40
2.1000366
  0
ELLIPSE
  5
516
330
1F
100
AcDbEntity
  8
化粧台
  6
CONTINUOUS
 62
     6
100
AcDbEllipse
 10
1160.44384322459
 20
1657.22258608054
 30
0.0
 11
-0.9999999999999996
 21
-1.75
 31
0.0
210
0.0
220
0.0
230
1.0
 40
0.5574667979075156
 41
1.5685672036623
 42
2.766553114120512
  0
ELLIPSE
  5
517
330
1F
100
AcDbEntity
  8
化粧台
  6
CONTINUOUS
 62
     6
100
AcDbEllipse
 10
1160.39384322459
 20
1657.22258608054
 30
0.0
 11
-1.450000000000011
 21
-2.150000000000124
 31
0.0
210
0.0
220
0.0
230
1.0
 40
0.5503816039039365
 41
1.537657602852176
 42
3.588302332129237
  0
ELLIPSE
  5
518
330
1F
100
AcDbEntity
  8
化粧台
  6
CONTINUOUS
 62
     6
100
AcDbEllipse
 10
1160.44384322459
 20
1657.22258608054
 30
0.0
 11
-0.9999999999999996
 21
-1.75
 31
0.0
210
0.0
220
0.0
230
1.0
 40
0.5574667979075156
 41
4.031946534333598
 42
4.646125326161145
  0
ELLIPSE
  5
519
330
1F
100
AcDbEntity
  8
化粧台
  6
CONTINUOUS
 62
     6
100
AcDbEllipse
 10
1160.39384322459
 20
1657.22258608054
 30
0.0
 11
-1.450000000000011
 21
-2.150000000000124
 31
0.0
210
0.0
220
0.0
230
1.0
 40
0.5503816039039365
 41
4.070229820860886
 42
4.787689108662072
  0
CIRCLE
  5
51A
330
1F
100
AcDbEntity
  8
化粧台
  6
CONTINUOUS
 62
     6
100
AcDbCircle
 10
1157.796023147035
 20
1651.804579005582
 30
0.0
 40
2.1000366
  0
ARC
  5
51B
330
1F
100
AcDbEntity
  8
化粧台
  6
CONTINUOUS
 62
     6
100
AcDbCircle
 10
1157.310330571246
 20
1647.423153469681
 30
0.0
 40
2.1000366
100
AcDbArc
 50
356.0501147243097
 51
188.9289911196864
  0
LINE
  5
51C
330
1F
100
AcDbEntity
  8
化粧台
  6
CONTINUOUS
 62
     2
100
AcDbLine
 10
688.1851228749338
 20
1682.000000000108
 30
0.0
 11
1163.000000000919
 21
1682.000000000108
 31
0.0
  0
LINE
  5
51D
330
1F
100
AcDbEntity
  8
化粧台
  6
CONTINUOUS
 62
     2
100
AcDbLine
 10
1213.000000000919
 20
1682.000000000108
 30
0.0
 11
1277.81487712525
 21
1682.000000000108
 31
0.0
  0
LINE
  5
51E
330
1F
100
AcDbEntity
  8
化粧台
  6
CONTINUOUS
 62
     2
100
AcDbLine
 10
699.5000000001301
 20
1617.00000000014
 30
0.0
 11
699.5000000001301
 21
900.5
 31
0.0
  0
ARC
  5
51F
330
1F
100
AcDbEntity
  8
化粧台
  6
EXLTYPE2
 62
     6
100
AcDbCircle
 10
1310.000000000048
 20
1475.150000000065
 30
0.0
 40
200.0000000000001
100
AcDbArc
 50
148.544131348489
 51
180.0
  0
ARC
  5
520
330
1F
100
AcDbEntity
  8
化粧台
  6
EXLTYPE2
 62
     6
100
AcDbCircle
 10
1310.000000000048
 20
1469.450000000064
 30
0.0
 40
214.0000000000001
100
AcDbArc
 50
155.8006203273897
 51
180.0
  0
LINE
  5
521
330
1F
100
AcDbEntity
  8
化粧台
  6
EXLTYPE2
 62
     6
100
AcDbLine
 10
1186.000000000055
 20
1255.200000000041
 30
0.0
 11
1186.000000000055
 21
1617.00000000014
 31
0.0
  0
LINE
  5
522
330
1F
100
AcDbEntity
  8
化粧台
  6
EXLTYPE2
 62
     6
100
AcDbLine
 10
1200.000000000047
 20
1255.200000000041
 30
0.0
 11
1200.000000000047
 21
1617.00000000014
 31
0.0
  0
LINE
  5
523
330
1F
100
AcDbEntity
  8
化粧台
  6
CONTINUOUS
 62
     2
100
AcDbLine
 10
1265.000000000101
 20
1617.00000000014
 30
0.0
 11
1265.000000000101
 21
1485.5
 31
0.0
  0
LINE
  5
524
330
1F
100
AcDbEntity
  8
化粧台
  6
CONTINUOUS
 62
     2
100
AcDbLine
 10
1266.500000000135
 20
1617.00000000014
 30
0.0
 11
1266.500000000135
 21
900.5
 31
0.0
  0
LINE
  5
525
330
1F
100
AcDbEntity
  8
化粧台
  6
CONTINUOUS
 62
     2
100
AcDbLine
 10
713.000000000091
 20
900.5
 30
0.0
 11
1253.000000000091
 21
900.5
 31
0.0
  0
LINE
  5
526
330
1F
100
AcDbEntity
  8
化粧台
  6
CONTINUOUS
 62
     6
100
AcDbLine
 10
800.5000000000518
 20
1427.0
 30
0.0
 11
775.50000000005
 21
1427.0
 31
0.0
  0
CIRCLE
  5
527
330
1F
100
AcDbEntity
  8
化粧台
  6
EXLTYPE2
 62
     6
100
AcDbCircle
 10
788.0000000000518
 20
1427.0
 30
0.0
 40
7.500000000000014
  0
LINE
  5
528
330
1F
100
AcDbEntity
  8
化粧台
  6
EXLTYPE3
 62
     6
100
AcDbLine
 10
788.0000000001346
 20
1414.600000000099
 30
0.0
 11
788.0000000001346
 21
1439.8000000001
 31
0.0
  0
LINE
  5
529
330
1F
100
AcDbEntity
  8
化粧台
  6
CONTINUOUS
 62
     6
100
AcDbLine
 10
1165.500000000133
 20
1427.0
 30
0.0
 11
1190.500000000135
 21
1427.0
 31
0.0
  0
CIRCLE
  5
52A
330
1F
100
AcDbEntity
  8
化粧台
  6
EXLTYPE2
 62
     6
100
AcDbCircle
 10
1178.000000000133
 20
1427.0
 30
0.0
 40
7.500000000000014
  0
LINE
  5
52B
330
1F
100
AcDbEntity
  8
化粧台
  6
EXLTYPE3
 62
     6
100
AcDbLine
 10
1178.000000000131
 20
1414.600000000099
 30
0.0
 11
1178.000000000131
 21
1439.8000000001
 31
0.0
  0
LINE
  5
52C
330
1F
100
AcDbEntity
  8
化粧台
  6
CONTINUOUS
 62
     2
100
AcDbLine
 10
2528.000000000114
 20
1681.99999999997
 30
0.0
 11
2528.000000000114
 21
1506.99999999995
 31
0.0
  0
LINE
  5
52D
330
1F
100
AcDbEntity
  8
化粧台
  6
CONTINUOUS
 62
     2
100
AcDbLine
 10
2247.5000000001
 20
1485.5
 30
0.0
 11
2268.0000000001
 21
1485.5
 31
0.0
  0
LINE
  5
52E
330
1F
100
AcDbEntity
  8
化粧台
  6
CONTINUOUS
 62
     2
100
AcDbLine
 10
2249.0000000001
 20
1478.5
 30
0.0
 11
2266.0000000001
 21
1478.5
 31
0.0
  0
LINE
  5
52F
330
1F
100
AcDbEntity
  8
化粧台
  6
CONTINUOUS
 62
     2
100
AcDbLine
 10
2249.0000000001
 20
988.5
 30
0.0
 11
2266.0000000001
 21
988.5
 31
0.0
  0
LINE
  5
530
330
1F
100
AcDbEntity
  8
化粧台
  6
CONTINUOUS
 62
     2
100
AcDbLine
 10
2249.0000000001
 20
988.5
 30
0.0
 11
2249.0000000001
 21
1478.499999999999
 31
0.0
  0
LINE
  5
531
330
1F
100
AcDbEntity
  8
化粧台
  6
CONTINUOUS
 62
     2
100
AcDbLine
 10
2266.0000000001
 20
988.5
 30
0.0
 11
2266.0000000001
 21
1478.499999999999
 31
0.0
  0
LINE
  5
532
330
1F
100
AcDbEntity
  8
化粧台
  6
CONTINUOUS
 62
     2
100
AcDbLine
 10
2268.0000000001
 20
900.5
 30
0.0
 11
2528.0000000001
 21
900.5
 31
0.0
  0
LINE
  5
533
330
1F
100
AcDbEntity
  8
化粧台
  6
CONTINUOUS
 62
     2
100
AcDbLine
 10
2309.000000000095
 20
900.5
 30
0.0
 11
2309.000000000095
 21
897.0
 31
0.0
  0
LINE
  5
534
330
1F
100
AcDbEntity
  8
化粧台
  6
CONTINUOUS
 62
     2
100
AcDbLine
 10
2297.00000000013
 20
900.5
 30
0.0
 11
2297.00000000013
 21
897.0
 31
0.0
  0
LINE
  5
535
330
1F
100
AcDbEntity
  8
化粧台
  6
CONTINUOUS
 62
     2
100
AcDbLine
 10
2297.000000000099
 20
897.0
 30
0.0
 11
2309.000000000095
 21
897.0
 31
0.0
  0
ARC
  5
536
330
1F
100
AcDbEntity
  8
化粧台
  6
CONTINUOUS
 62
     2
100
AcDbCircle
 10
2239.500000000101
 20
1433.5
 30
0.0
 40
18.5
100
AcDbArc
 50
163.3984504009939
 51
196.6015495990061
  0
LINE
  5
537
330
1F
100
AcDbEntity
  8
化粧台
  6
CONTINUOUS
 62
     2
100
AcDbLine
 10
2249.000000000101
 20
1429.0
 30
0.0
 11
2222.786557396651
 21
1427.501629662143
 31
0.0
  0
ARC
  5
538
330
1F
100
AcDbEntity
  8
化粧台
  6
CONTINUOUS
 62
     2
100
AcDbCircle
 10
2222.729490168853
 20
1428.5
 30
0.0
 40
1.0
100
AcDbArc
 50
196.6015495990198
 51
273.2714886349227
  0
LINE
  5
539
330
1F
100
AcDbEntity
  8
化粧台
  6
CONTINUOUS
 62
     2
100
AcDbLine
 10
2249.000000000101
 20
1438.0
 30
0.0
 11
2222.786557396651
 21
1439.498370337856
 31
0.0
  0
LINE
  5
53A
330
1F
100
AcDbEntity
  8
化粧台
  6
CONTINUOUS
 62
     2
100
AcDbLine
 10
2249.000000000101
 20
1429.0
 30
0.0
 11
2249.000000000101
 21
1438.0
 31
0.0
  0
ARC
  5
53B
330
1F
100
AcDbEntity
  8
化粧台
  6
CONTINUOUS
 62
     2
100
AcDbCircle
 10
2222.729490168853
 20
1438.5
 30
0.0
 40
1.0
100
AcDbArc
 50
86.72851136507767
 51
163.3984504009802
  0
LINE
  5
53C
330
1F
100
AcDbEntity
  8
化粧台
  6
CONTINUOUS
 62
     6
100
AcDbLine
 10
2503.000000000053
 20
1426.999999999954
 30
0.0
 11
2538.0000000001
 21
1426.999999999954
 31
0.0
  0
LINE
  5
53D
330
1F
100
AcDbEntity
  8
化粧台
  6
CONTINUOUS
 62
     6
100
AcDbLine
 10
2513.300005722062
 20
1426.999999999958
 30
0.0
 11
2575.500005722064
 21
1426.999999999958
 31
0.0
  0
LINE
  5
53E
330
1F
100
AcDbEntity
  8
化粧台
  6
CONTINUOUS
 62
     6
100
AcDbLine
 10
2560.500005722064
 20
1426.999999999958
 30
0.0
 11
2528.000005722064
 21
1424.99999999996
 31
0.0
  0
LINE
  5
53F
330
1F
100
AcDbEntity
  8
化粧台
  6
CONTINUOUS
 62
     6
100
AcDbLine
 10
2528.000005722064
 20
1428.99999999996
 30
0.0
 11
2560.500005722064
 21
1426.999999999958
 31
0.0
  0
LINE
  5
540
330
1F
100
AcDbEntity
  8
化粧台
  6
EXLTYPE4
 62
     6
100
AcDbLine
 10
2549.000000000099
 20
1356.0
 30
0.0
 11
2453.750000000139
 21
1356.0
 31
0.0
  0
LINE
  5
541
330
1F
100
AcDbEntity
  8
化粧台
  6
EXLTYPE4
 62
     6
100
AcDbLine
 10
2549.000000000099
 20
1388.0
 30
0.0
 11
2453.750000000095
 21
1388.0
 31
0.0
  0
LINE
  5
542
330
1F
100
AcDbEntity
  8
化粧台
  6
CONTINUOUS
 62
     6
100
AcDbLine
 10
2549.000000000103
 20
1388.0
 30
0.0
 11
2549.000000000103
 21
1356.0
 31
0.0
  0
LINE
  5
543
330
1F
100
AcDbEntity
  8
化粧台
  6
EXLTYPE2
 62
     6
100
AcDbLine
 10
2474.500000000095
 20
1206.5
 30
0.0
 11
2536.000000000095
 21
1206.5
 31
0.0
  0
LINE
  5
544
330
1F
100
AcDbEntity
  8
化粧台
  6
EXLTYPE2
 62
     6
100
AcDbLine
 10
2474.500000000095
 20
1227.5
 30
0.0
 11
2536.000000000095
 21
1227.5
 31
0.0
  0
LINE
  5
545
330
1F
100
AcDbEntity
  8
化粧台
  6
CONTINUOUS
 62
     6
100
AcDbLine
 10
2536.000000000095
 20
1227.5
 30
0.0
 11
2536.000000000095
 21
1206.5
 31
0.0
  0
LINE
  5
546
330
1F
100
AcDbEntity
  8
化粧台
  6
EXLTYPE3
 62
     6
100
AcDbLine
 10
2556.750000000097
 20
1371.999999999998
 30
0.0
 11
2452.650000000097
 21
1371.999999999998
 31
0.0
  0
LINE
  5
547
330
1F
100
AcDbEntity
  8
化粧台
  6
EXLTYPE2
 62
     6
100
AcDbLine
 10
2362.642588912777
 20
1489.589877715614
 30
0.0
 11
2359.090297380908
 21
1515.330547224205
 31
0.0
  0
LINE
  5
548
330
1F
100
AcDbEntity
  8
化粧台
  6
EXLTYPE2
 62
     6
100
AcDbLine
 10
2318.841358740615
 20
1526.656324434974
 30
0.0
 11
2350.055740135632
 21
1523.925419923936
 31
0.0
  0
ARC
  5
549
330
1F
100
AcDbEntity
  8
化粧台
  6
EXLTYPE2
 62
     6
100
AcDbCircle
 10
2349.184182708155
 20
1513.963472943019
 30
0.0
 40
10.0
100
AcDbArc
 50
7.857363790234437
 51
85.00000000000034
  0
ARC
  5
54A
330
1F
100
AcDbEntity
  8
化粧台
  6
EXLTYPE2
 62
     6
100
AcDbCircle
 10
2365.614423314601
 20
1489.99999999997
 30
0.0
 40
3.000000000000002
100
AcDbArc
 50
187.8573637902339
 51
270.0000000000002
  0
ARC
  5
54B
330
1F
100
AcDbEntity
  8
化粧台
  6
EXLTYPE2
 62
     6
100
AcDbCircle
 10
2440.385576685626
 20
1489.99999999997
 30
0.0
 40
3.000000000000003
100
AcDbArc
 50
270.0000000000002
 51
352.5295987197604
  0
ARC
  5
54C
330
1F
100
AcDbEntity
  8
化粧台
  6
EXLTYPE2
 62
     6
100
AcDbCircle
 10
2446.334649635247
 20
1489.219916004443
 30
0.0
 40
3.000000000000003
100
AcDbArc
 50
94.99999999999989
 51
172.5295987197601
  0
LINE
  5
54D
330
1F
100
AcDbEntity
  8
化粧台
  6
EXLTYPE2
 62
     6
100
AcDbLine
 10
2446.073182407004
 20
1492.208500098718
 30
0.0
 11
2451.521774780625
 21
1492.685190163584
 31
0.0
  0
LINE
  5
54E
330
1F
100
AcDbEntity
  8
化粧台
  6
EXLTYPE2
 62
     6
100
AcDbLine
 10
2403.000000000114
 20
1541.99999999997
 30
0.0
 11
2403.000000000114
 21
1476.99999999997
 31
0.0
  0
LINE
  5
54F
330
1F
100
AcDbEntity
  8
化粧台
  6
EXLTYPE2
 62
     6
100
AcDbLine
 10
2513.000000000053
 20
965.4999999998772
 30
0.0
 11
2510.500000000079
 21
965.4999999998772
 31
0.0
  0
LINE
  5
550
330
1F
100
AcDbEntity
  8
化粧台
  6
EXLTYPE2
 62
     6
100
AcDbLine
 10
2510.500000000079
 20
1460.499999999959
 30
0.0
 11
2510.500000000079
 21
965.4999999999
 31
0.0
  0
LINE
  5
551
330
1F
100
AcDbEntity
  8
化粧台
  6
EXLTYPE2
 62
     6
100
AcDbLine
 10
2513.000000000053
 20
1460.499999999959
 30
0.0
 11
2513.000000000053
 21
965.4999999998772
 31
0.0
  0
LINE
  5
552
330
1F
100
AcDbEntity
  8
化粧台
  6
EXLTYPE2
 62
     6
100
AcDbLine
 10
2510.500000000079
 20
1460.499999999959
 30
0.0
 11
2528.0000000001
 21
1460.499999999959
 31
0.0
  0
LINE
  5
553
330
1F
100
AcDbEntity
  8
化粧台
  6
EXLTYPE2
 62
     6
100
AcDbLine
 10
2476.000003814795
 20
926.9999980926495
 30
0.0
 11
2409.999996185399
 21
926.9999980926495
 31
0.0
  0
LINE
  5
554
330
1F
100
AcDbEntity
  8
化粧台
  6
EXLTYPE2
 62
     6
100
AcDbLine
 10
2473.500003814795
 20
949.9999999999982
 30
0.0
 11
2412.499996185405
 21
949.9999999999982
 31
0.0
  0
LINE
  5
555
330
1F
100
AcDbEntity
  8
化粧台
  6
EXLTYPE2
 62
     6
100
AcDbLine
 10
2467.000000000098
 20
965.0000019073468
 30
0.0
 11
2419.000000000102
 21
965.0000019073468
 31
0.0
  0
LINE
  5
556
330
1F
100
AcDbEntity
  8
化粧台
  6
EXLTYPE2
 62
     6
100
AcDbLine
 10
2465.999996185401
 20
967.0465177345268
 30
0.0
 11
2420.000003814799
 21
967.0465177345268
 31
0.0
  0
LINE
  5
557
330
1F
100
AcDbEntity
  8
化粧台
  6
EXLTYPE2
 62
     6
100
AcDbLine
 10
2463.999996185401
 20
984.8465169715873
 30
0.0
 11
2422.000003814799
 21
984.8465169715873
 31
0.0
  0
ARC
  5
558
330
1F
100
AcDbEntity
  8
化粧台
  6
EXLTYPE2
 62
     6
100
AcDbCircle
 10
2422.000003814799
 20
982.8465169715873
 30
0.0
 40
2.0
100
AcDbArc
 50
89.99999567428607
 51
179.9999913485771
  0
LINE
  5
559
330
1F
100
AcDbEntity
  8
化粧台
  6
EXLTYPE2
 62
     6
100
AcDbLine
 10
2420.000003814799
 20
982.8465169715873
 30
0.0
 11
2420.000003814799
 21
967.0465177345268
 31
0.0
  0
ARC
  5
55A
330
1F
100
AcDbEntity
  8
化粧台
  6
EXLTYPE2
 62
     6
100
AcDbCircle
 10
2409.999996185405
 20
927.4999980926495
 30
0.0
 40
0.5
100
AcDbArc
 50
180.0
 51
270.0000000000002
  0
ARC
  5
55B
330
1F
100
AcDbEntity
  8
化粧台
  6
EXLTYPE2
 62
     6
100
AcDbCircle
 10
2412.499996185405
 20
946.9999999999982
 30
0.0
 40
3.000000000000002
100
AcDbArc
 50
90.00000250448174
 51
180.000005008957
  0
ARC
  5
55C
330
1F
100
AcDbEntity
  8
化粧台
  6
EXLTYPE2
 62
     6
100
AcDbCircle
 10
2415.000000000102
 20
950.9999999999982
 30
0.0
 40
1.0
100
AcDbArc
 50
270.0000000000002
 51
0.0
  0
ARC
  5
55D
330
1F
100
AcDbEntity
  8
化粧台
  6
EXLTYPE2
 62
     6
100
AcDbCircle
 10
2419.000000000102
 20
962.0000019073468
 30
0.0
 40
3.000000000000002
100
AcDbArc
 50
90.00000250448174
 51
180.000005008957
  0
LINE
  5
55E
330
1F
100
AcDbEntity
  8
化粧台
  6
EXLTYPE2
 62
     6
100
AcDbLine
 10
2409.499996185405
 20
946.9999999999982
 30
0.0
 11
2409.499996185405
 21
927.4999980926495
 31
0.0
  0
LINE
  5
55F
330
1F
100
AcDbEntity
  8
化粧台
  6
EXLTYPE2
 62
     6
100
AcDbLine
 10
2422.299995422465
 20
967.0465177345268
 30
0.0
 11
2422.299995422465
 21
964.9999937693083
 31
0.0
  0
LINE
  5
560
330
1F
100
AcDbEntity
  8
化粧台
  6
EXLTYPE2
 62
     6
100
AcDbLine
 10
2416.000000000102
 20
962.0000019073468
 30
0.0
 11
2416.000000000102
 21
950.9999999999982
 31
0.0
  0
ARC
  5
561
330
1F
100
AcDbEntity
  8
化粧台
  6
EXLTYPE2
 62
     6
100
AcDbCircle
 10
2463.999996185401
 20
982.8465169715873
 30
0.0
 40
2.0
100
AcDbArc
 50
0.0000086514229809
 51
90.0000043257139
  0
LINE
  5
562
330
1F
100
AcDbEntity
  8
化粧台
  6
EXLTYPE2
 62
     6
100
AcDbLine
 10
2465.999996185401
 20
982.8465169715873
 30
0.0
 11
2465.999996185401
 21
967.0465177345268
 31
0.0
  0
ARC
  5
563
330
1F
100
AcDbEntity
  8
化粧台
  6
EXLTYPE2
 62
     6
100
AcDbCircle
 10
2476.000003814795
 20
927.4999980926495
 30
0.0
 40
0.5
100
AcDbArc
 50
270.0000000000002
 51
0.0
  0
ARC
  5
564
330
1F
100
AcDbEntity
  8
化粧台
  6
EXLTYPE2
 62
     6
100
AcDbCircle
 10
2473.500003814795
 20
946.9999999999982
 30
0.0
 40
3.000000000000002
100
AcDbArc
 50
359.9999949910431
 51
89.99999749552043
  0
ARC
  5
565
330
1F
100
AcDbEntity
  8
化粧台
  6
EXLTYPE2
 62
     6
100
AcDbCircle
 10
2471.000000000098
 20
950.9999999999982
 30
0.0
 40
1.0
100
AcDbArc
 50
180.0
 51
270.0000000000002
  0
ARC
  5
566
330
1F
100
AcDbEntity
  8
化粧台
  6
EXLTYPE2
 62
     6
100
AcDbCircle
 10
2467.000000000098
 20
962.0000019073468
 30
0.0
 40
3.000000000000002
100
AcDbArc
 50
359.9999949910431
 51
89.99999749552043
  0
LINE
  5
567
330
1F
100
AcDbEntity
  8
化粧台
  6
EXLTYPE2
 62
     6
100
AcDbLine
 10
2476.500003814795
 20
946.9999999999982
 30
0.0
 11
2476.500003814795
 21
927.4999980926495
 31
0.0
  0
LINE
  5
568
330
1F
100
AcDbEntity
  8
化粧台
  6
EXLTYPE2
 62
     6
100
AcDbLine
 10
2463.700004577735
 20
967.0465177345268
 30
0.0
 11
2463.700004577735
 21
964.9999937693083
 31
0.0
  0
LINE
  5
569
330
1F
100
AcDbEntity
  8
化粧台
  6
EXLTYPE2
 62
     6
100
AcDbLine
 10
2470.000000000098
 20
962.0000019073468
 30
0.0
 11
2470.000000000098
 21
950.9999999999982
 31
0.0
  0
LINE
  5
56A
330
1F
100
AcDbEntity
  8
化粧台
  6
EXLTYPE2
 62
     6
100
AcDbLine
 10
2403.000000000062
 20
1518.99999999996
 30
0.0
 11
2403.000000000062
 21
1301.999999999962
 31
0.0
  0
LINE
  5
56B
330
1F
100
AcDbEntity
  8
化粧台
  6
EXLTYPE2
 62
     6
100
AcDbLine
 10
2403.000000000062
 20
1518.99999999996
 30
0.0
 11
2403.000000000062
 21
1301.999999999962
 31
0.0
  0
LINE
  5
56C
330
1F
100
AcDbEntity
  8
化粧台
  6
EXLTYPE2
 62
     6
100
AcDbLine
 10
2419.200000000061
 20
1441.7
 30
0.0
 11
2422.750000000061
 21
1448.2
 31
0.0
  0
LINE
  5
56D
330
1F
100
AcDbEntity
  8
化粧台
  6
EXLTYPE2
 62
     6
100
AcDbLine
 10
2424.25000000006
 20
1463.2
 30
0.0
 11
2424.25000000006
 21
1449.7
 31
0.0
  0
ARC
  5
56E
330
1F
100
AcDbEntity
  8
化粧台
  6
EXLTYPE2
 62
     6
100
AcDbCircle
 10
2422.750000000059
 20
1449.7
 30
0.0
 40
1.5
100
AcDbArc
 50
270.0000000000002
 51
0.0
  0
LINE
  5
56F
330
1F
100
AcDbEntity
  8
化粧台
  6
EXLTYPE2
 62
     6
100
AcDbLine
 10
2386.800000000061
 20
1441.7
 30
0.0
 11
2383.250000000061
 21
1448.2
 31
0.0
  0
LINE
  5
570
330
1F
100
AcDbEntity
  8
化粧台
  6
EXLTYPE2
 62
     6
100
AcDbLine
 10
2381.750000000061
 20
1463.2
 30
0.0
 11
2381.750000000061
 21
1449.7
 31
0.0
  0
ARC
  5
571
330
1F
100
AcDbEntity
  8
化粧台
  6
EXLTYPE2
 62
     6
100
AcDbCircle
 10
2383.250000000061
 20
1449.7
 30
0.0
 40
1.5
100
AcDbArc
 50
180.0
 51
270.0000000000002
  0
LINE
  5
572
330
1F
100
AcDbEntity
  8
化粧台
  6
EXLTYPE2
 62
     6
100
AcDbLine
 10
2386.800000000061
 20
1441.7
 30
0.0
 11
2419.200000000061
 21
1441.7
 31
0.0
  0
LINE
  5
573
330
1F
100
AcDbEntity
  8
化粧台
  6
EXLTYPE2
 62
     6
100
AcDbLine
 10
2383.250000000061
 20
1448.2
 30
0.0
 11
2422.750000000059
 21
1448.2
 31
0.0
  0
LINE
  5
574
330
1F
100
AcDbEntity
  8
化粧台
  6
EXLTYPE2
 62
     6
100
AcDbLine
 10
2374.500000000061
 20
1481.2
 30
0.0
 11
2431.500000000061
 21
1481.2
 31
0.0
  0
LINE
  5
575
330
1F
100
AcDbEntity
  8
化粧台
  6
EXLTYPE2
 62
     6
100
AcDbLine
 10
2374.500000000061
 20
1483.7
 30
0.0
 11
2431.50000000006
 21
1483.7
 31
0.0
  0
LINE
  5
576
330
1F
100
AcDbEntity
  8
化粧台
  6
EXLTYPE2
 62
     6
100
AcDbLine
 10
2374.500000000059
 20
1483.7
 30
0.0
 11
2374.500000000059
 21
1477.7
 31
0.0
  0
LINE
  5
577
330
1F
100
AcDbEntity
  8
化粧台
  6
EXLTYPE2
 62
     6
100
AcDbLine
 10
2374.500000000059
 20
1477.7
 30
0.0
 11
2431.500000000061
 21
1477.7
 31
0.0
  0
LINE
  5
578
330
1F
100
AcDbEntity
  8
化粧台
  6
EXLTYPE2
 62
     6
100
AcDbLine
 10
2431.500000000061
 20
1483.7
 30
0.0
 11
2431.500000000061
 21
1477.7
 31
0.0
  0
LINE
  5
579
330
1F
100
AcDbEntity
  8
化粧台
  6
EXLTYPE2
 62
     6
100
AcDbLine
 10
2377.600000000059
 20
1477.7
 30
0.0
 11
2377.600000000059
 21
1465.2
 31
0.0
  0
ARC
  5
57A
330
1F
100
AcDbEntity
  8
化粧台
  6
EXLTYPE2
 62
     6
100
AcDbCircle
 10
2379.600000000059
 20
1465.2
 30
0.0
 40
2.0
100
AcDbArc
 50
180.0
 51
270.0000000000002
  0
LINE
  5
57B
330
1F
100
AcDbEntity
  8
化粧台
  6
EXLTYPE2
 62
     6
100
AcDbLine
 10
2428.40000000006
 20
1477.7
 30
0.0
 11
2428.40000000006
 21
1465.2
 31
0.0
  0
ARC
  5
57C
330
1F
100
AcDbEntity
  8
化粧台
  6
EXLTYPE2
 62
     6
100
AcDbCircle
 10
2426.40000000006
 20
1465.2
 30
0.0
 40
2.0
100
AcDbArc
 50
270.0000000000002
 51
0.0
  0
LINE
  5
57D
330
1F
100
AcDbEntity
  8
化粧台
  6
EXLTYPE2
 62
     6
100
AcDbLine
 10
2379.600000000059
 20
1463.2
 30
0.0
 11
2426.40000000006
 21
1463.2
 31
0.0
  0
ARC
  5
57E
330
1F
100
AcDbEntity
  8
化粧台
  6
EXLTYPE2
 62
     6
100
AcDbCircle
 10
2406.96151618806
 20
1282.547912245001
 30
0.0
 40
15.00000000000001
100
AcDbArc
 50
216.1437885097004
 51
310.3739745502023
  0
ARC
  5
57F
330
1F
100
AcDbEntity
  8
化粧台
  6
EXLTYPE2
 62
     6
100
AcDbCircle
 10
2427.15000000006
 20
1297.293254606
 30
0.0
 40
40.0
100
AcDbArc
 50
180.0
 51
216.1437885097004
  0
LINE
  5
580
330
1F
100
AcDbEntity
  8
化粧台
  6
EXLTYPE2
 62
     6
100
AcDbLine
 10
2387.15000000006
 20
1335.05
 30
0.0
 11
2418.85000000006
 21
1335.05
 31
0.0
  0
ARC
  5
581
330
1F
100
AcDbEntity
  8
化粧台
  6
EXLTYPE2
 62
     6
100
AcDbCircle
 10
2395.17812500006
 20
1250.200000000001
 30
0.0
 40
1.5
100
AcDbArc
 50
180.0
 51
270.0000000000002
  0
LINE
  5
582
330
1F
100
AcDbEntity
  8
化粧台
  6
EXLTYPE2
 62
     6
100
AcDbLine
 10
2393.678125000059
 20
1250.200000000001
 30
0.0
 11
2393.678125000059
 21
1265.200000000001
 31
0.0
  0
ARC
  5
583
330
1F
100
AcDbEntity
  8
化粧台
  6
EXLTYPE2
 62
     6
100
AcDbCircle
 10
2424.400000000061
 20
1388.7
 30
0.0
 40
2.0
100
AcDbArc
 50
0.0
 51
90.00000000000001
  0
ARC
  5
584
330
1F
100
AcDbEntity
  8
化粧台
  6
EXLTYPE2
 62
     6
100
AcDbCircle
 10
2381.60000000006
 20
1388.7
 30
0.0
 40
2.0
100
AcDbArc
 50
90.00000000000001
 51
180.0
  0
LINE
  5
585
330
1F
100
AcDbEntity
  8
化粧台
  6
EXLTYPE2
 62
     6
100
AcDbLine
 10
2426.400000000061
 20
1388.7
 30
0.0
 11
2426.400000000061
 21
1372.700000000001
 31
0.0
  0
LINE
  5
586
330
1F
100
AcDbEntity
  8
化粧台
  6
EXLTYPE2
 62
     6
100
AcDbLine
 10
2379.60000000006
 20
1388.7
 30
0.0
 11
2379.60000000006
 21
1372.700000000001
 31
0.0
  0
LINE
  5
587
330
1F
100
AcDbEntity
  8
化粧台
  6
EXLTYPE2
 62
     6
100
AcDbLine
 10
2381.60000000006
 20
1390.700000000001
 30
0.0
 11
2424.400000000061
 21
1390.700000000001
 31
0.0
  0
LINE
  5
588
330
1F
100
AcDbEntity
  8
化粧台
  6
EXLTYPE2
 62
     6
100
AcDbLine
 10
2379.60000000006
 20
1372.700000000001
 30
0.0
 11
2426.400000000061
 21
1372.700000000001
 31
0.0
  0
LINE
  5
589
330
1F
100
AcDbEntity
  8
化粧台
  6
EXLTYPE2
 62
     6
100
AcDbLine
 10
2384.500000000061
 20
1337.700000000001
 30
0.0
 11
2387.15000000006
 21
1335.05
 31
0.0
  0
LINE
  5
58A
330
1F
100
AcDbEntity
  8
化粧台
  6
EXLTYPE2
 62
     6
100
AcDbLine
 10
2421.50000000006
 20
1337.700000000001
 30
0.0
 11
2418.85000000006
 21
1335.05
 31
0.0
  0
LINE
  5
58B
330
1F
100
AcDbEntity
  8
化粧台
  6
EXLTYPE2
 62
     6
100
AcDbLine
 10
2399.17812500006
 20
1269.725321960001
 30
0.0
 11
2399.17812500006
 21
1265.200000000001
 31
0.0
  0
LINE
  5
58C
330
1F
100
AcDbEntity
  8
化粧台
  6
EXLTYPE2
 62
     6
100
AcDbLine
 10
2418.85000000006
 20
1335.05
 30
0.0
 11
2418.85000000006
 21
1294.700000000001
 31
0.0
  0
LINE
  5
58D
330
1F
100
AcDbEntity
  8
化粧台
  6
EXLTYPE2
 62
     6
100
AcDbLine
 10
2387.15000000006
 20
1335.05
 30
0.0
 11
2387.15000000006
 21
1297.293254606
 31
0.0
  0
LINE
  5
58E
330
1F
100
AcDbEntity
  8
化粧台
  6
EXLTYPE2
 62
     6
100
AcDbLine
 10
2421.50000000006
 20
1372.700000000001
 30
0.0
 11
2421.50000000006
 21
1337.700000000001
 31
0.0
  0
LINE
  5
58F
330
1F
100
AcDbEntity
  8
化粧台
  6
EXLTYPE2
 62
     6
100
AcDbLine
 10
2384.500000000061
 20
1372.700000000001
 30
0.0
 11
2384.500000000061
 21
1337.700000000001
 31
0.0
  0
LINE
  5
590
330
1F
100
AcDbEntity
  8
化粧台
  6
EXLTYPE2
 62
     6
100
AcDbLine
 10
2387.15000000006
 20
1441.7
 30
0.0
 11
2387.15000000006
 21
1390.700000000001
 31
0.0
  0
LINE
  5
591
330
1F
100
AcDbEntity
  8
化粧台
  6
EXLTYPE2
 62
     6
100
AcDbLine
 10
2418.85000000006
 20
1441.7
 30
0.0
 11
2418.85000000006
 21
1390.700000000001
 31
0.0
  0
LINE
  5
592
330
1F
100
AcDbEntity
  8
化粧台
  6
EXLTYPE2
 62
     6
100
AcDbLine
 10
2458.50000000006
 20
984.8465169715901
 30
0.0
 11
2458.50000000006
 21
1354.1
 31
0.0
  0
LINE
  5
593
330
1F
100
AcDbEntity
  8
化粧台
  6
EXLTYPE2
 62
     6
100
AcDbLine
 10
2395.17812500006
 20
1248.700000000001
 30
0.0
 11
2408.630601860897
 21
1248.700000000001
 31
0.0
  0
LINE
  5
594
330
1F
100
AcDbEntity
  8
化粧台
  6
EXLTYPE2
 62
     6
100
AcDbLine
 10
2393.678125000059
 20
1265.200000000001
 30
0.0
 11
2426.80000000006
 21
1265.200000000001
 31
0.0
  0
ARC
  5
595
330
1F
100
AcDbEntity
  8
化粧台
  6
EXLTYPE2
 62
     6
100
AcDbCircle
 10
2423.250000000062
 20
1220.99999999996
 30
0.0
 40
7.500000000000006
100
AcDbArc
 50
0.0
 51
90.00000000000001
  0
LINE
  5
596
330
1F
100
AcDbEntity
  8
化粧台
  6
EXLTYPE2
 62
     6
100
AcDbLine
 10
2419.500000000062
 20
1252.49999999996
 30
0.0
 11
2425.000000000062
 21
1252.49999999996
 31
0.0
  0
LINE
  5
597
330
1F
100
AcDbEntity
  8
化粧台
  6
EXLTYPE2
 62
     6
100
AcDbLine
 10
2419.500000000062
 20
1228.49999999996
 30
0.0
 11
2423.250000000062
 21
1228.49999999996
 31
0.0
  0
LINE
  5
598
330
1F
100
AcDbEntity
  8
化粧台
  6
EXLTYPE2
 62
     6
100
AcDbLine
 10
2406.60000000006
 20
1245.799999999961
 30
0.0
 11
2406.60000000006
 21
1235.199999999961
 31
0.0
  0
LINE
  5
599
330
1F
100
AcDbEntity
  8
化粧台
  6
EXLTYPE2
 62
     6
100
AcDbLine
 10
2419.500000000062
 20
1253.24999999996
 30
0.0
 11
2419.500000000062
 21
1227.74999999996
 31
0.0
  0
ARC
  5
59A
330
1F
100
AcDbEntity
  8
化粧台
  6
EXLTYPE2
 62
     6
100
AcDbCircle
 10
2415.725082782421
 20
1249.24999999996
 30
0.0
 40
5.5
100
AcDbArc
 50
46.65824177280091
 51
142.8123740608005
  0
LINE
  5
59B
330
1F
100
AcDbEntity
  8
化粧台
  6
EXLTYPE2
 62
     6
100
AcDbLine
 10
2406.60000000006
 20
1245.799999999961
 30
0.0
 11
2411.343450177781
 21
1252.574348916351
 31
0.0
  0
ARC
  5
59C
330
1F
100
AcDbEntity
  8
化粧台
  6
EXLTYPE2
 62
     6
100
AcDbCircle
 10
2415.725082782421
 20
1231.74999999996
 30
0.0
 40
5.5
100
AcDbArc
 50
217.1876259391994
 51
313.3417582272003
  0
LINE
  5
59D
330
1F
100
AcDbEntity
  8
化粧台
  6
EXLTYPE2
 62
     6
100
AcDbLine
 10
2406.60000000006
 20
1235.199999999961
 30
0.0
 11
2411.343450177781
 21
1228.425651083571
 31
0.0
  0
LINE
  5
59E
330
1F
100
AcDbEntity
  8
化粧台
  6
EXLTYPE2
 62
     6
100
AcDbLine
 10
2411.343450177781
 20
1252.574348916351
 30
0.0
 11
2411.343450177781
 21
1228.425651083471
 31
0.0
  0
LINE
  5
59F
330
1F
100
AcDbEntity
  8
化粧台
  6
EXLTYPE2
 62
     6
100
AcDbLine
 10
2401.000000000062
 20
1235.74999999996
 30
0.0
 11
2406.60000000006
 21
1235.74999999996
 31
0.0
  0
LINE
  5
5A0
330
1F
100
AcDbEntity
  8
化粧台
  6
EXLTYPE2
 62
     6
100
AcDbLine
 10
2401.000000000062
 20
1245.24999999996
 30
0.0
 11
2406.60000000006
 21
1245.24999999996
 31
0.0
  0
LINE
  5
5A1
330
1F
100
AcDbEntity
  8
化粧台
  6
EXLTYPE2
 62
     6
100
AcDbLine
 10
2401.000000000062
 20
1245.24999999996
 30
0.0
 11
2401.000000000062
 21
1235.74999999996
 31
0.0
  0
ARC
  5
5A2
330
1F
100
AcDbEntity
  8
化粧台
  6
EXLTYPE2
 62
     6
100
AcDbCircle
 10
2416.000000000062
 20
1240.49999999996
 30
0.0
 40
40.0
100
AcDbArc
 50
352.1483099782984
 51
14.36151156291629
  0
ARC
  5
5A3
330
1F
100
AcDbEntity
  8
化粧台
  6
EXLTYPE2
 62
     6
100
AcDbCircle
 10
2495.250000000062
 20
1229.571253502763
 30
0.0
 40
40.0
100
AcDbArc
 50
172.1483099782986
 51
180.0
  0
LINE
  5
5A4
330
1F
100
AcDbEntity
  8
化粧台
  6
EXLTYPE2
 62
     6
100
AcDbLine
 10
2455.250000000062
 20
1205.499999999958
 30
0.0
 11
2457.7224318644
 21
1206.927459202387
 31
0.0
  0
ARC
  5
5A5
330
1F
100
AcDbEntity
  8
化粧台
  6
EXLTYPE2
 62
     6
100
AcDbCircle
 10
2462.750000000062
 20
1220.365389352135
 30
0.0
 40
7.500000000000006
100
AcDbArc
 50
180.0
 51
227.9065017039047
  0
LINE
  5
5A6
330
1F
100
AcDbEntity
  8
化粧台
  6
EXLTYPE2
 62
     6
100
AcDbLine
 10
2455.250000000062
 20
1229.571253502763
 30
0.0
 11
2455.250000000062
 21
1220.365389352135
 31
0.0
  0
LINE
  5
5A7
330
1F
100
AcDbEntity
  8
化粧台
  6
EXLTYPE2
 62
     6
100
AcDbLine
 10
2457.7224318644
 20
1206.92745920239
 30
0.0
 11
2457.7224318644
 21
1214.799999999961
 31
0.0
  0
LINE
  5
5A8
330
1F
100
AcDbEntity
  8
化粧台
  6
EXLTYPE2
 62
     6
100
AcDbLine
 10
2430.750000000058
 20
1205.499999999958
 30
0.0
 11
2428.27756813572
 21
1206.927459202387
 31
0.0
  0
ARC
  5
5A9
330
1F
100
AcDbEntity
  8
化粧台
  6
EXLTYPE2
 62
     6
100
AcDbCircle
 10
2423.250000000062
 20
1220.365389352135
 30
0.0
 40
7.500000000000006
100
AcDbArc
 50
312.0934982960959
 51
0.0
  0
LINE
  5
5AA
330
1F
100
AcDbEntity
  8
化粧台
  6
EXLTYPE2
 62
     6
100
AcDbLine
 10
2428.27756813572
 20
1206.92745920239
 30
0.0
 11
2428.27756813572
 21
1214.799999999961
 31
0.0
  0
LINE
  5
5AB
330
1F
100
AcDbEntity
  8
化粧台
  6
EXLTYPE2
 62
     6
100
AcDbLine
 10
2455.250000000069
 20
1205.49999999996
 30
0.0
 11
2430.750000000051
 21
1205.49999999996
 31
0.0
  0
ARC
  5
5AC
330
1F
100
AcDbEntity
  8
化粧台
  6
EXLTYPE2
 62
     6
100
AcDbCircle
 10
2444.750000000062
 20
1269.199999999961
 30
0.0
 40
11.0
100
AcDbArc
 50
326.9442688491002
 51
33.05573115089991
  0
LINE
  5
5AD
330
1F
100
AcDbEntity
  8
化粧台
  6
EXLTYPE2
 62
     6
100
AcDbLine
 10
2453.969544457352
 20
1275.199999999961
 30
0.0
 11
2432.03045554277
 21
1275.199999999961
 31
0.0
  0
ARC
  5
5AE
330
1F
100
AcDbEntity
  8
化粧台
  6
EXLTYPE2
 62
     6
100
AcDbCircle
 10
2441.250000000062
 20
1269.199999999961
 30
0.0
 40
11.0
100
AcDbArc
 50
146.9442688491499
 51
213.0557311508992
  0
LINE
  5
5AF
330
1F
100
AcDbEntity
  8
化粧台
  6
EXLTYPE2
 62
     6
100
AcDbLine
 10
2437.53178353706
 20
1248.700000000001
 30
0.0
 11
2437.53178353706
 21
1265.200000000001
 31
0.0
  0
LINE
  5
5B0
330
1F
100
AcDbEntity
  8
化粧台
  6
EXLTYPE2
 62
     6
100
AcDbLine
 10
2430.750000000062
 20
1220.99999999996
 30
0.0
 11
2430.750000000062
 21
1220.365389352135
 31
0.0
  0
LINE
  5
5B1
330
1F
100
AcDbEntity
  8
化粧台
  6
EXLTYPE2
 62
     6
100
AcDbLine
 10
2449.000000000058
 20
1275.199999999959
 30
0.0
 11
2449.000000000058
 21
1492.522837084935
 31
0.0
  0
LINE
  5
5B2
330
1F
100
AcDbEntity
  8
化粧台
  6
EXLTYPE2
 62
     6
100
AcDbLine
 10
2437.000000000062
 20
1275.199999999959
 30
0.0
 11
2437.000000000062
 21
1487.5
 31
0.0
  0
LINE
  5
5B3
330
1F
100
AcDbEntity
  8
化粧台
  6
EXLTYPE2
 62
     6
100
AcDbLine
 10
2432.500000000062
 20
1205.49999999996
 30
0.0
 11
2432.500000000062
 21
923.99999999996
 31
0.0
  0
ARC
  5
5B4
330
1F
100
AcDbEntity
  8
化粧台
  6
EXLTYPE2
 62
     6
100
AcDbCircle
 10
2384.376550900561
 20
1294.7129706584
 30
0.0
 40
40.0
100
AcDbArc
 50
323.8562114902995
 51
0.0
  0
LINE
  5
5B5
330
1F
100
AcDbEntity
  8
化粧台
  6
EXLTYPE2
 62
     6
100
AcDbLine
 10
2424.376550900561
 20
1344.7
 30
0.0
 11
2424.376550900561
 21
1294.7129706584
 31
0.0
  0
LINE
  5
5B6
330
1F
100
AcDbEntity
  8
化粧台
  6
EXLTYPE2
 62
     6
100
AcDbLine
 10
2421.50000000006
 20
1342.700000000001
 30
0.0
 11
2424.37655090056
 21
1342.700000000001
 31
0.0
  0
LINE
  5
5B7
330
1F
100
AcDbEntity
  8
化粧台
  6
EXLTYPE2
 62
     6
100
AcDbLine
 10
2418.85000000006
 20
1324.700000000001
 30
0.0
 11
2424.37655090056
 21
1324.700000000001
 31
0.0
  0
LINE
  5
5B8
330
1F
100
AcDbEntity
  8
化粧台
  6
EXLTYPE2
 62
     6
100
AcDbLine
 10
2418.85000000006
 20
1299.700000000001
 30
0.0
 11
2424.37655090056
 21
1299.700000000001
 31
0.0
  0
ARC
  5
5B9
330
1F
100
AcDbEntity
  8
化粧台
  6
EXLTYPE2
 62
     6
100
AcDbCircle
 10
2425.58827545031
 20
1344.3
 30
0.0
 40
1.211724549749761
100
AcDbArc
 50
0.0
 51
180.0
  0
ARC
  5
5BA
330
1F
100
AcDbEntity
  8
化粧台
  6
EXLTYPE2
 62
     6
100
AcDbCircle
 10
2493.500000000062
 20
1260.343134832945
 30
0.0
 40
40.0
100
AcDbArc
 50
180.0
 51
194.3615115629164
  0
LINE
  5
5BB
330
1F
100
AcDbEntity
  8
化粧台
  6
EXLTYPE2
 62
     6
100
AcDbLine
 10
2453.969544457352
 20
1263.199999999961
 30
0.0
 11
2432.03045554277
 21
1263.199999999961
 31
0.0
  0
LINE
  5
5BC
330
1F
100
AcDbEntity
  8
化粧台
  6
EXLTYPE2
 62
     6
100
AcDbLine
 10
2432.500000000062
 20
1263.199999999961
 30
0.0
 11
2432.500000000062
 21
1259.99999999996
 31
0.0
  0
LINE
  5
5BD
330
1F
100
AcDbEntity
  8
化粧台
  6
EXLTYPE2
 62
     6
100
AcDbLine
 10
2453.500000000062
 20
1263.199999999961
 30
0.0
 11
2453.500000000062
 21
1260.343134832941
 31
0.0
  0
ARC
  5
5BE
330
1F
100
AcDbEntity
  8
化粧台
  6
EXLTYPE2
 62
     6
100
AcDbCircle
 10
2425.000000000022
 20
1260.0
 30
0.0
 40
7.500000000038202
100
AcDbArc
 50
270.0000000000002
 51
0.0
  0
LINE
  5
5BF
330
1F
100
AcDbEntity
  8
化粧台
  6
EXLTYPE2
 62
     6
100
AcDbLine
 10
2426.80000000006
 20
1344.528125000001
 30
0.0
 11
2426.80000000006
 21
1252.719203340263
 31
0.0
  0
LINE
  5
5C0
330
1F
100
AcDbEntity
  8
化粧台
  6
EXLTYPE2
 62
     6
100
AcDbLine
 10
2426.80000000006
 20
1227.606625462327
 30
0.0
 11
2426.80000000006
 21
984.8465169715901
 31
0.0
  0
LINE
  5
5C1
330
1F
100
AcDbEntity
  8
化粧台
  6
EXLTYPE2
 62
     6
100
AcDbLine
 10
2396.000005722062
 20
1240.49999999996
 30
0.0
 11
2460.72500479636
 21
1240.49999999996
 31
0.0
  0
ARC
  5
5C2
330
1F
100
AcDbEntity
  8
化粧台
  6
EXLTYPE2
 62
     6
100
AcDbCircle
 10
2433.88500555156
 20
1354.450345822979
 30
0.0
 40
24.61499444850051
100
AcDbArc
 50
0.0
 51
52.11661267612578
  0
ARC
  5
5C3
330
1F
100
AcDbEntity
  8
化粧台
  6
EXLTYPE2
 62
     6
100
AcDbCircle
 10
2433.88500555156
 20
1354.450345822979
 30
0.0
 40
24.61499444850051
100
AcDbArc
 50
82.72980252722901
 51
107.7030137526023
  0
LINE
  5
5C4
330
1F
100
AcDbEntity
  8
化粧台
  6
EXLTYPE2
 62
     6
100
AcDbLine
 10
2374.500000000061
 20
1483.7
 30
0.0
 11
2379.725000000014
 21
1486.99999999997
 31
0.0
  0
LINE
  5
5C5
330
1F
100
AcDbEntity
  8
化粧台
  6
EXLTYPE2
 62
     6
100
AcDbLine
 10
2426.275000000108
 20
1486.99999999997
 30
0.0
 11
2431.500000000061
 21
1483.7
 31
0.0
  0
LINE
  5
5C6
330
1F
100
AcDbEntity
  8
化粧台
  6
EXLTYPE2
 62
     6
100
AcDbLine
 10
2494.800000000093
 20
998.4999999999591
 30
0.0
 11
2494.800000000093
 21
958.4999999999563
 31
0.0
  0
LINE
  5
5C7
330
1F
100
AcDbEntity
  8
化粧台
  6
EXLTYPE2
 62
     6
100
AcDbLine
 10
2494.800000000093
 20
958.4999999999563
 30
0.0
 11
2509.80000000014
 21
958.4999999999563
 31
0.0
  0
LINE
  5
5C8
330
1F
100
AcDbEntity
  8
化粧台
  6
EXLTYPE2
 62
     6
100
AcDbLine
 10
2509.80000000014
 20
1001.00000000005
 30
0.0
 11
2509.80000000014
 21
958.4999999999563
 31
0.0
  0
LINE
  5
5C9
330
1F
100
AcDbEntity
  8
化粧台
  6
EXLTYPE2
 62
     6
100
AcDbLine
 10
2426.800000000059
 20
1001.000000000047
 30
0.0
 11
2351.000000000201
 21
1001.000000000047
 31
0.0
  0
LINE
  5
5CA
330
1F
100
AcDbEntity
  8
化粧台
  6
EXLTYPE2
 62
     6
100
AcDbLine
 10
2426.800000000059
 20
998.5000000000273
 30
0.0
 11
2351.000000000201
 21
998.5000000000273
 31
0.0
  0
LINE
  5
5CB
330
1F
100
AcDbEntity
  8
化粧台
  6
EXLTYPE2
 62
     6
100
AcDbLine
 10
2509.80000000014
 20
1001.000000000047
 30
0.0
 11
2458.50000000006
 21
1001.000000000047
 31
0.0
  0
LINE
  5
5CC
330
1F
100
AcDbEntity
  8
化粧台
  6
EXLTYPE2
 62
     6
100
AcDbLine
 10
2509.80000000012
 20
998.5000000000268
 30
0.0
 11
2458.50000000006
 21
998.5000000000273
 31
0.0
  0
LINE
  5
5CD
330
1F
100
AcDbEntity
  8
化粧台
  6
EXLTYPE2
 62
     6
100
AcDbLine
 10
2365.614423314602
 20
1486.99999999997
 30
0.0
 11
2403.000000000114
 21
1486.99999999997
 31
0.0
  0
LINE
  5
5CE
330
1F
100
AcDbEntity
  8
化粧台
  6
EXLTYPE2
 62
     6
100
AcDbLine
 10
2403.000000000101
 20
1486.99999999997
 30
0.0
 11
2440.385576685626
 21
1486.99999999997
 31
0.0
  0
LINE
  5
5CF
330
1F
100
AcDbEntity
  8
化粧台
  6
EXLTYPE2
 62
     6
100
AcDbLine
 10
2356.621924411517
 20
1524.3933644245
 30
0.0
 11
2435.863934228298
 21
1524.3933644245
 31
0.0
  0
LINE
  5
5D0
330
1F
100
AcDbEntity
  8
化粧台
  6
EXLTYPE2
 62
     6
100
AcDbLine
 10
2525.933934172085
 20
1501.92367166559
 30
0.0
 11
2435.946250350601
 21
1524.718328180045
 31
0.0
  0
ARC
  5
5D1
330
1F
100
AcDbEntity
  8
化粧台
  6
EXLTYPE2
 62
     6
100
AcDbCircle
 10
2446.728208929504
 20
1547.47589855863
 30
0.0
 40
55.00000000000004
100
AcDbArc
 50
274.9999999999988
 51
319.0903700927721
  0
LINE
  5
5D2
330
1F
100
AcDbEntity
  8
化粧台
  6
CONTINUOUS
 62
     2
100
AcDbLine
 10
2528.0000000001
 20
1506.99999999997
 30
0.0
 11
2528.0000000001
 21
900.5
 31
0.0
  0
LINE
  5
5D3
330
1F
100
AcDbEntity
  8
化粧台
  6
EXLTYPE2
 62
     6
100
AcDbLine
 10
2366.000000000199
 20
986.5000000000323
 30
0.0
 11
2271.0000000002
 21
986.5000000000318
 31
0.0
  0
LINE
  5
5D4
330
1F
100
AcDbEntity
  8
化粧台
  6
EXLTYPE2
 62
     6
100
AcDbLine
 10
2271.0000000002
 20
1001.500000000032
 30
0.0
 11
2271.0000000002
 21
986.5000000000318
 31
0.0
  0
LINE
  5
5D5
330
1F
100
AcDbEntity
  8
化粧台
  6
EXLTYPE2
 62
     6
100
AcDbLine
 10
2351.0000000002
 20
1001.500000000032
 30
0.0
 11
2271.0000000002
 21
1001.500000000032
 31
0.0
  0
LINE
  5
5D6
330
1F
100
AcDbEntity
  8
化粧台
  6
EXLTYPE2
 62
     6
100
AcDbLine
 10
2271.000000000126
 20
987.5
 30
0.0
 11
2271.000000000126
 21
900.5
 31
0.0
  0
LINE
  5
5D7
330
1F
100
AcDbEntity
  8
化粧台
  6
EXLTYPE2
 62
     6
100
AcDbLine
 10
2286.000000000126
 20
986.5000000000318
 30
0.0
 11
2286.000000000126
 21
900.5
 31
0.0
  0
LINE
  5
5D8
330
1F
100
AcDbEntity
  8
化粧台
  6
EXLTYPE2
 62
     6
100
AcDbLine
 10
2366.000000000199
 20
998.5000000000332
 30
0.0
 11
2351.0000000002
 21
998.5000000000332
 31
0.0
  0
LINE
  5
5D9
330
1F
100
AcDbEntity
  8
化粧台
  6
EXLTYPE2
 62
     6
100
AcDbLine
 10
2351.0000000002
 20
1001.500000000032
 30
0.0
 11
2351.0000000002
 21
998.5000000000332
 31
0.0
  0
LINE
  5
5DA
330
1F
100
AcDbEntity
  8
化粧台
  6
EXLTYPE2
 62
     6
100
AcDbLine
 10
2366.000000000199
 20
998.5000000000332
 30
0.0
 11
2366.000000000199
 21
986.5000000000323
 31
0.0
  0
LINE
  5
5DB
330
1F
100
AcDbEntity
  8
化粧台
  6
EXLTYPE2
 62
     6
100
AcDbLine
 10
2351.0000000002
 20
1001.000000000047
 30
0.0
 11
2351.0000000002
 21
998.5000000000473
 31
0.0
  0
LINE
  5
5DC
330
1F
100
AcDbEntity
  8
化粧台
  6
CONTINUOUS
 62
     2
100
AcDbLine
 10
2494.000000000111
 20
900.5
 30
0.0
 11
2494.000000000111
 21
897.0
 31
0.0
  0
LINE
  5
5DD
330
1F
100
AcDbEntity
  8
化粧台
  6
CONTINUOUS
 62
     2
100
AcDbLine
 10
2482.0000000001
 20
900.5
 30
0.0
 11
2482.0000000001
 21
897.0
 31
0.0
  0
LINE
  5
5DE
330
1F
100
AcDbEntity
  8
化粧台
  6
CONTINUOUS
 62
     2
100
AcDbLine
 10
2482.000000000099
 20
897.0
 30
0.0
 11
2494.0000000001
 21
897.0
 31
0.0
  0
LINE
  5
5DF
330
1F
100
AcDbEntity
  8
化粧台
  6
CONTINUOUS
 62
     2
100
AcDbLine
 10
2242.875230942404
 20
1624.130311672887
 30
0.0
 11
2238.207948429597
 21
1516.782813878659
 31
0.0
  0
LINE
  5
5E0
330
1F
100
AcDbEntity
  8
化粧台
  6
CONTINUOUS
 62
     2
100
AcDbLine
 10
2245.87239941746
 20
1627.000000000058
 30
0.0
 11
2528.000000000099
 21
1627.000000000058
 31
0.0
  0
ARC
  5
5E1
330
1F
100
AcDbEntity
  8
化粧台
  6
CONTINUOUS
 62
     2
100
AcDbCircle
 10
2245.87239941746
 20
1624.000000000058
 30
0.0
 40
3.000000000000002
100
AcDbArc
 50
90.00000000000001
 51
177.5104470780026
  0
ARC
  5
5E2
330
1F
100
AcDbEntity
  8
化粧台
  6
CONTINUOUS
 62
     2
100
AcDbCircle
 10
2239.692817974039
 20
1620.000000000058
 30
0.0
 40
3.000000000000002
100
AcDbArc
 50
270.0000000000002
 51
357.5104470780028
  0
LINE
  5
5E3
330
1F
100
AcDbEntity
  8
化粧台
  6
CONTINUOUS
 62
     2
100
AcDbLine
 10
2235.535462764283
 20
1617.000000000058
 30
0.0
 11
2239.692817974039
 21
1617.000000000058
 31
0.0
  0
ARC
  5
5E4
330
1F
100
AcDbEntity
  8
化粧台
  6
CONTINUOUS
 62
     2
100
AcDbCircle
 10
2235.535462764283
 20
1620.000000000058
 30
0.0
 40
3.000000000000002
100
AcDbArc
 50
189.5940682268655
 51
270.0000000000002
  0
ARC
  5
5E5
330
1F
100
AcDbEntity
  8
化粧台
  6
CONTINUOUS
 62
     2
100
AcDbCircle
 10
2233.000000000098
 20
1647.000000000058
 30
0.0
 40
5.0
100
AcDbArc
 50
180.0000000000002
 51
189.5940682268592
  0
LINE
  5
5E6
330
1F
100
AcDbEntity
  8
化粧台
  6
CONTINUOUS
 62
     2
100
AcDbLine
 10
2228.06993351418
 20
1646.166666666726
 30
0.0
 11
2232.577422872733
 21
1619.500000000058
 31
0.0
  0
ARC
  5
5E7
330
1F
100
AcDbEntity
  8
化粧台
  6
CONTINUOUS
 62
     2
100
AcDbCircle
 10
2163.000000000098
 20
1642.000000000058
 30
0.0
 40
5.0
100
AcDbArc
 50
90.00000000000001
 51
183.5724826096913
  0
ARC
  5
5E8
330
1F
100
AcDbEntity
  8
化粧台
  6
CONTINUOUS
 62
     2
100
AcDbCircle
 10
2163.000000000098
 20
2134.500000000058
 30
0.0
 40
487.4999999999997
100
AcDbArc
 50
270.0000000000002
 51
277.6622556607654
  0
ARC
  5
5E9
330
1F
100
AcDbEntity
  8
化粧台
  6
CONTINUOUS
 62
     2
100
AcDbCircle
 10
2233.000000000098
 20
1652.000000000058
 30
0.0
 40
5.0
100
AcDbArc
 50
90.00000000000001
 51
180.0000000000002
  0
ARC
  5
5EA
330
1F
100
AcDbEntity
  8
化粧台
  6
CONTINUOUS
 62
     2
100
AcDbCircle
 10
2244.355281156228
 20
1543.062822258888
 30
0.0
 40
5.0
100
AcDbArc
 50
62.78007261292363
 51
177.5104470779939
  0
ARC
  5
5EB
330
1F
100
AcDbEntity
  8
化粧台
  6
CONTINUOUS
 62
     2
100
AcDbCircle
 10
2327.679366995557
 20
1652.281346505984
 30
0.0
 40
170.0
100
AcDbArc
 50
183.5724826096917
 51
235.0734784673748
  0
ARC
  5
5EC
330
1F
100
AcDbEntity
  8
化粧台
  6
CONTINUOUS
 62
     2
100
AcDbCircle
 10
2233.212667637827
 20
1517.000000000058
 30
0.0
 40
5.0
100
AcDbArc
 50
235.0734784673726
 51
357.5104470780592
  0
ARC
  5
5ED
330
1F
100
AcDbEntity
  8
化粧台
  6
CONTINUOUS
 62
     2
100
AcDbCircle
 10
2501.70788147549
 20
1677.000000000058
 30
0.0
 40
5.0
100
AcDbArc
 50
90.00000000000001
 51
163.1195105726872
  0
LINE
  5
5EE
330
1F
100
AcDbEntity
  8
化粧台
  6
CONTINUOUS
 62
     2
100
AcDbLine
 10
2528.000000000099
 20
1682.000000000058
 30
0.0
 11
2501.70788147549
 21
1682.000000000058
 31
0.0
  0
LINE
  5
5EF
330
1F
100
AcDbEntity
  8
化粧台
  6
CONTINUOUS
 62
     2
100
AcDbLine
 10
2496.923318877604
 20
1678.451881795147
 30
0.0
 11
2491.490398336114
 21
1660.548118204972
 31
0.0
  0
ARC
  5
5F0
330
1F
100
AcDbEntity
  8
化粧台
  6
CONTINUOUS
 62
     2
100
AcDbCircle
 10
2486.705835738226
 20
1662.000000000058
 30
0.0
 40
5.0
100
AcDbArc
 50
270.0000000000002
 51
343.1195105726896
  0
LINE
  5
5F1
330
1F
100
AcDbEntity
  8
化粧台
  6
CONTINUOUS
 62
     2
100
AcDbLine
 10
2486.705835738226
 20
1657.000000000058
 30
0.0
 11
2233.000000000098
 21
1657.000000000058
 31
0.0
  0
LINE
  5
5F2
330
1F
100
AcDbEntity
  8
化粧台
  6
CONTINUOUS
 62
     2
100
AcDbLine
 10
2228.000000000098
 20
1647.000000000058
 30
0.0
 11
2228.000000000098
 21
1652.000000000058
 31
0.0
  0
LINE
  5
5F3
330
1F
100
AcDbEntity
  8
化粧台
  6
CONTINUOUS
 62
     2
100
AcDbLine
 10
2528.000000000099
 20
1682.000000000058
 30
0.0
 11
2528.000000000099
 21
1627.000000000058
 31
0.0
  0
LINE
  5
5F4
330
1F
100
AcDbEntity
  8
化粧台
  6
CONTINUOUS
 62
     2
100
AcDbLine
 10
2248.000000000095
 20
1624.00000000004
 30
0.0
 11
2268.500000000095
 21
1624.00000000004
 31
0.0
  0
LINE
  5
5F5
330
1F
100
AcDbEntity
  8
化粧台
  6
CONTINUOUS
 62
     2
100
AcDbLine
 10
2268.500000000095
 20
1627.00000000004
 30
0.0
 11
2528.000000000095
 21
1627.00000000004
 31
0.0
  0
ARC
  5
5F6
330
1F
100
AcDbEntity
  8
化粧台
  6
CONTINUOUS
 62
     2
100
AcDbCircle
 10
2501.707881475509
 20
1677.00000000006
 30
0.0
 40
5.0
100
AcDbArc
 50
90.00000000000001
 51
163.1195105726872
  0
LINE
  5
5F7
330
1F
100
AcDbEntity
  8
化粧台
  6
CONTINUOUS
 62
     2
100
AcDbLine
 10
2528.000000000117
 20
1682.00000000006
 30
0.0
 11
2501.707881475509
 21
1682.00000000006
 31
0.0
  0
LINE
  5
5F8
330
1F
100
AcDbEntity
  8
化粧台
  6
CONTINUOUS
 62
     6
100
AcDbLine
 10
2403.000000000119
 20
1764.057813855932
 30
0.0
 11
2453.000000000121
 21
1764.057813855919
 31
0.0
  0
ARC
  5
5F9
330
1F
100
AcDbEntity
  8
化粧台
  6
CONTINUOUS
 62
     6
100
AcDbCircle
 10
2451.000000000121
 20
1758.52173913046
 30
0.0
 40
2.0
100
AcDbArc
 50
0.0
 51
91.59964278381122
  0
ARC
  5
5FA
330
1F
100
AcDbEntity
  8
化粧台
  6
CONTINUOUS
 62
     6
100
AcDbCircle
 10
2405.000000000121
 20
1758.52173913046
 30
0.0
 40
2.0
100
AcDbArc
 50
90.00000000000001
 51
180.0
  0
LINE
  5
5FB
330
1F
100
AcDbEntity
  8
化粧台
  6
CONTINUOUS
 62
     6
100
AcDbLine
 10
2405.084007032257
 20
1760.52173913046
 30
0.0
 11
2405.000000000121
 21
1760.52173913046
 31
0.0
  0
ARC
  5
5FC
330
1F
100
AcDbEntity
  8
化粧台
  6
CONTINUOUS
 62
     6
100
AcDbCircle
 10
2428.020088785123
 20
1756.404498289357
 30
0.0
 40
22.5
100
AcDbArc
 50
160.1141478017074
 51
169.4561605025638
  0
ARC
  5
5FD
330
1F
100
AcDbEntity
  8
化粧台
  6
CONTINUOUS
 62
     6
100
AcDbCircle
 10
2427.979911215119
 20
1756.404498289357
 30
0.0
 40
22.5
100
AcDbArc
 50
10.54189726956417
 51
19.88585219825839
  0
LINE
  5
5FE
330
1F
100
AcDbEntity
  8
化粧台
  6
CONTINUOUS
 62
     6
100
AcDbLine
 10
2453.000000000119
 20
1801.367490143846
 30
0.0
 11
2453.000000000119
 21
1764.057813855927
 31
0.0
  0
LINE
  5
5FF
330
1F
100
AcDbEntity
  8
化粧台
  6
CONTINUOUS
 62
     6
100
AcDbLine
 10
2403.000000000119
 20
1801.367490143846
 30
0.0
 11
2403.000000000119
 21
1764.057813855929
 31
0.0
  0
LINE
  5
600
330
1F
100
AcDbEntity
  8
化粧台
  6
CONTINUOUS
 62
     6
100
AcDbLine
 10
2405.000000000121
 20
1760.52173913046
 30
0.0
 11
2450.94416918701
 21
1760.520959708661
 31
0.0
  0
LINE
  5
601
330
1F
100
AcDbEntity
  8
化粧台
  6
CONTINUOUS
 62
     6
100
AcDbLine
 10
2403.000000000121
 20
1754.52173913046
 30
0.0
 11
2453.000000000119
 21
1754.52173913046
 31
0.0
  0
ARC
  5
602
330
1F
100
AcDbEntity
  8
化粧台
  6
CONTINUOUS
 62
     6
100
AcDbCircle
 10
2428.000000000121
 20
1624.037740023554
 30
0.0
 40
179.0833333331875
100
AcDbArc
 50
81.97531013013935
 51
98.02468986986145
  0
LINE
  5
603
330
1F
100
AcDbEntity
  8
化粧台
  6
CONTINUOUS
 62
     6
100
AcDbLine
 10
2420.500000000121
 20
1802.963954642109
 30
0.0
 11
2420.500000000121
 21
1806.15145459353
 31
0.0
  0
LINE
  5
604
330
1F
100
AcDbEntity
  8
化粧台
  6
CONTINUOUS
 62
     6
100
AcDbLine
 10
2435.500000000121
 20
1802.963954642109
 30
0.0
 11
2435.500000000121
 21
1806.15145459353
 31
0.0
  0
ELLIPSE
  5
605
330
1F
100
AcDbEntity
  8
化粧台
  6
CONTINUOUS
 62
     6
100
AcDbEllipse
 10
2428.000000000121
 20
1806.15145459353
 30
0.0
 11
-7.500000000000006
 21
9.184850993605156E-16
 31
0.0
210
0.0
220
0.0
230
1.0
 40
0.9636802955882259
 41
3.141592653589793
 42
6.283185307179586
  0
LINE
  5
606
330
1F
100
AcDbEntity
  8
化粧台
  6
CONTINUOUS
 62
     6
100
AcDbLine
 10
2403.000000000119
 20
1758.52173913046
 30
0.0
 11
2403.000000000119
 21
1656.999999999958
 31
0.0
  0
LINE
  5
607
330
1F
100
AcDbEntity
  8
化粧台
  6
CONTINUOUS
 62
     6
100
AcDbLine
 10
2453.000000000119
 20
1758.52173913046
 30
0.0
 11
2453.000000000119
 21
1656.999999999958
 31
0.0
  0
LINE
  5
608
330
1F
100
AcDbEntity
  8
化粧台
  6
CONTINUOUS
 62
     2
100
AcDbLine
 10
2247.5000000001
 20
1485.5
 30
0.0
 11
2247.5000000001
 21
1624.0
 31
0.0
  0
LINE
  5
609
330
1F
100
AcDbEntity
  8
化粧台
  6
CONTINUOUS
 62
     2
100
AcDbLine
 10
2268.0000000001
 20
900.5
 30
0.0
 11
2268.0000000001
 21
1624.0
 31
0.0
  0
ARC
  5
60A
330
1F
100
AcDbEntity
  8
化粧台
  6
EXLTYPE2
 62
     6
100
AcDbCircle
 10
2335.836728576406
 20
1720.914290562865
 30
0.0
 40
195.0000000000001
100
AcDbArc
 50
249.6422585559242
 51
265.0000000000005
  0
LINE
  5
60B
330
1F
100
AcDbEntity
  8
化粧台
  6
EXLTYPE3
 62
     6
100
AcDbLine
 10
2558.400000000001
 20
1217.099999999998
 30
0.0
 11
2479.400000000197
 21
1217.099999999998
 31
0.0
  0
LINE
  5
60C
330
1F
100
AcDbEntity
  8
化粧台
  6
EXLTYPE2
 62
     6
100
AcDbLine
 10
2427.15000000006
 20
923.99999999996
 30
0.0
 11
2427.15000000006
 21
900.5000000000002
 31
0.0
  0
LINE
  5
60D
330
1F
100
AcDbEntity
  8
化粧台
  6
EXLTYPE2
 62
     6
100
AcDbLine
 10
2432.500000000062
 20
923.99999999996
 30
0.0
 11
2432.500000000062
 21
900.5000000000002
 31
0.0
  0
LINE
  5
60E
330
1F
100
AcDbEntity
  8
化粧台
  6
EXLTYPE2
 62
     6
100
AcDbLine
 10
2453.500000000062
 20
1205.49999999996
 30
0.0
 11
2453.500000000062
 21
900.5000000000002
 31
0.0
  0
LINE
  5
60F
330
1F
100
AcDbEntity
  8
化粧台
  6
EXLTYPE2
 62
     6
100
AcDbLine
 10
2458.850000000063
 20
900.4999999999936
 30
0.0
 11
2458.850000000064
 21
923.99999999996
 31
0.0
  0
LINE
  5
610
330
1F
100
AcDbEntity
  8
化粧台
  6
CONTINUOUS
 62
     6
100
AcDbLine
 10
2427.150000000061
 20
863.0
 30
0.0
 11
2458.850000000062
 21
863.0
 31
0.0
  0
LINE
  5
611
330
1F
100
AcDbEntity
  8
化粧台
  6
CONTINUOUS
 62
     6
100
AcDbLine
 10
2427.15000000006
 20
897.0
 30
0.0
 11
2427.15000000006
 21
863.0
 31
0.0
  0
LINE
  5
612
330
1F
100
AcDbEntity
  8
化粧台
  6
CONTINUOUS
 62
     6
100
AcDbLine
 10
2458.850000000062
 20
863.0
 30
0.0
 11
2458.850000000063
 21
897.0000000000023
 31
0.0
  0
LINE
  5
613
330
1F
100
AcDbEntity
  8
化粧台
  6
CONTINUOUS
 62
     6
100
AcDbLine
 10
2432.500000000062
 20
897.0
 30
0.0
 11
2432.500000000062
 21
885.0
 31
0.0
  0
LINE
  5
614
330
1F
100
AcDbEntity
  8
化粧台
  6
CONTINUOUS
 62
     6
100
AcDbLine
 10
2453.500000000062
 20
897.0
 30
0.0
 11
2453.500000000062
 21
885.0
 31
0.0
  0
LINE
  5
615
330
1F
100
AcDbEntity
  8
化粧台
  6
CONTINUOUS
 62
     6
100
AcDbLine
 10
2432.5000000001
 20
885.0
 30
0.0
 11
2453.5000000001
 21
885.0
 31
0.0
  0
LINE
  5
616
330
1F
100
AcDbEntity
  8
化粧台
  6
EXLTYPE2
 62
     6
100
AcDbLine
 10
2443.0000000001
 20
994.8465169715873
 30
0.0
 11
2443.0000000001
 21
855.75
 31
0.0
  0
LINE
  5
617
330
1F
100
AcDbEntity
  8
化粧台
  6
EXLTYPE4
 62
     6
100
AcDbLine
 10
396.0000000000875
 20
3971.5
 30
0.0
 11
1725.0
 21
3971.5
 31
0.0
  0
TEXT
  5
618
330
1F
100
AcDbEntity
  8
化粧台
  6
CONTINUOUS
 62
     2
100
AcDbText
 10
1618.500000536526
 20
3911.500003814697
 30
0.0
 40
59.99999618530273
  1
W.L.
 41
0.5571963512150641
  7
EXCADSTD
 72
     5
 11
1709.243400536526
 21
3911.500003814697
 31
0.0
100
AcDbText
  0
DIMENSION
  5
619
330
1F
100
AcDbEntity
  8
化粧台
  6
CONTINUOUS
 62
     3
100
AcDbDimension
  2
*D33
 10
1266.5000000001
 20
628.5
 30
0.0
 11
983.000000000115
 21
663.749999910593
 31
0.0
 70
   160
  3
ISO-25
100
AcDbAlignedDimension
 13
699.50000000013
 23
900.5
 33
0.0
 14
1266.5000000001
 24
900.5
 34
0.0
100
AcDbRotatedDimension
1001
ACAD
1000
DSTYLE
1002
{
1070
   270
1070
     2
1070
     6
1000
EX_NORM
1070
     7
1000
EX_NORM
1070
    41
1040
44.99999618530273
1070
    42
1040
10.49999982118607
1070
    44
1040
15.0
1070
    73
1070
     0
1070
    74
1070
     0
1070
    75
1070
     0
1070
    76
1070
     0
1070
    77
1070
     1
1070
    78
1070
     8
1070
   140
1040
59.99999618530273
1070
   147
1040
0.0
1070
   173
1070
     1
1070
   176
1070
     3
1070
   177
1070
     3
1070
   178
1070
     2
1070
   271
1070
     1
1070
   277
1070
     2
1070
   279
1070
     2
1070
   280
1070
     0
1070
   287
1070
     5
1070
   340
1005
11B
1002
}
  0
DIMENSION
  5
626
330
1F
100
AcDbEntity
  8
化粧台
  6
CONTINUOUS
 62
     3
100
AcDbDimension
  2
*D34
 10
683.00000000009
 20
2896.5
 30
0.0
 11
585.500000000091
 21
2931.749999910593
 31
0.0
 70
   160
  3
ISO-25
100
AcDbAlignedDimension
 13
703.00000000009
 23
2662.0000000001
 33
0.0
 14
683.00000000009
 24
2804.0000000001
 34
0.0
100
AcDbRotatedDimension
1001
ACAD
1000
DSTYLE
1002
{
1070
   270
1070
     2
1070
     6
1000
EX_NORM
1070
     7
1000
EX_NORM
1070
    41
1040
44.99999618530273
1070
    42
1040
10.49999982118607
1070
    44
1040
15.0
1070
    73
1070
     0
1070
    74
1070
     0
1070
    75
1070
     0
1070
    76
1070
     0
1070
    77
1070
     1
1070
    78
1070
     8
1070
   140
1040
59.99999618530273
1070
   147
1040
0.0
1070
   173
1070
     1
1070
   176
1070
     3
1070
   177
1070
     3
1070
   178
1070
     2
1070
   271
1070
     1
1070
   277
1070
     2
1070
   279
1070
     2
1070
   280
1070
     2
1070
   287
1070
     5
1070
   340
1005
11B
1002
}
  0
DIMENSION
  5
635
330
1F
100
AcDbEntity
  8
化粧台
  6
CONTINUOUS
 62
     3
100
AcDbDimension
  2
*D35
 10
1283.0000000001
 20
2893.5
 30
0.0
 11
1380.5000000001
 21
2928.749999910593
 31
0.0
 70
   160
  3
ISO-25
100
AcDbAlignedDimension
 13
1208.0000000001
 23
2662.0000000001
 33
0.0
 14
1283.0000000001
 24
2804.0000000001
 34
0.0
100
AcDbRotatedDimension
1001
ACAD
1000
DSTYLE
1002
{
1070
   270
1070
     2
1070
     6
1000
EX_NORM
1070
     7
1000
EX_NORM
1070
    41
1040
44.99999618530273
1070
    42
1040
10.49999982118607
1070
    44
1040
15.0
1070
    73
1070
     0
1070
    74
1070
     0
1070
    75
1070
     0
1070
    76
1070
     0
1070
    77
1070
     1
1070
    78
1070
     8
1070
   140
1040
59.99999618530273
1070
   147
1040
0.0
1070
   173
1070
     1
1070
   176
1070
     3
1070
   177
1070
     3
1070
   178
1070
     2
1070
   271
1070
     1
1070
   277
1070
     2
1070
   279
1070
     2
1070
   280
1070
     2
1070
   287
1070
     5
1070
   340
1005
11B
1002
}
  0
DIMENSION
  5
644
330
1F
100
AcDbEntity
  8
化粧台
  6
CONTINUOUS
 62
     3
100
AcDbDimension
  2
*D36
 10
683.00000000009
 20
1819.2
 30
0.0
 11
585.5000000000906
 21
1854.449999910593
 31
0.0
 70
   160
  3
ISO-25
100
AcDbAlignedDimension
 13
758.00000000009
 23
1762.0000000001
 33
0.0
 14
683.00000000009
 24
1762.5
 34
0.0
100
AcDbRotatedDimension
1001
ACAD
1000
DSTYLE
1002
{
1070
   270
1070
     2
1070
     6
1000
EX_NORM
1070
     7
1000
EX_NORM
1070
    41
1040
44.99999618530273
1070
    42
1040
10.49999982118607
1070
    44
1040
15.0
1070
    73
1070
     0
1070
    74
1070
     0
1070
    75
1070
     0
1070
    76
1070
     0
1070
    77
1070
     1
1070
    78
1070
     8
1070
   140
1040
59.99999618530273
1070
   147
1040
0.0
1070
   173
1070
     1
1070
   176
1070
     3
1070
   177
1070
     3
1070
   178
1070
     2
1070
   271
1070
     1
1070
   277
1070
     2
1070
   279
1070
     2
1070
   280
1070
     2
1070
   287
1070
     5
1070
   340
1005
11B
1002
}
  0
DIMENSION
  5
653
330
1F
100
AcDbEntity
  8
化粧台
  6
CONTINUOUS
 62
     3
100
AcDbDimension
  2
*D37
 10
2351.0000000001
 20
2889.0
 30
0.0
 11
2648.000000000101
 21
2924.249999910592
 31
0.0
 70
   160
  3
ISO-25
100
AcDbAlignedDimension
 13
2528.0000000001
 23
2812.0000000001
 33
0.0
 14
2351.0000000001
 24
2798.0000000001
 34
0.0
100
AcDbRotatedDimension
1001
ACAD
1000
DSTYLE
1002
{
1070
   270
1070
     2
1070
     6
1000
EX_NORM
1070
     7
1000
EX_NORM
1070
    41
1040
44.99999618530273
1070
    42
1040
10.49999982118607
1070
    44
1040
15.0
1070
    73
1070
     0
1070
    74
1070
     0
1070
    75
1070
     0
1070
    76
1070
     0
1070
    77
1070
     1
1070
    78
1070
     8
1070
   140
1040
59.99999618530273
1070
   147
1040
0.0
1070
   173
1070
     1
1070
   176
1070
     3
1070
   177
1070
     3
1070
   178
1070
     2
1070
   271
1070
     1
1070
   277
1070
     2
1070
   279
1070
     2
1070
   280
1070
     1
1070
   287
1070
     5
1070
   340
1005
11B
1002
}
  0
LINE
  5
660
330
1F
100
AcDbEntity
  8
化粧台
  6
CONTINUOUS
 62
     6
100
AcDbLine
 10
2513.0000000001
 20
1731.9999833108
 30
0.0
 11
2575.5000000001
 21
1731.9999833108
 31
0.0
  0
LINE
  5
661
330
1F
100
AcDbEntity
  8
化粧台
  6
CONTINUOUS
 62
     6
100
AcDbLine
 10
2528.0000000001
 20
1733.9999833108
 30
0.0
 11
2560.5000000001
 21
1731.9999833108
 31
0.0
  0
LINE
  5
662
330
1F
100
AcDbEntity
  8
化粧台
  6
CONTINUOUS
 62
     6
100
AcDbLine
 10
2560.5000000001
 20
1731.9999833108
 30
0.0
 11
2528.0000000001
 21
1729.9999833108
 31
0.0
  0
LINE
  5
663
330
1F
100
AcDbEntity
  8
化粧台
  6
CONTINUOUS
 62
     6
100
AcDbLine
 10
2513.0000000001
 20
2132.0000000001
 30
0.0
 11
2575.5000000001
 21
2132.0000000001
 31
0.0
  0
LINE
  5
664
330
1F
100
AcDbEntity
  8
化粧台
  6
CONTINUOUS
 62
     6
100
AcDbLine
 10
2528.0000000001
 20
2134.0000000001
 30
0.0
 11
2560.5000000001
 21
2132.0000000001
 31
0.0
  0
LINE
  5
665
330
1F
100
AcDbEntity
  8
化粧台
  6
CONTINUOUS
 62
     6
100
AcDbLine
 10
2560.5000000001
 20
2132.0000000001
 30
0.0
 11
2528.0000000001
 21
2130.0000000001
 31
0.0
  0
LINE
  5
666
330
1F
100
AcDbEntity
  8
化粧台
  6
CONTINUOUS
 62
     6
100
AcDbLine
 10
2513.0000000001
 20
2632.0000000001
 30
0.0
 11
2575.5000000001
 21
2632.0000000001
 31
0.0
  0
LINE
  5
667
330
1F
100
AcDbEntity
  8
化粧台
  6
CONTINUOUS
 62
     6
100
AcDbLine
 10
2528.0000000001
 20
2634.0000000001
 30
0.0
 11
2560.5000000001
 21
2632.0000000001
 31
0.0
  0
LINE
  5
668
330
1F
100
AcDbEntity
  8
化粧台
  6
CONTINUOUS
 62
     6
100
AcDbLine
 10
2560.5000000001
 20
2632.0000000001
 30
0.0
 11
2528.0000000001
 21
2630.0000000001
 31
0.0
  0
DIMENSION
  5
669
330
1F
100
AcDbEntity
  8
化粧台
  6
CONTINUOUS
 62
     3
100
AcDbDimension
  2
*D38
 10
2979.0
 20
1731.9999833108
 30
0.0
 11
2943.750000089407
 21
1314.4999916554
 31
0.0
 70
   160
  1
835（壁固定）
  3
ISO-25
100
AcDbAlignedDimension
 13
2538.4999998213
 23
897.0
 33
0.0
 14
2575.5000000001
 24
1731.9999833108
 34
0.0
 50
90.0
100
AcDbRotatedDimension
1001
ACAD
1000
DSTYLE
1002
{
1070
   270
1070
     2
1070
     6
1000
EX_NORM
1070
     7
1000
EX_NORM
1070
    41
1040
44.99999618530273
1070
    42
1040
10.49999982118607
1070
    44
1040
15.0
1070
    73
1070
     0
1070
    74
1070
     0
1070
    75
1070
     0
1070
    76
1070
     0
1070
    77
1070
     1
1070
    78
1070
     8
1070
   140
1040
59.99999618530273
1070
   147
1040
0.0
1070
   173
1070
     1
1070
   176
1070
     3
1070
   177
1070
     3
1070
   178
1070
     2
1070
   271
1070
     1
1070
   277
1070
     2
1070
   279
1070
     2
1070
   280
1070
     0
1070
   287
1070
     5
1070
   340
1005
11B
1002
}
  0
DIMENSION
  5
676
330
1F
100
AcDbEntity
  8
化粧台
  6
CONTINUOUS
 62
     3
100
AcDbDimension
  2
*D39
 10
2979.0
 20
2132.0000000001
 30
0.0
 11
2943.750000089407
 21
1931.99999165545
 31
0.0
 70
   160
  3
ISO-25
100
AcDbAlignedDimension
 13
2575.5000000001
 23
1731.9999833108
 33
0.0
 14
2560.5000000001
 24
2132.0000000001
 34
0.0
 50
90.0
100
AcDbRotatedDimension
1001
ACAD
1000
DSTYLE
1002
{
1070
   270
1070
     2
1070
     6
1000
EX_NORM
1070
     7
1000
EX_NORM
1070
    41
1040
44.99999618530273
1070
    42
1040
10.49999982118607
1070
    44
1040
15.0
1070
    73
1070
     0
1070
    74
1070
     0
1070
    75
1070
     0
1070
    76
1070
     0
1070
    77
1070
     1
1070
    78
1070
     8
1070
   140
1040
59.99999618530273
1070
   147
1040
0.0
1070
   173
1070
     1
1070
   176
1070
     3
1070
   177
1070
     3
1070
   178
1070
     2
1070
   271
1070
     1
1070
   277
1070
     2
1070
   279
1070
     2
1070
   280
1070
     0
1070
   287
1070
     5
1070
   340
1005
11B
1002
}
  0
DIMENSION
  5
683
330
1F
100
AcDbEntity
  8
化粧台
  6
CONTINUOUS
 62
     3
100
AcDbDimension
  2
*D40
 10
2979.0
 20
2632.0000000001
 30
0.0
 11
2943.750000089407
 21
2382.0000000001
 31
0.0
 70
   160
  3
ISO-25
100
AcDbAlignedDimension
 13
2560.5000000001
 23
2132.0000000001
 33
0.0
 14
2575.5000000001
 24
2632.0000000001
 34
0.0
 50
90.0
100
AcDbRotatedDimension
1001
ACAD
1000
DSTYLE
1002
{
1070
   270
1070
     2
1070
     6
1000
EX_NORM
1070
     7
1000
EX_NORM
1070
    41
1040
44.99999618530273
1070
    42
1040
10.49999982118607
1070
    44
1040
15.0
1070
    73
1070
     0
1070
    74
1070
     0
1070
    75
1070
     0
1070
    76
1070
     0
1070
    77
1070
     1
1070
    78
1070
     8
1070
   140
1040
59.99999618530273
1070
   147
1040
0.0
1070
   173
1070
     1
1070
   176
1070
     3
1070
   177
1070
     3
1070
   178
1070
     2
1070
   271
1070
     1
1070
   277
1070
     2
1070
   279
1070
     2
1070
   280
1070
     0
1070
   287
1070
     5
1070
   340
1005
11B
1002
}
  0
TEXT
  5
690
330
1F
100
AcDbEntity
  8
寸法
  6
CONTINUOUS
 62
     2
100
AcDbText
 10
1388.199520540596
 20
1924.093424393
 30
0.0
 40
59.99999618530273
  1
電源コード（有効長さ：１.６ｍ）
 50
90.00000000000004
 41
0.9476534151428436
  7
EXCADSTD
 72
     5
 11
1388.199520540595
 21
2674.093365265192
 31
0.0
100
AcDbText
  0
DIMENSION
  5
691
330
1F
100
AcDbEntity
  8
寸法
  6
CONTINUOUS
 62
     3
100
AcDbDimension
  2
*D41
 10
1178.000000000088
 20
4204.5
 30
0.0
 11
983.0000000000891
 21
4239.749999910593
 31
0.0
 70
   160
  1
<>（壁固定）
  3
ISO-25
100
AcDbAlignedDimension
 13
788.0000000000894
 23
4004.0
 33
0.0
 14
1178.000000000088
 24
4004.0
 34
0.0
100
AcDbRotatedDimension
1001
ACAD
1000
DSTYLE
1002
{
1070
   270
1070
     2
1070
     6
1000
EX_NORM
1070
     7
1000
EX_NORM
1070
    41
1040
44.99999618530273
1070
    42
1040
31.0
1070
    44
1040
15.0
1070
    73
1070
     0
1070
    74
1070
     0
1070
    75
1070
     1
1070
    76
1070
     0
1070
    77
1070
     1
1070
    78
1070
     0
1070
   140
1040
59.99999618530273
1070
   147
1040
0.0
1070
   173
1070
     1
1070
   176
1070
     3
1070
   177
1070
     3
1070
   178
1070
     2
1070
   271
1070
     0
1070
   277
1070
     2
1070
   279
1070
     2
1070
   280
1070
     0
1070
   287
1070
     5
1070
   340
1005
11B
1002
}
  0
LINE
  5
69D
330
1F
100
AcDbEntity
  8
寸法
  6
CONTINUOUS
 62
     3
100
AcDbLine
 10
2538.499999821274
 20
897.0
 30
0.0
 11
2733.000000000089
 21
896.9999999999986
 31
0.0
  0
LINE
  5
69E
330
1F
100
AcDbEntity
  8
寸法
  6
CONTINUOUS
 62
     3
100
AcDbLine
 10
2538.499999821274
 20
897.0000000000001
 30
0.0
 11
2823.000000000089
 21
896.9999999999985
 31
0.0
  0
LINE
  5
69F
330
1F
100
AcDbEntity
  8
寸法
  6
CONTINUOUS
 62
     3
100
AcDbLine
 10
2528.000000000088
 20
886.5000001788139
 30
0.0
 11
2528.000000000088
 21
762.0
 31
0.0
  0
TEXT
  5
6A0
330
1F
100
AcDbEntity
  8
寸法
  6
CONTINUOUS
 62
     2
100
AcDbText
 10
2587.500000000089
 20
1461.749999910593
 30
0.0
 40
59.99999618530273
  1
Ｒ１/２
 41
0.8342465643686785
  7
EXCADSTD
 72
     5
 11
2761.499986648649
 21
1461.749999910593
 31
0.0
100
AcDbText
  0
LEADER
  5
6A1
330
1F
100
AcDbEntity
  8
寸法
  6
CONTINUOUS
 62
     3
100
AcDbLeader
  3
ISO-25
 76
     3
 10
2536.000005722089
 20
1227.5
 30
0.0
 10
2580.000000000089
 20
1456.5
 30
0.0
 10
2749.500000000089
 20
1456.5
 30
0.0
1001
ACAD
1000
DSTYLE
1002
{
1070
     5
1000
EX_NORM
1070
    41
1040
45.0
1070
   341
1005
4D
1002
}
  0
LEADER
  5
6A2
330
1F
100
AcDbEntity
  8
寸法
  6
CONTINUOUS
 62
     3
100
AcDbLeader
  3
ISO-25
 76
     3
 10
2427.149999999988
 20
896.99999999996
 30
0.0
 10
2136.649999999982
 20
687.99999999996
 30
0.0
 10
1689.649999999981
 20
687.99999999996
 30
0.0
1001
ACAD
1000
DSTYLE
1002
{
1070
     5
1000
EX_NORM
1070
    41
1040
45.0
1070
   341
1005
4D
1002
}
  0
TEXT
  5
6A3
330
1F
100
AcDbEntity
  8
寸法
  6
CONTINUOUS
 62
     2
100
AcDbText
 10
1702.293375431394
 20
754.9379141411559
 30
0.0
 40
59.99999618530273
  1
ＶＰ･ＶＵ４０･５０
 41
0.8542372745578565
  7
EXCADSTD
 72
     5
 11
2134.293341099118
 21
754.9379141411559
 31
0.0
100
AcDbText
  0
TEXT
  5
6A4
330
1F
100
AcDbEntity
  8
寸法
  6
CONTINUOUS
 62
     2
100
AcDbText
 10
1702.293375431394
 20
694.9379179558532
 30
0.0
 40
59.99999618530273
  1
４０～５０㎜立上げ
 41
0.9773584771306252
  7
EXCADSTD
 72
     5
 11
2146.293341099118
 21
694.9379179558532
 31
0.0
100
AcDbText
  0
LINE
  5
6A5
330
1F
100
AcDbEntity
  8
寸法
  6
CONTINUOUS
 62
     3
100
AcDbLine
 10
788.00000000009
 20
4029.0
 30
0.0
 11
788.00000000009
 21
4075.5
 31
0.0
  0
LINE
  5
6A6
330
1F
100
AcDbEntity
  8
寸法
  6
CONTINUOUS
 62
     3
100
AcDbLine
 10
788.00000000009
 20
4159.5
 30
0.0
 11
788.00000000009
 21
4219.5
 31
0.0
  0
ENDSEC
  0
SECTION
  2
OBJECTS
  0
DICTIONARY
  5
C
330
0
100
AcDbDictionary
  3
ACAD_GROUP
350
D
  3
ACAD_LAYOUT
350
1A
  3
ACAD_MATERIAL
350
3B
  3
ACAD_MLEADERSTYLE
350
6C9
  3
ACAD_MLINESTYLE
350
17
  3
ACAD_PLOTSETTINGS
350
19
  3
ACAD_VISUALSTYLE
350
2A
  3
ACDBHEADERROUNDTRIPXREC
350
6A7
  3
ACDBVARIABLEDICTIONARY
350
6C7
  0
DICTIONARY
  5
D
102
{ACAD_REACTORS
330
C
102
}
330
C
100
AcDbDictionary
  0
DICTIONARY
  5
1A
102
{ACAD_REACTORS
330
C
102
}
330
C
100
AcDbDictionary
  0
DICTIONARY
  5
3B
102
{ACAD_REACTORS
330
C
102
}
330
C
100
AcDbDictionary
  3
BYBLOCK
350
3D
  3
BYLAYER
350
3C
  3
GLOBAL
350
3E
  0
DICTIONARY
  5
6C9
102
{ACAD_REACTORS
330
C
102
}
330
C
100
AcDbDictionary
  0
DICTIONARY
  5
17
102
{ACAD_REACTORS
330
C
102
}
330
C
100
AcDbDictionary
  3
STANDARD
350
18
  0
DICTIONARY
  5
19
102
{ACAD_REACTORS
330
C
102
}
330
C
100
AcDbDictionary
  0
DICTIONARY
  5
2A
102
{ACAD_REACTORS
330
C
102
}
330
C
100
AcDbDictionary
  3
2DWIREFRAME
350
2F
  3
3D_HIDDEN
350
31
  3
3DWIREFRAME
350
30
  3
BASIC
350
32
  3
BRIGHTEN
350
36
  3
COLORCHANGE
350
3A
  3
CONCEPTUAL
350
34
  3
DIM
350
35
  3
FACEPATTERN
350
39
  3
FLAT
350
2B
  3
FLATWITHEDGES
350
2C
  3
GOURAUD
350
2D
  3
GOURAUDWITHEDGES
350
2E
  3
LINEPATTERN
350
38
  3
REALISTIC
350
33
  3
THICKEN
350
37
  0
DICTIONARY
  5
6A7
102
{ACAD_REACTORS
330
C
102
}
330
C
100
AcDbDictionary
  3
CEPSNTYPE
350
6B0
  3
DIMSTYLEDATA
350
6C6
  3
FINGERPRINTGUID
350
6B1
  3
HYPERLINKBASE
350
6AA
  3
INSUNITS
350
6AF
  3
LAYOUTDICT
350
6AC
  3
LWETCUNION
350
6AE
  3
PLOTSETDICT
350
6AD
  3
PSVPSCALE
350
6B3
  3
PUCSBASE
350
6B6
  3
PUCSORGBACK
350
6BC
  3
PUCSORGBOTTOM
350
6B8
  3
PUCSORGFRONT
350
6BB
  3
PUCSORGLEFT
350
6B9
  3
PUCSORGRIGHT
350
6BA
  3
PUCSORGTOP
350
6B7
  3
PUCSORTHOREF
350
6B4
  3
PUCSORTHOVIEW
350
6B5
  3
STYLESHEET
350
6AB
  3
TSTACKALIGN
350
6A8
  3
TSTACKSIZE
350
6A9
  3
UCSBASE
350
6BF
  3
UCSORGBACK
350
6C5
  3
UCSORGBOTTOM
350
6C1
  3
UCSORGFRONT
350
6C4
  3
UCSORGLEFT
350
6C2
  3
UCSORGRIGHT
350
6C3
  3
UCSORGTOP
350
6C0
  3
UCSORTHOREF
350
6BD
  3
UCSORTHOVIEW
350
6BE
  3
VERSIONGUID
350
6B2
  0
DICTIONARY
  5
6C7
102
{ACAD_REACTORS
330
C
102
}
330
C
100
AcDbDictionary
  3
DIMASSOC
350
6CC
  3
HIDETEXT
350
6CD
  3
PSOLHEIGHT
350
6CB
  3
PSOLWIDTH
350
6CA
  0
MATERIAL
  5
3D
102
{ACAD_REACTORS
330
3B
102
}
102
{ACAD_XDICTIONARY
360
6D0
102
}
330
3B
100
AcDbMaterial
  1
ByBlock
  0
MATERIAL
  5
3C
102
{ACAD_REACTORS
330
3B
102
}
102
{ACAD_XDICTIONARY
360
6CE
102
}
330
3B
100
AcDbMaterial
  1
ByLayer
  0
MATERIAL
  5
3E
102
{ACAD_REACTORS
330
3B
102
}
102
{ACAD_XDICTIONARY
360
6D2
102
}
330
3B
100
AcDbMaterial
  1
Global
  0
MLINESTYLE
  5
18
102
{ACAD_REACTORS
330
17
102
}
330
17
100
AcDbMlineStyle
  2
Standard
 70
     0
  3

 62
   256
 51
90.0
 52
90.0
 71
     2
 49
0.5
 62
   256
  6
BYLAYER
 49
-0.5
 62
   256
  6
BYLAYER
  0
ACAD_PROXY_OBJECT
  5
2F
102
{ACAD_REACTORS
330
2A
102
}
330
2A
100
AcDbProxyObject
 90
      499
 91
      501
 93
      436
310
42CC9915DA5C99599C985B595049028333333333333E3BF0000000000000FB0107901411070040501600405405064090741402480A0340
1001
ACAD
1000
AcDbSavedByObjectVersion
1070
     0
  0
ACAD_PROXY_OBJECT
  5
31
102
{ACAD_REACTORS
330
2A
102
}
330
2A
100
AcDbProxyObject
 90
      499
 91
      501
 93
      500
310
424CD108121A5919195B90640502408333333333333E3BF0000000000000FB01079024090700405020000000000001110200405405064090740C02480A0340
1001
ACAD
1000
AcDbSavedByObjectVersion
1070
     0
  0
ACAD_PROXY_OBJECT
  5
30
102
{ACAD_REACTORS
330
2A
102
}
330
2A
100
AcDbProxyObject
 90
      499
 91
      501
 93
      436
310
42CCD915DA5C99599C985B595059028333333333333E3BF0000000000000FB0107901411070040501600405405064090741402480A0340
1001
ACAD
1000
AcDbSavedByObjectVersion
1070
     0
  0
ACAD_PROXY_OBJECT
  5
32
102
{ACAD_REACTORS
330
2A
102
}
330
2A
100
AcDbProxyObject
 90
      499
 91
      501
 93
      388
310
4150985CDA58D07406404333333333333E3BF0000000000000FB0107A41107004050150841D405064090741402480A0350
1001
ACAD
1000
AcDbSavedByObjectVersion
1070
     0
  0
ACAD_PROXY_OBJECT
  5
36
102
{ACAD_REACTORS
330
2A
102
}
330
2A
100
AcDbProxyObject
 90
      499
 91
      501
 93
      428
310
42109C9A59DA1D195B90C409028333333333333E3BF0000000000000FB010790141107004050150841D405064090741402480A029950
1001
ACAD
1000
AcDbSavedByObjectVersion
1070
     0
  0
ACAD_PROXY_OBJECT
  5
3A
102
{ACAD_REACTORS
330
2A
102
}
330
2A
100
AcDbProxyObject
 90
      499
 91
      501
 93
      452
310
42D0DBDB1BDC90DA185B99D95104090240C333333333333E3BF0000000000000FB0108901411070040501508421405064090741402480A0350
1001
ACAD
1000
AcDbSavedByObjectVersion
1070
     0
  0
ACAD_PROXY_OBJECT
  5
34
102
{ACAD_REACTORS
330
2A
102
}
330
2A
100
AcDbProxyObject
 90
      499
 91
      501
 93
      500
310
4290DBDB98D95C1D1D585B10940D028333333333333E3BF0000000000000FB0107902409070040501000000000000111010841D405064090740C02480A0340
1001
ACAD
1000
AcDbSavedByObjectVersion
1070
     0
  0
ACAD_PROXY_OBJECT
  5
35
102
{ACAD_REACTORS
330
2A
102
}
330
2A
100
AcDbProxyObject
 90
      499
 91
      501
 93
      412
310
40D11A5B50B409028333333333333E3BF0000000000000FB010790141107004050150841D405064090741402480A02677FFFFFD0
1001
ACAD
1000
AcDbSavedByObjectVersion
1070
     0
  0
ACAD_PROXY_OBJECT
  5
39
102
{ACAD_REACTORS
330
2A
102
}
330
2A
100
AcDbProxyObject
 90
      499
 91
      501
 93
      444
310
42D19858D95C185D1D195C9B90F409028333333333333E3BF0000000000000FB010790141107004050150841D405064090741402480A0350
1001
ACAD
1000
AcDbSavedByObjectVersion
1070
     0
  0
ACAD_PROXY_OBJECT
  5
2B
102
{ACAD_REACTORS
330
2A
102
}
330
2A
100
AcDbProxyObject
 90
      499
 91
      501
 93
      388
310
41119B185D240901404333333333333E3BF0000000000000F9010740A41107004050150841D405064090741402480A1B50
1001
ACAD
1000
AcDbSavedByObjectVersion
1070
     0
  0
ACAD_PROXY_OBJECT
  5
2C
102
{ACAD_REACTORS
330
2A
102
}
330
2A
100
AcDbProxyObject
 90
      499
 91
      501
 93
      476
310
43519B185D15DA5D1A115919D95CD0140901404333333333333E3BF0000000000000F9010740901411070040501600405405064090741402480A1B50
1001
ACAD
1000
AcDbSavedByObjectVersion
1070
     0
  0
ACAD_PROXY_OBJECT
  5
2D
102
{ACAD_REACTORS
330
2A
102
}
330
2A
100
AcDbProxyObject
 90
      499
 91
      501
 93
      412
310
41D1DBDD5C985D5910240902404333333333333E3BF0000000000000F9010740A411070040501641D405064090741402480A1B50
1001
ACAD
1000
AcDbSavedByObjectVersion
1070
     0
  0
ACAD_PROXY_OBJECT
  5
2E
102
{ACAD_REACTORS
330
2A
102
}
330
2A
100
AcDbProxyObject
 90
      499
 91
      501
 93
      500
310
4411DBDD5C985D5915DA5D1A115919D95CD0340902404333333333333E3BF0000000000000F9010740901411070040501600405405064090741402480A1B50
1001
ACAD
1000
AcDbSavedByObjectVersion
1070
     0
  0
ACAD_PROXY_OBJECT
  5
38
102
{ACAD_REACTORS
330
2A
102
}
330
2A
100
AcDbProxyObject
 90
      499
 91
      501
 93
      444
310
42D31A5B995C185D1D195C9B90E409028333333333333E3BF0000000000000FB010790141107004050750841D405064090741402483A0350
1001
ACAD
1000
AcDbSavedByObjectVersion
1070
     0
  0
ACAD_PROXY_OBJECT
  5
33
102
{ACAD_REACTORS
330
2A
102
}
330
2A
100
AcDbProxyObject
 90
      499
 91
      501
 93
      420
310
425499585B1A5CDD1A58D08409028333333333333E3BF0000000000000FB01079019070040501508421405064090741402480A1B40
1001
ACAD
1000
AcDbSavedByObjectVersion
1070
     0
  0
ACAD_PROXY_OBJECT
  5
37
102
{ACAD_REACTORS
330
2A
102
}
330
2A
100
AcDbProxyObject
 90
      499
 91
      501
 93
      412
310
41D51A1A58DAD95B90D409028333333333333E3BF0000000000000FB010790141107004050150C41D405064090741402480A0350
1001
ACAD
1000
AcDbSavedByObjectVersion
1070
     0
  0
XRECORD
  5
6B0
102
{ACAD_REACTORS
330
6A7
102
}
330
6A7
100
AcDbXrecord
 90
        0
  0
XRECORD
  5
6C6
102
{ACAD_REACTORS
330
6A7
102
}
330
6A7
100
AcDbXrecord
1000
DSTYLE
1002
{
1070
   340
340
11
1002
}
  0
XRECORD
  5
6B1
102
{ACAD_REACTORS
330
6A7
102
}
330
6A7
100
AcDbXrecord
  1
{4D9CC128-37DF-4B2A-9CD7-14616DF5A202}
  0
XRECORD
  5
6AA
102
{ACAD_REACTORS
330
6A7
102
}
330
6A7
100
AcDbXrecord
  1

  0
XRECORD
  5
6AF
102
{ACAD_REACTORS
330
6A7
102
}
330
6A7
100
AcDbXrecord
 90
        4
  0
XRECORD
  5
6AC
102
{ACAD_REACTORS
330
6A7
102
}
330
6A7
100
AcDbXrecord
340
1A
  0
XRECORD
  5
6AE
102
{ACAD_REACTORS
330
6A7
102
}
330
6A7
100
AcDbXrecord
 90
    10781
  0
XRECORD
  5
6AD
102
{ACAD_REACTORS
330
6A7
102
}
330
6A7
100
AcDbXrecord
340
19
  0
XRECORD
  5
6B3
102
{ACAD_REACTORS
330
6A7
102
}
330
6A7
100
AcDbXrecord
 40
0.0
  0
XRECORD
  5
6B6
102
{ACAD_REACTORS
330
6A7
102
}
330
6A7
100
AcDbXrecord
340
0
  0
XRECORD
  5
6BC
102
{ACAD_REACTORS
330
6A7
102
}
330
6A7
100
AcDbXrecord
 10
0.0
 20
0.0
 30
0.0
  0
XRECORD
  5
6B8
102
{ACAD_REACTORS
330
6A7
102
}
330
6A7
100
AcDbXrecord
 10
0.0
 20
0.0
 30
0.0
  0
XRECORD
  5
6BB
102
{ACAD_REACTORS
330
6A7
102
}
330
6A7
100
AcDbXrecord
 10
0.0
 20
0.0
 30
0.0
  0
XRECORD
  5
6B9
102
{ACAD_REACTORS
330
6A7
102
}
330
6A7
100
AcDbXrecord
 10
0.0
 20
0.0
 30
0.0
  0
XRECORD
  5
6BA
102
{ACAD_REACTORS
330
6A7
102
}
330
6A7
100
AcDbXrecord
 10
0.0
 20
0.0
 30
0.0
  0
XRECORD
  5
6B7
102
{ACAD_REACTORS
330
6A7
102
}
330
6A7
100
AcDbXrecord
 10
0.0
 20
0.0
 30
0.0
  0
XRECORD
  5
6B4
102
{ACAD_REACTORS
330
6A7
102
}
330
6A7
100
AcDbXrecord
340
0
  0
XRECORD
  5
6B5
102
{ACAD_REACTORS
330
6A7
102
}
330
6A7
100
AcDbXrecord
 70
     0
  0
XRECORD
  5
6AB
102
{ACAD_REACTORS
330
6A7
102
}
330
6A7
100
AcDbXrecord
  1

  0
XRECORD
  5
6A8
102
{ACAD_REACTORS
330
6A7
102
}
330
6A7
100
AcDbXrecord
 90
        1
  0
XRECORD
  5
6A9
102
{ACAD_REACTORS
330
6A7
102
}
330
6A7
100
AcDbXrecord
 90
       70
  0
XRECORD
  5
6BF
102
{ACAD_REACTORS
330
6A7
102
}
330
6A7
100
AcDbXrecord
340
0
  0
XRECORD
  5
6C5
102
{ACAD_REACTORS
330
6A7
102
}
330
6A7
100
AcDbXrecord
 10
0.0
 20
0.0
 30
0.0
  0
XRECORD
  5
6C1
102
{ACAD_REACTORS
330
6A7
102
}
330
6A7
100
AcDbXrecord
 10
0.0
 20
0.0
 30
0.0
  0
XRECORD
  5
6C4
102
{ACAD_REACTORS
330
6A7
102
}
330
6A7
100
AcDbXrecord
 10
0.0
 20
0.0
 30
0.0
  0
XRECORD
  5
6C2
102
{ACAD_REACTORS
330
6A7
102
}
330
6A7
100
AcDbXrecord
 10
0.0
 20
0.0
 30
0.0
  0
XRECORD
  5
6C3
102
{ACAD_REACTORS
330
6A7
102
}
330
6A7
100
AcDbXrecord
 10
0.0
 20
0.0
 30
0.0
  0
XRECORD
  5
6C0
102
{ACAD_REACTORS
330
6A7
102
}
330
6A7
100
AcDbXrecord
 10
0.0
 20
0.0
 30
0.0
  0
XRECORD
  5
6BD
102
{ACAD_REACTORS
330
6A7
102
}
330
6A7
100
AcDbXrecord
340
0
  0
XRECORD
  5
6BE
102
{ACAD_REACTORS
330
6A7
102
}
330
6A7
100
AcDbXrecord
 70
     0
  0
XRECORD
  5
6B2
102
{ACAD_REACTORS
330
6A7
102
}
330
6A7
100
AcDbXrecord
  1
{FAEB1C32-E019-11D5-929B-00C0DF256EC4}
  0
DICTIONARYVAR
  5
6CC
102
{ACAD_REACTORS
330
6C7
102
}
330
6C7
100
DictionaryVariables
280
     0
  1
2
  0
DICTIONARYVAR
  5
6CD
102
{ACAD_REACTORS
330
6C7
102
}
330
6C7
100
DictionaryVariables
280
     0
  1
1
  0
DICTIONARYVAR
  5
6CB
102
{ACAD_REACTORS
330
6C7
102
}
330
6C7
100
DictionaryVariables
280
     0
  1
80.000000
  0
DICTIONARYVAR
  5
6CA
102
{ACAD_REACTORS
330
6C7
102
}
330
6C7
100
DictionaryVariables
280
     0
  1
5.000000
  0
DICTIONARY
  5
6D0
330
3D
100
AcDbDictionary
280
     1
  3
ACAD_XREC_ROUNDTRIP
360
6D1
  0
DICTIONARY
  5
6CE
330
3C
100
AcDbDictionary
280
     1
  3
ACAD_XREC_ROUNDTRIP
360
6CF
  0
DICTIONARY
  5
6D2
330
3E
100
AcDbDictionary
280
     1
  3
ACAD_XREC_ROUNDTRIP
360
6D3
  0
XRECORD
  5
6D1
102
{ACAD_REACTORS
330
6D0
102
}
330
6D0
100
AcDbXrecord
102
MATERIAL
148
0.0
149
0.0
149
0.0
 93
        0
 94
      127
282
     0
 72
     1
 77
     1
171
     1
175
     1
179
     1
273
     0
  0
XRECORD
  5
6CF
102
{ACAD_REACTORS
330
6CE
102
}
330
6CE
100
AcDbXrecord
102
MATERIAL
148
0.0
149
0.0
149
0.0
 93
        0
 94
      127
282
     0
 72
     1
 77
     1
171
     1
175
     1
179
     1
273
     0
  0
XRECORD
  5
6D3
102
{ACAD_REACTORS
330
6D2
102
}
330
6D2
100
AcDbXrecord
102
MATERIAL
148
0.0
149
0.0
149
0.0
 93
        0
 94
      127
282
     0
 72
     1
 77
     1
171
     1
175
     1
179
     1
273
     0
  0
ENDSEC
  0
EOF
