  0
SECTION
  2
HEADER
  9
$ACADVER
  1
AC1014
  9
$ACADMAINTVER
 70
     9
  9
$DWGCODEPAGE
  3
ANSI_932
  9
$INSBASE
 10
0.0
 20
0.0
 30
0.0
  9
$EXTMIN
 10
0.7000000000000085
 20
12.5
 30
0.0
  9
$EXTMAX
 10
200.0000000000001
 20
287.5
 30
0.0
  9
$LIMMIN
 10
0.0
 20
0.0
  9
$LIMMAX
 10
210.0
 20
297.0
  9
$ORTHOMODE
 70
     0
  9
$REGENMODE
 70
     1
  9
$FILLMODE
 70
     1
  9
$QTEXTMODE
 70
     0
  9
$MIRRTEXT
 70
     1
  9
$DRAGMODE
 70
     2
  9
$LTSCALE
 40
1.0
  9
$OSMODE
 70
    37
  9
$ATTMODE
 70
     1
  9
$TEXTSIZE
 40
2.5
  9
$TRACEWID
 40
1.0
  9
$TEXTSTYLE
  7
STANDARD
  9
$CLAYER
  8
化粧台
  9
$CELTYPE
  6
BYLAYER
  9
$CECOLOR
 62
   256
  9
$CELTSCALE
 40
1.0
  9
$DELOBJ
 70
     1
  9
$DISPSILH
 70
     0
  9
$DIMSCALE
 40
1.0
  9
$DIMASZ
 40
2.5
  9
$DIMEXO
 40
0.625
  9
$DIMDLI
 40
3.75
  9
$DIMRND
 40
0.0
  9
$DIMDLE
 40
0.0
  9
$DIMEXE
 40
1.25
  9
$DIMTP
 40
0.0
  9
$DIMTM
 40
0.0
  9
$DIMTXT
 40
2.5
  9
$DIMCEN
 40
2.5
  9
$DIMTSZ
 40
0.0
  9
$DIMTOL
 70
     0
  9
$DIMLIM
 70
     0
  9
$DIMTIH
 70
     0
  9
$DIMTOH
 70
     0
  9
$DIMSE1
 70
     0
  9
$DIMSE2
 70
     0
  9
$DIMTAD
 70
     1
  9
$DIMZIN
 70
     8
  9
$DIMBLK
  1

  9
$DIMASO
 70
     1
  9
$DIMSHO
 70
     1
  9
$DIMPOST
  1

  9
$DIMAPOST
  1

  9
$DIMALT
 70
     0
  9
$DIMALTD
 70
     3
  9
$DIMALTF
 40
0.03937007874016
  9
$DIMLFAC
 40
1.0
  9
$DIMTOFL
 70
     1
  9
$DIMTVP
 40
0.0
  9
$DIMTIX
 70
     0
  9
$DIMSOXD
 70
     0
  9
$DIMSAH
 70
     0
  9
$DIMBLK1
  1

  9
$DIMBLK2
  1

  9
$DIMSTYLE
  2
ISO-25
  9
$DIMCLRD
 70
     0
  9
$DIMCLRE
 70
     0
  9
$DIMCLRT
 70
     0
  9
$DIMTFAC
 40
1.0
  9
$DIMGAP
 40
0.625
  9
$DIMJUST
 70
     0
  9
$DIMSD1
 70
     0
  9
$DIMSD2
 70
     0
  9
$DIMTOLJ
 70
     0
  9
$DIMTZIN
 70
     8
  9
$DIMALTZ
 70
     0
  9
$DIMALTTZ
 70
     0
  9
$DIMFIT
 70
     3
  9
$DIMUPT
 70
     0
  9
$DIMUNIT
 70
     2
  9
$DIMDEC
 70
     2
  9
$DIMTDEC
 70
     2
  9
$DIMALTU
 70
     2
  9
$DIMALTTD
 70
     3
  9
$DIMTXSTY
  7
STANDARD
  9
$DIMAUNIT
 70
     0
  9
$LUNITS
 70
     2
  9
$LUPREC
 70
     4
  9
$SKETCHINC
 40
1.0
  9
$FILLETRAD
 40
10.0
  9
$AUNITS
 70
     0
  9
$AUPREC
 70
     0
  9
$MENU
  1
.
  9
$ELEVATION
 40
0.0
  9
$PELEVATION
 40
0.0
  9
$THICKNESS
 40
0.0
  9
$LIMCHECK
 70
     0
  9
$CHAMFERA
 40
10.0
  9
$CHAMFERB
 40
10.0
  9
$CHAMFERC
 40
20.0
  9
$CHAMFERD
 40
0.0
  9
$SKPOLY
 70
     0
  9
$TDCREATE
 40
2457661.42973059
  9
$TDUPDATE
 40
2457661.429730822
  9
$TDINDWG
 40
0.0000000116
  9
$TDUSRTIMER
 40
0.0000000116
  9
$USRTIMER
 70
     1
  9
$ANGBASE
 50
0.0
  9
$ANGDIR
 70
     0
  9
$PDMODE
 70
     0
  9
$PDSIZE
 40
0.0
  9
$PLINEWID
 40
0.0
  9
$COORDS
 70
     1
  9
$SPLFRAME
 70
     0
  9
$SPLINETYPE
 70
     6
  9
$SPLINESEGS
 70
     8
  9
$ATTDIA
 70
     0
  9
$ATTREQ
 70
     1
  9
$HANDLING
 70
     1
  9
$HANDSEED
  5
63D
  9
$SURFTAB1
 70
     6
  9
$SURFTAB2
 70
     6
  9
$SURFTYPE
 70
     6
  9
$SURFU
 70
     6
  9
$SURFV
 70
     6
  9
$UCSNAME
  2

  9
$UCSORG
 10
0.0
 20
0.0
 30
0.0
  9
$UCSXDIR
 10
1.0
 20
0.0
 30
0.0
  9
$UCSYDIR
 10
0.0
 20
1.0
 30
0.0
  9
$PUCSNAME
  2

  9
$PUCSORG
 10
0.0
 20
0.0
 30
0.0
  9
$PUCSXDIR
 10
1.0
 20
0.0
 30
0.0
  9
$PUCSYDIR
 10
0.0
 20
1.0
 30
0.0
  9
$USERI1
 70
     0
  9
$USERI2
 70
     0
  9
$USERI3
 70
     0
  9
$USERI4
 70
     0
  9
$USERI5
 70
     0
  9
$USERR1
 40
0.0
  9
$USERR2
 40
0.0
  9
$USERR3
 40
0.0
  9
$USERR4
 40
0.0
  9
$USERR5
 40
0.0
  9
$WORLDVIEW
 70
     1
  9
$SHADEDGE
 70
     3
  9
$SHADEDIF
 70
    70
  9
$TILEMODE
 70
     1
  9
$MAXACTVP
 70
    64
  9
$PINSBASE
 10
0.0
 20
0.0
 30
0.0
  9
$PLIMCHECK
 70
     0
  9
$PEXTMIN
 10
1.000000000000000E+20
 20
1.000000000000000E+20
 30
1.000000000000000E+20
  9
$PEXTMAX
 10
-1.000000000000000E+20
 20
-1.000000000000000E+20
 30
-1.000000000000000E+20
  9
$PLIMMIN
 10
0.0
 20
0.0
  9
$PLIMMAX
 10
420.0
 20
297.0
  9
$UNITMODE
 70
     0
  9
$VISRETAIN
 70
     1
  9
$PLINEGEN
 70
     0
  9
$PSLTSCALE
 70
     1
  9
$TREEDEPTH
 70
  3020
  9
$PICKSTYLE
 70
     1
  9
$CMLSTYLE
  2
STANDARD
  9
$CMLJUST
 70
     0
  9
$CMLSCALE
 40
20.0
  9
$PROXYGRAPHICS
 70
     1
  9
$MEASUREMENT
 70
     1
  0
ENDSEC
  0
SECTION
  2
CLASSES
  0
CLASS
  1
ACDBDICTIONARYWDFLT
  2
AcDbDictionaryWithDefault
  3
ObjectDBX Classes
 90
        0
280
     0
281
     0
  0
CLASS
  1
VISUALSTYLE
  2
AcDbVisualStyle
  3
ObjectDBX Classes
 90
     4095
280
     0
281
     0
  0
CLASS
  1
MATERIAL
  2
AcDbMaterial
  3
ObjectDBX Classes
 90
     1153
280
     0
281
     0
  0
CLASS
  1
SUN
  2
AcDbSun
  3
SCENEOE
 90
     1024
280
     0
281
     0
  0
CLASS
  1
DICTIONARYVAR
  2
AcDbDictionaryVar
  3
ObjectDBX Classes
 90
        0
280
     0
281
     0
  0
CLASS
  1
XRECORD
  2
AcDbXrecord
  3
AutoCAD 2000
 90
        0
280
     0
281
     0
  0
CLASS
  1
LWPOLYLINE
  2
AcDbPolyline
  3
AutoCAD 2000
 90
        0
280
     0
281
     1
  0
CLASS
  1
HATCH
  2
AcDbHatch
  3
AutoCAD 2000
 90
        0
280
     0
281
     1
  0
CLASS
  1
ACDBPLACEHOLDER
  2
AcDbPlaceHolder
  3
ObjectDBX Classes
 90
        0
280
     0
281
     0
  0
CLASS
  1
LAYOUT
  2
AcDbLayout
  3
ObjectDBX Classes
 90
        0
280
     0
281
     0
  0
ENDSEC
  0
SECTION
  2
TABLES
  0
TABLE
  2
VPORT
  5
8
330
0
100
AcDbSymbolTable
 70
     1
  0
VPORT
  5
29
330
8
100
AcDbSymbolTableRecord
100
AcDbViewportTableRecord
  2
*ACTIVE
 70
     0
 10
0.0
 20
0.0
 11
1.0
 21
1.0
 12
1505.250000000001
 22
2250.0
 13
0.0
 23
0.0
 14
10.0
 24
10.0
 15
10.0
 25
10.0
 16
0.0
 26
0.0
 36
1.0
 17
0.0
 27
0.0
 37
0.0
 40
4125.0
 41
0.7247272727272729
 42
50.0
 43
0.0
 44
0.0
 50
0.0
 51
0.0
 71
     0
 72
  1000
 73
     1
 74
     3
 75
     0
 76
     0
 77
     0
 78
     0
  0
ENDTAB
  0
TABLE
  2
LTYPE
  5
5
330
0
100
AcDbSymbolTable
 70
     7
  0
LTYPE
  5
14
330
5
100
AcDbSymbolTableRecord
100
AcDbLinetypeTableRecord
  2
BYBLOCK
 70
     0
  3

 72
    65
 73
     0
 40
0.0
  0
LTYPE
  5
15
330
5
100
AcDbSymbolTableRecord
100
AcDbLinetypeTableRecord
  2
BYLAYER
 70
     0
  3

 72
    65
 73
     0
 40
0.0
  0
LTYPE
  5
16
330
5
100
AcDbSymbolTableRecord
100
AcDbLinetypeTableRecord
  2
CONTINUOUS
 70
     0
  3
Solid line
 72
    65
 73
     0
 40
0.0
  0
LTYPE
  5
40
330
5
100
AcDbSymbolTableRecord
100
AcDbLinetypeTableRecord
  2
EXLTYPE1
 70
     0
  3
破線
 72
    65
 73
     2
 40
3.0
 49
2.0
 74
     0
 49
-1.0
 74
     0
  0
LTYPE
  5
41
330
5
100
AcDbSymbolTableRecord
100
AcDbLinetypeTableRecord
  2
EXLTYPE2
 70
     0
  3
点線
 72
    65
 73
     2
 40
2.0
 49
1.0
 74
     0
 49
-1.0
 74
     0
  0
LTYPE
  5
42
330
5
100
AcDbSymbolTableRecord
100
AcDbLinetypeTableRecord
  2
EXLTYPE3
 70
     0
  3
一点鎖線
 72
    65
 73
     4
 40
10.0
 49
7.0
 74
     0
 49
-1.0
 74
     0
 49
1.0
 74
     0
 49
-1.0
 74
     0
  0
LTYPE
  5
43
330
5
100
AcDbSymbolTableRecord
100
AcDbLinetypeTableRecord
  2
EXLTYPE4
 70
     0
  3
二点鎖線
 72
    65
 73
     6
 40
12.0
 49
7.0
 74
     0
 49
-1.0
 74
     0
 49
1.0
 74
     0
 49
-1.0
 74
     0
 49
1.0
 74
     0
 49
-1.0
 74
     0
  0
LTYPE
  5
44
330
5
100
AcDbSymbolTableRecord
100
AcDbLinetypeTableRecord
  2
EXLTYPE5
 70
     0
  3
三点鎖線
 72
    65
 73
     8
 40
37.0
 49
30.0
 74
     0
 49
-1.0
 74
     0
 49
1.0
 74
     0
 49
-1.0
 74
     0
 49
1.0
 74
     0
 49
-1.0
 74
     0
 49
1.0
 74
     0
 49
-1.0
 74
     0
  0
LTYPE
  5
45
330
5
100
AcDbSymbolTableRecord
100
AcDbLinetypeTableRecord
  2
EXLTYPE6
 70
     0
  3
四点鎖線
 72
    65
 73
    10
 40
39.0
 49
30.0
 74
     0
 49
-1.0
 74
     0
 49
1.0
 74
     0
 49
-1.0
 74
     0
 49
1.0
 74
     0
 49
-1.0
 74
     0
 49
1.0
 74
     0
 49
-1.0
 74
     0
 49
1.0
 74
     0
 49
-1.0
 74
     0
  0
ENDTAB
  0
TABLE
  2
LAYER
  5
2
330
0
100
AcDbSymbolTable
 70
     7
  0
LAYER
  5
10
330
2
100
AcDbSymbolTableRecord
100
AcDbLayerTableRecord
  2
0
 70
     0
 62
     7
  6
CONTINUOUS
  0
LAYER
  5
48
330
2
100
AcDbSymbolTableRecord
100
AcDbLayerTableRecord
  2
枠_表
 70
     0
 62
     7
  6
CONTINUOUS
  0
LAYER
  5
49
330
2
100
AcDbSymbolTableRecord
100
AcDbLayerTableRecord
  2
化粧台
 70
     0
 62
     7
  6
CONTINUOUS
  0
LAYER
  5
4A
330
2
100
AcDbSymbolTableRecord
100
AcDbLayerTableRecord
  2
鏡台
 70
     0
 62
     7
  6
CONTINUOUS
  0
LAYER
  5
4B
330
2
100
AcDbSymbolTableRecord
100
AcDbLayerTableRecord
  2
付属金具
 70
     0
 62
     7
  6
CONTINUOUS
  0
LAYER
  5
4C
330
2
100
AcDbSymbolTableRecord
100
AcDbLayerTableRecord
  2
寸法
 70
     0
 62
     7
  6
CONTINUOUS
  0
LAYER
  5
4CE
330
2
100
AcDbSymbolTableRecord
100
AcDbLayerTableRecord
  2
DEFPOINTS
 70
     0
 62
     7
  6
CONTINUOUS
  0
ENDTAB
  0
TABLE
  2
STYLE
  5
3
330
0
100
AcDbSymbolTable
 70
     5
  0
STYLE
  5
11
330
3
100
AcDbSymbolTableRecord
100
AcDbTextStyleTableRecord
  2
STANDARD
 70
     0
 40
0.0
 41
1.0
 50
0.0
 71
     0
 42
2.5
  3
monotxt
  4
extfont
  0
STYLE
  5
46
330
3
100
AcDbSymbolTableRecord
100
AcDbTextStyleTableRecord
  2
EXCADSTD
 70
     0
 40
0.0
 41
1.0
 50
0.0
 71
     0
 42
0.2
  3
monotxt
  4
extfont
  0
STYLE
  5
47
330
3
100
AcDbSymbolTableRecord
100
AcDbTextStyleTableRecord
  2
EXCADVERT
 70
     4
 40
0.0
 41
1.0
 50
0.0
 71
     0
 42
0.286885
  3
monotxt
  4
extfont
  0
STYLE
  5
D2
330
3
100
AcDbSymbolTableRecord
100
AcDbTextStyleTableRecord
  2
EXCADTTF1
 70
     0
 40
0.0
 41
1.0
 50
0.0
 71
     0
 42
0.2
  3
MSGOTHIC.TTC
  4

1001
ACAD
1000
MS Gothic
1071
    32817
  0
STYLE
  5
4CC
330
3
100
AcDbSymbolTableRecord
100
AcDbTextStyleTableRecord
  2
EXCADDIM1
 70
     0
 40
0.0
 41
0.84
 50
0.0
 71
     0
 42
0.2
  3
monotxt
  4
extfont
  0
ENDTAB
  0
TABLE
  2
VIEW
  5
6
330
0
100
AcDbSymbolTable
 70
     0
  0
ENDTAB
  0
TABLE
  2
UCS
  5
7
330
0
100
AcDbSymbolTable
 70
     0
  0
ENDTAB
  0
TABLE
  2
APPID
  5
9
330
0
100
AcDbSymbolTable
 70
     1
  0
APPID
  5
12
330
9
100
AcDbSymbolTableRecord
100
AcDbRegAppTableRecord
  2
ACAD
 70
     0
  0
ENDTAB
  0
TABLE
  2
DIMSTYLE
  5
A
330
0
100
AcDbSymbolTable
 70
     1
  0
DIMSTYLE
105
27
102
{ACAD_REACTORS
330
4CD
330
4DB
330
4E8
330
4F7
330
52E
330
53B
330
548
330
593
330
5A0
330
5AD
330
5C2
330
5CE
330
5DA
330
5EA
330
5F6
330
604
102
}
330
A
100
AcDbSymbolTableRecord
100
AcDbDimStyleTableRecord
  2
ISO-25
 70
     0
  3

  4

  5

  6

  7

 40
1.0
 41
2.5
 42
0.625
 43
3.75
 44
1.25
 45
0.0
 46
0.0
 47
0.0
 48
0.0
140
2.5
141
2.5
142
0.0
143
0.03937007874016
144
1.0
145
0.0
146
1.0
147
0.625
 71
     0
 72
     0
 73
     0
 74
     0
 75
     0
 76
     0
 77
     1
 78
     8
170
     0
171
     3
172
     1
173
     0
174
     0
175
     0
176
     0
177
     0
178
     0
270
     2
271
     2
272
     2
273
     2
274
     3
340
11
275
     0
280
     0
281
     0
282
     0
283
     0
284
     8
285
     0
286
     0
287
     5
288
     0
  0
ENDTAB
  0
TABLE
  2
BLOCK_RECORD
  5
1
330
0
100
AcDbSymbolTable
 70
    31
  0
BLOCK_RECORD
  5
1F
330
1
100
AcDbSymbolTableRecord
100
AcDbBlockTableRecord
  2
*MODEL_SPACE
  0
BLOCK_RECORD
  5
1B
330
1
100
AcDbSymbolTableRecord
100
AcDbBlockTableRecord
  2
*PAPER_SPACE
  0
BLOCK_RECORD
  5
4D
330
1
100
AcDbSymbolTableRecord
100
AcDbBlockTableRecord
  2
EX_NORM
  0
BLOCK_RECORD
  5
50
330
1
100
AcDbSymbolTableRecord
100
AcDbBlockTableRecord
  2
EX_BNORM
  0
BLOCK_RECORD
  5
53
330
1
100
AcDbSymbolTableRecord
100
AcDbBlockTableRecord
  2
EX_BCIR
  0
BLOCK_RECORD
  5
56
330
1
100
AcDbSymbolTableRecord
100
AcDbBlockTableRecord
  2
EX_RCIVIL
  0
BLOCK_RECORD
  5
59
330
1
100
AcDbSymbolTableRecord
100
AcDbBlockTableRecord
  2
EX_SLANT
  0
BLOCK_RECORD
  5
5C
330
1
100
AcDbSymbolTableRecord
100
AcDbBlockTableRecord
  2
EX_NONE
  0
BLOCK_RECORD
  5
5F
330
1
100
AcDbSymbolTableRecord
100
AcDbBlockTableRecord
  2
EX_CIVIL
  0
BLOCK_RECORD
  5
62
330
1
100
AcDbSymbolTableRecord
100
AcDbBlockTableRecord
  2
EX_WCIR
  0
BLOCK_RECORD
  5
65
330
1
100
AcDbSymbolTableRecord
100
AcDbBlockTableRecord
  2
EX_WCIR2
  0
BLOCK_RECORD
  5
68
330
1
100
AcDbSymbolTableRecord
100
AcDbBlockTableRecord
  2
EX_WNORM
  0
BLOCK_RECORD
  5
6B
330
1
100
AcDbSymbolTableRecord
100
AcDbBlockTableRecord
  2
EX_NNORM
  0
BLOCK_RECORD
  5
6E
330
1
100
AcDbSymbolTableRecord
100
AcDbBlockTableRecord
  2
EX_BBOX
  0
BLOCK_RECORD
  5
71
330
1
100
AcDbSymbolTableRecord
100
AcDbBlockTableRecord
  2
EX_WBOX
  0
BLOCK_RECORD
  5
74
330
1
100
AcDbSymbolTableRecord
100
AcDbBlockTableRecord
  2
EX_INTEGRAL
  0
BLOCK_RECORD
  5
4CF
330
1
100
AcDbSymbolTableRecord
100
AcDbBlockTableRecord
  2
*D15
  0
BLOCK_RECORD
  5
4DC
330
1
100
AcDbSymbolTableRecord
100
AcDbBlockTableRecord
  2
*D16
  0
BLOCK_RECORD
  5
4E9
330
1
100
AcDbSymbolTableRecord
100
AcDbBlockTableRecord
  2
*D17
  0
BLOCK_RECORD
  5
4F8
330
1
100
AcDbSymbolTableRecord
100
AcDbBlockTableRecord
  2
*D18
  0
BLOCK_RECORD
  5
52F
330
1
100
AcDbSymbolTableRecord
100
AcDbBlockTableRecord
  2
*D19
  0
BLOCK_RECORD
  5
53C
330
1
100
AcDbSymbolTableRecord
100
AcDbBlockTableRecord
  2
*D20
  0
BLOCK_RECORD
  5
549
330
1
100
AcDbSymbolTableRecord
100
AcDbBlockTableRecord
  2
*D21
  0
BLOCK_RECORD
  5
594
330
1
100
AcDbSymbolTableRecord
100
AcDbBlockTableRecord
  2
*D22
  0
BLOCK_RECORD
  5
5A1
330
1
100
AcDbSymbolTableRecord
100
AcDbBlockTableRecord
  2
*D23
  0
BLOCK_RECORD
  5
5AE
330
1
100
AcDbSymbolTableRecord
100
AcDbBlockTableRecord
  2
*D24
  0
BLOCK_RECORD
  5
5C3
330
1
100
AcDbSymbolTableRecord
100
AcDbBlockTableRecord
  2
*D25
  0
BLOCK_RECORD
  5
5CF
330
1
100
AcDbSymbolTableRecord
100
AcDbBlockTableRecord
  2
*D26
  0
BLOCK_RECORD
  5
5DB
330
1
100
AcDbSymbolTableRecord
100
AcDbBlockTableRecord
  2
*D27
  0
BLOCK_RECORD
  5
5EB
330
1
100
AcDbSymbolTableRecord
100
AcDbBlockTableRecord
  2
*D28
  0
BLOCK_RECORD
  5
5F7
330
1
100
AcDbSymbolTableRecord
100
AcDbBlockTableRecord
  2
*D29
  0
BLOCK_RECORD
  5
605
330
1
100
AcDbSymbolTableRecord
100
AcDbBlockTableRecord
  2
*D30
  0
ENDTAB
  0
ENDSEC
  0
SECTION
  2
BLOCKS
  0
BLOCK
  5
20
330
1F
100
AcDbEntity
  8
0
100
AcDbBlockBegin
  2
*MODEL_SPACE
 70
     0
 10
0.0
 20
0.0
 30
0.0
  3
*MODEL_SPACE
  1

  0
ENDBLK
  5
21
330
1F
100
AcDbEntity
  8
0
100
AcDbBlockEnd
  0
BLOCK
  5
1C
330
1B
100
AcDbEntity
 67
     1
  8
0
100
AcDbBlockBegin
  2
*PAPER_SPACE
 70
     0
 10
0.0
 20
0.0
 30
0.0
  3
*PAPER_SPACE
  1

  0
ENDBLK
  5
1D
330
1B
100
AcDbEntity
 67
     1
  8
0
100
AcDbBlockEnd
  0
BLOCK
  5
4E
330
4D
100
AcDbEntity
  8
0
100
AcDbBlockBegin
  2
EX_NORM
 70
     0
 10
0.0
 20
0.0
 30
0.0
  3
EX_NORM
  1

  0
LINE
  5
77
330
4D
100
AcDbEntity
  8
0
  6
CONTINUOUS
 62
     0
100
AcDbLine
 10
0.0
 20
0.0
 30
0.0
 11
-1.0
 21
0.0
 31
0.0
  0
LINE
  5
78
330
4D
100
AcDbEntity
  8
0
  6
CONTINUOUS
 62
     0
100
AcDbLine
 10
0.0
 20
0.0
 30
0.0
 11
-1.0
 21
0.166666667
 31
0.0
  0
LINE
  5
79
330
4D
100
AcDbEntity
  8
0
  6
CONTINUOUS
 62
     0
100
AcDbLine
 10
0.0
 20
0.0
 30
0.0
 11
-1.0
 21
-0.166666667
 31
0.0
  0
ENDBLK
  5
4F
330
4D
100
AcDbEntity
  8
0
100
AcDbBlockEnd
  0
BLOCK
  5
51
330
50
100
AcDbEntity
  8
0
100
AcDbBlockBegin
  2
EX_BNORM
 70
     0
 10
0.0
 20
0.0
 30
0.0
  3
EX_BNORM
  1

  0
LINE
  5
7A
330
50
100
AcDbEntity
  8
0
  6
CONTINUOUS
 62
     0
100
AcDbLine
 10
0.0
 20
0.0
 30
0.0
 11
-1.0
 21
0.0
 31
0.0
  0
LINE
  5
7B
330
50
100
AcDbEntity
  8
0
  6
CONTINUOUS
 62
     0
100
AcDbLine
 10
0.0
 20
0.0
 30
0.0
 11
-1.0
 21
0.166666667
 31
0.0
  0
LINE
  5
7C
330
50
100
AcDbEntity
  8
0
  6
CONTINUOUS
 62
     0
100
AcDbLine
 10
0.0
 20
0.0
 30
0.0
 11
-1.0
 21
-0.166666667
 31
0.0
  0
LINE
  5
7D
330
50
100
AcDbEntity
  8
0
  6
CONTINUOUS
 62
     0
100
AcDbLine
 10
0.0
 20
0.0
 30
0.0
 11
-1.0
 21
0.083333333
 31
0.0
  0
LINE
  5
7E
330
50
100
AcDbEntity
  8
0
  6
CONTINUOUS
 62
     0
100
AcDbLine
 10
0.0
 20
0.0
 30
0.0
 11
-1.0
 21
-0.083333333
 31
0.0
  0
LINE
  5
7F
330
50
100
AcDbEntity
  8
0
  6
CONTINUOUS
 62
     0
100
AcDbLine
 10
-1.0
 20
0.166666667
 30
0.0
 11
-1.0
 21
-0.166666667
 31
0.0
  0
ENDBLK
  5
52
330
50
100
AcDbEntity
  8
0
100
AcDbBlockEnd
  0
BLOCK
  5
54
330
53
100
AcDbEntity
  8
0
100
AcDbBlockBegin
  2
EX_BCIR
 70
     0
 10
0.0
 20
0.0
 30
0.0
  3
EX_BCIR
  1

  0
LINE
  5
80
330
53
100
AcDbEntity
  8
0
  6
CONTINUOUS
 62
     0
100
AcDbLine
 10
0.0
 20
0.0
 30
0.0
 11
-1.0
 21
0.0
 31
0.0
  0
CIRCLE
  5
81
330
53
100
AcDbEntity
  8
0
  6
CONTINUOUS
 62
     0
100
AcDbCircle
 10
0.0
 20
0.0
 30
0.0
 40
0.5
  0
CIRCLE
  5
82
330
53
100
AcDbEntity
  8
0
  6
CONTINUOUS
 62
     0
100
AcDbCircle
 10
0.0
 20
0.0
 30
0.0
 40
0.25
  0
ENDBLK
  5
55
330
53
100
AcDbEntity
  8
0
100
AcDbBlockEnd
  0
BLOCK
  5
57
330
56
100
AcDbEntity
  8
0
100
AcDbBlockBegin
  2
EX_RCIVIL
 70
     0
 10
0.0
 20
0.0
 30
0.0
  3
EX_RCIVIL
  1

  0
LINE
  5
83
330
56
100
AcDbEntity
  8
0
  6
CONTINUOUS
 62
     0
100
AcDbLine
 10
0.0
 20
0.0
 30
0.0
 11
-1.0
 21
0.0
 31
0.0
  0
LINE
  5
84
330
56
100
AcDbEntity
  8
0
  6
CONTINUOUS
 62
     0
100
AcDbLine
 10
-1.0
 20
-0.25
 30
0.0
 11
0.0
 21
-0.25
 31
0.0
  0
LINE
  5
85
330
56
100
AcDbEntity
  8
0
  6
CONTINUOUS
 62
     0
100
AcDbLine
 10
-1.0
 20
-0.125
 30
0.0
 11
0.0
 21
-0.125
 31
0.0
  0
ENDBLK
  5
58
330
56
100
AcDbEntity
  8
0
100
AcDbBlockEnd
  0
BLOCK
  5
5A
330
59
100
AcDbEntity
  8
0
100
AcDbBlockBegin
  2
EX_SLANT
 70
     0
 10
0.0
 20
0.0
 30
0.0
  3
EX_SLANT
  1

  0
LINE
  5
86
330
59
100
AcDbEntity
  8
0
  6
CONTINUOUS
 62
     0
100
AcDbLine
 10
0.0
 20
0.0
 30
0.0
 11
-1.0
 21
0.0
 31
0.0
  0
LINE
  5
87
330
59
100
AcDbEntity
  8
0
  6
CONTINUOUS
 62
     0
100
AcDbLine
 10
0.707106781
 20
0.707106781
 30
0.0
 11
-0.707106781
 21
-0.707106781
 31
0.0
  0
ENDBLK
  5
5B
330
59
100
AcDbEntity
  8
0
100
AcDbBlockEnd
  0
BLOCK
  5
5D
330
5C
100
AcDbEntity
  8
0
100
AcDbBlockBegin
  2
EX_NONE
 70
     0
 10
0.0
 20
0.0
 30
0.0
  3
EX_NONE
  1

  0
LINE
  5
88
330
5C
100
AcDbEntity
  8
0
  6
CONTINUOUS
 62
     0
100
AcDbLine
 10
0.0
 20
0.0
 30
0.0
 11
-1.0
 21
0.0
 31
0.0
  0
ENDBLK
  5
5E
330
5C
100
AcDbEntity
  8
0
100
AcDbBlockEnd
  0
BLOCK
  5
60
330
5F
100
AcDbEntity
  8
0
100
AcDbBlockBegin
  2
EX_CIVIL
 70
     0
 10
0.0
 20
0.0
 30
0.0
  3
EX_CIVIL
  1

  0
LINE
  5
89
330
5F
100
AcDbEntity
  8
0
  6
CONTINUOUS
 62
     0
100
AcDbLine
 10
0.0
 20
0.0
 30
0.0
 11
-1.0
 21
0.0
 31
0.0
  0
LINE
  5
8A
330
5F
100
AcDbEntity
  8
0
  6
CONTINUOUS
 62
     0
100
AcDbLine
 10
-1.0
 20
0.25
 30
0.0
 11
0.0
 21
0.25
 31
0.0
  0
LINE
  5
8B
330
5F
100
AcDbEntity
  8
0
  6
CONTINUOUS
 62
     0
100
AcDbLine
 10
-1.0
 20
0.125
 30
0.0
 11
0.0
 21
0.125
 31
0.0
  0
ENDBLK
  5
61
330
5F
100
AcDbEntity
  8
0
100
AcDbBlockEnd
  0
BLOCK
  5
63
330
62
100
AcDbEntity
  8
0
100
AcDbBlockBegin
  2
EX_WCIR
 70
     0
 10
0.0
 20
0.0
 30
0.0
  3
EX_WCIR
  1

  0
LINE
  5
8C
330
62
100
AcDbEntity
  8
0
  6
CONTINUOUS
 62
     0
100
AcDbLine
 10
0.0
 20
0.0
 30
0.0
 11
-1.0
 21
0.0
 31
0.0
  0
CIRCLE
  5
8D
330
62
100
AcDbEntity
  8
0
  6
CONTINUOUS
 62
     0
100
AcDbCircle
 10
0.0
 20
0.0
 30
0.0
 40
0.5
  0
ENDBLK
  5
64
330
62
100
AcDbEntity
  8
0
100
AcDbBlockEnd
  0
BLOCK
  5
66
330
65
100
AcDbEntity
  8
0
100
AcDbBlockBegin
  2
EX_WCIR2
 70
     0
 10
0.0
 20
0.0
 30
0.0
  3
EX_WCIR2
  1

  0
LINE
  5
8E
330
65
100
AcDbEntity
  8
0
  6
CONTINUOUS
 62
     0
100
AcDbLine
 10
-0.5
 20
0.0
 30
0.0
 11
-1.0
 21
0.0
 31
0.0
  0
CIRCLE
  5
8F
330
65
100
AcDbEntity
  8
0
  6
CONTINUOUS
 62
     0
100
AcDbCircle
 10
0.0
 20
0.0
 30
0.0
 40
0.5
  0
ENDBLK
  5
67
330
65
100
AcDbEntity
  8
0
100
AcDbBlockEnd
  0
BLOCK
  5
69
330
68
100
AcDbEntity
  8
0
100
AcDbBlockBegin
  2
EX_WNORM
 70
     0
 10
0.0
 20
0.0
 30
0.0
  3
EX_WNORM
  1

  0
LINE
  5
90
330
68
100
AcDbEntity
  8
0
  6
CONTINUOUS
 62
     0
100
AcDbLine
 10
-1.0
 20
0.0
 30
0.0
 11
-1.0
 21
0.0
 31
0.0
  0
LINE
  5
91
330
68
100
AcDbEntity
  8
0
  6
CONTINUOUS
 62
     0
100
AcDbLine
 10
0.0
 20
0.0
 30
0.0
 11
-1.0
 21
0.166666667
 31
0.0
  0
LINE
  5
92
330
68
100
AcDbEntity
  8
0
  6
CONTINUOUS
 62
     0
100
AcDbLine
 10
0.0
 20
0.0
 30
0.0
 11
-1.0
 21
-0.166666667
 31
0.0
  0
LINE
  5
93
330
68
100
AcDbEntity
  8
0
  6
CONTINUOUS
 62
     0
100
AcDbLine
 10
-1.0
 20
0.166666667
 30
0.0
 11
-1.0
 21
-0.166666667
 31
0.0
  0
ENDBLK
  5
6A
330
68
100
AcDbEntity
  8
0
100
AcDbBlockEnd
  0
BLOCK
  5
6C
330
6B
100
AcDbEntity
  8
0
100
AcDbBlockBegin
  2
EX_NNORM
 70
     0
 10
0.0
 20
0.0
 30
0.0
  3
EX_NNORM
  1

  0
LINE
  5
94
330
6B
100
AcDbEntity
  8
0
  6
CONTINUOUS
 62
     0
100
AcDbLine
 10
0.0
 20
0.0
 30
0.0
 11
-1.0
 21
0.0
 31
0.0
  0
LINE
  5
95
330
6B
100
AcDbEntity
  8
0
  6
CONTINUOUS
 62
     0
100
AcDbLine
 10
0.0
 20
0.0
 30
0.0
 11
-1.0
 21
0.166666667
 31
0.0
  0
LINE
  5
96
330
6B
100
AcDbEntity
  8
0
  6
CONTINUOUS
 62
     0
100
AcDbLine
 10
0.0
 20
0.0
 30
0.0
 11
-1.0
 21
-0.166666667
 31
0.0
  0
LINE
  5
97
330
6B
100
AcDbEntity
  8
0
  6
CONTINUOUS
 62
     0
100
AcDbLine
 10
-1.0
 20
0.166666667
 30
0.0
 11
-1.0
 21
-0.166666667
 31
0.0
  0
ENDBLK
  5
6D
330
6B
100
AcDbEntity
  8
0
100
AcDbBlockEnd
  0
BLOCK
  5
6F
330
6E
100
AcDbEntity
  8
0
100
AcDbBlockBegin
  2
EX_BBOX
 70
     0
 10
0.0
 20
0.0
 30
0.0
  3
EX_BBOX
  1

  0
LINE
  5
98
330
6E
100
AcDbEntity
  8
0
  6
CONTINUOUS
 62
     0
100
AcDbLine
 10
0.0
 20
0.0
 30
0.0
 11
-1.0
 21
0.0
 31
0.0
  0
LINE
  5
99
330
6E
100
AcDbEntity
  8
0
  6
CONTINUOUS
 62
     0
100
AcDbLine
 10
-0.5
 20
0.5
 30
0.0
 11
0.5
 21
0.5
 31
0.0
  0
LINE
  5
9A
330
6E
100
AcDbEntity
  8
0
  6
CONTINUOUS
 62
     0
100
AcDbLine
 10
0.5
 20
0.5
 30
0.0
 11
0.5
 21
-0.5
 31
0.0
  0
LINE
  5
9B
330
6E
100
AcDbEntity
  8
0
  6
CONTINUOUS
 62
     0
100
AcDbLine
 10
0.5
 20
-0.5
 30
0.0
 11
-0.5
 21
-0.5
 31
0.0
  0
LINE
  5
9C
330
6E
100
AcDbEntity
  8
0
  6
CONTINUOUS
 62
     0
100
AcDbLine
 10
-0.5
 20
-0.5
 30
0.0
 11
-0.5
 21
0.5
 31
0.0
  0
LINE
  5
9D
330
6E
100
AcDbEntity
  8
0
  6
CONTINUOUS
 62
     0
100
AcDbLine
 10
-0.25
 20
0.25
 30
0.0
 11
0.25
 21
0.25
 31
0.0
  0
LINE
  5
9E
330
6E
100
AcDbEntity
  8
0
  6
CONTINUOUS
 62
     0
100
AcDbLine
 10
0.25
 20
0.25
 30
0.0
 11
0.25
 21
-0.25
 31
0.0
  0
LINE
  5
9F
330
6E
100
AcDbEntity
  8
0
  6
CONTINUOUS
 62
     0
100
AcDbLine
 10
0.25
 20
-0.25
 30
0.0
 11
-0.25
 21
-0.25
 31
0.0
  0
LINE
  5
A0
330
6E
100
AcDbEntity
  8
0
  6
CONTINUOUS
 62
     0
100
AcDbLine
 10
-0.25
 20
-0.25
 30
0.0
 11
-0.25
 21
0.25
 31
0.0
  0
ENDBLK
  5
70
330
6E
100
AcDbEntity
  8
0
100
AcDbBlockEnd
  0
BLOCK
  5
72
330
71
100
AcDbEntity
  8
0
100
AcDbBlockBegin
  2
EX_WBOX
 70
     0
 10
0.0
 20
0.0
 30
0.0
  3
EX_WBOX
  1

  0
LINE
  5
A1
330
71
100
AcDbEntity
  8
0
  6
CONTINUOUS
 62
     0
100
AcDbLine
 10
-0.5
 20
0.0
 30
0.0
 11
-1.0
 21
0.0
 31
0.0
  0
LINE
  5
A2
330
71
100
AcDbEntity
  8
0
  6
CONTINUOUS
 62
     0
100
AcDbLine
 10
-0.5
 20
0.5
 30
0.0
 11
0.5
 21
0.5
 31
0.0
  0
LINE
  5
A3
330
71
100
AcDbEntity
  8
0
  6
CONTINUOUS
 62
     0
100
AcDbLine
 10
0.5
 20
0.5
 30
0.0
 11
0.5
 21
-0.5
 31
0.0
  0
LINE
  5
A4
330
71
100
AcDbEntity
  8
0
  6
CONTINUOUS
 62
     0
100
AcDbLine
 10
0.5
 20
-0.5
 30
0.0
 11
-0.5
 21
-0.5
 31
0.0
  0
LINE
  5
A5
330
71
100
AcDbEntity
  8
0
  6
CONTINUOUS
 62
     0
100
AcDbLine
 10
-0.5
 20
-0.5
 30
0.0
 11
-0.5
 21
0.5
 31
0.0
  0
ENDBLK
  5
73
330
71
100
AcDbEntity
  8
0
100
AcDbBlockEnd
  0
BLOCK
  5
75
330
74
100
AcDbEntity
  8
0
100
AcDbBlockBegin
  2
EX_INTEGRAL
 70
     0
 10
0.0
 20
0.0
 30
0.0
  3
EX_INTEGRAL
  1

  0
LINE
  5
A6
330
74
100
AcDbEntity
  8
0
  6
CONTINUOUS
 62
     0
100
AcDbLine
 10
0.0
 20
0.0
 30
0.0
 11
-1.0
 21
0.0
 31
0.0
  0
ARC
  5
A7
330
74
100
AcDbEntity
  8
0
  6
CONTINUOUS
 62
     0
100
AcDbCircle
 10
0.542115
 20
0.164992
 30
0.0
 40
0.56667
100
AcDbArc
 50
73.07249033629006
 51
196.9275130221199
  0
ARC
  5
A8
330
74
100
AcDbEntity
  8
0
  6
CONTINUOUS
 62
     0
100
AcDbCircle
 10
-0.542115
 20
-0.164992
 30
0.0
 40
0.56667
100
AcDbArc
 50
253.0724869220464
 51
16.9275130559125
  0
ENDBLK
  5
76
330
74
100
AcDbEntity
  8
0
100
AcDbBlockEnd
  0
BLOCK
  5
4D0
330
4CF
100
AcDbEntity
  8
0
100
AcDbBlockBegin
  2
*D15
 70
     1
 10
0.0
 20
0.0
 30
0.0
  3
*D15
  1

  0
LINE
  5
4D2
330
4CF
100
AcDbEntity
  8
鏡台
  6
CONTINUOUS
 62
     3
100
AcDbLine
 10
2328.8
 20
2635.499999821186
 30
0.0
 11
2328.8
 21
2700.0
 31
0.0
  0
LINE
  5
4D3
330
4CF
100
AcDbEntity
  8
鏡台
  6
CONTINUOUS
 62
     3
100
AcDbLine
 10
2450.0
 20
2629.299999821186
 30
0.0
 11
2450.0
 21
2700.0
 31
0.0
  0
LINE
  5
4D4
330
4CF
100
AcDbEntity
  8
鏡台
  6
CONTINUOUS
 62
     3
100
AcDbLine
 10
2373.799996185303
 20
2685.0
 30
0.0
 11
2405.000003814697
 21
2685.0
 31
0.0
  0
INSERT
  5
4D5
330
4CF
100
AcDbEntity
  8
鏡台
 62
     3
100
AcDbBlockReference
  2
EX_NORM
 10
2328.8
 20
2685.0
 30
0.0
 41
44.99999618530273
 42
44.99999618530273
 43
44.99999618530273
 50
180.0
  0
INSERT
  5
4D6
330
4CF
100
AcDbEntity
  8
鏡台
 62
     3
100
AcDbBlockReference
  2
EX_NORM
 10
2450.0
 20
2685.0
 30
0.0
 41
44.99999618530273
 42
44.99999618530273
 43
44.99999618530273
  0
MTEXT
  5
4D7
330
4CF
100
AcDbEntity
  8
鏡台
 62
     2
100
AcDbMText
 10
2389.4
 20
2720.249999910593
 30
0.0
 40
59.99999618530273
 41
0.0
 71
     5
 72
     1
  1
122
  7
EXCADDIM1
  0
POINT
  5
4D8
330
4CF
100
AcDbEntity
  8
DEFPOINTS
 62
     0
100
AcDbPoint
 10
2328.8
 20
2625.0
 30
0.0
  0
POINT
  5
4D9
330
4CF
100
AcDbEntity
  8
DEFPOINTS
 62
     0
100
AcDbPoint
 10
2450.0
 20
2618.8
 30
0.0
  0
POINT
  5
4DA
330
4CF
100
AcDbEntity
  8
DEFPOINTS
 62
     0
100
AcDbPoint
 10
2450.0
 20
2685.0
 30
0.0
  0
ENDBLK
  5
4D1
330
4CF
100
AcDbEntity
  8
0
100
AcDbBlockEnd
  0
BLOCK
  5
4DD
330
4DC
100
AcDbEntity
  8
0
100
AcDbBlockBegin
  2
*D16
 70
     1
 10
0.0
 20
0.0
 30
0.0
  3
*D16
  1

  0
LINE
  5
4DF
330
4DC
100
AcDbEntity
  8
鏡台
  6
CONTINUOUS
 62
     3
100
AcDbLine
 10
2493.699999821187
 20
2188.8
 30
0.0
 11
2965.499999999999
 21
2188.8
 31
0.0
  0
LINE
  5
4E0
330
4DC
100
AcDbEntity
  8
鏡台
  6
CONTINUOUS
 62
     3
100
AcDbLine
 10
2493.699999821187
 20
2568.8
 30
0.0
 11
2965.499999999999
 21
2568.8
 31
0.0
  0
LINE
  5
4E1
330
4DC
100
AcDbEntity
  8
鏡台
  6
CONTINUOUS
 62
     3
100
AcDbLine
 10
2950.499999999999
 20
2233.799996185303
 30
0.0
 11
2950.499999999999
 21
2523.800003814697
 31
0.0
  0
INSERT
  5
4E2
330
4DC
100
AcDbEntity
  8
鏡台
 62
     3
100
AcDbBlockReference
  2
EX_NORM
 10
2950.499999999999
 20
2188.8
 30
0.0
 41
44.99999618530273
 42
44.99999618530273
 43
44.99999618530273
 50
270.0
  0
INSERT
  5
4E3
330
4DC
100
AcDbEntity
  8
鏡台
 62
     3
100
AcDbBlockReference
  2
EX_NORM
 10
2950.499999999999
 20
2568.8
 30
0.0
 41
44.99999618530273
 42
44.99999618530273
 43
44.99999618530273
 50
90.0
  0
MTEXT
  5
4E4
330
4DC
100
AcDbEntity
  8
鏡台
 62
     2
100
AcDbMText
 10
2915.250000089407
 20
2378.799999999995
 30
0.0
 40
59.99999618530273
 41
0.0
 71
     5
 72
     1
  1
380（壁固定）
  7
EXCADDIM1
 11
0.0
 21
1.0
 31
0.0
  0
POINT
  5
4E5
330
4DC
100
AcDbEntity
  8
DEFPOINTS
 62
     0
100
AcDbPoint
 10
2483.200000000001
 20
2188.8
 30
0.0
  0
POINT
  5
4E6
330
4DC
100
AcDbEntity
  8
DEFPOINTS
 62
     0
100
AcDbPoint
 10
2483.200000000001
 20
2568.8
 30
0.0
  0
POINT
  5
4E7
330
4DC
100
AcDbEntity
  8
DEFPOINTS
 62
     0
100
AcDbPoint
 10
2950.499999999999
 20
2568.8
 30
0.0
  0
ENDBLK
  5
4DE
330
4DC
100
AcDbEntity
  8
0
100
AcDbBlockEnd
  0
BLOCK
  5
4EA
330
4E9
100
AcDbEntity
  8
0
100
AcDbBlockBegin
  2
*D17
 70
     1
 10
0.0
 20
0.0
 30
0.0
  3
*D17
  1

  0
LINE
  5
4EC
330
4E9
100
AcDbEntity
  8
鏡台
  6
CONTINUOUS
 62
     3
100
AcDbLine
 10
2493.699999821187
 20
2568.8
 30
0.0
 11
2965.499999999999
 21
2568.8
 31
0.0
  0
LINE
  5
4ED
330
4E9
100
AcDbEntity
  8
鏡台
  6
CONTINUOUS
 62
     3
100
AcDbLine
 10
2359.299999821186
 20
2625.0
 30
0.0
 11
2965.499999999999
 21
2625.0
 31
0.0
  0
LINE
  5
4EE
330
4E9
100
AcDbEntity
  8
鏡台
  6
CONTINUOUS
 62
     3
100
AcDbLine
 10
2950.499999999999
 20
2568.8
 30
0.0
 11
2950.499999999999
 21
2625.0
 31
0.0
  0
LINE
  5
4EF
330
4E9
100
AcDbEntity
  8
鏡台
  6
CONTINUOUS
 62
     3
100
AcDbLine
 10
2950.499999999999
 20
2523.800003814697
 30
0.0
 11
2950.499999999999
 21
2478.800007629395
 31
0.0
  0
LINE
  5
4F0
330
4E9
100
AcDbEntity
  8
鏡台
  6
CONTINUOUS
 62
     3
100
AcDbLine
 10
2950.499999999999
 20
2669.999996185303
 30
0.0
 11
2950.499999999999
 21
2714.999992370605
 31
0.0
  0
INSERT
  5
4F1
330
4E9
100
AcDbEntity
  8
鏡台
 62
     3
100
AcDbBlockReference
  2
EX_NORM
 10
2950.499999999999
 20
2568.8
 30
0.0
 41
44.99999618530273
 42
44.99999618530273
 43
44.99999618530273
 50
90.0
  0
INSERT
  5
4F2
330
4E9
100
AcDbEntity
  8
鏡台
 62
     3
100
AcDbBlockReference
  2
EX_NORM
 10
2950.499999999999
 20
2625.0
 30
0.0
 41
44.99999618530273
 42
44.99999618530273
 43
44.99999618530273
 50
270.0
  0
MTEXT
  5
4F3
330
4E9
100
AcDbEntity
  8
鏡台
 62
     2
100
AcDbMText
 10
2915.250000089405
 20
2722.499999999995
 30
0.0
 40
59.99999618530273
 41
0.0
 71
     5
 72
     1
  1
56
  7
EXCADDIM1
 11
0.0
 21
1.0
 31
0.0
  0
POINT
  5
4F4
330
4E9
100
AcDbEntity
  8
DEFPOINTS
 62
     0
100
AcDbPoint
 10
2483.200000000001
 20
2568.8
 30
0.0
  0
POINT
  5
4F5
330
4E9
100
AcDbEntity
  8
DEFPOINTS
 62
     0
100
AcDbPoint
 10
2348.8
 20
2625.0
 30
0.0
  0
POINT
  5
4F6
330
4E9
100
AcDbEntity
  8
DEFPOINTS
 62
     0
100
AcDbPoint
 10
2950.499999999999
 20
2625.0
 30
0.0
  0
ENDBLK
  5
4EB
330
4E9
100
AcDbEntity
  8
0
100
AcDbBlockEnd
  0
BLOCK
  5
4F9
330
4F8
100
AcDbEntity
  8
0
100
AcDbBlockBegin
  2
*D18
 70
     1
 10
0.0
 20
0.0
 30
0.0
  3
*D18
  1

  0
LINE
  5
4FB
330
4F8
100
AcDbEntity
  8
鏡台
  6
CONTINUOUS
 62
     3
100
AcDbLine
 10
2729.0
 20
875.0
 30
0.0
 11
2965.5
 21
874.9999999999999
 31
0.0
  0
LINE
  5
4FC
330
4F8
100
AcDbEntity
  8
鏡台
  6
CONTINUOUS
 62
     3
100
AcDbLine
 10
2950.5
 20
2143.800003814697
 30
0.0
 11
2950.5
 21
919.9999961853026
 31
0.0
  0
INSERT
  5
4FD
330
4F8
100
AcDbEntity
  8
鏡台
 62
     3
100
AcDbBlockReference
  2
EX_NORM
 10
2950.5
 20
2188.8
 30
0.0
 41
44.99999618530273
 42
44.99999618530273
 43
44.99999618530273
 50
90.0
  0
INSERT
  5
4FE
330
4F8
100
AcDbEntity
  8
鏡台
 62
     3
100
AcDbBlockReference
  2
EX_NORM
 10
2950.5
 20
874.9999999999999
 30
0.0
 41
44.99999618530273
 42
44.99999618530273
 43
44.99999618530273
 50
270.0
  0
MTEXT
  5
4FF
330
4F8
100
AcDbEntity
  8
鏡台
 62
     2
100
AcDbMText
 10
2915.250000089407
 20
1531.9
 30
0.0
 40
59.99999618530273
 41
0.0
 71
     5
 72
     1
  1
（1315）
  7
EXCADDIM1
 11
0.0
 21
1.0
 31
0.0
  0
POINT
  5
500
330
4F8
100
AcDbEntity
  8
DEFPOINTS
 62
     0
100
AcDbPoint
 10
2796.5
 20
2188.8
 30
0.0
  0
POINT
  5
501
330
4F8
100
AcDbEntity
  8
DEFPOINTS
 62
     0
100
AcDbPoint
 10
2721.5
 20
875.0
 30
0.0
  0
POINT
  5
502
330
4F8
100
AcDbEntity
  8
DEFPOINTS
 62
     0
100
AcDbPoint
 10
2950.5
 20
874.9999999999999
 30
0.0
  0
ENDBLK
  5
4FA
330
4F8
100
AcDbEntity
  8
0
100
AcDbBlockEnd
  0
BLOCK
  5
530
330
52F
100
AcDbEntity
  8
0
100
AcDbBlockBegin
  2
*D19
 70
     1
 10
0.0
 20
0.0
 30
0.0
  3
*D19
  1

  0
LINE
  5
532
330
52F
100
AcDbEntity
  8
鏡台
  6
CONTINUOUS
 62
     3
100
AcDbLine
 10
695.0000000000001
 20
2634.299999821186
 30
0.0
 11
695.0000000000001
 21
2780.0
 31
0.0
  0
LINE
  5
533
330
52F
100
AcDbEntity
  8
鏡台
  6
CONTINUOUS
 62
     3
100
AcDbLine
 10
1145.0
 20
2634.299999821186
 30
0.0
 11
1145.0
 21
2780.0
 31
0.0
  0
LINE
  5
534
330
52F
100
AcDbEntity
  8
鏡台
  6
CONTINUOUS
 62
     3
100
AcDbLine
 10
739.9999961853028
 20
2765.0
 30
0.0
 11
1100.000003814697
 21
2765.0
 31
0.0
  0
INSERT
  5
535
330
52F
100
AcDbEntity
  8
鏡台
 62
     3
100
AcDbBlockReference
  2
EX_NORM
 10
695.0000000000001
 20
2765.0
 30
0.0
 41
44.99999618530273
 42
44.99999618530273
 43
44.99999618530273
 50
180.0
  0
INSERT
  5
536
330
52F
100
AcDbEntity
  8
鏡台
 62
     3
100
AcDbBlockReference
  2
EX_NORM
 10
1145.0
 20
2765.0
 30
0.0
 41
44.99999618530273
 42
44.99999618530273
 43
44.99999618530273
  0
MTEXT
  5
537
330
52F
100
AcDbEntity
  8
鏡台
 62
     2
100
AcDbMText
 10
920.0000000000002
 20
2800.249999910593
 30
0.0
 40
59.99999618530273
 41
0.0
 71
     5
 72
     1
  1
450
  7
EXCADDIM1
  0
POINT
  5
538
330
52F
100
AcDbEntity
  8
DEFPOINTS
 62
     0
100
AcDbPoint
 10
695.0000000000001
 20
2623.8
 30
0.0
  0
POINT
  5
539
330
52F
100
AcDbEntity
  8
DEFPOINTS
 62
     0
100
AcDbPoint
 10
1145.0
 20
2623.8
 30
0.0
  0
POINT
  5
53A
330
52F
100
AcDbEntity
  8
DEFPOINTS
 62
     0
100
AcDbPoint
 10
1145.0
 20
2765.0
 30
0.0
  0
ENDBLK
  5
531
330
52F
100
AcDbEntity
  8
0
100
AcDbBlockEnd
  0
BLOCK
  5
53D
330
53C
100
AcDbEntity
  8
0
100
AcDbBlockBegin
  2
*D20
 70
     1
 10
0.0
 20
0.0
 30
0.0
  3
*D20
  1

  0
LINE
  5
53F
330
53C
100
AcDbEntity
  8
鏡台
  6
CONTINUOUS
 62
     3
100
AcDbLine
 10
1153.999999821186
 20
2122.599999999999
 30
0.0
 11
1310.0
 21
2122.599999999999
 31
0.0
  0
LINE
  5
540
330
53C
100
AcDbEntity
  8
鏡台
  6
CONTINUOUS
 62
     3
100
AcDbLine
 10
1153.999999821186
 20
2625.0
 30
0.0
 11
1310.0
 21
2625.0
 31
0.0
  0
LINE
  5
541
330
53C
100
AcDbEntity
  8
鏡台
  6
CONTINUOUS
 62
     3
100
AcDbLine
 10
1295.0
 20
2167.599996185302
 30
0.0
 11
1295.0
 21
2580.000003814697
 31
0.0
  0
INSERT
  5
542
330
53C
100
AcDbEntity
  8
鏡台
 62
     3
100
AcDbBlockReference
  2
EX_NORM
 10
1295.0
 20
2122.599999999999
 30
0.0
 41
44.99999618530273
 42
44.99999618530273
 43
44.99999618530273
 50
270.0
  0
INSERT
  5
543
330
53C
100
AcDbEntity
  8
鏡台
 62
     3
100
AcDbBlockReference
  2
EX_NORM
 10
1295.0
 20
2625.0
 30
0.0
 41
44.99999618530273
 42
44.99999618530273
 43
44.99999618530273
 50
90.0
  0
MTEXT
  5
544
330
53C
100
AcDbEntity
  8
鏡台
 62
     2
100
AcDbMText
 10
1259.750000089408
 20
2373.8
 30
0.0
 40
59.99999618530273
 41
0.0
 71
     5
 72
     1
  1
503
  7
EXCADDIM1
 11
0.0
 21
1.0
 31
0.0
  0
POINT
  5
545
330
53C
100
AcDbEntity
  8
DEFPOINTS
 62
     0
100
AcDbPoint
 10
1143.5
 20
2122.599999999999
 30
0.0
  0
POINT
  5
546
330
53C
100
AcDbEntity
  8
DEFPOINTS
 62
     0
100
AcDbPoint
 10
1143.5
 20
2625.0
 30
0.0
  0
POINT
  5
547
330
53C
100
AcDbEntity
  8
DEFPOINTS
 62
     0
100
AcDbPoint
 10
1295.0
 20
2625.0
 30
0.0
  0
ENDBLK
  5
53E
330
53C
100
AcDbEntity
  8
0
100
AcDbBlockEnd
  0
BLOCK
  5
54A
330
549
100
AcDbEntity
  8
0
100
AcDbBlockBegin
  2
*D21
 70
     1
 10
0.0
 20
0.0
 30
0.0
  3
*D21
  1

  0
LINE
  5
54C
330
549
100
AcDbEntity
  8
鏡台
  6
CONTINUOUS
 62
     3
100
AcDbLine
 10
770.0000000000003
 20
2587.299999821186
 30
0.0
 11
770.0000000000003
 21
2700.0
 31
0.0
  0
LINE
  5
54D
330
549
100
AcDbEntity
  8
鏡台
  6
CONTINUOUS
 62
     3
100
AcDbLine
 10
1070.0
 20
2587.299999821186
 30
0.0
 11
1070.0
 21
2700.0
 31
0.0
  0
LINE
  5
54E
330
549
100
AcDbEntity
  8
鏡台
  6
CONTINUOUS
 62
     3
100
AcDbLine
 10
814.9999961853031
 20
2685.0
 30
0.0
 11
1025.000003814697
 21
2685.0
 31
0.0
  0
INSERT
  5
54F
330
549
100
AcDbEntity
  8
鏡台
 62
     3
100
AcDbBlockReference
  2
EX_NORM
 10
770.0000000000003
 20
2685.0
 30
0.0
 41
44.99999618530273
 42
44.99999618530273
 43
44.99999618530273
 50
180.0
  0
INSERT
  5
550
330
549
100
AcDbEntity
  8
鏡台
 62
     3
100
AcDbBlockReference
  2
EX_NORM
 10
1070.0
 20
2685.0
 30
0.0
 41
44.99999618530273
 42
44.99999618530273
 43
44.99999618530273
  0
MTEXT
  5
551
330
549
100
AcDbEntity
  8
鏡台
 62
     2
100
AcDbMText
 10
920.0000000000005
 20
2720.249999910593
 30
0.0
 40
59.99999618530273
 41
0.0
 71
     5
 72
     1
  1
300（壁固定）
  7
EXCADDIM1
  0
POINT
  5
552
330
549
100
AcDbEntity
  8
DEFPOINTS
 62
     0
100
AcDbPoint
 10
770.0000000000003
 20
2576.8
 30
0.0
  0
POINT
  5
553
330
549
100
AcDbEntity
  8
DEFPOINTS
 62
     0
100
AcDbPoint
 10
1070.0
 20
2576.8
 30
0.0
  0
POINT
  5
554
330
549
100
AcDbEntity
  8
DEFPOINTS
 62
     0
100
AcDbPoint
 10
1070.0
 20
2685.0
 30
0.0
  0
ENDBLK
  5
54B
330
549
100
AcDbEntity
  8
0
100
AcDbBlockEnd
  0
BLOCK
  5
595
330
594
100
AcDbEntity
  8
0
100
AcDbBlockBegin
  2
*D22
 70
     1
 10
0.0
 20
0.0
 30
0.0
  3
*D22
  1

  0
LINE
  5
597
330
594
100
AcDbEntity
  8
寸法
  6
CONTINUOUS
 62
     3
100
AcDbLine
 10
694.9999999999993
 20
3653.500000178814
 30
0.0
 11
694.9999999999993
 21
3299.0
 31
0.0
  0
LINE
  5
598
330
594
100
AcDbEntity
  8
寸法
  6
CONTINUOUS
 62
     3
100
AcDbLine
 10
1144.999999999998
 20
3653.500000178814
 30
0.0
 11
1144.999999999998
 21
3299.0
 31
0.0
  0
LINE
  5
599
330
594
100
AcDbEntity
  8
寸法
  6
CONTINUOUS
 62
     3
100
AcDbLine
 10
739.999996185302
 20
3314.0
 30
0.0
 11
1100.000003814696
 21
3314.0
 31
0.0
  0
INSERT
  5
59A
330
594
100
AcDbEntity
  8
寸法
 62
     3
100
AcDbBlockReference
  2
EX_NORM
 10
694.9999999999993
 20
3314.0
 30
0.0
 41
44.99999618530273
 42
44.99999618530273
 43
44.99999618530273
 50
180.0
  0
INSERT
  5
59B
330
594
100
AcDbEntity
  8
寸法
 62
     3
100
AcDbBlockReference
  2
EX_NORM
 10
1144.999999999998
 20
3314.0
 30
0.0
 41
44.99999618530273
 42
44.99999618530273
 43
44.99999618530273
  0
MTEXT
  5
59C
330
594
100
AcDbEntity
  8
寸法
 62
     2
100
AcDbMText
 10
919.9999999999991
 20
3349.249999910593
 30
0.0
 40
59.99999618530273
 41
0.0
 71
     5
 72
     1
  1
%%c450
  7
EXCADDIM1
  0
POINT
  5
59D
330
594
100
AcDbEntity
  8
DEFPOINTS
 62
     0
100
AcDbPoint
 10
694.9999999999993
 20
3664.0
 30
0.0
  0
POINT
  5
59E
330
594
100
AcDbEntity
  8
DEFPOINTS
 62
     0
100
AcDbPoint
 10
1144.999999999998
 20
3664.0
 30
0.0
  0
POINT
  5
59F
330
594
100
AcDbEntity
  8
DEFPOINTS
 62
     0
100
AcDbPoint
 10
1144.999999999998
 20
3314.0
 30
0.0
  0
ENDBLK
  5
596
330
594
100
AcDbEntity
  8
0
100
AcDbBlockEnd
  0
BLOCK
  5
5A2
330
5A1
100
AcDbEntity
  8
0
100
AcDbBlockBegin
  2
*D23
 70
     1
 10
0.0
 20
0.0
 30
0.0
  3
*D23
  1

  0
LINE
  5
5A4
330
5A1
100
AcDbEntity
  8
寸法
  6
CONTINUOUS
 62
     3
100
AcDbLine
 10
619.9999999999993
 20
3469.0
 30
0.0
 11
619.9999999999993
 21
3224.0
 31
0.0
  0
LINE
  5
5A5
330
5A1
100
AcDbEntity
  8
寸法
  6
CONTINUOUS
 62
     3
100
AcDbLine
 10
1219.999999999997
 20
3469.0
 30
0.0
 11
1219.999999999997
 21
3224.0
 31
0.0
  0
LINE
  5
5A6
330
5A1
100
AcDbEntity
  8
寸法
  6
CONTINUOUS
 62
     3
100
AcDbLine
 10
664.999996185302
 20
3224.0
 30
0.0
 11
1175.000003814695
 21
3224.0
 31
0.0
  0
INSERT
  5
5A7
330
5A1
100
AcDbEntity
  8
寸法
 62
     3
100
AcDbBlockReference
  2
EX_NORM
 10
619.9999999999993
 20
3224.0
 30
0.0
 41
44.99999618530273
 42
44.99999618530273
 43
44.99999618530273
 50
180.0
  0
INSERT
  5
5A8
330
5A1
100
AcDbEntity
  8
寸法
 62
     3
100
AcDbBlockReference
  2
EX_NORM
 10
1219.999999999997
 20
3224.0
 30
0.0
 41
44.99999618530273
 42
44.99999618530273
 43
44.99999618530273
  0
MTEXT
  5
5A9
330
5A1
100
AcDbEntity
  8
寸法
 62
     2
100
AcDbMText
 10
919.9999999999986
 20
3259.249999910593
 30
0.0
 40
59.99999618530273
 41
0.0
 71
     5
 72
     1
  1
600
  7
EXCADDIM1
  0
POINT
  5
5AA
330
5A1
100
AcDbEntity
  8
DEFPOINTS
 62
     0
100
AcDbPoint
 10
619.9999999999993
 20
3469.0
 30
0.0
  0
POINT
  5
5AB
330
5A1
100
AcDbEntity
  8
DEFPOINTS
 62
     0
100
AcDbPoint
 10
1219.999999999997
 20
3469.0
 30
0.0
  0
POINT
  5
5AC
330
5A1
100
AcDbEntity
  8
DEFPOINTS
 62
     0
100
AcDbPoint
 10
1219.999999999997
 20
3224.0
 30
0.0
  0
ENDBLK
  5
5A3
330
5A1
100
AcDbEntity
  8
0
100
AcDbBlockEnd
  0
BLOCK
  5
5AF
330
5AE
100
AcDbEntity
  8
0
100
AcDbBlockBegin
  2
*D24
 70
     1
 10
0.0
 20
0.0
 30
0.0
  3
*D24
  1

  0
LINE
  5
5B1
330
5AE
100
AcDbEntity
  8
寸法
  6
CONTINUOUS
 62
     3
100
AcDbLine
 10
930.4999998211854
 20
3439.0
 30
0.0
 11
1429.999999999997
 21
3439.0
 31
0.0
  0
LINE
  5
5B2
330
5AE
100
AcDbEntity
  8
寸法
  6
CONTINUOUS
 62
     3
100
AcDbLine
 10
1414.999999999997
 20
3483.999996185303
 30
0.0
 11
1414.999999999997
 21
3874.000003814697
 31
0.0
  0
INSERT
  5
5B3
330
5AE
100
AcDbEntity
  8
寸法
 62
     3
100
AcDbBlockReference
  2
EX_NORM
 10
1414.999999999997
 20
3439.0
 30
0.0
 41
44.99999618530273
 42
44.99999618530273
 43
44.99999618530273
 50
270.0
  0
INSERT
  5
5B4
330
5AE
100
AcDbEntity
  8
寸法
 62
     3
100
AcDbBlockReference
  2
EX_NORM
 10
1414.999999999997
 20
3919.0
 30
0.0
 41
44.99999618530273
 42
44.99999618530273
 43
44.99999618530273
 50
90.0
  0
MTEXT
  5
5B5
330
5AE
100
AcDbEntity
  8
寸法
 62
     2
100
AcDbMText
 10
1379.750000089405
 20
3678.999999999999
 30
0.0
 40
59.99999618530273
 41
0.0
 71
     5
 72
     1
  1
480
  7
EXCADDIM1
 11
0.0
 21
1.0
 31
0.0
  0
POINT
  5
5B6
330
5AE
100
AcDbEntity
  8
DEFPOINTS
 62
     0
100
AcDbPoint
 10
919.9999999999993
 20
3439.0
 30
0.0
  0
POINT
  5
5B7
330
5AE
100
AcDbEntity
  8
DEFPOINTS
 62
     0
100
AcDbPoint
 10
1219.999999999997
 20
3919.0
 30
0.0
  0
POINT
  5
5B8
330
5AE
100
AcDbEntity
  8
DEFPOINTS
 62
     0
100
AcDbPoint
 10
1414.999999999997
 20
3919.0
 30
0.0
  0
ENDBLK
  5
5B0
330
5AE
100
AcDbEntity
  8
0
100
AcDbBlockEnd
  0
BLOCK
  5
5C4
330
5C3
100
AcDbEntity
  8
0
100
AcDbBlockBegin
  2
*D25
 70
     1
 10
0.0
 20
0.0
 30
0.0
  3
*D25
  1

  0
LINE
  5
5C6
330
5C3
100
AcDbEntity
  8
寸法
  6
CONTINUOUS
 62
     3
100
AcDbLine
 10
1230.499999821184
 20
1575.0
 30
0.0
 11
1339.999999999998
 21
1575.0
 31
0.0
  0
LINE
  5
5C7
330
5C3
100
AcDbEntity
  8
寸法
  6
CONTINUOUS
 62
     3
100
AcDbLine
 10
1324.999999999998
 20
919.9999961853028
 30
0.0
 11
1324.999999999998
 21
1530.000003814697
 31
0.0
  0
INSERT
  5
5C8
330
5C3
100
AcDbEntity
  8
寸法
 62
     3
100
AcDbBlockReference
  2
EX_NORM
 10
1324.999999999998
 20
875.0000000000001
 30
0.0
 41
44.99999618530273
 42
44.99999618530273
 43
44.99999618530273
 50
270.0
  0
INSERT
  5
5C9
330
5C3
100
AcDbEntity
  8
寸法
 62
     3
100
AcDbBlockReference
  2
EX_NORM
 10
1324.999999999998
 20
1575.0
 30
0.0
 41
44.99999618530273
 42
44.99999618530273
 43
44.99999618530273
 50
90.0
  0
MTEXT
  5
5CA
330
5C3
100
AcDbEntity
  8
寸法
 62
     2
100
AcDbMText
 10
1289.750000089406
 20
1224.999999999996
 30
0.0
 40
59.99999618530273
 41
0.0
 71
     5
 72
     1
  1
700
  7
EXCADDIM1
 11
0.0
 21
1.0
 31
0.0
  0
POINT
  5
5CB
330
5C3
100
AcDbEntity
  8
DEFPOINTS
 62
     0
100
AcDbPoint
 10
1217.999999999997
 20
875.0
 30
0.0
  0
POINT
  5
5CC
330
5C3
100
AcDbEntity
  8
DEFPOINTS
 62
     0
100
AcDbPoint
 10
1219.999999999997
 20
1575.0
 30
0.0
  0
POINT
  5
5CD
330
5C3
100
AcDbEntity
  8
DEFPOINTS
 62
     0
100
AcDbPoint
 10
1324.999999999998
 20
1575.0
 30
0.0
  0
ENDBLK
  5
5C5
330
5C3
100
AcDbEntity
  8
0
100
AcDbBlockEnd
  0
BLOCK
  5
5D0
330
5CF
100
AcDbEntity
  8
0
100
AcDbBlockBegin
  2
*D26
 70
     1
 10
0.0
 20
0.0
 30
0.0
  3
*D26
  1

  0
LINE
  5
5D2
330
5CF
100
AcDbEntity
  8
寸法
  6
CONTINUOUS
 62
     3
100
AcDbLine
 10
1230.499999821184
 20
1575.0
 30
0.0
 11
1339.999999999997
 21
1575.0
 31
0.0
  0
LINE
  5
5D3
330
5CF
100
AcDbEntity
  8
寸法
  6
CONTINUOUS
 62
     3
100
AcDbLine
 10
1324.999999999997
 20
1619.999996185303
 30
0.0
 11
1324.999999999997
 21
1700.000003814697
 31
0.0
  0
INSERT
  5
5D4
330
5CF
100
AcDbEntity
  8
寸法
 62
     3
100
AcDbBlockReference
  2
EX_NORM
 10
1324.999999999997
 20
1575.0
 30
0.0
 41
44.99999618530273
 42
44.99999618530273
 43
44.99999618530273
 50
270.0
  0
INSERT
  5
5D5
330
5CF
100
AcDbEntity
  8
寸法
 62
     3
100
AcDbBlockReference
  2
EX_NORM
 10
1324.999999999997
 20
1745.0
 30
0.0
 41
44.99999618530273
 42
44.99999618530273
 43
44.99999618530273
 50
90.0
  0
MTEXT
  5
5D6
330
5CF
100
AcDbEntity
  8
寸法
 62
     2
100
AcDbMText
 10
1289.750000089405
 20
1659.999999999998
 30
0.0
 40
59.99999618530273
 41
0.0
 71
     5
 72
     1
  1
170
  7
EXCADDIM1
 11
0.0
 21
1.0
 31
0.0
  0
POINT
  5
5D7
330
5CF
100
AcDbEntity
  8
DEFPOINTS
 62
     0
100
AcDbPoint
 10
1219.999999999997
 20
1575.0
 30
0.0
  0
POINT
  5
5D8
330
5CF
100
AcDbEntity
  8
DEFPOINTS
 62
     0
100
AcDbPoint
 10
919.9999999999991
 20
1745.0
 30
0.0
  0
POINT
  5
5D9
330
5CF
100
AcDbEntity
  8
DEFPOINTS
 62
     0
100
AcDbPoint
 10
1324.999999999997
 20
1745.0
 30
0.0
  0
ENDBLK
  5
5D1
330
5CF
100
AcDbEntity
  8
0
100
AcDbBlockEnd
  0
BLOCK
  5
5DC
330
5DB
100
AcDbEntity
  8
0
100
AcDbBlockBegin
  2
*D27
 70
     1
 10
0.0
 20
0.0
 30
0.0
  3
*D27
  1

  0
LINE
  5
5DE
330
5DB
100
AcDbEntity
  8
寸法
  6
CONTINUOUS
 62
     3
100
AcDbLine
 10
1228.499999821184
 20
875.0
 30
0.0
 11
1430.000000000002
 21
875.0000000000001
 31
0.0
  0
LINE
  5
5DF
330
5DB
100
AcDbEntity
  8
寸法
  6
CONTINUOUS
 62
     3
100
AcDbLine
 10
1415.000000000002
 20
919.9999961853028
 30
0.0
 11
1415.000000000002
 21
1700.000003814697
 31
0.0
  0
INSERT
  5
5E0
330
5DB
100
AcDbEntity
  8
寸法
 62
     3
100
AcDbBlockReference
  2
EX_NORM
 10
1415.000000000002
 20
875.0000000000001
 30
0.0
 41
44.99999618530273
 42
44.99999618530273
 43
44.99999618530273
 50
270.0
  0
INSERT
  5
5E1
330
5DB
100
AcDbEntity
  8
寸法
 62
     3
100
AcDbBlockReference
  2
EX_NORM
 10
1415.000000000002
 20
1745.0
 30
0.0
 41
44.99999618530273
 42
44.99999618530273
 43
44.99999618530273
 50
90.0
  0
MTEXT
  5
5E2
330
5DB
100
AcDbEntity
  8
寸法
 62
     2
100
AcDbMText
 10
1379.750000089409
 20
1309.999999999998
 30
0.0
 40
59.99999618530273
 41
0.0
 71
     5
 72
     1
  1
870
  7
EXCADDIM1
 11
0.0
 21
1.0
 31
0.0
  0
POINT
  5
5E3
330
5DB
100
AcDbEntity
  8
DEFPOINTS
 62
     0
100
AcDbPoint
 10
1217.999999999997
 20
875.0
 30
0.0
  0
POINT
  5
5E4
330
5DB
100
AcDbEntity
  8
DEFPOINTS
 62
     0
100
AcDbPoint
 10
930.4999998211988
 20
1745.0
 30
0.0
  0
POINT
  5
5E5
330
5DB
100
AcDbEntity
  8
DEFPOINTS
 62
     0
100
AcDbPoint
 10
1415.000000000002
 20
1745.0
 30
0.0
  0
ENDBLK
  5
5DD
330
5DB
100
AcDbEntity
  8
0
100
AcDbBlockEnd
  0
BLOCK
  5
5EC
330
5EB
100
AcDbEntity
  8
0
100
AcDbBlockBegin
  2
*D28
 70
     1
 10
0.0
 20
0.0
 30
0.0
  3
*D28
  1

  0
LINE
  5
5EE
330
5EB
100
AcDbEntity
  8
寸法
  6
CONTINUOUS
 62
     3
100
AcDbLine
 10
1230.499999821184
 20
3489.0
 30
0.0
 11
1339.999999999998
 21
3489.0
 31
0.0
  0
LINE
  5
5EF
330
5EB
100
AcDbEntity
  8
寸法
  6
CONTINUOUS
 62
     3
100
AcDbLine
 10
1324.999999999998
 20
3533.999996185303
 30
0.0
 11
1324.999999999998
 21
3874.000003814697
 31
0.0
  0
INSERT
  5
5F0
330
5EB
100
AcDbEntity
  8
寸法
 62
     3
100
AcDbBlockReference
  2
EX_NORM
 10
1324.999999999998
 20
3489.0
 30
0.0
 41
44.99999618530273
 42
44.99999618530273
 43
44.99999618530273
 50
270.0
  0
INSERT
  5
5F1
330
5EB
100
AcDbEntity
  8
寸法
 62
     3
100
AcDbBlockReference
  2
EX_NORM
 10
1324.999999999998
 20
3919.0
 30
0.0
 41
44.99999618530273
 42
44.99999618530273
 43
44.99999618530273
 50
90.0
  0
MTEXT
  5
5F2
330
5EB
100
AcDbEntity
  8
寸法
 62
     2
100
AcDbMText
 10
1289.750000089406
 20
3703.999999999999
 30
0.0
 40
59.99999618530273
 41
0.0
 71
     5
 72
     1
  1
430
  7
EXCADDIM1
 11
0.0
 21
1.0
 31
0.0
  0
POINT
  5
5F3
330
5EB
100
AcDbEntity
  8
DEFPOINTS
 62
     0
100
AcDbPoint
 10
1219.999999999998
 20
3489.0
 30
0.0
  0
POINT
  5
5F4
330
5EB
100
AcDbEntity
  8
DEFPOINTS
 62
     0
100
AcDbPoint
 10
1219.999999999998
 20
3919.0
 30
0.0
  0
POINT
  5
5F5
330
5EB
100
AcDbEntity
  8
DEFPOINTS
 62
     0
100
AcDbPoint
 10
1324.999999999998
 20
3919.0
 30
0.0
  0
ENDBLK
  5
5ED
330
5EB
100
AcDbEntity
  8
0
100
AcDbBlockEnd
  0
BLOCK
  5
5F8
330
5F7
100
AcDbEntity
  8
0
100
AcDbBlockBegin
  2
*D29
 70
     1
 10
0.0
 20
0.0
 30
0.0
  3
*D29
  1

  0
LINE
  5
5FA
330
5F7
100
AcDbEntity
  8
寸法
  6
CONTINUOUS
 62
     3
100
AcDbLine
 10
2465.5
 20
1315.0
 30
0.0
 11
2570.0
 21
1315.0
 31
0.0
  0
LINE
  5
5FB
330
5F7
100
AcDbEntity
  8
寸法
  6
CONTINUOUS
 62
     3
100
AcDbLine
 10
2555.0
 20
1270.000003814697
 30
0.0
 11
2555.0
 21
919.9999961853027
 31
0.0
  0
INSERT
  5
5FC
330
5F7
100
AcDbEntity
  8
寸法
 62
     3
100
AcDbBlockReference
  2
EX_NORM
 10
2555.0
 20
1315.0
 30
0.0
 41
44.99999618530273
 42
44.99999618530273
 43
44.99999618530273
 50
90.0
  0
INSERT
  5
5FD
330
5F7
100
AcDbEntity
  8
寸法
 62
     3
100
AcDbBlockReference
  2
EX_NORM
 10
2555.0
 20
875.0
 30
0.0
 41
44.99999618530273
 42
44.99999618530273
 43
44.99999618530273
 50
270.0
  0
MTEXT
  5
5FE
330
5F7
100
AcDbEntity
  8
寸法
 62
     2
100
AcDbMText
 10
2519.750000089407
 20
1095.0
 30
0.0
 40
59.99999618530273
 41
0.0
 71
     5
 72
     1
  1
440（壁給水）
  7
EXCADDIM1
 11
0.0
 21
1.0
 31
0.0
  0
POINT
  5
5FF
330
5F7
100
AcDbEntity
  8
DEFPOINTS
 62
     0
100
AcDbPoint
 10
2458.0
 20
1315.0
 30
0.0
  0
POINT
  5
600
330
5F7
100
AcDbEntity
  8
DEFPOINTS
 62
     0
100
AcDbPoint
 10
2555.0
 20
875.0
 30
0.0
  0
POINT
  5
601
330
5F7
100
AcDbEntity
  8
DEFPOINTS
 62
     0
100
AcDbPoint
 10
2555.0
 20
875.0
 30
0.0
  0
ENDBLK
  5
5F9
330
5F7
100
AcDbEntity
  8
0
100
AcDbBlockEnd
  0
BLOCK
  5
606
330
605
100
AcDbEntity
  8
0
100
AcDbBlockBegin
  2
*D30
 70
     1
 10
0.0
 20
0.0
 30
0.0
  3
*D30
  1

  0
LINE
  5
608
330
605
100
AcDbEntity
  8
寸法
  6
CONTINUOUS
 62
     3
100
AcDbLine
 10
1230.499999821186
 20
2625.0
 30
0.0
 11
1534.5
 21
2625.0
 31
0.0
  0
LINE
  5
609
330
605
100
AcDbEntity
  8
寸法
  6
CONTINUOUS
 62
     3
100
AcDbLine
 10
1519.5
 20
919.9999961853027
 30
0.0
 11
1519.5
 21
2580.000003814697
 31
0.0
  0
INSERT
  5
60A
330
605
100
AcDbEntity
  8
寸法
 62
     3
100
AcDbBlockReference
  2
EX_NORM
 10
1519.5
 20
875.0
 30
0.0
 41
44.99999618530273
 42
44.99999618530273
 43
44.99999618530273
 50
270.0
  0
INSERT
  5
60B
330
605
100
AcDbEntity
  8
寸法
 62
     3
100
AcDbBlockReference
  2
EX_NORM
 10
1519.5
 20
2625.0
 30
0.0
 41
44.99999618530273
 42
44.99999618530273
 43
44.99999618530273
 50
90.0
  0
MTEXT
  5
60C
330
605
100
AcDbEntity
  8
寸法
 62
     2
100
AcDbMText
 10
1484.250000089408
 20
1750.0
 30
0.0
 40
59.99999618530273
 41
0.0
 71
     5
 72
     1
  1
（1750）
  7
EXCADDIM1
 11
0.0
 21
1.0
 31
0.0
  0
POINT
  5
60D
330
605
100
AcDbEntity
  8
DEFPOINTS
 62
     0
100
AcDbPoint
 10
1368.0
 20
875.0
 30
0.0
  0
POINT
  5
60E
330
605
100
AcDbEntity
  8
DEFPOINTS
 62
     0
100
AcDbPoint
 10
1220.0
 20
2625.0
 30
0.0
  0
POINT
  5
60F
330
605
100
AcDbEntity
  8
DEFPOINTS
 62
     0
100
AcDbPoint
 10
1519.5
 20
2625.0
 30
0.0
  0
ENDBLK
  5
607
330
605
100
AcDbEntity
  8
0
100
AcDbBlockEnd
  0
ENDSEC
  0
SECTION
  2
ENTITIES
  0
LINE
  5
A9
330
1F
100
AcDbEntity
  8
枠_表
  6
CONTINUOUS
 62
     7
100
AcDbLine
 10
17.99999999999999
 20
12.5
 30
0.0
 11
200.0
 21
12.5
 31
0.0
  0
LINE
  5
AA
330
1F
100
AcDbEntity
  8
枠_表
  6
CONTINUOUS
 62
     7
100
AcDbLine
 10
200.0
 20
12.5
 30
0.0
 11
200.0
 21
287.5
 31
0.0
  0
LINE
  5
AB
330
1F
100
AcDbEntity
  8
枠_表
  6
CONTINUOUS
 62
     7
100
AcDbLine
 10
17.99999999999999
 20
12.5
 30
0.0
 11
17.99999999999999
 21
287.5
 31
0.0
  0
LINE
  5
AC
330
1F
100
AcDbEntity
  8
枠_表
  6
CONTINUOUS
 62
     7
100
AcDbLine
 10
17.99999999999999
 20
287.5
 30
0.0
 11
200.0
 21
287.5
 31
0.0
  0
LINE
  5
AD
330
1F
100
AcDbEntity
  8
枠_表
  6
CONTINUOUS
 62
     7
100
AcDbLine
 10
17.99999999999999
 20
34.5
 30
0.0
 11
200.0
 21
34.5
 31
0.0
  0
LINE
  5
AE
330
1F
100
AcDbEntity
  8
枠_表
  6
CONTINUOUS
 62
     6
100
AcDbLine
 10
200.0
 20
22.5
 30
0.0
 11
74.99999999999984
 21
22.5
 31
0.0
  0
LINE
  5
AF
330
1F
100
AcDbEntity
  8
枠_表
  6
CONTINUOUS
 62
     6
100
AcDbLine
 10
186.0
 20
34.5
 30
0.0
 11
186.0
 21
22.5
 31
0.0
  0
LINE
  5
B0
330
1F
100
AcDbEntity
  8
枠_表
  6
CONTINUOUS
 62
     6
100
AcDbLine
 10
181.0
 20
34.5
 30
0.0
 11
181.0
 21
22.5
 31
0.0
  0
LINE
  5
B1
330
1F
100
AcDbEntity
  8
枠_表
  6
CONTINUOUS
 62
     6
100
AcDbLine
 10
144.0
 20
34.5
 30
0.0
 11
144.0
 21
12.5
 31
0.0
  0
LINE
  5
B2
330
1F
100
AcDbEntity
  8
枠_表
  6
CONTINUOUS
 62
     6
100
AcDbLine
 10
139.0
 20
34.5
 30
0.0
 11
139.0
 21
12.5
 31
0.0
  0
LINE
  5
B3
330
1F
100
AcDbEntity
  8
枠_表
  6
CONTINUOUS
 62
     6
100
AcDbLine
 10
79.99999999999984
 20
34.5
 30
0.0
 11
79.99999999999984
 21
22.5
 31
0.0
  0
LINE
  5
B4
330
1F
100
AcDbEntity
  8
枠_表
  6
CONTINUOUS
 62
     6
100
AcDbLine
 10
74.99999999999984
 20
34.5
 30
0.0
 11
74.99999999999984
 21
12.5
 31
0.0
  0
LINE
  5
B5
330
1F
100
AcDbEntity
  8
枠_表
  6
CONTINUOUS
 62
     6
100
AcDbLine
 10
61.99999999999984
 20
34.5
 30
0.0
 11
61.99999999999984
 21
12.5
 31
0.0
  0
LINE
  5
B6
330
1F
100
AcDbEntity
  8
枠_表
  6
CONTINUOUS
 62
     6
100
AcDbLine
 10
48.99999999999984
 20
34.5
 30
0.0
 11
48.99999999999984
 21
12.5
 31
0.0
  0
LINE
  5
B7
330
1F
100
AcDbEntity
  8
枠_表
  6
CONTINUOUS
 62
     6
100
AcDbLine
 10
33.4999999999999
 20
34.5
 30
0.0
 11
33.4999999999999
 21
12.5
 31
0.0
  0
LINE
  5
B8
330
1F
100
AcDbEntity
  8
枠_表
  6
CONTINUOUS
 62
     6
100
AcDbLine
 10
17.99999999999999
 20
29.5
 30
0.0
 11
74.99999999999984
 21
29.5
 31
0.0
  0
LINE
  5
B9
330
1F
100
AcDbEntity
  8
枠_表
  6
CONTINUOUS
 62
     6
100
AcDbLine
 10
189.26538086
 20
24.80029296999999
 30
0.0
 11
196.99938965
 21
32.66998291000004
 31
0.0
  0
CIRCLE
  5
BA
330
1F
100
AcDbEntity
  8
枠_表
  6
CONTINUOUS
 62
     6
100
AcDbCircle
 10
22.99999999999999
 20
15.0
 30
0.0
 40
0.10000002
  0
CIRCLE
  5
BB
330
1F
100
AcDbEntity
  8
枠_表
  6
CONTINUOUS
 62
     6
100
AcDbCircle
 10
27.99999999999999
 20
15.0
 30
0.0
 40
0.10000002
  0
CIRCLE
  5
BC
330
1F
100
AcDbEntity
  8
枠_表
  6
CONTINUOUS
 62
     6
100
AcDbCircle
 10
38.4999999999999
 20
15.0
 30
0.0
 40
0.10000002
  0
CIRCLE
  5
BD
330
1F
100
AcDbEntity
  8
枠_表
  6
CONTINUOUS
 62
     6
100
AcDbCircle
 10
43.4999999999999
 20
15.0
 30
0.0
 40
0.10000002
  0
LINE
  5
BE
330
1F
100
AcDbEntity
  8
枠_表
  6
EXLTYPE2
 62
     6
100
AcDbLine
 10
17.99999999999999
 20
17.5
 30
0.0
 11
48.99999999999984
 21
17.5
 31
0.0
  0
TEXT
  5
BF
330
1F
100
AcDbEntity
  8
枠_表
  6
CONTINUOUS
 62
     2
100
AcDbText
 10
189.05371094
 20
29.27227783000001
 30
0.0
 40
3.0
  1
１
 41
1.101333351135257
  7
EXCADSTD
 72
     5
 11
191.413710978147
 21
29.27227783000001
 31
0.0
100
AcDbText
  0
TEXT
  5
C0
330
1F
100
AcDbEntity
  8
枠_表
  6
CONTINUOUS
 62
     2
100
AcDbText
 10
193.12792969
 20
24.83488463999993
 30
0.0
 40
3.0
  1
１５
 41
1.098531230663528
  7
EXCADSTD
 72
     5
 11
198.3067197774138
 21
24.83488463999993
 31
0.0
100
AcDbText
  0
TEXT
  5
C1
330
1F
100
AcDbEntity
  8
枠_表
  6
CONTINUOUS
 62
     2
100
AcDbText
 10
20.24999999999999
 20
29.875
 30
0.0
 40
4.25
  1
製図
 41
1.509694117647059
  7
EXCADSTD
 72
     5
 11
30.33259999999999
 21
29.875
 31
0.0
100
AcDbText
  0
TEXT
  5
C2
330
1F
100
AcDbEntity
  8
枠_表
  6
CONTINUOUS
 62
     2
100
AcDbText
 10
35.7499999999999
 20
29.875
 30
0.0
 40
4.25
  1
写図
 41
1.509694117647059
  7
EXCADSTD
 72
     5
 11
45.8325999999999
 21
29.875
 31
0.0
100
AcDbText
  0
TEXT
  5
C3
330
1F
100
AcDbEntity
  8
枠_表
  6
CONTINUOUS
 62
     2
100
AcDbText
 10
50.74999999999984
 20
29.875
 30
0.0
 40
4.25
  1
検図
 41
1.303826737967915
  7
EXCADSTD
 72
     5
 11
59.45769999999985
 21
29.875
 31
0.0
100
AcDbText
  0
TEXT
  5
C4
330
1F
100
AcDbEntity
  8
枠_表
  6
CONTINUOUS
 62
     2
100
AcDbText
 10
63.74999999999984
 20
29.875
 30
0.0
 40
4.25
  1
承認
 41
1.303826737967915
  7
EXCADSTD
 72
     5
 11
72.45769999999985
 21
29.875
 31
0.0
100
AcDbText
  0
TEXT
  5
C5
330
1F
100
AcDbEntity
  8
枠_表
  6
CONTINUOUS
 62
     2
100
AcDbText
 10
75.57499999999983
 20
28.875
 30
0.0
 40
4.25
  1
品
 41
1.120000000000002
  7
EXCADSTD
 72
     5
 11
78.97499999999984
 21
28.875
 31
0.0
100
AcDbText
  0
TEXT
  5
C6
330
1F
100
AcDbEntity
  8
枠_表
  6
CONTINUOUS
 62
     2
100
AcDbText
 10
75.57499999999983
 20
23.875
 30
0.0
 40
4.25
  1
名
 41
1.120000000000002
  7
EXCADSTD
 72
     5
 11
78.97499999999984
 21
23.875
 31
0.0
100
AcDbText
  0
TEXT
  5
C7
330
1F
100
AcDbEntity
  8
枠_表
  6
CONTINUOUS
 62
     2
100
AcDbText
 10
139.575
 20
28.875
 30
0.0
 40
4.25
  1
品
 41
1.120000000000002
  7
EXCADSTD
 72
     5
 11
142.975
 21
28.875
 31
0.0
100
AcDbText
  0
TEXT
  5
C8
330
1F
100
AcDbEntity
  8
枠_表
  6
CONTINUOUS
 62
     2
100
AcDbText
 10
139.575
 20
23.875
 30
0.0
 40
4.25
  1
番
 41
1.120000000000002
  7
EXCADSTD
 72
     5
 11
142.975
 21
23.875
 31
0.0
100
AcDbText
  0
TEXT
  5
C9
330
1F
100
AcDbEntity
  8
枠_表
  6
CONTINUOUS
 62
     2
100
AcDbText
 10
181.675
 20
28.875
 30
0.0
 40
4.25
  1
尺
 41
1.120000000000002
  7
EXCADSTD
 72
     5
 11
185.075
 21
28.875
 31
0.0
100
AcDbText
  0
TEXT
  5
CA
330
1F
100
AcDbEntity
  8
枠_表
  6
CONTINUOUS
 62
     2
100
AcDbText
 10
181.675
 20
23.875
 30
0.0
 40
4.25
  1
度
 41
1.120000000000002
  7
EXCADSTD
 72
     5
 11
185.075
 21
23.875
 31
0.0
100
AcDbText
  0
TEXT
  5
CB
330
1F
100
AcDbEntity
  8
枠_表
  6
CONTINUOUS
 62
     2
100
AcDbText
 10
139.575
 20
17.57500000000005
 30
0.0
 40
4.25
  1
図
 41
1.120000000000002
  7
EXCADSTD
 72
     5
 11
142.975
 21
17.57500000000005
 31
0.0
100
AcDbText
  0
TEXT
  5
CC
330
1F
100
AcDbEntity
  8
枠_表
  6
CONTINUOUS
 62
     2
100
AcDbText
 10
139.575
 20
13.27499999999998
 30
0.0
 40
4.25
  1
番
 41
1.120000000000002
  7
EXCADSTD
 72
     5
 11
142.975
 21
13.27499999999998
 31
0.0
100
AcDbText
  0
LINE
  5
CD
330
1F
100
AcDbEntity
  8
枠_表
  6
CONTINUOUS
 62
     6
100
AcDbLine
 10
124.9999999999999
 20
282.5
 30
0.0
 11
195.0
 21
282.5
 31
0.0
  0
LINE
  5
CE
330
1F
100
AcDbEntity
  8
枠_表
  6
CONTINUOUS
 62
     6
100
AcDbLine
 10
124.9999999999999
 20
277.0
 30
0.0
 11
195.0
 21
277.0
 31
0.0
  0
TEXT
  5
CF
330
1F
100
AcDbEntity
  8
枠_表
  6
CONTINUOUS
 62
     2
100
AcDbText
 10
133.0
 20
277.75
 30
0.0
 40
4.0
  1
品番
 41
2.041518181818183
  7
EXCADSTD
 72
     5
 11
145.8324
 21
277.75
 31
0.0
100
AcDbText
  0
TEXT
  5
D0
330
1F
100
AcDbEntity
  8
枠_表
  6
CONTINUOUS
 62
     2
100
AcDbText
 10
168.0
 20
277.75
 30
0.0
 40
4.0
  1
品名
 41
2.041518181818183
  7
EXCADSTD
 72
     5
 11
180.8324
 21
277.75
 31
0.0
100
AcDbText
  0
TEXT
  5
D1
330
1F
100
AcDbEntity
  8
枠_表
  6
CONTINUOUS
 62
     2
100
AcDbText
 10
156.0000000000001
 20
272.25
 30
0.0
 40
4.0
  1
洗面化粧台
 41
1.086206896551724
  7
EXCADSTD
 72
     5
 11
174.0000000000001
 21
272.25
 31
0.0
100
AcDbText
  0
TEXT
  5
D3
330
1F
100
AcDbEntity
  8
枠_表
  6
CONTINUOUS
 62
     2
100
AcDbText
 10
76.99999999999996
 20
14.5
 30
0.0
 40
4.5
  1
ジャニス工業株式会社
 41
1.025641025641025
  7
EXCADTTF1
 72
     5
 11
136.9999999999999
 21
14.5
 31
0.0
100
AcDbText
  0
LINE
  5
D4
330
1F
100
AcDbEntity
  8
枠_表
  6
EXLTYPE2
 62
     6
100
AcDbLine
 10
18.0
 20
150.0
 30
0.0
 11
0.6999999999999993
 21
150.0
 31
0.0
  0
TEXT
  5
D5
330
1F
100
AcDbEntity
  8
枠_表
  6
CONTINUOUS
 62
     2
100
AcDbText
 10
125.3999999999999
 20
256.0
 30
0.0
 40
4.0
  1
※選択部材（別途手配）
 41
0.9692307660212882
  7
EXCADSTD
 72
     5
 11
161.3999998807906
 21
256.0
 31
0.0
100
AcDbText
  0
TEXT
  5
D6
330
1F
100
AcDbEntity
  8
枠_表
  6
CONTINUOUS
 62
     2
100
AcDbText
 10
170.5000000000001
 20
250.25
 30
0.0
 40
4.0
  1
品名
 41
2.041518181818183
  7
EXCADSTD
 72
     5
 11
183.3324000000001
 21
250.25
 31
0.0
100
AcDbText
  0
TEXT
  5
D7
330
1F
100
AcDbEntity
  8
枠_表
  6
CONTINUOUS
 62
     2
100
AcDbText
 10
135.5
 20
250.25
 30
0.0
 40
4.0
  1
品番
 41
2.041518181818183
  7
EXCADSTD
 72
     5
 11
148.3324
 21
250.25
 31
0.0
100
AcDbText
  0
TEXT
  5
D8
330
1F
100
AcDbEntity
  8
枠_表
  6
CONTINUOUS
 62
     2
100
AcDbText
 10
161.0000000000001
 20
217.25
 30
0.0
 40
4.0
  1
ストレート形止水栓
 41
1.056603773584906
  7
EXCADSTD
 72
     5
 11
193.0000000000001
 21
217.25
 31
0.0
100
AcDbText
  0
TEXT
  5
D9
330
1F
100
AcDbEntity
  8
枠_表
  6
CONTINUOUS
 62
     2
100
AcDbText
 10
161.0000000000001
 20
222.75
 30
0.0
 40
4.0
  1
アングル形止水栓
 41
1.061170212765957
  7
EXCADSTD
 72
     5
 11
189.5000000000001
 21
222.75
 31
0.0
100
AcDbText
  0
TEXT
  5
DA
330
1F
100
AcDbEntity
  8
枠_表
  6
CONTINUOUS
 62
     2
100
AcDbText
 10
161.0000000000001
 20
228.25
 30
0.0
 40
4.0
  1
配管アダプター
 41
1.067073170731707
  7
EXCADSTD
 72
     5
 11
186.0000000000001
 21
228.25
 31
0.0
100
AcDbText
  0
TEXT
  5
DB
330
1F
100
AcDbEntity
  8
枠_表
  6
CONTINUOUS
 62
     2
100
AcDbText
 10
161.0000000000001
 20
233.75
 30
0.0
 40
4.0
  1
ボトルトラップ
 41
1.067073170731707
  7
EXCADSTD
 72
     5
 11
186.0000000000001
 21
233.75
 31
0.0
100
AcDbText
  0
TEXT
  5
DC
330
1F
100
AcDbEntity
  8
枠_表
  6
CONTINUOUS
 62
     2
100
AcDbText
 10
161.0000000000001
 20
239.25
 30
0.0
 40
4.0
  1
Ｓトラップ
 41
1.086206896551724
  7
EXCADSTD
 72
     5
 11
179.0000000000001
 21
239.25
 31
0.0
100
AcDbText
  0
TEXT
  5
DD
330
1F
100
AcDbEntity
  8
枠_表
  6
CONTINUOUS
 62
     2
100
AcDbText
 10
161.0000000000001
 20
244.75
 30
0.0
 40
4.0
  1
Ｐトラップ
 41
1.086206896551724
  7
EXCADSTD
 72
     5
 11
179.0000000000001
 21
244.75
 31
0.0
100
AcDbText
  0
LINE
  5
DE
330
1F
100
AcDbEntity
  8
枠_表
  6
CONTINUOUS
 62
     6
100
AcDbLine
 10
160.0
 20
216.5
 30
0.0
 11
160.0
 21
255.0
 31
0.0
  0
TEXT
  5
DF
330
1F
100
AcDbEntity
  8
枠_表
  6
CONTINUOUS
 62
     2
100
AcDbText
 10
125.9999999999999
 20
222.75
 30
0.0
 40
4.0
  1
ＮＬ２２１－７５ＷＭＹ
 41
0.8211538429443651
  7
EXCADSTD
 72
     5
 11
156.4999998807906
 21
222.75
 31
0.0
100
AcDbText
  0
TEXT
  5
E0
330
1F
100
AcDbEntity
  8
枠_表
  6
CONTINUOUS
 62
     2
100
AcDbText
 10
125.9999999999999
 20
233.75
 30
0.0
 40
4.0
  1
Ｐ２２３２
 41
0.8629310316052923
  7
EXCADSTD
 72
     5
 11
140.2999999523162
 21
233.75
 31
0.0
100
AcDbText
  0
TEXT
  5
E1
330
1F
100
AcDbEntity
  8
枠_表
  6
CONTINUOUS
 62
     2
100
AcDbText
 10
125.9999999999999
 20
239.25
 30
0.0
 40
4.0
  1
Ｐ２２３３
 41
0.8629310316052923
  7
EXCADSTD
 72
     5
 11
140.2999999523162
 21
239.25
 31
0.0
100
AcDbText
  0
TEXT
  5
E2
330
1F
100
AcDbEntity
  8
枠_表
  6
CONTINUOUS
 62
     2
100
AcDbText
 10
125.9999999999999
 20
244.75
 30
0.0
 40
4.0
  1
Ｐ２２３４
 41
0.8629310316052923
  7
EXCADSTD
 72
     5
 11
140.2999999523162
 21
244.75
 31
0.0
100
AcDbText
  0
LINE
  5
E3
330
1F
100
AcDbEntity
  8
枠_表
  6
CONTINUOUS
 62
     6
100
AcDbLine
 10
195.0
 20
216.5
 30
0.0
 11
195.0
 21
255.0
 31
0.0
  0
LINE
  5
E4
330
1F
100
AcDbEntity
  8
枠_表
  6
CONTINUOUS
 62
     6
100
AcDbLine
 10
124.9999999999999
 20
216.5
 30
0.0
 11
124.9999999999999
 21
255.0
 31
0.0
  0
LINE
  5
E5
330
1F
100
AcDbEntity
  8
枠_表
  6
CONTINUOUS
 62
     6
100
AcDbLine
 10
124.9999999999999
 20
216.5
 30
0.0
 11
195.0
 21
216.5
 31
0.0
  0
LINE
  5
E6
330
1F
100
AcDbEntity
  8
枠_表
  6
CONTINUOUS
 62
     6
100
AcDbLine
 10
124.9999999999999
 20
222.0
 30
0.0
 11
195.0
 21
222.0
 31
0.0
  0
LINE
  5
E7
330
1F
100
AcDbEntity
  8
枠_表
  6
CONTINUOUS
 62
     6
100
AcDbLine
 10
124.9999999999999
 20
227.5
 30
0.0
 11
195.0
 21
227.5
 31
0.0
  0
LINE
  5
E8
330
1F
100
AcDbEntity
  8
枠_表
  6
CONTINUOUS
 62
     6
100
AcDbLine
 10
124.9999999999999
 20
233.0
 30
0.0
 11
195.0
 21
233.0
 31
0.0
  0
LINE
  5
E9
330
1F
100
AcDbEntity
  8
枠_表
  6
CONTINUOUS
 62
     6
100
AcDbLine
 10
124.9999999999999
 20
238.5
 30
0.0
 11
195.0
 21
238.5
 31
0.0
  0
LINE
  5
EA
330
1F
100
AcDbEntity
  8
枠_表
  6
CONTINUOUS
 62
     6
100
AcDbLine
 10
124.9999999999999
 20
244.0
 30
0.0
 11
195.0
 21
244.0
 31
0.0
  0
LINE
  5
EB
330
1F
100
AcDbEntity
  8
枠_表
  6
CONTINUOUS
 62
     6
100
AcDbLine
 10
124.9999999999999
 20
249.5
 30
0.0
 11
195.0
 21
249.5
 31
0.0
  0
LINE
  5
EC
330
1F
100
AcDbEntity
  8
枠_表
  6
CONTINUOUS
 62
     6
100
AcDbLine
 10
124.9999999999999
 20
255.0
 30
0.0
 11
195.0
 21
255.0
 31
0.0
  0
TEXT
  5
ED
330
1F
100
AcDbEntity
  8
枠_表
  6
CONTINUOUS
 62
     2
100
AcDbText
 10
125.9999999999999
 20
217.25
 30
0.0
 40
4.0
  1
ＮＬ２１１－４２０ＷＹ
 41
0.8211538429443651
  7
EXCADSTD
 72
     5
 11
156.4999998807906
 21
217.25
 31
0.0
100
AcDbText
  0
LINE
  5
EE
330
1F
100
AcDbEntity
  8
枠_表
  6
CONTINUOUS
 62
     6
100
AcDbLine
 10
124.9999999999999
 20
266.0
 30
0.0
 11
195.0
 21
266.0
 31
0.0
  0
TEXT
  5
EF
330
1F
100
AcDbEntity
  8
枠_表
  6
CONTINUOUS
 62
     2
100
AcDbText
 10
156.0000000000001
 20
266.75
 30
0.0
 40
4.0
  1
化粧鏡
 41
1.132352941176471
  7
EXCADSTD
 72
     5
 11
167.0000000000001
 21
266.75
 31
0.0
100
AcDbText
  0
LINE
  5
F0
330
1F
100
AcDbEntity
  8
枠_表
  6
CONTINUOUS
 62
     6
100
AcDbLine
 10
124.9999999999999
 20
271.5
 30
0.0
 11
195.0
 21
271.5
 31
0.0
  0
LINE
  5
F1
330
1F
100
AcDbEntity
  8
枠_表
  6
CONTINUOUS
 62
     6
100
AcDbLine
 10
124.9999999999999
 20
266.0
 30
0.0
 11
124.9999999999999
 21
282.5
 31
0.0
  0
LINE
  5
F2
330
1F
100
AcDbEntity
  8
枠_表
  6
CONTINUOUS
 62
     6
100
AcDbLine
 10
155.0
 20
266.0
 30
0.0
 11
155.0
 21
282.5
 31
0.0
  0
LINE
  5
F3
330
1F
100
AcDbEntity
  8
枠_表
  6
CONTINUOUS
 62
     6
100
AcDbLine
 10
195.0
 20
266.0
 30
0.0
 11
195.0
 21
282.5
 31
0.0
  0
TEXT
  5
F4
330
1F
100
AcDbEntity
  8
枠_表
  6
CONTINUOUS
 62
     2
100
AcDbText
 10
84.09999999999985
 20
28.5
 30
0.0
 40
5.0
  1
600㎜幅
 41
0.8693548387096776
  7
EXCADSTD
 72
     5
 11
103.3499999999999
 21
28.5
 31
0.0
100
AcDbText
  0
TEXT
  5
F5
330
1F
100
AcDbEntity
  8
枠_表
  6
CONTINUOUS
 62
     2
100
AcDbText
 10
84.09999999999985
 20
23.5
 30
0.0
 40
5.0
  1
　洗面化粧ユニット
 41
1.307547169811321
  7
EXCADSTD
 72
     5
 11
133.5999999999999
 21
23.5
 31
0.0
100
AcDbText
  0
TEXT
  5
F6
330
1F
100
AcDbEntity
  8
枠_表
  6
CONTINUOUS
 62
     2
100
AcDbText
 10
125.9999999999999
 20
228.25
 30
0.0
 40
4.0
  1
ＬＵＭＥＨ７０－２０－３２Ｂ
 41
0.6662650569734804
  7
EXCADSTD
 72
     5
 11
157.5999998450278
 21
228.25
 31
0.0
100
AcDbText
  0
TEXT
  5
F7
330
1F
100
AcDbEntity
  8
枠_表
  6
CONTINUOUS
 62
     2
100
AcDbText
 10
125.9999999999999
 20
266.75
 30
0.0
 40
4.0
  1
ＬＵＭ４５１ＣＳ
 41
0.8340425500844383
  7
EXCADSTD
 72
     5
 11
148.3999999165534
 21
266.75
 31
0.0
100
AcDbText
  0
TEXT
  5
F8
330
1F
100
AcDbEntity
  8
枠_表
  6
CONTINUOUS
 62
     2
100
AcDbText
 10
145.0
 20
28.5
 30
0.0
 40
5.0
  1
ＬＵ６０４ＴＳＤＲ型
 41
0.8542372881355933
  7
EXCADSTD
 72
     5
 11
181.0
 21
28.5
 31
0.0
100
AcDbText
  0
TEXT
  5
F9
330
1F
100
AcDbEntity
  8
枠_表
  6
CONTINUOUS
 62
     2
100
AcDbText
 10
145.0
 20
23.5
 30
0.0
 40
5.0
  1
ＬＵＭ４５１ＣＳ
 41
0.8638297872340426
  7
EXCADSTD
 72
     5
 11
174.0
 21
23.5
 31
0.0
100
AcDbText
  0
TEXT
  5
FA
330
1F
100
AcDbEntity
  8
枠_表
  6
CONTINUOUS
 62
     7
100
AcDbText
 10
145.200000166893
 20
14.14999999999998
 30
0.0
 40
7.0
  1
ＬＵ２１７５４０
 41
1.140425524813064
  7
EXCADSTD
 72
     5
 11
198.799999833107
 21
14.14999999999998
 31
0.0
100
AcDbText
  0
TEXT
  5
FB
330
1F
100
AcDbEntity
  8
枠_表
  6
CONTINUOUS
 62
     2
100
AcDbText
 10
63.49999999999939
 20
21.0
 30
0.0
 40
5.0
  1
間瀬
 41
1.22491090909091
  7
EXCADSTD
 72
     5
 11
73.1242999999994
 21
21.0
 31
0.0
100
AcDbText
  0
TEXT
  5
FC
330
1F
100
AcDbEntity
  8
枠_表
  6
CONTINUOUS
 62
     2
100
AcDbText
 10
20.74999999999948
 20
21.0
 30
0.0
 40
5.0
  1
亀井
 41
1.224910909090909
  7
EXCADSTD
 72
     5
 11
30.37429999999948
 21
21.0
 31
0.0
100
AcDbText
  0
TEXT
  5
FD
330
1F
100
AcDbEntity
  8
枠_表
  6
CONTINUOUS
 62
     2
100
AcDbText
 10
18.44999998999997
 20
13.0
 30
0.0
 40
4.0
  1
28
 41
0.454054054054054
  7
EXCADSTD
 72
     5
 11
21.64999998999997
 21
13.0
 31
0.0
100
AcDbText
  0
TEXT
  5
FE
330
1F
100
AcDbEntity
  8
枠_表
  6
CONTINUOUS
 62
     2
100
AcDbText
 10
24.37499999999999
 20
13.0
 30
0.0
 40
4.0
  1
9
 41
0.4798828124999995
  7
EXCADSTD
 72
     5
 11
25.83749999999999
 21
13.0
 31
0.0
100
AcDbText
  0
TEXT
  5
FF
330
1F
100
AcDbEntity
  8
枠_表
  6
CONTINUOUS
 62
     2
100
AcDbText
 10
28.80000000999998
 20
13.0
 30
0.0
 40
4.0
  1
29
 41
0.4666666666666666
  7
EXCADSTD
 72
     5
 11
32.00000000999998
 21
13.0
 31
0.0
100
AcDbText
  0
TEXT
  5
100
330
1F
100
AcDbEntity
  8
枠_表
  6
CONTINUOUS
 62
     2
100
AcDbText
 10
125.9999999999999
 20
272.25
 30
0.0
 40
4.0
  1
ＬＵ６０４ＴＳＤＲ
 41
0.8287735817567354
  7
EXCADSTD
 72
     5
 11
151.0999999046325
 21
272.25
 31
0.0
100
AcDbText
  0
POLYLINE
  5
101
330
1F
100
AcDbEntity
  8
化粧台
  6
CONTINUOUS
 62
     3
100
AcDb2dPolyline
 66
     1
 10
0.0
 20
0.0
 30
0.0
 70
   128
  0
VERTEX
  5
102
330
101
100
AcDbEntity
  8
化粧台
  6
CONTINUOUS
 62
     3
100
AcDbVertex
100
AcDb2dVertex
 10
1601.999999999997
 20
3919.0
 30
0.0
  0
VERTEX
  5
103
330
101
100
AcDbEntity
  8
化粧台
  6
CONTINUOUS
 62
     3
100
AcDbVertex
100
AcDb2dVertex
 10
1624.999999999997
 20
3869.5
 30
0.0
  0
SEQEND
  5
104
330
101
100
AcDbEntity
  8
化粧台
  6
CONTINUOUS
 62
     3
  0
LINE
  5
105
330
1F
100
AcDbEntity
  8
化粧台
  6
CONTINUOUS
 62
     3
100
AcDbLine
 10
1627.763749118669
 20
3881.350574621249
 30
0.0
 11
1601.999999999997
 21
3919.0
 31
0.0
  0
LINE
  5
106
330
1F
100
AcDbEntity
  8
化粧台
  6
CONTINUOUS
 62
     3
100
AcDbLine
 10
1601.999999999997
 20
3919.0
 30
0.0
 11
1614.16048958401
 21
3875.029868170801
 31
0.0
  0
POLYLINE
  5
107
330
1F
100
AcDbEntity
  8
化粧台
  6
CONTINUOUS
 62
     3
100
AcDb2dPolyline
 66
     1
 10
0.0
 20
0.0
 30
0.0
 70
   128
  0
VERTEX
  5
108
330
107
100
AcDbEntity
  8
化粧台
  6
CONTINUOUS
 62
     3
100
AcDbVertex
100
AcDb2dVertex
 10
2450.0
 20
2854.0
 30
0.0
  0
VERTEX
  5
109
330
107
100
AcDbEntity
  8
化粧台
  6
CONTINUOUS
 62
     3
100
AcDbVertex
100
AcDb2dVertex
 10
2404.0
 20
2874.0
 30
0.0
  0
SEQEND
  5
10A
330
107
100
AcDbEntity
  8
化粧台
  6
CONTINUOUS
 62
     3
  0
LINE
  5
10B
330
1F
100
AcDbEntity
  8
化粧台
  6
CONTINUOUS
 62
     3
100
AcDbLine
 10
2405.741401632997
 20
2865.064649591751
 30
0.0
 11
2450.0
 21
2854.0
 31
0.0
  0
LINE
  5
10C
330
1F
100
AcDbEntity
  8
化粧台
  6
CONTINUOUS
 62
     3
100
AcDbLine
 10
2450.0
 20
2854.0
 30
0.0
 11
2411.722293304213
 21
2878.820700435549
 31
0.0
  0
POLYLINE
  5
10D
330
1F
100
AcDbEntity
  8
化粧台
  6
CONTINUOUS
 62
     3
100
AcDb2dPolyline
 66
     1
 10
0.0
 20
0.0
 30
0.0
 70
   128
  0
VERTEX
  5
10E
330
10D
100
AcDbEntity
  8
化粧台
  6
CONTINUOUS
 62
     3
100
AcDbVertex
100
AcDb2dVertex
 10
1947.999999999997
 20
875.0
 30
0.0
  0
VERTEX
  5
10F
330
10D
100
AcDbEntity
  8
化粧台
  6
CONTINUOUS
 62
     3
100
AcDbVertex
100
AcDb2dVertex
 10
1928.999999999997
 20
924.0
 30
0.0
  0
SEQEND
  5
110
330
10D
100
AcDbEntity
  8
化粧台
  6
CONTINUOUS
 62
     3
  0
LINE
  5
111
330
1F
100
AcDbEntity
  8
化粧台
  6
CONTINUOUS
 62
     3
100
AcDbLine
 10
1924.738536730782
 20
914.2447999940749
 30
0.0
 11
1947.999999999997
 21
875.0
 31
0.0
  0
LINE
  5
112
330
1F
100
AcDbEntity
  8
化粧台
  6
CONTINUOUS
 62
     3
100
AcDbLine
 10
1947.999999999997
 20
875.0
 30
0.0
 11
1938.723956365034
 21
919.667717811438
 31
0.0
  0
LINE
  5
113
330
1F
100
AcDbEntity
  8
化粧台
  6
CONTINUOUS
 62
     2
100
AcDbLine
 10
672.0000000000073
 20
1124.999999999999
 30
0.0
 11
1167.999999999988
 21
1125.0
 31
0.0
  0
LINE
  5
114
330
1F
100
AcDbEntity
  8
化粧台
  6
CONTINUOUS
 62
     2
100
AcDbLine
 10
672.0000000000073
 20
1524.999999999999
 30
0.0
 11
1167.999999999987
 21
1525.000000000001
 31
0.0
  0
LINE
  5
115
330
1F
100
AcDbEntity
  8
化粧台
  6
CONTINUOUS
 62
     2
100
AcDbLine
 10
620.0
 20
1574.999999999999
 30
0.0
 11
1219.999999999997
 21
1574.999999999999
 31
0.0
  0
CIRCLE
  5
116
330
1F
100
AcDbEntity
  8
化粧台
  6
CONTINUOUS
 62
     2
100
AcDbCircle
 10
1087.999999999998
 20
1494.999999999999
 30
0.0
 40
5.0
  0
LINE
  5
117
330
1F
100
AcDbEntity
  8
化粧台
  6
CONTINUOUS
 62
     6
100
AcDbLine
 10
1074.999999999997
 20
1494.999999999999
 30
0.0
 11
1100.999999999997
 21
1494.999999999999
 31
0.0
  0
LINE
  5
118
330
1F
100
AcDbEntity
  8
化粧台
  6
CONTINUOUS
 62
     6
100
AcDbLine
 10
1087.999999999997
 20
1507.999999999999
 30
0.0
 11
1087.999999999997
 21
1481.999999999999
 31
0.0
  0
LINE
  5
119
330
1F
100
AcDbEntity
  8
化粧台
  6
CONTINUOUS
 62
     6
100
AcDbLine
 10
1209.414213562986
 20
1564.999999999999
 30
0.0
 11
1167.999999999987
 21
1523.585786436998
 31
0.0
  0
LINE
  5
11A
330
1F
100
AcDbEntity
  8
化粧台
  6
CONTINUOUS
 62
     6
100
AcDbLine
 10
1217.999999999988
 20
1564.999999999999
 30
0.0
 11
1209.414213562986
 21
1564.999999999999
 31
0.0
  0
LINE
  5
11B
330
1F
100
AcDbEntity
  8
化粧台
  6
CONTINUOUS
 62
     2
100
AcDbLine
 10
1168.000000000305
 20
1524.99999999969
 30
0.0
 11
1209.000000000612
 21
1565.999999999999
 31
0.0
  0
LINE
  5
11C
330
1F
100
AcDbEntity
  8
化粧台
  6
CONTINUOUS
 62
     2
100
AcDbLine
 10
1209.000000000612
 20
1565.999999999999
 30
0.0
 11
1219.999999999997
 21
1565.999999999999
 31
0.0
  0
LINE
  5
11D
330
1F
100
AcDbEntity
  8
化粧台
  6
CONTINUOUS
 62
     2
100
AcDbLine
 10
1167.999999999987
 20
1524.999999999999
 30
0.0
 11
1167.999999999988
 21
874.9999999999991
 31
0.0
  0
LINE
  5
11E
330
1F
100
AcDbEntity
  8
化粧台
  6
CONTINUOUS
 62
     2
100
AcDbLine
 10
1217.999999999988
 20
1565.999999999999
 30
0.0
 11
1217.99999999999
 21
874.9999999999991
 31
0.0
  0
LINE
  5
11F
330
1F
100
AcDbEntity
  8
化粧台
  6
CONTINUOUS
 62
     2
100
AcDbLine
 10
1167.999999999988
 20
874.9999999999991
 30
0.0
 11
1217.999999999988
 21
874.9999999999991
 31
0.0
  0
LINE
  5
120
330
1F
100
AcDbEntity
  8
化粧台
  6
CONTINUOUS
 62
     2
100
AcDbLine
 10
1219.999999999997
 20
1574.999999999999
 30
0.0
 11
1219.999999999997
 21
1565.999999999999
 31
0.0
  0
CIRCLE
  5
121
330
1F
100
AcDbEntity
  8
化粧台
  6
CONTINUOUS
 62
     2
100
AcDbCircle
 10
752.0
 20
1494.999999999999
 30
0.0
 40
5.0
  0
LINE
  5
122
330
1F
100
AcDbEntity
  8
化粧台
  6
CONTINUOUS
 62
     6
100
AcDbLine
 10
764.9999999999991
 20
1494.999999999999
 30
0.0
 11
738.9999999999991
 21
1494.999999999999
 31
0.0
  0
LINE
  5
123
330
1F
100
AcDbEntity
  8
化粧台
  6
CONTINUOUS
 62
     6
100
AcDbLine
 10
752.0000000000009
 20
1507.999999999999
 30
0.0
 11
752.0000000000009
 21
1481.999999999999
 31
0.0
  0
LINE
  5
124
330
1F
100
AcDbEntity
  8
化粧台
  6
CONTINUOUS
 62
     6
100
AcDbLine
 10
630.5857864370082
 20
1564.999999999999
 30
0.0
 11
622.0000000000073
 21
1564.999999999999
 31
0.0
  0
LINE
  5
125
330
1F
100
AcDbEntity
  8
化粧台
  6
CONTINUOUS
 62
     6
100
AcDbLine
 10
672.0000000000073
 20
1523.585786436999
 30
0.0
 11
630.5857864370082
 21
1564.999999999999
 31
0.0
  0
LINE
  5
126
330
1F
100
AcDbEntity
  8
化粧台
  6
CONTINUOUS
 62
     2
100
AcDbLine
 10
671.9999999996908
 20
1524.99999999969
 30
0.0
 11
630.9999999993815
 21
1565.999999999999
 31
0.0
  0
LINE
  5
127
330
1F
100
AcDbEntity
  8
化粧台
  6
CONTINUOUS
 62
     2
100
AcDbLine
 10
630.9999999993815
 20
1565.999999999999
 30
0.0
 11
620.0
 21
1565.999999999999
 31
0.0
  0
LINE
  5
128
330
1F
100
AcDbEntity
  8
化粧台
  6
CONTINUOUS
 62
     2
100
AcDbLine
 10
672.0000000000073
 20
1524.999999999999
 30
0.0
 11
672.0000000000073
 21
874.9999999999991
 31
0.0
  0
LINE
  5
129
330
1F
100
AcDbEntity
  8
化粧台
  6
CONTINUOUS
 62
     2
100
AcDbLine
 10
622.0000000000073
 20
1565.999999999999
 30
0.0
 11
622.0000000000073
 21
874.9999999999991
 31
0.0
  0
LINE
  5
12A
330
1F
100
AcDbEntity
  8
化粧台
  6
CONTINUOUS
 62
     2
100
AcDbLine
 10
672.0000000000073
 20
874.9999999999991
 30
0.0
 11
622.0000000000073
 21
874.9999999999991
 31
0.0
  0
LINE
  5
12B
330
1F
100
AcDbEntity
  8
化粧台
  6
CONTINUOUS
 62
     2
100
AcDbLine
 10
620.0
 20
1574.999999999999
 30
0.0
 11
620.0
 21
1565.999999999999
 31
0.0
  0
LINE
  5
12C
330
1F
100
AcDbEntity
  8
化粧台
  6
EXLTYPE3
 62
     6
100
AcDbLine
 10
2191.999999999982
 20
1585.0
 30
0.0
 11
2191.999999999982
 21
1332.000000000001
 31
0.0
  0
LINE
  5
12D
330
1F
100
AcDbEntity
  8
化粧台
  6
EXLTYPE2
 62
     6
100
AcDbLine
 10
2019.999999999997
 20
1524.9999999994
 30
0.0
 11
2450.000000000002
 21
1524.9999999994
 31
0.0
  0
LINE
  5
12E
330
1F
100
AcDbEntity
  8
化粧台
  6
CONTINUOUS
 62
     2
100
AcDbLine
 10
2450.000000000002
 20
1575.0
 30
0.0
 11
2019.999999999997
 21
1575.0
 31
0.0
  0
LINE
  5
12F
330
1F
100
AcDbEntity
  8
化粧台
  6
CONTINUOUS
 62
     2
100
AcDbLine
 10
2019.999999999998
 20
875.0
 30
0.0
 11
2450.0
 21
875.0
 31
0.0
  0
LINE
  5
130
330
1F
100
AcDbEntity
  8
化粧台
  6
CONTINUOUS
 62
     2
100
AcDbLine
 10
2019.999999999998
 20
1575.0
 30
0.0
 11
2019.999999999998
 21
875.0
 31
0.0
  0
LINE
  5
131
330
1F
100
AcDbEntity
  8
化粧台
  6
CONTINUOUS
 62
     6
100
AcDbLine
 10
2448.500000000004
 20
1375.5
 30
0.0
 11
2473.5
 21
1375.5
 31
0.0
  0
LINE
  5
132
330
1F
100
AcDbEntity
  8
化粧台
  6
CONTINUOUS
 62
     6
100
AcDbLine
 10
2473.5
 20
1324.5
 30
0.0
 11
2473.5
 21
1375.5
 31
0.0
  0
LINE
  5
133
330
1F
100
AcDbEntity
  8
化粧台
  6
CONTINUOUS
 62
     6
100
AcDbLine
 10
2448.500000000004
 20
1324.5
 30
0.0
 11
2473.5
 21
1324.5
 31
0.0
  0
LINE
  5
134
330
1F
100
AcDbEntity
  8
化粧台
  6
EXLTYPE2
 62
     6
100
AcDbLine
 10
2431.4
 20
1124.9999999994
 30
0.0
 11
2448.9
 21
1124.9999999994
 31
0.0
  0
LINE
  5
135
330
1F
100
AcDbEntity
  8
化粧台
  6
EXLTYPE2
 62
     6
100
AcDbLine
 10
2431.4
 20
1524.9999999992
 30
0.0
 11
2431.4
 21
1124.9999999994
 31
0.0
  0
LINE
  5
136
330
1F
100
AcDbEntity
  8
化粧台
  6
EXLTYPE3
 62
     6
100
AcDbLine
 10
2483.5
 20
1350.0
 30
0.0
 11
2306.0
 21
1350.0
 31
0.0
  0
ARC
  5
137
330
1F
100
AcDbEntity
  8
化粧台
  6
EXLTYPE2
 62
     6
100
AcDbCircle
 10
2254.0
 20
1304.99999999995
 30
0.0
 40
10.0
100
AcDbArc
 50
143.1301023541561
 51
216.8698976458443
  0
ARC
  5
138
330
1F
100
AcDbEntity
  8
化粧台
  6
EXLTYPE2
 62
     6
100
AcDbCircle
 10
2282.0
 20
1304.99999999995
 30
0.0
 40
10.0
100
AcDbArc
 50
323.1301023541562
 51
36.869897645844
  0
LINE
  5
139
330
1F
100
AcDbEntity
  8
化粧台
  6
EXLTYPE2
 62
     6
100
AcDbLine
 10
2246.0
 20
1298.999999999949
 30
0.0
 11
2290.0
 21
1298.999999999949
 31
0.0
  0
LINE
  5
13A
330
1F
100
AcDbEntity
  8
化粧台
  6
EXLTYPE2
 62
     6
100
AcDbLine
 10
2246.0
 20
1310.99999999995
 30
0.0
 11
2290.0
 21
1310.99999999995
 31
0.0
  0
ELLIPSE
  5
13B
330
1F
100
AcDbEntity
  8
化粧台
  6
EXLTYPE2
 62
     6
100
AcDbEllipse
 10
2286.64343196472
 20
1304.99999999995
 30
0.0
 11
3.673969509765456E-16
 21
6.000047544032152
 31
0.0
210
0.0
220
0.0
230
1.0
 40
0.8927542650237573
 41
0.0
 42
6.283185307179586
  0
ELLIPSE
  5
13C
330
1F
100
AcDbEntity
  8
化粧台
  6
EXLTYPE2
 62
     6
100
AcDbEllipse
 10
2268.0
 20
1304.99999999995
 30
0.0
 11
10.66536450385001
 21
0.0
 31
0.0
210
0.0
220
0.0
230
1.0
 40
0.5625686771262349
 41
0.0
 42
6.283185307179586
  0
ELLIPSE
  5
13D
330
1F
100
AcDbEntity
  8
化粧台
  6
EXLTYPE2
 62
     6
100
AcDbEllipse
 10
2249.356568035281
 20
1304.99999999995
 30
0.0
 11
3.673969509765480E-16
 21
6.00004754403219
 31
0.0
210
0.0
220
0.0
230
1.0
 40
0.8927542650237517
 41
0.0
 42
6.283185307179586
  0
LINE
  5
13E
330
1F
100
AcDbEntity
  8
化粧台
  6
EXLTYPE2
 62
     6
100
AcDbLine
 10
2252.0
 20
1298.999999999949
 30
0.0
 11
2252.0
 21
1295.999999999949
 31
0.0
  0
LINE
  5
13F
330
1F
100
AcDbEntity
  8
化粧台
  6
EXLTYPE2
 62
     6
100
AcDbLine
 10
2284.0
 20
1298.999999999949
 30
0.0
 11
2284.0
 21
1295.99999999995
 31
0.0
  0
LINE
  5
140
330
1F
100
AcDbEntity
  8
化粧台
  6
EXLTYPE2
 62
     6
100
AcDbLine
 10
2306.000000000002
 20
1334.000000000002
 30
0.0
 11
2389.900000000002
 21
1334.000000000002
 31
0.0
  0
LINE
  5
141
330
1F
100
AcDbEntity
  8
化粧台
  6
EXLTYPE2
 62
     6
100
AcDbLine
 10
2306.0
 20
1366.000000000002
 30
0.0
 11
2389.900000000002
 21
1366.000000000002
 31
0.0
  0
LINE
  5
142
330
1F
100
AcDbEntity
  8
化粧台
  6
EXLTYPE2
 62
     6
100
AcDbLine
 10
2443.5
 20
1330.000000000002
 30
0.0
 11
2446.500000000004
 21
1330.000000000002
 31
0.0
  0
LINE
  5
143
330
1F
100
AcDbEntity
  8
化粧台
  6
EXLTYPE2
 62
     6
100
AcDbLine
 10
2443.5
 20
1370.000000000002
 30
0.0
 11
2446.500000000004
 21
1370.000000000002
 31
0.0
  0
LINE
  5
144
330
1F
100
AcDbEntity
  8
化粧台
  6
EXLTYPE2
 62
     6
100
AcDbLine
 10
2446.500000000004
 20
1380.0
 30
0.0
 11
2448.5
 21
1380.0
 31
0.0
  0
LINE
  5
145
330
1F
100
AcDbEntity
  8
化粧台
  6
EXLTYPE2
 62
     6
100
AcDbLine
 10
2446.500000000004
 20
1320.0
 30
0.0
 11
2448.5
 21
1320.0
 31
0.0
  0
LINE
  5
146
330
1F
100
AcDbEntity
  8
化粧台
  6
EXLTYPE2
 62
     6
100
AcDbLine
 10
2446.500000000004
 20
1320.0
 30
0.0
 11
2446.500000000004
 21
1380.0
 31
0.0
  0
LINE
  5
147
330
1F
100
AcDbEntity
  8
化粧台
  6
EXLTYPE2
 62
     6
100
AcDbLine
 10
2448.500000000004
 20
1320.0
 30
0.0
 11
2448.500000000004
 21
1380.0
 31
0.0
  0
LINE
  5
148
330
1F
100
AcDbEntity
  8
化粧台
  6
EXLTYPE2
 62
     6
100
AcDbLine
 10
2443.5
 20
1328.0
 30
0.0
 11
2443.5
 21
1372.0
 31
0.0
  0
LINE
  5
149
330
1F
100
AcDbEntity
  8
化粧台
  6
EXLTYPE2
 62
     6
100
AcDbLine
 10
2431.5
 20
1328.0
 30
0.0
 11
2431.5
 21
1372.0
 31
0.0
  0
ELLIPSE
  5
14A
330
1F
100
AcDbEntity
  8
化粧台
  6
EXLTYPE2
 62
     6
100
AcDbEllipse
 10
2437.5
 20
1331.35656803528
 30
0.0
 11
-6.00004754403219
 21
-4.594318843831032E-15
 31
0.0
210
0.0
220
0.0
230
1.0
 40
0.8927542650237517
 41
0.0
 42
6.283185307179586
  0
ELLIPSE
  5
14B
330
1F
100
AcDbEntity
  8
化粧台
  6
EXLTYPE2
 62
     6
100
AcDbEllipse
 10
2437.5
 20
1350.0
 30
0.0
 11
-6.451494717847500E-15
 21
10.66536450385001
 31
0.0
210
0.0
220
0.0
230
1.0
 40
0.5625686771262349
 41
0.0
 42
6.283185307179586
  0
ELLIPSE
  5
14C
330
1F
100
AcDbEntity
  8
化粧台
  6
EXLTYPE2
 62
     6
100
AcDbEllipse
 10
2437.5
 20
1368.64343196472
 30
0.0
 11
-6.000047544032152
 21
-4.594318843831003E-15
 31
0.0
210
0.0
220
0.0
230
1.0
 40
0.8927542650237573
 41
0.0
 42
6.283185307179586
  0
ARC
  5
14D
330
1F
100
AcDbEntity
  8
化粧台
  6
EXLTYPE2
 62
     6
100
AcDbCircle
 10
2437.5
 20
1364.0
 30
0.0
 40
10.0
100
AcDbArc
 50
53.13010235415626
 51
126.869897645844
  0
ARC
  5
14E
330
1F
100
AcDbEntity
  8
化粧台
  6
EXLTYPE2
 62
     6
100
AcDbCircle
 10
2437.5
 20
1336.0
 30
0.0
 40
10.0
100
AcDbArc
 50
233.1301023541561
 51
306.8698976458444
  0
LINE
  5
14F
330
1F
100
AcDbEntity
  8
化粧台
  6
EXLTYPE2
 62
     6
100
AcDbLine
 10
2400.902990000001
 20
1317.000000000001
 30
0.0
 11
2429.900000000002
 21
1317.000000000001
 31
0.0
  0
LINE
  5
150
330
1F
100
AcDbEntity
  8
化粧台
  6
EXLTYPE2
 62
     6
100
AcDbLine
 10
2400.902990000001
 20
1383.000000000001
 30
0.0
 11
2429.900000000002
 21
1383.000000000001
 31
0.0
  0
LINE
  5
151
330
1F
100
AcDbEntity
  8
化粧台
  6
EXLTYPE2
 62
     6
100
AcDbLine
 10
2429.900000000002
 20
1383.000000000001
 30
0.0
 11
2429.900000000002
 21
1317.000000000001
 31
0.0
  0
ARC
  5
152
330
1F
100
AcDbEntity
  8
化粧台
  6
EXLTYPE2
 62
     6
100
AcDbCircle
 10
2400.902990000001
 20
1328.002992000001
 30
0.0
 40
11.002992
100
AcDbArc
 50
180.0000000000002
 51
270.0000000000002
  0
ARC
  5
153
330
1F
100
AcDbEntity
  8
化粧台
  6
EXLTYPE2
 62
     6
100
AcDbCircle
 10
2400.902990000001
 20
1371.997008
 30
0.0
 40
11.002992
100
AcDbArc
 50
90.00000000000009
 51
180.0000000000002
  0
LINE
  5
154
330
1F
100
AcDbEntity
  8
化粧台
  6
EXLTYPE2
 62
     6
100
AcDbLine
 10
2389.900000000002
 20
1371.997008
 30
0.0
 11
2389.900000000002
 21
1328.002992000001
 31
0.0
  0
ARC
  5
155
330
1F
100
AcDbEntity
  8
化粧台
  6
EXLTYPE2
 62
     6
100
AcDbCircle
 10
2306.000000000002
 20
1311.999999999949
 30
0.0
 40
22.00000000000069
100
AcDbArc
 50
90.00000000000004
 51
182.6052512650556
  0
ARC
  5
156
330
1F
100
AcDbEntity
  8
化粧台
  6
EXLTYPE2
 62
     6
100
AcDbCircle
 10
2306.0
 20
1311.999999999948
 30
0.0
 40
54.00000000000068
100
AcDbArc
 50
90.00000000000004
 51
181.0610936076217
  0
ARC
  5
157
330
1F
100
AcDbEntity
  8
化粧台
  6
EXLTYPE2
 62
     6
100
AcDbCircle
 10
2178.0
 20
1387.99999999995
 30
0.0
 40
10.0
100
AcDbArc
 50
143.1301023541561
 51
216.8698976458443
  0
ARC
  5
158
330
1F
100
AcDbEntity
  8
化粧台
  6
EXLTYPE2
 62
     6
100
AcDbCircle
 10
2206.0
 20
1387.99999999995
 30
0.0
 40
10.0
100
AcDbArc
 50
323.1301023541562
 51
36.869897645844
  0
LINE
  5
159
330
1F
100
AcDbEntity
  8
化粧台
  6
EXLTYPE2
 62
     6
100
AcDbLine
 10
2170.0
 20
1381.99999999995
 30
0.0
 11
2214.0
 21
1381.99999999995
 31
0.0
  0
ELLIPSE
  5
15A
330
1F
100
AcDbEntity
  8
化粧台
  6
EXLTYPE2
 62
     6
100
AcDbEllipse
 10
2210.64343196472
 20
1387.99999999995
 30
0.0
 11
3.673969509765456E-16
 21
6.000047544032152
 31
0.0
210
0.0
220
0.0
230
1.0
 40
0.8927542650237573
 41
0.0
 42
6.283185307179586
  0
ELLIPSE
  5
15B
330
1F
100
AcDbEntity
  8
化粧台
  6
EXLTYPE2
 62
     6
100
AcDbEllipse
 10
2192.0
 20
1387.99999999995
 30
0.0
 11
10.66536450385001
 21
0.0
 31
0.0
210
0.0
220
0.0
230
1.0
 40
0.5625686771262349
 41
0.0
 42
6.283185307179586
  0
ELLIPSE
  5
15C
330
1F
100
AcDbEntity
  8
化粧台
  6
EXLTYPE2
 62
     6
100
AcDbEllipse
 10
2173.356568035281
 20
1387.99999999995
 30
0.0
 11
3.673969509765480E-16
 21
6.00004754403219
 31
0.0
210
0.0
220
0.0
230
1.0
 40
0.8927542650237517
 41
0.0
 42
6.283185307179586
  0
LINE
  5
15D
330
1F
100
AcDbEntity
  8
化粧台
  6
EXLTYPE2
 62
     6
100
AcDbLine
 10
2175.25
 20
1381.99999999995
 30
0.0
 11
2175.25
 21
1332.774886499951
 31
0.0
  0
LINE
  5
15E
330
1F
100
AcDbEntity
  8
化粧台
  6
EXLTYPE2
 62
     6
100
AcDbLine
 10
2208.749999999999
 20
1381.99999999995
 30
0.0
 11
2208.749999999999
 21
1332.774886499951
 31
0.0
  0
LINE
  5
15F
330
1F
100
AcDbEntity
  8
化粧台
  6
EXLTYPE2
 62
     6
100
AcDbLine
 10
2208.750000000031
 20
1332.77488649992
 30
0.0
 11
2208.0
 21
1332.024886499889
 31
0.0
  0
LINE
  5
160
330
1F
100
AcDbEntity
  8
化粧台
  6
EXLTYPE2
 62
     6
100
AcDbLine
 10
2175.250000000013
 20
1332.774886499962
 30
0.0
 11
2176.0
 21
1332.024886499973
 31
0.0
  0
LINE
  5
161
330
1F
100
AcDbEntity
  8
化粧台
  6
EXLTYPE2
 62
     6
100
AcDbLine
 10
2176.0
 20
1332.399886499969
 30
0.0
 11
2208.0
 21
1332.399886499969
 31
0.0
  0
ARC
  5
162
330
1F
100
AcDbEntity
  8
化粧台
  6
EXLTYPE2
 62
     6
100
AcDbCircle
 10
2230.0
 20
1295.99999999995
 30
0.0
 40
54.00000000000048
100
AcDbArc
 50
179.9999999999998
 51
0.0
  0
ARC
  5
163
330
1F
100
AcDbEntity
  8
化粧台
  6
EXLTYPE2
 62
     6
100
AcDbCircle
 10
2230.0
 20
1295.99999999995
 30
0.0
 40
21.99999999999954
100
AcDbArc
 50
179.9999999999995
 51
0.0
  0
LINE
  5
164
330
1F
100
AcDbEntity
  8
化粧台
  6
EXLTYPE2
 62
     6
100
AcDbLine
 10
2208.0
 20
1332.024886499889
 30
0.0
 11
2208.0
 21
1295.999999999949
 31
0.0
  0
LINE
  5
165
330
1F
100
AcDbEntity
  8
化粧台
  6
EXLTYPE2
 62
     6
100
AcDbLine
 10
2176.0
 20
1332.024886499969
 30
0.0
 11
2176.0
 21
1295.999999999951
 31
0.0
  0
LINE
  5
166
330
1F
100
AcDbEntity
  8
化粧台
  6
EXLTYPE2
 62
     6
100
AcDbLine
 10
2170.0
 20
1393.99999999995
 30
0.0
 11
2214.0
 21
1393.99999999995
 31
0.0
  0
LINE
  5
167
330
1F
100
AcDbEntity
  8
化粧台
  6
EXLTYPE4
 62
     6
100
AcDbLine
 10
2380.5
 20
1075.0
 30
0.0
 11
2380.5
 21
867.0
 31
0.0
  0
LINE
  5
168
330
1F
100
AcDbEntity
  8
化粧台
  6
EXLTYPE4
 62
     6
100
AcDbLine
 10
2359.5
 20
1075.0
 30
0.0
 11
2359.5
 21
867.0
 31
0.0
  0
LINE
  5
169
330
1F
100
AcDbEntity
  8
化粧台
  6
EXLTYPE3
 62
     6
100
AcDbLine
 10
2370.0
 20
1085.0
 30
0.0
 11
2370.0
 21
857.0
 31
0.0
  0
LINE
  5
16A
330
1F
100
AcDbEntity
  8
化粧台
  6
EXLTYPE3
 62
     6
100
AcDbLine
 10
2320.0
 20
1085.0
 30
0.0
 11
2320.0
 21
835.0
 31
0.0
  0
LINE
  5
16B
330
1F
100
AcDbEntity
  8
化粧台
  6
EXLTYPE4
 62
     6
100
AcDbLine
 10
2304.000000000002
 20
1075.0
 30
0.0
 11
2304.000000000002
 21
845.0
 31
0.0
  0
LINE
  5
16C
330
1F
100
AcDbEntity
  8
化粧台
  6
EXLTYPE4
 62
     6
100
AcDbLine
 10
2336.000000000002
 20
1075.0
 30
0.0
 11
2336.000000000002
 21
845.0
 31
0.0
  0
LINE
  5
16D
330
1F
100
AcDbEntity
  8
化粧台
  6
CONTINUOUS
 62
     6
100
AcDbLine
 10
2304.000000000002
 20
845.0
 30
0.0
 11
2336.000000000002
 21
845.0
 31
0.0
  0
LINE
  5
16E
330
1F
100
AcDbEntity
  8
化粧台
  6
CONTINUOUS
 62
     6
100
AcDbLine
 10
2380.5
 20
867.0
 30
0.0
 11
2359.5
 21
867.0
 31
0.0
  0
LINE
  5
16F
330
1F
100
AcDbEntity
  8
化粧台
  6
EXLTYPE3
 62
     6
100
AcDbLine
 10
2317.5
 20
1420.0
 30
0.0
 11
2488.499999999999
 21
1420.0
 31
0.0
  0
LINE
  5
170
330
1F
100
AcDbEntity
  8
化粧台
  6
EXLTYPE4
 62
     6
100
AcDbLine
 10
2327.5
 20
1404.000000000002
 30
0.0
 11
2478.499999999999
 21
1404.000000000002
 31
0.0
  0
LINE
  5
171
330
1F
100
AcDbEntity
  8
化粧台
  6
EXLTYPE4
 62
     6
100
AcDbLine
 10
2327.5
 20
1436.000000000001
 30
0.0
 11
2478.499999999999
 21
1436.0
 31
0.0
  0
LINE
  5
172
330
1F
100
AcDbEntity
  8
化粧台
  6
CONTINUOUS
 62
     6
100
AcDbLine
 10
2478.5
 20
1404.000000000001
 30
0.0
 11
2478.5
 21
1436.0
 31
0.0
  0
LINE
  5
173
330
1F
100
AcDbEntity
  8
化粧台
  6
EXLTYPE2
 62
     6
100
AcDbLine
 10
2247.500000000002
 20
1525.5
 30
0.0
 11
2242.500000000002
 21
1525.5
 31
0.0
  0
LINE
  5
174
330
1F
100
AcDbEntity
  8
化粧台
  6
EXLTYPE2
 62
     6
100
AcDbLine
 10
2176.000000000002
 20
1518.0
 30
0.0
 11
2172.000000000002
 21
1520.0
 31
0.0
  0
LINE
  5
175
330
1F
100
AcDbEntity
  8
化粧台
  6
EXLTYPE2
 62
     6
100
AcDbLine
 10
2208.000000000002
 20
1518.0
 30
0.0
 11
2212.000000000002
 21
1520.0
 31
0.0
  0
LINE
  5
176
330
1F
100
AcDbEntity
  8
化粧台
  6
EXLTYPE2
 62
     6
100
AcDbLine
 10
2208.000000000002
 20
1518.0
 30
0.0
 11
2176.000000000002
 21
1518.0
 31
0.0
  0
LINE
  5
177
330
1F
100
AcDbEntity
  8
化粧台
  6
EXLTYPE2
 62
     6
100
AcDbLine
 10
2212.000000000002
 20
1520.0
 30
0.0
 11
2172.000000000002
 21
1520.0
 31
0.0
  0
LINE
  5
178
330
1F
100
AcDbEntity
  8
化粧台
  6
EXLTYPE2
 62
     6
100
AcDbLine
 10
2212.000000000002
 20
1523.821608
 30
0.0
 11
2212.000000000002
 21
1520.0
 31
0.0
  0
ARC
  5
179
330
1F
100
AcDbEntity
  8
化粧台
  6
EXLTYPE2
 62
     6
100
AcDbCircle
 10
2215.000000000002
 20
1523.821608
 30
0.0
 40
3.000000000000003
100
AcDbArc
 50
96.48307400000006
 51
180.0
  0
LINE
  5
17A
330
1F
100
AcDbEntity
  8
化粧台
  6
EXLTYPE2
 62
     6
100
AcDbLine
 10
2214.661264000004
 20
1526.802424
 30
0.0
 11
2234.000000000002
 21
1529.0
 31
0.0
  0
LINE
  5
17B
330
1F
100
AcDbEntity
  8
化粧台
  6
EXLTYPE2
 62
     6
100
AcDbLine
 10
2263.000000000002
 20
1526.0
 30
0.0
 11
2254.000000000002
 21
1526.0
 31
0.0
  0
ARC
  5
17C
330
1F
100
AcDbEntity
  8
化粧台
  6
EXLTYPE2
 62
     6
100
AcDbCircle
 10
2263.000000000002
 20
1529.0
 30
0.0
 40
3.000000000000003
100
AcDbArc
 50
270.0000000000002
 51
0.0
  0
LINE
  5
17D
330
1F
100
AcDbEntity
  8
化粧台
  6
EXLTYPE2
 62
     6
100
AcDbLine
 10
2254.000000000002
 20
1525.0
 30
0.0
 11
2247.500000000002
 21
1525.0
 31
0.0
  0
LINE
  5
17E
330
1F
100
AcDbEntity
  8
化粧台
  6
EXLTYPE2
 62
     6
100
AcDbLine
 10
2242.500000000002
 20
1526.5
 30
0.0
 11
2234.000000000002
 21
1526.5
 31
0.0
  0
LINE
  5
17F
330
1F
100
AcDbEntity
  8
化粧台
  6
EXLTYPE2
 62
     6
100
AcDbLine
 10
2207.875000000002
 20
1518.0
 30
0.0
 11
2207.875000000002
 21
1393.99999999995
 31
0.0
  0
LINE
  5
180
330
1F
100
AcDbEntity
  8
化粧台
  6
EXLTYPE2
 62
     6
100
AcDbLine
 10
2176.125000000002
 20
1518.0
 30
0.0
 11
2176.125000000002
 21
1393.99999999995
 31
0.0
  0
LINE
  5
181
330
1F
100
AcDbEntity
  8
化粧台
  6
EXLTYPE2
 62
     6
100
AcDbLine
 10
2219.500000000004
 20
1575.0
 30
0.0
 11
2219.500000000004
 21
1573.33333333333
 31
0.0
  0
LINE
  5
182
330
1F
100
AcDbEntity
  8
化粧台
  6
EXLTYPE2
 62
     6
100
AcDbLine
 10
2164.500000000004
 20
1575.0
 30
0.0
 11
2164.500000000004
 21
1573.33333333333
 31
0.0
  0
LINE
  5
183
330
1F
100
AcDbEntity
  8
化粧台
  6
EXLTYPE2
 62
     6
100
AcDbLine
 10
2371.5
 20
1444.651716065571
 30
0.0
 11
2347.714659731244
 21
1575.0
 31
0.0
  0
LINE
  5
184
330
1F
100
AcDbEntity
  8
化粧台
  6
EXLTYPE2
 62
     6
100
AcDbLine
 10
2334.5
 20
1575.0
 30
0.0
 11
2358.5
 21
1443.475339050099
 31
0.0
  0
LINE
  5
185
330
1F
100
AcDbEntity
  8
化粧台
  6
EXLTYPE2
 62
     6
100
AcDbLine
 10
2327.630271252505
 20
1575.0
 30
0.0
 11
2308.325036024313
 21
1437.636113773615
 31
0.0
  0
LINE
  5
186
330
1F
100
AcDbEntity
  8
化粧台
  6
EXLTYPE2
 62
     6
100
AcDbLine
 10
2314.266644436768
 20
1436.801075167856
 30
0.0
 11
2333.68923668762
 21
1575.0
 31
0.0
  0
LINE
  5
187
330
1F
100
AcDbEntity
  8
化粧台
  6
EXLTYPE2
 62
     6
100
AcDbLine
 10
2341.981486687694
 20
1534.0
 30
0.0
 11
2266.000000000002
 21
1534.0
 31
0.0
  0
LINE
  5
188
330
1F
100
AcDbEntity
  8
化粧台
  6
EXLTYPE2
 62
     6
100
AcDbLine
 10
2387.000000000002
 20
1534.0
 30
0.0
 11
2355.196146418936
 21
1534.0
 31
0.0
  0
LINE
  5
189
330
1F
100
AcDbEntity
  8
化粧台
  6
EXLTYPE2
 62
     6
100
AcDbLine
 10
2340.8866349773
 20
1540.0
 30
0.0
 11
2266.000000000002
 21
1540.0
 31
0.0
  0
LINE
  5
18A
330
1F
100
AcDbEntity
  8
化粧台
  6
EXLTYPE2
 62
     6
100
AcDbLine
 10
2387.000000000002
 20
1540.0
 30
0.0
 11
2354.101294708542
 21
1540.0
 31
0.0
  0
POLYLINE
  5
18B
330
1F
100
AcDbEntity
  8
化粧台
  6
EXLTYPE2
 62
     6
100
AcDb2dPolyline
 66
     1
 10
0.0
 20
0.0
 30
0.0
 70
   128
  0
VERTEX
  5
18C
330
18B
100
AcDbEntity
  8
化粧台
  6
EXLTYPE2
 62
     6
100
AcDbVertex
100
AcDb2dVertex
 10
2170.584808000004
 20
1561.000204
 30
0.0
  0
VERTEX
  5
18D
330
18B
100
AcDbEntity
  8
化粧台
  6
EXLTYPE2
 62
     6
100
AcDbVertex
100
AcDb2dVertex
 10
2170.596946000004
 20
1560.734399999999
 30
0.0
  0
VERTEX
  5
18E
330
18B
100
AcDbEntity
  8
化粧台
  6
EXLTYPE2
 62
     6
100
AcDbVertex
100
AcDb2dVertex
 10
2170.631740000003
 20
1560.476546
 30
0.0
  0
VERTEX
  5
18F
330
18B
100
AcDbEntity
  8
化粧台
  6
EXLTYPE2
 62
     6
100
AcDbVertex
100
AcDb2dVertex
 10
2170.686292000004
 20
1560.23489
 30
0.0
  0
VERTEX
  5
190
330
18B
100
AcDbEntity
  8
化粧台
  6
EXLTYPE2
 62
     6
100
AcDbVertex
100
AcDb2dVertex
 10
2170.757064000004
 20
1560.010399999999
 30
0.0
  0
VERTEX
  5
191
330
18B
100
AcDbEntity
  8
化粧台
  6
EXLTYPE2
 62
     6
100
AcDbVertex
100
AcDb2dVertex
 10
2170.852764000003
 20
1559.77821
 30
0.0
  0
VERTEX
  5
192
330
18B
100
AcDbEntity
  8
化粧台
  6
EXLTYPE2
 62
     6
100
AcDbVertex
100
AcDb2dVertex
 10
2170.961394000004
 20
1559.568298
 30
0.0
  0
VERTEX
  5
193
330
18B
100
AcDbEntity
  8
化粧台
  6
EXLTYPE2
 62
     6
100
AcDbVertex
100
AcDb2dVertex
 10
2171.079238000004
 20
1559.380126
 30
0.0
  0
VERTEX
  5
194
330
18B
100
AcDbEntity
  8
化粧台
  6
EXLTYPE2
 62
     6
100
AcDbVertex
100
AcDb2dVertex
 10
2171.308210000003
 20
1559.087611999999
 30
0.0
  0
VERTEX
  5
195
330
18B
100
AcDbEntity
  8
化粧台
  6
EXLTYPE2
 62
     6
100
AcDbVertex
100
AcDb2dVertex
 10
2171.552738000004
 20
1558.845890000001
 30
0.0
  0
VERTEX
  5
196
330
18B
100
AcDbEntity
  8
化粧台
  6
EXLTYPE2
 62
     6
100
AcDbVertex
100
AcDb2dVertex
 10
2171.806316000004
 20
1558.646556
 30
0.0
  0
VERTEX
  5
197
330
18B
100
AcDbEntity
  8
化粧台
  6
EXLTYPE2
 62
     6
100
AcDbVertex
100
AcDb2dVertex
 10
2172.197242000004
 20
1558.405189999999
 30
0.0
  0
VERTEX
  5
198
330
18B
100
AcDbEntity
  8
化粧台
  6
EXLTYPE2
 62
     6
100
AcDbVertex
100
AcDb2dVertex
 10
2172.596570000004
 20
1558.220906
 30
0.0
  0
VERTEX
  5
199
330
18B
100
AcDbEntity
  8
化粧台
  6
EXLTYPE2
 62
     6
100
AcDbVertex
100
AcDb2dVertex
 10
2173.002012000003
 20
1558.084806000001
 30
0.0
  0
VERTEX
  5
19A
330
18B
100
AcDbEntity
  8
化粧台
  6
EXLTYPE2
 62
     6
100
AcDbVertex
100
AcDb2dVertex
 10
2173.411284000004
 20
1557.987986
 30
0.0
  0
VERTEX
  5
19B
330
18B
100
AcDbEntity
  8
化粧台
  6
EXLTYPE2
 62
     6
100
AcDbVertex
100
AcDb2dVertex
 10
2173.822104000003
 20
1557.921546
 30
0.0
  0
VERTEX
  5
19C
330
18B
100
AcDbEntity
  8
化粧台
  6
EXLTYPE2
 62
     6
100
AcDbVertex
100
AcDb2dVertex
 10
2174.232184000003
 20
1557.876586
 30
0.0
  0
VERTEX
  5
19D
330
18B
100
AcDbEntity
  8
化粧台
  6
EXLTYPE2
 62
     6
100
AcDbVertex
100
AcDb2dVertex
 10
2174.821524000003
 20
1557.840952
 30
0.0
  0
VERTEX
  5
19E
330
18B
100
AcDbEntity
  8
化粧台
  6
EXLTYPE2
 62
     6
100
AcDbVertex
100
AcDb2dVertex
 10
2175.411268000004
 20
1557.841178000001
 30
0.0
  0
VERTEX
  5
19F
330
18B
100
AcDbEntity
  8
化粧台
  6
EXLTYPE2
 62
     6
100
AcDbVertex
100
AcDb2dVertex
 10
2176.000600000003
 20
1557.877296000001
 30
0.0
  0
VERTEX
  5
1A0
330
18B
100
AcDbEntity
  8
化粧台
  6
EXLTYPE2
 62
     6
100
AcDbVertex
100
AcDb2dVertex
 10
2176.614344000004
 20
1557.95707
 30
0.0
  0
VERTEX
  5
1A1
330
18B
100
AcDbEntity
  8
化粧台
  6
EXLTYPE2
 62
     6
100
AcDbVertex
100
AcDb2dVertex
 10
2177.225340000003
 20
1558.095294000001
 30
0.0
  0
VERTEX
  5
1A2
330
18B
100
AcDbEntity
  8
化粧台
  6
EXLTYPE2
 62
     6
100
AcDbVertex
100
AcDb2dVertex
 10
2177.562402000004
 20
1558.203774
 30
0.0
  0
VERTEX
  5
1A3
330
18B
100
AcDbEntity
  8
化粧台
  6
EXLTYPE2
 62
     6
100
AcDbVertex
100
AcDb2dVertex
 10
2177.897218000004
 20
1558.342581999999
 30
0.0
  0
VERTEX
  5
1A4
330
18B
100
AcDbEntity
  8
化粧台
  6
EXLTYPE2
 62
     6
100
AcDbVertex
100
AcDb2dVertex
 10
2178.226952000003
 20
1558.519844
 30
0.0
  0
VERTEX
  5
1A5
330
18B
100
AcDbEntity
  8
化粧台
  6
EXLTYPE2
 62
     6
100
AcDbVertex
100
AcDb2dVertex
 10
2178.548766000004
 20
1558.743678000001
 30
0.0
  0
VERTEX
  5
1A6
330
18B
100
AcDbEntity
  8
化粧台
  6
EXLTYPE2
 62
     6
100
AcDbVertex
100
AcDb2dVertex
 10
2178.782716000004
 20
1558.948528000001
 30
0.0
  0
VERTEX
  5
1A7
330
18B
100
AcDbEntity
  8
化粧台
  6
EXLTYPE2
 62
     6
100
AcDbVertex
100
AcDb2dVertex
 10
2179.006626000004
 20
1559.193542000001
 30
0.0
  0
VERTEX
  5
1A8
330
18B
100
AcDbEntity
  8
化粧台
  6
EXLTYPE2
 62
     6
100
AcDbVertex
100
AcDb2dVertex
 10
2179.149188000004
 20
1559.385028000001
 30
0.0
  0
VERTEX
  5
1A9
330
18B
100
AcDbEntity
  8
化粧台
  6
EXLTYPE2
 62
     6
100
AcDbVertex
100
AcDb2dVertex
 10
2179.282650000003
 20
1559.601986
 30
0.0
  0
VERTEX
  5
1AA
330
18B
100
AcDbEntity
  8
化粧台
  6
EXLTYPE2
 62
     6
100
AcDbVertex
100
AcDb2dVertex
 10
2179.402790000002
 20
1559.846264
 30
0.0
  0
VERTEX
  5
1AB
330
18B
100
AcDbEntity
  8
化粧台
  6
EXLTYPE2
 62
     6
100
AcDbVertex
100
AcDb2dVertex
 10
2179.494372000003
 20
1560.087092
 30
0.0
  0
VERTEX
  5
1AC
330
18B
100
AcDbEntity
  8
化粧台
  6
EXLTYPE2
 62
     6
100
AcDbVertex
100
AcDb2dVertex
 10
2179.567722000004
 20
1560.351294
 30
0.0
  0
VERTEX
  5
1AD
330
18B
100
AcDbEntity
  8
化粧台
  6
EXLTYPE2
 62
     6
100
AcDbVertex
100
AcDb2dVertex
 10
2179.612842000003
 20
1560.600428
 30
0.0
  0
VERTEX
  5
1AE
330
18B
100
AcDbEntity
  8
化粧台
  6
EXLTYPE2
 62
     6
100
AcDbVertex
100
AcDb2dVertex
 10
2179.636902000004
 20
1560.860774000001
 30
0.0
  0
VERTEX
  5
1AF
330
18B
100
AcDbEntity
  8
化粧台
  6
EXLTYPE2
 62
     6
100
AcDbVertex
100
AcDb2dVertex
 10
2179.640192000003
 20
1561.000204
 30
0.0
  0
VERTEX
  5
1B0
330
18B
100
AcDbEntity
  8
化粧台
  6
EXLTYPE2
 62
     6
100
AcDbVertex
100
AcDb2dVertex
 10
2179.628038000003
 20
1561.265804000001
 30
0.0
  0
VERTEX
  5
1B1
330
18B
100
AcDbEntity
  8
化粧台
  6
EXLTYPE2
 62
     6
100
AcDbVertex
100
AcDb2dVertex
 10
2179.593260000004
 20
1561.52346
 30
0.0
  0
VERTEX
  5
1B2
330
18B
100
AcDbEntity
  8
化粧台
  6
EXLTYPE2
 62
     6
100
AcDbVertex
100
AcDb2dVertex
 10
2179.538708000002
 20
1561.765117999999
 30
0.0
  0
VERTEX
  5
1B3
330
18B
100
AcDbEntity
  8
化粧台
  6
EXLTYPE2
 62
     6
100
AcDbVertex
100
AcDb2dVertex
 10
2179.467936000003
 20
1561.989608
 30
0.0
  0
VERTEX
  5
1B4
330
18B
100
AcDbEntity
  8
化粧台
  6
EXLTYPE2
 62
     6
100
AcDbVertex
100
AcDb2dVertex
 10
2179.372236000003
 20
1562.221798
 30
0.0
  0
VERTEX
  5
1B5
330
18B
100
AcDbEntity
  8
化粧台
  6
EXLTYPE2
 62
     6
100
AcDbVertex
100
AcDb2dVertex
 10
2179.263606000003
 20
1562.431708
 30
0.0
  0
VERTEX
  5
1B6
330
18B
100
AcDbEntity
  8
化粧台
  6
EXLTYPE2
 62
     6
100
AcDbVertex
100
AcDb2dVertex
 10
2179.145762000002
 20
1562.619882000001
 30
0.0
  0
VERTEX
  5
1B7
330
18B
100
AcDbEntity
  8
化粧台
  6
EXLTYPE2
 62
     6
100
AcDbVertex
100
AcDb2dVertex
 10
2178.916790000003
 20
1562.912396
 30
0.0
  0
VERTEX
  5
1B8
330
18B
100
AcDbEntity
  8
化粧台
  6
EXLTYPE2
 62
     6
100
AcDbVertex
100
AcDb2dVertex
 10
2178.672262000002
 20
1563.154116
 30
0.0
  0
VERTEX
  5
1B9
330
18B
100
AcDbEntity
  8
化粧台
  6
EXLTYPE2
 62
     6
100
AcDbVertex
100
AcDb2dVertex
 10
2178.418686000003
 20
1563.353450000001
 30
0.0
  0
VERTEX
  5
1BA
330
18B
100
AcDbEntity
  8
化粧台
  6
EXLTYPE2
 62
     6
100
AcDbVertex
100
AcDb2dVertex
 10
2178.027758000002
 20
1563.594818
 30
0.0
  0
VERTEX
  5
1BB
330
18B
100
AcDbEntity
  8
化粧台
  6
EXLTYPE2
 62
     6
100
AcDbVertex
100
AcDb2dVertex
 10
2177.628430000003
 20
1563.7791
 30
0.0
  0
VERTEX
  5
1BC
330
18B
100
AcDbEntity
  8
化粧台
  6
EXLTYPE2
 62
     6
100
AcDbVertex
100
AcDb2dVertex
 10
2177.222988000004
 20
1563.915202
 30
0.0
  0
VERTEX
  5
1BD
330
18B
100
AcDbEntity
  8
化粧台
  6
EXLTYPE2
 62
     6
100
AcDbVertex
100
AcDb2dVertex
 10
2176.813716000003
 20
1564.012022000001
 30
0.0
  0
VERTEX
  5
1BE
330
18B
100
AcDbEntity
  8
化粧台
  6
EXLTYPE2
 62
     6
100
AcDbVertex
100
AcDb2dVertex
 10
2176.402896000004
 20
1564.078461999999
 30
0.0
  0
VERTEX
  5
1BF
330
18B
100
AcDbEntity
  8
化粧台
  6
EXLTYPE2
 62
     6
100
AcDbVertex
100
AcDb2dVertex
 10
2175.992818000003
 20
1564.123422000001
 30
0.0
  0
VERTEX
  5
1C0
330
18B
100
AcDbEntity
  8
化粧台
  6
EXLTYPE2
 62
     6
100
AcDbVertex
100
AcDb2dVertex
 10
2175.403478000002
 20
1564.159056
 30
0.0
  0
VERTEX
  5
1C1
330
18B
100
AcDbEntity
  8
化粧台
  6
EXLTYPE2
 62
     6
100
AcDbVertex
100
AcDb2dVertex
 10
2174.813732000003
 20
1564.15883
 30
0.0
  0
VERTEX
  5
1C2
330
18B
100
AcDbEntity
  8
化粧台
  6
EXLTYPE2
 62
     6
100
AcDbVertex
100
AcDb2dVertex
 10
2174.224400000003
 20
1564.12271
 30
0.0
  0
VERTEX
  5
1C3
330
18B
100
AcDbEntity
  8
化粧台
  6
EXLTYPE2
 62
     6
100
AcDbVertex
100
AcDb2dVertex
 10
2173.610658000004
 20
1564.042938000001
 30
0.0
  0
VERTEX
  5
1C4
330
18B
100
AcDbEntity
  8
化粧台
  6
EXLTYPE2
 62
     6
100
AcDbVertex
100
AcDb2dVertex
 10
2172.999660000004
 20
1563.904714
 30
0.0
  0
VERTEX
  5
1C5
330
18B
100
AcDbEntity
  8
化粧台
  6
EXLTYPE2
 62
     6
100
AcDbVertex
100
AcDb2dVertex
 10
2172.662598000003
 20
1563.796233999999
 30
0.0
  0
VERTEX
  5
1C6
330
18B
100
AcDbEntity
  8
化粧台
  6
EXLTYPE2
 62
     6
100
AcDbVertex
100
AcDb2dVertex
 10
2172.327782000003
 20
1563.657426
 30
0.0
  0
VERTEX
  5
1C7
330
18B
100
AcDbEntity
  8
化粧台
  6
EXLTYPE2
 62
     6
100
AcDbVertex
100
AcDb2dVertex
 10
2171.998048000004
 20
1563.480164000001
 30
0.0
  0
VERTEX
  5
1C8
330
18B
100
AcDbEntity
  8
化粧台
  6
EXLTYPE2
 62
     6
100
AcDbVertex
100
AcDb2dVertex
 10
2171.676234000003
 20
1563.256327999999
 30
0.0
  0
VERTEX
  5
1C9
330
18B
100
AcDbEntity
  8
化粧台
  6
EXLTYPE2
 62
     6
100
AcDbVertex
100
AcDb2dVertex
 10
2171.442284000003
 20
1563.05148
 30
0.0
  0
VERTEX
  5
1CA
330
18B
100
AcDbEntity
  8
化粧台
  6
EXLTYPE2
 62
     6
100
AcDbVertex
100
AcDb2dVertex
 10
2171.218374000002
 20
1562.806463999999
 30
0.0
  0
VERTEX
  5
1CB
330
18B
100
AcDbEntity
  8
化粧台
  6
EXLTYPE2
 62
     6
100
AcDbVertex
100
AcDb2dVertex
 10
2171.075812000003
 20
1562.61498
 30
0.0
  0
VERTEX
  5
1CC
330
18B
100
AcDbEntity
  8
化粧台
  6
EXLTYPE2
 62
     6
100
AcDbVertex
100
AcDb2dVertex
 10
2170.942350000003
 20
1562.398021999999
 30
0.0
  0
VERTEX
  5
1CD
330
18B
100
AcDbEntity
  8
化粧台
  6
EXLTYPE2
 62
     6
100
AcDbVertex
100
AcDb2dVertex
 10
2170.822210000004
 20
1562.153742
 30
0.0
  0
VERTEX
  5
1CE
330
18B
100
AcDbEntity
  8
化粧台
  6
EXLTYPE2
 62
     6
100
AcDbVertex
100
AcDb2dVertex
 10
2170.730630000004
 20
1561.912915999999
 30
0.0
  0
VERTEX
  5
1CF
330
18B
100
AcDbEntity
  8
化粧台
  6
EXLTYPE2
 62
     6
100
AcDbVertex
100
AcDb2dVertex
 10
2170.657278000003
 20
1561.648714000001
 30
0.0
  0
VERTEX
  5
1D0
330
18B
100
AcDbEntity
  8
化粧台
  6
EXLTYPE2
 62
     6
100
AcDbVertex
100
AcDb2dVertex
 10
2170.612158000004
 20
1561.399579999999
 30
0.0
  0
VERTEX
  5
1D1
330
18B
100
AcDbEntity
  8
化粧台
  6
EXLTYPE2
 62
     6
100
AcDbVertex
100
AcDb2dVertex
 10
2170.588098000002
 20
1561.139234
 30
0.0
  0
VERTEX
  5
1D2
330
18B
100
AcDbEntity
  8
化粧台
  6
EXLTYPE2
 62
     6
100
AcDbVertex
100
AcDb2dVertex
 10
2170.584808000004
 20
1561.000204
 30
0.0
  0
SEQEND
  5
1D3
330
18B
100
AcDbEntity
  8
化粧台
  6
EXLTYPE2
 62
     6
  0
POLYLINE
  5
1D4
330
1F
100
AcDbEntity
  8
化粧台
  6
EXLTYPE2
 62
     6
100
AcDb2dPolyline
 66
     1
 10
0.0
 20
0.0
 30
0.0
 70
   128
  0
VERTEX
  5
1D5
330
1D4
100
AcDbEntity
  8
化粧台
  6
EXLTYPE2
 62
     6
100
AcDbVertex
100
AcDb2dVertex
 10
2191.999996000003
 20
1557.837726
 30
0.0
  0
VERTEX
  5
1D6
330
1D4
100
AcDbEntity
  8
化粧台
  6
EXLTYPE2
 62
     6
100
AcDbVertex
100
AcDb2dVertex
 10
2192.584264000003
 20
1557.84151
 30
0.0
  0
VERTEX
  5
1D7
330
1D4
100
AcDbEntity
  8
化粧台
  6
EXLTYPE2
 62
     6
100
AcDbVertex
100
AcDb2dVertex
 10
2193.168428000003
 20
1557.853598
 30
0.0
  0
VERTEX
  5
1D8
330
1D4
100
AcDbEntity
  8
化粧台
  6
EXLTYPE2
 62
     6
100
AcDbVertex
100
AcDb2dVertex
 10
2193.752438000004
 20
1557.874954000001
 30
0.0
  0
VERTEX
  5
1D9
330
1D4
100
AcDbEntity
  8
化粧台
  6
EXLTYPE2
 62
     6
100
AcDbVertex
100
AcDb2dVertex
 10
2194.335972000003
 20
1557.906714000001
 30
0.0
  0
VERTEX
  5
1DA
330
1D4
100
AcDbEntity
  8
化粧台
  6
EXLTYPE2
 62
     6
100
AcDbVertex
100
AcDb2dVertex
 10
2194.918502000003
 20
1557.94994
 30
0.0
  0
VERTEX
  5
1DB
330
1D4
100
AcDbEntity
  8
化粧台
  6
EXLTYPE2
 62
     6
100
AcDbVertex
100
AcDb2dVertex
 10
2195.499996000003
 20
1558.005332000001
 30
0.0
  0
VERTEX
  5
1DC
330
1D4
100
AcDbEntity
  8
化粧台
  6
EXLTYPE2
 62
     6
100
AcDbVertex
100
AcDb2dVertex
 10
2196.214676000004
 20
1558.092144
 30
0.0
  0
VERTEX
  5
1DD
330
1D4
100
AcDbEntity
  8
化粧台
  6
EXLTYPE2
 62
     6
100
AcDbVertex
100
AcDb2dVertex
 10
2196.927784000004
 20
1558.205857999999
 30
0.0
  0
VERTEX
  5
1DE
330
1D4
100
AcDbEntity
  8
化粧台
  6
EXLTYPE2
 62
     6
100
AcDbVertex
100
AcDb2dVertex
 10
2197.633550000003
 20
1558.355165999999
 30
0.0
  0
VERTEX
  5
1DF
330
1D4
100
AcDbEntity
  8
化粧台
  6
EXLTYPE2
 62
     6
100
AcDbVertex
100
AcDb2dVertex
 10
2198.326208000003
 20
1558.54876
 30
0.0
  0
VERTEX
  5
1E0
330
1D4
100
AcDbEntity
  8
化粧台
  6
EXLTYPE2
 62
     6
100
AcDbVertex
100
AcDb2dVertex
 10
2198.999996000003
 20
1558.795332
 30
0.0
  0
VERTEX
  5
1E1
330
1D4
100
AcDbEntity
  8
化粧台
  6
EXLTYPE2
 62
     6
100
AcDbVertex
100
AcDb2dVertex
 10
2199.441340000003
 20
1558.998572
 30
0.0
  0
VERTEX
  5
1E2
330
1D4
100
AcDbEntity
  8
化粧台
  6
EXLTYPE2
 62
     6
100
AcDbVertex
100
AcDb2dVertex
 10
2199.863524000003
 20
1559.240342000001
 30
0.0
  0
VERTEX
  5
1E3
330
1D4
100
AcDbEntity
  8
化粧台
  6
EXLTYPE2
 62
     6
100
AcDbVertex
100
AcDb2dVertex
 10
2200.254054000003
 20
1559.527066000001
 30
0.0
  0
VERTEX
  5
1E4
330
1D4
100
AcDbEntity
  8
化粧台
  6
EXLTYPE2
 62
     6
100
AcDbVertex
100
AcDb2dVertex
 10
2200.510384000003
 20
1559.768545999999
 30
0.0
  0
VERTEX
  5
1E5
330
1D4
100
AcDbEntity
  8
化粧台
  6
EXLTYPE2
 62
     6
100
AcDbVertex
100
AcDb2dVertex
 10
2200.732678000003
 20
1560.041123999999
 30
0.0
  0
VERTEX
  5
1E6
330
1D4
100
AcDbEntity
  8
化粧台
  6
EXLTYPE2
 62
     6
100
AcDbVertex
100
AcDb2dVertex
 10
2200.856990000002
 20
1560.243904000001
 30
0.0
  0
VERTEX
  5
1E7
330
1D4
100
AcDbEntity
  8
化粧台
  6
EXLTYPE2
 62
     6
100
AcDbVertex
100
AcDb2dVertex
 10
2200.955522000002
 20
1560.46126
 30
0.0
  0
VERTEX
  5
1E8
330
1D4
100
AcDbEntity
  8
化粧台
  6
EXLTYPE2
 62
     6
100
AcDbVertex
100
AcDb2dVertex
 10
2201.022442000004
 20
1560.688918
 30
0.0
  0
VERTEX
  5
1E9
330
1D4
100
AcDbEntity
  8
化粧台
  6
EXLTYPE2
 62
     6
100
AcDbVertex
100
AcDb2dVertex
 10
2201.053858000003
 20
1560.938924
 30
0.0
  0
VERTEX
  5
1EA
330
1D4
100
AcDbEntity
  8
化粧台
  6
EXLTYPE2
 62
     6
100
AcDbVertex
100
AcDb2dVertex
 10
2201.043040000003
 20
1561.190628
 30
0.0
  0
VERTEX
  5
1EB
330
1D4
100
AcDbEntity
  8
化粧台
  6
EXLTYPE2
 62
     6
100
AcDbVertex
100
AcDb2dVertex
 10
2200.990162000004
 20
1561.436392
 30
0.0
  0
VERTEX
  5
1EC
330
1D4
100
AcDbEntity
  8
化粧台
  6
EXLTYPE2
 62
     6
100
AcDbVertex
100
AcDb2dVertex
 10
2200.900018000003
 20
1561.671262
 30
0.0
  0
VERTEX
  5
1ED
330
1D4
100
AcDbEntity
  8
化粧台
  6
EXLTYPE2
 62
     6
100
AcDbVertex
100
AcDb2dVertex
 10
2200.721402000003
 20
1561.974700000001
 30
0.0
  0
VERTEX
  5
1EE
330
1D4
100
AcDbEntity
  8
化粧台
  6
EXLTYPE2
 62
     6
100
AcDbVertex
100
AcDb2dVertex
 10
2200.496342000004
 20
1562.246302
 30
0.0
  0
VERTEX
  5
1EF
330
1D4
100
AcDbEntity
  8
化粧台
  6
EXLTYPE2
 62
     6
100
AcDbVertex
100
AcDb2dVertex
 10
2200.219596000003
 20
1562.501758
 30
0.0
  0
VERTEX
  5
1F0
330
1D4
100
AcDbEntity
  8
化粧台
  6
EXLTYPE2
 62
     6
100
AcDbVertex
100
AcDb2dVertex
 10
2199.914938000004
 20
1562.725702
 30
0.0
  0
VERTEX
  5
1F1
330
1D4
100
AcDbEntity
  8
化粧台
  6
EXLTYPE2
 62
     6
100
AcDbVertex
100
AcDb2dVertex
 10
2199.591798000004
 20
1562.920994
 30
0.0
  0
VERTEX
  5
1F2
330
1D4
100
AcDbEntity
  8
化粧台
  6
EXLTYPE2
 62
     6
100
AcDbVertex
100
AcDb2dVertex
 10
2199.087092000004
 20
1563.168718000001
 30
0.0
  0
VERTEX
  5
1F3
330
1D4
100
AcDbEntity
  8
化粧台
  6
EXLTYPE2
 62
     6
100
AcDbVertex
100
AcDb2dVertex
 10
2198.561414000004
 20
1563.37284
 30
0.0
  0
VERTEX
  5
1F4
330
1D4
100
AcDbEntity
  8
化粧台
  6
EXLTYPE2
 62
     6
100
AcDbVertex
100
AcDb2dVertex
 10
2198.021714000003
 20
1563.540186
 30
0.0
  0
VERTEX
  5
1F5
330
1D4
100
AcDbEntity
  8
化粧台
  6
EXLTYPE2
 62
     6
100
AcDbVertex
100
AcDb2dVertex
 10
2197.474940000002
 20
1563.677582
 30
0.0
  0
VERTEX
  5
1F6
330
1D4
100
AcDbEntity
  8
化粧台
  6
EXLTYPE2
 62
     6
100
AcDbVertex
100
AcDb2dVertex
 10
2196.980480000004
 20
1563.781046
 30
0.0
  0
VERTEX
  5
1F7
330
1D4
100
AcDbEntity
  8
化粧台
  6
EXLTYPE2
 62
     6
100
AcDbVertex
100
AcDb2dVertex
 10
2196.482862000003
 20
1563.86825
 30
0.0
  0
VERTEX
  5
1F8
330
1D4
100
AcDbEntity
  8
化粧台
  6
EXLTYPE2
 62
     6
100
AcDbVertex
100
AcDb2dVertex
 10
2195.982220000004
 20
1563.940790000001
 30
0.0
  0
VERTEX
  5
1F9
330
1D4
100
AcDbEntity
  8
化粧台
  6
EXLTYPE2
 62
     6
100
AcDbVertex
100
AcDb2dVertex
 10
2195.479844000004
 20
1564.000076
 30
0.0
  0
VERTEX
  5
1FA
330
1D4
100
AcDbEntity
  8
化粧台
  6
EXLTYPE2
 62
     6
100
AcDbVertex
100
AcDb2dVertex
 10
2194.975704000003
 20
1564.047712
 30
0.0
  0
VERTEX
  5
1FB
330
1D4
100
AcDbEntity
  8
化粧台
  6
EXLTYPE2
 62
     6
100
AcDbVertex
100
AcDb2dVertex
 10
2194.470706000002
 20
1564.085208
 30
0.0
  0
VERTEX
  5
1FC
330
1D4
100
AcDbEntity
  8
化粧台
  6
EXLTYPE2
 62
     6
100
AcDbVertex
100
AcDb2dVertex
 10
2193.965666000002
 20
1564.114090000001
 30
0.0
  0
VERTEX
  5
1FD
330
1D4
100
AcDbEntity
  8
化粧台
  6
EXLTYPE2
 62
     6
100
AcDbVertex
100
AcDb2dVertex
 10
2193.460260000004
 20
1564.1358
 30
0.0
  0
VERTEX
  5
1FE
330
1D4
100
AcDbEntity
  8
化粧台
  6
EXLTYPE2
 62
     6
100
AcDbVertex
100
AcDb2dVertex
 10
2192.771122000004
 20
1564.155608000001
 30
0.0
  0
VERTEX
  5
1FF
330
1D4
100
AcDbEntity
  8
化粧台
  6
EXLTYPE2
 62
     6
100
AcDbVertex
100
AcDb2dVertex
 10
2192.081752000004
 20
1564.163914000001
 30
0.0
  0
VERTEX
  5
200
330
1D4
100
AcDbEntity
  8
化粧台
  6
EXLTYPE2
 62
     6
100
AcDbVertex
100
AcDb2dVertex
 10
2191.392146000004
 20
1564.160003999999
 30
0.0
  0
VERTEX
  5
201
330
1D4
100
AcDbEntity
  8
化粧台
  6
EXLTYPE2
 62
     6
100
AcDbVertex
100
AcDb2dVertex
 10
2190.702734000003
 20
1564.14321
 30
0.0
  0
VERTEX
  5
202
330
1D4
100
AcDbEntity
  8
化粧台
  6
EXLTYPE2
 62
     6
100
AcDbVertex
100
AcDb2dVertex
 10
2190.014062000004
 20
1564.11298
 30
0.0
  0
VERTEX
  5
203
330
1D4
100
AcDbEntity
  8
化粧台
  6
EXLTYPE2
 62
     6
100
AcDbVertex
100
AcDb2dVertex
 10
2189.326132000004
 20
1564.069092
 30
0.0
  0
VERTEX
  5
204
330
1D4
100
AcDbEntity
  8
化粧台
  6
EXLTYPE2
 62
     6
100
AcDbVertex
100
AcDb2dVertex
 10
2188.518988000004
 20
1563.998610000001
 30
0.0
  0
VERTEX
  5
205
330
1D4
100
AcDbEntity
  8
化粧台
  6
EXLTYPE2
 62
     6
100
AcDbVertex
100
AcDb2dVertex
 10
2187.712534000004
 20
1563.900525999999
 30
0.0
  0
VERTEX
  5
206
330
1D4
100
AcDbEntity
  8
化粧台
  6
EXLTYPE2
 62
     6
100
AcDbVertex
100
AcDb2dVertex
 10
2186.912332000004
 20
1563.764884
 30
0.0
  0
VERTEX
  5
207
330
1D4
100
AcDbEntity
  8
化粧台
  6
EXLTYPE2
 62
     6
100
AcDbVertex
100
AcDb2dVertex
 10
2186.123948000003
 20
1563.581728000001
 30
0.0
  0
VERTEX
  5
208
330
1D4
100
AcDbEntity
  8
化粧台
  6
EXLTYPE2
 62
     6
100
AcDbVertex
100
AcDb2dVertex
 10
2185.352946000003
 20
1563.341104000001
 30
0.0
  0
VERTEX
  5
209
330
1D4
100
AcDbEntity
  8
化粧台
  6
EXLTYPE2
 62
     6
100
AcDbVertex
100
AcDb2dVertex
 10
2184.847228000003
 20
1563.13941
 30
0.0
  0
VERTEX
  5
20A
330
1D4
100
AcDbEntity
  8
化粧台
  6
EXLTYPE2
 62
     6
100
AcDbVertex
100
AcDb2dVertex
 10
2184.360106000002
 20
1562.894813999999
 30
0.0
  0
VERTEX
  5
20B
330
1D4
100
AcDbEntity
  8
化粧台
  6
EXLTYPE2
 62
     6
100
AcDbVertex
100
AcDb2dVertex
 10
2183.905016000003
 20
1562.598844
 30
0.0
  0
VERTEX
  5
20C
330
1D4
100
AcDbEntity
  8
化粧台
  6
EXLTYPE2
 62
     6
100
AcDbVertex
100
AcDb2dVertex
 10
2183.619550000004
 20
1562.361000000001
 30
0.0
  0
VERTEX
  5
20D
330
1D4
100
AcDbEntity
  8
化粧台
  6
EXLTYPE2
 62
     6
100
AcDbVertex
100
AcDb2dVertex
 10
2183.365984000002
 20
1562.089982
 30
0.0
  0
VERTEX
  5
20E
330
1D4
100
AcDbEntity
  8
化粧台
  6
EXLTYPE2
 62
     6
100
AcDbVertex
100
AcDb2dVertex
 10
2183.219268000003
 20
1561.886364
 30
0.0
  0
VERTEX
  5
20F
330
1D4
100
AcDbEntity
  8
化粧台
  6
EXLTYPE2
 62
     6
100
AcDbVertex
100
AcDb2dVertex
 10
2183.097776000003
 20
1561.665886000001
 30
0.0
  0
VERTEX
  5
210
330
1D4
100
AcDbEntity
  8
化粧台
  6
EXLTYPE2
 62
     6
100
AcDbVertex
100
AcDb2dVertex
 10
2183.008364000003
 20
1561.432094
 30
0.0
  0
VERTEX
  5
211
330
1D4
100
AcDbEntity
  8
化粧台
  6
EXLTYPE2
 62
     6
100
AcDbVertex
100
AcDb2dVertex
 10
2182.956310000004
 20
1561.183616
 30
0.0
  0
VERTEX
  5
212
330
1D4
100
AcDbEntity
  8
化粧台
  6
EXLTYPE2
 62
     6
100
AcDbVertex
100
AcDb2dVertex
 10
2182.946270000003
 20
1560.930044000001
 30
0.0
  0
VERTEX
  5
213
330
1D4
100
AcDbEntity
  8
化粧台
  6
EXLTYPE2
 62
     6
100
AcDbVertex
100
AcDb2dVertex
 10
2182.980008000003
 20
1560.678558
 30
0.0
  0
VERTEX
  5
214
330
1D4
100
AcDbEntity
  8
化粧台
  6
EXLTYPE2
 62
     6
100
AcDbVertex
100
AcDb2dVertex
 10
2183.053894000003
 20
1560.435648000001
 30
0.0
  0
VERTEX
  5
215
330
1D4
100
AcDbEntity
  8
化粧台
  6
EXLTYPE2
 62
     6
100
AcDbVertex
100
AcDb2dVertex
 10
2183.201040000004
 20
1560.142524000001
 30
0.0
  0
VERTEX
  5
216
330
1D4
100
AcDbEntity
  8
化粧台
  6
EXLTYPE2
 62
     6
100
AcDbVertex
100
AcDb2dVertex
 10
2183.393688000002
 20
1559.876420000001
 30
0.0
  0
VERTEX
  5
217
330
1D4
100
AcDbEntity
  8
化粧台
  6
EXLTYPE2
 62
     6
100
AcDbVertex
100
AcDb2dVertex
 10
2183.626104000003
 20
1559.63278
 30
0.0
  0
VERTEX
  5
218
330
1D4
100
AcDbEntity
  8
化粧台
  6
EXLTYPE2
 62
     6
100
AcDbVertex
100
AcDb2dVertex
 10
2183.885350000003
 20
1559.415838000001
 30
0.0
  0
VERTEX
  5
219
330
1D4
100
AcDbEntity
  8
化粧台
  6
EXLTYPE2
 62
     6
100
AcDbVertex
100
AcDb2dVertex
 10
2184.163024000004
 20
1559.223958
 30
0.0
  0
VERTEX
  5
21A
330
1D4
100
AcDbEntity
  8
化粧台
  6
EXLTYPE2
 62
     6
100
AcDbVertex
100
AcDb2dVertex
 10
2184.580552000004
 20
1558.987118000001
 30
0.0
  0
VERTEX
  5
21B
330
1D4
100
AcDbEntity
  8
化粧台
  6
EXLTYPE2
 62
     6
100
AcDbVertex
100
AcDb2dVertex
 10
2185.018312000002
 20
1558.786588000001
 30
0.0
  0
VERTEX
  5
21C
330
1D4
100
AcDbEntity
  8
化粧台
  6
EXLTYPE2
 62
     6
100
AcDbVertex
100
AcDb2dVertex
 10
2185.470082000004
 20
1558.617334
 30
0.0
  0
VERTEX
  5
21D
330
1D4
100
AcDbEntity
  8
化粧台
  6
EXLTYPE2
 62
     6
100
AcDbVertex
100
AcDb2dVertex
 10
2185.929642000003
 20
1558.474328
 30
0.0
  0
VERTEX
  5
21E
330
1D4
100
AcDbEntity
  8
化粧台
  6
EXLTYPE2
 62
     6
100
AcDbVertex
100
AcDb2dVertex
 10
2186.663138000004
 20
1558.290832000001
 30
0.0
  0
VERTEX
  5
21F
330
1D4
100
AcDbEntity
  8
化粧台
  6
EXLTYPE2
 62
     6
100
AcDbVertex
100
AcDb2dVertex
 10
2187.407028000004
 20
1558.149866
 30
0.0
  0
VERTEX
  5
220
330
1D4
100
AcDbEntity
  8
化粧台
  6
EXLTYPE2
 62
     6
100
AcDbVertex
100
AcDb2dVertex
 10
2188.157402000003
 20
1558.043806
 30
0.0
  0
VERTEX
  5
221
330
1D4
100
AcDbEntity
  8
化粧台
  6
EXLTYPE2
 62
     6
100
AcDbVertex
100
AcDb2dVertex
 10
2188.910356000003
 20
1557.965028000001
 30
0.0
  0
VERTEX
  5
222
330
1D4
100
AcDbEntity
  8
化粧台
  6
EXLTYPE2
 62
     6
100
AcDbVertex
100
AcDb2dVertex
 10
2189.424154000003
 20
1557.923596000001
 30
0.0
  0
VERTEX
  5
223
330
1D4
100
AcDbEntity
  8
化粧台
  6
EXLTYPE2
 62
     6
100
AcDbVertex
100
AcDb2dVertex
 10
2189.938590000004
 20
1557.891009999999
 30
0.0
  0
VERTEX
  5
224
330
1D4
100
AcDbEntity
  8
化粧台
  6
EXLTYPE2
 62
     6
100
AcDbVertex
100
AcDb2dVertex
 10
2190.453642000003
 20
1557.866755999999
 30
0.0
  0
VERTEX
  5
225
330
1D4
100
AcDbEntity
  8
化粧台
  6
EXLTYPE2
 62
     6
100
AcDbVertex
100
AcDb2dVertex
 10
2190.969002000004
 20
1557.850224
 30
0.0
  0
VERTEX
  5
226
330
1D4
100
AcDbEntity
  8
化粧台
  6
EXLTYPE2
 62
     6
100
AcDbVertex
100
AcDb2dVertex
 10
2191.484464000003
 20
1557.840768
 30
0.0
  0
VERTEX
  5
227
330
1D4
100
AcDbEntity
  8
化粧台
  6
EXLTYPE2
 62
     6
100
AcDbVertex
100
AcDb2dVertex
 10
2191.999996000003
 20
1557.837726
 30
0.0
  0
SEQEND
  5
228
330
1D4
100
AcDbEntity
  8
化粧台
  6
EXLTYPE2
 62
     6
  0
POLYLINE
  5
229
330
1F
100
AcDbEntity
  8
化粧台
  6
EXLTYPE2
 62
     6
100
AcDb2dPolyline
 66
     1
 10
0.0
 20
0.0
 30
0.0
 70
   128
  0
VERTEX
  5
22A
330
229
100
AcDbEntity
  8
化粧台
  6
EXLTYPE2
 62
     6
100
AcDbVertex
100
AcDb2dVertex
 10
2204.359798000004
 20
1561.000204
 30
0.0
  0
VERTEX
  5
22B
330
229
100
AcDbEntity
  8
化粧台
  6
EXLTYPE2
 62
     6
100
AcDbVertex
100
AcDb2dVertex
 10
2204.371936000004
 20
1560.734399999999
 30
0.0
  0
VERTEX
  5
22C
330
229
100
AcDbEntity
  8
化粧台
  6
EXLTYPE2
 62
     6
100
AcDbVertex
100
AcDb2dVertex
 10
2204.406730000003
 20
1560.476546
 30
0.0
  0
VERTEX
  5
22D
330
229
100
AcDbEntity
  8
化粧台
  6
EXLTYPE2
 62
     6
100
AcDbVertex
100
AcDb2dVertex
 10
2204.461282000002
 20
1560.23489
 30
0.0
  0
VERTEX
  5
22E
330
229
100
AcDbEntity
  8
化粧台
  6
EXLTYPE2
 62
     6
100
AcDbVertex
100
AcDb2dVertex
 10
2204.532054000003
 20
1560.010399999999
 30
0.0
  0
VERTEX
  5
22F
330
229
100
AcDbEntity
  8
化粧台
  6
EXLTYPE2
 62
     6
100
AcDbVertex
100
AcDb2dVertex
 10
2204.627754000003
 20
1559.77821
 30
0.0
  0
VERTEX
  5
230
330
229
100
AcDbEntity
  8
化粧台
  6
EXLTYPE2
 62
     6
100
AcDbVertex
100
AcDb2dVertex
 10
2204.736384000004
 20
1559.568298
 30
0.0
  0
VERTEX
  5
231
330
229
100
AcDbEntity
  8
化粧台
  6
EXLTYPE2
 62
     6
100
AcDbVertex
100
AcDb2dVertex
 10
2204.854228000002
 20
1559.380126
 30
0.0
  0
VERTEX
  5
232
330
229
100
AcDbEntity
  8
化粧台
  6
EXLTYPE2
 62
     6
100
AcDbVertex
100
AcDb2dVertex
 10
2205.083200000003
 20
1559.087611999999
 30
0.0
  0
VERTEX
  5
233
330
229
100
AcDbEntity
  8
化粧台
  6
EXLTYPE2
 62
     6
100
AcDbVertex
100
AcDb2dVertex
 10
2205.327730000003
 20
1558.845890000001
 30
0.0
  0
VERTEX
  5
234
330
229
100
AcDbEntity
  8
化粧台
  6
EXLTYPE2
 62
     6
100
AcDbVertex
100
AcDb2dVertex
 10
2205.581306000002
 20
1558.646556
 30
0.0
  0
VERTEX
  5
235
330
229
100
AcDbEntity
  8
化粧台
  6
EXLTYPE2
 62
     6
100
AcDbVertex
100
AcDb2dVertex
 10
2205.972234000003
 20
1558.405189999999
 30
0.0
  0
VERTEX
  5
236
330
229
100
AcDbEntity
  8
化粧台
  6
EXLTYPE2
 62
     6
100
AcDbVertex
100
AcDb2dVertex
 10
2206.371560000004
 20
1558.220906
 30
0.0
  0
VERTEX
  5
237
330
229
100
AcDbEntity
  8
化粧台
  6
EXLTYPE2
 62
     6
100
AcDbVertex
100
AcDb2dVertex
 10
2206.777002000003
 20
1558.084806000001
 30
0.0
  0
VERTEX
  5
238
330
229
100
AcDbEntity
  8
化粧台
  6
EXLTYPE2
 62
     6
100
AcDbVertex
100
AcDb2dVertex
 10
2207.186276000003
 20
1557.987986
 30
0.0
  0
VERTEX
  5
239
330
229
100
AcDbEntity
  8
化粧台
  6
EXLTYPE2
 62
     6
100
AcDbVertex
100
AcDb2dVertex
 10
2207.597094000003
 20
1557.921546
 30
0.0
  0
VERTEX
  5
23A
330
229
100
AcDbEntity
  8
化粧台
  6
EXLTYPE2
 62
     6
100
AcDbVertex
100
AcDb2dVertex
 10
2208.007174000004
 20
1557.876586
 30
0.0
  0
VERTEX
  5
23B
330
229
100
AcDbEntity
  8
化粧台
  6
EXLTYPE2
 62
     6
100
AcDbVertex
100
AcDb2dVertex
 10
2208.596514000003
 20
1557.840952
 30
0.0
  0
VERTEX
  5
23C
330
229
100
AcDbEntity
  8
化粧台
  6
EXLTYPE2
 62
     6
100
AcDbVertex
100
AcDb2dVertex
 10
2209.186260000003
 20
1557.841178000001
 30
0.0
  0
VERTEX
  5
23D
330
229
100
AcDbEntity
  8
化粧台
  6
EXLTYPE2
 62
     6
100
AcDbVertex
100
AcDb2dVertex
 10
2209.775592000004
 20
1557.877296000001
 30
0.0
  0
VERTEX
  5
23E
330
229
100
AcDbEntity
  8
化粧台
  6
EXLTYPE2
 62
     6
100
AcDbVertex
100
AcDb2dVertex
 10
2210.389334000004
 20
1557.95707
 30
0.0
  0
VERTEX
  5
23F
330
229
100
AcDbEntity
  8
化粧台
  6
EXLTYPE2
 62
     6
100
AcDbVertex
100
AcDb2dVertex
 10
2211.000332000004
 20
1558.095294000001
 30
0.0
  0
VERTEX
  5
240
330
229
100
AcDbEntity
  8
化粧台
  6
EXLTYPE2
 62
     6
100
AcDbVertex
100
AcDb2dVertex
 10
2211.337392000004
 20
1558.203774
 30
0.0
  0
VERTEX
  5
241
330
229
100
AcDbEntity
  8
化粧台
  6
EXLTYPE2
 62
     6
100
AcDbVertex
100
AcDb2dVertex
 10
2211.672208000002
 20
1558.342581999999
 30
0.0
  0
VERTEX
  5
242
330
229
100
AcDbEntity
  8
化粧台
  6
EXLTYPE2
 62
     6
100
AcDbVertex
100
AcDb2dVertex
 10
2212.001942000003
 20
1558.519844
 30
0.0
  0
VERTEX
  5
243
330
229
100
AcDbEntity
  8
化粧台
  6
EXLTYPE2
 62
     6
100
AcDbVertex
100
AcDb2dVertex
 10
2212.323756000004
 20
1558.743678000001
 30
0.0
  0
VERTEX
  5
244
330
229
100
AcDbEntity
  8
化粧台
  6
EXLTYPE2
 62
     6
100
AcDbVertex
100
AcDb2dVertex
 10
2212.557706000004
 20
1558.948528000001
 30
0.0
  0
VERTEX
  5
245
330
229
100
AcDbEntity
  8
化粧台
  6
EXLTYPE2
 62
     6
100
AcDbVertex
100
AcDb2dVertex
 10
2212.781616000002
 20
1559.193542000001
 30
0.0
  0
VERTEX
  5
246
330
229
100
AcDbEntity
  8
化粧台
  6
EXLTYPE2
 62
     6
100
AcDbVertex
100
AcDb2dVertex
 10
2212.924178000003
 20
1559.385028000001
 30
0.0
  0
VERTEX
  5
247
330
229
100
AcDbEntity
  8
化粧台
  6
EXLTYPE2
 62
     6
100
AcDbVertex
100
AcDb2dVertex
 10
2213.057640000003
 20
1559.601986
 30
0.0
  0
VERTEX
  5
248
330
229
100
AcDbEntity
  8
化粧台
  6
EXLTYPE2
 62
     6
100
AcDbVertex
100
AcDb2dVertex
 10
2213.177780000004
 20
1559.846264
 30
0.0
  0
VERTEX
  5
249
330
229
100
AcDbEntity
  8
化粧台
  6
EXLTYPE2
 62
     6
100
AcDbVertex
100
AcDb2dVertex
 10
2213.269362000003
 20
1560.087092
 30
0.0
  0
VERTEX
  5
24A
330
229
100
AcDbEntity
  8
化粧台
  6
EXLTYPE2
 62
     6
100
AcDbVertex
100
AcDb2dVertex
 10
2213.342714000004
 20
1560.351294
 30
0.0
  0
VERTEX
  5
24B
330
229
100
AcDbEntity
  8
化粧台
  6
EXLTYPE2
 62
     6
100
AcDbVertex
100
AcDb2dVertex
 10
2213.387832000003
 20
1560.600428
 30
0.0
  0
VERTEX
  5
24C
330
229
100
AcDbEntity
  8
化粧台
  6
EXLTYPE2
 62
     6
100
AcDbVertex
100
AcDb2dVertex
 10
2213.411894000003
 20
1560.860774000001
 30
0.0
  0
VERTEX
  5
24D
330
229
100
AcDbEntity
  8
化粧台
  6
EXLTYPE2
 62
     6
100
AcDbVertex
100
AcDb2dVertex
 10
2213.415184000004
 20
1561.000204
 30
0.0
  0
VERTEX
  5
24E
330
229
100
AcDbEntity
  8
化粧台
  6
EXLTYPE2
 62
     6
100
AcDbVertex
100
AcDb2dVertex
 10
2213.403028000003
 20
1561.265804000001
 30
0.0
  0
VERTEX
  5
24F
330
229
100
AcDbEntity
  8
化粧台
  6
EXLTYPE2
 62
     6
100
AcDbVertex
100
AcDb2dVertex
 10
2213.368250000004
 20
1561.52346
 30
0.0
  0
VERTEX
  5
250
330
229
100
AcDbEntity
  8
化粧台
  6
EXLTYPE2
 62
     6
100
AcDbVertex
100
AcDb2dVertex
 10
2213.313700000003
 20
1561.765117999999
 30
0.0
  0
VERTEX
  5
251
330
229
100
AcDbEntity
  8
化粧台
  6
EXLTYPE2
 62
     6
100
AcDbVertex
100
AcDb2dVertex
 10
2213.242928000004
 20
1561.989608
 30
0.0
  0
VERTEX
  5
252
330
229
100
AcDbEntity
  8
化粧台
  6
EXLTYPE2
 62
     6
100
AcDbVertex
100
AcDb2dVertex
 10
2213.147228000004
 20
1562.221798
 30
0.0
  0
VERTEX
  5
253
330
229
100
AcDbEntity
  8
化粧台
  6
EXLTYPE2
 62
     6
100
AcDbVertex
100
AcDb2dVertex
 10
2213.038598000003
 20
1562.431708
 30
0.0
  0
VERTEX
  5
254
330
229
100
AcDbEntity
  8
化粧台
  6
EXLTYPE2
 62
     6
100
AcDbVertex
100
AcDb2dVertex
 10
2212.920754000003
 20
1562.619882000001
 30
0.0
  0
VERTEX
  5
255
330
229
100
AcDbEntity
  8
化粧台
  6
EXLTYPE2
 62
     6
100
AcDbVertex
100
AcDb2dVertex
 10
2212.691782000004
 20
1562.912396
 30
0.0
  0
VERTEX
  5
256
330
229
100
AcDbEntity
  8
化粧台
  6
EXLTYPE2
 62
     6
100
AcDbVertex
100
AcDb2dVertex
 10
2212.447252000004
 20
1563.154116
 30
0.0
  0
VERTEX
  5
257
330
229
100
AcDbEntity
  8
化粧台
  6
EXLTYPE2
 62
     6
100
AcDbVertex
100
AcDb2dVertex
 10
2212.193676000003
 20
1563.353450000001
 30
0.0
  0
VERTEX
  5
258
330
229
100
AcDbEntity
  8
化粧台
  6
EXLTYPE2
 62
     6
100
AcDbVertex
100
AcDb2dVertex
 10
2211.802748000004
 20
1563.594818
 30
0.0
  0
VERTEX
  5
259
330
229
100
AcDbEntity
  8
化粧台
  6
EXLTYPE2
 62
     6
100
AcDbVertex
100
AcDb2dVertex
 10
2211.403422000004
 20
1563.7791
 30
0.0
  0
VERTEX
  5
25A
330
229
100
AcDbEntity
  8
化粧台
  6
EXLTYPE2
 62
     6
100
AcDbVertex
100
AcDb2dVertex
 10
2210.997980000002
 20
1563.915202
 30
0.0
  0
VERTEX
  5
25B
330
229
100
AcDbEntity
  8
化粧台
  6
EXLTYPE2
 62
     6
100
AcDbVertex
100
AcDb2dVertex
 10
2210.588706000003
 20
1564.012022000001
 30
0.0
  0
VERTEX
  5
25C
330
229
100
AcDbEntity
  8
化粧台
  6
EXLTYPE2
 62
     6
100
AcDbVertex
100
AcDb2dVertex
 10
2210.177888000004
 20
1564.078461999999
 30
0.0
  0
VERTEX
  5
25D
330
229
100
AcDbEntity
  8
化粧台
  6
EXLTYPE2
 62
     6
100
AcDbVertex
100
AcDb2dVertex
 10
2209.767808000003
 20
1564.123422000001
 30
0.0
  0
VERTEX
  5
25E
330
229
100
AcDbEntity
  8
化粧台
  6
EXLTYPE2
 62
     6
100
AcDbVertex
100
AcDb2dVertex
 10
2209.178468000004
 20
1564.159056
 30
0.0
  0
VERTEX
  5
25F
330
229
100
AcDbEntity
  8
化粧台
  6
EXLTYPE2
 62
     6
100
AcDbVertex
100
AcDb2dVertex
 10
2208.588722000003
 20
1564.15883
 30
0.0
  0
VERTEX
  5
260
330
229
100
AcDbEntity
  8
化粧台
  6
EXLTYPE2
 62
     6
100
AcDbVertex
100
AcDb2dVertex
 10
2207.999390000003
 20
1564.12271
 30
0.0
  0
VERTEX
  5
261
330
229
100
AcDbEntity
  8
化粧台
  6
EXLTYPE2
 62
     6
100
AcDbVertex
100
AcDb2dVertex
 10
2207.385648000004
 20
1564.042938000001
 30
0.0
  0
VERTEX
  5
262
330
229
100
AcDbEntity
  8
化粧台
  6
EXLTYPE2
 62
     6
100
AcDbVertex
100
AcDb2dVertex
 10
2206.774650000003
 20
1563.904714
 30
0.0
  0
VERTEX
  5
263
330
229
100
AcDbEntity
  8
化粧台
  6
EXLTYPE2
 62
     6
100
AcDbVertex
100
AcDb2dVertex
 10
2206.437590000004
 20
1563.796233999999
 30
0.0
  0
VERTEX
  5
264
330
229
100
AcDbEntity
  8
化粧台
  6
EXLTYPE2
 62
     6
100
AcDbVertex
100
AcDb2dVertex
 10
2206.102772000004
 20
1563.657426
 30
0.0
  0
VERTEX
  5
265
330
229
100
AcDbEntity
  8
化粧台
  6
EXLTYPE2
 62
     6
100
AcDbVertex
100
AcDb2dVertex
 10
2205.773040000002
 20
1563.480164000001
 30
0.0
  0
VERTEX
  5
266
330
229
100
AcDbEntity
  8
化粧台
  6
EXLTYPE2
 62
     6
100
AcDbVertex
100
AcDb2dVertex
 10
2205.451226000003
 20
1563.256327999999
 30
0.0
  0
VERTEX
  5
267
330
229
100
AcDbEntity
  8
化粧台
  6
EXLTYPE2
 62
     6
100
AcDbVertex
100
AcDb2dVertex
 10
2205.217276000003
 20
1563.05148
 30
0.0
  0
VERTEX
  5
268
330
229
100
AcDbEntity
  8
化粧台
  6
EXLTYPE2
 62
     6
100
AcDbVertex
100
AcDb2dVertex
 10
2204.993366000003
 20
1562.806463999999
 30
0.0
  0
VERTEX
  5
269
330
229
100
AcDbEntity
  8
化粧台
  6
EXLTYPE2
 62
     6
100
AcDbVertex
100
AcDb2dVertex
 10
2204.850804000004
 20
1562.61498
 30
0.0
  0
VERTEX
  5
26A
330
229
100
AcDbEntity
  8
化粧台
  6
EXLTYPE2
 62
     6
100
AcDbVertex
100
AcDb2dVertex
 10
2204.717342000004
 20
1562.398021999999
 30
0.0
  0
VERTEX
  5
26B
330
229
100
AcDbEntity
  8
化粧台
  6
EXLTYPE2
 62
     6
100
AcDbVertex
100
AcDb2dVertex
 10
2204.597202000003
 20
1562.153742
 30
0.0
  0
VERTEX
  5
26C
330
229
100
AcDbEntity
  8
化粧台
  6
EXLTYPE2
 62
     6
100
AcDbVertex
100
AcDb2dVertex
 10
2204.505620000004
 20
1561.912915999999
 30
0.0
  0
VERTEX
  5
26D
330
229
100
AcDbEntity
  8
化粧台
  6
EXLTYPE2
 62
     6
100
AcDbVertex
100
AcDb2dVertex
 10
2204.432268000003
 20
1561.648714000001
 30
0.0
  0
VERTEX
  5
26E
330
229
100
AcDbEntity
  8
化粧台
  6
EXLTYPE2
 62
     6
100
AcDbVertex
100
AcDb2dVertex
 10
2204.387150000003
 20
1561.399579999999
 30
0.0
  0
VERTEX
  5
26F
330
229
100
AcDbEntity
  8
化粧台
  6
EXLTYPE2
 62
     6
100
AcDbVertex
100
AcDb2dVertex
 10
2204.363088000004
 20
1561.139234
 30
0.0
  0
VERTEX
  5
270
330
229
100
AcDbEntity
  8
化粧台
  6
EXLTYPE2
 62
     6
100
AcDbVertex
100
AcDb2dVertex
 10
2204.359798000004
 20
1561.000204
 30
0.0
  0
SEQEND
  5
271
330
229
100
AcDbEntity
  8
化粧台
  6
EXLTYPE2
 62
     6
  0
LINE
  5
272
330
1F
100
AcDbEntity
  8
化粧台
  6
EXLTYPE2
 62
     6
100
AcDbLine
 10
2203.322576000003
 20
1564.83333333333
 30
0.0
 11
2203.322576000003
 21
1571.83333333333
 31
0.0
  0
LINE
  5
273
330
1F
100
AcDbEntity
  8
化粧台
  6
EXLTYPE2
 62
     6
100
AcDbLine
 10
2202.064512000003
 20
1564.83333333333
 30
0.0
 11
2202.064512000003
 21
1571.83333333333
 31
0.0
  0
LINE
  5
274
330
1F
100
AcDbEntity
  8
化粧台
  6
EXLTYPE2
 62
     6
100
AcDbLine
 10
2180.677416000003
 20
1564.83333333333
 30
0.0
 11
2180.677416000003
 21
1571.83333333333
 31
0.0
  0
LINE
  5
275
330
1F
100
AcDbEntity
  8
化粧台
  6
EXLTYPE2
 62
     6
100
AcDbLine
 10
2181.935480000002
 20
1564.83333333333
 30
0.0
 11
2181.935480000002
 21
1571.83333333333
 31
0.0
  0
LINE
  5
276
330
1F
100
AcDbEntity
  8
化粧台
  6
EXLTYPE2
 62
     6
100
AcDbLine
 10
2164.500000000002
 20
1574.33333333333
 30
0.0
 11
2219.500000000002
 21
1574.33333333333
 31
0.0
  0
LINE
  5
277
330
1F
100
AcDbEntity
  8
化粧台
  6
EXLTYPE2
 62
     6
100
AcDbLine
 10
2212.967736000003
 20
1564.83333333333
 30
0.0
 11
2212.967736000003
 21
1571.83333333333
 31
0.0
  0
LINE
  5
278
330
1F
100
AcDbEntity
  8
化粧台
  6
EXLTYPE2
 62
     6
100
AcDbLine
 10
2171.032256000003
 20
1564.83333333333
 30
0.0
 11
2212.967736000003
 21
1564.83333333333
 31
0.0
  0
LINE
  5
279
330
1F
100
AcDbEntity
  8
化粧台
  6
EXLTYPE2
 62
     6
100
AcDbLine
 10
2171.032256000003
 20
1564.83333333333
 30
0.0
 11
2171.032256000003
 21
1571.83333333333
 31
0.0
  0
LINE
  5
27A
330
1F
100
AcDbEntity
  8
化粧台
  6
EXLTYPE2
 62
     6
100
AcDbLine
 10
2166.000000000002
 20
1571.83333333333
 30
0.0
 11
2218.000000000002
 21
1571.83333333333
 31
0.0
  0
LINE
  5
27B
330
1F
100
AcDbEntity
  8
化粧台
  6
EXLTYPE2
 62
     6
100
AcDbLine
 10
2166.000000000002
 20
1571.83333333333
 30
0.0
 11
2166.000000000002
 21
1573.33333333333
 31
0.0
  0
LINE
  5
27C
330
1F
100
AcDbEntity
  8
化粧台
  6
EXLTYPE2
 62
     6
100
AcDbLine
 10
2218.000000000002
 20
1571.83333333333
 30
0.0
 11
2218.000000000002
 21
1573.33333333333
 31
0.0
  0
LINE
  5
27D
330
1F
100
AcDbEntity
  8
化粧台
  6
EXLTYPE2
 62
     6
100
AcDbLine
 10
2212.000000000002
 20
1557.5
 30
0.0
 11
2172.000000000002
 21
1557.5
 31
0.0
  0
LINE
  5
27E
330
1F
100
AcDbEntity
  8
化粧台
  6
EXLTYPE2
 62
     6
100
AcDbLine
 10
2247.500000000002
 20
1548.5
 30
0.0
 11
2242.500000000002
 21
1548.5
 31
0.0
  0
LINE
  5
27F
330
1F
100
AcDbEntity
  8
化粧台
  6
EXLTYPE2
 62
     6
100
AcDbLine
 10
2174.500000000002
 20
1564.83333333333
 30
0.0
 11
2174.500000000002
 21
1564.5
 31
0.0
  0
LINE
  5
280
330
1F
100
AcDbEntity
  8
化粧台
  6
EXLTYPE2
 62
     6
100
AcDbLine
 10
2209.500000000002
 20
1564.83333333333
 30
0.0
 11
2209.500000000002
 21
1564.5
 31
0.0
  0
LINE
  5
281
330
1F
100
AcDbEntity
  8
化粧台
  6
EXLTYPE2
 62
     6
100
AcDbLine
 10
2166.000000000002
 20
1573.33333333333
 30
0.0
 11
2218.000000000002
 21
1573.33333333333
 31
0.0
  0
LINE
  5
282
330
1F
100
AcDbEntity
  8
化粧台
  6
EXLTYPE2
 62
     6
100
AcDbLine
 10
2164.500000000002
 20
1573.33333333333
 30
0.0
 11
2219.500000000002
 21
1573.33333333333
 31
0.0
  0
LINE
  5
283
330
1F
100
AcDbEntity
  8
化粧台
  6
EXLTYPE2
 62
     6
100
AcDbLine
 10
2210.000000000002
 20
1564.5
 30
0.0
 11
2174.000000000002
 21
1564.5
 31
0.0
  0
ARC
  5
284
330
1F
100
AcDbEntity
  8
化粧台
  6
EXLTYPE2
 62
     6
100
AcDbCircle
 10
2210.000000000002
 20
1561.0
 30
0.0
 40
3.500000000000002
100
AcDbArc
 50
270.0000000000002
 51
90.00000000000004
  0
ARC
  5
285
330
1F
100
AcDbEntity
  8
化粧台
  6
EXLTYPE2
 62
     6
100
AcDbCircle
 10
2174.000000000002
 20
1561.0
 30
0.0
 40
3.500000000000002
100
AcDbArc
 50
90.00000000000004
 51
270.0000000000002
  0
LINE
  5
286
330
1F
100
AcDbEntity
  8
化粧台
  6
EXLTYPE2
 62
     6
100
AcDbLine
 10
2172.000000000002
 20
1557.5
 30
0.0
 11
2172.000000000002
 21
1520.0
 31
0.0
  0
ARC
  5
287
330
1F
100
AcDbEntity
  8
化粧台
  6
EXLTYPE2
 62
     6
100
AcDbCircle
 10
2215.000000000002
 20
1550.178400000001
 30
0.0
 40
3.000000000000003
100
AcDbArc
 50
180.0
 51
263.5169260000002
  0
LINE
  5
288
330
1F
100
AcDbEntity
  8
化粧台
  6
EXLTYPE2
 62
     6
100
AcDbLine
 10
2214.661264000004
 20
1547.197584
 30
0.0
 11
2234.000000000002
 21
1545.0
 31
0.0
  0
LINE
  5
289
330
1F
100
AcDbEntity
  8
化粧台
  6
EXLTYPE2
 62
     6
100
AcDbLine
 10
2212.000000000002
 20
1557.5
 30
0.0
 11
2212.000000000002
 21
1550.178400000001
 31
0.0
  0
LINE
  5
28A
330
1F
100
AcDbEntity
  8
化粧台
  6
EXLTYPE2
 62
     6
100
AcDbLine
 10
2234.000000000002
 20
1547.5
 30
0.0
 11
2234.000000000002
 21
1526.5
 31
0.0
  0
LINE
  5
28B
330
1F
100
AcDbEntity
  8
化粧台
  6
EXLTYPE2
 62
     6
100
AcDbLine
 10
2263.000000000002
 20
1548.0
 30
0.0
 11
2254.000000000002
 21
1548.0
 31
0.0
  0
ARC
  5
28C
330
1F
100
AcDbEntity
  8
化粧台
  6
EXLTYPE2
 62
     6
100
AcDbCircle
 10
2263.000000000002
 20
1545.0
 30
0.0
 40
3.000000000000003
100
AcDbArc
 50
0.0
 51
90.00000000000004
  0
LINE
  5
28D
330
1F
100
AcDbEntity
  8
化粧台
  6
EXLTYPE2
 62
     6
100
AcDbLine
 10
2254.000000000002
 20
1549.0
 30
0.0
 11
2247.500000000002
 21
1549.0
 31
0.0
  0
LINE
  5
28E
330
1F
100
AcDbEntity
  8
化粧台
  6
EXLTYPE2
 62
     6
100
AcDbLine
 10
2242.500000000002
 20
1548.5
 30
0.0
 11
2242.500000000002
 21
1525.5
 31
0.0
  0
LINE
  5
28F
330
1F
100
AcDbEntity
  8
化粧台
  6
EXLTYPE2
 62
     6
100
AcDbLine
 10
2266.000000000002
 20
1545.0
 30
0.0
 11
2266.000000000002
 21
1529.0
 31
0.0
  0
LINE
  5
290
330
1F
100
AcDbEntity
  8
化粧台
  6
EXLTYPE2
 62
     6
100
AcDbLine
 10
2242.500000000002
 20
1547.5
 30
0.0
 11
2234.000000000002
 21
1547.5
 31
0.0
  0
LINE
  5
291
330
1F
100
AcDbEntity
  8
化粧台
  6
EXLTYPE2
 62
     6
100
AcDbLine
 10
2254.000000000002
 20
1549.0
 30
0.0
 11
2254.000000000002
 21
1525.0
 31
0.0
  0
LINE
  5
292
330
1F
100
AcDbEntity
  8
化粧台
  6
EXLTYPE2
 62
     6
100
AcDbLine
 10
2247.500000000002
 20
1549.0
 30
0.0
 11
2247.500000000002
 21
1525.0
 31
0.0
  0
LINE
  5
293
330
1F
100
AcDbEntity
  8
化粧台
  6
EXLTYPE2
 62
     6
100
AcDbLine
 10
2387.000000000002
 20
1540.0
 30
0.0
 11
2387.000000000002
 21
1534.0
 31
0.0
  0
LINE
  5
294
330
1F
100
AcDbEntity
  8
化粧台
  6
EXLTYPE2
 62
     6
100
AcDbLine
 10
2308.325036024319
 20
1437.636113773615
 30
0.0
 11
2314.266644436768
 21
1436.801075167856
 31
0.0
  0
LINE
  5
295
330
1F
100
AcDbEntity
  8
化粧台
  6
CONTINUOUS
 62
     2
100
AcDbLine
 10
1970.873535956265
 20
1727.176474810494
 30
0.0
 11
2075.000000000002
 21
1575.0
 31
0.0
  0
LINE
  5
296
330
1F
100
AcDbEntity
  8
化粧台
  6
CONTINUOUS
 62
     2
100
AcDbLine
 10
2419.995215170637
 20
1739.781309810367
 30
0.0
 11
2413.00257047937
 21
1575.0
 31
0.0
  0
ARC
  5
297
330
1F
100
AcDbEntity
  8
化粧台
  6
CONTINUOUS
 62
     2
100
AcDbCircle
 10
2415.000000000002
 20
1740.0
 30
0.0
 40
5.0
100
AcDbArc
 50
357.4931953294174
 51
91.3019526725733
  0
ARC
  5
298
330
1F
100
AcDbEntity
  8
化粧台
  6
CONTINUOUS
 62
     2
100
AcDbCircle
 10
1974.999999999997
 20
1730.0
 30
0.0
 40
5.0
100
AcDbArc
 50
91.30195267257358
 51
214.3818111228703
  0
LINE
  5
299
330
1F
100
AcDbEntity
  8
化粧台
  6
CONTINUOUS
 62
     2
100
AcDbLine
 10
1974.886392973231
 20
1734.998709177724
 30
0.0
 11
2414.886392973235
 21
1744.998709177725
 31
0.0
  0
LINE
  5
29A
330
1F
100
AcDbEntity
  8
化粧台
  6
CONTINUOUS
 62
     6
100
AcDbLine
 10
2417.500000000002
 20
1494.999999999998
 30
0.0
 11
2491.9
 21
1494.999999999998
 31
0.0
  0
LINE
  5
29B
330
1F
100
AcDbEntity
  8
化粧台
  6
CONTINUOUS
 62
     6
100
AcDbLine
 10
2481.900000000004
 20
1494.999999999998
 30
0.0
 11
2449.400000000004
 21
1493.0
 31
0.0
  0
LINE
  5
29C
330
1F
100
AcDbEntity
  8
化粧台
  6
CONTINUOUS
 62
     6
100
AcDbLine
 10
2449.400000000004
 20
1497.0
 30
0.0
 11
2481.900000000004
 21
1494.999999999998
 31
0.0
  0
LINE
  5
29D
330
1F
100
AcDbEntity
  8
化粧台
  6
CONTINUOUS
 62
     2
100
AcDbLine
 10
2450.0
 20
1575.0
 30
0.0
 11
2450.0
 21
875.0
 31
0.0
  0
TEXT
  5
29E
330
1F
100
AcDbEntity
  8
化粧台
  6
CONTINUOUS
 62
     2
100
AcDbText
 10
1821.499999999997
 20
875.0
 30
0.0
 40
59.99999618530273
  1
F.L.
 41
0.6227488631227187
  7
EXCADSTD
 72
     5
 11
1912.243399999998
 21
875.0
 31
0.0
100
AcDbText
  0
LINE
  5
29F
330
1F
100
AcDbEntity
  8
化粧台
  6
EXLTYPE4
 62
     6
100
AcDbLine
 10
2450.0
 20
875.0
 30
0.0
 11
1821.499999999997
 21
875.0
 31
0.0
  0
LINE
  5
2A0
330
1F
100
AcDbEntity
  8
化粧台
  6
CONTINUOUS
 62
     2
100
AcDbLine
 10
935.8750000000027
 20
1517.999999999999
 30
0.0
 11
935.8750000000027
 21
1393.999999999949
 31
0.0
  0
LINE
  5
2A1
330
1F
100
AcDbEntity
  8
化粧台
  6
CONTINUOUS
 62
     2
100
AcDbLine
 10
904.1250000000027
 20
1517.999999999999
 30
0.0
 11
904.1250000000027
 21
1393.999999999949
 31
0.0
  0
LINE
  5
2A2
330
1F
100
AcDbEntity
  8
化粧台
  6
EXLTYPE4
 62
     6
100
AcDbLine
 10
834.5000000000009
 20
1074.999999999999
 30
0.0
 11
834.5000000000009
 21
866.9999999999991
 31
0.0
  0
LINE
  5
2A3
330
1F
100
AcDbEntity
  8
化粧台
  6
EXLTYPE4
 62
     6
100
AcDbLine
 10
855.5000000000009
 20
1074.999999999999
 30
0.0
 11
855.5000000000009
 21
866.9999999999991
 31
0.0
  0
LINE
  5
2A4
330
1F
100
AcDbEntity
  8
化粧台
  6
EXLTYPE3
 62
     6
100
AcDbLine
 10
845.0000000000009
 20
1084.999999999999
 30
0.0
 11
845.0000000000009
 21
856.9999999999991
 31
0.0
  0
LINE
  5
2A5
330
1F
100
AcDbEntity
  8
化粧台
  6
CONTINUOUS
 62
     6
100
AcDbLine
 10
834.5000000000009
 20
866.9999999999991
 30
0.0
 11
855.5000000000009
 21
866.9999999999991
 31
0.0
  0
LINE
  5
2A6
330
1F
100
AcDbEntity
  8
化粧台
  6
EXLTYPE4
 62
     6
100
AcDbLine
 10
1005.499999999998
 20
1074.999999999999
 30
0.0
 11
1005.499999999998
 21
866.9999999999991
 31
0.0
  0
LINE
  5
2A7
330
1F
100
AcDbEntity
  8
化粧台
  6
EXLTYPE4
 62
     6
100
AcDbLine
 10
984.4999999999984
 20
1074.999999999999
 30
0.0
 11
984.4999999999984
 21
866.9999999999991
 31
0.0
  0
LINE
  5
2A8
330
1F
100
AcDbEntity
  8
化粧台
  6
EXLTYPE3
 62
     6
100
AcDbLine
 10
994.9999999999984
 20
1084.999999999999
 30
0.0
 11
994.9999999999984
 21
856.9999999999991
 31
0.0
  0
LINE
  5
2A9
330
1F
100
AcDbEntity
  8
化粧台
  6
CONTINUOUS
 62
     6
100
AcDbLine
 10
1005.499999999998
 20
866.9999999999991
 30
0.0
 11
984.4999999999984
 21
866.9999999999991
 31
0.0
  0
LINE
  5
2AA
330
1F
100
AcDbEntity
  8
化粧台
  6
EXLTYPE4
 62
     6
100
AcDbLine
 10
904.0000000000009
 20
1074.999999999999
 30
0.0
 11
904.0000000000009
 21
845.0
 31
0.0
  0
LINE
  5
2AB
330
1F
100
AcDbEntity
  8
化粧台
  6
EXLTYPE4
 62
     6
100
AcDbLine
 10
936.0000000000009
 20
1074.999999999999
 30
0.0
 11
936.0000000000009
 21
845.0
 31
0.0
  0
LINE
  5
2AC
330
1F
100
AcDbEntity
  8
化粧台
  6
CONTINUOUS
 62
     6
100
AcDbLine
 10
904.0000000000009
 20
845.0
 30
0.0
 11
936.0000000000009
 21
845.0
 31
0.0
  0
LINE
  5
2AD
330
1F
100
AcDbEntity
  8
化粧台
  6
CONTINUOUS
 62
     6
100
AcDbLine
 10
962.9999999999984
 20
1350.0
 30
0.0
 11
877.0
 21
1350.0
 31
0.0
  0
ARC
  5
2AE
330
1F
100
AcDbEntity
  8
化粧台
  6
CONTINUOUS
 62
     6
100
AcDbCircle
 10
920.0
 20
1258.0
 30
0.0
 40
15.99999999999955
100
AcDbArc
 50
180.0
 51
0.0
  0
LINE
  5
2AF
330
1F
100
AcDbEntity
  8
化粧台
  6
CONTINUOUS
 62
     6
100
AcDbLine
 10
936.0
 20
1332.399886499968
 30
0.0
 11
936.0
 21
1258.0
 31
0.0
  0
LINE
  5
2B0
330
1F
100
AcDbEntity
  8
化粧台
  6
CONTINUOUS
 62
     6
100
AcDbLine
 10
904.0000000000009
 20
1332.399886499968
 30
0.0
 11
904.0000000000009
 21
1258.0
 31
0.0
  0
ARC
  5
2B1
330
1F
100
AcDbEntity
  8
化粧台
  6
CONTINUOUS
 62
     6
100
AcDbCircle
 10
920.0
 20
1350.0
 30
0.0
 40
33.0
100
AcDbArc
 50
299.0025460266706
 51
59.49751333740528
  0
ARC
  5
2B2
330
1F
100
AcDbEntity
  8
化粧台
  6
CONTINUOUS
 62
     6
100
AcDbCircle
 10
920.0
 20
1350.0
 30
0.0
 40
33.0
100
AcDbArc
 50
120.5024866625967
 51
240.9974539733312
  0
LINE
  5
2B3
330
1F
100
AcDbEntity
  8
化粧台
  6
CONTINUOUS
 62
     6
100
AcDbLine
 10
936.0
 20
1310.999999999949
 30
0.0
 11
941.5
 21
1310.999999999949
 31
0.0
  0
LINE
  5
2B4
330
1F
100
AcDbEntity
  8
化粧台
  6
CONTINUOUS
 62
     6
100
AcDbLine
 10
936.0
 20
1298.999999999949
 30
0.0
 11
941.5
 21
1298.999999999949
 31
0.0
  0
LINE
  5
2B5
330
1F
100
AcDbEntity
  8
化粧台
  6
CONTINUOUS
 62
     6
100
AcDbLine
 10
898.5
 20
1298.999999999949
 30
0.0
 11
904.0000000000009
 21
1298.999999999949
 31
0.0
  0
LINE
  5
2B6
330
1F
100
AcDbEntity
  8
化粧台
  6
CONTINUOUS
 62
     6
100
AcDbLine
 10
898.5
 20
1310.999999999949
 30
0.0
 11
904.0000000000009
 21
1310.999999999949
 31
0.0
  0
ELLIPSE
  5
2B7
330
1F
100
AcDbEntity
  8
化粧台
  6
CONTINUOUS
 62
     6
100
AcDbEllipse
 10
930.75
 20
1304.999999999949
 30
0.0
 11
9.236476601000053
 21
0.0
 31
0.0
210
0.0
220
0.0
230
1.0
 40
0.6495983543497932
 41
5.316947084024834
 42
7.249423530334343
  0
ELLIPSE
  5
2B8
330
1F
100
AcDbEntity
  8
化粧台
  6
CONTINUOUS
 62
     6
100
AcDbEllipse
 10
909.25
 20
1304.999999999949
 30
0.0
 11
9.236476601000053
 21
0.0
 31
0.0
210
0.0
220
0.0
230
1.0
 40
0.6495983543497932
 41
2.175354430434986
 42
4.107830876744602
  0
LINE
  5
2B9
330
1F
100
AcDbEntity
  8
化粧台
  6
CONTINUOUS
 62
     6
100
AcDbLine
 10
898.5
 20
1310.999999999949
 30
0.0
 11
898.5
 21
1298.999999999949
 31
0.0
  0
LINE
  5
2BA
330
1F
100
AcDbEntity
  8
化粧台
  6
CONTINUOUS
 62
     6
100
AcDbLine
 10
941.5
 20
1310.999999999949
 30
0.0
 11
941.5
 21
1298.999999999949
 31
0.0
  0
LINE
  5
2BB
330
1F
100
AcDbEntity
  8
化粧台
  6
CONTINUOUS
 62
     6
100
AcDbLine
 10
898.5
 20
1393.999999999949
 30
0.0
 11
941.5
 21
1393.999999999949
 31
0.0
  0
LINE
  5
2BC
330
1F
100
AcDbEntity
  8
化粧台
  6
CONTINUOUS
 62
     6
100
AcDbLine
 10
898.5
 20
1381.999999999949
 30
0.0
 11
941.5
 21
1381.999999999949
 31
0.0
  0
LINE
  5
2BD
330
1F
100
AcDbEntity
  8
化粧台
  6
CONTINUOUS
 62
     6
100
AcDbLine
 10
898.5
 20
1393.999999999949
 30
0.0
 11
898.5
 21
1381.999999999949
 31
0.0
  0
ELLIPSE
  5
2BE
330
1F
100
AcDbEntity
  8
化粧台
  6
CONTINUOUS
 62
     6
100
AcDbEllipse
 10
909.25
 20
1387.999999999949
 30
0.0
 11
9.236476601000053
 21
0.0
 31
0.0
210
0.0
220
0.0
230
1.0
 40
0.6495983543497931
 41
0.0
 42
6.283185307179586
  0
LINE
  5
2BF
330
1F
100
AcDbEntity
  8
化粧台
  6
CONTINUOUS
 62
     6
100
AcDbLine
 10
941.5
 20
1393.999999999949
 30
0.0
 11
941.5
 21
1381.999999999949
 31
0.0
  0
ELLIPSE
  5
2C0
330
1F
100
AcDbEntity
  8
化粧台
  6
CONTINUOUS
 62
     6
100
AcDbEllipse
 10
930.75
 20
1387.999999999949
 30
0.0
 11
9.236476601000053
 21
0.0
 31
0.0
210
0.0
220
0.0
230
1.0
 40
0.6495983543497931
 41
0.0
 42
6.283185307179586
  0
LINE
  5
2C1
330
1F
100
AcDbEntity
  8
化粧台
  6
CONTINUOUS
 62
     6
100
AcDbLine
 10
904.0
 20
1332.399886499968
 30
0.0
 11
936.0
 21
1332.399886499968
 31
0.0
  0
LINE
  5
2C2
330
1F
100
AcDbEntity
  8
化粧台
  6
CONTINUOUS
 62
     6
100
AcDbLine
 10
903.2500000000118
 20
1332.774886499961
 30
0.0
 11
904.0
 21
1332.024886499972
 31
0.0
  0
LINE
  5
2C3
330
1F
100
AcDbEntity
  8
化粧台
  6
CONTINUOUS
 62
     6
100
AcDbLine
 10
936.75000000003
 20
1332.774886499919
 30
0.0
 11
936.0
 21
1332.024886499888
 31
0.0
  0
LINE
  5
2C4
330
1F
100
AcDbEntity
  8
化粧台
  6
CONTINUOUS
 62
     6
100
AcDbLine
 10
936.7499999999982
 20
1381.999999999949
 30
0.0
 11
936.7499999999982
 21
1332.77488649995
 31
0.0
  0
LINE
  5
2C5
330
1F
100
AcDbEntity
  8
化粧台
  6
CONTINUOUS
 62
     6
100
AcDbLine
 10
903.2500000000009
 20
1381.999999999949
 30
0.0
 11
903.2500000000009
 21
1332.77488649995
 31
0.0
  0
ARC
  5
2C6
330
1F
100
AcDbEntity
  8
化粧台
  6
CONTINUOUS
 62
     2
100
AcDbCircle
 10
1138.499999999997
 20
1443.47533905005
 30
0.0
 40
300.0
100
AcDbArc
 50
164.231638666689
 51
180.0
  0
ARC
  5
2C7
330
1F
100
AcDbEntity
  8
化粧台
  6
CONTINUOUS
 62
     2
100
AcDbCircle
 10
1138.499999999997
 20
1443.47533905005
 30
0.0
 40
287.0
100
AcDbArc
 50
163.4974479361903
 51
180.0
  0
ARC
  5
2C8
330
1F
100
AcDbEntity
  8
化粧台
  6
CONTINUOUS
 62
     2
100
AcDbCircle
 10
701.5000000000027
 20
1443.47533905005
 30
0.0
 40
287.0
100
AcDbArc
 50
0.0
 51
16.50255206380972
  0
ARC
  5
2C9
330
1F
100
AcDbEntity
  8
化粧台
  6
CONTINUOUS
 62
     2
100
AcDbCircle
 10
701.5000000000027
 20
1443.47533905005
 30
0.0
 40
300.0
100
AcDbArc
 50
0.0
 51
15.76836133331106
  0
LINE
  5
2CA
330
1F
100
AcDbEntity
  8
化粧台
  6
CONTINUOUS
 62
     2
100
AcDbLine
 10
940.0
 20
1524.999999999999
 30
0.0
 11
939.9999999999991
 21
1520.0
 31
0.0
  0
LINE
  5
2CB
330
1F
100
AcDbEntity
  8
化粧台
  6
CONTINUOUS
 62
     2
100
AcDbLine
 10
900.0
 20
1524.999999999999
 30
0.0
 11
900.0000000000027
 21
1520.0
 31
0.0
  0
LINE
  5
2CC
330
1F
100
AcDbEntity
  8
化粧台
  6
CONTINUOUS
 62
     2
100
AcDbLine
 10
940.0000000000027
 20
1520.0
 30
0.0
 11
900.0000000000027
 21
1520.0
 31
0.0
  0
LINE
  5
2CD
330
1F
100
AcDbEntity
  8
化粧台
  6
CONTINUOUS
 62
     2
100
AcDbLine
 10
936.0000000000027
 20
1517.999999999999
 30
0.0
 11
904.0000000000027
 21
1517.999999999999
 31
0.0
  0
LINE
  5
2CE
330
1F
100
AcDbEntity
  8
化粧台
  6
CONTINUOUS
 62
     2
100
AcDbLine
 10
904.0000000000027
 20
1517.999999999999
 30
0.0
 11
900.0000000000027
 21
1520.0
 31
0.0
  0
LINE
  5
2CF
330
1F
100
AcDbEntity
  8
化粧台
  6
CONTINUOUS
 62
     2
100
AcDbLine
 10
936.0000000000027
 20
1517.999999999999
 30
0.0
 11
940.0000000000027
 21
1520.0
 31
0.0
  0
LINE
  5
2D0
330
1F
100
AcDbEntity
  8
化粧台
  6
CONTINUOUS
 62
     6
100
AcDbLine
 10
821.6435055525053
 20
1736.0
 30
0.0
 11
1018.356494447488
 21
1736.0
 31
0.0
  0
ARC
  5
2D1
330
1F
100
AcDbEntity
  8
化粧台
  6
CONTINUOUS
 62
     2
100
AcDbCircle
 10
920.0
 20
6572.500000000005
 30
0.0
 40
4837.500000000005
100
AcDbArc
 50
267.4553150987836
 51
272.5446849012167
  0
ARC
  5
2D2
330
1F
100
AcDbEntity
  8
化粧台
  6
CONTINUOUS
 62
     2
100
AcDbCircle
 10
1139.999999999998
 20
1735.0
 30
0.0
 40
5.0
100
AcDbArc
 50
340.6141401105788
 51
87.39609465484251
  0
ARC
  5
2D3
330
1F
100
AcDbEntity
  8
化粧台
  6
CONTINUOUS
 62
     2
100
AcDbCircle
 10
700.0
 20
1735.0
 30
0.0
 40
5.0
100
AcDbArc
 50
92.60390534515754
 51
199.3858598894216
  0
LINE
  5
2D4
330
1F
100
AcDbEntity
  8
化粧台
  6
CONTINUOUS
 62
     2
100
AcDbLine
 10
751.0
 20
1574.999999999999
 30
0.0
 11
1088.999999999998
 21
1574.999999999999
 31
0.0
  0
LINE
  5
2D5
330
1F
100
AcDbEntity
  8
化粧台
  6
CONTINUOUS
 62
     2
100
AcDbLine
 10
1088.999999999998
 20
1574.999999999999
 30
0.0
 11
1144.71652301881
 21
1733.340358287754
 31
0.0
  0
LINE
  5
2D6
330
1F
100
AcDbEntity
  8
化粧台
  6
CONTINUOUS
 62
     2
100
AcDbLine
 10
695.2834769811889
 20
1733.340358287754
 30
0.0
 11
751.0
 21
1574.999999999999
 31
0.0
  0
ARC
  5
2D7
330
1F
100
AcDbEntity
  8
化粧台
  6
CONTINUOUS
 62
     6
100
AcDbCircle
 10
845.0
 20
1314.999999999999
 30
0.0
 40
27.50000000000002
100
AcDbArc
 50
114.7198511829102
 51
65.28014881708874
  0
LINE
  5
2D8
330
1F
100
AcDbEntity
  8
化粧台
  6
CONTINUOUS
 62
     6
100
AcDbLine
 10
845.0
 20
1344.999999999999
 30
0.0
 11
845.0
 21
1284.999999999999
 31
0.0
  0
LINE
  5
2D9
330
1F
100
AcDbEntity
  8
化粧台
  6
CONTINUOUS
 62
     6
100
AcDbLine
 10
815.0
 20
1314.999999999999
 30
0.0
 11
875.0
 21
1314.999999999999
 31
0.0
  0
LINE
  5
2DA
330
1F
100
AcDbEntity
  8
化粧台
  6
CONTINUOUS
 62
     6
100
AcDbLine
 10
834.5
 20
1337.699999999999
 30
0.0
 11
834.5
 21
1323.948929172443
 31
0.0
  0
LINE
  5
2DB
330
1F
100
AcDbEntity
  8
化粧台
  6
CONTINUOUS
 62
     6
100
AcDbLine
 10
855.5
 20
1337.699999999999
 30
0.0
 11
855.5
 21
1323.948929172442
 31
0.0
  0
CIRCLE
  5
2DC
330
1F
100
AcDbEntity
  8
化粧台
  6
CONTINUOUS
 62
     6
100
AcDbCircle
 10
845.0
 20
1314.999999999999
 30
0.0
 40
12.07434891639
  0
CIRCLE
  5
2DD
330
1F
100
AcDbEntity
  8
化粧台
  6
CONTINUOUS
 62
     6
100
AcDbCircle
 10
845.0
 20
1314.999999999999
 30
0.0
 40
4.75
  0
ARC
  5
2DE
330
1F
100
AcDbEntity
  8
化粧台
  6
CONTINUOUS
 62
     6
100
AcDbCircle
 10
845.0
 20
1314.999999999999
 30
0.0
 40
14.25000000000001
100
AcDbArc
 50
204.1775448336003
 51
215.8224551664
  0
ARC
  5
2DF
330
1F
100
AcDbEntity
  8
化粧台
  6
CONTINUOUS
 62
     6
100
AcDbCircle
 10
845.0
 20
1314.999999999999
 30
0.0
 40
14.25000000000001
100
AcDbArc
 50
144.1775448336404
 51
155.8224551663601
  0
ARC
  5
2E0
330
1F
100
AcDbEntity
  8
化粧台
  6
CONTINUOUS
 62
     6
100
AcDbCircle
 10
845.0
 20
1314.999999999999
 30
0.0
 40
14.25000000000001
100
AcDbArc
 50
84.1775448336001
 51
95.82245516635992
  0
ARC
  5
2E1
330
1F
100
AcDbEntity
  8
化粧台
  6
CONTINUOUS
 62
     6
100
AcDbCircle
 10
845.0
 20
1314.999999999999
 30
0.0
 40
14.25000000000001
100
AcDbArc
 50
24.17754483359991
 51
35.82245516639971
  0
ARC
  5
2E2
330
1F
100
AcDbEntity
  8
化粧台
  6
CONTINUOUS
 62
     6
100
AcDbCircle
 10
845.0
 20
1314.999999999999
 30
0.0
 40
14.25000000000001
100
AcDbArc
 50
324.1775448336001
 51
335.8224551664001
  0
ARC
  5
2E3
330
1F
100
AcDbEntity
  8
化粧台
  6
CONTINUOUS
 62
     6
100
AcDbCircle
 10
845.0
 20
1314.999999999999
 30
0.0
 40
14.25000000000001
100
AcDbArc
 50
264.1775448336001
 51
275.8224551664
  0
LINE
  5
2E4
330
1F
100
AcDbEntity
  8
化粧台
  6
CONTINUOUS
 62
     6
100
AcDbLine
 10
846.4456083452096
 20
1300.823515368319
 30
0.0
 11
856.5543916547895
 21
1306.659824133279
 31
0.0
  0
LINE
  5
2E5
330
1F
100
AcDbEntity
  8
化粧台
  6
CONTINUOUS
 62
     6
100
AcDbLine
 10
833.4456083452096
 20
1306.659824133279
 30
0.0
 11
843.5543916547895
 21
1300.823515368319
 31
0.0
  0
LINE
  5
2E6
330
1F
100
AcDbEntity
  8
化粧台
  6
CONTINUOUS
 62
     6
100
AcDbLine
 10
832.0
 20
1320.83630876496
 30
0.0
 11
832.0
 21
1309.163691235039
 31
0.0
  0
LINE
  5
2E7
330
1F
100
AcDbEntity
  8
化粧台
  6
CONTINUOUS
 62
     6
100
AcDbLine
 10
843.5543916547904
 20
1329.176484631679
 30
0.0
 11
833.4456083452096
 21
1323.340175866719
 31
0.0
  0
LINE
  5
2E8
330
1F
100
AcDbEntity
  8
化粧台
  6
CONTINUOUS
 62
     6
100
AcDbLine
 10
856.5543916547895
 20
1323.340175866719
 30
0.0
 11
846.4456083452096
 21
1329.176484631679
 31
0.0
  0
LINE
  5
2E9
330
1F
100
AcDbEntity
  8
化粧台
  6
CONTINUOUS
 62
     6
100
AcDbLine
 10
858.0
 20
1309.163691235039
 30
0.0
 11
858.0
 21
1320.83630876496
 31
0.0
  0
ELLIPSE
  5
2EA
330
1F
100
AcDbEntity
  8
化粧台
  6
CONTINUOUS
 62
     6
100
AcDbEllipse
 10
850.75097110965
 20
1343.699999999999
 30
0.0
 11
3.118494002032691E-16
 21
5.09288719687
 31
0.0
210
0.0
220
0.0
230
1.0
 40
0.936409683937426
 41
0.0
 42
6.283185307179586
  0
ELLIPSE
  5
2EB
330
1F
100
AcDbEntity
  8
化粧台
  6
CONTINUOUS
 62
     6
100
AcDbEllipse
 10
839.24902889035
 20
1343.699999999999
 30
0.0
 11
-9.355482006098073E-16
 21
-5.09288719687
 31
0.0
210
0.0
220
0.0
230
1.0
 40
0.936409683937426
 41
0.0
 42
6.283185307179586
  0
LINE
  5
2EC
330
1F
100
AcDbEntity
  8
化粧台
  6
CONTINUOUS
 62
     2
100
AcDbLine
 10
855.9695444572899
 20
1337.699999999999
 30
0.0
 11
834.0304555427101
 21
1337.699999999999
 31
0.0
  0
LINE
  5
2ED
330
1F
100
AcDbEntity
  8
化粧台
  6
CONTINUOUS
 62
     2
100
AcDbLine
 10
855.9695444572899
 20
1349.699999999999
 30
0.0
 11
834.0304555427101
 21
1349.699999999999
 31
0.0
  0
LINE
  5
2EE
330
1F
100
AcDbEntity
  8
化粧台
  6
CONTINUOUS
 62
     2
100
AcDbLine
 10
856.5
 20
1348.792887196869
 30
0.0
 11
856.5
 21
1338.607112803129
 31
0.0
  0
LINE
  5
2EF
330
1F
100
AcDbEntity
  8
化粧台
  6
CONTINUOUS
 62
     2
100
AcDbLine
 10
833.5
 20
1348.792887196869
 30
0.0
 11
833.5
 21
1338.607112803129
 31
0.0
  0
ARC
  5
2F0
330
1F
100
AcDbEntity
  8
化粧台
  6
CONTINUOUS
 62
     2
100
AcDbCircle
 10
846.75
 20
1343.699999999999
 30
0.0
 40
11.0
100
AcDbArc
 50
27.58019920360115
 51
33.05573115089945
  0
ARC
  5
2F1
330
1F
100
AcDbEntity
  8
化粧台
  6
CONTINUOUS
 62
     2
100
AcDbCircle
 10
846.75
 20
1343.699999999999
 30
0.0
 40
11.0
100
AcDbArc
 50
326.9442688491007
 51
332.4198007963992
  0
ARC
  5
2F2
330
1F
100
AcDbEntity
  8
化粧台
  6
CONTINUOUS
 62
     2
100
AcDbCircle
 10
843.25
 20
1343.699999999999
 30
0.0
 40
11.0
100
AcDbArc
 50
207.5801992036012
 51
213.0557311508995
  0
ARC
  5
2F3
330
1F
100
AcDbEntity
  8
化粧台
  6
CONTINUOUS
 62
     2
100
AcDbCircle
 10
843.25
 20
1343.699999999999
 30
0.0
 40
11.0
100
AcDbArc
 50
146.9442688491492
 51
152.4198007964095
  0
LINE
  5
2F4
330
1F
100
AcDbEntity
  8
化粧台
  6
CONTINUOUS
 62
     2
100
AcDbLine
 10
838.4999999999973
 20
1349.699999999999
 30
0.0
 11
838.4999999999973
 21
1443.47533905005
 31
0.0
  0
LINE
  5
2F5
330
1F
100
AcDbEntity
  8
化粧台
  6
CONTINUOUS
 62
     2
100
AcDbLine
 10
851.4999999999973
 20
1443.47533905005
 30
0.0
 11
851.4999999999973
 21
1349.699999999999
 31
0.0
  0
LINE
  5
2F6
330
1F
100
AcDbEntity
  8
化粧台
  6
CONTINUOUS
 62
     2
100
AcDbLine
 10
1001.500000000002
 20
1349.699999999999
 30
0.0
 11
1001.500000000002
 21
1443.47533905005
 31
0.0
  0
LINE
  5
2F7
330
1F
100
AcDbEntity
  8
化粧台
  6
CONTINUOUS
 62
     2
100
AcDbLine
 10
988.500000000002
 20
1443.47533905005
 30
0.0
 11
988.500000000002
 21
1349.699999999999
 31
0.0
  0
ARC
  5
2F8
330
1F
100
AcDbEntity
  8
化粧台
  6
CONTINUOUS
 62
     6
100
AcDbCircle
 10
995.0000000000005
 20
1314.999999999999
 30
0.0
 40
27.50000000000002
100
AcDbArc
 50
114.7198511829113
 51
65.28014881709005
  0
LINE
  5
2F9
330
1F
100
AcDbEntity
  8
化粧台
  6
CONTINUOUS
 62
     6
100
AcDbLine
 10
995.0000000000005
 20
1344.999999999999
 30
0.0
 11
995.0000000000005
 21
1284.999999999999
 31
0.0
  0
LINE
  5
2FA
330
1F
100
AcDbEntity
  8
化粧台
  6
CONTINUOUS
 62
     6
100
AcDbLine
 10
1025.0
 20
1314.999999999999
 30
0.0
 11
965.0000000000005
 21
1314.999999999999
 31
0.0
  0
LINE
  5
2FB
330
1F
100
AcDbEntity
  8
化粧台
  6
CONTINUOUS
 62
     6
100
AcDbLine
 10
1005.5
 20
1337.699999999999
 30
0.0
 11
1005.5
 21
1323.948929172443
 31
0.0
  0
LINE
  5
2FC
330
1F
100
AcDbEntity
  8
化粧台
  6
CONTINUOUS
 62
     6
100
AcDbLine
 10
984.5000000000005
 20
1337.699999999999
 30
0.0
 11
984.5000000000005
 21
1323.948929172442
 31
0.0
  0
CIRCLE
  5
2FD
330
1F
100
AcDbEntity
  8
化粧台
  6
CONTINUOUS
 62
     6
100
AcDbCircle
 10
995.0000000000005
 20
1314.999999999999
 30
0.0
 40
12.07434891639
  0
CIRCLE
  5
2FE
330
1F
100
AcDbEntity
  8
化粧台
  6
CONTINUOUS
 62
     6
100
AcDbCircle
 10
995.0000000000005
 20
1314.999999999999
 30
0.0
 40
4.75
  0
ARC
  5
2FF
330
1F
100
AcDbEntity
  8
化粧台
  6
CONTINUOUS
 62
     6
100
AcDbCircle
 10
995.0000000000005
 20
1314.999999999999
 30
0.0
 40
14.25000000000001
100
AcDbArc
 50
324.1775448336002
 51
335.8224551664001
  0
ARC
  5
300
330
1F
100
AcDbEntity
  8
化粧台
  6
CONTINUOUS
 62
     6
100
AcDbCircle
 10
995.0000000000005
 20
1314.999999999999
 30
0.0
 40
14.25000000000001
100
AcDbArc
 50
24.17754483363996
 51
35.82245516635925
  0
ARC
  5
301
330
1F
100
AcDbEntity
  8
化粧台
  6
CONTINUOUS
 62
     6
100
AcDbCircle
 10
995.0000000000005
 20
1314.999999999999
 30
0.0
 40
14.25000000000001
100
AcDbArc
 50
84.17754483364021
 51
95.82245516639985
  0
ARC
  5
302
330
1F
100
AcDbEntity
  8
化粧台
  6
CONTINUOUS
 62
     6
100
AcDbCircle
 10
995.0000000000005
 20
1314.999999999999
 30
0.0
 40
14.25000000000001
100
AcDbArc
 50
144.1775448336004
 51
155.8224551664001
  0
ARC
  5
303
330
1F
100
AcDbEntity
  8
化粧台
  6
CONTINUOUS
 62
     6
100
AcDbCircle
 10
995.0000000000005
 20
1314.999999999999
 30
0.0
 40
14.25000000000001
100
AcDbArc
 50
204.1775448335999
 51
215.8224551663999
  0
ARC
  5
304
330
1F
100
AcDbEntity
  8
化粧台
  6
CONTINUOUS
 62
     6
100
AcDbCircle
 10
995.0000000000005
 20
1314.999999999999
 30
0.0
 40
14.25000000000001
100
AcDbArc
 50
264.1775448336003
 51
275.8224551663999
  0
LINE
  5
305
330
1F
100
AcDbEntity
  8
化粧台
  6
CONTINUOUS
 62
     6
100
AcDbLine
 10
993.5543916547908
 20
1300.823515368319
 30
0.0
 11
983.445608345211
 21
1306.659824133279
 31
0.0
  0
LINE
  5
306
330
1F
100
AcDbEntity
  8
化粧台
  6
CONTINUOUS
 62
     6
100
AcDbLine
 10
1006.554391654791
 20
1306.659824133279
 30
0.0
 11
996.445608345211
 21
1300.823515368319
 31
0.0
  0
LINE
  5
307
330
1F
100
AcDbEntity
  8
化粧台
  6
CONTINUOUS
 62
     6
100
AcDbLine
 10
1008.0
 20
1320.83630876496
 30
0.0
 11
1008.0
 21
1309.163691235039
 31
0.0
  0
LINE
  5
308
330
1F
100
AcDbEntity
  8
化粧台
  6
CONTINUOUS
 62
     6
100
AcDbLine
 10
996.4456083452101
 20
1329.176484631679
 30
0.0
 11
1006.554391654791
 21
1323.340175866719
 31
0.0
  0
LINE
  5
309
330
1F
100
AcDbEntity
  8
化粧台
  6
CONTINUOUS
 62
     6
100
AcDbLine
 10
983.445608345211
 20
1323.340175866719
 30
0.0
 11
993.5543916547908
 21
1329.176484631679
 31
0.0
  0
LINE
  5
30A
330
1F
100
AcDbEntity
  8
化粧台
  6
CONTINUOUS
 62
     6
100
AcDbLine
 10
982.0000000000005
 20
1309.163691235039
 30
0.0
 11
982.0000000000005
 21
1320.83630876496
 31
0.0
  0
ELLIPSE
  5
30B
330
1F
100
AcDbEntity
  8
化粧台
  6
CONTINUOUS
 62
     6
100
AcDbEllipse
 10
989.2490288903505
 20
1343.699999999999
 30
0.0
 11
3.118494002032691E-16
 21
5.09288719687
 31
0.0
210
0.0
220
0.0
230
1.0
 40
0.936409683937426
 41
0.0
 42
6.283185307179586
  0
ELLIPSE
  5
30C
330
1F
100
AcDbEntity
  8
化粧台
  6
CONTINUOUS
 62
     6
100
AcDbEllipse
 10
1000.75097110965
 20
1343.699999999999
 30
0.0
 11
-9.355482006098073E-16
 21
-5.09288719687
 31
0.0
210
0.0
220
0.0
230
1.0
 40
0.936409683937426
 41
0.0
 42
6.283185307179586
  0
LINE
  5
30D
330
1F
100
AcDbEntity
  8
化粧台
  6
CONTINUOUS
 62
     2
100
AcDbLine
 10
984.0304555427106
 20
1337.699999999999
 30
0.0
 11
1005.96954445729
 21
1337.699999999999
 31
0.0
  0
LINE
  5
30E
330
1F
100
AcDbEntity
  8
化粧台
  6
CONTINUOUS
 62
     2
100
AcDbLine
 10
984.0304555427106
 20
1349.699999999999
 30
0.0
 11
1005.96954445729
 21
1349.699999999999
 31
0.0
  0
LINE
  5
30F
330
1F
100
AcDbEntity
  8
化粧台
  6
CONTINUOUS
 62
     2
100
AcDbLine
 10
983.5000000000005
 20
1348.792887196869
 30
0.0
 11
983.5000000000005
 21
1338.607112803129
 31
0.0
  0
LINE
  5
310
330
1F
100
AcDbEntity
  8
化粧台
  6
CONTINUOUS
 62
     2
100
AcDbLine
 10
1006.5
 20
1348.792887196869
 30
0.0
 11
1006.5
 21
1338.607112803129
 31
0.0
  0
ARC
  5
311
330
1F
100
AcDbEntity
  8
化粧台
  6
CONTINUOUS
 62
     2
100
AcDbCircle
 10
993.2500000000005
 20
1343.699999999999
 30
0.0
 40
11.0
100
AcDbArc
 50
146.944268849101
 51
152.419800796399
  0
ARC
  5
312
330
1F
100
AcDbEntity
  8
化粧台
  6
CONTINUOUS
 62
     2
100
AcDbCircle
 10
993.2500000000005
 20
1343.699999999999
 30
0.0
 40
11.0
100
AcDbArc
 50
207.5801992036012
 51
213.0557311508992
  0
ARC
  5
313
330
1F
100
AcDbEntity
  8
化粧台
  6
CONTINUOUS
 62
     2
100
AcDbCircle
 10
996.7500000000005
 20
1343.699999999999
 30
0.0
 40
11.0
100
AcDbArc
 50
326.9442688491009
 51
332.4198007963991
  0
ARC
  5
314
330
1F
100
AcDbEntity
  8
化粧台
  6
CONTINUOUS
 62
     2
100
AcDbCircle
 10
996.7500000000005
 20
1343.699999999999
 30
0.0
 40
11.0
100
AcDbArc
 50
27.58019920359056
 51
33.05573115085122
  0
LINE
  5
315
330
1F
100
AcDbEntity
  8
化粧台
  6
CONTINUOUS
 62
     6
100
AcDbLine
 10
2458.0
 20
1325.5
 30
0.0
 11
2458.0
 21
1304.5
 31
0.0
  0
LINE
  5
316
330
1F
100
AcDbEntity
  8
化粧台
  6
CONTINUOUS
 62
     6
100
AcDbLine
 10
2365.0
 20
1345.0
 30
0.0
 11
2365.0
 21
1285.0
 31
0.0
  0
LINE
  5
317
330
1F
100
AcDbEntity
  8
化粧台
  6
EXLTYPE3
 62
     6
100
AcDbLine
 10
2322.0
 20
1315.0
 30
0.0
 11
2467.999999999999
 21
1315.0
 31
0.0
  0
LINE
  5
318
330
1F
100
AcDbEntity
  8
化粧台
  6
EXLTYPE2
 62
     6
100
AcDbLine
 10
2393.0
 20
1304.5
 30
0.0
 11
2415.4
 21
1304.5
 31
0.0
  0
LINE
  5
319
330
1F
100
AcDbEntity
  8
化粧台
  6
EXLTYPE2
 62
     6
100
AcDbLine
 10
2393.0
 20
1325.5
 30
0.0
 11
2415.4
 21
1325.5
 31
0.0
  0
LINE
  5
31A
330
1F
100
AcDbEntity
  8
化粧台
  6
EXLTYPE2
 62
     6
100
AcDbLine
 10
2431.4
 20
1304.5
 30
0.0
 11
2458.0
 21
1304.5
 31
0.0
  0
LINE
  5
31B
330
1F
100
AcDbEntity
  8
化粧台
  6
EXLTYPE2
 62
     6
100
AcDbLine
 10
2431.4
 20
1325.5
 30
0.0
 11
2458.0
 21
1325.5
 31
0.0
  0
LINE
  5
31C
330
1F
100
AcDbEntity
  8
化粧台
  6
EXLTYPE2
 62
     6
100
AcDbLine
 10
2415.4
 20
1304.25
 30
0.0
 11
2415.4
 21
1325.75
 31
0.0
  0
LINE
  5
31D
330
1F
100
AcDbEntity
  8
化粧台
  6
EXLTYPE2
 62
     6
100
AcDbLine
 10
2429.4
 20
1287.5
 30
0.0
 11
2431.4
 21
1287.5
 31
0.0
  0
ARC
  5
31E
330
1F
100
AcDbEntity
  8
化粧台
  6
EXLTYPE2
 62
     6
100
AcDbCircle
 10
2429.4
 20
1300.5
 30
0.0
 40
13.00000000000001
100
AcDbArc
 50
203.5808366037087
 51
270.0000000000002
  0
ARC
  5
31F
330
1F
100
AcDbEntity
  8
化粧台
  6
EXLTYPE2
 62
     6
100
AcDbCircle
 10
2440.672907943694
 20
1305.420522989787
 30
0.0
 40
25.3
100
AcDbArc
 50
182.6517777161361
 51
203.5808366037087
  0
LINE
  5
320
330
1F
100
AcDbEntity
  8
化粧台
  6
EXLTYPE2
 62
     6
100
AcDbLine
 10
2429.4
 20
1342.5
 30
0.0
 11
2431.4
 21
1342.5
 31
0.0
  0
ARC
  5
321
330
1F
100
AcDbEntity
  8
化粧台
  6
EXLTYPE2
 62
     6
100
AcDbCircle
 10
2429.4
 20
1329.5
 30
0.0
 40
13.00000000000001
100
AcDbArc
 50
90.00000000000004
 51
156.4191633962913
  0
ARC
  5
322
330
1F
100
AcDbEntity
  8
化粧台
  6
EXLTYPE2
 62
     6
100
AcDbCircle
 10
2440.672907943694
 20
1324.579477010213
 30
0.0
 40
25.3
100
AcDbArc
 50
156.4191633962913
 51
177.3482222838639
  0
LINE
  5
323
330
1F
100
AcDbEntity
  8
化粧台
  6
EXLTYPE2
 62
     6
100
AcDbLine
 10
2431.4
 20
1287.5
 30
0.0
 11
2431.4
 21
1342.5
 31
0.0
  0
ARC
  5
324
330
1F
100
AcDbEntity
  8
化粧台
  6
EXLTYPE2
 62
     6
100
AcDbCircle
 10
2386.233492688986
 20
1303.958176101744
 30
0.0
 40
6.48477522399863
100
AcDbArc
 50
334.5814208763676
 51
34.58142087631842
  0
ARC
  5
325
330
1F
100
AcDbEntity
  8
化粧台
  6
EXLTYPE2
 62
     6
100
AcDbCircle
 10
2386.233492688988
 20
1326.041823898255
 30
0.0
 40
6.484775223996668
100
AcDbArc
 50
325.4185791236709
 51
25.41857912362466
  0
LINE
  5
326
330
1F
100
AcDbEntity
  8
化粧台
  6
EXLTYPE2
 62
     6
100
AcDbLine
 10
2332.0
 20
1319.75
 30
0.0
 11
2332.0
 21
1310.25
 31
0.0
  0
LINE
  5
327
330
1F
100
AcDbEntity
  8
化粧台
  6
EXLTYPE2
 62
     6
100
AcDbLine
 10
2332.0
 20
1310.25
 30
0.0
 11
2337.600000000001
 21
1310.25
 31
0.0
  0
LINE
  5
328
330
1F
100
AcDbEntity
  8
化粧台
  6
EXLTYPE2
 62
     6
100
AcDbLine
 10
2332.0
 20
1319.75
 30
0.0
 11
2337.600000000001
 21
1319.75
 31
0.0
  0
LINE
  5
329
330
1F
100
AcDbEntity
  8
化粧台
  6
EXLTYPE2
 62
     6
100
AcDbLine
 10
2375.5
 20
1331.0
 30
0.0
 11
2375.5
 21
1337.699999999999
 31
0.0
  0
LINE
  5
32A
330
1F
100
AcDbEntity
  8
化粧台
  6
EXLTYPE2
 62
     6
100
AcDbLine
 10
2354.5
 20
1331.0
 30
0.0
 11
2354.5
 21
1337.699999999999
 31
0.0
  0
LINE
  5
32B
330
1F
100
AcDbEntity
  8
化粧台
  6
EXLTYPE2
 62
     6
100
AcDbLine
 10
2391.57254079757
 20
1322.361215932169
 30
0.0
 11
2386.0
 21
1322.361215932169
 31
0.0
  0
ARC
  5
32C
330
1F
100
AcDbEntity
  8
化粧台
  6
EXLTYPE2
 62
     6
100
AcDbCircle
 10
2368.350108933172
 20
1315.0
 30
0.0
 40
24.36121593222906
100
AcDbArc
 50
342.4120462260467
 51
17.58795377395367
  0
LINE
  5
32D
330
1F
100
AcDbEntity
  8
化粧台
  6
EXLTYPE2
 62
     6
100
AcDbLine
 10
2391.57254079757
 20
1307.638784067829
 30
0.0
 11
2386.0
 21
1307.638784067829
 31
0.0
  0
ARC
  5
32E
330
1F
100
AcDbEntity
  8
化粧台
  6
EXLTYPE2
 62
     6
100
AcDbCircle
 10
2386.60996418852
 20
1303.958176101744
 30
0.0
 40
3.730808399165755
100
AcDbArc
 50
99.40974969436748
 51
210.0722396099043
  0
ARC
  5
32F
330
1F
100
AcDbEntity
  8
化粧台
  6
EXLTYPE2
 62
     6
100
AcDbCircle
 10
2393.160901979815
 20
1315.0
 30
0.0
 40
10.26966490030429
100
AcDbArc
 50
134.209728477994
 51
225.790271522007
  0
ARC
  5
330
330
1F
100
AcDbEntity
  8
化粧台
  6
EXLTYPE2
 62
     6
100
AcDbCircle
 10
2386.60996418852
 20
1326.041823898255
 30
0.0
 40
3.730808399165569
100
AcDbArc
 50
149.9277603900981
 51
260.590250305647
  0
LINE
  5
331
330
1F
100
AcDbEntity
  8
化粧台
  6
EXLTYPE2
 62
     6
100
AcDbLine
 10
2350.5
 20
1302.5
 30
0.0
 11
2381.10587997238
 21
1302.5
 31
0.0
  0
LINE
  5
332
330
1F
100
AcDbEntity
  8
化粧台
  6
EXLTYPE2
 62
     6
100
AcDbLine
 10
2350.5
 20
1327.5
 30
0.0
 11
2351.0
 21
1327.5
 31
0.0
  0
ELLIPSE
  5
333
330
1F
100
AcDbEntity
  8
化粧台
  6
EXLTYPE2
 62
     6
100
AcDbEllipse
 10
2346.72508278236
 20
1326.295087933359
 30
0.0
 11
-3.49106001094
 21
-2.673152616792092E-15
 31
0.0
210
0.0
220
0.0
230
1.0
 40
0.8464225929603442
 41
0.0
 42
6.283185307179586
  0
ELLIPSE
  5
334
330
1F
100
AcDbEntity
  8
化粧台
  6
EXLTYPE2
 62
     6
100
AcDbEllipse
 10
2346.72508278236
 20
1315.0
 30
0.0
 11
-3.530391779415926E-15
 21
5.83630876496
 31
0.0
210
0.0
220
0.0
230
1.0
 40
0.5981623234020119
 41
0.0
 42
6.283185307179586
  0
ELLIPSE
  5
335
330
1F
100
AcDbEntity
  8
化粧台
  6
EXLTYPE2
 62
     6
100
AcDbEllipse
 10
2346.72508278236
 20
1303.70491206664
 30
0.0
 11
-3.49106001094
 21
-2.673152616792092E-15
 31
0.0
210
0.0
220
0.0
230
1.0
 40
0.8464225929603442
 41
0.0
 42
6.283185307179586
  0
LINE
  5
336
330
1F
100
AcDbEntity
  8
化粧台
  6
EXLTYPE2
 62
     6
100
AcDbLine
 10
2342.34345017772
 20
1302.925651083609
 30
0.0
 11
2342.34345017772
 21
1327.074348916489
 31
0.0
  0
LINE
  5
337
330
1F
100
AcDbEntity
  8
化粧台
  6
EXLTYPE2
 62
     6
100
AcDbLine
 10
2337.600000000001
 20
1320.299999999999
 30
0.0
 11
2342.34345017772
 21
1327.07434891639
 31
0.0
  0
ARC
  5
338
330
1F
100
AcDbEntity
  8
化粧台
  6
EXLTYPE2
 62
     6
100
AcDbCircle
 10
2346.72508278236
 20
1323.75
 30
0.0
 40
5.5
100
AcDbArc
 50
46.65824177279989
 51
142.8123740608007
  0
LINE
  5
339
330
1F
100
AcDbEntity
  8
化粧台
  6
EXLTYPE2
 62
     6
100
AcDbLine
 10
2337.600000000001
 20
1309.699999999999
 30
0.0
 11
2342.34345017772
 21
1302.925651083609
 31
0.0
  0
ARC
  5
33A
330
1F
100
AcDbEntity
  8
化粧台
  6
EXLTYPE2
 62
     6
100
AcDbCircle
 10
2346.72508278236
 20
1306.25
 30
0.0
 40
5.5
100
AcDbArc
 50
217.1876259392006
 51
313.3417582272002
  0
LINE
  5
33B
330
1F
100
AcDbEntity
  8
化粧台
  6
EXLTYPE2
 62
     6
100
AcDbLine
 10
2350.5
 20
1302.25
 30
0.0
 11
2350.5
 21
1327.75
 31
0.0
  0
LINE
  5
33C
330
1F
100
AcDbEntity
  8
化粧台
  6
EXLTYPE2
 62
     6
100
AcDbLine
 10
2337.600000000001
 20
1309.699999999999
 30
0.0
 11
2337.600000000001
 21
1320.299999999999
 31
0.0
  0
LINE
  5
33D
330
1F
100
AcDbEntity
  8
化粧台
  6
EXLTYPE2
 62
     6
100
AcDbLine
 10
2379.0
 20
1327.5
 30
0.0
 11
2381.105879972376
 21
1327.5
 31
0.0
  0
ARC
  5
33E
330
1F
100
AcDbEntity
  8
化粧台
  6
EXLTYPE2
 62
     6
100
AcDbCircle
 10
2379.0
 20
1331.0
 30
0.0
 40
3.500000000000002
100
AcDbArc
 50
180.0
 51
270.0000000000002
  0
ARC
  5
33F
330
1F
100
AcDbEntity
  8
化粧台
  6
EXLTYPE2
 62
     6
100
AcDbCircle
 10
2351.0
 20
1331.0
 30
0.0
 40
3.500000000000002
100
AcDbArc
 50
270.0000000000002
 51
0.0
  0
LINE
  5
340
330
1F
100
AcDbEntity
  8
化粧台
  6
EXLTYPE2
 62
     6
100
AcDbLine
 10
2391.57254079757
 20
1300.27756813566
 30
0.0
 11
2386.0
 21
1300.27756813566
 31
0.0
  0
LINE
  5
341
330
1F
100
AcDbEntity
  8
化粧台
  6
EXLTYPE2
 62
     6
100
AcDbLine
 10
2391.57254079757
 20
1329.722431864339
 30
0.0
 11
2386.0
 21
1329.722431864339
 31
0.0
  0
LINE
  5
342
330
1F
100
AcDbEntity
  8
化粧台
  6
EXLTYPE2
 62
     6
100
AcDbLine
 10
2393.0
 20
1327.25
 30
0.0
 11
2393.0
 21
1302.75
 31
0.0
  0
LINE
  5
343
330
1F
100
AcDbEntity
  8
化粧台
  6
EXLTYPE2
 62
     6
100
AcDbLine
 10
2392.999999999999
 20
1302.75
 30
0.0
 11
2391.572540797568
 21
1300.27756813566
 31
0.0
  0
LINE
  5
344
330
1F
100
AcDbEntity
  8
化粧台
  6
EXLTYPE2
 62
     6
100
AcDbLine
 10
2392.999999999999
 20
1327.249999999999
 30
0.0
 11
2391.572540797568
 21
1329.722431864339
 31
0.0
  0
ARC
  5
345
330
1F
100
AcDbEntity
  8
化粧台
  6
EXLTYPE2
 62
     6
100
AcDbCircle
 10
2381.105879972376
 20
1296.0
 30
0.0
 40
6.500000000000004
100
AcDbArc
 50
41.1541700736668
 51
90.00000000000004
  0
ARC
  5
346
330
1F
100
AcDbEntity
  8
化粧台
  6
EXLTYPE2
 62
     6
100
AcDbCircle
 10
2381.105879972376
 20
1334.0
 30
0.0
 40
6.500000000000004
100
AcDbArc
 50
270.0000000000002
 51
318.8458299263331
  0
ARC
  5
347
330
1F
100
AcDbEntity
  8
化粧台
  6
EXLTYPE2
 62
     6
100
AcDbCircle
 10
2363.249999999999
 20
1343.699999999999
 30
0.0
 40
11.0
100
AcDbArc
 50
146.9442688491499
 51
213.0557311508992
  0
LINE
  5
348
330
1F
100
AcDbEntity
  8
化粧台
  6
EXLTYPE2
 62
     6
100
AcDbLine
 10
2375.969544457289
 20
1337.699999999999
 30
0.0
 11
2354.030455542709
 21
1337.699999999999
 31
0.0
  0
ARC
  5
349
330
1F
100
AcDbEntity
  8
化粧台
  6
EXLTYPE2
 62
     6
100
AcDbCircle
 10
2366.749999999999
 20
1343.699999999999
 30
0.0
 40
11.0
100
AcDbArc
 50
326.9442688491002
 51
33.05573115089992
  0
LINE
  5
34A
330
1F
100
AcDbEntity
  8
化粧台
  6
EXLTYPE2
 62
     6
100
AcDbLine
 10
2375.969544457289
 20
1349.699999999999
 30
0.0
 11
2354.030455542709
 21
1349.699999999999
 31
0.0
  0
ELLIPSE
  5
34B
330
1F
100
AcDbEntity
  8
化粧台
  6
EXLTYPE2
 62
     6
100
AcDbEllipse
 10
2355.02177364984
 20
1343.699999999999
 30
0.0
 11
-9.355482006098073E-16
 21
-5.09288719687
 31
0.0
210
0.0
220
0.0
230
1.0
 40
0.544244068775661
 41
0.0
 42
6.283185307179586
  0
ELLIPSE
  5
34C
330
1F
100
AcDbEntity
  8
化粧台
  6
EXLTYPE2
 62
     6
100
AcDbEllipse
 10
2364.999999999999
 20
1343.699999999999
 30
0.0
 11
5.50567888639
 21
0.0
 31
0.0
210
0.0
220
0.0
230
1.0
 40
0.9250243797290071
 41
0.0
 42
6.283185307179586
  0
ELLIPSE
  5
34D
330
1F
100
AcDbEntity
  8
化粧台
  6
EXLTYPE2
 62
     6
100
AcDbEllipse
 10
2374.978226350161
 20
1343.699999999999
 30
0.0
 11
3.118494002032691E-16
 21
5.09288719687
 31
0.0
210
0.0
220
0.0
230
1.0
 40
0.544244068775661
 41
0.0
 42
6.283185307179586
  0
LINE
  5
34E
330
1F
100
AcDbEntity
  8
化粧台
  6
EXLTYPE2
 62
     6
100
AcDbLine
 10
2371.499999999999
 20
1444.651716065574
 30
0.0
 11
2371.499999999999
 21
1349.699999999999
 31
0.0
  0
LINE
  5
34F
330
1F
100
AcDbEntity
  8
化粧台
  6
EXLTYPE2
 62
     6
100
AcDbLine
 10
2358.499999999999
 20
1443.475339050107
 30
0.0
 11
2358.499999999999
 21
1349.699999999999
 31
0.0
  0
LINE
  5
350
330
1F
100
AcDbEntity
  8
化粧台
  6
EXLTYPE3
 62
     6
100
AcDbLine
 10
920.0
 20
1902.15
 30
0.0
 11
920.0
 21
835.0
 31
0.0
  0
ARC
  5
351
330
1F
100
AcDbEntity
  8
化粧台
  6
CONTINUOUS
 62
     2
100
AcDbCircle
 10
920.0
 20
-3102.500000000005
 30
0.0
 40
4847.500000000005
100
AcDbArc
 50
90.29549269471686
 51
92.60390534515777
  0
ARC
  5
352
330
1F
100
AcDbEntity
  8
化粧台
  6
CONTINUOUS
 62
     2
100
AcDbCircle
 10
920.0
 20
-3102.500000000005
 30
0.0
 40
4847.500000000005
100
AcDbArc
 50
87.39609465484229
 51
89.70450730528287
  0
LINE
  5
353
330
1F
100
AcDbEntity
  8
化粧台
  6
EXLTYPE4
 62
     6
100
AcDbLine
 10
1728.999999999997
 20
875.0
 30
0.0
 11
342.0
 21
875.0
 31
0.0
  0
LINE
  5
354
330
1F
100
AcDbEntity
  8
化粧台
  6
CONTINUOUS
 62
     2
100
AcDbLine
 10
620.0000000000002
 20
3488.999999999999
 30
0.0
 11
778.5786437626996
 21
3488.999999999999
 31
0.0
  0
LINE
  5
355
330
1F
100
AcDbEntity
  8
化粧台
  6
CONTINUOUS
 62
     2
100
AcDbLine
 10
620.0000000000002
 20
3488.999999999999
 30
0.0
 11
620.0000000000002
 21
3918.999999999999
 31
0.0
  0
LINE
  5
356
330
1F
100
AcDbEntity
  8
化粧台
  6
CONTINUOUS
 62
     2
100
AcDbLine
 10
1061.421356237298
 20
3488.999999999999
 30
0.0
 11
1219.999999999997
 21
3488.999999999999
 31
0.0
  0
LINE
  5
357
330
1F
100
AcDbEntity
  8
化粧台
  6
CONTINUOUS
 62
     2
100
AcDbLine
 10
1219.999999999997
 20
3489.0
 30
0.0
 11
1219.999999999997
 21
3918.999999999999
 31
0.0
  0
LINE
  5
358
330
1F
100
AcDbEntity
  8
化粧台
  6
CONTINUOUS
 62
     2
100
AcDbLine
 10
620.0000000000002
 20
3918.999999999999
 30
0.0
 11
1219.999999999997
 21
3918.999999999999
 31
0.0
  0
LINE
  5
359
330
1F
100
AcDbEntity
  8
化粧台
  6
CONTINUOUS
 62
     6
100
AcDbLine
 10
1085.999999999997
 20
3919.000000000003
 30
0.0
 11
1087.999999999999
 21
3951.500000000003
 31
0.0
  0
LINE
  5
35A
330
1F
100
AcDbEntity
  8
化粧台
  6
CONTINUOUS
 62
     6
100
AcDbLine
 10
1087.999999999999
 20
3951.500000000003
 30
0.0
 11
1089.999999999997
 21
3919.000000000003
 31
0.0
  0
LINE
  5
35B
330
1F
100
AcDbEntity
  8
化粧台
  6
CONTINUOUS
 62
     6
100
AcDbLine
 10
1087.999999999999
 20
3903.999999999999
 30
0.0
 11
1087.999999999999
 21
3961.499999999999
 31
0.0
  0
LINE
  5
35C
330
1F
100
AcDbEntity
  8
化粧台
  6
CONTINUOUS
 62
     6
100
AcDbLine
 10
750.0000000000011
 20
3919.000000000003
 30
0.0
 11
752.000000000002
 21
3951.500000000003
 31
0.0
  0
LINE
  5
35D
330
1F
100
AcDbEntity
  8
化粧台
  6
CONTINUOUS
 62
     6
100
AcDbLine
 10
752.000000000002
 20
3951.500000000003
 30
0.0
 11
754.0000000000002
 21
3919.000000000003
 31
0.0
  0
LINE
  5
35E
330
1F
100
AcDbEntity
  8
化粧台
  6
CONTINUOUS
 62
     6
100
AcDbLine
 10
752.000000000002
 20
3903.999999999999
 30
0.0
 11
752.000000000002
 21
3961.499999999999
 31
0.0
  0
CIRCLE
  5
35F
330
1F
100
AcDbEntity
  8
化粧台
  6
CONTINUOUS
 62
     2
100
AcDbCircle
 10
920.0000000000011
 20
3660.999999999999
 30
0.0
 40
18.0
  0
LINE
  5
360
330
1F
100
AcDbEntity
  8
化粧台
  6
EXLTYPE3
 62
     6
100
AcDbLine
 10
920.0000000000002
 20
3928.999999999999
 30
0.0
 11
920.0000000000002
 21
3428.999999999999
 31
0.0
  0
CIRCLE
  5
361
330
1F
100
AcDbEntity
  8
化粧台
  6
CONTINUOUS
 62
     2
100
AcDbCircle
 10
920.0000000000002
 20
3663.999999999999
 30
0.0
 40
220.0000000000001
  0
CIRCLE
  5
362
330
1F
100
AcDbEntity
  8
化粧台
  6
CONTINUOUS
 62
     2
100
AcDbCircle
 10
920.0000000000002
 20
3663.999999999999
 30
0.0
 40
225.0000000000001
  0
ARC
  5
363
330
1F
100
AcDbEntity
  8
化粧台
  6
CONTINUOUS
 62
     2
100
AcDbCircle
 10
920.0000000000002
 20
3671.429987018267
 30
0.0
 40
212.5700129817332
100
AcDbArc
 50
9.763897427589361
 51
170.2361025724106
  0
ARC
  5
364
330
1F
100
AcDbEntity
  8
化粧台
  6
CONTINUOUS
 62
     2
100
AcDbCircle
 10
759.784821240097
 20
3698.999999999999
 30
0.0
 40
50.00000000000004
100
AcDbArc
 50
90.00000000000004
 51
170.2361025724106
  0
ARC
  5
365
330
1F
100
AcDbEntity
  8
化粧台
  6
CONTINUOUS
 62
     2
100
AcDbCircle
 10
1080.215178759902
 20
3698.999999999999
 30
0.0
 40
50.00000000000004
100
AcDbArc
 50
9.763897427589361
 51
90.00000000000004
  0
LINE
  5
366
330
1F
100
AcDbEntity
  8
化粧台
  6
CONTINUOUS
 62
     6
100
AcDbLine
 10
953.7499999999984
 20
3809.999999999988
 30
0.0
 11
886.2500000000002
 21
3809.999999999988
 31
0.0
  0
ARC
  5
367
330
1F
100
AcDbEntity
  8
化粧台
  6
CONTINUOUS
 62
     6
100
AcDbCircle
 10
868.0384757736103
 20
3690.999999999999
 30
0.0
 40
50.00000000000004
100
AcDbArc
 50
90.00000000000004
 51
171.7867892961641
  0
ARC
  5
368
330
1F
100
AcDbEntity
  8
化粧台
  6
CONTINUOUS
 62
     6
100
AcDbCircle
 10
971.9615242263883
 20
3690.999999999999
 30
0.0
 40
50.00000000000004
100
AcDbArc
 50
8.213210703835998
 51
90.00000000000004
  0
ARC
  5
369
330
1F
100
AcDbEntity
  8
化粧台
  6
CONTINUOUS
 62
     6
100
AcDbCircle
 10
920.0000000000002
 20
3683.499999998155
 30
0.0
 40
102.4999999995951
100
AcDbArc
 50
171.7867892961641
 51
8.213210703835998
  0
LINE
  5
36A
330
1F
100
AcDbEntity
  8
化粧台
  6
CONTINUOUS
 62
     6
100
AcDbLine
 10
883.1000000000006
 20
3660.999999999999
 30
0.0
 11
956.899999999998
 21
3660.999999999999
 31
0.0
  0
TEXT
  5
36B
330
1F
100
AcDbEntity
  8
化粧台
  6
CONTINUOUS
 62
     2
100
AcDbText
 10
1644.000000536439
 20
3859.000003814697
 30
0.0
 40
59.99999618530273
  1
W.L.
 41
0.5571963512150641
  7
EXCADSTD
 72
     5
 11
1734.743400536439
 21
3859.000003814697
 31
0.0
100
AcDbText
  0
LINE
  5
36C
330
1F
100
AcDbEntity
  8
化粧台
  6
CONTINUOUS
 62
     6
100
AcDbLine
 10
905.0000000000007
 20
3740.999999999999
 30
0.0
 11
868.0384757736103
 21
3740.999999999999
 31
0.0
  0
LINE
  5
36D
330
1F
100
AcDbEntity
  8
化粧台
  6
CONTINUOUS
 62
     2
100
AcDbLine
 10
759.784821240097
 20
3748.999999999999
 30
0.0
 11
905.0000000000007
 21
3748.999999999999
 31
0.0
  0
LINE
  5
36E
330
1F
100
AcDbEntity
  8
化粧台
  6
CONTINUOUS
 62
     2
100
AcDbLine
 10
935.0000000000007
 20
3748.999999999999
 30
0.0
 11
1080.215178759902
 21
3748.999999999999
 31
0.0
  0
LINE
  5
36F
330
1F
100
AcDbEntity
  8
化粧台
  6
CONTINUOUS
 62
     6
100
AcDbLine
 10
971.9615242263883
 20
3740.999999999999
 30
0.0
 11
935.0000000000007
 21
3740.999999999999
 31
0.0
  0
ARC
  5
370
330
1F
100
AcDbEntity
  8
化粧台
  6
CONTINUOUS
 62
     2
100
AcDbCircle
 10
920.0000000000011
 20
3660.999999999999
 30
0.0
 40
27.00000000000002
100
AcDbArc
 50
107.6430770091208
 51
72.35692299088116
  0
LINE
  5
371
330
1F
100
AcDbEntity
  8
化粧台
  6
EXLTYPE4
 62
     6
100
AcDbLine
 10
342.0000000000002
 20
3919.0
 30
0.0
 11
1742.999999999997
 21
3919.0
 31
0.0
  0
TEXT
  5
372
330
1F
100
AcDbEntity
  8
化粧台
  6
CONTINUOUS
 62
     2
100
AcDbText
 10
2450.0
 20
2890.000000536442
 30
0.0
 40
59.99999618530273
  1
W.L.
 50
90.0
 41
0.5571963512150626
  7
EXCADSTD
 72
     5
 11
2450.0
 21
2980.743400536442
 31
0.0
100
AcDbText
  0
LINE
  5
373
330
1F
100
AcDbEntity
  8
化粧台
  6
EXLTYPE4
 62
     6
100
AcDbLine
 10
2450.0
 20
875.0
 30
0.0
 11
2450.0
 21
2983.5
 31
0.0
  0
LINE
  5
374
330
1F
100
AcDbEntity
  8
化粧台
  6
CONTINUOUS
 62
     6
100
AcDbLine
 10
971.9615242263883
 20
3740.999999999999
 30
0.0
 11
935.0000000000007
 21
3740.999999999999
 31
0.0
  0
ELLIPSE
  5
375
330
1F
100
AcDbEntity
  8
化粧台
  6
CONTINUOUS
 62
     2
100
AcDbEllipse
 10
920.0
 20
3689.49844365072
 30
0.0
 11
15.0
 21
0.0
 31
0.0
210
0.0
220
0.0
230
1.0
 40
0.2032242918773344
 41
5.931468484580523
 42
9.776494783368435
  0
ELLIPSE
  5
376
330
1F
100
AcDbEntity
  8
化粧台
  6
CONTINUOUS
 62
     2
100
AcDbEllipse
 10
920.0
 20
3723.69387624485
 30
0.0
 11
6.003838769576682
 21
-1.470516386351773E-15
 31
0.0
210
0.0
220
0.0
230
1.0
 40
0.1744228793978485
 41
0.0
 42
6.283185307179586
  0
LINE
  5
377
330
1F
100
AcDbEntity
  8
化粧台
  6
CONTINUOUS
 62
     2
100
AcDbLine
 10
925.9999999999955
 20
3723.656434200723
 30
0.0
 11
925.9999999999955
 21
3783.359156576973
 31
0.0
  0
LINE
  5
378
330
1F
100
AcDbEntity
  8
化粧台
  6
CONTINUOUS
 62
     2
100
AcDbLine
 10
913.9999999999955
 20
3723.656434200771
 30
0.0
 11
913.9999999999955
 21
3783.69853870331
 31
0.0
  0
ELLIPSE
  5
379
330
1F
100
AcDbEntity
  8
化粧台
  6
CONTINUOUS
 62
     2
100
AcDbEllipse
 10
920.0
 20
3783.3965986211
 30
0.0
 11
6.003838769576682
 21
-1.470516386351773E-15
 31
0.0
210
0.0
220
0.0
230
1.0
 40
0.1744228793978485
 41
-0.0357618232697662
 42
3.177354476812678
  0
LINE
  5
37A
330
1F
100
AcDbEntity
  8
化粧台
  6
CONTINUOUS
 62
     2
100
AcDbLine
 10
916.9999999999818
 20
3844.778606630094
 30
0.0
 11
916.9999999999818
 21
3832.299103120975
 31
0.0
  0
LINE
  5
37B
330
1F
100
AcDbEntity
  8
化粧台
  6
CONTINUOUS
 62
     2
100
AcDbLine
 10
923.0
 20
3844.778606630094
 30
0.0
 11
923.0
 21
3832.299103120978
 31
0.0
  0
CIRCLE
  5
37C
330
1F
100
AcDbEntity
  8
化粧台
  6
CONTINUOUS
 62
     2
100
AcDbCircle
 10
920.0
 20
3810.0
 30
0.0
 40
22.5
  0
LINE
  5
37D
330
1F
100
AcDbEntity
  8
化粧台
  6
CONTINUOUS
 62
     2
100
AcDbLine
 10
925.8410844325681
 20
3859.839569595011
 30
0.0
 11
914.1589155674233
 21
3859.839569595011
 31
0.0
  0
ARC
  5
37E
330
1F
100
AcDbEntity
  8
化粧台
  6
CONTINUOUS
 62
     2
100
AcDbCircle
 10
919.9999999999964
 20
3842.2884851056
 30
0.0
 40
18.55108448941109
100
AcDbArc
 50
72.29820692448685
 51
107.7017930755131
  0
ARC
  5
37F
330
1F
100
AcDbEntity
  8
化粧台
  6
CONTINUOUS
 62
     2
100
AcDbCircle
 10
915.273775521875
 20
3845.339569595011
 30
0.0
 40
0.5
100
AcDbArc
 50
183.0852877108193
 51
270.0
  0
ARC
  5
380
330
1F
100
AcDbEntity
  8
化粧台
  6
CONTINUOUS
 62
     2
100
AcDbCircle
 10
914.5113353643601
 20
3859.484886233789
 30
0.0
 40
0.5
100
AcDbArc
 50
107.7017930755131
 51
183.0852877108193
  0
LINE
  5
381
330
1F
100
AcDbEntity
  8
化粧台
  6
CONTINUOUS
 62
     2
100
AcDbLine
 10
914.7745002600504
 20
3845.312658390477
 30
0.0
 11
914.0120601025355
 21
3859.457975029255
 31
0.0
  0
ARC
  5
382
330
1F
100
AcDbEntity
  8
化粧台
  6
CONTINUOUS
 62
     2
100
AcDbCircle
 10
924.726224478115
 20
3845.339569595011
 30
0.0
 40
0.5
100
AcDbArc
 50
270.0
 51
356.9147122891808
  0
ARC
  5
383
330
1F
100
AcDbEntity
  8
化粧台
  6
CONTINUOUS
 62
     2
100
AcDbCircle
 10
925.4886646356326
 20
3859.484886233791
 30
0.0
 40
0.5
100
AcDbArc
 50
356.9147122891808
 51
72.29820692448685
  0
LINE
  5
384
330
1F
100
AcDbEntity
  8
化粧台
  6
CONTINUOUS
 62
     2
100
AcDbLine
 10
925.2254997399405
 20
3845.312658390477
 30
0.0
 11
925.9879398974572
 21
3859.457975029255
 31
0.0
  0
LINE
  5
385
330
1F
100
AcDbEntity
  8
化粧台
  6
CONTINUOUS
 62
     2
100
AcDbLine
 10
924.7262244781164
 20
3844.83956959501
 30
0.0
 11
919.9999999999955
 21
3844.83956959501
 31
0.0
  0
LINE
  5
386
330
1F
100
AcDbEntity
  8
化粧台
  6
CONTINUOUS
 62
     2
100
AcDbLine
 10
919.9999999999955
 20
3844.83956959501
 30
0.0
 11
915.273775521875
 21
3844.83956959501
 31
0.0
  0
LINE
  5
387
330
1F
100
AcDbEntity
  8
化粧台
  6
CONTINUOUS
 62
     2
100
AcDbLine
 10
923.9999999999982
 20
3784.177539543204
 30
0.0
 11
923.9999999999982
 21
3787.350496694188
 31
0.0
  0
LINE
  5
388
330
1F
100
AcDbEntity
  8
化粧台
  6
CONTINUOUS
 62
     2
100
AcDbLine
 10
915.9999999999982
 20
3784.177539543203
 30
0.0
 11
915.9999999999982
 21
3787.41853870331
 31
0.0
  0
LINE
  5
389
330
1F
100
AcDbEntity
  8
化粧台
  6
CONTINUOUS
 62
     2
100
AcDbLine
 10
935.0000000000082
 20
3689.49844365072
 30
0.0
 11
935.0000000000077
 21
3793.229490168758
 31
0.0
  0
LINE
  5
38A
330
1F
100
AcDbEntity
  8
化粧台
  6
CONTINUOUS
 62
     2
100
AcDbLine
 10
905.0000000000055
 20
3689.498443650721
 30
0.0
 11
905.0000000000077
 21
3793.229490168745
 31
0.0
  0
LINE
  5
38B
330
1F
100
AcDbEntity
  8
化粧台
  6
CONTINUOUS
 62
     2
100
AcDbLine
 10
905.9182604893876
 20
3688.44825152411
 30
0.0
 11
934.0817395106128
 21
3688.44825152411
 31
0.0
  0
LINE
  5
38C
330
1F
100
AcDbEntity
  8
化粧台
  6
CONTINUOUS
 62
     2
100
AcDbLine
 10
926.000000000026
 20
1867.684819960024
 30
0.0
 11
926.000000000026
 21
1878.617774682385
 31
0.0
  0
LINE
  5
38D
330
1F
100
AcDbEntity
  8
化粧台
  6
CONTINUOUS
 62
     2
100
AcDbLine
 10
914.0000000000251
 20
1867.684819960024
 30
0.0
 11
914.000000000026
 21
1878.617774682385
 31
0.0
  0
LINE
  5
38E
330
1F
100
AcDbEntity
  8
化粧台
  6
CONTINUOUS
 62
     2
100
AcDbLine
 10
946.5000000000242
 20
1740.999999999981
 30
0.0
 11
947.0000000000242
 21
1740.499999999981
 31
0.0
  0
LINE
  5
38F
330
1F
100
AcDbEntity
  8
化粧台
  6
CONTINUOUS
 62
     2
100
AcDbLine
 10
947.0000000000242
 20
1740.499999999981
 30
0.0
 11
947.000000000026
 21
1736.999999999981
 31
0.0
  0
ARC
  5
390
330
1F
100
AcDbEntity
  8
化粧台
  6
CONTINUOUS
 62
     2
100
AcDbCircle
 10
943.000000000026
 20
1741.499999999981
 30
0.0
 40
0.5
100
AcDbArc
 50
180.0
 51
270.0000000000002
  0
LINE
  5
391
330
1F
100
AcDbEntity
  8
化粧台
  6
CONTINUOUS
 62
     2
100
AcDbLine
 10
946.5000000000242
 20
1740.999999999981
 30
0.0
 11
920.000000000026
 21
1740.999999999981
 31
0.0
  0
LINE
  5
392
330
1F
100
AcDbEntity
  8
化粧台
  6
CONTINUOUS
 62
     2
100
AcDbLine
 10
893.500000000026
 20
1740.999999999981
 30
0.0
 11
893.000000000026
 21
1740.499999999981
 31
0.0
  0
ARC
  5
393
330
1F
100
AcDbEntity
  8
化粧台
  6
CONTINUOUS
 62
     2
100
AcDbCircle
 10
897.000000000026
 20
1741.499999999981
 30
0.0
 40
0.5
100
AcDbArc
 50
270.0000000000002
 51
0.0
  0
LINE
  5
394
330
1F
100
AcDbEntity
  8
化粧台
  6
CONTINUOUS
 62
     2
100
AcDbLine
 10
893.000000000026
 20
1740.499999999981
 30
0.0
 11
893.0000000000242
 21
1736.999999999981
 31
0.0
  0
LINE
  5
395
330
1F
100
AcDbEntity
  8
化粧台
  6
CONTINUOUS
 62
     2
100
AcDbLine
 10
920.000000000026
 20
1736.999999999981
 30
0.0
 11
893.0000000000242
 21
1736.999999999981
 31
0.0
  0
LINE
  5
396
330
1F
100
AcDbEntity
  8
化粧台
  6
CONTINUOUS
 62
     2
100
AcDbLine
 10
920.000000000026
 20
1736.999999999981
 30
0.0
 11
947.000000000027
 21
1736.999999999981
 31
0.0
  0
LINE
  5
397
330
1F
100
AcDbEntity
  8
化粧台
  6
CONTINUOUS
 62
     2
100
AcDbLine
 10
897.500000000016
 20
1845.700012207012
 30
0.0
 11
942.5000000000142
 21
1845.700012207012
 31
0.0
  0
ARC
  5
398
330
1F
100
AcDbEntity
  8
化粧台
  6
CONTINUOUS
 62
     2
100
AcDbCircle
 10
941.5000000000224
 20
1874.926017109336
 30
0.0
 40
1.0
100
AcDbArc
 50
0.0
 51
85.87651071327323
  0
ARC
  5
399
330
1F
100
AcDbEntity
  8
化粧台
  6
CONTINUOUS
 62
     2
100
AcDbCircle
 10
898.5000000000224
 20
1874.926017109335
 30
0.0
 40
1.0
100
AcDbArc
 50
94.12348928672675
 51
180.0
  0
ARC
  5
39A
330
1F
100
AcDbEntity
  8
化粧台
  6
CONTINUOUS
 62
     2
100
AcDbCircle
 10
920.000000000026
 20
1576.700012207012
 30
0.0
 40
300.0
100
AcDbArc
 50
85.87651071327323
 51
88.85400800161261
  0
ARC
  5
39B
330
1F
100
AcDbEntity
  8
化粧台
  6
CONTINUOUS
 62
     2
100
AcDbCircle
 10
920.000000000026
 20
1576.700012207012
 30
0.0
 40
300.0
100
AcDbArc
 50
91.14599199838867
 51
94.12348928672675
  0
ARC
  5
39C
330
1F
100
AcDbEntity
  8
化粧台
  6
CONTINUOUS
 62
     2
100
AcDbCircle
 10
920.000000000026
 20
1867.684819960024
 30
0.0
 40
6.000000000000004
100
AcDbArc
 50
180.0
 51
0.0
  0
CIRCLE
  5
39D
330
1F
100
AcDbEntity
  8
化粧台
  6
CONTINUOUS
 62
     2
100
AcDbCircle
 10
920.000000000026
 20
1878.617774682385
 30
0.0
 40
6.000000000000004
  0
ARC
  5
39E
330
1F
100
AcDbEntity
  8
化粧台
  6
CONTINUOUS
 62
     2
100
AcDbCircle
 10
920.000000000026
 20
1818.150756845668
 30
0.0
 40
15.00000000000001
100
AcDbArc
 50
322.9040503969624
 51
217.0959496030378
  0
ELLIPSE
  5
39F
330
1F
100
AcDbEntity
  8
化粧台
  6
CONTINUOUS
 62
     2
100
AcDbEllipse
 10
920.000000000026
 20
1808.680566214725
 30
0.0
 11
-12.0
 21
1.469576158976824E-15
 31
0.0
210
0.0
220
0.0
230
1.0
 40
0.2210297627753829
 41
3.141592653589793
 42
6.283185307179586
  0
ELLIPSE
  5
3A0
330
1F
100
AcDbEntity
  8
化粧台
  6
CONTINUOUS
 62
     2
100
AcDbEllipse
 10
920.000000000026
 20
1803.173888588365
 30
0.0
 11
-12.00000000000002
 21
1.469576158976827E-15
 31
0.0
210
0.0
220
0.0
230
1.0
 40
0.1591774961946723
 41
0.0
 42
6.283185307179586
  0
LINE
  5
3A1
330
1F
100
AcDbEntity
  8
化粧台
  6
CONTINUOUS
 62
     2
100
AcDbLine
 10
908.000000000026
 20
1803.173888588365
 30
0.0
 11
908.000000000026
 21
1808.892155853624
 31
0.0
  0
LINE
  5
3A2
330
1F
100
AcDbEntity
  8
化粧台
  6
CONTINUOUS
 62
     2
100
AcDbLine
 10
932.000000000026
 20
1803.173888588365
 30
0.0
 11
932.000000000026
 21
1808.892155853623
 31
0.0
  0
ARC
  5
3A3
330
1F
100
AcDbEntity
  8
化粧台
  6
CONTINUOUS
 62
     2
100
AcDbCircle
 10
920.000000000026
 20
1966.049269781649
 30
0.0
 40
154.6227815628025
100
AcDbArc
 50
264.9181466667736
 51
275.0818533332265
  0
LINE
  5
3A4
330
1F
100
AcDbEntity
  8
化粧台
  6
CONTINUOUS
 62
     2
100
AcDbLine
 10
942.5000000000133
 20
1741.499999999981
 30
0.0
 11
942.5000000000128
 21
1841.299999999858
 31
0.0
  0
LINE
  5
3A5
330
1F
100
AcDbEntity
  8
化粧台
  6
CONTINUOUS
 62
     2
100
AcDbLine
 10
942.0000000000133
 20
1841.799999999857
 30
0.0
 11
942.5000000000133
 21
1841.299999999857
 31
0.0
  0
LINE
  5
3A6
330
1F
100
AcDbEntity
  8
化粧台
  6
CONTINUOUS
 62
     2
100
AcDbLine
 10
940.3059968261538
 20
1845.700012207012
 30
0.0
 11
941.3200000000139
 21
1841.799999999856
 31
0.0
  0
LINE
  5
3A7
330
1F
100
AcDbEntity
  8
化粧台
  6
CONTINUOUS
 62
     2
100
AcDbLine
 10
899.6940031738746
 20
1845.700012207012
 30
0.0
 11
898.6800000000145
 21
1841.799999999856
 31
0.0
  0
LINE
  5
3A8
330
1F
100
AcDbEntity
  8
化粧台
  6
CONTINUOUS
 62
     2
100
AcDbLine
 10
942.0000000000133
 20
1841.799999999857
 30
0.0
 11
898.000000000026
 21
1841.799999999846
 31
0.0
  0
LINE
  5
3A9
330
1F
100
AcDbEntity
  8
化粧台
  6
CONTINUOUS
 62
     2
100
AcDbLine
 10
897.500000000026
 20
1841.299999999846
 30
0.0
 11
898.000000000026
 21
1841.799999999846
 31
0.0
  0
LINE
  5
3AA
330
1F
100
AcDbEntity
  8
化粧台
  6
CONTINUOUS
 62
     2
100
AcDbLine
 10
897.500000000026
 20
1841.299999999846
 30
0.0
 11
897.500000000026
 21
1741.499999999981
 31
0.0
  0
LINE
  5
3AB
330
1F
100
AcDbEntity
  8
化粧台
  6
CONTINUOUS
 62
     2
100
AcDbLine
 10
942.5000000000142
 20
1845.700012207012
 30
0.0
 11
942.5000000000138
 21
1874.926017109336
 31
0.0
  0
LINE
  5
3AC
330
1F
100
AcDbEntity
  8
化粧台
  6
CONTINUOUS
 62
     2
100
AcDbLine
 10
897.5000000000142
 20
1874.926017109335
 30
0.0
 11
897.5000000000142
 21
1845.700012207019
 31
0.0
  0
LINE
  5
3AD
330
1F
100
AcDbEntity
  8
化粧台
  6
CONTINUOUS
 62
     2
100
AcDbLine
 10
920.0000000000301
 20
1740.999999999981
 30
0.0
 11
893.500000000026
 21
1740.999999999981
 31
0.0
  0
LINE
  5
3AE
330
1F
100
AcDbEntity
  8
化粧台
  6
CONTINUOUS
 62
     2
100
AcDbLine
 10
2319.127362902324
 20
1871.562934157885
 30
0.0
 11
2315.09650911142
 21
1872.27368243651
 31
0.0
  0
LINE
  5
3AF
330
1F
100
AcDbEntity
  8
化粧台
  6
CONTINUOUS
 62
     2
100
AcDbLine
 10
2314.401916400751
 20
1868.334451424457
 30
0.0
 11
2315.44380546675
 21
1874.24329794253
 31
0.0
  0
LINE
  5
3B0
330
1F
100
AcDbEntity
  8
化粧台
  6
CONTINUOUS
 62
     2
100
AcDbLine
 10
2313.36002733475
 20
1862.42560490639
 30
0.0
 11
2314.401916400741
 21
1868.334451424462
 31
0.0
  0
ARC
  5
3B1
330
1F
100
AcDbEntity
  8
化粧台
  6
CONTINUOUS
 62
     2
100
AcDbCircle
 10
2293.480258923255
 20
1801.506485679812
 30
0.0
 40
29.29134623873736
100
AcDbArc
 50
328.6679794878879
 51
31.33202051226239
  0
ARC
  5
3B2
330
1F
100
AcDbEntity
  8
化粧台
  6
CONTINUOUS
 62
     2
100
AcDbCircle
 10
2304.25361941995
 20
1867.53457549759
 30
0.0
 40
15.40960475402978
100
AcDbArc
 50
342.3548939120103
 51
17.64510608798892
  0
LINE
  5
3B3
330
1F
100
AcDbEntity
  8
化粧台
  6
CONTINUOUS
 62
     2
100
AcDbLine
 10
2313.70732369008
 20
1864.39522041241
 30
0.0
 11
2319.109983007612
 21
1863.442585807157
 31
0.0
  0
LINE
  5
3B4
330
1F
100
AcDbEntity
  8
化粧台
  6
CONTINUOUS
 62
     2
100
AcDbLine
 10
2315.44380546675
 20
1874.24329794253
 30
0.0
 11
2256.777757812523
 21
1884.587704995506
 31
0.0
  0
ARC
  5
3B5
330
1F
100
AcDbEntity
  8
化粧台
  6
CONTINUOUS
 62
     2
100
AcDbCircle
 10
2256.448544782074
 20
1883.626043575498
 30
0.0
 40
1.016451625090327
100
AcDbArc
 50
71.10198734335111
 51
155.1938278787593
  0
ARC
  5
3B6
330
1F
100
AcDbEntity
  8
化粧台
  6
CONTINUOUS
 62
     2
100
AcDbCircle
 10
2302.301297053571
 20
1870.423932767477
 30
0.0
 40
48.72040105432946
100
AcDbArc
 50
163.7559027392204
 51
176.0410102655835
  0
ARC
  5
3B7
330
1F
100
AcDbEntity
  8
化粧台
  6
CONTINUOUS
 62
     2
100
AcDbCircle
 10
2254.698931850049
 20
1873.785659580982
 30
0.0
 40
1.001777616499239
100
AcDbArc
 50
179.8828477325927
 51
262.1420782586001
  0
LINE
  5
3B8
330
1F
100
AcDbEntity
  8
化粧台
  6
CONTINUOUS
 62
     2
100
AcDbLine
 10
2254.561971744748
 20
1872.7932885201
 30
0.0
 11
2313.36002733475
 21
1862.42560490639
 31
0.0
  0
LINE
  5
3B9
330
1F
100
AcDbEntity
  8
化粧台
  6
CONTINUOUS
 62
     2
100
AcDbLine
 10
2363.500000000018
 20
1790.557308563485
 30
0.0
 11
2363.500000000017
 21
1841.300000000032
 31
0.0
  0
LINE
  5
3BA
330
1F
100
AcDbEntity
  8
化粧台
  6
CONTINUOUS
 62
     2
100
AcDbLine
 10
2363.000000000017
 20
1841.800000000031
 30
0.0
 11
2363.500000000017
 21
1841.300000000031
 31
0.0
  0
LINE
  5
3BB
330
1F
100
AcDbEntity
  8
化粧台
  6
CONTINUOUS
 62
     2
100
AcDbLine
 10
2319.000000000017
 20
1841.800000000031
 30
0.0
 11
2318.500000000017
 21
1841.300000000031
 31
0.0
  0
LINE
  5
3BC
330
1F
100
AcDbEntity
  8
化粧台
  6
CONTINUOUS
 62
     2
100
AcDbLine
 10
2361.400000000031
 20
1841.80000000003
 30
0.0
 11
2363.000000000017
 21
1841.800000000031
 31
0.0
  0
ARC
  5
3BD
330
1F
100
AcDbEntity
  8
化粧台
  6
CONTINUOUS
 62
     2
100
AcDbCircle
 10
2390.484886233815
 20
1796.060280186984
 30
0.0
 40
0.5
100
AcDbArc
 50
17.70179307553534
 51
93.08528771081936
  0
LINE
  5
3BE
330
1F
100
AcDbEntity
  8
化粧台
  6
CONTINUOUS
 62
     2
100
AcDbLine
 10
2376.3126583905
 20
1795.797115291293
 30
0.0
 11
2390.45797502928
 21
1796.559555448809
 31
0.0
  0
LINE
  5
3BF
330
1F
100
AcDbEntity
  8
化粧台
  6
CONTINUOUS
 62
     2
100
AcDbLine
 10
2390.839569595035
 20
1796.41269998392
 30
0.0
 11
2390.839569595035
 21
1784.730531118776
 31
0.0
  0
ARC
  5
3C0
330
1F
100
AcDbEntity
  8
化粧台
  6
CONTINUOUS
 62
     2
100
AcDbCircle
 10
2376.339569595034
 20
1795.297840029467
 30
0.0
 40
0.5
100
AcDbArc
 50
93.08528771081936
 51
180.0
  0
ARC
  5
3C1
330
1F
100
AcDbEntity
  8
化粧台
  6
CONTINUOUS
 62
     2
100
AcDbCircle
 10
2376.339569595034
 20
1785.845391073227
 30
0.0
 40
0.5
100
AcDbArc
 50
180.0
 51
266.9147122891807
  0
ARC
  5
3C2
330
1F
100
AcDbEntity
  8
化粧台
  6
CONTINUOUS
 62
     2
100
AcDbCircle
 10
2390.484886233813
 20
1785.082950915712
 30
0.0
 40
0.5
100
AcDbArc
 50
266.9147122891807
 51
342.2982069244647
  0
LINE
  5
3C3
330
1F
100
AcDbEntity
  8
化粧台
  6
CONTINUOUS
 62
     2
100
AcDbLine
 10
2376.3126583905
 20
1785.346115811403
 30
0.0
 11
2390.45797502928
 21
1784.583675653888
 31
0.0
  0
ARC
  5
3C4
330
1F
100
AcDbEntity
  8
化粧台
  6
CONTINUOUS
 62
     2
100
AcDbCircle
 10
2373.288485105623
 20
1790.571615551348
 30
0.0
 40
18.55108448941111
100
AcDbArc
 50
342.2982069244642
 51
17.70179307553529
  0
LINE
  5
3C5
330
1F
100
AcDbEntity
  8
化粧台
  6
CONTINUOUS
 62
     2
100
AcDbLine
 10
2246.073172739045
 20
1801.263758634079
 30
0.0
 11
2224.407402172774
 21
1805.084018542752
 31
0.0
  0
LINE
  5
3C6
330
1F
100
AcDbEntity
  8
化粧台
  6
CONTINUOUS
 62
     2
100
AcDbLine
 10
2224.407402172774
 20
1805.084018542752
 30
0.0
 11
2246.073172739045
 21
1801.263758634079
 31
0.0
  0
LINE
  5
3C7
330
1F
100
AcDbEntity
  8
化粧台
  6
CONTINUOUS
 62
     2
100
AcDbLine
 10
2246.073172739045
 20
1801.263758634079
 30
0.0
 11
2247.158236314177
 21
1801.658689477714
 31
0.0
  0
LINE
  5
3C8
330
1F
100
AcDbEntity
  8
化粧台
  6
CONTINUOUS
 62
     2
100
AcDbLine
 10
2246.073172739043
 20
1801.263758634079
 30
0.0
 11
2247.158236314176
 21
1801.658689477714
 31
0.0
  0
LINE
  5
3C9
330
1F
100
AcDbEntity
  8
化粧台
  6
CONTINUOUS
 62
     2
100
AcDbLine
 10
2224.407402172776
 20
1805.084018542751
 30
0.0
 11
2223.522850241885
 21
1805.82624574172
 31
0.0
  0
LINE
  5
3CA
330
1F
100
AcDbEntity
  8
化粧台
  6
CONTINUOUS
 62
     2
100
AcDbLine
 10
2224.407402172774
 20
1805.084018542752
 30
0.0
 11
2223.522850241884
 21
1805.82624574172
 31
0.0
  0
ARC
  5
3CB
330
1F
100
AcDbEntity
  8
化粧台
  6
CONTINUOUS
 62
     2
100
AcDbCircle
 10
2370.655424036379
 20
1783.571615551347
 30
0.0
 40
4.0
100
AcDbArc
 50
90.00000000000001
 51
151.9999999999858
  0
LINE
  5
3CC
330
1F
100
AcDbEntity
  8
化粧台
  6
CONTINUOUS
 62
     2
100
AcDbLine
 10
2258.178105298999
 20
1796.911464064805
 30
0.0
 11
2318.500000000018
 21
1786.27508650156
 31
0.0
  0
LINE
  5
3CD
330
1F
100
AcDbEntity
  8
化粧台
  6
CONTINUOUS
 62
     2
100
AcDbLine
 10
2225.590296517399
 20
1833.120372351741
 30
0.0
 11
2318.500000000019
 21
1816.737884858131
 31
0.0
  0
LINE
  5
3CE
330
1F
100
AcDbEntity
  8
化粧台
  6
CONTINUOUS
 62
     2
100
AcDbLine
 10
2251.405802583743
 20
1808.471523390496
 30
0.0
 11
2258.178105298999
 21
1796.911464064805
 31
0.0
  0
ARC
  5
3CF
330
1F
100
AcDbEntity
  8
化粧台
  6
CONTINUOUS
 62
     2
100
AcDbCircle
 10
2221.448251524134
 20
1815.784701142027
 30
0.0
 40
2.0
100
AcDbArc
 50
172.1050093001812
 51
260.0000000000212
  0
ARC
  5
3D0
330
1F
100
AcDbEntity
  8
化粧台
  6
CONTINUOUS
 62
     2
100
AcDbCircle
 10
2225.243000162065
 20
1831.150756845717
 30
0.0
 40
2.0
100
AcDbArc
 50
79.99999999999498
 51
160.1509730893515
  0
LINE
  5
3D1
330
1F
100
AcDbEntity
  8
化粧台
  6
CONTINUOUS
 62
     2
100
AcDbLine
 10
2319.500000000017
 20
1841.800000000112
 30
0.0
 11
2320.700000000018
 21
1841.800000000112
 31
0.0
  0
ARC
  5
3D2
330
1F
100
AcDbEntity
  8
化粧台
  6
CONTINUOUS
 62
     2
100
AcDbCircle
 10
2341.000000000017
 20
1576.700012207062
 30
0.0
 40
300.0
100
AcDbArc
 50
85.78044385704108
 51
94.21955614295885
  0
LINE
  5
3D3
330
1F
100
AcDbEntity
  8
化粧台
  6
CONTINUOUS
 62
     2
100
AcDbLine
 10
2363.80350850202
 20
1865.700012207062
 30
0.0
 11
2363.80350850202
 21
1856.885151813763
 31
0.0
  0
POLYLINE
  5
3D4
330
1F
100
AcDbEntity
  8
化粧台
  6
CONTINUOUS
 62
     2
100
AcDb2dPolyline
 66
     1
 10
0.0
 20
0.0
 30
0.0
 70
   128
  0
VERTEX
  5
3D5
330
3D4
100
AcDbEntity
  8
化粧台
  6
CONTINUOUS
 62
     2
100
AcDbVertex
100
AcDb2dVertex
 10
2363.73213584342
 20
1856.300181236962
 30
0.0
  0
VERTEX
  5
3D6
330
3D4
100
AcDbEntity
  8
化粧台
  6
CONTINUOUS
 62
     2
100
AcDbVertex
100
AcDb2dVertex
 10
2363.732454492683
 20
1856.300633354383
 30
0.0
  0
VERTEX
  5
3D7
330
3D4
100
AcDbEntity
  8
化粧台
  6
CONTINUOUS
 62
     2
100
AcDbVertex
100
AcDb2dVertex
 10
2363.733356918055
 20
1856.301925614466
 30
0.0
  0
VERTEX
  5
3D8
330
3D4
100
AcDbEntity
  8
化粧台
  6
CONTINUOUS
 62
     2
100
AcDbVertex
100
AcDb2dVertex
 10
2363.734762835906
 20
1856.303961878935
 30
0.0
  0
VERTEX
  5
3D9
330
3D4
100
AcDbEntity
  8
化粧台
  6
CONTINUOUS
 62
     2
100
AcDbVertex
100
AcDb2dVertex
 10
2363.736591962608
 20
1856.306646009519
 30
0.0
  0
VERTEX
  5
3DA
330
3D4
100
AcDbEntity
  8
化粧台
  6
CONTINUOUS
 62
     2
100
AcDbVertex
100
AcDb2dVertex
 10
2363.738764014534
 20
1856.309881867944
 30
0.0
  0
VERTEX
  5
3DB
330
3D4
100
AcDbEntity
  8
化粧台
  6
CONTINUOUS
 62
     2
100
AcDbVertex
100
AcDb2dVertex
 10
2363.741198708056
 20
1856.313573315937
 30
0.0
  0
VERTEX
  5
3DC
330
3D4
100
AcDbEntity
  8
化粧台
  6
CONTINUOUS
 62
     2
100
AcDbVertex
100
AcDb2dVertex
 10
2363.743815759546
 20
1856.317624215225
 30
0.0
  0
VERTEX
  5
3DD
330
3D4
100
AcDbEntity
  8
化粧台
  6
CONTINUOUS
 62
     2
100
AcDbVertex
100
AcDb2dVertex
 10
2363.746534885375
 20
1856.321938427535
 30
0.0
  0
VERTEX
  5
3DE
330
3D4
100
AcDbEntity
  8
化粧台
  6
CONTINUOUS
 62
     2
100
AcDbVertex
100
AcDb2dVertex
 10
2363.749275801916
 20
1856.326419814593
 30
0.0
  0
VERTEX
  5
3DF
330
3D4
100
AcDbEntity
  8
化粧台
  6
CONTINUOUS
 62
     2
100
AcDbVertex
100
AcDb2dVertex
 10
2363.75195822554
 20
1856.330972238126
 30
0.0
  0
VERTEX
  5
3E0
330
3D4
100
AcDbEntity
  8
化粧台
  6
CONTINUOUS
 62
     2
100
AcDbVertex
100
AcDb2dVertex
 10
2363.754501872619
 20
1856.335499559862
 30
0.0
  0
VERTEX
  5
3E1
330
3D4
100
AcDbEntity
  8
化粧台
  6
CONTINUOUS
 62
     2
100
AcDbVertex
100
AcDb2dVertex
 10
2363.759147087132
 20
1856.344597498818
 30
0.0
  0
VERTEX
  5
3E2
330
3D4
100
AcDbEntity
  8
化粧台
  6
CONTINUOUS
 62
     2
100
AcDbVertex
100
AcDb2dVertex
 10
2363.762936248
 20
1856.353230612037
 30
0.0
  0
VERTEX
  5
3E3
330
3D4
100
AcDbEntity
  8
化粧台
  6
CONTINUOUS
 62
     2
100
AcDbVertex
100
AcDb2dVertex
 10
2363.765966582824
 20
1856.36146167259
 30
0.0
  0
VERTEX
  5
3E4
330
3D4
100
AcDbEntity
  8
化粧台
  6
CONTINUOUS
 62
     2
100
AcDbVertex
100
AcDb2dVertex
 10
2363.768335319203
 20
1856.369353453547
 30
0.0
  0
VERTEX
  5
3E5
330
3D4
100
AcDbEntity
  8
化粧台
  6
CONTINUOUS
 62
     2
100
AcDbVertex
100
AcDb2dVertex
 10
2363.770139684736
 20
1856.376968727978
 30
0.0
  0
VERTEX
  5
3E6
330
3D4
100
AcDbEntity
  8
化粧台
  6
CONTINUOUS
 62
     2
100
AcDbVertex
100
AcDb2dVertex
 10
2363.771476907021
 20
1856.384370268955
 30
0.0
  0
VERTEX
  5
3E7
330
3D4
100
AcDbEntity
  8
化粧台
  6
CONTINUOUS
 62
     2
100
AcDbVertex
100
AcDb2dVertex
 10
2363.772444213659
 20
1856.391620849545
 30
0.0
  0
VERTEX
  5
3E8
330
3D4
100
AcDbEntity
  8
化粧台
  6
CONTINUOUS
 62
     2
100
AcDbVertex
100
AcDb2dVertex
 10
2363.773138832248
 20
1856.398783242822
 30
0.0
  0
VERTEX
  5
3E9
330
3D4
100
AcDbEntity
  8
化粧台
  6
CONTINUOUS
 62
     2
100
AcDbVertex
100
AcDb2dVertex
 10
2363.773657990388
 20
1856.405920221853
 30
0.0
  0
VERTEX
  5
3EA
330
3D4
100
AcDbEntity
  8
化粧台
  6
CONTINUOUS
 62
     2
100
AcDbVertex
100
AcDb2dVertex
 10
2363.774098915678
 20
1856.413094559709
 30
0.0
  0
VERTEX
  5
3EB
330
3D4
100
AcDbEntity
  8
化粧台
  6
CONTINUOUS
 62
     2
100
AcDbVertex
100
AcDb2dVertex
 10
2363.774558835717
 20
1856.420369029463
 30
0.0
  0
VERTEX
  5
3EC
330
3D4
100
AcDbEntity
  8
化粧台
  6
CONTINUOUS
 62
     2
100
AcDbVertex
100
AcDb2dVertex
 10
2363.775421512989
 20
1856.431393533333
 30
0.0
  0
VERTEX
  5
3ED
330
3D4
100
AcDbEntity
  8
化粧台
  6
CONTINUOUS
 62
     2
100
AcDbVertex
100
AcDb2dVertex
 10
2363.776502403189
 20
1856.442715248446
 30
0.0
  0
VERTEX
  5
3EE
330
3D4
100
AcDbEntity
  8
化粧台
  6
CONTINUOUS
 62
     2
100
AcDbVertex
100
AcDb2dVertex
 10
2363.777765844477
 20
1856.454275538306
 30
0.0
  0
VERTEX
  5
3EF
330
3D4
100
AcDbEntity
  8
化粧台
  6
CONTINUOUS
 62
     2
100
AcDbVertex
100
AcDb2dVertex
 10
2363.779176175017
 20
1856.466015766414
 30
0.0
  0
VERTEX
  5
3F0
330
3D4
100
AcDbEntity
  8
化粧台
  6
CONTINUOUS
 62
     2
100
AcDbVertex
100
AcDb2dVertex
 10
2363.78069773297
 20
1856.477877296274
 30
0.0
  0
VERTEX
  5
3F1
330
3D4
100
AcDbEntity
  8
化粧台
  6
CONTINUOUS
 62
     2
100
AcDbVertex
100
AcDb2dVertex
 10
2363.782294856498
 20
1856.489801491388
 30
0.0
  0
VERTEX
  5
3F2
330
3D4
100
AcDbEntity
  8
化粧台
  6
CONTINUOUS
 62
     2
100
AcDbVertex
100
AcDb2dVertex
 10
2363.783931883761
 20
1856.501729715259
 30
0.0
  0
VERTEX
  5
3F3
330
3D4
100
AcDbEntity
  8
化粧台
  6
CONTINUOUS
 62
     2
100
AcDbVertex
100
AcDb2dVertex
 10
2363.785573152924
 20
1856.513603331389
 30
0.0
  0
VERTEX
  5
3F4
330
3D4
100
AcDbEntity
  8
化粧台
  6
CONTINUOUS
 62
     2
100
AcDbVertex
100
AcDb2dVertex
 10
2363.787183002147
 20
1856.525363703282
 30
0.0
  0
VERTEX
  5
3F5
330
3D4
100
AcDbEntity
  8
化粧台
  6
CONTINUOUS
 62
     2
100
AcDbVertex
100
AcDb2dVertex
 10
2363.788725769591
 20
1856.536952194438
 30
0.0
  0
VERTEX
  5
3F6
330
3D4
100
AcDbEntity
  8
化粧台
  6
CONTINUOUS
 62
     2
100
AcDbVertex
100
AcDb2dVertex
 10
2363.79016579342
 20
1856.548310168362
 30
0.0
  0
VERTEX
  5
3F7
330
3D4
100
AcDbEntity
  8
化粧台
  6
CONTINUOUS
 62
     2
100
AcDbVertex
100
AcDb2dVertex
 10
2363.79178092415
 20
1856.562131618917
 30
0.0
  0
VERTEX
  5
3F8
330
3D4
100
AcDbEntity
  8
化粧台
  6
CONTINUOUS
 62
     2
100
AcDbVertex
100
AcDb2dVertex
 10
2363.793198495588
 20
1856.575654045147
 30
0.0
  0
VERTEX
  5
3F9
330
3D4
100
AcDbEntity
  8
化粧台
  6
CONTINUOUS
 62
     2
100
AcDbVertex
100
AcDb2dVertex
 10
2363.794436984164
 20
1856.589029759959
 30
0.0
  0
VERTEX
  5
3FA
330
3D4
100
AcDbEntity
  8
化粧台
  6
CONTINUOUS
 62
     2
100
AcDbVertex
100
AcDb2dVertex
 10
2363.79551486631
 20
1856.602411076259
 30
0.0
  0
VERTEX
  5
3FB
330
3D4
100
AcDbEntity
  8
化粧台
  6
CONTINUOUS
 62
     2
100
AcDbVertex
100
AcDb2dVertex
 10
2363.796450618452
 20
1856.615950306953
 30
0.0
  0
VERTEX
  5
3FC
330
3D4
100
AcDbEntity
  8
化粧台
  6
CONTINUOUS
 62
     2
100
AcDbVertex
100
AcDb2dVertex
 10
2363.797262717022
 20
1856.629799764949
 30
0.0
  0
VERTEX
  5
3FD
330
3D4
100
AcDbEntity
  8
化粧台
  6
CONTINUOUS
 62
     2
100
AcDbVertex
100
AcDb2dVertex
 10
2363.797969638449
 20
1856.644111763152
 30
0.0
  0
VERTEX
  5
3FE
330
3D4
100
AcDbEntity
  8
化粧台
  6
CONTINUOUS
 62
     2
100
AcDbVertex
100
AcDb2dVertex
 10
2363.798589859162
 20
1856.659038614468
 30
0.0
  0
VERTEX
  5
3FF
330
3D4
100
AcDbEntity
  8
化粧台
  6
CONTINUOUS
 62
     2
100
AcDbVertex
100
AcDb2dVertex
 10
2363.799141855592
 20
1856.674732631805
 30
0.0
  0
VERTEX
  5
400
330
3D4
100
AcDbEntity
  8
化粧台
  6
CONTINUOUS
 62
     2
100
AcDbVertex
100
AcDb2dVertex
 10
2363.799644104167
 20
1856.691346128067
 30
0.0
  0
VERTEX
  5
401
330
3D4
100
AcDbEntity
  8
化粧台
  6
CONTINUOUS
 62
     2
100
AcDbVertex
100
AcDb2dVertex
 10
2363.800115081318
 20
1856.709031416162
 30
0.0
  0
VERTEX
  5
402
330
3D4
100
AcDbEntity
  8
化粧台
  6
CONTINUOUS
 62
     2
100
AcDbVertex
100
AcDb2dVertex
 10
2363.800611344221
 20
1856.729652481848
 30
0.0
  0
VERTEX
  5
403
330
3D4
100
AcDbEntity
  8
化粧台
  6
CONTINUOUS
 62
     2
100
AcDbVertex
100
AcDb2dVertex
 10
2363.801086735121
 20
1856.751141674621
 30
0.0
  0
VERTEX
  5
404
330
3D4
100
AcDbEntity
  8
化粧台
  6
CONTINUOUS
 62
     2
100
AcDbVertex
100
AcDb2dVertex
 10
2363.801535693344
 20
1856.772902277421
 30
0.0
  0
VERTEX
  5
405
330
3D4
100
AcDbEntity
  8
化粧台
  6
CONTINUOUS
 62
     2
100
AcDbVertex
100
AcDb2dVertex
 10
2363.801952658216
 20
1856.794337573189
 30
0.0
  0
VERTEX
  5
406
330
3D4
100
AcDbEntity
  8
化粧台
  6
CONTINUOUS
 62
     2
100
AcDbVertex
100
AcDb2dVertex
 10
2363.802332069066
 20
1856.814850844867
 30
0.0
  0
VERTEX
  5
407
330
3D4
100
AcDbEntity
  8
化粧台
  6
CONTINUOUS
 62
     2
100
AcDbVertex
100
AcDb2dVertex
 10
2363.802668365222
 20
1856.833845375397
 30
0.0
  0
VERTEX
  5
408
330
3D4
100
AcDbEntity
  8
化粧台
  6
CONTINUOUS
 62
     2
100
AcDbVertex
100
AcDb2dVertex
 10
2363.802955986008
 20
1856.850724447719
 30
0.0
  0
VERTEX
  5
409
330
3D4
100
AcDbEntity
  8
化粧台
  6
CONTINUOUS
 62
     2
100
AcDbVertex
100
AcDb2dVertex
 10
2363.803189370754
 20
1856.864891344775
 30
0.0
  0
VERTEX
  5
40A
330
3D4
100
AcDbEntity
  8
化粧台
  6
CONTINUOUS
 62
     2
100
AcDbVertex
100
AcDb2dVertex
 10
2363.803362958787
 20
1856.875749349507
 30
0.0
  0
VERTEX
  5
40B
330
3D4
100
AcDbEntity
  8
化粧台
  6
CONTINUOUS
 62
     2
100
AcDbVertex
100
AcDb2dVertex
 10
2363.803471189433
 20
1856.882701744856
 30
0.0
  0
VERTEX
  5
40C
330
3D4
100
AcDbEntity
  8
化粧台
  6
CONTINUOUS
 62
     2
100
AcDbVertex
100
AcDb2dVertex
 10
2363.80350850202
 20
1856.885151813763
 30
0.0
  0
SEQEND
  5
40D
330
3D4
100
AcDbEntity
  8
化粧台
  6
CONTINUOUS
 62
     2
  0
LINE
  5
40E
330
1F
100
AcDbEntity
  8
化粧台
  6
CONTINUOUS
 62
     2
100
AcDbLine
 10
2364.000000000018
 20
1874.889549246862
 30
0.0
 11
2364.000000000018
 21
1868.700012207062
 31
0.0
  0
POLYLINE
  5
40F
330
1F
100
AcDbEntity
  8
化粧台
  6
CONTINUOUS
 62
     2
100
AcDb2dPolyline
 66
     1
 10
0.0
 20
0.0
 30
0.0
 70
   128
  0
VERTEX
  5
410
330
40F
100
AcDbEntity
  8
化粧台
  6
CONTINUOUS
 62
     2
100
AcDbVertex
100
AcDb2dVertex
 10
2363.80350850202
 20
1865.700012207062
 30
0.0
  0
VERTEX
  5
411
330
40F
100
AcDbEntity
  8
化粧台
  6
CONTINUOUS
 62
     2
100
AcDbVertex
100
AcDb2dVertex
 10
2363.803570232775
 20
1865.708074227495
 30
0.0
  0
VERTEX
  5
412
330
40F
100
AcDbEntity
  8
化粧台
  6
CONTINUOUS
 62
     2
100
AcDbVertex
100
AcDb2dVertex
 10
2363.803755460578
 20
1865.730966478737
 30
0.0
  0
VERTEX
  5
413
330
40F
100
AcDbEntity
  8
化粧台
  6
CONTINUOUS
 62
     2
100
AcDbVertex
100
AcDb2dVertex
 10
2363.804064238737
 20
1865.766748245705
 30
0.0
  0
VERTEX
  5
414
330
40F
100
AcDbEntity
  8
化粧台
  6
CONTINUOUS
 62
     2
100
AcDbVertex
100
AcDb2dVertex
 10
2363.804496620559
 20
1865.813478813312
 30
0.0
  0
VERTEX
  5
415
330
40F
100
AcDbEntity
  8
化粧台
  6
CONTINUOUS
 62
     2
100
AcDbVertex
100
AcDb2dVertex
 10
2363.805052659352
 20
1865.869217466474
 30
0.0
  0
VERTEX
  5
416
330
40F
100
AcDbEntity
  8
化粧台
  6
CONTINUOUS
 62
     2
100
AcDbVertex
100
AcDb2dVertex
 10
2363.805732408423
 20
1865.932023490107
 30
0.0
  0
VERTEX
  5
417
330
40F
100
AcDbEntity
  8
化粧台
  6
CONTINUOUS
 62
     2
100
AcDbVertex
100
AcDb2dVertex
 10
2363.80653592108
 20
1865.999956169125
 30
0.0
  0
VERTEX
  5
418
330
40F
100
AcDbEntity
  8
化粧台
  6
CONTINUOUS
 62
     2
100
AcDbVertex
100
AcDb2dVertex
 10
2363.807463250631
 20
1866.071074788445
 30
0.0
  0
VERTEX
  5
419
330
40F
100
AcDbEntity
  8
化粧台
  6
CONTINUOUS
 62
     2
100
AcDbVertex
100
AcDb2dVertex
 10
2363.808514450383
 20
1866.14343863298
 30
0.0
  0
VERTEX
  5
41A
330
40F
100
AcDbEntity
  8
化粧台
  6
CONTINUOUS
 62
     2
100
AcDbVertex
100
AcDb2dVertex
 10
2363.809689573642
 20
1866.215106987648
 30
0.0
  0
VERTEX
  5
41B
330
40F
100
AcDbEntity
  8
化粧台
  6
CONTINUOUS
 62
     2
100
AcDbVertex
100
AcDb2dVertex
 10
2363.810988673718
 20
1866.284139137362
 30
0.0
  0
VERTEX
  5
41C
330
40F
100
AcDbEntity
  8
化粧台
  6
CONTINUOUS
 62
     2
100
AcDbVertex
100
AcDb2dVertex
 10
2363.812362643867
 20
1866.346929009635
 30
0.0
  0
VERTEX
  5
41D
330
40F
100
AcDbEntity
  8
化粧台
  6
CONTINUOUS
 62
     2
100
AcDbVertex
100
AcDb2dVertex
 10
2363.813852273066
 20
1866.405935814329
 30
0.0
  0
VERTEX
  5
41E
330
40F
100
AcDbEntity
  8
化粧台
  6
CONTINUOUS
 62
     2
100
AcDbVertex
100
AcDb2dVertex
 10
2363.815457267102
 20
1866.461655354237
 30
0.0
  0
VERTEX
  5
41F
330
40F
100
AcDbEntity
  8
化粧台
  6
CONTINUOUS
 62
     2
100
AcDbVertex
100
AcDb2dVertex
 10
2363.817177331758
 20
1866.514583432159
 30
0.0
  0
VERTEX
  5
420
330
40F
100
AcDbEntity
  8
化粧台
  6
CONTINUOUS
 62
     2
100
AcDbVertex
100
AcDb2dVertex
 10
2363.819012172821
 20
1866.565215850889
 30
0.0
  0
VERTEX
  5
421
330
40F
100
AcDbEntity
  8
化粧台
  6
CONTINUOUS
 62
     2
100
AcDbVertex
100
AcDb2dVertex
 10
2363.820961496076
 20
1866.614048413225
 30
0.0
  0
VERTEX
  5
422
330
40F
100
AcDbEntity
  8
化粧台
  6
CONTINUOUS
 62
     2
100
AcDbVertex
100
AcDb2dVertex
 10
2363.823025007308
 20
1866.661576921962
 30
0.0
  0
VERTEX
  5
423
330
40F
100
AcDbEntity
  8
化粧台
  6
CONTINUOUS
 62
     2
100
AcDbVertex
100
AcDb2dVertex
 10
2363.825202412303
 20
1866.708297179899
 30
0.0
  0
VERTEX
  5
424
330
40F
100
AcDbEntity
  8
化粧台
  6
CONTINUOUS
 62
     2
100
AcDbVertex
100
AcDb2dVertex
 10
2363.827493416846
 20
1866.75470498983
 30
0.0
  0
VERTEX
  5
425
330
40F
100
AcDbEntity
  8
化粧台
  6
CONTINUOUS
 62
     2
100
AcDbVertex
100
AcDb2dVertex
 10
2363.829897726723
 20
1866.801296154552
 30
0.0
  0
VERTEX
  5
426
330
40F
100
AcDbEntity
  8
化粧台
  6
CONTINUOUS
 62
     2
100
AcDbVertex
100
AcDb2dVertex
 10
2363.83241504772
 20
1866.848566476862
 30
0.0
  0
VERTEX
  5
427
330
40F
100
AcDbEntity
  8
化粧台
  6
CONTINUOUS
 62
     2
100
AcDbVertex
100
AcDb2dVertex
 10
2363.834836433526
 20
1866.893102823133
 30
0.0
  0
VERTEX
  5
428
330
40F
100
AcDbEntity
  8
化粧台
  6
CONTINUOUS
 62
     2
100
AcDbVertex
100
AcDb2dVertex
 10
2363.837354307565
 20
1866.938524759265
 30
0.0
  0
VERTEX
  5
429
330
40F
100
AcDbEntity
  8
化粧台
  6
CONTINUOUS
 62
     2
100
AcDbVertex
100
AcDb2dVertex
 10
2363.839969308786
 20
1866.984718742693
 30
0.0
  0
VERTEX
  5
42A
330
40F
100
AcDbEntity
  8
化粧台
  6
CONTINUOUS
 62
     2
100
AcDbVertex
100
AcDb2dVertex
 10
2363.842682076136
 20
1867.031571230854
 30
0.0
  0
VERTEX
  5
42B
330
40F
100
AcDbEntity
  8
化粧台
  6
CONTINUOUS
 62
     2
100
AcDbVertex
100
AcDb2dVertex
 10
2363.845493248564
 20
1867.078968681184
 30
0.0
  0
VERTEX
  5
42C
330
40F
100
AcDbEntity
  8
化粧台
  6
CONTINUOUS
 62
     2
100
AcDbVertex
100
AcDb2dVertex
 10
2363.848403465016
 20
1867.12679755112
 30
0.0
  0
VERTEX
  5
42D
330
40F
100
AcDbEntity
  8
化粧台
  6
CONTINUOUS
 62
     2
100
AcDbVertex
100
AcDb2dVertex
 10
2363.851413364441
 20
1867.174944298099
 30
0.0
  0
VERTEX
  5
42E
330
40F
100
AcDbEntity
  8
化粧台
  6
CONTINUOUS
 62
     2
100
AcDbVertex
100
AcDb2dVertex
 10
2363.854523585786
 20
1867.223295379556
 30
0.0
  0
VERTEX
  5
42F
330
40F
100
AcDbEntity
  8
化粧台
  6
CONTINUOUS
 62
     2
100
AcDbVertex
100
AcDb2dVertex
 10
2363.857734768
 20
1867.271737252928
 30
0.0
  0
VERTEX
  5
430
330
40F
100
AcDbEntity
  8
化粧台
  6
CONTINUOUS
 62
     2
100
AcDbVertex
100
AcDb2dVertex
 10
2363.861047550029
 20
1867.320156375651
 30
0.0
  0
VERTEX
  5
431
330
40F
100
AcDbEntity
  8
化粧台
  6
CONTINUOUS
 62
     2
100
AcDbVertex
100
AcDb2dVertex
 10
2363.864462570822
 20
1867.368439205162
 30
0.0
  0
VERTEX
  5
432
330
40F
100
AcDbEntity
  8
化粧台
  6
CONTINUOUS
 62
     2
100
AcDbVertex
100
AcDb2dVertex
 10
2363.86752789057
 20
1867.410408887636
 30
0.0
  0
VERTEX
  5
433
330
40F
100
AcDbEntity
  8
化粧台
  6
CONTINUOUS
 62
     2
100
AcDbVertex
100
AcDb2dVertex
 10
2363.870669362995
 20
1867.452197306022
 30
0.0
  0
VERTEX
  5
434
330
40F
100
AcDbEntity
  8
化粧台
  6
CONTINUOUS
 62
     2
100
AcDbVertex
100
AcDb2dVertex
 10
2363.873884716042
 20
1867.493813648597
 30
0.0
  0
VERTEX
  5
435
330
40F
100
AcDbEntity
  8
化粧台
  6
CONTINUOUS
 62
     2
100
AcDbVertex
100
AcDb2dVertex
 10
2363.877171677657
 20
1867.535267103636
 30
0.0
  0
VERTEX
  5
436
330
40F
100
AcDbEntity
  8
化粧台
  6
CONTINUOUS
 62
     2
100
AcDbVertex
100
AcDb2dVertex
 10
2363.880527975785
 20
1867.576566859418
 30
0.0
  0
VERTEX
  5
437
330
40F
100
AcDbEntity
  8
化粧台
  6
CONTINUOUS
 62
     2
100
AcDbVertex
100
AcDb2dVertex
 10
2363.883951338375
 20
1867.617722104217
 30
0.0
  0
VERTEX
  5
438
330
40F
100
AcDbEntity
  8
化粧台
  6
CONTINUOUS
 62
     2
100
AcDbVertex
100
AcDb2dVertex
 10
2363.887439493369
 20
1867.658742026311
 30
0.0
  0
VERTEX
  5
439
330
40F
100
AcDbEntity
  8
化粧台
  6
CONTINUOUS
 62
     2
100
AcDbVertex
100
AcDb2dVertex
 10
2363.890990168714
 20
1867.699635813975
 30
0.0
  0
VERTEX
  5
43A
330
40F
100
AcDbEntity
  8
化粧台
  6
CONTINUOUS
 62
     2
100
AcDbVertex
100
AcDb2dVertex
 10
2363.894601092358
 20
1867.740412655488
 30
0.0
  0
VERTEX
  5
43B
330
40F
100
AcDbEntity
  8
化粧台
  6
CONTINUOUS
 62
     2
100
AcDbVertex
100
AcDb2dVertex
 10
2363.898269992244
 20
1867.781081739125
 30
0.0
  0
VERTEX
  5
43C
330
40F
100
AcDbEntity
  8
化粧台
  6
CONTINUOUS
 62
     2
100
AcDbVertex
100
AcDb2dVertex
 10
2363.901994596319
 20
1867.821652253162
 30
0.0
  0
VERTEX
  5
43D
330
40F
100
AcDbEntity
  8
化粧台
  6
CONTINUOUS
 62
     2
100
AcDbVertex
100
AcDb2dVertex
 10
2363.905101484901
 20
1867.854981837896
 30
0.0
  0
VERTEX
  5
43E
330
40F
100
AcDbEntity
  8
化粧台
  6
CONTINUOUS
 62
     2
100
AcDbVertex
100
AcDb2dVertex
 10
2363.908250614122
 20
1867.888292282256
 30
0.0
  0
VERTEX
  5
43F
330
40F
100
AcDbEntity
  8
化粧台
  6
CONTINUOUS
 62
     2
100
AcDbVertex
100
AcDb2dVertex
 10
2363.911448030308
 20
1867.921624991748
 30
0.0
  0
VERTEX
  5
440
330
40F
100
AcDbEntity
  8
化粧台
  6
CONTINUOUS
 62
     2
100
AcDbVertex
100
AcDb2dVertex
 10
2363.914699779786
 20
1867.955021371874
 30
0.0
  0
VERTEX
  5
441
330
40F
100
AcDbEntity
  8
化粧台
  6
CONTINUOUS
 62
     2
100
AcDbVertex
100
AcDb2dVertex
 10
2363.918011908881
 20
1867.988522828141
 30
0.0
  0
VERTEX
  5
442
330
40F
100
AcDbEntity
  8
化粧台
  6
CONTINUOUS
 62
     2
100
AcDbVertex
100
AcDb2dVertex
 10
2363.921390463923
 20
1868.022170766054
 30
0.0
  0
VERTEX
  5
443
330
40F
100
AcDbEntity
  8
化粧台
  6
CONTINUOUS
 62
     2
100
AcDbVertex
100
AcDb2dVertex
 10
2363.924841491235
 20
1868.056006591117
 30
0.0
  0
VERTEX
  5
444
330
40F
100
AcDbEntity
  8
化粧台
  6
CONTINUOUS
 62
     2
100
AcDbVertex
100
AcDb2dVertex
 10
2363.928371037144
 20
1868.090071708834
 30
0.0
  0
VERTEX
  5
445
330
40F
100
AcDbEntity
  8
化粧台
  6
CONTINUOUS
 62
     2
100
AcDbVertex
100
AcDb2dVertex
 10
2363.931985147977
 20
1868.12440752471
 30
0.0
  0
VERTEX
  5
446
330
40F
100
AcDbEntity
  8
化粧台
  6
CONTINUOUS
 62
     2
100
AcDbVertex
100
AcDb2dVertex
 10
2363.935689870059
 20
1868.159055444251
 30
0.0
  0
VERTEX
  5
447
330
40F
100
AcDbEntity
  8
化粧台
  6
CONTINUOUS
 62
     2
100
AcDbVertex
100
AcDb2dVertex
 10
2363.939491249719
 20
1868.194056872961
 30
0.0
  0
VERTEX
  5
448
330
40F
100
AcDbEntity
  8
化粧台
  6
CONTINUOUS
 62
     2
100
AcDbVertex
100
AcDb2dVertex
 10
2363.942407937598
 20
1868.220556533002
 30
0.0
  0
VERTEX
  5
449
330
40F
100
AcDbEntity
  8
化粧台
  6
CONTINUOUS
 62
     2
100
AcDbVertex
100
AcDb2dVertex
 10
2363.945367667655
 20
1868.247166280859
 30
0.0
  0
VERTEX
  5
44A
330
40F
100
AcDbEntity
  8
化粧台
  6
CONTINUOUS
 62
     2
100
AcDbVertex
100
AcDb2dVertex
 10
2363.948355653319
 20
1868.273773842554
 30
0.0
  0
VERTEX
  5
44B
330
40F
100
AcDbEntity
  8
化粧台
  6
CONTINUOUS
 62
     2
100
AcDbVertex
100
AcDb2dVertex
 10
2363.95135710801
 20
1868.30026694411
 30
0.0
  0
VERTEX
  5
44C
330
40F
100
AcDbEntity
  8
化粧台
  6
CONTINUOUS
 62
     2
100
AcDbVertex
100
AcDb2dVertex
 10
2363.954357245156
 20
1868.326533311548
 30
0.0
  0
VERTEX
  5
44D
330
40F
100
AcDbEntity
  8
化粧台
  6
CONTINUOUS
 62
     2
100
AcDbVertex
100
AcDb2dVertex
 10
2363.957341278178
 20
1868.352460670891
 30
0.0
  0
VERTEX
  5
44E
330
40F
100
AcDbEntity
  8
化粧台
  6
CONTINUOUS
 62
     2
100
AcDbVertex
100
AcDb2dVertex
 10
2363.960294420503
 20
1868.377936748162
 30
0.0
  0
VERTEX
  5
44F
330
40F
100
AcDbEntity
  8
化粧台
  6
CONTINUOUS
 62
     2
100
AcDbVertex
100
AcDb2dVertex
 10
2363.963201885555
 20
1868.402849269382
 30
0.0
  0
VERTEX
  5
450
330
40F
100
AcDbEntity
  8
化粧台
  6
CONTINUOUS
 62
     2
100
AcDbVertex
100
AcDb2dVertex
 10
2363.96604888676
 20
1868.427085960574
 30
0.0
  0
VERTEX
  5
451
330
40F
100
AcDbEntity
  8
化粧台
  6
CONTINUOUS
 62
     2
100
AcDbVertex
100
AcDb2dVertex
 10
2363.968820637539
 20
1868.45053454776
 30
0.0
  0
VERTEX
  5
452
330
40F
100
AcDbEntity
  8
化粧台
  6
CONTINUOUS
 62
     2
100
AcDbVertex
100
AcDb2dVertex
 10
2363.97150235132
 20
1868.473082756962
 30
0.0
  0
VERTEX
  5
453
330
40F
100
AcDbEntity
  8
化粧台
  6
CONTINUOUS
 62
     2
100
AcDbVertex
100
AcDb2dVertex
 10
2363.973114311575
 20
1868.486566058643
 30
0.0
  0
VERTEX
  5
454
330
40F
100
AcDbEntity
  8
化粧台
  6
CONTINUOUS
 62
     2
100
AcDbVertex
100
AcDb2dVertex
 10
2363.974713076309
 20
1868.499868178589
 30
0.0
  0
VERTEX
  5
455
330
40F
100
AcDbEntity
  8
化粧台
  6
CONTINUOUS
 62
     2
100
AcDbVertex
100
AcDb2dVertex
 10
2363.976325538352
 20
1868.513195210025
 30
0.0
  0
VERTEX
  5
456
330
40F
100
AcDbEntity
  8
化粧台
  6
CONTINUOUS
 62
     2
100
AcDbVertex
100
AcDb2dVertex
 10
2363.977978590531
 20
1868.526753246175
 30
0.0
  0
VERTEX
  5
457
330
40F
100
AcDbEntity
  8
化粧台
  6
CONTINUOUS
 62
     2
100
AcDbVertex
100
AcDb2dVertex
 10
2363.979699125675
 20
1868.540748380263
 30
0.0
  0
VERTEX
  5
458
330
40F
100
AcDbEntity
  8
化粧台
  6
CONTINUOUS
 62
     2
100
AcDbVertex
100
AcDb2dVertex
 10
2363.981514036613
 20
1868.555386705514
 30
0.0
  0
VERTEX
  5
459
330
40F
100
AcDbEntity
  8
化粧台
  6
CONTINUOUS
 62
     2
100
AcDbVertex
100
AcDb2dVertex
 10
2363.983450216174
 20
1868.570874315152
 30
0.0
  0
VERTEX
  5
45A
330
40F
100
AcDbEntity
  8
化粧台
  6
CONTINUOUS
 62
     2
100
AcDbVertex
100
AcDb2dVertex
 10
2363.985534557187
 20
1868.587417302402
 30
0.0
  0
VERTEX
  5
45B
330
40F
100
AcDbEntity
  8
化粧台
  6
CONTINUOUS
 62
     2
100
AcDbVertex
100
AcDb2dVertex
 10
2363.987793952479
 20
1868.605221760487
 30
0.0
  0
VERTEX
  5
45C
330
40F
100
AcDbEntity
  8
化粧台
  6
CONTINUOUS
 62
     2
100
AcDbVertex
100
AcDb2dVertex
 10
2363.990255294879
 20
1868.624493782632
 30
0.0
  0
VERTEX
  5
45D
330
40F
100
AcDbEntity
  8
化粧台
  6
CONTINUOUS
 62
     2
100
AcDbVertex
100
AcDb2dVertex
 10
2363.992945477217
 20
1868.645439462062
 30
0.0
  0
VERTEX
  5
45E
330
40F
100
AcDbEntity
  8
化粧台
  6
CONTINUOUS
 62
     2
100
AcDbVertex
100
AcDb2dVertex
 10
2363.993846468976
 20
1868.652431884937
 30
0.0
  0
VERTEX
  5
45F
330
40F
100
AcDbEntity
  8
化粧台
  6
CONTINUOUS
 62
     2
100
AcDbVertex
100
AcDb2dVertex
 10
2363.994753728878
 20
1868.659464253359
 30
0.0
  0
VERTEX
  5
460
330
40F
100
AcDbEntity
  8
化粧台
  6
CONTINUOUS
 62
     2
100
AcDbVertex
100
AcDb2dVertex
 10
2363.995647856108
 20
1868.666387834531
 30
0.0
  0
VERTEX
  5
461
330
40F
100
AcDbEntity
  8
化粧台
  6
CONTINUOUS
 62
     2
100
AcDbVertex
100
AcDb2dVertex
 10
2363.996509449851
 20
1868.673053895655
 30
0.0
  0
VERTEX
  5
462
330
40F
100
AcDbEntity
  8
化粧台
  6
CONTINUOUS
 62
     2
100
AcDbVertex
100
AcDb2dVertex
 10
2363.997319109294
 20
1868.67931370393
 30
0.0
  0
VERTEX
  5
463
330
40F
100
AcDbEntity
  8
化粧台
  6
CONTINUOUS
 62
     2
100
AcDbVertex
100
AcDb2dVertex
 10
2363.998057433621
 20
1868.68501852656
 30
0.0
  0
VERTEX
  5
464
330
40F
100
AcDbEntity
  8
化粧台
  6
CONTINUOUS
 62
     2
100
AcDbVertex
100
AcDb2dVertex
 10
2363.998705022019
 20
1868.690019630744
 30
0.0
  0
VERTEX
  5
465
330
40F
100
AcDbEntity
  8
化粧台
  6
CONTINUOUS
 62
     2
100
AcDbVertex
100
AcDb2dVertex
 10
2363.999242473672
 20
1868.694168283685
 30
0.0
  0
VERTEX
  5
466
330
40F
100
AcDbEntity
  8
化粧台
  6
CONTINUOUS
 62
     2
100
AcDbVertex
100
AcDb2dVertex
 10
2363.999650387766
 20
1868.697315752584
 30
0.0
  0
VERTEX
  5
467
330
40F
100
AcDbEntity
  8
化粧台
  6
CONTINUOUS
 62
     2
100
AcDbVertex
100
AcDb2dVertex
 10
2363.999909363486
 20
1868.699313304643
 30
0.0
  0
VERTEX
  5
468
330
40F
100
AcDbEntity
  8
化粧台
  6
CONTINUOUS
 62
     2
100
AcDbVertex
100
AcDb2dVertex
 10
2364.000000000018
 20
1868.700012207062
 30
0.0
  0
SEQEND
  5
469
330
40F
100
AcDbEntity
  8
化粧台
  6
CONTINUOUS
 62
     2
  0
ARC
  5
46A
330
1F
100
AcDbEntity
  8
化粧台
  6
CONTINUOUS
 62
     2
100
AcDbCircle
 10
2363.000000000018
 20
1874.889549246862
 30
0.0
 40
1.0
100
AcDbArc
 50
0.0
 51
85.78044385704138
  0
LINE
  5
46B
330
1F
100
AcDbEntity
  8
化粧台
  6
CONTINUOUS
 62
     2
100
AcDbLine
 10
2318.000000000018
 20
1845.700012207062
 30
0.0
 11
2318.000000000017
 21
1863.63830575952
 31
0.0
  0
LINE
  5
46C
330
1F
100
AcDbEntity
  8
化粧台
  6
CONTINUOUS
 62
     2
100
AcDbLine
 10
2341.000000000018
 20
1845.700012207064
 30
0.0
 11
2363.73213584342
 21
1856.300181236962
 31
0.0
  0
LINE
  5
46D
330
1F
100
AcDbEntity
  8
化粧台
  6
CONTINUOUS
 62
     2
100
AcDbLine
 10
2318.000000000018
 20
1845.700012207062
 30
0.0
 11
2341.000000000015
 21
1845.700012207062
 31
0.0
  0
LINE
  5
46E
330
1F
100
AcDbEntity
  8
化粧台
  6
CONTINUOUS
 62
     2
100
AcDbLine
 10
2359.183078167142
 20
1854.17892080514
 30
0.0
 11
2362.500000000017
 21
1841.800000000112
 31
0.0
  0
LINE
  5
46F
330
1F
100
AcDbEntity
  8
化粧台
  6
CONTINUOUS
 62
     2
100
AcDbLine
 10
2320.545005121341
 20
1845.700012207062
 30
0.0
 11
2319.500000000017
 21
1841.800000000112
 31
0.0
  0
LINE
  5
470
330
1F
100
AcDbEntity
  8
化粧台
  6
CONTINUOUS
 62
     2
100
AcDbLine
 10
2362.500000000017
 20
1841.800000000112
 30
0.0
 11
2341.000000000018
 21
1841.800000000112
 31
0.0
  0
LINE
  5
471
330
1F
100
AcDbEntity
  8
化粧台
  6
CONTINUOUS
 62
     2
100
AcDbLine
 10
2319.000000000017
 20
1841.800000000031
 30
0.0
 11
2341.00000000002
 21
1841.800000000039
 31
0.0
  0
ARC
  5
472
330
1F
100
AcDbEntity
  8
化粧台
  6
CONTINUOUS
 62
     2
100
AcDbCircle
 10
2319.000000000018
 20
1874.889549246862
 30
0.0
 40
1.0
100
AcDbArc
 50
94.21955614295867
 51
180.0
  0
LINE
  5
473
330
1F
100
AcDbEntity
  8
化粧台
  6
CONTINUOUS
 62
     2
100
AcDbLine
 10
2318.000000000018
 20
1874.889549246862
 30
0.0
 11
2318.000000000017
 21
1871.761718654606
 31
0.0
  0
LINE
  5
474
330
1F
100
AcDbEntity
  8
化粧台
  6
CONTINUOUS
 62
     2
100
AcDbLine
 10
2248.451379324709
 20
1808.9924679235
 30
0.0
 11
2247.158236314177
 21
1801.658689477714
 31
0.0
  0
LINE
  5
475
330
1F
100
AcDbEntity
  8
化粧台
  6
CONTINUOUS
 62
     2
100
AcDbLine
 10
2224.815993252414
 20
1813.160024187499
 30
0.0
 11
2223.522850241885
 21
1805.82624574172
 31
0.0
  0
LINE
  5
476
330
1F
100
AcDbEntity
  8
化粧台
  6
CONTINUOUS
 62
     2
100
AcDbLine
 10
2236.63368628856
 20
1811.0762460555
 30
0.0
 11
2251.405802583743
 21
1808.471523390496
 31
0.0
  0
LINE
  5
477
330
1F
100
AcDbEntity
  8
化粧台
  6
CONTINUOUS
 62
     2
100
AcDbLine
 10
2318.500000000018
 20
1841.300000000031
 30
0.0
 11
2318.500000000018
 21
1816.73788485813
 31
0.0
  0
LINE
  5
478
330
1F
100
AcDbEntity
  8
化粧台
  6
CONTINUOUS
 62
     2
100
AcDbLine
 10
2370.655424036379
 20
1793.571615551347
 30
0.0
 11
2375.83956959503
 21
1793.571615551347
 31
0.0
  0
LINE
  5
479
330
1F
100
AcDbEntity
  8
化粧台
  6
CONTINUOUS
 62
     2
100
AcDbLine
 10
2370.655424036379
 20
1787.571615551347
 30
0.0
 11
2375.83956959503
 21
1787.571615551347
 31
0.0
  0
LINE
  5
47A
330
1F
100
AcDbEntity
  8
化粧台
  6
CONTINUOUS
 62
     2
100
AcDbLine
 10
2375.839569595034
 20
1790.571615551347
 30
0.0
 11
2375.839569595034
 21
1785.845391073227
 31
0.0
  0
LINE
  5
47B
330
1F
100
AcDbEntity
  8
化粧台
  6
CONTINUOUS
 62
     2
100
AcDbLine
 10
2375.839569595034
 20
1795.297840029468
 30
0.0
 11
2375.839569595034
 21
1790.571615551347
 31
0.0
  0
ARC
  5
47C
330
1F
100
AcDbEntity
  8
化粧台
  6
CONTINUOUS
 62
     2
100
AcDbCircle
 10
2370.655424036379
 20
1783.571615551347
 30
0.0
 40
10.0
100
AcDbArc
 50
90.00000000000001
 51
135.6876687567335
  0
LINE
  5
47D
330
1F
100
AcDbEntity
  8
化粧台
  6
CONTINUOUS
 62
     2
100
AcDbLine
 10
2363.500000000016
 20
1778.634438068142
 30
0.0
 11
2367.123633664944
 21
1785.44950180249
 31
0.0
  0
LINE
  5
47E
330
1F
100
AcDbEntity
  8
化粧台
  6
CONTINUOUS
 62
     2
100
AcDbLine
 10
2318.500000000057
 20
1786.27508650156
 30
0.0
 11
2318.500000000057
 21
1754.500000000028
 31
0.0
  0
LINE
  5
47F
330
1F
100
AcDbEntity
  8
化粧台
  6
CONTINUOUS
 62
     2
100
AcDbLine
 10
2318.000000000018
 20
1872.370974621736
 30
0.0
 11
2318.93823820275
 21
1872.205537912263
 31
0.0
  0
LINE
  5
480
330
1F
100
AcDbEntity
  8
化粧台
  6
CONTINUOUS
 62
     2
100
AcDbLine
 10
2318.000000000018
 20
1872.370974621736
 30
0.0
 11
2318.93823820275
 21
1872.205537912263
 31
0.0
  0
LINE
  5
481
330
1F
100
AcDbEntity
  8
化粧台
  6
CONTINUOUS
 62
     2
100
AcDbLine
 10
2318.000000000018
 20
1863.029049792389
 30
0.0
 11
2318.93823820275
 21
1862.863613082916
 31
0.0
  0
LINE
  5
482
330
1F
100
AcDbEntity
  8
化粧台
  6
CONTINUOUS
 62
     2
100
AcDbLine
 10
2318.000000000018
 20
1863.029049792389
 30
0.0
 11
2318.93823820275
 21
1862.863613082916
 31
0.0
  0
LINE
  5
483
330
1F
100
AcDbEntity
  8
化粧台
  6
CONTINUOUS
 62
     2
100
AcDbLine
 10
2221.1009551688
 20
1813.815085636003
 30
0.0
 11
2236.63368628856
 21
1811.076246055499
 31
0.0
  0
ARC
  5
484
330
1F
100
AcDbEntity
  8
化粧台
  6
CONTINUOUS
 62
     2
100
AcDbCircle
 10
2296.727883704835
 20
1805.345497209811
 30
0.0
 40
78.0
100
AcDbArc
 50
160.1509730893516
 51
172.1050093001874
  0
LINE
  5
485
330
1F
100
AcDbEntity
  8
化粧台
  6
CONTINUOUS
 62
     2
100
AcDbLine
 10
2318.500000000019
 20
1786.27508650156
 30
0.0
 11
2318.500000000017
 21
1742.808109337434
 31
0.0
  0
LINE
  5
486
330
1F
100
AcDbEntity
  8
化粧台
  6
CONTINUOUS
 62
     2
100
AcDbLine
 10
2363.500000000018
 20
1790.557308563486
 30
0.0
 11
2363.500000000018
 21
1743.830836610161
 31
0.0
  0
LINE
  5
487
330
1F
100
AcDbEntity
  8
鏡台
  6
CONTINUOUS
 62
     2
100
AcDbLine
 10
2333.0
 20
2623.8
 30
0.0
 11
2348.0
 21
2623.8
 31
0.0
  0
LINE
  5
488
330
1F
100
AcDbEntity
  8
鏡台
  6
CONTINUOUS
 62
     2
100
AcDbLine
 10
2333.0
 20
2123.8
 30
0.0
 11
2348.0
 21
2123.8
 31
0.0
  0
LINE
  5
489
330
1F
100
AcDbEntity
  8
鏡台
  6
CONTINUOUS
 62
     2
100
AcDbLine
 10
2330.0
 20
2623.3
 30
0.0
 11
2330.0
 21
2124.3
 31
0.0
  0
LINE
  5
48A
330
1F
100
AcDbEntity
  8
鏡台
  6
CONTINUOUS
 62
     2
100
AcDbLine
 10
2330.0
 20
2623.3
 30
0.0
 11
2333.0
 21
2623.3
 31
0.0
  0
LINE
  5
48B
330
1F
100
AcDbEntity
  8
鏡台
  6
CONTINUOUS
 62
     2
100
AcDbLine
 10
2330.0
 20
2124.3
 30
0.0
 11
2333.0
 21
2124.3
 31
0.0
  0
LINE
  5
48C
330
1F
100
AcDbEntity
  8
鏡台
  6
CONTINUOUS
 62
     2
100
AcDbLine
 10
2333.0
 20
2623.8
 30
0.0
 11
2333.0
 21
2123.8
 31
0.0
  0
LINE
  5
48D
330
1F
100
AcDbEntity
  8
鏡台
  6
CONTINUOUS
 62
     4
100
AcDbLine
 10
2328.800000000003
 20
2625.0
 30
0.0
 11
2328.800000000003
 21
2615.0
 31
0.0
  0
LINE
  5
48E
330
1F
100
AcDbEntity
  8
鏡台
  6
CONTINUOUS
 62
     4
100
AcDbLine
 10
2328.8
 20
2615.0
 30
0.0
 11
2330.0
 21
2615.0
 31
0.0
  0
LINE
  5
48F
330
1F
100
AcDbEntity
  8
鏡台
  6
CONTINUOUS
 62
     4
100
AcDbLine
 10
2330.0
 20
2615.0
 30
0.0
 11
2330.0
 21
2623.8
 31
0.0
  0
LINE
  5
490
330
1F
100
AcDbEntity
  8
鏡台
  6
CONTINUOUS
 62
     4
100
AcDbLine
 10
2328.8
 20
2132.6
 30
0.0
 11
2330.0
 21
2132.6
 31
0.0
  0
LINE
  5
491
330
1F
100
AcDbEntity
  8
鏡台
  6
CONTINUOUS
 62
     4
100
AcDbLine
 10
2328.800000000003
 20
2122.6
 30
0.0
 11
2328.800000000003
 21
2132.6
 31
0.0
  0
LINE
  5
492
330
1F
100
AcDbEntity
  8
鏡台
  6
CONTINUOUS
 62
     4
100
AcDbLine
 10
2330.0
 20
2132.6
 30
0.0
 11
2330.0
 21
2123.8
 31
0.0
  0
LINE
  5
493
330
1F
100
AcDbEntity
  8
鏡台
  6
CONTINUOUS
 62
     4
100
AcDbLine
 10
2348.8
 20
2625.0
 30
0.0
 11
2348.8
 21
2623.8
 31
0.0
  0
LINE
  5
494
330
1F
100
AcDbEntity
  8
鏡台
  6
CONTINUOUS
 62
     4
100
AcDbLine
 10
2330.0
 20
2623.8
 30
0.0
 11
2348.8
 21
2623.8
 31
0.0
  0
LINE
  5
495
330
1F
100
AcDbEntity
  8
鏡台
  6
CONTINUOUS
 62
     4
100
AcDbLine
 10
2328.800000000003
 20
2625.0
 30
0.0
 11
2348.8
 21
2625.0
 31
0.0
  0
LINE
  5
496
330
1F
100
AcDbEntity
  8
鏡台
  6
CONTINUOUS
 62
     4
100
AcDbLine
 10
2348.8
 20
2122.6
 30
0.0
 11
2348.8
 21
2123.8
 31
0.0
  0
LINE
  5
497
330
1F
100
AcDbEntity
  8
鏡台
  6
CONTINUOUS
 62
     4
100
AcDbLine
 10
2328.800000000003
 20
2122.6
 30
0.0
 11
2348.8
 21
2122.6
 31
0.0
  0
LINE
  5
498
330
1F
100
AcDbEntity
  8
鏡台
  6
CONTINUOUS
 62
     4
100
AcDbLine
 10
2330.0
 20
2123.8
 30
0.0
 11
2348.8
 21
2123.8
 31
0.0
  0
LINE
  5
499
330
1F
100
AcDbEntity
  8
鏡台
  6
CONTINUOUS
 62
     2
100
AcDbLine
 10
2350.0
 20
2618.8
 30
0.0
 11
2350.0
 21
2138.8
 31
0.0
  0
LINE
  5
49A
330
1F
100
AcDbEntity
  8
鏡台
  6
CONTINUOUS
 62
     2
100
AcDbLine
 10
2450.0
 20
2618.8
 30
0.0
 11
2450.0
 21
2138.8
 31
0.0
  0
LINE
  5
49B
330
1F
100
AcDbEntity
  8
鏡台
  6
CONTINUOUS
 62
     2
100
AcDbLine
 10
2350.0
 20
2618.8
 30
0.0
 11
2450.0
 21
2618.8
 31
0.0
  0
LINE
  5
49C
330
1F
100
AcDbEntity
  8
鏡台
  6
CONTINUOUS
 62
     2
100
AcDbLine
 10
2350.0
 20
2138.8
 30
0.0
 11
2450.0
 21
2138.8
 31
0.0
  0
LINE
  5
49D
330
1F
100
AcDbEntity
  8
鏡台
  6
CONTINUOUS
 62
     2
100
AcDbLine
 10
2348.0
 20
2623.8
 30
0.0
 11
2348.0
 21
2123.8
 31
0.0
  0
LINE
  5
49E
330
1F
100
AcDbEntity
  8
鏡台
  6
EXLTYPE3
 62
     6
100
AcDbLine
 10
2490.79999999984
 20
2568.799999999999
 30
0.0
 11
2448.04999999984
 21
2568.799999999999
 31
0.0
  0
ARC
  5
49F
330
1F
100
AcDbEntity
  8
鏡台
  6
CONTINUOUS
 62
     6
100
AcDbCircle
 10
2476.661651584699
 20
2555.299999999999
 30
0.0
 40
15.00000000000001
100
AcDbArc
 50
64.15806723683205
 51
90.00000000000004
  0
ARC
  5
4A0
330
1F
100
AcDbEntity
  8
鏡台
  6
CONTINUOUS
 62
     6
100
AcDbCircle
 10
2476.661651584729
 20
2582.299999999999
 30
0.0
 40
15.00000000000001
100
AcDbArc
 50
270.0000000000002
 51
295.8419327630793
  0
LINE
  5
4A1
330
1F
100
AcDbEntity
  8
鏡台
  6
CONTINUOUS
 62
     6
100
AcDbLine
 10
2449.999999999999
 20
2567.299999999999
 30
0.0
 11
2476.661651584729
 21
2567.299999999999
 31
0.0
  0
LINE
  5
4A2
330
1F
100
AcDbEntity
  8
鏡台
  6
CONTINUOUS
 62
     6
100
AcDbLine
 10
2449.999999999999
 20
2570.299999999999
 30
0.0
 11
2476.661651584699
 21
2570.299999999999
 31
0.0
  0
LINE
  5
4A3
330
1F
100
AcDbEntity
  8
鏡台
  6
EXLTYPE3
 62
     6
100
AcDbLine
 10
2490.79999999984
 20
2188.8
 30
0.0
 11
2448.04999999984
 21
2188.8
 31
0.0
  0
ARC
  5
4A4
330
1F
100
AcDbEntity
  8
鏡台
  6
CONTINUOUS
 62
     6
100
AcDbCircle
 10
2476.661651584699
 20
2175.3
 30
0.0
 40
15.00000000000001
100
AcDbArc
 50
64.15806723683205
 51
90.00000000000004
  0
ARC
  5
4A5
330
1F
100
AcDbEntity
  8
鏡台
  6
CONTINUOUS
 62
     6
100
AcDbCircle
 10
2476.661651584729
 20
2202.3
 30
0.0
 40
15.00000000000001
100
AcDbArc
 50
270.0000000000002
 51
295.8419327630793
  0
LINE
  5
4A6
330
1F
100
AcDbEntity
  8
鏡台
  6
CONTINUOUS
 62
     6
100
AcDbLine
 10
2449.999999999999
 20
2187.3
 30
0.0
 11
2476.661651584729
 21
2187.3
 31
0.0
  0
LINE
  5
4A7
330
1F
100
AcDbEntity
  8
鏡台
  6
CONTINUOUS
 62
     6
100
AcDbLine
 10
2449.999999999999
 20
2190.3
 30
0.0
 11
2476.661651584699
 21
2190.3
 31
0.0
  0
ARC
  5
4A8
330
1F
100
AcDbEntity
  8
鏡台
  6
EXLTYPE2
 62
     6
100
AcDbCircle
 10
2369.75
 20
2404.049999999999
 30
0.0
 40
1.250000000000569
100
AcDbArc
 50
180.0
 51
0.0
  0
ARC
  5
4A9
330
1F
100
AcDbEntity
  8
鏡台
  6
EXLTYPE2
 62
     6
100
AcDbCircle
 10
2425.75
 20
2399.549999999999
 30
0.0
 40
1.249999999999631
100
AcDbArc
 50
270.0000000000002
 51
90.00000000000004
  0
LINE
  5
4AA
330
1F
100
AcDbEntity
  8
鏡台
  6
EXLTYPE2
 62
     6
100
AcDbLine
 10
2356.5
 20
2435.799999999999
 30
0.0
 11
2356.5
 21
2413.299999999999
 31
0.0
  0
LINE
  5
4AB
330
1F
100
AcDbEntity
  8
鏡台
  6
EXLTYPE2
 62
     6
100
AcDbLine
 10
2354.0
 20
2435.799999999999
 30
0.0
 11
2356.5
 21
2435.799999999999
 31
0.0
  0
LINE
  5
4AC
330
1F
100
AcDbEntity
  8
鏡台
  6
EXLTYPE2
 62
     6
100
AcDbLine
 10
2354.0
 20
2435.799999999999
 30
0.0
 11
2354.0
 21
2395.8
 31
0.0
  0
LINE
  5
4AD
330
1F
100
AcDbEntity
  8
鏡台
  6
EXLTYPE2
 62
     6
100
AcDbLine
 10
2354.0
 20
2395.799999999999
 30
0.0
 11
2356.5
 21
2395.799999999999
 31
0.0
  0
LINE
  5
4AE
330
1F
100
AcDbEntity
  8
鏡台
  6
EXLTYPE2
 62
     6
100
AcDbLine
 10
2356.5
 20
2410.799999999999
 30
0.0
 11
2356.5
 21
2395.799999999999
 31
0.0
  0
LINE
  5
4AF
330
1F
100
AcDbEntity
  8
鏡台
  6
EXLTYPE2
 62
     6
100
AcDbLine
 10
2356.5
 20
2410.799999999999
 30
0.0
 11
2368.5
 21
2410.799999999999
 31
0.0
  0
LINE
  5
4B0
330
1F
100
AcDbEntity
  8
鏡台
  6
EXLTYPE2
 62
     6
100
AcDbLine
 10
2368.5
 20
2410.799999999999
 30
0.0
 11
2368.5
 21
2404.05
 31
0.0
  0
LINE
  5
4B1
330
1F
100
AcDbEntity
  8
鏡台
  6
EXLTYPE2
 62
     6
100
AcDbLine
 10
2371.0
 20
2410.799999999999
 30
0.0
 11
2371.0
 21
2404.05
 31
0.0
  0
LINE
  5
4B2
330
1F
100
AcDbEntity
  8
鏡台
  6
EXLTYPE2
 62
     6
100
AcDbLine
 10
2371.0
 20
2410.799999999999
 30
0.0
 11
2416.5
 21
2410.799999999999
 31
0.0
  0
LINE
  5
4B3
330
1F
100
AcDbEntity
  8
鏡台
  6
EXLTYPE2
 62
     6
100
AcDbLine
 10
2356.5
 20
2413.299999999999
 30
0.0
 11
2432.0
 21
2413.299999999999
 31
0.0
  0
LINE
  5
4B4
330
1F
100
AcDbEntity
  8
鏡台
  6
EXLTYPE2
 62
     6
100
AcDbLine
 10
2432.0
 20
2413.3
 30
0.0
 11
2432.0
 21
2410.799999999998
 31
0.0
  0
LINE
  5
4B5
330
1F
100
AcDbEntity
  8
鏡台
  6
EXLTYPE2
 62
     6
100
AcDbLine
 10
2419.0
 20
2410.799999999998
 30
0.0
 11
2432.0
 21
2410.799999999998
 31
0.0
  0
LINE
  5
4B6
330
1F
100
AcDbEntity
  8
鏡台
  6
EXLTYPE2
 62
     6
100
AcDbLine
 10
2419.0
 20
2410.799999999998
 30
0.0
 11
2419.0
 21
2400.799999999998
 31
0.0
  0
LINE
  5
4B7
330
1F
100
AcDbEntity
  8
鏡台
  6
EXLTYPE2
 62
     6
100
AcDbLine
 10
2419.0
 20
2400.799999999998
 30
0.0
 11
2425.75
 21
2400.799999999999
 31
0.0
  0
LINE
  5
4B8
330
1F
100
AcDbEntity
  8
鏡台
  6
EXLTYPE2
 62
     6
100
AcDbLine
 10
2416.5
 20
2410.799999999999
 30
0.0
 11
2416.5
 21
2398.299999999999
 31
0.0
  0
LINE
  5
4B9
330
1F
100
AcDbEntity
  8
鏡台
  6
EXLTYPE2
 62
     6
100
AcDbLine
 10
2416.5
 20
2398.299999999999
 30
0.0
 11
2425.75
 21
2398.299999999998
 31
0.0
  0
ARC
  5
4BA
330
1F
100
AcDbEntity
  8
鏡台
  6
EXLTYPE2
 62
     6
100
AcDbCircle
 10
2369.75
 20
2164.049999999999
 30
0.0
 40
1.250000000000569
100
AcDbArc
 50
180.0
 51
0.0
  0
ARC
  5
4BB
330
1F
100
AcDbEntity
  8
鏡台
  6
EXLTYPE2
 62
     6
100
AcDbCircle
 10
2425.75
 20
2159.549999999999
 30
0.0
 40
1.249999999999631
100
AcDbArc
 50
270.0000000000002
 51
90.00000000000004
  0
LINE
  5
4BC
330
1F
100
AcDbEntity
  8
鏡台
  6
EXLTYPE2
 62
     6
100
AcDbLine
 10
2356.5
 20
2195.799999999999
 30
0.0
 11
2356.5
 21
2173.299999999999
 31
0.0
  0
LINE
  5
4BD
330
1F
100
AcDbEntity
  8
鏡台
  6
EXLTYPE2
 62
     6
100
AcDbLine
 10
2354.0
 20
2195.799999999999
 30
0.0
 11
2356.5
 21
2195.799999999999
 31
0.0
  0
LINE
  5
4BE
330
1F
100
AcDbEntity
  8
鏡台
  6
EXLTYPE2
 62
     6
100
AcDbLine
 10
2354.0
 20
2195.799999999999
 30
0.0
 11
2354.0
 21
2155.8
 31
0.0
  0
LINE
  5
4BF
330
1F
100
AcDbEntity
  8
鏡台
  6
EXLTYPE2
 62
     6
100
AcDbLine
 10
2354.0
 20
2155.799999999999
 30
0.0
 11
2356.5
 21
2155.799999999999
 31
0.0
  0
LINE
  5
4C0
330
1F
100
AcDbEntity
  8
鏡台
  6
EXLTYPE2
 62
     6
100
AcDbLine
 10
2356.5
 20
2170.799999999999
 30
0.0
 11
2356.5
 21
2155.799999999999
 31
0.0
  0
LINE
  5
4C1
330
1F
100
AcDbEntity
  8
鏡台
  6
EXLTYPE2
 62
     6
100
AcDbLine
 10
2356.5
 20
2170.799999999999
 30
0.0
 11
2368.5
 21
2170.799999999999
 31
0.0
  0
LINE
  5
4C2
330
1F
100
AcDbEntity
  8
鏡台
  6
EXLTYPE2
 62
     6
100
AcDbLine
 10
2368.5
 20
2170.799999999999
 30
0.0
 11
2368.5
 21
2164.05
 31
0.0
  0
LINE
  5
4C3
330
1F
100
AcDbEntity
  8
鏡台
  6
EXLTYPE2
 62
     6
100
AcDbLine
 10
2371.0
 20
2170.799999999999
 30
0.0
 11
2371.0
 21
2164.05
 31
0.0
  0
LINE
  5
4C4
330
1F
100
AcDbEntity
  8
鏡台
  6
EXLTYPE2
 62
     6
100
AcDbLine
 10
2371.0
 20
2170.799999999999
 30
0.0
 11
2416.5
 21
2170.799999999999
 31
0.0
  0
LINE
  5
4C5
330
1F
100
AcDbEntity
  8
鏡台
  6
EXLTYPE2
 62
     6
100
AcDbLine
 10
2356.5
 20
2173.299999999999
 30
0.0
 11
2432.0
 21
2173.299999999999
 31
0.0
  0
LINE
  5
4C6
330
1F
100
AcDbEntity
  8
鏡台
  6
EXLTYPE2
 62
     6
100
AcDbLine
 10
2432.0
 20
2173.3
 30
0.0
 11
2432.0
 21
2170.799999999998
 31
0.0
  0
LINE
  5
4C7
330
1F
100
AcDbEntity
  8
鏡台
  6
EXLTYPE2
 62
     6
100
AcDbLine
 10
2419.0
 20
2170.799999999998
 30
0.0
 11
2432.0
 21
2170.799999999998
 31
0.0
  0
LINE
  5
4C8
330
1F
100
AcDbEntity
  8
鏡台
  6
EXLTYPE2
 62
     6
100
AcDbLine
 10
2419.0
 20
2170.799999999998
 30
0.0
 11
2419.0
 21
2160.799999999998
 31
0.0
  0
LINE
  5
4C9
330
1F
100
AcDbEntity
  8
鏡台
  6
EXLTYPE2
 62
     6
100
AcDbLine
 10
2419.0
 20
2160.799999999998
 30
0.0
 11
2425.75
 21
2160.799999999999
 31
0.0
  0
LINE
  5
4CA
330
1F
100
AcDbEntity
  8
鏡台
  6
EXLTYPE2
 62
     6
100
AcDbLine
 10
2416.5
 20
2170.799999999999
 30
0.0
 11
2416.5
 21
2158.299999999999
 31
0.0
  0
LINE
  5
4CB
330
1F
100
AcDbEntity
  8
鏡台
  6
EXLTYPE2
 62
     6
100
AcDbLine
 10
2416.5
 20
2158.299999999999
 30
0.0
 11
2425.75
 21
2158.299999999998
 31
0.0
  0
DIMENSION
  5
4CD
330
1F
100
AcDbEntity
  8
鏡台
  6
CONTINUOUS
 62
     3
100
AcDbDimension
  2
*D15
 10
2450.0
 20
2685.0
 30
0.0
 11
2389.4
 21
2720.249999910593
 31
0.0
 70
   160
  1
122
  3
ISO-25
100
AcDbAlignedDimension
 13
2328.8
 23
2625.0
 33
0.0
 14
2450.0
 24
2618.8
 34
0.0
100
AcDbRotatedDimension
1001
ACAD
1000
DSTYLE
1002
{
1070
   270
1070
     2
1070
     6
1000
EX_NORM
1070
     7
1000
EX_NORM
1070
    41
1040
44.99999618530273
1070
    42
1040
10.49999982118607
1070
    44
1040
15.0
1070
    73
1070
     0
1070
    74
1070
     0
1070
    75
1070
     0
1070
    76
1070
     0
1070
    77
1070
     1
1070
    78
1070
     8
1070
   140
1040
59.99999618530273
1070
   147
1040
0.0
1070
   173
1070
     1
1070
   176
1070
     3
1070
   177
1070
     3
1070
   178
1070
     2
1070
   271
1070
     2
1070
   277
1070
     2
1070
   279
1070
     2
1070
   280
1070
     0
1070
   287
1070
     5
1070
   340
1005
4CC
1002
}
  0
DIMENSION
  5
4DB
330
1F
100
AcDbEntity
  8
鏡台
  6
CONTINUOUS
 62
     3
100
AcDbDimension
  2
*D16
 10
2950.499999999999
 20
2568.8
 30
0.0
 11
2915.250000089407
 21
2378.799999999995
 31
0.0
 70
   160
  1
<>（壁固定）
  3
ISO-25
100
AcDbAlignedDimension
 13
2483.200000000001
 23
2188.8
 33
0.0
 14
2483.200000000001
 24
2568.8
 34
0.0
 50
90.0
100
AcDbRotatedDimension
1001
ACAD
1000
DSTYLE
1002
{
1070
   270
1070
     2
1070
     6
1000
EX_NORM
1070
     7
1000
EX_NORM
1070
    41
1040
44.99999618530273
1070
    42
1040
10.49999982118607
1070
    44
1040
14.99999999999955
1070
    73
1070
     0
1070
    74
1070
     0
1070
    75
1070
     0
1070
    76
1070
     0
1070
    77
1070
     1
1070
    78
1070
     8
1070
   140
1040
59.99999618530273
1070
   147
1040
0.0
1070
   173
1070
     1
1070
   176
1070
     3
1070
   177
1070
     3
1070
   178
1070
     2
1070
   271
1070
     2
1070
   277
1070
     2
1070
   279
1070
     2
1070
   280
1070
     0
1070
   287
1070
     5
1070
   340
1005
4CC
1002
}
  0
DIMENSION
  5
4E8
330
1F
100
AcDbEntity
  8
鏡台
  6
CONTINUOUS
 62
     3
100
AcDbDimension
  2
*D17
 10
2950.499999999999
 20
2625.0
 30
0.0
 11
2915.250000089405
 21
2722.499999999995
 31
0.0
 70
   160
  1
56
  3
ISO-25
100
AcDbAlignedDimension
 13
2483.200000000001
 23
2568.8
 33
0.0
 14
2348.8
 24
2625.0
 34
0.0
 50
90.0
100
AcDbRotatedDimension
1001
ACAD
1000
DSTYLE
1002
{
1070
   270
1070
     2
1070
     6
1000
EX_NORM
1070
     7
1000
EX_NORM
1070
    41
1040
44.99999618530273
1070
    42
1040
10.49999982118607
1070
    44
1040
14.99999999999955
1070
    73
1070
     0
1070
    74
1070
     0
1070
    75
1070
     0
1070
    76
1070
     0
1070
    77
1070
     1
1070
    78
1070
     8
1070
   140
1040
59.99999618530273
1070
   147
1040
0.0
1070
   173
1070
     1
1070
   176
1070
     3
1070
   177
1070
     3
1070
   178
1070
     2
1070
   271
1070
     2
1070
   277
1070
     2
1070
   279
1070
     2
1070
   280
1070
     2
1070
   287
1070
     5
1070
   340
1005
4CC
1002
}
  0
DIMENSION
  5
4F7
330
1F
100
AcDbEntity
  8
鏡台
  6
CONTINUOUS
 62
     3
100
AcDbDimension
  2
*D18
 10
2950.5
 20
874.9999999999999
 30
0.0
 11
2915.250000089407
 21
1531.9
 31
0.0
 70
   160
  1
（1315）
  3
ISO-25
100
AcDbAlignedDimension
 13
2796.5
 23
2188.8
 33
0.0
 14
2721.5
 24
875.0
 34
0.0
 50
90.0
100
AcDbRotatedDimension
1001
ACAD
1000
DSTYLE
1002
{
1070
   270
1070
     2
1070
     6
1000
EX_NORM
1070
     7
1000
EX_NORM
1070
    41
1040
44.99999618530273
1070
    42
1040
7.5
1070
    44
1040
15.0
1070
    73
1070
     0
1070
    74
1070
     0
1070
    75
1070
     1
1070
    76
1070
     0
1070
    77
1070
     1
1070
    78
1070
     8
1070
   140
1040
59.99999618530273
1070
   147
1040
0.0
1070
   173
1070
     1
1070
   176
1070
     3
1070
   177
1070
     3
1070
   178
1070
     2
1070
   271
1070
     2
1070
   277
1070
     2
1070
   279
1070
     2
1070
   280
1070
     0
1070
   287
1070
     5
1070
   340
1005
4CC
1002
}
  0
LINE
  5
503
330
1F
100
AcDbEntity
  8
鏡台
  6
CONTINUOUS
 62
     2
100
AcDbLine
 10
695.0000000000005
 20
2623.8
 30
0.0
 11
695.0000000000005
 21
2123.8
 31
0.0
  0
LINE
  5
504
330
1F
100
AcDbEntity
  8
鏡台
  6
CONTINUOUS
 62
     2
100
AcDbLine
 10
695.0000000000005
 20
2623.8
 30
0.0
 11
696.5000000000005
 21
2623.8
 31
0.0
  0
LINE
  5
505
330
1F
100
AcDbEntity
  8
鏡台
  6
CONTINUOUS
 62
     2
100
AcDbLine
 10
695.0000000000005
 20
2123.8
 30
0.0
 11
696.5000000000005
 21
2123.8
 31
0.0
  0
LINE
  5
506
330
1F
100
AcDbEntity
  8
鏡台
  6
CONTINUOUS
 62
     4
100
AcDbLine
 10
696.5000000000005
 20
2132.6
 30
0.0
 11
696.5000000000005
 21
2122.6
 31
0.0
  0
LINE
  5
507
330
1F
100
AcDbEntity
  8
鏡台
  6
CONTINUOUS
 62
     4
100
AcDbLine
 10
696.5000000000005
 20
2615.0
 30
0.0
 11
696.5000000000005
 21
2625.0
 31
0.0
  0
LINE
  5
508
330
1F
100
AcDbEntity
  8
鏡台
  6
CONTINUOUS
 62
     2
100
AcDbLine
 10
1143.5
 20
2623.8
 30
0.0
 11
1145.0
 21
2623.8
 31
0.0
  0
LINE
  5
509
330
1F
100
AcDbEntity
  8
鏡台
  6
CONTINUOUS
 62
     4
100
AcDbLine
 10
1143.5
 20
2615.0
 30
0.0
 11
1143.5
 21
2625.0
 31
0.0
  0
LINE
  5
50A
330
1F
100
AcDbEntity
  8
鏡台
  6
CONTINUOUS
 62
     4
100
AcDbLine
 10
1143.5
 20
2625.0
 30
0.0
 11
696.5000000000005
 21
2625.0
 31
0.0
  0
LINE
  5
50B
330
1F
100
AcDbEntity
  8
鏡台
  6
CONTINUOUS
 62
     4
100
AcDbLine
 10
1143.5
 20
2615.0
 30
0.0
 11
696.5000000000005
 21
2615.0
 31
0.0
  0
LINE
  5
50C
330
1F
100
AcDbEntity
  8
鏡台
  6
EXLTYPE3
 62
     6
100
AcDbLine
 10
1145.0
 20
2623.8
 30
0.0
 11
695.0000000000005
 21
2373.8
 31
0.0
  0
LINE
  5
50D
330
1F
100
AcDbEntity
  8
鏡台
  6
CONTINUOUS
 62
     6
100
AcDbLine
 10
752.0000000000006
 20
2188.799999999999
 30
0.0
 11
788.0000000000006
 21
2188.799999999999
 31
0.0
  0
LINE
  5
50E
330
1F
100
AcDbEntity
  8
鏡台
  6
CONTINUOUS
 62
     6
100
AcDbLine
 10
770.0000000000006
 20
2170.8
 30
0.0
 11
770.0000000000006
 21
2206.8
 31
0.0
  0
CIRCLE
  5
50F
330
1F
100
AcDbEntity
  8
鏡台
  6
EXLTYPE2
 62
     6
100
AcDbCircle
 10
770.0000000000006
 20
2188.8
 30
0.0
 40
2.5
  0
CIRCLE
  5
510
330
1F
100
AcDbEntity
  8
鏡台
  6
EXLTYPE2
 62
     6
100
AcDbCircle
 10
770.0000000000006
 20
2188.8
 30
0.0
 40
8.0
  0
LINE
  5
511
330
1F
100
AcDbEntity
  8
鏡台
  6
CONTINUOUS
 62
     6
100
AcDbLine
 10
1052.0
 20
2188.799999999999
 30
0.0
 11
1088.0
 21
2188.799999999999
 31
0.0
  0
LINE
  5
512
330
1F
100
AcDbEntity
  8
鏡台
  6
CONTINUOUS
 62
     6
100
AcDbLine
 10
1070.0
 20
2170.8
 30
0.0
 11
1070.0
 21
2206.8
 31
0.0
  0
CIRCLE
  5
513
330
1F
100
AcDbEntity
  8
鏡台
  6
EXLTYPE2
 62
     6
100
AcDbCircle
 10
1070.0
 20
2188.8
 30
0.0
 40
2.5
  0
CIRCLE
  5
514
330
1F
100
AcDbEntity
  8
鏡台
  6
EXLTYPE2
 62
     6
100
AcDbCircle
 10
1070.0
 20
2188.8
 30
0.0
 40
8.0
  0
LINE
  5
515
330
1F
100
AcDbEntity
  8
鏡台
  6
CONTINUOUS
 62
     6
100
AcDbLine
 10
1052.0
 20
2568.799999999999
 30
0.0
 11
1088.0
 21
2568.799999999999
 31
0.0
  0
LINE
  5
516
330
1F
100
AcDbEntity
  8
鏡台
  6
CONTINUOUS
 62
     6
100
AcDbLine
 10
1070.0
 20
2550.8
 30
0.0
 11
1070.0
 21
2586.8
 31
0.0
  0
CIRCLE
  5
517
330
1F
100
AcDbEntity
  8
鏡台
  6
EXLTYPE2
 62
     6
100
AcDbCircle
 10
1070.0
 20
2568.8
 30
0.0
 40
2.5
  0
CIRCLE
  5
518
330
1F
100
AcDbEntity
  8
鏡台
  6
EXLTYPE2
 62
     6
100
AcDbCircle
 10
1070.0
 20
2568.8
 30
0.0
 40
8.0
  0
LINE
  5
519
330
1F
100
AcDbEntity
  8
鏡台
  6
CONTINUOUS
 62
     6
100
AcDbLine
 10
752.0000000000006
 20
2568.799999999999
 30
0.0
 11
788.0000000000006
 21
2568.799999999999
 31
0.0
  0
LINE
  5
51A
330
1F
100
AcDbEntity
  8
鏡台
  6
CONTINUOUS
 62
     6
100
AcDbLine
 10
770.0000000000006
 20
2550.8
 30
0.0
 11
770.0000000000006
 21
2586.8
 31
0.0
  0
CIRCLE
  5
51B
330
1F
100
AcDbEntity
  8
鏡台
  6
EXLTYPE2
 62
     6
100
AcDbCircle
 10
770.0000000000006
 20
2568.8
 30
0.0
 40
2.5
  0
CIRCLE
  5
51C
330
1F
100
AcDbEntity
  8
鏡台
  6
EXLTYPE2
 62
     6
100
AcDbCircle
 10
770.0000000000006
 20
2568.8
 30
0.0
 40
8.0
  0
LINE
  5
51D
330
1F
100
AcDbEntity
  8
鏡台
  6
CONTINUOUS
 62
     2
100
AcDbLine
 10
1145.0
 20
2123.8
 30
0.0
 11
1143.5
 21
2123.8
 31
0.0
  0
LINE
  5
51E
330
1F
100
AcDbEntity
  8
鏡台
  6
CONTINUOUS
 62
     4
100
AcDbLine
 10
1143.5
 20
2132.6
 30
0.0
 11
1143.5
 21
2122.6
 31
0.0
  0
LINE
  5
51F
330
1F
100
AcDbEntity
  8
鏡台
  6
CONTINUOUS
 62
     2
100
AcDbLine
 10
1145.0
 20
2623.8
 30
0.0
 11
1145.0
 21
2123.8
 31
0.0
  0
LINE
  5
520
330
1F
100
AcDbEntity
  8
鏡台
  6
CONTINUOUS
 62
     4
100
AcDbLine
 10
1143.5
 20
2132.6
 30
0.0
 11
696.5000000000005
 21
2132.6
 31
0.0
  0
LINE
  5
521
330
1F
100
AcDbEntity
  8
鏡台
  6
CONTINUOUS
 62
     4
100
AcDbLine
 10
1143.5
 20
2122.6
 30
0.0
 11
696.5000000000005
 21
2122.6
 31
0.0
  0
LINE
  5
522
330
1F
100
AcDbEntity
  8
鏡台
  6
EXLTYPE3
 62
     6
100
AcDbLine
 10
1145.0
 20
2123.8
 30
0.0
 11
695.0000000000005
 21
2373.8
 31
0.0
  0
LINE
  5
523
330
1F
100
AcDbEntity
  8
鏡台
  6
EXLTYPE2
 62
     6
100
AcDbLine
 10
1145.0
 20
2617.8
 30
0.0
 11
695.0000000000005
 21
2617.8
 31
0.0
  0
LINE
  5
524
330
1F
100
AcDbEntity
  8
鏡台
  6
EXLTYPE2
 62
     6
100
AcDbLine
 10
1145.0
 20
2138.8
 30
0.0
 11
695.0000000000003
 21
2138.8
 31
0.0
  0
LINE
  5
525
330
1F
100
AcDbEntity
  8
鏡台
  6
CONTINUOUS
 62
     6
100
AcDbLine
 10
837.2144660940688
 20
2250.085533905902
 30
0.0
 11
824.4644660940688
 21
2237.335533905905
 31
0.0
  0
LINE
  5
526
330
1F
100
AcDbEntity
  8
鏡台
  6
CONTINUOUS
 62
     6
100
AcDbLine
 10
816.5000000000003
 20
2222.299999999974
 30
0.0
 11
849.000000000004
 21
2254.799999999971
 31
0.0
  0
LINE
  5
527
330
1F
100
AcDbEntity
  8
鏡台
  6
CONTINUOUS
 62
     6
100
AcDbLine
 10
827.0355339059337
 20
2225.764466094037
 30
0.0
 11
842.0355339059355
 21
2240.764466094035
 31
0.0
  0
LINE
  5
528
330
1F
100
AcDbEntity
  8
鏡台
  6
CONTINUOUS
 62
     6
100
AcDbLine
 10
1011.214466094069
 20
2353.085533905902
 30
0.0
 11
998.4644660940689
 21
2340.335533905905
 31
0.0
  0
LINE
  5
529
330
1F
100
AcDbEntity
  8
鏡台
  6
CONTINUOUS
 62
     6
100
AcDbLine
 10
990.4999999999986
 20
2325.299999999974
 30
0.0
 11
1023.000000000002
 21
2357.799999999971
 31
0.0
  0
LINE
  5
52A
330
1F
100
AcDbEntity
  8
鏡台
  6
CONTINUOUS
 62
     6
100
AcDbLine
 10
1001.035533905934
 20
2328.764466094037
 30
0.0
 11
1016.035533905936
 21
2343.764466094035
 31
0.0
  0
LINE
  5
52B
330
1F
100
AcDbEntity
  8
鏡台
  6
CONTINUOUS
 62
     6
100
AcDbLine
 10
855.110692509159
 20
2518.472326358702
 30
0.0
 11
842.360692509159
 21
2505.722326358705
 31
0.0
  0
LINE
  5
52C
330
1F
100
AcDbEntity
  8
鏡台
  6
CONTINUOUS
 62
     6
100
AcDbLine
 10
834.3962264150887
 20
2490.686792452774
 30
0.0
 11
866.8962264150923
 21
2523.186792452771
 31
0.0
  0
LINE
  5
52D
330
1F
100
AcDbEntity
  8
鏡台
  6
CONTINUOUS
 62
     6
100
AcDbLine
 10
844.9317603210238
 20
2494.151258546837
 30
0.0
 11
859.9317603210256
 21
2509.151258546835
 31
0.0
  0
DIMENSION
  5
52E
330
1F
100
AcDbEntity
  8
鏡台
  6
CONTINUOUS
 62
     3
100
AcDbDimension
  2
*D19
 10
1145.0
 20
2765.0
 30
0.0
 11
920.0000000000002
 21
2800.249999910593
 31
0.0
 70
   160
  3
ISO-25
100
AcDbAlignedDimension
 13
695.0000000000001
 23
2623.8
 33
0.0
 14
1145.0
 24
2623.8
 34
0.0
100
AcDbRotatedDimension
1001
ACAD
1000
DSTYLE
1002
{
1070
   270
1070
     2
1070
     6
1000
EX_NORM
1070
     7
1000
EX_NORM
1070
    41
1040
44.99999618530273
1070
    42
1040
10.49999982118607
1070
    44
1040
15.0
1070
    73
1070
     0
1070
    74
1070
     0
1070
    75
1070
     0
1070
    76
1070
     0
1070
    77
1070
     1
1070
    78
1070
     8
1070
   140
1040
59.99999618530273
1070
   147
1040
0.0
1070
   173
1070
     1
1070
   176
1070
     3
1070
   177
1070
     3
1070
   178
1070
     2
1070
   271
1070
     2
1070
   277
1070
     2
1070
   279
1070
     2
1070
   280
1070
     0
1070
   287
1070
     5
1070
   340
1005
4CC
1002
}
  0
DIMENSION
  5
53B
330
1F
100
AcDbEntity
  8
鏡台
  6
CONTINUOUS
 62
     3
100
AcDbDimension
  2
*D20
 10
1295.0
 20
2625.0
 30
0.0
 11
1259.750000089408
 21
2373.8
 31
0.0
 70
   160
  1
503
  3
ISO-25
100
AcDbAlignedDimension
 13
1143.5
 23
2122.599999999999
 33
0.0
 14
1143.5
 24
2625.0
 34
0.0
 50
90.0
100
AcDbRotatedDimension
1001
ACAD
1000
DSTYLE
1002
{
1070
   270
1070
     2
1070
     6
1000
EX_NORM
1070
     7
1000
EX_NORM
1070
    41
1040
44.99999618530273
1070
    42
1040
10.49999982118607
1070
    44
1040
15.0
1070
    73
1070
     0
1070
    74
1070
     0
1070
    75
1070
     0
1070
    76
1070
     0
1070
    77
1070
     1
1070
    78
1070
     8
1070
   140
1040
59.99999618530273
1070
   147
1040
0.0
1070
   173
1070
     1
1070
   176
1070
     3
1070
   177
1070
     3
1070
   178
1070
     2
1070
   271
1070
     2
1070
   277
1070
     2
1070
   279
1070
     2
1070
   280
1070
     0
1070
   287
1070
     5
1070
   340
1005
4CC
1002
}
  0
DIMENSION
  5
548
330
1F
100
AcDbEntity
  8
鏡台
  6
CONTINUOUS
 62
     3
100
AcDbDimension
  2
*D21
 10
1070.0
 20
2685.0
 30
0.0
 11
920.0000000000005
 21
2720.249999910593
 31
0.0
 70
   160
  1
<>（壁固定）
  3
ISO-25
100
AcDbAlignedDimension
 13
770.0000000000003
 23
2576.8
 33
0.0
 14
1070.0
 24
2576.8
 34
0.0
100
AcDbRotatedDimension
1001
ACAD
1000
DSTYLE
1002
{
1070
   270
1070
     2
1070
     6
1000
EX_NORM
1070
     7
1000
EX_NORM
1070
    41
1040
44.99999618530273
1070
    42
1040
10.49999982118607
1070
    44
1040
15.0
1070
    73
1070
     0
1070
    74
1070
     0
1070
    75
1070
     0
1070
    76
1070
     0
1070
    77
1070
     1
1070
    78
1070
     8
1070
   140
1040
59.99999618530273
1070
   147
1040
0.0
1070
   173
1070
     1
1070
   176
1070
     3
1070
   177
1070
     3
1070
   178
1070
     2
1070
   271
1070
     2
1070
   277
1070
     2
1070
   279
1070
     2
1070
   280
1070
     0
1070
   287
1070
     5
1070
   340
1005
4CC
1002
}
  0
LINE
  5
555
330
1F
100
AcDbEntity
  8
鏡台
  6
EXLTYPE2
 62
     6
100
AcDbLine
 10
711.0000000000002
 20
2435.8
 30
0.0
 11
711.0000000000002
 21
2395.8
 31
0.0
  0
LINE
  5
556
330
1F
100
AcDbEntity
  8
鏡台
  6
EXLTYPE2
 62
     6
100
AcDbLine
 10
1129.0
 20
2435.8
 30
0.0
 11
1129.0
 21
2395.8
 31
0.0
  0
LINE
  5
557
330
1F
100
AcDbEntity
  8
鏡台
  6
EXLTYPE2
 62
     6
100
AcDbLine
 10
1129.0
 20
2435.8
 30
0.0
 11
711.0000000000002
 21
2435.8
 31
0.0
  0
LINE
  5
558
330
1F
100
AcDbEntity
  8
鏡台
  6
EXLTYPE2
 62
     6
100
AcDbLine
 10
1129.0
 20
2395.8
 30
0.0
 11
711.0000000000002
 21
2395.8
 31
0.0
  0
LINE
  5
559
330
1F
100
AcDbEntity
  8
鏡台
  6
EXLTYPE2
 62
     6
100
AcDbLine
 10
711.0000000000002
 20
2195.8
 30
0.0
 11
711.0000000000002
 21
2155.8
 31
0.0
  0
LINE
  5
55A
330
1F
100
AcDbEntity
  8
鏡台
  6
EXLTYPE2
 62
     6
100
AcDbLine
 10
1129.0
 20
2195.8
 30
0.0
 11
1129.0
 21
2155.8
 31
0.0
  0
LINE
  5
55B
330
1F
100
AcDbEntity
  8
鏡台
  6
EXLTYPE2
 62
     6
100
AcDbLine
 10
1129.0
 20
2195.8
 30
0.0
 11
711.0000000000002
 21
2195.8
 31
0.0
  0
LINE
  5
55C
330
1F
100
AcDbEntity
  8
鏡台
  6
EXLTYPE2
 62
     6
100
AcDbLine
 10
1129.0
 20
2155.8
 30
0.0
 11
711.0000000000002
 21
2155.8
 31
0.0
  0
LINE
  5
55D
330
1F
100
AcDbEntity
  8
寸法
  6
CONTINUOUS
 62
     3
100
AcDbLine
 10
2370.0
 20
856.5000001788139
 30
0.0
 11
2370.0
 21
740.0
 31
0.0
  0
LINE
  5
55E
330
1F
100
AcDbEntity
  8
寸法
  6
CONTINUOUS
 62
     3
100
AcDbLine
 10
2450.0
 20
864.5000001788139
 30
0.0
 11
2450.0
 21
740.0
 31
0.0
  0
TEXT
  5
55F
330
1F
100
AcDbEntity
  8
寸法
  6
CONTINUOUS
 62
     2
100
AcDbText
 10
2495.0
 20
760.249999910593
 30
0.0
 40
59.99999618530273
  1
８０
 41
1.020759090909089
  7
EXCADSTD
 72
     5
 11
2591.242993881035
 21
760.249999910593
 31
0.0
100
AcDbText
  0
TEXT
  5
560
330
1F
100
AcDbEntity
  8
寸法
  6
CONTINUOUS
 62
     2
100
AcDbText
 10
2592.5
 20
760.249999910593
 30
0.0
 40
48.0
  1
（床給水）
 41
0.9655172413793105
  7
EXCADSTD
 72
     5
 11
2784.5
 21
760.249999910593
 31
0.0
100
AcDbText
  0
LINE
  5
561
330
1F
100
AcDbEntity
  8
寸法
  6
CONTINUOUS
 62
     3
100
AcDbLine
 10
2325.0
 20
755.0
 30
0.0
 11
2782.249994277955
 21
755.0
 31
0.0
  0
LINE
  5
562
330
1F
100
AcDbEntity
  8
寸法
  6
CONTINUOUS
 62
     3
100
AcDbLine
 10
2325.0
 20
747.5
 30
0.0
 11
2370.0
 21
755.0
 31
0.0
  0
LINE
  5
563
330
1F
100
AcDbEntity
  8
寸法
  6
CONTINUOUS
 62
     3
100
AcDbLine
 10
2370.0
 20
755.0
 30
0.0
 11
2325.0
 21
762.5000000000001
 31
0.0
  0
LINE
  5
564
330
1F
100
AcDbEntity
  8
寸法
  6
CONTINUOUS
 62
     3
100
AcDbLine
 10
2495.0
 20
762.5
 30
0.0
 11
2450.0
 21
755.0
 31
0.0
  0
LINE
  5
565
330
1F
100
AcDbEntity
  8
寸法
  6
CONTINUOUS
 62
     3
100
AcDbLine
 10
2450.0
 20
755.0
 30
0.0
 11
2495.0
 21
747.5
 31
0.0
  0
LINE
  5
566
330
1F
100
AcDbEntity
  8
寸法
  6
CONTINUOUS
 62
     3
100
AcDbLine
 10
2320.0
 20
834.5000001788139
 30
0.0
 11
2320.0
 21
650.0
 31
0.0
  0
LINE
  5
567
330
1F
100
AcDbEntity
  8
寸法
  6
CONTINUOUS
 62
     3
100
AcDbLine
 10
2450.0
 20
864.5000001788139
 30
0.0
 11
2450.0
 21
650.0
 31
0.0
  0
TEXT
  5
568
330
1F
100
AcDbEntity
  8
寸法
  6
CONTINUOUS
 62
     2
100
AcDbText
 10
2495.0
 20
670.249999910593
 30
0.0
 40
59.99999618530273
  1
１３０
 41
1.029411764705882
  7
EXCADSTD
 72
     5
 11
2644.999990463257
 21
670.249999910593
 31
0.0
100
AcDbText
  0
TEXT
  5
569
330
1F
100
AcDbEntity
  8
寸法
  6
CONTINUOUS
 62
     2
100
AcDbText
 10
2637.5
 20
670.249999910593
 30
0.0
 40
48.0
  1
（Ｓトラップ）
 41
0.9390243902439025
  7
EXCADSTD
 72
     5
 11
2901.5
 21
670.249999910593
 31
0.0
100
AcDbText
  0
LINE
  5
56A
330
1F
100
AcDbEntity
  8
寸法
  6
CONTINUOUS
 62
     3
100
AcDbLine
 10
2275.0
 20
665.0
 30
0.0
 11
2899.250011444092
 21
665.0
 31
0.0
  0
LINE
  5
56B
330
1F
100
AcDbEntity
  8
寸法
  6
CONTINUOUS
 62
     3
100
AcDbLine
 10
2275.0
 20
657.5
 30
0.0
 11
2320.0
 21
665.0
 31
0.0
  0
LINE
  5
56C
330
1F
100
AcDbEntity
  8
寸法
  6
CONTINUOUS
 62
     3
100
AcDbLine
 10
2320.0
 20
665.0
 30
0.0
 11
2275.0
 21
672.5000000000001
 31
0.0
  0
LINE
  5
56D
330
1F
100
AcDbEntity
  8
寸法
  6
CONTINUOUS
 62
     3
100
AcDbLine
 10
2495.0
 20
672.5
 30
0.0
 11
2450.0
 21
665.0
 31
0.0
  0
LINE
  5
56E
330
1F
100
AcDbEntity
  8
寸法
  6
CONTINUOUS
 62
     3
100
AcDbLine
 10
2450.0
 20
665.0
 30
0.0
 11
2495.0
 21
657.5
 31
0.0
  0
LINE
  5
56F
330
1F
100
AcDbEntity
  8
寸法
  6
CONTINUOUS
 62
     3
100
AcDbLine
 10
2460.499999821187
 20
874.9999999999999
 30
0.0
 11
2840.0
 21
874.9999999999972
 31
0.0
  0
LINE
  5
570
330
1F
100
AcDbEntity
  8
寸法
  6
CONTINUOUS
 62
     3
100
AcDbLine
 10
2492.399999821186
 20
1495.0
 30
0.0
 11
2840.0
 21
1495.0
 31
0.0
  0
TEXT
  5
571
330
1F
100
AcDbEntity
  8
寸法
  6
CONTINUOUS
 62
     2
100
AcDbText
 10
2819.750000089407
 20
1021.499999999999
 30
0.0
 40
59.99999618530273
  1
６２０
 50
90.0
 41
1.029411764705882
  7
EXCADSTD
 72
     5
 11
2819.750000089407
 21
1171.499990463255
 31
0.0
100
AcDbText
  0
TEXT
  5
572
330
1F
100
AcDbEntity
  8
寸法
  6
CONTINUOUS
 62
     2
100
AcDbText
 10
2819.750000089407
 20
1163.999999999999
 30
0.0
 40
48.0
  1
（壁固定）
 50
90.0
 41
0.9655172413793105
  7
EXCADSTD
 72
     5
 11
2819.750000089407
 21
1355.999999999999
 31
0.0
100
AcDbText
  0
LINE
  5
573
330
1F
100
AcDbEntity
  8
寸法
  6
CONTINUOUS
 62
     3
100
AcDbLine
 10
2825.0
 20
874.9999999999973
 30
0.0
 11
2825.0
 21
1495.0
 31
0.0
  0
LINE
  5
574
330
1F
100
AcDbEntity
  8
寸法
  6
CONTINUOUS
 62
     3
100
AcDbLine
 10
2817.5
 20
919.9999999999973
 30
0.0
 11
2825.0
 21
874.9999999999973
 31
0.0
  0
LINE
  5
575
330
1F
100
AcDbEntity
  8
寸法
  6
CONTINUOUS
 62
     3
100
AcDbLine
 10
2825.0
 20
874.9999999999973
 30
0.0
 11
2832.5
 21
919.9999999999973
 31
0.0
  0
LINE
  5
576
330
1F
100
AcDbEntity
  8
寸法
  6
CONTINUOUS
 62
     3
100
AcDbLine
 10
2832.5
 20
1450.0
 30
0.0
 11
2825.0
 21
1495.0
 31
0.0
  0
LINE
  5
577
330
1F
100
AcDbEntity
  8
寸法
  6
CONTINUOUS
 62
     3
100
AcDbLine
 10
2825.0
 20
1495.0
 30
0.0
 11
2817.5
 21
1450.0
 31
0.0
  0
LINE
  5
578
330
1F
100
AcDbEntity
  8
寸法
  6
CONTINUOUS
 62
     3
100
AcDbLine
 10
2460.499999821187
 20
874.9999999999999
 30
0.0
 11
2660.0
 21
874.9999999999981
 31
0.0
  0
LINE
  5
579
330
1F
100
AcDbEntity
  8
寸法
  6
CONTINUOUS
 62
     3
100
AcDbLine
 10
2483.999999821187
 20
1350.0
 30
0.0
 11
2660.0
 21
1350.0
 31
0.0
  0
TEXT
  5
57A
330
1F
100
AcDbEntity
  8
寸法
  6
CONTINUOUS
 62
     2
100
AcDbText
 10
2639.750000089407
 20
912.9999999999989
 30
0.0
 40
59.99999618530273
  1
４７５
 50
90.0
 41
1.029411764705882
  7
EXCADSTD
 72
     5
 11
2639.750000089407
 21
1062.999990463256
 31
0.0
100
AcDbText
  0
TEXT
  5
57B
330
1F
100
AcDbEntity
  8
寸法
  6
CONTINUOUS
 62
     2
100
AcDbText
 10
2639.750000089407
 20
1055.499999999999
 30
0.0
 40
48.0
  1
（Ｐトラップ）
 50
90.0
 41
0.9390243902439025
  7
EXCADSTD
 72
     5
 11
2639.750000089407
 21
1319.499999999999
 31
0.0
100
AcDbText
  0
LINE
  5
57C
330
1F
100
AcDbEntity
  8
寸法
  6
CONTINUOUS
 62
     3
100
AcDbLine
 10
2645.0
 20
874.9999999999982
 30
0.0
 11
2645.0
 21
1350.0
 31
0.0
  0
LINE
  5
57D
330
1F
100
AcDbEntity
  8
寸法
  6
CONTINUOUS
 62
     3
100
AcDbLine
 10
2637.5
 20
919.9999999999982
 30
0.0
 11
2645.0
 21
874.9999999999982
 31
0.0
  0
LINE
  5
57E
330
1F
100
AcDbEntity
  8
寸法
  6
CONTINUOUS
 62
     3
100
AcDbLine
 10
2645.0
 20
874.9999999999982
 30
0.0
 11
2652.5
 21
919.9999999999982
 31
0.0
  0
LINE
  5
57F
330
1F
100
AcDbEntity
  8
寸法
  6
CONTINUOUS
 62
     3
100
AcDbLine
 10
2652.5
 20
1305.0
 30
0.0
 11
2645.0
 21
1350.0
 31
0.0
  0
LINE
  5
580
330
1F
100
AcDbEntity
  8
寸法
  6
CONTINUOUS
 62
     3
100
AcDbLine
 10
2645.0
 20
1350.0
 30
0.0
 11
2637.5
 21
1305.0
 31
0.0
  0
LINE
  5
581
330
1F
100
AcDbEntity
  8
寸法
  6
CONTINUOUS
 62
     3
100
AcDbLine
 10
2460.499999821187
 20
875.0000000000001
 30
0.0
 11
2750.0
 21
874.9999999999981
 31
0.0
  0
LINE
  5
582
330
1F
100
AcDbEntity
  8
寸法
  6
CONTINUOUS
 62
     3
100
AcDbLine
 10
2488.999999821187
 20
1420.0
 30
0.0
 11
2750.0
 21
1420.0
 31
0.0
  0
TEXT
  5
583
330
1F
100
AcDbEntity
  8
寸法
  6
CONTINUOUS
 62
     2
100
AcDbText
 10
2729.750000089407
 20
911.9999999999993
 30
0.0
 40
59.99999618530273
  1
５４５
 50
90.0
 41
1.029411764705882
  7
EXCADSTD
 72
     5
 11
2729.750000089407
 21
1061.999990463256
 31
0.0
100
AcDbText
  0
TEXT
  5
584
330
1F
100
AcDbEntity
  8
寸法
  6
CONTINUOUS
 62
     2
100
AcDbText
 10
2729.750000089407
 20
1054.499999999999
 30
0.0
 40
48.0
  1
（ボトルトラップ）
 50
90.0
 41
0.9245283018867926
  7
EXCADSTD
 72
     5
 11
2729.750000089407
 21
1390.499999999999
 31
0.0
100
AcDbText
  0
LINE
  5
585
330
1F
100
AcDbEntity
  8
寸法
  6
CONTINUOUS
 62
     3
100
AcDbLine
 10
2735.0
 20
874.9999999999982
 30
0.0
 11
2735.0
 21
1420.0
 31
0.0
  0
LINE
  5
586
330
1F
100
AcDbEntity
  8
寸法
  6
CONTINUOUS
 62
     3
100
AcDbLine
 10
2727.5
 20
919.9999999999982
 30
0.0
 11
2735.0
 21
874.9999999999982
 31
0.0
  0
LINE
  5
587
330
1F
100
AcDbEntity
  8
寸法
  6
CONTINUOUS
 62
     3
100
AcDbLine
 10
2735.0
 20
874.9999999999982
 30
0.0
 11
2742.5
 21
919.9999999999982
 31
0.0
  0
LINE
  5
588
330
1F
100
AcDbEntity
  8
寸法
  6
CONTINUOUS
 62
     3
100
AcDbLine
 10
2742.5
 20
1375.0
 30
0.0
 11
2735.0
 21
1420.0
 31
0.0
  0
LINE
  5
589
330
1F
100
AcDbEntity
  8
寸法
  6
CONTINUOUS
 62
     3
100
AcDbLine
 10
2735.0
 20
1420.0
 30
0.0
 11
2727.5
 21
1375.0
 31
0.0
  0
LINE
  5
58A
330
1F
100
AcDbEntity
  8
寸法
  6
CONTINUOUS
 62
     3
100
AcDbLine
 10
752.0000000000002
 20
3961.999999821186
 30
0.0
 11
752.0000000000002
 21
4024.0
 31
0.0
  0
LINE
  5
58B
330
1F
100
AcDbEntity
  8
寸法
  6
CONTINUOUS
 62
     3
100
AcDbLine
 10
1087.999999999997
 20
3961.999999821186
 30
0.0
 11
1087.999999999997
 21
4024.0
 31
0.0
  0
TEXT
  5
58C
330
1F
100
AcDbEntity
  8
寸法
  6
CONTINUOUS
 62
     2
100
AcDbText
 10
756.4999999999991
 20
4014.249999910593
 30
0.0
 40
59.99999618530273
  1
３３６
 41
1.029411764705882
  7
EXCADSTD
 72
     5
 11
906.4999904632559
 21
4014.249999910593
 31
0.0
100
AcDbText
  0
TEXT
  5
58D
330
1F
100
AcDbEntity
  8
寸法
  6
CONTINUOUS
 62
     2
100
AcDbText
 10
898.9999999999991
 20
4014.249999910593
 30
0.0
 40
48.0
  1
（壁固定）
 41
0.9655172413793105
  7
EXCADSTD
 72
     5
 11
1090.999999999999
 21
4014.249999910593
 31
0.0
100
AcDbText
  0
LINE
  5
58E
330
1F
100
AcDbEntity
  8
寸法
  6
CONTINUOUS
 62
     3
100
AcDbLine
 10
752.0000000000005
 20
4009.0
 30
0.0
 11
1087.999999999998
 21
4009.0
 31
0.0
  0
LINE
  5
58F
330
1F
100
AcDbEntity
  8
寸法
  6
CONTINUOUS
 62
     3
100
AcDbLine
 10
797.0000000000002
 20
4016.5
 30
0.0
 11
752.0000000000002
 21
4009.0
 31
0.0
  0
LINE
  5
590
330
1F
100
AcDbEntity
  8
寸法
  6
CONTINUOUS
 62
     3
100
AcDbLine
 10
752.0000000000002
 20
4009.0
 30
0.0
 11
797.0000000000002
 21
4001.5
 31
0.0
  0
LINE
  5
591
330
1F
100
AcDbEntity
  8
寸法
  6
CONTINUOUS
 62
     3
100
AcDbLine
 10
1042.999999999997
 20
4001.5
 30
0.0
 11
1087.999999999997
 21
4009.0
 31
0.0
  0
LINE
  5
592
330
1F
100
AcDbEntity
  8
寸法
  6
CONTINUOUS
 62
     3
100
AcDbLine
 10
1087.999999999997
 20
4009.0
 30
0.0
 11
1042.999999999997
 21
4016.5
 31
0.0
  0
DIMENSION
  5
593
330
1F
100
AcDbEntity
  8
寸法
  6
CONTINUOUS
 62
     3
100
AcDbDimension
  2
*D22
 10
1144.999999999998
 20
3314.0
 30
0.0
 11
919.9999999999991
 21
3349.249999910593
 31
0.0
 70
   160
  1
%%c450
  3
ISO-25
100
AcDbAlignedDimension
 13
694.9999999999993
 23
3664.0
 33
0.0
 14
1144.999999999998
 24
3664.0
 34
0.0
100
AcDbRotatedDimension
1001
ACAD
1000
DSTYLE
1002
{
1070
   270
1070
     2
1070
     6
1000
EX_NORM
1070
     7
1000
EX_NORM
1070
    41
1040
44.99999618530273
1070
    42
1040
10.49999982118607
1070
    44
1040
15.0
1070
    73
1070
     0
1070
    74
1070
     0
1070
    75
1070
     0
1070
    76
1070
     0
1070
    77
1070
     1
1070
    78
1070
     0
1070
   140
1040
59.99999618530273
1070
   147
1040
0.0
1070
   173
1070
     1
1070
   176
1070
     3
1070
   177
1070
     3
1070
   178
1070
     2
1070
   271
1070
     0
1070
   277
1070
     2
1070
   279
1070
     2
1070
   280
1070
     0
1070
   287
1070
     5
1070
   340
1005
4CC
1002
}
  0
DIMENSION
  5
5A0
330
1F
100
AcDbEntity
  8
寸法
  6
CONTINUOUS
 62
     3
100
AcDbDimension
  2
*D23
 10
1219.999999999997
 20
3224.0
 30
0.0
 11
919.9999999999986
 21
3259.249999910593
 31
0.0
 70
   160
  3
ISO-25
100
AcDbAlignedDimension
 13
619.9999999999993
 23
3469.0
 33
0.0
 14
1219.999999999997
 24
3469.0
 34
0.0
100
AcDbRotatedDimension
1001
ACAD
1000
DSTYLE
1002
{
1070
   270
1070
     2
1070
     6
1000
EX_NORM
1070
     7
1000
EX_NORM
1070
    41
1040
44.99999618530273
1070
    42
1040
0.0
1070
    44
1040
0.0
1070
    73
1070
     0
1070
    74
1070
     0
1070
    75
1070
     0
1070
    76
1070
     0
1070
    77
1070
     1
1070
    78
1070
     0
1070
   140
1040
59.99999618530273
1070
   147
1040
0.0
1070
   173
1070
     1
1070
   176
1070
     3
1070
   177
1070
     3
1070
   178
1070
     2
1070
   271
1070
     0
1070
   277
1070
     2
1070
   279
1070
     2
1070
   280
1070
     0
1070
   287
1070
     5
1070
   340
1005
4CC
1002
}
  0
DIMENSION
  5
5AD
330
1F
100
AcDbEntity
  8
寸法
  6
CONTINUOUS
 62
     3
100
AcDbDimension
  2
*D24
 10
1414.999999999997
 20
3919.0
 30
0.0
 11
1379.750000089405
 21
3678.999999999999
 31
0.0
 70
   160
  3
ISO-25
100
AcDbAlignedDimension
 13
919.9999999999993
 23
3439.0
 33
0.0
 14
1219.999999999997
 24
3919.0
 34
0.0
 50
90.0
100
AcDbRotatedDimension
1001
ACAD
1000
DSTYLE
1002
{
1070
   270
1070
     2
1070
     6
1000
EX_NORM
1070
     7
1000
EX_NORM
1070
    41
1040
44.99999618530273
1070
    42
1040
10.49999982118607
1070
    44
1040
15.0
1070
    73
1070
     0
1070
    74
1070
     0
1070
    75
1070
     0
1070
    76
1070
     1
1070
    77
1070
     1
1070
    78
1070
     0
1070
   140
1040
59.99999618530273
1070
   147
1040
0.0
1070
   173
1070
     1
1070
   176
1070
     3
1070
   177
1070
     3
1070
   178
1070
     2
1070
   271
1070
     0
1070
   277
1070
     2
1070
   279
1070
     2
1070
   280
1070
     0
1070
   287
1070
     5
1070
   340
1005
4CC
1002
}
  0
LINE
  5
5B9
330
1F
100
AcDbEntity
  8
寸法
  6
CONTINUOUS
 62
     3
100
AcDbLine
 10
844.9999999999991
 20
856.5000001788139
 30
0.0
 11
844.9999999999991
 21
740.0
 31
0.0
  0
LINE
  5
5BA
330
1F
100
AcDbEntity
  8
寸法
  6
CONTINUOUS
 62
     3
100
AcDbLine
 10
994.9999999999978
 20
856.5000001788139
 30
0.0
 11
994.9999999999978
 21
740.0
 31
0.0
  0
TEXT
  5
5BB
330
1F
100
AcDbEntity
  8
寸法
  6
CONTINUOUS
 62
     2
100
AcDbText
 10
1039.999999999998
 20
760.249999910593
 30
0.0
 40
59.99999618530273
  1
１５０
 41
1.029411764705882
  7
EXCADSTD
 72
     5
 11
1189.999990463255
 21
760.249999910593
 31
0.0
100
AcDbText
  0
TEXT
  5
5BC
330
1F
100
AcDbEntity
  8
寸法
  6
CONTINUOUS
 62
     2
100
AcDbText
 10
1182.499999999998
 20
760.249999910593
 30
0.0
 40
48.0
  1
（壁･床給水）
 41
0.853658536585366
  7
EXCADSTD
 72
     5
 11
1422.499999999998
 21
760.249999910593
 31
0.0
100
AcDbText
  0
LINE
  5
5BD
330
1F
100
AcDbEntity
  8
寸法
  6
CONTINUOUS
 62
     3
100
AcDbLine
 10
799.9999999999991
 20
755.0
 30
0.0
 11
1420.250005722044
 21
755.0
 31
0.0
  0
LINE
  5
5BE
330
1F
100
AcDbEntity
  8
寸法
  6
CONTINUOUS
 62
     3
100
AcDbLine
 10
799.9999999999991
 20
747.5
 30
0.0
 11
844.9999999999991
 21
755.0
 31
0.0
  0
LINE
  5
5BF
330
1F
100
AcDbEntity
  8
寸法
  6
CONTINUOUS
 62
     3
100
AcDbLine
 10
844.9999999999991
 20
755.0
 30
0.0
 11
799.9999999999991
 21
762.5000000000001
 31
0.0
  0
LINE
  5
5C0
330
1F
100
AcDbEntity
  8
寸法
  6
CONTINUOUS
 62
     3
100
AcDbLine
 10
1039.999999999998
 20
762.5
 30
0.0
 11
994.9999999999978
 21
755.0
 31
0.0
  0
LINE
  5
5C1
330
1F
100
AcDbEntity
  8
寸法
  6
CONTINUOUS
 62
     3
100
AcDbLine
 10
994.9999999999978
 20
755.0
 30
0.0
 11
1039.999999999998
 21
747.5
 31
0.0
  0
DIMENSION
  5
5C2
330
1F
100
AcDbEntity
  8
寸法
  6
CONTINUOUS
 62
     3
100
AcDbDimension
  2
*D25
 10
1324.999999999998
 20
1575.0
 30
0.0
 11
1289.750000089406
 21
1224.999999999996
 31
0.0
 70
   160
  3
ISO-25
100
AcDbAlignedDimension
 13
1217.999999999997
 23
875.0
 33
0.0
 14
1219.999999999997
 24
1575.0
 34
0.0
 50
90.0
100
AcDbRotatedDimension
1001
ACAD
1000
DSTYLE
1002
{
1070
   270
1070
     2
1070
     6
1000
EX_NORM
1070
     7
1000
EX_NORM
1070
    41
1040
44.99999618530273
1070
    42
1040
10.49999982118607
1070
    44
1040
15.0
1070
    73
1070
     0
1070
    74
1070
     0
1070
    75
1070
     1
1070
    76
1070
     0
1070
    77
1070
     1
1070
    78
1070
     0
1070
   140
1040
59.99999618530273
1070
   147
1040
0.0
1070
   173
1070
     1
1070
   176
1070
     3
1070
   177
1070
     3
1070
   178
1070
     2
1070
   271
1070
     0
1070
   277
1070
     2
1070
   279
1070
     2
1070
   280
1070
     0
1070
   287
1070
     5
1070
   340
1005
4CC
1002
}
  0
DIMENSION
  5
5CE
330
1F
100
AcDbEntity
  8
寸法
  6
CONTINUOUS
 62
     3
100
AcDbDimension
  2
*D26
 10
1324.999999999997
 20
1745.0
 30
0.0
 11
1289.750000089405
 21
1659.999999999998
 31
0.0
 70
   160
  3
ISO-25
100
AcDbAlignedDimension
 13
1219.999999999997
 23
1575.0
 33
0.0
 14
919.9999999999991
 24
1745.0
 34
0.0
 50
90.0
100
AcDbRotatedDimension
1001
ACAD
1000
DSTYLE
1002
{
1070
   270
1070
     2
1070
     6
1000
EX_NORM
1070
     7
1000
EX_NORM
1070
    41
1040
44.99999618530273
1070
    42
1040
10.49999982118607
1070
    44
1040
15.0
1070
    73
1070
     0
1070
    74
1070
     0
1070
    75
1070
     0
1070
    76
1070
     1
1070
    77
1070
     1
1070
    78
1070
     0
1070
   140
1040
59.99999618530273
1070
   147
1040
0.0
1070
   173
1070
     1
1070
   176
1070
     3
1070
   177
1070
     3
1070
   178
1070
     2
1070
   271
1070
     0
1070
   277
1070
     2
1070
   279
1070
     2
1070
   280
1070
     0
1070
   287
1070
     5
1070
   340
1005
4CC
1002
}
  0
DIMENSION
  5
5DA
330
1F
100
AcDbEntity
  8
寸法
  6
CONTINUOUS
 62
     3
100
AcDbDimension
  2
*D27
 10
1415.000000000002
 20
1745.0
 30
0.0
 11
1379.750000089409
 21
1309.999999999998
 31
0.0
 70
   160
  3
ISO-25
100
AcDbAlignedDimension
 13
1217.999999999997
 23
875.0
 33
0.0
 14
930.4999998211988
 24
1745.0
 34
0.0
 50
90.0
100
AcDbRotatedDimension
1001
ACAD
1000
DSTYLE
1002
{
1070
   270
1070
     2
1070
     6
1000
EX_NORM
1070
     7
1000
EX_NORM
1070
    41
1040
44.99999618530273
1070
    42
1040
10.49999982118607
1070
    44
1040
15.0
1070
    73
1070
     0
1070
    74
1070
     0
1070
    75
1070
     0
1070
    76
1070
     1
1070
    77
1070
     1
1070
    78
1070
     0
1070
   140
1040
59.99999618530273
1070
   147
1040
0.0
1070
   173
1070
     1
1070
   176
1070
     3
1070
   177
1070
     3
1070
   178
1070
     2
1070
   271
1070
     0
1070
   277
1070
     2
1070
   279
1070
     2
1070
   280
1070
     0
1070
   287
1070
     5
1070
   340
1005
4CC
1002
}
  0
TEXT
  5
5E6
330
1F
100
AcDbEntity
  8
寸法
  6
CONTINUOUS
 62
     2
100
AcDbText
 10
2670.0
 20
1524.749999910593
 30
0.0
 40
59.99999618530273
  1
Ｒ１/２
 41
0.8342465643686785
  7
EXCADSTD
 72
     5
 11
2843.99998664856
 21
1524.749999910593
 31
0.0
100
AcDbText
  0
LEADER
  5
5E7
330
1F
100
AcDbEntity
  8
寸法
  6
CONTINUOUS
 62
     3
100
AcDbLeader
  3
ISO-25
 76
     3
 10
2458.0
 20
1325.5
 30
0.0
 10
2662.5
 20
1519.5
 30
0.0
 10
2827.5
 20
1519.5
 30
0.0
1001
ACAD
1000
DSTYLE
1002
{
1070
     5
1000
EX_NORM
1070
    41
1040
45.0
1070
   341
1005
4D
1002
}
  0
TEXT
  5
5E8
330
1F
100
AcDbEntity
  8
寸法
  6
CONTINUOUS
 62
     2
100
AcDbText
 10
2574.7171850083
 20
1642.993701819792
 30
0.0
 40
59.99999618530273
  1
ＶＰ･ＶＵ５０
 41
0.9048780357546915
  7
EXCADSTD
 72
     5
 11
2892.717160212768
 21
1642.993701819792
 31
0.0
100
AcDbText
  0
LEADER
  5
5E9
330
1F
100
AcDbEntity
  8
寸法
  6
CONTINUOUS
 62
     3
100
AcDbLeader
  3
ISO-25
 76
     3
 10
2473.5
 20
1375.5
 30
0.0
 10
2567.2171850083
 20
1637.743701909199
 30
0.0
 10
2871.7171850083
 20
1637.743701909199
 30
0.0
1001
ACAD
1000
DSTYLE
1002
{
1070
     5
1000
EX_NORM
1070
    41
1040
45.0
1070
   341
1005
4D
1002
}
  0
DIMENSION
  5
5EA
330
1F
100
AcDbEntity
  8
寸法
  6
CONTINUOUS
 62
     3
100
AcDbDimension
  2
*D28
 10
1324.999999999998
 20
3919.0
 30
0.0
 11
1289.750000089406
 21
3703.999999999999
 31
0.0
 70
   160
  3
ISO-25
100
AcDbAlignedDimension
 13
1219.999999999998
 23
3489.0
 33
0.0
 14
1219.999999999998
 24
3919.0
 34
0.0
 50
90.0
100
AcDbRotatedDimension
1001
ACAD
1000
DSTYLE
1002
{
1070
   270
1070
     2
1070
     6
1000
EX_NORM
1070
     7
1000
EX_NORM
1070
    41
1040
44.99999618530273
1070
    42
1040
10.49999982118607
1070
    44
1040
15.0
1070
    73
1070
     0
1070
    74
1070
     0
1070
    75
1070
     0
1070
    76
1070
     1
1070
    77
1070
     1
1070
    78
1070
     0
1070
   140
1040
59.99999618530273
1070
   147
1040
0.0
1070
   173
1070
     1
1070
   176
1070
     3
1070
   177
1070
     3
1070
   178
1070
     2
1070
   271
1070
     0
1070
   277
1070
     2
1070
   279
1070
     2
1070
   280
1070
     0
1070
   287
1070
     5
1070
   340
1005
4CC
1002
}
  0
DIMENSION
  5
5F6
330
1F
100
AcDbEntity
  8
寸法
  6
CONTINUOUS
 62
     3
100
AcDbDimension
  2
*D29
 10
2555.0
 20
875.0
 30
0.0
 11
2519.750000089407
 21
1095.0
 31
0.0
 70
   160
  1
440（壁給水）
  3
ISO-25
100
AcDbAlignedDimension
 13
2458.0
 23
1315.0
 33
0.0
 14
2555.0
 24
875.0
 34
0.0
 50
90.0
100
AcDbRotatedDimension
1001
ACAD
1000
DSTYLE
1002
{
1070
   270
1070
     2
1070
     6
1000
EX_NORM
1070
     7
1000
EX_NORM
1070
    41
1040
44.99999618530273
1070
    42
1040
7.5
1070
    44
1040
15.0
1070
    73
1070
     0
1070
    74
1070
     0
1070
    75
1070
     0
1070
    76
1070
     1
1070
    77
1070
     1
1070
    78
1070
     8
1070
   140
1040
59.99999618530273
1070
   147
1040
0.0
1070
   173
1070
     1
1070
   176
1070
     3
1070
   177
1070
     3
1070
   178
1070
     2
1070
   271
1070
     2
1070
   277
1070
     2
1070
   279
1070
     2
1070
   280
1070
     0
1070
   287
1070
     5
1070
   340
1005
4CC
1002
}
  0
LINE
  5
602
330
1F
100
AcDbEntity
  8
寸法
  6
CONTINUOUS
 62
     3
100
AcDbLine
 10
945.0000000000109
 20
1745.0
 30
0.0
 11
1339.999999999998
 21
1745.0
 31
0.0
  0
LINE
  5
603
330
1F
100
AcDbEntity
  8
寸法
  6
CONTINUOUS
 62
     3
100
AcDbLine
 10
945.0000000000109
 20
1745.0
 30
0.0
 11
1430.000000000002
 21
1745.0
 31
0.0
  0
DIMENSION
  5
604
330
1F
100
AcDbEntity
  8
寸法
  6
CONTINUOUS
 62
     3
100
AcDbDimension
  2
*D30
 10
1519.5
 20
2625.0
 30
0.0
 11
1484.250000089408
 21
1750.0
 31
0.0
 70
   160
  1
（1750）
  3
ISO-25
100
AcDbAlignedDimension
 13
1368.0
 23
875.0
 33
0.0
 14
1220.0
 24
2625.0
 34
0.0
 50
90.0
100
AcDbRotatedDimension
1001
ACAD
1000
DSTYLE
1002
{
1070
   270
1070
     2
1070
     6
1000
EX_NORM
1070
     7
1000
EX_NORM
1070
    41
1040
44.99999618530273
1070
    42
1040
10.49999982118607
1070
    44
1040
15.0
1070
    73
1070
     0
1070
    74
1070
     0
1070
    75
1070
     1
1070
    76
1070
     0
1070
    77
1070
     1
1070
    78
1070
     8
1070
   140
1040
59.99999618530273
1070
   147
1040
0.0
1070
   173
1070
     1
1070
   176
1070
     3
1070
   177
1070
     3
1070
   178
1070
     2
1070
   271
1070
     2
1070
   277
1070
     2
1070
   279
1070
     2
1070
   280
1070
     0
1070
   287
1070
     5
1070
   340
1005
4CC
1002
}
  0
ENDSEC
  0
SECTION
  2
OBJECTS
  0
DICTIONARY
  5
C
330
0
100
AcDbDictionary
  3
ACAD_GROUP
350
D
  3
ACAD_LAYOUT
350
1A
  3
ACAD_MATERIAL
350
3B
  3
ACAD_MLEADERSTYLE
350
632
  3
ACAD_MLINESTYLE
350
17
  3
ACAD_PLOTSETTINGS
350
19
  3
ACAD_VISUALSTYLE
350
2A
  3
ACDBHEADERROUNDTRIPXREC
350
610
  3
ACDBVARIABLEDICTIONARY
350
630
  0
DICTIONARY
  5
D
102
{ACAD_REACTORS
330
C
102
}
330
C
100
AcDbDictionary
  0
DICTIONARY
  5
1A
102
{ACAD_REACTORS
330
C
102
}
330
C
100
AcDbDictionary
  0
DICTIONARY
  5
3B
102
{ACAD_REACTORS
330
C
102
}
330
C
100
AcDbDictionary
  3
BYBLOCK
350
3D
  3
BYLAYER
350
3C
  3
GLOBAL
350
3E
  0
DICTIONARY
  5
632
102
{ACAD_REACTORS
330
C
102
}
330
C
100
AcDbDictionary
  0
DICTIONARY
  5
17
102
{ACAD_REACTORS
330
C
102
}
330
C
100
AcDbDictionary
  3
STANDARD
350
18
  0
DICTIONARY
  5
19
102
{ACAD_REACTORS
330
C
102
}
330
C
100
AcDbDictionary
  0
DICTIONARY
  5
2A
102
{ACAD_REACTORS
330
C
102
}
330
C
100
AcDbDictionary
  3
2DWIREFRAME
350
2F
  3
3D_HIDDEN
350
31
  3
3DWIREFRAME
350
30
  3
BASIC
350
32
  3
BRIGHTEN
350
36
  3
COLORCHANGE
350
3A
  3
CONCEPTUAL
350
34
  3
DIM
350
35
  3
FACEPATTERN
350
39
  3
FLAT
350
2B
  3
FLATWITHEDGES
350
2C
  3
GOURAUD
350
2D
  3
GOURAUDWITHEDGES
350
2E
  3
LINEPATTERN
350
38
  3
REALISTIC
350
33
  3
THICKEN
350
37
  0
DICTIONARY
  5
610
102
{ACAD_REACTORS
330
C
102
}
330
C
100
AcDbDictionary
  3
CEPSNTYPE
350
619
  3
DIMSTYLEDATA
350
62F
  3
FINGERPRINTGUID
350
61A
  3
HYPERLINKBASE
350
613
  3
INSUNITS
350
618
  3
LAYOUTDICT
350
615
  3
LWETCUNION
350
617
  3
PLOTSETDICT
350
616
  3
PSVPSCALE
350
61C
  3
PUCSBASE
350
61F
  3
PUCSORGBACK
350
625
  3
PUCSORGBOTTOM
350
621
  3
PUCSORGFRONT
350
624
  3
PUCSORGLEFT
350
622
  3
PUCSORGRIGHT
350
623
  3
PUCSORGTOP
350
620
  3
PUCSORTHOREF
350
61D
  3
PUCSORTHOVIEW
350
61E
  3
STYLESHEET
350
614
  3
TSTACKALIGN
350
611
  3
TSTACKSIZE
350
612
  3
UCSBASE
350
628
  3
UCSORGBACK
350
62E
  3
UCSORGBOTTOM
350
62A
  3
UCSORGFRONT
350
62D
  3
UCSORGLEFT
350
62B
  3
UCSORGRIGHT
350
62C
  3
UCSORGTOP
350
629
  3
UCSORTHOREF
350
626
  3
UCSORTHOVIEW
350
627
  3
VERSIONGUID
350
61B
  0
DICTIONARY
  5
630
102
{ACAD_REACTORS
330
C
102
}
330
C
100
AcDbDictionary
  3
DIMASSOC
350
635
  3
HIDETEXT
350
636
  3
PSOLHEIGHT
350
634
  3
PSOLWIDTH
350
633
  0
MATERIAL
  5
3D
102
{ACAD_REACTORS
330
3B
102
}
102
{ACAD_XDICTIONARY
360
639
102
}
330
3B
100
AcDbMaterial
  1
ByBlock
  0
MATERIAL
  5
3C
102
{ACAD_REACTORS
330
3B
102
}
102
{ACAD_XDICTIONARY
360
637
102
}
330
3B
100
AcDbMaterial
  1
ByLayer
  0
MATERIAL
  5
3E
102
{ACAD_REACTORS
330
3B
102
}
102
{ACAD_XDICTIONARY
360
63B
102
}
330
3B
100
AcDbMaterial
  1
Global
  0
MLINESTYLE
  5
18
102
{ACAD_REACTORS
330
17
102
}
330
17
100
AcDbMlineStyle
  2
Standard
 70
     0
  3

 62
   256
 51
90.0
 52
90.0
 71
     2
 49
0.5
 62
   256
  6
BYLAYER
 49
-0.5
 62
   256
  6
BYLAYER
  0
ACAD_PROXY_OBJECT
  5
2F
102
{ACAD_REACTORS
330
2A
102
}
330
2A
100
AcDbProxyObject
 90
      499
 91
      501
 93
      436
310
42CC9915DA5C99599C985B595049028333333333333E3BF0000000000000FB0107901411070040501600405405064090741402480A0340
1001
ACAD
1000
AcDbSavedByObjectVersion
1070
     0
  0
ACAD_PROXY_OBJECT
  5
31
102
{ACAD_REACTORS
330
2A
102
}
330
2A
100
AcDbProxyObject
 90
      499
 91
      501
 93
      500
310
424CD108121A5919195B90640502408333333333333E3BF0000000000000FB01079024090700405020000000000001110200405405064090740C02480A0340
1001
ACAD
1000
AcDbSavedByObjectVersion
1070
     0
  0
ACAD_PROXY_OBJECT
  5
30
102
{ACAD_REACTORS
330
2A
102
}
330
2A
100
AcDbProxyObject
 90
      499
 91
      501
 93
      436
310
42CCD915DA5C99599C985B595059028333333333333E3BF0000000000000FB0107901411070040501600405405064090741402480A0340
1001
ACAD
1000
AcDbSavedByObjectVersion
1070
     0
  0
ACAD_PROXY_OBJECT
  5
32
102
{ACAD_REACTORS
330
2A
102
}
330
2A
100
AcDbProxyObject
 90
      499
 91
      501
 93
      388
310
4150985CDA58D07406404333333333333E3BF0000000000000FB0107A41107004050150841D405064090741402480A0350
1001
ACAD
1000
AcDbSavedByObjectVersion
1070
     0
  0
ACAD_PROXY_OBJECT
  5
36
102
{ACAD_REACTORS
330
2A
102
}
330
2A
100
AcDbProxyObject
 90
      499
 91
      501
 93
      428
310
42109C9A59DA1D195B90C409028333333333333E3BF0000000000000FB010790141107004050150841D405064090741402480A029950
1001
ACAD
1000
AcDbSavedByObjectVersion
1070
     0
  0
ACAD_PROXY_OBJECT
  5
3A
102
{ACAD_REACTORS
330
2A
102
}
330
2A
100
AcDbProxyObject
 90
      499
 91
      501
 93
      452
310
42D0DBDB1BDC90DA185B99D95104090240C333333333333E3BF0000000000000FB0108901411070040501508421405064090741402480A0350
1001
ACAD
1000
AcDbSavedByObjectVersion
1070
     0
  0
ACAD_PROXY_OBJECT
  5
34
102
{ACAD_REACTORS
330
2A
102
}
330
2A
100
AcDbProxyObject
 90
      499
 91
      501
 93
      500
310
4290DBDB98D95C1D1D585B10940D028333333333333E3BF0000000000000FB0107902409070040501000000000000111010841D405064090740C02480A0340
1001
ACAD
1000
AcDbSavedByObjectVersion
1070
     0
  0
ACAD_PROXY_OBJECT
  5
35
102
{ACAD_REACTORS
330
2A
102
}
330
2A
100
AcDbProxyObject
 90
      499
 91
      501
 93
      412
310
40D11A5B50B409028333333333333E3BF0000000000000FB010790141107004050150841D405064090741402480A02677FFFFFD0
1001
ACAD
1000
AcDbSavedByObjectVersion
1070
     0
  0
ACAD_PROXY_OBJECT
  5
39
102
{ACAD_REACTORS
330
2A
102
}
330
2A
100
AcDbProxyObject
 90
      499
 91
      501
 93
      444
310
42D19858D95C185D1D195C9B90F409028333333333333E3BF0000000000000FB010790141107004050150841D405064090741402480A0350
1001
ACAD
1000
AcDbSavedByObjectVersion
1070
     0
  0
ACAD_PROXY_OBJECT
  5
2B
102
{ACAD_REACTORS
330
2A
102
}
330
2A
100
AcDbProxyObject
 90
      499
 91
      501
 93
      388
310
41119B185D240901404333333333333E3BF0000000000000F9010740A41107004050150841D405064090741402480A1B50
1001
ACAD
1000
AcDbSavedByObjectVersion
1070
     0
  0
ACAD_PROXY_OBJECT
  5
2C
102
{ACAD_REACTORS
330
2A
102
}
330
2A
100
AcDbProxyObject
 90
      499
 91
      501
 93
      476
310
43519B185D15DA5D1A115919D95CD0140901404333333333333E3BF0000000000000F9010740901411070040501600405405064090741402480A1B50
1001
ACAD
1000
AcDbSavedByObjectVersion
1070
     0
  0
ACAD_PROXY_OBJECT
  5
2D
102
{ACAD_REACTORS
330
2A
102
}
330
2A
100
AcDbProxyObject
 90
      499
 91
      501
 93
      412
310
41D1DBDD5C985D5910240902404333333333333E3BF0000000000000F9010740A411070040501641D405064090741402480A1B50
1001
ACAD
1000
AcDbSavedByObjectVersion
1070
     0
  0
ACAD_PROXY_OBJECT
  5
2E
102
{ACAD_REACTORS
330
2A
102
}
330
2A
100
AcDbProxyObject
 90
      499
 91
      501
 93
      500
310
4411DBDD5C985D5915DA5D1A115919D95CD0340902404333333333333E3BF0000000000000F9010740901411070040501600405405064090741402480A1B50
1001
ACAD
1000
AcDbSavedByObjectVersion
1070
     0
  0
ACAD_PROXY_OBJECT
  5
38
102
{ACAD_REACTORS
330
2A
102
}
330
2A
100
AcDbProxyObject
 90
      499
 91
      501
 93
      444
310
42D31A5B995C185D1D195C9B90E409028333333333333E3BF0000000000000FB010790141107004050750841D405064090741402483A0350
1001
ACAD
1000
AcDbSavedByObjectVersion
1070
     0
  0
ACAD_PROXY_OBJECT
  5
33
102
{ACAD_REACTORS
330
2A
102
}
330
2A
100
AcDbProxyObject
 90
      499
 91
      501
 93
      420
310
425499585B1A5CDD1A58D08409028333333333333E3BF0000000000000FB01079019070040501508421405064090741402480A1B40
1001
ACAD
1000
AcDbSavedByObjectVersion
1070
     0
  0
ACAD_PROXY_OBJECT
  5
37
102
{ACAD_REACTORS
330
2A
102
}
330
2A
100
AcDbProxyObject
 90
      499
 91
      501
 93
      412
310
41D51A1A58DAD95B90D409028333333333333E3BF0000000000000FB010790141107004050150C41D405064090741402480A0350
1001
ACAD
1000
AcDbSavedByObjectVersion
1070
     0
  0
XRECORD
  5
619
102
{ACAD_REACTORS
330
610
102
}
330
610
100
AcDbXrecord
 90
        0
  0
XRECORD
  5
62F
102
{ACAD_REACTORS
330
610
102
}
330
610
100
AcDbXrecord
1000
DSTYLE
1002
{
1070
   340
340
11
1002
}
  0
XRECORD
  5
61A
102
{ACAD_REACTORS
330
610
102
}
330
610
100
AcDbXrecord
  1
{3E6C13BB-55ED-42FD-B9B1-E9931608B41B}
  0
XRECORD
  5
613
102
{ACAD_REACTORS
330
610
102
}
330
610
100
AcDbXrecord
  1

  0
XRECORD
  5
618
102
{ACAD_REACTORS
330
610
102
}
330
610
100
AcDbXrecord
 90
        4
  0
XRECORD
  5
615
102
{ACAD_REACTORS
330
610
102
}
330
610
100
AcDbXrecord
340
1A
  0
XRECORD
  5
617
102
{ACAD_REACTORS
330
610
102
}
330
610
100
AcDbXrecord
 90
    10781
  0
XRECORD
  5
616
102
{ACAD_REACTORS
330
610
102
}
330
610
100
AcDbXrecord
340
19
  0
XRECORD
  5
61C
102
{ACAD_REACTORS
330
610
102
}
330
610
100
AcDbXrecord
 40
0.0
  0
XRECORD
  5
61F
102
{ACAD_REACTORS
330
610
102
}
330
610
100
AcDbXrecord
340
0
  0
XRECORD
  5
625
102
{ACAD_REACTORS
330
610
102
}
330
610
100
AcDbXrecord
 10
0.0
 20
0.0
 30
0.0
  0
XRECORD
  5
621
102
{ACAD_REACTORS
330
610
102
}
330
610
100
AcDbXrecord
 10
0.0
 20
0.0
 30
0.0
  0
XRECORD
  5
624
102
{ACAD_REACTORS
330
610
102
}
330
610
100
AcDbXrecord
 10
0.0
 20
0.0
 30
0.0
  0
XRECORD
  5
622
102
{ACAD_REACTORS
330
610
102
}
330
610
100
AcDbXrecord
 10
0.0
 20
0.0
 30
0.0
  0
XRECORD
  5
623
102
{ACAD_REACTORS
330
610
102
}
330
610
100
AcDbXrecord
 10
0.0
 20
0.0
 30
0.0
  0
XRECORD
  5
620
102
{ACAD_REACTORS
330
610
102
}
330
610
100
AcDbXrecord
 10
0.0
 20
0.0
 30
0.0
  0
XRECORD
  5
61D
102
{ACAD_REACTORS
330
610
102
}
330
610
100
AcDbXrecord
340
0
  0
XRECORD
  5
61E
102
{ACAD_REACTORS
330
610
102
}
330
610
100
AcDbXrecord
 70
     0
  0
XRECORD
  5
614
102
{ACAD_REACTORS
330
610
102
}
330
610
100
AcDbXrecord
  1

  0
XRECORD
  5
611
102
{ACAD_REACTORS
330
610
102
}
330
610
100
AcDbXrecord
 90
        1
  0
XRECORD
  5
612
102
{ACAD_REACTORS
330
610
102
}
330
610
100
AcDbXrecord
 90
       70
  0
XRECORD
  5
628
102
{ACAD_REACTORS
330
610
102
}
330
610
100
AcDbXrecord
340
0
  0
XRECORD
  5
62E
102
{ACAD_REACTORS
330
610
102
}
330
610
100
AcDbXrecord
 10
0.0
 20
0.0
 30
0.0
  0
XRECORD
  5
62A
102
{ACAD_REACTORS
330
610
102
}
330
610
100
AcDbXrecord
 10
0.0
 20
0.0
 30
0.0
  0
XRECORD
  5
62D
102
{ACAD_REACTORS
330
610
102
}
330
610
100
AcDbXrecord
 10
0.0
 20
0.0
 30
0.0
  0
XRECORD
  5
62B
102
{ACAD_REACTORS
330
610
102
}
330
610
100
AcDbXrecord
 10
0.0
 20
0.0
 30
0.0
  0
XRECORD
  5
62C
102
{ACAD_REACTORS
330
610
102
}
330
610
100
AcDbXrecord
 10
0.0
 20
0.0
 30
0.0
  0
XRECORD
  5
629
102
{ACAD_REACTORS
330
610
102
}
330
610
100
AcDbXrecord
 10
0.0
 20
0.0
 30
0.0
  0
XRECORD
  5
626
102
{ACAD_REACTORS
330
610
102
}
330
610
100
AcDbXrecord
340
0
  0
XRECORD
  5
627
102
{ACAD_REACTORS
330
610
102
}
330
610
100
AcDbXrecord
 70
     0
  0
XRECORD
  5
61B
102
{ACAD_REACTORS
330
610
102
}
330
610
100
AcDbXrecord
  1
{FAEB1C32-E019-11D5-929B-00C0DF256EC4}
  0
DICTIONARYVAR
  5
635
102
{ACAD_REACTORS
330
630
102
}
330
630
100
DictionaryVariables
280
     0
  1
2
  0
DICTIONARYVAR
  5
636
102
{ACAD_REACTORS
330
630
102
}
330
630
100
DictionaryVariables
280
     0
  1
1
  0
DICTIONARYVAR
  5
634
102
{ACAD_REACTORS
330
630
102
}
330
630
100
DictionaryVariables
280
     0
  1
80.000000
  0
DICTIONARYVAR
  5
633
102
{ACAD_REACTORS
330
630
102
}
330
630
100
DictionaryVariables
280
     0
  1
5.000000
  0
DICTIONARY
  5
639
330
3D
100
AcDbDictionary
280
     1
  3
ACAD_XREC_ROUNDTRIP
360
63A
  0
DICTIONARY
  5
637
330
3C
100
AcDbDictionary
280
     1
  3
ACAD_XREC_ROUNDTRIP
360
638
  0
DICTIONARY
  5
63B
330
3E
100
AcDbDictionary
280
     1
  3
ACAD_XREC_ROUNDTRIP
360
63C
  0
XRECORD
  5
63A
102
{ACAD_REACTORS
330
639
102
}
330
639
100
AcDbXrecord
102
MATERIAL
148
0.0
149
0.0
149
0.0
 93
        0
 94
      127
282
     0
 72
     1
 77
     1
171
     1
175
     1
179
     1
273
     0
  0
XRECORD
  5
638
102
{ACAD_REACTORS
330
637
102
}
330
637
100
AcDbXrecord
102
MATERIAL
148
0.0
149
0.0
149
0.0
 93
        0
 94
      127
282
     0
 72
     1
 77
     1
171
     1
175
     1
179
     1
273
     0
  0
XRECORD
  5
63C
102
{ACAD_REACTORS
330
63B
102
}
330
63B
100
AcDbXrecord
102
MATERIAL
148
0.0
149
0.0
149
0.0
 93
        0
 94
      127
282
     0
 72
     1
 77
     1
171
     1
175
     1
179
     1
273
     0
  0
ENDSEC
  0
EOF
