  0
SECTION
  2
HEADER
  9
$ACADVER
  1
AC1014
  9
$ACADMAINTVER
 70
     9
  9
$DWGCODEPAGE
  3
ANSI_932
  9
$INSBASE
 10
0.0
 20
0.0
 30
0.0
  9
$EXTMIN
 10
0.6999999999999872
 20
13.5
 30
0.0
  9
$EXTMAX
 10
200.0
 20
288.5
 30
0.0
  9
$LIMMIN
 10
0.0
 20
0.0
  9
$LIMMAX
 10
210.0
 20
297.0
  9
$ORTHOMODE
 70
     0
  9
$REGENMODE
 70
     1
  9
$FILLMODE
 70
     1
  9
$QTEXTMODE
 70
     0
  9
$MIRRTEXT
 70
     1
  9
$DRAGMODE
 70
     2
  9
$LTSCALE
 40
1.0
  9
$OSMODE
 70
    37
  9
$ATTMODE
 70
     1
  9
$TEXTSIZE
 40
2.5
  9
$TRACEWID
 40
1.0
  9
$TEXTSTYLE
  7
STANDARD
  9
$CLAYER
  8
鏡台
  9
$CELTYPE
  6
BYLAYER
  9
$CECOLOR
 62
   256
  9
$CELTSCALE
 40
1.0
  9
$DELOBJ
 70
     1
  9
$DISPSILH
 70
     0
  9
$DIMSCALE
 40
1.0
  9
$DIMASZ
 40
2.5
  9
$DIMEXO
 40
0.625
  9
$DIMDLI
 40
3.75
  9
$DIMRND
 40
0.0
  9
$DIMDLE
 40
0.0
  9
$DIMEXE
 40
1.25
  9
$DIMTP
 40
0.0
  9
$DIMTM
 40
0.0
  9
$DIMTXT
 40
2.5
  9
$DIMCEN
 40
2.5
  9
$DIMTSZ
 40
0.0
  9
$DIMTOL
 70
     0
  9
$DIMLIM
 70
     0
  9
$DIMTIH
 70
     0
  9
$DIMTOH
 70
     0
  9
$DIMSE1
 70
     0
  9
$DIMSE2
 70
     0
  9
$DIMTAD
 70
     1
  9
$DIMZIN
 70
     8
  9
$DIMBLK
  1

  9
$DIMASO
 70
     1
  9
$DIMSHO
 70
     1
  9
$DIMPOST
  1

  9
$DIMAPOST
  1

  9
$DIMALT
 70
     0
  9
$DIMALTD
 70
     3
  9
$DIMALTF
 40
0.03937007874016
  9
$DIMLFAC
 40
1.0
  9
$DIMTOFL
 70
     1
  9
$DIMTVP
 40
0.0
  9
$DIMTIX
 70
     0
  9
$DIMSOXD
 70
     0
  9
$DIMSAH
 70
     0
  9
$DIMBLK1
  1

  9
$DIMBLK2
  1

  9
$DIMSTYLE
  2
ISO-25
  9
$DIMCLRD
 70
     0
  9
$DIMCLRE
 70
     0
  9
$DIMCLRT
 70
     0
  9
$DIMTFAC
 40
1.0
  9
$DIMGAP
 40
0.625
  9
$DIMJUST
 70
     0
  9
$DIMSD1
 70
     0
  9
$DIMSD2
 70
     0
  9
$DIMTOLJ
 70
     0
  9
$DIMTZIN
 70
     8
  9
$DIMALTZ
 70
     0
  9
$DIMALTTZ
 70
     0
  9
$DIMFIT
 70
     3
  9
$DIMUPT
 70
     0
  9
$DIMUNIT
 70
     2
  9
$DIMDEC
 70
     2
  9
$DIMTDEC
 70
     2
  9
$DIMALTU
 70
     2
  9
$DIMALTTD
 70
     3
  9
$DIMTXSTY
  7
STANDARD
  9
$DIMAUNIT
 70
     0
  9
$LUNITS
 70
     2
  9
$LUPREC
 70
     4
  9
$SKETCHINC
 40
1.0
  9
$FILLETRAD
 40
10.0
  9
$AUNITS
 70
     0
  9
$AUPREC
 70
     0
  9
$MENU
  1
.
  9
$ELEVATION
 40
0.0
  9
$PELEVATION
 40
0.0
  9
$THICKNESS
 40
0.0
  9
$LIMCHECK
 70
     0
  9
$CHAMFERA
 40
10.0
  9
$CHAMFERB
 40
10.0
  9
$CHAMFERC
 40
20.0
  9
$CHAMFERD
 40
0.0
  9
$SKPOLY
 70
     0
  9
$TDCREATE
 40
2457660.590497303
  9
$TDUPDATE
 40
2457660.590497535
  9
$TDINDWG
 40
0.0000000116
  9
$TDUSRTIMER
 40
0.0000000116
  9
$USRTIMER
 70
     1
  9
$ANGBASE
 50
0.0
  9
$ANGDIR
 70
     0
  9
$PDMODE
 70
     0
  9
$PDSIZE
 40
0.0
  9
$PLINEWID
 40
0.0
  9
$COORDS
 70
     1
  9
$SPLFRAME
 70
     0
  9
$SPLINETYPE
 70
     6
  9
$SPLINESEGS
 70
     8
  9
$ATTDIA
 70
     0
  9
$ATTREQ
 70
     1
  9
$HANDLING
 70
     1
  9
$HANDSEED
  5
665
  9
$SURFTAB1
 70
     6
  9
$SURFTAB2
 70
     6
  9
$SURFTYPE
 70
     6
  9
$SURFU
 70
     6
  9
$SURFV
 70
     6
  9
$UCSNAME
  2

  9
$UCSORG
 10
0.0
 20
0.0
 30
0.0
  9
$UCSXDIR
 10
1.0
 20
0.0
 30
0.0
  9
$UCSYDIR
 10
0.0
 20
1.0
 30
0.0
  9
$PUCSNAME
  2

  9
$PUCSORG
 10
0.0
 20
0.0
 30
0.0
  9
$PUCSXDIR
 10
1.0
 20
0.0
 30
0.0
  9
$PUCSYDIR
 10
0.0
 20
1.0
 30
0.0
  9
$USERI1
 70
     0
  9
$USERI2
 70
     0
  9
$USERI3
 70
     0
  9
$USERI4
 70
     0
  9
$USERI5
 70
     0
  9
$USERR1
 40
0.0
  9
$USERR2
 40
0.0
  9
$USERR3
 40
0.0
  9
$USERR4
 40
0.0
  9
$USERR5
 40
0.0
  9
$WORLDVIEW
 70
     1
  9
$SHADEDGE
 70
     3
  9
$SHADEDIF
 70
    70
  9
$TILEMODE
 70
     1
  9
$MAXACTVP
 70
    64
  9
$PINSBASE
 10
0.0
 20
0.0
 30
0.0
  9
$PLIMCHECK
 70
     0
  9
$PEXTMIN
 10
1.000000000000000E+20
 20
1.000000000000000E+20
 30
1.000000000000000E+20
  9
$PEXTMAX
 10
-1.000000000000000E+20
 20
-1.000000000000000E+20
 30
-1.000000000000000E+20
  9
$PLIMMIN
 10
0.0
 20
0.0
  9
$PLIMMAX
 10
420.0
 20
297.0
  9
$UNITMODE
 70
     0
  9
$VISRETAIN
 70
     1
  9
$PLINEGEN
 70
     0
  9
$PSLTSCALE
 70
     1
  9
$TREEDEPTH
 70
  3020
  9
$PICKSTYLE
 70
     1
  9
$CMLSTYLE
  2
STANDARD
  9
$CMLJUST
 70
     0
  9
$CMLSCALE
 40
20.0
  9
$PROXYGRAPHICS
 70
     1
  9
$MEASUREMENT
 70
     1
  0
ENDSEC
  0
SECTION
  2
CLASSES
  0
CLASS
  1
ACDBDICTIONARYWDFLT
  2
AcDbDictionaryWithDefault
  3
ObjectDBX Classes
 90
        0
280
     0
281
     0
  0
CLASS
  1
VISUALSTYLE
  2
AcDbVisualStyle
  3
ObjectDBX Classes
 90
     4095
280
     0
281
     0
  0
CLASS
  1
MATERIAL
  2
AcDbMaterial
  3
ObjectDBX Classes
 90
     1153
280
     0
281
     0
  0
CLASS
  1
SUN
  2
AcDbSun
  3
SCENEOE
 90
     1024
280
     0
281
     0
  0
CLASS
  1
DICTIONARYVAR
  2
AcDbDictionaryVar
  3
ObjectDBX Classes
 90
        0
280
     0
281
     0
  0
CLASS
  1
XRECORD
  2
AcDbXrecord
  3
AutoCAD 2000
 90
        0
280
     0
281
     0
  0
CLASS
  1
LWPOLYLINE
  2
AcDbPolyline
  3
AutoCAD 2000
 90
        0
280
     0
281
     1
  0
CLASS
  1
HATCH
  2
AcDbHatch
  3
AutoCAD 2000
 90
        0
280
     0
281
     1
  0
CLASS
  1
ACDBPLACEHOLDER
  2
AcDbPlaceHolder
  3
ObjectDBX Classes
 90
        0
280
     0
281
     0
  0
CLASS
  1
LAYOUT
  2
AcDbLayout
  3
ObjectDBX Classes
 90
        0
280
     0
281
     0
  0
ENDSEC
  0
SECTION
  2
TABLES
  0
TABLE
  2
VPORT
  5
8
330
0
100
AcDbSymbolTable
 70
     1
  0
VPORT
  5
29
330
8
100
AcDbSymbolTableRecord
100
AcDbViewportTableRecord
  2
*ACTIVE
 70
     0
 10
0.0
 20
0.0
 11
1.0
 21
1.0
 12
1505.25
 22
2265.0
 13
0.0
 23
0.0
 14
10.0
 24
10.0
 15
10.0
 25
10.0
 16
0.0
 26
0.0
 36
1.0
 17
0.0
 27
0.0
 37
0.0
 40
4125.0
 41
0.7247272727272729
 42
50.0
 43
0.0
 44
0.0
 50
0.0
 51
0.0
 71
     0
 72
  1000
 73
     1
 74
     3
 75
     0
 76
     0
 77
     0
 78
     0
  0
ENDTAB
  0
TABLE
  2
LTYPE
  5
5
330
0
100
AcDbSymbolTable
 70
     7
  0
LTYPE
  5
14
330
5
100
AcDbSymbolTableRecord
100
AcDbLinetypeTableRecord
  2
BYBLOCK
 70
     0
  3

 72
    65
 73
     0
 40
0.0
  0
LTYPE
  5
15
330
5
100
AcDbSymbolTableRecord
100
AcDbLinetypeTableRecord
  2
BYLAYER
 70
     0
  3

 72
    65
 73
     0
 40
0.0
  0
LTYPE
  5
16
330
5
100
AcDbSymbolTableRecord
100
AcDbLinetypeTableRecord
  2
CONTINUOUS
 70
     0
  3
Solid line
 72
    65
 73
     0
 40
0.0
  0
LTYPE
  5
40
330
5
100
AcDbSymbolTableRecord
100
AcDbLinetypeTableRecord
  2
EXLTYPE1
 70
     0
  3
破線
 72
    65
 73
     2
 40
3.0
 49
2.0
 74
     0
 49
-1.0
 74
     0
  0
LTYPE
  5
41
330
5
100
AcDbSymbolTableRecord
100
AcDbLinetypeTableRecord
  2
EXLTYPE2
 70
     0
  3
点線
 72
    65
 73
     2
 40
2.0
 49
1.0
 74
     0
 49
-1.0
 74
     0
  0
LTYPE
  5
42
330
5
100
AcDbSymbolTableRecord
100
AcDbLinetypeTableRecord
  2
EXLTYPE3
 70
     0
  3
一点鎖線
 72
    65
 73
     4
 40
10.0
 49
7.0
 74
     0
 49
-1.0
 74
     0
 49
1.0
 74
     0
 49
-1.0
 74
     0
  0
LTYPE
  5
43
330
5
100
AcDbSymbolTableRecord
100
AcDbLinetypeTableRecord
  2
EXLTYPE4
 70
     0
  3
二点鎖線
 72
    65
 73
     6
 40
12.0
 49
7.0
 74
     0
 49
-1.0
 74
     0
 49
1.0
 74
     0
 49
-1.0
 74
     0
 49
1.0
 74
     0
 49
-1.0
 74
     0
  0
LTYPE
  5
44
330
5
100
AcDbSymbolTableRecord
100
AcDbLinetypeTableRecord
  2
EXLTYPE5
 70
     0
  3
三点鎖線
 72
    65
 73
     8
 40
37.0
 49
30.0
 74
     0
 49
-1.0
 74
     0
 49
1.0
 74
     0
 49
-1.0
 74
     0
 49
1.0
 74
     0
 49
-1.0
 74
     0
 49
1.0
 74
     0
 49
-1.0
 74
     0
  0
LTYPE
  5
45
330
5
100
AcDbSymbolTableRecord
100
AcDbLinetypeTableRecord
  2
EXLTYPE6
 70
     0
  3
四点鎖線
 72
    65
 73
    10
 40
39.0
 49
30.0
 74
     0
 49
-1.0
 74
     0
 49
1.0
 74
     0
 49
-1.0
 74
     0
 49
1.0
 74
     0
 49
-1.0
 74
     0
 49
1.0
 74
     0
 49
-1.0
 74
     0
 49
1.0
 74
     0
 49
-1.0
 74
     0
  0
ENDTAB
  0
TABLE
  2
LAYER
  5
2
330
0
100
AcDbSymbolTable
 70
     7
  0
LAYER
  5
10
330
2
100
AcDbSymbolTableRecord
100
AcDbLayerTableRecord
  2
0
 70
     0
 62
     7
  6
CONTINUOUS
  0
LAYER
  5
48
330
2
100
AcDbSymbolTableRecord
100
AcDbLayerTableRecord
  2
枠_表
 70
     0
 62
     7
  6
CONTINUOUS
  0
LAYER
  5
49
330
2
100
AcDbSymbolTableRecord
100
AcDbLayerTableRecord
  2
化粧台
 70
     0
 62
     7
  6
CONTINUOUS
  0
LAYER
  5
4A
330
2
100
AcDbSymbolTableRecord
100
AcDbLayerTableRecord
  2
鏡台
 70
     0
 62
     7
  6
CONTINUOUS
  0
LAYER
  5
4B
330
2
100
AcDbSymbolTableRecord
100
AcDbLayerTableRecord
  2
付属金具
 70
     0
 62
     7
  6
CONTINUOUS
  0
LAYER
  5
4C
330
2
100
AcDbSymbolTableRecord
100
AcDbLayerTableRecord
  2
寸法
 70
     0
 62
     7
  6
CONTINUOUS
  0
LAYER
  5
47F
330
2
100
AcDbSymbolTableRecord
100
AcDbLayerTableRecord
  2
DEFPOINTS
 70
     0
 62
     7
  6
CONTINUOUS
  0
ENDTAB
  0
TABLE
  2
STYLE
  5
3
330
0
100
AcDbSymbolTable
 70
     6
  0
STYLE
  5
11
330
3
100
AcDbSymbolTableRecord
100
AcDbTextStyleTableRecord
  2
STANDARD
 70
     0
 40
0.0
 41
1.0
 50
0.0
 71
     0
 42
2.5
  3
monotxt
  4
extfont
  0
STYLE
  5
46
330
3
100
AcDbSymbolTableRecord
100
AcDbTextStyleTableRecord
  2
EXCADSTD
 70
     0
 40
0.0
 41
1.0
 50
0.0
 71
     0
 42
0.2
  3
monotxt
  4
extfont
  0
STYLE
  5
47
330
3
100
AcDbSymbolTableRecord
100
AcDbTextStyleTableRecord
  2
EXCADVERT
 70
     4
 40
0.0
 41
1.0
 50
0.0
 71
     0
 42
0.286885
  3
monotxt
  4
extfont
  0
STYLE
  5
D0
330
3
100
AcDbSymbolTableRecord
100
AcDbTextStyleTableRecord
  2
EXCADTTF1
 70
     0
 40
0.0
 41
1.0
 50
0.0
 71
     0
 42
0.2
  3
MSGOTHIC.TTC
  4

1001
ACAD
1000
MS Gothic
1071
    32817
  0
STYLE
  5
47D
330
3
100
AcDbSymbolTableRecord
100
AcDbTextStyleTableRecord
  2
EXCADDIM1
 70
     0
 40
0.0
 41
0.84
 50
0.0
 71
     0
 42
0.2
  3
monotxt
  4
extfont
  0
STYLE
  5
4B4
330
3
100
AcDbSymbolTableRecord
100
AcDbTextStyleTableRecord
  2
EXCADDIM2
 70
     0
 40
0.0
 41
0.95
 50
0.0
 71
     0
 42
0.2
  3
monotxt
  4
extfont
  0
ENDTAB
  0
TABLE
  2
VIEW
  5
6
330
0
100
AcDbSymbolTable
 70
     0
  0
ENDTAB
  0
TABLE
  2
UCS
  5
7
330
0
100
AcDbSymbolTable
 70
     0
  0
ENDTAB
  0
TABLE
  2
APPID
  5
9
330
0
100
AcDbSymbolTable
 70
     1
  0
APPID
  5
12
330
9
100
AcDbSymbolTableRecord
100
AcDbRegAppTableRecord
  2
ACAD
 70
     0
  0
ENDTAB
  0
TABLE
  2
DIMSTYLE
  5
A
330
0
100
AcDbSymbolTable
 70
     1
  0
DIMSTYLE
105
27
102
{ACAD_REACTORS
330
47E
330
48B
330
498
330
4A7
330
4B5
330
558
330
564
330
570
330
57D
330
59E
330
5AA
330
5B7
330
5C3
330
5DC
330
5E8
330
5F4
330
600
330
62B
102
}
330
A
100
AcDbSymbolTableRecord
100
AcDbDimStyleTableRecord
  2
ISO-25
 70
     0
  3

  4

  5

  6

  7

 40
1.0
 41
2.5
 42
0.625
 43
3.75
 44
1.25
 45
0.0
 46
0.0
 47
0.0
 48
0.0
140
2.5
141
2.5
142
0.0
143
0.03937007874016
144
1.0
145
0.0
146
1.0
147
0.625
 71
     0
 72
     0
 73
     0
 74
     0
 75
     0
 76
     0
 77
     1
 78
     8
170
     0
171
     3
172
     1
173
     0
174
     0
175
     0
176
     0
177
     0
178
     0
270
     2
271
     2
272
     2
273
     2
274
     3
340
11
275
     0
280
     0
281
     0
282
     0
283
     0
284
     8
285
     0
286
     0
287
     5
288
     0
  0
ENDTAB
  0
TABLE
  2
BLOCK_RECORD
  5
1
330
0
100
AcDbSymbolTable
 70
    33
  0
BLOCK_RECORD
  5
1F
330
1
100
AcDbSymbolTableRecord
100
AcDbBlockTableRecord
  2
*MODEL_SPACE
  0
BLOCK_RECORD
  5
1B
330
1
100
AcDbSymbolTableRecord
100
AcDbBlockTableRecord
  2
*PAPER_SPACE
  0
BLOCK_RECORD
  5
4D
330
1
100
AcDbSymbolTableRecord
100
AcDbBlockTableRecord
  2
EX_NORM
  0
BLOCK_RECORD
  5
50
330
1
100
AcDbSymbolTableRecord
100
AcDbBlockTableRecord
  2
EX_BNORM
  0
BLOCK_RECORD
  5
53
330
1
100
AcDbSymbolTableRecord
100
AcDbBlockTableRecord
  2
EX_BCIR
  0
BLOCK_RECORD
  5
56
330
1
100
AcDbSymbolTableRecord
100
AcDbBlockTableRecord
  2
EX_RCIVIL
  0
BLOCK_RECORD
  5
59
330
1
100
AcDbSymbolTableRecord
100
AcDbBlockTableRecord
  2
EX_SLANT
  0
BLOCK_RECORD
  5
5C
330
1
100
AcDbSymbolTableRecord
100
AcDbBlockTableRecord
  2
EX_NONE
  0
BLOCK_RECORD
  5
5F
330
1
100
AcDbSymbolTableRecord
100
AcDbBlockTableRecord
  2
EX_CIVIL
  0
BLOCK_RECORD
  5
62
330
1
100
AcDbSymbolTableRecord
100
AcDbBlockTableRecord
  2
EX_WCIR
  0
BLOCK_RECORD
  5
65
330
1
100
AcDbSymbolTableRecord
100
AcDbBlockTableRecord
  2
EX_WCIR2
  0
BLOCK_RECORD
  5
68
330
1
100
AcDbSymbolTableRecord
100
AcDbBlockTableRecord
  2
EX_WNORM
  0
BLOCK_RECORD
  5
6B
330
1
100
AcDbSymbolTableRecord
100
AcDbBlockTableRecord
  2
EX_NNORM
  0
BLOCK_RECORD
  5
6E
330
1
100
AcDbSymbolTableRecord
100
AcDbBlockTableRecord
  2
EX_BBOX
  0
BLOCK_RECORD
  5
71
330
1
100
AcDbSymbolTableRecord
100
AcDbBlockTableRecord
  2
EX_WBOX
  0
BLOCK_RECORD
  5
74
330
1
100
AcDbSymbolTableRecord
100
AcDbBlockTableRecord
  2
EX_INTEGRAL
  0
BLOCK_RECORD
  5
480
330
1
100
AcDbSymbolTableRecord
100
AcDbBlockTableRecord
  2
*D15
  0
BLOCK_RECORD
  5
48C
330
1
100
AcDbSymbolTableRecord
100
AcDbBlockTableRecord
  2
*D16
  0
BLOCK_RECORD
  5
499
330
1
100
AcDbSymbolTableRecord
100
AcDbBlockTableRecord
  2
*D17
  0
BLOCK_RECORD
  5
4A8
330
1
100
AcDbSymbolTableRecord
100
AcDbBlockTableRecord
  2
*D18
  0
BLOCK_RECORD
  5
4B6
330
1
100
AcDbSymbolTableRecord
100
AcDbBlockTableRecord
  2
*D19
  0
BLOCK_RECORD
  5
559
330
1
100
AcDbSymbolTableRecord
100
AcDbBlockTableRecord
  2
*D20
  0
BLOCK_RECORD
  5
565
330
1
100
AcDbSymbolTableRecord
100
AcDbBlockTableRecord
  2
*D21
  0
BLOCK_RECORD
  5
571
330
1
100
AcDbSymbolTableRecord
100
AcDbBlockTableRecord
  2
*D22
  0
BLOCK_RECORD
  5
57E
330
1
100
AcDbSymbolTableRecord
100
AcDbBlockTableRecord
  2
*D23
  0
BLOCK_RECORD
  5
59F
330
1
100
AcDbSymbolTableRecord
100
AcDbBlockTableRecord
  2
*D24
  0
BLOCK_RECORD
  5
5AB
330
1
100
AcDbSymbolTableRecord
100
AcDbBlockTableRecord
  2
*D25
  0
BLOCK_RECORD
  5
5B8
330
1
100
AcDbSymbolTableRecord
100
AcDbBlockTableRecord
  2
*D26
  0
BLOCK_RECORD
  5
5C4
330
1
100
AcDbSymbolTableRecord
100
AcDbBlockTableRecord
  2
*D27
  0
BLOCK_RECORD
  5
5DD
330
1
100
AcDbSymbolTableRecord
100
AcDbBlockTableRecord
  2
*D28
  0
BLOCK_RECORD
  5
5E9
330
1
100
AcDbSymbolTableRecord
100
AcDbBlockTableRecord
  2
*D29
  0
BLOCK_RECORD
  5
5F5
330
1
100
AcDbSymbolTableRecord
100
AcDbBlockTableRecord
  2
*D30
  0
BLOCK_RECORD
  5
601
330
1
100
AcDbSymbolTableRecord
100
AcDbBlockTableRecord
  2
*D31
  0
BLOCK_RECORD
  5
62C
330
1
100
AcDbSymbolTableRecord
100
AcDbBlockTableRecord
  2
*D32
  0
ENDTAB
  0
ENDSEC
  0
SECTION
  2
BLOCKS
  0
BLOCK
  5
20
330
1F
100
AcDbEntity
  8
0
100
AcDbBlockBegin
  2
*MODEL_SPACE
 70
     0
 10
0.0
 20
0.0
 30
0.0
  3
*MODEL_SPACE
  1

  0
ENDBLK
  5
21
330
1F
100
AcDbEntity
  8
0
100
AcDbBlockEnd
  0
BLOCK
  5
1C
330
1B
100
AcDbEntity
 67
     1
  8
0
100
AcDbBlockBegin
  2
*PAPER_SPACE
 70
     0
 10
0.0
 20
0.0
 30
0.0
  3
*PAPER_SPACE
  1

  0
ENDBLK
  5
1D
330
1B
100
AcDbEntity
 67
     1
  8
0
100
AcDbBlockEnd
  0
BLOCK
  5
4E
330
4D
100
AcDbEntity
  8
0
100
AcDbBlockBegin
  2
EX_NORM
 70
     0
 10
0.0
 20
0.0
 30
0.0
  3
EX_NORM
  1

  0
LINE
  5
77
330
4D
100
AcDbEntity
  8
0
  6
CONTINUOUS
 62
     0
100
AcDbLine
 10
0.0
 20
0.0
 30
0.0
 11
-1.0
 21
0.0
 31
0.0
  0
LINE
  5
78
330
4D
100
AcDbEntity
  8
0
  6
CONTINUOUS
 62
     0
100
AcDbLine
 10
0.0
 20
0.0
 30
0.0
 11
-1.0
 21
0.166666667
 31
0.0
  0
LINE
  5
79
330
4D
100
AcDbEntity
  8
0
  6
CONTINUOUS
 62
     0
100
AcDbLine
 10
0.0
 20
0.0
 30
0.0
 11
-1.0
 21
-0.166666667
 31
0.0
  0
ENDBLK
  5
4F
330
4D
100
AcDbEntity
  8
0
100
AcDbBlockEnd
  0
BLOCK
  5
51
330
50
100
AcDbEntity
  8
0
100
AcDbBlockBegin
  2
EX_BNORM
 70
     0
 10
0.0
 20
0.0
 30
0.0
  3
EX_BNORM
  1

  0
LINE
  5
7A
330
50
100
AcDbEntity
  8
0
  6
CONTINUOUS
 62
     0
100
AcDbLine
 10
0.0
 20
0.0
 30
0.0
 11
-1.0
 21
0.0
 31
0.0
  0
LINE
  5
7B
330
50
100
AcDbEntity
  8
0
  6
CONTINUOUS
 62
     0
100
AcDbLine
 10
0.0
 20
0.0
 30
0.0
 11
-1.0
 21
0.166666667
 31
0.0
  0
LINE
  5
7C
330
50
100
AcDbEntity
  8
0
  6
CONTINUOUS
 62
     0
100
AcDbLine
 10
0.0
 20
0.0
 30
0.0
 11
-1.0
 21
-0.166666667
 31
0.0
  0
LINE
  5
7D
330
50
100
AcDbEntity
  8
0
  6
CONTINUOUS
 62
     0
100
AcDbLine
 10
0.0
 20
0.0
 30
0.0
 11
-1.0
 21
0.083333333
 31
0.0
  0
LINE
  5
7E
330
50
100
AcDbEntity
  8
0
  6
CONTINUOUS
 62
     0
100
AcDbLine
 10
0.0
 20
0.0
 30
0.0
 11
-1.0
 21
-0.083333333
 31
0.0
  0
LINE
  5
7F
330
50
100
AcDbEntity
  8
0
  6
CONTINUOUS
 62
     0
100
AcDbLine
 10
-1.0
 20
0.166666667
 30
0.0
 11
-1.0
 21
-0.166666667
 31
0.0
  0
ENDBLK
  5
52
330
50
100
AcDbEntity
  8
0
100
AcDbBlockEnd
  0
BLOCK
  5
54
330
53
100
AcDbEntity
  8
0
100
AcDbBlockBegin
  2
EX_BCIR
 70
     0
 10
0.0
 20
0.0
 30
0.0
  3
EX_BCIR
  1

  0
LINE
  5
80
330
53
100
AcDbEntity
  8
0
  6
CONTINUOUS
 62
     0
100
AcDbLine
 10
0.0
 20
0.0
 30
0.0
 11
-1.0
 21
0.0
 31
0.0
  0
CIRCLE
  5
81
330
53
100
AcDbEntity
  8
0
  6
CONTINUOUS
 62
     0
100
AcDbCircle
 10
0.0
 20
0.0
 30
0.0
 40
0.5
  0
CIRCLE
  5
82
330
53
100
AcDbEntity
  8
0
  6
CONTINUOUS
 62
     0
100
AcDbCircle
 10
0.0
 20
0.0
 30
0.0
 40
0.25
  0
ENDBLK
  5
55
330
53
100
AcDbEntity
  8
0
100
AcDbBlockEnd
  0
BLOCK
  5
57
330
56
100
AcDbEntity
  8
0
100
AcDbBlockBegin
  2
EX_RCIVIL
 70
     0
 10
0.0
 20
0.0
 30
0.0
  3
EX_RCIVIL
  1

  0
LINE
  5
83
330
56
100
AcDbEntity
  8
0
  6
CONTINUOUS
 62
     0
100
AcDbLine
 10
0.0
 20
0.0
 30
0.0
 11
-1.0
 21
0.0
 31
0.0
  0
LINE
  5
84
330
56
100
AcDbEntity
  8
0
  6
CONTINUOUS
 62
     0
100
AcDbLine
 10
-1.0
 20
-0.25
 30
0.0
 11
0.0
 21
-0.25
 31
0.0
  0
LINE
  5
85
330
56
100
AcDbEntity
  8
0
  6
CONTINUOUS
 62
     0
100
AcDbLine
 10
-1.0
 20
-0.125
 30
0.0
 11
0.0
 21
-0.125
 31
0.0
  0
ENDBLK
  5
58
330
56
100
AcDbEntity
  8
0
100
AcDbBlockEnd
  0
BLOCK
  5
5A
330
59
100
AcDbEntity
  8
0
100
AcDbBlockBegin
  2
EX_SLANT
 70
     0
 10
0.0
 20
0.0
 30
0.0
  3
EX_SLANT
  1

  0
LINE
  5
86
330
59
100
AcDbEntity
  8
0
  6
CONTINUOUS
 62
     0
100
AcDbLine
 10
0.0
 20
0.0
 30
0.0
 11
-1.0
 21
0.0
 31
0.0
  0
LINE
  5
87
330
59
100
AcDbEntity
  8
0
  6
CONTINUOUS
 62
     0
100
AcDbLine
 10
0.707106781
 20
0.707106781
 30
0.0
 11
-0.707106781
 21
-0.707106781
 31
0.0
  0
ENDBLK
  5
5B
330
59
100
AcDbEntity
  8
0
100
AcDbBlockEnd
  0
BLOCK
  5
5D
330
5C
100
AcDbEntity
  8
0
100
AcDbBlockBegin
  2
EX_NONE
 70
     0
 10
0.0
 20
0.0
 30
0.0
  3
EX_NONE
  1

  0
LINE
  5
88
330
5C
100
AcDbEntity
  8
0
  6
CONTINUOUS
 62
     0
100
AcDbLine
 10
0.0
 20
0.0
 30
0.0
 11
-1.0
 21
0.0
 31
0.0
  0
ENDBLK
  5
5E
330
5C
100
AcDbEntity
  8
0
100
AcDbBlockEnd
  0
BLOCK
  5
60
330
5F
100
AcDbEntity
  8
0
100
AcDbBlockBegin
  2
EX_CIVIL
 70
     0
 10
0.0
 20
0.0
 30
0.0
  3
EX_CIVIL
  1

  0
LINE
  5
89
330
5F
100
AcDbEntity
  8
0
  6
CONTINUOUS
 62
     0
100
AcDbLine
 10
0.0
 20
0.0
 30
0.0
 11
-1.0
 21
0.0
 31
0.0
  0
LINE
  5
8A
330
5F
100
AcDbEntity
  8
0
  6
CONTINUOUS
 62
     0
100
AcDbLine
 10
-1.0
 20
0.25
 30
0.0
 11
0.0
 21
0.25
 31
0.0
  0
LINE
  5
8B
330
5F
100
AcDbEntity
  8
0
  6
CONTINUOUS
 62
     0
100
AcDbLine
 10
-1.0
 20
0.125
 30
0.0
 11
0.0
 21
0.125
 31
0.0
  0
ENDBLK
  5
61
330
5F
100
AcDbEntity
  8
0
100
AcDbBlockEnd
  0
BLOCK
  5
63
330
62
100
AcDbEntity
  8
0
100
AcDbBlockBegin
  2
EX_WCIR
 70
     0
 10
0.0
 20
0.0
 30
0.0
  3
EX_WCIR
  1

  0
LINE
  5
8C
330
62
100
AcDbEntity
  8
0
  6
CONTINUOUS
 62
     0
100
AcDbLine
 10
0.0
 20
0.0
 30
0.0
 11
-1.0
 21
0.0
 31
0.0
  0
CIRCLE
  5
8D
330
62
100
AcDbEntity
  8
0
  6
CONTINUOUS
 62
     0
100
AcDbCircle
 10
0.0
 20
0.0
 30
0.0
 40
0.5
  0
ENDBLK
  5
64
330
62
100
AcDbEntity
  8
0
100
AcDbBlockEnd
  0
BLOCK
  5
66
330
65
100
AcDbEntity
  8
0
100
AcDbBlockBegin
  2
EX_WCIR2
 70
     0
 10
0.0
 20
0.0
 30
0.0
  3
EX_WCIR2
  1

  0
LINE
  5
8E
330
65
100
AcDbEntity
  8
0
  6
CONTINUOUS
 62
     0
100
AcDbLine
 10
-0.5
 20
0.0
 30
0.0
 11
-1.0
 21
0.0
 31
0.0
  0
CIRCLE
  5
8F
330
65
100
AcDbEntity
  8
0
  6
CONTINUOUS
 62
     0
100
AcDbCircle
 10
0.0
 20
0.0
 30
0.0
 40
0.5
  0
ENDBLK
  5
67
330
65
100
AcDbEntity
  8
0
100
AcDbBlockEnd
  0
BLOCK
  5
69
330
68
100
AcDbEntity
  8
0
100
AcDbBlockBegin
  2
EX_WNORM
 70
     0
 10
0.0
 20
0.0
 30
0.0
  3
EX_WNORM
  1

  0
LINE
  5
90
330
68
100
AcDbEntity
  8
0
  6
CONTINUOUS
 62
     0
100
AcDbLine
 10
-1.0
 20
0.0
 30
0.0
 11
-1.0
 21
0.0
 31
0.0
  0
LINE
  5
91
330
68
100
AcDbEntity
  8
0
  6
CONTINUOUS
 62
     0
100
AcDbLine
 10
0.0
 20
0.0
 30
0.0
 11
-1.0
 21
0.166666667
 31
0.0
  0
LINE
  5
92
330
68
100
AcDbEntity
  8
0
  6
CONTINUOUS
 62
     0
100
AcDbLine
 10
0.0
 20
0.0
 30
0.0
 11
-1.0
 21
-0.166666667
 31
0.0
  0
LINE
  5
93
330
68
100
AcDbEntity
  8
0
  6
CONTINUOUS
 62
     0
100
AcDbLine
 10
-1.0
 20
0.166666667
 30
0.0
 11
-1.0
 21
-0.166666667
 31
0.0
  0
ENDBLK
  5
6A
330
68
100
AcDbEntity
  8
0
100
AcDbBlockEnd
  0
BLOCK
  5
6C
330
6B
100
AcDbEntity
  8
0
100
AcDbBlockBegin
  2
EX_NNORM
 70
     0
 10
0.0
 20
0.0
 30
0.0
  3
EX_NNORM
  1

  0
LINE
  5
94
330
6B
100
AcDbEntity
  8
0
  6
CONTINUOUS
 62
     0
100
AcDbLine
 10
0.0
 20
0.0
 30
0.0
 11
-1.0
 21
0.0
 31
0.0
  0
LINE
  5
95
330
6B
100
AcDbEntity
  8
0
  6
CONTINUOUS
 62
     0
100
AcDbLine
 10
0.0
 20
0.0
 30
0.0
 11
-1.0
 21
0.166666667
 31
0.0
  0
LINE
  5
96
330
6B
100
AcDbEntity
  8
0
  6
CONTINUOUS
 62
     0
100
AcDbLine
 10
0.0
 20
0.0
 30
0.0
 11
-1.0
 21
-0.166666667
 31
0.0
  0
LINE
  5
97
330
6B
100
AcDbEntity
  8
0
  6
CONTINUOUS
 62
     0
100
AcDbLine
 10
-1.0
 20
0.166666667
 30
0.0
 11
-1.0
 21
-0.166666667
 31
0.0
  0
ENDBLK
  5
6D
330
6B
100
AcDbEntity
  8
0
100
AcDbBlockEnd
  0
BLOCK
  5
6F
330
6E
100
AcDbEntity
  8
0
100
AcDbBlockBegin
  2
EX_BBOX
 70
     0
 10
0.0
 20
0.0
 30
0.0
  3
EX_BBOX
  1

  0
LINE
  5
98
330
6E
100
AcDbEntity
  8
0
  6
CONTINUOUS
 62
     0
100
AcDbLine
 10
0.0
 20
0.0
 30
0.0
 11
-1.0
 21
0.0
 31
0.0
  0
LINE
  5
99
330
6E
100
AcDbEntity
  8
0
  6
CONTINUOUS
 62
     0
100
AcDbLine
 10
-0.5
 20
0.5
 30
0.0
 11
0.5
 21
0.5
 31
0.0
  0
LINE
  5
9A
330
6E
100
AcDbEntity
  8
0
  6
CONTINUOUS
 62
     0
100
AcDbLine
 10
0.5
 20
0.5
 30
0.0
 11
0.5
 21
-0.5
 31
0.0
  0
LINE
  5
9B
330
6E
100
AcDbEntity
  8
0
  6
CONTINUOUS
 62
     0
100
AcDbLine
 10
0.5
 20
-0.5
 30
0.0
 11
-0.5
 21
-0.5
 31
0.0
  0
LINE
  5
9C
330
6E
100
AcDbEntity
  8
0
  6
CONTINUOUS
 62
     0
100
AcDbLine
 10
-0.5
 20
-0.5
 30
0.0
 11
-0.5
 21
0.5
 31
0.0
  0
LINE
  5
9D
330
6E
100
AcDbEntity
  8
0
  6
CONTINUOUS
 62
     0
100
AcDbLine
 10
-0.25
 20
0.25
 30
0.0
 11
0.25
 21
0.25
 31
0.0
  0
LINE
  5
9E
330
6E
100
AcDbEntity
  8
0
  6
CONTINUOUS
 62
     0
100
AcDbLine
 10
0.25
 20
0.25
 30
0.0
 11
0.25
 21
-0.25
 31
0.0
  0
LINE
  5
9F
330
6E
100
AcDbEntity
  8
0
  6
CONTINUOUS
 62
     0
100
AcDbLine
 10
0.25
 20
-0.25
 30
0.0
 11
-0.25
 21
-0.25
 31
0.0
  0
LINE
  5
A0
330
6E
100
AcDbEntity
  8
0
  6
CONTINUOUS
 62
     0
100
AcDbLine
 10
-0.25
 20
-0.25
 30
0.0
 11
-0.25
 21
0.25
 31
0.0
  0
ENDBLK
  5
70
330
6E
100
AcDbEntity
  8
0
100
AcDbBlockEnd
  0
BLOCK
  5
72
330
71
100
AcDbEntity
  8
0
100
AcDbBlockBegin
  2
EX_WBOX
 70
     0
 10
0.0
 20
0.0
 30
0.0
  3
EX_WBOX
  1

  0
LINE
  5
A1
330
71
100
AcDbEntity
  8
0
  6
CONTINUOUS
 62
     0
100
AcDbLine
 10
-0.5
 20
0.0
 30
0.0
 11
-1.0
 21
0.0
 31
0.0
  0
LINE
  5
A2
330
71
100
AcDbEntity
  8
0
  6
CONTINUOUS
 62
     0
100
AcDbLine
 10
-0.5
 20
0.5
 30
0.0
 11
0.5
 21
0.5
 31
0.0
  0
LINE
  5
A3
330
71
100
AcDbEntity
  8
0
  6
CONTINUOUS
 62
     0
100
AcDbLine
 10
0.5
 20
0.5
 30
0.0
 11
0.5
 21
-0.5
 31
0.0
  0
LINE
  5
A4
330
71
100
AcDbEntity
  8
0
  6
CONTINUOUS
 62
     0
100
AcDbLine
 10
0.5
 20
-0.5
 30
0.0
 11
-0.5
 21
-0.5
 31
0.0
  0
LINE
  5
A5
330
71
100
AcDbEntity
  8
0
  6
CONTINUOUS
 62
     0
100
AcDbLine
 10
-0.5
 20
-0.5
 30
0.0
 11
-0.5
 21
0.5
 31
0.0
  0
ENDBLK
  5
73
330
71
100
AcDbEntity
  8
0
100
AcDbBlockEnd
  0
BLOCK
  5
75
330
74
100
AcDbEntity
  8
0
100
AcDbBlockBegin
  2
EX_INTEGRAL
 70
     0
 10
0.0
 20
0.0
 30
0.0
  3
EX_INTEGRAL
  1

  0
LINE
  5
A6
330
74
100
AcDbEntity
  8
0
  6
CONTINUOUS
 62
     0
100
AcDbLine
 10
0.0
 20
0.0
 30
0.0
 11
-1.0
 21
0.0
 31
0.0
  0
ARC
  5
A7
330
74
100
AcDbEntity
  8
0
  6
CONTINUOUS
 62
     0
100
AcDbCircle
 10
0.542115
 20
0.164992
 30
0.0
 40
0.56667
100
AcDbArc
 50
73.07249033629006
 51
196.9275130221199
  0
ARC
  5
A8
330
74
100
AcDbEntity
  8
0
  6
CONTINUOUS
 62
     0
100
AcDbCircle
 10
-0.542115
 20
-0.164992
 30
0.0
 40
0.56667
100
AcDbArc
 50
253.0724869220464
 51
16.9275130559125
  0
ENDBLK
  5
76
330
74
100
AcDbEntity
  8
0
100
AcDbBlockEnd
  0
BLOCK
  5
481
330
480
100
AcDbEntity
  8
0
100
AcDbBlockBegin
  2
*D15
 70
     1
 10
0.0
 20
0.0
 30
0.0
  3
*D15
  1

  0
LINE
  5
483
330
480
100
AcDbEntity
  8
鏡台
  6
CONTINUOUS
 62
     3
100
AcDbLine
 10
2359.50000000005
 20
2852.999999821186
 30
0.0
 11
2359.50000000005
 21
2934.0
 31
0.0
  0
LINE
  5
484
330
480
100
AcDbEntity
  8
鏡台
  6
CONTINUOUS
 62
     3
100
AcDbLine
 10
2404.499996185353
 20
2919.0
 30
0.0
 11
2434.500003814747
 21
2919.0
 31
0.0
  0
INSERT
  5
485
330
480
100
AcDbEntity
  8
鏡台
 62
     3
100
AcDbBlockReference
  2
EX_NORM
 10
2359.50000000005
 20
2919.0
 30
0.0
 41
44.99999618530273
 42
44.99999618530273
 43
44.99999618530273
 50
180.0
  0
INSERT
  5
486
330
480
100
AcDbEntity
  8
鏡台
 62
     3
100
AcDbBlockReference
  2
EX_NORM
 10
2479.50000000005
 20
2919.0
 30
0.0
 41
44.99999618530273
 42
44.99999618530273
 43
44.99999618530273
  0
MTEXT
  5
487
330
480
100
AcDbEntity
  8
鏡台
 62
     2
100
AcDbMText
 10
2419.50000000005
 20
2954.249999910593
 30
0.0
 40
59.99999618530273
 41
0.0
 71
     5
 72
     1
  1
120
  7
EXCADDIM1
  0
POINT
  5
488
330
480
100
AcDbEntity
  8
DEFPOINTS
 62
     0
100
AcDbPoint
 10
2359.50000000005
 20
2842.5
 30
0.0
  0
POINT
  5
489
330
480
100
AcDbEntity
  8
DEFPOINTS
 62
     0
100
AcDbPoint
 10
2479.50000000005
 20
2842.5
 30
0.0
  0
POINT
  5
48A
330
480
100
AcDbEntity
  8
DEFPOINTS
 62
     0
100
AcDbPoint
 10
2479.50000000005
 20
2919.0
 30
0.0
  0
ENDBLK
  5
482
330
480
100
AcDbEntity
  8
0
100
AcDbBlockEnd
  0
BLOCK
  5
48D
330
48C
100
AcDbEntity
  8
0
100
AcDbBlockBegin
  2
*D16
 70
     1
 10
0.0
 20
0.0
 30
0.0
  3
*D16
  1

  0
LINE
  5
48F
330
48C
100
AcDbEntity
  8
鏡台
  6
CONTINUOUS
 62
     3
100
AcDbLine
 10
644.9999999999951
 20
2800.999999821186
 30
0.0
 11
644.9999999999951
 21
3024.0
 31
0.0
  0
LINE
  5
490
330
48C
100
AcDbEntity
  8
鏡台
  6
CONTINUOUS
 62
     3
100
AcDbLine
 10
1194.999999999995
 20
2800.999999821186
 30
0.0
 11
1194.999999999995
 21
3024.0
 31
0.0
  0
LINE
  5
491
330
48C
100
AcDbEntity
  8
鏡台
  6
CONTINUOUS
 62
     3
100
AcDbLine
 10
689.9999961852978
 20
3009.0
 30
0.0
 11
1150.000003814692
 21
3009.0
 31
0.0
  0
INSERT
  5
492
330
48C
100
AcDbEntity
  8
鏡台
 62
     3
100
AcDbBlockReference
  2
EX_NORM
 10
644.9999999999951
 20
3009.0
 30
0.0
 41
44.99999618530273
 42
44.99999618530273
 43
44.99999618530273
 50
180.0
  0
INSERT
  5
493
330
48C
100
AcDbEntity
  8
鏡台
 62
     3
100
AcDbBlockReference
  2
EX_NORM
 10
1194.999999999995
 20
3009.0
 30
0.0
 41
44.99999618530273
 42
44.99999618530273
 43
44.99999618530273
  0
MTEXT
  5
494
330
48C
100
AcDbEntity
  8
鏡台
 62
     2
100
AcDbMText
 10
919.9999999999952
 20
3044.249999910593
 30
0.0
 40
59.99999618530273
 41
0.0
 71
     5
 72
     1
  1
550
  7
EXCADDIM1
  0
POINT
  5
495
330
48C
100
AcDbEntity
  8
DEFPOINTS
 62
     0
100
AcDbPoint
 10
644.9999999999951
 20
2790.5
 30
0.0
  0
POINT
  5
496
330
48C
100
AcDbEntity
  8
DEFPOINTS
 62
     0
100
AcDbPoint
 10
1194.999999999995
 20
2790.5
 30
0.0
  0
POINT
  5
497
330
48C
100
AcDbEntity
  8
DEFPOINTS
 62
     0
100
AcDbPoint
 10
1194.999999999995
 20
3009.0
 30
0.0
  0
ENDBLK
  5
48E
330
48C
100
AcDbEntity
  8
0
100
AcDbBlockEnd
  0
BLOCK
  5
49A
330
499
100
AcDbEntity
  8
0
100
AcDbBlockBegin
  2
*D17
 70
     1
 10
0.0
 20
0.0
 30
0.0
  3
*D17
  1

  0
LINE
  5
49C
330
499
100
AcDbEntity
  8
鏡台
  6
CONTINUOUS
 62
     3
100
AcDbLine
 10
544.9999999999951
 20
2852.999999821186
 30
0.0
 11
544.9999999999951
 21
3114.0
 31
0.0
  0
LINE
  5
49D
330
499
100
AcDbEntity
  8
鏡台
  6
CONTINUOUS
 62
     3
100
AcDbLine
 10
1294.999999999995
 20
2852.999999821186
 30
0.0
 11
1294.999999999995
 21
3114.0
 31
0.0
  0
LINE
  5
49E
330
499
100
AcDbEntity
  8
鏡台
  6
CONTINUOUS
 62
     3
100
AcDbLine
 10
589.9999961852978
 20
3099.0
 30
0.0
 11
1250.000003814692
 21
3099.0
 31
0.0
  0
INSERT
  5
49F
330
499
100
AcDbEntity
  8
鏡台
 62
     3
100
AcDbBlockReference
  2
EX_NORM
 10
544.9999999999951
 20
3099.0
 30
0.0
 41
44.99999618530273
 42
44.99999618530273
 43
44.99999618530273
 50
180.0
  0
INSERT
  5
4A0
330
499
100
AcDbEntity
  8
鏡台
 62
     3
100
AcDbBlockReference
  2
EX_NORM
 10
1294.999999999995
 20
3099.0
 30
0.0
 41
44.99999618530273
 42
44.99999618530273
 43
44.99999618530273
  0
MTEXT
  5
4A1
330
499
100
AcDbEntity
  8
鏡台
 62
     2
100
AcDbMText
 10
919.9999999999952
 20
3134.249999910593
 30
0.0
 40
59.99999618530273
 41
0.0
 71
     5
 72
     1
  1
750
  7
EXCADDIM1
  0
POINT
  5
4A2
330
499
100
AcDbEntity
  8
DEFPOINTS
 62
     0
100
AcDbPoint
 10
544.9999999999951
 20
2842.5
 30
0.0
  0
POINT
  5
4A3
330
499
100
AcDbEntity
  8
DEFPOINTS
 62
     0
100
AcDbPoint
 10
1294.999999999995
 20
2842.5
 30
0.0
  0
POINT
  5
4A4
330
499
100
AcDbEntity
  8
DEFPOINTS
 62
     0
100
AcDbPoint
 10
1294.999999999995
 20
3099.0
 30
0.0
  0
ENDBLK
  5
49B
330
499
100
AcDbEntity
  8
0
100
AcDbBlockEnd
  0
BLOCK
  5
4A9
330
4A8
100
AcDbEntity
  8
0
100
AcDbBlockBegin
  2
*D18
 70
     1
 10
0.0
 20
0.0
 30
0.0
  3
*D18
  1

  0
LINE
  5
4AB
330
4A8
100
AcDbEntity
  8
鏡台
  6
CONTINUOUS
 62
     3
100
AcDbLine
 10
1104.999999999995
 20
2866.076696651786
 30
0.0
 11
1104.999999999995
 21
2934.0
 31
0.0
  0
LINE
  5
4AC
330
4A8
100
AcDbEntity
  8
鏡台
  6
CONTINUOUS
 62
     3
100
AcDbLine
 10
1294.999999999995
 20
2852.999999821186
 30
0.0
 11
1294.999999999995
 21
2934.0
 31
0.0
  0
LINE
  5
4AD
330
4A8
100
AcDbEntity
  8
鏡台
  6
CONTINUOUS
 62
     3
100
AcDbLine
 10
1149.999996185298
 20
2919.0
 30
0.0
 11
1250.000003814692
 21
2919.0
 31
0.0
  0
INSERT
  5
4AE
330
4A8
100
AcDbEntity
  8
鏡台
 62
     3
100
AcDbBlockReference
  2
EX_NORM
 10
1104.999999999995
 20
2919.0
 30
0.0
 41
44.99999618530273
 42
44.99999618530273
 43
44.99999618530273
 50
180.0
  0
INSERT
  5
4AF
330
4A8
100
AcDbEntity
  8
鏡台
 62
     3
100
AcDbBlockReference
  2
EX_NORM
 10
1294.999999999995
 20
2919.0
 30
0.0
 41
44.99999618530273
 42
44.99999618530273
 43
44.99999618530273
  0
MTEXT
  5
4B0
330
4A8
100
AcDbEntity
  8
鏡台
 62
     2
100
AcDbMText
 10
1414.999999999995
 20
2954.249999910593
 30
0.0
 40
59.99999618530273
 41
0.0
 71
     5
 72
     1
  1
190
  7
EXCADDIM1
  0
POINT
  5
4B1
330
4A8
100
AcDbEntity
  8
DEFPOINTS
 62
     0
100
AcDbPoint
 10
1104.999999999995
 20
2855.5766968306
 30
0.0
  0
POINT
  5
4B2
330
4A8
100
AcDbEntity
  8
DEFPOINTS
 62
     0
100
AcDbPoint
 10
1294.999999999995
 20
2842.5
 30
0.0
  0
POINT
  5
4B3
330
4A8
100
AcDbEntity
  8
DEFPOINTS
 62
     0
100
AcDbPoint
 10
1294.999999999995
 20
2919.0
 30
0.0
  0
ENDBLK
  5
4AA
330
4A8
100
AcDbEntity
  8
0
100
AcDbBlockEnd
  0
BLOCK
  5
4B7
330
4B6
100
AcDbEntity
  8
0
100
AcDbBlockBegin
  2
*D19
 70
     1
 10
0.0
 20
0.0
 30
0.0
  3
*D19
  1

  0
LINE
  5
4B9
330
4B6
100
AcDbEntity
  8
鏡台
  6
CONTINUOUS
 62
     3
100
AcDbLine
 10
1302.499999999995
 20
2042.5
 30
0.0
 11
1595.999999999995
 21
2042.5
 31
0.0
  0
LINE
  5
4BA
330
4B6
100
AcDbEntity
  8
鏡台
  6
CONTINUOUS
 62
     3
100
AcDbLine
 10
1580.999999999995
 20
2797.500003814697
 30
0.0
 11
1580.999999999995
 21
2087.499996185303
 31
0.0
  0
INSERT
  5
4BB
330
4B6
100
AcDbEntity
  8
鏡台
 62
     3
100
AcDbBlockReference
  2
EX_NORM
 10
1580.999999999995
 20
2842.5
 30
0.0
 41
44.99999618530273
 42
44.99999618530273
 43
44.99999618530273
 50
90.0
  0
INSERT
  5
4BC
330
4B6
100
AcDbEntity
  8
鏡台
 62
     3
100
AcDbBlockReference
  2
EX_NORM
 10
1580.999999999995
 20
2042.5
 30
0.0
 41
44.99999618530273
 42
44.99999618530273
 43
44.99999618530273
 50
270.0
  0
MTEXT
  5
4BD
330
4B6
100
AcDbEntity
  8
鏡台
 62
     2
100
AcDbMText
 10
1545.750000089403
 20
2442.5
 30
0.0
 40
59.99999618530273
 41
0.0
 71
     5
 72
     1
  1
800
  7
EXCADDIM2
 11
0.0
 21
1.0
 31
0.0
  0
POINT
  5
4BE
330
4B6
100
AcDbEntity
  8
DEFPOINTS
 62
     0
100
AcDbPoint
 10
1294.999999999995
 20
2842.5
 30
0.0
  0
POINT
  5
4BF
330
4B6
100
AcDbEntity
  8
DEFPOINTS
 62
     0
100
AcDbPoint
 10
1294.999999999995
 20
2042.5
 30
0.0
  0
POINT
  5
4C0
330
4B6
100
AcDbEntity
  8
DEFPOINTS
 62
     0
100
AcDbPoint
 10
1580.999999999995
 20
2042.5
 30
0.0
  0
ENDBLK
  5
4B8
330
4B6
100
AcDbEntity
  8
0
100
AcDbBlockEnd
  0
BLOCK
  5
55A
330
559
100
AcDbEntity
  8
0
100
AcDbBlockBegin
  2
*D20
 70
     1
 10
0.0
 20
0.0
 30
0.0
  3
*D20
  1

  0
LINE
  5
55C
330
559
100
AcDbEntity
  8
鏡台
  6
CONTINUOUS
 62
     3
100
AcDbLine
 10
1544.999999821186
 20
942.5
 30
0.0
 11
1596.0
 21
942.5
 31
0.0
  0
LINE
  5
55D
330
559
100
AcDbEntity
  8
鏡台
  6
CONTINUOUS
 62
     3
100
AcDbLine
 10
1581.0
 20
1997.500003814697
 30
0.0
 11
1581.0
 21
987.4999961853027
 31
0.0
  0
INSERT
  5
55E
330
559
100
AcDbEntity
  8
鏡台
 62
     3
100
AcDbBlockReference
  2
EX_NORM
 10
1581.0
 20
2042.5
 30
0.0
 41
44.99999618530273
 42
44.99999618530273
 43
44.99999618530273
 50
90.0
  0
INSERT
  5
55F
330
559
100
AcDbEntity
  8
鏡台
 62
     3
100
AcDbBlockReference
  2
EX_NORM
 10
1581.0
 20
942.5
 30
0.0
 41
44.99999618530273
 42
44.99999618530273
 43
44.99999618530273
 50
270.0
  0
MTEXT
  5
560
330
559
100
AcDbEntity
  8
鏡台
 62
     2
100
AcDbMText
 10
1545.750000089407
 20
1492.5
 30
0.0
 40
59.99999618530273
 41
0.0
 71
     5
 72
     1
  1
1100
  7
EXCADDIM1
 11
0.0
 21
1.0
 31
0.0
  0
POINT
  5
561
330
559
100
AcDbEntity
  8
DEFPOINTS
 62
     0
100
AcDbPoint
 10
1581.0
 20
2042.5
 30
0.0
  0
POINT
  5
562
330
559
100
AcDbEntity
  8
DEFPOINTS
 62
     0
100
AcDbPoint
 10
1534.5
 20
942.5
 30
0.0
  0
POINT
  5
563
330
559
100
AcDbEntity
  8
DEFPOINTS
 62
     0
100
AcDbPoint
 10
1581.0
 20
942.5
 30
0.0
  0
ENDBLK
  5
55B
330
559
100
AcDbEntity
  8
0
100
AcDbBlockEnd
  0
BLOCK
  5
566
330
565
100
AcDbEntity
  8
0
100
AcDbBlockBegin
  2
*D21
 70
     1
 10
0.0
 20
0.0
 30
0.0
  3
*D21
  1

  0
LINE
  5
568
330
565
100
AcDbEntity
  8
鏡台
  6
CONTINUOUS
 62
     3
100
AcDbLine
 10
1689.0
 20
2842.5
 30
0.0
 11
1683.0
 21
2842.5
 31
0.0
  0
LINE
  5
569
330
565
100
AcDbEntity
  8
鏡台
  6
CONTINUOUS
 62
     3
100
AcDbLine
 10
1683.0
 20
2797.500003814697
 30
0.0
 11
1683.0
 21
987.4999961853027
 31
0.0
  0
INSERT
  5
56A
330
565
100
AcDbEntity
  8
鏡台
 62
     3
100
AcDbBlockReference
  2
EX_NORM
 10
1683.0
 20
2842.5
 30
0.0
 41
44.99999618530273
 42
44.99999618530273
 43
44.99999618530273
 50
90.0
  0
INSERT
  5
56B
330
565
100
AcDbEntity
  8
鏡台
 62
     3
100
AcDbBlockReference
  2
EX_NORM
 10
1683.0
 20
942.5
 30
0.0
 41
44.99999618530273
 42
44.99999618530273
 43
44.99999618530273
 50
270.0
  0
MTEXT
  5
56C
330
565
100
AcDbEntity
  8
鏡台
 62
     2
100
AcDbMText
 10
1647.750000089407
 20
1892.5
 30
0.0
 40
59.99999618530273
 41
0.0
 71
     5
 72
     1
  1
1900
  7
EXCADDIM1
 11
1.196703554964379E-16
 21
1.0
 31
0.0
  0
POINT
  5
56D
330
565
100
AcDbEntity
  8
DEFPOINTS
 62
     0
100
AcDbPoint
 10
1689.0
 20
2842.5
 30
0.0
  0
POINT
  5
56E
330
565
100
AcDbEntity
  8
DEFPOINTS
 62
     0
100
AcDbPoint
 10
1683.0
 20
942.5
 30
0.0
  0
POINT
  5
56F
330
565
100
AcDbEntity
  8
DEFPOINTS
 62
     0
100
AcDbPoint
 10
1683.0
 20
942.5
 30
0.0
  0
ENDBLK
  5
567
330
565
100
AcDbEntity
  8
0
100
AcDbBlockEnd
  0
BLOCK
  5
572
330
571
100
AcDbEntity
  8
0
100
AcDbBlockBegin
  2
*D22
 70
     1
 10
0.0
 20
0.0
 30
0.0
  3
*D22
  1

  0
LINE
  5
574
330
571
100
AcDbEntity
  8
鏡台
  6
CONTINUOUS
 62
     3
100
AcDbLine
 10
2500.499999642386
 20
942.5
 30
0.0
 11
2964.0
 21
942.5
 31
0.0
  0
LINE
  5
575
330
571
100
AcDbEntity
  8
鏡台
  6
CONTINUOUS
 62
     3
100
AcDbLine
 10
2522.499999821286
 20
2072.5
 30
0.0
 11
2964.0
 21
2072.5
 31
0.0
  0
LINE
  5
576
330
571
100
AcDbEntity
  8
鏡台
  6
CONTINUOUS
 62
     3
100
AcDbLine
 10
2949.0
 20
987.4999961853027
 30
0.0
 11
2949.0
 21
2027.500003814697
 31
0.0
  0
INSERT
  5
577
330
571
100
AcDbEntity
  8
鏡台
 62
     3
100
AcDbBlockReference
  2
EX_NORM
 10
2949.0
 20
942.5
 30
0.0
 41
44.99999618530273
 42
44.99999618530273
 43
44.99999618530273
 50
270.0
  0
INSERT
  5
578
330
571
100
AcDbEntity
  8
鏡台
 62
     3
100
AcDbBlockReference
  2
EX_NORM
 10
2949.0
 20
2072.5
 30
0.0
 41
44.99999618530273
 42
44.99999618530273
 43
44.99999618530273
 50
90.0
  0
MTEXT
  5
579
330
571
100
AcDbEntity
  8
鏡台
 62
     2
100
AcDbMText
 10
2913.750000089407
 20
1507.5
 30
0.0
 40
59.99999618530273
 41
0.0
 71
     5
 72
     1
  1
1130
  7
EXCADDIM1
 11
0.0
 21
1.0
 31
0.0
  0
POINT
  5
57A
330
571
100
AcDbEntity
  8
DEFPOINTS
 62
     0
100
AcDbPoint
 10
2489.9999998212
 20
942.5
 30
0.0
  0
POINT
  5
57B
330
571
100
AcDbEntity
  8
DEFPOINTS
 62
     0
100
AcDbPoint
 10
2512.0000000001
 20
2072.5
 30
0.0
  0
POINT
  5
57C
330
571
100
AcDbEntity
  8
DEFPOINTS
 62
     0
100
AcDbPoint
 10
2949.0
 20
2072.5
 30
0.0
  0
ENDBLK
  5
573
330
571
100
AcDbEntity
  8
0
100
AcDbBlockEnd
  0
BLOCK
  5
57F
330
57E
100
AcDbEntity
  8
0
100
AcDbBlockBegin
  2
*D23
 70
     1
 10
0.0
 20
0.0
 30
0.0
  3
*D23
  1

  0
LINE
  5
581
330
57E
100
AcDbEntity
  8
鏡台
  6
CONTINUOUS
 62
     3
100
AcDbLine
 10
2522.499999821286
 20
2782.5
 30
0.0
 11
2964.0
 21
2782.5
 31
0.0
  0
LINE
  5
582
330
57E
100
AcDbEntity
  8
鏡台
  6
CONTINUOUS
 62
     3
100
AcDbLine
 10
2949.0
 20
2117.499996185303
 30
0.0
 11
2949.0
 21
2737.500003814697
 31
0.0
  0
INSERT
  5
583
330
57E
100
AcDbEntity
  8
鏡台
 62
     3
100
AcDbBlockReference
  2
EX_NORM
 10
2949.0
 20
2072.5
 30
0.0
 41
44.99999618530273
 42
44.99999618530273
 43
44.99999618530273
 50
270.0
  0
INSERT
  5
584
330
57E
100
AcDbEntity
  8
鏡台
 62
     3
100
AcDbBlockReference
  2
EX_NORM
 10
2949.0
 20
2782.5
 30
0.0
 41
44.99999618530273
 42
44.99999618530273
 43
44.99999618530273
 50
90.0
  0
MTEXT
  5
585
330
57E
100
AcDbEntity
  8
鏡台
 62
     2
100
AcDbMText
 10
2913.750000089407
 20
2427.5
 30
0.0
 40
59.99999618530273
 41
0.0
 71
     5
 72
     1
  1
710（壁固定）
  7
EXCADDIM1
 11
0.0
 21
1.0
 31
0.0
  0
POINT
  5
586
330
57E
100
AcDbEntity
  8
DEFPOINTS
 62
     0
100
AcDbPoint
 10
2949.0
 20
2072.5
 30
0.0
  0
POINT
  5
587
330
57E
100
AcDbEntity
  8
DEFPOINTS
 62
     0
100
AcDbPoint
 10
2512.0000000001
 20
2782.5
 30
0.0
  0
POINT
  5
588
330
57E
100
AcDbEntity
  8
DEFPOINTS
 62
     0
100
AcDbPoint
 10
2949.0
 20
2782.5
 30
0.0
  0
ENDBLK
  5
580
330
57E
100
AcDbEntity
  8
0
100
AcDbBlockEnd
  0
BLOCK
  5
5A0
330
59F
100
AcDbEntity
  8
0
100
AcDbBlockBegin
  2
*D24
 70
     1
 10
0.0
 20
0.0
 30
0.0
  3
*D24
  1

  0
LINE
  5
5A2
330
59F
100
AcDbEntity
  8
寸法
  6
CONTINUOUS
 62
     3
100
AcDbLine
 10
1230.499999821185
 20
3569.5
 30
0.0
 11
1340.999999999997
 21
3569.5
 31
0.0
  0
LINE
  5
5A3
330
59F
100
AcDbEntity
  8
寸法
  6
CONTINUOUS
 62
     3
100
AcDbLine
 10
1325.999999999997
 20
3974.500003814697
 30
0.0
 11
1325.999999999997
 21
3614.499996185303
 31
0.0
  0
INSERT
  5
5A4
330
59F
100
AcDbEntity
  8
寸法
 62
     3
100
AcDbBlockReference
  2
EX_NORM
 10
1325.999999999997
 20
4019.5
 30
0.0
 41
44.99999618530273
 42
44.99999618530273
 43
44.99999618530273
 50
90.0
  0
INSERT
  5
5A5
330
59F
100
AcDbEntity
  8
寸法
 62
     3
100
AcDbBlockReference
  2
EX_NORM
 10
1325.999999999997
 20
3569.5
 30
0.0
 41
44.99999618530273
 42
44.99999618530273
 43
44.99999618530273
 50
270.0
  0
MTEXT
  5
5A6
330
59F
100
AcDbEntity
  8
寸法
 62
     2
100
AcDbMText
 10
1290.750000089404
 20
3794.5
 30
0.0
 40
59.99999618530273
 41
0.0
 71
     5
 72
     1
  1
450
  7
EXCADDIM1
 11
0.0
 21
1.0
 31
0.0
  0
POINT
  5
5A7
330
59F
100
AcDbEntity
  8
DEFPOINTS
 62
     0
100
AcDbPoint
 10
1219.999999999999
 20
4019.5
 30
0.0
  0
POINT
  5
5A8
330
59F
100
AcDbEntity
  8
DEFPOINTS
 62
     0
100
AcDbPoint
 10
1219.999999999999
 20
3569.5
 30
0.0
  0
POINT
  5
5A9
330
59F
100
AcDbEntity
  8
DEFPOINTS
 62
     0
100
AcDbPoint
 10
1325.999999999997
 20
3569.5
 30
0.0
  0
ENDBLK
  5
5A1
330
59F
100
AcDbEntity
  8
0
100
AcDbBlockEnd
  0
BLOCK
  5
5AC
330
5AB
100
AcDbEntity
  8
0
100
AcDbBlockBegin
  2
*D25
 70
     1
 10
0.0
 20
0.0
 30
0.0
  3
*D25
  1

  0
LINE
  5
5AE
330
5AB
100
AcDbEntity
  8
寸法
  6
CONTINUOUS
 62
     3
100
AcDbLine
 10
619.9999999999984
 20
3559.000000178814
 30
0.0
 11
619.9999999999984
 21
3303.0
 31
0.0
  0
LINE
  5
5AF
330
5AB
100
AcDbEntity
  8
寸法
  6
CONTINUOUS
 62
     3
100
AcDbLine
 10
1219.999999999997
 20
3559.000000178814
 30
0.0
 11
1219.999999999997
 21
3303.0
 31
0.0
  0
LINE
  5
5B0
330
5AB
100
AcDbEntity
  8
寸法
  6
CONTINUOUS
 62
     3
100
AcDbLine
 10
664.9999961853011
 20
3318.0
 30
0.0
 11
1175.000003814695
 21
3318.0
 31
0.0
  0
INSERT
  5
5B1
330
5AB
100
AcDbEntity
  8
寸法
 62
     3
100
AcDbBlockReference
  2
EX_NORM
 10
619.9999999999984
 20
3318.0
 30
0.0
 41
44.99999618530273
 42
44.99999618530273
 43
44.99999618530273
 50
180.0
  0
INSERT
  5
5B2
330
5AB
100
AcDbEntity
  8
寸法
 62
     3
100
AcDbBlockReference
  2
EX_NORM
 10
1219.999999999997
 20
3318.0
 30
0.0
 41
44.99999618530273
 42
44.99999618530273
 43
44.99999618530273
  0
MTEXT
  5
5B3
330
5AB
100
AcDbEntity
  8
寸法
 62
     2
100
AcDbMText
 10
919.9999999999981
 20
3353.249999910593
 30
0.0
 40
59.99999618530273
 41
0.0
 71
     5
 72
     1
  1
600
  7
EXCADDIM1
  0
POINT
  5
5B4
330
5AB
100
AcDbEntity
  8
DEFPOINTS
 62
     0
100
AcDbPoint
 10
619.9999999999984
 20
3569.5
 30
0.0
  0
POINT
  5
5B5
330
5AB
100
AcDbEntity
  8
DEFPOINTS
 62
     0
100
AcDbPoint
 10
1219.999999999997
 20
3569.5
 30
0.0
  0
POINT
  5
5B6
330
5AB
100
AcDbEntity
  8
DEFPOINTS
 62
     0
100
AcDbPoint
 10
1219.999999999997
 20
3318.0
 30
0.0
  0
ENDBLK
  5
5AD
330
5AB
100
AcDbEntity
  8
0
100
AcDbBlockEnd
  0
BLOCK
  5
5B9
330
5B8
100
AcDbEntity
  8
0
100
AcDbBlockBegin
  2
*D26
 70
     1
 10
0.0
 20
0.0
 30
0.0
  3
*D26
  1

  0
LINE
  5
5BB
330
5B8
100
AcDbEntity
  8
寸法
  6
CONTINUOUS
 62
     3
100
AcDbLine
 10
930.4999998211845
 20
3539.5
 30
0.0
 11
1430.999999999997
 21
3539.5
 31
0.0
  0
LINE
  5
5BC
330
5B8
100
AcDbEntity
  8
寸法
  6
CONTINUOUS
 62
     3
100
AcDbLine
 10
1415.999999999997
 20
3584.499996185303
 30
0.0
 11
1415.999999999997
 21
3974.500003814697
 31
0.0
  0
INSERT
  5
5BD
330
5B8
100
AcDbEntity
  8
寸法
 62
     3
100
AcDbBlockReference
  2
EX_NORM
 10
1415.999999999997
 20
3539.5
 30
0.0
 41
44.99999618530273
 42
44.99999618530273
 43
44.99999618530273
 50
270.0
  0
INSERT
  5
5BE
330
5B8
100
AcDbEntity
  8
寸法
 62
     3
100
AcDbBlockReference
  2
EX_NORM
 10
1415.999999999997
 20
4019.5
 30
0.0
 41
44.99999618530273
 42
44.99999618530273
 43
44.99999618530273
 50
90.0
  0
MTEXT
  5
5BF
330
5B8
100
AcDbEntity
  8
寸法
 62
     2
100
AcDbMText
 10
1380.750000089405
 20
3779.499999999999
 30
0.0
 40
59.99999618530273
 41
0.0
 71
     5
 72
     1
  1
480
  7
EXCADDIM1
 11
0.0
 21
1.0
 31
0.0
  0
POINT
  5
5C0
330
5B8
100
AcDbEntity
  8
DEFPOINTS
 62
     0
100
AcDbPoint
 10
919.9999999999984
 20
3539.5
 30
0.0
  0
POINT
  5
5C1
330
5B8
100
AcDbEntity
  8
DEFPOINTS
 62
     0
100
AcDbPoint
 10
1219.999999999997
 20
4019.5
 30
0.0
  0
POINT
  5
5C2
330
5B8
100
AcDbEntity
  8
DEFPOINTS
 62
     0
100
AcDbPoint
 10
1415.999999999997
 20
4019.5
 30
0.0
  0
ENDBLK
  5
5BA
330
5B8
100
AcDbEntity
  8
0
100
AcDbBlockEnd
  0
BLOCK
  5
5C5
330
5C4
100
AcDbEntity
  8
0
100
AcDbBlockBegin
  2
*D27
 70
     1
 10
0.0
 20
0.0
 30
0.0
  3
*D27
  1

  0
LINE
  5
5C7
330
5C4
100
AcDbEntity
  8
寸法
  6
CONTINUOUS
 62
     3
100
AcDbLine
 10
694.9999999999984
 20
3754.000000178814
 30
0.0
 11
694.9999999999984
 21
3393.0
 31
0.0
  0
LINE
  5
5C8
330
5C4
100
AcDbEntity
  8
寸法
  6
CONTINUOUS
 62
     3
100
AcDbLine
 10
1144.999999999997
 20
3754.000000178814
 30
0.0
 11
1144.999999999997
 21
3393.0
 31
0.0
  0
LINE
  5
5C9
330
5C4
100
AcDbEntity
  8
寸法
  6
CONTINUOUS
 62
     3
100
AcDbLine
 10
739.9999961853011
 20
3408.0
 30
0.0
 11
1100.000003814695
 21
3408.0
 31
0.0
  0
INSERT
  5
5CA
330
5C4
100
AcDbEntity
  8
寸法
 62
     3
100
AcDbBlockReference
  2
EX_NORM
 10
694.9999999999984
 20
3408.0
 30
0.0
 41
44.99999618530273
 42
44.99999618530273
 43
44.99999618530273
 50
180.0
  0
INSERT
  5
5CB
330
5C4
100
AcDbEntity
  8
寸法
 62
     3
100
AcDbBlockReference
  2
EX_NORM
 10
1144.999999999997
 20
3408.0
 30
0.0
 41
44.99999618530273
 42
44.99999618530273
 43
44.99999618530273
  0
MTEXT
  5
5CC
330
5C4
100
AcDbEntity
  8
寸法
 62
     2
100
AcDbMText
 10
919.9999999999981
 20
3443.249999910593
 30
0.0
 40
59.99999618530273
 41
0.0
 71
     5
 72
     1
  1
%%c450
  7
EXCADDIM1
  0
POINT
  5
5CD
330
5C4
100
AcDbEntity
  8
DEFPOINTS
 62
     0
100
AcDbPoint
 10
694.9999999999984
 20
3764.5
 30
0.0
  0
POINT
  5
5CE
330
5C4
100
AcDbEntity
  8
DEFPOINTS
 62
     0
100
AcDbPoint
 10
1144.999999999997
 20
3764.5
 30
0.0
  0
POINT
  5
5CF
330
5C4
100
AcDbEntity
  8
DEFPOINTS
 62
     0
100
AcDbPoint
 10
1144.999999999997
 20
3408.0
 30
0.0
  0
ENDBLK
  5
5C6
330
5C4
100
AcDbEntity
  8
0
100
AcDbBlockEnd
  0
BLOCK
  5
5DE
330
5DD
100
AcDbEntity
  8
0
100
AcDbBlockBegin
  2
*D28
 70
     1
 10
0.0
 20
0.0
 30
0.0
  3
*D28
  1

  0
LINE
  5
5E0
330
5DD
100
AcDbEntity
  8
寸法
  6
CONTINUOUS
 62
     3
100
AcDbLine
 10
1230.499999821183
 20
1641.5
 30
0.0
 11
1349.999999999997
 21
1641.5
 31
0.0
  0
LINE
  5
5E1
330
5DD
100
AcDbEntity
  8
寸法
  6
CONTINUOUS
 62
     3
100
AcDbLine
 10
1334.999999999997
 20
987.4999961853028
 30
0.0
 11
1334.999999999997
 21
1596.500003814697
 31
0.0
  0
INSERT
  5
5E2
330
5DD
100
AcDbEntity
  8
寸法
 62
     3
100
AcDbBlockReference
  2
EX_NORM
 10
1334.999999999997
 20
942.5000000000001
 30
0.0
 41
44.99999618530273
 42
44.99999618530273
 43
44.99999618530273
 50
270.0
  0
INSERT
  5
5E3
330
5DD
100
AcDbEntity
  8
寸法
 62
     3
100
AcDbBlockReference
  2
EX_NORM
 10
1334.999999999997
 20
1641.5
 30
0.0
 41
44.99999618530273
 42
44.99999618530273
 43
44.99999618530273
 50
90.0
  0
MTEXT
  5
5E4
330
5DD
100
AcDbEntity
  8
寸法
 62
     2
100
AcDbMText
 10
1299.750000089404
 20
1292.0
 30
0.0
 40
59.99999618530273
 41
0.0
 71
     5
 72
     1
  1
699
  7
EXCADDIM1
 11
0.0
 21
1.0
 31
0.0
  0
POINT
  5
5E5
330
5DD
100
AcDbEntity
  8
DEFPOINTS
 62
     0
100
AcDbPoint
 10
1217.999999999997
 20
942.5
 30
0.0
  0
POINT
  5
5E6
330
5DD
100
AcDbEntity
  8
DEFPOINTS
 62
     0
100
AcDbPoint
 10
1219.999999999997
 20
1641.5
 30
0.0
  0
POINT
  5
5E7
330
5DD
100
AcDbEntity
  8
DEFPOINTS
 62
     0
100
AcDbPoint
 10
1334.999999999997
 20
1641.5
 30
0.0
  0
ENDBLK
  5
5DF
330
5DD
100
AcDbEntity
  8
0
100
AcDbBlockEnd
  0
BLOCK
  5
5EA
330
5E9
100
AcDbEntity
  8
0
100
AcDbBlockBegin
  2
*D29
 70
     1
 10
0.0
 20
0.0
 30
0.0
  3
*D29
  1

  0
LINE
  5
5EC
330
5E9
100
AcDbEntity
  8
寸法
  6
CONTINUOUS
 62
     3
100
AcDbLine
 10
947.7000004053098
 20
1811.5
 30
0.0
 11
1439.999999999997
 21
1811.5
 31
0.0
  0
LINE
  5
5ED
330
5E9
100
AcDbEntity
  8
寸法
  6
CONTINUOUS
 62
     3
100
AcDbLine
 10
1424.999999999997
 20
987.4999961853028
 30
0.0
 11
1424.999999999997
 21
1766.500003814697
 31
0.0
  0
INSERT
  5
5EE
330
5E9
100
AcDbEntity
  8
寸法
 62
     3
100
AcDbBlockReference
  2
EX_NORM
 10
1424.999999999997
 20
942.5000000000001
 30
0.0
 41
44.99999618530273
 42
44.99999618530273
 43
44.99999618530273
 50
270.0
  0
INSERT
  5
5EF
330
5E9
100
AcDbEntity
  8
寸法
 62
     3
100
AcDbBlockReference
  2
EX_NORM
 10
1424.999999999997
 20
1811.5
 30
0.0
 41
44.99999618530273
 42
44.99999618530273
 43
44.99999618530273
 50
90.0
  0
MTEXT
  5
5F0
330
5E9
100
AcDbEntity
  8
寸法
 62
     2
100
AcDbMText
 10
1389.750000089404
 20
1377.0
 30
0.0
 40
59.99999618530273
 41
0.0
 71
     5
 72
     1
  1
869
  7
EXCADDIM1
 11
0.0
 21
1.0
 31
0.0
  0
POINT
  5
5F1
330
5E9
100
AcDbEntity
  8
DEFPOINTS
 62
     0
100
AcDbPoint
 10
1217.999999999997
 20
942.5
 30
0.0
  0
POINT
  5
5F2
330
5E9
100
AcDbEntity
  8
DEFPOINTS
 62
     0
100
AcDbPoint
 10
919.9999999999982
 20
1811.5
 30
0.0
  0
POINT
  5
5F3
330
5E9
100
AcDbEntity
  8
DEFPOINTS
 62
     0
100
AcDbPoint
 10
1424.999999999997
 20
1811.5
 30
0.0
  0
ENDBLK
  5
5EB
330
5E9
100
AcDbEntity
  8
0
100
AcDbBlockEnd
  0
BLOCK
  5
5F6
330
5F5
100
AcDbEntity
  8
0
100
AcDbBlockBegin
  2
*D30
 70
     1
 10
0.0
 20
0.0
 30
0.0
  3
*D30
  1

  0
LINE
  5
5F8
330
5F5
100
AcDbEntity
  8
寸法
  6
CONTINUOUS
 62
     3
100
AcDbLine
 10
2495.0
 20
1382.5
 30
0.0
 11
2661.0
 21
1382.5
 31
0.0
  0
LINE
  5
5F9
330
5F5
100
AcDbEntity
  8
寸法
  6
CONTINUOUS
 62
     3
100
AcDbLine
 10
2646.0
 20
1337.500003814697
 30
0.0
 11
2646.0
 21
987.4999961853027
 31
0.0
  0
INSERT
  5
5FA
330
5F5
100
AcDbEntity
  8
寸法
 62
     3
100
AcDbBlockReference
  2
EX_NORM
 10
2646.0
 20
1382.5
 30
0.0
 41
44.99999618530273
 42
44.99999618530273
 43
44.99999618530273
 50
90.0
  0
INSERT
  5
5FB
330
5F5
100
AcDbEntity
  8
寸法
 62
     3
100
AcDbBlockReference
  2
EX_NORM
 10
2646.0
 20
942.5
 30
0.0
 41
44.99999618530273
 42
44.99999618530273
 43
44.99999618530273
 50
270.0
  0
MTEXT
  5
5FC
330
5F5
100
AcDbEntity
  8
寸法
 62
     2
100
AcDbMText
 10
2610.750000089407
 20
1162.5
 30
0.0
 40
59.99999618530273
 41
0.0
 71
     5
 72
     1
  1
440（壁給水）
  7
EXCADDIM1
 11
0.0
 21
1.0
 31
0.0
  0
POINT
  5
5FD
330
5F5
100
AcDbEntity
  8
DEFPOINTS
 62
     0
100
AcDbPoint
 10
2487.5
 20
1382.5
 30
0.0
  0
POINT
  5
5FE
330
5F5
100
AcDbEntity
  8
DEFPOINTS
 62
     0
100
AcDbPoint
 10
2646.0
 20
942.5
 30
0.0
  0
POINT
  5
5FF
330
5F5
100
AcDbEntity
  8
DEFPOINTS
 62
     0
100
AcDbPoint
 10
2646.0
 20
942.5
 30
0.0
  0
ENDBLK
  5
5F7
330
5F5
100
AcDbEntity
  8
0
100
AcDbBlockEnd
  0
BLOCK
  5
602
330
601
100
AcDbEntity
  8
0
100
AcDbBlockBegin
  2
*D31
 70
     1
 10
0.0
 20
0.0
 30
0.0
  3
*D31
  1

  0
LINE
  5
604
330
601
100
AcDbEntity
  8
寸法
  6
CONTINUOUS
 62
     3
100
AcDbLine
 10
2524.049999999999
 20
1412.5
 30
0.0
 11
2751.0
 21
1412.5
 31
0.0
  0
LINE
  5
605
330
601
100
AcDbEntity
  8
寸法
  6
CONTINUOUS
 62
     3
100
AcDbLine
 10
2736.0
 20
1367.500003814697
 30
0.0
 11
2736.0
 21
987.4999961853027
 31
0.0
  0
INSERT
  5
606
330
601
100
AcDbEntity
  8
寸法
 62
     3
100
AcDbBlockReference
  2
EX_NORM
 10
2736.0
 20
1412.5
 30
0.0
 41
44.99999618530273
 42
44.99999618530273
 43
44.99999618530273
 50
90.0
  0
INSERT
  5
607
330
601
100
AcDbEntity
  8
寸法
 62
     3
100
AcDbBlockReference
  2
EX_NORM
 10
2736.0
 20
942.5
 30
0.0
 41
44.99999618530273
 42
44.99999618530273
 43
44.99999618530273
 50
270.0
  0
MTEXT
  5
608
330
601
100
AcDbEntity
  8
寸法
 62
     2
100
AcDbMText
 10
2700.750000089407
 20
1177.5
 30
0.0
 40
59.99999618530273
 41
0.0
 71
     5
 72
     1
  1
470（壁排水）
  7
EXCADDIM1
 11
0.0
 21
1.0
 31
0.0
  0
POINT
  5
609
330
601
100
AcDbEntity
  8
DEFPOINTS
 62
     0
100
AcDbPoint
 10
2516.549999999999
 20
1412.5
 30
0.0
  0
POINT
  5
60A
330
601
100
AcDbEntity
  8
DEFPOINTS
 62
     0
100
AcDbPoint
 10
2646.0
 20
942.5
 30
0.0
  0
POINT
  5
60B
330
601
100
AcDbEntity
  8
DEFPOINTS
 62
     0
100
AcDbPoint
 10
2736.0
 20
942.5
 30
0.0
  0
ENDBLK
  5
603
330
601
100
AcDbEntity
  8
0
100
AcDbBlockEnd
  0
BLOCK
  5
62D
330
62C
100
AcDbEntity
  8
0
100
AcDbBlockBegin
  2
*D32
 70
     1
 10
0.0
 20
0.0
 30
0.0
  3
*D32
  1

  0
LINE
  5
62F
330
62C
100
AcDbEntity
  8
寸法
  6
CONTINUOUS
 62
     3
100
AcDbLine
 10
2054.499999999999
 20
932.0000001788139
 30
0.0
 11
2054.499999999999
 21
598.5
 31
0.0
  0
LINE
  5
630
330
62C
100
AcDbEntity
  8
寸法
  6
CONTINUOUS
 62
     3
100
AcDbLine
 10
2479.499999999999
 20
932.0000001788139
 30
0.0
 11
2479.499999999999
 21
598.5
 31
0.0
  0
LINE
  5
631
330
62C
100
AcDbEntity
  8
寸法
  6
CONTINUOUS
 62
     3
100
AcDbLine
 10
2099.499996185301
 20
613.5
 30
0.0
 11
2434.500003814696
 21
613.5
 31
0.0
  0
INSERT
  5
632
330
62C
100
AcDbEntity
  8
寸法
 62
     3
100
AcDbBlockReference
  2
EX_NORM
 10
2054.499999999999
 20
613.5
 30
0.0
 41
44.99999618530273
 42
44.99999618530273
 43
44.99999618530273
 50
180.0
  0
INSERT
  5
633
330
62C
100
AcDbEntity
  8
寸法
 62
     3
100
AcDbBlockReference
  2
EX_NORM
 10
2479.499999999999
 20
613.5
 30
0.0
 41
44.99999618530273
 42
44.99999618530273
 43
44.99999618530273
  0
MTEXT
  5
634
330
62C
100
AcDbEntity
  8
寸法
 62
     2
100
AcDbMText
 10
2266.999999999999
 20
648.749999910593
 30
0.0
 40
59.99999618530273
 41
0.0
 71
     5
 72
     1
  1
425
  7
EXCADDIM1
  0
POINT
  5
635
330
62C
100
AcDbEntity
  8
DEFPOINTS
 62
     0
100
AcDbPoint
 10
2054.499999999999
 20
942.5
 30
0.0
  0
POINT
  5
636
330
62C
100
AcDbEntity
  8
DEFPOINTS
 62
     0
100
AcDbPoint
 10
2479.499999999999
 20
942.5
 30
0.0
  0
POINT
  5
637
330
62C
100
AcDbEntity
  8
DEFPOINTS
 62
     0
100
AcDbPoint
 10
2479.499999999999
 20
613.5
 30
0.0
  0
ENDBLK
  5
62E
330
62C
100
AcDbEntity
  8
0
100
AcDbBlockEnd
  0
ENDSEC
  0
SECTION
  2
ENTITIES
  0
LINE
  5
A9
330
1F
100
AcDbEntity
  8
枠_表
  6
CONTINUOUS
 62
     7
100
AcDbLine
 10
17.99999999999999
 20
13.5
 30
0.0
 11
200.0
 21
13.5
 31
0.0
  0
LINE
  5
AA
330
1F
100
AcDbEntity
  8
枠_表
  6
CONTINUOUS
 62
     7
100
AcDbLine
 10
200.0
 20
13.5
 30
0.0
 11
200.0
 21
288.5
 31
0.0
  0
LINE
  5
AB
330
1F
100
AcDbEntity
  8
枠_表
  6
CONTINUOUS
 62
     7
100
AcDbLine
 10
17.99999999999999
 20
13.5
 30
0.0
 11
17.99999999999999
 21
288.5
 31
0.0
  0
LINE
  5
AC
330
1F
100
AcDbEntity
  8
枠_表
  6
CONTINUOUS
 62
     7
100
AcDbLine
 10
17.99999999999999
 20
288.5
 30
0.0
 11
200.0
 21
288.5
 31
0.0
  0
LINE
  5
AD
330
1F
100
AcDbEntity
  8
枠_表
  6
CONTINUOUS
 62
     7
100
AcDbLine
 10
17.99999999999999
 20
35.5
 30
0.0
 11
200.0
 21
35.5
 31
0.0
  0
LINE
  5
AE
330
1F
100
AcDbEntity
  8
枠_表
  6
CONTINUOUS
 62
     6
100
AcDbLine
 10
200.0
 20
23.5
 30
0.0
 11
74.99999999999984
 21
23.5
 31
0.0
  0
LINE
  5
AF
330
1F
100
AcDbEntity
  8
枠_表
  6
CONTINUOUS
 62
     6
100
AcDbLine
 10
186.0
 20
35.5
 30
0.0
 11
186.0
 21
23.5
 31
0.0
  0
LINE
  5
B0
330
1F
100
AcDbEntity
  8
枠_表
  6
CONTINUOUS
 62
     6
100
AcDbLine
 10
181.0
 20
35.5
 30
0.0
 11
181.0
 21
23.5
 31
0.0
  0
LINE
  5
B1
330
1F
100
AcDbEntity
  8
枠_表
  6
CONTINUOUS
 62
     6
100
AcDbLine
 10
143.9999999999999
 20
35.5
 30
0.0
 11
143.9999999999999
 21
13.5
 31
0.0
  0
LINE
  5
B2
330
1F
100
AcDbEntity
  8
枠_表
  6
CONTINUOUS
 62
     6
100
AcDbLine
 10
138.9999999999999
 20
35.5
 30
0.0
 11
138.9999999999999
 21
13.5
 31
0.0
  0
LINE
  5
B3
330
1F
100
AcDbEntity
  8
枠_表
  6
CONTINUOUS
 62
     6
100
AcDbLine
 10
79.99999999999984
 20
35.5
 30
0.0
 11
79.99999999999984
 21
23.5
 31
0.0
  0
LINE
  5
B4
330
1F
100
AcDbEntity
  8
枠_表
  6
CONTINUOUS
 62
     6
100
AcDbLine
 10
74.99999999999984
 20
35.5
 30
0.0
 11
74.99999999999984
 21
13.5
 31
0.0
  0
LINE
  5
B5
330
1F
100
AcDbEntity
  8
枠_表
  6
CONTINUOUS
 62
     6
100
AcDbLine
 10
61.99999999999984
 20
35.5
 30
0.0
 11
61.99999999999984
 21
13.5
 31
0.0
  0
LINE
  5
B6
330
1F
100
AcDbEntity
  8
枠_表
  6
CONTINUOUS
 62
     6
100
AcDbLine
 10
48.99999999999984
 20
35.5
 30
0.0
 11
48.99999999999984
 21
13.5
 31
0.0
  0
LINE
  5
B7
330
1F
100
AcDbEntity
  8
枠_表
  6
CONTINUOUS
 62
     6
100
AcDbLine
 10
33.4999999999999
 20
35.5
 30
0.0
 11
33.4999999999999
 21
13.5
 31
0.0
  0
LINE
  5
B8
330
1F
100
AcDbEntity
  8
枠_表
  6
CONTINUOUS
 62
     6
100
AcDbLine
 10
17.99999999999999
 20
30.5
 30
0.0
 11
74.99999999999984
 21
30.5
 31
0.0
  0
LINE
  5
B9
330
1F
100
AcDbEntity
  8
枠_表
  6
CONTINUOUS
 62
     6
100
AcDbLine
 10
189.2653808599999
 20
25.80029296999999
 30
0.0
 11
196.99938965
 21
33.66998290999999
 31
0.0
  0
CIRCLE
  5
BA
330
1F
100
AcDbEntity
  8
枠_表
  6
CONTINUOUS
 62
     6
100
AcDbCircle
 10
22.99999999999999
 20
16.0
 30
0.0
 40
0.10000002
  0
CIRCLE
  5
BB
330
1F
100
AcDbEntity
  8
枠_表
  6
CONTINUOUS
 62
     6
100
AcDbCircle
 10
27.99999999999999
 20
16.0
 30
0.0
 40
0.10000002
  0
CIRCLE
  5
BC
330
1F
100
AcDbEntity
  8
枠_表
  6
CONTINUOUS
 62
     6
100
AcDbCircle
 10
38.4999999999999
 20
16.0
 30
0.0
 40
0.10000002
  0
CIRCLE
  5
BD
330
1F
100
AcDbEntity
  8
枠_表
  6
CONTINUOUS
 62
     6
100
AcDbCircle
 10
43.4999999999999
 20
16.0
 30
0.0
 40
0.10000002
  0
LINE
  5
BE
330
1F
100
AcDbEntity
  8
枠_表
  6
EXLTYPE2
 62
     6
100
AcDbLine
 10
17.99999999999999
 20
18.5
 30
0.0
 11
48.99999999999984
 21
18.5
 31
0.0
  0
TEXT
  5
BF
330
1F
100
AcDbEntity
  8
枠_表
  6
CONTINUOUS
 62
     2
100
AcDbText
 10
189.05371094
 20
30.27227783000001
 30
0.0
 40
3.0
  1
１
 41
1.101333351135257
  7
EXCADSTD
 72
     5
 11
191.413710978147
 21
30.27227783000001
 31
0.0
100
AcDbText
  0
TEXT
  5
C0
330
1F
100
AcDbEntity
  8
枠_表
  6
CONTINUOUS
 62
     2
100
AcDbText
 10
193.12792969
 20
25.83488463999998
 30
0.0
 40
3.0
  1
１５
 41
1.098531230663534
  7
EXCADSTD
 72
     5
 11
198.3067197774138
 21
25.83488463999998
 31
0.0
100
AcDbText
  0
TEXT
  5
C1
330
1F
100
AcDbEntity
  8
枠_表
  6
CONTINUOUS
 62
     2
100
AcDbText
 10
20.24999999999999
 20
30.875
 30
0.0
 40
4.25
  1
製図
 41
1.509694117647059
  7
EXCADSTD
 72
     5
 11
30.33259999999999
 21
30.875
 31
0.0
100
AcDbText
  0
TEXT
  5
C2
330
1F
100
AcDbEntity
  8
枠_表
  6
CONTINUOUS
 62
     2
100
AcDbText
 10
35.7499999999999
 20
30.875
 30
0.0
 40
4.25
  1
写図
 41
1.509694117647059
  7
EXCADSTD
 72
     5
 11
45.8325999999999
 21
30.875
 31
0.0
100
AcDbText
  0
TEXT
  5
C3
330
1F
100
AcDbEntity
  8
枠_表
  6
CONTINUOUS
 62
     2
100
AcDbText
 10
50.74999999999984
 20
30.875
 30
0.0
 40
4.25
  1
検図
 41
1.303826737967915
  7
EXCADSTD
 72
     5
 11
59.45769999999985
 21
30.875
 31
0.0
100
AcDbText
  0
TEXT
  5
C4
330
1F
100
AcDbEntity
  8
枠_表
  6
CONTINUOUS
 62
     2
100
AcDbText
 10
63.74999999999984
 20
30.875
 30
0.0
 40
4.25
  1
承認
 41
1.303826737967915
  7
EXCADSTD
 72
     5
 11
72.45769999999985
 21
30.875
 31
0.0
100
AcDbText
  0
TEXT
  5
C5
330
1F
100
AcDbEntity
  8
枠_表
  6
CONTINUOUS
 62
     2
100
AcDbText
 10
75.57499999999983
 20
29.875
 30
0.0
 40
4.25
  1
品
 41
1.120000000000002
  7
EXCADSTD
 72
     5
 11
78.97499999999984
 21
29.875
 31
0.0
100
AcDbText
  0
TEXT
  5
C6
330
1F
100
AcDbEntity
  8
枠_表
  6
CONTINUOUS
 62
     2
100
AcDbText
 10
75.57499999999983
 20
24.875
 30
0.0
 40
4.25
  1
名
 41
1.120000000000002
  7
EXCADSTD
 72
     5
 11
78.97499999999984
 21
24.875
 31
0.0
100
AcDbText
  0
TEXT
  5
C7
330
1F
100
AcDbEntity
  8
枠_表
  6
CONTINUOUS
 62
     2
100
AcDbText
 10
139.5749999999998
 20
29.875
 30
0.0
 40
4.25
  1
品
 41
1.120000000000002
  7
EXCADSTD
 72
     5
 11
142.9749999999999
 21
29.875
 31
0.0
100
AcDbText
  0
TEXT
  5
C8
330
1F
100
AcDbEntity
  8
枠_表
  6
CONTINUOUS
 62
     2
100
AcDbText
 10
139.5749999999998
 20
24.875
 30
0.0
 40
4.25
  1
番
 41
1.120000000000002
  7
EXCADSTD
 72
     5
 11
142.9749999999999
 21
24.875
 31
0.0
100
AcDbText
  0
TEXT
  5
C9
330
1F
100
AcDbEntity
  8
枠_表
  6
CONTINUOUS
 62
     2
100
AcDbText
 10
181.675
 20
29.875
 30
0.0
 40
4.25
  1
尺
 41
1.120000000000002
  7
EXCADSTD
 72
     5
 11
185.075
 21
29.875
 31
0.0
100
AcDbText
  0
TEXT
  5
CA
330
1F
100
AcDbEntity
  8
枠_表
  6
CONTINUOUS
 62
     2
100
AcDbText
 10
181.675
 20
24.875
 30
0.0
 40
4.25
  1
度
 41
1.120000000000002
  7
EXCADSTD
 72
     5
 11
185.075
 21
24.875
 31
0.0
100
AcDbText
  0
TEXT
  5
CB
330
1F
100
AcDbEntity
  8
枠_表
  6
CONTINUOUS
 62
     2
100
AcDbText
 10
139.5749999999998
 20
18.57499999999999
 30
0.0
 40
4.25
  1
図
 41
1.120000000000002
  7
EXCADSTD
 72
     5
 11
142.9749999999999
 21
18.57499999999999
 31
0.0
100
AcDbText
  0
TEXT
  5
CC
330
1F
100
AcDbEntity
  8
枠_表
  6
CONTINUOUS
 62
     2
100
AcDbText
 10
139.5749999999998
 20
14.27499999999998
 30
0.0
 40
4.25
  1
番
 41
1.120000000000002
  7
EXCADSTD
 72
     5
 11
142.9749999999999
 21
14.27499999999998
 31
0.0
100
AcDbText
  0
LINE
  5
CD
330
1F
100
AcDbEntity
  8
枠_表
  6
CONTINUOUS
 62
     6
100
AcDbLine
 10
124.9999999999999
 20
267.0
 30
0.0
 11
195.0
 21
267.0
 31
0.0
  0
TEXT
  5
CE
330
1F
100
AcDbEntity
  8
枠_表
  6
CONTINUOUS
 62
     2
100
AcDbText
 10
80.99999999999984
 20
29.5
 30
0.0
 40
5.0
  1
600㎜幅
 41
0.8693548387096776
  7
EXCADSTD
 72
     5
 11
100.2499999999998
 21
29.5
 31
0.0
100
AcDbText
  0
TEXT
  5
CF
330
1F
100
AcDbEntity
  8
枠_表
  6
CONTINUOUS
 62
     2
100
AcDbText
 10
80.99999999999984
 20
24.5
 30
0.0
 40
5.0
  1
　洗面化粧ユニット
 41
1.307547169811321
  7
EXCADSTD
 72
     5
 11
130.4999999999998
 21
24.5
 31
0.0
100
AcDbText
  0
TEXT
  5
D1
330
1F
100
AcDbEntity
  8
枠_表
  6
CONTINUOUS
 62
     2
100
AcDbText
 10
76.99999999999996
 20
15.5
 30
0.0
 40
4.5
  1
ジャニス工業株式会社
 41
1.025641025641025
  7
EXCADTTF1
 72
     5
 11
136.9999999999999
 21
15.5
 31
0.0
100
AcDbText
  0
LINE
  5
D2
330
1F
100
AcDbEntity
  8
枠_表
  6
EXLTYPE2
 62
     1
100
AcDbLine
 10
17.99999999999999
 20
151.0
 30
0.0
 11
0.699999999999978
 21
151.0
 31
0.0
  0
LINE
  5
D3
330
1F
100
AcDbEntity
  8
枠_表
  6
CONTINUOUS
 62
     6
100
AcDbLine
 10
124.9999999999999
 20
283.5
 30
0.0
 11
195.0
 21
283.5
 31
0.0
  0
LINE
  5
D4
330
1F
100
AcDbEntity
  8
枠_表
  6
CONTINUOUS
 62
     6
100
AcDbLine
 10
124.9999999999999
 20
278.0
 30
0.0
 11
195.0
 21
278.0
 31
0.0
  0
LINE
  5
D5
330
1F
100
AcDbEntity
  8
枠_表
  6
CONTINUOUS
 62
     6
100
AcDbLine
 10
124.9999999999999
 20
272.5
 30
0.0
 11
195.0
 21
272.5
 31
0.0
  0
TEXT
  5
D6
330
1F
100
AcDbEntity
  8
枠_表
  6
CONTINUOUS
 62
     2
100
AcDbText
 10
132.9999999999999
 20
278.75
 30
0.0
 40
4.0
  1
品番
 41
2.041518181818183
  7
EXCADSTD
 72
     5
 11
145.8324
 21
278.75
 31
0.0
100
AcDbText
  0
TEXT
  5
D7
330
1F
100
AcDbEntity
  8
枠_表
  6
CONTINUOUS
 62
     2
100
AcDbText
 10
168.0
 20
278.75
 30
0.0
 40
4.0
  1
品名
 41
2.041518181818183
  7
EXCADSTD
 72
     5
 11
180.8324
 21
278.75
 31
0.0
100
AcDbText
  0
TEXT
  5
D8
330
1F
100
AcDbEntity
  8
枠_表
  6
CONTINUOUS
 62
     2
100
AcDbText
 10
156.0000000000001
 20
273.25
 30
0.0
 40
4.0
  1
洗面化粧台
 41
1.086206896551724
  7
EXCADSTD
 72
     5
 11
174.0000000000001
 21
273.25
 31
0.0
100
AcDbText
  0
LINE
  5
D9
330
1F
100
AcDbEntity
  8
枠_表
  6
CONTINUOUS
 62
     6
100
AcDbLine
 10
124.9999999999999
 20
272.5
 30
0.0
 11
124.9999999999999
 21
283.5
 31
0.0
  0
LINE
  5
DA
330
1F
100
AcDbEntity
  8
枠_表
  6
CONTINUOUS
 62
     6
100
AcDbLine
 10
154.9999999999999
 20
272.5
 30
0.0
 11
154.9999999999999
 21
283.5
 31
0.0
  0
LINE
  5
DB
330
1F
100
AcDbEntity
  8
枠_表
  6
CONTINUOUS
 62
     6
100
AcDbLine
 10
195.0
 20
272.5
 30
0.0
 11
195.0
 21
283.5
 31
0.0
  0
TEXT
  5
DC
330
1F
100
AcDbEntity
  8
枠_表
  6
CONTINUOUS
 62
     2
100
AcDbText
 10
156.0
 20
267.75
 30
0.0
 40
4.0
  1
化粧鏡
 41
1.132352941176471
  7
EXCADSTD
 72
     5
 11
167.0
 21
267.75
 31
0.0
100
AcDbText
  0
LINE
  5
DD
330
1F
100
AcDbEntity
  8
枠_表
  6
CONTINUOUS
 62
     6
100
AcDbLine
 10
124.9999999999999
 20
267.0
 30
0.0
 11
124.9999999999999
 21
283.5
 31
0.0
  0
LINE
  5
DE
330
1F
100
AcDbEntity
  8
枠_表
  6
CONTINUOUS
 62
     6
100
AcDbLine
 10
154.9999999999999
 20
267.0
 30
0.0
 11
154.9999999999999
 21
283.5
 31
0.0
  0
LINE
  5
DF
330
1F
100
AcDbEntity
  8
枠_表
  6
CONTINUOUS
 62
     6
100
AcDbLine
 10
195.0
 20
267.0
 30
0.0
 11
195.0
 21
283.5
 31
0.0
  0
TEXT
  5
E0
330
1F
100
AcDbEntity
  8
枠_表
  6
CONTINUOUS
 62
     2
100
AcDbText
 10
125.9999999999999
 20
273.25
 30
0.0
 40
4.0
  1
ＬＵ６０８ＣＳＤＲ
 41
0.8287735817567363
  7
EXCADSTD
 72
     5
 11
151.0999999046325
 21
273.25
 31
0.0
100
AcDbText
  0
TEXT
  5
E1
330
1F
100
AcDbEntity
  8
枠_表
  6
CONTINUOUS
 62
     2
100
AcDbText
 10
63.49999999999947
 20
22.0
 30
0.0
 40
5.0
  1
間瀬
 41
1.22491090909091
  7
EXCADSTD
 72
     5
 11
73.12429999999948
 21
22.0
 31
0.0
100
AcDbText
  0
TEXT
  5
E2
330
1F
100
AcDbEntity
  8
枠_表
  6
CONTINUOUS
 62
     2
100
AcDbText
 10
20.74999999999948
 20
22.0
 30
0.0
 40
5.0
  1
亀井
 41
1.224910909090909
  7
EXCADSTD
 72
     5
 11
30.37429999999948
 21
22.0
 31
0.0
100
AcDbText
  0
TEXT
  5
E3
330
1F
100
AcDbEntity
  8
枠_表
  6
CONTINUOUS
 62
     2
100
AcDbText
 10
18.44999998999997
 20
14.0
 30
0.0
 40
4.0
  1
28
 41
0.454054054054054
  7
EXCADSTD
 72
     5
 11
21.64999998999997
 21
14.0
 31
0.0
100
AcDbText
  0
TEXT
  5
E4
330
1F
100
AcDbEntity
  8
枠_表
  6
CONTINUOUS
 62
     2
100
AcDbText
 10
24.37499999999999
 20
14.0
 30
0.0
 40
4.0
  1
9
 41
0.4798828124999995
  7
EXCADSTD
 72
     5
 11
25.83749999999999
 21
14.0
 31
0.0
100
AcDbText
  0
TEXT
  5
E5
330
1F
100
AcDbEntity
  8
枠_表
  6
CONTINUOUS
 62
     2
100
AcDbText
 10
28.80000000999998
 20
14.0
 30
0.0
 40
4.0
  1
28
 41
0.454054054054054
  7
EXCADSTD
 72
     5
 11
32.00000000999998
 21
14.0
 31
0.0
100
AcDbText
  0
LINE
  5
E6
330
1F
100
AcDbEntity
  8
枠_表
  6
CONTINUOUS
 62
     6
100
AcDbLine
 10
124.9999999999999
 20
245.4
 30
0.0
 11
195.0
 21
245.4
 31
0.0
  0
LINE
  5
E7
330
1F
100
AcDbEntity
  8
枠_表
  6
CONTINUOUS
 62
     6
100
AcDbLine
 10
124.9999999999999
 20
239.9
 30
0.0
 11
195.0
 21
239.9
 31
0.0
  0
LINE
  5
E8
330
1F
100
AcDbEntity
  8
枠_表
  6
CONTINUOUS
 62
     6
100
AcDbLine
 10
124.9999999999999
 20
228.9
 30
0.0
 11
195.0
 21
228.9
 31
0.0
  0
TEXT
  5
E9
330
1F
100
AcDbEntity
  8
枠_表
  6
CONTINUOUS
 62
     2
100
AcDbText
 10
135.4999999999999
 20
240.65
 30
0.0
 40
4.0
  1
品番
 41
2.041518181818183
  7
EXCADSTD
 72
     5
 11
148.3324
 21
240.65
 31
0.0
100
AcDbText
  0
TEXT
  5
EA
330
1F
100
AcDbEntity
  8
枠_表
  6
CONTINUOUS
 62
     2
100
AcDbText
 10
170.5000000000001
 20
240.65
 30
0.0
 40
4.0
  1
品名
 41
2.041518181818183
  7
EXCADSTD
 72
     5
 11
183.3324000000001
 21
240.65
 31
0.0
100
AcDbText
  0
TEXT
  5
EB
330
1F
100
AcDbEntity
  8
枠_表
  6
CONTINUOUS
 62
     2
100
AcDbText
 10
161.0000000000001
 20
235.15
 30
0.0
 40
4.0
  1
アングル形止水栓
 41
1.061170212765957
  7
EXCADSTD
 72
     5
 11
189.5000000000001
 21
235.15
 31
0.0
100
AcDbText
  0
TEXT
  5
EC
330
1F
100
AcDbEntity
  8
枠_表
  6
CONTINUOUS
 62
     2
100
AcDbText
 10
161.0000000000002
 20
229.65
 30
0.0
 40
4.0
  1
（壁給水用、数量：２）
 41
0.9019230769230772
  7
EXCADSTD
 72
     5
 11
194.5000000000002
 21
229.65
 31
0.0
100
AcDbText
  0
TEXT
  5
ED
330
1F
100
AcDbEntity
  8
枠_表
  6
CONTINUOUS
 62
     2
100
AcDbText
 10
126.0
 20
235.15
 30
0.0
 40
4.0
  1
ＮＬ２２１－７５ＷＭＹ
 41
0.6730769038200384
  7
EXCADSTD
 72
     5
 11
150.9999992847443
 21
235.15
 31
0.0
100
AcDbText
  0
TEXT
  5
EE
330
1F
100
AcDbEntity
  8
枠_表
  6
CONTINUOUS
 62
     2
100
AcDbText
 10
161.0000000000001
 20
218.65
 30
0.0
 40
4.0
  1
（床給水用、数量：２）
 41
0.9019230769230772
  7
EXCADSTD
 72
     5
 11
194.5000000000001
 21
218.65
 31
0.0
100
AcDbText
  0
TEXT
  5
EF
330
1F
100
AcDbEntity
  8
枠_表
  6
CONTINUOUS
 62
     2
100
AcDbText
 10
161.0000000000001
 20
224.15
 30
0.0
 40
4.0
  1
ストレート形止水栓
 41
1.056603773584906
  7
EXCADSTD
 72
     5
 11
193.0000000000001
 21
224.15
 31
0.0
100
AcDbText
  0
LINE
  5
F0
330
1F
100
AcDbEntity
  8
枠_表
  6
CONTINUOUS
 62
     6
100
AcDbLine
 10
124.9999999999999
 20
212.4
 30
0.0
 11
195.0
 21
212.4
 31
0.0
  0
TEXT
  5
F1
330
1F
100
AcDbEntity
  8
枠_表
  6
CONTINUOUS
 62
     2
100
AcDbText
 10
125.9999999999999
 20
213.15
 30
0.0
 40
4.0
  1
４４１３１
 41
0.8629310316052939
  7
EXCADSTD
 72
     5
 11
140.2999999523162
 21
213.15
 31
0.0
100
AcDbText
  0
TEXT
  5
F2
330
1F
100
AcDbEntity
  8
枠_表
  6
CONTINUOUS
 62
     2
100
AcDbText
 10
161.0000000000001
 20
213.15
 30
0.0
 40
4.0
  1
Ｌ管（壁排水用）
 41
1.061170212765957
  7
EXCADSTD
 72
     5
 11
189.5000000000001
 21
213.15
 31
0.0
100
AcDbText
  0
LINE
  5
F3
330
1F
100
AcDbEntity
  8
枠_表
  6
CONTINUOUS
 62
     6
100
AcDbLine
 10
124.9999999999999
 20
217.9
 30
0.0
 11
195.0
 21
217.9
 31
0.0
  0
LINE
  5
F4
330
1F
100
AcDbEntity
  8
枠_表
  6
CONTINUOUS
 62
     6
100
AcDbLine
 10
159.9999999999999
 20
212.4
 30
0.0
 11
159.9999999999999
 21
245.4
 31
0.0
  0
LINE
  5
F5
330
1F
100
AcDbEntity
  8
枠_表
  6
CONTINUOUS
 62
     6
100
AcDbLine
 10
195.0
 20
212.4
 30
0.0
 11
195.0
 21
245.4
 31
0.0
  0
LINE
  5
F6
330
1F
100
AcDbEntity
  8
枠_表
  6
CONTINUOUS
 62
     6
100
AcDbLine
 10
124.9999999999999
 20
212.4
 30
0.0
 11
124.9999999999999
 21
245.4
 31
0.0
  0
TEXT
  5
F7
330
1F
100
AcDbEntity
  8
枠_表
  6
CONTINUOUS
 62
     2
100
AcDbText
 10
125.9999999999999
 20
224.15
 30
0.0
 40
4.0
  1
ＮＬ２１１－４２０ＷＹ
 41
0.6730769038200384
  7
EXCADSTD
 72
     5
 11
150.9999992847442
 21
224.15
 31
0.0
100
AcDbText
  0
TEXT
  5
F8
330
1F
100
AcDbEntity
  8
枠_表
  6
CONTINUOUS
 62
     2
100
AcDbText
 10
125.3999999999999
 20
246.4
 30
0.0
 40
4.0
  1
※止水栓・Ｌ管（別途手配）
 41
0.9636363603852016
  7
EXCADSTD
 72
     5
 11
167.7999998569488
 21
246.4
 31
0.0
100
AcDbText
  0
TEXT
  5
F9
330
1F
100
AcDbEntity
  8
枠_表
  6
CONTINUOUS
 62
     2
100
AcDbText
 10
125.9999999999999
 20
267.75
 30
0.0
 40
4.0
  1
ＬＵＭ７５１ＣＳＫＨ
 41
0.8245762680041585
  7
EXCADSTD
 72
     5
 11
153.7999998927115
 21
267.75
 31
0.0
100
AcDbText
  0
TEXT
  5
FA
330
1F
100
AcDbEntity
  8
枠_表
  6
CONTINUOUS
 62
     2
100
AcDbText
 10
144.9999999999999
 20
29.5
 30
0.0
 40
5.0
  1
ＬＵ６０８ＣＳＤＲ型
 41
0.8542372881355933
  7
EXCADSTD
 72
     5
 11
180.9999999999999
 21
29.5
 31
0.0
100
AcDbText
  0
TEXT
  5
FB
330
1F
100
AcDbEntity
  8
枠_表
  6
CONTINUOUS
 62
     2
100
AcDbText
 10
144.9999999999999
 20
24.5
 30
0.0
 40
5.0
  1
ＬＵＭ７５１ＣＳＫＨ
 41
0.8542372881355933
  7
EXCADSTD
 72
     5
 11
180.9999999999999
 21
24.5
 31
0.0
100
AcDbText
  0
TEXT
  5
FC
330
1F
100
AcDbEntity
  8
枠_表
  6
CONTINUOUS
 62
     7
100
AcDbText
 10
145.2000001668929
 20
15.14999999999998
 30
0.0
 40
7.0
  1
ＬＵ２１７５２０
 41
1.140425524813064
  7
EXCADSTD
 72
     5
 11
198.7999998331069
 21
15.14999999999998
 31
0.0
100
AcDbText
  0
POLYLINE
  5
FD
330
1F
100
AcDbEntity
  8
化粧台
  6
CONTINUOUS
 62
     3
100
AcDb2dPolyline
 66
     1
 10
0.0
 20
0.0
 30
0.0
 70
   128
  0
VERTEX
  5
FE
330
FD
100
AcDbEntity
  8
化粧台
  6
CONTINUOUS
 62
     3
100
AcDbVertex
100
AcDb2dVertex
 10
1601.999999999997
 20
4019.5
 30
0.0
  0
VERTEX
  5
FF
330
FD
100
AcDbEntity
  8
化粧台
  6
CONTINUOUS
 62
     3
100
AcDbVertex
100
AcDb2dVertex
 10
1624.999999999997
 20
3970.0
 30
0.0
  0
SEQEND
  5
100
330
FD
100
AcDbEntity
  8
化粧台
  6
CONTINUOUS
 62
     3
  0
LINE
  5
101
330
1F
100
AcDbEntity
  8
化粧台
  6
CONTINUOUS
 62
     3
100
AcDbLine
 10
1627.763749118669
 20
3981.850574621249
 30
0.0
 11
1601.999999999997
 21
4019.5
 31
0.0
  0
LINE
  5
102
330
1F
100
AcDbEntity
  8
化粧台
  6
CONTINUOUS
 62
     3
100
AcDbLine
 10
1601.999999999997
 20
4019.5
 30
0.0
 11
1614.16048958401
 21
3975.529868170801
 31
0.0
  0
POLYLINE
  5
103
330
1F
100
AcDbEntity
  8
化粧台
  6
CONTINUOUS
 62
     3
100
AcDb2dPolyline
 66
     1
 10
0.0
 20
0.0
 30
0.0
 70
   128
  0
VERTEX
  5
104
330
103
100
AcDbEntity
  8
化粧台
  6
CONTINUOUS
 62
     3
100
AcDbVertex
100
AcDb2dVertex
 10
2479.499999999999
 20
3014.69999999995
 30
0.0
  0
VERTEX
  5
105
330
103
100
AcDbEntity
  8
化粧台
  6
CONTINUOUS
 62
     3
100
AcDbVertex
100
AcDb2dVertex
 10
2433.499999999999
 20
3034.69999999995
 30
0.0
  0
SEQEND
  5
106
330
103
100
AcDbEntity
  8
化粧台
  6
CONTINUOUS
 62
     3
  0
LINE
  5
107
330
1F
100
AcDbEntity
  8
化粧台
  6
CONTINUOUS
 62
     3
100
AcDbLine
 10
2435.241401632995
 20
3025.764649591701
 30
0.0
 11
2479.499999999999
 21
3014.69999999995
 31
0.0
  0
LINE
  5
108
330
1F
100
AcDbEntity
  8
化粧台
  6
CONTINUOUS
 62
     3
100
AcDbLine
 10
2479.499999999999
 20
3014.69999999995
 30
0.0
 11
2441.222293304211
 21
3039.5207004355
 31
0.0
  0
LINE
  5
109
330
1F
100
AcDbEntity
  8
化粧台
  6
CONTINUOUS
 62
     3
100
AcDbLine
 10
844.9999999999991
 20
924.0000001788139
 30
0.0
 11
844.9999999999991
 21
778.5
 31
0.0
  0
LINE
  5
10A
330
1F
100
AcDbEntity
  8
化粧台
  6
CONTINUOUS
 62
     3
100
AcDbLine
 10
994.9999999999984
 20
924.0000001788139
 30
0.0
 11
994.9999999999984
 21
778.5
 31
0.0
  0
TEXT
  5
10B
330
1F
100
AcDbEntity
  8
化粧台
  6
CONTINUOUS
 62
     2
100
AcDbText
 10
472.9999999999991
 20
798.749999910593
 30
0.0
 40
59.99999618530273
  1
１５０
 41
1.029411764705882
  7
EXCADSTD
 72
     5
 11
622.9999904632559
 21
798.749999910593
 31
0.0
100
AcDbText
  0
TEXT
  5
10C
330
1F
100
AcDbEntity
  8
化粧台
  6
CONTINUOUS
 62
     2
100
AcDbText
 10
615.4999999999991
 20
798.749999910593
 30
0.0
 40
48.0
  1
（床給水）
 41
0.9655172413793105
  7
EXCADSTD
 72
     5
 11
807.4999999999991
 21
798.749999910593
 31
0.0
100
AcDbText
  0
LINE
  5
10D
330
1F
100
AcDbEntity
  8
化粧台
  6
CONTINUOUS
 62
     3
100
AcDbLine
 10
467.750005722045
 20
793.5
 30
0.0
 11
1039.999999999998
 21
793.5
 31
0.0
  0
LINE
  5
10E
330
1F
100
AcDbEntity
  8
化粧台
  6
CONTINUOUS
 62
     3
100
AcDbLine
 10
799.9999999999991
 20
786.0
 30
0.0
 11
844.9999999999991
 21
793.5
 31
0.0
  0
LINE
  5
10F
330
1F
100
AcDbEntity
  8
化粧台
  6
CONTINUOUS
 62
     3
100
AcDbLine
 10
844.9999999999991
 20
793.5
 30
0.0
 11
799.9999999999991
 21
801.0000000000001
 31
0.0
  0
LINE
  5
110
330
1F
100
AcDbEntity
  8
化粧台
  6
CONTINUOUS
 62
     3
100
AcDbLine
 10
1039.999999999998
 20
801.0
 30
0.0
 11
994.9999999999984
 21
793.5
 31
0.0
  0
LINE
  5
111
330
1F
100
AcDbEntity
  8
化粧台
  6
CONTINUOUS
 62
     3
100
AcDbLine
 10
994.9999999999984
 20
793.5
 30
0.0
 11
1039.999999999998
 21
786.0
 31
0.0
  0
LINE
  5
112
330
1F
100
AcDbEntity
  8
化粧台
  6
EXLTYPE4
 62
     6
100
AcDbLine
 10
1728.999999999997
 20
942.5
 30
0.0
 11
320.0
 21
942.5
 31
0.0
  0
LINE
  5
113
330
1F
100
AcDbEntity
  8
化粧台
  6
EXLTYPE4
 62
     6
100
AcDbLine
 10
2479.499999999999
 20
942.5
 30
0.0
 11
1850.999999999997
 21
942.5
 31
0.0
  0
TEXT
  5
114
330
1F
100
AcDbEntity
  8
化粧台
  6
CONTINUOUS
 62
     2
100
AcDbText
 10
1850.999999999997
 20
942.5
 30
0.0
 40
59.99999618530273
  1
F.L.
 41
0.6227488631227187
  7
EXCADSTD
 72
     5
 11
1941.743399999998
 21
942.5
 31
0.0
100
AcDbText
  0
LINE
  5
115
330
1F
100
AcDbEntity
  8
化粧台
  6
CONTINUOUS
 62
     2
100
AcDbLine
 10
2479.5
 20
1641.499999999999
 30
0.0
 11
2479.5
 21
1622.499999999999
 31
0.0
  0
ARC
  5
116
330
1F
100
AcDbEntity
  8
化粧台
  6
CONTINUOUS
 62
     2
100
AcDbCircle
 10
2031.5
 20
1639.499999999999
 30
0.0
 40
2.0
100
AcDbArc
 50
90.00000000000001
 51
180.0
  0
LINE
  5
117
330
1F
100
AcDbEntity
  8
化粧台
  6
CONTINUOUS
 62
     2
100
AcDbLine
 10
2029.5
 20
1639.499999999999
 30
0.0
 11
2029.5
 21
1624.499999999999
 31
0.0
  0
ARC
  5
118
330
1F
100
AcDbEntity
  8
化粧台
  6
CONTINUOUS
 62
     2
100
AcDbCircle
 10
2031.5
 20
1624.499999999999
 30
0.0
 40
2.0
100
AcDbArc
 50
180.0
 51
270.0000000000002
  0
LINE
  5
119
330
1F
100
AcDbEntity
  8
化粧台
  6
CONTINUOUS
 62
     2
100
AcDbLine
 10
2479.5
 20
942.5
 30
0.0
 11
2479.5
 21
1622.499999999999
 31
0.0
  0
LINE
  5
11A
330
1F
100
AcDbEntity
  8
化粧台
  6
CONTINUOUS
 62
     2
100
AcDbLine
 10
2054.5
 20
942.5
 30
0.0
 11
2054.5
 21
1622.499999999999
 31
0.0
  0
LINE
  5
11B
330
1F
100
AcDbEntity
  8
化粧台
  6
CONTINUOUS
 62
     2
100
AcDbLine
 10
2034.0
 20
1032.5
 30
0.0
 11
2051.0
 21
1032.5
 31
0.0
  0
LINE
  5
11C
330
1F
100
AcDbEntity
  8
化粧台
  6
CONTINUOUS
 62
     2
100
AcDbLine
 10
2034.0
 20
1587.5
 30
0.0
 11
2051.0
 21
1587.5
 31
0.0
  0
LINE
  5
11D
330
1F
100
AcDbEntity
  8
化粧台
  6
CONTINUOUS
 62
     6
100
AcDbLine
 10
2033.000000000006
 20
1587.499999999995
 30
0.0
 11
2051.000000000002
 21
1587.499999999995
 31
0.0
  0
ARC
  5
11E
330
1F
100
AcDbEntity
  8
化粧台
  6
CONTINUOUS
 62
     6
100
AcDbCircle
 10
2049.649999999995
 20
1614.450000000009
 30
0.0
 40
1.0
100
AcDbArc
 50
0.0
 51
90.00000000000001
  0
ARC
  5
11F
330
1F
100
AcDbEntity
  8
化粧台
  6
CONTINUOUS
 62
     6
100
AcDbCircle
 10
2049.5
 20
1614.5
 30
0.0
 40
3.000000000000003
100
AcDbArc
 50
0.0
 51
90.00000000000001
  0
ARC
  5
120
330
1F
100
AcDbEntity
  8
化粧台
  6
CONTINUOUS
 62
     6
100
AcDbCircle
 10
2033.25
 20
1609.25
 30
0.0
 40
1.750000000000001
100
AcDbArc
 50
170.7449623899685
 51
68.7663136548995
  0
ARC
  5
121
330
1F
100
AcDbEntity
  8
化粧台
  6
CONTINUOUS
 62
     6
100
AcDbCircle
 10
2046.327514544796
 20
1607.119011184754
 30
0.0
 40
13.00000000000001
100
AcDbArc
 50
142.344253969435
 51
163.1780394406755
  0
ARC
  5
122
330
1F
100
AcDbEntity
  8
化粧台
  6
CONTINUOUS
 62
     6
100
AcDbCircle
 10
2036.827167025331
 20
1614.450000000009
 30
0.0
 40
1.0
100
AcDbArc
 50
90.00000000000001
 51
142.3442539694352
  0
ARC
  5
123
330
1F
100
AcDbEntity
  8
化粧台
  6
CONTINUOUS
 62
     6
100
AcDbCircle
 10
2046.327514544796
 20
1607.119011184754
 30
0.0
 40
15.00000000000001
100
AcDbArc
 50
142.0420920441203
 51
170.7449623899722
  0
ARC
  5
124
330
1F
100
AcDbEntity
  8
化粧台
  6
CONTINUOUS
 62
     6
100
AcDbCircle
 10
2036.865960544041
 20
1614.5
 30
0.0
 40
3.000000000000003
100
AcDbArc
 50
90.00000000000001
 51
142.0420920441179
  0
LINE
  5
125
330
1F
100
AcDbEntity
  8
化粧台
  6
CONTINUOUS
 62
     6
100
AcDbLine
 10
2036.865960544001
 20
1617.5
 30
0.0
 11
2049.5
 21
1617.5
 31
0.0
  0
LINE
  5
126
330
1F
100
AcDbEntity
  8
化粧台
  6
CONTINUOUS
 62
     6
100
AcDbLine
 10
2036.8271670253
 20
1615.45000000001
 30
0.0
 11
2049.649999999995
 21
1615.45000000001
 31
0.0
  0
LINE
  5
127
330
1F
100
AcDbEntity
  8
化粧台
  6
CONTINUOUS
 62
     6
100
AcDbLine
 10
2050.649999999995
 20
1614.449999999999
 30
0.0
 11
2050.649999999995
 21
1598.060271065815
 31
0.0
  0
LINE
  5
128
330
1F
100
AcDbEntity
  8
化粧台
  6
CONTINUOUS
 62
     6
100
AcDbLine
 10
2051.000000000002
 20
1587.499999999995
 30
0.0
 11
2051.000000000002
 21
1572.5
 31
0.0
  0
LINE
  5
129
330
1F
100
AcDbEntity
  8
化粧台
  6
CONTINUOUS
 62
     6
100
AcDbLine
 10
2032.450252619614
 20
1589.54231369542
 30
0.0
 11
2043.04797904309
 21
1590.070176405472
 31
0.0
  0
ARC
  5
12A
330
1F
100
AcDbEntity
  8
化粧台
  6
CONTINUOUS
 62
     6
100
AcDbCircle
 10
2042.649999999995
 20
1598.060271065815
 30
0.0
 40
8.0
100
AcDbArc
 50
272.8514919099882
 51
0.0
  0
ARC
  5
12B
330
1F
100
AcDbEntity
  8
化粧台
  6
CONTINUOUS
 62
     6
100
AcDbCircle
 10
2032.5
 20
1588.543551862876
 30
0.0
 40
1.0
100
AcDbArc
 50
92.8514919099879
 51
180.0
  0
ARC
  5
12C
330
1F
100
AcDbEntity
  8
化粧台
  6
CONTINUOUS
 62
     6
100
AcDbCircle
 10
2051.5
 20
1573.5
 30
0.0
 40
1.0
100
AcDbArc
 50
269.999999999987
 51
0.0
  0
LINE
  5
12D
330
1F
100
AcDbEntity
  8
化粧台
  6
CONTINUOUS
 62
     6
100
AcDbLine
 10
2052.5
 20
1614.5
 30
0.0
 11
2052.5
 21
1573.5
 31
0.0
  0
LINE
  5
12E
330
1F
100
AcDbEntity
  8
化粧台
  6
CONTINUOUS
 62
     6
100
AcDbLine
 10
2051.0
 20
1572.5
 30
0.0
 11
2051.5
 21
1572.5
 31
0.0
  0
ARC
  5
12F
330
1F
100
AcDbEntity
  8
化粧台
  6
CONTINUOUS
 62
     6
100
AcDbCircle
 10
2032.5
 20
1586.5
 30
0.0
 40
1.0
100
AcDbArc
 50
180.0
 51
270.000000000026
  0
LINE
  5
130
330
1F
100
AcDbEntity
  8
化粧台
  6
CONTINUOUS
 62
     6
100
AcDbLine
 10
2033.0
 20
1585.5
 30
0.0
 11
2032.5
 21
1585.5
 31
0.0
  0
LINE
  5
131
330
1F
100
AcDbEntity
  8
化粧台
  6
CONTINUOUS
 62
     6
100
AcDbLine
 10
2031.5
 20
1588.543551862876
 30
0.0
 11
2031.5
 21
1586.5
 31
0.0
  0
LINE
  5
132
330
1F
100
AcDbEntity
  8
化粧台
  6
CONTINUOUS
 62
     6
100
AcDbLine
 10
2033.0
 20
1587.499999999995
 30
0.0
 11
2033.0
 21
1585.5
 31
0.0
  0
LINE
  5
133
330
1F
100
AcDbEntity
  8
化粧台
  6
CONTINUOUS
 62
     2
100
AcDbLine
 10
2479.5
 20
1641.499999999999
 30
0.0
 11
2031.5
 21
1641.499999999999
 31
0.0
  0
LINE
  5
134
330
1F
100
AcDbEntity
  8
化粧台
  6
CONTINUOUS
 62
     2
100
AcDbLine
 10
2479.5
 20
1622.499999999999
 30
0.0
 11
2031.5
 21
1622.499999999999
 31
0.0
  0
LINE
  5
135
330
1F
100
AcDbEntity
  8
化粧台
  6
EXLTYPE2
 62
     6
100
AcDbLine
 10
2073.0
 20
1622.499999999999
 30
0.0
 11
2073.0
 21
1572.499999999999
 31
0.0
  0
LINE
  5
136
330
1F
100
AcDbEntity
  8
化粧台
  6
EXLTYPE2
 62
     6
100
AcDbLine
 10
2055.5
 20
1622.499999999999
 30
0.0
 11
2055.5
 21
1572.499999999999
 31
0.0
  0
LINE
  5
137
330
1F
100
AcDbEntity
  8
化粧台
  6
EXLTYPE2
 62
     6
100
AcDbLine
 10
2055.5
 20
1572.499999999999
 30
0.0
 11
2073.0
 21
1572.499999999999
 31
0.0
  0
LINE
  5
138
330
1F
100
AcDbEntity
  8
化粧台
  6
EXLTYPE2
 62
     6
100
AcDbLine
 10
2055.499999999999
 20
1047.5
 30
0.0
 11
2055.499999999999
 21
1032.5
 31
0.0
  0
LINE
  5
139
330
1F
100
AcDbEntity
  8
化粧台
  6
EXLTYPE2
 62
     6
100
AcDbLine
 10
2264.5
 20
942.5
 30
0.0
 11
2264.5
 21
1032.5
 31
0.0
  0
LINE
  5
13A
330
1F
100
AcDbEntity
  8
化粧台
  6
EXLTYPE2
 62
     6
100
AcDbLine
 10
2259.499999999997
 20
1047.5
 30
0.0
 11
2259.499999999997
 21
1044.5
 31
0.0
  0
LINE
  5
13B
330
1F
100
AcDbEntity
  8
化粧台
  6
EXLTYPE2
 62
     6
100
AcDbLine
 10
2279.5
 20
942.5
 30
0.0
 11
2279.5
 21
1044.5
 31
0.0
  0
LINE
  5
13C
330
1F
100
AcDbEntity
  8
化粧台
  6
EXLTYPE2
 62
     6
100
AcDbLine
 10
2431.499999999999
 20
1044.5
 30
0.0
 11
2431.499999999999
 21
1029.5
 31
0.0
  0
LINE
  5
13D
330
1F
100
AcDbEntity
  8
化粧台
  6
EXLTYPE2
 62
     6
100
AcDbLine
 10
2055.499999999999
 20
1032.5
 30
0.0
 11
2279.5
 21
1032.5
 31
0.0
  0
LINE
  5
13E
330
1F
100
AcDbEntity
  8
化粧台
  6
EXLTYPE2
 62
     6
100
AcDbLine
 10
2431.499999999999
 20
1029.5
 30
0.0
 11
2461.5
 21
1029.5
 31
0.0
  0
LINE
  5
13F
330
1F
100
AcDbEntity
  8
化粧台
  6
EXLTYPE2
 62
     6
100
AcDbLine
 10
2259.5
 20
1044.5
 30
0.0
 11
2461.499999999999
 21
1044.5
 31
0.0
  0
LINE
  5
140
330
1F
100
AcDbEntity
  8
化粧台
  6
EXLTYPE2
 62
     6
100
AcDbLine
 10
2055.499999999999
 20
1047.5
 30
0.0
 11
2461.5
 21
1047.5
 31
0.0
  0
LINE
  5
141
330
1F
100
AcDbEntity
  8
化粧台
  6
EXLTYPE2
 62
     6
100
AcDbLine
 10
2464.5
 20
1082.5
 30
0.0
 11
2479.5
 21
1082.5
 31
0.0
  0
LINE
  5
142
330
1F
100
AcDbEntity
  8
化粧台
  6
EXLTYPE2
 62
     6
100
AcDbLine
 10
2464.5
 20
1502.499999999999
 30
0.0
 11
2479.5
 21
1502.499999999999
 31
0.0
  0
LINE
  5
143
330
1F
100
AcDbEntity
  8
化粧台
  6
EXLTYPE2
 62
     6
100
AcDbLine
 10
2464.5
 20
1032.5
 30
0.0
 11
2464.5
 21
1622.499999999999
 31
0.0
  0
LINE
  5
144
330
1F
100
AcDbEntity
  8
化粧台
  6
EXLTYPE2
 62
     6
100
AcDbLine
 10
2461.5
 20
1032.5
 30
0.0
 11
2479.5
 21
1032.5
 31
0.0
  0
LINE
  5
145
330
1F
100
AcDbEntity
  8
化粧台
  6
EXLTYPE2
 62
     6
100
AcDbLine
 10
2461.5
 20
1029.5
 30
0.0
 11
2461.5
 21
1622.499999999999
 31
0.0
  0
ARC
  5
146
330
1F
100
AcDbEntity
  8
化粧台
  6
CONTINUOUS
 62
     2
100
AcDbCircle
 10
2444.4999999996
 20
1806.5
 30
0.0
 40
5.0
100
AcDbArc
 50
357.4931953294229
 51
91.30195267258101
  0
ARC
  5
147
330
1F
100
AcDbEntity
  8
化粧台
  6
CONTINUOUS
 62
     2
100
AcDbCircle
 10
2004.4999999996
 20
1796.5
 30
0.0
 40
5.0
100
AcDbArc
 50
91.30195267258101
 51
214.381811122868
  0
LINE
  5
148
330
1F
100
AcDbEntity
  8
化粧台
  6
CONTINUOUS
 62
     2
100
AcDbLine
 10
2004.386392972833
 20
1801.498709177725
 30
0.0
 11
2444.386392972833
 21
1811.498709177725
 31
0.0
  0
LINE
  5
149
330
1F
100
AcDbEntity
  8
化粧台
  6
CONTINUOUS
 62
     2
100
AcDbLine
 10
2449.495215170235
 20
1806.281309810367
 30
0.0
 11
2442.50257047897
 21
1641.5
 31
0.0
  0
LINE
  5
14A
330
1F
100
AcDbEntity
  8
化粧台
  6
CONTINUOUS
 62
     2
100
AcDbLine
 10
2000.373535955865
 20
1793.676474810494
 30
0.0
 11
2104.4999999996
 21
1641.5
 31
0.0
  0
LINE
  5
14B
330
1F
100
AcDbEntity
  8
化粧台
  6
CONTINUOUS
 62
     2
100
AcDbLine
 10
2442.50257047897
 20
1641.5
 30
0.0
 11
2104.4999999996
 21
1641.5
 31
0.0
  0
LINE
  5
14C
330
1F
100
AcDbEntity
  8
化粧台
  6
CONTINUOUS
 62
     2
100
AcDbLine
 10
2395.349999999599
 20
918.0
 30
0.0
 11
2363.649999999598
 21
918.0
 31
0.0
  0
LINE
  5
14D
330
1F
100
AcDbEntity
  8
化粧台
  6
CONTINUOUS
 62
     2
100
AcDbLine
 10
2363.649999999598
 20
918.0
 30
0.0
 11
2363.649999999598
 21
942.5
 31
0.0
  0
LINE
  5
14E
330
1F
100
AcDbEntity
  8
化粧台
  6
CONTINUOUS
 62
     2
100
AcDbLine
 10
2395.349999999593
 20
942.5
 30
0.0
 11
2395.349999999599
 21
918.0
 31
0.0
  0
ARC
  5
14F
330
1F
100
AcDbEntity
  8
化粧台
  6
EXLTYPE2
 62
     6
100
AcDbCircle
 10
2376.311111110703
 20
1576.5
 30
0.0
 40
174.5111111111056
100
AcDbArc
 50
171.7636205920223
 51
188.2363794079779
  0
LINE
  5
150
330
1F
100
AcDbEntity
  8
化粧台
  6
EXLTYPE2
 62
     6
100
AcDbLine
 10
2203.599999999635
 20
1551.500000000035
 30
0.0
 11
2205.699999999601
 21
1549.40000000007
 31
0.0
  0
LINE
  5
151
330
1F
100
AcDbEntity
  8
化粧台
  6
EXLTYPE2
 62
     6
100
AcDbLine
 10
2239.399999999565
 20
1551.500000000035
 30
0.0
 11
2237.2999999996
 21
1549.40000000007
 31
0.0
  0
LINE
  5
152
330
1F
100
AcDbEntity
  8
化粧台
  6
EXLTYPE2
 62
     6
100
AcDbLine
 10
2268.4999999996
 20
1583.0
 30
0.0
 11
2265.4999999996
 21
1578.7
 31
0.0
  0
LINE
  5
153
330
1F
100
AcDbEntity
  8
化粧台
  6
EXLTYPE2
 62
     6
100
AcDbLine
 10
2268.4999999996
 20
1550.0
 30
0.0
 11
2265.4999999996
 21
1554.3
 31
0.0
  0
LINE
  5
154
330
1F
100
AcDbEntity
  8
化粧台
  6
EXLTYPE2
 62
     6
100
AcDbLine
 10
2265.4999999996
 20
1578.7
 30
0.0
 11
2241.186132136729
 21
1578.7
 31
0.0
  0
LINE
  5
155
330
1F
100
AcDbEntity
  8
化粧台
  6
EXLTYPE2
 62
     6
100
AcDbLine
 10
2265.4999999996
 20
1554.3
 30
0.0
 11
2239.78218136753
 21
1554.3
 31
0.0
  0
LINE
  5
156
330
1F
100
AcDbEntity
  8
化粧台
  6
EXLTYPE2
 62
     6
100
AcDbLine
 10
2256.186132136729
 20
1578.7
 30
0.0
 11
2240.840225091328
 21
1587.7
 31
0.0
  0
LINE
  5
157
330
1F
100
AcDbEntity
  8
化粧台
  6
EXLTYPE2
 62
     6
100
AcDbLine
 10
2256.186132136729
 20
1554.3
 30
0.0
 11
2237.2999999996
 21
1543.223744374881
 31
0.0
  0
LINE
  5
158
330
1F
100
AcDbEntity
  8
化粧台
  6
EXLTYPE2
 62
     6
100
AcDbLine
 10
2256.186132136729
 20
1567.75
 30
0.0
 11
2234.899999999598
 21
1567.75
 31
0.0
  0
LINE
  5
159
330
1F
100
AcDbEntity
  8
化粧台
  6
EXLTYPE2
 62
     6
100
AcDbLine
 10
2256.186132136729
 20
1565.25
 30
0.0
 11
2234.899999999598
 21
1565.25
 31
0.0
  0
LINE
  5
15A
330
1F
100
AcDbEntity
  8
化粧台
  6
EXLTYPE2
 62
     6
100
AcDbLine
 10
2256.186132136729
 20
1567.75
 30
0.0
 11
2256.186132136729
 21
1565.25
 31
0.0
  0
ARC
  5
15B
330
1F
100
AcDbEntity
  8
化粧台
  6
EXLTYPE2
 62
     6
100
AcDbCircle
 10
2066.688888888494
 20
1576.5
 30
0.0
 40
174.5111111111056
100
AcDbArc
 50
351.7636205920222
 51
352.6914553742785
  0
ARC
  5
15C
330
1F
100
AcDbEntity
  8
化粧台
  6
EXLTYPE2
 62
     6
100
AcDbCircle
 10
2066.688888888494
 20
1576.5
 30
0.0
 40
174.5111111111056
100
AcDbArc
 50
0.7223268088028906
 51
8.236379407977633
  0
ELLIPSE
  5
15D
330
1F
100
AcDbEntity
  8
化粧台
  6
EXLTYPE2
 62
     6
100
AcDbEllipse
 10
2240.484156752129
 20
1566.5
 30
0.0
 11
-0.7019753845999901
 21
-12.20000000000005
 31
0.0
210
0.0
220
0.0
230
1.0
 40
0.2153535729318986
 41
3.141592653589879
 42
4.622148339603934
  0
ELLIPSE
  5
15E
330
1F
100
AcDbEntity
  8
化粧台
  6
EXLTYPE2
 62
     6
100
AcDbEllipse
 10
2240.484156752129
 20
1566.5
 30
0.0
 11
-0.7019753845999901
 21
-12.20000000000005
 31
0.0
210
0.0
220
0.0
230
1.0
 40
0.2153535729318986
 41
-1.455774510481848
 42
0.024781175480576
  0
LINE
  5
15F
330
1F
100
AcDbEntity
  8
化粧台
  6
EXLTYPE2
 62
     6
100
AcDbLine
 10
2290.9999999996
 20
1579.5
 30
0.0
 11
2284.4999999996
 21
1581.5
 31
0.0
  0
LINE
  5
160
330
1F
100
AcDbEntity
  8
化粧台
  6
EXLTYPE2
 62
     6
100
AcDbLine
 10
2303.4999999996
 20
1579.5
 30
0.0
 11
2290.9999999996
 21
1579.5
 31
0.0
  0
LINE
  5
161
330
1F
100
AcDbEntity
  8
化粧台
  6
EXLTYPE2
 62
     6
100
AcDbLine
 10
2284.4999999996
 20
1584.0
 30
0.0
 11
2268.4999999996
 21
1584.0
 31
0.0
  0
LINE
  5
162
330
1F
100
AcDbEntity
  8
化粧台
  6
EXLTYPE2
 62
     6
100
AcDbLine
 10
2290.9999999996
 20
1553.5
 30
0.0
 11
2284.4999999996
 21
1551.5
 31
0.0
  0
LINE
  5
163
330
1F
100
AcDbEntity
  8
化粧台
  6
EXLTYPE2
 62
     6
100
AcDbLine
 10
2303.4999999996
 20
1553.5
 30
0.0
 11
2290.9999999996
 21
1553.5
 31
0.0
  0
LINE
  5
164
330
1F
100
AcDbEntity
  8
化粧台
  6
EXLTYPE2
 62
     6
100
AcDbLine
 10
2284.4999999996
 20
1549.0
 30
0.0
 11
2268.4999999996
 21
1549.0
 31
0.0
  0
LINE
  5
165
330
1F
100
AcDbEntity
  8
化粧台
  6
EXLTYPE2
 62
     6
100
AcDbLine
 10
2303.4999999996
 20
1579.5
 30
0.0
 11
2303.4999999996
 21
1553.5
 31
0.0
  0
LINE
  5
166
330
1F
100
AcDbEntity
  8
化粧台
  6
EXLTYPE2
 62
     6
100
AcDbLine
 10
2284.4999999996
 20
1584.0
 30
0.0
 11
2284.4999999996
 21
1549.0
 31
0.0
  0
LINE
  5
167
330
1F
100
AcDbEntity
  8
化粧台
  6
EXLTYPE2
 62
     6
100
AcDbLine
 10
2268.4999999996
 20
1584.0
 30
0.0
 11
2268.4999999996
 21
1549.0
 31
0.0
  0
LINE
  5
168
330
1F
100
AcDbEntity
  8
化粧台
  6
EXLTYPE2
 62
     6
100
AcDbLine
 10
2412.4999999996
 20
1569.5
 30
0.0
 11
2303.4999999996
 21
1569.499999999999
 31
0.0
  0
LINE
  5
169
330
1F
100
AcDbEntity
  8
化粧台
  6
EXLTYPE2
 62
     6
100
AcDbLine
 10
2303.4999999996
 20
1563.5
 30
0.0
 11
2412.4999999996
 21
1563.5
 31
0.0
  0
LINE
  5
16A
330
1F
100
AcDbEntity
  8
化粧台
  6
EXLTYPE2
 62
     6
100
AcDbLine
 10
2412.4999999996
 20
1569.5
 30
0.0
 11
2412.4999999996
 21
1563.5
 31
0.0
  0
LINE
  5
16B
330
1F
100
AcDbEntity
  8
化粧台
  6
EXLTYPE2
 62
     6
100
AcDbLine
 10
2247.7499999996
 20
1622.0
 30
0.0
 11
2195.2499999996
 21
1622.0
 31
0.0
  0
ARC
  5
16C
330
1F
100
AcDbEntity
  8
化粧台
  6
EXLTYPE2
 62
     6
100
AcDbCircle
 10
2244.7499999996
 20
1606.0
 30
0.0
 40
3.000000000000003
100
AcDbArc
 50
270.0000000000002
 51
0.0
  0
ARC
  5
16D
330
1F
100
AcDbEntity
  8
化粧台
  6
EXLTYPE2
 62
     6
100
AcDbCircle
 10
2198.2499999996
 20
1606.0
 30
0.0
 40
3.000000000000003
100
AcDbArc
 50
180.0
 51
270.0000000000002
  0
LINE
  5
16E
330
1F
100
AcDbEntity
  8
化粧台
  6
EXLTYPE2
 62
     6
100
AcDbLine
 10
2195.2499999996
 20
1622.0
 30
0.0
 11
2195.2499999996
 21
1606.0
 31
0.0
  0
LINE
  5
16F
330
1F
100
AcDbEntity
  8
化粧台
  6
EXLTYPE2
 62
     6
100
AcDbLine
 10
2244.7499999996
 20
1603.0
 30
0.0
 11
2198.2499999996
 21
1603.0
 31
0.0
  0
LINE
  5
170
330
1F
100
AcDbEntity
  8
化粧台
  6
EXLTYPE2
 62
     6
100
AcDbLine
 10
2247.7499999996
 20
1622.0
 30
0.0
 11
2247.7499999996
 21
1606.0
 31
0.0
  0
LINE
  5
171
330
1F
100
AcDbEntity
  8
化粧台
  6
EXLTYPE2
 62
     6
100
AcDbLine
 10
2239.399999999598
 20
1601.5
 30
0.0
 11
2239.399999999598
 21
1603.0
 31
0.0
  0
LINE
  5
172
330
1F
100
AcDbEntity
  8
化粧台
  6
EXLTYPE2
 62
     6
100
AcDbLine
 10
2203.599999999599
 20
1601.5
 30
0.0
 11
2203.599999999599
 21
1603.0
 31
0.0
  0
LINE
  5
173
330
1F
100
AcDbEntity
  8
化粧台
  6
EXLTYPE2
 62
     6
100
AcDbLine
 10
2249.7999999996
 20
1629.4
 30
0.0
 11
2193.199999999601
 21
1629.4
 31
0.0
  0
LINE
  5
174
330
1F
100
AcDbEntity
  8
化粧台
  6
EXLTYPE2
 62
     6
100
AcDbLine
 10
2249.7999999996
 20
1637.2
 30
0.0
 11
2193.199999999601
 21
1637.2
 31
0.0
  0
LINE
  5
175
330
1F
100
AcDbEntity
  8
化粧台
  6
EXLTYPE2
 62
     6
100
AcDbLine
 10
2244.9999999996
 20
1629.4
 30
0.0
 11
2244.9999999996
 21
1622.0
 31
0.0
  0
LINE
  5
176
330
1F
100
AcDbEntity
  8
化粧台
  6
EXLTYPE2
 62
     6
100
AcDbLine
 10
2197.9999999996
 20
1629.4
 30
0.0
 11
2197.9999999996
 21
1622.0
 31
0.0
  0
LINE
  5
177
330
1F
100
AcDbEntity
  8
化粧台
  6
EXLTYPE2
 62
     6
100
AcDbLine
 10
2237.2999999996
 20
1549.40000000007
 30
0.0
 11
2205.699999999601
 21
1549.40000000007
 31
0.0
  0
LINE
  5
178
330
1F
100
AcDbEntity
  8
化粧台
  6
EXLTYPE2
 62
     6
100
AcDbLine
 10
2239.399999999529
 20
1551.5
 30
0.0
 11
2203.599999999672
 21
1551.5
 31
0.0
  0
LINE
  5
179
330
1F
100
AcDbEntity
  8
化粧台
  6
EXLTYPE2
 62
     6
100
AcDbLine
 10
2265.4999999996
 20
1578.7
 30
0.0
 11
2265.4999999996
 21
1554.3
 31
0.0
  0
LINE
  5
17A
330
1F
100
AcDbEntity
  8
化粧台
  6
EXLTYPE2
 62
     6
100
AcDbLine
 10
2290.9999999996
 20
1579.5
 30
0.0
 11
2290.9999999996
 21
1553.5
 31
0.0
  0
LINE
  5
17B
330
1F
100
AcDbEntity
  8
化粧台
  6
EXLTYPE2
 62
     6
100
AcDbLine
 10
2239.399999999598
 20
1601.5
 30
0.0
 11
2203.599999999599
 21
1601.5
 31
0.0
  0
LINE
  5
17C
330
1F
100
AcDbEntity
  8
化粧台
  6
EXLTYPE2
 62
     6
100
AcDbLine
 10
2209.828203883208
 20
1622.0
 30
0.0
 11
2209.828203883208
 21
1606.0
 31
0.0
  0
LINE
  5
17D
330
1F
100
AcDbEntity
  8
化粧台
  6
EXLTYPE2
 62
     6
100
AcDbLine
 10
2211.756412364648
 20
1622.0
 30
0.0
 11
2211.756412364648
 21
1606.0
 31
0.0
  0
LINE
  5
17E
330
1F
100
AcDbEntity
  8
化粧台
  6
EXLTYPE2
 62
     6
100
AcDbLine
 10
2231.243587634548
 20
1622.0
 30
0.0
 11
2231.243587634548
 21
1606.0
 31
0.0
  0
LINE
  5
17F
330
1F
100
AcDbEntity
  8
化粧台
  6
EXLTYPE2
 62
     6
100
AcDbLine
 10
2233.171796115989
 20
1622.0
 30
0.0
 11
2233.171796115989
 21
1606.0
 31
0.0
  0
LINE
  5
180
330
1F
100
AcDbEntity
  8
化粧台
  6
EXLTYPE2
 62
     6
100
AcDbLine
 10
2205.55312660012
 20
1637.2
 30
0.0
 11
2205.55312660012
 21
1629.4
 31
0.0
  0
LINE
  5
181
330
1F
100
AcDbEntity
  8
化粧台
  6
EXLTYPE2
 62
     6
100
AcDbLine
 10
2209.226451205552
 20
1637.2
 30
0.0
 11
2209.226451205552
 21
1629.4
 31
0.0
  0
LINE
  5
182
330
1F
100
AcDbEntity
  8
化粧台
  6
EXLTYPE2
 62
     6
100
AcDbLine
 10
2233.773548793648
 20
1637.2
 30
0.0
 11
2233.773548793648
 21
1629.4
 31
0.0
  0
LINE
  5
183
330
1F
100
AcDbEntity
  8
化粧台
  6
EXLTYPE2
 62
     6
100
AcDbLine
 10
2237.44687339908
 20
1637.2
 30
0.0
 11
2237.44687339908
 21
1629.4
 31
0.0
  0
LINE
  5
184
330
1F
100
AcDbEntity
  8
化粧台
  6
EXLTYPE2
 62
     6
100
AcDbLine
 10
2249.7999999996
 20
1641.5
 30
0.0
 11
2249.7999999996
 21
1629.4
 31
0.0
  0
LINE
  5
185
330
1F
100
AcDbEntity
  8
化粧台
  6
EXLTYPE2
 62
     6
100
AcDbLine
 10
2193.199999999601
 20
1641.5
 30
0.0
 11
2193.199999999601
 21
1629.4
 31
0.0
  0
ARC
  5
186
330
1F
100
AcDbEntity
  8
化粧台
  6
EXLTYPE2
 62
     6
100
AcDbCircle
 10
2255.4999999996
 20
1497.0
 30
0.0
 40
15.00000000000001
100
AcDbArc
 50
180.0
 51
270.0000000000002
  0
LINE
  5
187
330
1F
100
AcDbEntity
  8
化粧台
  6
EXLTYPE2
 62
     6
100
AcDbLine
 10
2258.199999999597
 20
1444.0
 30
0.0
 11
2239.4999999996
 21
1444.0
 31
0.0
  0
LINE
  5
188
330
1F
100
AcDbEntity
  8
化粧台
  6
EXLTYPE2
 62
     6
100
AcDbLine
 10
2202.4999999996
 20
1481.0
 30
0.0
 11
2202.4999999996
 21
1499.7
 31
0.0
  0
LINE
  5
189
330
1F
100
AcDbEntity
  8
化粧台
  6
EXLTYPE2
 62
     6
100
AcDbLine
 10
2205.249999999597
 20
1463.0
 30
0.0
 11
2205.249999999597
 21
1478.0
 31
0.0
  0
LINE
  5
18A
330
1F
100
AcDbEntity
  8
化粧台
  6
EXLTYPE2
 62
     6
100
AcDbLine
 10
2221.499999999597
 20
1446.75
 30
0.0
 11
2236.4999999996
 21
1446.75
 31
0.0
  0
ARC
  5
18B
330
1F
100
AcDbEntity
  8
化粧台
  6
EXLTYPE2
 62
     6
100
AcDbCircle
 10
2221.499999999597
 20
1463.0
 30
0.0
 40
16.25
100
AcDbArc
 50
180.0
 51
270.0000000000002
  0
LINE
  5
18C
330
1F
100
AcDbEntity
  8
化粧台
  6
EXLTYPE2
 62
     6
100
AcDbLine
 10
2239.4999999996
 20
1444.0
 30
0.0
 11
2236.4999999996
 21
1446.75
 31
0.0
  0
LINE
  5
18D
330
1F
100
AcDbEntity
  8
化粧台
  6
EXLTYPE2
 62
     6
100
AcDbLine
 10
2202.4999999996
 20
1481.0
 30
0.0
 11
2205.2499999996
 21
1478.0
 31
0.0
  0
LINE
  5
18E
330
1F
100
AcDbEntity
  8
化粧台
  6
EXLTYPE2
 62
     6
100
AcDbLine
 10
2258.199999999601
 20
1482.0
 30
0.0
 11
2240.4999999996
 21
1482.0
 31
0.0
  0
LINE
  5
18F
330
1F
100
AcDbEntity
  8
化粧台
  6
EXLTYPE2
 62
     6
100
AcDbLine
 10
2240.4999999996
 20
1482.0
 30
0.0
 11
2240.4999999996
 21
1499.7
 31
0.0
  0
LINE
  5
190
330
1F
100
AcDbEntity
  8
化粧台
  6
EXLTYPE2
 62
     6
100
AcDbLine
 10
2275.9999999996
 20
1485.799999999999
 30
0.0
 11
2258.199999999601
 21
1485.799999999999
 31
0.0
  0
LINE
  5
191
330
1F
100
AcDbEntity
  8
化粧台
  6
EXLTYPE2
 62
     6
100
AcDbLine
 10
2275.9999999996
 20
1440.2
 30
0.0
 11
2258.199999999597
 21
1440.2
 31
0.0
  0
LINE
  5
192
330
1F
100
AcDbEntity
  8
化粧台
  6
EXLTYPE2
 62
     6
100
AcDbLine
 10
2275.9999999996
 20
1485.799999999999
 30
0.0
 11
2275.9999999996
 21
1440.2
 31
0.0
  0
LINE
  5
193
330
1F
100
AcDbEntity
  8
化粧台
  6
EXLTYPE2
 62
     6
100
AcDbLine
 10
2258.199999999601
 20
1485.799999999999
 30
0.0
 11
2258.199999999597
 21
1440.2
 31
0.0
  0
LINE
  5
194
330
1F
100
AcDbEntity
  8
化粧台
  6
EXLTYPE2
 62
     6
100
AcDbLine
 10
2198.699999999601
 20
1517.5
 30
0.0
 11
2198.699999999601
 21
1499.7
 31
0.0
  0
LINE
  5
195
330
1F
100
AcDbEntity
  8
化粧台
  6
EXLTYPE2
 62
     6
100
AcDbLine
 10
2244.2999999996
 20
1517.5
 30
0.0
 11
2244.2999999996
 21
1499.7
 31
0.0
  0
LINE
  5
196
330
1F
100
AcDbEntity
  8
化粧台
  6
EXLTYPE2
 62
     6
100
AcDbLine
 10
2198.699999999601
 20
1517.5
 30
0.0
 11
2244.2999999996
 21
1517.5
 31
0.0
  0
LINE
  5
197
330
1F
100
AcDbEntity
  8
化粧台
  6
EXLTYPE2
 62
     6
100
AcDbLine
 10
2198.699999999601
 20
1499.7
 30
0.0
 11
2244.2999999996
 21
1499.7
 31
0.0
  0
LINE
  5
198
330
1F
100
AcDbEntity
  8
化粧台
  6
EXLTYPE2
 62
     6
100
AcDbLine
 10
2243.143356916
 20
1515.5
 30
0.0
 11
2243.143356916
 21
1499.7
 31
0.0
  0
LINE
  5
199
330
1F
100
AcDbEntity
  8
化粧台
  6
EXLTYPE2
 62
     6
100
AcDbLine
 10
2199.8566430832
 20
1515.5
 30
0.0
 11
2199.8566430832
 21
1499.7
 31
0.0
  0
LINE
  5
19A
330
1F
100
AcDbEntity
  8
化粧台
  6
EXLTYPE2
 62
     6
100
AcDbLine
 10
2232.100712305299
 20
1515.5
 30
0.0
 11
2232.100712305299
 21
1499.7
 31
0.0
  0
LINE
  5
19B
330
1F
100
AcDbEntity
  8
化粧台
  6
EXLTYPE2
 62
     6
100
AcDbLine
 10
2229.308328886098
 20
1515.5
 30
0.0
 11
2229.308328886098
 21
1499.7
 31
0.0
  0
LINE
  5
19C
330
1F
100
AcDbEntity
  8
化粧台
  6
EXLTYPE2
 62
     6
100
AcDbLine
 10
2213.691671113098
 20
1515.5
 30
0.0
 11
2213.691671113098
 21
1499.7
 31
0.0
  0
LINE
  5
19D
330
1F
100
AcDbEntity
  8
化粧台
  6
EXLTYPE2
 62
     6
100
AcDbLine
 10
2210.899287693901
 20
1515.5
 30
0.0
 11
2210.899287693901
 21
1499.7
 31
0.0
  0
LINE
  5
19E
330
1F
100
AcDbEntity
  8
化粧台
  6
EXLTYPE2
 62
     6
100
AcDbLine
 10
2273.9999999996
 20
1441.3566430836
 30
0.0
 11
2258.199999999597
 21
1441.3566430836
 31
0.0
  0
LINE
  5
19F
330
1F
100
AcDbEntity
  8
化粧台
  6
EXLTYPE2
 62
     6
100
AcDbLine
 10
2273.9999999996
 20
1484.643356916399
 30
0.0
 11
2258.199999999601
 21
1484.643356916399
 31
0.0
  0
LINE
  5
1A0
330
1F
100
AcDbEntity
  8
化粧台
  6
EXLTYPE2
 62
     6
100
AcDbLine
 10
2273.9999999996
 20
1452.399287694299
 30
0.0
 11
2258.199999999597
 21
1452.399287694299
 31
0.0
  0
LINE
  5
1A1
330
1F
100
AcDbEntity
  8
化粧台
  6
EXLTYPE2
 62
     6
100
AcDbLine
 10
2273.9999999996
 20
1455.1916711135
 30
0.0
 11
2258.199999999597
 21
1455.1916711135
 31
0.0
  0
LINE
  5
1A2
330
1F
100
AcDbEntity
  8
化粧台
  6
EXLTYPE2
 62
     6
100
AcDbLine
 10
2273.9999999996
 20
1470.8083288865
 30
0.0
 11
2258.199999999601
 21
1470.8083288865
 31
0.0
  0
LINE
  5
1A3
330
1F
100
AcDbEntity
  8
化粧台
  6
EXLTYPE2
 62
     6
100
AcDbLine
 10
2273.9999999996
 20
1473.600712305699
 30
0.0
 11
2258.199999999601
 21
1473.600712305699
 31
0.0
  0
LINE
  5
1A4
330
1F
100
AcDbEntity
  8
化粧台
  6
EXLTYPE2
 62
     6
100
AcDbLine
 10
2205.699999999601
 20
1549.40000000007
 30
0.0
 11
2205.699999999601
 21
1517.5
 31
0.0
  0
LINE
  5
1A5
330
1F
100
AcDbEntity
  8
化粧台
  6
EXLTYPE2
 62
     6
100
AcDbLine
 10
2237.2999999996
 20
1549.40000000007
 30
0.0
 11
2237.2999999996
 21
1517.5
 31
0.0
  0
ARC
  5
1A6
330
1F
100
AcDbEntity
  8
化粧台
  6
EXLTYPE2
 62
     6
100
AcDbCircle
 10
2363.499999999593
 20
1446.999999999999
 30
0.0
 40
32.0
100
AcDbArc
 50
0.0
 51
90.00000000000001
  0
LINE
  5
1A7
330
1F
100
AcDbEntity
  8
化粧台
  6
EXLTYPE2
 62
     6
100
AcDbLine
 10
2363.499999999593
 20
1478.999999999999
 30
0.0
 11
2275.9999999996
 21
1478.999999999999
 31
0.0
  0
LINE
  5
1A8
330
1F
100
AcDbEntity
  8
化粧台
  6
EXLTYPE2
 62
     6
100
AcDbLine
 10
2363.499999999597
 20
1447.0
 30
0.0
 11
2275.9999999996
 21
1447.0
 31
0.0
  0
LINE
  5
1A9
330
1F
100
AcDbEntity
  8
化粧台
  6
EXLTYPE2
 62
     6
100
AcDbLine
 10
2360.9999999996
 20
1398.0
 30
0.0
 11
2360.9999999996
 21
1363.0
 31
0.0
  0
LINE
  5
1AA
330
1F
100
AcDbEntity
  8
化粧台
  6
EXLTYPE2
 62
     6
100
AcDbLine
 10
2395.349999999599
 20
1360.35
 30
0.0
 11
2395.349999999599
 21
1335.334963338
 31
0.0
  0
LINE
  5
1AB
330
1F
100
AcDbEntity
  8
化粧台
  6
EXLTYPE2
 62
     6
100
AcDbLine
 10
2360.9999999996
 20
1363.0
 30
0.0
 11
2363.6499999996
 21
1360.35
 31
0.0
  0
LINE
  5
1AC
330
1F
100
AcDbEntity
  8
化粧台
  6
EXLTYPE2
 62
     6
100
AcDbLine
 10
2397.9999999996
 20
1363.0
 30
0.0
 11
2395.349999999599
 21
1360.35
 31
0.0
  0
LINE
  5
1AD
330
1F
100
AcDbEntity
  8
化粧台
  6
EXLTYPE2
 62
     6
100
AcDbLine
 10
2356.099999999599
 20
1414.0
 30
0.0
 11
2356.099999999599
 21
1398.0
 31
0.0
  0
ARC
  5
1AE
330
1F
100
AcDbEntity
  8
化粧台
  6
EXLTYPE2
 62
     6
100
AcDbCircle
 10
2358.099999999599
 20
1414.0
 30
0.0
 40
2.0
100
AcDbArc
 50
90.00000000000001
 51
180.0
  0
LINE
  5
1AF
330
1F
100
AcDbEntity
  8
化粧台
  6
EXLTYPE2
 62
     6
100
AcDbLine
 10
2422.021126747201
 20
1275.5
 30
0.0
 11
2422.021126747201
 21
1290.5
 31
0.0
  0
ARC
  5
1B0
330
1F
100
AcDbEntity
  8
化粧台
  6
EXLTYPE2
 62
     6
100
AcDbCircle
 10
2420.521126747201
 20
1275.5
 30
0.0
 40
1.5
100
AcDbArc
 50
270.0000000000002
 51
0.0
  0
LINE
  5
1B1
330
1F
100
AcDbEntity
  8
化粧台
  6
EXLTYPE2
 62
     6
100
AcDbLine
 10
2445.942253494699
 20
1350.0
 30
0.0
 11
2399.1422534947
 21
1350.0
 31
0.0
  0
LINE
  5
1B2
330
1F
100
AcDbEntity
  8
化粧台
  6
EXLTYPE2
 62
     6
100
AcDbLine
 10
2443.942253494699
 20
1368.0
 30
0.0
 11
2401.1422534947
 21
1368.0
 31
0.0
  0
LINE
  5
1B3
330
1F
100
AcDbEntity
  8
化粧台
  6
EXLTYPE2
 62
     6
100
AcDbLine
 10
2445.942253494699
 20
1366.0
 30
0.0
 11
2445.942253494699
 21
1350.0
 31
0.0
  0
LINE
  5
1B4
330
1F
100
AcDbEntity
  8
化粧台
  6
EXLTYPE2
 62
     6
100
AcDbLine
 10
2399.1422534947
 20
1366.0
 30
0.0
 11
2399.1422534947
 21
1350.0
 31
0.0
  0
ARC
  5
1B5
330
1F
100
AcDbEntity
  8
化粧台
  6
EXLTYPE2
 62
     6
100
AcDbCircle
 10
2443.942253494699
 20
1366.0
 30
0.0
 40
2.0
100
AcDbArc
 50
0.0
 51
90.00000000000001
  0
ARC
  5
1B6
330
1F
100
AcDbEntity
  8
化粧台
  6
EXLTYPE2
 62
     6
100
AcDbCircle
 10
2401.1422534947
 20
1366.0
 30
0.0
 40
2.0
100
AcDbArc
 50
90.00000000000001
 51
180.0
  0
LINE
  5
1B7
330
1F
100
AcDbEntity
  8
化粧台
  6
EXLTYPE2
 62
     6
100
AcDbLine
 10
2441.0422534947
 20
1350.0
 30
0.0
 11
2441.0422534947
 21
1320.0
 31
0.0
  0
LINE
  5
1B8
330
1F
100
AcDbEntity
  8
化粧台
  6
EXLTYPE2
 62
     6
100
AcDbLine
 10
2438.3922534947
 20
1379.628873252
 30
0.0
 11
2438.3922534947
 21
1368.0
 31
0.0
  0
LINE
  5
1B9
330
1F
100
AcDbEntity
  8
化粧台
  6
EXLTYPE2
 62
     6
100
AcDbLine
 10
2406.692253494699
 20
1379.628873252
 30
0.0
 11
2406.692253494699
 21
1368.0
 31
0.0
  0
LINE
  5
1BA
330
1F
100
AcDbEntity
  8
化粧台
  6
EXLTYPE2
 62
     6
100
AcDbLine
 10
2362.3700111025
 20
1414.0
 30
0.0
 11
2362.3700111025
 21
1398.0
 31
0.0
  0
LINE
  5
1BB
330
1F
100
AcDbEntity
  8
化粧台
  6
EXLTYPE2
 62
     6
100
AcDbLine
 10
2421.274647524701
 20
1275.5
 30
0.0
 11
2421.274647524701
 21
1290.5
 31
0.0
  0
LINE
  5
1BC
330
1F
100
AcDbEntity
  8
化粧台
  6
EXLTYPE2
 62
     6
100
AcDbLine
 10
2417.8434954462
 20
1275.5
 30
0.0
 11
2417.8434954462
 21
1290.5
 31
0.0
  0
LINE
  5
1BD
330
1F
100
AcDbEntity
  8
化粧台
  6
EXLTYPE2
 62
     6
100
AcDbLine
 10
2403.4959854582
 20
1275.5
 30
0.0
 11
2403.4959854582
 21
1290.5
 31
0.0
  0
LINE
  5
1BE
330
1F
100
AcDbEntity
  8
化粧台
  6
EXLTYPE2
 62
     6
100
AcDbLine
 10
2398.5462680361
 20
1275.5
 30
0.0
 11
2398.5462680361
 21
1290.5
 31
0.0
  0
LINE
  5
1BF
330
1F
100
AcDbEntity
  8
化粧台
  6
EXLTYPE2
 62
     6
100
AcDbLine
 10
2439.6722423918
 20
1366.0
 30
0.0
 11
2439.6722423918
 21
1350.0
 31
0.0
  0
LINE
  5
1C0
330
1F
100
AcDbEntity
  8
化粧台
  6
EXLTYPE2
 62
     6
100
AcDbLine
 10
2428.8122645976
 20
1366.0
 30
0.0
 11
2428.8122645976
 21
1350.0
 31
0.0
  0
LINE
  5
1C1
330
1F
100
AcDbEntity
  8
化粧台
  6
EXLTYPE2
 62
     6
100
AcDbLine
 10
2416.272242391799
 20
1366.0
 30
0.0
 11
2416.272242391799
 21
1350.0
 31
0.0
  0
LINE
  5
1C2
330
1F
100
AcDbEntity
  8
化粧台
  6
EXLTYPE2
 62
     6
100
AcDbLine
 10
2405.412264597599
 20
1366.0
 30
0.0
 11
2405.412264597599
 21
1350.0
 31
0.0
  0
ARC
  5
1C3
330
1F
100
AcDbEntity
  8
化粧台
  6
EXLTYPE2
 62
     6
100
AcDbCircle
 10
2401.021126747199
 20
1379.628873252
 30
0.0
 40
37.37112674756002
100
AcDbArc
 50
0.0
 51
180.0
  0
LINE
  5
1C4
330
1F
100
AcDbEntity
  8
化粧台
  6
EXLTYPE2
 62
     6
100
AcDbLine
 10
2373.2299888967
 20
1414.0
 30
0.0
 11
2373.2299888967
 21
1404.6139442216
 31
0.0
  0
LINE
  5
1C5
330
1F
100
AcDbEntity
  8
化粧台
  6
EXLTYPE2
 62
     6
100
AcDbLine
 10
2368.477266859489
 20
1398.0
 30
0.0
 11
2356.099999999599
 21
1398.0
 31
0.0
  0
LINE
  5
1C6
330
1F
100
AcDbEntity
  8
化粧台
  6
EXLTYPE2
 62
     6
100
AcDbLine
 10
2392.433795761199
 20
1416.0
 30
0.0
 11
2358.099999999599
 21
1416.0
 31
0.0
  0
LINE
  5
1C7
330
1F
100
AcDbEntity
  8
化粧台
  6
EXLTYPE2
 62
     6
100
AcDbLine
 10
2404.0422534947
 20
1350.0
 30
0.0
 11
2404.0422534947
 21
1320.0
 31
0.0
  0
LINE
  5
1C8
330
1F
100
AcDbEntity
  8
化粧台
  6
EXLTYPE2
 62
     6
100
AcDbLine
 10
2441.0422534947
 20
1320.0
 30
0.0
 11
2404.0422534947
 21
1320.0
 31
0.0
  0
LINE
  5
1C9
330
1F
100
AcDbEntity
  8
化粧台
  6
EXLTYPE2
 62
     6
100
AcDbLine
 10
2418.521126747199
 20
1298.3506616637
 30
0.0
 11
2418.521126747199
 21
1290.5
 31
0.0
  0
ARC
  5
1CA
330
1F
100
AcDbEntity
  8
化粧台
  6
EXLTYPE2
 62
     6
100
AcDbCircle
 10
2401.021126747199
 20
1331.371126748
 30
0.0
 40
37.37112674756002
100
AcDbArc
 50
265.2075989602522
 51
342.2854047964001
  0
LINE
  5
1CB
330
1F
100
AcDbEntity
  8
化粧台
  6
EXLTYPE2
 62
     6
100
AcDbLine
 10
2422.021126747201
 20
1290.5
 30
0.0
 11
2395.349999999599
 21
1290.5
 31
0.0
  0
LINE
  5
1CC
330
1F
100
AcDbEntity
  8
化粧台
  6
EXLTYPE2
 62
     6
100
AcDbLine
 10
2420.521126747201
 20
1274.0
 30
0.0
 11
2395.349999999599
 21
1274.0
 31
0.0
  0
ARC
  5
1CD
330
1F
100
AcDbEntity
  8
化粧台
  6
EXLTYPE2
 62
     6
100
AcDbCircle
 10
2399.696126747149
 20
1327.953969656114
 30
0.0
 40
4.346126747550217
100
AcDbArc
 50
180.0
 51
0.0
  0
LINE
  5
1CE
330
1F
100
AcDbEntity
  8
化粧台
  6
EXLTYPE2
 62
     6
100
AcDbLine
 10
2363.499999999597
 20
1416.0
 30
0.0
 11
2363.499999999597
 21
1447.0
 31
0.0
  0
LINE
  5
1CF
330
1F
100
AcDbEntity
  8
化粧台
  6
EXLTYPE2
 62
     6
100
AcDbLine
 10
2395.499999999593
 20
1416.589910491491
 30
0.0
 11
2395.499999999593
 21
1447.0
 31
0.0
  0
LINE
  5
1D0
330
1F
100
AcDbEntity
  8
化粧台
  6
EXLTYPE2
 62
     6
100
AcDbLine
 10
2239.4999999996
 20
1444.0
 30
0.0
 11
2239.4999999996
 21
1481.0
 31
0.0
  0
LINE
  5
1D1
330
1F
100
AcDbEntity
  8
化粧台
  6
EXLTYPE2
 62
     6
100
AcDbLine
 10
2236.4999999996
 20
1446.75
 30
0.0
 11
2236.4999999996
 21
1478.0
 31
0.0
  0
LINE
  5
1D2
330
1F
100
AcDbEntity
  8
化粧台
  6
EXLTYPE2
 62
     6
100
AcDbLine
 10
2221.4999999996
 20
1463.0
 30
0.0
 11
2240.4999999996
 21
1482.0
 31
0.0
  0
LINE
  5
1D3
330
1F
100
AcDbEntity
  8
化粧台
  6
EXLTYPE2
 62
     6
100
AcDbLine
 10
2205.2499999996
 20
1478.0
 30
0.0
 11
2236.4999999996
 21
1478.0
 31
0.0
  0
LINE
  5
1D4
330
1F
100
AcDbEntity
  8
化粧台
  6
EXLTYPE2
 62
     6
100
AcDbLine
 10
2202.4999999996
 20
1481.0
 30
0.0
 11
2239.4999999996
 21
1481.0
 31
0.0
  0
LINE
  5
1D5
330
1F
100
AcDbEntity
  8
化粧台
  6
EXLTYPE2
 62
     6
100
AcDbLine
 10
2356.699999999601
 20
1004.700000000001
 30
0.0
 11
2402.2999999996
 21
1004.700000000001
 31
0.0
  0
LINE
  5
1D6
330
1F
100
AcDbEntity
  8
化粧台
  6
EXLTYPE2
 62
     6
100
AcDbLine
 10
2356.699999999601
 20
1022.500000000001
 30
0.0
 11
2402.2999999996
 21
1022.500000000001
 31
0.0
  0
LINE
  5
1D7
330
1F
100
AcDbEntity
  8
化粧台
  6
EXLTYPE2
 62
     6
100
AcDbLine
 10
2402.2999999996
 20
1022.500000000001
 30
0.0
 11
2402.2999999996
 21
1004.700000000001
 31
0.0
  0
LINE
  5
1D8
330
1F
100
AcDbEntity
  8
化粧台
  6
EXLTYPE2
 62
     6
100
AcDbLine
 10
2356.699999999601
 20
1022.500000000001
 30
0.0
 11
2356.699999999601
 21
1004.700000000001
 31
0.0
  0
LINE
  5
1D9
330
1F
100
AcDbEntity
  8
化粧台
  6
EXLTYPE2
 62
     6
100
AcDbLine
 10
2345.999999999602
 20
964.5000000000009
 30
0.0
 11
2412.999999999604
 21
964.5000000000009
 31
0.0
  0
LINE
  5
1DA
330
1F
100
AcDbEntity
  8
化粧台
  6
EXLTYPE2
 62
     6
100
AcDbLine
 10
2358.799999999603
 20
1004.700000000001
 30
0.0
 11
2358.799999999603
 21
1002.500000000001
 31
0.0
  0
LINE
  5
1DB
330
1F
100
AcDbEntity
  8
化粧台
  6
EXLTYPE2
 62
     6
100
AcDbLine
 10
2400.199999999603
 20
1004.700000000001
 30
0.0
 11
2400.199999999603
 21
1002.500000000001
 31
0.0
  0
LINE
  5
1DC
330
1F
100
AcDbEntity
  8
化粧台
  6
EXLTYPE2
 62
     6
100
AcDbLine
 10
2412.999999999604
 20
984.5000000000009
 30
0.0
 11
2412.999999999604
 21
964.5000000000009
 31
0.0
  0
ARC
  5
1DD
330
1F
100
AcDbEntity
  8
化粧台
  6
EXLTYPE2
 62
     6
100
AcDbCircle
 10
2409.999999999604
 20
984.5000000000009
 30
0.0
 40
3.000000000000003
100
AcDbArc
 50
0.0
 51
90.00000000000001
  0
LINE
  5
1DE
330
1F
100
AcDbEntity
  8
化粧台
  6
EXLTYPE2
 62
     6
100
AcDbLine
 10
2406.499999999602
 20
999.5000000000009
 30
0.0
 11
2406.499999999602
 21
987.5000000000009
 31
0.0
  0
ARC
  5
1DF
330
1F
100
AcDbEntity
  8
化粧台
  6
EXLTYPE2
 62
     6
100
AcDbCircle
 10
2403.499999999602
 20
999.5000000000009
 30
0.0
 40
3.000000000000003
100
AcDbArc
 50
0.0
 51
90.00000000000001
  0
LINE
  5
1E0
330
1F
100
AcDbEntity
  8
化粧台
  6
EXLTYPE2
 62
     6
100
AcDbLine
 10
2352.499999999602
 20
999.5000000000009
 30
0.0
 11
2352.499999999602
 21
987.5000000000009
 31
0.0
  0
LINE
  5
1E1
330
1F
100
AcDbEntity
  8
化粧台
  6
EXLTYPE2
 62
     6
100
AcDbLine
 10
2355.499999999604
 20
1002.500000000001
 30
0.0
 11
2403.499999999602
 21
1002.500000000001
 31
0.0
  0
ARC
  5
1E2
330
1F
100
AcDbEntity
  8
化粧台
  6
EXLTYPE2
 62
     6
100
AcDbCircle
 10
2355.499999999604
 20
999.5000000000009
 30
0.0
 40
3.000000000000003
100
AcDbArc
 50
90.00000000000001
 51
180.0
  0
LINE
  5
1E3
330
1F
100
AcDbEntity
  8
化粧台
  6
EXLTYPE2
 62
     6
100
AcDbLine
 10
2345.999999999602
 20
984.5000000000009
 30
0.0
 11
2345.999999999602
 21
964.5000000000009
 31
0.0
  0
LINE
  5
1E4
330
1F
100
AcDbEntity
  8
化粧台
  6
EXLTYPE2
 62
     6
100
AcDbLine
 10
2348.999999999602
 20
987.5000000000009
 30
0.0
 11
2409.999999999604
 21
987.5000000000009
 31
0.0
  0
ARC
  5
1E5
330
1F
100
AcDbEntity
  8
化粧台
  6
EXLTYPE2
 62
     6
100
AcDbCircle
 10
2348.999999999602
 20
984.5000000000009
 30
0.0
 40
3.000000000000003
100
AcDbArc
 50
90.00000000000001
 51
180.0
  0
LINE
  5
1E6
330
1F
100
AcDbEntity
  8
化粧台
  6
EXLTYPE2
 62
     6
100
AcDbLine
 10
2368.899287693901
 20
1020.500000000001
 30
0.0
 11
2368.899287693901
 21
1004.700000000001
 31
0.0
  0
LINE
  5
1E7
330
1F
100
AcDbEntity
  8
化粧台
  6
EXLTYPE2
 62
     6
100
AcDbLine
 10
2371.6916711131
 20
1020.500000000001
 30
0.0
 11
2371.6916711131
 21
1004.700000000001
 31
0.0
  0
LINE
  5
1E8
330
1F
100
AcDbEntity
  8
化粧台
  6
EXLTYPE2
 62
     6
100
AcDbLine
 10
2387.3083288861
 20
1020.500000000001
 30
0.0
 11
2387.3083288861
 21
1004.700000000001
 31
0.0
  0
LINE
  5
1E9
330
1F
100
AcDbEntity
  8
化粧台
  6
EXLTYPE2
 62
     6
100
AcDbLine
 10
2390.100712305301
 20
1020.500000000001
 30
0.0
 11
2390.100712305301
 21
1004.700000000001
 31
0.0
  0
LINE
  5
1EA
330
1F
100
AcDbEntity
  8
化粧台
  6
EXLTYPE2
 62
     6
100
AcDbLine
 10
2357.8566430832
 20
1020.5
 30
0.0
 11
2357.8566430832
 21
1004.700000000001
 31
0.0
  0
LINE
  5
1EB
330
1F
100
AcDbEntity
  8
化粧台
  6
EXLTYPE2
 62
     6
100
AcDbLine
 10
2401.143356916
 20
1020.500000000001
 30
0.0
 11
2401.143356916
 21
1004.700000000001
 31
0.0
  0
LINE
  5
1EC
330
1F
100
AcDbEntity
  8
化粧台
  6
EXLTYPE2
 62
     6
100
AcDbLine
 10
2363.649999999598
 20
942.5
 30
0.0
 11
2363.649999999598
 21
1379.628873252
 31
0.0
  0
LINE
  5
1ED
330
1F
100
AcDbEntity
  8
化粧台
  6
EXLTYPE2
 62
     6
100
AcDbLine
 10
2337.825036024317
 20
1504.136113773614
 30
0.0
 11
2343.766644436766
 21
1503.301075167855
 31
0.0
  0
LINE
  5
1EE
330
1F
100
AcDbEntity
  8
化粧台
  6
EXLTYPE2
 62
     6
100
AcDbLine
 10
2357.130271252503
 20
1641.500000000001
 30
0.0
 11
2337.825036024311
 21
1504.136113773615
 31
0.0
  0
LINE
  5
1EF
330
1F
100
AcDbEntity
  8
化粧台
  6
EXLTYPE2
 62
     6
100
AcDbLine
 10
2343.766644436766
 20
1503.301075167855
 30
0.0
 11
2363.189236687619
 21
1641.500000000001
 31
0.0
  0
LINE
  5
1F0
330
1F
100
AcDbEntity
  8
化粧台
  6
EXLTYPE3
 62
     6
100
AcDbLine
 10
2379.4999999996
 20
903.0
 30
0.0
 11
2379.4999999996
 21
1165.0
 31
0.0
  0
LINE
  5
1F1
330
1F
100
AcDbEntity
  8
化粧台
  6
CONTINUOUS
 62
     6
100
AcDbLine
 10
2394.5
 20
1342.5
 30
0.0
 11
2394.5
 21
1282.5
 31
0.0
  0
LINE
  5
1F2
330
1F
100
AcDbEntity
  8
化粧台
  6
EXLTYPE3
 62
     6
100
AcDbLine
 10
2221.49999999958
 20
1661.5
 30
0.0
 11
2221.49999999958
 21
1466.5
 31
0.0
  0
LINE
  5
1F3
330
1F
100
AcDbEntity
  8
化粧台
  6
CONTINUOUS
 62
     6
100
AcDbLine
 10
2479.500000000002
 20
1524.5
 30
0.0
 11
2512.000000000002
 21
1522.499999999999
 31
0.0
  0
LINE
  5
1F4
330
1F
100
AcDbEntity
  8
化粧台
  6
CONTINUOUS
 62
     6
100
AcDbLine
 10
2512.000000000002
 20
1522.499999999999
 30
0.0
 11
2479.500000000002
 21
1520.5
 31
0.0
  0
LINE
  5
1F5
330
1F
100
AcDbEntity
  8
化粧台
  6
CONTINUOUS
 62
     6
100
AcDbLine
 10
2461.499999999999
 20
1530.0
 30
0.0
 11
2460.499999999999
 21
1530.0
 31
0.0
  0
LINE
  5
1F6
330
1F
100
AcDbEntity
  8
化粧台
  6
CONTINUOUS
 62
     6
100
AcDbLine
 10
2461.499999999999
 20
1514.999999999999
 30
0.0
 11
2460.499999999999
 21
1514.999999999999
 31
0.0
  0
ARC
  5
1F7
330
1F
100
AcDbEntity
  8
化粧台
  6
CONTINUOUS
 62
     6
100
AcDbCircle
 10
2461.539655172414
 20
1522.499999999999
 30
0.0
 40
3.939655172413634
100
AcDbArc
 50
105.3013019106999
 51
254.6986980892994
  0
LINE
  5
1F8
330
1F
100
AcDbEntity
  8
化粧台
  6
CONTINUOUS
 62
     6
100
AcDbLine
 10
2460.499999999999
 20
1530.0
 30
0.0
 11
2460.499999999999
 21
1514.999999999999
 31
0.0
  0
LINE
  5
1F9
330
1F
100
AcDbEntity
  8
化粧台
  6
CONTINUOUS
 62
     6
100
AcDbLine
 10
2447.600000000001
 20
1522.499999999999
 30
0.0
 11
2521.999999999999
 21
1522.499999999999
 31
0.0
  0
LINE
  5
1FA
330
1F
100
AcDbEntity
  8
化粧台
  6
CONTINUOUS
 62
     6
100
AcDbLine
 10
2389.0
 20
934.5
 30
0.0
 11
2410.0
 21
934.5
 31
0.0
  0
LINE
  5
1FB
330
1F
100
AcDbEntity
  8
化粧台
  6
EXLTYPE3
 62
     6
100
AcDbLine
 10
2399.5
 20
1152.5
 30
0.0
 11
2399.5
 21
924.5
 31
0.0
  0
LINE
  5
1FC
330
1F
100
AcDbEntity
  8
化粧台
  6
EXLTYPE4
 62
     6
100
AcDbLine
 10
2410.0
 20
1142.5
 30
0.0
 11
2410.0
 21
934.5
 31
0.0
  0
LINE
  5
1FD
330
1F
100
AcDbEntity
  8
化粧台
  6
EXLTYPE4
 62
     6
100
AcDbLine
 10
2389.0
 20
1142.5
 30
0.0
 11
2389.0
 21
934.5
 31
0.0
  0
LINE
  5
1FE
330
1F
100
AcDbEntity
  8
化粧台
  6
CONTINUOUS
 62
     2
100
AcDbLine
 10
2034.0
 20
1032.5
 30
0.0
 11
2034.0
 21
1587.499999999995
 31
0.0
  0
LINE
  5
1FF
330
1F
100
AcDbEntity
  8
化粧台
  6
CONTINUOUS
 62
     2
100
AcDbLine
 10
2051.0
 20
1032.5
 30
0.0
 11
2051.0
 21
1587.499999999995
 31
0.0
  0
LINE
  5
200
330
1F
100
AcDbEntity
  8
化粧台
  6
EXLTYPE3
 62
     6
100
AcDbLine
 10
2516.549999999999
 20
1412.5
 30
0.0
 11
2452.799999999999
 21
1412.5
 31
0.0
  0
LINE
  5
201
330
1F
100
AcDbEntity
  8
化粧台
  6
EXLTYPE2
 62
     6
100
AcDbLine
 10
2509.500000000002
 20
1396.49999999997
 30
0.0
 11
2452.542253494697
 21
1396.49999999997
 31
0.0
  0
LINE
  5
202
330
1F
100
AcDbEntity
  8
化粧台
  6
EXLTYPE2
 62
     6
100
AcDbLine
 10
2509.500000000002
 20
1396.49999999997
 30
0.0
 11
2509.500000000002
 21
1428.49999999997
 31
0.0
  0
LINE
  5
203
330
1F
100
AcDbEntity
  8
化粧台
  6
EXLTYPE2
 62
     6
100
AcDbLine
 10
2509.500000000002
 20
1428.49999999997
 30
0.0
 11
2452.542253494697
 21
1428.49999999997
 31
0.0
  0
LINE
  5
204
330
1F
100
AcDbEntity
  8
化粧台
  6
EXLTYPE2
 62
     6
100
AcDbLine
 10
2422.5
 20
1372.0
 30
0.0
 11
2479.5
 21
1372.0
 31
0.0
  0
LINE
  5
205
330
1F
100
AcDbEntity
  8
化粧台
  6
EXLTYPE2
 62
     6
100
AcDbLine
 10
2422.5
 20
1393.0
 30
0.0
 11
2479.5
 21
1393.0
 31
0.0
  0
LINE
  5
206
330
1F
100
AcDbEntity
  8
化粧台
  6
CONTINUOUS
 62
     6
100
AcDbLine
 10
2479.5
 20
1372.0
 30
0.0
 11
2487.5
 21
1372.0
 31
0.0
  0
LINE
  5
207
330
1F
100
AcDbEntity
  8
化粧台
  6
CONTINUOUS
 62
     6
100
AcDbLine
 10
2487.5
 20
1393.0
 30
0.0
 11
2487.5
 21
1372.0
 31
0.0
  0
LINE
  5
208
330
1F
100
AcDbEntity
  8
化粧台
  6
CONTINUOUS
 62
     6
100
AcDbLine
 10
2479.5
 20
1393.0
 30
0.0
 11
2487.5
 21
1393.0
 31
0.0
  0
LINE
  5
209
330
1F
100
AcDbEntity
  8
化粧台
  6
EXLTYPE2
 62
     6
100
AcDbLine
 10
2421.07254079757
 20
1397.22243186434
 30
0.0
 11
2415.5
 21
1397.22243186434
 31
0.0
  0
LINE
  5
20A
330
1F
100
AcDbEntity
  8
化粧台
  6
EXLTYPE2
 62
     6
100
AcDbLine
 10
2422.499999999999
 20
1394.75
 30
0.0
 11
2421.072540797568
 21
1397.22243186434
 31
0.0
  0
LINE
  5
20B
330
1F
100
AcDbEntity
  8
化粧台
  6
EXLTYPE2
 62
     6
100
AcDbLine
 10
2422.5
 20
1394.75
 30
0.0
 11
2422.5
 21
1370.25
 31
0.0
  0
LINE
  5
20C
330
1F
100
AcDbEntity
  8
化粧台
  6
EXLTYPE2
 62
     6
100
AcDbLine
 10
2422.499999999999
 20
1370.25
 30
0.0
 11
2421.072540797568
 21
1367.77756813566
 31
0.0
  0
LINE
  5
20D
330
1F
100
AcDbEntity
  8
化粧台
  6
EXLTYPE2
 62
     6
100
AcDbLine
 10
2421.07254079757
 20
1367.77756813566
 30
0.0
 11
2415.5
 21
1367.77756813566
 31
0.0
  0
ARC
  5
20E
330
1F
100
AcDbEntity
  8
化粧台
  6
EXLTYPE2
 62
     6
100
AcDbCircle
 10
2410.605879972376
 20
1363.5
 30
0.0
 40
6.500000000000004
100
AcDbArc
 50
41.1541700736668
 51
90.00000000000001
  0
ARC
  5
20F
330
1F
100
AcDbEntity
  8
化粧台
  6
EXLTYPE2
 62
     6
100
AcDbCircle
 10
2410.605879972376
 20
1401.5
 30
0.0
 40
6.500000000000004
100
AcDbArc
 50
270.0000000000002
 51
318.8458299263331
  0
ARC
  5
210
330
1F
100
AcDbEntity
  8
化粧台
  6
EXLTYPE2
 62
     6
100
AcDbCircle
 10
2408.5
 20
1398.5
 30
0.0
 40
3.500000000000002
100
AcDbArc
 50
180.0
 51
270.0000000000002
  0
LINE
  5
211
330
1F
100
AcDbEntity
  8
化粧台
  6
EXLTYPE2
 62
     6
100
AcDbLine
 10
2408.5
 20
1395.0
 30
0.0
 11
2410.605879972376
 21
1395.0
 31
0.0
  0
LINE
  5
212
330
1F
100
AcDbEntity
  8
化粧台
  6
EXLTYPE2
 62
     6
100
AcDbLine
 10
2380.0
 20
1370.0
 30
0.0
 11
2410.60587997238
 21
1370.0
 31
0.0
  0
ARC
  5
213
330
1F
100
AcDbEntity
  8
化粧台
  6
EXLTYPE2
 62
     6
100
AcDbCircle
 10
2380.5
 20
1398.5
 30
0.0
 40
3.500000000000002
100
AcDbArc
 50
270.0000000000002
 51
0.0
  0
LINE
  5
214
330
1F
100
AcDbEntity
  8
化粧台
  6
EXLTYPE2
 62
     6
100
AcDbLine
 10
2367.100000000001
 20
1377.2
 30
0.0
 11
2367.100000000001
 21
1387.8
 31
0.0
  0
LINE
  5
215
330
1F
100
AcDbEntity
  8
化粧台
  6
EXLTYPE2
 62
     6
100
AcDbLine
 10
2380.0
 20
1369.75
 30
0.0
 11
2380.0
 21
1395.25
 31
0.0
  0
ARC
  5
216
330
1F
100
AcDbEntity
  8
化粧台
  6
EXLTYPE2
 62
     6
100
AcDbCircle
 10
2376.22508278236
 20
1373.75
 30
0.0
 40
5.5
100
AcDbArc
 50
217.1876259392006
 51
313.3417582272
  0
LINE
  5
217
330
1F
100
AcDbEntity
  8
化粧台
  6
EXLTYPE2
 62
     6
100
AcDbLine
 10
2367.100000000001
 20
1377.2
 30
0.0
 11
2371.84345017772
 21
1370.42565108361
 31
0.0
  0
ARC
  5
218
330
1F
100
AcDbEntity
  8
化粧台
  6
EXLTYPE2
 62
     6
100
AcDbCircle
 10
2376.22508278236
 20
1391.25
 30
0.0
 40
5.5
100
AcDbArc
 50
46.65824177279988
 51
142.8123740608007
  0
LINE
  5
219
330
1F
100
AcDbEntity
  8
化粧台
  6
EXLTYPE2
 62
     6
100
AcDbLine
 10
2367.100000000001
 20
1387.8
 30
0.0
 11
2371.84345017772
 21
1394.57434891639
 31
0.0
  0
LINE
  5
21A
330
1F
100
AcDbEntity
  8
化粧台
  6
EXLTYPE2
 62
     6
100
AcDbLine
 10
2371.84345017772
 20
1370.42565108361
 30
0.0
 11
2371.84345017772
 21
1394.57434891649
 31
0.0
  0
LINE
  5
21B
330
1F
100
AcDbEntity
  8
化粧台
  6
EXLTYPE2
 62
     6
100
AcDbLine
 10
2380.0
 20
1395.0
 30
0.0
 11
2380.5
 21
1395.0
 31
0.0
  0
LINE
  5
21C
330
1F
100
AcDbEntity
  8
化粧台
  6
EXLTYPE2
 62
     6
100
AcDbLine
 10
2361.5
 20
1387.25
 30
0.0
 11
2367.100000000001
 21
1387.25
 31
0.0
  0
LINE
  5
21D
330
1F
100
AcDbEntity
  8
化粧台
  6
EXLTYPE2
 62
     6
100
AcDbLine
 10
2361.5
 20
1377.75
 30
0.0
 11
2367.100000000001
 21
1377.75
 31
0.0
  0
LINE
  5
21E
330
1F
100
AcDbEntity
  8
化粧台
  6
EXLTYPE2
 62
     6
100
AcDbLine
 10
2361.5
 20
1387.25
 30
0.0
 11
2361.5
 21
1377.75
 31
0.0
  0
ARC
  5
21F
330
1F
100
AcDbEntity
  8
化粧台
  6
EXLTYPE2
 62
     6
100
AcDbCircle
 10
2392.75
 20
1411.2
 30
0.0
 40
11.0
100
AcDbArc
 50
146.9442688491001
 51
213.0557311509003
  0
LINE
  5
220
330
1F
100
AcDbEntity
  8
化粧台
  6
EXLTYPE2
 62
     6
100
AcDbLine
 10
2383.530455542709
 20
1405.2
 30
0.0
 11
2405.46954445729
 21
1405.2
 31
0.0
  0
LINE
  5
221
330
1F
100
AcDbEntity
  8
化粧台
  6
EXLTYPE2
 62
     6
100
AcDbLine
 10
2383.530455542709
 20
1417.2
 30
0.0
 11
2405.46954445729
 21
1417.2
 31
0.0
  0
ARC
  5
222
330
1F
100
AcDbEntity
  8
化粧台
  6
EXLTYPE2
 62
     6
100
AcDbCircle
 10
2396.25
 20
1411.2
 30
0.0
 40
11.0
100
AcDbArc
 50
326.9442688491004
 51
33.05573115085006
  0
LINE
  5
223
330
1F
100
AcDbEntity
  8
化粧台
  6
EXLTYPE2
 62
     6
100
AcDbLine
 10
2405.0
 20
1398.5
 30
0.0
 11
2405.0
 21
1405.2
 31
0.0
  0
LINE
  5
224
330
1F
100
AcDbEntity
  8
化粧台
  6
EXLTYPE2
 62
     6
100
AcDbLine
 10
2384.0
 20
1398.5
 30
0.0
 11
2384.0
 21
1405.2
 31
0.0
  0
LINE
  5
225
330
1F
100
AcDbEntity
  8
化粧台
  6
EXLTYPE2
 62
     6
100
AcDbLine
 10
2387.999999999997
 20
1417.2
 30
0.0
 11
2387.999999999997
 21
1641.500000000001
 31
0.0
  0
LINE
  5
226
330
1F
100
AcDbEntity
  8
化粧台
  6
EXLTYPE2
 62
     6
100
AcDbLine
 10
2401.000000000002
 20
1417.2
 30
0.0
 11
2401.000000000002
 21
1641.500000000001
 31
0.0
  0
ARC
  5
227
330
1F
100
AcDbEntity
  8
化粧台
  6
EXLTYPE2
 62
     6
100
AcDbCircle
 10
2401.021126747199
 20
1379.628873252
 30
0.0
 40
5.671126747560002
100
AcDbArc
 50
0.0
 51
218.8036859990258
  0
LINE
  5
228
330
1F
100
AcDbEntity
  8
化粧台
  6
EXLTYPE2
 62
     6
100
AcDbLine
 10
2397.9999999996
 20
1370.0
 30
0.0
 11
2397.9999999996
 21
1363.0
 31
0.0
  0
LINE
  5
229
330
1F
100
AcDbEntity
  8
化粧台
  6
EXLTYPE2
 62
     6
100
AcDbLine
 10
2395.349999999599
 20
1370.0
 30
0.0
 11
2395.349999999593
 21
942.5
 31
0.0
  0
LINE
  5
22A
330
1F
100
AcDbEntity
  8
化粧台
  6
CONTINUOUS
 62
     6
100
AcDbLine
 10
2353.800000000001
 20
1382.5
 30
0.0
 11
2509.800000000001
 21
1382.5
 31
0.0
  0
LINE
  5
22B
330
1F
100
AcDbEntity
  8
化粧台
  6
CONTINUOUS
 62
     2
100
AcDbLine
 10
2054.5
 20
942.5
 30
0.0
 11
2479.5
 21
942.5
 31
0.0
  0
LINE
  5
22C
330
1F
100
AcDbEntity
  8
化粧台
  6
CONTINUOUS
 62
     2
100
AcDbLine
 10
695.283476981187
 20
1799.840358287754
 30
0.0
 11
750.9999999999982
 21
1641.5
 31
0.0
  0
LINE
  5
22D
330
1F
100
AcDbEntity
  8
化粧台
  6
CONTINUOUS
 62
     2
100
AcDbLine
 10
1088.999999999997
 20
1641.5
 30
0.0
 11
1144.716523018808
 21
1799.840358287754
 31
0.0
  0
LINE
  5
22E
330
1F
100
AcDbEntity
  8
化粧台
  6
CONTINUOUS
 62
     2
100
AcDbLine
 10
750.9999999999982
 20
1641.5
 30
0.0
 11
1088.999999999997
 21
1641.5
 31
0.0
  0
ARC
  5
22F
330
1F
100
AcDbEntity
  8
化粧台
  6
CONTINUOUS
 62
     2
100
AcDbCircle
 10
699.9999999999982
 20
1801.5
 30
0.0
 40
5.0
100
AcDbArc
 50
92.60390534515753
 51
199.3858598894216
  0
ARC
  5
230
330
1F
100
AcDbEntity
  8
化粧台
  6
CONTINUOUS
 62
     2
100
AcDbCircle
 10
1139.999999999997
 20
1801.5
 30
0.0
 40
5.0
100
AcDbArc
 50
340.6141401105788
 51
87.39609465484251
  0
ARC
  5
231
330
1F
100
AcDbEntity
  8
化粧台
  6
CONTINUOUS
 62
     2
100
AcDbCircle
 10
919.9999999999982
 20
6639.000000000005
 30
0.0
 40
4837.500000000005
100
AcDbArc
 50
267.4553150987836
 51
272.5446849012167
  0
LINE
  5
232
330
1F
100
AcDbEntity
  8
化粧台
  6
CONTINUOUS
 62
     6
100
AcDbLine
 10
821.6435055525035
 20
1802.5
 30
0.0
 11
1018.356494447487
 21
1802.5
 31
0.0
  0
ARC
  5
233
330
1F
100
AcDbEntity
  8
化粧台
  6
EXLTYPE2
 62
     6
100
AcDbCircle
 10
765.1888888889316
 20
1576.5
 30
0.0
 40
174.5111111111056
100
AcDbArc
 50
351.7636205920222
 51
8.236379407977804
  0
LINE
  5
234
330
1F
100
AcDbEntity
  8
化粧台
  6
EXLTYPE2
 62
     6
100
AcDbLine
 10
937.9000000000033
 20
1551.500000000035
 30
0.0
 11
935.8000000000375
 21
1549.40000000007
 31
0.0
  0
ARC
  5
235
330
1F
100
AcDbEntity
  8
化粧台
  6
EXLTYPE2
 62
     6
100
AcDbCircle
 10
1074.811111111142
 20
1576.5
 30
0.0
 40
174.5111111111056
100
AcDbArc
 50
171.7636205920223
 51
188.2363794079779
  0
LINE
  5
236
330
1F
100
AcDbEntity
  8
化粧台
  6
EXLTYPE2
 62
     6
100
AcDbLine
 10
902.1000000000731
 20
1551.500000000035
 30
0.0
 11
904.2000000000371
 21
1549.40000000007
 31
0.0
  0
LINE
  5
237
330
1F
100
AcDbEntity
  8
化粧台
  6
EXLTYPE2
 62
     6
100
AcDbLine
 10
893.7499999999982
 20
1622.0
 30
0.0
 11
946.2499999999973
 21
1622.0
 31
0.0
  0
ARC
  5
238
330
1F
100
AcDbEntity
  8
化粧台
  6
EXLTYPE2
 62
     6
100
AcDbCircle
 10
896.7499999999982
 20
1606.0
 30
0.0
 40
3.000000000000002
100
AcDbArc
 50
180.0
 51
270.0000000000002
  0
ARC
  5
239
330
1F
100
AcDbEntity
  8
化粧台
  6
EXLTYPE2
 62
     6
100
AcDbCircle
 10
943.2499999999982
 20
1606.0
 30
0.0
 40
3.000000000000002
100
AcDbArc
 50
270.0000000000002
 51
0.0
  0
LINE
  5
23A
330
1F
100
AcDbEntity
  8
化粧台
  6
EXLTYPE2
 62
     6
100
AcDbLine
 10
946.2499999999973
 20
1622.0
 30
0.0
 11
946.2499999999973
 21
1606.0
 31
0.0
  0
LINE
  5
23B
330
1F
100
AcDbEntity
  8
化粧台
  6
EXLTYPE2
 62
     6
100
AcDbLine
 10
896.7499999999982
 20
1603.0
 30
0.0
 11
943.2499999999982
 21
1603.0
 31
0.0
  0
LINE
  5
23C
330
1F
100
AcDbEntity
  8
化粧台
  6
EXLTYPE2
 62
     6
100
AcDbLine
 10
893.7499999999982
 20
1622.0
 30
0.0
 11
893.7499999999982
 21
1606.0
 31
0.0
  0
LINE
  5
23D
330
1F
100
AcDbEntity
  8
化粧台
  6
EXLTYPE2
 62
     6
100
AcDbLine
 10
902.0999999999985
 20
1601.5
 30
0.0
 11
902.0999999999985
 21
1603.0
 31
0.0
  0
LINE
  5
23E
330
1F
100
AcDbEntity
  8
化粧台
  6
EXLTYPE2
 62
     6
100
AcDbLine
 10
937.8999999999978
 20
1601.5
 30
0.0
 11
937.8999999999978
 21
1603.0
 31
0.0
  0
LINE
  5
23F
330
1F
100
AcDbEntity
  8
化粧台
  6
EXLTYPE2
 62
     6
100
AcDbLine
 10
891.7000000000389
 20
1637.2
 30
0.0
 11
948.3000000000366
 21
1637.2
 31
0.0
  0
LINE
  5
240
330
1F
100
AcDbEntity
  8
化粧台
  6
EXLTYPE2
 62
     6
100
AcDbLine
 10
894.5000000000382
 20
1637.2
 30
0.0
 11
894.5000000000382
 21
1629.400000000001
 31
0.0
  0
LINE
  5
241
330
1F
100
AcDbEntity
  8
化粧台
  6
EXLTYPE2
 62
     6
100
AcDbLine
 10
945.5000000000382
 20
1637.2
 30
0.0
 11
945.5000000000382
 21
1629.400000000001
 31
0.0
  0
LINE
  5
242
330
1F
100
AcDbEntity
  8
化粧台
  6
EXLTYPE2
 62
     6
100
AcDbLine
 10
894.5000000000382
 20
1629.400000000001
 30
0.0
 11
945.5000000000382
 21
1629.400000000001
 31
0.0
  0
LINE
  5
243
330
1F
100
AcDbEntity
  8
化粧台
  6
EXLTYPE2
 62
     6
100
AcDbLine
 10
896.5000000000382
 20
1629.400000000001
 30
0.0
 11
896.5000000000382
 21
1622.0
 31
0.0
  0
LINE
  5
244
330
1F
100
AcDbEntity
  8
化粧台
  6
EXLTYPE2
 62
     6
100
AcDbLine
 10
943.5000000000382
 20
1629.400000000001
 30
0.0
 11
943.5000000000382
 21
1622.0
 31
0.0
  0
LINE
  5
245
330
1F
100
AcDbEntity
  8
化粧台
  6
EXLTYPE2
 62
     6
100
AcDbLine
 10
896.6207949497984
 20
1637.2
 30
0.0
 11
896.6207949497984
 21
1629.400000000001
 31
0.0
  0
LINE
  5
246
330
1F
100
AcDbEntity
  8
化粧台
  6
EXLTYPE2
 62
     6
100
AcDbLine
 10
917.879205050278
 20
1637.2
 30
0.0
 11
917.879205050278
 21
1629.400000000001
 31
0.0
  0
LINE
  5
247
330
1F
100
AcDbEntity
  8
化粧台
  6
EXLTYPE2
 62
     6
100
AcDbLine
 10
922.1207949497984
 20
1637.2
 30
0.0
 11
922.1207949497984
 21
1629.400000000001
 31
0.0
  0
LINE
  5
248
330
1F
100
AcDbEntity
  8
化粧台
  6
EXLTYPE2
 62
     6
100
AcDbLine
 10
943.379205050278
 20
1637.2
 30
0.0
 11
943.379205050278
 21
1629.400000000001
 31
0.0
  0
LINE
  5
249
330
1F
100
AcDbEntity
  8
化粧台
  6
EXLTYPE2
 62
     6
100
AcDbLine
 10
908.3282038836078
 20
1622.0
 30
0.0
 11
908.3282038836078
 21
1606.0
 31
0.0
  0
LINE
  5
24A
330
1F
100
AcDbEntity
  8
化粧台
  6
EXLTYPE2
 62
     6
100
AcDbLine
 10
910.2564123650482
 20
1622.0
 30
0.0
 11
910.2564123650482
 21
1606.0
 31
0.0
  0
LINE
  5
24B
330
1F
100
AcDbEntity
  8
化粧台
  6
EXLTYPE2
 62
     6
100
AcDbLine
 10
929.7435876349482
 20
1622.0
 30
0.0
 11
929.7435876349482
 21
1606.0
 31
0.0
  0
LINE
  5
24C
330
1F
100
AcDbEntity
  8
化粧台
  6
EXLTYPE2
 62
     6
100
AcDbLine
 10
931.6717961163886
 20
1622.0
 30
0.0
 11
931.6717961163886
 21
1606.0
 31
0.0
  0
LINE
  5
24D
330
1F
100
AcDbEntity
  8
化粧台
  6
EXLTYPE2
 62
     6
100
AcDbLine
 10
902.0999999999985
 20
1601.5
 30
0.0
 11
937.8999999999978
 21
1601.5
 31
0.0
  0
LINE
  5
24E
330
1F
100
AcDbEntity
  8
化粧台
  6
EXLTYPE2
 62
     6
100
AcDbLine
 10
902.1000000001077
 20
1551.5
 30
0.0
 11
937.8999999999669
 21
1551.5
 31
0.0
  0
LINE
  5
24F
330
1F
100
AcDbEntity
  8
化粧台
  6
EXLTYPE2
 62
     6
100
AcDbLine
 10
904.2000000000389
 20
1549.400000000071
 30
0.0
 11
935.8000000000375
 21
1549.400000000071
 31
0.0
  0
LINE
  5
250
330
1F
100
AcDbEntity
  8
化粧台
  6
EXLTYPE2
 62
     6
100
AcDbLine
 10
948.3000000000366
 20
1641.5
 30
0.0
 11
948.3000000000366
 21
1637.2
 31
0.0
  0
LINE
  5
251
330
1F
100
AcDbEntity
  8
化粧台
  6
EXLTYPE2
 62
     6
100
AcDbLine
 10
891.7000000000389
 20
1641.5
 30
0.0
 11
891.7000000000389
 21
1637.2
 31
0.0
  0
LINE
  5
252
330
1F
100
AcDbEntity
  8
化粧台
  6
EXLTYPE2
 62
     6
100
AcDbLine
 10
897.1999999999989
 20
1517.5
 30
0.0
 11
897.1999999999989
 21
1499.7
 31
0.0
  0
LINE
  5
253
330
1F
100
AcDbEntity
  8
化粧台
  6
EXLTYPE2
 62
     6
100
AcDbLine
 10
942.7999999999975
 20
1517.5
 30
0.0
 11
942.7999999999975
 21
1499.7
 31
0.0
  0
LINE
  5
254
330
1F
100
AcDbEntity
  8
化粧台
  6
EXLTYPE2
 62
     6
100
AcDbLine
 10
897.1999999999989
 20
1517.5
 30
0.0
 11
942.7999999999975
 21
1517.5
 31
0.0
  0
LINE
  5
255
330
1F
100
AcDbEntity
  8
化粧台
  6
EXLTYPE2
 62
     6
100
AcDbLine
 10
941.6433569163983
 20
1515.5
 30
0.0
 11
941.6433569163983
 21
1499.7
 31
0.0
  0
LINE
  5
256
330
1F
100
AcDbEntity
  8
化粧台
  6
EXLTYPE2
 62
     6
100
AcDbLine
 10
898.3566430835981
 20
1515.5
 30
0.0
 11
898.3566430835981
 21
1499.7
 31
0.0
  0
LINE
  5
257
330
1F
100
AcDbEntity
  8
化粧台
  6
EXLTYPE2
 62
     6
100
AcDbLine
 10
930.6007123056988
 20
1515.5
 30
0.0
 11
930.6007123056988
 21
1499.7
 31
0.0
  0
LINE
  5
258
330
1F
100
AcDbEntity
  8
化粧台
  6
EXLTYPE2
 62
     6
100
AcDbLine
 10
927.8083288864982
 20
1515.5
 30
0.0
 11
927.8083288864982
 21
1499.7
 31
0.0
  0
LINE
  5
259
330
1F
100
AcDbEntity
  8
化粧台
  6
EXLTYPE2
 62
     6
100
AcDbLine
 10
912.1916711134982
 20
1515.5
 30
0.0
 11
912.1916711134982
 21
1499.7
 31
0.0
  0
LINE
  5
25A
330
1F
100
AcDbEntity
  8
化粧台
  6
EXLTYPE2
 62
     6
100
AcDbLine
 10
909.3992876942993
 20
1515.5
 30
0.0
 11
909.3992876942993
 21
1499.7
 31
0.0
  0
LINE
  5
25B
330
1F
100
AcDbEntity
  8
化粧台
  6
EXLTYPE2
 62
     6
100
AcDbLine
 10
904.2000000000371
 20
1549.400000000071
 30
0.0
 11
904.2000000000371
 21
1517.5
 31
0.0
  0
LINE
  5
25C
330
1F
100
AcDbEntity
  8
化粧台
  6
EXLTYPE2
 62
     6
100
AcDbLine
 10
935.8000000000375
 20
1549.400000000071
 30
0.0
 11
935.8000000000375
 21
1517.5
 31
0.0
  0
ARC
  5
25D
330
1F
100
AcDbEntity
  8
化粧台
  6
EXLTYPE2
 62
     6
100
AcDbCircle
 10
1076.500000000001
 20
1521.969883160743
 30
0.0
 40
200.0000000000001
100
AcDbArc
 50
155.6784673232748
 51
180.0
  0
ARC
  5
25E
330
1F
100
AcDbEntity
  8
化粧台
  6
EXLTYPE2
 62
     6
100
AcDbCircle
 10
1076.500000000001
 20
1521.969883160743
 30
0.0
 40
213.0000000000001
100
AcDbArc
 50
148.7001393759591
 51
180.0
  0
ARC
  5
25F
330
1F
100
AcDbEntity
  8
化粧台
  6
EXLTYPE2
 62
     6
100
AcDbCircle
 10
763.4999999999945
 20
1521.969883160743
 30
0.0
 40
200.0000000000001
100
AcDbArc
 50
0.0
 51
24.32153267672529
  0
ARC
  5
260
330
1F
100
AcDbEntity
  8
化粧台
  6
EXLTYPE2
 62
     6
100
AcDbCircle
 10
763.4999999999945
 20
1521.969883160743
 30
0.0
 40
213.0000000000001
100
AcDbArc
 50
0.0
 51
31.2998606240408
  0
ARC
  5
261
330
1F
100
AcDbEntity
  8
化粧台
  6
EXLTYPE2
 62
     6
100
AcDbCircle
 10
953.9999999999975
 20
1497.0
 30
0.0
 40
15.00000000000001
100
AcDbArc
 50
180.0
 51
270.0000000000002
  0
LINE
  5
262
330
1F
100
AcDbEntity
  8
化粧台
  6
EXLTYPE2
 62
     6
100
AcDbLine
 10
956.6999999999964
 20
1444.0
 30
0.0
 11
937.9999999999982
 21
1444.0
 31
0.0
  0
LINE
  5
263
330
1F
100
AcDbEntity
  8
化粧台
  6
EXLTYPE2
 62
     6
100
AcDbLine
 10
900.9999999999982
 20
1481.0
 30
0.0
 11
900.9999999999982
 21
1499.7
 31
0.0
  0
LINE
  5
264
330
1F
100
AcDbEntity
  8
化粧台
  6
EXLTYPE2
 62
     6
100
AcDbLine
 10
903.7499999999964
 20
1463.0
 30
0.0
 11
903.7499999999964
 21
1478.0
 31
0.0
  0
LINE
  5
265
330
1F
100
AcDbEntity
  8
化粧台
  6
EXLTYPE2
 62
     6
100
AcDbLine
 10
919.9999999999964
 20
1446.75
 30
0.0
 11
934.9999999999982
 21
1446.75
 31
0.0
  0
ARC
  5
266
330
1F
100
AcDbEntity
  8
化粧台
  6
EXLTYPE2
 62
     6
100
AcDbCircle
 10
919.9999999999964
 20
1463.0
 30
0.0
 40
16.25
100
AcDbArc
 50
180.0
 51
270.0000000000002
  0
LINE
  5
267
330
1F
100
AcDbEntity
  8
化粧台
  6
EXLTYPE2
 62
     6
100
AcDbLine
 10
937.9999999999982
 20
1444.0
 30
0.0
 11
934.9999999999982
 21
1446.75
 31
0.0
  0
LINE
  5
268
330
1F
100
AcDbEntity
  8
化粧台
  6
EXLTYPE2
 62
     6
100
AcDbLine
 10
900.9999999999982
 20
1481.0
 30
0.0
 11
903.7499999999982
 21
1478.0
 31
0.0
  0
LINE
  5
269
330
1F
100
AcDbEntity
  8
化粧台
  6
EXLTYPE2
 62
     6
100
AcDbLine
 10
956.6999999999982
 20
1482.0
 30
0.0
 11
938.9999999999982
 21
1482.0
 31
0.0
  0
LINE
  5
26A
330
1F
100
AcDbEntity
  8
化粧台
  6
EXLTYPE2
 62
     6
100
AcDbLine
 10
938.9999999999982
 20
1482.0
 30
0.0
 11
938.9999999999982
 21
1499.7
 31
0.0
  0
LINE
  5
26B
330
1F
100
AcDbEntity
  8
化粧台
  6
EXLTYPE2
 62
     6
100
AcDbLine
 10
974.4999999999975
 20
1485.799999999999
 30
0.0
 11
956.6999999999982
 21
1485.799999999999
 31
0.0
  0
LINE
  5
26C
330
1F
100
AcDbEntity
  8
化粧台
  6
EXLTYPE2
 62
     6
100
AcDbLine
 10
974.4999999999975
 20
1440.2
 30
0.0
 11
956.6999999999964
 21
1440.2
 31
0.0
  0
LINE
  5
26D
330
1F
100
AcDbEntity
  8
化粧台
  6
EXLTYPE2
 62
     6
100
AcDbLine
 10
974.4999999999975
 20
1485.799999999999
 30
0.0
 11
974.4999999999975
 21
1440.2
 31
0.0
  0
LINE
  5
26E
330
1F
100
AcDbEntity
  8
化粧台
  6
EXLTYPE2
 62
     6
100
AcDbLine
 10
956.6999999999982
 20
1485.799999999999
 30
0.0
 11
956.6999999999964
 21
1440.2
 31
0.0
  0
LINE
  5
26F
330
1F
100
AcDbEntity
  8
化粧台
  6
EXLTYPE2
 62
     6
100
AcDbLine
 10
897.1999999999989
 20
1499.7
 30
0.0
 11
942.7999999999975
 21
1499.7
 31
0.0
  0
LINE
  5
270
330
1F
100
AcDbEntity
  8
化粧台
  6
EXLTYPE2
 62
     6
100
AcDbLine
 10
972.4999999999975
 20
1441.3566430836
 30
0.0
 11
956.6999999999964
 21
1441.3566430836
 31
0.0
  0
LINE
  5
271
330
1F
100
AcDbEntity
  8
化粧台
  6
EXLTYPE2
 62
     6
100
AcDbLine
 10
972.4999999999975
 20
1484.643356916399
 30
0.0
 11
956.6999999999982
 21
1484.643356916399
 31
0.0
  0
LINE
  5
272
330
1F
100
AcDbEntity
  8
化粧台
  6
EXLTYPE2
 62
     6
100
AcDbLine
 10
972.4999999999975
 20
1452.399287694299
 30
0.0
 11
956.6999999999964
 21
1452.399287694299
 31
0.0
  0
LINE
  5
273
330
1F
100
AcDbEntity
  8
化粧台
  6
EXLTYPE2
 62
     6
100
AcDbLine
 10
972.4999999999975
 20
1455.1916711135
 30
0.0
 11
956.6999999999964
 21
1455.1916711135
 31
0.0
  0
LINE
  5
274
330
1F
100
AcDbEntity
  8
化粧台
  6
EXLTYPE2
 62
     6
100
AcDbLine
 10
972.4999999999975
 20
1470.8083288865
 30
0.0
 11
956.6999999999982
 21
1470.8083288865
 31
0.0
  0
LINE
  5
275
330
1F
100
AcDbEntity
  8
化粧台
  6
EXLTYPE2
 62
     6
100
AcDbLine
 10
972.4999999999975
 20
1473.600712305699
 30
0.0
 11
956.6999999999982
 21
1473.600712305699
 31
0.0
  0
LINE
  5
276
330
1F
100
AcDbEntity
  8
化粧台
  6
EXLTYPE2
 62
     6
100
AcDbLine
 10
937.9999999999982
 20
1444.0
 30
0.0
 11
937.9999999999982
 21
1481.0
 31
0.0
  0
LINE
  5
277
330
1F
100
AcDbEntity
  8
化粧台
  6
EXLTYPE2
 62
     6
100
AcDbLine
 10
934.9999999999982
 20
1446.75
 30
0.0
 11
934.9999999999982
 21
1478.0
 31
0.0
  0
LINE
  5
278
330
1F
100
AcDbEntity
  8
化粧台
  6
EXLTYPE2
 62
     6
100
AcDbLine
 10
919.9999999999982
 20
1463.0
 30
0.0
 11
938.9999999999982
 21
1482.0
 31
0.0
  0
LINE
  5
279
330
1F
100
AcDbEntity
  8
化粧台
  6
EXLTYPE2
 62
     6
100
AcDbLine
 10
903.7499999999982
 20
1478.0
 30
0.0
 11
934.9999999999982
 21
1478.0
 31
0.0
  0
LINE
  5
27A
330
1F
100
AcDbEntity
  8
化粧台
  6
EXLTYPE2
 62
     6
100
AcDbLine
 10
900.9999999999982
 20
1481.0
 30
0.0
 11
937.9999999999982
 21
1481.0
 31
0.0
  0
LINE
  5
27B
330
1F
100
AcDbEntity
  8
化粧台
  6
CONTINUOUS
 62
     6
100
AcDbLine
 10
984.5000000000002
 20
934.5
 30
0.0
 11
1005.5
 21
934.5
 31
0.0
  0
LINE
  5
27C
330
1F
100
AcDbEntity
  8
化粧台
  6
EXLTYPE3
 62
     6
100
AcDbLine
 10
995.0000000000002
 20
1152.5
 30
0.0
 11
995.0000000000002
 21
924.5
 31
0.0
  0
LINE
  5
27D
330
1F
100
AcDbEntity
  8
化粧台
  6
EXLTYPE4
 62
     6
100
AcDbLine
 10
1005.5
 20
1142.5
 30
0.0
 11
1005.5
 21
934.5
 31
0.0
  0
LINE
  5
27E
330
1F
100
AcDbEntity
  8
化粧台
  6
EXLTYPE4
 62
     6
100
AcDbLine
 10
984.5000000000002
 20
1142.5
 30
0.0
 11
984.5000000000002
 21
934.5
 31
0.0
  0
LINE
  5
27F
330
1F
100
AcDbEntity
  8
化粧台
  6
CONTINUOUS
 62
     6
100
AcDbLine
 10
855.4999999999964
 20
934.5
 30
0.0
 11
834.4999999999964
 21
934.5
 31
0.0
  0
LINE
  5
280
330
1F
100
AcDbEntity
  8
化粧台
  6
EXLTYPE3
 62
     6
100
AcDbLine
 10
844.9999999999964
 20
1152.5
 30
0.0
 11
844.9999999999964
 21
924.5
 31
0.0
  0
LINE
  5
281
330
1F
100
AcDbEntity
  8
化粧台
  6
EXLTYPE4
 62
     6
100
AcDbLine
 10
834.4999999999964
 20
1142.5
 30
0.0
 11
834.4999999999964
 21
934.5
 31
0.0
  0
LINE
  5
282
330
1F
100
AcDbEntity
  8
化粧台
  6
EXLTYPE4
 62
     6
100
AcDbLine
 10
855.4999999999964
 20
1142.5
 30
0.0
 11
855.4999999999964
 21
934.5
 31
0.0
  0
LINE
  5
283
330
1F
100
AcDbEntity
  8
化粧台
  6
CONTINUOUS
 62
     2
100
AcDbLine
 10
920.9999999999991
 20
1032.5
 30
0.0
 11
920.9999999999991
 21
1585.5
 31
0.0
  0
LINE
  5
284
330
1F
100
AcDbEntity
  8
化粧台
  6
CONTINUOUS
 62
     2
100
AcDbLine
 10
918.9999999999991
 20
1032.5
 30
0.0
 11
918.9999999999991
 21
1585.5
 31
0.0
  0
LINE
  5
285
330
1F
100
AcDbEntity
  8
化粧台
  6
CONTINUOUS
 62
     6
100
AcDbLine
 10
920.9999999999991
 20
1585.5
 30
0.0
 11
920.9999999999991
 21
1617.5
 31
0.0
  0
LINE
  5
286
330
1F
100
AcDbEntity
  8
化粧台
  6
CONTINUOUS
 62
     6
100
AcDbLine
 10
918.9999999999991
 20
1585.5
 30
0.0
 11
918.9999999999991
 21
1617.5
 31
0.0
  0
LINE
  5
287
330
1F
100
AcDbEntity
  8
化粧台
  6
CONTINUOUS
 62
     2
100
AcDbLine
 10
1104.149999999995
 20
918.0
 30
0.0
 11
1135.849999999995
 21
918.0
 31
0.0
  0
LINE
  5
288
330
1F
100
AcDbEntity
  8
化粧台
  6
CONTINUOUS
 62
     2
100
AcDbLine
 10
1104.149999999995
 20
942.5
 30
0.0
 11
1104.149999999995
 21
918.0
 31
0.0
  0
LINE
  5
289
330
1F
100
AcDbEntity
  8
化粧台
  6
CONTINUOUS
 62
     2
100
AcDbLine
 10
1135.849999999995
 20
918.0
 30
0.0
 11
1135.849999999993
 21
942.5
 31
0.0
  0
ARC
  5
28A
330
1F
100
AcDbEntity
  8
化粧台
  6
EXLTYPE2
 62
     6
100
AcDbCircle
 10
1013.99999999999
 20
1446.999999999999
 30
0.0
 40
32.0
100
AcDbArc
 50
0.0
 51
90.00000000000001
  0
LINE
  5
28B
330
1F
100
AcDbEntity
  8
化粧台
  6
EXLTYPE2
 62
     6
100
AcDbLine
 10
1013.99999999999
 20
1478.999999999999
 30
0.0
 11
974.4999999999975
 21
1478.999999999999
 31
0.0
  0
LINE
  5
28C
330
1F
100
AcDbEntity
  8
化粧台
  6
EXLTYPE2
 62
     6
100
AcDbLine
 10
1013.999999999994
 20
1447.0
 30
0.0
 11
974.4999999999975
 21
1447.0
 31
0.0
  0
LINE
  5
28D
330
1F
100
AcDbEntity
  8
化粧台
  6
EXLTYPE2
 62
     6
100
AcDbLine
 10
1011.499999999997
 20
1398.0
 30
0.0
 11
1011.499999999997
 21
1363.0
 31
0.0
  0
LINE
  5
28E
330
1F
100
AcDbEntity
  8
化粧台
  6
EXLTYPE2
 62
     6
100
AcDbLine
 10
1048.499999999997
 20
1398.0
 30
0.0
 11
1048.499999999997
 21
1363.0
 31
0.0
  0
LINE
  5
28F
330
1F
100
AcDbEntity
  8
化粧台
  6
EXLTYPE2
 62
     6
100
AcDbLine
 10
1014.149999999995
 20
1360.35
 30
0.0
 11
1014.149999999995
 21
1322.593254606
 31
0.0
  0
LINE
  5
290
330
1F
100
AcDbEntity
  8
化粧台
  6
EXLTYPE2
 62
     6
100
AcDbLine
 10
1045.849999999995
 20
1360.35
 30
0.0
 11
1045.849999999995
 21
1320.0
 31
0.0
  0
LINE
  5
291
330
1F
100
AcDbEntity
  8
化粧台
  6
EXLTYPE2
 62
     6
100
AcDbLine
 10
1045.849999999995
 20
1325.0
 30
0.0
 11
1061.178124999996
 21
1325.0
 31
0.0
  0
LINE
  5
292
330
1F
100
AcDbEntity
  8
化粧台
  6
EXLTYPE2
 62
     6
100
AcDbLine
 10
1075.856249999997
 20
1350.0
 30
0.0
 11
1075.856249999997
 21
1320.0
 31
0.0
  0
LINE
  5
293
330
1F
100
AcDbEntity
  8
化粧台
  6
EXLTYPE2
 62
     6
100
AcDbLine
 10
1026.178124999996
 20
1295.02532196
 30
0.0
 11
1026.178124999996
 21
1290.5
 31
0.0
  0
LINE
  5
294
330
1F
100
AcDbEntity
  8
化粧台
  6
EXLTYPE2
 62
     6
100
AcDbLine
 10
1061.178124999996
 20
1325.0
 30
0.0
 11
1061.178124999996
 21
1290.5
 31
0.0
  0
LINE
  5
295
330
1F
100
AcDbEntity
  8
化粧台
  6
EXLTYPE2
 62
     6
100
AcDbLine
 10
1048.499999999997
 20
1363.0
 30
0.0
 11
1045.849999999995
 21
1360.35
 31
0.0
  0
LINE
  5
296
330
1F
100
AcDbEntity
  8
化粧台
  6
EXLTYPE2
 62
     6
100
AcDbLine
 10
1011.499999999997
 20
1363.0
 30
0.0
 11
1014.149999999995
 21
1360.35
 31
0.0
  0
LINE
  5
297
330
1F
100
AcDbEntity
  8
化粧台
  6
EXLTYPE2
 62
     6
100
AcDbLine
 10
1061.756249999996
 20
1320.0
 30
0.0
 11
1075.856249999997
 21
1320.0
 31
0.0
  0
LINE
  5
298
330
1F
100
AcDbEntity
  8
化粧台
  6
EXLTYPE2
 62
     6
100
AcDbLine
 10
1006.599999999996
 20
1398.0
 30
0.0
 11
1053.399999999997
 21
1398.0
 31
0.0
  0
LINE
  5
299
330
1F
100
AcDbEntity
  8
化粧台
  6
EXLTYPE2
 62
     6
100
AcDbLine
 10
1008.599999999996
 20
1416.0
 30
0.0
 11
1051.399999999997
 21
1416.0
 31
0.0
  0
LINE
  5
29A
330
1F
100
AcDbEntity
  8
化粧台
  6
EXLTYPE2
 62
     6
100
AcDbLine
 10
1006.599999999996
 20
1414.0
 30
0.0
 11
1006.599999999996
 21
1398.0
 31
0.0
  0
LINE
  5
29B
330
1F
100
AcDbEntity
  8
化粧台
  6
EXLTYPE2
 62
     6
100
AcDbLine
 10
1053.399999999997
 20
1414.0
 30
0.0
 11
1053.399999999997
 21
1398.0
 31
0.0
  0
ARC
  5
29C
330
1F
100
AcDbEntity
  8
化粧台
  6
EXLTYPE2
 62
     6
100
AcDbCircle
 10
1008.599999999996
 20
1414.0
 30
0.0
 40
2.0
100
AcDbArc
 50
90.00000000000001
 51
180.0
  0
ARC
  5
29D
330
1F
100
AcDbEntity
  8
化粧台
  6
EXLTYPE2
 62
     6
100
AcDbCircle
 10
1051.399999999997
 20
1414.0
 30
0.0
 40
2.0
100
AcDbArc
 50
0.0
 51
90.00000000000001
  0
LINE
  5
29E
330
1F
100
AcDbEntity
  8
化粧台
  6
EXLTYPE2
 62
     6
100
AcDbLine
 10
1045.849999999995
 20
1350.0
 30
0.0
 11
1080.756249999996
 21
1350.0
 31
0.0
  0
LINE
  5
29F
330
1F
100
AcDbEntity
  8
化粧台
  6
EXLTYPE2
 62
     6
100
AcDbLine
 10
1048.499999999997
 20
1368.0
 30
0.0
 11
1078.756249999996
 21
1368.0
 31
0.0
  0
LINE
  5
2A0
330
1F
100
AcDbEntity
  8
化粧台
  6
EXLTYPE2
 62
     6
100
AcDbLine
 10
1080.756249999996
 20
1366.0
 30
0.0
 11
1080.756249999996
 21
1350.0
 31
0.0
  0
ARC
  5
2A1
330
1F
100
AcDbEntity
  8
化粧台
  6
EXLTYPE2
 62
     6
100
AcDbCircle
 10
1078.756249999996
 20
1366.0
 30
0.0
 40
2.0
100
AcDbArc
 50
0.0
 51
90.00000000000001
  0
LINE
  5
2A2
330
1F
100
AcDbEntity
  8
化粧台
  6
EXLTYPE2
 62
     6
100
AcDbLine
 10
1020.678124999996
 20
1290.5
 30
0.0
 11
1066.678124999996
 21
1290.5
 31
0.0
  0
LINE
  5
2A3
330
1F
100
AcDbEntity
  8
化粧台
  6
EXLTYPE2
 62
     6
100
AcDbLine
 10
1022.178124999995
 20
1274.0
 30
0.0
 11
1065.178124999995
 21
1274.0
 31
0.0
  0
LINE
  5
2A4
330
1F
100
AcDbEntity
  8
化粧台
  6
EXLTYPE2
 62
     6
100
AcDbLine
 10
1066.678124999996
 20
1275.5
 30
0.0
 11
1066.678124999996
 21
1290.5
 31
0.0
  0
LINE
  5
2A5
330
1F
100
AcDbEntity
  8
化粧台
  6
EXLTYPE2
 62
     6
100
AcDbLine
 10
1020.678124999996
 20
1275.5
 30
0.0
 11
1020.678124999996
 21
1290.5
 31
0.0
  0
ARC
  5
2A6
330
1F
100
AcDbEntity
  8
化粧台
  6
EXLTYPE2
 62
     6
100
AcDbCircle
 10
1022.178124999995
 20
1275.5
 30
0.0
 40
1.5
100
AcDbArc
 50
180.0
 51
270.0000000000002
  0
ARC
  5
2A7
330
1F
100
AcDbEntity
  8
化粧台
  6
EXLTYPE2
 62
     6
100
AcDbCircle
 10
1065.178124999995
 20
1275.5
 30
0.0
 40
1.5
100
AcDbArc
 50
270.0000000000002
 51
0.0
  0
LINE
  5
2A8
330
1F
100
AcDbEntity
  8
化粧台
  6
EXLTYPE2
 62
     6
100
AcDbLine
 10
1014.149999999995
 20
1360.35
 30
0.0
 11
1045.849999999995
 21
1360.35
 31
0.0
  0
ARC
  5
2A9
330
1F
100
AcDbEntity
  8
化粧台
  6
EXLTYPE2
 62
     6
100
AcDbCircle
 10
1054.149999999997
 20
1322.593254606
 30
0.0
 40
40.0
100
AcDbArc
 50
180.0
 51
216.1437885097002
  0
ARC
  5
2AA
330
1F
100
AcDbEntity
  8
化粧台
  6
EXLTYPE2
 62
     6
100
AcDbCircle
 10
1033.961516187997
 20
1307.847912245
 30
0.0
 40
15.00000000000001
100
AcDbArc
 50
216.1437885097004
 51
310.3739745502004
  0
ARC
  5
2AB
330
1F
100
AcDbEntity
  8
化粧台
  6
EXLTYPE2
 62
     6
100
AcDbCircle
 10
1031.595910551997
 20
1320.923829377
 30
0.0
 40
40.0
100
AcDbArc
 50
317.6935529327007
 51
358.6765942212
  0
LINE
  5
2AC
330
1F
100
AcDbEntity
  8
化粧台
  6
EXLTYPE2
 62
     6
100
AcDbLine
 10
1073.206249999997
 20
1369.828125
 30
0.0
 11
1073.206249999997
 21
1368.0
 31
0.0
  0
ARC
  5
2AD
330
1F
100
AcDbEntity
  8
化粧台
  6
EXLTYPE2
 62
     6
100
AcDbCircle
 10
1088.678124999995
 20
1369.828125
 30
0.0
 40
15.47187500000001
100
AcDbArc
 50
0.0
 51
180.0
  0
ARC
  5
2AE
330
1F
100
AcDbEntity
  8
化粧台
  6
EXLTYPE2
 62
     6
100
AcDbCircle
 10
1088.678124999995
 20
1369.828125
 30
0.0
 40
47.17187499999
100
AcDbArc
 50
0.0
 51
138.4056477225004
  0
LINE
  5
2AF
330
1F
100
AcDbEntity
  8
化粧台
  6
EXLTYPE2
 62
     6
100
AcDbLine
 10
1012.870011102996
 20
1414.0
 30
0.0
 11
1012.870011102996
 21
1398.0
 31
0.0
  0
LINE
  5
2B0
330
1F
100
AcDbEntity
  8
化粧台
  6
EXLTYPE2
 62
     6
100
AcDbLine
 10
1023.729988896996
 20
1414.0
 30
0.0
 11
1023.729988896996
 21
1398.0
 31
0.0
  0
LINE
  5
2B1
330
1F
100
AcDbEntity
  8
化粧台
  6
EXLTYPE2
 62
     6
100
AcDbLine
 10
1036.270011102996
 20
1414.0
 30
0.0
 11
1036.270011102996
 21
1398.0
 31
0.0
  0
LINE
  5
2B2
330
1F
100
AcDbEntity
  8
化粧台
  6
EXLTYPE2
 62
     6
100
AcDbLine
 10
1047.129988896996
 20
1414.0
 30
0.0
 11
1047.129988896996
 21
1398.0
 31
0.0
  0
LINE
  5
2B3
330
1F
100
AcDbEntity
  8
化粧台
  6
EXLTYPE2
 62
     6
100
AcDbLine
 10
1051.086238896997
 20
1366.0
 30
0.0
 11
1051.086238896997
 21
1350.0
 31
0.0
  0
LINE
  5
2B4
330
1F
100
AcDbEntity
  8
化粧台
  6
EXLTYPE2
 62
     6
100
AcDbLine
 10
1063.626261102997
 20
1366.0
 30
0.0
 11
1063.626261102997
 21
1350.0
 31
0.0
  0
LINE
  5
2B5
330
1F
100
AcDbEntity
  8
化粧台
  6
EXLTYPE2
 62
     6
100
AcDbLine
 10
1074.486238896996
 20
1366.0
 30
0.0
 11
1074.486238896996
 21
1350.0
 31
0.0
  0
LINE
  5
2B6
330
1F
100
AcDbEntity
  8
化粧台
  6
EXLTYPE2
 62
     6
100
AcDbLine
 10
1022.824466462998
 20
1274.0
 30
0.0
 11
1022.824466462998
 21
1290.5
 31
0.0
  0
LINE
  5
2B7
330
1F
100
AcDbEntity
  8
化粧台
  6
EXLTYPE2
 62
     6
100
AcDbLine
 10
1064.531783536997
 20
1274.0
 30
0.0
 11
1064.531783536997
 21
1290.5
 31
0.0
  0
LINE
  5
2B8
330
1F
100
AcDbEntity
  8
化粧台
  6
EXLTYPE2
 62
     6
100
AcDbLine
 10
1035.394586245996
 20
1275.5
 30
0.0
 11
1035.394586245996
 21
1290.5
 31
0.0
  0
LINE
  5
2B9
330
1F
100
AcDbEntity
  8
化粧台
  6
EXLTYPE2
 62
     6
100
AcDbLine
 10
1051.961663753998
 20
1275.5
 30
0.0
 11
1051.961663753998
 21
1290.5
 31
0.0
  0
LINE
  5
2BA
330
1F
100
AcDbEntity
  8
化粧台
  6
EXLTYPE2
 62
     6
100
AcDbLine
 10
1030.928124999996
 20
1290.5
 30
0.0
 11
1030.928124999996
 21
1275.5
 31
0.0
  0
LINE
  5
2BB
330
1F
100
AcDbEntity
  8
化粧台
  6
EXLTYPE2
 62
     6
100
AcDbLine
 10
1056.428124999996
 20
1290.5
 30
0.0
 11
1056.428124999996
 21
1275.5
 31
0.0
  0
LINE
  5
2BC
330
1F
100
AcDbEntity
  8
化粧台
  6
EXLTYPE2
 62
     6
100
AcDbLine
 10
1013.999999999994
 20
1416.0
 30
0.0
 11
1013.999999999994
 21
1447.0
 31
0.0
  0
LINE
  5
2BD
330
1F
100
AcDbEntity
  8
化粧台
  6
EXLTYPE2
 62
     6
100
AcDbLine
 10
1045.99999999999
 20
1416.0
 30
0.0
 11
1045.99999999999
 21
1447.0
 31
0.0
  0
LINE
  5
2BE
330
1F
100
AcDbEntity
  8
化粧台
  6
EXLTYPE2
 62
     6
100
AcDbLine
 10
1097.199999999998
 20
1004.700000000001
 30
0.0
 11
1142.799999999998
 21
1004.700000000001
 31
0.0
  0
LINE
  5
2BF
330
1F
100
AcDbEntity
  8
化粧台
  6
EXLTYPE2
 62
     6
100
AcDbLine
 10
1097.199999999998
 20
1022.500000000001
 30
0.0
 11
1142.799999999998
 21
1022.500000000001
 31
0.0
  0
LINE
  5
2C0
330
1F
100
AcDbEntity
  8
化粧台
  6
EXLTYPE2
 62
     6
100
AcDbLine
 10
1142.799999999998
 20
1022.500000000001
 30
0.0
 11
1142.799999999998
 21
1004.700000000001
 31
0.0
  0
LINE
  5
2C1
330
1F
100
AcDbEntity
  8
化粧台
  6
EXLTYPE2
 62
     6
100
AcDbLine
 10
1097.199999999998
 20
1022.500000000001
 30
0.0
 11
1097.199999999998
 21
1004.700000000001
 31
0.0
  0
LINE
  5
2C2
330
1F
100
AcDbEntity
  8
化粧台
  6
EXLTYPE2
 62
     6
100
AcDbLine
 10
1086.499999999999
 20
964.5000000000009
 30
0.0
 11
1153.500000000001
 21
964.5000000000009
 31
0.0
  0
LINE
  5
2C3
330
1F
100
AcDbEntity
  8
化粧台
  6
EXLTYPE2
 62
     6
100
AcDbLine
 10
1099.3
 20
1004.700000000001
 30
0.0
 11
1099.3
 21
1002.500000000001
 31
0.0
  0
LINE
  5
2C4
330
1F
100
AcDbEntity
  8
化粧台
  6
EXLTYPE2
 62
     6
100
AcDbLine
 10
1140.699999999999
 20
1004.700000000001
 30
0.0
 11
1140.699999999999
 21
1002.500000000001
 31
0.0
  0
LINE
  5
2C5
330
1F
100
AcDbEntity
  8
化粧台
  6
EXLTYPE2
 62
     6
100
AcDbLine
 10
1153.500000000001
 20
984.5000000000009
 30
0.0
 11
1153.500000000001
 21
964.5000000000009
 31
0.0
  0
ARC
  5
2C6
330
1F
100
AcDbEntity
  8
化粧台
  6
EXLTYPE2
 62
     6
100
AcDbCircle
 10
1150.500000000001
 20
984.5000000000009
 30
0.0
 40
3.000000000000003
100
AcDbArc
 50
0.0
 51
90.00000000000001
  0
LINE
  5
2C7
330
1F
100
AcDbEntity
  8
化粧台
  6
EXLTYPE2
 62
     6
100
AcDbLine
 10
1147.0
 20
999.5000000000009
 30
0.0
 11
1147.0
 21
987.5000000000009
 31
0.0
  0
ARC
  5
2C8
330
1F
100
AcDbEntity
  8
化粧台
  6
EXLTYPE2
 62
     6
100
AcDbCircle
 10
1144.000000000001
 20
999.5000000000009
 30
0.0
 40
3.000000000000003
100
AcDbArc
 50
0.0
 51
90.00000000000001
  0
LINE
  5
2C9
330
1F
100
AcDbEntity
  8
化粧台
  6
EXLTYPE2
 62
     6
100
AcDbLine
 10
1093.000000000001
 20
999.5000000000009
 30
0.0
 11
1093.000000000001
 21
987.5000000000009
 31
0.0
  0
LINE
  5
2CA
330
1F
100
AcDbEntity
  8
化粧台
  6
EXLTYPE2
 62
     6
100
AcDbLine
 10
1096.000000000001
 20
1002.500000000001
 30
0.0
 11
1144.000000000001
 21
1002.500000000001
 31
0.0
  0
ARC
  5
2CB
330
1F
100
AcDbEntity
  8
化粧台
  6
EXLTYPE2
 62
     6
100
AcDbCircle
 10
1096.000000000001
 20
999.5000000000009
 30
0.0
 40
3.000000000000003
100
AcDbArc
 50
90.00000000000001
 51
180.0
  0
LINE
  5
2CC
330
1F
100
AcDbEntity
  8
化粧台
  6
EXLTYPE2
 62
     6
100
AcDbLine
 10
1086.499999999999
 20
984.5000000000009
 30
0.0
 11
1086.499999999999
 21
964.5000000000009
 31
0.0
  0
LINE
  5
2CD
330
1F
100
AcDbEntity
  8
化粧台
  6
EXLTYPE2
 62
     6
100
AcDbLine
 10
1089.500000000001
 20
987.5000000000009
 30
0.0
 11
1150.500000000001
 21
987.5000000000009
 31
0.0
  0
ARC
  5
2CE
330
1F
100
AcDbEntity
  8
化粧台
  6
EXLTYPE2
 62
     6
100
AcDbCircle
 10
1089.500000000001
 20
984.5000000000009
 30
0.0
 40
3.000000000000003
100
AcDbArc
 50
90.00000000000001
 51
180.0
  0
LINE
  5
2CF
330
1F
100
AcDbEntity
  8
化粧台
  6
EXLTYPE2
 62
     6
100
AcDbLine
 10
1109.399287694298
 20
1020.500000000001
 30
0.0
 11
1109.399287694298
 21
1004.700000000001
 31
0.0
  0
LINE
  5
2D0
330
1F
100
AcDbEntity
  8
化粧台
  6
EXLTYPE2
 62
     6
100
AcDbLine
 10
1112.191671113499
 20
1020.500000000001
 30
0.0
 11
1112.191671113499
 21
1004.700000000001
 31
0.0
  0
LINE
  5
2D1
330
1F
100
AcDbEntity
  8
化粧台
  6
EXLTYPE2
 62
     6
100
AcDbLine
 10
1127.808328886499
 20
1020.500000000001
 30
0.0
 11
1127.808328886499
 21
1004.700000000001
 31
0.0
  0
LINE
  5
2D2
330
1F
100
AcDbEntity
  8
化粧台
  6
EXLTYPE2
 62
     6
100
AcDbLine
 10
1130.600712305698
 20
1020.500000000001
 30
0.0
 11
1130.600712305698
 21
1004.700000000001
 31
0.0
  0
LINE
  5
2D3
330
1F
100
AcDbEntity
  8
化粧台
  6
EXLTYPE2
 62
     6
100
AcDbLine
 10
1098.356643083599
 20
1020.5
 30
0.0
 11
1098.356643083599
 21
1004.700000000001
 31
0.0
  0
LINE
  5
2D4
330
1F
100
AcDbEntity
  8
化粧台
  6
EXLTYPE2
 62
     6
100
AcDbLine
 10
1141.643356916396
 20
1020.500000000001
 30
0.0
 11
1141.643356916396
 21
1004.700000000001
 31
0.0
  0
LINE
  5
2D5
330
1F
100
AcDbEntity
  8
化粧台
  6
EXLTYPE2
 62
     6
100
AcDbLine
 10
1104.149999999995
 20
1369.828125
 30
0.0
 11
1104.149999999995
 21
942.5
 31
0.0
  0
LINE
  5
2D6
330
1F
100
AcDbEntity
  8
化粧台
  6
EXLTYPE2
 62
     6
100
AcDbLine
 10
1135.849999999993
 20
942.5
 30
0.0
 11
1135.849999999995
 21
1369.828125
 31
0.0
  0
LINE
  5
2D7
330
1F
100
AcDbEntity
  8
化粧台
  6
CONTINUOUS
 62
     2
100
AcDbLine
 10
636.9999999999982
 20
942.5
 30
0.0
 11
636.9999999999982
 21
1032.5
 31
0.0
  0
LINE
  5
2D8
330
1F
100
AcDbEntity
  8
化粧台
  6
CONTINUOUS
 62
     2
100
AcDbLine
 10
619.9999999999982
 20
1641.499999999999
 30
0.0
 11
619.9999999999982
 21
1622.5
 31
0.0
  0
LINE
  5
2D9
330
1F
100
AcDbEntity
  8
化粧台
  6
CONTINUOUS
 62
     6
100
AcDbLine
 10
739.9999999999982
 20
1535.499999999999
 30
0.0
 11
739.9999999999982
 21
1509.499999999999
 31
0.0
  0
LINE
  5
2DA
330
1F
100
AcDbEntity
  8
化粧台
  6
CONTINUOUS
 62
     6
100
AcDbLine
 10
726.9999999999982
 20
1522.499999999999
 30
0.0
 11
752.9999999999982
 21
1522.499999999999
 31
0.0
  0
LINE
  5
2DB
330
1F
100
AcDbEntity
  8
化粧台
  6
CONTINUOUS
 62
     2
100
AcDbLine
 10
621.9999999999982
 20
942.5
 30
0.0
 11
621.9999999999982
 21
1622.5
 31
0.0
  0
LINE
  5
2DC
330
1F
100
AcDbEntity
  8
化粧台
  6
CONTINUOUS
 62
     6
100
AcDbLine
 10
624.9999999999982
 20
1617.5
 30
0.0
 11
624.9999999999982
 21
1585.5
 31
0.0
  0
LINE
  5
2DD
330
1F
100
AcDbEntity
  8
化粧台
  6
CONTINUOUS
 62
     2
100
AcDbLine
 10
651.9999999999982
 20
942.5
 30
0.0
 11
651.9999999999982
 21
1032.5
 31
0.0
  0
LINE
  5
2DE
330
1F
100
AcDbEntity
  8
化粧台
  6
CONTINUOUS
 62
     2
100
AcDbLine
 10
624.9999999999982
 20
1585.5
 30
0.0
 11
624.9999999999982
 21
1032.5
 31
0.0
  0
LINE
  5
2DF
330
1F
100
AcDbEntity
  8
化粧台
  6
CONTINUOUS
 62
     2
100
AcDbLine
 10
1202.999999999997
 20
942.5
 30
0.0
 11
1202.999999999997
 21
1032.5
 31
0.0
  0
LINE
  5
2E0
330
1F
100
AcDbEntity
  8
化粧台
  6
CONTINUOUS
 62
     2
100
AcDbLine
 10
1219.999999999997
 20
1641.499999999999
 30
0.0
 11
1219.999999999997
 21
1622.499999999999
 31
0.0
  0
LINE
  5
2E1
330
1F
100
AcDbEntity
  8
化粧台
  6
CONTINUOUS
 62
     6
100
AcDbLine
 10
1099.999999999997
 20
1535.499999999999
 30
0.0
 11
1099.999999999997
 21
1509.499999999999
 31
0.0
  0
LINE
  5
2E2
330
1F
100
AcDbEntity
  8
化粧台
  6
CONTINUOUS
 62
     6
100
AcDbLine
 10
1112.999999999997
 20
1522.499999999999
 30
0.0
 11
1086.999999999997
 21
1522.499999999999
 31
0.0
  0
LINE
  5
2E3
330
1F
100
AcDbEntity
  8
化粧台
  6
CONTINUOUS
 62
     2
100
AcDbLine
 10
1217.999999999997
 20
942.5
 30
0.0
 11
1217.999999999997
 21
1622.499999999999
 31
0.0
  0
LINE
  5
2E4
330
1F
100
AcDbEntity
  8
化粧台
  6
CONTINUOUS
 62
     6
100
AcDbLine
 10
1214.999999999997
 20
1617.5
 30
0.0
 11
1214.999999999997
 21
1585.5
 31
0.0
  0
LINE
  5
2E5
330
1F
100
AcDbEntity
  8
化粧台
  6
CONTINUOUS
 62
     2
100
AcDbLine
 10
1187.999999999997
 20
942.5
 30
0.0
 11
1187.999999999997
 21
1032.5
 31
0.0
  0
LINE
  5
2E6
330
1F
100
AcDbEntity
  8
化粧台
  6
CONTINUOUS
 62
     2
100
AcDbLine
 10
1214.999999999997
 20
1585.5
 30
0.0
 11
1214.999999999997
 21
1032.5
 31
0.0
  0
LINE
  5
2E7
330
1F
100
AcDbEntity
  8
化粧台
  6
CONTINUOUS
 62
     2
100
AcDbLine
 10
1219.999999999997
 20
1622.499999999999
 30
0.0
 11
619.9999999999982
 21
1622.499999999999
 31
0.0
  0
LINE
  5
2E8
330
1F
100
AcDbEntity
  8
化粧台
  6
CONTINUOUS
 62
     2
100
AcDbLine
 10
1219.999999999997
 20
1641.499999999999
 30
0.0
 11
619.9999999999982
 21
1641.499999999999
 31
0.0
  0
LINE
  5
2E9
330
1F
100
AcDbEntity
  8
化粧台
  6
CONTINUOUS
 62
     6
100
AcDbLine
 10
1214.999999999997
 20
1607.5
 30
0.0
 11
624.9999999999982
 21
1607.5
 31
0.0
  0
LINE
  5
2EA
330
1F
100
AcDbEntity
  8
化粧台
  6
CONTINUOUS
 62
     6
100
AcDbLine
 10
1214.999999999997
 20
1617.5
 30
0.0
 11
624.9999999999982
 21
1617.5
 31
0.0
  0
LINE
  5
2EB
330
1F
100
AcDbEntity
  8
化粧台
  6
CONTINUOUS
 62
     6
100
AcDbLine
 10
1214.999999999997
 20
1589.5423136954
 30
0.0
 11
624.9999999999982
 21
1589.5423136954
 31
0.0
  0
LINE
  5
2EC
330
1F
100
AcDbEntity
  8
化粧台
  6
CONTINUOUS
 62
     6
100
AcDbLine
 10
1214.999999999997
 20
1585.5
 30
0.0
 11
624.9999999999982
 21
1585.5
 31
0.0
  0
LINE
  5
2ED
330
1F
100
AcDbEntity
  8
化粧台
  6
CONTINUOUS
 62
     2
100
AcDbLine
 10
621.9999999999982
 20
942.5
 30
0.0
 11
1217.999999999997
 21
942.5
 31
0.0
  0
LINE
  5
2EE
330
1F
100
AcDbEntity
  8
化粧台
  6
CONTINUOUS
 62
     2
100
AcDbLine
 10
1214.999999999997
 20
1032.5
 30
0.0
 11
624.9999999999982
 21
1032.5
 31
0.0
  0
CIRCLE
  5
2EF
330
1F
100
AcDbEntity
  8
化粧台
  6
EXLTYPE2
 62
     6
100
AcDbCircle
 10
1120.0
 20
1412.5
 30
0.0
 40
16.0
  0
LINE
  5
2F0
330
1F
100
AcDbEntity
  8
化粧台
  6
CONTINUOUS
 62
     6
100
AcDbLine
 10
1141.5
 20
1412.5
 30
0.0
 11
1099.5
 21
1412.5
 31
0.0
  0
LINE
  5
2F1
330
1F
100
AcDbEntity
  8
化粧台
  6
CONTINUOUS
 62
     6
100
AcDbLine
 10
1120.0
 20
1393.5
 30
0.0
 11
1120.0
 21
1438.5
 31
0.0
  0
LINE
  5
2F2
330
1F
100
AcDbEntity
  8
化粧台
  6
EXLTYPE3
 62
     6
100
AcDbLine
 10
1119.999999999997
 20
1396.5
 30
0.0
 11
1119.999999999997
 21
903.0
 31
0.0
  0
ARC
  5
2F3
330
1F
100
AcDbEntity
  8
化粧台
  6
CONTINUOUS
 62
     2
100
AcDbCircle
 10
919.9999999999982
 20
-3036.000000000005
 30
0.0
 40
4847.500000000005
100
AcDbArc
 50
90.29549269471684
 51
92.60390534515777
  0
ARC
  5
2F4
330
1F
100
AcDbEntity
  8
化粧台
  6
CONTINUOUS
 62
     2
100
AcDbCircle
 10
919.9999999999982
 20
-3036.000000000005
 30
0.0
 40
4847.500000000005
100
AcDbArc
 50
87.39609465484229
 51
89.70450730528286
  0
LINE
  5
2F5
330
1F
100
AcDbEntity
  8
化粧台
  6
EXLTYPE2
 62
     6
100
AcDbLine
 10
982.9999999999975
 20
1376.66369123504
 30
0.0
 11
982.9999999999975
 21
1388.33630876496
 31
0.0
  0
LINE
  5
2F6
330
1F
100
AcDbEntity
  8
化粧台
  6
EXLTYPE2
 62
     6
100
AcDbLine
 10
981.5543916547879
 20
1390.84017586672
 30
0.0
 11
971.4456083452071
 21
1396.67648463168
 31
0.0
  0
LINE
  5
2F7
330
1F
100
AcDbEntity
  8
化粧台
  6
EXLTYPE2
 62
     6
100
AcDbLine
 10
968.5543916547879
 20
1396.67648463168
 30
0.0
 11
958.4456083452071
 21
1390.84017586672
 31
0.0
  0
LINE
  5
2F8
330
1F
100
AcDbEntity
  8
化粧台
  6
EXLTYPE2
 62
     6
100
AcDbLine
 10
956.9999999999975
 20
1388.33630876496
 30
0.0
 11
956.9999999999975
 21
1376.66369123504
 31
0.0
  0
LINE
  5
2F9
330
1F
100
AcDbEntity
  8
化粧台
  6
EXLTYPE2
 62
     6
100
AcDbLine
 10
958.4456083452071
 20
1374.15982413328
 30
0.0
 11
968.5543916547879
 21
1368.32351536832
 31
0.0
  0
LINE
  5
2FA
330
1F
100
AcDbEntity
  8
化粧台
  6
EXLTYPE2
 62
     6
100
AcDbLine
 10
971.4456083452071
 20
1368.32351536832
 30
0.0
 11
981.5543916547879
 21
1374.15982413328
 31
0.0
  0
ARC
  5
2FB
330
1F
100
AcDbEntity
  8
化粧台
  6
EXLTYPE2
 62
     6
100
AcDbCircle
 10
969.9999999999975
 20
1382.5
 30
0.0
 40
14.25000000000001
100
AcDbArc
 50
264.1775448336001
 51
275.8224551664
  0
ARC
  5
2FC
330
1F
100
AcDbEntity
  8
化粧台
  6
EXLTYPE2
 62
     6
100
AcDbCircle
 10
969.9999999999975
 20
1382.5
 30
0.0
 40
14.25000000000001
100
AcDbArc
 50
324.1775448336001
 51
335.8224551664001
  0
ARC
  5
2FD
330
1F
100
AcDbEntity
  8
化粧台
  6
EXLTYPE2
 62
     6
100
AcDbCircle
 10
969.9999999999975
 20
1382.5
 30
0.0
 40
14.25000000000001
100
AcDbArc
 50
24.17754483359991
 51
35.82245516639971
  0
ARC
  5
2FE
330
1F
100
AcDbEntity
  8
化粧台
  6
EXLTYPE2
 62
     6
100
AcDbCircle
 10
969.9999999999975
 20
1382.5
 30
0.0
 40
14.25000000000001
100
AcDbArc
 50
84.1775448336001
 51
95.8224551663599
  0
ARC
  5
2FF
330
1F
100
AcDbEntity
  8
化粧台
  6
EXLTYPE2
 62
     6
100
AcDbCircle
 10
969.9999999999975
 20
1382.5
 30
0.0
 40
14.25000000000001
100
AcDbArc
 50
144.1775448336404
 51
155.8224551663601
  0
ARC
  5
300
330
1F
100
AcDbEntity
  8
化粧台
  6
EXLTYPE2
 62
     6
100
AcDbCircle
 10
969.9999999999975
 20
1382.5
 30
0.0
 40
14.25000000000001
100
AcDbArc
 50
204.1775448336003
 51
215.8224551664
  0
CIRCLE
  5
301
330
1F
100
AcDbEntity
  8
化粧台
  6
EXLTYPE2
 62
     6
100
AcDbCircle
 10
969.9999999999975
 20
1382.5
 30
0.0
 40
4.75
  0
CIRCLE
  5
302
330
1F
100
AcDbEntity
  8
化粧台
  6
EXLTYPE2
 62
     6
100
AcDbCircle
 10
969.9999999999975
 20
1382.5
 30
0.0
 40
12.07434891639
  0
LINE
  5
303
330
1F
100
AcDbEntity
  8
化粧台
  6
EXLTYPE2
 62
     6
100
AcDbLine
 10
980.4999999999975
 20
1405.2
 30
0.0
 11
980.4999999999975
 21
1391.448929172444
 31
0.0
  0
LINE
  5
304
330
1F
100
AcDbEntity
  8
化粧台
  6
EXLTYPE2
 62
     6
100
AcDbLine
 10
959.4999999999975
 20
1405.2
 30
0.0
 11
959.4999999999975
 21
1391.448929172444
 31
0.0
  0
LINE
  5
305
330
1F
100
AcDbEntity
  8
化粧台
  6
EXLTYPE2
 62
     6
100
AcDbLine
 10
959.0304555427076
 20
1405.2
 30
0.0
 11
980.9695444572874
 21
1405.2
 31
0.0
  0
LINE
  5
306
330
1F
100
AcDbEntity
  8
化粧台
  6
EXLTYPE2
 62
     6
100
AcDbLine
 10
959.0304555427076
 20
1417.2
 30
0.0
 11
980.9695444572874
 21
1417.2
 31
0.0
  0
LINE
  5
307
330
1F
100
AcDbEntity
  8
化粧台
  6
EXLTYPE2
 62
     6
100
AcDbLine
 10
958.4999999999975
 20
1416.29288719687
 30
0.0
 11
958.4999999999975
 21
1406.10711280313
 31
0.0
  0
LINE
  5
308
330
1F
100
AcDbEntity
  8
化粧台
  6
EXLTYPE2
 62
     6
100
AcDbLine
 10
981.4999999999975
 20
1416.29288719687
 30
0.0
 11
981.4999999999975
 21
1406.10711280313
 31
0.0
  0
ARC
  5
309
330
1F
100
AcDbEntity
  8
化粧台
  6
EXLTYPE2
 62
     6
100
AcDbCircle
 10
968.2499999999975
 20
1411.2
 30
0.0
 40
11.0
100
AcDbArc
 50
146.9442688491001
 51
152.4198007964001
  0
ARC
  5
30A
330
1F
100
AcDbEntity
  8
化粧台
  6
EXLTYPE2
 62
     6
100
AcDbCircle
 10
968.2499999999975
 20
1411.2
 30
0.0
 40
11.0
100
AcDbArc
 50
207.5801992036003
 51
213.0557311509003
  0
ARC
  5
30B
330
1F
100
AcDbEntity
  8
化粧台
  6
EXLTYPE2
 62
     6
100
AcDbCircle
 10
971.7499999999975
 20
1411.2
 30
0.0
 40
11.0
100
AcDbArc
 50
326.9442688491004
 51
332.4198007964001
  0
ARC
  5
30C
330
1F
100
AcDbEntity
  8
化粧台
  6
EXLTYPE2
 62
     6
100
AcDbCircle
 10
971.7499999999975
 20
1411.2
 30
0.0
 40
11.0
100
AcDbArc
 50
27.58019920358986
 51
33.05573115085006
  0
ELLIPSE
  5
30D
330
1F
100
AcDbEntity
  8
化粧台
  6
EXLTYPE2
 62
     6
100
AcDbEllipse
 10
964.2490288903475
 20
1411.2
 30
0.0
 11
-9.355482006098071E-16
 21
-5.09288719687
 31
0.0
210
0.0
220
0.0
230
1.0
 40
0.9364096839374262
 41
0.0
 42
6.283185307179586
  0
ELLIPSE
  5
30E
330
1F
100
AcDbEntity
  8
化粧台
  6
EXLTYPE2
 62
     6
100
AcDbEllipse
 10
975.7509711096475
 20
1411.2
 30
0.0
 11
3.118494002032690E-16
 21
5.09288719687
 31
0.0
210
0.0
220
0.0
230
1.0
 40
0.9364096839374262
 41
0.0
 42
6.283185307179586
  0
LINE
  5
30F
330
1F
100
AcDbEntity
  8
化粧台
  6
EXLTYPE2
 62
     6
100
AcDbLine
 10
882.9999999999982
 20
1376.66369123504
 30
0.0
 11
882.9999999999982
 21
1388.33630876496
 31
0.0
  0
LINE
  5
310
330
1F
100
AcDbEntity
  8
化粧台
  6
EXLTYPE2
 62
     6
100
AcDbLine
 10
881.5543916547886
 20
1390.84017586672
 30
0.0
 11
871.4456083452078
 21
1396.67648463168
 31
0.0
  0
LINE
  5
311
330
1F
100
AcDbEntity
  8
化粧台
  6
EXLTYPE2
 62
     6
100
AcDbLine
 10
868.5543916547886
 20
1396.67648463168
 30
0.0
 11
858.4456083452078
 21
1390.84017586672
 31
0.0
  0
LINE
  5
312
330
1F
100
AcDbEntity
  8
化粧台
  6
EXLTYPE2
 62
     6
100
AcDbLine
 10
856.9999999999982
 20
1388.33630876496
 30
0.0
 11
856.9999999999982
 21
1376.66369123504
 31
0.0
  0
LINE
  5
313
330
1F
100
AcDbEntity
  8
化粧台
  6
EXLTYPE2
 62
     6
100
AcDbLine
 10
858.4456083452078
 20
1374.15982413328
 30
0.0
 11
868.5543916547886
 21
1368.32351536832
 31
0.0
  0
LINE
  5
314
330
1F
100
AcDbEntity
  8
化粧台
  6
EXLTYPE2
 62
     6
100
AcDbLine
 10
871.4456083452078
 20
1368.32351536832
 30
0.0
 11
881.5543916547886
 21
1374.15982413328
 31
0.0
  0
ARC
  5
315
330
1F
100
AcDbEntity
  8
化粧台
  6
EXLTYPE2
 62
     6
100
AcDbCircle
 10
869.9999999999982
 20
1382.5
 30
0.0
 40
14.25000000000001
100
AcDbArc
 50
264.1775448336001
 51
275.8224551664
  0
ARC
  5
316
330
1F
100
AcDbEntity
  8
化粧台
  6
EXLTYPE2
 62
     6
100
AcDbCircle
 10
869.9999999999982
 20
1382.5
 30
0.0
 40
14.25000000000001
100
AcDbArc
 50
324.1775448336001
 51
335.8224551664001
  0
ARC
  5
317
330
1F
100
AcDbEntity
  8
化粧台
  6
EXLTYPE2
 62
     6
100
AcDbCircle
 10
869.9999999999982
 20
1382.5
 30
0.0
 40
14.25000000000001
100
AcDbArc
 50
24.17754483359991
 51
35.82245516639971
  0
ARC
  5
318
330
1F
100
AcDbEntity
  8
化粧台
  6
EXLTYPE2
 62
     6
100
AcDbCircle
 10
869.9999999999982
 20
1382.5
 30
0.0
 40
14.25000000000001
100
AcDbArc
 50
84.1775448336001
 51
95.8224551663599
  0
ARC
  5
319
330
1F
100
AcDbEntity
  8
化粧台
  6
EXLTYPE2
 62
     6
100
AcDbCircle
 10
869.9999999999982
 20
1382.5
 30
0.0
 40
14.25000000000001
100
AcDbArc
 50
144.1775448336404
 51
155.8224551663601
  0
ARC
  5
31A
330
1F
100
AcDbEntity
  8
化粧台
  6
EXLTYPE2
 62
     6
100
AcDbCircle
 10
869.9999999999982
 20
1382.5
 30
0.0
 40
14.25000000000001
100
AcDbArc
 50
204.1775448336003
 51
215.8224551664
  0
CIRCLE
  5
31B
330
1F
100
AcDbEntity
  8
化粧台
  6
EXLTYPE2
 62
     6
100
AcDbCircle
 10
869.9999999999982
 20
1382.5
 30
0.0
 40
4.75
  0
CIRCLE
  5
31C
330
1F
100
AcDbEntity
  8
化粧台
  6
EXLTYPE2
 62
     6
100
AcDbCircle
 10
869.9999999999982
 20
1382.5
 30
0.0
 40
12.07434891639
  0
LINE
  5
31D
330
1F
100
AcDbEntity
  8
化粧台
  6
EXLTYPE2
 62
     6
100
AcDbLine
 10
880.4999999999982
 20
1405.2
 30
0.0
 11
880.4999999999982
 21
1391.448929172444
 31
0.0
  0
LINE
  5
31E
330
1F
100
AcDbEntity
  8
化粧台
  6
EXLTYPE2
 62
     6
100
AcDbLine
 10
859.4999999999982
 20
1405.2
 30
0.0
 11
859.4999999999982
 21
1391.448929172444
 31
0.0
  0
LINE
  5
31F
330
1F
100
AcDbEntity
  8
化粧台
  6
EXLTYPE2
 62
     6
100
AcDbLine
 10
859.0304555427083
 20
1405.2
 30
0.0
 11
880.9695444572881
 21
1405.2
 31
0.0
  0
LINE
  5
320
330
1F
100
AcDbEntity
  8
化粧台
  6
EXLTYPE2
 62
     6
100
AcDbLine
 10
859.0304555427083
 20
1417.2
 30
0.0
 11
880.9695444572881
 21
1417.2
 31
0.0
  0
LINE
  5
321
330
1F
100
AcDbEntity
  8
化粧台
  6
EXLTYPE2
 62
     6
100
AcDbLine
 10
858.4999999999982
 20
1416.29288719687
 30
0.0
 11
858.4999999999982
 21
1406.10711280313
 31
0.0
  0
LINE
  5
322
330
1F
100
AcDbEntity
  8
化粧台
  6
EXLTYPE2
 62
     6
100
AcDbLine
 10
881.4999999999982
 20
1416.29288719687
 30
0.0
 11
881.4999999999982
 21
1406.10711280313
 31
0.0
  0
ARC
  5
323
330
1F
100
AcDbEntity
  8
化粧台
  6
EXLTYPE2
 62
     6
100
AcDbCircle
 10
868.2499999999982
 20
1411.2
 30
0.0
 40
11.0
100
AcDbArc
 50
146.9442688491001
 51
152.4198007964001
  0
ARC
  5
324
330
1F
100
AcDbEntity
  8
化粧台
  6
EXLTYPE2
 62
     6
100
AcDbCircle
 10
868.2499999999982
 20
1411.2
 30
0.0
 40
11.0
100
AcDbArc
 50
207.5801992036003
 51
213.0557311509003
  0
ARC
  5
325
330
1F
100
AcDbEntity
  8
化粧台
  6
EXLTYPE2
 62
     6
100
AcDbCircle
 10
871.7499999999982
 20
1411.2
 30
0.0
 40
11.0
100
AcDbArc
 50
326.9442688491004
 51
332.4198007964001
  0
ARC
  5
326
330
1F
100
AcDbEntity
  8
化粧台
  6
EXLTYPE2
 62
     6
100
AcDbCircle
 10
871.7499999999982
 20
1411.2
 30
0.0
 40
11.0
100
AcDbArc
 50
27.58019920358986
 51
33.05573115085006
  0
ELLIPSE
  5
327
330
1F
100
AcDbEntity
  8
化粧台
  6
EXLTYPE2
 62
     6
100
AcDbEllipse
 10
864.2490288903482
 20
1411.2
 30
0.0
 11
-9.355482006098071E-16
 21
-5.09288719687
 31
0.0
210
0.0
220
0.0
230
1.0
 40
0.9364096839374262
 41
0.0
 42
6.283185307179586
  0
ELLIPSE
  5
328
330
1F
100
AcDbEntity
  8
化粧台
  6
EXLTYPE2
 62
     6
100
AcDbEllipse
 10
875.7509711096482
 20
1411.2
 30
0.0
 11
3.118494002032690E-16
 21
5.09288719687
 31
0.0
210
0.0
220
0.0
230
1.0
 40
0.9364096839374262
 41
0.0
 42
6.283185307179586
  0
LINE
  5
329
330
1F
100
AcDbEntity
  8
化粧台
  6
CONTINUOUS
 62
     6
100
AcDbLine
 10
839.9999999999982
 20
1382.5
 30
0.0
 11
899.9999999999982
 21
1382.5
 31
0.0
  0
LINE
  5
32A
330
1F
100
AcDbEntity
  8
化粧台
  6
CONTINUOUS
 62
     6
100
AcDbLine
 10
869.9999999999982
 20
1412.5
 30
0.0
 11
869.9999999999982
 21
1352.5
 31
0.0
  0
LINE
  5
32B
330
1F
100
AcDbEntity
  8
化粧台
  6
CONTINUOUS
 62
     6
100
AcDbLine
 10
939.9999999999982
 20
1382.5
 30
0.0
 11
999.9999999999975
 21
1382.5
 31
0.0
  0
LINE
  5
32C
330
1F
100
AcDbEntity
  8
化粧台
  6
CONTINUOUS
 62
     6
100
AcDbLine
 10
969.9999999999975
 20
1412.5
 30
0.0
 11
969.9999999999975
 21
1352.5
 31
0.0
  0
LINE
  5
32D
330
1F
100
AcDbEntity
  8
化粧台
  6
EXLTYPE2
 62
     6
100
AcDbLine
 10
863.4999999999964
 20
1417.2
 30
0.0
 11
863.4999999999964
 21
1521.969883160743
 31
0.0
  0
LINE
  5
32E
330
1F
100
AcDbEntity
  8
化粧台
  6
EXLTYPE2
 62
     6
100
AcDbLine
 10
876.5000000000018
 20
1417.2
 30
0.0
 11
876.5000000000018
 21
1521.969883160743
 31
0.0
  0
LINE
  5
32F
330
1F
100
AcDbEntity
  8
化粧台
  6
EXLTYPE2
 62
     6
100
AcDbLine
 10
963.4999999999939
 20
1417.2
 30
0.0
 11
963.4999999999939
 21
1521.969883160743
 31
0.0
  0
LINE
  5
330
330
1F
100
AcDbEntity
  8
化粧台
  6
EXLTYPE2
 62
     6
100
AcDbLine
 10
976.4999999999993
 20
1417.2
 30
0.0
 11
976.4999999999993
 21
1521.969883160743
 31
0.0
  0
LINE
  5
331
330
1F
100
AcDbEntity
  8
化粧台
  6
CONTINUOUS
 62
     2
100
AcDbLine
 10
926.0000000000259
 20
1934.184819960025
 30
0.0
 11
926.0000000000259
 21
1945.117774682385
 31
0.0
  0
LINE
  5
332
330
1F
100
AcDbEntity
  8
化粧台
  6
CONTINUOUS
 62
     2
100
AcDbLine
 10
914.000000000025
 20
1934.184819960025
 30
0.0
 11
914.0000000000259
 21
1945.117774682385
 31
0.0
  0
LINE
  5
333
330
1F
100
AcDbEntity
  8
化粧台
  6
CONTINUOUS
 62
     2
100
AcDbLine
 10
946.5000000000241
 20
1807.499999999981
 30
0.0
 11
947.0000000000241
 21
1806.999999999981
 31
0.0
  0
LINE
  5
334
330
1F
100
AcDbEntity
  8
化粧台
  6
CONTINUOUS
 62
     2
100
AcDbLine
 10
947.0000000000241
 20
1806.999999999981
 30
0.0
 11
947.0000000000259
 21
1803.499999999981
 31
0.0
  0
ARC
  5
335
330
1F
100
AcDbEntity
  8
化粧台
  6
CONTINUOUS
 62
     2
100
AcDbCircle
 10
943.0000000000259
 20
1807.999999999981
 30
0.0
 40
0.5
100
AcDbArc
 50
180.0
 51
270.0000000000002
  0
LINE
  5
336
330
1F
100
AcDbEntity
  8
化粧台
  6
CONTINUOUS
 62
     2
100
AcDbLine
 10
946.5000000000241
 20
1807.499999999981
 30
0.0
 11
920.0000000000259
 21
1807.499999999981
 31
0.0
  0
LINE
  5
337
330
1F
100
AcDbEntity
  8
化粧台
  6
CONTINUOUS
 62
     2
100
AcDbLine
 10
893.5000000000259
 20
1807.499999999981
 30
0.0
 11
893.0000000000259
 21
1806.999999999981
 31
0.0
  0
ARC
  5
338
330
1F
100
AcDbEntity
  8
化粧台
  6
CONTINUOUS
 62
     2
100
AcDbCircle
 10
897.0000000000259
 20
1807.999999999981
 30
0.0
 40
0.5
100
AcDbArc
 50
270.0000000000002
 51
0.0
  0
LINE
  5
339
330
1F
100
AcDbEntity
  8
化粧台
  6
CONTINUOUS
 62
     2
100
AcDbLine
 10
893.0000000000259
 20
1806.999999999981
 30
0.0
 11
893.0000000000241
 21
1803.499999999981
 31
0.0
  0
LINE
  5
33A
330
1F
100
AcDbEntity
  8
化粧台
  6
CONTINUOUS
 62
     2
100
AcDbLine
 10
920.0000000000259
 20
1803.499999999981
 30
0.0
 11
893.0000000000241
 21
1803.499999999981
 31
0.0
  0
LINE
  5
33B
330
1F
100
AcDbEntity
  8
化粧台
  6
CONTINUOUS
 62
     2
100
AcDbLine
 10
920.0000000000259
 20
1803.499999999981
 30
0.0
 11
947.0000000000268
 21
1803.499999999981
 31
0.0
  0
LINE
  5
33C
330
1F
100
AcDbEntity
  8
化粧台
  6
CONTINUOUS
 62
     2
100
AcDbLine
 10
897.5000000000159
 20
1912.200012207012
 30
0.0
 11
942.5000000000141
 21
1912.200012207012
 31
0.0
  0
ARC
  5
33D
330
1F
100
AcDbEntity
  8
化粧台
  6
CONTINUOUS
 62
     2
100
AcDbCircle
 10
941.5000000000223
 20
1941.426017109336
 30
0.0
 40
1.0
100
AcDbArc
 50
0.0
 51
85.87651071327323
  0
ARC
  5
33E
330
1F
100
AcDbEntity
  8
化粧台
  6
CONTINUOUS
 62
     2
100
AcDbCircle
 10
898.5000000000223
 20
1941.426017109335
 30
0.0
 40
1.0
100
AcDbArc
 50
94.12348928672675
 51
180.0
  0
ARC
  5
33F
330
1F
100
AcDbEntity
  8
化粧台
  6
CONTINUOUS
 62
     2
100
AcDbCircle
 10
920.0000000000259
 20
1643.200012207012
 30
0.0
 40
300.0
100
AcDbArc
 50
85.87651071327323
 51
88.85400800161261
  0
ARC
  5
340
330
1F
100
AcDbEntity
  8
化粧台
  6
CONTINUOUS
 62
     2
100
AcDbCircle
 10
920.0000000000259
 20
1643.200012207012
 30
0.0
 40
300.0
100
AcDbArc
 50
91.14599199838867
 51
94.12348928672675
  0
ARC
  5
341
330
1F
100
AcDbEntity
  8
化粧台
  6
CONTINUOUS
 62
     2
100
AcDbCircle
 10
920.0000000000259
 20
1934.184819960025
 30
0.0
 40
6.000000000000004
100
AcDbArc
 50
180.0
 51
0.0
  0
CIRCLE
  5
342
330
1F
100
AcDbEntity
  8
化粧台
  6
CONTINUOUS
 62
     2
100
AcDbCircle
 10
920.0000000000259
 20
1945.117774682385
 30
0.0
 40
6.000000000000004
  0
ARC
  5
343
330
1F
100
AcDbEntity
  8
化粧台
  6
CONTINUOUS
 62
     2
100
AcDbCircle
 10
920.0000000000259
 20
1884.650756845668
 30
0.0
 40
15.00000000000001
100
AcDbArc
 50
322.9040503969624
 51
217.0959496030378
  0
ELLIPSE
  5
344
330
1F
100
AcDbEntity
  8
化粧台
  6
CONTINUOUS
 62
     2
100
AcDbEllipse
 10
920.0000000000259
 20
1875.180566214725
 30
0.0
 11
-12.0
 21
1.469576158976824E-15
 31
0.0
210
0.0
220
0.0
230
1.0
 40
0.2210297627753829
 41
3.141592653589793
 42
6.283185307179586
  0
ELLIPSE
  5
345
330
1F
100
AcDbEntity
  8
化粧台
  6
CONTINUOUS
 62
     2
100
AcDbEllipse
 10
920.0000000000259
 20
1869.673888588365
 30
0.0
 11
-12.00000000000002
 21
1.469576158976827E-15
 31
0.0
210
0.0
220
0.0
230
1.0
 40
0.1591774961946723
 41
0.0
 42
6.283185307179586
  0
LINE
  5
346
330
1F
100
AcDbEntity
  8
化粧台
  6
CONTINUOUS
 62
     2
100
AcDbLine
 10
908.0000000000259
 20
1869.673888588365
 30
0.0
 11
908.0000000000259
 21
1875.392155853624
 31
0.0
  0
LINE
  5
347
330
1F
100
AcDbEntity
  8
化粧台
  6
CONTINUOUS
 62
     2
100
AcDbLine
 10
932.0000000000259
 20
1869.673888588365
 30
0.0
 11
932.0000000000259
 21
1875.392155853623
 31
0.0
  0
ARC
  5
348
330
1F
100
AcDbEntity
  8
化粧台
  6
CONTINUOUS
 62
     2
100
AcDbCircle
 10
920.0000000000259
 20
2032.549269781649
 30
0.0
 40
154.6227815628025
100
AcDbArc
 50
264.9181466667736
 51
275.0818533332265
  0
LINE
  5
349
330
1F
100
AcDbEntity
  8
化粧台
  6
CONTINUOUS
 62
     2
100
AcDbLine
 10
942.5000000000132
 20
1807.999999999981
 30
0.0
 11
942.5000000000127
 21
1907.799999999858
 31
0.0
  0
LINE
  5
34A
330
1F
100
AcDbEntity
  8
化粧台
  6
CONTINUOUS
 62
     2
100
AcDbLine
 10
942.0000000000132
 20
1908.299999999858
 30
0.0
 11
942.5000000000132
 21
1907.799999999858
 31
0.0
  0
LINE
  5
34B
330
1F
100
AcDbEntity
  8
化粧台
  6
CONTINUOUS
 62
     2
100
AcDbLine
 10
940.3059968261537
 20
1912.200012207012
 30
0.0
 11
941.3200000000138
 21
1908.299999999857
 31
0.0
  0
LINE
  5
34C
330
1F
100
AcDbEntity
  8
化粧台
  6
CONTINUOUS
 62
     2
100
AcDbLine
 10
899.6940031738745
 20
1912.200012207012
 30
0.0
 11
898.6800000000144
 21
1908.299999999856
 31
0.0
  0
LINE
  5
34D
330
1F
100
AcDbEntity
  8
化粧台
  6
CONTINUOUS
 62
     2
100
AcDbLine
 10
942.0000000000132
 20
1908.299999999858
 30
0.0
 11
898.0000000000259
 21
1908.299999999846
 31
0.0
  0
LINE
  5
34E
330
1F
100
AcDbEntity
  8
化粧台
  6
CONTINUOUS
 62
     2
100
AcDbLine
 10
897.5000000000259
 20
1907.799999999846
 30
0.0
 11
898.0000000000259
 21
1908.299999999846
 31
0.0
  0
LINE
  5
34F
330
1F
100
AcDbEntity
  8
化粧台
  6
CONTINUOUS
 62
     2
100
AcDbLine
 10
897.5000000000259
 20
1907.799999999847
 30
0.0
 11
897.5000000000259
 21
1807.999999999981
 31
0.0
  0
LINE
  5
350
330
1F
100
AcDbEntity
  8
化粧台
  6
CONTINUOUS
 62
     2
100
AcDbLine
 10
942.5000000000141
 20
1912.200012207012
 30
0.0
 11
942.5000000000136
 21
1941.426017109336
 31
0.0
  0
LINE
  5
351
330
1F
100
AcDbEntity
  8
化粧台
  6
CONTINUOUS
 62
     2
100
AcDbLine
 10
897.5000000000141
 20
1941.426017109335
 30
0.0
 11
897.5000000000141
 21
1912.20001220702
 31
0.0
  0
LINE
  5
352
330
1F
100
AcDbEntity
  8
化粧台
  6
CONTINUOUS
 62
     2
100
AcDbLine
 10
920.00000000003
 20
1807.499999999981
 30
0.0
 11
893.5000000000259
 21
1807.499999999981
 31
0.0
  0
LINE
  5
353
330
1F
100
AcDbEntity
  8
化粧台
  6
CONTINUOUS
 62
     2
100
AcDbLine
 10
2348.627362902324
 20
1938.062934157885
 30
0.0
 11
2344.59650911142
 21
1938.77368243651
 31
0.0
  0
LINE
  5
354
330
1F
100
AcDbEntity
  8
化粧台
  6
CONTINUOUS
 62
     2
100
AcDbLine
 10
2343.901916400751
 20
1934.834451424457
 30
0.0
 11
2344.94380546675
 21
1940.74329794253
 31
0.0
  0
LINE
  5
355
330
1F
100
AcDbEntity
  8
化粧台
  6
CONTINUOUS
 62
     2
100
AcDbLine
 10
2342.86002733475
 20
1928.92560490639
 30
0.0
 11
2343.901916400741
 21
1934.834451424462
 31
0.0
  0
ARC
  5
356
330
1F
100
AcDbEntity
  8
化粧台
  6
CONTINUOUS
 62
     2
100
AcDbCircle
 10
2322.980258923255
 20
1868.006485679812
 30
0.0
 40
29.29134623873736
100
AcDbArc
 50
328.6679794878879
 51
31.33202051226239
  0
ARC
  5
357
330
1F
100
AcDbEntity
  8
化粧台
  6
CONTINUOUS
 62
     2
100
AcDbCircle
 10
2333.75361941995
 20
1934.03457549759
 30
0.0
 40
15.40960475402978
100
AcDbArc
 50
342.3548939120103
 51
17.64510608798892
  0
LINE
  5
358
330
1F
100
AcDbEntity
  8
化粧台
  6
CONTINUOUS
 62
     2
100
AcDbLine
 10
2343.20732369008
 20
1930.89522041241
 30
0.0
 11
2348.609983007612
 21
1929.942585807157
 31
0.0
  0
LINE
  5
359
330
1F
100
AcDbEntity
  8
化粧台
  6
CONTINUOUS
 62
     2
100
AcDbLine
 10
2344.94380546675
 20
1940.74329794253
 30
0.0
 11
2286.277757812523
 21
1951.087704995506
 31
0.0
  0
ARC
  5
35A
330
1F
100
AcDbEntity
  8
化粧台
  6
CONTINUOUS
 62
     2
100
AcDbCircle
 10
2285.948544782074
 20
1950.126043575498
 30
0.0
 40
1.016451625090327
100
AcDbArc
 50
71.10198734335111
 51
155.1938278787593
  0
ARC
  5
35B
330
1F
100
AcDbEntity
  8
化粧台
  6
CONTINUOUS
 62
     2
100
AcDbCircle
 10
2331.801297053571
 20
1936.923932767477
 30
0.0
 40
48.72040105432946
100
AcDbArc
 50
163.7559027392204
 51
176.0410102655835
  0
ARC
  5
35C
330
1F
100
AcDbEntity
  8
化粧台
  6
CONTINUOUS
 62
     2
100
AcDbCircle
 10
2284.198931850049
 20
1940.285659580982
 30
0.0
 40
1.001777616499239
100
AcDbArc
 50
179.8828477325927
 51
262.1420782586001
  0
LINE
  5
35D
330
1F
100
AcDbEntity
  8
化粧台
  6
CONTINUOUS
 62
     2
100
AcDbLine
 10
2284.061971744748
 20
1939.2932885201
 30
0.0
 11
2342.86002733475
 21
1928.92560490639
 31
0.0
  0
LINE
  5
35E
330
1F
100
AcDbEntity
  8
化粧台
  6
CONTINUOUS
 62
     2
100
AcDbLine
 10
2393.000000000018
 20
1857.057308563485
 30
0.0
 11
2393.000000000017
 21
1907.800000000032
 31
0.0
  0
LINE
  5
35F
330
1F
100
AcDbEntity
  8
化粧台
  6
CONTINUOUS
 62
     2
100
AcDbLine
 10
2392.500000000017
 20
1908.300000000031
 30
0.0
 11
2393.000000000017
 21
1907.800000000031
 31
0.0
  0
LINE
  5
360
330
1F
100
AcDbEntity
  8
化粧台
  6
CONTINUOUS
 62
     2
100
AcDbLine
 10
2348.500000000017
 20
1908.300000000031
 30
0.0
 11
2348.000000000017
 21
1907.800000000031
 31
0.0
  0
LINE
  5
361
330
1F
100
AcDbEntity
  8
化粧台
  6
CONTINUOUS
 62
     2
100
AcDbLine
 10
2390.900000000031
 20
1908.30000000003
 30
0.0
 11
2392.500000000017
 21
1908.300000000031
 31
0.0
  0
ARC
  5
362
330
1F
100
AcDbEntity
  8
化粧台
  6
CONTINUOUS
 62
     2
100
AcDbCircle
 10
2419.984886233815
 20
1862.560280186984
 30
0.0
 40
0.5
100
AcDbArc
 50
17.70179307553534
 51
93.08528771081936
  0
LINE
  5
363
330
1F
100
AcDbEntity
  8
化粧台
  6
CONTINUOUS
 62
     2
100
AcDbLine
 10
2405.8126583905
 20
1862.297115291293
 30
0.0
 11
2419.95797502928
 21
1863.059555448809
 31
0.0
  0
LINE
  5
364
330
1F
100
AcDbEntity
  8
化粧台
  6
CONTINUOUS
 62
     2
100
AcDbLine
 10
2420.339569595035
 20
1862.91269998392
 30
0.0
 11
2420.339569595035
 21
1851.230531118776
 31
0.0
  0
ARC
  5
365
330
1F
100
AcDbEntity
  8
化粧台
  6
CONTINUOUS
 62
     2
100
AcDbCircle
 10
2405.839569595034
 20
1861.797840029467
 30
0.0
 40
0.5
100
AcDbArc
 50
93.08528771081936
 51
180.0
  0
ARC
  5
366
330
1F
100
AcDbEntity
  8
化粧台
  6
CONTINUOUS
 62
     2
100
AcDbCircle
 10
2405.839569595034
 20
1852.345391073227
 30
0.0
 40
0.5
100
AcDbArc
 50
180.0
 51
266.9147122891807
  0
ARC
  5
367
330
1F
100
AcDbEntity
  8
化粧台
  6
CONTINUOUS
 62
     2
100
AcDbCircle
 10
2419.984886233813
 20
1851.582950915712
 30
0.0
 40
0.5
100
AcDbArc
 50
266.9147122891807
 51
342.2982069244647
  0
LINE
  5
368
330
1F
100
AcDbEntity
  8
化粧台
  6
CONTINUOUS
 62
     2
100
AcDbLine
 10
2405.8126583905
 20
1851.846115811403
 30
0.0
 11
2419.95797502928
 21
1851.083675653888
 31
0.0
  0
ARC
  5
369
330
1F
100
AcDbEntity
  8
化粧台
  6
CONTINUOUS
 62
     2
100
AcDbCircle
 10
2402.788485105623
 20
1857.071615551348
 30
0.0
 40
18.55108448941111
100
AcDbArc
 50
342.2982069244642
 51
17.70179307553529
  0
LINE
  5
36A
330
1F
100
AcDbEntity
  8
化粧台
  6
CONTINUOUS
 62
     2
100
AcDbLine
 10
2275.573172739045
 20
1867.763758634079
 30
0.0
 11
2253.907402172774
 21
1871.584018542752
 31
0.0
  0
LINE
  5
36B
330
1F
100
AcDbEntity
  8
化粧台
  6
CONTINUOUS
 62
     2
100
AcDbLine
 10
2253.907402172774
 20
1871.584018542752
 30
0.0
 11
2275.573172739045
 21
1867.763758634079
 31
0.0
  0
LINE
  5
36C
330
1F
100
AcDbEntity
  8
化粧台
  6
CONTINUOUS
 62
     2
100
AcDbLine
 10
2275.573172739045
 20
1867.763758634079
 30
0.0
 11
2276.658236314177
 21
1868.158689477714
 31
0.0
  0
LINE
  5
36D
330
1F
100
AcDbEntity
  8
化粧台
  6
CONTINUOUS
 62
     2
100
AcDbLine
 10
2275.573172739043
 20
1867.763758634079
 30
0.0
 11
2276.658236314176
 21
1868.158689477714
 31
0.0
  0
LINE
  5
36E
330
1F
100
AcDbEntity
  8
化粧台
  6
CONTINUOUS
 62
     2
100
AcDbLine
 10
2253.907402172776
 20
1871.584018542751
 30
0.0
 11
2253.022850241885
 21
1872.32624574172
 31
0.0
  0
LINE
  5
36F
330
1F
100
AcDbEntity
  8
化粧台
  6
CONTINUOUS
 62
     2
100
AcDbLine
 10
2253.907402172774
 20
1871.584018542752
 30
0.0
 11
2253.022850241884
 21
1872.32624574172
 31
0.0
  0
ARC
  5
370
330
1F
100
AcDbEntity
  8
化粧台
  6
CONTINUOUS
 62
     2
100
AcDbCircle
 10
2400.155424036379
 20
1850.071615551347
 30
0.0
 40
4.0
100
AcDbArc
 50
90.00000000000001
 51
151.9999999999858
  0
LINE
  5
371
330
1F
100
AcDbEntity
  8
化粧台
  6
CONTINUOUS
 62
     2
100
AcDbLine
 10
2287.678105298999
 20
1863.411464064805
 30
0.0
 11
2348.000000000018
 21
1852.77508650156
 31
0.0
  0
LINE
  5
372
330
1F
100
AcDbEntity
  8
化粧台
  6
CONTINUOUS
 62
     2
100
AcDbLine
 10
2255.090296517399
 20
1899.620372351741
 30
0.0
 11
2348.000000000019
 21
1883.237884858131
 31
0.0
  0
LINE
  5
373
330
1F
100
AcDbEntity
  8
化粧台
  6
CONTINUOUS
 62
     2
100
AcDbLine
 10
2280.905802583743
 20
1874.971523390496
 30
0.0
 11
2287.678105298999
 21
1863.411464064805
 31
0.0
  0
ARC
  5
374
330
1F
100
AcDbEntity
  8
化粧台
  6
CONTINUOUS
 62
     2
100
AcDbCircle
 10
2250.948251524134
 20
1882.284701142027
 30
0.0
 40
2.0
100
AcDbArc
 50
172.1050093001812
 51
260.0000000000212
  0
ARC
  5
375
330
1F
100
AcDbEntity
  8
化粧台
  6
CONTINUOUS
 62
     2
100
AcDbCircle
 10
2254.743000162065
 20
1897.650756845717
 30
0.0
 40
2.0
100
AcDbArc
 50
79.99999999999498
 51
160.1509730893515
  0
LINE
  5
376
330
1F
100
AcDbEntity
  8
化粧台
  6
CONTINUOUS
 62
     2
100
AcDbLine
 10
2349.000000000017
 20
1908.300000000112
 30
0.0
 11
2350.200000000018
 21
1908.300000000112
 31
0.0
  0
ARC
  5
377
330
1F
100
AcDbEntity
  8
化粧台
  6
CONTINUOUS
 62
     2
100
AcDbCircle
 10
2370.500000000017
 20
1643.200012207062
 30
0.0
 40
300.0
100
AcDbArc
 50
85.78044385704108
 51
94.21955614295885
  0
LINE
  5
378
330
1F
100
AcDbEntity
  8
化粧台
  6
CONTINUOUS
 62
     2
100
AcDbLine
 10
2393.30350850202
 20
1932.200012207062
 30
0.0
 11
2393.30350850202
 21
1923.385151813763
 31
0.0
  0
POLYLINE
  5
379
330
1F
100
AcDbEntity
  8
化粧台
  6
CONTINUOUS
 62
     2
100
AcDb2dPolyline
 66
     1
 10
0.0
 20
0.0
 30
0.0
 70
   128
  0
VERTEX
  5
37A
330
379
100
AcDbEntity
  8
化粧台
  6
CONTINUOUS
 62
     2
100
AcDbVertex
100
AcDb2dVertex
 10
2393.23213584342
 20
1922.800181236962
 30
0.0
  0
VERTEX
  5
37B
330
379
100
AcDbEntity
  8
化粧台
  6
CONTINUOUS
 62
     2
100
AcDbVertex
100
AcDb2dVertex
 10
2393.232454492683
 20
1922.800633354384
 30
0.0
  0
VERTEX
  5
37C
330
379
100
AcDbEntity
  8
化粧台
  6
CONTINUOUS
 62
     2
100
AcDbVertex
100
AcDb2dVertex
 10
2393.233356918054
 20
1922.801925614465
 30
0.0
  0
VERTEX
  5
37D
330
379
100
AcDbEntity
  8
化粧台
  6
CONTINUOUS
 62
     2
100
AcDbVertex
100
AcDb2dVertex
 10
2393.234762835906
 20
1922.803961878935
 30
0.0
  0
VERTEX
  5
37E
330
379
100
AcDbEntity
  8
化粧台
  6
CONTINUOUS
 62
     2
100
AcDbVertex
100
AcDb2dVertex
 10
2393.236591962608
 20
1922.806646009519
 30
0.0
  0
VERTEX
  5
37F
330
379
100
AcDbEntity
  8
化粧台
  6
CONTINUOUS
 62
     2
100
AcDbVertex
100
AcDb2dVertex
 10
2393.238764014534
 20
1922.809881867945
 30
0.0
  0
VERTEX
  5
380
330
379
100
AcDbEntity
  8
化粧台
  6
CONTINUOUS
 62
     2
100
AcDbVertex
100
AcDb2dVertex
 10
2393.241198708056
 20
1922.813573315937
 30
0.0
  0
VERTEX
  5
381
330
379
100
AcDbEntity
  8
化粧台
  6
CONTINUOUS
 62
     2
100
AcDbVertex
100
AcDb2dVertex
 10
2393.243815759546
 20
1922.817624215225
 30
0.0
  0
VERTEX
  5
382
330
379
100
AcDbEntity
  8
化粧台
  6
CONTINUOUS
 62
     2
100
AcDbVertex
100
AcDb2dVertex
 10
2393.246534885375
 20
1922.821938427535
 30
0.0
  0
VERTEX
  5
383
330
379
100
AcDbEntity
  8
化粧台
  6
CONTINUOUS
 62
     2
100
AcDbVertex
100
AcDb2dVertex
 10
2393.249275801915
 20
1922.826419814593
 30
0.0
  0
VERTEX
  5
384
330
379
100
AcDbEntity
  8
化粧台
  6
CONTINUOUS
 62
     2
100
AcDbVertex
100
AcDb2dVertex
 10
2393.25195822554
 20
1922.830972238126
 30
0.0
  0
VERTEX
  5
385
330
379
100
AcDbEntity
  8
化粧台
  6
CONTINUOUS
 62
     2
100
AcDbVertex
100
AcDb2dVertex
 10
2393.254501872619
 20
1922.835499559862
 30
0.0
  0
VERTEX
  5
386
330
379
100
AcDbEntity
  8
化粧台
  6
CONTINUOUS
 62
     2
100
AcDbVertex
100
AcDb2dVertex
 10
2393.259147087131
 20
1922.844597498817
 30
0.0
  0
VERTEX
  5
387
330
379
100
AcDbEntity
  8
化粧台
  6
CONTINUOUS
 62
     2
100
AcDbVertex
100
AcDb2dVertex
 10
2393.262936248
 20
1922.853230612036
 30
0.0
  0
VERTEX
  5
388
330
379
100
AcDbEntity
  8
化粧台
  6
CONTINUOUS
 62
     2
100
AcDbVertex
100
AcDb2dVertex
 10
2393.265966582824
 20
1922.86146167259
 30
0.0
  0
VERTEX
  5
389
330
379
100
AcDbEntity
  8
化粧台
  6
CONTINUOUS
 62
     2
100
AcDbVertex
100
AcDb2dVertex
 10
2393.268335319203
 20
1922.869353453547
 30
0.0
  0
VERTEX
  5
38A
330
379
100
AcDbEntity
  8
化粧台
  6
CONTINUOUS
 62
     2
100
AcDbVertex
100
AcDb2dVertex
 10
2393.270139684735
 20
1922.876968727979
 30
0.0
  0
VERTEX
  5
38B
330
379
100
AcDbEntity
  8
化粧台
  6
CONTINUOUS
 62
     2
100
AcDbVertex
100
AcDb2dVertex
 10
2393.271476907021
 20
1922.884370268955
 30
0.0
  0
VERTEX
  5
38C
330
379
100
AcDbEntity
  8
化粧台
  6
CONTINUOUS
 62
     2
100
AcDbVertex
100
AcDb2dVertex
 10
2393.272444213659
 20
1922.891620849546
 30
0.0
  0
VERTEX
  5
38D
330
379
100
AcDbEntity
  8
化粧台
  6
CONTINUOUS
 62
     2
100
AcDbVertex
100
AcDb2dVertex
 10
2393.273138832249
 20
1922.898783242822
 30
0.0
  0
VERTEX
  5
38E
330
379
100
AcDbEntity
  8
化粧台
  6
CONTINUOUS
 62
     2
100
AcDbVertex
100
AcDb2dVertex
 10
2393.273657990389
 20
1922.905920221853
 30
0.0
  0
VERTEX
  5
38F
330
379
100
AcDbEntity
  8
化粧台
  6
CONTINUOUS
 62
     2
100
AcDbVertex
100
AcDb2dVertex
 10
2393.274098915679
 20
1922.91309455971
 30
0.0
  0
VERTEX
  5
390
330
379
100
AcDbEntity
  8
化粧台
  6
CONTINUOUS
 62
     2
100
AcDbVertex
100
AcDb2dVertex
 10
2393.274558835717
 20
1922.920369029463
 30
0.0
  0
VERTEX
  5
391
330
379
100
AcDbEntity
  8
化粧台
  6
CONTINUOUS
 62
     2
100
AcDbVertex
100
AcDb2dVertex
 10
2393.27542151299
 20
1922.931393533333
 30
0.0
  0
VERTEX
  5
392
330
379
100
AcDbEntity
  8
化粧台
  6
CONTINUOUS
 62
     2
100
AcDbVertex
100
AcDb2dVertex
 10
2393.276502403189
 20
1922.942715248447
 30
0.0
  0
VERTEX
  5
393
330
379
100
AcDbEntity
  8
化粧台
  6
CONTINUOUS
 62
     2
100
AcDbVertex
100
AcDb2dVertex
 10
2393.277765844477
 20
1922.954275538306
 30
0.0
  0
VERTEX
  5
394
330
379
100
AcDbEntity
  8
化粧台
  6
CONTINUOUS
 62
     2
100
AcDbVertex
100
AcDb2dVertex
 10
2393.279176175018
 20
1922.966015766415
 30
0.0
  0
VERTEX
  5
395
330
379
100
AcDbEntity
  8
化粧台
  6
CONTINUOUS
 62
     2
100
AcDbVertex
100
AcDb2dVertex
 10
2393.28069773297
 20
1922.977877296275
 30
0.0
  0
VERTEX
  5
396
330
379
100
AcDbEntity
  8
化粧台
  6
CONTINUOUS
 62
     2
100
AcDbVertex
100
AcDb2dVertex
 10
2393.282294856498
 20
1922.989801491389
 30
0.0
  0
VERTEX
  5
397
330
379
100
AcDbEntity
  8
化粧台
  6
CONTINUOUS
 62
     2
100
AcDbVertex
100
AcDb2dVertex
 10
2393.283931883762
 20
1923.001729715259
 30
0.0
  0
VERTEX
  5
398
330
379
100
AcDbEntity
  8
化粧台
  6
CONTINUOUS
 62
     2
100
AcDbVertex
100
AcDb2dVertex
 10
2393.285573152924
 20
1923.013603331389
 30
0.0
  0
VERTEX
  5
399
330
379
100
AcDbEntity
  8
化粧台
  6
CONTINUOUS
 62
     2
100
AcDbVertex
100
AcDb2dVertex
 10
2393.287183002147
 20
1923.025363703282
 30
0.0
  0
VERTEX
  5
39A
330
379
100
AcDbEntity
  8
化粧台
  6
CONTINUOUS
 62
     2
100
AcDbVertex
100
AcDb2dVertex
 10
2393.288725769592
 20
1923.036952194438
 30
0.0
  0
VERTEX
  5
39B
330
379
100
AcDbEntity
  8
化粧台
  6
CONTINUOUS
 62
     2
100
AcDbVertex
100
AcDb2dVertex
 10
2393.29016579342
 20
1923.048310168362
 30
0.0
  0
VERTEX
  5
39C
330
379
100
AcDbEntity
  8
化粧台
  6
CONTINUOUS
 62
     2
100
AcDbVertex
100
AcDb2dVertex
 10
2393.291780924149
 20
1923.062131618917
 30
0.0
  0
VERTEX
  5
39D
330
379
100
AcDbEntity
  8
化粧台
  6
CONTINUOUS
 62
     2
100
AcDbVertex
100
AcDb2dVertex
 10
2393.293198495588
 20
1923.075654045147
 30
0.0
  0
VERTEX
  5
39E
330
379
100
AcDbEntity
  8
化粧台
  6
CONTINUOUS
 62
     2
100
AcDbVertex
100
AcDb2dVertex
 10
2393.294436984164
 20
1923.089029759959
 30
0.0
  0
VERTEX
  5
39F
330
379
100
AcDbEntity
  8
化粧台
  6
CONTINUOUS
 62
     2
100
AcDbVertex
100
AcDb2dVertex
 10
2393.295514866309
 20
1923.102411076258
 30
0.0
  0
VERTEX
  5
3A0
330
379
100
AcDbEntity
  8
化粧台
  6
CONTINUOUS
 62
     2
100
AcDbVertex
100
AcDb2dVertex
 10
2393.296450618452
 20
1923.115950306953
 30
0.0
  0
VERTEX
  5
3A1
330
379
100
AcDbEntity
  8
化粧台
  6
CONTINUOUS
 62
     2
100
AcDbVertex
100
AcDb2dVertex
 10
2393.297262717022
 20
1923.129799764949
 30
0.0
  0
VERTEX
  5
3A2
330
379
100
AcDbEntity
  8
化粧台
  6
CONTINUOUS
 62
     2
100
AcDbVertex
100
AcDb2dVertex
 10
2393.297969638448
 20
1923.144111763152
 30
0.0
  0
VERTEX
  5
3A3
330
379
100
AcDbEntity
  8
化粧台
  6
CONTINUOUS
 62
     2
100
AcDbVertex
100
AcDb2dVertex
 10
2393.298589859162
 20
1923.159038614468
 30
0.0
  0
VERTEX
  5
3A4
330
379
100
AcDbEntity
  8
化粧台
  6
CONTINUOUS
 62
     2
100
AcDbVertex
100
AcDb2dVertex
 10
2393.299141855592
 20
1923.174732631805
 30
0.0
  0
VERTEX
  5
3A5
330
379
100
AcDbEntity
  8
化粧台
  6
CONTINUOUS
 62
     2
100
AcDbVertex
100
AcDb2dVertex
 10
2393.299644104167
 20
1923.191346128067
 30
0.0
  0
VERTEX
  5
3A6
330
379
100
AcDbEntity
  8
化粧台
  6
CONTINUOUS
 62
     2
100
AcDbVertex
100
AcDb2dVertex
 10
2393.300115081317
 20
1923.209031416162
 30
0.0
  0
VERTEX
  5
3A7
330
379
100
AcDbEntity
  8
化粧台
  6
CONTINUOUS
 62
     2
100
AcDbVertex
100
AcDb2dVertex
 10
2393.300611344221
 20
1923.229652481849
 30
0.0
  0
VERTEX
  5
3A8
330
379
100
AcDbEntity
  8
化粧台
  6
CONTINUOUS
 62
     2
100
AcDbVertex
100
AcDb2dVertex
 10
2393.301086735121
 20
1923.251141674621
 30
0.0
  0
VERTEX
  5
3A9
330
379
100
AcDbEntity
  8
化粧台
  6
CONTINUOUS
 62
     2
100
AcDbVertex
100
AcDb2dVertex
 10
2393.301535693344
 20
1923.272902277421
 30
0.0
  0
VERTEX
  5
3AA
330
379
100
AcDbEntity
  8
化粧台
  6
CONTINUOUS
 62
     2
100
AcDbVertex
100
AcDb2dVertex
 10
2393.301952658217
 20
1923.294337573189
 30
0.0
  0
VERTEX
  5
3AB
330
379
100
AcDbEntity
  8
化粧台
  6
CONTINUOUS
 62
     2
100
AcDbVertex
100
AcDb2dVertex
 10
2393.302332069066
 20
1923.314850844867
 30
0.0
  0
VERTEX
  5
3AC
330
379
100
AcDbEntity
  8
化粧台
  6
CONTINUOUS
 62
     2
100
AcDbVertex
100
AcDb2dVertex
 10
2393.302668365222
 20
1923.333845375397
 30
0.0
  0
VERTEX
  5
3AD
330
379
100
AcDbEntity
  8
化粧台
  6
CONTINUOUS
 62
     2
100
AcDbVertex
100
AcDb2dVertex
 10
2393.302955986008
 20
1923.350724447719
 30
0.0
  0
VERTEX
  5
3AE
330
379
100
AcDbEntity
  8
化粧台
  6
CONTINUOUS
 62
     2
100
AcDbVertex
100
AcDb2dVertex
 10
2393.303189370754
 20
1923.364891344775
 30
0.0
  0
VERTEX
  5
3AF
330
379
100
AcDbEntity
  8
化粧台
  6
CONTINUOUS
 62
     2
100
AcDbVertex
100
AcDb2dVertex
 10
2393.303362958787
 20
1923.375749349507
 30
0.0
  0
VERTEX
  5
3B0
330
379
100
AcDbEntity
  8
化粧台
  6
CONTINUOUS
 62
     2
100
AcDbVertex
100
AcDb2dVertex
 10
2393.303471189433
 20
1923.382701744856
 30
0.0
  0
VERTEX
  5
3B1
330
379
100
AcDbEntity
  8
化粧台
  6
CONTINUOUS
 62
     2
100
AcDbVertex
100
AcDb2dVertex
 10
2393.30350850202
 20
1923.385151813763
 30
0.0
  0
SEQEND
  5
3B2
330
379
100
AcDbEntity
  8
化粧台
  6
CONTINUOUS
 62
     2
  0
LINE
  5
3B3
330
1F
100
AcDbEntity
  8
化粧台
  6
CONTINUOUS
 62
     2
100
AcDbLine
 10
2393.500000000018
 20
1941.389549246862
 30
0.0
 11
2393.500000000018
 21
1935.200012207062
 31
0.0
  0
POLYLINE
  5
3B4
330
1F
100
AcDbEntity
  8
化粧台
  6
CONTINUOUS
 62
     2
100
AcDb2dPolyline
 66
     1
 10
0.0
 20
0.0
 30
0.0
 70
   128
  0
VERTEX
  5
3B5
330
3B4
100
AcDbEntity
  8
化粧台
  6
CONTINUOUS
 62
     2
100
AcDbVertex
100
AcDb2dVertex
 10
2393.30350850202
 20
1932.200012207062
 30
0.0
  0
VERTEX
  5
3B6
330
3B4
100
AcDbEntity
  8
化粧台
  6
CONTINUOUS
 62
     2
100
AcDbVertex
100
AcDb2dVertex
 10
2393.303570232775
 20
1932.208074227495
 30
0.0
  0
VERTEX
  5
3B7
330
3B4
100
AcDbEntity
  8
化粧台
  6
CONTINUOUS
 62
     2
100
AcDbVertex
100
AcDb2dVertex
 10
2393.303755460578
 20
1932.230966478737
 30
0.0
  0
VERTEX
  5
3B8
330
3B4
100
AcDbEntity
  8
化粧台
  6
CONTINUOUS
 62
     2
100
AcDbVertex
100
AcDb2dVertex
 10
2393.304064238737
 20
1932.266748245705
 30
0.0
  0
VERTEX
  5
3B9
330
3B4
100
AcDbEntity
  8
化粧台
  6
CONTINUOUS
 62
     2
100
AcDbVertex
100
AcDb2dVertex
 10
2393.304496620559
 20
1932.313478813312
 30
0.0
  0
VERTEX
  5
3BA
330
3B4
100
AcDbEntity
  8
化粧台
  6
CONTINUOUS
 62
     2
100
AcDbVertex
100
AcDb2dVertex
 10
2393.305052659352
 20
1932.369217466473
 30
0.0
  0
VERTEX
  5
3BB
330
3B4
100
AcDbEntity
  8
化粧台
  6
CONTINUOUS
 62
     2
100
AcDbVertex
100
AcDb2dVertex
 10
2393.305732408423
 20
1932.432023490107
 30
0.0
  0
VERTEX
  5
3BC
330
3B4
100
AcDbEntity
  8
化粧台
  6
CONTINUOUS
 62
     2
100
AcDbVertex
100
AcDb2dVertex
 10
2393.30653592108
 20
1932.499956169125
 30
0.0
  0
VERTEX
  5
3BD
330
3B4
100
AcDbEntity
  8
化粧台
  6
CONTINUOUS
 62
     2
100
AcDbVertex
100
AcDb2dVertex
 10
2393.307463250631
 20
1932.571074788445
 30
0.0
  0
VERTEX
  5
3BE
330
3B4
100
AcDbEntity
  8
化粧台
  6
CONTINUOUS
 62
     2
100
AcDbVertex
100
AcDb2dVertex
 10
2393.308514450383
 20
1932.643438632981
 30
0.0
  0
VERTEX
  5
3BF
330
3B4
100
AcDbEntity
  8
化粧台
  6
CONTINUOUS
 62
     2
100
AcDbVertex
100
AcDb2dVertex
 10
2393.309689573643
 20
1932.715106987648
 30
0.0
  0
VERTEX
  5
3C0
330
3B4
100
AcDbEntity
  8
化粧台
  6
CONTINUOUS
 62
     2
100
AcDbVertex
100
AcDb2dVertex
 10
2393.310988673718
 20
1932.784139137362
 30
0.0
  0
VERTEX
  5
3C1
330
3B4
100
AcDbEntity
  8
化粧台
  6
CONTINUOUS
 62
     2
100
AcDbVertex
100
AcDb2dVertex
 10
2393.312362643867
 20
1932.846929009636
 30
0.0
  0
VERTEX
  5
3C2
330
3B4
100
AcDbEntity
  8
化粧台
  6
CONTINUOUS
 62
     2
100
AcDbVertex
100
AcDb2dVertex
 10
2393.313852273067
 20
1932.905935814328
 30
0.0
  0
VERTEX
  5
3C3
330
3B4
100
AcDbEntity
  8
化粧台
  6
CONTINUOUS
 62
     2
100
AcDbVertex
100
AcDb2dVertex
 10
2393.315457267102
 20
1932.961655354237
 30
0.0
  0
VERTEX
  5
3C4
330
3B4
100
AcDbEntity
  8
化粧台
  6
CONTINUOUS
 62
     2
100
AcDbVertex
100
AcDb2dVertex
 10
2393.317177331758
 20
1933.014583432159
 30
0.0
  0
VERTEX
  5
3C5
330
3B4
100
AcDbEntity
  8
化粧台
  6
CONTINUOUS
 62
     2
100
AcDbVertex
100
AcDb2dVertex
 10
2393.319012172821
 20
1933.065215850889
 30
0.0
  0
VERTEX
  5
3C6
330
3B4
100
AcDbEntity
  8
化粧台
  6
CONTINUOUS
 62
     2
100
AcDbVertex
100
AcDb2dVertex
 10
2393.320961496076
 20
1933.114048413225
 30
0.0
  0
VERTEX
  5
3C7
330
3B4
100
AcDbEntity
  8
化粧台
  6
CONTINUOUS
 62
     2
100
AcDbVertex
100
AcDb2dVertex
 10
2393.323025007308
 20
1933.161576921963
 30
0.0
  0
VERTEX
  5
3C8
330
3B4
100
AcDbEntity
  8
化粧台
  6
CONTINUOUS
 62
     2
100
AcDbVertex
100
AcDb2dVertex
 10
2393.325202412303
 20
1933.208297179899
 30
0.0
  0
VERTEX
  5
3C9
330
3B4
100
AcDbEntity
  8
化粧台
  6
CONTINUOUS
 62
     2
100
AcDbVertex
100
AcDb2dVertex
 10
2393.327493416847
 20
1933.25470498983
 30
0.0
  0
VERTEX
  5
3CA
330
3B4
100
AcDbEntity
  8
化粧台
  6
CONTINUOUS
 62
     2
100
AcDbVertex
100
AcDb2dVertex
 10
2393.329897726724
 20
1933.301296154552
 30
0.0
  0
VERTEX
  5
3CB
330
3B4
100
AcDbEntity
  8
化粧台
  6
CONTINUOUS
 62
     2
100
AcDbVertex
100
AcDb2dVertex
 10
2393.33241504772
 20
1933.348566476862
 30
0.0
  0
VERTEX
  5
3CC
330
3B4
100
AcDbEntity
  8
化粧台
  6
CONTINUOUS
 62
     2
100
AcDbVertex
100
AcDb2dVertex
 10
2393.334836433525
 20
1933.393102823134
 30
0.0
  0
VERTEX
  5
3CD
330
3B4
100
AcDbEntity
  8
化粧台
  6
CONTINUOUS
 62
     2
100
AcDbVertex
100
AcDb2dVertex
 10
2393.337354307565
 20
1933.438524759265
 30
0.0
  0
VERTEX
  5
3CE
330
3B4
100
AcDbEntity
  8
化粧台
  6
CONTINUOUS
 62
     2
100
AcDbVertex
100
AcDb2dVertex
 10
2393.339969308785
 20
1933.484718742693
 30
0.0
  0
VERTEX
  5
3CF
330
3B4
100
AcDbEntity
  8
化粧台
  6
CONTINUOUS
 62
     2
100
AcDbVertex
100
AcDb2dVertex
 10
2393.342682076136
 20
1933.531571230854
 30
0.0
  0
VERTEX
  5
3D0
330
3B4
100
AcDbEntity
  8
化粧台
  6
CONTINUOUS
 62
     2
100
AcDbVertex
100
AcDb2dVertex
 10
2393.345493248564
 20
1933.578968681184
 30
0.0
  0
VERTEX
  5
3D1
330
3B4
100
AcDbEntity
  8
化粧台
  6
CONTINUOUS
 62
     2
100
AcDbVertex
100
AcDb2dVertex
 10
2393.348403465016
 20
1933.62679755112
 30
0.0
  0
VERTEX
  5
3D2
330
3B4
100
AcDbEntity
  8
化粧台
  6
CONTINUOUS
 62
     2
100
AcDbVertex
100
AcDb2dVertex
 10
2393.351413364441
 20
1933.674944298098
 30
0.0
  0
VERTEX
  5
3D3
330
3B4
100
AcDbEntity
  8
化粧台
  6
CONTINUOUS
 62
     2
100
AcDbVertex
100
AcDb2dVertex
 10
2393.354523585786
 20
1933.723295379555
 30
0.0
  0
VERTEX
  5
3D4
330
3B4
100
AcDbEntity
  8
化粧台
  6
CONTINUOUS
 62
     2
100
AcDbVertex
100
AcDb2dVertex
 10
2393.357734768
 20
1933.771737252927
 30
0.0
  0
VERTEX
  5
3D5
330
3B4
100
AcDbEntity
  8
化粧台
  6
CONTINUOUS
 62
     2
100
AcDbVertex
100
AcDb2dVertex
 10
2393.361047550029
 20
1933.820156375651
 30
0.0
  0
VERTEX
  5
3D6
330
3B4
100
AcDbEntity
  8
化粧台
  6
CONTINUOUS
 62
     2
100
AcDbVertex
100
AcDb2dVertex
 10
2393.364462570822
 20
1933.868439205162
 30
0.0
  0
VERTEX
  5
3D7
330
3B4
100
AcDbEntity
  8
化粧台
  6
CONTINUOUS
 62
     2
100
AcDbVertex
100
AcDb2dVertex
 10
2393.367527890571
 20
1933.910408887636
 30
0.0
  0
VERTEX
  5
3D8
330
3B4
100
AcDbEntity
  8
化粧台
  6
CONTINUOUS
 62
     2
100
AcDbVertex
100
AcDb2dVertex
 10
2393.370669362995
 20
1933.952197306022
 30
0.0
  0
VERTEX
  5
3D9
330
3B4
100
AcDbEntity
  8
化粧台
  6
CONTINUOUS
 62
     2
100
AcDbVertex
100
AcDb2dVertex
 10
2393.373884716042
 20
1933.993813648597
 30
0.0
  0
VERTEX
  5
3DA
330
3B4
100
AcDbEntity
  8
化粧台
  6
CONTINUOUS
 62
     2
100
AcDbVertex
100
AcDb2dVertex
 10
2393.377171677657
 20
1934.035267103636
 30
0.0
  0
VERTEX
  5
3DB
330
3B4
100
AcDbEntity
  8
化粧台
  6
CONTINUOUS
 62
     2
100
AcDbVertex
100
AcDb2dVertex
 10
2393.380527975785
 20
1934.076566859418
 30
0.0
  0
VERTEX
  5
3DC
330
3B4
100
AcDbEntity
  8
化粧台
  6
CONTINUOUS
 62
     2
100
AcDbVertex
100
AcDb2dVertex
 10
2393.383951338375
 20
1934.117722104217
 30
0.0
  0
VERTEX
  5
3DD
330
3B4
100
AcDbEntity
  8
化粧台
  6
CONTINUOUS
 62
     2
100
AcDbVertex
100
AcDb2dVertex
 10
2393.387439493369
 20
1934.158742026311
 30
0.0
  0
VERTEX
  5
3DE
330
3B4
100
AcDbEntity
  8
化粧台
  6
CONTINUOUS
 62
     2
100
AcDbVertex
100
AcDb2dVertex
 10
2393.390990168715
 20
1934.199635813975
 30
0.0
  0
VERTEX
  5
3DF
330
3B4
100
AcDbEntity
  8
化粧台
  6
CONTINUOUS
 62
     2
100
AcDbVertex
100
AcDb2dVertex
 10
2393.394601092357
 20
1934.240412655488
 30
0.0
  0
VERTEX
  5
3E0
330
3B4
100
AcDbEntity
  8
化粧台
  6
CONTINUOUS
 62
     2
100
AcDbVertex
100
AcDb2dVertex
 10
2393.398269992244
 20
1934.281081739125
 30
0.0
  0
VERTEX
  5
3E1
330
3B4
100
AcDbEntity
  8
化粧台
  6
CONTINUOUS
 62
     2
100
AcDbVertex
100
AcDb2dVertex
 10
2393.401994596319
 20
1934.321652253162
 30
0.0
  0
VERTEX
  5
3E2
330
3B4
100
AcDbEntity
  8
化粧台
  6
CONTINUOUS
 62
     2
100
AcDbVertex
100
AcDb2dVertex
 10
2393.405101484901
 20
1934.354981837897
 30
0.0
  0
VERTEX
  5
3E3
330
3B4
100
AcDbEntity
  8
化粧台
  6
CONTINUOUS
 62
     2
100
AcDbVertex
100
AcDb2dVertex
 10
2393.408250614121
 20
1934.388292282257
 30
0.0
  0
VERTEX
  5
3E4
330
3B4
100
AcDbEntity
  8
化粧台
  6
CONTINUOUS
 62
     2
100
AcDbVertex
100
AcDb2dVertex
 10
2393.411448030308
 20
1934.421624991748
 30
0.0
  0
VERTEX
  5
3E5
330
3B4
100
AcDbEntity
  8
化粧台
  6
CONTINUOUS
 62
     2
100
AcDbVertex
100
AcDb2dVertex
 10
2393.414699779786
 20
1934.455021371875
 30
0.0
  0
VERTEX
  5
3E6
330
3B4
100
AcDbEntity
  8
化粧台
  6
CONTINUOUS
 62
     2
100
AcDbVertex
100
AcDb2dVertex
 10
2393.418011908882
 20
1934.488522828142
 30
0.0
  0
VERTEX
  5
3E7
330
3B4
100
AcDbEntity
  8
化粧台
  6
CONTINUOUS
 62
     2
100
AcDbVertex
100
AcDb2dVertex
 10
2393.421390463923
 20
1934.522170766054
 30
0.0
  0
VERTEX
  5
3E8
330
3B4
100
AcDbEntity
  8
化粧台
  6
CONTINUOUS
 62
     2
100
AcDbVertex
100
AcDb2dVertex
 10
2393.424841491235
 20
1934.556006591117
 30
0.0
  0
VERTEX
  5
3E9
330
3B4
100
AcDbEntity
  8
化粧台
  6
CONTINUOUS
 62
     2
100
AcDbVertex
100
AcDb2dVertex
 10
2393.428371037144
 20
1934.590071708834
 30
0.0
  0
VERTEX
  5
3EA
330
3B4
100
AcDbEntity
  8
化粧台
  6
CONTINUOUS
 62
     2
100
AcDbVertex
100
AcDb2dVertex
 10
2393.431985147977
 20
1934.624407524711
 30
0.0
  0
VERTEX
  5
3EB
330
3B4
100
AcDbEntity
  8
化粧台
  6
CONTINUOUS
 62
     2
100
AcDbVertex
100
AcDb2dVertex
 10
2393.43568987006
 20
1934.659055444252
 30
0.0
  0
VERTEX
  5
3EC
330
3B4
100
AcDbEntity
  8
化粧台
  6
CONTINUOUS
 62
     2
100
AcDbVertex
100
AcDb2dVertex
 10
2393.439491249719
 20
1934.694056872962
 30
0.0
  0
VERTEX
  5
3ED
330
3B4
100
AcDbEntity
  8
化粧台
  6
CONTINUOUS
 62
     2
100
AcDbVertex
100
AcDb2dVertex
 10
2393.442407937598
 20
1934.720556533002
 30
0.0
  0
VERTEX
  5
3EE
330
3B4
100
AcDbEntity
  8
化粧台
  6
CONTINUOUS
 62
     2
100
AcDbVertex
100
AcDb2dVertex
 10
2393.445367667656
 20
1934.747166280858
 30
0.0
  0
VERTEX
  5
3EF
330
3B4
100
AcDbEntity
  8
化粧台
  6
CONTINUOUS
 62
     2
100
AcDbVertex
100
AcDb2dVertex
 10
2393.448355653319
 20
1934.773773842554
 30
0.0
  0
VERTEX
  5
3F0
330
3B4
100
AcDbEntity
  8
化粧台
  6
CONTINUOUS
 62
     2
100
AcDbVertex
100
AcDb2dVertex
 10
2393.451357108011
 20
1934.800266944109
 30
0.0
  0
VERTEX
  5
3F1
330
3B4
100
AcDbEntity
  8
化粧台
  6
CONTINUOUS
 62
     2
100
AcDbVertex
100
AcDb2dVertex
 10
2393.454357245156
 20
1934.826533311548
 30
0.0
  0
VERTEX
  5
3F2
330
3B4
100
AcDbEntity
  8
化粧台
  6
CONTINUOUS
 62
     2
100
AcDbVertex
100
AcDb2dVertex
 10
2393.457341278179
 20
1934.852460670891
 30
0.0
  0
VERTEX
  5
3F3
330
3B4
100
AcDbEntity
  8
化粧台
  6
CONTINUOUS
 62
     2
100
AcDbVertex
100
AcDb2dVertex
 10
2393.460294420504
 20
1934.877936748162
 30
0.0
  0
VERTEX
  5
3F4
330
3B4
100
AcDbEntity
  8
化粧台
  6
CONTINUOUS
 62
     2
100
AcDbVertex
100
AcDb2dVertex
 10
2393.463201885556
 20
1934.902849269382
 30
0.0
  0
VERTEX
  5
3F5
330
3B4
100
AcDbEntity
  8
化粧台
  6
CONTINUOUS
 62
     2
100
AcDbVertex
100
AcDb2dVertex
 10
2393.466048886761
 20
1934.927085960574
 30
0.0
  0
VERTEX
  5
3F6
330
3B4
100
AcDbEntity
  8
化粧台
  6
CONTINUOUS
 62
     2
100
AcDbVertex
100
AcDb2dVertex
 10
2393.46882063754
 20
1934.95053454776
 30
0.0
  0
VERTEX
  5
3F7
330
3B4
100
AcDbEntity
  8
化粧台
  6
CONTINUOUS
 62
     2
100
AcDbVertex
100
AcDb2dVertex
 10
2393.47150235132
 20
1934.973082756962
 30
0.0
  0
VERTEX
  5
3F8
330
3B4
100
AcDbEntity
  8
化粧台
  6
CONTINUOUS
 62
     2
100
AcDbVertex
100
AcDb2dVertex
 10
2393.473114311576
 20
1934.986566058643
 30
0.0
  0
VERTEX
  5
3F9
330
3B4
100
AcDbEntity
  8
化粧台
  6
CONTINUOUS
 62
     2
100
AcDbVertex
100
AcDb2dVertex
 10
2393.47471307631
 20
1934.999868178589
 30
0.0
  0
VERTEX
  5
3FA
330
3B4
100
AcDbEntity
  8
化粧台
  6
CONTINUOUS
 62
     2
100
AcDbVertex
100
AcDb2dVertex
 10
2393.476325538352
 20
1935.013195210025
 30
0.0
  0
VERTEX
  5
3FB
330
3B4
100
AcDbEntity
  8
化粧台
  6
CONTINUOUS
 62
     2
100
AcDbVertex
100
AcDb2dVertex
 10
2393.477978590532
 20
1935.026753246175
 30
0.0
  0
VERTEX
  5
3FC
330
3B4
100
AcDbEntity
  8
化粧台
  6
CONTINUOUS
 62
     2
100
AcDbVertex
100
AcDb2dVertex
 10
2393.479699125675
 20
1935.040748380263
 30
0.0
  0
VERTEX
  5
3FD
330
3B4
100
AcDbEntity
  8
化粧台
  6
CONTINUOUS
 62
     2
100
AcDbVertex
100
AcDb2dVertex
 10
2393.481514036614
 20
1935.055386705514
 30
0.0
  0
VERTEX
  5
3FE
330
3B4
100
AcDbEntity
  8
化粧台
  6
CONTINUOUS
 62
     2
100
AcDbVertex
100
AcDb2dVertex
 10
2393.483450216175
 20
1935.070874315153
 30
0.0
  0
VERTEX
  5
3FF
330
3B4
100
AcDbEntity
  8
化粧台
  6
CONTINUOUS
 62
     2
100
AcDbVertex
100
AcDb2dVertex
 10
2393.485534557187
 20
1935.087417302402
 30
0.0
  0
VERTEX
  5
400
330
3B4
100
AcDbEntity
  8
化粧台
  6
CONTINUOUS
 62
     2
100
AcDbVertex
100
AcDb2dVertex
 10
2393.487793952479
 20
1935.105221760487
 30
0.0
  0
VERTEX
  5
401
330
3B4
100
AcDbEntity
  8
化粧台
  6
CONTINUOUS
 62
     2
100
AcDbVertex
100
AcDb2dVertex
 10
2393.490255294879
 20
1935.124493782633
 30
0.0
  0
VERTEX
  5
402
330
3B4
100
AcDbEntity
  8
化粧台
  6
CONTINUOUS
 62
     2
100
AcDbVertex
100
AcDb2dVertex
 10
2393.492945477217
 20
1935.145439462063
 30
0.0
  0
VERTEX
  5
403
330
3B4
100
AcDbEntity
  8
化粧台
  6
CONTINUOUS
 62
     2
100
AcDbVertex
100
AcDb2dVertex
 10
2393.493846468976
 20
1935.152431884937
 30
0.0
  0
VERTEX
  5
404
330
3B4
100
AcDbEntity
  8
化粧台
  6
CONTINUOUS
 62
     2
100
AcDbVertex
100
AcDb2dVertex
 10
2393.494753728878
 20
1935.15946425336
 30
0.0
  0
VERTEX
  5
405
330
3B4
100
AcDbEntity
  8
化粧台
  6
CONTINUOUS
 62
     2
100
AcDbVertex
100
AcDb2dVertex
 10
2393.495647856108
 20
1935.166387834532
 30
0.0
  0
VERTEX
  5
406
330
3B4
100
AcDbEntity
  8
化粧台
  6
CONTINUOUS
 62
     2
100
AcDbVertex
100
AcDb2dVertex
 10
2393.496509449851
 20
1935.173053895655
 30
0.0
  0
VERTEX
  5
407
330
3B4
100
AcDbEntity
  8
化粧台
  6
CONTINUOUS
 62
     2
100
AcDbVertex
100
AcDb2dVertex
 10
2393.497319109294
 20
1935.17931370393
 30
0.0
  0
VERTEX
  5
408
330
3B4
100
AcDbEntity
  8
化粧台
  6
CONTINUOUS
 62
     2
100
AcDbVertex
100
AcDb2dVertex
 10
2393.498057433621
 20
1935.18501852656
 30
0.0
  0
VERTEX
  5
409
330
3B4
100
AcDbEntity
  8
化粧台
  6
CONTINUOUS
 62
     2
100
AcDbVertex
100
AcDb2dVertex
 10
2393.498705022019
 20
1935.190019630745
 30
0.0
  0
VERTEX
  5
40A
330
3B4
100
AcDbEntity
  8
化粧台
  6
CONTINUOUS
 62
     2
100
AcDbVertex
100
AcDb2dVertex
 10
2393.499242473672
 20
1935.194168283685
 30
0.0
  0
VERTEX
  5
40B
330
3B4
100
AcDbEntity
  8
化粧台
  6
CONTINUOUS
 62
     2
100
AcDbVertex
100
AcDb2dVertex
 10
2393.499650387766
 20
1935.197315752584
 30
0.0
  0
VERTEX
  5
40C
330
3B4
100
AcDbEntity
  8
化粧台
  6
CONTINUOUS
 62
     2
100
AcDbVertex
100
AcDb2dVertex
 10
2393.499909363486
 20
1935.199313304643
 30
0.0
  0
VERTEX
  5
40D
330
3B4
100
AcDbEntity
  8
化粧台
  6
CONTINUOUS
 62
     2
100
AcDbVertex
100
AcDb2dVertex
 10
2393.500000000018
 20
1935.200012207062
 30
0.0
  0
SEQEND
  5
40E
330
3B4
100
AcDbEntity
  8
化粧台
  6
CONTINUOUS
 62
     2
  0
ARC
  5
40F
330
1F
100
AcDbEntity
  8
化粧台
  6
CONTINUOUS
 62
     2
100
AcDbCircle
 10
2392.500000000018
 20
1941.389549246862
 30
0.0
 40
1.0
100
AcDbArc
 50
0.0
 51
85.78044385704138
  0
LINE
  5
410
330
1F
100
AcDbEntity
  8
化粧台
  6
CONTINUOUS
 62
     2
100
AcDbLine
 10
2347.500000000018
 20
1912.200012207062
 30
0.0
 11
2347.500000000017
 21
1930.13830575952
 31
0.0
  0
LINE
  5
411
330
1F
100
AcDbEntity
  8
化粧台
  6
CONTINUOUS
 62
     2
100
AcDbLine
 10
2370.500000000018
 20
1912.200012207064
 30
0.0
 11
2393.23213584342
 21
1922.800181236962
 31
0.0
  0
LINE
  5
412
330
1F
100
AcDbEntity
  8
化粧台
  6
CONTINUOUS
 62
     2
100
AcDbLine
 10
2347.500000000018
 20
1912.200012207062
 30
0.0
 11
2370.500000000015
 21
1912.200012207062
 31
0.0
  0
LINE
  5
413
330
1F
100
AcDbEntity
  8
化粧台
  6
CONTINUOUS
 62
     2
100
AcDbLine
 10
2388.683078167142
 20
1920.67892080514
 30
0.0
 11
2392.000000000017
 21
1908.300000000112
 31
0.0
  0
LINE
  5
414
330
1F
100
AcDbEntity
  8
化粧台
  6
CONTINUOUS
 62
     2
100
AcDbLine
 10
2350.045005121341
 20
1912.200012207062
 30
0.0
 11
2349.000000000017
 21
1908.300000000112
 31
0.0
  0
LINE
  5
415
330
1F
100
AcDbEntity
  8
化粧台
  6
CONTINUOUS
 62
     2
100
AcDbLine
 10
2392.000000000017
 20
1908.300000000112
 30
0.0
 11
2370.500000000018
 21
1908.300000000112
 31
0.0
  0
LINE
  5
416
330
1F
100
AcDbEntity
  8
化粧台
  6
CONTINUOUS
 62
     2
100
AcDbLine
 10
2348.500000000017
 20
1908.300000000031
 30
0.0
 11
2370.50000000002
 21
1908.300000000039
 31
0.0
  0
ARC
  5
417
330
1F
100
AcDbEntity
  8
化粧台
  6
CONTINUOUS
 62
     2
100
AcDbCircle
 10
2348.500000000018
 20
1941.389549246862
 30
0.0
 40
1.0
100
AcDbArc
 50
94.21955614295867
 51
180.0
  0
LINE
  5
418
330
1F
100
AcDbEntity
  8
化粧台
  6
CONTINUOUS
 62
     2
100
AcDbLine
 10
2347.500000000018
 20
1941.389549246862
 30
0.0
 11
2347.500000000017
 21
1938.261718654606
 31
0.0
  0
LINE
  5
419
330
1F
100
AcDbEntity
  8
化粧台
  6
CONTINUOUS
 62
     2
100
AcDbLine
 10
2277.951379324709
 20
1875.4924679235
 30
0.0
 11
2276.658236314177
 21
1868.158689477714
 31
0.0
  0
LINE
  5
41A
330
1F
100
AcDbEntity
  8
化粧台
  6
CONTINUOUS
 62
     2
100
AcDbLine
 10
2254.315993252414
 20
1879.660024187499
 30
0.0
 11
2253.022850241885
 21
1872.32624574172
 31
0.0
  0
LINE
  5
41B
330
1F
100
AcDbEntity
  8
化粧台
  6
CONTINUOUS
 62
     2
100
AcDbLine
 10
2266.13368628856
 20
1877.5762460555
 30
0.0
 11
2280.905802583743
 21
1874.971523390496
 31
0.0
  0
LINE
  5
41C
330
1F
100
AcDbEntity
  8
化粧台
  6
CONTINUOUS
 62
     2
100
AcDbLine
 10
2348.000000000018
 20
1907.800000000031
 30
0.0
 11
2348.000000000018
 21
1883.23788485813
 31
0.0
  0
LINE
  5
41D
330
1F
100
AcDbEntity
  8
化粧台
  6
CONTINUOUS
 62
     2
100
AcDbLine
 10
2400.155424036379
 20
1860.071615551347
 30
0.0
 11
2405.33956959503
 21
1860.071615551347
 31
0.0
  0
LINE
  5
41E
330
1F
100
AcDbEntity
  8
化粧台
  6
CONTINUOUS
 62
     2
100
AcDbLine
 10
2400.155424036379
 20
1854.071615551347
 30
0.0
 11
2405.33956959503
 21
1854.071615551347
 31
0.0
  0
LINE
  5
41F
330
1F
100
AcDbEntity
  8
化粧台
  6
CONTINUOUS
 62
     2
100
AcDbLine
 10
2405.339569595034
 20
1857.071615551347
 30
0.0
 11
2405.339569595034
 21
1852.345391073227
 31
0.0
  0
LINE
  5
420
330
1F
100
AcDbEntity
  8
化粧台
  6
CONTINUOUS
 62
     2
100
AcDbLine
 10
2405.339569595034
 20
1861.797840029468
 30
0.0
 11
2405.339569595034
 21
1857.071615551347
 31
0.0
  0
ARC
  5
421
330
1F
100
AcDbEntity
  8
化粧台
  6
CONTINUOUS
 62
     2
100
AcDbCircle
 10
2400.155424036379
 20
1850.071615551347
 30
0.0
 40
10.0
100
AcDbArc
 50
90.00000000000001
 51
135.6876687567335
  0
LINE
  5
422
330
1F
100
AcDbEntity
  8
化粧台
  6
CONTINUOUS
 62
     2
100
AcDbLine
 10
2393.000000000016
 20
1845.134438068142
 30
0.0
 11
2396.623633664944
 21
1851.94950180249
 31
0.0
  0
LINE
  5
423
330
1F
100
AcDbEntity
  8
化粧台
  6
CONTINUOUS
 62
     2
100
AcDbLine
 10
2348.000000000057
 20
1852.77508650156
 30
0.0
 11
2348.000000000057
 21
1821.000000000028
 31
0.0
  0
LINE
  5
424
330
1F
100
AcDbEntity
  8
化粧台
  6
CONTINUOUS
 62
     2
100
AcDbLine
 10
2347.500000000018
 20
1938.870974621736
 30
0.0
 11
2348.43823820275
 21
1938.705537912263
 31
0.0
  0
LINE
  5
425
330
1F
100
AcDbEntity
  8
化粧台
  6
CONTINUOUS
 62
     2
100
AcDbLine
 10
2347.500000000018
 20
1938.870974621736
 30
0.0
 11
2348.43823820275
 21
1938.705537912263
 31
0.0
  0
LINE
  5
426
330
1F
100
AcDbEntity
  8
化粧台
  6
CONTINUOUS
 62
     2
100
AcDbLine
 10
2347.500000000018
 20
1929.529049792389
 30
0.0
 11
2348.43823820275
 21
1929.363613082916
 31
0.0
  0
LINE
  5
427
330
1F
100
AcDbEntity
  8
化粧台
  6
CONTINUOUS
 62
     2
100
AcDbLine
 10
2347.500000000018
 20
1929.529049792389
 30
0.0
 11
2348.43823820275
 21
1929.363613082916
 31
0.0
  0
LINE
  5
428
330
1F
100
AcDbEntity
  8
化粧台
  6
CONTINUOUS
 62
     2
100
AcDbLine
 10
2250.6009551688
 20
1880.315085636003
 30
0.0
 11
2266.13368628856
 21
1877.576246055499
 31
0.0
  0
ARC
  5
429
330
1F
100
AcDbEntity
  8
化粧台
  6
CONTINUOUS
 62
     2
100
AcDbCircle
 10
2326.227883704835
 20
1871.845497209811
 30
0.0
 40
78.0
100
AcDbArc
 50
160.1509730893516
 51
172.1050093001874
  0
LINE
  5
42A
330
1F
100
AcDbEntity
  8
化粧台
  6
CONTINUOUS
 62
     2
100
AcDbLine
 10
2348.000000000019
 20
1852.77508650156
 30
0.0
 11
2348.000000000017
 21
1809.308109337434
 31
0.0
  0
LINE
  5
42B
330
1F
100
AcDbEntity
  8
化粧台
  6
CONTINUOUS
 62
     2
100
AcDbLine
 10
2393.000000000018
 20
1857.057308563486
 30
0.0
 11
2393.000000000018
 21
1810.330836610161
 31
0.0
  0
TEXT
  5
42C
330
1F
100
AcDbEntity
  8
化粧台
  6
CONTINUOUS
 62
     2
100
AcDbText
 10
1644.000000536439
 20
3959.500003814697
 30
0.0
 40
59.99999618530273
  1
W.L.
 41
0.5571963512150641
  7
EXCADSTD
 72
     5
 11
1734.743400536439
 21
3959.500003814697
 31
0.0
100
AcDbText
  0
LINE
  5
42D
330
1F
100
AcDbEntity
  8
化粧台
  6
EXLTYPE3
 62
     6
100
AcDbLine
 10
680.9999999999984
 20
3764.5
 30
0.0
 11
1155.499999999997
 21
3764.5
 31
0.0
  0
CIRCLE
  5
42E
330
1F
100
AcDbEntity
  8
化粧台
  6
CONTINUOUS
 62
     2
100
AcDbCircle
 10
919.9999999999984
 20
3764.5
 30
0.0
 40
220.0000000000001
  0
CIRCLE
  5
42F
330
1F
100
AcDbEntity
  8
化粧台
  6
CONTINUOUS
 62
     2
100
AcDbCircle
 10
919.9999999999984
 20
3764.5
 30
0.0
 40
225.0000000000001
  0
ARC
  5
430
330
1F
100
AcDbEntity
  8
化粧台
  6
CONTINUOUS
 62
     2
100
AcDbCircle
 10
919.9999999999984
 20
3771.929987018267
 30
0.0
 40
212.5700129817332
100
AcDbArc
 50
9.763897427589361
 51
170.2361025724106
  0
ARC
  5
431
330
1F
100
AcDbEntity
  8
化粧台
  6
CONTINUOUS
 62
     2
100
AcDbCircle
 10
759.7848212400952
 20
3799.5
 30
0.0
 40
50.00000000000004
100
AcDbArc
 50
90.00000000000001
 51
170.2361025724106
  0
ARC
  5
432
330
1F
100
AcDbEntity
  8
化粧台
  6
CONTINUOUS
 62
     2
100
AcDbCircle
 10
1080.215178759901
 20
3799.5
 30
0.0
 40
50.00000000000004
100
AcDbArc
 50
9.763897427589361
 51
90.00000000000001
  0
ARC
  5
433
330
1F
100
AcDbEntity
  8
化粧台
  6
CONTINUOUS
 62
     6
100
AcDbCircle
 10
868.0384757736085
 20
3791.5
 30
0.0
 40
50.00000000000004
100
AcDbArc
 50
90.00000000000001
 51
171.7867892961641
  0
ARC
  5
434
330
1F
100
AcDbEntity
  8
化粧台
  6
CONTINUOUS
 62
     6
100
AcDbCircle
 10
971.9615242263874
 20
3791.5
 30
0.0
 40
50.00000000000004
100
AcDbArc
 50
8.213210703835998
 51
90.00000000000001
  0
ARC
  5
435
330
1F
100
AcDbEntity
  8
化粧台
  6
CONTINUOUS
 62
     6
100
AcDbCircle
 10
919.9999999999984
 20
3783.999999998155
 30
0.0
 40
102.4999999995951
100
AcDbArc
 50
171.7867892961641
 51
8.213210703835998
  0
LINE
  5
436
330
1F
100
AcDbEntity
  8
化粧台
  6
CONTINUOUS
 62
     6
100
AcDbLine
 10
883.0999999999988
 20
3761.5
 30
0.0
 11
956.8999999999971
 21
3761.5
 31
0.0
  0
LINE
  5
437
330
1F
100
AcDbEntity
  8
化粧台
  6
EXLTYPE3
 62
     6
100
AcDbLine
 10
919.9999999999984
 20
3524.5
 30
0.0
 11
919.9999999999984
 21
4034.499999999999
 31
0.0
  0
LINE
  5
438
330
1F
100
AcDbEntity
  8
化粧台
  6
CONTINUOUS
 62
     6
100
AcDbLine
 10
980.4999999999975
 20
4019.5
 30
0.0
 11
980.4999999999975
 21
4027.5
 31
0.0
  0
LINE
  5
439
330
1F
100
AcDbEntity
  8
化粧台
  6
CONTINUOUS
 62
     6
100
AcDbLine
 10
959.4999999999975
 20
4027.5
 30
0.0
 11
980.4999999999975
 21
4027.5
 31
0.0
  0
LINE
  5
43A
330
1F
100
AcDbEntity
  8
化粧台
  6
CONTINUOUS
 62
     6
100
AcDbLine
 10
959.4999999999975
 20
4019.5
 30
0.0
 11
959.4999999999975
 21
4027.5
 31
0.0
  0
LINE
  5
43B
330
1F
100
AcDbEntity
  8
化粧台
  6
CONTINUOUS
 62
     6
100
AcDbLine
 10
969.9999999999975
 20
4042.5
 30
0.0
 11
969.9999999999975
 21
3989.5
 31
0.0
  0
LINE
  5
43C
330
1F
100
AcDbEntity
  8
化粧台
  6
CONTINUOUS
 62
     6
100
AcDbLine
 10
859.4999999999975
 20
4019.5
 30
0.0
 11
859.4999999999975
 21
4027.5
 31
0.0
  0
LINE
  5
43D
330
1F
100
AcDbEntity
  8
化粧台
  6
CONTINUOUS
 62
     6
100
AcDbLine
 10
880.4999999999975
 20
4027.5
 30
0.0
 11
859.4999999999975
 21
4027.5
 31
0.0
  0
LINE
  5
43E
330
1F
100
AcDbEntity
  8
化粧台
  6
CONTINUOUS
 62
     6
100
AcDbLine
 10
880.4999999999975
 20
4019.5
 30
0.0
 11
880.4999999999975
 21
4027.5
 31
0.0
  0
LINE
  5
43F
330
1F
100
AcDbEntity
  8
化粧台
  6
CONTINUOUS
 62
     6
100
AcDbLine
 10
869.9999999999975
 20
4042.5
 30
0.0
 11
869.9999999999975
 21
3989.5
 31
0.0
  0
LINE
  5
440
330
1F
100
AcDbEntity
  8
化粧台
  6
CONTINUOUS
 62
     2
100
AcDbLine
 10
619.9999999999984
 20
4019.499999999999
 30
0.0
 11
619.9999999999984
 21
3569.499999999999
 31
0.0
  0
LINE
  5
441
330
1F
100
AcDbEntity
  8
化粧台
  6
CONTINUOUS
 62
     2
100
AcDbLine
 10
619.9999999999984
 20
3569.499999999999
 30
0.0
 11
807.7502783967814
 21
3569.499999999999
 31
0.0
  0
LINE
  5
442
330
1F
100
AcDbEntity
  8
化粧台
  6
CONTINUOUS
 62
     6
100
AcDbLine
 10
737.9999999999984
 20
4019.500000000003
 30
0.0
 11
739.9999999999984
 21
4052.000000000003
 31
0.0
  0
LINE
  5
443
330
1F
100
AcDbEntity
  8
化粧台
  6
CONTINUOUS
 62
     6
100
AcDbLine
 10
739.9999999999984
 20
4052.000000000003
 30
0.0
 11
741.9999999999984
 21
4019.500000000003
 31
0.0
  0
LINE
  5
444
330
1F
100
AcDbEntity
  8
化粧台
  6
CONTINUOUS
 62
     6
100
AcDbLine
 10
739.9999999999984
 20
4004.5
 30
0.0
 11
739.9999999999984
 21
4062.0
 31
0.0
  0
LINE
  5
445
330
1F
100
AcDbEntity
  8
化粧台
  6
CONTINUOUS
 62
     2
100
AcDbLine
 10
1219.999999999997
 20
4019.499999999999
 30
0.0
 11
1219.999999999997
 21
3569.499999999999
 31
0.0
  0
LINE
  5
446
330
1F
100
AcDbEntity
  8
化粧台
  6
CONTINUOUS
 62
     2
100
AcDbLine
 10
1032.249721603198
 20
3569.499999999999
 30
0.0
 11
1219.999999999997
 21
3569.499999999999
 31
0.0
  0
LINE
  5
447
330
1F
100
AcDbEntity
  8
化粧台
  6
CONTINUOUS
 62
     6
100
AcDbLine
 10
1097.999999999997
 20
4019.500000000003
 30
0.0
 11
1099.999999999997
 21
4052.000000000003
 31
0.0
  0
LINE
  5
448
330
1F
100
AcDbEntity
  8
化粧台
  6
CONTINUOUS
 62
     6
100
AcDbLine
 10
1099.999999999997
 20
4052.000000000003
 30
0.0
 11
1101.999999999997
 21
4019.500000000003
 31
0.0
  0
LINE
  5
449
330
1F
100
AcDbEntity
  8
化粧台
  6
CONTINUOUS
 62
     6
100
AcDbLine
 10
1099.999999999997
 20
4004.5
 30
0.0
 11
1099.999999999997
 21
4062.0
 31
0.0
  0
LINE
  5
44A
330
1F
100
AcDbEntity
  8
化粧台
  6
EXLTYPE4
 62
     6
100
AcDbLine
 10
332.9999999999998
 20
4019.5
 30
0.0
 11
1742.999999999997
 21
4019.5
 31
0.0
  0
LINE
  5
44B
330
1F
100
AcDbEntity
  8
化粧台
  6
CONTINUOUS
 62
     2
100
AcDbLine
 10
619.9999999999984
 20
4019.499999999999
 30
0.0
 11
1219.999999999997
 21
4019.499999999999
 31
0.0
  0
LINE
  5
44C
330
1F
100
AcDbEntity
  8
化粧台
  6
CONTINUOUS
 62
     6
100
AcDbLine
 10
953.7499999999975
 20
3910.49999999999
 30
0.0
 11
886.2499999999984
 21
3910.49999999999
 31
0.0
  0
CIRCLE
  5
44D
330
1F
100
AcDbEntity
  8
化粧台
  6
CONTINUOUS
 62
     2
100
AcDbCircle
 10
919.9999999999984
 20
3761.5
 30
0.0
 40
19.20000000000001
  0
ARC
  5
44E
330
1F
100
AcDbEntity
  8
化粧台
  6
CONTINUOUS
 62
     2
100
AcDbCircle
 10
919.9999999999984
 20
3761.5
 30
0.0
 40
26.90000000000001
100
AcDbArc
 50
107.3170186528424
 51
72.6829813471485
  0
LINE
  5
44F
330
1F
100
AcDbEntity
  8
化粧台
  6
CONTINUOUS
 62
     6
100
AcDbLine
 10
905.0000000000007
 20
3841.5
 30
0.0
 11
868.0384757736085
 21
3841.5
 31
0.0
  0
LINE
  5
450
330
1F
100
AcDbEntity
  8
化粧台
  6
CONTINUOUS
 62
     2
100
AcDbLine
 10
759.7848212400952
 20
3849.5
 30
0.0
 11
905.0000000000007
 21
3849.5
 31
0.0
  0
LINE
  5
451
330
1F
100
AcDbEntity
  8
化粧台
  6
CONTINUOUS
 62
     2
100
AcDbLine
 10
935.0000000000007
 20
3849.5
 30
0.0
 11
1080.215178759901
 21
3849.5
 31
0.0
  0
LINE
  5
452
330
1F
100
AcDbEntity
  8
化粧台
  6
CONTINUOUS
 62
     6
100
AcDbLine
 10
971.9615242263874
 20
3841.5
 30
0.0
 11
935.0000000000007
 21
3841.5
 31
0.0
  0
LINE
  5
453
330
1F
100
AcDbEntity
  8
化粧台
  6
CONTINUOUS
 62
     6
100
AcDbLine
 10
971.9615242263874
 20
3841.5
 30
0.0
 11
935.0000000000007
 21
3841.5
 31
0.0
  0
ELLIPSE
  5
454
330
1F
100
AcDbEntity
  8
化粧台
  6
CONTINUOUS
 62
     2
100
AcDbEllipse
 10
920.0
 20
3789.99844365072
 30
0.0
 11
15.0
 21
0.0
 31
0.0
210
0.0
220
0.0
230
1.0
 40
0.2032242918773344
 41
5.931468484580523
 42
9.776494783368435
  0
ELLIPSE
  5
455
330
1F
100
AcDbEntity
  8
化粧台
  6
CONTINUOUS
 62
     2
100
AcDbEllipse
 10
920.0
 20
3824.19387624485
 30
0.0
 11
6.003838769576682
 21
-1.470516386351773E-15
 31
0.0
210
0.0
220
0.0
230
1.0
 40
0.1744228793978485
 41
0.0
 42
6.283185307179586
  0
LINE
  5
456
330
1F
100
AcDbEntity
  8
化粧台
  6
CONTINUOUS
 62
     2
100
AcDbLine
 10
925.9999999999955
 20
3824.156434200723
 30
0.0
 11
925.9999999999955
 21
3883.859156576973
 31
0.0
  0
LINE
  5
457
330
1F
100
AcDbEntity
  8
化粧台
  6
CONTINUOUS
 62
     2
100
AcDbLine
 10
913.9999999999955
 20
3824.156434200771
 30
0.0
 11
913.9999999999955
 21
3884.19853870331
 31
0.0
  0
ELLIPSE
  5
458
330
1F
100
AcDbEntity
  8
化粧台
  6
CONTINUOUS
 62
     2
100
AcDbEllipse
 10
920.0
 20
3883.8965986211
 30
0.0
 11
6.003838769576682
 21
-1.470516386351773E-15
 31
0.0
210
0.0
220
0.0
230
1.0
 40
0.1744228793978485
 41
-0.0357618232697662
 42
3.177354476812678
  0
LINE
  5
459
330
1F
100
AcDbEntity
  8
化粧台
  6
CONTINUOUS
 62
     2
100
AcDbLine
 10
916.9999999999818
 20
3945.278606630094
 30
0.0
 11
916.9999999999818
 21
3932.799103120975
 31
0.0
  0
LINE
  5
45A
330
1F
100
AcDbEntity
  8
化粧台
  6
CONTINUOUS
 62
     2
100
AcDbLine
 10
923.0
 20
3945.278606630094
 30
0.0
 11
923.0
 21
3932.799103120978
 31
0.0
  0
CIRCLE
  5
45B
330
1F
100
AcDbEntity
  8
化粧台
  6
CONTINUOUS
 62
     2
100
AcDbCircle
 10
920.0
 20
3910.5
 30
0.0
 40
22.5
  0
LINE
  5
45C
330
1F
100
AcDbEntity
  8
化粧台
  6
CONTINUOUS
 62
     2
100
AcDbLine
 10
925.8410844325681
 20
3960.339569595011
 30
0.0
 11
914.1589155674233
 21
3960.339569595011
 31
0.0
  0
ARC
  5
45D
330
1F
100
AcDbEntity
  8
化粧台
  6
CONTINUOUS
 62
     2
100
AcDbCircle
 10
919.9999999999964
 20
3942.7884851056
 30
0.0
 40
18.55108448941109
100
AcDbArc
 50
72.29820692448685
 51
107.7017930755131
  0
ARC
  5
45E
330
1F
100
AcDbEntity
  8
化粧台
  6
CONTINUOUS
 62
     2
100
AcDbCircle
 10
915.273775521875
 20
3945.839569595011
 30
0.0
 40
0.5
100
AcDbArc
 50
183.0852877108193
 51
270.0
  0
ARC
  5
45F
330
1F
100
AcDbEntity
  8
化粧台
  6
CONTINUOUS
 62
     2
100
AcDbCircle
 10
914.5113353643601
 20
3959.984886233789
 30
0.0
 40
0.5
100
AcDbArc
 50
107.7017930755131
 51
183.0852877108193
  0
LINE
  5
460
330
1F
100
AcDbEntity
  8
化粧台
  6
CONTINUOUS
 62
     2
100
AcDbLine
 10
914.7745002600504
 20
3945.812658390477
 30
0.0
 11
914.0120601025355
 21
3959.957975029255
 31
0.0
  0
ARC
  5
461
330
1F
100
AcDbEntity
  8
化粧台
  6
CONTINUOUS
 62
     2
100
AcDbCircle
 10
924.726224478115
 20
3945.839569595011
 30
0.0
 40
0.5
100
AcDbArc
 50
270.0
 51
356.9147122891808
  0
ARC
  5
462
330
1F
100
AcDbEntity
  8
化粧台
  6
CONTINUOUS
 62
     2
100
AcDbCircle
 10
925.4886646356326
 20
3959.984886233791
 30
0.0
 40
0.5
100
AcDbArc
 50
356.9147122891808
 51
72.29820692448685
  0
LINE
  5
463
330
1F
100
AcDbEntity
  8
化粧台
  6
CONTINUOUS
 62
     2
100
AcDbLine
 10
925.2254997399405
 20
3945.812658390477
 30
0.0
 11
925.9879398974572
 21
3959.957975029255
 31
0.0
  0
LINE
  5
464
330
1F
100
AcDbEntity
  8
化粧台
  6
CONTINUOUS
 62
     2
100
AcDbLine
 10
924.7262244781164
 20
3945.33956959501
 30
0.0
 11
919.9999999999955
 21
3945.33956959501
 31
0.0
  0
LINE
  5
465
330
1F
100
AcDbEntity
  8
化粧台
  6
CONTINUOUS
 62
     2
100
AcDbLine
 10
919.9999999999955
 20
3945.33956959501
 30
0.0
 11
915.273775521875
 21
3945.33956959501
 31
0.0
  0
LINE
  5
466
330
1F
100
AcDbEntity
  8
化粧台
  6
CONTINUOUS
 62
     2
100
AcDbLine
 10
923.9999999999982
 20
3884.677539543204
 30
0.0
 11
923.9999999999982
 21
3887.850496694188
 31
0.0
  0
LINE
  5
467
330
1F
100
AcDbEntity
  8
化粧台
  6
CONTINUOUS
 62
     2
100
AcDbLine
 10
915.9999999999982
 20
3884.677539543203
 30
0.0
 11
915.9999999999982
 21
3887.91853870331
 31
0.0
  0
LINE
  5
468
330
1F
100
AcDbEntity
  8
化粧台
  6
CONTINUOUS
 62
     2
100
AcDbLine
 10
935.0000000000082
 20
3789.99844365072
 30
0.0
 11
935.0000000000077
 21
3893.729490168758
 31
0.0
  0
LINE
  5
469
330
1F
100
AcDbEntity
  8
化粧台
  6
CONTINUOUS
 62
     2
100
AcDbLine
 10
905.0000000000055
 20
3789.998443650721
 30
0.0
 11
905.0000000000077
 21
3893.729490168745
 31
0.0
  0
LINE
  5
46A
330
1F
100
AcDbEntity
  8
化粧台
  6
CONTINUOUS
 62
     2
100
AcDbLine
 10
905.9182604893876
 20
3788.94825152411
 30
0.0
 11
934.0817395106128
 21
3788.94825152411
 31
0.0
  0
LINE
  5
46B
330
1F
100
AcDbEntity
  8
化粧台
  6
EXLTYPE3
 62
     6
100
AcDbLine
 10
919.9999999999982
 20
1986.0
 30
0.0
 11
919.9999999999982
 21
927.5000000000003
 31
0.0
  0
TEXT
  5
46C
330
1F
100
AcDbEntity
  8
化粧台
  6
CONTINUOUS
 62
     2
100
AcDbText
 10
2479.499999999999
 20
3050.700000536392
 30
0.0
 40
59.99999618530273
  1
W.L.
 50
90.0
 41
0.5571963512150626
  7
EXCADSTD
 72
     5
 11
2479.499999999999
 21
3141.443400536392
 31
0.0
100
AcDbText
  0
LINE
  5
46D
330
1F
100
AcDbEntity
  8
化粧台
  6
EXLTYPE4
 62
     6
100
AcDbLine
 10
2479.499999999999
 20
942.5
 30
0.0
 11
2479.499999999998
 21
3141.0
 31
0.0
  0
ARC
  5
46E
330
1F
100
AcDbEntity
  8
鏡台
  6
CONTINUOUS
 62
     2
100
AcDbCircle
 10
2300.888991521544
 20
1931.808047883697
 30
0.0
 40
1.0
100
AcDbArc
 50
79.99999999999613
 51
169.9999999999962
  0
LINE
  5
46F
330
1F
100
AcDbEntity
  8
鏡台
  6
CONTINUOUS
 62
     2
100
AcDbLine
 10
2359.50000000005
 20
2842.5
 30
0.0
 11
2359.50000000005
 21
2042.5
 31
0.0
  0
LINE
  5
470
330
1F
100
AcDbEntity
  8
鏡台
  6
CONTINUOUS
 62
     2
100
AcDbLine
 10
2479.50000000005
 20
2842.5
 30
0.0
 11
2479.50000000005
 21
2042.5
 31
0.0
  0
LINE
  5
471
330
1F
100
AcDbEntity
  8
鏡台
  6
CONTINUOUS
 62
     2
100
AcDbLine
 10
2359.50000000005
 20
2842.5
 30
0.0
 11
2479.50000000005
 21
2842.5
 31
0.0
  0
LINE
  5
472
330
1F
100
AcDbEntity
  8
鏡台
  6
CONTINUOUS
 62
     2
100
AcDbLine
 10
2359.50000000005
 20
2042.5
 30
0.0
 11
2479.50000000005
 21
2042.5
 31
0.0
  0
LINE
  5
473
330
1F
100
AcDbEntity
  8
鏡台
  6
CONTINUOUS
 62
     6
100
AcDbLine
 10
2479.500000000052
 20
2784.5
 30
0.0
 11
2512.00000000005
 21
2782.5
 31
0.0
  0
LINE
  5
474
330
1F
100
AcDbEntity
  8
鏡台
  6
CONTINUOUS
 62
     6
100
AcDbLine
 10
2512.00000000005
 20
2782.5
 30
0.0
 11
2479.50000000005
 21
2780.5
 31
0.0
  0
LINE
  5
475
330
1F
100
AcDbEntity
  8
鏡台
  6
CONTINUOUS
 62
     6
100
AcDbLine
 10
2469.500000000048
 20
2782.5
 30
0.0
 11
2522.000000000048
 21
2782.5
 31
0.0
  0
LINE
  5
476
330
1F
100
AcDbEntity
  8
鏡台
  6
CONTINUOUS
 62
     6
100
AcDbLine
 10
2479.500000000052
 20
2074.5
 30
0.0
 11
2512.00000000005
 21
2072.5
 31
0.0
  0
LINE
  5
477
330
1F
100
AcDbEntity
  8
鏡台
  6
CONTINUOUS
 62
     6
100
AcDbLine
 10
2512.00000000005
 20
2072.5
 30
0.0
 11
2479.50000000005
 21
2070.5
 31
0.0
  0
LINE
  5
478
330
1F
100
AcDbEntity
  8
鏡台
  6
CONTINUOUS
 62
     6
100
AcDbLine
 10
2469.500000000048
 20
2072.5
 30
0.0
 11
2522.000000000048
 21
2072.5
 31
0.0
  0
LINE
  5
479
330
1F
100
AcDbEntity
  8
鏡台
  6
CONTINUOUS
 62
     6
100
AcDbLine
 10
2439.50000000005
 20
2045.5
 30
0.0
 11
2439.50000000005
 21
2042.5
 31
0.0
  0
LINE
  5
47A
330
1F
100
AcDbEntity
  8
鏡台
  6
CONTINUOUS
 62
     6
100
AcDbLine
 10
2476.50000000005
 20
2082.5
 30
0.0
 11
2479.50000000005
 21
2082.5
 31
0.0
  0
LINE
  5
47B
330
1F
100
AcDbEntity
  8
鏡台
  6
EXLTYPE2
 62
     6
100
AcDbLine
 10
2439.50000000005
 20
2045.5
 30
0.0
 11
2476.50000000005
 21
2045.5
 31
0.0
  0
LINE
  5
47C
330
1F
100
AcDbEntity
  8
鏡台
  6
EXLTYPE2
 62
     6
100
AcDbLine
 10
2476.50000000005
 20
2082.5
 30
0.0
 11
2476.50000000005
 21
2045.5
 31
0.0
  0
DIMENSION
  5
47E
330
1F
100
AcDbEntity
  8
鏡台
  6
CONTINUOUS
 62
     3
100
AcDbDimension
  2
*D15
 10
2479.50000000005
 20
2919.0
 30
0.0
 11
2419.50000000005
 21
2954.249999910593
 31
0.0
 70
   160
  3
ISO-25
100
AcDbAlignedDimension
 13
2359.50000000005
 23
2842.5
 33
0.0
 14
2479.50000000005
 24
2842.5
 34
0.0
100
AcDbRotatedDimension
1001
ACAD
1000
DSTYLE
1002
{
1070
   270
1070
     2
1070
     6
1000
EX_NORM
1070
     7
1000
EX_NORM
1070
    41
1040
44.99999618530273
1070
    42
1040
10.49999982118607
1070
    44
1040
15.0
1070
    73
1070
     0
1070
    74
1070
     0
1070
    75
1070
     0
1070
    76
1070
     1
1070
    77
1070
     1
1070
    78
1070
     8
1070
   140
1040
59.99999618530273
1070
   147
1040
0.0
1070
   173
1070
     1
1070
   176
1070
     3
1070
   177
1070
     3
1070
   178
1070
     2
1070
   271
1070
     2
1070
   277
1070
     2
1070
   279
1070
     2
1070
   280
1070
     0
1070
   287
1070
     5
1070
   340
1005
47D
1002
}
  0
DIMENSION
  5
48B
330
1F
100
AcDbEntity
  8
鏡台
  6
CONTINUOUS
 62
     3
100
AcDbDimension
  2
*D16
 10
1194.999999999995
 20
3009.0
 30
0.0
 11
919.9999999999952
 21
3044.249999910593
 31
0.0
 70
   160
  3
ISO-25
100
AcDbAlignedDimension
 13
644.9999999999951
 23
2790.5
 33
0.0
 14
1194.999999999995
 24
2790.5
 34
0.0
100
AcDbRotatedDimension
1001
ACAD
1000
DSTYLE
1002
{
1070
   270
1070
     2
1070
     6
1000
EX_NORM
1070
     7
1000
EX_NORM
1070
    41
1040
44.99999618530273
1070
    42
1040
10.49999982118607
1070
    44
1040
15.0
1070
    73
1070
     0
1070
    74
1070
     0
1070
    75
1070
     0
1070
    76
1070
     0
1070
    77
1070
     1
1070
    78
1070
     8
1070
   140
1040
59.99999618530273
1070
   147
1040
0.0
1070
   173
1070
     1
1070
   176
1070
     3
1070
   177
1070
     3
1070
   178
1070
     2
1070
   271
1070
     2
1070
   277
1070
     2
1070
   279
1070
     2
1070
   280
1070
     0
1070
   287
1070
     5
1070
   340
1005
47D
1002
}
  0
DIMENSION
  5
498
330
1F
100
AcDbEntity
  8
鏡台
  6
CONTINUOUS
 62
     3
100
AcDbDimension
  2
*D17
 10
1294.999999999995
 20
3099.0
 30
0.0
 11
919.9999999999952
 21
3134.249999910593
 31
0.0
 70
   160
  3
ISO-25
100
AcDbAlignedDimension
 13
544.9999999999951
 23
2842.5
 33
0.0
 14
1294.999999999995
 24
2842.5
 34
0.0
100
AcDbRotatedDimension
1001
ACAD
1000
DSTYLE
1002
{
1070
   270
1070
     2
1070
     6
1000
EX_NORM
1070
     7
1000
EX_NORM
1070
    41
1040
44.99999618530273
1070
    42
1040
10.49999982118607
1070
    44
1040
15.0
1070
    73
1070
     0
1070
    74
1070
     0
1070
    75
1070
     0
1070
    76
1070
     0
1070
    77
1070
     1
1070
    78
1070
     8
1070
   140
1040
59.99999618530273
1070
   147
1040
0.0
1070
   173
1070
     1
1070
   176
1070
     3
1070
   177
1070
     3
1070
   178
1070
     2
1070
   271
1070
     2
1070
   277
1070
     2
1070
   279
1070
     2
1070
   280
1070
     0
1070
   287
1070
     5
1070
   340
1005
47D
1002
}
  0
TEXT
  5
4A5
330
1F
100
AcDbEntity
  8
鏡台
  6
CONTINUOUS
 62
     2
100
AcDbText
 10
1346.999999999995
 20
3041.249999910593
 30
0.0
 40
59.99999618530273
  1
コード長さ；０.９ｍ
 41
0.9568047195073408
  7
EXCADSTD
 72
     5
 11
1808.999963760371
 21
3041.249999910593
 31
0.0
100
AcDbText
  0
LEADER
  5
4A6
330
1F
100
AcDbEntity
  8
鏡台
  6
CONTINUOUS
 62
     3
100
AcDbLeader
  3
ISO-25
 76
     3
 10
1086.629828022195
 20
2870.4666730809
 30
0.0
 10
1339.499999999995
 20
3036.0
 30
0.0
 10
1810.499999999995
 20
3036.0
 30
0.0
1001
ACAD
1000
DSTYLE
1002
{
1070
     5
1000
EX_NORM
1070
    41
1040
45.0
1070
   341
1005
4D
1002
}
  0
DIMENSION
  5
4A7
330
1F
100
AcDbEntity
  8
鏡台
  6
CONTINUOUS
 62
     3
100
AcDbDimension
  2
*D18
 10
1294.999999999995
 20
2919.0
 30
0.0
 11
1414.999999999995
 21
2954.249999910593
 31
0.0
 70
   160
  3
ISO-25
100
AcDbAlignedDimension
 13
1104.999999999995
 23
2855.5766968306
 33
0.0
 14
1294.999999999995
 24
2842.5
 34
0.0
100
AcDbRotatedDimension
1001
ACAD
1000
DSTYLE
1002
{
1070
   270
1070
     2
1070
     6
1000
EX_NORM
1070
     7
1000
EX_NORM
1070
    41
1040
44.99999618530273
1070
    42
1040
10.49999982118607
1070
    44
1040
15.0
1070
    73
1070
     0
1070
    74
1070
     0
1070
    75
1070
     0
1070
    76
1070
     0
1070
    77
1070
     1
1070
    78
1070
     8
1070
   140
1040
59.99999618530273
1070
   147
1040
0.0
1070
   173
1070
     1
1070
   176
1070
     3
1070
   177
1070
     3
1070
   178
1070
     2
1070
   271
1070
     2
1070
   277
1070
     2
1070
   279
1070
     2
1070
   280
1070
     2
1070
   287
1070
     5
1070
   340
1005
47D
1002
}
  0
DIMENSION
  5
4B5
330
1F
100
AcDbEntity
  8
鏡台
  6
CONTINUOUS
 62
     3
100
AcDbDimension
  2
*D19
 10
1580.999999999995
 20
2042.5
 30
0.0
 11
1545.750000089403
 21
2442.5
 31
0.0
 70
   160
  3
ISO-25
100
AcDbAlignedDimension
 13
1294.999999999995
 23
2842.5
 33
0.0
 14
1294.999999999995
 24
2042.5
 34
0.0
 50
90.0
100
AcDbRotatedDimension
1001
ACAD
1000
DSTYLE
1002
{
1070
   270
1070
     2
1070
     6
1000
EX_NORM
1070
     7
1000
EX_NORM
1070
    41
1040
44.99999618530273
1070
    42
1040
7.5
1070
    44
1040
15.0
1070
    73
1070
     0
1070
    74
1070
     0
1070
    75
1070
     1
1070
    76
1070
     0
1070
    77
1070
     1
1070
    78
1070
     8
1070
   140
1040
59.99999618530273
1070
   147
1040
0.0
1070
   173
1070
     1
1070
   176
1070
     3
1070
   177
1070
     3
1070
   178
1070
     2
1070
   271
1070
     2
1070
   277
1070
     2
1070
   279
1070
     2
1070
   280
1070
     0
1070
   287
1070
     5
1070
   340
1005
4B4
1002
}
  0
LINE
  5
4C1
330
1F
100
AcDbEntity
  8
鏡台
  6
CONTINUOUS
 62
     3
100
AcDbLine
 10
1302.499999999995
 20
2042.5
 30
0.0
 11
1595.999999999995
 21
2042.5
 31
0.0
  0
LINE
  5
4C2
330
1F
100
AcDbEntity
  8
鏡台
  6
CONTINUOUS
 62
     3
100
AcDbLine
 10
1304.999999999995
 20
2842.5
 30
0.0
 11
1688.999999999995
 21
2842.5
 31
0.0
  0
LINE
  5
4C3
330
1F
100
AcDbEntity
  8
鏡台
  6
CONTINUOUS
 62
     2
100
AcDbLine
 10
544.9999999999951
 20
2842.5
 30
0.0
 11
1294.999999999995
 21
2842.5
 31
0.0
  0
LINE
  5
4C4
330
1F
100
AcDbEntity
  8
鏡台
  6
CONTINUOUS
 62
     2
100
AcDbLine
 10
544.9999999999951
 20
2042.5
 30
0.0
 11
1294.999999999995
 21
2042.5
 31
0.0
  0
LINE
  5
4C5
330
1F
100
AcDbEntity
  8
鏡台
  6
CONTINUOUS
 62
     2
100
AcDbLine
 10
544.9999999999951
 20
2842.5
 30
0.0
 11
544.9999999999951
 21
2042.5
 31
0.0
  0
LINE
  5
4C6
330
1F
100
AcDbEntity
  8
鏡台
  6
CONTINUOUS
 62
     2
100
AcDbLine
 10
1294.999999999995
 20
2842.5
 30
0.0
 11
1294.999999999995
 21
2042.5
 31
0.0
  0
LINE
  5
4C7
330
1F
100
AcDbEntity
  8
鏡台
  6
CONTINUOUS
 62
     2
100
AcDbLine
 10
1279.999999999995
 20
2842.5
 30
0.0
 11
1279.999999999995
 21
2042.5
 31
0.0
  0
LINE
  5
4C8
330
1F
100
AcDbEntity
  8
鏡台
  6
CONTINUOUS
 62
     2
100
AcDbLine
 10
559.9999999999951
 20
2842.5
 30
0.0
 11
559.9999999999951
 21
2042.5
 31
0.0
  0
LINE
  5
4C9
330
1F
100
AcDbEntity
  8
鏡台
  6
CONTINUOUS
 62
     2
100
AcDbLine
 10
559.9999999999951
 20
2060.5
 30
0.0
 11
1279.999999999995
 21
2060.5
 31
0.0
  0
LINE
  5
4CA
330
1F
100
AcDbEntity
  8
鏡台
  6
CONTINUOUS
 62
     2
100
AcDbLine
 10
559.9999999999951
 20
2827.0
 30
0.0
 11
1279.999999999995
 21
2827.0
 31
0.0
  0
LINE
  5
4CB
330
1F
100
AcDbEntity
  8
鏡台
  6
CONTINUOUS
 62
     2
100
AcDbLine
 10
1084.999999999995
 20
2827.0
 30
0.0
 11
1084.999999999995
 21
2060.5
 31
0.0
  0
LINE
  5
4CC
330
1F
100
AcDbEntity
  8
鏡台
  6
CONTINUOUS
 62
     2
100
AcDbLine
 10
1069.999999999995
 20
2827.0
 30
0.0
 11
1069.999999999995
 21
2060.5
 31
0.0
  0
LINE
  5
4CD
330
1F
100
AcDbEntity
  8
鏡台
  6
CONTINUOUS
 62
     2
100
AcDbLine
 10
1084.999999999995
 20
2165.5
 30
0.0
 11
1279.999999999995
 21
2165.5
 31
0.0
  0
LINE
  5
4CE
330
1F
100
AcDbEntity
  8
鏡台
  6
CONTINUOUS
 62
     2
100
AcDbLine
 10
1084.999999999995
 20
2125.5
 30
0.0
 11
1279.999999999995
 21
2125.5
 31
0.0
  0
LINE
  5
4CF
330
1F
100
AcDbEntity
  8
鏡台
  6
CONTINUOUS
 62
     2
100
AcDbLine
 10
1084.999999999995
 20
2355.5
 30
0.0
 11
1279.999999999995
 21
2355.5
 31
0.0
  0
LINE
  5
4D0
330
1F
100
AcDbEntity
  8
鏡台
  6
CONTINUOUS
 62
     2
100
AcDbLine
 10
1084.999999999995
 20
2395.5
 30
0.0
 11
1279.999999999995
 21
2395.5
 31
0.0
  0
LINE
  5
4D1
330
1F
100
AcDbEntity
  8
鏡台
  6
CONTINUOUS
 62
     2
100
AcDbLine
 10
1084.999999999995
 20
2645.5
 30
0.0
 11
1279.999999999995
 21
2645.5
 31
0.0
  0
LINE
  5
4D2
330
1F
100
AcDbEntity
  8
鏡台
  6
CONTINUOUS
 62
     2
100
AcDbLine
 10
1084.999999999995
 20
2605.5
 30
0.0
 11
1279.999999999995
 21
2605.5
 31
0.0
  0
LINE
  5
4D3
330
1F
100
AcDbEntity
  8
鏡台
  6
CONTINUOUS
 62
     6
100
AcDbLine
 10
1168.249999999995
 20
2097.1
 30
0.0
 11
1168.249999999995
 21
2073.9
 31
0.0
  0
LINE
  5
4D4
330
1F
100
AcDbEntity
  8
鏡台
  6
CONTINUOUS
 62
     6
100
AcDbLine
 10
1196.749999999995
 20
2097.1
 30
0.0
 11
1196.749999999995
 21
2073.9
 31
0.0
  0
LINE
  5
4D5
330
1F
100
AcDbEntity
  8
鏡台
  6
CONTINUOUS
 62
     6
100
AcDbLine
 10
1168.249999999995
 20
2073.9
 30
0.0
 11
1196.749999999995
 21
2073.9
 31
0.0
  0
LINE
  5
4D6
330
1F
100
AcDbEntity
  8
鏡台
  6
CONTINUOUS
 62
     6
100
AcDbLine
 10
1168.249999999995
 20
2097.1
 30
0.0
 11
1196.749999999995
 21
2097.1
 31
0.0
  0
LINE
  5
4D7
330
1F
100
AcDbEntity
  8
鏡台
  6
CONTINUOUS
 62
     6
100
AcDbLine
 10
1123.249999999995
 20
2097.1
 30
0.0
 11
1123.249999999995
 21
2073.9
 31
0.0
  0
LINE
  5
4D8
330
1F
100
AcDbEntity
  8
鏡台
  6
CONTINUOUS
 62
     6
100
AcDbLine
 10
1151.749999999995
 20
2097.1
 30
0.0
 11
1151.749999999995
 21
2073.9
 31
0.0
  0
LINE
  5
4D9
330
1F
100
AcDbEntity
  8
鏡台
  6
CONTINUOUS
 62
     6
100
AcDbLine
 10
1123.249999999995
 20
2073.9
 30
0.0
 11
1151.749999999995
 21
2073.9
 31
0.0
  0
LINE
  5
4DA
330
1F
100
AcDbEntity
  8
鏡台
  6
CONTINUOUS
 62
     6
100
AcDbLine
 10
1123.249999999995
 20
2097.1
 30
0.0
 11
1151.749999999995
 21
2097.1
 31
0.0
  0
LINE
  5
4DB
330
1F
100
AcDbEntity
  8
鏡台
  6
CONTINUOUS
 62
     6
100
AcDbLine
 10
1213.249999999995
 20
2097.1
 30
0.0
 11
1213.249999999995
 21
2073.9
 31
0.0
  0
LINE
  5
4DC
330
1F
100
AcDbEntity
  8
鏡台
  6
CONTINUOUS
 62
     6
100
AcDbLine
 10
1241.749999999995
 20
2097.1
 30
0.0
 11
1241.749999999995
 21
2073.9
 31
0.0
  0
LINE
  5
4DD
330
1F
100
AcDbEntity
  8
鏡台
  6
CONTINUOUS
 62
     6
100
AcDbLine
 10
1213.249999999995
 20
2073.9
 30
0.0
 11
1241.749999999995
 21
2073.9
 31
0.0
  0
LINE
  5
4DE
330
1F
100
AcDbEntity
  8
鏡台
  6
CONTINUOUS
 62
     6
100
AcDbLine
 10
1213.249999999995
 20
2097.1
 30
0.0
 11
1241.749999999995
 21
2097.1
 31
0.0
  0
ARC
  5
4DF
330
1F
100
AcDbEntity
  8
鏡台
  6
CONTINUOUS
 62
     6
100
AcDbCircle
 10
1097.999999999995
 20
2100.0
 30
0.0
 40
3.000000000000002
100
AcDbArc
 50
90.00000000000001
 51
180.0
  0
LINE
  5
4E0
330
1F
100
AcDbEntity
  8
鏡台
  6
CONTINUOUS
 62
     6
100
AcDbLine
 10
1094.999999999995
 20
2100.0
 30
0.0
 11
1094.999999999995
 21
2071.0
 31
0.0
  0
ARC
  5
4E1
330
1F
100
AcDbEntity
  8
鏡台
  6
CONTINUOUS
 62
     6
100
AcDbCircle
 10
1097.999999999995
 20
2071.0
 30
0.0
 40
3.000000000000002
100
AcDbArc
 50
180.0
 51
270.0000000000002
  0
LINE
  5
4E2
330
1F
100
AcDbEntity
  8
鏡台
  6
CONTINUOUS
 62
     6
100
AcDbLine
 10
1097.999999999995
 20
2068.0
 30
0.0
 11
1266.999999999995
 21
2068.0
 31
0.0
  0
ARC
  5
4E3
330
1F
100
AcDbEntity
  8
鏡台
  6
CONTINUOUS
 62
     6
100
AcDbCircle
 10
1266.999999999995
 20
2071.0
 30
0.0
 40
3.000000000000002
100
AcDbArc
 50
270.0000000000002
 51
0.0
  0
LINE
  5
4E4
330
1F
100
AcDbEntity
  8
鏡台
  6
CONTINUOUS
 62
     6
100
AcDbLine
 10
1269.999999999995
 20
2100.0
 30
0.0
 11
1269.999999999995
 21
2071.0
 31
0.0
  0
LINE
  5
4E5
330
1F
100
AcDbEntity
  8
鏡台
  6
CONTINUOUS
 62
     6
100
AcDbLine
 10
1097.999999999995
 20
2103.0
 30
0.0
 11
1266.999999999995
 21
2103.0
 31
0.0
  0
ARC
  5
4E6
330
1F
100
AcDbEntity
  8
鏡台
  6
CONTINUOUS
 62
     6
100
AcDbCircle
 10
1266.999999999995
 20
2100.0
 30
0.0
 40
3.000000000000002
100
AcDbArc
 50
0.0
 51
90.00000000000001
  0
CIRCLE
  5
4E7
330
1F
100
AcDbEntity
  8
鏡台
  6
CONTINUOUS
 62
     6
100
AcDbCircle
 10
1227.499999999995
 20
2085.5
 30
0.0
 40
11.0
  0
LINE
  5
4E8
330
1F
100
AcDbEntity
  8
鏡台
  6
CONTINUOUS
 62
     6
100
AcDbLine
 10
1170.249999999988
 20
2094.1
 30
0.0
 11
1170.249999999988
 21
2076.9
 31
0.0
  0
LINE
  5
4E9
330
1F
100
AcDbEntity
  8
鏡台
  6
CONTINUOUS
 62
     6
100
AcDbLine
 10
1194.749999999995
 20
2094.1
 30
0.0
 11
1194.749999999995
 21
2076.9
 31
0.0
  0
LINE
  5
4EA
330
1F
100
AcDbEntity
  8
鏡台
  6
CONTINUOUS
 62
     6
100
AcDbLine
 10
1192.749999999995
 20
2094.1
 30
0.0
 11
1192.749999999995
 21
2076.9
 31
0.0
  0
LINE
  5
4EB
330
1F
100
AcDbEntity
  8
鏡台
  6
CONTINUOUS
 62
     6
100
AcDbLine
 10
1170.249999999995
 20
2076.9
 30
0.0
 11
1194.749999999995
 21
2076.9
 31
0.0
  0
LINE
  5
4EC
330
1F
100
AcDbEntity
  8
鏡台
  6
CONTINUOUS
 62
     6
100
AcDbLine
 10
1170.249999999995
 20
2094.1
 30
0.0
 11
1194.749999999995
 21
2094.1
 31
0.0
  0
CIRCLE
  5
4ED
330
1F
100
AcDbEntity
  8
鏡台
  6
CONTINUOUS
 62
     6
100
AcDbCircle
 10
1189.049999999994
 20
2085.5
 30
0.0
 40
1.0
  0
LINE
  5
4EE
330
1F
100
AcDbEntity
  8
鏡台
  6
CONTINUOUS
 62
     6
100
AcDbLine
 10
1125.249999999988
 20
2094.1
 30
0.0
 11
1125.249999999988
 21
2076.9
 31
0.0
  0
LINE
  5
4EF
330
1F
100
AcDbEntity
  8
鏡台
  6
CONTINUOUS
 62
     6
100
AcDbLine
 10
1149.749999999995
 20
2094.1
 30
0.0
 11
1149.749999999995
 21
2076.9
 31
0.0
  0
LINE
  5
4F0
330
1F
100
AcDbEntity
  8
鏡台
  6
CONTINUOUS
 62
     6
100
AcDbLine
 10
1147.749999999995
 20
2094.1
 30
0.0
 11
1147.749999999995
 21
2076.9
 31
0.0
  0
LINE
  5
4F1
330
1F
100
AcDbEntity
  8
鏡台
  6
CONTINUOUS
 62
     6
100
AcDbLine
 10
1125.249999999995
 20
2076.9
 30
0.0
 11
1149.749999999995
 21
2076.9
 31
0.0
  0
LINE
  5
4F2
330
1F
100
AcDbEntity
  8
鏡台
  6
CONTINUOUS
 62
     6
100
AcDbLine
 10
1125.249999999995
 20
2094.1
 30
0.0
 11
1149.749999999995
 21
2094.1
 31
0.0
  0
CIRCLE
  5
4F3
330
1F
100
AcDbEntity
  8
鏡台
  6
CONTINUOUS
 62
     6
100
AcDbCircle
 10
1144.049999999994
 20
2085.5
 30
0.0
 40
1.0
  0
LINE
  5
4F4
330
1F
100
AcDbEntity
  8
鏡台
  6
CONTINUOUS
 62
     6
100
AcDbLine
 10
1223.499999999995
 20
2091.5
 30
0.0
 11
1231.499999999995
 21
2091.5
 31
0.0
  0
LINE
  5
4F5
330
1F
100
AcDbEntity
  8
鏡台
  6
CONTINUOUS
 62
     6
100
AcDbLine
 10
1223.499999999995
 20
2079.5
 30
0.0
 11
1231.499999999995
 21
2079.5
 31
0.0
  0
LINE
  5
4F6
330
1F
100
AcDbEntity
  8
鏡台
  6
CONTINUOUS
 62
     2
100
AcDbLine
 10
559.9999999999951
 20
2101.5
 30
0.0
 11
1069.999999999995
 21
2101.5
 31
0.0
  0
LINE
  5
4F7
330
1F
100
AcDbEntity
  8
鏡台
  6
CONTINUOUS
 62
     2
100
AcDbLine
 10
559.9999999999951
 20
2725.0
 30
0.0
 11
1069.999999999995
 21
2725.0
 31
0.0
  0
LINE
  5
4F8
330
1F
100
AcDbEntity
  8
鏡台
  6
CONTINUOUS
 62
     2
100
AcDbLine
 10
559.9999999999951
 20
2716.0
 30
0.0
 11
1069.999999999995
 21
2716.0
 31
0.0
  0
LINE
  5
4F9
330
1F
100
AcDbEntity
  8
鏡台
  6
CONTINUOUS
 62
     6
100
AcDbLine
 10
559.9999999999951
 20
2824.0
 30
0.0
 11
1069.999999999995
 21
2824.0
 31
0.0
  0
LINE
  5
4FA
330
1F
100
AcDbEntity
  8
鏡台
  6
CONTINUOUS
 62
     6
100
AcDbLine
 10
559.9999999999951
 20
2733.0
 30
0.0
 11
1069.999999999995
 21
2733.0
 31
0.0
  0
LINE
  5
4FB
330
1F
100
AcDbEntity
  8
鏡台
  6
CONTINUOUS
 62
     5
100
AcDbLine
 10
1084.999999999995
 20
2641.25
 30
0.0
 11
1279.999999999995
 21
2641.25
 31
0.0
  0
LINE
  5
4FC
330
1F
100
AcDbEntity
  8
鏡台
  6
CONTINUOUS
 62
     5
100
AcDbLine
 10
1084.999999999995
 20
2635.25
 30
0.0
 11
1279.999999999995
 21
2635.25
 31
0.0
  0
LINE
  5
4FD
330
1F
100
AcDbEntity
  8
鏡台
  6
CONTINUOUS
 62
     5
100
AcDbLine
 10
1084.999999999995
 20
2629.25
 30
0.0
 11
1279.999999999995
 21
2629.25
 31
0.0
  0
LINE
  5
4FE
330
1F
100
AcDbEntity
  8
鏡台
  6
CONTINUOUS
 62
     5
100
AcDbLine
 10
1084.999999999995
 20
2623.25
 30
0.0
 11
1279.999999999995
 21
2623.25
 31
0.0
  0
LINE
  5
4FF
330
1F
100
AcDbEntity
  8
鏡台
  6
CONTINUOUS
 62
     5
100
AcDbLine
 10
1084.999999999995
 20
2617.25
 30
0.0
 11
1279.999999999995
 21
2617.25
 31
0.0
  0
LINE
  5
500
330
1F
100
AcDbEntity
  8
鏡台
  6
CONTINUOUS
 62
     5
100
AcDbLine
 10
1084.999999999995
 20
2611.25
 30
0.0
 11
1279.999999999995
 21
2611.25
 31
0.0
  0
LINE
  5
501
330
1F
100
AcDbEntity
  8
鏡台
  6
CONTINUOUS
 62
     5
100
AcDbLine
 10
1084.999999999995
 20
2391.25
 30
0.0
 11
1279.999999999995
 21
2391.25
 31
0.0
  0
LINE
  5
502
330
1F
100
AcDbEntity
  8
鏡台
  6
CONTINUOUS
 62
     5
100
AcDbLine
 10
1084.999999999995
 20
2385.25
 30
0.0
 11
1279.999999999995
 21
2385.25
 31
0.0
  0
LINE
  5
503
330
1F
100
AcDbEntity
  8
鏡台
  6
CONTINUOUS
 62
     5
100
AcDbLine
 10
1084.999999999995
 20
2379.25
 30
0.0
 11
1279.999999999995
 21
2379.25
 31
0.0
  0
LINE
  5
504
330
1F
100
AcDbEntity
  8
鏡台
  6
CONTINUOUS
 62
     5
100
AcDbLine
 10
1084.999999999995
 20
2373.25
 30
0.0
 11
1279.999999999995
 21
2373.25
 31
0.0
  0
LINE
  5
505
330
1F
100
AcDbEntity
  8
鏡台
  6
CONTINUOUS
 62
     5
100
AcDbLine
 10
1084.999999999995
 20
2367.25
 30
0.0
 11
1279.999999999995
 21
2367.25
 31
0.0
  0
LINE
  5
506
330
1F
100
AcDbEntity
  8
鏡台
  6
CONTINUOUS
 62
     5
100
AcDbLine
 10
1084.999999999995
 20
2361.25
 30
0.0
 11
1279.999999999995
 21
2361.25
 31
0.0
  0
LINE
  5
507
330
1F
100
AcDbEntity
  8
鏡台
  6
CONTINUOUS
 62
     5
100
AcDbLine
 10
1084.999999999995
 20
2161.25
 30
0.0
 11
1279.999999999995
 21
2161.25
 31
0.0
  0
LINE
  5
508
330
1F
100
AcDbEntity
  8
鏡台
  6
CONTINUOUS
 62
     5
100
AcDbLine
 10
1084.999999999995
 20
2155.25
 30
0.0
 11
1279.999999999995
 21
2155.25
 31
0.0
  0
LINE
  5
509
330
1F
100
AcDbEntity
  8
鏡台
  6
CONTINUOUS
 62
     5
100
AcDbLine
 10
1084.999999999995
 20
2149.25
 30
0.0
 11
1279.999999999995
 21
2149.25
 31
0.0
  0
LINE
  5
50A
330
1F
100
AcDbEntity
  8
鏡台
  6
CONTINUOUS
 62
     5
100
AcDbLine
 10
1084.999999999995
 20
2143.25
 30
0.0
 11
1279.999999999995
 21
2143.25
 31
0.0
  0
LINE
  5
50B
330
1F
100
AcDbEntity
  8
鏡台
  6
CONTINUOUS
 62
     5
100
AcDbLine
 10
1084.999999999995
 20
2137.25
 30
0.0
 11
1279.999999999995
 21
2137.25
 31
0.0
  0
LINE
  5
50C
330
1F
100
AcDbEntity
  8
鏡台
  6
CONTINUOUS
 62
     5
100
AcDbLine
 10
1084.999999999995
 20
2131.25
 30
0.0
 11
1279.999999999995
 21
2131.25
 31
0.0
  0
LINE
  5
50D
330
1F
100
AcDbEntity
  8
鏡台
  6
CONTINUOUS
 62
     5
100
AcDbLine
 10
559.9999999999951
 20
2097.25
 30
0.0
 11
1069.999999999995
 21
2097.25
 31
0.0
  0
LINE
  5
50E
330
1F
100
AcDbEntity
  8
鏡台
  6
CONTINUOUS
 62
     5
100
AcDbLine
 10
559.9999999999951
 20
2091.25
 30
0.0
 11
1069.999999999995
 21
2091.25
 31
0.0
  0
LINE
  5
50F
330
1F
100
AcDbEntity
  8
鏡台
  6
CONTINUOUS
 62
     5
100
AcDbLine
 10
559.9999999999951
 20
2085.25
 30
0.0
 11
1069.999999999995
 21
2085.25
 31
0.0
  0
LINE
  5
510
330
1F
100
AcDbEntity
  8
鏡台
  6
CONTINUOUS
 62
     5
100
AcDbLine
 10
559.9999999999951
 20
2079.25
 30
0.0
 11
1069.999999999995
 21
2079.25
 31
0.0
  0
LINE
  5
511
330
1F
100
AcDbEntity
  8
鏡台
  6
CONTINUOUS
 62
     5
100
AcDbLine
 10
559.9999999999951
 20
2073.25
 30
0.0
 11
1069.999999999995
 21
2073.25
 31
0.0
  0
LINE
  5
512
330
1F
100
AcDbEntity
  8
鏡台
  6
CONTINUOUS
 62
     5
100
AcDbLine
 10
559.9999999999951
 20
2067.25
 30
0.0
 11
1069.999999999995
 21
2067.25
 31
0.0
  0
LINE
  5
513
330
1F
100
AcDbEntity
  8
鏡台
  6
CONTINUOUS
 62
     5
100
AcDbLine
 10
559.9999999999951
 20
2815.0
 30
0.0
 11
1069.999999999995
 21
2815.0
 31
0.0
  0
LINE
  5
514
330
1F
100
AcDbEntity
  8
鏡台
  6
CONTINUOUS
 62
     5
100
AcDbLine
 10
559.9999999999951
 20
2806.0
 30
0.0
 11
1069.999999999995
 21
2806.0
 31
0.0
  0
LINE
  5
515
330
1F
100
AcDbEntity
  8
鏡台
  6
CONTINUOUS
 62
     5
100
AcDbLine
 10
559.9999999999951
 20
2797.0
 30
0.0
 11
1069.999999999995
 21
2797.0
 31
0.0
  0
LINE
  5
516
330
1F
100
AcDbEntity
  8
鏡台
  6
CONTINUOUS
 62
     5
100
AcDbLine
 10
559.9999999999951
 20
2788.0
 30
0.0
 11
1069.999999999995
 21
2788.0
 31
0.0
  0
LINE
  5
517
330
1F
100
AcDbEntity
  8
鏡台
  6
CONTINUOUS
 62
     5
100
AcDbLine
 10
559.9999999999951
 20
2779.0
 30
0.0
 11
1069.999999999995
 21
2779.0
 31
0.0
  0
LINE
  5
518
330
1F
100
AcDbEntity
  8
鏡台
  6
CONTINUOUS
 62
     5
100
AcDbLine
 10
559.9999999999951
 20
2770.0
 30
0.0
 11
1069.999999999995
 21
2770.0
 31
0.0
  0
LINE
  5
519
330
1F
100
AcDbEntity
  8
鏡台
  6
CONTINUOUS
 62
     5
100
AcDbLine
 10
559.9999999999951
 20
2761.0
 30
0.0
 11
1069.999999999995
 21
2761.0
 31
0.0
  0
LINE
  5
51A
330
1F
100
AcDbEntity
  8
鏡台
  6
CONTINUOUS
 62
     5
100
AcDbLine
 10
559.9999999999951
 20
2752.0
 30
0.0
 11
1069.999999999995
 21
2752.0
 31
0.0
  0
LINE
  5
51B
330
1F
100
AcDbEntity
  8
鏡台
  6
CONTINUOUS
 62
     5
100
AcDbLine
 10
559.9999999999951
 20
2743.0
 30
0.0
 11
1069.999999999995
 21
2743.0
 31
0.0
  0
LINE
  5
51C
330
1F
100
AcDbEntity
  8
鏡台
  6
CONTINUOUS
 62
     6
100
AcDbLine
 10
942.7144660940636
 20
2615.285533905902
 30
0.0
 11
929.9644660940636
 21
2602.535533905905
 31
0.0
  0
LINE
  5
51D
330
1F
100
AcDbEntity
  8
鏡台
  6
CONTINUOUS
 62
     6
100
AcDbLine
 10
921.9999999999933
 20
2587.499999999974
 30
0.0
 11
954.4999999999969
 21
2619.999999999971
 31
0.0
  0
LINE
  5
51E
330
1F
100
AcDbEntity
  8
鏡台
  6
CONTINUOUS
 62
     6
100
AcDbLine
 10
932.5355339059284
 20
2590.964466094037
 30
0.0
 11
947.5355339059303
 21
2605.964466094035
 31
0.0
  0
LINE
  5
51F
330
1F
100
AcDbEntity
  8
鏡台
  6
CONTINUOUS
 62
     6
100
AcDbLine
 10
692.2144660940636
 20
2405.285533905902
 30
0.0
 11
679.4644660940636
 21
2392.535533905905
 31
0.0
  0
LINE
  5
520
330
1F
100
AcDbEntity
  8
鏡台
  6
CONTINUOUS
 62
     6
100
AcDbLine
 10
671.4999999999933
 20
2377.499999999974
 30
0.0
 11
703.9999999999969
 21
2409.999999999971
 31
0.0
  0
LINE
  5
521
330
1F
100
AcDbEntity
  8
鏡台
  6
CONTINUOUS
 62
     6
100
AcDbLine
 10
682.0355339059284
 20
2380.964466094037
 30
0.0
 11
697.0355339059303
 21
2395.964466094035
 31
0.0
  0
LINE
  5
522
330
1F
100
AcDbEntity
  8
鏡台
  6
CONTINUOUS
 62
     6
100
AcDbLine
 10
879.7144660940636
 20
2219.285533905902
 30
0.0
 11
866.9644660940636
 21
2206.535533905905
 31
0.0
  0
LINE
  5
523
330
1F
100
AcDbEntity
  8
鏡台
  6
CONTINUOUS
 62
     6
100
AcDbLine
 10
858.9999999999933
 20
2191.499999999974
 30
0.0
 11
891.4999999999969
 21
2223.999999999971
 31
0.0
  0
LINE
  5
524
330
1F
100
AcDbEntity
  8
鏡台
  6
CONTINUOUS
 62
     6
100
AcDbLine
 10
869.5355339059284
 20
2194.964466094037
 30
0.0
 11
884.5355339059303
 21
2209.964466094035
 31
0.0
  0
LINE
  5
525
330
1F
100
AcDbEntity
  8
鏡台
  6
CONTINUOUS
 62
     6
100
AcDbLine
 10
1104.999999999995
 20
2817.0
 30
0.0
 11
1104.999999999995
 21
2870.5766968306
 31
0.0
  0
CIRCLE
  5
526
330
1F
100
AcDbEntity
  8
鏡台
  6
CONTINUOUS
 62
     2
100
AcDbCircle
 10
1194.999999999995
 20
2782.5
 30
0.0
 40
8.0
  0
LINE
  5
527
330
1F
100
AcDbEntity
  8
鏡台
  6
CONTINUOUS
 62
     6
100
AcDbLine
 10
1207.999999999995
 20
2782.5
 30
0.0
 11
1181.999999999995
 21
2782.5
 31
0.0
  0
LINE
  5
528
330
1F
100
AcDbEntity
  8
鏡台
  6
CONTINUOUS
 62
     6
100
AcDbLine
 10
1194.999999999995
 20
2795.5
 30
0.0
 11
1194.999999999995
 21
2769.499999999999
 31
0.0
  0
LINE
  5
529
330
1F
100
AcDbEntity
  8
鏡台
  6
CONTINUOUS
 62
     6
100
AcDbLine
 10
657.9999999999951
 20
2782.5
 30
0.0
 11
631.9999999999951
 21
2782.5
 31
0.0
  0
LINE
  5
52A
330
1F
100
AcDbEntity
  8
鏡台
  6
CONTINUOUS
 62
     6
100
AcDbLine
 10
644.9999999999951
 20
2795.5
 30
0.0
 11
644.9999999999951
 21
2769.499999999999
 31
0.0
  0
CIRCLE
  5
52B
330
1F
100
AcDbEntity
  8
鏡台
  6
EXLTYPE2
 62
     6
100
AcDbCircle
 10
644.9999999999951
 20
2782.5
 30
0.0
 40
8.0
  0
LINE
  5
52C
330
1F
100
AcDbEntity
  8
鏡台
  6
CONTINUOUS
 62
     6
100
AcDbLine
 10
1157.999999999995
 20
2072.5
 30
0.0
 11
1131.999999999995
 21
2072.5
 31
0.0
  0
LINE
  5
52D
330
1F
100
AcDbEntity
  8
鏡台
  6
CONTINUOUS
 62
     6
100
AcDbLine
 10
1144.999999999995
 20
2085.5
 30
0.0
 11
1144.999999999995
 21
2059.499999999999
 31
0.0
  0
CIRCLE
  5
52E
330
1F
100
AcDbEntity
  8
鏡台
  6
EXLTYPE2
 62
     6
100
AcDbCircle
 10
1144.999999999995
 20
2072.5
 30
0.0
 40
8.0
  0
LINE
  5
52F
330
1F
100
AcDbEntity
  8
鏡台
  6
CONTINUOUS
 62
     6
100
AcDbLine
 10
707.9999999999951
 20
2072.5
 30
0.0
 11
681.9999999999951
 21
2072.5
 31
0.0
  0
LINE
  5
530
330
1F
100
AcDbEntity
  8
鏡台
  6
CONTINUOUS
 62
     6
100
AcDbLine
 10
694.9999999999951
 20
2085.5
 30
0.0
 11
694.9999999999951
 21
2059.499999999999
 31
0.0
  0
CIRCLE
  5
531
330
1F
100
AcDbEntity
  8
鏡台
  6
EXLTYPE2
 62
     6
100
AcDbCircle
 10
694.9999999999951
 20
2072.5
 30
0.0
 40
8.0
  0
ARC
  5
532
330
1F
100
AcDbEntity
  8
鏡台
  6
CONTINUOUS
 62
     6
100
AcDbCircle
 10
1038.189940999996
 20
2754.248657
 30
0.0
 40
120.0000000000001
100
AcDbArc
 50
62.42312600000034
 51
85.40960699999981
  0
ARC
  5
533
330
1F
100
AcDbEntity
  8
鏡台
  6
CONTINUOUS
 62
     6
100
AcDbCircle
 10
1039.416991999996
 20
2760.144652999999
 30
0.0
 40
120.0000000000001
100
AcDbArc
 50
60.77813700000012
 51
86.65087900000036
  0
ARC
  5
534
330
1F
100
AcDbEntity
  8
鏡台
  6
CONTINUOUS
 62
     6
100
AcDbCircle
 10
1031.015258999996
 20
2871.127807999999
 30
0.0
 40
17.00025
100
AcDbArc
 50
321.9271240000002
 51
18.07110600000341
  0
ARC
  5
535
330
1F
100
AcDbEntity
  8
鏡台
  6
CONTINUOUS
 62
     6
100
AcDbCircle
 10
1063.338561999997
 20
2881.674561
 30
0.0
 40
17.000208
100
AcDbArc
 50
169.9989619999992
 51
198.0710450000017
  0
ARC
  5
536
330
1F
100
AcDbEntity
  8
鏡台
  6
CONTINUOUS
 62
     6
100
AcDbCircle
 10
1063.338378999997
 20
2881.674682999999
 30
0.0
 40
17.000029
100
AcDbArc
 50
141.9263919999981
 51
169.9989619999976
  0
ARC
  5
537
330
1F
100
AcDbEntity
  8
鏡台
  6
CONTINUOUS
 62
     6
100
AcDbCircle
 10
1023.015258999996
 20
2871.127807999999
 30
0.0
 40
17.00025
100
AcDbArc
 50
321.9271240000002
 51
18.07110600000341
  0
ARC
  5
538
330
1F
100
AcDbEntity
  8
鏡台
  6
CONTINUOUS
 62
     6
100
AcDbCircle
 10
1055.338561999997
 20
2881.674561
 30
0.0
 40
17.000208
100
AcDbArc
 50
169.9989619999992
 51
198.0710449999985
  0
ARC
  5
539
330
1F
100
AcDbEntity
  8
鏡台
  6
CONTINUOUS
 62
     6
100
AcDbCircle
 10
1055.338378999997
 20
2881.674682999999
 30
0.0
 40
17.000029
100
AcDbArc
 50
141.9263919999981
 51
169.9989619999976
  0
ARC
  5
53A
330
1F
100
AcDbEntity
  8
鏡台
  6
CONTINUOUS
 62
     6
100
AcDbCircle
 10
1077.999999999996
 20
2842.5
 30
0.0
 40
24.00000000000002
100
AcDbArc
 50
0.0
 51
49.00903300000166
  0
ARC
  5
53B
330
1F
100
AcDbEntity
  8
鏡台
  6
CONTINUOUS
 62
     6
100
AcDbCircle
 10
1077.999999999996
 20
2842.5
 30
0.0
 40
30.00000000000002
100
AcDbArc
 50
0.0
 51
48.20632899999979
  0
LINE
  5
53C
330
1F
100
AcDbEntity
  8
鏡台
  6
CONTINUOUS
 62
     6
100
AcDbLine
 10
985.496104001622
 20
2879.801999941891
 30
0.0
 11
988.3556492763215
 21
2890.423743061398
 31
0.0
  0
LINE
  5
53D
330
1F
100
AcDbEntity
  8
鏡台
  6
CONTINUOUS
 62
     6
100
AcDbLine
 10
999.4975689511153
 20
2876.03264126346
 30
0.0
 11
1002.686460917166
 21
2890.190269151895
 31
0.0
  0
LINE
  5
53E
330
1F
100
AcDbEntity
  8
鏡台
  6
CONTINUOUS
 62
     6
100
AcDbLine
 10
1005.091033999327
 20
2879.498954871214
 30
0.0
 11
1007.527977281979
 21
2888.551114082836
 31
0.0
  0
LINE
  5
53F
330
1F
100
AcDbEntity
  8
鏡台
  6
CONTINUOUS
 62
     6
100
AcDbLine
 10
1002.686460917166
 20
2890.190269151895
 30
0.0
 11
1024.197370603742
 21
2882.907453694856
 31
0.0
  0
LINE
  5
540
330
1F
100
AcDbEntity
  8
鏡台
  6
CONTINUOUS
 62
     6
100
AcDbLine
 10
1022.347618042744
 20
2876.031794358076
 30
0.0
 11
1003.372881232357
 21
2879.844190206494
 31
0.0
  0
LINE
  5
541
330
1F
100
AcDbEntity
  8
鏡台
  6
CONTINUOUS
 62
     6
100
AcDbLine
 10
982.78510663282
 20
2863.962132417867
 30
0.0
 11
986.9445557942778
 21
2879.412080556155
 31
0.0
  0
LINE
  5
542
330
1F
100
AcDbEntity
  8
鏡台
  6
CONTINUOUS
 62
     6
100
AcDbLine
 10
991.4757496621456
 20
2861.622510919909
 30
0.0
 11
995.6351295474739
 21
2877.072358629901
 31
0.0
  0
LINE
  5
543
330
1F
100
AcDbEntity
  8
鏡台
  6
CONTINUOUS
 62
     6
100
AcDbLine
 10
988.3557193704179
 20
2890.423842914466
 30
0.0
 11
999.9430270047247
 21
2887.304251064559
 31
0.0
  0
LINE
  5
544
330
1F
100
AcDbEntity
  8
鏡台
  6
CONTINUOUS
 62
     6
100
AcDbLine
 10
997.0835815842853
 20
2876.682437851419
 30
0.0
 11
999.9430270047247
 21
2887.304251064559
 31
0.0
  0
LINE
  5
545
330
1F
100
AcDbEntity
  8
鏡台
  6
CONTINUOUS
 62
     6
100
AcDbLine
 10
999.4975689511153
 20
2876.03264126346
 30
0.0
 11
999.860716383893
 21
2877.585942792342
 31
0.0
  0
LINE
  5
546
330
1F
100
AcDbEntity
  8
鏡台
  6
CONTINUOUS
 62
     6
100
AcDbLine
 10
982.5992694486973
 20
2880.581940535319
 30
0.0
 11
987.1614839333175
 21
2893.920950935551
 31
0.0
  0
LINE
  5
547
330
1F
100
AcDbEntity
  8
鏡台
  6
CONTINUOUS
 62
     6
100
AcDbLine
 10
999.4975689511153
 20
2876.03264126346
 30
0.0
 11
982.5992694486973
 21
2880.581940535319
 31
0.0
  0
LINE
  5
548
330
1F
100
AcDbEntity
  8
鏡台
  6
CONTINUOUS
 62
     6
100
AcDbLine
 10
1001.980178937345
 20
2890.898290809708
 30
0.0
 11
988.3676207441418
 21
2894.563032272225
 31
0.0
  0
LINE
  5
549
330
1F
100
AcDbEntity
  8
鏡台
  6
CONTINUOUS
 62
     6
100
AcDbLine
 10
1023.510226618673
 20
2876.752307013785
 30
0.0
 11
1024.842340728006
 21
2881.700332443165
 31
0.0
  0
ARC
  5
54A
330
1F
100
AcDbEntity
  8
鏡台
  6
CONTINUOUS
 62
     6
100
AcDbCircle
 10
1002.781929906292
 20
2876.902984236284
 30
0.0
 40
3.000000000000002
100
AcDbArc
 50
78.6395105753558
 51
166.8414765753472
  0
ARC
  5
54B
330
1F
100
AcDbEntity
  8
鏡台
  6
CONTINUOUS
 62
     6
100
AcDbCircle
 10
1023.876705299569
 20
2881.960279739016
 30
0.0
 40
1.0
100
AcDbArc
 50
344.9322965753466
 51
71.29569957527903
  0
ARC
  5
54C
330
1F
100
AcDbEntity
  8
鏡台
  6
CONTINUOUS
 62
     6
100
AcDbCircle
 10
1022.54459200888
 20
2877.012253735175
 30
0.0
 40
1.0
100
AcDbArc
 50
258.63951057539
 51
344.9322355753438
  0
ARC
  5
54D
330
1F
100
AcDbEntity
  8
鏡台
  6
CONTINUOUS
 62
     6
100
AcDbCircle
 10
989.4520053678713
 20
2871.415617032078
 30
0.0
 40
10.0
100
AcDbArc
 50
228.18858357535
 51
281.6758575753462
  0
ARC
  5
54E
330
1F
100
AcDbEntity
  8
鏡台
  6
CONTINUOUS
 62
     6
100
AcDbCircle
 10
988.1076740228797
 20
2893.597397663051
 30
0.0
 40
1.0
100
AcDbArc
 50
74.93223557530243
 51
161.1184535753969
  0
ARC
  5
54F
330
1F
100
AcDbEntity
  8
鏡台
  6
CONTINUOUS
 62
     6
100
AcDbCircle
 10
1001.720232215995
 20
2889.932656200585
 30
0.0
 40
1.0
100
AcDbArc
 50
346.8413545753106
 51
74.93223557550463
  0
ARC
  5
550
330
1F
100
AcDbEntity
  8
鏡台
  6
CONTINUOUS
 62
     6
100
AcDbCircle
 10
1002.781929906292
 20
2876.902984236284
 30
0.0
 40
3.000000000000002
100
AcDbArc
 50
78.6395105753558
 51
166.8414765753472
  0
ARC
  5
551
330
1F
100
AcDbEntity
  8
鏡台
  6
CONTINUOUS
 62
     6
100
AcDbCircle
 10
1023.876705299569
 20
2881.960279739016
 30
0.0
 40
1.0
100
AcDbArc
 50
344.9322965753466
 51
71.29569957527903
  0
ARC
  5
552
330
1F
100
AcDbEntity
  8
鏡台
  6
CONTINUOUS
 62
     6
100
AcDbCircle
 10
1022.54459200888
 20
2877.012253735175
 30
0.0
 40
1.0
100
AcDbArc
 50
258.63951057539
 51
344.9322355753438
  0
ARC
  5
553
330
1F
100
AcDbEntity
  8
鏡台
  6
CONTINUOUS
 62
     6
100
AcDbCircle
 10
989.4520053678713
 20
2871.415617032078
 30
0.0
 40
10.0
100
AcDbArc
 50
228.18858357535
 51
281.6758575753462
  0
ARC
  5
554
330
1F
100
AcDbEntity
  8
鏡台
  6
CONTINUOUS
 62
     6
100
AcDbCircle
 10
988.1076740228797
 20
2893.597397663051
 30
0.0
 40
1.0
100
AcDbArc
 50
74.93223557530243
 51
161.1184535753969
  0
ARC
  5
555
330
1F
100
AcDbEntity
  8
鏡台
  6
CONTINUOUS
 62
     6
100
AcDbCircle
 10
1001.720232215995
 20
2889.932656200585
 30
0.0
 40
1.0
100
AcDbArc
 50
346.8413545753106
 51
74.93223557550463
  0
ARC
  5
556
330
1F
100
AcDbEntity
  8
鏡台
  6
CONTINUOUS
 62
     6
100
AcDbCircle
 10
1049.883300999996
 20
3029.649475
 30
0.0
 40
150.0
100
AcDbArc
 50
260.3954581211362
 51
265.6141359999995
  0
ARC
  5
557
330
1F
100
AcDbEntity
  8
鏡台
  6
CONTINUOUS
 62
     6
100
AcDbCircle
 10
1050.165038999995
 20
3024.156677000001
 30
0.0
 40
150.0
100
AcDbArc
 50
259.7434884679459
 51
265.9890140000002
  0
DIMENSION
  5
558
330
1F
100
AcDbEntity
  8
鏡台
  6
CONTINUOUS
 62
     3
100
AcDbDimension
  2
*D20
 10
1581.0
 20
942.5
 30
0.0
 11
1545.750000089407
 21
1492.5
 31
0.0
 70
   160
  3
ISO-25
100
AcDbAlignedDimension
 13
1581.0
 23
2042.5
 33
0.0
 14
1534.5
 24
942.5
 34
0.0
 50
90.0
100
AcDbRotatedDimension
1001
ACAD
1000
DSTYLE
1002
{
1070
   270
1070
     2
1070
     6
1000
EX_NORM
1070
     7
1000
EX_NORM
1070
    41
1040
44.99999618530273
1070
    42
1040
10.49999982118607
1070
    44
1040
15.0
1070
    73
1070
     0
1070
    74
1070
     0
1070
    75
1070
     1
1070
    76
1070
     0
1070
    77
1070
     1
1070
    78
1070
     8
1070
   140
1040
59.99999618530273
1070
   147
1040
0.0
1070
   173
1070
     1
1070
   176
1070
     3
1070
   177
1070
     3
1070
   178
1070
     2
1070
   271
1070
     1
1070
   277
1070
     2
1070
   279
1070
     2
1070
   280
1070
     0
1070
   287
1070
     5
1070
   340
1005
47D
1002
}
  0
DIMENSION
  5
564
330
1F
100
AcDbEntity
  8
鏡台
  6
CONTINUOUS
 62
     3
100
AcDbDimension
  2
*D21
 10
1683.0
 20
942.5
 30
0.0
 11
1647.750000089407
 21
1892.5
 31
0.0
 70
   160
  3
ISO-25
100
AcDbAlignedDimension
 13
1689.0
 23
2842.5
 33
0.0
 14
1683.0
 24
942.5
 34
0.0
 50
90.0
100
AcDbRotatedDimension
1001
ACAD
1000
DSTYLE
1002
{
1070
   270
1070
     2
1070
     6
1000
EX_NORM
1070
     7
1000
EX_NORM
1070
    41
1040
44.99999618530273
1070
    42
1040
0.0
1070
    44
1040
0.0
1070
    73
1070
     0
1070
    74
1070
     0
1070
    75
1070
     0
1070
    76
1070
     1
1070
    77
1070
     1
1070
    78
1070
     8
1070
   140
1040
59.99999618530273
1070
   147
1040
0.0
1070
   173
1070
     1
1070
   176
1070
     3
1070
   177
1070
     3
1070
   178
1070
     2
1070
   271
1070
     1
1070
   277
1070
     2
1070
   279
1070
     2
1070
   280
1070
     0
1070
   287
1070
     5
1070
   340
1005
47D
1002
}
  0
DIMENSION
  5
570
330
1F
100
AcDbEntity
  8
鏡台
  6
CONTINUOUS
 62
     3
100
AcDbDimension
  2
*D22
 10
2949.0
 20
2072.5
 30
0.0
 11
2913.750000089407
 21
1507.5
 31
0.0
 70
   160
  3
ISO-25
100
AcDbAlignedDimension
 13
2489.9999998212
 23
942.5
 33
0.0
 14
2512.0000000001
 24
2072.5
 34
0.0
 50
90.0
100
AcDbRotatedDimension
1001
ACAD
1000
DSTYLE
1002
{
1070
   270
1070
     2
1070
     6
1000
EX_NORM
1070
     7
1000
EX_NORM
1070
    41
1040
44.99999618530273
1070
    42
1040
10.49999982118607
1070
    44
1040
15.0
1070
    73
1070
     0
1070
    74
1070
     0
1070
    75
1070
     0
1070
    76
1070
     0
1070
    77
1070
     1
1070
    78
1070
     8
1070
   140
1040
59.99999618530273
1070
   147
1040
0.0
1070
   173
1070
     1
1070
   176
1070
     3
1070
   177
1070
     3
1070
   178
1070
     2
1070
   271
1070
     1
1070
   277
1070
     2
1070
   279
1070
     2
1070
   280
1070
     0
1070
   287
1070
     5
1070
   340
1005
47D
1002
}
  0
DIMENSION
  5
57D
330
1F
100
AcDbEntity
  8
鏡台
  6
CONTINUOUS
 62
     3
100
AcDbDimension
  2
*D23
 10
2949.0
 20
2782.5
 30
0.0
 11
2913.750000089407
 21
2427.5
 31
0.0
 70
   160
  1
710（壁固定）
  3
ISO-25
100
AcDbAlignedDimension
 13
2949.0
 23
2072.5
 33
0.0
 14
2512.0000000001
 24
2782.5
 34
0.0
 50
90.0
100
AcDbRotatedDimension
1001
ACAD
1000
DSTYLE
1002
{
1070
   270
1070
     2
1070
     6
1000
EX_NORM
1070
     7
1000
EX_NORM
1070
    41
1040
44.99999618530273
1070
    42
1040
10.49999982118607
1070
    44
1040
15.0
1070
    73
1070
     0
1070
    74
1070
     0
1070
    75
1070
     1
1070
    76
1070
     0
1070
    77
1070
     1
1070
    78
1070
     8
1070
   140
1040
59.99999618530273
1070
   147
1040
0.0
1070
   173
1070
     1
1070
   176
1070
     3
1070
   177
1070
     3
1070
   178
1070
     2
1070
   271
1070
     1
1070
   277
1070
     2
1070
   279
1070
     2
1070
   280
1070
     0
1070
   287
1070
     5
1070
   340
1005
47D
1002
}
  0
TEXT
  5
589
330
1F
100
AcDbEntity
  8
鏡台
  6
CONTINUOUS
 62
     2
100
AcDbText
 10
1885.900000000001
 20
3915.499992370606
 30
0.0
 40
59.99999618530273
  1
※化粧鏡台
 41
1.013793091171089
  7
EXCADSTD
 72
     5
 11
2137.899980926515
 21
3915.499992370606
 31
0.0
100
AcDbText
  0
TEXT
  5
58A
330
1F
100
AcDbEntity
  8
鏡台
  6
CONTINUOUS
 62
     2
100
AcDbText
 10
1885.900000000001
 20
3855.499996185303
 30
0.0
 40
59.99999618530273
  1
　電源：１００Ｖ，５０/６０Ｈｚ
 41
0.9083044844102687
  7
EXCADSTD
 72
     5
 11
2635.899940872193
 21
3855.499996185303
 31
0.0
100
AcDbText
  0
TEXT
  5
58B
330
1F
100
AcDbEntity
  8
鏡台
  6
CONTINUOUS
 62
     2
100
AcDbText
 10
1885.900000000001
 20
3795.5
 30
0.0
 40
59.99999618530273
  1
　コンセント容量：１２００Ｗ
 41
0.9614457691912663
  7
EXCADSTD
 72
     5
 11
2569.899946594239
 21
3795.5
 31
0.0
100
AcDbText
  0
LINE
  5
58C
330
1F
100
AcDbEntity
  8
寸法
  6
CONTINUOUS
 62
     3
100
AcDbLine
 10
869.9999999999984
 20
4037.999999821186
 30
0.0
 11
869.9999999999984
 21
4105.65
 31
0.0
  0
LINE
  5
58D
330
1F
100
AcDbEntity
  8
寸法
  6
CONTINUOUS
 62
     3
100
AcDbLine
 10
969.9999999999975
 20
4037.999999821186
 30
0.0
 11
969.9999999999975
 21
4105.65
 31
0.0
  0
TEXT
  5
58E
330
1F
100
AcDbEntity
  8
寸法
  6
CONTINUOUS
 62
     2
100
AcDbText
 10
756.4999999999983
 20
4095.899999910593
 30
0.0
 40
59.99999618530273
  1
１００
 41
1.029411764705882
  7
EXCADSTD
 72
     5
 11
906.4999904632551
 21
4095.899999910593
 31
0.0
100
AcDbText
  0
TEXT
  5
58F
330
1F
100
AcDbEntity
  8
寸法
  6
CONTINUOUS
 62
     2
100
AcDbText
 10
898.9999999999983
 20
4095.899999910593
 30
0.0
 40
48.0
  1
（壁給水）
 41
0.9655172413793099
  7
EXCADSTD
 72
     5
 11
1090.999999999998
 21
4095.899999910593
 31
0.0
100
AcDbText
  0
LINE
  5
590
330
1F
100
AcDbEntity
  8
寸法
  6
CONTINUOUS
 62
     3
100
AcDbLine
 10
824.9999999999986
 20
4090.65
 30
0.0
 11
1014.999999999998
 21
4090.65
 31
0.0
  0
LINE
  5
591
330
1F
100
AcDbEntity
  8
寸法
  6
CONTINUOUS
 62
     3
100
AcDbLine
 10
824.9999999999984
 20
4083.15
 30
0.0
 11
869.9999999999984
 21
4090.65
 31
0.0
  0
LINE
  5
592
330
1F
100
AcDbEntity
  8
寸法
  6
CONTINUOUS
 62
     3
100
AcDbLine
 10
869.9999999999984
 20
4090.65
 30
0.0
 11
824.9999999999984
 21
4098.15
 31
0.0
  0
LINE
  5
593
330
1F
100
AcDbEntity
  8
寸法
  6
CONTINUOUS
 62
     3
100
AcDbLine
 10
1014.999999999997
 20
4098.15
 30
0.0
 11
969.9999999999975
 21
4090.65
 31
0.0
  0
LINE
  5
594
330
1F
100
AcDbEntity
  8
寸法
  6
CONTINUOUS
 62
     3
100
AcDbLine
 10
969.9999999999975
 20
4090.65
 30
0.0
 11
1014.999999999997
 21
4083.15
 31
0.0
  0
LINE
  5
595
330
1F
100
AcDbEntity
  8
寸法
  6
CONTINUOUS
 62
     3
100
AcDbLine
 10
739.9999999999984
 20
4062.499999821186
 30
0.0
 11
739.9999999999984
 21
4203.0
 31
0.0
  0
LINE
  5
596
330
1F
100
AcDbEntity
  8
寸法
  6
CONTINUOUS
 62
     3
100
AcDbLine
 10
1099.999999999997
 20
4062.499999821186
 30
0.0
 11
1099.999999999997
 21
4203.0
 31
0.0
  0
TEXT
  5
597
330
1F
100
AcDbEntity
  8
寸法
  6
CONTINUOUS
 62
     2
100
AcDbText
 10
756.4999999999983
 20
4193.249999910593
 30
0.0
 40
59.99999618530273
  1
３６０
 41
1.029411764705882
  7
EXCADSTD
 72
     5
 11
906.4999904632551
 21
4193.249999910593
 31
0.0
100
AcDbText
  0
TEXT
  5
598
330
1F
100
AcDbEntity
  8
寸法
  6
CONTINUOUS
 62
     2
100
AcDbText
 10
898.9999999999983
 20
4193.249999910593
 30
0.0
 40
48.0
  1
（壁固定）
 41
0.9655172413793099
  7
EXCADSTD
 72
     5
 11
1090.999999999998
 21
4193.249999910593
 31
0.0
100
AcDbText
  0
LINE
  5
599
330
1F
100
AcDbEntity
  8
寸法
  6
CONTINUOUS
 62
     3
100
AcDbLine
 10
739.9999999999986
 20
4188.0
 30
0.0
 11
1099.999999999998
 21
4188.0
 31
0.0
  0
LINE
  5
59A
330
1F
100
AcDbEntity
  8
寸法
  6
CONTINUOUS
 62
     3
100
AcDbLine
 10
784.9999999999984
 20
4195.5
 30
0.0
 11
739.9999999999984
 21
4188.0
 31
0.0
  0
LINE
  5
59B
330
1F
100
AcDbEntity
  8
寸法
  6
CONTINUOUS
 62
     3
100
AcDbLine
 10
739.9999999999984
 20
4188.0
 30
0.0
 11
784.9999999999984
 21
4180.5
 31
0.0
  0
LINE
  5
59C
330
1F
100
AcDbEntity
  8
寸法
  6
CONTINUOUS
 62
     3
100
AcDbLine
 10
1054.999999999997
 20
4180.5
 30
0.0
 11
1099.999999999997
 21
4188.0
 31
0.0
  0
LINE
  5
59D
330
1F
100
AcDbEntity
  8
寸法
  6
CONTINUOUS
 62
     3
100
AcDbLine
 10
1099.999999999997
 20
4188.0
 30
0.0
 11
1054.999999999997
 21
4195.5
 31
0.0
  0
DIMENSION
  5
59E
330
1F
100
AcDbEntity
  8
寸法
  6
CONTINUOUS
 62
     3
100
AcDbDimension
  2
*D24
 10
1325.999999999997
 20
3569.5
 30
0.0
 11
1290.750000089404
 21
3794.5
 31
0.0
 70
   160
  3
ISO-25
100
AcDbAlignedDimension
 13
1219.999999999999
 23
4019.5
 33
0.0
 14
1219.999999999999
 24
3569.5
 34
0.0
 50
90.0
100
AcDbRotatedDimension
1001
ACAD
1000
DSTYLE
1002
{
1070
   270
1070
     2
1070
     6
1000
EX_NORM
1070
     7
1000
EX_NORM
1070
    41
1040
44.99999618530273
1070
    42
1040
10.49999982118607
1070
    44
1040
15.0
1070
    73
1070
     0
1070
    74
1070
     0
1070
    75
1070
     1
1070
    76
1070
     0
1070
    77
1070
     1
1070
    78
1070
     8
1070
   140
1040
59.99999618530273
1070
   147
1040
0.0
1070
   173
1070
     1
1070
   176
1070
     3
1070
   177
1070
     3
1070
   178
1070
     2
1070
   271
1070
     2
1070
   277
1070
     2
1070
   279
1070
     2
1070
   280
1070
     0
1070
   287
1070
     5
1070
   340
1005
47D
1002
}
  0
DIMENSION
  5
5AA
330
1F
100
AcDbEntity
  8
寸法
  6
CONTINUOUS
 62
     3
100
AcDbDimension
  2
*D25
 10
1219.999999999997
 20
3318.0
 30
0.0
 11
919.9999999999981
 21
3353.249999910593
 31
0.0
 70
   160
  3
ISO-25
100
AcDbAlignedDimension
 13
619.9999999999984
 23
3569.5
 33
0.0
 14
1219.999999999997
 24
3569.5
 34
0.0
100
AcDbRotatedDimension
1001
ACAD
1000
DSTYLE
1002
{
1070
   270
1070
     2
1070
     6
1000
EX_NORM
1070
     7
1000
EX_NORM
1070
    41
1040
44.99999618530273
1070
    42
1040
10.49999982118607
1070
    44
1040
15.0
1070
    73
1070
     0
1070
    74
1070
     0
1070
    75
1070
     0
1070
    76
1070
     0
1070
    77
1070
     1
1070
    78
1070
     8
1070
   140
1040
59.99999618530273
1070
   147
1040
0.0
1070
   173
1070
     1
1070
   176
1070
     3
1070
   177
1070
     3
1070
   178
1070
     2
1070
   271
1070
     2
1070
   277
1070
     2
1070
   279
1070
     2
1070
   280
1070
     0
1070
   287
1070
     5
1070
   340
1005
47D
1002
}
  0
DIMENSION
  5
5B7
330
1F
100
AcDbEntity
  8
寸法
  6
CONTINUOUS
 62
     3
100
AcDbDimension
  2
*D26
 10
1415.999999999997
 20
4019.5
 30
0.0
 11
1380.750000089405
 21
3779.499999999999
 31
0.0
 70
   160
  3
ISO-25
100
AcDbAlignedDimension
 13
919.9999999999984
 23
3539.5
 33
0.0
 14
1219.999999999997
 24
4019.5
 34
0.0
 50
90.0
100
AcDbRotatedDimension
1001
ACAD
1000
DSTYLE
1002
{
1070
   270
1070
     2
1070
     6
1000
EX_NORM
1070
     7
1000
EX_NORM
1070
    41
1040
44.99999618530273
1070
    42
1040
10.49999982118607
1070
    44
1040
15.0
1070
    73
1070
     0
1070
    74
1070
     0
1070
    75
1070
     0
1070
    76
1070
     1
1070
    77
1070
     1
1070
    78
1070
     8
1070
   140
1040
59.99999618530273
1070
   147
1040
0.0
1070
   173
1070
     1
1070
   176
1070
     3
1070
   177
1070
     3
1070
   178
1070
     2
1070
   271
1070
     2
1070
   277
1070
     2
1070
   279
1070
     2
1070
   280
1070
     0
1070
   287
1070
     5
1070
   340
1005
47D
1002
}
  0
DIMENSION
  5
5C3
330
1F
100
AcDbEntity
  8
寸法
  6
CONTINUOUS
 62
     3
100
AcDbDimension
  2
*D27
 10
1144.999999999997
 20
3408.0
 30
0.0
 11
919.9999999999981
 21
3443.249999910593
 31
0.0
 70
   160
  1
%%c<>
  3
ISO-25
100
AcDbAlignedDimension
 13
694.9999999999984
 23
3764.5
 33
0.0
 14
1144.999999999997
 24
3764.5
 34
0.0
100
AcDbRotatedDimension
1001
ACAD
1000
DSTYLE
1002
{
1070
   270
1070
     2
1070
     6
1000
EX_NORM
1070
     7
1000
EX_NORM
1070
    41
1040
44.99999618530273
1070
    42
1040
10.49999982118607
1070
    44
1040
15.0
1070
    73
1070
     0
1070
    74
1070
     0
1070
    75
1070
     0
1070
    76
1070
     0
1070
    77
1070
     1
1070
    78
1070
     8
1070
   140
1040
59.99999618530273
1070
   147
1040
0.0
1070
   173
1070
     1
1070
   176
1070
     3
1070
   177
1070
     3
1070
   178
1070
     2
1070
   271
1070
     2
1070
   277
1070
     2
1070
   279
1070
     2
1070
   280
1070
     0
1070
   287
1070
     5
1070
   340
1005
47D
1002
}
  0
LINE
  5
5D0
330
1F
100
AcDbEntity
  8
寸法
  6
CONTINUOUS
 62
     3
100
AcDbLine
 10
919.9999999999982
 20
932.0000001788139
 30
0.0
 11
919.9999999999982
 21
688.5
 31
0.0
  0
LINE
  5
5D1
330
1F
100
AcDbEntity
  8
寸法
  6
CONTINUOUS
 62
     3
100
AcDbLine
 10
1119.999999999997
 20
918.000004529953
 30
0.0
 11
1119.999999999997
 21
688.5
 31
0.0
  0
TEXT
  5
5D2
330
1F
100
AcDbEntity
  8
寸法
  6
CONTINUOUS
 62
     2
100
AcDbText
 10
475.9999999999982
 20
708.749999910593
 30
0.0
 40
59.99999618530273
  1
２００
 41
1.029411764705882
  7
EXCADSTD
 72
     5
 11
625.999990463255
 21
708.749999910593
 31
0.0
100
AcDbText
  0
TEXT
  5
5D3
330
1F
100
AcDbEntity
  8
寸法
  6
CONTINUOUS
 62
     2
100
AcDbText
 10
618.4999999999982
 20
708.749999910593
 30
0.0
 40
48.0
  1
（壁・床排水）
 41
0.9390243902439025
  7
EXCADSTD
 72
     5
 11
882.4999999999982
 21
708.749999910593
 31
0.0
100
AcDbText
  0
LINE
  5
5D4
330
1F
100
AcDbEntity
  8
寸法
  6
CONTINUOUS
 62
     3
100
AcDbLine
 10
470.7499885559064
 20
703.5000000000001
 30
0.0
 11
1164.999999999997
 21
703.5
 31
0.0
  0
LINE
  5
5D5
330
1F
100
AcDbEntity
  8
寸法
  6
CONTINUOUS
 62
     3
100
AcDbLine
 10
874.9999999999982
 20
696.0
 30
0.0
 11
919.9999999999982
 21
703.5
 31
0.0
  0
LINE
  5
5D6
330
1F
100
AcDbEntity
  8
寸法
  6
CONTINUOUS
 62
     3
100
AcDbLine
 10
919.9999999999982
 20
703.5
 30
0.0
 11
874.9999999999982
 21
711.0000000000001
 31
0.0
  0
LINE
  5
5D7
330
1F
100
AcDbEntity
  8
寸法
  6
CONTINUOUS
 62
     3
100
AcDbLine
 10
1164.999999999997
 20
711.0
 30
0.0
 11
1119.999999999997
 21
703.5
 31
0.0
  0
LINE
  5
5D8
330
1F
100
AcDbEntity
  8
寸法
  6
CONTINUOUS
 62
     3
100
AcDbLine
 10
1119.999999999997
 20
703.5
 30
0.0
 11
1164.999999999997
 21
696.0
 31
0.0
  0
TEXT
  5
5D9
330
1F
100
AcDbEntity
  8
寸法
  6
CONTINUOUS
 62
     2
100
AcDbText
 10
1281.499999999995
 20
804.7499960958958
 30
0.0
 40
59.99999618530273
  1
ＶＰ･ＶＵ４０･５０
 41
0.8542372745578565
  7
EXCADSTD
 72
     5
 11
1713.49996566772
 21
804.7499960958958
 31
0.0
100
AcDbText
  0
TEXT
  5
5DA
330
1F
100
AcDbEntity
  8
寸法
  6
CONTINUOUS
 62
     2
100
AcDbText
 10
1281.499999999995
 20
744.749999910593
 30
0.0
 40
59.99999618530273
  1
４０～５０㎜立上げ
 41
0.9773584771306252
  7
EXCADSTD
 72
     5
 11
1725.49996566772
 21
744.749999910593
 31
0.0
100
AcDbText
  0
LEADER
  5
5DB
330
1F
100
AcDbEntity
  8
寸法
  6
CONTINUOUS
 62
     3
100
AcDbLeader
  3
ISO-25
 76
     3
 10
1135.849999999996
 20
942.5
 30
0.0
 10
1273.999999999995
 20
739.5
 30
0.0
 10
1704.499999999997
 20
739.5
 30
0.0
1001
ACAD
1000
DSTYLE
1002
{
1070
     5
1000
EX_NORM
1070
    41
1040
45.0
1070
   341
1005
4D
1002
}
  0
DIMENSION
  5
5DC
330
1F
100
AcDbEntity
  8
寸法
  6
CONTINUOUS
 62
     3
100
AcDbDimension
  2
*D28
 10
1334.999999999997
 20
1641.5
 30
0.0
 11
1299.750000089404
 21
1292.0
 31
0.0
 70
   160
  3
ISO-25
100
AcDbAlignedDimension
 13
1217.999999999997
 23
942.5
 33
0.0
 14
1219.999999999997
 24
1641.5
 34
0.0
 50
90.0
100
AcDbRotatedDimension
1001
ACAD
1000
DSTYLE
1002
{
1070
   270
1070
     2
1070
     6
1000
EX_NORM
1070
     7
1000
EX_NORM
1070
    41
1040
44.99999618530273
1070
    42
1040
10.49999982118607
1070
    44
1040
15.0
1070
    73
1070
     0
1070
    74
1070
     0
1070
    75
1070
     1
1070
    76
1070
     0
1070
    77
1070
     1
1070
    78
1070
     8
1070
   140
1040
59.99999618530273
1070
   147
1040
0.0
1070
   173
1070
     1
1070
   176
1070
     3
1070
   177
1070
     3
1070
   178
1070
     2
1070
   271
1070
     2
1070
   277
1070
     2
1070
   279
1070
     2
1070
   280
1070
     0
1070
   287
1070
     5
1070
   340
1005
47D
1002
}
  0
DIMENSION
  5
5E8
330
1F
100
AcDbEntity
  8
寸法
  6
CONTINUOUS
 62
     3
100
AcDbDimension
  2
*D29
 10
1424.999999999997
 20
1811.5
 30
0.0
 11
1389.750000089404
 21
1377.0
 31
0.0
 70
   160
  3
ISO-25
100
AcDbAlignedDimension
 13
1217.999999999997
 23
942.5
 33
0.0
 14
919.9999999999982
 24
1811.5
 34
0.0
 50
90.0
100
AcDbRotatedDimension
1001
ACAD
1000
DSTYLE
1002
{
1070
   270
1070
     2
1070
     6
1000
EX_NORM
1070
     7
1000
EX_NORM
1070
    41
1040
44.99999618530273
1070
    42
1040
27.70000040531158
1070
    44
1040
15.0
1070
    73
1070
     0
1070
    74
1070
     0
1070
    75
1070
     1
1070
    76
1070
     0
1070
    77
1070
     1
1070
    78
1070
     8
1070
   140
1040
59.99999618530273
1070
   147
1040
0.0
1070
   173
1070
     1
1070
   176
1070
     3
1070
   177
1070
     3
1070
   178
1070
     2
1070
   271
1070
     2
1070
   277
1070
     2
1070
   279
1070
     2
1070
   280
1070
     0
1070
   287
1070
     5
1070
   340
1005
47D
1002
}
  0
DIMENSION
  5
5F4
330
1F
100
AcDbEntity
  8
寸法
  6
CONTINUOUS
 62
     3
100
AcDbDimension
  2
*D30
 10
2646.0
 20
942.5
 30
0.0
 11
2610.750000089407
 21
1162.5
 31
0.0
 70
   160
  1
440（壁給水）
  3
ISO-25
100
AcDbAlignedDimension
 13
2487.5
 23
1382.5
 33
0.0
 14
2646.0
 24
942.5
 34
0.0
 50
90.0
100
AcDbRotatedDimension
1001
ACAD
1000
DSTYLE
1002
{
1070
   270
1070
     2
1070
     6
1000
EX_NORM
1070
     7
1000
EX_NORM
1070
    41
1040
44.99999618530273
1070
    42
1040
7.5
1070
    44
1040
15.0
1070
    73
1070
     0
1070
    74
1070
     0
1070
    75
1070
     0
1070
    76
1070
     1
1070
    77
1070
     1
1070
    78
1070
     8
1070
   140
1040
59.99999618530273
1070
   147
1040
0.0
1070
   173
1070
     1
1070
   176
1070
     3
1070
   177
1070
     3
1070
   178
1070
     2
1070
   271
1070
     2
1070
   277
1070
     2
1070
   279
1070
     2
1070
   280
1070
     0
1070
   287
1070
     5
1070
   340
1005
47D
1002
}
  0
DIMENSION
  5
600
330
1F
100
AcDbEntity
  8
寸法
  6
CONTINUOUS
 62
     3
100
AcDbDimension
  2
*D31
 10
2736.0
 20
942.5
 30
0.0
 11
2700.750000089407
 21
1177.5
 31
0.0
 70
   160
  1
470（壁排水）
  3
ISO-25
100
AcDbAlignedDimension
 13
2516.549999999999
 23
1412.5
 33
0.0
 14
2646.0
 24
942.5
 34
0.0
 50
90.0
100
AcDbRotatedDimension
1001
ACAD
1000
DSTYLE
1002
{
1070
   270
1070
     2
1070
     6
1000
EX_NORM
1070
     7
1000
EX_NORM
1070
    41
1040
44.99999618530273
1070
    42
1040
7.5
1070
    44
1040
15.0
1070
    73
1070
     0
1070
    74
1070
     0
1070
    75
1070
     0
1070
    76
1070
     1
1070
    77
1070
     1
1070
    78
1070
     8
1070
   140
1040
59.99999618530273
1070
   147
1040
0.0
1070
   173
1070
     1
1070
   176
1070
     3
1070
   177
1070
     3
1070
   178
1070
     2
1070
   271
1070
     2
1070
   277
1070
     2
1070
   279
1070
     2
1070
   280
1070
     0
1070
   287
1070
     5
1070
   340
1005
47D
1002
}
  0
LINE
  5
60C
330
1F
100
AcDbEntity
  8
寸法
  6
CONTINUOUS
 62
     3
100
AcDbLine
 10
2489.999999821185
 20
942.4999999999999
 30
0.0
 11
2838.0
 21
942.4999999999955
 31
0.0
  0
LINE
  5
60D
330
1F
100
AcDbEntity
  8
寸法
  6
CONTINUOUS
 62
     3
100
AcDbLine
 10
2522.499999821185
 20
1522.5
 30
0.0
 11
2838.0
 21
1522.499999999999
 31
0.0
  0
TEXT
  5
60E
330
1F
100
AcDbEntity
  8
寸法
  6
CONTINUOUS
 62
     2
100
AcDbText
 10
2817.750000089407
 20
1068.999999999997
 30
0.0
 40
59.99999618530273
  1
５８０
 50
90.0
 41
1.029411764705882
  7
EXCADSTD
 72
     5
 11
2817.750000089407
 21
1218.999990463254
 31
0.0
100
AcDbText
  0
TEXT
  5
60F
330
1F
100
AcDbEntity
  8
寸法
  6
CONTINUOUS
 62
     2
100
AcDbText
 10
2817.750000089407
 20
1211.499999999997
 30
0.0
 40
48.0
  1
（壁固定）
 50
90.0
 41
0.9655172413793105
  7
EXCADSTD
 72
     5
 11
2817.750000089407
 21
1403.499999999997
 31
0.0
100
AcDbText
  0
LINE
  5
610
330
1F
100
AcDbEntity
  8
寸法
  6
CONTINUOUS
 62
     3
100
AcDbLine
 10
2823.0
 20
942.4999999999957
 30
0.0
 11
2823.0
 21
1522.499999999999
 31
0.0
  0
LINE
  5
611
330
1F
100
AcDbEntity
  8
寸法
  6
CONTINUOUS
 62
     3
100
AcDbLine
 10
2815.5
 20
987.4999999999957
 30
0.0
 11
2823.0
 21
942.4999999999957
 31
0.0
  0
LINE
  5
612
330
1F
100
AcDbEntity
  8
寸法
  6
CONTINUOUS
 62
     3
100
AcDbLine
 10
2823.0
 20
942.4999999999957
 30
0.0
 11
2830.5
 21
987.4999999999957
 31
0.0
  0
LINE
  5
613
330
1F
100
AcDbEntity
  8
寸法
  6
CONTINUOUS
 62
     3
100
AcDbLine
 10
2830.5
 20
1477.499999999999
 30
0.0
 11
2823.0
 21
1522.499999999999
 31
0.0
  0
LINE
  5
614
330
1F
100
AcDbEntity
  8
寸法
  6
CONTINUOUS
 62
     3
100
AcDbLine
 10
2823.0
 20
1522.499999999999
 30
0.0
 11
2815.5
 21
1477.499999999999
 31
0.0
  0
TEXT
  5
615
330
1F
100
AcDbEntity
  8
寸法
  6
CONTINUOUS
 62
     2
100
AcDbText
 10
2572.5
 20
1659.749999910593
 30
0.0
 40
59.99999618530273
  1
φ３２
 41
1.070588224822399
  7
EXCADSTD
 72
     5
 11
2728.499988555908
 21
1659.749999910593
 31
0.0
100
AcDbText
  0
LEADER
  5
616
330
1F
100
AcDbEntity
  8
寸法
  6
CONTINUOUS
 62
     3
100
AcDbLeader
  3
ISO-25
 76
     3
 10
2493.9
 20
1428.5
 30
0.0
 10
2578.5
 20
1654.5
 30
0.0
 10
2719.5
 20
1654.5
 30
0.0
1001
ACAD
1000
DSTYLE
1002
{
1070
     5
1000
EX_NORM
1070
    41
1040
45.0
1070
   341
1005
4D
1002
}
  0
TEXT
  5
617
330
1F
100
AcDbEntity
  8
寸法
  6
CONTINUOUS
 62
     2
100
AcDbText
 10
2578.4502041379
 20
1566.749999910593
 30
0.0
 40
59.99999618530273
  1
Ｒ１/２
 41
0.8342465643686785
  7
EXCADSTD
 72
     5
 11
2752.45019078646
 21
1566.749999910593
 31
0.0
100
AcDbText
  0
LEADER
  5
618
330
1F
100
AcDbEntity
  8
寸法
  6
CONTINUOUS
 62
     3
100
AcDbLeader
  3
ISO-25
 76
     3
 10
2487.5
 20
1393.0
 30
0.0
 10
2583.0
 20
1561.5
 30
0.0
 10
2739.0
 20
1561.5
 30
0.0
1001
ACAD
1000
DSTYLE
1002
{
1070
     5
1000
EX_NORM
1070
    41
1040
45.0
1070
   341
1005
4D
1002
}
  0
LINE
  5
619
330
1F
100
AcDbEntity
  8
寸法
  6
CONTINUOUS
 62
     3
100
AcDbLine
 10
2399.499999999999
 20
924.0000001788139
 30
0.0
 11
2399.499999999999
 21
778.5
 31
0.0
  0
LINE
  5
61A
330
1F
100
AcDbEntity
  8
寸法
  6
CONTINUOUS
 62
     3
100
AcDbLine
 10
2479.499999999999
 20
932.0000001788139
 30
0.0
 11
2479.499999999999
 21
778.5
 31
0.0
  0
TEXT
  5
61B
330
1F
100
AcDbEntity
  8
寸法
  6
CONTINUOUS
 62
     2
100
AcDbText
 10
2524.499999999999
 20
798.749999910593
 30
0.0
 40
59.99999618530273
  1
８０
 41
1.020759090909089
  7
EXCADSTD
 72
     5
 11
2620.742993881033
 21
798.749999910593
 31
0.0
100
AcDbText
  0
TEXT
  5
61C
330
1F
100
AcDbEntity
  8
寸法
  6
CONTINUOUS
 62
     2
100
AcDbText
 10
2621.999999999999
 20
798.749999910593
 30
0.0
 40
48.0
  1
（床給水）
 41
0.9655172413793105
  7
EXCADSTD
 72
     5
 11
2813.999999999999
 21
798.749999910593
 31
0.0
100
AcDbText
  0
LINE
  5
61D
330
1F
100
AcDbEntity
  8
寸法
  6
CONTINUOUS
 62
     3
100
AcDbLine
 10
2354.499999999999
 20
793.5
 30
0.0
 11
2811.749994277953
 21
793.5
 31
0.0
  0
LINE
  5
61E
330
1F
100
AcDbEntity
  8
寸法
  6
CONTINUOUS
 62
     3
100
AcDbLine
 10
2354.499999999999
 20
786.0
 30
0.0
 11
2399.499999999999
 21
793.5
 31
0.0
  0
LINE
  5
61F
330
1F
100
AcDbEntity
  8
寸法
  6
CONTINUOUS
 62
     3
100
AcDbLine
 10
2399.499999999999
 20
793.5
 30
0.0
 11
2354.499999999999
 21
801.0000000000001
 31
0.0
  0
LINE
  5
620
330
1F
100
AcDbEntity
  8
寸法
  6
CONTINUOUS
 62
     3
100
AcDbLine
 10
2524.499999999999
 20
801.0
 30
0.0
 11
2479.499999999999
 21
793.5
 31
0.0
  0
LINE
  5
621
330
1F
100
AcDbEntity
  8
寸法
  6
CONTINUOUS
 62
     3
100
AcDbLine
 10
2479.499999999999
 20
793.5
 30
0.0
 11
2524.499999999999
 21
786.0
 31
0.0
  0
LINE
  5
622
330
1F
100
AcDbEntity
  8
寸法
  6
CONTINUOUS
 62
     3
100
AcDbLine
 10
2379.499999999999
 20
918.000002861023
 30
0.0
 11
2379.499999999999
 21
688.5
 31
0.0
  0
LINE
  5
623
330
1F
100
AcDbEntity
  8
寸法
  6
CONTINUOUS
 62
     3
100
AcDbLine
 10
2479.499999999999
 20
932.0000001788139
 30
0.0
 11
2479.499999999999
 21
688.5
 31
0.0
  0
TEXT
  5
624
330
1F
100
AcDbEntity
  8
寸法
  6
CONTINUOUS
 62
     2
100
AcDbText
 10
2524.499999999999
 20
708.749999910593
 30
0.0
 40
59.99999618530273
  1
１００
 41
1.029411764705882
  7
EXCADSTD
 72
     5
 11
2674.499990463255
 21
708.749999910593
 31
0.0
100
AcDbText
  0
TEXT
  5
625
330
1F
100
AcDbEntity
  8
寸法
  6
CONTINUOUS
 62
     2
100
AcDbText
 10
2666.999999999999
 20
708.749999910593
 30
0.0
 40
48.0
  1
（床排水）
 41
0.9655172413793105
  7
EXCADSTD
 72
     5
 11
2858.999999999999
 21
708.749999910593
 31
0.0
100
AcDbText
  0
LINE
  5
626
330
1F
100
AcDbEntity
  8
寸法
  6
CONTINUOUS
 62
     3
100
AcDbLine
 10
2334.499999999999
 20
703.5
 30
0.0
 11
2856.749994277953
 21
703.5
 31
0.0
  0
LINE
  5
627
330
1F
100
AcDbEntity
  8
寸法
  6
CONTINUOUS
 62
     3
100
AcDbLine
 10
2334.499999999999
 20
696.0
 30
0.0
 11
2379.499999999999
 21
703.5
 31
0.0
  0
LINE
  5
628
330
1F
100
AcDbEntity
  8
寸法
  6
CONTINUOUS
 62
     3
100
AcDbLine
 10
2379.499999999999
 20
703.5
 30
0.0
 11
2334.499999999999
 21
711.0000000000001
 31
0.0
  0
LINE
  5
629
330
1F
100
AcDbEntity
  8
寸法
  6
CONTINUOUS
 62
     3
100
AcDbLine
 10
2524.499999999999
 20
711.0
 30
0.0
 11
2479.499999999999
 21
703.5
 31
0.0
  0
LINE
  5
62A
330
1F
100
AcDbEntity
  8
寸法
  6
CONTINUOUS
 62
     3
100
AcDbLine
 10
2479.499999999999
 20
703.5
 30
0.0
 11
2524.499999999999
 21
696.0
 31
0.0
  0
DIMENSION
  5
62B
330
1F
100
AcDbEntity
  8
寸法
  6
CONTINUOUS
 62
     3
100
AcDbDimension
  2
*D32
 10
2479.499999999999
 20
613.5
 30
0.0
 11
2266.999999999999
 21
648.749999910593
 31
0.0
 70
   160
  3
ISO-25
100
AcDbAlignedDimension
 13
2054.499999999999
 23
942.5
 33
0.0
 14
2479.499999999999
 24
942.5
 34
0.0
100
AcDbRotatedDimension
1001
ACAD
1000
DSTYLE
1002
{
1070
   270
1070
     2
1070
     6
1000
EX_NORM
1070
     7
1000
EX_NORM
1070
    41
1040
44.99999618530273
1070
    42
1040
10.49999982118607
1070
    44
1040
15.0
1070
    73
1070
     0
1070
    74
1070
     0
1070
    75
1070
     0
1070
    76
1070
     0
1070
    77
1070
     1
1070
    78
1070
     8
1070
   140
1040
59.99999618530273
1070
   147
1040
0.0
1070
   173
1070
     1
1070
   176
1070
     3
1070
   177
1070
     3
1070
   178
1070
     2
1070
   271
1070
     2
1070
   277
1070
     2
1070
   279
1070
     2
1070
   280
1070
     0
1070
   287
1070
     5
1070
   340
1005
47D
1002
}
  0
ENDSEC
  0
SECTION
  2
OBJECTS
  0
DICTIONARY
  5
C
330
0
100
AcDbDictionary
  3
ACAD_GROUP
350
D
  3
ACAD_LAYOUT
350
1A
  3
ACAD_MATERIAL
350
3B
  3
ACAD_MLEADERSTYLE
350
65A
  3
ACAD_MLINESTYLE
350
17
  3
ACAD_PLOTSETTINGS
350
19
  3
ACAD_VISUALSTYLE
350
2A
  3
ACDBHEADERROUNDTRIPXREC
350
638
  3
ACDBVARIABLEDICTIONARY
350
658
  0
DICTIONARY
  5
D
102
{ACAD_REACTORS
330
C
102
}
330
C
100
AcDbDictionary
  0
DICTIONARY
  5
1A
102
{ACAD_REACTORS
330
C
102
}
330
C
100
AcDbDictionary
  0
DICTIONARY
  5
3B
102
{ACAD_REACTORS
330
C
102
}
330
C
100
AcDbDictionary
  3
BYBLOCK
350
3D
  3
BYLAYER
350
3C
  3
GLOBAL
350
3E
  0
DICTIONARY
  5
65A
102
{ACAD_REACTORS
330
C
102
}
330
C
100
AcDbDictionary
  0
DICTIONARY
  5
17
102
{ACAD_REACTORS
330
C
102
}
330
C
100
AcDbDictionary
  3
STANDARD
350
18
  0
DICTIONARY
  5
19
102
{ACAD_REACTORS
330
C
102
}
330
C
100
AcDbDictionary
  0
DICTIONARY
  5
2A
102
{ACAD_REACTORS
330
C
102
}
330
C
100
AcDbDictionary
  3
2DWIREFRAME
350
2F
  3
3D_HIDDEN
350
31
  3
3DWIREFRAME
350
30
  3
BASIC
350
32
  3
BRIGHTEN
350
36
  3
COLORCHANGE
350
3A
  3
CONCEPTUAL
350
34
  3
DIM
350
35
  3
FACEPATTERN
350
39
  3
FLAT
350
2B
  3
FLATWITHEDGES
350
2C
  3
GOURAUD
350
2D
  3
GOURAUDWITHEDGES
350
2E
  3
LINEPATTERN
350
38
  3
REALISTIC
350
33
  3
THICKEN
350
37
  0
DICTIONARY
  5
638
102
{ACAD_REACTORS
330
C
102
}
330
C
100
AcDbDictionary
  3
CEPSNTYPE
350
641
  3
DIMSTYLEDATA
350
657
  3
FINGERPRINTGUID
350
642
  3
HYPERLINKBASE
350
63B
  3
INSUNITS
350
640
  3
LAYOUTDICT
350
63D
  3
LWETCUNION
350
63F
  3
PLOTSETDICT
350
63E
  3
PSVPSCALE
350
644
  3
PUCSBASE
350
647
  3
PUCSORGBACK
350
64D
  3
PUCSORGBOTTOM
350
649
  3
PUCSORGFRONT
350
64C
  3
PUCSORGLEFT
350
64A
  3
PUCSORGRIGHT
350
64B
  3
PUCSORGTOP
350
648
  3
PUCSORTHOREF
350
645
  3
PUCSORTHOVIEW
350
646
  3
STYLESHEET
350
63C
  3
TSTACKALIGN
350
639
  3
TSTACKSIZE
350
63A
  3
UCSBASE
350
650
  3
UCSORGBACK
350
656
  3
UCSORGBOTTOM
350
652
  3
UCSORGFRONT
350
655
  3
UCSORGLEFT
350
653
  3
UCSORGRIGHT
350
654
  3
UCSORGTOP
350
651
  3
UCSORTHOREF
350
64E
  3
UCSORTHOVIEW
350
64F
  3
VERSIONGUID
350
643
  0
DICTIONARY
  5
658
102
{ACAD_REACTORS
330
C
102
}
330
C
100
AcDbDictionary
  3
DIMASSOC
350
65D
  3
HIDETEXT
350
65E
  3
PSOLHEIGHT
350
65C
  3
PSOLWIDTH
350
65B
  0
MATERIAL
  5
3D
102
{ACAD_REACTORS
330
3B
102
}
102
{ACAD_XDICTIONARY
360
661
102
}
330
3B
100
AcDbMaterial
  1
ByBlock
  0
MATERIAL
  5
3C
102
{ACAD_REACTORS
330
3B
102
}
102
{ACAD_XDICTIONARY
360
65F
102
}
330
3B
100
AcDbMaterial
  1
ByLayer
  0
MATERIAL
  5
3E
102
{ACAD_REACTORS
330
3B
102
}
102
{ACAD_XDICTIONARY
360
663
102
}
330
3B
100
AcDbMaterial
  1
Global
  0
MLINESTYLE
  5
18
102
{ACAD_REACTORS
330
17
102
}
330
17
100
AcDbMlineStyle
  2
Standard
 70
     0
  3

 62
   256
 51
90.0
 52
90.0
 71
     2
 49
0.5
 62
   256
  6
BYLAYER
 49
-0.5
 62
   256
  6
BYLAYER
  0
ACAD_PROXY_OBJECT
  5
2F
102
{ACAD_REACTORS
330
2A
102
}
330
2A
100
AcDbProxyObject
 90
      499
 91
      501
 93
      436
310
42CC9915DA5C99599C985B595049028333333333333E3BF0000000000000FB0107901411070040501600405405064090741402480A0340
1001
ACAD
1000
AcDbSavedByObjectVersion
1070
     0
  0
ACAD_PROXY_OBJECT
  5
31
102
{ACAD_REACTORS
330
2A
102
}
330
2A
100
AcDbProxyObject
 90
      499
 91
      501
 93
      500
310
424CD108121A5919195B90640502408333333333333E3BF0000000000000FB01079024090700405020000000000001110200405405064090740C02480A0340
1001
ACAD
1000
AcDbSavedByObjectVersion
1070
     0
  0
ACAD_PROXY_OBJECT
  5
30
102
{ACAD_REACTORS
330
2A
102
}
330
2A
100
AcDbProxyObject
 90
      499
 91
      501
 93
      436
310
42CCD915DA5C99599C985B595059028333333333333E3BF0000000000000FB0107901411070040501600405405064090741402480A0340
1001
ACAD
1000
AcDbSavedByObjectVersion
1070
     0
  0
ACAD_PROXY_OBJECT
  5
32
102
{ACAD_REACTORS
330
2A
102
}
330
2A
100
AcDbProxyObject
 90
      499
 91
      501
 93
      388
310
4150985CDA58D07406404333333333333E3BF0000000000000FB0107A41107004050150841D405064090741402480A0350
1001
ACAD
1000
AcDbSavedByObjectVersion
1070
     0
  0
ACAD_PROXY_OBJECT
  5
36
102
{ACAD_REACTORS
330
2A
102
}
330
2A
100
AcDbProxyObject
 90
      499
 91
      501
 93
      428
310
42109C9A59DA1D195B90C409028333333333333E3BF0000000000000FB010790141107004050150841D405064090741402480A029950
1001
ACAD
1000
AcDbSavedByObjectVersion
1070
     0
  0
ACAD_PROXY_OBJECT
  5
3A
102
{ACAD_REACTORS
330
2A
102
}
330
2A
100
AcDbProxyObject
 90
      499
 91
      501
 93
      452
310
42D0DBDB1BDC90DA185B99D95104090240C333333333333E3BF0000000000000FB0108901411070040501508421405064090741402480A0350
1001
ACAD
1000
AcDbSavedByObjectVersion
1070
     0
  0
ACAD_PROXY_OBJECT
  5
34
102
{ACAD_REACTORS
330
2A
102
}
330
2A
100
AcDbProxyObject
 90
      499
 91
      501
 93
      500
310
4290DBDB98D95C1D1D585B10940D028333333333333E3BF0000000000000FB0107902409070040501000000000000111010841D405064090740C02480A0340
1001
ACAD
1000
AcDbSavedByObjectVersion
1070
     0
  0
ACAD_PROXY_OBJECT
  5
35
102
{ACAD_REACTORS
330
2A
102
}
330
2A
100
AcDbProxyObject
 90
      499
 91
      501
 93
      412
310
40D11A5B50B409028333333333333E3BF0000000000000FB010790141107004050150841D405064090741402480A02677FFFFFD0
1001
ACAD
1000
AcDbSavedByObjectVersion
1070
     0
  0
ACAD_PROXY_OBJECT
  5
39
102
{ACAD_REACTORS
330
2A
102
}
330
2A
100
AcDbProxyObject
 90
      499
 91
      501
 93
      444
310
42D19858D95C185D1D195C9B90F409028333333333333E3BF0000000000000FB010790141107004050150841D405064090741402480A0350
1001
ACAD
1000
AcDbSavedByObjectVersion
1070
     0
  0
ACAD_PROXY_OBJECT
  5
2B
102
{ACAD_REACTORS
330
2A
102
}
330
2A
100
AcDbProxyObject
 90
      499
 91
      501
 93
      388
310
41119B185D240901404333333333333E3BF0000000000000F9010740A41107004050150841D405064090741402480A1B50
1001
ACAD
1000
AcDbSavedByObjectVersion
1070
     0
  0
ACAD_PROXY_OBJECT
  5
2C
102
{ACAD_REACTORS
330
2A
102
}
330
2A
100
AcDbProxyObject
 90
      499
 91
      501
 93
      476
310
43519B185D15DA5D1A115919D95CD0140901404333333333333E3BF0000000000000F9010740901411070040501600405405064090741402480A1B50
1001
ACAD
1000
AcDbSavedByObjectVersion
1070
     0
  0
ACAD_PROXY_OBJECT
  5
2D
102
{ACAD_REACTORS
330
2A
102
}
330
2A
100
AcDbProxyObject
 90
      499
 91
      501
 93
      412
310
41D1DBDD5C985D5910240902404333333333333E3BF0000000000000F9010740A411070040501641D405064090741402480A1B50
1001
ACAD
1000
AcDbSavedByObjectVersion
1070
     0
  0
ACAD_PROXY_OBJECT
  5
2E
102
{ACAD_REACTORS
330
2A
102
}
330
2A
100
AcDbProxyObject
 90
      499
 91
      501
 93
      500
310
4411DBDD5C985D5915DA5D1A115919D95CD0340902404333333333333E3BF0000000000000F9010740901411070040501600405405064090741402480A1B50
1001
ACAD
1000
AcDbSavedByObjectVersion
1070
     0
  0
ACAD_PROXY_OBJECT
  5
38
102
{ACAD_REACTORS
330
2A
102
}
330
2A
100
AcDbProxyObject
 90
      499
 91
      501
 93
      444
310
42D31A5B995C185D1D195C9B90E409028333333333333E3BF0000000000000FB010790141107004050750841D405064090741402483A0350
1001
ACAD
1000
AcDbSavedByObjectVersion
1070
     0
  0
ACAD_PROXY_OBJECT
  5
33
102
{ACAD_REACTORS
330
2A
102
}
330
2A
100
AcDbProxyObject
 90
      499
 91
      501
 93
      420
310
425499585B1A5CDD1A58D08409028333333333333E3BF0000000000000FB01079019070040501508421405064090741402480A1B40
1001
ACAD
1000
AcDbSavedByObjectVersion
1070
     0
  0
ACAD_PROXY_OBJECT
  5
37
102
{ACAD_REACTORS
330
2A
102
}
330
2A
100
AcDbProxyObject
 90
      499
 91
      501
 93
      412
310
41D51A1A58DAD95B90D409028333333333333E3BF0000000000000FB010790141107004050150C41D405064090741402480A0350
1001
ACAD
1000
AcDbSavedByObjectVersion
1070
     0
  0
XRECORD
  5
641
102
{ACAD_REACTORS
330
638
102
}
330
638
100
AcDbXrecord
 90
        0
  0
XRECORD
  5
657
102
{ACAD_REACTORS
330
638
102
}
330
638
100
AcDbXrecord
1000
DSTYLE
1002
{
1070
   340
340
11
1002
}
  0
XRECORD
  5
642
102
{ACAD_REACTORS
330
638
102
}
330
638
100
AcDbXrecord
  1
{92F0C217-511F-4C23-A085-3BDA30248883}
  0
XRECORD
  5
63B
102
{ACAD_REACTORS
330
638
102
}
330
638
100
AcDbXrecord
  1

  0
XRECORD
  5
640
102
{ACAD_REACTORS
330
638
102
}
330
638
100
AcDbXrecord
 90
        4
  0
XRECORD
  5
63D
102
{ACAD_REACTORS
330
638
102
}
330
638
100
AcDbXrecord
340
1A
  0
XRECORD
  5
63F
102
{ACAD_REACTORS
330
638
102
}
330
638
100
AcDbXrecord
 90
    10781
  0
XRECORD
  5
63E
102
{ACAD_REACTORS
330
638
102
}
330
638
100
AcDbXrecord
340
19
  0
XRECORD
  5
644
102
{ACAD_REACTORS
330
638
102
}
330
638
100
AcDbXrecord
 40
0.0
  0
XRECORD
  5
647
102
{ACAD_REACTORS
330
638
102
}
330
638
100
AcDbXrecord
340
0
  0
XRECORD
  5
64D
102
{ACAD_REACTORS
330
638
102
}
330
638
100
AcDbXrecord
 10
0.0
 20
0.0
 30
0.0
  0
XRECORD
  5
649
102
{ACAD_REACTORS
330
638
102
}
330
638
100
AcDbXrecord
 10
0.0
 20
0.0
 30
0.0
  0
XRECORD
  5
64C
102
{ACAD_REACTORS
330
638
102
}
330
638
100
AcDbXrecord
 10
0.0
 20
0.0
 30
0.0
  0
XRECORD
  5
64A
102
{ACAD_REACTORS
330
638
102
}
330
638
100
AcDbXrecord
 10
0.0
 20
0.0
 30
0.0
  0
XRECORD
  5
64B
102
{ACAD_REACTORS
330
638
102
}
330
638
100
AcDbXrecord
 10
0.0
 20
0.0
 30
0.0
  0
XRECORD
  5
648
102
{ACAD_REACTORS
330
638
102
}
330
638
100
AcDbXrecord
 10
0.0
 20
0.0
 30
0.0
  0
XRECORD
  5
645
102
{ACAD_REACTORS
330
638
102
}
330
638
100
AcDbXrecord
340
0
  0
XRECORD
  5
646
102
{ACAD_REACTORS
330
638
102
}
330
638
100
AcDbXrecord
 70
     0
  0
XRECORD
  5
63C
102
{ACAD_REACTORS
330
638
102
}
330
638
100
AcDbXrecord
  1

  0
XRECORD
  5
639
102
{ACAD_REACTORS
330
638
102
}
330
638
100
AcDbXrecord
 90
        1
  0
XRECORD
  5
63A
102
{ACAD_REACTORS
330
638
102
}
330
638
100
AcDbXrecord
 90
       70
  0
XRECORD
  5
650
102
{ACAD_REACTORS
330
638
102
}
330
638
100
AcDbXrecord
340
0
  0
XRECORD
  5
656
102
{ACAD_REACTORS
330
638
102
}
330
638
100
AcDbXrecord
 10
0.0
 20
0.0
 30
0.0
  0
XRECORD
  5
652
102
{ACAD_REACTORS
330
638
102
}
330
638
100
AcDbXrecord
 10
0.0
 20
0.0
 30
0.0
  0
XRECORD
  5
655
102
{ACAD_REACTORS
330
638
102
}
330
638
100
AcDbXrecord
 10
0.0
 20
0.0
 30
0.0
  0
XRECORD
  5
653
102
{ACAD_REACTORS
330
638
102
}
330
638
100
AcDbXrecord
 10
0.0
 20
0.0
 30
0.0
  0
XRECORD
  5
654
102
{ACAD_REACTORS
330
638
102
}
330
638
100
AcDbXrecord
 10
0.0
 20
0.0
 30
0.0
  0
XRECORD
  5
651
102
{ACAD_REACTORS
330
638
102
}
330
638
100
AcDbXrecord
 10
0.0
 20
0.0
 30
0.0
  0
XRECORD
  5
64E
102
{ACAD_REACTORS
330
638
102
}
330
638
100
AcDbXrecord
340
0
  0
XRECORD
  5
64F
102
{ACAD_REACTORS
330
638
102
}
330
638
100
AcDbXrecord
 70
     0
  0
XRECORD
  5
643
102
{ACAD_REACTORS
330
638
102
}
330
638
100
AcDbXrecord
  1
{FAEB1C32-E019-11D5-929B-00C0DF256EC4}
  0
DICTIONARYVAR
  5
65D
102
{ACAD_REACTORS
330
658
102
}
330
658
100
DictionaryVariables
280
     0
  1
2
  0
DICTIONARYVAR
  5
65E
102
{ACAD_REACTORS
330
658
102
}
330
658
100
DictionaryVariables
280
     0
  1
1
  0
DICTIONARYVAR
  5
65C
102
{ACAD_REACTORS
330
658
102
}
330
658
100
DictionaryVariables
280
     0
  1
80.000000
  0
DICTIONARYVAR
  5
65B
102
{ACAD_REACTORS
330
658
102
}
330
658
100
DictionaryVariables
280
     0
  1
5.000000
  0
DICTIONARY
  5
661
330
3D
100
AcDbDictionary
280
     1
  3
ACAD_XREC_ROUNDTRIP
360
662
  0
DICTIONARY
  5
65F
330
3C
100
AcDbDictionary
280
     1
  3
ACAD_XREC_ROUNDTRIP
360
660
  0
DICTIONARY
  5
663
330
3E
100
AcDbDictionary
280
     1
  3
ACAD_XREC_ROUNDTRIP
360
664
  0
XRECORD
  5
662
102
{ACAD_REACTORS
330
661
102
}
330
661
100
AcDbXrecord
102
MATERIAL
148
0.0
149
0.0
149
0.0
 93
        0
 94
      127
282
     0
 72
     1
 77
     1
171
     1
175
     1
179
     1
273
     0
  0
XRECORD
  5
660
102
{ACAD_REACTORS
330
65F
102
}
330
65F
100
AcDbXrecord
102
MATERIAL
148
0.0
149
0.0
149
0.0
 93
        0
 94
      127
282
     0
 72
     1
 77
     1
171
     1
175
     1
179
     1
273
     0
  0
XRECORD
  5
664
102
{ACAD_REACTORS
330
663
102
}
330
663
100
AcDbXrecord
102
MATERIAL
148
0.0
149
0.0
149
0.0
 93
        0
 94
      127
282
     0
 72
     1
 77
     1
171
     1
175
     1
179
     1
273
     0
  0
ENDSEC
  0
EOF
