  0
SECTION
  2
HEADER
  9
$ACADVER
  1
AC1014
  9
$ACADMAINTVER
 70
     9
  9
$DWGCODEPAGE
  3
ANSI_932
  9
$INSBASE
 10
0.0
 20
0.0
 30
0.0
  9
$EXTMIN
 10
0.0000000000000092
 20
12.5
 30
0.0
  9
$EXTMAX
 10
199.0
 20
287.5
 30
0.0
  9
$LIMMIN
 10
0.0
 20
0.0
  9
$LIMMAX
 10
210.0
 20
297.0
  9
$ORTHOMODE
 70
     0
  9
$REGENMODE
 70
     1
  9
$FILLMODE
 70
     1
  9
$QTEXTMODE
 70
     0
  9
$MIRRTEXT
 70
     1
  9
$DRAGMODE
 70
     2
  9
$LTSCALE
 40
1.0
  9
$OSMODE
 70
    37
  9
$ATTMODE
 70
     1
  9
$TEXTSIZE
 40
2.5
  9
$TRACEWID
 40
1.0
  9
$TEXTSTYLE
  7
STANDARD
  9
$CLAYER
  8
化粧台
  9
$CELTYPE
  6
BYLAYER
  9
$CECOLOR
 62
   256
  9
$CELTSCALE
 40
1.0
  9
$DELOBJ
 70
     1
  9
$DISPSILH
 70
     0
  9
$DIMSCALE
 40
1.0
  9
$DIMASZ
 40
2.5
  9
$DIMEXO
 40
0.625
  9
$DIMDLI
 40
3.75
  9
$DIMRND
 40
0.0
  9
$DIMDLE
 40
0.0
  9
$DIMEXE
 40
1.25
  9
$DIMTP
 40
0.0
  9
$DIMTM
 40
0.0
  9
$DIMTXT
 40
2.5
  9
$DIMCEN
 40
2.5
  9
$DIMTSZ
 40
0.0
  9
$DIMTOL
 70
     0
  9
$DIMLIM
 70
     0
  9
$DIMTIH
 70
     0
  9
$DIMTOH
 70
     0
  9
$DIMSE1
 70
     0
  9
$DIMSE2
 70
     0
  9
$DIMTAD
 70
     1
  9
$DIMZIN
 70
     8
  9
$DIMBLK
  1

  9
$DIMASO
 70
     1
  9
$DIMSHO
 70
     1
  9
$DIMPOST
  1

  9
$DIMAPOST
  1

  9
$DIMALT
 70
     0
  9
$DIMALTD
 70
     3
  9
$DIMALTF
 40
0.03937007874016
  9
$DIMLFAC
 40
1.0
  9
$DIMTOFL
 70
     1
  9
$DIMTVP
 40
0.0
  9
$DIMTIX
 70
     0
  9
$DIMSOXD
 70
     0
  9
$DIMSAH
 70
     0
  9
$DIMBLK1
  1

  9
$DIMBLK2
  1

  9
$DIMSTYLE
  2
ISO-25
  9
$DIMCLRD
 70
     0
  9
$DIMCLRE
 70
     0
  9
$DIMCLRT
 70
     0
  9
$DIMTFAC
 40
1.0
  9
$DIMGAP
 40
0.625
  9
$DIMJUST
 70
     0
  9
$DIMSD1
 70
     0
  9
$DIMSD2
 70
     0
  9
$DIMTOLJ
 70
     0
  9
$DIMTZIN
 70
     8
  9
$DIMALTZ
 70
     0
  9
$DIMALTTZ
 70
     0
  9
$DIMFIT
 70
     3
  9
$DIMUPT
 70
     0
  9
$DIMUNIT
 70
     2
  9
$DIMDEC
 70
     2
  9
$DIMTDEC
 70
     2
  9
$DIMALTU
 70
     2
  9
$DIMALTTD
 70
     3
  9
$DIMTXSTY
  7
STANDARD
  9
$DIMAUNIT
 70
     0
  9
$LUNITS
 70
     2
  9
$LUPREC
 70
     4
  9
$SKETCHINC
 40
1.0
  9
$FILLETRAD
 40
10.0
  9
$AUNITS
 70
     0
  9
$AUPREC
 70
     0
  9
$MENU
  1
.
  9
$ELEVATION
 40
0.0
  9
$PELEVATION
 40
0.0
  9
$THICKNESS
 40
0.0
  9
$LIMCHECK
 70
     0
  9
$CHAMFERA
 40
10.0
  9
$CHAMFERB
 40
10.0
  9
$CHAMFERC
 40
20.0
  9
$CHAMFERD
 40
0.0
  9
$SKPOLY
 70
     0
  9
$TDCREATE
 40
2457658.723261493
  9
$TDUPDATE
 40
2457658.723261678
  9
$TDINDWG
 40
0.0000000116
  9
$TDUSRTIMER
 40
0.0000000116
  9
$USRTIMER
 70
     1
  9
$ANGBASE
 50
0.0
  9
$ANGDIR
 70
     0
  9
$PDMODE
 70
     0
  9
$PDSIZE
 40
0.0
  9
$PLINEWID
 40
0.0
  9
$COORDS
 70
     1
  9
$SPLFRAME
 70
     0
  9
$SPLINETYPE
 70
     6
  9
$SPLINESEGS
 70
     8
  9
$ATTDIA
 70
     0
  9
$ATTREQ
 70
     1
  9
$HANDLING
 70
     1
  9
$HANDSEED
  5
64E
  9
$SURFTAB1
 70
     6
  9
$SURFTAB2
 70
     6
  9
$SURFTYPE
 70
     6
  9
$SURFU
 70
     6
  9
$SURFV
 70
     6
  9
$UCSNAME
  2

  9
$UCSORG
 10
0.0
 20
0.0
 30
0.0
  9
$UCSXDIR
 10
1.0
 20
0.0
 30
0.0
  9
$UCSYDIR
 10
0.0
 20
1.0
 30
0.0
  9
$PUCSNAME
  2

  9
$PUCSORG
 10
0.0
 20
0.0
 30
0.0
  9
$PUCSXDIR
 10
1.0
 20
0.0
 30
0.0
  9
$PUCSYDIR
 10
0.0
 20
1.0
 30
0.0
  9
$USERI1
 70
     0
  9
$USERI2
 70
     0
  9
$USERI3
 70
     0
  9
$USERI4
 70
     0
  9
$USERI5
 70
     0
  9
$USERR1
 40
0.0
  9
$USERR2
 40
0.0
  9
$USERR3
 40
0.0
  9
$USERR4
 40
0.0
  9
$USERR5
 40
0.0
  9
$WORLDVIEW
 70
     1
  9
$SHADEDGE
 70
     3
  9
$SHADEDIF
 70
    70
  9
$TILEMODE
 70
     1
  9
$MAXACTVP
 70
    64
  9
$PINSBASE
 10
0.0
 20
0.0
 30
0.0
  9
$PLIMCHECK
 70
     0
  9
$PEXTMIN
 10
1.000000000000000E+20
 20
1.000000000000000E+20
 30
1.000000000000000E+20
  9
$PEXTMAX
 10
-1.000000000000000E+20
 20
-1.000000000000000E+20
 30
-1.000000000000000E+20
  9
$PLIMMIN
 10
0.0
 20
0.0
  9
$PLIMMAX
 10
420.0
 20
297.0
  9
$UNITMODE
 70
     0
  9
$VISRETAIN
 70
     1
  9
$PLINEGEN
 70
     0
  9
$PSLTSCALE
 70
     1
  9
$TREEDEPTH
 70
  3020
  9
$PICKSTYLE
 70
     1
  9
$CMLSTYLE
  2
STANDARD
  9
$CMLJUST
 70
     0
  9
$CMLSCALE
 40
20.0
  9
$PROXYGRAPHICS
 70
     1
  9
$MEASUREMENT
 70
     1
  0
ENDSEC
  0
SECTION
  2
CLASSES
  0
CLASS
  1
ACDBDICTIONARYWDFLT
  2
AcDbDictionaryWithDefault
  3
ObjectDBX Classes
 90
        0
280
     0
281
     0
  0
CLASS
  1
VISUALSTYLE
  2
AcDbVisualStyle
  3
ObjectDBX Classes
 90
     4095
280
     0
281
     0
  0
CLASS
  1
MATERIAL
  2
AcDbMaterial
  3
ObjectDBX Classes
 90
     1153
280
     0
281
     0
  0
CLASS
  1
SUN
  2
AcDbSun
  3
SCENEOE
 90
     1024
280
     0
281
     0
  0
CLASS
  1
DICTIONARYVAR
  2
AcDbDictionaryVar
  3
ObjectDBX Classes
 90
        0
280
     0
281
     0
  0
CLASS
  1
XRECORD
  2
AcDbXrecord
  3
AutoCAD 2000
 90
        0
280
     0
281
     0
  0
CLASS
  1
LWPOLYLINE
  2
AcDbPolyline
  3
AutoCAD 2000
 90
        0
280
     0
281
     1
  0
CLASS
  1
HATCH
  2
AcDbHatch
  3
AutoCAD 2000
 90
        0
280
     0
281
     1
  0
CLASS
  1
ACDBPLACEHOLDER
  2
AcDbPlaceHolder
  3
ObjectDBX Classes
 90
        0
280
     0
281
     0
  0
CLASS
  1
LAYOUT
  2
AcDbLayout
  3
ObjectDBX Classes
 90
        0
280
     0
281
     0
  0
ENDSEC
  0
SECTION
  2
TABLES
  0
TABLE
  2
VPORT
  5
8
330
0
100
AcDbSymbolTable
 70
     1
  0
VPORT
  5
29
330
8
100
AcDbSymbolTableRecord
100
AcDbViewportTableRecord
  2
*ACTIVE
 70
     0
 10
0.0
 20
0.0
 11
1.0
 21
1.0
 12
1492.5
 22
2250.0
 13
0.0
 23
0.0
 14
10.0
 24
10.0
 15
10.0
 25
10.0
 16
0.0
 26
0.0
 36
1.0
 17
0.0
 27
0.0
 37
0.0
 40
4125.0
 41
0.7236363636363637
 42
50.0
 43
0.0
 44
0.0
 50
0.0
 51
0.0
 71
     0
 72
  1000
 73
     1
 74
     3
 75
     0
 76
     0
 77
     0
 78
     0
  0
ENDTAB
  0
TABLE
  2
LTYPE
  5
5
330
0
100
AcDbSymbolTable
 70
     7
  0
LTYPE
  5
14
330
5
100
AcDbSymbolTableRecord
100
AcDbLinetypeTableRecord
  2
BYBLOCK
 70
     0
  3

 72
    65
 73
     0
 40
0.0
  0
LTYPE
  5
15
330
5
100
AcDbSymbolTableRecord
100
AcDbLinetypeTableRecord
  2
BYLAYER
 70
     0
  3

 72
    65
 73
     0
 40
0.0
  0
LTYPE
  5
16
330
5
100
AcDbSymbolTableRecord
100
AcDbLinetypeTableRecord
  2
CONTINUOUS
 70
     0
  3
Solid line
 72
    65
 73
     0
 40
0.0
  0
LTYPE
  5
40
330
5
100
AcDbSymbolTableRecord
100
AcDbLinetypeTableRecord
  2
EXLTYPE1
 70
     0
  3
破線
 72
    65
 73
     2
 40
3.0
 49
2.0
 74
     0
 49
-1.0
 74
     0
  0
LTYPE
  5
41
330
5
100
AcDbSymbolTableRecord
100
AcDbLinetypeTableRecord
  2
EXLTYPE2
 70
     0
  3
点線
 72
    65
 73
     2
 40
2.0
 49
1.0
 74
     0
 49
-1.0
 74
     0
  0
LTYPE
  5
42
330
5
100
AcDbSymbolTableRecord
100
AcDbLinetypeTableRecord
  2
EXLTYPE3
 70
     0
  3
一点鎖線
 72
    65
 73
     4
 40
10.0
 49
7.0
 74
     0
 49
-1.0
 74
     0
 49
1.0
 74
     0
 49
-1.0
 74
     0
  0
LTYPE
  5
43
330
5
100
AcDbSymbolTableRecord
100
AcDbLinetypeTableRecord
  2
EXLTYPE4
 70
     0
  3
二点鎖線
 72
    65
 73
     6
 40
12.0
 49
7.0
 74
     0
 49
-1.0
 74
     0
 49
1.0
 74
     0
 49
-1.0
 74
     0
 49
1.0
 74
     0
 49
-1.0
 74
     0
  0
LTYPE
  5
44
330
5
100
AcDbSymbolTableRecord
100
AcDbLinetypeTableRecord
  2
EXLTYPE5
 70
     0
  3
三点鎖線
 72
    65
 73
     8
 40
37.0
 49
30.0
 74
     0
 49
-1.0
 74
     0
 49
1.0
 74
     0
 49
-1.0
 74
     0
 49
1.0
 74
     0
 49
-1.0
 74
     0
 49
1.0
 74
     0
 49
-1.0
 74
     0
  0
LTYPE
  5
45
330
5
100
AcDbSymbolTableRecord
100
AcDbLinetypeTableRecord
  2
EXLTYPE6
 70
     0
  3
四点鎖線
 72
    65
 73
    10
 40
39.0
 49
30.0
 74
     0
 49
-1.0
 74
     0
 49
1.0
 74
     0
 49
-1.0
 74
     0
 49
1.0
 74
     0
 49
-1.0
 74
     0
 49
1.0
 74
     0
 49
-1.0
 74
     0
 49
1.0
 74
     0
 49
-1.0
 74
     0
  0
ENDTAB
  0
TABLE
  2
LAYER
  5
2
330
0
100
AcDbSymbolTable
 70
     7
  0
LAYER
  5
10
330
2
100
AcDbSymbolTableRecord
100
AcDbLayerTableRecord
  2
0
 70
     0
 62
     7
  6
CONTINUOUS
  0
LAYER
  5
48
330
2
100
AcDbSymbolTableRecord
100
AcDbLayerTableRecord
  2
枠_表
 70
     0
 62
     7
  6
CONTINUOUS
  0
LAYER
  5
49
330
2
100
AcDbSymbolTableRecord
100
AcDbLayerTableRecord
  2
化粧台
 70
     0
 62
     7
  6
CONTINUOUS
  0
LAYER
  5
4A
330
2
100
AcDbSymbolTableRecord
100
AcDbLayerTableRecord
  2
鏡台
 70
     0
 62
     7
  6
CONTINUOUS
  0
LAYER
  5
4B
330
2
100
AcDbSymbolTableRecord
100
AcDbLayerTableRecord
  2
付属金具
 70
     0
 62
     7
  6
CONTINUOUS
  0
LAYER
  5
4C
330
2
100
AcDbSymbolTableRecord
100
AcDbLayerTableRecord
  2
寸法
 70
     0
 62
     7
  6
CONTINUOUS
  0
LAYER
  5
394
330
2
100
AcDbSymbolTableRecord
100
AcDbLayerTableRecord
  2
DEFPOINTS
 70
     0
 62
     7
  6
CONTINUOUS
  0
ENDTAB
  0
TABLE
  2
STYLE
  5
3
330
0
100
AcDbSymbolTable
 70
     5
  0
STYLE
  5
11
330
3
100
AcDbSymbolTableRecord
100
AcDbTextStyleTableRecord
  2
STANDARD
 70
     0
 40
0.0
 41
1.0
 50
0.0
 71
     0
 42
2.5
  3
monotxt
  4
extfont
  0
STYLE
  5
46
330
3
100
AcDbSymbolTableRecord
100
AcDbTextStyleTableRecord
  2
EXCADSTD
 70
     0
 40
0.0
 41
1.0
 50
0.0
 71
     0
 42
0.2
  3
monotxt
  4
extfont
  0
STYLE
  5
47
330
3
100
AcDbSymbolTableRecord
100
AcDbTextStyleTableRecord
  2
EXCADVERT
 70
     4
 40
0.0
 41
1.0
 50
0.0
 71
     0
 42
0.286885
  3
monotxt
  4
extfont
  0
STYLE
  5
D5
330
3
100
AcDbSymbolTableRecord
100
AcDbTextStyleTableRecord
  2
EXCADTTF1
 70
     0
 40
0.0
 41
1.0
 50
0.0
 71
     0
 42
0.2
  3
MSGOTHIC.TTC
  4

1001
ACAD
1000
MS Gothic
1071
    32817
  0
STYLE
  5
392
330
3
100
AcDbSymbolTableRecord
100
AcDbTextStyleTableRecord
  2
EXCADDIM1
 70
     0
 40
0.0
 41
0.84
 50
0.0
 71
     0
 42
0.2
  3
monotxt
  4
extfont
  0
ENDTAB
  0
TABLE
  2
VIEW
  5
6
330
0
100
AcDbSymbolTable
 70
     0
  0
ENDTAB
  0
TABLE
  2
UCS
  5
7
330
0
100
AcDbSymbolTable
 70
     0
  0
ENDTAB
  0
TABLE
  2
APPID
  5
9
330
0
100
AcDbSymbolTable
 70
     1
  0
APPID
  5
12
330
9
100
AcDbSymbolTableRecord
100
AcDbRegAppTableRecord
  2
ACAD
 70
     0
  0
ENDTAB
  0
TABLE
  2
DIMSTYLE
  5
A
330
0
100
AcDbSymbolTable
 70
     1
  0
DIMSTYLE
105
27
102
{ACAD_REACTORS
330
393
330
4D9
330
4E6
330
4F3
330
54D
330
55A
330
567
330
5A9
330
5B5
330
5C1
330
5CE
330
5E4
330
5F0
330
5FC
330
615
102
}
330
A
100
AcDbSymbolTableRecord
100
AcDbDimStyleTableRecord
  2
ISO-25
 70
     0
  3

  4

  5

  6

  7

 40
1.0
 41
2.5
 42
0.625
 43
3.75
 44
1.25
 45
0.0
 46
0.0
 47
0.0
 48
0.0
140
2.5
141
2.5
142
0.0
143
0.03937007874016
144
1.0
145
0.0
146
1.0
147
0.625
 71
     0
 72
     0
 73
     0
 74
     0
 75
     0
 76
     0
 77
     1
 78
     8
170
     0
171
     3
172
     1
173
     0
174
     0
175
     0
176
     0
177
     0
178
     0
270
     2
271
     2
272
     2
273
     2
274
     3
340
11
275
     0
280
     0
281
     0
282
     0
283
     0
284
     8
285
     0
286
     0
287
     5
288
     0
  0
ENDTAB
  0
TABLE
  2
BLOCK_RECORD
  5
1
330
0
100
AcDbSymbolTable
 70
    30
  0
BLOCK_RECORD
  5
1F
330
1
100
AcDbSymbolTableRecord
100
AcDbBlockTableRecord
  2
*MODEL_SPACE
  0
BLOCK_RECORD
  5
1B
330
1
100
AcDbSymbolTableRecord
100
AcDbBlockTableRecord
  2
*PAPER_SPACE
  0
BLOCK_RECORD
  5
4D
330
1
100
AcDbSymbolTableRecord
100
AcDbBlockTableRecord
  2
EX_NORM
  0
BLOCK_RECORD
  5
50
330
1
100
AcDbSymbolTableRecord
100
AcDbBlockTableRecord
  2
EX_BNORM
  0
BLOCK_RECORD
  5
53
330
1
100
AcDbSymbolTableRecord
100
AcDbBlockTableRecord
  2
EX_BCIR
  0
BLOCK_RECORD
  5
56
330
1
100
AcDbSymbolTableRecord
100
AcDbBlockTableRecord
  2
EX_RCIVIL
  0
BLOCK_RECORD
  5
59
330
1
100
AcDbSymbolTableRecord
100
AcDbBlockTableRecord
  2
EX_SLANT
  0
BLOCK_RECORD
  5
5C
330
1
100
AcDbSymbolTableRecord
100
AcDbBlockTableRecord
  2
EX_NONE
  0
BLOCK_RECORD
  5
5F
330
1
100
AcDbSymbolTableRecord
100
AcDbBlockTableRecord
  2
EX_CIVIL
  0
BLOCK_RECORD
  5
62
330
1
100
AcDbSymbolTableRecord
100
AcDbBlockTableRecord
  2
EX_WCIR
  0
BLOCK_RECORD
  5
65
330
1
100
AcDbSymbolTableRecord
100
AcDbBlockTableRecord
  2
EX_WCIR2
  0
BLOCK_RECORD
  5
68
330
1
100
AcDbSymbolTableRecord
100
AcDbBlockTableRecord
  2
EX_WNORM
  0
BLOCK_RECORD
  5
6B
330
1
100
AcDbSymbolTableRecord
100
AcDbBlockTableRecord
  2
EX_NNORM
  0
BLOCK_RECORD
  5
6E
330
1
100
AcDbSymbolTableRecord
100
AcDbBlockTableRecord
  2
EX_BBOX
  0
BLOCK_RECORD
  5
71
330
1
100
AcDbSymbolTableRecord
100
AcDbBlockTableRecord
  2
EX_WBOX
  0
BLOCK_RECORD
  5
74
330
1
100
AcDbSymbolTableRecord
100
AcDbBlockTableRecord
  2
EX_INTEGRAL
  0
BLOCK_RECORD
  5
395
330
1
100
AcDbSymbolTableRecord
100
AcDbBlockTableRecord
  2
*D15
  0
BLOCK_RECORD
  5
4DA
330
1
100
AcDbSymbolTableRecord
100
AcDbBlockTableRecord
  2
*D16
  0
BLOCK_RECORD
  5
4E7
330
1
100
AcDbSymbolTableRecord
100
AcDbBlockTableRecord
  2
*D17
  0
BLOCK_RECORD
  5
4F4
330
1
100
AcDbSymbolTableRecord
100
AcDbBlockTableRecord
  2
*D18
  0
BLOCK_RECORD
  5
54E
330
1
100
AcDbSymbolTableRecord
100
AcDbBlockTableRecord
  2
*D19
  0
BLOCK_RECORD
  5
55B
330
1
100
AcDbSymbolTableRecord
100
AcDbBlockTableRecord
  2
*D20
  0
BLOCK_RECORD
  5
568
330
1
100
AcDbSymbolTableRecord
100
AcDbBlockTableRecord
  2
*D21
  0
BLOCK_RECORD
  5
5AA
330
1
100
AcDbSymbolTableRecord
100
AcDbBlockTableRecord
  2
*D22
  0
BLOCK_RECORD
  5
5B6
330
1
100
AcDbSymbolTableRecord
100
AcDbBlockTableRecord
  2
*D23
  0
BLOCK_RECORD
  5
5C2
330
1
100
AcDbSymbolTableRecord
100
AcDbBlockTableRecord
  2
*D24
  0
BLOCK_RECORD
  5
5CF
330
1
100
AcDbSymbolTableRecord
100
AcDbBlockTableRecord
  2
*D25
  0
BLOCK_RECORD
  5
5E5
330
1
100
AcDbSymbolTableRecord
100
AcDbBlockTableRecord
  2
*D26
  0
BLOCK_RECORD
  5
5F1
330
1
100
AcDbSymbolTableRecord
100
AcDbBlockTableRecord
  2
*D27
  0
BLOCK_RECORD
  5
5FD
330
1
100
AcDbSymbolTableRecord
100
AcDbBlockTableRecord
  2
*D28
  0
BLOCK_RECORD
  5
616
330
1
100
AcDbSymbolTableRecord
100
AcDbBlockTableRecord
  2
*D29
  0
ENDTAB
  0
ENDSEC
  0
SECTION
  2
BLOCKS
  0
BLOCK
  5
20
330
1F
100
AcDbEntity
  8
0
100
AcDbBlockBegin
  2
*MODEL_SPACE
 70
     0
 10
0.0
 20
0.0
 30
0.0
  3
*MODEL_SPACE
  1

  0
ENDBLK
  5
21
330
1F
100
AcDbEntity
  8
0
100
AcDbBlockEnd
  0
BLOCK
  5
1C
330
1B
100
AcDbEntity
 67
     1
  8
0
100
AcDbBlockBegin
  2
*PAPER_SPACE
 70
     0
 10
0.0
 20
0.0
 30
0.0
  3
*PAPER_SPACE
  1

  0
ENDBLK
  5
1D
330
1B
100
AcDbEntity
 67
     1
  8
0
100
AcDbBlockEnd
  0
BLOCK
  5
4E
330
4D
100
AcDbEntity
  8
0
100
AcDbBlockBegin
  2
EX_NORM
 70
     0
 10
0.0
 20
0.0
 30
0.0
  3
EX_NORM
  1

  0
LINE
  5
77
330
4D
100
AcDbEntity
  8
0
  6
CONTINUOUS
 62
     0
100
AcDbLine
 10
0.0
 20
0.0
 30
0.0
 11
-1.0
 21
0.0
 31
0.0
  0
LINE
  5
78
330
4D
100
AcDbEntity
  8
0
  6
CONTINUOUS
 62
     0
100
AcDbLine
 10
0.0
 20
0.0
 30
0.0
 11
-1.0
 21
0.166666667
 31
0.0
  0
LINE
  5
79
330
4D
100
AcDbEntity
  8
0
  6
CONTINUOUS
 62
     0
100
AcDbLine
 10
0.0
 20
0.0
 30
0.0
 11
-1.0
 21
-0.166666667
 31
0.0
  0
ENDBLK
  5
4F
330
4D
100
AcDbEntity
  8
0
100
AcDbBlockEnd
  0
BLOCK
  5
51
330
50
100
AcDbEntity
  8
0
100
AcDbBlockBegin
  2
EX_BNORM
 70
     0
 10
0.0
 20
0.0
 30
0.0
  3
EX_BNORM
  1

  0
LINE
  5
7A
330
50
100
AcDbEntity
  8
0
  6
CONTINUOUS
 62
     0
100
AcDbLine
 10
0.0
 20
0.0
 30
0.0
 11
-1.0
 21
0.0
 31
0.0
  0
LINE
  5
7B
330
50
100
AcDbEntity
  8
0
  6
CONTINUOUS
 62
     0
100
AcDbLine
 10
0.0
 20
0.0
 30
0.0
 11
-1.0
 21
0.166666667
 31
0.0
  0
LINE
  5
7C
330
50
100
AcDbEntity
  8
0
  6
CONTINUOUS
 62
     0
100
AcDbLine
 10
0.0
 20
0.0
 30
0.0
 11
-1.0
 21
-0.166666667
 31
0.0
  0
LINE
  5
7D
330
50
100
AcDbEntity
  8
0
  6
CONTINUOUS
 62
     0
100
AcDbLine
 10
0.0
 20
0.0
 30
0.0
 11
-1.0
 21
0.083333333
 31
0.0
  0
LINE
  5
7E
330
50
100
AcDbEntity
  8
0
  6
CONTINUOUS
 62
     0
100
AcDbLine
 10
0.0
 20
0.0
 30
0.0
 11
-1.0
 21
-0.083333333
 31
0.0
  0
LINE
  5
7F
330
50
100
AcDbEntity
  8
0
  6
CONTINUOUS
 62
     0
100
AcDbLine
 10
-1.0
 20
0.166666667
 30
0.0
 11
-1.0
 21
-0.166666667
 31
0.0
  0
ENDBLK
  5
52
330
50
100
AcDbEntity
  8
0
100
AcDbBlockEnd
  0
BLOCK
  5
54
330
53
100
AcDbEntity
  8
0
100
AcDbBlockBegin
  2
EX_BCIR
 70
     0
 10
0.0
 20
0.0
 30
0.0
  3
EX_BCIR
  1

  0
LINE
  5
80
330
53
100
AcDbEntity
  8
0
  6
CONTINUOUS
 62
     0
100
AcDbLine
 10
0.0
 20
0.0
 30
0.0
 11
-1.0
 21
0.0
 31
0.0
  0
CIRCLE
  5
81
330
53
100
AcDbEntity
  8
0
  6
CONTINUOUS
 62
     0
100
AcDbCircle
 10
0.0
 20
0.0
 30
0.0
 40
0.5
  0
CIRCLE
  5
82
330
53
100
AcDbEntity
  8
0
  6
CONTINUOUS
 62
     0
100
AcDbCircle
 10
0.0
 20
0.0
 30
0.0
 40
0.25
  0
ENDBLK
  5
55
330
53
100
AcDbEntity
  8
0
100
AcDbBlockEnd
  0
BLOCK
  5
57
330
56
100
AcDbEntity
  8
0
100
AcDbBlockBegin
  2
EX_RCIVIL
 70
     0
 10
0.0
 20
0.0
 30
0.0
  3
EX_RCIVIL
  1

  0
LINE
  5
83
330
56
100
AcDbEntity
  8
0
  6
CONTINUOUS
 62
     0
100
AcDbLine
 10
0.0
 20
0.0
 30
0.0
 11
-1.0
 21
0.0
 31
0.0
  0
LINE
  5
84
330
56
100
AcDbEntity
  8
0
  6
CONTINUOUS
 62
     0
100
AcDbLine
 10
-1.0
 20
-0.25
 30
0.0
 11
0.0
 21
-0.25
 31
0.0
  0
LINE
  5
85
330
56
100
AcDbEntity
  8
0
  6
CONTINUOUS
 62
     0
100
AcDbLine
 10
-1.0
 20
-0.125
 30
0.0
 11
0.0
 21
-0.125
 31
0.0
  0
ENDBLK
  5
58
330
56
100
AcDbEntity
  8
0
100
AcDbBlockEnd
  0
BLOCK
  5
5A
330
59
100
AcDbEntity
  8
0
100
AcDbBlockBegin
  2
EX_SLANT
 70
     0
 10
0.0
 20
0.0
 30
0.0
  3
EX_SLANT
  1

  0
LINE
  5
86
330
59
100
AcDbEntity
  8
0
  6
CONTINUOUS
 62
     0
100
AcDbLine
 10
0.0
 20
0.0
 30
0.0
 11
-1.0
 21
0.0
 31
0.0
  0
LINE
  5
87
330
59
100
AcDbEntity
  8
0
  6
CONTINUOUS
 62
     0
100
AcDbLine
 10
0.707106781
 20
0.707106781
 30
0.0
 11
-0.707106781
 21
-0.707106781
 31
0.0
  0
ENDBLK
  5
5B
330
59
100
AcDbEntity
  8
0
100
AcDbBlockEnd
  0
BLOCK
  5
5D
330
5C
100
AcDbEntity
  8
0
100
AcDbBlockBegin
  2
EX_NONE
 70
     0
 10
0.0
 20
0.0
 30
0.0
  3
EX_NONE
  1

  0
LINE
  5
88
330
5C
100
AcDbEntity
  8
0
  6
CONTINUOUS
 62
     0
100
AcDbLine
 10
0.0
 20
0.0
 30
0.0
 11
-1.0
 21
0.0
 31
0.0
  0
ENDBLK
  5
5E
330
5C
100
AcDbEntity
  8
0
100
AcDbBlockEnd
  0
BLOCK
  5
60
330
5F
100
AcDbEntity
  8
0
100
AcDbBlockBegin
  2
EX_CIVIL
 70
     0
 10
0.0
 20
0.0
 30
0.0
  3
EX_CIVIL
  1

  0
LINE
  5
89
330
5F
100
AcDbEntity
  8
0
  6
CONTINUOUS
 62
     0
100
AcDbLine
 10
0.0
 20
0.0
 30
0.0
 11
-1.0
 21
0.0
 31
0.0
  0
LINE
  5
8A
330
5F
100
AcDbEntity
  8
0
  6
CONTINUOUS
 62
     0
100
AcDbLine
 10
-1.0
 20
0.25
 30
0.0
 11
0.0
 21
0.25
 31
0.0
  0
LINE
  5
8B
330
5F
100
AcDbEntity
  8
0
  6
CONTINUOUS
 62
     0
100
AcDbLine
 10
-1.0
 20
0.125
 30
0.0
 11
0.0
 21
0.125
 31
0.0
  0
ENDBLK
  5
61
330
5F
100
AcDbEntity
  8
0
100
AcDbBlockEnd
  0
BLOCK
  5
63
330
62
100
AcDbEntity
  8
0
100
AcDbBlockBegin
  2
EX_WCIR
 70
     0
 10
0.0
 20
0.0
 30
0.0
  3
EX_WCIR
  1

  0
LINE
  5
8C
330
62
100
AcDbEntity
  8
0
  6
CONTINUOUS
 62
     0
100
AcDbLine
 10
0.0
 20
0.0
 30
0.0
 11
-1.0
 21
0.0
 31
0.0
  0
CIRCLE
  5
8D
330
62
100
AcDbEntity
  8
0
  6
CONTINUOUS
 62
     0
100
AcDbCircle
 10
0.0
 20
0.0
 30
0.0
 40
0.5
  0
ENDBLK
  5
64
330
62
100
AcDbEntity
  8
0
100
AcDbBlockEnd
  0
BLOCK
  5
66
330
65
100
AcDbEntity
  8
0
100
AcDbBlockBegin
  2
EX_WCIR2
 70
     0
 10
0.0
 20
0.0
 30
0.0
  3
EX_WCIR2
  1

  0
LINE
  5
8E
330
65
100
AcDbEntity
  8
0
  6
CONTINUOUS
 62
     0
100
AcDbLine
 10
-0.5
 20
0.0
 30
0.0
 11
-1.0
 21
0.0
 31
0.0
  0
CIRCLE
  5
8F
330
65
100
AcDbEntity
  8
0
  6
CONTINUOUS
 62
     0
100
AcDbCircle
 10
0.0
 20
0.0
 30
0.0
 40
0.5
  0
ENDBLK
  5
67
330
65
100
AcDbEntity
  8
0
100
AcDbBlockEnd
  0
BLOCK
  5
69
330
68
100
AcDbEntity
  8
0
100
AcDbBlockBegin
  2
EX_WNORM
 70
     0
 10
0.0
 20
0.0
 30
0.0
  3
EX_WNORM
  1

  0
LINE
  5
90
330
68
100
AcDbEntity
  8
0
  6
CONTINUOUS
 62
     0
100
AcDbLine
 10
-1.0
 20
0.0
 30
0.0
 11
-1.0
 21
0.0
 31
0.0
  0
LINE
  5
91
330
68
100
AcDbEntity
  8
0
  6
CONTINUOUS
 62
     0
100
AcDbLine
 10
0.0
 20
0.0
 30
0.0
 11
-1.0
 21
0.166666667
 31
0.0
  0
LINE
  5
92
330
68
100
AcDbEntity
  8
0
  6
CONTINUOUS
 62
     0
100
AcDbLine
 10
0.0
 20
0.0
 30
0.0
 11
-1.0
 21
-0.166666667
 31
0.0
  0
LINE
  5
93
330
68
100
AcDbEntity
  8
0
  6
CONTINUOUS
 62
     0
100
AcDbLine
 10
-1.0
 20
0.166666667
 30
0.0
 11
-1.0
 21
-0.166666667
 31
0.0
  0
ENDBLK
  5
6A
330
68
100
AcDbEntity
  8
0
100
AcDbBlockEnd
  0
BLOCK
  5
6C
330
6B
100
AcDbEntity
  8
0
100
AcDbBlockBegin
  2
EX_NNORM
 70
     0
 10
0.0
 20
0.0
 30
0.0
  3
EX_NNORM
  1

  0
LINE
  5
94
330
6B
100
AcDbEntity
  8
0
  6
CONTINUOUS
 62
     0
100
AcDbLine
 10
0.0
 20
0.0
 30
0.0
 11
-1.0
 21
0.0
 31
0.0
  0
LINE
  5
95
330
6B
100
AcDbEntity
  8
0
  6
CONTINUOUS
 62
     0
100
AcDbLine
 10
0.0
 20
0.0
 30
0.0
 11
-1.0
 21
0.166666667
 31
0.0
  0
LINE
  5
96
330
6B
100
AcDbEntity
  8
0
  6
CONTINUOUS
 62
     0
100
AcDbLine
 10
0.0
 20
0.0
 30
0.0
 11
-1.0
 21
-0.166666667
 31
0.0
  0
LINE
  5
97
330
6B
100
AcDbEntity
  8
0
  6
CONTINUOUS
 62
     0
100
AcDbLine
 10
-1.0
 20
0.166666667
 30
0.0
 11
-1.0
 21
-0.166666667
 31
0.0
  0
ENDBLK
  5
6D
330
6B
100
AcDbEntity
  8
0
100
AcDbBlockEnd
  0
BLOCK
  5
6F
330
6E
100
AcDbEntity
  8
0
100
AcDbBlockBegin
  2
EX_BBOX
 70
     0
 10
0.0
 20
0.0
 30
0.0
  3
EX_BBOX
  1

  0
LINE
  5
98
330
6E
100
AcDbEntity
  8
0
  6
CONTINUOUS
 62
     0
100
AcDbLine
 10
0.0
 20
0.0
 30
0.0
 11
-1.0
 21
0.0
 31
0.0
  0
LINE
  5
99
330
6E
100
AcDbEntity
  8
0
  6
CONTINUOUS
 62
     0
100
AcDbLine
 10
-0.5
 20
0.5
 30
0.0
 11
0.5
 21
0.5
 31
0.0
  0
LINE
  5
9A
330
6E
100
AcDbEntity
  8
0
  6
CONTINUOUS
 62
     0
100
AcDbLine
 10
0.5
 20
0.5
 30
0.0
 11
0.5
 21
-0.5
 31
0.0
  0
LINE
  5
9B
330
6E
100
AcDbEntity
  8
0
  6
CONTINUOUS
 62
     0
100
AcDbLine
 10
0.5
 20
-0.5
 30
0.0
 11
-0.5
 21
-0.5
 31
0.0
  0
LINE
  5
9C
330
6E
100
AcDbEntity
  8
0
  6
CONTINUOUS
 62
     0
100
AcDbLine
 10
-0.5
 20
-0.5
 30
0.0
 11
-0.5
 21
0.5
 31
0.0
  0
LINE
  5
9D
330
6E
100
AcDbEntity
  8
0
  6
CONTINUOUS
 62
     0
100
AcDbLine
 10
-0.25
 20
0.25
 30
0.0
 11
0.25
 21
0.25
 31
0.0
  0
LINE
  5
9E
330
6E
100
AcDbEntity
  8
0
  6
CONTINUOUS
 62
     0
100
AcDbLine
 10
0.25
 20
0.25
 30
0.0
 11
0.25
 21
-0.25
 31
0.0
  0
LINE
  5
9F
330
6E
100
AcDbEntity
  8
0
  6
CONTINUOUS
 62
     0
100
AcDbLine
 10
0.25
 20
-0.25
 30
0.0
 11
-0.25
 21
-0.25
 31
0.0
  0
LINE
  5
A0
330
6E
100
AcDbEntity
  8
0
  6
CONTINUOUS
 62
     0
100
AcDbLine
 10
-0.25
 20
-0.25
 30
0.0
 11
-0.25
 21
0.25
 31
0.0
  0
ENDBLK
  5
70
330
6E
100
AcDbEntity
  8
0
100
AcDbBlockEnd
  0
BLOCK
  5
72
330
71
100
AcDbEntity
  8
0
100
AcDbBlockBegin
  2
EX_WBOX
 70
     0
 10
0.0
 20
0.0
 30
0.0
  3
EX_WBOX
  1

  0
LINE
  5
A1
330
71
100
AcDbEntity
  8
0
  6
CONTINUOUS
 62
     0
100
AcDbLine
 10
-0.5
 20
0.0
 30
0.0
 11
-1.0
 21
0.0
 31
0.0
  0
LINE
  5
A2
330
71
100
AcDbEntity
  8
0
  6
CONTINUOUS
 62
     0
100
AcDbLine
 10
-0.5
 20
0.5
 30
0.0
 11
0.5
 21
0.5
 31
0.0
  0
LINE
  5
A3
330
71
100
AcDbEntity
  8
0
  6
CONTINUOUS
 62
     0
100
AcDbLine
 10
0.5
 20
0.5
 30
0.0
 11
0.5
 21
-0.5
 31
0.0
  0
LINE
  5
A4
330
71
100
AcDbEntity
  8
0
  6
CONTINUOUS
 62
     0
100
AcDbLine
 10
0.5
 20
-0.5
 30
0.0
 11
-0.5
 21
-0.5
 31
0.0
  0
LINE
  5
A5
330
71
100
AcDbEntity
  8
0
  6
CONTINUOUS
 62
     0
100
AcDbLine
 10
-0.5
 20
-0.5
 30
0.0
 11
-0.5
 21
0.5
 31
0.0
  0
ENDBLK
  5
73
330
71
100
AcDbEntity
  8
0
100
AcDbBlockEnd
  0
BLOCK
  5
75
330
74
100
AcDbEntity
  8
0
100
AcDbBlockBegin
  2
EX_INTEGRAL
 70
     0
 10
0.0
 20
0.0
 30
0.0
  3
EX_INTEGRAL
  1

  0
LINE
  5
A6
330
74
100
AcDbEntity
  8
0
  6
CONTINUOUS
 62
     0
100
AcDbLine
 10
0.0
 20
0.0
 30
0.0
 11
-1.0
 21
0.0
 31
0.0
  0
ARC
  5
A7
330
74
100
AcDbEntity
  8
0
  6
CONTINUOUS
 62
     0
100
AcDbCircle
 10
0.542115
 20
0.164992
 30
0.0
 40
0.56667
100
AcDbArc
 50
73.07249033629006
 51
196.9275130221199
  0
ARC
  5
A8
330
74
100
AcDbEntity
  8
0
  6
CONTINUOUS
 62
     0
100
AcDbCircle
 10
-0.542115
 20
-0.164992
 30
0.0
 40
0.56667
100
AcDbArc
 50
253.0724869220464
 51
16.9275130559125
  0
ENDBLK
  5
76
330
74
100
AcDbEntity
  8
0
100
AcDbBlockEnd
  0
BLOCK
  5
396
330
395
100
AcDbEntity
  8
0
100
AcDbBlockBegin
  2
*D15
 70
     1
 10
0.0
 20
0.0
 30
0.0
  3
*D15
  1

  0
LINE
  5
398
330
395
100
AcDbEntity
  8
化粧台
  6
CONTINUOUS
 62
     3
100
AcDbLine
 10
2445.499999821186
 20
1017.5
 30
0.0
 11
2968.5
 21
1017.5
 31
0.0
  0
LINE
  5
399
330
395
100
AcDbEntity
  8
化粧台
  6
CONTINUOUS
 62
     3
100
AcDbLine
 10
2486.299999820986
 20
2331.3
 30
0.0
 11
2968.5
 21
2331.3
 31
0.0
  0
LINE
  5
39A
330
395
100
AcDbEntity
  8
化粧台
  6
CONTINUOUS
 62
     3
100
AcDbLine
 10
2953.5
 20
1062.499996185303
 30
0.0
 11
2953.5
 21
2286.300003814697
 31
0.0
  0
INSERT
  5
39B
330
395
100
AcDbEntity
  8
化粧台
 62
     3
100
AcDbBlockReference
  2
EX_NORM
 10
2953.5
 20
1017.5
 30
0.0
 41
44.99999618530273
 42
44.99999618530273
 43
44.99999618530273
 50
270.0
  0
INSERT
  5
39C
330
395
100
AcDbEntity
  8
化粧台
 62
     3
100
AcDbBlockReference
  2
EX_NORM
 10
2953.5
 20
2331.3
 30
0.0
 41
44.99999618530273
 42
44.99999618530273
 43
44.99999618530273
 50
90.0
  0
MTEXT
  5
39D
330
395
100
AcDbEntity
  8
化粧台
 62
     2
100
AcDbMText
 10
2916.0
 20
1674.4
 30
0.0
 40
59.99999618530273
 41
0.0
 71
     5
 72
     1
  1
（1315）
  7
EXCADDIM1
 11
0.0
 21
1.0
 31
0.0
  0
POINT
  5
39E
330
395
100
AcDbEntity
  8
DEFPOINTS
 62
     0
100
AcDbPoint
 10
2435.0
 20
1017.5
 30
0.0
  0
POINT
  5
39F
330
395
100
AcDbEntity
  8
DEFPOINTS
 62
     0
100
AcDbPoint
 10
2475.7999999998
 20
2331.3
 30
0.0
  0
POINT
  5
3A0
330
395
100
AcDbEntity
  8
DEFPOINTS
 62
     0
100
AcDbPoint
 10
2953.5
 20
2331.3
 30
0.0
  0
ENDBLK
  5
397
330
395
100
AcDbEntity
  8
0
100
AcDbBlockEnd
  0
BLOCK
  5
4DB
330
4DA
100
AcDbEntity
  8
0
100
AcDbBlockBegin
  2
*D16
 70
     1
 10
0.0
 20
0.0
 30
0.0
  3
*D16
  1

  0
LINE
  5
4DD
330
4DA
100
AcDbEntity
  8
鏡台
  6
CONTINUOUS
 62
     3
100
AcDbLine
 10
680.0
 20
2776.799999821186
 30
0.0
 11
680.0
 21
2922.5
 31
0.0
  0
LINE
  5
4DE
330
4DA
100
AcDbEntity
  8
鏡台
  6
CONTINUOUS
 62
     3
100
AcDbLine
 10
1130.0
 20
2776.799999821186
 30
0.0
 11
1130.0
 21
2922.5
 31
0.0
  0
LINE
  5
4DF
330
4DA
100
AcDbEntity
  8
鏡台
  6
CONTINUOUS
 62
     3
100
AcDbLine
 10
724.9999961853027
 20
2907.5
 30
0.0
 11
1085.000003814697
 21
2907.5
 31
0.0
  0
INSERT
  5
4E0
330
4DA
100
AcDbEntity
  8
鏡台
 62
     3
100
AcDbBlockReference
  2
EX_NORM
 10
680.0
 20
2907.5
 30
0.0
 41
44.99999618530273
 42
44.99999618530273
 43
44.99999618530273
 50
180.0
  0
INSERT
  5
4E1
330
4DA
100
AcDbEntity
  8
鏡台
 62
     3
100
AcDbBlockReference
  2
EX_NORM
 10
1130.0
 20
2907.5
 30
0.0
 41
44.99999618530273
 42
44.99999618530273
 43
44.99999618530273
  0
MTEXT
  5
4E2
330
4DA
100
AcDbEntity
  8
鏡台
 62
     2
100
AcDbMText
 10
905.0
 20
2942.749999910593
 30
0.0
 40
59.99999618530273
 41
0.0
 71
     5
 72
     1
  1
450
  7
EXCADDIM1
  0
POINT
  5
4E3
330
4DA
100
AcDbEntity
  8
DEFPOINTS
 62
     0
100
AcDbPoint
 10
680.0
 20
2766.3
 30
0.0
  0
POINT
  5
4E4
330
4DA
100
AcDbEntity
  8
DEFPOINTS
 62
     0
100
AcDbPoint
 10
1130.0
 20
2766.3
 30
0.0
  0
POINT
  5
4E5
330
4DA
100
AcDbEntity
  8
DEFPOINTS
 62
     0
100
AcDbPoint
 10
1130.0
 20
2907.5
 30
0.0
  0
ENDBLK
  5
4DC
330
4DA
100
AcDbEntity
  8
0
100
AcDbBlockEnd
  0
BLOCK
  5
4E8
330
4E7
100
AcDbEntity
  8
0
100
AcDbBlockBegin
  2
*D17
 70
     1
 10
0.0
 20
0.0
 30
0.0
  3
*D17
  1

  0
LINE
  5
4EA
330
4E7
100
AcDbEntity
  8
鏡台
  6
CONTINUOUS
 62
     3
100
AcDbLine
 10
1138.999999821186
 20
2265.099999999999
 30
0.0
 11
1474.999999999996
 21
2265.099999999999
 31
0.0
  0
LINE
  5
4EB
330
4E7
100
AcDbEntity
  8
鏡台
  6
CONTINUOUS
 62
     3
100
AcDbLine
 10
1138.999999821186
 20
2767.5
 30
0.0
 11
1474.999999999996
 21
2767.5
 31
0.0
  0
LINE
  5
4EC
330
4E7
100
AcDbEntity
  8
鏡台
  6
CONTINUOUS
 62
     3
100
AcDbLine
 10
1459.999999999996
 20
2310.099996185302
 30
0.0
 11
1459.999999999996
 21
2722.500003814697
 31
0.0
  0
INSERT
  5
4ED
330
4E7
100
AcDbEntity
  8
鏡台
 62
     3
100
AcDbBlockReference
  2
EX_NORM
 10
1459.999999999996
 20
2265.099999999999
 30
0.0
 41
44.99999618530273
 42
44.99999618530273
 43
44.99999618530273
 50
270.0
  0
INSERT
  5
4EE
330
4E7
100
AcDbEntity
  8
鏡台
 62
     3
100
AcDbBlockReference
  2
EX_NORM
 10
1459.999999999996
 20
2767.5
 30
0.0
 41
44.99999618530273
 42
44.99999618530273
 43
44.99999618530273
 50
90.0
  0
MTEXT
  5
4EF
330
4E7
100
AcDbEntity
  8
鏡台
 62
     2
100
AcDbMText
 10
1424.750000089404
 20
2516.299999999998
 30
0.0
 40
59.99999618530273
 41
0.0
 71
     5
 72
     1
  1
503
  7
EXCADDIM1
 11
0.0
 21
1.0
 31
0.0
  0
POINT
  5
4F0
330
4E7
100
AcDbEntity
  8
DEFPOINTS
 62
     0
100
AcDbPoint
 10
1128.5
 20
2265.099999999999
 30
0.0
  0
POINT
  5
4F1
330
4E7
100
AcDbEntity
  8
DEFPOINTS
 62
     0
100
AcDbPoint
 10
1128.5
 20
2767.5
 30
0.0
  0
POINT
  5
4F2
330
4E7
100
AcDbEntity
  8
DEFPOINTS
 62
     0
100
AcDbPoint
 10
1459.999999999996
 20
2767.5
 30
0.0
  0
ENDBLK
  5
4E9
330
4E7
100
AcDbEntity
  8
0
100
AcDbBlockEnd
  0
BLOCK
  5
4F5
330
4F4
100
AcDbEntity
  8
0
100
AcDbBlockBegin
  2
*D18
 70
     1
 10
0.0
 20
0.0
 30
0.0
  3
*D18
  1

  0
LINE
  5
4F7
330
4F4
100
AcDbEntity
  8
鏡台
  6
CONTINUOUS
 62
     3
100
AcDbLine
 10
755.0000000000002
 20
2729.799999821186
 30
0.0
 11
755.0000000000002
 21
2842.5
 31
0.0
  0
LINE
  5
4F8
330
4F4
100
AcDbEntity
  8
鏡台
  6
CONTINUOUS
 62
     3
100
AcDbLine
 10
1055.0
 20
2729.799999821186
 30
0.0
 11
1055.0
 21
2842.5
 31
0.0
  0
LINE
  5
4F9
330
4F4
100
AcDbEntity
  8
鏡台
  6
CONTINUOUS
 62
     3
100
AcDbLine
 10
799.999996185303
 20
2827.5
 30
0.0
 11
1010.000003814697
 21
2827.5
 31
0.0
  0
INSERT
  5
4FA
330
4F4
100
AcDbEntity
  8
鏡台
 62
     3
100
AcDbBlockReference
  2
EX_NORM
 10
755.0000000000002
 20
2827.5
 30
0.0
 41
44.99999618530273
 42
44.99999618530273
 43
44.99999618530273
 50
180.0
  0
INSERT
  5
4FB
330
4F4
100
AcDbEntity
  8
鏡台
 62
     3
100
AcDbBlockReference
  2
EX_NORM
 10
1055.0
 20
2827.5
 30
0.0
 41
44.99999618530273
 42
44.99999618530273
 43
44.99999618530273
  0
MTEXT
  5
4FC
330
4F4
100
AcDbEntity
  8
鏡台
 62
     2
100
AcDbMText
 10
905.0000000000005
 20
2862.749999910593
 30
0.0
 40
59.99999618530273
 41
0.0
 71
     5
 72
     1
  1
300（壁固定）
  7
EXCADDIM1
  0
POINT
  5
4FD
330
4F4
100
AcDbEntity
  8
DEFPOINTS
 62
     0
100
AcDbPoint
 10
755.0000000000002
 20
2719.3
 30
0.0
  0
POINT
  5
4FE
330
4F4
100
AcDbEntity
  8
DEFPOINTS
 62
     0
100
AcDbPoint
 10
1055.0
 20
2719.3
 30
0.0
  0
POINT
  5
4FF
330
4F4
100
AcDbEntity
  8
DEFPOINTS
 62
     0
100
AcDbPoint
 10
1055.0
 20
2827.5
 30
0.0
  0
ENDBLK
  5
4F6
330
4F4
100
AcDbEntity
  8
0
100
AcDbBlockEnd
  0
BLOCK
  5
54F
330
54E
100
AcDbEntity
  8
0
100
AcDbBlockBegin
  2
*D19
 70
     1
 10
0.0
 20
0.0
 30
0.0
  3
*D19
  1

  0
LINE
  5
551
330
54E
100
AcDbEntity
  8
鏡台
  6
CONTINUOUS
 62
     3
100
AcDbLine
 10
2313.8
 20
2777.999999821186
 30
0.0
 11
2313.8
 21
2842.5
 31
0.0
  0
LINE
  5
552
330
54E
100
AcDbEntity
  8
鏡台
  6
CONTINUOUS
 62
     3
100
AcDbLine
 10
2435.0
 20
2771.799999821186
 30
0.0
 11
2435.0
 21
2842.5
 31
0.0
  0
LINE
  5
553
330
54E
100
AcDbEntity
  8
鏡台
  6
CONTINUOUS
 62
     3
100
AcDbLine
 10
2358.799996185303
 20
2827.5
 30
0.0
 11
2390.000003814697
 21
2827.5
 31
0.0
  0
INSERT
  5
554
330
54E
100
AcDbEntity
  8
鏡台
 62
     3
100
AcDbBlockReference
  2
EX_NORM
 10
2313.8
 20
2827.5
 30
0.0
 41
44.99999618530273
 42
44.99999618530273
 43
44.99999618530273
 50
180.0
  0
INSERT
  5
555
330
54E
100
AcDbEntity
  8
鏡台
 62
     3
100
AcDbBlockReference
  2
EX_NORM
 10
2435.0
 20
2827.5
 30
0.0
 41
44.99999618530273
 42
44.99999618530273
 43
44.99999618530273
  0
MTEXT
  5
556
330
54E
100
AcDbEntity
  8
鏡台
 62
     2
100
AcDbMText
 10
2374.4
 20
2862.749999910593
 30
0.0
 40
59.99999618530273
 41
0.0
 71
     5
 72
     1
  1
122
  7
EXCADDIM1
  0
POINT
  5
557
330
54E
100
AcDbEntity
  8
DEFPOINTS
 62
     0
100
AcDbPoint
 10
2313.8
 20
2767.5
 30
0.0
  0
POINT
  5
558
330
54E
100
AcDbEntity
  8
DEFPOINTS
 62
     0
100
AcDbPoint
 10
2435.0
 20
2761.3
 30
0.0
  0
POINT
  5
559
330
54E
100
AcDbEntity
  8
DEFPOINTS
 62
     0
100
AcDbPoint
 10
2435.0
 20
2827.5
 30
0.0
  0
ENDBLK
  5
550
330
54E
100
AcDbEntity
  8
0
100
AcDbBlockEnd
  0
BLOCK
  5
55C
330
55B
100
AcDbEntity
  8
0
100
AcDbBlockBegin
  2
*D20
 70
     1
 10
0.0
 20
0.0
 30
0.0
  3
*D20
  1

  0
LINE
  5
55E
330
55B
100
AcDbEntity
  8
鏡台
  6
CONTINUOUS
 62
     3
100
AcDbLine
 10
2478.699999821187
 20
2331.3
 30
0.0
 11
2968.499999999998
 21
2331.3
 31
0.0
  0
LINE
  5
55F
330
55B
100
AcDbEntity
  8
鏡台
  6
CONTINUOUS
 62
     3
100
AcDbLine
 10
2478.699999821187
 20
2711.3
 30
0.0
 11
2968.499999999998
 21
2711.3
 31
0.0
  0
LINE
  5
560
330
55B
100
AcDbEntity
  8
鏡台
  6
CONTINUOUS
 62
     3
100
AcDbLine
 10
2953.499999999999
 20
2376.299996185303
 30
0.0
 11
2953.499999999999
 21
2666.300003814697
 31
0.0
  0
INSERT
  5
561
330
55B
100
AcDbEntity
  8
鏡台
 62
     3
100
AcDbBlockReference
  2
EX_NORM
 10
2953.499999999999
 20
2331.3
 30
0.0
 41
44.99999618530273
 42
44.99999618530273
 43
44.99999618530273
 50
270.0
  0
INSERT
  5
562
330
55B
100
AcDbEntity
  8
鏡台
 62
     3
100
AcDbBlockReference
  2
EX_NORM
 10
2953.499999999999
 20
2711.3
 30
0.0
 41
44.99999618530273
 42
44.99999618530273
 43
44.99999618530273
 50
90.0
  0
MTEXT
  5
563
330
55B
100
AcDbEntity
  8
鏡台
 62
     2
100
AcDbMText
 10
2918.250000089406
 20
2521.299999999994
 30
0.0
 40
59.99999618530273
 41
0.0
 71
     5
 72
     1
  1
380（壁固定）
  7
EXCADDIM1
 11
0.0
 21
1.0
 31
0.0
  0
POINT
  5
564
330
55B
100
AcDbEntity
  8
DEFPOINTS
 62
     0
100
AcDbPoint
 10
2468.200000000001
 20
2331.3
 30
0.0
  0
POINT
  5
565
330
55B
100
AcDbEntity
  8
DEFPOINTS
 62
     0
100
AcDbPoint
 10
2468.200000000001
 20
2711.3
 30
0.0
  0
POINT
  5
566
330
55B
100
AcDbEntity
  8
DEFPOINTS
 62
     0
100
AcDbPoint
 10
2953.499999999999
 20
2711.3
 30
0.0
  0
ENDBLK
  5
55D
330
55B
100
AcDbEntity
  8
0
100
AcDbBlockEnd
  0
BLOCK
  5
569
330
568
100
AcDbEntity
  8
0
100
AcDbBlockBegin
  2
*D21
 70
     1
 10
0.0
 20
0.0
 30
0.0
  3
*D21
  1

  0
LINE
  5
56B
330
568
100
AcDbEntity
  8
鏡台
  6
CONTINUOUS
 62
     3
100
AcDbLine
 10
2478.699999821187
 20
2711.3
 30
0.0
 11
2968.499999999999
 21
2711.3
 31
0.0
  0
LINE
  5
56C
330
568
100
AcDbEntity
  8
鏡台
  6
CONTINUOUS
 62
     3
100
AcDbLine
 10
2344.299999821186
 20
2767.5
 30
0.0
 11
2968.499999999999
 21
2767.5
 31
0.0
  0
LINE
  5
56D
330
568
100
AcDbEntity
  8
鏡台
  6
CONTINUOUS
 62
     3
100
AcDbLine
 10
2953.499999999999
 20
2711.3
 30
0.0
 11
2953.499999999999
 21
2767.5
 31
0.0
  0
LINE
  5
56E
330
568
100
AcDbEntity
  8
鏡台
  6
CONTINUOUS
 62
     3
100
AcDbLine
 10
2953.499999999999
 20
2666.300003814697
 30
0.0
 11
2953.499999999999
 21
2621.300007629395
 31
0.0
  0
LINE
  5
56F
330
568
100
AcDbEntity
  8
鏡台
  6
CONTINUOUS
 62
     3
100
AcDbLine
 10
2953.499999999999
 20
2812.499996185303
 30
0.0
 11
2953.499999999999
 21
2857.499992370605
 31
0.0
  0
INSERT
  5
570
330
568
100
AcDbEntity
  8
鏡台
 62
     3
100
AcDbBlockReference
  2
EX_NORM
 10
2953.499999999999
 20
2711.3
 30
0.0
 41
44.99999618530273
 42
44.99999618530273
 43
44.99999618530273
 50
90.0
  0
INSERT
  5
571
330
568
100
AcDbEntity
  8
鏡台
 62
     3
100
AcDbBlockReference
  2
EX_NORM
 10
2953.499999999999
 20
2767.5
 30
0.0
 41
44.99999618530273
 42
44.99999618530273
 43
44.99999618530273
 50
270.0
  0
MTEXT
  5
572
330
568
100
AcDbEntity
  8
鏡台
 62
     2
100
AcDbMText
 10
2918.250000089405
 20
2864.999999999993
 30
0.0
 40
59.99999618530273
 41
0.0
 71
     5
 72
     1
  1
56
  7
EXCADDIM1
 11
0.0
 21
1.0
 31
0.0
  0
POINT
  5
573
330
568
100
AcDbEntity
  8
DEFPOINTS
 62
     0
100
AcDbPoint
 10
2468.200000000001
 20
2711.3
 30
0.0
  0
POINT
  5
574
330
568
100
AcDbEntity
  8
DEFPOINTS
 62
     0
100
AcDbPoint
 10
2333.8
 20
2767.5
 30
0.0
  0
POINT
  5
575
330
568
100
AcDbEntity
  8
DEFPOINTS
 62
     0
100
AcDbPoint
 10
2953.499999999999
 20
2767.5
 30
0.0
  0
ENDBLK
  5
56A
330
568
100
AcDbEntity
  8
0
100
AcDbBlockEnd
  0
BLOCK
  5
5AB
330
5AA
100
AcDbEntity
  8
0
100
AcDbBlockBegin
  2
*D22
 70
     1
 10
0.0
 20
0.0
 30
0.0
  3
*D22
  1

  0
LINE
  5
5AD
330
5AA
100
AcDbEntity
  8
寸法
  6
CONTINUOUS
 62
     3
100
AcDbLine
 10
1365.499999821185
 20
3479.5
 30
0.0
 11
1474.999999999999
 21
3479.5
 31
0.0
  0
LINE
  5
5AE
330
5AA
100
AcDbEntity
  8
寸法
  6
CONTINUOUS
 62
     3
100
AcDbLine
 10
1459.999999999999
 20
3524.499996185303
 30
0.0
 11
1459.999999999999
 21
3884.500003814697
 31
0.0
  0
INSERT
  5
5AF
330
5AA
100
AcDbEntity
  8
寸法
 62
     3
100
AcDbBlockReference
  2
EX_NORM
 10
1459.999999999999
 20
3479.5
 30
0.0
 41
44.99999618530273
 42
44.99999618530273
 43
44.99999618530273
 50
270.0
  0
INSERT
  5
5B0
330
5AA
100
AcDbEntity
  8
寸法
 62
     3
100
AcDbBlockReference
  2
EX_NORM
 10
1459.999999999999
 20
3929.5
 30
0.0
 41
44.99999618530273
 42
44.99999618530273
 43
44.99999618530273
 50
90.0
  0
MTEXT
  5
5B1
330
5AA
100
AcDbEntity
  8
寸法
 62
     2
100
AcDbMText
 10
1424.750000089407
 20
3704.5
 30
0.0
 40
59.99999618530273
 41
0.0
 71
     5
 72
     1
  1
450
  7
EXCADDIM1
 11
0.0
 21
1.0
 31
0.0
  0
POINT
  5
5B2
330
5AA
100
AcDbEntity
  8
DEFPOINTS
 62
     0
100
AcDbPoint
 10
1354.999999999999
 20
3479.5
 30
0.0
  0
POINT
  5
5B3
330
5AA
100
AcDbEntity
  8
DEFPOINTS
 62
     0
100
AcDbPoint
 10
1354.999999999999
 20
3929.5
 30
0.0
  0
POINT
  5
5B4
330
5AA
100
AcDbEntity
  8
DEFPOINTS
 62
     0
100
AcDbPoint
 10
1459.999999999999
 20
3929.5
 30
0.0
  0
ENDBLK
  5
5AC
330
5AA
100
AcDbEntity
  8
0
100
AcDbBlockEnd
  0
BLOCK
  5
5B7
330
5B6
100
AcDbEntity
  8
0
100
AcDbBlockBegin
  2
*D23
 70
     1
 10
0.0
 20
0.0
 30
0.0
  3
*D23
  1

  0
LINE
  5
5B9
330
5B6
100
AcDbEntity
  8
寸法
  6
CONTINUOUS
 62
     3
100
AcDbLine
 10
1180.499999821185
 20
3429.5
 30
0.0
 11
1564.999999999999
 21
3429.5
 31
0.0
  0
LINE
  5
5BA
330
5B6
100
AcDbEntity
  8
寸法
  6
CONTINUOUS
 62
     3
100
AcDbLine
 10
1549.999999999999
 20
3474.499996185303
 30
0.0
 11
1549.999999999999
 21
3884.500003814697
 31
0.0
  0
INSERT
  5
5BB
330
5B6
100
AcDbEntity
  8
寸法
 62
     3
100
AcDbBlockReference
  2
EX_NORM
 10
1549.999999999999
 20
3429.5
 30
0.0
 41
44.99999618530273
 42
44.99999618530273
 43
44.99999618530273
 50
270.0
  0
INSERT
  5
5BC
330
5B6
100
AcDbEntity
  8
寸法
 62
     3
100
AcDbBlockReference
  2
EX_NORM
 10
1549.999999999999
 20
3929.5
 30
0.0
 41
44.99999618530273
 42
44.99999618530273
 43
44.99999618530273
 50
90.0
  0
MTEXT
  5
5BD
330
5B6
100
AcDbEntity
  8
寸法
 62
     2
100
AcDbMText
 10
1514.750000089407
 20
3679.5
 30
0.0
 40
59.99999618530273
 41
0.0
 71
     5
 72
     1
  1
500
  7
EXCADDIM1
 11
0.0
 21
1.0
 31
0.0
  0
POINT
  5
5BE
330
5B6
100
AcDbEntity
  8
DEFPOINTS
 62
     0
100
AcDbPoint
 10
1169.999999999999
 20
3429.5
 30
0.0
  0
POINT
  5
5BF
330
5B6
100
AcDbEntity
  8
DEFPOINTS
 62
     0
100
AcDbPoint
 10
1354.999999999999
 20
3929.5
 30
0.0
  0
POINT
  5
5C0
330
5B6
100
AcDbEntity
  8
DEFPOINTS
 62
     0
100
AcDbPoint
 10
1549.999999999999
 20
3929.5
 30
0.0
  0
ENDBLK
  5
5B8
330
5B6
100
AcDbEntity
  8
0
100
AcDbBlockEnd
  0
BLOCK
  5
5C3
330
5C2
100
AcDbEntity
  8
0
100
AcDbBlockBegin
  2
*D24
 70
     1
 10
0.0
 20
0.0
 30
0.0
  3
*D24
  1

  0
LINE
  5
5C5
330
5C2
100
AcDbEntity
  8
寸法
  6
CONTINUOUS
 62
     3
100
AcDbLine
 10
630.0
 20
3429.000000178814
 30
0.0
 11
630.0
 21
3309.5
 31
0.0
  0
LINE
  5
5C6
330
5C2
100
AcDbEntity
  8
寸法
  6
CONTINUOUS
 62
     3
100
AcDbLine
 10
1179.999999999999
 20
3429.000000178814
 30
0.0
 11
1179.999999999999
 21
3309.5
 31
0.0
  0
LINE
  5
5C7
330
5C2
100
AcDbEntity
  8
寸法
  6
CONTINUOUS
 62
     3
100
AcDbLine
 10
674.9999961853027
 20
3324.5
 30
0.0
 11
1135.000003814696
 21
3324.5
 31
0.0
  0
INSERT
  5
5C8
330
5C2
100
AcDbEntity
  8
寸法
 62
     3
100
AcDbBlockReference
  2
EX_NORM
 10
630.0
 20
3324.5
 30
0.0
 41
44.99999618530273
 42
44.99999618530273
 43
44.99999618530273
 50
180.0
  0
INSERT
  5
5C9
330
5C2
100
AcDbEntity
  8
寸法
 62
     3
100
AcDbBlockReference
  2
EX_NORM
 10
1179.999999999999
 20
3324.5
 30
0.0
 41
44.99999618530273
 42
44.99999618530273
 43
44.99999618530273
  0
MTEXT
  5
5CA
330
5C2
100
AcDbEntity
  8
寸法
 62
     2
100
AcDbMText
 10
904.9999999999998
 20
3359.749999910593
 30
0.0
 40
59.99999618530273
 41
0.0
 71
     5
 72
     1
  1
550
  7
EXCADDIM1
  0
POINT
  5
5CB
330
5C2
100
AcDbEntity
  8
DEFPOINTS
 62
     0
100
AcDbPoint
 10
630.0
 20
3439.5
 30
0.0
  0
POINT
  5
5CC
330
5C2
100
AcDbEntity
  8
DEFPOINTS
 62
     0
100
AcDbPoint
 10
1179.999999999999
 20
3439.5
 30
0.0
  0
POINT
  5
5CD
330
5C2
100
AcDbEntity
  8
DEFPOINTS
 62
     0
100
AcDbPoint
 10
1179.999999999999
 20
3324.5
 30
0.0
  0
ENDBLK
  5
5C4
330
5C2
100
AcDbEntity
  8
0
100
AcDbBlockEnd
  0
BLOCK
  5
5D0
330
5CF
100
AcDbEntity
  8
0
100
AcDbBlockBegin
  2
*D25
 70
     1
 10
0.0
 20
0.0
 30
0.0
  3
*D25
  1

  0
LINE
  5
5D2
330
5CF
100
AcDbEntity
  8
寸法
  6
CONTINUOUS
 62
     3
100
AcDbLine
 10
455.0
 20
3469.000000178814
 30
0.0
 11
455.0
 21
3219.5
 31
0.0
  0
LINE
  5
5D3
330
5CF
100
AcDbEntity
  8
寸法
  6
CONTINUOUS
 62
     3
100
AcDbLine
 10
1354.999999999999
 20
3469.000000178814
 30
0.0
 11
1354.999999999999
 21
3219.5
 31
0.0
  0
LINE
  5
5D4
330
5CF
100
AcDbEntity
  8
寸法
  6
CONTINUOUS
 62
     3
100
AcDbLine
 10
499.9999961853027
 20
3234.5
 30
0.0
 11
1310.000003814696
 21
3234.5
 31
0.0
  0
INSERT
  5
5D5
330
5CF
100
AcDbEntity
  8
寸法
 62
     3
100
AcDbBlockReference
  2
EX_NORM
 10
455.0
 20
3234.5
 30
0.0
 41
44.99999618530273
 42
44.99999618530273
 43
44.99999618530273
 50
180.0
  0
INSERT
  5
5D6
330
5CF
100
AcDbEntity
  8
寸法
 62
     3
100
AcDbBlockReference
  2
EX_NORM
 10
1354.999999999999
 20
3234.5
 30
0.0
 41
44.99999618530273
 42
44.99999618530273
 43
44.99999618530273
  0
MTEXT
  5
5D7
330
5CF
100
AcDbEntity
  8
寸法
 62
     2
100
AcDbMText
 10
904.9999999999998
 20
3269.749999910593
 30
0.0
 40
59.99999618530273
 41
0.0
 71
     5
 72
     1
  1
900
  7
EXCADDIM1
  0
POINT
  5
5D8
330
5CF
100
AcDbEntity
  8
DEFPOINTS
 62
     0
100
AcDbPoint
 10
455.0
 20
3479.5
 30
0.0
  0
POINT
  5
5D9
330
5CF
100
AcDbEntity
  8
DEFPOINTS
 62
     0
100
AcDbPoint
 10
1354.999999999999
 20
3479.5
 30
0.0
  0
POINT
  5
5DA
330
5CF
100
AcDbEntity
  8
DEFPOINTS
 62
     0
100
AcDbPoint
 10
1354.999999999999
 20
3234.5
 30
0.0
  0
ENDBLK
  5
5D1
330
5CF
100
AcDbEntity
  8
0
100
AcDbBlockEnd
  0
BLOCK
  5
5E6
330
5E5
100
AcDbEntity
  8
0
100
AcDbBlockBegin
  2
*D26
 70
     1
 10
0.0
 20
0.0
 30
0.0
  3
*D26
  1

  0
LINE
  5
5E8
330
5E5
100
AcDbEntity
  8
寸法
  6
CONTINUOUS
 62
     3
100
AcDbLine
 10
1365.499999821185
 20
1717.5
 30
0.0
 11
1474.999999999999
 21
1717.5
 31
0.0
  0
LINE
  5
5E9
330
5E5
100
AcDbEntity
  8
寸法
  6
CONTINUOUS
 62
     3
100
AcDbLine
 10
1459.999999999999
 20
1062.499996185303
 30
0.0
 11
1459.999999999999
 21
1672.500003814697
 31
0.0
  0
INSERT
  5
5EA
330
5E5
100
AcDbEntity
  8
寸法
 62
     3
100
AcDbBlockReference
  2
EX_NORM
 10
1459.999999999999
 20
1017.5
 30
0.0
 41
44.99999618530273
 42
44.99999618530273
 43
44.99999618530273
 50
270.0
  0
INSERT
  5
5EB
330
5E5
100
AcDbEntity
  8
寸法
 62
     3
100
AcDbBlockReference
  2
EX_NORM
 10
1459.999999999999
 20
1717.5
 30
0.0
 41
44.99999618530273
 42
44.99999618530273
 43
44.99999618530273
 50
90.0
  0
MTEXT
  5
5EC
330
5E5
100
AcDbEntity
  8
寸法
 62
     2
100
AcDbMText
 10
1424.750000089407
 20
1367.5
 30
0.0
 40
59.99999618530273
 41
0.0
 71
     5
 72
     1
  1
700
  7
EXCADDIM1
 11
0.0
 21
1.0
 31
0.0
  0
POINT
  5
5ED
330
5E5
100
AcDbEntity
  8
DEFPOINTS
 62
     0
100
AcDbPoint
 10
1352.999999999999
 20
1017.5
 30
0.0
  0
POINT
  5
5EE
330
5E5
100
AcDbEntity
  8
DEFPOINTS
 62
     0
100
AcDbPoint
 10
1354.999999999999
 20
1717.5
 30
0.0
  0
POINT
  5
5EF
330
5E5
100
AcDbEntity
  8
DEFPOINTS
 62
     0
100
AcDbPoint
 10
1459.999999999999
 20
1717.5
 30
0.0
  0
ENDBLK
  5
5E7
330
5E5
100
AcDbEntity
  8
0
100
AcDbBlockEnd
  0
BLOCK
  5
5F2
330
5F1
100
AcDbEntity
  8
0
100
AcDbBlockBegin
  2
*D27
 70
     1
 10
0.0
 20
0.0
 30
0.0
  3
*D27
  1

  0
LINE
  5
5F4
330
5F1
100
AcDbEntity
  8
寸法
  6
CONTINUOUS
 62
     3
100
AcDbLine
 10
1185.499999821185
 20
1857.5
 30
0.0
 11
1474.999999999998
 21
1857.5
 31
0.0
  0
LINE
  5
5F5
330
5F1
100
AcDbEntity
  8
寸法
  6
CONTINUOUS
 62
     3
100
AcDbLine
 10
1459.999999999998
 20
1762.499996185303
 30
0.0
 11
1459.999999999998
 21
1812.500003814697
 31
0.0
  0
INSERT
  5
5F6
330
5F1
100
AcDbEntity
  8
寸法
 62
     3
100
AcDbBlockReference
  2
EX_NORM
 10
1459.999999999998
 20
1717.5
 30
0.0
 41
44.99999618530273
 42
44.99999618530273
 43
44.99999618530273
 50
270.0
  0
INSERT
  5
5F7
330
5F1
100
AcDbEntity
  8
寸法
 62
     3
100
AcDbBlockReference
  2
EX_NORM
 10
1459.999999999998
 20
1857.5
 30
0.0
 41
44.99999618530273
 42
44.99999618530273
 43
44.99999618530273
 50
90.0
  0
MTEXT
  5
5F8
330
5F1
100
AcDbEntity
  8
寸法
 62
     2
100
AcDbMText
 10
1424.750000089406
 20
1787.499999999999
 30
0.0
 40
59.99999618530273
 41
0.0
 71
     5
 72
     1
  1
140
  7
EXCADDIM1
 11
0.0
 21
1.0
 31
0.0
  0
POINT
  5
5F9
330
5F1
100
AcDbEntity
  8
DEFPOINTS
 62
     0
100
AcDbPoint
 10
1354.999999999999
 20
1717.5
 30
0.0
  0
POINT
  5
5FA
330
5F1
100
AcDbEntity
  8
DEFPOINTS
 62
     0
100
AcDbPoint
 10
1174.999999999999
 20
1857.5
 30
0.0
  0
POINT
  5
5FB
330
5F1
100
AcDbEntity
  8
DEFPOINTS
 62
     0
100
AcDbPoint
 10
1459.999999999998
 20
1857.5
 30
0.0
  0
ENDBLK
  5
5F3
330
5F1
100
AcDbEntity
  8
0
100
AcDbBlockEnd
  0
BLOCK
  5
5FE
330
5FD
100
AcDbEntity
  8
0
100
AcDbBlockBegin
  2
*D28
 70
     1
 10
0.0
 20
0.0
 30
0.0
  3
*D28
  1

  0
LINE
  5
600
330
5FD
100
AcDbEntity
  8
寸法
  6
CONTINUOUS
 62
     3
100
AcDbLine
 10
1185.499999821185
 20
1857.5
 30
0.0
 11
1565.0
 21
1857.5
 31
0.0
  0
LINE
  5
601
330
5FD
100
AcDbEntity
  8
寸法
  6
CONTINUOUS
 62
     3
100
AcDbLine
 10
1550.0
 20
1062.499996185303
 30
0.0
 11
1550.0
 21
1812.500003814697
 31
0.0
  0
INSERT
  5
602
330
5FD
100
AcDbEntity
  8
寸法
 62
     3
100
AcDbBlockReference
  2
EX_NORM
 10
1550.0
 20
1017.5
 30
0.0
 41
44.99999618530273
 42
44.99999618530273
 43
44.99999618530273
 50
270.0
  0
INSERT
  5
603
330
5FD
100
AcDbEntity
  8
寸法
 62
     3
100
AcDbBlockReference
  2
EX_NORM
 10
1550.0
 20
1857.5
 30
0.0
 41
44.99999618530273
 42
44.99999618530273
 43
44.99999618530273
 50
90.0
  0
MTEXT
  5
604
330
5FD
100
AcDbEntity
  8
寸法
 62
     2
100
AcDbMText
 10
1514.750000089407
 20
1437.5
 30
0.0
 40
59.99999618530273
 41
0.0
 71
     5
 72
     1
  1
840
  7
EXCADDIM1
 11
0.0
 21
1.0
 31
0.0
  0
POINT
  5
605
330
5FD
100
AcDbEntity
  8
DEFPOINTS
 62
     0
100
AcDbPoint
 10
1352.999999999999
 20
1017.5
 30
0.0
  0
POINT
  5
606
330
5FD
100
AcDbEntity
  8
DEFPOINTS
 62
     0
100
AcDbPoint
 10
1174.999999999999
 20
1857.5
 30
0.0
  0
POINT
  5
607
330
5FD
100
AcDbEntity
  8
DEFPOINTS
 62
     0
100
AcDbPoint
 10
1550.0
 20
1857.5
 30
0.0
  0
ENDBLK
  5
5FF
330
5FD
100
AcDbEntity
  8
0
100
AcDbBlockEnd
  0
BLOCK
  5
617
330
616
100
AcDbEntity
  8
0
100
AcDbBlockBegin
  2
*D29
 70
     1
 10
0.0
 20
0.0
 30
0.0
  3
*D29
  1

  0
LINE
  5
619
330
616
100
AcDbEntity
  8
寸法
  6
CONTINUOUS
 62
     3
100
AcDbLine
 10
1644.0
 20
1062.499996185303
 30
0.0
 11
1644.0
 21
2722.500003814697
 31
0.0
  0
INSERT
  5
61A
330
616
100
AcDbEntity
  8
寸法
 62
     3
100
AcDbBlockReference
  2
EX_NORM
 10
1644.0
 20
1017.5
 30
0.0
 41
44.99999618530273
 42
44.99999618530273
 43
44.99999618530273
 50
270.0
  0
INSERT
  5
61B
330
616
100
AcDbEntity
  8
寸法
 62
     3
100
AcDbBlockReference
  2
EX_NORM
 10
1644.0
 20
2767.5
 30
0.0
 41
44.99999618530273
 42
44.99999618530273
 43
44.99999618530273
 50
90.0
  0
MTEXT
  5
61C
330
616
100
AcDbEntity
  8
寸法
 62
     2
100
AcDbMText
 10
1608.750000089408
 20
1892.5
 30
0.0
 40
59.99999618530273
 41
0.0
 71
     5
 72
     1
  1
（1750）
  7
EXCADDIM1
 11
0.0
 21
1.0
 31
0.0
  0
POINT
  5
61D
330
616
100
AcDbEntity
  8
DEFPOINTS
 62
     0
100
AcDbPoint
 10
1277.999999999997
 20
1017.5
 30
0.0
  0
POINT
  5
61E
330
616
100
AcDbEntity
  8
DEFPOINTS
 62
     0
100
AcDbPoint
 10
1204.999999999997
 20
2767.5
 30
0.0
  0
POINT
  5
61F
330
616
100
AcDbEntity
  8
DEFPOINTS
 62
     0
100
AcDbPoint
 10
1644.0
 20
2767.5
 30
0.0
  0
ENDBLK
  5
618
330
616
100
AcDbEntity
  8
0
100
AcDbBlockEnd
  0
ENDSEC
  0
SECTION
  2
ENTITIES
  0
LINE
  5
A9
330
1F
100
AcDbEntity
  8
枠_表
  6
CONTINUOUS
 62
     7
100
AcDbLine
 10
17.0
 20
12.5
 30
0.0
 11
199.0
 21
12.5
 31
0.0
  0
LINE
  5
AA
330
1F
100
AcDbEntity
  8
枠_表
  6
CONTINUOUS
 62
     7
100
AcDbLine
 10
199.0
 20
12.5
 30
0.0
 11
199.0
 21
287.5
 31
0.0
  0
LINE
  5
AB
330
1F
100
AcDbEntity
  8
枠_表
  6
CONTINUOUS
 62
     7
100
AcDbLine
 10
17.0
 20
12.5
 30
0.0
 11
17.0
 21
287.5
 31
0.0
  0
LINE
  5
AC
330
1F
100
AcDbEntity
  8
枠_表
  6
CONTINUOUS
 62
     7
100
AcDbLine
 10
17.0
 20
287.5
 30
0.0
 11
199.0
 21
287.5
 31
0.0
  0
LINE
  5
AD
330
1F
100
AcDbEntity
  8
枠_表
  6
CONTINUOUS
 62
     7
100
AcDbLine
 10
17.0
 20
34.5
 30
0.0
 11
199.0
 21
34.5
 31
0.0
  0
LINE
  5
AE
330
1F
100
AcDbEntity
  8
枠_表
  6
CONTINUOUS
 62
     6
100
AcDbLine
 10
199.0
 20
22.5
 30
0.0
 11
73.99999999999989
 21
22.5
 31
0.0
  0
LINE
  5
AF
330
1F
100
AcDbEntity
  8
枠_表
  6
CONTINUOUS
 62
     6
100
AcDbLine
 10
185.0
 20
34.5
 30
0.0
 11
185.0
 21
22.5
 31
0.0
  0
LINE
  5
B0
330
1F
100
AcDbEntity
  8
枠_表
  6
CONTINUOUS
 62
     6
100
AcDbLine
 10
180.0
 20
34.5
 30
0.0
 11
180.0
 21
22.5
 31
0.0
  0
LINE
  5
B1
330
1F
100
AcDbEntity
  8
枠_表
  6
CONTINUOUS
 62
     6
100
AcDbLine
 10
142.9999999999999
 20
34.5
 30
0.0
 11
142.9999999999999
 21
12.5
 31
0.0
  0
LINE
  5
B2
330
1F
100
AcDbEntity
  8
枠_表
  6
CONTINUOUS
 62
     6
100
AcDbLine
 10
137.9999999999999
 20
34.5
 30
0.0
 11
137.9999999999999
 21
12.5
 31
0.0
  0
LINE
  5
B3
330
1F
100
AcDbEntity
  8
枠_表
  6
CONTINUOUS
 62
     6
100
AcDbLine
 10
78.99999999999989
 20
34.5
 30
0.0
 11
78.99999999999989
 21
22.5
 31
0.0
  0
LINE
  5
B4
330
1F
100
AcDbEntity
  8
枠_表
  6
CONTINUOUS
 62
     6
100
AcDbLine
 10
73.99999999999989
 20
34.5
 30
0.0
 11
73.99999999999989
 21
12.5
 31
0.0
  0
LINE
  5
B5
330
1F
100
AcDbEntity
  8
枠_表
  6
CONTINUOUS
 62
     6
100
AcDbLine
 10
60.99999999999989
 20
34.5
 30
0.0
 11
60.99999999999989
 21
12.5
 31
0.0
  0
LINE
  5
B6
330
1F
100
AcDbEntity
  8
枠_表
  6
CONTINUOUS
 62
     6
100
AcDbLine
 10
47.99999999999989
 20
34.5
 30
0.0
 11
47.99999999999989
 21
12.5
 31
0.0
  0
LINE
  5
B7
330
1F
100
AcDbEntity
  8
枠_表
  6
CONTINUOUS
 62
     6
100
AcDbLine
 10
32.49999999999994
 20
34.5
 30
0.0
 11
32.49999999999994
 21
12.5
 31
0.0
  0
LINE
  5
B8
330
1F
100
AcDbEntity
  8
枠_表
  6
CONTINUOUS
 62
     6
100
AcDbLine
 10
17.0
 20
29.5
 30
0.0
 11
73.99999999999989
 21
29.5
 31
0.0
  0
LINE
  5
B9
330
1F
100
AcDbEntity
  8
枠_表
  6
CONTINUOUS
 62
     6
100
AcDbLine
 10
188.2653808599999
 20
24.80029296999999
 30
0.0
 11
195.99938965
 21
32.66998290999999
 31
0.0
  0
CIRCLE
  5
BA
330
1F
100
AcDbEntity
  8
枠_表
  6
CONTINUOUS
 62
     6
100
AcDbCircle
 10
22.0
 20
15.0
 30
0.0
 40
0.10000002
  0
CIRCLE
  5
BB
330
1F
100
AcDbEntity
  8
枠_表
  6
CONTINUOUS
 62
     6
100
AcDbCircle
 10
27.0
 20
15.0
 30
0.0
 40
0.10000002
  0
CIRCLE
  5
BC
330
1F
100
AcDbEntity
  8
枠_表
  6
CONTINUOUS
 62
     6
100
AcDbCircle
 10
37.49999999999994
 20
15.0
 30
0.0
 40
0.10000002
  0
CIRCLE
  5
BD
330
1F
100
AcDbEntity
  8
枠_表
  6
CONTINUOUS
 62
     6
100
AcDbCircle
 10
42.49999999999994
 20
15.0
 30
0.0
 40
0.10000002
  0
LINE
  5
BE
330
1F
100
AcDbEntity
  8
枠_表
  6
EXLTYPE2
 62
     6
100
AcDbLine
 10
17.0
 20
17.5
 30
0.0
 11
47.99999999999989
 21
17.5
 31
0.0
  0
TEXT
  5
BF
330
1F
100
AcDbEntity
  8
枠_表
  6
CONTINUOUS
 62
     2
100
AcDbText
 10
188.05371094
 20
29.27227783000001
 30
0.0
 40
3.0
  1
１
 41
1.101333351135257
  7
EXCADSTD
 72
     5
 11
190.413710978147
 21
29.27227783000001
 31
0.0
100
AcDbText
  0
TEXT
  5
C0
330
1F
100
AcDbEntity
  8
枠_表
  6
CONTINUOUS
 62
     2
100
AcDbText
 10
192.12792969
 20
24.83488463999998
 30
0.0
 40
3.0
  1
１５
 41
1.098531230663534
  7
EXCADSTD
 72
     5
 11
197.3067197774138
 21
24.83488463999998
 31
0.0
100
AcDbText
  0
TEXT
  5
C1
330
1F
100
AcDbEntity
  8
枠_表
  6
CONTINUOUS
 62
     2
100
AcDbText
 10
19.25
 20
29.875
 30
0.0
 40
4.25
  1
製図
 41
1.509694117647059
  7
EXCADSTD
 72
     5
 11
29.3326
 21
29.875
 31
0.0
100
AcDbText
  0
TEXT
  5
C2
330
1F
100
AcDbEntity
  8
枠_表
  6
CONTINUOUS
 62
     2
100
AcDbText
 10
34.74999999999994
 20
29.875
 30
0.0
 40
4.25
  1
写図
 41
1.509694117647059
  7
EXCADSTD
 72
     5
 11
44.83259999999994
 21
29.875
 31
0.0
100
AcDbText
  0
TEXT
  5
C3
330
1F
100
AcDbEntity
  8
枠_表
  6
CONTINUOUS
 62
     2
100
AcDbText
 10
49.74999999999989
 20
29.875
 30
0.0
 40
4.25
  1
検図
 41
1.303826737967915
  7
EXCADSTD
 72
     5
 11
58.45769999999989
 21
29.875
 31
0.0
100
AcDbText
  0
TEXT
  5
C4
330
1F
100
AcDbEntity
  8
枠_表
  6
CONTINUOUS
 62
     2
100
AcDbText
 10
62.74999999999989
 20
29.875
 30
0.0
 40
4.25
  1
承認
 41
1.303826737967915
  7
EXCADSTD
 72
     5
 11
71.45769999999989
 21
29.875
 31
0.0
100
AcDbText
  0
TEXT
  5
C5
330
1F
100
AcDbEntity
  8
枠_表
  6
CONTINUOUS
 62
     2
100
AcDbText
 10
74.57499999999987
 20
28.875
 30
0.0
 40
4.25
  1
品
 41
1.120000000000002
  7
EXCADSTD
 72
     5
 11
77.97499999999988
 21
28.875
 31
0.0
100
AcDbText
  0
TEXT
  5
C6
330
1F
100
AcDbEntity
  8
枠_表
  6
CONTINUOUS
 62
     2
100
AcDbText
 10
74.57499999999987
 20
23.875
 30
0.0
 40
4.25
  1
名
 41
1.120000000000002
  7
EXCADSTD
 72
     5
 11
77.97499999999988
 21
23.875
 31
0.0
100
AcDbText
  0
TEXT
  5
C7
330
1F
100
AcDbEntity
  8
枠_表
  6
CONTINUOUS
 62
     2
100
AcDbText
 10
138.5749999999999
 20
28.875
 30
0.0
 40
4.25
  1
品
 41
1.120000000000002
  7
EXCADSTD
 72
     5
 11
141.9749999999999
 21
28.875
 31
0.0
100
AcDbText
  0
TEXT
  5
C8
330
1F
100
AcDbEntity
  8
枠_表
  6
CONTINUOUS
 62
     2
100
AcDbText
 10
138.5749999999999
 20
23.875
 30
0.0
 40
4.25
  1
番
 41
1.120000000000002
  7
EXCADSTD
 72
     5
 11
141.9749999999999
 21
23.875
 31
0.0
100
AcDbText
  0
TEXT
  5
C9
330
1F
100
AcDbEntity
  8
枠_表
  6
CONTINUOUS
 62
     2
100
AcDbText
 10
180.675
 20
28.875
 30
0.0
 40
4.25
  1
尺
 41
1.120000000000002
  7
EXCADSTD
 72
     5
 11
184.075
 21
28.875
 31
0.0
100
AcDbText
  0
TEXT
  5
CA
330
1F
100
AcDbEntity
  8
枠_表
  6
CONTINUOUS
 62
     2
100
AcDbText
 10
180.675
 20
23.875
 30
0.0
 40
4.25
  1
度
 41
1.120000000000002
  7
EXCADSTD
 72
     5
 11
184.075
 21
23.875
 31
0.0
100
AcDbText
  0
TEXT
  5
CB
330
1F
100
AcDbEntity
  8
枠_表
  6
CONTINUOUS
 62
     2
100
AcDbText
 10
138.5749999999999
 20
17.57499999999999
 30
0.0
 40
4.25
  1
図
 41
1.120000000000002
  7
EXCADSTD
 72
     5
 11
141.9749999999999
 21
17.57499999999999
 31
0.0
100
AcDbText
  0
TEXT
  5
CC
330
1F
100
AcDbEntity
  8
枠_表
  6
CONTINUOUS
 62
     2
100
AcDbText
 10
138.5749999999999
 20
13.27499999999998
 30
0.0
 40
4.25
  1
番
 41
1.120000000000002
  7
EXCADSTD
 72
     5
 11
141.9749999999999
 21
13.27499999999998
 31
0.0
100
AcDbText
  0
LINE
  5
CD
330
1F
100
AcDbEntity
  8
枠_表
  6
CONTINUOUS
 62
     6
100
AcDbLine
 10
123.9999999999999
 20
282.5
 30
0.0
 11
194.0
 21
282.5
 31
0.0
  0
LINE
  5
CE
330
1F
100
AcDbEntity
  8
枠_表
  6
CONTINUOUS
 62
     6
100
AcDbLine
 10
123.9999999999999
 20
277.0
 30
0.0
 11
194.0
 21
277.0
 31
0.0
  0
LINE
  5
CF
330
1F
100
AcDbEntity
  8
枠_表
  6
CONTINUOUS
 62
     6
100
AcDbLine
 10
123.9999999999999
 20
271.5
 30
0.0
 11
194.0
 21
271.5
 31
0.0
  0
TEXT
  5
D0
330
1F
100
AcDbEntity
  8
枠_表
  6
CONTINUOUS
 62
     2
100
AcDbText
 10
131.9999999999999
 20
277.75
 30
0.0
 40
4.0
  1
品番
 41
2.041518181818183
  7
EXCADSTD
 72
     5
 11
144.8324
 21
277.75
 31
0.0
100
AcDbText
  0
TEXT
  5
D1
330
1F
100
AcDbEntity
  8
枠_表
  6
CONTINUOUS
 62
     2
100
AcDbText
 10
167.0000000000001
 20
277.75
 30
0.0
 40
4.0
  1
品名
 41
2.041518181818183
  7
EXCADSTD
 72
     5
 11
179.8324000000001
 21
277.75
 31
0.0
100
AcDbText
  0
TEXT
  5
D2
330
1F
100
AcDbEntity
  8
枠_表
  6
CONTINUOUS
 62
     2
100
AcDbText
 10
155.0000000000001
 20
272.25
 30
0.0
 40
4.0
  1
洗面化粧台
 41
1.086206896551724
  7
EXCADSTD
 72
     5
 11
173.0000000000001
 21
272.25
 31
0.0
100
AcDbText
  0
TEXT
  5
D3
330
1F
100
AcDbEntity
  8
枠_表
  6
CONTINUOUS
 62
     2
100
AcDbText
 10
79.99999999999989
 20
28.5
 30
0.0
 40
5.0
  1
900㎜幅
 41
0.8693548387096776
  7
EXCADSTD
 72
     5
 11
99.24999999999989
 21
28.5
 31
0.0
100
AcDbText
  0
TEXT
  5
D4
330
1F
100
AcDbEntity
  8
枠_表
  6
CONTINUOUS
 62
     2
100
AcDbText
 10
79.99999999999989
 20
23.5
 30
0.0
 40
5.0
  1
　洗面化粧ユニット
 41
1.307547169811321
  7
EXCADSTD
 72
     5
 11
129.4999999999999
 21
23.5
 31
0.0
100
AcDbText
  0
TEXT
  5
D6
330
1F
100
AcDbEntity
  8
枠_表
  6
CONTINUOUS
 62
     2
100
AcDbText
 10
75.99999999999994
 20
14.5
 30
0.0
 40
4.5
  1
ジャニス工業株式会社
 41
1.025641025641026
  7
EXCADTTF1
 72
     5
 11
135.9999999999999
 21
14.5
 31
0.0
100
AcDbText
  0
LINE
  5
D7
330
1F
100
AcDbEntity
  8
枠_表
  6
CONTINUOUS
 62
     6
100
AcDbLine
 10
123.9999999999999
 20
266.0
 30
0.0
 11
194.0
 21
266.0
 31
0.0
  0
LINE
  5
D8
330
1F
100
AcDbEntity
  8
枠_表
  6
CONTINUOUS
 62
     6
100
AcDbLine
 10
123.9999999999999
 20
255.0
 30
0.0
 11
194.0
 21
255.0
 31
0.0
  0
LINE
  5
D9
330
1F
100
AcDbEntity
  8
枠_表
  6
CONTINUOUS
 62
     6
100
AcDbLine
 10
123.9999999999999
 20
249.5
 30
0.0
 11
194.0
 21
249.5
 31
0.0
  0
LINE
  5
DA
330
1F
100
AcDbEntity
  8
枠_表
  6
CONTINUOUS
 62
     6
100
AcDbLine
 10
123.9999999999999
 20
244.0
 30
0.0
 11
194.0
 21
244.0
 31
0.0
  0
LINE
  5
DB
330
1F
100
AcDbEntity
  8
枠_表
  6
CONTINUOUS
 62
     6
100
AcDbLine
 10
123.9999999999999
 20
238.5
 30
0.0
 11
194.0
 21
238.5
 31
0.0
  0
LINE
  5
DC
330
1F
100
AcDbEntity
  8
枠_表
  6
CONTINUOUS
 62
     6
100
AcDbLine
 10
123.9999999999999
 20
233.0
 30
0.0
 11
194.0
 21
233.0
 31
0.0
  0
LINE
  5
DD
330
1F
100
AcDbEntity
  8
枠_表
  6
CONTINUOUS
 62
     6
100
AcDbLine
 10
123.9999999999999
 20
227.5
 30
0.0
 11
194.0
 21
227.5
 31
0.0
  0
LINE
  5
DE
330
1F
100
AcDbEntity
  8
枠_表
  6
CONTINUOUS
 62
     6
100
AcDbLine
 10
123.9999999999999
 20
222.0
 30
0.0
 11
194.0
 21
222.0
 31
0.0
  0
LINE
  5
DF
330
1F
100
AcDbEntity
  8
枠_表
  6
CONTINUOUS
 62
     6
100
AcDbLine
 10
123.9999999999999
 20
216.5
 30
0.0
 11
194.0
 21
216.5
 31
0.0
  0
LINE
  5
E0
330
1F
100
AcDbEntity
  8
枠_表
  6
CONTINUOUS
 62
     6
100
AcDbLine
 10
123.9999999999999
 20
216.5
 30
0.0
 11
123.9999999999999
 21
255.0
 31
0.0
  0
LINE
  5
E1
330
1F
100
AcDbEntity
  8
枠_表
  6
CONTINUOUS
 62
     6
100
AcDbLine
 10
194.0
 20
216.5
 30
0.0
 11
194.0
 21
255.0
 31
0.0
  0
TEXT
  5
E2
330
1F
100
AcDbEntity
  8
枠_表
  6
CONTINUOUS
 62
     2
100
AcDbText
 10
124.9999999999999
 20
244.75
 30
0.0
 40
4.0
  1
Ｐ２２３４
 41
0.8629310316052923
  7
EXCADSTD
 72
     5
 11
139.2999999523162
 21
244.75
 31
0.0
100
AcDbText
  0
TEXT
  5
E3
330
1F
100
AcDbEntity
  8
枠_表
  6
CONTINUOUS
 62
     2
100
AcDbText
 10
124.9999999999999
 20
239.25
 30
0.0
 40
4.0
  1
Ｐ２２３３
 41
0.8629310316052923
  7
EXCADSTD
 72
     5
 11
139.2999999523162
 21
239.25
 31
0.0
100
AcDbText
  0
TEXT
  5
E4
330
1F
100
AcDbEntity
  8
枠_表
  6
CONTINUOUS
 62
     2
100
AcDbText
 10
124.9999999999999
 20
233.75
 30
0.0
 40
4.0
  1
Ｐ２２３２
 41
0.8629310316052923
  7
EXCADSTD
 72
     5
 11
139.2999999523162
 21
233.75
 31
0.0
100
AcDbText
  0
TEXT
  5
E5
330
1F
100
AcDbEntity
  8
枠_表
  6
CONTINUOUS
 62
     2
100
AcDbText
 10
124.9999999999999
 20
217.25
 30
0.0
 40
4.0
  1
ＮＬ２１１－３７５ＷＹ
 41
0.8211538429443651
  7
EXCADSTD
 72
     5
 11
155.4999998807906
 21
217.25
 31
0.0
100
AcDbText
  0
LINE
  5
E6
330
1F
100
AcDbEntity
  8
枠_表
  6
CONTINUOUS
 62
     6
100
AcDbLine
 10
158.9999999999999
 20
216.5
 30
0.0
 11
158.9999999999999
 21
255.0
 31
0.0
  0
TEXT
  5
E7
330
1F
100
AcDbEntity
  8
枠_表
  6
CONTINUOUS
 62
     2
100
AcDbText
 10
160.0000000000001
 20
244.75
 30
0.0
 40
4.0
  1
Ｐトラップ
 41
1.086206896551724
  7
EXCADSTD
 72
     5
 11
178.0000000000001
 21
244.75
 31
0.0
100
AcDbText
  0
TEXT
  5
E8
330
1F
100
AcDbEntity
  8
枠_表
  6
CONTINUOUS
 62
     2
100
AcDbText
 10
160.0000000000001
 20
239.25
 30
0.0
 40
4.0
  1
Ｓトラップ
 41
1.086206896551724
  7
EXCADSTD
 72
     5
 11
178.0000000000001
 21
239.25
 31
0.0
100
AcDbText
  0
TEXT
  5
E9
330
1F
100
AcDbEntity
  8
枠_表
  6
CONTINUOUS
 62
     2
100
AcDbText
 10
160.0000000000001
 20
233.75
 30
0.0
 40
4.0
  1
ボトルトラップ
 41
1.067073170731707
  7
EXCADSTD
 72
     5
 11
185.0000000000001
 21
233.75
 31
0.0
100
AcDbText
  0
TEXT
  5
EA
330
1F
100
AcDbEntity
  8
枠_表
  6
CONTINUOUS
 62
     2
100
AcDbText
 10
160.0000000000001
 20
228.25
 30
0.0
 40
4.0
  1
配管アダプター
 41
1.067073170731707
  7
EXCADSTD
 72
     5
 11
185.0000000000001
 21
228.25
 31
0.0
100
AcDbText
  0
TEXT
  5
EB
330
1F
100
AcDbEntity
  8
枠_表
  6
CONTINUOUS
 62
     2
100
AcDbText
 10
160.0000000000001
 20
222.75
 30
0.0
 40
4.0
  1
アングル形止水栓
 41
1.061170212765957
  7
EXCADSTD
 72
     5
 11
188.5000000000001
 21
222.75
 31
0.0
100
AcDbText
  0
TEXT
  5
EC
330
1F
100
AcDbEntity
  8
枠_表
  6
CONTINUOUS
 62
     2
100
AcDbText
 10
160.0000000000001
 20
217.25
 30
0.0
 40
4.0
  1
ストレート形止水栓
 41
1.056603773584906
  7
EXCADSTD
 72
     5
 11
192.0000000000001
 21
217.25
 31
0.0
100
AcDbText
  0
TEXT
  5
ED
330
1F
100
AcDbEntity
  8
枠_表
  6
CONTINUOUS
 62
     2
100
AcDbText
 10
134.4999999999999
 20
250.25
 30
0.0
 40
4.0
  1
品番
 41
2.041518181818183
  7
EXCADSTD
 72
     5
 11
147.3323999999999
 21
250.25
 31
0.0
100
AcDbText
  0
TEXT
  5
EE
330
1F
100
AcDbEntity
  8
枠_表
  6
CONTINUOUS
 62
     2
100
AcDbText
 10
169.5000000000001
 20
250.25
 30
0.0
 40
4.0
  1
品名
 41
2.041518181818183
  7
EXCADSTD
 72
     5
 11
182.3324000000001
 21
250.25
 31
0.0
100
AcDbText
  0
TEXT
  5
EF
330
1F
100
AcDbEntity
  8
枠_表
  6
CONTINUOUS
 62
     2
100
AcDbText
 10
124.3999999999999
 20
256.0
 30
0.0
 40
4.0
  1
※選択部材（別途手配）
 41
0.9692307660212882
  7
EXCADSTD
 72
     5
 11
160.3999998807906
 21
256.0
 31
0.0
100
AcDbText
  0
LINE
  5
F0
330
1F
100
AcDbEntity
  8
枠_表
  6
CONTINUOUS
 62
     6
100
AcDbLine
 10
123.9999999999999
 20
266.0
 30
0.0
 11
123.9999999999999
 21
282.5
 31
0.0
  0
LINE
  5
F1
330
1F
100
AcDbEntity
  8
枠_表
  6
CONTINUOUS
 62
     6
100
AcDbLine
 10
154.0
 20
266.0
 30
0.0
 11
154.0
 21
282.5
 31
0.0
  0
LINE
  5
F2
330
1F
100
AcDbEntity
  8
枠_表
  6
CONTINUOUS
 62
     6
100
AcDbLine
 10
194.0
 20
266.0
 30
0.0
 11
194.0
 21
282.5
 31
0.0
  0
TEXT
  5
F3
330
1F
100
AcDbEntity
  8
枠_表
  6
CONTINUOUS
 62
     2
100
AcDbText
 10
124.9999999999999
 20
222.75
 30
0.0
 40
4.0
  1
ＮＬ２２１－７５ＷＭＹ
 41
0.8211538429443651
  7
EXCADSTD
 72
     5
 11
155.4999998807906
 21
222.75
 31
0.0
100
AcDbText
  0
TEXT
  5
F4
330
1F
100
AcDbEntity
  8
枠_表
  6
CONTINUOUS
 62
     2
100
AcDbText
 10
124.9999999999999
 20
228.25
 30
0.0
 40
4.0
  1
ＬＵＭＥＨ７０－２０－３２Ｂ
 41
0.6662650569734804
  7
EXCADSTD
 72
     5
 11
156.5999998450278
 21
228.25
 31
0.0
100
AcDbText
  0
TEXT
  5
F5
330
1F
100
AcDbEntity
  8
枠_表
  6
CONTINUOUS
 62
     2
100
AcDbText
 10
124.9999999999999
 20
266.75
 30
0.0
 40
4.0
  1
ＬＵＭ４５１ＣＳ
 41
0.8340425500844394
  7
EXCADSTD
 72
     5
 11
147.3999999165534
 21
266.75
 31
0.0
100
AcDbText
  0
TEXT
  5
F6
330
1F
100
AcDbEntity
  8
枠_表
  6
CONTINUOUS
 62
     2
100
AcDbText
 10
155.0000000000001
 20
266.75
 30
0.0
 40
4.0
  1
化粧鏡
 41
1.132352941176471
  7
EXCADSTD
 72
     5
 11
166.0000000000001
 21
266.75
 31
0.0
100
AcDbText
  0
TEXT
  5
F7
330
1F
100
AcDbEntity
  8
枠_表
  6
CONTINUOUS
 62
     2
100
AcDbText
 10
143.9999999999999
 20
28.5
 30
0.0
 40
5.0
  1
ＬＵ９０３ＴＳＤＲ型
 41
0.8542372881355933
  7
EXCADSTD
 72
     5
 11
179.9999999999999
 21
28.5
 31
0.0
100
AcDbText
  0
TEXT
  5
F8
330
1F
100
AcDbEntity
  8
枠_表
  6
CONTINUOUS
 62
     2
100
AcDbText
 10
143.9999999999999
 20
23.5
 30
0.0
 40
5.0
  1
ＬＵＭ４５１ＣＳ
 41
0.8638297872340426
  7
EXCADSTD
 72
     5
 11
172.9999999999999
 21
23.5
 31
0.0
100
AcDbText
  0
TEXT
  5
F9
330
1F
100
AcDbEntity
  8
枠_表
  6
CONTINUOUS
 62
     7
100
AcDbText
 10
144.200000166893
 20
14.14999999999998
 30
0.0
 40
7.0
  1
ＬＵＡ１０３２０
 41
1.140425524813064
  7
EXCADSTD
 72
     5
 11
197.799999833107
 21
14.14999999999998
 31
0.0
100
AcDbText
  0
TEXT
  5
FA
330
1F
100
AcDbEntity
  8
枠_表
  6
CONTINUOUS
 62
     2
100
AcDbText
 10
124.9999999999999
 20
272.25
 30
0.0
 40
4.0
  1
ＬＵ９０３ＴＳＤＲ
 41
0.8287735817567363
  7
EXCADSTD
 72
     5
 11
150.0999999046325
 21
272.25
 31
0.0
100
AcDbText
  0
TEXT
  5
FB
330
1F
100
AcDbEntity
  8
枠_表
  6
CONTINUOUS
 62
     2
100
AcDbText
 10
19.74999999999955
 20
21.0
 30
0.0
 40
5.0
  1
亀井
 41
1.224910909090909
  7
EXCADSTD
 72
     5
 11
29.37429999999954
 21
21.0
 31
0.0
100
AcDbText
  0
TEXT
  5
FC
330
1F
100
AcDbEntity
  8
枠_表
  6
CONTINUOUS
 62
     2
100
AcDbText
 10
62.49999999999949
 20
21.0
 30
0.0
 40
5.0
  1
間瀬
 41
1.22491090909091
  7
EXCADSTD
 72
     5
 11
72.1242999999995
 21
21.0
 31
0.0
100
AcDbText
  0
TEXT
  5
FD
330
1F
100
AcDbEntity
  8
枠_表
  6
CONTINUOUS
 62
     2
100
AcDbText
 10
17.44999999000004
 20
13.0
 30
0.0
 40
4.0
  1
28
 41
0.454054054054054
  7
EXCADSTD
 72
     5
 11
20.64999999000004
 21
13.0
 31
0.0
100
AcDbText
  0
TEXT
  5
FE
330
1F
100
AcDbEntity
  8
枠_表
  6
CONTINUOUS
 62
     2
100
AcDbText
 10
23.375
 20
13.0
 30
0.0
 40
4.0
  1
9
 41
0.4798828124999995
  7
EXCADSTD
 72
     5
 11
24.8375
 21
13.0
 31
0.0
100
AcDbText
  0
TEXT
  5
FF
330
1F
100
AcDbEntity
  8
枠_表
  6
CONTINUOUS
 62
     2
100
AcDbText
 10
27.80000001000002
 20
13.0
 30
0.0
 40
4.0
  1
26
 41
0.454054054054054
  7
EXCADSTD
 72
     5
 11
31.00000001000002
 21
13.0
 31
0.0
100
AcDbText
  0
POLYLINE
  5
100
330
1F
100
AcDbEntity
  8
化粧台
  6
CONTINUOUS
 62
     3
100
AcDb2dPolyline
 66
     1
 10
0.0
 20
0.0
 30
0.0
 70
   128
  0
VERTEX
  5
101
330
100
100
AcDbEntity
  8
化粧台
  6
CONTINUOUS
 62
     3
100
AcDbVertex
100
AcDb2dVertex
 10
1586.999999999998
 20
3929.5
 30
0.0
  0
VERTEX
  5
102
330
100
100
AcDbEntity
  8
化粧台
  6
CONTINUOUS
 62
     3
100
AcDbVertex
100
AcDb2dVertex
 10
1609.999999999998
 20
3880.0
 30
0.0
  0
SEQEND
  5
103
330
100
100
AcDbEntity
  8
化粧台
  6
CONTINUOUS
 62
     3
  0
LINE
  5
104
330
1F
100
AcDbEntity
  8
化粧台
  6
CONTINUOUS
 62
     3
100
AcDbLine
 10
1612.763749118669
 20
3891.850574621249
 30
0.0
 11
1586.999999999998
 21
3929.5
 31
0.0
  0
LINE
  5
105
330
1F
100
AcDbEntity
  8
化粧台
  6
CONTINUOUS
 62
     3
100
AcDbLine
 10
1586.999999999998
 20
3929.5
 30
0.0
 11
1599.160489584011
 21
3885.529868170801
 31
0.0
  0
POLYLINE
  5
106
330
1F
100
AcDbEntity
  8
化粧台
  6
CONTINUOUS
 62
     3
100
AcDb2dPolyline
 66
     1
 10
0.0
 20
0.0
 30
0.0
 70
   128
  0
VERTEX
  5
107
330
106
100
AcDbEntity
  8
化粧台
  6
CONTINUOUS
 62
     3
100
AcDbVertex
100
AcDb2dVertex
 10
1932.999999999998
 20
1017.5
 30
0.0
  0
VERTEX
  5
108
330
106
100
AcDbEntity
  8
化粧台
  6
CONTINUOUS
 62
     3
100
AcDbVertex
100
AcDb2dVertex
 10
1913.999999999998
 20
1066.5
 30
0.0
  0
SEQEND
  5
109
330
106
100
AcDbEntity
  8
化粧台
  6
CONTINUOUS
 62
     3
  0
LINE
  5
10A
330
1F
100
AcDbEntity
  8
化粧台
  6
CONTINUOUS
 62
     3
100
AcDbLine
 10
1909.738536730783
 20
1056.744799994075
 30
0.0
 11
1932.999999999998
 21
1017.5
 31
0.0
  0
LINE
  5
10B
330
1F
100
AcDbEntity
  8
化粧台
  6
CONTINUOUS
 62
     3
100
AcDbLine
 10
1932.999999999998
 20
1017.5
 30
0.0
 11
1923.723956365035
 21
1062.167717811438
 31
0.0
  0
LINE
  5
10C
330
1F
100
AcDbEntity
  8
化粧台
  6
EXLTYPE4
 62
     6
100
AcDbLine
 10
1713.999999999998
 20
1017.5
 30
0.0
 11
305.0
 21
1017.5
 31
0.0
  0
LINE
  5
10D
330
1F
100
AcDbEntity
  8
化粧台
  6
EXLTYPE4
 62
     6
100
AcDbLine
 10
318.0
 20
3929.5
 30
0.0
 11
1727.999999999998
 21
3929.5
 31
0.0
  0
TEXT
  5
10E
330
1F
100
AcDbEntity
  8
化粧台
  6
CONTINUOUS
 62
     2
100
AcDbText
 10
1629.00000053644
 20
3869.500003814697
 30
0.0
 40
59.99999618530273
  1
W.L.
 41
0.5571963512150641
  7
EXCADSTD
 72
     5
 11
1719.74340053644
 21
3869.500003814697
 31
0.0
100
AcDbText
  0
ARC
  5
10F
330
1F
100
AcDbEntity
  8
化粧台
  6
CONTINUOUS
 62
     2
100
AcDbCircle
 10
640.0000000000009
 20
3439.5
 30
0.0
 40
10.0
100
AcDbArc
 50
180.0
 51
270.0000000000002
  0
ARC
  5
110
330
1F
100
AcDbEntity
  8
化粧台
  6
CONTINUOUS
 62
     2
100
AcDbCircle
 10
1170.0
 20
3439.5
 30
0.0
 40
10.0
100
AcDbArc
 50
270.0000000000002
 51
0.0
  0
LINE
  5
111
330
1F
100
AcDbEntity
  8
化粧台
  6
CONTINUOUS
 62
     2
100
AcDbLine
 10
1180.0
 20
3929.5
 30
0.0
 11
1180.0
 21
3439.5
 31
0.0
  0
LINE
  5
112
330
1F
100
AcDbEntity
  8
化粧台
  6
CONTINUOUS
 62
     2
100
AcDbLine
 10
640.0000000000009
 20
3429.5
 30
0.0
 11
1170.0
 21
3429.5
 31
0.0
  0
LINE
  5
113
330
1F
100
AcDbEntity
  8
化粧台
  6
CONTINUOUS
 62
     2
100
AcDbLine
 10
630.0000000000009
 20
3929.5
 30
0.0
 11
630.0000000000009
 21
3439.5
 31
0.0
  0
LINE
  5
114
330
1F
100
AcDbEntity
  8
化粧台
  6
CONTINUOUS
 62
     2
100
AcDbLine
 10
661.0000000000009
 20
3440.5
 30
0.0
 11
1149.0
 21
3440.5
 31
0.0
  0
ARC
  5
115
330
1F
100
AcDbEntity
  8
化粧台
  6
CONTINUOUS
 62
     2
100
AcDbCircle
 10
661.0000000000009
 20
3460.5
 30
0.0
 40
20.0
100
AcDbArc
 50
180.0
 51
270.0000000000002
  0
ARC
  5
116
330
1F
100
AcDbEntity
  8
化粧台
  6
CONTINUOUS
 62
     2
100
AcDbCircle
 10
1149.0
 20
3460.5
 30
0.0
 40
20.0
100
AcDbArc
 50
270.0000000000002
 51
0.0
  0
LINE
  5
117
330
1F
100
AcDbEntity
  8
化粧台
  6
CONTINUOUS
 62
     2
100
AcDbLine
 10
980.0000000000018
 20
3740.5
 30
0.0
 11
980.0000000000018
 21
3594.5
 31
0.0
  0
LINE
  5
118
330
1F
100
AcDbEntity
  8
化粧台
  6
CONTINUOUS
 62
     2
100
AcDbLine
 10
830.0000000000018
 20
3740.5
 30
0.0
 11
830.0000000000018
 21
3594.5
 31
0.0
  0
LINE
  5
119
330
1F
100
AcDbEntity
  8
化粧台
  6
CONTINUOUS
 62
     2
100
AcDbLine
 10
830.0000000000018
 20
3594.5
 30
0.0
 11
980.0000000000018
 21
3594.5
 31
0.0
  0
ARC
  5
11A
330
1F
100
AcDbEntity
  8
化粧台
  6
CONTINUOUS
 62
     2
100
AcDbCircle
 10
236.0624573310461
 20
4130.446075093718
 30
0.0
 40
800.0000000000006
100
AcDbArc
 50
301.6289008635034
 51
317.9381374214719
  0
ARC
  5
11B
330
1F
100
AcDbEntity
  8
化粧台
  6
CONTINUOUS
 62
     2
100
AcDbCircle
 10
1573.937542668956
 20
4130.446075093718
 30
0.0
 40
800.0000000000006
100
AcDbArc
 50
222.0618625785282
 51
238.3710991364966
  0
ARC
  5
11C
330
1F
100
AcDbEntity
  8
化粧台
  6
CONTINUOUS
 62
     2
100
AcDbCircle
 10
651.0000000000009
 20
3904.5
 30
0.0
 40
10.0
100
AcDbArc
 50
90.00000000000004
 51
180.0
  0
ARC
  5
11D
330
1F
100
AcDbEntity
  8
化粧台
  6
CONTINUOUS
 62
     2
100
AcDbCircle
 10
1159.0
 20
3904.5
 30
0.0
 40
10.0
100
AcDbArc
 50
0.0
 51
90.00000000000004
  0
LINE
  5
11E
330
1F
100
AcDbEntity
  8
化粧台
  6
CONTINUOUS
 62
     2
100
AcDbLine
 10
641.0000000000009
 20
3904.5
 30
0.0
 11
641.0000000000009
 21
3460.5
 31
0.0
  0
LINE
  5
11F
330
1F
100
AcDbEntity
  8
化粧台
  6
CONTINUOUS
 62
     2
100
AcDbLine
 10
651.0000000000009
 20
3914.5
 30
0.0
 11
1159.0
 21
3914.5
 31
0.0
  0
LINE
  5
120
330
1F
100
AcDbEntity
  8
化粧台
  6
CONTINUOUS
 62
     2
100
AcDbLine
 10
1169.0
 20
3904.5
 30
0.0
 11
1169.0
 21
3460.5
 31
0.0
  0
LINE
  5
121
330
1F
100
AcDbEntity
  8
化粧台
  6
CONTINUOUS
 62
     2
100
AcDbLine
 10
980.0000000000018
 20
3740.5
 30
0.0
 11
1148.5
 21
3779.5
 31
0.0
  0
LINE
  5
122
330
1F
100
AcDbEntity
  8
化粧台
  6
CONTINUOUS
 62
     2
100
AcDbLine
 10
830.0000000000018
 20
3740.5
 30
0.0
 11
661.5000000000009
 21
3779.5
 31
0.0
  0
LINE
  5
123
330
1F
100
AcDbEntity
  8
化粧台
  6
CONTINUOUS
 62
     2
100
AcDbLine
 10
661.5000000000009
 20
3779.5
 30
0.0
 11
656.4012519609487
 21
3905.161772545196
 31
0.0
  0
LINE
  5
124
330
1F
100
AcDbEntity
  8
化粧台
  6
CONTINUOUS
 62
     2
100
AcDbLine
 10
1148.5
 20
3779.5
 30
0.0
 11
1153.598748039051
 21
3905.161772545196
 31
0.0
  0
LINE
  5
125
330
1F
100
AcDbEntity
  8
化粧台
  6
CONTINUOUS
 62
     6
100
AcDbLine
 10
868.1000000000004
 20
3694.5
 30
0.0
 11
941.9000000000015
 21
3694.5
 31
0.0
  0
LINE
  5
126
330
1F
100
AcDbEntity
  8
化粧台
  6
EXLTYPE3
 62
     6
100
AcDbLine
 10
905.0000000000009
 20
3939.5
 30
0.0
 11
905.0000000000009
 21
3419.5
 31
0.0
  0
CIRCLE
  5
127
330
1F
100
AcDbEntity
  8
化粧台
  6
CONTINUOUS
 62
     2
100
AcDbCircle
 10
905.0000000000018
 20
3694.5
 30
0.0
 40
18.0
  0
LINE
  5
128
330
1F
100
AcDbEntity
  8
化粧台
  6
CONTINUOUS
 62
     2
100
AcDbLine
 10
455.0000000000018
 20
3479.5
 30
0.0
 11
455.0000000000018
 21
3929.5
 31
0.0
  0
LINE
  5
129
330
1F
100
AcDbEntity
  8
化粧台
  6
CONTINUOUS
 62
     2
100
AcDbLine
 10
455.0000000000018
 20
3479.5
 30
0.0
 11
630.0000000000009
 21
3479.5
 31
0.0
  0
LINE
  5
12A
330
1F
100
AcDbEntity
  8
化粧台
  6
CONTINUOUS
 62
     2
100
AcDbLine
 10
1355.0
 20
3479.5
 30
0.0
 11
1355.0
 21
3929.5
 31
0.0
  0
LINE
  5
12B
330
1F
100
AcDbEntity
  8
化粧台
  6
CONTINUOUS
 62
     2
100
AcDbLine
 10
1179.999999999999
 20
3479.5
 30
0.0
 11
1355.0
 21
3479.5
 31
0.0
  0
LINE
  5
12C
330
1F
100
AcDbEntity
  8
化粧台
  6
CONTINUOUS
 62
     2
100
AcDbLine
 10
455.0000000000018
 20
3929.5
 30
0.0
 11
1355.0
 21
3929.5
 31
0.0
  0
LINE
  5
12D
330
1F
100
AcDbEntity
  8
化粧台
  6
CONTINUOUS
 62
     6
100
AcDbLine
 10
587.0000000000018
 20
3914.5
 30
0.0
 11
587.0000000000018
 21
3972.0
 31
0.0
  0
LINE
  5
12E
330
1F
100
AcDbEntity
  8
化粧台
  6
CONTINUOUS
 62
     6
100
AcDbLine
 10
587.0000000000018
 20
3962.000000000004
 30
0.0
 11
589.0000000000009
 21
3929.500000000004
 31
0.0
  0
LINE
  5
12F
330
1F
100
AcDbEntity
  8
化粧台
  6
CONTINUOUS
 62
     6
100
AcDbLine
 10
585.0000000000009
 20
3929.500000000004
 30
0.0
 11
587.0000000000018
 21
3962.000000000004
 31
0.0
  0
LINE
  5
130
330
1F
100
AcDbEntity
  8
化粧台
  6
CONTINUOUS
 62
     6
100
AcDbLine
 10
1223.000000000001
 20
3914.5
 30
0.0
 11
1223.000000000001
 21
3972.0
 31
0.0
  0
LINE
  5
131
330
1F
100
AcDbEntity
  8
化粧台
  6
CONTINUOUS
 62
     6
100
AcDbLine
 10
1223.000000000001
 20
3962.000000000004
 30
0.0
 11
1225.0
 21
3929.500000000004
 31
0.0
  0
LINE
  5
132
330
1F
100
AcDbEntity
  8
化粧台
  6
CONTINUOUS
 62
     6
100
AcDbLine
 10
1221.0
 20
3929.500000000004
 30
0.0
 11
1223.000000000001
 21
3962.000000000004
 31
0.0
  0
LINE
  5
133
330
1F
100
AcDbEntity
  8
化粧台
  6
CONTINUOUS
 62
     2
100
AcDbLine
 10
1174.996305873157
 20
1722.307834389494
 30
0.0
 11
1179.996305873157
 21
1852.307834389494
 31
0.0
  0
ARC
  5
134
330
1F
100
AcDbEntity
  8
化粧台
  6
CONTINUOUS
 62
     2
100
AcDbCircle
 10
1175.000000000001
 20
1852.5
 30
0.0
 40
5.0
100
AcDbArc
 50
357.7974018382349
 51
90.00000000000004
  0
ARC
  5
135
330
1F
100
AcDbEntity
  8
化粧台
  6
CONTINUOUS
 62
     2
100
AcDbCircle
 10
1170.000000000001
 20
1722.5
 30
0.0
 40
5.0
100
AcDbArc
 50
270.0000000000002
 51
357.7974018382349
  0
LINE
  5
136
330
1F
100
AcDbEntity
  8
化粧台
  6
CONTINUOUS
 62
     2
100
AcDbLine
 10
635.0036941268454
 20
1722.307834389494
 30
0.0
 11
630.0036941268454
 21
1852.307834389494
 31
0.0
  0
ARC
  5
137
330
1F
100
AcDbEntity
  8
化粧台
  6
CONTINUOUS
 62
     2
100
AcDbCircle
 10
635.0000000000018
 20
1852.5
 30
0.0
 40
5.0
100
AcDbArc
 50
90.00000000000004
 51
182.2025981617654
  0
ARC
  5
138
330
1F
100
AcDbEntity
  8
化粧台
  6
CONTINUOUS
 62
     2
100
AcDbCircle
 10
640.0000000000018
 20
1722.5
 30
0.0
 40
5.0
100
AcDbArc
 50
182.2025981617654
 51
270.0000000000002
  0
LINE
  5
139
330
1F
100
AcDbEntity
  8
化粧台
  6
CONTINUOUS
 62
     2
100
AcDbLine
 10
635.0000000000018
 20
1857.5
 30
0.0
 11
1175.000000000001
 21
1857.5
 31
0.0
  0
ARC
  5
13A
330
1F
100
AcDbEntity
  8
化粧台
  6
CONTINUOUS
 62
     2
100
AcDbCircle
 10
828.2500000000009
 20
1441.2
 30
0.0
 40
11.0
100
AcDbArc
 50
146.9442688491492
 51
152.4198007964095
  0
ARC
  5
13B
330
1F
100
AcDbEntity
  8
化粧台
  6
CONTINUOUS
 62
     2
100
AcDbCircle
 10
828.2500000000009
 20
1441.2
 30
0.0
 40
11.0
100
AcDbArc
 50
207.5801992036012
 51
213.0557311508995
  0
ARC
  5
13C
330
1F
100
AcDbEntity
  8
化粧台
  6
CONTINUOUS
 62
     2
100
AcDbCircle
 10
831.7500000000009
 20
1441.2
 30
0.0
 40
11.0
100
AcDbArc
 50
326.9442688491007
 51
332.4198007963992
  0
ARC
  5
13D
330
1F
100
AcDbEntity
  8
化粧台
  6
CONTINUOUS
 62
     2
100
AcDbCircle
 10
831.7500000000009
 20
1441.2
 30
0.0
 40
11.0
100
AcDbArc
 50
27.58019920360115
 51
33.05573115089945
  0
LINE
  5
13E
330
1F
100
AcDbEntity
  8
化粧台
  6
CONTINUOUS
 62
     2
100
AcDbLine
 10
818.5000000000009
 20
1446.29288719687
 30
0.0
 11
818.5000000000009
 21
1436.10711280313
 31
0.0
  0
LINE
  5
13F
330
1F
100
AcDbEntity
  8
化粧台
  6
CONTINUOUS
 62
     2
100
AcDbLine
 10
841.5000000000009
 20
1446.29288719687
 30
0.0
 11
841.5000000000009
 21
1436.10711280313
 31
0.0
  0
LINE
  5
140
330
1F
100
AcDbEntity
  8
化粧台
  6
CONTINUOUS
 62
     2
100
AcDbLine
 10
840.9695444572908
 20
1447.2
 30
0.0
 11
819.030455542711
 21
1447.2
 31
0.0
  0
LINE
  5
141
330
1F
100
AcDbEntity
  8
化粧台
  6
CONTINUOUS
 62
     2
100
AcDbLine
 10
840.9695444572908
 20
1435.2
 30
0.0
 11
819.030455542711
 21
1435.2
 31
0.0
  0
LINE
  5
142
330
1F
100
AcDbEntity
  8
化粧台
  6
CONTINUOUS
 62
     2
100
AcDbLine
 10
836.4999999999982
 20
1585.975339050051
 30
0.0
 11
836.4999999999982
 21
1447.2
 31
0.0
  0
ARC
  5
143
330
1F
100
AcDbEntity
  8
化粧台
  6
CONTINUOUS
 62
     2
100
AcDbCircle
 10
1123.499999999997
 20
1585.975339050051
 30
0.0
 40
287.0
100
AcDbArc
 50
163.4974479361903
 51
180.0
  0
LINE
  5
144
330
1F
100
AcDbEntity
  8
化粧台
  6
CONTINUOUS
 62
     2
100
AcDbLine
 10
823.4999999999982
 20
1447.200000000001
 30
0.0
 11
823.4999999999982
 21
1585.975339050051
 31
0.0
  0
ARC
  5
145
330
1F
100
AcDbEntity
  8
化粧台
  6
CONTINUOUS
 62
     2
100
AcDbCircle
 10
1123.499999999997
 20
1585.975339050051
 30
0.0
 40
300.0
100
AcDbArc
 50
164.231638666689
 51
180.0
  0
ARC
  5
146
330
1F
100
AcDbEntity
  8
化粧台
  6
CONTINUOUS
 62
     2
100
AcDbCircle
 10
981.7500000000009
 20
1441.2
 30
0.0
 40
11.0
100
AcDbArc
 50
27.58019920359027
 51
33.05573115085006
  0
ARC
  5
147
330
1F
100
AcDbEntity
  8
化粧台
  6
CONTINUOUS
 62
     2
100
AcDbCircle
 10
981.7500000000009
 20
1441.2
 30
0.0
 40
11.0
100
AcDbArc
 50
326.9442688491004
 51
332.4198007964001
  0
ARC
  5
148
330
1F
100
AcDbEntity
  8
化粧台
  6
CONTINUOUS
 62
     2
100
AcDbCircle
 10
978.2500000000009
 20
1441.2
 30
0.0
 40
11.0
100
AcDbArc
 50
207.5801992036001
 51
213.0557311509001
  0
ARC
  5
149
330
1F
100
AcDbEntity
  8
化粧台
  6
CONTINUOUS
 62
     2
100
AcDbCircle
 10
978.2500000000009
 20
1441.2
 30
0.0
 40
11.0
100
AcDbArc
 50
146.9442688490998
 51
152.4198007963999
  0
LINE
  5
14A
330
1F
100
AcDbEntity
  8
化粧台
  6
CONTINUOUS
 62
     2
100
AcDbLine
 10
991.5000000000009
 20
1446.29288719687
 30
0.0
 11
991.5000000000009
 21
1436.10711280313
 31
0.0
  0
LINE
  5
14B
330
1F
100
AcDbEntity
  8
化粧台
  6
CONTINUOUS
 62
     2
100
AcDbLine
 10
968.5000000000009
 20
1446.29288719687
 30
0.0
 11
968.5000000000009
 21
1436.10711280313
 31
0.0
  0
LINE
  5
14C
330
1F
100
AcDbEntity
  8
化粧台
  6
CONTINUOUS
 62
     2
100
AcDbLine
 10
969.030455542711
 20
1447.2
 30
0.0
 11
990.9695444572908
 21
1447.2
 31
0.0
  0
LINE
  5
14D
330
1F
100
AcDbEntity
  8
化粧台
  6
CONTINUOUS
 62
     2
100
AcDbLine
 10
969.030455542711
 20
1435.2
 30
0.0
 11
990.9695444572908
 21
1435.2
 31
0.0
  0
LINE
  5
14E
330
1F
100
AcDbEntity
  8
化粧台
  6
CONTINUOUS
 62
     2
100
AcDbLine
 10
973.5000000000036
 20
1585.975339050051
 30
0.0
 11
973.5000000000036
 21
1447.2
 31
0.0
  0
LINE
  5
14F
330
1F
100
AcDbEntity
  8
化粧台
  6
CONTINUOUS
 62
     2
100
AcDbLine
 10
986.5000000000036
 20
1447.200000000001
 30
0.0
 11
986.5000000000036
 21
1585.975339050051
 31
0.0
  0
ARC
  5
150
330
1F
100
AcDbEntity
  8
化粧台
  6
CONTINUOUS
 62
     2
100
AcDbCircle
 10
686.5000000000036
 20
1585.975339050051
 30
0.0
 40
300.0
100
AcDbArc
 50
0.0
 51
15.76836133331106
  0
ARC
  5
151
330
1F
100
AcDbEntity
  8
化粧台
  6
CONTINUOUS
 62
     2
100
AcDbCircle
 10
686.5000000000036
 20
1585.975339050051
 30
0.0
 40
287.0
100
AcDbArc
 50
0.0
 51
16.50255206380972
  0
LINE
  5
152
330
1F
100
AcDbEntity
  8
化粧台
  6
CONTINUOUS
 62
     2
100
AcDbLine
 10
885.0000000000036
 20
1660.000000000001
 30
0.0
 11
885.0000000000036
 21
1622.500000000001
 31
0.0
  0
LINE
  5
153
330
1F
100
AcDbEntity
  8
化粧台
  6
CONTINUOUS
 62
     2
100
AcDbLine
 10
921.0000000000036
 20
1620.5
 30
0.0
 11
925.0000000000036
 21
1622.500000000001
 31
0.0
  0
LINE
  5
154
330
1F
100
AcDbEntity
  8
化粧台
  6
CONTINUOUS
 62
     2
100
AcDbLine
 10
889.0000000000036
 20
1620.5
 30
0.0
 11
885.0000000000036
 21
1622.500000000001
 31
0.0
  0
LINE
  5
155
330
1F
100
AcDbEntity
  8
化粧台
  6
CONTINUOUS
 62
     2
100
AcDbLine
 10
921.0000000000036
 20
1620.5
 30
0.0
 11
889.0000000000036
 21
1620.5
 31
0.0
  0
LINE
  5
156
330
1F
100
AcDbEntity
  8
化粧台
  6
CONTINUOUS
 62
     2
100
AcDbLine
 10
925.0000000000036
 20
1622.500000000001
 30
0.0
 11
885.0000000000036
 21
1622.500000000001
 31
0.0
  0
LINE
  5
157
330
1F
100
AcDbEntity
  8
化粧台
  6
CONTINUOUS
 62
     2
100
AcDbLine
 10
925.0
 20
1660.000000000001
 30
0.0
 11
925.0
 21
1622.500000000001
 31
0.0
  0
LINE
  5
158
330
1F
100
AcDbEntity
  8
化粧台
  6
CONTINUOUS
 62
     2
100
AcDbLine
 10
922.5000000000036
 20
1667.33333333333
 30
0.0
 11
922.5000000000036
 21
1667.000000000001
 31
0.0
  0
LINE
  5
159
330
1F
100
AcDbEntity
  8
化粧台
  6
CONTINUOUS
 62
     2
100
AcDbLine
 10
887.5000000000036
 20
1667.33333333333
 30
0.0
 11
887.5000000000036
 21
1667.000000000001
 31
0.0
  0
LINE
  5
15A
330
1F
100
AcDbEntity
  8
化粧台
  6
CONTINUOUS
 62
     2
100
AcDbLine
 10
923.0000000000036
 20
1667.000000000001
 30
0.0
 11
887.0000000000036
 21
1667.000000000001
 31
0.0
  0
LINE
  5
15B
330
1F
100
AcDbEntity
  8
化粧台
  6
CONTINUOUS
 62
     2
100
AcDbLine
 10
885.5000000000018
 20
1666.66227766017
 30
0.0
 11
885.5000000000018
 21
1660.33772233983
 31
0.0
  0
LINE
  5
15C
330
1F
100
AcDbEntity
  8
化粧台
  6
CONTINUOUS
 62
     2
100
AcDbLine
 10
924.5000000000018
 20
1666.66227766017
 30
0.0
 11
924.5000000000018
 21
1660.33772233983
 31
0.0
  0
ARC
  5
15D
330
1F
100
AcDbEntity
  8
化粧台
  6
CONTINUOUS
 62
     2
100
AcDbCircle
 10
887.0000000000036
 20
1663.500000000001
 30
0.0
 40
3.500000000000002
100
AcDbArc
 50
90.00000000000004
 51
115.3769335251844
  0
ARC
  5
15E
330
1F
100
AcDbEntity
  8
化粧台
  6
CONTINUOUS
 62
     2
100
AcDbCircle
 10
887.0000000000036
 20
1663.500000000001
 30
0.0
 40
3.500000000000002
100
AcDbArc
 50
244.6230664748158
 51
270.0000000000002
  0
ARC
  5
15F
330
1F
100
AcDbEntity
  8
化粧台
  6
CONTINUOUS
 62
     2
100
AcDbCircle
 10
923.0000000000036
 20
1663.500000000001
 30
0.0
 40
3.500000000000002
100
AcDbArc
 50
270.0000000000002
 51
295.37693352512
  0
ARC
  5
160
330
1F
100
AcDbEntity
  8
化粧台
  6
CONTINUOUS
 62
     2
100
AcDbCircle
 10
923.0000000000036
 20
1663.500000000001
 30
0.0
 40
3.500000000000002
100
AcDbArc
 50
64.62306647488015
 51
90.00000000000009
  0
LINE
  5
161
330
1F
100
AcDbEntity
  8
化粧台
  6
CONTINUOUS
 62
     2
100
AcDbLine
 10
925.0
 20
1660.000000000001
 30
0.0
 11
885.0000000000036
 21
1660.000000000001
 31
0.0
  0
ELLIPSE
  5
162
330
1F
100
AcDbEntity
  8
化粧台
  6
CONTINUOUS
 62
     6
100
AcDbEllipse
 10
914.7500000000018
 20
1663.5
 30
0.0
 11
7.84219357069992
 21
0.0
 31
0.0
210
0.0
220
0.0
230
1.0
 40
0.4033884710279674
 41
0.0
 42
6.283185307179586
  0
ELLIPSE
  5
163
330
1F
100
AcDbEntity
  8
化粧台
  6
CONTINUOUS
 62
     6
100
AcDbEllipse
 10
895.2500000000018
 20
1663.5
 30
0.0
 11
7.84219357069992
 21
0.0
 31
0.0
210
0.0
220
0.0
230
1.0
 40
0.4033884710279674
 41
0.0
 42
6.283185307179586
  0
ELLIPSE
  5
164
330
1F
100
AcDbEntity
  8
化粧台
  6
CONTINUOUS
 62
     6
100
AcDbEllipse
 10
824.2490288903509
 20
1441.2
 30
0.0
 11
-9.355482006098073E-16
 21
-5.09288719687
 31
0.0
210
0.0
220
0.0
230
1.0
 40
0.936409683937426
 41
0.0
 42
6.283185307179586
  0
ELLIPSE
  5
165
330
1F
100
AcDbEntity
  8
化粧台
  6
CONTINUOUS
 62
     6
100
AcDbEllipse
 10
835.7509711096509
 20
1441.2
 30
0.0
 11
3.118494002032691E-16
 21
5.09288719687
 31
0.0
210
0.0
220
0.0
230
1.0
 40
0.936409683937426
 41
0.0
 42
6.283185307179586
  0
ELLIPSE
  5
166
330
1F
100
AcDbEntity
  8
化粧台
  6
CONTINUOUS
 62
     6
100
AcDbEllipse
 10
974.24902889035
 20
1441.2
 30
0.0
 11
-9.355482006098073E-16
 21
-5.09288719687
 31
0.0
210
0.0
220
0.0
230
1.0
 40
0.936409683937426
 41
0.0
 42
6.283185307179586
  0
ELLIPSE
  5
167
330
1F
100
AcDbEntity
  8
化粧台
  6
CONTINUOUS
 62
     6
100
AcDbEllipse
 10
985.75097110965
 20
1441.2
 30
0.0
 11
3.118494002032691E-16
 21
5.09288719687
 31
0.0
210
0.0
220
0.0
230
1.0
 40
0.936409683937426
 41
0.0
 42
6.283185307179586
  0
LINE
  5
168
330
1F
100
AcDbEntity
  8
化粧台
  6
CONTINUOUS
 62
     2
100
AcDbLine
 10
455.0000000000018
 20
1717.5
 30
0.0
 11
455.0000000000018
 21
1708.5
 31
0.0
  0
LINE
  5
169
330
1F
100
AcDbEntity
  8
化粧台
  6
CONTINUOUS
 62
     2
100
AcDbLine
 10
507.0000000000082
 20
1017.5
 30
0.0
 11
457.0000000000091
 21
1017.5
 31
0.0
  0
LINE
  5
16A
330
1F
100
AcDbEntity
  8
化粧台
  6
CONTINUOUS
 62
     2
100
AcDbLine
 10
457.0000000000091
 20
1708.5
 30
0.0
 11
457.0000000000091
 21
1017.5
 31
0.0
  0
LINE
  5
16B
330
1F
100
AcDbEntity
  8
化粧台
  6
CONTINUOUS
 62
     2
100
AcDbLine
 10
507.0000000000082
 20
1667.5
 30
0.0
 11
507.0000000000082
 21
1017.5
 31
0.0
  0
LINE
  5
16C
330
1F
100
AcDbEntity
  8
化粧台
  6
CONTINUOUS
 62
     2
100
AcDbLine
 10
465.9999999993834
 20
1708.5
 30
0.0
 11
455.0000000000018
 21
1708.5
 31
0.0
  0
LINE
  5
16D
330
1F
100
AcDbEntity
  8
化粧台
  6
CONTINUOUS
 62
     2
100
AcDbLine
 10
506.9999999996917
 20
1667.499999999691
 30
0.0
 11
465.9999999993834
 21
1708.5
 31
0.0
  0
LINE
  5
16E
330
1F
100
AcDbEntity
  8
化粧台
  6
CONTINUOUS
 62
     6
100
AcDbLine
 10
507.0000000000082
 20
1666.085786437001
 30
0.0
 11
465.58578643701
 21
1707.5
 31
0.0
  0
LINE
  5
16F
330
1F
100
AcDbEntity
  8
化粧台
  6
CONTINUOUS
 62
     6
100
AcDbLine
 10
465.58578643701
 20
1707.5
 30
0.0
 11
457.0000000000091
 21
1707.5
 31
0.0
  0
LINE
  5
170
330
1F
100
AcDbEntity
  8
化粧台
  6
CONTINUOUS
 62
     6
100
AcDbLine
 10
587.0000000000009
 20
1650.5
 30
0.0
 11
587.0000000000009
 21
1624.5
 31
0.0
  0
LINE
  5
171
330
1F
100
AcDbEntity
  8
化粧台
  6
CONTINUOUS
 62
     6
100
AcDbLine
 10
599.9999999999991
 20
1637.5
 30
0.0
 11
573.9999999999991
 21
1637.5
 31
0.0
  0
LINE
  5
172
330
1F
100
AcDbEntity
  8
化粧台
  6
CONTINUOUS
 62
     2
100
AcDbLine
 10
1355.0
 20
1717.5
 30
0.0
 11
1355.0
 21
1708.5
 31
0.0
  0
LINE
  5
173
330
1F
100
AcDbEntity
  8
化粧台
  6
CONTINUOUS
 62
     2
100
AcDbLine
 10
1302.999999999991
 20
1017.5
 30
0.0
 11
1352.999999999991
 21
1017.5
 31
0.0
  0
LINE
  5
174
330
1F
100
AcDbEntity
  8
化粧台
  6
CONTINUOUS
 62
     2
100
AcDbLine
 10
1352.999999999991
 20
1708.5
 30
0.0
 11
1352.999999999993
 21
1017.5
 31
0.0
  0
LINE
  5
175
330
1F
100
AcDbEntity
  8
化粧台
  6
CONTINUOUS
 62
     2
100
AcDbLine
 10
1302.999999999989
 20
1667.5
 30
0.0
 11
1302.999999999991
 21
1017.5
 31
0.0
  0
LINE
  5
176
330
1F
100
AcDbEntity
  8
化粧台
  6
CONTINUOUS
 62
     2
100
AcDbLine
 10
1344.000000000615
 20
1708.5
 30
0.0
 11
1355.0
 21
1708.5
 31
0.0
  0
LINE
  5
177
330
1F
100
AcDbEntity
  8
化粧台
  6
CONTINUOUS
 62
     2
100
AcDbLine
 10
1303.000000000307
 20
1667.499999999691
 30
0.0
 11
1344.000000000615
 21
1708.5
 31
0.0
  0
LINE
  5
178
330
1F
100
AcDbEntity
  8
化粧台
  6
CONTINUOUS
 62
     6
100
AcDbLine
 10
1352.999999999991
 20
1707.5
 30
0.0
 11
1344.414213562988
 21
1707.5
 31
0.0
  0
LINE
  5
179
330
1F
100
AcDbEntity
  8
化粧台
  6
CONTINUOUS
 62
     6
100
AcDbLine
 10
1344.414213562988
 20
1707.5
 30
0.0
 11
1302.999999999989
 21
1666.085786436999
 31
0.0
  0
LINE
  5
17A
330
1F
100
AcDbEntity
  8
化粧台
  6
CONTINUOUS
 62
     6
100
AcDbLine
 10
1223.0
 20
1650.5
 30
0.0
 11
1223.0
 21
1624.5
 31
0.0
  0
LINE
  5
17B
330
1F
100
AcDbEntity
  8
化粧台
  6
CONTINUOUS
 62
     6
100
AcDbLine
 10
1210.0
 20
1637.5
 30
0.0
 11
1236.0
 21
1637.5
 31
0.0
  0
LINE
  5
17C
330
1F
100
AcDbEntity
  8
化粧台
  6
CONTINUOUS
 62
     2
100
AcDbLine
 10
455.0000000000018
 20
1717.5
 30
0.0
 11
1355.0
 21
1717.5
 31
0.0
  0
LINE
  5
17D
330
1F
100
AcDbEntity
  8
化粧台
  6
CONTINUOUS
 62
     2
100
AcDbLine
 10
507.0000000000082
 20
1667.5
 30
0.0
 11
1302.999999999989
 21
1667.500000000002
 31
0.0
  0
LINE
  5
17E
330
1F
100
AcDbEntity
  8
化粧台
  6
CONTINUOUS
 62
     2
100
AcDbLine
 10
507.0000000000082
 20
1267.5
 30
0.0
 11
1302.999999999991
 21
1267.500000000002
 31
0.0
  0
CIRCLE
  5
17F
330
1F
100
AcDbEntity
  8
化粧台
  6
CONTINUOUS
 62
     2
100
AcDbCircle
 10
587.0
 20
1637.5
 30
0.0
 40
5.0
  0
CIRCLE
  5
180
330
1F
100
AcDbEntity
  8
化粧台
  6
CONTINUOUS
 62
     2
100
AcDbCircle
 10
1222.999999999999
 20
1637.5
 30
0.0
 40
5.0
  0
LINE
  5
181
330
1F
100
AcDbEntity
  8
化粧台
  6
CONTINUOUS
 62
     6
100
AcDbLine
 10
888.2500000000018
 20
1484.499999999951
 30
0.0
 11
888.2500000000018
 21
1435.274886499952
 31
0.0
  0
LINE
  5
182
330
1F
100
AcDbEntity
  8
化粧台
  6
CONTINUOUS
 62
     6
100
AcDbLine
 10
921.7499999999982
 20
1484.499999999951
 30
0.0
 11
921.7499999999982
 21
1435.274886499952
 31
0.0
  0
LINE
  5
183
330
1F
100
AcDbEntity
  8
化粧台
  6
CONTINUOUS
 62
     6
100
AcDbLine
 10
921.7500000000309
 20
1435.274886499921
 30
0.0
 11
921.0
 21
1434.52488649989
 31
0.0
  0
LINE
  5
184
330
1F
100
AcDbEntity
  8
化粧台
  6
CONTINUOUS
 62
     6
100
AcDbLine
 10
888.2500000000127
 20
1435.274886499963
 30
0.0
 11
889.0
 21
1434.524886499974
 31
0.0
  0
LINE
  5
185
330
1F
100
AcDbEntity
  8
化粧台
  6
CONTINUOUS
 62
     6
100
AcDbLine
 10
889.0
 20
1434.89988649997
 30
0.0
 11
921.0
 21
1434.89988649997
 31
0.0
  0
ELLIPSE
  5
186
330
1F
100
AcDbEntity
  8
化粧台
  6
CONTINUOUS
 62
     6
100
AcDbEllipse
 10
915.7500000000009
 20
1490.499999999951
 30
0.0
 11
9.236476601000053
 21
0.0
 31
0.0
210
0.0
220
0.0
230
1.0
 40
0.6495983543497931
 41
0.0
 42
6.283185307179586
  0
LINE
  5
187
330
1F
100
AcDbEntity
  8
化粧台
  6
CONTINUOUS
 62
     6
100
AcDbLine
 10
926.5
 20
1496.499999999951
 30
0.0
 11
926.5
 21
1484.499999999951
 31
0.0
  0
ELLIPSE
  5
188
330
1F
100
AcDbEntity
  8
化粧台
  6
CONTINUOUS
 62
     6
100
AcDbEllipse
 10
894.2500000000009
 20
1490.499999999951
 30
0.0
 11
9.236476601000053
 21
0.0
 31
0.0
210
0.0
220
0.0
230
1.0
 40
0.6495983543497931
 41
0.0
 42
6.283185307179586
  0
LINE
  5
189
330
1F
100
AcDbEntity
  8
化粧台
  6
CONTINUOUS
 62
     6
100
AcDbLine
 10
883.5000000000009
 20
1496.499999999951
 30
0.0
 11
883.5000000000009
 21
1484.499999999951
 31
0.0
  0
LINE
  5
18A
330
1F
100
AcDbEntity
  8
化粧台
  6
CONTINUOUS
 62
     6
100
AcDbLine
 10
883.5000000000009
 20
1484.499999999951
 30
0.0
 11
926.5
 21
1484.499999999951
 31
0.0
  0
LINE
  5
18B
330
1F
100
AcDbEntity
  8
化粧台
  6
CONTINUOUS
 62
     6
100
AcDbLine
 10
883.5000000000009
 20
1496.499999999951
 30
0.0
 11
926.5
 21
1496.499999999951
 31
0.0
  0
LINE
  5
18C
330
1F
100
AcDbEntity
  8
化粧台
  6
CONTINUOUS
 62
     6
100
AcDbLine
 10
926.5
 20
1413.499999999951
 30
0.0
 11
926.5
 21
1401.499999999951
 31
0.0
  0
LINE
  5
18D
330
1F
100
AcDbEntity
  8
化粧台
  6
CONTINUOUS
 62
     6
100
AcDbLine
 10
883.5000000000009
 20
1413.499999999951
 30
0.0
 11
883.5000000000009
 21
1401.499999999951
 31
0.0
  0
ELLIPSE
  5
18E
330
1F
100
AcDbEntity
  8
化粧台
  6
CONTINUOUS
 62
     6
100
AcDbEllipse
 10
894.2500000000009
 20
1407.499999999951
 30
0.0
 11
9.236476601000053
 21
0.0
 31
0.0
210
0.0
220
0.0
230
1.0
 40
0.6495983543497932
 41
2.175354430434986
 42
4.107830876744602
  0
ELLIPSE
  5
18F
330
1F
100
AcDbEntity
  8
化粧台
  6
CONTINUOUS
 62
     6
100
AcDbEllipse
 10
915.7500000000009
 20
1407.499999999951
 30
0.0
 11
9.236476601000053
 21
0.0
 31
0.0
210
0.0
220
0.0
230
1.0
 40
0.6495983543497932
 41
5.316947084024834
 42
7.249423530334343
  0
LINE
  5
190
330
1F
100
AcDbEntity
  8
化粧台
  6
CONTINUOUS
 62
     6
100
AcDbLine
 10
883.5000000000009
 20
1413.499999999951
 30
0.0
 11
889.0000000000018
 21
1413.499999999951
 31
0.0
  0
LINE
  5
191
330
1F
100
AcDbEntity
  8
化粧台
  6
CONTINUOUS
 62
     6
100
AcDbLine
 10
883.5000000000009
 20
1401.499999999951
 30
0.0
 11
889.0000000000018
 21
1401.499999999951
 31
0.0
  0
LINE
  5
192
330
1F
100
AcDbEntity
  8
化粧台
  6
CONTINUOUS
 62
     6
100
AcDbLine
 10
921.0
 20
1401.499999999951
 30
0.0
 11
926.5
 21
1401.499999999951
 31
0.0
  0
LINE
  5
193
330
1F
100
AcDbEntity
  8
化粧台
  6
CONTINUOUS
 62
     6
100
AcDbLine
 10
921.0
 20
1413.499999999951
 30
0.0
 11
926.5
 21
1413.499999999951
 31
0.0
  0
ARC
  5
194
330
1F
100
AcDbEntity
  8
化粧台
  6
CONTINUOUS
 62
     6
100
AcDbCircle
 10
905.0000000000009
 20
1452.5
 30
0.0
 40
33.0
100
AcDbArc
 50
120.5024866625967
 51
240.9974539733312
  0
ARC
  5
195
330
1F
100
AcDbEntity
  8
化粧台
  6
CONTINUOUS
 62
     6
100
AcDbCircle
 10
905.0000000000009
 20
1452.5
 30
0.0
 40
33.0
100
AcDbArc
 50
299.0025460266706
 51
59.49751333740528
  0
LINE
  5
196
330
1F
100
AcDbEntity
  8
化粧台
  6
CONTINUOUS
 62
     6
100
AcDbLine
 10
889.0000000000018
 20
1434.89988649997
 30
0.0
 11
889.0000000000018
 21
1360.5
 31
0.0
  0
LINE
  5
197
330
1F
100
AcDbEntity
  8
化粧台
  6
CONTINUOUS
 62
     6
100
AcDbLine
 10
921.0
 20
1434.89988649997
 30
0.0
 11
921.0
 21
1360.5
 31
0.0
  0
ARC
  5
198
330
1F
100
AcDbEntity
  8
化粧台
  6
CONTINUOUS
 62
     6
100
AcDbCircle
 10
905.0000000000009
 20
1360.500000000002
 30
0.0
 40
15.99999999999955
100
AcDbArc
 50
180.0
 51
0.0
  0
LINE
  5
199
330
1F
100
AcDbEntity
  8
化粧台
  6
CONTINUOUS
 62
     6
100
AcDbLine
 10
948.0
 20
1452.500000000001
 30
0.0
 11
862.0000000000009
 21
1452.500000000001
 31
0.0
  0
LINE
  5
19A
330
1F
100
AcDbEntity
  8
化粧台
  6
CONTINUOUS
 62
     6
100
AcDbLine
 10
843.0000000000009
 20
1406.66369123504
 30
0.0
 11
843.0000000000009
 21
1418.33630876496
 31
0.0
  0
LINE
  5
19B
330
1F
100
AcDbEntity
  8
化粧台
  6
CONTINUOUS
 62
     6
100
AcDbLine
 10
841.5543916547904
 20
1420.840175866721
 30
0.0
 11
831.4456083452105
 21
1426.67648463168
 31
0.0
  0
LINE
  5
19C
330
1F
100
AcDbEntity
  8
化粧台
  6
CONTINUOUS
 62
     6
100
AcDbLine
 10
828.5543916547904
 20
1426.67648463168
 30
0.0
 11
818.4456083452105
 21
1420.840175866721
 31
0.0
  0
LINE
  5
19D
330
1F
100
AcDbEntity
  8
化粧台
  6
CONTINUOUS
 62
     6
100
AcDbLine
 10
817.0000000000009
 20
1418.33630876496
 30
0.0
 11
817.0000000000009
 21
1406.66369123504
 31
0.0
  0
LINE
  5
19E
330
1F
100
AcDbEntity
  8
化粧台
  6
CONTINUOUS
 62
     6
100
AcDbLine
 10
818.4456083452105
 20
1404.159824133279
 30
0.0
 11
828.5543916547904
 21
1398.32351536832
 31
0.0
  0
LINE
  5
19F
330
1F
100
AcDbEntity
  8
化粧台
  6
CONTINUOUS
 62
     6
100
AcDbLine
 10
831.4456083452105
 20
1398.32351536832
 30
0.0
 11
841.5543916547904
 21
1404.159824133279
 31
0.0
  0
ARC
  5
1A0
330
1F
100
AcDbEntity
  8
化粧台
  6
CONTINUOUS
 62
     6
100
AcDbCircle
 10
830.0000000000009
 20
1412.5
 30
0.0
 40
14.25000000000001
100
AcDbArc
 50
264.1775448336001
 51
275.8224551664
  0
ARC
  5
1A1
330
1F
100
AcDbEntity
  8
化粧台
  6
CONTINUOUS
 62
     6
100
AcDbCircle
 10
830.0000000000009
 20
1412.5
 30
0.0
 40
14.25000000000001
100
AcDbArc
 50
324.1775448336001
 51
335.8224551664001
  0
ARC
  5
1A2
330
1F
100
AcDbEntity
  8
化粧台
  6
CONTINUOUS
 62
     6
100
AcDbCircle
 10
830.0000000000009
 20
1412.5
 30
0.0
 40
14.25000000000001
100
AcDbArc
 50
24.17754483359991
 51
35.82245516639971
  0
ARC
  5
1A3
330
1F
100
AcDbEntity
  8
化粧台
  6
CONTINUOUS
 62
     6
100
AcDbCircle
 10
830.0000000000009
 20
1412.5
 30
0.0
 40
14.25000000000001
100
AcDbArc
 50
84.1775448336001
 51
95.82245516635992
  0
ARC
  5
1A4
330
1F
100
AcDbEntity
  8
化粧台
  6
CONTINUOUS
 62
     6
100
AcDbCircle
 10
830.0000000000009
 20
1412.5
 30
0.0
 40
14.25000000000001
100
AcDbArc
 50
144.1775448336404
 51
155.8224551663601
  0
ARC
  5
1A5
330
1F
100
AcDbEntity
  8
化粧台
  6
CONTINUOUS
 62
     6
100
AcDbCircle
 10
830.0000000000009
 20
1412.5
 30
0.0
 40
14.25000000000001
100
AcDbArc
 50
204.1775448336003
 51
215.8224551664
  0
CIRCLE
  5
1A6
330
1F
100
AcDbEntity
  8
化粧台
  6
CONTINUOUS
 62
     6
100
AcDbCircle
 10
830.0000000000009
 20
1412.5
 30
0.0
 40
4.75
  0
CIRCLE
  5
1A7
330
1F
100
AcDbEntity
  8
化粧台
  6
CONTINUOUS
 62
     6
100
AcDbCircle
 10
830.0000000000009
 20
1412.5
 30
0.0
 40
12.07434891639
  0
LINE
  5
1A8
330
1F
100
AcDbEntity
  8
化粧台
  6
CONTINUOUS
 62
     6
100
AcDbLine
 10
840.5000000000009
 20
1435.2
 30
0.0
 11
840.5000000000009
 21
1421.448929172444
 31
0.0
  0
LINE
  5
1A9
330
1F
100
AcDbEntity
  8
化粧台
  6
CONTINUOUS
 62
     6
100
AcDbLine
 10
819.5000000000009
 20
1435.2
 30
0.0
 11
819.5000000000009
 21
1421.448929172444
 31
0.0
  0
LINE
  5
1AA
330
1F
100
AcDbEntity
  8
化粧台
  6
CONTINUOUS
 62
     6
100
AcDbLine
 10
800.0
 20
1412.5
 30
0.0
 11
860.0
 21
1412.5
 31
0.0
  0
LINE
  5
1AB
330
1F
100
AcDbEntity
  8
化粧台
  6
CONTINUOUS
 62
     6
100
AcDbLine
 10
830.0000000000009
 20
1442.5
 30
0.0
 11
830.0000000000009
 21
1382.5
 31
0.0
  0
LINE
  5
1AC
330
1F
100
AcDbEntity
  8
化粧台
  6
CONTINUOUS
 62
     6
100
AcDbLine
 10
993.0
 20
1406.66369123504
 30
0.0
 11
993.0
 21
1418.33630876496
 31
0.0
  0
LINE
  5
1AD
330
1F
100
AcDbEntity
  8
化粧台
  6
CONTINUOUS
 62
     6
100
AcDbLine
 10
991.5543916547904
 20
1420.840175866721
 30
0.0
 11
981.4456083452105
 21
1426.67648463168
 31
0.0
  0
LINE
  5
1AE
330
1F
100
AcDbEntity
  8
化粧台
  6
CONTINUOUS
 62
     6
100
AcDbLine
 10
978.5543916547904
 20
1426.67648463168
 30
0.0
 11
968.4456083452105
 21
1420.840175866721
 31
0.0
  0
LINE
  5
1AF
330
1F
100
AcDbEntity
  8
化粧台
  6
CONTINUOUS
 62
     6
100
AcDbLine
 10
967.0
 20
1418.33630876496
 30
0.0
 11
967.0
 21
1406.66369123504
 31
0.0
  0
LINE
  5
1B0
330
1F
100
AcDbEntity
  8
化粧台
  6
CONTINUOUS
 62
     6
100
AcDbLine
 10
968.4456083452105
 20
1404.159824133279
 30
0.0
 11
978.5543916547904
 21
1398.32351536832
 31
0.0
  0
LINE
  5
1B1
330
1F
100
AcDbEntity
  8
化粧台
  6
CONTINUOUS
 62
     6
100
AcDbLine
 10
981.4456083452105
 20
1398.32351536832
 30
0.0
 11
991.5543916547904
 21
1404.159824133279
 31
0.0
  0
ARC
  5
1B2
330
1F
100
AcDbEntity
  8
化粧台
  6
CONTINUOUS
 62
     6
100
AcDbCircle
 10
980.0
 20
1412.5
 30
0.0
 40
14.25000000000001
100
AcDbArc
 50
264.1775448336001
 51
275.8224551664
  0
ARC
  5
1B3
330
1F
100
AcDbEntity
  8
化粧台
  6
CONTINUOUS
 62
     6
100
AcDbCircle
 10
980.0
 20
1412.5
 30
0.0
 40
14.25000000000001
100
AcDbArc
 50
324.1775448336001
 51
335.8224551664001
  0
ARC
  5
1B4
330
1F
100
AcDbEntity
  8
化粧台
  6
CONTINUOUS
 62
     6
100
AcDbCircle
 10
980.0
 20
1412.5
 30
0.0
 40
14.25000000000001
100
AcDbArc
 50
24.17754483359991
 51
35.82245516639971
  0
ARC
  5
1B5
330
1F
100
AcDbEntity
  8
化粧台
  6
CONTINUOUS
 62
     6
100
AcDbCircle
 10
980.0
 20
1412.5
 30
0.0
 40
14.25000000000001
100
AcDbArc
 50
84.1775448336001
 51
95.82245516635992
  0
ARC
  5
1B6
330
1F
100
AcDbEntity
  8
化粧台
  6
CONTINUOUS
 62
     6
100
AcDbCircle
 10
980.0
 20
1412.5
 30
0.0
 40
14.25000000000001
100
AcDbArc
 50
144.1775448336404
 51
155.8224551663601
  0
ARC
  5
1B7
330
1F
100
AcDbEntity
  8
化粧台
  6
CONTINUOUS
 62
     6
100
AcDbCircle
 10
980.0
 20
1412.5
 30
0.0
 40
14.25000000000001
100
AcDbArc
 50
204.1775448336003
 51
215.8224551664
  0
CIRCLE
  5
1B8
330
1F
100
AcDbEntity
  8
化粧台
  6
CONTINUOUS
 62
     6
100
AcDbCircle
 10
980.0
 20
1412.5
 30
0.0
 40
4.75
  0
CIRCLE
  5
1B9
330
1F
100
AcDbEntity
  8
化粧台
  6
CONTINUOUS
 62
     6
100
AcDbCircle
 10
980.0
 20
1412.5
 30
0.0
 40
12.07434891639
  0
LINE
  5
1BA
330
1F
100
AcDbEntity
  8
化粧台
  6
CONTINUOUS
 62
     6
100
AcDbLine
 10
990.5
 20
1435.2
 30
0.0
 11
990.5
 21
1421.448929172444
 31
0.0
  0
LINE
  5
1BB
330
1F
100
AcDbEntity
  8
化粧台
  6
CONTINUOUS
 62
     6
100
AcDbLine
 10
969.5
 20
1435.2
 30
0.0
 11
969.5
 21
1421.448929172444
 31
0.0
  0
LINE
  5
1BC
330
1F
100
AcDbEntity
  8
化粧台
  6
CONTINUOUS
 62
     6
100
AcDbLine
 10
950.0
 20
1412.5
 30
0.0
 11
1010.0
 21
1412.5
 31
0.0
  0
LINE
  5
1BD
330
1F
100
AcDbEntity
  8
化粧台
  6
CONTINUOUS
 62
     6
100
AcDbLine
 10
980.0
 20
1442.5
 30
0.0
 11
980.0
 21
1382.5
 31
0.0
  0
ARC
  5
1BE
330
1F
100
AcDbEntity
  8
化粧台
  6
CONTINUOUS
 62
     6
100
AcDbCircle
 10
830.0
 20
1412.5
 30
0.0
 40
27.50000000000002
100
AcDbArc
 50
114.7198511829102
 51
65.2801488170889
  0
ARC
  5
1BF
330
1F
100
AcDbEntity
  8
化粧台
  6
CONTINUOUS
 62
     6
100
AcDbCircle
 10
980.0
 20
1412.5
 30
0.0
 40
27.50000000000002
100
AcDbArc
 50
114.7198511829092
 51
65.28014881708833
  0
LINE
  5
1C0
330
1F
100
AcDbEntity
  8
化粧台
  6
CONTINUOUS
 62
     6
100
AcDbLine
 10
889.0000000000018
 20
987.5
 30
0.0
 11
921.0000000000018
 21
987.5
 31
0.0
  0
LINE
  5
1C1
330
1F
100
AcDbEntity
  8
化粧台
  6
EXLTYPE4
 62
     6
100
AcDbLine
 10
921.0000000000018
 20
1217.5
 30
0.0
 11
921.0000000000018
 21
987.5000000000009
 31
0.0
  0
LINE
  5
1C2
330
1F
100
AcDbEntity
  8
化粧台
  6
EXLTYPE4
 62
     6
100
AcDbLine
 10
889.0000000000018
 20
1217.5
 30
0.0
 11
889.0000000000018
 21
987.5000000000009
 31
0.0
  0
LINE
  5
1C3
330
1F
100
AcDbEntity
  8
化粧台
  6
CONTINUOUS
 62
     6
100
AcDbLine
 10
990.5000000000009
 20
1009.5
 30
0.0
 11
969.5000000000009
 21
1009.5
 31
0.0
  0
LINE
  5
1C4
330
1F
100
AcDbEntity
  8
化粧台
  6
EXLTYPE3
 62
     6
100
AcDbLine
 10
980.0000000000009
 20
1227.5
 30
0.0
 11
980.0000000000009
 21
999.5
 31
0.0
  0
LINE
  5
1C5
330
1F
100
AcDbEntity
  8
化粧台
  6
EXLTYPE4
 62
     6
100
AcDbLine
 10
969.5000000000009
 20
1217.5
 30
0.0
 11
969.5000000000009
 21
1009.5
 31
0.0
  0
LINE
  5
1C6
330
1F
100
AcDbEntity
  8
化粧台
  6
EXLTYPE4
 62
     6
100
AcDbLine
 10
990.5000000000009
 20
1217.5
 30
0.0
 11
990.5000000000009
 21
1009.5
 31
0.0
  0
LINE
  5
1C7
330
1F
100
AcDbEntity
  8
化粧台
  6
CONTINUOUS
 62
     6
100
AcDbLine
 10
819.5000000000018
 20
1009.5
 30
0.0
 11
840.5000000000018
 21
1009.5
 31
0.0
  0
LINE
  5
1C8
330
1F
100
AcDbEntity
  8
化粧台
  6
EXLTYPE3
 62
     6
100
AcDbLine
 10
830.0000000000018
 20
1227.5
 30
0.0
 11
830.0000000000018
 21
999.5
 31
0.0
  0
LINE
  5
1C9
330
1F
100
AcDbEntity
  8
化粧台
  6
EXLTYPE4
 62
     6
100
AcDbLine
 10
840.5000000000018
 20
1217.5
 30
0.0
 11
840.5000000000018
 21
1009.5
 31
0.0
  0
LINE
  5
1CA
330
1F
100
AcDbEntity
  8
化粧台
  6
EXLTYPE4
 62
     6
100
AcDbLine
 10
819.5000000000018
 20
1217.5
 30
0.0
 11
819.5000000000018
 21
1009.5
 31
0.0
  0
LINE
  5
1CB
330
1F
100
AcDbEntity
  8
化粧台
  6
CONTINUOUS
 62
     2
100
AcDbLine
 10
889.1250000000036
 20
1620.5
 30
0.0
 11
889.1250000000036
 21
1496.499999999951
 31
0.0
  0
LINE
  5
1CC
330
1F
100
AcDbEntity
  8
化粧台
  6
CONTINUOUS
 62
     2
100
AcDbLine
 10
920.8750000000036
 20
1620.5
 30
0.0
 11
920.8750000000036
 21
1496.499999999951
 31
0.0
  0
LINE
  5
1CD
330
1F
100
AcDbEntity
  8
化粧台
  6
EXLTYPE4
 62
     6
100
AcDbLine
 10
2435.0
 20
1017.5
 30
0.0
 11
1806.499999999998
 21
1017.5
 31
0.0
  0
TEXT
  5
1CE
330
1F
100
AcDbEntity
  8
化粧台
  6
CONTINUOUS
 62
     2
100
AcDbText
 10
1806.499999999998
 20
1017.5
 30
0.0
 40
59.99999618530273
  1
F.L.
 41
0.6227488631227187
  7
EXCADSTD
 72
     5
 11
1897.243399999998
 21
1017.5
 31
0.0
100
AcDbText
  0
LINE
  5
1CF
330
1F
100
AcDbEntity
  8
化粧台
  6
CONTINUOUS
 62
     2
100
AcDbLine
 10
1985.0
 20
1717.5
 30
0.0
 11
1985.0
 21
1017.5
 31
0.0
  0
LINE
  5
1D0
330
1F
100
AcDbEntity
  8
化粧台
  6
CONTINUOUS
 62
     2
100
AcDbLine
 10
2435.000000000001
 20
1717.5
 30
0.0
 11
2435.000000000001
 21
1017.5
 31
0.0
  0
LINE
  5
1D1
330
1F
100
AcDbEntity
  8
化粧台
  6
CONTINUOUS
 62
     2
100
AcDbLine
 10
1985.0
 20
1017.5
 30
0.0
 11
2435.000000000001
 21
1017.5
 31
0.0
  0
LINE
  5
1D2
330
1F
100
AcDbEntity
  8
化粧台
  6
CONTINUOUS
 62
     6
100
AcDbLine
 10
2434.400000000004
 20
1639.5
 30
0.0
 11
2466.900000000004
 21
1637.499999999998
 31
0.0
  0
LINE
  5
1D3
330
1F
100
AcDbEntity
  8
化粧台
  6
CONTINUOUS
 62
     6
100
AcDbLine
 10
2466.900000000004
 20
1637.499999999998
 30
0.0
 11
2434.400000000004
 21
1635.5
 31
0.0
  0
LINE
  5
1D4
330
1F
100
AcDbEntity
  8
化粧台
  6
CONTINUOUS
 62
     6
100
AcDbLine
 10
2402.500000000003
 20
1637.499999999998
 30
0.0
 11
2476.900000000001
 21
1637.499999999998
 31
0.0
  0
LINE
  5
1D5
330
1F
100
AcDbEntity
  8
化粧台
  6
CONTINUOUS
 62
     2
100
AcDbLine
 10
1935.076463955304
 20
1851.62891285363
 30
0.0
 11
1958.076463955304
 21
1721.62891285363
 31
0.0
  0
ARC
  5
1D6
330
1F
100
AcDbEntity
  8
化粧台
  6
CONTINUOUS
 62
     2
100
AcDbCircle
 10
1963.000000000001
 20
1722.5
 30
0.0
 40
5.0
100
AcDbArc
 50
190.0331205543305
 51
270.0000000000002
  0
LINE
  5
1D7
330
1F
100
AcDbEntity
  8
化粧台
  6
CONTINUOUS
 62
     2
100
AcDbLine
 10
2435.000000000002
 20
1857.5
 30
0.0
 11
2435.000000000002
 21
1717.5
 31
0.0
  0
LINE
  5
1D8
330
1F
100
AcDbEntity
  8
化粧台
  6
CONTINUOUS
 62
     2
100
AcDbLine
 10
2435.000000000002
 20
1857.5
 30
0.0
 11
1940.000000000001
 21
1857.5
 31
0.0
  0
ARC
  5
1D9
330
1F
100
AcDbEntity
  8
化粧台
  6
CONTINUOUS
 62
     2
100
AcDbCircle
 10
1940.000000000001
 20
1852.5
 30
0.0
 40
5.0
100
AcDbArc
 50
90.00000000000004
 51
190.0331205543371
  0
LINE
  5
1DA
330
1F
100
AcDbEntity
  8
化粧台
  6
CONTINUOUS
 62
     2
100
AcDbLine
 10
2435.000000000002
 20
1717.5
 30
0.0
 11
1962.999999999999
 21
1717.5
 31
0.0
  0
LINE
  5
1DB
330
1F
100
AcDbEntity
  8
化粧台
  6
EXLTYPE2
 62
     6
100
AcDbLine
 10
2159.386729540171
 20
1686.792893218813
 30
0.0
 11
2154.999999999973
 21
1717.500000000196
 31
0.0
  0
LINE
  5
1DC
330
1F
100
AcDbEntity
  8
化粧台
  6
EXLTYPE2
 62
     6
100
AcDbLine
 10
2261.359641771945
 20
1707.098743460027
 30
0.0
 11
2265.390718197872
 21
1717.5
 31
0.0
  0
LINE
  5
1DD
330
1F
100
AcDbEntity
  8
化粧台
  6
EXLTYPE2
 62
     6
100
AcDbLine
 10
2164.336477008499
 20
1682.5
 30
0.0
 11
2235.663522991549
 21
1682.5
 31
0.0
  0
LINE
  5
1DE
330
1F
100
AcDbEntity
  8
化粧台
  6
EXLTYPE2
 62
     6
100
AcDbLine
 10
2223.088235294117
 20
1682.5
 30
0.0
 11
2227.500000000004
 21
1678.33333333333
 31
0.0
  0
LINE
  5
1DF
330
1F
100
AcDbEntity
  8
化粧台
  6
EXLTYPE2
 62
     6
100
AcDbLine
 10
2176.911764705888
 20
1682.5
 30
0.0
 11
2172.500000000004
 21
1678.33333333333
 31
0.0
  0
POLYLINE
  5
1E0
330
1F
100
AcDbEntity
  8
化粧台
  6
EXLTYPE2
 62
     6
100
AcDb2dPolyline
 66
     1
 10
0.0
 20
0.0
 30
0.0
 70
   128
  0
VERTEX
  5
1E1
330
1E0
100
AcDbEntity
  8
化粧台
  6
EXLTYPE2
 62
     6
100
AcDbVertex
100
AcDb2dVertex
 10
2178.584808000003
 20
1663.500204
 30
0.0
  0
VERTEX
  5
1E2
330
1E0
100
AcDbEntity
  8
化粧台
  6
EXLTYPE2
 62
     6
100
AcDbVertex
100
AcDb2dVertex
 10
2178.596946000003
 20
1663.234399999999
 30
0.0
  0
VERTEX
  5
1E3
330
1E0
100
AcDbEntity
  8
化粧台
  6
EXLTYPE2
 62
     6
100
AcDbVertex
100
AcDb2dVertex
 10
2178.631740000003
 20
1662.976546
 30
0.0
  0
VERTEX
  5
1E4
330
1E0
100
AcDbEntity
  8
化粧台
  6
EXLTYPE2
 62
     6
100
AcDbVertex
100
AcDb2dVertex
 10
2178.686292000004
 20
1662.73489
 30
0.0
  0
VERTEX
  5
1E5
330
1E0
100
AcDbEntity
  8
化粧台
  6
EXLTYPE2
 62
     6
100
AcDbVertex
100
AcDb2dVertex
 10
2178.757064000003
 20
1662.510399999999
 30
0.0
  0
VERTEX
  5
1E6
330
1E0
100
AcDbEntity
  8
化粧台
  6
EXLTYPE2
 62
     6
100
AcDbVertex
100
AcDb2dVertex
 10
2178.852764000003
 20
1662.27821
 30
0.0
  0
VERTEX
  5
1E7
330
1E0
100
AcDbEntity
  8
化粧台
  6
EXLTYPE2
 62
     6
100
AcDbVertex
100
AcDb2dVertex
 10
2178.961394000004
 20
1662.068298
 30
0.0
  0
VERTEX
  5
1E8
330
1E0
100
AcDbEntity
  8
化粧台
  6
EXLTYPE2
 62
     6
100
AcDbVertex
100
AcDb2dVertex
 10
2179.079238000004
 20
1661.880126
 30
0.0
  0
VERTEX
  5
1E9
330
1E0
100
AcDbEntity
  8
化粧台
  6
EXLTYPE2
 62
     6
100
AcDbVertex
100
AcDb2dVertex
 10
2179.308210000003
 20
1661.587611999999
 30
0.0
  0
VERTEX
  5
1EA
330
1E0
100
AcDbEntity
  8
化粧台
  6
EXLTYPE2
 62
     6
100
AcDbVertex
100
AcDb2dVertex
 10
2179.552738000004
 20
1661.345890000001
 30
0.0
  0
VERTEX
  5
1EB
330
1E0
100
AcDbEntity
  8
化粧台
  6
EXLTYPE2
 62
     6
100
AcDbVertex
100
AcDb2dVertex
 10
2179.806316000004
 20
1661.146556
 30
0.0
  0
VERTEX
  5
1EC
330
1E0
100
AcDbEntity
  8
化粧台
  6
EXLTYPE2
 62
     6
100
AcDbVertex
100
AcDb2dVertex
 10
2180.197242000004
 20
1660.905189999999
 30
0.0
  0
VERTEX
  5
1ED
330
1E0
100
AcDbEntity
  8
化粧台
  6
EXLTYPE2
 62
     6
100
AcDbVertex
100
AcDb2dVertex
 10
2180.596570000003
 20
1660.720906
 30
0.0
  0
VERTEX
  5
1EE
330
1E0
100
AcDbEntity
  8
化粧台
  6
EXLTYPE2
 62
     6
100
AcDbVertex
100
AcDb2dVertex
 10
2181.002012000003
 20
1660.584806000001
 30
0.0
  0
VERTEX
  5
1EF
330
1E0
100
AcDbEntity
  8
化粧台
  6
EXLTYPE2
 62
     6
100
AcDbVertex
100
AcDb2dVertex
 10
2181.411284000003
 20
1660.487986
 30
0.0
  0
VERTEX
  5
1F0
330
1E0
100
AcDbEntity
  8
化粧台
  6
EXLTYPE2
 62
     6
100
AcDbVertex
100
AcDb2dVertex
 10
2181.822104000003
 20
1660.421546
 30
0.0
  0
VERTEX
  5
1F1
330
1E0
100
AcDbEntity
  8
化粧台
  6
EXLTYPE2
 62
     6
100
AcDbVertex
100
AcDb2dVertex
 10
2182.232184000002
 20
1660.376586
 30
0.0
  0
VERTEX
  5
1F2
330
1E0
100
AcDbEntity
  8
化粧台
  6
EXLTYPE2
 62
     6
100
AcDbVertex
100
AcDb2dVertex
 10
2182.821524000003
 20
1660.340952
 30
0.0
  0
VERTEX
  5
1F3
330
1E0
100
AcDbEntity
  8
化粧台
  6
EXLTYPE2
 62
     6
100
AcDbVertex
100
AcDb2dVertex
 10
2183.411268000003
 20
1660.341178000001
 30
0.0
  0
VERTEX
  5
1F4
330
1E0
100
AcDbEntity
  8
化粧台
  6
EXLTYPE2
 62
     6
100
AcDbVertex
100
AcDb2dVertex
 10
2184.000600000003
 20
1660.377296000001
 30
0.0
  0
VERTEX
  5
1F5
330
1E0
100
AcDbEntity
  8
化粧台
  6
EXLTYPE2
 62
     6
100
AcDbVertex
100
AcDb2dVertex
 10
2184.614344000003
 20
1660.45707
 30
0.0
  0
VERTEX
  5
1F6
330
1E0
100
AcDbEntity
  8
化粧台
  6
EXLTYPE2
 62
     6
100
AcDbVertex
100
AcDb2dVertex
 10
2185.225340000003
 20
1660.595294000001
 30
0.0
  0
VERTEX
  5
1F7
330
1E0
100
AcDbEntity
  8
化粧台
  6
EXLTYPE2
 62
     6
100
AcDbVertex
100
AcDb2dVertex
 10
2185.562402000003
 20
1660.703774
 30
0.0
  0
VERTEX
  5
1F8
330
1E0
100
AcDbEntity
  8
化粧台
  6
EXLTYPE2
 62
     6
100
AcDbVertex
100
AcDb2dVertex
 10
2185.897218000004
 20
1660.842581999999
 30
0.0
  0
VERTEX
  5
1F9
330
1E0
100
AcDbEntity
  8
化粧台
  6
EXLTYPE2
 62
     6
100
AcDbVertex
100
AcDb2dVertex
 10
2186.226952000003
 20
1661.019844
 30
0.0
  0
VERTEX
  5
1FA
330
1E0
100
AcDbEntity
  8
化粧台
  6
EXLTYPE2
 62
     6
100
AcDbVertex
100
AcDb2dVertex
 10
2186.548766000004
 20
1661.243678000001
 30
0.0
  0
VERTEX
  5
1FB
330
1E0
100
AcDbEntity
  8
化粧台
  6
EXLTYPE2
 62
     6
100
AcDbVertex
100
AcDb2dVertex
 10
2186.782716000003
 20
1661.448528000001
 30
0.0
  0
VERTEX
  5
1FC
330
1E0
100
AcDbEntity
  8
化粧台
  6
EXLTYPE2
 62
     6
100
AcDbVertex
100
AcDb2dVertex
 10
2187.006626000004
 20
1661.693542000001
 30
0.0
  0
VERTEX
  5
1FD
330
1E0
100
AcDbEntity
  8
化粧台
  6
EXLTYPE2
 62
     6
100
AcDbVertex
100
AcDb2dVertex
 10
2187.149188000003
 20
1661.885028000001
 30
0.0
  0
VERTEX
  5
1FE
330
1E0
100
AcDbEntity
  8
化粧台
  6
EXLTYPE2
 62
     6
100
AcDbVertex
100
AcDb2dVertex
 10
2187.282650000003
 20
1662.101986
 30
0.0
  0
VERTEX
  5
1FF
330
1E0
100
AcDbEntity
  8
化粧台
  6
EXLTYPE2
 62
     6
100
AcDbVertex
100
AcDb2dVertex
 10
2187.402790000002
 20
1662.346264
 30
0.0
  0
VERTEX
  5
200
330
1E0
100
AcDbEntity
  8
化粧台
  6
EXLTYPE2
 62
     6
100
AcDbVertex
100
AcDb2dVertex
 10
2187.494372000003
 20
1662.587092
 30
0.0
  0
VERTEX
  5
201
330
1E0
100
AcDbEntity
  8
化粧台
  6
EXLTYPE2
 62
     6
100
AcDbVertex
100
AcDb2dVertex
 10
2187.567722000003
 20
1662.851294
 30
0.0
  0
VERTEX
  5
202
330
1E0
100
AcDbEntity
  8
化粧台
  6
EXLTYPE2
 62
     6
100
AcDbVertex
100
AcDb2dVertex
 10
2187.612842000002
 20
1663.100428
 30
0.0
  0
VERTEX
  5
203
330
1E0
100
AcDbEntity
  8
化粧台
  6
EXLTYPE2
 62
     6
100
AcDbVertex
100
AcDb2dVertex
 10
2187.636902000004
 20
1663.360774000001
 30
0.0
  0
VERTEX
  5
204
330
1E0
100
AcDbEntity
  8
化粧台
  6
EXLTYPE2
 62
     6
100
AcDbVertex
100
AcDb2dVertex
 10
2187.640192000003
 20
1663.500204
 30
0.0
  0
VERTEX
  5
205
330
1E0
100
AcDbEntity
  8
化粧台
  6
EXLTYPE2
 62
     6
100
AcDbVertex
100
AcDb2dVertex
 10
2187.628038000003
 20
1663.765804000001
 30
0.0
  0
VERTEX
  5
206
330
1E0
100
AcDbEntity
  8
化粧台
  6
EXLTYPE2
 62
     6
100
AcDbVertex
100
AcDb2dVertex
 10
2187.593260000003
 20
1664.02346
 30
0.0
  0
VERTEX
  5
207
330
1E0
100
AcDbEntity
  8
化粧台
  6
EXLTYPE2
 62
     6
100
AcDbVertex
100
AcDb2dVertex
 10
2187.538708000002
 20
1664.265117999999
 30
0.0
  0
VERTEX
  5
208
330
1E0
100
AcDbEntity
  8
化粧台
  6
EXLTYPE2
 62
     6
100
AcDbVertex
100
AcDb2dVertex
 10
2187.467936000003
 20
1664.489608
 30
0.0
  0
VERTEX
  5
209
330
1E0
100
AcDbEntity
  8
化粧台
  6
EXLTYPE2
 62
     6
100
AcDbVertex
100
AcDb2dVertex
 10
2187.372236000003
 20
1664.721798
 30
0.0
  0
VERTEX
  5
20A
330
1E0
100
AcDbEntity
  8
化粧台
  6
EXLTYPE2
 62
     6
100
AcDbVertex
100
AcDb2dVertex
 10
2187.263606000002
 20
1664.931708
 30
0.0
  0
VERTEX
  5
20B
330
1E0
100
AcDbEntity
  8
化粧台
  6
EXLTYPE2
 62
     6
100
AcDbVertex
100
AcDb2dVertex
 10
2187.145762000002
 20
1665.119882000001
 30
0.0
  0
VERTEX
  5
20C
330
1E0
100
AcDbEntity
  8
化粧台
  6
EXLTYPE2
 62
     6
100
AcDbVertex
100
AcDb2dVertex
 10
2186.916790000003
 20
1665.412396
 30
0.0
  0
VERTEX
  5
20D
330
1E0
100
AcDbEntity
  8
化粧台
  6
EXLTYPE2
 62
     6
100
AcDbVertex
100
AcDb2dVertex
 10
2186.672262000002
 20
1665.654116
 30
0.0
  0
VERTEX
  5
20E
330
1E0
100
AcDbEntity
  8
化粧台
  6
EXLTYPE2
 62
     6
100
AcDbVertex
100
AcDb2dVertex
 10
2186.418686000003
 20
1665.853450000001
 30
0.0
  0
VERTEX
  5
20F
330
1E0
100
AcDbEntity
  8
化粧台
  6
EXLTYPE2
 62
     6
100
AcDbVertex
100
AcDb2dVertex
 10
2186.027758000002
 20
1666.094818
 30
0.0
  0
VERTEX
  5
210
330
1E0
100
AcDbEntity
  8
化粧台
  6
EXLTYPE2
 62
     6
100
AcDbVertex
100
AcDb2dVertex
 10
2185.628430000002
 20
1666.2791
 30
0.0
  0
VERTEX
  5
211
330
1E0
100
AcDbEntity
  8
化粧台
  6
EXLTYPE2
 62
     6
100
AcDbVertex
100
AcDb2dVertex
 10
2185.222988000003
 20
1666.415202
 30
0.0
  0
VERTEX
  5
212
330
1E0
100
AcDbEntity
  8
化粧台
  6
EXLTYPE2
 62
     6
100
AcDbVertex
100
AcDb2dVertex
 10
2184.813716000002
 20
1666.512022000001
 30
0.0
  0
VERTEX
  5
213
330
1E0
100
AcDbEntity
  8
化粧台
  6
EXLTYPE2
 62
     6
100
AcDbVertex
100
AcDb2dVertex
 10
2184.402896000003
 20
1666.578461999999
 30
0.0
  0
VERTEX
  5
214
330
1E0
100
AcDbEntity
  8
化粧台
  6
EXLTYPE2
 62
     6
100
AcDbVertex
100
AcDb2dVertex
 10
2183.992818000002
 20
1666.623422000001
 30
0.0
  0
VERTEX
  5
215
330
1E0
100
AcDbEntity
  8
化粧台
  6
EXLTYPE2
 62
     6
100
AcDbVertex
100
AcDb2dVertex
 10
2183.403478000002
 20
1666.659056
 30
0.0
  0
VERTEX
  5
216
330
1E0
100
AcDbEntity
  8
化粧台
  6
EXLTYPE2
 62
     6
100
AcDbVertex
100
AcDb2dVertex
 10
2182.813732000002
 20
1666.65883
 30
0.0
  0
VERTEX
  5
217
330
1E0
100
AcDbEntity
  8
化粧台
  6
EXLTYPE2
 62
     6
100
AcDbVertex
100
AcDb2dVertex
 10
2182.224400000003
 20
1666.62271
 30
0.0
  0
VERTEX
  5
218
330
1E0
100
AcDbEntity
  8
化粧台
  6
EXLTYPE2
 62
     6
100
AcDbVertex
100
AcDb2dVertex
 10
2181.610658000003
 20
1666.542938000001
 30
0.0
  0
VERTEX
  5
219
330
1E0
100
AcDbEntity
  8
化粧台
  6
EXLTYPE2
 62
     6
100
AcDbVertex
100
AcDb2dVertex
 10
2180.999660000003
 20
1666.404714
 30
0.0
  0
VERTEX
  5
21A
330
1E0
100
AcDbEntity
  8
化粧台
  6
EXLTYPE2
 62
     6
100
AcDbVertex
100
AcDb2dVertex
 10
2180.662598000003
 20
1666.296233999999
 30
0.0
  0
VERTEX
  5
21B
330
1E0
100
AcDbEntity
  8
化粧台
  6
EXLTYPE2
 62
     6
100
AcDbVertex
100
AcDb2dVertex
 10
2180.327782000002
 20
1666.157426
 30
0.0
  0
VERTEX
  5
21C
330
1E0
100
AcDbEntity
  8
化粧台
  6
EXLTYPE2
 62
     6
100
AcDbVertex
100
AcDb2dVertex
 10
2179.998048000003
 20
1665.980164000001
 30
0.0
  0
VERTEX
  5
21D
330
1E0
100
AcDbEntity
  8
化粧台
  6
EXLTYPE2
 62
     6
100
AcDbVertex
100
AcDb2dVertex
 10
2179.676234000002
 20
1665.756327999999
 30
0.0
  0
VERTEX
  5
21E
330
1E0
100
AcDbEntity
  8
化粧台
  6
EXLTYPE2
 62
     6
100
AcDbVertex
100
AcDb2dVertex
 10
2179.442284000002
 20
1665.55148
 30
0.0
  0
VERTEX
  5
21F
330
1E0
100
AcDbEntity
  8
化粧台
  6
EXLTYPE2
 62
     6
100
AcDbVertex
100
AcDb2dVertex
 10
2179.218374000002
 20
1665.306463999999
 30
0.0
  0
VERTEX
  5
220
330
1E0
100
AcDbEntity
  8
化粧台
  6
EXLTYPE2
 62
     6
100
AcDbVertex
100
AcDb2dVertex
 10
2179.075812000003
 20
1665.11498
 30
0.0
  0
VERTEX
  5
221
330
1E0
100
AcDbEntity
  8
化粧台
  6
EXLTYPE2
 62
     6
100
AcDbVertex
100
AcDb2dVertex
 10
2178.942350000003
 20
1664.898021999999
 30
0.0
  0
VERTEX
  5
222
330
1E0
100
AcDbEntity
  8
化粧台
  6
EXLTYPE2
 62
     6
100
AcDbVertex
100
AcDb2dVertex
 10
2178.822210000004
 20
1664.653742
 30
0.0
  0
VERTEX
  5
223
330
1E0
100
AcDbEntity
  8
化粧台
  6
EXLTYPE2
 62
     6
100
AcDbVertex
100
AcDb2dVertex
 10
2178.730630000004
 20
1664.412915999999
 30
0.0
  0
VERTEX
  5
224
330
1E0
100
AcDbEntity
  8
化粧台
  6
EXLTYPE2
 62
     6
100
AcDbVertex
100
AcDb2dVertex
 10
2178.657278000002
 20
1664.148714000001
 30
0.0
  0
VERTEX
  5
225
330
1E0
100
AcDbEntity
  8
化粧台
  6
EXLTYPE2
 62
     6
100
AcDbVertex
100
AcDb2dVertex
 10
2178.612158000004
 20
1663.899579999999
 30
0.0
  0
VERTEX
  5
226
330
1E0
100
AcDbEntity
  8
化粧台
  6
EXLTYPE2
 62
     6
100
AcDbVertex
100
AcDb2dVertex
 10
2178.588098000002
 20
1663.639234
 30
0.0
  0
VERTEX
  5
227
330
1E0
100
AcDbEntity
  8
化粧台
  6
EXLTYPE2
 62
     6
100
AcDbVertex
100
AcDb2dVertex
 10
2178.584808000003
 20
1663.500204
 30
0.0
  0
SEQEND
  5
228
330
1E0
100
AcDbEntity
  8
化粧台
  6
EXLTYPE2
 62
     6
  0
POLYLINE
  5
229
330
1F
100
AcDbEntity
  8
化粧台
  6
EXLTYPE2
 62
     6
100
AcDb2dPolyline
 66
     1
 10
0.0
 20
0.0
 30
0.0
 70
   128
  0
VERTEX
  5
22A
330
229
100
AcDbEntity
  8
化粧台
  6
EXLTYPE2
 62
     6
100
AcDbVertex
100
AcDb2dVertex
 10
2199.999996000002
 20
1660.337726
 30
0.0
  0
VERTEX
  5
22B
330
229
100
AcDbEntity
  8
化粧台
  6
EXLTYPE2
 62
     6
100
AcDbVertex
100
AcDb2dVertex
 10
2200.584264000003
 20
1660.34151
 30
0.0
  0
VERTEX
  5
22C
330
229
100
AcDbEntity
  8
化粧台
  6
EXLTYPE2
 62
     6
100
AcDbVertex
100
AcDb2dVertex
 10
2201.168428000003
 20
1660.353598
 30
0.0
  0
VERTEX
  5
22D
330
229
100
AcDbEntity
  8
化粧台
  6
EXLTYPE2
 62
     6
100
AcDbVertex
100
AcDb2dVertex
 10
2201.752438000003
 20
1660.374954000001
 30
0.0
  0
VERTEX
  5
22E
330
229
100
AcDbEntity
  8
化粧台
  6
EXLTYPE2
 62
     6
100
AcDbVertex
100
AcDb2dVertex
 10
2202.335972000003
 20
1660.406714000001
 30
0.0
  0
VERTEX
  5
22F
330
229
100
AcDbEntity
  8
化粧台
  6
EXLTYPE2
 62
     6
100
AcDbVertex
100
AcDb2dVertex
 10
2202.918502000002
 20
1660.44994
 30
0.0
  0
VERTEX
  5
230
330
229
100
AcDbEntity
  8
化粧台
  6
EXLTYPE2
 62
     6
100
AcDbVertex
100
AcDb2dVertex
 10
2203.499996000002
 20
1660.505332000001
 30
0.0
  0
VERTEX
  5
231
330
229
100
AcDbEntity
  8
化粧台
  6
EXLTYPE2
 62
     6
100
AcDbVertex
100
AcDb2dVertex
 10
2204.214676000003
 20
1660.592144
 30
0.0
  0
VERTEX
  5
232
330
229
100
AcDbEntity
  8
化粧台
  6
EXLTYPE2
 62
     6
100
AcDbVertex
100
AcDb2dVertex
 10
2204.927784000003
 20
1660.705857999999
 30
0.0
  0
VERTEX
  5
233
330
229
100
AcDbEntity
  8
化粧台
  6
EXLTYPE2
 62
     6
100
AcDbVertex
100
AcDb2dVertex
 10
2205.633550000002
 20
1660.855165999999
 30
0.0
  0
VERTEX
  5
234
330
229
100
AcDbEntity
  8
化粧台
  6
EXLTYPE2
 62
     6
100
AcDbVertex
100
AcDb2dVertex
 10
2206.326208000002
 20
1661.04876
 30
0.0
  0
VERTEX
  5
235
330
229
100
AcDbEntity
  8
化粧台
  6
EXLTYPE2
 62
     6
100
AcDbVertex
100
AcDb2dVertex
 10
2206.999996000002
 20
1661.295332
 30
0.0
  0
VERTEX
  5
236
330
229
100
AcDbEntity
  8
化粧台
  6
EXLTYPE2
 62
     6
100
AcDbVertex
100
AcDb2dVertex
 10
2207.441340000003
 20
1661.498572
 30
0.0
  0
VERTEX
  5
237
330
229
100
AcDbEntity
  8
化粧台
  6
EXLTYPE2
 62
     6
100
AcDbVertex
100
AcDb2dVertex
 10
2207.863524000002
 20
1661.740342000001
 30
0.0
  0
VERTEX
  5
238
330
229
100
AcDbEntity
  8
化粧台
  6
EXLTYPE2
 62
     6
100
AcDbVertex
100
AcDb2dVertex
 10
2208.254054000003
 20
1662.027066000001
 30
0.0
  0
VERTEX
  5
239
330
229
100
AcDbEntity
  8
化粧台
  6
EXLTYPE2
 62
     6
100
AcDbVertex
100
AcDb2dVertex
 10
2208.510384000003
 20
1662.268545999999
 30
0.0
  0
VERTEX
  5
23A
330
229
100
AcDbEntity
  8
化粧台
  6
EXLTYPE2
 62
     6
100
AcDbVertex
100
AcDb2dVertex
 10
2208.732678000002
 20
1662.541123999999
 30
0.0
  0
VERTEX
  5
23B
330
229
100
AcDbEntity
  8
化粧台
  6
EXLTYPE2
 62
     6
100
AcDbVertex
100
AcDb2dVertex
 10
2208.856990000002
 20
1662.743904000001
 30
0.0
  0
VERTEX
  5
23C
330
229
100
AcDbEntity
  8
化粧台
  6
EXLTYPE2
 62
     6
100
AcDbVertex
100
AcDb2dVertex
 10
2208.955522000002
 20
1662.96126
 30
0.0
  0
VERTEX
  5
23D
330
229
100
AcDbEntity
  8
化粧台
  6
EXLTYPE2
 62
     6
100
AcDbVertex
100
AcDb2dVertex
 10
2209.022442000003
 20
1663.188918
 30
0.0
  0
VERTEX
  5
23E
330
229
100
AcDbEntity
  8
化粧台
  6
EXLTYPE2
 62
     6
100
AcDbVertex
100
AcDb2dVertex
 10
2209.053858000003
 20
1663.438924
 30
0.0
  0
VERTEX
  5
23F
330
229
100
AcDbEntity
  8
化粧台
  6
EXLTYPE2
 62
     6
100
AcDbVertex
100
AcDb2dVertex
 10
2209.043040000002
 20
1663.690628
 30
0.0
  0
VERTEX
  5
240
330
229
100
AcDbEntity
  8
化粧台
  6
EXLTYPE2
 62
     6
100
AcDbVertex
100
AcDb2dVertex
 10
2208.990162000004
 20
1663.936392
 30
0.0
  0
VERTEX
  5
241
330
229
100
AcDbEntity
  8
化粧台
  6
EXLTYPE2
 62
     6
100
AcDbVertex
100
AcDb2dVertex
 10
2208.900018000002
 20
1664.171262
 30
0.0
  0
VERTEX
  5
242
330
229
100
AcDbEntity
  8
化粧台
  6
EXLTYPE2
 62
     6
100
AcDbVertex
100
AcDb2dVertex
 10
2208.721402000003
 20
1664.474700000001
 30
0.0
  0
VERTEX
  5
243
330
229
100
AcDbEntity
  8
化粧台
  6
EXLTYPE2
 62
     6
100
AcDbVertex
100
AcDb2dVertex
 10
2208.496342000004
 20
1664.746302
 30
0.0
  0
VERTEX
  5
244
330
229
100
AcDbEntity
  8
化粧台
  6
EXLTYPE2
 62
     6
100
AcDbVertex
100
AcDb2dVertex
 10
2208.219596000003
 20
1665.001758
 30
0.0
  0
VERTEX
  5
245
330
229
100
AcDbEntity
  8
化粧台
  6
EXLTYPE2
 62
     6
100
AcDbVertex
100
AcDb2dVertex
 10
2207.914938000004
 20
1665.225702
 30
0.0
  0
VERTEX
  5
246
330
229
100
AcDbEntity
  8
化粧台
  6
EXLTYPE2
 62
     6
100
AcDbVertex
100
AcDb2dVertex
 10
2207.591798000003
 20
1665.420994
 30
0.0
  0
VERTEX
  5
247
330
229
100
AcDbEntity
  8
化粧台
  6
EXLTYPE2
 62
     6
100
AcDbVertex
100
AcDb2dVertex
 10
2207.087092000003
 20
1665.668718000001
 30
0.0
  0
VERTEX
  5
248
330
229
100
AcDbEntity
  8
化粧台
  6
EXLTYPE2
 62
     6
100
AcDbVertex
100
AcDb2dVertex
 10
2206.561414000003
 20
1665.87284
 30
0.0
  0
VERTEX
  5
249
330
229
100
AcDbEntity
  8
化粧台
  6
EXLTYPE2
 62
     6
100
AcDbVertex
100
AcDb2dVertex
 10
2206.021714000002
 20
1666.040186
 30
0.0
  0
VERTEX
  5
24A
330
229
100
AcDbEntity
  8
化粧台
  6
EXLTYPE2
 62
     6
100
AcDbVertex
100
AcDb2dVertex
 10
2205.474940000002
 20
1666.177582
 30
0.0
  0
VERTEX
  5
24B
330
229
100
AcDbEntity
  8
化粧台
  6
EXLTYPE2
 62
     6
100
AcDbVertex
100
AcDb2dVertex
 10
2204.980480000004
 20
1666.281046
 30
0.0
  0
VERTEX
  5
24C
330
229
100
AcDbEntity
  8
化粧台
  6
EXLTYPE2
 62
     6
100
AcDbVertex
100
AcDb2dVertex
 10
2204.482862000003
 20
1666.36825
 30
0.0
  0
VERTEX
  5
24D
330
229
100
AcDbEntity
  8
化粧台
  6
EXLTYPE2
 62
     6
100
AcDbVertex
100
AcDb2dVertex
 10
2203.982220000004
 20
1666.440790000001
 30
0.0
  0
VERTEX
  5
24E
330
229
100
AcDbEntity
  8
化粧台
  6
EXLTYPE2
 62
     6
100
AcDbVertex
100
AcDb2dVertex
 10
2203.479844000003
 20
1666.500076
 30
0.0
  0
VERTEX
  5
24F
330
229
100
AcDbEntity
  8
化粧台
  6
EXLTYPE2
 62
     6
100
AcDbVertex
100
AcDb2dVertex
 10
2202.975704000002
 20
1666.547712
 30
0.0
  0
VERTEX
  5
250
330
229
100
AcDbEntity
  8
化粧台
  6
EXLTYPE2
 62
     6
100
AcDbVertex
100
AcDb2dVertex
 10
2202.470706000002
 20
1666.585208
 30
0.0
  0
VERTEX
  5
251
330
229
100
AcDbEntity
  8
化粧台
  6
EXLTYPE2
 62
     6
100
AcDbVertex
100
AcDb2dVertex
 10
2201.965666000002
 20
1666.614090000001
 30
0.0
  0
VERTEX
  5
252
330
229
100
AcDbEntity
  8
化粧台
  6
EXLTYPE2
 62
     6
100
AcDbVertex
100
AcDb2dVertex
 10
2201.460260000003
 20
1666.6358
 30
0.0
  0
VERTEX
  5
253
330
229
100
AcDbEntity
  8
化粧台
  6
EXLTYPE2
 62
     6
100
AcDbVertex
100
AcDb2dVertex
 10
2200.771122000004
 20
1666.655608000001
 30
0.0
  0
VERTEX
  5
254
330
229
100
AcDbEntity
  8
化粧台
  6
EXLTYPE2
 62
     6
100
AcDbVertex
100
AcDb2dVertex
 10
2200.081752000004
 20
1666.663914000001
 30
0.0
  0
VERTEX
  5
255
330
229
100
AcDbEntity
  8
化粧台
  6
EXLTYPE2
 62
     6
100
AcDbVertex
100
AcDb2dVertex
 10
2199.392146000004
 20
1666.660003999999
 30
0.0
  0
VERTEX
  5
256
330
229
100
AcDbEntity
  8
化粧台
  6
EXLTYPE2
 62
     6
100
AcDbVertex
100
AcDb2dVertex
 10
2198.702734000002
 20
1666.64321
 30
0.0
  0
VERTEX
  5
257
330
229
100
AcDbEntity
  8
化粧台
  6
EXLTYPE2
 62
     6
100
AcDbVertex
100
AcDb2dVertex
 10
2198.014062000004
 20
1666.61298
 30
0.0
  0
VERTEX
  5
258
330
229
100
AcDbEntity
  8
化粧台
  6
EXLTYPE2
 62
     6
100
AcDbVertex
100
AcDb2dVertex
 10
2197.326132000004
 20
1666.569092
 30
0.0
  0
VERTEX
  5
259
330
229
100
AcDbEntity
  8
化粧台
  6
EXLTYPE2
 62
     6
100
AcDbVertex
100
AcDb2dVertex
 10
2196.518988000003
 20
1666.498610000001
 30
0.0
  0
VERTEX
  5
25A
330
229
100
AcDbEntity
  8
化粧台
  6
EXLTYPE2
 62
     6
100
AcDbVertex
100
AcDb2dVertex
 10
2195.712534000004
 20
1666.400525999999
 30
0.0
  0
VERTEX
  5
25B
330
229
100
AcDbEntity
  8
化粧台
  6
EXLTYPE2
 62
     6
100
AcDbVertex
100
AcDb2dVertex
 10
2194.912332000004
 20
1666.264884
 30
0.0
  0
VERTEX
  5
25C
330
229
100
AcDbEntity
  8
化粧台
  6
EXLTYPE2
 62
     6
100
AcDbVertex
100
AcDb2dVertex
 10
2194.123948000002
 20
1666.081728000001
 30
0.0
  0
VERTEX
  5
25D
330
229
100
AcDbEntity
  8
化粧台
  6
EXLTYPE2
 62
     6
100
AcDbVertex
100
AcDb2dVertex
 10
2193.352946000003
 20
1665.841104000001
 30
0.0
  0
VERTEX
  5
25E
330
229
100
AcDbEntity
  8
化粧台
  6
EXLTYPE2
 62
     6
100
AcDbVertex
100
AcDb2dVertex
 10
2192.847228000002
 20
1665.63941
 30
0.0
  0
VERTEX
  5
25F
330
229
100
AcDbEntity
  8
化粧台
  6
EXLTYPE2
 62
     6
100
AcDbVertex
100
AcDb2dVertex
 10
2192.360106000002
 20
1665.394813999999
 30
0.0
  0
VERTEX
  5
260
330
229
100
AcDbEntity
  8
化粧台
  6
EXLTYPE2
 62
     6
100
AcDbVertex
100
AcDb2dVertex
 10
2191.905016000002
 20
1665.098844
 30
0.0
  0
VERTEX
  5
261
330
229
100
AcDbEntity
  8
化粧台
  6
EXLTYPE2
 62
     6
100
AcDbVertex
100
AcDb2dVertex
 10
2191.619550000003
 20
1664.861000000001
 30
0.0
  0
VERTEX
  5
262
330
229
100
AcDbEntity
  8
化粧台
  6
EXLTYPE2
 62
     6
100
AcDbVertex
100
AcDb2dVertex
 10
2191.365984000002
 20
1664.589982
 30
0.0
  0
VERTEX
  5
263
330
229
100
AcDbEntity
  8
化粧台
  6
EXLTYPE2
 62
     6
100
AcDbVertex
100
AcDb2dVertex
 10
2191.219268000003
 20
1664.386364
 30
0.0
  0
VERTEX
  5
264
330
229
100
AcDbEntity
  8
化粧台
  6
EXLTYPE2
 62
     6
100
AcDbVertex
100
AcDb2dVertex
 10
2191.097776000002
 20
1664.165886000001
 30
0.0
  0
VERTEX
  5
265
330
229
100
AcDbEntity
  8
化粧台
  6
EXLTYPE2
 62
     6
100
AcDbVertex
100
AcDb2dVertex
 10
2191.008364000003
 20
1663.932094
 30
0.0
  0
VERTEX
  5
266
330
229
100
AcDbEntity
  8
化粧台
  6
EXLTYPE2
 62
     6
100
AcDbVertex
100
AcDb2dVertex
 10
2190.956310000003
 20
1663.683616
 30
0.0
  0
VERTEX
  5
267
330
229
100
AcDbEntity
  8
化粧台
  6
EXLTYPE2
 62
     6
100
AcDbVertex
100
AcDb2dVertex
 10
2190.946270000002
 20
1663.430044000001
 30
0.0
  0
VERTEX
  5
268
330
229
100
AcDbEntity
  8
化粧台
  6
EXLTYPE2
 62
     6
100
AcDbVertex
100
AcDb2dVertex
 10
2190.980008000002
 20
1663.178558
 30
0.0
  0
VERTEX
  5
269
330
229
100
AcDbEntity
  8
化粧台
  6
EXLTYPE2
 62
     6
100
AcDbVertex
100
AcDb2dVertex
 10
2191.053894000002
 20
1662.935648000001
 30
0.0
  0
VERTEX
  5
26A
330
229
100
AcDbEntity
  8
化粧台
  6
EXLTYPE2
 62
     6
100
AcDbVertex
100
AcDb2dVertex
 10
2191.201040000004
 20
1662.642524000001
 30
0.0
  0
VERTEX
  5
26B
330
229
100
AcDbEntity
  8
化粧台
  6
EXLTYPE2
 62
     6
100
AcDbVertex
100
AcDb2dVertex
 10
2191.393688000002
 20
1662.376420000001
 30
0.0
  0
VERTEX
  5
26C
330
229
100
AcDbEntity
  8
化粧台
  6
EXLTYPE2
 62
     6
100
AcDbVertex
100
AcDb2dVertex
 10
2191.626104000003
 20
1662.13278
 30
0.0
  0
VERTEX
  5
26D
330
229
100
AcDbEntity
  8
化粧台
  6
EXLTYPE2
 62
     6
100
AcDbVertex
100
AcDb2dVertex
 10
2191.885350000002
 20
1661.915838000001
 30
0.0
  0
VERTEX
  5
26E
330
229
100
AcDbEntity
  8
化粧台
  6
EXLTYPE2
 62
     6
100
AcDbVertex
100
AcDb2dVertex
 10
2192.163024000003
 20
1661.723958
 30
0.0
  0
VERTEX
  5
26F
330
229
100
AcDbEntity
  8
化粧台
  6
EXLTYPE2
 62
     6
100
AcDbVertex
100
AcDb2dVertex
 10
2192.580552000003
 20
1661.487118000001
 30
0.0
  0
VERTEX
  5
270
330
229
100
AcDbEntity
  8
化粧台
  6
EXLTYPE2
 62
     6
100
AcDbVertex
100
AcDb2dVertex
 10
2193.018312000002
 20
1661.286588000001
 30
0.0
  0
VERTEX
  5
271
330
229
100
AcDbEntity
  8
化粧台
  6
EXLTYPE2
 62
     6
100
AcDbVertex
100
AcDb2dVertex
 10
2193.470082000003
 20
1661.117334
 30
0.0
  0
VERTEX
  5
272
330
229
100
AcDbEntity
  8
化粧台
  6
EXLTYPE2
 62
     6
100
AcDbVertex
100
AcDb2dVertex
 10
2193.929642000003
 20
1660.974328
 30
0.0
  0
VERTEX
  5
273
330
229
100
AcDbEntity
  8
化粧台
  6
EXLTYPE2
 62
     6
100
AcDbVertex
100
AcDb2dVertex
 10
2194.663138000004
 20
1660.790832000001
 30
0.0
  0
VERTEX
  5
274
330
229
100
AcDbEntity
  8
化粧台
  6
EXLTYPE2
 62
     6
100
AcDbVertex
100
AcDb2dVertex
 10
2195.407028000003
 20
1660.649866
 30
0.0
  0
VERTEX
  5
275
330
229
100
AcDbEntity
  8
化粧台
  6
EXLTYPE2
 62
     6
100
AcDbVertex
100
AcDb2dVertex
 10
2196.157402000003
 20
1660.543806
 30
0.0
  0
VERTEX
  5
276
330
229
100
AcDbEntity
  8
化粧台
  6
EXLTYPE2
 62
     6
100
AcDbVertex
100
AcDb2dVertex
 10
2196.910356000002
 20
1660.465028000001
 30
0.0
  0
VERTEX
  5
277
330
229
100
AcDbEntity
  8
化粧台
  6
EXLTYPE2
 62
     6
100
AcDbVertex
100
AcDb2dVertex
 10
2197.424154000002
 20
1660.423596000001
 30
0.0
  0
VERTEX
  5
278
330
229
100
AcDbEntity
  8
化粧台
  6
EXLTYPE2
 62
     6
100
AcDbVertex
100
AcDb2dVertex
 10
2197.938590000003
 20
1660.391009999999
 30
0.0
  0
VERTEX
  5
279
330
229
100
AcDbEntity
  8
化粧台
  6
EXLTYPE2
 62
     6
100
AcDbVertex
100
AcDb2dVertex
 10
2198.453642000002
 20
1660.366755999999
 30
0.0
  0
VERTEX
  5
27A
330
229
100
AcDbEntity
  8
化粧台
  6
EXLTYPE2
 62
     6
100
AcDbVertex
100
AcDb2dVertex
 10
2198.969002000003
 20
1660.350224
 30
0.0
  0
VERTEX
  5
27B
330
229
100
AcDbEntity
  8
化粧台
  6
EXLTYPE2
 62
     6
100
AcDbVertex
100
AcDb2dVertex
 10
2199.484464000003
 20
1660.340768
 30
0.0
  0
VERTEX
  5
27C
330
229
100
AcDbEntity
  8
化粧台
  6
EXLTYPE2
 62
     6
100
AcDbVertex
100
AcDb2dVertex
 10
2199.999996000002
 20
1660.337726
 30
0.0
  0
SEQEND
  5
27D
330
229
100
AcDbEntity
  8
化粧台
  6
EXLTYPE2
 62
     6
  0
POLYLINE
  5
27E
330
1F
100
AcDbEntity
  8
化粧台
  6
EXLTYPE2
 62
     6
100
AcDb2dPolyline
 66
     1
 10
0.0
 20
0.0
 30
0.0
 70
   128
  0
VERTEX
  5
27F
330
27E
100
AcDbEntity
  8
化粧台
  6
EXLTYPE2
 62
     6
100
AcDbVertex
100
AcDb2dVertex
 10
2212.359798000003
 20
1663.500204
 30
0.0
  0
VERTEX
  5
280
330
27E
100
AcDbEntity
  8
化粧台
  6
EXLTYPE2
 62
     6
100
AcDbVertex
100
AcDb2dVertex
 10
2212.371936000003
 20
1663.234399999999
 30
0.0
  0
VERTEX
  5
281
330
27E
100
AcDbEntity
  8
化粧台
  6
EXLTYPE2
 62
     6
100
AcDbVertex
100
AcDb2dVertex
 10
2212.406730000002
 20
1662.976546
 30
0.0
  0
VERTEX
  5
282
330
27E
100
AcDbEntity
  8
化粧台
  6
EXLTYPE2
 62
     6
100
AcDbVertex
100
AcDb2dVertex
 10
2212.461282000002
 20
1662.73489
 30
0.0
  0
VERTEX
  5
283
330
27E
100
AcDbEntity
  8
化粧台
  6
EXLTYPE2
 62
     6
100
AcDbVertex
100
AcDb2dVertex
 10
2212.532054000003
 20
1662.510399999999
 30
0.0
  0
VERTEX
  5
284
330
27E
100
AcDbEntity
  8
化粧台
  6
EXLTYPE2
 62
     6
100
AcDbVertex
100
AcDb2dVertex
 10
2212.627754000003
 20
1662.27821
 30
0.0
  0
VERTEX
  5
285
330
27E
100
AcDbEntity
  8
化粧台
  6
EXLTYPE2
 62
     6
100
AcDbVertex
100
AcDb2dVertex
 10
2212.736384000003
 20
1662.068298
 30
0.0
  0
VERTEX
  5
286
330
27E
100
AcDbEntity
  8
化粧台
  6
EXLTYPE2
 62
     6
100
AcDbVertex
100
AcDb2dVertex
 10
2212.854228000002
 20
1661.880126
 30
0.0
  0
VERTEX
  5
287
330
27E
100
AcDbEntity
  8
化粧台
  6
EXLTYPE2
 62
     6
100
AcDbVertex
100
AcDb2dVertex
 10
2213.083200000003
 20
1661.587611999999
 30
0.0
  0
VERTEX
  5
288
330
27E
100
AcDbEntity
  8
化粧台
  6
EXLTYPE2
 62
     6
100
AcDbVertex
100
AcDb2dVertex
 10
2213.327730000003
 20
1661.345890000001
 30
0.0
  0
VERTEX
  5
289
330
27E
100
AcDbEntity
  8
化粧台
  6
EXLTYPE2
 62
     6
100
AcDbVertex
100
AcDb2dVertex
 10
2213.581306000002
 20
1661.146556
 30
0.0
  0
VERTEX
  5
28A
330
27E
100
AcDbEntity
  8
化粧台
  6
EXLTYPE2
 62
     6
100
AcDbVertex
100
AcDb2dVertex
 10
2213.972234000003
 20
1660.905189999999
 30
0.0
  0
VERTEX
  5
28B
330
27E
100
AcDbEntity
  8
化粧台
  6
EXLTYPE2
 62
     6
100
AcDbVertex
100
AcDb2dVertex
 10
2214.371560000003
 20
1660.720906
 30
0.0
  0
VERTEX
  5
28C
330
27E
100
AcDbEntity
  8
化粧台
  6
EXLTYPE2
 62
     6
100
AcDbVertex
100
AcDb2dVertex
 10
2214.777002000003
 20
1660.584806000001
 30
0.0
  0
VERTEX
  5
28D
330
27E
100
AcDbEntity
  8
化粧台
  6
EXLTYPE2
 62
     6
100
AcDbVertex
100
AcDb2dVertex
 10
2215.186276000002
 20
1660.487986
 30
0.0
  0
VERTEX
  5
28E
330
27E
100
AcDbEntity
  8
化粧台
  6
EXLTYPE2
 62
     6
100
AcDbVertex
100
AcDb2dVertex
 10
2215.597094000002
 20
1660.421546
 30
0.0
  0
VERTEX
  5
28F
330
27E
100
AcDbEntity
  8
化粧台
  6
EXLTYPE2
 62
     6
100
AcDbVertex
100
AcDb2dVertex
 10
2216.007174000004
 20
1660.376586
 30
0.0
  0
VERTEX
  5
290
330
27E
100
AcDbEntity
  8
化粧台
  6
EXLTYPE2
 62
     6
100
AcDbVertex
100
AcDb2dVertex
 10
2216.596514000003
 20
1660.340952
 30
0.0
  0
VERTEX
  5
291
330
27E
100
AcDbEntity
  8
化粧台
  6
EXLTYPE2
 62
     6
100
AcDbVertex
100
AcDb2dVertex
 10
2217.186260000002
 20
1660.341178000001
 30
0.0
  0
VERTEX
  5
292
330
27E
100
AcDbEntity
  8
化粧台
  6
EXLTYPE2
 62
     6
100
AcDbVertex
100
AcDb2dVertex
 10
2217.775592000004
 20
1660.377296000001
 30
0.0
  0
VERTEX
  5
293
330
27E
100
AcDbEntity
  8
化粧台
  6
EXLTYPE2
 62
     6
100
AcDbVertex
100
AcDb2dVertex
 10
2218.389334000003
 20
1660.45707
 30
0.0
  0
VERTEX
  5
294
330
27E
100
AcDbEntity
  8
化粧台
  6
EXLTYPE2
 62
     6
100
AcDbVertex
100
AcDb2dVertex
 10
2219.000332000003
 20
1660.595294000001
 30
0.0
  0
VERTEX
  5
295
330
27E
100
AcDbEntity
  8
化粧台
  6
EXLTYPE2
 62
     6
100
AcDbVertex
100
AcDb2dVertex
 10
2219.337392000003
 20
1660.703774
 30
0.0
  0
VERTEX
  5
296
330
27E
100
AcDbEntity
  8
化粧台
  6
EXLTYPE2
 62
     6
100
AcDbVertex
100
AcDb2dVertex
 10
2219.672208000002
 20
1660.842581999999
 30
0.0
  0
VERTEX
  5
297
330
27E
100
AcDbEntity
  8
化粧台
  6
EXLTYPE2
 62
     6
100
AcDbVertex
100
AcDb2dVertex
 10
2220.001942000003
 20
1661.019844
 30
0.0
  0
VERTEX
  5
298
330
27E
100
AcDbEntity
  8
化粧台
  6
EXLTYPE2
 62
     6
100
AcDbVertex
100
AcDb2dVertex
 10
2220.323756000003
 20
1661.243678000001
 30
0.0
  0
VERTEX
  5
299
330
27E
100
AcDbEntity
  8
化粧台
  6
EXLTYPE2
 62
     6
100
AcDbVertex
100
AcDb2dVertex
 10
2220.557706000003
 20
1661.448528000001
 30
0.0
  0
VERTEX
  5
29A
330
27E
100
AcDbEntity
  8
化粧台
  6
EXLTYPE2
 62
     6
100
AcDbVertex
100
AcDb2dVertex
 10
2220.781616000002
 20
1661.693542000001
 30
0.0
  0
VERTEX
  5
29B
330
27E
100
AcDbEntity
  8
化粧台
  6
EXLTYPE2
 62
     6
100
AcDbVertex
100
AcDb2dVertex
 10
2220.924178000003
 20
1661.885028000001
 30
0.0
  0
VERTEX
  5
29C
330
27E
100
AcDbEntity
  8
化粧台
  6
EXLTYPE2
 62
     6
100
AcDbVertex
100
AcDb2dVertex
 10
2221.057640000003
 20
1662.101986
 30
0.0
  0
VERTEX
  5
29D
330
27E
100
AcDbEntity
  8
化粧台
  6
EXLTYPE2
 62
     6
100
AcDbVertex
100
AcDb2dVertex
 10
2221.177780000004
 20
1662.346264
 30
0.0
  0
VERTEX
  5
29E
330
27E
100
AcDbEntity
  8
化粧台
  6
EXLTYPE2
 62
     6
100
AcDbVertex
100
AcDb2dVertex
 10
2221.269362000003
 20
1662.587092
 30
0.0
  0
VERTEX
  5
29F
330
27E
100
AcDbEntity
  8
化粧台
  6
EXLTYPE2
 62
     6
100
AcDbVertex
100
AcDb2dVertex
 10
2221.342714000004
 20
1662.851294
 30
0.0
  0
VERTEX
  5
2A0
330
27E
100
AcDbEntity
  8
化粧台
  6
EXLTYPE2
 62
     6
100
AcDbVertex
100
AcDb2dVertex
 10
2221.387832000002
 20
1663.100428
 30
0.0
  0
VERTEX
  5
2A1
330
27E
100
AcDbEntity
  8
化粧台
  6
EXLTYPE2
 62
     6
100
AcDbVertex
100
AcDb2dVertex
 10
2221.411894000003
 20
1663.360774000001
 30
0.0
  0
VERTEX
  5
2A2
330
27E
100
AcDbEntity
  8
化粧台
  6
EXLTYPE2
 62
     6
100
AcDbVertex
100
AcDb2dVertex
 10
2221.415184000003
 20
1663.500204
 30
0.0
  0
VERTEX
  5
2A3
330
27E
100
AcDbEntity
  8
化粧台
  6
EXLTYPE2
 62
     6
100
AcDbVertex
100
AcDb2dVertex
 10
2221.403028000002
 20
1663.765804000001
 30
0.0
  0
VERTEX
  5
2A4
330
27E
100
AcDbEntity
  8
化粧台
  6
EXLTYPE2
 62
     6
100
AcDbVertex
100
AcDb2dVertex
 10
2221.368250000003
 20
1664.02346
 30
0.0
  0
VERTEX
  5
2A5
330
27E
100
AcDbEntity
  8
化粧台
  6
EXLTYPE2
 62
     6
100
AcDbVertex
100
AcDb2dVertex
 10
2221.313700000002
 20
1664.265117999999
 30
0.0
  0
VERTEX
  5
2A6
330
27E
100
AcDbEntity
  8
化粧台
  6
EXLTYPE2
 62
     6
100
AcDbVertex
100
AcDb2dVertex
 10
2221.242928000003
 20
1664.489608
 30
0.0
  0
VERTEX
  5
2A7
330
27E
100
AcDbEntity
  8
化粧台
  6
EXLTYPE2
 62
     6
100
AcDbVertex
100
AcDb2dVertex
 10
2221.147228000003
 20
1664.721798
 30
0.0
  0
VERTEX
  5
2A8
330
27E
100
AcDbEntity
  8
化粧台
  6
EXLTYPE2
 62
     6
100
AcDbVertex
100
AcDb2dVertex
 10
2221.038598000003
 20
1664.931708
 30
0.0
  0
VERTEX
  5
2A9
330
27E
100
AcDbEntity
  8
化粧台
  6
EXLTYPE2
 62
     6
100
AcDbVertex
100
AcDb2dVertex
 10
2220.920754000002
 20
1665.119882000001
 30
0.0
  0
VERTEX
  5
2AA
330
27E
100
AcDbEntity
  8
化粧台
  6
EXLTYPE2
 62
     6
100
AcDbVertex
100
AcDb2dVertex
 10
2220.691782000004
 20
1665.412396
 30
0.0
  0
VERTEX
  5
2AB
330
27E
100
AcDbEntity
  8
化粧台
  6
EXLTYPE2
 62
     6
100
AcDbVertex
100
AcDb2dVertex
 10
2220.447252000004
 20
1665.654116
 30
0.0
  0
VERTEX
  5
2AC
330
27E
100
AcDbEntity
  8
化粧台
  6
EXLTYPE2
 62
     6
100
AcDbVertex
100
AcDb2dVertex
 10
2220.193676000003
 20
1665.853450000001
 30
0.0
  0
VERTEX
  5
2AD
330
27E
100
AcDbEntity
  8
化粧台
  6
EXLTYPE2
 62
     6
100
AcDbVertex
100
AcDb2dVertex
 10
2219.802748000004
 20
1666.094818
 30
0.0
  0
VERTEX
  5
2AE
330
27E
100
AcDbEntity
  8
化粧台
  6
EXLTYPE2
 62
     6
100
AcDbVertex
100
AcDb2dVertex
 10
2219.403422000003
 20
1666.2791
 30
0.0
  0
VERTEX
  5
2AF
330
27E
100
AcDbEntity
  8
化粧台
  6
EXLTYPE2
 62
     6
100
AcDbVertex
100
AcDb2dVertex
 10
2218.997980000002
 20
1666.415202
 30
0.0
  0
VERTEX
  5
2B0
330
27E
100
AcDbEntity
  8
化粧台
  6
EXLTYPE2
 62
     6
100
AcDbVertex
100
AcDb2dVertex
 10
2218.588706000002
 20
1666.512022000001
 30
0.0
  0
VERTEX
  5
2B1
330
27E
100
AcDbEntity
  8
化粧台
  6
EXLTYPE2
 62
     6
100
AcDbVertex
100
AcDb2dVertex
 10
2218.177888000004
 20
1666.578461999999
 30
0.0
  0
VERTEX
  5
2B2
330
27E
100
AcDbEntity
  8
化粧台
  6
EXLTYPE2
 62
     6
100
AcDbVertex
100
AcDb2dVertex
 10
2217.767808000002
 20
1666.623422000001
 30
0.0
  0
VERTEX
  5
2B3
330
27E
100
AcDbEntity
  8
化粧台
  6
EXLTYPE2
 62
     6
100
AcDbVertex
100
AcDb2dVertex
 10
2217.178468000004
 20
1666.659056
 30
0.0
  0
VERTEX
  5
2B4
330
27E
100
AcDbEntity
  8
化粧台
  6
EXLTYPE2
 62
     6
100
AcDbVertex
100
AcDb2dVertex
 10
2216.588722000002
 20
1666.65883
 30
0.0
  0
VERTEX
  5
2B5
330
27E
100
AcDbEntity
  8
化粧台
  6
EXLTYPE2
 62
     6
100
AcDbVertex
100
AcDb2dVertex
 10
2215.999390000003
 20
1666.62271
 30
0.0
  0
VERTEX
  5
2B6
330
27E
100
AcDbEntity
  8
化粧台
  6
EXLTYPE2
 62
     6
100
AcDbVertex
100
AcDb2dVertex
 10
2215.385648000003
 20
1666.542938000001
 30
0.0
  0
VERTEX
  5
2B7
330
27E
100
AcDbEntity
  8
化粧台
  6
EXLTYPE2
 62
     6
100
AcDbVertex
100
AcDb2dVertex
 10
2214.774650000003
 20
1666.404714
 30
0.0
  0
VERTEX
  5
2B8
330
27E
100
AcDbEntity
  8
化粧台
  6
EXLTYPE2
 62
     6
100
AcDbVertex
100
AcDb2dVertex
 10
2214.437590000003
 20
1666.296233999999
 30
0.0
  0
VERTEX
  5
2B9
330
27E
100
AcDbEntity
  8
化粧台
  6
EXLTYPE2
 62
     6
100
AcDbVertex
100
AcDb2dVertex
 10
2214.102772000004
 20
1666.157426
 30
0.0
  0
VERTEX
  5
2BA
330
27E
100
AcDbEntity
  8
化粧台
  6
EXLTYPE2
 62
     6
100
AcDbVertex
100
AcDb2dVertex
 10
2213.773040000002
 20
1665.980164000001
 30
0.0
  0
VERTEX
  5
2BB
330
27E
100
AcDbEntity
  8
化粧台
  6
EXLTYPE2
 62
     6
100
AcDbVertex
100
AcDb2dVertex
 10
2213.451226000003
 20
1665.756327999999
 30
0.0
  0
VERTEX
  5
2BC
330
27E
100
AcDbEntity
  8
化粧台
  6
EXLTYPE2
 62
     6
100
AcDbVertex
100
AcDb2dVertex
 10
2213.217276000003
 20
1665.55148
 30
0.0
  0
VERTEX
  5
2BD
330
27E
100
AcDbEntity
  8
化粧台
  6
EXLTYPE2
 62
     6
100
AcDbVertex
100
AcDb2dVertex
 10
2212.993366000002
 20
1665.306463999999
 30
0.0
  0
VERTEX
  5
2BE
330
27E
100
AcDbEntity
  8
化粧台
  6
EXLTYPE2
 62
     6
100
AcDbVertex
100
AcDb2dVertex
 10
2212.850804000003
 20
1665.11498
 30
0.0
  0
VERTEX
  5
2BF
330
27E
100
AcDbEntity
  8
化粧台
  6
EXLTYPE2
 62
     6
100
AcDbVertex
100
AcDb2dVertex
 10
2212.717342000004
 20
1664.898021999999
 30
0.0
  0
VERTEX
  5
2C0
330
27E
100
AcDbEntity
  8
化粧台
  6
EXLTYPE2
 62
     6
100
AcDbVertex
100
AcDb2dVertex
 10
2212.597202000003
 20
1664.653742
 30
0.0
  0
VERTEX
  5
2C1
330
27E
100
AcDbEntity
  8
化粧台
  6
EXLTYPE2
 62
     6
100
AcDbVertex
100
AcDb2dVertex
 10
2212.505620000004
 20
1664.412915999999
 30
0.0
  0
VERTEX
  5
2C2
330
27E
100
AcDbEntity
  8
化粧台
  6
EXLTYPE2
 62
     6
100
AcDbVertex
100
AcDb2dVertex
 10
2212.432268000002
 20
1664.148714000001
 30
0.0
  0
VERTEX
  5
2C3
330
27E
100
AcDbEntity
  8
化粧台
  6
EXLTYPE2
 62
     6
100
AcDbVertex
100
AcDb2dVertex
 10
2212.387150000002
 20
1663.899579999999
 30
0.0
  0
VERTEX
  5
2C4
330
27E
100
AcDbEntity
  8
化粧台
  6
EXLTYPE2
 62
     6
100
AcDbVertex
100
AcDb2dVertex
 10
2212.363088000004
 20
1663.639234
 30
0.0
  0
VERTEX
  5
2C5
330
27E
100
AcDbEntity
  8
化粧台
  6
EXLTYPE2
 62
     6
100
AcDbVertex
100
AcDb2dVertex
 10
2212.359798000003
 20
1663.500204
 30
0.0
  0
SEQEND
  5
2C6
330
27E
100
AcDbEntity
  8
化粧台
  6
EXLTYPE2
 62
     6
  0
LINE
  5
2C7
330
1F
100
AcDbEntity
  8
化粧台
  6
EXLTYPE2
 62
     6
100
AcDbLine
 10
2211.322576000002
 20
1667.33333333333
 30
0.0
 11
2211.322576000002
 21
1674.33333333333
 31
0.0
  0
LINE
  5
2C8
330
1F
100
AcDbEntity
  8
化粧台
  6
EXLTYPE2
 62
     6
100
AcDbLine
 10
2210.064512000003
 20
1667.33333333333
 30
0.0
 11
2210.064512000003
 21
1674.33333333333
 31
0.0
  0
LINE
  5
2C9
330
1F
100
AcDbEntity
  8
化粧台
  6
EXLTYPE2
 62
     6
100
AcDbLine
 10
2189.935480000002
 20
1667.33333333333
 30
0.0
 11
2189.935480000002
 21
1674.33333333333
 31
0.0
  0
LINE
  5
2CA
330
1F
100
AcDbEntity
  8
化粧台
  6
EXLTYPE2
 62
     6
100
AcDbLine
 10
2188.677416000002
 20
1667.33333333333
 30
0.0
 11
2188.677416000002
 21
1674.33333333333
 31
0.0
  0
LINE
  5
2CB
330
1F
100
AcDbEntity
  8
化粧台
  6
EXLTYPE2
 62
     6
100
AcDbLine
 10
2172.500000000002
 20
1676.83333333333
 30
0.0
 11
2227.500000000002
 21
1676.83333333333
 31
0.0
  0
LINE
  5
2CC
330
1F
100
AcDbEntity
  8
化粧台
  6
EXLTYPE2
 62
     6
100
AcDbLine
 10
2172.500000000002
 20
1678.33333333333
 30
0.0
 11
2227.500000000002
 21
1678.33333333333
 31
0.0
  0
LINE
  5
2CD
330
1F
100
AcDbEntity
  8
化粧台
  6
EXLTYPE2
 62
     6
100
AcDbLine
 10
2220.967736000002
 20
1667.33333333333
 30
0.0
 11
2220.967736000002
 21
1674.33333333333
 31
0.0
  0
LINE
  5
2CE
330
1F
100
AcDbEntity
  8
化粧台
  6
EXLTYPE2
 62
     6
100
AcDbLine
 10
2179.032256000002
 20
1667.33333333333
 30
0.0
 11
2220.967736000002
 21
1667.33333333333
 31
0.0
  0
LINE
  5
2CF
330
1F
100
AcDbEntity
  8
化粧台
  6
EXLTYPE2
 62
     6
100
AcDbLine
 10
2179.032256000002
 20
1667.33333333333
 30
0.0
 11
2179.032256000002
 21
1674.33333333333
 31
0.0
  0
LINE
  5
2D0
330
1F
100
AcDbEntity
  8
化粧台
  6
EXLTYPE2
 62
     6
100
AcDbLine
 10
2174.000000000002
 20
1674.33333333333
 30
0.0
 11
2226.000000000002
 21
1674.33333333333
 31
0.0
  0
LINE
  5
2D1
330
1F
100
AcDbEntity
  8
化粧台
  6
EXLTYPE2
 62
     6
100
AcDbLine
 10
2174.000000000002
 20
1674.33333333333
 30
0.0
 11
2174.000000000002
 21
1675.83333333333
 31
0.0
  0
LINE
  5
2D2
330
1F
100
AcDbEntity
  8
化粧台
  6
EXLTYPE2
 62
     6
100
AcDbLine
 10
2226.000000000002
 20
1674.33333333333
 30
0.0
 11
2226.000000000002
 21
1675.83333333333
 31
0.0
  0
LINE
  5
2D3
330
1F
100
AcDbEntity
  8
化粧台
  6
EXLTYPE2
 62
     6
100
AcDbLine
 10
2220.000000000002
 20
1660.0
 30
0.0
 11
2180.000000000002
 21
1660.0
 31
0.0
  0
LINE
  5
2D4
330
1F
100
AcDbEntity
  8
化粧台
  6
EXLTYPE2
 62
     6
100
AcDbLine
 10
2255.500000000002
 20
1651.0
 30
0.0
 11
2250.500000000002
 21
1651.0
 31
0.0
  0
LINE
  5
2D5
330
1F
100
AcDbEntity
  8
化粧台
  6
EXLTYPE2
 62
     6
100
AcDbLine
 10
2182.500000000002
 20
1667.33333333333
 30
0.0
 11
2182.500000000002
 21
1667.0
 31
0.0
  0
LINE
  5
2D6
330
1F
100
AcDbEntity
  8
化粧台
  6
EXLTYPE2
 62
     6
100
AcDbLine
 10
2217.500000000002
 20
1667.33333333333
 30
0.0
 11
2217.500000000002
 21
1667.0
 31
0.0
  0
LINE
  5
2D7
330
1F
100
AcDbEntity
  8
化粧台
  6
EXLTYPE2
 62
     6
100
AcDbLine
 10
2227.500000000004
 20
1678.33333333333
 30
0.0
 11
2227.500000000004
 21
1675.83333333333
 31
0.0
  0
LINE
  5
2D8
330
1F
100
AcDbEntity
  8
化粧台
  6
EXLTYPE2
 62
     6
100
AcDbLine
 10
2172.500000000004
 20
1678.33333333333
 30
0.0
 11
2172.500000000004
 21
1675.83333333333
 31
0.0
  0
LINE
  5
2D9
330
1F
100
AcDbEntity
  8
化粧台
  6
EXLTYPE2
 62
     6
100
AcDbLine
 10
2174.000000000002
 20
1675.83333333333
 30
0.0
 11
2226.000000000002
 21
1675.83333333333
 31
0.0
  0
LINE
  5
2DA
330
1F
100
AcDbEntity
  8
化粧台
  6
EXLTYPE2
 62
     6
100
AcDbLine
 10
2172.500000000002
 20
1676.83333333333
 30
0.0
 11
2227.500000000002
 21
1676.83333333333
 31
0.0
  0
LINE
  5
2DB
330
1F
100
AcDbEntity
  8
化粧台
  6
EXLTYPE2
 62
     6
100
AcDbLine
 10
2172.500000000002
 20
1675.83333333333
 30
0.0
 11
2227.500000000002
 21
1675.83333333333
 31
0.0
  0
LINE
  5
2DC
330
1F
100
AcDbEntity
  8
化粧台
  6
EXLTYPE2
 62
     6
100
AcDbLine
 10
2218.000000000002
 20
1667.0
 30
0.0
 11
2182.000000000002
 21
1667.0
 31
0.0
  0
ARC
  5
2DD
330
1F
100
AcDbEntity
  8
化粧台
  6
EXLTYPE2
 62
     6
100
AcDbCircle
 10
2218.000000000002
 20
1663.5
 30
0.0
 40
3.500000000000002
100
AcDbArc
 50
270.0000000000002
 51
90.00000000000004
  0
ARC
  5
2DE
330
1F
100
AcDbEntity
  8
化粧台
  6
EXLTYPE2
 62
     6
100
AcDbCircle
 10
2182.000000000002
 20
1663.5
 30
0.0
 40
3.500000000000002
100
AcDbArc
 50
90.00000000000004
 51
270.0000000000002
  0
LINE
  5
2DF
330
1F
100
AcDbEntity
  8
化粧台
  6
EXLTYPE2
 62
     6
100
AcDbLine
 10
2180.000000000002
 20
1660.0
 30
0.0
 11
2180.000000000002
 21
1622.5
 31
0.0
  0
ARC
  5
2E0
330
1F
100
AcDbEntity
  8
化粧台
  6
EXLTYPE2
 62
     6
100
AcDbCircle
 10
2223.000000000002
 20
1652.678400000001
 30
0.0
 40
3.000000000000003
100
AcDbArc
 50
180.0
 51
263.5169260000002
  0
LINE
  5
2E1
330
1F
100
AcDbEntity
  8
化粧台
  6
EXLTYPE2
 62
     6
100
AcDbLine
 10
2222.661264000004
 20
1649.697584
 30
0.0
 11
2242.000000000002
 21
1647.5
 31
0.0
  0
LINE
  5
2E2
330
1F
100
AcDbEntity
  8
化粧台
  6
EXLTYPE2
 62
     6
100
AcDbLine
 10
2220.000000000002
 20
1660.0
 30
0.0
 11
2220.000000000002
 21
1652.678400000001
 31
0.0
  0
LINE
  5
2E3
330
1F
100
AcDbEntity
  8
化粧台
  6
EXLTYPE2
 62
     6
100
AcDbLine
 10
2242.000000000002
 20
1650.0
 30
0.0
 11
2242.000000000002
 21
1629.0
 31
0.0
  0
LINE
  5
2E4
330
1F
100
AcDbEntity
  8
化粧台
  6
EXLTYPE2
 62
     6
100
AcDbLine
 10
2262.000000000002
 20
1651.5
 30
0.0
 11
2255.500000000002
 21
1651.5
 31
0.0
  0
LINE
  5
2E5
330
1F
100
AcDbEntity
  8
化粧台
  6
EXLTYPE2
 62
     6
100
AcDbLine
 10
2250.500000000002
 20
1651.0
 30
0.0
 11
2250.500000000002
 21
1628.0
 31
0.0
  0
LINE
  5
2E6
330
1F
100
AcDbEntity
  8
化粧台
  6
EXLTYPE2
 62
     6
100
AcDbLine
 10
2250.500000000002
 20
1650.0
 30
0.0
 11
2242.000000000002
 21
1650.0
 31
0.0
  0
LINE
  5
2E7
330
1F
100
AcDbEntity
  8
化粧台
  6
EXLTYPE2
 62
     6
100
AcDbLine
 10
2255.500000000002
 20
1651.5
 30
0.0
 11
2255.500000000002
 21
1627.5
 31
0.0
  0
LINE
  5
2E8
330
1F
100
AcDbEntity
  8
化粧台
  6
EXLTYPE2
 62
     6
100
AcDbLine
 10
2164.336477008476
 20
1682.5
 30
0.0
 11
2178.500000000001
 21
1682.5
 31
0.0
  0
ARC
  5
2E9
330
1F
100
AcDbEntity
  8
化粧台
  6
EXLTYPE2
 62
     6
100
AcDbCircle
 10
2228.709237755405
 20
1719.706325208987
 30
0.0
 40
35.0
100
AcDbArc
 50
289.8838940558181
 51
338.8864999216353
  0
ARC
  5
2EA
330
1F
100
AcDbEntity
  8
化粧台
  6
EXLTYPE2
 62
     6
100
AcDbCircle
 10
2235.663522991525
 20
1687.5
 30
0.0
 40
5.0
100
AcDbArc
 50
270.0000000000002
 51
351.8698976458426
  0
ARC
  5
2EB
330
1F
100
AcDbEntity
  8
化粧台
  6
EXLTYPE2
 62
     6
100
AcDbCircle
 10
2164.336477008476
 20
1687.5
 30
0.0
 40
5.0
100
AcDbArc
 50
188.1301023541575
 51
270.0000000000002
  0
LINE
  5
2EC
330
1F
100
AcDbEntity
  8
化粧台
  6
EXLTYPE2
 62
     6
100
AcDbLine
 10
2341.743689760486
 20
1717.5
 30
0.0
 11
2317.325036024315
 21
1543.752250544016
 31
0.0
  0
LINE
  5
2ED
330
1F
100
AcDbEntity
  8
化粧台
  6
EXLTYPE2
 62
     6
100
AcDbLine
 10
2317.325036024318
 20
1543.752250544014
 30
0.0
 11
2323.266644436769
 21
1542.917211938255
 31
0.0
  0
LINE
  5
2EE
330
1F
100
AcDbEntity
  8
化粧台
  6
EXLTYPE2
 62
     6
100
AcDbLine
 10
2323.266644436769
 20
1542.917211938255
 30
0.0
 11
2343.500000000002
 21
1686.885017495337
 31
0.0
  0
LINE
  5
2EF
330
1F
100
AcDbEntity
  8
化粧台
  6
EXLTYPE2
 62
     6
100
AcDbLine
 10
2255.500000000002
 20
1628.0
 30
0.0
 11
2250.500000000002
 21
1628.0
 31
0.0
  0
LINE
  5
2F0
330
1F
100
AcDbEntity
  8
化粧台
  6
EXLTYPE2
 62
     6
100
AcDbLine
 10
2184.000000000002
 20
1620.5
 30
0.0
 11
2180.000000000002
 21
1622.5
 31
0.0
  0
LINE
  5
2F1
330
1F
100
AcDbEntity
  8
化粧台
  6
EXLTYPE2
 62
     6
100
AcDbLine
 10
2216.000000000002
 20
1620.5
 30
0.0
 11
2220.000000000002
 21
1622.5
 31
0.0
  0
LINE
  5
2F2
330
1F
100
AcDbEntity
  8
化粧台
  6
EXLTYPE2
 62
     6
100
AcDbLine
 10
2216.000000000002
 20
1620.5
 30
0.0
 11
2184.000000000002
 21
1620.5
 31
0.0
  0
LINE
  5
2F3
330
1F
100
AcDbEntity
  8
化粧台
  6
EXLTYPE2
 62
     6
100
AcDbLine
 10
2220.000000000002
 20
1622.5
 30
0.0
 11
2180.000000000002
 21
1622.5
 31
0.0
  0
LINE
  5
2F4
330
1F
100
AcDbEntity
  8
化粧台
  6
EXLTYPE2
 62
     6
100
AcDbLine
 10
2220.000000000002
 20
1626.321608
 30
0.0
 11
2220.000000000002
 21
1622.5
 31
0.0
  0
ARC
  5
2F5
330
1F
100
AcDbEntity
  8
化粧台
  6
EXLTYPE2
 62
     6
100
AcDbCircle
 10
2223.000000000002
 20
1626.321608
 30
0.0
 40
3.000000000000003
100
AcDbArc
 50
96.48307400000006
 51
180.0
  0
LINE
  5
2F6
330
1F
100
AcDbEntity
  8
化粧台
  6
EXLTYPE2
 62
     6
100
AcDbLine
 10
2222.661264000004
 20
1629.302424
 30
0.0
 11
2242.000000000002
 21
1631.5
 31
0.0
  0
LINE
  5
2F7
330
1F
100
AcDbEntity
  8
化粧台
  6
EXLTYPE2
 62
     6
100
AcDbLine
 10
2262.000000000002
 20
1627.5
 30
0.0
 11
2255.500000000002
 21
1627.5
 31
0.0
  0
LINE
  5
2F8
330
1F
100
AcDbEntity
  8
化粧台
  6
EXLTYPE2
 62
     6
100
AcDbLine
 10
2250.500000000002
 20
1629.0
 30
0.0
 11
2242.000000000002
 21
1629.0
 31
0.0
  0
LINE
  5
2F9
330
1F
100
AcDbEntity
  8
化粧台
  6
EXLTYPE2
 62
     6
100
AcDbLine
 10
2184.125000000002
 20
1620.5
 30
0.0
 11
2184.125000000002
 21
1496.49999999995
 31
0.0
  0
LINE
  5
2FA
330
1F
100
AcDbEntity
  8
化粧台
  6
EXLTYPE2
 62
     6
100
AcDbLine
 10
2215.875000000002
 20
1620.5
 30
0.0
 11
2215.875000000002
 21
1496.49999999995
 31
0.0
  0
LINE
  5
2FB
330
1F
100
AcDbEntity
  8
化粧台
  6
EXLTYPE2
 62
     6
100
AcDbLine
 10
2271.000000000002
 20
1650.5
 30
0.0
 11
2262.000000000002
 21
1650.5
 31
0.0
  0
LINE
  5
2FC
330
1F
100
AcDbEntity
  8
化粧台
  6
EXLTYPE2
 62
     6
100
AcDbLine
 10
2262.000000000002
 20
1651.5
 30
0.0
 11
2262.000000000002
 21
1627.5
 31
0.0
  0
LINE
  5
2FD
330
1F
100
AcDbEntity
  8
化粧台
  6
EXLTYPE2
 62
     6
100
AcDbLine
 10
2395.000000000003
 20
1642.5
 30
0.0
 11
2395.000000000003
 21
1636.5
 31
0.0
  0
LINE
  5
2FE
330
1F
100
AcDbEntity
  8
化粧台
  6
EXLTYPE2
 62
     6
100
AcDbLine
 10
2395.000000000003
 20
1636.5
 30
0.0
 11
2274.000000000002
 21
1636.5
 31
0.0
  0
LINE
  5
2FF
330
1F
100
AcDbEntity
  8
化粧台
  6
EXLTYPE2
 62
     6
100
AcDbLine
 10
2395.000000000003
 20
1642.5
 30
0.0
 11
2274.000000000002
 21
1642.5
 31
0.0
  0
ARC
  5
300
330
1F
100
AcDbEntity
  8
化粧台
  6
EXLTYPE2
 62
     6
100
AcDbCircle
 10
2271.000000000002
 20
1647.5
 30
0.0
 40
3.000000000000003
100
AcDbArc
 50
0.0
 51
90.00000000000004
  0
LINE
  5
301
330
1F
100
AcDbEntity
  8
化粧台
  6
EXLTYPE2
 62
     6
100
AcDbLine
 10
2274.000000000002
 20
1647.5
 30
0.0
 11
2274.000000000002
 21
1631.5
 31
0.0
  0
LINE
  5
302
330
1F
100
AcDbEntity
  8
化粧台
  6
EXLTYPE2
 62
     6
100
AcDbLine
 10
2271.000000000002
 20
1628.5
 30
0.0
 11
2262.000000000002
 21
1628.5
 31
0.0
  0
ARC
  5
303
330
1F
100
AcDbEntity
  8
化粧台
  6
EXLTYPE2
 62
     6
100
AcDbCircle
 10
2271.000000000002
 20
1631.5
 30
0.0
 40
3.000000000000003
100
AcDbArc
 50
270.0000000000002
 51
0.0
  0
ELLIPSE
  5
304
330
1F
100
AcDbEntity
  8
化粧台
  6
EXLTYPE2
 62
     6
100
AcDbEllipse
 10
2359.978226350162
 20
1441.199999999999
 30
0.0
 11
3.118494002032691E-16
 21
5.09288719687
 31
0.0
210
0.0
220
0.0
230
1.0
 40
0.544244068775661
 41
0.0
 42
6.283185307179586
  0
ELLIPSE
  5
305
330
1F
100
AcDbEntity
  8
化粧台
  6
EXLTYPE2
 62
     6
100
AcDbEllipse
 10
2350.0
 20
1441.199999999999
 30
0.0
 11
5.50567888639
 21
0.0
 31
0.0
210
0.0
220
0.0
230
1.0
 40
0.9250243797290071
 41
0.0
 42
6.283185307179586
  0
ELLIPSE
  5
306
330
1F
100
AcDbEntity
  8
化粧台
  6
EXLTYPE2
 62
     6
100
AcDbEllipse
 10
2340.021773649842
 20
1441.199999999999
 30
0.0
 11
-9.355482006098073E-16
 21
-5.09288719687
 31
0.0
210
0.0
220
0.0
230
1.0
 40
0.544244068775661
 41
0.0
 42
6.283185307179586
  0
LINE
  5
307
330
1F
100
AcDbEntity
  8
化粧台
  6
EXLTYPE2
 62
     6
100
AcDbLine
 10
2360.96954445729
 20
1447.199999999999
 30
0.0
 11
2339.03045554271
 21
1447.199999999999
 31
0.0
  0
ARC
  5
308
330
1F
100
AcDbEntity
  8
化粧台
  6
EXLTYPE2
 62
     6
100
AcDbCircle
 10
2351.75
 20
1441.199999999999
 30
0.0
 40
11.0
100
AcDbArc
 50
326.9442688491002
 51
33.05573115089992
  0
LINE
  5
309
330
1F
100
AcDbEntity
  8
化粧台
  6
EXLTYPE2
 62
     6
100
AcDbLine
 10
2360.96954445729
 20
1435.199999999999
 30
0.0
 11
2339.03045554271
 21
1435.199999999999
 31
0.0
  0
ARC
  5
30A
330
1F
100
AcDbEntity
  8
化粧台
  6
EXLTYPE2
 62
     6
100
AcDbCircle
 10
2348.25
 20
1441.199999999999
 30
0.0
 40
11.0
100
AcDbArc
 50
146.9442688491499
 51
213.0557311508992
  0
LINE
  5
30B
330
1F
100
AcDbEntity
  8
化粧台
  6
EXLTYPE2
 62
     6
100
AcDbLine
 10
2343.499999999999
 20
1717.5
 30
0.0
 11
2343.499999999999
 21
1447.199999999999
 31
0.0
  0
LINE
  5
30C
330
1F
100
AcDbEntity
  8
化粧台
  6
EXLTYPE2
 62
     6
100
AcDbLine
 10
2356.5
 20
1717.5
 30
0.0
 11
2356.5
 21
1447.199999999999
 31
0.0
  0
LINE
  5
30D
330
1F
100
AcDbEntity
  8
化粧台
  6
EXLTYPE2
 62
     6
100
AcDbLine
 10
2416.400000000001
 20
1667.4999999994
 30
0.0
 11
2416.400000000001
 21
1267.4999999994
 31
0.0
  0
LINE
  5
30E
330
1F
100
AcDbEntity
  8
化粧台
  6
EXLTYPE2
 62
     6
100
AcDbLine
 10
2416.400000000001
 20
1267.4999999994
 30
0.0
 11
2435.000000000001
 21
1267.4999999994
 31
0.0
  0
LINE
  5
30F
330
1F
100
AcDbEntity
  8
化粧台
  6
EXLTYPE2
 62
     6
100
AcDbLine
 10
1985.0
 20
1667.4999999994
 30
0.0
 11
2435.000000000001
 21
1667.4999999994
 31
0.0
  0
LINE
  5
310
330
1F
100
AcDbEntity
  8
化粧台
  6
CONTINUOUS
 62
     6
100
AcDbLine
 10
2365.500000000001
 20
1009.5
 30
0.0
 11
2344.500000000001
 21
1009.5
 31
0.0
  0
LINE
  5
311
330
1F
100
AcDbEntity
  8
化粧台
  6
CONTINUOUS
 62
     6
100
AcDbLine
 10
2289.000000000001
 20
987.5
 30
0.0
 11
2321.000000000002
 21
987.5
 31
0.0
  0
LINE
  5
312
330
1F
100
AcDbEntity
  8
化粧台
  6
EXLTYPE4
 62
     6
100
AcDbLine
 10
2321.000000000002
 20
1217.5
 30
0.0
 11
2321.000000000002
 21
987.5
 31
0.0
  0
LINE
  5
313
330
1F
100
AcDbEntity
  8
化粧台
  6
EXLTYPE4
 62
     6
100
AcDbLine
 10
2289.000000000001
 20
1217.5
 30
0.0
 11
2289.000000000001
 21
987.5
 31
0.0
  0
LINE
  5
314
330
1F
100
AcDbEntity
  8
化粧台
  6
EXLTYPE3
 62
     6
100
AcDbLine
 10
2305.000000000001
 20
1227.5
 30
0.0
 11
2305.000000000001
 21
977.5
 31
0.0
  0
LINE
  5
315
330
1F
100
AcDbEntity
  8
化粧台
  6
EXLTYPE3
 62
     6
100
AcDbLine
 10
2355.000000000001
 20
1227.5
 30
0.0
 11
2355.000000000001
 21
999.5
 31
0.0
  0
LINE
  5
316
330
1F
100
AcDbEntity
  8
化粧台
  6
EXLTYPE4
 62
     6
100
AcDbLine
 10
2344.500000000001
 20
1217.5
 30
0.0
 11
2344.500000000001
 21
1009.5
 31
0.0
  0
LINE
  5
317
330
1F
100
AcDbEntity
  8
化粧台
  6
EXLTYPE4
 62
     6
100
AcDbLine
 10
2365.500000000001
 20
1217.5
 30
0.0
 11
2365.500000000001
 21
1009.5
 31
0.0
  0
LINE
  5
318
330
1F
100
AcDbEntity
  8
化粧台
  6
CONTINUOUS
 62
     6
100
AcDbLine
 10
2465.0
 20
1506.500000000001
 30
0.0
 11
2465.0
 21
1538.5
 31
0.0
  0
LINE
  5
319
330
1F
100
AcDbEntity
  8
化粧台
  6
EXLTYPE4
 62
     6
100
AcDbLine
 10
2314.0
 20
1538.500000000001
 30
0.0
 11
2464.999999999999
 21
1538.5
 31
0.0
  0
LINE
  5
31A
330
1F
100
AcDbEntity
  8
化粧台
  6
EXLTYPE4
 62
     6
100
AcDbLine
 10
2314.0
 20
1506.500000000002
 30
0.0
 11
2464.999999999999
 21
1506.500000000002
 31
0.0
  0
LINE
  5
31B
330
1F
100
AcDbEntity
  8
化粧台
  6
EXLTYPE3
 62
     6
100
AcDbLine
 10
2304.0
 20
1522.5
 30
0.0
 11
2474.999999999999
 21
1522.5
 31
0.0
  0
LINE
  5
31C
330
1F
100
AcDbEntity
  8
化粧台
  6
EXLTYPE2
 62
     6
100
AcDbLine
 10
2177.999999999999
 20
1496.49999999995
 30
0.0
 11
2221.999999999999
 21
1496.49999999995
 31
0.0
  0
LINE
  5
31D
330
1F
100
AcDbEntity
  8
化粧台
  6
EXLTYPE2
 62
     6
100
AcDbLine
 10
2183.999999999999
 20
1434.524886499969
 30
0.0
 11
2183.999999999999
 21
1398.499999999951
 31
0.0
  0
LINE
  5
31E
330
1F
100
AcDbEntity
  8
化粧台
  6
EXLTYPE2
 62
     6
100
AcDbLine
 10
2215.999999999999
 20
1434.524886499889
 30
0.0
 11
2215.999999999999
 21
1398.499999999949
 31
0.0
  0
ARC
  5
31F
330
1F
100
AcDbEntity
  8
化粧台
  6
EXLTYPE2
 62
     6
100
AcDbCircle
 10
2237.999999999999
 20
1398.49999999995
 30
0.0
 40
21.99999999999954
100
AcDbArc
 50
179.9999999999995
 51
0.0
  0
ARC
  5
320
330
1F
100
AcDbEntity
  8
化粧台
  6
EXLTYPE2
 62
     6
100
AcDbCircle
 10
2237.999999999999
 20
1398.49999999995
 30
0.0
 40
54.00000000000048
100
AcDbArc
 50
179.9999999999998
 51
0.0
  0
LINE
  5
321
330
1F
100
AcDbEntity
  8
化粧台
  6
EXLTYPE2
 62
     6
100
AcDbLine
 10
2183.999999999999
 20
1434.899886499969
 30
0.0
 11
2215.999999999999
 21
1434.899886499969
 31
0.0
  0
LINE
  5
322
330
1F
100
AcDbEntity
  8
化粧台
  6
EXLTYPE2
 62
     6
100
AcDbLine
 10
2183.250000000011
 20
1435.274886499962
 30
0.0
 11
2183.999999999999
 21
1434.524886499973
 31
0.0
  0
LINE
  5
323
330
1F
100
AcDbEntity
  8
化粧台
  6
EXLTYPE2
 62
     6
100
AcDbLine
 10
2216.750000000029
 20
1435.27488649992
 30
0.0
 11
2215.999999999999
 21
1434.524886499889
 31
0.0
  0
LINE
  5
324
330
1F
100
AcDbEntity
  8
化粧台
  6
EXLTYPE2
 62
     6
100
AcDbLine
 10
2216.749999999997
 20
1484.49999999995
 30
0.0
 11
2216.749999999997
 21
1435.274886499951
 31
0.0
  0
LINE
  5
325
330
1F
100
AcDbEntity
  8
化粧台
  6
EXLTYPE2
 62
     6
100
AcDbLine
 10
2183.25
 20
1484.49999999995
 30
0.0
 11
2183.25
 21
1435.274886499951
 31
0.0
  0
ELLIPSE
  5
326
330
1F
100
AcDbEntity
  8
化粧台
  6
EXLTYPE2
 62
     6
100
AcDbEllipse
 10
2181.356568035279
 20
1490.49999999995
 30
0.0
 11
3.673969509765480E-16
 21
6.00004754403219
 31
0.0
210
0.0
220
0.0
230
1.0
 40
0.8927542650237517
 41
0.0
 42
6.283185307179586
  0
ELLIPSE
  5
327
330
1F
100
AcDbEntity
  8
化粧台
  6
EXLTYPE2
 62
     6
100
AcDbEllipse
 10
2199.999999999999
 20
1490.49999999995
 30
0.0
 11
10.66536450385001
 21
0.0
 31
0.0
210
0.0
220
0.0
230
1.0
 40
0.5625686771262349
 41
0.0
 42
6.283185307179586
  0
ELLIPSE
  5
328
330
1F
100
AcDbEntity
  8
化粧台
  6
EXLTYPE2
 62
     6
100
AcDbEllipse
 10
2218.643431964719
 20
1490.49999999995
 30
0.0
 11
3.673969509765456E-16
 21
6.000047544032152
 31
0.0
210
0.0
220
0.0
230
1.0
 40
0.8927542650237573
 41
0.0
 42
6.283185307179586
  0
LINE
  5
329
330
1F
100
AcDbEntity
  8
化粧台
  6
EXLTYPE2
 62
     6
100
AcDbLine
 10
2177.999999999999
 20
1484.49999999995
 30
0.0
 11
2221.999999999999
 21
1484.49999999995
 31
0.0
  0
ARC
  5
32A
330
1F
100
AcDbEntity
  8
化粧台
  6
EXLTYPE2
 62
     6
100
AcDbCircle
 10
2213.999999999999
 20
1490.49999999995
 30
0.0
 40
10.0
100
AcDbArc
 50
323.1301023541562
 51
36.869897645844
  0
ARC
  5
32B
330
1F
100
AcDbEntity
  8
化粧台
  6
EXLTYPE2
 62
     6
100
AcDbCircle
 10
2185.999999999999
 20
1490.49999999995
 30
0.0
 40
10.0
100
AcDbArc
 50
143.1301023541561
 51
216.8698976458443
  0
ARC
  5
32C
330
1F
100
AcDbEntity
  8
化粧台
  6
EXLTYPE2
 62
     6
100
AcDbCircle
 10
2314.0
 20
1414.499999999948
 30
0.0
 40
54.00000000000068
100
AcDbArc
 50
90.00000000000004
 51
181.0610936076217
  0
ARC
  5
32D
330
1F
100
AcDbEntity
  8
化粧台
  6
EXLTYPE2
 62
     6
100
AcDbCircle
 10
2314.000000000002
 20
1414.499999999949
 30
0.0
 40
22.00000000000069
100
AcDbArc
 50
90.00000000000004
 51
182.6052512650556
  0
LINE
  5
32E
330
1F
100
AcDbEntity
  8
化粧台
  6
EXLTYPE2
 62
     6
100
AcDbLine
 10
2376.400000000002
 20
1474.497008
 30
0.0
 11
2376.400000000002
 21
1430.502992000001
 31
0.0
  0
ARC
  5
32F
330
1F
100
AcDbEntity
  8
化粧台
  6
EXLTYPE2
 62
     6
100
AcDbCircle
 10
2387.402990000001
 20
1474.497008
 30
0.0
 40
11.002992
100
AcDbArc
 50
90.00000000000009
 51
180.0000000000002
  0
ARC
  5
330
330
1F
100
AcDbEntity
  8
化粧台
  6
EXLTYPE2
 62
     6
100
AcDbCircle
 10
2387.402990000001
 20
1430.502992000001
 30
0.0
 40
11.002992
100
AcDbArc
 50
180.0000000000002
 51
270.0000000000002
  0
LINE
  5
331
330
1F
100
AcDbEntity
  8
化粧台
  6
EXLTYPE2
 62
     6
100
AcDbLine
 10
2416.400000000002
 20
1485.500000000001
 30
0.0
 11
2416.400000000002
 21
1419.500000000001
 31
0.0
  0
LINE
  5
332
330
1F
100
AcDbEntity
  8
化粧台
  6
EXLTYPE2
 62
     6
100
AcDbLine
 10
2387.402990000001
 20
1485.500000000001
 30
0.0
 11
2416.400000000002
 21
1485.500000000001
 31
0.0
  0
LINE
  5
333
330
1F
100
AcDbEntity
  8
化粧台
  6
EXLTYPE2
 62
     6
100
AcDbLine
 10
2387.402990000001
 20
1419.500000000001
 30
0.0
 11
2416.400000000002
 21
1419.500000000001
 31
0.0
  0
ARC
  5
334
330
1F
100
AcDbEntity
  8
化粧台
  6
EXLTYPE2
 62
     6
100
AcDbCircle
 10
2424.000000000001
 20
1438.5
 30
0.0
 40
10.0
100
AcDbArc
 50
233.1301023541561
 51
306.8698976458444
  0
ARC
  5
335
330
1F
100
AcDbEntity
  8
化粧台
  6
EXLTYPE2
 62
     6
100
AcDbCircle
 10
2424.000000000001
 20
1466.5
 30
0.0
 40
10.0
100
AcDbArc
 50
53.13010235415626
 51
126.869897645844
  0
ELLIPSE
  5
336
330
1F
100
AcDbEntity
  8
化粧台
  6
EXLTYPE2
 62
     6
100
AcDbEllipse
 10
2424.000000000001
 20
1471.14343196472
 30
0.0
 11
-6.000047544032152
 21
-4.594318843831003E-15
 31
0.0
210
0.0
220
0.0
230
1.0
 40
0.8927542650237573
 41
0.0
 42
6.283185307179586
  0
ELLIPSE
  5
337
330
1F
100
AcDbEntity
  8
化粧台
  6
EXLTYPE2
 62
     6
100
AcDbEllipse
 10
2424.000000000001
 20
1452.5
 30
0.0
 11
-6.451494717847500E-15
 21
10.66536450385001
 31
0.0
210
0.0
220
0.0
230
1.0
 40
0.5625686771262349
 41
0.0
 42
6.283185307179586
  0
ELLIPSE
  5
338
330
1F
100
AcDbEntity
  8
化粧台
  6
EXLTYPE2
 62
     6
100
AcDbEllipse
 10
2424.000000000001
 20
1433.85656803528
 30
0.0
 11
-6.00004754403219
 21
-4.594318843831032E-15
 31
0.0
210
0.0
220
0.0
230
1.0
 40
0.8927542650237517
 41
0.0
 42
6.283185307179586
  0
LINE
  5
339
330
1F
100
AcDbEntity
  8
化粧台
  6
EXLTYPE2
 62
     6
100
AcDbLine
 10
2418.000000000001
 20
1430.5
 30
0.0
 11
2418.000000000001
 21
1474.5
 31
0.0
  0
LINE
  5
33A
330
1F
100
AcDbEntity
  8
化粧台
  6
EXLTYPE2
 62
     6
100
AcDbLine
 10
2430.000000000001
 20
1430.5
 30
0.0
 11
2430.000000000001
 21
1474.5
 31
0.0
  0
LINE
  5
33B
330
1F
100
AcDbEntity
  8
化粧台
  6
EXLTYPE2
 62
     6
100
AcDbLine
 10
2435.000000000005
 20
1422.5
 30
0.0
 11
2435.000000000005
 21
1482.5
 31
0.0
  0
LINE
  5
33C
330
1F
100
AcDbEntity
  8
化粧台
  6
EXLTYPE2
 62
     6
100
AcDbLine
 10
2433.000000000005
 20
1422.5
 30
0.0
 11
2433.000000000005
 21
1482.5
 31
0.0
  0
LINE
  5
33D
330
1F
100
AcDbEntity
  8
化粧台
  6
EXLTYPE2
 62
     6
100
AcDbLine
 10
2433.000000000005
 20
1422.5
 30
0.0
 11
2435.000000000001
 21
1422.5
 31
0.0
  0
LINE
  5
33E
330
1F
100
AcDbEntity
  8
化粧台
  6
EXLTYPE2
 62
     6
100
AcDbLine
 10
2433.000000000005
 20
1482.5
 30
0.0
 11
2435.000000000001
 21
1482.5
 31
0.0
  0
LINE
  5
33F
330
1F
100
AcDbEntity
  8
化粧台
  6
EXLTYPE2
 62
     6
100
AcDbLine
 10
2430.000000000001
 20
1472.500000000002
 30
0.0
 11
2433.000000000005
 21
1472.500000000002
 31
0.0
  0
LINE
  5
340
330
1F
100
AcDbEntity
  8
化粧台
  6
EXLTYPE2
 62
     6
100
AcDbLine
 10
2430.000000000001
 20
1432.500000000002
 30
0.0
 11
2433.000000000005
 21
1432.500000000002
 31
0.0
  0
LINE
  5
341
330
1F
100
AcDbEntity
  8
化粧台
  6
EXLTYPE2
 62
     6
100
AcDbLine
 10
2470.0
 20
1452.5
 30
0.0
 11
2314.000000000001
 21
1452.5
 31
0.0
  0
LINE
  5
342
330
1F
100
AcDbEntity
  8
化粧台
  6
EXLTYPE2
 62
     6
100
AcDbLine
 10
2314.0
 20
1468.500000000002
 30
0.0
 11
2376.400000000002
 21
1468.500000000002
 31
0.0
  0
LINE
  5
343
330
1F
100
AcDbEntity
  8
化粧台
  6
EXLTYPE2
 62
     6
100
AcDbLine
 10
2314.000000000002
 20
1436.500000000002
 30
0.0
 11
2376.400000000002
 21
1436.500000000002
 31
0.0
  0
ARC
  5
344
330
1F
100
AcDbEntity
  8
化粧台
  6
EXLTYPE2
 62
     6
100
AcDbCircle
 10
2366.105879972377
 20
1431.5
 30
0.0
 40
6.500000000000004
100
AcDbArc
 50
270.0000000000002
 51
318.8458299263331
  0
ARC
  5
345
330
1F
100
AcDbEntity
  8
化粧台
  6
EXLTYPE2
 62
     6
100
AcDbCircle
 10
2366.105879972377
 20
1393.5
 30
0.0
 40
6.500000000000004
100
AcDbArc
 50
41.1541700736668
 51
90.00000000000004
  0
LINE
  5
346
330
1F
100
AcDbEntity
  8
化粧台
  6
EXLTYPE2
 62
     6
100
AcDbLine
 10
2378.0
 20
1424.749999999999
 30
0.0
 11
2376.57254079757
 21
1427.222431864339
 31
0.0
  0
LINE
  5
347
330
1F
100
AcDbEntity
  8
化粧台
  6
EXLTYPE2
 62
     6
100
AcDbLine
 10
2378.0
 20
1400.25
 30
0.0
 11
2376.57254079757
 21
1397.77756813566
 31
0.0
  0
LINE
  5
348
330
1F
100
AcDbEntity
  8
化粧台
  6
EXLTYPE2
 62
     6
100
AcDbLine
 10
2378.0
 20
1424.75
 30
0.0
 11
2378.0
 21
1400.25
 31
0.0
  0
LINE
  5
349
330
1F
100
AcDbEntity
  8
化粧台
  6
EXLTYPE2
 62
     6
100
AcDbLine
 10
2376.572540797571
 20
1427.222431864339
 30
0.0
 11
2371.0
 21
1427.222431864339
 31
0.0
  0
LINE
  5
34A
330
1F
100
AcDbEntity
  8
化粧台
  6
EXLTYPE2
 62
     6
100
AcDbLine
 10
2376.572540797571
 20
1397.77756813566
 30
0.0
 11
2371.0
 21
1397.77756813566
 31
0.0
  0
ARC
  5
34B
330
1F
100
AcDbEntity
  8
化粧台
  6
EXLTYPE2
 62
     6
100
AcDbCircle
 10
2336.000000000001
 20
1428.5
 30
0.0
 40
3.500000000000002
100
AcDbArc
 50
270.0000000000002
 51
0.0
  0
ARC
  5
34C
330
1F
100
AcDbEntity
  8
化粧台
  6
EXLTYPE2
 62
     6
100
AcDbCircle
 10
2364.000000000001
 20
1428.5
 30
0.0
 40
3.500000000000002
100
AcDbArc
 50
180.0
 51
270.0000000000002
  0
LINE
  5
34D
330
1F
100
AcDbEntity
  8
化粧台
  6
EXLTYPE2
 62
     6
100
AcDbLine
 10
2364.000000000001
 20
1425.0
 30
0.0
 11
2366.105879972377
 21
1425.0
 31
0.0
  0
LINE
  5
34E
330
1F
100
AcDbEntity
  8
化粧台
  6
EXLTYPE2
 62
     6
100
AcDbLine
 10
2322.6
 20
1407.199999999999
 30
0.0
 11
2322.6
 21
1417.799999999999
 31
0.0
  0
LINE
  5
34F
330
1F
100
AcDbEntity
  8
化粧台
  6
EXLTYPE2
 62
     6
100
AcDbLine
 10
2335.500000000001
 20
1399.75
 30
0.0
 11
2335.500000000001
 21
1425.25
 31
0.0
  0
ARC
  5
350
330
1F
100
AcDbEntity
  8
化粧台
  6
EXLTYPE2
 62
     6
100
AcDbCircle
 10
2331.725082782361
 20
1403.75
 30
0.0
 40
5.5
100
AcDbArc
 50
217.1876259392006
 51
313.3417582272002
  0
LINE
  5
351
330
1F
100
AcDbEntity
  8
化粧台
  6
EXLTYPE2
 62
     6
100
AcDbLine
 10
2322.6
 20
1407.199999999999
 30
0.0
 11
2327.34345017772
 21
1400.425651083609
 31
0.0
  0
ARC
  5
352
330
1F
100
AcDbEntity
  8
化粧台
  6
EXLTYPE2
 62
     6
100
AcDbCircle
 10
2331.725082782361
 20
1421.25
 30
0.0
 40
5.5
100
AcDbArc
 50
46.65824177279989
 51
142.8123740608007
  0
LINE
  5
353
330
1F
100
AcDbEntity
  8
化粧台
  6
EXLTYPE2
 62
     6
100
AcDbLine
 10
2322.6
 20
1417.799999999999
 30
0.0
 11
2327.34345017772
 21
1424.57434891639
 31
0.0
  0
LINE
  5
354
330
1F
100
AcDbEntity
  8
化粧台
  6
EXLTYPE2
 62
     6
100
AcDbLine
 10
2327.34345017772
 20
1400.425651083609
 30
0.0
 11
2327.34345017772
 21
1424.574348916489
 31
0.0
  0
ELLIPSE
  5
355
330
1F
100
AcDbEntity
  8
化粧台
  6
EXLTYPE2
 62
     6
100
AcDbEllipse
 10
2331.725082782361
 20
1401.20491206664
 30
0.0
 11
-3.49106001094
 21
-2.673152616792092E-15
 31
0.0
210
0.0
220
0.0
230
1.0
 40
0.8464225929603442
 41
0.0
 42
6.283185307179586
  0
ELLIPSE
  5
356
330
1F
100
AcDbEntity
  8
化粧台
  6
EXLTYPE2
 62
     6
100
AcDbEllipse
 10
2331.725082782361
 20
1412.5
 30
0.0
 11
-3.530391779415926E-15
 21
5.83630876496
 31
0.0
210
0.0
220
0.0
230
1.0
 40
0.5981623234020119
 41
0.0
 42
6.283185307179586
  0
ELLIPSE
  5
357
330
1F
100
AcDbEntity
  8
化粧台
  6
EXLTYPE2
 62
     6
100
AcDbEllipse
 10
2331.725082782361
 20
1423.795087933359
 30
0.0
 11
-3.49106001094
 21
-2.673152616792092E-15
 31
0.0
210
0.0
220
0.0
230
1.0
 40
0.8464225929603442
 41
0.0
 42
6.283185307179586
  0
LINE
  5
358
330
1F
100
AcDbEntity
  8
化粧台
  6
EXLTYPE2
 62
     6
100
AcDbLine
 10
2335.500000000001
 20
1425.0
 30
0.0
 11
2336.000000000001
 21
1425.0
 31
0.0
  0
LINE
  5
359
330
1F
100
AcDbEntity
  8
化粧台
  6
EXLTYPE2
 62
     6
100
AcDbLine
 10
2335.500000000001
 20
1400.0
 30
0.0
 11
2366.105879972381
 21
1400.0
 31
0.0
  0
ARC
  5
35A
330
1F
100
AcDbEntity
  8
化粧台
  6
EXLTYPE2
 62
     6
100
AcDbCircle
 10
2371.60996418852
 20
1423.541823898255
 30
0.0
 40
3.730808399165569
100
AcDbArc
 50
149.9277603900981
 51
260.590250305647
  0
ARC
  5
35B
330
1F
100
AcDbEntity
  8
化粧台
  6
EXLTYPE2
 62
     6
100
AcDbCircle
 10
2378.160901979814
 20
1412.5
 30
0.0
 40
10.26966490030429
100
AcDbArc
 50
134.209728477994
 51
225.790271522007
  0
ARC
  5
35C
330
1F
100
AcDbEntity
  8
化粧台
  6
EXLTYPE2
 62
     6
100
AcDbCircle
 10
2371.609964188521
 20
1401.458176101744
 30
0.0
 40
3.730808399165755
100
AcDbArc
 50
99.40974969436748
 51
210.0722396099043
  0
LINE
  5
35D
330
1F
100
AcDbEntity
  8
化粧台
  6
EXLTYPE2
 62
     6
100
AcDbLine
 10
2376.572540797571
 20
1405.138784067829
 30
0.0
 11
2371.0
 21
1405.138784067829
 31
0.0
  0
ARC
  5
35E
330
1F
100
AcDbEntity
  8
化粧台
  6
EXLTYPE2
 62
     6
100
AcDbCircle
 10
2353.350108933171
 20
1412.5
 30
0.0
 40
24.36121593222906
100
AcDbArc
 50
342.4120462260467
 51
17.58795377395367
  0
LINE
  5
35F
330
1F
100
AcDbEntity
  8
化粧台
  6
EXLTYPE2
 62
     6
100
AcDbLine
 10
2376.572540797571
 20
1419.861215932169
 30
0.0
 11
2371.0
 21
1419.861215932169
 31
0.0
  0
LINE
  5
360
330
1F
100
AcDbEntity
  8
化粧台
  6
EXLTYPE2
 62
     6
100
AcDbLine
 10
2339.500000000001
 20
1428.5
 30
0.0
 11
2339.500000000001
 21
1435.199999999999
 31
0.0
  0
LINE
  5
361
330
1F
100
AcDbEntity
  8
化粧台
  6
EXLTYPE2
 62
     6
100
AcDbLine
 10
2360.500000000001
 20
1428.5
 30
0.0
 11
2360.500000000001
 21
1435.199999999999
 31
0.0
  0
LINE
  5
362
330
1F
100
AcDbEntity
  8
化粧台
  6
EXLTYPE2
 62
     6
100
AcDbLine
 10
2317.000000000001
 20
1417.25
 30
0.0
 11
2322.6
 21
1417.25
 31
0.0
  0
LINE
  5
363
330
1F
100
AcDbEntity
  8
化粧台
  6
EXLTYPE2
 62
     6
100
AcDbLine
 10
2317.000000000001
 20
1407.75
 30
0.0
 11
2322.6
 21
1407.75
 31
0.0
  0
LINE
  5
364
330
1F
100
AcDbEntity
  8
化粧台
  6
EXLTYPE2
 62
     6
100
AcDbLine
 10
2317.000000000001
 20
1417.25
 30
0.0
 11
2317.000000000001
 21
1407.75
 31
0.0
  0
ARC
  5
365
330
1F
100
AcDbEntity
  8
化粧台
  6
EXLTYPE2
 62
     6
100
AcDbCircle
 10
2371.233492688989
 20
1423.541823898255
 30
0.0
 40
6.484775223996668
100
AcDbArc
 50
325.4185791236709
 51
25.41857912362466
  0
ARC
  5
366
330
1F
100
AcDbEntity
  8
化粧台
  6
EXLTYPE2
 62
     6
100
AcDbCircle
 10
2371.233492688986
 20
1401.458176101744
 30
0.0
 40
6.48477522399863
100
AcDbArc
 50
334.5814208763676
 51
34.58142087631842
  0
LINE
  5
367
330
1F
100
AcDbEntity
  8
化粧台
  6
EXLTYPE2
 62
     6
100
AcDbLine
 10
2416.400000000001
 20
1385.0
 30
0.0
 11
2416.400000000001
 21
1440.0
 31
0.0
  0
ARC
  5
368
330
1F
100
AcDbEntity
  8
化粧台
  6
EXLTYPE2
 62
     6
100
AcDbCircle
 10
2425.672907943694
 20
1422.079477010213
 30
0.0
 40
25.3
100
AcDbArc
 50
156.4191633962913
 51
177.3482222838639
  0
ARC
  5
369
330
1F
100
AcDbEntity
  8
化粧台
  6
EXLTYPE2
 62
     6
100
AcDbCircle
 10
2414.400000000001
 20
1427.0
 30
0.0
 40
13.00000000000001
100
AcDbArc
 50
90.00000000000004
 51
156.4191633962913
  0
LINE
  5
36A
330
1F
100
AcDbEntity
  8
化粧台
  6
EXLTYPE2
 62
     6
100
AcDbLine
 10
2414.400000000001
 20
1440.0
 30
0.0
 11
2416.400000000001
 21
1440.0
 31
0.0
  0
ARC
  5
36B
330
1F
100
AcDbEntity
  8
化粧台
  6
EXLTYPE2
 62
     6
100
AcDbCircle
 10
2425.672907943694
 20
1402.920522989787
 30
0.0
 40
25.3
100
AcDbArc
 50
182.6517777161361
 51
203.5808366037087
  0
ARC
  5
36C
330
1F
100
AcDbEntity
  8
化粧台
  6
EXLTYPE2
 62
     6
100
AcDbCircle
 10
2414.400000000001
 20
1398.0
 30
0.0
 40
13.00000000000001
100
AcDbArc
 50
203.5808366037087
 51
270.0000000000002
  0
LINE
  5
36D
330
1F
100
AcDbEntity
  8
化粧台
  6
EXLTYPE2
 62
     6
100
AcDbLine
 10
2414.400000000001
 20
1385.0
 30
0.0
 11
2416.400000000001
 21
1385.0
 31
0.0
  0
LINE
  5
36E
330
1F
100
AcDbEntity
  8
化粧台
  6
EXLTYPE2
 62
     6
100
AcDbLine
 10
2400.400000000001
 20
1401.75
 30
0.0
 11
2400.400000000001
 21
1423.25
 31
0.0
  0
LINE
  5
36F
330
1F
100
AcDbEntity
  8
化粧台
  6
EXLTYPE2
 62
     6
100
AcDbLine
 10
2416.400000000001
 20
1423.0
 30
0.0
 11
2443.0
 21
1423.0
 31
0.0
  0
LINE
  5
370
330
1F
100
AcDbEntity
  8
化粧台
  6
EXLTYPE2
 62
     6
100
AcDbLine
 10
2378.000000000001
 20
1423.0
 30
0.0
 11
2400.400000000001
 21
1423.0
 31
0.0
  0
LINE
  5
371
330
1F
100
AcDbEntity
  8
化粧台
  6
EXLTYPE2
 62
     6
100
AcDbLine
 10
2378.000000000001
 20
1402.0
 30
0.0
 11
2400.400000000001
 21
1402.0
 31
0.0
  0
LINE
  5
372
330
1F
100
AcDbEntity
  8
化粧台
  6
EXLTYPE2
 62
     6
100
AcDbLine
 10
2307.000000000001
 20
1412.5
 30
0.0
 11
2453.0
 21
1412.5
 31
0.0
  0
LINE
  5
373
330
1F
100
AcDbEntity
  8
化粧台
  6
EXLTYPE2
 62
     6
100
AcDbLine
 10
2350.000000000001
 20
1442.5
 30
0.0
 11
2350.000000000001
 21
1382.5
 31
0.0
  0
LINE
  5
374
330
1F
100
AcDbEntity
  8
化粧台
  6
EXLTYPE2
 62
     6
100
AcDbLine
 10
2416.400000000001
 20
1402.0
 30
0.0
 11
2443.0
 21
1402.0
 31
0.0
  0
LINE
  5
375
330
1F
100
AcDbEntity
  8
化粧台
  6
EXLTYPE2
 62
     6
100
AcDbLine
 10
2292.0
 20
1401.499999999949
 30
0.0
 11
2292.0
 21
1398.49999999995
 31
0.0
  0
LINE
  5
376
330
1F
100
AcDbEntity
  8
化粧台
  6
EXLTYPE2
 62
     6
100
AcDbLine
 10
2259.999999999999
 20
1401.499999999949
 30
0.0
 11
2259.999999999999
 21
1398.499999999949
 31
0.0
  0
ELLIPSE
  5
377
330
1F
100
AcDbEntity
  8
化粧台
  6
EXLTYPE2
 62
     6
100
AcDbEllipse
 10
2257.356568035279
 20
1407.49999999995
 30
0.0
 11
3.673969509765480E-16
 21
6.00004754403219
 31
0.0
210
0.0
220
0.0
230
1.0
 40
0.8927542650237517
 41
0.0
 42
6.283185307179586
  0
ELLIPSE
  5
378
330
1F
100
AcDbEntity
  8
化粧台
  6
EXLTYPE2
 62
     6
100
AcDbEllipse
 10
2275.999999999999
 20
1407.49999999995
 30
0.0
 11
10.66536450385001
 21
0.0
 31
0.0
210
0.0
220
0.0
230
1.0
 40
0.5625686771262349
 41
0.0
 42
6.283185307179586
  0
ELLIPSE
  5
379
330
1F
100
AcDbEntity
  8
化粧台
  6
EXLTYPE2
 62
     6
100
AcDbEllipse
 10
2294.643431964719
 20
1407.49999999995
 30
0.0
 11
3.673969509765456E-16
 21
6.000047544032152
 31
0.0
210
0.0
220
0.0
230
1.0
 40
0.8927542650237573
 41
0.0
 42
6.283185307179586
  0
LINE
  5
37A
330
1F
100
AcDbEntity
  8
化粧台
  6
EXLTYPE2
 62
     6
100
AcDbLine
 10
2253.999999999999
 20
1413.49999999995
 30
0.0
 11
2298.0
 21
1413.49999999995
 31
0.0
  0
LINE
  5
37B
330
1F
100
AcDbEntity
  8
化粧台
  6
EXLTYPE2
 62
     6
100
AcDbLine
 10
2253.999999999999
 20
1401.499999999949
 30
0.0
 11
2298.0
 21
1401.499999999949
 31
0.0
  0
ARC
  5
37C
330
1F
100
AcDbEntity
  8
化粧台
  6
EXLTYPE2
 62
     6
100
AcDbCircle
 10
2289.999999999999
 20
1407.49999999995
 30
0.0
 40
10.0
100
AcDbArc
 50
323.1301023541562
 51
36.869897645844
  0
ARC
  5
37D
330
1F
100
AcDbEntity
  8
化粧台
  6
EXLTYPE2
 62
     6
100
AcDbCircle
 10
2261.999999999999
 20
1407.49999999995
 30
0.0
 40
10.0
100
AcDbArc
 50
143.1301023541561
 51
216.8698976458443
  0
LINE
  5
37E
330
1F
100
AcDbEntity
  8
化粧台
  6
CONTINUOUS
 62
     6
100
AcDbLine
 10
2435.000000000005
 20
1427.0
 30
0.0
 11
2460.000000000001
 21
1427.0
 31
0.0
  0
LINE
  5
37F
330
1F
100
AcDbEntity
  8
化粧台
  6
CONTINUOUS
 62
     6
100
AcDbLine
 10
2460.000000000001
 20
1427.0
 30
0.0
 11
2460.000000000001
 21
1478.0
 31
0.0
  0
LINE
  5
380
330
1F
100
AcDbEntity
  8
化粧台
  6
CONTINUOUS
 62
     6
100
AcDbLine
 10
2435.000000000005
 20
1478.0
 30
0.0
 11
2460.000000000001
 21
1478.0
 31
0.0
  0
LINE
  5
381
330
1F
100
AcDbEntity
  8
化粧台
  6
CONTINUOUS
 62
     6
100
AcDbLine
 10
2443.0
 20
1423.0
 30
0.0
 11
2443.0
 21
1402.0
 31
0.0
  0
LINE
  5
382
330
1F
100
AcDbEntity
  8
化粧台
  6
EXLTYPE4
 62
     6
100
AcDbLine
 10
2435.0
 20
1017.5
 30
0.0
 11
2435.0
 21
3056.5
 31
0.0
  0
LINE
  5
383
330
1F
100
AcDbEntity
  8
化粧台
  6
EXLTYPE3
 62
     6
100
AcDbLine
 10
2200.000000000001
 20
1727.5
 30
0.0
 11
2200.000000000001
 21
1434.500000000001
 31
0.0
  0
LINE
  5
384
330
1F
100
AcDbEntity
  8
化粧台
  6
EXLTYPE2
 62
     1
100
AcDbLine
 10
255.0
 20
2250.0
 30
0.0
 11
0.0
 21
2250.0
 31
0.0
  0
LINE
  5
385
330
1F
100
AcDbEntity
  8
化粧台
  6
CONTINUOUS
 62
     2
100
AcDbLine
 10
830.0000000000018
 20
3740.5
 30
0.0
 11
890.0000000000007
 21
3740.5
 31
0.0
  0
LINE
  5
386
330
1F
100
AcDbEntity
  8
化粧台
  6
CONTINUOUS
 62
     2
100
AcDbLine
 10
661.5000000000009
 20
3779.5
 30
0.0
 11
890.0000000000007
 21
3779.5
 31
0.0
  0
LINE
  5
387
330
1F
100
AcDbEntity
  8
化粧台
  6
CONTINUOUS
 62
     2
100
AcDbLine
 10
920.0000000000007
 20
3740.5
 30
0.0
 11
980.0000000000018
 21
3740.5
 31
0.0
  0
LINE
  5
388
330
1F
100
AcDbEntity
  8
化粧台
  6
CONTINUOUS
 62
     2
100
AcDbLine
 10
920.0000000000007
 20
3779.5
 30
0.0
 11
1148.5
 21
3779.5
 31
0.0
  0
ARC
  5
389
330
1F
100
AcDbEntity
  8
化粧台
  6
CONTINUOUS
 62
     2
100
AcDbCircle
 10
905.0000000000018
 20
3694.5
 30
0.0
 40
27.00000000000002
100
AcDbArc
 50
103.3902651493732
 51
76.60973485063151
  0
LINE
  5
38A
330
1F
100
AcDbEntity
  8
化粧台
  6
EXLTYPE3
 62
     6
100
AcDbLine
 10
905.0000000000009
 20
2794.5
 30
0.0
 11
905.0000000000009
 21
977.5000000000009
 31
0.0
  0
POLYLINE
  5
38B
330
1F
100
AcDbEntity
  8
化粧台
  6
CONTINUOUS
 62
     3
100
AcDb2dPolyline
 66
     1
 10
0.0
 20
0.0
 30
0.0
 70
   128
  0
VERTEX
  5
38C
330
38B
100
AcDbEntity
  8
化粧台
  6
CONTINUOUS
 62
     3
100
AcDbVertex
100
AcDb2dVertex
 10
2435.0
 20
2921.5
 30
0.0
  0
VERTEX
  5
38D
330
38B
100
AcDbEntity
  8
化粧台
  6
CONTINUOUS
 62
     3
100
AcDbVertex
100
AcDb2dVertex
 10
2389.0
 20
2941.5
 30
0.0
  0
SEQEND
  5
38E
330
38B
100
AcDbEntity
  8
化粧台
  6
CONTINUOUS
 62
     3
  0
LINE
  5
38F
330
1F
100
AcDbEntity
  8
化粧台
  6
CONTINUOUS
 62
     3
100
AcDbLine
 10
2390.741401632996
 20
2932.564649591751
 30
0.0
 11
2435.0
 21
2921.5
 31
0.0
  0
LINE
  5
390
330
1F
100
AcDbEntity
  8
化粧台
  6
CONTINUOUS
 62
     3
100
AcDbLine
 10
2435.0
 20
2921.5
 30
0.0
 11
2396.722293304213
 21
2946.320700435549
 31
0.0
  0
TEXT
  5
391
330
1F
100
AcDbEntity
  8
化粧台
  6
CONTINUOUS
 62
     2
100
AcDbText
 10
2435.0
 20
2957.500000536442
 30
0.0
 40
59.99999618530273
  1
W.L.
 50
90.0
 41
0.5571963512150626
  7
EXCADSTD
 72
     5
 11
2435.0
 21
3048.243400536442
 31
0.0
100
AcDbText
  0
DIMENSION
  5
393
330
1F
100
AcDbEntity
  8
化粧台
  6
CONTINUOUS
 62
     3
100
AcDbDimension
  2
*D15
 10
2953.5
 20
2331.3
 30
0.0
 11
2916.0
 21
1674.4
 31
0.0
 70
   160
  1
（1315）
  3
ISO-25
100
AcDbAlignedDimension
 13
2435.0
 23
1017.5
 33
0.0
 14
2475.7999999998
 24
2331.3
 34
0.0
 50
90.0
100
AcDbRotatedDimension
1001
ACAD
1000
DSTYLE
1002
{
1070
   270
1070
     2
1070
     6
1000
EX_NORM
1070
     7
1000
EX_NORM
1070
    41
1040
44.99999618530273
1070
    42
1040
10.49999982118607
1070
    44
1040
15.0
1070
    73
1070
     0
1070
    74
1070
     0
1070
    75
1070
     0
1070
    76
1070
     0
1070
    77
1070
     1
1070
    78
1070
     8
1070
   140
1040
59.99999618530273
1070
   147
1040
0.0
1070
   173
1070
     1
1070
   176
1070
     3
1070
   177
1070
     3
1070
   178
1070
     2
1070
   271
1070
     1
1070
   277
1070
     2
1070
   279
1070
     2
1070
   280
1070
     0
1070
   287
1070
     5
1070
   340
1005
392
1002
}
  0
ELLIPSE
  5
3A1
330
1F
100
AcDbEntity
  8
化粧台
  6
CONTINUOUS
 62
     2
100
AcDbEllipse
 10
904.9999999999998
 20
3723.99844365072
 30
0.0
 11
15.0
 21
0.0
 31
0.0
210
0.0
220
0.0
230
1.0
 40
0.2032242918773344
 41
5.931468484580523
 42
9.776494783368435
  0
ELLIPSE
  5
3A2
330
1F
100
AcDbEntity
  8
化粧台
  6
CONTINUOUS
 62
     2
100
AcDbEllipse
 10
904.9999999999998
 20
3758.19387624485
 30
0.0
 11
6.003838769576682
 21
-1.470516386351773E-15
 31
0.0
210
0.0
220
0.0
230
1.0
 40
0.1744228793978485
 41
0.0
 42
6.283185307179586
  0
LINE
  5
3A3
330
1F
100
AcDbEntity
  8
化粧台
  6
CONTINUOUS
 62
     2
100
AcDbLine
 10
910.9999999999952
 20
3758.156434200723
 30
0.0
 11
910.9999999999952
 21
3817.859156576973
 31
0.0
  0
LINE
  5
3A4
330
1F
100
AcDbEntity
  8
化粧台
  6
CONTINUOUS
 62
     2
100
AcDbLine
 10
898.9999999999952
 20
3758.156434200771
 30
0.0
 11
898.9999999999952
 21
3818.19853870331
 31
0.0
  0
ELLIPSE
  5
3A5
330
1F
100
AcDbEntity
  8
化粧台
  6
CONTINUOUS
 62
     2
100
AcDbEllipse
 10
904.9999999999998
 20
3817.8965986211
 30
0.0
 11
6.003838769576682
 21
-1.470516386351773E-15
 31
0.0
210
0.0
220
0.0
230
1.0
 40
0.1744228793978485
 41
-0.0357618232697662
 42
3.177354476812678
  0
LINE
  5
3A6
330
1F
100
AcDbEntity
  8
化粧台
  6
CONTINUOUS
 62
     2
100
AcDbLine
 10
901.9999999999816
 20
3879.278606630094
 30
0.0
 11
901.9999999999816
 21
3866.799103120975
 31
0.0
  0
LINE
  5
3A7
330
1F
100
AcDbEntity
  8
化粧台
  6
CONTINUOUS
 62
     2
100
AcDbLine
 10
907.9999999999998
 20
3879.278606630094
 30
0.0
 11
907.9999999999998
 21
3866.799103120978
 31
0.0
  0
CIRCLE
  5
3A8
330
1F
100
AcDbEntity
  8
化粧台
  6
CONTINUOUS
 62
     2
100
AcDbCircle
 10
904.9999999999998
 20
3844.5
 30
0.0
 40
22.5
  0
LINE
  5
3A9
330
1F
100
AcDbEntity
  8
化粧台
  6
CONTINUOUS
 62
     2
100
AcDbLine
 10
910.8410844325679
 20
3894.339569595011
 30
0.0
 11
899.158915567423
 21
3894.339569595011
 31
0.0
  0
ARC
  5
3AA
330
1F
100
AcDbEntity
  8
化粧台
  6
CONTINUOUS
 62
     2
100
AcDbCircle
 10
904.9999999999961
 20
3876.7884851056
 30
0.0
 40
18.55108448941109
100
AcDbArc
 50
72.29820692448685
 51
107.7017930755131
  0
ARC
  5
3AB
330
1F
100
AcDbEntity
  8
化粧台
  6
CONTINUOUS
 62
     2
100
AcDbCircle
 10
900.2737755218748
 20
3879.839569595011
 30
0.0
 40
0.5
100
AcDbArc
 50
183.0852877108193
 51
270.0
  0
ARC
  5
3AC
330
1F
100
AcDbEntity
  8
化粧台
  6
CONTINUOUS
 62
     2
100
AcDbCircle
 10
899.5113353643599
 20
3893.984886233789
 30
0.0
 40
0.5
100
AcDbArc
 50
107.7017930755131
 51
183.0852877108193
  0
LINE
  5
3AD
330
1F
100
AcDbEntity
  8
化粧台
  6
CONTINUOUS
 62
     2
100
AcDbLine
 10
899.7745002600502
 20
3879.812658390477
 30
0.0
 11
899.0120601025353
 21
3893.957975029255
 31
0.0
  0
ARC
  5
3AE
330
1F
100
AcDbEntity
  8
化粧台
  6
CONTINUOUS
 62
     2
100
AcDbCircle
 10
909.7262244781148
 20
3879.839569595011
 30
0.0
 40
0.5
100
AcDbArc
 50
270.0
 51
356.9147122891808
  0
ARC
  5
3AF
330
1F
100
AcDbEntity
  8
化粧台
  6
CONTINUOUS
 62
     2
100
AcDbCircle
 10
910.4886646356324
 20
3893.984886233791
 30
0.0
 40
0.5
100
AcDbArc
 50
356.9147122891808
 51
72.29820692448685
  0
LINE
  5
3B0
330
1F
100
AcDbEntity
  8
化粧台
  6
CONTINUOUS
 62
     2
100
AcDbLine
 10
910.2254997399402
 20
3879.812658390477
 30
0.0
 11
910.987939897457
 21
3893.957975029255
 31
0.0
  0
LINE
  5
3B1
330
1F
100
AcDbEntity
  8
化粧台
  6
CONTINUOUS
 62
     2
100
AcDbLine
 10
909.7262244781161
 20
3879.33956959501
 30
0.0
 11
904.9999999999952
 21
3879.33956959501
 31
0.0
  0
LINE
  5
3B2
330
1F
100
AcDbEntity
  8
化粧台
  6
CONTINUOUS
 62
     2
100
AcDbLine
 10
904.9999999999952
 20
3879.33956959501
 30
0.0
 11
900.2737755218748
 21
3879.33956959501
 31
0.0
  0
LINE
  5
3B3
330
1F
100
AcDbEntity
  8
化粧台
  6
CONTINUOUS
 62
     2
100
AcDbLine
 10
908.999999999998
 20
3818.677539543204
 30
0.0
 11
908.999999999998
 21
3821.850496694188
 31
0.0
  0
LINE
  5
3B4
330
1F
100
AcDbEntity
  8
化粧台
  6
CONTINUOUS
 62
     2
100
AcDbLine
 10
900.999999999998
 20
3818.677539543203
 30
0.0
 11
900.999999999998
 21
3821.91853870331
 31
0.0
  0
LINE
  5
3B5
330
1F
100
AcDbEntity
  8
化粧台
  6
CONTINUOUS
 62
     2
100
AcDbLine
 10
920.000000000008
 20
3723.99844365072
 30
0.0
 11
920.0000000000075
 21
3827.729490168758
 31
0.0
  0
LINE
  5
3B6
330
1F
100
AcDbEntity
  8
化粧台
  6
CONTINUOUS
 62
     2
100
AcDbLine
 10
890.0000000000052
 20
3723.998443650721
 30
0.0
 11
890.0000000000075
 21
3827.729490168745
 31
0.0
  0
LINE
  5
3B7
330
1F
100
AcDbEntity
  8
化粧台
  6
CONTINUOUS
 62
     2
100
AcDbLine
 10
890.9182604893874
 20
3722.94825152411
 30
0.0
 11
919.0817395106126
 21
3722.94825152411
 31
0.0
  0
LINE
  5
3B8
330
1F
100
AcDbEntity
  8
化粧台
  6
CONTINUOUS
 62
     6
100
AcDbLine
 10
867.500000000002
 20
3844.5
 30
0.0
 11
942.500000000002
 21
3844.5
 31
0.0
  0
LINE
  5
3B9
330
1F
100
AcDbEntity
  8
化粧台
  6
CONTINUOUS
 62
     2
100
AcDbLine
 10
910.999999999996
 20
1971.184819960074
 30
0.0
 11
910.999999999996
 21
1982.117774682436
 31
0.0
  0
LINE
  5
3BA
330
1F
100
AcDbEntity
  8
化粧台
  6
CONTINUOUS
 62
     2
100
AcDbLine
 10
898.9999999999951
 20
1971.184819960075
 30
0.0
 11
898.999999999996
 21
1982.117774682436
 31
0.0
  0
LINE
  5
3BB
330
1F
100
AcDbEntity
  8
化粧台
  6
CONTINUOUS
 62
     2
100
AcDbLine
 10
882.499999999986
 20
1949.200012207063
 30
0.0
 11
927.4999999999842
 21
1949.200012207063
 31
0.0
  0
ARC
  5
3BC
330
1F
100
AcDbEntity
  8
化粧台
  6
CONTINUOUS
 62
     2
100
AcDbCircle
 10
926.4999999999924
 20
1978.426017109385
 30
0.0
 40
1.0
100
AcDbArc
 50
0.0
 51
85.87651071327323
  0
ARC
  5
3BD
330
1F
100
AcDbEntity
  8
化粧台
  6
CONTINUOUS
 62
     2
100
AcDbCircle
 10
883.4999999999924
 20
1978.426017109384
 30
0.0
 40
1.0
100
AcDbArc
 50
94.12348928672675
 51
180.0
  0
ARC
  5
3BE
330
1F
100
AcDbEntity
  8
化粧台
  6
CONTINUOUS
 62
     2
100
AcDbCircle
 10
904.999999999996
 20
1680.200012207062
 30
0.0
 40
300.0
100
AcDbArc
 50
85.87651071327323
 51
88.85400800161261
  0
ARC
  5
3BF
330
1F
100
AcDbEntity
  8
化粧台
  6
CONTINUOUS
 62
     2
100
AcDbCircle
 10
904.999999999996
 20
1680.200012207062
 30
0.0
 40
300.0
100
AcDbArc
 50
91.14599199838867
 51
94.12348928672675
  0
ARC
  5
3C0
330
1F
100
AcDbEntity
  8
化粧台
  6
CONTINUOUS
 62
     2
100
AcDbCircle
 10
904.999999999996
 20
1971.184819960074
 30
0.0
 40
6.000000000000004
100
AcDbArc
 50
180.0
 51
0.0
  0
CIRCLE
  5
3C1
330
1F
100
AcDbEntity
  8
化粧台
  6
CONTINUOUS
 62
     2
100
AcDbCircle
 10
904.999999999996
 20
1982.117774682436
 30
0.0
 40
6.000000000000004
  0
ARC
  5
3C2
330
1F
100
AcDbEntity
  8
化粧台
  6
CONTINUOUS
 62
     2
100
AcDbCircle
 10
904.999999999996
 20
1921.650756845717
 30
0.0
 40
15.00000000000001
100
AcDbArc
 50
322.9040503969624
 51
217.0959496030378
  0
ELLIPSE
  5
3C3
330
1F
100
AcDbEntity
  8
化粧台
  6
CONTINUOUS
 62
     2
100
AcDbEllipse
 10
904.999999999996
 20
1912.180566214775
 30
0.0
 11
-12.0
 21
1.469576158976824E-15
 31
0.0
210
0.0
220
0.0
230
1.0
 40
0.2210297627753829
 41
3.141592653589793
 42
6.283185307179586
  0
ELLIPSE
  5
3C4
330
1F
100
AcDbEntity
  8
化粧台
  6
CONTINUOUS
 62
     2
100
AcDbEllipse
 10
904.999999999996
 20
1906.673888588416
 30
0.0
 11
-12.00000000000002
 21
1.469576158976827E-15
 31
0.0
210
0.0
220
0.0
230
1.0
 40
0.1591774961946723
 41
0.0
 42
6.283185307179586
  0
LINE
  5
3C5
330
1F
100
AcDbEntity
  8
化粧台
  6
CONTINUOUS
 62
     2
100
AcDbLine
 10
892.999999999996
 20
1906.673888588415
 30
0.0
 11
892.999999999996
 21
1912.392155853674
 31
0.0
  0
LINE
  5
3C6
330
1F
100
AcDbEntity
  8
化粧台
  6
CONTINUOUS
 62
     2
100
AcDbLine
 10
916.999999999996
 20
1906.673888588415
 30
0.0
 11
916.999999999996
 21
1912.392155853673
 31
0.0
  0
LINE
  5
3C7
330
1F
100
AcDbEntity
  8
化粧台
  6
CONTINUOUS
 62
     2
100
AcDbLine
 10
890.999999999996
 20
1906.673888588415
 30
0.0
 11
918.9997088369392
 21
1906.673888588416
 31
0.0
  0
ARC
  5
3C8
330
1F
100
AcDbEntity
  8
化粧台
  6
CONTINUOUS
 62
     2
100
AcDbCircle
 10
904.999999999996
 20
2069.549269781699
 30
0.0
 40
154.6227815628025
100
AcDbArc
 50
264.9181466667736
 51
275.0818533332265
  0
LINE
  5
3C9
330
1F
100
AcDbEntity
  8
化粧台
  6
CONTINUOUS
 62
     2
100
AcDbLine
 10
926.9999999999833
 20
1945.299999999907
 30
0.0
 11
927.4999999999833
 21
1944.799999999907
 31
0.0
  0
LINE
  5
3CA
330
1F
100
AcDbEntity
  8
化粧台
  6
CONTINUOUS
 62
     2
100
AcDbLine
 10
925.3059968261238
 20
1949.200012207063
 30
0.0
 11
926.3199999999839
 21
1945.299999999907
 31
0.0
  0
LINE
  5
3CB
330
1F
100
AcDbEntity
  8
化粧台
  6
CONTINUOUS
 62
     2
100
AcDbLine
 10
884.6940031738446
 20
1949.200012207063
 30
0.0
 11
883.6799999999845
 21
1945.299999999906
 31
0.0
  0
LINE
  5
3CC
330
1F
100
AcDbEntity
  8
化粧台
  6
CONTINUOUS
 62
     2
100
AcDbLine
 10
926.9999999999833
 20
1945.299999999907
 30
0.0
 11
882.999999999996
 21
1945.299999999896
 31
0.0
  0
LINE
  5
3CD
330
1F
100
AcDbEntity
  8
化粧台
  6
CONTINUOUS
 62
     2
100
AcDbLine
 10
882.499999999996
 20
1944.799999999896
 30
0.0
 11
882.999999999996
 21
1945.299999999896
 31
0.0
  0
LINE
  5
3CE
330
1F
100
AcDbEntity
  8
化粧台
  6
CONTINUOUS
 62
     2
100
AcDbLine
 10
927.4999999999842
 20
1949.200012207063
 30
0.0
 11
927.4999999999837
 21
1978.426017109385
 31
0.0
  0
LINE
  5
3CF
330
1F
100
AcDbEntity
  8
化粧台
  6
CONTINUOUS
 62
     2
100
AcDbLine
 10
882.4999999999842
 20
1978.426017109384
 30
0.0
 11
882.4999999999842
 21
1949.20001220707
 31
0.0
  0
LINE
  5
3D0
330
1F
100
AcDbEntity
  8
化粧台
  6
CONTINUOUS
 62
     2
100
AcDbLine
 10
882.499999999996
 20
1944.799999999896
 30
0.0
 11
882.499999999996
 21
1857.5
 31
0.0
  0
LINE
  5
3D1
330
1F
100
AcDbEntity
  8
化粧台
  6
CONTINUOUS
 62
     2
100
AcDbLine
 10
927.4999999999833
 20
1857.500000000002
 30
0.0
 11
927.4999999999828
 21
1944.799999999908
 31
0.0
  0
LINE
  5
3D2
330
1F
100
AcDbEntity
  8
化粧台
  6
EXLTYPE2
 62
     6
100
AcDbLine
 10
2353.500000000003
 20
1809.500000000031
 30
0.0
 11
2354.000000000003
 21
1809.788675134626
 31
0.0
  0
LINE
  5
3D3
330
1F
100
AcDbEntity
  8
化粧台
  6
EXLTYPE2
 62
     6
100
AcDbLine
 10
2360.500000000003
 20
1809.500000000031
 30
0.0
 11
2360.000000000003
 21
1809.788675134625
 31
0.0
  0
LINE
  5
3D4
330
1F
100
AcDbEntity
  8
化粧台
  6
CONTINUOUS
 62
     2
100
AcDbLine
 10
2328.127362902309
 20
1975.062934157885
 30
0.0
 11
2324.096509111405
 21
1975.77368243651
 31
0.0
  0
LINE
  5
3D5
330
1F
100
AcDbEntity
  8
化粧台
  6
CONTINUOUS
 62
     2
100
AcDbLine
 10
2323.401916400737
 20
1971.834451424457
 30
0.0
 11
2324.443805466735
 21
1977.74329794253
 31
0.0
  0
LINE
  5
3D6
330
1F
100
AcDbEntity
  8
化粧台
  6
CONTINUOUS
 62
     2
100
AcDbLine
 10
2322.360027334735
 20
1965.92560490639
 30
0.0
 11
2323.401916400727
 21
1971.834451424461
 31
0.0
  0
ARC
  5
3D7
330
1F
100
AcDbEntity
  8
化粧台
  6
CONTINUOUS
 62
     2
100
AcDbCircle
 10
2302.48025892324
 20
1905.006485679812
 30
0.0
 40
29.29134623873736
100
AcDbArc
 50
328.6679794878881
 51
31.33202051226278
  0
ARC
  5
3D8
330
1F
100
AcDbEntity
  8
化粧台
  6
CONTINUOUS
 62
     2
100
AcDbCircle
 10
2313.253619419935
 20
1971.03457549759
 30
0.0
 40
15.40960475402978
100
AcDbArc
 50
342.3548939120103
 51
17.64510608798978
  0
LINE
  5
3D9
330
1F
100
AcDbEntity
  8
化粧台
  6
CONTINUOUS
 62
     2
100
AcDbLine
 10
2322.707323690065
 20
1967.89522041241
 30
0.0
 11
2328.109983007597
 21
1966.942585807158
 31
0.0
  0
ARC
  5
3DA
330
1F
100
AcDbEntity
  8
化粧台
  6
CONTINUOUS
 62
     2
100
AcDbCircle
 10
2265.448544782059
 20
1987.126043575498
 30
0.0
 40
1.016451625090327
100
AcDbArc
 50
71.10198734334395
 51
155.1938278787579
  0
ARC
  5
3DB
330
1F
100
AcDbEntity
  8
化粧台
  6
CONTINUOUS
 62
     2
100
AcDbCircle
 10
2311.301297053556
 20
1973.923932767476
 30
0.0
 40
48.72040105432946
100
AcDbArc
 50
163.7559027392207
 51
176.0410102655832
  0
ARC
  5
3DC
330
1F
100
AcDbEntity
  8
化粧台
  6
CONTINUOUS
 62
     2
100
AcDbCircle
 10
2263.698931850034
 20
1977.285659580982
 30
0.0
 40
1.001777616499239
100
AcDbArc
 50
179.8828477326057
 51
262.1420782586018
  0
LINE
  5
3DD
330
1F
100
AcDbEntity
  8
化粧台
  6
CONTINUOUS
 62
     2
100
AcDbLine
 10
2263.561971744733
 20
1976.2932885201
 30
0.0
 11
2322.360027334735
 21
1965.92560490639
 31
0.0
  0
LINE
  5
3DE
330
1F
100
AcDbEntity
  8
化粧台
  6
CONTINUOUS
 62
     2
100
AcDbLine
 10
2372.500000000003
 20
1894.057308563486
 30
0.0
 11
2372.500000000002
 21
1944.800000000032
 31
0.0
  0
LINE
  5
3DF
330
1F
100
AcDbEntity
  8
化粧台
  6
CONTINUOUS
 62
     2
100
AcDbLine
 10
2372.000000000003
 20
1945.300000000031
 30
0.0
 11
2372.500000000003
 21
1944.800000000031
 31
0.0
  0
LINE
  5
3E0
330
1F
100
AcDbEntity
  8
化粧台
  6
CONTINUOUS
 62
     2
100
AcDbLine
 10
2328.000000000002
 20
1945.300000000031
 30
0.0
 11
2327.500000000002
 21
1944.800000000031
 31
0.0
  0
LINE
  5
3E1
330
1F
100
AcDbEntity
  8
化粧台
  6
CONTINUOUS
 62
     2
100
AcDbLine
 10
2370.400000000015
 20
1945.30000000003
 30
0.0
 11
2372.000000000003
 21
1945.300000000031
 31
0.0
  0
ARC
  5
3E2
330
1F
100
AcDbEntity
  8
化粧台
  6
CONTINUOUS
 62
     2
100
AcDbCircle
 10
2399.484886233799
 20
1899.560280186984
 30
0.0
 40
0.5
100
AcDbArc
 50
17.70179307550755
 51
93.0852877108197
  0
LINE
  5
3E3
330
1F
100
AcDbEntity
  8
化粧台
  6
CONTINUOUS
 62
     2
100
AcDbLine
 10
2385.312658390485
 20
1899.297115291293
 30
0.0
 11
2399.457975029264
 21
1900.05955544881
 31
0.0
  0
LINE
  5
3E4
330
1F
100
AcDbEntity
  8
化粧台
  6
CONTINUOUS
 62
     2
100
AcDbLine
 10
2399.839569595019
 20
1899.91269998392
 30
0.0
 11
2399.839569595019
 21
1888.230531118776
 31
0.0
  0
ARC
  5
3E5
330
1F
100
AcDbEntity
  8
化粧台
  6
CONTINUOUS
 62
     2
100
AcDbCircle
 10
2385.339569595018
 20
1898.797840029467
 30
0.0
 40
0.5
100
AcDbArc
 50
93.0852877108197
 51
180.0
  0
ARC
  5
3E6
330
1F
100
AcDbEntity
  8
化粧台
  6
CONTINUOUS
 62
     2
100
AcDbCircle
 10
2385.339569595018
 20
1889.345391073227
 30
0.0
 40
0.5
100
AcDbArc
 50
180.0
 51
266.9147122891804
  0
ARC
  5
3E7
330
1F
100
AcDbEntity
  8
化粧台
  6
CONTINUOUS
 62
     2
100
AcDbCircle
 10
2399.484886233798
 20
1888.582950915712
 30
0.0
 40
0.5
100
AcDbArc
 50
266.9147122891804
 51
342.2982069244429
  0
LINE
  5
3E8
330
1F
100
AcDbEntity
  8
化粧台
  6
CONTINUOUS
 62
     2
100
AcDbLine
 10
2385.312658390485
 20
1888.846115811403
 30
0.0
 11
2399.457975029264
 21
1888.083675653888
 31
0.0
  0
ARC
  5
3E9
330
1F
100
AcDbEntity
  8
化粧台
  6
CONTINUOUS
 62
     2
100
AcDbCircle
 10
2382.288485105608
 20
1894.071615551349
 30
0.0
 40
18.55108448941111
100
AcDbArc
 50
342.2982069244645
 51
17.70179307553557
  0
LINE
  5
3EA
330
1F
100
AcDbEntity
  8
化粧台
  6
CONTINUOUS
 62
     2
100
AcDbLine
 10
2255.07317273903
 20
1904.763758634078
 30
0.0
 11
2233.407402172759
 21
1908.584018542752
 31
0.0
  0
LINE
  5
3EB
330
1F
100
AcDbEntity
  8
化粧台
  6
CONTINUOUS
 62
     2
100
AcDbLine
 10
2233.407402172759
 20
1908.584018542751
 30
0.0
 11
2255.07317273903
 21
1904.763758634079
 31
0.0
  0
LINE
  5
3EC
330
1F
100
AcDbEntity
  8
化粧台
  6
CONTINUOUS
 62
     2
100
AcDbLine
 10
2255.07317273903
 20
1904.763758634078
 30
0.0
 11
2256.158236314162
 21
1905.158689477713
 31
0.0
  0
LINE
  5
3ED
330
1F
100
AcDbEntity
  8
化粧台
  6
CONTINUOUS
 62
     2
100
AcDbLine
 10
2255.073172739028
 20
1904.763758634079
 30
0.0
 11
2256.158236314161
 21
1905.158689477714
 31
0.0
  0
LINE
  5
3EE
330
1F
100
AcDbEntity
  8
化粧台
  6
CONTINUOUS
 62
     2
100
AcDbLine
 10
2233.407402172761
 20
1908.584018542751
 30
0.0
 11
2232.52285024187
 21
1909.32624574172
 31
0.0
  0
LINE
  5
3EF
330
1F
100
AcDbEntity
  8
化粧台
  6
CONTINUOUS
 62
     2
100
AcDbLine
 10
2233.407402172759
 20
1908.584018542751
 30
0.0
 11
2232.522850241869
 21
1909.32624574172
 31
0.0
  0
ARC
  5
3F0
330
1F
100
AcDbEntity
  8
化粧台
  6
CONTINUOUS
 62
     2
100
AcDbCircle
 10
2379.655424036365
 20
1887.071615551347
 30
0.0
 40
4.0
100
AcDbArc
 50
90.00000000000001
 51
151.999999999985
  0
LINE
  5
3F1
330
1F
100
AcDbEntity
  8
化粧台
  6
CONTINUOUS
 62
     2
100
AcDbLine
 10
2267.178105298984
 20
1900.411464064805
 30
0.0
 11
2327.500000000003
 21
1889.77508650156
 31
0.0
  0
LINE
  5
3F2
330
1F
100
AcDbEntity
  8
化粧台
  6
CONTINUOUS
 62
     2
100
AcDbLine
 10
2234.590296517384
 20
1936.620372351741
 30
0.0
 11
2327.500000000004
 21
1920.237884858132
 31
0.0
  0
LINE
  5
3F3
330
1F
100
AcDbEntity
  8
化粧台
  6
CONTINUOUS
 62
     2
100
AcDbLine
 10
2260.405802583728
 20
1911.971523390496
 30
0.0
 11
2267.178105298984
 21
1900.411464064805
 31
0.0
  0
ARC
  5
3F4
330
1F
100
AcDbEntity
  8
化粧台
  6
CONTINUOUS
 62
     2
100
AcDbCircle
 10
2230.448251524119
 20
1919.284701142028
 30
0.0
 40
2.0
100
AcDbArc
 50
172.1050093001814
 51
260.0000000000219
  0
ARC
  5
3F5
330
1F
100
AcDbEntity
  8
化粧台
  6
CONTINUOUS
 62
     2
100
AcDbCircle
 10
2234.24300016205
 20
1934.650756845717
 30
0.0
 40
2.0
100
AcDbArc
 50
79.99999999999383
 51
160.1509730893526
  0
LINE
  5
3F6
330
1F
100
AcDbEntity
  8
化粧台
  6
CONTINUOUS
 62
     2
100
AcDbLine
 10
2328.500000000002
 20
1945.300000000113
 30
0.0
 11
2329.700000000003
 21
1945.300000000112
 31
0.0
  0
ARC
  5
3F7
330
1F
100
AcDbEntity
  8
化粧台
  6
CONTINUOUS
 62
     2
100
AcDbCircle
 10
2350.000000000003
 20
1680.200012207062
 30
0.0
 40
300.0
100
AcDbArc
 50
85.78044385704115
 51
94.21955614295885
  0
LINE
  5
3F8
330
1F
100
AcDbEntity
  8
化粧台
  6
CONTINUOUS
 62
     2
100
AcDbLine
 10
2372.803508502005
 20
1969.200012207063
 30
0.0
 11
2372.803508502005
 21
1960.385151813763
 31
0.0
  0
POLYLINE
  5
3F9
330
1F
100
AcDbEntity
  8
化粧台
  6
CONTINUOUS
 62
     2
100
AcDb2dPolyline
 66
     1
 10
0.0
 20
0.0
 30
0.0
 70
   128
  0
VERTEX
  5
3FA
330
3F9
100
AcDbEntity
  8
化粧台
  6
CONTINUOUS
 62
     2
100
AcDbVertex
100
AcDb2dVertex
 10
2372.732135843405
 20
1959.800181236963
 30
0.0
  0
VERTEX
  5
3FB
330
3F9
100
AcDbEntity
  8
化粧台
  6
CONTINUOUS
 62
     2
100
AcDbVertex
100
AcDb2dVertex
 10
2372.732454492668
 20
1959.800633354384
 30
0.0
  0
VERTEX
  5
3FC
330
3F9
100
AcDbEntity
  8
化粧台
  6
CONTINUOUS
 62
     2
100
AcDbVertex
100
AcDb2dVertex
 10
2372.733356918039
 20
1959.801925614466
 30
0.0
  0
VERTEX
  5
3FD
330
3F9
100
AcDbEntity
  8
化粧台
  6
CONTINUOUS
 62
     2
100
AcDbVertex
100
AcDb2dVertex
 10
2372.73476283589
 20
1959.803961878936
 30
0.0
  0
VERTEX
  5
3FE
330
3F9
100
AcDbEntity
  8
化粧台
  6
CONTINUOUS
 62
     2
100
AcDbVertex
100
AcDb2dVertex
 10
2372.736591962593
 20
1959.80664600952
 30
0.0
  0
VERTEX
  5
3FF
330
3F9
100
AcDbEntity
  8
化粧台
  6
CONTINUOUS
 62
     2
100
AcDbVertex
100
AcDb2dVertex
 10
2372.738764014519
 20
1959.809881867945
 30
0.0
  0
VERTEX
  5
400
330
3F9
100
AcDbEntity
  8
化粧台
  6
CONTINUOUS
 62
     2
100
AcDbVertex
100
AcDb2dVertex
 10
2372.74119870804
 20
1959.813573315938
 30
0.0
  0
VERTEX
  5
401
330
3F9
100
AcDbEntity
  8
化粧台
  6
CONTINUOUS
 62
     2
100
AcDbVertex
100
AcDb2dVertex
 10
2372.743815759531
 20
1959.817624215226
 30
0.0
  0
VERTEX
  5
402
330
3F9
100
AcDbEntity
  8
化粧台
  6
CONTINUOUS
 62
     2
100
AcDbVertex
100
AcDb2dVertex
 10
2372.746534885359
 20
1959.821938427536
 30
0.0
  0
VERTEX
  5
403
330
3F9
100
AcDbEntity
  8
化粧台
  6
CONTINUOUS
 62
     2
100
AcDbVertex
100
AcDb2dVertex
 10
2372.7492758019
 20
1959.826419814593
 30
0.0
  0
VERTEX
  5
404
330
3F9
100
AcDbEntity
  8
化粧台
  6
CONTINUOUS
 62
     2
100
AcDbVertex
100
AcDb2dVertex
 10
2372.751958225525
 20
1959.830972238127
 30
0.0
  0
VERTEX
  5
405
330
3F9
100
AcDbEntity
  8
化粧台
  6
CONTINUOUS
 62
     2
100
AcDbVertex
100
AcDb2dVertex
 10
2372.754501872604
 20
1959.835499559862
 30
0.0
  0
VERTEX
  5
406
330
3F9
100
AcDbEntity
  8
化粧台
  6
CONTINUOUS
 62
     2
100
AcDbVertex
100
AcDb2dVertex
 10
2372.759147087116
 20
1959.844597498818
 30
0.0
  0
VERTEX
  5
407
330
3F9
100
AcDbEntity
  8
化粧台
  6
CONTINUOUS
 62
     2
100
AcDbVertex
100
AcDb2dVertex
 10
2372.762936247985
 20
1959.853230612037
 30
0.0
  0
VERTEX
  5
408
330
3F9
100
AcDbEntity
  8
化粧台
  6
CONTINUOUS
 62
     2
100
AcDbVertex
100
AcDb2dVertex
 10
2372.765966582809
 20
1959.86146167259
 30
0.0
  0
VERTEX
  5
409
330
3F9
100
AcDbEntity
  8
化粧台
  6
CONTINUOUS
 62
     2
100
AcDbVertex
100
AcDb2dVertex
 10
2372.768335319188
 20
1959.869353453548
 30
0.0
  0
VERTEX
  5
40A
330
3F9
100
AcDbEntity
  8
化粧台
  6
CONTINUOUS
 62
     2
100
AcDbVertex
100
AcDb2dVertex
 10
2372.77013968472
 20
1959.876968727979
 30
0.0
  0
VERTEX
  5
40B
330
3F9
100
AcDbEntity
  8
化粧台
  6
CONTINUOUS
 62
     2
100
AcDbVertex
100
AcDb2dVertex
 10
2372.771476907006
 20
1959.884370268956
 30
0.0
  0
VERTEX
  5
40C
330
3F9
100
AcDbEntity
  8
化粧台
  6
CONTINUOUS
 62
     2
100
AcDbVertex
100
AcDb2dVertex
 10
2372.772444213643
 20
1959.891620849546
 30
0.0
  0
VERTEX
  5
40D
330
3F9
100
AcDbEntity
  8
化粧台
  6
CONTINUOUS
 62
     2
100
AcDbVertex
100
AcDb2dVertex
 10
2372.773138832233
 20
1959.898783242822
 30
0.0
  0
VERTEX
  5
40E
330
3F9
100
AcDbEntity
  8
化粧台
  6
CONTINUOUS
 62
     2
100
AcDbVertex
100
AcDb2dVertex
 10
2372.773657990373
 20
1959.905920221854
 30
0.0
  0
VERTEX
  5
40F
330
3F9
100
AcDbEntity
  8
化粧台
  6
CONTINUOUS
 62
     2
100
AcDbVertex
100
AcDb2dVertex
 10
2372.774098915663
 20
1959.91309455971
 30
0.0
  0
VERTEX
  5
410
330
3F9
100
AcDbEntity
  8
化粧台
  6
CONTINUOUS
 62
     2
100
AcDbVertex
100
AcDb2dVertex
 10
2372.774558835702
 20
1959.920369029463
 30
0.0
  0
VERTEX
  5
411
330
3F9
100
AcDbEntity
  8
化粧台
  6
CONTINUOUS
 62
     2
100
AcDbVertex
100
AcDb2dVertex
 10
2372.775421512974
 20
1959.931393533333
 30
0.0
  0
VERTEX
  5
412
330
3F9
100
AcDbEntity
  8
化粧台
  6
CONTINUOUS
 62
     2
100
AcDbVertex
100
AcDb2dVertex
 10
2372.776502403174
 20
1959.942715248447
 30
0.0
  0
VERTEX
  5
413
330
3F9
100
AcDbEntity
  8
化粧台
  6
CONTINUOUS
 62
     2
100
AcDbVertex
100
AcDb2dVertex
 10
2372.777765844462
 20
1959.954275538307
 30
0.0
  0
VERTEX
  5
414
330
3F9
100
AcDbEntity
  8
化粧台
  6
CONTINUOUS
 62
     2
100
AcDbVertex
100
AcDb2dVertex
 10
2372.779176175002
 20
1959.966015766415
 30
0.0
  0
VERTEX
  5
415
330
3F9
100
AcDbEntity
  8
化粧台
  6
CONTINUOUS
 62
     2
100
AcDbVertex
100
AcDb2dVertex
 10
2372.780697732955
 20
1959.977877296275
 30
0.0
  0
VERTEX
  5
416
330
3F9
100
AcDbEntity
  8
化粧台
  6
CONTINUOUS
 62
     2
100
AcDbVertex
100
AcDb2dVertex
 10
2372.782294856483
 20
1959.989801491389
 30
0.0
  0
VERTEX
  5
417
330
3F9
100
AcDbEntity
  8
化粧台
  6
CONTINUOUS
 62
     2
100
AcDbVertex
100
AcDb2dVertex
 10
2372.783931883746
 20
1960.00172971526
 30
0.0
  0
VERTEX
  5
418
330
3F9
100
AcDbEntity
  8
化粧台
  6
CONTINUOUS
 62
     2
100
AcDbVertex
100
AcDb2dVertex
 10
2372.785573152909
 20
1960.01360333139
 30
0.0
  0
VERTEX
  5
419
330
3F9
100
AcDbEntity
  8
化粧台
  6
CONTINUOUS
 62
     2
100
AcDbVertex
100
AcDb2dVertex
 10
2372.787183002131
 20
1960.025363703282
 30
0.0
  0
VERTEX
  5
41A
330
3F9
100
AcDbEntity
  8
化粧台
  6
CONTINUOUS
 62
     2
100
AcDbVertex
100
AcDb2dVertex
 10
2372.788725769576
 20
1960.036952194439
 30
0.0
  0
VERTEX
  5
41B
330
3F9
100
AcDbEntity
  8
化粧台
  6
CONTINUOUS
 62
     2
100
AcDbVertex
100
AcDb2dVertex
 10
2372.790165793404
 20
1960.048310168363
 30
0.0
  0
VERTEX
  5
41C
330
3F9
100
AcDbEntity
  8
化粧台
  6
CONTINUOUS
 62
     2
100
AcDbVertex
100
AcDb2dVertex
 10
2372.791780924134
 20
1960.062131618917
 30
0.0
  0
VERTEX
  5
41D
330
3F9
100
AcDbEntity
  8
化粧台
  6
CONTINUOUS
 62
     2
100
AcDbVertex
100
AcDb2dVertex
 10
2372.793198495573
 20
1960.075654045147
 30
0.0
  0
VERTEX
  5
41E
330
3F9
100
AcDbEntity
  8
化粧台
  6
CONTINUOUS
 62
     2
100
AcDbVertex
100
AcDb2dVertex
 10
2372.794436984149
 20
1960.089029759959
 30
0.0
  0
VERTEX
  5
41F
330
3F9
100
AcDbEntity
  8
化粧台
  6
CONTINUOUS
 62
     2
100
AcDbVertex
100
AcDb2dVertex
 10
2372.795514866294
 20
1960.102411076259
 30
0.0
  0
VERTEX
  5
420
330
3F9
100
AcDbEntity
  8
化粧台
  6
CONTINUOUS
 62
     2
100
AcDbVertex
100
AcDb2dVertex
 10
2372.796450618437
 20
1960.115950306954
 30
0.0
  0
VERTEX
  5
421
330
3F9
100
AcDbEntity
  8
化粧台
  6
CONTINUOUS
 62
     2
100
AcDbVertex
100
AcDb2dVertex
 10
2372.797262717007
 20
1960.129799764949
 30
0.0
  0
VERTEX
  5
422
330
3F9
100
AcDbEntity
  8
化粧台
  6
CONTINUOUS
 62
     2
100
AcDbVertex
100
AcDb2dVertex
 10
2372.797969638433
 20
1960.144111763153
 30
0.0
  0
VERTEX
  5
423
330
3F9
100
AcDbEntity
  8
化粧台
  6
CONTINUOUS
 62
     2
100
AcDbVertex
100
AcDb2dVertex
 10
2372.798589859147
 20
1960.159038614469
 30
0.0
  0
VERTEX
  5
424
330
3F9
100
AcDbEntity
  8
化粧台
  6
CONTINUOUS
 62
     2
100
AcDbVertex
100
AcDb2dVertex
 10
2372.799141855577
 20
1960.174732631805
 30
0.0
  0
VERTEX
  5
425
330
3F9
100
AcDbEntity
  8
化粧台
  6
CONTINUOUS
 62
     2
100
AcDbVertex
100
AcDb2dVertex
 10
2372.799644104151
 20
1960.191346128068
 30
0.0
  0
VERTEX
  5
426
330
3F9
100
AcDbEntity
  8
化粧台
  6
CONTINUOUS
 62
     2
100
AcDbVertex
100
AcDb2dVertex
 10
2372.800115081302
 20
1960.209031416163
 30
0.0
  0
VERTEX
  5
427
330
3F9
100
AcDbEntity
  8
化粧台
  6
CONTINUOUS
 62
     2
100
AcDbVertex
100
AcDb2dVertex
 10
2372.800611344206
 20
1960.229652481849
 30
0.0
  0
VERTEX
  5
428
330
3F9
100
AcDbEntity
  8
化粧台
  6
CONTINUOUS
 62
     2
100
AcDbVertex
100
AcDb2dVertex
 10
2372.801086735105
 20
1960.251141674622
 30
0.0
  0
VERTEX
  5
429
330
3F9
100
AcDbEntity
  8
化粧台
  6
CONTINUOUS
 62
     2
100
AcDbVertex
100
AcDb2dVertex
 10
2372.801535693328
 20
1960.272902277421
 30
0.0
  0
VERTEX
  5
42A
330
3F9
100
AcDbEntity
  8
化粧台
  6
CONTINUOUS
 62
     2
100
AcDbVertex
100
AcDb2dVertex
 10
2372.801952658201
 20
1960.294337573189
 30
0.0
  0
VERTEX
  5
42B
330
3F9
100
AcDbEntity
  8
化粧台
  6
CONTINUOUS
 62
     2
100
AcDbVertex
100
AcDb2dVertex
 10
2372.802332069051
 20
1960.314850844867
 30
0.0
  0
VERTEX
  5
42C
330
3F9
100
AcDbEntity
  8
化粧台
  6
CONTINUOUS
 62
     2
100
AcDbVertex
100
AcDb2dVertex
 10
2372.802668365207
 20
1960.333845375397
 30
0.0
  0
VERTEX
  5
42D
330
3F9
100
AcDbEntity
  8
化粧台
  6
CONTINUOUS
 62
     2
100
AcDbVertex
100
AcDb2dVertex
 10
2372.802955985993
 20
1960.350724447719
 30
0.0
  0
VERTEX
  5
42E
330
3F9
100
AcDbEntity
  8
化粧台
  6
CONTINUOUS
 62
     2
100
AcDbVertex
100
AcDb2dVertex
 10
2372.803189370739
 20
1960.364891344776
 30
0.0
  0
VERTEX
  5
42F
330
3F9
100
AcDbEntity
  8
化粧台
  6
CONTINUOUS
 62
     2
100
AcDbVertex
100
AcDb2dVertex
 10
2372.803362958771
 20
1960.375749349507
 30
0.0
  0
VERTEX
  5
430
330
3F9
100
AcDbEntity
  8
化粧台
  6
CONTINUOUS
 62
     2
100
AcDbVertex
100
AcDb2dVertex
 10
2372.803471189418
 20
1960.382701744856
 30
0.0
  0
VERTEX
  5
431
330
3F9
100
AcDbEntity
  8
化粧台
  6
CONTINUOUS
 62
     2
100
AcDbVertex
100
AcDb2dVertex
 10
2372.803508502005
 20
1960.385151813763
 30
0.0
  0
SEQEND
  5
432
330
3F9
100
AcDbEntity
  8
化粧台
  6
CONTINUOUS
 62
     2
  0
LINE
  5
433
330
1F
100
AcDbEntity
  8
化粧台
  6
CONTINUOUS
 62
     2
100
AcDbLine
 10
2373.000000000003
 20
1978.389549246862
 30
0.0
 11
2373.000000000003
 21
1972.200012207063
 31
0.0
  0
POLYLINE
  5
434
330
1F
100
AcDbEntity
  8
化粧台
  6
CONTINUOUS
 62
     2
100
AcDb2dPolyline
 66
     1
 10
0.0
 20
0.0
 30
0.0
 70
   128
  0
VERTEX
  5
435
330
434
100
AcDbEntity
  8
化粧台
  6
CONTINUOUS
 62
     2
100
AcDbVertex
100
AcDb2dVertex
 10
2372.803508502005
 20
1969.200012207063
 30
0.0
  0
VERTEX
  5
436
330
434
100
AcDbEntity
  8
化粧台
  6
CONTINUOUS
 62
     2
100
AcDbVertex
100
AcDb2dVertex
 10
2372.803570232759
 20
1969.208074227496
 30
0.0
  0
VERTEX
  5
437
330
434
100
AcDbEntity
  8
化粧台
  6
CONTINUOUS
 62
     2
100
AcDbVertex
100
AcDb2dVertex
 10
2372.803755460562
 20
1969.230966478738
 30
0.0
  0
VERTEX
  5
438
330
434
100
AcDbEntity
  8
化粧台
  6
CONTINUOUS
 62
     2
100
AcDbVertex
100
AcDb2dVertex
 10
2372.804064238721
 20
1969.266748245705
 30
0.0
  0
VERTEX
  5
439
330
434
100
AcDbEntity
  8
化粧台
  6
CONTINUOUS
 62
     2
100
AcDbVertex
100
AcDb2dVertex
 10
2372.804496620543
 20
1969.313478813312
 30
0.0
  0
VERTEX
  5
43A
330
434
100
AcDbEntity
  8
化粧台
  6
CONTINUOUS
 62
     2
100
AcDbVertex
100
AcDb2dVertex
 10
2372.805052659337
 20
1969.369217466474
 30
0.0
  0
VERTEX
  5
43B
330
434
100
AcDbEntity
  8
化粧台
  6
CONTINUOUS
 62
     2
100
AcDbVertex
100
AcDb2dVertex
 10
2372.805732408407
 20
1969.432023490107
 30
0.0
  0
VERTEX
  5
43C
330
434
100
AcDbEntity
  8
化粧台
  6
CONTINUOUS
 62
     2
100
AcDbVertex
100
AcDb2dVertex
 10
2372.806535921065
 20
1969.499956169126
 30
0.0
  0
VERTEX
  5
43D
330
434
100
AcDbEntity
  8
化粧台
  6
CONTINUOUS
 62
     2
100
AcDbVertex
100
AcDb2dVertex
 10
2372.807463250615
 20
1969.571074788445
 30
0.0
  0
VERTEX
  5
43E
330
434
100
AcDbEntity
  8
化粧台
  6
CONTINUOUS
 62
     2
100
AcDbVertex
100
AcDb2dVertex
 10
2372.808514450368
 20
1969.643438632981
 30
0.0
  0
VERTEX
  5
43F
330
434
100
AcDbEntity
  8
化粧台
  6
CONTINUOUS
 62
     2
100
AcDbVertex
100
AcDb2dVertex
 10
2372.809689573627
 20
1969.715106987648
 30
0.0
  0
VERTEX
  5
440
330
434
100
AcDbEntity
  8
化粧台
  6
CONTINUOUS
 62
     2
100
AcDbVertex
100
AcDb2dVertex
 10
2372.810988673703
 20
1969.784139137363
 30
0.0
  0
VERTEX
  5
441
330
434
100
AcDbEntity
  8
化粧台
  6
CONTINUOUS
 62
     2
100
AcDbVertex
100
AcDb2dVertex
 10
2372.812362643852
 20
1969.846929009636
 30
0.0
  0
VERTEX
  5
442
330
434
100
AcDbEntity
  8
化粧台
  6
CONTINUOUS
 62
     2
100
AcDbVertex
100
AcDb2dVertex
 10
2372.813852273051
 20
1969.905935814329
 30
0.0
  0
VERTEX
  5
443
330
434
100
AcDbEntity
  8
化粧台
  6
CONTINUOUS
 62
     2
100
AcDbVertex
100
AcDb2dVertex
 10
2372.815457267086
 20
1969.961655354238
 30
0.0
  0
VERTEX
  5
444
330
434
100
AcDbEntity
  8
化粧台
  6
CONTINUOUS
 62
     2
100
AcDbVertex
100
AcDb2dVertex
 10
2372.817177331743
 20
1970.014583432159
 30
0.0
  0
VERTEX
  5
445
330
434
100
AcDbEntity
  8
化粧台
  6
CONTINUOUS
 62
     2
100
AcDbVertex
100
AcDb2dVertex
 10
2372.819012172806
 20
1970.06521585089
 30
0.0
  0
VERTEX
  5
446
330
434
100
AcDbEntity
  8
化粧台
  6
CONTINUOUS
 62
     2
100
AcDbVertex
100
AcDb2dVertex
 10
2372.820961496061
 20
1970.114048413226
 30
0.0
  0
VERTEX
  5
447
330
434
100
AcDbEntity
  8
化粧台
  6
CONTINUOUS
 62
     2
100
AcDbVertex
100
AcDb2dVertex
 10
2372.823025007293
 20
1970.161576921963
 30
0.0
  0
VERTEX
  5
448
330
434
100
AcDbEntity
  8
化粧台
  6
CONTINUOUS
 62
     2
100
AcDbVertex
100
AcDb2dVertex
 10
2372.825202412288
 20
1970.208297179899
 30
0.0
  0
VERTEX
  5
449
330
434
100
AcDbEntity
  8
化粧台
  6
CONTINUOUS
 62
     2
100
AcDbVertex
100
AcDb2dVertex
 10
2372.827493416832
 20
1970.25470498983
 30
0.0
  0
VERTEX
  5
44A
330
434
100
AcDbEntity
  8
化粧台
  6
CONTINUOUS
 62
     2
100
AcDbVertex
100
AcDb2dVertex
 10
2372.829897726709
 20
1970.301296154552
 30
0.0
  0
VERTEX
  5
44B
330
434
100
AcDbEntity
  8
化粧台
  6
CONTINUOUS
 62
     2
100
AcDbVertex
100
AcDb2dVertex
 10
2372.832415047705
 20
1970.348566476863
 30
0.0
  0
VERTEX
  5
44C
330
434
100
AcDbEntity
  8
化粧台
  6
CONTINUOUS
 62
     2
100
AcDbVertex
100
AcDb2dVertex
 10
2372.834836433511
 20
1970.393102823135
 30
0.0
  0
VERTEX
  5
44D
330
434
100
AcDbEntity
  8
化粧台
  6
CONTINUOUS
 62
     2
100
AcDbVertex
100
AcDb2dVertex
 10
2372.83735430755
 20
1970.438524759265
 30
0.0
  0
VERTEX
  5
44E
330
434
100
AcDbEntity
  8
化粧台
  6
CONTINUOUS
 62
     2
100
AcDbVertex
100
AcDb2dVertex
 10
2372.83996930877
 20
1970.484718742693
 30
0.0
  0
VERTEX
  5
44F
330
434
100
AcDbEntity
  8
化粧台
  6
CONTINUOUS
 62
     2
100
AcDbVertex
100
AcDb2dVertex
 10
2372.842682076121
 20
1970.531571230854
 30
0.0
  0
VERTEX
  5
450
330
434
100
AcDbEntity
  8
化粧台
  6
CONTINUOUS
 62
     2
100
AcDbVertex
100
AcDb2dVertex
 10
2372.845493248549
 20
1970.578968681185
 30
0.0
  0
VERTEX
  5
451
330
434
100
AcDbEntity
  8
化粧台
  6
CONTINUOUS
 62
     2
100
AcDbVertex
100
AcDb2dVertex
 10
2372.848403465001
 20
1970.626797551121
 30
0.0
  0
VERTEX
  5
452
330
434
100
AcDbEntity
  8
化粧台
  6
CONTINUOUS
 62
     2
100
AcDbVertex
100
AcDb2dVertex
 10
2372.851413364426
 20
1970.674944298099
 30
0.0
  0
VERTEX
  5
453
330
434
100
AcDbEntity
  8
化粧台
  6
CONTINUOUS
 62
     2
100
AcDbVertex
100
AcDb2dVertex
 10
2372.854523585771
 20
1970.723295379556
 30
0.0
  0
VERTEX
  5
454
330
434
100
AcDbEntity
  8
化粧台
  6
CONTINUOUS
 62
     2
100
AcDbVertex
100
AcDb2dVertex
 10
2372.857734767984
 20
1970.771737252928
 30
0.0
  0
VERTEX
  5
455
330
434
100
AcDbEntity
  8
化粧台
  6
CONTINUOUS
 62
     2
100
AcDbVertex
100
AcDb2dVertex
 10
2372.861047550014
 20
1970.820156375651
 30
0.0
  0
VERTEX
  5
456
330
434
100
AcDbEntity
  8
化粧台
  6
CONTINUOUS
 62
     2
100
AcDbVertex
100
AcDb2dVertex
 10
2372.864462570808
 20
1970.868439205162
 30
0.0
  0
VERTEX
  5
457
330
434
100
AcDbEntity
  8
化粧台
  6
CONTINUOUS
 62
     2
100
AcDbVertex
100
AcDb2dVertex
 10
2372.867527890555
 20
1970.910408887637
 30
0.0
  0
VERTEX
  5
458
330
434
100
AcDbEntity
  8
化粧台
  6
CONTINUOUS
 62
     2
100
AcDbVertex
100
AcDb2dVertex
 10
2372.87066936298
 20
1970.952197306023
 30
0.0
  0
VERTEX
  5
459
330
434
100
AcDbEntity
  8
化粧台
  6
CONTINUOUS
 62
     2
100
AcDbVertex
100
AcDb2dVertex
 10
2372.873884716026
 20
1970.993813648598
 30
0.0
  0
VERTEX
  5
45A
330
434
100
AcDbEntity
  8
化粧台
  6
CONTINUOUS
 62
     2
100
AcDbVertex
100
AcDb2dVertex
 10
2372.877171677641
 20
1971.035267103637
 30
0.0
  0
VERTEX
  5
45B
330
434
100
AcDbEntity
  8
化粧台
  6
CONTINUOUS
 62
     2
100
AcDbVertex
100
AcDb2dVertex
 10
2372.88052797577
 20
1971.076566859418
 30
0.0
  0
VERTEX
  5
45C
330
434
100
AcDbEntity
  8
化粧台
  6
CONTINUOUS
 62
     2
100
AcDbVertex
100
AcDb2dVertex
 10
2372.883951338359
 20
1971.117722104218
 30
0.0
  0
VERTEX
  5
45D
330
434
100
AcDbEntity
  8
化粧台
  6
CONTINUOUS
 62
     2
100
AcDbVertex
100
AcDb2dVertex
 10
2372.887439493354
 20
1971.158742026311
 30
0.0
  0
VERTEX
  5
45E
330
434
100
AcDbEntity
  8
化粧台
  6
CONTINUOUS
 62
     2
100
AcDbVertex
100
AcDb2dVertex
 10
2372.890990168699
 20
1971.199635813976
 30
0.0
  0
VERTEX
  5
45F
330
434
100
AcDbEntity
  8
化粧台
  6
CONTINUOUS
 62
     2
100
AcDbVertex
100
AcDb2dVertex
 10
2372.894601092342
 20
1971.240412655489
 30
0.0
  0
VERTEX
  5
460
330
434
100
AcDbEntity
  8
化粧台
  6
CONTINUOUS
 62
     2
100
AcDbVertex
100
AcDb2dVertex
 10
2372.898269992229
 20
1971.281081739125
 30
0.0
  0
VERTEX
  5
461
330
434
100
AcDbEntity
  8
化粧台
  6
CONTINUOUS
 62
     2
100
AcDbVertex
100
AcDb2dVertex
 10
2372.901994596303
 20
1971.321652253162
 30
0.0
  0
VERTEX
  5
462
330
434
100
AcDbEntity
  8
化粧台
  6
CONTINUOUS
 62
     2
100
AcDbVertex
100
AcDb2dVertex
 10
2372.905101484885
 20
1971.354981837897
 30
0.0
  0
VERTEX
  5
463
330
434
100
AcDbEntity
  8
化粧台
  6
CONTINUOUS
 62
     2
100
AcDbVertex
100
AcDb2dVertex
 10
2372.908250614106
 20
1971.388292282257
 30
0.0
  0
VERTEX
  5
464
330
434
100
AcDbEntity
  8
化粧台
  6
CONTINUOUS
 62
     2
100
AcDbVertex
100
AcDb2dVertex
 10
2372.911448030292
 20
1971.421624991749
 30
0.0
  0
VERTEX
  5
465
330
434
100
AcDbEntity
  8
化粧台
  6
CONTINUOUS
 62
     2
100
AcDbVertex
100
AcDb2dVertex
 10
2372.91469977977
 20
1971.455021371875
 30
0.0
  0
VERTEX
  5
466
330
434
100
AcDbEntity
  8
化粧台
  6
CONTINUOUS
 62
     2
100
AcDbVertex
100
AcDb2dVertex
 10
2372.918011908866
 20
1971.488522828142
 30
0.0
  0
VERTEX
  5
467
330
434
100
AcDbEntity
  8
化粧台
  6
CONTINUOUS
 62
     2
100
AcDbVertex
100
AcDb2dVertex
 10
2372.921390463907
 20
1971.522170766055
 30
0.0
  0
VERTEX
  5
468
330
434
100
AcDbEntity
  8
化粧台
  6
CONTINUOUS
 62
     2
100
AcDbVertex
100
AcDb2dVertex
 10
2372.924841491219
 20
1971.556006591117
 30
0.0
  0
VERTEX
  5
469
330
434
100
AcDbEntity
  8
化粧台
  6
CONTINUOUS
 62
     2
100
AcDbVertex
100
AcDb2dVertex
 10
2372.928371037129
 20
1971.590071708835
 30
0.0
  0
VERTEX
  5
46A
330
434
100
AcDbEntity
  8
化粧台
  6
CONTINUOUS
 62
     2
100
AcDbVertex
100
AcDb2dVertex
 10
2372.931985147962
 20
1971.624407524711
 30
0.0
  0
VERTEX
  5
46B
330
434
100
AcDbEntity
  8
化粧台
  6
CONTINUOUS
 62
     2
100
AcDbVertex
100
AcDb2dVertex
 10
2372.935689870044
 20
1971.659055444252
 30
0.0
  0
VERTEX
  5
46C
330
434
100
AcDbEntity
  8
化粧台
  6
CONTINUOUS
 62
     2
100
AcDbVertex
100
AcDb2dVertex
 10
2372.939491249704
 20
1971.694056872962
 30
0.0
  0
VERTEX
  5
46D
330
434
100
AcDbEntity
  8
化粧台
  6
CONTINUOUS
 62
     2
100
AcDbVertex
100
AcDb2dVertex
 10
2372.942407937582
 20
1971.720556533003
 30
0.0
  0
VERTEX
  5
46E
330
434
100
AcDbEntity
  8
化粧台
  6
CONTINUOUS
 62
     2
100
AcDbVertex
100
AcDb2dVertex
 10
2372.945367667641
 20
1971.747166280859
 30
0.0
  0
VERTEX
  5
46F
330
434
100
AcDbEntity
  8
化粧台
  6
CONTINUOUS
 62
     2
100
AcDbVertex
100
AcDb2dVertex
 10
2372.948355653304
 20
1971.773773842554
 30
0.0
  0
VERTEX
  5
470
330
434
100
AcDbEntity
  8
化粧台
  6
CONTINUOUS
 62
     2
100
AcDbVertex
100
AcDb2dVertex
 10
2372.951357107995
 20
1971.80026694411
 30
0.0
  0
VERTEX
  5
471
330
434
100
AcDbEntity
  8
化粧台
  6
CONTINUOUS
 62
     2
100
AcDbVertex
100
AcDb2dVertex
 10
2372.954357245141
 20
1971.826533311548
 30
0.0
  0
VERTEX
  5
472
330
434
100
AcDbEntity
  8
化粧台
  6
CONTINUOUS
 62
     2
100
AcDbVertex
100
AcDb2dVertex
 10
2372.957341278163
 20
1971.852460670892
 30
0.0
  0
VERTEX
  5
473
330
434
100
AcDbEntity
  8
化粧台
  6
CONTINUOUS
 62
     2
100
AcDbVertex
100
AcDb2dVertex
 10
2372.960294420489
 20
1971.877936748162
 30
0.0
  0
VERTEX
  5
474
330
434
100
AcDbEntity
  8
化粧台
  6
CONTINUOUS
 62
     2
100
AcDbVertex
100
AcDb2dVertex
 10
2372.963201885541
 20
1971.902849269383
 30
0.0
  0
VERTEX
  5
475
330
434
100
AcDbEntity
  8
化粧台
  6
CONTINUOUS
 62
     2
100
AcDbVertex
100
AcDb2dVertex
 10
2372.966048886745
 20
1971.927085960575
 30
0.0
  0
VERTEX
  5
476
330
434
100
AcDbEntity
  8
化粧台
  6
CONTINUOUS
 62
     2
100
AcDbVertex
100
AcDb2dVertex
 10
2372.968820637525
 20
1971.950534547761
 30
0.0
  0
VERTEX
  5
477
330
434
100
AcDbEntity
  8
化粧台
  6
CONTINUOUS
 62
     2
100
AcDbVertex
100
AcDb2dVertex
 10
2372.971502351305
 20
1971.973082756962
 30
0.0
  0
VERTEX
  5
478
330
434
100
AcDbEntity
  8
化粧台
  6
CONTINUOUS
 62
     2
100
AcDbVertex
100
AcDb2dVertex
 10
2372.97311431156
 20
1971.986566058643
 30
0.0
  0
VERTEX
  5
479
330
434
100
AcDbEntity
  8
化粧台
  6
CONTINUOUS
 62
     2
100
AcDbVertex
100
AcDb2dVertex
 10
2372.974713076294
 20
1971.999868178589
 30
0.0
  0
VERTEX
  5
47A
330
434
100
AcDbEntity
  8
化粧台
  6
CONTINUOUS
 62
     2
100
AcDbVertex
100
AcDb2dVertex
 10
2372.976325538337
 20
1972.013195210026
 30
0.0
  0
VERTEX
  5
47B
330
434
100
AcDbEntity
  8
化粧台
  6
CONTINUOUS
 62
     2
100
AcDbVertex
100
AcDb2dVertex
 10
2372.977978590516
 20
1972.026753246175
 30
0.0
  0
VERTEX
  5
47C
330
434
100
AcDbEntity
  8
化粧台
  6
CONTINUOUS
 62
     2
100
AcDbVertex
100
AcDb2dVertex
 10
2372.979699125661
 20
1972.040748380264
 30
0.0
  0
VERTEX
  5
47D
330
434
100
AcDbEntity
  8
化粧台
  6
CONTINUOUS
 62
     2
100
AcDbVertex
100
AcDb2dVertex
 10
2372.981514036599
 20
1972.055386705515
 30
0.0
  0
VERTEX
  5
47E
330
434
100
AcDbEntity
  8
化粧台
  6
CONTINUOUS
 62
     2
100
AcDbVertex
100
AcDb2dVertex
 10
2372.98345021616
 20
1972.070874315153
 30
0.0
  0
VERTEX
  5
47F
330
434
100
AcDbEntity
  8
化粧台
  6
CONTINUOUS
 62
     2
100
AcDbVertex
100
AcDb2dVertex
 10
2372.985534557171
 20
1972.087417302402
 30
0.0
  0
VERTEX
  5
480
330
434
100
AcDbEntity
  8
化粧台
  6
CONTINUOUS
 62
     2
100
AcDbVertex
100
AcDb2dVertex
 10
2372.987793952464
 20
1972.105221760487
 30
0.0
  0
VERTEX
  5
481
330
434
100
AcDbEntity
  8
化粧台
  6
CONTINUOUS
 62
     2
100
AcDbVertex
100
AcDb2dVertex
 10
2372.990255294864
 20
1972.124493782633
 30
0.0
  0
VERTEX
  5
482
330
434
100
AcDbEntity
  8
化粧台
  6
CONTINUOUS
 62
     2
100
AcDbVertex
100
AcDb2dVertex
 10
2372.992945477202
 20
1972.145439462063
 30
0.0
  0
VERTEX
  5
483
330
434
100
AcDbEntity
  8
化粧台
  6
CONTINUOUS
 62
     2
100
AcDbVertex
100
AcDb2dVertex
 10
2372.993846468961
 20
1972.152431884937
 30
0.0
  0
VERTEX
  5
484
330
434
100
AcDbEntity
  8
化粧台
  6
CONTINUOUS
 62
     2
100
AcDbVertex
100
AcDb2dVertex
 10
2372.994753728863
 20
1972.15946425336
 30
0.0
  0
VERTEX
  5
485
330
434
100
AcDbEntity
  8
化粧台
  6
CONTINUOUS
 62
     2
100
AcDbVertex
100
AcDb2dVertex
 10
2372.995647856093
 20
1972.166387834532
 30
0.0
  0
VERTEX
  5
486
330
434
100
AcDbEntity
  8
化粧台
  6
CONTINUOUS
 62
     2
100
AcDbVertex
100
AcDb2dVertex
 10
2372.996509449836
 20
1972.173053895655
 30
0.0
  0
VERTEX
  5
487
330
434
100
AcDbEntity
  8
化粧台
  6
CONTINUOUS
 62
     2
100
AcDbVertex
100
AcDb2dVertex
 10
2372.997319109279
 20
1972.179313703931
 30
0.0
  0
VERTEX
  5
488
330
434
100
AcDbEntity
  8
化粧台
  6
CONTINUOUS
 62
     2
100
AcDbVertex
100
AcDb2dVertex
 10
2372.998057433606
 20
1972.18501852656
 30
0.0
  0
VERTEX
  5
489
330
434
100
AcDbEntity
  8
化粧台
  6
CONTINUOUS
 62
     2
100
AcDbVertex
100
AcDb2dVertex
 10
2372.998705022003
 20
1972.190019630745
 30
0.0
  0
VERTEX
  5
48A
330
434
100
AcDbEntity
  8
化粧台
  6
CONTINUOUS
 62
     2
100
AcDbVertex
100
AcDb2dVertex
 10
2372.999242473656
 20
1972.194168283686
 30
0.0
  0
VERTEX
  5
48B
330
434
100
AcDbEntity
  8
化粧台
  6
CONTINUOUS
 62
     2
100
AcDbVertex
100
AcDb2dVertex
 10
2372.999650387751
 20
1972.197315752585
 30
0.0
  0
VERTEX
  5
48C
330
434
100
AcDbEntity
  8
化粧台
  6
CONTINUOUS
 62
     2
100
AcDbVertex
100
AcDb2dVertex
 10
2372.999909363471
 20
1972.199313304644
 30
0.0
  0
VERTEX
  5
48D
330
434
100
AcDbEntity
  8
化粧台
  6
CONTINUOUS
 62
     2
100
AcDbVertex
100
AcDb2dVertex
 10
2373.000000000003
 20
1972.200012207063
 30
0.0
  0
SEQEND
  5
48E
330
434
100
AcDbEntity
  8
化粧台
  6
CONTINUOUS
 62
     2
  0
ARC
  5
48F
330
1F
100
AcDbEntity
  8
化粧台
  6
CONTINUOUS
 62
     2
100
AcDbCircle
 10
2372.000000000003
 20
1978.389549246862
 30
0.0
 40
1.0
100
AcDbArc
 50
0.0
 51
85.7804438570404
  0
LINE
  5
490
330
1F
100
AcDbEntity
  8
化粧台
  6
CONTINUOUS
 62
     2
100
AcDbLine
 10
2327.000000000003
 20
1949.200012207063
 30
0.0
 11
2327.000000000002
 21
1967.13830575952
 31
0.0
  0
LINE
  5
491
330
1F
100
AcDbEntity
  8
化粧台
  6
CONTINUOUS
 62
     2
100
AcDbLine
 10
2350.000000000003
 20
1949.200012207064
 30
0.0
 11
2372.732135843405
 21
1959.800181236963
 31
0.0
  0
LINE
  5
492
330
1F
100
AcDbEntity
  8
化粧台
  6
CONTINUOUS
 62
     2
100
AcDbLine
 10
2327.000000000003
 20
1949.200012207063
 30
0.0
 11
2350.0
 21
1949.200012207063
 31
0.0
  0
LINE
  5
493
330
1F
100
AcDbEntity
  8
化粧台
  6
CONTINUOUS
 62
     2
100
AcDbLine
 10
2368.183078167126
 20
1957.67892080514
 30
0.0
 11
2371.500000000003
 21
1945.300000000113
 31
0.0
  0
LINE
  5
494
330
1F
100
AcDbEntity
  8
化粧台
  6
CONTINUOUS
 62
     2
100
AcDbLine
 10
2329.545005121326
 20
1949.200012207063
 30
0.0
 11
2328.500000000002
 21
1945.300000000113
 31
0.0
  0
LINE
  5
495
330
1F
100
AcDbEntity
  8
化粧台
  6
CONTINUOUS
 62
     2
100
AcDbLine
 10
2371.500000000003
 20
1945.300000000113
 30
0.0
 11
2350.000000000003
 21
1945.300000000113
 31
0.0
  0
LINE
  5
496
330
1F
100
AcDbEntity
  8
化粧台
  6
CONTINUOUS
 62
     2
100
AcDbLine
 10
2328.000000000002
 20
1945.300000000031
 30
0.0
 11
2350.000000000005
 21
1945.300000000039
 31
0.0
  0
ARC
  5
497
330
1F
100
AcDbEntity
  8
化粧台
  6
CONTINUOUS
 62
     2
100
AcDbCircle
 10
2328.000000000003
 20
1978.389549246862
 30
0.0
 40
1.0
100
AcDbArc
 50
94.21955614295965
 51
180.0
  0
LINE
  5
498
330
1F
100
AcDbEntity
  8
化粧台
  6
CONTINUOUS
 62
     2
100
AcDbLine
 10
2327.000000000003
 20
1978.389549246862
 30
0.0
 11
2327.000000000002
 21
1975.261718654606
 31
0.0
  0
LINE
  5
499
330
1F
100
AcDbEntity
  8
化粧台
  6
CONTINUOUS
 62
     2
100
AcDbLine
 10
2257.451379324694
 20
1912.4924679235
 30
0.0
 11
2256.158236314162
 21
1905.158689477713
 31
0.0
  0
LINE
  5
49A
330
1F
100
AcDbEntity
  8
化粧台
  6
CONTINUOUS
 62
     2
100
AcDbLine
 10
2233.815993252399
 20
1916.660024187499
 30
0.0
 11
2232.52285024187
 21
1909.32624574172
 31
0.0
  0
LINE
  5
49B
330
1F
100
AcDbEntity
  8
化粧台
  6
CONTINUOUS
 62
     2
100
AcDbLine
 10
2245.633686288545
 20
1914.5762460555
 30
0.0
 11
2260.405802583728
 21
1911.971523390496
 31
0.0
  0
LINE
  5
49C
330
1F
100
AcDbEntity
  8
化粧台
  6
CONTINUOUS
 62
     2
100
AcDbLine
 10
2327.500000000003
 20
1944.800000000031
 30
0.0
 11
2327.500000000003
 21
1920.23788485813
 31
0.0
  0
LINE
  5
49D
330
1F
100
AcDbEntity
  8
化粧台
  6
CONTINUOUS
 62
     2
100
AcDbLine
 10
2379.655424036365
 20
1897.071615551347
 30
0.0
 11
2384.839569595015
 21
1897.071615551347
 31
0.0
  0
LINE
  5
49E
330
1F
100
AcDbEntity
  8
化粧台
  6
CONTINUOUS
 62
     2
100
AcDbLine
 10
2379.655424036365
 20
1891.071615551347
 30
0.0
 11
2384.839569595015
 21
1891.071615551347
 31
0.0
  0
LINE
  5
49F
330
1F
100
AcDbEntity
  8
化粧台
  6
CONTINUOUS
 62
     2
100
AcDbLine
 10
2384.839569595018
 20
1894.071615551347
 30
0.0
 11
2384.839569595018
 21
1889.345391073227
 31
0.0
  0
LINE
  5
4A0
330
1F
100
AcDbEntity
  8
化粧台
  6
CONTINUOUS
 62
     2
100
AcDbLine
 10
2384.839569595018
 20
1898.797840029468
 30
0.0
 11
2384.839569595018
 21
1894.071615551347
 31
0.0
  0
ARC
  5
4A1
330
1F
100
AcDbEntity
  8
化粧台
  6
CONTINUOUS
 62
     2
100
AcDbCircle
 10
2379.655424036365
 20
1887.071615551347
 30
0.0
 40
10.0
100
AcDbArc
 50
90.00000000000001
 51
135.6876687567335
  0
LINE
  5
4A2
330
1F
100
AcDbEntity
  8
化粧台
  6
CONTINUOUS
 62
     2
100
AcDbLine
 10
2372.500000000001
 20
1882.134438068142
 30
0.0
 11
2376.123633664929
 21
1888.94950180249
 31
0.0
  0
LINE
  5
4A3
330
1F
100
AcDbEntity
  8
化粧台
  6
CONTINUOUS
 62
     2
100
AcDbLine
 10
2327.500000000042
 20
1889.77508650156
 30
0.0
 11
2327.500000000042
 21
1858.000000000028
 31
0.0
  0
LINE
  5
4A4
330
1F
100
AcDbEntity
  8
化粧台
  6
CONTINUOUS
 62
     2
100
AcDbLine
 10
2327.000000000003
 20
1975.870974621736
 30
0.0
 11
2327.938238202735
 21
1975.705537912263
 31
0.0
  0
LINE
  5
4A5
330
1F
100
AcDbEntity
  8
化粧台
  6
CONTINUOUS
 62
     2
100
AcDbLine
 10
2327.000000000003
 20
1975.870974621736
 30
0.0
 11
2327.938238202735
 21
1975.705537912263
 31
0.0
  0
LINE
  5
4A6
330
1F
100
AcDbEntity
  8
化粧台
  6
CONTINUOUS
 62
     2
100
AcDbLine
 10
2327.000000000003
 20
1966.529049792389
 30
0.0
 11
2327.938238202735
 21
1966.363613082916
 31
0.0
  0
LINE
  5
4A7
330
1F
100
AcDbEntity
  8
化粧台
  6
CONTINUOUS
 62
     2
100
AcDbLine
 10
2327.000000000003
 20
1966.529049792389
 30
0.0
 11
2327.938238202735
 21
1966.363613082916
 31
0.0
  0
LINE
  5
4A8
330
1F
100
AcDbEntity
  8
化粧台
  6
CONTINUOUS
 62
     2
100
AcDbLine
 10
2230.100955168786
 20
1917.315085636003
 30
0.0
 11
2245.633686288546
 21
1914.5762460555
 31
0.0
  0
ARC
  5
4A9
330
1F
100
AcDbEntity
  8
化粧台
  6
CONTINUOUS
 62
     2
100
AcDbCircle
 10
2305.72788370482
 20
1908.845497209811
 30
0.0
 40
78.0
100
AcDbArc
 50
160.1509730893516
 51
172.1050093001875
  0
LINE
  5
4AA
330
1F
100
AcDbEntity
  8
化粧台
  6
CONTINUOUS
 62
     2
100
AcDbLine
 10
2324.443805466735
 20
1977.74329794253
 30
0.0
 11
2265.777757812508
 21
1988.087704995506
 31
0.0
  0
LINE
  5
4AB
330
1F
100
AcDbEntity
  8
化粧台
  6
CONTINUOUS
 62
     2
100
AcDbLine
 10
2327.500000000004
 20
1889.77508650156
 30
0.0
 11
2327.500000000003
 21
1857.500000000003
 31
0.0
  0
LINE
  5
4AC
330
1F
100
AcDbEntity
  8
化粧台
  6
CONTINUOUS
 62
     2
100
AcDbLine
 10
2372.500000000003
 20
1894.057308563486
 30
0.0
 11
2372.500000000003
 21
1857.5
 31
0.0
  0
LINE
  5
4AD
330
1F
100
AcDbEntity
  8
化粧台
  6
EXLTYPE3
 62
     6
100
AcDbLine
 10
2350.000000000003
 20
1842.0
 30
0.0
 11
2350.000000000003
 21
1984.421378373131
 31
0.0
  0
LINE
  5
4AE
330
1F
100
AcDbEntity
  8
鏡台
  6
CONTINUOUS
 62
     2
100
AcDbLine
 10
680.0000000000003
 20
2766.3
 30
0.0
 11
680.0000000000003
 21
2266.3
 31
0.0
  0
LINE
  5
4AF
330
1F
100
AcDbEntity
  8
鏡台
  6
CONTINUOUS
 62
     2
100
AcDbLine
 10
680.0000000000003
 20
2766.3
 30
0.0
 11
681.5000000000003
 21
2766.3
 31
0.0
  0
LINE
  5
4B0
330
1F
100
AcDbEntity
  8
鏡台
  6
CONTINUOUS
 62
     2
100
AcDbLine
 10
680.0000000000003
 20
2266.3
 30
0.0
 11
681.5000000000003
 21
2266.3
 31
0.0
  0
LINE
  5
4B1
330
1F
100
AcDbEntity
  8
鏡台
  6
CONTINUOUS
 62
     4
100
AcDbLine
 10
681.5000000000003
 20
2275.1
 30
0.0
 11
681.5000000000003
 21
2265.1
 31
0.0
  0
LINE
  5
4B2
330
1F
100
AcDbEntity
  8
鏡台
  6
CONTINUOUS
 62
     4
100
AcDbLine
 10
681.5000000000003
 20
2757.5
 30
0.0
 11
681.5000000000003
 21
2767.5
 31
0.0
  0
LINE
  5
4B3
330
1F
100
AcDbEntity
  8
鏡台
  6
CONTINUOUS
 62
     2
100
AcDbLine
 10
1128.5
 20
2766.3
 30
0.0
 11
1130.0
 21
2766.3
 31
0.0
  0
LINE
  5
4B4
330
1F
100
AcDbEntity
  8
鏡台
  6
CONTINUOUS
 62
     4
100
AcDbLine
 10
1128.5
 20
2757.5
 30
0.0
 11
1128.5
 21
2767.5
 31
0.0
  0
LINE
  5
4B5
330
1F
100
AcDbEntity
  8
鏡台
  6
CONTINUOUS
 62
     4
100
AcDbLine
 10
1128.5
 20
2767.5
 30
0.0
 11
681.5000000000003
 21
2767.5
 31
0.0
  0
LINE
  5
4B6
330
1F
100
AcDbEntity
  8
鏡台
  6
CONTINUOUS
 62
     4
100
AcDbLine
 10
1128.5
 20
2757.5
 30
0.0
 11
681.5000000000003
 21
2757.5
 31
0.0
  0
LINE
  5
4B7
330
1F
100
AcDbEntity
  8
鏡台
  6
EXLTYPE3
 62
     6
100
AcDbLine
 10
1130.0
 20
2766.3
 30
0.0
 11
680.0000000000003
 21
2516.3
 31
0.0
  0
LINE
  5
4B8
330
1F
100
AcDbEntity
  8
鏡台
  6
CONTINUOUS
 62
     6
100
AcDbLine
 10
737.0000000000005
 20
2331.299999999999
 30
0.0
 11
773.0000000000005
 21
2331.299999999999
 31
0.0
  0
LINE
  5
4B9
330
1F
100
AcDbEntity
  8
鏡台
  6
CONTINUOUS
 62
     6
100
AcDbLine
 10
755.0000000000005
 20
2313.3
 30
0.0
 11
755.0000000000005
 21
2349.3
 31
0.0
  0
CIRCLE
  5
4BA
330
1F
100
AcDbEntity
  8
鏡台
  6
EXLTYPE2
 62
     6
100
AcDbCircle
 10
755.0000000000005
 20
2331.3
 30
0.0
 40
2.5
  0
CIRCLE
  5
4BB
330
1F
100
AcDbEntity
  8
鏡台
  6
EXLTYPE2
 62
     6
100
AcDbCircle
 10
755.0000000000005
 20
2331.3
 30
0.0
 40
8.0
  0
LINE
  5
4BC
330
1F
100
AcDbEntity
  8
鏡台
  6
CONTINUOUS
 62
     6
100
AcDbLine
 10
1037.0
 20
2331.299999999999
 30
0.0
 11
1073.0
 21
2331.299999999999
 31
0.0
  0
LINE
  5
4BD
330
1F
100
AcDbEntity
  8
鏡台
  6
CONTINUOUS
 62
     6
100
AcDbLine
 10
1055.0
 20
2313.3
 30
0.0
 11
1055.0
 21
2349.3
 31
0.0
  0
CIRCLE
  5
4BE
330
1F
100
AcDbEntity
  8
鏡台
  6
EXLTYPE2
 62
     6
100
AcDbCircle
 10
1055.0
 20
2331.3
 30
0.0
 40
2.5
  0
CIRCLE
  5
4BF
330
1F
100
AcDbEntity
  8
鏡台
  6
EXLTYPE2
 62
     6
100
AcDbCircle
 10
1055.0
 20
2331.3
 30
0.0
 40
8.0
  0
LINE
  5
4C0
330
1F
100
AcDbEntity
  8
鏡台
  6
CONTINUOUS
 62
     6
100
AcDbLine
 10
1037.0
 20
2711.299999999999
 30
0.0
 11
1073.0
 21
2711.299999999999
 31
0.0
  0
LINE
  5
4C1
330
1F
100
AcDbEntity
  8
鏡台
  6
CONTINUOUS
 62
     6
100
AcDbLine
 10
1055.0
 20
2693.3
 30
0.0
 11
1055.0
 21
2729.3
 31
0.0
  0
CIRCLE
  5
4C2
330
1F
100
AcDbEntity
  8
鏡台
  6
EXLTYPE2
 62
     6
100
AcDbCircle
 10
1055.0
 20
2711.3
 30
0.0
 40
2.5
  0
CIRCLE
  5
4C3
330
1F
100
AcDbEntity
  8
鏡台
  6
EXLTYPE2
 62
     6
100
AcDbCircle
 10
1055.0
 20
2711.3
 30
0.0
 40
8.0
  0
LINE
  5
4C4
330
1F
100
AcDbEntity
  8
鏡台
  6
CONTINUOUS
 62
     6
100
AcDbLine
 10
737.0000000000005
 20
2711.299999999999
 30
0.0
 11
773.0000000000005
 21
2711.299999999999
 31
0.0
  0
LINE
  5
4C5
330
1F
100
AcDbEntity
  8
鏡台
  6
CONTINUOUS
 62
     6
100
AcDbLine
 10
755.0000000000005
 20
2693.3
 30
0.0
 11
755.0000000000005
 21
2729.3
 31
0.0
  0
CIRCLE
  5
4C6
330
1F
100
AcDbEntity
  8
鏡台
  6
EXLTYPE2
 62
     6
100
AcDbCircle
 10
755.0000000000005
 20
2711.3
 30
0.0
 40
2.5
  0
CIRCLE
  5
4C7
330
1F
100
AcDbEntity
  8
鏡台
  6
EXLTYPE2
 62
     6
100
AcDbCircle
 10
755.0000000000005
 20
2711.3
 30
0.0
 40
8.0
  0
LINE
  5
4C8
330
1F
100
AcDbEntity
  8
鏡台
  6
CONTINUOUS
 62
     2
100
AcDbLine
 10
1130.0
 20
2266.3
 30
0.0
 11
1128.5
 21
2266.3
 31
0.0
  0
LINE
  5
4C9
330
1F
100
AcDbEntity
  8
鏡台
  6
CONTINUOUS
 62
     4
100
AcDbLine
 10
1128.5
 20
2275.1
 30
0.0
 11
1128.5
 21
2265.1
 31
0.0
  0
LINE
  5
4CA
330
1F
100
AcDbEntity
  8
鏡台
  6
CONTINUOUS
 62
     2
100
AcDbLine
 10
1130.0
 20
2766.3
 30
0.0
 11
1130.0
 21
2266.3
 31
0.0
  0
LINE
  5
4CB
330
1F
100
AcDbEntity
  8
鏡台
  6
CONTINUOUS
 62
     4
100
AcDbLine
 10
1128.5
 20
2275.1
 30
0.0
 11
681.5000000000003
 21
2275.1
 31
0.0
  0
LINE
  5
4CC
330
1F
100
AcDbEntity
  8
鏡台
  6
CONTINUOUS
 62
     4
100
AcDbLine
 10
1128.5
 20
2265.1
 30
0.0
 11
681.5000000000003
 21
2265.1
 31
0.0
  0
LINE
  5
4CD
330
1F
100
AcDbEntity
  8
鏡台
  6
EXLTYPE3
 62
     6
100
AcDbLine
 10
1130.0
 20
2266.3
 30
0.0
 11
680.0000000000003
 21
2516.3
 31
0.0
  0
LINE
  5
4CE
330
1F
100
AcDbEntity
  8
鏡台
  6
EXLTYPE2
 62
     6
100
AcDbLine
 10
1130.0
 20
2760.3
 30
0.0
 11
680.0000000000003
 21
2760.3
 31
0.0
  0
LINE
  5
4CF
330
1F
100
AcDbEntity
  8
鏡台
  6
EXLTYPE2
 62
     6
100
AcDbLine
 10
1130.0
 20
2281.3
 30
0.0
 11
680.0000000000002
 21
2281.3
 31
0.0
  0
LINE
  5
4D0
330
1F
100
AcDbEntity
  8
鏡台
  6
CONTINUOUS
 62
     6
100
AcDbLine
 10
822.2144660940687
 20
2392.585533905902
 30
0.0
 11
809.4644660940687
 21
2379.835533905905
 31
0.0
  0
LINE
  5
4D1
330
1F
100
AcDbEntity
  8
鏡台
  6
CONTINUOUS
 62
     6
100
AcDbLine
 10
801.5000000000002
 20
2364.799999999974
 30
0.0
 11
834.0000000000039
 21
2397.299999999971
 31
0.0
  0
LINE
  5
4D2
330
1F
100
AcDbEntity
  8
鏡台
  6
CONTINUOUS
 62
     6
100
AcDbLine
 10
812.0355339059336
 20
2368.264466094037
 30
0.0
 11
827.0355339059354
 21
2383.264466094035
 31
0.0
  0
LINE
  5
4D3
330
1F
100
AcDbEntity
  8
鏡台
  6
CONTINUOUS
 62
     6
100
AcDbLine
 10
996.2144660940688
 20
2495.585533905902
 30
0.0
 11
983.4644660940688
 21
2482.835533905905
 31
0.0
  0
LINE
  5
4D4
330
1F
100
AcDbEntity
  8
鏡台
  6
CONTINUOUS
 62
     6
100
AcDbLine
 10
975.4999999999985
 20
2467.799999999974
 30
0.0
 11
1008.000000000002
 21
2500.299999999971
 31
0.0
  0
LINE
  5
4D5
330
1F
100
AcDbEntity
  8
鏡台
  6
CONTINUOUS
 62
     6
100
AcDbLine
 10
986.0355339059337
 20
2471.264466094037
 30
0.0
 11
1001.035533905935
 21
2486.264466094035
 31
0.0
  0
LINE
  5
4D6
330
1F
100
AcDbEntity
  8
鏡台
  6
CONTINUOUS
 62
     6
100
AcDbLine
 10
840.1106925091589
 20
2660.972326358702
 30
0.0
 11
827.3606925091589
 21
2648.222326358705
 31
0.0
  0
LINE
  5
4D7
330
1F
100
AcDbEntity
  8
鏡台
  6
CONTINUOUS
 62
     6
100
AcDbLine
 10
819.3962264150886
 20
2633.186792452774
 30
0.0
 11
851.8962264150922
 21
2665.686792452771
 31
0.0
  0
LINE
  5
4D8
330
1F
100
AcDbEntity
  8
鏡台
  6
CONTINUOUS
 62
     6
100
AcDbLine
 10
829.9317603210237
 20
2636.651258546837
 30
0.0
 11
844.9317603210255
 21
2651.651258546835
 31
0.0
  0
DIMENSION
  5
4D9
330
1F
100
AcDbEntity
  8
鏡台
  6
CONTINUOUS
 62
     3
100
AcDbDimension
  2
*D16
 10
1130.0
 20
2907.5
 30
0.0
 11
905.0
 21
2942.749999910593
 31
0.0
 70
   160
  3
ISO-25
100
AcDbAlignedDimension
 13
680.0
 23
2766.3
 33
0.0
 14
1130.0
 24
2766.3
 34
0.0
100
AcDbRotatedDimension
1001
ACAD
1000
DSTYLE
1002
{
1070
   270
1070
     2
1070
     6
1000
EX_NORM
1070
     7
1000
EX_NORM
1070
    41
1040
44.99999618530273
1070
    42
1040
10.49999982118607
1070
    44
1040
15.0
1070
    73
1070
     0
1070
    74
1070
     0
1070
    75
1070
     0
1070
    76
1070
     0
1070
    77
1070
     1
1070
    78
1070
     8
1070
   140
1040
59.99999618530273
1070
   147
1040
0.0
1070
   173
1070
     1
1070
   176
1070
     3
1070
   177
1070
     3
1070
   178
1070
     2
1070
   271
1070
     2
1070
   277
1070
     2
1070
   279
1070
     2
1070
   280
1070
     0
1070
   287
1070
     5
1070
   340
1005
392
1002
}
  0
DIMENSION
  5
4E6
330
1F
100
AcDbEntity
  8
鏡台
  6
CONTINUOUS
 62
     3
100
AcDbDimension
  2
*D17
 10
1459.999999999996
 20
2767.5
 30
0.0
 11
1424.750000089404
 21
2516.299999999998
 31
0.0
 70
   160
  1
503
  3
ISO-25
100
AcDbAlignedDimension
 13
1128.5
 23
2265.099999999999
 33
0.0
 14
1128.5
 24
2767.5
 34
0.0
 50
90.0
100
AcDbRotatedDimension
1001
ACAD
1000
DSTYLE
1002
{
1070
   270
1070
     2
1070
     6
1000
EX_NORM
1070
     7
1000
EX_NORM
1070
    41
1040
44.99999618530273
1070
    42
1040
10.49999982118607
1070
    44
1040
15.0
1070
    73
1070
     0
1070
    74
1070
     0
1070
    75
1070
     0
1070
    76
1070
     0
1070
    77
1070
     1
1070
    78
1070
     8
1070
   140
1040
59.99999618530273
1070
   147
1040
0.0
1070
   173
1070
     1
1070
   176
1070
     3
1070
   177
1070
     3
1070
   178
1070
     2
1070
   271
1070
     2
1070
   277
1070
     2
1070
   279
1070
     2
1070
   280
1070
     0
1070
   287
1070
     5
1070
   340
1005
392
1002
}
  0
DIMENSION
  5
4F3
330
1F
100
AcDbEntity
  8
鏡台
  6
CONTINUOUS
 62
     3
100
AcDbDimension
  2
*D18
 10
1055.0
 20
2827.5
 30
0.0
 11
905.0000000000005
 21
2862.749999910593
 31
0.0
 70
   160
  1
<>（壁固定）
  3
ISO-25
100
AcDbAlignedDimension
 13
755.0000000000002
 23
2719.3
 33
0.0
 14
1055.0
 24
2719.3
 34
0.0
100
AcDbRotatedDimension
1001
ACAD
1000
DSTYLE
1002
{
1070
   270
1070
     2
1070
     6
1000
EX_NORM
1070
     7
1000
EX_NORM
1070
    41
1040
44.99999618530273
1070
    42
1040
10.49999982118607
1070
    44
1040
15.0
1070
    73
1070
     0
1070
    74
1070
     0
1070
    75
1070
     0
1070
    76
1070
     0
1070
    77
1070
     1
1070
    78
1070
     8
1070
   140
1040
59.99999618530273
1070
   147
1040
0.0
1070
   173
1070
     1
1070
   176
1070
     3
1070
   177
1070
     3
1070
   178
1070
     2
1070
   271
1070
     2
1070
   277
1070
     2
1070
   279
1070
     2
1070
   280
1070
     0
1070
   287
1070
     5
1070
   340
1005
392
1002
}
  0
LINE
  5
500
330
1F
100
AcDbEntity
  8
鏡台
  6
EXLTYPE2
 62
     6
100
AcDbLine
 10
696.0000000000001
 20
2578.3
 30
0.0
 11
696.0000000000001
 21
2538.3
 31
0.0
  0
LINE
  5
501
330
1F
100
AcDbEntity
  8
鏡台
  6
EXLTYPE2
 62
     6
100
AcDbLine
 10
1114.0
 20
2578.3
 30
0.0
 11
1114.0
 21
2538.3
 31
0.0
  0
LINE
  5
502
330
1F
100
AcDbEntity
  8
鏡台
  6
EXLTYPE2
 62
     6
100
AcDbLine
 10
1114.0
 20
2578.3
 30
0.0
 11
696.0000000000001
 21
2578.3
 31
0.0
  0
LINE
  5
503
330
1F
100
AcDbEntity
  8
鏡台
  6
EXLTYPE2
 62
     6
100
AcDbLine
 10
1114.0
 20
2538.3
 30
0.0
 11
696.0000000000001
 21
2538.3
 31
0.0
  0
LINE
  5
504
330
1F
100
AcDbEntity
  8
鏡台
  6
EXLTYPE2
 62
     6
100
AcDbLine
 10
696.0000000000001
 20
2338.3
 30
0.0
 11
696.0000000000001
 21
2298.3
 31
0.0
  0
LINE
  5
505
330
1F
100
AcDbEntity
  8
鏡台
  6
EXLTYPE2
 62
     6
100
AcDbLine
 10
1114.0
 20
2338.3
 30
0.0
 11
1114.0
 21
2298.3
 31
0.0
  0
LINE
  5
506
330
1F
100
AcDbEntity
  8
鏡台
  6
EXLTYPE2
 62
     6
100
AcDbLine
 10
1114.0
 20
2338.3
 30
0.0
 11
696.0000000000001
 21
2338.3
 31
0.0
  0
LINE
  5
507
330
1F
100
AcDbEntity
  8
鏡台
  6
EXLTYPE2
 62
     6
100
AcDbLine
 10
1114.0
 20
2298.3
 30
0.0
 11
696.0000000000001
 21
2298.3
 31
0.0
  0
LINE
  5
508
330
1F
100
AcDbEntity
  8
鏡台
  6
CONTINUOUS
 62
     2
100
AcDbLine
 10
2318.0
 20
2766.3
 30
0.0
 11
2333.0
 21
2766.3
 31
0.0
  0
LINE
  5
509
330
1F
100
AcDbEntity
  8
鏡台
  6
CONTINUOUS
 62
     2
100
AcDbLine
 10
2318.0
 20
2266.3
 30
0.0
 11
2333.0
 21
2266.3
 31
0.0
  0
LINE
  5
50A
330
1F
100
AcDbEntity
  8
鏡台
  6
CONTINUOUS
 62
     2
100
AcDbLine
 10
2315.0
 20
2765.8
 30
0.0
 11
2315.0
 21
2266.8
 31
0.0
  0
LINE
  5
50B
330
1F
100
AcDbEntity
  8
鏡台
  6
CONTINUOUS
 62
     2
100
AcDbLine
 10
2315.0
 20
2765.8
 30
0.0
 11
2318.0
 21
2765.8
 31
0.0
  0
LINE
  5
50C
330
1F
100
AcDbEntity
  8
鏡台
  6
CONTINUOUS
 62
     2
100
AcDbLine
 10
2315.0
 20
2266.8
 30
0.0
 11
2318.0
 21
2266.8
 31
0.0
  0
LINE
  5
50D
330
1F
100
AcDbEntity
  8
鏡台
  6
CONTINUOUS
 62
     2
100
AcDbLine
 10
2318.0
 20
2766.3
 30
0.0
 11
2318.0
 21
2266.3
 31
0.0
  0
LINE
  5
50E
330
1F
100
AcDbEntity
  8
鏡台
  6
CONTINUOUS
 62
     4
100
AcDbLine
 10
2313.800000000003
 20
2767.5
 30
0.0
 11
2313.800000000003
 21
2757.5
 31
0.0
  0
LINE
  5
50F
330
1F
100
AcDbEntity
  8
鏡台
  6
CONTINUOUS
 62
     4
100
AcDbLine
 10
2313.8
 20
2757.5
 30
0.0
 11
2315.0
 21
2757.5
 31
0.0
  0
LINE
  5
510
330
1F
100
AcDbEntity
  8
鏡台
  6
CONTINUOUS
 62
     4
100
AcDbLine
 10
2315.0
 20
2757.5
 30
0.0
 11
2315.0
 21
2766.3
 31
0.0
  0
LINE
  5
511
330
1F
100
AcDbEntity
  8
鏡台
  6
CONTINUOUS
 62
     4
100
AcDbLine
 10
2313.8
 20
2275.1
 30
0.0
 11
2315.0
 21
2275.1
 31
0.0
  0
LINE
  5
512
330
1F
100
AcDbEntity
  8
鏡台
  6
CONTINUOUS
 62
     4
100
AcDbLine
 10
2313.800000000003
 20
2265.1
 30
0.0
 11
2313.800000000003
 21
2275.1
 31
0.0
  0
LINE
  5
513
330
1F
100
AcDbEntity
  8
鏡台
  6
CONTINUOUS
 62
     4
100
AcDbLine
 10
2315.0
 20
2275.1
 30
0.0
 11
2315.0
 21
2266.3
 31
0.0
  0
LINE
  5
514
330
1F
100
AcDbEntity
  8
鏡台
  6
CONTINUOUS
 62
     4
100
AcDbLine
 10
2333.8
 20
2767.5
 30
0.0
 11
2333.8
 21
2766.3
 31
0.0
  0
LINE
  5
515
330
1F
100
AcDbEntity
  8
鏡台
  6
CONTINUOUS
 62
     4
100
AcDbLine
 10
2315.0
 20
2766.3
 30
0.0
 11
2333.8
 21
2766.3
 31
0.0
  0
LINE
  5
516
330
1F
100
AcDbEntity
  8
鏡台
  6
CONTINUOUS
 62
     4
100
AcDbLine
 10
2313.800000000003
 20
2767.5
 30
0.0
 11
2333.8
 21
2767.5
 31
0.0
  0
LINE
  5
517
330
1F
100
AcDbEntity
  8
鏡台
  6
CONTINUOUS
 62
     4
100
AcDbLine
 10
2333.8
 20
2265.1
 30
0.0
 11
2333.8
 21
2266.3
 31
0.0
  0
LINE
  5
518
330
1F
100
AcDbEntity
  8
鏡台
  6
CONTINUOUS
 62
     4
100
AcDbLine
 10
2313.800000000003
 20
2265.1
 30
0.0
 11
2333.8
 21
2265.1
 31
0.0
  0
LINE
  5
519
330
1F
100
AcDbEntity
  8
鏡台
  6
CONTINUOUS
 62
     4
100
AcDbLine
 10
2315.0
 20
2266.3
 30
0.0
 11
2333.8
 21
2266.3
 31
0.0
  0
LINE
  5
51A
330
1F
100
AcDbEntity
  8
鏡台
  6
CONTINUOUS
 62
     2
100
AcDbLine
 10
2335.0
 20
2761.3
 30
0.0
 11
2335.0
 21
2281.3
 31
0.0
  0
LINE
  5
51B
330
1F
100
AcDbEntity
  8
鏡台
  6
CONTINUOUS
 62
     2
100
AcDbLine
 10
2435.0
 20
2761.3
 30
0.0
 11
2435.0
 21
2281.3
 31
0.0
  0
LINE
  5
51C
330
1F
100
AcDbEntity
  8
鏡台
  6
CONTINUOUS
 62
     2
100
AcDbLine
 10
2335.0
 20
2761.3
 30
0.0
 11
2435.0
 21
2761.3
 31
0.0
  0
LINE
  5
51D
330
1F
100
AcDbEntity
  8
鏡台
  6
CONTINUOUS
 62
     2
100
AcDbLine
 10
2335.0
 20
2281.3
 30
0.0
 11
2435.0
 21
2281.3
 31
0.0
  0
LINE
  5
51E
330
1F
100
AcDbEntity
  8
鏡台
  6
CONTINUOUS
 62
     2
100
AcDbLine
 10
2333.0
 20
2766.3
 30
0.0
 11
2333.0
 21
2266.3
 31
0.0
  0
LINE
  5
51F
330
1F
100
AcDbEntity
  8
鏡台
  6
EXLTYPE3
 62
     6
100
AcDbLine
 10
2475.79999999984
 20
2711.299999999999
 30
0.0
 11
2433.04999999984
 21
2711.299999999999
 31
0.0
  0
ARC
  5
520
330
1F
100
AcDbEntity
  8
鏡台
  6
CONTINUOUS
 62
     6
100
AcDbCircle
 10
2461.661651584699
 20
2697.799999999999
 30
0.0
 40
15.00000000000001
100
AcDbArc
 50
64.15806723683205
 51
90.00000000000004
  0
ARC
  5
521
330
1F
100
AcDbEntity
  8
鏡台
  6
CONTINUOUS
 62
     6
100
AcDbCircle
 10
2461.661651584729
 20
2724.799999999999
 30
0.0
 40
15.00000000000001
100
AcDbArc
 50
270.0000000000002
 51
295.8419327630793
  0
LINE
  5
522
330
1F
100
AcDbEntity
  8
鏡台
  6
CONTINUOUS
 62
     6
100
AcDbLine
 10
2434.999999999999
 20
2709.799999999999
 30
0.0
 11
2461.661651584729
 21
2709.799999999999
 31
0.0
  0
LINE
  5
523
330
1F
100
AcDbEntity
  8
鏡台
  6
CONTINUOUS
 62
     6
100
AcDbLine
 10
2434.999999999999
 20
2712.799999999999
 30
0.0
 11
2461.661651584699
 21
2712.799999999999
 31
0.0
  0
LINE
  5
524
330
1F
100
AcDbEntity
  8
鏡台
  6
EXLTYPE3
 62
     6
100
AcDbLine
 10
2475.79999999984
 20
2331.3
 30
0.0
 11
2433.04999999984
 21
2331.3
 31
0.0
  0
ARC
  5
525
330
1F
100
AcDbEntity
  8
鏡台
  6
CONTINUOUS
 62
     6
100
AcDbCircle
 10
2461.661651584699
 20
2317.8
 30
0.0
 40
15.00000000000001
100
AcDbArc
 50
64.15806723683205
 51
90.00000000000004
  0
ARC
  5
526
330
1F
100
AcDbEntity
  8
鏡台
  6
CONTINUOUS
 62
     6
100
AcDbCircle
 10
2461.661651584729
 20
2344.8
 30
0.0
 40
15.00000000000001
100
AcDbArc
 50
270.0000000000002
 51
295.8419327630793
  0
LINE
  5
527
330
1F
100
AcDbEntity
  8
鏡台
  6
CONTINUOUS
 62
     6
100
AcDbLine
 10
2434.999999999999
 20
2329.8
 30
0.0
 11
2461.661651584729
 21
2329.8
 31
0.0
  0
LINE
  5
528
330
1F
100
AcDbEntity
  8
鏡台
  6
CONTINUOUS
 62
     6
100
AcDbLine
 10
2434.999999999999
 20
2332.8
 30
0.0
 11
2461.661651584699
 21
2332.8
 31
0.0
  0
ARC
  5
529
330
1F
100
AcDbEntity
  8
鏡台
  6
EXLTYPE2
 62
     6
100
AcDbCircle
 10
2354.75
 20
2546.549999999999
 30
0.0
 40
1.250000000000569
100
AcDbArc
 50
180.0
 51
0.0
  0
ARC
  5
52A
330
1F
100
AcDbEntity
  8
鏡台
  6
EXLTYPE2
 62
     6
100
AcDbCircle
 10
2410.75
 20
2542.049999999999
 30
0.0
 40
1.249999999999631
100
AcDbArc
 50
270.0000000000002
 51
90.00000000000004
  0
LINE
  5
52B
330
1F
100
AcDbEntity
  8
鏡台
  6
EXLTYPE2
 62
     6
100
AcDbLine
 10
2341.5
 20
2578.299999999999
 30
0.0
 11
2341.5
 21
2555.799999999999
 31
0.0
  0
LINE
  5
52C
330
1F
100
AcDbEntity
  8
鏡台
  6
EXLTYPE2
 62
     6
100
AcDbLine
 10
2339.0
 20
2578.299999999999
 30
0.0
 11
2341.5
 21
2578.299999999999
 31
0.0
  0
LINE
  5
52D
330
1F
100
AcDbEntity
  8
鏡台
  6
EXLTYPE2
 62
     6
100
AcDbLine
 10
2339.0
 20
2578.299999999999
 30
0.0
 11
2339.0
 21
2538.3
 31
0.0
  0
LINE
  5
52E
330
1F
100
AcDbEntity
  8
鏡台
  6
EXLTYPE2
 62
     6
100
AcDbLine
 10
2339.0
 20
2538.299999999999
 30
0.0
 11
2341.5
 21
2538.299999999999
 31
0.0
  0
LINE
  5
52F
330
1F
100
AcDbEntity
  8
鏡台
  6
EXLTYPE2
 62
     6
100
AcDbLine
 10
2341.5
 20
2553.299999999999
 30
0.0
 11
2341.5
 21
2538.299999999999
 31
0.0
  0
LINE
  5
530
330
1F
100
AcDbEntity
  8
鏡台
  6
EXLTYPE2
 62
     6
100
AcDbLine
 10
2341.5
 20
2553.299999999999
 30
0.0
 11
2353.5
 21
2553.299999999999
 31
0.0
  0
LINE
  5
531
330
1F
100
AcDbEntity
  8
鏡台
  6
EXLTYPE2
 62
     6
100
AcDbLine
 10
2353.5
 20
2553.299999999999
 30
0.0
 11
2353.5
 21
2546.55
 31
0.0
  0
LINE
  5
532
330
1F
100
AcDbEntity
  8
鏡台
  6
EXLTYPE2
 62
     6
100
AcDbLine
 10
2356.0
 20
2553.299999999999
 30
0.0
 11
2356.0
 21
2546.55
 31
0.0
  0
LINE
  5
533
330
1F
100
AcDbEntity
  8
鏡台
  6
EXLTYPE2
 62
     6
100
AcDbLine
 10
2356.0
 20
2553.299999999999
 30
0.0
 11
2401.5
 21
2553.299999999999
 31
0.0
  0
LINE
  5
534
330
1F
100
AcDbEntity
  8
鏡台
  6
EXLTYPE2
 62
     6
100
AcDbLine
 10
2341.5
 20
2555.799999999999
 30
0.0
 11
2417.0
 21
2555.799999999999
 31
0.0
  0
LINE
  5
535
330
1F
100
AcDbEntity
  8
鏡台
  6
EXLTYPE2
 62
     6
100
AcDbLine
 10
2417.0
 20
2555.8
 30
0.0
 11
2417.0
 21
2553.299999999998
 31
0.0
  0
LINE
  5
536
330
1F
100
AcDbEntity
  8
鏡台
  6
EXLTYPE2
 62
     6
100
AcDbLine
 10
2404.0
 20
2553.299999999998
 30
0.0
 11
2417.0
 21
2553.299999999998
 31
0.0
  0
LINE
  5
537
330
1F
100
AcDbEntity
  8
鏡台
  6
EXLTYPE2
 62
     6
100
AcDbLine
 10
2404.0
 20
2553.299999999998
 30
0.0
 11
2404.0
 21
2543.299999999998
 31
0.0
  0
LINE
  5
538
330
1F
100
AcDbEntity
  8
鏡台
  6
EXLTYPE2
 62
     6
100
AcDbLine
 10
2404.0
 20
2543.299999999998
 30
0.0
 11
2410.75
 21
2543.299999999999
 31
0.0
  0
LINE
  5
539
330
1F
100
AcDbEntity
  8
鏡台
  6
EXLTYPE2
 62
     6
100
AcDbLine
 10
2401.5
 20
2553.299999999999
 30
0.0
 11
2401.5
 21
2540.799999999999
 31
0.0
  0
LINE
  5
53A
330
1F
100
AcDbEntity
  8
鏡台
  6
EXLTYPE2
 62
     6
100
AcDbLine
 10
2401.5
 20
2540.799999999999
 30
0.0
 11
2410.75
 21
2540.799999999998
 31
0.0
  0
ARC
  5
53B
330
1F
100
AcDbEntity
  8
鏡台
  6
EXLTYPE2
 62
     6
100
AcDbCircle
 10
2354.75
 20
2306.549999999999
 30
0.0
 40
1.250000000000569
100
AcDbArc
 50
180.0
 51
0.0
  0
ARC
  5
53C
330
1F
100
AcDbEntity
  8
鏡台
  6
EXLTYPE2
 62
     6
100
AcDbCircle
 10
2410.75
 20
2302.049999999999
 30
0.0
 40
1.249999999999631
100
AcDbArc
 50
270.0000000000002
 51
90.00000000000004
  0
LINE
  5
53D
330
1F
100
AcDbEntity
  8
鏡台
  6
EXLTYPE2
 62
     6
100
AcDbLine
 10
2341.5
 20
2338.299999999999
 30
0.0
 11
2341.5
 21
2315.799999999999
 31
0.0
  0
LINE
  5
53E
330
1F
100
AcDbEntity
  8
鏡台
  6
EXLTYPE2
 62
     6
100
AcDbLine
 10
2339.0
 20
2338.299999999999
 30
0.0
 11
2341.5
 21
2338.299999999999
 31
0.0
  0
LINE
  5
53F
330
1F
100
AcDbEntity
  8
鏡台
  6
EXLTYPE2
 62
     6
100
AcDbLine
 10
2339.0
 20
2338.299999999999
 30
0.0
 11
2339.0
 21
2298.3
 31
0.0
  0
LINE
  5
540
330
1F
100
AcDbEntity
  8
鏡台
  6
EXLTYPE2
 62
     6
100
AcDbLine
 10
2339.0
 20
2298.299999999999
 30
0.0
 11
2341.5
 21
2298.299999999999
 31
0.0
  0
LINE
  5
541
330
1F
100
AcDbEntity
  8
鏡台
  6
EXLTYPE2
 62
     6
100
AcDbLine
 10
2341.5
 20
2313.299999999999
 30
0.0
 11
2341.5
 21
2298.299999999999
 31
0.0
  0
LINE
  5
542
330
1F
100
AcDbEntity
  8
鏡台
  6
EXLTYPE2
 62
     6
100
AcDbLine
 10
2341.5
 20
2313.299999999999
 30
0.0
 11
2353.5
 21
2313.299999999999
 31
0.0
  0
LINE
  5
543
330
1F
100
AcDbEntity
  8
鏡台
  6
EXLTYPE2
 62
     6
100
AcDbLine
 10
2353.5
 20
2313.299999999999
 30
0.0
 11
2353.5
 21
2306.55
 31
0.0
  0
LINE
  5
544
330
1F
100
AcDbEntity
  8
鏡台
  6
EXLTYPE2
 62
     6
100
AcDbLine
 10
2356.0
 20
2313.299999999999
 30
0.0
 11
2356.0
 21
2306.55
 31
0.0
  0
LINE
  5
545
330
1F
100
AcDbEntity
  8
鏡台
  6
EXLTYPE2
 62
     6
100
AcDbLine
 10
2356.0
 20
2313.299999999999
 30
0.0
 11
2401.5
 21
2313.299999999999
 31
0.0
  0
LINE
  5
546
330
1F
100
AcDbEntity
  8
鏡台
  6
EXLTYPE2
 62
     6
100
AcDbLine
 10
2341.5
 20
2315.799999999999
 30
0.0
 11
2417.0
 21
2315.799999999999
 31
0.0
  0
LINE
  5
547
330
1F
100
AcDbEntity
  8
鏡台
  6
EXLTYPE2
 62
     6
100
AcDbLine
 10
2417.0
 20
2315.8
 30
0.0
 11
2417.0
 21
2313.299999999998
 31
0.0
  0
LINE
  5
548
330
1F
100
AcDbEntity
  8
鏡台
  6
EXLTYPE2
 62
     6
100
AcDbLine
 10
2404.0
 20
2313.299999999998
 30
0.0
 11
2417.0
 21
2313.299999999998
 31
0.0
  0
LINE
  5
549
330
1F
100
AcDbEntity
  8
鏡台
  6
EXLTYPE2
 62
     6
100
AcDbLine
 10
2404.0
 20
2313.299999999998
 30
0.0
 11
2404.0
 21
2303.299999999998
 31
0.0
  0
LINE
  5
54A
330
1F
100
AcDbEntity
  8
鏡台
  6
EXLTYPE2
 62
     6
100
AcDbLine
 10
2404.0
 20
2303.299999999998
 30
0.0
 11
2410.75
 21
2303.299999999999
 31
0.0
  0
LINE
  5
54B
330
1F
100
AcDbEntity
  8
鏡台
  6
EXLTYPE2
 62
     6
100
AcDbLine
 10
2401.5
 20
2313.299999999999
 30
0.0
 11
2401.5
 21
2300.799999999999
 31
0.0
  0
LINE
  5
54C
330
1F
100
AcDbEntity
  8
鏡台
  6
EXLTYPE2
 62
     6
100
AcDbLine
 10
2401.5
 20
2300.799999999999
 30
0.0
 11
2410.75
 21
2300.799999999998
 31
0.0
  0
DIMENSION
  5
54D
330
1F
100
AcDbEntity
  8
鏡台
  6
CONTINUOUS
 62
     3
100
AcDbDimension
  2
*D19
 10
2435.0
 20
2827.5
 30
0.0
 11
2374.4
 21
2862.749999910593
 31
0.0
 70
   160
  1
122
  3
ISO-25
100
AcDbAlignedDimension
 13
2313.8
 23
2767.5
 33
0.0
 14
2435.0
 24
2761.3
 34
0.0
100
AcDbRotatedDimension
1001
ACAD
1000
DSTYLE
1002
{
1070
   270
1070
     2
1070
     6
1000
EX_NORM
1070
     7
1000
EX_NORM
1070
    41
1040
44.99999618530273
1070
    42
1040
10.49999982118607
1070
    44
1040
15.0
1070
    73
1070
     0
1070
    74
1070
     0
1070
    75
1070
     0
1070
    76
1070
     0
1070
    77
1070
     1
1070
    78
1070
     8
1070
   140
1040
59.99999618530273
1070
   147
1040
0.0
1070
   173
1070
     1
1070
   176
1070
     3
1070
   177
1070
     3
1070
   178
1070
     2
1070
   271
1070
     2
1070
   277
1070
     2
1070
   279
1070
     2
1070
   280
1070
     0
1070
   287
1070
     5
1070
   340
1005
392
1002
}
  0
DIMENSION
  5
55A
330
1F
100
AcDbEntity
  8
鏡台
  6
CONTINUOUS
 62
     3
100
AcDbDimension
  2
*D20
 10
2953.499999999999
 20
2711.3
 30
0.0
 11
2918.250000089406
 21
2521.299999999994
 31
0.0
 70
   160
  1
<>（壁固定）
  3
ISO-25
100
AcDbAlignedDimension
 13
2468.200000000001
 23
2331.3
 33
0.0
 14
2468.200000000001
 24
2711.3
 34
0.0
 50
90.0
100
AcDbRotatedDimension
1001
ACAD
1000
DSTYLE
1002
{
1070
   270
1070
     2
1070
     6
1000
EX_NORM
1070
     7
1000
EX_NORM
1070
    41
1040
44.99999618530273
1070
    42
1040
10.49999982118607
1070
    44
1040
14.99999999999909
1070
    73
1070
     0
1070
    74
1070
     0
1070
    75
1070
     0
1070
    76
1070
     0
1070
    77
1070
     1
1070
    78
1070
     8
1070
   140
1040
59.99999618530273
1070
   147
1040
0.0
1070
   173
1070
     1
1070
   176
1070
     3
1070
   177
1070
     3
1070
   178
1070
     2
1070
   271
1070
     2
1070
   277
1070
     2
1070
   279
1070
     2
1070
   280
1070
     0
1070
   287
1070
     5
1070
   340
1005
392
1002
}
  0
DIMENSION
  5
567
330
1F
100
AcDbEntity
  8
鏡台
  6
CONTINUOUS
 62
     3
100
AcDbDimension
  2
*D21
 10
2953.499999999999
 20
2767.5
 30
0.0
 11
2918.250000089405
 21
2864.999999999993
 31
0.0
 70
   160
  1
56
  3
ISO-25
100
AcDbAlignedDimension
 13
2468.200000000001
 23
2711.3
 33
0.0
 14
2333.8
 24
2767.5
 34
0.0
 50
90.0
100
AcDbRotatedDimension
1001
ACAD
1000
DSTYLE
1002
{
1070
   270
1070
     2
1070
     6
1000
EX_NORM
1070
     7
1000
EX_NORM
1070
    41
1040
44.99999618530273
1070
    42
1040
10.49999982118607
1070
    44
1040
15.0
1070
    73
1070
     0
1070
    74
1070
     0
1070
    75
1070
     0
1070
    76
1070
     0
1070
    77
1070
     1
1070
    78
1070
     8
1070
   140
1040
59.99999618530273
1070
   147
1040
0.0
1070
   173
1070
     1
1070
   176
1070
     3
1070
   177
1070
     3
1070
   178
1070
     2
1070
   271
1070
     2
1070
   277
1070
     2
1070
   279
1070
     2
1070
   280
1070
     2
1070
   287
1070
     5
1070
   340
1005
392
1002
}
  0
LINE
  5
576
330
1F
100
AcDbEntity
  8
付属金具
  6
CONTINUOUS
 62
     6
100
AcDbLine
 10
867.5000000000023
 20
3844.5
 30
0.0
 11
942.5000000000023
 21
3844.5
 31
0.0
  0
LINE
  5
577
330
1F
100
AcDbEntity
  8
寸法
  6
CONTINUOUS
 62
     3
100
AcDbLine
 10
2453.499999821186
 20
1412.5
 30
0.0
 11
2555.0
 21
1412.5
 31
0.0
  0
TEXT
  5
578
330
1F
100
AcDbEntity
  8
寸法
  6
CONTINUOUS
 62
     2
100
AcDbText
 10
2534.750000089407
 20
1051.499999999999
 30
0.0
 40
59.99999618530273
  1
３９５
 50
90.0
 41
1.029411764705882
  7
EXCADSTD
 72
     5
 11
2534.750000089407
 21
1201.499990463256
 31
0.0
100
AcDbText
  0
TEXT
  5
579
330
1F
100
AcDbEntity
  8
寸法
  6
CONTINUOUS
 62
     2
100
AcDbText
 10
2534.750000089407
 20
1193.999999999999
 30
0.0
 40
48.0
  1
（壁給水）
 50
90.0
 41
0.9655172413793105
  7
EXCADSTD
 72
     5
 11
2534.750000089407
 21
1385.999999999999
 31
0.0
100
AcDbText
  0
LINE
  5
57A
330
1F
100
AcDbEntity
  8
寸法
  6
CONTINUOUS
 62
     3
100
AcDbLine
 10
2540.0
 20
1017.499999999998
 30
0.0
 11
2540.0
 21
1412.5
 31
0.0
  0
LINE
  5
57B
330
1F
100
AcDbEntity
  8
寸法
  6
CONTINUOUS
 62
     3
100
AcDbLine
 10
2532.5
 20
1062.499999999998
 30
0.0
 11
2540.0
 21
1017.499999999998
 31
0.0
  0
LINE
  5
57C
330
1F
100
AcDbEntity
  8
寸法
  6
CONTINUOUS
 62
     3
100
AcDbLine
 10
2540.0
 20
1017.499999999998
 30
0.0
 11
2547.5
 21
1062.499999999998
 31
0.0
  0
LINE
  5
57D
330
1F
100
AcDbEntity
  8
寸法
  6
CONTINUOUS
 62
     3
100
AcDbLine
 10
2547.5
 20
1367.5
 30
0.0
 11
2540.0
 21
1412.5
 31
0.0
  0
LINE
  5
57E
330
1F
100
AcDbEntity
  8
寸法
  6
CONTINUOUS
 62
     3
100
AcDbLine
 10
2540.0
 20
1412.5
 30
0.0
 11
2532.5
 21
1367.5
 31
0.0
  0
LINE
  5
57F
330
1F
100
AcDbEntity
  8
寸法
  6
CONTINUOUS
 62
     3
100
AcDbLine
 10
2470.499999821186
 20
1452.5
 30
0.0
 11
2645.0
 21
1452.5
 31
0.0
  0
TEXT
  5
580
330
1F
100
AcDbEntity
  8
寸法
  6
CONTINUOUS
 62
     2
100
AcDbText
 10
2624.750000089407
 20
1035.499999999999
 30
0.0
 40
59.99999618530273
  1
４３５
 50
90.0
 41
1.029411764705882
  7
EXCADSTD
 72
     5
 11
2624.750000089407
 21
1185.499990463256
 31
0.0
100
AcDbText
  0
TEXT
  5
581
330
1F
100
AcDbEntity
  8
寸法
  6
CONTINUOUS
 62
     2
100
AcDbText
 10
2624.750000089407
 20
1177.999999999999
 30
0.0
 40
48.0
  1
（Ｐトラップ）
 50
90.0
 41
0.9390243902439025
  7
EXCADSTD
 72
     5
 11
2624.750000089407
 21
1441.999999999999
 31
0.0
100
AcDbText
  0
LINE
  5
582
330
1F
100
AcDbEntity
  8
寸法
  6
CONTINUOUS
 62
     3
100
AcDbLine
 10
2630.0
 20
1017.499999999998
 30
0.0
 11
2630.0
 21
1452.5
 31
0.0
  0
LINE
  5
583
330
1F
100
AcDbEntity
  8
寸法
  6
CONTINUOUS
 62
     3
100
AcDbLine
 10
2622.5
 20
1062.499999999998
 30
0.0
 11
2630.0
 21
1017.499999999998
 31
0.0
  0
LINE
  5
584
330
1F
100
AcDbEntity
  8
寸法
  6
CONTINUOUS
 62
     3
100
AcDbLine
 10
2630.0
 20
1017.499999999998
 30
0.0
 11
2637.5
 21
1062.499999999998
 31
0.0
  0
LINE
  5
585
330
1F
100
AcDbEntity
  8
寸法
  6
CONTINUOUS
 62
     3
100
AcDbLine
 10
2637.5
 20
1407.5
 30
0.0
 11
2630.0
 21
1452.5
 31
0.0
  0
LINE
  5
586
330
1F
100
AcDbEntity
  8
寸法
  6
CONTINUOUS
 62
     3
100
AcDbLine
 10
2630.0
 20
1452.5
 30
0.0
 11
2622.5
 21
1407.5
 31
0.0
  0
LINE
  5
587
330
1F
100
AcDbEntity
  8
寸法
  6
CONTINUOUS
 62
     3
100
AcDbLine
 10
2475.499999821186
 20
1522.5
 30
0.0
 11
2735.0
 21
1522.5
 31
0.0
  0
TEXT
  5
588
330
1F
100
AcDbEntity
  8
寸法
  6
CONTINUOUS
 62
     2
100
AcDbText
 10
2714.750000089407
 20
1034.499999999999
 30
0.0
 40
59.99999618530273
  1
５０５
 50
90.0
 41
1.029411764705882
  7
EXCADSTD
 72
     5
 11
2714.750000089407
 21
1184.499990463256
 31
0.0
100
AcDbText
  0
TEXT
  5
589
330
1F
100
AcDbEntity
  8
寸法
  6
CONTINUOUS
 62
     2
100
AcDbText
 10
2714.750000089407
 20
1176.999999999999
 30
0.0
 40
48.0
  1
（ボトルトラップ）
 50
90.0
 41
0.9245283018867926
  7
EXCADSTD
 72
     5
 11
2714.750000089407
 21
1512.999999999999
 31
0.0
100
AcDbText
  0
LINE
  5
58A
330
1F
100
AcDbEntity
  8
寸法
  6
CONTINUOUS
 62
     3
100
AcDbLine
 10
2720.0
 20
1017.499999999998
 30
0.0
 11
2720.0
 21
1522.5
 31
0.0
  0
LINE
  5
58B
330
1F
100
AcDbEntity
  8
寸法
  6
CONTINUOUS
 62
     3
100
AcDbLine
 10
2712.5
 20
1062.499999999998
 30
0.0
 11
2720.0
 21
1017.499999999998
 31
0.0
  0
LINE
  5
58C
330
1F
100
AcDbEntity
  8
寸法
  6
CONTINUOUS
 62
     3
100
AcDbLine
 10
2720.0
 20
1017.499999999998
 30
0.0
 11
2727.5
 21
1062.499999999998
 31
0.0
  0
LINE
  5
58D
330
1F
100
AcDbEntity
  8
寸法
  6
CONTINUOUS
 62
     3
100
AcDbLine
 10
2727.5
 20
1477.5
 30
0.0
 11
2720.0
 21
1522.5
 31
0.0
  0
LINE
  5
58E
330
1F
100
AcDbEntity
  8
寸法
  6
CONTINUOUS
 62
     3
100
AcDbLine
 10
2720.0
 20
1522.5
 30
0.0
 11
2712.5
 21
1477.5
 31
0.0
  0
LINE
  5
58F
330
1F
100
AcDbEntity
  8
寸法
  6
CONTINUOUS
 62
     3
100
AcDbLine
 10
2477.399999821186
 20
1637.5
 30
0.0
 11
2825.000000000001
 21
1637.5
 31
0.0
  0
TEXT
  5
590
330
1F
100
AcDbEntity
  8
寸法
  6
CONTINUOUS
 62
     2
100
AcDbText
 10
2804.750000089408
 20
1163.999999999999
 30
0.0
 40
59.99999618530273
  1
６２０
 50
90.0
 41
1.029411764705882
  7
EXCADSTD
 72
     5
 11
2804.750000089408
 21
1313.999990463255
 31
0.0
100
AcDbText
  0
TEXT
  5
591
330
1F
100
AcDbEntity
  8
寸法
  6
CONTINUOUS
 62
     2
100
AcDbText
 10
2804.750000089408
 20
1306.499999999999
 30
0.0
 40
48.0
  1
（壁固定）
 50
90.0
 41
0.9655172413793105
  7
EXCADSTD
 72
     5
 11
2804.750000089408
 21
1498.499999999999
 31
0.0
100
AcDbText
  0
LINE
  5
592
330
1F
100
AcDbEntity
  8
寸法
  6
CONTINUOUS
 62
     3
100
AcDbLine
 10
2810.000000000001
 20
1017.499999999997
 30
0.0
 11
2810.000000000001
 21
1637.5
 31
0.0
  0
LINE
  5
593
330
1F
100
AcDbEntity
  8
寸法
  6
CONTINUOUS
 62
     3
100
AcDbLine
 10
2802.500000000001
 20
1062.499999999997
 30
0.0
 11
2810.000000000001
 21
1017.499999999997
 31
0.0
  0
LINE
  5
594
330
1F
100
AcDbEntity
  8
寸法
  6
CONTINUOUS
 62
     3
100
AcDbLine
 10
2810.000000000001
 20
1017.499999999997
 30
0.0
 11
2817.500000000001
 21
1062.499999999997
 31
0.0
  0
LINE
  5
595
330
1F
100
AcDbEntity
  8
寸法
  6
CONTINUOUS
 62
     3
100
AcDbLine
 10
2817.500000000001
 20
1592.5
 30
0.0
 11
2810.000000000001
 21
1637.5
 31
0.0
  0
LINE
  5
596
330
1F
100
AcDbEntity
  8
寸法
  6
CONTINUOUS
 62
     3
100
AcDbLine
 10
2810.000000000001
 20
1637.5
 30
0.0
 11
2802.500000000001
 21
1592.5
 31
0.0
  0
LINE
  5
597
330
1F
100
AcDbEntity
  8
寸法
  6
CONTINUOUS
 62
     3
100
AcDbLine
 10
2355.0
 20
999.0000001788139
 30
0.0
 11
2355.0
 21
882.5
 31
0.0
  0
LINE
  5
598
330
1F
100
AcDbEntity
  8
寸法
  6
CONTINUOUS
 62
     3
100
AcDbLine
 10
2435.0
 20
1007.000000178814
 30
0.0
 11
2435.0
 21
882.5
 31
0.0
  0
TEXT
  5
599
330
1F
100
AcDbEntity
  8
寸法
  6
CONTINUOUS
 62
     2
100
AcDbText
 10
2480.0
 20
902.749999910593
 30
0.0
 40
59.99999618530273
  1
８０
 41
1.020759090909089
  7
EXCADSTD
 72
     5
 11
2576.242993881035
 21
902.749999910593
 31
0.0
100
AcDbText
  0
TEXT
  5
59A
330
1F
100
AcDbEntity
  8
寸法
  6
CONTINUOUS
 62
     2
100
AcDbText
 10
2577.5
 20
902.749999910593
 30
0.0
 40
48.0
  1
（床給水）
 41
0.9655172413793105
  7
EXCADSTD
 72
     5
 11
2769.5
 21
902.749999910593
 31
0.0
100
AcDbText
  0
LINE
  5
59B
330
1F
100
AcDbEntity
  8
寸法
  6
CONTINUOUS
 62
     3
100
AcDbLine
 10
2310.0
 20
897.5
 30
0.0
 11
2767.249994277954
 21
897.5
 31
0.0
  0
LINE
  5
59C
330
1F
100
AcDbEntity
  8
寸法
  6
CONTINUOUS
 62
     3
100
AcDbLine
 10
2310.0
 20
890.0
 30
0.0
 11
2355.0
 21
897.5
 31
0.0
  0
LINE
  5
59D
330
1F
100
AcDbEntity
  8
寸法
  6
CONTINUOUS
 62
     3
100
AcDbLine
 10
2355.0
 20
897.5
 30
0.0
 11
2310.0
 21
905.0000000000001
 31
0.0
  0
LINE
  5
59E
330
1F
100
AcDbEntity
  8
寸法
  6
CONTINUOUS
 62
     3
100
AcDbLine
 10
2480.0
 20
905.0
 30
0.0
 11
2435.0
 21
897.5
 31
0.0
  0
LINE
  5
59F
330
1F
100
AcDbEntity
  8
寸法
  6
CONTINUOUS
 62
     3
100
AcDbLine
 10
2435.0
 20
897.5
 30
0.0
 11
2480.0
 21
890.0
 31
0.0
  0
LINE
  5
5A0
330
1F
100
AcDbEntity
  8
寸法
  6
CONTINUOUS
 62
     3
100
AcDbLine
 10
2305.0
 20
977.0000001788138
 30
0.0
 11
2305.0
 21
792.5
 31
0.0
  0
LINE
  5
5A1
330
1F
100
AcDbEntity
  8
寸法
  6
CONTINUOUS
 62
     3
100
AcDbLine
 10
2435.0
 20
1007.000000178814
 30
0.0
 11
2435.0
 21
792.5
 31
0.0
  0
TEXT
  5
5A2
330
1F
100
AcDbEntity
  8
寸法
  6
CONTINUOUS
 62
     2
100
AcDbText
 10
2480.0
 20
812.749999910593
 30
0.0
 40
59.99999618530273
  1
１３０
 41
1.029411764705882
  7
EXCADSTD
 72
     5
 11
2629.999990463256
 21
812.749999910593
 31
0.0
100
AcDbText
  0
TEXT
  5
5A3
330
1F
100
AcDbEntity
  8
寸法
  6
CONTINUOUS
 62
     2
100
AcDbText
 10
2622.5
 20
812.749999910593
 30
0.0
 40
48.0
  1
（Ｓトラップ）
 41
0.9390243902439025
  7
EXCADSTD
 72
     5
 11
2886.5
 21
812.749999910593
 31
0.0
100
AcDbText
  0
LINE
  5
5A4
330
1F
100
AcDbEntity
  8
寸法
  6
CONTINUOUS
 62
     3
100
AcDbLine
 10
2260.0
 20
807.5
 30
0.0
 11
2884.250011444092
 21
807.5
 31
0.0
  0
LINE
  5
5A5
330
1F
100
AcDbEntity
  8
寸法
  6
CONTINUOUS
 62
     3
100
AcDbLine
 10
2260.0
 20
800.0
 30
0.0
 11
2305.0
 21
807.5
 31
0.0
  0
LINE
  5
5A6
330
1F
100
AcDbEntity
  8
寸法
  6
CONTINUOUS
 62
     3
100
AcDbLine
 10
2305.0
 20
807.5
 30
0.0
 11
2260.0
 21
815.0000000000001
 31
0.0
  0
LINE
  5
5A7
330
1F
100
AcDbEntity
  8
寸法
  6
CONTINUOUS
 62
     3
100
AcDbLine
 10
2480.0
 20
815.0
 30
0.0
 11
2435.0
 21
807.5
 31
0.0
  0
LINE
  5
5A8
330
1F
100
AcDbEntity
  8
寸法
  6
CONTINUOUS
 62
     3
100
AcDbLine
 10
2435.0
 20
807.5
 30
0.0
 11
2480.0
 21
800.0
 31
0.0
  0
DIMENSION
  5
5A9
330
1F
100
AcDbEntity
  8
寸法
  6
CONTINUOUS
 62
     3
100
AcDbDimension
  2
*D22
 10
1459.999999999999
 20
3929.5
 30
0.0
 11
1424.750000089407
 21
3704.5
 31
0.0
 70
   160
  3
ISO-25
100
AcDbAlignedDimension
 13
1354.999999999999
 23
3479.5
 33
0.0
 14
1354.999999999999
 24
3929.5
 34
0.0
 50
90.0
100
AcDbRotatedDimension
1001
ACAD
1000
DSTYLE
1002
{
1070
   270
1070
     2
1070
     6
1000
EX_NORM
1070
     7
1000
EX_NORM
1070
    41
1040
44.99999618530273
1070
    42
1040
10.49999982118607
1070
    44
1040
15.0
1070
    73
1070
     0
1070
    74
1070
     0
1070
    75
1070
     0
1070
    76
1070
     1
1070
    77
1070
     1
1070
    78
1070
     0
1070
   140
1040
59.99999618530273
1070
   147
1040
0.0
1070
   173
1070
     1
1070
   176
1070
     3
1070
   177
1070
     3
1070
   178
1070
     2
1070
   271
1070
     0
1070
   277
1070
     2
1070
   279
1070
     2
1070
   280
1070
     0
1070
   287
1070
     5
1070
   340
1005
392
1002
}
  0
DIMENSION
  5
5B5
330
1F
100
AcDbEntity
  8
寸法
  6
CONTINUOUS
 62
     3
100
AcDbDimension
  2
*D23
 10
1549.999999999999
 20
3929.5
 30
0.0
 11
1514.750000089407
 21
3679.5
 31
0.0
 70
   160
  3
ISO-25
100
AcDbAlignedDimension
 13
1169.999999999999
 23
3429.5
 33
0.0
 14
1354.999999999999
 24
3929.5
 34
0.0
 50
90.0
100
AcDbRotatedDimension
1001
ACAD
1000
DSTYLE
1002
{
1070
   270
1070
     2
1070
     6
1000
EX_NORM
1070
     7
1000
EX_NORM
1070
    41
1040
44.99999618530273
1070
    42
1040
10.49999982118607
1070
    44
1040
15.0
1070
    73
1070
     0
1070
    74
1070
     0
1070
    75
1070
     0
1070
    76
1070
     1
1070
    77
1070
     1
1070
    78
1070
     0
1070
   140
1040
59.99999618530273
1070
   147
1040
0.0
1070
   173
1070
     1
1070
   176
1070
     3
1070
   177
1070
     3
1070
   178
1070
     2
1070
   271
1070
     0
1070
   277
1070
     2
1070
   279
1070
     2
1070
   280
1070
     0
1070
   287
1070
     5
1070
   340
1005
392
1002
}
  0
DIMENSION
  5
5C1
330
1F
100
AcDbEntity
  8
寸法
  6
CONTINUOUS
 62
     3
100
AcDbDimension
  2
*D24
 10
1179.999999999999
 20
3324.5
 30
0.0
 11
904.9999999999998
 21
3359.749999910593
 31
0.0
 70
   160
  3
ISO-25
100
AcDbAlignedDimension
 13
630.0
 23
3439.5
 33
0.0
 14
1179.999999999999
 24
3439.5
 34
0.0
100
AcDbRotatedDimension
1001
ACAD
1000
DSTYLE
1002
{
1070
   270
1070
     2
1070
     6
1000
EX_NORM
1070
     7
1000
EX_NORM
1070
    41
1040
44.99999618530273
1070
    42
1040
10.49999982118607
1070
    44
1040
15.0
1070
    73
1070
     0
1070
    74
1070
     0
1070
    75
1070
     0
1070
    76
1070
     0
1070
    77
1070
     1
1070
    78
1070
     0
1070
   140
1040
59.99999618530273
1070
   147
1040
0.0
1070
   173
1070
     1
1070
   176
1070
     3
1070
   177
1070
     3
1070
   178
1070
     2
1070
   271
1070
     0
1070
   277
1070
     2
1070
   279
1070
     2
1070
   280
1070
     0
1070
   287
1070
     5
1070
   340
1005
392
1002
}
  0
DIMENSION
  5
5CE
330
1F
100
AcDbEntity
  8
寸法
  6
CONTINUOUS
 62
     3
100
AcDbDimension
  2
*D25
 10
1354.999999999999
 20
3234.5
 30
0.0
 11
904.9999999999998
 21
3269.749999910593
 31
0.0
 70
   160
  3
ISO-25
100
AcDbAlignedDimension
 13
455.0
 23
3479.5
 33
0.0
 14
1354.999999999999
 24
3479.5
 34
0.0
100
AcDbRotatedDimension
1001
ACAD
1000
DSTYLE
1002
{
1070
   270
1070
     2
1070
     6
1000
EX_NORM
1070
     7
1000
EX_NORM
1070
    41
1040
44.99999618530273
1070
    42
1040
10.49999982118607
1070
    44
1040
15.0
1070
    73
1070
     0
1070
    74
1070
     0
1070
    75
1070
     0
1070
    76
1070
     0
1070
    77
1070
     1
1070
    78
1070
     0
1070
   140
1040
59.99999618530273
1070
   147
1040
0.0
1070
   173
1070
     1
1070
   176
1070
     3
1070
   177
1070
     3
1070
   178
1070
     2
1070
   271
1070
     0
1070
   277
1070
     2
1070
   279
1070
     2
1070
   280
1070
     0
1070
   287
1070
     5
1070
   340
1005
392
1002
}
  0
LINE
  5
5DB
330
1F
100
AcDbEntity
  8
寸法
  6
CONTINUOUS
 62
     3
100
AcDbLine
 10
587.0
 20
3972.499999821186
 30
0.0
 11
587.0
 21
4034.5
 31
0.0
  0
LINE
  5
5DC
330
1F
100
AcDbEntity
  8
寸法
  6
CONTINUOUS
 62
     3
100
AcDbLine
 10
1222.999999999999
 20
3972.499999821186
 30
0.0
 11
1222.999999999999
 21
4034.5
 31
0.0
  0
TEXT
  5
5DD
330
1F
100
AcDbEntity
  8
寸法
  6
CONTINUOUS
 62
     2
100
AcDbText
 10
741.4999999999998
 20
4024.749999910593
 30
0.0
 40
59.99999618530273
  1
６３６
 41
1.029411764705882
  7
EXCADSTD
 72
     5
 11
891.4999904632566
 21
4024.749999910593
 31
0.0
100
AcDbText
  0
TEXT
  5
5DE
330
1F
100
AcDbEntity
  8
寸法
  6
CONTINUOUS
 62
     2
100
AcDbText
 10
883.9999999999998
 20
4024.749999910593
 30
0.0
 40
48.0
  1
（壁固定）
 41
0.9655172413793105
  7
EXCADSTD
 72
     5
 11
1076.0
 21
4024.749999910593
 31
0.0
100
AcDbText
  0
LINE
  5
5DF
330
1F
100
AcDbEntity
  8
寸法
  6
CONTINUOUS
 62
     3
100
AcDbLine
 10
587.0000000000002
 20
4019.5
 30
0.0
 11
1222.999999999999
 21
4019.5
 31
0.0
  0
LINE
  5
5E0
330
1F
100
AcDbEntity
  8
寸法
  6
CONTINUOUS
 62
     3
100
AcDbLine
 10
632.0
 20
4027.0
 30
0.0
 11
587.0
 21
4019.5
 31
0.0
  0
LINE
  5
5E1
330
1F
100
AcDbEntity
  8
寸法
  6
CONTINUOUS
 62
     3
100
AcDbLine
 10
587.0
 20
4019.5
 30
0.0
 11
632.0
 21
4012.0
 31
0.0
  0
LINE
  5
5E2
330
1F
100
AcDbEntity
  8
寸法
  6
CONTINUOUS
 62
     3
100
AcDbLine
 10
1177.999999999999
 20
4012.0
 30
0.0
 11
1222.999999999999
 21
4019.5
 31
0.0
  0
LINE
  5
5E3
330
1F
100
AcDbEntity
  8
寸法
  6
CONTINUOUS
 62
     3
100
AcDbLine
 10
1222.999999999999
 20
4019.5
 30
0.0
 11
1177.999999999999
 21
4027.0
 31
0.0
  0
DIMENSION
  5
5E4
330
1F
100
AcDbEntity
  8
寸法
  6
CONTINUOUS
 62
     3
100
AcDbDimension
  2
*D26
 10
1459.999999999999
 20
1717.5
 30
0.0
 11
1424.750000089407
 21
1367.5
 31
0.0
 70
   160
  3
ISO-25
100
AcDbAlignedDimension
 13
1352.999999999999
 23
1017.5
 33
0.0
 14
1354.999999999999
 24
1717.5
 34
0.0
 50
90.0
100
AcDbRotatedDimension
1001
ACAD
1000
DSTYLE
1002
{
1070
   270
1070
     2
1070
     6
1000
EX_NORM
1070
     7
1000
EX_NORM
1070
    41
1040
44.99999618530273
1070
    42
1040
10.49999982118607
1070
    44
1040
15.0
1070
    73
1070
     0
1070
    74
1070
     0
1070
    75
1070
     1
1070
    76
1070
     0
1070
    77
1070
     1
1070
    78
1070
     0
1070
   140
1040
59.99999618530273
1070
   147
1040
0.0
1070
   173
1070
     1
1070
   176
1070
     3
1070
   177
1070
     3
1070
   178
1070
     2
1070
   271
1070
     0
1070
   277
1070
     2
1070
   279
1070
     2
1070
   280
1070
     0
1070
   287
1070
     5
1070
   340
1005
392
1002
}
  0
DIMENSION
  5
5F0
330
1F
100
AcDbEntity
  8
寸法
  6
CONTINUOUS
 62
     3
100
AcDbDimension
  2
*D27
 10
1459.999999999998
 20
1857.5
 30
0.0
 11
1424.750000089406
 21
1787.499999999999
 31
0.0
 70
   160
  3
ISO-25
100
AcDbAlignedDimension
 13
1354.999999999999
 23
1717.5
 33
0.0
 14
1174.999999999999
 24
1857.5
 34
0.0
 50
90.0
100
AcDbRotatedDimension
1001
ACAD
1000
DSTYLE
1002
{
1070
   270
1070
     2
1070
     6
1000
EX_NORM
1070
     7
1000
EX_NORM
1070
    41
1040
44.99999618530273
1070
    42
1040
10.49999982118607
1070
    44
1040
15.0
1070
    73
1070
     0
1070
    74
1070
     0
1070
    75
1070
     1
1070
    76
1070
     0
1070
    77
1070
     1
1070
    78
1070
     0
1070
   140
1040
59.99999618530273
1070
   147
1040
0.0
1070
   173
1070
     1
1070
   176
1070
     3
1070
   177
1070
     3
1070
   178
1070
     2
1070
   271
1070
     0
1070
   277
1070
     2
1070
   279
1070
     2
1070
   280
1070
     0
1070
   287
1070
     5
1070
   340
1005
392
1002
}
  0
DIMENSION
  5
5FC
330
1F
100
AcDbEntity
  8
寸法
  6
CONTINUOUS
 62
     3
100
AcDbDimension
  2
*D28
 10
1550.0
 20
1857.5
 30
0.0
 11
1514.750000089407
 21
1437.5
 31
0.0
 70
   160
  3
ISO-25
100
AcDbAlignedDimension
 13
1352.999999999999
 23
1017.5
 33
0.0
 14
1174.999999999999
 24
1857.5
 34
0.0
 50
90.0
100
AcDbRotatedDimension
1001
ACAD
1000
DSTYLE
1002
{
1070
   270
1070
     2
1070
     6
1000
EX_NORM
1070
     7
1000
EX_NORM
1070
    41
1040
44.99999618530273
1070
    42
1040
10.49999982118607
1070
    44
1040
15.0
1070
    73
1070
     0
1070
    74
1070
     0
1070
    75
1070
     1
1070
    76
1070
     0
1070
    77
1070
     1
1070
    78
1070
     0
1070
   140
1040
59.99999618530273
1070
   147
1040
0.0
1070
   173
1070
     1
1070
   176
1070
     3
1070
   177
1070
     3
1070
   178
1070
     2
1070
   271
1070
     0
1070
   277
1070
     2
1070
   279
1070
     2
1070
   280
1070
     0
1070
   287
1070
     5
1070
   340
1005
392
1002
}
  0
LINE
  5
608
330
1F
100
AcDbEntity
  8
寸法
  6
CONTINUOUS
 62
     3
100
AcDbLine
 10
830.0
 20
999.0000001788139
 30
0.0
 11
830.0
 21
882.5
 31
0.0
  0
LINE
  5
609
330
1F
100
AcDbEntity
  8
寸法
  6
CONTINUOUS
 62
     3
100
AcDbLine
 10
979.9999999999991
 20
999.0000001788139
 30
0.0
 11
979.9999999999991
 21
882.5
 31
0.0
  0
TEXT
  5
60A
330
1F
100
AcDbEntity
  8
寸法
  6
CONTINUOUS
 62
     2
100
AcDbText
 10
1024.999999999999
 20
902.749999910593
 30
0.0
 40
59.99999618530273
  1
１５０
 41
1.029411764705882
  7
EXCADSTD
 72
     5
 11
1174.999990463256
 21
902.749999910593
 31
0.0
100
AcDbText
  0
TEXT
  5
60B
330
1F
100
AcDbEntity
  8
寸法
  6
CONTINUOUS
 62
     2
100
AcDbText
 10
1167.499999999999
 20
902.749999910593
 30
0.0
 40
48.0
  1
（壁･床給水）
 41
0.853658536585366
  7
EXCADSTD
 72
     5
 11
1407.499999999999
 21
902.749999910593
 31
0.0
100
AcDbText
  0
LINE
  5
60C
330
1F
100
AcDbEntity
  8
寸法
  6
CONTINUOUS
 62
     3
100
AcDbLine
 10
785.0000000000001
 20
897.5
 30
0.0
 11
1405.250005722045
 21
897.5
 31
0.0
  0
LINE
  5
60D
330
1F
100
AcDbEntity
  8
寸法
  6
CONTINUOUS
 62
     3
100
AcDbLine
 10
785.0
 20
890.0
 30
0.0
 11
830.0
 21
897.5
 31
0.0
  0
LINE
  5
60E
330
1F
100
AcDbEntity
  8
寸法
  6
CONTINUOUS
 62
     3
100
AcDbLine
 10
830.0
 20
897.5
 30
0.0
 11
785.0
 21
905.0000000000001
 31
0.0
  0
LINE
  5
60F
330
1F
100
AcDbEntity
  8
寸法
  6
CONTINUOUS
 62
     3
100
AcDbLine
 10
1024.999999999999
 20
905.0
 30
0.0
 11
979.9999999999991
 21
897.5
 31
0.0
  0
LINE
  5
610
330
1F
100
AcDbEntity
  8
寸法
  6
CONTINUOUS
 62
     3
100
AcDbLine
 10
979.9999999999991
 20
897.5
 30
0.0
 11
1024.999999999999
 21
890.0
 31
0.0
  0
TEXT
  5
611
330
1F
100
AcDbEntity
  8
寸法
  6
CONTINUOUS
 62
     2
100
AcDbText
 10
2655.0
 20
1667.249999910593
 30
0.0
 40
59.99999618530273
  1
Ｒ１/２
 41
0.8342465643686785
  7
EXCADSTD
 72
     5
 11
2828.99998664856
 21
1667.249999910593
 31
0.0
100
AcDbText
  0
LEADER
  5
612
330
1F
100
AcDbEntity
  8
寸法
  6
CONTINUOUS
 62
     3
100
AcDbLeader
  3
ISO-25
 76
     3
 10
2443.0
 20
1423.0
 30
0.0
 10
2647.5
 20
1662.0
 30
0.0
 10
2812.5
 20
1662.0
 30
0.0
1001
ACAD
1000
DSTYLE
1002
{
1070
     5
1000
EX_NORM
1070
    41
1040
45.0
1070
   341
1005
4D
1002
}
  0
TEXT
  5
613
330
1F
100
AcDbEntity
  8
寸法
  6
CONTINUOUS
 62
     2
100
AcDbText
 10
2575.931476947
 20
1786.667904700793
 30
0.0
 40
59.99999618530273
  1
ＶＰ･ＶＵ５０
 41
0.9048780357546915
  7
EXCADSTD
 72
     5
 11
2893.931452151468
 21
1786.667904700793
 31
0.0
100
AcDbText
  0
LEADER
  5
614
330
1F
100
AcDbEntity
  8
寸法
  6
CONTINUOUS
 62
     3
100
AcDbLeader
  3
ISO-25
 76
     3
 10
2460.0
 20
1478.0
 30
0.0
 10
2568.431476947
 20
1781.4179047902
 30
0.0
 10
2872.931476947
 20
1781.4179047902
 30
0.0
1001
ACAD
1000
DSTYLE
1002
{
1070
     5
1000
EX_NORM
1070
    41
1040
45.0
1070
   341
1005
4D
1002
}
  0
DIMENSION
  5
615
330
1F
100
AcDbEntity
  8
寸法
  6
CONTINUOUS
 62
     3
100
AcDbDimension
  2
*D29
 10
1644.0
 20
2767.5
 30
0.0
 11
1608.750000089408
 21
1892.5
 31
0.0
 70
   160
  1
（1750）
  3
ISO-25
100
AcDbAlignedDimension
 13
1277.999999999997
 23
1017.5
 33
0.0
 14
1204.999999999997
 24
2767.5
 34
0.0
 50
90.0
100
AcDbRotatedDimension
1001
ACAD
1000
DSTYLE
1002
{
1070
   270
1070
     2
1070
     6
1000
EX_NORM
1070
     7
1000
EX_NORM
1070
    41
1040
44.99999618530273
1070
    42
1040
0.0
1070
    44
1040
0.0
1070
    73
1070
     0
1070
    74
1070
     0
1070
    75
1070
     1
1070
    76
1070
     1
1070
    77
1070
     1
1070
    78
1070
     8
1070
   140
1040
59.99999618530273
1070
   147
1040
0.0
1070
   173
1070
     1
1070
   176
1070
     3
1070
   177
1070
     3
1070
   178
1070
     2
1070
   271
1070
     2
1070
   277
1070
     2
1070
   279
1070
     2
1070
   280
1070
     0
1070
   287
1070
     5
1070
   340
1005
392
1002
}
  0
LINE
  5
620
330
1F
100
AcDbEntity
  8
寸法
  6
CONTINUOUS
 62
     3
100
AcDbLine
 10
1215.499999821186
 20
2767.5
 30
0.0
 11
1659.0
 21
2767.5
 31
0.0
  0
ENDSEC
  0
SECTION
  2
OBJECTS
  0
DICTIONARY
  5
C
330
0
100
AcDbDictionary
  3
ACAD_GROUP
350
D
  3
ACAD_LAYOUT
350
1A
  3
ACAD_MATERIAL
350
3B
  3
ACAD_MLEADERSTYLE
350
643
  3
ACAD_MLINESTYLE
350
17
  3
ACAD_PLOTSETTINGS
350
19
  3
ACAD_VISUALSTYLE
350
2A
  3
ACDBHEADERROUNDTRIPXREC
350
621
  3
ACDBVARIABLEDICTIONARY
350
641
  0
DICTIONARY
  5
D
102
{ACAD_REACTORS
330
C
102
}
330
C
100
AcDbDictionary
  0
DICTIONARY
  5
1A
102
{ACAD_REACTORS
330
C
102
}
330
C
100
AcDbDictionary
  0
DICTIONARY
  5
3B
102
{ACAD_REACTORS
330
C
102
}
330
C
100
AcDbDictionary
  3
BYBLOCK
350
3D
  3
BYLAYER
350
3C
  3
GLOBAL
350
3E
  0
DICTIONARY
  5
643
102
{ACAD_REACTORS
330
C
102
}
330
C
100
AcDbDictionary
  0
DICTIONARY
  5
17
102
{ACAD_REACTORS
330
C
102
}
330
C
100
AcDbDictionary
  3
STANDARD
350
18
  0
DICTIONARY
  5
19
102
{ACAD_REACTORS
330
C
102
}
330
C
100
AcDbDictionary
  0
DICTIONARY
  5
2A
102
{ACAD_REACTORS
330
C
102
}
330
C
100
AcDbDictionary
  3
2DWIREFRAME
350
2F
  3
3D_HIDDEN
350
31
  3
3DWIREFRAME
350
30
  3
BASIC
350
32
  3
BRIGHTEN
350
36
  3
COLORCHANGE
350
3A
  3
CONCEPTUAL
350
34
  3
DIM
350
35
  3
FACEPATTERN
350
39
  3
FLAT
350
2B
  3
FLATWITHEDGES
350
2C
  3
GOURAUD
350
2D
  3
GOURAUDWITHEDGES
350
2E
  3
LINEPATTERN
350
38
  3
REALISTIC
350
33
  3
THICKEN
350
37
  0
DICTIONARY
  5
621
102
{ACAD_REACTORS
330
C
102
}
330
C
100
AcDbDictionary
  3
CEPSNTYPE
350
62A
  3
DIMSTYLEDATA
350
640
  3
FINGERPRINTGUID
350
62B
  3
HYPERLINKBASE
350
624
  3
INSUNITS
350
629
  3
LAYOUTDICT
350
626
  3
LWETCUNION
350
628
  3
PLOTSETDICT
350
627
  3
PSVPSCALE
350
62D
  3
PUCSBASE
350
630
  3
PUCSORGBACK
350
636
  3
PUCSORGBOTTOM
350
632
  3
PUCSORGFRONT
350
635
  3
PUCSORGLEFT
350
633
  3
PUCSORGRIGHT
350
634
  3
PUCSORGTOP
350
631
  3
PUCSORTHOREF
350
62E
  3
PUCSORTHOVIEW
350
62F
  3
STYLESHEET
350
625
  3
TSTACKALIGN
350
622
  3
TSTACKSIZE
350
623
  3
UCSBASE
350
639
  3
UCSORGBACK
350
63F
  3
UCSORGBOTTOM
350
63B
  3
UCSORGFRONT
350
63E
  3
UCSORGLEFT
350
63C
  3
UCSORGRIGHT
350
63D
  3
UCSORGTOP
350
63A
  3
UCSORTHOREF
350
637
  3
UCSORTHOVIEW
350
638
  3
VERSIONGUID
350
62C
  0
DICTIONARY
  5
641
102
{ACAD_REACTORS
330
C
102
}
330
C
100
AcDbDictionary
  3
DIMASSOC
350
646
  3
HIDETEXT
350
647
  3
PSOLHEIGHT
350
645
  3
PSOLWIDTH
350
644
  0
MATERIAL
  5
3D
102
{ACAD_REACTORS
330
3B
102
}
102
{ACAD_XDICTIONARY
360
64A
102
}
330
3B
100
AcDbMaterial
  1
ByBlock
  0
MATERIAL
  5
3C
102
{ACAD_REACTORS
330
3B
102
}
102
{ACAD_XDICTIONARY
360
648
102
}
330
3B
100
AcDbMaterial
  1
ByLayer
  0
MATERIAL
  5
3E
102
{ACAD_REACTORS
330
3B
102
}
102
{ACAD_XDICTIONARY
360
64C
102
}
330
3B
100
AcDbMaterial
  1
Global
  0
MLINESTYLE
  5
18
102
{ACAD_REACTORS
330
17
102
}
330
17
100
AcDbMlineStyle
  2
Standard
 70
     0
  3

 62
   256
 51
90.0
 52
90.0
 71
     2
 49
0.5
 62
   256
  6
BYLAYER
 49
-0.5
 62
   256
  6
BYLAYER
  0
ACAD_PROXY_OBJECT
  5
2F
102
{ACAD_REACTORS
330
2A
102
}
330
2A
100
AcDbProxyObject
 90
      499
 91
      501
 93
      436
310
42CC9915DA5C99599C985B595049028333333333333E3BF0000000000000FB0107901411070040501600405405064090741402480A0340
1001
ACAD
1000
AcDbSavedByObjectVersion
1070
     0
  0
ACAD_PROXY_OBJECT
  5
31
102
{ACAD_REACTORS
330
2A
102
}
330
2A
100
AcDbProxyObject
 90
      499
 91
      501
 93
      500
310
424CD108121A5919195B90640502408333333333333E3BF0000000000000FB01079024090700405020000000000001110200405405064090740C02480A0340
1001
ACAD
1000
AcDbSavedByObjectVersion
1070
     0
  0
ACAD_PROXY_OBJECT
  5
30
102
{ACAD_REACTORS
330
2A
102
}
330
2A
100
AcDbProxyObject
 90
      499
 91
      501
 93
      436
310
42CCD915DA5C99599C985B595059028333333333333E3BF0000000000000FB0107901411070040501600405405064090741402480A0340
1001
ACAD
1000
AcDbSavedByObjectVersion
1070
     0
  0
ACAD_PROXY_OBJECT
  5
32
102
{ACAD_REACTORS
330
2A
102
}
330
2A
100
AcDbProxyObject
 90
      499
 91
      501
 93
      388
310
4150985CDA58D07406404333333333333E3BF0000000000000FB0107A41107004050150841D405064090741402480A0350
1001
ACAD
1000
AcDbSavedByObjectVersion
1070
     0
  0
ACAD_PROXY_OBJECT
  5
36
102
{ACAD_REACTORS
330
2A
102
}
330
2A
100
AcDbProxyObject
 90
      499
 91
      501
 93
      428
310
42109C9A59DA1D195B90C409028333333333333E3BF0000000000000FB010790141107004050150841D405064090741402480A029950
1001
ACAD
1000
AcDbSavedByObjectVersion
1070
     0
  0
ACAD_PROXY_OBJECT
  5
3A
102
{ACAD_REACTORS
330
2A
102
}
330
2A
100
AcDbProxyObject
 90
      499
 91
      501
 93
      452
310
42D0DBDB1BDC90DA185B99D95104090240C333333333333E3BF0000000000000FB0108901411070040501508421405064090741402480A0350
1001
ACAD
1000
AcDbSavedByObjectVersion
1070
     0
  0
ACAD_PROXY_OBJECT
  5
34
102
{ACAD_REACTORS
330
2A
102
}
330
2A
100
AcDbProxyObject
 90
      499
 91
      501
 93
      500
310
4290DBDB98D95C1D1D585B10940D028333333333333E3BF0000000000000FB0107902409070040501000000000000111010841D405064090740C02480A0340
1001
ACAD
1000
AcDbSavedByObjectVersion
1070
     0
  0
ACAD_PROXY_OBJECT
  5
35
102
{ACAD_REACTORS
330
2A
102
}
330
2A
100
AcDbProxyObject
 90
      499
 91
      501
 93
      412
310
40D11A5B50B409028333333333333E3BF0000000000000FB010790141107004050150841D405064090741402480A02677FFFFFD0
1001
ACAD
1000
AcDbSavedByObjectVersion
1070
     0
  0
ACAD_PROXY_OBJECT
  5
39
102
{ACAD_REACTORS
330
2A
102
}
330
2A
100
AcDbProxyObject
 90
      499
 91
      501
 93
      444
310
42D19858D95C185D1D195C9B90F409028333333333333E3BF0000000000000FB010790141107004050150841D405064090741402480A0350
1001
ACAD
1000
AcDbSavedByObjectVersion
1070
     0
  0
ACAD_PROXY_OBJECT
  5
2B
102
{ACAD_REACTORS
330
2A
102
}
330
2A
100
AcDbProxyObject
 90
      499
 91
      501
 93
      388
310
41119B185D240901404333333333333E3BF0000000000000F9010740A41107004050150841D405064090741402480A1B50
1001
ACAD
1000
AcDbSavedByObjectVersion
1070
     0
  0
ACAD_PROXY_OBJECT
  5
2C
102
{ACAD_REACTORS
330
2A
102
}
330
2A
100
AcDbProxyObject
 90
      499
 91
      501
 93
      476
310
43519B185D15DA5D1A115919D95CD0140901404333333333333E3BF0000000000000F9010740901411070040501600405405064090741402480A1B50
1001
ACAD
1000
AcDbSavedByObjectVersion
1070
     0
  0
ACAD_PROXY_OBJECT
  5
2D
102
{ACAD_REACTORS
330
2A
102
}
330
2A
100
AcDbProxyObject
 90
      499
 91
      501
 93
      412
310
41D1DBDD5C985D5910240902404333333333333E3BF0000000000000F9010740A411070040501641D405064090741402480A1B50
1001
ACAD
1000
AcDbSavedByObjectVersion
1070
     0
  0
ACAD_PROXY_OBJECT
  5
2E
102
{ACAD_REACTORS
330
2A
102
}
330
2A
100
AcDbProxyObject
 90
      499
 91
      501
 93
      500
310
4411DBDD5C985D5915DA5D1A115919D95CD0340902404333333333333E3BF0000000000000F9010740901411070040501600405405064090741402480A1B50
1001
ACAD
1000
AcDbSavedByObjectVersion
1070
     0
  0
ACAD_PROXY_OBJECT
  5
38
102
{ACAD_REACTORS
330
2A
102
}
330
2A
100
AcDbProxyObject
 90
      499
 91
      501
 93
      444
310
42D31A5B995C185D1D195C9B90E409028333333333333E3BF0000000000000FB010790141107004050750841D405064090741402483A0350
1001
ACAD
1000
AcDbSavedByObjectVersion
1070
     0
  0
ACAD_PROXY_OBJECT
  5
33
102
{ACAD_REACTORS
330
2A
102
}
330
2A
100
AcDbProxyObject
 90
      499
 91
      501
 93
      420
310
425499585B1A5CDD1A58D08409028333333333333E3BF0000000000000FB01079019070040501508421405064090741402480A1B40
1001
ACAD
1000
AcDbSavedByObjectVersion
1070
     0
  0
ACAD_PROXY_OBJECT
  5
37
102
{ACAD_REACTORS
330
2A
102
}
330
2A
100
AcDbProxyObject
 90
      499
 91
      501
 93
      412
310
41D51A1A58DAD95B90D409028333333333333E3BF0000000000000FB010790141107004050150C41D405064090741402480A0350
1001
ACAD
1000
AcDbSavedByObjectVersion
1070
     0
  0
XRECORD
  5
62A
102
{ACAD_REACTORS
330
621
102
}
330
621
100
AcDbXrecord
 90
        0
  0
XRECORD
  5
640
102
{ACAD_REACTORS
330
621
102
}
330
621
100
AcDbXrecord
1000
DSTYLE
1002
{
1070
   340
340
11
1002
}
  0
XRECORD
  5
62B
102
{ACAD_REACTORS
330
621
102
}
330
621
100
AcDbXrecord
  1
{F1D437A2-6F71-4291-B506-3686452232E6}
  0
XRECORD
  5
624
102
{ACAD_REACTORS
330
621
102
}
330
621
100
AcDbXrecord
  1

  0
XRECORD
  5
629
102
{ACAD_REACTORS
330
621
102
}
330
621
100
AcDbXrecord
 90
        4
  0
XRECORD
  5
626
102
{ACAD_REACTORS
330
621
102
}
330
621
100
AcDbXrecord
340
1A
  0
XRECORD
  5
628
102
{ACAD_REACTORS
330
621
102
}
330
621
100
AcDbXrecord
 90
    10781
  0
XRECORD
  5
627
102
{ACAD_REACTORS
330
621
102
}
330
621
100
AcDbXrecord
340
19
  0
XRECORD
  5
62D
102
{ACAD_REACTORS
330
621
102
}
330
621
100
AcDbXrecord
 40
0.0
  0
XRECORD
  5
630
102
{ACAD_REACTORS
330
621
102
}
330
621
100
AcDbXrecord
340
0
  0
XRECORD
  5
636
102
{ACAD_REACTORS
330
621
102
}
330
621
100
AcDbXrecord
 10
0.0
 20
0.0
 30
0.0
  0
XRECORD
  5
632
102
{ACAD_REACTORS
330
621
102
}
330
621
100
AcDbXrecord
 10
0.0
 20
0.0
 30
0.0
  0
XRECORD
  5
635
102
{ACAD_REACTORS
330
621
102
}
330
621
100
AcDbXrecord
 10
0.0
 20
0.0
 30
0.0
  0
XRECORD
  5
633
102
{ACAD_REACTORS
330
621
102
}
330
621
100
AcDbXrecord
 10
0.0
 20
0.0
 30
0.0
  0
XRECORD
  5
634
102
{ACAD_REACTORS
330
621
102
}
330
621
100
AcDbXrecord
 10
0.0
 20
0.0
 30
0.0
  0
XRECORD
  5
631
102
{ACAD_REACTORS
330
621
102
}
330
621
100
AcDbXrecord
 10
0.0
 20
0.0
 30
0.0
  0
XRECORD
  5
62E
102
{ACAD_REACTORS
330
621
102
}
330
621
100
AcDbXrecord
340
0
  0
XRECORD
  5
62F
102
{ACAD_REACTORS
330
621
102
}
330
621
100
AcDbXrecord
 70
     0
  0
XRECORD
  5
625
102
{ACAD_REACTORS
330
621
102
}
330
621
100
AcDbXrecord
  1

  0
XRECORD
  5
622
102
{ACAD_REACTORS
330
621
102
}
330
621
100
AcDbXrecord
 90
        1
  0
XRECORD
  5
623
102
{ACAD_REACTORS
330
621
102
}
330
621
100
AcDbXrecord
 90
       70
  0
XRECORD
  5
639
102
{ACAD_REACTORS
330
621
102
}
330
621
100
AcDbXrecord
340
0
  0
XRECORD
  5
63F
102
{ACAD_REACTORS
330
621
102
}
330
621
100
AcDbXrecord
 10
0.0
 20
0.0
 30
0.0
  0
XRECORD
  5
63B
102
{ACAD_REACTORS
330
621
102
}
330
621
100
AcDbXrecord
 10
0.0
 20
0.0
 30
0.0
  0
XRECORD
  5
63E
102
{ACAD_REACTORS
330
621
102
}
330
621
100
AcDbXrecord
 10
0.0
 20
0.0
 30
0.0
  0
XRECORD
  5
63C
102
{ACAD_REACTORS
330
621
102
}
330
621
100
AcDbXrecord
 10
0.0
 20
0.0
 30
0.0
  0
XRECORD
  5
63D
102
{ACAD_REACTORS
330
621
102
}
330
621
100
AcDbXrecord
 10
0.0
 20
0.0
 30
0.0
  0
XRECORD
  5
63A
102
{ACAD_REACTORS
330
621
102
}
330
621
100
AcDbXrecord
 10
0.0
 20
0.0
 30
0.0
  0
XRECORD
  5
637
102
{ACAD_REACTORS
330
621
102
}
330
621
100
AcDbXrecord
340
0
  0
XRECORD
  5
638
102
{ACAD_REACTORS
330
621
102
}
330
621
100
AcDbXrecord
 70
     0
  0
XRECORD
  5
62C
102
{ACAD_REACTORS
330
621
102
}
330
621
100
AcDbXrecord
  1
{FAEB1C32-E019-11D5-929B-00C0DF256EC4}
  0
DICTIONARYVAR
  5
646
102
{ACAD_REACTORS
330
641
102
}
330
641
100
DictionaryVariables
280
     0
  1
2
  0
DICTIONARYVAR
  5
647
102
{ACAD_REACTORS
330
641
102
}
330
641
100
DictionaryVariables
280
     0
  1
1
  0
DICTIONARYVAR
  5
645
102
{ACAD_REACTORS
330
641
102
}
330
641
100
DictionaryVariables
280
     0
  1
80.000000
  0
DICTIONARYVAR
  5
644
102
{ACAD_REACTORS
330
641
102
}
330
641
100
DictionaryVariables
280
     0
  1
5.000000
  0
DICTIONARY
  5
64A
330
3D
100
AcDbDictionary
280
     1
  3
ACAD_XREC_ROUNDTRIP
360
64B
  0
DICTIONARY
  5
648
330
3C
100
AcDbDictionary
280
     1
  3
ACAD_XREC_ROUNDTRIP
360
649
  0
DICTIONARY
  5
64C
330
3E
100
AcDbDictionary
280
     1
  3
ACAD_XREC_ROUNDTRIP
360
64D
  0
XRECORD
  5
64B
102
{ACAD_REACTORS
330
64A
102
}
330
64A
100
AcDbXrecord
102
MATERIAL
148
0.0
149
0.0
149
0.0
 93
        0
 94
      127
282
     0
 72
     1
 77
     1
171
     1
175
     1
179
     1
273
     0
  0
XRECORD
  5
649
102
{ACAD_REACTORS
330
648
102
}
330
648
100
AcDbXrecord
102
MATERIAL
148
0.0
149
0.0
149
0.0
 93
        0
 94
      127
282
     0
 72
     1
 77
     1
171
     1
175
     1
179
     1
273
     0
  0
XRECORD
  5
64D
102
{ACAD_REACTORS
330
64C
102
}
330
64C
100
AcDbXrecord
102
MATERIAL
148
0.0
149
0.0
149
0.0
 93
        0
 94
      127
282
     0
 72
     1
 77
     1
171
     1
175
     1
179
     1
273
     0
  0
ENDSEC
  0
EOF
