  0
SECTION
  2
HEADER
  9
$ACADVER
  1
AC1014
  9
$ACADMAINTVER
 70
     9
  9
$DWGCODEPAGE
  3
ANSI_932
  9
$INSBASE
 10
0.0
 20
0.0
 30
0.0
  9
$EXTMIN
 10
0.0000000000000446
 20
13.5
 30
0.0
  9
$EXTMAX
 10
200.0
 20
288.5
 30
0.0
  9
$LIMMIN
 10
0.0
 20
0.0
  9
$LIMMAX
 10
210.0
 20
297.0
  9
$ORTHOMODE
 70
     0
  9
$REGENMODE
 70
     1
  9
$FILLMODE
 70
     1
  9
$QTEXTMODE
 70
     0
  9
$MIRRTEXT
 70
     1
  9
$DRAGMODE
 70
     2
  9
$LTSCALE
 40
1.0
  9
$OSMODE
 70
    37
  9
$ATTMODE
 70
     1
  9
$TEXTSIZE
 40
2.5
  9
$TRACEWID
 40
1.0
  9
$TEXTSTYLE
  7
STANDARD
  9
$CLAYER
  8
寸法
  9
$CELTYPE
  6
BYLAYER
  9
$CECOLOR
 62
   256
  9
$CELTSCALE
 40
1.0
  9
$DELOBJ
 70
     1
  9
$DISPSILH
 70
     0
  9
$DIMSCALE
 40
1.0
  9
$DIMASZ
 40
2.5
  9
$DIMEXO
 40
0.625
  9
$DIMDLI
 40
3.75
  9
$DIMRND
 40
0.0
  9
$DIMDLE
 40
0.0
  9
$DIMEXE
 40
1.25
  9
$DIMTP
 40
0.0
  9
$DIMTM
 40
0.0
  9
$DIMTXT
 40
2.5
  9
$DIMCEN
 40
2.5
  9
$DIMTSZ
 40
0.0
  9
$DIMTOL
 70
     0
  9
$DIMLIM
 70
     0
  9
$DIMTIH
 70
     0
  9
$DIMTOH
 70
     0
  9
$DIMSE1
 70
     0
  9
$DIMSE2
 70
     0
  9
$DIMTAD
 70
     1
  9
$DIMZIN
 70
     8
  9
$DIMBLK
  1

  9
$DIMASO
 70
     1
  9
$DIMSHO
 70
     1
  9
$DIMPOST
  1

  9
$DIMAPOST
  1

  9
$DIMALT
 70
     0
  9
$DIMALTD
 70
     3
  9
$DIMALTF
 40
0.03937007874016
  9
$DIMLFAC
 40
1.0
  9
$DIMTOFL
 70
     1
  9
$DIMTVP
 40
0.0
  9
$DIMTIX
 70
     0
  9
$DIMSOXD
 70
     0
  9
$DIMSAH
 70
     0
  9
$DIMBLK1
  1

  9
$DIMBLK2
  1

  9
$DIMSTYLE
  2
ISO-25
  9
$DIMCLRD
 70
     0
  9
$DIMCLRE
 70
     0
  9
$DIMCLRT
 70
     0
  9
$DIMTFAC
 40
1.0
  9
$DIMGAP
 40
0.625
  9
$DIMJUST
 70
     0
  9
$DIMSD1
 70
     0
  9
$DIMSD2
 70
     0
  9
$DIMTOLJ
 70
     0
  9
$DIMTZIN
 70
     8
  9
$DIMALTZ
 70
     0
  9
$DIMALTTZ
 70
     0
  9
$DIMFIT
 70
     3
  9
$DIMUPT
 70
     0
  9
$DIMUNIT
 70
     2
  9
$DIMDEC
 70
     2
  9
$DIMTDEC
 70
     2
  9
$DIMALTU
 70
     2
  9
$DIMALTTD
 70
     3
  9
$DIMTXSTY
  7
STANDARD
  9
$DIMAUNIT
 70
     0
  9
$LUNITS
 70
     2
  9
$LUPREC
 70
     4
  9
$SKETCHINC
 40
1.0
  9
$FILLETRAD
 40
10.0
  9
$AUNITS
 70
     0
  9
$AUPREC
 70
     0
  9
$MENU
  1
.
  9
$ELEVATION
 40
0.0
  9
$PELEVATION
 40
0.0
  9
$THICKNESS
 40
0.0
  9
$LIMCHECK
 70
     0
  9
$CHAMFERA
 40
10.0
  9
$CHAMFERB
 40
10.0
  9
$CHAMFERC
 40
20.0
  9
$CHAMFERD
 40
0.0
  9
$SKPOLY
 70
     0
  9
$TDCREATE
 40
2458218.426422072
  9
$TDUPDATE
 40
2458218.426422257
  9
$TDINDWG
 40
0.0000000116
  9
$TDUSRTIMER
 40
0.0000000116
  9
$USRTIMER
 70
     1
  9
$ANGBASE
 50
0.0
  9
$ANGDIR
 70
     0
  9
$PDMODE
 70
     0
  9
$PDSIZE
 40
0.0
  9
$PLINEWID
 40
0.0
  9
$COORDS
 70
     1
  9
$SPLFRAME
 70
     0
  9
$SPLINETYPE
 70
     6
  9
$SPLINESEGS
 70
     8
  9
$ATTDIA
 70
     0
  9
$ATTREQ
 70
     1
  9
$HANDLING
 70
     1
  9
$HANDSEED
  5
35E
  9
$SURFTAB1
 70
     6
  9
$SURFTAB2
 70
     6
  9
$SURFTYPE
 70
     6
  9
$SURFU
 70
     6
  9
$SURFV
 70
     6
  9
$UCSNAME
  2

  9
$UCSORG
 10
0.0
 20
0.0
 30
0.0
  9
$UCSXDIR
 10
1.0
 20
0.0
 30
0.0
  9
$UCSYDIR
 10
0.0
 20
1.0
 30
0.0
  9
$PUCSNAME
  2

  9
$PUCSORG
 10
0.0
 20
0.0
 30
0.0
  9
$PUCSXDIR
 10
1.0
 20
0.0
 30
0.0
  9
$PUCSYDIR
 10
0.0
 20
1.0
 30
0.0
  9
$USERI1
 70
     0
  9
$USERI2
 70
     0
  9
$USERI3
 70
     0
  9
$USERI4
 70
     0
  9
$USERI5
 70
     0
  9
$USERR1
 40
0.0
  9
$USERR2
 40
0.0
  9
$USERR3
 40
0.0
  9
$USERR4
 40
0.0
  9
$USERR5
 40
0.0
  9
$WORLDVIEW
 70
     1
  9
$SHADEDGE
 70
     3
  9
$SHADEDIF
 70
    70
  9
$TILEMODE
 70
     1
  9
$MAXACTVP
 70
    64
  9
$PINSBASE
 10
0.0
 20
0.0
 30
0.0
  9
$PLIMCHECK
 70
     0
  9
$PEXTMIN
 10
1.000000000000000E+20
 20
1.000000000000000E+20
 30
1.000000000000000E+20
  9
$PEXTMAX
 10
-1.000000000000000E+20
 20
-1.000000000000000E+20
 30
-1.000000000000000E+20
  9
$PLIMMIN
 10
0.0
 20
0.0
  9
$PLIMMAX
 10
420.0
 20
297.0
  9
$UNITMODE
 70
     0
  9
$VISRETAIN
 70
     1
  9
$PLINEGEN
 70
     0
  9
$PSLTSCALE
 70
     1
  9
$TREEDEPTH
 70
  3020
  9
$PICKSTYLE
 70
     1
  9
$CMLSTYLE
  2
STANDARD
  9
$CMLJUST
 70
     0
  9
$CMLSCALE
 40
20.0
  9
$PROXYGRAPHICS
 70
     1
  9
$MEASUREMENT
 70
     1
  0
ENDSEC
  0
SECTION
  2
CLASSES
  0
CLASS
  1
ACDBDICTIONARYWDFLT
  2
AcDbDictionaryWithDefault
  3
ObjectDBX Classes
 90
        0
280
     0
281
     0
  0
CLASS
  1
VISUALSTYLE
  2
AcDbVisualStyle
  3
ObjectDBX Classes
 90
     4095
280
     0
281
     0
  0
CLASS
  1
MATERIAL
  2
AcDbMaterial
  3
ObjectDBX Classes
 90
     1153
280
     0
281
     0
  0
CLASS
  1
SUN
  2
AcDbSun
  3
SCENEOE
 90
     1024
280
     0
281
     0
  0
CLASS
  1
DICTIONARYVAR
  2
AcDbDictionaryVar
  3
ObjectDBX Classes
 90
        0
280
     0
281
     0
  0
CLASS
  1
XRECORD
  2
AcDbXrecord
  3
AutoCAD 2000
 90
        0
280
     0
281
     0
  0
CLASS
  1
LWPOLYLINE
  2
AcDbPolyline
  3
AutoCAD 2000
 90
        0
280
     0
281
     1
  0
CLASS
  1
HATCH
  2
AcDbHatch
  3
AutoCAD 2000
 90
        0
280
     0
281
     1
  0
CLASS
  1
ACDBPLACEHOLDER
  2
AcDbPlaceHolder
  3
ObjectDBX Classes
 90
        0
280
     0
281
     0
  0
CLASS
  1
LAYOUT
  2
AcDbLayout
  3
ObjectDBX Classes
 90
        0
280
     0
281
     0
  0
ENDSEC
  0
SECTION
  2
TABLES
  0
TABLE
  2
VPORT
  5
8
330
0
100
AcDbSymbolTable
 70
     1
  0
VPORT
  5
29
330
8
100
AcDbSymbolTableRecord
100
AcDbViewportTableRecord
  2
*ACTIVE
 70
     0
 10
0.0
 20
0.0
 11
1.0
 21
1.0
 12
1000.0
 22
1510.0
 13
0.0
 23
0.0
 14
10.0
 24
10.0
 15
10.0
 25
10.0
 16
0.0
 26
0.0
 36
1.0
 17
0.0
 27
0.0
 37
0.0
 40
2750.0
 41
0.7272727272727271
 42
50.0
 43
0.0
 44
0.0
 50
0.0
 51
0.0
 71
     0
 72
  1000
 73
     1
 74
     3
 75
     0
 76
     0
 77
     0
 78
     0
  0
ENDTAB
  0
TABLE
  2
LTYPE
  5
5
330
0
100
AcDbSymbolTable
 70
     7
  0
LTYPE
  5
14
330
5
100
AcDbSymbolTableRecord
100
AcDbLinetypeTableRecord
  2
BYBLOCK
 70
     0
  3

 72
    65
 73
     0
 40
0.0
  0
LTYPE
  5
15
330
5
100
AcDbSymbolTableRecord
100
AcDbLinetypeTableRecord
  2
BYLAYER
 70
     0
  3

 72
    65
 73
     0
 40
0.0
  0
LTYPE
  5
16
330
5
100
AcDbSymbolTableRecord
100
AcDbLinetypeTableRecord
  2
CONTINUOUS
 70
     0
  3
Solid line
 72
    65
 73
     0
 40
0.0
  0
LTYPE
  5
40
330
5
100
AcDbSymbolTableRecord
100
AcDbLinetypeTableRecord
  2
EXLTYPE1
 70
     0
  3
破線
 72
    65
 73
     2
 40
3.0
 49
2.0
 74
     0
 49
-1.0
 74
     0
  0
LTYPE
  5
41
330
5
100
AcDbSymbolTableRecord
100
AcDbLinetypeTableRecord
  2
EXLTYPE2
 70
     0
  3
点線
 72
    65
 73
     2
 40
2.0
 49
1.0
 74
     0
 49
-1.0
 74
     0
  0
LTYPE
  5
42
330
5
100
AcDbSymbolTableRecord
100
AcDbLinetypeTableRecord
  2
EXLTYPE3
 70
     0
  3
一点鎖線
 72
    65
 73
     4
 40
10.0
 49
7.0
 74
     0
 49
-1.0
 74
     0
 49
1.0
 74
     0
 49
-1.0
 74
     0
  0
LTYPE
  5
43
330
5
100
AcDbSymbolTableRecord
100
AcDbLinetypeTableRecord
  2
EXLTYPE4
 70
     0
  3
二点鎖線
 72
    65
 73
     6
 40
12.0
 49
7.0
 74
     0
 49
-1.0
 74
     0
 49
1.0
 74
     0
 49
-1.0
 74
     0
 49
1.0
 74
     0
 49
-1.0
 74
     0
  0
LTYPE
  5
44
330
5
100
AcDbSymbolTableRecord
100
AcDbLinetypeTableRecord
  2
EXLTYPE5
 70
     0
  3
三点鎖線
 72
    65
 73
     8
 40
37.0
 49
30.0
 74
     0
 49
-1.0
 74
     0
 49
1.0
 74
     0
 49
-1.0
 74
     0
 49
1.0
 74
     0
 49
-1.0
 74
     0
 49
1.0
 74
     0
 49
-1.0
 74
     0
  0
LTYPE
  5
45
330
5
100
AcDbSymbolTableRecord
100
AcDbLinetypeTableRecord
  2
EXLTYPE6
 70
     0
  3
四点鎖線
 72
    65
 73
    10
 40
39.0
 49
30.0
 74
     0
 49
-1.0
 74
     0
 49
1.0
 74
     0
 49
-1.0
 74
     0
 49
1.0
 74
     0
 49
-1.0
 74
     0
 49
1.0
 74
     0
 49
-1.0
 74
     0
 49
1.0
 74
     0
 49
-1.0
 74
     0
  0
ENDTAB
  0
TABLE
  2
LAYER
  5
2
330
0
100
AcDbSymbolTable
 70
     5
  0
LAYER
  5
10
330
2
100
AcDbSymbolTableRecord
100
AcDbLayerTableRecord
  2
0
 70
     0
 62
     7
  6
CONTINUOUS
  0
LAYER
  5
48
330
2
100
AcDbSymbolTableRecord
100
AcDbLayerTableRecord
  2
枠_表
 70
     0
 62
     7
  6
CONTINUOUS
  0
LAYER
  5
49
330
2
100
AcDbSymbolTableRecord
100
AcDbLayerTableRecord
  2
鏡台
 70
     0
 62
     7
  6
CONTINUOUS
  0
LAYER
  5
4A
330
2
100
AcDbSymbolTableRecord
100
AcDbLayerTableRecord
  2
寸法
 70
     0
 62
     7
  6
CONTINUOUS
  0
LAYER
  5
295
330
2
100
AcDbSymbolTableRecord
100
AcDbLayerTableRecord
  2
DEFPOINTS
 70
     0
 62
     7
  6
CONTINUOUS
  0
ENDTAB
  0
TABLE
  2
STYLE
  5
3
330
0
100
AcDbSymbolTable
 70
     5
  0
STYLE
  5
11
330
3
100
AcDbSymbolTableRecord
100
AcDbTextStyleTableRecord
  2
STANDARD
 70
     0
 40
0.0
 41
1.0
 50
0.0
 71
     0
 42
2.5
  3
monotxt
  4
extfont
  0
STYLE
  5
46
330
3
100
AcDbSymbolTableRecord
100
AcDbTextStyleTableRecord
  2
EXCADSTD
 70
     0
 40
0.0
 41
1.0
 50
0.0
 71
     0
 42
0.2
  3
monotxt
  4
extfont
  0
STYLE
  5
47
330
3
100
AcDbSymbolTableRecord
100
AcDbTextStyleTableRecord
  2
EXCADVERT
 70
     4
 40
0.0
 41
1.0
 50
0.0
 71
     0
 42
0.286885
  3
monotxt
  4
extfont
  0
STYLE
  5
AC
330
3
100
AcDbSymbolTableRecord
100
AcDbTextStyleTableRecord
  2
EXCADTTF1
 70
     0
 40
0.0
 41
1.0
 50
0.0
 71
     0
 42
0.2
  3
MSGOTHIC.TTC
  4

1001
ACAD
1000
MS Gothic
1071
    32817
  0
STYLE
  5
293
330
3
100
AcDbSymbolTableRecord
100
AcDbTextStyleTableRecord
  2
EXCADDIM1
 70
     0
 40
0.0
 41
0.84
 50
0.0
 71
     0
 42
0.2
  3
monotxt
  4
extfont
  0
ENDTAB
  0
TABLE
  2
VIEW
  5
6
330
0
100
AcDbSymbolTable
 70
     0
  0
ENDTAB
  0
TABLE
  2
UCS
  5
7
330
0
100
AcDbSymbolTable
 70
     0
  0
ENDTAB
  0
TABLE
  2
APPID
  5
9
330
0
100
AcDbSymbolTable
 70
     1
  0
APPID
  5
12
330
9
100
AcDbSymbolTableRecord
100
AcDbRegAppTableRecord
  2
ACAD
 70
     0
  0
ENDTAB
  0
TABLE
  2
DIMSTYLE
  5
A
330
0
100
AcDbSymbolTable
 70
     1
  0
DIMSTYLE
105
27
102
{ACAD_REACTORS
330
294
330
2A2
330
2B1
330
2BC
330
2C9
330
2D6
330
2E3
330
2F0
330
2FD
330
30A
330
317
330
324
102
}
330
A
100
AcDbSymbolTableRecord
100
AcDbDimStyleTableRecord
  2
ISO-25
 70
     0
  3

  4

  5

  6

  7

 40
1.0
 41
2.5
 42
0.625
 43
3.75
 44
1.25
 45
0.0
 46
0.0
 47
0.0
 48
0.0
140
2.5
141
2.5
142
0.0
143
0.03937007874016
144
1.0
145
0.0
146
1.0
147
0.625
 71
     0
 72
     0
 73
     0
 74
     0
 75
     0
 76
     0
 77
     1
 78
     8
170
     0
171
     3
172
     1
173
     0
174
     0
175
     0
176
     0
177
     0
178
     0
270
     2
271
     2
272
     2
273
     2
274
     3
340
11
275
     0
280
     0
281
     0
282
     0
283
     0
284
     8
285
     0
286
     0
287
     5
288
     0
  0
ENDTAB
  0
TABLE
  2
BLOCK_RECORD
  5
1
330
0
100
AcDbSymbolTable
 70
    27
  0
BLOCK_RECORD
  5
1F
330
1
100
AcDbSymbolTableRecord
100
AcDbBlockTableRecord
  2
*MODEL_SPACE
  0
BLOCK_RECORD
  5
1B
330
1
100
AcDbSymbolTableRecord
100
AcDbBlockTableRecord
  2
*PAPER_SPACE
  0
BLOCK_RECORD
  5
4B
330
1
100
AcDbSymbolTableRecord
100
AcDbBlockTableRecord
  2
EX_NORM
  0
BLOCK_RECORD
  5
4E
330
1
100
AcDbSymbolTableRecord
100
AcDbBlockTableRecord
  2
EX_BNORM
  0
BLOCK_RECORD
  5
51
330
1
100
AcDbSymbolTableRecord
100
AcDbBlockTableRecord
  2
EX_BCIR
  0
BLOCK_RECORD
  5
54
330
1
100
AcDbSymbolTableRecord
100
AcDbBlockTableRecord
  2
EX_RCIVIL
  0
BLOCK_RECORD
  5
57
330
1
100
AcDbSymbolTableRecord
100
AcDbBlockTableRecord
  2
EX_SLANT
  0
BLOCK_RECORD
  5
5A
330
1
100
AcDbSymbolTableRecord
100
AcDbBlockTableRecord
  2
EX_NONE
  0
BLOCK_RECORD
  5
5D
330
1
100
AcDbSymbolTableRecord
100
AcDbBlockTableRecord
  2
EX_CIVIL
  0
BLOCK_RECORD
  5
60
330
1
100
AcDbSymbolTableRecord
100
AcDbBlockTableRecord
  2
EX_WCIR
  0
BLOCK_RECORD
  5
63
330
1
100
AcDbSymbolTableRecord
100
AcDbBlockTableRecord
  2
EX_WCIR2
  0
BLOCK_RECORD
  5
66
330
1
100
AcDbSymbolTableRecord
100
AcDbBlockTableRecord
  2
EX_WNORM
  0
BLOCK_RECORD
  5
69
330
1
100
AcDbSymbolTableRecord
100
AcDbBlockTableRecord
  2
EX_NNORM
  0
BLOCK_RECORD
  5
6C
330
1
100
AcDbSymbolTableRecord
100
AcDbBlockTableRecord
  2
EX_BBOX
  0
BLOCK_RECORD
  5
6F
330
1
100
AcDbSymbolTableRecord
100
AcDbBlockTableRecord
  2
EX_WBOX
  0
BLOCK_RECORD
  5
72
330
1
100
AcDbSymbolTableRecord
100
AcDbBlockTableRecord
  2
EX_INTEGRAL
  0
BLOCK_RECORD
  5
296
330
1
100
AcDbSymbolTableRecord
100
AcDbBlockTableRecord
  2
*D15
  0
BLOCK_RECORD
  5
2A3
330
1
100
AcDbSymbolTableRecord
100
AcDbBlockTableRecord
  2
*D16
  0
BLOCK_RECORD
  5
2B2
330
1
100
AcDbSymbolTableRecord
100
AcDbBlockTableRecord
  2
*D17
  0
BLOCK_RECORD
  5
2BD
330
1
100
AcDbSymbolTableRecord
100
AcDbBlockTableRecord
  2
*D18
  0
BLOCK_RECORD
  5
2CA
330
1
100
AcDbSymbolTableRecord
100
AcDbBlockTableRecord
  2
*D19
  0
BLOCK_RECORD
  5
2D7
330
1
100
AcDbSymbolTableRecord
100
AcDbBlockTableRecord
  2
*D20
  0
BLOCK_RECORD
  5
2E4
330
1
100
AcDbSymbolTableRecord
100
AcDbBlockTableRecord
  2
*D21
  0
BLOCK_RECORD
  5
2F1
330
1
100
AcDbSymbolTableRecord
100
AcDbBlockTableRecord
  2
*D22
  0
BLOCK_RECORD
  5
2FE
330
1
100
AcDbSymbolTableRecord
100
AcDbBlockTableRecord
  2
*D23
  0
BLOCK_RECORD
  5
30B
330
1
100
AcDbSymbolTableRecord
100
AcDbBlockTableRecord
  2
*D24
  0
BLOCK_RECORD
  5
318
330
1
100
AcDbSymbolTableRecord
100
AcDbBlockTableRecord
  2
*D25
  0
BLOCK_RECORD
  5
325
330
1
100
AcDbSymbolTableRecord
100
AcDbBlockTableRecord
  2
*D26
  0
ENDTAB
  0
ENDSEC
  0
SECTION
  2
BLOCKS
  0
BLOCK
  5
20
330
1F
100
AcDbEntity
  8
0
100
AcDbBlockBegin
  2
*MODEL_SPACE
 70
     0
 10
0.0
 20
0.0
 30
0.0
  3
*MODEL_SPACE
  1

  0
ENDBLK
  5
21
330
1F
100
AcDbEntity
  8
0
100
AcDbBlockEnd
  0
BLOCK
  5
1C
330
1B
100
AcDbEntity
 67
     1
  8
0
100
AcDbBlockBegin
  2
*PAPER_SPACE
 70
     0
 10
0.0
 20
0.0
 30
0.0
  3
*PAPER_SPACE
  1

  0
ENDBLK
  5
1D
330
1B
100
AcDbEntity
 67
     1
  8
0
100
AcDbBlockEnd
  0
BLOCK
  5
4C
330
4B
100
AcDbEntity
  8
0
100
AcDbBlockBegin
  2
EX_NORM
 70
     0
 10
0.0
 20
0.0
 30
0.0
  3
EX_NORM
  1

  0
LINE
  5
75
330
4B
100
AcDbEntity
  8
0
  6
CONTINUOUS
 62
     0
100
AcDbLine
 10
0.0
 20
0.0
 30
0.0
 11
-1.0
 21
0.0
 31
0.0
  0
LINE
  5
76
330
4B
100
AcDbEntity
  8
0
  6
CONTINUOUS
 62
     0
100
AcDbLine
 10
0.0
 20
0.0
 30
0.0
 11
-1.0
 21
0.166666667
 31
0.0
  0
LINE
  5
77
330
4B
100
AcDbEntity
  8
0
  6
CONTINUOUS
 62
     0
100
AcDbLine
 10
0.0
 20
0.0
 30
0.0
 11
-1.0
 21
-0.166666667
 31
0.0
  0
ENDBLK
  5
4D
330
4B
100
AcDbEntity
  8
0
100
AcDbBlockEnd
  0
BLOCK
  5
4F
330
4E
100
AcDbEntity
  8
0
100
AcDbBlockBegin
  2
EX_BNORM
 70
     0
 10
0.0
 20
0.0
 30
0.0
  3
EX_BNORM
  1

  0
LINE
  5
78
330
4E
100
AcDbEntity
  8
0
  6
CONTINUOUS
 62
     0
100
AcDbLine
 10
0.0
 20
0.0
 30
0.0
 11
-1.0
 21
0.0
 31
0.0
  0
LINE
  5
79
330
4E
100
AcDbEntity
  8
0
  6
CONTINUOUS
 62
     0
100
AcDbLine
 10
0.0
 20
0.0
 30
0.0
 11
-1.0
 21
0.166666667
 31
0.0
  0
LINE
  5
7A
330
4E
100
AcDbEntity
  8
0
  6
CONTINUOUS
 62
     0
100
AcDbLine
 10
0.0
 20
0.0
 30
0.0
 11
-1.0
 21
-0.166666667
 31
0.0
  0
LINE
  5
7B
330
4E
100
AcDbEntity
  8
0
  6
CONTINUOUS
 62
     0
100
AcDbLine
 10
0.0
 20
0.0
 30
0.0
 11
-1.0
 21
0.083333333
 31
0.0
  0
LINE
  5
7C
330
4E
100
AcDbEntity
  8
0
  6
CONTINUOUS
 62
     0
100
AcDbLine
 10
0.0
 20
0.0
 30
0.0
 11
-1.0
 21
-0.083333333
 31
0.0
  0
LINE
  5
7D
330
4E
100
AcDbEntity
  8
0
  6
CONTINUOUS
 62
     0
100
AcDbLine
 10
-1.0
 20
0.166666667
 30
0.0
 11
-1.0
 21
-0.166666667
 31
0.0
  0
ENDBLK
  5
50
330
4E
100
AcDbEntity
  8
0
100
AcDbBlockEnd
  0
BLOCK
  5
52
330
51
100
AcDbEntity
  8
0
100
AcDbBlockBegin
  2
EX_BCIR
 70
     0
 10
0.0
 20
0.0
 30
0.0
  3
EX_BCIR
  1

  0
LINE
  5
7E
330
51
100
AcDbEntity
  8
0
  6
CONTINUOUS
 62
     0
100
AcDbLine
 10
0.0
 20
0.0
 30
0.0
 11
-1.0
 21
0.0
 31
0.0
  0
CIRCLE
  5
7F
330
51
100
AcDbEntity
  8
0
  6
CONTINUOUS
 62
     0
100
AcDbCircle
 10
0.0
 20
0.0
 30
0.0
 40
0.5
  0
CIRCLE
  5
80
330
51
100
AcDbEntity
  8
0
  6
CONTINUOUS
 62
     0
100
AcDbCircle
 10
0.0
 20
0.0
 30
0.0
 40
0.25
  0
ENDBLK
  5
53
330
51
100
AcDbEntity
  8
0
100
AcDbBlockEnd
  0
BLOCK
  5
55
330
54
100
AcDbEntity
  8
0
100
AcDbBlockBegin
  2
EX_RCIVIL
 70
     0
 10
0.0
 20
0.0
 30
0.0
  3
EX_RCIVIL
  1

  0
LINE
  5
81
330
54
100
AcDbEntity
  8
0
  6
CONTINUOUS
 62
     0
100
AcDbLine
 10
0.0
 20
0.0
 30
0.0
 11
-1.0
 21
0.0
 31
0.0
  0
LINE
  5
82
330
54
100
AcDbEntity
  8
0
  6
CONTINUOUS
 62
     0
100
AcDbLine
 10
-1.0
 20
-0.25
 30
0.0
 11
0.0
 21
-0.25
 31
0.0
  0
LINE
  5
83
330
54
100
AcDbEntity
  8
0
  6
CONTINUOUS
 62
     0
100
AcDbLine
 10
-1.0
 20
-0.125
 30
0.0
 11
0.0
 21
-0.125
 31
0.0
  0
ENDBLK
  5
56
330
54
100
AcDbEntity
  8
0
100
AcDbBlockEnd
  0
BLOCK
  5
58
330
57
100
AcDbEntity
  8
0
100
AcDbBlockBegin
  2
EX_SLANT
 70
     0
 10
0.0
 20
0.0
 30
0.0
  3
EX_SLANT
  1

  0
LINE
  5
84
330
57
100
AcDbEntity
  8
0
  6
CONTINUOUS
 62
     0
100
AcDbLine
 10
0.0
 20
0.0
 30
0.0
 11
-1.0
 21
0.0
 31
0.0
  0
LINE
  5
85
330
57
100
AcDbEntity
  8
0
  6
CONTINUOUS
 62
     0
100
AcDbLine
 10
0.707106781
 20
0.707106781
 30
0.0
 11
-0.707106781
 21
-0.707106781
 31
0.0
  0
ENDBLK
  5
59
330
57
100
AcDbEntity
  8
0
100
AcDbBlockEnd
  0
BLOCK
  5
5B
330
5A
100
AcDbEntity
  8
0
100
AcDbBlockBegin
  2
EX_NONE
 70
     0
 10
0.0
 20
0.0
 30
0.0
  3
EX_NONE
  1

  0
LINE
  5
86
330
5A
100
AcDbEntity
  8
0
  6
CONTINUOUS
 62
     0
100
AcDbLine
 10
0.0
 20
0.0
 30
0.0
 11
-1.0
 21
0.0
 31
0.0
  0
ENDBLK
  5
5C
330
5A
100
AcDbEntity
  8
0
100
AcDbBlockEnd
  0
BLOCK
  5
5E
330
5D
100
AcDbEntity
  8
0
100
AcDbBlockBegin
  2
EX_CIVIL
 70
     0
 10
0.0
 20
0.0
 30
0.0
  3
EX_CIVIL
  1

  0
LINE
  5
87
330
5D
100
AcDbEntity
  8
0
  6
CONTINUOUS
 62
     0
100
AcDbLine
 10
0.0
 20
0.0
 30
0.0
 11
-1.0
 21
0.0
 31
0.0
  0
LINE
  5
88
330
5D
100
AcDbEntity
  8
0
  6
CONTINUOUS
 62
     0
100
AcDbLine
 10
-1.0
 20
0.25
 30
0.0
 11
0.0
 21
0.25
 31
0.0
  0
LINE
  5
89
330
5D
100
AcDbEntity
  8
0
  6
CONTINUOUS
 62
     0
100
AcDbLine
 10
-1.0
 20
0.125
 30
0.0
 11
0.0
 21
0.125
 31
0.0
  0
ENDBLK
  5
5F
330
5D
100
AcDbEntity
  8
0
100
AcDbBlockEnd
  0
BLOCK
  5
61
330
60
100
AcDbEntity
  8
0
100
AcDbBlockBegin
  2
EX_WCIR
 70
     0
 10
0.0
 20
0.0
 30
0.0
  3
EX_WCIR
  1

  0
LINE
  5
8A
330
60
100
AcDbEntity
  8
0
  6
CONTINUOUS
 62
     0
100
AcDbLine
 10
0.0
 20
0.0
 30
0.0
 11
-1.0
 21
0.0
 31
0.0
  0
CIRCLE
  5
8B
330
60
100
AcDbEntity
  8
0
  6
CONTINUOUS
 62
     0
100
AcDbCircle
 10
0.0
 20
0.0
 30
0.0
 40
0.5
  0
ENDBLK
  5
62
330
60
100
AcDbEntity
  8
0
100
AcDbBlockEnd
  0
BLOCK
  5
64
330
63
100
AcDbEntity
  8
0
100
AcDbBlockBegin
  2
EX_WCIR2
 70
     0
 10
0.0
 20
0.0
 30
0.0
  3
EX_WCIR2
  1

  0
LINE
  5
8C
330
63
100
AcDbEntity
  8
0
  6
CONTINUOUS
 62
     0
100
AcDbLine
 10
-0.5
 20
0.0
 30
0.0
 11
-1.0
 21
0.0
 31
0.0
  0
CIRCLE
  5
8D
330
63
100
AcDbEntity
  8
0
  6
CONTINUOUS
 62
     0
100
AcDbCircle
 10
0.0
 20
0.0
 30
0.0
 40
0.5
  0
ENDBLK
  5
65
330
63
100
AcDbEntity
  8
0
100
AcDbBlockEnd
  0
BLOCK
  5
67
330
66
100
AcDbEntity
  8
0
100
AcDbBlockBegin
  2
EX_WNORM
 70
     0
 10
0.0
 20
0.0
 30
0.0
  3
EX_WNORM
  1

  0
LINE
  5
8E
330
66
100
AcDbEntity
  8
0
  6
CONTINUOUS
 62
     0
100
AcDbLine
 10
-1.0
 20
0.0
 30
0.0
 11
-1.0
 21
0.0
 31
0.0
  0
LINE
  5
8F
330
66
100
AcDbEntity
  8
0
  6
CONTINUOUS
 62
     0
100
AcDbLine
 10
0.0
 20
0.0
 30
0.0
 11
-1.0
 21
0.166666667
 31
0.0
  0
LINE
  5
90
330
66
100
AcDbEntity
  8
0
  6
CONTINUOUS
 62
     0
100
AcDbLine
 10
0.0
 20
0.0
 30
0.0
 11
-1.0
 21
-0.166666667
 31
0.0
  0
LINE
  5
91
330
66
100
AcDbEntity
  8
0
  6
CONTINUOUS
 62
     0
100
AcDbLine
 10
-1.0
 20
0.166666667
 30
0.0
 11
-1.0
 21
-0.166666667
 31
0.0
  0
ENDBLK
  5
68
330
66
100
AcDbEntity
  8
0
100
AcDbBlockEnd
  0
BLOCK
  5
6A
330
69
100
AcDbEntity
  8
0
100
AcDbBlockBegin
  2
EX_NNORM
 70
     0
 10
0.0
 20
0.0
 30
0.0
  3
EX_NNORM
  1

  0
LINE
  5
92
330
69
100
AcDbEntity
  8
0
  6
CONTINUOUS
 62
     0
100
AcDbLine
 10
0.0
 20
0.0
 30
0.0
 11
-1.0
 21
0.0
 31
0.0
  0
LINE
  5
93
330
69
100
AcDbEntity
  8
0
  6
CONTINUOUS
 62
     0
100
AcDbLine
 10
0.0
 20
0.0
 30
0.0
 11
-1.0
 21
0.166666667
 31
0.0
  0
LINE
  5
94
330
69
100
AcDbEntity
  8
0
  6
CONTINUOUS
 62
     0
100
AcDbLine
 10
0.0
 20
0.0
 30
0.0
 11
-1.0
 21
-0.166666667
 31
0.0
  0
LINE
  5
95
330
69
100
AcDbEntity
  8
0
  6
CONTINUOUS
 62
     0
100
AcDbLine
 10
-1.0
 20
0.166666667
 30
0.0
 11
-1.0
 21
-0.166666667
 31
0.0
  0
ENDBLK
  5
6B
330
69
100
AcDbEntity
  8
0
100
AcDbBlockEnd
  0
BLOCK
  5
6D
330
6C
100
AcDbEntity
  8
0
100
AcDbBlockBegin
  2
EX_BBOX
 70
     0
 10
0.0
 20
0.0
 30
0.0
  3
EX_BBOX
  1

  0
LINE
  5
96
330
6C
100
AcDbEntity
  8
0
  6
CONTINUOUS
 62
     0
100
AcDbLine
 10
0.0
 20
0.0
 30
0.0
 11
-1.0
 21
0.0
 31
0.0
  0
LINE
  5
97
330
6C
100
AcDbEntity
  8
0
  6
CONTINUOUS
 62
     0
100
AcDbLine
 10
-0.5
 20
0.5
 30
0.0
 11
0.5
 21
0.5
 31
0.0
  0
LINE
  5
98
330
6C
100
AcDbEntity
  8
0
  6
CONTINUOUS
 62
     0
100
AcDbLine
 10
0.5
 20
0.5
 30
0.0
 11
0.5
 21
-0.5
 31
0.0
  0
LINE
  5
99
330
6C
100
AcDbEntity
  8
0
  6
CONTINUOUS
 62
     0
100
AcDbLine
 10
0.5
 20
-0.5
 30
0.0
 11
-0.5
 21
-0.5
 31
0.0
  0
LINE
  5
9A
330
6C
100
AcDbEntity
  8
0
  6
CONTINUOUS
 62
     0
100
AcDbLine
 10
-0.5
 20
-0.5
 30
0.0
 11
-0.5
 21
0.5
 31
0.0
  0
LINE
  5
9B
330
6C
100
AcDbEntity
  8
0
  6
CONTINUOUS
 62
     0
100
AcDbLine
 10
-0.25
 20
0.25
 30
0.0
 11
0.25
 21
0.25
 31
0.0
  0
LINE
  5
9C
330
6C
100
AcDbEntity
  8
0
  6
CONTINUOUS
 62
     0
100
AcDbLine
 10
0.25
 20
0.25
 30
0.0
 11
0.25
 21
-0.25
 31
0.0
  0
LINE
  5
9D
330
6C
100
AcDbEntity
  8
0
  6
CONTINUOUS
 62
     0
100
AcDbLine
 10
0.25
 20
-0.25
 30
0.0
 11
-0.25
 21
-0.25
 31
0.0
  0
LINE
  5
9E
330
6C
100
AcDbEntity
  8
0
  6
CONTINUOUS
 62
     0
100
AcDbLine
 10
-0.25
 20
-0.25
 30
0.0
 11
-0.25
 21
0.25
 31
0.0
  0
ENDBLK
  5
6E
330
6C
100
AcDbEntity
  8
0
100
AcDbBlockEnd
  0
BLOCK
  5
70
330
6F
100
AcDbEntity
  8
0
100
AcDbBlockBegin
  2
EX_WBOX
 70
     0
 10
0.0
 20
0.0
 30
0.0
  3
EX_WBOX
  1

  0
LINE
  5
9F
330
6F
100
AcDbEntity
  8
0
  6
CONTINUOUS
 62
     0
100
AcDbLine
 10
-0.5
 20
0.0
 30
0.0
 11
-1.0
 21
0.0
 31
0.0
  0
LINE
  5
A0
330
6F
100
AcDbEntity
  8
0
  6
CONTINUOUS
 62
     0
100
AcDbLine
 10
-0.5
 20
0.5
 30
0.0
 11
0.5
 21
0.5
 31
0.0
  0
LINE
  5
A1
330
6F
100
AcDbEntity
  8
0
  6
CONTINUOUS
 62
     0
100
AcDbLine
 10
0.5
 20
0.5
 30
0.0
 11
0.5
 21
-0.5
 31
0.0
  0
LINE
  5
A2
330
6F
100
AcDbEntity
  8
0
  6
CONTINUOUS
 62
     0
100
AcDbLine
 10
0.5
 20
-0.5
 30
0.0
 11
-0.5
 21
-0.5
 31
0.0
  0
LINE
  5
A3
330
6F
100
AcDbEntity
  8
0
  6
CONTINUOUS
 62
     0
100
AcDbLine
 10
-0.5
 20
-0.5
 30
0.0
 11
-0.5
 21
0.5
 31
0.0
  0
ENDBLK
  5
71
330
6F
100
AcDbEntity
  8
0
100
AcDbBlockEnd
  0
BLOCK
  5
73
330
72
100
AcDbEntity
  8
0
100
AcDbBlockBegin
  2
EX_INTEGRAL
 70
     0
 10
0.0
 20
0.0
 30
0.0
  3
EX_INTEGRAL
  1

  0
LINE
  5
A4
330
72
100
AcDbEntity
  8
0
  6
CONTINUOUS
 62
     0
100
AcDbLine
 10
0.0
 20
0.0
 30
0.0
 11
-1.0
 21
0.0
 31
0.0
  0
ARC
  5
A5
330
72
100
AcDbEntity
  8
0
  6
CONTINUOUS
 62
     0
100
AcDbCircle
 10
0.542115
 20
0.164992
 30
0.0
 40
0.56667
100
AcDbArc
 50
73.07249033629006
 51
196.9275130221199
  0
ARC
  5
A6
330
72
100
AcDbEntity
  8
0
  6
CONTINUOUS
 62
     0
100
AcDbCircle
 10
-0.542115
 20
-0.164992
 30
0.0
 40
0.56667
100
AcDbArc
 50
253.0724869220464
 51
16.9275130559125
  0
ENDBLK
  5
74
330
72
100
AcDbEntity
  8
0
100
AcDbBlockEnd
  0
BLOCK
  5
297
330
296
100
AcDbEntity
  8
0
100
AcDbBlockBegin
  2
*D15
 70
     1
 10
0.0
 20
0.0
 30
0.0
  3
*D15
  1

  0
LINE
  5
299
330
296
100
AcDbEntity
  8
寸法
  6
CONTINUOUS
 62
     3
100
AcDbLine
 10
1480.7411799556
 20
1629.3
 30
0.0
 11
1480.7411799556
 21
1715.0
 31
0.0
  0
LINE
  5
29A
330
296
100
AcDbEntity
  8
寸法
  6
CONTINUOUS
 62
     3
100
AcDbLine
 10
1632.0
 20
1657.5976427104
 30
0.0
 11
1632.0
 21
1715.0
 31
0.0
  0
LINE
  5
29B
330
296
100
AcDbEntity
  8
寸法
  6
CONTINUOUS
 62
     3
100
AcDbLine
 10
1510.7411799556
 20
1705.0
 30
0.0
 11
1602.0
 21
1705.0
 31
0.0
  0
INSERT
  5
29C
330
296
100
AcDbEntity
  8
寸法
 62
     3
100
AcDbBlockReference
  2
EX_NORM
 10
1480.7411799556
 20
1705.0
 30
0.0
 41
30.0
 42
30.0
 43
30.0
 50
180.0
  0
INSERT
  5
29D
330
296
100
AcDbEntity
  8
寸法
 62
     3
100
AcDbBlockReference
  2
EX_NORM
 10
1632.0
 20
1705.0
 30
0.0
 41
30.0
 42
30.0
 43
30.0
  0
MTEXT
  5
29E
330
296
100
AcDbEntity
  8
寸法
 62
     2
100
AcDbMText
 10
1556.3705899778
 20
1728.499999940395
 30
0.0
 40
40.0
 41
0.0
 71
     5
 72
     1
  1
151
  7
EXCADDIM1
  0
POINT
  5
29F
330
296
100
AcDbEntity
  8
DEFPOINTS
 62
     0
100
AcDbPoint
 10
1480.7411799556
 20
1626.7023572896
 30
0.0
  0
POINT
  5
2A0
330
296
100
AcDbEntity
  8
DEFPOINTS
 62
     0
100
AcDbPoint
 10
1632.0
 20
1655.0
 30
0.0
  0
POINT
  5
2A1
330
296
100
AcDbEntity
  8
DEFPOINTS
 62
     0
100
AcDbPoint
 10
1632.0
 20
1705.0
 30
0.0
  0
ENDBLK
  5
298
330
296
100
AcDbEntity
  8
0
100
AcDbBlockEnd
  0
BLOCK
  5
2A4
330
2A3
100
AcDbEntity
  8
0
100
AcDbBlockBegin
  2
*D16
 70
     1
 10
0.0
 20
0.0
 30
0.0
  3
*D16
  1

  0
LINE
  5
2A6
330
2A3
100
AcDbEntity
  8
寸法
  6
CONTINUOUS
 62
     3
100
AcDbLine
 10
1602.0
 20
651.0000001192092
 30
0.0
 11
1602.0
 21
565.9999999999999
 31
0.0
  0
LINE
  5
2A7
330
2A3
100
AcDbEntity
  8
寸法
  6
CONTINUOUS
 62
     3
100
AcDbLine
 10
1632.0
 20
648.0000001192093
 30
0.0
 11
1632.0
 21
565.9999999999999
 31
0.0
  0
LINE
  5
2A8
330
2A3
100
AcDbEntity
  8
寸法
  6
CONTINUOUS
 62
     3
100
AcDbLine
 10
1602.0
 20
575.9999999999999
 30
0.0
 11
1632.0
 21
575.9999999999999
 31
0.0
  0
LINE
  5
2A9
330
2A3
100
AcDbEntity
  8
寸法
  6
CONTINUOUS
 62
     3
100
AcDbLine
 10
1572.0
 20
575.9999999999999
 30
0.0
 11
1542.0
 21
575.9999999999999
 31
0.0
  0
LINE
  5
2AA
330
2A3
100
AcDbEntity
  8
寸法
  6
CONTINUOUS
 62
     3
100
AcDbLine
 10
1662.0
 20
575.9999999999999
 30
0.0
 11
1692.0
 21
575.9999999999999
 31
0.0
  0
INSERT
  5
2AB
330
2A3
100
AcDbEntity
  8
寸法
 62
     3
100
AcDbBlockReference
  2
EX_NORM
 10
1602.0
 20
575.9999999999999
 30
0.0
 41
30.0
 42
30.0
 43
30.0
  0
INSERT
  5
2AC
330
2A3
100
AcDbEntity
  8
寸法
 62
     3
100
AcDbBlockReference
  2
EX_NORM
 10
1632.0
 20
575.9999999999999
 30
0.0
 41
30.0
 42
30.0
 43
30.0
 50
180.0
  0
MTEXT
  5
2AD
330
2A3
100
AcDbEntity
  8
寸法
 62
     2
100
AcDbMText
 10
1697.0
 20
599.4999999403952
 30
0.0
 40
40.0
 41
0.0
 71
     5
 72
     1
  1
30
  7
EXCADDIM1
  0
POINT
  5
2AE
330
2A3
100
AcDbEntity
  8
DEFPOINTS
 62
     0
100
AcDbPoint
 10
1602.0
 20
657.9999999999999
 30
0.0
  0
POINT
  5
2AF
330
2A3
100
AcDbEntity
  8
DEFPOINTS
 62
     0
100
AcDbPoint
 10
1632.0
 20
655.0
 30
0.0
  0
POINT
  5
2B0
330
2A3
100
AcDbEntity
  8
DEFPOINTS
 62
     0
100
AcDbPoint
 10
1632.0
 20
575.9999999999999
 30
0.0
  0
ENDBLK
  5
2A5
330
2A3
100
AcDbEntity
  8
0
100
AcDbBlockEnd
  0
BLOCK
  5
2B3
330
2B2
100
AcDbEntity
  8
0
100
AcDbBlockBegin
  2
*D17
 70
     1
 10
0.0
 20
0.0
 30
0.0
  3
*D17
  1

  0
LINE
  5
2B5
330
2B2
100
AcDbEntity
  8
寸法
  6
CONTINUOUS
 62
     3
100
AcDbLine
 10
605.0000000000001
 20
1167.0
 30
0.0
 11
877.5000000000001
 21
1167.0
 31
0.0
  0
INSERT
  5
2B6
330
2B2
100
AcDbEntity
  8
寸法
 62
     3
100
AcDbBlockReference
  2
EX_NORM
 10
575.0000000000001
 20
1167.0
 30
0.0
 41
30.0
 42
30.0
 43
30.0
 50
180.0
  0
INSERT
  5
2B7
330
2B2
100
AcDbEntity
  8
寸法
 62
     3
100
AcDbBlockReference
  2
EX_NORM
 10
907.5000000000001
 20
1167.0
 30
0.0
 41
30.0
 42
30.0
 43
30.0
  0
MTEXT
  5
2B8
330
2B2
100
AcDbEntity
  8
寸法
 62
     2
100
AcDbMText
 10
741.2500000000002
 20
1190.499999940395
 30
0.0
 40
40.0
 41
0.0
 71
     5
 72
     1
  1
330
  7
EXCADDIM1
  0
POINT
  5
2B9
330
2B2
100
AcDbEntity
  8
DEFPOINTS
 62
     0
100
AcDbPoint
 10
575.0000000000001
 20
1545.529253
 30
0.0
  0
POINT
  5
2BA
330
2B2
100
AcDbEntity
  8
DEFPOINTS
 62
     0
100
AcDbPoint
 10
907.5000000000001
 20
1545.529253
 30
0.0
  0
POINT
  5
2BB
330
2B2
100
AcDbEntity
  8
DEFPOINTS
 62
     0
100
AcDbPoint
 10
907.5000000000001
 20
1167.0
 30
0.0
  0
ENDBLK
  5
2B4
330
2B2
100
AcDbEntity
  8
0
100
AcDbBlockEnd
  0
BLOCK
  5
2BE
330
2BD
100
AcDbEntity
  8
0
100
AcDbBlockBegin
  2
*D18
 70
     1
 10
0.0
 20
0.0
 30
0.0
  3
*D18
  1

  0
LINE
  5
2C0
330
2BD
100
AcDbEntity
  8
寸法
  6
CONTINUOUS
 62
     3
100
AcDbLine
 10
557.0
 20
1656.999999880791
 30
0.0
 11
557.0
 21
1775.0
 31
0.0
  0
LINE
  5
2C1
330
2BD
100
AcDbEntity
  8
寸法
  6
CONTINUOUS
 62
     3
100
AcDbLine
 10
1057.0
 20
1656.999999880791
 30
0.0
 11
1057.0
 21
1775.0
 31
0.0
  0
LINE
  5
2C2
330
2BD
100
AcDbEntity
  8
寸法
  6
CONTINUOUS
 62
     3
100
AcDbLine
 10
587.0
 20
1765.0
 30
0.0
 11
1027.0
 21
1765.0
 31
0.0
  0
INSERT
  5
2C3
330
2BD
100
AcDbEntity
  8
寸法
 62
     3
100
AcDbBlockReference
  2
EX_NORM
 10
557.0
 20
1765.0
 30
0.0
 41
30.0
 42
30.0
 43
30.0
 50
180.0
  0
INSERT
  5
2C4
330
2BD
100
AcDbEntity
  8
寸法
 62
     3
100
AcDbBlockReference
  2
EX_NORM
 10
1057.0
 20
1765.0
 30
0.0
 41
30.0
 42
30.0
 43
30.0
  0
MTEXT
  5
2C5
330
2BD
100
AcDbEntity
  8
寸法
 62
     2
100
AcDbMText
 10
807.0000000000001
 20
1788.499999940395
 30
0.0
 40
40.0
 41
0.0
 71
     5
 72
     1
  1
500
  7
EXCADDIM1
  0
POINT
  5
2C6
330
2BD
100
AcDbEntity
  8
DEFPOINTS
 62
     0
100
AcDbPoint
 10
557.0
 20
1650.0
 30
0.0
  0
POINT
  5
2C7
330
2BD
100
AcDbEntity
  8
DEFPOINTS
 62
     0
100
AcDbPoint
 10
1057.0
 20
1650.0
 30
0.0
  0
POINT
  5
2C8
330
2BD
100
AcDbEntity
  8
DEFPOINTS
 62
     0
100
AcDbPoint
 10
1057.0
 20
1765.0
 30
0.0
  0
ENDBLK
  5
2BF
330
2BD
100
AcDbEntity
  8
0
100
AcDbBlockEnd
  0
BLOCK
  5
2CB
330
2CA
100
AcDbEntity
  8
0
100
AcDbBlockBegin
  2
*D19
 70
     1
 10
0.0
 20
0.0
 30
0.0
  3
*D19
  1

  0
LINE
  5
2CD
330
2CA
100
AcDbEntity
  8
寸法
  6
CONTINUOUS
 62
     3
100
AcDbLine
 10
568.0000001192094
 20
980.0
 30
0.0
 11
491.0
 21
980.0
 31
0.0
  0
LINE
  5
2CE
330
2CA
100
AcDbEntity
  8
寸法
  6
CONTINUOUS
 62
     3
100
AcDbLine
 10
568.0000001192094
 20
1545.529253
 30
0.0
 11
491.0000000000001
 21
1545.529253
 31
0.0
  0
LINE
  5
2CF
330
2CA
100
AcDbEntity
  8
寸法
  6
CONTINUOUS
 62
     3
100
AcDbLine
 10
501.0
 20
1010.0
 30
0.0
 11
501.0000000000001
 21
1515.529253
 31
0.0
  0
INSERT
  5
2D0
330
2CA
100
AcDbEntity
  8
寸法
 62
     3
100
AcDbBlockReference
  2
EX_NORM
 10
501.0
 20
980.0
 30
0.0
 41
30.0
 42
30.0
 43
30.0
 50
270.0
  0
INSERT
  5
2D1
330
2CA
100
AcDbEntity
  8
寸法
 62
     3
100
AcDbBlockReference
  2
EX_NORM
 10
501.0000000000001
 20
1545.529253
 30
0.0
 41
30.0
 42
30.0
 43
30.0
 50
90.0
  0
MTEXT
  5
2D2
330
2CA
100
AcDbEntity
  8
寸法
 62
     2
100
AcDbMText
 10
477.5000000596048
 20
1262.7646265
 30
0.0
 40
40.0
 41
0.0
 71
     5
 72
     1
  1
565
  7
EXCADDIM1
 11
1.005136667277016E-16
 21
1.0
 31
0.0
  0
POINT
  5
2D3
330
2CA
100
AcDbEntity
  8
DEFPOINTS
 62
     0
100
AcDbPoint
 10
575.0000000000001
 20
980.0
 30
0.0
  0
POINT
  5
2D4
330
2CA
100
AcDbEntity
  8
DEFPOINTS
 62
     0
100
AcDbPoint
 10
575.0000000000001
 20
1545.529253
 30
0.0
  0
POINT
  5
2D5
330
2CA
100
AcDbEntity
  8
DEFPOINTS
 62
     0
100
AcDbPoint
 10
501.0000000000001
 20
1545.529253
 30
0.0
  0
ENDBLK
  5
2CC
330
2CA
100
AcDbEntity
  8
0
100
AcDbBlockEnd
  0
BLOCK
  5
2D8
330
2D7
100
AcDbEntity
  8
0
100
AcDbBlockBegin
  2
*D20
 70
     1
 10
0.0
 20
0.0
 30
0.0
  3
*D20
  1

  0
LINE
  5
2DA
330
2D7
100
AcDbEntity
  8
寸法
  6
CONTINUOUS
 62
     3
100
AcDbLine
 10
568.0000001192094
 20
1545.529253
 30
0.0
 11
491.0000000000001
 21
1545.529253
 31
0.0
  0
LINE
  5
2DB
330
2D7
100
AcDbEntity
  8
寸法
  6
CONTINUOUS
 62
     3
100
AcDbLine
 10
555.0000001192093
 20
1655.0
 30
0.0
 11
491.0000000000001
 21
1655.0
 31
0.0
  0
LINE
  5
2DC
330
2D7
100
AcDbEntity
  8
寸法
  6
CONTINUOUS
 62
     3
100
AcDbLine
 10
501.0000000000001
 20
1575.529253
 30
0.0
 11
501.0000000000001
 21
1625.0
 31
0.0
  0
INSERT
  5
2DD
330
2D7
100
AcDbEntity
  8
寸法
 62
     3
100
AcDbBlockReference
  2
EX_NORM
 10
501.0000000000001
 20
1545.529253
 30
0.0
 41
30.0
 42
30.0
 43
30.0
 50
270.0
  0
INSERT
  5
2DE
330
2D7
100
AcDbEntity
  8
寸法
 62
     3
100
AcDbBlockReference
  2
EX_NORM
 10
501.0000000000001
 20
1655.0
 30
0.0
 41
30.0
 42
30.0
 43
30.0
 50
90.0
  0
MTEXT
  5
2DF
330
2D7
100
AcDbEntity
  8
寸法
 62
     2
100
AcDbMText
 10
477.5000000596052
 20
1735.0
 30
0.0
 40
40.0
 41
0.0
 71
     5
 72
     1
  1
110
  7
EXCADDIM1
 11
0.0
 21
1.0
 31
0.0
  0
POINT
  5
2E0
330
2D7
100
AcDbEntity
  8
DEFPOINTS
 62
     0
100
AcDbPoint
 10
575.0000000000001
 20
1545.529253
 30
0.0
  0
POINT
  5
2E1
330
2D7
100
AcDbEntity
  8
DEFPOINTS
 62
     0
100
AcDbPoint
 10
562.0
 20
1655.0
 30
0.0
  0
POINT
  5
2E2
330
2D7
100
AcDbEntity
  8
DEFPOINTS
 62
     0
100
AcDbPoint
 10
501.0000000000001
 20
1655.0
 30
0.0
  0
ENDBLK
  5
2D9
330
2D7
100
AcDbEntity
  8
0
100
AcDbBlockEnd
  0
BLOCK
  5
2E5
330
2E4
100
AcDbEntity
  8
0
100
AcDbBlockBegin
  2
*D21
 70
     1
 10
0.0
 20
0.0
 30
0.0
  3
*D21
  1

  0
LINE
  5
2E7
330
2E4
100
AcDbEntity
  8
寸法
  6
CONTINUOUS
 62
     3
100
AcDbLine
 10
555.0000001192093
 20
655.0
 30
0.0
 11
431.0000000000001
 21
655.0
 31
0.0
  0
LINE
  5
2E8
330
2E4
100
AcDbEntity
  8
寸法
  6
CONTINUOUS
 62
     3
100
AcDbLine
 10
586.5000001192093
 20
720.0
 30
0.0
 11
431.0000000000001
 21
720.0
 31
0.0
  0
LINE
  5
2E9
330
2E4
100
AcDbEntity
  8
寸法
  6
CONTINUOUS
 62
     3
100
AcDbLine
 10
441.0000000000001
 20
685.0
 30
0.0
 11
441.0000000000001
 21
690.0
 31
0.0
  0
INSERT
  5
2EA
330
2E4
100
AcDbEntity
  8
寸法
 62
     3
100
AcDbBlockReference
  2
EX_NORM
 10
441.0000000000001
 20
655.0
 30
0.0
 41
30.0
 42
30.0
 43
30.0
 50
270.0
  0
INSERT
  5
2EB
330
2E4
100
AcDbEntity
  8
寸法
 62
     3
100
AcDbBlockReference
  2
EX_NORM
 10
441.0000000000001
 20
720.0
 30
0.0
 41
30.0
 42
30.0
 43
30.0
 50
90.0
  0
MTEXT
  5
2EC
330
2E4
100
AcDbEntity
  8
寸法
 62
     2
100
AcDbMText
 10
417.5000000596048
 20
687.5
 30
0.0
 40
40.0
 41
0.0
 71
     5
 72
     1
  1
65
  7
EXCADDIM1
 11
0.0
 21
1.0
 31
0.0
  0
POINT
  5
2ED
330
2E4
100
AcDbEntity
  8
DEFPOINTS
 62
     0
100
AcDbPoint
 10
562.0
 20
655.0
 30
0.0
  0
POINT
  5
2EE
330
2E4
100
AcDbEntity
  8
DEFPOINTS
 62
     0
100
AcDbPoint
 10
593.5
 20
720.0
 30
0.0
  0
POINT
  5
2EF
330
2E4
100
AcDbEntity
  8
DEFPOINTS
 62
     0
100
AcDbPoint
 10
441.0000000000001
 20
720.0
 30
0.0
  0
ENDBLK
  5
2E6
330
2E4
100
AcDbEntity
  8
0
100
AcDbBlockEnd
  0
BLOCK
  5
2F2
330
2F1
100
AcDbEntity
  8
0
100
AcDbBlockBegin
  2
*D22
 70
     1
 10
0.0
 20
0.0
 30
0.0
  3
*D22
  1

  0
LINE
  5
2F4
330
2F1
100
AcDbEntity
  8
寸法
  6
CONTINUOUS
 62
     3
100
AcDbLine
 10
567.0000000000001
 20
720.0
 30
0.0
 11
431.0000000000002
 21
720.0
 31
0.0
  0
LINE
  5
2F5
330
2F1
100
AcDbEntity
  8
寸法
  6
CONTINUOUS
 62
     3
100
AcDbLine
 10
567.0000000000001
 20
1600.0
 30
0.0
 11
431.0000000000002
 21
1600.0
 31
0.0
  0
LINE
  5
2F6
330
2F1
100
AcDbEntity
  8
寸法
  6
CONTINUOUS
 62
     3
100
AcDbLine
 10
441.0
 20
750.0
 30
0.0
 11
441.0000000000001
 21
1570.0
 31
0.0
  0
INSERT
  5
2F7
330
2F1
100
AcDbEntity
  8
寸法
 62
     3
100
AcDbBlockReference
  2
EX_NORM
 10
441.0
 20
720.0
 30
0.0
 41
30.0
 42
30.0
 43
30.0
 50
270.0
  0
INSERT
  5
2F8
330
2F1
100
AcDbEntity
  8
寸法
 62
     3
100
AcDbBlockReference
  2
EX_NORM
 10
441.0000000000001
 20
1600.0
 30
0.0
 41
30.0
 42
30.0
 43
30.0
 50
90.0
  0
MTEXT
  5
2F9
330
2F1
100
AcDbEntity
  8
寸法
 62
     2
100
AcDbMText
 10
417.5000000596048
 20
1160.0
 30
0.0
 40
40.0
 41
0.0
 71
     5
 72
     1
  1
880
  7
EXCADDIM1
 11
6.459479416000910E-17
 21
1.0
 31
0.0
  0
POINT
  5
2FA
330
2F1
100
AcDbEntity
  8
DEFPOINTS
 62
     0
100
AcDbPoint
 10
593.5
 20
720.0
 30
0.0
  0
POINT
  5
2FB
330
2F1
100
AcDbEntity
  8
DEFPOINTS
 62
     0
100
AcDbPoint
 10
593.5
 20
1600.0
 30
0.0
  0
POINT
  5
2FC
330
2F1
100
AcDbEntity
  8
DEFPOINTS
 62
     0
100
AcDbPoint
 10
441.0000000000001
 20
1600.0
 30
0.0
  0
ENDBLK
  5
2F3
330
2F1
100
AcDbEntity
  8
0
100
AcDbBlockEnd
  0
BLOCK
  5
2FF
330
2FE
100
AcDbEntity
  8
0
100
AcDbBlockBegin
  2
*D23
 70
     1
 10
0.0
 20
0.0
 30
0.0
  3
*D23
  1

  0
LINE
  5
301
330
2FE
100
AcDbEntity
  8
寸法
  6
CONTINUOUS
 62
     3
100
AcDbLine
 10
1058.999999880791
 20
655.0
 30
0.0
 11
1194.0
 21
655.0
 31
0.0
  0
LINE
  5
302
330
2FE
100
AcDbEntity
  8
寸法
  6
CONTINUOUS
 62
     3
100
AcDbLine
 10
1077.076696711391
 20
785.0
 30
0.0
 11
1194.0
 21
785.0
 31
0.0
  0
LINE
  5
303
330
2FE
100
AcDbEntity
  8
寸法
  6
CONTINUOUS
 62
     3
100
AcDbLine
 10
1184.0
 20
685.0
 30
0.0
 11
1184.0
 21
755.0
 31
0.0
  0
INSERT
  5
304
330
2FE
100
AcDbEntity
  8
寸法
 62
     3
100
AcDbBlockReference
  2
EX_NORM
 10
1184.0
 20
655.0
 30
0.0
 41
30.0
 42
30.0
 43
30.0
 50
270.0
  0
INSERT
  5
305
330
2FE
100
AcDbEntity
  8
寸法
 62
     3
100
AcDbBlockReference
  2
EX_NORM
 10
1184.0
 20
785.0
 30
0.0
 41
30.0
 42
30.0
 43
30.0
 50
90.0
  0
MTEXT
  5
306
330
2FE
100
AcDbEntity
  8
寸法
 62
     2
100
AcDbMText
 10
1160.500000059604
 20
720.0
 30
0.0
 40
40.0
 41
0.0
 71
     5
 72
     1
  1
130
  7
EXCADDIM1
 11
0.0
 21
1.0
 31
0.0
  0
POINT
  5
307
330
2FE
100
AcDbEntity
  8
DEFPOINTS
 62
     0
100
AcDbPoint
 10
1052.0
 20
655.0
 30
0.0
  0
POINT
  5
308
330
2FE
100
AcDbEntity
  8
DEFPOINTS
 62
     0
100
AcDbPoint
 10
1070.0766968306
 20
785.0
 30
0.0
  0
POINT
  5
309
330
2FE
100
AcDbEntity
  8
DEFPOINTS
 62
     0
100
AcDbPoint
 10
1184.0
 20
785.0
 30
0.0
  0
ENDBLK
  5
300
330
2FE
100
AcDbEntity
  8
0
100
AcDbBlockEnd
  0
BLOCK
  5
30C
330
30B
100
AcDbEntity
  8
0
100
AcDbBlockBegin
  2
*D24
 70
     1
 10
0.0
 20
0.0
 30
0.0
  3
*D24
  1

  0
LINE
  5
30E
330
30B
100
AcDbEntity
  8
寸法
  6
CONTINUOUS
 62
     3
100
AcDbLine
 10
1058.999999880791
 20
655.0
 30
0.0
 11
1254.0
 21
655.0000000000001
 31
0.0
  0
LINE
  5
30F
330
30B
100
AcDbEntity
  8
寸法
  6
CONTINUOUS
 62
     3
100
AcDbLine
 10
1058.999999880791
 20
1655.0
 30
0.0
 11
1254.0
 21
1655.0
 31
0.0
  0
LINE
  5
310
330
30B
100
AcDbEntity
  8
寸法
  6
CONTINUOUS
 62
     3
100
AcDbLine
 10
1244.0
 20
685.0000000000001
 30
0.0
 11
1244.0
 21
1625.0
 31
0.0
  0
INSERT
  5
311
330
30B
100
AcDbEntity
  8
寸法
 62
     3
100
AcDbBlockReference
  2
EX_NORM
 10
1244.0
 20
655.0000000000001
 30
0.0
 41
30.0
 42
30.0
 43
30.0
 50
270.0
  0
INSERT
  5
312
330
30B
100
AcDbEntity
  8
寸法
 62
     3
100
AcDbBlockReference
  2
EX_NORM
 10
1244.0
 20
1655.0
 30
0.0
 41
30.0
 42
30.0
 43
30.0
 50
90.0
  0
MTEXT
  5
313
330
30B
100
AcDbEntity
  8
寸法
 62
     2
100
AcDbMText
 10
1220.500000059605
 20
1155.0
 30
0.0
 40
40.0
 41
0.0
 71
     5
 72
     1
  1
1000
  7
EXCADDIM1
 11
0.0
 21
1.0
 31
0.0
  0
POINT
  5
314
330
30B
100
AcDbEntity
  8
DEFPOINTS
 62
     0
100
AcDbPoint
 10
1052.0
 20
655.0
 30
0.0
  0
POINT
  5
315
330
30B
100
AcDbEntity
  8
DEFPOINTS
 62
     0
100
AcDbPoint
 10
1052.0
 20
1655.0
 30
0.0
  0
POINT
  5
316
330
30B
100
AcDbEntity
  8
DEFPOINTS
 62
     0
100
AcDbPoint
 10
1244.0
 20
1655.0
 30
0.0
  0
ENDBLK
  5
30D
330
30B
100
AcDbEntity
  8
0
100
AcDbBlockEnd
  0
BLOCK
  5
319
330
318
100
AcDbEntity
  8
0
100
AcDbBlockBegin
  2
*D25
 70
     1
 10
0.0
 20
0.0
 30
0.0
  3
*D25
  1

  0
LINE
  5
31B
330
318
100
AcDbEntity
  8
寸法
  6
CONTINUOUS
 62
     3
100
AcDbLine
 10
602.0
 20
683.0000001192093
 30
0.0
 11
602.0
 21
523.0
 31
0.0
  0
LINE
  5
31C
330
318
100
AcDbEntity
  8
寸法
  6
CONTINUOUS
 62
     3
100
AcDbLine
 10
1012.0
 20
683.0000001192093
 30
0.0
 11
1012.0
 21
523.0
 31
0.0
  0
LINE
  5
31D
330
318
100
AcDbEntity
  8
寸法
  6
CONTINUOUS
 62
     3
100
AcDbLine
 10
632.0
 20
533.0
 30
0.0
 11
982.0
 21
533.0
 31
0.0
  0
INSERT
  5
31E
330
318
100
AcDbEntity
  8
寸法
 62
     3
100
AcDbBlockReference
  2
EX_NORM
 10
602.0
 20
533.0
 30
0.0
 41
30.0
 42
30.0
 43
30.0
 50
180.0
  0
INSERT
  5
31F
330
318
100
AcDbEntity
  8
寸法
 62
     3
100
AcDbBlockReference
  2
EX_NORM
 10
1012.0
 20
533.0
 30
0.0
 41
30.0
 42
30.0
 43
30.0
  0
MTEXT
  5
320
330
318
100
AcDbEntity
  8
寸法
 62
     2
100
AcDbMText
 10
807.0
 20
556.0000001192093
 30
0.0
 40
40.0
 41
0.0
 71
     5
 72
     1
  1
410
  7
EXCADDIM1
  0
POINT
  5
321
330
318
100
AcDbEntity
  8
DEFPOINTS
 62
     0
100
AcDbPoint
 10
602.0
 20
690.0
 30
0.0
  0
POINT
  5
322
330
318
100
AcDbEntity
  8
DEFPOINTS
 62
     0
100
AcDbPoint
 10
1012.0
 20
690.0
 30
0.0
  0
POINT
  5
323
330
318
100
AcDbEntity
  8
DEFPOINTS
 62
     0
100
AcDbPoint
 10
1012.0
 20
533.0
 30
0.0
  0
ENDBLK
  5
31A
330
318
100
AcDbEntity
  8
0
100
AcDbBlockEnd
  0
BLOCK
  5
326
330
325
100
AcDbEntity
  8
0
100
AcDbBlockBegin
  2
*D26
 70
     1
 10
0.0
 20
0.0
 30
0.0
  3
*D26
  1

  0
LINE
  5
328
330
325
100
AcDbEntity
  8
寸法
  6
CONTINUOUS
 62
     3
100
AcDbLine
 10
642.0
 20
1636.999999880791
 30
0.0
 11
642.0
 21
1720.0
 31
0.0
  0
LINE
  5
329
330
325
100
AcDbEntity
  8
寸法
  6
CONTINUOUS
 62
     3
100
AcDbLine
 10
972.0
 20
1636.999999880791
 30
0.0
 11
972.0
 21
1720.0
 31
0.0
  0
LINE
  5
32A
330
325
100
AcDbEntity
  8
寸法
  6
CONTINUOUS
 62
     3
100
AcDbLine
 10
672.0
 20
1710.0
 30
0.0
 11
942.0
 21
1710.0
 31
0.0
  0
INSERT
  5
32B
330
325
100
AcDbEntity
  8
寸法
 62
     3
100
AcDbBlockReference
  2
EX_NORM
 10
642.0
 20
1710.0
 30
0.0
 41
30.0
 42
30.0
 43
30.0
 50
180.0
  0
INSERT
  5
32C
330
325
100
AcDbEntity
  8
寸法
 62
     3
100
AcDbBlockReference
  2
EX_NORM
 10
972.0
 20
1710.0
 30
0.0
 41
30.0
 42
30.0
 43
30.0
  0
MTEXT
  5
32D
330
325
100
AcDbEntity
  8
寸法
 62
     2
100
AcDbMText
 10
807.0000000000001
 20
1733.000000119209
 30
0.0
 40
40.0
 41
0.0
 71
     5
 72
     1
  1
330
  7
EXCADDIM1
  0
POINT
  5
32E
330
325
100
AcDbEntity
  8
DEFPOINTS
 62
     0
100
AcDbPoint
 10
642.0
 20
1630.0
 30
0.0
  0
POINT
  5
32F
330
325
100
AcDbEntity
  8
DEFPOINTS
 62
     0
100
AcDbPoint
 10
972.0
 20
1630.0
 30
0.0
  0
POINT
  5
330
330
325
100
AcDbEntity
  8
DEFPOINTS
 62
     0
100
AcDbPoint
 10
972.0
 20
1710.0
 30
0.0
  0
ENDBLK
  5
327
330
325
100
AcDbEntity
  8
0
100
AcDbBlockEnd
  0
ENDSEC
  0
SECTION
  2
ENTITIES
  0
HATCH
  5
A7
330
1F
100
AcDbEntity
  8
0
  6
CONTINUOUS
 62
     3
100
AcDbHatch
 10
0.0
 20
0.0
 30
0.0
210
0.0
220
0.0
230
1.0
  2
SOLID
 70
     1
 71
     1
 91
        1
 92
        3
 72
     1
 73
     1
 93
       10
 10
77.87252657332506
 20
16.42169932975405
 42
-0.017362223501556
 10
77.88130157332505
 20
21.71842432975406
 42
-0.0267627618865285
 10
77.88130157332498
 20
21.71842432975405
 42
0.0737939047395297
 10
79.173251573325
 20
21.72382432975399
 42
0.0183878899657109
 10
79.12127657332509
 20
16.94819932975405
 42
-0.1144749489451909
 10
78.91202657332501
 20
15.94244932975406
 42
-0.1929163439413163
 10
77.91640157332512
 20
15.16079932975405
 42
-0.0603888289562337
 10
77.38855157332503
 20
15.02917432975405
 42
0.0
 10
77.265026573325
 20
15.40514932975404
 42
0.0860918333465722
 10
77.63425157332506
 20
15.60157432975405
 42
0.1331843103855141
 97
        0
 75
     0
 76
     1
 98
        1
 10
0.0
 20
0.0
  0
HATCH
  5
A8
330
1F
100
AcDbEntity
  8
0
  6
CONTINUOUS
 62
     3
100
AcDbHatch
 10
0.0
 20
0.0
 30
0.0
210
0.0
220
0.0
230
1.0
  2
SOLID
 70
     1
 71
     1
 91
        1
 92
        3
 72
     1
 73
     1
 93
       16
 10
83.78687657332505
 20
16.31032432975405
 42
-0.0386228372648426
 10
83.78080157332504
 20
19.56449932975405
 42
-0.0398707891902887
 10
84.37142657332501
 20
19.56719932975404
 42
-0.1256886216044368
 10
84.34442657332507
 20
19.01504932975406
 42
-0.0367815758121429
 10
84.34442657332507
 20
19.01504932975405
 42
-0.268021535028829
 10
85.53580157332505
 20
19.63334932975406
 42
-0.2571134422124888
 10
86.350526573325
 20
19.23037432975406
 42
-0.1522526366014298
 10
86.55775157332505
 20
18.56009932975405
 42
-0.0158825412051521
 10
86.54290157332503
 20
16.30694932975406
 42
-0.0285251271418421
 10
85.9725265733251
 20
16.30694932975405
 42
-0.0452212723224612
 10
86.001551573325
 20
18.38864932975405
 42
-0.0315567291532142
 10
85.82470157332503
 20
19.00357432975404
 42
-0.1476272403790709
 10
84.67315157332504
 20
19.09199932975406
 42
-0.3908144705745794
 10
84.34847657332503
 20
18.28402432975405
 42
-0.2046259928850854
 10
84.34847657332503
 20
18.28402432975405
 42
0.0
 10
84.39910157332507
 20
16.30492432975405
 42
-0.0304995761723369
 97
        0
 75
     0
 76
     1
 98
        1
 10
0.0
 20
0.0
  0
HATCH
  5
A9
330
1F
100
AcDbEntity
  8
0
  6
CONTINUOUS
 62
     3
100
AcDbHatch
 10
0.0
 20
0.0
 30
0.0
210
0.0
220
0.0
230
1.0
  2
SOLID
 70
     1
 71
     1
 91
        2
 92
        1
 93
        1
 72
     2
 10
88.02855140383357
 20
20.75835466873709
 40
0.3572334466769884
 50
0.0
 51
360.0
 73
     1
 97
        0
 92
        3
 72
     1
 73
     1
 93
        3
 10
87.70930157332502
 20
19.56989932975405
 42
0.1200283885712921
 10
88.33030157332497
 20
16.30627432975404
 42
-0.0401820615762149
 10
87.70997657332502
 20
16.30424932975404
 42
-0.0237521668114666
 97
        0
 75
     0
 76
     1
 98
        1
 10
0.0
 20
0.0
  0
HATCH
  5
AA
330
1F
100
AcDbEntity
  8
0
  6
CONTINUOUS
 62
     3
100
AcDbHatch
 10
0.0
 20
0.0
 30
0.0
210
0.0
220
0.0
230
1.0
  2
SOLID
 70
     1
 71
     1
 91
        1
 92
        3
 72
     1
 73
     1
 93
       30
 10
91.17340157332494
 20
19.43354932975413
 42
-0.0009362235736497
 10
91.17340157332501
 20
19.43354932975405
 42
0.0681165430304653
 10
91.00970934867317
 20
18.94282432975405
 42
0.0
 10
90.39310157332508
 20
19.36469932975405
 42
-0.302112590907374
 10
90.39310157332508
 20
19.36469932975405
 42
0.0
 10
89.77142657332503
 20
18.88814932975404
 42
-0.3704245237568778
 10
89.77142657332499
 20
18.88814932975405
 42
0.0
 10
89.80382657332501
 20
18.56954932975405
 42
-0.0262822419456939
 10
90.18722657332506
 20
18.26309932975405
 42
-0.180060563604375
 10
90.79877657332507
 20
18.07679932975405
 42
-0.0298130817160724
 10
90.79877657332504
 20
18.07679932975404
 42
-0.3153987453686078
 10
91.36240157332506
 20
17.43217432975406
 42
0.0
 10
91.35902657332511
 20
17.14394932975405
 42
-0.3510306079065168
 10
90.272276573325
 20
16.23269932975405
 42
0.0
 10
89.95502657332499
 20
16.23269932975406
 42
-0.1053356344842436
 10
89.25302657332504
 20
16.43519932975405
 42
0.1188608286962634
 10
89.38127657332504
 20
16.94819932975405
 42
0.0
 10
90.15077657332502
 20
16.47569932975404
 42
-0.2447573632916039
 10
90.15077657332503
 20
16.47569932975404
 42
0.0
 10
90.89327657332507
 20
16.99544932975405
 42
-0.3734162676407277
 10
90.8932765733251
 20
16.99544932975405
 42
0.0
 10
90.62395157332509
 20
17.51452432975404
 42
-0.261219770190848
 10
89.995526573325
 20
17.74267432975405
 42
-0.0572747914118363
 10
89.9955265733251
 20
17.74267432975404
 42
-0.1189658875692221
 10
89.49602657332503
 20
18.03562432975404
 42
-0.2005226878639636
 10
89.286776573325
 20
18.50744932975625
 42
0.0
 10
89.28340157332507
 20
18.68632432975405
 42
-0.2622894489606957
 10
89.8200265733251
 20
19.50644932975406
 42
-0.0988461274137808
 10
90.32222657332508
 20
19.62727432975404
 42
0.0
 10
90.50852657332501
 20
19.62727432975405
 42
-0.0920156312561188
 97
        0
 75
     0
 76
     1
 98
        1
 10
0.0
 20
0.0
  0
HATCH
  5
AB
330
1F
100
AcDbEntity
  8
0
  6
CONTINUOUS
 62
     3
100
AcDbHatch
 10
0.0
 20
0.0
 30
0.0
210
0.0
220
0.0
230
1.0
  2
SOLID
 70
     1
 71
     1
 91
        2
 92
        3
 72
     1
 73
     1
 93
       27
 10
80.41727657332498
 20
19.23644932975404
 42
-0.1769427732109284
 10
80.4172765733251
 20
19.23644932975404
 42
0.0
 10
80.4172765733251
 20
18.87194932975405
 42
0.0
 10
80.50502657332504
 20
18.87194932975405
 42
-0.207533601427307
 10
81.07474227895707
 20
19.29932359129045
 42
-0.1226604740888933
 10
81.57827657332503
 20
19.31002432975405
 42
-0.3213715781137954
 10
82.09883280222091
 20
18.67106514378474
 42
-0.064704004662446
 10
82.10140157332499
 20
18.33329932975404
 42
-0.257798906330806
 10
81.9954265733251
 20
18.20504932975405
 42
-0.056602577721096
 10
81.76862657332508
 20
18.12607432975405
 42
-0.0166741689362636
 10
80.93702657332504
 20
17.96812432975404
 42
0.1186092302783404
 10
80.38825157332506
 20
17.70487432975405
 42
0.1699204224386695
 10
80.14930157332508
 20
17.30527432975405
 42
0.1006533494296199
 10
80.12720866795821
 20
16.95853555095723
 42
0.1675695228968024
 10
80.34370157332512
 20
16.49392432975405
 42
0.1376980079804242
 10
80.737226573325
 20
16.26644932975405
 42
0.0719813663796923
 10
80.916101573325
 20
16.23674932975405
 42
0.0
 10
81.1901515733251
 20
16.23674932975405
 42
0.1944607457809085
 10
82.0993765733251
 20
16.70452432975404
 42
0.1288538183665954
 10
82.19117657332501
 20
16.47502432975404
 42
0.2098387395261546
 10
82.49087657332504
 20
16.30964932975404
 42
0.0
 10
82.70822657332509
 20
16.30829932975405
 42
0.0945009641609563
 10
83.02210157332499
 20
16.37512432975404
 42
0.0
 10
83.02210157332497
 20
16.53239932975405
 42
-0.2395739894657535
 10
82.74805157332504
 20
16.52969932975405
 42
-0.2502312110031058
 10
82.61305157332504
 20
16.7834993297541
 42
-0.0104343570771765
 10
82.63127657332507
 20
18.67619932975404
 42
0.4051015674140717
 97
        0
 92
        3
 72
     1
 73
     1
 93
        8
 10
82.11355157332504
 20
18.00254932975405
 42
-0.0339435190873666
 10
82.11355157332582
 20
18.00254932975292
 42
-0.0001110072973599
 10
82.08520157332505
 20
16.96844932975405
 42
-0.2253076310552528
 10
81.37645157332506
 20
16.49527432975405
 42
0.0
 10
81.20297657332499
 20
16.49527432975405
 42
-0.3657967558150132
 10
80.68727657332502
 20
17.04337432975404
 42
0.0
 10
80.68727657332505
 20
17.23912432975405
 42
-0.2530797830369341
 10
81.03557657332507
 20
17.72107432975405
 42
-0.0724473624720066
 97
        0
 75
     0
 76
     1
 98
        1
 10
0.0
 20
0.0
  0
TEXT
  5
AD
330
1F
100
AcDbEntity
  8
0
  6
CONTINUOUS
 62
     2
100
AcDbText
 10
92.70000000000024
 20
15.75000000000001
 30
0.0
 40
3.375
  1
ジャニス工業株式会社
 41
1.025641025641026
  7
EXCADTTF1
 72
     5
 11
137.7000000000002
 21
15.75000000000001
 31
0.0
100
AcDbText
  0
ARC
  5
AE
330
1F
100
AcDbEntity
  8
0
  6
CONTINUOUS
 62
     3
100
AcDbCircle
 10
81.52685324125522
 20
17.86167288926882
 30
0.0
 40
1.766683515327064
100
AcDbArc
 50
88.77000393305703
 51
128.9068631829044
  0
ARC
  5
AF
330
1F
100
AcDbEntity
  8
0
  6
CONTINUOUS
 62
     3
100
AcDbCircle
 10
81.60706272602792
 20
18.60191625973312
 30
0.0
 40
1.02690407511459
100
AcDbArc
 50
4.148222840814693
 51
92.36000944257292
  0
ARC
  5
B0
330
1F
100
AcDbEntity
  8
0
  6
CONTINUOUS
 62
     3
100
AcDbCircle
 10
127.965013583871
 20
17.29323843931729
 30
0.0
 40
45.35482655865662
100
AcDbArc
 50
178.2526643324597
 51
180.6439560401927
  0
ARC
  5
B1
330
1F
100
AcDbEntity
  8
0
  6
CONTINUOUS
 62
     3
100
AcDbCircle
 10
82.91823989446036
 20
16.78302928780474
 30
0.0
 40
0.305188683107389
100
AcDbArc
 50
179.9117548191414
 51
236.1065985968857
  0
ARC
  5
B2
330
1F
100
AcDbEntity
  8
0
  6
CONTINUOUS
 62
     3
100
AcDbCircle
 10
82.88242078457958
 20
16.80061188741089
 30
0.0
 40
0.30240485913648
100
AcDbArc
 50
243.6191685566582
 51
297.5097757939563
  0
LINE
  5
B3
330
1F
100
AcDbEntity
  8
0
  6
CONTINUOUS
 62
     3
100
AcDbLine
 10
83.02210157332499
 20
16.37512432975404
 30
0.0
 11
83.02210157332499
 21
16.53239932975404
 31
0.0
  0
LINE
  5
B4
330
1F
100
AcDbEntity
  8
0
  6
CONTINUOUS
 62
     3
100
AcDbLine
 10
82.49087657332504
 20
16.30964932975404
 30
0.0
 11
82.70822657332505
 21
16.30964932975404
 31
0.0
  0
ARC
  5
B5
330
1F
100
AcDbEntity
  8
0
  6
CONTINUOUS
 62
     3
100
AcDbCircle
 10
82.68995891945596
 20
17.16464512823028
 30
0.0
 40
0.856540620020894
100
AcDbArc
 50
271.2220539293239
 51
292.8159509797653
  0
ARC
  5
B6
330
1F
100
AcDbEntity
  8
0
  6
CONTINUOUS
 62
     3
100
AcDbCircle
 10
82.52937735081466
 20
16.7336745652863
 30
0.0
 40
0.425769550620398
100
AcDbArc
 50
217.4081478714985
 51
264.8118660441384
  0
ARC
  5
B7
330
1F
100
AcDbEntity
  8
0
  6
CONTINUOUS
 62
     3
100
AcDbCircle
 10
82.58315560558319
 20
16.76492594265728
 30
0.0
 40
0.487535134009722
100
AcDbArc
 50
187.1167640402297
 51
216.4860549324747
  0
ARC
  5
B8
330
1F
100
AcDbEntity
  8
0
  6
CONTINUOUS
 62
     3
100
AcDbCircle
 10
81.06613045867013
 20
17.59534026256824
 30
0.0
 40
1.364239920103932
100
AcDbArc
 50
275.2158792069686
 51
319.2336424873511
  0
LINE
  5
B9
330
1F
100
AcDbEntity
  8
0
  6
CONTINUOUS
 62
     3
100
AcDbLine
 10
80.916101573325
 20
16.23674932975405
 30
0.0
 11
81.1901515733251
 21
16.23674932975405
 31
0.0
  0
ARC
  5
BA
330
1F
100
AcDbEntity
  8
0
  6
CONTINUOUS
 62
     3
100
AcDbCircle
 10
80.92928130736757
 20
16.86963494387407
 30
0.0
 40
0.633022832091786
100
AcDbArc
 50
252.3384873625213
 51
268.8069976857606
  0
ARC
  5
BB
330
1F
100
AcDbEntity
  8
0
  6
CONTINUOUS
 62
     3
100
AcDbCircle
 10
80.9456295303689
 20
17.08111104772595
 30
0.0
 40
0.840895657756366
100
AcDbArc
 50
224.289750990011
 51
255.6505938786759
  0
ARC
  5
BC
330
1F
100
AcDbEntity
  8
0
  6
CONTINUOUS
 62
     3
100
AcDbCircle
 10
80.90915332915503
 20
17.04015021572859
 30
0.0
 40
0.78619234712629
100
AcDbArc
 50
185.9586126338419
 51
224.0091989319859
  0
ARC
  5
BD
330
1F
100
AcDbEntity
  8
0
  6
CONTINUOUS
 62
     3
100
AcDbCircle
 10
80.99075018569997
 20
17.07758712547744
 30
0.0
 40
0.871709372588669
100
AcDbArc
 50
164.8589457925044
 51
187.8495628504518
  0
ARC
  5
BE
330
1F
100
AcDbEntity
  8
0
  6
CONTINUOUS
 62
     3
100
AcDbCircle
 10
80.83972379030152
 20
17.163663325008
 30
0.0
 40
0.704795370557922
100
AcDbArc
 50
129.8344892359069
 51
168.4089447024628
  0
ARC
  5
BF
330
1F
100
AcDbEntity
  8
0
  6
CONTINUOUS
 62
     3
100
AcDbCircle
 10
81.20970138675787
 20
16.69608481482868
 30
0.0
 40
1.30093661698492
100
AcDbArc
 50
102.0988446293839
 51
129.1556705448828
  0
ARC
  5
C0
330
1F
100
AcDbEntity
  8
0
  6
CONTINUOUS
 62
     3
100
AcDbCircle
 10
78.98530099985791
 20
30.51202029775208
 30
0.0
 40
12.69482409370382
100
AcDbArc
 50
278.8438342053764
 51
282.6649181367123
  0
ARC
  5
C1
330
1F
100
AcDbEntity
  8
0
  6
CONTINUOUS
 62
     3
100
AcDbCircle
 10
81.534330501109
 20
19.16407362688746
 30
0.0
 40
1.064113335272784
100
AcDbArc
 50
282.7195832898965
 51
295.6781112778079
  0
ARC
  5
C2
330
1F
100
AcDbEntity
  8
0
  6
CONTINUOUS
 62
     3
100
AcDbCircle
 10
81.93230955673343
 20
18.36511332504286
 30
0.0
 40
0.172058828228131
100
AcDbArc
 50
291.5204897073511
 51
349.3445900274031
  0
ARC
  5
C3
330
1F
100
AcDbEntity
  8
0
  6
CONTINUOUS
 62
     3
100
AcDbCircle
 10
80.8005387356657
 20
18.49229870375122
 30
0.0
 40
1.310543751018921
100
AcDbArc
 50
353.0315250986587
 51
7.839947970678348
  0
ARC
  5
C4
330
1F
100
AcDbEntity
  8
0
  6
CONTINUOUS
 62
     3
100
AcDbCircle
 10
81.39283412817687
 20
18.62741886153419
 30
0.0
 40
0.707346538626002
100
AcDbArc
 50
3.537639967999379
 51
74.8013566619203
  0
ARC
  5
C5
330
1F
100
AcDbEntity
  8
0
  6
CONTINUOUS
 62
     3
100
AcDbCircle
 10
81.34799095798311
 20
18.29383830513019
 30
0.0
 40
1.04195273466423
100
AcDbArc
 50
77.23143261361693
 51
105.203415964315
  0
ARC
  5
C6
330
1F
100
AcDbEntity
  8
0
  6
CONTINUOUS
 62
     3
100
AcDbCircle
 10
81.28253617702987
 20
18.42890191857882
 30
0.0
 40
0.894881105176719
100
AcDbArc
 50
103.4267945469744
 51
150.3242613737993
  0
LINE
  5
C7
330
1F
100
AcDbEntity
  8
0
  6
CONTINUOUS
 62
     3
100
AcDbLine
 10
80.4172765733251
 20
19.23644932975404
 30
0.0
 11
80.4172765733251
 21
18.87194932975405
 31
0.0
  0
ARC
  5
C8
330
1F
100
AcDbEntity
  8
0
  6
CONTINUOUS
 62
     3
100
AcDbCircle
 10
70.91439565227077
 20
16.77342761922787
 30
0.0
 40
6.967015049800598
100
AcDbArc
 50
353.1274757312911
 51
357.106204490141
  0
ARC
  5
C9
330
1F
100
AcDbEntity
  8
0
  6
CONTINUOUS
 62
     3
100
AcDbCircle
 10
28.43385521229317
 20
19.15197335838837
 30
0.0
 40
49.51400430399008
100
AcDbArc
 50
356.8390243485978
 51
2.971133813187157
  0
ARC
  5
CA
330
1F
100
AcDbEntity
  8
0
  6
CONTINUOUS
 62
     3
100
AcDbCircle
 10
77.10927386496027
 20
16.13407518472913
 30
0.0
 40
0.747769185530633
100
AcDbArc
 50
314.592391474832
 51
344.9374073189123
  0
ARC
  5
CB
330
1F
100
AcDbEntity
  8
0
  6
CONTINUOUS
 62
     3
100
AcDbCircle
 10
76.88347289685444
 20
16.56759859445989
 30
0.0
 40
1.223467000390025
100
AcDbArc
 50
288.1715191042997
 51
307.8537826235693
  0
LINE
  5
CC
330
1F
100
AcDbEntity
  8
0
  6
CONTINUOUS
 62
     3
100
AcDbLine
 10
77.38855157332503
 20
15.02917432975405
 30
0.0
 11
77.265026573325
 21
15.40514932975405
 31
0.0
  0
ARC
  5
CD
330
1F
100
AcDbEntity
  8
0
  6
CONTINUOUS
 62
     3
100
AcDbCircle
 10
77.10955749866659
 20
17.27223152915386
 30
0.0
 40
2.260341410821362
100
AcDbArc
 50
277.0901027239701
 51
290.9134154817058
  0
ARC
  5
CE
330
1F
100
AcDbEntity
  8
0
  6
CONTINUOUS
 62
     3
100
AcDbCircle
 10
77.43897327885483
 20
16.79383518626831
 30
0.0
 40
1.701394688196115
100
AcDbArc
 50
286.2966123578915
 51
329.973223283839
  0
ARC
  5
CF
330
1F
100
AcDbEntity
  8
0
  6
CONTINUOUS
 62
     3
100
AcDbCircle
 10
76.84899361790619
 20
16.89631356880093
 30
0.0
 40
2.272875263114311
100
AcDbArc
 50
335.1860595856123
 51
1.308075913059364
  0
ARC
  5
D0
330
1F
100
AcDbEntity
  8
0
  6
CONTINUOUS
 62
     3
100
AcDbCircle
 10
144.0542531413434
 20
18.62960360950844
 30
0.0
 40
64.95474244683605
100
AcDbArc
 50
177.2695926307304
 51
181.4833117237826
  0
ARC
  5
D1
330
1F
100
AcDbEntity
  8
0
  6
CONTINUOUS
 62
     3
100
AcDbCircle
 10
78.50908200122271
 20
26.07417570522222
 30
0.0
 40
4.400758833490466
100
AcDbArc
 50
261.7986203004403
 51
278.6803384946418
  0
ARC
  5
D2
330
1F
100
AcDbEntity
  8
0
  6
CONTINUOUS
 62
     3
100
AcDbCircle
 10
80.96056099353731
 20
21.97501381160506
 30
0.0
 40
4.136406814694017
100
AcDbArc
 50
278.4088456599976
 51
286.1851416003176
  0
ARC
  5
D3
330
1F
100
AcDbEntity
  8
0
  6
CONTINUOUS
 62
     3
100
AcDbCircle
 10
81.85660651757709
 20
15.98318862667977
 30
0.0
 40
1.922065786155208
100
AcDbArc
 50
98.71271710191789
 51
115.2874718053599
  0
ARC
  5
D4
330
1F
100
AcDbEntity
  8
0
  6
CONTINUOUS
 62
     3
100
AcDbCircle
 10
81.30701866837839
 20
17.1580747904718
 30
0.0
 40
0.625019433457053
100
AcDbArc
 50
115.7403688633493
 51
172.5491744442191
  0
LINE
  5
D5
330
1F
100
AcDbEntity
  8
0
  6
CONTINUOUS
 62
     3
100
AcDbLine
 10
80.68727657332502
 20
17.23912432975406
 30
0.0
 11
80.68727657332502
 21
17.04337432975404
 31
0.0
  0
ARC
  5
D6
330
1F
100
AcDbEntity
  8
0
  6
CONTINUOUS
 62
     3
100
AcDbCircle
 10
81.26959653488743
 20
17.07461380097782
 30
0.0
 40
0.583157304846997
100
AcDbArc
 50
183.0707787095794
 51
263.4402016072427
  0
LINE
  5
D7
330
1F
100
AcDbEntity
  8
0
  6
CONTINUOUS
 62
     3
100
AcDbLine
 10
81.202976573325
 20
16.49527432975405
 30
0.0
 11
81.37645157332506
 21
16.49527432975405
 31
0.0
  0
ARC
  5
D8
330
1F
100
AcDbEntity
  8
0
  6
CONTINUOUS
 62
     3
100
AcDbCircle
 10
81.23244690765918
 20
17.47836489530207
 30
0.0
 40
0.993581603997916
100
AcDbArc
 50
278.3335103000368
 51
329.1221464187299
  0
ARC
  5
D9
330
1F
100
AcDbEntity
  8
0
  6
CONTINUOUS
 62
     3
100
AcDbCircle
 10
-2246.801542217735
 20
81.33265245587829
 30
0.0
 40
2329.776001260591
100
AcDbArc
 50
358.4169008257799
 51
358.4423418242109
  0
ARC
  5
DA
330
1F
100
AcDbEntity
  8
0
  6
CONTINUOUS
 62
     3
100
AcDbCircle
 10
84.05808780069319
 20
12.35069254511708
 30
0.0
 40
3.968909094418497
100
AcDbArc
 50
85.07099551674689
 51
93.91830029343228
  0
ARC
  5
DB
330
1F
100
AcDbEntity
  8
0
  6
CONTINUOUS
 62
     3
100
AcDbCircle
 10
91.74088578951043
 20
17.19150147009811
 30
0.0
 40
7.395120993114926
100
AcDbArc
 50
179.8977458165987
 51
186.8855675734268
  0
ARC
  5
DC
330
1F
100
AcDbEntity
  8
0
  6
CONTINUOUS
 62
     3
100
AcDbCircle
 10
85.45661722366404
 20
18.30795225138056
 30
0.0
 40
1.108398956318131
100
AcDbArc
 50
134.9787476233347
 51
181.2369872983282
  0
ARC
  5
DD
330
1F
100
AcDbEntity
  8
0
  6
CONTINUOUS
 62
     3
100
AcDbCircle
 10
85.20100145205535
 20
18.42366273138689
 30
0.0
 40
0.851645057047003
100
AcDbArc
 50
42.91644474042847
 51
128.3015542351336
  0
ARC
  5
DE
330
1F
100
AcDbEntity
  8
0
  6
CONTINUOUS
 62
     3
100
AcDbCircle
 10
84.89447404568531
 20
18.40315138821551
 30
0.0
 40
1.107172507744154
100
AcDbArc
 50
359.2495022237244
 51
32.84055016678327
  0
ARC
  5
DF
330
1F
100
AcDbEntity
  8
0
  6
CONTINUOUS
 62
     3
100
AcDbCircle
 10
69.51173378649739
 20
17.57751337882461
 30
0.0
 40
16.50975566668588
100
AcDbArc
 50
355.5862454873798
 51
2.816115806820253
  0
ARC
  5
E0
330
1F
100
AcDbEntity
  8
0
  6
CONTINUOUS
 62
     3
100
AcDbCircle
 10
86.2577140733251
 20
13.16015261922777
 30
0.0
 40
3.159693252126744
100
AcDbArc
 50
84.82155189294139
 51
95.17844810705873
  0
ARC
  5
E1
330
1F
100
AcDbEntity
  8
0
  6
CONTINUOUS
 62
     3
100
AcDbCircle
 10
102.8657633661698
 20
17.09067374739132
 30
0.0
 40
16.34166579853822
100
AcDbArc
 50
176.2131780319488
 51
182.7488833337936
  0
ARC
  5
E2
330
1F
100
AcDbEntity
  8
0
  6
CONTINUOUS
 62
     3
100
AcDbCircle
 10
80.41913601210061
 20
18.3331577481214
 30
0.0
 40
6.142809087866958
100
AcDbArc
 50
358.4775281223095
 51
2.117232414210064
  0
ARC
  5
E3
330
1F
100
AcDbEntity
  8
0
  6
CONTINUOUS
 62
     3
100
AcDbCircle
 10
85.37905515344826
 20
18.56285942451523
 30
0.0
 40
1.17869965146059
100
AcDbArc
 50
359.8658335690532
 51
34.49363429411157
  0
ARC
  5
E4
330
1F
100
AcDbEntity
  8
0
  6
CONTINUOUS
 62
     3
100
AcDbCircle
 10
85.57724057413768
 20
18.69204664797993
 30
0.0
 40
0.94221437555554
100
AcDbArc
 50
34.84393737091607
 51
92.5207065423111
  0
ARC
  5
E5
330
1F
100
AcDbEntity
  8
0
  6
CONTINUOUS
 62
     3
100
AcDbCircle
 10
85.47541069002554
 20
18.292759888186
 30
0.0
 40
1.34194899665726
100
AcDbArc
 50
87.42068310381028
 51
147.4361518966862
  0
ARC
  5
E6
330
1F
100
AcDbEntity
  8
0
  6
CONTINUOUS
 62
     3
100
AcDbCircle
 10
88.10574727396167
 20
19.10785681383052
 30
0.0
 40
3.762465500458181
100
AcDbArc
 50
172.9875214416311
 51
181.4134392789641
  0
ARC
  5
E7
330
1F
100
AcDbEntity
  8
0
  6
CONTINUOUS
 62
     3
100
AcDbCircle
 10
84.07082849861237
 20
20.72206879814484
 30
0.0
 40
1.193349358546016
100
AcDbArc
 50
255.9341994177206
 51
284.5896440601899
  0
ARC
  5
E8
330
1F
100
AcDbEntity
  8
0
  6
CONTINUOUS
 62
     3
100
AcDbCircle
 10
63.41176988671597
 20
17.89938058671745
 30
0.0
 40
20.43697806131072
100
AcDbArc
 50
355.5405243117485
 51
4.673398698656258
  0
LINE
  5
E9
330
1F
100
AcDbEntity
  8
0
  6
CONTINUOUS
 62
     3
100
AcDbLine
 10
84.34847657332503
 20
18.28402432975405
 30
0.0
 11
84.34847657332503
 21
17.20469932975404
 31
0.0
  0
CIRCLE
  5
EA
330
1F
100
AcDbEntity
  8
0
  6
CONTINUOUS
 62
     3
100
AcDbCircle
 10
88.02855140383357
 20
20.75835466873709
 30
0.0
 40
0.357233446676989
  0
ARC
  5
EB
330
1F
100
AcDbEntity
  8
0
  6
CONTINUOUS
 62
     3
100
AcDbCircle
 10
88.0145607602773
 20
20.85332474358076
 30
0.0
 40
1.319228548840207
100
AcDbArc
 50
256.6209501743446
 51
283.9984576255729
  0
ARC
  5
EC
330
1F
100
AcDbEntity
  8
0
  6
CONTINUOUS
 62
     3
100
AcDbCircle
 10
88.04144089371337
 20
9.779804184123293
 30
0.0
 40
6.532859485251088
100
AcDbArc
 50
87.46575055044718
 51
92.90832285102188
  0
ARC
  5
ED
330
1F
100
AcDbEntity
  8
0
  6
CONTINUOUS
 62
     3
100
AcDbCircle
 10
108.6254047179557
 20
17.91881005739388
 30
0.0
 40
20.35906390589
100
AcDbArc
 50
175.3387608397566
 51
184.5428594926176
  0
ARC
  5
EE
330
1F
100
AcDbEntity
  8
0
  6
CONTINUOUS
 62
     3
100
AcDbCircle
 10
65.56900575363872
 20
17.93249792766236
 30
0.0
 40
22.20076085035812
100
AcDbArc
 50
355.7940354718673
 51
4.229650257234378
  0
ARC
  5
EF
330
1F
100
AcDbEntity
  8
0
  6
CONTINUOUS
 62
     3
100
AcDbCircle
 10
122.5644453232814
 20
100.602974329642
 30
0.0
 40
87.02800228963156
100
AcDbArc
 50
248.6422112053103
 51
248.8567777804232
  0
ARC
  5
F0
330
1F
100
AcDbEntity
  8
0
  6
CONTINUOUS
 62
     3
100
AcDbCircle
 10
90.48542828460572
 20
18.61663038363951
 30
0.0
 40
1.010907867592157
100
AcDbArc
 50
67.66151957087348
 51
88.69073168448988
  0
ARC
  5
F1
330
1F
100
AcDbEntity
  8
0
  6
CONTINUOUS
 62
     3
100
AcDbCircle
 10
90.3771104428391
 20
18.30979097937608
 30
0.0
 40
1.319974865367525
100
AcDbArc
 50
92.38301574576484
 51
114.9635286746436
  0
ARC
  5
F2
330
1F
100
AcDbEntity
  8
0
  6
CONTINUOUS
 62
     3
100
AcDbCircle
 10
90.27963496799615
 20
18.62009291101865
 30
0.0
 40
0.99843256030919
100
AcDbArc
 50
117.4083995939977
 51
176.1964688215695
  0
ARC
  5
F3
330
1F
100
AcDbEntity
  8
0
  6
CONTINUOUS
 62
     3
100
AcDbCircle
 10
89.95599257926003
 20
18.52192769075526
 30
0.0
 40
0.669372605905611
100
AcDbArc
 50
181.2393899443581
 51
226.5942921332421
  0
ARC
  5
F4
330
1F
100
AcDbEntity
  8
0
  6
CONTINUOUS
 62
     3
100
AcDbCircle
 10
90.35268145799503
 20
18.92396411006683
 30
0.0
 40
1.234100950779567
100
AcDbArc
 50
226.0402388947521
 51
253.1776672992999
  0
ARC
  5
F5
330
1F
100
AcDbEntity
  8
0
  6
CONTINUOUS
 62
     3
100
AcDbCircle
 10
89.3171489183043
 20
14.89457141755206
 30
0.0
 40
2.927778413972754
100
AcDbArc
 50
63.49050203733571
 51
76.60259219849584
  0
ARC
  5
F6
330
1F
100
AcDbEntity
  8
0
  6
CONTINUOUS
 62
     3
100
AcDbCircle
 10
90.43080045853671
 20
17.09846225433164
 30
0.0
 40
0.458710152219014
100
AcDbArc
 50
6.53892419415897
 51
65.09756080693691
  0
ARC
  5
F7
330
1F
100
AcDbEntity
  8
0
  6
CONTINUOUS
 62
     3
100
AcDbCircle
 10
90.30357777446514
 20
17.07002363757163
 30
0.0
 40
0.594395491876676
100
AcDbArc
 50
270.8867385422408
 51
352.7925382056677
  0
ARC
  5
F8
330
1F
100
AcDbEntity
  8
0
  6
CONTINUOUS
 62
     3
100
AcDbCircle
 10
90.2636104323486
 20
17.36658639777379
 30
0.0
 40
0.898004035462527
100
AcDbArc
 50
207.7689879465537
 51
262.7817283832026
  0
ARC
  5
F9
330
1F
100
AcDbEntity
  8
0
  6
CONTINUOUS
 62
     3
100
AcDbCircle
 10
90.07930054592774
 20
17.98156576811025
 30
0.0
 40
1.75327631578002
100
AcDbArc
 50
241.8829576087176
 51
265.9354096935781
  0
ARC
  5
FA
330
1F
100
AcDbEntity
  8
0
  6
CONTINUOUS
 62
     3
100
AcDbCircle
 10
90.24663886467565
 20
17.36692467118045
 30
0.0
 40
1.134515058180645
100
AcDbArc
 50
271.2948770866743
 51
348.6654156292868
  0
ARC
  5
FB
330
1F
100
AcDbEntity
  8
0
  6
CONTINUOUS
 62
     3
100
AcDbCircle
 10
90.62045721291955
 20
17.35217258531573
 30
0.0
 40
0.746245075729606
100
AcDbArc
 50
6.154262763177246
 51
76.17509904255616
  0
ARC
  5
FC
330
1F
100
AcDbEntity
  8
0
  6
CONTINUOUS
 62
     3
100
AcDbCircle
 10
92.0538466969206
 20
23.29359310503508
 30
0.0
 40
5.36564425851668
100
AcDbArc
 50
249.6420733479936
 51
256.4727051201885
  0
ARC
  5
FD
330
1F
100
AcDbEntity
  8
0
  6
CONTINUOUS
 62
     3
100
AcDbCircle
 10
90.4072135238745
 20
18.93138641766613
 30
0.0
 40
0.703563707337184
100
AcDbArc
 50
210.9501336849607
 51
251.7794729821079
  0
ARC
  5
FE
330
1F
100
AcDbEntity
  8
0
  6
CONTINUOUS
 62
     3
100
AcDbCircle
 10
91.13031407332628
 20
19.03823182975442
 30
0.0
 40
1.4068519372934
100
AcDbArc
 50
193.4375782160214
 51
199.459638038058
  0
ARC
  5
FF
330
1F
100
AcDbEntity
  8
0
  6
CONTINUOUS
 62
     3
100
AcDbCircle
 10
90.30350964860534
 20
18.82674994707917
 30
0.0
 40
0.535613931103931
100
AcDbArc
 50
92.11404364449162
 51
173.4175047026091
  0
ARC
  5
100
330
1F
100
AcDbEntity
  8
0
  6
CONTINUOUS
 62
     3
100
AcDbCircle
 10
90.34147339127506
 20
18.75429236291665
 30
0.0
 40
0.612586430102253
100
AcDbArc
 50
17.92452211681263
 51
85.16543319077402
  0
LINE
  5
101
330
1F
100
AcDbEntity
  8
0
  6
CONTINUOUS
 62
     3
100
AcDbLine
 10
90.50852657332504
 20
19.62727432975404
 30
0.0
 11
90.32222657332508
 21
19.62727432975404
 31
0.0
  0
LINE
  5
102
330
1F
100
AcDbEntity
  8
0
  6
CONTINUOUS
 62
     3
100
AcDbLine
 10
90.15077657332503
 20
16.47569932975404
 30
0.0
 11
90.31277657332507
 21
16.47569932975404
 31
0.0
  0
LINE
  5
103
330
1F
100
AcDbEntity
  8
0
  6
CONTINUOUS
 62
     3
100
AcDbLine
 10
89.46902657332507
 20
16.94819932975405
 30
0.0
 11
89.38127657332504
 21
16.94819932975405
 31
0.0
  0
LINE
  5
104
330
1F
100
AcDbEntity
  8
0
  6
CONTINUOUS
 62
     3
100
AcDbLine
 10
89.95502657332506
 20
16.23269932975405
 30
0.0
 11
90.272276573325
 21
16.23269932975405
 31
0.0
  0
LINE
  5
105
330
1F
100
AcDbEntity
  8
0
  6
CONTINUOUS
 62
     3
100
AcDbLine
 10
80.4172765733251
 20
18.87194932975405
 30
0.0
 11
80.50502657332501
 21
18.87194932975405
 31
0.0
  0
ARC
  5
106
330
1F
100
AcDbEntity
  8
0
  6
CONTINUOUS
 62
     3
100
AcDbCircle
 10
88.25344131320944
 20
16.95779759565
 30
0.0
 40
1.127953740078838
100
AcDbArc
 50
332.3987521421788
 51
359.5124385477116
  0
LINE
  5
107
330
1F
100
AcDbEntity
  8
0
  6
CONTINUOUS
 62
     3
100
AcDbLine
 10
90.88652657332503
 20
17.15069932975404
 30
0.0
 11
90.8932765733251
 21
16.99544932975405
 31
0.0
  0
LINE
  5
108
330
1F
100
AcDbEntity
  8
0
  6
CONTINUOUS
 62
     3
100
AcDbLine
 10
91.36240157332506
 20
17.43217432975406
 30
0.0
 11
91.359026573325
 21
17.14394932975405
 31
0.0
  0
LINE
  5
109
330
1F
100
AcDbEntity
  8
0
  6
CONTINUOUS
 62
     3
100
AcDbLine
 10
89.77142657332499
 20
18.88814932975405
 30
0.0
 11
89.76197657332503
 21
18.71129932975405
 31
0.0
  0
LINE
  5
10A
330
1F
100
AcDbEntity
  8
0
  6
CONTINUOUS
 62
     3
100
AcDbLine
 10
89.283401573325
 20
18.68632432975405
 30
0.0
 11
89.286776573325
 21
18.50744932975625
 31
0.0
  0
LINE
  5
10B
330
1F
100
AcDbEntity
  8
0
  6
CONTINUOUS
 62
     3
100
AcDbLine
 10
90.28375157332502
 20
19.36199932975405
 30
0.0
 11
90.39310157332508
 21
19.36469932975405
 31
0.0
  0
LINE
  5
10C
330
1F
100
AcDbEntity
  8
0
  6
CONTINUOUS
 62
     3
100
AcDbLine
 10
90.92432657332503
 20
18.94282432975405
 30
0.0
 11
91.00970934867317
 21
18.94282432975405
 31
0.0
  0
ARC
  5
10D
330
1F
100
AcDbEntity
  8
0
  6
CONTINUOUS
 62
     3
100
AcDbCircle
 10
92.8842481068871
 20
18.59019437507494
 30
0.0
 40
1.907418003737831
100
AcDbArc
 50
153.7591918158497
 51
169.3462759801917
  0
LINE
  5
10E
330
1F
100
AcDbEntity
  8
0
  6
CONTINUOUS
 62
     6
100
AcDbLine
 10
75.0
 20
13.5
 30
0.0
 11
75.0
 21
23.5
 31
0.0
  0
TEXT
  5
10F
330
1F
100
AcDbEntity
  8
枠_表
  6
CONTINUOUS
 62
     2
100
AcDbText
 10
189.05371094
 20
30.27227783
 30
0.0
 40
3.0
  1
１
 41
1.101333351135257
  7
EXCADSTD
 72
     5
 11
191.413710978147
 21
30.27227783
 31
0.0
100
AcDbText
  0
TEXT
  5
110
330
1F
100
AcDbEntity
  8
枠_表
  6
CONTINUOUS
 62
     2
100
AcDbText
 10
20.25
 20
30.875
 30
0.0
 40
4.25
  1
製図
 41
1.509694117647059
  7
EXCADSTD
 72
     5
 11
30.3326
 21
30.875
 31
0.0
100
AcDbText
  0
TEXT
  5
111
330
1F
100
AcDbEntity
  8
枠_表
  6
CONTINUOUS
 62
     2
100
AcDbText
 10
35.75
 20
30.875
 30
0.0
 40
4.25
  1
写図
 41
1.509694117647059
  7
EXCADSTD
 72
     5
 11
45.8326
 21
30.875
 31
0.0
100
AcDbText
  0
TEXT
  5
112
330
1F
100
AcDbEntity
  8
枠_表
  6
CONTINUOUS
 62
     2
100
AcDbText
 10
50.75
 20
30.875
 30
0.0
 40
4.25
  1
検図
 41
1.303826737967915
  7
EXCADSTD
 72
     5
 11
59.4577
 21
30.875
 31
0.0
100
AcDbText
  0
TEXT
  5
113
330
1F
100
AcDbEntity
  8
枠_表
  6
CONTINUOUS
 62
     2
100
AcDbText
 10
63.75
 20
30.875
 30
0.0
 40
4.25
  1
承認
 41
1.303826737967915
  7
EXCADSTD
 72
     5
 11
72.4577
 21
30.875
 31
0.0
100
AcDbText
  0
TEXT
  5
114
330
1F
100
AcDbEntity
  8
枠_表
  6
CONTINUOUS
 62
     2
100
AcDbText
 10
75.575
 20
29.875
 30
0.0
 40
4.25
  1
品
 41
1.120000000000002
  7
EXCADSTD
 72
     5
 11
78.97500000000001
 21
29.875
 31
0.0
100
AcDbText
  0
TEXT
  5
115
330
1F
100
AcDbEntity
  8
枠_表
  6
CONTINUOUS
 62
     2
100
AcDbText
 10
75.575
 20
24.875
 30
0.0
 40
4.25
  1
名
 41
1.120000000000002
  7
EXCADSTD
 72
     5
 11
78.97500000000001
 21
24.875
 31
0.0
100
AcDbText
  0
TEXT
  5
116
330
1F
100
AcDbEntity
  8
枠_表
  6
CONTINUOUS
 62
     2
100
AcDbText
 10
139.575
 20
29.875
 30
0.0
 40
4.25
  1
品
 41
1.120000000000002
  7
EXCADSTD
 72
     5
 11
142.975
 21
29.875
 31
0.0
100
AcDbText
  0
TEXT
  5
117
330
1F
100
AcDbEntity
  8
枠_表
  6
CONTINUOUS
 62
     2
100
AcDbText
 10
139.575
 20
24.875
 30
0.0
 40
4.25
  1
番
 41
1.120000000000002
  7
EXCADSTD
 72
     5
 11
142.975
 21
24.875
 31
0.0
100
AcDbText
  0
TEXT
  5
118
330
1F
100
AcDbEntity
  8
枠_表
  6
CONTINUOUS
 62
     2
100
AcDbText
 10
181.675
 20
29.875
 30
0.0
 40
4.25
  1
尺
 41
1.120000000000002
  7
EXCADSTD
 72
     5
 11
185.075
 21
29.875
 31
0.0
100
AcDbText
  0
TEXT
  5
119
330
1F
100
AcDbEntity
  8
枠_表
  6
CONTINUOUS
 62
     2
100
AcDbText
 10
181.675
 20
24.875
 30
0.0
 40
4.25
  1
度
 41
1.120000000000002
  7
EXCADSTD
 72
     5
 11
185.075
 21
24.875
 31
0.0
100
AcDbText
  0
TEXT
  5
11A
330
1F
100
AcDbEntity
  8
枠_表
  6
CONTINUOUS
 62
     2
100
AcDbText
 10
139.575
 20
18.575
 30
0.0
 40
4.25
  1
図
 41
1.120000000000002
  7
EXCADSTD
 72
     5
 11
142.975
 21
18.575
 31
0.0
100
AcDbText
  0
TEXT
  5
11B
330
1F
100
AcDbEntity
  8
枠_表
  6
CONTINUOUS
 62
     2
100
AcDbText
 10
139.575
 20
14.275
 30
0.0
 40
4.25
  1
番
 41
1.120000000000002
  7
EXCADSTD
 72
     5
 11
142.975
 21
14.275
 31
0.0
100
AcDbText
  0
TEXT
  5
11C
330
1F
100
AcDbEntity
  8
枠_表
  6
CONTINUOUS
 62
     2
100
AcDbText
 10
193.12792969
 20
25.83488464
 30
0.0
 40
3.0
  1
１０
 41
1.098531230663528
  7
EXCADSTD
 72
     5
 11
198.3067197774138
 21
25.83488464
 31
0.0
100
AcDbText
  0
TEXT
  5
11D
330
1F
100
AcDbEntity
  8
枠_表
  6
CONTINUOUS
 62
     2
100
AcDbText
 10
99.50000000000001
 20
276.0
 30
0.0
 40
4.0
  1
本体
 41
1.195746361898021
  7
EXCADSTD
 72
     5
 11
107.0161199890733
 21
276.0
 31
0.0
100
AcDbText
  0
TEXT
  5
11E
330
1F
100
AcDbEntity
  8
枠_表
  6
CONTINUOUS
 62
     2
100
AcDbText
 10
99.50000000000001
 20
266.0
 30
0.0
 40
4.0
  1
照明器具
 41
1.186956519018049
  7
EXCADSTD
 72
     5
 11
115.0999999642372
 21
266.0
 31
0.0
100
AcDbText
  0
TEXT
  5
11F
330
1F
100
AcDbEntity
  8
枠_表
  6
CONTINUOUS
 62
     2
100
AcDbText
 10
99.5
 20
256.0
 30
0.0
 40
4.0
  1
電源コード
 41
1.164655169536328
  7
EXCADSTD
 72
     5
 11
118.7999999523163
 21
256.0
 31
0.0
100
AcDbText
  0
TEXT
  5
120
330
1F
100
AcDbEntity
  8
枠_表
  6
CONTINUOUS
 62
     2
100
AcDbText
 10
99.5
 20
271.0
 30
0.0
 40
4.0
  1
鏡
 41
1.259999999999998
  7
EXCADSTD
 72
     5
 11
103.1
 21
271.0
 31
0.0
100
AcDbText
  0
TEXT
  5
121
330
1F
100
AcDbEntity
  8
枠_表
  6
CONTINUOUS
 62
     2
100
AcDbText
 10
99.5
 20
261.0
 30
0.0
 40
4.0
  1
コンセント
 41
1.164655169536328
  7
EXCADSTD
 72
     5
 11
118.7999999523163
 21
261.0
 31
0.0
100
AcDbText
  0
TEXT
  5
122
330
1F
100
AcDbEntity
  8
枠_表
  6
CONTINUOUS
 62
     2
100
AcDbText
 10
99.5
 20
251.0
 30
0.0
 40
4.0
  1
棚トレー
 41
1.186956519018049
  7
EXCADSTD
 72
     5
 11
115.0999999642372
 21
251.0
 31
0.0
100
AcDbText
  0
TEXT
  5
123
330
1F
100
AcDbEntity
  8
枠_表
  6
CONTINUOUS
 62
     2
100
AcDbText
 10
99.5
 20
241.0
 30
0.0
 40
4.0
  1
取付ねじ
 41
1.186956519018049
  7
EXCADSTD
 72
     5
 11
115.0999999642372
 21
241.0
 31
0.0
100
AcDbText
  0
TEXT
  5
124
330
1F
100
AcDbEntity
  8
枠_表
  6
CONTINUOUS
 62
     2
100
AcDbText
 10
99.5
 20
246.0
 30
0.0
 40
4.0
  1
歯ブラシ立て
 41
1.149999997019768
  7
EXCADSTD
 72
     5
 11
122.4999999403954
 21
246.0
 31
0.0
100
AcDbText
  0
TEXT
  5
125
330
1F
100
AcDbEntity
  8
枠_表
  6
CONTINUOUS
 62
     2
100
AcDbText
 10
99.0
 20
281.0
 30
0.0
 40
4.0
  1
化粧鏡台仕様
 41
1.225
  7
EXCADSTD
 72
     5
 11
123.5
 21
281.0
 31
0.0
100
AcDbText
  0
TEXT
  5
126
330
1F
100
AcDbEntity
  8
枠_表
  6
CONTINUOUS
 62
     2
100
AcDbText
 10
124.5
 20
276.0
 30
0.0
 40
4.0
  1
ＨｉＰＳ
 41
1.186956519018049
  7
EXCADSTD
 72
     5
 11
140.0999999642372
 21
276.0
 31
0.0
100
AcDbText
  0
TEXT
  5
127
330
1F
100
AcDbEntity
  8
枠_表
  6
CONTINUOUS
 62
     2
100
AcDbText
 10
124.5
 20
271.0
 30
0.0
 40
4.0
  1
防湿形
 41
1.224999997545691
  7
EXCADSTD
 72
     5
 11
136.3999999761581
 21
271.0
 31
0.0
100
AcDbText
  0
TEXT
  5
128
330
1F
100
AcDbEntity
  8
枠_表
  6
CONTINUOUS
 62
     2
100
AcDbText
 10
124.5
 20
256.0
 30
0.0
 40
4.0
  1
ＶＦＦ　プラグ付
 41
1.131914890509971
  7
EXCADSTD
 72
     5
 11
154.8999999165535
 21
256.0
 31
0.0
100
AcDbText
  0
TEXT
  5
129
330
1F
100
AcDbEntity
  8
枠_表
  6
CONTINUOUS
 62
     2
100
AcDbText
 10
124.5
 20
241.0
 30
0.0
 40
4.0
  1
十字穴付トラスタッピンねじ　４×５０
 41
1.102336445283667
  7
EXCADSTD
 72
     5
 11
191.8999997973442
 21
241.0
 31
0.0
100
AcDbText
  0
TEXT
  5
12A
330
1F
100
AcDbEntity
  8
枠_表
  6
CONTINUOUS
 62
     2
100
AcDbText
 10
99.5
 20
231.0
 30
0.0
 40
4.0
  1
電源
 41
1.195746361898021
  7
EXCADSTD
 72
     5
 11
107.0161199890733
 21
231.0
 31
0.0
100
AcDbText
  0
TEXT
  5
12B
330
1F
100
AcDbEntity
  8
枠_表
  6
CONTINUOUS
 62
     2
100
AcDbText
 10
124.5
 20
231.0
 30
0.0
 40
4.0
  1
ＡＣ１００Ｖ　５０/６０Ｈｚ
 41
1.044812249748603
  7
EXCADSTD
 72
     5
 11
174.8499998450279
 21
231.0
 31
0.0
100
AcDbText
  0
TEXT
  5
12C
330
1F
100
AcDbEntity
  8
枠_表
  6
CONTINUOUS
 62
     2
100
AcDbText
 10
99.50000000000001
 20
236.0
 30
0.0
 40
4.0
  1
防水パッキン
 41
1.149999997019768
  7
EXCADSTD
 72
     5
 11
122.4999999403954
 21
236.0
 31
0.0
100
AcDbText
  0
TEXT
  5
12D
330
1F
100
AcDbEntity
  8
枠_表
  6
CONTINUOUS
 62
     2
100
AcDbText
 10
124.5
 20
236.0000000000001
 30
0.0
 40
4.0
  1
スポンジ
 41
1.186956519018049
  7
EXCADSTD
 72
     5
 11
140.0999999642372
 21
236.0000000000001
 31
0.0
100
AcDbText
  0
TEXT
  5
12E
330
1F
100
AcDbEntity
  8
枠_表
  6
CONTINUOUS
 62
     2
100
AcDbText
 10
145.9
 20
27.0
 30
0.0
 40
5.0
  1
ＬＵＭ５０１０ＬＬＮ
 41
0.8067797062760693
  7
EXCADSTD
 72
     5
 11
179.9000019073486
 21
27.0
 31
0.0
100
AcDbText
  0
TEXT
  5
12F
330
1F
100
AcDbEntity
  8
枠_表
  6
CONTINUOUS
 62
     2
100
AcDbText
 10
80.50000005960464
 20
26.49999999999966
 30
0.0
 40
6.0
  1
５００ｍｍ幅　化粧鏡台
 41
1.041025638885987
  7
EXCADSTD
 72
     5
 11
138.4999999403954
 21
26.49999999999966
 31
0.0
100
AcDbText
  0
TEXT
  5
130
330
1F
100
AcDbEntity
  8
枠_表
  6
CONTINUOUS
 62
     6
100
AcDbText
 10
18.62500000192093
 20
14.5
 30
0.0
 40
3.0
  1
'18
 41
0.4689784011919448
  7
EXCADSTD
 72
     5
 11
21.77385498135256
 21
14.5
 31
0.0
100
AcDbText
  0
TEXT
  5
131
330
1F
100
AcDbEntity
  8
枠_表
  6
CONTINUOUS
 62
     6
100
AcDbText
 10
24.625
 20
14.5
 30
0.0
 40
3.0
  1
1
 41
0.7238636363636359
  7
EXCADSTD
 72
     5
 11
25.7625
 21
14.5
 31
0.0
100
AcDbText
  0
TEXT
  5
132
330
1F
100
AcDbEntity
  8
枠_表
  6
CONTINUOUS
 62
     6
100
AcDbText
 10
29.92500001
 20
14.5
 30
0.0
 40
3.0
  1
6
 41
0.4683823529411762
  7
EXCADSTD
 72
     5
 11
31.06250001
 21
14.5
 31
0.0
100
AcDbText
  0
TEXT
  5
133
330
1F
100
AcDbEntity
  8
枠_表
  6
CONTINUOUS
 62
     6
100
AcDbText
 10
23.24999999999949
 20
22.0
 30
0.0
 40
5.0
  1
堀
 41
1.232
  7
EXCADSTD
 72
     5
 11
27.64999999999949
 21
22.0
 31
0.0
100
AcDbText
  0
TEXT
  5
134
330
1F
100
AcDbEntity
  8
枠_表
  6
CONTINUOUS
 62
     6
100
AcDbText
 10
50.30000000595995
 20
22.0
 30
0.0
 40
5.0
  1
間瀬
 41
1.18991345315478
  7
EXCADSTD
 72
     5
 11
59.64931999503322
 21
22.0
 31
0.0
100
AcDbText
  0
TEXT
  5
135
330
1F
100
AcDbEntity
  8
枠_表
  6
CONTINUOUS
 62
     6
100
AcDbText
 10
63.30000000595996
 20
22.0
 30
0.0
 40
5.0
  1
間瀬
 41
1.189913453154781
  7
EXCADSTD
 72
     5
 11
72.64931999503324
 21
22.0
 31
0.0
100
AcDbText
  0
TEXT
  5
136
330
1F
100
AcDbEntity
  8
枠_表
  6
CONTINUOUS
 62
     2
100
AcDbText
 10
124.5
 20
246.0
 30
0.0
 40
4.0
  1
ＰＰ
 41
1.195746361898021
  7
EXCADSTD
 72
     5
 11
132.0161199890733
 21
246.0
 31
0.0
100
AcDbText
  0
TEXT
  5
137
330
1F
100
AcDbEntity
  8
枠_表
  6
CONTINUOUS
 62
     2
100
AcDbText
 10
124.5
 20
261.0
 30
0.0
 40
4.0
  1
許容電力：１３００Ｗ
 41
1.121186437495684
  7
EXCADSTD
 72
     5
 11
162.2999998927116
 21
261.0
 31
0.0
100
AcDbText
  0
TEXT
  5
138
330
1F
100
AcDbEntity
  8
枠_表
  6
CONTINUOUS
 62
     2
100
AcDbText
 10
135.0
 20
222.0
 30
0.0
 40
4.0
  1
※コードの取出しは、左右及び上側
 41
1.105263154600796
  7
EXCADSTD
 72
     5
 11
194.9999998211861
 21
222.0
 31
0.0
100
AcDbText
  0
TEXT
  5
139
330
1F
100
AcDbEntity
  8
枠_表
  6
CONTINUOUS
 62
     2
100
AcDbText
 10
135.0
 20
218.0
 30
0.0
 40
4.0
  1
　コード長さ（参考値）
 41
1.117307689098212
  7
EXCADSTD
 72
     5
 11
176.4999998807907
 21
218.0
 31
0.0
100
AcDbText
  0
TEXT
  5
13A
330
1F
100
AcDbEntity
  8
枠_表
  6
CONTINUOUS
 62
     2
100
AcDbText
 10
135.0
 20
214.0
 30
0.0
 40
4.0
  1
　　右取出し：１４００ｍｍ
 41
1.111363633112474
  7
EXCADSTD
 72
     5
 11
183.8999998569489
 21
214.0
 31
0.0
100
AcDbText
  0
TEXT
  5
13B
330
1F
100
AcDbEntity
  8
枠_表
  6
CONTINUOUS
 62
     2
100
AcDbText
 10
135.0
 20
210.0
 30
0.0
 40
4.0
  1
　　左取出し：１２００ｍｍ
 41
1.111363633112474
  7
EXCADSTD
 72
     5
 11
183.8999998569489
 21
210.0
 31
0.0
100
AcDbText
  0
TEXT
  5
13C
330
1F
100
AcDbEntity
  8
枠_表
  6
CONTINUOUS
 62
     2
100
AcDbText
 10
135.0
 20
206.0
 30
0.0
 40
4.0
  1
　　上取出し：　９００ｍｍ
 41
1.111363633112474
  7
EXCADSTD
 72
     5
 11
183.8999998569489
 21
206.0
 31
0.0
100
AcDbText
  0
TEXT
  5
13D
330
1F
100
AcDbEntity
  8
枠_表
  6
CONTINUOUS
 62
     2
100
AcDbText
 10
124.5
 20
251.0
 30
0.0
 40
4.0
  1
ＨｉＰＳ
 41
1.186956519018049
  7
EXCADSTD
 72
     5
 11
140.0999999642372
 21
251.0
 31
0.0
100
AcDbText
  0
LINE
  5
13E
330
1F
100
AcDbEntity
  8
枠_表
  6
CONTINUOUS
 62
     6
100
AcDbLine
 10
99.0
 20
280.5
 30
0.0
 11
195.0
 21
280.5
 31
0.0
  0
LINE
  5
13F
330
1F
100
AcDbEntity
  8
枠_表
  6
CONTINUOUS
 62
     6
100
AcDbLine
 10
99.0
 20
275.5
 30
0.0
 11
195.0
 21
275.5
 31
0.0
  0
LINE
  5
140
330
1F
100
AcDbEntity
  8
枠_表
  6
CONTINUOUS
 62
     6
100
AcDbLine
 10
99.0
 20
270.5
 30
0.0
 11
195.0
 21
270.5
 31
0.0
  0
LINE
  5
141
330
1F
100
AcDbEntity
  8
枠_表
  6
CONTINUOUS
 62
     6
100
AcDbLine
 10
99.0
 20
265.5
 30
0.0
 11
195.0
 21
265.5
 31
0.0
  0
LINE
  5
142
330
1F
100
AcDbEntity
  8
枠_表
  6
CONTINUOUS
 62
     6
100
AcDbLine
 10
99.0
 20
260.5
 30
0.0
 11
195.0
 21
260.5
 31
0.0
  0
LINE
  5
143
330
1F
100
AcDbEntity
  8
枠_表
  6
CONTINUOUS
 62
     6
100
AcDbLine
 10
99.0
 20
255.5
 30
0.0
 11
195.0
 21
255.5
 31
0.0
  0
LINE
  5
144
330
1F
100
AcDbEntity
  8
枠_表
  6
CONTINUOUS
 62
     6
100
AcDbLine
 10
99.0
 20
250.5
 30
0.0
 11
195.0
 21
250.5
 31
0.0
  0
LINE
  5
145
330
1F
100
AcDbEntity
  8
枠_表
  6
CONTINUOUS
 62
     6
100
AcDbLine
 10
99.0
 20
245.5
 30
0.0
 11
195.0
 21
245.5
 31
0.0
  0
LINE
  5
146
330
1F
100
AcDbEntity
  8
枠_表
  6
CONTINUOUS
 62
     6
100
AcDbLine
 10
99.0
 20
240.5
 30
0.0
 11
195.0
 21
240.5
 31
0.0
  0
LINE
  5
147
330
1F
100
AcDbEntity
  8
枠_表
  6
CONTINUOUS
 62
     6
100
AcDbLine
 10
99.0
 20
235.5
 30
0.0
 11
195.0
 21
235.5
 31
0.0
  0
LINE
  5
148
330
1F
100
AcDbEntity
  8
枠_表
  6
CONTINUOUS
 62
     6
100
AcDbLine
 10
99.0
 20
230.5
 30
0.0
 11
195.0
 21
230.5
 31
0.0
  0
LINE
  5
149
330
1F
100
AcDbEntity
  8
枠_表
  6
CONTINUOUS
 62
     6
100
AcDbLine
 10
99.0
 20
230.5
 30
0.0
 11
99.0
 21
280.5
 31
0.0
  0
LINE
  5
14A
330
1F
100
AcDbEntity
  8
枠_表
  6
CONTINUOUS
 62
     6
100
AcDbLine
 10
124.0
 20
230.5
 30
0.0
 11
124.0
 21
280.5
 31
0.0
  0
LINE
  5
14B
330
1F
100
AcDbEntity
  8
枠_表
  6
CONTINUOUS
 62
     6
100
AcDbLine
 10
195.0
 20
230.5
 30
0.0
 11
195.0
 21
280.5
 31
0.0
  0
LINE
  5
14C
330
1F
100
AcDbEntity
  8
枠_表
  6
CONTINUOUS
 62
     7
100
AcDbLine
 10
18.0
 20
13.5
 30
0.0
 11
18.0
 21
288.5
 31
0.0
  0
LINE
  5
14D
330
1F
100
AcDbEntity
  8
枠_表
  6
CONTINUOUS
 62
     7
100
AcDbLine
 10
18.0
 20
288.5
 30
0.0
 11
200.0
 21
288.5
 31
0.0
  0
LINE
  5
14E
330
1F
100
AcDbEntity
  8
枠_表
  6
CONTINUOUS
 62
     7
100
AcDbLine
 10
200.0
 20
13.5
 30
0.0
 11
200.0
 21
288.5
 31
0.0
  0
LINE
  5
14F
330
1F
100
AcDbEntity
  8
枠_表
  6
CONTINUOUS
 62
     6
100
AcDbLine
 10
200.0
 20
23.5
 30
0.0
 11
75.0
 21
23.5
 31
0.0
  0
LINE
  5
150
330
1F
100
AcDbEntity
  8
枠_表
  6
CONTINUOUS
 62
     6
100
AcDbLine
 10
186.0
 20
35.5
 30
0.0
 11
186.0
 21
23.5
 31
0.0
  0
LINE
  5
151
330
1F
100
AcDbEntity
  8
枠_表
  6
CONTINUOUS
 62
     6
100
AcDbLine
 10
181.0
 20
35.5
 30
0.0
 11
181.0
 21
23.5
 31
0.0
  0
LINE
  5
152
330
1F
100
AcDbEntity
  8
枠_表
  6
CONTINUOUS
 62
     6
100
AcDbLine
 10
144.0
 20
35.5
 30
0.0
 11
144.0
 21
13.5
 31
0.0
  0
LINE
  5
153
330
1F
100
AcDbEntity
  8
枠_表
  6
CONTINUOUS
 62
     6
100
AcDbLine
 10
139.0
 20
35.5
 30
0.0
 11
139.0
 21
13.5
 31
0.0
  0
LINE
  5
154
330
1F
100
AcDbEntity
  8
枠_表
  6
CONTINUOUS
 62
     6
100
AcDbLine
 10
80.0
 20
35.5
 30
0.0
 11
80.0
 21
23.5
 31
0.0
  0
LINE
  5
155
330
1F
100
AcDbEntity
  8
枠_表
  6
CONTINUOUS
 62
     6
100
AcDbLine
 10
75.0
 20
35.5
 30
0.0
 11
75.0
 21
13.5
 31
0.0
  0
LINE
  5
156
330
1F
100
AcDbEntity
  8
枠_表
  6
CONTINUOUS
 62
     6
100
AcDbLine
 10
62.0
 20
35.5
 30
0.0
 11
62.0
 21
13.5
 31
0.0
  0
LINE
  5
157
330
1F
100
AcDbEntity
  8
枠_表
  6
CONTINUOUS
 62
     6
100
AcDbLine
 10
49.0
 20
35.5
 30
0.0
 11
49.0
 21
13.5
 31
0.0
  0
LINE
  5
158
330
1F
100
AcDbEntity
  8
枠_表
  6
CONTINUOUS
 62
     6
100
AcDbLine
 10
33.5
 20
35.5
 30
0.0
 11
33.5
 21
13.5
 31
0.0
  0
LINE
  5
159
330
1F
100
AcDbEntity
  8
枠_表
  6
CONTINUOUS
 62
     6
100
AcDbLine
 10
18.0
 20
30.5
 30
0.0
 11
75.0
 21
30.5
 31
0.0
  0
LINE
  5
15A
330
1F
100
AcDbEntity
  8
枠_表
  6
CONTINUOUS
 62
     6
100
AcDbLine
 10
189.26538086
 20
25.80029297
 30
0.0
 11
196.99938965
 21
33.66998291
 31
0.0
  0
LINE
  5
15B
330
1F
100
AcDbEntity
  8
枠_表
  6
EXLTYPE2
 62
     6
100
AcDbLine
 10
18.0
 20
18.5
 30
0.0
 11
49.0
 21
18.5
 31
0.0
  0
CIRCLE
  5
15C
330
1F
100
AcDbEntity
  8
枠_表
  6
CONTINUOUS
 62
     6
100
AcDbCircle
 10
23.0
 20
16.0
 30
0.0
 40
0.10000002
  0
CIRCLE
  5
15D
330
1F
100
AcDbEntity
  8
枠_表
  6
CONTINUOUS
 62
     6
100
AcDbCircle
 10
28.0
 20
16.0
 30
0.0
 40
0.10000002
  0
CIRCLE
  5
15E
330
1F
100
AcDbEntity
  8
枠_表
  6
CONTINUOUS
 62
     6
100
AcDbCircle
 10
38.5
 20
16.0
 30
0.0
 40
0.10000002
  0
CIRCLE
  5
15F
330
1F
100
AcDbEntity
  8
枠_表
  6
CONTINUOUS
 62
     6
100
AcDbCircle
 10
43.5
 20
16.0
 30
0.0
 40
0.10000002
  0
LINE
  5
160
330
1F
100
AcDbEntity
  8
枠_表
  6
CONTINUOUS
 62
     7
100
AcDbLine
 10
18.0
 20
35.5
 30
0.0
 11
200.0
 21
35.5
 31
0.0
  0
LINE
  5
161
330
1F
100
AcDbEntity
  8
枠_表
  6
CONTINUOUS
 62
     7
100
AcDbLine
 10
18.0
 20
13.5
 30
0.0
 11
200.0
 21
13.5
 31
0.0
  0
LINE
  5
162
330
1F
100
AcDbEntity
  8
枠_表
  6
EXLTYPE2
 62
     6
100
AcDbLine
 10
0.0000000000000355
 20
148.5
 30
0.0
 11
18.0
 21
148.5
 31
0.0
  0
TEXT
  5
163
330
1F
100
AcDbEntity
  8
枠_表
  6
CONTINUOUS
 62
     7
100
AcDbText
 10
145.200000166893
 20
15.15
 30
0.0
 40
7.0
  1
ＬＵ９１０９００
 41
1.140425524813064
  7
EXCADSTD
 72
     5
 11
198.799999833107
 21
15.15
 31
0.0
100
AcDbText
  0
TEXT
  5
164
330
1F
100
AcDbEntity
  8
枠_表
  6
CONTINUOUS
 62
     2
100
AcDbText
 10
124.5
 20
266.0
 30
0.0
 40
4.0
  1
６.９Ｗ　ＬＥＤ照明
 41
1.104363901992522
  7
EXCADSTD
 72
     5
 11
160.0499998927116
 21
266.0
 31
0.0
100
AcDbText
  0
ARC
  5
165
330
1F
100
AcDbEntity
  8
鏡台
  6
CONTINUOUS
 62
     2
100
AcDbCircle
 10
1583.856040000001
 20
924.8442089999999
 30
0.0
 40
15.00000000000001
100
AcDbArc
 50
28.8050810000018
 51
81.99999999999925
  0
LINE
  5
166
330
1F
100
AcDbEntity
  8
鏡台
  6
CONTINUOUS
 62
     2
100
AcDbLine
 10
1544.000000000001
 20
754.9999998705995
 30
0.0
 11
1544.000000000001
 21
770.0000000000003
 31
0.0
  0
LINE
  5
167
330
1F
100
AcDbEntity
  8
鏡台
  6
CONTINUOUS
 62
     2
100
AcDbLine
 10
1517.0
 20
989.5000000000002
 30
0.0
 11
1517.0
 21
939.5000000000001
 31
0.0
  0
LINE
  5
168
330
1F
100
AcDbEntity
  8
鏡台
  6
CONTINUOUS
 62
     2
100
AcDbLine
 10
1517.0
 20
989.5000000000002
 30
0.0
 11
1597.0
 21
989.5000000000002
 31
0.0
  0
LINE
  5
169
330
1F
100
AcDbEntity
  8
鏡台
  6
CONTINUOUS
 62
     2
100
AcDbLine
 10
1517.0
 20
939.5000000000001
 30
0.0
 11
1597.0
 21
939.5000000000001
 31
0.0
  0
LINE
  5
16A
330
1F
100
AcDbEntity
  8
鏡台
  6
CONTINUOUS
 62
     2
100
AcDbLine
 10
1566.0
 20
1235.0
 30
0.0
 11
1566.0
 21
1190.000000443976
 31
0.0
  0
LINE
  5
16B
330
1F
100
AcDbEntity
  8
鏡台
  6
CONTINUOUS
 62
     2
100
AcDbLine
 10
1566.0
 20
1225.0
 30
0.0
 11
1559.0
 21
1225.0
 31
0.0
  0
LINE
  5
16C
330
1F
100
AcDbEntity
  8
鏡台
  6
CONTINUOUS
 62
     2
100
AcDbLine
 10
1559.000000000001
 20
1225.0
 30
0.0
 11
1559.000000000001
 21
1190.000299
 31
0.0
  0
LINE
  5
16D
330
1F
100
AcDbEntity
  8
鏡台
  6
CONTINUOUS
 62
     2
100
AcDbLine
 10
1566.0
 20
1190.000299
 30
0.0
 11
1559.0
 21
1190.000299
 31
0.0
  0
LINE
  5
16E
330
1F
100
AcDbEntity
  8
鏡台
  6
CONTINUOUS
 62
     2
100
AcDbLine
 10
1517.0
 20
1235.0
 30
0.0
 11
1597.0
 21
1235.0
 31
0.0
  0
LINE
  5
16F
330
1F
100
AcDbEntity
  8
鏡台
  6
CONTINUOUS
 62
     2
100
AcDbLine
 10
1517.0
 20
1285.0
 30
0.0
 11
1517.0
 21
1235.0
 31
0.0
  0
LINE
  5
170
330
1F
100
AcDbEntity
  8
鏡台
  6
CONTINUOUS
 62
     2
100
AcDbLine
 10
1517.0
 20
1285.0
 30
0.0
 11
1597.0
 21
1285.0
 31
0.0
  0
ARC
  5
171
330
1F
100
AcDbEntity
  8
鏡台
  6
CONTINUOUS
 62
     2
100
AcDbCircle
 10
1605.0
 20
657.9999999999999
 30
0.0
 40
3.000000000000003
100
AcDbArc
 50
180.0
 51
270.0000000000002
  0
LINE
  5
172
330
1F
100
AcDbEntity
  8
鏡台
  6
CONTINUOUS
 62
     2
100
AcDbLine
 10
1544.000000000001
 20
754.9999998705995
 30
0.0
 11
1597.261679734556
 21
752.2086740139116
 31
0.0
  0
LINE
  5
173
330
1F
100
AcDbEntity
  8
鏡台
  6
CONTINUOUS
 62
     2
100
AcDbLine
 10
1602.000000000001
 20
657.9999999999999
 30
0.0
 11
1602.000000000001
 21
747.2155263376933
 31
0.0
  0
ARC
  5
174
330
1F
100
AcDbEntity
  8
鏡台
  6
CONTINUOUS
 62
     2
100
AcDbCircle
 10
1597.0
 20
747.2155263376933
 30
0.0
 40
5.0
100
AcDbArc
 50
0.0
 51
87.00000053541281
  0
LINE
  5
175
330
1F
100
AcDbEntity
  8
鏡台
  6
CONTINUOUS
 62
     2
100
AcDbLine
 10
1544.000000000001
 20
770.0000000000003
 30
0.0
 11
1592.0
 21
770.0000000000003
 31
0.0
  0
ARC
  5
176
330
1F
100
AcDbEntity
  8
鏡台
  6
CONTINUOUS
 62
     2
100
AcDbCircle
 10
1592.0
 20
775.0000000000001
 30
0.0
 40
5.0
100
AcDbArc
 50
270.0000000000002
 51
0.0
  0
LINE
  5
177
330
1F
100
AcDbEntity
  8
鏡台
  6
CONTINUOUS
 62
     2
100
AcDbLine
 10
1566.0
 20
1190.000000443976
 30
0.0
 11
1592.087262145594
 21
1189.544644997459
 31
0.0
  0
ARC
  5
178
330
1F
100
AcDbEntity
  8
鏡台
  6
CONTINUOUS
 62
     2
100
AcDbCircle
 10
1592.0
 20
1184.545406523656
 30
0.0
 40
5.0
100
AcDbArc
 50
0.0
 51
88.99999870026295
  0
ARC
  5
179
330
1F
100
AcDbEntity
  8
鏡台
  6
CONTINUOUS
 62
     2
100
AcDbCircle
 10
1052.0
 20
1650.0
 30
0.0
 40
5.0
100
AcDbArc
 50
0.0
 51
90.00000000000004
  0
LINE
  5
17A
330
1F
100
AcDbEntity
  8
鏡台
  6
CONTINUOUS
 62
     2
100
AcDbLine
 10
1057.0
 20
659.9999999999998
 30
0.0
 11
1057.0
 21
1650.0
 31
0.0
  0
ARC
  5
17B
330
1F
100
AcDbEntity
  8
鏡台
  6
CONTINUOUS
 62
     2
100
AcDbCircle
 10
1052.0
 20
659.9999999999998
 30
0.0
 40
5.0
100
AcDbArc
 50
270.0000000000002
 51
0.0
  0
CIRCLE
  5
17C
330
1F
100
AcDbEntity
  8
鏡台
  6
CONTINUOUS
 62
     2
100
AcDbCircle
 10
1012.000000000001
 20
720.0000000000002
 30
0.0
 40
8.5
  0
LINE
  5
17D
330
1F
100
AcDbEntity
  8
鏡台
  6
CONTINUOUS
 62
     2
100
AcDbLine
 10
907.0000000000006
 20
770.0000000000003
 30
0.0
 11
907.0000000000006
 21
751.9603490000004
 31
0.0
  0
LINE
  5
17E
330
1F
100
AcDbEntity
  8
鏡台
  6
CONTINUOUS
 62
     2
100
AcDbLine
 10
907.0000000000006
 20
755.0000000000003
 30
0.0
 11
1057.0
 21
755.0000000000003
 31
0.0
  0
LINE
  5
17F
330
1F
100
AcDbEntity
  8
鏡台
  6
CONTINUOUS
 62
     2
100
AcDbLine
 10
1048.8
 20
770.0000000000003
 30
0.0
 11
1048.8
 21
939.5000000000001
 31
0.0
  0
LINE
  5
180
330
1F
100
AcDbEntity
  8
鏡台
  6
CONTINUOUS
 62
     2
100
AcDbLine
 10
909.7674610000003
 20
989.5000000000002
 30
0.0
 11
909.7674610000003
 21
939.5000000000001
 31
0.0
  0
LINE
  5
181
330
1F
100
AcDbEntity
  8
鏡台
  6
CONTINUOUS
 62
     2
100
AcDbLine
 10
909.7674610000003
 20
989.5000000000002
 30
0.0
 11
1054.732539000001
 21
989.5000000000002
 31
0.0
  0
LINE
  5
182
330
1F
100
AcDbEntity
  8
鏡台
  6
CONTINUOUS
 62
     2
100
AcDbLine
 10
1054.732539000001
 20
989.5000000000002
 30
0.0
 11
1054.732539000001
 21
939.5000000000001
 31
0.0
  0
LINE
  5
183
330
1F
100
AcDbEntity
  8
鏡台
  6
CONTINUOUS
 62
     2
100
AcDbLine
 10
1054.732539000001
 20
939.5000000000001
 30
0.0
 11
909.7674610000003
 21
939.5000000000001
 31
0.0
  0
LINE
  5
184
330
1F
100
AcDbEntity
  8
鏡台
  6
CONTINUOUS
 62
     2
100
AcDbLine
 10
909.7674610000003
 20
1285.0
 30
0.0
 11
909.7674610000003
 21
1235.0
 31
0.0
  0
LINE
  5
185
330
1F
100
AcDbEntity
  8
鏡台
  6
CONTINUOUS
 62
     2
100
AcDbLine
 10
909.7674610000003
 20
1285.0
 30
0.0
 11
1054.732539000001
 21
1285.0
 31
0.0
  0
LINE
  5
186
330
1F
100
AcDbEntity
  8
鏡台
  6
CONTINUOUS
 62
     2
100
AcDbLine
 10
1054.732539000001
 20
1235.0
 30
0.0
 11
1054.732539000001
 21
1285.0
 31
0.0
  0
LINE
  5
187
330
1F
100
AcDbEntity
  8
鏡台
  6
CONTINUOUS
 62
     2
100
AcDbLine
 10
914.0000000000005
 20
1285.0
 30
0.0
 11
914.0000000000005
 21
1545.529253
 31
0.0
  0
LINE
  5
188
330
1F
100
AcDbEntity
  8
鏡台
  6
CONTINUOUS
 62
     2
100
AcDbLine
 10
1048.8
 20
1285.0
 30
0.0
 11
1048.8
 21
1545.529253
 31
0.0
  0
LINE
  5
189
330
1F
100
AcDbEntity
  8
鏡台
  6
EXLTYPE1
 62
     2
100
AcDbLine
 10
867.5000000000007
 20
987.0
 30
0.0
 11
867.5000000000007
 21
977.0000000000001
 31
0.0
  0
LINE
  5
18A
330
1F
100
AcDbEntity
  8
鏡台
  6
CONTINUOUS
 62
     2
100
AcDbLine
 10
887.5000000000007
 20
977.0000000000001
 30
0.0
 11
867.5000000000007
 21
977.0000000000001
 31
0.0
  0
LINE
  5
18B
330
1F
100
AcDbEntity
  8
鏡台
  6
CONTINUOUS
 62
     2
100
AcDbLine
 10
887.5000000000007
 20
987.0
 30
0.0
 11
867.5000000000007
 21
987.0
 31
0.0
  0
LINE
  5
18C
330
1F
100
AcDbEntity
  8
鏡台
  6
EXLTYPE1
 62
     2
100
AcDbLine
 10
887.5000000000007
 20
987.0
 30
0.0
 11
887.5000000000007
 21
977.0000000000001
 31
0.0
  0
LINE
  5
18D
330
1F
100
AcDbEntity
  8
鏡台
  6
CONTINUOUS
 62
     2
100
AcDbLine
 10
887.5000000000007
 20
980.0000000000003
 30
0.0
 11
907.0000000000006
 21
980.0000000000003
 31
0.0
  0
LINE
  5
18E
330
1F
100
AcDbEntity
  8
鏡台
  6
CONTINUOUS
 62
     2
100
AcDbLine
 10
914.0000000000005
 20
989.5000000000002
 30
0.0
 11
914.0000000000005
 21
1190.0
 31
0.0
  0
LINE
  5
18F
330
1F
100
AcDbEntity
  8
鏡台
  6
CONTINUOUS
 62
     2
100
AcDbLine
 10
1048.8
 20
989.5000000000002
 30
0.0
 11
1048.8
 21
1190.0
 31
0.0
  0
LINE
  5
190
330
1F
100
AcDbEntity
  8
鏡台
  6
CONTINUOUS
 62
     2
100
AcDbLine
 10
914.0000000000005
 20
1505.0
 30
0.0
 11
1048.8
 21
1505.0
 31
0.0
  0
LINE
  5
191
330
1F
100
AcDbEntity
  8
鏡台
  6
CONTINUOUS
 62
     2
100
AcDbLine
 10
914.0000000000005
 20
770.0000000000003
 30
0.0
 11
914.0000000000005
 21
939.5000000000001
 31
0.0
  0
LINE
  5
192
330
1F
100
AcDbEntity
  8
鏡台
  6
CONTINUOUS
 62
     2
100
AcDbLine
 10
907.5000000000007
 20
1190.0
 30
0.0
 11
1057.0
 21
1190.0
 31
0.0
  0
LINE
  5
193
330
1F
100
AcDbEntity
  8
鏡台
  6
CONTINUOUS
 62
     2
100
AcDbLine
 10
1057.0
 20
1235.0
 30
0.0
 11
907.5000000000007
 21
1235.0
 31
0.0
  0
LINE
  5
194
330
1F
100
AcDbEntity
  8
鏡台
  6
CONTINUOUS
 62
     2
100
AcDbLine
 10
914.0000000000005
 20
1545.529253
 30
0.0
 11
1048.8
 21
1545.529253
 31
0.0
  0
LINE
  5
195
330
1F
100
AcDbEntity
  8
鏡台
  6
CONTINUOUS
 62
     2
100
AcDbLine
 10
907.5000000000007
 20
933.818897
 30
0.0
 11
907.5000000000007
 21
1545.529253
 31
0.0
  0
ARC
  5
196
330
1F
100
AcDbEntity
  8
鏡台
  6
CONTINUOUS
 62
     2
100
AcDbCircle
 10
1052.919630668466
 20
2123.0
 30
0.0
 40
3.000000000000003
100
AcDbArc
 50
270.0000000000002
 51
358.0402664156083
  0
LINE
  5
197
330
1F
100
AcDbEntity
  8
鏡台
  6
CONTINUOUS
 62
     2
100
AcDbLine
 10
1057.016335113744
 20
2155.000000000001
 30
0.0
 11
1055.464862165018
 21
2109.658028652728
 31
0.0
  0
ARC
  5
198
330
1F
100
AcDbEntity
  8
鏡台
  6
CONTINUOUS
 62
     2
100
AcDbCircle
 10
1045.470711095636
 20
2110.000000000001
 30
0.0
 40
10.0
100
AcDbArc
 50
270.0000000000002
 51
358.0402664155951
  0
LINE
  5
199
330
1F
100
AcDbEntity
  8
鏡台
  6
CONTINUOUS
 62
     2
100
AcDbLine
 10
1045.470711095638
 20
2100.000000000001
 30
0.0
 11
1042.569755640201
 21
2100.0
 31
0.0
  0
LINE
  5
19A
330
1F
100
AcDbEntity
  8
鏡台
  6
CONTINUOUS
 62
     2
100
AcDbLine
 10
1039.508519844046
 20
2041.588351610591
 30
0.0
 11
1043.617907916032
 21
2119.999999999999
 31
0.0
  0
ARC
  5
19B
330
1F
100
AcDbEntity
  8
鏡台
  6
CONTINUOUS
 62
     2
100
AcDbCircle
 10
982.2663351141393
 20
2223.807327950116
 30
0.0
 40
183.8073279501143
100
AcDbArc
 50
288.2772855418472
 51
293.2248034473425
  0
LINE
  5
19C
330
1F
100
AcDbEntity
  8
鏡台
  6
CONTINUOUS
 62
     2
100
AcDbLine
 10
1054.748874179874
 20
2106.2696260533
 30
0.0
 11
1054.748874179874
 21
2054.8948792119
 31
0.0
  0
ARC
  5
19D
330
1F
100
AcDbEntity
  8
鏡台
  6
CONTINUOUS
 62
     2
100
AcDbCircle
 10
1034.483882220499
 20
1635.184233500003
 30
0.0
 40
10.0
100
AcDbArc
 50
0.0
 51
90.00000000000004
  0
LINE
  5
19E
330
1F
100
AcDbEntity
  8
鏡台
  6
CONTINUOUS
 62
     2
100
AcDbLine
 10
1044.483882220499
 20
1568.500000000004
 30
0.0
 11
1044.483882220499
 21
1635.184233500003
 31
0.0
  0
ARC
  5
19F
330
1F
100
AcDbEntity
  8
鏡台
  6
CONTINUOUS
 62
     2
100
AcDbCircle
 10
1034.483882220499
 20
1568.500000000004
 30
0.0
 40
10.0
100
AcDbArc
 50
270.0000000000002
 51
0.0
  0
LINE
  5
1A0
330
1F
100
AcDbEntity
  8
鏡台
  6
CONTINUOUS
 62
     2
100
AcDbLine
 10
1583.878458315318
 20
1558.61802399025
 30
0.0
 11
1515.869411634435
 21
1558.618044804605
 31
0.0
  0
ARC
  5
1A1
330
1F
100
AcDbEntity
  8
鏡台
  6
CONTINUOUS
 62
     2
100
AcDbCircle
 10
1515.869420482119
 20
1578.618022559451
 30
0.0
 40
19.99999999999992
100
AcDbArc
 50
203.0314940000001
 51
270.0000000000002
  0
ARC
  5
1A2
330
1F
100
AcDbEntity
  8
鏡台
  6
CONTINUOUS
 62
     2
100
AcDbCircle
 10
1745.941903939334
 20
1676.427355239952
 30
0.0
 40
269.9999999999999
100
AcDbArc
 50
191.0257570000003
 51
203.0314939999994
  0
ARC
  5
1A3
330
1F
100
AcDbEntity
  8
鏡台
  6
CONTINUOUS
 62
     2
100
AcDbCircle
 10
1490.741179955577
 20
1626.702357289577
 30
0.0
 40
10.00000000000003
100
AcDbArc
 50
94.00003099999893
 51
191.0257569999966
  0
LINE
  5
1A4
330
1F
100
AcDbEntity
  8
鏡台
  6
CONTINUOUS
 62
     2
100
AcDbLine
 10
1490.043612615232
 20
1636.677985423611
 30
0.0
 11
1596.999999999978
 21
1644.157110019493
 31
0.0
  0
LINE
  5
1A5
330
1F
100
AcDbEntity
  8
鏡台
  6
CONTINUOUS
 62
     2
100
AcDbLine
 10
1596.999999999978
 20
1573.078094578464
 30
0.0
 11
1596.999999999978
 21
1653.812682374572
 31
0.0
  0
LINE
  5
1A6
330
1F
100
AcDbEntity
  8
鏡台
  6
CONTINUOUS
 62
     2
100
AcDbLine
 10
1631.999999999978
 20
1655.000000000005
 30
0.0
 11
1596.999999999978
 21
1653.812682374572
 31
0.0
  0
LINE
  5
1A7
330
1F
100
AcDbEntity
  8
鏡台
  6
CONTINUOUS
 62
     2
100
AcDbLine
 10
1581.999999999978
 20
1558.499938999943
 30
0.0
 11
1576.999999999979
 21
1558.499938999943
 31
0.0
  0
ARC
  5
1A8
330
1F
100
AcDbEntity
  8
鏡台
  6
CONTINUOUS
 62
     2
100
AcDbCircle
 10
1581.999999999978
 20
1573.499939000003
 30
0.0
 40
15.00000000000001
100
AcDbArc
 50
270.0000000000002
 51
0.0
  0
LINE
  5
1A9
330
1F
100
AcDbEntity
  8
鏡台
  6
CONTINUOUS
 62
     2
100
AcDbLine
 10
1576.999999999979
 20
1548.499939000003
 30
0.0
 11
1576.999999999979
 21
1558.499938999943
 31
0.0
  0
LINE
  5
1AA
330
1F
100
AcDbEntity
  8
鏡台
  6
CONTINUOUS
 62
     2
100
AcDbLine
 10
1597.0
 20
1545.499939
 30
0.0
 11
1597.0
 21
775.0000000000001
 31
0.0
  0
LINE
  5
1AB
330
1F
100
AcDbEntity
  8
鏡台
  6
CONTINUOUS
 62
     2
100
AcDbLine
 10
1576.999999999979
 20
1548.499939000003
 30
0.0
 11
1597.0
 21
1545.499939000002
 31
0.0
  0
ARC
  5
1AC
330
1F
100
AcDbEntity
  8
鏡台
  6
CONTINUOUS
 62
     2
100
AcDbCircle
 10
561.096704445275
 20
2123.0
 30
0.0
 40
3.000000000000003
100
AcDbArc
 50
181.959733584392
 51
270.0000000000002
  0
LINE
  5
1AD
330
1F
100
AcDbEntity
  8
鏡台
  6
CONTINUOUS
 62
     2
100
AcDbLine
 10
556.9999999999968
 20
2155.000000000001
 30
0.0
 11
558.5514729487222
 21
2109.658028652728
 31
0.0
  0
ARC
  5
1AE
330
1F
100
AcDbEntity
  8
鏡台
  6
CONTINUOUS
 62
     2
100
AcDbCircle
 10
568.545624018105
 20
2110.000000000001
 30
0.0
 40
10.0
100
AcDbArc
 50
181.959733584405
 51
270.0000000000002
  0
LINE
  5
1AF
330
1F
100
AcDbEntity
  8
鏡台
  6
CONTINUOUS
 62
     2
100
AcDbLine
 10
568.5456240181038
 20
2100.000000000001
 30
0.0
 11
571.4465794735402
 21
2100.0
 31
0.0
  0
LINE
  5
1B0
330
1F
100
AcDbEntity
  8
鏡台
  6
CONTINUOUS
 62
     2
100
AcDbLine
 10
574.5078152696951
 20
2041.588351610591
 30
0.0
 11
570.398427197709
 21
2119.999999999999
 31
0.0
  0
ARC
  5
1B1
330
1F
100
AcDbEntity
  8
鏡台
  6
CONTINUOUS
 62
     2
100
AcDbCircle
 10
631.7499999996018
 20
2223.807327950116
 30
0.0
 40
183.8073279501143
100
AcDbArc
 50
246.7751965526583
 51
251.7227144581537
  0
LINE
  5
1B2
330
1F
100
AcDbEntity
  8
鏡台
  6
CONTINUOUS
 62
     2
100
AcDbLine
 10
559.2674609338674
 20
2106.2696260533
 30
0.0
 11
559.2674609338674
 21
2054.8948792119
 31
0.0
  0
ARC
  5
1B3
330
1F
100
AcDbEntity
  8
鏡台
  6
CONTINUOUS
 62
     2
100
AcDbCircle
 10
562.0000000000006
 20
1650.0
 30
0.0
 40
5.0
100
AcDbArc
 50
90.00000000000004
 51
180.0
  0
LINE
  5
1B4
330
1F
100
AcDbEntity
  8
鏡台
  6
CONTINUOUS
 62
     2
100
AcDbLine
 10
557.0000000000006
 20
1650.0
 30
0.0
 11
557.0000000000006
 21
659.9999999999998
 31
0.0
  0
ARC
  5
1B5
330
1F
100
AcDbEntity
  8
鏡台
  6
CONTINUOUS
 62
     2
100
AcDbCircle
 10
562.0000000000006
 20
659.9999999999998
 30
0.0
 40
5.0
100
AcDbArc
 50
180.0
 51
270.0000000000002
  0
CIRCLE
  5
1B6
330
1F
100
AcDbEntity
  8
鏡台
  6
CONTINUOUS
 62
     2
100
AcDbCircle
 10
602.0000000000006
 20
720.0000000000002
 30
0.0
 40
8.5
  0
LINE
  5
1B7
330
1F
100
AcDbEntity
  8
鏡台
  6
CONTINUOUS
 62
     2
100
AcDbLine
 10
557.0000000000006
 20
755.0000000000003
 30
0.0
 11
706.9000000000007
 21
755.0000000000003
 31
0.0
  0
LINE
  5
1B8
330
1F
100
AcDbEntity
  8
鏡台
  6
CONTINUOUS
 62
     2
100
AcDbLine
 10
706.9000000000007
 20
770.0000000000003
 30
0.0
 11
706.9000000000007
 21
751.9603490000004
 31
0.0
  0
ARC
  5
1B9
330
1F
100
AcDbEntity
  8
鏡台
  6
CONTINUOUS
 62
     2
100
AcDbCircle
 10
578.9652330558375
 20
1635.184233500003
 30
0.0
 40
10.0
100
AcDbArc
 50
90.00000000000004
 51
180.0
  0
LINE
  5
1BA
330
1F
100
AcDbEntity
  8
鏡台
  6
CONTINUOUS
 62
     2
100
AcDbLine
 10
568.9652330558375
 20
1635.184233500003
 30
0.0
 11
568.9652330558375
 21
1568.500000000004
 31
0.0
  0
ARC
  5
1BB
330
1F
100
AcDbEntity
  8
鏡台
  6
CONTINUOUS
 62
     2
100
AcDbCircle
 10
578.9652330558375
 20
1568.500000000004
 30
0.0
 40
10.0
100
AcDbArc
 50
180.0
 51
270.0000000000002
  0
LINE
  5
1BC
330
1F
100
AcDbEntity
  8
鏡台
  6
CONTINUOUS
 62
     2
100
AcDbLine
 10
706.9000000000001
 20
751.9603490000004
 30
0.0
 11
907.0000000000006
 21
751.9603490000004
 31
0.0
  0
LINE
  5
1BD
330
1F
100
AcDbEntity
  8
鏡台
  6
CONTINUOUS
 62
     2
100
AcDbLine
 10
1057.0
 20
1558.500000000004
 30
0.0
 11
557.0
 21
1558.500000000004
 31
0.0
  0
LINE
  5
1BE
330
1F
100
AcDbEntity
  8
鏡台
  6
CONTINUOUS
 62
     2
100
AcDbLine
 10
1057.0
 20
1548.500000000004
 30
0.0
 11
557.0
 21
1548.500000000004
 31
0.0
  0
LINE
  5
1BF
330
1F
100
AcDbEntity
  8
鏡台
  6
CONTINUOUS
 62
     2
100
AcDbLine
 10
1052.0
 20
1655.0
 30
0.0
 11
562.0
 21
1655.0
 31
0.0
  0
LINE
  5
1C0
330
1F
100
AcDbEntity
  8
鏡台
  6
CONTINUOUS
 62
     2
100
AcDbLine
 10
1034.483882220499
 20
1645.184233500004
 30
0.0
 11
578.9652330558404
 21
1645.184233500004
 31
0.0
  0
LINE
  5
1C1
330
1F
100
AcDbEntity
  8
鏡台
  6
CONTINUOUS
 62
     2
100
AcDbLine
 10
561.0967044452702
 20
2120.000000000002
 30
0.0
 11
1055.786109288907
 21
2120.000000000002
 31
0.0
  0
LINE
  5
1C2
330
1F
100
AcDbEntity
  8
鏡台
  6
CONTINUOUS
 62
     2
100
AcDbLine
 10
1057.0
 20
770.0000000000003
 30
0.0
 11
557.0
 21
770.0000000000003
 31
0.0
  0
ARC
  5
1C3
330
1F
100
AcDbEntity
  8
鏡台
  6
CONTINUOUS
 62
     2
100
AcDbCircle
 10
584.4941105659218
 20
2042.111712152253
 30
0.0
 40
10.0
100
AcDbArc
 50
183.0000056182903
 51
261.4176546077632
  0
ARC
  5
1C4
330
1F
100
AcDbEntity
  8
鏡台
  6
CONTINUOUS
 62
     2
100
AcDbCircle
 10
1029.522224547819
 20
2042.111712152253
 30
0.0
 40
10.0
100
AcDbArc
 50
278.5786153535972
 51
356.9999943817099
  0
ARC
  5
1C5
330
1F
100
AcDbEntity
  8
鏡台
  6
CONTINUOUS
 62
     2
100
AcDbCircle
 10
463.6172680084401
 20
1241.18175957629
 30
0.0
 40
800.0000000000006
100
AcDbArc
 50
77.60710530195976
 51
81.4176546077629
  0
ARC
  5
1C6
330
1F
100
AcDbEntity
  8
鏡台
  6
CONTINUOUS
 62
     2
100
AcDbCircle
 10
1150.346925143537
 20
1241.173892015162
 30
0.0
 40
800.0000000000006
100
AcDbArc
 50
98.57861535359775
 51
102.3915818727004
  0
ARC
  5
1C7
330
1F
100
AcDbEntity
  8
鏡台
  6
CONTINUOUS
 62
     2
100
AcDbCircle
 10
807.0000000000006
 20
2803.900000133434
 30
0.0
 40
800.0000000000006
100
AcDbArc
 50
257.6071053019602
 51
282.3915818727005
  0
LINE
  5
1C8
330
1F
100
AcDbEntity
  8
鏡台
  6
CONTINUOUS
 62
     2
100
AcDbLine
 10
557.0000000000006
 20
964.5
 30
0.0
 11
908.0000000000002
 21
964.5
 31
0.0
  0
LINE
  5
1C9
330
1F
100
AcDbEntity
  8
鏡台
  6
CONTINUOUS
 62
     2
100
AcDbLine
 10
557.0000000000006
 20
933.818897
 30
0.0
 11
914.0000000000005
 21
933.818897
 31
0.0
  0
LINE
  5
1CA
330
1F
100
AcDbEntity
  8
鏡台
  6
CONTINUOUS
 62
     2
100
AcDbLine
 10
615.0000000000007
 20
987.0
 30
0.0
 11
595.0000000000007
 21
987.0
 31
0.0
  0
LINE
  5
1CB
330
1F
100
AcDbEntity
  8
鏡台
  6
EXLTYPE1
 62
     2
100
AcDbLine
 10
615.0000000000007
 20
987.0
 30
0.0
 11
615.0000000000007
 21
977.0000000000001
 31
0.0
  0
LINE
  5
1CC
330
1F
100
AcDbEntity
  8
鏡台
  6
EXLTYPE1
 62
     2
100
AcDbLine
 10
595.0000000000007
 20
987.0
 30
0.0
 11
595.0000000000007
 21
977.0000000000001
 31
0.0
  0
LINE
  5
1CD
330
1F
100
AcDbEntity
  8
鏡台
  6
CONTINUOUS
 62
     2
100
AcDbLine
 10
615.0000000000007
 20
977.0000000000001
 30
0.0
 11
595.0000000000007
 21
977.0000000000001
 31
0.0
  0
LINE
  5
1CE
330
1F
100
AcDbEntity
  8
鏡台
  6
CONTINUOUS
 62
     2
100
AcDbLine
 10
575.5000000000005
 20
980.0000000000003
 30
0.0
 11
595.0000000000007
 21
980.0000000000003
 31
0.0
  0
LINE
  5
1CF
330
1F
100
AcDbEntity
  8
鏡台
  6
CONTINUOUS
 62
     2
100
AcDbLine
 10
575.0000000000007
 20
980.0
 30
0.0
 11
575.0000000000007
 21
1545.529253
 31
0.0
  0
LINE
  5
1D0
330
1F
100
AcDbEntity
  8
鏡台
  6
CONTINUOUS
 62
     2
100
AcDbLine
 10
575.0000000000007
 20
1545.529253
 30
0.0
 11
907.5000000000007
 21
1545.529253
 31
0.0
  0
LINE
  5
1D1
330
1F
100
AcDbEntity
  8
鏡台
  6
CONTINUOUS
 62
     2
100
AcDbLine
 10
615.0000000000007
 20
980.0000000000003
 30
0.0
 11
867.5000000000007
 21
980.0000000000003
 31
0.0
  0
LINE
  5
1D2
330
1F
100
AcDbEntity
  8
鏡台
  6
CONTINUOUS
 62
     2
100
AcDbLine
 10
562.0
 20
655.0000000000001
 30
0.0
 11
1052.0
 21
655.0000000000001
 31
0.0
  0
LINE
  5
1D3
330
1F
100
AcDbEntity
  8
鏡台
  6
CONTINUOUS
 62
     2
100
AcDbLine
 10
557.0
 20
2155.000000000001
 30
0.0
 11
1057.0
 21
2155.000000000001
 31
0.0
  0
LINE
  5
1D4
330
1F
100
AcDbEntity
  8
鏡台
  6
CONTINUOUS
 62
     2
100
AcDbLine
 10
1605.0
 20
655.0000000000001
 30
0.0
 11
1632.0
 21
655.0000000000001
 31
0.0
  0
LINE
  5
1D5
330
1F
100
AcDbEntity
  8
鏡台
  6
CONTINUOUS
 62
     2
100
AcDbLine
 10
1625.983664886299
 20
790.0
 30
0.0
 11
1625.983664886299
 21
780.0
 31
0.0
  0
LINE
  5
1D6
330
1F
100
AcDbEntity
  8
鏡台
  6
CONTINUOUS
 62
     2
100
AcDbLine
 10
802.0
 20
2149.000000000001
 30
0.0
 11
802.0
 21
2155.000000000001
 31
0.0
  0
LINE
  5
1D7
330
1F
100
AcDbEntity
  8
鏡台
  6
CONTINUOUS
 62
     2
100
AcDbLine
 10
812.0
 20
2149.000000000001
 30
0.0
 11
812.0
 21
2155.000000000001
 31
0.0
  0
LINE
  5
1D8
330
1F
100
AcDbEntity
  8
鏡台
  6
CONTINUOUS
 62
     2
100
AcDbLine
 10
802.0
 20
2149.000000000001
 30
0.0
 11
812.0
 21
2149.000000000001
 31
0.0
  0
LINE
  5
1D9
330
1F
100
AcDbEntity
  8
鏡台
  6
CONTINUOUS
 62
     2
100
AcDbLine
 10
1625.983664886299
 20
790.0
 30
0.0
 11
1632.0
 21
790.0
 31
0.0
  0
LINE
  5
1DA
330
1F
100
AcDbEntity
  8
鏡台
  6
CONTINUOUS
 62
     2
100
AcDbLine
 10
1625.983664886299
 20
780.0
 30
0.0
 11
1632.0
 21
780.0
 31
0.0
  0
LINE
  5
1DB
330
1F
100
AcDbEntity
  8
鏡台
  6
CONTINUOUS
 62
     2
100
AcDbLine
 10
1632.000000000001
 20
1655.0
 30
0.0
 11
1632.000000000001
 21
790.0
 31
0.0
  0
LINE
  5
1DC
330
1F
100
AcDbEntity
  8
鏡台
  6
CONTINUOUS
 62
     2
100
AcDbLine
 10
1632.000000000001
 20
780.0
 30
0.0
 11
1632.000000000001
 21
655.0000000000001
 31
0.0
  0
LINE
  5
1DD
330
1F
100
AcDbEntity
  8
鏡台
  6
CONTINUOUS
 62
     2
100
AcDbLine
 10
907.5000000000007
 20
944.33589746206
 30
0.0
 11
557.0
 21
944.33589746206
 31
0.0
  0
LINE
  5
1DE
330
1F
100
AcDbEntity
  8
鏡台
  6
CONTINUOUS
 62
     2
100
AcDbLine
 10
1108.854861994
 20
684.4186079142995
 30
0.0
 11
1095.004666241001
 21
680.0850715983004
 31
0.0
  0
LINE
  5
1DF
330
1F
100
AcDbEntity
  8
鏡台
  6
CONTINUOUS
 62
     2
100
AcDbLine
 10
1095.004666241001
 20
680.0850715983004
 30
0.0
 11
1090.529978233
 21
702.3501968788
 31
0.0
  0
LINE
  5
1E0
330
1F
100
AcDbEntity
  8
鏡台
  6
CONTINUOUS
 62
     2
100
AcDbLine
 10
1097.407174018001
 20
704.1942288706998
 30
0.0
 11
1103.614595965
 21
685.8627556102002
 31
0.0
  0
LINE
  5
1E1
330
1F
100
AcDbEntity
  8
鏡台
  6
CONTINUOUS
 62
     2
100
AcDbLine
 10
1127.674427211001
 20
676.0026976500997
 30
0.0
 11
1112.219541936
 21
671.8616306452001
 31
0.0
  0
LINE
  5
1E2
330
1F
100
AcDbEntity
  8
鏡台
  6
CONTINUOUS
 62
     2
100
AcDbLine
 10
1125.344993955001
 20
684.6960770690999
 30
0.0
 11
1109.890230303
 21
680.5550004273002
 31
0.0
  0
LINE
  5
1E3
330
1F
100
AcDbEntity
  8
鏡台
  6
CONTINUOUS
 62
     2
100
AcDbLine
 10
1108.854861994
 20
684.4186079142995
 30
0.0
 11
1107.328637359
 21
683.9546466432001
 31
0.0
  0
LINE
  5
1E4
330
1F
100
AcDbEntity
  8
鏡台
  6
CONTINUOUS
 62
     2
100
AcDbLine
 10
1113.384198338001
 20
667.5149467066997
 30
0.0
 11
1099.554394119001
 21
664.7800765589003
 31
0.0
  0
LINE
  5
1E5
330
1F
100
AcDbEntity
  8
鏡台
  6
CONTINUOUS
 62
     2
100
AcDbLine
 10
1108.854861994
 20
684.4186079142995
 30
0.0
 11
1113.384198338001
 21
667.5149467066997
 31
0.0
  0
LINE
  5
1E6
330
1F
100
AcDbEntity
  8
鏡台
  6
CONTINUOUS
 62
     2
100
AcDbLine
 10
1094.745784779
 20
679.1190957747998
 30
0.0
 11
1098.394412078001
 21
665.5022095894999
 31
0.0
  0
LINE
  5
1E7
330
1F
100
AcDbEntity
  8
鏡台
  6
CONTINUOUS
 62
     2
100
AcDbLine
 10
1096.201123577001
 20
704.8393951451002
 30
0.0
 11
1091.251515880001
 21
703.5131722015997
 31
0.0
  0
ARC
  5
1E8
330
1F
100
AcDbEntity
  8
鏡台
  6
CONTINUOUS
 62
     2
100
AcDbCircle
 10
1238.656677000001
 20
730.1650389999999
 30
0.0
 40
150.0
100
AcDbArc
 50
184.0109859999997
 51
190.2635811660001
  0
ARC
  5
1E9
330
1F
100
AcDbEntity
  8
鏡台
  6
CONTINUOUS
 62
     2
100
AcDbCircle
 10
1244.149475
 20
729.8833010000002
 30
0.0
 40
150.0
100
AcDbArc
 50
184.3858640000001
 51
189.6062823292004
  0
ARC
  5
1EA
330
1F
100
AcDbEntity
  8
鏡台
  6
CONTINUOUS
 62
     2
100
AcDbCircle
 10
1106.456094715001
 20
686.8249410823004
 30
0.0
 40
3.000000000000003
100
AcDbArc
 50
198.7072749999955
 51
286.9092409999855
  0
ARC
  5
1EB
330
1F
100
AcDbEntity
  8
鏡台
  6
CONTINUOUS
 62
     2
100
AcDbCircle
 10
1091.510355234
 20
702.5472391987001
 30
0.0
 40
1.0
100
AcDbArc
 50
105.0000609999953
 51
191.3634640000096
  0
ARC
  5
1EC
330
1F
100
AcDbEntity
  8
鏡台
  6
CONTINUOUS
 62
     2
100
AcDbCircle
 10
1096.459963018001
 20
703.8734631384998
 30
0.0
 40
1.0
100
AcDbArc
 50
18.70727500001684
 51
104.9999999999945
  0
ARC
  5
1ED
330
1F
100
AcDbEntity
  8
鏡台
  6
CONTINUOUS
 62
     2
100
AcDbCircle
 10
1117.883656701001
 20
678.0380807733
 30
0.0
 40
10.0
100
AcDbArc
 50
348.2563479999997
 51
41.74362200000473
  0
ARC
  5
1EE
330
1F
100
AcDbEntity
  8
鏡台
  6
CONTINUOUS
 62
     2
100
AcDbCircle
 10
1099.360344084
 20
665.7610490303001
 30
0.0
 40
1.0
100
AcDbArc
 50
195.0000000000168
 51
281.1862180000104
  0
ARC
  5
1EF
330
1F
100
AcDbEntity
  8
鏡台
  6
CONTINUOUS
 62
     2
100
AcDbCircle
 10
1095.711716785
 20
679.3779352155003
 30
0.0
 40
1.0
100
AcDbArc
 50
106.9091190000312
 51
195.0000000000482
  0
ARC
  5
1F0
330
1F
100
AcDbEntity
  8
鏡台
  6
CONTINUOUS
 62
     2
100
AcDbCircle
 10
968.7486570000005
 20
718.1899410000001
 30
0.0
 40
120.0000000000001
100
AcDbArc
 50
4.590392999999997
 51
27.57687399999962
  0
ARC
  5
1F1
330
1F
100
AcDbEntity
  8
鏡台
  6
CONTINUOUS
 62
     2
100
AcDbCircle
 10
1057.0
 20
758.0000000000002
 30
0.0
 40
30.00000000000002
100
AcDbArc
 50
41.793671
 51
90.00000000000004
  0
ARC
  5
1F2
330
1F
100
AcDbEntity
  8
鏡台
  6
CONTINUOUS
 62
     2
100
AcDbCircle
 10
1106.456094715001
 20
686.8249410823004
 30
0.0
 40
3.000000000000003
100
AcDbArc
 50
198.7072749999955
 51
286.9092409999855
  0
ARC
  5
1F3
330
1F
100
AcDbEntity
  8
鏡台
  6
CONTINUOUS
 62
     2
100
AcDbCircle
 10
1091.510355234
 20
702.5472391987001
 30
0.0
 40
1.0
100
AcDbArc
 50
105.0000609999953
 51
191.3634640000096
  0
ARC
  5
1F4
330
1F
100
AcDbEntity
  8
鏡台
  6
CONTINUOUS
 62
     2
100
AcDbCircle
 10
1096.459963018001
 20
703.8734631384998
 30
0.0
 40
1.0
100
AcDbArc
 50
18.70727500001684
 51
104.9999999999945
  0
ARC
  5
1F5
330
1F
100
AcDbEntity
  8
鏡台
  6
CONTINUOUS
 62
     2
100
AcDbCircle
 10
1117.883656701001
 20
678.0380807733
 30
0.0
 40
10.0
100
AcDbArc
 50
348.2563479999997
 51
41.74362200000473
  0
ARC
  5
1F6
330
1F
100
AcDbEntity
  8
鏡台
  6
CONTINUOUS
 62
     2
100
AcDbCircle
 10
1099.360344084
 20
665.7610490303001
 30
0.0
 40
1.0
100
AcDbArc
 50
195.0000000000168
 51
281.1862180000104
  0
ARC
  5
1F7
330
1F
100
AcDbEntity
  8
鏡台
  6
CONTINUOUS
 62
     2
100
AcDbCircle
 10
1095.711716785
 20
679.3779352155003
 30
0.0
 40
1.0
100
AcDbArc
 50
106.9091190000312
 51
195.0000000000482
  0
ARC
  5
1F8
330
1F
100
AcDbEntity
  8
鏡台
  6
CONTINUOUS
 62
     2
100
AcDbCircle
 10
1057.0
 20
758.0000000000002
 30
0.0
 40
24.00000000000002
100
AcDbArc
 50
40.99096700000009
 51
90.00000000000004
  0
LINE
  5
1F9
330
1F
100
AcDbEntity
  8
鏡台
  6
CONTINUOUS
 62
     2
100
AcDbLine
 10
1120.653443000001
 20
2019.378296
 30
0.0
 11
1107.233643000001
 21
2013.854126
 31
0.0
  0
LINE
  5
1FA
330
1F
100
AcDbEntity
  8
鏡台
  6
CONTINUOUS
 62
     2
100
AcDbLine
 10
1107.233643000001
 20
2013.854126
 30
0.0
 11
1100.835450000001
 21
2035.644531
 31
0.0
  0
LINE
  5
1FB
330
1F
100
AcDbEntity
  8
鏡台
  6
CONTINUOUS
 62
     2
100
AcDbLine
 10
1107.525757
 20
2038.080933
 30
0.0
 11
1115.307251
 21
2020.360229
 31
0.0
  0
LINE
  5
1FC
330
1F
100
AcDbEntity
  8
鏡台
  6
CONTINUOUS
 62
     2
100
AcDbLine
 10
1140.134888
 20
2012.634644000001
 30
0.0
 11
1125.099732000001
 21
2007.162476
 31
0.0
  0
LINE
  5
1FD
330
1F
100
AcDbEntity
  8
鏡台
  6
CONTINUOUS
 62
     2
100
AcDbLine
 10
1137.056641
 20
2021.091919
 30
0.0
 11
1122.021607
 21
2015.619751000001
 31
0.0
  0
LINE
  5
1FE
330
1F
100
AcDbEntity
  8
鏡台
  6
CONTINUOUS
 62
     2
100
AcDbLine
 10
1120.653443000001
 20
2019.378296
 30
0.0
 11
1119.173462000001
 21
2018.783081
 31
0.0
  0
LINE
  5
1FF
330
1F
100
AcDbEntity
  8
鏡台
  6
CONTINUOUS
 62
     2
100
AcDbLine
 10
1126.638794
 20
2002.933716
 30
0.0
 11
1113.099976000001
 21
1999.004028000001
 31
0.0
  0
LINE
  5
200
330
1F
100
AcDbEntity
  8
鏡台
  6
CONTINUOUS
 62
     2
100
AcDbLine
 10
1120.653443000001
 20
2019.378296
 30
0.0
 11
1126.638794
 21
2002.933716
 31
0.0
  0
LINE
  5
201
330
1F
100
AcDbEntity
  8
鏡台
  6
CONTINUOUS
 62
     2
100
AcDbLine
 10
1107.059937000001
 20
2012.869262999999
 30
0.0
 11
1111.881470000001
 21
1999.622192
 31
0.0
  0
LINE
  5
202
330
1F
100
AcDbEntity
  8
鏡台
  6
CONTINUOUS
 62
     2
100
AcDbLine
 10
1106.268067
 20
2038.61853
 30
0.0
 11
1101.452881000001
 21
2036.865967
 31
0.0
  0
ARC
  5
203
330
1F
100
AcDbEntity
  8
鏡台
  6
CONTINUOUS
 62
     2
100
AcDbCircle
 10
1118.054078000001
 20
2021.566528
 30
0.0
 40
3.000000000000003
100
AcDbArc
 50
203.7072749999979
 51
291.9092409999854
  0
ARC
  5
204
330
1F
100
AcDbEntity
  8
鏡台
  6
CONTINUOUS
 62
     2
100
AcDbCircle
 10
1101.794922
 20
2035.926269999999
 30
0.0
 40
1.0
100
AcDbArc
 50
110.0000610000089
 51
196.3634639999433
  0
ARC
  5
205
330
1F
100
AcDbEntity
  8
鏡台
  6
CONTINUOUS
 62
     2
100
AcDbCircle
 10
1106.610108000001
 20
2037.678833
 30
0.0
 40
1.0
100
AcDbArc
 50
23.70727500005829
 51
110.0000000000393
  0
ARC
  5
206
330
1F
100
AcDbEntity
  8
鏡台
  6
CONTINUOUS
 62
     2
100
AcDbCircle
 10
1130.203980000001
 20
2013.80896
 30
0.0
 40
10.0
100
AcDbArc
 50
353.256348000003
 51
46.74362199999818
  0
ARC
  5
207
330
1F
100
AcDbEntity
  8
鏡台
  6
CONTINUOUS
 62
     2
100
AcDbCircle
 10
1112.821167
 20
1999.964233
 30
0.0
 40
1.0
100
AcDbArc
 50
199.9999999999893
 51
286.1862180000123
  0
ARC
  5
208
330
1F
100
AcDbEntity
  8
鏡台
  6
CONTINUOUS
 62
     2
100
AcDbCircle
 10
1107.999634
 20
2013.211304
 30
0.0
 40
1.0
100
AcDbArc
 50
111.9091189999686
 51
199.9999999999938
  0
ARC
  5
209
330
1F
100
AcDbEntity
  8
鏡台
  6
CONTINUOUS
 62
     2
100
AcDbCircle
 10
1238.656739
 20
2097.165039
 30
0.0
 40
150.0
100
AcDbArc
 50
184.3887329999997
 51
203.7214970000007
  0
ARC
  5
20A
330
1F
100
AcDbEntity
  8
鏡台
  6
CONTINUOUS
 62
     2
100
AcDbCircle
 10
968.7486580000002
 20
2085.189941000001
 30
0.0
 40
120.0000000000001
100
AcDbArc
 50
4.115021000000082
 51
27.57687399999956
  0
ARC
  5
20B
330
1F
100
AcDbEntity
  8
鏡台
  6
CONTINUOUS
 62
     2
100
AcDbCircle
 10
974.6446540000006
 20
2086.416992
 30
0.0
 40
120.0000000000001
100
AcDbArc
 50
2.871643000000257
 51
29.2218629999999
  0
ARC
  5
20C
330
1F
100
AcDbEntity
  8
鏡台
  6
CONTINUOUS
 62
     2
100
AcDbCircle
 10
1118.054078000001
 20
2021.566528
 30
0.0
 40
3.000000000000003
100
AcDbArc
 50
203.7072749999979
 51
291.9092409999854
  0
ARC
  5
20D
330
1F
100
AcDbEntity
  8
鏡台
  6
CONTINUOUS
 62
     2
100
AcDbCircle
 10
1101.794922
 20
2035.926269999999
 30
0.0
 40
1.0
100
AcDbArc
 50
110.0000610000089
 51
196.3634639999433
  0
ARC
  5
20E
330
1F
100
AcDbEntity
  8
鏡台
  6
CONTINUOUS
 62
     2
100
AcDbCircle
 10
1106.610108000001
 20
2037.678833
 30
0.0
 40
1.0
100
AcDbArc
 50
23.70727500005829
 51
110.0000000000393
  0
ARC
  5
20F
330
1F
100
AcDbEntity
  8
鏡台
  6
CONTINUOUS
 62
     2
100
AcDbCircle
 10
1130.203980000001
 20
2013.80896
 30
0.0
 40
10.0
100
AcDbArc
 50
353.256348000003
 51
46.74362199999818
  0
ARC
  5
210
330
1F
100
AcDbEntity
  8
鏡台
  6
CONTINUOUS
 62
     2
100
AcDbCircle
 10
1112.821167
 20
1999.964233
 30
0.0
 40
1.0
100
AcDbArc
 50
199.9999999999893
 51
286.1862180000123
  0
ARC
  5
211
330
1F
100
AcDbEntity
  8
鏡台
  6
CONTINUOUS
 62
     2
100
AcDbCircle
 10
1107.999634
 20
2013.211304
 30
0.0
 40
1.0
100
AcDbArc
 50
111.9091189999686
 51
199.9999999999938
  0
ARC
  5
212
330
1F
100
AcDbEntity
  8
鏡台
  6
CONTINUOUS
 62
     2
100
AcDbCircle
 10
1057.0
 20
2125.000000000001
 30
0.0
 40
30.00000000000002
100
AcDbArc
 50
41.793670999998
 51
90.00000000000004
  0
ARC
  5
213
330
1F
100
AcDbEntity
  8
鏡台
  6
CONTINUOUS
 62
     2
100
AcDbCircle
 10
1057.0
 20
2125.000000000001
 30
0.0
 40
24.00000000000002
100
AcDbArc
 50
40.99096699999946
 51
90.5003013490006
  0
ARC
  5
214
330
1F
100
AcDbEntity
  8
鏡台
  6
CONTINUOUS
 62
     2
100
AcDbCircle
 10
1032.262142838134
 20
1017.832746632708
 30
0.0
 40
10.0
100
AcDbArc
 50
1.245364266768309
 51
60.08030390595201
  0
ARC
  5
215
330
1F
100
AcDbEntity
  8
鏡台
  6
CONTINUOUS
 62
     2
100
AcDbCircle
 10
932.2378571618647
 20
1017.832746632708
 30
0.0
 40
10.0
100
AcDbArc
 50
119.919696094045
 51
178.7546357332317
  0
LINE
  5
216
330
1F
100
AcDbEntity
  8
鏡台
  6
CONTINUOUS
 62
     2
100
AcDbLine
 10
927.2499999999998
 20
1026.5
 30
0.0
 11
1037.25
 21
1026.5
 31
0.0
  0
LINE
  5
217
330
1F
100
AcDbEntity
  8
鏡台
  6
CONTINUOUS
 62
     2
100
AcDbLine
 10
921.6195652173907
 20
989.5000000000002
 30
0.0
 11
922.2402192736258
 21
1018.0500865868
 31
0.0
  0
LINE
  5
218
330
1F
100
AcDbEntity
  8
鏡台
  6
CONTINUOUS
 62
     2
100
AcDbLine
 10
1042.880434782605
 20
989.5000000000002
 30
0.0
 11
1042.259780726374
 21
1018.0500865868
 31
0.0
  0
ARC
  5
219
330
1F
100
AcDbEntity
  8
鏡台
  6
CONTINUOUS
 62
     2
100
AcDbCircle
 10
1583.078156910303
 20
1018.210027687348
 30
0.0
 40
5.0
100
AcDbArc
 50
1.184583576289259
 51
75.6193123081682
  0
ARC
  5
21A
330
1F
100
AcDbEntity
  8
鏡台
  6
CONTINUOUS
 62
     2
100
AcDbCircle
 10
1530.921843089697
 20
1018.210027687348
 30
0.0
 40
5.0
100
AcDbArc
 50
104.3806876918343
 51
178.8154164237109
  0
ARC
  5
21B
330
1F
100
AcDbEntity
  8
鏡台
  6
CONTINUOUS
 62
     2
100
AcDbCircle
 10
1557.0
 20
916.4999999999967
 30
0.0
 40
110.0000000000001
100
AcDbArc
 50
75.61931230816597
 51
104.3806876918337
  0
LINE
  5
21C
330
1F
100
AcDbEntity
  8
鏡台
  6
CONTINUOUS
 62
     2
100
AcDbLine
 10
1525.327113200286
 20
989.5000000000002
 30
0.0
 11
1525.922911678669
 21
1018.31339474128
 31
0.0
  0
LINE
  5
21D
330
1F
100
AcDbEntity
  8
鏡台
  6
CONTINUOUS
 62
     2
100
AcDbLine
 10
1588.672886799721
 20
989.5000000000008
 30
0.0
 11
1588.077088321331
 21
1018.31339474128
 31
0.0
  0
LINE
  5
21E
330
1F
100
AcDbEntity
  8
鏡台
  6
EXLTYPE3
 62
     6
100
AcDbLine
 10
602.0000000000006
 20
750.0000000000002
 30
0.0
 11
602.0000000000006
 21
690.0000000000002
 31
0.0
  0
LINE
  5
21F
330
1F
100
AcDbEntity
  8
鏡台
  6
EXLTYPE3
 62
     6
100
AcDbLine
 10
632.0000000000006
 20
720.0000000000002
 30
0.0
 11
572.0000000000006
 21
720.0000000000002
 31
0.0
  0
LINE
  5
220
330
1F
100
AcDbEntity
  8
鏡台
  6
EXLTYPE3
 62
     6
100
AcDbLine
 10
1012.0
 20
750.0000000000002
 30
0.0
 11
1012.0
 21
690.0000000000002
 31
0.0
  0
LINE
  5
221
330
1F
100
AcDbEntity
  8
鏡台
  6
EXLTYPE3
 62
     6
100
AcDbLine
 10
1042.0
 20
720.0000000000002
 30
0.0
 11
982.0
 21
720.0000000000002
 31
0.0
  0
LINE
  5
222
330
1F
100
AcDbEntity
  8
鏡台
  6
EXLTYPE3
 62
     6
100
AcDbLine
 10
575.0
 20
1545.529253
 30
0.0
 11
907.5
 21
1262.7646265
 31
0.0
  0
LINE
  5
223
330
1F
100
AcDbEntity
  8
鏡台
  6
EXLTYPE3
 62
     6
100
AcDbLine
 10
907.5
 20
1262.7646265
 30
0.0
 11
575.0
 21
980.0
 31
0.0
  0
CIRCLE
  5
224
330
1F
100
AcDbEntity
  8
鏡台
  6
EXLTYPE2
 62
     6
100
AcDbCircle
 10
642.0000000000006
 20
1600.0
 30
0.0
 40
8.5
  0
LINE
  5
225
330
1F
100
AcDbEntity
  8
鏡台
  6
EXLTYPE3
 62
     6
100
AcDbLine
 10
642.0000000000006
 20
1630.0
 30
0.0
 11
642.0000000000006
 21
1570.0
 31
0.0
  0
LINE
  5
226
330
1F
100
AcDbEntity
  8
鏡台
  6
EXLTYPE3
 62
     6
100
AcDbLine
 10
672.0000000000006
 20
1600.0
 30
0.0
 11
612.0000000000006
 21
1600.0
 31
0.0
  0
CIRCLE
  5
227
330
1F
100
AcDbEntity
  8
鏡台
  6
EXLTYPE2
 62
     6
100
AcDbCircle
 10
972.0000000000006
 20
1600.0
 30
0.0
 40
8.5
  0
LINE
  5
228
330
1F
100
AcDbEntity
  8
鏡台
  6
EXLTYPE3
 62
     6
100
AcDbLine
 10
972.0000000000006
 20
1630.0
 30
0.0
 11
972.0000000000006
 21
1570.0
 31
0.0
  0
LINE
  5
229
330
1F
100
AcDbEntity
  8
鏡台
  6
EXLTYPE3
 62
     6
100
AcDbLine
 10
942.0000000000006
 20
1600.0
 30
0.0
 11
1002.000000000001
 21
1600.0
 31
0.0
  0
LINE
  5
22A
330
1F
100
AcDbEntity
  8
鏡台
  6
EXLTYPE3
 62
     6
100
AcDbLine
 10
807.0000000000006
 20
1981.0
 30
0.0
 11
807.0000000000006
 21
2203.0
 31
0.0
  0
LINE
  5
22B
330
1F
100
AcDbEntity
  8
鏡台
  6
EXLTYPE3
 62
     6
100
AcDbLine
 10
807.0000000000006
 20
608.0
 30
0.0
 11
807.0000000000005
 21
1691.0
 31
0.0
  0
ARC
  5
22C
330
1F
100
AcDbEntity
  8
鏡台
  6
CONTINUOUS
 62
     2
100
AcDbCircle
 10
1244.149537
 20
2096.883301
 30
0.0
 40
150.0
100
AcDbArc
 50
184.77002
 51
202.9014280000006
  0
ARC
  5
22D
330
1F
100
AcDbEntity
  8
鏡台
  6
CONTINUOUS
 62
     6
100
AcDbCircle
 10
584.4101334980276
 20
1631.417060480037
 30
0.0
 40
10.0
100
AcDbArc
 50
89.51552256025111
 51
182.0375746555952
  0
ARC
  5
22E
330
1F
100
AcDbEntity
  8
鏡台
  6
CONTINUOUS
 62
     6
100
AcDbCircle
 10
-244.1174357795013
 20
1601.940215500005
 30
0.0
 40
819.051758
100
AcDbArc
 50
357.951710340439
 51
2.037574655596246
  0
ARC
  5
22F
330
1F
100
AcDbEntity
  8
鏡台
  6
CONTINUOUS
 62
     6
100
AcDbCircle
 10
806.9838822204975
 20
27953.04001311338
 30
0.0
 40
26312.56396961007
100
AcDbArc
 50
269.5155225602471
 51
270.4844774397533
  0
ARC
  5
230
330
1F
100
AcDbEntity
  8
鏡台
  6
CONTINUOUS
 62
     6
100
AcDbCircle
 10
584.4046064831111
 20
1572.308426356896
 30
0.0
 40
10.0
100
AcDbArc
 50
177.9517103404344
 51
270.4844850568388
  0
ARC
  5
231
330
1F
100
AcDbEntity
  8
鏡台
  6
CONTINUOUS
 62
     6
100
AcDbCircle
 10
806.9838822204987
 20
-24749.55429325586
 30
0.0
 40
26312.80377475256
100
AcDbArc
 50
89.51551494316334
 51
90.48448505683665
  0
ARC
  5
232
330
1F
100
AcDbEntity
  8
鏡台
  6
CONTINUOUS
 62
     6
100
AcDbCircle
 10
1029.563157957886
 20
1572.308426356896
 30
0.0
 40
10.0
100
AcDbArc
 50
269.5155149431613
 51
2.048289659565629
  0
ARC
  5
233
330
1F
100
AcDbEntity
  8
鏡台
  6
CONTINUOUS
 62
     6
100
AcDbCircle
 10
1858.085200220498
 20
1601.940215500005
 30
0.0
 40
819.051758
100
AcDbArc
 50
177.9624253444036
 51
182.048289659561
  0
ARC
  5
234
330
1F
100
AcDbEntity
  8
鏡台
  6
CONTINUOUS
 62
     6
100
AcDbCircle
 10
1029.557630942969
 20
1631.417060480037
 30
0.0
 40
10.0
100
AcDbArc
 50
357.9624253444048
 51
90.48447743975015
  0
ARC
  5
235
330
1F
100
AcDbEntity
  8
鏡台
  6
CONTINUOUS
 62
     6
100
AcDbCircle
 10
911.8000000000002
 20
1193.0
 30
0.0
 40
3.000000000000003
100
AcDbArc
 50
180.0
 51
270.0000000000002
  0
LINE
  5
236
330
1F
100
AcDbEntity
  8
鏡台
  6
CONTINUOUS
 62
     6
100
AcDbLine
 10
916.7500000000002
 20
1225.0
 30
0.0
 11
916.7500000000002
 21
1190.0
 31
0.0
  0
LINE
  5
237
330
1F
100
AcDbEntity
  8
鏡台
  6
CONTINUOUS
 62
     6
100
AcDbLine
 10
908.8000000000006
 20
1193.0
 30
0.0
 11
908.8000000000006
 21
1232.0
 31
0.0
  0
ARC
  5
238
330
1F
100
AcDbEntity
  8
鏡台
  6
CONTINUOUS
 62
     6
100
AcDbCircle
 10
911.8000000000002
 20
1232.0
 30
0.0
 40
3.000000000000003
100
AcDbArc
 50
90.00000000000001
 51
180.0
  0
LINE
  5
239
330
1F
100
AcDbEntity
  8
鏡台
  6
CONTINUOUS
 62
     6
100
AcDbLine
 10
916.7500000000002
 20
1225.0
 30
0.0
 11
1046.75
 21
1225.0
 31
0.0
  0
LINE
  5
23A
330
1F
100
AcDbEntity
  8
鏡台
  6
CONTINUOUS
 62
     6
100
AcDbLine
 10
990.7500000000006
 20
1219.0
 30
0.0
 11
1018.75
 21
1219.0
 31
0.0
  0
LINE
  5
23B
330
1F
100
AcDbEntity
  8
鏡台
  6
CONTINUOUS
 62
     6
100
AcDbLine
 10
990.7500000000006
 20
1219.0
 30
0.0
 11
990.7500000000006
 21
1196.0
 31
0.0
  0
LINE
  5
23C
330
1F
100
AcDbEntity
  8
鏡台
  6
CONTINUOUS
 62
     6
100
AcDbLine
 10
990.7500000000006
 20
1196.0
 30
0.0
 11
1018.75
 21
1196.0
 31
0.0
  0
LINE
  5
23D
330
1F
100
AcDbEntity
  8
鏡台
  6
CONTINUOUS
 62
     6
100
AcDbLine
 10
1018.75
 20
1219.0
 30
0.0
 11
1018.75
 21
1196.0
 31
0.0
  0
LINE
  5
23E
330
1F
100
AcDbEntity
  8
鏡台
  6
CONTINUOUS
 62
     6
100
AcDbLine
 10
944.7500000000009
 20
1219.0
 30
0.0
 11
972.7500000000005
 21
1219.0
 31
0.0
  0
LINE
  5
23F
330
1F
100
AcDbEntity
  8
鏡台
  6
CONTINUOUS
 62
     6
100
AcDbLine
 10
944.7500000000009
 20
1219.0
 30
0.0
 11
944.7500000000009
 21
1196.0
 31
0.0
  0
LINE
  5
240
330
1F
100
AcDbEntity
  8
鏡台
  6
CONTINUOUS
 62
     6
100
AcDbLine
 10
944.7500000000009
 20
1196.0
 30
0.0
 11
972.7500000000005
 21
1196.0
 31
0.0
  0
LINE
  5
241
330
1F
100
AcDbEntity
  8
鏡台
  6
CONTINUOUS
 62
     6
100
AcDbLine
 10
972.7500000000005
 20
1219.0
 30
0.0
 11
972.7500000000005
 21
1196.0
 31
0.0
  0
LINE
  5
242
330
1F
100
AcDbEntity
  8
鏡台
  6
CONTINUOUS
 62
     6
100
AcDbLine
 10
967.2500000000009
 20
1211.859087
 30
0.0
 11
967.2500000000009
 21
1202.859087
 31
0.0
  0
LINE
  5
243
330
1F
100
AcDbEntity
  8
鏡台
  6
CONTINUOUS
 62
     6
100
AcDbLine
 10
997.7500000000005
 20
1211.359087
 30
0.0
 11
997.7500000000005
 21
1203.359087
 31
0.0
  0
LINE
  5
244
330
1F
100
AcDbEntity
  8
鏡台
  6
CONTINUOUS
 62
     6
100
AcDbLine
 10
1011.750000000001
 20
1211.859087
 30
0.0
 11
1011.750000000001
 21
1202.859087
 31
0.0
  0
ARC
  5
245
330
1F
100
AcDbEntity
  8
鏡台
  6
CONTINUOUS
 62
     6
100
AcDbCircle
 10
1051.700000000001
 20
1193.0
 30
0.0
 40
3.000000000000003
100
AcDbArc
 50
270.0000000000002
 51
0.0
  0
LINE
  5
246
330
1F
100
AcDbEntity
  8
鏡台
  6
CONTINUOUS
 62
     6
100
AcDbLine
 10
1054.700000000001
 20
1193.0
 30
0.0
 11
1054.700000000001
 21
1232.0
 31
0.0
  0
ARC
  5
247
330
1F
100
AcDbEntity
  8
鏡台
  6
CONTINUOUS
 62
     6
100
AcDbCircle
 10
1051.700000000001
 20
1232.0
 30
0.0
 40
3.000000000000003
100
AcDbArc
 50
0.0
 51
90.00000000000001
  0
LINE
  5
248
330
1F
100
AcDbEntity
  8
鏡台
  6
CONTINUOUS
 62
     6
100
AcDbLine
 10
1046.750000000001
 20
1225.0
 30
0.0
 11
1046.750000000001
 21
1190.0
 31
0.0
  0
LINE
  5
249
330
1F
100
AcDbEntity
  8
鏡台
  6
CONTINUOUS
 62
     6
100
AcDbLine
 10
757.833008589001
 20
1108.833008589
 30
0.0
 11
704.8000000000008
 21
1055.799999999999
 31
0.0
  0
LINE
  5
24A
330
1F
100
AcDbEntity
  8
鏡台
  6
CONTINUOUS
 62
     6
100
AcDbLine
 10
735.1931457505011
 20
1097.506854248999
 30
0.0
 11
716.2431457505007
 21
1078.556854249
 31
0.0
  0
LINE
  5
24B
330
1F
100
AcDbEntity
  8
鏡台
  6
CONTINUOUS
 62
     6
100
AcDbLine
 10
751.7068542495005
 20
1091.393145750998
 30
0.0
 11
722.0068542495007
 21
1061.693145750999
 31
0.0
  0
LINE
  5
24C
330
1F
100
AcDbEntity
  8
鏡台
  6
CONTINUOUS
 62
     6
100
AcDbLine
 10
821.8330085890002
 20
1343.833008589
 30
0.0
 11
768.8000000000002
 21
1290.8
 31
0.0
  0
LINE
  5
24D
330
1F
100
AcDbEntity
  8
鏡台
  6
CONTINUOUS
 62
     6
100
AcDbLine
 10
799.1931457505003
 20
1332.506854248999
 30
0.0
 11
780.2431457505005
 21
1313.556854248999
 31
0.0
  0
LINE
  5
24E
330
1F
100
AcDbEntity
  8
鏡台
  6
CONTINUOUS
 62
     6
100
AcDbLine
 10
815.7068542495008
 20
1326.393145750999
 30
0.0
 11
786.0068542495005
 21
1296.693145751
 31
0.0
  0
LINE
  5
24F
330
1F
100
AcDbEntity
  8
鏡台
  6
CONTINUOUS
 62
     6
100
AcDbLine
 10
718.8330085890004
 20
1477.833008589
 30
0.0
 11
665.8000000000004
 21
1424.8
 31
0.0
  0
LINE
  5
250
330
1F
100
AcDbEntity
  8
鏡台
  6
CONTINUOUS
 62
     6
100
AcDbLine
 10
696.1931457505002
 20
1466.506854249
 30
0.0
 11
677.2431457505004
 21
1447.556854249
 31
0.0
  0
LINE
  5
251
330
1F
100
AcDbEntity
  8
鏡台
  6
CONTINUOUS
 62
     6
100
AcDbLine
 10
712.7068542495005
 20
1460.393145750999
 30
0.0
 11
683.0068542495002
 21
1430.693145751
 31
0.0
  0
LINE
  5
252
330
1F
100
AcDbEntity
  8
鏡台
  6
EXLTYPE2
 62
     6
100
AcDbLine
 10
920.7499999999994
 20
949.4999999999999
 30
0.0
 11
921.6195652173907
 21
989.5000000000002
 31
0.0
  0
LINE
  5
253
330
1F
100
AcDbEntity
  8
鏡台
  6
EXLTYPE2
 62
     6
100
AcDbLine
 10
918.2499999999994
 20
944.4999999999999
 30
0.0
 11
1046.25
 21
944.4999999999999
 31
0.0
  0
LINE
  5
254
330
1F
100
AcDbEntity
  8
鏡台
  6
EXLTYPE2
 62
     6
100
AcDbLine
 10
918.2499999999994
 20
949.4999999999999
 30
0.0
 11
1046.25
 21
949.4999999999999
 31
0.0
  0
LINE
  5
255
330
1F
100
AcDbEntity
  8
鏡台
  6
EXLTYPE2
 62
     6
100
AcDbLine
 10
918.2499999999994
 20
949.4999999999999
 30
0.0
 11
918.2499999999994
 21
944.4999999999999
 31
0.0
  0
LINE
  5
256
330
1F
100
AcDbEntity
  8
鏡台
  6
EXLTYPE2
 62
     6
100
AcDbLine
 10
1046.25
 20
949.4999999999999
 30
0.0
 11
1046.25
 21
944.4999999999999
 31
0.0
  0
LINE
  5
257
330
1F
100
AcDbEntity
  8
鏡台
  6
EXLTYPE2
 62
     6
100
AcDbLine
 10
1043.75
 20
949.4999999999999
 30
0.0
 11
1042.880434782605
 21
989.5000000000002
 31
0.0
  0
ARC
  5
258
330
1F
100
AcDbEntity
  8
鏡台
  6
CONTINUOUS
 62
     6
100
AcDbCircle
 10
1085.627808
 20
711.0152589999997
 30
0.0
 40
17.00025
100
AcDbArc
 50
71.92889400000045
 51
128.0728760000012
  0
ARC
  5
259
330
1F
100
AcDbEntity
  8
鏡台
  6
CONTINUOUS
 62
     6
100
AcDbCircle
 10
1096.174561
 20
743.3385619999999
 30
0.0
 40
17.000208
100
AcDbArc
 50
251.9289549999991
 51
280.001038000001
  0
ARC
  5
25A
330
1F
100
AcDbEntity
  8
鏡台
  6
CONTINUOUS
 62
     6
100
AcDbCircle
 10
1085.627808
 20
703.0152590000001
 30
0.0
 40
17.00025
100
AcDbArc
 50
71.92889400000045
 51
128.0728760000012
  0
ARC
  5
25B
330
1F
100
AcDbEntity
  8
鏡台
  6
CONTINUOUS
 62
     6
100
AcDbCircle
 10
1096.174561
 20
735.3385620000004
 30
0.0
 40
17.000208
100
AcDbArc
 50
251.9289550000006
 51
280.001038000001
  0
ARC
  5
25C
330
1F
100
AcDbEntity
  8
鏡台
  6
CONTINUOUS
 62
     6
100
AcDbCircle
 10
1096.174683
 20
735.3383790000001
 30
0.0
 40
17.000029
100
AcDbArc
 50
280.0010380000008
 51
308.0736079999996
  0
LINE
  5
25D
330
1F
100
AcDbEntity
  8
鏡台
  6
CONTINUOUS
 62
     6
100
AcDbLine
 10
1109.501971683
 20
682.0038988917995
 30
0.0
 11
1098.876848791001
 21
679.1567762079002
 31
0.0
  0
LINE
  5
25E
330
1F
100
AcDbEntity
  8
鏡台
  6
CONTINUOUS
 62
     6
100
AcDbLine
 10
1101.982567844
 20
667.5657425747
 30
0.0
 11
1098.876848791001
 21
679.1567762079002
 31
0.0
  0
LINE
  5
25F
330
1F
100
AcDbEntity
  8
鏡台
  6
CONTINUOUS
 62
     6
100
AcDbLine
 10
1112.607801639001
 20
670.4127330898002
 30
0.0
 11
1101.982689379001
 21
667.5657319417003
 31
0.0
  0
LINE
  5
260
330
1F
100
AcDbEntity
  8
鏡台
  6
CONTINUOUS
 62
     6
100
AcDbLine
 10
1103.052538554001
 20
687.5226736304999
 30
0.0
 11
1093.9975304
 21
685.0963376507998
 31
0.0
  0
LINE
  5
261
330
1F
100
AcDbEntity
  8
鏡台
  6
EXLTYPE2
 62
     6
100
AcDbLine
 10
1524.5
 20
949.4999999999999
 30
0.0
 11
1525.327113200286
 21
989.5000000000002
 31
0.0
  0
LINE
  5
262
330
1F
100
AcDbEntity
  8
鏡台
  6
EXLTYPE2
 62
     6
100
AcDbLine
 10
1592.5
 20
949.4999999999999
 30
0.0
 11
1592.5
 21
944.4999999999999
 31
0.0
  0
LINE
  5
263
330
1F
100
AcDbEntity
  8
鏡台
  6
EXLTYPE2
 62
     6
100
AcDbLine
 10
1521.5
 20
949.4999999999999
 30
0.0
 11
1521.5
 21
944.4999999999999
 31
0.0
  0
LINE
  5
264
330
1F
100
AcDbEntity
  8
鏡台
  6
EXLTYPE2
 62
     6
100
AcDbLine
 10
1521.5
 20
944.4999999999999
 30
0.0
 11
1592.5
 21
944.4999999999999
 31
0.0
  0
LINE
  5
265
330
1F
100
AcDbEntity
  8
鏡台
  6
EXLTYPE2
 62
     6
100
AcDbLine
 10
1521.5
 20
949.4999999999999
 30
0.0
 11
1592.5
 21
949.4999999999999
 31
0.0
  0
LINE
  5
266
330
1F
100
AcDbEntity
  8
鏡台
  6
EXLTYPE2
 62
     6
100
AcDbLine
 10
1589.5
 20
949.4999999999999
 30
0.0
 11
1588.672886799721
 21
989.5000000000008
 31
0.0
  0
LINE
  5
267
330
1F
100
AcDbEntity
  8
鏡台
  6
CONTINUOUS
 62
     6
100
AcDbLine
 10
1559.0
 20
1196.0
 30
0.0
 11
1557.0
 21
1196.0
 31
0.0
  0
LINE
  5
268
330
1F
100
AcDbEntity
  8
鏡台
  6
CONTINUOUS
 62
     6
100
AcDbLine
 10
1557.000000000001
 20
1219.0
 30
0.0
 11
1557.000000000001
 21
1196.0
 31
0.0
  0
LINE
  5
269
330
1F
100
AcDbEntity
  8
鏡台
  6
CONTINUOUS
 62
     6
100
AcDbLine
 10
1559.0
 20
1219.0
 30
0.0
 11
1557.0
 21
1219.0
 31
0.0
  0
LINE
  5
26A
330
1F
100
AcDbEntity
  8
鏡台
  6
CONTINUOUS
 62
     6
100
AcDbLine
 10
1557.0
 20
1199.0
 30
0.0
 11
1554.0
 21
1199.0
 31
0.0
  0
LINE
  5
26B
330
1F
100
AcDbEntity
  8
鏡台
  6
CONTINUOUS
 62
     6
100
AcDbLine
 10
1554.0
 20
1216.0
 30
0.0
 11
1554.0
 21
1199.0
 31
0.0
  0
LINE
  5
26C
330
1F
100
AcDbEntity
  8
鏡台
  6
CONTINUOUS
 62
     6
100
AcDbLine
 10
1557.0
 20
1216.0
 30
0.0
 11
1554.0
 21
1216.0
 31
0.0
  0
ARC
  5
26D
330
1F
100
AcDbEntity
  8
鏡台
  6
CONTINUOUS
 62
     6
100
AcDbCircle
 10
1519.007777342709
 20
1628.67894339473
 30
0.0
 40
10.0
100
AcDbArc
 50
94.00006100000026
 51
187.0194089999984
  0
ARC
  5
26E
330
1F
100
AcDbEntity
  8
鏡台
  6
CONTINUOUS
 62
     6
100
AcDbCircle
 10
1777.058895442777
 20
1660.452687246196
 30
0.0
 40
270.0
100
AcDbArc
 50
187.01947
 51
199.909058
  0
ARC
  5
26F
330
1F
100
AcDbEntity
  8
鏡台
  6
CONTINUOUS
 62
     6
100
AcDbCircle
 10
1537.299159362586
 20
1573.618051813761
 30
0.0
 40
15.00000000000001
100
AcDbArc
 50
199.9090579999982
 51
270.0000000000002
  0
LINE
  5
270
330
1F
100
AcDbEntity
  8
鏡台
  6
CONTINUOUS
 62
     6
100
AcDbLine
 10
1052.748874179873
 20
2103.1422786496
 30
0.0
 11
1052.748874179873
 21
2056.218198877801
 31
0.0
  0
ARC
  5
271
330
1F
100
AcDbEntity
  8
鏡台
  6
CONTINUOUS
 62
     6
100
AcDbCircle
 10
982.2663351141393
 20
2223.807327950116
 30
0.0
 40
181.8073279501144
100
AcDbArc
 50
288.5229439094862
 51
292.810039265585
  0
ARC
  5
272
330
1F
100
AcDbEntity
  8
鏡台
  6
CONTINUOUS
 62
     6
100
AcDbCircle
 10
1096.404542000001
 20
2109.318604000001
 30
0.0
 40
16.997519
100
AcDbArc
 50
251.9278560000006
 51
280.0043949999983
  0
ARC
  5
273
330
1F
100
AcDbEntity
  8
鏡台
  6
CONTINUOUS
 62
     6
100
AcDbCircle
 10
1096.403321
 20
2109.325927999999
 30
0.0
 40
17.004932
100
AcDbArc
 50
280.0043950000012
 51
308.0683590000013
  0
ARC
  5
274
330
1F
100
AcDbEntity
  8
鏡台
  6
CONTINUOUS
 62
     6
100
AcDbCircle
 10
1085.858277
 20
2068.998779000001
 30
0.0
 40
16.999516
100
AcDbArc
 50
71.92782599999869
 51
128.0745540000033
  0
ARC
  5
275
330
1F
100
AcDbEntity
  8
鏡台
  6
CONTINUOUS
 62
     6
100
AcDbCircle
 10
1096.404542000001
 20
2101.318604000001
 30
0.0
 40
16.997519
100
AcDbArc
 50
251.9278559999981
 51
280.0043949999986
  0
ARC
  5
276
330
1F
100
AcDbEntity
  8
鏡台
  6
CONTINUOUS
 62
     6
100
AcDbCircle
 10
1096.403321
 20
2101.325928
 30
0.0
 40
17.004932
100
AcDbArc
 50
280.0043950000012
 51
308.0683590000013
  0
ARC
  5
277
330
1F
100
AcDbEntity
  8
鏡台
  6
CONTINUOUS
 62
     6
100
AcDbCircle
 10
1085.858277
 20
2076.998779
 30
0.0
 40
16.999516
100
AcDbArc
 50
71.92782600000017
 51
128.0745539999984
  0
LINE
  5
278
330
1F
100
AcDbEntity
  8
鏡台
  6
CONTINUOUS
 62
     6
100
AcDbLine
 10
1114.602662
 20
2021.964966
 30
0.0
 11
1105.79358
 21
2018.758667
 31
0.0
  0
LINE
  5
279
330
1F
100
AcDbEntity
  8
鏡台
  6
CONTINUOUS
 62
     6
100
AcDbLine
 10
1121.508545
 20
2017.029175
 30
0.0
 11
1111.171998
 21
2013.266968
 31
0.0
  0
LINE
  5
27A
330
1F
100
AcDbEntity
  8
鏡台
  6
CONTINUOUS
 62
     6
100
AcDbLine
 10
1115.276124
 20
2001.990601
 30
0.0
 11
1111.171998
 21
2013.266968
 31
0.0
  0
LINE
  5
27B
330
1F
100
AcDbEntity
  8
鏡台
  6
CONTINUOUS
 62
     6
100
AcDbLine
 10
1125.612793
 20
2005.752808000001
 30
0.0
 11
1115.276246000001
 21
2001.990601
 31
0.0
  0
ARC
  5
27C
330
1F
100
AcDbEntity
  8
鏡台
  6
CONTINUOUS
 62
     6
100
AcDbCircle
 10
631.7499999996018
 20
2223.807327950116
 30
0.0
 40
181.8073279501144
100
AcDbArc
 50
247.1899607344154
 51
251.4770560905136
  0
LINE
  5
27D
330
1F
100
AcDbEntity
  8
鏡台
  6
CONTINUOUS
 62
     6
100
AcDbLine
 10
561.2674609338675
 20
2103.1422786496
 30
0.0
 11
561.2674609338675
 21
2056.218198877801
 31
0.0
  0
LINE
  5
27E
330
1F
100
AcDbEntity
  8
鏡台
  6
EXLTYPE3
 62
     6
100
AcDbLine
 10
1033.4
 20
785.0000000000003
 30
0.0
 11
1085.8
 21
785.0000000000003
 31
0.0
  0
LINE
  5
27F
330
1F
100
AcDbEntity
  8
鏡台
  6
CONTINUOUS
 62
     6
100
AcDbLine
 10
602.0000000000006
 20
2187.5
 30
0.0
 11
604.0000000000005
 21
2155.000000000001
 31
0.0
  0
LINE
  5
280
330
1F
100
AcDbEntity
  8
鏡台
  6
CONTINUOUS
 62
     6
100
AcDbLine
 10
640.0000000000001
 20
2155.000000000001
 30
0.0
 11
642.0000000000006
 21
2187.5
 31
0.0
  0
LINE
  5
281
330
1F
100
AcDbEntity
  8
鏡台
  6
CONTINUOUS
 62
     6
100
AcDbLine
 10
642.0000000000006
 20
2187.5
 30
0.0
 11
644.0000000000005
 21
2155.000000000001
 31
0.0
  0
LINE
  5
282
330
1F
100
AcDbEntity
  8
鏡台
  6
CONTINUOUS
 62
     6
100
AcDbLine
 10
600.0000000000001
 20
2155.000000000001
 30
0.0
 11
602.0000000000006
 21
2187.5
 31
0.0
  0
LINE
  5
283
330
1F
100
AcDbEntity
  8
鏡台
  6
CONTINUOUS
 62
     6
100
AcDbLine
 10
1010.0
 20
2155.000000000001
 30
0.0
 11
1012.000000000001
 21
2187.5
 31
0.0
  0
LINE
  5
284
330
1F
100
AcDbEntity
  8
鏡台
  6
CONTINUOUS
 62
     6
100
AcDbLine
 10
1012.000000000001
 20
2187.5
 30
0.0
 11
1014.0
 21
2155.000000000001
 31
0.0
  0
LINE
  5
285
330
1F
100
AcDbEntity
  8
鏡台
  6
CONTINUOUS
 62
     6
100
AcDbLine
 10
974.000000000001
 20
2155.000000000001
 30
0.0
 11
972.0000000000006
 21
2187.5
 31
0.0
  0
LINE
  5
286
330
1F
100
AcDbEntity
  8
鏡台
  6
CONTINUOUS
 62
     6
100
AcDbLine
 10
972.0000000000006
 20
2187.5
 30
0.0
 11
970.0000000000007
 21
2155.000000000001
 31
0.0
  0
LINE
  5
287
330
1F
100
AcDbEntity
  8
鏡台
  6
CONTINUOUS
 62
     6
100
AcDbLine
 10
1632.0
 20
1601.999999999999
 30
0.0
 11
1664.5
 21
1600.0
 31
0.0
  0
LINE
  5
288
330
1F
100
AcDbEntity
  8
鏡台
  6
CONTINUOUS
 62
     6
100
AcDbLine
 10
1664.5
 20
1600.0
 30
0.0
 11
1632.0
 21
1598.0
 31
0.0
  0
LINE
  5
289
330
1F
100
AcDbEntity
  8
鏡台
  6
CONTINUOUS
 62
     6
100
AcDbLine
 10
1664.5
 20
720.0000000000007
 30
0.0
 11
1632.0
 21
717.9999999999999
 31
0.0
  0
LINE
  5
28A
330
1F
100
AcDbEntity
  8
鏡台
  6
EXLTYPE3
 62
     6
100
AcDbLine
 10
1617.0
 20
1600.0
 30
0.0
 11
1679.5
 21
1600.0
 31
0.0
  0
LINE
  5
28B
330
1F
100
AcDbEntity
  8
鏡台
  6
EXLTYPE3
 62
     6
100
AcDbLine
 10
1012.000000000001
 20
2140.000000000001
 30
0.0
 11
1012.000000000001
 21
2202.5
 31
0.0
  0
LINE
  5
28C
330
1F
100
AcDbEntity
  8
鏡台
  6
EXLTYPE3
 62
     6
100
AcDbLine
 10
972.0000000000006
 20
2140.000000000001
 30
0.0
 11
972.0000000000006
 21
2202.5
 31
0.0
  0
LINE
  5
28D
330
1F
100
AcDbEntity
  8
鏡台
  6
EXLTYPE3
 62
     6
100
AcDbLine
 10
642.0000000000006
 20
2140.000000000001
 30
0.0
 11
642.0000000000006
 21
2202.5
 31
0.0
  0
LINE
  5
28E
330
1F
100
AcDbEntity
  8
鏡台
  6
EXLTYPE3
 62
     6
100
AcDbLine
 10
602.0000000000006
 20
2140.000000000001
 30
0.0
 11
602.0000000000006
 21
2202.5
 31
0.0
  0
ARC
  5
28F
330
1F
100
AcDbEntity
  8
鏡台
  6
CONTINUOUS
 62
     6
100
AcDbCircle
 10
1096.174683
 20
743.3383789999997
 30
0.0
 40
17.000029
100
AcDbArc
 50
280.0010380000008
 51
308.0736079999996
  0
ARC
  5
290
330
1F
100
AcDbEntity
  8
鏡台
  6
CONTINUOUS
 62
     2
100
AcDbCircle
 10
974.6446530000004
 20
719.4169920000003
 30
0.0
 40
120.0000000000001
100
AcDbArc
 50
3.349120999999599
 51
29.22186299999996
  0
LINE
  5
291
330
1F
100
AcDbEntity
  8
鏡台
  6
EXLTYPE3
 62
     6
100
AcDbLine
 10
1617.0
 20
720.0000000000007
 30
0.0
 11
1679.5
 21
720.0000000000007
 31
0.0
  0
LINE
  5
292
330
1F
100
AcDbEntity
  8
鏡台
  6
CONTINUOUS
 62
     6
100
AcDbLine
 10
1632.0
 20
722.0000000000006
 30
0.0
 11
1664.5
 21
720.0000000000007
 31
0.0
  0
DIMENSION
  5
294
330
1F
100
AcDbEntity
  8
寸法
  6
CONTINUOUS
 62
     3
100
AcDbDimension
  2
*D15
 10
1632.0
 20
1705.0
 30
0.0
 11
1556.3705899778
 21
1728.499999940395
 31
0.0
 70
   160
  3
ISO-25
100
AcDbAlignedDimension
 13
1480.7411799556
 23
1626.7023572896
 33
0.0
 14
1632.0
 24
1655.0
 34
0.0
100
AcDbRotatedDimension
1001
ACAD
1000
DSTYLE
1002
{
1070
   270
1070
     2
1070
     6
1000
EX_NORM
1070
     7
1000
EX_NORM
1070
    41
1040
30.0
1070
    42
1040
2.597642710400123
1070
    44
1040
10.0
1070
    73
1070
     0
1070
    74
1070
     0
1070
    75
1070
     0
1070
    76
1070
     0
1070
    77
1070
     1
1070
    78
1070
     0
1070
   140
1040
40.0
1070
   147
1040
0.0
1070
   173
1070
     1
1070
   176
1070
     3
1070
   177
1070
     3
1070
   178
1070
     2
1070
   271
1070
     0
1070
   277
1070
     2
1070
   279
1070
     2
1070
   280
1070
     0
1070
   287
1070
     5
1070
   340
1005
293
1002
}
  0
DIMENSION
  5
2A2
330
1F
100
AcDbEntity
  8
寸法
  6
CONTINUOUS
 62
     3
100
AcDbDimension
  2
*D16
 10
1632.0
 20
575.9999999999999
 30
0.0
 11
1697.0
 21
599.4999999403952
 31
0.0
 70
   160
  3
ISO-25
100
AcDbAlignedDimension
 13
1602.0
 23
657.9999999999999
 33
0.0
 14
1632.0
 24
655.0
 34
0.0
100
AcDbRotatedDimension
1001
ACAD
1000
DSTYLE
1002
{
1070
   270
1070
     2
1070
     6
1000
EX_NORM
1070
     7
1000
EX_NORM
1070
    41
1040
30.0
1070
    42
1040
6.99999988079071
1070
    44
1040
10.0
1070
    73
1070
     0
1070
    74
1070
     0
1070
    75
1070
     0
1070
    76
1070
     0
1070
    77
1070
     1
1070
    78
1070
     0
1070
   140
1040
40.0
1070
   147
1040
0.0
1070
   173
1070
     1
1070
   176
1070
     3
1070
   177
1070
     3
1070
   178
1070
     2
1070
   271
1070
     0
1070
   277
1070
     2
1070
   279
1070
     2
1070
   280
1070
     2
1070
   287
1070
     5
1070
   340
1005
293
1002
}
  0
DIMENSION
  5
2B1
330
1F
100
AcDbEntity
  8
寸法
  6
CONTINUOUS
 62
     3
100
AcDbDimension
  2
*D17
 10
907.5000000000001
 20
1167.0
 30
0.0
 11
741.2500000000002
 21
1190.499999940395
 31
0.0
 70
   160
  1
330
  3
ISO-25
100
AcDbAlignedDimension
 13
575.0000000000001
 23
1545.529253
 33
0.0
 14
907.5000000000001
 24
1545.529253
 34
0.0
100
AcDbRotatedDimension
1001
ACAD
1000
DSTYLE
1002
{
1070
   270
1070
     2
1070
     6
1000
EX_NORM
1070
     7
1000
EX_NORM
1070
    41
1040
30.0
1070
    42
1040
0.0
1070
    44
1040
0.0
1070
    73
1070
     0
1070
    74
1070
     0
1070
    75
1070
     1
1070
    76
1070
     1
1070
    77
1070
     1
1070
    78
1070
     0
1070
   140
1040
40.0
1070
   147
1040
0.0
1070
   173
1070
     1
1070
   176
1070
     3
1070
   177
1070
     3
1070
   178
1070
     2
1070
   271
1070
     0
1070
   277
1070
     2
1070
   279
1070
     2
1070
   280
1070
     0
1070
   287
1070
     5
1070
   340
1005
293
1002
}
  0
DIMENSION
  5
2BC
330
1F
100
AcDbEntity
  8
寸法
  6
CONTINUOUS
 62
     3
100
AcDbDimension
  2
*D18
 10
1057.0
 20
1765.0
 30
0.0
 11
807.0000000000001
 21
1788.499999940395
 31
0.0
 70
   160
  3
ISO-25
100
AcDbAlignedDimension
 13
557.0
 23
1650.0
 33
0.0
 14
1057.0
 24
1650.0
 34
0.0
100
AcDbRotatedDimension
1001
ACAD
1000
DSTYLE
1002
{
1070
   270
1070
     2
1070
     6
1000
EX_NORM
1070
     7
1000
EX_NORM
1070
    41
1040
30.0
1070
    42
1040
6.99999988079071
1070
    44
1040
10.0
1070
    73
1070
     0
1070
    74
1070
     0
1070
    75
1070
     0
1070
    76
1070
     0
1070
    77
1070
     1
1070
    78
1070
     0
1070
   140
1040
40.0
1070
   147
1040
0.0
1070
   173
1070
     1
1070
   176
1070
     3
1070
   177
1070
     3
1070
   178
1070
     2
1070
   271
1070
     0
1070
   277
1070
     2
1070
   279
1070
     2
1070
   280
1070
     0
1070
   287
1070
     5
1070
   340
1005
293
1002
}
  0
DIMENSION
  5
2C9
330
1F
100
AcDbEntity
  8
寸法
  6
CONTINUOUS
 62
     3
100
AcDbDimension
  2
*D19
 10
501.0000000000001
 20
1545.529253
 30
0.0
 11
477.5000000596048
 21
1262.7646265
 31
0.0
 70
   160
  1
565
  3
ISO-25
100
AcDbAlignedDimension
 13
575.0000000000001
 23
980.0
 33
0.0
 14
575.0000000000001
 24
1545.529253
 34
0.0
 50
90.0
100
AcDbRotatedDimension
1001
ACAD
1000
DSTYLE
1002
{
1070
   270
1070
     2
1070
     6
1000
EX_NORM
1070
     7
1000
EX_NORM
1070
    41
1040
30.0
1070
    42
1040
6.99999988079071
1070
    44
1040
10.0
1070
    73
1070
     0
1070
    74
1070
     0
1070
    75
1070
     0
1070
    76
1070
     0
1070
    77
1070
     1
1070
    78
1070
     0
1070
   140
1040
40.0
1070
   147
1040
0.0
1070
   173
1070
     1
1070
   176
1070
     3
1070
   177
1070
     3
1070
   178
1070
     2
1070
   271
1070
     0
1070
   277
1070
     2
1070
   279
1070
     2
1070
   280
1070
     0
1070
   287
1070
     5
1070
   340
1005
293
1002
}
  0
DIMENSION
  5
2D6
330
1F
100
AcDbEntity
  8
寸法
  6
CONTINUOUS
 62
     3
100
AcDbDimension
  2
*D20
 10
501.0000000000001
 20
1655.0
 30
0.0
 11
477.5000000596052
 21
1735.0
 31
0.0
 70
   160
  1
110
  3
ISO-25
100
AcDbAlignedDimension
 13
575.0000000000001
 23
1545.529253
 33
0.0
 14
562.0
 24
1655.0
 34
0.0
 50
90.0
100
AcDbRotatedDimension
1001
ACAD
1000
DSTYLE
1002
{
1070
   270
1070
     2
1070
     6
1000
EX_NORM
1070
     7
1000
EX_NORM
1070
    41
1040
30.0
1070
    42
1040
6.99999988079071
1070
    44
1040
10.0
1070
    73
1070
     0
1070
    74
1070
     0
1070
    75
1070
     0
1070
    76
1070
     0
1070
    77
1070
     1
1070
    78
1070
     0
1070
   140
1040
40.0
1070
   147
1040
0.0
1070
   173
1070
     1
1070
   176
1070
     3
1070
   177
1070
     3
1070
   178
1070
     2
1070
   271
1070
     0
1070
   277
1070
     2
1070
   279
1070
     2
1070
   280
1070
     2
1070
   287
1070
     5
1070
   340
1005
293
1002
}
  0
DIMENSION
  5
2E3
330
1F
100
AcDbEntity
  8
寸法
  6
CONTINUOUS
 62
     3
100
AcDbDimension
  2
*D21
 10
441.0000000000001
 20
720.0
 30
0.0
 11
417.5000000596048
 21
687.5
 31
0.0
 70
   160
  3
ISO-25
100
AcDbAlignedDimension
 13
562.0
 23
655.0
 33
0.0
 14
593.5
 24
720.0
 34
0.0
 50
90.0
100
AcDbRotatedDimension
1001
ACAD
1000
DSTYLE
1002
{
1070
   270
1070
     2
1070
     6
1000
EX_NORM
1070
     7
1000
EX_NORM
1070
    41
1040
30.0
1070
    42
1040
6.99999988079071
1070
    44
1040
10.0
1070
    73
1070
     0
1070
    74
1070
     0
1070
    75
1070
     0
1070
    76
1070
     0
1070
    77
1070
     1
1070
    78
1070
     0
1070
   140
1040
40.0
1070
   147
1040
0.0
1070
   173
1070
     1
1070
   176
1070
     3
1070
   177
1070
     3
1070
   178
1070
     2
1070
   271
1070
     0
1070
   277
1070
     2
1070
   279
1070
     2
1070
   280
1070
     0
1070
   287
1070
     5
1070
   340
1005
293
1002
}
  0
DIMENSION
  5
2F0
330
1F
100
AcDbEntity
  8
寸法
  6
CONTINUOUS
 62
     3
100
AcDbDimension
  2
*D22
 10
441.0000000000001
 20
1600.0
 30
0.0
 11
417.5000000596048
 21
1160.0
 31
0.0
 70
   160
  3
ISO-25
100
AcDbAlignedDimension
 13
593.5
 23
720.0
 33
0.0
 14
593.5
 24
1600.0
 34
0.0
 50
90.0
100
AcDbRotatedDimension
1001
ACAD
1000
DSTYLE
1002
{
1070
   270
1070
     2
1070
     6
1000
EX_NORM
1070
     7
1000
EX_NORM
1070
    41
1040
30.0
1070
    42
1040
26.49999999999989
1070
    44
1040
9.99999999999983
1070
    73
1070
     0
1070
    74
1070
     0
1070
    75
1070
     0
1070
    76
1070
     0
1070
    77
1070
     1
1070
    78
1070
     0
1070
   140
1040
40.0
1070
   147
1040
0.0
1070
   173
1070
     1
1070
   176
1070
     3
1070
   177
1070
     3
1070
   178
1070
     2
1070
   271
1070
     0
1070
   277
1070
     2
1070
   279
1070
     2
1070
   280
1070
     0
1070
   287
1070
     5
1070
   340
1005
293
1002
}
  0
DIMENSION
  5
2FD
330
1F
100
AcDbEntity
  8
寸法
  6
CONTINUOUS
 62
     3
100
AcDbDimension
  2
*D23
 10
1184.0
 20
785.0
 30
0.0
 11
1160.500000059604
 21
720.0
 31
0.0
 70
   160
  3
ISO-25
100
AcDbAlignedDimension
 13
1052.0
 23
655.0
 33
0.0
 14
1070.0766968306
 24
785.0
 34
0.0
 50
90.0
100
AcDbRotatedDimension
1001
ACAD
1000
DSTYLE
1002
{
1070
   270
1070
     2
1070
     6
1000
EX_NORM
1070
     7
1000
EX_NORM
1070
    41
1040
30.0
1070
    42
1040
6.99999988079071
1070
    44
1040
10.0
1070
    73
1070
     0
1070
    74
1070
     0
1070
    75
1070
     0
1070
    76
1070
     0
1070
    77
1070
     1
1070
    78
1070
     0
1070
   140
1040
40.0
1070
   147
1040
0.0
1070
   173
1070
     1
1070
   176
1070
     3
1070
   177
1070
     3
1070
   178
1070
     2
1070
   271
1070
     0
1070
   277
1070
     2
1070
   279
1070
     2
1070
   280
1070
     0
1070
   287
1070
     5
1070
   340
1005
293
1002
}
  0
DIMENSION
  5
30A
330
1F
100
AcDbEntity
  8
寸法
  6
CONTINUOUS
 62
     3
100
AcDbDimension
  2
*D24
 10
1244.0
 20
1655.0
 30
0.0
 11
1220.500000059605
 21
1155.0
 31
0.0
 70
   160
  3
ISO-25
100
AcDbAlignedDimension
 13
1052.0
 23
655.0
 33
0.0
 14
1052.0
 24
1655.0
 34
0.0
 50
90.0
100
AcDbRotatedDimension
1001
ACAD
1000
DSTYLE
1002
{
1070
   270
1070
     2
1070
     6
1000
EX_NORM
1070
     7
1000
EX_NORM
1070
    41
1040
30.0
1070
    42
1040
6.99999988079071
1070
    44
1040
10.0
1070
    73
1070
     0
1070
    74
1070
     0
1070
    75
1070
     0
1070
    76
1070
     0
1070
    77
1070
     1
1070
    78
1070
     0
1070
   140
1040
40.0
1070
   147
1040
0.0
1070
   173
1070
     1
1070
   176
1070
     3
1070
   177
1070
     3
1070
   178
1070
     2
1070
   271
1070
     0
1070
   277
1070
     2
1070
   279
1070
     2
1070
   280
1070
     0
1070
   287
1070
     5
1070
   340
1005
293
1002
}
  0
DIMENSION
  5
317
330
1F
100
AcDbEntity
  8
寸法
  6
CONTINUOUS
 62
     3
100
AcDbDimension
  2
*D25
 10
1012.0
 20
533.0
 30
0.0
 11
807.0
 21
556.0000001192093
 31
0.0
 70
   160
  3
ISO-25
100
AcDbAlignedDimension
 13
602.0
 23
690.0
 33
0.0
 14
1012.0
 24
690.0
 34
0.0
100
AcDbRotatedDimension
1001
ACAD
1000
DSTYLE
1002
{
1070
   270
1070
     2
1070
     6
1000
EX_NORM
1070
     7
1000
EX_NORM
1070
    41
1040
30.0
1070
    42
1040
6.99999988079071
1070
    44
1040
10.0
1070
    73
1070
     0
1070
    74
1070
     0
1070
    75
1070
     0
1070
    76
1070
     0
1070
    77
1070
     1
1070
    78
1070
     8
1070
   140
1040
40.0
1070
   147
1040
0.0
1070
   173
1070
     1
1070
   176
1070
     3
1070
   177
1070
     3
1070
   178
1070
     2
1070
   271
1070
     1
1070
   277
1070
     2
1070
   279
1070
     2
1070
   280
1070
     0
1070
   287
1070
     5
1070
   340
1005
293
1002
}
  0
DIMENSION
  5
324
330
1F
100
AcDbEntity
  8
寸法
  6
CONTINUOUS
 62
     3
100
AcDbDimension
  2
*D26
 10
972.0
 20
1710.0
 30
0.0
 11
807.0000000000001
 21
1733.000000119209
 31
0.0
 70
   160
  3
ISO-25
100
AcDbAlignedDimension
 13
642.0
 23
1630.0
 33
0.0
 14
972.0
 24
1630.0
 34
0.0
100
AcDbRotatedDimension
1001
ACAD
1000
DSTYLE
1002
{
1070
   270
1070
     2
1070
     6
1000
EX_NORM
1070
     7
1000
EX_NORM
1070
    41
1040
30.0
1070
    42
1040
6.99999988079071
1070
    44
1040
10.0
1070
    73
1070
     0
1070
    74
1070
     0
1070
    75
1070
     0
1070
    76
1070
     0
1070
    77
1070
     1
1070
    78
1070
     8
1070
   140
1040
40.0
1070
   147
1040
0.0
1070
   173
1070
     1
1070
   176
1070
     3
1070
   177
1070
     3
1070
   178
1070
     2
1070
   271
1070
     1
1070
   277
1070
     2
1070
   279
1070
     2
1070
   280
1070
     0
1070
   287
1070
     5
1070
   340
1005
293
1002
}
  0
ENDSEC
  0
SECTION
  2
OBJECTS
  0
DICTIONARY
  5
C
330
0
100
AcDbDictionary
  3
ACAD_GROUP
350
D
  3
ACAD_LAYOUT
350
1A
  3
ACAD_MATERIAL
350
3B
  3
ACAD_MLEADERSTYLE
350
353
  3
ACAD_MLINESTYLE
350
17
  3
ACAD_PLOTSETTINGS
350
19
  3
ACAD_VISUALSTYLE
350
2A
  3
ACDBHEADERROUNDTRIPXREC
350
331
  3
ACDBVARIABLEDICTIONARY
350
351
  0
DICTIONARY
  5
D
102
{ACAD_REACTORS
330
C
102
}
330
C
100
AcDbDictionary
  0
DICTIONARY
  5
1A
102
{ACAD_REACTORS
330
C
102
}
330
C
100
AcDbDictionary
  0
DICTIONARY
  5
3B
102
{ACAD_REACTORS
330
C
102
}
330
C
100
AcDbDictionary
  3
BYBLOCK
350
3D
  3
BYLAYER
350
3C
  3
GLOBAL
350
3E
  0
DICTIONARY
  5
353
102
{ACAD_REACTORS
330
C
102
}
330
C
100
AcDbDictionary
  0
DICTIONARY
  5
17
102
{ACAD_REACTORS
330
C
102
}
330
C
100
AcDbDictionary
  3
STANDARD
350
18
  0
DICTIONARY
  5
19
102
{ACAD_REACTORS
330
C
102
}
330
C
100
AcDbDictionary
  0
DICTIONARY
  5
2A
102
{ACAD_REACTORS
330
C
102
}
330
C
100
AcDbDictionary
  3
2DWIREFRAME
350
2F
  3
3D_HIDDEN
350
31
  3
3DWIREFRAME
350
30
  3
BASIC
350
32
  3
BRIGHTEN
350
36
  3
COLORCHANGE
350
3A
  3
CONCEPTUAL
350
34
  3
DIM
350
35
  3
FACEPATTERN
350
39
  3
FLAT
350
2B
  3
FLATWITHEDGES
350
2C
  3
GOURAUD
350
2D
  3
GOURAUDWITHEDGES
350
2E
  3
LINEPATTERN
350
38
  3
REALISTIC
350
33
  3
THICKEN
350
37
  0
DICTIONARY
  5
331
102
{ACAD_REACTORS
330
C
102
}
330
C
100
AcDbDictionary
  3
CEPSNTYPE
350
33A
  3
DIMSTYLEDATA
350
350
  3
FINGERPRINTGUID
350
33B
  3
HYPERLINKBASE
350
334
  3
INSUNITS
350
339
  3
LAYOUTDICT
350
336
  3
LWETCUNION
350
338
  3
PLOTSETDICT
350
337
  3
PSVPSCALE
350
33D
  3
PUCSBASE
350
340
  3
PUCSORGBACK
350
346
  3
PUCSORGBOTTOM
350
342
  3
PUCSORGFRONT
350
345
  3
PUCSORGLEFT
350
343
  3
PUCSORGRIGHT
350
344
  3
PUCSORGTOP
350
341
  3
PUCSORTHOREF
350
33E
  3
PUCSORTHOVIEW
350
33F
  3
STYLESHEET
350
335
  3
TSTACKALIGN
350
332
  3
TSTACKSIZE
350
333
  3
UCSBASE
350
349
  3
UCSORGBACK
350
34F
  3
UCSORGBOTTOM
350
34B
  3
UCSORGFRONT
350
34E
  3
UCSORGLEFT
350
34C
  3
UCSORGRIGHT
350
34D
  3
UCSORGTOP
350
34A
  3
UCSORTHOREF
350
347
  3
UCSORTHOVIEW
350
348
  3
VERSIONGUID
350
33C
  0
DICTIONARY
  5
351
102
{ACAD_REACTORS
330
C
102
}
330
C
100
AcDbDictionary
  3
DIMASSOC
350
356
  3
HIDETEXT
350
357
  3
PSOLHEIGHT
350
355
  3
PSOLWIDTH
350
354
  0
MATERIAL
  5
3D
102
{ACAD_REACTORS
330
3B
102
}
102
{ACAD_XDICTIONARY
360
35A
102
}
330
3B
100
AcDbMaterial
  1
ByBlock
  0
MATERIAL
  5
3C
102
{ACAD_REACTORS
330
3B
102
}
102
{ACAD_XDICTIONARY
360
358
102
}
330
3B
100
AcDbMaterial
  1
ByLayer
  0
MATERIAL
  5
3E
102
{ACAD_REACTORS
330
3B
102
}
102
{ACAD_XDICTIONARY
360
35C
102
}
330
3B
100
AcDbMaterial
  1
Global
  0
MLINESTYLE
  5
18
102
{ACAD_REACTORS
330
17
102
}
330
17
100
AcDbMlineStyle
  2
Standard
 70
     0
  3

 62
   256
 51
90.0
 52
90.0
 71
     2
 49
0.5
 62
   256
  6
BYLAYER
 49
-0.5
 62
   256
  6
BYLAYER
  0
ACAD_PROXY_OBJECT
  5
2F
102
{ACAD_REACTORS
330
2A
102
}
330
2A
100
AcDbProxyObject
 90
      499
 91
      501
 93
      436
310
42CC9915DA5C99599C985B595049028333333333333E3BF0000000000000FB0107901411070040501600405405064090741402480A0340
1001
ACAD
1000
AcDbSavedByObjectVersion
1070
     0
  0
ACAD_PROXY_OBJECT
  5
31
102
{ACAD_REACTORS
330
2A
102
}
330
2A
100
AcDbProxyObject
 90
      499
 91
      501
 93
      500
310
424CD108121A5919195B90640502408333333333333E3BF0000000000000FB01079024090700405020000000000001110200405405064090740C02480A0340
1001
ACAD
1000
AcDbSavedByObjectVersion
1070
     0
  0
ACAD_PROXY_OBJECT
  5
30
102
{ACAD_REACTORS
330
2A
102
}
330
2A
100
AcDbProxyObject
 90
      499
 91
      501
 93
      436
310
42CCD915DA5C99599C985B595059028333333333333E3BF0000000000000FB0107901411070040501600405405064090741402480A0340
1001
ACAD
1000
AcDbSavedByObjectVersion
1070
     0
  0
ACAD_PROXY_OBJECT
  5
32
102
{ACAD_REACTORS
330
2A
102
}
330
2A
100
AcDbProxyObject
 90
      499
 91
      501
 93
      388
310
4150985CDA58D07406404333333333333E3BF0000000000000FB0107A41107004050150841D405064090741402480A0350
1001
ACAD
1000
AcDbSavedByObjectVersion
1070
     0
  0
ACAD_PROXY_OBJECT
  5
36
102
{ACAD_REACTORS
330
2A
102
}
330
2A
100
AcDbProxyObject
 90
      499
 91
      501
 93
      428
310
42109C9A59DA1D195B90C409028333333333333E3BF0000000000000FB010790141107004050150841D405064090741402480A029950
1001
ACAD
1000
AcDbSavedByObjectVersion
1070
     0
  0
ACAD_PROXY_OBJECT
  5
3A
102
{ACAD_REACTORS
330
2A
102
}
330
2A
100
AcDbProxyObject
 90
      499
 91
      501
 93
      452
310
42D0DBDB1BDC90DA185B99D95104090240C333333333333E3BF0000000000000FB0108901411070040501508421405064090741402480A0350
1001
ACAD
1000
AcDbSavedByObjectVersion
1070
     0
  0
ACAD_PROXY_OBJECT
  5
34
102
{ACAD_REACTORS
330
2A
102
}
330
2A
100
AcDbProxyObject
 90
      499
 91
      501
 93
      500
310
4290DBDB98D95C1D1D585B10940D028333333333333E3BF0000000000000FB0107902409070040501000000000000111010841D405064090740C02480A0340
1001
ACAD
1000
AcDbSavedByObjectVersion
1070
     0
  0
ACAD_PROXY_OBJECT
  5
35
102
{ACAD_REACTORS
330
2A
102
}
330
2A
100
AcDbProxyObject
 90
      499
 91
      501
 93
      412
310
40D11A5B50B409028333333333333E3BF0000000000000FB010790141107004050150841D405064090741402480A02677FFFFFD0
1001
ACAD
1000
AcDbSavedByObjectVersion
1070
     0
  0
ACAD_PROXY_OBJECT
  5
39
102
{ACAD_REACTORS
330
2A
102
}
330
2A
100
AcDbProxyObject
 90
      499
 91
      501
 93
      444
310
42D19858D95C185D1D195C9B90F409028333333333333E3BF0000000000000FB010790141107004050150841D405064090741402480A0350
1001
ACAD
1000
AcDbSavedByObjectVersion
1070
     0
  0
ACAD_PROXY_OBJECT
  5
2B
102
{ACAD_REACTORS
330
2A
102
}
330
2A
100
AcDbProxyObject
 90
      499
 91
      501
 93
      388
310
41119B185D240901404333333333333E3BF0000000000000F9010740A41107004050150841D405064090741402480A1B50
1001
ACAD
1000
AcDbSavedByObjectVersion
1070
     0
  0
ACAD_PROXY_OBJECT
  5
2C
102
{ACAD_REACTORS
330
2A
102
}
330
2A
100
AcDbProxyObject
 90
      499
 91
      501
 93
      476
310
43519B185D15DA5D1A115919D95CD0140901404333333333333E3BF0000000000000F9010740901411070040501600405405064090741402480A1B50
1001
ACAD
1000
AcDbSavedByObjectVersion
1070
     0
  0
ACAD_PROXY_OBJECT
  5
2D
102
{ACAD_REACTORS
330
2A
102
}
330
2A
100
AcDbProxyObject
 90
      499
 91
      501
 93
      412
310
41D1DBDD5C985D5910240902404333333333333E3BF0000000000000F9010740A411070040501641D405064090741402480A1B50
1001
ACAD
1000
AcDbSavedByObjectVersion
1070
     0
  0
ACAD_PROXY_OBJECT
  5
2E
102
{ACAD_REACTORS
330
2A
102
}
330
2A
100
AcDbProxyObject
 90
      499
 91
      501
 93
      500
310
4411DBDD5C985D5915DA5D1A115919D95CD0340902404333333333333E3BF0000000000000F9010740901411070040501600405405064090741402480A1B50
1001
ACAD
1000
AcDbSavedByObjectVersion
1070
     0
  0
ACAD_PROXY_OBJECT
  5
38
102
{ACAD_REACTORS
330
2A
102
}
330
2A
100
AcDbProxyObject
 90
      499
 91
      501
 93
      444
310
42D31A5B995C185D1D195C9B90E409028333333333333E3BF0000000000000FB010790141107004050750841D405064090741402483A0350
1001
ACAD
1000
AcDbSavedByObjectVersion
1070
     0
  0
ACAD_PROXY_OBJECT
  5
33
102
{ACAD_REACTORS
330
2A
102
}
330
2A
100
AcDbProxyObject
 90
      499
 91
      501
 93
      420
310
425499585B1A5CDD1A58D08409028333333333333E3BF0000000000000FB01079019070040501508421405064090741402480A1B40
1001
ACAD
1000
AcDbSavedByObjectVersion
1070
     0
  0
ACAD_PROXY_OBJECT
  5
37
102
{ACAD_REACTORS
330
2A
102
}
330
2A
100
AcDbProxyObject
 90
      499
 91
      501
 93
      412
310
41D51A1A58DAD95B90D409028333333333333E3BF0000000000000FB010790141107004050150C41D405064090741402480A0350
1001
ACAD
1000
AcDbSavedByObjectVersion
1070
     0
  0
XRECORD
  5
33A
102
{ACAD_REACTORS
330
331
102
}
330
331
100
AcDbXrecord
 90
        0
  0
XRECORD
  5
350
102
{ACAD_REACTORS
330
331
102
}
330
331
100
AcDbXrecord
1000
DSTYLE
1002
{
1070
   340
340
11
1002
}
  0
XRECORD
  5
33B
102
{ACAD_REACTORS
330
331
102
}
330
331
100
AcDbXrecord
  1
{4C97CB4D-341A-43CF-8AB4-4E22F10D4544}
  0
XRECORD
  5
334
102
{ACAD_REACTORS
330
331
102
}
330
331
100
AcDbXrecord
  1

  0
XRECORD
  5
339
102
{ACAD_REACTORS
330
331
102
}
330
331
100
AcDbXrecord
 90
        4
  0
XRECORD
  5
336
102
{ACAD_REACTORS
330
331
102
}
330
331
100
AcDbXrecord
340
1A
  0
XRECORD
  5
338
102
{ACAD_REACTORS
330
331
102
}
330
331
100
AcDbXrecord
 90
    10781
  0
XRECORD
  5
337
102
{ACAD_REACTORS
330
331
102
}
330
331
100
AcDbXrecord
340
19
  0
XRECORD
  5
33D
102
{ACAD_REACTORS
330
331
102
}
330
331
100
AcDbXrecord
 40
0.0
  0
XRECORD
  5
340
102
{ACAD_REACTORS
330
331
102
}
330
331
100
AcDbXrecord
340
0
  0
XRECORD
  5
346
102
{ACAD_REACTORS
330
331
102
}
330
331
100
AcDbXrecord
 10
0.0
 20
0.0
 30
0.0
  0
XRECORD
  5
342
102
{ACAD_REACTORS
330
331
102
}
330
331
100
AcDbXrecord
 10
0.0
 20
0.0
 30
0.0
  0
XRECORD
  5
345
102
{ACAD_REACTORS
330
331
102
}
330
331
100
AcDbXrecord
 10
0.0
 20
0.0
 30
0.0
  0
XRECORD
  5
343
102
{ACAD_REACTORS
330
331
102
}
330
331
100
AcDbXrecord
 10
0.0
 20
0.0
 30
0.0
  0
XRECORD
  5
344
102
{ACAD_REACTORS
330
331
102
}
330
331
100
AcDbXrecord
 10
0.0
 20
0.0
 30
0.0
  0
XRECORD
  5
341
102
{ACAD_REACTORS
330
331
102
}
330
331
100
AcDbXrecord
 10
0.0
 20
0.0
 30
0.0
  0
XRECORD
  5
33E
102
{ACAD_REACTORS
330
331
102
}
330
331
100
AcDbXrecord
340
0
  0
XRECORD
  5
33F
102
{ACAD_REACTORS
330
331
102
}
330
331
100
AcDbXrecord
 70
     0
  0
XRECORD
  5
335
102
{ACAD_REACTORS
330
331
102
}
330
331
100
AcDbXrecord
  1

  0
XRECORD
  5
332
102
{ACAD_REACTORS
330
331
102
}
330
331
100
AcDbXrecord
 90
        1
  0
XRECORD
  5
333
102
{ACAD_REACTORS
330
331
102
}
330
331
100
AcDbXrecord
 90
       70
  0
XRECORD
  5
349
102
{ACAD_REACTORS
330
331
102
}
330
331
100
AcDbXrecord
340
0
  0
XRECORD
  5
34F
102
{ACAD_REACTORS
330
331
102
}
330
331
100
AcDbXrecord
 10
0.0
 20
0.0
 30
0.0
  0
XRECORD
  5
34B
102
{ACAD_REACTORS
330
331
102
}
330
331
100
AcDbXrecord
 10
0.0
 20
0.0
 30
0.0
  0
XRECORD
  5
34E
102
{ACAD_REACTORS
330
331
102
}
330
331
100
AcDbXrecord
 10
0.0
 20
0.0
 30
0.0
  0
XRECORD
  5
34C
102
{ACAD_REACTORS
330
331
102
}
330
331
100
AcDbXrecord
 10
0.0
 20
0.0
 30
0.0
  0
XRECORD
  5
34D
102
{ACAD_REACTORS
330
331
102
}
330
331
100
AcDbXrecord
 10
0.0
 20
0.0
 30
0.0
  0
XRECORD
  5
34A
102
{ACAD_REACTORS
330
331
102
}
330
331
100
AcDbXrecord
 10
0.0
 20
0.0
 30
0.0
  0
XRECORD
  5
347
102
{ACAD_REACTORS
330
331
102
}
330
331
100
AcDbXrecord
340
0
  0
XRECORD
  5
348
102
{ACAD_REACTORS
330
331
102
}
330
331
100
AcDbXrecord
 70
     0
  0
XRECORD
  5
33C
102
{ACAD_REACTORS
330
331
102
}
330
331
100
AcDbXrecord
  1
{FAEB1C32-E019-11D5-929B-00C0DF256EC4}
  0
DICTIONARYVAR
  5
356
102
{ACAD_REACTORS
330
351
102
}
330
351
100
DictionaryVariables
280
     0
  1
2
  0
DICTIONARYVAR
  5
357
102
{ACAD_REACTORS
330
351
102
}
330
351
100
DictionaryVariables
280
     0
  1
1
  0
DICTIONARYVAR
  5
355
102
{ACAD_REACTORS
330
351
102
}
330
351
100
DictionaryVariables
280
     0
  1
80.000000
  0
DICTIONARYVAR
  5
354
102
{ACAD_REACTORS
330
351
102
}
330
351
100
DictionaryVariables
280
     0
  1
5.000000
  0
DICTIONARY
  5
35A
330
3D
100
AcDbDictionary
280
     1
  3
ACAD_XREC_ROUNDTRIP
360
35B
  0
DICTIONARY
  5
358
330
3C
100
AcDbDictionary
280
     1
  3
ACAD_XREC_ROUNDTRIP
360
359
  0
DICTIONARY
  5
35C
330
3E
100
AcDbDictionary
280
     1
  3
ACAD_XREC_ROUNDTRIP
360
35D
  0
XRECORD
  5
35B
102
{ACAD_REACTORS
330
35A
102
}
330
35A
100
AcDbXrecord
102
MATERIAL
148
0.0
149
0.0
149
0.0
 93
        0
 94
      127
282
     0
 72
     1
 77
     1
171
     1
175
     1
179
     1
273
     0
  0
XRECORD
  5
359
102
{ACAD_REACTORS
330
358
102
}
330
358
100
AcDbXrecord
102
MATERIAL
148
0.0
149
0.0
149
0.0
 93
        0
 94
      127
282
     0
 72
     1
 77
     1
171
     1
175
     1
179
     1
273
     0
  0
XRECORD
  5
35D
102
{ACAD_REACTORS
330
35C
102
}
330
35C
100
AcDbXrecord
102
MATERIAL
148
0.0
149
0.0
149
0.0
 93
        0
 94
      127
282
     0
 72
     1
 77
     1
171
     1
175
     1
179
     1
273
     0
  0
ENDSEC
  0
EOF
