  0
SECTION
  2
HEADER
  9
$ACADVER
  1
AC1014
  9
$ACADMAINTVER
 70
     9
  9
$DWGCODEPAGE
  3
ANSI_932
  9
$INSBASE
 10
0.0
 20
0.0
 30
0.0
  9
$EXTMIN
 10
0.0000000000000091
 20
11.5
 30
0.0
  9
$EXTMAX
 10
200.0
 20
289.5
 30
0.0
  9
$LIMMIN
 10
0.0
 20
0.0
  9
$LIMMAX
 10
210.0
 20
297.0
  9
$ORTHOMODE
 70
     0
  9
$REGENMODE
 70
     1
  9
$FILLMODE
 70
     1
  9
$QTEXTMODE
 70
     0
  9
$MIRRTEXT
 70
     1
  9
$DRAGMODE
 70
     2
  9
$LTSCALE
 40
1.0
  9
$OSMODE
 70
    37
  9
$ATTMODE
 70
     1
  9
$TEXTSIZE
 40
2.5
  9
$TRACEWID
 40
1.0
  9
$TEXTSTYLE
  7
STANDARD
  9
$CLAYER
  8
枠_器具表
  9
$CELTYPE
  6
BYLAYER
  9
$CECOLOR
 62
   256
  9
$CELTSCALE
 40
1.0
  9
$DELOBJ
 70
     1
  9
$DISPSILH
 70
     0
  9
$DIMSCALE
 40
1.0
  9
$DIMASZ
 40
2.5
  9
$DIMEXO
 40
0.625
  9
$DIMDLI
 40
3.75
  9
$DIMRND
 40
0.0
  9
$DIMDLE
 40
0.0
  9
$DIMEXE
 40
1.25
  9
$DIMTP
 40
0.0
  9
$DIMTM
 40
0.0
  9
$DIMTXT
 40
2.5
  9
$DIMCEN
 40
2.5
  9
$DIMTSZ
 40
0.0
  9
$DIMTOL
 70
     0
  9
$DIMLIM
 70
     0
  9
$DIMTIH
 70
     0
  9
$DIMTOH
 70
     0
  9
$DIMSE1
 70
     0
  9
$DIMSE2
 70
     0
  9
$DIMTAD
 70
     1
  9
$DIMZIN
 70
     8
  9
$DIMBLK
  1

  9
$DIMASO
 70
     1
  9
$DIMSHO
 70
     1
  9
$DIMPOST
  1

  9
$DIMAPOST
  1

  9
$DIMALT
 70
     0
  9
$DIMALTD
 70
     3
  9
$DIMALTF
 40
0.03937007874016
  9
$DIMLFAC
 40
1.0
  9
$DIMTOFL
 70
     1
  9
$DIMTVP
 40
0.0
  9
$DIMTIX
 70
     0
  9
$DIMSOXD
 70
     0
  9
$DIMSAH
 70
     0
  9
$DIMBLK1
  1

  9
$DIMBLK2
  1

  9
$DIMSTYLE
  2
ISO-25
  9
$DIMCLRD
 70
     0
  9
$DIMCLRE
 70
     0
  9
$DIMCLRT
 70
     0
  9
$DIMTFAC
 40
1.0
  9
$DIMGAP
 40
0.625
  9
$DIMJUST
 70
     0
  9
$DIMSD1
 70
     0
  9
$DIMSD2
 70
     0
  9
$DIMTOLJ
 70
     0
  9
$DIMTZIN
 70
     8
  9
$DIMALTZ
 70
     0
  9
$DIMALTTZ
 70
     0
  9
$DIMFIT
 70
     3
  9
$DIMUPT
 70
     0
  9
$DIMUNIT
 70
     2
  9
$DIMDEC
 70
     2
  9
$DIMTDEC
 70
     2
  9
$DIMALTU
 70
     2
  9
$DIMALTTD
 70
     3
  9
$DIMTXSTY
  7
STANDARD
  9
$DIMAUNIT
 70
     0
  9
$LUNITS
 70
     2
  9
$LUPREC
 70
     4
  9
$SKETCHINC
 40
1.0
  9
$FILLETRAD
 40
10.0
  9
$AUNITS
 70
     0
  9
$AUPREC
 70
     0
  9
$MENU
  1
.
  9
$ELEVATION
 40
0.0
  9
$PELEVATION
 40
0.0
  9
$THICKNESS
 40
0.0
  9
$LIMCHECK
 70
     0
  9
$CHAMFERA
 40
10.0
  9
$CHAMFERB
 40
10.0
  9
$CHAMFERC
 40
20.0
  9
$CHAMFERD
 40
0.0
  9
$SKPOLY
 70
     0
  9
$TDCREATE
 40
2457917.955731574
  9
$TDUPDATE
 40
2457917.955731759
  9
$TDINDWG
 40
0.0000000116
  9
$TDUSRTIMER
 40
0.0000000116
  9
$USRTIMER
 70
     1
  9
$ANGBASE
 50
0.0
  9
$ANGDIR
 70
     0
  9
$PDMODE
 70
     0
  9
$PDSIZE
 40
0.0
  9
$PLINEWID
 40
0.0
  9
$COORDS
 70
     1
  9
$SPLFRAME
 70
     0
  9
$SPLINETYPE
 70
     6
  9
$SPLINESEGS
 70
     8
  9
$ATTDIA
 70
     0
  9
$ATTREQ
 70
     1
  9
$HANDLING
 70
     1
  9
$HANDSEED
  5
2F6
  9
$SURFTAB1
 70
     6
  9
$SURFTAB2
 70
     6
  9
$SURFTYPE
 70
     6
  9
$SURFU
 70
     6
  9
$SURFV
 70
     6
  9
$UCSNAME
  2

  9
$UCSORG
 10
0.0
 20
0.0
 30
0.0
  9
$UCSXDIR
 10
1.0
 20
0.0
 30
0.0
  9
$UCSYDIR
 10
0.0
 20
1.0
 30
0.0
  9
$PUCSNAME
  2

  9
$PUCSORG
 10
0.0
 20
0.0
 30
0.0
  9
$PUCSXDIR
 10
1.0
 20
0.0
 30
0.0
  9
$PUCSYDIR
 10
0.0
 20
1.0
 30
0.0
  9
$USERI1
 70
     0
  9
$USERI2
 70
     0
  9
$USERI3
 70
     0
  9
$USERI4
 70
     0
  9
$USERI5
 70
     0
  9
$USERR1
 40
0.0
  9
$USERR2
 40
0.0
  9
$USERR3
 40
0.0
  9
$USERR4
 40
0.0
  9
$USERR5
 40
0.0
  9
$WORLDVIEW
 70
     1
  9
$SHADEDGE
 70
     3
  9
$SHADEDIF
 70
    70
  9
$TILEMODE
 70
     1
  9
$MAXACTVP
 70
    64
  9
$PINSBASE
 10
0.0
 20
0.0
 30
0.0
  9
$PLIMCHECK
 70
     0
  9
$PEXTMIN
 10
1.000000000000000E+20
 20
1.000000000000000E+20
 30
1.000000000000000E+20
  9
$PEXTMAX
 10
-1.000000000000000E+20
 20
-1.000000000000000E+20
 30
-1.000000000000000E+20
  9
$PLIMMIN
 10
0.0
 20
0.0
  9
$PLIMMAX
 10
420.0
 20
297.0
  9
$UNITMODE
 70
     0
  9
$VISRETAIN
 70
     1
  9
$PLINEGEN
 70
     0
  9
$PSLTSCALE
 70
     1
  9
$TREEDEPTH
 70
  3020
  9
$PICKSTYLE
 70
     1
  9
$CMLSTYLE
  2
STANDARD
  9
$CMLJUST
 70
     0
  9
$CMLSCALE
 40
20.0
  9
$PROXYGRAPHICS
 70
     1
  9
$MEASUREMENT
 70
     1
  0
ENDSEC
  0
SECTION
  2
CLASSES
  0
CLASS
  1
ACDBDICTIONARYWDFLT
  2
AcDbDictionaryWithDefault
  3
ObjectDBX Classes
 90
        0
280
     0
281
     0
  0
CLASS
  1
VISUALSTYLE
  2
AcDbVisualStyle
  3
ObjectDBX Classes
 90
     4095
280
     0
281
     0
  0
CLASS
  1
MATERIAL
  2
AcDbMaterial
  3
ObjectDBX Classes
 90
     1153
280
     0
281
     0
  0
CLASS
  1
SUN
  2
AcDbSun
  3
SCENEOE
 90
     1024
280
     0
281
     0
  0
CLASS
  1
DICTIONARYVAR
  2
AcDbDictionaryVar
  3
ObjectDBX Classes
 90
        0
280
     0
281
     0
  0
CLASS
  1
XRECORD
  2
AcDbXrecord
  3
AutoCAD 2000
 90
        0
280
     0
281
     0
  0
CLASS
  1
LWPOLYLINE
  2
AcDbPolyline
  3
AutoCAD 2000
 90
        0
280
     0
281
     1
  0
CLASS
  1
HATCH
  2
AcDbHatch
  3
AutoCAD 2000
 90
        0
280
     0
281
     1
  0
CLASS
  1
ACDBPLACEHOLDER
  2
AcDbPlaceHolder
  3
ObjectDBX Classes
 90
        0
280
     0
281
     0
  0
CLASS
  1
LAYOUT
  2
AcDbLayout
  3
ObjectDBX Classes
 90
        0
280
     0
281
     0
  0
ENDSEC
  0
SECTION
  2
TABLES
  0
TABLE
  2
VPORT
  5
8
330
0
100
AcDbSymbolTable
 70
     1
  0
VPORT
  5
29
330
8
100
AcDbSymbolTableRecord
100
AcDbViewportTableRecord
  2
*ACTIVE
 70
     0
 10
0.0
 20
0.0
 11
1.0
 21
1.0
 12
250.0
 22
376.25
 13
0.0
 23
0.0
 14
10.0
 24
10.0
 15
10.0
 25
10.0
 16
0.0
 26
0.0
 36
1.0
 17
0.0
 27
0.0
 37
0.0
 40
695.0
 41
0.7194244604316548
 42
50.0
 43
0.0
 44
0.0
 50
0.0
 51
0.0
 71
     0
 72
  1000
 73
     1
 74
     3
 75
     0
 76
     0
 77
     0
 78
     0
  0
ENDTAB
  0
TABLE
  2
LTYPE
  5
5
330
0
100
AcDbSymbolTable
 70
     7
  0
LTYPE
  5
14
330
5
100
AcDbSymbolTableRecord
100
AcDbLinetypeTableRecord
  2
BYBLOCK
 70
     0
  3

 72
    65
 73
     0
 40
0.0
  0
LTYPE
  5
15
330
5
100
AcDbSymbolTableRecord
100
AcDbLinetypeTableRecord
  2
BYLAYER
 70
     0
  3

 72
    65
 73
     0
 40
0.0
  0
LTYPE
  5
16
330
5
100
AcDbSymbolTableRecord
100
AcDbLinetypeTableRecord
  2
CONTINUOUS
 70
     0
  3
Solid line
 72
    65
 73
     0
 40
0.0
  0
LTYPE
  5
40
330
5
100
AcDbSymbolTableRecord
100
AcDbLinetypeTableRecord
  2
EXLTYPE1
 70
     0
  3
破線
 72
    65
 73
     2
 40
3.0
 49
2.0
 74
     0
 49
-1.0
 74
     0
  0
LTYPE
  5
41
330
5
100
AcDbSymbolTableRecord
100
AcDbLinetypeTableRecord
  2
EXLTYPE2
 70
     0
  3
点線
 72
    65
 73
     2
 40
2.0
 49
1.0
 74
     0
 49
-1.0
 74
     0
  0
LTYPE
  5
42
330
5
100
AcDbSymbolTableRecord
100
AcDbLinetypeTableRecord
  2
EXLTYPE3
 70
     0
  3
一点鎖線
 72
    65
 73
     4
 40
10.0
 49
7.0
 74
     0
 49
-1.0
 74
     0
 49
1.0
 74
     0
 49
-1.0
 74
     0
  0
LTYPE
  5
43
330
5
100
AcDbSymbolTableRecord
100
AcDbLinetypeTableRecord
  2
EXLTYPE4
 70
     0
  3
二点鎖線
 72
    65
 73
     6
 40
12.0
 49
7.0
 74
     0
 49
-1.0
 74
     0
 49
1.0
 74
     0
 49
-1.0
 74
     0
 49
1.0
 74
     0
 49
-1.0
 74
     0
  0
LTYPE
  5
44
330
5
100
AcDbSymbolTableRecord
100
AcDbLinetypeTableRecord
  2
EXLTYPE5
 70
     0
  3
三点鎖線
 72
    65
 73
     8
 40
37.0
 49
30.0
 74
     0
 49
-1.0
 74
     0
 49
1.0
 74
     0
 49
-1.0
 74
     0
 49
1.0
 74
     0
 49
-1.0
 74
     0
 49
1.0
 74
     0
 49
-1.0
 74
     0
  0
LTYPE
  5
45
330
5
100
AcDbSymbolTableRecord
100
AcDbLinetypeTableRecord
  2
EXLTYPE6
 70
     0
  3
四点鎖線
 72
    65
 73
    10
 40
39.0
 49
30.0
 74
     0
 49
-1.0
 74
     0
 49
1.0
 74
     0
 49
-1.0
 74
     0
 49
1.0
 74
     0
 49
-1.0
 74
     0
 49
1.0
 74
     0
 49
-1.0
 74
     0
 49
1.0
 74
     0
 49
-1.0
 74
     0
  0
ENDTAB
  0
TABLE
  2
LAYER
  5
2
330
0
100
AcDbSymbolTable
 70
     5
  0
LAYER
  5
10
330
2
100
AcDbSymbolTableRecord
100
AcDbLayerTableRecord
  2
0
 70
     0
 62
     7
  6
CONTINUOUS
  0
LAYER
  5
48
330
2
100
AcDbSymbolTableRecord
100
AcDbLayerTableRecord
  2
枠_器具表
 70
     0
 62
     7
  6
CONTINUOUS
  0
LAYER
  5
49
330
2
100
AcDbSymbolTableRecord
100
AcDbLayerTableRecord
  2
図
 70
     0
 62
     7
  6
CONTINUOUS
  0
LAYER
  5
4A
330
2
100
AcDbSymbolTableRecord
100
AcDbLayerTableRecord
  2
寸法
 70
     0
 62
     7
  6
CONTINUOUS
  0
LAYER
  5
D1
330
2
100
AcDbSymbolTableRecord
100
AcDbLayerTableRecord
  2
DEFPOINTS
 70
     0
 62
     7
  6
CONTINUOUS
  0
ENDTAB
  0
TABLE
  2
STYLE
  5
3
330
0
100
AcDbSymbolTable
 70
     6
  0
STYLE
  5
11
330
3
100
AcDbSymbolTableRecord
100
AcDbTextStyleTableRecord
  2
STANDARD
 70
     0
 40
0.0
 41
1.0
 50
0.0
 71
     0
 42
2.5
  3
monotxt
  4
extfont
  0
STYLE
  5
46
330
3
100
AcDbSymbolTableRecord
100
AcDbTextStyleTableRecord
  2
EXCADSTD
 70
     0
 40
0.0
 41
1.0
 50
0.0
 71
     0
 42
0.2
  3
monotxt
  4
extfont
  0
STYLE
  5
47
330
3
100
AcDbSymbolTableRecord
100
AcDbTextStyleTableRecord
  2
EXCADVERT
 70
     4
 40
0.0
 41
1.0
 50
0.0
 71
     0
 42
0.286885
  3
monotxt
  4
extfont
  0
STYLE
  5
CF
330
3
100
AcDbSymbolTableRecord
100
AcDbTextStyleTableRecord
  2
EXCADDIM1
 70
     0
 40
0.0
 41
0.84
 50
0.0
 71
     0
 42
0.2
  3
monotxt
  4
extfont
  0
STYLE
  5
165
330
3
100
AcDbSymbolTableRecord
100
AcDbTextStyleTableRecord
  2
EXCADDIM2
 70
     0
 40
0.0
 41
0.74
 50
0.0
 71
     0
 42
0.2
  3
monotxt
  4
extfont
  0
STYLE
  5
266
330
3
100
AcDbSymbolTableRecord
100
AcDbTextStyleTableRecord
  2
EXCADTTF1
 70
     0
 40
0.0
 41
1.0
 50
0.0
 71
     0
 42
0.2
  3
MSGOTHIC.TTC
  4

1001
ACAD
1000
MS Gothic
1071
    32817
  0
ENDTAB
  0
TABLE
  2
VIEW
  5
6
330
0
100
AcDbSymbolTable
 70
     0
  0
ENDTAB
  0
TABLE
  2
UCS
  5
7
330
0
100
AcDbSymbolTable
 70
     0
  0
ENDTAB
  0
TABLE
  2
APPID
  5
9
330
0
100
AcDbSymbolTable
 70
     1
  0
APPID
  5
12
330
9
100
AcDbSymbolTableRecord
100
AcDbRegAppTableRecord
  2
ACAD
 70
     0
  0
ENDTAB
  0
TABLE
  2
DIMSTYLE
  5
A
330
0
100
AcDbSymbolTable
 70
     1
  0
DIMSTYLE
105
27
102
{ACAD_REACTORS
330
D0
330
DE
330
EB
330
F8
330
105
330
112
330
11F
330
12C
330
139
330
148
330
166
102
}
330
A
100
AcDbSymbolTableRecord
100
AcDbDimStyleTableRecord
  2
ISO-25
 70
     0
  3

  4

  5

  6

  7

 40
1.0
 41
2.5
 42
0.625
 43
3.75
 44
1.25
 45
0.0
 46
0.0
 47
0.0
 48
0.0
140
2.5
141
2.5
142
0.0
143
0.03937007874016
144
1.0
145
0.0
146
1.0
147
0.625
 71
     0
 72
     0
 73
     0
 74
     0
 75
     0
 76
     0
 77
     1
 78
     8
170
     0
171
     3
172
     1
173
     0
174
     0
175
     0
176
     0
177
     0
178
     0
270
     2
271
     2
272
     2
273
     2
274
     3
340
11
275
     0
280
     0
281
     0
282
     0
283
     0
284
     8
285
     0
286
     0
287
     5
288
     0
  0
ENDTAB
  0
TABLE
  2
BLOCK_RECORD
  5
1
330
0
100
AcDbSymbolTable
 70
    26
  0
BLOCK_RECORD
  5
1F
330
1
100
AcDbSymbolTableRecord
100
AcDbBlockTableRecord
  2
*MODEL_SPACE
  0
BLOCK_RECORD
  5
1B
330
1
100
AcDbSymbolTableRecord
100
AcDbBlockTableRecord
  2
*PAPER_SPACE
  0
BLOCK_RECORD
  5
4B
330
1
100
AcDbSymbolTableRecord
100
AcDbBlockTableRecord
  2
EX_NORM
  0
BLOCK_RECORD
  5
4E
330
1
100
AcDbSymbolTableRecord
100
AcDbBlockTableRecord
  2
EX_BNORM
  0
BLOCK_RECORD
  5
51
330
1
100
AcDbSymbolTableRecord
100
AcDbBlockTableRecord
  2
EX_BCIR
  0
BLOCK_RECORD
  5
54
330
1
100
AcDbSymbolTableRecord
100
AcDbBlockTableRecord
  2
EX_RCIVIL
  0
BLOCK_RECORD
  5
57
330
1
100
AcDbSymbolTableRecord
100
AcDbBlockTableRecord
  2
EX_SLANT
  0
BLOCK_RECORD
  5
5A
330
1
100
AcDbSymbolTableRecord
100
AcDbBlockTableRecord
  2
EX_NONE
  0
BLOCK_RECORD
  5
5D
330
1
100
AcDbSymbolTableRecord
100
AcDbBlockTableRecord
  2
EX_CIVIL
  0
BLOCK_RECORD
  5
60
330
1
100
AcDbSymbolTableRecord
100
AcDbBlockTableRecord
  2
EX_WCIR
  0
BLOCK_RECORD
  5
63
330
1
100
AcDbSymbolTableRecord
100
AcDbBlockTableRecord
  2
EX_WCIR2
  0
BLOCK_RECORD
  5
66
330
1
100
AcDbSymbolTableRecord
100
AcDbBlockTableRecord
  2
EX_WNORM
  0
BLOCK_RECORD
  5
69
330
1
100
AcDbSymbolTableRecord
100
AcDbBlockTableRecord
  2
EX_NNORM
  0
BLOCK_RECORD
  5
6C
330
1
100
AcDbSymbolTableRecord
100
AcDbBlockTableRecord
  2
EX_BBOX
  0
BLOCK_RECORD
  5
6F
330
1
100
AcDbSymbolTableRecord
100
AcDbBlockTableRecord
  2
EX_WBOX
  0
BLOCK_RECORD
  5
72
330
1
100
AcDbSymbolTableRecord
100
AcDbBlockTableRecord
  2
EX_INTEGRAL
  0
BLOCK_RECORD
  5
D2
330
1
100
AcDbSymbolTableRecord
100
AcDbBlockTableRecord
  2
*D15
  0
BLOCK_RECORD
  5
DF
330
1
100
AcDbSymbolTableRecord
100
AcDbBlockTableRecord
  2
*D16
  0
BLOCK_RECORD
  5
EC
330
1
100
AcDbSymbolTableRecord
100
AcDbBlockTableRecord
  2
*D17
  0
BLOCK_RECORD
  5
F9
330
1
100
AcDbSymbolTableRecord
100
AcDbBlockTableRecord
  2
*D18
  0
BLOCK_RECORD
  5
106
330
1
100
AcDbSymbolTableRecord
100
AcDbBlockTableRecord
  2
*D19
  0
BLOCK_RECORD
  5
113
330
1
100
AcDbSymbolTableRecord
100
AcDbBlockTableRecord
  2
*D20
  0
BLOCK_RECORD
  5
120
330
1
100
AcDbSymbolTableRecord
100
AcDbBlockTableRecord
  2
*D21
  0
BLOCK_RECORD
  5
12D
330
1
100
AcDbSymbolTableRecord
100
AcDbBlockTableRecord
  2
*D22
  0
BLOCK_RECORD
  5
13A
330
1
100
AcDbSymbolTableRecord
100
AcDbBlockTableRecord
  2
*D23
  0
BLOCK_RECORD
  5
149
330
1
100
AcDbSymbolTableRecord
100
AcDbBlockTableRecord
  2
*D24
  0
BLOCK_RECORD
  5
167
330
1
100
AcDbSymbolTableRecord
100
AcDbBlockTableRecord
  2
*D25
  0
ENDTAB
  0
ENDSEC
  0
SECTION
  2
BLOCKS
  0
BLOCK
  5
20
330
1F
100
AcDbEntity
  8
0
100
AcDbBlockBegin
  2
*MODEL_SPACE
 70
     0
 10
0.0
 20
0.0
 30
0.0
  3
*MODEL_SPACE
  1

  0
ENDBLK
  5
21
330
1F
100
AcDbEntity
  8
0
100
AcDbBlockEnd
  0
BLOCK
  5
1C
330
1B
100
AcDbEntity
 67
     1
  8
0
100
AcDbBlockBegin
  2
*PAPER_SPACE
 70
     0
 10
0.0
 20
0.0
 30
0.0
  3
*PAPER_SPACE
  1

  0
ENDBLK
  5
1D
330
1B
100
AcDbEntity
 67
     1
  8
0
100
AcDbBlockEnd
  0
BLOCK
  5
4C
330
4B
100
AcDbEntity
  8
0
100
AcDbBlockBegin
  2
EX_NORM
 70
     0
 10
0.0
 20
0.0
 30
0.0
  3
EX_NORM
  1

  0
LINE
  5
75
330
4B
100
AcDbEntity
  8
0
  6
CONTINUOUS
 62
     0
100
AcDbLine
 10
0.0
 20
0.0
 30
0.0
 11
-1.0
 21
0.0
 31
0.0
  0
LINE
  5
76
330
4B
100
AcDbEntity
  8
0
  6
CONTINUOUS
 62
     0
100
AcDbLine
 10
0.0
 20
0.0
 30
0.0
 11
-1.0
 21
0.166666667
 31
0.0
  0
LINE
  5
77
330
4B
100
AcDbEntity
  8
0
  6
CONTINUOUS
 62
     0
100
AcDbLine
 10
0.0
 20
0.0
 30
0.0
 11
-1.0
 21
-0.166666667
 31
0.0
  0
ENDBLK
  5
4D
330
4B
100
AcDbEntity
  8
0
100
AcDbBlockEnd
  0
BLOCK
  5
4F
330
4E
100
AcDbEntity
  8
0
100
AcDbBlockBegin
  2
EX_BNORM
 70
     0
 10
0.0
 20
0.0
 30
0.0
  3
EX_BNORM
  1

  0
LINE
  5
78
330
4E
100
AcDbEntity
  8
0
  6
CONTINUOUS
 62
     0
100
AcDbLine
 10
0.0
 20
0.0
 30
0.0
 11
-1.0
 21
0.0
 31
0.0
  0
LINE
  5
79
330
4E
100
AcDbEntity
  8
0
  6
CONTINUOUS
 62
     0
100
AcDbLine
 10
0.0
 20
0.0
 30
0.0
 11
-1.0
 21
0.166666667
 31
0.0
  0
LINE
  5
7A
330
4E
100
AcDbEntity
  8
0
  6
CONTINUOUS
 62
     0
100
AcDbLine
 10
0.0
 20
0.0
 30
0.0
 11
-1.0
 21
-0.166666667
 31
0.0
  0
LINE
  5
7B
330
4E
100
AcDbEntity
  8
0
  6
CONTINUOUS
 62
     0
100
AcDbLine
 10
0.0
 20
0.0
 30
0.0
 11
-1.0
 21
0.083333333
 31
0.0
  0
LINE
  5
7C
330
4E
100
AcDbEntity
  8
0
  6
CONTINUOUS
 62
     0
100
AcDbLine
 10
0.0
 20
0.0
 30
0.0
 11
-1.0
 21
-0.083333333
 31
0.0
  0
LINE
  5
7D
330
4E
100
AcDbEntity
  8
0
  6
CONTINUOUS
 62
     0
100
AcDbLine
 10
-1.0
 20
0.166666667
 30
0.0
 11
-1.0
 21
-0.166666667
 31
0.0
  0
ENDBLK
  5
50
330
4E
100
AcDbEntity
  8
0
100
AcDbBlockEnd
  0
BLOCK
  5
52
330
51
100
AcDbEntity
  8
0
100
AcDbBlockBegin
  2
EX_BCIR
 70
     0
 10
0.0
 20
0.0
 30
0.0
  3
EX_BCIR
  1

  0
LINE
  5
7E
330
51
100
AcDbEntity
  8
0
  6
CONTINUOUS
 62
     0
100
AcDbLine
 10
0.0
 20
0.0
 30
0.0
 11
-1.0
 21
0.0
 31
0.0
  0
CIRCLE
  5
7F
330
51
100
AcDbEntity
  8
0
  6
CONTINUOUS
 62
     0
100
AcDbCircle
 10
0.0
 20
0.0
 30
0.0
 40
0.5
  0
CIRCLE
  5
80
330
51
100
AcDbEntity
  8
0
  6
CONTINUOUS
 62
     0
100
AcDbCircle
 10
0.0
 20
0.0
 30
0.0
 40
0.25
  0
ENDBLK
  5
53
330
51
100
AcDbEntity
  8
0
100
AcDbBlockEnd
  0
BLOCK
  5
55
330
54
100
AcDbEntity
  8
0
100
AcDbBlockBegin
  2
EX_RCIVIL
 70
     0
 10
0.0
 20
0.0
 30
0.0
  3
EX_RCIVIL
  1

  0
LINE
  5
81
330
54
100
AcDbEntity
  8
0
  6
CONTINUOUS
 62
     0
100
AcDbLine
 10
0.0
 20
0.0
 30
0.0
 11
-1.0
 21
0.0
 31
0.0
  0
LINE
  5
82
330
54
100
AcDbEntity
  8
0
  6
CONTINUOUS
 62
     0
100
AcDbLine
 10
-1.0
 20
-0.25
 30
0.0
 11
0.0
 21
-0.25
 31
0.0
  0
LINE
  5
83
330
54
100
AcDbEntity
  8
0
  6
CONTINUOUS
 62
     0
100
AcDbLine
 10
-1.0
 20
-0.125
 30
0.0
 11
0.0
 21
-0.125
 31
0.0
  0
ENDBLK
  5
56
330
54
100
AcDbEntity
  8
0
100
AcDbBlockEnd
  0
BLOCK
  5
58
330
57
100
AcDbEntity
  8
0
100
AcDbBlockBegin
  2
EX_SLANT
 70
     0
 10
0.0
 20
0.0
 30
0.0
  3
EX_SLANT
  1

  0
LINE
  5
84
330
57
100
AcDbEntity
  8
0
  6
CONTINUOUS
 62
     0
100
AcDbLine
 10
0.0
 20
0.0
 30
0.0
 11
-1.0
 21
0.0
 31
0.0
  0
LINE
  5
85
330
57
100
AcDbEntity
  8
0
  6
CONTINUOUS
 62
     0
100
AcDbLine
 10
0.707106781
 20
0.707106781
 30
0.0
 11
-0.707106781
 21
-0.707106781
 31
0.0
  0
ENDBLK
  5
59
330
57
100
AcDbEntity
  8
0
100
AcDbBlockEnd
  0
BLOCK
  5
5B
330
5A
100
AcDbEntity
  8
0
100
AcDbBlockBegin
  2
EX_NONE
 70
     0
 10
0.0
 20
0.0
 30
0.0
  3
EX_NONE
  1

  0
LINE
  5
86
330
5A
100
AcDbEntity
  8
0
  6
CONTINUOUS
 62
     0
100
AcDbLine
 10
0.0
 20
0.0
 30
0.0
 11
-1.0
 21
0.0
 31
0.0
  0
ENDBLK
  5
5C
330
5A
100
AcDbEntity
  8
0
100
AcDbBlockEnd
  0
BLOCK
  5
5E
330
5D
100
AcDbEntity
  8
0
100
AcDbBlockBegin
  2
EX_CIVIL
 70
     0
 10
0.0
 20
0.0
 30
0.0
  3
EX_CIVIL
  1

  0
LINE
  5
87
330
5D
100
AcDbEntity
  8
0
  6
CONTINUOUS
 62
     0
100
AcDbLine
 10
0.0
 20
0.0
 30
0.0
 11
-1.0
 21
0.0
 31
0.0
  0
LINE
  5
88
330
5D
100
AcDbEntity
  8
0
  6
CONTINUOUS
 62
     0
100
AcDbLine
 10
-1.0
 20
0.25
 30
0.0
 11
0.0
 21
0.25
 31
0.0
  0
LINE
  5
89
330
5D
100
AcDbEntity
  8
0
  6
CONTINUOUS
 62
     0
100
AcDbLine
 10
-1.0
 20
0.125
 30
0.0
 11
0.0
 21
0.125
 31
0.0
  0
ENDBLK
  5
5F
330
5D
100
AcDbEntity
  8
0
100
AcDbBlockEnd
  0
BLOCK
  5
61
330
60
100
AcDbEntity
  8
0
100
AcDbBlockBegin
  2
EX_WCIR
 70
     0
 10
0.0
 20
0.0
 30
0.0
  3
EX_WCIR
  1

  0
LINE
  5
8A
330
60
100
AcDbEntity
  8
0
  6
CONTINUOUS
 62
     0
100
AcDbLine
 10
0.0
 20
0.0
 30
0.0
 11
-1.0
 21
0.0
 31
0.0
  0
CIRCLE
  5
8B
330
60
100
AcDbEntity
  8
0
  6
CONTINUOUS
 62
     0
100
AcDbCircle
 10
0.0
 20
0.0
 30
0.0
 40
0.5
  0
ENDBLK
  5
62
330
60
100
AcDbEntity
  8
0
100
AcDbBlockEnd
  0
BLOCK
  5
64
330
63
100
AcDbEntity
  8
0
100
AcDbBlockBegin
  2
EX_WCIR2
 70
     0
 10
0.0
 20
0.0
 30
0.0
  3
EX_WCIR2
  1

  0
LINE
  5
8C
330
63
100
AcDbEntity
  8
0
  6
CONTINUOUS
 62
     0
100
AcDbLine
 10
-0.5
 20
0.0
 30
0.0
 11
-1.0
 21
0.0
 31
0.0
  0
CIRCLE
  5
8D
330
63
100
AcDbEntity
  8
0
  6
CONTINUOUS
 62
     0
100
AcDbCircle
 10
0.0
 20
0.0
 30
0.0
 40
0.5
  0
ENDBLK
  5
65
330
63
100
AcDbEntity
  8
0
100
AcDbBlockEnd
  0
BLOCK
  5
67
330
66
100
AcDbEntity
  8
0
100
AcDbBlockBegin
  2
EX_WNORM
 70
     0
 10
0.0
 20
0.0
 30
0.0
  3
EX_WNORM
  1

  0
LINE
  5
8E
330
66
100
AcDbEntity
  8
0
  6
CONTINUOUS
 62
     0
100
AcDbLine
 10
-1.0
 20
0.0
 30
0.0
 11
-1.0
 21
0.0
 31
0.0
  0
LINE
  5
8F
330
66
100
AcDbEntity
  8
0
  6
CONTINUOUS
 62
     0
100
AcDbLine
 10
0.0
 20
0.0
 30
0.0
 11
-1.0
 21
0.166666667
 31
0.0
  0
LINE
  5
90
330
66
100
AcDbEntity
  8
0
  6
CONTINUOUS
 62
     0
100
AcDbLine
 10
0.0
 20
0.0
 30
0.0
 11
-1.0
 21
-0.166666667
 31
0.0
  0
LINE
  5
91
330
66
100
AcDbEntity
  8
0
  6
CONTINUOUS
 62
     0
100
AcDbLine
 10
-1.0
 20
0.166666667
 30
0.0
 11
-1.0
 21
-0.166666667
 31
0.0
  0
ENDBLK
  5
68
330
66
100
AcDbEntity
  8
0
100
AcDbBlockEnd
  0
BLOCK
  5
6A
330
69
100
AcDbEntity
  8
0
100
AcDbBlockBegin
  2
EX_NNORM
 70
     0
 10
0.0
 20
0.0
 30
0.0
  3
EX_NNORM
  1

  0
LINE
  5
92
330
69
100
AcDbEntity
  8
0
  6
CONTINUOUS
 62
     0
100
AcDbLine
 10
0.0
 20
0.0
 30
0.0
 11
-1.0
 21
0.0
 31
0.0
  0
LINE
  5
93
330
69
100
AcDbEntity
  8
0
  6
CONTINUOUS
 62
     0
100
AcDbLine
 10
0.0
 20
0.0
 30
0.0
 11
-1.0
 21
0.166666667
 31
0.0
  0
LINE
  5
94
330
69
100
AcDbEntity
  8
0
  6
CONTINUOUS
 62
     0
100
AcDbLine
 10
0.0
 20
0.0
 30
0.0
 11
-1.0
 21
-0.166666667
 31
0.0
  0
LINE
  5
95
330
69
100
AcDbEntity
  8
0
  6
CONTINUOUS
 62
     0
100
AcDbLine
 10
-1.0
 20
0.166666667
 30
0.0
 11
-1.0
 21
-0.166666667
 31
0.0
  0
ENDBLK
  5
6B
330
69
100
AcDbEntity
  8
0
100
AcDbBlockEnd
  0
BLOCK
  5
6D
330
6C
100
AcDbEntity
  8
0
100
AcDbBlockBegin
  2
EX_BBOX
 70
     0
 10
0.0
 20
0.0
 30
0.0
  3
EX_BBOX
  1

  0
LINE
  5
96
330
6C
100
AcDbEntity
  8
0
  6
CONTINUOUS
 62
     0
100
AcDbLine
 10
0.0
 20
0.0
 30
0.0
 11
-1.0
 21
0.0
 31
0.0
  0
LINE
  5
97
330
6C
100
AcDbEntity
  8
0
  6
CONTINUOUS
 62
     0
100
AcDbLine
 10
-0.5
 20
0.5
 30
0.0
 11
0.5
 21
0.5
 31
0.0
  0
LINE
  5
98
330
6C
100
AcDbEntity
  8
0
  6
CONTINUOUS
 62
     0
100
AcDbLine
 10
0.5
 20
0.5
 30
0.0
 11
0.5
 21
-0.5
 31
0.0
  0
LINE
  5
99
330
6C
100
AcDbEntity
  8
0
  6
CONTINUOUS
 62
     0
100
AcDbLine
 10
0.5
 20
-0.5
 30
0.0
 11
-0.5
 21
-0.5
 31
0.0
  0
LINE
  5
9A
330
6C
100
AcDbEntity
  8
0
  6
CONTINUOUS
 62
     0
100
AcDbLine
 10
-0.5
 20
-0.5
 30
0.0
 11
-0.5
 21
0.5
 31
0.0
  0
LINE
  5
9B
330
6C
100
AcDbEntity
  8
0
  6
CONTINUOUS
 62
     0
100
AcDbLine
 10
-0.25
 20
0.25
 30
0.0
 11
0.25
 21
0.25
 31
0.0
  0
LINE
  5
9C
330
6C
100
AcDbEntity
  8
0
  6
CONTINUOUS
 62
     0
100
AcDbLine
 10
0.25
 20
0.25
 30
0.0
 11
0.25
 21
-0.25
 31
0.0
  0
LINE
  5
9D
330
6C
100
AcDbEntity
  8
0
  6
CONTINUOUS
 62
     0
100
AcDbLine
 10
0.25
 20
-0.25
 30
0.0
 11
-0.25
 21
-0.25
 31
0.0
  0
LINE
  5
9E
330
6C
100
AcDbEntity
  8
0
  6
CONTINUOUS
 62
     0
100
AcDbLine
 10
-0.25
 20
-0.25
 30
0.0
 11
-0.25
 21
0.25
 31
0.0
  0
ENDBLK
  5
6E
330
6C
100
AcDbEntity
  8
0
100
AcDbBlockEnd
  0
BLOCK
  5
70
330
6F
100
AcDbEntity
  8
0
100
AcDbBlockBegin
  2
EX_WBOX
 70
     0
 10
0.0
 20
0.0
 30
0.0
  3
EX_WBOX
  1

  0
LINE
  5
9F
330
6F
100
AcDbEntity
  8
0
  6
CONTINUOUS
 62
     0
100
AcDbLine
 10
-0.5
 20
0.0
 30
0.0
 11
-1.0
 21
0.0
 31
0.0
  0
LINE
  5
A0
330
6F
100
AcDbEntity
  8
0
  6
CONTINUOUS
 62
     0
100
AcDbLine
 10
-0.5
 20
0.5
 30
0.0
 11
0.5
 21
0.5
 31
0.0
  0
LINE
  5
A1
330
6F
100
AcDbEntity
  8
0
  6
CONTINUOUS
 62
     0
100
AcDbLine
 10
0.5
 20
0.5
 30
0.0
 11
0.5
 21
-0.5
 31
0.0
  0
LINE
  5
A2
330
6F
100
AcDbEntity
  8
0
  6
CONTINUOUS
 62
     0
100
AcDbLine
 10
0.5
 20
-0.5
 30
0.0
 11
-0.5
 21
-0.5
 31
0.0
  0
LINE
  5
A3
330
6F
100
AcDbEntity
  8
0
  6
CONTINUOUS
 62
     0
100
AcDbLine
 10
-0.5
 20
-0.5
 30
0.0
 11
-0.5
 21
0.5
 31
0.0
  0
ENDBLK
  5
71
330
6F
100
AcDbEntity
  8
0
100
AcDbBlockEnd
  0
BLOCK
  5
73
330
72
100
AcDbEntity
  8
0
100
AcDbBlockBegin
  2
EX_INTEGRAL
 70
     0
 10
0.0
 20
0.0
 30
0.0
  3
EX_INTEGRAL
  1

  0
LINE
  5
A4
330
72
100
AcDbEntity
  8
0
  6
CONTINUOUS
 62
     0
100
AcDbLine
 10
0.0
 20
0.0
 30
0.0
 11
-1.0
 21
0.0
 31
0.0
  0
ARC
  5
A5
330
72
100
AcDbEntity
  8
0
  6
CONTINUOUS
 62
     0
100
AcDbCircle
 10
0.542115
 20
0.164992
 30
0.0
 40
0.56667
100
AcDbArc
 50
73.07249033629006
 51
196.9275130221199
  0
ARC
  5
A6
330
72
100
AcDbEntity
  8
0
  6
CONTINUOUS
 62
     0
100
AcDbCircle
 10
-0.542115
 20
-0.164992
 30
0.0
 40
0.56667
100
AcDbArc
 50
253.0724869220464
 51
16.9275130559125
  0
ENDBLK
  5
74
330
72
100
AcDbEntity
  8
0
100
AcDbBlockEnd
  0
BLOCK
  5
D3
330
D2
100
AcDbEntity
  8
0
100
AcDbBlockBegin
  2
*D15
 70
     1
 10
0.0
 20
0.0
 30
0.0
  3
*D15
  1

  0
LINE
  5
D5
330
D2
100
AcDbEntity
  8
図
  6
CONTINUOUS
 62
     3
100
AcDbLine
 10
436.2499999701977
 20
341.25
 30
0.0
 11
493.25
 21
341.2499999999999
 31
0.0
  0
LINE
  5
D6
330
D2
100
AcDbEntity
  8
図
  6
CONTINUOUS
 62
     3
100
AcDbLine
 10
436.2499999701977
 20
303.25
 30
0.0
 11
493.25
 21
303.2499999999999
 31
0.0
  0
LINE
  5
D7
330
D2
100
AcDbEntity
  8
図
  6
CONTINUOUS
 62
     3
100
AcDbLine
 10
490.75
 20
333.7499999999999
 30
0.0
 11
490.75
 21
310.7499999999999
 31
0.0
  0
INSERT
  5
D8
330
D2
100
AcDbEntity
  8
図
 62
     3
100
AcDbBlockReference
  2
EX_NORM
 10
490.75
 20
341.2499999999999
 30
0.0
 41
7.5
 42
7.5
 43
7.5
 50
90.0
  0
INSERT
  5
D9
330
D2
100
AcDbEntity
  8
図
 62
     3
100
AcDbBlockReference
  2
EX_NORM
 10
490.75
 20
303.2499999999999
 30
0.0
 41
7.5
 42
7.5
 43
7.5
 50
270.0
  0
MTEXT
  5
DA
330
D2
100
AcDbEntity
  8
図
 62
     2
100
AcDbMText
 10
484.8750000149012
 20
322.2499999999999
 30
0.0
 40
10.0
 41
0.0
 71
     5
 72
     1
  1
38
  7
EXCADDIM1
 11
0.0
 21
1.0
 31
0.0
  0
POINT
  5
DB
330
D2
100
AcDbEntity
  8
DEFPOINTS
 62
     0
100
AcDbPoint
 10
434.5
 20
341.25
 30
0.0
  0
POINT
  5
DC
330
D2
100
AcDbEntity
  8
DEFPOINTS
 62
     0
100
AcDbPoint
 10
434.5
 20
303.25
 30
0.0
  0
POINT
  5
DD
330
D2
100
AcDbEntity
  8
DEFPOINTS
 62
     0
100
AcDbPoint
 10
490.75
 20
303.2499999999999
 30
0.0
  0
ENDBLK
  5
D4
330
D2
100
AcDbEntity
  8
0
100
AcDbBlockEnd
  0
BLOCK
  5
E0
330
DF
100
AcDbEntity
  8
0
100
AcDbBlockBegin
  2
*D16
 70
     1
 10
0.0
 20
0.0
 30
0.0
  3
*D16
  1

  0
LINE
  5
E2
330
DF
100
AcDbEntity
  8
図
  6
CONTINUOUS
 62
     3
100
AcDbLine
 10
458.3249999701977
 20
330.74999999998
 30
0.0
 11
475.0
 21
330.7499999999799
 31
0.0
  0
LINE
  5
E3
330
DF
100
AcDbEntity
  8
図
  6
CONTINUOUS
 62
     3
100
AcDbLine
 10
457.8999999701977
 20
312.74999999998
 30
0.0
 11
475.0
 21
312.7499999999799
 31
0.0
  0
LINE
  5
E4
330
DF
100
AcDbEntity
  8
図
  6
CONTINUOUS
 62
     3
100
AcDbLine
 10
472.5
 20
323.2499999999799
 30
0.0
 11
472.5
 21
320.2499999999799
 31
0.0
  0
INSERT
  5
E5
330
DF
100
AcDbEntity
  8
図
 62
     3
100
AcDbBlockReference
  2
EX_NORM
 10
472.5
 20
330.7499999999799
 30
0.0
 41
7.5
 42
7.5
 43
7.5
 50
90.0
  0
INSERT
  5
E6
330
DF
100
AcDbEntity
  8
図
 62
     3
100
AcDbBlockReference
  2
EX_NORM
 10
472.5
 20
312.7499999999799
 30
0.0
 41
7.5
 42
7.5
 43
7.5
 50
270.0
  0
MTEXT
  5
E7
330
DF
100
AcDbEntity
  8
図
 62
     2
100
AcDbMText
 10
466.6250000149012
 20
321.74999999998
 30
0.0
 40
10.0
 41
0.0
 71
     5
 72
     1
  1
18
  7
EXCADDIM1
 11
0.0
 21
1.0
 31
0.0
  0
POINT
  5
E8
330
DF
100
AcDbEntity
  8
DEFPOINTS
 62
     0
100
AcDbPoint
 10
456.575
 20
330.74999999998
 30
0.0
  0
POINT
  5
E9
330
DF
100
AcDbEntity
  8
DEFPOINTS
 62
     0
100
AcDbPoint
 10
456.15
 20
312.74999999998
 30
0.0
  0
POINT
  5
EA
330
DF
100
AcDbEntity
  8
DEFPOINTS
 62
     0
100
AcDbPoint
 10
472.5
 20
312.7499999999799
 30
0.0
  0
ENDBLK
  5
E1
330
DF
100
AcDbEntity
  8
0
100
AcDbBlockEnd
  0
BLOCK
  5
ED
330
EC
100
AcDbEntity
  8
0
100
AcDbBlockBegin
  2
*D17
 70
     1
 10
0.0
 20
0.0
 30
0.0
  3
*D17
  1

  0
LINE
  5
EF
330
EC
100
AcDbEntity
  8
図
  6
CONTINUOUS
 62
     3
100
AcDbLine
 10
174.0820292488
 20
341.4999999701977
 30
0.0
 11
174.0820292488
 21
361.25
 31
0.0
  0
LINE
  5
F0
330
EC
100
AcDbEntity
  8
図
  6
CONTINUOUS
 62
     3
100
AcDbLine
 10
202.0820292488
 20
341.4999999701977
 30
0.0
 11
202.0820292488
 21
361.25
 31
0.0
  0
LINE
  5
F1
330
EC
100
AcDbEntity
  8
図
  6
CONTINUOUS
 62
     3
100
AcDbLine
 10
181.5820292488
 20
358.75
 30
0.0
 11
194.5820292488
 21
358.75
 31
0.0
  0
INSERT
  5
F2
330
EC
100
AcDbEntity
  8
図
 62
     3
100
AcDbBlockReference
  2
EX_NORM
 10
174.0820292488
 20
358.75
 30
0.0
 41
7.5
 42
7.5
 43
7.5
 50
180.0
  0
INSERT
  5
F3
330
EC
100
AcDbEntity
  8
図
 62
     3
100
AcDbBlockReference
  2
EX_NORM
 10
202.0820292488
 20
358.75
 30
0.0
 41
7.5
 42
7.5
 43
7.5
  0
MTEXT
  5
F4
330
EC
100
AcDbEntity
  8
図
 62
     2
100
AcDbMText
 10
188.0820292488001
 20
364.6249999850988
 30
0.0
 40
10.0
 41
0.0
 71
     5
 72
     1
  1
28
  7
EXCADDIM1
  0
POINT
  5
F5
330
EC
100
AcDbEntity
  8
DEFPOINTS
 62
     0
100
AcDbPoint
 10
174.0820292488
 20
339.75
 30
0.0
  0
POINT
  5
F6
330
EC
100
AcDbEntity
  8
DEFPOINTS
 62
     0
100
AcDbPoint
 10
202.0820292488
 20
339.75
 30
0.0
  0
POINT
  5
F7
330
EC
100
AcDbEntity
  8
DEFPOINTS
 62
     0
100
AcDbPoint
 10
202.0820292488
 20
358.75
 30
0.0
  0
ENDBLK
  5
EE
330
EC
100
AcDbEntity
  8
0
100
AcDbBlockEnd
  0
BLOCK
  5
FA
330
F9
100
AcDbEntity
  8
0
100
AcDbBlockBegin
  2
*D18
 70
     1
 10
0.0
 20
0.0
 30
0.0
  3
*D18
  1

  0
LINE
  5
FC
330
F9
100
AcDbEntity
  8
図
  6
CONTINUOUS
 62
     3
100
AcDbLine
 10
90.08202924879998
 20
278.4999999701977
 30
0.0
 11
90.08202924879998
 21
389.5
 31
0.0
  0
LINE
  5
FD
330
F9
100
AcDbEntity
  8
図
  6
CONTINUOUS
 62
     3
100
AcDbLine
 10
286.0820292488
 20
278.4999999701977
 30
0.0
 11
286.0820292488
 21
389.5
 31
0.0
  0
LINE
  5
FE
330
F9
100
AcDbEntity
  8
図
  6
CONTINUOUS
 62
     3
100
AcDbLine
 10
97.58202924879998
 20
387.0
 30
0.0
 11
278.5820292488
 21
387.0
 31
0.0
  0
INSERT
  5
FF
330
F9
100
AcDbEntity
  8
図
 62
     3
100
AcDbBlockReference
  2
EX_NORM
 10
90.08202924879998
 20
387.0
 30
0.0
 41
7.5
 42
7.5
 43
7.5
 50
180.0
  0
INSERT
  5
100
330
F9
100
AcDbEntity
  8
図
 62
     3
100
AcDbBlockReference
  2
EX_NORM
 10
286.0820292488
 20
387.0
 30
0.0
 41
7.5
 42
7.5
 43
7.5
  0
MTEXT
  5
101
330
F9
100
AcDbEntity
  8
図
 62
     2
100
AcDbMText
 10
188.0820292488
 20
392.8749999850988
 30
0.0
 40
10.0
 41
0.0
 71
     5
 72
     1
  1
196
  7
EXCADDIM1
  0
POINT
  5
102
330
F9
100
AcDbEntity
  8
DEFPOINTS
 62
     0
100
AcDbPoint
 10
90.08202924879998
 20
276.75
 30
0.0
  0
POINT
  5
103
330
F9
100
AcDbEntity
  8
DEFPOINTS
 62
     0
100
AcDbPoint
 10
286.0820292488
 20
276.75
 30
0.0
  0
POINT
  5
104
330
F9
100
AcDbEntity
  8
DEFPOINTS
 62
     0
100
AcDbPoint
 10
286.0820292488
 20
387.0
 30
0.0
  0
ENDBLK
  5
FB
330
F9
100
AcDbEntity
  8
0
100
AcDbBlockEnd
  0
BLOCK
  5
107
330
106
100
AcDbEntity
  8
0
100
AcDbBlockBegin
  2
*D19
 70
     1
 10
0.0
 20
0.0
 30
0.0
  3
*D19
  1

  0
LINE
  5
109
330
106
100
AcDbEntity
  8
図
  6
CONTINUOUS
 62
     3
100
AcDbLine
 10
78.082029248803
 20
278.4999999701977
 30
0.0
 11
78.082029248803
 21
413.25
 31
0.0
  0
LINE
  5
10A
330
106
100
AcDbEntity
  8
図
  6
CONTINUOUS
 62
     3
100
AcDbLine
 10
298.0820292488
 20
272.4999999701977
 30
0.0
 11
298.0820292488
 21
413.25
 31
0.0
  0
LINE
  5
10B
330
106
100
AcDbEntity
  8
図
  6
CONTINUOUS
 62
     3
100
AcDbLine
 10
85.582029248803
 20
410.75
 30
0.0
 11
290.5820292488
 21
410.75
 31
0.0
  0
INSERT
  5
10C
330
106
100
AcDbEntity
  8
図
 62
     3
100
AcDbBlockReference
  2
EX_NORM
 10
78.082029248803
 20
410.75
 30
0.0
 41
7.5
 42
7.5
 43
7.5
 50
180.0
  0
INSERT
  5
10D
330
106
100
AcDbEntity
  8
図
 62
     3
100
AcDbBlockReference
  2
EX_NORM
 10
298.0820292488
 20
410.75
 30
0.0
 41
7.5
 42
7.5
 43
7.5
  0
MTEXT
  5
10E
330
106
100
AcDbEntity
  8
図
 62
     2
100
AcDbMText
 10
188.0820292488015
 20
416.6249999850988
 30
0.0
 40
10.0
 41
0.0
 71
     5
 72
     1
  1
220
  7
EXCADDIM1
  0
POINT
  5
10F
330
106
100
AcDbEntity
  8
DEFPOINTS
 62
     0
100
AcDbPoint
 10
78.082029248803
 20
276.75
 30
0.0
  0
POINT
  5
110
330
106
100
AcDbEntity
  8
DEFPOINTS
 62
     0
100
AcDbPoint
 10
298.0820292488
 20
270.75
 30
0.0
  0
POINT
  5
111
330
106
100
AcDbEntity
  8
DEFPOINTS
 62
     0
100
AcDbPoint
 10
298.0820292488
 20
410.75
 30
0.0
  0
ENDBLK
  5
108
330
106
100
AcDbEntity
  8
0
100
AcDbBlockEnd
  0
BLOCK
  5
114
330
113
100
AcDbEntity
  8
0
100
AcDbBlockBegin
  2
*D20
 70
     1
 10
0.0
 20
0.0
 30
0.0
  3
*D20
  1

  0
LINE
  5
116
330
113
100
AcDbEntity
  8
図
  6
CONTINUOUS
 62
     3
100
AcDbLine
 10
375.0
 20
247.9999999701977
 30
0.0
 11
375.0
 21
262.75
 31
0.0
  0
LINE
  5
117
330
113
100
AcDbEntity
  8
図
  6
CONTINUOUS
 62
     3
100
AcDbLine
 10
394.0000000000001
 20
247.9999999701977
 30
0.0
 11
394.0000000000001
 21
262.75
 31
0.0
  0
LINE
  5
118
330
113
100
AcDbEntity
  8
図
  6
CONTINUOUS
 62
     3
100
AcDbLine
 10
382.5
 20
260.25
 30
0.0
 11
386.5000000000001
 21
260.25
 31
0.0
  0
INSERT
  5
119
330
113
100
AcDbEntity
  8
図
 62
     3
100
AcDbBlockReference
  2
EX_NORM
 10
375.0
 20
260.25
 30
0.0
 41
7.5
 42
7.5
 43
7.5
 50
180.0
  0
INSERT
  5
11A
330
113
100
AcDbEntity
  8
図
 62
     3
100
AcDbBlockReference
  2
EX_NORM
 10
394.0000000000001
 20
260.25
 30
0.0
 41
7.5
 42
7.5
 43
7.5
  0
MTEXT
  5
11B
330
113
100
AcDbEntity
  8
図
 62
     2
100
AcDbMText
 10
410.2500000000001
 20
266.1249999850988
 30
0.0
 40
10.0
 41
0.0
 71
     5
 72
     1
  1
19
  7
EXCADDIM1
  0
POINT
  5
11C
330
113
100
AcDbEntity
  8
DEFPOINTS
 62
     0
100
AcDbPoint
 10
375.0
 20
246.25
 30
0.0
  0
POINT
  5
11D
330
113
100
AcDbEntity
  8
DEFPOINTS
 62
     0
100
AcDbPoint
 10
394.0000000000001
 20
246.25
 30
0.0
  0
POINT
  5
11E
330
113
100
AcDbEntity
  8
DEFPOINTS
 62
     0
100
AcDbPoint
 10
394.0000000000001
 20
260.25
 30
0.0
  0
ENDBLK
  5
115
330
113
100
AcDbEntity
  8
0
100
AcDbBlockEnd
  0
BLOCK
  5
121
330
120
100
AcDbEntity
  8
0
100
AcDbBlockBegin
  2
*D21
 70
     1
 10
0.0
 20
0.0
 30
0.0
  3
*D21
  1

  0
LINE
  5
123
330
120
100
AcDbEntity
  8
図
  6
CONTINUOUS
 62
     3
100
AcDbLine
 10
373.5000000000001
 20
334.0736629046477
 30
0.0
 11
373.5000000000001
 21
382.25
 31
0.0
  0
LINE
  5
124
330
120
100
AcDbEntity
  8
図
  6
CONTINUOUS
 62
     3
100
AcDbLine
 10
434.5
 20
342.9999999701977
 30
0.0
 11
434.5
 21
382.25
 31
0.0
  0
LINE
  5
125
330
120
100
AcDbEntity
  8
図
  6
CONTINUOUS
 62
     3
100
AcDbLine
 10
381.0000000000001
 20
379.75
 30
0.0
 11
427.0
 21
379.75
 31
0.0
  0
INSERT
  5
126
330
120
100
AcDbEntity
  8
図
 62
     3
100
AcDbBlockReference
  2
EX_NORM
 10
373.5000000000001
 20
379.75
 30
0.0
 41
7.5
 42
7.5
 43
7.5
 50
180.0
  0
INSERT
  5
127
330
120
100
AcDbEntity
  8
図
 62
     3
100
AcDbBlockReference
  2
EX_NORM
 10
434.5
 20
379.75
 30
0.0
 41
7.5
 42
7.5
 43
7.5
  0
MTEXT
  5
128
330
120
100
AcDbEntity
  8
図
 62
     2
100
AcDbMText
 10
404.0000000000001
 20
385.6249999850988
 30
0.0
 40
10.0
 41
0.0
 71
     5
 72
     1
  1
61
  7
EXCADDIM1
  0
POINT
  5
129
330
120
100
AcDbEntity
  8
DEFPOINTS
 62
     0
100
AcDbPoint
 10
373.5000000000001
 20
332.32366293445
 30
0.0
  0
POINT
  5
12A
330
120
100
AcDbEntity
  8
DEFPOINTS
 62
     0
100
AcDbPoint
 10
434.5
 20
341.25
 30
0.0
  0
POINT
  5
12B
330
120
100
AcDbEntity
  8
DEFPOINTS
 62
     0
100
AcDbPoint
 10
434.5
 20
379.75
 30
0.0
  0
ENDBLK
  5
122
330
120
100
AcDbEntity
  8
0
100
AcDbBlockEnd
  0
BLOCK
  5
12E
330
12D
100
AcDbEntity
  8
0
100
AcDbBlockBegin
  2
*D22
 70
     1
 10
0.0
 20
0.0
 30
0.0
  3
*D22
  1

  0
LINE
  5
130
330
12D
100
AcDbEntity
  8
図
  6
CONTINUOUS
 62
     3
100
AcDbLine
 10
434.5
 20
342.9999999701977
 30
0.0
 11
434.5
 21
364.5
 31
0.0
  0
LINE
  5
131
330
12D
100
AcDbEntity
  8
図
  6
CONTINUOUS
 62
     3
100
AcDbLine
 10
384.5
 20
333.4999999701977
 30
0.0
 11
384.5
 21
364.5
 31
0.0
  0
LINE
  5
132
330
12D
100
AcDbEntity
  8
図
  6
CONTINUOUS
 62
     3
100
AcDbLine
 10
427.0
 20
362.0
 30
0.0
 11
392.0
 21
362.0
 31
0.0
  0
INSERT
  5
133
330
12D
100
AcDbEntity
  8
図
 62
     3
100
AcDbBlockReference
  2
EX_NORM
 10
434.5
 20
362.0
 30
0.0
 41
7.5
 42
7.5
 43
7.5
  0
INSERT
  5
134
330
12D
100
AcDbEntity
  8
図
 62
     3
100
AcDbBlockReference
  2
EX_NORM
 10
384.5
 20
362.0
 30
0.0
 41
7.5
 42
7.5
 43
7.5
 50
180.0
  0
MTEXT
  5
135
330
12D
100
AcDbEntity
  8
図
 62
     2
100
AcDbMText
 10
409.5
 20
367.8749999850988
 30
0.0
 40
10.0
 41
0.0
 71
     5
 72
     1
  1
50
  7
EXCADDIM1
  0
POINT
  5
136
330
12D
100
AcDbEntity
  8
DEFPOINTS
 62
     0
100
AcDbPoint
 10
434.5
 20
341.25
 30
0.0
  0
POINT
  5
137
330
12D
100
AcDbEntity
  8
DEFPOINTS
 62
     0
100
AcDbPoint
 10
384.5
 20
331.75
 30
0.0
  0
POINT
  5
138
330
12D
100
AcDbEntity
  8
DEFPOINTS
 62
     0
100
AcDbPoint
 10
384.5
 20
362.0
 30
0.0
  0
ENDBLK
  5
12F
330
12D
100
AcDbEntity
  8
0
100
AcDbBlockEnd
  0
BLOCK
  5
13B
330
13A
100
AcDbEntity
  8
0
100
AcDbBlockBegin
  2
*D23
 70
     1
 10
0.0
 20
0.0
 30
0.0
  3
*D23
  1

  0
LINE
  5
13D
330
13A
100
AcDbEntity
  8
図
  6
CONTINUOUS
 62
     3
100
AcDbLine
 10
271.3320292786023
 20
246.75
 30
0.0
 11
261.75
 21
246.75
 31
0.0
  0
LINE
  5
13E
330
13A
100
AcDbEntity
  8
図
  6
CONTINUOUS
 62
     3
100
AcDbLine
 10
271.3320292786023
 20
234.75
 30
0.0
 11
261.75
 21
234.75
 31
0.0
  0
LINE
  5
13F
330
13A
100
AcDbEntity
  8
図
  6
CONTINUOUS
 62
     3
100
AcDbLine
 10
264.25
 20
246.75
 30
0.0
 11
264.25
 21
234.75
 31
0.0
  0
LINE
  5
140
330
13A
100
AcDbEntity
  8
図
  6
CONTINUOUS
 62
     3
100
AcDbLine
 10
264.25
 20
254.25
 30
0.0
 11
264.25
 21
261.75
 31
0.0
  0
LINE
  5
141
330
13A
100
AcDbEntity
  8
図
  6
CONTINUOUS
 62
     3
100
AcDbLine
 10
264.25
 20
227.25
 30
0.0
 11
264.25
 21
219.75
 31
0.0
  0
INSERT
  5
142
330
13A
100
AcDbEntity
  8
図
 62
     3
100
AcDbBlockReference
  2
EX_NORM
 10
264.25
 20
246.75
 30
0.0
 41
7.5
 42
7.5
 43
7.5
 50
270.0
  0
INSERT
  5
143
330
13A
100
AcDbEntity
  8
図
 62
     3
100
AcDbBlockReference
  2
EX_NORM
 10
264.25
 20
234.75
 30
0.0
 41
7.5
 42
7.5
 43
7.5
 50
90.0
  0
MTEXT
  5
144
330
13A
100
AcDbEntity
  8
図
 62
     2
100
AcDbMText
 10
258.3750000149012
 20
218.5
 30
0.0
 40
10.0
 41
0.0
 71
     5
 72
     1
  1
12
  7
EXCADDIM1
 11
0.0
 21
1.0
 31
0.0
  0
POINT
  5
145
330
13A
100
AcDbEntity
  8
DEFPOINTS
 62
     0
100
AcDbPoint
 10
273.0820292488
 20
246.75
 30
0.0
  0
POINT
  5
146
330
13A
100
AcDbEntity
  8
DEFPOINTS
 62
     0
100
AcDbPoint
 10
273.0820292488
 20
234.75
 30
0.0
  0
POINT
  5
147
330
13A
100
AcDbEntity
  8
DEFPOINTS
 62
     0
100
AcDbPoint
 10
264.25
 20
234.75
 30
0.0
  0
ENDBLK
  5
13C
330
13A
100
AcDbEntity
  8
0
100
AcDbBlockEnd
  0
BLOCK
  5
14A
330
149
100
AcDbEntity
  8
0
100
AcDbBlockBegin
  2
*D24
 70
     1
 10
0.0
 20
0.0
 30
0.0
  3
*D24
  1

  0
LINE
  5
14C
330
149
100
AcDbEntity
  8
図
  6
CONTINUOUS
 62
     3
100
AcDbLine
 10
202.3320292189977
 20
341.25
 30
0.0
 11
327.2499999999999
 21
341.25
 31
0.0
  0
LINE
  5
14D
330
149
100
AcDbEntity
  8
図
  6
CONTINUOUS
 62
     3
100
AcDbLine
 10
274.8320292189977
 20
234.75
 30
0.0
 11
327.2499999999999
 21
234.75
 31
0.0
  0
LINE
  5
14E
330
149
100
AcDbEntity
  8
図
  6
CONTINUOUS
 62
     3
100
AcDbLine
 10
324.7499999999999
 20
333.75
 30
0.0
 11
324.7499999999999
 21
242.25
 31
0.0
  0
INSERT
  5
14F
330
149
100
AcDbEntity
  8
図
 62
     3
100
AcDbBlockReference
  2
EX_NORM
 10
324.7499999999999
 20
341.25
 30
0.0
 41
7.5
 42
7.5
 43
7.5
 50
90.0
  0
INSERT
  5
150
330
149
100
AcDbEntity
  8
図
 62
     3
100
AcDbBlockReference
  2
EX_NORM
 10
324.7499999999999
 20
234.75
 30
0.0
 41
7.5
 42
7.5
 43
7.5
 50
270.0
  0
MTEXT
  5
151
330
149
100
AcDbEntity
  8
図
 62
     2
100
AcDbMText
 10
318.8750000149011
 20
288.0
 30
0.0
 40
10.0
 41
0.0
 71
     5
 72
     1
  1
106.5
  7
EXCADDIM1
 11
0.0
 21
1.0
 31
0.0
  0
POINT
  5
152
330
149
100
AcDbEntity
  8
DEFPOINTS
 62
     0
100
AcDbPoint
 10
200.5820292488001
 20
341.25
 30
0.0
  0
POINT
  5
153
330
149
100
AcDbEntity
  8
DEFPOINTS
 62
     0
100
AcDbPoint
 10
273.0820292488
 20
234.75
 30
0.0
  0
POINT
  5
154
330
149
100
AcDbEntity
  8
DEFPOINTS
 62
     0
100
AcDbPoint
 10
324.7499999999999
 20
234.75
 30
0.0
  0
ENDBLK
  5
14B
330
149
100
AcDbEntity
  8
0
100
AcDbBlockEnd
  0
BLOCK
  5
168
330
167
100
AcDbEntity
  8
0
100
AcDbBlockBegin
  2
*D25
 70
     1
 10
0.0
 20
0.0
 30
0.0
  3
*D25
  1

  0
LINE
  5
16A
330
167
100
AcDbEntity
  8
図
  6
CONTINUOUS
 62
     3
100
AcDbLine
 10
460.0749999403977
 20
330.74999999998
 30
0.0
 11
474.9250000000001
 21
330.7499999999799
 31
0.0
  0
LINE
  5
16B
330
167
100
AcDbEntity
  8
図
  6
CONTINUOUS
 62
     3
100
AcDbLine
 10
459.4397655356877
 20
341.25
 30
0.0
 11
474.9250000000001
 21
341.2499999999999
 31
0.0
  0
LINE
  5
16C
330
167
100
AcDbEntity
  8
図
  6
CONTINUOUS
 62
     3
100
AcDbLine
 10
472.4250000000001
 20
330.7499999999799
 30
0.0
 11
472.4250000000001
 21
341.2499999999999
 31
0.0
  0
LINE
  5
16D
330
167
100
AcDbEntity
  8
図
  6
CONTINUOUS
 62
     3
100
AcDbLine
 10
472.4250000000001
 20
323.2499999999799
 30
0.0
 11
472.4250000000001
 21
315.7499999999799
 31
0.0
  0
LINE
  5
16E
330
167
100
AcDbEntity
  8
図
  6
CONTINUOUS
 62
     3
100
AcDbLine
 10
472.4250000000001
 20
348.7499999999999
 30
0.0
 11
472.4250000000001
 21
356.2499999999999
 31
0.0
  0
INSERT
  5
16F
330
167
100
AcDbEntity
  8
図
 62
     3
100
AcDbBlockReference
  2
EX_NORM
 10
472.4250000000001
 20
330.7499999999799
 30
0.0
 41
7.5
 42
7.5
 43
7.5
 50
90.0
  0
INSERT
  5
170
330
167
100
AcDbEntity
  8
図
 62
     3
100
AcDbBlockReference
  2
EX_NORM
 10
472.4250000000001
 20
341.2499999999999
 30
0.0
 41
7.5
 42
7.5
 43
7.5
 50
270.0
  0
MTEXT
  5
171
330
167
100
AcDbEntity
  8
図
 62
     2
100
AcDbMText
 10
466.5500000149012
 20
335.99999999999
 30
0.0
 40
10.0
 41
0.0
 71
     5
 72
     1
  1
10
  7
EXCADDIM2
 11
0.0
 21
1.0
 31
0.0
  0
POINT
  5
172
330
167
100
AcDbEntity
  8
DEFPOINTS
 62
     0
100
AcDbPoint
 10
458.3249999702
 20
330.74999999998
 30
0.0
  0
POINT
  5
173
330
167
100
AcDbEntity
  8
DEFPOINTS
 62
     0
100
AcDbPoint
 10
457.6897655654901
 20
341.25
 30
0.0
  0
POINT
  5
174
330
167
100
AcDbEntity
  8
DEFPOINTS
 62
     0
100
AcDbPoint
 10
472.4250000000001
 20
341.2499999999999
 30
0.0
  0
ENDBLK
  5
169
330
167
100
AcDbEntity
  8
0
100
AcDbBlockEnd
  0
ENDSEC
  0
SECTION
  2
ENTITIES
  0
TEXT
  5
A7
330
1F
100
AcDbEntity
  8
枠_器具表
  6
CONTINUOUS
 62
     2
100
AcDbText
 10
471.569824225
 20
63.3372116
 30
0.0
 40
10.0
  1
ＮＳ
 41
1.239493181818183
  7
EXCADSTD
 72
     5
 11
491.047574225
 21
63.3372116
 31
0.0
100
AcDbText
  0
TEXT
  5
A8
330
1F
100
AcDbEntity
  8
枠_器具表
  6
CONTINUOUS
 62
     2
100
AcDbText
 10
89.375
 20
72.1875
 30
0.0
 40
10.625
  1
写図
 41
1.509694117647059
  7
EXCADSTD
 72
     5
 11
114.5815
 21
72.1875
 31
0.0
100
AcDbText
  0
TEXT
  5
A9
330
1F
100
AcDbEntity
  8
枠_器具表
  6
CONTINUOUS
 62
     2
100
AcDbText
 10
126.875
 20
72.1875
 30
0.0
 40
10.625
  1
検図
 41
1.303826737967914
  7
EXCADSTD
 72
     5
 11
148.64425
 21
72.1875
 31
0.0
100
AcDbText
  0
TEXT
  5
AA
330
1F
100
AcDbEntity
  8
枠_器具表
  6
CONTINUOUS
 62
     2
100
AcDbText
 10
159.375
 20
72.1875
 30
0.0
 40
10.625
  1
承認
 41
1.303826737967914
  7
EXCADSTD
 72
     5
 11
181.14425
 21
72.1875
 31
0.0
100
AcDbText
  0
TEXT
  5
AB
330
1F
100
AcDbEntity
  8
枠_器具表
  6
CONTINUOUS
 62
     2
100
AcDbText
 10
188.9375
 20
57.1875
 30
0.0
 40
10.625
  1
名
 41
1.12
  7
EXCADSTD
 72
     5
 11
197.4375
 21
57.1875
 31
0.0
100
AcDbText
  0
TEXT
  5
AC
330
1F
100
AcDbEntity
  8
枠_器具表
  6
CONTINUOUS
 62
     2
100
AcDbText
 10
348.9375
 20
69.6875
 30
0.0
 40
10.625
  1
品
 41
1.12
  7
EXCADSTD
 72
     5
 11
357.4375
 21
69.6875
 31
0.0
100
AcDbText
  0
TEXT
  5
AD
330
1F
100
AcDbEntity
  8
枠_器具表
  6
CONTINUOUS
 62
     2
100
AcDbText
 10
348.9375
 20
57.1875
 30
0.0
 40
10.625
  1
番
 41
1.12
  7
EXCADSTD
 72
     5
 11
357.4375
 21
57.1875
 31
0.0
100
AcDbText
  0
TEXT
  5
AE
330
1F
100
AcDbEntity
  8
枠_器具表
  6
CONTINUOUS
 62
     2
100
AcDbText
 10
454.1875
 20
69.6875
 30
0.0
 40
10.625
  1
尺
 41
1.12
  7
EXCADSTD
 72
     5
 11
462.6875
 21
69.6875
 31
0.0
100
AcDbText
  0
TEXT
  5
AF
330
1F
100
AcDbEntity
  8
枠_器具表
  6
CONTINUOUS
 62
     2
100
AcDbText
 10
454.1875
 20
57.1875
 30
0.0
 40
10.625
  1
度
 41
1.12
  7
EXCADSTD
 72
     5
 11
462.6875
 21
57.1875
 31
0.0
100
AcDbText
  0
TEXT
  5
B0
330
1F
100
AcDbEntity
  8
枠_器具表
  6
CONTINUOUS
 62
     2
100
AcDbText
 10
348.9375
 20
41.4375
 30
0.0
 40
10.625
  1
図
 41
1.12
  7
EXCADSTD
 72
     5
 11
357.4375
 21
41.4375
 31
0.0
100
AcDbText
  0
TEXT
  5
B1
330
1F
100
AcDbEntity
  8
枠_器具表
  6
CONTINUOUS
 62
     2
100
AcDbText
 10
348.9375
 20
30.6875
 30
0.0
 40
10.625
  1
番
 41
1.12
  7
EXCADSTD
 72
     5
 11
357.4375
 21
30.6875
 31
0.0
100
AcDbText
  0
LINE
  5
B2
330
1F
100
AcDbEntity
  8
枠_器具表
  6
EXLTYPE2
 62
     6
100
AcDbLine
 10
0.0
 20
371.25
 30
0.0
 11
45.0
 21
371.25
 31
0.0
  0
TEXT
  5
B3
330
1F
100
AcDbEntity
  8
枠_器具表
  6
CONTINUOUS
 62
     2
100
AcDbText
 10
222.5
 20
712.75
 30
0.0
 40
9.5
  1
番号
 41
1.381478468899522
  7
EXCADSTD
 72
     5
 11
243.1235
 21
712.75
 31
0.0
100
AcDbText
  0
TEXT
  5
B4
330
1F
100
AcDbEntity
  8
枠_器具表
  6
CONTINUOUS
 62
     2
100
AcDbText
 10
228.75
 20
700.25
 30
0.0
 40
9.5
  1
１
 41
1.178947368421053
  7
EXCADSTD
 72
     5
 11
236.75
 21
700.25
 31
0.0
100
AcDbText
  0
TEXT
  5
B5
330
1F
100
AcDbEntity
  8
枠_器具表
  6
CONTINUOUS
 62
     2
100
AcDbText
 10
228.75
 20
687.75
 30
0.0
 40
9.5
  1
２
 41
1.178947368421053
  7
EXCADSTD
 72
     5
 11
236.75
 21
687.75
 31
0.0
100
AcDbText
  0
TEXT
  5
B6
330
1F
100
AcDbEntity
  8
枠_器具表
  6
CONTINUOUS
 62
     2
100
AcDbText
 10
228.75
 20
675.25
 30
0.0
 40
9.5
  1
３
 41
1.178947368421053
  7
EXCADSTD
 72
     5
 11
236.75
 21
675.25
 31
0.0
100
AcDbText
  0
TEXT
  5
B7
330
1F
100
AcDbEntity
  8
枠_器具表
  6
CONTINUOUS
 62
     2
100
AcDbText
 10
228.75
 20
662.75
 30
0.0
 40
9.5
  1
４
 41
1.178947368421053
  7
EXCADSTD
 72
     5
 11
236.75
 21
662.75
 31
0.0
100
AcDbText
  0
TEXT
  5
B8
330
1F
100
AcDbEntity
  8
枠_器具表
  6
CONTINUOUS
 62
     2
100
AcDbText
 10
251.0
 20
687.75
 30
0.0
 40
9.5
  1
カバー
 41
1.235294117647059
  7
EXCADSTD
 72
     5
 11
279.5
 21
687.75
 31
0.0
100
AcDbText
  0
TEXT
  5
B9
330
1F
100
AcDbEntity
  8
枠_器具表
  6
CONTINUOUS
 62
     2
100
AcDbText
 10
251.0
 20
675.25
 30
0.0
 40
9.5
  1
アーム
 41
1.235294117647059
  7
EXCADSTD
 72
     5
 11
279.5
 21
675.25
 31
0.0
100
AcDbText
  0
TEXT
  5
BA
330
1F
100
AcDbEntity
  8
枠_器具表
  6
CONTINUOUS
 62
     2
100
AcDbText
 10
251.0
 20
700.25
 30
0.0
 40
9.5
  1
ベース
 41
1.235294117647059
  7
EXCADSTD
 72
     5
 11
279.5
 21
700.25
 31
0.0
100
AcDbText
  0
TEXT
  5
BB
330
1F
100
AcDbEntity
  8
枠_器具表
  6
CONTINUOUS
 62
     2
100
AcDbText
 10
251.0
 20
662.75
 30
0.0
 40
9.5
  1
取付ネジ
 41
1.217391304347826
  7
EXCADSTD
 72
     5
 11
289.0
 21
662.75
 31
0.0
100
AcDbText
  0
TEXT
  5
BC
330
1F
100
AcDbEntity
  8
枠_器具表
  6
CONTINUOUS
 62
     2
100
AcDbText
 10
252.2500000000001
 20
712.75
 30
0.0
 40
9.5
  1
品名
 41
1.99546889952153
  7
EXCADSTD
 72
     5
 11
282.0395
 21
712.75
 31
0.0
100
AcDbText
  0
TEXT
  5
BD
330
1F
100
AcDbEntity
  8
枠_器具表
  6
CONTINUOUS
 62
     2
100
AcDbText
 10
251.0
 20
650.25
 30
0.0
 40
9.5
  1
取付ネジ
 41
1.217391304347826
  7
EXCADSTD
 72
     5
 11
289.0
 21
650.25
 31
0.0
100
AcDbText
  0
TEXT
  5
BE
330
1F
100
AcDbEntity
  8
枠_器具表
  6
CONTINUOUS
 62
     2
100
AcDbText
 10
228.75
 20
650.25
 30
0.0
 40
9.5
  1
５
 41
1.178947368421053
  7
EXCADSTD
 72
     5
 11
236.75
 21
650.25
 31
0.0
100
AcDbText
  0
TEXT
  5
BF
330
1F
100
AcDbEntity
  8
枠_器具表
  6
CONTINUOUS
 62
     2
100
AcDbText
 10
407.2499999999999
 20
712.75
 30
0.0
 40
9.5
  1
備考
 41
2.762956937799044
  7
EXCADSTD
 72
     5
 11
448.497
 21
712.75
 31
0.0
100
AcDbText
  0
TEXT
  5
C0
330
1F
100
AcDbEntity
  8
枠_器具表
  6
CONTINUOUS
 62
     2
100
AcDbText
 10
295.2500000000001
 20
700.25
 30
0.0
 40
9.5
  1
ＰＯＭ
 41
1.191950464396285
  7
EXCADSTD
 72
     5
 11
322.7500000000001
 21
700.25
 31
0.0
100
AcDbText
  0
TEXT
  5
C1
330
1F
100
AcDbEntity
  8
枠_器具表
  6
CONTINUOUS
 62
     2
100
AcDbText
 10
295.2500000000001
 20
662.75
 30
0.0
 40
9.5
  1
ＳＵＳ
 41
1.191950464396285
  7
EXCADSTD
 72
     5
 11
322.7500000000001
 21
662.75
 31
0.0
100
AcDbText
  0
TEXT
  5
C2
330
1F
100
AcDbEntity
  8
枠_器具表
  6
CONTINUOUS
 62
     2
100
AcDbText
 10
295.2500000000001
 20
650.25
 30
0.0
 40
9.5
  1
ＳＵＳ
 41
1.191950464396285
  7
EXCADSTD
 72
     5
 11
322.7500000000001
 21
650.25
 31
0.0
100
AcDbText
  0
TEXT
  5
C3
330
1F
100
AcDbEntity
  8
枠_器具表
  6
CONTINUOUS
 62
     2
100
AcDbText
 10
348.25
 20
712.75
 30
0.0
 40
9.5
  1
個数
 41
1.38147846889952
  7
EXCADSTD
 72
     5
 11
368.8735
 21
712.75
 31
0.0
100
AcDbText
  0
TEXT
  5
C4
330
1F
100
AcDbEntity
  8
枠_器具表
  6
CONTINUOUS
 62
     2
100
AcDbText
 10
354.5
 20
700.25
 30
0.0
 40
9.5
  1
１
 41
1.178947368421053
  7
EXCADSTD
 72
     5
 11
362.5
 21
700.25
 31
0.0
100
AcDbText
  0
TEXT
  5
C5
330
1F
100
AcDbEntity
  8
枠_器具表
  6
CONTINUOUS
 62
     2
100
AcDbText
 10
354.5
 20
675.25
 30
0.0
 40
9.5
  1
１
 41
1.178947368421053
  7
EXCADSTD
 72
     5
 11
362.5
 21
675.25
 31
0.0
100
AcDbText
  0
TEXT
  5
C6
330
1F
100
AcDbEntity
  8
枠_器具表
  6
CONTINUOUS
 62
     2
100
AcDbText
 10
354.5
 20
687.75
 30
0.0
 40
9.5
  1
１
 41
1.178947368421053
  7
EXCADSTD
 72
     5
 11
362.5
 21
687.75
 31
0.0
100
AcDbText
  0
TEXT
  5
C7
330
1F
100
AcDbEntity
  8
枠_器具表
  6
CONTINUOUS
 62
     2
100
AcDbText
 10
354.5
 20
662.75
 30
0.0
 40
9.5
  1
２
 41
1.178947368421053
  7
EXCADSTD
 72
     5
 11
362.5
 21
662.75
 31
0.0
100
AcDbText
  0
TEXT
  5
C8
330
1F
100
AcDbEntity
  8
枠_器具表
  6
CONTINUOUS
 62
     2
100
AcDbText
 10
354.5
 20
650.25
 30
0.0
 40
9.5
  1
２
 41
1.178947368421053
  7
EXCADSTD
 72
     5
 11
362.5
 21
650.25
 31
0.0
100
AcDbText
  0
TEXT
  5
C9
330
1F
100
AcDbEntity
  8
枠_器具表
  6
CONTINUOUS
 62
     2
100
AcDbText
 10
298.7500000000002
 20
712.75
 30
0.0
 40
9.5
  1
材質
 41
2.302464114832536
  7
EXCADSTD
 72
     5
 11
333.1225000000002
 21
712.75
 31
0.0
100
AcDbText
  0
TEXT
  5
CA
330
1F
100
AcDbEntity
  8
枠_器具表
  6
CONTINUOUS
 62
     2
100
AcDbText
 10
295.2500000000001
 20
687.75
 30
0.0
 40
9.5
  1
ＡＢＳ
 41
1.191950464396285
  7
EXCADSTD
 72
     5
 11
322.7500000000001
 21
687.75
 31
0.0
100
AcDbText
  0
TEXT
  5
CB
330
1F
100
AcDbEntity
  8
枠_器具表
  6
CONTINUOUS
 62
     2
100
AcDbText
 10
295.2500000000001
 20
675.25
 30
0.0
 40
9.5
  1
ＡＢＳ
 41
1.126934984520124
  7
EXCADSTD
 72
     5
 11
321.2500000000001
 21
675.25
 31
0.0
100
AcDbText
  0
TEXT
  5
CC
330
1F
100
AcDbEntity
  8
図
  6
CONTINUOUS
 62
     2
100
AcDbText
 10
375.0
 20
662.5
 30
0.0
 40
9.5
  1
十字穴付きタッピンねじ・なべＭ４×２５
 41
0.8118304611085237
  7
EXCADSTD
 72
     5
 11
499.5
 21
662.5
 31
0.0
100
AcDbText
  0
LINE
  5
CD
330
1F
100
AcDbEntity
  8
図
  6
CONTINUOUS
 62
     2
100
AcDbLine
 10
375.0000000000008
 20
281.749999999998
 30
0.0
 11
375.0000000000008
 21
269.7564339449854
 31
0.0
  0
LINE
  5
CE
330
1F
100
AcDbEntity
  8
図
  6
CONTINUOUS
 62
     2
100
AcDbLine
 10
394.0000000000008
 20
281.749999999998
 30
0.0
 11
394.0000000000008
 21
269.7564339449854
 31
0.0
  0
DIMENSION
  5
D0
330
1F
100
AcDbEntity
  8
図
  6
CONTINUOUS
 62
     3
100
AcDbDimension
  2
*D15
 10
490.75
 20
303.2499999999999
 30
0.0
 11
484.8750000149012
 21
322.2499999999999
 31
0.0
 70
   160
  3
ISO-25
100
AcDbAlignedDimension
 13
434.5
 23
341.25
 33
0.0
 14
434.5
 24
303.25
 34
0.0
 50
90.0
100
AcDbRotatedDimension
1001
ACAD
1000
DSTYLE
1002
{
1070
   270
1070
     2
1070
     6
1000
EX_NORM
1070
     7
1000
EX_NORM
1070
    41
1040
7.5
1070
    42
1040
1.749999970197678
1070
    44
1040
2.5
1070
    73
1070
     0
1070
    74
1070
     0
1070
    75
1070
     0
1070
    76
1070
     0
1070
    77
1070
     1
1070
    78
1070
     8
1070
   140
1040
10.0
1070
   147
1040
0.0
1070
   173
1070
     1
1070
   176
1070
     3
1070
   177
1070
     3
1070
   178
1070
     2
1070
   271
1070
     1
1070
   277
1070
     2
1070
   279
1070
     2
1070
   280
1070
     0
1070
   287
1070
     5
1070
   340
1005
CF
1002
}
  0
DIMENSION
  5
DE
330
1F
100
AcDbEntity
  8
図
  6
CONTINUOUS
 62
     3
100
AcDbDimension
  2
*D16
 10
472.5
 20
312.7499999999799
 30
0.0
 11
466.6250000149012
 21
321.74999999998
 31
0.0
 70
   160
  3
ISO-25
100
AcDbAlignedDimension
 13
456.575
 23
330.74999999998
 33
0.0
 14
456.15
 24
312.74999999998
 34
0.0
 50
90.0
100
AcDbRotatedDimension
1001
ACAD
1000
DSTYLE
1002
{
1070
   270
1070
     2
1070
     6
1000
EX_NORM
1070
     7
1000
EX_NORM
1070
    41
1040
7.5
1070
    42
1040
1.749999970197678
1070
    44
1040
2.5
1070
    73
1070
     0
1070
    74
1070
     0
1070
    75
1070
     0
1070
    76
1070
     0
1070
    77
1070
     1
1070
    78
1070
     8
1070
   140
1040
10.0
1070
   147
1040
0.0
1070
   173
1070
     1
1070
   176
1070
     3
1070
   177
1070
     3
1070
   178
1070
     2
1070
   271
1070
     1
1070
   277
1070
     2
1070
   279
1070
     2
1070
   280
1070
     0
1070
   287
1070
     5
1070
   340
1005
CF
1002
}
  0
DIMENSION
  5
EB
330
1F
100
AcDbEntity
  8
図
  6
CONTINUOUS
 62
     3
100
AcDbDimension
  2
*D17
 10
202.0820292488
 20
358.75
 30
0.0
 11
188.0820292488001
 21
364.6249999850988
 31
0.0
 70
   160
  3
ISO-25
100
AcDbAlignedDimension
 13
174.0820292488
 23
339.75
 33
0.0
 14
202.0820292488
 24
339.75
 34
0.0
100
AcDbRotatedDimension
1001
ACAD
1000
DSTYLE
1002
{
1070
   270
1070
     2
1070
     6
1000
EX_NORM
1070
     7
1000
EX_NORM
1070
    41
1040
7.5
1070
    42
1040
1.749999970197678
1070
    44
1040
2.5
1070
    73
1070
     0
1070
    74
1070
     0
1070
    75
1070
     0
1070
    76
1070
     0
1070
    77
1070
     1
1070
    78
1070
     8
1070
   140
1040
10.0
1070
   147
1040
0.0
1070
   173
1070
     1
1070
   176
1070
     3
1070
   177
1070
     3
1070
   178
1070
     2
1070
   271
1070
     1
1070
   277
1070
     2
1070
   279
1070
     2
1070
   280
1070
     0
1070
   287
1070
     5
1070
   340
1005
CF
1002
}
  0
DIMENSION
  5
F8
330
1F
100
AcDbEntity
  8
図
  6
CONTINUOUS
 62
     3
100
AcDbDimension
  2
*D18
 10
286.0820292488
 20
387.0
 30
0.0
 11
188.0820292488
 21
392.8749999850988
 31
0.0
 70
   160
  3
ISO-25
100
AcDbAlignedDimension
 13
90.08202924879998
 23
276.75
 33
0.0
 14
286.0820292488
 24
276.75
 34
0.0
100
AcDbRotatedDimension
1001
ACAD
1000
DSTYLE
1002
{
1070
   270
1070
     2
1070
     6
1000
EX_NORM
1070
     7
1000
EX_NORM
1070
    41
1040
7.5
1070
    42
1040
1.749999970197678
1070
    44
1040
2.5
1070
    73
1070
     0
1070
    74
1070
     0
1070
    75
1070
     0
1070
    76
1070
     0
1070
    77
1070
     1
1070
    78
1070
     8
1070
   140
1040
10.0
1070
   147
1040
0.0
1070
   173
1070
     1
1070
   176
1070
     3
1070
   177
1070
     3
1070
   178
1070
     2
1070
   271
1070
     1
1070
   277
1070
     2
1070
   279
1070
     2
1070
   280
1070
     0
1070
   287
1070
     5
1070
   340
1005
CF
1002
}
  0
DIMENSION
  5
105
330
1F
100
AcDbEntity
  8
図
  6
CONTINUOUS
 62
     3
100
AcDbDimension
  2
*D19
 10
298.0820292488
 20
410.75
 30
0.0
 11
188.0820292488015
 21
416.6249999850988
 31
0.0
 70
   160
  3
ISO-25
100
AcDbAlignedDimension
 13
78.082029248803
 23
276.75
 33
0.0
 14
298.0820292488
 24
270.75
 34
0.0
100
AcDbRotatedDimension
1001
ACAD
1000
DSTYLE
1002
{
1070
   270
1070
     2
1070
     6
1000
EX_NORM
1070
     7
1000
EX_NORM
1070
    41
1040
7.5
1070
    42
1040
1.749999970197678
1070
    44
1040
2.5
1070
    73
1070
     0
1070
    74
1070
     0
1070
    75
1070
     0
1070
    76
1070
     0
1070
    77
1070
     1
1070
    78
1070
     8
1070
   140
1040
10.0
1070
   147
1040
0.0
1070
   173
1070
     1
1070
   176
1070
     3
1070
   177
1070
     3
1070
   178
1070
     2
1070
   271
1070
     1
1070
   277
1070
     2
1070
   279
1070
     2
1070
   280
1070
     0
1070
   287
1070
     5
1070
   340
1005
CF
1002
}
  0
DIMENSION
  5
112
330
1F
100
AcDbEntity
  8
図
  6
CONTINUOUS
 62
     3
100
AcDbDimension
  2
*D20
 10
394.0000000000001
 20
260.25
 30
0.0
 11
410.2500000000001
 21
266.1249999850988
 31
0.0
 70
   160
  3
ISO-25
100
AcDbAlignedDimension
 13
375.0
 23
246.25
 33
0.0
 14
394.0000000000001
 24
246.25
 34
0.0
100
AcDbRotatedDimension
1001
ACAD
1000
DSTYLE
1002
{
1070
   270
1070
     2
1070
     6
1000
EX_NORM
1070
     7
1000
EX_NORM
1070
    41
1040
7.5
1070
    42
1040
1.749999970197678
1070
    44
1040
2.5
1070
    73
1070
     0
1070
    74
1070
     0
1070
    75
1070
     0
1070
    76
1070
     0
1070
    77
1070
     1
1070
    78
1070
     8
1070
   140
1040
10.0
1070
   147
1040
0.0
1070
   173
1070
     1
1070
   176
1070
     3
1070
   177
1070
     3
1070
   178
1070
     2
1070
   271
1070
     1
1070
   277
1070
     2
1070
   279
1070
     2
1070
   280
1070
     2
1070
   287
1070
     5
1070
   340
1005
CF
1002
}
  0
DIMENSION
  5
11F
330
1F
100
AcDbEntity
  8
図
  6
CONTINUOUS
 62
     3
100
AcDbDimension
  2
*D21
 10
434.5
 20
379.75
 30
0.0
 11
404.0000000000001
 21
385.6249999850988
 31
0.0
 70
   160
  3
ISO-25
100
AcDbAlignedDimension
 13
373.5000000000001
 23
332.32366293445
 33
0.0
 14
434.5
 24
341.25
 34
0.0
100
AcDbRotatedDimension
1001
ACAD
1000
DSTYLE
1002
{
1070
   270
1070
     2
1070
     6
1000
EX_NORM
1070
     7
1000
EX_NORM
1070
    41
1040
7.5
1070
    42
1040
1.749999970197678
1070
    44
1040
2.5
1070
    73
1070
     0
1070
    74
1070
     0
1070
    75
1070
     0
1070
    76
1070
     0
1070
    77
1070
     1
1070
    78
1070
     8
1070
   140
1040
10.0
1070
   147
1040
0.0
1070
   173
1070
     1
1070
   176
1070
     3
1070
   177
1070
     3
1070
   178
1070
     2
1070
   271
1070
     1
1070
   277
1070
     2
1070
   279
1070
     2
1070
   280
1070
     0
1070
   287
1070
     5
1070
   340
1005
CF
1002
}
  0
DIMENSION
  5
12C
330
1F
100
AcDbEntity
  8
図
  6
CONTINUOUS
 62
     3
100
AcDbDimension
  2
*D22
 10
384.5
 20
362.0
 30
0.0
 11
409.5
 21
367.8749999850988
 31
0.0
 70
   160
  3
ISO-25
100
AcDbAlignedDimension
 13
434.5
 23
341.25
 33
0.0
 14
384.5
 24
331.75
 34
0.0
100
AcDbRotatedDimension
1001
ACAD
1000
DSTYLE
1002
{
1070
   270
1070
     2
1070
     6
1000
EX_NORM
1070
     7
1000
EX_NORM
1070
    41
1040
7.5
1070
    42
1040
1.749999970197678
1070
    44
1040
2.5
1070
    73
1070
     0
1070
    74
1070
     0
1070
    75
1070
     0
1070
    76
1070
     0
1070
    77
1070
     1
1070
    78
1070
     8
1070
   140
1040
10.0
1070
   147
1040
0.0
1070
   173
1070
     1
1070
   176
1070
     3
1070
   177
1070
     3
1070
   178
1070
     2
1070
   271
1070
     1
1070
   277
1070
     2
1070
   279
1070
     2
1070
   280
1070
     0
1070
   287
1070
     5
1070
   340
1005
CF
1002
}
  0
DIMENSION
  5
139
330
1F
100
AcDbEntity
  8
図
  6
CONTINUOUS
 62
     3
100
AcDbDimension
  2
*D23
 10
264.25
 20
234.75
 30
0.0
 11
258.3750000149012
 21
218.5
 31
0.0
 70
   160
  3
ISO-25
100
AcDbAlignedDimension
 13
273.0820292488
 23
246.75
 33
0.0
 14
273.0820292488
 24
234.75
 34
0.0
 50
90.0
100
AcDbRotatedDimension
1001
ACAD
1000
DSTYLE
1002
{
1070
   270
1070
     2
1070
     6
1000
EX_NORM
1070
     7
1000
EX_NORM
1070
    41
1040
7.5
1070
    42
1040
1.749999970197678
1070
    44
1040
2.5
1070
    73
1070
     0
1070
    74
1070
     0
1070
    75
1070
     0
1070
    76
1070
     0
1070
    77
1070
     1
1070
    78
1070
     8
1070
   140
1040
10.0
1070
   147
1040
0.0
1070
   173
1070
     1
1070
   176
1070
     3
1070
   177
1070
     3
1070
   178
1070
     2
1070
   271
1070
     1
1070
   277
1070
     2
1070
   279
1070
     2
1070
   280
1070
     2
1070
   287
1070
     5
1070
   340
1005
CF
1002
}
  0
DIMENSION
  5
148
330
1F
100
AcDbEntity
  8
図
  6
CONTINUOUS
 62
     3
100
AcDbDimension
  2
*D24
 10
324.7499999999999
 20
234.75
 30
0.0
 11
318.8750000149011
 21
288.0
 31
0.0
 70
   160
  3
ISO-25
100
AcDbAlignedDimension
 13
200.5820292488001
 23
341.25
 33
0.0
 14
273.0820292488
 24
234.75
 34
0.0
 50
90.0
100
AcDbRotatedDimension
1001
ACAD
1000
DSTYLE
1002
{
1070
   270
1070
     2
1070
     6
1000
EX_NORM
1070
     7
1000
EX_NORM
1070
    41
1040
7.5
1070
    42
1040
1.749999970197678
1070
    44
1040
2.5
1070
    73
1070
     0
1070
    74
1070
     0
1070
    75
1070
     0
1070
    76
1070
     0
1070
    77
1070
     1
1070
    78
1070
     8
1070
   140
1040
10.0
1070
   147
1040
0.0
1070
   173
1070
     1
1070
   176
1070
     3
1070
   177
1070
     3
1070
   178
1070
     2
1070
   271
1070
     1
1070
   277
1070
     2
1070
   279
1070
     2
1070
   280
1070
     0
1070
   287
1070
     5
1070
   340
1005
CF
1002
}
  0
LEADER
  5
155
330
1F
100
AcDbEntity
  8
図
  6
CONTINUOUS
 62
     3
100
AcDbLeader
  3
ISO-25
 76
     2
 10
433.0
 20
306.75
 30
0.0
 10
458.7376758272827
 20
269.9221061333191
 30
0.0
1001
ACAD
1000
DSTYLE
1002
{
1070
     5
1000
EX_NORM
1070
    41
1040
7.5
1070
   341
1005
4B
1002
}
  0
CIRCLE
  5
156
330
1F
100
AcDbEntity
  8
図
  6
CONTINUOUS
 62
     3
100
AcDbCircle
 10
463.75
 20
262.75
 30
0.0
 40
8.75
  0
TEXT
  5
157
330
1F
100
AcDbEntity
  8
図
  6
CONTINUOUS
 62
     2
100
AcDbText
 10
458.2628155469894
 20
256.5628156661987
 30
0.0
 40
12.37436866760254
  1
１
 41
1.120000000000001
  7
EXCADSTD
 72
     5
 11
468.1623104810715
 21
256.5628156661987
 31
0.0
100
AcDbText
  0
CIRCLE
  5
158
330
1F
100
AcDbEntity
  8
図
  6
CONTINUOUS
 62
     3
100
AcDbCircle
 10
461.5
 20
382.0
 30
0.0
 40
8.75
  0
TEXT
  5
159
330
1F
100
AcDbEntity
  8
図
  6
CONTINUOUS
 62
     2
100
AcDbText
 10
456.0128155469894
 20
375.8128156661987
 30
0.0
 40
12.37436866760254
  1
2
 41
0.8029411764705858
  7
EXCADSTD
 72
     5
 11
464.0561551809311
 21
375.8128156661987
 31
0.0
100
AcDbText
  0
LEADER
  5
15A
330
1F
100
AcDbEntity
  8
図
  6
CONTINUOUS
 62
     3
100
AcDbLeader
  3
ISO-25
 76
     2
 10
410.75287149206
 20
340.83549233003
 30
0.0
 10
454.7045787658502
 20
376.4877635890261
 30
0.0
1001
ACAD
1000
DSTYLE
1002
{
1070
     5
1000
EX_NORM
1070
    41
1040
7.5
1070
   341
1005
4B
1002
}
  0
CIRCLE
  5
15B
330
1F
100
AcDbEntity
  8
図
  6
CONTINUOUS
 62
     3
100
AcDbCircle
 10
344.0
 20
518.75
 30
0.0
 40
8.75
  0
TEXT
  5
15C
330
1F
100
AcDbEntity
  8
図
  6
CONTINUOUS
 62
     2
100
AcDbText
 10
338.5128155469894
 20
512.5628156661987
 30
0.0
 40
12.37436866760254
  1
3
 41
0.8029411764705858
  7
EXCADSTD
 72
     5
 11
346.5561551809311
 21
512.5628156661987
 31
0.0
100
AcDbText
  0
LEADER
  5
15D
330
1F
100
AcDbEntity
  8
図
  6
CONTINUOUS
 62
     3
100
AcDbLeader
  3
ISO-25
 76
     2
 10
296.19647431544
 20
481.21006763996
 30
0.0
 10
337.1183174113414
 20
513.3458400515017
 30
0.0
1001
ACAD
1000
DSTYLE
1002
{
1070
     5
1000
EX_NORM
1070
    41
1040
7.5
1070
   341
1005
4B
1002
}
  0
LINE
  5
15E
330
1F
100
AcDbEntity
  8
図
  6
CONTINUOUS
 62
     2
100
AcDbLine
 10
434.5000000000009
 20
303.249999999998
 30
0.0
 11
434.5000000000014
 21
341.249999999998
 31
0.0
  0
LEADER
  5
15F
330
1F
100
AcDbEntity
  8
図
  6
CONTINUOUS
 62
     3
100
AcDbLeader
  3
ISO-25
 76
     2
 10
450.68131418827
 20
332.74999999998
 30
0.0
 10
477.6835627075205
 20
365.4989055799156
 30
0.0
1001
ACAD
1000
DSTYLE
1002
{
1070
     5
1000
EX_NORM
1070
    41
1040
7.5
1070
   341
1005
4B
1002
}
  0
CIRCLE
  5
160
330
1F
100
AcDbEntity
  8
図
  6
CONTINUOUS
 62
     3
100
AcDbCircle
 10
483.25
 20
372.25
 30
0.0
 40
8.75
  0
TEXT
  5
161
330
1F
100
AcDbEntity
  8
図
  6
CONTINUOUS
 62
     2
100
AcDbText
 10
477.7628155469894
 20
366.0628156661987
 30
0.0
 40
12.37436866760254
  1
4
 41
0.7583333333333312
  7
EXCADSTD
 72
     5
 11
485.8061551809311
 21
366.0628156661987
 31
0.0
100
AcDbText
  0
CIRCLE
  5
162
330
1F
100
AcDbEntity
  8
図
  6
CONTINUOUS
 62
     3
100
AcDbCircle
 10
448.0
 20
243.5
 30
0.0
 40
8.75
  0
TEXT
  5
163
330
1F
100
AcDbEntity
  8
図
  6
CONTINUOUS
 62
     2
100
AcDbText
 10
442.5128155469894
 20
237.3128156661987
 30
0.0
 40
12.37436866760254
  1
5
 41
0.8029411764705858
  7
EXCADSTD
 72
     5
 11
450.5561551809311
 21
237.3128156661987
 31
0.0
100
AcDbText
  0
LEADER
  5
164
330
1F
100
AcDbEntity
  8
図
  6
CONTINUOUS
 62
     3
100
AcDbLeader
  3
ISO-25
 76
     2
 10
422.65476440359
 20
307.55833339134
 30
0.0
 10
444.7808046328951
 20
251.6362940696861
 30
0.0
1001
ACAD
1000
DSTYLE
1002
{
1070
     5
1000
EX_NORM
1070
    41
1040
7.5
1070
   341
1005
4B
1002
}
  0
DIMENSION
  5
166
330
1F
100
AcDbEntity
  8
図
  6
CONTINUOUS
 62
     3
100
AcDbDimension
  2
*D25
 10
472.4250000000001
 20
341.2499999999999
 30
0.0
 11
466.5500000149012
 21
335.99999999999
 31
0.0
 70
   160
  1
10
  3
ISO-25
100
AcDbAlignedDimension
 13
458.3249999702
 23
330.74999999998
 33
0.0
 14
457.6897655654901
 24
341.25
 34
0.0
 50
90.0
100
AcDbRotatedDimension
1001
ACAD
1000
DSTYLE
1002
{
1070
   270
1070
     2
1070
     6
1000
EX_NORM
1070
     7
1000
EX_NORM
1070
    41
1040
7.5
1070
    42
1040
1.749999970197678
1070
    44
1040
2.5
1070
    73
1070
     0
1070
    74
1070
     0
1070
    75
1070
     0
1070
    76
1070
     0
1070
    77
1070
     1
1070
    78
1070
     8
1070
   140
1040
10.0
1070
   147
1040
0.0
1070
   173
1070
     1
1070
   176
1070
     3
1070
   177
1070
     3
1070
   178
1070
     2
1070
   271
1070
     1
1070
   277
1070
     2
1070
   279
1070
     2
1070
   280
1070
     0
1070
   287
1070
     5
1070
   340
1005
165
1002
}
  0
TEXT
  5
175
330
1F
100
AcDbEntity
  8
図
  6
CONTINUOUS
 62
     2
100
AcDbText
 10
375.0
 20
650.0
 30
0.0
 40
9.5
  1
十字穴付タッピンねじ・バインドＭ４×２０
 41
0.7229102167182665
  7
EXCADSTD
 72
     5
 11
491.75
 21
650.0
 31
0.0
100
AcDbText
  0
LINE
  5
176
330
1F
100
AcDbEntity
  8
枠_器具表
  6
CONTINUOUS
 62
     7
100
AcDbLine
 10
45.0
 20
723.75
 30
0.0
 11
500.0
 21
723.75
 31
0.0
  0
LINE
  5
177
330
1F
100
AcDbEntity
  8
枠_器具表
  6
CONTINUOUS
 62
     7
100
AcDbLine
 10
45.0
 20
28.75
 30
0.0
 11
45.0
 21
723.75
 31
0.0
  0
LINE
  5
178
330
1F
100
AcDbEntity
  8
枠_器具表
  6
CONTINUOUS
 62
     7
100
AcDbLine
 10
500.0
 20
28.75
 30
0.0
 11
500.0
 21
723.75
 31
0.0
  0
LINE
  5
179
330
1F
100
AcDbEntity
  8
枠_器具表
  6
CONTINUOUS
 62
     7
100
AcDbLine
 10
45.0
 20
83.75
 30
0.0
 11
500.0
 21
83.75
 31
0.0
  0
LINE
  5
17A
330
1F
100
AcDbEntity
  8
枠_器具表
  6
CONTINUOUS
 62
     7
100
AcDbLine
 10
45.0
 20
28.75
 30
0.0
 11
500.0
 21
28.75
 31
0.0
  0
LINE
  5
17B
330
1F
100
AcDbEntity
  8
枠_器具表
  6
CONTINUOUS
 62
     6
100
AcDbLine
 10
45.0
 20
71.25
 30
0.0
 11
187.5
 21
71.25
 31
0.0
  0
LINE
  5
17C
330
1F
100
AcDbEntity
  8
枠_器具表
  6
CONTINUOUS
 62
     6
100
AcDbLine
 10
83.75
 20
83.75
 30
0.0
 11
83.75
 21
28.75
 31
0.0
  0
LINE
  5
17D
330
1F
100
AcDbEntity
  8
枠_器具表
  6
CONTINUOUS
 62
     6
100
AcDbLine
 10
122.5
 20
83.75
 30
0.0
 11
122.5
 21
28.75
 31
0.0
  0
LINE
  5
17E
330
1F
100
AcDbEntity
  8
枠_器具表
  6
CONTINUOUS
 62
     6
100
AcDbLine
 10
155.0
 20
83.75
 30
0.0
 11
155.0
 21
28.75
 31
0.0
  0
LINE
  5
17F
330
1F
100
AcDbEntity
  8
枠_器具表
  6
CONTINUOUS
 62
     6
100
AcDbLine
 10
187.5
 20
83.75
 30
0.0
 11
187.5
 21
28.75
 31
0.0
  0
CIRCLE
  5
180
330
1F
100
AcDbEntity
  8
枠_器具表
  6
CONTINUOUS
 62
     6
100
AcDbCircle
 10
57.50000000000001
 20
35.0
 30
0.0
 40
0.25000005
  0
CIRCLE
  5
181
330
1F
100
AcDbEntity
  8
枠_器具表
  6
CONTINUOUS
 62
     6
100
AcDbCircle
 10
70.00000000000001
 20
35.0
 30
0.0
 40
0.25000005
  0
CIRCLE
  5
182
330
1F
100
AcDbEntity
  8
枠_器具表
  6
CONTINUOUS
 62
     6
100
AcDbCircle
 10
96.25000000000001
 20
35.0
 30
0.0
 40
0.25000005
  0
CIRCLE
  5
183
330
1F
100
AcDbEntity
  8
枠_器具表
  6
CONTINUOUS
 62
     6
100
AcDbCircle
 10
108.75
 20
35.0
 30
0.0
 40
0.25000005
  0
LINE
  5
184
330
1F
100
AcDbEntity
  8
枠_器具表
  6
CONTINUOUS
 62
     6
100
AcDbLine
 10
500.0
 20
53.75
 30
0.0
 11
187.5
 21
53.75
 31
0.0
  0
LINE
  5
185
330
1F
100
AcDbEntity
  8
枠_器具表
  6
CONTINUOUS
 62
     6
100
AcDbLine
 10
200.0
 20
83.75
 30
0.0
 11
200.0
 21
53.75
 31
0.0
  0
LINE
  5
186
330
1F
100
AcDbEntity
  8
枠_器具表
  6
CONTINUOUS
 62
     6
100
AcDbLine
 10
347.5
 20
83.75
 30
0.0
 11
347.5
 21
28.75
 31
0.0
  0
LINE
  5
187
330
1F
100
AcDbEntity
  8
枠_器具表
  6
CONTINUOUS
 62
     6
100
AcDbLine
 10
360.0
 20
83.75
 30
0.0
 11
360.0
 21
28.75
 31
0.0
  0
LINE
  5
188
330
1F
100
AcDbEntity
  8
枠_器具表
  6
CONTINUOUS
 62
     6
100
AcDbLine
 10
452.5
 20
83.75
 30
0.0
 11
452.5
 21
53.75
 31
0.0
  0
LINE
  5
189
330
1F
100
AcDbEntity
  8
枠_器具表
  6
CONTINUOUS
 62
     6
100
AcDbLine
 10
465.0
 20
83.75
 30
0.0
 11
465.0
 21
53.75
 31
0.0
  0
LINE
  5
18A
330
1F
100
AcDbEntity
  8
枠_器具表
  6
CONTINUOUS
 62
     6
100
AcDbLine
 10
220.0
 20
711.25
 30
0.0
 11
500.0
 21
711.25
 31
0.0
  0
LINE
  5
18B
330
1F
100
AcDbEntity
  8
枠_器具表
  6
CONTINUOUS
 62
     6
100
AcDbLine
 10
220.0
 20
698.75
 30
0.0
 11
500.0
 21
698.75
 31
0.0
  0
LINE
  5
18C
330
1F
100
AcDbEntity
  8
枠_器具表
  6
CONTINUOUS
 62
     6
100
AcDbLine
 10
220.0
 20
686.25
 30
0.0
 11
500.0
 21
686.25
 31
0.0
  0
LINE
  5
18D
330
1F
100
AcDbEntity
  8
枠_器具表
  6
CONTINUOUS
 62
     6
100
AcDbLine
 10
220.0
 20
673.75
 30
0.0
 11
500.0
 21
673.75
 31
0.0
  0
LINE
  5
18E
330
1F
100
AcDbEntity
  8
枠_器具表
  6
CONTINUOUS
 62
     6
100
AcDbLine
 10
220.0
 20
661.25
 30
0.0
 11
500.0
 21
661.25
 31
0.0
  0
LINE
  5
18F
330
1F
100
AcDbEntity
  8
枠_器具表
  6
CONTINUOUS
 62
     6
100
AcDbLine
 10
220.0
 20
648.75
 30
0.0
 11
500.0
 21
648.75
 31
0.0
  0
LINE
  5
190
330
1F
100
AcDbEntity
  8
枠_器具表
  6
CONTINUOUS
 62
     6
100
AcDbLine
 10
220.0
 20
723.75
 30
0.0
 11
220.0
 21
648.75
 31
0.0
  0
LINE
  5
191
330
1F
100
AcDbEntity
  8
枠_器具表
  6
CONTINUOUS
 62
     6
100
AcDbLine
 10
247.5
 20
723.75
 30
0.0
 11
247.5
 21
648.75
 31
0.0
  0
LINE
  5
192
330
1F
100
AcDbEntity
  8
枠_器具表
  6
CONTINUOUS
 62
     6
100
AcDbLine
 10
291.7500000000001
 20
723.75
 30
0.0
 11
291.7500000000001
 21
648.75
 31
0.0
  0
LINE
  5
193
330
1F
100
AcDbEntity
  8
枠_器具表
  6
CONTINUOUS
 62
     6
100
AcDbLine
 10
345.75
 20
723.75
 30
0.0
 11
345.75
 21
648.75
 31
0.0
  0
LINE
  5
194
330
1F
100
AcDbEntity
  8
枠_器具表
  6
CONTINUOUS
 62
     6
100
AcDbLine
 10
373.25
 20
723.75
 30
0.0
 11
373.25
 21
648.75
 31
0.0
  0
LINE
  5
195
330
1F
100
AcDbEntity
  8
図
  6
CONTINUOUS
 62
     6
100
AcDbLine
 10
434.5
 20
310.7499999999832
 30
0.0
 11
450.68131418828
 21
310.7499999999832
 31
0.0
  0
LINE
  5
196
330
1F
100
AcDbEntity
  8
図
  6
CONTINUOUS
 62
     6
100
AcDbLine
 10
434.5
 20
314.7499999999834
 30
0.0
 11
450.68131418828
 21
314.7499999999834
 31
0.0
  0
LINE
  5
197
330
1F
100
AcDbEntity
  8
図
  6
CONTINUOUS
 62
     6
100
AcDbLine
 10
450.68131418828
 20
310.74999999998
 30
0.0
 11
455.0
 21
312.74999999998
 31
0.0
  0
LINE
  5
198
330
1F
100
AcDbEntity
  8
図
  6
CONTINUOUS
 62
     6
100
AcDbLine
 10
450.68131418828
 20
314.74999999998
 30
0.0
 11
455.0
 21
312.74999999998
 31
0.0
  0
LINE
  5
199
330
1F
100
AcDbEntity
  8
図
  6
CONTINUOUS
 62
     6
100
AcDbLine
 10
453.7622446450456
 20
311.8806931639082
 30
0.0
 11
452.6842418482535
 21
314.0968191048539
 31
0.0
  0
LINE
  5
19A
330
1F
100
AcDbEntity
  8
図
  6
CONTINUOUS
 62
     6
100
AcDbLine
 10
452.1075942198365
 20
310.8969368957748
 30
0.0
 11
450.751756382969
 21
315.03929105625
 31
0.0
  0
LINE
  5
19B
330
1F
100
AcDbEntity
  8
図
  6
CONTINUOUS
 62
     6
100
AcDbLine
 10
437.5590385678234
 20
310.41429105625
 30
0.0
 11
436.045225467209
 21
315.03929105625
 31
0.0
  0
LINE
  5
19C
330
1F
100
AcDbEntity
  8
図
  6
CONTINUOUS
 62
     6
100
AcDbLine
 10
439.3973549322935
 20
310.41429105625
 30
0.0
 11
437.883541831679
 21
315.03929105625
 31
0.0
  0
LINE
  5
19D
330
1F
100
AcDbEntity
  8
図
  6
CONTINUOUS
 62
     6
100
AcDbLine
 10
441.2356712967635
 20
310.41429105625
 30
0.0
 11
439.7218581961491
 21
315.03929105625
 31
0.0
  0
LINE
  5
19E
330
1F
100
AcDbEntity
  8
図
  6
CONTINUOUS
 62
     6
100
AcDbLine
 10
443.0739876612336
 20
310.41429105625
 30
0.0
 11
441.5601745606191
 21
315.03929105625
 31
0.0
  0
LINE
  5
19F
330
1F
100
AcDbEntity
  8
図
  6
CONTINUOUS
 62
     6
100
AcDbLine
 10
444.9123040257035
 20
310.41429105625
 30
0.0
 11
443.398490925089
 21
315.03929105625
 31
0.0
  0
LINE
  5
1A0
330
1F
100
AcDbEntity
  8
図
  6
CONTINUOUS
 62
     6
100
AcDbLine
 10
446.7506203901735
 20
310.41429105625
 30
0.0
 11
445.236807289559
 21
315.03929105625
 31
0.0
  0
LINE
  5
1A1
330
1F
100
AcDbEntity
  8
図
  6
CONTINUOUS
 62
     6
100
AcDbLine
 10
448.5889367546436
 20
310.41429105625
 30
0.0
 11
447.075123654029
 21
315.03929105625
 31
0.0
  0
LINE
  5
1A2
330
1F
100
AcDbEntity
  8
図
  6
CONTINUOUS
 62
     6
100
AcDbLine
 10
450.4272531191135
 20
310.41429105625
 30
0.0
 11
448.9134400184989
 21
315.03929105625
 31
0.0
  0
LINE
  5
1A3
330
1F
100
AcDbEntity
  8
図
  6
CONTINUOUS
 62
     6
100
AcDbLine
 10
435.7207222033535
 20
310.41429105625
 30
0.0
 11
434.4999999999981
 21
314.1438400925393
 31
0.0
  0
LINE
  5
1A4
330
1F
100
AcDbEntity
  8
図
  6
CONTINUOUS
 62
     6
100
AcDbLine
 10
434.5
 20
328.7499999999832
 30
0.0
 11
450.68131418828
 21
328.7499999999832
 31
0.0
  0
LINE
  5
1A5
330
1F
100
AcDbEntity
  8
図
  6
CONTINUOUS
 62
     6
100
AcDbLine
 10
434.5
 20
332.7499999999834
 30
0.0
 11
450.68131418828
 21
332.7499999999834
 31
0.0
  0
LINE
  5
1A6
330
1F
100
AcDbEntity
  8
図
  6
CONTINUOUS
 62
     6
100
AcDbLine
 10
450.68131418828
 20
328.74999999998
 30
0.0
 11
455.0
 21
330.74999999998
 31
0.0
  0
LINE
  5
1A7
330
1F
100
AcDbEntity
  8
図
  6
CONTINUOUS
 62
     6
100
AcDbLine
 10
450.68131418828
 20
332.74999999998
 30
0.0
 11
455.0
 21
330.74999999998
 31
0.0
  0
LINE
  5
1A8
330
1F
100
AcDbEntity
  8
図
  6
CONTINUOUS
 62
     6
100
AcDbLine
 10
453.7622446450456
 20
329.8806931639082
 30
0.0
 11
452.6842418482535
 21
332.0968191048539
 31
0.0
  0
LINE
  5
1A9
330
1F
100
AcDbEntity
  8
図
  6
CONTINUOUS
 62
     6
100
AcDbLine
 10
452.1075942198365
 20
328.8969368957748
 30
0.0
 11
450.751756382969
 21
333.03929105625
 31
0.0
  0
LINE
  5
1AA
330
1F
100
AcDbEntity
  8
図
  6
CONTINUOUS
 62
     6
100
AcDbLine
 10
437.5590385678234
 20
328.41429105625
 30
0.0
 11
436.045225467209
 21
333.03929105625
 31
0.0
  0
LINE
  5
1AB
330
1F
100
AcDbEntity
  8
図
  6
CONTINUOUS
 62
     6
100
AcDbLine
 10
439.3973549322935
 20
328.41429105625
 30
0.0
 11
437.883541831679
 21
333.03929105625
 31
0.0
  0
LINE
  5
1AC
330
1F
100
AcDbEntity
  8
図
  6
CONTINUOUS
 62
     6
100
AcDbLine
 10
441.2356712967635
 20
328.41429105625
 30
0.0
 11
439.7218581961491
 21
333.03929105625
 31
0.0
  0
LINE
  5
1AD
330
1F
100
AcDbEntity
  8
図
  6
CONTINUOUS
 62
     6
100
AcDbLine
 10
443.0739876612336
 20
328.41429105625
 30
0.0
 11
441.5601745606191
 21
333.03929105625
 31
0.0
  0
LINE
  5
1AE
330
1F
100
AcDbEntity
  8
図
  6
CONTINUOUS
 62
     6
100
AcDbLine
 10
444.9123040257035
 20
328.41429105625
 30
0.0
 11
443.398490925089
 21
333.03929105625
 31
0.0
  0
LINE
  5
1AF
330
1F
100
AcDbEntity
  8
図
  6
CONTINUOUS
 62
     6
100
AcDbLine
 10
446.7506203901735
 20
328.41429105625
 30
0.0
 11
445.236807289559
 21
333.03929105625
 31
0.0
  0
LINE
  5
1B0
330
1F
100
AcDbEntity
  8
図
  6
CONTINUOUS
 62
     6
100
AcDbLine
 10
448.5889367546436
 20
328.41429105625
 30
0.0
 11
447.075123654029
 21
333.03929105625
 31
0.0
  0
LINE
  5
1B1
330
1F
100
AcDbEntity
  8
図
  6
CONTINUOUS
 62
     6
100
AcDbLine
 10
450.4272531191135
 20
328.41429105625
 30
0.0
 11
448.9134400184989
 21
333.03929105625
 31
0.0
  0
LINE
  5
1B2
330
1F
100
AcDbEntity
  8
図
  6
CONTINUOUS
 62
     6
100
AcDbLine
 10
435.7207222033535
 20
328.41429105625
 30
0.0
 11
434.4999999999981
 21
332.1438400925393
 31
0.0
  0
LINE
  5
1B3
330
1F
100
AcDbEntity
  8
図
  6
CONTINUOUS
 62
     6
100
AcDbLine
 10
190.0820292487969
 20
525.84048414577
 30
0.0
 11
190.0820292487969
 21
542.02179833405
 31
0.0
  0
LINE
  5
1B4
330
1F
100
AcDbEntity
  8
図
  6
CONTINUOUS
 62
     6
100
AcDbLine
 10
186.0820292487966
 20
525.84048414577
 30
0.0
 11
186.0820292487966
 21
542.02179833405
 31
0.0
  0
LINE
  5
1B5
330
1F
100
AcDbEntity
  8
図
  6
CONTINUOUS
 62
     6
100
AcDbLine
 10
190.0820292488
 20
542.02179833405
 30
0.0
 11
188.0820292488
 21
546.34048414577
 31
0.0
  0
LINE
  5
1B6
330
1F
100
AcDbEntity
  8
図
  6
CONTINUOUS
 62
     6
100
AcDbLine
 10
186.0820292488
 20
542.02179833405
 30
0.0
 11
188.0820292488
 21
546.34048414577
 31
0.0
  0
LINE
  5
1B7
330
1F
100
AcDbEntity
  8
図
  6
CONTINUOUS
 62
     6
100
AcDbLine
 10
188.9513360848719
 20
545.1027287908156
 30
0.0
 11
186.7352101439262
 21
544.0247259940235
 31
0.0
  0
LINE
  5
1B8
330
1F
100
AcDbEntity
  8
図
  6
CONTINUOUS
 62
     6
100
AcDbLine
 10
189.9350923530053
 20
543.4480783656065
 30
0.0
 11
185.79273819253
 21
542.092240528739
 31
0.0
  0
LINE
  5
1B9
330
1F
100
AcDbEntity
  8
図
  6
CONTINUOUS
 62
     6
100
AcDbLine
 10
190.4177381925301
 20
528.8995227135935
 30
0.0
 11
185.79273819253
 21
527.385709612979
 31
0.0
  0
LINE
  5
1BA
330
1F
100
AcDbEntity
  8
図
  6
CONTINUOUS
 62
     6
100
AcDbLine
 10
190.4177381925301
 20
530.7378390780635
 30
0.0
 11
185.79273819253
 21
529.224025977449
 31
0.0
  0
LINE
  5
1BB
330
1F
100
AcDbEntity
  8
図
  6
CONTINUOUS
 62
     6
100
AcDbLine
 10
190.4177381925301
 20
532.5761554425335
 30
0.0
 11
185.79273819253
 21
531.062342341919
 31
0.0
  0
LINE
  5
1BC
330
1F
100
AcDbEntity
  8
図
  6
CONTINUOUS
 62
     6
100
AcDbLine
 10
190.4177381925301
 20
534.4144718070036
 30
0.0
 11
185.79273819253
 21
532.9006587063891
 31
0.0
  0
LINE
  5
1BD
330
1F
100
AcDbEntity
  8
図
  6
CONTINUOUS
 62
     6
100
AcDbLine
 10
190.4177381925301
 20
536.2527881714735
 30
0.0
 11
185.79273819253
 21
534.7389750708589
 31
0.0
  0
LINE
  5
1BE
330
1F
100
AcDbEntity
  8
図
  6
CONTINUOUS
 62
     6
100
AcDbLine
 10
190.4177381925301
 20
538.0911045359435
 30
0.0
 11
185.79273819253
 21
536.577291435329
 31
0.0
  0
LINE
  5
1BF
330
1F
100
AcDbEntity
  8
図
  6
CONTINUOUS
 62
     6
100
AcDbLine
 10
190.4177381925301
 20
539.9294209004136
 30
0.0
 11
185.79273819253
 21
538.4156077997991
 31
0.0
  0
LINE
  5
1C0
330
1F
100
AcDbEntity
  8
図
  6
CONTINUOUS
 62
     6
100
AcDbLine
 10
190.4177381925301
 20
541.7677372648834
 30
0.0
 11
185.79273819253
 21
540.2539241642689
 31
0.0
  0
LINE
  5
1C1
330
1F
100
AcDbEntity
  8
図
  6
CONTINUOUS
 62
     6
100
AcDbLine
 10
190.4177381925301
 20
527.0612063491235
 30
0.0
 11
186.6881891562407
 21
525.8404841457681
 31
0.0
  0
LINE
  5
1C2
330
1F
100
AcDbEntity
  8
図
  6
EXLTYPE3
 62
     6
100
AcDbLine
 10
75.08202924880277
 20
475.5293787444962
 30
0.0
 11
301.0820292488028
 21
475.5293787444962
 31
0.0
  0
LINE
  5
1C3
330
1F
100
AcDbEntity
  8
図
  6
EXLTYPE3
 62
     6
100
AcDbLine
 10
181.0820292488028
 20
498.8404841457653
 30
0.0
 11
195.0820292488028
 21
498.8404841457653
 31
0.0
  0
LINE
  5
1C4
330
1F
100
AcDbEntity
  8
図
  6
EXLTYPE3
 62
     6
100
AcDbLine
 10
181.0820292488029
 20
512.8404841457655
 30
0.0
 11
195.0820292488029
 21
512.8404841457655
 31
0.0
  0
LINE
  5
1C5
330
1F
100
AcDbEntity
  8
図
  6
EXLTYPE3
 62
     6
100
AcDbLine
 10
168.0820292488028
 20
327.2499999999983
 30
0.0
 11
208.0820292488028
 21
327.2499999999982
 31
0.0
  0
LINE
  5
1C6
330
1F
100
AcDbEntity
  8
図
  6
EXLTYPE3
 62
     6
100
AcDbLine
 10
372.0000000000008
 20
327.249999999998
 30
0.0
 11
397.0000000000008
 21
327.249999999998
 31
0.0
  0
LINE
  5
1C7
330
1F
100
AcDbEntity
  8
図
  6
EXLTYPE3
 62
     6
100
AcDbLine
 10
433.4
 20
312.749999999984
 30
0.0
 11
456.15
 21
312.749999999984
 31
0.0
  0
LINE
  5
1C8
330
1F
100
AcDbEntity
  8
図
  6
EXLTYPE3
 62
     6
100
AcDbLine
 10
433.4750000000001
 20
330.7499999999833
 30
0.0
 11
456.575
 21
330.7499999999833
 31
0.0
  0
LINE
  5
1C9
330
1F
100
AcDbEntity
  8
図
  6
EXLTYPE3
 62
     6
100
AcDbLine
 10
188.0820292488028
 20
551.0
 30
0.0
 11
188.0820292488028
 21
458.8404841457658
 31
0.0
  0
LINE
  5
1CA
330
1F
100
AcDbEntity
  8
図
  6
EXLTYPE3
 62
     6
100
AcDbLine
 10
188.0820292488028
 20
231.7499999999981
 30
0.0
 11
188.0820292488027
 21
348.25
 31
0.0
  0
LINE
  5
1CB
330
1F
100
AcDbEntity
  8
図
  6
EXLTYPE3
 62
     6
100
AcDbLine
 10
384.5000000000008
 20
345.5
 30
0.0
 11
384.5000000000007
 21
233.7499999999982
 31
0.0
  0
LINE
  5
1CC
330
1F
100
AcDbEntity
  8
図
  6
EXLTYPE3
 62
     6
100
AcDbLine
 10
421.4999999999988
 20
329.825
 30
0.0
 11
421.4999999999988
 21
305.9
 31
0.0
  0
LINE
  5
1CD
330
1F
100
AcDbEntity
  8
図
  6
EXLTYPE3
 62
     6
100
AcDbLine
 10
407.4999999999998
 20
333.125
 30
0.0
 11
407.4999999999998
 21
309.95
 31
0.0
  0
LINE
  5
1CE
330
1F
100
AcDbEntity
  8
図
  6
EXLTYPE2
 62
     6
100
AcDbLine
 10
401.4999999999997
 20
313.75
 30
0.0
 11
401.4999999999997
 21
336.25
 31
0.0
  0
LINE
  5
1CF
330
1F
100
AcDbEntity
  8
図
  6
EXLTYPE2
 62
     6
100
AcDbLine
 10
401.5
 20
336.25
 30
0.0
 11
434.5
 21
336.75
 31
0.0
  0
LINE
  5
1D0
330
1F
100
AcDbEntity
  8
図
  6
EXLTYPE2
 62
     6
100
AcDbLine
 10
401.5
 20
313.75
 30
0.0
 11
430.0
 21
306.75
 31
0.0
  0
LINE
  5
1D1
330
1F
100
AcDbEntity
  8
図
  6
EXLTYPE2
 62
     6
100
AcDbLine
 10
408.3693068360718
 20
331.0385604345155
 30
0.0
 11
406.1531808951261
 21
329.9605576377234
 31
0.0
  0
LINE
  5
1D2
330
1F
100
AcDbEntity
  8
図
  6
EXLTYPE2
 62
     6
100
AcDbLine
 10
409.3530631042052
 20
329.3839100093065
 30
0.0
 11
405.21070894373
 21
328.028072172439
 31
0.0
  0
LINE
  5
1D3
330
1F
100
AcDbEntity
  8
図
  6
EXLTYPE2
 62
     6
100
AcDbLine
 10
409.83570894373
 20
314.8353543572934
 30
0.0
 11
405.21070894373
 21
313.3215412566789
 31
0.0
  0
LINE
  5
1D4
330
1F
100
AcDbEntity
  8
図
  6
EXLTYPE2
 62
     6
100
AcDbLine
 10
409.83570894373
 20
316.6736707217635
 30
0.0
 11
405.21070894373
 21
315.1598576211489
 31
0.0
  0
LINE
  5
1D5
330
1F
100
AcDbEntity
  8
図
  6
EXLTYPE2
 62
     6
100
AcDbLine
 10
409.83570894373
 20
318.5119870862334
 30
0.0
 11
405.21070894373
 21
316.998173985619
 31
0.0
  0
LINE
  5
1D6
330
1F
100
AcDbEntity
  8
図
  6
EXLTYPE2
 62
     6
100
AcDbLine
 10
409.83570894373
 20
320.3503034507036
 30
0.0
 11
405.21070894373
 21
318.836490350089
 31
0.0
  0
LINE
  5
1D7
330
1F
100
AcDbEntity
  8
図
  6
EXLTYPE2
 62
     6
100
AcDbLine
 10
409.83570894373
 20
322.1886198151735
 30
0.0
 11
405.21070894373
 21
320.6748067145589
 31
0.0
  0
LINE
  5
1D8
330
1F
100
AcDbEntity
  8
図
  6
EXLTYPE2
 62
     6
100
AcDbLine
 10
409.83570894373
 20
324.0269361796435
 30
0.0
 11
405.21070894373
 21
322.513123079029
 31
0.0
  0
LINE
  5
1D9
330
1F
100
AcDbEntity
  8
図
  6
EXLTYPE2
 62
     6
100
AcDbLine
 10
409.83570894373
 20
325.8652525441135
 30
0.0
 11
405.21070894373
 21
324.351439443499
 31
0.0
  0
LINE
  5
1DA
330
1F
100
AcDbEntity
  8
図
  6
EXLTYPE2
 62
     6
100
AcDbLine
 10
409.83570894373
 20
327.7035689085834
 30
0.0
 11
405.21070894373
 21
326.1897558079689
 31
0.0
  0
LINE
  5
1DB
330
1F
100
AcDbEntity
  8
図
  6
EXLTYPE2
 62
     6
100
AcDbLine
 10
405.7499999999999
 20
327.97631578948
 30
0.0
 11
407.4999999999999
 21
332.27631578947
 31
0.0
  0
LINE
  5
1DC
330
1F
100
AcDbEntity
  8
図
  6
EXLTYPE2
 62
     6
100
AcDbLine
 10
407.4999999999999
 20
332.27631578947
 30
0.0
 11
409.2499999999999
 21
327.97631578946
 31
0.0
  0
LINE
  5
1DD
330
1F
100
AcDbEntity
  8
図
  6
EXLTYPE2
 62
     6
100
AcDbLine
 10
405.7499999999966
 20
312.4013157894699
 30
0.0
 11
405.7499999999966
 21
327.9763157894799
 31
0.0
  0
LINE
  5
1DE
330
1F
100
AcDbEntity
  8
図
  6
EXLTYPE2
 62
     6
100
AcDbLine
 10
409.2499999999967
 20
312.2763157894702
 30
0.0
 11
409.2499999999967
 21
327.9763157894599
 31
0.0
  0
LINE
  5
1DF
330
1F
100
AcDbEntity
  8
図
  6
EXLTYPE2
 62
     6
100
AcDbLine
 10
409.83570894373
 20
312.9970379928235
 30
0.0
 11
407.8738290604096
 21
312.3548932427256
 31
0.0
  0
LINE
  5
1E0
330
1F
100
AcDbEntity
  8
図
  6
EXLTYPE2
 62
     6
100
AcDbLine
 10
404.3749999999999
 20
312.27631578947
 30
0.0
 11
404.3749999999999
 21
311.6513157894701
 31
0.0
  0
LINE
  5
1E1
330
1F
100
AcDbEntity
  8
図
  6
EXLTYPE2
 62
     6
100
AcDbLine
 10
410.6250000000001
 20
312.27631578947
 30
0.0
 11
410.6250000000001
 21
311.6513157894701
 31
0.0
  0
LINE
  5
1E2
330
1F
100
AcDbEntity
  8
図
  6
EXLTYPE2
 62
     6
100
AcDbLine
 10
404.3749999999999
 20
312.2763157894702
 30
0.0
 11
410.6249999999999
 21
312.2763157894702
 31
0.0
  0
LINE
  5
1E3
330
1F
100
AcDbEntity
  8
図
  6
EXLTYPE2
 62
     6
100
AcDbLine
 10
422.3693068360718
 20
327.5999639432956
 30
0.0
 11
420.1531808951261
 21
326.5219611465034
 31
0.0
  0
LINE
  5
1E4
330
1F
100
AcDbEntity
  8
図
  6
EXLTYPE2
 62
     6
100
AcDbLine
 10
423.3530631042052
 20
325.9453135180865
 30
0.0
 11
419.21070894373
 21
324.589475681219
 31
0.0
  0
LINE
  5
1E5
330
1F
100
AcDbEntity
  8
図
  6
EXLTYPE2
 62
     6
100
AcDbLine
 10
423.83570894373
 20
311.3967578660734
 30
0.0
 11
419.21070894373
 21
309.8829447654589
 31
0.0
  0
LINE
  5
1E6
330
1F
100
AcDbEntity
  8
図
  6
EXLTYPE2
 62
     6
100
AcDbLine
 10
423.83570894373
 20
313.2350742305435
 30
0.0
 11
419.21070894373
 21
311.721261129929
 31
0.0
  0
LINE
  5
1E7
330
1F
100
AcDbEntity
  8
図
  6
EXLTYPE2
 62
     6
100
AcDbLine
 10
423.83570894373
 20
315.0733905950134
 30
0.0
 11
419.21070894373
 21
313.559577494399
 31
0.0
  0
LINE
  5
1E8
330
1F
100
AcDbEntity
  8
図
  6
EXLTYPE2
 62
     6
100
AcDbLine
 10
423.83570894373
 20
316.9117069594836
 30
0.0
 11
419.21070894373
 21
315.3978938588691
 31
0.0
  0
LINE
  5
1E9
330
1F
100
AcDbEntity
  8
図
  6
EXLTYPE2
 62
     6
100
AcDbLine
 10
423.83570894373
 20
318.7500233239535
 30
0.0
 11
419.21070894373
 21
317.236210223339
 31
0.0
  0
LINE
  5
1EA
330
1F
100
AcDbEntity
  8
図
  6
EXLTYPE2
 62
     6
100
AcDbLine
 10
423.83570894373
 20
320.5883396884235
 30
0.0
 11
419.21070894373
 21
319.074526587809
 31
0.0
  0
LINE
  5
1EB
330
1F
100
AcDbEntity
  8
図
  6
EXLTYPE2
 62
     6
100
AcDbLine
 10
423.83570894373
 20
322.4266560528935
 30
0.0
 11
419.21070894373
 21
320.912842952279
 31
0.0
  0
LINE
  5
1EC
330
1F
100
AcDbEntity
  8
図
  6
EXLTYPE2
 62
     6
100
AcDbLine
 10
423.83570894373
 20
324.2649724173634
 30
0.0
 11
419.21070894373
 21
322.7511593167489
 31
0.0
  0
LINE
  5
1ED
330
1F
100
AcDbEntity
  8
図
  6
EXLTYPE2
 62
     6
100
AcDbLine
 10
419.7499999999999
 20
324.53771929826
 30
0.0
 11
421.4999999999999
 21
328.83771929825
 31
0.0
  0
LINE
  5
1EE
330
1F
100
AcDbEntity
  8
図
  6
EXLTYPE2
 62
     6
100
AcDbLine
 10
421.4999999999999
 20
328.83771929825
 30
0.0
 11
423.2499999999999
 21
324.53771929824
 31
0.0
  0
LINE
  5
1EF
330
1F
100
AcDbEntity
  8
図
  6
EXLTYPE2
 62
     6
100
AcDbLine
 10
419.7499999999966
 20
308.96271929825
 30
0.0
 11
419.7499999999966
 21
324.53771929826
 31
0.0
  0
LINE
  5
1F0
330
1F
100
AcDbEntity
  8
図
  6
EXLTYPE2
 62
     6
100
AcDbLine
 10
423.2499999999967
 20
308.8377192982502
 30
0.0
 11
423.2499999999967
 21
324.5377192982399
 31
0.0
  0
LINE
  5
1F1
330
1F
100
AcDbEntity
  8
図
  6
EXLTYPE2
 62
     6
100
AcDbLine
 10
423.83570894373
 20
309.5584415016035
 30
0.0
 11
421.8738290604096
 21
308.9162967515056
 31
0.0
  0
LINE
  5
1F2
330
1F
100
AcDbEntity
  8
図
  6
EXLTYPE2
 62
     6
100
AcDbLine
 10
418.3749999999999
 20
308.83771929825
 30
0.0
 11
418.3749999999999
 21
308.2127192982501
 31
0.0
  0
LINE
  5
1F3
330
1F
100
AcDbEntity
  8
図
  6
EXLTYPE2
 62
     6
100
AcDbLine
 10
424.6250000000001
 20
308.83771929825
 30
0.0
 11
424.6250000000001
 21
308.2127192982501
 31
0.0
  0
LINE
  5
1F4
330
1F
100
AcDbEntity
  8
図
  6
EXLTYPE2
 62
     6
100
AcDbLine
 10
418.3749999999999
 20
308.8377192982502
 30
0.0
 11
424.6249999999999
 21
308.8377192982502
 31
0.0
  0
ARC
  5
1F5
330
1F
100
AcDbEntity
  8
図
  6
EXLTYPE2
 62
     6
100
AcDbCircle
 10
407.4999999999999
 20
317.7669145305616
 30
0.0
 40
6.867763315814012
100
AcDbArc
 50
242.9334947170289
 51
297.0665052829711
  0
ARC
  5
1F6
330
1F
100
AcDbEntity
  8
図
  6
EXLTYPE2
 62
     6
100
AcDbCircle
 10
421.4999999999999
 20
314.3283180393416
 30
0.0
 40
6.867763315814012
100
AcDbArc
 50
242.9334947170289
 51
297.0665052829711
  0
LINE
  5
1F7
330
1F
100
AcDbEntity
  8
図
  6
EXLTYPE2
 62
     6
100
AcDbLine
 10
434.5
 20
306.749999999996
 30
0.0
 11
430.00000000002
 21
306.749999999996
 31
0.0
  0
ARC
  5
1F8
330
1F
100
AcDbEntity
  8
図
  6
CONTINUOUS
 62
     2
100
AcDbCircle
 10
384.5000000000007
 20
246.2499999999981
 30
0.0
 40
9.499999999999943
100
AcDbArc
 50
180.0
 51
0.0
  0
LINE
  5
1F9
330
1F
100
AcDbEntity
  8
図
  6
CONTINUOUS
 62
     2
100
AcDbLine
 10
394.0000000000008
 20
246.2499999999981
 30
0.0
 11
394.0000000000008
 21
327.249999999998
 31
0.0
  0
ARC
  5
1FA
330
1F
100
AcDbEntity
  8
図
  6
CONTINUOUS
 62
     2
100
AcDbCircle
 10
384.5000000000008
 20
327.249999999998
 30
0.0
 40
9.5
100
AcDbArc
 50
0.0
 51
180.0
  0
LINE
  5
1FB
330
1F
100
AcDbEntity
  8
図
  6
CONTINUOUS
 62
     2
100
AcDbLine
 10
375.0000000000008
 20
246.2499999999981
 30
0.0
 11
375.0000000000008
 21
327.249999999998
 31
0.0
  0
ARC
  5
1FC
330
1F
100
AcDbEntity
  8
図
  6
CONTINUOUS
 62
     2
100
AcDbCircle
 10
381.5000000000009
 20
320.8314474705011
 30
0.0
 40
8.0
100
AcDbArc
 50
180.0
 51
215.6590876961372
  0
LINE
  5
1FD
330
1F
100
AcDbEntity
  8
図
  6
CONTINUOUS
 62
     2
100
AcDbLine
 10
373.5000000000008
 20
332.3236629344512
 30
0.0
 11
373.5000000000009
 21
320.831447470501
 31
0.0
  0
ARC
  5
1FE
330
1F
100
AcDbEntity
  8
図
  6
CONTINUOUS
 62
     2
100
AcDbCircle
 10
381.5000000000008
 20
332.3236629344512
 30
0.0
 40
8.0
100
AcDbArc
 50
91.00000000000014
 51
180.0
  0
LINE
  5
1FF
330
1F
100
AcDbEntity
  8
図
  6
CONTINUOUS
 62
     2
100
AcDbLine
 10
434.5000000000009
 20
341.249999999998
 30
0.0
 11
381.3603807485026
 21
340.3224444957024
 31
0.0
  0
LINE
  5
200
330
1F
100
AcDbEntity
  8
図
  6
CONTINUOUS
 62
     2
100
AcDbLine
 10
429.5000000000008
 20
303.2499999999979
 30
0.0
 11
394.0000000000008
 21
310.2232142857123
 31
0.0
  0
LINE
  5
201
330
1F
100
AcDbEntity
  8
図
  6
CONTINUOUS
 62
     2
100
AcDbLine
 10
434.5000000000009
 20
303.249999999998
 30
0.0
 11
429.5000000000008
 21
303.2499999999979
 31
0.0
  0
ARC
  5
202
330
1F
100
AcDbEntity
  8
図
  6
CONTINUOUS
 62
     2
100
AcDbCircle
 10
268.0820292488031
 20
276.7499999999974
 30
0.0
 40
30.0
100
AcDbArc
 50
0.0
 51
36.8698976458436
  0
LINE
  5
203
330
1F
100
AcDbEntity
  8
図
  6
CONTINUOUS
 62
     2
100
AcDbLine
 10
298.0820292488028
 20
276.7499999999974
 30
0.0
 11
298.0820292488028
 21
259.7499999999981
 31
0.0
  0
ARC
  5
204
330
1F
100
AcDbEntity
  8
図
  6
CONTINUOUS
 62
     2
100
AcDbCircle
 10
273.0820292488028
 20
259.7499999999981
 30
0.0
 40
25.0
100
AcDbArc
 50
270.0
 51
0.0
  0
ARC
  5
205
330
1F
100
AcDbEntity
  8
図
  6
CONTINUOUS
 62
     2
100
AcDbCircle
 10
273.0820292488028
 20
259.7499999999981
 30
0.0
 40
13.0
100
AcDbArc
 50
270.0
 51
0.0
  0
LINE
  5
206
330
1F
100
AcDbEntity
  8
図
  6
CONTINUOUS
 62
     2
100
AcDbLine
 10
286.0820292488028
 20
276.7499999999974
 30
0.0
 11
286.0820292488028
 21
259.7499999999981
 31
0.0
  0
ARC
  5
207
330
1F
100
AcDbEntity
  8
図
  6
CONTINUOUS
 62
     2
100
AcDbCircle
 10
212.0820292488027
 20
234.7499999999979
 30
0.0
 40
88.0
100
AcDbArc
 50
36.8698976458436
 51
90.00000000000001
  0
ARC
  5
208
330
1F
100
AcDbEntity
  8
図
  6
CONTINUOUS
 62
     2
100
AcDbCircle
 10
212.0820292488027
 20
234.7499999999979
 30
0.0
 40
100.0
100
AcDbArc
 50
36.8698976458436
 51
90.00000000000001
  0
ARC
  5
209
330
1F
100
AcDbEntity
  8
図
  6
CONTINUOUS
 62
     2
100
AcDbCircle
 10
268.0820292488031
 20
276.7499999999974
 30
0.0
 40
18.0
100
AcDbArc
 50
0.0
 51
36.8698976458436
  0
ELLIPSE
  5
20A
330
1F
100
AcDbEntity
  8
図
  6
CONTINUOUS
 62
     2
100
AcDbEllipse
 10
188.0820292488028
 20
307.5640854472609
 30
0.0
 11
-4.0
 21
4.898587196589413E-16
 31
0.0
210
0.0
220
0.0
230
1.0
 40
0.1945927903871763
 41
0.0
 42
6.283185307179586
  0
ELLIPSE
  5
20B
330
1F
100
AcDbEntity
  8
図
  6
CONTINUOUS
 62
     2
100
AcDbEllipse
 10
188.0820292488028
 20
304.8177570093438
 30
0.0
 11
-4.0
 21
4.898587196589413E-16
 31
0.0
210
0.0
220
0.0
230
1.0
 40
0.1973464619492445
 41
0.0
 42
6.283185307179586
  0
ELLIPSE
  5
20C
330
1F
100
AcDbEntity
  8
図
  6
CONTINUOUS
 62
     2
100
AcDbEllipse
 10
174.9547824952137
 20
327.2499999999981
 30
0.0
 11
-1.914284349463665E-15
 21
5.000000000000498
 31
0.0
210
0.0
220
0.0
230
1.0
 40
0.0174550649282065
 41
2.337252201608133
 42
6.537075138080377
  0
ELLIPSE
  5
20D
330
1F
100
AcDbEntity
  8
図
  6
CONTINUOUS
 62
     2
100
AcDbEllipse
 10
201.2092760023918
 20
327.2499999999981
 30
0.0
 11
-1.914284349463665E-15
 21
5.000000000000498
 31
0.0
210
0.0
220
0.0
230
1.0
 40
0.0174550649282065
 41
6.029295476278805
 42
10.22911841275102
  0
ARC
  5
20E
330
1F
100
AcDbEntity
  8
図
  6
CONTINUOUS
 62
     2
100
AcDbCircle
 10
201.0820292488028
 20
315.1271428979489
 30
0.0
 40
1.0
100
AcDbArc
 50
270.0
 51
0.0
  0
ARC
  5
20F
330
1F
100
AcDbEntity
  8
図
  6
CONTINUOUS
 62
     2
100
AcDbCircle
 10
175.0820292488028
 20
315.1271428979489
 30
0.0
 40
1.0
100
AcDbArc
 50
180.0
 51
270.0
  0
LINE
  5
210
330
1F
100
AcDbEntity
  8
図
  6
CONTINUOUS
 62
     2
100
AcDbLine
 10
175.0820292488028
 20
314.1271428979489
 30
0.0
 11
201.0820292488028
 21
314.1271428979489
 31
0.0
  0
LINE
  5
211
330
1F
100
AcDbEntity
  8
図
  6
CONTINUOUS
 62
     2
100
AcDbLine
 10
175.146788209424
 20
315.749999999998
 30
0.0
 11
175.146788209424
 21
338.6852410393767
 31
0.0
  0
ARC
  5
212
330
1F
100
AcDbEntity
  8
図
  6
CONTINUOUS
 62
     2
100
AcDbCircle
 10
176.646788209424
 20
315.749999999998
 30
0.0
 40
1.5
100
AcDbArc
 50
180.0
 51
270.0
  0
LINE
  5
213
330
1F
100
AcDbEntity
  8
図
  6
CONTINUOUS
 62
     2
100
AcDbLine
 10
201.0172702881814
 20
315.749999999998
 30
0.0
 11
201.0172702881814
 21
338.6852410393767
 31
0.0
  0
LINE
  5
214
330
1F
100
AcDbEntity
  8
図
  6
CONTINUOUS
 62
     2
100
AcDbLine
 10
176.646788209424
 20
340.1852410393767
 30
0.0
 11
199.5172702881814
 21
340.1852410393767
 31
0.0
  0
ARC
  5
215
330
1F
100
AcDbEntity
  8
図
  6
CONTINUOUS
 62
     2
100
AcDbCircle
 10
176.646788209424
 20
338.6852410393767
 30
0.0
 40
1.5
100
AcDbArc
 50
90.00000000000001
 51
180.0
  0
ARC
  5
216
330
1F
100
AcDbEntity
  8
図
  6
CONTINUOUS
 62
     2
100
AcDbCircle
 10
199.5172702881814
 20
338.6852410393767
 30
0.0
 40
1.5
100
AcDbArc
 50
0.0
 51
90.00000000000001
  0
LINE
  5
217
330
1F
100
AcDbEntity
  8
図
  6
CONTINUOUS
 62
     2
100
AcDbLine
 10
199.5172702881814
 20
314.249999999998
 30
0.0
 11
176.646788209424
 21
314.249999999998
 31
0.0
  0
ARC
  5
218
330
1F
100
AcDbEntity
  8
図
  6
CONTINUOUS
 62
     2
100
AcDbCircle
 10
199.5172702881814
 20
315.749999999998
 30
0.0
 40
1.5
100
AcDbArc
 50
270.0
 51
0.0
  0
LINE
  5
219
330
1F
100
AcDbEntity
  8
図
  6
CONTINUOUS
 62
     2
100
AcDbLine
 10
202.0820292488028
 20
339.7499999999981
 30
0.0
 11
202.0820292488028
 21
334.7499999999981
 31
0.0
  0
ARC
  5
21A
330
1F
100
AcDbEntity
  8
図
  6
CONTINUOUS
 62
     2
100
AcDbCircle
 10
200.5820292488028
 20
304.749999999998
 30
0.0
 40
1.5
100
AcDbArc
 50
270.0
 51
0.0
  0
ARC
  5
21B
330
1F
100
AcDbEntity
  8
図
  6
CONTINUOUS
 62
     2
100
AcDbCircle
 10
200.5820292488028
 20
339.7499999999981
 30
0.0
 40
1.5
100
AcDbArc
 50
0.0
 51
90.00000000000001
  0
LINE
  5
21C
330
1F
100
AcDbEntity
  8
図
  6
CONTINUOUS
 62
     2
100
AcDbLine
 10
175.5820292488028
 20
303.249999999998
 30
0.0
 11
200.5820292488028
 21
303.249999999998
 31
0.0
  0
LINE
  5
21D
330
1F
100
AcDbEntity
  8
図
  6
CONTINUOUS
 62
     2
100
AcDbLine
 10
174.0820292488028
 20
339.7499999999981
 30
0.0
 11
174.0820292488028
 21
334.7499999999981
 31
0.0
  0
ARC
  5
21E
330
1F
100
AcDbEntity
  8
図
  6
CONTINUOUS
 62
     2
100
AcDbCircle
 10
175.5820292488028
 20
304.749999999998
 30
0.0
 40
1.5
100
AcDbArc
 50
180.0
 51
270.0
  0
ARC
  5
21F
330
1F
100
AcDbEntity
  8
図
  6
CONTINUOUS
 62
     2
100
AcDbCircle
 10
175.5820292488028
 20
339.7499999999981
 30
0.0
 40
1.5
100
AcDbArc
 50
90.00000000000001
 51
180.0
  0
LINE
  5
220
330
1F
100
AcDbEntity
  8
図
  6
CONTINUOUS
 62
     2
100
AcDbLine
 10
175.5820292488028
 20
341.249999999998
 30
0.0
 11
200.5820292488028
 21
341.249999999998
 31
0.0
  0
ARC
  5
221
330
1F
100
AcDbEntity
  8
図
  6
CONTINUOUS
 62
     2
100
AcDbCircle
 10
174.4820292488027
 20
334.4499999999981
 30
0.0
 40
0.3
100
AcDbArc
 50
0.0
 51
90.00000000000001
  0
LINE
  5
222
330
1F
100
AcDbEntity
  8
図
  6
CONTINUOUS
 62
     2
100
AcDbLine
 10
201.6820292488028
 20
334.7499999999981
 30
0.0
 11
212.0820292488027
 21
334.7499999999981
 31
0.0
  0
ARC
  5
223
330
1F
100
AcDbEntity
  8
図
  6
CONTINUOUS
 62
     2
100
AcDbCircle
 10
174.4820292488027
 20
323.0499999999981
 30
0.0
 40
0.3
100
AcDbArc
 50
270.0
 51
0.0
  0
ARC
  5
224
330
1F
100
AcDbEntity
  8
図
  6
CONTINUOUS
 62
     2
100
AcDbCircle
 10
201.6820292488028
 20
323.0499999999981
 30
0.0
 40
0.3
100
AcDbArc
 50
180.0
 51
270.0
  0
LINE
  5
225
330
1F
100
AcDbEntity
  8
図
  6
CONTINUOUS
 62
     2
100
AcDbLine
 10
174.7820292488028
 20
334.4499999999981
 30
0.0
 11
174.7820292488028
 21
323.0499999999981
 31
0.0
  0
LINE
  5
226
330
1F
100
AcDbEntity
  8
図
  6
CONTINUOUS
 62
     2
100
AcDbLine
 10
201.3820292488027
 20
323.0499999999981
 30
0.0
 11
201.3820292488027
 21
334.4499999999981
 31
0.0
  0
ARC
  5
227
330
1F
100
AcDbEntity
  8
図
  6
CONTINUOUS
 62
     2
100
AcDbCircle
 10
201.6820292488028
 20
334.4499999999981
 30
0.0
 40
0.3
100
AcDbArc
 50
90.00000000000001
 51
180.0
  0
ARC
  5
228
330
1F
100
AcDbEntity
  8
図
  6
CONTINUOUS
 62
     2
100
AcDbCircle
 10
175.0820292488028
 20
332.3499999999981
 30
0.0
 40
0.3
100
AcDbArc
 50
180.0
 51
249.7264675082044
  0
ARC
  5
229
330
1F
100
AcDbEntity
  8
図
  6
CONTINUOUS
 62
     2
100
AcDbCircle
 10
175.0820292488028
 20
323.5499999999982
 30
0.0
 40
0.3
100
AcDbArc
 50
102.1937002899803
 51
180.0
  0
ARC
  5
22A
330
1F
100
AcDbEntity
  8
図
  6
CONTINUOUS
 62
     2
100
AcDbCircle
 10
201.0820292488028
 20
332.349999999998
 30
0.0
 40
0.3
100
AcDbArc
 50
290.2735324917904
 51
0.0
  0
ARC
  5
22B
330
1F
100
AcDbEntity
  8
図
  6
CONTINUOUS
 62
     2
100
AcDbCircle
 10
201.0820292488028
 20
323.5499999999981
 30
0.0
 40
0.3
100
AcDbArc
 50
0.0
 51
77.80629971001707
  0
LINE
  5
22C
330
1F
100
AcDbEntity
  8
図
  6
CONTINUOUS
 62
     2
100
AcDbLine
 10
202.0820292488028
 20
322.7499999999981
 30
0.0
 11
202.0820292488028
 21
304.749999999998
 31
0.0
  0
LINE
  5
22D
330
1F
100
AcDbEntity
  8
図
  6
CONTINUOUS
 62
     2
100
AcDbLine
 10
174.0820292488028
 20
322.7499999999981
 30
0.0
 11
174.0820292488028
 21
304.749999999998
 31
0.0
  0
ARC
  5
22E
330
1F
100
AcDbEntity
  8
図
  6
CONTINUOUS
 62
     2
100
AcDbCircle
 10
164.0820292488028
 20
234.7499999999981
 30
0.0
 40
100.0
100
AcDbArc
 50
90.00000000000001
 51
143.1301023541563
  0
ARC
  5
22F
330
1F
100
AcDbEntity
  8
図
  6
CONTINUOUS
 62
     2
100
AcDbCircle
 10
164.0820292488028
 20
234.7499999999981
 30
0.0
 40
88.0
100
AcDbArc
 50
90.00000000000001
 51
143.1301023541563
  0
LINE
  5
230
330
1F
100
AcDbEntity
  8
図
  6
CONTINUOUS
 62
     2
100
AcDbLine
 10
164.0820292488027
 20
322.7499999999981
 30
0.0
 11
174.4820292488027
 21
322.7499999999981
 31
0.0
  0
LINE
  5
231
330
1F
100
AcDbEntity
  8
図
  6
CONTINUOUS
 62
     2
100
AcDbLine
 10
164.0820292488028
 20
334.7499999999981
 30
0.0
 11
174.4820292488027
 21
334.7499999999981
 31
0.0
  0
LINE
  5
232
330
1F
100
AcDbEntity
  8
図
  6
CONTINUOUS
 62
     2
100
AcDbLine
 10
201.6820292488028
 20
322.7499999999981
 30
0.0
 11
212.0820292488027
 21
322.7499999999981
 31
0.0
  0
ARC
  5
233
330
1F
100
AcDbEntity
  8
図
  6
CONTINUOUS
 62
     2
100
AcDbCircle
 10
108.0820292488028
 20
276.7499999999982
 30
0.0
 40
18.0
100
AcDbArc
 50
143.1301023541563
 51
180.0
  0
ARC
  5
234
330
1F
100
AcDbEntity
  8
図
  6
CONTINUOUS
 62
     2
100
AcDbCircle
 10
108.0820292488028
 20
276.7499999999982
 30
0.0
 40
30.0
100
AcDbArc
 50
143.1301023541563
 51
180.0
  0
LINE
  5
235
330
1F
100
AcDbEntity
  8
図
  6
CONTINUOUS
 62
     2
100
AcDbLine
 10
78.08202924880277
 20
276.7499999999982
 30
0.0
 11
78.08202924880277
 21
259.7499999999981
 31
0.0
  0
LINE
  5
236
330
1F
100
AcDbEntity
  8
図
  6
CONTINUOUS
 62
     2
100
AcDbLine
 10
90.08202924880277
 20
276.7499999999982
 30
0.0
 11
90.08202924880277
 21
259.7499999999981
 31
0.0
  0
ARC
  5
237
330
1F
100
AcDbEntity
  8
図
  6
CONTINUOUS
 62
     2
100
AcDbCircle
 10
103.0820292488028
 20
259.7499999999981
 30
0.0
 40
13.0
100
AcDbArc
 50
180.0
 51
270.0
  0
ARC
  5
238
330
1F
100
AcDbEntity
  8
図
  6
CONTINUOUS
 62
     2
100
AcDbCircle
 10
103.0820292488028
 20
259.7499999999981
 30
0.0
 40
25.0
100
AcDbArc
 50
180.0
 51
270.0
  0
LINE
  5
239
330
1F
100
AcDbEntity
  8
図
  6
CONTINUOUS
 62
     2
100
AcDbLine
 10
103.0820292488028
 20
246.7499999999981
 30
0.0
 11
273.0820292488028
 21
246.7499999999981
 31
0.0
  0
LINE
  5
23A
330
1F
100
AcDbEntity
  8
図
  6
CONTINUOUS
 62
     2
100
AcDbLine
 10
103.0820292488028
 20
234.7499999999981
 30
0.0
 11
273.0820292488028
 21
234.7499999999981
 31
0.0
  0
LINE
  5
23B
330
1F
100
AcDbEntity
  8
図
  6
CONTINUOUS
 62
     2
100
AcDbLine
 10
87.58202924880277
 20
485.0293787444962
 30
0.0
 11
174.7943897433743
 21
485.0293787444961
 31
0.0
  0
ARC
  5
23C
330
1F
100
AcDbEntity
  8
図
  6
CONTINUOUS
 62
     2
100
AcDbCircle
 10
87.58202924880277
 20
475.5293787444962
 30
0.0
 40
9.5
100
AcDbArc
 50
270.0
 51
273.8225537292741
  0
ARC
  5
23D
330
1F
100
AcDbEntity
  8
図
  6
CONTINUOUS
 62
     2
100
AcDbCircle
 10
87.58202924880277
 20
475.5293787444962
 30
0.0
 40
9.5
100
AcDbArc
 50
90.00000000000001
 51
270.0
  0
LINE
  5
23E
330
1F
100
AcDbEntity
  8
図
  6
CONTINUOUS
 62
     2
100
AcDbLine
 10
87.58202924880277
 20
466.0293787444962
 30
0.0
 11
175.1534509130732
 21
466.0293787444962
 31
0.0
  0
LINE
  5
23F
330
1F
100
AcDbEntity
  8
図
  6
CONTINUOUS
 62
     2
100
AcDbLine
 10
174.7820292488028
 20
484.7293787444961
 30
0.0
 11
174.7820292488028
 21
466.3293787444961
 31
0.0
  0
ARC
  5
240
330
1F
100
AcDbEntity
  8
図
  6
CONTINUOUS
 62
     2
100
AcDbCircle
 10
174.4820292488027
 20
484.7293787444961
 30
0.0
 40
0.3
100
AcDbArc
 50
0.0
 51
90.00000000000001
  0
ARC
  5
241
330
1F
100
AcDbEntity
  8
図
  6
CONTINUOUS
 62
     2
100
AcDbCircle
 10
174.4820292488027
 20
466.3293787444961
 30
0.0
 40
0.3
100
AcDbArc
 50
270.0
 51
0.0
  0
LINE
  5
242
330
1F
100
AcDbEntity
  8
図
  6
CONTINUOUS
 62
     2
100
AcDbLine
 10
201.3820292488027
 20
484.7293787444961
 30
0.0
 11
201.3820292488027
 21
466.3293787444961
 31
0.0
  0
ARC
  5
243
330
1F
100
AcDbEntity
  8
図
  6
CONTINUOUS
 62
     2
100
AcDbCircle
 10
201.6820292488028
 20
484.7293787444961
 30
0.0
 40
0.3
100
AcDbArc
 50
90.00000000000001
 51
180.0
  0
ARC
  5
244
330
1F
100
AcDbEntity
  8
図
  6
CONTINUOUS
 62
     2
100
AcDbCircle
 10
201.6820292488028
 20
466.3293787444961
 30
0.0
 40
0.3
100
AcDbArc
 50
180.0
 51
270.0
  0
ARC
  5
245
330
1F
100
AcDbEntity
  8
図
  6
CONTINUOUS
 62
     2
100
AcDbCircle
 10
199.543224393508
 20
466.3404841457658
 30
0.0
 40
1.5
100
AcDbArc
 50
270.0
 51
358.9999999999982
  0
LINE
  5
246
330
1F
100
AcDbEntity
  8
図
  6
CONTINUOUS
 62
     2
100
AcDbLine
 10
176.6208341040976
 20
464.8404841457658
 30
0.0
 11
199.543224393508
 21
464.8404841457658
 31
0.0
  0
ARC
  5
247
330
1F
100
AcDbEntity
  8
図
  6
CONTINUOUS
 62
     2
100
AcDbCircle
 10
176.6208341040976
 20
466.3404841457658
 30
0.0
 40
1.5
100
AcDbArc
 50
180.9999999999985
 51
270.0
  0
ARC
  5
248
330
1F
100
AcDbEntity
  8
図
  6
CONTINUOUS
 62
     2
100
AcDbCircle
 10
201.0820292488028
 20
479.2293787444961
 30
0.0
 40
0.3
100
AcDbArc
 50
307.4066789303045
 51
0.0
  0
ARC
  5
249
330
1F
100
AcDbEntity
  8
図
  6
CONTINUOUS
 62
     2
100
AcDbCircle
 10
201.0820292488028
 20
471.8293787444961
 30
0.0
 40
0.3
100
AcDbArc
 50
0.0
 51
78.0036513044002
  0
ARC
  5
24A
330
1F
100
AcDbEntity
  8
図
  6
CONTINUOUS
 62
     2
100
AcDbCircle
 10
175.0820292488029
 20
479.2293787444961
 30
0.0
 40
0.3
100
AcDbArc
 50
180.0
 51
232.5933210697033
  0
ARC
  5
24B
330
1F
100
AcDbEntity
  8
図
  6
CONTINUOUS
 62
     2
100
AcDbCircle
 10
175.0820292488029
 20
471.8293787444961
 30
0.0
 40
0.3
100
AcDbArc
 50
101.9963486955971
 51
180.0
  0
LINE
  5
24C
330
1F
100
AcDbEntity
  8
図
  6
CONTINUOUS
 62
     2
100
AcDbLine
 10
175.121062561363
 20
466.3143055361099
 30
0.0
 11
174.0820292488029
 21
525.8404841457658
 31
0.0
  0
LINE
  5
24D
330
1F
100
AcDbEntity
  8
図
  6
CONTINUOUS
 62
     2
100
AcDbLine
 10
201.0429959362426
 20
466.3143055361099
 30
0.0
 11
202.0820292488029
 21
525.8404841457658
 31
0.0
  0
LINE
  5
24E
330
1F
100
AcDbEntity
  8
図
  6
CONTINUOUS
 62
     2
100
AcDbLine
 10
201.0106075845324
 20
466.0293787444962
 30
0.0
 11
288.5820292488028
 21
466.0293787444962
 31
0.0
  0
LINE
  5
24F
330
1F
100
AcDbEntity
  8
図
  6
CONTINUOUS
 62
     2
100
AcDbLine
 10
201.3696687542314
 20
485.0293787444961
 30
0.0
 11
288.5820292488028
 21
485.0293787444962
 31
0.0
  0
ARC
  5
250
330
1F
100
AcDbEntity
  8
図
  6
CONTINUOUS
 62
     2
100
AcDbCircle
 10
288.5820292488028
 20
475.5293787444962
 30
0.0
 40
9.500000000000028
100
AcDbArc
 50
270.0
 51
90.00000000000001
  0
LINE
  5
251
330
1F
100
AcDbEntity
  8
図
  6
CONTINUOUS
 62
     2
100
AcDbLine
 10
202.0820292488029
 20
525.8404841457658
 30
0.0
 11
174.0820292488029
 21
525.8404841457658
 31
0.0
  0
LINE
  5
252
330
1F
100
AcDbEntity
  8
図
  6
CONTINUOUS
 62
     7
100
AcDbLine
 10
109.0
 20
525.84048414577
 30
0.0
 11
258.5
 21
525.84048414577
 31
0.0
  0
LINE
  5
253
330
1F
100
AcDbEntity
  8
図
  6
CONTINUOUS
 62
     7
100
AcDbLine
 10
434.5
 20
440.0
 30
0.0
 11
434.5
 21
207.75
 31
0.0
  0
TEXT
  5
254
330
1F
100
AcDbEntity
  8
図
  6
CONTINUOUS
 62
     2
100
AcDbText
 10
115.5
 20
525.84048414577
 30
0.0
 40
10.0
  1
W.L
 41
0.6703178999999997
  7
EXCADSTD
 72
     5
 11
131.45995
 21
525.84048414577
 31
0.0
100
AcDbText
  0
TEXT
  5
255
330
1F
100
AcDbEntity
  8
図
  6
CONTINUOUS
 62
     2
100
AcDbText
 10
434.5
 20
421.0
 30
0.0
 40
10.0
  1
W.L
 50
90.0
 41
0.6703178999999997
  7
EXCADSTD
 72
     5
 11
434.5
 21
436.95995
 31
0.0
100
AcDbText
  0
LINE
  5
256
330
1F
100
AcDbEntity
  8
枠_器具表
  6
EXLTYPE2
 62
     6
100
AcDbLine
 10
45.00000000000001
 20
41.25
 30
0.0
 11
122.5
 21
41.25
 31
0.0
  0
TEXT
  5
257
330
1F
100
AcDbEntity
  8
枠_器具表
  6
CONTINUOUS
 62
     6
100
AcDbText
 10
51.87500002980309
 20
50.00000000000001
 30
0.0
 40
12.5
  1
亀井
 41
1.213245090909091
  7
EXCADSTD
 72
     5
 11
75.70660002980308
 21
50.00000000000001
 31
0.0
100
AcDbText
  0
TEXT
  5
258
330
1F
100
AcDbEntity
  8
枠_器具表
  6
CONTINUOUS
 62
     6
100
AcDbText
 10
45.51102905000002
 20
31.73751830000001
 30
0.0
 40
6.25
  1
２８
 41
1.052256764398748
  7
EXCADSTD
 72
     5
 11
55.84569370034487
 21
31.73751830000001
 31
0.0
100
AcDbText
  0
TEXT
  5
259
330
1F
100
AcDbEntity
  8
枠_器具表
  6
CONTINUOUS
 62
     6
100
AcDbText
 10
158.875000014902
 20
50.00000000000001
 30
0.0
 40
12.5
  1
間瀬
 41
1.189913454545455
  7
EXCADSTD
 72
     5
 11
182.248300014902
 21
50.00000000000001
 31
0.0
100
AcDbText
  0
TEXT
  5
25A
330
1F
100
AcDbEntity
  8
枠_器具表
  6
CONTINUOUS
 62
     6
100
AcDbText
 10
127.3750000149012
 20
50.0
 30
0.0
 40
12.5
  1
間瀬
 41
1.073255272727272
  7
EXCADSTD
 72
     5
 11
148.4568000149012
 21
50.0
 31
0.0
100
AcDbText
  0
TEXT
  5
25B
330
1F
100
AcDbEntity
  8
枠_器具表
  6
CONTINUOUS
 62
     6
100
AcDbText
 10
61.13602905000002
 20
31.7375183
 30
0.0
 40
6.25
  1
９
 41
1.189439965820314
  7
EXCADSTD
 72
     5
 11
66.44602889741213
 21
31.7375183
 31
0.0
100
AcDbText
  0
TEXT
  5
25C
330
1F
100
AcDbEntity
  8
枠_器具表
  6
CONTINUOUS
 62
     6
100
AcDbText
 10
71.71102905000001
 20
31.7375183
 30
0.0
 40
6.25
  1
１３
 41
1.052256764398748
  7
EXCADSTD
 72
     5
 11
82.04569370034486
 21
31.7375183
 31
0.0
100
AcDbText
  0
TEXT
  5
25D
330
1F
100
AcDbEntity
  8
枠_器具表
  6
CONTINUOUS
 62
     2
100
AcDbText
 10
50.625
 20
72.1875
 30
0.0
 40
10.625
  1
製図
 41
1.509694117647059
  7
EXCADSTD
 72
     5
 11
75.8315
 21
72.1875
 31
0.0
100
AcDbText
  0
TEXT
  5
25E
330
1F
100
AcDbEntity
  8
枠_器具表
  6
CONTINUOUS
 62
     2
100
AcDbText
 10
188.9375
 20
69.6875
 30
0.0
 40
10.625
  1
品
 41
1.12
  7
EXCADSTD
 72
     5
 11
197.4375
 21
69.6875
 31
0.0
100
AcDbText
  0
TEXT
  5
25F
330
1F
100
AcDbEntity
  8
枠_器具表
  6
CONTINUOUS
 62
     2
100
AcDbText
 10
204.375
 20
60.125
 30
0.0
 40
16.25
  1
樹脂製タオルハンガー
 41
1.013037809647979
  7
EXCADSTD
 72
     5
 11
343.125
 21
60.125
 31
0.0
100
AcDbText
  0
TEXT
  5
260
330
1F
100
AcDbEntity
  8
枠_器具表
  6
CONTINUOUS
 62
     2
100
AcDbText
 10
367.7499999999999
 20
60.625
 30
0.0
 40
16.25
  1
ＮＡ１２１
 41
1.151193633952255
  7
EXCADSTD
 72
     5
 11
445.2499999999999
 21
60.625
 31
0.0
100
AcDbText
  0
HATCH
  5
261
330
1F
100
AcDbEntity
  8
0
  6
CONTINUOUS
 62
     3
100
AcDbHatch
 10
0.0
 20
0.0
 30
0.0
210
0.0
220
0.0
230
1.0
  2
SOLID
 70
     1
 71
     1
 91
        1
 92
        3
 72
     1
 73
     1
 93
       10
 10
77.17252657332504
 20
14.62169932975407
 42
-0.017362223501556
 10
77.18130157332494
 20
19.91842432975383
 42
-0.0267627618865285
 10
77.18130157332502
 20
19.91842432975415
 42
0.0737939047395297
 10
78.47325157332504
 20
19.92382432975378
 42
0.0183878899657109
 10
78.42127657332502
 20
15.14819932975384
 42
-0.1144749489451909
 10
78.21202657332493
 20
14.14244932975411
 42
-0.1929163439413163
 10
77.21640157332521
 20
13.36079932975406
 42
-0.0603888289562337
 10
76.68855157332507
 20
13.22917432975396
 42
0.0
 10
76.56502657332493
 20
13.60514932975401
 42
0.0860918333465722
 10
76.93425157332516
 20
13.80157432975419
 42
0.1331843103855141
 97
        0
 75
     0
 76
     1
 98
        1
 10
0.0
 20
0.0
  0
HATCH
  5
262
330
1F
100
AcDbEntity
  8
0
  6
CONTINUOUS
 62
     3
100
AcDbHatch
 10
0.0
 20
0.0
 30
0.0
210
0.0
220
0.0
230
1.0
  2
SOLID
 70
     1
 71
     1
 91
        1
 92
        3
 72
     1
 73
     1
 93
       16
 10
83.08687657332491
 20
14.51032432975413
 42
-0.0386228372648426
 10
83.08080157332496
 20
17.76449932975413
 42
-0.0398707891902887
 10
83.67142657332488
 20
17.7671993297541
 42
-0.1256886216044368
 10
83.6444265733251
 20
17.21504932975374
 42
-0.0367815758121429
 10
83.64442657332499
 20
17.21504932975372
 42
-0.268021535028829
 10
84.83580157332514
 20
17.83334932975391
 42
-0.2571134422124888
 10
85.65052657332504
 20
17.43037432975406
 42
-0.1522526366014298
 10
85.85775157332498
 20
16.76009932975374
 42
-0.0158825412051521
 10
85.84290157332507
 20
14.50694932975396
 42
-0.0285251271418421
 10
85.2725265733252
 20
14.50694932975401
 42
-0.0452212723224612
 10
85.30155157332487
 20
16.58864932975399
 42
-0.0315567291532142
 10
85.12470157332507
 20
17.20357432975421
 42
-0.1476272403790709
 10
83.97315157332514
 20
17.29199932975412
 42
-0.3908144705745794
 10
83.64847657332501
 20
16.48402432975411
 42
-0.2046259928850854
 10
83.64847657332496
 20
16.48402432975411
 42
0.0
 10
83.69910157332505
 20
14.50492432975381
 42
-0.0304995761723369
 97
        0
 75
     0
 76
     1
 98
        1
 10
0.0
 20
0.0
  0
HATCH
  5
263
330
1F
100
AcDbEntity
  8
0
  6
CONTINUOUS
 62
     3
100
AcDbHatch
 10
0.0
 20
0.0
 30
0.0
210
0.0
220
0.0
230
1.0
  2
SOLID
 70
     1
 71
     1
 91
        2
 92
        1
 93
        1
 72
     2
 10
87.32855140383356
 20
18.958354668737
 40
0.3572334466769884
 50
0.0
 51
360.0
 73
     1
 97
        0
 92
        3
 72
     1
 73
     1
 93
        3
 10
87.00930157332489
 20
17.76989932975385
 42
0.1200283885712921
 10
87.63030157332484
 20
14.50627432975387
 42
-0.0401820615762149
 10
87.00997657332483
 20
14.50424932975391
 42
-0.0237521668114666
 97
        0
 75
     0
 76
     1
 98
        1
 10
0.0
 20
0.0
  0
HATCH
  5
264
330
1F
100
AcDbEntity
  8
0
  6
CONTINUOUS
 62
     3
100
AcDbHatch
 10
0.0
 20
0.0
 30
0.0
210
0.0
220
0.0
230
1.0
  2
SOLID
 70
     1
 71
     1
 91
        1
 92
        3
 72
     1
 73
     1
 93
       30
 10
90.47340157332481
 20
17.6335493297543
 42
-0.0009362235736497
 10
90.47340157332499
 20
17.63354932975397
 42
0.0681165430304653
 10
90.30970934867304
 20
17.14282432975403
 42
0.0
 10
89.69310157332501
 20
17.56469932975421
 42
-0.302112590907374
 10
89.69310157332507
 20
17.56469932975415
 42
0.0
 10
89.07142657332484
 20
17.08814932975386
 42
-0.3704245237568778
 10
89.07142657332491
 20
17.08814932975395
 42
0.0
 10
89.103826573325
 20
16.76954932975408
 42
-0.0262822419456939
 10
89.48722657332505
 20
16.46309932975406
 42
-0.180060563604375
 10
90.09877657332511
 20
16.27679932975404
 42
-0.0298130817160724
 10
90.09877657332486
 20
16.27679932975424
 42
-0.3153987453686078
 10
90.66240157332493
 20
15.63217432975387
 42
0.0
 10
90.6590265733251
 20
15.34394932975395
 42
-0.3510306079065168
 10
89.57227657332487
 20
14.4326993297542
 42
0.0
 10
89.25502657332486
 20
14.43269932975378
 42
-0.1053356344842436
 10
88.55302657332491
 20
14.63519932975392
 42
0.1188608286962634
 10
88.68127657332514
 20
15.14819932975422
 42
0.0
 10
89.45077657332511
 20
14.67569932975415
 42
-0.2447573632916039
 10
89.45077657332496
 20
14.67569932975402
 42
0.0
 10
90.19327657332488
 20
15.19544932975427
 42
-0.3734162676407277
 10
90.19327657332502
 20
15.19544932975373
 42
0.0
 10
89.92395157332507
 20
15.71452432975382
 42
-0.261219770190848
 10
89.29552657332492
 20
15.94267432975382
 42
-0.0572747914118363
 10
89.29552657332496
 20
15.94267432975381
 42
-0.1189658875692221
 10
88.79602657332501
 20
16.23562432975381
 42
-0.2005226878639636
 10
88.58677657332498
 20
16.70744932975617
 42
0.0
 10
88.58340157332505
 20
16.88632432975411
 42
-0.2622894489606957
 10
89.12002657332508
 20
17.70644932975399
 42
-0.0988461274137808
 10
89.62222657332495
 20
17.827274329754
 42
0.0
 10
89.80852657332511
 20
17.82727432975399
 42
-0.0920156312561188
 97
        0
 75
     0
 76
     1
 98
        1
 10
0.0
 20
0.0
  0
HATCH
  5
265
330
1F
100
AcDbEntity
  8
0
  6
CONTINUOUS
 62
     3
100
AcDbHatch
 10
0.0
 20
0.0
 30
0.0
210
0.0
220
0.0
230
1.0
  2
SOLID
 70
     1
 71
     1
 91
        2
 92
        3
 72
     1
 73
     1
 93
       27
 10
79.71727657332502
 20
17.43644932975428
 42
-0.1769427732109284
 10
79.71727657332514
 20
17.43644932975394
 42
0.0
 10
79.71727657332514
 20
17.07194932975392
 42
0.0
 10
79.80502657332497
 20
17.071949329754
 42
-0.207533601427307
 10
80.37474227895694
 20
17.49932359129038
 42
-0.1226604740888933
 10
80.8782765733249
 20
17.51002432975403
 42
-0.3213715781137954
 10
81.3988328022209
 20
16.87106514378466
 42
-0.064704004662446
 10
81.40140157332497
 20
16.53329932975378
 42
-0.257798906330806
 10
81.29542657332514
 20
16.40504932975418
 42
-0.056602577721096
 10
81.06862657332506
 20
16.32607432975411
 42
-0.0166741689362636
 10
80.23702657332502
 20
16.16812432975392
 42
0.1186092302783404
 10
79.6882515733251
 20
15.90487432975419
 42
0.1699204224386695
 10
79.449301573325
 20
15.50527432975407
 42
0.1006533494296199
 10
79.42720866795831
 20
15.15853555095723
 42
0.1675695228968024
 10
79.64370157332505
 20
14.69392432975397
 42
0.1376980079804242
 10
80.03722657332493
 20
14.46644932975399
 42
0.0719813663796923
 10
80.21610157332509
 20
14.43674932975421
 42
0.0
 10
80.49015157332502
 20
14.43674932975399
 42
0.1944607457809085
 10
81.3993765733252
 20
14.90452432975402
 42
0.1288538183665954
 10
81.49117657332494
 20
14.67502432975371
 42
0.2098387395261546
 10
81.79087657332508
 20
14.50964932975376
 42
0.0
 10
82.00822657332519
 20
14.50829932975388
 42
0.0945009641609563
 10
82.32210157332509
 20
14.57512432975386
 42
0.0
 10
82.32210157332507
 20
14.73239932975425
 42
-0.2395739894657535
 10
82.04805157332497
 20
14.729699329754
 42
-0.2502312110031057
 10
81.91305157332489
 20
14.98349932975393
 42
-0.0104343570771765
 10
81.93127657332494
 20
16.87619932975408
 42
0.4051015674140716
 97
        0
 92
        3
 72
     1
 73
     1
 93
        8
 10
81.41355157332502
 20
16.20254932975379
 42
-0.0339435190873666
 10
81.4135515733251
 20
16.20254932975258
 42
-0.0001110072973599
 10
81.38520157332515
 20
15.168449329754
 42
-0.2253076310552528
 10
80.67645157332498
 20
14.69527432975406
 42
0.0
 10
80.50297657332509
 20
14.69527432975394
 42
-0.3657967558150132
 10
79.987276573325
 20
15.24337432975381
 42
0.0
 10
79.98727657332503
 20
15.43912432975398
 42
-0.2530797830369341
 10
80.33557657332511
 20
15.92107432975396
 42
-0.0724473624720066
 97
        0
 75
     0
 76
     1
 98
        1
 10
0.0
 20
0.0
  0
TEXT
  5
267
330
1F
100
AcDbEntity
  8
0
  6
CONTINUOUS
 62
     2
100
AcDbText
 10
92.00000000000023
 20
13.9499999999997
 30
0.0
 40
3.375
  1
ジャニス工業株式会社
 41
1.025641025641026
  7
EXCADTTF1
 72
     5
 11
137.0000000000002
 21
13.9499999999997
 31
0.0
100
AcDbText
  0
ARC
  5
268
330
1F
100
AcDbEntity
  8
0
  6
CONTINUOUS
 62
     3
100
AcDbCircle
 10
80.82685324125526
 20
16.06167288926906
 30
0.0
 40
1.76668351532706
100
AcDbArc
 50
88.77000393305703
 51
128.9068631829044
  0
ARC
  5
269
330
1F
100
AcDbEntity
  8
0
  6
CONTINUOUS
 62
     3
100
AcDbCircle
 10
80.90706272602779
 20
16.80191625973316
 30
0.0
 40
1.02690407511459
100
AcDbArc
 50
4.148222840814693
 51
92.36000944257292
  0
ARC
  5
26A
330
1F
100
AcDbEntity
  8
0
  6
CONTINUOUS
 62
     3
100
AcDbCircle
 10
127.2650135838709
 20
15.49323843931711
 30
0.0
 40
45.35482655865663
100
AcDbArc
 50
178.2526643324597
 51
180.6439560401927
  0
ARC
  5
26B
330
1F
100
AcDbEntity
  8
0
  6
CONTINUOUS
 62
     3
100
AcDbCircle
 10
82.21823989446028
 20
14.9830292878047
 30
0.0
 40
0.30518868310739
100
AcDbArc
 50
179.9117548191414
 51
236.1065985968857
  0
ARC
  5
26C
330
1F
100
AcDbEntity
  8
0
  6
CONTINUOUS
 62
     3
100
AcDbCircle
 10
82.18242078457968
 20
15.00061188741108
 30
0.0
 40
0.30240485913648
100
AcDbArc
 50
243.6191685566582
 51
297.5097757939563
  0
LINE
  5
26D
330
1F
100
AcDbEntity
  8
0
  6
CONTINUOUS
 62
     3
100
AcDbLine
 10
82.32210157332509
 20
14.57512432975386
 30
0.0
 11
82.32210157332509
 21
14.73239932975412
 31
0.0
  0
LINE
  5
26E
330
1F
100
AcDbEntity
  8
0
  6
CONTINUOUS
 62
     3
100
AcDbLine
 10
81.79087657332508
 20
14.50964932975376
 30
0.0
 11
82.00822657332515
 21
14.50964932975376
 31
0.0
  0
ARC
  5
26F
330
1F
100
AcDbEntity
  8
0
  6
CONTINUOUS
 62
     3
100
AcDbCircle
 10
81.98995891945606
 20
15.36464512823011
 30
0.0
 40
0.85654062002089
100
AcDbArc
 50
271.2220539293239
 51
292.8159509797653
  0
ARC
  5
270
330
1F
100
AcDbEntity
  8
0
  6
CONTINUOUS
 62
     3
100
AcDbCircle
 10
81.82937735081458
 20
14.93367456528597
 30
0.0
 40
0.4257695506204
100
AcDbArc
 50
217.4081478714985
 51
264.8118660441384
  0
ARC
  5
271
330
1F
100
AcDbEntity
  8
0
  6
CONTINUOUS
 62
     3
100
AcDbCircle
 10
81.88315560558328
 20
14.96492594265726
 30
0.0
 40
0.48753513400972
100
AcDbArc
 50
187.1167640402297
 51
216.4860549324747
  0
ARC
  5
272
330
1F
100
AcDbEntity
  8
0
  6
CONTINUOUS
 62
     3
100
AcDbCircle
 10
80.36613045867006
 20
15.79534026256817
 30
0.0
 40
1.36423992010393
100
AcDbArc
 50
275.2158792069686
 51
319.2336424873511
  0
LINE
  5
273
330
1F
100
AcDbEntity
  8
0
  6
CONTINUOUS
 62
     3
100
AcDbLine
 10
80.21610157332509
 20
14.43674932975421
 30
0.0
 11
80.49015157332497
 21
14.43674932975421
 31
0.0
  0
ARC
  5
274
330
1F
100
AcDbEntity
  8
0
  6
CONTINUOUS
 62
     3
100
AcDbCircle
 10
80.2292813073675
 20
15.06963494387401
 30
0.0
 40
0.63302283209179
100
AcDbArc
 50
252.3384873625213
 51
268.8069976857606
  0
ARC
  5
275
330
1F
100
AcDbEntity
  8
0
  6
CONTINUOUS
 62
     3
100
AcDbCircle
 10
80.24562953036883
 20
15.28111104772586
 30
0.0
 40
0.84089565775637
100
AcDbArc
 50
224.289750990011
 51
255.6505938786759
  0
ARC
  5
276
330
1F
100
AcDbEntity
  8
0
  6
CONTINUOUS
 62
     3
100
AcDbCircle
 10
80.20915332915513
 20
15.24015021572859
 30
0.0
 40
0.78619234712629
100
AcDbArc
 50
185.9586126338419
 51
224.0091989319859
  0
ARC
  5
277
330
1F
100
AcDbEntity
  8
0
  6
CONTINUOUS
 62
     3
100
AcDbCircle
 10
80.29075018569989
 20
15.27758712547745
 30
0.0
 40
0.87170937258867
100
AcDbArc
 50
164.8589457925044
 51
187.8495628504518
  0
ARC
  5
278
330
1F
100
AcDbEntity
  8
0
  6
CONTINUOUS
 62
     3
100
AcDbCircle
 10
80.13972379030156
 20
15.36366332500813
 30
0.0
 40
0.70479537055792
100
AcDbArc
 50
129.8344892359069
 51
168.4089447024628
  0
ARC
  5
279
330
1F
100
AcDbEntity
  8
0
  6
CONTINUOUS
 62
     3
100
AcDbCircle
 10
80.50970138675785
 20
14.89608481482855
 30
0.0
 40
1.30093661698492
100
AcDbArc
 50
102.0988446293839
 51
129.1556705448828
  0
ARC
  5
27A
330
1F
100
AcDbEntity
  8
0
  6
CONTINUOUS
 62
     3
100
AcDbCircle
 10
78.2853009998579
 20
28.71202029775213
 30
0.0
 40
12.69482409370382
100
AcDbArc
 50
278.8438342053764
 51
282.6649181367123
  0
ARC
  5
27B
330
1F
100
AcDbEntity
  8
0
  6
CONTINUOUS
 62
     3
100
AcDbCircle
 10
80.83433050110904
 20
17.3640736268876
 30
0.0
 40
1.06411333527278
100
AcDbArc
 50
282.7195832898965
 51
295.6781112778079
  0
ARC
  5
27C
330
1F
100
AcDbEntity
  8
0
  6
CONTINUOUS
 62
     3
100
AcDbCircle
 10
81.23230955673341
 20
16.5651133250426
 30
0.0
 40
0.17205882822813
100
AcDbArc
 50
291.5204897073511
 51
349.3445900274031
  0
ARC
  5
27D
330
1F
100
AcDbEntity
  8
0
  6
CONTINUOUS
 62
     3
100
AcDbCircle
 10
80.10053873566568
 20
16.69229870375113
 30
0.0
 40
1.31054375101892
100
AcDbArc
 50
353.0315250986587
 51
7.839947970678348
  0
ARC
  5
27E
330
1F
100
AcDbEntity
  8
0
  6
CONTINUOUS
 62
     3
100
AcDbCircle
 10
80.69283412817674
 20
16.82741886153417
 30
0.0
 40
0.707346538626
100
AcDbArc
 50
3.537639967999379
 51
74.8013566619203
  0
ARC
  5
27F
330
1F
100
AcDbEntity
  8
0
  6
CONTINUOUS
 62
     3
100
AcDbCircle
 10
80.64799095798298
 20
16.49383830513011
 30
0.0
 40
1.04195273466423
100
AcDbArc
 50
77.23143261361693
 51
105.203415964315
  0
ARC
  5
280
330
1F
100
AcDbEntity
  8
0
  6
CONTINUOUS
 62
     3
100
AcDbCircle
 10
80.5825361770298
 20
16.62890191857878
 30
0.0
 40
0.89488110517672
100
AcDbArc
 50
103.4267945469744
 51
150.3242613737993
  0
LINE
  5
281
330
1F
100
AcDbEntity
  8
0
  6
CONTINUOUS
 62
     3
100
AcDbLine
 10
79.71727657332514
 20
17.43644932975394
 30
0.0
 11
79.71727657332514
 21
17.07194932975392
 31
0.0
  0
ARC
  5
282
330
1F
100
AcDbEntity
  8
0
  6
CONTINUOUS
 62
     3
100
AcDbCircle
 10
70.21439565227075
 20
14.97342761922789
 30
0.0
 40
6.9670150498006
100
AcDbArc
 50
353.1274757312911
 51
357.106204490141
  0
ARC
  5
283
330
1F
100
AcDbEntity
  8
0
  6
CONTINUOUS
 62
     3
100
AcDbCircle
 10
27.73385521229307
 20
17.35197335838814
 30
0.0
 40
49.51400430399008
100
AcDbArc
 50
356.8390243485978
 51
2.971133813187157
  0
ARC
  5
284
330
1F
100
AcDbEntity
  8
0
  6
CONTINUOUS
 62
     3
100
AcDbCircle
 10
76.40927386496037
 20
14.33407518472927
 30
0.0
 40
0.74776918553063
100
AcDbArc
 50
314.592391474832
 51
344.9374073189123
  0
ARC
  5
285
330
1F
100
AcDbEntity
  8
0
  6
CONTINUOUS
 62
     3
100
AcDbCircle
 10
76.18347289685437
 20
14.76759859445986
 30
0.0
 40
1.22346700039003
100
AcDbArc
 50
288.1715191042997
 51
307.8537826235693
  0
LINE
  5
286
330
1F
100
AcDbEntity
  8
0
  6
CONTINUOUS
 62
     3
100
AcDbLine
 10
76.68855157332507
 20
13.22917432975396
 30
0.0
 11
76.56502657332487
 21
13.605149329754
 31
0.0
  0
ARC
  5
287
330
1F
100
AcDbEntity
  8
0
  6
CONTINUOUS
 62
     3
100
AcDbCircle
 10
76.40955749866669
 20
15.47223152915387
 30
0.0
 40
2.26034141082136
100
AcDbArc
 50
277.0901027239701
 51
290.9134154817058
  0
ARC
  5
288
330
1F
100
AcDbEntity
  8
0
  6
CONTINUOUS
 62
     3
100
AcDbCircle
 10
76.73897327885476
 20
14.99383518626837
 30
0.0
 40
1.70139468819612
100
AcDbArc
 50
286.2966123578915
 51
329.973223283839
  0
ARC
  5
289
330
1F
100
AcDbEntity
  8
0
  6
CONTINUOUS
 62
     3
100
AcDbCircle
 10
76.14899361790611
 20
15.09631356880072
 30
0.0
 40
2.27287526311431
100
AcDbArc
 50
335.1860595856123
 51
1.308075913059364
  0
ARC
  5
28A
330
1F
100
AcDbEntity
  8
0
  6
CONTINUOUS
 62
     3
100
AcDbCircle
 10
143.3542531413435
 20
16.82960360950824
 30
0.0
 40
64.95474244683605
100
AcDbArc
 50
177.2695926307304
 51
181.4833117237826
  0
ARC
  5
28B
330
1F
100
AcDbEntity
  8
0
  6
CONTINUOUS
 62
     3
100
AcDbCircle
 10
77.80908200122275
 20
24.27417570522232
 30
0.0
 40
4.40075883349047
100
AcDbArc
 50
261.7986203004403
 51
278.6803384946418
  0
ARC
  5
28C
330
1F
100
AcDbEntity
  8
0
  6
CONTINUOUS
 62
     3
100
AcDbCircle
 10
80.2605609935373
 20
20.1750138116048
 30
0.0
 40
4.13640681469402
100
AcDbArc
 50
278.4088456599976
 51
286.1851416003176
  0
ARC
  5
28D
330
1F
100
AcDbEntity
  8
0
  6
CONTINUOUS
 62
     3
100
AcDbCircle
 10
81.15660651757713
 20
14.18318862667968
 30
0.0
 40
1.92206578615521
100
AcDbArc
 50
98.71271710191789
 51
115.2874718053599
  0
ARC
  5
28E
330
1F
100
AcDbEntity
  8
0
  6
CONTINUOUS
 62
     3
100
AcDbCircle
 10
80.60701866837837
 20
15.35807479047173
 30
0.0
 40
0.62501943345705
100
AcDbArc
 50
115.7403688633493
 51
172.5491744442191
  0
LINE
  5
28F
330
1F
100
AcDbEntity
  8
0
  6
CONTINUOUS
 62
     3
100
AcDbLine
 10
79.987276573325
 20
15.43912432975412
 30
0.0
 11
79.987276573325
 21
15.24337432975381
 31
0.0
  0
ARC
  5
290
330
1F
100
AcDbEntity
  8
0
  6
CONTINUOUS
 62
     3
100
AcDbCircle
 10
80.56959653488752
 20
15.2746138009777
 30
0.0
 40
0.583157304847
100
AcDbArc
 50
183.0707787095794
 51
263.4402016072427
  0
LINE
  5
291
330
1F
100
AcDbEntity
  8
0
  6
CONTINUOUS
 62
     3
100
AcDbLine
 10
80.50297657332499
 20
14.69527432975406
 30
0.0
 11
80.67645157332498
 21
14.69527432975406
 31
0.0
  0
ARC
  5
292
330
1F
100
AcDbEntity
  8
0
  6
CONTINUOUS
 62
     3
100
AcDbCircle
 10
80.53244690765928
 20
15.67836489530202
 30
0.0
 40
0.99358160399792
100
AcDbArc
 50
278.3335103000368
 51
329.1221464187299
  0
ARC
  5
293
330
1F
100
AcDbEntity
  8
0
  6
CONTINUOUS
 62
     3
100
AcDbCircle
 10
-2247.501542217735
 20
79.53265245587795
 30
0.0
 40
2329.776001260591
100
AcDbArc
 50
358.4169008257799
 51
358.4423418242109
  0
ARC
  5
294
330
1F
100
AcDbEntity
  8
0
  6
CONTINUOUS
 62
     3
100
AcDbCircle
 10
83.35808780069306
 20
10.55069254511716
 30
0.0
 40
3.9689090944185
100
AcDbArc
 50
85.07099551674689
 51
93.91830029343228
  0
ARC
  5
295
330
1F
100
AcDbEntity
  8
0
  6
CONTINUOUS
 62
     3
100
AcDbCircle
 10
91.04088578951041
 20
15.39150147009786
 30
0.0
 40
7.39512099311493
100
AcDbArc
 50
179.8977458165987
 51
186.8855675734268
  0
ARC
  5
296
330
1F
100
AcDbEntity
  8
0
  6
CONTINUOUS
 62
     3
100
AcDbCircle
 10
84.75661722366402
 20
16.50795225138063
 30
0.0
 40
1.10839895631813
100
AcDbArc
 50
134.9787476233347
 51
181.2369872983282
  0
ARC
  5
297
330
1F
100
AcDbEntity
  8
0
  6
CONTINUOUS
 62
     3
100
AcDbCircle
 10
84.50100145205545
 20
16.62366273138696
 30
0.0
 40
0.851645057047
100
AcDbArc
 50
42.91644474042847
 51
128.3015542351336
  0
ARC
  5
298
330
1F
100
AcDbEntity
  8
0
  6
CONTINUOUS
 62
     3
100
AcDbCircle
 10
84.19447404568535
 20
16.60315138821568
 30
0.0
 40
1.10717250774415
100
AcDbArc
 50
359.2495022237244
 51
32.84055016678327
  0
ARC
  5
299
330
1F
100
AcDbEntity
  8
0
  6
CONTINUOUS
 62
     3
100
AcDbCircle
 10
68.81173378649726
 20
15.77751337882455
 30
0.0
 40
16.50975566668588
100
AcDbArc
 50
355.5862454873798
 51
2.816115806820253
  0
ARC
  5
29A
330
1F
100
AcDbEntity
  8
0
  6
CONTINUOUS
 62
     3
100
AcDbCircle
 10
85.5577140733252
 20
11.36015261922773
 30
0.0
 40
3.15969325212674
100
AcDbArc
 50
84.82155189294139
 51
95.17844810705873
  0
ARC
  5
29B
330
1F
100
AcDbEntity
  8
0
  6
CONTINUOUS
 62
     3
100
AcDbCircle
 10
102.1657633661699
 20
15.29067374739122
 30
0.0
 40
16.34166579853822
100
AcDbArc
 50
176.2131780319488
 51
182.7488833337936
  0
ARC
  5
29C
330
1F
100
AcDbEntity
  8
0
  6
CONTINUOUS
 62
     3
100
AcDbCircle
 10
79.71913601210053
 20
16.53315774812108
 30
0.0
 40
6.14280908786696
100
AcDbArc
 50
358.4775281223095
 51
2.117232414210064
  0
ARC
  5
29D
330
1F
100
AcDbEntity
  8
0
  6
CONTINUOUS
 62
     3
100
AcDbCircle
 10
84.6790551534483
 20
16.76285942451523
 30
0.0
 40
1.17869965146059
100
AcDbArc
 50
359.8658335690532
 51
34.49363429411157
  0
ARC
  5
29E
330
1F
100
AcDbEntity
  8
0
  6
CONTINUOUS
 62
     3
100
AcDbCircle
 10
84.87724057413777
 20
16.89204664797978
 30
0.0
 40
0.94221437555554
100
AcDbArc
 50
34.84393737091607
 51
92.5207065423111
  0
ARC
  5
29F
330
1F
100
AcDbEntity
  8
0
  6
CONTINUOUS
 62
     3
100
AcDbCircle
 10
84.77541069002547
 20
16.49275988818567
 30
0.0
 40
1.34194899665726
100
AcDbArc
 50
87.42068310381028
 51
147.4361518966862
  0
ARC
  5
2A0
330
1F
100
AcDbEntity
  8
0
  6
CONTINUOUS
 62
     3
100
AcDbCircle
 10
87.40574727396171
 20
17.3078568138302
 30
0.0
 40
3.76246550045818
100
AcDbArc
 50
172.9875214416311
 51
181.4134392789641
  0
ARC
  5
2A1
330
1F
100
AcDbEntity
  8
0
  6
CONTINUOUS
 62
     3
100
AcDbCircle
 10
83.37082849861224
 20
18.92206879814489
 30
0.0
 40
1.19334935854602
100
AcDbArc
 50
255.9341994177206
 51
284.5896440601899
  0
ARC
  5
2A2
330
1F
100
AcDbEntity
  8
0
  6
CONTINUOUS
 62
     3
100
AcDbCircle
 10
62.7117698867159
 20
16.09938058671753
 30
0.0
 40
20.43697806131073
100
AcDbArc
 50
355.5405243117485
 51
4.673398698656258
  0
LINE
  5
2A3
330
1F
100
AcDbEntity
  8
0
  6
CONTINUOUS
 62
     3
100
AcDbLine
 10
83.64847657332496
 20
16.48402432975411
 30
0.0
 11
83.64847657332496
 21
15.40469932975407
 31
0.0
  0
CIRCLE
  5
2A4
330
1F
100
AcDbEntity
  8
0
  6
CONTINUOUS
 62
     3
100
AcDbCircle
 10
87.32855140383356
 20
18.958354668737
 30
0.0
 40
0.35723344667699
  0
ARC
  5
2A5
330
1F
100
AcDbEntity
  8
0
  6
CONTINUOUS
 62
     3
100
AcDbCircle
 10
87.31456076027717
 20
19.05332474358056
 30
0.0
 40
1.31922854884021
100
AcDbArc
 50
256.6209501743446
 51
283.9984576255729
  0
ARC
  5
2A6
330
1F
100
AcDbEntity
  8
0
  6
CONTINUOUS
 62
     3
100
AcDbCircle
 10
87.34144089371318
 20
7.979804184123168
 30
0.0
 40
6.53285948525109
100
AcDbArc
 50
87.46575055044718
 51
92.90832285102188
  0
ARC
  5
2A7
330
1F
100
AcDbEntity
  8
0
  6
CONTINUOUS
 62
     3
100
AcDbCircle
 10
107.9254047179555
 20
16.11881005739372
 30
0.0
 40
20.35906390589001
100
AcDbArc
 50
175.3387608397566
 51
184.5428594926176
  0
ARC
  5
2A8
330
1F
100
AcDbEntity
  8
0
  6
CONTINUOUS
 62
     3
100
AcDbCircle
 10
64.86900575363882
 20
16.13249792766248
 30
0.0
 40
22.20076085035812
100
AcDbArc
 50
355.7940354718673
 51
4.229650257234378
  0
ARC
  5
2A9
330
1F
100
AcDbEntity
  8
0
  6
CONTINUOUS
 62
     3
100
AcDbCircle
 10
121.8644453232813
 20
98.80297432964221
 30
0.0
 40
87.02800228963156
100
AcDbArc
 50
248.6422112053103
 51
248.8567777804232
  0
ARC
  5
2AA
330
1F
100
AcDbEntity
  8
0
  6
CONTINUOUS
 62
     3
100
AcDbCircle
 10
89.78542828460581
 20
16.81663038363945
 30
0.0
 40
1.01090786759216
100
AcDbArc
 50
67.66151957087348
 51
88.69073168448988
  0
ARC
  5
2AB
330
1F
100
AcDbEntity
  8
0
  6
CONTINUOUS
 62
     3
100
AcDbCircle
 10
89.67711044283908
 20
16.50979097937602
 30
0.0
 40
1.31997486536753
100
AcDbArc
 50
92.38301574576484
 51
114.9635286746436
  0
ARC
  5
2AC
330
1F
100
AcDbEntity
  8
0
  6
CONTINUOUS
 62
     3
100
AcDbCircle
 10
89.57963496799613
 20
16.82009291101872
 30
0.0
 40
0.99843256030919
100
AcDbArc
 50
117.4083995939977
 51
176.1964688215695
  0
ARC
  5
2AD
330
1F
100
AcDbEntity
  8
0
  6
CONTINUOUS
 62
     3
100
AcDbCircle
 10
89.25599257926001
 20
16.72192769075502
 30
0.0
 40
0.66937260590561
100
AcDbArc
 50
181.2393899443581
 51
226.5942921332421
  0
ARC
  5
2AE
330
1F
100
AcDbEntity
  8
0
  6
CONTINUOUS
 62
     3
100
AcDbCircle
 10
89.6526814579949
 20
17.12396411006659
 30
0.0
 40
1.23410095077957
100
AcDbArc
 50
226.0402388947521
 51
253.1776672992999
  0
ARC
  5
2AF
330
1F
100
AcDbEntity
  8
0
  6
CONTINUOUS
 62
     3
100
AcDbCircle
 10
88.61714891830422
 20
13.09457141755183
 30
0.0
 40
2.92777841397275
100
AcDbArc
 50
63.49050203733571
 51
76.60259219849584
  0
ARC
  5
2B0
330
1F
100
AcDbEntity
  8
0
  6
CONTINUOUS
 62
     3
100
AcDbCircle
 10
89.73080045853669
 20
15.29846225433141
 30
0.0
 40
0.45871015221901
100
AcDbArc
 50
6.53892419415897
 51
65.09756080693691
  0
ARC
  5
2B1
330
1F
100
AcDbEntity
  8
0
  6
CONTINUOUS
 62
     3
100
AcDbCircle
 10
89.60357777446495
 20
15.27002363757185
 30
0.0
 40
0.59439549187668
100
AcDbArc
 50
270.8867385422408
 51
352.7925382056677
  0
ARC
  5
2B2
330
1F
100
AcDbEntity
  8
0
  6
CONTINUOUS
 62
     3
100
AcDbCircle
 10
89.5636104323487
 20
15.5665863977739
 30
0.0
 40
0.89800403546253
100
AcDbArc
 50
207.7689879465537
 51
262.7817283832026
  0
ARC
  5
2B3
330
1F
100
AcDbEntity
  8
0
  6
CONTINUOUS
 62
     3
100
AcDbCircle
 10
89.3793005459276
 20
16.18156576810998
 30
0.0
 40
1.75327631578002
100
AcDbArc
 50
241.8829576087176
 51
265.9354096935781
  0
ARC
  5
2B4
330
1F
100
AcDbEntity
  8
0
  6
CONTINUOUS
 62
     3
100
AcDbCircle
 10
89.54663886467563
 20
15.56692467118035
 30
0.0
 40
1.13451505818065
100
AcDbArc
 50
271.2948770866743
 51
348.6654156292868
  0
ARC
  5
2B5
330
1F
100
AcDbEntity
  8
0
  6
CONTINUOUS
 62
     3
100
AcDbCircle
 10
89.92045721291936
 20
15.55217258531593
 30
0.0
 40
0.74624507572961
100
AcDbArc
 50
6.154262763177246
 51
76.17509904255616
  0
ARC
  5
2B6
330
1F
100
AcDbEntity
  8
0
  6
CONTINUOUS
 62
     3
100
AcDbCircle
 10
91.35384669692064
 20
21.49359310503507
 30
0.0
 40
5.36564425851668
100
AcDbArc
 50
249.6420733479936
 51
256.4727051201885
  0
ARC
  5
2B7
330
1F
100
AcDbEntity
  8
0
  6
CONTINUOUS
 62
     3
100
AcDbCircle
 10
89.70721352387449
 20
17.13138641766614
 30
0.0
 40
0.70356370733718
100
AcDbArc
 50
210.9501336849607
 51
251.7794729821079
  0
ARC
  5
2B8
330
1F
100
AcDbEntity
  8
0
  6
CONTINUOUS
 62
     3
100
AcDbCircle
 10
90.43031407332626
 20
17.23823182975445
 30
0.0
 40
1.4068519372934
100
AcDbArc
 50
193.4375782160214
 51
199.459638038058
  0
ARC
  5
2B9
330
1F
100
AcDbEntity
  8
0
  6
CONTINUOUS
 62
     3
100
AcDbCircle
 10
89.60350964860515
 20
17.026749947079
 30
0.0
 40
0.53561393110393
100
AcDbArc
 50
92.11404364449162
 51
173.4175047026091
  0
ARC
  5
2BA
330
1F
100
AcDbEntity
  8
0
  6
CONTINUOUS
 62
     3
100
AcDbCircle
 10
89.64147339127499
 20
16.95429236291682
 30
0.0
 40
0.61258643010225
100
AcDbArc
 50
17.92452211681263
 51
85.16543319077402
  0
LINE
  5
2BB
330
1F
100
AcDbEntity
  8
0
  6
CONTINUOUS
 62
     3
100
AcDbLine
 10
89.80852657332497
 20
17.827274329754
 30
0.0
 11
89.62222657332495
 21
17.827274329754
 31
0.0
  0
LINE
  5
2BC
330
1F
100
AcDbEntity
  8
0
  6
CONTINUOUS
 62
     3
100
AcDbLine
 10
89.45077657332496
 20
14.67569932975402
 30
0.0
 11
89.61277657332494
 21
14.67569932975402
 31
0.0
  0
LINE
  5
2BD
330
1F
100
AcDbEntity
  8
0
  6
CONTINUOUS
 62
     3
100
AcDbLine
 10
88.769026573325
 20
15.14819932975422
 30
0.0
 11
88.68127657332514
 21
15.14819932975422
 31
0.0
  0
LINE
  5
2BE
330
1F
100
AcDbEntity
  8
0
  6
CONTINUOUS
 62
     3
100
AcDbLine
 10
89.25502657332493
 20
14.4326993297542
 30
0.0
 11
89.57227657332487
 21
14.4326993297542
 31
0.0
  0
LINE
  5
2BF
330
1F
100
AcDbEntity
  8
0
  6
CONTINUOUS
 62
     3
100
AcDbLine
 10
79.71727657332514
 20
17.07194932975392
 30
0.0
 11
79.805026573325
 21
17.07194932975392
 31
0.0
  0
ARC
  5
2C0
330
1F
100
AcDbEntity
  8
0
  6
CONTINUOUS
 62
     3
100
AcDbCircle
 10
87.5534413132093
 20
15.15779759564987
 30
0.0
 40
1.12795374007884
100
AcDbArc
 50
332.3987521421788
 51
359.5124385477116
  0
LINE
  5
2C1
330
1F
100
AcDbEntity
  8
0
  6
CONTINUOUS
 62
     3
100
AcDbLine
 10
90.18652657332501
 20
15.35069932975398
 30
0.0
 11
90.19327657332502
 21
15.19544932975373
 31
0.0
  0
LINE
  5
2C2
330
1F
100
AcDbEntity
  8
0
  6
CONTINUOUS
 62
     3
100
AcDbLine
 10
90.66240157332493
 20
15.63217432975387
 30
0.0
 11
90.65902657332492
 21
15.34394932975397
 31
0.0
  0
LINE
  5
2C3
330
1F
100
AcDbEntity
  8
0
  6
CONTINUOUS
 62
     3
100
AcDbLine
 10
89.07142657332491
 20
17.08814932975395
 30
0.0
 11
89.0619765733249
 21
16.91129932975423
 31
0.0
  0
LINE
  5
2C4
330
1F
100
AcDbEntity
  8
0
  6
CONTINUOUS
 62
     3
100
AcDbLine
 10
88.58340157332498
 20
16.88632432975419
 30
0.0
 11
88.58677657332498
 21
16.70744932975617
 31
0.0
  0
LINE
  5
2C5
330
1F
100
AcDbEntity
  8
0
  6
CONTINUOUS
 62
     3
100
AcDbLine
 10
89.58375157332489
 20
17.56199932975414
 30
0.0
 11
89.69310157332507
 21
17.56469932975415
 31
0.0
  0
LINE
  5
2C6
330
1F
100
AcDbEntity
  8
0
  6
CONTINUOUS
 62
     3
100
AcDbLine
 10
90.22432657332507
 20
17.14282432975403
 30
0.0
 11
90.30970934867304
 21
17.14282432975403
 31
0.0
  0
ARC
  5
2C7
330
1F
100
AcDbEntity
  8
0
  6
CONTINUOUS
 62
     3
100
AcDbCircle
 10
92.18424810688708
 20
16.79019437507486
 30
0.0
 40
1.90741800373783
100
AcDbArc
 50
153.7591918158497
 51
169.3462759801917
  0
TEXT
  5
2C8
330
1F
100
AcDbEntity
  8
枠_器具表
  6
CONTINUOUS
 62
     7
100
AcDbText
 10
377.7499999999999
 20
32.125
 30
0.0
 40
16.25
  1
９７２２００
 41
1.169230769230769
  7
EXCADSTD
 72
     5
 11
472.7499999999999
 21
32.125
 31
0.0
100
AcDbText
  0
ENDSEC
  0
SECTION
  2
OBJECTS
  0
DICTIONARY
  5
C
330
0
100
AcDbDictionary
  3
ACAD_GROUP
350
D
  3
ACAD_LAYOUT
350
1A
  3
ACAD_MATERIAL
350
3B
  3
ACAD_MLEADERSTYLE
350
2EB
  3
ACAD_MLINESTYLE
350
17
  3
ACAD_PLOTSETTINGS
350
19
  3
ACAD_VISUALSTYLE
350
2A
  3
ACDBHEADERROUNDTRIPXREC
350
2C9
  3
ACDBVARIABLEDICTIONARY
350
2E9
  0
DICTIONARY
  5
D
102
{ACAD_REACTORS
330
C
102
}
330
C
100
AcDbDictionary
  0
DICTIONARY
  5
1A
102
{ACAD_REACTORS
330
C
102
}
330
C
100
AcDbDictionary
  0
DICTIONARY
  5
3B
102
{ACAD_REACTORS
330
C
102
}
330
C
100
AcDbDictionary
  3
BYBLOCK
350
3D
  3
BYLAYER
350
3C
  3
GLOBAL
350
3E
  0
DICTIONARY
  5
2EB
102
{ACAD_REACTORS
330
C
102
}
330
C
100
AcDbDictionary
  0
DICTIONARY
  5
17
102
{ACAD_REACTORS
330
C
102
}
330
C
100
AcDbDictionary
  3
STANDARD
350
18
  0
DICTIONARY
  5
19
102
{ACAD_REACTORS
330
C
102
}
330
C
100
AcDbDictionary
  0
DICTIONARY
  5
2A
102
{ACAD_REACTORS
330
C
102
}
330
C
100
AcDbDictionary
  3
2DWIREFRAME
350
2F
  3
3D_HIDDEN
350
31
  3
3DWIREFRAME
350
30
  3
BASIC
350
32
  3
BRIGHTEN
350
36
  3
COLORCHANGE
350
3A
  3
CONCEPTUAL
350
34
  3
DIM
350
35
  3
FACEPATTERN
350
39
  3
FLAT
350
2B
  3
FLATWITHEDGES
350
2C
  3
GOURAUD
350
2D
  3
GOURAUDWITHEDGES
350
2E
  3
LINEPATTERN
350
38
  3
REALISTIC
350
33
  3
THICKEN
350
37
  0
DICTIONARY
  5
2C9
102
{ACAD_REACTORS
330
C
102
}
330
C
100
AcDbDictionary
  3
CEPSNTYPE
350
2D2
  3
DIMSTYLEDATA
350
2E8
  3
FINGERPRINTGUID
350
2D3
  3
HYPERLINKBASE
350
2CC
  3
INSUNITS
350
2D1
  3
LAYOUTDICT
350
2CE
  3
LWETCUNION
350
2D0
  3
PLOTSETDICT
350
2CF
  3
PSVPSCALE
350
2D5
  3
PUCSBASE
350
2D8
  3
PUCSORGBACK
350
2DE
  3
PUCSORGBOTTOM
350
2DA
  3
PUCSORGFRONT
350
2DD
  3
PUCSORGLEFT
350
2DB
  3
PUCSORGRIGHT
350
2DC
  3
PUCSORGTOP
350
2D9
  3
PUCSORTHOREF
350
2D6
  3
PUCSORTHOVIEW
350
2D7
  3
STYLESHEET
350
2CD
  3
TSTACKALIGN
350
2CA
  3
TSTACKSIZE
350
2CB
  3
UCSBASE
350
2E1
  3
UCSORGBACK
350
2E7
  3
UCSORGBOTTOM
350
2E3
  3
UCSORGFRONT
350
2E6
  3
UCSORGLEFT
350
2E4
  3
UCSORGRIGHT
350
2E5
  3
UCSORGTOP
350
2E2
  3
UCSORTHOREF
350
2DF
  3
UCSORTHOVIEW
350
2E0
  3
VERSIONGUID
350
2D4
  0
DICTIONARY
  5
2E9
102
{ACAD_REACTORS
330
C
102
}
330
C
100
AcDbDictionary
  3
DIMASSOC
350
2EE
  3
HIDETEXT
350
2EF
  3
PSOLHEIGHT
350
2ED
  3
PSOLWIDTH
350
2EC
  0
MATERIAL
  5
3D
102
{ACAD_REACTORS
330
3B
102
}
102
{ACAD_XDICTIONARY
360
2F2
102
}
330
3B
100
AcDbMaterial
  1
ByBlock
  0
MATERIAL
  5
3C
102
{ACAD_REACTORS
330
3B
102
}
102
{ACAD_XDICTIONARY
360
2F0
102
}
330
3B
100
AcDbMaterial
  1
ByLayer
  0
MATERIAL
  5
3E
102
{ACAD_REACTORS
330
3B
102
}
102
{ACAD_XDICTIONARY
360
2F4
102
}
330
3B
100
AcDbMaterial
  1
Global
  0
MLINESTYLE
  5
18
102
{ACAD_REACTORS
330
17
102
}
330
17
100
AcDbMlineStyle
  2
Standard
 70
     0
  3

 62
   256
 51
90.0
 52
90.0
 71
     2
 49
0.5
 62
   256
  6
BYLAYER
 49
-0.5
 62
   256
  6
BYLAYER
  0
ACAD_PROXY_OBJECT
  5
2F
102
{ACAD_REACTORS
330
2A
102
}
330
2A
100
AcDbProxyObject
 90
      499
 91
      501
 93
      436
310
42CC9915DA5C99599C985B595049028333333333333E3BF0000000000000FB0107901411070040501600405405064090741402480A0340
1001
ACAD
1000
AcDbSavedByObjectVersion
1070
     0
  0
ACAD_PROXY_OBJECT
  5
31
102
{ACAD_REACTORS
330
2A
102
}
330
2A
100
AcDbProxyObject
 90
      499
 91
      501
 93
      500
310
424CD108121A5919195B90640502408333333333333E3BF0000000000000FB01079024090700405020000000000001110200405405064090740C02480A0340
1001
ACAD
1000
AcDbSavedByObjectVersion
1070
     0
  0
ACAD_PROXY_OBJECT
  5
30
102
{ACAD_REACTORS
330
2A
102
}
330
2A
100
AcDbProxyObject
 90
      499
 91
      501
 93
      436
310
42CCD915DA5C99599C985B595059028333333333333E3BF0000000000000FB0107901411070040501600405405064090741402480A0340
1001
ACAD
1000
AcDbSavedByObjectVersion
1070
     0
  0
ACAD_PROXY_OBJECT
  5
32
102
{ACAD_REACTORS
330
2A
102
}
330
2A
100
AcDbProxyObject
 90
      499
 91
      501
 93
      388
310
4150985CDA58D07406404333333333333E3BF0000000000000FB0107A41107004050150841D405064090741402480A0350
1001
ACAD
1000
AcDbSavedByObjectVersion
1070
     0
  0
ACAD_PROXY_OBJECT
  5
36
102
{ACAD_REACTORS
330
2A
102
}
330
2A
100
AcDbProxyObject
 90
      499
 91
      501
 93
      428
310
42109C9A59DA1D195B90C409028333333333333E3BF0000000000000FB010790141107004050150841D405064090741402480A029950
1001
ACAD
1000
AcDbSavedByObjectVersion
1070
     0
  0
ACAD_PROXY_OBJECT
  5
3A
102
{ACAD_REACTORS
330
2A
102
}
330
2A
100
AcDbProxyObject
 90
      499
 91
      501
 93
      452
310
42D0DBDB1BDC90DA185B99D95104090240C333333333333E3BF0000000000000FB0108901411070040501508421405064090741402480A0350
1001
ACAD
1000
AcDbSavedByObjectVersion
1070
     0
  0
ACAD_PROXY_OBJECT
  5
34
102
{ACAD_REACTORS
330
2A
102
}
330
2A
100
AcDbProxyObject
 90
      499
 91
      501
 93
      500
310
4290DBDB98D95C1D1D585B10940D028333333333333E3BF0000000000000FB0107902409070040501000000000000111010841D405064090740C02480A0340
1001
ACAD
1000
AcDbSavedByObjectVersion
1070
     0
  0
ACAD_PROXY_OBJECT
  5
35
102
{ACAD_REACTORS
330
2A
102
}
330
2A
100
AcDbProxyObject
 90
      499
 91
      501
 93
      412
310
40D11A5B50B409028333333333333E3BF0000000000000FB010790141107004050150841D405064090741402480A02677FFFFFD0
1001
ACAD
1000
AcDbSavedByObjectVersion
1070
     0
  0
ACAD_PROXY_OBJECT
  5
39
102
{ACAD_REACTORS
330
2A
102
}
330
2A
100
AcDbProxyObject
 90
      499
 91
      501
 93
      444
310
42D19858D95C185D1D195C9B90F409028333333333333E3BF0000000000000FB010790141107004050150841D405064090741402480A0350
1001
ACAD
1000
AcDbSavedByObjectVersion
1070
     0
  0
ACAD_PROXY_OBJECT
  5
2B
102
{ACAD_REACTORS
330
2A
102
}
330
2A
100
AcDbProxyObject
 90
      499
 91
      501
 93
      388
310
41119B185D240901404333333333333E3BF0000000000000F9010740A41107004050150841D405064090741402480A1B50
1001
ACAD
1000
AcDbSavedByObjectVersion
1070
     0
  0
ACAD_PROXY_OBJECT
  5
2C
102
{ACAD_REACTORS
330
2A
102
}
330
2A
100
AcDbProxyObject
 90
      499
 91
      501
 93
      476
310
43519B185D15DA5D1A115919D95CD0140901404333333333333E3BF0000000000000F9010740901411070040501600405405064090741402480A1B50
1001
ACAD
1000
AcDbSavedByObjectVersion
1070
     0
  0
ACAD_PROXY_OBJECT
  5
2D
102
{ACAD_REACTORS
330
2A
102
}
330
2A
100
AcDbProxyObject
 90
      499
 91
      501
 93
      412
310
41D1DBDD5C985D5910240902404333333333333E3BF0000000000000F9010740A411070040501641D405064090741402480A1B50
1001
ACAD
1000
AcDbSavedByObjectVersion
1070
     0
  0
ACAD_PROXY_OBJECT
  5
2E
102
{ACAD_REACTORS
330
2A
102
}
330
2A
100
AcDbProxyObject
 90
      499
 91
      501
 93
      500
310
4411DBDD5C985D5915DA5D1A115919D95CD0340902404333333333333E3BF0000000000000F9010740901411070040501600405405064090741402480A1B50
1001
ACAD
1000
AcDbSavedByObjectVersion
1070
     0
  0
ACAD_PROXY_OBJECT
  5
38
102
{ACAD_REACTORS
330
2A
102
}
330
2A
100
AcDbProxyObject
 90
      499
 91
      501
 93
      444
310
42D31A5B995C185D1D195C9B90E409028333333333333E3BF0000000000000FB010790141107004050750841D405064090741402483A0350
1001
ACAD
1000
AcDbSavedByObjectVersion
1070
     0
  0
ACAD_PROXY_OBJECT
  5
33
102
{ACAD_REACTORS
330
2A
102
}
330
2A
100
AcDbProxyObject
 90
      499
 91
      501
 93
      420
310
425499585B1A5CDD1A58D08409028333333333333E3BF0000000000000FB01079019070040501508421405064090741402480A1B40
1001
ACAD
1000
AcDbSavedByObjectVersion
1070
     0
  0
ACAD_PROXY_OBJECT
  5
37
102
{ACAD_REACTORS
330
2A
102
}
330
2A
100
AcDbProxyObject
 90
      499
 91
      501
 93
      412
310
41D51A1A58DAD95B90D409028333333333333E3BF0000000000000FB010790141107004050150C41D405064090741402480A0350
1001
ACAD
1000
AcDbSavedByObjectVersion
1070
     0
  0
XRECORD
  5
2D2
102
{ACAD_REACTORS
330
2C9
102
}
330
2C9
100
AcDbXrecord
 90
        0
  0
XRECORD
  5
2E8
102
{ACAD_REACTORS
330
2C9
102
}
330
2C9
100
AcDbXrecord
1000
DSTYLE
1002
{
1070
   340
340
11
1002
}
  0
XRECORD
  5
2D3
102
{ACAD_REACTORS
330
2C9
102
}
330
2C9
100
AcDbXrecord
  1
{8B940DE3-06E5-44D5-A1FE-07FA015E8CD5}
  0
XRECORD
  5
2CC
102
{ACAD_REACTORS
330
2C9
102
}
330
2C9
100
AcDbXrecord
  1

  0
XRECORD
  5
2D1
102
{ACAD_REACTORS
330
2C9
102
}
330
2C9
100
AcDbXrecord
 90
        4
  0
XRECORD
  5
2CE
102
{ACAD_REACTORS
330
2C9
102
}
330
2C9
100
AcDbXrecord
340
1A
  0
XRECORD
  5
2D0
102
{ACAD_REACTORS
330
2C9
102
}
330
2C9
100
AcDbXrecord
 90
    10781
  0
XRECORD
  5
2CF
102
{ACAD_REACTORS
330
2C9
102
}
330
2C9
100
AcDbXrecord
340
19
  0
XRECORD
  5
2D5
102
{ACAD_REACTORS
330
2C9
102
}
330
2C9
100
AcDbXrecord
 40
0.0
  0
XRECORD
  5
2D8
102
{ACAD_REACTORS
330
2C9
102
}
330
2C9
100
AcDbXrecord
340
0
  0
XRECORD
  5
2DE
102
{ACAD_REACTORS
330
2C9
102
}
330
2C9
100
AcDbXrecord
 10
0.0
 20
0.0
 30
0.0
  0
XRECORD
  5
2DA
102
{ACAD_REACTORS
330
2C9
102
}
330
2C9
100
AcDbXrecord
 10
0.0
 20
0.0
 30
0.0
  0
XRECORD
  5
2DD
102
{ACAD_REACTORS
330
2C9
102
}
330
2C9
100
AcDbXrecord
 10
0.0
 20
0.0
 30
0.0
  0
XRECORD
  5
2DB
102
{ACAD_REACTORS
330
2C9
102
}
330
2C9
100
AcDbXrecord
 10
0.0
 20
0.0
 30
0.0
  0
XRECORD
  5
2DC
102
{ACAD_REACTORS
330
2C9
102
}
330
2C9
100
AcDbXrecord
 10
0.0
 20
0.0
 30
0.0
  0
XRECORD
  5
2D9
102
{ACAD_REACTORS
330
2C9
102
}
330
2C9
100
AcDbXrecord
 10
0.0
 20
0.0
 30
0.0
  0
XRECORD
  5
2D6
102
{ACAD_REACTORS
330
2C9
102
}
330
2C9
100
AcDbXrecord
340
0
  0
XRECORD
  5
2D7
102
{ACAD_REACTORS
330
2C9
102
}
330
2C9
100
AcDbXrecord
 70
     0
  0
XRECORD
  5
2CD
102
{ACAD_REACTORS
330
2C9
102
}
330
2C9
100
AcDbXrecord
  1

  0
XRECORD
  5
2CA
102
{ACAD_REACTORS
330
2C9
102
}
330
2C9
100
AcDbXrecord
 90
        1
  0
XRECORD
  5
2CB
102
{ACAD_REACTORS
330
2C9
102
}
330
2C9
100
AcDbXrecord
 90
       70
  0
XRECORD
  5
2E1
102
{ACAD_REACTORS
330
2C9
102
}
330
2C9
100
AcDbXrecord
340
0
  0
XRECORD
  5
2E7
102
{ACAD_REACTORS
330
2C9
102
}
330
2C9
100
AcDbXrecord
 10
0.0
 20
0.0
 30
0.0
  0
XRECORD
  5
2E3
102
{ACAD_REACTORS
330
2C9
102
}
330
2C9
100
AcDbXrecord
 10
0.0
 20
0.0
 30
0.0
  0
XRECORD
  5
2E6
102
{ACAD_REACTORS
330
2C9
102
}
330
2C9
100
AcDbXrecord
 10
0.0
 20
0.0
 30
0.0
  0
XRECORD
  5
2E4
102
{ACAD_REACTORS
330
2C9
102
}
330
2C9
100
AcDbXrecord
 10
0.0
 20
0.0
 30
0.0
  0
XRECORD
  5
2E5
102
{ACAD_REACTORS
330
2C9
102
}
330
2C9
100
AcDbXrecord
 10
0.0
 20
0.0
 30
0.0
  0
XRECORD
  5
2E2
102
{ACAD_REACTORS
330
2C9
102
}
330
2C9
100
AcDbXrecord
 10
0.0
 20
0.0
 30
0.0
  0
XRECORD
  5
2DF
102
{ACAD_REACTORS
330
2C9
102
}
330
2C9
100
AcDbXrecord
340
0
  0
XRECORD
  5
2E0
102
{ACAD_REACTORS
330
2C9
102
}
330
2C9
100
AcDbXrecord
 70
     0
  0
XRECORD
  5
2D4
102
{ACAD_REACTORS
330
2C9
102
}
330
2C9
100
AcDbXrecord
  1
{FAEB1C32-E019-11D5-929B-00C0DF256EC4}
  0
DICTIONARYVAR
  5
2EE
102
{ACAD_REACTORS
330
2E9
102
}
330
2E9
100
DictionaryVariables
280
     0
  1
2
  0
DICTIONARYVAR
  5
2EF
102
{ACAD_REACTORS
330
2E9
102
}
330
2E9
100
DictionaryVariables
280
     0
  1
1
  0
DICTIONARYVAR
  5
2ED
102
{ACAD_REACTORS
330
2E9
102
}
330
2E9
100
DictionaryVariables
280
     0
  1
80.000000
  0
DICTIONARYVAR
  5
2EC
102
{ACAD_REACTORS
330
2E9
102
}
330
2E9
100
DictionaryVariables
280
     0
  1
5.000000
  0
DICTIONARY
  5
2F2
330
3D
100
AcDbDictionary
280
     1
  3
ACAD_XREC_ROUNDTRIP
360
2F3
  0
DICTIONARY
  5
2F0
330
3C
100
AcDbDictionary
280
     1
  3
ACAD_XREC_ROUNDTRIP
360
2F1
  0
DICTIONARY
  5
2F4
330
3E
100
AcDbDictionary
280
     1
  3
ACAD_XREC_ROUNDTRIP
360
2F5
  0
XRECORD
  5
2F3
102
{ACAD_REACTORS
330
2F2
102
}
330
2F2
100
AcDbXrecord
102
MATERIAL
148
0.0
149
0.0
149
0.0
 93
        0
 94
      127
282
     0
 72
     1
 77
     1
171
     1
175
     1
179
     1
273
     0
  0
XRECORD
  5
2F1
102
{ACAD_REACTORS
330
2F0
102
}
330
2F0
100
AcDbXrecord
102
MATERIAL
148
0.0
149
0.0
149
0.0
 93
        0
 94
      127
282
     0
 72
     1
 77
     1
171
     1
175
     1
179
     1
273
     0
  0
XRECORD
  5
2F5
102
{ACAD_REACTORS
330
2F4
102
}
330
2F4
100
AcDbXrecord
102
MATERIAL
148
0.0
149
0.0
149
0.0
 93
        0
 94
      127
282
     0
 72
     1
 77
     1
171
     1
175
     1
179
     1
273
     0
  0
ENDSEC
  0
EOF
