  0
SECTION
  2
HEADER
  9
$ACADVER
  1
AC1014
  9
$ACADMAINTVER
 70
     9
  9
$DWGCODEPAGE
  3
ANSI_932
  9
$INSBASE
 10
0.0
 20
0.0
 30
0.0
  9
$EXTMIN
 10
-1.999999999999991
 20
0.0
 30
0.0
  9
$EXTMAX
 10
208.0
 20
297.0
 30
0.0
  9
$LIMMIN
 10
0.0
 20
0.0
  9
$LIMMAX
 10
210.0
 20
297.0
  9
$ORTHOMODE
 70
     0
  9
$REGENMODE
 70
     1
  9
$FILLMODE
 70
     1
  9
$QTEXTMODE
 70
     0
  9
$MIRRTEXT
 70
     1
  9
$DRAGMODE
 70
     2
  9
$LTSCALE
 40
1.0
  9
$OSMODE
 70
    37
  9
$ATTMODE
 70
     1
  9
$TEXTSIZE
 40
2.5
  9
$TRACEWID
 40
1.0
  9
$TEXTSTYLE
  7
STANDARD
  9
$CLAYER
  8
_
  9
$CELTYPE
  6
BYLAYER
  9
$CECOLOR
 62
   256
  9
$CELTSCALE
 40
1.0
  9
$DELOBJ
 70
     1
  9
$DISPSILH
 70
     0
  9
$DIMSCALE
 40
1.0
  9
$DIMASZ
 40
2.5
  9
$DIMEXO
 40
0.625
  9
$DIMDLI
 40
3.75
  9
$DIMRND
 40
0.0
  9
$DIMDLE
 40
0.0
  9
$DIMEXE
 40
1.25
  9
$DIMTP
 40
0.0
  9
$DIMTM
 40
0.0
  9
$DIMTXT
 40
2.5
  9
$DIMCEN
 40
2.5
  9
$DIMTSZ
 40
0.0
  9
$DIMTOL
 70
     0
  9
$DIMLIM
 70
     0
  9
$DIMTIH
 70
     0
  9
$DIMTOH
 70
     0
  9
$DIMSE1
 70
     0
  9
$DIMSE2
 70
     0
  9
$DIMTAD
 70
     1
  9
$DIMZIN
 70
     8
  9
$DIMBLK
  1

  9
$DIMASO
 70
     1
  9
$DIMSHO
 70
     1
  9
$DIMPOST
  1

  9
$DIMAPOST
  1

  9
$DIMALT
 70
     0
  9
$DIMALTD
 70
     3
  9
$DIMALTF
 40
0.03937007874016
  9
$DIMLFAC
 40
1.0
  9
$DIMTOFL
 70
     1
  9
$DIMTVP
 40
0.0
  9
$DIMTIX
 70
     0
  9
$DIMSOXD
 70
     0
  9
$DIMSAH
 70
     0
  9
$DIMBLK1
  1

  9
$DIMBLK2
  1

  9
$DIMSTYLE
  2
ISO-25
  9
$DIMCLRD
 70
     0
  9
$DIMCLRE
 70
     0
  9
$DIMCLRT
 70
     0
  9
$DIMTFAC
 40
1.0
  9
$DIMGAP
 40
0.625
  9
$DIMJUST
 70
     0
  9
$DIMSD1
 70
     0
  9
$DIMSD2
 70
     0
  9
$DIMTOLJ
 70
     0
  9
$DIMTZIN
 70
     8
  9
$DIMALTZ
 70
     0
  9
$DIMALTTZ
 70
     0
  9
$DIMFIT
 70
     3
  9
$DIMUPT
 70
     0
  9
$DIMUNIT
 70
     2
  9
$DIMDEC
 70
     2
  9
$DIMTDEC
 70
     2
  9
$DIMALTU
 70
     2
  9
$DIMALTTD
 70
     3
  9
$DIMTXSTY
  7
STANDARD
  9
$DIMAUNIT
 70
     0
  9
$LUNITS
 70
     2
  9
$LUPREC
 70
     4
  9
$SKETCHINC
 40
1.0
  9
$FILLETRAD
 40
10.0
  9
$AUNITS
 70
     0
  9
$AUPREC
 70
     0
  9
$MENU
  1
.
  9
$ELEVATION
 40
0.0
  9
$PELEVATION
 40
0.0
  9
$THICKNESS
 40
0.0
  9
$LIMCHECK
 70
     0
  9
$CHAMFERA
 40
10.0
  9
$CHAMFERB
 40
10.0
  9
$CHAMFERC
 40
20.0
  9
$CHAMFERD
 40
0.0
  9
$SKPOLY
 70
     0
  9
$TDCREATE
 40
2457409.710492859
  9
$TDUPDATE
 40
2457409.710494305
  9
$TDINDWG
 40
0.0000000116
  9
$TDUSRTIMER
 40
0.0000000116
  9
$USRTIMER
 70
     1
  9
$ANGBASE
 50
0.0
  9
$ANGDIR
 70
     0
  9
$PDMODE
 70
     0
  9
$PDSIZE
 40
0.0
  9
$PLINEWID
 40
0.0
  9
$COORDS
 70
     1
  9
$SPLFRAME
 70
     0
  9
$SPLINETYPE
 70
     6
  9
$SPLINESEGS
 70
     8
  9
$ATTDIA
 70
     0
  9
$ATTREQ
 70
     1
  9
$HANDLING
 70
     1
  9
$HANDSEED
  5
583
  9
$SURFTAB1
 70
     6
  9
$SURFTAB2
 70
     6
  9
$SURFTYPE
 70
     6
  9
$SURFU
 70
     6
  9
$SURFV
 70
     6
  9
$UCSNAME
  2

  9
$UCSORG
 10
0.0
 20
0.0
 30
0.0
  9
$UCSXDIR
 10
1.0
 20
0.0
 30
0.0
  9
$UCSYDIR
 10
0.0
 20
1.0
 30
0.0
  9
$PUCSNAME
  2

  9
$PUCSORG
 10
0.0
 20
0.0
 30
0.0
  9
$PUCSXDIR
 10
1.0
 20
0.0
 30
0.0
  9
$PUCSYDIR
 10
0.0
 20
1.0
 30
0.0
  9
$USERI1
 70
     0
  9
$USERI2
 70
     0
  9
$USERI3
 70
     0
  9
$USERI4
 70
     0
  9
$USERI5
 70
     0
  9
$USERR1
 40
0.0
  9
$USERR2
 40
0.0
  9
$USERR3
 40
0.0
  9
$USERR4
 40
0.0
  9
$USERR5
 40
0.0
  9
$WORLDVIEW
 70
     1
  9
$SHADEDGE
 70
     3
  9
$SHADEDIF
 70
    70
  9
$TILEMODE
 70
     1
  9
$MAXACTVP
 70
    64
  9
$PINSBASE
 10
0.0
 20
0.0
 30
0.0
  9
$PLIMCHECK
 70
     0
  9
$PEXTMIN
 10
1.000000000000000E+20
 20
1.000000000000000E+20
 30
1.000000000000000E+20
  9
$PEXTMAX
 10
-1.000000000000000E+20
 20
-1.000000000000000E+20
 30
-1.000000000000000E+20
  9
$PLIMMIN
 10
0.0
 20
0.0
  9
$PLIMMAX
 10
420.0
 20
297.0
  9
$UNITMODE
 70
     0
  9
$VISRETAIN
 70
     1
  9
$PLINEGEN
 70
     0
  9
$PSLTSCALE
 70
     1
  9
$TREEDEPTH
 70
  3020
  9
$PICKSTYLE
 70
     1
  9
$CMLSTYLE
  2
STANDARD
  9
$CMLJUST
 70
     0
  9
$CMLSCALE
 40
20.0
  9
$PROXYGRAPHICS
 70
     1
  9
$MEASUREMENT
 70
     1
  0
ENDSEC
  0
SECTION
  2
CLASSES
  0
CLASS
  1
ACDBDICTIONARYWDFLT
  2
AcDbDictionaryWithDefault
  3
ObjectDBX Classes
 90
        0
280
     0
281
     0
  0
CLASS
  1
VISUALSTYLE
  2
AcDbVisualStyle
  3
ObjectDBX Classes
 90
     4095
280
     0
281
     0
  0
CLASS
  1
MATERIAL
  2
AcDbMaterial
  3
ObjectDBX Classes
 90
     1153
280
     0
281
     0
  0
CLASS
  1
SUN
  2
AcDbSun
  3
SCENEOE
 90
     1024
280
     0
281
     0
  0
CLASS
  1
DICTIONARYVAR
  2
AcDbDictionaryVar
  3
ObjectDBX Classes
 90
        0
280
     0
281
     0
  0
CLASS
  1
XRECORD
  2
AcDbXrecord
  3
AutoCAD 2000
 90
        0
280
     0
281
     0
  0
CLASS
  1
LWPOLYLINE
  2
AcDbPolyline
  3
AutoCAD 2000
 90
        0
280
     0
281
     1
  0
CLASS
  1
HATCH
  2
AcDbHatch
  3
AutoCAD 2000
 90
        0
280
     0
281
     1
  0
CLASS
  1
ACDBPLACEHOLDER
  2
AcDbPlaceHolder
  3
ObjectDBX Classes
 90
        0
280
     0
281
     0
  0
CLASS
  1
LAYOUT
  2
AcDbLayout
  3
ObjectDBX Classes
 90
        0
280
     0
281
     0
  0
ENDSEC
  0
SECTION
  2
TABLES
  0
TABLE
  2
VPORT
  5
8
330
0
100
AcDbSymbolTable
 70
     1
  0
VPORT
  5
29
330
8
100
AcDbSymbolTableRecord
100
AcDbViewportTableRecord
  2
*ACTIVE
 70
     0
 10
0.0
 20
0.0
 11
1.0
 21
1.0
 12
206.0
 22
297.0
 13
0.0
 23
0.0
 14
10.0
 24
10.0
 15
10.0
 25
10.0
 16
0.0
 26
0.0
 36
1.0
 17
0.0
 27
0.0
 37
0.0
 40
594.0
 41
0.7070707070707072
 42
50.0
 43
0.0
 44
0.0
 50
0.0
 51
0.0
 71
     0
 72
  1000
 73
     1
 74
     3
 75
     0
 76
     0
 77
     0
 78
     0
  0
ENDTAB
  0
TABLE
  2
LTYPE
  5
5
330
0
100
AcDbSymbolTable
 70
     7
  0
LTYPE
  5
14
330
5
100
AcDbSymbolTableRecord
100
AcDbLinetypeTableRecord
  2
BYBLOCK
 70
     0
  3

 72
    65
 73
     0
 40
0.0
  0
LTYPE
  5
15
330
5
100
AcDbSymbolTableRecord
100
AcDbLinetypeTableRecord
  2
BYLAYER
 70
     0
  3

 72
    65
 73
     0
 40
0.0
  0
LTYPE
  5
16
330
5
100
AcDbSymbolTableRecord
100
AcDbLinetypeTableRecord
  2
CONTINUOUS
 70
     0
  3
Solid line
 72
    65
 73
     0
 40
0.0
  0
LTYPE
  5
40
330
5
100
AcDbSymbolTableRecord
100
AcDbLinetypeTableRecord
  2
EXLTYPE1
 70
     0
  3
破線
 72
    65
 73
     2
 40
3.0
 49
2.0
 74
     0
 49
-1.0
 74
     0
  0
LTYPE
  5
41
330
5
100
AcDbSymbolTableRecord
100
AcDbLinetypeTableRecord
  2
EXLTYPE2
 70
     0
  3
点線
 72
    65
 73
     2
 40
2.0
 49
1.0
 74
     0
 49
-1.0
 74
     0
  0
LTYPE
  5
42
330
5
100
AcDbSymbolTableRecord
100
AcDbLinetypeTableRecord
  2
EXLTYPE3
 70
     0
  3
一点鎖線
 72
    65
 73
     4
 40
10.0
 49
7.0
 74
     0
 49
-1.0
 74
     0
 49
1.0
 74
     0
 49
-1.0
 74
     0
  0
LTYPE
  5
43
330
5
100
AcDbSymbolTableRecord
100
AcDbLinetypeTableRecord
  2
EXLTYPE4
 70
     0
  3
二点鎖線
 72
    65
 73
     6
 40
12.0
 49
7.0
 74
     0
 49
-1.0
 74
     0
 49
1.0
 74
     0
 49
-1.0
 74
     0
 49
1.0
 74
     0
 49
-1.0
 74
     0
  0
LTYPE
  5
44
330
5
100
AcDbSymbolTableRecord
100
AcDbLinetypeTableRecord
  2
EXLTYPE5
 70
     0
  3
三点鎖線
 72
    65
 73
     8
 40
37.0
 49
30.0
 74
     0
 49
-1.0
 74
     0
 49
1.0
 74
     0
 49
-1.0
 74
     0
 49
1.0
 74
     0
 49
-1.0
 74
     0
 49
1.0
 74
     0
 49
-1.0
 74
     0
  0
LTYPE
  5
45
330
5
100
AcDbSymbolTableRecord
100
AcDbLinetypeTableRecord
  2
EXLTYPE6
 70
     0
  3
四点鎖線
 72
    65
 73
    10
 40
39.0
 49
30.0
 74
     0
 49
-1.0
 74
     0
 49
1.0
 74
     0
 49
-1.0
 74
     0
 49
1.0
 74
     0
 49
-1.0
 74
     0
 49
1.0
 74
     0
 49
-1.0
 74
     0
 49
1.0
 74
     0
 49
-1.0
 74
     0
  0
ENDTAB
  0
TABLE
  2
LAYER
  5
2
330
0
100
AcDbSymbolTable
 70
     5
  0
LAYER
  5
10
330
2
100
AcDbSymbolTableRecord
100
AcDbLayerTableRecord
  2
0
 70
     0
 62
     7
  6
CONTINUOUS
  0
LAYER
  5
48
330
2
100
AcDbSymbolTableRecord
100
AcDbLayerTableRecord
  2
_
 70
     0
 62
     7
  6
CONTINUOUS
  0
LAYER
  5
49
330
2
100
AcDbSymbolTableRecord
100
AcDbLayerTableRecord
  2
__2
 70
     0
 62
     7
  6
CONTINUOUS
  0
LAYER
  5
4A
330
2
100
AcDbSymbolTableRecord
100
AcDbLayerTableRecord
  2
LAY-3
 70
     0
 62
     7
  6
CONTINUOUS
  0
LAYER
  5
293
330
2
100
AcDbSymbolTableRecord
100
AcDbLayerTableRecord
  2
DEFPOINTS
 70
     0
 62
     7
  6
CONTINUOUS
  0
ENDTAB
  0
TABLE
  2
STYLE
  5
3
330
0
100
AcDbSymbolTable
 70
     4
  0
STYLE
  5
11
330
3
100
AcDbSymbolTableRecord
100
AcDbTextStyleTableRecord
  2
STANDARD
 70
     0
 40
0.0
 41
1.0
 50
0.0
 71
     0
 42
2.5
  3
monotxt
  4
extfont
  0
STYLE
  5
46
330
3
100
AcDbSymbolTableRecord
100
AcDbTextStyleTableRecord
  2
EXCADSTD
 70
     0
 40
0.0
 41
1.0
 50
0.0
 71
     0
 42
0.2
  3
monotxt
  4
extfont
  0
STYLE
  5
47
330
3
100
AcDbSymbolTableRecord
100
AcDbTextStyleTableRecord
  2
EXCADVERT
 70
     4
 40
0.0
 41
1.0
 50
0.0
 71
     0
 42
0.286885
  3
monotxt
  4
extfont
  0
STYLE
  5
291
330
3
100
AcDbSymbolTableRecord
100
AcDbTextStyleTableRecord
  2
EXCADDIM1
 70
     0
 40
0.0
 41
0.84
 50
0.0
 71
     0
 42
0.2
  3
monotxt
  4
extfont
  0
ENDTAB
  0
TABLE
  2
VIEW
  5
6
330
0
100
AcDbSymbolTable
 70
     0
  0
ENDTAB
  0
TABLE
  2
UCS
  5
7
330
0
100
AcDbSymbolTable
 70
     0
  0
ENDTAB
  0
TABLE
  2
APPID
  5
9
330
0
100
AcDbSymbolTable
 70
     1
  0
APPID
  5
12
330
9
100
AcDbSymbolTableRecord
100
AcDbRegAppTableRecord
  2
ACAD
 70
     0
  0
ENDTAB
  0
TABLE
  2
DIMSTYLE
  5
A
330
0
100
AcDbSymbolTable
 70
     1
  0
DIMSTYLE
105
27
102
{ACAD_REACTORS
330
292
330
2A0
330
2AD
330
2BE
330
2CB
330
2D8
102
}
330
A
100
AcDbSymbolTableRecord
100
AcDbDimStyleTableRecord
  2
ISO-25
 70
     0
  3

  4

  5

  6

  7

 40
1.0
 41
2.5
 42
0.625
 43
3.75
 44
1.25
 45
0.0
 46
0.0
 47
0.0
 48
0.0
140
2.5
141
2.5
142
0.0
143
0.03937007874016
144
1.0
145
0.0
146
1.0
147
0.625
 71
     0
 72
     0
 73
     0
 74
     0
 75
     0
 76
     0
 77
     1
 78
     8
170
     0
171
     3
172
     1
173
     0
174
     0
175
     0
176
     0
177
     0
178
     0
270
     2
271
     2
272
     2
273
     2
274
     3
340
11
275
     0
280
     0
281
     0
282
     0
283
     0
284
     8
285
     0
286
     0
287
     5
288
     0
  0
ENDTAB
  0
TABLE
  2
BLOCK_RECORD
  5
1
330
0
100
AcDbSymbolTable
 70
    21
  0
BLOCK_RECORD
  5
1F
330
1
100
AcDbSymbolTableRecord
100
AcDbBlockTableRecord
  2
*MODEL_SPACE
  0
BLOCK_RECORD
  5
1B
330
1
100
AcDbSymbolTableRecord
100
AcDbBlockTableRecord
  2
*PAPER_SPACE
  0
BLOCK_RECORD
  5
4B
330
1
100
AcDbSymbolTableRecord
100
AcDbBlockTableRecord
  2
EX_NORM
  0
BLOCK_RECORD
  5
4E
330
1
100
AcDbSymbolTableRecord
100
AcDbBlockTableRecord
  2
EX_BNORM
  0
BLOCK_RECORD
  5
51
330
1
100
AcDbSymbolTableRecord
100
AcDbBlockTableRecord
  2
EX_BCIR
  0
BLOCK_RECORD
  5
54
330
1
100
AcDbSymbolTableRecord
100
AcDbBlockTableRecord
  2
EX_RCIVIL
  0
BLOCK_RECORD
  5
57
330
1
100
AcDbSymbolTableRecord
100
AcDbBlockTableRecord
  2
EX_SLANT
  0
BLOCK_RECORD
  5
5A
330
1
100
AcDbSymbolTableRecord
100
AcDbBlockTableRecord
  2
EX_NONE
  0
BLOCK_RECORD
  5
5D
330
1
100
AcDbSymbolTableRecord
100
AcDbBlockTableRecord
  2
EX_CIVIL
  0
BLOCK_RECORD
  5
60
330
1
100
AcDbSymbolTableRecord
100
AcDbBlockTableRecord
  2
EX_WCIR
  0
BLOCK_RECORD
  5
63
330
1
100
AcDbSymbolTableRecord
100
AcDbBlockTableRecord
  2
EX_WCIR2
  0
BLOCK_RECORD
  5
66
330
1
100
AcDbSymbolTableRecord
100
AcDbBlockTableRecord
  2
EX_WNORM
  0
BLOCK_RECORD
  5
69
330
1
100
AcDbSymbolTableRecord
100
AcDbBlockTableRecord
  2
EX_NNORM
  0
BLOCK_RECORD
  5
6C
330
1
100
AcDbSymbolTableRecord
100
AcDbBlockTableRecord
  2
EX_BBOX
  0
BLOCK_RECORD
  5
6F
330
1
100
AcDbSymbolTableRecord
100
AcDbBlockTableRecord
  2
EX_WBOX
  0
BLOCK_RECORD
  5
72
330
1
100
AcDbSymbolTableRecord
100
AcDbBlockTableRecord
  2
EX_INTEGRAL
  0
BLOCK_RECORD
  5
294
330
1
100
AcDbSymbolTableRecord
100
AcDbBlockTableRecord
  2
*D15
  0
BLOCK_RECORD
  5
2A1
330
1
100
AcDbSymbolTableRecord
100
AcDbBlockTableRecord
  2
*D16
  0
BLOCK_RECORD
  5
2AE
330
1
100
AcDbSymbolTableRecord
100
AcDbBlockTableRecord
  2
*D17
  0
BLOCK_RECORD
  5
2BF
330
1
100
AcDbSymbolTableRecord
100
AcDbBlockTableRecord
  2
*D18
  0
BLOCK_RECORD
  5
2CC
330
1
100
AcDbSymbolTableRecord
100
AcDbBlockTableRecord
  2
*D19
  0
BLOCK_RECORD
  5
2D9
330
1
100
AcDbSymbolTableRecord
100
AcDbBlockTableRecord
  2
*D20
  0
ENDTAB
  0
ENDSEC
  0
SECTION
  2
BLOCKS
  0
BLOCK
  5
20
330
1F
100
AcDbEntity
  8
0
100
AcDbBlockBegin
  2
*MODEL_SPACE
 70
     0
 10
0.0
 20
0.0
 30
0.0
  3
*MODEL_SPACE
  1

  0
ENDBLK
  5
21
330
1F
100
AcDbEntity
  8
0
100
AcDbBlockEnd
  0
BLOCK
  5
1C
330
1B
100
AcDbEntity
 67
     1
  8
0
100
AcDbBlockBegin
  2
*PAPER_SPACE
 70
     0
 10
0.0
 20
0.0
 30
0.0
  3
*PAPER_SPACE
  1

  0
ENDBLK
  5
1D
330
1B
100
AcDbEntity
 67
     1
  8
0
100
AcDbBlockEnd
  0
BLOCK
  5
4C
330
4B
100
AcDbEntity
  8
0
100
AcDbBlockBegin
  2
EX_NORM
 70
     0
 10
0.0
 20
0.0
 30
0.0
  3
EX_NORM
  1

  0
LINE
  5
75
330
4B
100
AcDbEntity
  8
0
  6
CONTINUOUS
 62
     0
100
AcDbLine
 10
0.0
 20
0.0
 30
0.0
 11
-1.0
 21
0.0
 31
0.0
  0
LINE
  5
76
330
4B
100
AcDbEntity
  8
0
  6
CONTINUOUS
 62
     0
100
AcDbLine
 10
0.0
 20
0.0
 30
0.0
 11
-1.0
 21
0.166666667
 31
0.0
  0
LINE
  5
77
330
4B
100
AcDbEntity
  8
0
  6
CONTINUOUS
 62
     0
100
AcDbLine
 10
0.0
 20
0.0
 30
0.0
 11
-1.0
 21
-0.166666667
 31
0.0
  0
ENDBLK
  5
4D
330
4B
100
AcDbEntity
  8
0
100
AcDbBlockEnd
  0
BLOCK
  5
4F
330
4E
100
AcDbEntity
  8
0
100
AcDbBlockBegin
  2
EX_BNORM
 70
     0
 10
0.0
 20
0.0
 30
0.0
  3
EX_BNORM
  1

  0
LINE
  5
78
330
4E
100
AcDbEntity
  8
0
  6
CONTINUOUS
 62
     0
100
AcDbLine
 10
0.0
 20
0.0
 30
0.0
 11
-1.0
 21
0.0
 31
0.0
  0
LINE
  5
79
330
4E
100
AcDbEntity
  8
0
  6
CONTINUOUS
 62
     0
100
AcDbLine
 10
0.0
 20
0.0
 30
0.0
 11
-1.0
 21
0.166666667
 31
0.0
  0
LINE
  5
7A
330
4E
100
AcDbEntity
  8
0
  6
CONTINUOUS
 62
     0
100
AcDbLine
 10
0.0
 20
0.0
 30
0.0
 11
-1.0
 21
-0.166666667
 31
0.0
  0
LINE
  5
7B
330
4E
100
AcDbEntity
  8
0
  6
CONTINUOUS
 62
     0
100
AcDbLine
 10
0.0
 20
0.0
 30
0.0
 11
-1.0
 21
0.083333333
 31
0.0
  0
LINE
  5
7C
330
4E
100
AcDbEntity
  8
0
  6
CONTINUOUS
 62
     0
100
AcDbLine
 10
0.0
 20
0.0
 30
0.0
 11
-1.0
 21
-0.083333333
 31
0.0
  0
LINE
  5
7D
330
4E
100
AcDbEntity
  8
0
  6
CONTINUOUS
 62
     0
100
AcDbLine
 10
-1.0
 20
0.166666667
 30
0.0
 11
-1.0
 21
-0.166666667
 31
0.0
  0
ENDBLK
  5
50
330
4E
100
AcDbEntity
  8
0
100
AcDbBlockEnd
  0
BLOCK
  5
52
330
51
100
AcDbEntity
  8
0
100
AcDbBlockBegin
  2
EX_BCIR
 70
     0
 10
0.0
 20
0.0
 30
0.0
  3
EX_BCIR
  1

  0
LINE
  5
7E
330
51
100
AcDbEntity
  8
0
  6
CONTINUOUS
 62
     0
100
AcDbLine
 10
0.0
 20
0.0
 30
0.0
 11
-1.0
 21
0.0
 31
0.0
  0
CIRCLE
  5
7F
330
51
100
AcDbEntity
  8
0
  6
CONTINUOUS
 62
     0
100
AcDbCircle
 10
0.0
 20
0.0
 30
0.0
 40
0.5
  0
CIRCLE
  5
80
330
51
100
AcDbEntity
  8
0
  6
CONTINUOUS
 62
     0
100
AcDbCircle
 10
0.0
 20
0.0
 30
0.0
 40
0.25
  0
ENDBLK
  5
53
330
51
100
AcDbEntity
  8
0
100
AcDbBlockEnd
  0
BLOCK
  5
55
330
54
100
AcDbEntity
  8
0
100
AcDbBlockBegin
  2
EX_RCIVIL
 70
     0
 10
0.0
 20
0.0
 30
0.0
  3
EX_RCIVIL
  1

  0
LINE
  5
81
330
54
100
AcDbEntity
  8
0
  6
CONTINUOUS
 62
     0
100
AcDbLine
 10
0.0
 20
0.0
 30
0.0
 11
-1.0
 21
0.0
 31
0.0
  0
LINE
  5
82
330
54
100
AcDbEntity
  8
0
  6
CONTINUOUS
 62
     0
100
AcDbLine
 10
-1.0
 20
-0.25
 30
0.0
 11
0.0
 21
-0.25
 31
0.0
  0
LINE
  5
83
330
54
100
AcDbEntity
  8
0
  6
CONTINUOUS
 62
     0
100
AcDbLine
 10
-1.0
 20
-0.125
 30
0.0
 11
0.0
 21
-0.125
 31
0.0
  0
ENDBLK
  5
56
330
54
100
AcDbEntity
  8
0
100
AcDbBlockEnd
  0
BLOCK
  5
58
330
57
100
AcDbEntity
  8
0
100
AcDbBlockBegin
  2
EX_SLANT
 70
     0
 10
0.0
 20
0.0
 30
0.0
  3
EX_SLANT
  1

  0
LINE
  5
84
330
57
100
AcDbEntity
  8
0
  6
CONTINUOUS
 62
     0
100
AcDbLine
 10
0.0
 20
0.0
 30
0.0
 11
-1.0
 21
0.0
 31
0.0
  0
LINE
  5
85
330
57
100
AcDbEntity
  8
0
  6
CONTINUOUS
 62
     0
100
AcDbLine
 10
0.707106781
 20
0.707106781
 30
0.0
 11
-0.707106781
 21
-0.707106781
 31
0.0
  0
ENDBLK
  5
59
330
57
100
AcDbEntity
  8
0
100
AcDbBlockEnd
  0
BLOCK
  5
5B
330
5A
100
AcDbEntity
  8
0
100
AcDbBlockBegin
  2
EX_NONE
 70
     0
 10
0.0
 20
0.0
 30
0.0
  3
EX_NONE
  1

  0
LINE
  5
86
330
5A
100
AcDbEntity
  8
0
  6
CONTINUOUS
 62
     0
100
AcDbLine
 10
0.0
 20
0.0
 30
0.0
 11
-1.0
 21
0.0
 31
0.0
  0
ENDBLK
  5
5C
330
5A
100
AcDbEntity
  8
0
100
AcDbBlockEnd
  0
BLOCK
  5
5E
330
5D
100
AcDbEntity
  8
0
100
AcDbBlockBegin
  2
EX_CIVIL
 70
     0
 10
0.0
 20
0.0
 30
0.0
  3
EX_CIVIL
  1

  0
LINE
  5
87
330
5D
100
AcDbEntity
  8
0
  6
CONTINUOUS
 62
     0
100
AcDbLine
 10
0.0
 20
0.0
 30
0.0
 11
-1.0
 21
0.0
 31
0.0
  0
LINE
  5
88
330
5D
100
AcDbEntity
  8
0
  6
CONTINUOUS
 62
     0
100
AcDbLine
 10
-1.0
 20
0.25
 30
0.0
 11
0.0
 21
0.25
 31
0.0
  0
LINE
  5
89
330
5D
100
AcDbEntity
  8
0
  6
CONTINUOUS
 62
     0
100
AcDbLine
 10
-1.0
 20
0.125
 30
0.0
 11
0.0
 21
0.125
 31
0.0
  0
ENDBLK
  5
5F
330
5D
100
AcDbEntity
  8
0
100
AcDbBlockEnd
  0
BLOCK
  5
61
330
60
100
AcDbEntity
  8
0
100
AcDbBlockBegin
  2
EX_WCIR
 70
     0
 10
0.0
 20
0.0
 30
0.0
  3
EX_WCIR
  1

  0
LINE
  5
8A
330
60
100
AcDbEntity
  8
0
  6
CONTINUOUS
 62
     0
100
AcDbLine
 10
0.0
 20
0.0
 30
0.0
 11
-1.0
 21
0.0
 31
0.0
  0
CIRCLE
  5
8B
330
60
100
AcDbEntity
  8
0
  6
CONTINUOUS
 62
     0
100
AcDbCircle
 10
0.0
 20
0.0
 30
0.0
 40
0.5
  0
ENDBLK
  5
62
330
60
100
AcDbEntity
  8
0
100
AcDbBlockEnd
  0
BLOCK
  5
64
330
63
100
AcDbEntity
  8
0
100
AcDbBlockBegin
  2
EX_WCIR2
 70
     0
 10
0.0
 20
0.0
 30
0.0
  3
EX_WCIR2
  1

  0
LINE
  5
8C
330
63
100
AcDbEntity
  8
0
  6
CONTINUOUS
 62
     0
100
AcDbLine
 10
-0.5
 20
0.0
 30
0.0
 11
-1.0
 21
0.0
 31
0.0
  0
CIRCLE
  5
8D
330
63
100
AcDbEntity
  8
0
  6
CONTINUOUS
 62
     0
100
AcDbCircle
 10
0.0
 20
0.0
 30
0.0
 40
0.5
  0
ENDBLK
  5
65
330
63
100
AcDbEntity
  8
0
100
AcDbBlockEnd
  0
BLOCK
  5
67
330
66
100
AcDbEntity
  8
0
100
AcDbBlockBegin
  2
EX_WNORM
 70
     0
 10
0.0
 20
0.0
 30
0.0
  3
EX_WNORM
  1

  0
LINE
  5
8E
330
66
100
AcDbEntity
  8
0
  6
CONTINUOUS
 62
     0
100
AcDbLine
 10
-1.0
 20
0.0
 30
0.0
 11
-1.0
 21
0.0
 31
0.0
  0
LINE
  5
8F
330
66
100
AcDbEntity
  8
0
  6
CONTINUOUS
 62
     0
100
AcDbLine
 10
0.0
 20
0.0
 30
0.0
 11
-1.0
 21
0.166666667
 31
0.0
  0
LINE
  5
90
330
66
100
AcDbEntity
  8
0
  6
CONTINUOUS
 62
     0
100
AcDbLine
 10
0.0
 20
0.0
 30
0.0
 11
-1.0
 21
-0.166666667
 31
0.0
  0
LINE
  5
91
330
66
100
AcDbEntity
  8
0
  6
CONTINUOUS
 62
     0
100
AcDbLine
 10
-1.0
 20
0.166666667
 30
0.0
 11
-1.0
 21
-0.166666667
 31
0.0
  0
ENDBLK
  5
68
330
66
100
AcDbEntity
  8
0
100
AcDbBlockEnd
  0
BLOCK
  5
6A
330
69
100
AcDbEntity
  8
0
100
AcDbBlockBegin
  2
EX_NNORM
 70
     0
 10
0.0
 20
0.0
 30
0.0
  3
EX_NNORM
  1

  0
LINE
  5
92
330
69
100
AcDbEntity
  8
0
  6
CONTINUOUS
 62
     0
100
AcDbLine
 10
0.0
 20
0.0
 30
0.0
 11
-1.0
 21
0.0
 31
0.0
  0
LINE
  5
93
330
69
100
AcDbEntity
  8
0
  6
CONTINUOUS
 62
     0
100
AcDbLine
 10
0.0
 20
0.0
 30
0.0
 11
-1.0
 21
0.166666667
 31
0.0
  0
LINE
  5
94
330
69
100
AcDbEntity
  8
0
  6
CONTINUOUS
 62
     0
100
AcDbLine
 10
0.0
 20
0.0
 30
0.0
 11
-1.0
 21
-0.166666667
 31
0.0
  0
LINE
  5
95
330
69
100
AcDbEntity
  8
0
  6
CONTINUOUS
 62
     0
100
AcDbLine
 10
-1.0
 20
0.166666667
 30
0.0
 11
-1.0
 21
-0.166666667
 31
0.0
  0
ENDBLK
  5
6B
330
69
100
AcDbEntity
  8
0
100
AcDbBlockEnd
  0
BLOCK
  5
6D
330
6C
100
AcDbEntity
  8
0
100
AcDbBlockBegin
  2
EX_BBOX
 70
     0
 10
0.0
 20
0.0
 30
0.0
  3
EX_BBOX
  1

  0
LINE
  5
96
330
6C
100
AcDbEntity
  8
0
  6
CONTINUOUS
 62
     0
100
AcDbLine
 10
0.0
 20
0.0
 30
0.0
 11
-1.0
 21
0.0
 31
0.0
  0
LINE
  5
97
330
6C
100
AcDbEntity
  8
0
  6
CONTINUOUS
 62
     0
100
AcDbLine
 10
-0.5
 20
0.5
 30
0.0
 11
0.5
 21
0.5
 31
0.0
  0
LINE
  5
98
330
6C
100
AcDbEntity
  8
0
  6
CONTINUOUS
 62
     0
100
AcDbLine
 10
0.5
 20
0.5
 30
0.0
 11
0.5
 21
-0.5
 31
0.0
  0
LINE
  5
99
330
6C
100
AcDbEntity
  8
0
  6
CONTINUOUS
 62
     0
100
AcDbLine
 10
0.5
 20
-0.5
 30
0.0
 11
-0.5
 21
-0.5
 31
0.0
  0
LINE
  5
9A
330
6C
100
AcDbEntity
  8
0
  6
CONTINUOUS
 62
     0
100
AcDbLine
 10
-0.5
 20
-0.5
 30
0.0
 11
-0.5
 21
0.5
 31
0.0
  0
LINE
  5
9B
330
6C
100
AcDbEntity
  8
0
  6
CONTINUOUS
 62
     0
100
AcDbLine
 10
-0.25
 20
0.25
 30
0.0
 11
0.25
 21
0.25
 31
0.0
  0
LINE
  5
9C
330
6C
100
AcDbEntity
  8
0
  6
CONTINUOUS
 62
     0
100
AcDbLine
 10
0.25
 20
0.25
 30
0.0
 11
0.25
 21
-0.25
 31
0.0
  0
LINE
  5
9D
330
6C
100
AcDbEntity
  8
0
  6
CONTINUOUS
 62
     0
100
AcDbLine
 10
0.25
 20
-0.25
 30
0.0
 11
-0.25
 21
-0.25
 31
0.0
  0
LINE
  5
9E
330
6C
100
AcDbEntity
  8
0
  6
CONTINUOUS
 62
     0
100
AcDbLine
 10
-0.25
 20
-0.25
 30
0.0
 11
-0.25
 21
0.25
 31
0.0
  0
ENDBLK
  5
6E
330
6C
100
AcDbEntity
  8
0
100
AcDbBlockEnd
  0
BLOCK
  5
70
330
6F
100
AcDbEntity
  8
0
100
AcDbBlockBegin
  2
EX_WBOX
 70
     0
 10
0.0
 20
0.0
 30
0.0
  3
EX_WBOX
  1

  0
LINE
  5
9F
330
6F
100
AcDbEntity
  8
0
  6
CONTINUOUS
 62
     0
100
AcDbLine
 10
-0.5
 20
0.0
 30
0.0
 11
-1.0
 21
0.0
 31
0.0
  0
LINE
  5
A0
330
6F
100
AcDbEntity
  8
0
  6
CONTINUOUS
 62
     0
100
AcDbLine
 10
-0.5
 20
0.5
 30
0.0
 11
0.5
 21
0.5
 31
0.0
  0
LINE
  5
A1
330
6F
100
AcDbEntity
  8
0
  6
CONTINUOUS
 62
     0
100
AcDbLine
 10
0.5
 20
0.5
 30
0.0
 11
0.5
 21
-0.5
 31
0.0
  0
LINE
  5
A2
330
6F
100
AcDbEntity
  8
0
  6
CONTINUOUS
 62
     0
100
AcDbLine
 10
0.5
 20
-0.5
 30
0.0
 11
-0.5
 21
-0.5
 31
0.0
  0
LINE
  5
A3
330
6F
100
AcDbEntity
  8
0
  6
CONTINUOUS
 62
     0
100
AcDbLine
 10
-0.5
 20
-0.5
 30
0.0
 11
-0.5
 21
0.5
 31
0.0
  0
ENDBLK
  5
71
330
6F
100
AcDbEntity
  8
0
100
AcDbBlockEnd
  0
BLOCK
  5
73
330
72
100
AcDbEntity
  8
0
100
AcDbBlockBegin
  2
EX_INTEGRAL
 70
     0
 10
0.0
 20
0.0
 30
0.0
  3
EX_INTEGRAL
  1

  0
LINE
  5
A4
330
72
100
AcDbEntity
  8
0
  6
CONTINUOUS
 62
     0
100
AcDbLine
 10
0.0
 20
0.0
 30
0.0
 11
-1.0
 21
0.0
 31
0.0
  0
ARC
  5
A5
330
72
100
AcDbEntity
  8
0
  6
CONTINUOUS
 62
     0
100
AcDbCircle
 10
0.542115
 20
0.164992
 30
0.0
 40
0.56667
100
AcDbArc
 50
73.07249033629006
 51
196.9275130221199
  0
ARC
  5
A6
330
72
100
AcDbEntity
  8
0
  6
CONTINUOUS
 62
     0
100
AcDbCircle
 10
-0.542115
 20
-0.164992
 30
0.0
 40
0.56667
100
AcDbArc
 50
253.0724869220464
 51
16.9275130559125
  0
ENDBLK
  5
74
330
72
100
AcDbEntity
  8
0
100
AcDbBlockEnd
  0
BLOCK
  5
295
330
294
100
AcDbEntity
  8
0
100
AcDbBlockBegin
  2
*D15
 70
     1
 10
0.0
 20
0.0
 30
0.0
  3
*D15
  1

  0
LINE
  5
297
330
294
100
AcDbEntity
  8
_
  6
CONTINUOUS
 62
     3
100
AcDbLine
 10
277.6000000238419
 20
512.0
 30
0.0
 11
254.24
 21
512.0
 31
0.0
  0
LINE
  5
298
330
294
100
AcDbEntity
  8
_
  6
CONTINUOUS
 62
     3
100
AcDbLine
 10
279.6000000238419
 20
485.02
 30
0.0
 11
254.24
 21
485.02
 31
0.0
  0
LINE
  5
299
330
294
100
AcDbEntity
  8
_
  6
CONTINUOUS
 62
     3
100
AcDbLine
 10
256.24
 20
506.0
 30
0.0
 11
256.24
 21
491.02
 31
0.0
  0
INSERT
  5
29A
330
294
100
AcDbEntity
  8
_
 62
     3
100
AcDbBlockReference
  2
EX_NORM
 10
256.24
 20
512.0
 30
0.0
 41
6.0
 42
6.0
 43
6.0
 50
90.0
  0
INSERT
  5
29B
330
294
100
AcDbEntity
  8
_
 62
     3
100
AcDbBlockReference
  2
EX_NORM
 10
256.24
 20
485.02
 30
0.0
 41
6.0
 42
6.0
 43
6.0
 50
270.0
  0
MTEXT
  5
29C
330
294
100
AcDbEntity
  8
_
 62
     2
100
AcDbMText
 10
251.540000011921
 20
498.51
 30
0.0
 40
8.0
 41
0.0
 71
     5
 72
     1
  1
27
  7
EXCADDIM1
 11
0.0
 21
1.0
 31
0.0
  0
POINT
  5
29D
330
294
100
AcDbEntity
  8
DEFPOINTS
 62
     0
100
AcDbPoint
 10
279.0
 20
512.0
 30
0.0
  0
POINT
  5
29E
330
294
100
AcDbEntity
  8
DEFPOINTS
 62
     0
100
AcDbPoint
 10
281.0
 20
485.02
 30
0.0
  0
POINT
  5
29F
330
294
100
AcDbEntity
  8
DEFPOINTS
 62
     0
100
AcDbPoint
 10
256.24
 20
485.02
 30
0.0
  0
ENDBLK
  5
296
330
294
100
AcDbEntity
  8
0
100
AcDbBlockEnd
  0
BLOCK
  5
2A2
330
2A1
100
AcDbEntity
  8
0
100
AcDbBlockBegin
  2
*D16
 70
     1
 10
0.0
 20
0.0
 30
0.0
  3
*D16
  1

  0
LINE
  5
2A4
330
2A1
100
AcDbEntity
  8
_
  6
CONTINUOUS
 62
     3
100
AcDbLine
 10
302.7799999761581
 20
488.02
 30
0.0
 11
309.16
 21
488.02
 31
0.0
  0
LINE
  5
2A5
330
2A1
100
AcDbEntity
  8
_
  6
CONTINUOUS
 62
     3
100
AcDbLine
 10
302.4599999761581
 20
508.02
 30
0.0
 11
309.16
 21
508.02
 31
0.0
  0
LINE
  5
2A6
330
2A1
100
AcDbEntity
  8
_
  6
CONTINUOUS
 62
     3
100
AcDbLine
 10
307.16
 20
494.02
 30
0.0
 11
307.16
 21
502.02
 31
0.0
  0
INSERT
  5
2A7
330
2A1
100
AcDbEntity
  8
_
 62
     3
100
AcDbBlockReference
  2
EX_NORM
 10
307.16
 20
488.02
 30
0.0
 41
6.0
 42
6.0
 43
6.0
 50
270.0
  0
INSERT
  5
2A8
330
2A1
100
AcDbEntity
  8
_
 62
     3
100
AcDbBlockReference
  2
EX_NORM
 10
307.16
 20
508.02
 30
0.0
 41
6.0
 42
6.0
 43
6.0
 50
90.0
  0
MTEXT
  5
2A9
330
2A1
100
AcDbEntity
  8
_
 62
     2
100
AcDbMText
 10
302.460000011921
 20
498.02
 30
0.0
 40
8.0
 41
0.0
 71
     5
 72
     1
  1
20
  7
EXCADDIM1
 11
0.0
 21
1.0
 31
0.0
  0
POINT
  5
2AA
330
2A1
100
AcDbEntity
  8
DEFPOINTS
 62
     0
100
AcDbPoint
 10
301.38
 20
488.02
 30
0.0
  0
POINT
  5
2AB
330
2A1
100
AcDbEntity
  8
DEFPOINTS
 62
     0
100
AcDbPoint
 10
301.06
 20
508.02
 30
0.0
  0
POINT
  5
2AC
330
2A1
100
AcDbEntity
  8
DEFPOINTS
 62
     0
100
AcDbPoint
 10
307.16
 20
508.02
 30
0.0
  0
ENDBLK
  5
2A3
330
2A1
100
AcDbEntity
  8
0
100
AcDbBlockEnd
  0
BLOCK
  5
2AF
330
2AE
100
AcDbEntity
  8
0
100
AcDbBlockBegin
  2
*D17
 70
     1
 10
0.0
 20
0.0
 30
0.0
  3
*D17
  1

  0
LINE
  5
2B1
330
2AE
100
AcDbEntity
  8
_
  6
CONTINUOUS
 62
     3
100
AcDbLine
 10
302.7799999761581
 20
488.02
 30
0.0
 11
309.16
 21
488.02
 31
0.0
  0
LINE
  5
2B2
330
2AE
100
AcDbEntity
  8
_
  6
CONTINUOUS
 62
     3
100
AcDbLine
 10
308.3999999761581
 20
485.02
 30
0.0
 11
309.16
 21
485.02
 31
0.0
  0
LINE
  5
2B3
330
2AE
100
AcDbEntity
  8
_
  6
CONTINUOUS
 62
     3
100
AcDbLine
 10
307.16
 20
488.02
 30
0.0
 11
307.16
 21
485.02
 31
0.0
  0
LINE
  5
2B4
330
2AE
100
AcDbEntity
  8
_
  6
CONTINUOUS
 62
     3
100
AcDbLine
 10
307.16
 20
494.02
 30
0.0
 11
307.16
 21
500.02
 31
0.0
  0
LINE
  5
2B5
330
2AE
100
AcDbEntity
  8
_
  6
CONTINUOUS
 62
     3
100
AcDbLine
 10
307.16
 20
479.02
 30
0.0
 11
307.16
 21
473.02
 31
0.0
  0
INSERT
  5
2B6
330
2AE
100
AcDbEntity
  8
_
 62
     3
100
AcDbBlockReference
  2
EX_NORM
 10
307.16
 20
488.02
 30
0.0
 41
6.0
 42
6.0
 43
6.0
 50
270.0
  0
INSERT
  5
2B7
330
2AE
100
AcDbEntity
  8
_
 62
     3
100
AcDbBlockReference
  2
EX_NORM
 10
307.16
 20
485.02
 30
0.0
 41
6.0
 42
6.0
 43
6.0
 50
90.0
  0
MTEXT
  5
2B8
330
2AE
100
AcDbEntity
  8
_
 62
     2
100
AcDbMText
 10
302.4600000119212
 20
475.0199999999999
 30
0.0
 40
8.0
 41
0.0
 71
     5
 72
     1
  1
3
  7
EXCADDIM1
 11
0.0
 21
1.0
 31
0.0
  0
POINT
  5
2B9
330
2AE
100
AcDbEntity
  8
DEFPOINTS
 62
     0
100
AcDbPoint
 10
301.38
 20
488.02
 30
0.0
  0
POINT
  5
2BA
330
2AE
100
AcDbEntity
  8
DEFPOINTS
 62
     0
100
AcDbPoint
 10
307.0
 20
485.02
 30
0.0
  0
POINT
  5
2BB
330
2AE
100
AcDbEntity
  8
DEFPOINTS
 62
     0
100
AcDbPoint
 10
307.16
 20
485.02
 30
0.0
  0
ENDBLK
  5
2B0
330
2AE
100
AcDbEntity
  8
0
100
AcDbBlockEnd
  0
BLOCK
  5
2C0
330
2BF
100
AcDbEntity
  8
0
100
AcDbBlockBegin
  2
*D18
 70
     1
 10
0.0
 20
0.0
 30
0.0
  3
*D18
  1

  0
LINE
  5
2C2
330
2BF
100
AcDbEntity
  8
_
  6
CONTINUOUS
 62
     3
100
AcDbLine
 10
277.6000000238419
 20
101.0
 30
0.0
 11
249.0
 21
101.0
 31
0.0
  0
LINE
  5
2C3
330
2BF
100
AcDbEntity
  8
_
  6
CONTINUOUS
 62
     3
100
AcDbLine
 10
279.6800000238418
 20
128.0
 30
0.0
 11
249.0
 21
128.0
 31
0.0
  0
LINE
  5
2C4
330
2BF
100
AcDbEntity
  8
_
  6
CONTINUOUS
 62
     3
100
AcDbLine
 10
251.0
 20
107.0
 30
0.0
 11
251.0
 21
122.0
 31
0.0
  0
INSERT
  5
2C5
330
2BF
100
AcDbEntity
  8
_
 62
     3
100
AcDbBlockReference
  2
EX_NORM
 10
251.0
 20
101.0
 30
0.0
 41
6.0
 42
6.0
 43
6.0
 50
270.0
  0
INSERT
  5
2C6
330
2BF
100
AcDbEntity
  8
_
 62
     3
100
AcDbBlockReference
  2
EX_NORM
 10
251.0
 20
128.0
 30
0.0
 41
6.0
 42
6.0
 43
6.0
 50
90.0
  0
MTEXT
  5
2C7
330
2BF
100
AcDbEntity
  8
_
 62
     2
100
AcDbMText
 10
246.3000000119209
 20
114.5
 30
0.0
 40
8.0
 41
0.0
 71
     5
 72
     1
  1
27
  7
EXCADDIM1
 11
0.0
 21
1.0
 31
0.0
  0
POINT
  5
2C8
330
2BF
100
AcDbEntity
  8
DEFPOINTS
 62
     0
100
AcDbPoint
 10
279.0
 20
101.0
 30
0.0
  0
POINT
  5
2C9
330
2BF
100
AcDbEntity
  8
DEFPOINTS
 62
     0
100
AcDbPoint
 10
281.08
 20
128.0
 30
0.0
  0
POINT
  5
2CA
330
2BF
100
AcDbEntity
  8
DEFPOINTS
 62
     0
100
AcDbPoint
 10
251.0
 20
128.0
 30
0.0
  0
ENDBLK
  5
2C1
330
2BF
100
AcDbEntity
  8
0
100
AcDbBlockEnd
  0
BLOCK
  5
2CD
330
2CC
100
AcDbEntity
  8
0
100
AcDbBlockBegin
  2
*D19
 70
     1
 10
0.0
 20
0.0
 30
0.0
  3
*D19
  1

  0
LINE
  5
2CF
330
2CC
100
AcDbEntity
  8
_
  6
CONTINUOUS
 62
     3
100
AcDbLine
 10
277.6000000238419
 20
101.0
 30
0.0
 11
259.6
 21
101.0
 31
0.0
  0
LINE
  5
2D0
330
2CC
100
AcDbEntity
  8
_
  6
CONTINUOUS
 62
     3
100
AcDbLine
 10
286.6000000238419
 20
115.0
 30
0.0
 11
259.6
 21
115.0
 31
0.0
  0
LINE
  5
2D1
330
2CC
100
AcDbEntity
  8
_
  6
CONTINUOUS
 62
     3
100
AcDbLine
 10
261.6
 20
107.0
 30
0.0
 11
261.6
 21
109.0
 31
0.0
  0
INSERT
  5
2D2
330
2CC
100
AcDbEntity
  8
_
 62
     3
100
AcDbBlockReference
  2
EX_NORM
 10
261.6
 20
101.0
 30
0.0
 41
6.0
 42
6.0
 43
6.0
 50
270.0
  0
INSERT
  5
2D3
330
2CC
100
AcDbEntity
  8
_
 62
     3
100
AcDbBlockReference
  2
EX_NORM
 10
261.6
 20
115.0
 30
0.0
 41
6.0
 42
6.0
 43
6.0
 50
90.0
  0
MTEXT
  5
2D4
330
2CC
100
AcDbEntity
  8
_
 62
     2
100
AcDbMText
 10
256.900000011921
 20
108.0
 30
0.0
 40
8.0
 41
0.0
 71
     5
 72
     1
  1
14
  7
EXCADDIM1
 11
0.0
 21
1.0
 31
0.0
  0
POINT
  5
2D5
330
2CC
100
AcDbEntity
  8
DEFPOINTS
 62
     0
100
AcDbPoint
 10
279.0
 20
101.0
 30
0.0
  0
POINT
  5
2D6
330
2CC
100
AcDbEntity
  8
DEFPOINTS
 62
     0
100
AcDbPoint
 10
288.0
 20
115.0
 30
0.0
  0
POINT
  5
2D7
330
2CC
100
AcDbEntity
  8
DEFPOINTS
 62
     0
100
AcDbPoint
 10
261.6
 20
115.0
 30
0.0
  0
ENDBLK
  5
2CE
330
2CC
100
AcDbEntity
  8
0
100
AcDbBlockEnd
  0
BLOCK
  5
2DA
330
2D9
100
AcDbEntity
  8
0
100
AcDbBlockBegin
  2
*D20
 70
     1
 10
0.0
 20
0.0
 30
0.0
  3
*D20
  1

  0
LINE
  5
2DC
330
2D9
100
AcDbEntity
  8
_
  6
CONTINUOUS
 62
     3
100
AcDbLine
 10
277.6000000238419
 20
101.0
 30
0.0
 11
270.0
 21
101.0
 31
0.0
  0
LINE
  5
2DD
330
2D9
100
AcDbEntity
  8
_
  6
CONTINUOUS
 62
     3
100
AcDbLine
 10
279.6000000238419
 20
109.0
 30
0.0
 11
270.0
 21
109.0
 31
0.0
  0
LINE
  5
2DE
330
2D9
100
AcDbEntity
  8
_
  6
CONTINUOUS
 62
     3
100
AcDbLine
 10
272.0
 20
101.0
 30
0.0
 11
272.0
 21
109.0
 31
0.0
  0
LINE
  5
2DF
330
2D9
100
AcDbEntity
  8
_
  6
CONTINUOUS
 62
     3
100
AcDbLine
 10
272.0
 20
95.0
 30
0.0
 11
272.0
 21
89.0
 31
0.0
  0
LINE
  5
2E0
330
2D9
100
AcDbEntity
  8
_
  6
CONTINUOUS
 62
     3
100
AcDbLine
 10
272.0
 20
115.0
 30
0.0
 11
272.0
 21
121.0
 31
0.0
  0
INSERT
  5
2E1
330
2D9
100
AcDbEntity
  8
_
 62
     3
100
AcDbBlockReference
  2
EX_NORM
 10
272.0
 20
101.0
 30
0.0
 41
6.0
 42
6.0
 43
6.0
 50
90.0
  0
INSERT
  5
2E2
330
2D9
100
AcDbEntity
  8
_
 62
     3
100
AcDbBlockReference
  2
EX_NORM
 10
272.0
 20
109.0
 30
0.0
 41
6.0
 42
6.0
 43
6.0
 50
270.0
  0
MTEXT
  5
2E3
330
2D9
100
AcDbEntity
  8
_
 62
     2
100
AcDbMText
 10
267.3000000119209
 20
105.0
 30
0.0
 40
8.0
 41
0.0
 71
     5
 72
     1
  1
8
  7
EXCADDIM1
 11
0.0
 21
1.0
 31
0.0
  0
POINT
  5
2E4
330
2D9
100
AcDbEntity
  8
DEFPOINTS
 62
     0
100
AcDbPoint
 10
279.0
 20
101.0
 30
0.0
  0
POINT
  5
2E5
330
2D9
100
AcDbEntity
  8
DEFPOINTS
 62
     0
100
AcDbPoint
 10
281.0
 20
109.0
 30
0.0
  0
POINT
  5
2E6
330
2D9
100
AcDbEntity
  8
DEFPOINTS
 62
     0
100
AcDbPoint
 10
272.0
 20
109.0
 30
0.0
  0
ENDBLK
  5
2DB
330
2D9
100
AcDbEntity
  8
0
100
AcDbBlockEnd
  0
ENDSEC
  0
SECTION
  2
ENTITIES
  0
LINE
  5
A7
330
1F
100
AcDbEntity
  8
_
  6
EXLTYPE2
 62
     7
100
AcDbLine
 10
34.0
 20
297.0
 30
0.0
 11
-4.0
 21
297.0
 31
0.0
  0
LINE
  5
A8
330
1F
100
AcDbEntity
  8
_
  6
CONTINUOUS
 62
     7
100
AcDbLine
 10
36.0
 20
17.0
 30
0.0
 11
400.0
 21
17.0
 31
0.0
  0
LINE
  5
A9
330
1F
100
AcDbEntity
  8
_
  6
CONTINUOUS
 62
     7
100
AcDbLine
 10
400.0
 20
17.0
 30
0.0
 11
400.0
 21
577.0
 31
0.0
  0
LINE
  5
AA
330
1F
100
AcDbEntity
  8
_
  6
CONTINUOUS
 62
     7
100
AcDbLine
 10
36.0
 20
17.0
 30
0.0
 11
36.0
 21
577.0
 31
0.0
  0
LINE
  5
AB
330
1F
100
AcDbEntity
  8
_
  6
CONTINUOUS
 62
     7
100
AcDbLine
 10
36.0
 20
577.0
 30
0.0
 11
400.0
 21
577.0
 31
0.0
  0
LINE
  5
AC
330
1F
100
AcDbEntity
  8
_
  6
CONTINUOUS
 62
     7
100
AcDbLine
 10
36.0
 20
61.0
 30
0.0
 11
400.0
 21
61.0
 31
0.0
  0
LINE
  5
AD
330
1F
100
AcDbEntity
  8
_
  6
CONTINUOUS
 62
     6
100
AcDbLine
 10
372.0
 20
61.0
 30
0.0
 11
372.0
 21
37.0
 31
0.0
  0
LINE
  5
AE
330
1F
100
AcDbEntity
  8
_
  6
CONTINUOUS
 62
     6
100
AcDbLine
 10
362.0
 20
61.0
 30
0.0
 11
362.0
 21
37.0
 31
0.0
  0
LINE
  5
AF
330
1F
100
AcDbEntity
  8
_
  6
CONTINUOUS
 62
     6
100
AcDbLine
 10
288.0
 20
61.0
 30
0.0
 11
288.0
 21
17.0
 31
0.0
  0
LINE
  5
B0
330
1F
100
AcDbEntity
  8
_
  6
CONTINUOUS
 62
     6
100
AcDbLine
 10
278.0
 20
61.0
 30
0.0
 11
278.0
 21
17.0
 31
0.0
  0
LINE
  5
B1
330
1F
100
AcDbEntity
  8
_
  6
CONTINUOUS
 62
     6
100
AcDbLine
 10
160.0
 20
61.0
 30
0.0
 11
160.0
 21
37.0
 31
0.0
  0
LINE
  5
B2
330
1F
100
AcDbEntity
  8
_
  6
CONTINUOUS
 62
     6
100
AcDbLine
 10
150.0
 20
61.0
 30
0.0
 11
150.0
 21
17.0
 31
0.0
  0
LINE
  5
B3
330
1F
100
AcDbEntity
  8
_
  6
CONTINUOUS
 62
     6
100
AcDbLine
 10
124.0
 20
61.0
 30
0.0
 11
124.0
 21
17.0
 31
0.0
  0
LINE
  5
B4
330
1F
100
AcDbEntity
  8
_
  6
CONTINUOUS
 62
     6
100
AcDbLine
 10
98.0
 20
61.0
 30
0.0
 11
98.0
 21
17.0
 31
0.0
  0
LINE
  5
B5
330
1F
100
AcDbEntity
  8
_
  6
CONTINUOUS
 62
     6
100
AcDbLine
 10
67.0
 20
61.0
 30
0.0
 11
67.0
 21
17.0
 31
0.0
  0
LINE
  5
B6
330
1F
100
AcDbEntity
  8
_
  6
CONTINUOUS
 62
     6
100
AcDbLine
 10
36.0
 20
51.0
 30
0.0
 11
150.0
 21
51.0
 31
0.0
  0
LINE
  5
B7
330
1F
100
AcDbEntity
  8
_
  6
CONTINUOUS
 62
     6
100
AcDbLine
 10
378.53076172
 20
41.60058594
 30
0.0
 11
393.9987793
 21
57.33996582
 31
0.0
  0
LINE
  5
B8
330
1F
100
AcDbEntity
  8
_
  6
EXLTYPE2
 62
     6
100
AcDbLine
 10
36.0
 20
27.0
 30
0.0
 11
98.0
 21
27.0
 31
0.0
  0
CIRCLE
  5
B9
330
1F
100
AcDbEntity
  8
_
  6
CONTINUOUS
 62
     6
100
AcDbCircle
 10
46.0
 20
22.0
 30
0.0
 40
0.20000004
  0
CIRCLE
  5
BA
330
1F
100
AcDbEntity
  8
_
  6
CONTINUOUS
 62
     6
100
AcDbCircle
 10
56.0
 20
22.0
 30
0.0
 40
0.20000004
  0
CIRCLE
  5
BB
330
1F
100
AcDbEntity
  8
_
  6
CONTINUOUS
 62
     6
100
AcDbCircle
 10
77.0
 20
22.0
 30
0.0
 40
0.20000004
  0
CIRCLE
  5
BC
330
1F
100
AcDbEntity
  8
_
  6
CONTINUOUS
 62
     6
100
AcDbCircle
 10
87.0
 20
22.0
 30
0.0
 40
0.20000004
  0
LINE
  5
BD
330
1F
100
AcDbEntity
  8
_
  6
EXLTYPE2
 62
     7
100
AcDbLine
 10
34.0
 20
297.0
 30
0.0
 11
-4.0
 21
297.0
 31
0.0
  0
TEXT
  5
BE
330
1F
100
AcDbEntity
  8
_
  6
CONTINUOUS
 62
     2
100
AcDbText
 10
378.10742188
 20
50.54455566
 30
0.0
 40
6.0
  1
１
 41
1.101333351135257
  7
EXCADSTD
 72
     5
 11
382.827421956294
 21
50.54455566
 31
0.0
100
AcDbText
  0
TEXT
  5
BF
330
1F
100
AcDbEntity
  8
_
  6
CONTINUOUS
 62
     2
100
AcDbText
 10
388.05585938
 20
41.46976928
 30
0.0
 40
6.0
  1
２
 41
1.101333351135257
  7
EXCADSTD
 72
     5
 11
392.775859456294
 21
41.46976928
 31
0.0
100
AcDbText
  0
TEXT
  5
C0
330
1F
100
AcDbEntity
  8
_
  6
CONTINUOUS
 62
     2
100
AcDbText
 10
40.5
 20
51.75
 30
0.0
 40
8.5
  1
製図
 41
1.509694117647059
  7
EXCADSTD
 72
     5
 11
60.6652
 21
51.75
 31
0.0
100
AcDbText
  0
TEXT
  5
C1
330
1F
100
AcDbEntity
  8
_
  6
CONTINUOUS
 62
     2
100
AcDbText
 10
71.5
 20
51.75
 30
0.0
 40
8.5
  1
写図
 41
1.509694117647059
  7
EXCADSTD
 72
     5
 11
91.6652
 21
51.75
 31
0.0
100
AcDbText
  0
TEXT
  5
C2
330
1F
100
AcDbEntity
  8
_
  6
CONTINUOUS
 62
     2
100
AcDbText
 10
101.5
 20
51.75
 30
0.0
 40
8.5
  1
検図
 41
1.303826737967915
  7
EXCADSTD
 72
     5
 11
118.9154
 21
51.75
 31
0.0
100
AcDbText
  0
TEXT
  5
C3
330
1F
100
AcDbEntity
  8
_
  6
CONTINUOUS
 62
     2
100
AcDbText
 10
127.5
 20
51.75
 30
0.0
 40
8.5
  1
承認
 41
1.303826737967915
  7
EXCADSTD
 72
     5
 11
144.9154
 21
51.75
 31
0.0
100
AcDbText
  0
TEXT
  5
C4
330
1F
100
AcDbEntity
  8
_
  6
CONTINUOUS
 62
     2
100
AcDbText
 10
150.75
 20
49.75
 30
0.0
 40
8.5
  1
品
 41
1.120000000000002
  7
EXCADSTD
 72
     5
 11
157.55
 21
49.75
 31
0.0
100
AcDbText
  0
TEXT
  5
C5
330
1F
100
AcDbEntity
  8
_
  6
CONTINUOUS
 62
     2
100
AcDbText
 10
150.75
 20
39.75
 30
0.0
 40
8.5
  1
名
 41
1.120000000000002
  7
EXCADSTD
 72
     5
 11
157.55
 21
39.75
 31
0.0
100
AcDbText
  0
TEXT
  5
C6
330
1F
100
AcDbEntity
  8
_
  6
CONTINUOUS
 62
     2
100
AcDbText
 10
278.75
 20
49.75
 30
0.0
 40
8.5
  1
品
 41
1.120000000000002
  7
EXCADSTD
 72
     5
 11
285.55
 21
49.75
 31
0.0
100
AcDbText
  0
TEXT
  5
C7
330
1F
100
AcDbEntity
  8
_
  6
CONTINUOUS
 62
     2
100
AcDbText
 10
278.75
 20
39.75
 30
0.0
 40
8.5
  1
番
 41
1.120000000000002
  7
EXCADSTD
 72
     5
 11
285.55
 21
39.75
 31
0.0
100
AcDbText
  0
TEXT
  5
C8
330
1F
100
AcDbEntity
  8
_
  6
CONTINUOUS
 62
     2
100
AcDbText
 10
362.75
 20
49.75
 30
0.0
 40
8.5
  1
尺
 41
1.120000000000002
  7
EXCADSTD
 72
     5
 11
369.55
 21
49.75
 31
0.0
100
AcDbText
  0
TEXT
  5
C9
330
1F
100
AcDbEntity
  8
_
  6
CONTINUOUS
 62
     2
100
AcDbText
 10
362.75
 20
39.75
 30
0.0
 40
8.5
  1
度
 41
1.120000000000002
  7
EXCADSTD
 72
     5
 11
369.55
 21
39.75
 31
0.0
100
AcDbText
  0
TEXT
  5
CA
330
1F
100
AcDbEntity
  8
_
  6
CONTINUOUS
 62
     2
100
AcDbText
 10
278.75
 20
27.15
 30
0.0
 40
8.5
  1
図
 41
1.120000000000002
  7
EXCADSTD
 72
     5
 11
285.55
 21
27.15
 31
0.0
100
AcDbText
  0
TEXT
  5
CB
330
1F
100
AcDbEntity
  8
_
  6
CONTINUOUS
 62
     2
100
AcDbText
 10
278.75
 20
18.55
 30
0.0
 40
8.5
  1
番
 41
1.120000000000002
  7
EXCADSTD
 72
     5
 11
285.55
 21
18.55
 31
0.0
100
AcDbText
  0
LINE
  5
CC
330
1F
100
AcDbEntity
  8
_
  6
CONTINUOUS
 62
     3
100
AcDbLine
 10
165.4895508
 20
30.05759888
 30
0.0
 11
163.87681886
 21
30.05759888
 31
0.0
  0
LINE
  5
CD
330
1F
100
AcDbEntity
  8
_
  6
CONTINUOUS
 62
     3
100
AcDbLine
 10
165.4895508
 20
31.67039184
 30
0.0
 11
165.4895508
 21
30.05759888
 31
0.0
  0
LINE
  5
CE
330
1F
100
AcDbEntity
  8
_
  6
CONTINUOUS
 62
     3
100
AcDbLine
 10
163.87681886
 20
31.67039184
 30
0.0
 11
165.4895508
 21
31.67039184
 31
0.0
  0
LINE
  5
CF
330
1F
100
AcDbEntity
  8
_
  6
CONTINUOUS
 62
     3
100
AcDbLine
 10
163.87681886
 20
31.67039184
 30
0.0
 11
163.87681886
 21
30.05759888
 31
0.0
  0
LINE
  5
D0
330
1F
100
AcDbEntity
  8
_
  6
CONTINUOUS
 62
     3
100
AcDbLine
 10
163.27183838
 20
30.05759888
 30
0.0
 11
161.65910646
 21
30.05759888
 31
0.0
  0
LINE
  5
D1
330
1F
100
AcDbEntity
  8
_
  6
CONTINUOUS
 62
     3
100
AcDbLine
 10
163.27183838
 20
31.67039184
 30
0.0
 11
163.27183838
 21
30.05759888
 31
0.0
  0
LINE
  5
D2
330
1F
100
AcDbEntity
  8
_
  6
CONTINUOUS
 62
     3
100
AcDbLine
 10
161.65910646
 20
31.67039184
 30
0.0
 11
163.27183838
 21
31.67039184
 31
0.0
  0
LINE
  5
D3
330
1F
100
AcDbEntity
  8
_
  6
CONTINUOUS
 62
     3
100
AcDbLine
 10
161.65910646
 20
31.67039184
 30
0.0
 11
161.65910646
 21
30.05759888
 31
0.0
  0
LINE
  5
D4
330
1F
100
AcDbEntity
  8
_
  6
CONTINUOUS
 62
     3
100
AcDbLine
 10
159.97746582
 20
22.8
 30
0.0
 11
154.2
 21
22.8
 31
0.0
  0
ARC
  5
D5
330
1F
100
AcDbEntity
  8
_
  6
CONTINUOUS
 62
     3
100
AcDbCircle
 10
159.97746582
 20
26.4288147
 30
0.0
 40
3.628799440000001
100
AcDbArc
 50
270.0000305200002
 51
334.0001373300001
  0
LINE
  5
D6
330
1F
100
AcDbEntity
  8
_
  6
CONTINUOUS
 62
     3
100
AcDbLine
 10
165.4895508
 20
29.45280152
 30
0.0
 11
163.23860474
 21
24.8380249
 31
0.0
  0
LINE
  5
D7
330
1F
100
AcDbEntity
  8
_
  6
CONTINUOUS
 62
     3
100
AcDbLine
 10
163.02244874
 20
29.45280152
 30
0.0
 11
165.4895508
 21
29.45280152
 31
0.0
  0
LINE
  5
D8
330
1F
100
AcDbEntity
  8
_
  6
CONTINUOUS
 62
     3
100
AcDbLine
 10
161.202594
 20
25.72181396
 30
0.0
 11
163.02244874
 21
29.45280152
 31
0.0
  0
ARC
  5
D9
330
1F
100
AcDbEntity
  8
_
  6
CONTINUOUS
 62
     3
100
AcDbCircle
 10
159.7531006
 20
26.4288147
 30
0.0
 40
1.6128
100
AcDbArc
 50
270.0000305200002
 51
333.9985504200004
  0
LINE
  5
DA
330
1F
100
AcDbEntity
  8
_
  6
CONTINUOUS
 62
     3
100
AcDbLine
 10
154.2
 20
24.81599122
 30
0.0
 11
159.7531006
 21
24.81599122
 31
0.0
  0
LINE
  5
DB
330
1F
100
AcDbEntity
  8
_
  6
CONTINUOUS
 62
     3
100
AcDbLine
 10
154.2
 20
24.81599122
 30
0.0
 11
154.2
 21
22.8
 31
0.0
  0
LINE
  5
DC
330
1F
100
AcDbEntity
  8
_
  6
CONTINUOUS
 62
     3
100
AcDbLine
 10
159.84498902
 20
27.43677978
 30
0.0
 11
154.2
 21
27.43677978
 31
0.0
  0
LINE
  5
DD
330
1F
100
AcDbEntity
  8
_
  6
CONTINUOUS
 62
     3
100
AcDbLine
 10
159.84498902
 20
29.2512024
 30
0.0
 11
159.84498902
 21
27.43677978
 31
0.0
  0
LINE
  5
DE
330
1F
100
AcDbEntity
  8
_
  6
CONTINUOUS
 62
     3
100
AcDbLine
 10
154.2
 20
29.2512024
 30
0.0
 11
159.84498902
 21
29.2512024
 31
0.0
  0
LINE
  5
DF
330
1F
100
AcDbEntity
  8
_
  6
CONTINUOUS
 62
     3
100
AcDbLine
 10
154.2
 20
29.2512024
 30
0.0
 11
154.2
 21
27.43677978
 31
0.0
  0
LINE
  5
E0
330
1F
100
AcDbEntity
  8
_
  6
CONTINUOUS
 62
     3
100
AcDbLine
 10
159.84498902
 20
29.85599976
 30
0.0
 11
154.2
 21
29.85599976
 31
0.0
  0
LINE
  5
E1
330
1F
100
AcDbEntity
  8
_
  6
CONTINUOUS
 62
     3
100
AcDbLine
 10
159.84498902
 20
31.67039184
 30
0.0
 11
159.84498902
 21
29.85599976
 31
0.0
  0
LINE
  5
E2
330
1F
100
AcDbEntity
  8
_
  6
CONTINUOUS
 62
     3
100
AcDbLine
 10
154.2
 20
31.67039184
 30
0.0
 11
159.84498902
 21
31.67039184
 31
0.0
  0
LINE
  5
E3
330
1F
100
AcDbEntity
  8
_
  6
CONTINUOUS
 62
     3
100
AcDbLine
 10
154.2
 20
31.67039184
 30
0.0
 11
154.2
 21
29.85599976
 31
0.0
  0
LINE
  5
E4
330
1F
100
AcDbEntity
  8
_
  6
CONTINUOUS
 62
     3
100
AcDbLine
 10
166.09453126
 20
29.45280152
 30
0.0
 11
166.09453126
 21
28.04157716
 31
0.0
  0
LINE
  5
E5
330
1F
100
AcDbEntity
  8
_
  6
CONTINUOUS
 62
     3
100
AcDbLine
 10
166.09453126
 20
29.45280152
 30
0.0
 11
167.93080446
 21
29.45280152
 31
0.0
  0
LINE
  5
E6
330
1F
100
AcDbEntity
  8
_
  6
CONTINUOUS
 62
     3
100
AcDbLine
 10
167.7072632
 20
30.86399536
 30
0.0
 11
167.93080446
 21
29.45280152
 31
0.0
  0
LINE
  5
E7
330
1F
100
AcDbEntity
  8
_
  6
CONTINUOUS
 62
     3
100
AcDbLine
 10
167.7072632
 20
30.86399536
 30
0.0
 11
169.95247194
 21
30.86399536
 31
0.0
  0
LINE
  5
E8
330
1F
100
AcDbEntity
  8
_
  6
CONTINUOUS
 62
     3
100
AcDbLine
 10
169.95247194
 20
30.86399536
 30
0.0
 11
170.17598268
 21
29.45280152
 31
0.0
  0
LINE
  5
E9
330
1F
100
AcDbEntity
  8
_
  6
CONTINUOUS
 62
     3
100
AcDbLine
 10
170.17598268
 20
29.45280152
 30
0.0
 11
175.7713501
 21
29.45280152
 31
0.0
  0
LINE
  5
EA
330
1F
100
AcDbEntity
  8
_
  6
CONTINUOUS
 62
     3
100
AcDbLine
 10
175.7713501
 20
29.45280152
 30
0.0
 11
174.59462282
 21
26.81010132
 31
0.0
  0
ARC
  5
EB
330
1F
100
AcDbEntity
  8
_
  6
CONTINUOUS
 62
     3
100
AcDbCircle
 10
171.83220216
 20
28.0400818
 30
0.0
 40
3.024021140000001
100
AcDbArc
 50
263.4657745200003
 51
335.9987792800001
  0
LINE
  5
EC
330
1F
100
AcDbEntity
  8
_
  6
CONTINUOUS
 62
     3
100
AcDbLine
 10
171.48768922
 20
25.03571778
 30
0.0
 11
171.26741334
 21
26.4288147
 31
0.0
  0
ARC
  5
ED
330
1F
100
AcDbEntity
  8
_
  6
CONTINUOUS
 62
     3
100
AcDbCircle
 10
171.2116272
 20
27.63840942
 30
0.0
 40
1.20960116
100
AcDbArc
 50
272.6237487800003
 51
336.0065307700002
  0
LINE
  5
EE
330
1F
100
AcDbEntity
  8
_
  6
CONTINUOUS
 62
     3
100
AcDbLine
 10
172.3170044
 20
27.14640504
 30
0.0
 11
172.7152588
 21
28.04157716
 31
0.0
  0
LINE
  5
EF
330
1F
100
AcDbEntity
  8
_
  6
CONTINUOUS
 62
     3
100
AcDbLine
 10
172.7152588
 20
28.04157716
 30
0.0
 11
170.39952394
 21
28.04157716
 31
0.0
  0
LINE
  5
F0
330
1F
100
AcDbEntity
  8
_
  6
CONTINUOUS
 62
     3
100
AcDbLine
 10
170.39952394
 20
28.04157716
 30
0.0
 11
171.22969362
 21
22.8
 31
0.0
  0
LINE
  5
F1
330
1F
100
AcDbEntity
  8
_
  6
CONTINUOUS
 62
     3
100
AcDbLine
 10
171.22969362
 20
22.8
 30
0.0
 11
168.98448488
 21
22.8
 31
0.0
  0
LINE
  5
F2
330
1F
100
AcDbEntity
  8
_
  6
CONTINUOUS
 62
     2
100
AcDbLine
 10
168.98448488
 20
22.8
 30
0.0
 11
168.15434572
 21
28.04157716
 31
0.0
  0
LINE
  5
F3
330
1F
100
AcDbEntity
  8
_
  6
CONTINUOUS
 62
     2
100
AcDbLine
 10
168.15434572
 20
28.04157716
 30
0.0
 11
166.09453126
 21
28.04157716
 31
0.0
  0
LINE
  5
F4
330
1F
100
AcDbEntity
  8
_
  6
CONTINUOUS
 62
     3
100
AcDbLine
 10
175.56953736
 20
22.8
 30
0.0
 11
175.56953736
 21
24.81599122
 31
0.0
  0
LINE
  5
F5
330
1F
100
AcDbEntity
  8
_
  6
CONTINUOUS
 62
     3
100
AcDbLine
 10
175.56953736
 20
24.81599122
 30
0.0
 11
186.85908814
 21
24.81599122
 31
0.0
  0
LINE
  5
F6
330
1F
100
AcDbEntity
  8
_
  6
CONTINUOUS
 62
     3
100
AcDbLine
 10
186.85908814
 20
24.81599122
 30
0.0
 11
186.85908814
 21
22.8
 31
0.0
  0
LINE
  5
F7
330
1F
100
AcDbEntity
  8
_
  6
CONTINUOUS
 62
     3
100
AcDbLine
 10
186.85908814
 20
22.8
 30
0.0
 11
175.56953736
 21
22.8
 31
0.0
  0
LINE
  5
F8
330
1F
100
AcDbEntity
  8
_
  6
CONTINUOUS
 62
     3
100
AcDbLine
 10
176.37590332
 20
31.67039184
 30
0.0
 11
176.37590332
 21
29.65440064
 31
0.0
  0
LINE
  5
F9
330
1F
100
AcDbEntity
  8
_
  6
CONTINUOUS
 62
     3
100
AcDbLine
 10
176.37590332
 20
31.67039184
 30
0.0
 11
186.05272218
 21
31.67039184
 31
0.0
  0
LINE
  5
FA
330
1F
100
AcDbEntity
  8
_
  6
CONTINUOUS
 62
     3
100
AcDbLine
 10
186.05272218
 20
31.67039184
 30
0.0
 11
186.05272218
 21
29.65440064
 31
0.0
  0
LINE
  5
FB
330
1F
100
AcDbEntity
  8
_
  6
CONTINUOUS
 62
     3
100
AcDbLine
 10
186.05272218
 20
29.65440064
 30
0.0
 11
176.37590332
 21
29.65440064
 31
0.0
  0
LINE
  5
FC
330
1F
100
AcDbEntity
  8
_
  6
CONTINUOUS
 62
     3
100
AcDbLine
 10
188.27043458
 20
31.67039184
 30
0.0
 11
188.27043458
 21
29.65440064
 31
0.0
  0
LINE
  5
FD
330
1F
100
AcDbEntity
  8
_
  6
CONTINUOUS
 62
     3
100
AcDbLine
 10
188.27043458
 20
31.67039184
 30
0.0
 11
198.7536194
 21
31.67039184
 31
0.0
  0
LINE
  5
FE
330
1F
100
AcDbEntity
  8
_
  6
CONTINUOUS
 62
     3
100
AcDbLine
 10
198.7536194
 20
31.67039184
 30
0.0
 11
195.61018678
 21
27.34379272
 31
0.0
  0
LINE
  5
FF
330
1F
100
AcDbEntity
  8
_
  6
CONTINUOUS
 62
     3
100
AcDbLine
 10
195.61018678
 20
27.34379272
 30
0.0
 11
199.55998536
 21
22.8
 31
0.0
  0
LINE
  5
100
330
1F
100
AcDbEntity
  8
_
  6
CONTINUOUS
 62
     3
100
AcDbLine
 10
199.55998536
 20
22.8
 30
0.0
 11
196.62163086
 21
22.8
 31
0.0
  0
LINE
  5
101
330
1F
100
AcDbEntity
  8
_
  6
CONTINUOUS
 62
     3
100
AcDbLine
 10
196.62163086
 20
22.8
 30
0.0
 11
194.27226564
 21
25.50254516
 31
0.0
  0
LINE
  5
102
330
1F
100
AcDbEntity
  8
_
  6
CONTINUOUS
 62
     3
100
AcDbLine
 10
194.27226564
 20
25.50254516
 30
0.0
 11
193.39577028
 21
24.29584962
 31
0.0
  0
ARC
  5
103
330
1F
100
AcDbEntity
  8
_
  6
CONTINUOUS
 62
     3
100
AcDbCircle
 10
190.45985718
 20
26.4288147
 30
0.0
 40
3.628799440000001
100
AcDbArc
 50
270.0000305200002
 51
324.0011596700001
  0
LINE
  5
104
330
1F
100
AcDbEntity
  8
_
  6
CONTINUOUS
 62
     3
100
AcDbLine
 10
190.45985718
 20
22.8
 30
0.0
 11
187.46406862
 21
22.8
 31
0.0
  0
LINE
  5
105
330
1F
100
AcDbEntity
  8
_
  6
CONTINUOUS
 62
     3
100
AcDbLine
 10
187.46406862
 20
22.8
 30
0.0
 11
187.46406862
 21
24.81599122
 31
0.0
  0
LINE
  5
106
330
1F
100
AcDbEntity
  8
_
  6
CONTINUOUS
 62
     3
100
AcDbLine
 10
187.46406862
 20
24.81599122
 30
0.0
 11
190.00541994
 21
24.81599122
 31
0.0
  0
ARC
  5
107
330
1F
100
AcDbEntity
  8
_
  6
CONTINUOUS
 62
     3
100
AcDbCircle
 10
190.00541994
 20
26.83198242
 30
0.0
 40
2.01599884
100
AcDbArc
 50
270.0000305200002
 51
323.9965972900001
  0
LINE
  5
108
330
1F
100
AcDbEntity
  8
_
  6
CONTINUOUS
 62
     3
100
AcDbLine
 10
191.63618776
 20
25.64701538
 30
0.0
 11
194.5479004
 21
29.65440064
 31
0.0
  0
LINE
  5
109
330
1F
100
AcDbEntity
  8
_
  6
CONTINUOUS
 62
     3
100
AcDbLine
 10
194.5479004
 20
29.65440064
 30
0.0
 11
188.27043458
 21
29.65440064
 31
0.0
  0
LINE
  5
10A
330
1F
100
AcDbEntity
  8
_
  6
CONTINUOUS
 62
     3
100
AcDbLine
 10
201.97911378
 20
31.67039184
 30
0.0
 11
201.97911378
 21
30.259198
 31
0.0
  0
LINE
  5
10B
330
1F
100
AcDbEntity
  8
_
  6
CONTINUOUS
 62
     3
100
AcDbLine
 10
201.97911378
 20
31.67039184
 30
0.0
 11
212.46226808
 21
31.67039184
 31
0.0
  0
LINE
  5
10C
330
1F
100
AcDbEntity
  8
_
  6
CONTINUOUS
 62
     3
100
AcDbLine
 10
212.46226808
 20
31.67039184
 30
0.0
 11
212.46226808
 21
30.259198
 31
0.0
  0
LINE
  5
10D
330
1F
100
AcDbEntity
  8
_
  6
CONTINUOUS
 62
     3
100
AcDbLine
 10
212.46226808
 20
30.259198
 30
0.0
 11
208.32954712
 21
30.259198
 31
0.0
  0
LINE
  5
10E
330
1F
100
AcDbEntity
  8
_
  6
CONTINUOUS
 62
     3
100
AcDbLine
 10
208.32954712
 20
30.259198
 30
0.0
 11
208.32954712
 21
24.41282348
 31
0.0
  0
LINE
  5
10F
330
1F
100
AcDbEntity
  8
_
  6
CONTINUOUS
 62
     3
100
AcDbLine
 10
208.32954712
 20
24.41282348
 30
0.0
 11
212.86546632
 21
24.41282348
 31
0.0
  0
LINE
  5
110
330
1F
100
AcDbEntity
  8
_
  6
CONTINUOUS
 62
     3
100
AcDbLine
 10
212.86546632
 20
24.41282348
 30
0.0
 11
212.86546632
 21
22.8
 31
0.0
  0
LINE
  5
111
330
1F
100
AcDbEntity
  8
_
  6
CONTINUOUS
 62
     3
100
AcDbLine
 10
212.86546632
 20
22.8
 30
0.0
 11
201.57591554
 21
22.8
 31
0.0
  0
LINE
  5
112
330
1F
100
AcDbEntity
  8
_
  6
CONTINUOUS
 62
     3
100
AcDbLine
 10
201.57591554
 20
22.8
 30
0.0
 11
201.57591554
 21
24.41282348
 31
0.0
  0
LINE
  5
113
330
1F
100
AcDbEntity
  8
_
  6
CONTINUOUS
 62
     3
100
AcDbLine
 10
201.57591554
 20
24.41282348
 30
0.0
 11
206.11183472
 21
24.41282348
 31
0.0
  0
LINE
  5
114
330
1F
100
AcDbEntity
  8
_
  6
CONTINUOUS
 62
     3
100
AcDbLine
 10
206.11183472
 20
24.41282348
 30
0.0
 11
206.11183472
 21
30.259198
 31
0.0
  0
LINE
  5
115
330
1F
100
AcDbEntity
  8
_
  6
CONTINUOUS
 62
     3
100
AcDbLine
 10
206.11183472
 20
30.259198
 30
0.0
 11
201.97911378
 21
30.259198
 31
0.0
  0
LINE
  5
116
330
1F
100
AcDbEntity
  8
_
  6
CONTINUOUS
 62
     3
100
AcDbLine
 10
213.06724854
 20
30.46079712
 30
0.0
 11
213.06724854
 21
29.53342896
 31
0.0
  0
LINE
  5
117
330
1F
100
AcDbEntity
  8
_
  6
CONTINUOUS
 62
     3
100
AcDbLine
 10
213.06724854
 20
30.46079712
 30
0.0
 11
214.81862184
 21
30.46079712
 31
0.0
  0
LINE
  5
118
330
1F
100
AcDbEntity
  8
_
  6
CONTINUOUS
 62
     3
100
AcDbLine
 10
214.81862184
 20
30.46079712
 30
0.0
 11
213.87364502
 21
31.67039184
 31
0.0
  0
LINE
  5
119
330
1F
100
AcDbEntity
  8
_
  6
CONTINUOUS
 62
     3
100
AcDbLine
 10
213.87364502
 20
31.67039184
 30
0.0
 11
215.664386
 21
31.67039184
 31
0.0
  0
LINE
  5
11A
330
1F
100
AcDbEntity
  8
_
  6
CONTINUOUS
 62
     3
100
AcDbLine
 10
215.664386
 20
31.67039184
 30
0.0
 11
216.6093628
 21
30.46079712
 31
0.0
  0
LINE
  5
11B
330
1F
100
AcDbEntity
  8
_
  6
CONTINUOUS
 62
     3
100
AcDbLine
 10
216.6093628
 20
30.46079712
 30
0.0
 11
216.99861452
 21
30.46079712
 31
0.0
  0
LINE
  5
11C
330
1F
100
AcDbEntity
  8
_
  6
CONTINUOUS
 62
     3
100
AcDbLine
 10
216.99861452
 20
30.46079712
 30
0.0
 11
216.99861452
 21
31.67039184
 31
0.0
  0
LINE
  5
11D
330
1F
100
AcDbEntity
  8
_
  6
CONTINUOUS
 62
     3
100
AcDbLine
 10
216.99861452
 20
31.67039184
 30
0.0
 11
218.4095337
 21
31.67039184
 31
0.0
  0
LINE
  5
11E
330
1F
100
AcDbEntity
  8
_
  6
CONTINUOUS
 62
     3
100
AcDbLine
 10
218.4095337
 20
31.67039184
 30
0.0
 11
218.4095337
 21
30.46079712
 31
0.0
  0
LINE
  5
11F
330
1F
100
AcDbEntity
  8
_
  6
CONTINUOUS
 62
     3
100
AcDbLine
 10
218.4095337
 20
30.46079712
 30
0.0
 11
219.01451416
 21
30.46079712
 31
0.0
  0
LINE
  5
120
330
1F
100
AcDbEntity
  8
_
  6
CONTINUOUS
 62
     3
100
AcDbLine
 10
219.01451416
 20
30.46079712
 30
0.0
 11
219.01451416
 21
31.67039184
 31
0.0
  0
LINE
  5
121
330
1F
100
AcDbEntity
  8
_
  6
CONTINUOUS
 62
     3
100
AcDbLine
 10
219.01451416
 20
31.67039184
 30
0.0
 11
220.42546388
 21
31.67039184
 31
0.0
  0
LINE
  5
122
330
1F
100
AcDbEntity
  8
_
  6
CONTINUOUS
 62
     3
100
AcDbLine
 10
220.42546388
 20
31.67039184
 30
0.0
 11
220.42546388
 21
30.46079712
 31
0.0
  0
LINE
  5
123
330
1F
100
AcDbEntity
  8
_
  6
CONTINUOUS
 62
     3
100
AcDbLine
 10
220.42546388
 20
30.46079712
 30
0.0
 11
220.81471558
 21
30.46079712
 31
0.0
  0
LINE
  5
124
330
1F
100
AcDbEntity
  8
_
  6
CONTINUOUS
 62
     3
100
AcDbLine
 10
220.81471558
 20
30.46079712
 30
0.0
 11
221.7596924
 21
31.67039184
 31
0.0
  0
LINE
  5
125
330
1F
100
AcDbEntity
  8
_
  6
CONTINUOUS
 62
     3
100
AcDbLine
 10
221.7596924
 20
31.67039184
 30
0.0
 11
223.55043336
 21
31.67039184
 31
0.0
  0
LINE
  5
126
330
1F
100
AcDbEntity
  8
_
  6
CONTINUOUS
 62
     3
100
AcDbLine
 10
223.55043336
 20
31.67039184
 30
0.0
 11
222.60545656
 21
30.46079712
 31
0.0
  0
LINE
  5
127
330
1F
100
AcDbEntity
  8
_
  6
CONTINUOUS
 62
     3
100
AcDbLine
 10
222.60545656
 20
30.46079712
 30
0.0
 11
224.35679932
 21
30.46079712
 31
0.0
  0
LINE
  5
128
330
1F
100
AcDbEntity
  8
_
  6
CONTINUOUS
 62
     3
100
AcDbLine
 10
224.35679932
 20
30.46079712
 30
0.0
 11
224.35679932
 21
29.53342896
 31
0.0
  0
LINE
  5
129
330
1F
100
AcDbEntity
  8
_
  6
CONTINUOUS
 62
     3
100
AcDbLine
 10
224.35679932
 20
29.53342896
 30
0.0
 11
222.23219606
 21
29.53342896
 31
0.0
  0
LINE
  5
12A
330
1F
100
AcDbEntity
  8
_
  6
CONTINUOUS
 62
     3
100
AcDbLine
 10
222.23219606
 20
29.53342896
 30
0.0
 11
221.86552736
 21
28.52546388
 31
0.0
  0
LINE
  5
12B
330
1F
100
AcDbEntity
  8
_
  6
CONTINUOUS
 62
     3
100
AcDbLine
 10
221.86552736
 20
28.52546388
 30
0.0
 11
224.35679932
 21
28.52546388
 31
0.0
  0
LINE
  5
12C
330
1F
100
AcDbEntity
  8
_
  6
CONTINUOUS
 62
     3
100
AcDbLine
 10
224.35679932
 20
28.52546388
 30
0.0
 11
224.35679932
 21
27.5980957
 31
0.0
  0
LINE
  5
12D
330
1F
100
AcDbEntity
  8
_
  6
CONTINUOUS
 62
     3
100
AcDbLine
 10
224.35679932
 20
27.5980957
 30
0.0
 11
219.71998902
 21
27.5980957
 31
0.0
  0
LINE
  5
12E
330
1F
100
AcDbEntity
  8
_
  6
CONTINUOUS
 62
     3
100
AcDbLine
 10
219.71998902
 20
27.5980957
 30
0.0
 11
219.71998902
 21
27.13441162
 31
0.0
  0
LINE
  5
12F
330
1F
100
AcDbEntity
  8
_
  6
CONTINUOUS
 62
     3
100
AcDbLine
 10
219.71998902
 20
27.13441162
 30
0.0
 11
224.35679932
 21
27.13441162
 31
0.0
  0
LINE
  5
130
330
1F
100
AcDbEntity
  8
_
  6
CONTINUOUS
 62
     3
100
AcDbLine
 10
224.35679932
 20
27.13441162
 30
0.0
 11
224.35679932
 21
26.20704346
 31
0.0
  0
LINE
  5
131
330
1F
100
AcDbEntity
  8
_
  6
CONTINUOUS
 62
     3
100
AcDbLine
 10
224.35679932
 20
26.20704346
 30
0.0
 11
219.71998902
 21
26.20704346
 31
0.0
  0
LINE
  5
132
330
1F
100
AcDbEntity
  8
_
  6
CONTINUOUS
 62
     3
100
AcDbLine
 10
219.71998902
 20
26.20704346
 30
0.0
 11
219.71998902
 21
25.74335938
 31
0.0
  0
LINE
  5
133
330
1F
100
AcDbEntity
  8
_
  6
CONTINUOUS
 62
     3
100
AcDbLine
 10
219.71998902
 20
25.74335938
 30
0.0
 11
224.35679932
 21
25.74335938
 31
0.0
  0
LINE
  5
134
330
1F
100
AcDbEntity
  8
_
  6
CONTINUOUS
 62
     3
100
AcDbLine
 10
224.35679932
 20
25.74335938
 30
0.0
 11
224.35679932
 21
24.81599122
 31
0.0
  0
LINE
  5
135
330
1F
100
AcDbEntity
  8
_
  6
CONTINUOUS
 62
     3
100
AcDbLine
 10
224.35679932
 20
24.81599122
 30
0.0
 11
222.12556764
 21
24.81599122
 31
0.0
  0
LINE
  5
136
330
1F
100
AcDbEntity
  8
_
  6
CONTINUOUS
 62
     3
100
AcDbLine
 10
222.12556764
 20
24.81599122
 30
0.0
 11
224.35679932
 21
22.8
 31
0.0
  0
LINE
  5
137
330
1F
100
AcDbEntity
  8
_
  6
CONTINUOUS
 62
     3
100
AcDbLine
 10
224.35679932
 20
22.8
 30
0.0
 11
221.95125124
 21
22.8
 31
0.0
  0
LINE
  5
138
330
1F
100
AcDbEntity
  8
_
  6
CONTINUOUS
 62
     3
100
AcDbLine
 10
221.95125124
 20
22.8
 30
0.0
 11
219.71998902
 21
24.81599122
 31
0.0
  0
LINE
  5
139
330
1F
100
AcDbEntity
  8
_
  6
CONTINUOUS
 62
     3
100
AcDbLine
 10
219.71998902
 20
24.81599122
 30
0.0
 11
219.71998902
 21
22.8
 31
0.0
  0
LINE
  5
13A
330
1F
100
AcDbEntity
  8
_
  6
CONTINUOUS
 62
     3
100
AcDbLine
 10
219.71998902
 20
22.8
 30
0.0
 11
217.70408936
 21
22.8
 31
0.0
  0
LINE
  5
13B
330
1F
100
AcDbEntity
  8
_
  6
CONTINUOUS
 62
     3
100
AcDbLine
 10
217.70408936
 20
22.8
 30
0.0
 11
217.70408936
 21
24.81599122
 31
0.0
  0
LINE
  5
13C
330
1F
100
AcDbEntity
  8
_
  6
CONTINUOUS
 62
     3
100
AcDbLine
 10
217.70408936
 20
24.81599122
 30
0.0
 11
215.47282716
 21
22.8
 31
0.0
  0
LINE
  5
13D
330
1F
100
AcDbEntity
  8
_
  6
CONTINUOUS
 62
     3
100
AcDbLine
 10
215.47282716
 20
22.8
 30
0.0
 11
213.06724854
 21
22.8
 31
0.0
  0
LINE
  5
13E
330
1F
100
AcDbEntity
  8
_
  6
CONTINUOUS
 62
     3
100
AcDbLine
 10
213.06724854
 20
22.8
 30
0.0
 11
215.29851076
 21
24.81599122
 31
0.0
  0
LINE
  5
13F
330
1F
100
AcDbEntity
  8
_
  6
CONTINUOUS
 62
     3
100
AcDbLine
 10
215.29851076
 20
24.81599122
 30
0.0
 11
213.06724854
 21
24.81599122
 31
0.0
  0
LINE
  5
140
330
1F
100
AcDbEntity
  8
_
  6
CONTINUOUS
 62
     3
100
AcDbLine
 10
213.06724854
 20
24.81599122
 30
0.0
 11
213.06724854
 21
25.74335938
 31
0.0
  0
LINE
  5
141
330
1F
100
AcDbEntity
  8
_
  6
CONTINUOUS
 62
     3
100
AcDbLine
 10
213.06724854
 20
25.74335938
 30
0.0
 11
217.70408936
 21
25.74335938
 31
0.0
  0
LINE
  5
142
330
1F
100
AcDbEntity
  8
_
  6
CONTINUOUS
 62
     3
100
AcDbLine
 10
217.70408936
 20
25.74335938
 30
0.0
 11
217.70408936
 21
26.20704346
 31
0.0
  0
LINE
  5
143
330
1F
100
AcDbEntity
  8
_
  6
CONTINUOUS
 62
     3
100
AcDbLine
 10
217.70408936
 20
26.20704346
 30
0.0
 11
213.06724854
 21
26.20704346
 31
0.0
  0
LINE
  5
144
330
1F
100
AcDbEntity
  8
_
  6
CONTINUOUS
 62
     3
100
AcDbLine
 10
213.06724854
 20
26.20704346
 30
0.0
 11
213.06724854
 21
27.13441162
 31
0.0
  0
LINE
  5
145
330
1F
100
AcDbEntity
  8
_
  6
CONTINUOUS
 62
     3
100
AcDbLine
 10
213.06724854
 20
27.13441162
 30
0.0
 11
217.70408936
 21
27.13441162
 31
0.0
  0
LINE
  5
146
330
1F
100
AcDbEntity
  8
_
  6
CONTINUOUS
 62
     3
100
AcDbLine
 10
217.70408936
 20
27.13441162
 30
0.0
 11
217.70408936
 21
27.5980957
 31
0.0
  0
LINE
  5
147
330
1F
100
AcDbEntity
  8
_
  6
CONTINUOUS
 62
     3
100
AcDbLine
 10
217.70408936
 20
27.5980957
 30
0.0
 11
213.06724854
 21
27.5980957
 31
0.0
  0
LINE
  5
148
330
1F
100
AcDbEntity
  8
_
  6
CONTINUOUS
 62
     3
100
AcDbLine
 10
213.06724854
 20
27.5980957
 30
0.0
 11
213.06724854
 21
28.52546388
 31
0.0
  0
LINE
  5
149
330
1F
100
AcDbEntity
  8
_
  6
CONTINUOUS
 62
     3
100
AcDbLine
 10
213.06724854
 20
28.52546388
 30
0.0
 11
215.55855104
 21
28.52546388
 31
0.0
  0
LINE
  5
14A
330
1F
100
AcDbEntity
  8
_
  6
CONTINUOUS
 62
     3
100
AcDbLine
 10
215.55855104
 20
28.52546388
 30
0.0
 11
215.19188234
 21
29.53342896
 31
0.0
  0
LINE
  5
14B
330
1F
100
AcDbEntity
  8
_
  6
CONTINUOUS
 62
     3
100
AcDbLine
 10
215.19188234
 20
29.53342896
 30
0.0
 11
213.06724854
 21
29.53342896
 31
0.0
  0
LINE
  5
14C
330
1F
100
AcDbEntity
  8
_
  6
CONTINUOUS
 62
     3
100
AcDbLine
 10
217.33699342
 20
29.53342896
 30
0.0
 11
220.08708498
 21
29.53342896
 31
0.0
  0
LINE
  5
14D
330
1F
100
AcDbEntity
  8
_
  6
CONTINUOUS
 62
     3
100
AcDbLine
 10
220.08708498
 20
29.53342896
 30
0.0
 11
219.71998902
 21
28.52546388
 31
0.0
  0
LINE
  5
14E
330
1F
100
AcDbEntity
  8
_
  6
CONTINUOUS
 62
     3
100
AcDbLine
 10
219.71998902
 20
28.52546388
 30
0.0
 11
217.70408936
 21
28.52546388
 31
0.0
  0
LINE
  5
14F
330
1F
100
AcDbEntity
  8
_
  6
CONTINUOUS
 62
     3
100
AcDbLine
 10
217.70408936
 20
28.52546388
 30
0.0
 11
217.33699342
 21
29.53342896
 31
0.0
  0
LINE
  5
150
330
1F
100
AcDbEntity
  8
_
  6
CONTINUOUS
 62
     3
100
AcDbLine
 10
229.85127564
 20
31.67039184
 30
0.0
 11
229.1978943
 21
29.04960328
 31
0.0
  0
LINE
  5
151
330
1F
100
AcDbEntity
  8
_
  6
CONTINUOUS
 62
     3
100
AcDbLine
 10
229.85127564
 20
31.67039184
 30
0.0
 11
231.51362916
 21
31.67039184
 31
0.0
  0
LINE
  5
152
330
1F
100
AcDbEntity
  8
_
  6
CONTINUOUS
 62
     3
100
AcDbLine
 10
231.51362916
 20
31.67039184
 30
0.0
 11
231.26219484
 21
30.66239624
 31
0.0
  0
LINE
  5
153
330
1F
100
AcDbEntity
  8
_
  6
CONTINUOUS
 62
     3
100
AcDbLine
 10
231.26219484
 20
30.66239624
 30
0.0
 11
231.9168274
 21
30.66239624
 31
0.0
  0
LINE
  5
154
330
1F
100
AcDbEntity
  8
_
  6
CONTINUOUS
 62
     3
100
AcDbLine
 10
231.9168274
 20
30.66239624
 30
0.0
 11
231.9168274
 21
31.67039184
 31
0.0
  0
LINE
  5
155
330
1F
100
AcDbEntity
  8
_
  6
CONTINUOUS
 62
     3
100
AcDbLine
 10
231.9168274
 20
31.67039184
 30
0.0
 11
233.73134156
 21
31.67039184
 31
0.0
  0
LINE
  5
156
330
1F
100
AcDbEntity
  8
_
  6
CONTINUOUS
 62
     3
100
AcDbLine
 10
233.73134156
 20
31.67039184
 30
0.0
 11
233.73134156
 21
30.66239624
 31
0.0
  0
LINE
  5
157
330
1F
100
AcDbEntity
  8
_
  6
CONTINUOUS
 62
     3
100
AcDbLine
 10
233.73134156
 20
30.66239624
 30
0.0
 11
236.04954834
 21
30.66239624
 31
0.0
  0
LINE
  5
158
330
1F
100
AcDbEntity
  8
_
  6
CONTINUOUS
 62
     3
100
AcDbLine
 10
236.04954834
 20
30.66239624
 30
0.0
 11
236.04954834
 21
29.65440064
 31
0.0
  0
LINE
  5
159
330
1F
100
AcDbEntity
  8
_
  6
CONTINUOUS
 62
     3
100
AcDbLine
 10
233.73134156
 20
29.65440064
 30
0.0
 11
236.04954834
 21
29.65440064
 31
0.0
  0
LINE
  5
15A
330
1F
100
AcDbEntity
  8
_
  6
CONTINUOUS
 62
     3
100
AcDbLine
 10
233.73134156
 20
29.65440064
 30
0.0
 11
233.73134156
 21
28.64640504
 31
0.0
  0
LINE
  5
15B
330
1F
100
AcDbEntity
  8
_
  6
CONTINUOUS
 62
     3
100
AcDbLine
 10
233.73134156
 20
28.64640504
 30
0.0
 11
236.25133058
 21
28.64640504
 31
0.0
  0
LINE
  5
15C
330
1F
100
AcDbEntity
  8
_
  6
CONTINUOUS
 62
     3
100
AcDbLine
 10
236.25133058
 20
28.64640504
 30
0.0
 11
236.25133058
 21
27.63840942
 31
0.0
  0
LINE
  5
15D
330
1F
100
AcDbEntity
  8
_
  6
CONTINUOUS
 62
     3
100
AcDbLine
 10
236.25133058
 20
27.63840942
 30
0.0
 11
235.37031862
 21
27.63840942
 31
0.0
  0
LINE
  5
15E
330
1F
100
AcDbEntity
  8
_
  6
CONTINUOUS
 62
     3
100
AcDbLine
 10
235.37031862
 20
27.63840942
 30
0.0
 11
236.25133058
 21
22.8
 31
0.0
  0
LINE
  5
15F
330
1F
100
AcDbEntity
  8
_
  6
CONTINUOUS
 62
     3
100
AcDbLine
 10
236.25133058
 20
22.8
 30
0.0
 11
234.6119568
 21
22.8
 31
0.0
  0
LINE
  5
160
330
1F
100
AcDbEntity
  8
_
  6
CONTINUOUS
 62
     3
100
AcDbLine
 10
234.6119568
 20
22.8
 30
0.0
 11
233.73134156
 21
27.6383484
 31
0.0
  0
LINE
  5
161
330
1F
100
AcDbEntity
  8
_
  6
CONTINUOUS
 62
     3
100
AcDbLine
 10
233.73134156
 20
27.6383484
 30
0.0
 11
233.73134156
 21
22.8
 31
0.0
  0
LINE
  5
162
330
1F
100
AcDbEntity
  8
_
  6
CONTINUOUS
 62
     3
100
AcDbLine
 10
233.73134156
 20
22.8
 30
0.0
 11
231.9168274
 21
22.8
 31
0.0
  0
LINE
  5
163
330
1F
100
AcDbEntity
  8
_
  6
CONTINUOUS
 62
     3
100
AcDbLine
 10
231.9168274
 20
22.8
 30
0.0
 11
231.9168274
 21
27.63840942
 31
0.0
  0
LINE
  5
164
330
1F
100
AcDbEntity
  8
_
  6
CONTINUOUS
 62
     3
100
AcDbLine
 10
231.9168274
 20
27.63840942
 30
0.0
 11
231.03621216
 21
22.8
 31
0.0
  0
LINE
  5
165
330
1F
100
AcDbEntity
  8
_
  6
CONTINUOUS
 62
     3
100
AcDbLine
 10
231.03621216
 20
22.8
 30
0.0
 11
229.39680788
 21
22.8
 31
0.0
  0
LINE
  5
166
330
1F
100
AcDbEntity
  8
_
  6
CONTINUOUS
 62
     3
100
AcDbLine
 10
229.39680788
 20
22.8
 30
0.0
 11
230.2774231
 21
27.63840942
 31
0.0
  0
LINE
  5
167
330
1F
100
AcDbEntity
  8
_
  6
CONTINUOUS
 62
     3
100
AcDbLine
 10
230.2774231
 20
27.63840942
 30
0.0
 11
229.39680788
 21
27.63840942
 31
0.0
  0
LINE
  5
168
330
1F
100
AcDbEntity
  8
_
  6
CONTINUOUS
 62
     3
100
AcDbLine
 10
229.39680788
 20
27.63840942
 30
0.0
 11
229.39680788
 21
28.64640504
 31
0.0
  0
LINE
  5
169
330
1F
100
AcDbEntity
  8
_
  6
CONTINUOUS
 62
     3
100
AcDbLine
 10
229.39680788
 20
28.64640504
 30
0.0
 11
231.9168274
 21
28.64640504
 31
0.0
  0
LINE
  5
16A
330
1F
100
AcDbEntity
  8
_
  6
CONTINUOUS
 62
     3
100
AcDbLine
 10
231.9168274
 20
28.64640504
 30
0.0
 11
231.9168274
 21
29.65440064
 31
0.0
  0
LINE
  5
16B
330
1F
100
AcDbEntity
  8
_
  6
CONTINUOUS
 62
     3
100
AcDbLine
 10
231.9168274
 20
29.65440064
 30
0.0
 11
231.01079102
 21
29.65440064
 31
0.0
  0
LINE
  5
16C
330
1F
100
AcDbEntity
  8
_
  6
CONTINUOUS
 62
     3
100
AcDbLine
 10
231.01079102
 20
29.65440064
 30
0.0
 11
230.86024782
 21
29.04960328
 31
0.0
  0
LINE
  5
16D
330
1F
100
AcDbEntity
  8
_
  6
CONTINUOUS
 62
     3
100
AcDbLine
 10
230.86024782
 20
29.04960328
 30
0.0
 11
229.1978943
 21
29.04960328
 31
0.0
  0
LINE
  5
16E
330
1F
100
AcDbEntity
  8
_
  6
CONTINUOUS
 62
     3
100
AcDbLine
 10
224.75999756
 20
30.66239624
 30
0.0
 11
224.75999756
 21
29.65440064
 31
0.0
  0
LINE
  5
16F
330
1F
100
AcDbEntity
  8
_
  6
CONTINUOUS
 62
     3
100
AcDbLine
 10
224.75999756
 20
30.66239624
 30
0.0
 11
226.77592774
 21
30.66239624
 31
0.0
  0
LINE
  5
170
330
1F
100
AcDbEntity
  8
_
  6
CONTINUOUS
 62
     3
100
AcDbLine
 10
226.77592774
 20
30.66239624
 30
0.0
 11
226.77592774
 21
31.67039184
 31
0.0
  0
LINE
  5
171
330
1F
100
AcDbEntity
  8
_
  6
CONTINUOUS
 62
     3
100
AcDbLine
 10
226.77592774
 20
31.67039184
 30
0.0
 11
228.5904419
 21
31.67039184
 31
0.0
  0
LINE
  5
172
330
1F
100
AcDbEntity
  8
_
  6
CONTINUOUS
 62
     3
100
AcDbLine
 10
228.5904419
 20
31.67039184
 30
0.0
 11
228.5904419
 21
30.66239624
 31
0.0
  0
LINE
  5
173
330
1F
100
AcDbEntity
  8
_
  6
CONTINUOUS
 62
     3
100
AcDbLine
 10
228.5904419
 20
30.66239624
 30
0.0
 11
229.19502564
 21
30.66239624
 31
0.0
  0
LINE
  5
174
330
1F
100
AcDbEntity
  8
_
  6
CONTINUOUS
 62
     3
100
AcDbLine
 10
229.19502564
 20
30.66239624
 30
0.0
 11
229.19502564
 21
29.65440064
 31
0.0
  0
LINE
  5
175
330
1F
100
AcDbEntity
  8
_
  6
CONTINUOUS
 62
     3
100
AcDbLine
 10
229.19502564
 20
29.65440064
 30
0.0
 11
228.5904419
 21
29.65440064
 31
0.0
  0
LINE
  5
176
330
1F
100
AcDbEntity
  8
_
  6
CONTINUOUS
 62
     3
100
AcDbLine
 10
228.5904419
 20
29.65440064
 30
0.0
 11
229.19502564
 21
28.82200318
 31
0.0
  0
LINE
  5
177
330
1F
100
AcDbEntity
  8
_
  6
CONTINUOUS
 62
     3
100
AcDbLine
 10
229.19502564
 20
28.82200318
 30
0.0
 11
229.19502564
 21
26.76414184
 31
0.0
  0
LINE
  5
178
330
1F
100
AcDbEntity
  8
_
  6
CONTINUOUS
 62
     3
100
AcDbLine
 10
229.19502564
 20
26.76414184
 30
0.0
 11
228.5904419
 21
27.59656982
 31
0.0
  0
LINE
  5
179
330
1F
100
AcDbEntity
  8
_
  6
CONTINUOUS
 62
     3
100
AcDbLine
 10
228.5904419
 20
27.59656982
 30
0.0
 11
228.5904419
 21
22.8
 31
0.0
  0
LINE
  5
17A
330
1F
100
AcDbEntity
  8
_
  6
CONTINUOUS
 62
     3
100
AcDbLine
 10
228.5904419
 20
22.8
 30
0.0
 11
226.77592774
 21
22.8
 31
0.0
  0
LINE
  5
17B
330
1F
100
AcDbEntity
  8
_
  6
CONTINUOUS
 62
     3
100
AcDbLine
 10
226.77592774
 20
22.8
 30
0.0
 11
226.77592774
 21
29.65440064
 31
0.0
  0
LINE
  5
17C
330
1F
100
AcDbEntity
  8
_
  6
CONTINUOUS
 62
     3
100
AcDbLine
 10
226.69676514
 20
29.65440064
 30
0.0
 11
225.97612306
 21
22.8
 31
0.0
  0
LINE
  5
17D
330
1F
100
AcDbEntity
  8
_
  6
CONTINUOUS
 62
     3
100
AcDbLine
 10
225.97612306
 20
22.8
 30
0.0
 11
224.75999756
 21
22.8
 31
0.0
  0
LINE
  5
17E
330
1F
100
AcDbEntity
  8
_
  6
CONTINUOUS
 62
     3
100
AcDbLine
 10
224.75999756
 20
22.8
 30
0.0
 11
225.48063966
 21
29.65440064
 31
0.0
  0
LINE
  5
17F
330
1F
100
AcDbEntity
  8
_
  6
CONTINUOUS
 62
     3
100
AcDbLine
 10
225.48063966
 20
29.65440064
 30
0.0
 11
224.75999756
 21
29.65440064
 31
0.0
  0
LINE
  5
180
330
1F
100
AcDbEntity
  8
_
  6
CONTINUOUS
 62
     3
100
AcDbLine
 10
237.25911256
 20
28.44480592
 30
0.0
 11
237.25911256
 21
27.23521118
 31
0.0
  0
LINE
  5
181
330
1F
100
AcDbEntity
  8
_
  6
CONTINUOUS
 62
     3
100
AcDbLine
 10
237.25911256
 20
28.44480592
 30
0.0
 11
243.3072693
 21
28.44480592
 31
0.0
  0
LINE
  5
182
330
1F
100
AcDbEntity
  8
_
  6
CONTINUOUS
 62
     3
100
AcDbLine
 10
243.3072693
 20
28.44480592
 30
0.0
 11
243.3072693
 21
27.23521118
 31
0.0
  0
LINE
  5
183
330
1F
100
AcDbEntity
  8
_
  6
CONTINUOUS
 62
     3
100
AcDbLine
 10
243.3072693
 20
27.23521118
 30
0.0
 11
241.3918335
 21
27.23521118
 31
0.0
  0
LINE
  5
184
330
1F
100
AcDbEntity
  8
_
  6
CONTINUOUS
 62
     3
100
AcDbLine
 10
241.3918335
 20
27.23521118
 30
0.0
 11
241.3918335
 21
25.55482178
 31
0.0
  0
LINE
  5
185
330
1F
100
AcDbEntity
  8
_
  6
CONTINUOUS
 62
     3
100
AcDbLine
 10
241.3918335
 20
25.55482178
 30
0.0
 11
243.4081604
 21
25.9833191
 31
0.0
  0
LINE
  5
186
330
1F
100
AcDbEntity
  8
_
  6
CONTINUOUS
 62
     3
100
AcDbLine
 10
243.4081604
 20
25.9833191
 30
0.0
 11
243.4081604
 21
24.12839966
 31
0.0
  0
LINE
  5
187
330
1F
100
AcDbEntity
  8
_
  6
CONTINUOUS
 62
     3
100
AcDbLine
 10
243.4081604
 20
24.12839966
 30
0.0
 11
237.15819092
 21
22.8
 31
0.0
  0
LINE
  5
188
330
1F
100
AcDbEntity
  8
_
  6
CONTINUOUS
 62
     3
100
AcDbLine
 10
237.15819092
 20
22.8
 30
0.0
 11
237.15819092
 21
24.65491944
 31
0.0
  0
LINE
  5
189
330
1F
100
AcDbEntity
  8
_
  6
CONTINUOUS
 62
     3
100
AcDbLine
 10
237.15819092
 20
24.65491944
 30
0.0
 11
239.17451784
 21
25.08344726
 31
0.0
  0
LINE
  5
18A
330
1F
100
AcDbEntity
  8
_
  6
CONTINUOUS
 62
     3
100
AcDbLine
 10
239.17451784
 20
25.08344726
 30
0.0
 11
239.17451784
 21
27.23521118
 31
0.0
  0
LINE
  5
18B
330
1F
100
AcDbEntity
  8
_
  6
CONTINUOUS
 62
     3
100
AcDbLine
 10
239.17451784
 20
27.23521118
 30
0.0
 11
237.25911256
 21
27.23521118
 31
0.0
  0
LINE
  5
18C
330
1F
100
AcDbEntity
  8
_
  6
CONTINUOUS
 62
     3
100
AcDbLine
 10
236.65452882
 20
30.86399536
 30
0.0
 11
236.65452882
 21
29.65440064
 31
0.0
  0
LINE
  5
18D
330
1F
100
AcDbEntity
  8
_
  6
CONTINUOUS
 62
     3
100
AcDbLine
 10
236.65452882
 20
30.86399536
 30
0.0
 11
242.64897462
 21
30.86399536
 31
0.0
  0
LINE
  5
18E
330
1F
100
AcDbEntity
  8
_
  6
CONTINUOUS
 62
     3
100
AcDbLine
 10
242.64897462
 20
30.86399536
 30
0.0
 11
242.3557007
 21
31.67039184
 31
0.0
  0
LINE
  5
18F
330
1F
100
AcDbEntity
  8
_
  6
CONTINUOUS
 62
     3
100
AcDbLine
 10
242.3557007
 20
31.67039184
 30
0.0
 11
244.71531984
 21
31.67039184
 31
0.0
  0
LINE
  5
190
330
1F
100
AcDbEntity
  8
_
  6
CONTINUOUS
 62
     3
100
AcDbLine
 10
244.71531984
 20
31.67039184
 30
0.0
 11
245.00899048
 21
30.86399536
 31
0.0
  0
LINE
  5
191
330
1F
100
AcDbEntity
  8
_
  6
CONTINUOUS
 62
     3
100
AcDbLine
 10
245.00899048
 20
30.86399536
 30
0.0
 11
245.5249817
 21
30.86399536
 31
0.0
  0
LINE
  5
192
330
1F
100
AcDbEntity
  8
_
  6
CONTINUOUS
 62
     3
100
AcDbLine
 10
245.5249817
 20
30.86399536
 30
0.0
 11
245.5249817
 21
31.67039184
 31
0.0
  0
LINE
  5
193
330
1F
100
AcDbEntity
  8
_
  6
CONTINUOUS
 62
     3
100
AcDbLine
 10
245.5249817
 20
31.67039184
 30
0.0
 11
247.33909914
 21
31.67039184
 31
0.0
  0
LINE
  5
194
330
1F
100
AcDbEntity
  8
_
  6
CONTINUOUS
 62
     3
100
AcDbLine
 10
247.33909914
 20
31.67039184
 30
0.0
 11
247.33909914
 21
30.86399536
 31
0.0
  0
LINE
  5
195
330
1F
100
AcDbEntity
  8
_
  6
CONTINUOUS
 62
     3
100
AcDbLine
 10
247.33909914
 20
30.86399536
 30
0.0
 11
247.9440796
 21
30.86399536
 31
0.0
  0
LINE
  5
196
330
1F
100
AcDbEntity
  8
_
  6
CONTINUOUS
 62
     3
100
AcDbLine
 10
247.9440796
 20
30.86399536
 30
0.0
 11
247.9440796
 21
29.65440064
 31
0.0
  0
LINE
  5
197
330
1F
100
AcDbEntity
  8
_
  6
CONTINUOUS
 62
     3
100
AcDbLine
 10
247.9440796
 20
29.65440064
 30
0.0
 11
245.44908448
 21
29.65440064
 31
0.0
  0
LINE
  5
198
330
1F
100
AcDbEntity
  8
_
  6
CONTINUOUS
 62
     3
100
AcDbLine
 10
245.44908448
 20
29.65440064
 30
0.0
 11
247.9440796
 21
22.8
 31
0.0
  0
LINE
  5
199
330
1F
100
AcDbEntity
  8
_
  6
CONTINUOUS
 62
     3
100
AcDbLine
 10
247.9440796
 20
22.8
 30
0.0
 11
245.58403322
 21
22.8
 31
0.0
  0
LINE
  5
19A
330
1F
100
AcDbEntity
  8
_
  6
CONTINUOUS
 62
     3
100
AcDbLine
 10
245.58403322
 20
22.8
 30
0.0
 11
243.08946534
 21
29.65440064
 31
0.0
  0
LINE
  5
19B
330
1F
100
AcDbEntity
  8
_
  6
CONTINUOUS
 62
     3
100
AcDbLine
 10
243.08946534
 20
29.65440064
 30
0.0
 11
236.65452882
 21
29.65440064
 31
0.0
  0
LINE
  5
19C
330
1F
100
AcDbEntity
  8
_
  6
CONTINUOUS
 62
     3
100
AcDbLine
 10
248.34727784
 20
29.94956666
 30
0.0
 11
248.34727784
 21
28.67399292
 31
0.0
  0
LINE
  5
19D
330
1F
100
AcDbEntity
  8
_
  6
CONTINUOUS
 62
     3
100
AcDbLine
 10
248.34727784
 20
29.94956666
 30
0.0
 11
254.09273072
 21
31.87199096
 31
0.0
  0
LINE
  5
19E
330
1F
100
AcDbEntity
  8
_
  6
CONTINUOUS
 62
     3
100
AcDbLine
 10
254.09273072
 20
31.87199096
 30
0.0
 11
259.83821412
 21
29.94950562
 31
0.0
  0
LINE
  5
19F
330
1F
100
AcDbEntity
  8
_
  6
CONTINUOUS
 62
     3
100
AcDbLine
 10
259.83821412
 20
29.94950562
 30
0.0
 11
259.83821412
 21
28.67399292
 31
0.0
  0
LINE
  5
1A0
330
1F
100
AcDbEntity
  8
_
  6
CONTINUOUS
 62
     3
100
AcDbLine
 10
259.83821412
 20
28.67399292
 30
0.0
 11
258.1249878
 21
29.24735718
 31
0.0
  0
LINE
  5
1A1
330
1F
100
AcDbEntity
  8
_
  6
CONTINUOUS
 62
     3
100
AcDbLine
 10
258.1249878
 20
29.24735718
 30
0.0
 11
258.1249878
 21
28.2432068
 31
0.0
  0
LINE
  5
1A2
330
1F
100
AcDbEntity
  8
_
  6
CONTINUOUS
 62
     3
100
AcDbLine
 10
258.1249878
 20
28.2432068
 30
0.0
 11
250.06090088
 21
28.2432068
 31
0.0
  0
LINE
  5
1A3
330
1F
100
AcDbEntity
  8
_
  6
CONTINUOUS
 62
     3
100
AcDbLine
 10
250.06090088
 20
28.2432068
 30
0.0
 11
250.06090088
 21
29.24735718
 31
0.0
  0
LINE
  5
1A4
330
1F
100
AcDbEntity
  8
_
  6
CONTINUOUS
 62
     3
100
AcDbLine
 10
250.06090088
 20
29.24735718
 30
0.0
 11
248.34727784
 21
28.67399292
 31
0.0
  0
LINE
  5
1A5
330
1F
100
AcDbEntity
  8
_
  6
CONTINUOUS
 62
     3
100
AcDbLine
 10
250.67491456
 20
29.45280152
 30
0.0
 11
254.09273072
 21
30.59644776
 31
0.0
  0
LINE
  5
1A6
330
1F
100
AcDbEntity
  8
_
  6
CONTINUOUS
 62
     3
100
AcDbLine
 10
254.09273072
 20
30.59644776
 30
0.0
 11
257.51097414
 21
29.45280152
 31
0.0
  0
LINE
  5
1A7
330
1F
100
AcDbEntity
  8
_
  6
CONTINUOUS
 62
     3
100
AcDbLine
 10
257.51097414
 20
29.45280152
 30
0.0
 11
250.67491456
 21
29.45280152
 31
0.0
  0
LINE
  5
1A8
330
1F
100
AcDbEntity
  8
_
  6
CONTINUOUS
 62
     3
100
AcDbLine
 10
248.34727784
 20
27.43677978
 30
0.0
 11
248.34727784
 21
26.22718506
 31
0.0
  0
LINE
  5
1A9
330
1F
100
AcDbEntity
  8
_
  6
CONTINUOUS
 62
     3
100
AcDbLine
 10
248.34727784
 20
27.43677978
 30
0.0
 11
259.83821412
 21
27.43677978
 31
0.0
  0
LINE
  5
1AA
330
1F
100
AcDbEntity
  8
_
  6
CONTINUOUS
 62
     3
100
AcDbLine
 10
259.83821412
 20
27.43677978
 30
0.0
 11
259.83821412
 21
26.22718506
 31
0.0
  0
LINE
  5
1AB
330
1F
100
AcDbEntity
  8
_
  6
CONTINUOUS
 62
     3
100
AcDbLine
 10
259.83821412
 20
26.22718506
 30
0.0
 11
258.24022218
 21
26.22718506
 31
0.0
  0
LINE
  5
1AC
330
1F
100
AcDbEntity
  8
_
  6
CONTINUOUS
 62
     3
100
AcDbLine
 10
258.24022218
 20
26.22718506
 30
0.0
 11
259.83821412
 21
22.8
 31
0.0
  0
LINE
  5
1AD
330
1F
100
AcDbEntity
  8
_
  6
CONTINUOUS
 62
     3
100
AcDbLine
 10
259.83821412
 20
22.8
 30
0.0
 11
248.34727784
 21
22.8
 31
0.0
  0
LINE
  5
1AE
330
1F
100
AcDbEntity
  8
_
  6
CONTINUOUS
 62
     3
100
AcDbLine
 10
248.34727784
 20
22.8
 30
0.0
 11
249.94523926
 21
26.22718506
 31
0.0
  0
LINE
  5
1AF
330
1F
100
AcDbEntity
  8
_
  6
CONTINUOUS
 62
     3
100
AcDbLine
 10
249.94523926
 20
26.22718506
 30
0.0
 11
248.34727784
 21
26.22718506
 31
0.0
  0
LINE
  5
1B0
330
1F
100
AcDbEntity
  8
_
  6
CONTINUOUS
 62
     3
100
AcDbLine
 10
252.16951294
 20
26.22718506
 30
0.0
 11
256.0159485
 21
26.22718506
 31
0.0
  0
LINE
  5
1B1
330
1F
100
AcDbEntity
  8
_
  6
CONTINUOUS
 62
     3
100
AcDbLine
 10
256.0159485
 20
26.22718506
 30
0.0
 11
257.04994508
 21
24.00959472
 31
0.0
  0
LINE
  5
1B2
330
1F
100
AcDbEntity
  8
_
  6
CONTINUOUS
 62
     3
100
AcDbLine
 10
257.04994508
 20
24.00959472
 30
0.0
 11
251.13551636
 21
24.00959472
 31
0.0
  0
LINE
  5
1B3
330
1F
100
AcDbEntity
  8
_
  6
CONTINUOUS
 62
     3
100
AcDbLine
 10
252.16951294
 20
26.22718506
 30
0.0
 11
251.13551636
 21
24.00959472
 31
0.0
  0
LINE
  5
1B4
330
1F
100
AcDbEntity
  8
_
  6
CONTINUOUS
 62
     3
100
AcDbLine
 10
265.68498536
 20
29.45280152
 30
0.0
 11
265.68498536
 21
28.2432068
 31
0.0
  0
LINE
  5
1B5
330
1F
100
AcDbEntity
  8
_
  6
CONTINUOUS
 62
     3
100
AcDbLine
 10
265.68498536
 20
29.45280152
 30
0.0
 11
267.4991028
 21
29.45280152
 31
0.0
  0
LINE
  5
1B6
330
1F
100
AcDbEntity
  8
_
  6
CONTINUOUS
 62
     3
100
AcDbLine
 10
267.4991028
 20
29.45280152
 30
0.0
 11
267.4991028
 21
31.67039184
 31
0.0
  0
LINE
  5
1B7
330
1F
100
AcDbEntity
  8
_
  6
CONTINUOUS
 62
     3
100
AcDbLine
 10
267.4991028
 20
31.67039184
 30
0.0
 11
269.51500246
 21
31.67039184
 31
0.0
  0
LINE
  5
1B8
330
1F
100
AcDbEntity
  8
_
  6
CONTINUOUS
 62
     3
100
AcDbLine
 10
269.51500246
 20
31.67039184
 30
0.0
 11
269.51500246
 21
29.45280152
 31
0.0
  0
LINE
  5
1B9
330
1F
100
AcDbEntity
  8
_
  6
CONTINUOUS
 62
     3
100
AcDbLine
 10
269.51500246
 20
29.45280152
 30
0.0
 11
271.32954712
 21
29.45280152
 31
0.0
  0
LINE
  5
1BA
330
1F
100
AcDbEntity
  8
_
  6
CONTINUOUS
 62
     3
100
AcDbLine
 10
271.32954712
 20
29.45280152
 30
0.0
 11
271.32954712
 21
28.2432068
 31
0.0
  0
LINE
  5
1BB
330
1F
100
AcDbEntity
  8
_
  6
CONTINUOUS
 62
     3
100
AcDbLine
 10
271.32954712
 20
28.2432068
 30
0.0
 11
269.51500246
 21
28.2432068
 31
0.0
  0
LINE
  5
1BC
330
1F
100
AcDbEntity
  8
_
  6
CONTINUOUS
 62
     3
100
AcDbLine
 10
269.51500246
 20
28.2432068
 30
0.0
 11
269.51500246
 21
24.00959472
 31
0.0
  0
LINE
  5
1BD
330
1F
100
AcDbEntity
  8
_
  6
CONTINUOUS
 62
     3
100
AcDbLine
 10
269.51500246
 20
24.00959472
 30
0.0
 11
271.53132936
 21
24.00959472
 31
0.0
  0
LINE
  5
1BE
330
1F
100
AcDbEntity
  8
_
  6
CONTINUOUS
 62
     3
100
AcDbLine
 10
271.53132936
 20
24.00959472
 30
0.0
 11
271.53132936
 21
22.8
 31
0.0
  0
LINE
  5
1BF
330
1F
100
AcDbEntity
  8
_
  6
CONTINUOUS
 62
     3
100
AcDbLine
 10
271.53132936
 20
22.8
 30
0.0
 11
264.87819214
 21
22.8
 31
0.0
  0
LINE
  5
1C0
330
1F
100
AcDbEntity
  8
_
  6
CONTINUOUS
 62
     3
100
AcDbLine
 10
264.87819214
 20
22.8
 30
0.0
 11
264.87819214
 21
24.00959472
 31
0.0
  0
LINE
  5
1C1
330
1F
100
AcDbEntity
  8
_
  6
CONTINUOUS
 62
     3
100
AcDbLine
 10
264.87819214
 20
24.00959472
 30
0.0
 11
267.4991028
 21
24.00959472
 31
0.0
  0
LINE
  5
1C2
330
1F
100
AcDbEntity
  8
_
  6
CONTINUOUS
 62
     3
100
AcDbLine
 10
267.4991028
 20
24.00959472
 30
0.0
 11
267.4991028
 21
28.2432068
 31
0.0
  0
LINE
  5
1C3
330
1F
100
AcDbEntity
  8
_
  6
CONTINUOUS
 62
     3
100
AcDbLine
 10
267.4991028
 20
28.2432068
 30
0.0
 11
265.68498536
 21
28.2432068
 31
0.0
  0
LINE
  5
1C4
330
1F
100
AcDbEntity
  8
_
  6
CONTINUOUS
 62
     3
100
AcDbLine
 10
260.24138184
 20
30.86399536
 30
0.0
 11
260.24138184
 21
29.65440064
 31
0.0
  0
LINE
  5
1C5
330
1F
100
AcDbEntity
  8
_
  6
CONTINUOUS
 62
     3
100
AcDbLine
 10
260.24138184
 20
30.86399536
 30
0.0
 11
262.05592652
 21
30.86399536
 31
0.0
  0
LINE
  5
1C6
330
1F
100
AcDbEntity
  8
_
  6
CONTINUOUS
 62
     3
100
AcDbLine
 10
262.05592652
 20
30.86399536
 30
0.0
 11
262.05592652
 21
31.67039184
 31
0.0
  0
LINE
  5
1C7
330
1F
100
AcDbEntity
  8
_
  6
CONTINUOUS
 62
     3
100
AcDbLine
 10
262.05592652
 20
31.67039184
 30
0.0
 11
264.07182618
 21
31.67039184
 31
0.0
  0
LINE
  5
1C8
330
1F
100
AcDbEntity
  8
_
  6
CONTINUOUS
 62
     3
100
AcDbLine
 10
264.07182618
 20
31.67039184
 30
0.0
 11
264.07182618
 21
30.86399536
 31
0.0
  0
LINE
  5
1C9
330
1F
100
AcDbEntity
  8
_
  6
CONTINUOUS
 62
     3
100
AcDbLine
 10
264.07182618
 20
30.86399536
 30
0.0
 11
265.88637086
 21
30.86399536
 31
0.0
  0
LINE
  5
1CA
330
1F
100
AcDbEntity
  8
_
  6
CONTINUOUS
 62
     3
100
AcDbLine
 10
265.88637086
 20
30.86399536
 30
0.0
 11
263.80522462
 21
27.891156
 31
0.0
  0
LINE
  5
1CB
330
1F
100
AcDbEntity
  8
_
  6
CONTINUOUS
 62
     3
100
AcDbLine
 10
263.80522462
 20
27.891156
 30
0.0
 11
265.68498536
 21
26.575177
 31
0.0
  0
LINE
  5
1CC
330
1F
100
AcDbEntity
  8
_
  6
CONTINUOUS
 62
     3
100
AcDbLine
 10
265.68498536
 20
26.575177
 30
0.0
 11
265.68498536
 21
24.3602417
 31
0.0
  0
LINE
  5
1CD
330
1F
100
AcDbEntity
  8
_
  6
CONTINUOUS
 62
     3
100
AcDbLine
 10
265.68498536
 20
24.3602417
 30
0.0
 11
264.07182618
 21
25.48954468
 31
0.0
  0
LINE
  5
1CE
330
1F
100
AcDbEntity
  8
_
  6
CONTINUOUS
 62
     3
100
AcDbLine
 10
264.07182618
 20
25.48954468
 30
0.0
 11
264.07182618
 21
22.8
 31
0.0
  0
LINE
  5
1CF
330
1F
100
AcDbEntity
  8
_
  6
CONTINUOUS
 62
     3
100
AcDbLine
 10
264.07182618
 20
22.8
 30
0.0
 11
262.05592652
 21
22.8
 31
0.0
  0
LINE
  5
1D0
330
1F
100
AcDbEntity
  8
_
  6
CONTINUOUS
 62
     3
100
AcDbLine
 10
262.05592652
 20
22.8
 30
0.0
 11
262.05592652
 21
25.39197998
 31
0.0
  0
LINE
  5
1D1
330
1F
100
AcDbEntity
  8
_
  6
CONTINUOUS
 62
     3
100
AcDbLine
 10
262.05592652
 20
25.39197998
 30
0.0
 11
260.24138184
 21
22.8
 31
0.0
  0
LINE
  5
1D2
330
1F
100
AcDbEntity
  8
_
  6
CONTINUOUS
 62
     3
100
AcDbLine
 10
260.24138184
 20
22.8
 30
0.0
 11
260.24138184
 21
25.9638794
 31
0.0
  0
LINE
  5
1D3
330
1F
100
AcDbEntity
  8
_
  6
CONTINUOUS
 62
     3
100
AcDbLine
 10
260.24138184
 20
25.9638794
 30
0.0
 11
262.8249695
 21
29.65440064
 31
0.0
  0
LINE
  5
1D4
330
1F
100
AcDbEntity
  8
_
  6
CONTINUOUS
 62
     3
100
AcDbLine
 10
262.8249695
 20
29.65440064
 30
0.0
 11
260.24138184
 21
29.65440064
 31
0.0
  0
ARC
  5
1D5
330
1F
100
AcDbEntity
  8
_
  6
CONTINUOUS
 62
     2
100
AcDbCircle
 10
171.83220216
 20
28.0400818
 30
0.0
 40
1.26002442
100
AcDbArc
 50
310.7683105900002
 51
335.9987793400003
  0
LINE
  5
1D6
330
1F
100
AcDbEntity
  8
_
  6
CONTINUOUS
 62
     2
100
AcDbLine
 10
173.28004762
 20
28.19282226
 30
0.0
 11
172.98393556
 21
27.52781372
 31
0.0
  0
LINE
  5
1D7
330
1F
100
AcDbEntity
  8
_
  6
CONTINUOUS
 62
     2
100
AcDbLine
 10
169.7970154
 20
28.94880372
 30
0.0
 11
174.44368288
 21
28.94880372
 31
0.0
  0
ARC
  5
1D8
330
1F
100
AcDbEntity
  8
_
  6
CONTINUOUS
 62
     2
100
AcDbCircle
 10
190.45985718
 20
26.4288147
 30
0.0
 40
3.124801640000001
100
AcDbArc
 50
270.0000305200002
 51
324.0011596700001
  0
ARC
  5
1D9
330
1F
100
AcDbEntity
  8
_
  6
CONTINUOUS
 62
     2
100
AcDbCircle
 10
190.45985718
 20
26.4288147
 30
0.0
 40
2.620801920000001
100
AcDbArc
 50
270.0000305200002
 51
324.0011596700001
  0
ARC
  5
1DA
330
1F
100
AcDbEntity
  8
_
  6
CONTINUOUS
 62
     2
100
AcDbCircle
 10
159.91313478
 20
26.4288147
 30
0.0
 40
3.124795920000001
100
AcDbArc
 50
270.0000305200002
 51
333.9985504200004
  0
ARC
  5
1DB
330
1F
100
AcDbEntity
  8
_
  6
CONTINUOUS
 62
     2
100
AcDbCircle
 10
159.7531006
 20
26.4288147
 30
0.0
 40
2.1167984
100
AcDbArc
 50
270.0000305200002
 51
333.9985504200004
  0
ARC
  5
1DC
330
1F
100
AcDbEntity
  8
_
  6
CONTINUOUS
 62
     2
100
AcDbCircle
 10
159.83311768
 20
26.4288147
 30
0.0
 40
2.620798120000001
100
AcDbArc
 50
270.0000305200002
 51
333.9985504200004
  0
LINE
  5
1DD
330
1F
100
AcDbEntity
  8
_
  6
CONTINUOUS
 62
     2
100
AcDbLine
 10
154.56816408
 20
31.20642548
 30
0.0
 11
159.47679444
 21
31.20642548
 31
0.0
  0
LINE
  5
1DE
330
1F
100
AcDbEntity
  8
_
  6
CONTINUOUS
 62
     2
100
AcDbLine
 10
154.56816408
 20
30.7424286
 30
0.0
 11
159.47679444
 21
30.7424286
 31
0.0
  0
LINE
  5
1DF
330
1F
100
AcDbEntity
  8
_
  6
CONTINUOUS
 62
     2
100
AcDbLine
 10
154.56816408
 20
30.27846222
 30
0.0
 11
159.47679444
 21
30.27846222
 31
0.0
  0
LINE
  5
1E0
330
1F
100
AcDbEntity
  8
_
  6
CONTINUOUS
 62
     2
100
AcDbLine
 10
154.56816408
 20
28.82720642
 30
0.0
 11
159.47679444
 21
28.82720642
 31
0.0
  0
LINE
  5
1E1
330
1F
100
AcDbEntity
  8
_
  6
CONTINUOUS
 62
     2
100
AcDbLine
 10
154.56816408
 20
28.3231781
 30
0.0
 11
159.47679444
 21
28.3231781
 31
0.0
  0
LINE
  5
1E2
330
1F
100
AcDbEntity
  8
_
  6
CONTINUOUS
 62
     2
100
AcDbLine
 10
154.56816408
 20
27.85921174
 30
0.0
 11
159.47679444
 21
27.85921174
 31
0.0
  0
LINE
  5
1E3
330
1F
100
AcDbEntity
  8
_
  6
CONTINUOUS
 62
     2
100
AcDbLine
 10
154.56816408
 20
24.31199342
 30
0.0
 11
159.7531006
 21
24.31199342
 31
0.0
  0
LINE
  5
1E4
330
1F
100
AcDbEntity
  8
_
  6
CONTINUOUS
 62
     2
100
AcDbLine
 10
154.56816408
 20
23.8079956
 30
0.0
 11
159.7531006
 21
23.8079956
 31
0.0
  0
LINE
  5
1E5
330
1F
100
AcDbEntity
  8
_
  6
CONTINUOUS
 62
     2
100
AcDbLine
 10
154.56816408
 20
23.3039978
 30
0.0
 11
159.7531006
 21
23.3039978
 31
0.0
  0
LINE
  5
1E6
330
1F
100
AcDbEntity
  8
_
  6
CONTINUOUS
 62
     2
100
AcDbLine
 10
161.65541382
 20
25.50080566
 30
0.0
 11
163.42164918
 21
29.12207298
 31
0.0
  0
LINE
  5
1E7
330
1F
100
AcDbEntity
  8
_
  6
CONTINUOUS
 62
     2
100
AcDbLine
 10
162.18825074
 20
25.27991944
 30
0.0
 11
164.06233522
 21
29.1220749
 31
0.0
  0
LINE
  5
1E8
330
1F
100
AcDbEntity
  8
_
  6
CONTINUOUS
 62
     2
100
AcDbLine
 10
162.72105714
 20
25.0588501
 30
0.0
 11
164.70262452
 21
29.12206918
 31
0.0
  0
LINE
  5
1E9
330
1F
100
AcDbEntity
  8
_
  6
CONTINUOUS
 62
     2
100
AcDbLine
 10
162.02727052
 20
31.13919526
 30
0.0
 11
162.90367432
 21
31.13919526
 31
0.0
  0
LINE
  5
1EA
330
1F
100
AcDbEntity
  8
_
  6
CONTINUOUS
 62
     2
100
AcDbLine
 10
162.02727052
 20
30.56799774
 30
0.0
 11
162.90367432
 21
30.56799774
 31
0.0
  0
LINE
  5
1EB
330
1F
100
AcDbEntity
  8
_
  6
CONTINUOUS
 62
     2
100
AcDbLine
 10
164.24498292
 20
31.13919526
 30
0.0
 11
165.12138672
 21
31.13919526
 31
0.0
  0
LINE
  5
1EC
330
1F
100
AcDbEntity
  8
_
  6
CONTINUOUS
 62
     2
100
AcDbLine
 10
164.24498292
 20
30.56799774
 30
0.0
 11
165.12138672
 21
30.56799774
 31
0.0
  0
LINE
  5
1ED
330
1F
100
AcDbEntity
  8
_
  6
CONTINUOUS
 62
     2
100
AcDbLine
 10
166.46269532
 20
28.44483642
 30
0.0
 11
168.85612794
 21
28.44483642
 31
0.0
  0
LINE
  5
1EE
330
1F
100
AcDbEntity
  8
_
  6
CONTINUOUS
 62
     2
100
AcDbLine
 10
168.27507326
 20
30.50053674
 30
0.0
 11
168.52101442
 21
28.94880372
 31
0.0
  0
LINE
  5
1EF
330
1F
100
AcDbEntity
  8
_
  6
CONTINUOUS
 62
     2
100
AcDbLine
 10
169.43760988
 20
23.16346054
 30
0.0
 11
168.68980714
 21
27.8838089
 31
0.0
  0
ARC
  5
1F0
330
1F
100
AcDbEntity
  8
_
  6
CONTINUOUS
 62
     2
100
AcDbCircle
 10
171.79219362
 20
28.0400818
 30
0.0
 40
1.76402426
100
AcDbArc
 50
272.67138672
 51
335.9987793000003
  0
ARC
  5
1F1
330
1F
100
AcDbEntity
  8
_
  6
CONTINUOUS
 62
     2
100
AcDbCircle
 10
171.75218506
 20
28.0400818
 30
0.0
 40
2.26802254
100
AcDbArc
 50
267.3674316300002
 51
335.9987792900002
  0
LINE
  5
1F2
330
1F
100
AcDbEntity
  8
_
  6
CONTINUOUS
 62
     2
100
AcDbLine
 10
174.67033692
 20
29.01810532
 30
0.0
 11
173.8242981
 21
27.1177185
 31
0.0
  0
LINE
  5
1F3
330
1F
100
AcDbEntity
  8
_
  6
CONTINUOUS
 62
     2
100
AcDbLine
 10
170.61812134
 20
23.16346054
 30
0.0
 11
169.8440735
 21
28.0497635
 31
0.0
  0
LINE
  5
1F4
330
1F
100
AcDbEntity
  8
_
  6
CONTINUOUS
 62
     2
100
AcDbLine
 10
170.0678589
 20
23.16346054
 30
0.0
 11
168.90568848
 21
30.50053482
 31
0.0
  0
LINE
  5
1F5
330
1F
100
AcDbEntity
  8
_
  6
CONTINUOUS
 62
     2
100
AcDbLine
 10
169.45595094
 20
30.50053482
 30
0.0
 11
169.67912598
 21
29.091893
 31
0.0
  0
LINE
  5
1F6
330
1F
100
AcDbEntity
  8
_
  6
CONTINUOUS
 62
     2
100
AcDbLine
 10
166.46269532
 20
28.94880372
 30
0.0
 11
168.12102052
 21
28.94880372
 31
0.0
  0
LINE
  5
1F7
330
1F
100
AcDbEntity
  8
_
  6
CONTINUOUS
 62
     2
100
AcDbLine
 10
173.93397828
 20
28.5140789
 30
0.0
 11
173.40410158
 21
27.32270508
 31
0.0
  0
LINE
  5
1F8
330
1F
100
AcDbEntity
  8
_
  6
CONTINUOUS
 62
     2
100
AcDbLine
 10
169.62147828
 20
28.44483642
 30
0.0
 11
173.46763916
 21
28.44483642
 31
0.0
  0
ARC
  5
1F9
330
1F
100
AcDbEntity
  8
_
  6
CONTINUOUS
 62
     2
100
AcDbCircle
 10
171.71217652
 20
28.0400818
 30
0.0
 40
2.77202224
100
AcDbArc
 50
269.6113281200002
 51
335.9987792900002
  0
LINE
  5
1FA
330
1F
100
AcDbEntity
  8
_
  6
CONTINUOUS
 62
     2
100
AcDbLine
 10
175.18196412
 20
29.01811104
 30
0.0
 11
174.24449464
 21
26.9126709
 31
0.0
  0
LINE
  5
1FB
330
1F
100
AcDbEntity
  8
_
  6
CONTINUOUS
 62
     2
100
AcDbLine
 10
196.66252442
 20
30.66242676
 30
0.0
 11
192.57612916
 21
25.03654176
 31
0.0
  0
LINE
  5
1FC
330
1F
100
AcDbEntity
  8
_
  6
CONTINUOUS
 62
     2
100
AcDbLine
 10
195.57362672
 20
30.15845948
 30
0.0
 11
192.06840822
 21
25.3328064
 31
0.0
  0
ARC
  5
1FD
330
1F
100
AcDbEntity
  8
_
  6
CONTINUOUS
 62
     2
100
AcDbCircle
 10
190.59987184
 20
26.34881286
 30
0.0
 40
1.86480414
100
AcDbArc
 50
270.0000305200002
 51
324.0011596700001
  0
LINE
  5
1FE
330
1F
100
AcDbEntity
  8
_
  6
CONTINUOUS
 62
     2
100
AcDbLine
 10
176.77589722
 20
31.20311814
 30
0.0
 11
185.65272828
 21
31.20311814
 31
0.0
  0
LINE
  5
1FF
330
1F
100
AcDbEntity
  8
_
  6
CONTINUOUS
 62
     2
100
AcDbLine
 10
176.77589722
 20
30.6791504
 30
0.0
 11
185.65272828
 21
30.6791504
 31
0.0
  0
LINE
  5
200
330
1F
100
AcDbEntity
  8
_
  6
CONTINUOUS
 62
     2
100
AcDbLine
 10
176.77589722
 20
30.1351822
 30
0.0
 11
185.65272828
 21
30.1351822
 31
0.0
  0
LINE
  5
201
330
1F
100
AcDbEntity
  8
_
  6
CONTINUOUS
 62
     2
100
AcDbLine
 10
175.96953126
 20
24.3288086
 30
0.0
 11
186.45909424
 21
24.3288086
 31
0.0
  0
LINE
  5
202
330
1F
100
AcDbEntity
  8
_
  6
CONTINUOUS
 62
     2
100
AcDbLine
 10
175.96953126
 20
23.8248108
 30
0.0
 11
186.45909424
 21
23.8248108
 31
0.0
  0
LINE
  5
203
330
1F
100
AcDbEntity
  8
_
  6
CONTINUOUS
 62
     2
100
AcDbLine
 10
175.96953126
 20
23.28078156
 30
0.0
 11
186.45909424
 21
23.28078156
 31
0.0
  0
LINE
  5
204
330
1F
100
AcDbEntity
  8
_
  6
CONTINUOUS
 62
     2
100
AcDbLine
 10
188.67042848
 20
31.18642502
 30
0.0
 11
197.2513611
 21
31.18642502
 31
0.0
  0
LINE
  5
205
330
1F
100
AcDbEntity
  8
_
  6
CONTINUOUS
 62
     2
100
AcDbLine
 10
197.77138062
 20
31.16642456
 30
0.0
 11
193.1038086
 21
24.74012452
 31
0.0
  0
LINE
  5
206
330
1F
100
AcDbEntity
  8
_
  6
CONTINUOUS
 62
     2
100
AcDbLine
 10
188.67042848
 20
30.66242676
 30
0.0
 11
196.2625
 21
30.66242676
 31
0.0
  0
LINE
  5
207
330
1F
100
AcDbEntity
  8
_
  6
CONTINUOUS
 62
     2
100
AcDbLine
 10
190.45985718
 20
24.33199386
 30
0.0
 11
187.8640625
 21
24.33199386
 31
0.0
  0
LINE
  5
208
330
1F
100
AcDbEntity
  8
_
  6
CONTINUOUS
 62
     2
100
AcDbLine
 10
190.45985718
 20
23.8079956
 30
0.0
 11
187.8640625
 21
23.8079956
 31
0.0
  0
LINE
  5
209
330
1F
100
AcDbEntity
  8
_
  6
CONTINUOUS
 62
     2
100
AcDbLine
 10
190.45985718
 20
23.28399734
 30
0.0
 11
187.8640625
 21
23.28399734
 31
0.0
  0
LINE
  5
20A
330
1F
100
AcDbEntity
  8
_
  6
CONTINUOUS
 62
     2
100
AcDbLine
 10
194.48637696
 20
25.94743042
 30
0.0
 11
196.87431642
 21
23.19999962
 31
0.0
  0
LINE
  5
20B
330
1F
100
AcDbEntity
  8
_
  6
CONTINUOUS
 62
     2
100
AcDbLine
 10
194.79069826
 20
26.30610162
 30
0.0
 11
197.49034424
 21
23.19999962
 31
0.0
  0
LINE
  5
20C
330
1F
100
AcDbEntity
  8
_
  6
CONTINUOUS
 62
     2
100
AcDbLine
 10
195.09462282
 20
26.6645897
 30
0.0
 11
198.1058838
 21
23.19999962
 31
0.0
  0
LINE
  5
20D
330
1F
100
AcDbEntity
  8
_
  6
CONTINUOUS
 62
     2
100
AcDbLine
 10
195.39854738
 20
27.02316932
 30
0.0
 11
198.7218506
 21
23.19999962
 31
0.0
  0
LINE
  5
20E
330
1F
100
AcDbEntity
  8
_
  6
CONTINUOUS
 62
     2
100
AcDbLine
 10
188.67042848
 20
30.11845856
 30
0.0
 11
195.0735962
 21
30.11845856
 31
0.0
  0
LINE
  5
20F
330
1F
100
AcDbEntity
  8
_
  6
CONTINUOUS
 62
     2
100
AcDbLine
 10
202.37910768
 20
31.20642548
 30
0.0
 11
212.06227418
 21
31.20642548
 31
0.0
  0
LINE
  5
210
330
1F
100
AcDbEntity
  8
_
  6
CONTINUOUS
 62
     2
100
AcDbLine
 10
202.37910768
 20
30.70242768
 30
0.0
 11
212.06227418
 21
30.70242768
 31
0.0
  0
LINE
  5
211
330
1F
100
AcDbEntity
  8
_
  6
CONTINUOUS
 62
     2
100
AcDbLine
 10
206.53547974
 20
24.29598312
 30
0.0
 11
206.53547974
 21
30.24244386
 31
0.0
  0
LINE
  5
212
330
1F
100
AcDbEntity
  8
_
  6
CONTINUOUS
 62
     2
100
AcDbLine
 10
207.03917238
 20
24.29598312
 30
0.0
 11
207.03917238
 21
30.24244386
 31
0.0
  0
LINE
  5
213
330
1F
100
AcDbEntity
  8
_
  6
CONTINUOUS
 62
     2
100
AcDbLine
 10
207.54283448
 20
24.29598312
 30
0.0
 11
207.54283448
 21
30.24244386
 31
0.0
  0
LINE
  5
214
330
1F
100
AcDbEntity
  8
_
  6
CONTINUOUS
 62
     2
100
AcDbLine
 10
208.00648804
 20
24.29598312
 30
0.0
 11
208.00648804
 21
30.24244386
 31
0.0
  0
LINE
  5
215
330
1F
100
AcDbEntity
  8
_
  6
CONTINUOUS
 62
     2
100
AcDbLine
 10
201.97590944
 20
23.8959835
 30
0.0
 11
212.46547242
 21
23.8959835
 31
0.0
  0
LINE
  5
216
330
1F
100
AcDbEntity
  8
_
  6
CONTINUOUS
 62
     2
100
AcDbLine
 10
201.97590944
 20
23.29198532
 30
0.0
 11
212.46547242
 21
23.29198532
 31
0.0
  0
LINE
  5
217
330
1F
100
AcDbEntity
  8
_
  6
CONTINUOUS
 62
     2
100
AcDbLine
 10
214.8255188
 20
31.27039224
 30
0.0
 11
215.57417604
 21
30.3123005
 31
0.0
  0
LINE
  5
218
330
1F
100
AcDbEntity
  8
_
  6
CONTINUOUS
 62
     2
100
AcDbLine
 10
215.46495362
 20
31.27039224
 30
0.0
 11
216.21361084
 21
30.3123005
 31
0.0
  0
LINE
  5
219
330
1F
100
AcDbEntity
  8
_
  6
CONTINUOUS
 62
     2
100
AcDbLine
 10
217.46226808
 20
31.27039224
 30
0.0
 11
217.46226808
 21
30.39711266
 31
0.0
  0
LINE
  5
21A
330
1F
100
AcDbEntity
  8
_
  6
CONTINUOUS
 62
     2
100
AcDbLine
 10
218.00596924
 20
31.27039224
 30
0.0
 11
218.00596924
 21
30.39711266
 31
0.0
  0
LINE
  5
21B
330
1F
100
AcDbEntity
  8
_
  6
CONTINUOUS
 62
     2
100
AcDbLine
 10
219.47819826
 20
31.27039224
 30
0.0
 11
219.47819826
 21
30.39711266
 31
0.0
  0
LINE
  5
21C
330
1F
100
AcDbEntity
  8
_
  6
CONTINUOUS
 62
     2
100
AcDbLine
 10
220.06187746
 20
31.27039224
 30
0.0
 11
220.06187746
 21
30.39711266
 31
0.0
  0
LINE
  5
21D
330
1F
100
AcDbEntity
  8
_
  6
CONTINUOUS
 62
     2
100
AcDbLine
 10
221.99913332
 20
31.27039224
 30
0.0
 11
221.25047608
 21
30.3123005
 31
0.0
  0
LINE
  5
21E
330
1F
100
AcDbEntity
  8
_
  6
CONTINUOUS
 62
     2
100
AcDbLine
 10
222.67857666
 20
31.27039224
 30
0.0
 11
221.92991944
 21
30.3123005
 31
0.0
  0
LINE
  5
21F
330
1F
100
AcDbEntity
  8
_
  6
CONTINUOUS
 62
     2
100
AcDbLine
 10
213.46724244
 20
29.99711304
 30
0.0
 11
223.95680542
 21
29.99711304
 31
0.0
  0
LINE
  5
220
330
1F
100
AcDbEntity
  8
_
  6
CONTINUOUS
 62
     2
100
AcDbLine
 10
216.08635254
 20
28.43765716
 30
0.0
 11
215.65556642
 21
29.62123566
 31
0.0
  0
LINE
  5
221
330
1F
100
AcDbEntity
  8
_
  6
CONTINUOUS
 62
     2
100
AcDbLine
 10
216.70244142
 20
28.43765716
 30
0.0
 11
216.27165528
 21
29.62123566
 31
0.0
  0
LINE
  5
222
330
1F
100
AcDbEntity
  8
_
  6
CONTINUOUS
 62
     2
100
AcDbLine
 10
217.27852174
 20
28.43770294
 30
0.0
 11
216.84822388
 21
29.62118988
 31
0.0
  0
LINE
  5
223
330
1F
100
AcDbEntity
  8
_
  6
CONTINUOUS
 62
     2
100
AcDbLine
 10
220.18388672
 20
28.4376133
 30
0.0
 11
220.61513062
 21
29.62127952
 31
0.0
  0
LINE
  5
224
330
1F
100
AcDbEntity
  8
_
  6
CONTINUOUS
 62
     2
100
AcDbLine
 10
220.80040284
 20
28.4376133
 30
0.0
 11
221.23164674
 21
29.62127952
 31
0.0
  0
LINE
  5
225
330
1F
100
AcDbEntity
  8
_
  6
CONTINUOUS
 62
     2
100
AcDbLine
 10
221.37648316
 20
28.4376133
 30
0.0
 11
221.80772706
 21
29.62127952
 31
0.0
  0
LINE
  5
226
330
1F
100
AcDbEntity
  8
_
  6
CONTINUOUS
 62
     2
100
AcDbLine
 10
213.46724244
 20
28.06177978
 30
0.0
 11
223.95680542
 21
28.06177978
 31
0.0
  0
LINE
  5
227
330
1F
100
AcDbEntity
  8
_
  6
CONTINUOUS
 62
     2
100
AcDbLine
 10
213.46724244
 20
26.67072754
 30
0.0
 11
217.76774904
 21
26.67072754
 31
0.0
  0
LINE
  5
228
330
1F
100
AcDbEntity
  8
_
  6
CONTINUOUS
 62
     2
100
AcDbLine
 10
213.46724244
 20
25.2796753
 30
0.0
 11
217.76774904
 21
25.2796753
 31
0.0
  0
LINE
  5
229
330
1F
100
AcDbEntity
  8
_
  6
CONTINUOUS
 62
     2
100
AcDbLine
 10
219.6951172
 20
25.2796753
 30
0.0
 11
223.95680542
 21
25.2796753
 31
0.0
  0
LINE
  5
22A
330
1F
100
AcDbEntity
  8
_
  6
CONTINUOUS
 62
     2
100
AcDbLine
 10
214.10176392
 20
23.19999962
 30
0.0
 11
216.10664674
 21
25.0115078
 31
0.0
  0
LINE
  5
22B
330
1F
100
AcDbEntity
  8
_
  6
CONTINUOUS
 62
     2
100
AcDbLine
 10
214.77354738
 20
23.19999962
 30
0.0
 11
216.77849122
 21
25.01151162
 31
0.0
  0
LINE
  5
22C
330
1F
100
AcDbEntity
  8
_
  6
CONTINUOUS
 62
     2
100
AcDbLine
 10
215.40574952
 20
23.19999962
 30
0.0
 11
217.41069336
 21
25.01151162
 31
0.0
  0
LINE
  5
22D
330
1F
100
AcDbEntity
  8
_
  6
CONTINUOUS
 62
     2
100
AcDbLine
 10
218.16774292
 20
23.19999962
 30
0.0
 11
218.16774292
 21
27.66178016
 31
0.0
  0
LINE
  5
22E
330
1F
100
AcDbEntity
  8
_
  6
CONTINUOUS
 62
     2
100
AcDbLine
 10
218.75142212
 20
23.19999962
 30
0.0
 11
218.75142212
 21
27.66178016
 31
0.0
  0
LINE
  5
22F
330
1F
100
AcDbEntity
  8
_
  6
CONTINUOUS
 62
     2
100
AcDbLine
 10
219.2951233
 20
23.19999962
 30
0.0
 11
219.2951233
 21
27.66178016
 31
0.0
  0
LINE
  5
230
330
1F
100
AcDbEntity
  8
_
  6
CONTINUOUS
 62
     2
100
AcDbLine
 10
222.0343506
 20
23.19999962
 30
0.0
 11
220.02946778
 21
25.0115078
 31
0.0
  0
LINE
  5
231
330
1F
100
AcDbEntity
  8
_
  6
CONTINUOUS
 62
     2
100
AcDbLine
 10
222.70616456
 20
23.19999962
 30
0.0
 11
220.70122072
 21
25.01151162
 31
0.0
  0
LINE
  5
232
330
1F
100
AcDbEntity
  8
_
  6
CONTINUOUS
 62
     2
100
AcDbLine
 10
223.37837526
 20
23.19999962
 30
0.0
 11
221.3734314
 21
25.01151162
 31
0.0
  0
LINE
  5
233
330
1F
100
AcDbEntity
  8
_
  6
CONTINUOUS
 62
     2
100
AcDbLine
 10
227.19957276
 20
31.27039224
 30
0.0
 11
227.19957276
 21
30.55839806
 31
0.0
  0
LINE
  5
234
330
1F
100
AcDbEntity
  8
_
  6
CONTINUOUS
 62
     2
100
AcDbLine
 10
227.70323488
 20
31.27039224
 30
0.0
 11
227.70323488
 21
30.55839806
 31
0.0
  0
LINE
  5
235
330
1F
100
AcDbEntity
  8
_
  6
CONTINUOUS
 62
     2
100
AcDbLine
 10
228.2069275
 20
31.27039224
 30
0.0
 11
228.2069275
 21
30.55839806
 31
0.0
  0
LINE
  5
236
330
1F
100
AcDbEntity
  8
_
  6
CONTINUOUS
 62
     2
100
AcDbLine
 10
225.15999146
 20
30.15839844
 30
0.0
 11
228.79503174
 21
30.15839844
 31
0.0
  0
LINE
  5
237
330
1F
100
AcDbEntity
  8
_
  6
CONTINUOUS
 62
     2
100
AcDbLine
 10
225.18883058
 20
23.19780998
 30
0.0
 11
225.87840578
 21
29.76058846
 31
0.0
  0
LINE
  5
238
330
1F
100
AcDbEntity
  8
_
  6
CONTINUOUS
 62
     2
100
AcDbLine
 10
225.6553528
 20
23.19780998
 30
0.0
 11
226.3449585
 21
29.76058846
 31
0.0
  0
LINE
  5
239
330
1F
100
AcDbEntity
  8
_
  6
CONTINUOUS
 62
     2
100
AcDbLine
 10
227.19957276
 20
23.19999962
 30
0.0
 11
227.19957276
 21
29.75839882
 31
0.0
  0
LINE
  5
23A
330
1F
100
AcDbEntity
  8
_
  6
CONTINUOUS
 62
     2
100
AcDbLine
 10
227.70323488
 20
23.19999962
 30
0.0
 11
227.70323488
 21
29.75839882
 31
0.0
  0
LINE
  5
23B
330
1F
100
AcDbEntity
  8
_
  6
CONTINUOUS
 62
     2
100
AcDbLine
 10
228.2069275
 20
23.19999962
 30
0.0
 11
228.2069275
 21
29.75839882
 31
0.0
  0
LINE
  5
23C
330
1F
100
AcDbEntity
  8
_
  6
CONTINUOUS
 62
     2
100
AcDbLine
 10
228.44185182
 20
29.23084908
 30
0.0
 11
228.96007082
 21
28.51676826
 31
0.0
  0
LINE
  5
23D
330
1F
100
AcDbEntity
  8
_
  6
CONTINUOUS
 62
     2
100
AcDbLine
 10
228.44185182
 20
28.4528492
 30
0.0
 11
228.96007082
 21
27.73876838
 31
0.0
  0
LINE
  5
23E
330
1F
100
AcDbEntity
  8
_
  6
CONTINUOUS
 62
     2
100
AcDbLine
 10
229.69383546
 20
29.43772012
 30
0.0
 11
230.15376588
 21
31.28227502
 31
0.0
  0
LINE
  5
23F
330
1F
100
AcDbEntity
  8
_
  6
CONTINUOUS
 62
     2
100
AcDbLine
 10
230.17348024
 20
29.43773728
 30
0.0
 11
230.63304444
 21
31.28225784
 31
0.0
  0
LINE
  5
240
330
1F
100
AcDbEntity
  8
_
  6
CONTINUOUS
 62
     2
100
AcDbLine
 10
230.59276124
 20
29.43772012
 30
0.0
 11
231.05269166
 21
31.28227502
 31
0.0
  0
LINE
  5
241
330
1F
100
AcDbEntity
  8
_
  6
CONTINUOUS
 62
     2
100
AcDbLine
 10
232.34047242
 20
30.55839806
 30
0.0
 11
232.34047242
 21
31.27039224
 31
0.0
  0
LINE
  5
242
330
1F
100
AcDbEntity
  8
_
  6
CONTINUOUS
 62
     2
100
AcDbLine
 10
232.88414308
 20
30.55839806
 30
0.0
 11
232.88414308
 21
31.27039224
 31
0.0
  0
LINE
  5
243
330
1F
100
AcDbEntity
  8
_
  6
CONTINUOUS
 62
     2
100
AcDbLine
 10
233.3878357
 20
30.55839806
 30
0.0
 11
233.3878357
 21
31.27039224
 31
0.0
  0
LINE
  5
244
330
1F
100
AcDbEntity
  8
_
  6
CONTINUOUS
 62
     2
100
AcDbLine
 10
231.17244264
 20
30.15839844
 30
0.0
 11
235.64955446
 21
30.15839844
 31
0.0
  0
LINE
  5
245
330
1F
100
AcDbEntity
  8
_
  6
CONTINUOUS
 62
     2
100
AcDbLine
 10
232.34047242
 20
29.75839882
 30
0.0
 11
232.34047242
 21
28.54240684
 31
0.0
  0
LINE
  5
246
330
1F
100
AcDbEntity
  8
_
  6
CONTINUOUS
 62
     2
100
AcDbLine
 10
232.88414308
 20
29.75839882
 30
0.0
 11
232.88414308
 21
28.54240684
 31
0.0
  0
LINE
  5
247
330
1F
100
AcDbEntity
  8
_
  6
CONTINUOUS
 62
     2
100
AcDbLine
 10
233.3878357
 20
29.75839882
 30
0.0
 11
233.3878357
 21
28.54240684
 31
0.0
  0
LINE
  5
248
330
1F
100
AcDbEntity
  8
_
  6
CONTINUOUS
 62
     2
100
AcDbLine
 10
229.79680176
 20
28.14240722
 30
0.0
 11
235.85133668
 21
28.14240722
 31
0.0
  0
LINE
  5
249
330
1F
100
AcDbEntity
  8
_
  6
CONTINUOUS
 62
     2
100
AcDbLine
 10
230.68959352
 20
27.74887734
 30
0.0
 11
229.86015626
 21
23.1935299
 31
0.0
  0
LINE
  5
24A
330
1F
100
AcDbEntity
  8
_
  6
CONTINUOUS
 62
     2
100
AcDbLine
 10
231.1614563
 20
27.74887734
 30
0.0
 11
230.33204956
 21
23.1935299
 31
0.0
  0
LINE
  5
24B
330
1F
100
AcDbEntity
  8
_
  6
CONTINUOUS
 62
     2
100
AcDbLine
 10
231.57783814
 20
27.74888306
 30
0.0
 11
230.74800416
 21
23.19352418
 31
0.0
  0
LINE
  5
24C
330
1F
100
AcDbEntity
  8
_
  6
CONTINUOUS
 62
     2
100
AcDbLine
 10
232.34047242
 20
27.74240762
 30
0.0
 11
232.34047242
 21
23.19999962
 31
0.0
  0
LINE
  5
24D
330
1F
100
AcDbEntity
  8
_
  6
CONTINUOUS
 62
     2
100
AcDbLine
 10
232.84413454
 20
27.74240762
 30
0.0
 11
232.84413454
 21
23.19999962
 31
0.0
  0
LINE
  5
24E
330
1F
100
AcDbEntity
  8
_
  6
CONTINUOUS
 62
     3
100
AcDbLine
 10
233.3878357
 20
27.74240762
 30
0.0
 11
233.3878357
 21
23.19999962
 31
0.0
  0
LINE
  5
24F
330
1F
100
AcDbEntity
  8
_
  6
CONTINUOUS
 62
     2
100
AcDbLine
 10
234.06990358
 20
27.74888306
 30
0.0
 11
234.89973756
 21
23.19352418
 31
0.0
  0
LINE
  5
250
330
1F
100
AcDbEntity
  8
_
  6
CONTINUOUS
 62
     2
100
AcDbLine
 10
234.50218506
 20
27.74888306
 30
0.0
 11
235.33201906
 21
23.19352418
 31
0.0
  0
LINE
  5
251
330
1F
100
AcDbEntity
  8
_
  6
CONTINUOUS
 62
     2
100
AcDbLine
 10
235.0140564
 20
27.74888306
 30
0.0
 11
235.8438904
 21
23.19352418
 31
0.0
  0
LINE
  5
252
330
1F
100
AcDbEntity
  8
_
  6
CONTINUOUS
 62
     2
100
AcDbLine
 10
237.05452272
 20
30.48003082
 30
0.0
 11
242.76481934
 21
30.48003082
 31
0.0
  0
LINE
  5
253
330
1F
100
AcDbEntity
  8
_
  6
CONTINUOUS
 62
     2
100
AcDbLine
 10
237.05452272
 20
29.97603302
 30
0.0
 11
242.9482605
 21
29.97603302
 31
0.0
  0
LINE
  5
254
330
1F
100
AcDbEntity
  8
_
  6
CONTINUOUS
 62
     2
100
AcDbLine
 10
245.82332154
 20
23.17587738
 30
0.0
 11
242.868396
 21
31.29451446
 31
0.0
  0
LINE
  5
255
330
1F
100
AcDbEntity
  8
_
  6
CONTINUOUS
 62
     2
100
AcDbLine
 10
246.35939332
 20
23.1758793
 30
0.0
 11
243.40458986
 21
31.29451256
 31
0.0
  0
LINE
  5
256
330
1F
100
AcDbEntity
  8
_
  6
CONTINUOUS
 62
     2
100
AcDbLine
 10
246.8954651
 20
23.1758793
 30
0.0
 11
243.94066164
 21
31.29451256
 31
0.0
  0
LINE
  5
257
330
1F
100
AcDbEntity
  8
_
  6
CONTINUOUS
 62
     2
100
AcDbLine
 10
247.43153688
 20
23.17587166
 30
0.0
 11
244.47627564
 21
31.29451828
 31
0.0
  0
LINE
  5
258
330
1F
100
AcDbEntity
  8
_
  6
CONTINUOUS
 62
     2
100
AcDbLine
 10
245.90861818
 20
30.88003044
 30
0.0
 11
245.90861818
 21
31.27039224
 31
0.0
  0
LINE
  5
259
330
1F
100
AcDbEntity
  8
_
  6
CONTINUOUS
 62
     2
100
AcDbLine
 10
246.45231934
 20
30.88003044
 30
0.0
 11
246.45231934
 21
31.27039224
 31
0.0
  0
LINE
  5
25A
330
1F
100
AcDbEntity
  8
_
  6
CONTINUOUS
 62
     2
100
AcDbLine
 10
246.99599
 20
30.88003044
 30
0.0
 11
246.99599
 21
31.27039224
 31
0.0
  0
LINE
  5
25B
330
1F
100
AcDbEntity
  8
_
  6
CONTINUOUS
 62
     2
100
AcDbLine
 10
245.17274782
 20
30.48003082
 30
0.0
 11
247.5440857
 21
30.48003082
 31
0.0
  0
LINE
  5
25C
330
1F
100
AcDbEntity
  8
_
  6
CONTINUOUS
 62
     2
100
AcDbLine
 10
245.3562195
 20
29.97603302
 30
0.0
 11
247.5440857
 21
29.97603302
 31
0.0
  0
LINE
  5
25D
330
1F
100
AcDbEntity
  8
_
  6
CONTINUOUS
 62
     2
100
AcDbLine
 10
237.65910646
 20
28.07281952
 30
0.0
 11
242.9072754
 21
28.07281952
 31
0.0
  0
LINE
  5
25E
330
1F
100
AcDbEntity
  8
_
  6
CONTINUOUS
 62
     2
100
AcDbLine
 10
237.65910646
 20
27.5687912
 30
0.0
 11
242.9072754
 21
27.5687912
 31
0.0
  0
LINE
  5
25F
330
1F
100
AcDbEntity
  8
_
  6
CONTINUOUS
 62
     2
100
AcDbLine
 10
239.55818482
 20
27.16879158
 30
0.0
 11
239.55818482
 21
25.1582306
 31
0.0
  0
LINE
  5
260
330
1F
100
AcDbEntity
  8
_
  6
CONTINUOUS
 62
     2
100
AcDbLine
 10
240.06184694
 20
27.16879158
 30
0.0
 11
240.06184694
 21
25.26528626
 31
0.0
  0
LINE
  5
261
330
1F
100
AcDbEntity
  8
_
  6
CONTINUOUS
 62
     2
100
AcDbLine
 10
240.56550904
 20
27.16879158
 30
0.0
 11
240.56550904
 21
25.37234382
 31
0.0
  0
LINE
  5
262
330
1F
100
AcDbEntity
  8
_
  6
CONTINUOUS
 62
     2
100
AcDbLine
 10
241.06920166
 20
27.16879158
 30
0.0
 11
241.06920166
 21
25.47940522
 31
0.0
  0
LINE
  5
263
330
1F
100
AcDbEntity
  8
_
  6
CONTINUOUS
 62
     2
100
AcDbLine
 10
237.5494568
 20
24.33126336
 30
0.0
 11
243.01689454
 21
25.49339944
 31
0.0
  0
LINE
  5
264
330
1F
100
AcDbEntity
  8
_
  6
CONTINUOUS
 62
     2
100
AcDbLine
 10
237.5494568
 20
23.77600556
 30
0.0
 11
243.01689454
 21
24.93817024
 31
0.0
  0
LINE
  5
265
330
1F
100
AcDbEntity
  8
_
  6
CONTINUOUS
 62
     2
100
AcDbLine
 10
237.5494568
 20
23.30074578
 30
0.0
 11
243.01689454
 21
24.46288186
 31
0.0
  0
LINE
  5
266
330
1F
100
AcDbEntity
  8
_
  6
CONTINUOUS
 62
     2
100
AcDbLine
 10
248.72661134
 20
29.6651886
 30
0.0
 11
253.90306398
 21
31.39708024
 31
0.0
  0
LINE
  5
267
330
1F
100
AcDbEntity
  8
_
  6
CONTINUOUS
 62
     2
100
AcDbLine
 10
248.72661134
 20
29.13372498
 30
0.0
 11
253.90306398
 21
30.86564712
 31
0.0
  0
LINE
  5
268
330
1F
100
AcDbEntity
  8
_
  6
CONTINUOUS
 62
     2
100
AcDbLine
 10
254.28239748
 20
31.39707832
 30
0.0
 11
259.45888062
 21
29.6650608
 31
0.0
  0
LINE
  5
269
330
1F
100
AcDbEntity
  8
_
  6
CONTINUOUS
 62
     2
100
AcDbLine
 10
254.28239748
 20
30.90564614
 30
0.0
 11
259.45888062
 21
29.17362862
 31
0.0
  0
LINE
  5
26A
330
1F
100
AcDbEntity
  8
_
  6
CONTINUOUS
 62
     2
100
AcDbLine
 10
257.7249939
 20
29.1192215
 30
0.0
 11
250.46089478
 21
29.1192215
 31
0.0
  0
LINE
  5
26B
330
1F
100
AcDbEntity
  8
_
  6
CONTINUOUS
 62
     2
100
AcDbLine
 10
257.7249939
 20
28.57519226
 30
0.0
 11
250.46089478
 21
28.57519226
 31
0.0
  0
LINE
  5
26C
330
1F
100
AcDbEntity
  8
_
  6
CONTINUOUS
 62
     2
100
AcDbLine
 10
248.74727174
 20
27.01278382
 30
0.0
 11
259.43822022
 21
27.01278382
 31
0.0
  0
LINE
  5
26D
330
1F
100
AcDbEntity
  8
_
  6
CONTINUOUS
 62
     2
100
AcDbLine
 10
248.74727174
 20
26.54881744
 30
0.0
 11
259.43822022
 21
26.54881744
 31
0.0
  0
LINE
  5
26E
330
1F
100
AcDbEntity
  8
_
  6
CONTINUOUS
 62
     2
100
AcDbLine
 10
250.40266724
 20
26.18630676
 30
0.0
 11
249.38225098
 21
23.99849206
 31
0.0
  0
LINE
  5
26F
330
1F
100
AcDbEntity
  8
_
  6
CONTINUOUS
 62
     2
100
AcDbLine
 10
251.0388672
 20
26.18630868
 30
0.0
 11
250.01842042
 21
23.99849206
 31
0.0
  0
LINE
  5
270
330
1F
100
AcDbEntity
  8
_
  6
CONTINUOUS
 62
     2
100
AcDbLine
 10
251.67506714
 20
26.18630868
 30
0.0
 11
250.65462038
 21
23.99849206
 31
0.0
  0
LINE
  5
271
330
1F
100
AcDbEntity
  8
_
  6
CONTINUOUS
 62
     2
100
AcDbLine
 10
256.51082154
 20
26.18633346
 30
0.0
 11
257.53166504
 21
23.99846726
 31
0.0
  0
LINE
  5
272
330
1F
100
AcDbEntity
  8
_
  6
CONTINUOUS
 62
     2
100
AcDbLine
 10
257.14741822
 20
26.18628388
 30
0.0
 11
258.16740724
 21
23.99851684
 31
0.0
  0
LINE
  5
273
330
1F
100
AcDbEntity
  8
_
  6
CONTINUOUS
 62
     2
100
AcDbLine
 10
257.78398438
 20
26.1862629
 30
0.0
 11
258.8036377
 21
23.99853782
 31
0.0
  0
LINE
  5
274
330
1F
100
AcDbEntity
  8
_
  6
CONTINUOUS
 62
     2
100
AcDbLine
 10
249.13707276
 20
23.63598328
 30
0.0
 11
259.0484192
 21
23.63598328
 31
0.0
  0
LINE
  5
275
330
1F
100
AcDbEntity
  8
_
  6
CONTINUOUS
 62
     2
100
AcDbLine
 10
248.9020569
 20
23.13198548
 30
0.0
 11
259.28343506
 21
23.13198548
 31
0.0
  0
LINE
  5
276
330
1F
100
AcDbEntity
  8
_
  6
CONTINUOUS
 62
     2
100
AcDbLine
 10
262.47957154
 20
30.88003044
 30
0.0
 11
262.47957154
 21
31.27039224
 31
0.0
  0
LINE
  5
277
330
1F
100
AcDbEntity
  8
_
  6
CONTINUOUS
 62
     2
100
AcDbLine
 10
263.06325074
 20
30.88003044
 30
0.0
 11
263.06325074
 21
31.27039224
 31
0.0
  0
LINE
  5
278
330
1F
100
AcDbEntity
  8
_
  6
CONTINUOUS
 62
     2
100
AcDbLine
 10
263.64696046
 20
30.88003044
 30
0.0
 11
263.64696046
 21
31.27039224
 31
0.0
  0
LINE
  5
279
330
1F
100
AcDbEntity
  8
_
  6
CONTINUOUS
 62
     2
100
AcDbLine
 10
260.64137574
 20
30.48003082
 30
0.0
 11
265.21757814
 21
30.48003082
 31
0.0
  0
LINE
  5
27A
330
1F
100
AcDbEntity
  8
_
  6
CONTINUOUS
 62
     2
100
AcDbLine
 10
260.64137574
 20
29.97603302
 30
0.0
 11
264.86476442
 21
29.97603302
 31
0.0
  0
LINE
  5
27B
330
1F
100
AcDbEntity
  8
_
  6
CONTINUOUS
 62
     2
100
AcDbLine
 10
263.2758362
 20
29.64833526
 30
0.0
 11
260.47075196
 21
25.6409443
 31
0.0
  0
LINE
  5
27C
330
1F
100
AcDbEntity
  8
_
  6
CONTINUOUS
 62
     2
100
AcDbLine
 10
263.93132326
 20
29.64836006
 30
0.0
 11
260.47078248
 21
24.7057026
 31
0.0
  0
LINE
  5
27D
330
1F
100
AcDbEntity
  8
_
  6
CONTINUOUS
 62
     2
100
AcDbLine
 10
264.54759522
 20
29.64835434
 30
0.0
 11
260.47078248
 21
23.82514648
 31
0.0
  0
LINE
  5
27E
330
1F
100
AcDbEntity
  8
_
  6
CONTINUOUS
 62
     2
100
AcDbLine
 10
263.58598634
 20
27.5773819
 30
0.0
 11
265.35734864
 21
26.33692818
 31
0.0
  0
LINE
  5
27F
330
1F
100
AcDbEntity
  8
_
  6
CONTINUOUS
 62
     2
100
AcDbLine
 10
263.29689332
 20
27.16439896
 30
0.0
 11
265.35731812
 21
25.72159844
 31
0.0
  0
LINE
  5
280
330
1F
100
AcDbEntity
  8
_
  6
CONTINUOUS
 62
     2
100
AcDbLine
 10
262.98900148
 20
26.7246254
 30
0.0
 11
265.35731812
 21
25.0663002
 31
0.0
  0
LINE
  5
281
330
1F
100
AcDbEntity
  8
_
  6
CONTINUOUS
 62
     2
100
AcDbLine
 10
262.47957154
 20
26.2944458
 30
0.0
 11
262.47957154
 21
23.19999962
 31
0.0
  0
LINE
  5
282
330
1F
100
AcDbEntity
  8
_
  6
CONTINUOUS
 62
     2
100
AcDbLine
 10
263.06325074
 20
26.27263146
 30
0.0
 11
263.06325074
 21
23.19999962
 31
0.0
  0
LINE
  5
283
330
1F
100
AcDbEntity
  8
_
  6
CONTINUOUS
 62
     2
100
AcDbLine
 10
263.64696046
 20
25.86391334
 30
0.0
 11
263.64696046
 21
23.19999962
 31
0.0
  0
LINE
  5
284
330
1F
100
AcDbEntity
  8
_
  6
CONTINUOUS
 62
     2
100
AcDbLine
 10
267.92274782
 20
24.0359829
 30
0.0
 11
267.92274782
 21
31.27039224
 31
0.0
  0
LINE
  5
285
330
1F
100
AcDbEntity
  8
_
  6
CONTINUOUS
 62
     2
100
AcDbLine
 10
268.50642702
 20
24.0359829
 30
0.0
 11
268.50642702
 21
31.27039224
 31
0.0
  0
LINE
  5
286
330
1F
100
AcDbEntity
  8
_
  6
CONTINUOUS
 62
     2
100
AcDbLine
 10
269.09013672
 20
24.0359829
 30
0.0
 11
269.09013672
 21
31.27039224
 31
0.0
  0
LINE
  5
287
330
1F
100
AcDbEntity
  8
_
  6
CONTINUOUS
 62
     2
100
AcDbLine
 10
266.08497926
 20
29.06880646
 30
0.0
 11
267.52275392
 21
29.06880646
 31
0.0
  0
LINE
  5
288
330
1F
100
AcDbEntity
  8
_
  6
CONTINUOUS
 62
     2
100
AcDbLine
 10
266.08497926
 20
28.56483918
 30
0.0
 11
267.52275392
 21
28.56483918
 31
0.0
  0
LINE
  5
289
330
1F
100
AcDbEntity
  8
_
  6
CONTINUOUS
 62
     2
100
AcDbLine
 10
269.49013062
 20
29.06880646
 30
0.0
 11
270.92955324
 21
29.06880646
 31
0.0
  0
LINE
  5
28A
330
1F
100
AcDbEntity
  8
_
  6
CONTINUOUS
 62
     2
100
AcDbLine
 10
269.49013062
 20
28.52483826
 30
0.0
 11
270.92955324
 21
28.52483826
 31
0.0
  0
LINE
  5
28B
330
1F
100
AcDbEntity
  8
_
  6
CONTINUOUS
 62
     2
100
AcDbLine
 10
265.27818604
 20
23.63598328
 30
0.0
 11
271.13133546
 21
23.63598328
 31
0.0
  0
LINE
  5
28C
330
1F
100
AcDbEntity
  8
_
  6
CONTINUOUS
 62
     2
100
AcDbLine
 10
265.27818604
 20
23.13198548
 30
0.0
 11
271.13133546
 21
23.13198548
 31
0.0
  0
LINE
  5
28D
330
1F
100
AcDbEntity
  8
_
  6
CONTINUOUS
 62
     2
100
AcDbLine
 10
219.6951172
 20
26.67072754
 30
0.0
 11
223.95680542
 21
26.67072754
 31
0.0
  0
LINE
  5
28E
330
1F
100
AcDbEntity
  8
_
  6
CONTINUOUS
 62
     6
100
AcDbLine
 10
400.0
 20
37.0
 30
0.0
 11
150.0
 21
37.0
 31
0.0
  0
TEXT
  5
28F
330
1F
100
AcDbEntity
  8
_
  6
CONTINUOUS
 62
     2
100
AcDbText
 10
194.2
 20
41.7
 30
0.0
 40
13.0
  1
化粧鏡
 41
1.583710407239819
  7
EXCADSTD
 72
     5
 11
244.2
 21
41.7
 31
0.0
100
AcDbText
  0
TEXT
  5
290
330
1F
100
AcDbEntity
  8
_
  6
CONTINUOUS
 62
     2
100
AcDbText
 10
306.4000005722046
 20
42.35
 30
0.0
 40
13.0
  1
ＮＭ１
 41
1.178280506738171
  7
EXCADSTD
 72
     5
 11
343.5999994277954
 21
42.35
 31
0.0
100
AcDbText
  0
DIMENSION
  5
292
330
1F
100
AcDbEntity
  8
_
  6
CONTINUOUS
 62
     3
100
AcDbDimension
  2
*D15
 10
256.24
 20
485.02
 30
0.0
 11
251.540000011921
 21
498.51
 31
0.0
 70
   160
  3
ISO-25
100
AcDbAlignedDimension
 13
279.0
 23
512.0
 33
0.0
 14
281.0
 24
485.02
 34
0.0
 50
90.0
100
AcDbRotatedDimension
1001
ACAD
1000
DSTYLE
1002
{
1070
   270
1070
     2
1070
     6
1000
EX_NORM
1070
     7
1000
EX_NORM
1070
    41
1040
6.0
1070
    42
1040
1.399999976158142
1070
    44
1040
2.0
1070
    73
1070
     0
1070
    74
1070
     0
1070
    75
1070
     0
1070
    76
1070
     0
1070
    77
1070
     1
1070
    78
1070
     8
1070
   140
1040
8.0
1070
   147
1040
0.0
1070
   173
1070
     1
1070
   176
1070
     3
1070
   177
1070
     3
1070
   178
1070
     2
1070
   271
1070
     1
1070
   277
1070
     2
1070
   279
1070
     2
1070
   280
1070
     0
1070
   287
1070
     5
1070
   340
1005
291
1002
}
  0
DIMENSION
  5
2A0
330
1F
100
AcDbEntity
  8
_
  6
CONTINUOUS
 62
     3
100
AcDbDimension
  2
*D16
 10
307.16
 20
508.02
 30
0.0
 11
302.460000011921
 21
498.02
 31
0.0
 70
   160
  3
ISO-25
100
AcDbAlignedDimension
 13
301.38
 23
488.02
 33
0.0
 14
301.06
 24
508.02
 34
0.0
 50
90.0
100
AcDbRotatedDimension
1001
ACAD
1000
DSTYLE
1002
{
1070
   270
1070
     2
1070
     6
1000
EX_NORM
1070
     7
1000
EX_NORM
1070
    41
1040
6.0
1070
    42
1040
1.399999976158142
1070
    44
1040
2.0
1070
    73
1070
     0
1070
    74
1070
     0
1070
    75
1070
     0
1070
    76
1070
     0
1070
    77
1070
     1
1070
    78
1070
     8
1070
   140
1040
8.0
1070
   147
1040
0.0
1070
   173
1070
     1
1070
   176
1070
     3
1070
   177
1070
     3
1070
   178
1070
     2
1070
   271
1070
     1
1070
   277
1070
     2
1070
   279
1070
     2
1070
   280
1070
     0
1070
   287
1070
     5
1070
   340
1005
291
1002
}
  0
DIMENSION
  5
2AD
330
1F
100
AcDbEntity
  8
_
  6
CONTINUOUS
 62
     3
100
AcDbDimension
  2
*D17
 10
307.16
 20
485.02
 30
0.0
 11
302.4600000119212
 21
475.0199999999999
 31
0.0
 70
   160
  3
ISO-25
100
AcDbAlignedDimension
 13
301.38
 23
488.02
 33
0.0
 14
307.0
 24
485.02
 34
0.0
 50
90.0
100
AcDbRotatedDimension
1001
ACAD
1000
DSTYLE
1002
{
1070
   270
1070
     2
1070
     6
1000
EX_NORM
1070
     7
1000
EX_NORM
1070
    41
1040
6.0
1070
    42
1040
1.399999976158142
1070
    44
1040
2.0
1070
    73
1070
     0
1070
    74
1070
     0
1070
    75
1070
     0
1070
    76
1070
     0
1070
    77
1070
     1
1070
    78
1070
     8
1070
   140
1040
8.0
1070
   147
1040
0.0
1070
   173
1070
     1
1070
   176
1070
     3
1070
   177
1070
     3
1070
   178
1070
     2
1070
   271
1070
     1
1070
   277
1070
     2
1070
   279
1070
     2
1070
   280
1070
     2
1070
   287
1070
     5
1070
   340
1005
291
1002
}
  0
LINE
  5
2BC
330
1F
100
AcDbEntity
  8
_
  6
CONTINUOUS
 62
     6
100
AcDbLine
 10
88.39999999999999
 20
115.0
 30
0.0
 11
75.39999999999999
 21
115.0
 31
0.0
  0
LINE
  5
2BD
330
1F
100
AcDbEntity
  8
_
  6
CONTINUOUS
 62
     6
100
AcDbLine
 10
301.0
 20
115.0
 30
0.0
 11
286.6
 21
115.0
 31
0.0
  0
DIMENSION
  5
2BE
330
1F
100
AcDbEntity
  8
_
  6
CONTINUOUS
 62
     3
100
AcDbDimension
  2
*D18
 10
251.0
 20
128.0
 30
0.0
 11
246.3000000119209
 21
114.5
 31
0.0
 70
   160
  3
ISO-25
100
AcDbAlignedDimension
 13
279.0
 23
101.0
 33
0.0
 14
281.08
 24
128.0
 34
0.0
 50
90.0
100
AcDbRotatedDimension
1001
ACAD
1000
DSTYLE
1002
{
1070
   270
1070
     2
1070
     6
1000
EX_NORM
1070
     7
1000
EX_NORM
1070
    41
1040
6.0
1070
    42
1040
1.399999976158142
1070
    44
1040
2.000000000000028
1070
    73
1070
     0
1070
    74
1070
     0
1070
    75
1070
     0
1070
    76
1070
     0
1070
    77
1070
     1
1070
    78
1070
     8
1070
   140
1040
8.0
1070
   147
1040
0.0
1070
   173
1070
     1
1070
   176
1070
     3
1070
   177
1070
     3
1070
   178
1070
     2
1070
   271
1070
     1
1070
   277
1070
     2
1070
   279
1070
     2
1070
   280
1070
     0
1070
   287
1070
     5
1070
   340
1005
291
1002
}
  0
DIMENSION
  5
2CB
330
1F
100
AcDbEntity
  8
_
  6
CONTINUOUS
 62
     3
100
AcDbDimension
  2
*D19
 10
261.6
 20
115.0
 30
0.0
 11
256.900000011921
 21
108.0
 31
0.0
 70
   160
  3
ISO-25
100
AcDbAlignedDimension
 13
279.0
 23
101.0
 33
0.0
 14
288.0
 24
115.0
 34
0.0
 50
90.0
100
AcDbRotatedDimension
1001
ACAD
1000
DSTYLE
1002
{
1070
   270
1070
     2
1070
     6
1000
EX_NORM
1070
     7
1000
EX_NORM
1070
    41
1040
6.0
1070
    42
1040
1.399999976158142
1070
    44
1040
2.0
1070
    73
1070
     0
1070
    74
1070
     0
1070
    75
1070
     0
1070
    76
1070
     0
1070
    77
1070
     1
1070
    78
1070
     8
1070
   140
1040
8.0
1070
   147
1040
0.0
1070
   173
1070
     1
1070
   176
1070
     3
1070
   177
1070
     3
1070
   178
1070
     2
1070
   271
1070
     1
1070
   277
1070
     2
1070
   279
1070
     2
1070
   280
1070
     0
1070
   287
1070
     5
1070
   340
1005
291
1002
}
  0
DIMENSION
  5
2D8
330
1F
100
AcDbEntity
  8
_
  6
CONTINUOUS
 62
     3
100
AcDbDimension
  2
*D20
 10
272.0
 20
109.0
 30
0.0
 11
267.3000000119209
 21
105.0
 31
0.0
 70
   160
  3
ISO-25
100
AcDbAlignedDimension
 13
279.0
 23
101.0
 33
0.0
 14
281.0
 24
109.0
 34
0.0
 50
90.0
100
AcDbRotatedDimension
1001
ACAD
1000
DSTYLE
1002
{
1070
   270
1070
     2
1070
     6
1000
EX_NORM
1070
     7
1000
EX_NORM
1070
    41
1040
6.0
1070
    42
1040
1.399999976158142
1070
    44
1040
2.0
1070
    73
1070
     0
1070
    74
1070
     0
1070
    75
1070
     0
1070
    76
1070
     0
1070
    77
1070
     1
1070
    78
1070
     8
1070
   140
1040
8.0
1070
   147
1040
0.0
1070
   173
1070
     1
1070
   176
1070
     3
1070
   177
1070
     3
1070
   178
1070
     2
1070
   271
1070
     1
1070
   277
1070
     2
1070
   279
1070
     2
1070
   280
1070
     0
1070
   287
1070
     5
1070
   340
1005
291
1002
}
  0
TEXT
  5
2E7
330
1F
100
AcDbEntity
  8
_
  6
CONTINUOUS
 62
     6
100
AcDbText
 10
41.2999999523158
 20
34.0
 30
0.0
 40
10.0
  1
亀井
 41
1.18991346010815
  7
EXCADSTD
 72
     5
 11
59.99864003972959
 21
34.0
 31
0.0
100
AcDbText
  0
TEXT
  5
2E8
330
1F
100
AcDbEntity
  8
_
  6
CONTINUOUS
 62
     6
100
AcDbText
 10
36.76882324
 20
19.39001464
 30
0.0
 40
5.0
  1
２８
 41
1.052256769961444
  7
EXCADSTD
 72
     5
 11
45.03655500398278
 21
19.39001464
 31
0.0
100
AcDbText
  0
TEXT
  5
2E9
330
1F
100
AcDbEntity
  8
_
  6
CONTINUOUS
 62
     6
100
AcDbText
 10
48.64521484
 20
19.39001464
 30
0.0
 40
5.0
  1
１
 41
1.189439987182616
  7
EXCADSTD
 72
     5
 11
52.89321479422363
 21
19.39001464
 31
0.0
100
AcDbText
  0
TEXT
  5
2EA
330
1F
100
AcDbEntity
  8
_
  6
CONTINUOUS
 62
     6
100
AcDbText
 10
57.76882324
 20
19.39001464
 30
0.0
 40
5.0
  1
２１
 41
1.052256769961445
  7
EXCADSTD
 72
     5
 11
66.03655500398278
 21
19.39001464
 31
0.0
100
AcDbText
  0
TEXT
  5
2EB
330
1F
100
AcDbEntity
  8
_
  6
CONTINUOUS
 62
     6
100
AcDbText
 10
126.8999999523158
 20
34.0
 30
0.0
 40
10.0
  1
間瀬
 41
1.18991346010815
  7
EXCADSTD
 72
     5
 11
145.5986400397296
 21
34.0
 31
0.0
100
AcDbText
  0
TEXT
  5
2EC
330
1F
100
AcDbEntity
  8
_
  6
CONTINUOUS
 62
     6
100
AcDbText
 10
99.29999945163678
 20
34.0
 30
0.0
 40
10.0
  1
地名坊
 41
1.054117692218107
  7
EXCADSTD
 72
     5
 11
124.9000005483622
 21
34.0
 31
0.0
100
AcDbText
  0
LINE
  5
2ED
330
1F
100
AcDbEntity
  8
__2
  6
CONTINUOUS
 62
     7
100
AcDbLine
 10
352.0
 20
511.0
 30
0.0
 11
357.0
 21
511.0
 31
0.0
  0
ARC
  5
2EE
330
1F
100
AcDbEntity
  8
__2
  6
CONTINUOUS
 62
     6
100
AcDbCircle
 10
307.0
 20
506.0
 30
0.0
 40
2.0
100
AcDbArc
 50
270.0000000000002
 51
0.0
  0
ARC
  5
2EF
330
1F
100
AcDbEntity
  8
__2
  6
CONTINUOUS
 62
     6
100
AcDbCircle
 10
281.0
 20
506.0
 30
0.0
 40
2.0
100
AcDbArc
 50
180.0
 51
270.0000000000002
  0
LINE
  5
2F0
330
1F
100
AcDbEntity
  8
__2
  6
EXLTYPE2
 62
     6
100
AcDbLine
 10
309.0
 20
506.0
 30
0.0
 11
309.0
 21
486.0
 31
0.0
  0
LINE
  5
2F1
330
1F
100
AcDbEntity
  8
__2
  6
EXLTYPE2
 62
     6
100
AcDbLine
 10
279.0
 20
506.0
 30
0.0
 11
279.0
 21
486.0
 31
0.0
  0
LINE
  5
2F2
330
1F
100
AcDbEntity
  8
__2
  6
CONTINUOUS
 62
     6
100
AcDbLine
 10
309.0
 20
512.0
 30
0.0
 11
279.0
 21
512.0
 31
0.0
  0
LINE
  5
2F3
330
1F
100
AcDbEntity
  8
__2
  6
CONTINUOUS
 62
     6
100
AcDbLine
 10
307.0
 20
504.0
 30
0.0
 11
281.0
 21
504.0
 31
0.0
  0
LINE
  5
2F4
330
1F
100
AcDbEntity
  8
__2
  6
CONTINUOUS
 62
     6
100
AcDbLine
 10
309.0
 20
512.0
 30
0.0
 11
309.0
 21
506.0
 31
0.0
  0
LINE
  5
2F5
330
1F
100
AcDbEntity
  8
__2
  6
CONTINUOUS
 62
     6
100
AcDbLine
 10
279.0
 20
512.0
 30
0.0
 11
279.0
 21
506.0
 31
0.0
  0
LINE
  5
2F6
330
1F
100
AcDbEntity
  8
__2
  6
CONTINUOUS
 62
     7
100
AcDbLine
 10
309.3
 20
511.0
 30
0.0
 11
322.0
 21
511.0
 31
0.0
  0
LINE
  5
2F7
330
1F
100
AcDbEntity
  8
__2
  6
CONTINUOUS
 62
     3
100
AcDbLine
 10
279.6
 20
504.0
 30
0.0
 11
263.0
 21
504.0
 31
0.0
  0
LINE
  5
2F8
330
1F
100
AcDbEntity
  8
__2
  6
CONTINUOUS
 62
     3
100
AcDbLine
 10
279.0
 20
484.6
 30
0.0
 11
279.0
 21
457.4
 31
0.0
  0
LINE
  5
2F9
330
1F
100
AcDbEntity
  8
__2
  6
CONTINUOUS
 62
     3
100
AcDbLine
 10
309.0
 20
484.6
 30
0.0
 11
309.0
 21
457.4
 31
0.0
  0
LINE
  5
2FA
330
1F
100
AcDbEntity
  8
__2
  6
CONTINUOUS
 62
     7
100
AcDbLine
 10
54.0
 20
511.0
 30
0.0
 11
66.69999999999999
 21
511.0
 31
0.0
  0
LINE
  5
2FB
330
1F
100
AcDbEntity
  8
__2
  6
CONTINUOUS
 62
     3
100
AcDbLine
 10
323.4
 20
511.0
 30
0.0
 11
342.0
 21
511.0
 31
0.0
  0
LINE
  5
2FC
330
1F
100
AcDbEntity
  8
__2
  6
CONTINUOUS
 62
     3
100
AcDbLine
 10
322.0
 20
512.4
 30
0.0
 11
322.0
 21
527.0
 31
0.0
  0
LINE
  5
2FD
330
1F
100
AcDbEntity
  8
__2
  6
CONTINUOUS
 62
     3
100
AcDbLine
 10
54.0
 20
512.4
 30
0.0
 11
54.0
 21
528.0
 31
0.0
  0
LINE
  5
2FE
330
1F
100
AcDbEntity
  8
__2
  6
CONTINUOUS
 62
     6
100
AcDbLine
 10
357.0
 20
511.0
 30
0.0
 11
360.0
 21
511.0
 31
0.0
  0
LINE
  5
2FF
330
1F
100
AcDbEntity
  8
__2
  6
CONTINUOUS
 62
     6
100
AcDbLine
 10
352.0
 20
512.0
 30
0.0
 11
360.0
 21
512.0
 31
0.0
  0
LINE
  5
300
330
1F
100
AcDbEntity
  8
__2
  6
CONTINUOUS
 62
     6
100
AcDbLine
 10
351.0
 20
504.0
 30
0.0
 11
351.0
 21
511.0
 31
0.0
  0
LINE
  5
301
330
1F
100
AcDbEntity
  8
__2
  6
CONTINUOUS
 62
     6
100
AcDbLine
 10
352.0
 20
512.0
 30
0.0
 11
351.0
 21
511.0
 31
0.0
  0
LINE
  5
302
330
1F
100
AcDbEntity
  8
__2
  6
CONTINUOUS
 62
     6
100
AcDbLine
 10
357.0
 20
489.0
 30
0.0
 11
361.0
 21
489.0
 31
0.0
  0
CIRCLE
  5
303
330
1F
100
AcDbEntity
  8
__2
  6
CONTINUOUS
 62
     6
100
AcDbCircle
 10
357.88
 20
486.64
 30
0.0
 40
0.1414213562373
  0
CIRCLE
  5
304
330
1F
100
AcDbEntity
  8
__2
  6
CONTINUOUS
 62
     6
100
AcDbCircle
 10
359.16
 20
485.7
 30
0.0
 40
0.1414213562373
  0
CIRCLE
  5
305
330
1F
100
AcDbEntity
  8
__2
  6
CONTINUOUS
 62
     6
100
AcDbCircle
 10
359.18
 20
487.5
 30
0.0
 40
0.1414213562373
  0
CIRCLE
  5
306
330
1F
100
AcDbEntity
  8
__2
  6
CONTINUOUS
 62
     6
100
AcDbCircle
 10
357.94
 20
488.12
 30
0.0
 40
0.1414213562373
  0
LINE
  5
307
330
1F
100
AcDbEntity
  8
__2
  6
CONTINUOUS
 62
     6
100
AcDbLine
 10
351.0
 20
504.0
 30
0.0
 11
352.0
 21
504.0
 31
0.0
  0
CIRCLE
  5
308
330
1F
100
AcDbEntity
  8
__2
  6
EXLTYPE2
 62
     6
100
AcDbCircle
 10
294.0
 20
504.5
 30
0.0
 40
4.0
  0
LINE
  5
309
330
1F
100
AcDbEntity
  8
__2
  6
EXLTYPE2
 62
     6
100
AcDbLine
 10
291.5
 20
491.5
 30
0.0
 11
291.5
 21
501.3775010008007
 31
0.0
  0
LINE
  5
30A
330
1F
100
AcDbEntity
  8
__2
  6
EXLTYPE2
 62
     6
100
AcDbLine
 10
296.5
 20
491.5
 30
0.0
 11
296.5
 21
501.3775010008007
 31
0.0
  0
LINE
  5
30B
330
1F
100
AcDbEntity
  8
__2
  6
EXLTYPE2
 62
     6
100
AcDbLine
 10
293.6
 20
506.75
 30
0.0
 11
294.4
 21
506.75
 31
0.0
  0
LINE
  5
30C
330
1F
100
AcDbEntity
  8
__2
  6
EXLTYPE2
 62
     6
100
AcDbLine
 10
293.6
 20
502.25
 30
0.0
 11
294.4
 21
502.25
 31
0.0
  0
LINE
  5
30D
330
1F
100
AcDbEntity
  8
__2
  6
EXLTYPE2
 62
     6
100
AcDbLine
 10
291.75
 20
504.1
 30
0.0
 11
291.75
 21
504.9
 31
0.0
  0
LINE
  5
30E
330
1F
100
AcDbEntity
  8
__2
  6
EXLTYPE2
 62
     6
100
AcDbLine
 10
296.25
 20
504.1
 30
0.0
 11
296.25
 21
504.9
 31
0.0
  0
LINE
  5
30F
330
1F
100
AcDbEntity
  8
__2
  6
EXLTYPE2
 62
     6
100
AcDbLine
 10
291.75
 20
504.9
 30
0.0
 11
292.8463498889907
 21
504.9863498889941
 31
0.0
  0
LINE
  5
310
330
1F
100
AcDbEntity
  8
__2
  6
EXLTYPE2
 62
     6
100
AcDbLine
 10
293.6
 20
506.75
 30
0.0
 11
293.5136501110059
 21
505.6536501110094
 31
0.0
  0
LINE
  5
311
330
1F
100
AcDbEntity
  8
__2
  6
EXLTYPE2
 62
     6
100
AcDbLine
 10
292.8463498889907
 20
504.9863498889941
 30
0.0
 11
293.5136501110059
 21
505.6536501110094
 31
0.0
  0
LINE
  5
312
330
1F
100
AcDbEntity
  8
__2
  6
EXLTYPE2
 62
     6
100
AcDbLine
 10
293.5136501110059
 20
503.3463498889907
 30
0.0
 11
292.8463498889906
 21
504.0136501110059
 31
0.0
  0
LINE
  5
313
330
1F
100
AcDbEntity
  8
__2
  6
EXLTYPE2
 62
     6
100
AcDbLine
 10
295.1536501110093
 20
504.0136501110059
 30
0.0
 11
294.4863498889941
 21
503.3463498889906
 31
0.0
  0
LINE
  5
314
330
1F
100
AcDbEntity
  8
__2
  6
EXLTYPE2
 62
     6
100
AcDbLine
 10
294.4863498889941
 20
505.6536501110093
 30
0.0
 11
295.1536501110094
 21
504.9863498889941
 31
0.0
  0
LINE
  5
315
330
1F
100
AcDbEntity
  8
__2
  6
EXLTYPE2
 62
     6
100
AcDbLine
 10
291.75
 20
504.1
 30
0.0
 11
292.8463498889906
 21
504.0136501110059
 31
0.0
  0
LINE
  5
316
330
1F
100
AcDbEntity
  8
__2
  6
EXLTYPE2
 62
     6
100
AcDbLine
 10
293.6
 20
502.25
 30
0.0
 11
293.5136501110059
 21
503.3463498889907
 31
0.0
  0
LINE
  5
317
330
1F
100
AcDbEntity
  8
__2
  6
EXLTYPE2
 62
     6
100
AcDbLine
 10
294.4
 20
502.25
 30
0.0
 11
294.4863498889941
 21
503.3463498889906
 31
0.0
  0
LINE
  5
318
330
1F
100
AcDbEntity
  8
__2
  6
EXLTYPE2
 62
     6
100
AcDbLine
 10
296.25
 20
504.1
 30
0.0
 11
295.1536501110093
 21
504.0136501110059
 31
0.0
  0
LINE
  5
319
330
1F
100
AcDbEntity
  8
__2
  6
EXLTYPE2
 62
     6
100
AcDbLine
 10
296.25
 20
504.9
 30
0.0
 11
295.1536501110094
 21
504.9863498889941
 31
0.0
  0
LINE
  5
31A
330
1F
100
AcDbEntity
  8
__2
  6
EXLTYPE2
 62
     6
100
AcDbLine
 10
294.4
 20
506.75
 30
0.0
 11
294.4863498889941
 21
505.6536501110093
 31
0.0
  0
LINE
  5
31B
330
1F
100
AcDbEntity
  8
__2
  6
CONTINUOUS
 62
     7
100
AcDbLine
 10
54.0
 20
105.0
 30
0.0
 11
66.69999999999999
 21
105.0
 31
0.0
  0
LINE
  5
31C
330
1F
100
AcDbEntity
  8
__2
  6
CONTINUOUS
 62
     7
100
AcDbLine
 10
352.0
 20
105.0
 30
0.0
 11
357.0
 21
105.0
 31
0.0
  0
ARC
  5
31D
330
1F
100
AcDbEntity
  8
__2
  6
CONTINUOUS
 62
     6
100
AcDbCircle
 10
307.0
 20
107.0
 30
0.0
 40
2.0
100
AcDbArc
 50
0.0
 51
90.00000000000004
  0
ARC
  5
31E
330
1F
100
AcDbEntity
  8
__2
  6
CONTINUOUS
 62
     6
100
AcDbCircle
 10
281.0
 20
107.0
 30
0.0
 40
2.0
100
AcDbArc
 50
90.00000000000004
 51
180.0
  0
LINE
  5
31F
330
1F
100
AcDbEntity
  8
__2
  6
CONTINUOUS
 62
     6
100
AcDbLine
 10
309.0
 20
101.0
 30
0.0
 11
279.0
 21
101.0
 31
0.0
  0
LINE
  5
320
330
1F
100
AcDbEntity
  8
__2
  6
CONTINUOUS
 62
     6
100
AcDbLine
 10
307.0
 20
109.0
 30
0.0
 11
281.0
 21
109.0
 31
0.0
  0
LINE
  5
321
330
1F
100
AcDbEntity
  8
__2
  6
CONTINUOUS
 62
     6
100
AcDbLine
 10
309.0
 20
101.0
 30
0.0
 11
309.0
 21
107.0
 31
0.0
  0
LINE
  5
322
330
1F
100
AcDbEntity
  8
__2
  6
CONTINUOUS
 62
     6
100
AcDbLine
 10
279.0
 20
101.0
 30
0.0
 11
279.0
 21
107.0
 31
0.0
  0
LINE
  5
323
330
1F
100
AcDbEntity
  8
__2
  6
CONTINUOUS
 62
     7
100
AcDbLine
 10
309.3
 20
105.0
 30
0.0
 11
322.0
 21
105.0
 31
0.0
  0
LINE
  5
324
330
1F
100
AcDbEntity
  8
__2
  6
CONTINUOUS
 62
     3
100
AcDbLine
 10
323.4
 20
105.0
 30
0.0
 11
342.0
 21
105.0
 31
0.0
  0
LINE
  5
325
330
1F
100
AcDbEntity
  8
__2
  6
CONTINUOUS
 62
     6
100
AcDbLine
 10
352.0
 20
101.0
 30
0.0
 11
351.0
 21
102.0
 31
0.0
  0
LINE
  5
326
330
1F
100
AcDbEntity
  8
__2
  6
CONTINUOUS
 62
     6
100
AcDbLine
 10
352.0
 20
101.0
 30
0.0
 11
360.0
 21
101.0
 31
0.0
  0
LINE
  5
327
330
1F
100
AcDbEntity
  8
__2
  6
CONTINUOUS
 62
     6
100
AcDbLine
 10
360.0
 20
101.0
 30
0.0
 11
361.0
 21
102.0
 31
0.0
  0
LINE
  5
328
330
1F
100
AcDbEntity
  8
__2
  6
CONTINUOUS
 62
     6
100
AcDbLine
 10
357.0
 20
105.0
 30
0.0
 11
360.0
 21
105.0
 31
0.0
  0
LINE
  5
329
330
1F
100
AcDbEntity
  8
__2
  6
CONTINUOUS
 62
     6
100
AcDbLine
 10
351.0
 20
109.0
 30
0.0
 11
352.0
 21
109.0
 31
0.0
  0
LINE
  5
32A
330
1F
100
AcDbEntity
  8
__2
  6
CONTINUOUS
 62
     6
100
AcDbLine
 10
351.0
 20
109.0
 30
0.0
 11
351.0
 21
102.0
 31
0.0
  0
LINE
  5
32B
330
1F
100
AcDbEntity
  8
__2
  6
CONTINUOUS
 62
     6
100
AcDbLine
 10
352.0
 20
102.0
 30
0.0
 11
360.0
 21
102.0
 31
0.0
  0
LINE
  5
32C
330
1F
100
AcDbEntity
  8
__2
  6
CONTINUOUS
 62
     6
100
AcDbLine
 10
352.0
 20
102.0
 30
0.0
 11
352.0
 21
105.0
 31
0.0
  0
LINE
  5
32D
330
1F
100
AcDbEntity
  8
__2
  6
CONTINUOUS
 62
     6
100
AcDbLine
 10
357.0
 20
107.0
 30
0.0
 11
361.0
 21
107.0
 31
0.0
  0
CIRCLE
  5
32E
330
1F
100
AcDbEntity
  8
__2
  6
CONTINUOUS
 62
     6
100
AcDbCircle
 10
353.44
 20
104.2
 30
0.0
 40
0.1414213562373
  0
CIRCLE
  5
32F
330
1F
100
AcDbEntity
  8
__2
  6
CONTINUOUS
 62
     6
100
AcDbCircle
 10
355.82
 20
104.14
 30
0.0
 40
0.1414213562373
  0
CIRCLE
  5
330
330
1F
100
AcDbEntity
  8
__2
  6
CONTINUOUS
 62
     6
100
AcDbCircle
 10
358.08
 20
104.14
 30
0.0
 40
0.1414213562373
  0
CIRCLE
  5
331
330
1F
100
AcDbEntity
  8
__2
  6
CONTINUOUS
 62
     6
100
AcDbCircle
 10
354.48
 20
102.8
 30
0.0
 40
0.1414213562373
  0
CIRCLE
  5
332
330
1F
100
AcDbEntity
  8
__2
  6
CONTINUOUS
 62
     6
100
AcDbCircle
 10
357.1
 20
102.64
 30
0.0
 40
0.1414213562373
  0
CIRCLE
  5
333
330
1F
100
AcDbEntity
  8
__2
  6
CONTINUOUS
 62
     6
100
AcDbCircle
 10
359.18
 20
102.7
 30
0.0
 40
0.1414213562373
  0
CIRCLE
  5
334
330
1F
100
AcDbEntity
  8
__2
  6
CONTINUOUS
 62
     6
100
AcDbCircle
 10
358.08
 20
106.22
 30
0.0
 40
0.1414213562373
  0
CIRCLE
  5
335
330
1F
100
AcDbEntity
  8
__2
  6
CONTINUOUS
 62
     6
100
AcDbCircle
 10
359.18
 20
105.6
 30
0.0
 40
0.1414213562373
  0
LINE
  5
336
330
1F
100
AcDbEntity
  8
__2
  6
CONTINUOUS
 62
     7
100
AcDbLine
 10
54.0
 20
105.0000000000001
 30
0.0
 11
54.0
 21
511.0
 31
0.0
  0
LINE
  5
337
330
1F
100
AcDbEntity
  8
__2
  6
CONTINUOUS
 62
     7
100
AcDbLine
 10
322.0
 20
511.0
 30
0.0
 11
322.0
 21
105.0000000000001
 31
0.0
  0
LINE
  5
338
330
1F
100
AcDbEntity
  8
__2
  6
CONTINUOUS
 62
     7
100
AcDbLine
 10
357.0000000000001
 20
105.0000000000001
 30
0.0
 11
357.0
 21
511.0
 31
0.0
  0
LINE
  5
339
330
1F
100
AcDbEntity
  8
__2
  6
CONTINUOUS
 62
     7
100
AcDbLine
 10
352.0000000000001
 20
105.0000000000001
 30
0.0
 11
352.0
 21
511.0
 31
0.0
  0
POLYLINE
  5
33A
330
1F
100
AcDbEntity
  8
__2
  6
CONTINUOUS
 62
     6
100
AcDb2dPolyline
 66
     1
 10
0.0
 20
0.0
 30
0.0
 70
   128
  0
VERTEX
  5
33B
330
33A
100
AcDbEntity
  8
__2
  6
CONTINUOUS
 62
     6
100
AcDbVertex
100
AcDb2dVertex
 10
184.82976474178
 20
517.0
 30
0.0
  0
VERTEX
  5
33C
330
33A
100
AcDbEntity
  8
__2
  6
CONTINUOUS
 62
     6
100
AcDbVertex
100
AcDb2dVertex
 10
184.7467966548287
 20
516.6433027728634
 30
0.0
  0
VERTEX
  5
33D
330
33A
100
AcDbEntity
  8
__2
  6
CONTINUOUS
 62
     6
100
AcDbVertex
100
AcDb2dVertex
 10
184.5213757010843
 20
515.631371460133
 30
0.0
  0
VERTEX
  5
33E
330
33A
100
AcDbEntity
  8
__2
  6
CONTINUOUS
 62
     6
100
AcDbVertex
100
AcDb2dVertex
 10
184.1887268412105
 20
514.051446614828
 30
0.0
  0
VERTEX
  5
33F
330
33A
100
AcDbEntity
  8
__2
  6
CONTINUOUS
 62
     6
100
AcDbVertex
100
AcDb2dVertex
 10
183.7840750358714
 20
511.9907687899672
 30
0.0
  0
VERTEX
  5
340
330
33A
100
AcDbEntity
  8
__2
  6
CONTINUOUS
 62
     6
100
AcDbVertex
100
AcDb2dVertex
 10
183.3426452457309
 20
509.5365785385697
 30
0.0
  0
VERTEX
  5
341
330
33A
100
AcDbEntity
  8
__2
  6
CONTINUOUS
 62
     6
100
AcDbVertex
100
AcDb2dVertex
 10
182.8996624314528
 20
506.7761164136545
 30
0.0
  0
VERTEX
  5
342
330
33A
100
AcDbEntity
  8
__2
  6
CONTINUOUS
 62
     6
100
AcDbVertex
100
AcDb2dVertex
 10
182.4903515537013
 20
503.7966229682409
 30
0.0
  0
VERTEX
  5
343
330
33A
100
AcDbEntity
  8
__2
  6
CONTINUOUS
 62
     6
100
AcDbVertex
100
AcDb2dVertex
 10
182.1499375731401
 20
500.6853387553474
 30
0.0
  0
VERTEX
  5
344
330
33A
100
AcDbEntity
  8
__2
  6
CONTINUOUS
 62
     6
100
AcDbVertex
100
AcDb2dVertex
 10
181.9136454504332
 20
497.5295043279935
 30
0.0
  0
VERTEX
  5
345
330
33A
100
AcDbEntity
  8
__2
  6
CONTINUOUS
 62
     6
100
AcDbVertex
100
AcDb2dVertex
 10
181.8167001462445
 20
494.416360239198
 30
0.0
  0
VERTEX
  5
346
330
33A
100
AcDbEntity
  8
__2
  6
CONTINUOUS
 62
     6
100
AcDbVertex
100
AcDb2dVertex
 10
181.894326621238
 20
491.43314704198
 30
0.0
  0
VERTEX
  5
347
330
33A
100
AcDbEntity
  8
__2
  6
CONTINUOUS
 62
     6
100
AcDbVertex
100
AcDb2dVertex
 10
182.1231306956437
 20
488.9932607236679
 30
0.0
  0
VERTEX
  5
348
330
33A
100
AcDbEntity
  8
__2
  6
CONTINUOUS
 62
     6
100
AcDbVertex
100
AcDb2dVertex
 10
182.4815006975652
 20
486.6994745850986
 30
0.0
  0
VERTEX
  5
349
330
33A
100
AcDbEntity
  8
__2
  6
CONTINUOUS
 62
     6
100
AcDbVertex
100
AcDb2dVertex
 10
182.93948616464
 20
484.5327651494123
 30
0.0
  0
VERTEX
  5
34A
330
33A
100
AcDbEntity
  8
__2
  6
CONTINUOUS
 62
     6
100
AcDbVertex
100
AcDb2dVertex
 10
183.4671366345059
 20
482.4741089397491
 30
0.0
  0
VERTEX
  5
34B
330
33A
100
AcDbEntity
  8
__2
  6
CONTINUOUS
 62
     6
100
AcDbVertex
100
AcDb2dVertex
 10
184.0345016448003
 20
480.5044824792495
 30
0.0
  0
VERTEX
  5
34C
330
33A
100
AcDbEntity
  8
__2
  6
CONTINUOUS
 62
     6
100
AcDbVertex
100
AcDb2dVertex
 10
184.611630733161
 20
478.6048622910537
 30
0.0
  0
VERTEX
  5
34D
330
33A
100
AcDbEntity
  8
__2
  6
CONTINUOUS
 62
     6
100
AcDbVertex
100
AcDb2dVertex
 10
185.1685734372255
 20
476.7562248983019
 30
0.0
  0
VERTEX
  5
34E
330
33A
100
AcDbEntity
  8
__2
  6
CONTINUOUS
 62
     6
100
AcDbVertex
100
AcDb2dVertex
 10
185.6753792946315
 20
474.9395468241344
 30
0.0
  0
VERTEX
  5
34F
330
33A
100
AcDbEntity
  8
__2
  6
CONTINUOUS
 62
     6
100
AcDbVertex
100
AcDb2dVertex
 10
186.1020978430165
 20
473.1358045916913
 30
0.0
  0
VERTEX
  5
350
330
33A
100
AcDbEntity
  8
__2
  6
CONTINUOUS
 62
     6
100
AcDbVertex
100
AcDb2dVertex
 10
186.4187786200181
 20
471.3259747241132
 30
0.0
  0
VERTEX
  5
351
330
33A
100
AcDbEntity
  8
__2
  6
CONTINUOUS
 62
     6
100
AcDbVertex
100
AcDb2dVertex
 10
186.5954711632741
 20
469.4910337445401
 30
0.0
  0
VERTEX
  5
352
330
33A
100
AcDbEntity
  8
__2
  6
CONTINUOUS
 62
     6
100
AcDbVertex
100
AcDb2dVertex
 10
186.603404269857
 20
467.3965951280052
 30
0.0
  0
VERTEX
  5
353
330
33A
100
AcDbEntity
  8
__2
  6
CONTINUOUS
 62
     6
100
AcDbVertex
100
AcDb2dVertex
 10
186.4345493027646
 20
465.2533043433722
 30
0.0
  0
VERTEX
  5
354
330
33A
100
AcDbEntity
  8
__2
  6
CONTINUOUS
 62
     6
100
AcDbVertex
100
AcDb2dVertex
 10
186.1235866792776
 20
463.0672294680069
 30
0.0
  0
VERTEX
  5
355
330
33A
100
AcDbEntity
  8
__2
  6
CONTINUOUS
 62
     6
100
AcDbVertex
100
AcDb2dVertex
 10
185.7051968166764
 20
460.8444385792748
 30
0.0
  0
VERTEX
  5
356
330
33A
100
AcDbEntity
  8
__2
  6
CONTINUOUS
 62
     6
100
AcDbVertex
100
AcDb2dVertex
 10
185.2140601322418
 20
458.5909997545417
 30
0.0
  0
VERTEX
  5
357
330
33A
100
AcDbEntity
  8
__2
  6
CONTINUOUS
 62
     6
100
AcDbVertex
100
AcDb2dVertex
 10
184.6848570432541
 20
456.3129810711732
 30
0.0
  0
VERTEX
  5
358
330
33A
100
AcDbEntity
  8
__2
  6
CONTINUOUS
 62
     6
100
AcDbVertex
100
AcDb2dVertex
 10
184.1522679669939
 20
454.0164506065352
 30
0.0
  0
VERTEX
  5
359
330
33A
100
AcDbEntity
  8
__2
  6
CONTINUOUS
 62
     6
100
AcDbVertex
100
AcDb2dVertex
 10
183.6509733207419
 20
451.7074764379931
 30
0.0
  0
VERTEX
  5
35A
330
33A
100
AcDbEntity
  8
__2
  6
CONTINUOUS
 62
     6
100
AcDbVertex
100
AcDb2dVertex
 10
183.2156535217785
 20
449.3921266429128
 30
0.0
  0
VERTEX
  5
35B
330
33A
100
AcDbEntity
  8
__2
  6
CONTINUOUS
 62
     6
100
AcDbVertex
100
AcDb2dVertex
 10
182.8809889873844
 20
447.0764692986598
 30
0.0
  0
VERTEX
  5
35C
330
33A
100
AcDbEntity
  8
__2
  6
CONTINUOUS
 62
     6
100
AcDbVertex
100
AcDb2dVertex
 10
182.68166013484
 20
444.7665724825999
 30
0.0
  0
VERTEX
  5
35D
330
33A
100
AcDbEntity
  8
__2
  6
CONTINUOUS
 62
     6
100
AcDbVertex
100
AcDb2dVertex
 10
182.6617888706495
 20
441.7510829445072
 30
0.0
  0
VERTEX
  5
35E
330
33A
100
AcDbEntity
  8
__2
  6
CONTINUOUS
 62
     6
100
AcDbVertex
100
AcDb2dVertex
 10
182.8827264605952
 20
438.7536767682098
 30
0.0
  0
VERTEX
  5
35F
330
33A
100
AcDbEntity
  8
__2
  6
CONTINUOUS
 62
     6
100
AcDbVertex
100
AcDb2dVertex
 10
183.2924041749285
 20
435.7720608133106
 30
0.0
  0
VERTEX
  5
360
330
33A
100
AcDbEntity
  8
__2
  6
CONTINUOUS
 62
     6
100
AcDbVertex
100
AcDb2dVertex
 10
183.8387532839008
 20
432.8039419394118
 30
0.0
  0
VERTEX
  5
361
330
33A
100
AcDbEntity
  8
__2
  6
CONTINUOUS
 62
     6
100
AcDbVertex
100
AcDb2dVertex
 10
184.4697050577634
 20
429.8470270061158
 30
0.0
  0
VERTEX
  5
362
330
33A
100
AcDbEntity
  8
__2
  6
CONTINUOUS
 62
     6
100
AcDbVertex
100
AcDb2dVertex
 10
185.1331907667677
 20
426.8990228730253
 30
0.0
  0
VERTEX
  5
363
330
33A
100
AcDbEntity
  8
__2
  6
CONTINUOUS
 62
     6
100
AcDbVertex
100
AcDb2dVertex
 10
185.777141681165
 20
423.9576363997427
 30
0.0
  0
VERTEX
  5
364
330
33A
100
AcDbEntity
  8
__2
  6
CONTINUOUS
 62
     6
100
AcDbVertex
100
AcDb2dVertex
 10
186.3494890712067
 20
421.0205744458702
 30
0.0
  0
VERTEX
  5
365
330
33A
100
AcDbEntity
  8
__2
  6
CONTINUOUS
 62
     6
100
AcDbVertex
100
AcDb2dVertex
 10
186.7981642071442
 20
418.0855438710107
 30
0.0
  0
VERTEX
  5
366
330
33A
100
AcDbEntity
  8
__2
  6
CONTINUOUS
 62
     6
100
AcDbVertex
100
AcDb2dVertex
 10
187.0710983592289
 20
415.1502515347665
 30
0.0
  0
VERTEX
  5
367
330
33A
100
AcDbEntity
  8
__2
  6
CONTINUOUS
 62
     6
100
AcDbVertex
100
AcDb2dVertex
 10
187.116222797712
 20
412.2124042967399
 30
0.0
  0
VERTEX
  5
368
330
33A
100
AcDbEntity
  8
__2
  6
CONTINUOUS
 62
     6
100
AcDbVertex
100
AcDb2dVertex
 10
186.9274656048662
 20
409.5165273224617
 30
0.0
  0
VERTEX
  5
369
330
33A
100
AcDbEntity
  8
__2
  6
CONTINUOUS
 62
     6
100
AcDbVertex
100
AcDb2dVertex
 10
186.5497801264617
 20
406.8173404758741
 30
0.0
  0
VERTEX
  5
36A
330
33A
100
AcDbEntity
  8
__2
  6
CONTINUOUS
 62
     6
100
AcDbVertex
100
AcDb2dVertex
 10
186.0292514338451
 20
404.115604775778
 30
0.0
  0
VERTEX
  5
36B
330
33A
100
AcDbEntity
  8
__2
  6
CONTINUOUS
 62
     6
100
AcDbVertex
100
AcDb2dVertex
 10
185.4119645983635
 20
401.4120812409747
 30
0.0
  0
VERTEX
  5
36C
330
33A
100
AcDbEntity
  8
__2
  6
CONTINUOUS
 62
     6
100
AcDbVertex
100
AcDb2dVertex
 10
184.7440046913633
 20
398.707530890265
 30
0.0
  0
VERTEX
  5
36D
330
33A
100
AcDbEntity
  8
__2
  6
CONTINUOUS
 62
     6
100
AcDbVertex
100
AcDb2dVertex
 10
184.0714567841914
 20
396.0027147424503
 30
0.0
  0
VERTEX
  5
36E
330
33A
100
AcDbEntity
  8
__2
  6
CONTINUOUS
 62
     6
100
AcDbVertex
100
AcDb2dVertex
 10
183.4404059481946
 20
393.2983938163318
 30
0.0
  0
VERTEX
  5
36F
330
33A
100
AcDbEntity
  8
__2
  6
CONTINUOUS
 62
     6
100
AcDbVertex
100
AcDb2dVertex
 10
182.8969372547194
 20
390.5953291307103
 30
0.0
  0
VERTEX
  5
370
330
33A
100
AcDbEntity
  8
__2
  6
CONTINUOUS
 62
     6
100
AcDbVertex
100
AcDb2dVertex
 10
182.4871357751128
 20
387.894281704387
 30
0.0
  0
VERTEX
  5
371
330
33A
100
AcDbEntity
  8
__2
  6
CONTINUOUS
 62
     6
100
AcDbVertex
100
AcDb2dVertex
 10
182.2570865807214
 20
385.1960125561632
 30
0.0
  0
VERTEX
  5
372
330
33A
100
AcDbEntity
  8
__2
  6
CONTINUOUS
 62
     6
100
AcDbVertex
100
AcDb2dVertex
 10
182.252874742892
 20
382.50128270484
 30
0.0
  0
VERTEX
  5
373
330
33A
100
AcDbEntity
  8
__2
  6
CONTINUOUS
 62
     6
100
AcDbVertex
100
AcDb2dVertex
 10
182.4690898821297
 20
380.0698059055532
 30
0.0
  0
VERTEX
  5
374
330
33A
100
AcDbEntity
  8
__2
  6
CONTINUOUS
 62
     6
100
AcDbVertex
100
AcDb2dVertex
 10
182.865881012189
 20
377.641404978546
 30
0.0
  0
VERTEX
  5
375
330
33A
100
AcDbEntity
  8
__2
  6
CONTINUOUS
 62
     6
100
AcDbVertex
100
AcDb2dVertex
 10
183.4017958559514
 20
375.2156445313072
 30
0.0
  0
VERTEX
  5
376
330
33A
100
AcDbEntity
  8
__2
  6
CONTINUOUS
 62
     6
100
AcDbVertex
100
AcDb2dVertex
 10
184.0353821362987
 20
372.7920891713262
 30
0.0
  0
VERTEX
  5
377
330
33A
100
AcDbEntity
  8
__2
  6
CONTINUOUS
 62
     6
100
AcDbVertex
100
AcDb2dVertex
 10
184.7251875761121
 20
370.370303506092
 30
0.0
  0
VERTEX
  5
378
330
33A
100
AcDbEntity
  8
__2
  6
CONTINUOUS
 62
     6
100
AcDbVertex
100
AcDb2dVertex
 10
185.4297598982736
 20
367.9498521430937
 30
0.0
  0
VERTEX
  5
379
330
33A
100
AcDbEntity
  8
__2
  6
CONTINUOUS
 62
     6
100
AcDbVertex
100
AcDb2dVertex
 10
186.1076468256645
 20
365.5302996898205
 30
0.0
  0
VERTEX
  5
37A
330
33A
100
AcDbEntity
  8
__2
  6
CONTINUOUS
 62
     6
100
AcDbVertex
100
AcDb2dVertex
 10
186.7173960811664
 20
363.1112107537613
 30
0.0
  0
VERTEX
  5
37B
330
33A
100
AcDbEntity
  8
__2
  6
CONTINUOUS
 62
     6
100
AcDbVertex
100
AcDb2dVertex
 10
187.2175553876609
 20
360.6921499424054
 30
0.0
  0
VERTEX
  5
37C
330
33A
100
AcDbEntity
  8
__2
  6
CONTINUOUS
 62
     6
100
AcDbVertex
100
AcDb2dVertex
 10
187.5666724680296
 20
358.2726818632419
 30
0.0
  0
VERTEX
  5
37D
330
33A
100
AcDbEntity
  8
__2
  6
CONTINUOUS
 62
     6
100
AcDbVertex
100
AcDb2dVertex
 10
187.723295045154
 20
355.85237112376
 30
0.0
  0
VERTEX
  5
37E
330
33A
100
AcDbEntity
  8
__2
  6
CONTINUOUS
 62
     6
100
AcDbVertex
100
AcDb2dVertex
 10
187.6500078582646
 20
353.3019374715517
 30
0.0
  0
VERTEX
  5
37F
330
33A
100
AcDbEntity
  8
__2
  6
CONTINUOUS
 62
     6
100
AcDbVertex
100
AcDb2dVertex
 10
187.3618003780256
 20
350.7499465024366
 30
0.0
  0
VERTEX
  5
380
330
33A
100
AcDbEntity
  8
__2
  6
CONTINUOUS
 62
     6
100
AcDbVertex
100
AcDb2dVertex
 10
186.9032600077541
 20
348.1962585917949
 30
0.0
  0
VERTEX
  5
381
330
33A
100
AcDbEntity
  8
__2
  6
CONTINUOUS
 62
     6
100
AcDbVertex
100
AcDb2dVertex
 10
186.3189741507672
 20
345.6407341150061
 30
0.0
  0
VERTEX
  5
382
330
33A
100
AcDbEntity
  8
__2
  6
CONTINUOUS
 62
     6
100
AcDbVertex
100
AcDb2dVertex
 10
185.653530210382
 20
343.0832334474504
 30
0.0
  0
VERTEX
  5
383
330
33A
100
AcDbEntity
  8
__2
  6
CONTINUOUS
 62
     6
100
AcDbVertex
100
AcDb2dVertex
 10
184.9515155899156
 20
340.5236169645074
 30
0.0
  0
VERTEX
  5
384
330
33A
100
AcDbEntity
  8
__2
  6
CONTINUOUS
 62
     6
100
AcDbVertex
100
AcDb2dVertex
 10
184.257517692685
 20
337.9617450415571
 30
0.0
  0
VERTEX
  5
385
330
33A
100
AcDbEntity
  8
__2
  6
CONTINUOUS
 62
     6
100
AcDbVertex
100
AcDb2dVertex
 10
183.6161239220075
 20
335.3974780539793
 30
0.0
  0
VERTEX
  5
386
330
33A
100
AcDbEntity
  8
__2
  6
CONTINUOUS
 62
     6
100
AcDbVertex
100
AcDb2dVertex
 10
183.0719216812001
 20
332.830676377154
 30
0.0
  0
VERTEX
  5
387
330
33A
100
AcDbEntity
  8
__2
  6
CONTINUOUS
 62
     6
100
AcDbVertex
100
AcDb2dVertex
 10
182.6694983735799
 20
330.261200386461
 30
0.0
  0
VERTEX
  5
388
330
33A
100
AcDbEntity
  8
__2
  6
CONTINUOUS
 62
     6
100
AcDbVertex
100
AcDb2dVertex
 10
182.453441402464
 20
327.68891045728
 30
0.0
  0
VERTEX
  5
389
330
33A
100
AcDbEntity
  8
__2
  6
CONTINUOUS
 62
     6
100
AcDbVertex
100
AcDb2dVertex
 10
182.4542264217584
 20
325.114966026606
 30
0.0
  0
VERTEX
  5
38A
330
33A
100
AcDbEntity
  8
__2
  6
CONTINUOUS
 62
     6
100
AcDbVertex
100
AcDb2dVertex
 10
182.6460095008645
 20
322.5385763568824
 30
0.0
  0
VERTEX
  5
38B
330
33A
100
AcDbEntity
  8
__2
  6
CONTINUOUS
 62
     6
100
AcDbVertex
100
AcDb2dVertex
 10
182.9890485073308
 20
319.9602470412044
 30
0.0
  0
VERTEX
  5
38C
330
33A
100
AcDbEntity
  8
__2
  6
CONTINUOUS
 62
     6
100
AcDbVertex
100
AcDb2dVertex
 10
183.4436013087063
 20
317.3804836726672
 30
0.0
  0
VERTEX
  5
38D
330
33A
100
AcDbEntity
  8
__2
  6
CONTINUOUS
 62
     6
100
AcDbVertex
100
AcDb2dVertex
 10
183.9699257725397
 20
314.7997918443658
 30
0.0
  0
VERTEX
  5
38E
330
33A
100
AcDbEntity
  8
__2
  6
CONTINUOUS
 62
     6
100
AcDbVertex
100
AcDb2dVertex
 10
184.5282797663797
 20
312.2186771493955
 30
0.0
  0
VERTEX
  5
38F
330
33A
100
AcDbEntity
  8
__2
  6
CONTINUOUS
 62
     6
100
AcDbVertex
100
AcDb2dVertex
 10
185.0789211577753
 20
309.6376451808515
 30
0.0
  0
VERTEX
  5
390
330
33A
100
AcDbEntity
  8
__2
  6
CONTINUOUS
 62
     6
100
AcDbVertex
100
AcDb2dVertex
 10
185.5821078142751
 20
307.0572015318288
 30
0.0
  0
VERTEX
  5
391
330
33A
100
AcDbEntity
  8
__2
  6
CONTINUOUS
 62
     6
100
AcDbVertex
100
AcDb2dVertex
 10
185.998097603428
 20
304.4778517954225
 30
0.0
  0
VERTEX
  5
392
330
33A
100
AcDbEntity
  8
__2
  6
CONTINUOUS
 62
     6
100
AcDbVertex
100
AcDb2dVertex
 10
186.2871483927827
 20
301.9001015647278
 30
0.0
  0
VERTEX
  5
393
330
33A
100
AcDbEntity
  8
__2
  6
CONTINUOUS
 62
     6
100
AcDbVertex
100
AcDb2dVertex
 10
186.409518049888
 20
299.32445643284
 30
0.0
  0
VERTEX
  5
394
330
33A
100
AcDbEntity
  8
__2
  6
CONTINUOUS
 62
     6
100
AcDbVertex
100
AcDb2dVertex
 10
186.2794995014727
 20
295.9818272253066
 30
0.0
  0
VERTEX
  5
395
330
33A
100
AcDbEntity
  8
__2
  6
CONTINUOUS
 62
     6
100
AcDbVertex
100
AcDb2dVertex
 10
185.8652671604614
 20
292.643078126105
 30
0.0
  0
VERTEX
  5
396
330
33A
100
AcDbEntity
  8
__2
  6
CONTINUOUS
 62
     6
100
AcDbVertex
100
AcDb2dVertex
 10
185.231044384794
 20
289.3076824629239
 30
0.0
  0
VERTEX
  5
397
330
33A
100
AcDbEntity
  8
__2
  6
CONTINUOUS
 62
     6
100
AcDbVertex
100
AcDb2dVertex
 10
184.4410545324106
 20
285.9751135634514
 30
0.0
  0
VERTEX
  5
398
330
33A
100
AcDbEntity
  8
__2
  6
CONTINUOUS
 62
     6
100
AcDbVertex
100
AcDb2dVertex
 10
183.5595209612514
 20
282.6448447553763
 30
0.0
  0
VERTEX
  5
399
330
33A
100
AcDbEntity
  8
__2
  6
CONTINUOUS
 62
     6
100
AcDbVertex
100
AcDb2dVertex
 10
182.6506670292563
 20
279.3163493663866
 30
0.0
  0
VERTEX
  5
39A
330
33A
100
AcDbEntity
  8
__2
  6
CONTINUOUS
 62
     6
100
AcDbVertex
100
AcDb2dVertex
 10
181.7787160943655
 20
275.9891007241713
 30
0.0
  0
VERTEX
  5
39B
330
33A
100
AcDbEntity
  8
__2
  6
CONTINUOUS
 62
     6
100
AcDbVertex
100
AcDb2dVertex
 10
181.007891514519
 20
272.6625721564184
 30
0.0
  0
VERTEX
  5
39C
330
33A
100
AcDbEntity
  8
__2
  6
CONTINUOUS
 62
     6
100
AcDbVertex
100
AcDb2dVertex
 10
180.4024166476568
 20
269.3362369908166
 30
0.0
  0
VERTEX
  5
39D
330
33A
100
AcDbEntity
  8
__2
  6
CONTINUOUS
 62
     6
100
AcDbVertex
100
AcDb2dVertex
 10
180.0265148517192
 20
266.0095685550544
 30
0.0
  0
VERTEX
  5
39E
330
33A
100
AcDbEntity
  8
__2
  6
CONTINUOUS
 62
     6
100
AcDbVertex
100
AcDb2dVertex
 10
179.944409484646
 20
262.68204017682
 30
0.0
  0
VERTEX
  5
39F
330
33A
100
AcDbEntity
  8
__2
  6
CONTINUOUS
 62
     6
100
AcDbVertex
100
AcDb2dVertex
 10
180.1100788168441
 20
260.1207370274267
 30
0.0
  0
VERTEX
  5
3A0
330
33A
100
AcDbEntity
  8
__2
  6
CONTINUOUS
 62
     6
100
AcDbVertex
100
AcDb2dVertex
 10
180.4478466954014
 20
257.5585165331328
 30
0.0
  0
VERTEX
  5
3A1
330
33A
100
AcDbEntity
  8
__2
  6
CONTINUOUS
 62
     6
100
AcDbVertex
100
AcDb2dVertex
 10
180.9178375913548
 20
254.995282327088
 30
0.0
  0
VERTEX
  5
3A2
330
33A
100
AcDbEntity
  8
__2
  6
CONTINUOUS
 62
     6
100
AcDbVertex
100
AcDb2dVertex
 10
181.4801759757407
 20
252.4309380424418
 30
0.0
  0
VERTEX
  5
3A3
330
33A
100
AcDbEntity
  8
__2
  6
CONTINUOUS
 62
     6
100
AcDbVertex
100
AcDb2dVertex
 10
182.0949863195962
 20
249.8653873123441
 30
0.0
  0
VERTEX
  5
3A4
330
33A
100
AcDbEntity
  8
__2
  6
CONTINUOUS
 62
     6
100
AcDbVertex
100
AcDb2dVertex
 10
182.7223930939578
 20
247.2985337699446
 30
0.0
  0
VERTEX
  5
3A5
330
33A
100
AcDbEntity
  8
__2
  6
CONTINUOUS
 62
     6
100
AcDbVertex
100
AcDb2dVertex
 10
183.3225207698623
 20
244.730281048393
 30
0.0
  0
VERTEX
  5
3A6
330
33A
100
AcDbEntity
  8
__2
  6
CONTINUOUS
 62
     6
100
AcDbVertex
100
AcDb2dVertex
 10
183.8554938183464
 20
242.160532780839
 30
0.0
  0
VERTEX
  5
3A7
330
33A
100
AcDbEntity
  8
__2
  6
CONTINUOUS
 62
     6
100
AcDbVertex
100
AcDb2dVertex
 10
184.2814367104469
 20
239.5891926004323
 30
0.0
  0
VERTEX
  5
3A8
330
33A
100
AcDbEntity
  8
__2
  6
CONTINUOUS
 62
     6
100
AcDbVertex
100
AcDb2dVertex
 10
184.5604739172005
 20
237.0161641403228
 30
0.0
  0
VERTEX
  5
3A9
330
33A
100
AcDbEntity
  8
__2
  6
CONTINUOUS
 62
     6
100
AcDbVertex
100
AcDb2dVertex
 10
184.652729909644
 20
234.44135103366
 30
0.0
  0
VERTEX
  5
3AA
330
33A
100
AcDbEntity
  8
__2
  6
CONTINUOUS
 62
     6
100
AcDbVertex
100
AcDb2dVertex
 10
184.5426393823302
 20
231.9886400623194
 30
0.0
  0
VERTEX
  5
3AB
330
33A
100
AcDbEntity
  8
__2
  6
CONTINUOUS
 62
     6
100
AcDbVertex
100
AcDb2dVertex
 10
184.2651973521638
 20
229.534837575184
 30
0.0
  0
VERTEX
  5
3AC
330
33A
100
AcDbEntity
  8
__2
  6
CONTINUOUS
 62
     6
100
AcDbVertex
100
AcDb2dVertex
 10
183.8584485576527
 20
227.08055662998
 30
0.0
  0
VERTEX
  5
3AD
330
33A
100
AcDbEntity
  8
__2
  6
CONTINUOUS
 62
     6
100
AcDbVertex
100
AcDb2dVertex
 10
183.3604377373051
 20
224.6264102844341
 30
0.0
  0
VERTEX
  5
3AE
330
33A
100
AcDbEntity
  8
__2
  6
CONTINUOUS
 62
     6
100
AcDbVertex
100
AcDb2dVertex
 10
182.8092096296292
 20
222.1730115962727
 30
0.0
  0
VERTEX
  5
3AF
330
33A
100
AcDbEntity
  8
__2
  6
CONTINUOUS
 62
     6
100
AcDbVertex
100
AcDb2dVertex
 10
182.2428089731331
 20
219.7209736232222
 30
0.0
  0
VERTEX
  5
3B0
330
33A
100
AcDbEntity
  8
__2
  6
CONTINUOUS
 62
     6
100
AcDbVertex
100
AcDb2dVertex
 10
181.6992805063249
 20
217.2709094230091
 30
0.0
  0
VERTEX
  5
3B1
330
33A
100
AcDbEntity
  8
__2
  6
CONTINUOUS
 62
     6
100
AcDbVertex
100
AcDb2dVertex
 10
181.2166689677127
 20
214.8234320533599
 30
0.0
  0
VERTEX
  5
3B2
330
33A
100
AcDbEntity
  8
__2
  6
CONTINUOUS
 62
     6
100
AcDbVertex
100
AcDb2dVertex
 10
180.8330190958048
 20
212.379154572001
 30
0.0
  0
VERTEX
  5
3B3
330
33A
100
AcDbEntity
  8
__2
  6
CONTINUOUS
 62
     6
100
AcDbVertex
100
AcDb2dVertex
 10
180.5863756291092
 20
209.9386900366589
 30
0.0
  0
VERTEX
  5
3B4
330
33A
100
AcDbEntity
  8
__2
  6
CONTINUOUS
 62
     6
100
AcDbVertex
100
AcDb2dVertex
 10
180.514783306134
 20
207.50265150506
 30
0.0
  0
VERTEX
  5
3B5
330
33A
100
AcDbEntity
  8
__2
  6
CONTINUOUS
 62
     6
100
AcDbVertex
100
AcDb2dVertex
 10
180.6324263781904
 20
205.1911582929652
 30
0.0
  0
VERTEX
  5
3B6
330
33A
100
AcDbEntity
  8
__2
  6
CONTINUOUS
 62
     6
100
AcDbVertex
100
AcDb2dVertex
 10
180.9075679363156
 20
202.882421286097
 30
0.0
  0
VERTEX
  5
3B7
330
33A
100
AcDbEntity
  8
__2
  6
CONTINUOUS
 62
     6
100
AcDbVertex
100
AcDb2dVertex
 10
181.3051327377914
 20
200.574642913951
 30
0.0
  0
VERTEX
  5
3B8
330
33A
100
AcDbEntity
  8
__2
  6
CONTINUOUS
 62
     6
100
AcDbVertex
100
AcDb2dVertex
 10
181.7900455398993
 20
198.2660256060232
 30
0.0
  0
VERTEX
  5
3B9
330
33A
100
AcDbEntity
  8
__2
  6
CONTINUOUS
 62
     6
100
AcDbVertex
100
AcDb2dVertex
 10
182.3272310999211
 20
195.9547717918092
 30
0.0
  0
VERTEX
  5
3BA
330
33A
100
AcDbEntity
  8
__2
  6
CONTINUOUS
 62
     6
100
AcDbVertex
100
AcDb2dVertex
 10
182.8816141751384
 20
193.6390839008048
 30
0.0
  0
VERTEX
  5
3BB
330
33A
100
AcDbEntity
  8
__2
  6
CONTINUOUS
 62
     6
100
AcDbVertex
100
AcDb2dVertex
 10
183.4181195228329
 20
191.3171643625059
 30
0.0
  0
VERTEX
  5
3BC
330
33A
100
AcDbEntity
  8
__2
  6
CONTINUOUS
 62
     6
100
AcDbVertex
100
AcDb2dVertex
 10
183.9016719002862
 20
188.9872156064082
 30
0.0
  0
VERTEX
  5
3BD
330
33A
100
AcDbEntity
  8
__2
  6
CONTINUOUS
 62
     6
100
AcDbVertex
100
AcDb2dVertex
 10
184.2971960647801
 20
186.6474400620075
 30
0.0
  0
VERTEX
  5
3BE
330
33A
100
AcDbEntity
  8
__2
  6
CONTINUOUS
 62
     6
100
AcDbVertex
100
AcDb2dVertex
 10
184.5696167735961
 20
184.2960401587996
 30
0.0
  0
VERTEX
  5
3BF
330
33A
100
AcDbEntity
  8
__2
  6
CONTINUOUS
 62
     6
100
AcDbVertex
100
AcDb2dVertex
 10
184.683858784016
 20
181.9312183262801
 30
0.0
  0
VERTEX
  5
3C0
330
33A
100
AcDbEntity
  8
__2
  6
CONTINUOUS
 62
     6
100
AcDbVertex
100
AcDb2dVertex
 10
184.5981407189
 20
179.2901357525062
 30
0.0
  0
VERTEX
  5
3C1
330
33A
100
AcDbEntity
  8
__2
  6
CONTINUOUS
 62
     6
100
AcDbVertex
100
AcDb2dVertex
 10
184.3180517665159
 20
176.6378790246441
 30
0.0
  0
VERTEX
  5
3C2
330
33A
100
AcDbEntity
  8
__2
  6
CONTINUOUS
 62
     6
100
AcDbVertex
100
AcDb2dVertex
 10
183.8873117710841
 20
173.9820245601236
 30
0.0
  0
VERTEX
  5
3C3
330
33A
100
AcDbEntity
  8
__2
  6
CONTINUOUS
 62
     6
100
AcDbVertex
100
AcDb2dVertex
 10
183.3496405768254
 20
171.3301487763746
 30
0.0
  0
VERTEX
  5
3C4
330
33A
100
AcDbEntity
  8
__2
  6
CONTINUOUS
 62
     6
100
AcDbVertex
100
AcDb2dVertex
 10
182.7487580279603
 20
168.6898280908267
 30
0.0
  0
VERTEX
  5
3C5
330
33A
100
AcDbEntity
  8
__2
  6
CONTINUOUS
 62
     6
100
AcDbVertex
100
AcDb2dVertex
 10
182.1283839687093
 20
166.0686389209098
 30
0.0
  0
VERTEX
  5
3C6
330
33A
100
AcDbEntity
  8
__2
  6
CONTINUOUS
 62
     6
100
AcDbVertex
100
AcDb2dVertex
 10
181.532238243293
 20
163.4741576840538
 30
0.0
  0
VERTEX
  5
3C7
330
33A
100
AcDbEntity
  8
__2
  6
CONTINUOUS
 62
     6
100
AcDbVertex
100
AcDb2dVertex
 10
181.0040406959318
 20
160.9139607976884
 30
0.0
  0
VERTEX
  5
3C8
330
33A
100
AcDbEntity
  8
__2
  6
CONTINUOUS
 62
     6
100
AcDbVertex
100
AcDb2dVertex
 10
180.5875111708467
 20
158.3956246792435
 30
0.0
  0
VERTEX
  5
3C9
330
33A
100
AcDbEntity
  8
__2
  6
CONTINUOUS
 62
     6
100
AcDbVertex
100
AcDb2dVertex
 10
180.3263695122579
 20
155.9267257461488
 30
0.0
  0
VERTEX
  5
3CA
330
33A
100
AcDbEntity
  8
__2
  6
CONTINUOUS
 62
     6
100
AcDbVertex
100
AcDb2dVertex
 10
180.264335564386
 20
153.514840415834
 30
0.0
  0
VERTEX
  5
3CB
330
33A
100
AcDbEntity
  8
__2
  6
CONTINUOUS
 62
     6
100
AcDbVertex
100
AcDb2dVertex
 10
180.4582301845646
 20
150.9343353852068
 30
0.0
  0
VERTEX
  5
3CC
330
33A
100
AcDbEntity
  8
__2
  6
CONTINUOUS
 62
     6
100
AcDbVertex
100
AcDb2dVertex
 10
180.8868171573789
 20
148.3998936909241
 30
0.0
  0
VERTEX
  5
3CD
330
33A
100
AcDbEntity
  8
__2
  6
CONTINUOUS
 62
     6
100
AcDbVertex
100
AcDb2dVertex
 10
181.4920435879853
 20
145.8797109765315
 30
0.0
  0
VERTEX
  5
3CE
330
33A
100
AcDbEntity
  8
__2
  6
CONTINUOUS
 62
     6
100
AcDbVertex
100
AcDb2dVertex
 10
182.2158565815405
 20
143.3419828855745
 30
0.0
  0
VERTEX
  5
3CF
330
33A
100
AcDbEntity
  8
__2
  6
CONTINUOUS
 62
     6
100
AcDbVertex
100
AcDb2dVertex
 10
183.0002032432011
 20
140.7549050615985
 30
0.0
  0
VERTEX
  5
3D0
330
33A
100
AcDbEntity
  8
__2
  6
CONTINUOUS
 62
     6
100
AcDbVertex
100
AcDb2dVertex
 10
183.7870306781238
 20
138.0866731481493
 30
0.0
  0
VERTEX
  5
3D1
330
33A
100
AcDbEntity
  8
__2
  6
CONTINUOUS
 62
     6
100
AcDbVertex
100
AcDb2dVertex
 10
184.518285991465
 20
135.3054827887721
 30
0.0
  0
VERTEX
  5
3D2
330
33A
100
AcDbEntity
  8
__2
  6
CONTINUOUS
 62
     6
100
AcDbVertex
100
AcDb2dVertex
 10
185.1359162883814
 20
132.3795296270127
 30
0.0
  0
VERTEX
  5
3D3
330
33A
100
AcDbEntity
  8
__2
  6
CONTINUOUS
 62
     6
100
AcDbVertex
100
AcDb2dVertex
 10
185.5818686740297
 20
129.2770093064164
 30
0.0
  0
VERTEX
  5
3D4
330
33A
100
AcDbEntity
  8
__2
  6
CONTINUOUS
 62
     6
100
AcDbVertex
100
AcDb2dVertex
 10
185.7980902535663
 20
125.966117470529
 30
0.0
  0
VERTEX
  5
3D5
330
33A
100
AcDbEntity
  8
__2
  6
CONTINUOUS
 62
     6
100
AcDbVertex
100
AcDb2dVertex
 10
185.726528132148
 20
122.415049762896
 30
0.0
  0
VERTEX
  5
3D6
330
33A
100
AcDbEntity
  8
__2
  6
CONTINUOUS
 62
     6
100
AcDbVertex
100
AcDb2dVertex
 10
185.4804724096551
 20
119.7610859792994
 30
0.0
  0
VERTEX
  5
3D7
330
33A
100
AcDbEntity
  8
__2
  6
CONTINUOUS
 62
     6
100
AcDbVertex
100
AcDb2dVertex
 10
185.0963127166079
 20
117.039292539317
 30
0.0
  0
VERTEX
  5
3D8
330
33A
100
AcDbEntity
  8
__2
  6
CONTINUOUS
 62
     6
100
AcDbVertex
100
AcDb2dVertex
 10
184.6080854559493
 20
114.3172181086807
 30
0.0
  0
VERTEX
  5
3D9
330
33A
100
AcDbEntity
  8
__2
  6
CONTINUOUS
 62
     6
100
AcDbVertex
100
AcDb2dVertex
 10
184.0498270306218
 20
111.6624113531227
 30
0.0
  0
VERTEX
  5
3DA
330
33A
100
AcDbEntity
  8
__2
  6
CONTINUOUS
 62
     6
100
AcDbVertex
100
AcDb2dVertex
 10
183.4555738435682
 20
109.142420938375
 30
0.0
  0
VERTEX
  5
3DB
330
33A
100
AcDbEntity
  8
__2
  6
CONTINUOUS
 62
     6
100
AcDbVertex
100
AcDb2dVertex
 10
182.8593622977313
 20
106.8247955301697
 30
0.0
  0
VERTEX
  5
3DC
330
33A
100
AcDbEntity
  8
__2
  6
CONTINUOUS
 62
     6
100
AcDbVertex
100
AcDb2dVertex
 10
182.2952287960538
 20
104.7770837942389
 30
0.0
  0
VERTEX
  5
3DD
330
33A
100
AcDbEntity
  8
__2
  6
CONTINUOUS
 62
     6
100
AcDbVertex
100
AcDb2dVertex
 10
181.7972097414784
 20
103.0668343963146
 30
0.0
  0
VERTEX
  5
3DE
330
33A
100
AcDbEntity
  8
__2
  6
CONTINUOUS
 62
     6
100
AcDbVertex
100
AcDb2dVertex
 10
181.3993415369477
 20
101.761596002129
 30
0.0
  0
VERTEX
  5
3DF
330
33A
100
AcDbEntity
  8
__2
  6
CONTINUOUS
 62
     6
100
AcDbVertex
100
AcDb2dVertex
 10
181.1356605854047
 20
100.9289172774141
 30
0.0
  0
VERTEX
  5
3E0
330
33A
100
AcDbEntity
  8
__2
  6
CONTINUOUS
 62
     6
100
AcDbVertex
100
AcDb2dVertex
 10
181.040203289792
 20
100.636346887902
 30
0.0
  0
SEQEND
  5
3E1
330
33A
100
AcDbEntity
  8
__2
  6
CONTINUOUS
 62
     6
  0
POLYLINE
  5
3E2
330
1F
100
AcDbEntity
  8
__2
  6
CONTINUOUS
 62
     6
100
AcDb2dPolyline
 66
     1
 10
0.0
 20
0.0
 30
0.0
 70
   128
  0
VERTEX
  5
3E3
330
3E2
100
AcDbEntity
  8
__2
  6
CONTINUOUS
 62
     6
100
AcDbVertex
100
AcDb2dVertex
 10
188.62976474178
 20
517.0
 30
0.0
  0
VERTEX
  5
3E4
330
3E2
100
AcDbEntity
  8
__2
  6
CONTINUOUS
 62
     6
100
AcDbVertex
100
AcDb2dVertex
 10
188.5467966548287
 20
516.6433027728634
 30
0.0
  0
VERTEX
  5
3E5
330
3E2
100
AcDbEntity
  8
__2
  6
CONTINUOUS
 62
     6
100
AcDbVertex
100
AcDb2dVertex
 10
188.3213757010843
 20
515.631371460133
 30
0.0
  0
VERTEX
  5
3E6
330
3E2
100
AcDbEntity
  8
__2
  6
CONTINUOUS
 62
     6
100
AcDbVertex
100
AcDb2dVertex
 10
187.9887268412105
 20
514.051446614828
 30
0.0
  0
VERTEX
  5
3E7
330
3E2
100
AcDbEntity
  8
__2
  6
CONTINUOUS
 62
     6
100
AcDbVertex
100
AcDb2dVertex
 10
187.5840750358714
 20
511.9907687899672
 30
0.0
  0
VERTEX
  5
3E8
330
3E2
100
AcDbEntity
  8
__2
  6
CONTINUOUS
 62
     6
100
AcDbVertex
100
AcDb2dVertex
 10
187.1426452457309
 20
509.5365785385697
 30
0.0
  0
VERTEX
  5
3E9
330
3E2
100
AcDbEntity
  8
__2
  6
CONTINUOUS
 62
     6
100
AcDbVertex
100
AcDb2dVertex
 10
186.6996624314528
 20
506.7761164136545
 30
0.0
  0
VERTEX
  5
3EA
330
3E2
100
AcDbEntity
  8
__2
  6
CONTINUOUS
 62
     6
100
AcDbVertex
100
AcDb2dVertex
 10
186.2903515537013
 20
503.7966229682409
 30
0.0
  0
VERTEX
  5
3EB
330
3E2
100
AcDbEntity
  8
__2
  6
CONTINUOUS
 62
     6
100
AcDbVertex
100
AcDb2dVertex
 10
185.94993757314
 20
500.6853387553474
 30
0.0
  0
VERTEX
  5
3EC
330
3E2
100
AcDbEntity
  8
__2
  6
CONTINUOUS
 62
     6
100
AcDbVertex
100
AcDb2dVertex
 10
185.7136454504332
 20
497.5295043279935
 30
0.0
  0
VERTEX
  5
3ED
330
3E2
100
AcDbEntity
  8
__2
  6
CONTINUOUS
 62
     6
100
AcDbVertex
100
AcDb2dVertex
 10
185.6167001462445
 20
494.416360239198
 30
0.0
  0
VERTEX
  5
3EE
330
3E2
100
AcDbEntity
  8
__2
  6
CONTINUOUS
 62
     6
100
AcDbVertex
100
AcDb2dVertex
 10
185.694326621238
 20
491.43314704198
 30
0.0
  0
VERTEX
  5
3EF
330
3E2
100
AcDbEntity
  8
__2
  6
CONTINUOUS
 62
     6
100
AcDbVertex
100
AcDb2dVertex
 10
185.9231306956437
 20
488.9932607236679
 30
0.0
  0
VERTEX
  5
3F0
330
3E2
100
AcDbEntity
  8
__2
  6
CONTINUOUS
 62
     6
100
AcDbVertex
100
AcDb2dVertex
 10
186.2815006975651
 20
486.6994745850986
 30
0.0
  0
VERTEX
  5
3F1
330
3E2
100
AcDbEntity
  8
__2
  6
CONTINUOUS
 62
     6
100
AcDbVertex
100
AcDb2dVertex
 10
186.73948616464
 20
484.5327651494123
 30
0.0
  0
VERTEX
  5
3F2
330
3E2
100
AcDbEntity
  8
__2
  6
CONTINUOUS
 62
     6
100
AcDbVertex
100
AcDb2dVertex
 10
187.2671366345058
 20
482.4741089397491
 30
0.0
  0
VERTEX
  5
3F3
330
3E2
100
AcDbEntity
  8
__2
  6
CONTINUOUS
 62
     6
100
AcDbVertex
100
AcDb2dVertex
 10
187.8345016448003
 20
480.5044824792495
 30
0.0
  0
VERTEX
  5
3F4
330
3E2
100
AcDbEntity
  8
__2
  6
CONTINUOUS
 62
     6
100
AcDbVertex
100
AcDb2dVertex
 10
188.411630733161
 20
478.6048622910537
 30
0.0
  0
VERTEX
  5
3F5
330
3E2
100
AcDbEntity
  8
__2
  6
CONTINUOUS
 62
     6
100
AcDbVertex
100
AcDb2dVertex
 10
188.9685734372255
 20
476.7562248983019
 30
0.0
  0
VERTEX
  5
3F6
330
3E2
100
AcDbEntity
  8
__2
  6
CONTINUOUS
 62
     6
100
AcDbVertex
100
AcDb2dVertex
 10
189.4753792946314
 20
474.9395468241344
 30
0.0
  0
VERTEX
  5
3F7
330
3E2
100
AcDbEntity
  8
__2
  6
CONTINUOUS
 62
     6
100
AcDbVertex
100
AcDb2dVertex
 10
189.9020978430164
 20
473.1358045916913
 30
0.0
  0
VERTEX
  5
3F8
330
3E2
100
AcDbEntity
  8
__2
  6
CONTINUOUS
 62
     6
100
AcDbVertex
100
AcDb2dVertex
 10
190.218778620018
 20
471.3259747241132
 30
0.0
  0
VERTEX
  5
3F9
330
3E2
100
AcDbEntity
  8
__2
  6
CONTINUOUS
 62
     6
100
AcDbVertex
100
AcDb2dVertex
 10
190.395471163274
 20
469.4910337445401
 30
0.0
  0
VERTEX
  5
3FA
330
3E2
100
AcDbEntity
  8
__2
  6
CONTINUOUS
 62
     6
100
AcDbVertex
100
AcDb2dVertex
 10
190.4034042698569
 20
467.3965951280052
 30
0.0
  0
VERTEX
  5
3FB
330
3E2
100
AcDbEntity
  8
__2
  6
CONTINUOUS
 62
     6
100
AcDbVertex
100
AcDb2dVertex
 10
190.2345493027645
 20
465.2533043433722
 30
0.0
  0
VERTEX
  5
3FC
330
3E2
100
AcDbEntity
  8
__2
  6
CONTINUOUS
 62
     6
100
AcDbVertex
100
AcDb2dVertex
 10
189.9235866792775
 20
463.0672294680069
 30
0.0
  0
VERTEX
  5
3FD
330
3E2
100
AcDbEntity
  8
__2
  6
CONTINUOUS
 62
     6
100
AcDbVertex
100
AcDb2dVertex
 10
189.5051968166764
 20
460.8444385792748
 30
0.0
  0
VERTEX
  5
3FE
330
3E2
100
AcDbEntity
  8
__2
  6
CONTINUOUS
 62
     6
100
AcDbVertex
100
AcDb2dVertex
 10
189.0140601322418
 20
458.5909997545417
 30
0.0
  0
VERTEX
  5
3FF
330
3E2
100
AcDbEntity
  8
__2
  6
CONTINUOUS
 62
     6
100
AcDbVertex
100
AcDb2dVertex
 10
188.4848570432541
 20
456.3129810711732
 30
0.0
  0
VERTEX
  5
400
330
3E2
100
AcDbEntity
  8
__2
  6
CONTINUOUS
 62
     6
100
AcDbVertex
100
AcDb2dVertex
 10
187.9522679669939
 20
454.0164506065352
 30
0.0
  0
VERTEX
  5
401
330
3E2
100
AcDbEntity
  8
__2
  6
CONTINUOUS
 62
     6
100
AcDbVertex
100
AcDb2dVertex
 10
187.4509733207419
 20
451.7074764379931
 30
0.0
  0
VERTEX
  5
402
330
3E2
100
AcDbEntity
  8
__2
  6
CONTINUOUS
 62
     6
100
AcDbVertex
100
AcDb2dVertex
 10
187.0156535217785
 20
449.3921266429128
 30
0.0
  0
VERTEX
  5
403
330
3E2
100
AcDbEntity
  8
__2
  6
CONTINUOUS
 62
     6
100
AcDbVertex
100
AcDb2dVertex
 10
186.6809889873844
 20
447.0764692986598
 30
0.0
  0
VERTEX
  5
404
330
3E2
100
AcDbEntity
  8
__2
  6
CONTINUOUS
 62
     6
100
AcDbVertex
100
AcDb2dVertex
 10
186.48166013484
 20
444.7665724825999
 30
0.0
  0
VERTEX
  5
405
330
3E2
100
AcDbEntity
  8
__2
  6
CONTINUOUS
 62
     6
100
AcDbVertex
100
AcDb2dVertex
 10
186.4617888706495
 20
441.7510829445072
 30
0.0
  0
VERTEX
  5
406
330
3E2
100
AcDbEntity
  8
__2
  6
CONTINUOUS
 62
     6
100
AcDbVertex
100
AcDb2dVertex
 10
186.6827264605952
 20
438.7536767682098
 30
0.0
  0
VERTEX
  5
407
330
3E2
100
AcDbEntity
  8
__2
  6
CONTINUOUS
 62
     6
100
AcDbVertex
100
AcDb2dVertex
 10
187.0924041749285
 20
435.7720608133106
 30
0.0
  0
VERTEX
  5
408
330
3E2
100
AcDbEntity
  8
__2
  6
CONTINUOUS
 62
     6
100
AcDbVertex
100
AcDb2dVertex
 10
187.6387532839008
 20
432.8039419394118
 30
0.0
  0
VERTEX
  5
409
330
3E2
100
AcDbEntity
  8
__2
  6
CONTINUOUS
 62
     6
100
AcDbVertex
100
AcDb2dVertex
 10
188.2697050577634
 20
429.8470270061158
 30
0.0
  0
VERTEX
  5
40A
330
3E2
100
AcDbEntity
  8
__2
  6
CONTINUOUS
 62
     6
100
AcDbVertex
100
AcDb2dVertex
 10
188.9331907667677
 20
426.8990228730253
 30
0.0
  0
VERTEX
  5
40B
330
3E2
100
AcDbEntity
  8
__2
  6
CONTINUOUS
 62
     6
100
AcDbVertex
100
AcDb2dVertex
 10
189.577141681165
 20
423.9576363997427
 30
0.0
  0
VERTEX
  5
40C
330
3E2
100
AcDbEntity
  8
__2
  6
CONTINUOUS
 62
     6
100
AcDbVertex
100
AcDb2dVertex
 10
190.1494890712067
 20
421.0205744458702
 30
0.0
  0
VERTEX
  5
40D
330
3E2
100
AcDbEntity
  8
__2
  6
CONTINUOUS
 62
     6
100
AcDbVertex
100
AcDb2dVertex
 10
190.5981642071442
 20
418.0855438710107
 30
0.0
  0
VERTEX
  5
40E
330
3E2
100
AcDbEntity
  8
__2
  6
CONTINUOUS
 62
     6
100
AcDbVertex
100
AcDb2dVertex
 10
190.8710983592289
 20
415.1502515347665
 30
0.0
  0
VERTEX
  5
40F
330
3E2
100
AcDbEntity
  8
__2
  6
CONTINUOUS
 62
     6
100
AcDbVertex
100
AcDb2dVertex
 10
190.916222797712
 20
412.2124042967399
 30
0.0
  0
VERTEX
  5
410
330
3E2
100
AcDbEntity
  8
__2
  6
CONTINUOUS
 62
     6
100
AcDbVertex
100
AcDb2dVertex
 10
190.7274656048661
 20
409.5165273224617
 30
0.0
  0
VERTEX
  5
411
330
3E2
100
AcDbEntity
  8
__2
  6
CONTINUOUS
 62
     6
100
AcDbVertex
100
AcDb2dVertex
 10
190.3497801264616
 20
406.8173404758741
 30
0.0
  0
VERTEX
  5
412
330
3E2
100
AcDbEntity
  8
__2
  6
CONTINUOUS
 62
     6
100
AcDbVertex
100
AcDb2dVertex
 10
189.8292514338451
 20
404.115604775778
 30
0.0
  0
VERTEX
  5
413
330
3E2
100
AcDbEntity
  8
__2
  6
CONTINUOUS
 62
     6
100
AcDbVertex
100
AcDb2dVertex
 10
189.2119645983634
 20
401.4120812409747
 30
0.0
  0
VERTEX
  5
414
330
3E2
100
AcDbEntity
  8
__2
  6
CONTINUOUS
 62
     6
100
AcDbVertex
100
AcDb2dVertex
 10
188.5440046913633
 20
398.707530890265
 30
0.0
  0
VERTEX
  5
415
330
3E2
100
AcDbEntity
  8
__2
  6
CONTINUOUS
 62
     6
100
AcDbVertex
100
AcDb2dVertex
 10
187.8714567841914
 20
396.0027147424503
 30
0.0
  0
VERTEX
  5
416
330
3E2
100
AcDbEntity
  8
__2
  6
CONTINUOUS
 62
     6
100
AcDbVertex
100
AcDb2dVertex
 10
187.2404059481945
 20
393.2983938163318
 30
0.0
  0
VERTEX
  5
417
330
3E2
100
AcDbEntity
  8
__2
  6
CONTINUOUS
 62
     6
100
AcDbVertex
100
AcDb2dVertex
 10
186.6969372547194
 20
390.5953291307103
 30
0.0
  0
VERTEX
  5
418
330
3E2
100
AcDbEntity
  8
__2
  6
CONTINUOUS
 62
     6
100
AcDbVertex
100
AcDb2dVertex
 10
186.2871357751128
 20
387.894281704387
 30
0.0
  0
VERTEX
  5
419
330
3E2
100
AcDbEntity
  8
__2
  6
CONTINUOUS
 62
     6
100
AcDbVertex
100
AcDb2dVertex
 10
186.0570865807214
 20
385.1960125561632
 30
0.0
  0
VERTEX
  5
41A
330
3E2
100
AcDbEntity
  8
__2
  6
CONTINUOUS
 62
     6
100
AcDbVertex
100
AcDb2dVertex
 10
186.052874742892
 20
382.50128270484
 30
0.0
  0
VERTEX
  5
41B
330
3E2
100
AcDbEntity
  8
__2
  6
CONTINUOUS
 62
     6
100
AcDbVertex
100
AcDb2dVertex
 10
186.2690898821297
 20
380.0698059055532
 30
0.0
  0
VERTEX
  5
41C
330
3E2
100
AcDbEntity
  8
__2
  6
CONTINUOUS
 62
     6
100
AcDbVertex
100
AcDb2dVertex
 10
186.6658810121889
 20
377.641404978546
 30
0.0
  0
VERTEX
  5
41D
330
3E2
100
AcDbEntity
  8
__2
  6
CONTINUOUS
 62
     6
100
AcDbVertex
100
AcDb2dVertex
 10
187.2017958559514
 20
375.2156445313072
 30
0.0
  0
VERTEX
  5
41E
330
3E2
100
AcDbEntity
  8
__2
  6
CONTINUOUS
 62
     6
100
AcDbVertex
100
AcDb2dVertex
 10
187.8353821362986
 20
372.7920891713262
 30
0.0
  0
VERTEX
  5
41F
330
3E2
100
AcDbEntity
  8
__2
  6
CONTINUOUS
 62
     6
100
AcDbVertex
100
AcDb2dVertex
 10
188.5251875761122
 20
370.370303506092
 30
0.0
  0
VERTEX
  5
420
330
3E2
100
AcDbEntity
  8
__2
  6
CONTINUOUS
 62
     6
100
AcDbVertex
100
AcDb2dVertex
 10
189.2297598982736
 20
367.9498521430937
 30
0.0
  0
VERTEX
  5
421
330
3E2
100
AcDbEntity
  8
__2
  6
CONTINUOUS
 62
     6
100
AcDbVertex
100
AcDb2dVertex
 10
189.9076468256645
 20
365.5302996898205
 30
0.0
  0
VERTEX
  5
422
330
3E2
100
AcDbEntity
  8
__2
  6
CONTINUOUS
 62
     6
100
AcDbVertex
100
AcDb2dVertex
 10
190.5173960811664
 20
363.1112107537613
 30
0.0
  0
VERTEX
  5
423
330
3E2
100
AcDbEntity
  8
__2
  6
CONTINUOUS
 62
     6
100
AcDbVertex
100
AcDb2dVertex
 10
191.0175553876609
 20
360.6921499424054
 30
0.0
  0
VERTEX
  5
424
330
3E2
100
AcDbEntity
  8
__2
  6
CONTINUOUS
 62
     6
100
AcDbVertex
100
AcDb2dVertex
 10
191.3666724680296
 20
358.2726818632419
 30
0.0
  0
VERTEX
  5
425
330
3E2
100
AcDbEntity
  8
__2
  6
CONTINUOUS
 62
     6
100
AcDbVertex
100
AcDb2dVertex
 10
191.523295045154
 20
355.85237112376
 30
0.0
  0
VERTEX
  5
426
330
3E2
100
AcDbEntity
  8
__2
  6
CONTINUOUS
 62
     6
100
AcDbVertex
100
AcDb2dVertex
 10
191.4500078582647
 20
353.3019374715517
 30
0.0
  0
VERTEX
  5
427
330
3E2
100
AcDbEntity
  8
__2
  6
CONTINUOUS
 62
     6
100
AcDbVertex
100
AcDb2dVertex
 10
191.1618003780256
 20
350.7499465024366
 30
0.0
  0
VERTEX
  5
428
330
3E2
100
AcDbEntity
  8
__2
  6
CONTINUOUS
 62
     6
100
AcDbVertex
100
AcDb2dVertex
 10
190.7032600077542
 20
348.1962585917949
 30
0.0
  0
VERTEX
  5
429
330
3E2
100
AcDbEntity
  8
__2
  6
CONTINUOUS
 62
     6
100
AcDbVertex
100
AcDb2dVertex
 10
190.1189741507672
 20
345.6407341150061
 30
0.0
  0
VERTEX
  5
42A
330
3E2
100
AcDbEntity
  8
__2
  6
CONTINUOUS
 62
     6
100
AcDbVertex
100
AcDb2dVertex
 10
189.453530210382
 20
343.0832334474504
 30
0.0
  0
VERTEX
  5
42B
330
3E2
100
AcDbEntity
  8
__2
  6
CONTINUOUS
 62
     6
100
AcDbVertex
100
AcDb2dVertex
 10
188.7515155899155
 20
340.5236169645074
 30
0.0
  0
VERTEX
  5
42C
330
3E2
100
AcDbEntity
  8
__2
  6
CONTINUOUS
 62
     6
100
AcDbVertex
100
AcDb2dVertex
 10
188.057517692685
 20
337.9617450415571
 30
0.0
  0
VERTEX
  5
42D
330
3E2
100
AcDbEntity
  8
__2
  6
CONTINUOUS
 62
     6
100
AcDbVertex
100
AcDb2dVertex
 10
187.4161239220075
 20
335.3974780539793
 30
0.0
  0
VERTEX
  5
42E
330
3E2
100
AcDbEntity
  8
__2
  6
CONTINUOUS
 62
     6
100
AcDbVertex
100
AcDb2dVertex
 10
186.8719216812001
 20
332.830676377154
 30
0.0
  0
VERTEX
  5
42F
330
3E2
100
AcDbEntity
  8
__2
  6
CONTINUOUS
 62
     6
100
AcDbVertex
100
AcDb2dVertex
 10
186.4694983735799
 20
330.261200386461
 30
0.0
  0
VERTEX
  5
430
330
3E2
100
AcDbEntity
  8
__2
  6
CONTINUOUS
 62
     6
100
AcDbVertex
100
AcDb2dVertex
 10
186.253441402464
 20
327.68891045728
 30
0.0
  0
VERTEX
  5
431
330
3E2
100
AcDbEntity
  8
__2
  6
CONTINUOUS
 62
     6
100
AcDbVertex
100
AcDb2dVertex
 10
186.2542264217585
 20
325.114966026606
 30
0.0
  0
VERTEX
  5
432
330
3E2
100
AcDbEntity
  8
__2
  6
CONTINUOUS
 62
     6
100
AcDbVertex
100
AcDb2dVertex
 10
186.4460095008645
 20
322.5385763568824
 30
0.0
  0
VERTEX
  5
433
330
3E2
100
AcDbEntity
  8
__2
  6
CONTINUOUS
 62
     6
100
AcDbVertex
100
AcDb2dVertex
 10
186.7890485073308
 20
319.9602470412044
 30
0.0
  0
VERTEX
  5
434
330
3E2
100
AcDbEntity
  8
__2
  6
CONTINUOUS
 62
     6
100
AcDbVertex
100
AcDb2dVertex
 10
187.2436013087063
 20
317.3804836726672
 30
0.0
  0
VERTEX
  5
435
330
3E2
100
AcDbEntity
  8
__2
  6
CONTINUOUS
 62
     6
100
AcDbVertex
100
AcDb2dVertex
 10
187.7699257725397
 20
314.7997918443658
 30
0.0
  0
VERTEX
  5
436
330
3E2
100
AcDbEntity
  8
__2
  6
CONTINUOUS
 62
     6
100
AcDbVertex
100
AcDb2dVertex
 10
188.3282797663797
 20
312.2186771493955
 30
0.0
  0
VERTEX
  5
437
330
3E2
100
AcDbEntity
  8
__2
  6
CONTINUOUS
 62
     6
100
AcDbVertex
100
AcDb2dVertex
 10
188.8789211577753
 20
309.6376451808515
 30
0.0
  0
VERTEX
  5
438
330
3E2
100
AcDbEntity
  8
__2
  6
CONTINUOUS
 62
     6
100
AcDbVertex
100
AcDb2dVertex
 10
189.3821078142751
 20
307.0572015318288
 30
0.0
  0
VERTEX
  5
439
330
3E2
100
AcDbEntity
  8
__2
  6
CONTINUOUS
 62
     6
100
AcDbVertex
100
AcDb2dVertex
 10
189.7980976034279
 20
304.4778517954225
 30
0.0
  0
VERTEX
  5
43A
330
3E2
100
AcDbEntity
  8
__2
  6
CONTINUOUS
 62
     6
100
AcDbVertex
100
AcDb2dVertex
 10
190.0871483927826
 20
301.9001015647278
 30
0.0
  0
VERTEX
  5
43B
330
3E2
100
AcDbEntity
  8
__2
  6
CONTINUOUS
 62
     6
100
AcDbVertex
100
AcDb2dVertex
 10
190.2095180498879
 20
299.32445643284
 30
0.0
  0
VERTEX
  5
43C
330
3E2
100
AcDbEntity
  8
__2
  6
CONTINUOUS
 62
     6
100
AcDbVertex
100
AcDb2dVertex
 10
190.0794995014727
 20
295.9818272253066
 30
0.0
  0
VERTEX
  5
43D
330
3E2
100
AcDbEntity
  8
__2
  6
CONTINUOUS
 62
     6
100
AcDbVertex
100
AcDb2dVertex
 10
189.6652671604613
 20
292.643078126105
 30
0.0
  0
VERTEX
  5
43E
330
3E2
100
AcDbEntity
  8
__2
  6
CONTINUOUS
 62
     6
100
AcDbVertex
100
AcDb2dVertex
 10
189.0310443847939
 20
289.3076824629239
 30
0.0
  0
VERTEX
  5
43F
330
3E2
100
AcDbEntity
  8
__2
  6
CONTINUOUS
 62
     6
100
AcDbVertex
100
AcDb2dVertex
 10
188.2410545324106
 20
285.9751135634514
 30
0.0
  0
VERTEX
  5
440
330
3E2
100
AcDbEntity
  8
__2
  6
CONTINUOUS
 62
     6
100
AcDbVertex
100
AcDb2dVertex
 10
187.3595209612514
 20
282.6448447553763
 30
0.0
  0
VERTEX
  5
441
330
3E2
100
AcDbEntity
  8
__2
  6
CONTINUOUS
 62
     6
100
AcDbVertex
100
AcDb2dVertex
 10
186.4506670292563
 20
279.3163493663866
 30
0.0
  0
VERTEX
  5
442
330
3E2
100
AcDbEntity
  8
__2
  6
CONTINUOUS
 62
     6
100
AcDbVertex
100
AcDb2dVertex
 10
185.5787160943655
 20
275.9891007241713
 30
0.0
  0
VERTEX
  5
443
330
3E2
100
AcDbEntity
  8
__2
  6
CONTINUOUS
 62
     6
100
AcDbVertex
100
AcDb2dVertex
 10
184.807891514519
 20
272.6625721564184
 30
0.0
  0
VERTEX
  5
444
330
3E2
100
AcDbEntity
  8
__2
  6
CONTINUOUS
 62
     6
100
AcDbVertex
100
AcDb2dVertex
 10
184.2024166476568
 20
269.3362369908166
 30
0.0
  0
VERTEX
  5
445
330
3E2
100
AcDbEntity
  8
__2
  6
CONTINUOUS
 62
     6
100
AcDbVertex
100
AcDb2dVertex
 10
183.8265148517191
 20
266.0095685550544
 30
0.0
  0
VERTEX
  5
446
330
3E2
100
AcDbEntity
  8
__2
  6
CONTINUOUS
 62
     6
100
AcDbVertex
100
AcDb2dVertex
 10
183.744409484646
 20
262.68204017682
 30
0.0
  0
VERTEX
  5
447
330
3E2
100
AcDbEntity
  8
__2
  6
CONTINUOUS
 62
     6
100
AcDbVertex
100
AcDb2dVertex
 10
183.9100788168441
 20
260.1207370274267
 30
0.0
  0
VERTEX
  5
448
330
3E2
100
AcDbEntity
  8
__2
  6
CONTINUOUS
 62
     6
100
AcDbVertex
100
AcDb2dVertex
 10
184.2478466954014
 20
257.5585165331328
 30
0.0
  0
VERTEX
  5
449
330
3E2
100
AcDbEntity
  8
__2
  6
CONTINUOUS
 62
     6
100
AcDbVertex
100
AcDb2dVertex
 10
184.7178375913548
 20
254.995282327088
 30
0.0
  0
VERTEX
  5
44A
330
3E2
100
AcDbEntity
  8
__2
  6
CONTINUOUS
 62
     6
100
AcDbVertex
100
AcDb2dVertex
 10
185.2801759757407
 20
252.4309380424418
 30
0.0
  0
VERTEX
  5
44B
330
3E2
100
AcDbEntity
  8
__2
  6
CONTINUOUS
 62
     6
100
AcDbVertex
100
AcDb2dVertex
 10
185.8949863195961
 20
249.8653873123441
 30
0.0
  0
VERTEX
  5
44C
330
3E2
100
AcDbEntity
  8
__2
  6
CONTINUOUS
 62
     6
100
AcDbVertex
100
AcDb2dVertex
 10
186.5223930939578
 20
247.2985337699446
 30
0.0
  0
VERTEX
  5
44D
330
3E2
100
AcDbEntity
  8
__2
  6
CONTINUOUS
 62
     6
100
AcDbVertex
100
AcDb2dVertex
 10
187.1225207698623
 20
244.730281048393
 30
0.0
  0
VERTEX
  5
44E
330
3E2
100
AcDbEntity
  8
__2
  6
CONTINUOUS
 62
     6
100
AcDbVertex
100
AcDb2dVertex
 10
187.6554938183464
 20
242.160532780839
 30
0.0
  0
VERTEX
  5
44F
330
3E2
100
AcDbEntity
  8
__2
  6
CONTINUOUS
 62
     6
100
AcDbVertex
100
AcDb2dVertex
 10
188.0814367104469
 20
239.5891926004323
 30
0.0
  0
VERTEX
  5
450
330
3E2
100
AcDbEntity
  8
__2
  6
CONTINUOUS
 62
     6
100
AcDbVertex
100
AcDb2dVertex
 10
188.3604739172005
 20
237.0161641403228
 30
0.0
  0
VERTEX
  5
451
330
3E2
100
AcDbEntity
  8
__2
  6
CONTINUOUS
 62
     6
100
AcDbVertex
100
AcDb2dVertex
 10
188.452729909644
 20
234.44135103366
 30
0.0
  0
VERTEX
  5
452
330
3E2
100
AcDbEntity
  8
__2
  6
CONTINUOUS
 62
     6
100
AcDbVertex
100
AcDb2dVertex
 10
188.3426393823303
 20
231.9886400623194
 30
0.0
  0
VERTEX
  5
453
330
3E2
100
AcDbEntity
  8
__2
  6
CONTINUOUS
 62
     6
100
AcDbVertex
100
AcDb2dVertex
 10
188.0651973521638
 20
229.534837575184
 30
0.0
  0
VERTEX
  5
454
330
3E2
100
AcDbEntity
  8
__2
  6
CONTINUOUS
 62
     6
100
AcDbVertex
100
AcDb2dVertex
 10
187.6584485576527
 20
227.08055662998
 30
0.0
  0
VERTEX
  5
455
330
3E2
100
AcDbEntity
  8
__2
  6
CONTINUOUS
 62
     6
100
AcDbVertex
100
AcDb2dVertex
 10
187.1604377373051
 20
224.6264102844341
 30
0.0
  0
VERTEX
  5
456
330
3E2
100
AcDbEntity
  8
__2
  6
CONTINUOUS
 62
     6
100
AcDbVertex
100
AcDb2dVertex
 10
186.6092096296292
 20
222.1730115962727
 30
0.0
  0
VERTEX
  5
457
330
3E2
100
AcDbEntity
  8
__2
  6
CONTINUOUS
 62
     6
100
AcDbVertex
100
AcDb2dVertex
 10
186.0428089731331
 20
219.7209736232222
 30
0.0
  0
VERTEX
  5
458
330
3E2
100
AcDbEntity
  8
__2
  6
CONTINUOUS
 62
     6
100
AcDbVertex
100
AcDb2dVertex
 10
185.4992805063249
 20
217.2709094230091
 30
0.0
  0
VERTEX
  5
459
330
3E2
100
AcDbEntity
  8
__2
  6
CONTINUOUS
 62
     6
100
AcDbVertex
100
AcDb2dVertex
 10
185.0166689677127
 20
214.8234320533599
 30
0.0
  0
VERTEX
  5
45A
330
3E2
100
AcDbEntity
  8
__2
  6
CONTINUOUS
 62
     6
100
AcDbVertex
100
AcDb2dVertex
 10
184.6330190958047
 20
212.379154572001
 30
0.0
  0
VERTEX
  5
45B
330
3E2
100
AcDbEntity
  8
__2
  6
CONTINUOUS
 62
     6
100
AcDbVertex
100
AcDb2dVertex
 10
184.3863756291091
 20
209.9386900366589
 30
0.0
  0
VERTEX
  5
45C
330
3E2
100
AcDbEntity
  8
__2
  6
CONTINUOUS
 62
     6
100
AcDbVertex
100
AcDb2dVertex
 10
184.314783306134
 20
207.50265150506
 30
0.0
  0
VERTEX
  5
45D
330
3E2
100
AcDbEntity
  8
__2
  6
CONTINUOUS
 62
     6
100
AcDbVertex
100
AcDb2dVertex
 10
184.4324263781904
 20
205.1911582929652
 30
0.0
  0
VERTEX
  5
45E
330
3E2
100
AcDbEntity
  8
__2
  6
CONTINUOUS
 62
     6
100
AcDbVertex
100
AcDb2dVertex
 10
184.7075679363156
 20
202.882421286097
 30
0.0
  0
VERTEX
  5
45F
330
3E2
100
AcDbEntity
  8
__2
  6
CONTINUOUS
 62
     6
100
AcDbVertex
100
AcDb2dVertex
 10
185.1051327377914
 20
200.574642913951
 30
0.0
  0
VERTEX
  5
460
330
3E2
100
AcDbEntity
  8
__2
  6
CONTINUOUS
 62
     6
100
AcDbVertex
100
AcDb2dVertex
 10
185.5900455398993
 20
198.2660256060232
 30
0.0
  0
VERTEX
  5
461
330
3E2
100
AcDbEntity
  8
__2
  6
CONTINUOUS
 62
     6
100
AcDbVertex
100
AcDb2dVertex
 10
186.1272310999211
 20
195.9547717918092
 30
0.0
  0
VERTEX
  5
462
330
3E2
100
AcDbEntity
  8
__2
  6
CONTINUOUS
 62
     6
100
AcDbVertex
100
AcDb2dVertex
 10
186.6816141751384
 20
193.6390839008048
 30
0.0
  0
VERTEX
  5
463
330
3E2
100
AcDbEntity
  8
__2
  6
CONTINUOUS
 62
     6
100
AcDbVertex
100
AcDb2dVertex
 10
187.2181195228329
 20
191.3171643625059
 30
0.0
  0
VERTEX
  5
464
330
3E2
100
AcDbEntity
  8
__2
  6
CONTINUOUS
 62
     6
100
AcDbVertex
100
AcDb2dVertex
 10
187.7016719002862
 20
188.9872156064082
 30
0.0
  0
VERTEX
  5
465
330
3E2
100
AcDbEntity
  8
__2
  6
CONTINUOUS
 62
     6
100
AcDbVertex
100
AcDb2dVertex
 10
188.0971960647801
 20
186.6474400620075
 30
0.0
  0
VERTEX
  5
466
330
3E2
100
AcDbEntity
  8
__2
  6
CONTINUOUS
 62
     6
100
AcDbVertex
100
AcDb2dVertex
 10
188.3696167735961
 20
184.2960401587996
 30
0.0
  0
VERTEX
  5
467
330
3E2
100
AcDbEntity
  8
__2
  6
CONTINUOUS
 62
     6
100
AcDbVertex
100
AcDb2dVertex
 10
188.483858784016
 20
181.9312183262801
 30
0.0
  0
VERTEX
  5
468
330
3E2
100
AcDbEntity
  8
__2
  6
CONTINUOUS
 62
     6
100
AcDbVertex
100
AcDb2dVertex
 10
188.3981407189
 20
179.2901357525062
 30
0.0
  0
VERTEX
  5
469
330
3E2
100
AcDbEntity
  8
__2
  6
CONTINUOUS
 62
     6
100
AcDbVertex
100
AcDb2dVertex
 10
188.1180517665159
 20
176.6378790246441
 30
0.0
  0
VERTEX
  5
46A
330
3E2
100
AcDbEntity
  8
__2
  6
CONTINUOUS
 62
     6
100
AcDbVertex
100
AcDb2dVertex
 10
187.6873117710842
 20
173.9820245601236
 30
0.0
  0
VERTEX
  5
46B
330
3E2
100
AcDbEntity
  8
__2
  6
CONTINUOUS
 62
     6
100
AcDbVertex
100
AcDb2dVertex
 10
187.1496405768254
 20
171.3301487763746
 30
0.0
  0
VERTEX
  5
46C
330
3E2
100
AcDbEntity
  8
__2
  6
CONTINUOUS
 62
     6
100
AcDbVertex
100
AcDb2dVertex
 10
186.5487580279603
 20
168.6898280908267
 30
0.0
  0
VERTEX
  5
46D
330
3E2
100
AcDbEntity
  8
__2
  6
CONTINUOUS
 62
     6
100
AcDbVertex
100
AcDb2dVertex
 10
185.9283839687093
 20
166.0686389209098
 30
0.0
  0
VERTEX
  5
46E
330
3E2
100
AcDbEntity
  8
__2
  6
CONTINUOUS
 62
     6
100
AcDbVertex
100
AcDb2dVertex
 10
185.3322382432929
 20
163.4741576840538
 30
0.0
  0
VERTEX
  5
46F
330
3E2
100
AcDbEntity
  8
__2
  6
CONTINUOUS
 62
     6
100
AcDbVertex
100
AcDb2dVertex
 10
184.8040406959319
 20
160.9139607976884
 30
0.0
  0
VERTEX
  5
470
330
3E2
100
AcDbEntity
  8
__2
  6
CONTINUOUS
 62
     6
100
AcDbVertex
100
AcDb2dVertex
 10
184.3875111708467
 20
158.3956246792435
 30
0.0
  0
VERTEX
  5
471
330
3E2
100
AcDbEntity
  8
__2
  6
CONTINUOUS
 62
     6
100
AcDbVertex
100
AcDb2dVertex
 10
184.1263695122578
 20
155.9267257461488
 30
0.0
  0
VERTEX
  5
472
330
3E2
100
AcDbEntity
  8
__2
  6
CONTINUOUS
 62
     6
100
AcDbVertex
100
AcDb2dVertex
 10
184.064335564386
 20
153.514840415834
 30
0.0
  0
VERTEX
  5
473
330
3E2
100
AcDbEntity
  8
__2
  6
CONTINUOUS
 62
     6
100
AcDbVertex
100
AcDb2dVertex
 10
184.2582301845646
 20
150.9343353852068
 30
0.0
  0
VERTEX
  5
474
330
3E2
100
AcDbEntity
  8
__2
  6
CONTINUOUS
 62
     6
100
AcDbVertex
100
AcDb2dVertex
 10
184.6868171573788
 20
148.3998936909241
 30
0.0
  0
VERTEX
  5
475
330
3E2
100
AcDbEntity
  8
__2
  6
CONTINUOUS
 62
     6
100
AcDbVertex
100
AcDb2dVertex
 10
185.2920435879853
 20
145.8797109765315
 30
0.0
  0
VERTEX
  5
476
330
3E2
100
AcDbEntity
  8
__2
  6
CONTINUOUS
 62
     6
100
AcDbVertex
100
AcDb2dVertex
 10
186.0158565815405
 20
143.3419828855745
 30
0.0
  0
VERTEX
  5
477
330
3E2
100
AcDbEntity
  8
__2
  6
CONTINUOUS
 62
     6
100
AcDbVertex
100
AcDb2dVertex
 10
186.8002032432011
 20
140.7549050615985
 30
0.0
  0
VERTEX
  5
478
330
3E2
100
AcDbEntity
  8
__2
  6
CONTINUOUS
 62
     6
100
AcDbVertex
100
AcDb2dVertex
 10
187.5870306781237
 20
138.0866731481493
 30
0.0
  0
VERTEX
  5
479
330
3E2
100
AcDbEntity
  8
__2
  6
CONTINUOUS
 62
     6
100
AcDbVertex
100
AcDb2dVertex
 10
188.318285991465
 20
135.3054827887721
 30
0.0
  0
VERTEX
  5
47A
330
3E2
100
AcDbEntity
  8
__2
  6
CONTINUOUS
 62
     6
100
AcDbVertex
100
AcDb2dVertex
 10
188.9359162883814
 20
132.3795296270127
 30
0.0
  0
VERTEX
  5
47B
330
3E2
100
AcDbEntity
  8
__2
  6
CONTINUOUS
 62
     6
100
AcDbVertex
100
AcDb2dVertex
 10
189.3818686740296
 20
129.2770093064164
 30
0.0
  0
VERTEX
  5
47C
330
3E2
100
AcDbEntity
  8
__2
  6
CONTINUOUS
 62
     6
100
AcDbVertex
100
AcDb2dVertex
 10
189.5980902535663
 20
125.966117470529
 30
0.0
  0
VERTEX
  5
47D
330
3E2
100
AcDbEntity
  8
__2
  6
CONTINUOUS
 62
     6
100
AcDbVertex
100
AcDb2dVertex
 10
189.526528132148
 20
122.415049762896
 30
0.0
  0
VERTEX
  5
47E
330
3E2
100
AcDbEntity
  8
__2
  6
CONTINUOUS
 62
     6
100
AcDbVertex
100
AcDb2dVertex
 10
189.2804724096551
 20
119.7610859792994
 30
0.0
  0
VERTEX
  5
47F
330
3E2
100
AcDbEntity
  8
__2
  6
CONTINUOUS
 62
     6
100
AcDbVertex
100
AcDb2dVertex
 10
188.8963127166079
 20
117.039292539317
 30
0.0
  0
VERTEX
  5
480
330
3E2
100
AcDbEntity
  8
__2
  6
CONTINUOUS
 62
     6
100
AcDbVertex
100
AcDb2dVertex
 10
188.4080854559492
 20
114.3172181086807
 30
0.0
  0
VERTEX
  5
481
330
3E2
100
AcDbEntity
  8
__2
  6
CONTINUOUS
 62
     6
100
AcDbVertex
100
AcDb2dVertex
 10
187.8498270306218
 20
111.6624113531227
 30
0.0
  0
VERTEX
  5
482
330
3E2
100
AcDbEntity
  8
__2
  6
CONTINUOUS
 62
     6
100
AcDbVertex
100
AcDb2dVertex
 10
187.2555738435682
 20
109.142420938375
 30
0.0
  0
VERTEX
  5
483
330
3E2
100
AcDbEntity
  8
__2
  6
CONTINUOUS
 62
     6
100
AcDbVertex
100
AcDb2dVertex
 10
186.6593622977313
 20
106.8247955301697
 30
0.0
  0
VERTEX
  5
484
330
3E2
100
AcDbEntity
  8
__2
  6
CONTINUOUS
 62
     6
100
AcDbVertex
100
AcDb2dVertex
 10
186.0952287960538
 20
104.7770837942389
 30
0.0
  0
VERTEX
  5
485
330
3E2
100
AcDbEntity
  8
__2
  6
CONTINUOUS
 62
     6
100
AcDbVertex
100
AcDb2dVertex
 10
185.5972097414783
 20
103.0668343963146
 30
0.0
  0
VERTEX
  5
486
330
3E2
100
AcDbEntity
  8
__2
  6
CONTINUOUS
 62
     6
100
AcDbVertex
100
AcDb2dVertex
 10
185.1993415369478
 20
101.761596002129
 30
0.0
  0
VERTEX
  5
487
330
3E2
100
AcDbEntity
  8
__2
  6
CONTINUOUS
 62
     6
100
AcDbVertex
100
AcDb2dVertex
 10
184.9356605854047
 20
100.9289172774141
 30
0.0
  0
VERTEX
  5
488
330
3E2
100
AcDbEntity
  8
__2
  6
CONTINUOUS
 62
     6
100
AcDbVertex
100
AcDb2dVertex
 10
184.840203289792
 20
100.636346887902
 30
0.0
  0
SEQEND
  5
489
330
3E2
100
AcDbEntity
  8
__2
  6
CONTINUOUS
 62
     6
  0
LINE
  5
48A
330
1F
100
AcDbEntity
  8
__2
  6
CONTINUOUS
 62
     7
100
AcDbLine
 10
97.30000000000001
 20
511.0
 30
0.0
 11
183.2058676378166
 21
511.0
 31
0.0
  0
LINE
  5
48B
330
1F
100
AcDbEntity
  8
__2
  6
CONTINUOUS
 62
     7
100
AcDbLine
 10
187.8058676378166
 20
511.0
 30
0.0
 11
278.7
 21
511.0
 31
0.0
  0
LINE
  5
48C
330
1F
100
AcDbEntity
  8
__2
  6
CONTINUOUS
 62
     7
100
AcDbLine
 10
97.30000000000001
 20
105.0
 30
0.0
 11
181.9566410043886
 21
105.0
 31
0.0
  0
LINE
  5
48D
330
1F
100
AcDbEntity
  8
__2
  6
CONTINUOUS
 62
     6
100
AcDbLine
 10
360.0
 20
512.0
 30
0.0
 11
361.0
 21
511.0
 31
0.0
  0
LINE
  5
48E
330
1F
100
AcDbEntity
  8
__2
  6
CONTINUOUS
 62
     6
100
AcDbLine
 10
360.9849787369998
 20
506.5
 30
0.0
 11
361.690286659
 21
502.5
 31
0.0
  0
LINE
  5
48F
330
1F
100
AcDbEntity
  8
__2
  6
CONTINUOUS
 62
     6
100
AcDbLine
 10
362.7349787369998
 20
506.5
 30
0.0
 11
363.440286659
 21
502.5
 31
0.0
  0
LINE
  5
490
330
1F
100
AcDbEntity
  8
__2
  6
CONTINUOUS
 62
     6
100
AcDbLine
 10
364.4849787369998
 20
506.5
 30
0.0
 11
365.190286659
 21
502.5
 31
0.0
  0
LINE
  5
491
330
1F
100
AcDbEntity
  8
__2
  6
CONTINUOUS
 62
     6
100
AcDbLine
 10
366.2349787369998
 20
506.5
 30
0.0
 11
366.940286659
 21
502.5
 31
0.0
  0
LINE
  5
492
330
1F
100
AcDbEntity
  8
__2
  6
CONTINUOUS
 62
     6
100
AcDbLine
 10
367.9849787369998
 20
506.5
 30
0.0
 11
368.690286659
 21
502.5
 31
0.0
  0
LINE
  5
493
330
1F
100
AcDbEntity
  8
__2
  6
CONTINUOUS
 62
     6
100
AcDbLine
 10
369.7349787369998
 20
506.5
 30
0.0
 11
370.440286659
 21
502.5
 31
0.0
  0
LINE
  5
494
330
1F
100
AcDbEntity
  8
__2
  6
CONTINUOUS
 62
     6
100
AcDbLine
 10
371.4849787369998
 20
506.5
 30
0.0
 11
372.190286659
 21
502.5
 31
0.0
  0
LINE
  5
495
330
1F
100
AcDbEntity
  8
__2
  6
CONTINUOUS
 62
     6
100
AcDbLine
 10
373.2349787369998
 20
506.5
 30
0.0
 11
373.940286659
 21
502.5
 31
0.0
  0
LINE
  5
496
330
1F
100
AcDbEntity
  8
__2
  6
CONTINUOUS
 62
     6
100
AcDbLine
 10
374.9849787369998
 20
506.5
 30
0.0
 11
375.690286659
 21
502.5
 31
0.0
  0
LINE
  5
497
330
1F
100
AcDbEntity
  8
__2
  6
CONTINUOUS
 62
     6
100
AcDbLine
 10
376.7349787369998
 20
506.5
 30
0.0
 11
377.440286659
 21
502.5
 31
0.0
  0
LINE
  5
498
330
1F
100
AcDbEntity
  8
__2
  6
CONTINUOUS
 62
     6
100
AcDbLine
 10
378.4849787369998
 20
506.5
 30
0.0
 11
379.190286659
 21
502.5
 31
0.0
  0
LINE
  5
499
330
1F
100
AcDbEntity
  8
__2
  6
CONTINUOUS
 62
     6
100
AcDbLine
 10
385.4609677550443
 20
503.5030737921409
 30
0.0
 11
388.2
 21
504.5
 31
0.0
  0
ARC
  5
49A
330
1F
100
AcDbEntity
  8
__2
  6
CONTINUOUS
 62
     6
100
AcDbCircle
 10
382.0407663217878
 20
512.9
 30
0.0
 40
10.0
100
AcDbArc
 50
270.0000000000002
 51
289.999999999999
  0
LINE
  5
49B
330
1F
100
AcDbEntity
  8
__2
  6
CONTINUOUS
 62
     6
100
AcDbLine
 10
385.4609677550445
 20
505.496926207859
 30
0.0
 11
388.2
 21
504.4999999999999
 31
0.0
  0
ARC
  5
49C
330
1F
100
AcDbEntity
  8
__2
  6
CONTINUOUS
 62
     6
100
AcDbCircle
 10
382.0407663217877
 20
496.1
 30
0.0
 40
10.0
100
AcDbArc
 50
69.99999999999928
 51
90.00000000000004
  0
LINE
  5
49D
330
1F
100
AcDbEntity
  8
__2
  6
CONTINUOUS
 62
     6
100
AcDbLine
 10
380.2349787369998
 20
506.5
 30
0.0
 11
380.940286659
 21
502.5
 31
0.0
  0
LINE
  5
49E
330
1F
100
AcDbEntity
  8
__2
  6
CONTINUOUS
 62
     6
100
AcDbLine
 10
381.9849787369998
 20
506.5
 30
0.0
 11
382.690286659
 21
502.5
 31
0.0
  0
LINE
  5
49F
330
1F
100
AcDbEntity
  8
__2
  6
CONTINUOUS
 62
     6
100
AcDbLine
 10
383.7646355828027
 20
506.3318076693721
 30
0.0
 11
384.3926715559966
 21
502.7700386683214
 31
0.0
  0
LINE
  5
4A0
330
1F
100
AcDbEntity
  8
__2
  6
CONTINUOUS
 62
     6
100
AcDbLine
 10
385.6061645896912
 20
505.8127208760237
 30
0.0
 11
386.0495601495535
 21
503.2980996955056
 31
0.0
  0
LINE
  5
4A1
330
1F
100
AcDbEntity
  8
__2
  6
CONTINUOUS
 62
     6
100
AcDbLine
 10
387.4761778768175
 20
505.1320917018274
 30
0.0
 11
387.694022236046
 21
503.8966349463681
 31
0.0
  0
LINE
  5
4A2
330
1F
100
AcDbEntity
  8
__2
  6
CONTINUOUS
 62
     6
100
AcDbLine
 10
361.0
 20
506.1
 30
0.0
 11
382.0407663217877
 21
506.1
 31
0.0
  0
LINE
  5
4A3
330
1F
100
AcDbEntity
  8
__2
  6
CONTINUOUS
 62
     6
100
AcDbLine
 10
361.0
 20
502.9
 30
0.0
 11
382.0407663217878
 21
502.9
 31
0.0
  0
LINE
  5
4A4
330
1F
100
AcDbEntity
  8
__2
  6
CONTINUOUS
 62
     6
100
AcDbLine
 10
358.5000000000001
 20
500.5
 30
0.0
 11
358.5000000000001
 21
508.5
 31
0.0
  0
LINE
  5
4A5
330
1F
100
AcDbEntity
  8
__2
  6
CONTINUOUS
 62
     6
100
AcDbLine
 10
358.2
 20
500.5
 30
0.0
 11
358.5000000000001
 21
500.5
 31
0.0
  0
LINE
  5
4A6
330
1F
100
AcDbEntity
  8
__2
  6
CONTINUOUS
 62
     6
100
AcDbLine
 10
358.2
 20
508.5
 30
0.0
 11
358.5000000000008
 21
508.5
 31
0.0
  0
LINE
  5
4A7
330
1F
100
AcDbEntity
  8
__2
  6
CONTINUOUS
 62
     6
100
AcDbLine
 10
358.2
 20
508.5
 30
0.0
 11
358.2
 21
500.5
 31
0.0
  0
LINE
  5
4A8
330
1F
100
AcDbEntity
  8
__2
  6
CONTINUOUS
 62
     6
100
AcDbLine
 10
360.0
 20
507.0000000000008
 30
0.0
 11
358.5000000000001
 21
508.5000000000007
 31
0.0
  0
LINE
  5
4A9
330
1F
100
AcDbEntity
  8
__2
  6
CONTINUOUS
 62
     6
100
AcDbLine
 10
360.0
 20
501.9999999999992
 30
0.0
 11
358.5000000000001
 21
500.4999999999993
 31
0.0
  0
LEADER
  5
4AA
330
1F
100
AcDbEntity
  8
__2
  6
CONTINUOUS
 62
     6
100
AcDbLeader
  3
ISO-25
 76
     2
 10
382.8968456692
 20
506.06328902275
 30
0.0
 10
379.1
 20
521.9
 30
0.0
1001
ACAD
1000
DSTYLE
1002
{
1070
     5
1000
EX_NORM
1070
    41
1040
7.0
1070
   341
1005
4B
1002
}
  0
TEXT
  5
4AB
330
1F
100
AcDbEntity
  8
__2
  6
CONTINUOUS
 62
     2
100
AcDbText
 10
350.5705307922
 20
522.5999999999999
 30
0.0
 40
8.0
  1
４×３０
 41
1.186956519018049
  7
EXCADSTD
 72
     5
 11
381.7705307206744
 21
522.5999999999999
 31
0.0
100
AcDbText
  0
LINE
  5
4AC
330
1F
100
AcDbEntity
  8
__2
  6
CONTINUOUS
 62
     6
100
AcDbLine
 10
351.0705307922
 20
521.9000000000001
 30
0.0
 11
379.1
 21
521.9000000000001
 31
0.0
  0
ARC
  5
4AD
330
1F
100
AcDbEntity
  8
__2
  6
EXLTYPE2
 62
     6
100
AcDbCircle
 10
307.08
 20
126.0
 30
0.0
 40
2.0
100
AcDbArc
 50
0.0
 51
90.00000000000001
  0
ARC
  5
4AE
330
1F
100
AcDbEntity
  8
__2
  6
EXLTYPE2
 62
     6
100
AcDbCircle
 10
281.08
 20
126.0
 30
0.0
 40
2.0
100
AcDbArc
 50
90.00000000000001
 51
180.0
  0
LINE
  5
4AF
330
1F
100
AcDbEntity
  8
__2
  6
EXLTYPE2
 62
     6
100
AcDbLine
 10
307.08
 20
128.0
 30
0.0
 11
281.08
 21
128.0
 31
0.0
  0
LINE
  5
4B0
330
1F
100
AcDbEntity
  8
__2
  6
EXLTYPE2
 62
     6
100
AcDbLine
 10
279.0
 20
107.0
 30
0.0
 11
279.0
 21
126.28
 31
0.0
  0
LINE
  5
4B1
330
1F
100
AcDbEntity
  8
__2
  6
EXLTYPE2
 62
     6
100
AcDbLine
 10
309.0
 20
107.0
 30
0.0
 11
309.0
 21
126.56
 31
0.0
  0
CIRCLE
  5
4B2
330
1F
100
AcDbEntity
  8
__2
  6
EXLTYPE2
 62
     6
100
AcDbCircle
 10
293.96
 20
115.0
 30
0.0
 40
4.0
  0
LINE
  5
4B3
330
1F
100
AcDbEntity
  8
__2
  6
EXLTYPE2
 62
     6
100
AcDbLine
 10
293.5599999999999
 20
117.25
 30
0.0
 11
294.36
 21
117.25
 31
0.0
  0
LINE
  5
4B4
330
1F
100
AcDbEntity
  8
__2
  6
EXLTYPE2
 62
     6
100
AcDbLine
 10
293.5599999999999
 20
112.75
 30
0.0
 11
294.36
 21
112.75
 31
0.0
  0
LINE
  5
4B5
330
1F
100
AcDbEntity
  8
__2
  6
EXLTYPE2
 62
     6
100
AcDbLine
 10
291.71
 20
114.6
 30
0.0
 11
291.71
 21
115.4
 31
0.0
  0
LINE
  5
4B6
330
1F
100
AcDbEntity
  8
__2
  6
EXLTYPE2
 62
     6
100
AcDbLine
 10
296.21
 20
114.6
 30
0.0
 11
296.21
 21
115.4
 31
0.0
  0
LINE
  5
4B7
330
1F
100
AcDbEntity
  8
__2
  6
EXLTYPE2
 62
     6
100
AcDbLine
 10
291.71
 20
115.4
 30
0.0
 11
292.8063498889907
 21
115.4863498889941
 31
0.0
  0
LINE
  5
4B8
330
1F
100
AcDbEntity
  8
__2
  6
EXLTYPE2
 62
     6
100
AcDbLine
 10
293.5599999999999
 20
117.25
 30
0.0
 11
293.4736501110059
 21
116.1536501110094
 31
0.0
  0
LINE
  5
4B9
330
1F
100
AcDbEntity
  8
__2
  6
EXLTYPE2
 62
     6
100
AcDbLine
 10
292.8063498889907
 20
115.4863498889941
 30
0.0
 11
293.4736501110059
 21
116.1536501110094
 31
0.0
  0
LINE
  5
4BA
330
1F
100
AcDbEntity
  8
__2
  6
EXLTYPE2
 62
     6
100
AcDbLine
 10
293.4736501110058
 20
113.8463498889907
 30
0.0
 11
292.8063498889906
 21
114.5136501110059
 31
0.0
  0
LINE
  5
4BB
330
1F
100
AcDbEntity
  8
__2
  6
EXLTYPE2
 62
     6
100
AcDbLine
 10
295.1136501110093
 20
114.5136501110059
 30
0.0
 11
294.4463498889941
 21
113.8463498889906
 31
0.0
  0
LINE
  5
4BC
330
1F
100
AcDbEntity
  8
__2
  6
EXLTYPE2
 62
     6
100
AcDbLine
 10
294.4463498889941
 20
116.1536501110093
 30
0.0
 11
295.1136501110093
 21
115.4863498889941
 31
0.0
  0
LINE
  5
4BD
330
1F
100
AcDbEntity
  8
__2
  6
EXLTYPE2
 62
     6
100
AcDbLine
 10
291.71
 20
114.6
 30
0.0
 11
292.8063498889906
 21
114.5136501110059
 31
0.0
  0
LINE
  5
4BE
330
1F
100
AcDbEntity
  8
__2
  6
EXLTYPE2
 62
     6
100
AcDbLine
 10
293.5599999999999
 20
112.75
 30
0.0
 11
293.4736501110059
 21
113.8463498889907
 31
0.0
  0
LINE
  5
4BF
330
1F
100
AcDbEntity
  8
__2
  6
EXLTYPE2
 62
     6
100
AcDbLine
 10
294.36
 20
112.75
 30
0.0
 11
294.4463498889941
 21
113.8463498889906
 31
0.0
  0
LINE
  5
4C0
330
1F
100
AcDbEntity
  8
__2
  6
EXLTYPE2
 62
     6
100
AcDbLine
 10
296.21
 20
114.6
 30
0.0
 11
295.1136501110093
 21
114.5136501110059
 31
0.0
  0
LINE
  5
4C1
330
1F
100
AcDbEntity
  8
__2
  6
EXLTYPE2
 62
     6
100
AcDbLine
 10
296.21
 20
115.4
 30
0.0
 11
295.1136501110093
 21
115.4863498889941
 31
0.0
  0
LINE
  5
4C2
330
1F
100
AcDbEntity
  8
__2
  6
EXLTYPE2
 62
     6
100
AcDbLine
 10
294.36
 20
117.25
 30
0.0
 11
294.4463498889941
 21
116.1536501110093
 31
0.0
  0
CIRCLE
  5
4C3
330
1F
100
AcDbEntity
  8
__2
  6
CONTINUOUS
 62
     6
100
AcDbCircle
 10
359.36
 20
118.6
 30
0.0
 40
0.1414213562373
  0
LINE
  5
4C4
330
1F
100
AcDbEntity
  8
__2
  6
CONTINUOUS
 62
     6
100
AcDbLine
 10
358.5000000000001
 20
111.0
 30
0.0
 11
358.5000000000001
 21
119.0
 31
0.0
  0
LINE
  5
4C5
330
1F
100
AcDbEntity
  8
__2
  6
CONTINUOUS
 62
     6
100
AcDbLine
 10
358.2
 20
111.0
 30
0.0
 11
358.5000000000001
 21
111.0
 31
0.0
  0
LINE
  5
4C6
330
1F
100
AcDbEntity
  8
__2
  6
CONTINUOUS
 62
     6
100
AcDbLine
 10
358.2
 20
119.0
 30
0.0
 11
358.5000000000008
 21
119.0
 31
0.0
  0
LINE
  5
4C7
330
1F
100
AcDbEntity
  8
__2
  6
CONTINUOUS
 62
     6
100
AcDbLine
 10
360.9849787369998
 20
117.0
 30
0.0
 11
361.690286659
 21
113.0
 31
0.0
  0
LINE
  5
4C8
330
1F
100
AcDbEntity
  8
__2
  6
CONTINUOUS
 62
     6
100
AcDbLine
 10
362.7349787369998
 20
117.0
 30
0.0
 11
363.440286659
 21
113.0
 31
0.0
  0
LINE
  5
4C9
330
1F
100
AcDbEntity
  8
__2
  6
CONTINUOUS
 62
     6
100
AcDbLine
 10
364.4849787369998
 20
117.0
 30
0.0
 11
365.190286659
 21
113.0
 31
0.0
  0
LINE
  5
4CA
330
1F
100
AcDbEntity
  8
__2
  6
CONTINUOUS
 62
     6
100
AcDbLine
 10
366.2349787369998
 20
117.0
 30
0.0
 11
366.940286659
 21
113.0
 31
0.0
  0
LINE
  5
4CB
330
1F
100
AcDbEntity
  8
__2
  6
CONTINUOUS
 62
     6
100
AcDbLine
 10
367.9849787369998
 20
117.0
 30
0.0
 11
368.690286659
 21
113.0
 31
0.0
  0
LINE
  5
4CC
330
1F
100
AcDbEntity
  8
__2
  6
CONTINUOUS
 62
     6
100
AcDbLine
 10
369.7349787369998
 20
117.0
 30
0.0
 11
370.440286659
 21
113.0
 31
0.0
  0
LINE
  5
4CD
330
1F
100
AcDbEntity
  8
__2
  6
CONTINUOUS
 62
     6
100
AcDbLine
 10
371.4849787369998
 20
117.0
 30
0.0
 11
372.190286659
 21
113.0
 31
0.0
  0
LINE
  5
4CE
330
1F
100
AcDbEntity
  8
__2
  6
CONTINUOUS
 62
     6
100
AcDbLine
 10
373.2349787369998
 20
117.0
 30
0.0
 11
373.940286659
 21
113.0
 31
0.0
  0
LINE
  5
4CF
330
1F
100
AcDbEntity
  8
__2
  6
CONTINUOUS
 62
     6
100
AcDbLine
 10
374.9849787369998
 20
117.0
 30
0.0
 11
375.690286659
 21
113.0
 31
0.0
  0
LINE
  5
4D0
330
1F
100
AcDbEntity
  8
__2
  6
CONTINUOUS
 62
     6
100
AcDbLine
 10
376.7349787369998
 20
117.0
 30
0.0
 11
377.440286659
 21
113.0
 31
0.0
  0
LINE
  5
4D1
330
1F
100
AcDbEntity
  8
__2
  6
CONTINUOUS
 62
     6
100
AcDbLine
 10
378.4849787369998
 20
117.0
 30
0.0
 11
379.190286659
 21
113.0
 31
0.0
  0
LINE
  5
4D2
330
1F
100
AcDbEntity
  8
__2
  6
CONTINUOUS
 62
     6
100
AcDbLine
 10
385.4609677550443
 20
114.0030737921409
 30
0.0
 11
388.2
 21
115.0
 31
0.0
  0
ARC
  5
4D3
330
1F
100
AcDbEntity
  8
__2
  6
CONTINUOUS
 62
     6
100
AcDbCircle
 10
382.0407663217878
 20
123.4
 30
0.0
 40
10.0
100
AcDbArc
 50
270.0000000000002
 51
289.999999999999
  0
LINE
  5
4D4
330
1F
100
AcDbEntity
  8
__2
  6
CONTINUOUS
 62
     6
100
AcDbLine
 10
385.4609677550445
 20
115.996926207859
 30
0.0
 11
388.2
 21
114.9999999999999
 31
0.0
  0
ARC
  5
4D5
330
1F
100
AcDbEntity
  8
__2
  6
CONTINUOUS
 62
     6
100
AcDbCircle
 10
382.0407663217877
 20
106.6
 30
0.0
 40
10.0
100
AcDbArc
 50
69.99999999999916
 51
90.00000000000001
  0
LINE
  5
4D6
330
1F
100
AcDbEntity
  8
__2
  6
CONTINUOUS
 62
     6
100
AcDbLine
 10
380.2349787369998
 20
117.0
 30
0.0
 11
380.940286659
 21
113.0
 31
0.0
  0
LINE
  5
4D7
330
1F
100
AcDbEntity
  8
__2
  6
CONTINUOUS
 62
     6
100
AcDbLine
 10
381.9849787369998
 20
117.0
 30
0.0
 11
382.690286659
 21
113.0
 31
0.0
  0
LINE
  5
4D8
330
1F
100
AcDbEntity
  8
__2
  6
CONTINUOUS
 62
     6
100
AcDbLine
 10
383.7646355828027
 20
116.8318076693721
 30
0.0
 11
384.3926715559966
 21
113.2700386683214
 31
0.0
  0
LINE
  5
4D9
330
1F
100
AcDbEntity
  8
__2
  6
CONTINUOUS
 62
     6
100
AcDbLine
 10
385.6061645896912
 20
116.3127208760237
 30
0.0
 11
386.0495601495535
 21
113.7980996955056
 31
0.0
  0
LINE
  5
4DA
330
1F
100
AcDbEntity
  8
__2
  6
CONTINUOUS
 62
     6
100
AcDbLine
 10
387.4761778768175
 20
115.6320917018274
 30
0.0
 11
387.694022236046
 21
114.3966349463681
 31
0.0
  0
LINE
  5
4DB
330
1F
100
AcDbEntity
  8
__2
  6
CONTINUOUS
 62
     6
100
AcDbLine
 10
358.2
 20
119.0
 30
0.0
 11
358.2
 21
111.0
 31
0.0
  0
LINE
  5
4DC
330
1F
100
AcDbEntity
  8
__2
  6
CONTINUOUS
 62
     6
100
AcDbLine
 10
360.0
 20
117.5000000000008
 30
0.0
 11
358.5000000000001
 21
119.0000000000007
 31
0.0
  0
LINE
  5
4DD
330
1F
100
AcDbEntity
  8
__2
  6
CONTINUOUS
 62
     6
100
AcDbLine
 10
360.0
 20
112.4999999999992
 30
0.0
 11
358.5000000000001
 21
110.9999999999993
 31
0.0
  0
LINE
  5
4DE
330
1F
100
AcDbEntity
  8
__2
  6
CONTINUOUS
 62
     6
100
AcDbLine
 10
361.0
 20
116.6
 30
0.0
 11
382.0407663217877
 21
116.6
 31
0.0
  0
LINE
  5
4DF
330
1F
100
AcDbEntity
  8
__2
  6
CONTINUOUS
 62
     6
100
AcDbLine
 10
361.0
 20
113.4
 30
0.0
 11
382.0407663217878
 21
113.4
 31
0.0
  0
ARC
  5
4E0
330
1F
100
AcDbEntity
  8
__2
  6
CONTINUOUS
 62
     6
100
AcDbCircle
 10
95.0
 20
107.0
 30
0.0
 40
2.0
100
AcDbArc
 50
0.0
 51
90.00000000000001
  0
ARC
  5
4E1
330
1F
100
AcDbEntity
  8
__2
  6
CONTINUOUS
 62
     6
100
AcDbCircle
 10
69.0
 20
107.0
 30
0.0
 40
2.0
100
AcDbArc
 50
90.00000000000001
 51
180.0
  0
LINE
  5
4E2
330
1F
100
AcDbEntity
  8
__2
  6
CONTINUOUS
 62
     6
100
AcDbLine
 10
97.0
 20
101.0
 30
0.0
 11
67.0
 21
101.0
 31
0.0
  0
LINE
  5
4E3
330
1F
100
AcDbEntity
  8
__2
  6
CONTINUOUS
 62
     6
100
AcDbLine
 10
95.0
 20
109.0
 30
0.0
 11
69.0
 21
109.0
 31
0.0
  0
LINE
  5
4E4
330
1F
100
AcDbEntity
  8
__2
  6
CONTINUOUS
 62
     6
100
AcDbLine
 10
97.0
 20
101.0
 30
0.0
 11
97.0
 21
107.0
 31
0.0
  0
LINE
  5
4E5
330
1F
100
AcDbEntity
  8
__2
  6
CONTINUOUS
 62
     6
100
AcDbLine
 10
67.0
 20
101.0
 30
0.0
 11
67.0
 21
107.0
 31
0.0
  0
ARC
  5
4E6
330
1F
100
AcDbEntity
  8
__2
  6
EXLTYPE2
 62
     6
100
AcDbCircle
 10
95.07999999999998
 20
126.0
 30
0.0
 40
2.0
100
AcDbArc
 50
0.0
 51
90.00000000000001
  0
ARC
  5
4E7
330
1F
100
AcDbEntity
  8
__2
  6
EXLTYPE2
 62
     6
100
AcDbCircle
 10
69.07999999999998
 20
126.0
 30
0.0
 40
2.0
100
AcDbArc
 50
90.00000000000001
 51
180.0
  0
LINE
  5
4E8
330
1F
100
AcDbEntity
  8
__2
  6
EXLTYPE2
 62
     6
100
AcDbLine
 10
95.07999999999998
 20
128.0
 30
0.0
 11
69.07999999999998
 21
128.0
 31
0.0
  0
LINE
  5
4E9
330
1F
100
AcDbEntity
  8
__2
  6
EXLTYPE2
 62
     6
100
AcDbLine
 10
67.0
 20
107.0
 30
0.0
 11
67.0
 21
126.28
 31
0.0
  0
LINE
  5
4EA
330
1F
100
AcDbEntity
  8
__2
  6
EXLTYPE2
 62
     6
100
AcDbLine
 10
97.0
 20
107.0
 30
0.0
 11
97.0
 21
126.56
 31
0.0
  0
CIRCLE
  5
4EB
330
1F
100
AcDbEntity
  8
__2
  6
EXLTYPE2
 62
     6
100
AcDbCircle
 10
81.95999999999998
 20
115.0
 30
0.0
 40
4.0
  0
LINE
  5
4EC
330
1F
100
AcDbEntity
  8
__2
  6
EXLTYPE2
 62
     6
100
AcDbLine
 10
81.55999999999995
 20
117.25
 30
0.0
 11
82.36000000000001
 21
117.25
 31
0.0
  0
LINE
  5
4ED
330
1F
100
AcDbEntity
  8
__2
  6
EXLTYPE2
 62
     6
100
AcDbLine
 10
81.55999999999995
 20
112.75
 30
0.0
 11
82.36000000000001
 21
112.75
 31
0.0
  0
LINE
  5
4EE
330
1F
100
AcDbEntity
  8
__2
  6
EXLTYPE2
 62
     6
100
AcDbLine
 10
79.70999999999998
 20
114.6
 30
0.0
 11
79.70999999999998
 21
115.4
 31
0.0
  0
LINE
  5
4EF
330
1F
100
AcDbEntity
  8
__2
  6
EXLTYPE2
 62
     6
100
AcDbLine
 10
84.20999999999998
 20
114.6
 30
0.0
 11
84.20999999999998
 21
115.4
 31
0.0
  0
LINE
  5
4F0
330
1F
100
AcDbEntity
  8
__2
  6
EXLTYPE2
 62
     6
100
AcDbLine
 10
79.70999999999998
 20
115.4
 30
0.0
 11
80.80634988899067
 21
115.4863498889941
 31
0.0
  0
LINE
  5
4F1
330
1F
100
AcDbEntity
  8
__2
  6
EXLTYPE2
 62
     6
100
AcDbLine
 10
81.55999999999995
 20
117.25
 30
0.0
 11
81.4736501110059
 21
116.1536501110094
 31
0.0
  0
LINE
  5
4F2
330
1F
100
AcDbEntity
  8
__2
  6
EXLTYPE2
 62
     6
100
AcDbLine
 10
80.80634988899067
 20
115.4863498889941
 30
0.0
 11
81.4736501110059
 21
116.1536501110094
 31
0.0
  0
LINE
  5
4F3
330
1F
100
AcDbEntity
  8
__2
  6
EXLTYPE2
 62
     6
100
AcDbLine
 10
81.47365011100584
 20
113.8463498889907
 30
0.0
 11
80.80634988899061
 21
114.5136501110059
 31
0.0
  0
LINE
  5
4F4
330
1F
100
AcDbEntity
  8
__2
  6
EXLTYPE2
 62
     6
100
AcDbLine
 10
83.11365011100929
 20
114.5136501110059
 30
0.0
 11
82.44634988899406
 21
113.8463498889906
 31
0.0
  0
LINE
  5
4F5
330
1F
100
AcDbEntity
  8
__2
  6
EXLTYPE2
 62
     6
100
AcDbLine
 10
82.44634988899412
 20
116.1536501110093
 30
0.0
 11
83.11365011100935
 21
115.4863498889941
 31
0.0
  0
LINE
  5
4F6
330
1F
100
AcDbEntity
  8
__2
  6
EXLTYPE2
 62
     6
100
AcDbLine
 10
79.70999999999998
 20
114.6
 30
0.0
 11
80.80634988899061
 21
114.5136501110059
 31
0.0
  0
LINE
  5
4F7
330
1F
100
AcDbEntity
  8
__2
  6
EXLTYPE2
 62
     6
100
AcDbLine
 10
81.55999999999995
 20
112.75
 30
0.0
 11
81.4736501110059
 21
113.8463498889907
 31
0.0
  0
LINE
  5
4F8
330
1F
100
AcDbEntity
  8
__2
  6
EXLTYPE2
 62
     6
100
AcDbLine
 10
82.36000000000001
 20
112.75
 30
0.0
 11
82.44634988899406
 21
113.8463498889906
 31
0.0
  0
LINE
  5
4F9
330
1F
100
AcDbEntity
  8
__2
  6
EXLTYPE2
 62
     6
100
AcDbLine
 10
84.20999999999998
 20
114.6
 30
0.0
 11
83.11365011100929
 21
114.5136501110059
 31
0.0
  0
LINE
  5
4FA
330
1F
100
AcDbEntity
  8
__2
  6
EXLTYPE2
 62
     6
100
AcDbLine
 10
84.20999999999998
 20
115.4
 30
0.0
 11
83.11365011100935
 21
115.4863498889941
 31
0.0
  0
LINE
  5
4FB
330
1F
100
AcDbEntity
  8
__2
  6
EXLTYPE2
 62
     6
100
AcDbLine
 10
82.36000000000001
 20
117.25
 30
0.0
 11
82.44634988899406
 21
116.1536501110093
 31
0.0
  0
ARC
  5
4FC
330
1F
100
AcDbEntity
  8
__2
  6
EXLTYPE2
 62
     6
100
AcDbCircle
 10
307.0
 20
487.02
 30
0.0
 40
2.0
100
AcDbArc
 50
270.0000000000002
 51
0.0
  0
ARC
  5
4FD
330
1F
100
AcDbEntity
  8
__2
  6
EXLTYPE2
 62
     6
100
AcDbCircle
 10
281.0
 20
487.02
 30
0.0
 40
2.0
100
AcDbArc
 50
180.0
 51
270.0000000000002
  0
LINE
  5
4FE
330
1F
100
AcDbEntity
  8
__2
  6
EXLTYPE2
 62
     6
100
AcDbLine
 10
307.0
 20
485.02
 30
0.0
 11
281.0
 21
485.02
 31
0.0
  0
LINE
  5
4FF
330
1F
100
AcDbEntity
  8
__2
  6
CONTINUOUS
 62
     6
100
AcDbLine
 10
357.0
 20
128.0
 30
0.0
 11
361.0
 21
128.0
 31
0.0
  0
CIRCLE
  5
500
330
1F
100
AcDbEntity
  8
__2
  6
CONTINUOUS
 62
     6
100
AcDbCircle
 10
359.18
 20
127.5
 30
0.0
 40
0.1414213562373
  0
CIRCLE
  5
501
330
1F
100
AcDbEntity
  8
__2
  6
CONTINUOUS
 62
     6
100
AcDbCircle
 10
357.94
 20
126.88
 30
0.0
 40
0.1414213562373
  0
CIRCLE
  5
502
330
1F
100
AcDbEntity
  8
__2
  6
CONTINUOUS
 62
     6
100
AcDbCircle
 10
359.06
 20
125.98
 30
0.0
 40
0.1414213562373
  0
CIRCLE
  5
503
330
1F
100
AcDbEntity
  8
__2
  6
CONTINUOUS
 62
     6
100
AcDbCircle
 10
358.08
 20
125.4
 30
0.0
 40
0.1414213562373
  0
LINE
  5
504
330
1F
100
AcDbEntity
  8
__2
  6
CONTINUOUS
 62
     6
100
AcDbLine
 10
360.0
 20
102.0
 30
0.0
 11
360.0
 21
128.0
 31
0.0
  0
LINE
  5
505
330
1F
100
AcDbEntity
  8
__2
  6
CONTINUOUS
 62
     6
100
AcDbLine
 10
361.0
 20
102.0
 30
0.0
 11
361.0
 21
128.0
 31
0.0
  0
LINE
  5
506
330
1F
100
AcDbEntity
  8
__2
  6
CONTINUOUS
 62
     6
100
AcDbLine
 10
357.0
 20
485.02
 30
0.0
 11
361.0
 21
485.02
 31
0.0
  0
CIRCLE
  5
507
330
1F
100
AcDbEntity
  8
__2
  6
CONTINUOUS
 62
     6
100
AcDbCircle
 10
358.29131971803
 20
485.4636245075499
 30
0.0
 40
0.1414213562373
  0
LINE
  5
508
330
1F
100
AcDbEntity
  8
__2
  6
CONTINUOUS
 62
     6
100
AcDbLine
 10
360.0
 20
511.0
 30
0.0
 11
360.0
 21
485.02
 31
0.0
  0
LINE
  5
509
330
1F
100
AcDbEntity
  8
__2
  6
CONTINUOUS
 62
     6
100
AcDbLine
 10
361.0
 20
511.0
 30
0.0
 11
361.0
 21
485.02
 31
0.0
  0
ARC
  5
50A
330
1F
100
AcDbEntity
  8
__2
  6
EXLTYPE2
 62
     6
100
AcDbCircle
 10
294.0
 20
490.52
 30
0.0
 40
2.5
100
AcDbArc
 50
180.0
 51
0.0
  0
ARC
  5
50B
330
1F
100
AcDbEntity
  8
__2
  6
CONTINUOUS
 62
     6
100
AcDbCircle
 10
94.99999999999996
 20
506.0
 30
0.0
 40
2.0
100
AcDbArc
 50
270.0000000000002
 51
0.0
  0
ARC
  5
50C
330
1F
100
AcDbEntity
  8
__2
  6
CONTINUOUS
 62
     6
100
AcDbCircle
 10
68.99999999999996
 20
506.0
 30
0.0
 40
2.0
100
AcDbArc
 50
180.0
 51
270.0000000000002
  0
LINE
  5
50D
330
1F
100
AcDbEntity
  8
__2
  6
CONTINUOUS
 62
     6
100
AcDbLine
 10
96.99999999999996
 20
512.0
 30
0.0
 11
66.99999999999996
 21
512.0
 31
0.0
  0
LINE
  5
50E
330
1F
100
AcDbEntity
  8
__2
  6
CONTINUOUS
 62
     6
100
AcDbLine
 10
94.99999999999996
 20
504.0
 30
0.0
 11
68.99999999999996
 21
504.0
 31
0.0
  0
LINE
  5
50F
330
1F
100
AcDbEntity
  8
__2
  6
CONTINUOUS
 62
     6
100
AcDbLine
 10
96.99999999999996
 20
512.0
 30
0.0
 11
96.99999999999996
 21
506.0
 31
0.0
  0
LINE
  5
510
330
1F
100
AcDbEntity
  8
__2
  6
CONTINUOUS
 62
     6
100
AcDbLine
 10
66.99999999999996
 20
512.0
 30
0.0
 11
66.99999999999996
 21
506.0
 31
0.0
  0
CIRCLE
  5
511
330
1F
100
AcDbEntity
  8
__2
  6
EXLTYPE2
 62
     6
100
AcDbCircle
 10
81.99999999999996
 20
504.5
 30
0.0
 40
4.0
  0
LINE
  5
512
330
1F
100
AcDbEntity
  8
__2
  6
EXLTYPE2
 62
     6
100
AcDbLine
 10
79.49999999999996
 20
491.5
 30
0.0
 11
79.49999999999996
 21
501.3775010008007
 31
0.0
  0
LINE
  5
513
330
1F
100
AcDbEntity
  8
__2
  6
EXLTYPE2
 62
     6
100
AcDbLine
 10
84.49999999999996
 20
491.5
 30
0.0
 11
84.49999999999996
 21
501.3775010008007
 31
0.0
  0
LINE
  5
514
330
1F
100
AcDbEntity
  8
__2
  6
EXLTYPE2
 62
     6
100
AcDbLine
 10
81.59999999999992
 20
506.75
 30
0.0
 11
82.39999999999999
 21
506.75
 31
0.0
  0
LINE
  5
515
330
1F
100
AcDbEntity
  8
__2
  6
EXLTYPE2
 62
     6
100
AcDbLine
 10
81.59999999999992
 20
502.25
 30
0.0
 11
82.39999999999999
 21
502.25
 31
0.0
  0
LINE
  5
516
330
1F
100
AcDbEntity
  8
__2
  6
EXLTYPE2
 62
     6
100
AcDbLine
 10
79.74999999999996
 20
504.1
 30
0.0
 11
79.74999999999996
 21
504.9
 31
0.0
  0
LINE
  5
517
330
1F
100
AcDbEntity
  8
__2
  6
EXLTYPE2
 62
     6
100
AcDbLine
 10
84.24999999999996
 20
504.1
 30
0.0
 11
84.24999999999996
 21
504.9
 31
0.0
  0
LINE
  5
518
330
1F
100
AcDbEntity
  8
__2
  6
EXLTYPE2
 62
     6
100
AcDbLine
 10
79.74999999999996
 20
504.9
 30
0.0
 11
80.84634988899064
 21
504.9863498889941
 31
0.0
  0
LINE
  5
519
330
1F
100
AcDbEntity
  8
__2
  6
EXLTYPE2
 62
     6
100
AcDbLine
 10
81.59999999999992
 20
506.75
 30
0.0
 11
81.51365011100587
 21
505.6536501110094
 31
0.0
  0
LINE
  5
51A
330
1F
100
AcDbEntity
  8
__2
  6
EXLTYPE2
 62
     6
100
AcDbLine
 10
80.84634988899064
 20
504.9863498889941
 30
0.0
 11
81.51365011100587
 21
505.6536501110094
 31
0.0
  0
LINE
  5
51B
330
1F
100
AcDbEntity
  8
__2
  6
EXLTYPE2
 62
     6
100
AcDbLine
 10
81.51365011100582
 20
503.3463498889907
 30
0.0
 11
80.84634988899059
 21
504.0136501110059
 31
0.0
  0
LINE
  5
51C
330
1F
100
AcDbEntity
  8
__2
  6
EXLTYPE2
 62
     6
100
AcDbLine
 10
83.15365011100927
 20
504.0136501110059
 30
0.0
 11
82.48634988899404
 21
503.3463498889906
 31
0.0
  0
LINE
  5
51D
330
1F
100
AcDbEntity
  8
__2
  6
EXLTYPE2
 62
     6
100
AcDbLine
 10
82.4863498889941
 20
505.6536501110093
 30
0.0
 11
83.15365011100933
 21
504.9863498889941
 31
0.0
  0
LINE
  5
51E
330
1F
100
AcDbEntity
  8
__2
  6
EXLTYPE2
 62
     6
100
AcDbLine
 10
79.74999999999996
 20
504.1
 30
0.0
 11
80.84634988899059
 21
504.0136501110059
 31
0.0
  0
LINE
  5
51F
330
1F
100
AcDbEntity
  8
__2
  6
EXLTYPE2
 62
     6
100
AcDbLine
 10
81.59999999999992
 20
502.25
 30
0.0
 11
81.51365011100587
 21
503.3463498889907
 31
0.0
  0
LINE
  5
520
330
1F
100
AcDbEntity
  8
__2
  6
EXLTYPE2
 62
     6
100
AcDbLine
 10
82.39999999999999
 20
502.25
 30
0.0
 11
82.48634988899404
 21
503.3463498889906
 31
0.0
  0
LINE
  5
521
330
1F
100
AcDbEntity
  8
__2
  6
EXLTYPE2
 62
     6
100
AcDbLine
 10
84.24999999999996
 20
504.1
 30
0.0
 11
83.15365011100927
 21
504.0136501110059
 31
0.0
  0
LINE
  5
522
330
1F
100
AcDbEntity
  8
__2
  6
EXLTYPE2
 62
     6
100
AcDbLine
 10
84.24999999999996
 20
504.9
 30
0.0
 11
83.15365011100933
 21
504.9863498889941
 31
0.0
  0
LINE
  5
523
330
1F
100
AcDbEntity
  8
__2
  6
EXLTYPE2
 62
     6
100
AcDbLine
 10
82.39999999999999
 20
506.75
 30
0.0
 11
82.48634988899404
 21
505.6536501110093
 31
0.0
  0
ARC
  5
524
330
1F
100
AcDbEntity
  8
__2
  6
EXLTYPE2
 62
     6
100
AcDbCircle
 10
94.99999999999996
 20
487.02
 30
0.0
 40
2.0
100
AcDbArc
 50
270.0000000000002
 51
0.0
  0
ARC
  5
525
330
1F
100
AcDbEntity
  8
__2
  6
EXLTYPE2
 62
     6
100
AcDbCircle
 10
68.99999999999996
 20
487.02
 30
0.0
 40
2.0
100
AcDbArc
 50
180.0
 51
270.0000000000002
  0
LINE
  5
526
330
1F
100
AcDbEntity
  8
__2
  6
EXLTYPE2
 62
     6
100
AcDbLine
 10
94.99999999999996
 20
485.02
 30
0.0
 11
68.99999999999996
 21
485.02
 31
0.0
  0
ARC
  5
527
330
1F
100
AcDbEntity
  8
__2
  6
EXLTYPE2
 62
     6
100
AcDbCircle
 10
81.99999999999996
 20
490.52
 30
0.0
 40
2.5
100
AcDbArc
 50
180.0
 51
0.0
  0
LINE
  5
528
330
1F
100
AcDbEntity
  8
__2
  6
EXLTYPE2
 62
     6
100
AcDbLine
 10
96.99999999999996
 20
506.0
 30
0.0
 11
96.99999999999996
 21
487.02
 31
0.0
  0
LINE
  5
529
330
1F
100
AcDbEntity
  8
__2
  6
EXLTYPE2
 62
     6
100
AcDbLine
 10
66.99999999999996
 20
506.0
 30
0.0
 11
66.99999999999996
 21
487.02
 31
0.0
  0
LINE
  5
52A
330
1F
100
AcDbEntity
  8
__2
  6
CONTINUOUS
 62
     7
100
AcDbLine
 10
186.5566410043886
 20
105.0
 30
0.0
 11
248.9
 21
104.999999999998
 31
0.0
  0
LINE
  5
52B
330
1F
100
AcDbEntity
  8
__2
  6
CONTINUOUS
 62
     7
100
AcDbLine
 10
273.66
 20
105.0
 30
0.0
 11
278.7
 21
105.0
 31
0.0
  0
TEXT
  5
52C
330
1F
100
AcDbEntity
  8
LAY-3
  6
CONTINUOUS
 62
     2
100
AcDbText
 10
266.300000011921
 20
503.5
 30
0.0
 40
8.0
  1
８
 50
90.0
 41
1.259999999999998
  7
EXCADSTD
 72
     5
 11
266.300000011921
 21
510.7
 31
0.0
100
AcDbText
  0
LINE
  5
52D
330
1F
100
AcDbEntity
  8
LAY-3
  6
CONTINUOUS
 62
     3
100
AcDbLine
 10
267.0000000000001
 20
521.0
 30
0.0
 11
267.0000000000001
 21
495.0
 31
0.0
  0
LINE
  5
52E
330
1F
100
AcDbEntity
  8
LAY-3
  6
CONTINUOUS
 62
     3
100
AcDbLine
 10
265.8333333333333
 20
519.0
 30
0.0
 11
267.0
 21
512.0
 31
0.0
  0
LINE
  5
52F
330
1F
100
AcDbEntity
  8
LAY-3
  6
CONTINUOUS
 62
     3
100
AcDbLine
 10
267.0
 20
512.0
 30
0.0
 11
268.1666666666667
 21
519.0
 31
0.0
  0
LINE
  5
530
330
1F
100
AcDbEntity
  8
LAY-3
  6
CONTINUOUS
 62
     3
100
AcDbLine
 10
268.1666666666667
 20
497.0
 30
0.0
 11
267.0
 21
504.0
 31
0.0
  0
LINE
  5
531
330
1F
100
AcDbEntity
  8
LAY-3
  6
CONTINUOUS
 62
     3
100
AcDbLine
 10
267.0
 20
504.0
 30
0.0
 11
265.8333333333333
 21
497.0
 31
0.0
  0
TEXT
  5
532
330
1F
100
AcDbEntity
  8
LAY-3
  6
CONTINUOUS
 62
     2
100
AcDbText
 10
285.8000000119209
 20
462.099999988079
 30
0.0
 40
8.0
  1
３０
 41
1.195746361898021
  7
EXCADSTD
 72
     5
 11
300.8322399900675
 21
462.099999988079
 31
0.0
100
AcDbText
  0
LINE
  5
533
330
1F
100
AcDbEntity
  8
LAY-3
  6
CONTINUOUS
 62
     3
100
AcDbLine
 10
279.0
 20
461.4
 30
0.0
 11
309.0
 21
461.4
 31
0.0
  0
LINE
  5
534
330
1F
100
AcDbEntity
  8
LAY-3
  6
CONTINUOUS
 62
     3
100
AcDbLine
 10
286.0
 20
462.5666666666667
 30
0.0
 11
279.0
 21
461.4
 31
0.0
  0
LINE
  5
535
330
1F
100
AcDbEntity
  8
LAY-3
  6
CONTINUOUS
 62
     3
100
AcDbLine
 10
279.0
 20
461.4
 30
0.0
 11
286.0
 21
460.2333333333333
 31
0.0
  0
LINE
  5
536
330
1F
100
AcDbEntity
  8
LAY-3
  6
CONTINUOUS
 62
     3
100
AcDbLine
 10
302.0
 20
460.2333333333333
 30
0.0
 11
309.0
 21
461.4
 31
0.0
  0
LINE
  5
537
330
1F
100
AcDbEntity
  8
LAY-3
  6
CONTINUOUS
 62
     3
100
AcDbLine
 10
309.0
 20
461.4
 30
0.0
 11
302.0
 21
462.5666666666667
 31
0.0
  0
TEXT
  5
538
330
1F
100
AcDbEntity
  8
LAY-3
  6
CONTINUOUS
 62
     2
100
AcDbText
 10
176.1000000238419
 20
523.6999999880791
 30
0.0
 40
8.0
  1
３０５
 41
1.224999997545691
  7
EXCADSTD
 72
     5
 11
199.8999999761582
 21
523.6999999880791
 31
0.0
100
AcDbText
  0
LINE
  5
539
330
1F
100
AcDbEntity
  8
LAY-3
  6
CONTINUOUS
 62
     3
100
AcDbLine
 10
54.00000000000004
 20
523.0
 30
0.0
 11
322.0000000000001
 21
523.0
 31
0.0
  0
LINE
  5
53A
330
1F
100
AcDbEntity
  8
LAY-3
  6
CONTINUOUS
 62
     3
100
AcDbLine
 10
61.0
 20
524.1666666666666
 30
0.0
 11
54.0
 21
523.0
 31
0.0
  0
LINE
  5
53B
330
1F
100
AcDbEntity
  8
LAY-3
  6
CONTINUOUS
 62
     3
100
AcDbLine
 10
54.0
 20
523.0
 30
0.0
 11
61.0
 21
521.8333333333334
 31
0.0
  0
LINE
  5
53C
330
1F
100
AcDbEntity
  8
LAY-3
  6
CONTINUOUS
 62
     3
100
AcDbLine
 10
315.0
 20
521.8333333333334
 30
0.0
 11
322.0
 21
523.0
 31
0.0
  0
LINE
  5
53D
330
1F
100
AcDbEntity
  8
LAY-3
  6
CONTINUOUS
 62
     3
100
AcDbLine
 10
322.0
 20
523.0
 30
0.0
 11
315.0
 21
524.1666666666666
 31
0.0
  0
TEXT
  5
53E
330
1F
100
AcDbEntity
  8
LAY-3
  6
CONTINUOUS
 62
     2
100
AcDbText
 10
363.2
 20
274.6999999881
 30
0.0
 40
8.0
  1
５
 41
1.259999999999998
  7
EXCADSTD
 72
     5
 11
370.4
 21
274.6999999881
 31
0.0
100
AcDbText
  0
LINE
  5
53F
330
1F
100
AcDbEntity
  8
LAY-3
  6
CONTINUOUS
 62
     3
100
AcDbLine
 10
343.0
 20
274.0
 30
0.0
 11
369.8999996185303
 21
274.0
 31
0.0
  0
LINE
  5
540
330
1F
100
AcDbEntity
  8
LAY-3
  6
CONTINUOUS
 62
     3
100
AcDbLine
 10
345.0
 20
272.8333333333333
 30
0.0
 11
352.0
 21
274.0
 31
0.0
  0
LINE
  5
541
330
1F
100
AcDbEntity
  8
LAY-3
  6
CONTINUOUS
 62
     3
100
AcDbLine
 10
352.0
 20
274.0
 30
0.0
 11
345.0
 21
275.1666666666667
 31
0.0
  0
LINE
  5
542
330
1F
100
AcDbEntity
  8
LAY-3
  6
CONTINUOUS
 62
     3
100
AcDbLine
 10
364.0
 20
275.1666666666667
 30
0.0
 11
357.0
 21
274.0
 31
0.0
  0
LINE
  5
543
330
1F
100
AcDbEntity
  8
LAY-3
  6
CONTINUOUS
 62
     3
100
AcDbLine
 10
357.0
 20
274.0
 30
0.0
 11
364.0
 21
272.8333333333333
 31
0.0
  0
TEXT
  5
544
330
1F
100
AcDbEntity
  8
LAY-3
  6
CONTINUOUS
 62
     2
100
AcDbText
 10
337.3000000119209
 20
296.1000000238419
 30
0.0
 40
8.0
  1
４０６
 50
90.0
 41
1.224999997545691
  7
EXCADSTD
 72
     5
 11
337.3000000119209
 21
319.8999999761581
 31
0.0
100
AcDbText
  0
LINE
  5
545
330
1F
100
AcDbEntity
  8
LAY-3
  6
CONTINUOUS
 62
     3
100
AcDbLine
 10
338.0000000000001
 20
511.0
 30
0.0
 11
338.0
 21
105.0
 31
0.0
  0
LINE
  5
546
330
1F
100
AcDbEntity
  8
LAY-3
  6
CONTINUOUS
 62
     3
100
AcDbLine
 10
339.1666666666667
 20
504.0
 30
0.0
 11
338.0
 21
511.0
 31
0.0
  0
LINE
  5
547
330
1F
100
AcDbEntity
  8
LAY-3
  6
CONTINUOUS
 62
     3
100
AcDbLine
 10
338.0
 20
511.0
 30
0.0
 11
336.8333333333333
 21
504.0
 31
0.0
  0
LINE
  5
548
330
1F
100
AcDbEntity
  8
LAY-3
  6
CONTINUOUS
 62
     3
100
AcDbLine
 10
336.8333333333333
 20
112.0
 30
0.0
 11
338.0
 21
105.0
 31
0.0
  0
LINE
  5
549
330
1F
100
AcDbEntity
  8
LAY-3
  6
CONTINUOUS
 62
     3
100
AcDbLine
 10
338.0
 20
105.0
 30
0.0
 11
339.1666666666667
 21
112.0
 31
0.0
  0
LINE
  5
54A
330
1F
100
AcDbEntity
  8
LAY-3
  6
CONTINUOUS
 62
     6
100
AcDbLine
 10
294.0
 20
499.1
 30
0.0
 11
294.0
 21
510.5
 31
0.0
  0
LINE
  5
54B
330
1F
100
AcDbEntity
  8
LAY-3
  6
CONTINUOUS
 62
     6
100
AcDbLine
 10
294.0
 20
487.0
 30
0.0
 11
294.0
 21
492.7
 31
0.0
  0
LINE
  5
54C
330
1F
100
AcDbEntity
  8
LAY-3
  6
CONTINUOUS
 62
     6
100
AcDbLine
 10
294.0
 20
495.1
 30
0.0
 11
294.0
 21
496.7
 31
0.0
  0
LINE
  5
54D
330
1F
100
AcDbEntity
  8
LAY-3
  6
CONTINUOUS
 62
     6
100
AcDbLine
 10
294.0
 20
112.6
 30
0.0
 11
294.0
 21
114.2
 31
0.0
  0
LINE
  5
54E
330
1F
100
AcDbEntity
  8
LAY-3
  6
CONTINUOUS
 62
     6
100
AcDbLine
 10
82.0
 20
112.6
 30
0.0
 11
82.0
 21
114.2
 31
0.0
  0
LINE
  5
54F
330
1F
100
AcDbEntity
  8
LAY-3
  6
CONTINUOUS
 62
     6
100
AcDbLine
 10
81.99999999999996
 20
499.1
 30
0.0
 11
81.99999999999996
 21
510.5
 31
0.0
  0
LINE
  5
550
330
1F
100
AcDbEntity
  8
LAY-3
  6
CONTINUOUS
 62
     6
100
AcDbLine
 10
81.99999999999996
 20
487.0
 30
0.0
 11
81.99999999999996
 21
492.7
 31
0.0
  0
LINE
  5
551
330
1F
100
AcDbEntity
  8
LAY-3
  6
CONTINUOUS
 62
     6
100
AcDbLine
 10
81.99999999999996
 20
495.1
 30
0.0
 11
81.99999999999996
 21
496.7
 31
0.0
  0
LINE
  5
552
330
1F
100
AcDbEntity
  8
LAY-3
  6
CONTINUOUS
 62
     6
100
AcDbLine
 10
82.0
 20
116.6
 30
0.0
 11
82.0
 21
120.8
 31
0.0
  0
LINE
  5
553
330
1F
100
AcDbEntity
  8
LAY-3
  6
CONTINUOUS
 62
     6
100
AcDbLine
 10
82.0
 20
106.6
 30
0.0
 11
82.0
 21
110.2
 31
0.0
  0
LINE
  5
554
330
1F
100
AcDbEntity
  8
LAY-3
  6
CONTINUOUS
 62
     6
100
AcDbLine
 10
294.0
 20
107.0
 30
0.0
 11
294.0
 21
110.2
 31
0.0
  0
LINE
  5
555
330
1F
100
AcDbEntity
  8
LAY-3
  6
CONTINUOUS
 62
     6
100
AcDbLine
 10
294.0
 20
116.6
 30
0.0
 11
294.0
 21
122.0
 31
0.0
  0
ENDSEC
  0
SECTION
  2
OBJECTS
  0
DICTIONARY
  5
C
330
0
100
AcDbDictionary
  3
ACAD_GROUP
350
D
  3
ACAD_LAYOUT
350
1A
  3
ACAD_MATERIAL
350
3B
  3
ACAD_MLEADERSTYLE
350
578
  3
ACAD_MLINESTYLE
350
17
  3
ACAD_PLOTSETTINGS
350
19
  3
ACAD_VISUALSTYLE
350
2A
  3
ACDBHEADERROUNDTRIPXREC
350
556
  3
ACDBVARIABLEDICTIONARY
350
576
  0
DICTIONARY
  5
D
102
{ACAD_REACTORS
330
C
102
}
330
C
100
AcDbDictionary
  0
DICTIONARY
  5
1A
102
{ACAD_REACTORS
330
C
102
}
330
C
100
AcDbDictionary
  0
DICTIONARY
  5
3B
102
{ACAD_REACTORS
330
C
102
}
330
C
100
AcDbDictionary
  3
BYBLOCK
350
3D
  3
BYLAYER
350
3C
  3
GLOBAL
350
3E
  0
DICTIONARY
  5
578
102
{ACAD_REACTORS
330
C
102
}
330
C
100
AcDbDictionary
  0
DICTIONARY
  5
17
102
{ACAD_REACTORS
330
C
102
}
330
C
100
AcDbDictionary
  3
STANDARD
350
18
  0
DICTIONARY
  5
19
102
{ACAD_REACTORS
330
C
102
}
330
C
100
AcDbDictionary
  0
DICTIONARY
  5
2A
102
{ACAD_REACTORS
330
C
102
}
330
C
100
AcDbDictionary
  3
2DWIREFRAME
350
2F
  3
3D_HIDDEN
350
31
  3
3DWIREFRAME
350
30
  3
BASIC
350
32
  3
BRIGHTEN
350
36
  3
COLORCHANGE
350
3A
  3
CONCEPTUAL
350
34
  3
DIM
350
35
  3
FACEPATTERN
350
39
  3
FLAT
350
2B
  3
FLATWITHEDGES
350
2C
  3
GOURAUD
350
2D
  3
GOURAUDWITHEDGES
350
2E
  3
LINEPATTERN
350
38
  3
REALISTIC
350
33
  3
THICKEN
350
37
  0
DICTIONARY
  5
556
102
{ACAD_REACTORS
330
C
102
}
330
C
100
AcDbDictionary
  3
CEPSNTYPE
350
55F
  3
DIMSTYLEDATA
350
575
  3
FINGERPRINTGUID
350
560
  3
HYPERLINKBASE
350
559
  3
INSUNITS
350
55E
  3
LAYOUTDICT
350
55B
  3
LWETCUNION
350
55D
  3
PLOTSETDICT
350
55C
  3
PSVPSCALE
350
562
  3
PUCSBASE
350
565
  3
PUCSORGBACK
350
56B
  3
PUCSORGBOTTOM
350
567
  3
PUCSORGFRONT
350
56A
  3
PUCSORGLEFT
350
568
  3
PUCSORGRIGHT
350
569
  3
PUCSORGTOP
350
566
  3
PUCSORTHOREF
350
563
  3
PUCSORTHOVIEW
350
564
  3
STYLESHEET
350
55A
  3
TSTACKALIGN
350
557
  3
TSTACKSIZE
350
558
  3
UCSBASE
350
56E
  3
UCSORGBACK
350
574
  3
UCSORGBOTTOM
350
570
  3
UCSORGFRONT
350
573
  3
UCSORGLEFT
350
571
  3
UCSORGRIGHT
350
572
  3
UCSORGTOP
350
56F
  3
UCSORTHOREF
350
56C
  3
UCSORTHOVIEW
350
56D
  3
VERSIONGUID
350
561
  0
DICTIONARY
  5
576
102
{ACAD_REACTORS
330
C
102
}
330
C
100
AcDbDictionary
  3
DIMASSOC
350
57B
  3
HIDETEXT
350
57C
  3
PSOLHEIGHT
350
57A
  3
PSOLWIDTH
350
579
  0
MATERIAL
  5
3D
102
{ACAD_REACTORS
330
3B
102
}
102
{ACAD_XDICTIONARY
360
57F
102
}
330
3B
100
AcDbMaterial
  1
ByBlock
  0
MATERIAL
  5
3C
102
{ACAD_REACTORS
330
3B
102
}
102
{ACAD_XDICTIONARY
360
57D
102
}
330
3B
100
AcDbMaterial
  1
ByLayer
  0
MATERIAL
  5
3E
102
{ACAD_REACTORS
330
3B
102
}
102
{ACAD_XDICTIONARY
360
581
102
}
330
3B
100
AcDbMaterial
  1
Global
  0
MLINESTYLE
  5
18
102
{ACAD_REACTORS
330
17
102
}
330
17
100
AcDbMlineStyle
  2
Standard
 70
     0
  3

 62
   256
 51
90.0
 52
90.0
 71
     2
 49
0.5
 62
   256
  6
BYLAYER
 49
-0.5
 62
   256
  6
BYLAYER
  0
ACAD_PROXY_OBJECT
  5
2F
102
{ACAD_REACTORS
330
2A
102
}
330
2A
100
AcDbProxyObject
 90
      499
 91
      501
 93
      436
310
42CC9915DA5C99599C985B595049028333333333333E3BF0000000000000FB0107901411070040501600405405064090741402480A0340
1001
ACAD
1000
AcDbSavedByObjectVersion
1070
     0
  0
ACAD_PROXY_OBJECT
  5
31
102
{ACAD_REACTORS
330
2A
102
}
330
2A
100
AcDbProxyObject
 90
      499
 91
      501
 93
      500
310
424CD108121A5919195B90640502408333333333333E3BF0000000000000FB01079024090700405020000000000001110200405405064090740C02480A0340
1001
ACAD
1000
AcDbSavedByObjectVersion
1070
     0
  0
ACAD_PROXY_OBJECT
  5
30
102
{ACAD_REACTORS
330
2A
102
}
330
2A
100
AcDbProxyObject
 90
      499
 91
      501
 93
      436
310
42CCD915DA5C99599C985B595059028333333333333E3BF0000000000000FB0107901411070040501600405405064090741402480A0340
1001
ACAD
1000
AcDbSavedByObjectVersion
1070
     0
  0
ACAD_PROXY_OBJECT
  5
32
102
{ACAD_REACTORS
330
2A
102
}
330
2A
100
AcDbProxyObject
 90
      499
 91
      501
 93
      388
310
4150985CDA58D07406404333333333333E3BF0000000000000FB0107A41107004050150841D405064090741402480A0350
1001
ACAD
1000
AcDbSavedByObjectVersion
1070
     0
  0
ACAD_PROXY_OBJECT
  5
36
102
{ACAD_REACTORS
330
2A
102
}
330
2A
100
AcDbProxyObject
 90
      499
 91
      501
 93
      428
310
42109C9A59DA1D195B90C409028333333333333E3BF0000000000000FB010790141107004050150841D405064090741402480A029950
1001
ACAD
1000
AcDbSavedByObjectVersion
1070
     0
  0
ACAD_PROXY_OBJECT
  5
3A
102
{ACAD_REACTORS
330
2A
102
}
330
2A
100
AcDbProxyObject
 90
      499
 91
      501
 93
      452
310
42D0DBDB1BDC90DA185B99D95104090240C333333333333E3BF0000000000000FB0108901411070040501508421405064090741402480A0350
1001
ACAD
1000
AcDbSavedByObjectVersion
1070
     0
  0
ACAD_PROXY_OBJECT
  5
34
102
{ACAD_REACTORS
330
2A
102
}
330
2A
100
AcDbProxyObject
 90
      499
 91
      501
 93
      500
310
4290DBDB98D95C1D1D585B10940D028333333333333E3BF0000000000000FB0107902409070040501000000000000111010841D405064090740C02480A0340
1001
ACAD
1000
AcDbSavedByObjectVersion
1070
     0
  0
ACAD_PROXY_OBJECT
  5
35
102
{ACAD_REACTORS
330
2A
102
}
330
2A
100
AcDbProxyObject
 90
      499
 91
      501
 93
      412
310
40D11A5B50B409028333333333333E3BF0000000000000FB010790141107004050150841D405064090741402480A02677FFFFFD0
1001
ACAD
1000
AcDbSavedByObjectVersion
1070
     0
  0
ACAD_PROXY_OBJECT
  5
39
102
{ACAD_REACTORS
330
2A
102
}
330
2A
100
AcDbProxyObject
 90
      499
 91
      501
 93
      444
310
42D19858D95C185D1D195C9B90F409028333333333333E3BF0000000000000FB010790141107004050150841D405064090741402480A0350
1001
ACAD
1000
AcDbSavedByObjectVersion
1070
     0
  0
ACAD_PROXY_OBJECT
  5
2B
102
{ACAD_REACTORS
330
2A
102
}
330
2A
100
AcDbProxyObject
 90
      499
 91
      501
 93
      388
310
41119B185D240901404333333333333E3BF0000000000000F9010740A41107004050150841D405064090741402480A1B50
1001
ACAD
1000
AcDbSavedByObjectVersion
1070
     0
  0
ACAD_PROXY_OBJECT
  5
2C
102
{ACAD_REACTORS
330
2A
102
}
330
2A
100
AcDbProxyObject
 90
      499
 91
      501
 93
      476
310
43519B185D15DA5D1A115919D95CD0140901404333333333333E3BF0000000000000F9010740901411070040501600405405064090741402480A1B50
1001
ACAD
1000
AcDbSavedByObjectVersion
1070
     0
  0
ACAD_PROXY_OBJECT
  5
2D
102
{ACAD_REACTORS
330
2A
102
}
330
2A
100
AcDbProxyObject
 90
      499
 91
      501
 93
      412
310
41D1DBDD5C985D5910240902404333333333333E3BF0000000000000F9010740A411070040501641D405064090741402480A1B50
1001
ACAD
1000
AcDbSavedByObjectVersion
1070
     0
  0
ACAD_PROXY_OBJECT
  5
2E
102
{ACAD_REACTORS
330
2A
102
}
330
2A
100
AcDbProxyObject
 90
      499
 91
      501
 93
      500
310
4411DBDD5C985D5915DA5D1A115919D95CD0340902404333333333333E3BF0000000000000F9010740901411070040501600405405064090741402480A1B50
1001
ACAD
1000
AcDbSavedByObjectVersion
1070
     0
  0
ACAD_PROXY_OBJECT
  5
38
102
{ACAD_REACTORS
330
2A
102
}
330
2A
100
AcDbProxyObject
 90
      499
 91
      501
 93
      444
310
42D31A5B995C185D1D195C9B90E409028333333333333E3BF0000000000000FB010790141107004050750841D405064090741402483A0350
1001
ACAD
1000
AcDbSavedByObjectVersion
1070
     0
  0
ACAD_PROXY_OBJECT
  5
33
102
{ACAD_REACTORS
330
2A
102
}
330
2A
100
AcDbProxyObject
 90
      499
 91
      501
 93
      420
310
425499585B1A5CDD1A58D08409028333333333333E3BF0000000000000FB01079019070040501508421405064090741402480A1B40
1001
ACAD
1000
AcDbSavedByObjectVersion
1070
     0
  0
ACAD_PROXY_OBJECT
  5
37
102
{ACAD_REACTORS
330
2A
102
}
330
2A
100
AcDbProxyObject
 90
      499
 91
      501
 93
      412
310
41D51A1A58DAD95B90D409028333333333333E3BF0000000000000FB010790141107004050150C41D405064090741402480A0350
1001
ACAD
1000
AcDbSavedByObjectVersion
1070
     0
  0
XRECORD
  5
55F
102
{ACAD_REACTORS
330
556
102
}
330
556
100
AcDbXrecord
 90
        0
  0
XRECORD
  5
575
102
{ACAD_REACTORS
330
556
102
}
330
556
100
AcDbXrecord
1000
DSTYLE
1002
{
1070
   340
340
11
1002
}
  0
XRECORD
  5
560
102
{ACAD_REACTORS
330
556
102
}
330
556
100
AcDbXrecord
  1
{202DD160-2E0E-45AF-BFDD-22AEEE07831B}
  0
XRECORD
  5
559
102
{ACAD_REACTORS
330
556
102
}
330
556
100
AcDbXrecord
  1

  0
XRECORD
  5
55E
102
{ACAD_REACTORS
330
556
102
}
330
556
100
AcDbXrecord
 90
        4
  0
XRECORD
  5
55B
102
{ACAD_REACTORS
330
556
102
}
330
556
100
AcDbXrecord
340
1A
  0
XRECORD
  5
55D
102
{ACAD_REACTORS
330
556
102
}
330
556
100
AcDbXrecord
 90
    10781
  0
XRECORD
  5
55C
102
{ACAD_REACTORS
330
556
102
}
330
556
100
AcDbXrecord
340
19
  0
XRECORD
  5
562
102
{ACAD_REACTORS
330
556
102
}
330
556
100
AcDbXrecord
 40
0.0
  0
XRECORD
  5
565
102
{ACAD_REACTORS
330
556
102
}
330
556
100
AcDbXrecord
340
0
  0
XRECORD
  5
56B
102
{ACAD_REACTORS
330
556
102
}
330
556
100
AcDbXrecord
 10
0.0
 20
0.0
 30
0.0
  0
XRECORD
  5
567
102
{ACAD_REACTORS
330
556
102
}
330
556
100
AcDbXrecord
 10
0.0
 20
0.0
 30
0.0
  0
XRECORD
  5
56A
102
{ACAD_REACTORS
330
556
102
}
330
556
100
AcDbXrecord
 10
0.0
 20
0.0
 30
0.0
  0
XRECORD
  5
568
102
{ACAD_REACTORS
330
556
102
}
330
556
100
AcDbXrecord
 10
0.0
 20
0.0
 30
0.0
  0
XRECORD
  5
569
102
{ACAD_REACTORS
330
556
102
}
330
556
100
AcDbXrecord
 10
0.0
 20
0.0
 30
0.0
  0
XRECORD
  5
566
102
{ACAD_REACTORS
330
556
102
}
330
556
100
AcDbXrecord
 10
0.0
 20
0.0
 30
0.0
  0
XRECORD
  5
563
102
{ACAD_REACTORS
330
556
102
}
330
556
100
AcDbXrecord
340
0
  0
XRECORD
  5
564
102
{ACAD_REACTORS
330
556
102
}
330
556
100
AcDbXrecord
 70
     0
  0
XRECORD
  5
55A
102
{ACAD_REACTORS
330
556
102
}
330
556
100
AcDbXrecord
  1

  0
XRECORD
  5
557
102
{ACAD_REACTORS
330
556
102
}
330
556
100
AcDbXrecord
 90
        1
  0
XRECORD
  5
558
102
{ACAD_REACTORS
330
556
102
}
330
556
100
AcDbXrecord
 90
       70
  0
XRECORD
  5
56E
102
{ACAD_REACTORS
330
556
102
}
330
556
100
AcDbXrecord
340
0
  0
XRECORD
  5
574
102
{ACAD_REACTORS
330
556
102
}
330
556
100
AcDbXrecord
 10
0.0
 20
0.0
 30
0.0
  0
XRECORD
  5
570
102
{ACAD_REACTORS
330
556
102
}
330
556
100
AcDbXrecord
 10
0.0
 20
0.0
 30
0.0
  0
XRECORD
  5
573
102
{ACAD_REACTORS
330
556
102
}
330
556
100
AcDbXrecord
 10
0.0
 20
0.0
 30
0.0
  0
XRECORD
  5
571
102
{ACAD_REACTORS
330
556
102
}
330
556
100
AcDbXrecord
 10
0.0
 20
0.0
 30
0.0
  0
XRECORD
  5
572
102
{ACAD_REACTORS
330
556
102
}
330
556
100
AcDbXrecord
 10
0.0
 20
0.0
 30
0.0
  0
XRECORD
  5
56F
102
{ACAD_REACTORS
330
556
102
}
330
556
100
AcDbXrecord
 10
0.0
 20
0.0
 30
0.0
  0
XRECORD
  5
56C
102
{ACAD_REACTORS
330
556
102
}
330
556
100
AcDbXrecord
340
0
  0
XRECORD
  5
56D
102
{ACAD_REACTORS
330
556
102
}
330
556
100
AcDbXrecord
 70
     0
  0
XRECORD
  5
561
102
{ACAD_REACTORS
330
556
102
}
330
556
100
AcDbXrecord
  1
{FAEB1C32-E019-11D5-929B-00C0DF256EC4}
  0
DICTIONARYVAR
  5
57B
102
{ACAD_REACTORS
330
576
102
}
330
576
100
DictionaryVariables
280
     0
  1
2
  0
DICTIONARYVAR
  5
57C
102
{ACAD_REACTORS
330
576
102
}
330
576
100
DictionaryVariables
280
     0
  1
1
  0
DICTIONARYVAR
  5
57A
102
{ACAD_REACTORS
330
576
102
}
330
576
100
DictionaryVariables
280
     0
  1
80.000000
  0
DICTIONARYVAR
  5
579
102
{ACAD_REACTORS
330
576
102
}
330
576
100
DictionaryVariables
280
     0
  1
5.000000
  0
DICTIONARY
  5
57F
330
3D
100
AcDbDictionary
280
     1
  3
ACAD_XREC_ROUNDTRIP
360
580
  0
DICTIONARY
  5
57D
330
3C
100
AcDbDictionary
280
     1
  3
ACAD_XREC_ROUNDTRIP
360
57E
  0
DICTIONARY
  5
581
330
3E
100
AcDbDictionary
280
     1
  3
ACAD_XREC_ROUNDTRIP
360
582
  0
XRECORD
  5
580
102
{ACAD_REACTORS
330
57F
102
}
330
57F
100
AcDbXrecord
102
MATERIAL
148
0.0
149
0.0
149
0.0
 93
        0
 94
      127
282
     0
 72
     1
 77
     1
171
     1
175
     1
179
     1
273
     0
  0
XRECORD
  5
57E
102
{ACAD_REACTORS
330
57D
102
}
330
57D
100
AcDbXrecord
102
MATERIAL
148
0.0
149
0.0
149
0.0
 93
        0
 94
      127
282
     0
 72
     1
 77
     1
171
     1
175
     1
179
     1
273
     0
  0
XRECORD
  5
582
102
{ACAD_REACTORS
330
581
102
}
330
581
100
AcDbXrecord
102
MATERIAL
148
0.0
149
0.0
149
0.0
 93
        0
 94
      127
282
     0
 72
     1
 77
     1
171
     1
175
     1
179
     1
273
     0
  0
ENDSEC
  0
EOF
