  0
SECTION
  2
HEADER
  9
$ACADVER
  1
AC1014
  9
$ACADMAINTVER
 70
     9
  9
$DWGCODEPAGE
  3
ANSI_932
  9
$INSBASE
 10
0.0
 20
0.0
 30
0.0
  9
$EXTMIN
 10
-261.562078828742
 20
8.8
 30
0.0
  9
$EXTMAX
 10
578.4179120150001
 20
305.163087063029
 30
0.0
  9
$LIMMIN
 10
0.0
 20
0.0
  9
$LIMMAX
 10
210.0
 20
297.0
  9
$ORTHOMODE
 70
     0
  9
$REGENMODE
 70
     1
  9
$FILLMODE
 70
     1
  9
$QTEXTMODE
 70
     0
  9
$MIRRTEXT
 70
     1
  9
$DRAGMODE
 70
     2
  9
$LTSCALE
 40
1.0
  9
$OSMODE
 70
    37
  9
$ATTMODE
 70
     1
  9
$TEXTSIZE
 40
2.5
  9
$TRACEWID
 40
1.0
  9
$TEXTSTYLE
  7
STANDARD
  9
$CLAYER
  8
スト_ル
  9
$CELTYPE
  6
BYLAYER
  9
$CECOLOR
 62
   256
  9
$CELTSCALE
 40
1.0
  9
$DELOBJ
 70
     1
  9
$DISPSILH
 70
     0
  9
$DIMSCALE
 40
1.0
  9
$DIMASZ
 40
2.5
  9
$DIMEXO
 40
0.625
  9
$DIMDLI
 40
3.75
  9
$DIMRND
 40
0.0
  9
$DIMDLE
 40
0.0
  9
$DIMEXE
 40
1.25
  9
$DIMTP
 40
0.0
  9
$DIMTM
 40
0.0
  9
$DIMTXT
 40
2.5
  9
$DIMCEN
 40
2.5
  9
$DIMTSZ
 40
0.0
  9
$DIMTOL
 70
     0
  9
$DIMLIM
 70
     0
  9
$DIMTIH
 70
     0
  9
$DIMTOH
 70
     0
  9
$DIMSE1
 70
     0
  9
$DIMSE2
 70
     0
  9
$DIMTAD
 70
     1
  9
$DIMZIN
 70
     8
  9
$DIMBLK
  1

  9
$DIMASO
 70
     1
  9
$DIMSHO
 70
     1
  9
$DIMPOST
  1

  9
$DIMAPOST
  1

  9
$DIMALT
 70
     0
  9
$DIMALTD
 70
     3
  9
$DIMALTF
 40
0.03937007874016
  9
$DIMLFAC
 40
1.0
  9
$DIMTOFL
 70
     1
  9
$DIMTVP
 40
0.0
  9
$DIMTIX
 70
     0
  9
$DIMSOXD
 70
     0
  9
$DIMSAH
 70
     0
  9
$DIMBLK1
  1

  9
$DIMBLK2
  1

  9
$DIMSTYLE
  2
ISO-25
  9
$DIMCLRD
 70
     0
  9
$DIMCLRE
 70
     0
  9
$DIMCLRT
 70
     0
  9
$DIMTFAC
 40
1.0
  9
$DIMGAP
 40
0.625
  9
$DIMJUST
 70
     0
  9
$DIMSD1
 70
     0
  9
$DIMSD2
 70
     0
  9
$DIMTOLJ
 70
     0
  9
$DIMTZIN
 70
     8
  9
$DIMALTZ
 70
     0
  9
$DIMALTTZ
 70
     0
  9
$DIMFIT
 70
     3
  9
$DIMUPT
 70
     0
  9
$DIMUNIT
 70
     2
  9
$DIMDEC
 70
     2
  9
$DIMTDEC
 70
     2
  9
$DIMALTU
 70
     2
  9
$DIMALTTD
 70
     3
  9
$DIMTXSTY
  7
STANDARD
  9
$DIMAUNIT
 70
     0
  9
$LUNITS
 70
     2
  9
$LUPREC
 70
     4
  9
$SKETCHINC
 40
1.0
  9
$FILLETRAD
 40
10.0
  9
$AUNITS
 70
     0
  9
$AUPREC
 70
     0
  9
$MENU
  1
.
  9
$ELEVATION
 40
0.0
  9
$PELEVATION
 40
0.0
  9
$THICKNESS
 40
0.0
  9
$LIMCHECK
 70
     0
  9
$CHAMFERA
 40
10.0
  9
$CHAMFERB
 40
10.0
  9
$CHAMFERC
 40
20.0
  9
$CHAMFERD
 40
0.0
  9
$SKPOLY
 70
     0
  9
$TDCREATE
 40
2460419.567137327
  9
$TDUPDATE
 40
2460419.567137523
  9
$TDINDWG
 40
0.0000000116
  9
$TDUSRTIMER
 40
0.0000000116
  9
$USRTIMER
 70
     1
  9
$ANGBASE
 50
0.0
  9
$ANGDIR
 70
     0
  9
$PDMODE
 70
     0
  9
$PDSIZE
 40
0.0
  9
$PLINEWID
 40
0.0
  9
$COORDS
 70
     1
  9
$SPLFRAME
 70
     0
  9
$SPLINETYPE
 70
     6
  9
$SPLINESEGS
 70
     8
  9
$ATTDIA
 70
     0
  9
$ATTREQ
 70
     1
  9
$HANDLING
 70
     1
  9
$HANDSEED
  5
780
  9
$SURFTAB1
 70
     6
  9
$SURFTAB2
 70
     6
  9
$SURFTYPE
 70
     6
  9
$SURFU
 70
     6
  9
$SURFV
 70
     6
  9
$UCSNAME
  2

  9
$UCSORG
 10
0.0
 20
0.0
 30
0.0
  9
$UCSXDIR
 10
1.0
 20
0.0
 30
0.0
  9
$UCSYDIR
 10
0.0
 20
1.0
 30
0.0
  9
$PUCSNAME
  2

  9
$PUCSORG
 10
0.0
 20
0.0
 30
0.0
  9
$PUCSXDIR
 10
1.0
 20
0.0
 30
0.0
  9
$PUCSYDIR
 10
0.0
 20
1.0
 30
0.0
  9
$USERI1
 70
     0
  9
$USERI2
 70
     0
  9
$USERI3
 70
     0
  9
$USERI4
 70
     0
  9
$USERI5
 70
     0
  9
$USERR1
 40
0.0
  9
$USERR2
 40
0.0
  9
$USERR3
 40
0.0
  9
$USERR4
 40
0.0
  9
$USERR5
 40
0.0
  9
$WORLDVIEW
 70
     1
  9
$SHADEDGE
 70
     3
  9
$SHADEDIF
 70
    70
  9
$TILEMODE
 70
     1
  9
$MAXACTVP
 70
    64
  9
$PINSBASE
 10
0.0
 20
0.0
 30
0.0
  9
$PLIMCHECK
 70
     0
  9
$PEXTMIN
 10
1.000000000000000E+20
 20
1.000000000000000E+20
 30
1.000000000000000E+20
  9
$PEXTMAX
 10
-1.000000000000000E+20
 20
-1.000000000000000E+20
 30
-1.000000000000000E+20
  9
$PLIMMIN
 10
0.0
 20
0.0
  9
$PLIMMAX
 10
420.0
 20
297.0
  9
$UNITMODE
 70
     0
  9
$VISRETAIN
 70
     1
  9
$PLINEGEN
 70
     0
  9
$PSLTSCALE
 70
     1
  9
$TREEDEPTH
 70
  3020
  9
$PICKSTYLE
 70
     1
  9
$CMLSTYLE
  2
STANDARD
  9
$CMLJUST
 70
     0
  9
$CMLSCALE
 40
20.0
  9
$PROXYGRAPHICS
 70
     1
  9
$MEASUREMENT
 70
     1
  0
ENDSEC
  0
SECTION
  2
CLASSES
  0
CLASS
  1
ACDBDICTIONARYWDFLT
  2
AcDbDictionaryWithDefault
  3
ObjectDBX Classes
 90
        0
280
     0
281
     0
  0
CLASS
  1
VISUALSTYLE
  2
AcDbVisualStyle
  3
ObjectDBX Classes
 90
     4095
280
     0
281
     0
  0
CLASS
  1
MATERIAL
  2
AcDbMaterial
  3
ObjectDBX Classes
 90
     1153
280
     0
281
     0
  0
CLASS
  1
SUN
  2
AcDbSun
  3
SCENEOE
 90
     1024
280
     0
281
     0
  0
CLASS
  1
DICTIONARYVAR
  2
AcDbDictionaryVar
  3
ObjectDBX Classes
 90
        0
280
     0
281
     0
  0
CLASS
  1
XRECORD
  2
AcDbXrecord
  3
AutoCAD 2000
 90
        0
280
     0
281
     0
  0
CLASS
  1
LWPOLYLINE
  2
AcDbPolyline
  3
AutoCAD 2000
 90
        0
280
     0
281
     1
  0
CLASS
  1
HATCH
  2
AcDbHatch
  3
AutoCAD 2000
 90
        0
280
     0
281
     1
  0
CLASS
  1
ACDBPLACEHOLDER
  2
AcDbPlaceHolder
  3
ObjectDBX Classes
 90
        0
280
     0
281
     0
  0
CLASS
  1
LAYOUT
  2
AcDbLayout
  3
ObjectDBX Classes
 90
        0
280
     0
281
     0
  0
ENDSEC
  0
SECTION
  2
TABLES
  0
TABLE
  2
VPORT
  5
8
330
0
100
AcDbSymbolTable
 70
     1
  0
VPORT
  5
29
330
8
100
AcDbSymbolTableRecord
100
AcDbViewportTableRecord
  2
*ACTIVE
 70
     0
 10
0.0
 20
0.0
 11
1.0
 21
1.0
 12
1584.27916593129
 22
1569.815435315145
 13
0.0
 23
0.0
 14
10.0
 24
10.0
 15
10.0
 25
10.0
 16
0.0
 26
0.0
 36
1.0
 17
0.0
 27
0.0
 37
0.0
 40
2963.63087063029
 41
2.834293565936231
 42
50.0
 43
0.0
 44
0.0
 50
0.0
 51
0.0
 71
     0
 72
  1000
 73
     1
 74
     3
 75
     0
 76
     0
 77
     0
 78
     0
  0
ENDTAB
  0
TABLE
  2
LTYPE
  5
5
330
0
100
AcDbSymbolTable
 70
     8
  0
LTYPE
  5
14
330
5
100
AcDbSymbolTableRecord
100
AcDbLinetypeTableRecord
  2
BYBLOCK
 70
     0
  3

 72
    65
 73
     0
 40
0.0
  0
LTYPE
  5
15
330
5
100
AcDbSymbolTableRecord
100
AcDbLinetypeTableRecord
  2
BYLAYER
 70
     0
  3

 72
    65
 73
     0
 40
0.0
  0
LTYPE
  5
16
330
5
100
AcDbSymbolTableRecord
100
AcDbLinetypeTableRecord
  2
CONTINUOUS
 70
     0
  3
Solid line
 72
    65
 73
     0
 40
0.0
  0
LTYPE
  5
40
330
5
100
AcDbSymbolTableRecord
100
AcDbLinetypeTableRecord
  2
EXLTYPE1
 70
     0
  3
破線
 72
    65
 73
     2
 40
3.0
 49
2.0
 74
     0
 49
-1.0
 74
     0
  0
LTYPE
  5
41
330
5
100
AcDbSymbolTableRecord
100
AcDbLinetypeTableRecord
  2
EXLTYPE2
 70
     0
  3
点線
 72
    65
 73
     2
 40
2.0
 49
1.0
 74
     0
 49
-1.0
 74
     0
  0
LTYPE
  5
42
330
5
100
AcDbSymbolTableRecord
100
AcDbLinetypeTableRecord
  2
EXLTYPE3
 70
     0
  3
一点鎖線
 72
    65
 73
     4
 40
10.0
 49
7.0
 74
     0
 49
-1.0
 74
     0
 49
1.0
 74
     0
 49
-1.0
 74
     0
  0
LTYPE
  5
43
330
5
100
AcDbSymbolTableRecord
100
AcDbLinetypeTableRecord
  2
EXLTYPE4
 70
     0
  3
二点鎖線
 72
    65
 73
     6
 40
12.0
 49
7.0
 74
     0
 49
-1.0
 74
     0
 49
1.0
 74
     0
 49
-1.0
 74
     0
 49
1.0
 74
     0
 49
-1.0
 74
     0
  0
LTYPE
  5
44
330
5
100
AcDbSymbolTableRecord
100
AcDbLinetypeTableRecord
  2
EXLTYPE5
 70
     0
  3
三点鎖線
 72
    65
 73
     8
 40
37.0
 49
30.0
 74
     0
 49
-1.0
 74
     0
 49
1.0
 74
     0
 49
-1.0
 74
     0
 49
1.0
 74
     0
 49
-1.0
 74
     0
 49
1.0
 74
     0
 49
-1.0
 74
     0
  0
LTYPE
  5
45
330
5
100
AcDbSymbolTableRecord
100
AcDbLinetypeTableRecord
  2
EXLTYPE6
 70
     0
  3
四点鎖線
 72
    65
 73
    10
 40
39.0
 49
30.0
 74
     0
 49
-1.0
 74
     0
 49
1.0
 74
     0
 49
-1.0
 74
     0
 49
1.0
 74
     0
 49
-1.0
 74
     0
 49
1.0
 74
     0
 49
-1.0
 74
     0
 49
1.0
 74
     0
 49
-1.0
 74
     0
  0
LTYPE
  5
46
330
5
100
AcDbSymbolTableRecord
100
AcDbLinetypeTableRecord
  2
EXLTYPE7
 70
     0
  3
破線2
 72
    65
 73
     2
 40
0.02
 49
0.01
 74
     0
 49
-0.01
 74
     0
  0
ENDTAB
  0
TABLE
  2
LAYER
  5
2
330
0
100
AcDbSymbolTable
 70
     7
  0
LAYER
  5
10
330
2
100
AcDbSymbolTableRecord
100
AcDbLayerTableRecord
  2
0
 70
     0
 62
     7
  6
CONTINUOUS
  0
LAYER
  5
49
330
2
100
AcDbSymbolTableRecord
100
AcDbLayerTableRecord
  2
枠_
 70
     0
 62
     7
  6
CONTINUOUS
  0
LAYER
  5
4A
330
2
100
AcDbSymbolTableRecord
100
AcDbLayerTableRecord
  2
スト_ル
 70
     0
 62
     7
  6
CONTINUOUS
  0
LAYER
  5
4B
330
2
100
AcDbSymbolTableRecord
100
AcDbLayerTableRecord
  2
フラッシュバルブ
 70
     0
 62
     7
  6
CONTINUOUS
  0
LAYER
  5
4C
330
2
100
AcDbSymbolTableRecord
100
AcDbLayerTableRecord
  2
寸法
 70
     0
 62
     7
  6
CONTINUOUS
  0
LAYER
  5
4D
330
2
100
AcDbSymbolTableRecord
100
AcDbLayerTableRecord
  2
器具明細表
 70
     0
 62
     7
  6
CONTINUOUS
  0
LAYER
  5
AE
330
2
100
AcDbSymbolTableRecord
100
AcDbLayerTableRecord
  2
DEFPOINTS
 70
     0
 62
     7
  6
CONTINUOUS
  0
ENDTAB
  0
TABLE
  2
STYLE
  5
3
330
0
100
AcDbSymbolTable
 70
     5
  0
STYLE
  5
11
330
3
100
AcDbSymbolTableRecord
100
AcDbTextStyleTableRecord
  2
STANDARD
 70
     0
 40
0.0
 41
1.0
 50
0.0
 71
     0
 42
2.5
  3
monotxt
  4
extfont
  0
STYLE
  5
47
330
3
100
AcDbSymbolTableRecord
100
AcDbTextStyleTableRecord
  2
EXCADSTD
 70
     0
 40
0.0
 41
1.0
 50
0.0
 71
     0
 42
0.2
  3
monotxt
  4
extfont
  0
STYLE
  5
48
330
3
100
AcDbSymbolTableRecord
100
AcDbTextStyleTableRecord
  2
EXCADVERT
 70
     4
 40
0.0
 41
1.0
 50
0.0
 71
     0
 42
0.286885
  3
monotxt
  4
extfont
  0
STYLE
  5
AC
330
3
100
AcDbSymbolTableRecord
100
AcDbTextStyleTableRecord
  2
EXCADDIM1
 70
     0
 40
0.0
 41
0.95
 50
0.0
 71
     0
 42
0.2
  3
monotxt
  4
extfont
  0
STYLE
  5
176
330
3
100
AcDbSymbolTableRecord
100
AcDbTextStyleTableRecord
  2
EXCADTTF1
 70
     0
 40
0.0
 41
1.0
 50
0.0
 71
     0
 42
0.2
  3
MSGOTHIC.TTC
  4

1001
ACAD
1000
MS Gothic
1071
    32817
  0
ENDTAB
  0
TABLE
  2
VIEW
  5
6
330
0
100
AcDbSymbolTable
 70
     0
  0
ENDTAB
  0
TABLE
  2
UCS
  5
7
330
0
100
AcDbSymbolTable
 70
     0
  0
ENDTAB
  0
TABLE
  2
APPID
  5
9
330
0
100
AcDbSymbolTable
 70
     1
  0
APPID
  5
12
330
9
100
AcDbSymbolTableRecord
100
AcDbRegAppTableRecord
  2
ACAD
 70
     0
  0
ENDTAB
  0
TABLE
  2
DIMSTYLE
  5
A
330
0
100
AcDbSymbolTable
 70
     1
  0
DIMSTYLE
105
27
102
{ACAD_REACTORS
330
AD
330
BD
330
CA
330
D7
330
EB
330
FA
330
106
330
113
330
120
330
12D
330
13A
330
146
102
}
330
A
100
AcDbSymbolTableRecord
100
AcDbDimStyleTableRecord
  2
ISO-25
 70
     0
  3

  4

  5

  6

  7

 40
1.0
 41
2.5
 42
0.625
 43
3.75
 44
1.25
 45
0.0
 46
0.0
 47
0.0
 48
0.0
140
2.5
141
2.5
142
0.0
143
0.03937007874016
144
1.0
145
0.0
146
1.0
147
0.625
 71
     0
 72
     0
 73
     0
 74
     0
 75
     0
 76
     0
 77
     1
 78
     8
170
     0
171
     3
172
     1
173
     0
174
     0
175
     0
176
     0
177
     0
178
     0
270
     2
271
     2
272
     2
273
     2
274
     3
340
11
275
     0
280
     0
281
     0
282
     0
283
     0
284
     8
285
     0
286
     0
287
     5
288
     0
  0
ENDTAB
  0
TABLE
  2
BLOCK_RECORD
  5
1
330
0
100
AcDbSymbolTable
 70
    27
  0
BLOCK_RECORD
  5
1F
330
1
100
AcDbSymbolTableRecord
100
AcDbBlockTableRecord
  2
*MODEL_SPACE
  0
BLOCK_RECORD
  5
1B
330
1
100
AcDbSymbolTableRecord
100
AcDbBlockTableRecord
  2
*PAPER_SPACE
  0
BLOCK_RECORD
  5
4E
330
1
100
AcDbSymbolTableRecord
100
AcDbBlockTableRecord
  2
EX_NORM
  0
BLOCK_RECORD
  5
51
330
1
100
AcDbSymbolTableRecord
100
AcDbBlockTableRecord
  2
EX_BNORM
  0
BLOCK_RECORD
  5
54
330
1
100
AcDbSymbolTableRecord
100
AcDbBlockTableRecord
  2
EX_BCIR
  0
BLOCK_RECORD
  5
57
330
1
100
AcDbSymbolTableRecord
100
AcDbBlockTableRecord
  2
EX_RCIVIL
  0
BLOCK_RECORD
  5
5A
330
1
100
AcDbSymbolTableRecord
100
AcDbBlockTableRecord
  2
EX_SLANT
  0
BLOCK_RECORD
  5
5D
330
1
100
AcDbSymbolTableRecord
100
AcDbBlockTableRecord
  2
EX_NONE
  0
BLOCK_RECORD
  5
60
330
1
100
AcDbSymbolTableRecord
100
AcDbBlockTableRecord
  2
EX_CIVIL
  0
BLOCK_RECORD
  5
63
330
1
100
AcDbSymbolTableRecord
100
AcDbBlockTableRecord
  2
EX_WCIR
  0
BLOCK_RECORD
  5
66
330
1
100
AcDbSymbolTableRecord
100
AcDbBlockTableRecord
  2
EX_WCIR2
  0
BLOCK_RECORD
  5
69
330
1
100
AcDbSymbolTableRecord
100
AcDbBlockTableRecord
  2
EX_WNORM
  0
BLOCK_RECORD
  5
6C
330
1
100
AcDbSymbolTableRecord
100
AcDbBlockTableRecord
  2
EX_NNORM
  0
BLOCK_RECORD
  5
6F
330
1
100
AcDbSymbolTableRecord
100
AcDbBlockTableRecord
  2
EX_BBOX
  0
BLOCK_RECORD
  5
72
330
1
100
AcDbSymbolTableRecord
100
AcDbBlockTableRecord
  2
EX_WBOX
  0
BLOCK_RECORD
  5
75
330
1
100
AcDbSymbolTableRecord
100
AcDbBlockTableRecord
  2
EX_INTEGRAL
  0
BLOCK_RECORD
  5
AF
330
1
100
AcDbSymbolTableRecord
100
AcDbBlockTableRecord
  2
*D15
  0
BLOCK_RECORD
  5
BE
330
1
100
AcDbSymbolTableRecord
100
AcDbBlockTableRecord
  2
*D16
  0
BLOCK_RECORD
  5
CB
330
1
100
AcDbSymbolTableRecord
100
AcDbBlockTableRecord
  2
*D17
  0
BLOCK_RECORD
  5
D8
330
1
100
AcDbSymbolTableRecord
100
AcDbBlockTableRecord
  2
*D18
  0
BLOCK_RECORD
  5
EC
330
1
100
AcDbSymbolTableRecord
100
AcDbBlockTableRecord
  2
*D19
  0
BLOCK_RECORD
  5
FB
330
1
100
AcDbSymbolTableRecord
100
AcDbBlockTableRecord
  2
*D20
  0
BLOCK_RECORD
  5
107
330
1
100
AcDbSymbolTableRecord
100
AcDbBlockTableRecord
  2
*D21
  0
BLOCK_RECORD
  5
114
330
1
100
AcDbSymbolTableRecord
100
AcDbBlockTableRecord
  2
*D22
  0
BLOCK_RECORD
  5
121
330
1
100
AcDbSymbolTableRecord
100
AcDbBlockTableRecord
  2
*D23
  0
BLOCK_RECORD
  5
12E
330
1
100
AcDbSymbolTableRecord
100
AcDbBlockTableRecord
  2
*D24
  0
BLOCK_RECORD
  5
13B
330
1
100
AcDbSymbolTableRecord
100
AcDbBlockTableRecord
  2
*D25
  0
BLOCK_RECORD
  5
147
330
1
100
AcDbSymbolTableRecord
100
AcDbBlockTableRecord
  2
*D26
  0
ENDTAB
  0
ENDSEC
  0
SECTION
  2
BLOCKS
  0
BLOCK
  5
20
330
1F
100
AcDbEntity
  8
0
100
AcDbBlockBegin
  2
*MODEL_SPACE
 70
     0
 10
0.0
 20
0.0
 30
0.0
  3
*MODEL_SPACE
  1

  0
ENDBLK
  5
21
330
1F
100
AcDbEntity
  8
0
100
AcDbBlockEnd
  0
BLOCK
  5
1C
330
1B
100
AcDbEntity
 67
     1
  8
0
100
AcDbBlockBegin
  2
*PAPER_SPACE
 70
     0
 10
0.0
 20
0.0
 30
0.0
  3
*PAPER_SPACE
  1

  0
ENDBLK
  5
1D
330
1B
100
AcDbEntity
 67
     1
  8
0
100
AcDbBlockEnd
  0
BLOCK
  5
4F
330
4E
100
AcDbEntity
  8
0
100
AcDbBlockBegin
  2
EX_NORM
 70
     0
 10
0.0
 20
0.0
 30
0.0
  3
EX_NORM
  1

  0
LINE
  5
78
330
4E
100
AcDbEntity
  8
0
  6
CONTINUOUS
 62
     0
100
AcDbLine
 10
0.0
 20
0.0
 30
0.0
 11
-1.0
 21
0.0
 31
0.0
  0
LINE
  5
79
330
4E
100
AcDbEntity
  8
0
  6
CONTINUOUS
 62
     0
100
AcDbLine
 10
0.0
 20
0.0
 30
0.0
 11
-1.0
 21
0.166666667
 31
0.0
  0
LINE
  5
7A
330
4E
100
AcDbEntity
  8
0
  6
CONTINUOUS
 62
     0
100
AcDbLine
 10
0.0
 20
0.0
 30
0.0
 11
-1.0
 21
-0.166666667
 31
0.0
  0
ENDBLK
  5
50
330
4E
100
AcDbEntity
  8
0
100
AcDbBlockEnd
  0
BLOCK
  5
52
330
51
100
AcDbEntity
  8
0
100
AcDbBlockBegin
  2
EX_BNORM
 70
     0
 10
0.0
 20
0.0
 30
0.0
  3
EX_BNORM
  1

  0
LINE
  5
7B
330
51
100
AcDbEntity
  8
0
  6
CONTINUOUS
 62
     0
100
AcDbLine
 10
0.0
 20
0.0
 30
0.0
 11
-1.0
 21
0.0
 31
0.0
  0
LINE
  5
7C
330
51
100
AcDbEntity
  8
0
  6
CONTINUOUS
 62
     0
100
AcDbLine
 10
0.0
 20
0.0
 30
0.0
 11
-1.0
 21
0.166666667
 31
0.0
  0
LINE
  5
7D
330
51
100
AcDbEntity
  8
0
  6
CONTINUOUS
 62
     0
100
AcDbLine
 10
0.0
 20
0.0
 30
0.0
 11
-1.0
 21
-0.166666667
 31
0.0
  0
LINE
  5
7E
330
51
100
AcDbEntity
  8
0
  6
CONTINUOUS
 62
     0
100
AcDbLine
 10
0.0
 20
0.0
 30
0.0
 11
-1.0
 21
0.083333333
 31
0.0
  0
LINE
  5
7F
330
51
100
AcDbEntity
  8
0
  6
CONTINUOUS
 62
     0
100
AcDbLine
 10
0.0
 20
0.0
 30
0.0
 11
-1.0
 21
-0.083333333
 31
0.0
  0
LINE
  5
80
330
51
100
AcDbEntity
  8
0
  6
CONTINUOUS
 62
     0
100
AcDbLine
 10
-1.0
 20
0.166666667
 30
0.0
 11
-1.0
 21
-0.166666667
 31
0.0
  0
ENDBLK
  5
53
330
51
100
AcDbEntity
  8
0
100
AcDbBlockEnd
  0
BLOCK
  5
55
330
54
100
AcDbEntity
  8
0
100
AcDbBlockBegin
  2
EX_BCIR
 70
     0
 10
0.0
 20
0.0
 30
0.0
  3
EX_BCIR
  1

  0
LINE
  5
81
330
54
100
AcDbEntity
  8
0
  6
CONTINUOUS
 62
     0
100
AcDbLine
 10
0.0
 20
0.0
 30
0.0
 11
-1.0
 21
0.0
 31
0.0
  0
CIRCLE
  5
82
330
54
100
AcDbEntity
  8
0
  6
CONTINUOUS
 62
     0
100
AcDbCircle
 10
0.0
 20
0.0
 30
0.0
 40
0.5
  0
CIRCLE
  5
83
330
54
100
AcDbEntity
  8
0
  6
CONTINUOUS
 62
     0
100
AcDbCircle
 10
0.0
 20
0.0
 30
0.0
 40
0.25
  0
ENDBLK
  5
56
330
54
100
AcDbEntity
  8
0
100
AcDbBlockEnd
  0
BLOCK
  5
58
330
57
100
AcDbEntity
  8
0
100
AcDbBlockBegin
  2
EX_RCIVIL
 70
     0
 10
0.0
 20
0.0
 30
0.0
  3
EX_RCIVIL
  1

  0
LINE
  5
84
330
57
100
AcDbEntity
  8
0
  6
CONTINUOUS
 62
     0
100
AcDbLine
 10
0.0
 20
0.0
 30
0.0
 11
-1.0
 21
0.0
 31
0.0
  0
LINE
  5
85
330
57
100
AcDbEntity
  8
0
  6
CONTINUOUS
 62
     0
100
AcDbLine
 10
-1.0
 20
-0.25
 30
0.0
 11
0.0
 21
-0.25
 31
0.0
  0
LINE
  5
86
330
57
100
AcDbEntity
  8
0
  6
CONTINUOUS
 62
     0
100
AcDbLine
 10
-1.0
 20
-0.125
 30
0.0
 11
0.0
 21
-0.125
 31
0.0
  0
ENDBLK
  5
59
330
57
100
AcDbEntity
  8
0
100
AcDbBlockEnd
  0
BLOCK
  5
5B
330
5A
100
AcDbEntity
  8
0
100
AcDbBlockBegin
  2
EX_SLANT
 70
     0
 10
0.0
 20
0.0
 30
0.0
  3
EX_SLANT
  1

  0
LINE
  5
87
330
5A
100
AcDbEntity
  8
0
  6
CONTINUOUS
 62
     0
100
AcDbLine
 10
0.0
 20
0.0
 30
0.0
 11
-1.0
 21
0.0
 31
0.0
  0
LINE
  5
88
330
5A
100
AcDbEntity
  8
0
  6
CONTINUOUS
 62
     0
100
AcDbLine
 10
0.707106781
 20
0.707106781
 30
0.0
 11
-0.707106781
 21
-0.707106781
 31
0.0
  0
ENDBLK
  5
5C
330
5A
100
AcDbEntity
  8
0
100
AcDbBlockEnd
  0
BLOCK
  5
5E
330
5D
100
AcDbEntity
  8
0
100
AcDbBlockBegin
  2
EX_NONE
 70
     0
 10
0.0
 20
0.0
 30
0.0
  3
EX_NONE
  1

  0
LINE
  5
89
330
5D
100
AcDbEntity
  8
0
  6
CONTINUOUS
 62
     0
100
AcDbLine
 10
0.0
 20
0.0
 30
0.0
 11
-1.0
 21
0.0
 31
0.0
  0
ENDBLK
  5
5F
330
5D
100
AcDbEntity
  8
0
100
AcDbBlockEnd
  0
BLOCK
  5
61
330
60
100
AcDbEntity
  8
0
100
AcDbBlockBegin
  2
EX_CIVIL
 70
     0
 10
0.0
 20
0.0
 30
0.0
  3
EX_CIVIL
  1

  0
LINE
  5
8A
330
60
100
AcDbEntity
  8
0
  6
CONTINUOUS
 62
     0
100
AcDbLine
 10
0.0
 20
0.0
 30
0.0
 11
-1.0
 21
0.0
 31
0.0
  0
LINE
  5
8B
330
60
100
AcDbEntity
  8
0
  6
CONTINUOUS
 62
     0
100
AcDbLine
 10
-1.0
 20
0.25
 30
0.0
 11
0.0
 21
0.25
 31
0.0
  0
LINE
  5
8C
330
60
100
AcDbEntity
  8
0
  6
CONTINUOUS
 62
     0
100
AcDbLine
 10
-1.0
 20
0.125
 30
0.0
 11
0.0
 21
0.125
 31
0.0
  0
ENDBLK
  5
62
330
60
100
AcDbEntity
  8
0
100
AcDbBlockEnd
  0
BLOCK
  5
64
330
63
100
AcDbEntity
  8
0
100
AcDbBlockBegin
  2
EX_WCIR
 70
     0
 10
0.0
 20
0.0
 30
0.0
  3
EX_WCIR
  1

  0
LINE
  5
8D
330
63
100
AcDbEntity
  8
0
  6
CONTINUOUS
 62
     0
100
AcDbLine
 10
0.0
 20
0.0
 30
0.0
 11
-1.0
 21
0.0
 31
0.0
  0
CIRCLE
  5
8E
330
63
100
AcDbEntity
  8
0
  6
CONTINUOUS
 62
     0
100
AcDbCircle
 10
0.0
 20
0.0
 30
0.0
 40
0.5
  0
ENDBLK
  5
65
330
63
100
AcDbEntity
  8
0
100
AcDbBlockEnd
  0
BLOCK
  5
67
330
66
100
AcDbEntity
  8
0
100
AcDbBlockBegin
  2
EX_WCIR2
 70
     0
 10
0.0
 20
0.0
 30
0.0
  3
EX_WCIR2
  1

  0
LINE
  5
8F
330
66
100
AcDbEntity
  8
0
  6
CONTINUOUS
 62
     0
100
AcDbLine
 10
-0.5
 20
0.0
 30
0.0
 11
-1.0
 21
0.0
 31
0.0
  0
CIRCLE
  5
90
330
66
100
AcDbEntity
  8
0
  6
CONTINUOUS
 62
     0
100
AcDbCircle
 10
0.0
 20
0.0
 30
0.0
 40
0.5
  0
ENDBLK
  5
68
330
66
100
AcDbEntity
  8
0
100
AcDbBlockEnd
  0
BLOCK
  5
6A
330
69
100
AcDbEntity
  8
0
100
AcDbBlockBegin
  2
EX_WNORM
 70
     0
 10
0.0
 20
0.0
 30
0.0
  3
EX_WNORM
  1

  0
LINE
  5
91
330
69
100
AcDbEntity
  8
0
  6
CONTINUOUS
 62
     0
100
AcDbLine
 10
-1.0
 20
0.0
 30
0.0
 11
-1.0
 21
0.0
 31
0.0
  0
LINE
  5
92
330
69
100
AcDbEntity
  8
0
  6
CONTINUOUS
 62
     0
100
AcDbLine
 10
0.0
 20
0.0
 30
0.0
 11
-1.0
 21
0.166666667
 31
0.0
  0
LINE
  5
93
330
69
100
AcDbEntity
  8
0
  6
CONTINUOUS
 62
     0
100
AcDbLine
 10
0.0
 20
0.0
 30
0.0
 11
-1.0
 21
-0.166666667
 31
0.0
  0
LINE
  5
94
330
69
100
AcDbEntity
  8
0
  6
CONTINUOUS
 62
     0
100
AcDbLine
 10
-1.0
 20
0.166666667
 30
0.0
 11
-1.0
 21
-0.166666667
 31
0.0
  0
ENDBLK
  5
6B
330
69
100
AcDbEntity
  8
0
100
AcDbBlockEnd
  0
BLOCK
  5
6D
330
6C
100
AcDbEntity
  8
0
100
AcDbBlockBegin
  2
EX_NNORM
 70
     0
 10
0.0
 20
0.0
 30
0.0
  3
EX_NNORM
  1

  0
LINE
  5
95
330
6C
100
AcDbEntity
  8
0
  6
CONTINUOUS
 62
     0
100
AcDbLine
 10
0.0
 20
0.0
 30
0.0
 11
-1.0
 21
0.0
 31
0.0
  0
LINE
  5
96
330
6C
100
AcDbEntity
  8
0
  6
CONTINUOUS
 62
     0
100
AcDbLine
 10
0.0
 20
0.0
 30
0.0
 11
-1.0
 21
0.166666667
 31
0.0
  0
LINE
  5
97
330
6C
100
AcDbEntity
  8
0
  6
CONTINUOUS
 62
     0
100
AcDbLine
 10
0.0
 20
0.0
 30
0.0
 11
-1.0
 21
-0.166666667
 31
0.0
  0
LINE
  5
98
330
6C
100
AcDbEntity
  8
0
  6
CONTINUOUS
 62
     0
100
AcDbLine
 10
-1.0
 20
0.166666667
 30
0.0
 11
-1.0
 21
-0.166666667
 31
0.0
  0
ENDBLK
  5
6E
330
6C
100
AcDbEntity
  8
0
100
AcDbBlockEnd
  0
BLOCK
  5
70
330
6F
100
AcDbEntity
  8
0
100
AcDbBlockBegin
  2
EX_BBOX
 70
     0
 10
0.0
 20
0.0
 30
0.0
  3
EX_BBOX
  1

  0
LINE
  5
99
330
6F
100
AcDbEntity
  8
0
  6
CONTINUOUS
 62
     0
100
AcDbLine
 10
0.0
 20
0.0
 30
0.0
 11
-1.0
 21
0.0
 31
0.0
  0
LINE
  5
9A
330
6F
100
AcDbEntity
  8
0
  6
CONTINUOUS
 62
     0
100
AcDbLine
 10
-0.5
 20
0.5
 30
0.0
 11
0.5
 21
0.5
 31
0.0
  0
LINE
  5
9B
330
6F
100
AcDbEntity
  8
0
  6
CONTINUOUS
 62
     0
100
AcDbLine
 10
0.5
 20
0.5
 30
0.0
 11
0.5
 21
-0.5
 31
0.0
  0
LINE
  5
9C
330
6F
100
AcDbEntity
  8
0
  6
CONTINUOUS
 62
     0
100
AcDbLine
 10
0.5
 20
-0.5
 30
0.0
 11
-0.5
 21
-0.5
 31
0.0
  0
LINE
  5
9D
330
6F
100
AcDbEntity
  8
0
  6
CONTINUOUS
 62
     0
100
AcDbLine
 10
-0.5
 20
-0.5
 30
0.0
 11
-0.5
 21
0.5
 31
0.0
  0
LINE
  5
9E
330
6F
100
AcDbEntity
  8
0
  6
CONTINUOUS
 62
     0
100
AcDbLine
 10
-0.25
 20
0.25
 30
0.0
 11
0.25
 21
0.25
 31
0.0
  0
LINE
  5
9F
330
6F
100
AcDbEntity
  8
0
  6
CONTINUOUS
 62
     0
100
AcDbLine
 10
0.25
 20
0.25
 30
0.0
 11
0.25
 21
-0.25
 31
0.0
  0
LINE
  5
A0
330
6F
100
AcDbEntity
  8
0
  6
CONTINUOUS
 62
     0
100
AcDbLine
 10
0.25
 20
-0.25
 30
0.0
 11
-0.25
 21
-0.25
 31
0.0
  0
LINE
  5
A1
330
6F
100
AcDbEntity
  8
0
  6
CONTINUOUS
 62
     0
100
AcDbLine
 10
-0.25
 20
-0.25
 30
0.0
 11
-0.25
 21
0.25
 31
0.0
  0
ENDBLK
  5
71
330
6F
100
AcDbEntity
  8
0
100
AcDbBlockEnd
  0
BLOCK
  5
73
330
72
100
AcDbEntity
  8
0
100
AcDbBlockBegin
  2
EX_WBOX
 70
     0
 10
0.0
 20
0.0
 30
0.0
  3
EX_WBOX
  1

  0
LINE
  5
A2
330
72
100
AcDbEntity
  8
0
  6
CONTINUOUS
 62
     0
100
AcDbLine
 10
-0.5
 20
0.0
 30
0.0
 11
-1.0
 21
0.0
 31
0.0
  0
LINE
  5
A3
330
72
100
AcDbEntity
  8
0
  6
CONTINUOUS
 62
     0
100
AcDbLine
 10
-0.5
 20
0.5
 30
0.0
 11
0.5
 21
0.5
 31
0.0
  0
LINE
  5
A4
330
72
100
AcDbEntity
  8
0
  6
CONTINUOUS
 62
     0
100
AcDbLine
 10
0.5
 20
0.5
 30
0.0
 11
0.5
 21
-0.5
 31
0.0
  0
LINE
  5
A5
330
72
100
AcDbEntity
  8
0
  6
CONTINUOUS
 62
     0
100
AcDbLine
 10
0.5
 20
-0.5
 30
0.0
 11
-0.5
 21
-0.5
 31
0.0
  0
LINE
  5
A6
330
72
100
AcDbEntity
  8
0
  6
CONTINUOUS
 62
     0
100
AcDbLine
 10
-0.5
 20
-0.5
 30
0.0
 11
-0.5
 21
0.5
 31
0.0
  0
ENDBLK
  5
74
330
72
100
AcDbEntity
  8
0
100
AcDbBlockEnd
  0
BLOCK
  5
76
330
75
100
AcDbEntity
  8
0
100
AcDbBlockBegin
  2
EX_INTEGRAL
 70
     0
 10
0.0
 20
0.0
 30
0.0
  3
EX_INTEGRAL
  1

  0
LINE
  5
A7
330
75
100
AcDbEntity
  8
0
  6
CONTINUOUS
 62
     0
100
AcDbLine
 10
0.0
 20
0.0
 30
0.0
 11
-1.0
 21
0.0
 31
0.0
  0
ARC
  5
A8
330
75
100
AcDbEntity
  8
0
  6
CONTINUOUS
 62
     0
100
AcDbCircle
 10
0.542115
 20
0.164992
 30
0.0
 40
0.56667
100
AcDbArc
 50
73.07249033629006
 51
196.9275130221199
  0
ARC
  5
A9
330
75
100
AcDbEntity
  8
0
  6
CONTINUOUS
 62
     0
100
AcDbCircle
 10
-0.542115
 20
-0.164992
 30
0.0
 40
0.56667
100
AcDbArc
 50
253.0724869220464
 51
16.9275130559125
  0
ENDBLK
  5
77
330
75
100
AcDbEntity
  8
0
100
AcDbBlockEnd
  0
BLOCK
  5
B0
330
AF
100
AcDbEntity
  8
0
100
AcDbBlockBegin
  2
*D15
 70
     1
 10
0.0
 20
0.0
 30
0.0
  3
*D15
  1

  0
LINE
  5
B2
330
AF
100
AcDbEntity
  8
スト_ル
  6
CONTINUOUS
 62
     3
100
AcDbLine
 10
629.0000000000002
 20
1502.9999644284
 30
0.0
 11
876.0000000000002
 21
1502.9999644284
 31
0.0
  0
LINE
  5
B3
330
AF
100
AcDbEntity
  8
スト_ル
  6
CONTINUOUS
 62
     3
100
AcDbLine
 10
629.0000000000002
 20
583.0
 30
0.0
 11
876.0000000000002
 21
583.0
 31
0.0
  0
LINE
  5
B4
330
AF
100
AcDbEntity
  8
スト_ル
  6
CONTINUOUS
 62
     3
100
AcDbLine
 10
866.0000000000002
 20
1472.9999644284
 30
0.0
 11
866.0000000000002
 21
613.0
 31
0.0
  0
INSERT
  5
B5
330
AF
100
AcDbEntity
  8
スト_ル
 62
     3
100
AcDbBlockReference
  2
EX_NORM
 10
866.0000000000002
 20
1502.9999644284
 30
0.0
 41
30.0
 42
30.0
 43
30.0
 50
90.0
  0
INSERT
  5
B6
330
AF
100
AcDbEntity
  8
スト_ル
 62
     3
100
AcDbBlockReference
  2
EX_NORM
 10
866.0000000000002
 20
583.0
 30
0.0
 41
30.0
 42
30.0
 43
30.0
 50
270.0
  0
MTEXT
  5
B7
330
AF
100
AcDbEntity
  8
スト_ル
 62
     2
100
AcDbMText
 10
842.5000000596049
 20
1042.9999822142
 30
0.0
 40
40.0
 41
0.0
 71
     5
 72
     1
  1
920
  7
EXCADDIM1
 11
0.0
 21
1.0
 31
0.0
  0
POINT
  5
B8
330
AF
100
AcDbEntity
  8
DEFPOINTS
 62
     0
100
AcDbPoint
 10
624.0000000000002
 20
1502.9999644284
 30
0.0
  0
POINT
  5
B9
330
AF
100
AcDbEntity
  8
DEFPOINTS
 62
     0
100
AcDbPoint
 10
624.0000000000002
 20
583.0
 30
0.0
  0
POINT
  5
BA
330
AF
100
AcDbEntity
  8
DEFPOINTS
 62
     0
100
AcDbPoint
 10
866.0000000000002
 20
583.0
 30
0.0
  0
ENDBLK
  5
B1
330
AF
100
AcDbEntity
  8
0
100
AcDbBlockEnd
  0
BLOCK
  5
BF
330
BE
100
AcDbEntity
  8
0
100
AcDbBlockBegin
  2
*D16
 70
     1
 10
0.0
 20
0.0
 30
0.0
  3
*D16
  1

  0
LINE
  5
C1
330
BE
100
AcDbEntity
  8
スト_ル
  6
CONTINUOUS
 62
     3
100
AcDbLine
 10
564.0000000000002
 20
541.99999999999
 30
0.0
 11
564.0000000000002
 21
475.0
 31
0.0
  0
LINE
  5
C2
330
BE
100
AcDbEntity
  8
スト_ル
  6
CONTINUOUS
 62
     3
100
AcDbLine
 10
684.0000000000001
 20
541.99999999999
 30
0.0
 11
684.0000000000001
 21
475.0
 31
0.0
  0
LINE
  5
C3
330
BE
100
AcDbEntity
  8
スト_ル
  6
CONTINUOUS
 62
     3
100
AcDbLine
 10
594.0000000000002
 20
485.0
 30
0.0
 11
654.0000000000001
 21
485.0
 31
0.0
  0
INSERT
  5
C4
330
BE
100
AcDbEntity
  8
スト_ル
 62
     3
100
AcDbBlockReference
  2
EX_NORM
 10
564.0000000000002
 20
485.0
 30
0.0
 41
30.0
 42
30.0
 43
30.0
 50
180.0
  0
INSERT
  5
C5
330
BE
100
AcDbEntity
  8
スト_ル
 62
     3
100
AcDbBlockReference
  2
EX_NORM
 10
684.0000000000001
 20
485.0
 30
0.0
 41
30.0
 42
30.0
 43
30.0
  0
MTEXT
  5
C6
330
BE
100
AcDbEntity
  8
スト_ル
 62
     2
100
AcDbMText
 10
624.0
 20
508.4999999403954
 30
0.0
 40
40.0
 41
0.0
 71
     5
 72
     1
  1
120
  7
EXCADDIM1
  0
POINT
  5
C7
330
BE
100
AcDbEntity
  8
DEFPOINTS
 62
     0
100
AcDbPoint
 10
564.0000000000002
 20
546.99999999999
 30
0.0
  0
POINT
  5
C8
330
BE
100
AcDbEntity
  8
DEFPOINTS
 62
     0
100
AcDbPoint
 10
684.0000000000001
 20
546.99999999999
 30
0.0
  0
POINT
  5
C9
330
BE
100
AcDbEntity
  8
DEFPOINTS
 62
     0
100
AcDbPoint
 10
684.0000000000001
 20
485.0
 30
0.0
  0
ENDBLK
  5
C0
330
BE
100
AcDbEntity
  8
0
100
AcDbBlockEnd
  0
BLOCK
  5
CC
330
CB
100
AcDbEntity
  8
0
100
AcDbBlockBegin
  2
*D17
 70
     1
 10
0.0
 20
0.0
 30
0.0
  3
*D17
  1

  0
LINE
  5
CE
330
CB
100
AcDbEntity
  8
スト_ル
  6
CONTINUOUS
 62
     3
100
AcDbLine
 10
454.0004605470601
 20
2630.631496
 30
0.0
 11
454.0004605470601
 21
2162.0
 31
0.0
  0
LINE
  5
CF
330
CB
100
AcDbEntity
  8
スト_ル
  6
CONTINUOUS
 62
     3
100
AcDbLine
 10
794.0004613727003
 20
2630.631496
 30
0.0
 11
794.0004613727003
 21
2162.0
 31
0.0
  0
LINE
  5
D0
330
CB
100
AcDbEntity
  8
スト_ル
  6
CONTINUOUS
 62
     3
100
AcDbLine
 10
484.0004605470601
 20
2172.0
 30
0.0
 11
764.0004613727003
 21
2172.0
 31
0.0
  0
INSERT
  5
D1
330
CB
100
AcDbEntity
  8
スト_ル
 62
     3
100
AcDbBlockReference
  2
EX_NORM
 10
454.0004605470601
 20
2172.0
 30
0.0
 41
30.0
 42
30.0
 43
30.0
 50
180.0
  0
INSERT
  5
D2
330
CB
100
AcDbEntity
  8
スト_ル
 62
     3
100
AcDbBlockReference
  2
EX_NORM
 10
794.0004613727003
 20
2172.0
 30
0.0
 41
30.0
 42
30.0
 43
30.0
  0
MTEXT
  5
D3
330
CB
100
AcDbEntity
  8
スト_ル
 62
     2
100
AcDbMText
 10
624.0004609598805
 20
2195.499999940395
 30
0.0
 40
40.0
 41
0.0
 71
     5
 72
     1
  1
340
  7
EXCADDIM1
  0
POINT
  5
D4
330
CB
100
AcDbEntity
  8
DEFPOINTS
 62
     0
100
AcDbPoint
 10
454.0004605470601
 20
2635.631496
 30
0.0
  0
POINT
  5
D5
330
CB
100
AcDbEntity
  8
DEFPOINTS
 62
     0
100
AcDbPoint
 10
794.0004613727003
 20
2635.631496
 30
0.0
  0
POINT
  5
D6
330
CB
100
AcDbEntity
  8
DEFPOINTS
 62
     0
100
AcDbPoint
 10
794.0004613727003
 20
2172.0
 30
0.0
  0
ENDBLK
  5
CD
330
CB
100
AcDbEntity
  8
0
100
AcDbBlockEnd
  0
BLOCK
  5
D9
330
D8
100
AcDbEntity
  8
0
100
AcDbBlockBegin
  2
*D18
 70
     1
 10
0.0
 20
0.0
 30
0.0
  3
*D18
  1

  0
LINE
  5
DB
330
D8
100
AcDbEntity
  8
スト_ル
  6
CONTINUOUS
 62
     3
100
AcDbLine
 10
629.0004609596501
 20
2635.6316960906
 30
0.0
 11
896.0000000000002
 21
2635.6316960906
 31
0.0
  0
LINE
  5
DC
330
D8
100
AcDbEntity
  8
スト_ル
  6
CONTINUOUS
 62
     3
100
AcDbLine
 10
629.0009082212503
 20
2255.631496005
 30
0.0
 11
896.0000000000002
 21
2255.631496005
 31
0.0
  0
LINE
  5
DD
330
D8
100
AcDbEntity
  8
スト_ル
  6
CONTINUOUS
 62
     3
100
AcDbLine
 10
886.0000000000002
 20
2605.6316960906
 30
0.0
 11
886.0000000000002
 21
2285.631496005
 31
0.0
  0
INSERT
  5
DE
330
D8
100
AcDbEntity
  8
スト_ル
 62
     3
100
AcDbBlockReference
  2
EX_NORM
 10
886.0000000000002
 20
2635.6316960906
 30
0.0
 41
30.0
 42
30.0
 43
30.0
 50
90.0
  0
INSERT
  5
DF
330
D8
100
AcDbEntity
  8
スト_ル
 62
     3
100
AcDbBlockReference
  2
EX_NORM
 10
886.0000000000002
 20
2255.631496005
 30
0.0
 41
30.0
 42
30.0
 43
30.0
 50
270.0
  0
MTEXT
  5
E0
330
D8
100
AcDbEntity
  8
スト_ル
 62
     2
100
AcDbMText
 10
862.500000059605
 20
2445.6315960478
 30
0.0
 40
40.0
 41
0.0
 71
     5
 72
     1
  1
380
  7
EXCADDIM1
 11
0.0
 21
1.0
 31
0.0
  0
POINT
  5
E1
330
D8
100
AcDbEntity
  8
DEFPOINTS
 62
     0
100
AcDbPoint
 10
624.0004609596501
 20
2635.6316960906
 30
0.0
  0
POINT
  5
E2
330
D8
100
AcDbEntity
  8
DEFPOINTS
 62
     0
100
AcDbPoint
 10
624.0009082212503
 20
2255.631496005
 30
0.0
  0
POINT
  5
E3
330
D8
100
AcDbEntity
  8
DEFPOINTS
 62
     0
100
AcDbPoint
 10
886.0000000000002
 20
2255.631496005
 30
0.0
  0
ENDBLK
  5
DA
330
D8
100
AcDbEntity
  8
0
100
AcDbBlockEnd
  0
BLOCK
  5
ED
330
EC
100
AcDbEntity
  8
0
100
AcDbBlockBegin
  2
*D19
 70
     1
 10
0.0
 20
0.0
 30
0.0
  3
*D19
  1

  0
LINE
  5
EF
330
EC
100
AcDbEntity
  8
スト_ル
  6
CONTINUOUS
 62
     3
100
AcDbLine
 10
1522.8103943
 20
517.49999999999
 30
0.0
 11
1522.8103943
 21
466.0
 31
0.0
  0
LINE
  5
F0
330
EC
100
AcDbEntity
  8
スト_ル
  6
CONTINUOUS
 62
     3
100
AcDbLine
 10
1742.8103943
 20
577.99999999999
 30
0.0
 11
1742.8103943
 21
466.0
 31
0.0
  0
LINE
  5
F1
330
EC
100
AcDbEntity
  8
スト_ル
  6
CONTINUOUS
 62
     3
100
AcDbLine
 10
1552.8103943
 20
476.0
 30
0.0
 11
1712.8103943
 21
476.0
 31
0.0
  0
INSERT
  5
F2
330
EC
100
AcDbEntity
  8
スト_ル
 62
     3
100
AcDbBlockReference
  2
EX_NORM
 10
1522.8103943
 20
476.0
 30
0.0
 41
30.0
 42
30.0
 43
30.0
 50
180.0
  0
INSERT
  5
F3
330
EC
100
AcDbEntity
  8
スト_ル
 62
     3
100
AcDbBlockReference
  2
EX_NORM
 10
1742.8103943
 20
476.0
 30
0.0
 41
30.0
 42
30.0
 43
30.0
  0
MTEXT
  5
F4
330
EC
100
AcDbEntity
  8
スト_ル
 62
     2
100
AcDbMText
 10
1632.8103943
 20
499.4999999403954
 30
0.0
 40
40.0
 41
0.0
 71
     5
 72
     1
  1
220
  7
EXCADDIM1
  0
POINT
  5
F5
330
EC
100
AcDbEntity
  8
DEFPOINTS
 62
     0
100
AcDbPoint
 10
1522.8103943
 20
522.49999999999
 30
0.0
  0
POINT
  5
F6
330
EC
100
AcDbEntity
  8
DEFPOINTS
 62
     0
100
AcDbPoint
 10
1742.8103943
 20
582.99999999999
 30
0.0
  0
POINT
  5
F7
330
EC
100
AcDbEntity
  8
DEFPOINTS
 62
     0
100
AcDbPoint
 10
1742.8103943
 20
476.0
 30
0.0
  0
ENDBLK
  5
EE
330
EC
100
AcDbEntity
  8
0
100
AcDbBlockEnd
  0
BLOCK
  5
FC
330
FB
100
AcDbEntity
  8
0
100
AcDbBlockBegin
  2
*D20
 70
     1
 10
0.0
 20
0.0
 30
0.0
  3
*D20
  1

  0
LINE
  5
FE
330
FB
100
AcDbEntity
  8
スト_ル
  6
CONTINUOUS
 62
     3
100
AcDbLine
 10
1667.8103943
 20
1511.0
 30
0.0
 11
1667.8103943
 21
1423.0
 31
0.0
  0
LINE
  5
FF
330
FB
100
AcDbEntity
  8
スト_ル
  6
CONTINUOUS
 62
     3
100
AcDbLine
 10
1697.8103943
 20
1433.0
 30
0.0
 11
1712.8103943
 21
1433.0
 31
0.0
  0
INSERT
  5
100
330
FB
100
AcDbEntity
  8
スト_ル
 62
     3
100
AcDbBlockReference
  2
EX_NORM
 10
1667.8103943
 20
1433.0
 30
0.0
 41
30.0
 42
30.0
 43
30.0
 50
180.0
  0
INSERT
  5
101
330
FB
100
AcDbEntity
  8
スト_ル
 62
     3
100
AcDbBlockReference
  2
EX_NORM
 10
1742.8103943
 20
1433.0
 30
0.0
 41
30.0
 42
30.0
 43
30.0
  0
MTEXT
  5
102
330
FB
100
AcDbEntity
  8
スト_ル
 62
     2
100
AcDbMText
 10
1705.3103943
 20
1456.499999940395
 30
0.0
 40
40.0
 41
0.0
 71
     5
 72
     1
  1
75
  7
EXCADDIM1
  0
POINT
  5
103
330
FB
100
AcDbEntity
  8
DEFPOINTS
 62
     0
100
AcDbPoint
 10
1667.8103943
 20
1704.9
 30
0.0
  0
POINT
  5
104
330
FB
100
AcDbEntity
  8
DEFPOINTS
 62
     0
100
AcDbPoint
 10
1742.8103943
 20
1661.7500000001
 30
0.0
  0
POINT
  5
105
330
FB
100
AcDbEntity
  8
DEFPOINTS
 62
     0
100
AcDbPoint
 10
1742.8103943
 20
1433.0
 30
0.0
  0
ENDBLK
  5
FD
330
FB
100
AcDbEntity
  8
0
100
AcDbBlockEnd
  0
BLOCK
  5
108
330
107
100
AcDbEntity
  8
0
100
AcDbBlockBegin
  2
*D21
 70
     1
 10
0.0
 20
0.0
 30
0.0
  3
*D21
  1

  0
LINE
  5
10A
330
107
100
AcDbEntity
  8
スト_ル
  6
CONTINUOUS
 62
     3
100
AcDbLine
 10
1363.8103943
 20
902.99999999999
 30
0.0
 11
1302.0
 21
902.99999999999
 31
0.0
  0
LINE
  5
10B
330
107
100
AcDbEntity
  8
スト_ル
  6
CONTINUOUS
 62
     3
100
AcDbLine
 10
1387.8103939685
 20
582.99999999999
 30
0.0
 11
1302.0
 21
582.99999999999
 31
0.0
  0
LINE
  5
10C
330
107
100
AcDbEntity
  8
スト_ル
  6
CONTINUOUS
 62
     3
100
AcDbLine
 10
1312.0
 20
872.99999999999
 30
0.0
 11
1312.0
 21
612.99999999999
 31
0.0
  0
INSERT
  5
10D
330
107
100
AcDbEntity
  8
スト_ル
 62
     3
100
AcDbBlockReference
  2
EX_NORM
 10
1312.0
 20
902.99999999999
 30
0.0
 41
30.0
 42
30.0
 43
30.0
 50
90.0
  0
INSERT
  5
10E
330
107
100
AcDbEntity
  8
スト_ル
 62
     3
100
AcDbBlockReference
  2
EX_NORM
 10
1312.0
 20
582.99999999999
 30
0.0
 41
30.0
 42
30.0
 43
30.0
 50
270.0
  0
MTEXT
  5
10F
330
107
100
AcDbEntity
  8
スト_ル
 62
     2
100
AcDbMText
 10
1288.500000059605
 20
742.99999999999
 30
0.0
 40
40.0
 41
0.0
 71
     5
 72
     1
  1
320
  7
EXCADDIM1
 11
0.0
 21
1.0
 31
0.0
  0
POINT
  5
110
330
107
100
AcDbEntity
  8
DEFPOINTS
 62
     0
100
AcDbPoint
 10
1368.8103943
 20
902.99999999999
 30
0.0
  0
POINT
  5
111
330
107
100
AcDbEntity
  8
DEFPOINTS
 62
     0
100
AcDbPoint
 10
1392.8103939685
 20
582.99999999999
 30
0.0
  0
POINT
  5
112
330
107
100
AcDbEntity
  8
DEFPOINTS
 62
     0
100
AcDbPoint
 10
1312.0
 20
582.99999999999
 30
0.0
  0
ENDBLK
  5
109
330
107
100
AcDbEntity
  8
0
100
AcDbBlockEnd
  0
BLOCK
  5
115
330
114
100
AcDbEntity
  8
0
100
AcDbBlockBegin
  2
*D22
 70
     1
 10
0.0
 20
0.0
 30
0.0
  3
*D22
  1

  0
LINE
  5
117
330
114
100
AcDbEntity
  8
スト_ル
  6
CONTINUOUS
 62
     3
100
AcDbLine
 10
488.0000000000302
 20
2679.631396817871
 30
0.0
 11
488.0000000000302
 21
2718.0
 31
0.0
  0
LINE
  5
118
330
114
100
AcDbEntity
  8
スト_ル
  6
CONTINUOUS
 62
     3
100
AcDbLine
 10
760.0006117006003
 20
2679.631596908471
 30
0.0
 11
760.0006117006003
 21
2718.0
 31
0.0
  0
LINE
  5
119
330
114
100
AcDbEntity
  8
スト_ル
  6
CONTINUOUS
 62
     3
100
AcDbLine
 10
518.0000000000302
 20
2708.0
 30
0.0
 11
730.0006117006003
 21
2708.0
 31
0.0
  0
INSERT
  5
11A
330
114
100
AcDbEntity
  8
スト_ル
 62
     3
100
AcDbBlockReference
  2
EX_NORM
 10
488.0000000000302
 20
2708.0
 30
0.0
 41
30.0
 42
30.0
 43
30.0
 50
180.0
  0
INSERT
  5
11B
330
114
100
AcDbEntity
  8
スト_ル
 62
     3
100
AcDbBlockReference
  2
EX_NORM
 10
760.0006117006003
 20
2708.0
 30
0.0
 41
30.0
 42
30.0
 43
30.0
  0
MTEXT
  5
11C
330
114
100
AcDbEntity
  8
スト_ル
 62
     2
100
AcDbMText
 10
624.0003058503154
 20
2731.499999940395
 30
0.0
 40
40.0
 41
0.0
 71
     5
 72
     1
  1
272
  7
EXCADDIM1
  0
POINT
  5
11D
330
114
100
AcDbEntity
  8
DEFPOINTS
 62
     0
100
AcDbPoint
 10
488.0000000000302
 20
2635.631496
 30
0.0
  0
POINT
  5
11E
330
114
100
AcDbEntity
  8
DEFPOINTS
 62
     0
100
AcDbPoint
 10
760.0006117006003
 20
2635.6316960906
 30
0.0
  0
POINT
  5
11F
330
114
100
AcDbEntity
  8
DEFPOINTS
 62
     0
100
AcDbPoint
 10
760.0006117006003
 20
2708.0
 30
0.0
  0
ENDBLK
  5
116
330
114
100
AcDbEntity
  8
0
100
AcDbBlockEnd
  0
BLOCK
  5
122
330
121
100
AcDbEntity
  8
0
100
AcDbBlockBegin
  2
*D23
 70
     1
 10
0.0
 20
0.0
 30
0.0
  3
*D23
  1

  0
LINE
  5
124
330
121
100
AcDbEntity
  8
スト_ル
  6
CONTINUOUS
 62
     3
100
AcDbLine
 10
1791.8103333
 20
1383.0
 30
0.0
 11
1848.1
 21
1383.0
 31
0.0
  0
LINE
  5
125
330
121
100
AcDbEntity
  8
スト_ル
  6
CONTINUOUS
 62
     3
100
AcDbLine
 10
1791.8103333
 20
1323.0
 30
0.0
 11
1848.1
 21
1323.0
 31
0.0
  0
LINE
  5
126
330
121
100
AcDbEntity
  8
スト_ル
  6
CONTINUOUS
 62
     3
100
AcDbLine
 10
1838.1
 20
1353.0
 30
0.0
 11
1838.1
 21
1353.0
 31
0.0
  0
INSERT
  5
127
330
121
100
AcDbEntity
  8
スト_ル
 62
     3
100
AcDbBlockReference
  2
EX_NORM
 10
1838.1
 20
1383.0
 30
0.0
 41
30.0
 42
30.0
 43
30.0
 50
90.0
  0
INSERT
  5
128
330
121
100
AcDbEntity
  8
スト_ル
 62
     3
100
AcDbBlockReference
  2
EX_NORM
 10
1838.1
 20
1323.0
 30
0.0
 41
30.0
 42
30.0
 43
30.0
 50
270.0
  0
MTEXT
  5
129
330
121
100
AcDbEntity
  8
スト_ル
 62
     2
100
AcDbMText
 10
1814.600000059605
 20
1353.0
 30
0.0
 40
40.0
 41
0.0
 71
     5
 72
     1
  1
60
  7
EXCADDIM1
 11
0.0
 21
1.0
 31
0.0
  0
POINT
  5
12A
330
121
100
AcDbEntity
  8
DEFPOINTS
 62
     0
100
AcDbPoint
 10
1786.8103333
 20
1383.0
 30
0.0
  0
POINT
  5
12B
330
121
100
AcDbEntity
  8
DEFPOINTS
 62
     0
100
AcDbPoint
 10
1786.8103333
 20
1323.0
 30
0.0
  0
POINT
  5
12C
330
121
100
AcDbEntity
  8
DEFPOINTS
 62
     0
100
AcDbPoint
 10
1838.1
 20
1323.0
 30
0.0
  0
ENDBLK
  5
123
330
121
100
AcDbEntity
  8
0
100
AcDbBlockEnd
  0
BLOCK
  5
12F
330
12E
100
AcDbEntity
  8
0
100
AcDbBlockBegin
  2
*D24
 70
     1
 10
0.0
 20
0.0
 30
0.0
  3
*D24
  1

  0
LINE
  5
131
330
12E
100
AcDbEntity
  8
スト_ル
  6
CONTINUOUS
 62
     3
100
AcDbLine
 10
1747.8103943
 20
582.99999999999
 30
0.0
 11
1848.1
 21
582.9999999999901
 31
0.0
  0
LINE
  5
132
330
12E
100
AcDbEntity
  8
スト_ル
  6
CONTINUOUS
 62
     3
100
AcDbLine
 10
1791.8103333
 20
1323.0
 30
0.0
 11
1848.1
 21
1323.0
 31
0.0
  0
LINE
  5
133
330
12E
100
AcDbEntity
  8
スト_ル
  6
CONTINUOUS
 62
     3
100
AcDbLine
 10
1838.1
 20
612.9999999999901
 30
0.0
 11
1838.1
 21
1293.0
 31
0.0
  0
INSERT
  5
134
330
12E
100
AcDbEntity
  8
スト_ル
 62
     3
100
AcDbBlockReference
  2
EX_NORM
 10
1838.1
 20
582.9999999999901
 30
0.0
 41
30.0
 42
30.0
 43
30.0
 50
270.0
  0
INSERT
  5
135
330
12E
100
AcDbEntity
  8
スト_ル
 62
     3
100
AcDbBlockReference
  2
EX_NORM
 10
1838.1
 20
1323.0
 30
0.0
 41
30.0
 42
30.0
 43
30.0
 50
90.0
  0
MTEXT
  5
136
330
12E
100
AcDbEntity
  8
スト_ル
 62
     2
100
AcDbMText
 10
1814.600000059605
 20
952.999999999995
 30
0.0
 40
40.0
 41
0.0
 71
     5
 72
     1
  1
740
  7
EXCADDIM1
 11
0.0
 21
1.0
 31
0.0
  0
POINT
  5
137
330
12E
100
AcDbEntity
  8
DEFPOINTS
 62
     0
100
AcDbPoint
 10
1742.8103943
 20
582.99999999999
 30
0.0
  0
POINT
  5
138
330
12E
100
AcDbEntity
  8
DEFPOINTS
 62
     0
100
AcDbPoint
 10
1786.8103333
 20
1323.0
 30
0.0
  0
POINT
  5
139
330
12E
100
AcDbEntity
  8
DEFPOINTS
 62
     0
100
AcDbPoint
 10
1838.1
 20
1323.0
 30
0.0
  0
ENDBLK
  5
130
330
12E
100
AcDbEntity
  8
0
100
AcDbBlockEnd
  0
BLOCK
  5
13C
330
13B
100
AcDbEntity
  8
0
100
AcDbBlockBegin
  2
*D25
 70
     1
 10
0.0
 20
0.0
 30
0.0
  3
*D25
  1

  0
LINE
  5
13E
330
13B
100
AcDbEntity
  8
スト_ル
  6
CONTINUOUS
 62
     3
100
AcDbLine
 10
953.5000000000005
 20
1678.0000000001
 30
0.0
 11
884.0000000000002
 21
1678.0000000001
 31
0.0
  0
LINE
  5
13F
330
13B
100
AcDbEntity
  8
スト_ル
  6
CONTINUOUS
 62
     3
100
AcDbLine
 10
929.0000000000005
 20
1648.0000000001
 30
0.0
 11
929.0000000000003
 21
613.0
 31
0.0
  0
INSERT
  5
140
330
13B
100
AcDbEntity
  8
スト_ル
 62
     3
100
AcDbBlockReference
  2
EX_NORM
 10
929.0000000000005
 20
1678.0000000001
 30
0.0
 41
30.0
 42
30.0
 43
30.0
 50
90.0
  0
INSERT
  5
141
330
13B
100
AcDbEntity
  8
スト_ル
 62
     3
100
AcDbBlockReference
  2
EX_NORM
 10
929.0000000000003
 20
583.0
 30
0.0
 41
30.0
 42
30.0
 43
30.0
 50
270.0
  0
MTEXT
  5
142
330
13B
100
AcDbEntity
  8
スト_ル
 62
     2
100
AcDbMText
 10
905.500000059605
 20
1130.50000000005
 30
0.0
 40
40.0
 41
0.0
 71
     5
 72
     1
  1
1095
  7
EXCADDIM1
 11
1.038235960927905E-16
 21
1.0
 31
0.0
  0
POINT
  5
143
330
13B
100
AcDbEntity
  8
DEFPOINTS
 62
     0
100
AcDbPoint
 10
958.5000000000002
 20
1678.0000000001
 30
0.0
  0
POINT
  5
144
330
13B
100
AcDbEntity
  8
DEFPOINTS
 62
     0
100
AcDbPoint
 10
929.0000000000003
 20
583.0
 30
0.0
  0
POINT
  5
145
330
13B
100
AcDbEntity
  8
DEFPOINTS
 62
     0
100
AcDbPoint
 10
929.0000000000003
 20
583.0
 30
0.0
  0
ENDBLK
  5
13D
330
13B
100
AcDbEntity
  8
0
100
AcDbBlockEnd
  0
BLOCK
  5
148
330
147
100
AcDbEntity
  8
0
100
AcDbBlockBegin
  2
*D26
 70
     1
 10
0.0
 20
0.0
 30
0.0
  3
*D26
  1

  0
LINE
  5
14A
330
147
100
AcDbEntity
  8
スト_ル
  6
CONTINUOUS
 62
     3
100
AcDbLine
 10
658.0000000000001
 20
1678.0000000001
 30
0.0
 11
876.0000000000008
 21
1678.0000000001
 31
0.0
  0
LINE
  5
14B
330
147
100
AcDbEntity
  8
スト_ル
  6
CONTINUOUS
 62
     3
100
AcDbLine
 10
866.0000000000002
 20
1648.0000000001
 30
0.0
 11
866.0000000000002
 21
1532.9999644284
 31
0.0
  0
INSERT
  5
14C
330
147
100
AcDbEntity
  8
スト_ル
 62
     3
100
AcDbBlockReference
  2
EX_NORM
 10
866.0000000000002
 20
1678.0000000001
 30
0.0
 41
30.0
 42
30.0
 43
30.0
 50
90.0
  0
INSERT
  5
14D
330
147
100
AcDbEntity
  8
スト_ル
 62
     3
100
AcDbBlockReference
  2
EX_NORM
 10
866.0000000000002
 20
1502.9999644284
 30
0.0
 41
30.0
 42
30.0
 43
30.0
 50
270.0
  0
MTEXT
  5
14E
330
147
100
AcDbEntity
  8
スト_ル
 62
     2
100
AcDbMText
 10
842.500000059605
 20
1590.49998221425
 30
0.0
 40
40.0
 41
0.0
 71
     5
 72
     1
  1
175
  7
EXCADDIM1
 11
0.0
 21
1.0
 31
0.0
  0
POINT
  5
14F
330
147
100
AcDbEntity
  8
DEFPOINTS
 62
     0
100
AcDbPoint
 10
624.0000000000002
 20
1678.0000000001
 30
0.0
  0
POINT
  5
150
330
147
100
AcDbEntity
  8
DEFPOINTS
 62
     0
100
AcDbPoint
 10
866.0000000000002
 20
1502.9999644284
 30
0.0
  0
POINT
  5
151
330
147
100
AcDbEntity
  8
DEFPOINTS
 62
     0
100
AcDbPoint
 10
866.0000000000002
 20
1502.9999644284
 30
0.0
  0
ENDBLK
  5
149
330
147
100
AcDbEntity
  8
0
100
AcDbBlockEnd
  0
ENDSEC
  0
SECTION
  2
ENTITIES
  0
ARC
  5
AA
330
1F
100
AcDbEntity
  8
スト_ル
  6
CONTINUOUS
 62
     2
100
AcDbCircle
 10
-1258.415568
 20
819.3256054283497
 30
0.0
 40
2000.000000000001
100
AcDbArc
 50
4.878426962165912
 51
4.878426999999977
  0
ARC
  5
AB
330
1F
100
AcDbEntity
  8
スト_ル
  6
CONTINUOUS
 62
     2
100
AcDbCircle
 10
2506.415568
 20
819.3256054283497
 30
0.0
 40
2000.000000000001
100
AcDbArc
 50
175.1215730000001
 51
175.1215730378342
  0
DIMENSION
  5
AD
330
1F
100
AcDbEntity
  8
スト_ル
  6
CONTINUOUS
 62
     3
100
AcDbDimension
  2
*D15
 10
866.0000000000002
 20
583.0
 30
0.0
 11
842.5000000596049
 21
1042.9999822142
 31
0.0
 70
   160
  3
ISO-25
100
AcDbAlignedDimension
 13
624.0000000000002
 23
1502.9999644284
 33
0.0
 14
624.0000000000002
 24
583.0
 34
0.0
 50
90.0
100
AcDbRotatedDimension
1001
ACAD
1000
DSTYLE
1002
{
1070
   270
1070
     2
1070
     6
1000
EX_NORM
1070
     7
1000
EX_NORM
1070
    41
1040
30.0
1070
    42
1040
5.0
1070
    44
1040
10.0
1070
    73
1070
     0
1070
    74
1070
     0
1070
    75
1070
     0
1070
    76
1070
     0
1070
    77
1070
     1
1070
    78
1070
     8
1070
   140
1040
40.0
1070
   147
1040
0.0
1070
   173
1070
     1
1070
   176
1070
     3
1070
   177
1070
     3
1070
   178
1070
     2
1070
   271
1070
     2
1070
   277
1070
     2
1070
   279
1070
     2
1070
   280
1070
     0
1070
   287
1070
     5
1070
   340
1005
AC
1002
}
  0
LINE
  5
BB
330
1F
100
AcDbEntity
  8
スト_ル
  6
CONTINUOUS
 62
     3
100
AcDbLine
 10
629.0000000000002
 20
1502.9999644284
 30
0.0
 11
876.0000000000002
 21
1502.9999644284
 31
0.0
  0
LINE
  5
BC
330
1F
100
AcDbEntity
  8
スト_ル
  6
CONTINUOUS
 62
     3
100
AcDbLine
 10
629.0000000000002
 20
583.0
 30
0.0
 11
952.0000000000002
 21
583.0
 31
0.0
  0
DIMENSION
  5
BD
330
1F
100
AcDbEntity
  8
スト_ル
  6
CONTINUOUS
 62
     3
100
AcDbDimension
  2
*D16
 10
684.0000000000001
 20
485.0
 30
0.0
 11
624.0
 21
508.4999999403954
 31
0.0
 70
   160
  3
ISO-25
100
AcDbAlignedDimension
 13
564.0000000000002
 23
546.99999999999
 33
0.0
 14
684.0000000000001
 24
546.99999999999
 34
0.0
100
AcDbRotatedDimension
1001
ACAD
1000
DSTYLE
1002
{
1070
   270
1070
     2
1070
     6
1000
EX_NORM
1070
     7
1000
EX_NORM
1070
    41
1040
30.0
1070
    42
1040
5.0
1070
    44
1040
10.0
1070
    73
1070
     0
1070
    74
1070
     0
1070
    75
1070
     0
1070
    76
1070
     0
1070
    77
1070
     1
1070
    78
1070
     8
1070
   140
1040
40.0
1070
   147
1040
0.0
1070
   173
1070
     1
1070
   176
1070
     3
1070
   177
1070
     3
1070
   178
1070
     2
1070
   271
1070
     2
1070
   277
1070
     2
1070
   279
1070
     2
1070
   280
1070
     0
1070
   287
1070
     5
1070
   340
1005
AC
1002
}
  0
DIMENSION
  5
CA
330
1F
100
AcDbEntity
  8
スト_ル
  6
CONTINUOUS
 62
     3
100
AcDbDimension
  2
*D17
 10
794.0004613727003
 20
2172.0
 30
0.0
 11
624.0004609598805
 21
2195.499999940395
 31
0.0
 70
   160
  3
ISO-25
100
AcDbAlignedDimension
 13
454.0004605470601
 23
2635.631496
 33
0.0
 14
794.0004613727003
 24
2635.631496
 34
0.0
100
AcDbRotatedDimension
1001
ACAD
1000
DSTYLE
1002
{
1070
   270
1070
     2
1070
     6
1000
EX_NORM
1070
     7
1000
EX_NORM
1070
    41
1040
30.0
1070
    42
1040
5.0
1070
    44
1040
10.0
1070
    73
1070
     0
1070
    74
1070
     0
1070
    75
1070
     0
1070
    76
1070
     0
1070
    77
1070
     1
1070
    78
1070
     8
1070
   140
1040
40.0
1070
   147
1040
0.0
1070
   173
1070
     1
1070
   176
1070
     3
1070
   177
1070
     3
1070
   178
1070
     2
1070
   271
1070
     2
1070
   277
1070
     2
1070
   279
1070
     2
1070
   280
1070
     0
1070
   287
1070
     5
1070
   340
1005
AC
1002
}
  0
DIMENSION
  5
D7
330
1F
100
AcDbEntity
  8
スト_ル
  6
CONTINUOUS
 62
     3
100
AcDbDimension
  2
*D18
 10
886.0000000000002
 20
2255.631496005
 30
0.0
 11
862.500000059605
 21
2445.6315960478
 31
0.0
 70
   160
  3
ISO-25
100
AcDbAlignedDimension
 13
624.0004609596501
 23
2635.6316960906
 33
0.0
 14
624.0009082212503
 24
2255.631496005
 34
0.0
 50
90.0
100
AcDbRotatedDimension
1001
ACAD
1000
DSTYLE
1002
{
1070
   270
1070
     2
1070
     6
1000
EX_NORM
1070
     7
1000
EX_NORM
1070
    41
1040
30.0
1070
    42
1040
5.0
1070
    44
1040
10.0
1070
    73
1070
     0
1070
    74
1070
     0
1070
    75
1070
     0
1070
    76
1070
     0
1070
    77
1070
     1
1070
    78
1070
     8
1070
   140
1040
40.0
1070
   147
1040
0.0
1070
   173
1070
     1
1070
   176
1070
     3
1070
   177
1070
     3
1070
   178
1070
     2
1070
   271
1070
     2
1070
   277
1070
     2
1070
   279
1070
     2
1070
   280
1070
     0
1070
   287
1070
     5
1070
   340
1005
AC
1002
}
  0
POLYLINE
  5
E4
330
1F
100
AcDbEntity
  8
スト_ル
  6
CONTINUOUS
 62
     6
100
AcDb2dPolyline
 66
     1
 10
0.0
 20
0.0
 30
0.0
 70
   128
  0
VERTEX
  5
E5
330
E4
100
AcDbEntity
  8
スト_ル
  6
CONTINUOUS
 62
     6
100
AcDbVertex
100
AcDb2dVertex
 10
1755.610111700001
 20
1688.4775000001
 30
0.0
  0
VERTEX
  5
E6
330
E4
100
AcDbEntity
  8
スト_ル
  6
CONTINUOUS
 62
     6
100
AcDbVertex
100
AcDb2dVertex
 10
1783.550022600001
 20
1736.8709021001
 30
0.0
  0
SEQEND
  5
E7
330
E4
100
AcDbEntity
  8
スト_ル
  6
CONTINUOUS
 62
     6
  0
LINE
  5
E8
330
1F
100
AcDbEntity
  8
スト_ル
  6
CONTINUOUS
 62
     6
100
AcDbLine
 10
1768.058279938738
 20
1721.705062132731
 30
0.0
 11
1755.610111700001
 21
1688.4775000001
 31
0.0
  0
LINE
  5
E9
330
1F
100
AcDbEntity
  8
スト_ル
  6
CONTINUOUS
 62
     6
100
AcDbLine
 10
1755.610111700001
 20
1688.4775000001
 30
0.0
 11
1778.161912617497
 21
1715.871733940026
 31
0.0
  0
LEADER
  5
EA
330
1F
100
AcDbEntity
  8
スト_ル
  6
CONTINUOUS
 62
     6
100
AcDbLeader
  3
ISO-25
 76
     2
 10
1493.249999999999
 20
542.9499999999898
 30
0.0
 10
1451.616546699999
 20
470.8386413999901
 30
0.0
1001
ACAD
1000
DSTYLE
1002
{
1070
     5
1000
EX_NORM
1070
    41
1040
35.0
1070
   341
1005
4E
1002
}
  0
DIMENSION
  5
EB
330
1F
100
AcDbEntity
  8
スト_ル
  6
CONTINUOUS
 62
     3
100
AcDbDimension
  2
*D19
 10
1742.8103943
 20
476.0
 30
0.0
 11
1632.8103943
 21
499.4999999403954
 31
0.0
 70
   160
  3
ISO-25
100
AcDbAlignedDimension
 13
1522.8103943
 23
522.49999999999
 33
0.0
 14
1742.8103943
 24
582.99999999999
 34
0.0
100
AcDbRotatedDimension
1001
ACAD
1000
DSTYLE
1002
{
1070
   270
1070
     2
1070
     6
1000
EX_NORM
1070
     7
1000
EX_NORM
1070
    41
1040
30.0
1070
    42
1040
5.0
1070
    44
1040
10.0
1070
    73
1070
     0
1070
    74
1070
     0
1070
    75
1070
     0
1070
    76
1070
     0
1070
    77
1070
     1
1070
    78
1070
     8
1070
   140
1040
40.0
1070
   147
1040
0.0
1070
   173
1070
     1
1070
   176
1070
     3
1070
   177
1070
     3
1070
   178
1070
     2
1070
   271
1070
     2
1070
   277
1070
     2
1070
   279
1070
     2
1070
   280
1070
     0
1070
   287
1070
     5
1070
   340
1005
AC
1002
}
  0
LINE
  5
F8
330
1F
100
AcDbEntity
  8
スト_ル
  6
CONTINUOUS
 62
     3
100
AcDbLine
 10
629.0000000000002
 20
1502.9999644284
 30
0.0
 11
876.0000000000002
 21
1502.9999644284
 31
0.0
  0
LINE
  5
F9
330
1F
100
AcDbEntity
  8
スト_ル
  6
CONTINUOUS
 62
     3
100
AcDbLine
 10
629.0000000000002
 20
583.0
 30
0.0
 11
942.0000000000002
 21
583.0
 31
0.0
  0
DIMENSION
  5
FA
330
1F
100
AcDbEntity
  8
スト_ル
  6
CONTINUOUS
 62
     3
100
AcDbDimension
  2
*D20
 10
1742.8103943
 20
1433.0
 30
0.0
 11
1705.3103943
 21
1456.499999940395
 31
0.0
 70
   160
  3
ISO-25
100
AcDbAlignedDimension
 13
1667.8103943
 23
1704.9
 33
0.0
 14
1742.8103943
 24
1661.7500000001
 34
0.0
100
AcDbRotatedDimension
1001
ACAD
1000
DSTYLE
1002
{
1070
   270
1070
     2
1070
     6
1000
EX_NORM
1070
     7
1000
EX_NORM
1070
    41
1040
30.0
1070
    42
1040
193.9000000000003
1070
    44
1040
10.0
1070
    73
1070
     0
1070
    74
1070
     0
1070
    75
1070
     0
1070
    76
1070
     1
1070
    77
1070
     1
1070
    78
1070
     8
1070
   140
1040
40.0
1070
   147
1040
0.0
1070
   173
1070
     1
1070
   176
1070
     3
1070
   177
1070
     3
1070
   178
1070
     2
1070
   271
1070
     2
1070
   277
1070
     2
1070
   279
1070
     2
1070
   280
1070
     0
1070
   287
1070
     5
1070
   340
1005
AC
1002
}
  0
DIMENSION
  5
106
330
1F
100
AcDbEntity
  8
スト_ル
  6
CONTINUOUS
 62
     3
100
AcDbDimension
  2
*D21
 10
1312.0
 20
582.99999999999
 30
0.0
 11
1288.500000059605
 21
742.99999999999
 31
0.0
 70
   160
  3
ISO-25
100
AcDbAlignedDimension
 13
1368.8103943
 23
902.99999999999
 33
0.0
 14
1392.8103939685
 24
582.99999999999
 34
0.0
 50
90.0
100
AcDbRotatedDimension
1001
ACAD
1000
DSTYLE
1002
{
1070
   270
1070
     2
1070
     6
1000
EX_NORM
1070
     7
1000
EX_NORM
1070
    41
1040
30.0
1070
    42
1040
5.0
1070
    44
1040
10.0
1070
    73
1070
     0
1070
    74
1070
     0
1070
    75
1070
     0
1070
    76
1070
     0
1070
    77
1070
     1
1070
    78
1070
     8
1070
   140
1040
40.0
1070
   147
1040
0.0
1070
   173
1070
     1
1070
   176
1070
     3
1070
   177
1070
     3
1070
   178
1070
     2
1070
   271
1070
     2
1070
   277
1070
     2
1070
   279
1070
     2
1070
   280
1070
     0
1070
   287
1070
     5
1070
   340
1005
AC
1002
}
  0
DIMENSION
  5
113
330
1F
100
AcDbEntity
  8
スト_ル
  6
CONTINUOUS
 62
     3
100
AcDbDimension
  2
*D22
 10
760.0006117006003
 20
2708.0
 30
0.0
 11
624.0003058503154
 21
2731.499999940395
 31
0.0
 70
   160
  3
ISO-25
100
AcDbAlignedDimension
 13
488.0000000000302
 23
2635.631496
 33
0.0
 14
760.0006117006003
 24
2635.6316960906
 34
0.0
100
AcDbRotatedDimension
1001
ACAD
1000
DSTYLE
1002
{
1070
   270
1070
     2
1070
     6
1000
EX_NORM
1070
     7
1000
EX_NORM
1070
    41
1040
30.0
1070
    42
1040
43.99990081787109
1070
    44
1040
10.0
1070
    73
1070
     0
1070
    74
1070
     0
1070
    75
1070
     0
1070
    76
1070
     0
1070
    77
1070
     1
1070
    78
1070
     8
1070
   140
1040
40.0
1070
   147
1040
0.0
1070
   173
1070
     1
1070
   176
1070
     3
1070
   177
1070
     3
1070
   178
1070
     2
1070
   271
1070
     2
1070
   277
1070
     2
1070
   279
1070
     2
1070
   280
1070
     0
1070
   287
1070
     5
1070
   340
1005
AC
1002
}
  0
DIMENSION
  5
120
330
1F
100
AcDbEntity
  8
スト_ル
  6
CONTINUOUS
 62
     3
100
AcDbDimension
  2
*D23
 10
1838.1
 20
1323.0
 30
0.0
 11
1814.600000059605
 21
1353.0
 31
0.0
 70
   160
  3
ISO-25
100
AcDbAlignedDimension
 13
1786.8103333
 23
1383.0
 33
0.0
 14
1786.8103333
 24
1323.0
 34
0.0
 50
90.0
100
AcDbRotatedDimension
1001
ACAD
1000
DSTYLE
1002
{
1070
   270
1070
     2
1070
     6
1000
EX_NORM
1070
     7
1000
EX_NORM
1070
    41
1040
30.0
1070
    42
1040
5.0
1070
    44
1040
10.0
1070
    73
1070
     0
1070
    74
1070
     0
1070
    75
1070
     0
1070
    76
1070
     0
1070
    77
1070
     1
1070
    78
1070
     8
1070
   140
1040
40.0
1070
   147
1040
0.0
1070
   173
1070
     1
1070
   176
1070
     3
1070
   177
1070
     3
1070
   178
1070
     2
1070
   271
1070
     2
1070
   277
1070
     2
1070
   279
1070
     2
1070
   280
1070
     0
1070
   287
1070
     5
1070
   340
1005
AC
1002
}
  0
DIMENSION
  5
12D
330
1F
100
AcDbEntity
  8
スト_ル
  6
CONTINUOUS
 62
     3
100
AcDbDimension
  2
*D24
 10
1838.1
 20
1323.0
 30
0.0
 11
1814.600000059605
 21
952.999999999995
 31
0.0
 70
   160
  3
ISO-25
100
AcDbAlignedDimension
 13
1742.8103943
 23
582.99999999999
 33
0.0
 14
1786.8103333
 24
1323.0
 34
0.0
 50
90.0
100
AcDbRotatedDimension
1001
ACAD
1000
DSTYLE
1002
{
1070
   270
1070
     2
1070
     6
1000
EX_NORM
1070
     7
1000
EX_NORM
1070
    41
1040
30.0
1070
    42
1040
5.0
1070
    44
1040
10.0
1070
    73
1070
     0
1070
    74
1070
     0
1070
    75
1070
     0
1070
    76
1070
     0
1070
    77
1070
     1
1070
    78
1070
     8
1070
   140
1040
40.0
1070
   147
1040
0.0
1070
   173
1070
     1
1070
   176
1070
     3
1070
   177
1070
     3
1070
   178
1070
     2
1070
   271
1070
     2
1070
   277
1070
     2
1070
   279
1070
     2
1070
   280
1070
     0
1070
   287
1070
     5
1070
   340
1005
AC
1002
}
  0
DIMENSION
  5
13A
330
1F
100
AcDbEntity
  8
スト_ル
  6
CONTINUOUS
 62
     3
100
AcDbDimension
  2
*D25
 10
929.0000000000003
 20
583.0
 30
0.0
 11
905.500000059605
 21
1130.50000000005
 31
0.0
 70
   160
  3
ISO-25
100
AcDbAlignedDimension
 13
958.5000000000002
 23
1678.0000000001
 33
0.0
 14
929.0000000000003
 24
583.0
 34
0.0
 50
90.0
100
AcDbRotatedDimension
1001
ACAD
1000
DSTYLE
1002
{
1070
   270
1070
     2
1070
     6
1000
EX_NORM
1070
     7
1000
EX_NORM
1070
    41
1040
30.0
1070
    42
1040
4.999999999999773
1070
    44
1040
45.00000000000023
1070
    73
1070
     0
1070
    74
1070
     0
1070
    75
1070
     0
1070
    76
1070
     1
1070
    77
1070
     1
1070
    78
1070
     8
1070
   140
1040
40.0
1070
   147
1040
0.0
1070
   173
1070
     1
1070
   176
1070
     3
1070
   177
1070
     3
1070
   178
1070
     2
1070
   271
1070
     2
1070
   277
1070
     2
1070
   279
1070
     2
1070
   280
1070
     0
1070
   287
1070
     5
1070
   340
1005
AC
1002
}
  0
DIMENSION
  5
146
330
1F
100
AcDbEntity
  8
スト_ル
  6
CONTINUOUS
 62
     3
100
AcDbDimension
  2
*D26
 10
866.0000000000002
 20
1502.9999644284
 30
0.0
 11
842.500000059605
 21
1590.49998221425
 31
0.0
 70
   160
  3
ISO-25
100
AcDbAlignedDimension
 13
624.0000000000002
 23
1678.0000000001
 33
0.0
 14
866.0000000000002
 24
1502.9999644284
 34
0.0
 50
90.0
100
AcDbRotatedDimension
1001
ACAD
1000
DSTYLE
1002
{
1070
   270
1070
     2
1070
     6
1000
EX_NORM
1070
     7
1000
EX_NORM
1070
    41
1040
30.0
1070
    42
1040
33.99999999999989
1070
    44
1040
10.00000000000057
1070
    73
1070
     0
1070
    74
1070
     0
1070
    75
1070
     0
1070
    76
1070
     1
1070
    77
1070
     1
1070
    78
1070
     8
1070
   140
1040
40.0
1070
   147
1040
0.0
1070
   173
1070
     1
1070
   176
1070
     3
1070
   177
1070
     3
1070
   178
1070
     2
1070
   271
1070
     2
1070
   277
1070
     2
1070
   279
1070
     2
1070
   280
1070
     0
1070
   287
1070
     5
1070
   340
1005
AC
1002
}
  0
LINE
  5
152
330
1F
100
AcDbEntity
  8
スト_ル
  6
EXLTYPE2
 62
     6
100
AcDbLine
 10
179.0000000000002
 20
1515.0
 30
0.0
 11
-11.00000000000003
 21
1515.0
 31
0.0
  0
LINE
  5
153
330
1F
100
AcDbEntity
  8
スト_ル
  6
CONTINUOUS
 62
     7
100
AcDbLine
 10
179.0000000000002
 20
88.0
 30
0.0
 11
1999.0
 21
88.0
 31
0.0
  0
LINE
  5
154
330
1F
100
AcDbEntity
  8
スト_ル
  6
CONTINUOUS
 62
     7
100
AcDbLine
 10
1999.0
 20
88.0
 30
0.0
 11
1999.0
 21
2888.0
 31
0.0
  0
LINE
  5
155
330
1F
100
AcDbEntity
  8
スト_ル
  6
CONTINUOUS
 62
     7
100
AcDbLine
 10
179.0000000000002
 20
88.0
 30
0.0
 11
179.0000000000002
 21
2888.0
 31
0.0
  0
LINE
  5
156
330
1F
100
AcDbEntity
  8
スト_ル
  6
CONTINUOUS
 62
     7
100
AcDbLine
 10
179.0000000000002
 20
2888.0
 30
0.0
 11
1999.0
 21
2888.0
 31
0.0
  0
LINE
  5
157
330
1F
100
AcDbEntity
  8
スト_ル
  6
CONTINUOUS
 62
     7
100
AcDbLine
 10
179.0000000000002
 20
308.0
 30
0.0
 11
1999.0
 21
308.0
 31
0.0
  0
LINE
  5
158
330
1F
100
AcDbEntity
  8
スト_ル
  6
CONTINUOUS
 62
     6
100
AcDbLine
 10
1999.0
 20
188.0
 30
0.0
 11
749.0000000000001
 21
188.0
 31
0.0
  0
LINE
  5
159
330
1F
100
AcDbEntity
  8
スト_ル
  6
CONTINUOUS
 62
     6
100
AcDbLine
 10
1859.0
 20
308.0
 30
0.0
 11
1859.0
 21
188.0
 31
0.0
  0
LINE
  5
15A
330
1F
100
AcDbEntity
  8
スト_ル
  6
CONTINUOUS
 62
     6
100
AcDbLine
 10
1809.0
 20
308.0
 30
0.0
 11
1809.0
 21
188.0
 31
0.0
  0
LINE
  5
15B
330
1F
100
AcDbEntity
  8
スト_ル
  6
CONTINUOUS
 62
     6
100
AcDbLine
 10
1439.0
 20
308.0
 30
0.0
 11
1439.0
 21
88.0
 31
0.0
  0
LINE
  5
15C
330
1F
100
AcDbEntity
  8
スト_ル
  6
CONTINUOUS
 62
     6
100
AcDbLine
 10
1389.0
 20
308.0
 30
0.0
 11
1389.0
 21
88.0
 31
0.0
  0
LINE
  5
15D
330
1F
100
AcDbEntity
  8
スト_ル
  6
CONTINUOUS
 62
     6
100
AcDbLine
 10
799.0000000000003
 20
308.0
 30
0.0
 11
799.0000000000003
 21
188.0
 31
0.0
  0
LINE
  5
15E
330
1F
100
AcDbEntity
  8
スト_ル
  6
CONTINUOUS
 62
     6
100
AcDbLine
 10
749.0000000000001
 20
308.0
 30
0.0
 11
749.0000000000001
 21
88.0
 31
0.0
  0
LINE
  5
15F
330
1F
100
AcDbEntity
  8
スト_ル
  6
CONTINUOUS
 62
     6
100
AcDbLine
 10
619.0000000000002
 20
308.0
 30
0.0
 11
619.0000000000002
 21
88.0
 31
0.0
  0
LINE
  5
160
330
1F
100
AcDbEntity
  8
スト_ル
  6
CONTINUOUS
 62
     6
100
AcDbLine
 10
489.0000000000002
 20
308.0
 30
0.0
 11
489.0000000000002
 21
88.0
 31
0.0
  0
LINE
  5
161
330
1F
100
AcDbEntity
  8
スト_ル
  6
CONTINUOUS
 62
     6
100
AcDbLine
 10
334.0000000000002
 20
308.0
 30
0.0
 11
334.0000000000002
 21
88.0
 31
0.0
  0
LINE
  5
162
330
1F
100
AcDbEntity
  8
スト_ル
  6
CONTINUOUS
 62
     6
100
AcDbLine
 10
179.0000000000002
 20
258.0
 30
0.0
 11
749.0000000000001
 21
258.0
 31
0.0
  0
LINE
  5
163
330
1F
100
AcDbEntity
  8
スト_ル
  6
CONTINUOUS
 62
     6
100
AcDbLine
 10
1891.6538086
 20
211.0029297000001
 30
0.0
 11
1968.9938965
 21
289.6998291
 31
0.0
  0
LINE
  5
164
330
1F
100
AcDbEntity
  8
スト_ル
  6
EXLTYPE2
 62
     6
100
AcDbLine
 10
179.0000000000002
 20
138.0
 30
0.0
 11
489.0000000000002
 21
138.0
 31
0.0
  0
CIRCLE
  5
165
330
1F
100
AcDbEntity
  8
スト_ル
  6
CONTINUOUS
 62
     6
100
AcDbCircle
 10
229.0000000000002
 20
113.0
 30
0.0
 40
1.0000002
  0
CIRCLE
  5
166
330
1F
100
AcDbEntity
  8
スト_ル
  6
CONTINUOUS
 62
     6
100
AcDbCircle
 10
279.0000000000002
 20
113.0
 30
0.0
 40
1.0000002
  0
CIRCLE
  5
167
330
1F
100
AcDbEntity
  8
スト_ル
  6
CONTINUOUS
 62
     6
100
AcDbCircle
 10
384.0000000000002
 20
113.0
 30
0.0
 40
1.0000002
  0
CIRCLE
  5
168
330
1F
100
AcDbEntity
  8
スト_ル
  6
CONTINUOUS
 62
     6
100
AcDbCircle
 10
434.0000000000002
 20
113.0
 30
0.0
 40
1.0000002
  0
TEXT
  5
169
330
1F
100
AcDbEntity
  8
スト_ル
  6
CONTINUOUS
 62
     2
100
AcDbText
 10
1930.279296900001
 20
211.3488464000002
 30
0.0
 40
30.0
  1
１０
 41
1.098531212121213
  7
EXCADSTD
 72
     5
 11
1982.067196900001
 21
211.3488464000002
 31
0.0
100
AcDbText
  0
TEXT
  5
16A
330
1F
100
AcDbEntity
  8
スト_ル
  6
CONTINUOUS
 62
     2
100
AcDbText
 10
201.5000000000002
 20
261.75
 30
0.0
 40
42.5
  1
製図
 41
1.509694117647059
  7
EXCADSTD
 72
     5
 11
302.3260000000002
 21
261.75
 31
0.0
100
AcDbText
  0
TEXT
  5
16B
330
1F
100
AcDbEntity
  8
スト_ル
  6
CONTINUOUS
 62
     2
100
AcDbText
 10
356.5000000000002
 20
261.75
 30
0.0
 40
42.5
  1
写図
 41
1.509694117647059
  7
EXCADSTD
 72
     5
 11
457.3260000000002
 21
261.75
 31
0.0
100
AcDbText
  0
TEXT
  5
16C
330
1F
100
AcDbEntity
  8
スト_ル
  6
CONTINUOUS
 62
     2
100
AcDbText
 10
506.5000000000002
 20
261.75
 30
0.0
 40
42.5
  1
検図
 41
1.303826737967914
  7
EXCADSTD
 72
     5
 11
593.5770000000002
 21
261.75
 31
0.0
100
AcDbText
  0
TEXT
  5
16D
330
1F
100
AcDbEntity
  8
スト_ル
  6
CONTINUOUS
 62
     2
100
AcDbText
 10
636.5000000000001
 20
261.75
 30
0.0
 40
42.5
  1
承認
 41
1.303826737967914
  7
EXCADSTD
 72
     5
 11
723.5770000000001
 21
261.75
 31
0.0
100
AcDbText
  0
TEXT
  5
16E
330
1F
100
AcDbEntity
  8
スト_ル
  6
CONTINUOUS
 62
     2
100
AcDbText
 10
752.7500000000003
 20
251.75
 30
0.0
 40
42.5
  1
品
 41
1.12
  7
EXCADSTD
 72
     5
 11
786.7500000000003
 21
251.75
 31
0.0
100
AcDbText
  0
TEXT
  5
16F
330
1F
100
AcDbEntity
  8
スト_ル
  6
CONTINUOUS
 62
     2
100
AcDbText
 10
752.7500000000003
 20
201.75
 30
0.0
 40
42.5
  1
名
 41
1.12
  7
EXCADSTD
 72
     5
 11
786.7500000000003
 21
201.75
 31
0.0
100
AcDbText
  0
TEXT
  5
170
330
1F
100
AcDbEntity
  8
スト_ル
  6
CONTINUOUS
 62
     2
100
AcDbText
 10
1392.75
 20
251.75
 30
0.0
 40
42.5
  1
品
 41
1.12
  7
EXCADSTD
 72
     5
 11
1426.75
 21
251.75
 31
0.0
100
AcDbText
  0
TEXT
  5
171
330
1F
100
AcDbEntity
  8
スト_ル
  6
CONTINUOUS
 62
     2
100
AcDbText
 10
1392.75
 20
201.75
 30
0.0
 40
42.5
  1
番
 41
1.12
  7
EXCADSTD
 72
     5
 11
1426.75
 21
201.75
 31
0.0
100
AcDbText
  0
TEXT
  5
172
330
1F
100
AcDbEntity
  8
スト_ル
  6
CONTINUOUS
 62
     2
100
AcDbText
 10
1812.75
 20
251.75
 30
0.0
 40
42.5
  1
尺
 41
1.12
  7
EXCADSTD
 72
     5
 11
1846.75
 21
251.75
 31
0.0
100
AcDbText
  0
TEXT
  5
173
330
1F
100
AcDbEntity
  8
スト_ル
  6
CONTINUOUS
 62
     2
100
AcDbText
 10
1812.75
 20
201.75
 30
0.0
 40
42.5
  1
度
 41
1.12
  7
EXCADSTD
 72
     5
 11
1846.75
 21
201.75
 31
0.0
100
AcDbText
  0
TEXT
  5
174
330
1F
100
AcDbEntity
  8
スト_ル
  6
CONTINUOUS
 62
     2
100
AcDbText
 10
1392.75
 20
138.75
 30
0.0
 40
42.5
  1
図
 41
1.12
  7
EXCADSTD
 72
     5
 11
1426.75
 21
138.75
 31
0.0
100
AcDbText
  0
TEXT
  5
175
330
1F
100
AcDbEntity
  8
スト_ル
  6
CONTINUOUS
 62
     2
100
AcDbText
 10
1392.75
 20
95.75
 30
0.0
 40
42.5
  1
番
 41
1.12
  7
EXCADSTD
 72
     5
 11
1426.75
 21
95.75
 31
0.0
100
AcDbText
  0
TEXT
  5
177
330
1F
100
AcDbEntity
  8
スト_ル
  6
CONTINUOUS
 62
     2
100
AcDbText
 10
769.0000000000002
 20
108.0
 30
0.0
 40
45.0
  1
ジャニス工業株式会社
 41
1.025641025641026
  7
EXCADTTF1
 72
     5
 11
1369.0
 21
108.0
 31
0.0
100
AcDbText
  0
LINE
  5
178
330
1F
100
AcDbEntity
  8
スト_ル
  6
EXLTYPE3
 62
     6
100
AcDbLine
 10
1522.810394299981
 20
522.49999999999
 30
0.0
 11
1522.810394299981
 21
857.3999999999896
 31
0.0
  0
LINE
  5
179
330
1F
100
AcDbEntity
  8
スト_ル
  6
EXLTYPE3
 62
     6
100
AcDbLine
 10
624.0000000000002
 20
1750.99996442835
 30
0.0
 11
624.0000000000002
 21
562.9999644283498
 31
0.0
  0
TEXT
  5
17A
330
1F
100
AcDbEntity
  8
スト_ル
  6
CONTINUOUS
 62
     2
100
AcDbText
 10
1727.99999999998
 20
1907.99999999999
 30
0.0
 40
40.0
  1
Ｗ.Ｌ
 50
90.0
 41
1.22093023255814
  7
EXCADSTD
 72
     5
 11
1727.99999999998
 21
2007.99999999999
 31
0.0
100
AcDbText
  0
TEXT
  5
17B
330
1F
100
AcDbEntity
  8
スト_ル
  6
CONTINUOUS
 62
     2
100
AcDbText
 10
985.1896060125803
 20
596.99999999999
 30
0.0
 40
40.0
  1
Ｆ.Ｌ
 41
1.22093023255814
  7
EXCADSTD
 72
     5
 11
1085.18960601258
 21
596.99999999999
 31
0.0
100
AcDbText
  0
ARC
  5
17C
330
1F
100
AcDbEntity
  8
スト_ル
  6
CONTINUOUS
 62
     2
100
AcDbCircle
 10
743.8344549598805
 20
2471.94709399999
 30
0.0
 40
250.0000000000002
100
AcDbArc
 50
204.851465
 51
238.599481
  0
ARC
  5
17D
330
1F
100
AcDbEntity
  8
スト_ル
  6
CONTINUOUS
 62
     2
100
AcDbCircle
 10
624.0004609598805
 20
2275.63149599999
 30
0.0
 40
20.0
100
AcDbArc
 50
238.599481
 51
270.0000000000002
  0
ARC
  5
17E
330
1F
100
AcDbEntity
  8
スト_ル
  6
CONTINUOUS
 62
     2
100
AcDbCircle
 10
513.8363629598805
 20
2427.86756599999
 30
0.0
 40
20.0
100
AcDbArc
 50
188.1174250000001
 51
199.2450310000001
  0
ARC
  5
17F
330
1F
100
AcDbEntity
  8
スト_ル
  6
CONTINUOUS
 62
     2
100
AcDbCircle
 10
743.8344549598805
 20
2471.94709399999
 30
0.0
 40
238.0000000000001
100
AcDbArc
 50
204.851465
 51
238.599481
  0
ARC
  5
180
330
1F
100
AcDbEntity
  8
スト_ル
  6
CONTINUOUS
 62
     2
100
AcDbCircle
 10
624.0004609598805
 20
2275.63149599999
 30
0.0
 40
8.0
100
AcDbArc
 50
238.599481
 51
270.0000000000002
  0
ARC
  5
181
330
1F
100
AcDbEntity
  8
スト_ル
  6
CONTINUOUS
 62
     2
100
AcDbCircle
 10
552.7991469598805
 20
2518.33660199999
 30
0.0
 40
100.0000000000001
100
AcDbArc
 50
224.1647100000001
 51
239.4240380000001
  0
ARC
  5
182
330
1F
100
AcDbEntity
  8
スト_ル
  6
CONTINUOUS
 62
     2
100
AcDbCircle
 10
526.5306789598806
 20
2427.95815999999
 30
0.0
 40
20.0
100
AcDbArc
 50
188.2922370000001
 51
199.6584750000001
  0
ARC
  5
183
330
1F
100
AcDbEntity
  8
スト_ル
  6
CONTINUOUS
 62
     2
100
AcDbCircle
 10
1061.424576959881
 20
2619.04065099999
 30
0.0
 40
588.0000000000006
100
AcDbArc
 50
199.6584750000001
 51
204.851465
  0
ARC
  5
184
330
1F
100
AcDbEntity
  8
スト_ル
  6
CONTINUOUS
 62
     2
100
AcDbCircle
 10
496.8443189598804
 20
2423.63149599999
 30
0.0
 40
10.0
100
AcDbArc
 50
8.292236999999998
 51
59.424038
  0
LINE
  5
185
330
1F
100
AcDbEntity
  8
スト_ル
  6
CONTINUOUS
 62
     2
100
AcDbLine
 10
454.0004609598805
 20
2635.63149599999
 30
0.0
 11
624.0004609598805
 21
2635.63149599999
 31
0.0
  0
ARC
  5
186
330
1F
100
AcDbEntity
  8
スト_ル
  6
CONTINUOUS
 62
     2
100
AcDbCircle
 10
1061.424576959881
 20
2619.04065099999
 30
0.0
 40
600.0000000000006
100
AcDbArc
 50
199.2450310000001
 51
204.851465
  0
ARC
  5
187
330
1F
100
AcDbEntity
  8
スト_ル
  6
CONTINUOUS
 62
     2
100
AcDbCircle
 10
1061.424576959881
 20
2619.04065099999
 30
0.0
 40
600.0000000000006
100
AcDbArc
 50
199.006894
 51
199.2450310000001
  0
ARC
  5
188
330
1F
100
AcDbEntity
  8
スト_ル
  6
CONTINUOUS
 62
     2
100
AcDbCircle
 10
484.1369399598805
 20
2423.63149599999
 30
0.0
 40
10.0
100
AcDbArc
 50
0.0
 51
8.117425000000019
  0
ARC
  5
189
330
1F
100
AcDbEntity
  8
スト_ル
  6
CONTINUOUS
 62
     2
100
AcDbCircle
 10
496.8443189598804
 20
2423.63149599999
 30
0.0
 40
10.0
100
AcDbArc
 50
0.0
 51
8.292236999999998
  0
ARC
  5
18A
330
1F
100
AcDbEntity
  8
スト_ル
  6
CONTINUOUS
 62
     2
100
AcDbCircle
 10
1061.424576959881
 20
2619.04065099999
 30
0.0
 40
588.0000000000006
100
AcDbArc
 50
199.4101670000002
 51
199.6584750000001
  0
ARC
  5
18B
330
1F
100
AcDbEntity
  8
スト_ル
  6
CONTINUOUS
 62
     2
100
AcDbCircle
 10
593.4508279598804
 20
2297.42157699999
 30
0.0
 40
200.0000000000002
100
AcDbArc
 50
101.996374
 51
123.624578
  0
ARC
  5
18C
330
1F
100
AcDbEntity
  8
スト_ル
  6
CONTINUOUS
 62
     2
100
AcDbCircle
 10
488.2385589598803
 20
2455.63149599999
 30
0.0
 40
10.0
100
AcDbArc
 50
123.624578
 51
224.1647100000001
  0
ARC
  5
18D
330
1F
100
AcDbEntity
  8
スト_ル
  6
CONTINUOUS
 62
     2
100
AcDbCircle
 10
484.1369399598805
 20
2423.63149599999
 30
0.0
 40
10.0
100
AcDbArc
 50
8.117425000000019
 51
46.58268700000001
  0
ARC
  5
18E
330
1F
100
AcDbEntity
  8
スト_ル
  6
CONTINUOUS
 62
     2
100
AcDbCircle
 10
2453.98676095988
 20
2628.22891799999
 30
0.0
 40
2000.000000000001
100
AcDbArc
 50
179.787931
 51
184.397879
  0
ARC
  5
18F
330
1F
100
AcDbEntity
  8
スト_ル
  6
CONTINUOUS
 62
     2
100
AcDbCircle
 10
874.9434009598804
 20
2751.30558799999
 30
0.0
 40
500.0000000000003
100
AcDbArc
 50
214.2358090000001
 51
219.9783590000001
  0
ARC
  5
190
330
1F
100
AcDbEntity
  8
スト_ル
  6
CONTINUOUS
 62
     2
100
AcDbCircle
 10
624.0004609598805
 20
2153.65211999999
 30
0.0
 40
346.9793760000002
100
AcDbArc
 50
101.996374
 51
115.583739
  0
ARC
  5
191
330
1F
100
AcDbEntity
  8
スト_ル
  6
CONTINUOUS
 62
     2
100
AcDbCircle
 10
469.8461349598806
 20
2475.63149599999
 30
0.0
 40
10.0
100
AcDbArc
 50
184.397879
 51
295.5837390000003
  0
ARC
  5
192
330
1F
100
AcDbEntity
  8
スト_ル
  6
CONTINUOUS
 62
     2
100
AcDbCircle
 10
504.1664669598804
 20
2471.94709399999
 30
0.0
 40
250.0000000000002
100
AcDbArc
 50
301.4005189999999
 51
335.1485350000002
  0
ARC
  5
193
330
1F
100
AcDbEntity
  8
スト_ル
  6
CONTINUOUS
 62
     2
100
AcDbCircle
 10
624.0004609598805
 20
2275.63149599999
 30
0.0
 40
20.0
100
AcDbArc
 50
270.0000000000002
 51
301.4005189999999
  0
ARC
  5
194
330
1F
100
AcDbEntity
  8
スト_ル
  6
CONTINUOUS
 62
     2
100
AcDbCircle
 10
734.1645589598804
 20
2427.86756599999
 30
0.0
 40
20.0
100
AcDbArc
 50
340.7549690000001
 51
351.8825750000003
  0
ARC
  5
195
330
1F
100
AcDbEntity
  8
スト_ル
  6
CONTINUOUS
 62
     2
100
AcDbCircle
 10
504.1664669598804
 20
2471.94709399999
 30
0.0
 40
238.0000000000001
100
AcDbArc
 50
301.4005189999999
 51
335.1485350000002
  0
ARC
  5
196
330
1F
100
AcDbEntity
  8
スト_ル
  6
CONTINUOUS
 62
     2
100
AcDbCircle
 10
624.0004609598805
 20
2275.63149599999
 30
0.0
 40
8.0
100
AcDbArc
 50
270.0000000000002
 51
301.4005189999999
  0
ARC
  5
197
330
1F
100
AcDbEntity
  8
スト_ル
  6
CONTINUOUS
 62
     2
100
AcDbCircle
 10
695.2017749598804
 20
2518.33660199999
 30
0.0
 40
100.0000000000001
100
AcDbArc
 50
300.575962
 51
315.83529
  0
ARC
  5
198
330
1F
100
AcDbEntity
  8
スト_ル
  6
CONTINUOUS
 62
     2
100
AcDbCircle
 10
721.4702429598802
 20
2427.95815999999
 30
0.0
 40
20.0
100
AcDbArc
 50
340.3415250000003
 51
351.7077630000003
  0
ARC
  5
199
330
1F
100
AcDbEntity
  8
スト_ル
  6
CONTINUOUS
 62
     2
100
AcDbCircle
 10
186.5763449598805
 20
2619.04065099999
 30
0.0
 40
588.0000000000006
100
AcDbArc
 50
335.1485350000002
 51
340.3415250000003
  0
ARC
  5
19A
330
1F
100
AcDbEntity
  8
スト_ル
  6
CONTINUOUS
 62
     2
100
AcDbCircle
 10
751.1566029598805
 20
2423.63149599999
 30
0.0
 40
10.0
100
AcDbArc
 50
120.575962
 51
171.7077630000001
  0
LINE
  5
19B
330
1F
100
AcDbEntity
  8
スト_ル
  6
CONTINUOUS
 62
     2
100
AcDbLine
 10
794.0004609598805
 20
2635.63149599999
 30
0.0
 11
624.0004609598805
 21
2635.63149599999
 31
0.0
  0
ARC
  5
19C
330
1F
100
AcDbEntity
  8
スト_ル
  6
CONTINUOUS
 62
     2
100
AcDbCircle
 10
186.5763449598805
 20
2619.04065099999
 30
0.0
 40
600.0000000000006
100
AcDbArc
 50
335.1485350000002
 51
340.7549690000001
  0
ARC
  5
19D
330
1F
100
AcDbEntity
  8
スト_ル
  6
CONTINUOUS
 62
     2
100
AcDbCircle
 10
186.5763449598805
 20
2619.04065099999
 30
0.0
 40
600.0000000000006
100
AcDbArc
 50
340.7549690000001
 51
340.9931060000002
  0
ARC
  5
19E
330
1F
100
AcDbEntity
  8
スト_ル
  6
CONTINUOUS
 62
     2
100
AcDbCircle
 10
763.8639819598804
 20
2423.63149599999
 30
0.0
 40
10.0
100
AcDbArc
 50
171.8825750000001
 51
180.0
  0
ARC
  5
19F
330
1F
100
AcDbEntity
  8
スト_ル
  6
CONTINUOUS
 62
     2
100
AcDbCircle
 10
751.1566029598805
 20
2423.63149599999
 30
0.0
 40
10.0
100
AcDbArc
 50
171.7077630000001
 51
180.0
  0
ARC
  5
1A0
330
1F
100
AcDbEntity
  8
スト_ル
  6
CONTINUOUS
 62
     2
100
AcDbCircle
 10
186.5763449598805
 20
2619.04065099999
 30
0.0
 40
588.0000000000006
100
AcDbArc
 50
340.3415250000003
 51
340.5898330000001
  0
ARC
  5
1A1
330
1F
100
AcDbEntity
  8
スト_ル
  6
CONTINUOUS
 62
     2
100
AcDbCircle
 10
654.5500939598805
 20
2297.42157699999
 30
0.0
 40
200.0000000000002
100
AcDbArc
 50
56.37542200000002
 51
78.00362599999998
  0
ARC
  5
1A2
330
1F
100
AcDbEntity
  8
スト_ル
  6
CONTINUOUS
 62
     2
100
AcDbCircle
 10
759.7623629598804
 20
2455.63149599999
 30
0.0
 40
10.0
100
AcDbArc
 50
315.83529
 51
56.37542200000002
  0
ARC
  5
1A3
330
1F
100
AcDbEntity
  8
スト_ル
  6
CONTINUOUS
 62
     2
100
AcDbCircle
 10
763.8639819598804
 20
2423.63149599999
 30
0.0
 40
10.0
100
AcDbArc
 50
133.4173130000001
 51
171.8825750000001
  0
ARC
  5
1A4
330
1F
100
AcDbEntity
  8
スト_ル
  6
CONTINUOUS
 62
     2
100
AcDbCircle
 10
373.0575209598803
 20
2751.30558799999
 30
0.0
 40
500.0000000000003
100
AcDbArc
 50
320.021641
 51
325.7641910000002
  0
ARC
  5
1A5
330
1F
100
AcDbEntity
  8
スト_ル
  6
CONTINUOUS
 62
     2
100
AcDbCircle
 10
624.0004609598805
 20
2153.65211999999
 30
0.0
 40
346.9793760000002
100
AcDbArc
 50
64.416261
 51
78.00362599999998
  0
ARC
  5
1A6
330
1F
100
AcDbEntity
  8
スト_ル
  6
CONTINUOUS
 62
     2
100
AcDbCircle
 10
778.1547869598805
 20
2475.63149599999
 30
0.0
 40
10.0
100
AcDbArc
 50
244.4162610000001
 51
355.6021210000003
  0
ARC
  5
1A7
330
1F
100
AcDbEntity
  8
スト_ル
  6
CONTINUOUS
 62
     2
100
AcDbCircle
 10
-1205.98583904012
 20
2628.22891799999
 30
0.0
 40
2000.000000000001
100
AcDbArc
 50
355.6021210000003
 51
0.2120690000000083
  0
ARC
  5
1A8
330
1F
100
AcDbEntity
  8
スト_ル
  6
CONTINUOUS
 62
     2
100
AcDbCircle
 10
624.0004609598805
 20
2418.63149599999
 30
0.0
 40
73.00000000000007
100
AcDbArc
 50
90.00000000000001
 51
180.0
  0
ARC
  5
1A9
330
1F
100
AcDbEntity
  8
スト_ル
  6
CONTINUOUS
 62
     2
100
AcDbCircle
 10
621.0004609598805
 20
2409.31358499999
 30
0.0
 40
70.00000000000004
100
AcDbArc
 50
180.0
 51
220.0000000000001
  0
LINE
  5
1AA
330
1F
100
AcDbEntity
  8
スト_ル
  6
CONTINUOUS
 62
     2
100
AcDbLine
 10
551.0004609598805
 20
2409.31358499999
 30
0.0
 11
551.0004609598805
 21
2418.63149599999
 31
0.0
  0
ARC
  5
1AB
330
1F
100
AcDbEntity
  8
スト_ル
  6
CONTINUOUS
 62
     2
100
AcDbCircle
 10
624.0004609598805
 20
2418.63149599999
 30
0.0
 40
73.00000000000007
100
AcDbArc
 50
0.0
 51
90.00000000000001
  0
ARC
  5
1AC
330
1F
100
AcDbEntity
  8
スト_ル
  6
CONTINUOUS
 62
     2
100
AcDbCircle
 10
627.0004609598805
 20
2409.31358499999
 30
0.0
 40
70.00000000000004
100
AcDbArc
 50
320.0
 51
0.0
  0
LINE
  5
1AD
330
1F
100
AcDbEntity
  8
スト_ル
  6
CONTINUOUS
 62
     2
100
AcDbLine
 10
697.0004609598803
 20
2409.31358499999
 30
0.0
 11
697.0004609598803
 21
2418.63149599999
 31
0.0
  0
ARC
  5
1AE
330
1F
100
AcDbEntity
  8
スト_ル
  6
CONTINUOUS
 62
     2
100
AcDbCircle
 10
598.8146999598805
 20
2334.63149599999
 30
0.0
 40
5.0
100
AcDbArc
 50
220.0000000000001
 51
270.0000000000002
  0
LINE
  5
1AF
330
1F
100
AcDbEntity
  8
スト_ル
  6
CONTINUOUS
 62
     2
100
AcDbLine
 10
567.3773499598803
 20
2364.31845199999
 30
0.0
 11
594.9844779598802
 21
2331.41755799999
 31
0.0
  0
LINE
  5
1B0
330
1F
100
AcDbEntity
  8
スト_ル
  6
CONTINUOUS
 62
     2
100
AcDbLine
 10
624.0004609598805
 20
2329.63149599999
 30
0.0
 11
598.8146999598805
 21
2329.63149599999
 31
0.0
  0
LINE
  5
1B1
330
1F
100
AcDbEntity
  8
スト_ル
  6
CONTINUOUS
 62
     2
100
AcDbLine
 10
397.1896060125803
 20
583.0
 30
0.0
 11
1090.1896060126
 21
583.0
 31
0.0
  0
ARC
  5
1B2
330
1F
100
AcDbEntity
  8
スト_ル
  6
CONTINUOUS
 62
     2
100
AcDbCircle
 10
-1285.944396
 20
907.5740304283499
 30
0.0
 40
2000.000000000001
100
AcDbArc
 50
1.192454021520956
 51
1.193151000000008
  0
ARC
  5
1B3
330
1F
100
AcDbEntity
  8
スト_ル
  6
CONTINUOUS
 62
     2
100
AcDbCircle
 10
2533.944396
 20
907.5740304283499
 30
0.0
 40
2000.000000000001
100
AcDbArc
 50
178.8068490000001
 51
178.8075459784792
  0
ARC
  5
1B4
330
1F
100
AcDbEntity
  8
スト_ル
  6
CONTINUOUS
 62
     2
100
AcDbCircle
 10
624.0000000000002
 20
1032.99996442835
 30
0.0
 40
130.0000000000001
100
AcDbArc
 50
182.6256540000001
 51
270.0000000000002
  0
ARC
  5
1B5
330
1F
100
AcDbEntity
  8
スト_ル
  6
CONTINUOUS
 62
     2
100
AcDbCircle
 10
655.8398580000003
 20
1037.21201542835
 30
0.0
 40
150.0000000000001
100
AcDbArc
 50
182.651215
 51
217.2505250000002
  0
ARC
  5
1B6
330
1F
100
AcDbEntity
  8
スト_ル
  6
CONTINUOUS
 62
     2
100
AcDbCircle
 10
624.0000000000002
 20
1012.99996442835
 30
0.0
 40
110.0000000000001
100
AcDbArc
 50
217.2505250000002
 51
270.0000000000002
  0
ARC
  5
1B7
330
1F
100
AcDbEntity
  8
スト_ル
  6
CONTINUOUS
 62
     2
100
AcDbCircle
 10
562.3630780000003
 20
1405.20934142835
 30
0.0
 40
85.0
100
AcDbArc
 50
91.46979700000003
 51
186.1485260000001
  0
ARC
  5
1B8
330
1F
100
AcDbEntity
  8
スト_ル
  6
CONTINUOUS
 62
     2
100
AcDbCircle
 10
-5499.564472
 20
752.1830124283497
 30
0.0
 40
6012.000000000005
100
AcDbArc
 50
2.651214999999973
 51
6.148526000000007
  0
ARC
  5
1B9
330
1F
100
AcDbEntity
  8
スト_ル
  6
CONTINUOUS
 62
     2
100
AcDbCircle
 10
624.0000000000002
 20
-997.0000355716502
 30
0.0
 40
2488.0
100
AcDbArc
 50
90.00000000000001
 51
91.46979700000003
  0
ARC
  5
1BA
330
1F
100
AcDbEntity
  8
スト_ル
  6
CONTINUOUS
 62
     2
100
AcDbCircle
 10
2506.415568
 20
819.3256054283497
 30
0.0
 40
2000.000000000001
100
AcDbArc
 50
167.4766670000001
 51
175.1215730000001
  0
ARC
  5
1BB
330
1F
100
AcDbEntity
  8
スト_ル
  6
CONTINUOUS
 62
     2
100
AcDbCircle
 10
2533.944396
 20
907.5740304283499
 30
0.0
 40
2000.000000000001
100
AcDbArc
 50
170.054406
 51
178.8068490000001
  0
ARC
  5
1BC
330
1F
100
AcDbEntity
  8
スト_ル
  6
CONTINUOUS
 62
     2
100
AcDbCircle
 10
460.1134260000001
 20
1491.60945342835
 30
0.0
 40
6.000000000000005
100
AcDbArc
 50
93.76775500000002
 51
181.1439810000001
  0
ARC
  5
1BD
330
1F
100
AcDbEntity
  8
スト_ル
  6
CONTINUOUS
 62
     2
100
AcDbCircle
 10
-5499.564472
 20
752.1830124283497
 30
0.0
 40
6000.000000000005
100
AcDbArc
 50
2.625653999999989
 51
7.09810899999999
  0
ARC
  5
1BE
330
1F
100
AcDbEntity
  8
スト_ル
  6
CONTINUOUS
 62
     2
100
AcDbCircle
 10
624.0000000000002
 20
-997.0000355716502
 30
0.0
 40
2500.000000000002
100
AcDbArc
 50
90.00000000000001
 51
93.76775500000002
  0
ARC
  5
1BF
330
1F
100
AcDbEntity
  8
スト_ル
  6
CONTINUOUS
 62
     2
100
AcDbCircle
 10
-49535.91943799999
 20
493.2438734283497
 30
0.0
 40
50000.00000000004
100
AcDbArc
 50
0.1028530000000156
 51
1.143980999999986
  0
ARC
  5
1C0
330
1F
100
AcDbEntity
  8
スト_ル
  6
CONTINUOUS
 62
     2
100
AcDbCircle
 10
-49535.91943799999
 20
493.2438734283497
 30
0.0
 40
50000.00000000004
100
AcDbArc
 50
1.143980999999986
 51
1.150542000000023
  0
ARC
  5
1C1
330
1F
100
AcDbEntity
  8
スト_ル
  6
CONTINUOUS
 62
     2
100
AcDbCircle
 10
624.0000000000002
 20
-997.0000355716502
 30
0.0
 40
2500.000000000002
100
AcDbArc
 50
93.76775500000002
 51
93.89951000000002
  0
ARC
  5
1C2
330
1F
100
AcDbEntity
  8
スト_ル
  6
CONTINUOUS
 62
     2
100
AcDbCircle
 10
624.0000000000002
 20
-997.0000355716502
 30
0.0
 40
2500.000000000002
100
AcDbArc
 50
86.10048999999997
 51
86.23224500000002
  0
ARC
  5
1C3
330
1F
100
AcDbEntity
  8
スト_ル
  6
CONTINUOUS
 62
     2
100
AcDbCircle
 10
50783.91943800001
 20
493.2438734283497
 30
0.0
 40
50000.00000000004
100
AcDbArc
 50
178.849458
 51
178.8560190000001
  0
ARC
  5
1C4
330
1F
100
AcDbEntity
  8
スト_ル
  6
CONTINUOUS
 62
     2
100
AcDbCircle
 10
50783.91943800001
 20
493.2438734283497
 30
0.0
 40
50000.00000000004
100
AcDbArc
 50
178.8560190000001
 51
179.897147
  0
ARC
  5
1C5
330
1F
100
AcDbEntity
  8
スト_ル
  6
CONTINUOUS
 62
     2
100
AcDbCircle
 10
624.0000000000002
 20
-997.0000355716502
 30
0.0
 40
2500.000000000002
100
AcDbArc
 50
86.23224500000002
 51
90.00000000000001
  0
ARC
  5
1C6
330
1F
100
AcDbEntity
  8
スト_ル
  6
CONTINUOUS
 62
     2
100
AcDbCircle
 10
6747.564472
 20
752.1830124283497
 30
0.0
 40
6000.000000000005
100
AcDbArc
 50
172.901891
 51
177.3743460000001
  0
ARC
  5
1C7
330
1F
100
AcDbEntity
  8
スト_ル
  6
CONTINUOUS
 62
     2
100
AcDbCircle
 10
787.8865740000003
 20
1491.60945342835
 30
0.0
 40
6.000000000000005
100
AcDbArc
 50
358.8560190000001
 51
86.23224500000002
  0
ARC
  5
1C8
330
1F
100
AcDbEntity
  8
スト_ル
  6
CONTINUOUS
 62
     2
100
AcDbCircle
 10
-1285.944396
 20
907.5740304283499
 30
0.0
 40
2000.000000000001
100
AcDbArc
 50
1.193151000000008
 51
9.945594000000005
  0
ARC
  5
1C9
330
1F
100
AcDbEntity
  8
スト_ル
  6
CONTINUOUS
 62
     2
100
AcDbCircle
 10
-1258.415568
 20
819.3256054283497
 30
0.0
 40
2000.000000000001
100
AcDbArc
 50
4.878426999999976
 51
12.523333
  0
ARC
  5
1CA
330
1F
100
AcDbEntity
  8
スト_ル
  6
CONTINUOUS
 62
     2
100
AcDbCircle
 10
624.0000000000002
 20
-997.0000355716502
 30
0.0
 40
2488.0
100
AcDbArc
 50
88.53020300000003
 51
90.00000000000001
  0
ARC
  5
1CB
330
1F
100
AcDbEntity
  8
スト_ル
  6
CONTINUOUS
 62
     2
100
AcDbCircle
 10
6747.564472
 20
752.1830124283497
 30
0.0
 40
6012.000000000005
100
AcDbArc
 50
173.8514740000001
 51
177.3487850000001
  0
ARC
  5
1CC
330
1F
100
AcDbEntity
  8
スト_ル
  6
CONTINUOUS
 62
     2
100
AcDbCircle
 10
685.6369220000001
 20
1405.20934142835
 30
0.0
 40
85.0
100
AcDbArc
 50
353.8514740000001
 51
88.53020300000003
  0
ARC
  5
1CD
330
1F
100
AcDbEntity
  8
スト_ル
  6
CONTINUOUS
 62
     2
100
AcDbCircle
 10
624.0000000000002
 20
1012.99996442835
 30
0.0
 40
110.0000000000001
100
AcDbArc
 50
270.0000000000002
 51
322.7494750000002
  0
ARC
  5
1CE
330
1F
100
AcDbEntity
  8
スト_ル
  6
CONTINUOUS
 62
     2
100
AcDbCircle
 10
592.1601420000002
 20
1037.21201542835
 30
0.0
 40
150.0000000000001
100
AcDbArc
 50
322.7494750000002
 51
357.3487850000004
  0
ARC
  5
1CF
330
1F
100
AcDbEntity
  8
スト_ル
  6
CONTINUOUS
 62
     2
100
AcDbCircle
 10
624.0000000000002
 20
1032.99996442835
 30
0.0
 40
130.0000000000001
100
AcDbArc
 50
270.0000000000002
 51
357.3743460000002
  0
LINE
  5
1D0
330
1F
100
AcDbEntity
  8
スト_ル
  6
CONTINUOUS
 62
     2
100
AcDbLine
 10
1550.310394299981
 20
602.99999999999
 30
0.0
 11
1495.310394299981
 21
602.99999999999
 31
0.0
  0
ARC
  5
1D1
330
1F
100
AcDbEntity
  8
スト_ル
  6
CONTINUOUS
 62
     2
100
AcDbCircle
 10
1507.60609629998
 20
931.18121399999
 30
0.0
 40
163.0
100
AcDbArc
 50
309.2560700000001
 51
349.8791743039507
  0
ARC
  5
1D2
330
1F
100
AcDbEntity
  8
スト_ル
  6
CONTINUOUS
 62
     2
100
AcDbCircle
 10
1507.60609629998
 20
931.18121399999
 30
0.0
 40
150.0000000000001
100
AcDbArc
 50
307.8859430000002
 51
348.6364723839646
  0
LINE
  5
1D3
330
1F
100
AcDbEntity
  8
スト_ル
  6
CONTINUOUS
 62
     2
100
AcDbLine
 10
1742.810394299981
 20
582.99999999999
 30
0.0
 11
1243.99999999998
 21
582.99999999999
 31
0.0
  0
LINE
  5
1D4
330
1F
100
AcDbEntity
  8
スト_ル
  6
CONTINUOUS
 62
     2
100
AcDbLine
 10
1559.67795429998
 20
794.6787019999897
 30
0.0
 11
1561.70020029998
 21
704.9917259999896
 31
0.0
  0
LINE
  5
1D5
330
1F
100
AcDbEntity
  8
スト_ル
  6
CONTINUOUS
 62
     2
100
AcDbLine
 10
1483.93899829998
 20
704.9691679999901
 30
0.0
 11
1485.92014729998
 21
779.9082779999899
 31
0.0
  0
ARC
  5
1D6
330
1F
100
AcDbEntity
  8
スト_ル
  6
CONTINUOUS
 62
     2
100
AcDbCircle
 10
1569.577335299981
 20
902.2240509999901
 30
0.0
 40
108.0000000000001
100
AcDbArc
 50
262.9066020000001
 51
264.7408330000002
  0
CIRCLE
  5
1D7
330
1F
100
AcDbEntity
  8
スト_ル
  6
CONTINUOUS
 62
     2
100
AcDbCircle
 10
1527.810394299981
 20
819.93511699999
 30
0.0
 40
2.5
  0
ARC
  5
1D8
330
1F
100
AcDbEntity
  8
スト_ル
  6
CONTINUOUS
 62
     2
100
AcDbCircle
 10
1559.698365299981
 20
822.83635799999
 30
0.0
 40
28.00000000000002
100
AcDbArc
 50
208.5950330000001
 51
262.9066020000001
  0
LINE
  5
1D9
330
1F
100
AcDbEntity
  8
スト_ル
  6
CONTINUOUS
 62
     2
100
AcDbLine
 10
1521.15926229998
 20
809.43511699999
 30
0.0
 11
1535.113680299981
 21
809.43511699999
 31
0.0
  0
ARC
  5
1DA
330
1F
100
AcDbEntity
  8
スト_ル
  6
CONTINUOUS
 62
     2
100
AcDbCircle
 10
1422.08274829998
 20
852.2938079999899
 30
0.0
 40
108.0000000000001
100
AcDbArc
 50
335.0352680000003
 51
336.6192370000003
  0
ARC
  5
1DB
330
1F
100
AcDbEntity
  8
スト_ル
  6
CONTINUOUS
 62
     2
100
AcDbCircle
 10
1476.47681329998
 20
826.9701889999902
 30
0.0
 40
48.00000000000004
100
AcDbArc
 50
281.346161
 51
335.0352680000003
  0
ARC
  5
1DC
330
1F
100
AcDbEntity
  8
スト_ル
  6
CONTINUOUS
 62
     2
100
AcDbCircle
 10
1569.577335299981
 20
902.2240509999901
 30
0.0
 40
100.0000000000001
100
AcDbArc
 50
262.9066020000001
 51
280.0
  0
ARC
  5
1DD
330
1F
100
AcDbEntity
  8
スト_ル
  6
CONTINUOUS
 62
     2
100
AcDbCircle
 10
1559.698365299981
 20
822.83635799999
 30
0.0
 40
20.0
100
AcDbArc
 50
210.8313990000001
 51
262.9066020000001
  0
ARC
  5
1DE
330
1F
100
AcDbEntity
  8
スト_ル
  6
CONTINUOUS
 62
     2
100
AcDbCircle
 10
1628.39269729998
 20
863.8374389999899
 30
0.0
 40
100.0000000000001
100
AcDbArc
 50
207.6470250000001
 51
210.8313990000001
  0
LINE
  5
1DF
330
1F
100
AcDbEntity
  8
スト_ル
  6
CONTINUOUS
 62
     2
100
AcDbLine
 10
1539.81039429998
 20
817.43511699999
 30
0.0
 11
1539.418162299981
 21
819.3962779999902
 31
0.0
  0
ARC
  5
1E0
330
1F
100
AcDbEntity
  8
スト_ル
  6
CONTINUOUS
 62
     2
100
AcDbCircle
 10
1529.61235529998
 20
817.43511699999
 30
0.0
 40
10.0
100
AcDbArc
 50
11.30993199999998
 51
90.00000000000001
  0
LINE
  5
1E1
330
1F
100
AcDbEntity
  8
スト_ル
  6
CONTINUOUS
 62
     2
100
AcDbLine
 10
1520.26980629998
 20
827.43511699999
 30
0.0
 11
1529.61235529998
 21
827.43511699999
 31
0.0
  0
ARC
  5
1E2
330
1F
100
AcDbEntity
  8
スト_ル
  6
CONTINUOUS
 62
     2
100
AcDbCircle
 10
1520.26980629998
 20
824.43511699999
 30
0.0
 40
3.000000000000003
100
AcDbArc
 50
90.00000000000001
 51
168.6900680000001
  0
LINE
  5
1E3
330
1F
100
AcDbEntity
  8
スト_ル
  6
CONTINUOUS
 62
     2
100
AcDbLine
 10
1517.32806429998
 20
825.0234649999902
 30
0.0
 11
1515.810394299981
 21
817.43511699999
 31
0.0
  0
ARC
  5
1E4
330
1F
100
AcDbEntity
  8
スト_ル
  6
CONTINUOUS
 62
     2
100
AcDbCircle
 10
1422.08274829998
 20
852.2938079999899
 30
0.0
 40
100.0000000000001
100
AcDbArc
 50
335.0352680000003
 51
339.599092
  0
ARC
  5
1E5
330
1F
100
AcDbEntity
  8
スト_ル
  6
CONTINUOUS
 62
     2
100
AcDbCircle
 10
1476.47681329998
 20
826.9701889999902
 30
0.0
 40
40.0
100
AcDbArc
 50
286.1266150000002
 51
335.0352680000003
  0
ARC
  5
1E6
330
1F
100
AcDbEntity
  8
スト_ル
  6
CONTINUOUS
 62
     2
100
AcDbCircle
 10
1376.48288229998
 20
1172.80427299999
 30
0.0
 40
400.0000000000003
100
AcDbArc
 50
280.0
 51
286.1266150000002
  0
ARC
  5
1E7
330
1F
100
AcDbEntity
  8
スト_ル
  6
CONTINUOUS
 62
     2
100
AcDbCircle
 10
1553.152495299981
 20
1571.89432099999
 30
0.0
 40
90.0
100
AcDbArc
 50
294.0774100000003
 51
308.9218660000001
  0
ARC
  5
1E8
330
1F
100
AcDbEntity
  8
スト_ル
  6
CONTINUOUS
 62
     2
100
AcDbCircle
 10
1612.882494299981
 20
1497.92789999999
 30
0.0
 40
5.072100000000002
100
AcDbArc
 50
90.00000000000001
 51
128.921866
  0
ARC
  5
1E9
330
1F
100
AcDbEntity
  8
スト_ル
  6
CONTINUOUS
 62
     2
100
AcDbCircle
 10
1368.810394299981
 20
1067.99999999999
 30
0.0
 40
165.0
100
AcDbArc
 50
270.0000000000002
 51
356.4669850000001
  0
ARC
  5
1EA
330
1F
100
AcDbEntity
  8
スト_ル
  6
CONTINUOUS
 62
     2
100
AcDbCircle
 10
-1604.433997700019
 20
454.44628899999
 30
0.0
 40
3000.000000000003
100
AcDbArc
 50
2.45594699999999
 51
8.466055999999998
  0
ARC
  5
1EB
330
1F
100
AcDbEntity
  8
スト_ル
  6
CONTINUOUS
 62
     2
100
AcDbCircle
 10
1368.810394299981
 20
896.99999999999
 30
0.0
 40
6.000000000000005
100
AcDbArc
 50
8.466055999999998
 51
188.466056
  0
ARC
  5
1EC
330
1F
100
AcDbEntity
  8
スト_ル
  6
CONTINUOUS
 62
     2
100
AcDbCircle
 10
-1604.433997700019
 20
454.44628899999
 30
0.0
 40
3012.000000000002
100
AcDbArc
 50
6.645251999999988
 51
8.466055999999998
  0
ARC
  5
1ED
330
1F
100
AcDbEntity
  8
スト_ル
  6
CONTINUOUS
 62
     2
100
AcDbCircle
 10
1489.15810929998
 20
695.10458099999
 30
0.0
 40
5.0
100
AcDbArc
 50
270.0000000000002
 51
357.473539
  0
ARC
  5
1EE
330
1F
100
AcDbEntity
  8
スト_ル
  6
CONTINUOUS
 62
     2
100
AcDbCircle
 10
1457.411058299981
 20
637.99999999999
 30
0.0
 40
5.0
100
AcDbArc
 50
90.00000000000001
 51
175.2363580000001
  0
ARC
  5
1EF
330
1F
100
AcDbEntity
  8
スト_ル
  6
CONTINUOUS
 62
     2
100
AcDbCircle
 10
1488.122612299981
 20
637.99999999999
 30
0.0
 40
5.0
100
AcDbArc
 50
3.561021000000001
 51
90.00000000000001
  0
ARC
  5
1F0
330
1F
100
AcDbEntity
  8
スト_ル
  6
CONTINUOUS
 62
     2
100
AcDbCircle
 10
1557.498176299981
 20
637.99999999999
 30
0.0
 40
5.0
100
AcDbArc
 50
90.00000000000001
 51
176.438979
  0
LINE
  5
1F1
330
1F
100
AcDbEntity
  8
スト_ル
  6
CONTINUOUS
 62
     2
100
AcDbLine
 10
1452.428330299981
 20
638.41522699999
 30
0.0
 11
1447.810394299981
 21
582.99999999999
 31
0.0
  0
LINE
  5
1F2
330
1F
100
AcDbEntity
  8
スト_ル
  6
CONTINUOUS
 62
     2
100
AcDbLine
 10
1488.122612299981
 20
642.99999999999
 30
0.0
 11
1457.411058299981
 21
642.99999999999
 31
0.0
  0
LINE
  5
1F3
330
1F
100
AcDbEntity
  8
スト_ル
  6
CONTINUOUS
 62
     2
100
AcDbLine
 10
1550.310394299981
 20
602.99999999999
 30
0.0
 11
1552.50783029998
 21
638.3105579999901
 31
0.0
  0
LINE
  5
1F4
330
1F
100
AcDbEntity
  8
スト_ル
  6
CONTINUOUS
 62
     2
100
AcDbLine
 10
1495.310394299981
 20
602.99999999999
 30
0.0
 11
1493.112958299981
 21
638.3105579999901
 31
0.0
  0
LINE
  5
1F5
330
1F
100
AcDbEntity
  8
スト_ル
  6
CONTINUOUS
 62
     2
100
AcDbLine
 10
1492.821126299981
 20
642.99999999999
 30
0.0
 11
1492.26104129998
 21
651.99999999999
 31
0.0
  0
LINE
  5
1F6
330
1F
100
AcDbEntity
  8
スト_ル
  6
CONTINUOUS
 62
     2
100
AcDbLine
 10
1552.799662299981
 20
642.99999999999
 30
0.0
 11
1553.359747299981
 21
651.99999999999
 31
0.0
  0
ARC
  5
1F7
330
1F
100
AcDbEntity
  8
スト_ル
  6
CONTINUOUS
 62
     2
100
AcDbCircle
 10
1489.15810929998
 20
695.10458099999
 30
0.0
 40
14.00000000000001
100
AcDbArc
 50
270.0000000000002
 51
288.3983710000002
  0
ARC
  5
1F8
330
1F
100
AcDbEntity
  8
スト_ル
  6
CONTINUOUS
 62
     2
100
AcDbCircle
 10
1556.46267929998
 20
695.10458099999
 30
0.0
 40
14.00000000000001
100
AcDbArc
 50
251.6016290000002
 51
270.0000000000002
  0
LINE
  5
1F9
330
1F
100
AcDbEntity
  8
スト_ル
  6
CONTINUOUS
 62
     2
100
AcDbLine
 10
1584.683565299981
 20
681.10458099999
 30
0.0
 11
1556.46267929998
 21
681.10458099999
 31
0.0
  0
ARC
  5
1FA
330
1F
100
AcDbEntity
  8
スト_ル
  6
CONTINUOUS
 62
     2
100
AcDbCircle
 10
1457.411058299981
 20
637.99999999999
 30
0.0
 40
14.00000000000001
100
AcDbArc
 50
90.00000000000001
 51
175.2363580000001
  0
ARC
  5
1FB
330
1F
100
AcDbEntity
  8
スト_ル
  6
CONTINUOUS
 62
     2
100
AcDbCircle
 10
1488.122612299981
 20
637.99999999999
 30
0.0
 40
14.00000000000001
100
AcDbArc
 50
72.636188
 51
90.00000000000001
  0
LINE
  5
1FC
330
1F
100
AcDbEntity
  8
スト_ル
  6
CONTINUOUS
 62
     2
100
AcDbLine
 10
1488.122612299981
 20
651.99999999999
 30
0.0
 11
1457.411058299981
 21
651.99999999999
 31
0.0
  0
ARC
  5
1FD
330
1F
100
AcDbEntity
  8
スト_ル
  6
CONTINUOUS
 62
     2
100
AcDbCircle
 10
1557.498176299981
 20
637.99999999999
 30
0.0
 40
14.00000000000001
100
AcDbArc
 50
90.00000000000001
 51
107.363812
  0
LINE
  5
1FE
330
1F
100
AcDbEntity
  8
スト_ル
  6
CONTINUOUS
 62
     2
100
AcDbLine
 10
1492.26104129998
 20
651.99999999999
 30
0.0
 11
1493.942355299981
 21
690.10458099999
 31
0.0
  0
LINE
  5
1FF
330
1F
100
AcDbEntity
  8
スト_ル
  6
CONTINUOUS
 62
     2
100
AcDbLine
 10
1553.359747299981
 20
651.99999999999
 30
0.0
 11
1551.67843329998
 21
690.10458099999
 31
0.0
  0
ARC
  5
200
330
1F
100
AcDbEntity
  8
スト_ル
  6
CONTINUOUS
 62
     2
100
AcDbCircle
 10
1577.000285299981
 20
695.10458099999
 30
0.0
 40
5.0
100
AcDbArc
 50
270.0000000000002
 51
357.7821670000001
  0
LINE
  5
201
330
1F
100
AcDbEntity
  8
スト_ル
  6
CONTINUOUS
 62
     2
100
AcDbLine
 10
1593.801405299981
 20
689.64019499999
 30
0.0
 11
1597.38961129998
 21
782.2920529999902
 31
0.0
  0
ARC
  5
202
330
1F
100
AcDbEntity
  8
スト_ル
  6
CONTINUOUS
 62
     2
100
AcDbCircle
 10
9517.501329299981
 20
552.1889459999898
 30
0.0
 40
8000.000000000005
100
AcDbArc
 50
173.471637
 51
176.378017
  0
LINE
  5
203
330
1F
100
AcDbEntity
  8
スト_ル
  6
CONTINUOUS
 62
     2
100
AcDbLine
 10
1556.46267929998
 20
690.10458099999
 30
0.0
 11
1577.000285299981
 21
690.10458099999
 31
0.0
  0
LINE
  5
204
330
1F
100
AcDbEntity
  8
スト_ル
  6
CONTINUOUS
 62
     2
100
AcDbLine
 10
1431.11182329998
 20
596.99999999999
 30
0.0
 11
1409.50896529998
 21
596.99999999999
 31
0.0
  0
ARC
  5
205
330
1F
100
AcDbEntity
  8
スト_ル
  6
CONTINUOUS
 62
     2
100
AcDbCircle
 10
-1604.433997700019
 20
454.44628899999
 30
0.0
 40
3009.000000000002
100
AcDbArc
 50
2.654225999999999
 51
6.463754999999995
  0
ARC
  5
206
330
1F
100
AcDbEntity
  8
スト_ル
  6
CONTINUOUS
 62
     2
100
AcDbCircle
 10
1409.50896529998
 20
584.99999999999
 30
0.0
 40
12.00000000000001
100
AcDbArc
 50
90.00000000000001
 51
132.915625
  0
ARC
  5
207
330
1F
100
AcDbEntity
  8
スト_ル
  6
CONTINUOUS
 62
     2
100
AcDbCircle
 10
1431.11182329998
 20
584.99999999999
 30
0.0
 40
12.00000000000001
100
AcDbArc
 50
44.65087899999999
 51
90.00000000000001
  0
LINE
  5
208
330
1F
100
AcDbEntity
  8
スト_ル
  6
CONTINUOUS
 62
     2
100
AcDbLine
 10
1443.45941829998
 20
639.1626369999899
 30
0.0
 11
1439.648650299981
 21
593.4334209999902
 31
0.0
  0
LINE
  5
209
330
1F
100
AcDbEntity
  8
スト_ル
  6
CONTINUOUS
 62
     2
100
AcDbLine
 10
1557.498176299981
 20
642.99999999999
 30
0.0
 11
1593.163273299981
 21
642.99999999999
 31
0.0
  0
ARC
  5
20A
330
1F
100
AcDbEntity
  8
スト_ル
  6
CONTINUOUS
 62
     2
100
AcDbCircle
 10
1654.349560299981
 20
630.3464789999903
 30
0.0
 40
10.0
100
AcDbArc
 50
9.952558999999981
 51
87.51500899999998
  0
LINE
  5
20B
330
1F
100
AcDbEntity
  8
スト_ル
  6
CONTINUOUS
 62
     2
100
AcDbLine
 10
1410.310394299981
 20
587.99999999999
 30
0.0
 11
1410.310394299981
 21
596.99999999999
 31
0.0
  0
LINE
  5
20C
330
1F
100
AcDbEntity
  8
スト_ル
  6
CONTINUOUS
 62
     2
100
AcDbLine
 10
1430.310394299981
 20
587.99999999999
 30
0.0
 11
1430.310394299981
 21
596.9732079999899
 31
0.0
  0
ARC
  5
20D
330
1F
100
AcDbEntity
  8
スト_ル
  6
CONTINUOUS
 62
     2
100
AcDbCircle
 10
1408.26980629998
 20
584.99999999999
 30
0.0
 40
3.000000000000003
100
AcDbArc
 50
90.00000000000001
 51
168.6900680000001
  0
ARC
  5
20E
330
1F
100
AcDbEntity
  8
スト_ル
  6
CONTINUOUS
 62
     2
100
AcDbCircle
 10
1432.350982299981
 20
584.99999999999
 30
0.0
 40
3.000000000000003
100
AcDbArc
 50
11.30993199999998
 51
90.00000000000001
  0
LINE
  5
20F
330
1F
100
AcDbEntity
  8
スト_ル
  6
CONTINUOUS
 62
     2
100
AcDbLine
 10
1404.81039429998
 20
582.99999999999
 30
0.0
 11
1405.32806429998
 21
585.5883479999898
 31
0.0
  0
LINE
  5
210
330
1F
100
AcDbEntity
  8
スト_ル
  6
CONTINUOUS
 62
     2
100
AcDbLine
 10
1432.350982299981
 20
587.99999999999
 30
0.0
 11
1408.26980629998
 21
587.99999999999
 31
0.0
  0
LINE
  5
211
330
1F
100
AcDbEntity
  8
スト_ル
  6
CONTINUOUS
 62
     2
100
AcDbLine
 10
1435.810394299981
 20
582.99999999999
 30
0.0
 11
1435.292724299981
 21
585.5883479999898
 31
0.0
  0
ARC
  5
212
330
1F
100
AcDbEntity
  8
スト_ル
  6
CONTINUOUS
 62
     2
100
AcDbCircle
 10
1654.164809299981
 20
630.3544969999898
 30
0.0
 40
22.0
100
AcDbArc
 50
9.952558999999981
 51
87.51500899999998
  0
LINE
  5
213
330
1F
100
AcDbEntity
  8
スト_ル
  6
CONTINUOUS
 62
     2
100
AcDbLine
 10
1593.163273299981
 20
643.01128499999
 30
0.0
 11
1654.783137299981
 21
640.3370759999897
 31
0.0
  0
LINE
  5
214
330
1F
100
AcDbEntity
  8
スト_ル
  6
CONTINUOUS
 62
     2
100
AcDbLine
 10
1672.810394299981
 20
582.99999999999
 30
0.0
 11
1664.199072299981
 21
632.0748059999901
 31
0.0
  0
LINE
  5
215
330
1F
100
AcDbEntity
  8
スト_ル
  6
CONTINUOUS
 62
     2
100
AcDbLine
 10
1684.81039429998
 20
582.99999999999
 30
0.0
 11
1675.83373529998
 21
634.15681699999
 31
0.0
  0
ARC
  5
216
330
1F
100
AcDbEntity
  8
スト_ル
  6
CONTINUOUS
 62
     2
100
AcDbCircle
 10
1603.683565299981
 20
664.5754279999901
 30
0.0
 40
10.0
100
AcDbArc
 50
180.0
 51
267.5150090000001
  0
LINE
  5
217
330
1F
100
AcDbEntity
  8
スト_ル
  6
CONTINUOUS
 62
     2
100
AcDbLine
 10
1584.683565299981
 20
658.3304299999899
 30
0.0
 11
1584.683565299981
 21
681.10458099999
 31
0.0
  0
LINE
  5
218
330
1F
100
AcDbEntity
  8
スト_ル
  6
CONTINUOUS
 62
     2
100
AcDbLine
 10
1588.131761299981
 20
651.99999999999
 30
0.0
 11
1557.498176299981
 21
651.99999999999
 31
0.0
  0
ARC
  5
219
330
1F
100
AcDbEntity
  8
スト_ル
  6
CONTINUOUS
 62
     2
100
AcDbCircle
 10
1603.683565299981
 20
664.5754279999901
 30
0.0
 40
20.0
100
AcDbArc
 50
198.194872
 51
218.9595360000001
  0
LINE
  5
21A
330
1F
100
AcDbEntity
  8
スト_ル
  6
CONTINUOUS
 62
     2
100
AcDbLine
 10
1593.683565299981
 20
690.10458099999
 30
0.0
 11
1593.683565299981
 21
664.5754279999901
 31
0.0
  0
LINE
  5
21B
330
1F
100
AcDbEntity
  8
スト_ル
  6
CONTINUOUS
 62
     2
100
AcDbLine
 10
1603.249988299981
 20
654.58483199999
 30
0.0
 11
1655.118678299981
 21
652.3338089999897
 31
0.0
  0
LINE
  5
21C
330
1F
100
AcDbEntity
  8
スト_ル
  6
CONTINUOUS
 62
     2
100
AcDbLine
 10
1452.810394299981
 20
642.99999999999
 30
0.0
 11
1452.428330299981
 21
638.41522699999
 31
0.0
  0
LINE
  5
21D
330
1F
100
AcDbEntity
  8
スト_ル
  6
CONTINUOUS
 62
     2
100
AcDbLine
 10
1457.411058299981
 20
642.99999999999
 30
0.0
 11
1452.810394299981
 21
642.99999999999
 31
0.0
  0
LINE
  5
21E
330
1F
100
AcDbEntity
  8
スト_ル
  6
CONTINUOUS
 62
     2
100
AcDbLine
 10
1492.821126299981
 20
642.99999999999
 30
0.0
 11
1488.122612299981
 21
642.99999999999
 31
0.0
  0
LINE
  5
21F
330
1F
100
AcDbEntity
  8
スト_ル
  6
CONTINUOUS
 62
     2
100
AcDbLine
 10
1557.498176299981
 20
642.99999999999
 30
0.0
 11
1552.799662299981
 21
642.99999999999
 31
0.0
  0
LINE
  5
220
330
1F
100
AcDbEntity
  8
スト_ル
  6
CONTINUOUS
 62
     2
100
AcDbLine
 10
1552.50783029998
 20
638.3105579999901
 30
0.0
 11
1552.799662299981
 21
642.99999999999
 31
0.0
  0
LINE
  5
221
330
1F
100
AcDbEntity
  8
スト_ル
  6
CONTINUOUS
 62
     2
100
AcDbLine
 10
1493.112958299981
 20
638.3105579999901
 30
0.0
 11
1492.821126299981
 21
642.99999999999
 31
0.0
  0
LINE
  5
222
330
1F
100
AcDbEntity
  8
スト_ル
  6
CONTINUOUS
 62
     2
100
AcDbLine
 10
1489.15810929998
 20
690.10458099999
 30
0.0
 11
1493.942355299981
 21
690.10458099999
 31
0.0
  0
LINE
  5
223
330
1F
100
AcDbEntity
  8
スト_ル
  6
CONTINUOUS
 62
     2
100
AcDbLine
 10
1493.942355299981
 20
690.10458099999
 30
0.0
 11
1494.153249299981
 21
694.8841769999899
 31
0.0
  0
LINE
  5
224
330
1F
100
AcDbEntity
  8
スト_ル
  6
CONTINUOUS
 62
     2
100
AcDbLine
 10
1551.67843329998
 20
690.10458099999
 30
0.0
 11
1551.46753929998
 21
694.8841769999899
 31
0.0
  0
LINE
  5
225
330
1F
100
AcDbEntity
  8
スト_ル
  6
CONTINUOUS
 62
     2
100
AcDbLine
 10
1551.67843329998
 20
690.10458099999
 30
0.0
 11
1556.46267929998
 21
690.10458099999
 31
0.0
  0
LINE
  5
226
330
1F
100
AcDbEntity
  8
スト_ル
  6
CONTINUOUS
 62
     2
100
AcDbLine
 10
1581.810394299981
 20
690.10458099999
 30
0.0
 11
1581.996540299981
 21
694.91108699999
 31
0.0
  0
LINE
  5
227
330
1F
100
AcDbEntity
  8
スト_ル
  6
CONTINUOUS
 62
     2
100
AcDbLine
 10
1577.000285299981
 20
690.10458099999
 30
0.0
 11
1581.810394299981
 21
690.10458099999
 31
0.0
  0
LINE
  5
228
330
1F
100
AcDbEntity
  8
スト_ル
  6
CONTINUOUS
 62
     2
100
AcDbLine
 10
1408.26980629998
 20
587.99999999999
 30
0.0
 11
1405.810394299981
 21
587.99999999999
 31
0.0
  0
LINE
  5
229
330
1F
100
AcDbEntity
  8
スト_ル
  6
CONTINUOUS
 62
     2
100
AcDbLine
 10
1405.32806429998
 20
585.5883479999898
 30
0.0
 11
1405.810394299981
 21
587.99999999999
 31
0.0
  0
LINE
  5
22A
330
1F
100
AcDbEntity
  8
スト_ル
  6
CONTINUOUS
 62
     2
100
AcDbLine
 10
1434.81039429998
 20
587.99999999999
 30
0.0
 11
1432.350982299981
 21
587.99999999999
 31
0.0
  0
LINE
  5
22B
330
1F
100
AcDbEntity
  8
スト_ル
  6
CONTINUOUS
 62
     2
100
AcDbLine
 10
1435.292724299981
 20
585.5883479999898
 30
0.0
 11
1434.81039429998
 21
587.99999999999
 31
0.0
  0
LINE
  5
22C
330
1F
100
AcDbEntity
  8
スト_ル
  6
CONTINUOUS
 62
     2
100
AcDbLine
 10
1655.118678299981
 20
652.3338089999897
 30
0.0
 11
1672.778643299981
 21
651.5673929999898
 31
0.0
  0
LINE
  5
22D
330
1F
100
AcDbEntity
  8
スト_ル
  6
CONTINUOUS
 62
     2
100
AcDbLine
 10
1675.83373529998
 20
634.15681699999
 30
0.0
 11
1672.778643299981
 21
651.5673929999898
 31
0.0
  0
LINE
  5
22E
330
1F
100
AcDbEntity
  8
スト_ル
  6
CONTINUOUS
 62
     2
100
AcDbLine
 10
1654.783137299981
 20
640.3370759999897
 30
0.0
 11
1662.810394299981
 21
639.9887049999897
 31
0.0
  0
LINE
  5
22F
330
1F
100
AcDbEntity
  8
スト_ル
  6
CONTINUOUS
 62
     2
100
AcDbLine
 10
1664.199072299981
 20
632.0748059999901
 30
0.0
 11
1662.810394299981
 21
639.9887049999897
 31
0.0
  0
LINE
  5
230
330
1F
100
AcDbEntity
  8
スト_ル
  6
CONTINUOUS
 62
     2
100
AcDbLine
 10
1593.683565299981
 20
664.5754279999901
 30
0.0
 11
1593.683565299981
 21
654.99999999999
 31
0.0
  0
LINE
  5
231
330
1F
100
AcDbEntity
  8
スト_ル
  6
CONTINUOUS
 62
     2
100
AcDbLine
 10
1593.683565299981
 20
654.99999999999
 30
0.0
 11
1603.249988299981
 21
654.58483199999
 31
0.0
  0
ARC
  5
232
330
1F
100
AcDbEntity
  8
スト_ル
  6
CONTINUOUS
 62
     2
100
AcDbCircle
 10
1593.22235329998
 20
797.74265899999
 30
0.0
 40
3.000000000000003
100
AcDbArc
 50
280.0
 51
349.958008
  0
ARC
  5
233
330
1F
100
AcDbEntity
  8
スト_ル
  6
CONTINUOUS
 62
     2
100
AcDbCircle
 10
1601.562109299981
 20
810.4282939999899
 30
0.0
 40
3.000000000000003
100
AcDbArc
 50
127.885943
 51
169.958008
  0
LINE
  5
234
330
1F
100
AcDbEntity
  8
スト_ル
  6
CONTINUOUS
 62
     2
100
AcDbLine
 10
1596.176394299981
 20
797.2195489999899
 30
0.0
 11
1598.608069299981
 21
810.9514039999899
 31
0.0
  0
LINE
  5
235
330
1F
100
AcDbEntity
  8
スト_ル
  6
CONTINUOUS
 62
     2
100
AcDbLine
 10
1593.743298299981
 20
794.7882349999901
 30
0.0
 11
1595.810394299981
 21
795.1527199999902
 31
0.0
  0
LINE
  5
236
330
1F
100
AcDbEntity
  8
スト_ル
  6
CONTINUOUS
 62
     2
100
AcDbLine
 10
1595.810394299981
 20
795.1527199999902
 30
0.0
 11
1596.176394299981
 21
797.2195489999899
 31
0.0
  0
LINE
  5
237
330
1F
100
AcDbEntity
  8
スト_ル
  6
CONTINUOUS
 62
     2
100
AcDbLine
 10
1598.608069299981
 20
810.9514039999899
 30
0.0
 11
1598.810394299981
 21
812.0939519999897
 31
0.0
  0
ARC
  5
238
330
1F
100
AcDbEntity
  8
スト_ル
  6
CONTINUOUS
 62
     2
100
AcDbCircle
 10
1507.60609629998
 20
931.1812139999898
 30
0.0
 40
150.0000000000001
100
AcDbArc
 50
307.4470980000003
 51
307.8859430000002
  0
LINE
  5
239
330
1F
100
AcDbEntity
  8
スト_ル
  6
CONTINUOUS
 62
     2
100
AcDbLine
 10
1608.977237299981
 20
794.9527399999897
 30
0.0
 11
1610.750437299981
 21
804.96613999999
 31
0.0
  0
ARC
  5
23A
330
1F
100
AcDbEntity
  8
スト_ル
  6
CONTINUOUS
 62
     2
100
AcDbCircle
 10
1593.22235329998
 20
797.74265899999
 30
0.0
 40
16.0
100
AcDbArc
 50
285.0973920000001
 51
349.958008
  0
LINE
  5
23B
330
1F
100
AcDbEntity
  8
スト_ル
  6
CONTINUOUS
 62
     2
100
AcDbLine
 10
1742.810394299981
 20
1502.99999999999
 30
0.0
 11
1612.882494299981
 21
1502.99999999999
 31
0.0
  0
ARC
  5
23C
330
1F
100
AcDbEntity
  8
スト_ル
  6
CONTINUOUS
 62
     2
100
AcDbCircle
 10
1588.714499299981
 20
790.8552419999896
 30
0.0
 40
3.000000000000003
100
AcDbArc
 50
100.0
 51
177.782167
  0
LINE
  5
23D
330
1F
100
AcDbEntity
  8
スト_ル
  6
CONTINUOUS
 62
     2
100
AcDbLine
 10
1581.996540299981
 20
694.91108699999
 30
0.0
 11
1585.716746299981
 21
790.9713389999897
 31
0.0
  0
LINE
  5
23E
330
1F
100
AcDbEntity
  8
スト_ル
  6
CONTINUOUS
 62
     2
100
AcDbLine
 10
1588.193554299981
 20
793.8096659999901
 30
0.0
 11
1593.743298299981
 21
794.7882349999901
 31
0.0
  0
LINE
  5
23F
330
1F
100
AcDbEntity
  8
スト_ル
  6
CONTINUOUS
 62
     2
100
AcDbLine
 10
1585.716746299981
 20
790.9713389999897
 30
0.0
 11
1585.810394299981
 21
793.3894499999897
 31
0.0
  0
LINE
  5
240
330
1F
100
AcDbEntity
  8
スト_ル
  6
CONTINUOUS
 62
     2
100
AcDbLine
 10
1585.810394299981
 20
793.3894499999897
 30
0.0
 11
1588.193554299981
 21
793.8096659999901
 31
0.0
  0
ARC
  5
241
330
1F
100
AcDbEntity
  8
スト_ル
  6
CONTINUOUS
 62
     2
100
AcDbCircle
 10
1434.26552529998
 20
779.9007319999902
 30
0.0
 40
3.000000000000003
100
AcDbArc
 50
10.69590800000002
 51
81.88224400000001
  0
ARC
  5
242
330
1F
100
AcDbEntity
  8
スト_ル
  6
CONTINUOUS
 62
     2
100
AcDbCircle
 10
1442.51806129998
 20
768.5365219999899
 30
0.0
 40
3.000000000000003
100
AcDbArc
 50
190.695908
 51
253.3007560000003
  0
ARC
  5
243
330
1F
100
AcDbEntity
  8
スト_ル
  6
CONTINUOUS
 62
     2
100
AcDbCircle
 10
1450.13042529998
 20
759.9886289999899
 30
0.0
 40
3.000000000000003
100
AcDbArc
 50
8.66122300000001
 51
73.30075600000002
  0
ARC
  5
244
330
1F
100
AcDbEntity
  8
スト_ル
  6
CONTINUOUS
 62
     2
100
AcDbCircle
 10
1468.106427299981
 20
695.10458099999
 30
0.0
 40
5.0
100
AcDbArc
 50
188.6612230000001
 51
270.0000000000002
  0
ARC
  5
245
330
1F
100
AcDbEntity
  8
スト_ル
  6
CONTINUOUS
 62
     2
100
AcDbCircle
 10
1448.80995329998
 20
881.8686669999897
 30
0.0
 40
100.0000000000001
100
AcDbArc
 50
232.062947
 51
261.8822440000001
  0
LINE
  5
246
330
1F
100
AcDbEntity
  8
スト_ル
  6
CONTINUOUS
 62
     2
100
AcDbLine
 10
1439.57018329998
 20
767.9797329999901
 30
0.0
 11
1437.213403299981
 21
780.4575219999897
 31
0.0
  0
LINE
  5
247
330
1F
100
AcDbEntity
  8
スト_ル
  6
CONTINUOUS
 62
     2
100
AcDbLine
 10
1441.65601829998
 20
765.66304299999
 30
0.0
 11
1450.992468299981
 21
762.8621079999903
 31
0.0
  0
LINE
  5
248
330
1F
100
AcDbEntity
  8
スト_ル
  6
CONTINUOUS
 62
     2
100
AcDbLine
 10
1453.09621329998
 20
760.4404039999898
 30
0.0
 11
1463.163447299981
 21
694.3516219999901
 31
0.0
  0
LINE
  5
249
330
1F
100
AcDbEntity
  8
スト_ル
  6
CONTINUOUS
 62
     2
100
AcDbLine
 10
1468.106427299981
 20
690.10458099999
 30
0.0
 11
1489.15810929998
 21
690.10458099999
 31
0.0
  0
LINE
  5
24A
330
1F
100
AcDbEntity
  8
スト_ル
  6
CONTINUOUS
 62
     2
100
AcDbLine
 10
1463.810394299981
 20
690.10458099999
 30
0.0
 11
1468.106427299981
 21
690.10458099999
 31
0.0
  0
LINE
  5
24B
330
1F
100
AcDbEntity
  8
スト_ル
  6
CONTINUOUS
 62
     2
100
AcDbLine
 10
1463.163447299981
 20
694.3516219999901
 30
0.0
 11
1463.810394299981
 21
690.10458099999
 31
0.0
  0
LINE
  5
24C
330
1F
100
AcDbEntity
  8
スト_ル
  6
CONTINUOUS
 62
     2
100
AcDbLine
 10
1450.992468299981
 20
762.8621079999903
 30
0.0
 11
1452.810394299981
 21
762.31672999999
 31
0.0
  0
LINE
  5
24D
330
1F
100
AcDbEntity
  8
スト_ル
  6
CONTINUOUS
 62
     2
100
AcDbLine
 10
1452.810394299981
 20
762.31672999999
 30
0.0
 11
1453.09621329998
 21
760.4404039999898
 31
0.0
  0
LINE
  5
24E
330
1F
100
AcDbEntity
  8
スト_ル
  6
CONTINUOUS
 62
     2
100
AcDbLine
 10
1439.90874929998
 20
766.1872239999898
 30
0.0
 11
1439.57018329998
 21
767.9797329999901
 31
0.0
  0
LINE
  5
24F
330
1F
100
AcDbEntity
  8
スト_ル
  6
CONTINUOUS
 62
     2
100
AcDbLine
 10
1439.90874929998
 20
766.1872239999898
 30
0.0
 11
1441.65601829998
 21
765.66304299999
 31
0.0
  0
LINE
  5
250
330
1F
100
AcDbEntity
  8
スト_ル
  6
CONTINUOUS
 62
     2
100
AcDbLine
 10
1437.213403299981
 20
780.4575219999897
 30
0.0
 11
1436.810394299981
 21
782.5912239999898
 31
0.0
  0
ARC
  5
251
330
1F
100
AcDbEntity
  8
スト_ル
  6
CONTINUOUS
 62
     2
100
AcDbCircle
 10
1448.80995329998
 20
881.8686669999897
 30
0.0
 40
100.0000000000001
100
AcDbArc
 50
261.8822440000001
 51
263.108152
  0
ARC
  5
252
330
1F
100
AcDbEntity
  8
スト_ル
  6
CONTINUOUS
 62
     2
100
AcDbCircle
 10
1442.51806129998
 20
768.5365219999899
 30
0.0
 40
12.00000000000001
100
AcDbArc
 50
190.695908
 51
253.3007560000003
  0
ARC
  5
253
330
1F
100
AcDbEntity
  8
スト_ル
  6
CONTINUOUS
 62
     2
100
AcDbCircle
 10
1468.106427299981
 20
695.10458099999
 30
0.0
 40
14.00000000000001
100
AcDbArc
 50
188.6612230000001
 51
270.0000000000002
  0
LINE
  5
254
330
1F
100
AcDbEntity
  8
スト_ル
  6
CONTINUOUS
 62
     2
100
AcDbLine
 10
1489.15810929998
 20
681.10458099999
 30
0.0
 11
1468.106427299981
 21
681.10458099999
 31
0.0
  0
LINE
  5
255
330
1F
100
AcDbEntity
  8
スト_ル
  6
CONTINUOUS
 62
     2
100
AcDbLine
 10
1444.77048629998
 20
755.3324269999897
 30
0.0
 11
1454.266082299981
 21
692.9962959999898
 31
0.0
  0
LINE
  5
256
330
1F
100
AcDbEntity
  8
スト_ル
  6
CONTINUOUS
 62
     2
100
AcDbLine
 10
1439.069887299981
 20
757.0426069999897
 30
0.0
 11
1444.77048629998
 21
755.3324269999897
 31
0.0
  0
ARC
  5
257
330
1F
100
AcDbEntity
  8
スト_ル
  6
CONTINUOUS
 62
     2
100
AcDbCircle
 10
1448.80995329998
 20
881.8686669999897
 30
0.0
 40
109.0000000000001
100
AcDbArc
 50
234.4517340000001
 51
259.608885
  0
LINE
  5
258
330
1F
100
AcDbEntity
  8
スト_ル
  6
CONTINUOUS
 62
     2
100
AcDbLine
 10
1429.14999129998
 20
774.6563259999903
 30
0.0
 11
1430.72654929998
 21
766.3093649999901
 31
0.0
  0
LINE
  5
259
330
1F
100
AcDbEntity
  8
スト_ル
  6
CONTINUOUS
 62
     2
100
AcDbLine
 10
1445.942153299981
 20
778.8811719999899
 30
0.0
 11
1441.810394299981
 21
778.1526309999899
 31
0.0
  0
LINE
  5
25A
330
1F
100
AcDbEntity
  8
スト_ル
  6
CONTINUOUS
 62
     2
100
AcDbLine
 10
1441.810394299981
 20
773.9571329999899
 30
0.0
 11
1441.810394299981
 21
778.1526309999899
 31
0.0
  0
ARC
  5
25B
330
1F
100
AcDbEntity
  8
スト_ル
  6
CONTINUOUS
 62
     2
100
AcDbCircle
 10
1446.810394299981
 20
773.9571329999899
 30
0.0
 40
5.0
100
AcDbArc
 50
100.0
 51
280.0
  0
LINE
  5
25C
330
1F
100
AcDbEntity
  8
スト_ル
  6
CONTINUOUS
 62
     2
100
AcDbLine
 10
1441.810394299981
 20
767.9983649999898
 30
0.0
 11
1441.810394299981
 21
773.9571329999899
 31
0.0
  0
LINE
  5
25D
330
1F
100
AcDbEntity
  8
スト_ル
  6
CONTINUOUS
 62
     2
100
AcDbLine
 10
1441.810394299981
 20
767.9983649999898
 30
0.0
 11
1447.67863529998
 21
769.0330939999899
 31
0.0
  0
LINE
  5
25E
330
1F
100
AcDbEntity
  8
スト_ル
  6
CONTINUOUS
 62
     2
100
AcDbLine
 10
1447.67863529998
 20
769.0330939999899
 30
0.0
 11
1469.778250299981
 21
772.9298529999901
 31
0.0
  0
ARC
  5
25F
330
1F
100
AcDbEntity
  8
スト_ル
  6
CONTINUOUS
 62
     2
100
AcDbCircle
 10
1470.646490299981
 20
768.0058139999901
 30
0.0
 40
5.0
100
AcDbArc
 50
358.4495160000002
 51
100.0
  0
LINE
  5
260
330
1F
100
AcDbEntity
  8
スト_ル
  6
CONTINUOUS
 62
     2
100
AcDbLine
 10
1469.778250299981
 20
772.9298529999901
 30
0.0
 11
1475.810394299981
 21
773.99348199999
 31
0.0
  0
LINE
  5
261
330
1F
100
AcDbEntity
  8
スト_ル
  6
CONTINUOUS
 62
     2
100
AcDbLine
 10
1475.644660299981
 20
767.8705249999897
 30
0.0
 11
1475.810394299981
 21
773.99348199999
 31
0.0
  0
LINE
  5
262
330
1F
100
AcDbEntity
  8
スト_ル
  6
CONTINUOUS
 62
     2
100
AcDbLine
 10
1473.949301299981
 20
705.2364149999903
 30
0.0
 11
1475.644660299981
 21
767.8705249999897
 31
0.0
  0
ARC
  5
263
330
1F
100
AcDbEntity
  8
スト_ル
  6
CONTINUOUS
 62
     2
100
AcDbCircle
 10
1478.94410729998
 20
705.1012169999899
 30
0.0
 40
4.996636000000002
100
AcDbArc
 50
178.449516
 51
358.4856370000002
  0
LINE
  5
264
330
1F
100
AcDbEntity
  8
スト_ル
  6
CONTINUOUS
 62
     2
100
AcDbLine
 10
1473.810394299981
 20
700.10458099999
 30
0.0
 11
1473.949301299981
 21
705.2364149999903
 31
0.0
  0
LINE
  5
265
330
1F
100
AcDbEntity
  8
スト_ル
  6
CONTINUOUS
 62
     2
100
AcDbLine
 10
1483.810394299981
 20
700.10458099999
 30
0.0
 11
1473.810394299981
 21
700.10458099999
 31
0.0
  0
LINE
  5
266
330
1F
100
AcDbEntity
  8
スト_ル
  6
CONTINUOUS
 62
     2
100
AcDbLine
 10
1483.810394299981
 20
700.10458099999
 30
0.0
 11
1483.93899829998
 21
704.9691679999901
 31
0.0
  0
LINE
  5
267
330
1F
100
AcDbEntity
  8
スト_ル
  6
CONTINUOUS
 62
     2
100
AcDbLine
 10
1561.70020029998
 20
704.9917259999896
 30
0.0
 11
1561.810394299981
 21
700.10458099999
 31
0.0
  0
ARC
  5
268
330
1F
100
AcDbEntity
  8
スト_ル
  6
CONTINUOUS
 62
     2
100
AcDbCircle
 10
1566.698781299981
 20
705.10443299999
 30
0.0
 40
4.999852000000002
100
AcDbArc
 50
181.2916760000002
 51
1.26650799999998
  0
LINE
  5
269
330
1F
100
AcDbEntity
  8
スト_ル
  6
CONTINUOUS
 62
     2
100
AcDbLine
 10
1571.810394299981
 20
700.10458099999
 30
0.0
 11
1561.73039429998
 21
700.10458099999
 31
0.0
  0
LINE
  5
26A
330
1F
100
AcDbEntity
  8
スト_ル
  6
CONTINUOUS
 62
     2
100
AcDbLine
 10
1571.69741229998
 20
705.2149449999897
 30
0.0
 11
1571.810394299981
 21
700.10458099999
 31
0.0
  0
LINE
  5
26B
330
1F
100
AcDbEntity
  8
スト_ル
  6
CONTINUOUS
 62
     2
100
AcDbLine
 10
1569.905228299981
 20
786.2787119999899
 30
0.0
 11
1571.69741229998
 21
705.2149449999897
 31
0.0
  0
LINE
  5
26C
330
1F
100
AcDbEntity
  8
スト_ル
  6
CONTINUOUS
 62
     2
100
AcDbLine
 10
1569.81039429998
 20
790.5682189999898
 30
0.0
 11
1569.905228299981
 21
786.2787119999899
 31
0.0
  0
ARC
  5
26D
330
1F
100
AcDbEntity
  8
スト_ル
  6
CONTINUOUS
 62
     2
100
AcDbCircle
 10
1574.90400629998
 20
786.3892269999897
 30
0.0
 40
5.0
100
AcDbArc
 50
100.0
 51
181.266508
  0
LINE
  5
26E
330
1F
100
AcDbEntity
  8
スト_ル
  6
CONTINUOUS
 62
     2
100
AcDbLine
 10
1569.81039429998
 20
790.5682189999898
 30
0.0
 11
1574.03576529998
 21
791.3132659999901
 31
0.0
  0
LINE
  5
26F
330
1F
100
AcDbEntity
  8
スト_ル
  6
CONTINUOUS
 62
     2
100
AcDbLine
 10
1574.03576529998
 20
791.3132659999901
 30
0.0
 11
1585.810394299981
 21
793.3894499999897
 31
0.0
  0
LINE
  5
270
330
1F
100
AcDbEntity
  8
スト_ル
  6
CONTINUOUS
 62
     2
100
AcDbLine
 10
1592.810394299981
 20
804.7780049999901
 30
0.0
 11
1586.942153299981
 21
803.7432759999897
 31
0.0
  0
ARC
  5
271
330
1F
100
AcDbEntity
  8
スト_ル
  6
CONTINUOUS
 62
     2
100
AcDbCircle
 10
1587.810394299981
 20
798.8192369999897
 30
0.0
 40
5.0
100
AcDbArc
 50
0.0
 51
100.0
  0
LINE
  5
272
330
1F
100
AcDbEntity
  8
スト_ル
  6
CONTINUOUS
 62
     2
100
AcDbLine
 10
1592.810394299981
 20
798.8192369999897
 30
0.0
 11
1592.810394299981
 21
804.7780049999901
 31
0.0
  0
LINE
  5
273
330
1F
100
AcDbEntity
  8
スト_ル
  6
CONTINUOUS
 62
     2
100
AcDbLine
 10
1592.810394299981
 20
794.6237389999902
 30
0.0
 11
1592.810394299981
 21
798.8192369999897
 31
0.0
  0
ARC
  5
274
330
1F
100
AcDbEntity
  8
スト_ル
  6
CONTINUOUS
 62
     2
100
AcDbCircle
 10
1587.810394299981
 20
798.8192369999897
 30
0.0
 40
5.0
100
AcDbArc
 50
280.0
 51
0.0
  0
LINE
  5
275
330
1F
100
AcDbEntity
  8
スト_ル
  6
CONTINUOUS
 62
     2
100
AcDbLine
 10
1585.810394299981
 20
793.3894499999897
 30
0.0
 11
1588.193554299981
 21
793.8096659999901
 31
0.0
  0
LINE
  5
276
330
1F
100
AcDbEntity
  8
スト_ル
  6
CONTINUOUS
 62
     2
100
AcDbLine
 10
1475.53422429998
 20
763.79051999999
 30
0.0
 11
1453.18615629998
 21
759.8499529999899
 31
0.0
  0
LINE
  5
277
330
1F
100
AcDbEntity
  8
スト_ル
  6
CONTINUOUS
 62
     2
100
AcDbLine
 10
1453.18615629998
 20
759.8499529999899
 30
0.0
 11
1451.449674299981
 21
769.69802999999
 31
0.0
  0
LINE
  5
278
330
1F
100
AcDbEntity
  8
スト_ル
  6
CONTINUOUS
 62
     2
100
AcDbLine
 10
1453.997315299981
 20
761.0084089999899
 30
0.0
 11
1452.43448229998
 21
769.87167799999
 31
0.0
  0
LINE
  5
279
330
1F
100
AcDbEntity
  8
スト_ル
  6
CONTINUOUS
 62
     2
100
AcDbLine
 10
1475.56184129998
 20
764.8108159999902
 30
0.0
 11
1453.997315299981
 21
761.0084089999899
 31
0.0
  0
LINE
  5
27A
330
1F
100
AcDbEntity
  8
スト_ル
  6
CONTINUOUS
 62
     2
100
AcDbLine
 10
1453.18615629998
 20
759.8499529999899
 30
0.0
 11
1453.997315299981
 21
761.0084089999899
 31
0.0
  0
LINE
  5
27B
330
1F
100
AcDbEntity
  8
スト_ル
  6
CONTINUOUS
 62
     2
100
AcDbLine
 10
1742.8103943
 20
582.99999999999
 30
0.0
 11
1742.810394300001
 21
2024.0
 31
0.0
  0
ARC
  5
27C
330
1F
100
AcDbEntity
  8
スト_ル
  6
CONTINUOUS
 62
     2
100
AcDbCircle
 10
1604.148811299981
 20
1457.76993299999
 30
0.0
 40
35.00000000000002
100
AcDbArc
 50
114.0774099994297
 51
173.471637
  0
ARC
  5
27D
330
1F
100
AcDbEntity
  8
スト_ル
  6
CONTINUOUS
 62
     2
100
AcDbCircle
 10
649.1869305159869
 20
2334.631555288287
 30
0.0
 40
5.0
100
AcDbArc
 50
270.0001348746768
 51
320.0001348746797
  0
LINE
  5
27E
330
1F
100
AcDbEntity
  8
スト_ル
  6
CONTINUOUS
 62
     2
100
AcDbLine
 10
624.0004609598805
 20
2329.63149599999
 30
0.0
 11
649.1869305159869
 21
2329.63149599999
 31
0.0
  0
LINE
  5
27F
330
1F
100
AcDbEntity
  8
スト_ル
  6
CONTINUOUS
 62
     2
100
AcDbLine
 10
680.6235719598806
 20
2364.31845199999
 30
0.0
 11
652.9710930857677
 21
2331.363510973185
 31
0.0
  0
CIRCLE
  5
280
330
1F
100
AcDbEntity
  8
スト_ル
  6
CONTINUOUS
 62
     2
100
AcDbCircle
 10
1712.8103943
 20
1353.0
 30
0.0
 40
7.500000000000002
  0
POLYLINE
  5
281
330
1F
100
AcDbEntity
  8
スト_ル
  6
CONTINUOUS
 62
     4
100
AcDb2dPolyline
 66
     1
 10
0.0
 20
0.0
 30
0.0
 70
   128
  0
VERTEX
  5
282
330
281
100
AcDbEntity
  8
スト_ル
  6
CONTINUOUS
 62
     4
100
AcDbVertex
100
AcDb2dVertex
 10
1494.32651199578
 20
960.89862576001
 30
0.0
  0
VERTEX
  5
283
330
281
100
AcDbEntity
  8
スト_ル
  6
CONTINUOUS
 62
     4
100
AcDbVertex
100
AcDb2dVertex
 10
1495.21746099578
 20
961.2533047600101
 30
0.0
  0
VERTEX
  5
284
330
281
100
AcDbEntity
  8
スト_ル
  6
CONTINUOUS
 62
     4
100
AcDbVertex
100
AcDb2dVertex
 10
1497.73296399578
 20
962.1929677600101
 30
0.0
  0
VERTEX
  5
285
330
281
100
AcDbEntity
  8
スト_ル
  6
CONTINUOUS
 62
     4
100
AcDbVertex
100
AcDb2dVertex
 10
1501.637007995781
 20
963.5310517600101
 30
0.0
  0
VERTEX
  5
286
330
281
100
AcDbEntity
  8
スト_ル
  6
CONTINUOUS
 62
     4
100
AcDbVertex
100
AcDb2dVertex
 10
1506.69357499578
 20
965.08099576001
 30
0.0
  0
VERTEX
  5
287
330
281
100
AcDbEntity
  8
スト_ル
  6
CONTINUOUS
 62
     4
100
AcDbVertex
100
AcDb2dVertex
 10
1512.666651995781
 20
966.6562387600101
 30
0.0
  0
VERTEX
  5
288
330
281
100
AcDbEntity
  8
スト_ル
  6
CONTINUOUS
 62
     4
100
AcDbVertex
100
AcDb2dVertex
 10
1519.32022199578
 20
968.07021876001
 30
0.0
  0
VERTEX
  5
289
330
281
100
AcDbEntity
  8
スト_ル
  6
CONTINUOUS
 62
     4
100
AcDbVertex
100
AcDb2dVertex
 10
1526.41827199578
 20
969.13637376001
 30
0.0
  0
VERTEX
  5
28A
330
281
100
AcDbEntity
  8
スト_ル
  6
CONTINUOUS
 62
     4
100
AcDbVertex
100
AcDb2dVertex
 10
1533.724784995781
 20
969.66814376001
 30
0.0
  0
VERTEX
  5
28B
330
281
100
AcDbEntity
  8
スト_ル
  6
CONTINUOUS
 62
     4
100
AcDbVertex
100
AcDb2dVertex
 10
1541.00374599578
 20
969.4789647600101
 30
0.0
  0
VERTEX
  5
28C
330
281
100
AcDbEntity
  8
スト_ル
  6
CONTINUOUS
 62
     4
100
AcDbVertex
100
AcDb2dVertex
 10
1548.01914099578
 20
968.38227676001
 30
0.0
  0
VERTEX
  5
28D
330
281
100
AcDbEntity
  8
スト_ル
  6
CONTINUOUS
 62
     4
100
AcDbVertex
100
AcDb2dVertex
 10
1554.534953995781
 20
966.1915177600099
 30
0.0
  0
VERTEX
  5
28E
330
281
100
AcDbEntity
  8
スト_ル
  6
CONTINUOUS
 62
     4
100
AcDbVertex
100
AcDb2dVertex
 10
1560.970626995781
 20
962.3423087600099
 30
0.0
  0
VERTEX
  5
28F
330
281
100
AcDbEntity
  8
スト_ル
  6
CONTINUOUS
 62
     4
100
AcDbVertex
100
AcDb2dVertex
 10
1566.611298995781
 20
957.21072776001
 30
0.0
  0
VERTEX
  5
290
330
281
100
AcDbEntity
  8
スト_ル
  6
CONTINUOUS
 62
     4
100
AcDbVertex
100
AcDb2dVertex
 10
1571.568969995781
 20
951.09344076001
 30
0.0
  0
VERTEX
  5
291
330
281
100
AcDbEntity
  8
スト_ル
  6
CONTINUOUS
 62
     4
100
AcDbVertex
100
AcDb2dVertex
 10
1575.955641995781
 20
944.2871127600102
 30
0.0
  0
VERTEX
  5
292
330
281
100
AcDbEntity
  8
スト_ル
  6
CONTINUOUS
 62
     4
100
AcDbVertex
100
AcDb2dVertex
 10
1579.883314995781
 20
937.08841076001
 30
0.0
  0
VERTEX
  5
293
330
281
100
AcDbEntity
  8
スト_ル
  6
CONTINUOUS
 62
     4
100
AcDbVertex
100
AcDb2dVertex
 10
1583.46398999578
 20
929.7940007600101
 30
0.0
  0
VERTEX
  5
294
330
281
100
AcDbEntity
  8
スト_ル
  6
CONTINUOUS
 62
     4
100
AcDbVertex
100
AcDb2dVertex
 10
1586.80966699578
 20
922.7005497600098
 30
0.0
  0
VERTEX
  5
295
330
281
100
AcDbEntity
  8
スト_ル
  6
CONTINUOUS
 62
     4
100
AcDbVertex
100
AcDb2dVertex
 10
1590.03234699578
 20
916.10472176001
 30
0.0
  0
VERTEX
  5
296
330
281
100
AcDbEntity
  8
スト_ル
  6
CONTINUOUS
 62
     4
100
AcDbVertex
100
AcDb2dVertex
 10
1593.24403099578
 20
910.3031857600099
 30
0.0
  0
VERTEX
  5
297
330
281
100
AcDbEntity
  8
スト_ル
  6
CONTINUOUS
 62
     4
100
AcDbVertex
100
AcDb2dVertex
 10
1596.556718995781
 20
905.5926057600101
 30
0.0
  0
VERTEX
  5
298
330
281
100
AcDbEntity
  8
スト_ル
  6
CONTINUOUS
 62
     4
100
AcDbVertex
100
AcDb2dVertex
 10
1600.08241299578
 20
902.2696487600101
 30
0.0
  0
VERTEX
  5
299
330
281
100
AcDbEntity
  8
スト_ル
  6
CONTINUOUS
 62
     4
100
AcDbVertex
100
AcDb2dVertex
 10
1601.097753995781
 20
901.6395287600099
 30
0.0
  0
VERTEX
  5
29A
330
281
100
AcDbEntity
  8
スト_ル
  6
CONTINUOUS
 62
     4
100
AcDbVertex
100
AcDb2dVertex
 10
1602.142871995781
 20
901.12406276001
 30
0.0
  0
VERTEX
  5
29B
330
281
100
AcDbEntity
  8
スト_ル
  6
CONTINUOUS
 62
     4
100
AcDbVertex
100
AcDb2dVertex
 10
1603.22329899578
 20
900.7122457600099
 30
0.0
  0
VERTEX
  5
29C
330
281
100
AcDbEntity
  8
スト_ル
  6
CONTINUOUS
 62
     4
100
AcDbVertex
100
AcDb2dVertex
 10
1604.34456399578
 20
900.3930737600099
 30
0.0
  0
VERTEX
  5
29D
330
281
100
AcDbEntity
  8
スト_ル
  6
CONTINUOUS
 62
     4
100
AcDbVertex
100
AcDb2dVertex
 10
1605.512197995781
 20
900.15554376001
 30
0.0
  0
VERTEX
  5
29E
330
281
100
AcDbEntity
  8
スト_ル
  6
CONTINUOUS
 62
     4
100
AcDbVertex
100
AcDb2dVertex
 10
1606.731731995781
 20
899.9886517600098
 30
0.0
  0
VERTEX
  5
29F
330
281
100
AcDbEntity
  8
スト_ル
  6
CONTINUOUS
 62
     4
100
AcDbVertex
100
AcDb2dVertex
 10
1608.00869599578
 20
899.8813937600098
 30
0.0
  0
VERTEX
  5
2A0
330
281
100
AcDbEntity
  8
スト_ル
  6
CONTINUOUS
 62
     4
100
AcDbVertex
100
AcDb2dVertex
 10
1609.348619995781
 20
899.8227647600102
 30
0.0
  0
VERTEX
  5
2A1
330
281
100
AcDbEntity
  8
スト_ル
  6
CONTINUOUS
 62
     4
100
AcDbVertex
100
AcDb2dVertex
 10
1610.75703599578
 20
899.8017627600103
 30
0.0
  0
VERTEX
  5
2A2
330
281
100
AcDbEntity
  8
スト_ル
  6
CONTINUOUS
 62
     4
100
AcDbVertex
100
AcDb2dVertex
 10
1612.23947199578
 20
899.8073827600101
 30
0.0
  0
VERTEX
  5
2A3
330
281
100
AcDbEntity
  8
スト_ル
  6
CONTINUOUS
 62
     4
100
AcDbVertex
100
AcDb2dVertex
 10
1613.80146099578
 20
899.8286217600099
 30
0.0
  0
VERTEX
  5
2A4
330
281
100
AcDbEntity
  8
スト_ル
  6
CONTINUOUS
 62
     4
100
AcDbVertex
100
AcDb2dVertex
 10
1616.443649995781
 20
899.87487676001
 30
0.0
  0
VERTEX
  5
2A5
330
281
100
AcDbEntity
  8
スト_ル
  6
CONTINUOUS
 62
     4
100
AcDbVertex
100
AcDb2dVertex
 10
1619.28386199578
 20
899.9345257600098
 30
0.0
  0
VERTEX
  5
2A6
330
281
100
AcDbEntity
  8
スト_ル
  6
CONTINUOUS
 62
     4
100
AcDbVertex
100
AcDb2dVertex
 10
1622.30697499578
 20
900.00940176001
 30
0.0
  0
VERTEX
  5
2A7
330
281
100
AcDbEntity
  8
スト_ル
  6
CONTINUOUS
 62
     4
100
AcDbVertex
100
AcDb2dVertex
 10
1625.497868995781
 20
900.1013387600102
 30
0.0
  0
VERTEX
  5
2A8
330
281
100
AcDbEntity
  8
スト_ル
  6
CONTINUOUS
 62
     4
100
AcDbVertex
100
AcDb2dVertex
 10
1628.84142299578
 20
900.2121687600102
 30
0.0
  0
VERTEX
  5
2A9
330
281
100
AcDbEntity
  8
スト_ル
  6
CONTINUOUS
 62
     4
100
AcDbVertex
100
AcDb2dVertex
 10
1632.32251499578
 20
900.3437267600102
 30
0.0
  0
VERTEX
  5
2AA
330
281
100
AcDbEntity
  8
スト_ル
  6
CONTINUOUS
 62
     4
100
AcDbVertex
100
AcDb2dVertex
 10
1635.92602399578
 20
900.4978447600101
 30
0.0
  0
VERTEX
  5
2AB
330
281
100
AcDbEntity
  8
スト_ル
  6
CONTINUOUS
 62
     4
100
AcDbVertex
100
AcDb2dVertex
 10
1639.636829995781
 20
900.67635776001
 30
0.0
  0
VERTEX
  5
2AC
330
281
100
AcDbEntity
  8
スト_ル
  6
CONTINUOUS
 62
     4
100
AcDbVertex
100
AcDb2dVertex
 10
1643.43980999578
 20
900.8810977600101
 30
0.0
  0
VERTEX
  5
2AD
330
281
100
AcDbEntity
  8
スト_ル
  6
CONTINUOUS
 62
     4
100
AcDbVertex
100
AcDb2dVertex
 10
1647.319843995781
 20
901.1138997600102
 30
0.0
  0
VERTEX
  5
2AE
330
281
100
AcDbEntity
  8
スト_ル
  6
CONTINUOUS
 62
     4
100
AcDbVertex
100
AcDb2dVertex
 10
1651.26181099578
 20
901.3765967600102
 30
0.0
  0
VERTEX
  5
2AF
330
281
100
AcDbEntity
  8
スト_ル
  6
CONTINUOUS
 62
     4
100
AcDbVertex
100
AcDb2dVertex
 10
1656.81986799578
 20
901.7842047600097
 30
0.0
  0
VERTEX
  5
2B0
330
281
100
AcDbEntity
  8
スト_ル
  6
CONTINUOUS
 62
     4
100
AcDbVertex
100
AcDb2dVertex
 10
1662.40985099578
 20
902.1908897600101
 30
0.0
  0
VERTEX
  5
2B1
330
281
100
AcDbEntity
  8
スト_ル
  6
CONTINUOUS
 62
     4
100
AcDbVertex
100
AcDb2dVertex
 10
1667.973008995781
 20
902.5342677600102
 30
0.0
  0
VERTEX
  5
2B2
330
281
100
AcDbEntity
  8
スト_ル
  6
CONTINUOUS
 62
     4
100
AcDbVertex
100
AcDb2dVertex
 10
1673.45058899578
 20
902.7519527600098
 30
0.0
  0
VERTEX
  5
2B3
330
281
100
AcDbEntity
  8
スト_ル
  6
CONTINUOUS
 62
     4
100
AcDbVertex
100
AcDb2dVertex
 10
1678.783838995781
 20
902.7815627600103
 30
0.0
  0
VERTEX
  5
2B4
330
281
100
AcDbEntity
  8
スト_ル
  6
CONTINUOUS
 62
     4
100
AcDbVertex
100
AcDb2dVertex
 10
1683.91400599578
 20
902.5607127600102
 30
0.0
  0
VERTEX
  5
2B5
330
281
100
AcDbEntity
  8
スト_ル
  6
CONTINUOUS
 62
     4
100
AcDbVertex
100
AcDb2dVertex
 10
1688.78233799578
 20
902.0270187600099
 30
0.0
  0
VERTEX
  5
2B6
330
281
100
AcDbEntity
  8
スト_ル
  6
CONTINUOUS
 62
     4
100
AcDbVertex
100
AcDb2dVertex
 10
1693.330083995781
 20
901.1180957600101
 30
0.0
  0
VERTEX
  5
2B7
330
281
100
AcDbEntity
  8
スト_ル
  6
CONTINUOUS
 62
     4
100
AcDbVertex
100
AcDb2dVertex
 10
1697.49848999578
 20
899.77155976001
 30
0.0
  0
VERTEX
  5
2B8
330
281
100
AcDbEntity
  8
スト_ル
  6
CONTINUOUS
 62
     4
100
AcDbVertex
100
AcDb2dVertex
 10
1701.22880399578
 20
897.92502676001
 30
0.0
  0
VERTEX
  5
2B9
330
281
100
AcDbEntity
  8
スト_ル
  6
CONTINUOUS
 62
     4
100
AcDbVertex
100
AcDb2dVertex
 10
1704.46227499578
 20
895.5161137600098
 30
0.0
  0
VERTEX
  5
2BA
330
281
100
AcDbEntity
  8
スト_ル
  6
CONTINUOUS
 62
     4
100
AcDbVertex
100
AcDb2dVertex
 10
1706.81417899578
 20
892.9792997600098
 30
0.0
  0
VERTEX
  5
2BB
330
281
100
AcDbEntity
  8
スト_ル
  6
CONTINUOUS
 62
     4
100
AcDbVertex
100
AcDb2dVertex
 10
1708.843297995781
 20
890.0809787600101
 30
0.0
  0
VERTEX
  5
2BC
330
281
100
AcDbEntity
  8
スト_ル
  6
CONTINUOUS
 62
     4
100
AcDbVertex
100
AcDb2dVertex
 10
1710.63501499578
 20
886.91862976001
 30
0.0
  0
VERTEX
  5
2BD
330
281
100
AcDbEntity
  8
スト_ル
  6
CONTINUOUS
 62
     4
100
AcDbVertex
100
AcDb2dVertex
 10
1712.274716995781
 20
883.5897317600103
 30
0.0
  0
VERTEX
  5
2BE
330
281
100
AcDbEntity
  8
スト_ル
  6
CONTINUOUS
 62
     4
100
AcDbVertex
100
AcDb2dVertex
 10
1713.847786995781
 20
880.1917657600097
 30
0.0
  0
VERTEX
  5
2BF
330
281
100
AcDbEntity
  8
スト_ル
  6
CONTINUOUS
 62
     4
100
AcDbVertex
100
AcDb2dVertex
 10
1715.439611995781
 20
876.8222097600102
 30
0.0
  0
VERTEX
  5
2C0
330
281
100
AcDbEntity
  8
スト_ル
  6
CONTINUOUS
 62
     4
100
AcDbVertex
100
AcDb2dVertex
 10
1717.13557699578
 20
873.5785437600098
 30
0.0
  0
VERTEX
  5
2C1
330
281
100
AcDbEntity
  8
スト_ル
  6
CONTINUOUS
 62
     4
100
AcDbVertex
100
AcDb2dVertex
 10
1719.021065995781
 20
870.5582467600098
 30
0.0
  0
VERTEX
  5
2C2
330
281
100
AcDbEntity
  8
スト_ル
  6
CONTINUOUS
 62
     4
100
AcDbVertex
100
AcDb2dVertex
 10
1721.18146599578
 20
867.8587997600098
 30
0.0
  0
VERTEX
  5
2C3
330
281
100
AcDbEntity
  8
スト_ル
  6
CONTINUOUS
 62
     4
100
AcDbVertex
100
AcDb2dVertex
 10
1723.702160995781
 20
865.57768076001
 30
0.0
  0
VERTEX
  5
2C4
330
281
100
AcDbEntity
  8
スト_ル
  6
CONTINUOUS
 62
     4
100
AcDbVertex
100
AcDb2dVertex
 10
1726.668535995781
 20
863.8123707600098
 30
0.0
  0
VERTEX
  5
2C5
330
281
100
AcDbEntity
  8
スト_ル
  6
CONTINUOUS
 62
     4
100
AcDbVertex
100
AcDb2dVertex
 10
1728.647972995781
 20
863.04503376001
 30
0.0
  0
VERTEX
  5
2C6
330
281
100
AcDbEntity
  8
スト_ル
  6
CONTINUOUS
 62
     4
100
AcDbVertex
100
AcDb2dVertex
 10
1730.74720599578
 20
862.4666457600102
 30
0.0
  0
VERTEX
  5
2C7
330
281
100
AcDbEntity
  8
スト_ル
  6
CONTINUOUS
 62
     4
100
AcDbVertex
100
AcDb2dVertex
 10
1732.90127199578
 20
862.0527927600102
 30
0.0
  0
VERTEX
  5
2C8
330
281
100
AcDbEntity
  8
スト_ル
  6
CONTINUOUS
 62
     4
100
AcDbVertex
100
AcDb2dVertex
 10
1735.04520899578
 20
861.7790617600099
 30
0.0
  0
VERTEX
  5
2C9
330
281
100
AcDbEntity
  8
スト_ル
  6
CONTINUOUS
 62
     4
100
AcDbVertex
100
AcDb2dVertex
 10
1737.114054995781
 20
861.62103776001
 30
0.0
  0
VERTEX
  5
2CA
330
281
100
AcDbEntity
  8
スト_ル
  6
CONTINUOUS
 62
     4
100
AcDbVertex
100
AcDb2dVertex
 10
1739.042845995781
 20
861.5543067600101
 30
0.0
  0
VERTEX
  5
2CB
330
281
100
AcDbEntity
  8
スト_ル
  6
CONTINUOUS
 62
     4
100
AcDbVertex
100
AcDb2dVertex
 10
1740.76662199578
 20
861.5544547600103
 30
0.0
  0
VERTEX
  5
2CC
330
281
100
AcDbEntity
  8
スト_ル
  6
CONTINUOUS
 62
     4
100
AcDbVertex
100
AcDb2dVertex
 10
1742.220418995781
 20
861.5970687600102
 30
0.0
  0
VERTEX
  5
2CD
330
281
100
AcDbEntity
  8
スト_ル
  6
CONTINUOUS
 62
     4
100
AcDbVertex
100
AcDb2dVertex
 10
1743.33927399578
 20
861.6577337600103
 30
0.0
  0
VERTEX
  5
2CE
330
281
100
AcDbEntity
  8
スト_ル
  6
CONTINUOUS
 62
     4
100
AcDbVertex
100
AcDb2dVertex
 10
1744.05822699578
 20
861.71203676001
 30
0.0
  0
VERTEX
  5
2CF
330
281
100
AcDbEntity
  8
スト_ル
  6
CONTINUOUS
 62
     4
100
AcDbVertex
100
AcDb2dVertex
 10
1744.312313995781
 20
861.73556276001
 30
0.0
  0
SEQEND
  5
2D0
330
281
100
AcDbEntity
  8
スト_ル
  6
CONTINUOUS
 62
     4
  0
LINE
  5
2D1
330
1F
100
AcDbEntity
  8
スト_ル
  6
CONTINUOUS
 62
     2
100
AcDbLine
 10
657.0006853338705
 20
2396.197739
 30
0.0
 11
632.0006853338705
 21
2410.631496
 31
0.0
  0
LINE
  5
2D2
330
1F
100
AcDbEntity
  8
スト_ル
  6
CONTINUOUS
 62
     2
100
AcDbLine
 10
591.0006853338705
 20
2396.197739
 30
0.0
 11
616.0006853338705
 21
2410.631496
 31
0.0
  0
LINE
  5
2D3
330
1F
100
AcDbEntity
  8
スト_ル
  6
CONTINUOUS
 62
     2
100
AcDbLine
 10
632.0006853338705
 20
2410.631496
 30
0.0
 11
616.0006853338705
 21
2410.631496
 31
0.0
  0
LINE
  5
2D4
330
1F
100
AcDbEntity
  8
スト_ル
  6
CONTINUOUS
 62
     2
100
AcDbLine
 10
616.0006853338705
 20
2410.631496
 30
0.0
 11
616.0006853338705
 21
2430.631496
 31
0.0
  0
LINE
  5
2D5
330
1F
100
AcDbEntity
  8
スト_ル
  6
CONTINUOUS
 62
     2
100
AcDbLine
 10
632.0006853338705
 20
2410.631496
 30
0.0
 11
632.0006853338705
 21
2430.631496
 31
0.0
  0
LINE
  5
2D6
330
1F
100
AcDbEntity
  8
スト_ル
  6
CONTINUOUS
 62
     2
100
AcDbLine
 10
657.0006853338705
 20
2445.065253
 30
0.0
 11
632.0006853338705
 21
2430.631496
 31
0.0
  0
LINE
  5
2D7
330
1F
100
AcDbEntity
  8
スト_ル
  6
CONTINUOUS
 62
     2
100
AcDbLine
 10
632.0006853338705
 20
2430.631496
 30
0.0
 11
616.0006853338705
 21
2430.631496
 31
0.0
  0
LINE
  5
2D8
330
1F
100
AcDbEntity
  8
スト_ル
  6
CONTINUOUS
 62
     2
100
AcDbLine
 10
591.0006853338705
 20
2445.065253
 30
0.0
 11
616.0006853338705
 21
2430.631496
 31
0.0
  0
ARC
  5
2D9
330
1F
100
AcDbEntity
  8
スト_ル
  6
CONTINUOUS
 62
     2
100
AcDbCircle
 10
624.0006853338705
 20
2418.631496
 30
0.0
 40
67.0
100
AcDbArc
 50
0.0
 51
90.00000000000001
  0
LINE
  5
2DA
330
1F
100
AcDbEntity
  8
スト_ル
  6
CONTINUOUS
 62
     2
100
AcDbLine
 10
691.0006853338704
 20
2409.313585
 30
0.0
 11
691.0006853338704
 21
2418.631496
 31
0.0
  0
ARC
  5
2DB
330
1F
100
AcDbEntity
  8
スト_ル
  6
CONTINUOUS
 62
     2
100
AcDbCircle
 10
627.0006853338705
 20
2409.313585
 30
0.0
 40
64.0
100
AcDbArc
 50
320.0
 51
0.0
  0
LINE
  5
2DC
330
1F
100
AcDbEntity
  8
スト_ル
  6
CONTINUOUS
 62
     2
100
AcDbLine
 10
649.3797223338704
 20
2336.417558
 30
0.0
 11
676.0275293338705
 21
2368.175178
 31
0.0
  0
ARC
  5
2DD
330
1F
100
AcDbEntity
  8
スト_ル
  6
CONTINUOUS
 62
     2
100
AcDbCircle
 10
645.5495003338706
 20
2339.631496
 30
0.0
 40
5.0
100
AcDbArc
 50
270.0000000000002
 51
320.0
  0
LINE
  5
2DE
330
1F
100
AcDbEntity
  8
スト_ル
  6
CONTINUOUS
 62
     2
100
AcDbLine
 10
645.5495003338706
 20
2334.631496
 30
0.0
 11
602.4518703338704
 21
2334.631496
 31
0.0
  0
ARC
  5
2DF
330
1F
100
AcDbEntity
  8
スト_ル
  6
CONTINUOUS
 62
     2
100
AcDbCircle
 10
602.4518703338704
 20
2339.631496
 30
0.0
 40
5.0
100
AcDbArc
 50
220.0000000000001
 51
270.0000000000002
  0
LINE
  5
2E0
330
1F
100
AcDbEntity
  8
スト_ル
  6
CONTINUOUS
 62
     2
100
AcDbLine
 10
598.6216483338706
 20
2336.417558
 30
0.0
 11
571.9738413338705
 21
2368.175178
 31
0.0
  0
ARC
  5
2E1
330
1F
100
AcDbEntity
  8
スト_ル
  6
CONTINUOUS
 62
     2
100
AcDbCircle
 10
621.0006853338705
 20
2409.313585
 30
0.0
 40
64.0
100
AcDbArc
 50
180.0
 51
220.0000000000001
  0
LINE
  5
2E2
330
1F
100
AcDbEntity
  8
スト_ル
  6
CONTINUOUS
 62
     2
100
AcDbLine
 10
557.0006853338705
 20
2409.313585
 30
0.0
 11
557.0006853338705
 21
2418.631496
 31
0.0
  0
ARC
  5
2E3
330
1F
100
AcDbEntity
  8
スト_ル
  6
CONTINUOUS
 62
     2
100
AcDbCircle
 10
624.0006853338705
 20
2418.631496
 30
0.0
 40
67.0
100
AcDbArc
 50
90.00000000000001
 51
180.0
  0
LINE
  5
2E4
330
1F
100
AcDbEntity
  8
スト_ル
  6
EXLTYPE3
 62
     6
100
AcDbLine
 10
624.0009454516485
 20
2223.999990585084
 30
0.0
 11
624.0004209425401
 21
2669.63083505869
 31
0.0
  0
LINE
  5
2E5
330
1F
100
AcDbEntity
  8
スト_ル
  6
EXLTYPE4
 62
     6
100
AcDbLine
 10
1550.149999999981
 20
537.6999999999916
 30
0.0
 11
1550.149999999981
 21
534.6999999999898
 31
0.0
  0
LINE
  5
2E6
330
1F
100
AcDbEntity
  8
スト_ル
  6
EXLTYPE4
 62
     6
100
AcDbLine
 10
1547.149999999981
 20
537.6999999999916
 30
0.0
 11
1547.149999999981
 21
534.6999999999898
 31
0.0
  0
LINE
  5
2E7
330
1F
100
AcDbEntity
  8
スト_ル
  6
EXLTYPE4
 62
     6
100
AcDbLine
 10
1550.149999999981
 20
546.4499999999907
 30
0.0
 11
1550.149999999981
 21
542.9499999999907
 31
0.0
  0
LINE
  5
2E8
330
1F
100
AcDbEntity
  8
スト_ル
  6
EXLTYPE4
 62
     6
100
AcDbLine
 10
1547.149999999981
 20
546.4499999999907
 30
0.0
 11
1547.149999999981
 21
542.9499999999907
 31
0.0
  0
LINE
  5
2E9
330
1F
100
AcDbEntity
  8
スト_ル
  6
EXLTYPE4
 62
     6
100
AcDbLine
 10
1550.149999999981
 20
553.4499999999898
 30
0.0
 11
1550.149999999981
 21
551.6999999999889
 31
0.0
  0
LINE
  5
2EA
330
1F
100
AcDbEntity
  8
スト_ル
  6
EXLTYPE4
 62
     6
100
AcDbLine
 10
1547.149999999981
 20
553.4499999999898
 30
0.0
 11
1547.149999999981
 21
551.6999999999889
 31
0.0
  0
LINE
  5
2EB
330
1F
100
AcDbEntity
  8
スト_ル
  6
EXLTYPE4
 62
     6
100
AcDbLine
 10
1550.149999999981
 20
558.6999999999898
 30
0.0
 11
1550.149999999981
 21
555.1999999999894
 31
0.0
  0
LINE
  5
2EC
330
1F
100
AcDbEntity
  8
スト_ル
  6
EXLTYPE4
 62
     6
100
AcDbLine
 10
1547.149999999981
 20
558.6999999999898
 30
0.0
 11
1547.149999999981
 21
555.1999999999894
 31
0.0
  0
LINE
  5
2ED
330
1F
100
AcDbEntity
  8
スト_ル
  6
EXLTYPE4
 62
     6
100
AcDbLine
 10
1496.24999999998
 20
537.6999999999916
 30
0.0
 11
1496.24999999998
 21
536.7356849999901
 31
0.0
  0
LINE
  5
2EE
330
1F
100
AcDbEntity
  8
スト_ル
  6
EXLTYPE4
 62
     6
100
AcDbLine
 10
1496.24999999998
 20
546.4499999999907
 30
0.0
 11
1496.24999999998
 21
542.9499999999907
 31
0.0
  0
LINE
  5
2EF
330
1F
100
AcDbEntity
  8
スト_ル
  6
EXLTYPE4
 62
     6
100
AcDbLine
 10
1496.24999999998
 20
553.4499999999898
 30
0.0
 11
1496.24999999998
 21
551.6999999999889
 31
0.0
  0
LINE
  5
2F0
330
1F
100
AcDbEntity
  8
スト_ル
  6
EXLTYPE4
 62
     6
100
AcDbLine
 10
1496.24999999998
 20
558.6999999999898
 30
0.0
 11
1496.24999999998
 21
555.1999999999894
 31
0.0
  0
LINE
  5
2F1
330
1F
100
AcDbEntity
  8
スト_ル
  6
EXLTYPE4
 62
     6
100
AcDbLine
 10
1493.24999999998
 20
537.6999999999916
 30
0.0
 11
1493.24999999998
 21
534.6999999999898
 31
0.0
  0
LINE
  5
2F2
330
1F
100
AcDbEntity
  8
スト_ル
  6
EXLTYPE4
 62
     6
100
AcDbLine
 10
1493.24999999998
 20
546.4499999999907
 30
0.0
 11
1493.24999999998
 21
542.9499999999907
 31
0.0
  0
LINE
  5
2F3
330
1F
100
AcDbEntity
  8
スト_ル
  6
EXLTYPE4
 62
     6
100
AcDbLine
 10
1493.24999999998
 20
553.4499999999898
 30
0.0
 11
1493.24999999998
 21
551.6999999999889
 31
0.0
  0
LINE
  5
2F4
330
1F
100
AcDbEntity
  8
スト_ル
  6
EXLTYPE4
 62
     6
100
AcDbLine
 10
1493.24999999998
 20
558.6999999999898
 30
0.0
 11
1493.24999999998
 21
555.1999999999894
 31
0.0
  0
ARC
  5
2F5
330
1F
100
AcDbEntity
  8
スト_ル
  6
EXLTYPE4
 62
     6
100
AcDbCircle
 10
1535.92499999998
 20
552.43506199999
 30
0.0
 40
22.73506200000002
100
AcDbArc
 50
231.267478
 51
308.7325220000001
  0
ARC
  5
2F6
330
1F
100
AcDbEntity
  8
スト_ル
  6
EXLTYPE4
 62
     6
100
AcDbCircle
 10
1507.474999999981
 20
516.9649379999901
 30
0.0
 40
22.73506200000002
100
AcDbArc
 50
51.26747800000003
 51
128.732522
  0
LINE
  5
2F7
330
1F
100
AcDbEntity
  8
スト_ル
  6
EXLTYPE4
 62
     6
100
AcDbLine
 10
1550.149999999981
 20
558.6999999999898
 30
0.0
 11
1550.149999999981
 21
582.99999999999
 31
0.0
  0
LINE
  5
2F8
330
1F
100
AcDbEntity
  8
スト_ル
  6
EXLTYPE4
 62
     6
100
AcDbLine
 10
1550.149999999981
 20
558.6999999999898
 30
0.0
 11
1496.24999999998
 21
558.6999999999898
 31
0.0
  0
LINE
  5
2F9
330
1F
100
AcDbEntity
  8
スト_ル
  6
EXLTYPE4
 62
     6
100
AcDbLine
 10
1493.24999999998
 20
558.6999999999898
 30
0.0
 11
1547.149999999981
 21
558.6999999999898
 31
0.0
  0
LINE
  5
2FA
330
1F
100
AcDbEntity
  8
スト_ル
  6
EXLTYPE4
 62
     6
100
AcDbLine
 10
1493.24999999998
 20
558.6999999999898
 30
0.0
 11
1493.24999999998
 21
582.99999999999
 31
0.0
  0
LINE
  5
2FB
330
1F
100
AcDbEntity
  8
スト_ル
  6
EXLTYPE4
 62
     6
100
AcDbLine
 10
1547.149999999981
 20
582.99999999999
 30
0.0
 11
1547.149999999981
 21
558.6999999999898
 31
0.0
  0
LINE
  5
2FC
330
1F
100
AcDbEntity
  8
スト_ル
  6
EXLTYPE4
 62
     6
100
AcDbLine
 10
1496.24999999998
 20
582.99999999999
 30
0.0
 11
1496.24999999998
 21
558.6999999999898
 31
0.0
  0
LINE
  5
2FD
330
1F
100
AcDbEntity
  8
スト_ル
  6
EXLTYPE4
 62
     6
100
AcDbLine
 10
1495.3103943
 20
567.99999999997
 30
0.0
 11
1550.310394299961
 21
567.99999999997
 31
0.0
  0
LINE
  5
2FE
330
1F
100
AcDbEntity
  8
スト_ル
  6
CONTINUOUS
 62
     6
100
AcDbLine
 10
751.7884750000005
 20
1388.14294399999
 30
0.0
 11
751.4897700000004
 21
1386.44890599999
 31
0.0
  0
LINE
  5
2FF
330
1F
100
AcDbEntity
  8
スト_ル
  6
CONTINUOUS
 62
     6
100
AcDbLine
 10
750.3638660000004
 20
1380.06358499999
 30
0.0
 11
750.0455770000005
 21
1378.25847899999
 31
0.0
  0
LINE
  5
300
330
1F
100
AcDbEntity
  8
スト_ル
  6
CONTINUOUS
 62
     6
100
AcDbLine
 10
750.0000000000003
 20
1374.85999999999
 30
0.0
 11
750.0000000000003
 21
1377.73753399999
 31
0.0
  0
LINE
  5
301
330
1F
100
AcDbEntity
  8
スト_ル
  6
CONTINUOUS
 62
     6
100
AcDbLine
 10
750.0000000000003
 20
1363.07450299999
 30
0.0
 11
750.0000000000003
 21
1368.43691499999
 31
0.0
  0
LINE
  5
302
330
1F
100
AcDbEntity
  8
スト_ル
  6
CONTINUOUS
 62
     6
100
AcDbLine
 10
750.0000000000003
 20
1352.51383199999
 30
0.0
 11
750.0000000000003
 21
1357.80852899999
 31
0.0
  0
LINE
  5
303
330
1F
100
AcDbEntity
  8
スト_ル
  6
CONTINUOUS
 62
     6
100
AcDbLine
 10
750.0000000000003
 20
1342.87471699999
 30
0.0
 11
750.0000000000003
 21
1347.91999999999
 31
0.0
  0
LINE
  5
304
330
1F
100
AcDbEntity
  8
スト_ル
  6
CONTINUOUS
 62
     6
100
AcDbLine
 10
750.0000000000003
 20
1332.34642899999
 30
0.0
 11
750.0000000000003
 21
1337.69999999999
 31
0.0
  0
LINE
  5
305
330
1F
100
AcDbEntity
  8
スト_ル
  6
CONTINUOUS
 62
     6
100
AcDbLine
 10
751.0744590000004
 20
1321.90644299999
 30
0.0
 11
750.1135030000004
 21
1327.35629299999
 31
0.0
  0
ARC
  5
306
330
1F
100
AcDbEntity
  8
スト_ル
  6
CONTINUOUS
 62
     6
100
AcDbCircle
 10
754.7428980000004
 20
1318.37800099999
 30
0.0
 40
3.000000000000003
100
AcDbArc
 50
209.8816930000002
 51
221.3216590000001
  0
ARC
  5
307
330
1F
100
AcDbEntity
  8
スト_ル
  6
CONTINUOUS
 62
     6
100
AcDbCircle
 10
760.0000000000003
 20
1322.99999999999
 30
0.0
 40
10.0
100
AcDbArc
 50
221.3216590000001
 51
250.3702040000002
  0
ARC
  5
308
330
1F
100
AcDbEntity
  8
スト_ル
  6
CONTINUOUS
 62
     6
100
AcDbCircle
 10
760.0000000000003
 20
1322.99999999999
 30
0.0
 40
10.0
100
AcDbArc
 50
289.885073
 51
318.6783410000002
  0
ARC
  5
309
330
1F
100
AcDbEntity
  8
スト_ル
  6
CONTINUOUS
 62
     6
100
AcDbCircle
 10
765.2571020000005
 20
1318.37800099999
 30
0.0
 40
3.000000000000003
100
AcDbArc
 50
318.6783410000002
 51
327.4433700000001
  0
LINE
  5
30A
330
1F
100
AcDbEntity
  8
スト_ル
  6
CONTINUOUS
 62
     6
100
AcDbLine
 10
768.8445820000004
 20
1321.44730299999
 30
0.0
 11
769.8827720000004
 21
1327.33516799999
 31
0.0
  0
LINE
  5
30B
330
1F
100
AcDbEntity
  8
スト_ル
  6
CONTINUOUS
 62
     6
100
AcDbLine
 10
770.0000000000006
 20
1331.89999999999
 30
0.0
 11
770.0000000000006
 21
1337.69999999999
 31
0.0
  0
LINE
  5
30C
330
1F
100
AcDbEntity
  8
スト_ル
  6
CONTINUOUS
 62
     6
100
AcDbLine
 10
770.0000000000006
 20
1342.299999999989
 30
0.0
 11
770.0000000000006
 21
1347.39999999999
 31
0.0
  0
LINE
  5
30D
330
1F
100
AcDbEntity
  8
スト_ル
  6
CONTINUOUS
 62
     6
100
AcDbLine
 10
770.0000000000006
 20
1352.05171099999
 30
0.0
 11
770.0000000000006
 21
1357.82452799999
 31
0.0
  0
LINE
  5
30E
330
1F
100
AcDbEntity
  8
スト_ル
  6
CONTINUOUS
 62
     6
100
AcDbLine
 10
770.0000000000006
 20
1363.19999999999
 30
0.0
 11
770.0000000000006
 21
1368.28571399999
 31
0.0
  0
LINE
  5
30F
330
1F
100
AcDbEntity
  8
スト_ル
  6
CONTINUOUS
 62
     6
100
AcDbLine
 10
770.0000000000006
 20
1369.88048299999
 30
0.0
 11
770.0000000000006
 21
1371.99999999999
 31
0.0
  0
LINE
  5
310
330
1F
100
AcDbEntity
  8
スト_ル
  6
CONTINUOUS
 62
     6
100
AcDbLine
 10
770.0000000000006
 20
1373.79999999999
 30
0.0
 11
770.0000000000006
 21
1377.73753399999
 31
0.0
  0
LINE
  5
311
330
1F
100
AcDbEntity
  8
スト_ル
  6
CONTINUOUS
 62
     6
100
AcDbLine
 10
769.8241580000004
 20
1378.99724699999
 30
0.0
 11
769.9544230000004
 21
1378.25847899999
 31
0.0
  0
LINE
  5
312
330
1F
100
AcDbEntity
  8
スト_ル
  6
CONTINUOUS
 62
     6
100
AcDbLine
 10
768.2115250000004
 20
1388.14294399999
 30
0.0
 11
768.8934230000004
 21
1384.27570699999
 31
0.0
  0
ARC
  5
313
330
1F
100
AcDbEntity
  8
スト_ル
  6
CONTINUOUS
 62
     6
100
AcDbCircle
 10
765.2571020000005
 20
1387.62199899999
 30
0.0
 40
3.000000000000003
100
AcDbArc
 50
10.0
 51
30.71724300000002
  0
ARC
  5
314
330
1F
100
AcDbEntity
  8
スト_ル
  6
CONTINUOUS
 62
     6
100
AcDbCircle
 10
760.0000000000003
 20
1382.99999999999
 30
0.0
 40
10.0
100
AcDbArc
 50
69.93416400000002
 51
108.711975
  0
ARC
  5
315
330
1F
100
AcDbEntity
  8
スト_ル
  6
CONTINUOUS
 62
     6
100
AcDbCircle
 10
767.0000000000005
 20
1377.73753399999
 30
0.0
 40
3.000000000000003
100
AcDbArc
 50
0.0
 51
10.0
  0
ARC
  5
316
330
1F
100
AcDbEntity
  8
スト_ル
  6
CONTINUOUS
 62
     6
100
AcDbCircle
 10
753.0000000000005
 20
1377.73753399999
 30
0.0
 40
3.000000000000003
100
AcDbArc
 50
170.0000000000001
 51
180.0
  0
ARC
  5
317
330
1F
100
AcDbEntity
  8
スト_ル
  6
CONTINUOUS
 62
     6
100
AcDbCircle
 10
754.7428980000004
 20
1387.62199899999
 30
0.0
 40
3.000000000000003
100
AcDbArc
 50
138.678341
 51
170.0000000000001
  0
LINE
  5
318
330
1F
100
AcDbEntity
  8
スト_ル
  6
CONTINUOUS
 62
     6
100
AcDbLine
 10
479.7884750000006
 20
1388.14294399999
 30
0.0
 11
479.4897700000004
 21
1386.44890599999
 31
0.0
  0
LINE
  5
319
330
1F
100
AcDbEntity
  8
スト_ル
  6
CONTINUOUS
 62
     6
100
AcDbLine
 10
478.3638660000004
 20
1380.06358499999
 30
0.0
 11
478.0455770000006
 21
1378.25847899999
 31
0.0
  0
LINE
  5
31A
330
1F
100
AcDbEntity
  8
スト_ル
  6
CONTINUOUS
 62
     6
100
AcDbLine
 10
478.0000000000002
 20
1374.85999999999
 30
0.0
 11
478.0000000000002
 21
1377.73753399999
 31
0.0
  0
LINE
  5
31B
330
1F
100
AcDbEntity
  8
スト_ル
  6
CONTINUOUS
 62
     6
100
AcDbLine
 10
478.0000000000002
 20
1363.07450299999
 30
0.0
 11
478.0000000000002
 21
1368.43691499999
 31
0.0
  0
LINE
  5
31C
330
1F
100
AcDbEntity
  8
スト_ル
  6
CONTINUOUS
 62
     6
100
AcDbLine
 10
478.0000000000002
 20
1352.51383199999
 30
0.0
 11
478.0000000000002
 21
1357.80852899999
 31
0.0
  0
LINE
  5
31D
330
1F
100
AcDbEntity
  8
スト_ル
  6
CONTINUOUS
 62
     6
100
AcDbLine
 10
478.0000000000002
 20
1342.87471699999
 30
0.0
 11
478.0000000000002
 21
1347.91999999999
 31
0.0
  0
LINE
  5
31E
330
1F
100
AcDbEntity
  8
スト_ル
  6
CONTINUOUS
 62
     6
100
AcDbLine
 10
478.0000000000002
 20
1332.34642899999
 30
0.0
 11
478.0000000000002
 21
1337.69999999999
 31
0.0
  0
LINE
  5
31F
330
1F
100
AcDbEntity
  8
スト_ル
  6
CONTINUOUS
 62
     6
100
AcDbLine
 10
479.0744590000002
 20
1321.90644299999
 30
0.0
 11
478.1135030000003
 21
1327.35629299999
 31
0.0
  0
ARC
  5
320
330
1F
100
AcDbEntity
  8
スト_ル
  6
CONTINUOUS
 62
     6
100
AcDbCircle
 10
488.0000000000002
 20
1322.99999999999
 30
0.0
 40
10.0
100
AcDbArc
 50
221.3216590000001
 51
250.3702040000002
  0
ARC
  5
321
330
1F
100
AcDbEntity
  8
スト_ル
  6
CONTINUOUS
 62
     6
100
AcDbCircle
 10
488.0000000000002
 20
1322.99999999999
 30
0.0
 40
10.0
100
AcDbArc
 50
289.885073
 51
318.6783410000002
  0
ARC
  5
322
330
1F
100
AcDbEntity
  8
スト_ル
  6
CONTINUOUS
 62
     6
100
AcDbCircle
 10
493.2571020000003
 20
1318.37800099999
 30
0.0
 40
3.000000000000003
100
AcDbArc
 50
318.6783410000002
 51
327.4433700000001
  0
LINE
  5
323
330
1F
100
AcDbEntity
  8
スト_ル
  6
CONTINUOUS
 62
     6
100
AcDbLine
 10
496.8445820000004
 20
1321.44730299999
 30
0.0
 11
497.8827720000002
 21
1327.33516799999
 31
0.0
  0
LINE
  5
324
330
1F
100
AcDbEntity
  8
スト_ル
  6
CONTINUOUS
 62
     6
100
AcDbLine
 10
498.0000000000002
 20
1331.89999999999
 30
0.0
 11
498.0000000000002
 21
1337.69999999999
 31
0.0
  0
LINE
  5
325
330
1F
100
AcDbEntity
  8
スト_ル
  6
CONTINUOUS
 62
     6
100
AcDbLine
 10
498.0000000000002
 20
1342.299999999989
 30
0.0
 11
498.0000000000002
 21
1347.39999999999
 31
0.0
  0
LINE
  5
326
330
1F
100
AcDbEntity
  8
スト_ル
  6
CONTINUOUS
 62
     6
100
AcDbLine
 10
498.0000000000002
 20
1352.05171099999
 30
0.0
 11
498.0000000000002
 21
1357.82452799999
 31
0.0
  0
LINE
  5
327
330
1F
100
AcDbEntity
  8
スト_ル
  6
CONTINUOUS
 62
     6
100
AcDbLine
 10
498.0000000000002
 20
1363.19999999999
 30
0.0
 11
498.0000000000002
 21
1368.28571399999
 31
0.0
  0
LINE
  5
328
330
1F
100
AcDbEntity
  8
スト_ル
  6
CONTINUOUS
 62
     6
100
AcDbLine
 10
498.0000000000002
 20
1373.79999999999
 30
0.0
 11
498.0000000000002
 21
1377.73753399999
 31
0.0
  0
LINE
  5
329
330
1F
100
AcDbEntity
  8
スト_ル
  6
CONTINUOUS
 62
     6
100
AcDbLine
 10
497.8241580000001
 20
1378.99724699999
 30
0.0
 11
497.9544230000004
 21
1378.25847899999
 31
0.0
  0
LINE
  5
32A
330
1F
100
AcDbEntity
  8
スト_ル
  6
CONTINUOUS
 62
     6
100
AcDbLine
 10
496.2115250000004
 20
1388.14294399999
 30
0.0
 11
496.8934230000002
 21
1384.27570699999
 31
0.0
  0
ARC
  5
32B
330
1F
100
AcDbEntity
  8
スト_ル
  6
CONTINUOUS
 62
     6
100
AcDbCircle
 10
493.2571020000003
 20
1387.62199899999
 30
0.0
 40
3.000000000000003
100
AcDbArc
 50
10.0
 51
30.71724300000002
  0
ARC
  5
32C
330
1F
100
AcDbEntity
  8
スト_ル
  6
CONTINUOUS
 62
     6
100
AcDbCircle
 10
488.0000000000002
 20
1382.99999999999
 30
0.0
 40
10.0
100
AcDbArc
 50
135.007113
 51
138.678341
  0
ARC
  5
32D
330
1F
100
AcDbEntity
  8
スト_ル
  6
CONTINUOUS
 62
     6
100
AcDbCircle
 10
488.0000000000002
 20
1382.99999999999
 30
0.0
 40
10.0
100
AcDbArc
 50
69.93416400000002
 51
108.711975
  0
ARC
  5
32E
330
1F
100
AcDbEntity
  8
スト_ル
  6
CONTINUOUS
 62
     6
100
AcDbCircle
 10
495.0000000000003
 20
1377.73753399999
 30
0.0
 40
3.000000000000003
100
AcDbArc
 50
0.0
 51
10.0
  0
ARC
  5
32F
330
1F
100
AcDbEntity
  8
スト_ル
  6
CONTINUOUS
 62
     6
100
AcDbCircle
 10
481.0000000000002
 20
1377.73753399999
 30
0.0
 40
3.000000000000003
100
AcDbArc
 50
170.0000000000001
 51
180.0
  0
ARC
  5
330
330
1F
100
AcDbEntity
  8
スト_ル
  6
CONTINUOUS
 62
     6
100
AcDbCircle
 10
482.7428980000002
 20
1387.62199899999
 30
0.0
 40
3.000000000000003
100
AcDbArc
 50
138.678341
 51
170.0000000000001
  0
LINE
  5
331
330
1F
100
AcDbEntity
  8
スト_ル
  6
CONTINUOUS
 62
     6
100
AcDbLine
 10
1553.560394299961
 20
624.99999999997
 30
0.0
 11
1551.569353111885
 21
623.2301856105687
 31
0.0
  0
LINE
  5
332
330
1F
100
AcDbEntity
  8
スト_ル
  6
CONTINUOUS
 62
     6
100
AcDbLine
 10
1554.310394299961
 20
628.99999999997
 30
0.0
 11
1551.788938951171
 21
626.7587063566002
 31
0.0
  0
LINE
  5
333
330
1F
100
AcDbEntity
  8
スト_ル
  6
CONTINUOUS
 62
     6
100
AcDbLine
 10
1492.0603943
 20
624.99999999997
 30
0.0
 11
1494.051435488076
 21
623.2301856105696
 31
0.0
  0
LINE
  5
334
330
1F
100
AcDbEntity
  8
スト_ル
  6
CONTINUOUS
 62
     6
100
AcDbLine
 10
1491.3103943
 20
628.99999999997
 30
0.0
 11
1493.83184964879
 21
626.7587063566007
 31
0.0
  0
LINE
  5
335
330
1F
100
AcDbEntity
  8
スト_ル
  6
CONTINUOUS
 62
     6
100
AcDbLine
 10
1551.928418461478
 20
628.99999999997
 30
0.0
 11
1557.560394299961
 21
628.99999999997
 31
0.0
  0
LINE
  5
336
330
1F
100
AcDbEntity
  8
スト_ル
  6
CONTINUOUS
 62
     6
100
AcDbLine
 10
1493.692370138483
 20
628.99999999997
 30
0.0
 11
1488.0603943
 21
628.99999999997
 31
0.0
  0
LINE
  5
337
330
1F
100
AcDbEntity
  8
スト_ル
  6
CONTINUOUS
 62
     6
100
AcDbLine
 10
1562.310394299961
 20
633.99999999997
 30
0.0
 11
1552.239576954074
 21
633.99999999997
 31
0.0
  0
LINE
  5
338
330
1F
100
AcDbEntity
  8
スト_ル
  6
CONTINUOUS
 62
     6
100
AcDbLine
 10
1483.3103943
 20
633.99999999997
 30
0.0
 11
1493.381211645887
 21
633.99999999997
 31
0.0
  0
LINE
  5
339
330
1F
100
AcDbEntity
  8
スト_ル
  6
CONTINUOUS
 62
     6
100
AcDbLine
 10
1587.310394299968
 20
586.99999999997
 30
0.0
 11
1578.310394299969
 21
586.99999999997
 31
0.0
  0
LINE
  5
33A
330
1F
100
AcDbEntity
  8
スト_ル
  6
CONTINUOUS
 62
     6
100
AcDbLine
 10
1545.810394299961
 20
567.99999999997
 30
0.0
 11
1546.475381506584
 21
593.0795175069052
 31
0.0
  0
ARC
  5
33B
330
1F
100
AcDbEntity
  8
スト_ル
  6
CONTINUOUS
 62
     6
100
AcDbCircle
 10
1549.474327482438
 20
592.99999999997
 30
0.0
 40
3.000000000000003
100
AcDbArc
 50
90.00000000000001
 51
178.4811496025647
  0
LINE
  5
33C
330
1F
100
AcDbEntity
  8
スト_ル
  6
CONTINUOUS
 62
     6
100
AcDbLine
 10
1557.810394299961
 20
595.99999999997
 30
0.0
 11
1522.810394299961
 21
595.99999999997
 31
0.0
  0
LINE
  5
33D
330
1F
100
AcDbEntity
  8
スト_ル
  6
CONTINUOUS
 62
     6
100
AcDbLine
 10
1560.810394299961
 20
587.99999999997
 30
0.0
 11
1560.810394299961
 21
592.99999999997
 31
0.0
  0
ARC
  5
33E
330
1F
100
AcDbEntity
  8
スト_ル
  6
CONTINUOUS
 62
     6
100
AcDbCircle
 10
1557.810394299961
 20
592.99999999997
 30
0.0
 40
3.000000000000003
100
AcDbArc
 50
0.0
 51
90.00000000000001
  0
LINE
  5
33F
330
1F
100
AcDbEntity
  8
スト_ル
  6
CONTINUOUS
 62
     6
100
AcDbLine
 10
1567.960394299961
 20
588.99999999997
 30
0.0
 11
1567.960394299961
 21
627.99999999997
 31
0.0
  0
LINE
  5
340
330
1F
100
AcDbEntity
  8
スト_ル
  6
CONTINUOUS
 62
     6
100
AcDbLine
 10
1592.810394299961
 20
586.99999999997
 30
0.0
 11
1569.960394299961
 21
586.99999999997
 31
0.0
  0
ARC
  5
341
330
1F
100
AcDbEntity
  8
スト_ル
  6
CONTINUOUS
 62
     6
100
AcDbCircle
 10
1569.960394299961
 20
588.99999999997
 30
0.0
 40
2.0
100
AcDbArc
 50
180.0
 51
270.0000000000002
  0
LINE
  5
342
330
1F
100
AcDbEntity
  8
スト_ル
  6
CONTINUOUS
 62
     6
100
AcDbLine
 10
1564.960394299961
 20
587.99999999997
 30
0.0
 11
1564.960394299961
 21
627.99999999997
 31
0.0
  0
LINE
  5
343
330
1F
100
AcDbEntity
  8
スト_ル
  6
CONTINUOUS
 62
     6
100
AcDbLine
 10
1563.960394299961
 20
586.99999999997
 30
0.0
 11
1561.810394299961
 21
586.99999999997
 31
0.0
  0
ARC
  5
344
330
1F
100
AcDbEntity
  8
スト_ル
  6
CONTINUOUS
 62
     6
100
AcDbCircle
 10
1563.960394299961
 20
587.99999999997
 30
0.0
 40
1.0
100
AcDbArc
 50
270.0000000000002
 51
0.0
  0
LINE
  5
345
330
1F
100
AcDbEntity
  8
スト_ル
  6
CONTINUOUS
 62
     6
100
AcDbLine
 10
1522.810394299961
 20
597.99999999997
 30
0.0
 11
1554.310394299961
 21
597.99999999997
 31
0.0
  0
LINE
  5
346
330
1F
100
AcDbEntity
  8
スト_ル
  6
CONTINUOUS
 62
     6
100
AcDbLine
 10
1555.310394299961
 20
598.99999999997
 30
0.0
 11
1555.310394299961
 21
625.99999999997
 31
0.0
  0
ARC
  5
347
330
1F
100
AcDbEntity
  8
スト_ル
  6
CONTINUOUS
 62
     6
100
AcDbCircle
 10
1554.310394299961
 20
598.99999999997
 30
0.0
 40
1.0
100
AcDbArc
 50
270.0000000000002
 51
0.0
  0
LINE
  5
348
330
1F
100
AcDbEntity
  8
スト_ル
  6
CONTINUOUS
 62
     6
100
AcDbLine
 10
1557.310394299961
 20
596.99999999997
 30
0.0
 11
1557.310394299961
 21
626.99999999997
 31
0.0
  0
ARC
  5
349
330
1F
100
AcDbEntity
  8
スト_ル
  6
CONTINUOUS
 62
     6
100
AcDbCircle
 10
1556.310394299961
 20
596.99999999997
 30
0.0
 40
1.0
100
AcDbArc
 50
270.0000000000002
 51
0.0
  0
ARC
  5
34A
330
1F
100
AcDbEntity
  8
スト_ル
  6
CONTINUOUS
 62
     6
100
AcDbCircle
 10
1556.310394299961
 20
625.99999999997
 30
0.0
 40
1.0
100
AcDbArc
 50
90.00000000000001
 51
180.0
  0
ARC
  5
34B
330
1F
100
AcDbEntity
  8
スト_ル
  6
CONTINUOUS
 62
     6
100
AcDbCircle
 10
1556.310394299961
 20
625.99999999997
 30
0.0
 40
1.0
100
AcDbArc
 50
0.0
 51
90.00000000000001
  0
LINE
  5
34C
330
1F
100
AcDbEntity
  8
スト_ル
  6
CONTINUOUS
 62
     6
100
AcDbLine
 10
1554.810394299961
 20
626.99999999997
 30
0.0
 11
1557.310394299961
 21
626.99999999997
 31
0.0
  0
LINE
  5
34D
330
1F
100
AcDbEntity
  8
スト_ル
  6
CONTINUOUS
 62
     6
100
AcDbLine
 10
1553.560394299961
 20
624.99999999997
 30
0.0
 11
1554.810394299961
 21
624.99999999997
 31
0.0
  0
LINE
  5
34E
330
1F
100
AcDbEntity
  8
スト_ル
  6
CONTINUOUS
 62
     6
100
AcDbLine
 10
1554.810394299961
 20
624.99999999997
 30
0.0
 11
1554.810394299961
 21
626.99999999997
 31
0.0
  0
LINE
  5
34F
330
1F
100
AcDbEntity
  8
スト_ル
  6
CONTINUOUS
 62
     6
100
AcDbLine
 10
1558.810394299961
 20
613.99999999997
 30
0.0
 11
1558.810394299961
 21
628.99999999997
 31
0.0
  0
LINE
  5
350
330
1F
100
AcDbEntity
  8
スト_ル
  6
CONTINUOUS
 62
     6
100
AcDbLine
 10
1557.310394299961
 20
613.99999999997
 30
0.0
 11
1558.810394299961
 21
613.99999999997
 31
0.0
  0
LINE
  5
351
330
1F
100
AcDbEntity
  8
スト_ル
  6
CONTINUOUS
 62
     6
100
AcDbLine
 10
1562.098855838423
 20
632.4615384615081
 30
0.0
 11
1558.810394299961
 21
628.9999999999695
 31
0.0
  0
LINE
  5
352
330
1F
100
AcDbEntity
  8
スト_ル
  6
CONTINUOUS
 62
     6
100
AcDbLine
 10
1562.098855838423
 20
632.4615384615081
 30
0.0
 11
1564.960394299961
 21
629.99999999997
 31
0.0
  0
LINE
  5
353
330
1F
100
AcDbEntity
  8
スト_ル
  6
CONTINUOUS
 62
     6
100
AcDbLine
 10
1557.560394299961
 20
628.99999999997
 30
0.0
 11
1562.310394299961
 21
633.99999999997
 31
0.0
  0
LINE
  5
354
330
1F
100
AcDbEntity
  8
スト_ル
  6
CONTINUOUS
 62
     6
100
AcDbLine
 10
1564.960394299961
 20
627.99999999997
 30
0.0
 11
1564.960394299961
 21
629.99999999997
 31
0.0
  0
LINE
  5
355
330
1F
100
AcDbEntity
  8
スト_ル
  6
CONTINUOUS
 62
     6
100
AcDbLine
 10
1564.960394299961
 20
627.99999999997
 30
0.0
 11
1567.960394299961
 21
627.99999999997
 31
0.0
  0
LINE
  5
356
330
1F
100
AcDbEntity
  8
スト_ル
  6
CONTINUOUS
 62
     6
100
AcDbLine
 10
1570.960394299962
 20
607.99999999997
 30
0.0
 11
1567.960394299961
 21
607.99999999997
 31
0.0
  0
LINE
  5
357
330
1F
100
AcDbEntity
  8
スト_ル
  6
CONTINUOUS
 62
     6
100
AcDbLine
 10
1570.960394299962
 20
629.99999999997
 30
0.0
 11
1570.960394299962
 21
607.99999999997
 31
0.0
  0
LINE
  5
358
330
1F
100
AcDbEntity
  8
スト_ル
  6
CONTINUOUS
 62
     6
100
AcDbLine
 10
1566.960394299961
 20
629.99999999997
 30
0.0
 11
1570.960394299962
 21
629.99999999997
 31
0.0
  0
LINE
  5
359
330
1F
100
AcDbEntity
  8
スト_ル
  6
CONTINUOUS
 62
     6
100
AcDbLine
 10
1562.310394299961
 20
633.99999999997
 30
0.0
 11
1566.960394299961
 21
629.99999999997
 31
0.0
  0
ARC
  5
35A
330
1F
100
AcDbEntity
  8
スト_ル
  6
CONTINUOUS
 62
     6
100
AcDbCircle
 10
1561.810394299961
 20
587.99999999997
 30
0.0
 40
1.0
100
AcDbArc
 50
180.0
 51
270.0000000000002
  0
LINE
  5
35B
330
1F
100
AcDbEntity
  8
スト_ル
  6
CONTINUOUS
 62
     6
100
AcDbLine
 10
1592.810394299961
 20
582.99999999997
 30
0.0
 11
1592.810394299961
 21
586.99999999997
 31
0.0
  0
LINE
  5
35C
330
1F
100
AcDbEntity
  8
スト_ル
  6
CONTINUOUS
 62
     6
100
AcDbLine
 10
1557.810394299961
 20
582.99999999997
 30
0.0
 11
1592.810394299961
 21
582.99999999997
 31
0.0
  0
LINE
  5
35D
330
1F
100
AcDbEntity
  8
スト_ル
  6
CONTINUOUS
 62
     6
100
AcDbLine
 10
1557.810394299961
 20
592.99999999997
 30
0.0
 11
1557.810394299961
 21
582.99999999997
 31
0.0
  0
LINE
  5
35E
330
1F
100
AcDbEntity
  8
スト_ル
  6
CONTINUOUS
 62
     6
100
AcDbLine
 10
1548.560394299961
 20
592.99999999997
 30
0.0
 11
1557.810394299961
 21
592.99999999997
 31
0.0
  0
LINE
  5
35F
330
1F
100
AcDbEntity
  8
スト_ル
  6
CONTINUOUS
 62
     6
100
AcDbLine
 10
1547.810394299961
 20
567.99999999997
 30
0.0
 11
1548.560394299961
 21
592.99999999997
 31
0.0
  0
LINE
  5
360
330
1F
100
AcDbEntity
  8
スト_ル
  6
CONTINUOUS
 62
     6
100
AcDbLine
 10
1551.060394299961
 20
592.99999999997
 30
0.0
 11
1550.310394299961
 21
567.99999999997
 31
0.0
  0
LINE
  5
361
330
1F
100
AcDbEntity
  8
スト_ル
  6
CONTINUOUS
 62
     6
100
AcDbLine
 10
1458.310394299993
 20
586.99999999997
 30
0.0
 11
1467.310394299993
 21
586.99999999997
 31
0.0
  0
LINE
  5
362
330
1F
100
AcDbEntity
  8
スト_ル
  6
CONTINUOUS
 62
     6
100
AcDbLine
 10
1499.8103943
 20
567.99999999997
 30
0.0
 11
1499.145407093377
 21
593.0795175069052
 31
0.0
  0
ARC
  5
363
330
1F
100
AcDbEntity
  8
スト_ル
  6
CONTINUOUS
 62
     6
100
AcDbCircle
 10
1496.146461117523
 20
592.99999999997
 30
0.0
 40
3.000000000000003
100
AcDbArc
 50
1.51885039743539
 51
90.00000000000001
  0
LINE
  5
364
330
1F
100
AcDbEntity
  8
スト_ル
  6
CONTINUOUS
 62
     6
100
AcDbLine
 10
1487.8103943
 20
595.99999999997
 30
0.0
 11
1522.8103943
 21
595.99999999997
 31
0.0
  0
LINE
  5
365
330
1F
100
AcDbEntity
  8
スト_ル
  6
CONTINUOUS
 62
     6
100
AcDbLine
 10
1484.8103943
 20
587.99999999997
 30
0.0
 11
1484.8103943
 21
592.99999999997
 31
0.0
  0
ARC
  5
366
330
1F
100
AcDbEntity
  8
スト_ル
  6
CONTINUOUS
 62
     6
100
AcDbCircle
 10
1487.8103943
 20
592.99999999997
 30
0.0
 40
3.000000000000003
100
AcDbArc
 50
90.00000000000001
 51
180.0
  0
LINE
  5
367
330
1F
100
AcDbEntity
  8
スト_ル
  6
CONTINUOUS
 62
     6
100
AcDbLine
 10
1477.6603943
 20
588.99999999997
 30
0.0
 11
1477.6603943
 21
627.99999999997
 31
0.0
  0
LINE
  5
368
330
1F
100
AcDbEntity
  8
スト_ル
  6
CONTINUOUS
 62
     6
100
AcDbLine
 10
1452.8103943
 20
586.99999999997
 30
0.0
 11
1475.6603943
 21
586.99999999997
 31
0.0
  0
ARC
  5
369
330
1F
100
AcDbEntity
  8
スト_ル
  6
CONTINUOUS
 62
     6
100
AcDbCircle
 10
1475.6603943
 20
588.99999999997
 30
0.0
 40
2.0
100
AcDbArc
 50
270.0000000000002
 51
0.0
  0
LINE
  5
36A
330
1F
100
AcDbEntity
  8
スト_ル
  6
CONTINUOUS
 62
     6
100
AcDbLine
 10
1480.6603943
 20
587.99999999997
 30
0.0
 11
1480.6603943
 21
627.99999999997
 31
0.0
  0
LINE
  5
36B
330
1F
100
AcDbEntity
  8
スト_ル
  6
CONTINUOUS
 62
     6
100
AcDbLine
 10
1481.6603943
 20
586.99999999997
 30
0.0
 11
1483.8103943
 21
586.99999999997
 31
0.0
  0
ARC
  5
36C
330
1F
100
AcDbEntity
  8
スト_ル
  6
CONTINUOUS
 62
     6
100
AcDbCircle
 10
1481.6603943
 20
587.99999999997
 30
0.0
 40
1.0
100
AcDbArc
 50
180.0
 51
270.0000000000002
  0
LINE
  5
36D
330
1F
100
AcDbEntity
  8
スト_ル
  6
CONTINUOUS
 62
     6
100
AcDbLine
 10
1522.8103943
 20
597.99999999997
 30
0.0
 11
1491.3103943
 21
597.99999999997
 31
0.0
  0
LINE
  5
36E
330
1F
100
AcDbEntity
  8
スト_ル
  6
CONTINUOUS
 62
     6
100
AcDbLine
 10
1490.3103943
 20
598.99999999997
 30
0.0
 11
1490.3103943
 21
625.99999999997
 31
0.0
  0
ARC
  5
36F
330
1F
100
AcDbEntity
  8
スト_ル
  6
CONTINUOUS
 62
     6
100
AcDbCircle
 10
1491.3103943
 20
598.99999999997
 30
0.0
 40
1.0
100
AcDbArc
 50
180.0
 51
270.0000000000002
  0
LINE
  5
370
330
1F
100
AcDbEntity
  8
スト_ル
  6
CONTINUOUS
 62
     6
100
AcDbLine
 10
1488.3103943
 20
596.99999999997
 30
0.0
 11
1488.3103943
 21
626.99999999997
 31
0.0
  0
ARC
  5
371
330
1F
100
AcDbEntity
  8
スト_ル
  6
CONTINUOUS
 62
     6
100
AcDbCircle
 10
1489.3103943
 20
596.99999999997
 30
0.0
 40
1.0
100
AcDbArc
 50
180.0
 51
270.0000000000002
  0
ARC
  5
372
330
1F
100
AcDbEntity
  8
スト_ル
  6
CONTINUOUS
 62
     6
100
AcDbCircle
 10
1489.3103943
 20
625.99999999997
 30
0.0
 40
1.0
100
AcDbArc
 50
0.0
 51
90.00000000000001
  0
ARC
  5
373
330
1F
100
AcDbEntity
  8
スト_ル
  6
CONTINUOUS
 62
     6
100
AcDbCircle
 10
1489.3103943
 20
625.99999999997
 30
0.0
 40
1.0
100
AcDbArc
 50
90.00000000000001
 51
180.0
  0
LINE
  5
374
330
1F
100
AcDbEntity
  8
スト_ル
  6
CONTINUOUS
 62
     6
100
AcDbLine
 10
1490.810394300001
 20
626.99999999997
 30
0.0
 11
1488.3103943
 21
626.99999999997
 31
0.0
  0
LINE
  5
375
330
1F
100
AcDbEntity
  8
スト_ル
  6
CONTINUOUS
 62
     6
100
AcDbLine
 10
1492.0603943
 20
624.99999999997
 30
0.0
 11
1490.810394300001
 21
624.99999999997
 31
0.0
  0
LINE
  5
376
330
1F
100
AcDbEntity
  8
スト_ル
  6
CONTINUOUS
 62
     6
100
AcDbLine
 10
1490.810394300001
 20
624.99999999997
 30
0.0
 11
1490.810394300001
 21
626.99999999997
 31
0.0
  0
LINE
  5
377
330
1F
100
AcDbEntity
  8
スト_ル
  6
CONTINUOUS
 62
     6
100
AcDbLine
 10
1486.8103943
 20
613.99999999997
 30
0.0
 11
1486.8103943
 21
628.99999999997
 31
0.0
  0
LINE
  5
378
330
1F
100
AcDbEntity
  8
スト_ル
  6
CONTINUOUS
 62
     6
100
AcDbLine
 10
1488.3103943
 20
613.99999999997
 30
0.0
 11
1486.8103943
 21
613.99999999997
 31
0.0
  0
LINE
  5
379
330
1F
100
AcDbEntity
  8
スト_ル
  6
CONTINUOUS
 62
     6
100
AcDbLine
 10
1483.521932761539
 20
632.4615384615081
 30
0.0
 11
1486.8103943
 21
628.9999999999695
 31
0.0
  0
LINE
  5
37A
330
1F
100
AcDbEntity
  8
スト_ル
  6
CONTINUOUS
 62
     6
100
AcDbLine
 10
1483.521932761539
 20
632.4615384615081
 30
0.0
 11
1480.6603943
 21
629.99999999997
 31
0.0
  0
LINE
  5
37B
330
1F
100
AcDbEntity
  8
スト_ル
  6
CONTINUOUS
 62
     6
100
AcDbLine
 10
1488.0603943
 20
628.99999999997
 30
0.0
 11
1483.3103943
 21
633.99999999997
 31
0.0
  0
LINE
  5
37C
330
1F
100
AcDbEntity
  8
スト_ル
  6
CONTINUOUS
 62
     6
100
AcDbLine
 10
1480.6603943
 20
627.99999999997
 30
0.0
 11
1480.6603943
 21
629.99999999997
 31
0.0
  0
LINE
  5
37D
330
1F
100
AcDbEntity
  8
スト_ル
  6
CONTINUOUS
 62
     6
100
AcDbLine
 10
1480.6603943
 20
627.99999999997
 30
0.0
 11
1477.6603943
 21
627.99999999997
 31
0.0
  0
LINE
  5
37E
330
1F
100
AcDbEntity
  8
スト_ル
  6
CONTINUOUS
 62
     6
100
AcDbLine
 10
1474.6603943
 20
607.99999999997
 30
0.0
 11
1477.6603943
 21
607.99999999997
 31
0.0
  0
LINE
  5
37F
330
1F
100
AcDbEntity
  8
スト_ル
  6
CONTINUOUS
 62
     6
100
AcDbLine
 10
1474.6603943
 20
629.99999999997
 30
0.0
 11
1474.6603943
 21
607.99999999997
 31
0.0
  0
LINE
  5
380
330
1F
100
AcDbEntity
  8
スト_ル
  6
CONTINUOUS
 62
     6
100
AcDbLine
 10
1478.6603943
 20
629.99999999997
 30
0.0
 11
1474.6603943
 21
629.99999999997
 31
0.0
  0
LINE
  5
381
330
1F
100
AcDbEntity
  8
スト_ル
  6
CONTINUOUS
 62
     6
100
AcDbLine
 10
1483.3103943
 20
633.99999999997
 30
0.0
 11
1478.6603943
 21
629.99999999997
 31
0.0
  0
ARC
  5
382
330
1F
100
AcDbEntity
  8
スト_ル
  6
CONTINUOUS
 62
     6
100
AcDbCircle
 10
1483.8103943
 20
587.99999999997
 30
0.0
 40
1.0
100
AcDbArc
 50
270.0000000000002
 51
0.0
  0
LINE
  5
383
330
1F
100
AcDbEntity
  8
スト_ル
  6
CONTINUOUS
 62
     6
100
AcDbLine
 10
1452.8103943
 20
582.99999999997
 30
0.0
 11
1452.8103943
 21
586.99999999997
 31
0.0
  0
LINE
  5
384
330
1F
100
AcDbEntity
  8
スト_ル
  6
CONTINUOUS
 62
     6
100
AcDbLine
 10
1487.8103943
 20
582.99999999997
 30
0.0
 11
1452.8103943
 21
582.99999999997
 31
0.0
  0
LINE
  5
385
330
1F
100
AcDbEntity
  8
スト_ル
  6
CONTINUOUS
 62
     6
100
AcDbLine
 10
1487.8103943
 20
592.99999999997
 30
0.0
 11
1487.8103943
 21
582.99999999997
 31
0.0
  0
LINE
  5
386
330
1F
100
AcDbEntity
  8
スト_ル
  6
CONTINUOUS
 62
     6
100
AcDbLine
 10
1497.0603943
 20
592.99999999997
 30
0.0
 11
1487.8103943
 21
592.99999999997
 31
0.0
  0
LINE
  5
387
330
1F
100
AcDbEntity
  8
スト_ル
  6
CONTINUOUS
 62
     6
100
AcDbLine
 10
1497.8103943
 20
567.99999999997
 30
0.0
 11
1497.0603943
 21
592.99999999997
 31
0.0
  0
LINE
  5
388
330
1F
100
AcDbEntity
  8
スト_ル
  6
CONTINUOUS
 62
     6
100
AcDbLine
 10
1494.5603943
 20
592.99999999997
 30
0.0
 11
1495.3103943
 21
567.99999999997
 31
0.0
  0
LINE
  5
389
330
1F
100
AcDbEntity
  8
スト_ル
  6
CONTINUOUS
 62
     6
100
AcDbLine
 10
644.0000000000001
 20
1487.99996442839
 30
0.0
 11
644.0000000000007
 21
1490.919577277607
 31
0.0
  0
LINE
  5
38A
330
1F
100
AcDbEntity
  8
スト_ル
  6
CONTINUOUS
 62
     6
100
AcDbLine
 10
604.0000000000007
 20
1490.919577277607
 30
0.0
 11
604.0000000000002
 21
1487.99996442839
 31
0.0
  0
CIRCLE
  5
38B
330
1F
100
AcDbEntity
  8
スト_ル
  6
CONTINUOUS
 62
     6
100
AcDbCircle
 10
624.0000000000002
 20
1465.88365616679
 30
0.0
 40
10.5
  0
ARC
  5
38C
330
1F
100
AcDbEntity
  8
スト_ル
  6
CONTINUOUS
 62
     6
100
AcDbCircle
 10
624.0000000000002
 20
1466.49996442839
 30
0.0
 40
13.50000000000001
100
AcDbArc
 50
349.3280707142002
 51
0.0
  0
LINE
  5
38D
330
1F
100
AcDbEntity
  8
スト_ル
  6
CONTINUOUS
 62
     6
100
AcDbLine
 10
635.3247516529002
 20
1464.49996442839
 30
0.0
 11
637.2664991615002
 21
1463.99996442839
 31
0.0
  0
ARC
  5
38E
330
1F
100
AcDbEntity
  8
スト_ル
  6
CONTINUOUS
 62
     6
100
AcDbCircle
 10
624.0000000000002
 20
1466.49996442839
 30
0.0
 40
13.50000000000001
100
AcDbArc
 50
180.0
 51
190.6719292858
  0
LINE
  5
38F
330
1F
100
AcDbEntity
  8
スト_ル
  6
CONTINUOUS
 62
     6
100
AcDbLine
 10
612.6752483471003
 20
1464.49996442839
 30
0.0
 11
610.7335008386001
 21
1463.99996442839
 31
0.0
  0
LINE
  5
390
330
1F
100
AcDbEntity
  8
スト_ル
  6
CONTINUOUS
 62
     6
100
AcDbLine
 10
649.0000000000001
 20
1466.49996442839
 30
0.0
 11
637.5000000000002
 21
1466.49996442839
 31
0.0
  0
LINE
  5
391
330
1F
100
AcDbEntity
  8
スト_ル
  6
CONTINUOUS
 62
     6
100
AcDbLine
 10
649.0000000000001
 20
1471.49996442839
 30
0.0
 11
649.0000000000001
 21
1466.49996442839
 31
0.0
  0
ARC
  5
392
330
1F
100
AcDbEntity
  8
スト_ル
  6
CONTINUOUS
 62
     6
100
AcDbCircle
 10
624.0000000000002
 20
1438.98525854609
 30
0.0
 40
41.01470588235296
100
AcDbArc
 50
52.4439335551
 51
77.32423875030003
  0
LINE
  5
393
330
1F
100
AcDbEntity
  8
スト_ル
  6
CONTINUOUS
 62
     6
100
AcDbLine
 10
610.5000000000002
 20
1466.49996442839
 30
0.0
 11
599.0000000000002
 21
1466.49996442839
 31
0.0
  0
ARC
  5
394
330
1F
100
AcDbEntity
  8
スト_ル
  6
CONTINUOUS
 62
     6
100
AcDbCircle
 10
624.0000000000002
 20
1438.98525854609
 30
0.0
 40
41.01470588235298
100
AcDbArc
 50
102.6757612497
 51
127.5560664449
  0
LINE
  5
395
330
1F
100
AcDbEntity
  8
スト_ル
  6
CONTINUOUS
 62
     6
100
AcDbLine
 10
599.0000000000002
 20
1471.49996442839
 30
0.0
 11
599.0000000000002
 21
1466.49996442839
 31
0.0
  0
ARC
  5
396
330
1F
100
AcDbEntity
  8
スト_ル
  6
CONTINUOUS
 62
     6
100
AcDbCircle
 10
623.9999999602003
 20
1466.49996443549
 30
0.0
 40
13.50000004047854
100
AcDbArc
 50
141.0575582492
 51
180.0000000298
  0
ARC
  5
397
330
1F
100
AcDbEntity
  8
スト_ル
  6
CONTINUOUS
 62
     6
100
AcDbCircle
 10
623.9999999602003
 20
1466.49996443549
 30
0.0
 40
13.50000004047853
100
AcDbArc
 50
359.9999999702001
 51
38.94244121240003
  0
LINE
  5
398
330
1F
100
AcDbEntity
  8
スト_ル
  6
CONTINUOUS
 62
     6
100
AcDbLine
 10
610.5000000000002
 20
1466.49996442839
 30
0.0
 11
612.5116724401003
 21
1467.01797009889
 31
0.0
  0
LINE
  5
399
330
1F
100
AcDbEntity
  8
スト_ル
  6
CONTINUOUS
 62
     6
100
AcDbLine
 10
637.5000000000002
 20
1466.49996442839
 30
0.0
 11
635.4883275600002
 21
1467.01797009889
 31
0.0
  0
LINE
  5
39A
330
1F
100
AcDbEntity
  8
スト_ル
  6
CONTINUOUS
 62
     6
100
AcDbLine
 10
624.0000000000002
 20
1477.99996442839
 30
0.0
 11
634.5000000000002
 21
1477.99996442839
 31
0.0
  0
LINE
  5
39B
330
1F
100
AcDbEntity
  8
スト_ル
  6
CONTINUOUS
 62
     6
100
AcDbLine
 10
613.5000000000002
 20
1477.99996442839
 30
0.0
 11
624.0000000000002
 21
1477.99996442839
 31
0.0
  0
CIRCLE
  5
39C
330
1F
100
AcDbEntity
  8
スト_ル
  6
CONTINUOUS
 62
     6
100
AcDbCircle
 10
624.0000000000002
 20
1466.49996442839
 30
0.0
 40
11.50000000000001
  0
LINE
  5
39D
330
1F
100
AcDbEntity
  8
スト_ル
  6
CONTINUOUS
 62
     6
100
AcDbLine
 10
606.5000000000002
 20
1485.99996442839
 30
0.0
 11
641.5000000000001
 21
1485.99996442839
 31
0.0
  0
LINE
  5
39E
330
1F
100
AcDbEntity
  8
スト_ル
  6
CONTINUOUS
 62
     6
100
AcDbLine
 10
604.0000000000002
 20
1487.99996442839
 30
0.0
 11
644.0000000000001
 21
1487.99996442839
 31
0.0
  0
LINE
  5
39F
330
1F
100
AcDbEntity
  8
スト_ル
  6
CONTINUOUS
 62
     6
100
AcDbLine
 10
633.0000000000002
 20
1477.99996442839
 30
0.0
 11
633.0000000000002
 21
1485.99996442839
 31
0.0
  0
LINE
  5
3A0
330
1F
100
AcDbEntity
  8
スト_ル
  6
CONTINUOUS
 62
     6
100
AcDbLine
 10
615.0000000000002
 20
1485.99996442839
 30
0.0
 11
615.0000000000002
 21
1477.99996442839
 31
0.0
  0
LINE
  5
3A1
330
1F
100
AcDbEntity
  8
スト_ル
  6
CONTINUOUS
 62
     6
100
AcDbLine
 10
634.5000000000002
 20
1471.19038018829
 30
0.0
 11
634.5000000000002
 21
1477.99996442839
 31
0.0
  0
LINE
  5
3A2
330
1F
100
AcDbEntity
  8
スト_ル
  6
CONTINUOUS
 62
     6
100
AcDbLine
 10
613.5000000000002
 20
1477.99996442839
 30
0.0
 11
613.5000000000002
 21
1471.20152769479
 31
0.0
  0
LINE
  5
3A3
330
1F
100
AcDbEntity
  8
スト_ル
  6
CONTINUOUS
 62
     6
100
AcDbLine
 10
641.5000000000001
 20
1485.99996442839
 30
0.0
 11
641.5000000000001
 21
1487.99996442839
 31
0.0
  0
LINE
  5
3A4
330
1F
100
AcDbEntity
  8
スト_ル
  6
CONTINUOUS
 62
     6
100
AcDbLine
 10
606.5000000000002
 20
1487.99996442839
 30
0.0
 11
606.5000000000002
 21
1485.99996442839
 31
0.0
  0
LINE
  5
3A5
330
1F
100
AcDbEntity
  8
スト_ル
  6
CONTINUOUS
 62
     6
100
AcDbLine
 10
1766.913334956298
 20
1385.350139999992
 30
0.0
 11
1770.810451956298
 21
1383.100139999992
 31
0.0
  0
LINE
  5
3A6
330
1F
100
AcDbEntity
  8
スト_ル
  6
CONTINUOUS
 62
     6
100
AcDbLine
 10
1766.913273956299
 20
1380.850139999992
 30
0.0
 11
1770.810390956298
 21
1383.100139999992
 31
0.0
  0
LINE
  5
3A7
330
1F
100
AcDbEntity
  8
スト_ル
  6
CONTINUOUS
 62
     6
100
AcDbLine
 10
1766.402882999998
 20
1325.350173287892
 30
0.0
 11
1770.299999999998
 21
1323.100173287892
 31
0.0
  0
LINE
  5
3A8
330
1F
100
AcDbEntity
  8
スト_ル
  6
CONTINUOUS
 62
     6
100
AcDbLine
 10
1766.402821999998
 20
1320.850173287892
 30
0.0
 11
1770.299938999998
 21
1323.100173287892
 31
0.0
  0
LINE
  5
3A9
330
1F
100
AcDbEntity
  8
スト_ル
  6
CONTINUOUS
 62
     6
100
AcDbLine
 10
757.7505497714677
 20
2659.834447506197
 30
0.0
 11
760.0005497714678
 21
2663.731564506197
 31
0.0
  0
LINE
  5
3AA
330
1F
100
AcDbEntity
  8
スト_ル
  6
CONTINUOUS
 62
     6
100
AcDbLine
 10
762.2505497714678
 20
2659.834386506197
 30
0.0
 11
760.0005497714678
 21
2663.731503506197
 31
0.0
  0
LINE
  5
3AB
330
1F
100
AcDbEntity
  8
スト_ル
  6
CONTINUOUS
 62
     6
100
AcDbLine
 10
485.7500000000077
 20
2659.834386506196
 30
0.0
 11
488.0000000000078
 21
2663.731503506196
 31
0.0
  0
LINE
  5
3AC
330
1F
100
AcDbEntity
  8
スト_ル
  6
CONTINUOUS
 62
     6
100
AcDbLine
 10
490.2500000000077
 20
2659.834325506196
 30
0.0
 11
488.0000000000078
 21
2663.731442506196
 31
0.0
  0
LINE
  5
3AD
330
1F
100
AcDbEntity
  8
スト_ル
  6
CONTINUOUS
 62
     6
100
AcDbLine
 10
563.9999999999902
 20
557.0
 30
0.0
 11
565.4999999999902
 21
561.0
 31
0.0
  0
LINE
  5
3AE
330
1F
100
AcDbEntity
  8
スト_ル
  6
CONTINUOUS
 62
     6
100
AcDbLine
 10
563.9999999999902
 20
557.0
 30
0.0
 11
562.4999999999902
 21
561.0
 31
0.0
  0
LINE
  5
3AF
330
1F
100
AcDbEntity
  8
スト_ル
  6
CONTINUOUS
 62
     6
100
AcDbLine
 10
684.0000000000001
 20
557.0
 30
0.0
 11
685.5000000000002
 21
561.0
 31
0.0
  0
LINE
  5
3B0
330
1F
100
AcDbEntity
  8
スト_ル
  6
CONTINUOUS
 62
     6
100
AcDbLine
 10
684.0000000000001
 20
557.0
 30
0.0
 11
682.5000000000002
 21
561.0
 31
0.0
  0
LINE
  5
3B1
330
1F
100
AcDbEntity
  8
スト_ル
  6
CONTINUOUS
 62
     6
100
AcDbLine
 10
1742.8103943
 20
1385.350139999992
 30
0.0
 11
1766.913334956298
 21
1385.350139999992
 31
0.0
  0
LINE
  5
3B2
330
1F
100
AcDbEntity
  8
スト_ル
  6
CONTINUOUS
 62
     6
100
AcDbLine
 10
1742.8103943
 20
1380.850139999992
 30
0.0
 11
1766.913273956299
 21
1380.850139999992
 31
0.0
  0
LINE
  5
3B3
330
1F
100
AcDbEntity
  8
スト_ル
  6
CONTINUOUS
 62
     6
100
AcDbLine
 10
1742.8103943
 20
1325.350173287892
 30
0.0
 11
1766.402882999998
 21
1325.350173287892
 31
0.0
  0
LINE
  5
3B4
330
1F
100
AcDbEntity
  8
スト_ル
  6
CONTINUOUS
 62
     6
100
AcDbLine
 10
1742.8103943
 20
1320.850173287892
 30
0.0
 11
1766.402821999998
 21
1320.850173287892
 31
0.0
  0
LINE
  5
3B5
330
1F
100
AcDbEntity
  8
スト_ル
  6
CONTINUOUS
 62
     6
100
AcDbLine
 10
485.7500000000077
 20
2635.63149599999
 30
0.0
 11
485.7500000000077
 21
2659.834386506196
 31
0.0
  0
LINE
  5
3B6
330
1F
100
AcDbEntity
  8
スト_ル
  6
CONTINUOUS
 62
     6
100
AcDbLine
 10
490.2500000000077
 20
2635.63149599999
 30
0.0
 11
490.2500000000077
 21
2659.834325506196
 31
0.0
  0
LINE
  5
3B7
330
1F
100
AcDbEntity
  8
スト_ル
  6
CONTINUOUS
 62
     6
100
AcDbLine
 10
757.7505497714677
 20
2635.63149599999
 30
0.0
 11
757.7505497714677
 21
2659.834447506197
 31
0.0
  0
LINE
  5
3B8
330
1F
100
AcDbEntity
  8
スト_ル
  6
CONTINUOUS
 62
     6
100
AcDbLine
 10
762.2505497714678
 20
2635.63149599999
 30
0.0
 11
762.2505497714678
 21
2659.834386506197
 31
0.0
  0
LINE
  5
3B9
330
1F
100
AcDbEntity
  8
スト_ル
  6
CONTINUOUS
 62
     6
100
AcDbLine
 10
565.499999999993
 20
583.0
 30
0.0
 11
565.499999999993
 21
561.0
 31
0.0
  0
LINE
  5
3BA
330
1F
100
AcDbEntity
  8
スト_ル
  6
CONTINUOUS
 62
     6
100
AcDbLine
 10
562.499999999993
 20
583.0
 30
0.0
 11
562.499999999993
 21
561.0
 31
0.0
  0
LINE
  5
3BB
330
1F
100
AcDbEntity
  8
スト_ル
  6
CONTINUOUS
 62
     6
100
AcDbLine
 10
685.500000000003
 20
583.0
 30
0.0
 11
685.500000000003
 21
561.0
 31
0.0
  0
LINE
  5
3BC
330
1F
100
AcDbEntity
  8
スト_ル
  6
CONTINUOUS
 62
     6
100
AcDbLine
 10
682.500000000003
 20
583.0
 30
0.0
 11
682.500000000003
 21
561.0
 31
0.0
  0
TEXT
  5
3BD
330
1F
100
AcDbEntity
  8
スト_ル
  6
CONTINUOUS
 62
     2
100
AcDbText
 10
1120.2001954
 20
474.3387023999899
 30
0.0
 40
40.0
  1
ＶＵ５０ｏｒＶＰ５０
 41
1.014406779661017
  7
EXCADSTD
 72
     5
 11
1462.2001954
 21
474.3387023999899
 31
0.0
100
AcDbText
  0
LINE
  5
3BE
330
1F
100
AcDbEntity
  8
スト_ル
  6
CONTINUOUS
 62
     6
100
AcDbLine
 10
1122.6163941
 20
470.8386413999901
 30
0.0
 11
1451.616546699999
 21
470.8386413999901
 31
0.0
  0
LINE
  5
3BF
330
1F
100
AcDbEntity
  8
スト_ル
  6
CONTINUOUS
 62
     6
100
AcDbLine
 10
1783.550022600001
 20
1736.8709021001
 30
0.0
 11
1902.231602200001
 21
1736.8709021001
 31
0.0
  0
TEXT
  5
3C0
330
1F
100
AcDbEntity
  8
スト_ル
  6
CONTINUOUS
 62
     2
100
AcDbText
 10
1776.868443000001
 20
1740.3709631001
 30
0.0
 40
40.0
  1
ＰＪ
 41
1.195746363636364
  7
EXCADSTD
 72
     5
 11
1852.029643000001
 21
1740.3709631001
 31
0.0
100
AcDbText
  0
TEXT
  5
3C1
330
1F
100
AcDbEntity
  8
スト_ル
  6
CONTINUOUS
 62
     6
100
AcDbText
 10
1852.7544904
 20
1740.3709631001
 30
0.0
 40
40.0
  1
／
 41
1.321599914550783
  7
EXCADSTD
 72
     5
 11
1890.514487958594
 21
1740.3709631001
 31
0.0
100
AcDbText
  0
TEXT
  5
3C2
330
1F
100
AcDbEntity
  8
スト_ル
  6
CONTINUOUS
 62
     2
100
AcDbText
 10
1878.952000200001
 20
1741.6717749001
 30
0.0
 40
25.0
  1
２
 41
1.321599999999995
  7
EXCADSTD
 72
     5
 11
1902.552000200001
 21
1741.6717749001
 31
0.0
100
AcDbText
  0
TEXT
  5
3C3
330
1F
100
AcDbEntity
  8
スト_ル
  6
CONTINUOUS
 62
     2
100
AcDbText
 10
1843.5438275
 20
1755.4094153001
 30
0.0
 40
25.0
  1
１
 41
1.321599999999995
  7
EXCADSTD
 72
     5
 11
1867.1438275
 21
1755.4094153001
 31
0.0
100
AcDbText
  0
LINE
  5
3C4
330
1F
100
AcDbEntity
  8
スト_ル
  6
CONTINUOUS
 62
     6
100
AcDbLine
 10
1180.0
 20
2559.0
 30
0.0
 11
1880.0
 21
2559.0
 31
0.0
  0
LINE
  5
3C5
330
1F
100
AcDbEntity
  8
スト_ル
  6
CONTINUOUS
 62
     6
100
AcDbLine
 10
1180.0
 20
2624.0
 30
0.0
 11
1880.0
 21
2624.0
 31
0.0
  0
LINE
  5
3C6
330
1F
100
AcDbEntity
  8
スト_ル
  6
CONTINUOUS
 62
     6
100
AcDbLine
 10
1180.0
 20
2689.0
 30
0.0
 11
1880.0
 21
2689.0
 31
0.0
  0
LINE
  5
3C7
330
1F
100
AcDbEntity
  8
スト_ル
  6
CONTINUOUS
 62
     6
100
AcDbLine
 10
1180.0
 20
2754.0
 30
0.0
 11
1880.0
 21
2754.0
 31
0.0
  0
TEXT
  5
3C8
330
1F
100
AcDbEntity
  8
スト_ル
  6
CONTINUOUS
 62
     2
100
AcDbText
 10
1795.0
 20
2694.0
 30
0.0
 40
55.0
  1
個数
 41
0.9226601652892572
  7
EXCADSTD
 72
     5
 11
1874.7442
 21
2694.0
 31
0.0
100
AcDbText
  0
TEXT
  5
3C9
330
1F
100
AcDbEntity
  8
スト_ル
  6
CONTINUOUS
 62
     2
100
AcDbText
 10
1815.0
 20
2567.6132812
 30
0.0
 40
47.5
  1
１
 41
1.112926243832238
  7
EXCADSTD
 72
     5
 11
1852.759997558594
 21
2567.6132812
 31
0.0
100
AcDbText
  0
TEXT
  5
3CA
330
1F
100
AcDbEntity
  8
スト_ル
  6
CONTINUOUS
 62
     2
100
AcDbText
 10
1815.0
 20
2632.9819336
 30
0.0
 40
47.5
  1
１
 41
1.112926243832238
  7
EXCADSTD
 72
     5
 11
1852.759997558594
 21
2632.9819336
 31
0.0
100
AcDbText
  0
TEXT
  5
3CB
330
1F
100
AcDbEntity
  8
スト_ル
  6
CONTINUOUS
 62
     2
100
AcDbText
 10
1230.4003906
 20
2694.0
 30
0.0
 40
55.0
  1
品　番
 41
1.272727272727273
  7
EXCADSTD
 72
     5
 11
1400.4003906
 21
2694.0
 31
0.0
100
AcDbText
  0
TEXT
  5
3CC
330
1F
100
AcDbEntity
  8
スト_ル
  6
CONTINUOUS
 62
     2
100
AcDbText
 10
1422.918457
 20
2566.0
 30
0.0
 40
50.0
  1
小便器洗浄弁
 41
0.92
  7
EXCADSTD
 72
     5
 11
1652.918457
 21
2566.0
 31
0.0
100
AcDbText
  0
LINE
  5
3CD
330
1F
100
AcDbEntity
  8
スト_ル
  6
CONTINUOUS
 62
     6
100
AcDbLine
 10
1420.0
 20
2559.0
 30
0.0
 11
1420.0
 21
2754.0
 31
0.0
  0
LINE
  5
3CE
330
1F
100
AcDbEntity
  8
スト_ル
  6
CONTINUOUS
 62
     6
100
AcDbLine
 10
1790.0
 20
2754.0
 30
0.0
 11
1790.0
 21
2559.0
 31
0.0
  0
ARC
  5
3CF
330
1F
100
AcDbEntity
  8
スト_ル
  6
CONTINUOUS
 62
     2
100
AcDbCircle
 10
1556.46267929996
 20
695.10458099999
 30
0.0
 40
5.0
100
AcDbArc
 50
182.5264610000001
 51
270.0000000000002
  0
LINE
  5
3D0
330
1F
100
AcDbEntity
  8
スト_ル
  6
CONTINUOUS
 62
     2
100
AcDbLine
 10
1493.94235529996
 20
690.10458099999
 30
0.0
 11
1494.15324929996
 21
694.8841769999899
 31
0.0
  0
LINE
  5
3D1
330
1F
100
AcDbEntity
  8
スト_ル
  6
CONTINUOUS
 62
     2
100
AcDbLine
 10
1551.67843329996
 20
690.10458099999
 30
0.0
 11
1551.46753929996
 21
694.8841769999899
 31
0.0
  0
LINE
  5
3D2
330
1F
100
AcDbEntity
  8
スト_ル
  6
CONTINUOUS
 62
     2
100
AcDbLine
 10
1551.67843329996
 20
690.10458099999
 30
0.0
 11
1556.46267929996
 21
690.10458099999
 31
0.0
  0
LINE
  5
3D3
330
1F
100
AcDbEntity
  8
スト_ル
  6
CONTINUOUS
 62
     2
100
AcDbLine
 10
1494.648334367759
 20
706.1045810911677
 30
0.0
 11
1550.972454232202
 21
706.1045810911677
 31
0.0
  0
LINE
  5
3D4
330
1F
100
AcDbEntity
  8
スト_ル
  6
CONTINUOUS
 62
     2
100
AcDbLine
 10
1494.153249299981
 20
694.8841769999899
 30
0.0
 11
1494.648334663886
 21
706.1045810911677
 31
0.0
  0
LINE
  5
3D5
330
1F
100
AcDbEntity
  8
スト_ル
  6
CONTINUOUS
 62
     2
100
AcDbLine
 10
1505.521807208476
 20
706.1045810911677
 30
0.0
 11
1502.810394299981
 21
602.99999999999
 31
0.0
  0
LINE
  5
3D6
330
1F
100
AcDbEntity
  8
スト_ル
  6
CONTINUOUS
 62
     2
100
AcDbLine
 10
1540.098981391485
 20
706.1045810911677
 30
0.0
 11
1542.810394299981
 21
602.99999999999
 31
0.0
  0
LINE
  5
3D7
330
1F
100
AcDbEntity
  8
スト_ル
  6
CONTINUOUS
 62
     2
100
AcDbLine
 10
1551.46753929998
 20
694.8841769999899
 30
0.0
 11
1550.972453936075
 21
706.1045810911677
 31
0.0
  0
LINE
  5
3D8
330
1F
100
AcDbEntity
  8
スト_ル
  6
CONTINUOUS
 62
     3
100
AcDbLine
 10
1667.8103943
 20
1546.600000119309
 30
0.0
 11
1667.8103943
 21
1525.4000000001
 31
0.0
  0
LINE
  5
3D9
330
1F
100
AcDbEntity
  8
スト_ル
  6
EXLTYPE3
 62
     3
100
AcDbLine
 10
624.0000000000001
 20
1495.6142834284
 30
0.0
 11
624.0000000000001
 21
1752.9999644284
 31
0.0
  0
LINE
  5
3DA
330
1F
100
AcDbEntity
  8
スト_ル
  6
CONTINUOUS
 62
     6
100
AcDbLine
 10
616.0600000000001
 20
1484.3
 30
0.0
 11
631.9399999999997
 21
1484.3
 31
0.0
  0
LINE
  5
3DB
330
1F
100
AcDbEntity
  8
スト_ル
  6
EXLTYPE3
 62
     3
100
AcDbLine
 10
634.0000000000001
 20
1678.0000000001
 30
0.0
 11
614.0000000000001
 21
1678.0000000001
 31
0.0
  0
LINE
  5
3DC
330
1F
100
AcDbEntity
  8
スト_ル
  6
CONTINUOUS
 62
     6
100
AcDbLine
 10
648.1862339999999
 20
1705.675011000101
 30
0.0
 11
634.8448049999998
 21
1706.5048220001
 31
0.0
  0
LINE
  5
3DD
330
1F
100
AcDbEntity
  8
スト_ル
  6
CONTINUOUS
 62
     6
100
AcDbLine
 10
651.0
 20
1702.6807970001
 30
0.0
 11
651.0
 21
1697.0000000001
 31
0.0
  0
LINE
  5
3DE
330
1F
100
AcDbEntity
  8
スト_ル
  6
CONTINUOUS
 62
     6
100
AcDbLine
 10
616.9688280000001
 20
1721.5000000001
 30
0.0
 11
631.0311720000001
 21
1721.5000000001
 31
0.0
  0
LINE
  5
3DF
330
1F
100
AcDbEntity
  8
スト_ル
  6
CONTINUOUS
 62
     6
100
AcDbLine
 10
619.3999999999997
 20
1722.5000000001
 30
0.0
 11
628.6
 21
1722.5000000001
 31
0.0
  0
LINE
  5
3E0
330
1F
100
AcDbEntity
  8
スト_ル
  6
CONTINUOUS
 62
     6
100
AcDbLine
 10
628.6
 20
1722.5000000001
 30
0.0
 11
619.3999999999997
 21
1722.5000000001
 31
0.0
  0
LINE
  5
3E1
330
1F
100
AcDbEntity
  8
スト_ル
  6
CONTINUOUS
 62
     6
100
AcDbLine
 10
599.8137659999999
 20
1705.675011000101
 30
0.0
 11
613.1551949999999
 21
1706.5048220001
 31
0.0
  0
LINE
  5
3E2
330
1F
100
AcDbEntity
  8
スト_ル
  6
CONTINUOUS
 62
     6
100
AcDbLine
 10
597.0000000000001
 20
1702.6807970001
 30
0.0
 11
597.0000000000001
 21
1697.0000000001
 31
0.0
  0
LINE
  5
3E3
330
1F
100
AcDbEntity
  8
スト_ル
  6
CONTINUOUS
 62
     6
100
AcDbLine
 10
598.5000000000001
 20
1695.5000000001
 30
0.0
 11
649.5000000000001
 21
1695.5000000001
 31
0.0
  0
LINE
  5
3E4
330
1F
100
AcDbEntity
  8
スト_ル
  6
CONTINUOUS
 62
     6
100
AcDbLine
 10
614.5000000000001
 20
1719.0373970001
 30
0.0
 11
614.5000000000001
 21
1711.2914310001
 31
0.0
  0
LINE
  5
3E5
330
1F
100
AcDbEntity
  8
スト_ル
  6
CONTINUOUS
 62
     6
100
AcDbLine
 10
633.5000000000001
 20
1719.0373970001
 30
0.0
 11
633.5000000000001
 21
1711.2914310001
 31
0.0
  0
LINE
  5
3E6
330
1F
100
AcDbEntity
  8
スト_ル
  6
CONTINUOUS
 62
     6
100
AcDbLine
 10
600.0000000000001
 20
1705.6865940001
 30
0.0
 11
648.0000000000001
 21
1705.6865940001
 31
0.0
  0
LINE
  5
3E7
330
1F
100
AcDbEntity
  8
スト_ル
  6
CONTINUOUS
 62
     6
100
AcDbLine
 10
599.0000000000001
 20
1694.5000000001
 30
0.0
 11
649.0000000000001
 21
1694.5000000001
 31
0.0
  0
LINE
  5
3E8
330
1F
100
AcDbEntity
  8
スト_ル
  6
CONTINUOUS
 62
     6
100
AcDbLine
 10
599.0000000000001
 20
1694.5000000001
 30
0.0
 11
599.0000000000001
 21
1695.5000000001
 31
0.0
  0
LINE
  5
3E9
330
1F
100
AcDbEntity
  8
スト_ル
  6
CONTINUOUS
 62
     6
100
AcDbLine
 10
649.0000000000001
 20
1695.5000000001
 30
0.0
 11
649.0000000000001
 21
1694.5000000001
 31
0.0
  0
LINE
  5
3EA
330
1F
100
AcDbEntity
  8
スト_ル
  6
CONTINUOUS
 62
     6
100
AcDbLine
 10
648.1879999999998
 20
1694.5000000001
 30
0.0
 11
648.1879999999998
 21
1695.5000000001
 31
0.0
  0
LINE
  5
3EB
330
1F
100
AcDbEntity
  8
スト_ル
  6
CONTINUOUS
 62
     6
100
AcDbLine
 10
599.812
 20
1694.5000000001
 30
0.0
 11
599.812
 21
1695.5000000001
 31
0.0
  0
ARC
  5
3EC
330
1F
100
AcDbEntity
  8
スト_ル
  6
CONTINUOUS
 62
     6
100
AcDbCircle
 10
648.0000000000001
 20
1702.6807970001
 30
0.0
 40
3.000000000000003
100
AcDbArc
 50
0.0
 51
86.44089900000002
  0
ARC
  5
3ED
330
1F
100
AcDbEntity
  8
スト_ル
  6
CONTINUOUS
 62
     6
100
AcDbCircle
 10
649.5000000000001
 20
1697.0000000001
 30
0.0
 40
1.5
100
AcDbArc
 50
270.0000000000002
 51
0.0
  0
ARC
  5
3EE
330
1F
100
AcDbEntity
  8
スト_ル
  6
CONTINUOUS
 62
     6
100
AcDbCircle
 10
635.0000000000001
 20
1709.0000000001
 30
0.0
 40
2.5
100
AcDbArc
 50
144.049432
 51
266.440899
  0
ARC
  5
3EF
330
1F
100
AcDbEntity
  8
スト_ル
  6
CONTINUOUS
 62
     6
100
AcDbCircle
 10
626.5000000000001
 20
1715.1644140001
 30
0.0
 40
8.0
100
AcDbArc
 50
28.95502400000002
 51
49.66088299999999
  0
ARC
  5
3F0
330
1F
100
AcDbEntity
  8
スト_ル
  6
CONTINUOUS
 62
     6
100
AcDbCircle
 10
628.6
 20
1721.5000000001
 30
0.0
 40
1.0
100
AcDbArc
 50
0.0
 51
90.00000000000001
  0
ARC
  5
3F1
330
1F
100
AcDbEntity
  8
スト_ル
  6
CONTINUOUS
 62
     6
100
AcDbCircle
 10
631.0311720000001
 20
1720.5000000001
 30
0.0
 40
1.0
100
AcDbArc
 50
49.66088299999999
 51
90.00000000000001
  0
ARC
  5
3F2
330
1F
100
AcDbEntity
  8
スト_ル
  6
CONTINUOUS
 62
     6
100
AcDbCircle
 10
619.3999999999997
 20
1721.5000000001
 30
0.0
 40
1.0
100
AcDbArc
 50
90.00000000000001
 51
180.0
  0
ARC
  5
3F3
330
1F
100
AcDbEntity
  8
スト_ル
  6
CONTINUOUS
 62
     6
100
AcDbCircle
 10
621.5000000000001
 20
1715.1644140001
 30
0.0
 40
8.0
100
AcDbArc
 50
130.339117
 51
151.044976
  0
ARC
  5
3F4
330
1F
100
AcDbEntity
  8
スト_ル
  6
CONTINUOUS
 62
     6
100
AcDbCircle
 10
616.9688280000001
 20
1720.5000000001
 30
0.0
 40
1.0
100
AcDbArc
 50
90.00000000000001
 51
130.339117
  0
ARC
  5
3F5
330
1F
100
AcDbEntity
  8
スト_ル
  6
CONTINUOUS
 62
     6
100
AcDbCircle
 10
613.0000000000001
 20
1709.0000000001
 30
0.0
 40
2.5
100
AcDbArc
 50
273.5591010000001
 51
35.95056800000001
  0
ARC
  5
3F6
330
1F
100
AcDbEntity
  8
スト_ル
  6
CONTINUOUS
 62
     6
100
AcDbCircle
 10
600.0000000000001
 20
1702.6807970001
 30
0.0
 40
3.000000000000003
100
AcDbArc
 50
93.559101
 51
180.0
  0
ARC
  5
3F7
330
1F
100
AcDbEntity
  8
スト_ル
  6
CONTINUOUS
 62
     6
100
AcDbCircle
 10
598.5000000000001
 20
1697.0000000001
 30
0.0
 40
1.5
100
AcDbArc
 50
180.0
 51
270.0000000000002
  0
ARC
  5
3F8
330
1F
100
AcDbEntity
  8
スト_ル
  6
CONTINUOUS
 62
     6
100
AcDbCircle
 10
621.5000000000001
 20
1715.1644140001
 30
0.0
 40
8.0
100
AcDbArc
 50
208.955024
 51
215.950568
  0
ARC
  5
3F9
330
1F
100
AcDbEntity
  8
スト_ル
  6
CONTINUOUS
 62
     6
100
AcDbCircle
 10
626.5000000000001
 20
1715.1644140001
 30
0.0
 40
8.0
100
AcDbArc
 50
324.049432
 51
331.0449760000002
  0
ELLIPSE
  5
3FA
330
1F
100
AcDbEntity
  8
スト_ル
  6
CONTINUOUS
 62
     6
100
AcDbEllipse
 10
628.7500000000001
 20
1715.1644140001
 30
0.0
 11
3.872983000000003
 21
0.0
 31
0.0
210
0.0
220
0.0
230
1.0
 40
1.0
 41
0.0
 42
6.283185307179586
  0
ELLIPSE
  5
3FB
330
1F
100
AcDbEntity
  8
スト_ル
  6
CONTINUOUS
 62
     6
100
AcDbEllipse
 10
619.2500000000001
 20
1715.1644140001
 30
0.0
 11
-3.872983000000003
 21
4.743036234102117E-16
 31
0.0
210
0.0
220
0.0
230
1.0
 40
1.0
 41
0.0
 42
6.283185307179586
  0
LINE
  5
3FC
330
1F
100
AcDbEntity
  8
スト_ル
  6
CONTINUOUS
 62
     6
100
AcDbLine
 10
616.9688280000001
 20
1709.0000000001
 30
0.0
 11
631.0311720000001
 21
1709.0000000001
 31
0.0
  0
LINE
  5
3FD
330
1F
100
AcDbEntity
  8
スト_ル
  6
CONTINUOUS
 62
     6
100
AcDbLine
 10
600.0000000000001
 20
1694.5000000001
 30
0.0
 11
600.0000000000001
 21
1678.0000000001
 31
0.0
  0
LINE
  5
3FE
330
1F
100
AcDbEntity
  8
スト_ル
  6
CONTINUOUS
 62
     6
100
AcDbLine
 10
648.0000000000001
 20
1694.5000000001
 30
0.0
 11
648.0000000000001
 21
1678.0000000001
 31
0.0
  0
ARC
  5
3FF
330
1F
100
AcDbEntity
  8
スト_ル
  6
CONTINUOUS
 62
     6
100
AcDbCircle
 10
588.08522
 20
1674.8032660001
 30
0.0
 40
60.00000000000004
100
AcDbArc
 50
322.9946839999999
 51
3.054102000000008
  0
ARC
  5
400
330
1F
100
AcDbEntity
  8
スト_ル
  6
CONTINUOUS
 62
     6
100
AcDbCircle
 10
659.9147800000001
 20
1674.8032660001
 30
0.0
 40
60.00000000000004
100
AcDbArc
 50
176.9458980000001
 51
217.005316
  0
LINE
  5
401
330
1F
100
AcDbEntity
  8
スト_ル
  6
CONTINUOUS
 62
     6
100
AcDbLine
 10
636.0000000000001
 20
1638.6899190001
 30
0.0
 11
635.3129999999998
 21
1637.5000000001
 31
0.0
  0
LINE
  5
402
330
1F
100
AcDbEntity
  8
スト_ル
  6
CONTINUOUS
 62
     6
100
AcDbLine
 10
636.0000000000001
 20
1636.7000000001
 30
0.0
 11
636.0000000000001
 21
1638.6899190001
 31
0.0
  0
LINE
  5
403
330
1F
100
AcDbEntity
  8
スト_ル
  6
CONTINUOUS
 62
     6
100
AcDbLine
 10
635.3129999999998
 20
1637.5000000001
 30
0.0
 11
635.3129999999998
 21
1636.7000000001
 31
0.0
  0
LINE
  5
404
330
1F
100
AcDbEntity
  8
スト_ル
  6
CONTINUOUS
 62
     6
100
AcDbLine
 10
612.0000000000001
 20
1638.6899190001
 30
0.0
 11
612.0000000000001
 21
1636.7000000001
 31
0.0
  0
LINE
  5
405
330
1F
100
AcDbEntity
  8
スト_ル
  6
CONTINUOUS
 62
     6
100
AcDbLine
 10
612.0000000000001
 20
1638.6899190001
 30
0.0
 11
612.687
 21
1637.5000000001
 31
0.0
  0
LINE
  5
406
330
1F
100
AcDbEntity
  8
スト_ル
  6
CONTINUOUS
 62
     6
100
AcDbLine
 10
612.687
 20
1637.5000000001
 30
0.0
 11
612.687
 21
1636.7000000001
 31
0.0
  0
LINE
  5
407
330
1F
100
AcDbEntity
  8
スト_ル
  6
CONTINUOUS
 62
     6
100
AcDbLine
 10
629.3851649999998
 20
1637.5000000001
 30
0.0
 11
636.0000000000001
 21
1637.5000000001
 31
0.0
  0
LINE
  5
408
330
1F
100
AcDbEntity
  8
スト_ル
  6
CONTINUOUS
 62
     6
100
AcDbLine
 10
618.614835
 20
1637.5000000001
 30
0.0
 11
612.0000000000001
 21
1637.5000000001
 31
0.0
  0
LINE
  5
409
330
1F
100
AcDbEntity
  8
スト_ル
  6
CONTINUOUS
 62
     6
100
AcDbLine
 10
631.8039620000001
 20
1638.6899190001
 30
0.0
 11
636.0000000000001
 21
1638.6899190001
 31
0.0
  0
LINE
  5
40A
330
1F
100
AcDbEntity
  8
スト_ル
  6
CONTINUOUS
 62
     6
100
AcDbLine
 10
616.1960380000002
 20
1638.6899190001
 30
0.0
 11
612.0000000000001
 21
1638.6899190001
 31
0.0
  0
LINE
  5
40B
330
1F
100
AcDbEntity
  8
スト_ル
  6
CONTINUOUS
 62
     6
100
AcDbLine
 10
611.0000000000001
 20
1636.0326820001
 30
0.0
 11
611.0000000000001
 21
1625.3673180001
 31
0.0
  0
ARC
  5
40C
330
1F
100
AcDbEntity
  8
スト_ル
  6
CONTINUOUS
 62
     6
100
AcDbCircle
 10
621.7500000000001
 20
1630.7000000001
 30
0.0
 40
12.00000000000001
100
AcDbArc
 50
150.60787
 51
153.6156700000001
  0
LINE
  5
40D
330
1F
100
AcDbEntity
  8
スト_ル
  6
CONTINUOUS
 62
     6
100
AcDbLine
 10
611.3576949999998
 20
1636.7000000001
 30
0.0
 11
621.5586890000001
 21
1636.7000000001
 31
0.0
  0
LINE
  5
40E
330
1F
100
AcDbEntity
  8
スト_ル
  6
CONTINUOUS
 62
     6
100
AcDbLine
 10
611.3576949999998
 20
1624.7000000001
 30
0.0
 11
636.642305
 21
1624.7000000001
 31
0.0
  0
ARC
  5
40F
330
1F
100
AcDbEntity
  8
スト_ル
  6
CONTINUOUS
 62
     6
100
AcDbCircle
 10
621.7500000000001
 20
1630.7000000001
 30
0.0
 40
12.00000000000001
100
AcDbArc
 50
206.38433
 51
210.0000000000001
  0
ARC
  5
410
330
1F
100
AcDbEntity
  8
スト_ル
  6
CONTINUOUS
 62
     6
100
AcDbCircle
 10
626.2500000000001
 20
1630.7000000001
 30
0.0
 40
12.00000000000001
100
AcDbArc
 50
330.0000000000003
 51
333.6156700000001
  0
LINE
  5
411
330
1F
100
AcDbEntity
  8
スト_ル
  6
CONTINUOUS
 62
     6
100
AcDbLine
 10
637.0000000000001
 20
1636.0326820001
 30
0.0
 11
637.0000000000001
 21
1625.3673180001
 31
0.0
  0
ARC
  5
412
330
1F
100
AcDbEntity
  8
スト_ル
  6
CONTINUOUS
 62
     6
100
AcDbCircle
 10
626.2500000000001
 20
1630.7000000001
 30
0.0
 40
12.00000000000001
100
AcDbArc
 50
26.38433000000003
 51
29.39213
  0
LINE
  5
413
330
1F
100
AcDbEntity
  8
スト_ル
  6
CONTINUOUS
 62
     6
100
AcDbLine
 10
626.4413109999997
 20
1636.7000000001
 30
0.0
 11
636.642305
 21
1636.7000000001
 31
0.0
  0
ELLIPSE
  5
414
330
1F
100
AcDbEntity
  8
スト_ル
  6
CONTINUOUS
 62
     6
100
AcDbEllipse
 10
630.5000000000001
 20
1630.7000000001
 30
0.0
 11
-9.795977913256058E-16
 21
-5.332682
 31
0.0
210
0.0
220
0.0
230
1.0
 40
0.9478140000000004
 41
0.0
 42
6.283185307179586
  0
ELLIPSE
  5
415
330
1F
100
AcDbEntity
  8
スト_ル
  6
CONTINUOUS
 62
     6
100
AcDbEllipse
 10
617.5000000000001
 20
1630.7000000001
 30
0.0
 11
-2.041653938653116E-15
 21
5.332682
 31
0.0
210
0.0
220
0.0
230
1.0
 40
0.9478140000000004
 41
0.0
 42
6.283185307179586
  0
CIRCLE
  5
416
330
1F
100
AcDbEntity
  8
スト_ル
  6
CONTINUOUS
 62
     6
100
AcDbCircle
 10
624.0000000000001
 20
1651.5000000001
 30
0.0
 40
15.00000000000001
  0
TEXT
  5
417
330
1F
100
AcDbEntity
  8
スト_ル
  6
CONTINUOUS
 62
     6
100
AcDbText
 10
614.1333332999994
 20
1647.6500000001
 30
0.0
 40
8.0
  1
ＰＵＳＨ
 41
0.7608695652173914
  7
EXCADSTD
 72
     5
 11
634.1333332999994
 21
1647.6500000001
 31
0.0
100
AcDbText
  0
LINE
  5
418
330
1F
100
AcDbEntity
  8
スト_ル
  6
EXLTYPE3
 62
     3
100
AcDbLine
 10
1660.9972093
 20
1614.4494490001
 30
0.0
 11
1667.6235793
 21
1560.5505510001
 31
0.0
  0
ARC
  5
419
330
1F
100
AcDbEntity
  8
スト_ル
  6
CONTINUOUS
 62
     6
100
AcDbCircle
 10
1587.1139763
 20
1690.2275170001
 30
0.0
 40
100.0000000000001
100
AcDbArc
 50
328.9774109999998
 51
336.2829849999999
  0
ARC
  5
41A
330
1F
100
AcDbEntity
  8
スト_ル
  6
CONTINUOUS
 62
     6
100
AcDbCircle
 10
1680.9571533
 20
1649.0000000001
 30
0.0
 40
2.5
100
AcDbArc
 50
90.00000000000001
 51
156.2829849999988
  0
LINE
  5
41B
330
1F
100
AcDbEntity
  8
スト_ル
  6
CONTINUOUS
 62
     6
100
AcDbLine
 10
1687.8103943
 20
1702.6807970001
 30
0.0
 11
1687.8103943
 21
1697.0000000001
 31
0.0
  0
LINE
  5
41C
330
1F
100
AcDbEntity
  8
スト_ル
  6
CONTINUOUS
 62
     6
100
AcDbLine
 10
1633.8103943
 20
1702.6807970001
 30
0.0
 11
1633.8103943
 21
1697.0000000001
 31
0.0
  0
LINE
  5
41D
330
1F
100
AcDbEntity
  8
スト_ル
  6
CONTINUOUS
 62
     6
100
AcDbLine
 10
1685.8103943
 20
1695.5000000001
 30
0.0
 11
1686.3103943
 21
1695.5000000001
 31
0.0
  0
LINE
  5
41E
330
1F
100
AcDbEntity
  8
スト_ル
  6
CONTINUOUS
 62
     6
100
AcDbLine
 10
1635.8103943
 20
1695.5000000001
 30
0.0
 11
1635.3103943
 21
1695.5000000001
 31
0.0
  0
LINE
  5
41F
330
1F
100
AcDbEntity
  8
スト_ル
  6
CONTINUOUS
 62
     6
100
AcDbLine
 10
1684.9966283
 20
1705.6750110001
 30
0.0
 11
1671.6551993
 21
1706.5048220001
 31
0.0
  0
LINE
  5
420
330
1F
100
AcDbEntity
  8
スト_ル
  6
CONTINUOUS
 62
     6
100
AcDbLine
 10
1636.6241603
 20
1705.6750110001
 30
0.0
 11
1649.9655893
 21
1706.5048220001
 31
0.0
  0
LINE
  5
421
330
1F
100
AcDbEntity
  8
スト_ル
  6
CONTINUOUS
 62
     6
100
AcDbLine
 10
1665.4103943
 20
1722.5000000001
 30
0.0
 11
1661.5603943
 21
1722.5000000001
 31
0.0
  0
ARC
  5
422
330
1F
100
AcDbEntity
  8
スト_ル
  6
CONTINUOUS
 62
     6
100
AcDbCircle
 10
1671.8103943
 20
1709.0000000001
 30
0.0
 40
2.5
100
AcDbArc
 50
144.0494320000022
 51
266.4408989999979
  0
ARC
  5
423
330
1F
100
AcDbEntity
  8
スト_ル
  6
CONTINUOUS
 62
     6
100
AcDbCircle
 10
1649.8103943
 20
1709.0000000001
 30
0.0
 40
2.5
100
AcDbArc
 50
273.5591010000023
 51
35.95056800000631
  0
ARC
  5
424
330
1F
100
AcDbEntity
  8
スト_ル
  6
CONTINUOUS
 62
     6
100
AcDbCircle
 10
1663.3103943
 20
1715.1644140001
 30
0.0
 40
8.0
100
AcDbArc
 50
324.0494320000001
 51
49.66088299999953
  0
ARC
  5
425
330
1F
100
AcDbEntity
  8
スト_ル
  6
CONTINUOUS
 62
     6
100
AcDbCircle
 10
1658.3103943
 20
1715.1644140001
 30
0.0
 40
8.0
100
AcDbArc
 50
130.3391170000005
 51
215.9505679999999
  0
ARC
  5
426
330
1F
100
AcDbEntity
  8
スト_ル
  6
CONTINUOUS
 62
     6
100
AcDbCircle
 10
1665.4103943
 20
1721.5000000001
 30
0.0
 40
1.0
100
AcDbArc
 50
0.0
 51
90.00000000000001
  0
ARC
  5
427
330
1F
100
AcDbEntity
  8
スト_ル
  6
CONTINUOUS
 62
     6
100
AcDbCircle
 10
1667.8415663
 20
1720.5000000001
 30
0.0
 40
1.0
100
AcDbArc
 50
49.66088299998825
 51
90.00000000000001
  0
ARC
  5
428
330
1F
100
AcDbEntity
  8
スト_ル
  6
CONTINUOUS
 62
     6
100
AcDbCircle
 10
1684.8103943
 20
1702.6807970001
 30
0.0
 40
3.000000000000003
100
AcDbArc
 50
0.0
 51
86.4408989999956
  0
ARC
  5
429
330
1F
100
AcDbEntity
  8
スト_ル
  6
CONTINUOUS
 62
     6
100
AcDbCircle
 10
1636.8103943
 20
1702.6807970001
 30
0.0
 40
3.000000000000003
100
AcDbArc
 50
93.55910100000439
 51
180.0
  0
ARC
  5
42A
330
1F
100
AcDbEntity
  8
スト_ル
  6
CONTINUOUS
 62
     6
100
AcDbCircle
 10
1686.3103943
 20
1697.0000000001
 30
0.0
 40
1.5
100
AcDbArc
 50
270.0
 51
0.0
  0
ARC
  5
42B
330
1F
100
AcDbEntity
  8
スト_ル
  6
CONTINUOUS
 62
     6
100
AcDbCircle
 10
1635.3103943
 20
1697.0000000001
 30
0.0
 40
1.5
100
AcDbArc
 50
180.0
 51
270.0
  0
LINE
  5
42C
330
1F
100
AcDbEntity
  8
スト_ル
  6
CONTINUOUS
 62
     6
100
AcDbLine
 10
1621.3103943
 20
1660.5000000001
 30
0.0
 11
1615.3103943
 21
1660.5000000001
 31
0.0
  0
LINE
  5
42D
330
1F
100
AcDbEntity
  8
スト_ル
  6
CONTINUOUS
 62
     6
100
AcDbLine
 10
1621.3103943
 20
1642.5000000001
 30
0.0
 11
1615.3103943
 21
1642.5000000001
 31
0.0
  0
LINE
  5
42E
330
1F
100
AcDbEntity
  8
スト_ル
  6
CONTINUOUS
 62
     6
100
AcDbLine
 10
1632.3103943
 20
1662.4442720001
 30
0.0
 11
1632.3103943
 21
1662.0000000001
 31
0.0
  0
LINE
  5
42F
330
1F
100
AcDbEntity
  8
スト_ル
  6
CONTINUOUS
 62
     6
100
AcDbLine
 10
1621.3103943
 20
1640.5557280001
 30
0.0
 11
1621.3103943
 21
1642.5000000001
 31
0.0
  0
LINE
  5
430
330
1F
100
AcDbEntity
  8
スト_ル
  6
CONTINUOUS
 62
     6
100
AcDbLine
 10
1615.3103943
 20
1660.5000000001
 30
0.0
 11
1615.3103943
 21
1656.5500000001
 31
0.0
  0
ARC
  5
431
330
1F
100
AcDbEntity
  8
スト_ル
  6
CONTINUOUS
 62
     6
100
AcDbCircle
 10
1626.8103943
 20
1653.5000000001
 30
0.0
 40
10.5
100
AcDbArc
 50
58.41186399999994
 51
121.5881360000001
  0
ARC
  5
432
330
1F
100
AcDbEntity
  8
スト_ル
  6
CONTINUOUS
 62
     6
100
AcDbCircle
 10
1626.8103943
 20
1649.5000000001
 30
0.0
 40
10.5
100
AcDbArc
 50
238.4118639999999
 51
301.5881360000002
  0
LINE
  5
433
330
1F
100
AcDbEntity
  8
スト_ル
  6
CONTINUOUS
 62
     6
100
AcDbLine
 10
1608.3103943
 20
1666.5000000001
 30
0.0
 11
1608.3103943
 21
1656.5500000001
 31
0.0
  0
LINE
  5
434
330
1F
100
AcDbEntity
  8
スト_ル
  6
CONTINUOUS
 62
     6
100
AcDbLine
 10
1648.8103943
 20
1638.6899190001
 30
0.0
 11
1649.4973943
 21
1637.5000000001
 31
0.0
  0
LINE
  5
435
330
1F
100
AcDbEntity
  8
スト_ル
  6
CONTINUOUS
 62
     6
100
AcDbLine
 10
1672.8103943
 20
1638.6899190001
 30
0.0
 11
1672.1233943
 21
1637.5000000001
 31
0.0
  0
LINE
  5
436
330
1F
100
AcDbEntity
  8
スト_ル
  6
CONTINUOUS
 62
     6
100
AcDbLine
 10
1636.8103943
 20
1694.5000000001
 30
0.0
 11
1636.8103943
 21
1674.6899190001
 31
0.0
  0
LINE
  5
437
330
1F
100
AcDbEntity
  8
スト_ル
  6
CONTINUOUS
 62
     6
100
AcDbLine
 10
1635.5003133
 20
1641.0000000001
 30
0.0
 11
1634.3103943
 21
1641.6870000001
 31
0.0
  0
LINE
  5
438
330
1F
100
AcDbEntity
  8
スト_ル
  6
CONTINUOUS
 62
     6
100
AcDbLine
 10
1635.5003133
 20
1662.0000000001
 30
0.0
 11
1634.3103943
 21
1661.3130000001
 31
0.0
  0
ARC
  5
439
330
1F
100
AcDbEntity
  8
スト_ル
  6
CONTINUOUS
 62
     6
100
AcDbCircle
 10
1696.8103943
 20
1674.6899190001
 30
0.0
 40
60.00000000000004
100
AcDbArc
 50
214.1595029999998
 51
216.8698979999996
  0
ARC
  5
43A
330
1F
100
AcDbEntity
  8
スト_ル
  6
CONTINUOUS
 62
     6
100
AcDbCircle
 10
1696.8103943
 20
1674.6899190001
 30
0.0
 40
60.00000000000004
100
AcDbArc
 50
180.0
 51
190.4833570000002
  0
ARC
  5
43B
330
1F
100
AcDbEntity
  8
スト_ル
  6
CONTINUOUS
 62
     6
100
AcDbCircle
 10
1636.3369643
 20
1663.5000000001
 30
0.0
 40
1.5
100
AcDbArc
 50
270.0
 51
10.48335700000177
  0
ARC
  5
43C
330
1F
100
AcDbEntity
  8
スト_ル
  6
CONTINUOUS
 62
     6
100
AcDbCircle
 10
1686.8103943
 20
1694.0000000001
 30
0.0
 40
1.0
100
AcDbArc
 50
180.0
 51
270.0
  0
ARC
  5
43D
330
1F
100
AcDbEntity
  8
スト_ル
  6
CONTINUOUS
 62
     6
100
AcDbCircle
 10
1637.3226873
 20
1651.5000000001
 30
0.0
 40
34.0
100
AcDbArc
 50
153.8210310000003
 51
206.1789689999998
  0
LINE
  5
43E
330
1F
100
AcDbEntity
  8
スト_ル
  6
CONTINUOUS
 62
     6
100
AcDbLine
 10
1608.3103943
 20
1666.5000000001
 30
0.0
 11
1606.8103943
 21
1666.5000000001
 31
0.0
  0
LINE
  5
43F
330
1F
100
AcDbEntity
  8
スト_ル
  6
CONTINUOUS
 62
     6
100
AcDbLine
 10
1606.8103943
 20
1636.5000000001
 30
0.0
 11
1608.3103943
 21
1636.5000000001
 31
0.0
  0
ARC
  5
440
330
1F
100
AcDbEntity
  8
スト_ル
  6
CONTINUOUS
 62
     6
100
AcDbCircle
 10
1658.5603943
 20
1630.7000000001
 30
0.0
 40
12.00000000000001
100
AcDbArc
 50
150.0000000000006
 51
209.9999999999995
  0
ARC
  5
441
330
1F
100
AcDbEntity
  8
スト_ル
  6
CONTINUOUS
 62
     6
100
AcDbCircle
 10
1663.0603943
 20
1630.7000000001
 30
0.0
 40
12.00000000000001
100
AcDbArc
 50
330.0000000000006
 51
29.99999999999944
  0
ARC
  5
442
330
1F
100
AcDbEntity
  8
スト_ル
  6
CONTINUOUS
 62
     6
100
AcDbCircle
 10
1685.8103943
 20
1617.5000000001
 30
0.0
 40
17.06
100
AcDbArc
 50
180.0
 51
187.0088139999994
  0
ARC
  5
443
330
1F
100
AcDbEntity
  8
スト_ル
  6
CONTINUOUS
 62
     6
100
AcDbCircle
 10
1685.8103943
 20
1617.5000000001
 30
0.0
 40
32.94
100
AcDbArc
 50
180.0
 51
187.0088139999994
  0
LINE
  5
444
330
1F
100
AcDbEntity
  8
スト_ル
  6
CONTINUOUS
 62
     6
100
AcDbLine
 10
1685.8103943
 20
1694.0000000001
 30
0.0
 11
1685.8103943
 21
1695.5000000001
 31
0.0
  0
LINE
  5
445
330
1F
100
AcDbEntity
  8
スト_ル
  6
CONTINUOUS
 62
     6
100
AcDbLine
 10
1635.8103943
 20
1695.5000000001
 30
0.0
 11
1635.8103943
 21
1694.5000000001
 31
0.0
  0
LINE
  5
446
330
1F
100
AcDbEntity
  8
スト_ル
  6
CONTINUOUS
 62
     6
100
AcDbLine
 10
1635.3103943
 20
1695.5000000001
 30
0.0
 11
1685.8103943
 21
1695.5000000001
 31
0.0
  0
LINE
  5
447
330
1F
100
AcDbEntity
  8
スト_ル
  6
CONTINUOUS
 62
     6
100
AcDbLine
 10
1685.8103943
 20
1694.5000000001
 30
0.0
 11
1635.8103943
 21
1694.5000000001
 31
0.0
  0
LINE
  5
448
330
1F
100
AcDbEntity
  8
スト_ル
  6
CONTINUOUS
 62
     6
100
AcDbLine
 10
1685.8103943
 20
1694.0000000001
 30
0.0
 11
1685.521719112912
 21
1694.500000000101
 31
0.0
  0
LINE
  5
449
330
1F
100
AcDbEntity
  8
スト_ル
  6
CONTINUOUS
 62
     6
100
AcDbLine
 10
1668.7503943
 20
1617.5000000001
 30
0.0
 11
1668.7503943
 21
1624.7000000001
 31
0.0
  0
LINE
  5
44A
330
1F
100
AcDbEntity
  8
スト_ル
  6
CONTINUOUS
 62
     6
100
AcDbLine
 10
1652.8703943
 20
1624.7000000001
 30
0.0
 11
1652.8703943
 21
1617.5000000001
 31
0.0
  0
LINE
  5
44B
330
1F
100
AcDbEntity
  8
スト_ル
  6
CONTINUOUS
 62
     6
100
AcDbLine
 10
1673.4526993
 20
1624.7000000001
 30
0.0
 11
1660.8103943
 21
1624.7000000001
 31
0.0
  0
LINE
  5
44C
330
1F
100
AcDbEntity
  8
スト_ル
  6
CONTINUOUS
 62
     6
100
AcDbLine
 10
1660.8103943
 20
1624.7000000001
 30
0.0
 11
1648.1680893
 21
1624.7000000001
 31
0.0
  0
LINE
  5
44D
330
1F
100
AcDbEntity
  8
スト_ル
  6
CONTINUOUS
 62
     6
100
AcDbLine
 10
1660.8103943
 20
1636.7000000001
 30
0.0
 11
1648.1680893
 21
1636.7000000001
 31
0.0
  0
LINE
  5
44E
330
1F
100
AcDbEntity
  8
スト_ル
  6
CONTINUOUS
 62
     6
100
AcDbLine
 10
1673.4526993
 20
1636.7000000001
 30
0.0
 11
1660.8103943
 21
1636.7000000001
 31
0.0
  0
LINE
  5
44F
330
1F
100
AcDbEntity
  8
スト_ル
  6
CONTINUOUS
 62
     6
100
AcDbLine
 10
1672.8103943
 20
1638.6899190001
 30
0.0
 11
1672.8103943
 21
1636.7000000001
 31
0.0
  0
LINE
  5
450
330
1F
100
AcDbEntity
  8
スト_ル
  6
CONTINUOUS
 62
     6
100
AcDbLine
 10
1672.1233943
 20
1637.5000000001
 30
0.0
 11
1672.1233943
 21
1636.7000000001
 31
0.0
  0
LINE
  5
451
330
1F
100
AcDbEntity
  8
スト_ル
  6
CONTINUOUS
 62
     6
100
AcDbLine
 10
1649.4973943
 20
1637.5000000001
 30
0.0
 11
1649.4973943
 21
1636.7000000001
 31
0.0
  0
LINE
  5
452
330
1F
100
AcDbEntity
  8
スト_ル
  6
CONTINUOUS
 62
     6
100
AcDbLine
 10
1648.8103943
 20
1636.7000000001
 30
0.0
 11
1648.8103943
 21
1638.6899190001
 31
0.0
  0
LINE
  5
453
330
1F
100
AcDbEntity
  8
スト_ル
  6
CONTINUOUS
 62
     6
100
AcDbLine
 10
1632.3103943
 20
1662.0000000001
 30
0.0
 11
1636.3369643
 21
1662.0000000001
 31
0.0
  0
LINE
  5
454
330
1F
100
AcDbEntity
  8
スト_ル
  6
CONTINUOUS
 62
     6
100
AcDbLine
 10
1632.3103943
 20
1641.0000000001
 30
0.0
 11
1647.1617353
 21
1641.0000000001
 31
0.0
  0
LINE
  5
455
330
1F
100
AcDbEntity
  8
スト_ル
  6
CONTINUOUS
 62
     6
100
AcDbLine
 10
1621.3103943
 20
1662.4442720001
 30
0.0
 11
1621.3103943
 21
1642.5000000001
 31
0.0
  0
LINE
  5
456
330
1F
100
AcDbEntity
  8
スト_ル
  6
CONTINUOUS
 62
     6
100
AcDbLine
 10
1615.3103943
 20
1656.5500000001
 30
0.0
 11
1615.3103943
 21
1642.5000000001
 31
0.0
  0
LINE
  5
457
330
1F
100
AcDbEntity
  8
スト_ル
  6
CONTINUOUS
 62
     6
100
AcDbLine
 10
1615.3103943
 20
1656.5500000001
 30
0.0
 11
1608.3103943
 21
1656.5500000001
 31
0.0
  0
LINE
  5
458
330
1F
100
AcDbEntity
  8
スト_ル
  6
CONTINUOUS
 62
     6
100
AcDbLine
 10
1615.3103943
 20
1646.4500000001
 30
0.0
 11
1608.3103943
 21
1646.4500000001
 31
0.0
  0
LINE
  5
459
330
1F
100
AcDbEntity
  8
スト_ル
  6
CONTINUOUS
 62
     6
100
AcDbLine
 10
1608.3103943
 20
1656.5500000001
 30
0.0
 11
1608.3103943
 21
1636.5000000001
 31
0.0
  0
LINE
  5
45A
330
1F
100
AcDbEntity
  8
スト_ル
  6
CONTINUOUS
 62
     6
100
AcDbLine
 10
1634.3103943
 20
1661.3130000001
 30
0.0
 11
1632.3103943
 21
1661.3130000001
 31
0.0
  0
LINE
  5
45B
330
1F
100
AcDbEntity
  8
スト_ル
  6
CONTINUOUS
 62
     6
100
AcDbLine
 10
1632.3103943
 20
1640.5557280001
 30
0.0
 11
1632.3103943
 21
1662.0000000001
 31
0.0
  0
LINE
  5
45C
330
1F
100
AcDbEntity
  8
スト_ル
  6
CONTINUOUS
 62
     6
100
AcDbLine
 10
1634.3103943
 20
1641.6870000001
 30
0.0
 11
1632.3103943
 21
1641.6870000001
 31
0.0
  0
LINE
  5
45D
330
1F
100
AcDbEntity
  8
スト_ル
  6
CONTINUOUS
 62
     6
100
AcDbLine
 10
1667.8415663
 20
1721.5000000001
 30
0.0
 11
1655.2103943
 21
1721.5000000001
 31
0.0
  0
LINE
  5
45E
330
1F
100
AcDbEntity
  8
スト_ル
  6
CONTINUOUS
 62
     6
100
AcDbLine
 10
1661.5603943
 20
1722.5000000001
 30
0.0
 11
1661.5603943
 21
1721.5000000001
 31
0.0
  0
LINE
  5
45F
330
1F
100
AcDbEntity
  8
スト_ル
  6
CONTINUOUS
 62
     6
100
AcDbLine
 10
1660.0603943
 20
1722.5000000001
 30
0.0
 11
1660.0603943
 21
1721.5000000001
 31
0.0
  0
LINE
  5
460
330
1F
100
AcDbEntity
  8
スト_ル
  6
CONTINUOUS
 62
     6
100
AcDbLine
 10
1660.0603943
 20
1722.5000000001
 30
0.0
 11
1656.2103943
 21
1722.5000000001
 31
0.0
  0
ARC
  5
461
330
1F
100
AcDbEntity
  8
スト_ル
  6
CONTINUOUS
 62
     6
100
AcDbCircle
 10
1653.7792223
 20
1720.5000000001
 30
0.0
 40
1.0
100
AcDbArc
 50
90.00000000000001
 51
130.3391170000118
  0
ARC
  5
462
330
1F
100
AcDbEntity
  8
スト_ル
  6
CONTINUOUS
 62
     6
100
AcDbCircle
 10
1656.2103943
 20
1721.5000000001
 30
0.0
 40
1.0
100
AcDbArc
 50
90.00000000000001
 51
180.0
  0
LINE
  5
463
330
1F
100
AcDbEntity
  8
スト_ル
  6
CONTINUOUS
 62
     6
100
AcDbLine
 10
1655.2103943
 20
1721.5000000001
 30
0.0
 11
1653.7792223
 21
1721.5000000001
 31
0.0
  0
ARC
  5
464
330
1F
100
AcDbEntity
  8
スト_ル
  6
EXLTYPE3
 62
     3
100
AcDbCircle
 10
1642.8103943
 20
1557.5000000001
 30
0.0
 40
25.00000000000002
100
AcDbArc
 50
0.0
 51
7.008813999999377
  0
LINE
  5
465
330
1F
100
AcDbEntity
  8
スト_ル
  6
CONTINUOUS
 62
     6
100
AcDbLine
 10
1675.5042463
 20
1561.5194060001
 30
0.0
 11
1668.8778773
 21
1615.4183040001
 31
0.0
  0
LINE
  5
466
330
1F
100
AcDbEntity
  8
スト_ル
  6
CONTINUOUS
 62
     6
100
AcDbLine
 10
1653.1165423
 20
1613.4805940001
 30
0.0
 11
1659.7429113
 21
1559.5816960001
 31
0.0
  0
ARC
  5
467
330
1F
100
AcDbEntity
  8
スト_ル
  6
CONTINUOUS
 62
     6
100
AcDbCircle
 10
1642.8103943
 20
1557.5000000001
 30
0.0
 40
32.94
100
AcDbArc
 50
0.0
 51
7.008814000000238
  0
ARC
  5
468
330
1F
100
AcDbEntity
  8
スト_ル
  6
CONTINUOUS
 62
     6
100
AcDbCircle
 10
1649.5523369
 20
1626.3747590001
 30
0.0
 40
1.459078
100
AcDbArc
 50
217.2827000000057
 51
322.7172000000016
  0
ARC
  5
469
330
1F
100
AcDbEntity
  8
スト_ル
  6
CONTINUOUS
 62
     6
100
AcDbCircle
 10
1649.5523369
 20
1635.0252400001
 30
0.0
 40
1.459078
100
AcDbArc
 50
37.28270000000568
 51
142.7172500000071
  0
ARC
  5
46A
330
1F
100
AcDbEntity
  8
スト_ル
  6
CONTINUOUS
 62
     6
100
AcDbCircle
 10
1655.2335769
 20
1630.7000000001
 30
0.0
 40
8.59941600000001
100
AcDbArc
 50
142.7173200000001
 51
217.2826999999995
  0
ARC
  5
46B
330
1F
100
AcDbEntity
  8
スト_ル
  6
CONTINUOUS
 62
     6
100
AcDbCircle
 10
1643.8710869
 20
1630.7000000001
 30
0.0
 40
8.59941600000001
100
AcDbArc
 50
322.7173000000005
 51
37.28269999999949
  0
ARC
  5
46C
330
1F
100
AcDbEntity
  8
スト_ル
  6
CONTINUOUS
 62
     6
100
AcDbCircle
 10
1657.8665169
 20
1630.7000000001
 30
0.0
 40
2.892159000000002
100
AcDbArc
 50
178.9791259999998
 51
181.0208999999981
  0
ARC
  5
46D
330
1F
100
AcDbEntity
  8
スト_ル
  6
CONTINUOUS
 62
     6
100
AcDbCircle
 10
1660.8106669
 20
1630.6475400001
 30
0.0
 40
5.836777000000002
100
AcDbArc
 50
1.020800000000738
 51
178.9791259999979
  0
ARC
  5
46E
330
1F
100
AcDbEntity
  8
スト_ル
  6
CONTINUOUS
 62
     6
100
AcDbCircle
 10
1660.8106669
 20
1630.7524600001
 30
0.0
 40
5.836777000000002
100
AcDbArc
 50
181.0209000000009
 51
358.9791999999993
  0
ARC
  5
46F
330
1F
100
AcDbEntity
  8
スト_ル
  6
CONTINUOUS
 62
     6
100
AcDbCircle
 10
1677.7502469
 20
1630.7000000001
 30
0.0
 40
8.59941600000001
100
AcDbArc
 50
142.7173500000006
 51
217.2826999999995
  0
ARC
  5
470
330
1F
100
AcDbEntity
  8
スト_ル
  6
CONTINUOUS
 62
     6
100
AcDbCircle
 10
1672.0689969
 20
1635.0252400001
 30
0.0
 40
1.459078
100
AcDbArc
 50
37.28279999999846
 51
142.7172199999996
  0
ARC
  5
471
330
1F
100
AcDbEntity
  8
スト_ル
  6
CONTINUOUS
 62
     6
100
AcDbCircle
 10
1666.3877569
 20
1630.7000000001
 30
0.0
 40
8.59941600000001
100
AcDbArc
 50
322.7173000000005
 51
37.28269999999949
  0
ARC
  5
472
330
1F
100
AcDbEntity
  8
スト_ル
  6
CONTINUOUS
 62
     6
100
AcDbCircle
 10
1672.0689969
 20
1626.3747590001
 30
0.0
 40
1.459078
100
AcDbArc
 50
217.2827999999984
 51
322.7172999999943
  0
ARC
  5
473
330
1F
100
AcDbEntity
  8
スト_ル
  6
CONTINUOUS
 62
     6
100
AcDbCircle
 10
1663.7548169
 20
1630.7000000001
 30
0.0
 40
2.892159000000002
100
AcDbArc
 50
358.9791000000021
 51
1.020899999997988
  0
CIRCLE
  5
474
330
1F
100
AcDbEntity
  8
スト_ル
  6
CONTINUOUS
 62
     6
100
AcDbCircle
 10
1626.81429906102
 20
1651.5000000001
 30
0.0
 40
5.123904761019669
  0
ELLIPSE
  5
475
330
1F
100
AcDbEntity
  8
スト_ル
  6
CONTINUOUS
 62
     6
100
AcDbEllipse
 10
1626.81429906102
 20
1642.5000000001
 30
0.0
 11
5.123904761020018
 21
0.0
 31
0.0
210
0.0
220
0.0
230
1.0
 40
0.6092836711795121
 41
0.0
 42
6.283185307179586
  0
ELLIPSE
  5
476
330
1F
100
AcDbEntity
  8
スト_ル
  6
CONTINUOUS
 62
     6
100
AcDbEllipse
 10
1626.81429906102
 20
1660.5000000001
 30
0.0
 11
5.123904761020018
 21
0.0
 31
0.0
210
0.0
220
0.0
230
1.0
 40
0.6092836711795121
 41
0.0
 42
6.283185307179586
  0
ELLIPSE
  5
477
330
1F
100
AcDbEntity
  8
スト_ル
  6
CONTINUOUS
 62
     6
100
AcDbEllipse
 10
1660.7203943
 20
1715.1644140001
 30
0.0
 11
-3.872983000000003
 21
4.743036234102117E-16
 31
0.0
210
0.0
220
0.0
230
1.0
 40
1.0
 41
0.0
 42
6.283185307179586
  0
ELLIPSE
  5
478
330
1F
100
AcDbEntity
  8
スト_ル
  6
CONTINUOUS
 62
     6
100
AcDbEllipse
 10
1653.48706428744
 20
1715.12078406221
 30
0.0
 11
-7.112633161730780E-16
 21
-3.871937153190004
 31
0.0
210
0.0
220
0.0
230
1.0
 40
0.6692230254082943
 41
0.0
 42
6.283185307179586
  0
ELLIPSE
  5
479
330
1F
100
AcDbEntity
  8
スト_ル
  6
CONTINUOUS
 62
     6
100
AcDbEllipse
 10
1667.98940828744
 20
1715.12078406221
 30
0.0
 11
-7.112633161730780E-16
 21
-3.871937153190004
 31
0.0
210
0.0
220
0.0
230
1.0
 40
0.6692230254082943
 41
0.0
 42
6.283185307179586
  0
LINE
  5
47A
330
1F
100
AcDbEntity
  8
スト_ル
  6
CONTINUOUS
 62
     6
100
AcDbLine
 10
1711.8103943
 20
1665.0000000001
 30
0.0
 11
1709.8103943
 21
1665.0000000001
 31
0.0
  0
LINE
  5
47B
330
1F
100
AcDbEntity
  8
スト_ル
  6
CONTINUOUS
 62
     6
100
AcDbLine
 10
1704.8103943
 20
1660.0000000001
 30
0.0
 11
1704.8103943
 21
1651.5000000001
 31
0.0
  0
ARC
  5
47C
330
1F
100
AcDbEntity
  8
スト_ル
  6
CONTINUOUS
 62
     6
100
AcDbCircle
 10
1711.8103943
 20
1705.0000000001
 30
0.0
 40
40.0
100
AcDbArc
 50
270.0
 51
290.4565499999997
  0
ARC
  5
47D
330
1F
100
AcDbEntity
  8
スト_ル
  6
CONTINUOUS
 62
     6
100
AcDbCircle
 10
1709.8103943
 20
1660.0000000001
 30
0.0
 40
5.0
100
AcDbArc
 50
90.00000000000001
 51
180.0
  0
LINE
  5
47E
330
1F
100
AcDbEntity
  8
スト_ル
  6
CONTINUOUS
 62
     6
100
AcDbLine
 10
1703.1391923
 20
1697.7214660001
 30
0.0
 11
1700.4815963
 21
1697.2785340001
 31
0.0
  0
LINE
  5
47F
330
1F
100
AcDbEntity
  8
スト_ル
  6
CONTINUOUS
 62
     6
100
AcDbLine
 10
1724.8103943
 20
1695.3057460001
 30
0.0
 11
1724.8103943
 21
1693.0000000001
 31
0.0
  0
LINE
  5
480
330
1F
100
AcDbEntity
  8
スト_ル
  6
CONTINUOUS
 62
     6
100
AcDbLine
 10
1698.8103943
 20
1695.3057460001
 30
0.0
 11
1698.8103943
 21
1693.0000000001
 31
0.0
  0
LINE
  5
481
330
1F
100
AcDbEntity
  8
スト_ル
  6
CONTINUOUS
 62
     6
100
AcDbLine
 10
1718.8103943
 20
1708.0000000001
 30
0.0
 11
1718.8103943
 21
1699.6942540001
 31
0.0
  0
LINE
  5
482
330
1F
100
AcDbEntity
  8
スト_ル
  6
CONTINUOUS
 62
     6
100
AcDbLine
 10
1704.8103943
 20
1708.0000000001
 30
0.0
 11
1704.8103943
 21
1699.6942540001
 31
0.0
  0
LINE
  5
483
330
1F
100
AcDbEntity
  8
スト_ル
  6
CONTINUOUS
 62
     6
100
AcDbLine
 10
1715.4103943
 20
1710.9055750001
 30
0.0
 11
1712.5603943
 21
1710.9055750001
 31
0.0
  0
LINE
  5
484
330
1F
100
AcDbEntity
  8
スト_ル
  6
CONTINUOUS
 62
     6
100
AcDbLine
 10
1707.2103943
 20
1709.5000000001
 30
0.0
 11
1706.3103943
 21
1709.5000000001
 31
0.0
  0
LINE
  5
485
330
1F
100
AcDbEntity
  8
スト_ル
  6
CONTINUOUS
 62
     6
100
AcDbLine
 10
1711.0603943
 20
1710.9055750001
 30
0.0
 11
1708.2103943
 21
1710.9055750001
 31
0.0
  0
ARC
  5
486
330
1F
100
AcDbEntity
  8
スト_ル
  6
CONTINUOUS
 62
     6
100
AcDbCircle
 10
1717.3103943
 20
1708.0000000001
 30
0.0
 40
1.5
100
AcDbArc
 50
0.0
 51
90.00000000000001
  0
ARC
  5
487
330
1F
100
AcDbEntity
  8
スト_ル
  6
CONTINUOUS
 62
     6
100
AcDbCircle
 10
1706.3103943
 20
1708.0000000001
 30
0.0
 40
1.5
100
AcDbArc
 50
90.00000000000001
 51
180.0
  0
ARC
  5
488
330
1F
100
AcDbEntity
  8
スト_ル
  6
CONTINUOUS
 62
     6
100
AcDbCircle
 10
1720.8103943
 20
1699.6942540001
 30
0.0
 40
2.0
100
AcDbArc
 50
180.0
 51
260.5376780000057
  0
ARC
  5
489
330
1F
100
AcDbEntity
  8
スト_ル
  6
CONTINUOUS
 62
     6
100
AcDbCircle
 10
1702.8103943
 20
1699.6942540001
 30
0.0
 40
2.0
100
AcDbArc
 50
279.4623219999943
 51
0.0
  0
ARC
  5
48A
330
1F
100
AcDbEntity
  8
スト_ル
  6
CONTINUOUS
 62
     6
100
AcDbCircle
 10
1722.8103943
 20
1695.3057460001
 30
0.0
 40
2.0
100
AcDbArc
 50
0.0
 51
80.53767800000574
  0
ARC
  5
48B
330
1F
100
AcDbEntity
  8
スト_ル
  6
CONTINUOUS
 62
     6
100
AcDbCircle
 10
1700.8103943
 20
1695.3057460001
 30
0.0
 40
2.0
100
AcDbArc
 50
99.4623219999943
 51
180.0
  0
ARC
  5
48C
330
1F
100
AcDbEntity
  8
スト_ル
  6
CONTINUOUS
 62
     6
100
AcDbCircle
 10
1715.4103943
 20
1709.9055750001
 30
0.0
 40
1.0
100
AcDbArc
 50
0.0
 51
90.00000000000001
  0
ARC
  5
48D
330
1F
100
AcDbEntity
  8
スト_ル
  6
CONTINUOUS
 62
     6
100
AcDbCircle
 10
1708.2103943
 20
1709.9055750001
 30
0.0
 40
1.0
100
AcDbArc
 50
90.00000000000001
 51
180.0
  0
LINE
  5
48E
330
1F
100
AcDbEntity
  8
スト_ル
  6
CONTINUOUS
 62
     6
100
AcDbLine
 10
1756.8103943
 20
1687.4955000001
 30
0.0
 11
1756.8103943
 21
1668.5045000001
 31
0.0
  0
LINE
  5
48F
330
1F
100
AcDbEntity
  8
スト_ル
  6
CONTINUOUS
 62
     6
100
AcDbLine
 10
1724.3103943
 20
1693.0000000001
 30
0.0
 11
1724.3103943
 21
1691.4775000001
 31
0.0
  0
LINE
  5
490
330
1F
100
AcDbEntity
  8
スト_ル
  6
CONTINUOUS
 62
     6
100
AcDbLine
 10
1756.8103943
 20
1687.4955000001
 30
0.0
 11
1755.8283943
 21
1688.4775000001
 31
0.0
  0
LINE
  5
491
330
1F
100
AcDbEntity
  8
スト_ル
  6
CONTINUOUS
 62
     6
100
AcDbLine
 10
1756.8103943
 20
1668.5045000001
 30
0.0
 11
1755.8283943
 21
1667.5225000001
 31
0.0
  0
ARC
  5
492
330
1F
100
AcDbEntity
  8
スト_ル
  6
CONTINUOUS
 62
     6
100
AcDbCircle
 10
1727.3103943
 20
1691.4775000001
 30
0.0
 40
3.000000000000003
100
AcDbArc
 50
180.0
 51
270.0
  0
LINE
  5
493
330
1F
100
AcDbEntity
  8
スト_ル
  6
CONTINUOUS
 62
     6
100
AcDbLine
 10
1737.8103943
 20
1705.4999390001
 30
0.0
 11
1742.8103943
 21
1705.4999390001
 31
0.0
  0
LINE
  5
494
330
1F
100
AcDbEntity
  8
スト_ル
  6
CONTINUOUS
 62
     6
100
AcDbLine
 10
1728.8103943
 20
1690.4999390001
 30
0.0
 11
1737.8103943
 21
1705.4999390001
 31
0.0
  0
LINE
  5
495
330
1F
100
AcDbEntity
  8
スト_ル
  6
CONTINUOUS
 62
     6
100
AcDbLine
 10
1737.8103943
 20
1650.4999390001
 30
0.0
 11
1742.8103943
 21
1650.4999390001
 31
0.0
  0
LINE
  5
496
330
1F
100
AcDbEntity
  8
スト_ル
  6
CONTINUOUS
 62
     6
100
AcDbLine
 10
1728.8103943
 20
1665.4999390001
 30
0.0
 11
1737.8103943
 21
1650.4999390001
 31
0.0
  0
LINE
  5
497
330
1F
100
AcDbEntity
  8
スト_ル
  6
CONTINUOUS
 62
     6
100
AcDbLine
 10
1737.8103943
 20
1668.5045000001
 30
0.0
 11
1737.8103943
 21
1665.7499390001
 31
0.0
  0
LINE
  5
498
330
1F
100
AcDbEntity
  8
スト_ル
  6
CONTINUOUS
 62
     6
100
AcDbLine
 10
1716.4103943
 20
1709.5000000001
 30
0.0
 11
1716.4103943
 21
1709.9055750001
 31
0.0
  0
LINE
  5
499
330
1F
100
AcDbEntity
  8
スト_ル
  6
CONTINUOUS
 62
     6
100
AcDbLine
 10
1707.2103943
 20
1709.5000000001
 30
0.0
 11
1707.2103943
 21
1709.9055750001
 31
0.0
  0
LINE
  5
49A
330
1F
100
AcDbEntity
  8
スト_ル
  6
CONTINUOUS
 62
     6
100
AcDbLine
 10
1717.3103943
 20
1709.5000000001
 30
0.0
 11
1707.2103943
 21
1709.5000000001
 31
0.0
  0
LINE
  5
49B
330
1F
100
AcDbEntity
  8
スト_ル
  6
CONTINUOUS
 62
     6
100
AcDbLine
 10
1712.5603943
 20
1710.9055750001
 30
0.0
 11
1712.5603943
 21
1709.5000000001
 31
0.0
  0
LINE
  5
49C
330
1F
100
AcDbEntity
  8
スト_ル
  6
CONTINUOUS
 62
     6
100
AcDbLine
 10
1711.0603943
 20
1709.5000000001
 30
0.0
 11
1711.0603943
 21
1710.9055750001
 31
0.0
  0
LINE
  5
49D
330
1F
100
AcDbEntity
  8
スト_ル
  6
CONTINUOUS
 62
     6
100
AcDbLine
 10
1724.8103943
 20
1693.0000000001
 30
0.0
 11
1702.8103943
 21
1693.0000000001
 31
0.0
  0
LINE
  5
49E
330
1F
100
AcDbEntity
  8
スト_ル
  6
CONTINUOUS
 62
     6
100
AcDbLine
 10
1702.8103943
 20
1693.0000000001
 30
0.0
 11
1686.8103943
 21
1693.0000000001
 31
0.0
  0
LINE
  5
49F
330
1F
100
AcDbEntity
  8
スト_ル
  6
CONTINUOUS
 62
     6
100
AcDbLine
 10
1704.8103943
 20
1651.5000000001
 30
0.0
 11
1680.9571533
 21
1651.5000000001
 31
0.0
  0
LINE
  5
4A0
330
1F
100
AcDbEntity
  8
スト_ル
  6
CONTINUOUS
 62
     6
100
AcDbLine
 10
1742.8103943
 20
1678.0000000001
 30
0.0
 11
1742.8103943
 21
1705.4999390001
 31
0.0
  0
LINE
  5
4A1
330
1F
100
AcDbEntity
  8
スト_ル
  6
CONTINUOUS
 62
     6
100
AcDbLine
 10
1742.8103943
 20
1650.4999390001
 30
0.0
 11
1742.8103943
 21
1678.0000000001
 31
0.0
  0
LINE
  5
4A2
330
1F
100
AcDbEntity
  8
スト_ル
  6
CONTINUOUS
 62
     6
100
AcDbLine
 10
1737.8103943
 20
1678.0000000001
 30
0.0
 11
1737.8103943
 21
1705.4999390001
 31
0.0
  0
LINE
  5
4A3
330
1F
100
AcDbEntity
  8
スト_ル
  6
CONTINUOUS
 62
     6
100
AcDbLine
 10
1737.7766113
 20
1650.4999390001
 30
0.0
 11
1737.7766113
 21
1678.0000000001
 31
0.0
  0
LINE
  5
4A4
330
1F
100
AcDbEntity
  8
スト_ル
  6
CONTINUOUS
 62
     6
100
AcDbLine
 10
1728.8103943
 20
1678.0000000001
 30
0.0
 11
1728.8103943
 21
1665.4999390001
 31
0.0
  0
LINE
  5
4A5
330
1F
100
AcDbEntity
  8
スト_ル
  6
CONTINUOUS
 62
     6
100
AcDbLine
 10
1728.8103943
 20
1678.0000000001
 30
0.0
 11
1728.8103943
 21
1690.4999390001
 31
0.0
  0
LINE
  5
4A6
330
1F
100
AcDbEntity
  8
スト_ル
  6
CONTINUOUS
 62
     6
100
AcDbLine
 10
1756.8103943
 20
1668.5045000001
 30
0.0
 11
1742.8103943
 21
1668.5045000001
 31
0.0
  0
LINE
  5
4A7
330
1F
100
AcDbEntity
  8
スト_ル
  6
CONTINUOUS
 62
     6
100
AcDbLine
 10
1737.8103943
 20
1668.5045000001
 30
0.0
 11
1737.7766113
 21
1668.5045000001
 31
0.0
  0
LINE
  5
4A8
330
1F
100
AcDbEntity
  8
スト_ル
  6
CONTINUOUS
 62
     6
100
AcDbLine
 10
1755.8283943
 20
1667.5225000001
 30
0.0
 11
1742.8103943
 21
1667.5225000001
 31
0.0
  0
LINE
  5
4A9
330
1F
100
AcDbEntity
  8
スト_ル
  6
CONTINUOUS
 62
     6
100
AcDbLine
 10
1737.8103943
 20
1667.5225000001
 30
0.0
 11
1737.7766113
 21
1667.5225000001
 31
0.0
  0
LINE
  5
4AA
330
1F
100
AcDbEntity
  8
スト_ル
  6
CONTINUOUS
 62
     6
100
AcDbLine
 10
1728.8103943
 20
1667.5225000001
 30
0.0
 11
1725.7902723
 21
1667.5225000001
 31
0.0
  0
LINE
  5
4AB
330
1F
100
AcDbEntity
  8
スト_ル
  6
CONTINUOUS
 62
     6
100
AcDbLine
 10
1728.8103943
 20
1688.4775000001
 30
0.0
 11
1727.3103943
 21
1688.4775000001
 31
0.0
  0
LINE
  5
4AC
330
1F
100
AcDbEntity
  8
スト_ル
  6
CONTINUOUS
 62
     6
100
AcDbLine
 10
1755.8283943
 20
1688.4775000001
 30
0.0
 11
1742.8103943
 21
1688.4775000001
 31
0.0
  0
LINE
  5
4AD
330
1F
100
AcDbEntity
  8
スト_ル
  6
CONTINUOUS
 62
     6
100
AcDbLine
 10
1756.8103943
 20
1687.4955000001
 30
0.0
 11
1742.8103943
 21
1687.4955000001
 31
0.0
  0
LINE
  5
4AE
330
1F
100
AcDbEntity
  8
スト_ル
  6
CONTINUOUS
 62
     6
100
AcDbLine
 10
1667.8415663
 20
1709.9200000001
 30
0.0
 11
1655.2103943
 21
1709.9200000001
 31
0.0
  0
LINE
  5
4AF
330
1F
100
AcDbEntity
  8
スト_ル
  6
CONTINUOUS
 62
     6
100
AcDbLine
 10
1723.139191818495
 20
1697.278534080351
 30
0.0
 11
1720.4815963
 21
1697.7214660001
 31
0.0
  0
LINE
  5
4B0
330
1F
100
AcDbEntity
  8
スト_ル
  6
CONTINUOUS
 62
     6
100
AcDbLine
 10
1705.4414281096
 20
1696.63594574558
 30
0.0
 11
1707.227818605
 21
1696.63594574558
 31
0.0
  0
ARC
  5
4B1
330
1F
100
AcDbEntity
  8
スト_ル
  6
CONTINUOUS
 62
     6
100
AcDbCircle
 10
1711.8103943
 20
1686.63594574558
 30
0.0
 40
11.0
100
AcDbArc
 50
65.38002267129896
 51
114.6199773286597
  0
LINE
  5
4B2
330
1F
100
AcDbEntity
  8
スト_ル
  6
CONTINUOUS
 62
     6
100
AcDbLine
 10
1718.1793604904
 20
1696.63594574558
 30
0.0
 11
1716.392969995
 21
1696.63594574558
 31
0.0
  0
LINE
  5
4B3
330
1F
100
AcDbEntity
  8
スト_ル
  6
CONTINUOUS
 62
     6
100
AcDbLine
 10
1705.4414281096
 20
1696.63594574558
 30
0.0
 11
1705.4414281096
 21
1693.0000000001
 31
0.0
  0
LINE
  5
4B4
330
1F
100
AcDbEntity
  8
スト_ル
  6
CONTINUOUS
 62
     6
100
AcDbLine
 10
1707.227818605
 20
1696.63594574558
 30
0.0
 11
1707.227818605
 21
1693.0000000001
 31
0.0
  0
LINE
  5
4B5
330
1F
100
AcDbEntity
  8
スト_ル
  6
CONTINUOUS
 62
     6
100
AcDbLine
 10
1718.1793604904
 20
1696.63594574558
 30
0.0
 11
1718.1793604904
 21
1693.0000000001
 31
0.0
  0
LINE
  5
4B6
330
1F
100
AcDbEntity
  8
スト_ル
  6
CONTINUOUS
 62
     6
100
AcDbLine
 10
1716.392969995
 20
1696.63594574558
 30
0.0
 11
1716.392969995
 21
1693.0000000001
 31
0.0
  0
ARC
  5
4B7
330
1F
100
AcDbEntity
  8
スト_ル
  6
CONTINUOUS
 62
     6
100
AcDbCircle
 10
1721.16452689497
 20
1692.257507677411
 30
0.0
 40
5.299239415214442
100
AcDbArc
 50
85.74809390087512
 51
124.2856953045942
  0
ARC
  5
4B8
330
1F
100
AcDbEntity
  8
スト_ル
  6
CONTINUOUS
 62
     6
100
AcDbCircle
 10
1702.456261705031
 20
1692.257507677411
 30
0.0
 40
5.299239415214442
100
AcDbArc
 50
55.71430469540582
 51
94.25190609912487
  0
LINE
  5
4B9
330
1F
100
AcDbEntity
  8
スト_ル
  6
EXLTYPE3
 62
     3
100
AcDbLine
 10
1667.8103943
 20
1557.5000000001
 30
0.0
 11
1667.8103943
 21
1474.5905800001
 31
0.0
  0
LINE
  5
4BA
330
1F
100
AcDbEntity
  8
スト_ル
  6
EXLTYPE3
 62
     3
100
AcDbLine
 10
1767.1793604904
 20
1678.0000000001
 30
0.0
 11
1630.8103943
 21
1678.0000000001
 31
0.0
  0
LINE
  5
4BB
330
1F
100
AcDbEntity
  8
スト_ル
  6
EXLTYPE3
 62
     3
100
AcDbLine
 10
1660.9972093
 20
1614.4494490001
 30
0.0
 11
1660.9972093
 21
1731.0
 31
0.0
  0
LINE
  5
4BC
330
1F
100
AcDbEntity
  8
スト_ル
  6
CONTINUOUS
 62
     6
100
AcDbLine
 10
633.4964454516205
 20
2649.631496
 30
0.0
 11
614.5054454516201
 21
2649.631496
 31
0.0
  0
LINE
  5
4BD
330
1F
100
AcDbEntity
  8
スト_ル
  6
CONTINUOUS
 62
     6
100
AcDbLine
 10
633.4964454516205
 20
2649.631496
 30
0.0
 11
634.4784454516205
 21
2648.649496
 31
0.0
  0
LINE
  5
4BE
330
1F
100
AcDbEntity
  8
スト_ル
  6
CONTINUOUS
 62
     6
100
AcDbLine
 10
614.5054454516201
 20
2649.631496
 30
0.0
 11
613.5234454516201
 21
2648.649496
 31
0.0
  0
LINE
  5
4BF
330
1F
100
AcDbEntity
  8
スト_ル
  6
CONTINUOUS
 62
     6
100
AcDbLine
 10
651.5008844516203
 20
2630.631496
 30
0.0
 11
651.5008844516203
 21
2635.631496
 31
0.0
  0
LINE
  5
4C0
330
1F
100
AcDbEntity
  8
スト_ル
  6
CONTINUOUS
 62
     6
100
AcDbLine
 10
636.5008844516203
 20
2621.631496
 30
0.0
 11
651.5008844516203
 21
2630.631496
 31
0.0
  0
LINE
  5
4C1
330
1F
100
AcDbEntity
  8
スト_ル
  6
CONTINUOUS
 62
     6
100
AcDbLine
 10
596.5008844516203
 20
2630.631496
 30
0.0
 11
596.5008844516203
 21
2635.631496
 31
0.0
  0
LINE
  5
4C2
330
1F
100
AcDbEntity
  8
スト_ル
  6
CONTINUOUS
 62
     6
100
AcDbLine
 10
611.5008844516203
 20
2621.631496
 30
0.0
 11
596.5008844516203
 21
2630.631496
 31
0.0
  0
LINE
  5
4C3
330
1F
100
AcDbEntity
  8
スト_ル
  6
CONTINUOUS
 62
     6
100
AcDbLine
 10
614.5054454516201
 20
2630.631496
 30
0.0
 11
611.7508844516203
 21
2630.631496
 31
0.0
  0
LINE
  5
4C4
330
1F
100
AcDbEntity
  8
スト_ル
  6
CONTINUOUS
 62
     6
100
AcDbLine
 10
624.00094545162
 20
2635.631496
 30
0.0
 11
651.5008844516203
 21
2635.631496
 31
0.0
  0
LINE
  5
4C5
330
1F
100
AcDbEntity
  8
スト_ル
  6
CONTINUOUS
 62
     6
100
AcDbLine
 10
596.5008844516203
 20
2635.631496
 30
0.0
 11
624.0009454516205
 21
2635.631496
 31
0.0
  0
LINE
  5
4C6
330
1F
100
AcDbEntity
  8
スト_ル
  6
CONTINUOUS
 62
     6
100
AcDbLine
 10
624.00094545162
 20
2630.631496
 30
0.0
 11
651.5008844516203
 21
2630.631496
 31
0.0
  0
LINE
  5
4C7
330
1F
100
AcDbEntity
  8
スト_ル
  6
CONTINUOUS
 62
     6
100
AcDbLine
 10
596.5008844516203
 20
2630.597713
 30
0.0
 11
624.0009454516205
 21
2630.597713
 31
0.0
  0
LINE
  5
4C8
330
1F
100
AcDbEntity
  8
スト_ル
  6
CONTINUOUS
 62
     6
100
AcDbLine
 10
624.00094545162
 20
2621.631496
 30
0.0
 11
611.5008844516203
 21
2621.631496
 31
0.0
  0
LINE
  5
4C9
330
1F
100
AcDbEntity
  8
スト_ル
  6
CONTINUOUS
 62
     6
100
AcDbLine
 10
624.0009454516205
 20
2621.631496
 30
0.0
 11
636.5008844516203
 21
2621.631496
 31
0.0
  0
LINE
  5
4CA
330
1F
100
AcDbEntity
  8
スト_ル
  6
CONTINUOUS
 62
     6
100
AcDbLine
 10
614.5054454516201
 20
2649.631496
 30
0.0
 11
614.5054454516201
 21
2635.631496
 31
0.0
  0
LINE
  5
4CB
330
1F
100
AcDbEntity
  8
スト_ル
  6
CONTINUOUS
 62
     6
100
AcDbLine
 10
614.5054454516201
 20
2630.631496
 30
0.0
 11
614.5054454516201
 21
2630.597713
 31
0.0
  0
LINE
  5
4CC
330
1F
100
AcDbEntity
  8
スト_ル
  6
CONTINUOUS
 62
     6
100
AcDbLine
 10
613.5234454516201
 20
2648.649496
 30
0.0
 11
613.5234454516201
 21
2635.631496
 31
0.0
  0
LINE
  5
4CD
330
1F
100
AcDbEntity
  8
スト_ル
  6
CONTINUOUS
 62
     6
100
AcDbLine
 10
613.5234454516201
 20
2630.631496
 30
0.0
 11
613.5234454516201
 21
2630.597713
 31
0.0
  0
LINE
  5
4CE
330
1F
100
AcDbEntity
  8
スト_ル
  6
CONTINUOUS
 62
     6
100
AcDbLine
 10
634.4784454516205
 20
2648.649496
 30
0.0
 11
634.4784454516205
 21
2635.631496
 31
0.0
  0
LINE
  5
4CF
330
1F
100
AcDbEntity
  8
スト_ル
  6
CONTINUOUS
 62
     6
100
AcDbLine
 10
633.4964454516205
 20
2649.631496
 30
0.0
 11
633.4964454516205
 21
2635.631496
 31
0.0
  0
LINE
  5
4D0
330
1F
100
AcDbEntity
  8
スト_ル
  6
CONTINUOUS
 62
     6
100
AcDbLine
 10
633.00094545162
 20
2514.131496
 30
0.0
 11
633.00094545162
 21
2508.131496
 31
0.0
  0
LINE
  5
4D1
330
1F
100
AcDbEntity
  8
スト_ル
  6
CONTINUOUS
 62
     6
100
AcDbLine
 10
615.00094545162
 20
2514.131496
 30
0.0
 11
615.00094545162
 21
2508.131496
 31
0.0
  0
LINE
  5
4D2
330
1F
100
AcDbEntity
  8
スト_ル
  6
CONTINUOUS
 62
     6
100
AcDbLine
 10
634.9452174516202
 20
2525.131496
 30
0.0
 11
634.50094545162
 21
2525.131496
 31
0.0
  0
LINE
  5
4D3
330
1F
100
AcDbEntity
  8
スト_ル
  6
CONTINUOUS
 62
     6
100
AcDbLine
 10
613.0566734516203
 20
2514.131496
 30
0.0
 11
615.00094545162
 21
2514.131496
 31
0.0
  0
LINE
  5
4D4
330
1F
100
AcDbEntity
  8
スト_ル
  6
CONTINUOUS
 62
     6
100
AcDbLine
 10
633.00094545162
 20
2508.131496
 30
0.0
 11
629.0509454516202
 21
2508.131496
 31
0.0
  0
ARC
  5
4D5
330
1F
100
AcDbEntity
  8
スト_ル
  6
CONTINUOUS
 62
     6
100
AcDbCircle
 10
626.00094545162
 20
2519.631496
 30
0.0
 40
10.5
100
AcDbArc
 50
328.4118640000001
 51
31.58813599999997
  0
ARC
  5
4D6
330
1F
100
AcDbEntity
  8
スト_ル
  6
CONTINUOUS
 62
     6
100
AcDbCircle
 10
622.00094545162
 20
2519.631496
 30
0.0
 40
10.5
100
AcDbArc
 50
148.4118640000003
 51
211.5881360000002
  0
LINE
  5
4D7
330
1F
100
AcDbEntity
  8
スト_ル
  6
CONTINUOUS
 62
     6
100
AcDbLine
 10
639.00094545162
 20
2501.131496
 30
0.0
 11
629.0509454516202
 21
2501.131496
 31
0.0
  0
LINE
  5
4D8
330
1F
100
AcDbEntity
  8
スト_ル
  6
CONTINUOUS
 62
     6
100
AcDbLine
 10
613.50094545162
 20
2528.321415
 30
0.0
 11
614.1879454516204
 21
2527.131496
 31
0.0
  0
LINE
  5
4D9
330
1F
100
AcDbEntity
  8
スト_ル
  6
CONTINUOUS
 62
     6
100
AcDbLine
 10
634.50094545162
 20
2528.321415
 30
0.0
 11
633.8139454516202
 21
2527.131496
 31
0.0
  0
ARC
  5
4DA
330
1F
100
AcDbEntity
  8
スト_ル
  6
CONTINUOUS
 62
     6
100
AcDbCircle
 10
624.00094545162
 20
2530.143789
 30
0.0
 40
34.0
100
AcDbArc
 50
243.821031
 51
296.1789690000001
  0
LINE
  5
4DB
330
1F
100
AcDbEntity
  8
スト_ル
  6
CONTINUOUS
 62
     6
100
AcDbLine
 10
639.00094545162
 20
2501.131496
 30
0.0
 11
639.00094545162
 21
2499.631496
 31
0.0
  0
LINE
  5
4DC
330
1F
100
AcDbEntity
  8
スト_ル
  6
CONTINUOUS
 62
     6
100
AcDbLine
 10
609.00094545162
 20
2499.631496
 30
0.0
 11
609.00094545162
 21
2501.131496
 31
0.0
  0
LINE
  5
4DD
330
1F
100
AcDbEntity
  8
スト_ル
  6
CONTINUOUS
 62
     6
100
AcDbLine
 10
634.9452174516202
 20
2514.131496
 30
0.0
 11
615.0009454516205
 21
2514.131496
 31
0.0
  0
LINE
  5
4DE
330
1F
100
AcDbEntity
  8
スト_ル
  6
CONTINUOUS
 62
     6
100
AcDbLine
 10
629.0509454516202
 20
2508.131496
 30
0.0
 11
615.00094545162
 21
2508.131496
 31
0.0
  0
LINE
  5
4DF
330
1F
100
AcDbEntity
  8
スト_ル
  6
CONTINUOUS
 62
     6
100
AcDbLine
 10
629.0509454516202
 20
2508.131496
 30
0.0
 11
629.0509454516202
 21
2501.131496
 31
0.0
  0
LINE
  5
4E0
330
1F
100
AcDbEntity
  8
スト_ル
  6
CONTINUOUS
 62
     6
100
AcDbLine
 10
618.9509454516203
 20
2508.131496
 30
0.0
 11
618.9509454516203
 21
2501.131496
 31
0.0
  0
LINE
  5
4E1
330
1F
100
AcDbEntity
  8
スト_ル
  6
CONTINUOUS
 62
     6
100
AcDbLine
 10
629.0509454516202
 20
2501.131496
 30
0.0
 11
609.00094545162
 21
2501.131496
 31
0.0
  0
LINE
  5
4E2
330
1F
100
AcDbEntity
  8
スト_ル
  6
CONTINUOUS
 62
     6
100
AcDbLine
 10
633.8139454516202
 20
2527.131496
 30
0.0
 11
633.8139454516202
 21
2525.131496
 31
0.0
  0
LINE
  5
4E3
330
1F
100
AcDbEntity
  8
スト_ル
  6
CONTINUOUS
 62
     6
100
AcDbLine
 10
613.0566734516203
 20
2525.131496
 30
0.0
 11
634.5009454516205
 21
2525.131496
 31
0.0
  0
LINE
  5
4E4
330
1F
100
AcDbEntity
  8
スト_ル
  6
CONTINUOUS
 62
     6
100
AcDbLine
 10
614.1879454516204
 20
2527.131496
 30
0.0
 11
614.1879454516204
 21
2525.131496
 31
0.0
  0
CIRCLE
  5
4E5
330
1F
100
AcDbEntity
  8
スト_ル
  6
CONTINUOUS
 62
     6
100
AcDbCircle
 10
624.0009454516205
 20
2519.63540076102
 30
0.0
 40
5.123904761019669
  0
ELLIPSE
  5
4E6
330
1F
100
AcDbEntity
  8
スト_ル
  6
CONTINUOUS
 62
     6
100
AcDbEllipse
 10
615.0009454516205
 20
2519.63540076102
 30
0.0
 11
-9.412460347078574E-16
 21
-5.123904761020018
 31
0.0
210
0.0
220
0.0
230
1.0
 40
0.6092836711795121
 41
0.0
 42
6.283185307179586
  0
ELLIPSE
  5
4E7
330
1F
100
AcDbEntity
  8
スト_ル
  6
CONTINUOUS
 62
     6
100
AcDbEllipse
 10
633.0009454516205
 20
2519.63540076102
 30
0.0
 11
-9.412460347078574E-16
 21
-5.123904761020018
 31
0.0
210
0.0
220
0.0
230
1.0
 40
0.6092836711795121
 41
0.0
 42
6.283185307179586
  0
CIRCLE
  5
4E8
330
1F
100
AcDbEntity
  8
スト_ル
  6
CONTINUOUS
 62
     6
100
AcDbCircle
 10
624.0009454516205
 20
2553.631496
 30
0.0
 40
27.0
  0
LINE
  5
4E9
330
1F
100
AcDbEntity
  8
スト_ル
  6
CONTINUOUS
 62
     6
100
AcDbLine
 10
634.50094545162
 20
2525.131496
 30
0.0
 11
634.50094545162
 21
2528.75681007233
 31
0.0
  0
LINE
  5
4EA
330
1F
100
AcDbEntity
  8
スト_ル
  6
CONTINUOUS
 62
     6
100
AcDbLine
 10
613.5009454516205
 20
2525.131496
 30
0.0
 11
613.5009454516205
 21
2528.756810072335
 31
0.0
  0
LINE
  5
4EB
330
1F
100
AcDbEntity
  8
スト_ル
  6
CONTINUOUS
 62
     6
100
AcDbLine
 10
633.1205743616204
 20
2621.631511259999
 30
0.0
 11
633.1205743616204
 21
2618.63151126
 31
0.0
  0
LINE
  5
4EC
330
1F
100
AcDbEntity
  8
スト_ル
  6
CONTINUOUS
 62
     6
100
AcDbLine
 10
614.8815759416204
 20
2621.631511259999
 30
0.0
 11
614.8815759416204
 21
2618.63151126
 31
0.0
  0
LINE
  5
4ED
330
1F
100
AcDbEntity
  8
スト_ル
  6
CONTINUOUS
 62
     6
100
AcDbLine
 10
634.2824395916202
 20
2616.61889224
 30
0.0
 11
633.1205743616204
 21
2618.63151126
 31
0.0
  0
LINE
  5
4EE
330
1F
100
AcDbEntity
  8
スト_ル
  6
CONTINUOUS
 62
     6
100
AcDbLine
 10
613.7194665716204
 20
2616.61884646
 30
0.0
 11
614.8815759416204
 21
2618.631480739999
 31
0.0
  0
LINE
  5
4EF
330
1F
100
AcDbEntity
  8
スト_ル
  6
CONTINUOUS
 62
     6
100
AcDbLine
 10
634.2824395916202
 20
2621.631511259999
 30
0.0
 11
634.2824395916202
 21
2615.63151126
 31
0.0
  0
LINE
  5
4F0
330
1F
100
AcDbEntity
  8
スト_ル
  6
CONTINUOUS
 62
     6
100
AcDbLine
 10
613.7194665716204
 20
2621.631511259999
 30
0.0
 11
613.7194665716204
 21
2615.63151126
 31
0.0
  0
LINE
  5
4F1
330
1F
100
AcDbEntity
  8
スト_ル
  6
CONTINUOUS
 62
     6
100
AcDbLine
 10
613.7194665716204
 20
2618.63151126
 30
0.0
 11
634.2824395916202
 21
2618.63151126
 31
0.0
  0
ARC
  5
4F2
330
1F
100
AcDbEntity
  8
スト_ル
  6
CONTINUOUS
 62
     6
100
AcDbCircle
 10
610.1725915716204
 20
2616.631511259999
 30
0.0
 40
3.0
100
AcDbArc
 50
270.0000000000002
 51
340.52880859
  0
LINE
  5
4F3
330
1F
100
AcDbEntity
  8
スト_ル
  6
CONTINUOUS
 62
     6
100
AcDbLine
 10
608.0009607116201
 20
2613.63151126
 30
0.0
 11
610.1725915716204
 21
2613.63151126
 31
0.0
  0
ARC
  5
4F4
330
1F
100
AcDbEntity
  8
スト_ル
  6
CONTINUOUS
 62
     6
100
AcDbCircle
 10
637.8292993316211
 20
2616.631511259999
 30
0.0
 40
3.0
100
AcDbArc
 50
199.4711914100003
 51
270.0000000000002
  0
LINE
  5
4F5
330
1F
100
AcDbEntity
  8
スト_ル
  6
CONTINUOUS
 62
     6
100
AcDbLine
 10
640.0009301916209
 20
2613.63151126
 30
0.0
 11
637.8292993316211
 21
2613.63151126
 31
0.0
  0
LINE
  5
4F6
330
1F
100
AcDbEntity
  8
スト_ル
  6
CONTINUOUS
 62
     6
100
AcDbLine
 10
640.0009301916209
 20
2613.631511259999
 30
0.0
 11
640.0009301916209
 21
2575.38007039741
 31
0.0
  0
LINE
  5
4F7
330
1F
100
AcDbEntity
  8
スト_ル
  6
CONTINUOUS
 62
     6
100
AcDbLine
 10
608.0009607116201
 20
2613.631511259999
 30
0.0
 11
608.0009607116201
 21
2575.38007039741
 31
0.0
  0
CIRCLE
  5
4F8
330
1F
100
AcDbEntity
  8
スト_ル
  6
CONTINUOUS
 62
     6
100
AcDbCircle
 10
624.0009454516205
 20
2553.631496
 30
0.0
 40
7.050000000000001
  0
CIRCLE
  5
4F9
330
1F
100
AcDbEntity
  8
スト_ル
  6
CONTINUOUS
 62
     6
100
AcDbCircle
 10
624.0009454516205
 20
2553.631496
 30
0.0
 40
5.599999999999999
  0
CIRCLE
  5
4FA
330
1F
100
AcDbEntity
  8
スト_ル
  6
CONTINUOUS
 62
     6
100
AcDbCircle
 10
624.0009454516205
 20
2553.631496
 30
0.0
 40
4.6
  0
LINE
  5
4FB
330
1F
100
AcDbEntity
  8
スト_ル
  6
CONTINUOUS
 62
     6
100
AcDbLine
 10
619.4576426882102
 20
2554.351495999999
 30
0.0
 11
628.5442482150295
 21
2554.351495999999
 31
0.0
  0
LINE
  5
4FC
330
1F
100
AcDbEntity
  8
スト_ル
  6
CONTINUOUS
 62
     6
100
AcDbLine
 10
619.5093092664204
 20
2552.881496
 30
0.0
 11
628.5393923225204
 21
2552.881496
 31
0.0
  0
CIRCLE
  5
4FD
330
1F
100
AcDbEntity
  8
スト_ル
  6
CONTINUOUS
 62
     6
100
AcDbCircle
 10
624.0009454516205
 20
2604.63148837
 30
0.0
 40
7.071075365180111
  0
CIRCLE
  5
4FE
330
1F
100
AcDbEntity
  8
スト_ル
  6
CONTINUOUS
 62
     6
100
AcDbCircle
 10
624.0009454516205
 20
2604.631496
 30
0.0
 40
4.6
  0
CIRCLE
  5
4FF
330
1F
100
AcDbEntity
  8
スト_ル
  6
CONTINUOUS
 62
     6
100
AcDbCircle
 10
624.0009454516205
 20
2604.631496
 30
0.0
 40
3.6
  0
LINE
  5
500
330
1F
100
AcDbEntity
  8
スト_ル
  6
CONTINUOUS
 62
     6
100
AcDbLine
 10
627.5219538299123
 20
2605.381496
 30
0.0
 11
620.4799370733306
 21
2605.381496
 31
0.0
  0
LINE
  5
501
330
1F
100
AcDbEntity
  8
スト_ル
  6
CONTINUOUS
 62
     6
100
AcDbLine
 10
620.4799370733306
 20
2603.881496
 30
0.0
 11
627.5219538299118
 21
2603.881496
 31
0.0
  0
LINE
  5
502
330
1F
100
AcDbEntity
  8
スト_ル
  6
CONTINUOUS
 62
     6
100
AcDbLine
 10
630.9291244533331
 20
2615.63151126
 30
0.0
 11
635.0008691616201
 21
2615.63151126
 31
0.0
  0
LINE
  5
503
330
1F
100
AcDbEntity
  8
スト_ル
  6
CONTINUOUS
 62
     6
100
AcDbLine
 10
613.0009607116201
 20
2615.63151126
 30
0.0
 11
617.0727664499079
 21
2615.63151126
 31
0.0
  0
ARC
  5
504
330
1F
100
AcDbEntity
  8
スト_ル
  6
CONTINUOUS
 62
     2
100
AcDbCircle
 10
624.0004609598805
 20
2153.65211999999
 30
0.0
 40
346.9793760000002
100
AcDbArc
 50
78.00362599999998
 51
87.52223775718817
  0
ARC
  5
505
330
1F
100
AcDbEntity
  8
スト_ル
  6
CONTINUOUS
 62
     2
100
AcDbCircle
 10
624.0004609598805
 20
2153.65211999999
 30
0.0
 40
346.9793760000002
100
AcDbArc
 50
89.99991999717034
 51
90.00000000000001
  0
ARC
  5
506
330
1F
100
AcDbEntity
  8
スト_ル
  6
CONTINUOUS
 62
     2
100
AcDbCircle
 10
624.0004609598805
 20
2153.65211999999
 30
0.0
 40
346.9793760000002
100
AcDbArc
 50
92.47760208742923
 51
101.996374
  0
LINE
  5
507
330
1F
100
AcDbEntity
  8
スト_ル
  6
CONTINUOUS
 62
     2
100
AcDbLine
 10
624.0009454516485
 20
2500.63149599999
 30
0.0
 11
624.0004609598805
 21
2500.63149599999
 31
0.0
  0
TEXT
  5
508
330
1F
100
AcDbEntity
  8
スト_ル
  6
CONTINUOUS
 62
     2
100
AcDbText
 10
1182.9838562
 20
2566.4804687
 30
0.0
 40
50.0
  1
ＪＵ６３
 41
0.9495652173913044
  7
EXCADSTD
 72
     5
 11
1338.9838562
 21
2566.4804687
 31
0.0
100
AcDbText
  0
POLYLINE
  5
509
330
1F
100
AcDbEntity
  8
スト_ル
  6
CONTINUOUS
 62
     6
100
AcDb2dPolyline
 66
     1
 10
0.0
 20
0.0
 30
0.0
 70
   128
  0
VERTEX
  5
50A
330
509
100
AcDbEntity
  8
スト_ル
  6
CONTINUOUS
 62
     6
100
AcDbVertex
100
AcDb2dVertex
 10
1636.624159999499
 20
1705.6750109814
 30
0.0
  0
VERTEX
  5
50B
330
509
100
AcDbEntity
  8
スト_ル
  6
CONTINUOUS
 62
     6
100
AcDbVertex
100
AcDb2dVertex
 10
1608.684249099499
 20
1754.0684130814
 30
0.0
  0
SEQEND
  5
50C
330
509
100
AcDbEntity
  8
スト_ル
  6
CONTINUOUS
 62
     6
  0
LINE
  5
50D
330
1F
100
AcDbEntity
  8
スト_ル
  6
CONTINUOUS
 62
     6
100
AcDbLine
 10
1614.072359082003
 20
1733.069244921325
 30
0.0
 11
1636.624159999499
 21
1705.6750109814
 31
0.0
  0
LINE
  5
50E
330
1F
100
AcDbEntity
  8
スト_ル
  6
CONTINUOUS
 62
     6
100
AcDbLine
 10
1636.624159999499
 20
1705.6750109814
 30
0.0
 11
1624.175991760762
 21
1738.902573114031
 31
0.0
  0
LINE
  5
50F
330
1F
100
AcDbEntity
  8
スト_ル
  6
CONTINUOUS
 62
     6
100
AcDbLine
 10
1608.684249099499
 20
1754.0684130814
 30
0.0
 11
1490.002669499499
 21
1754.0684130814
 31
0.0
  0
TEXT
  5
510
330
1F
100
AcDbEntity
  8
スト_ル
  6
CONTINUOUS
 62
     2
100
AcDbText
 10
1477.658616657127
 20
1757.5684740814
 30
0.0
 40
40.0
  1
ＪＵ６３
 41
1.034782608695652
  7
EXCADSTD
 72
     5
 11
1613.658616657127
 21
1757.5684740814
 31
0.0
100
AcDbText
  0
TEXT
  5
511
330
1F
100
AcDbEntity
  8
スト_ル
  6
CONTINUOUS
 62
     2
100
AcDbText
 10
205.4999997615848
 20
173.0
 30
0.0
 40
50.0
  1
亀井
 41
1.18991346010815
  7
EXCADSTD
 72
     5
 11
298.9932001986538
 21
173.0
 31
0.0
100
AcDbText
  0
TEXT
  5
512
330
1F
100
AcDbEntity
  8
スト_ル
  6
CONTINUOUS
 62
     6
100
AcDbText
 10
184.0260742000002
 20
99.95007319999968
 30
0.0
 40
25.0
  1
２８
 41
1.005593491671475
  7
EXCADSTD
 72
     5
 11
223.5315328013796
 21
99.95007319999968
 31
0.0
100
AcDbText
  0
TEXT
  5
513
330
1F
100
AcDbEntity
  8
スト_ル
  6
CONTINUOUS
 62
     2
100
AcDbText
 10
631.4999997615848
 20
148.0
 30
0.0
 40
50.0
  1
間瀬
 41
1.18991346010815
  7
EXCADSTD
 72
     5
 11
724.9932001986538
 21
148.0
 31
0.0
100
AcDbText
  0
ARC
  5
514
330
1F
100
AcDbEntity
  8
スト_ル
  6
CONTINUOUS
 62
     6
100
AcDbCircle
 10
1642.8103943
 20
1557.5000000001
 30
0.0
 40
17.06
100
AcDbArc
 50
0.0
 51
7.008813999999377
  0
POLYLINE
  5
515
330
1F
100
AcDbEntity
  8
スト_ル
  6
CONTINUOUS
 62
     6
100
AcDb2dPolyline
 66
     1
 10
0.0
 20
0.0
 30
0.0
 70
   128
  0
VERTEX
  5
516
330
515
100
AcDbEntity
  8
スト_ル
  6
CONTINUOUS
 62
     6
100
AcDbVertex
100
AcDb2dVertex
 10
630.42218827955
 20
2615.9349309003
 30
0.0
  0
VERTEX
  5
517
330
515
100
AcDbEntity
  8
スト_ル
  6
CONTINUOUS
 62
     6
100
AcDbVertex
100
AcDb2dVertex
 10
617.4222942950832
 20
2615.844568470605
 30
0.0
  0
VERTEX
  5
518
330
515
100
AcDbEntity
  8
スト_ル
  6
CONTINUOUS
 62
     6
100
AcDbVertex
100
AcDb2dVertex
 10
611.0006034625133
 20
2604.541148818705
 30
0.0
  0
VERTEX
  5
519
330
515
100
AcDbEntity
  8
スト_ル
  6
CONTINUOUS
 62
     6
100
AcDbVertex
100
AcDb2dVertex
 10
617.57880661441
 20
2593.3280915965
 30
0.0
  0
VERTEX
  5
51A
330
515
100
AcDbEntity
  8
スト_ル
  6
CONTINUOUS
 62
     6
100
AcDbVertex
100
AcDb2dVertex
 10
630.5787005988768
 20
2593.418454026194
 30
0.0
  0
VERTEX
  5
51B
330
515
100
AcDbEntity
  8
スト_ル
  6
CONTINUOUS
 62
     6
100
AcDbVertex
100
AcDb2dVertex
 10
637.0003914314468
 20
2604.721873678094
 30
0.0
  0
VERTEX
  5
51C
330
515
100
AcDbEntity
  8
スト_ル
  6
CONTINUOUS
 62
     6
100
AcDbVertex
100
AcDb2dVertex
 10
630.42218827955
 20
2615.9349309003
 30
0.0
  0
SEQEND
  5
51D
330
515
100
AcDbEntity
  8
スト_ル
  6
CONTINUOUS
 62
     6
  0
LINE
  5
51E
330
1F
100
AcDbEntity
  8
スト_ル
  6
CONTINUOUS
 62
     6
100
AcDbLine
 10
616.1
 20
2604.631496
 30
0.0
 11
631.9
 21
2604.631496
 31
0.0
  0
POLYLINE
  5
51F
330
1F
100
AcDbEntity
  8
スト_ル
  6
CONTINUOUS
 62
     6
100
AcDb2dPolyline
 66
     1
 10
0.0
 20
0.0
 30
0.0
 70
   128
  0
VERTEX
  5
520
330
51F
100
AcDbEntity
  8
スト_ル
  6
CONTINUOUS
 62
     6
100
AcDbVertex
100
AcDb2dVertex
 10
633.0538250344437
 20
2558.95118794075
 30
0.0
  0
VERTEX
  5
521
330
51F
100
AcDbEntity
  8
スト_ル
  6
CONTINUOUS
 62
     6
100
AcDbVertex
100
AcDb2dVertex
 10
623.9795291597985
 20
2564.165953793849
 30
0.0
  0
VERTEX
  5
522
330
51F
100
AcDbEntity
  8
スト_ル
  6
CONTINUOUS
 62
     6
100
AcDbVertex
100
AcDb2dVertex
 10
614.9262615189049
 20
2558.914765971499
 30
0.0
  0
VERTEX
  5
523
330
51F
100
AcDbEntity
  8
スト_ル
  6
CONTINUOUS
 62
     6
100
AcDbVertex
100
AcDb2dVertex
 10
614.9472897526564
 20
2548.44881229605
 30
0.0
  0
VERTEX
  5
524
330
51F
100
AcDbEntity
  8
スト_ル
  6
CONTINUOUS
 62
     6
100
AcDbVertex
100
AcDb2dVertex
 10
624.0215856273015
 20
2543.234046442952
 30
0.0
  0
VERTEX
  5
525
330
51F
100
AcDbEntity
  8
スト_ル
  6
CONTINUOUS
 62
     6
100
AcDbVertex
100
AcDb2dVertex
 10
633.0748532681952
 20
2548.485234265302
 30
0.0
  0
VERTEX
  5
526
330
51F
100
AcDbEntity
  8
スト_ル
  6
CONTINUOUS
 62
     6
100
AcDbVertex
100
AcDb2dVertex
 10
633.0538250344437
 20
2558.95118794075
 30
0.0
  0
SEQEND
  5
527
330
51F
100
AcDbEntity
  8
スト_ル
  6
CONTINUOUS
 62
     6
  0
TEXT
  5
528
330
1F
100
AcDbEntity
  8
スト_ル
  6
CONTINUOUS
 62
     2
100
AcDbText
 10
1422.918457
 20
2631.0
 30
0.0
 40
50.0
  1
小便器＋排水セット
 41
0.9007547169811323
  7
EXCADSTD
 72
     5
 11
1763.918457
 21
2631.0
 31
0.0
100
AcDbText
  0
TEXT
  5
529
330
1F
100
AcDbEntity
  8
スト_ル
  6
CONTINUOUS
 62
     6
100
AcDbText
 10
1618.924316400001
 20
2474.8494567
 30
0.0
 40
17.5
  1
２
 41
1.28
  7
EXCADSTD
 72
     5
 11
1634.924316400001
 21
2474.8494567
 31
0.0
100
AcDbText
  0
TEXT
  5
52A
330
1F
100
AcDbEntity
  8
スト_ル
  6
CONTINUOUS
 62
     6
100
AcDbText
 10
1391.437384
 20
2376.929718
 30
0.0
 40
17.5
  1
２
 41
1.28
  7
EXCADSTD
 72
     5
 11
1407.437384
 21
2376.929718
 31
0.0
100
AcDbText
  0
TEXT
  5
52B
330
1F
100
AcDbEntity
  8
スト_ル
  6
CONTINUOUS
 62
     2
100
AcDbText
 10
1178.3918762
 20
2444.0
 30
0.0
 40
45.0
  1
　　｛０．７Ｋｇｆ／ｃｍ}（流動時）、
 41
0.9793034825870649
  7
EXCADSTD
 72
     5
 11
1881.3918762
 21
2444.0
 31
0.0
100
AcDbText
  0
TEXT
  5
52C
330
1F
100
AcDbEntity
  8
スト_ル
  6
CONTINUOUS
 62
     2
100
AcDbText
 10
1178.3918762
 20
2344.0
 30
0.0
 40
45.0
  1
　　ｆ／ｃｍ｝）確保してください。
 41
0.9949394939493952
  7
EXCADSTD
 72
     5
 11
1824.3918762
 21
2344.0
 31
0.0
100
AcDbText
  0
TEXT
  5
52D
330
1F
100
AcDbEntity
  8
スト_ル
  6
CONTINUOUS
 62
     2
100
AcDbText
 10
1178.3918762
 20
2394.0
 30
0.0
 40
45.0
  1
　　（最高水圧０.７５ＭＰａ｛７.６ｋｇ
 41
0.9490713587487783
  7
EXCADSTD
 72
     5
 11
1871.8918762
 21
2394.0
 31
0.0
100
AcDbText
  0
TEXT
  5
52E
330
1F
100
AcDbEntity
  8
スト_ル
  6
CONTINUOUS
 62
     2
100
AcDbText
 10
1178.3918762
 20
2494.0
 30
0.0
 40
45.0
  1
注：給水には最低必要水圧０．０７ＭＰａ
 41
0.993903638151426
  7
EXCADSTD
 72
     5
 11
1900.3918762
 21
2494.0
 31
0.0
100
AcDbText
  0
TEXT
  5
52F
330
1F
100
AcDbEntity
  8
スト_ル
  6
CONTINUOUS
 62
     2
100
AcDbText
 10
1182.9838562
 20
2631.4804687
 30
0.0
 40
50.0
  1
ＳＵ６０１
 41
0.8931034482758621
  7
EXCADSTD
 72
     5
 11
1367.9838562
 21
2631.4804687
 31
0.0
100
AcDbText
  0
TEXT
  5
530
330
1F
100
AcDbEntity
  8
スト_ル
  6
CONTINUOUS
 62
     7
100
AcDbText
 10
1454.0
 20
103.0
 30
0.0
 40
70.0
  1
Ｕ０６０００１０
 41
1.127659574468085
  7
EXCADSTD
 72
     5
 11
1984.0
 21
103.0
 31
0.0
100
AcDbText
  0
TEXT
  5
531
330
1F
100
AcDbEntity
  8
スト_ル
  6
CONTINUOUS
 62
     6
100
AcDbText
 10
242.8260742000002
 20
99.95007319999968
 30
0.0
 40
25.0
  1
４
 41
1.189439965820312
  7
EXCADSTD
 72
     5
 11
264.0660735896486
 21
99.95007319999968
 31
0.0
100
AcDbText
  0
TEXT
  5
532
330
1F
100
AcDbEntity
  8
スト_ル
  6
CONTINUOUS
 62
     6
100
AcDbText
 10
283.8260742000002
 20
99.95007319999968
 30
0.0
 40
25.0
  1
８
 41
1.189439965820314
  7
EXCADSTD
 72
     5
 11
305.0660735896487
 21
99.95007319999968
 31
0.0
100
AcDbText
  0
TEXT
  5
533
330
1F
100
AcDbEntity
  8
スト_ル
  6
CONTINUOUS
 62
     2
100
AcDbText
 10
1515.0170898
 20
2694.0
 30
0.0
 40
55.0
  1
品　　名
 41
0.9960474308300394
  7
EXCADSTD
 72
     5
 11
1695.0170898
 21
2694.0
 31
0.0
100
AcDbText
  0
TEXT
  5
534
330
1F
100
AcDbEntity
  8
スト_ル
  6
CONTINUOUS
 62
     2
100
AcDbText
 10
1889.537109400001
 20
255.7227782999998
 30
0.0
 40
30.0
  1
１
 41
1.101333333333329
  7
EXCADSTD
 72
     5
 11
1913.137109400001
 21
255.7227782999998
 31
0.0
100
AcDbText
  0
TEXT
  5
535
330
1F
100
AcDbEntity
  8
スト_ル
  6
CONTINUOUS
 62
     2
100
AcDbText
 10
1446.5
 20
220.25
 30
0.0
 40
50.0
  1
ＵＳ６０１０ＳＮＦＥ
 41
0.8423728813559324
  7
EXCADSTD
 72
     5
 11
1801.5
 21
220.25
 31
0.0
100
AcDbText
  0
LINE
  5
536
330
1F
100
AcDbEntity
  8
スト_ル
  6
CONTINUOUS
 62
     6
100
AcDbLine
 10
1180.0
 20
2819.0
 30
0.0
 11
1880.0
 21
2819.0
 31
0.0
  0
LINE
  5
537
330
1F
100
AcDbEntity
  8
スト_ル
  6
CONTINUOUS
 62
     6
100
AcDbLine
 10
1180.0
 20
2819.0
 30
0.0
 11
1180.0
 21
2559.0
 31
0.0
  0
LINE
  5
538
330
1F
100
AcDbEntity
  8
スト_ル
  6
CONTINUOUS
 62
     6
100
AcDbLine
 10
1880.0
 20
2819.0
 30
0.0
 11
1880.0
 21
2559.0
 31
0.0
  0
TEXT
  5
539
330
1F
100
AcDbEntity
  8
スト_ル
  6
CONTINUOUS
 62
     2
100
AcDbText
 10
1231.0
 20
2756.0
 30
0.0
 40
55.0
  1
ＵＳ６０１０ＳＮＦＥの内訳
 41
0.9586776039817114
  7
EXCADSTD
 72
     5
 11
1810.999950408936
 21
2756.0
 31
0.0
100
AcDbText
  0
TEXT
  5
53A
330
1F
100
AcDbEntity
  8
スト_ル
  6
CONTINUOUS
 62
     2
100
AcDbText
 10
819.0000000000002
 20
219.0
 30
0.0
 40
50.0
  1
簡易水洗小便器（トラップ着脱式）
 41
0.8400000000000002
  7
EXCADSTD
 72
     5
 11
1389.0
 21
219.0
 31
0.0
100
AcDbText
  0
ARC
  5
53B
330
1F
100
AcDbEntity
  8
スト_ル
  6
CONTINUOUS
 62
     6
100
AcDbCircle
 10
1672.8100891
 20
1523.9952856397
 30
0.0
 40
10.00030520000001
100
AcDbArc
 50
323.1309814500001
 51
36.86901854999996
  0
LINE
  5
53C
330
1F
100
AcDbEntity
  8
スト_ル
  6
CONTINUOUS
 62
     6
100
AcDbLine
 10
1654.8103638
 20
1529.9953466397
 30
0.0
 11
1680.8104248
 21
1529.9953466397
 31
0.0
  0
ARC
  5
53D
330
1F
100
AcDbEntity
  8
スト_ル
  6
CONTINUOUS
 62
     6
100
AcDbCircle
 10
1662.8106995
 20
1523.9952856397
 30
0.0
 40
10.00030520000001
100
AcDbArc
 50
143.13098145
 51
216.86901855
  0
LINE
  5
53E
330
1F
100
AcDbEntity
  8
スト_ル
  6
CONTINUOUS
 62
     6
100
AcDbLine
 10
1654.8103638
 20
1517.9952246397
 30
0.0
 11
1680.8104248
 21
1517.9952246397
 31
0.0
  0
POLYLINE
  5
53F
330
1F
100
AcDbEntity
  8
スト_ル
  6
CONTINUOUS
 62
     6
100
AcDb2dPolyline
 66
     1
 10
0.0
 20
0.0
 30
0.0
 70
   128
  0
VERTEX
  5
540
330
53F
100
AcDbEntity
  8
スト_ル
  6
CONTINUOUS
 62
     6
100
AcDbVertex
100
AcDb2dVertex
 10
1682.7710266
 20
1523.9955908397
 30
0.0
  0
VERTEX
  5
541
330
53F
100
AcDbEntity
  8
スト_ル
  6
CONTINUOUS
 62
     6
100
AcDbVertex
100
AcDb2dVertex
 10
1682.7585144
 20
1524.4547277397
 30
0.0
  0
VERTEX
  5
542
330
53F
100
AcDbEntity
  8
スト_ル
  6
CONTINUOUS
 62
     6
100
AcDbVertex
100
AcDb2dVertex
 10
1682.721283
 20
1524.9106603397
 30
0.0
  0
VERTEX
  5
543
330
53F
100
AcDbEntity
  8
スト_ル
  6
CONTINUOUS
 62
     6
100
AcDbVertex
100
AcDb2dVertex
 10
1682.659789999999
 20
1525.3589636397
 30
0.0
  0
VERTEX
  5
544
330
53F
100
AcDbEntity
  8
スト_ル
  6
CONTINUOUS
 62
     6
100
AcDbVertex
100
AcDb2dVertex
 10
1682.5740356
 20
1525.7971960397
 30
0.0
  0
VERTEX
  5
545
330
53F
100
AcDbEntity
  8
スト_ル
  6
CONTINUOUS
 62
     6
100
AcDbVertex
100
AcDb2dVertex
 10
1682.4649353
 20
1526.2220007397
 30
0.0
  0
VERTEX
  5
546
330
53F
100
AcDbEntity
  8
スト_ル
  6
CONTINUOUS
 62
     6
100
AcDbVertex
100
AcDb2dVertex
 10
1682.333252
 20
1526.6294103397
 30
0.0
  0
VERTEX
  5
547
330
53F
100
AcDbEntity
  8
スト_ル
  6
CONTINUOUS
 62
     6
100
AcDbVertex
100
AcDb2dVertex
 10
1682.1800537
 20
1527.0169836397
 30
0.0
  0
VERTEX
  5
548
330
53F
100
AcDbEntity
  8
スト_ル
  6
CONTINUOUS
 62
     6
100
AcDbVertex
100
AcDb2dVertex
 10
1682.0065613
 20
1527.3818212397
 30
0.0
  0
VERTEX
  5
549
330
53F
100
AcDbEntity
  8
スト_ル
  6
CONTINUOUS
 62
     6
100
AcDbVertex
100
AcDb2dVertex
 10
1681.8135376
 20
1527.7204138397
 30
0.0
  0
VERTEX
  5
54A
330
53F
100
AcDbEntity
  8
スト_ル
  6
CONTINUOUS
 62
     6
100
AcDbVertex
100
AcDb2dVertex
 10
1681.6032715
 20
1528.0309301397
 30
0.0
  0
VERTEX
  5
54B
330
53F
100
AcDbEntity
  8
スト_ル
  6
CONTINUOUS
 62
     6
100
AcDbVertex
100
AcDb2dVertex
 10
1681.3771362
 20
1528.3106237397
 30
0.0
  0
VERTEX
  5
54C
330
53F
100
AcDbEntity
  8
スト_ル
  6
CONTINUOUS
 62
     6
100
AcDbVertex
100
AcDb2dVertex
 10
1681.1365051
 20
1528.5575109397
 30
0.0
  0
VERTEX
  5
54D
330
53F
100
AcDbEntity
  8
スト_ル
  6
CONTINUOUS
 62
     6
100
AcDbVertex
100
AcDb2dVertex
 10
1680.8835144
 20
1528.7697607397
 30
0.0
  0
VERTEX
  5
54E
330
53F
100
AcDbEntity
  8
スト_ル
  6
CONTINUOUS
 62
     6
100
AcDbVertex
100
AcDb2dVertex
 10
1680.6201477
 20
1528.9456945397
 30
0.0
  0
VERTEX
  5
54F
330
53F
100
AcDbEntity
  8
スト_ル
  6
CONTINUOUS
 62
     6
100
AcDbVertex
100
AcDb2dVertex
 10
1680.3479309
 20
1529.0836340397
 30
0.0
  0
VERTEX
  5
550
330
53F
100
AcDbEntity
  8
スト_ル
  6
CONTINUOUS
 62
     6
100
AcDbVertex
100
AcDb2dVertex
 10
1680.069458
 20
1529.1831213397
 30
0.0
  0
VERTEX
  5
551
330
53F
100
AcDbEntity
  8
スト_ル
  6
CONTINUOUS
 62
     6
100
AcDbVertex
100
AcDb2dVertex
 10
1679.7868652
 20
1529.2430883397
 30
0.0
  0
VERTEX
  5
552
330
53F
100
AcDbEntity
  8
スト_ル
  6
CONTINUOUS
 62
     6
100
AcDbVertex
100
AcDb2dVertex
 10
1679.501525899999
 20
1529.2632299397
 30
0.0
  0
VERTEX
  5
553
330
53F
100
AcDbEntity
  8
スト_ル
  6
CONTINUOUS
 62
     6
100
AcDbVertex
100
AcDb2dVertex
 10
1679.2164917
 20
1529.2432409397
 30
0.0
  0
VERTEX
  5
554
330
53F
100
AcDbEntity
  8
スト_ル
  6
CONTINUOUS
 62
     6
100
AcDbVertex
100
AcDb2dVertex
 10
1678.9335938
 20
1529.1832739397
 30
0.0
  0
VERTEX
  5
555
330
53F
100
AcDbEntity
  8
スト_ル
  6
CONTINUOUS
 62
     6
100
AcDbVertex
100
AcDb2dVertex
 10
1678.655426
 20
1529.0836340397
 30
0.0
  0
VERTEX
  5
556
330
53F
100
AcDbEntity
  8
スト_ル
  6
CONTINUOUS
 62
     6
100
AcDbVertex
100
AcDb2dVertex
 10
1678.3833618
 20
1528.9453893397
 30
0.0
  0
VERTEX
  5
557
330
53F
100
AcDbEntity
  8
スト_ル
  6
CONTINUOUS
 62
     6
100
AcDbVertex
100
AcDb2dVertex
 10
1678.1198425
 20
1528.7694555397
 30
0.0
  0
VERTEX
  5
558
330
53F
100
AcDbEntity
  8
スト_ル
  6
CONTINUOUS
 62
     6
100
AcDbVertex
100
AcDb2dVertex
 10
1677.867004399999
 20
1528.5575109397
 30
0.0
  0
VERTEX
  5
559
330
53F
100
AcDbEntity
  8
スト_ル
  6
CONTINUOUS
 62
     6
100
AcDbVertex
100
AcDb2dVertex
 10
1677.626525899999
 20
1528.3106237397
 30
0.0
  0
VERTEX
  5
55A
330
53F
100
AcDbEntity
  8
スト_ル
  6
CONTINUOUS
 62
     6
100
AcDbVertex
100
AcDb2dVertex
 10
1677.4000855
 20
1528.0309301397
 30
0.0
  0
VERTEX
  5
55B
330
53F
100
AcDbEntity
  8
スト_ル
  6
CONTINUOUS
 62
     6
100
AcDbVertex
100
AcDb2dVertex
 10
1677.189819299999
 20
1527.7204138397
 30
0.0
  0
VERTEX
  5
55C
330
53F
100
AcDbEntity
  8
スト_ル
  6
CONTINUOUS
 62
     6
100
AcDbVertex
100
AcDb2dVertex
 10
1676.9971008
 20
1527.3816686397
 30
0.0
  0
VERTEX
  5
55D
330
53F
100
AcDbEntity
  8
スト_ル
  6
CONTINUOUS
 62
     6
100
AcDbVertex
100
AcDb2dVertex
 10
1676.8234558
 20
1527.0171362397
 30
0.0
  0
VERTEX
  5
55E
330
53F
100
AcDbEntity
  8
スト_ル
  6
CONTINUOUS
 62
     6
100
AcDbVertex
100
AcDb2dVertex
 10
1676.6702576
 20
1526.6294103397
 30
0.0
  0
VERTEX
  5
55F
330
53F
100
AcDbEntity
  8
スト_ル
  6
CONTINUOUS
 62
     6
100
AcDbVertex
100
AcDb2dVertex
 10
1676.5385742
 20
1526.2218481397
 30
0.0
  0
VERTEX
  5
560
330
53F
100
AcDbEntity
  8
スト_ル
  6
CONTINUOUS
 62
     6
100
AcDbVertex
100
AcDb2dVertex
 10
1676.4293213
 20
1525.7973486397
 30
0.0
  0
VERTEX
  5
561
330
53F
100
AcDbEntity
  8
スト_ル
  6
CONTINUOUS
 62
     6
100
AcDbVertex
100
AcDb2dVertex
 10
1676.3438721
 20
1525.3589636397
 30
0.0
  0
VERTEX
  5
562
330
53F
100
AcDbEntity
  8
スト_ル
  6
CONTINUOUS
 62
     6
100
AcDbVertex
100
AcDb2dVertex
 10
1676.2822266
 20
1524.9103552397
 30
0.0
  0
VERTEX
  5
563
330
53F
100
AcDbEntity
  8
スト_ル
  6
CONTINUOUS
 62
     6
100
AcDbVertex
100
AcDb2dVertex
 10
1676.2451477
 20
1524.4547277397
 30
0.0
  0
VERTEX
  5
564
330
53F
100
AcDbEntity
  8
スト_ル
  6
CONTINUOUS
 62
     6
100
AcDbVertex
100
AcDb2dVertex
 10
1676.2324829
 20
1523.9955908397
 30
0.0
  0
VERTEX
  5
565
330
53F
100
AcDbEntity
  8
スト_ル
  6
CONTINUOUS
 62
     6
100
AcDbVertex
100
AcDb2dVertex
 10
1676.2449951
 20
1523.5366064397
 30
0.0
  0
VERTEX
  5
566
330
53F
100
AcDbEntity
  8
スト_ル
  6
CONTINUOUS
 62
     6
100
AcDbVertex
100
AcDb2dVertex
 10
1676.2823792
 20
1523.0811315397
 30
0.0
  0
VERTEX
  5
567
330
53F
100
AcDbEntity
  8
スト_ル
  6
CONTINUOUS
 62
     6
100
AcDbVertex
100
AcDb2dVertex
 10
1676.3438721
 20
1522.6319128397
 30
0.0
  0
VERTEX
  5
568
330
53F
100
AcDbEntity
  8
スト_ル
  6
CONTINUOUS
 62
     6
100
AcDbVertex
100
AcDb2dVertex
 10
1676.4296265
 20
1522.1936804397
 30
0.0
  0
VERTEX
  5
569
330
53F
100
AcDbEntity
  8
スト_ル
  6
CONTINUOUS
 62
     6
100
AcDbVertex
100
AcDb2dVertex
 10
1676.538879399999
 20
1521.7688757397
 30
0.0
  0
VERTEX
  5
56A
330
53F
100
AcDbEntity
  8
スト_ル
  6
CONTINUOUS
 62
     6
100
AcDbVertex
100
AcDb2dVertex
 10
1676.6702576
 20
1521.3613134397
 30
0.0
  0
VERTEX
  5
56B
330
53F
100
AcDbEntity
  8
スト_ル
  6
CONTINUOUS
 62
     6
100
AcDbVertex
100
AcDb2dVertex
 10
1676.8234558
 20
1520.9737402397
 30
0.0
  0
VERTEX
  5
56C
330
53F
100
AcDbEntity
  8
スト_ル
  6
CONTINUOUS
 62
     6
100
AcDbVertex
100
AcDb2dVertex
 10
1676.9971008
 20
1520.6089025397
 30
0.0
  0
VERTEX
  5
56D
330
53F
100
AcDbEntity
  8
スト_ル
  6
CONTINUOUS
 62
     6
100
AcDbVertex
100
AcDb2dVertex
 10
1677.189819299999
 20
1520.2704626397
 30
0.0
  0
VERTEX
  5
56E
330
53F
100
AcDbEntity
  8
スト_ル
  6
CONTINUOUS
 62
     6
100
AcDbVertex
100
AcDb2dVertex
 10
1677.4000855
 20
1519.9599462397
 30
0.0
  0
VERTEX
  5
56F
330
53F
100
AcDbEntity
  8
スト_ル
  6
CONTINUOUS
 62
     6
100
AcDbVertex
100
AcDb2dVertex
 10
1677.6263733
 20
1519.6802526397
 30
0.0
  0
VERTEX
  5
570
330
53F
100
AcDbEntity
  8
スト_ル
  6
CONTINUOUS
 62
     6
100
AcDbVertex
100
AcDb2dVertex
 10
1677.867004399999
 20
1519.4333654397
 30
0.0
  0
VERTEX
  5
571
330
53F
100
AcDbEntity
  8
スト_ル
  6
CONTINUOUS
 62
     6
100
AcDbVertex
100
AcDb2dVertex
 10
1678.1199951
 20
1519.2211157397
 30
0.0
  0
VERTEX
  5
572
330
53F
100
AcDbEntity
  8
スト_ル
  6
CONTINUOUS
 62
     6
100
AcDbVertex
100
AcDb2dVertex
 10
1678.3835144
 20
1519.0451818397
 30
0.0
  0
VERTEX
  5
573
330
53F
100
AcDbEntity
  8
スト_ル
  6
CONTINUOUS
 62
     6
100
AcDbVertex
100
AcDb2dVertex
 10
1678.655426
 20
1518.9070898397
 30
0.0
  0
VERTEX
  5
574
330
53F
100
AcDbEntity
  8
スト_ル
  6
CONTINUOUS
 62
     6
100
AcDbVertex
100
AcDb2dVertex
 10
1678.9338989
 20
1518.8076025397
 30
0.0
  0
VERTEX
  5
575
330
53F
100
AcDbEntity
  8
スト_ル
  6
CONTINUOUS
 62
     6
100
AcDbVertex
100
AcDb2dVertex
 10
1679.2166443
 20
1518.7476354397
 30
0.0
  0
VERTEX
  5
576
330
53F
100
AcDbEntity
  8
スト_ル
  6
CONTINUOUS
 62
     6
100
AcDbVertex
100
AcDb2dVertex
 10
1679.501525899999
 20
1518.7273413397
 30
0.0
  0
VERTEX
  5
577
330
53F
100
AcDbEntity
  8
スト_ル
  6
CONTINUOUS
 62
     6
100
AcDbVertex
100
AcDb2dVertex
 10
1679.7864075
 20
1518.7473303397
 30
0.0
  0
VERTEX
  5
578
330
53F
100
AcDbEntity
  8
スト_ル
  6
CONTINUOUS
 62
     6
100
AcDbVertex
100
AcDb2dVertex
 10
1680.0690002
 20
1518.8072973397
 30
0.0
  0
VERTEX
  5
579
330
53F
100
AcDbEntity
  8
スト_ル
  6
CONTINUOUS
 62
     6
100
AcDbVertex
100
AcDb2dVertex
 10
1680.3479309
 20
1518.9070898397
 30
0.0
  0
VERTEX
  5
57A
330
53F
100
AcDbEntity
  8
スト_ル
  6
CONTINUOUS
 62
     6
100
AcDbVertex
100
AcDb2dVertex
 10
1680.6199951
 20
1519.0453344397
 30
0.0
  0
VERTEX
  5
57B
330
53F
100
AcDbEntity
  8
スト_ル
  6
CONTINUOUS
 62
     6
100
AcDbVertex
100
AcDb2dVertex
 10
1680.883667
 20
1519.2212683397
 30
0.0
  0
SEQEND
  5
57C
330
53F
100
AcDbEntity
  8
スト_ル
  6
CONTINUOUS
 62
     6
  0
POLYLINE
  5
57D
330
1F
100
AcDbEntity
  8
スト_ル
  6
CONTINUOUS
 62
     6
100
AcDb2dPolyline
 66
     1
 10
0.0
 20
0.0
 30
0.0
 70
   128
  0
VERTEX
  5
57E
330
57D
100
AcDbEntity
  8
スト_ル
  6
CONTINUOUS
 62
     6
100
AcDbVertex
100
AcDb2dVertex
 10
1680.883667
 20
1519.2212683397
 30
0.0
  0
VERTEX
  5
57F
330
57D
100
AcDbEntity
  8
スト_ル
  6
CONTINUOUS
 62
     6
100
AcDbVertex
100
AcDb2dVertex
 10
1681.1365051
 20
1519.4333654397
 30
0.0
  0
VERTEX
  5
580
330
57D
100
AcDbEntity
  8
スト_ル
  6
CONTINUOUS
 62
     6
100
AcDbVertex
100
AcDb2dVertex
 10
1681.3771362
 20
1519.6802526397
 30
0.0
  0
VERTEX
  5
581
330
57D
100
AcDbEntity
  8
スト_ル
  6
CONTINUOUS
 62
     6
100
AcDbVertex
100
AcDb2dVertex
 10
1681.6034241
 20
1519.9599462397
 30
0.0
  0
VERTEX
  5
582
330
57D
100
AcDbEntity
  8
スト_ル
  6
CONTINUOUS
 62
     6
100
AcDbVertex
100
AcDb2dVertex
 10
1681.8135376
 20
1520.2704626397
 30
0.0
  0
VERTEX
  5
583
330
57D
100
AcDbEntity
  8
スト_ル
  6
CONTINUOUS
 62
     6
100
AcDbVertex
100
AcDb2dVertex
 10
1682.0062561
 20
1520.6092077397
 30
0.0
  0
VERTEX
  5
584
330
57D
100
AcDbEntity
  8
スト_ル
  6
CONTINUOUS
 62
     6
100
AcDbVertex
100
AcDb2dVertex
 10
1682.1800537
 20
1520.9737402397
 30
0.0
  0
VERTEX
  5
585
330
57D
100
AcDbEntity
  8
スト_ル
  6
CONTINUOUS
 62
     6
100
AcDbVertex
100
AcDb2dVertex
 10
1682.333252
 20
1521.3613134397
 30
0.0
  0
VERTEX
  5
586
330
57D
100
AcDbEntity
  8
スト_ル
  6
CONTINUOUS
 62
     6
100
AcDbVertex
100
AcDb2dVertex
 10
1682.4649353
 20
1521.7688757397
 30
0.0
  0
VERTEX
  5
587
330
57D
100
AcDbEntity
  8
スト_ル
  6
CONTINUOUS
 62
     6
100
AcDbVertex
100
AcDb2dVertex
 10
1682.5743408
 20
1522.1933752397
 30
0.0
  0
VERTEX
  5
588
330
57D
100
AcDbEntity
  8
スト_ル
  6
CONTINUOUS
 62
     6
100
AcDbVertex
100
AcDb2dVertex
 10
1682.659789999999
 20
1522.6319128397
 30
0.0
  0
SEQEND
  5
589
330
57D
100
AcDbEntity
  8
スト_ル
  6
CONTINUOUS
 62
     6
  0
POLYLINE
  5
58A
330
1F
100
AcDbEntity
  8
スト_ル
  6
CONTINUOUS
 62
     6
100
AcDb2dPolyline
 66
     1
 10
0.0
 20
0.0
 30
0.0
 70
   128
  0
VERTEX
  5
58B
330
58A
100
AcDbEntity
  8
スト_ル
  6
CONTINUOUS
 62
     6
100
AcDbVertex
100
AcDb2dVertex
 10
1682.659789999999
 20
1522.6319128397
 30
0.0
  0
VERTEX
  5
58C
330
58A
100
AcDbEntity
  8
スト_ル
  6
CONTINUOUS
 62
     6
100
AcDbVertex
100
AcDb2dVertex
 10
1682.721435499999
 20
1523.0805212397
 30
0.0
  0
VERTEX
  5
58D
330
58A
100
AcDbEntity
  8
スト_ル
  6
CONTINUOUS
 62
     6
100
AcDbVertex
100
AcDb2dVertex
 10
1682.758667
 20
1523.5361486397
 30
0.0
  0
VERTEX
  5
58E
330
58A
100
AcDbEntity
  8
スト_ル
  6
CONTINUOUS
 62
     6
100
AcDbVertex
100
AcDb2dVertex
 10
1682.7711792
 20
1523.9949804397
 30
0.0
  0
SEQEND
  5
58F
330
58A
100
AcDbEntity
  8
スト_ル
  6
CONTINUOUS
 62
     6
  0
POLYLINE
  5
590
330
1F
100
AcDbEntity
  8
スト_ル
  6
CONTINUOUS
 62
     6
100
AcDb2dPolyline
 66
     1
 10
0.0
 20
0.0
 30
0.0
 70
   128
  0
VERTEX
  5
591
330
590
100
AcDbEntity
  8
スト_ル
  6
CONTINUOUS
 62
     6
100
AcDbVertex
100
AcDb2dVertex
 10
1674.3486328
 20
1523.9955908397
 30
0.0
  0
VERTEX
  5
592
330
590
100
AcDbEntity
  8
スト_ル
  6
CONTINUOUS
 62
     6
100
AcDbVertex
100
AcDb2dVertex
 10
1674.323761
 20
1524.4547277397
 30
0.0
  0
VERTEX
  5
593
330
590
100
AcDbEntity
  8
スト_ル
  6
CONTINUOUS
 62
     6
100
AcDbVertex
100
AcDb2dVertex
 10
1674.2492981
 20
1524.9106603397
 30
0.0
  0
VERTEX
  5
594
330
590
100
AcDbEntity
  8
スト_ル
  6
CONTINUOUS
 62
     6
100
AcDbVertex
100
AcDb2dVertex
 10
1674.1261597
 20
1525.3589636397
 30
0.0
  0
VERTEX
  5
595
330
590
100
AcDbEntity
  8
スト_ル
  6
CONTINUOUS
 62
     6
100
AcDbVertex
100
AcDb2dVertex
 10
1673.954650899999
 20
1525.7971960397
 30
0.0
  0
VERTEX
  5
596
330
590
100
AcDbEntity
  8
スト_ル
  6
CONTINUOUS
 62
     6
100
AcDbVertex
100
AcDb2dVertex
 10
1673.7364502
 20
1526.2220007397
 30
0.0
  0
VERTEX
  5
597
330
590
100
AcDbEntity
  8
スト_ル
  6
CONTINUOUS
 62
     6
100
AcDbVertex
100
AcDb2dVertex
 10
1673.4729309
 20
1526.6294103397
 30
0.0
  0
VERTEX
  5
598
330
590
100
AcDbEntity
  8
スト_ル
  6
CONTINUOUS
 62
     6
100
AcDbVertex
100
AcDb2dVertex
 10
1673.166381799999
 20
1527.0169836397
 30
0.0
  0
VERTEX
  5
599
330
590
100
AcDbEntity
  8
スト_ル
  6
CONTINUOUS
 62
     6
100
AcDbVertex
100
AcDb2dVertex
 10
1672.819244399999
 20
1527.3818212397
 30
0.0
  0
VERTEX
  5
59A
330
590
100
AcDbEntity
  8
スト_ル
  6
CONTINUOUS
 62
     6
100
AcDbVertex
100
AcDb2dVertex
 10
1672.4336548
 20
1527.7204138397
 30
0.0
  0
VERTEX
  5
59B
330
590
100
AcDbEntity
  8
スト_ル
  6
CONTINUOUS
 62
     6
100
AcDbVertex
100
AcDb2dVertex
 10
1672.01297
 20
1528.0309301397
 30
0.0
  0
VERTEX
  5
59C
330
590
100
AcDbEntity
  8
スト_ル
  6
CONTINUOUS
 62
     6
100
AcDbVertex
100
AcDb2dVertex
 10
1671.5603943
 20
1528.3106237397
 30
0.0
  0
VERTEX
  5
59D
330
590
100
AcDbEntity
  8
スト_ル
  6
CONTINUOUS
 62
     6
100
AcDbVertex
100
AcDb2dVertex
 10
1671.079895
 20
1528.5575109397
 30
0.0
  0
VERTEX
  5
59E
330
590
100
AcDbEntity
  8
スト_ル
  6
CONTINUOUS
 62
     6
100
AcDbVertex
100
AcDb2dVertex
 10
1670.5740662
 20
1528.7697607397
 30
0.0
  0
VERTEX
  5
59F
330
590
100
AcDbEntity
  8
スト_ル
  6
CONTINUOUS
 62
     6
100
AcDbVertex
100
AcDb2dVertex
 10
1670.0471802
 20
1528.9456945397
 30
0.0
  0
VERTEX
  5
5A0
330
590
100
AcDbEntity
  8
スト_ル
  6
CONTINUOUS
 62
     6
100
AcDbVertex
100
AcDb2dVertex
 10
1669.502594
 20
1529.0836340397
 30
0.0
  0
VERTEX
  5
5A1
330
590
100
AcDbEntity
  8
スト_ル
  6
CONTINUOUS
 62
     6
100
AcDbVertex
100
AcDb2dVertex
 10
1668.9456482
 20
1529.1831213397
 30
0.0
  0
VERTEX
  5
5A2
330
590
100
AcDbEntity
  8
スト_ル
  6
CONTINUOUS
 62
     6
100
AcDbVertex
100
AcDb2dVertex
 10
1668.380004899999
 20
1529.2430883397
 30
0.0
  0
VERTEX
  5
5A3
330
590
100
AcDbEntity
  8
スト_ル
  6
CONTINUOUS
 62
     6
100
AcDbVertex
100
AcDb2dVertex
 10
1667.8105469
 20
1529.2632299397
 30
0.0
  0
VERTEX
  5
5A4
330
590
100
AcDbEntity
  8
スト_ル
  6
CONTINUOUS
 62
     6
100
AcDbVertex
100
AcDb2dVertex
 10
1667.2406311
 20
1529.2432409397
 30
0.0
  0
VERTEX
  5
5A5
330
590
100
AcDbEntity
  8
スト_ル
  6
CONTINUOUS
 62
     6
100
AcDbVertex
100
AcDb2dVertex
 10
1666.675140399999
 20
1529.1832739397
 30
0.0
  0
VERTEX
  5
5A6
330
590
100
AcDbEntity
  8
スト_ル
  6
CONTINUOUS
 62
     6
100
AcDbVertex
100
AcDb2dVertex
 10
1666.1184998
 20
1529.0836340397
 30
0.0
  0
VERTEX
  5
5A7
330
590
100
AcDbEntity
  8
スト_ル
  6
CONTINUOUS
 62
     6
100
AcDbVertex
100
AcDb2dVertex
 10
1665.5745239
 20
1528.9453893397
 30
0.0
  0
VERTEX
  5
5A8
330
590
100
AcDbEntity
  8
スト_ル
  6
CONTINUOUS
 62
     6
100
AcDbVertex
100
AcDb2dVertex
 10
1665.0477905
 20
1528.7694555397
 30
0.0
  0
VERTEX
  5
5A9
330
590
100
AcDbEntity
  8
スト_ル
  6
CONTINUOUS
 62
     6
100
AcDbVertex
100
AcDb2dVertex
 10
1664.5411987
 20
1528.5575109397
 30
0.0
  0
VERTEX
  5
5AA
330
590
100
AcDbEntity
  8
スト_ル
  6
CONTINUOUS
 62
     6
100
AcDbVertex
100
AcDb2dVertex
 10
1664.0600891
 20
1528.3106237397
 30
0.0
  0
VERTEX
  5
5AB
330
590
100
AcDbEntity
  8
スト_ル
  6
CONTINUOUS
 62
     6
100
AcDbVertex
100
AcDb2dVertex
 10
1663.6075134
 20
1528.0309301397
 30
0.0
  0
VERTEX
  5
5AC
330
590
100
AcDbEntity
  8
スト_ル
  6
CONTINUOUS
 62
     6
100
AcDbVertex
100
AcDb2dVertex
 10
1663.187439
 20
1527.7204138397
 30
0.0
  0
VERTEX
  5
5AD
330
590
100
AcDbEntity
  8
スト_ル
  6
CONTINUOUS
 62
     6
100
AcDbVertex
100
AcDb2dVertex
 10
1662.802154499999
 20
1527.3816686397
 30
0.0
  0
VERTEX
  5
5AE
330
590
100
AcDbEntity
  8
スト_ル
  6
CONTINUOUS
 62
     6
100
AcDbVertex
100
AcDb2dVertex
 10
1662.455169699999
 20
1527.0171362397
 30
0.0
  0
VERTEX
  5
5AF
330
590
100
AcDbEntity
  8
スト_ル
  6
CONTINUOUS
 62
     6
100
AcDbVertex
100
AcDb2dVertex
 10
1662.148162799999
 20
1526.6294103397
 30
0.0
  0
VERTEX
  5
5B0
330
590
100
AcDbEntity
  8
スト_ル
  6
CONTINUOUS
 62
     6
100
AcDbVertex
100
AcDb2dVertex
 10
1661.8847961
 20
1526.2218481397
 30
0.0
  0
VERTEX
  5
5B1
330
590
100
AcDbEntity
  8
スト_ル
  6
CONTINUOUS
 62
     6
100
AcDbVertex
100
AcDb2dVertex
 10
1661.6665955
 20
1525.7973486397
 30
0.0
  0
VERTEX
  5
5B2
330
590
100
AcDbEntity
  8
スト_ル
  6
CONTINUOUS
 62
     6
100
AcDbVertex
100
AcDb2dVertex
 10
1661.4950867
 20
1525.3589636397
 30
0.0
  0
VERTEX
  5
5B3
330
590
100
AcDbEntity
  8
スト_ル
  6
CONTINUOUS
 62
     6
100
AcDbVertex
100
AcDb2dVertex
 10
1661.3716431
 20
1524.9103552397
 30
0.0
  0
VERTEX
  5
5B4
330
590
100
AcDbEntity
  8
スト_ル
  6
CONTINUOUS
 62
     6
100
AcDbVertex
100
AcDb2dVertex
 10
1661.2971802
 20
1524.4547277397
 30
0.0
  0
VERTEX
  5
5B5
330
590
100
AcDbEntity
  8
スト_ル
  6
CONTINUOUS
 62
     6
100
AcDbVertex
100
AcDb2dVertex
 10
1661.2723084
 20
1523.9955908397
 30
0.0
  0
VERTEX
  5
5B6
330
590
100
AcDbEntity
  8
スト_ル
  6
CONTINUOUS
 62
     6
100
AcDbVertex
100
AcDb2dVertex
 10
1661.2971802
 20
1523.5366064397
 30
0.0
  0
VERTEX
  5
5B7
330
590
100
AcDbEntity
  8
スト_ル
  6
CONTINUOUS
 62
     6
100
AcDbVertex
100
AcDb2dVertex
 10
1661.3716431
 20
1523.0811315397
 30
0.0
  0
VERTEX
  5
5B8
330
590
100
AcDbEntity
  8
スト_ル
  6
CONTINUOUS
 62
     6
100
AcDbVertex
100
AcDb2dVertex
 10
1661.4950867
 20
1522.6319128397
 30
0.0
  0
VERTEX
  5
5B9
330
590
100
AcDbEntity
  8
スト_ル
  6
CONTINUOUS
 62
     6
100
AcDbVertex
100
AcDb2dVertex
 10
1661.6665955
 20
1522.1936804397
 30
0.0
  0
VERTEX
  5
5BA
330
590
100
AcDbEntity
  8
スト_ル
  6
CONTINUOUS
 62
     6
100
AcDbVertex
100
AcDb2dVertex
 10
1661.8847961
 20
1521.7688757397
 30
0.0
  0
VERTEX
  5
5BB
330
590
100
AcDbEntity
  8
スト_ル
  6
CONTINUOUS
 62
     6
100
AcDbVertex
100
AcDb2dVertex
 10
1662.148162799999
 20
1521.3613134397
 30
0.0
  0
VERTEX
  5
5BC
330
590
100
AcDbEntity
  8
スト_ル
  6
CONTINUOUS
 62
     6
100
AcDbVertex
100
AcDb2dVertex
 10
1662.4547119
 20
1520.9737402397
 30
0.0
  0
VERTEX
  5
5BD
330
590
100
AcDbEntity
  8
スト_ル
  6
CONTINUOUS
 62
     6
100
AcDbVertex
100
AcDb2dVertex
 10
1662.8018494
 20
1520.6089025397
 30
0.0
  0
VERTEX
  5
5BE
330
590
100
AcDbEntity
  8
スト_ル
  6
CONTINUOUS
 62
     6
100
AcDbVertex
100
AcDb2dVertex
 10
1663.187439
 20
1520.2704626397
 30
0.0
  0
VERTEX
  5
5BF
330
590
100
AcDbEntity
  8
スト_ル
  6
CONTINUOUS
 62
     6
100
AcDbVertex
100
AcDb2dVertex
 10
1663.6081238
 20
1519.9599462397
 30
0.0
  0
VERTEX
  5
5C0
330
590
100
AcDbEntity
  8
スト_ル
  6
CONTINUOUS
 62
     6
100
AcDbVertex
100
AcDb2dVertex
 10
1664.0606995
 20
1519.6802526397
 30
0.0
  0
VERTEX
  5
5C1
330
590
100
AcDbEntity
  8
スト_ル
  6
CONTINUOUS
 62
     6
100
AcDbVertex
100
AcDb2dVertex
 10
1664.5411987
 20
1519.4333654397
 30
0.0
  0
VERTEX
  5
5C2
330
590
100
AcDbEntity
  8
スト_ル
  6
CONTINUOUS
 62
     6
100
AcDbVertex
100
AcDb2dVertex
 10
1665.0470276
 20
1519.2211157397
 30
0.0
  0
VERTEX
  5
5C3
330
590
100
AcDbEntity
  8
スト_ル
  6
CONTINUOUS
 62
     6
100
AcDbVertex
100
AcDb2dVertex
 10
1665.5739136
 20
1519.0451818397
 30
0.0
  0
VERTEX
  5
5C4
330
590
100
AcDbEntity
  8
スト_ル
  6
CONTINUOUS
 62
     6
100
AcDbVertex
100
AcDb2dVertex
 10
1666.1184998
 20
1518.9070898397
 30
0.0
  0
VERTEX
  5
5C5
330
590
100
AcDbEntity
  8
スト_ル
  6
CONTINUOUS
 62
     6
100
AcDbVertex
100
AcDb2dVertex
 10
1666.6754456
 20
1518.8076025397
 30
0.0
  0
VERTEX
  5
5C6
330
590
100
AcDbEntity
  8
スト_ル
  6
CONTINUOUS
 62
     6
100
AcDbVertex
100
AcDb2dVertex
 10
1667.2410889
 20
1518.7476354397
 30
0.0
  0
VERTEX
  5
5C7
330
590
100
AcDbEntity
  8
スト_ル
  6
CONTINUOUS
 62
     6
100
AcDbVertex
100
AcDb2dVertex
 10
1667.8105469
 20
1518.7273413397
 30
0.0
  0
VERTEX
  5
5C8
330
590
100
AcDbEntity
  8
スト_ル
  6
CONTINUOUS
 62
     6
100
AcDbVertex
100
AcDb2dVertex
 10
1668.3804626
 20
1518.7473303397
 30
0.0
  0
VERTEX
  5
5C9
330
590
100
AcDbEntity
  8
スト_ル
  6
CONTINUOUS
 62
     6
100
AcDbVertex
100
AcDb2dVertex
 10
1668.9459534
 20
1518.8072973397
 30
0.0
  0
VERTEX
  5
5CA
330
590
100
AcDbEntity
  8
スト_ル
  6
CONTINUOUS
 62
     6
100
AcDbVertex
100
AcDb2dVertex
 10
1669.502594
 20
1518.9070898397
 30
0.0
  0
VERTEX
  5
5CB
330
590
100
AcDbEntity
  8
スト_ル
  6
CONTINUOUS
 62
     6
100
AcDbVertex
100
AcDb2dVertex
 10
1670.0465698
 20
1519.0453344397
 30
0.0
  0
VERTEX
  5
5CC
330
590
100
AcDbEntity
  8
スト_ル
  6
CONTINUOUS
 62
     6
100
AcDbVertex
100
AcDb2dVertex
 10
1670.5733032
 20
1519.2212683397
 30
0.0
  0
SEQEND
  5
5CD
330
590
100
AcDbEntity
  8
スト_ル
  6
CONTINUOUS
 62
     6
  0
POLYLINE
  5
5CE
330
1F
100
AcDbEntity
  8
スト_ル
  6
CONTINUOUS
 62
     6
100
AcDb2dPolyline
 66
     1
 10
0.0
 20
0.0
 30
0.0
 70
   128
  0
VERTEX
  5
5CF
330
5CE
100
AcDbEntity
  8
スト_ル
  6
CONTINUOUS
 62
     6
100
AcDbVertex
100
AcDb2dVertex
 10
1670.5733032
 20
1519.2212683397
 30
0.0
  0
VERTEX
  5
5D0
330
5CE
100
AcDbEntity
  8
スト_ル
  6
CONTINUOUS
 62
     6
100
AcDbVertex
100
AcDb2dVertex
 10
1671.079895
 20
1519.4333654397
 30
0.0
  0
VERTEX
  5
5D1
330
5CE
100
AcDbEntity
  8
スト_ル
  6
CONTINUOUS
 62
     6
100
AcDbVertex
100
AcDb2dVertex
 10
1671.561004599999
 20
1519.6802526397
 30
0.0
  0
VERTEX
  5
5D2
330
5CE
100
AcDbEntity
  8
スト_ル
  6
CONTINUOUS
 62
     6
100
AcDbVertex
100
AcDb2dVertex
 10
1672.0135803
 20
1519.9599462397
 30
0.0
  0
VERTEX
  5
5D3
330
5CE
100
AcDbEntity
  8
スト_ル
  6
CONTINUOUS
 62
     6
100
AcDbVertex
100
AcDb2dVertex
 10
1672.4336548
 20
1520.2704626397
 30
0.0
  0
VERTEX
  5
5D4
330
5CE
100
AcDbEntity
  8
スト_ル
  6
CONTINUOUS
 62
     6
100
AcDbVertex
100
AcDb2dVertex
 10
1672.8189392
 20
1520.6092077397
 30
0.0
  0
VERTEX
  5
5D5
330
5CE
100
AcDbEntity
  8
スト_ル
  6
CONTINUOUS
 62
     6
100
AcDbVertex
100
AcDb2dVertex
 10
1673.1659241
 20
1520.9737402397
 30
0.0
  0
VERTEX
  5
5D6
330
5CE
100
AcDbEntity
  8
スト_ル
  6
CONTINUOUS
 62
     6
100
AcDbVertex
100
AcDb2dVertex
 10
1673.4729309
 20
1521.3613134397
 30
0.0
  0
VERTEX
  5
5D7
330
5CE
100
AcDbEntity
  8
スト_ル
  6
CONTINUOUS
 62
     6
100
AcDbVertex
100
AcDb2dVertex
 10
1673.7362976
 20
1521.7688757397
 30
0.0
  0
VERTEX
  5
5D8
330
5CE
100
AcDbEntity
  8
スト_ル
  6
CONTINUOUS
 62
     6
100
AcDbVertex
100
AcDb2dVertex
 10
1673.9544983
 20
1522.1933752397
 30
0.0
  0
VERTEX
  5
5D9
330
5CE
100
AcDbEntity
  8
スト_ル
  6
CONTINUOUS
 62
     6
100
AcDbVertex
100
AcDb2dVertex
 10
1674.1261597
 20
1522.6319128397
 30
0.0
  0
SEQEND
  5
5DA
330
5CE
100
AcDbEntity
  8
スト_ル
  6
CONTINUOUS
 62
     6
  0
POLYLINE
  5
5DB
330
1F
100
AcDbEntity
  8
スト_ル
  6
CONTINUOUS
 62
     6
100
AcDb2dPolyline
 66
     1
 10
0.0
 20
0.0
 30
0.0
 70
   128
  0
VERTEX
  5
5DC
330
5DB
100
AcDbEntity
  8
スト_ル
  6
CONTINUOUS
 62
     6
100
AcDbVertex
100
AcDb2dVertex
 10
1674.1261597
 20
1522.6319128397
 30
0.0
  0
VERTEX
  5
5DD
330
5DB
100
AcDbEntity
  8
スト_ル
  6
CONTINUOUS
 62
     6
100
AcDbVertex
100
AcDb2dVertex
 10
1674.2496033
 20
1523.0805212397
 30
0.0
  0
VERTEX
  5
5DE
330
5DB
100
AcDbEntity
  8
スト_ル
  6
CONTINUOUS
 62
     6
100
AcDbVertex
100
AcDb2dVertex
 10
1674.3240662
 20
1523.5361486397
 30
0.0
  0
VERTEX
  5
5DF
330
5DB
100
AcDbEntity
  8
スト_ル
  6
CONTINUOUS
 62
     6
100
AcDbVertex
100
AcDb2dVertex
 10
1674.3492432
 20
1523.9949804397
 30
0.0
  0
SEQEND
  5
5E0
330
5DB
100
AcDbEntity
  8
スト_ル
  6
CONTINUOUS
 62
     6
  0
POLYLINE
  5
5E1
330
1F
100
AcDbEntity
  8
スト_ル
  6
CONTINUOUS
 62
     6
100
AcDb2dPolyline
 66
     1
 10
0.0
 20
0.0
 30
0.0
 70
   128
  0
VERTEX
  5
5E2
330
5E1
100
AcDbEntity
  8
スト_ル
  6
CONTINUOUS
 62
     6
100
AcDbVertex
100
AcDb2dVertex
 10
1659.3887634
 20
1523.9955908397
 30
0.0
  0
VERTEX
  5
5E3
330
5E1
100
AcDbEntity
  8
スト_ル
  6
CONTINUOUS
 62
     6
100
AcDbVertex
100
AcDb2dVertex
 10
1659.3762512
 20
1524.4547277397
 30
0.0
  0
VERTEX
  5
5E4
330
5E1
100
AcDbEntity
  8
スト_ル
  6
CONTINUOUS
 62
     6
100
AcDbVertex
100
AcDb2dVertex
 10
1659.338867199999
 20
1524.9106603397
 30
0.0
  0
VERTEX
  5
5E5
330
5E1
100
AcDbEntity
  8
スト_ル
  6
CONTINUOUS
 62
     6
100
AcDbVertex
100
AcDb2dVertex
 10
1659.2764587
 20
1525.3589636397
 30
0.0
  0
VERTEX
  5
5E6
330
5E1
100
AcDbEntity
  8
スト_ル
  6
CONTINUOUS
 62
     6
100
AcDbVertex
100
AcDb2dVertex
 10
1659.190094
 20
1525.7971960397
 30
0.0
  0
VERTEX
  5
5E7
330
5E1
100
AcDbEntity
  8
スト_ル
  6
CONTINUOUS
 62
     6
100
AcDbVertex
100
AcDb2dVertex
 10
1659.0802307
 20
1526.2220007397
 30
0.0
  0
VERTEX
  5
5E8
330
5E1
100
AcDbEntity
  8
スト_ル
  6
CONTINUOUS
 62
     6
100
AcDbVertex
100
AcDb2dVertex
 10
1658.947937
 20
1526.6294103397
 30
0.0
  0
VERTEX
  5
5E9
330
5E1
100
AcDbEntity
  8
スト_ル
  6
CONTINUOUS
 62
     6
100
AcDbVertex
100
AcDb2dVertex
 10
1658.7936707
 20
1527.0169836397
 30
0.0
  0
VERTEX
  5
5EA
330
5E1
100
AcDbEntity
  8
スト_ル
  6
CONTINUOUS
 62
     6
100
AcDbVertex
100
AcDb2dVertex
 10
1658.6189575
 20
1527.3818212397
 30
0.0
  0
VERTEX
  5
5EB
330
5E1
100
AcDbEntity
  8
スト_ル
  6
CONTINUOUS
 62
     6
100
AcDbVertex
100
AcDb2dVertex
 10
1658.4253235
 20
1527.7204138397
 30
0.0
  0
VERTEX
  5
5EC
330
5E1
100
AcDbEntity
  8
スト_ル
  6
CONTINUOUS
 62
     6
100
AcDbVertex
100
AcDb2dVertex
 10
1658.2138367
 20
1528.0309301397
 30
0.0
  0
VERTEX
  5
5ED
330
5E1
100
AcDbEntity
  8
スト_ル
  6
CONTINUOUS
 62
     6
100
AcDbVertex
100
AcDb2dVertex
 10
1657.986175499999
 20
1528.3107763397
 30
0.0
  0
VERTEX
  5
5EE
330
5E1
100
AcDbEntity
  8
スト_ル
  6
CONTINUOUS
 62
     6
100
AcDbVertex
100
AcDb2dVertex
 10
1657.7443237
 20
1528.5576635397
 30
0.0
  0
VERTEX
  5
5EF
330
5E1
100
AcDbEntity
  8
スト_ル
  6
CONTINUOUS
 62
     6
100
AcDbVertex
100
AcDb2dVertex
 10
1657.4898071
 20
1528.7697607397
 30
0.0
  0
VERTEX
  5
5F0
330
5E1
100
AcDbEntity
  8
スト_ル
  6
CONTINUOUS
 62
     6
100
AcDbVertex
100
AcDb2dVertex
 10
1657.2249146
 20
1528.9456945397
 30
0.0
  0
VERTEX
  5
5F1
330
5E1
100
AcDbEntity
  8
スト_ル
  6
CONTINUOUS
 62
     6
100
AcDbVertex
100
AcDb2dVertex
 10
1656.9508667
 20
1529.0836340397
 30
0.0
  0
VERTEX
  5
5F2
330
5E1
100
AcDbEntity
  8
スト_ル
  6
CONTINUOUS
 62
     6
100
AcDbVertex
100
AcDb2dVertex
 10
1656.6707153
 20
1529.1829687397
 30
0.0
  0
VERTEX
  5
5F3
330
5E1
100
AcDbEntity
  8
スト_ル
  6
CONTINUOUS
 62
     6
100
AcDbVertex
100
AcDb2dVertex
 10
1656.3864441
 20
1529.2429357397
 30
0.0
  0
VERTEX
  5
5F4
330
5E1
100
AcDbEntity
  8
スト_ル
  6
CONTINUOUS
 62
     6
100
AcDbVertex
100
AcDb2dVertex
 10
1656.0994263
 20
1529.2632299397
 30
0.0
  0
VERTEX
  5
5F5
330
5E1
100
AcDbEntity
  8
スト_ル
  6
CONTINUOUS
 62
     6
100
AcDbVertex
100
AcDb2dVertex
 10
1655.8127136
 20
1529.2432409397
 30
0.0
  0
VERTEX
  5
5F6
330
5E1
100
AcDbEntity
  8
スト_ル
  6
CONTINUOUS
 62
     6
100
AcDbVertex
100
AcDb2dVertex
 10
1655.5281372
 20
1529.1832739397
 30
0.0
  0
VERTEX
  5
5F7
330
5E1
100
AcDbEntity
  8
スト_ル
  6
CONTINUOUS
 62
     6
100
AcDbVertex
100
AcDb2dVertex
 10
1655.248291
 20
1529.0836340397
 30
0.0
  0
VERTEX
  5
5F8
330
5E1
100
AcDbEntity
  8
スト_ル
  6
CONTINUOUS
 62
     6
100
AcDbVertex
100
AcDb2dVertex
 10
1654.9747009
 20
1528.9453893397
 30
0.0
  0
VERTEX
  5
5F9
330
5E1
100
AcDbEntity
  8
スト_ル
  6
CONTINUOUS
 62
     6
100
AcDbVertex
100
AcDb2dVertex
 10
1654.7095032
 20
1528.7694555397
 30
0.0
  0
VERTEX
  5
5FA
330
5E1
100
AcDbEntity
  8
スト_ル
  6
CONTINUOUS
 62
     6
100
AcDbVertex
100
AcDb2dVertex
 10
1654.4549866
 20
1528.5576635397
 30
0.0
  0
VERTEX
  5
5FB
330
5E1
100
AcDbEntity
  8
スト_ル
  6
CONTINUOUS
 62
     6
100
AcDbVertex
100
AcDb2dVertex
 10
1654.212982199999
 20
1528.3107763397
 30
0.0
  0
VERTEX
  5
5FC
330
5E1
100
AcDbEntity
  8
スト_ル
  6
CONTINUOUS
 62
     6
100
AcDbVertex
100
AcDb2dVertex
 10
1653.985320999999
 20
1528.0309301397
 30
0.0
  0
VERTEX
  5
5FD
330
5E1
100
AcDbEntity
  8
スト_ル
  6
CONTINUOUS
 62
     6
100
AcDbVertex
100
AcDb2dVertex
 10
1653.7738342
 20
1527.7204138397
 30
0.0
  0
VERTEX
  5
5FE
330
5E1
100
AcDbEntity
  8
スト_ル
  6
CONTINUOUS
 62
     6
100
AcDbVertex
100
AcDb2dVertex
 10
1653.5800476
 20
1527.3815161397
 30
0.0
  0
VERTEX
  5
5FF
330
5E1
100
AcDbEntity
  8
スト_ル
  6
CONTINUOUS
 62
     6
100
AcDbVertex
100
AcDb2dVertex
 10
1653.4053345
 20
1527.0169836397
 30
0.0
  0
VERTEX
  5
600
330
5E1
100
AcDbEntity
  8
スト_ル
  6
CONTINUOUS
 62
     6
100
AcDbVertex
100
AcDb2dVertex
 10
1653.2512207
 20
1526.6294103397
 30
0.0
  0
VERTEX
  5
601
330
5E1
100
AcDbEntity
  8
スト_ル
  6
CONTINUOUS
 62
     6
100
AcDbVertex
100
AcDb2dVertex
 10
1653.1187744
 20
1526.2218481397
 30
0.0
  0
VERTEX
  5
602
330
5E1
100
AcDbEntity
  8
スト_ル
  6
CONTINUOUS
 62
     6
100
AcDbVertex
100
AcDb2dVertex
 10
1653.0092163
 20
1525.7973486397
 30
0.0
  0
VERTEX
  5
603
330
5E1
100
AcDbEntity
  8
スト_ル
  6
CONTINUOUS
 62
     6
100
AcDbVertex
100
AcDb2dVertex
 10
1652.922699
 20
1525.3589636397
 30
0.0
  0
VERTEX
  5
604
330
5E1
100
AcDbEntity
  8
スト_ル
  6
CONTINUOUS
 62
     6
100
AcDbVertex
100
AcDb2dVertex
 10
1652.8607483
 20
1524.9103552397
 30
0.0
  0
VERTEX
  5
605
330
5E1
100
AcDbEntity
  8
スト_ル
  6
CONTINUOUS
 62
     6
100
AcDbVertex
100
AcDb2dVertex
 10
1652.8233643
 20
1524.4547277397
 30
0.0
  0
VERTEX
  5
606
330
5E1
100
AcDbEntity
  8
スト_ル
  6
CONTINUOUS
 62
     6
100
AcDbVertex
100
AcDb2dVertex
 10
1652.8105469
 20
1523.9955908397
 30
0.0
  0
VERTEX
  5
607
330
5E1
100
AcDbEntity
  8
スト_ル
  6
CONTINUOUS
 62
     6
100
AcDbVertex
100
AcDb2dVertex
 10
1652.8230591
 20
1523.5366064397
 30
0.0
  0
VERTEX
  5
608
330
5E1
100
AcDbEntity
  8
スト_ル
  6
CONTINUOUS
 62
     6
100
AcDbVertex
100
AcDb2dVertex
 10
1652.8605957
 20
1523.0811315397
 30
0.0
  0
VERTEX
  5
609
330
5E1
100
AcDbEntity
  8
スト_ル
  6
CONTINUOUS
 62
     6
100
AcDbVertex
100
AcDb2dVertex
 10
1652.922699
 20
1522.6319128397
 30
0.0
  0
VERTEX
  5
60A
330
5E1
100
AcDbEntity
  8
スト_ル
  6
CONTINUOUS
 62
     6
100
AcDbVertex
100
AcDb2dVertex
 10
1653.0090637
 20
1522.1936804397
 30
0.0
  0
VERTEX
  5
60B
330
5E1
100
AcDbEntity
  8
スト_ル
  6
CONTINUOUS
 62
     6
100
AcDbVertex
100
AcDb2dVertex
 10
1653.1190796
 20
1521.7688757397
 30
0.0
  0
VERTEX
  5
60C
330
5E1
100
AcDbEntity
  8
スト_ル
  6
CONTINUOUS
 62
     6
100
AcDbVertex
100
AcDb2dVertex
 10
1653.2512207
 20
1521.3613134397
 30
0.0
  0
VERTEX
  5
60D
330
5E1
100
AcDbEntity
  8
スト_ル
  6
CONTINUOUS
 62
     6
100
AcDbVertex
100
AcDb2dVertex
 10
1653.4054871
 20
1520.9737402397
 30
0.0
  0
VERTEX
  5
60E
330
5E1
100
AcDbEntity
  8
スト_ル
  6
CONTINUOUS
 62
     6
100
AcDbVertex
100
AcDb2dVertex
 10
1653.5803528
 20
1520.6089025397
 30
0.0
  0
VERTEX
  5
60F
330
5E1
100
AcDbEntity
  8
スト_ル
  6
CONTINUOUS
 62
     6
100
AcDbVertex
100
AcDb2dVertex
 10
1653.7738342
 20
1520.2704626397
 30
0.0
  0
VERTEX
  5
610
330
5E1
100
AcDbEntity
  8
スト_ル
  6
CONTINUOUS
 62
     6
100
AcDbVertex
100
AcDb2dVertex
 10
1653.9854736
 20
1519.9599462397
 30
0.0
  0
VERTEX
  5
611
330
5E1
100
AcDbEntity
  8
スト_ル
  6
CONTINUOUS
 62
     6
100
AcDbVertex
100
AcDb2dVertex
 10
1654.2131348
 20
1519.6801000397
 30
0.0
  0
VERTEX
  5
612
330
5E1
100
AcDbEntity
  8
スト_ル
  6
CONTINUOUS
 62
     6
100
AcDbVertex
100
AcDb2dVertex
 10
1654.4549866
 20
1519.4332128397
 30
0.0
  0
VERTEX
  5
613
330
5E1
100
AcDbEntity
  8
スト_ル
  6
CONTINUOUS
 62
     6
100
AcDbVertex
100
AcDb2dVertex
 10
1654.7095032
 20
1519.2211157397
 30
0.0
  0
VERTEX
  5
614
330
5E1
100
AcDbEntity
  8
スト_ル
  6
CONTINUOUS
 62
     6
100
AcDbVertex
100
AcDb2dVertex
 10
1654.974548299999
 20
1519.0451818397
 30
0.0
  0
VERTEX
  5
615
330
5E1
100
AcDbEntity
  8
スト_ル
  6
CONTINUOUS
 62
     6
100
AcDbVertex
100
AcDb2dVertex
 10
1655.248291
 20
1518.9070898397
 30
0.0
  0
VERTEX
  5
616
330
5E1
100
AcDbEntity
  8
スト_ル
  6
CONTINUOUS
 62
     6
100
AcDbVertex
100
AcDb2dVertex
 10
1655.528442399999
 20
1518.8077551397
 30
0.0
  0
VERTEX
  5
617
330
5E1
100
AcDbEntity
  8
スト_ル
  6
CONTINUOUS
 62
     6
100
AcDbVertex
100
AcDb2dVertex
 10
1655.8128662
 20
1518.7477880397
 30
0.0
  0
VERTEX
  5
618
330
5E1
100
AcDbEntity
  8
スト_ル
  6
CONTINUOUS
 62
     6
100
AcDbVertex
100
AcDb2dVertex
 10
1656.0994263
 20
1518.7273413397
 30
0.0
  0
VERTEX
  5
619
330
5E1
100
AcDbEntity
  8
スト_ル
  6
CONTINUOUS
 62
     6
100
AcDbVertex
100
AcDb2dVertex
 10
1656.3859863
 20
1518.7473303397
 30
0.0
  0
VERTEX
  5
61A
330
5E1
100
AcDbEntity
  8
スト_ル
  6
CONTINUOUS
 62
     6
100
AcDbVertex
100
AcDb2dVertex
 10
1656.6704102
 20
1518.8072973397
 30
0.0
  0
VERTEX
  5
61B
330
5E1
100
AcDbEntity
  8
スト_ル
  6
CONTINUOUS
 62
     6
100
AcDbVertex
100
AcDb2dVertex
 10
1656.9508667
 20
1518.9070898397
 30
0.0
  0
VERTEX
  5
61C
330
5E1
100
AcDbEntity
  8
スト_ル
  6
CONTINUOUS
 62
     6
100
AcDbVertex
100
AcDb2dVertex
 10
1657.2246094
 20
1519.0453344397
 30
0.0
  0
VERTEX
  5
61D
330
5E1
100
AcDbEntity
  8
スト_ル
  6
CONTINUOUS
 62
     6
100
AcDbVertex
100
AcDb2dVertex
 10
1657.4898071
 20
1519.2212683397
 30
0.0
  0
SEQEND
  5
61E
330
5E1
100
AcDbEntity
  8
スト_ル
  6
CONTINUOUS
 62
     6
  0
POLYLINE
  5
61F
330
1F
100
AcDbEntity
  8
スト_ル
  6
CONTINUOUS
 62
     6
100
AcDb2dPolyline
 66
     1
 10
0.0
 20
0.0
 30
0.0
 70
   128
  0
VERTEX
  5
620
330
61F
100
AcDbEntity
  8
スト_ル
  6
CONTINUOUS
 62
     6
100
AcDbVertex
100
AcDb2dVertex
 10
1657.4898071
 20
1519.2212683397
 30
0.0
  0
VERTEX
  5
621
330
61F
100
AcDbEntity
  8
スト_ル
  6
CONTINUOUS
 62
     6
100
AcDbVertex
100
AcDb2dVertex
 10
1657.7443237
 20
1519.4332128397
 30
0.0
  0
VERTEX
  5
622
330
61F
100
AcDbEntity
  8
スト_ル
  6
CONTINUOUS
 62
     6
100
AcDbVertex
100
AcDb2dVertex
 10
1657.9863281
 20
1519.6801000397
 30
0.0
  0
VERTEX
  5
623
330
61F
100
AcDbEntity
  8
スト_ル
  6
CONTINUOUS
 62
     6
100
AcDbVertex
100
AcDb2dVertex
 10
1658.214141799999
 20
1519.9599462397
 30
0.0
  0
VERTEX
  5
624
330
61F
100
AcDbEntity
  8
スト_ル
  6
CONTINUOUS
 62
     6
100
AcDbVertex
100
AcDb2dVertex
 10
1658.4253235
 20
1520.2704626397
 30
0.0
  0
VERTEX
  5
625
330
61F
100
AcDbEntity
  8
スト_ル
  6
CONTINUOUS
 62
     6
100
AcDbVertex
100
AcDb2dVertex
 10
1658.6191101
 20
1520.6093603397
 30
0.0
  0
VERTEX
  5
626
330
61F
100
AcDbEntity
  8
スト_ル
  6
CONTINUOUS
 62
     6
100
AcDbVertex
100
AcDb2dVertex
 10
1658.7939758
 20
1520.9738928397
 30
0.0
  0
VERTEX
  5
627
330
61F
100
AcDbEntity
  8
スト_ル
  6
CONTINUOUS
 62
     6
100
AcDbVertex
100
AcDb2dVertex
 10
1658.947937
 20
1521.3613134397
 30
0.0
  0
VERTEX
  5
628
330
61F
100
AcDbEntity
  8
スト_ル
  6
CONTINUOUS
 62
     6
100
AcDbVertex
100
AcDb2dVertex
 10
1659.0803833
 20
1521.7688757397
 30
0.0
  0
VERTEX
  5
629
330
61F
100
AcDbEntity
  8
スト_ル
  6
CONTINUOUS
 62
     6
100
AcDbVertex
100
AcDb2dVertex
 10
1659.190094
 20
1522.1933752397
 30
0.0
  0
VERTEX
  5
62A
330
61F
100
AcDbEntity
  8
スト_ル
  6
CONTINUOUS
 62
     6
100
AcDbVertex
100
AcDb2dVertex
 10
1659.2764587
 20
1522.6319128397
 30
0.0
  0
SEQEND
  5
62B
330
61F
100
AcDbEntity
  8
スト_ル
  6
CONTINUOUS
 62
     6
  0
POLYLINE
  5
62C
330
1F
100
AcDbEntity
  8
スト_ル
  6
CONTINUOUS
 62
     6
100
AcDb2dPolyline
 66
     1
 10
0.0
 20
0.0
 30
0.0
 70
   128
  0
VERTEX
  5
62D
330
62C
100
AcDbEntity
  8
スト_ル
  6
CONTINUOUS
 62
     6
100
AcDbVertex
100
AcDb2dVertex
 10
1659.2764587
 20
1522.6319128397
 30
0.0
  0
VERTEX
  5
62E
330
62C
100
AcDbEntity
  8
スト_ル
  6
CONTINUOUS
 62
     6
100
AcDbVertex
100
AcDb2dVertex
 10
1659.338562
 20
1523.0805212397
 30
0.0
  0
VERTEX
  5
62F
330
62C
100
AcDbEntity
  8
スト_ル
  6
CONTINUOUS
 62
     6
100
AcDbVertex
100
AcDb2dVertex
 10
1659.375945999999
 20
1523.5361486397
 30
0.0
  0
VERTEX
  5
630
330
62C
100
AcDbEntity
  8
スト_ル
  6
CONTINUOUS
 62
     6
100
AcDbVertex
100
AcDb2dVertex
 10
1659.3883057
 20
1523.9949804397
 30
0.0
  0
SEQEND
  5
631
330
62C
100
AcDbEntity
  8
スト_ル
  6
CONTINUOUS
 62
     6
  0
LINE
  5
632
330
1F
100
AcDbEntity
  8
スト_ル
  6
CONTINUOUS
 62
     6
100
AcDbLine
 10
1680.3103943
 20
1517.9952246397
 30
0.0
 11
1680.3103943
 21
1514.4953161397
 31
0.0
  0
LINE
  5
633
330
1F
100
AcDbEntity
  8
スト_ル
  6
CONTINUOUS
 62
     6
100
AcDbLine
 10
1655.3103943
 20
1517.9952246397
 30
0.0
 11
1655.3103943
 21
1514.4953161397
 31
0.0
  0
LINE
  5
634
330
1F
100
AcDbEntity
  8
スト_ル
  6
CONTINUOUS
 62
     6
100
AcDbLine
 10
1682.8103943
 20
1507.9953771397
 30
0.0
 11
1682.8103943
 21
1512.9953771397
 31
0.0
  0
LINE
  5
635
330
1F
100
AcDbEntity
  8
スト_ル
  6
CONTINUOUS
 62
     6
100
AcDbLine
 10
1681.3104553
 20
1514.4953161397
 30
0.0
 11
1682.8103943
 21
1512.9953771397
 31
0.0
  0
LINE
  5
636
330
1F
100
AcDbEntity
  8
スト_ル
  6
CONTINUOUS
 62
     6
100
AcDbLine
 10
1654.3103333
 20
1514.4953161397
 30
0.0
 11
1681.3104553
 21
1514.4953161397
 31
0.0
  0
LINE
  5
637
330
1F
100
AcDbEntity
  8
スト_ル
  6
CONTINUOUS
 62
     6
100
AcDbLine
 10
1652.8103943
 20
1512.9953771397
 30
0.0
 11
1654.3103333
 21
1514.4953161397
 31
0.0
  0
LINE
  5
638
330
1F
100
AcDbEntity
  8
スト_ル
  6
CONTINUOUS
 62
     6
100
AcDbLine
 10
1652.8103943
 20
1507.9953771397
 30
0.0
 11
1652.8103943
 21
1512.9953771397
 31
0.0
  0
LINE
  5
639
330
1F
100
AcDbEntity
  8
スト_ル
  6
CONTINUOUS
 62
     6
100
AcDbLine
 10
1676.2321777
 20
1512.9953771397
 30
0.0
 11
1676.2321777
 21
1507.9953771397
 31
0.0
  0
LINE
  5
63A
330
1F
100
AcDbEntity
  8
スト_ル
  6
CONTINUOUS
 62
     6
100
AcDbLine
 10
1674.3486328
 20
1512.9953771397
 30
0.0
 11
1674.3486328
 21
1507.9953771397
 31
0.0
  0
LINE
  5
63B
330
1F
100
AcDbEntity
  8
スト_ル
  6
CONTINUOUS
 62
     6
100
AcDbLine
 10
1661.2721558
 20
1512.9953771397
 30
0.0
 11
1661.2721558
 21
1507.9953771397
 31
0.0
  0
LINE
  5
63C
330
1F
100
AcDbEntity
  8
スト_ル
  6
CONTINUOUS
 62
     6
100
AcDbLine
 10
1659.3884583
 20
1512.9953771397
 30
0.0
 11
1659.3884583
 21
1507.9953771397
 31
0.0
  0
ARC
  5
63D
330
1F
100
AcDbEntity
  8
スト_ル
  6
CONTINUOUS
 62
     6
100
AcDbCircle
 10
1679.501525899999
 20
1510.1822668397
 30
0.0
 40
4.3130302
100
AcDbArc
 50
40.71034240999998
 51
139.28967285
  0
LINE
  5
63E
330
1F
100
AcDbEntity
  8
スト_ル
  6
CONTINUOUS
 62
     6
100
AcDbLine
 10
1674.3486328
 20
1512.9953771397
 30
0.0
 11
1676.2321777
 21
1512.9953771397
 31
0.0
  0
ARC
  5
63F
330
1F
100
AcDbEntity
  8
スト_ル
  6
CONTINUOUS
 62
     6
100
AcDbCircle
 10
1667.8103943
 20
1499.4953161397
 30
0.0
 40
15.0000095
100
AcDbArc
 50
64.15853881999998
 51
115.84147644
  0
LINE
  5
640
330
1F
100
AcDbEntity
  8
スト_ル
  6
CONTINUOUS
 62
     6
100
AcDbLine
 10
1659.3884583
 20
1512.9953771397
 30
0.0
 11
1661.2721558
 21
1512.9953771397
 31
0.0
  0
ARC
  5
641
330
1F
100
AcDbEntity
  8
スト_ル
  6
CONTINUOUS
 62
     6
100
AcDbCircle
 10
1656.0994263
 20
1510.1393896397
 30
0.0
 40
4.3559611
100
AcDbArc
 50
40.96897887999995
 51
139.03100586
  0
LINE
  5
642
330
1F
100
AcDbEntity
  8
スト_ル
  6
CONTINUOUS
 62
     6
100
AcDbLine
 10
1687.8103943
 20
1507.9953771397
 30
0.0
 11
1687.8103943
 21
1502.9953771397
 31
0.0
  0
LINE
  5
643
330
1F
100
AcDbEntity
  8
スト_ル
  6
CONTINUOUS
 62
     6
100
AcDbLine
 10
1647.8103943
 20
1507.9953771397
 30
0.0
 11
1687.8103943
 21
1507.9953771397
 31
0.0
  0
LINE
  5
644
330
1F
100
AcDbEntity
  8
スト_ル
  6
CONTINUOUS
 62
     6
100
AcDbLine
 10
1647.8103943
 20
1507.9953771397
 30
0.0
 11
1647.8103943
 21
1502.9953771397
 31
0.0
  0
ARC
  5
645
330
1F
100
AcDbEntity
  8
スト_ル
  6
CONTINUOUS
 62
     6
100
AcDbCircle
 10
628.9996947999997
 20
1523.9952500681
 30
0.0
 40
10.00030520000001
100
AcDbArc
 50
323.1309814500001
 51
36.86901854999996
  0
LINE
  5
646
330
1F
100
AcDbEntity
  8
スト_ル
  6
CONTINUOUS
 62
     6
100
AcDbLine
 10
610.9999694999996
 20
1529.9953110681
 30
0.0
 11
637.0000304999998
 21
1529.9953110681
 31
0.0
  0
ARC
  5
647
330
1F
100
AcDbEntity
  8
スト_ル
  6
CONTINUOUS
 62
     6
100
AcDbCircle
 10
619.0003051999996
 20
1523.9952500681
 30
0.0
 40
10.00030520000001
100
AcDbArc
 50
143.13098145
 51
216.86901855
  0
LINE
  5
648
330
1F
100
AcDbEntity
  8
スト_ル
  6
CONTINUOUS
 62
     6
100
AcDbLine
 10
610.9999694999996
 20
1517.9951890681
 30
0.0
 11
637.0000304999998
 21
1517.9951890681
 31
0.0
  0
POLYLINE
  5
649
330
1F
100
AcDbEntity
  8
スト_ル
  6
CONTINUOUS
 62
     6
100
AcDb2dPolyline
 66
     1
 10
0.0
 20
0.0
 30
0.0
 70
   128
  0
VERTEX
  5
64A
330
649
100
AcDbEntity
  8
スト_ル
  6
CONTINUOUS
 62
     6
100
AcDbVertex
100
AcDb2dVertex
 10
638.9606322999997
 20
1523.9955552681
 30
0.0
  0
VERTEX
  5
64B
330
649
100
AcDbEntity
  8
スト_ル
  6
CONTINUOUS
 62
     6
100
AcDbVertex
100
AcDb2dVertex
 10
638.9481200999998
 20
1524.4546921681
 30
0.0
  0
VERTEX
  5
64C
330
649
100
AcDbEntity
  8
スト_ル
  6
CONTINUOUS
 62
     6
100
AcDbVertex
100
AcDb2dVertex
 10
638.9108886999996
 20
1524.9106247681
 30
0.0
  0
VERTEX
  5
64D
330
649
100
AcDbEntity
  8
スト_ル
  6
CONTINUOUS
 62
     6
100
AcDbVertex
100
AcDb2dVertex
 10
638.8493956999995
 20
1525.3589280681
 30
0.0
  0
VERTEX
  5
64E
330
649
100
AcDbEntity
  8
スト_ル
  6
CONTINUOUS
 62
     6
100
AcDbVertex
100
AcDb2dVertex
 10
638.7636412999999
 20
1525.7971604681
 30
0.0
  0
VERTEX
  5
64F
330
649
100
AcDbEntity
  8
スト_ル
  6
CONTINUOUS
 62
     6
100
AcDbVertex
100
AcDb2dVertex
 10
638.6545409999998
 20
1526.2219651681
 30
0.0
  0
VERTEX
  5
650
330
649
100
AcDbEntity
  8
スト_ル
  6
CONTINUOUS
 62
     6
100
AcDbVertex
100
AcDb2dVertex
 10
638.5228576999997
 20
1526.6293747681
 30
0.0
  0
VERTEX
  5
651
330
649
100
AcDbEntity
  8
スト_ル
  6
CONTINUOUS
 62
     6
100
AcDbVertex
100
AcDb2dVertex
 10
638.3696593999997
 20
1527.0169480681
 30
0.0
  0
VERTEX
  5
652
330
649
100
AcDbEntity
  8
スト_ル
  6
CONTINUOUS
 62
     6
100
AcDbVertex
100
AcDb2dVertex
 10
638.196167
 20
1527.3817856681
 30
0.0
  0
VERTEX
  5
653
330
649
100
AcDbEntity
  8
スト_ル
  6
CONTINUOUS
 62
     6
100
AcDbVertex
100
AcDb2dVertex
 10
638.0031432999998
 20
1527.7203782681
 30
0.0
  0
VERTEX
  5
654
330
649
100
AcDbEntity
  8
スト_ル
  6
CONTINUOUS
 62
     6
100
AcDbVertex
100
AcDb2dVertex
 10
637.7928771999999
 20
1528.0308945681
 30
0.0
  0
VERTEX
  5
655
330
649
100
AcDbEntity
  8
スト_ル
  6
CONTINUOUS
 62
     6
100
AcDbVertex
100
AcDb2dVertex
 10
637.5667419
 20
1528.3105881681
 30
0.0
  0
VERTEX
  5
656
330
649
100
AcDbEntity
  8
スト_ル
  6
CONTINUOUS
 62
     6
100
AcDbVertex
100
AcDb2dVertex
 10
637.3261107999996
 20
1528.5574753681
 30
0.0
  0
VERTEX
  5
657
330
649
100
AcDbEntity
  8
スト_ル
  6
CONTINUOUS
 62
     6
100
AcDbVertex
100
AcDb2dVertex
 10
637.0731200999998
 20
1528.7697251681
 30
0.0
  0
VERTEX
  5
658
330
649
100
AcDbEntity
  8
スト_ル
  6
CONTINUOUS
 62
     6
100
AcDbVertex
100
AcDb2dVertex
 10
636.8097533999997
 20
1528.9456589681
 30
0.0
  0
VERTEX
  5
659
330
649
100
AcDbEntity
  8
スト_ル
  6
CONTINUOUS
 62
     6
100
AcDbVertex
100
AcDb2dVertex
 10
636.5375365999997
 20
1529.0835984681
 30
0.0
  0
VERTEX
  5
65A
330
649
100
AcDbEntity
  8
スト_ル
  6
CONTINUOUS
 62
     6
100
AcDbVertex
100
AcDb2dVertex
 10
636.2590636999997
 20
1529.1830857681
 30
0.0
  0
VERTEX
  5
65B
330
649
100
AcDbEntity
  8
スト_ル
  6
CONTINUOUS
 62
     6
100
AcDbVertex
100
AcDb2dVertex
 10
635.9764709
 20
1529.2430527681
 30
0.0
  0
VERTEX
  5
65C
330
649
100
AcDbEntity
  8
スト_ル
  6
CONTINUOUS
 62
     6
100
AcDbVertex
100
AcDb2dVertex
 10
635.6911315999995
 20
1529.2631943681
 30
0.0
  0
VERTEX
  5
65D
330
649
100
AcDbEntity
  8
スト_ル
  6
CONTINUOUS
 62
     6
100
AcDbVertex
100
AcDb2dVertex
 10
635.4060973999998
 20
1529.2432053681
 30
0.0
  0
VERTEX
  5
65E
330
649
100
AcDbEntity
  8
スト_ル
  6
CONTINUOUS
 62
     6
100
AcDbVertex
100
AcDb2dVertex
 10
635.1231994999997
 20
1529.1832383681
 30
0.0
  0
VERTEX
  5
65F
330
649
100
AcDbEntity
  8
スト_ル
  6
CONTINUOUS
 62
     6
100
AcDbVertex
100
AcDb2dVertex
 10
634.8450316999996
 20
1529.0835984681
 30
0.0
  0
VERTEX
  5
660
330
649
100
AcDbEntity
  8
スト_ル
  6
CONTINUOUS
 62
     6
100
AcDbVertex
100
AcDb2dVertex
 10
634.5729674999997
 20
1528.9453537681
 30
0.0
  0
VERTEX
  5
661
330
649
100
AcDbEntity
  8
スト_ル
  6
CONTINUOUS
 62
     6
100
AcDbVertex
100
AcDb2dVertex
 10
634.3094481999996
 20
1528.7694199681
 30
0.0
  0
VERTEX
  5
662
330
649
100
AcDbEntity
  8
スト_ル
  6
CONTINUOUS
 62
     6
100
AcDbVertex
100
AcDb2dVertex
 10
634.0566100999994
 20
1528.5574753681
 30
0.0
  0
VERTEX
  5
663
330
649
100
AcDbEntity
  8
スト_ル
  6
CONTINUOUS
 62
     6
100
AcDbVertex
100
AcDb2dVertex
 10
633.8161315999995
 20
1528.3105881681
 30
0.0
  0
VERTEX
  5
664
330
649
100
AcDbEntity
  8
スト_ル
  6
CONTINUOUS
 62
     6
100
AcDbVertex
100
AcDb2dVertex
 10
633.5896911999997
 20
1528.0308945681
 30
0.0
  0
VERTEX
  5
665
330
649
100
AcDbEntity
  8
スト_ル
  6
CONTINUOUS
 62
     6
100
AcDbVertex
100
AcDb2dVertex
 10
633.3794249999995
 20
1527.7203782681
 30
0.0
  0
VERTEX
  5
666
330
649
100
AcDbEntity
  8
スト_ル
  6
CONTINUOUS
 62
     6
100
AcDbVertex
100
AcDb2dVertex
 10
633.1867064999996
 20
1527.3816330681
 30
0.0
  0
VERTEX
  5
667
330
649
100
AcDbEntity
  8
スト_ル
  6
CONTINUOUS
 62
     6
100
AcDbVertex
100
AcDb2dVertex
 10
633.0130614999997
 20
1527.0171006681
 30
0.0
  0
VERTEX
  5
668
330
649
100
AcDbEntity
  8
スト_ル
  6
CONTINUOUS
 62
     6
100
AcDbVertex
100
AcDb2dVertex
 10
632.8598633
 20
1526.6293747681
 30
0.0
  0
VERTEX
  5
669
330
649
100
AcDbEntity
  8
スト_ル
  6
CONTINUOUS
 62
     6
100
AcDbVertex
100
AcDb2dVertex
 10
632.7281798999996
 20
1526.2218125681
 30
0.0
  0
VERTEX
  5
66A
330
649
100
AcDbEntity
  8
スト_ル
  6
CONTINUOUS
 62
     6
100
AcDbVertex
100
AcDb2dVertex
 10
632.6189269999999
 20
1525.7973130681
 30
0.0
  0
VERTEX
  5
66B
330
649
100
AcDbEntity
  8
スト_ル
  6
CONTINUOUS
 62
     6
100
AcDbVertex
100
AcDb2dVertex
 10
632.5334778
 20
1525.3589280681
 30
0.0
  0
VERTEX
  5
66C
330
649
100
AcDbEntity
  8
スト_ル
  6
CONTINUOUS
 62
     6
100
AcDbVertex
100
AcDb2dVertex
 10
632.4718322999996
 20
1524.9103196681
 30
0.0
  0
VERTEX
  5
66D
330
649
100
AcDbEntity
  8
スト_ル
  6
CONTINUOUS
 62
     6
100
AcDbVertex
100
AcDb2dVertex
 10
632.4347533999997
 20
1524.4546921681
 30
0.0
  0
VERTEX
  5
66E
330
649
100
AcDbEntity
  8
スト_ル
  6
CONTINUOUS
 62
     6
100
AcDbVertex
100
AcDb2dVertex
 10
632.4220885999997
 20
1523.9955552681
 30
0.0
  0
VERTEX
  5
66F
330
649
100
AcDbEntity
  8
スト_ル
  6
CONTINUOUS
 62
     6
100
AcDbVertex
100
AcDb2dVertex
 10
632.4346007999997
 20
1523.5365708681
 30
0.0
  0
VERTEX
  5
670
330
649
100
AcDbEntity
  8
スト_ル
  6
CONTINUOUS
 62
     6
100
AcDbVertex
100
AcDb2dVertex
 10
632.4719848999997
 20
1523.0810959681
 30
0.0
  0
VERTEX
  5
671
330
649
100
AcDbEntity
  8
スト_ル
  6
CONTINUOUS
 62
     6
100
AcDbVertex
100
AcDb2dVertex
 10
632.5334778
 20
1522.6318772681
 30
0.0
  0
VERTEX
  5
672
330
649
100
AcDbEntity
  8
スト_ル
  6
CONTINUOUS
 62
     6
100
AcDbVertex
100
AcDb2dVertex
 10
632.6192321999996
 20
1522.1936448681
 30
0.0
  0
VERTEX
  5
673
330
649
100
AcDbEntity
  8
スト_ル
  6
CONTINUOUS
 62
     6
100
AcDbVertex
100
AcDb2dVertex
 10
632.7284850999994
 20
1521.7688401681
 30
0.0
  0
VERTEX
  5
674
330
649
100
AcDbEntity
  8
スト_ル
  6
CONTINUOUS
 62
     6
100
AcDbVertex
100
AcDb2dVertex
 10
632.8598633
 20
1521.3612778681
 30
0.0
  0
VERTEX
  5
675
330
649
100
AcDbEntity
  8
スト_ル
  6
CONTINUOUS
 62
     6
100
AcDbVertex
100
AcDb2dVertex
 10
633.0130614999997
 20
1520.9737046681
 30
0.0
  0
VERTEX
  5
676
330
649
100
AcDbEntity
  8
スト_ル
  6
CONTINUOUS
 62
     6
100
AcDbVertex
100
AcDb2dVertex
 10
633.1867064999996
 20
1520.6088669681
 30
0.0
  0
VERTEX
  5
677
330
649
100
AcDbEntity
  8
スト_ル
  6
CONTINUOUS
 62
     6
100
AcDbVertex
100
AcDb2dVertex
 10
633.3794249999995
 20
1520.2704270681
 30
0.0
  0
VERTEX
  5
678
330
649
100
AcDbEntity
  8
スト_ル
  6
CONTINUOUS
 62
     6
100
AcDbVertex
100
AcDb2dVertex
 10
633.5896911999997
 20
1519.9599106681
 30
0.0
  0
VERTEX
  5
679
330
649
100
AcDbEntity
  8
スト_ル
  6
CONTINUOUS
 62
     6
100
AcDbVertex
100
AcDb2dVertex
 10
633.8159789999999
 20
1519.6802170681
 30
0.0
  0
VERTEX
  5
67A
330
649
100
AcDbEntity
  8
スト_ル
  6
CONTINUOUS
 62
     6
100
AcDbVertex
100
AcDb2dVertex
 10
634.0566100999994
 20
1519.4333298681
 30
0.0
  0
VERTEX
  5
67B
330
649
100
AcDbEntity
  8
スト_ル
  6
CONTINUOUS
 62
     6
100
AcDbVertex
100
AcDb2dVertex
 10
634.3096007999997
 20
1519.2210801681
 30
0.0
  0
VERTEX
  5
67C
330
649
100
AcDbEntity
  8
スト_ル
  6
CONTINUOUS
 62
     6
100
AcDbVertex
100
AcDb2dVertex
 10
634.5731200999998
 20
1519.0451462681
 30
0.0
  0
VERTEX
  5
67D
330
649
100
AcDbEntity
  8
スト_ル
  6
CONTINUOUS
 62
     6
100
AcDbVertex
100
AcDb2dVertex
 10
634.8450316999996
 20
1518.9070542681
 30
0.0
  0
VERTEX
  5
67E
330
649
100
AcDbEntity
  8
スト_ル
  6
CONTINUOUS
 62
     6
100
AcDbVertex
100
AcDb2dVertex
 10
635.1235045999996
 20
1518.8075669681
 30
0.0
  0
VERTEX
  5
67F
330
649
100
AcDbEntity
  8
スト_ル
  6
CONTINUOUS
 62
     6
100
AcDbVertex
100
AcDb2dVertex
 10
635.4062499999999
 20
1518.7475998681
 30
0.0
  0
VERTEX
  5
680
330
649
100
AcDbEntity
  8
スト_ル
  6
CONTINUOUS
 62
     6
100
AcDbVertex
100
AcDb2dVertex
 10
635.6911315999995
 20
1518.7273057681
 30
0.0
  0
VERTEX
  5
681
330
649
100
AcDbEntity
  8
スト_ル
  6
CONTINUOUS
 62
     6
100
AcDbVertex
100
AcDb2dVertex
 10
635.9760131999996
 20
1518.7472947681
 30
0.0
  0
VERTEX
  5
682
330
649
100
AcDbEntity
  8
スト_ル
  6
CONTINUOUS
 62
     6
100
AcDbVertex
100
AcDb2dVertex
 10
636.2586058999999
 20
1518.8072617681
 30
0.0
  0
VERTEX
  5
683
330
649
100
AcDbEntity
  8
スト_ル
  6
CONTINUOUS
 62
     6
100
AcDbVertex
100
AcDb2dVertex
 10
636.5375365999997
 20
1518.9070542681
 30
0.0
  0
VERTEX
  5
684
330
649
100
AcDbEntity
  8
スト_ル
  6
CONTINUOUS
 62
     6
100
AcDbVertex
100
AcDb2dVertex
 10
636.8096007999997
 20
1519.0452988681
 30
0.0
  0
VERTEX
  5
685
330
649
100
AcDbEntity
  8
スト_ル
  6
CONTINUOUS
 62
     6
100
AcDbVertex
100
AcDb2dVertex
 10
637.0732726999998
 20
1519.2212327681
 30
0.0
  0
SEQEND
  5
686
330
649
100
AcDbEntity
  8
スト_ル
  6
CONTINUOUS
 62
     6
  0
POLYLINE
  5
687
330
1F
100
AcDbEntity
  8
スト_ル
  6
CONTINUOUS
 62
     6
100
AcDb2dPolyline
 66
     1
 10
0.0
 20
0.0
 30
0.0
 70
   128
  0
VERTEX
  5
688
330
687
100
AcDbEntity
  8
スト_ル
  6
CONTINUOUS
 62
     6
100
AcDbVertex
100
AcDb2dVertex
 10
637.0732726999998
 20
1519.2212327681
 30
0.0
  0
VERTEX
  5
689
330
687
100
AcDbEntity
  8
スト_ル
  6
CONTINUOUS
 62
     6
100
AcDbVertex
100
AcDb2dVertex
 10
637.3261107999996
 20
1519.4333298681
 30
0.0
  0
VERTEX
  5
68A
330
687
100
AcDbEntity
  8
スト_ル
  6
CONTINUOUS
 62
     6
100
AcDbVertex
100
AcDb2dVertex
 10
637.5667419
 20
1519.6802170681
 30
0.0
  0
VERTEX
  5
68B
330
687
100
AcDbEntity
  8
スト_ル
  6
CONTINUOUS
 62
     6
100
AcDbVertex
100
AcDb2dVertex
 10
637.7930298
 20
1519.9599106681
 30
0.0
  0
VERTEX
  5
68C
330
687
100
AcDbEntity
  8
スト_ル
  6
CONTINUOUS
 62
     6
100
AcDbVertex
100
AcDb2dVertex
 10
638.0031432999998
 20
1520.2704270681
 30
0.0
  0
VERTEX
  5
68D
330
687
100
AcDbEntity
  8
スト_ル
  6
CONTINUOUS
 62
     6
100
AcDbVertex
100
AcDb2dVertex
 10
638.1958617999998
 20
1520.6091721681
 30
0.0
  0
VERTEX
  5
68E
330
687
100
AcDbEntity
  8
スト_ル
  6
CONTINUOUS
 62
     6
100
AcDbVertex
100
AcDb2dVertex
 10
638.3696593999997
 20
1520.9737046681
 30
0.0
  0
VERTEX
  5
68F
330
687
100
AcDbEntity
  8
スト_ル
  6
CONTINUOUS
 62
     6
100
AcDbVertex
100
AcDb2dVertex
 10
638.5228576999997
 20
1521.3612778681
 30
0.0
  0
VERTEX
  5
690
330
687
100
AcDbEntity
  8
スト_ル
  6
CONTINUOUS
 62
     6
100
AcDbVertex
100
AcDb2dVertex
 10
638.6545409999998
 20
1521.7688401681
 30
0.0
  0
VERTEX
  5
691
330
687
100
AcDbEntity
  8
スト_ル
  6
CONTINUOUS
 62
     6
100
AcDbVertex
100
AcDb2dVertex
 10
638.7639464999996
 20
1522.1933396681
 30
0.0
  0
VERTEX
  5
692
330
687
100
AcDbEntity
  8
スト_ル
  6
CONTINUOUS
 62
     6
100
AcDbVertex
100
AcDb2dVertex
 10
638.8493956999995
 20
1522.6318772681
 30
0.0
  0
SEQEND
  5
693
330
687
100
AcDbEntity
  8
スト_ル
  6
CONTINUOUS
 62
     6
  0
POLYLINE
  5
694
330
1F
100
AcDbEntity
  8
スト_ル
  6
CONTINUOUS
 62
     6
100
AcDb2dPolyline
 66
     1
 10
0.0
 20
0.0
 30
0.0
 70
   128
  0
VERTEX
  5
695
330
694
100
AcDbEntity
  8
スト_ル
  6
CONTINUOUS
 62
     6
100
AcDbVertex
100
AcDb2dVertex
 10
638.8493956999995
 20
1522.6318772681
 30
0.0
  0
VERTEX
  5
696
330
694
100
AcDbEntity
  8
スト_ル
  6
CONTINUOUS
 62
     6
100
AcDbVertex
100
AcDb2dVertex
 10
638.9110411999994
 20
1523.0804856681
 30
0.0
  0
VERTEX
  5
697
330
694
100
AcDbEntity
  8
スト_ル
  6
CONTINUOUS
 62
     6
100
AcDbVertex
100
AcDb2dVertex
 10
638.9482726999998
 20
1523.5361130681
 30
0.0
  0
VERTEX
  5
698
330
694
100
AcDbEntity
  8
スト_ル
  6
CONTINUOUS
 62
     6
100
AcDbVertex
100
AcDb2dVertex
 10
638.9607848999998
 20
1523.9949448681
 30
0.0
  0
SEQEND
  5
699
330
694
100
AcDbEntity
  8
スト_ル
  6
CONTINUOUS
 62
     6
  0
POLYLINE
  5
69A
330
1F
100
AcDbEntity
  8
スト_ル
  6
CONTINUOUS
 62
     6
100
AcDb2dPolyline
 66
     1
 10
0.0
 20
0.0
 30
0.0
 70
   128
  0
VERTEX
  5
69B
330
69A
100
AcDbEntity
  8
スト_ル
  6
CONTINUOUS
 62
     6
100
AcDbVertex
100
AcDb2dVertex
 10
630.5382384999997
 20
1523.9955552681
 30
0.0
  0
VERTEX
  5
69C
330
69A
100
AcDbEntity
  8
スト_ル
  6
CONTINUOUS
 62
     6
100
AcDbVertex
100
AcDb2dVertex
 10
630.5133666999999
 20
1524.4546921681
 30
0.0
  0
VERTEX
  5
69D
330
69A
100
AcDbEntity
  8
スト_ル
  6
CONTINUOUS
 62
     6
100
AcDbVertex
100
AcDb2dVertex
 10
630.4389037999998
 20
1524.9106247681
 30
0.0
  0
VERTEX
  5
69E
330
69A
100
AcDbEntity
  8
スト_ル
  6
CONTINUOUS
 62
     6
100
AcDbVertex
100
AcDb2dVertex
 10
630.3157653999996
 20
1525.3589280681
 30
0.0
  0
VERTEX
  5
69F
330
69A
100
AcDbEntity
  8
スト_ル
  6
CONTINUOUS
 62
     6
100
AcDbVertex
100
AcDb2dVertex
 10
630.1442565999995
 20
1525.7971604681
 30
0.0
  0
VERTEX
  5
6A0
330
69A
100
AcDbEntity
  8
スト_ル
  6
CONTINUOUS
 62
     6
100
AcDbVertex
100
AcDb2dVertex
 10
629.9260558999998
 20
1526.2219651681
 30
0.0
  0
VERTEX
  5
6A1
330
69A
100
AcDbEntity
  8
スト_ル
  6
CONTINUOUS
 62
     6
100
AcDbVertex
100
AcDb2dVertex
 10
629.6625365999997
 20
1526.6293747681
 30
0.0
  0
VERTEX
  5
6A2
330
69A
100
AcDbEntity
  8
スト_ル
  6
CONTINUOUS
 62
     6
100
AcDbVertex
100
AcDb2dVertex
 10
629.3559874999995
 20
1527.0169480681
 30
0.0
  0
VERTEX
  5
6A3
330
69A
100
AcDbEntity
  8
スト_ル
  6
CONTINUOUS
 62
     6
100
AcDbVertex
100
AcDb2dVertex
 10
629.0088500999994
 20
1527.3817856681
 30
0.0
  0
VERTEX
  5
6A4
330
69A
100
AcDbEntity
  8
スト_ル
  6
CONTINUOUS
 62
     6
100
AcDbVertex
100
AcDb2dVertex
 10
628.6232604999999
 20
1527.7203782681
 30
0.0
  0
VERTEX
  5
6A5
330
69A
100
AcDbEntity
  8
スト_ル
  6
CONTINUOUS
 62
     6
100
AcDbVertex
100
AcDb2dVertex
 10
628.2025756999996
 20
1528.0308945681
 30
0.0
  0
VERTEX
  5
6A6
330
69A
100
AcDbEntity
  8
スト_ル
  6
CONTINUOUS
 62
     6
100
AcDbVertex
100
AcDb2dVertex
 10
627.7499999999999
 20
1528.3105881681
 30
0.0
  0
VERTEX
  5
6A7
330
69A
100
AcDbEntity
  8
スト_ル
  6
CONTINUOUS
 62
     6
100
AcDbVertex
100
AcDb2dVertex
 10
627.2695006999996
 20
1528.5574753681
 30
0.0
  0
VERTEX
  5
6A8
330
69A
100
AcDbEntity
  8
スト_ル
  6
CONTINUOUS
 62
     6
100
AcDbVertex
100
AcDb2dVertex
 10
626.7636718999996
 20
1528.7697251681
 30
0.0
  0
VERTEX
  5
6A9
330
69A
100
AcDbEntity
  8
スト_ル
  6
CONTINUOUS
 62
     6
100
AcDbVertex
100
AcDb2dVertex
 10
626.2367858999995
 20
1528.9456589681
 30
0.0
  0
VERTEX
  5
6AA
330
69A
100
AcDbEntity
  8
スト_ル
  6
CONTINUOUS
 62
     6
100
AcDbVertex
100
AcDb2dVertex
 10
625.6921996999998
 20
1529.0835984681
 30
0.0
  0
VERTEX
  5
6AB
330
69A
100
AcDbEntity
  8
スト_ル
  6
CONTINUOUS
 62
     6
100
AcDbVertex
100
AcDb2dVertex
 10
625.1352538999998
 20
1529.1830857681
 30
0.0
  0
VERTEX
  5
6AC
330
69A
100
AcDbEntity
  8
スト_ル
  6
CONTINUOUS
 62
     6
100
AcDbVertex
100
AcDb2dVertex
 10
624.5696105999995
 20
1529.2430527681
 30
0.0
  0
VERTEX
  5
6AD
330
69A
100
AcDbEntity
  8
スト_ル
  6
CONTINUOUS
 62
     6
100
AcDbVertex
100
AcDb2dVertex
 10
624.0001525999995
 20
1529.2631943681
 30
0.0
  0
VERTEX
  5
6AE
330
69A
100
AcDbEntity
  8
スト_ル
  6
CONTINUOUS
 62
     6
100
AcDbVertex
100
AcDb2dVertex
 10
623.4302367999998
 20
1529.2432053681
 30
0.0
  0
VERTEX
  5
6AF
330
69A
100
AcDbEntity
  8
スト_ル
  6
CONTINUOUS
 62
     6
100
AcDbVertex
100
AcDb2dVertex
 10
622.8647460999995
 20
1529.1832383681
 30
0.0
  0
VERTEX
  5
6B0
330
69A
100
AcDbEntity
  8
スト_ル
  6
CONTINUOUS
 62
     6
100
AcDbVertex
100
AcDb2dVertex
 10
622.3081054999997
 20
1529.0835984681
 30
0.0
  0
VERTEX
  5
6B1
330
69A
100
AcDbEntity
  8
スト_ル
  6
CONTINUOUS
 62
     6
100
AcDbVertex
100
AcDb2dVertex
 10
621.7641295999996
 20
1528.9453537681
 30
0.0
  0
VERTEX
  5
6B2
330
69A
100
AcDbEntity
  8
スト_ル
  6
CONTINUOUS
 62
     6
100
AcDbVertex
100
AcDb2dVertex
 10
621.2373961999996
 20
1528.7694199681
 30
0.0
  0
VERTEX
  5
6B3
330
69A
100
AcDbEntity
  8
スト_ル
  6
CONTINUOUS
 62
     6
100
AcDbVertex
100
AcDb2dVertex
 10
620.7308044
 20
1528.5574753681
 30
0.0
  0
VERTEX
  5
6B4
330
69A
100
AcDbEntity
  8
スト_ル
  6
CONTINUOUS
 62
     6
100
AcDbVertex
100
AcDb2dVertex
 10
620.2496947999997
 20
1528.3105881681
 30
0.0
  0
VERTEX
  5
6B5
330
69A
100
AcDbEntity
  8
スト_ル
  6
CONTINUOUS
 62
     6
100
AcDbVertex
100
AcDb2dVertex
 10
619.7971190999996
 20
1528.0308945681
 30
0.0
  0
VERTEX
  5
6B6
330
69A
100
AcDbEntity
  8
スト_ル
  6
CONTINUOUS
 62
     6
100
AcDbVertex
100
AcDb2dVertex
 10
619.3770446999996
 20
1527.7203782681
 30
0.0
  0
VERTEX
  5
6B7
330
69A
100
AcDbEntity
  8
スト_ル
  6
CONTINUOUS
 62
     6
100
AcDbVertex
100
AcDb2dVertex
 10
618.9917601999995
 20
1527.3816330681
 30
0.0
  0
VERTEX
  5
6B8
330
69A
100
AcDbEntity
  8
スト_ル
  6
CONTINUOUS
 62
     6
100
AcDbVertex
100
AcDb2dVertex
 10
618.6447753999995
 20
1527.0171006681
 30
0.0
  0
VERTEX
  5
6B9
330
69A
100
AcDbEntity
  8
スト_ル
  6
CONTINUOUS
 62
     6
100
AcDbVertex
100
AcDb2dVertex
 10
618.3377684999995
 20
1526.6293747681
 30
0.0
  0
VERTEX
  5
6BA
330
69A
100
AcDbEntity
  8
スト_ル
  6
CONTINUOUS
 62
     6
100
AcDbVertex
100
AcDb2dVertex
 10
618.0744017999999
 20
1526.2218125681
 30
0.0
  0
VERTEX
  5
6BB
330
69A
100
AcDbEntity
  8
スト_ル
  6
CONTINUOUS
 62
     6
100
AcDbVertex
100
AcDb2dVertex
 10
617.8562011999996
 20
1525.7973130681
 30
0.0
  0
VERTEX
  5
6BC
330
69A
100
AcDbEntity
  8
スト_ル
  6
CONTINUOUS
 62
     6
100
AcDbVertex
100
AcDb2dVertex
 10
617.6846923999996
 20
1525.3589280681
 30
0.0
  0
VERTEX
  5
6BD
330
69A
100
AcDbEntity
  8
スト_ル
  6
CONTINUOUS
 62
     6
100
AcDbVertex
100
AcDb2dVertex
 10
617.5612488
 20
1524.9103196681
 30
0.0
  0
VERTEX
  5
6BE
330
69A
100
AcDbEntity
  8
スト_ル
  6
CONTINUOUS
 62
     6
100
AcDbVertex
100
AcDb2dVertex
 10
617.4867858999995
 20
1524.4546921681
 30
0.0
  0
VERTEX
  5
6BF
330
69A
100
AcDbEntity
  8
スト_ル
  6
CONTINUOUS
 62
     6
100
AcDbVertex
100
AcDb2dVertex
 10
617.4619140999997
 20
1523.9955552681
 30
0.0
  0
VERTEX
  5
6C0
330
69A
100
AcDbEntity
  8
スト_ル
  6
CONTINUOUS
 62
     6
100
AcDbVertex
100
AcDb2dVertex
 10
617.4867858999995
 20
1523.5365708681
 30
0.0
  0
VERTEX
  5
6C1
330
69A
100
AcDbEntity
  8
スト_ル
  6
CONTINUOUS
 62
     6
100
AcDbVertex
100
AcDb2dVertex
 10
617.5612488
 20
1523.0810959681
 30
0.0
  0
VERTEX
  5
6C2
330
69A
100
AcDbEntity
  8
スト_ル
  6
CONTINUOUS
 62
     6
100
AcDbVertex
100
AcDb2dVertex
 10
617.6846923999996
 20
1522.6318772681
 30
0.0
  0
VERTEX
  5
6C3
330
69A
100
AcDbEntity
  8
スト_ル
  6
CONTINUOUS
 62
     6
100
AcDbVertex
100
AcDb2dVertex
 10
617.8562011999996
 20
1522.1936448681
 30
0.0
  0
VERTEX
  5
6C4
330
69A
100
AcDbEntity
  8
スト_ル
  6
CONTINUOUS
 62
     6
100
AcDbVertex
100
AcDb2dVertex
 10
618.0744017999999
 20
1521.7688401681
 30
0.0
  0
VERTEX
  5
6C5
330
69A
100
AcDbEntity
  8
スト_ル
  6
CONTINUOUS
 62
     6
100
AcDbVertex
100
AcDb2dVertex
 10
618.3377684999995
 20
1521.3612778681
 30
0.0
  0
VERTEX
  5
6C6
330
69A
100
AcDbEntity
  8
スト_ル
  6
CONTINUOUS
 62
     6
100
AcDbVertex
100
AcDb2dVertex
 10
618.6443175999997
 20
1520.9737046681
 30
0.0
  0
VERTEX
  5
6C7
330
69A
100
AcDbEntity
  8
スト_ル
  6
CONTINUOUS
 62
     6
100
AcDbVertex
100
AcDb2dVertex
 10
618.9914550999996
 20
1520.6088669681
 30
0.0
  0
VERTEX
  5
6C8
330
69A
100
AcDbEntity
  8
スト_ル
  6
CONTINUOUS
 62
     6
100
AcDbVertex
100
AcDb2dVertex
 10
619.3770446999996
 20
1520.2704270681
 30
0.0
  0
VERTEX
  5
6C9
330
69A
100
AcDbEntity
  8
スト_ル
  6
CONTINUOUS
 62
     6
100
AcDbVertex
100
AcDb2dVertex
 10
619.7977295
 20
1519.9599106681
 30
0.0
  0
VERTEX
  5
6CA
330
69A
100
AcDbEntity
  8
スト_ル
  6
CONTINUOUS
 62
     6
100
AcDbVertex
100
AcDb2dVertex
 10
620.2503051999996
 20
1519.6802170681
 30
0.0
  0
VERTEX
  5
6CB
330
69A
100
AcDbEntity
  8
スト_ル
  6
CONTINUOUS
 62
     6
100
AcDbVertex
100
AcDb2dVertex
 10
620.7308044
 20
1519.4333298681
 30
0.0
  0
VERTEX
  5
6CC
330
69A
100
AcDbEntity
  8
スト_ル
  6
CONTINUOUS
 62
     6
100
AcDbVertex
100
AcDb2dVertex
 10
621.2366332999999
 20
1519.2210801681
 30
0.0
  0
VERTEX
  5
6CD
330
69A
100
AcDbEntity
  8
スト_ル
  6
CONTINUOUS
 62
     6
100
AcDbVertex
100
AcDb2dVertex
 10
621.7635193
 20
1519.0451462681
 30
0.0
  0
VERTEX
  5
6CE
330
69A
100
AcDbEntity
  8
スト_ル
  6
CONTINUOUS
 62
     6
100
AcDbVertex
100
AcDb2dVertex
 10
622.3081054999997
 20
1518.9070542681
 30
0.0
  0
VERTEX
  5
6CF
330
69A
100
AcDbEntity
  8
スト_ル
  6
CONTINUOUS
 62
     6
100
AcDbVertex
100
AcDb2dVertex
 10
622.8650512999997
 20
1518.8075669681
 30
0.0
  0
VERTEX
  5
6D0
330
69A
100
AcDbEntity
  8
スト_ル
  6
CONTINUOUS
 62
     6
100
AcDbVertex
100
AcDb2dVertex
 10
623.4306945999996
 20
1518.7475998681
 30
0.0
  0
VERTEX
  5
6D1
330
69A
100
AcDbEntity
  8
スト_ル
  6
CONTINUOUS
 62
     6
100
AcDbVertex
100
AcDb2dVertex
 10
624.0001525999995
 20
1518.7273057681
 30
0.0
  0
VERTEX
  5
6D2
330
69A
100
AcDbEntity
  8
スト_ル
  6
CONTINUOUS
 62
     6
100
AcDbVertex
100
AcDb2dVertex
 10
624.5700682999999
 20
1518.7472947681
 30
0.0
  0
VERTEX
  5
6D3
330
69A
100
AcDbEntity
  8
スト_ル
  6
CONTINUOUS
 62
     6
100
AcDbVertex
100
AcDb2dVertex
 10
625.1355590999996
 20
1518.8072617681
 30
0.0
  0
VERTEX
  5
6D4
330
69A
100
AcDbEntity
  8
スト_ル
  6
CONTINUOUS
 62
     6
100
AcDbVertex
100
AcDb2dVertex
 10
625.6921996999998
 20
1518.9070542681
 30
0.0
  0
VERTEX
  5
6D5
330
69A
100
AcDbEntity
  8
スト_ル
  6
CONTINUOUS
 62
     6
100
AcDbVertex
100
AcDb2dVertex
 10
626.2361754999996
 20
1519.0452988681
 30
0.0
  0
VERTEX
  5
6D6
330
69A
100
AcDbEntity
  8
スト_ル
  6
CONTINUOUS
 62
     6
100
AcDbVertex
100
AcDb2dVertex
 10
626.7629088999996
 20
1519.2212327681
 30
0.0
  0
SEQEND
  5
6D7
330
69A
100
AcDbEntity
  8
スト_ル
  6
CONTINUOUS
 62
     6
  0
POLYLINE
  5
6D8
330
1F
100
AcDbEntity
  8
スト_ル
  6
CONTINUOUS
 62
     6
100
AcDb2dPolyline
 66
     1
 10
0.0
 20
0.0
 30
0.0
 70
   128
  0
VERTEX
  5
6D9
330
6D8
100
AcDbEntity
  8
スト_ル
  6
CONTINUOUS
 62
     6
100
AcDbVertex
100
AcDb2dVertex
 10
626.7629088999996
 20
1519.2212327681
 30
0.0
  0
VERTEX
  5
6DA
330
6D8
100
AcDbEntity
  8
スト_ル
  6
CONTINUOUS
 62
     6
100
AcDbVertex
100
AcDb2dVertex
 10
627.2695006999996
 20
1519.4333298681
 30
0.0
  0
VERTEX
  5
6DB
330
6D8
100
AcDbEntity
  8
スト_ル
  6
CONTINUOUS
 62
     6
100
AcDbVertex
100
AcDb2dVertex
 10
627.7506102999995
 20
1519.6802170681
 30
0.0
  0
VERTEX
  5
6DC
330
6D8
100
AcDbEntity
  8
スト_ル
  6
CONTINUOUS
 62
     6
100
AcDbVertex
100
AcDb2dVertex
 10
628.2031859999996
 20
1519.9599106681
 30
0.0
  0
VERTEX
  5
6DD
330
6D8
100
AcDbEntity
  8
スト_ル
  6
CONTINUOUS
 62
     6
100
AcDbVertex
100
AcDb2dVertex
 10
628.6232604999999
 20
1520.2704270681
 30
0.0
  0
VERTEX
  5
6DE
330
6D8
100
AcDbEntity
  8
スト_ル
  6
CONTINUOUS
 62
     6
100
AcDbVertex
100
AcDb2dVertex
 10
629.0085448999997
 20
1520.6091721681
 30
0.0
  0
VERTEX
  5
6DF
330
6D8
100
AcDbEntity
  8
スト_ル
  6
CONTINUOUS
 62
     6
100
AcDbVertex
100
AcDb2dVertex
 10
629.3555298
 20
1520.9737046681
 30
0.0
  0
VERTEX
  5
6E0
330
6D8
100
AcDbEntity
  8
スト_ル
  6
CONTINUOUS
 62
     6
100
AcDbVertex
100
AcDb2dVertex
 10
629.6625365999997
 20
1521.3612778681
 30
0.0
  0
VERTEX
  5
6E1
330
6D8
100
AcDbEntity
  8
スト_ル
  6
CONTINUOUS
 62
     6
100
AcDbVertex
100
AcDb2dVertex
 10
629.9259032999997
 20
1521.7688401681
 30
0.0
  0
VERTEX
  5
6E2
330
6D8
100
AcDbEntity
  8
スト_ル
  6
CONTINUOUS
 62
     6
100
AcDbVertex
100
AcDb2dVertex
 10
630.1441039999999
 20
1522.1933396681
 30
0.0
  0
VERTEX
  5
6E3
330
6D8
100
AcDbEntity
  8
スト_ル
  6
CONTINUOUS
 62
     6
100
AcDbVertex
100
AcDb2dVertex
 10
630.3157653999996
 20
1522.6318772681
 30
0.0
  0
SEQEND
  5
6E4
330
6D8
100
AcDbEntity
  8
スト_ル
  6
CONTINUOUS
 62
     6
  0
POLYLINE
  5
6E5
330
1F
100
AcDbEntity
  8
スト_ル
  6
CONTINUOUS
 62
     6
100
AcDb2dPolyline
 66
     1
 10
0.0
 20
0.0
 30
0.0
 70
   128
  0
VERTEX
  5
6E6
330
6E5
100
AcDbEntity
  8
スト_ル
  6
CONTINUOUS
 62
     6
100
AcDbVertex
100
AcDb2dVertex
 10
630.3157653999996
 20
1522.6318772681
 30
0.0
  0
VERTEX
  5
6E7
330
6E5
100
AcDbEntity
  8
スト_ル
  6
CONTINUOUS
 62
     6
100
AcDbVertex
100
AcDb2dVertex
 10
630.4392089999996
 20
1523.0804856681
 30
0.0
  0
VERTEX
  5
6E8
330
6E5
100
AcDbEntity
  8
スト_ル
  6
CONTINUOUS
 62
     6
100
AcDbVertex
100
AcDb2dVertex
 10
630.5136718999996
 20
1523.5361130681
 30
0.0
  0
VERTEX
  5
6E9
330
6E5
100
AcDbEntity
  8
スト_ル
  6
CONTINUOUS
 62
     6
100
AcDbVertex
100
AcDb2dVertex
 10
630.5388488999996
 20
1523.9949448681
 30
0.0
  0
SEQEND
  5
6EA
330
6E5
100
AcDbEntity
  8
スト_ル
  6
CONTINUOUS
 62
     6
  0
POLYLINE
  5
6EB
330
1F
100
AcDbEntity
  8
スト_ル
  6
CONTINUOUS
 62
     6
100
AcDb2dPolyline
 66
     1
 10
0.0
 20
0.0
 30
0.0
 70
   128
  0
VERTEX
  5
6EC
330
6EB
100
AcDbEntity
  8
スト_ル
  6
CONTINUOUS
 62
     6
100
AcDbVertex
100
AcDb2dVertex
 10
615.5783690999996
 20
1523.9955552681
 30
0.0
  0
VERTEX
  5
6ED
330
6EB
100
AcDbEntity
  8
スト_ル
  6
CONTINUOUS
 62
     6
100
AcDbVertex
100
AcDb2dVertex
 10
615.5658568999996
 20
1524.4546921681
 30
0.0
  0
VERTEX
  5
6EE
330
6EB
100
AcDbEntity
  8
スト_ル
  6
CONTINUOUS
 62
     6
100
AcDbVertex
100
AcDb2dVertex
 10
615.5284728999994
 20
1524.9106247681
 30
0.0
  0
VERTEX
  5
6EF
330
6EB
100
AcDbEntity
  8
スト_ル
  6
CONTINUOUS
 62
     6
100
AcDbVertex
100
AcDb2dVertex
 10
615.4660643999999
 20
1525.3589280681
 30
0.0
  0
VERTEX
  5
6F0
330
6EB
100
AcDbEntity
  8
スト_ル
  6
CONTINUOUS
 62
     6
100
AcDbVertex
100
AcDb2dVertex
 10
615.3796996999998
 20
1525.7971604681
 30
0.0
  0
VERTEX
  5
6F1
330
6EB
100
AcDbEntity
  8
スト_ル
  6
CONTINUOUS
 62
     6
100
AcDbVertex
100
AcDb2dVertex
 10
615.2698363999997
 20
1526.2219651681
 30
0.0
  0
VERTEX
  5
6F2
330
6EB
100
AcDbEntity
  8
スト_ル
  6
CONTINUOUS
 62
     6
100
AcDbVertex
100
AcDb2dVertex
 10
615.1375426999997
 20
1526.6293747681
 30
0.0
  0
VERTEX
  5
6F3
330
6EB
100
AcDbEntity
  8
スト_ル
  6
CONTINUOUS
 62
     6
100
AcDbVertex
100
AcDb2dVertex
 10
614.9832763999997
 20
1527.0169480681
 30
0.0
  0
VERTEX
  5
6F4
330
6EB
100
AcDbEntity
  8
スト_ル
  6
CONTINUOUS
 62
     6
100
AcDbVertex
100
AcDb2dVertex
 10
614.8085631999996
 20
1527.3817856681
 30
0.0
  0
VERTEX
  5
6F5
330
6EB
100
AcDbEntity
  8
スト_ル
  6
CONTINUOUS
 62
     6
100
AcDbVertex
100
AcDb2dVertex
 10
614.6149291999999
 20
1527.7203782681
 30
0.0
  0
VERTEX
  5
6F6
330
6EB
100
AcDbEntity
  8
スト_ル
  6
CONTINUOUS
 62
     6
100
AcDbVertex
100
AcDb2dVertex
 10
614.4034423999996
 20
1528.0308945681
 30
0.0
  0
VERTEX
  5
6F7
330
6EB
100
AcDbEntity
  8
スト_ル
  6
CONTINUOUS
 62
     6
100
AcDbVertex
100
AcDb2dVertex
 10
614.1757811999995
 20
1528.3107407681
 30
0.0
  0
VERTEX
  5
6F8
330
6EB
100
AcDbEntity
  8
スト_ル
  6
CONTINUOUS
 62
     6
100
AcDbVertex
100
AcDb2dVertex
 10
613.9339294
 20
1528.5576279681
 30
0.0
  0
VERTEX
  5
6F9
330
6EB
100
AcDbEntity
  8
スト_ル
  6
CONTINUOUS
 62
     6
100
AcDbVertex
100
AcDb2dVertex
 10
613.6794127999996
 20
1528.7697251681
 30
0.0
  0
VERTEX
  5
6FA
330
6EB
100
AcDbEntity
  8
スト_ル
  6
CONTINUOUS
 62
     6
100
AcDbVertex
100
AcDb2dVertex
 10
613.4145202999997
 20
1528.9456589681
 30
0.0
  0
VERTEX
  5
6FB
330
6EB
100
AcDbEntity
  8
スト_ル
  6
CONTINUOUS
 62
     6
100
AcDbVertex
100
AcDb2dVertex
 10
613.1404723999998
 20
1529.0835984681
 30
0.0
  0
VERTEX
  5
6FC
330
6EB
100
AcDbEntity
  8
スト_ル
  6
CONTINUOUS
 62
     6
100
AcDbVertex
100
AcDb2dVertex
 10
612.8603209999995
 20
1529.1829331681
 30
0.0
  0
VERTEX
  5
6FD
330
6EB
100
AcDbEntity
  8
スト_ル
  6
CONTINUOUS
 62
     6
100
AcDbVertex
100
AcDb2dVertex
 10
612.5760497999999
 20
1529.2429001681
 30
0.0
  0
VERTEX
  5
6FE
330
6EB
100
AcDbEntity
  8
スト_ル
  6
CONTINUOUS
 62
     6
100
AcDbVertex
100
AcDb2dVertex
 10
612.2890319999996
 20
1529.2631943681
 30
0.0
  0
VERTEX
  5
6FF
330
6EB
100
AcDbEntity
  8
スト_ル
  6
CONTINUOUS
 62
     6
100
AcDbVertex
100
AcDb2dVertex
 10
612.0023192999996
 20
1529.2432053681
 30
0.0
  0
VERTEX
  5
700
330
6EB
100
AcDbEntity
  8
スト_ル
  6
CONTINUOUS
 62
     6
100
AcDbVertex
100
AcDb2dVertex
 10
611.7177428999997
 20
1529.1832383681
 30
0.0
  0
VERTEX
  5
701
330
6EB
100
AcDbEntity
  8
スト_ル
  6
CONTINUOUS
 62
     6
100
AcDbVertex
100
AcDb2dVertex
 10
611.4378966999997
 20
1529.0835984681
 30
0.0
  0
VERTEX
  5
702
330
6EB
100
AcDbEntity
  8
スト_ル
  6
CONTINUOUS
 62
     6
100
AcDbVertex
100
AcDb2dVertex
 10
611.1643065999996
 20
1528.9453537681
 30
0.0
  0
VERTEX
  5
703
330
6EB
100
AcDbEntity
  8
スト_ル
  6
CONTINUOUS
 62
     6
100
AcDbVertex
100
AcDb2dVertex
 10
610.8991088999995
 20
1528.7694199681
 30
0.0
  0
VERTEX
  5
704
330
6EB
100
AcDbEntity
  8
スト_ル
  6
CONTINUOUS
 62
     6
100
AcDbVertex
100
AcDb2dVertex
 10
610.6445923
 20
1528.5576279681
 30
0.0
  0
VERTEX
  5
705
330
6EB
100
AcDbEntity
  8
スト_ル
  6
CONTINUOUS
 62
     6
100
AcDbVertex
100
AcDb2dVertex
 10
610.4025878999995
 20
1528.3107407681
 30
0.0
  0
VERTEX
  5
706
330
6EB
100
AcDbEntity
  8
スト_ル
  6
CONTINUOUS
 62
     6
100
AcDbVertex
100
AcDb2dVertex
 10
610.1749266999994
 20
1528.0308945681
 30
0.0
  0
VERTEX
  5
707
330
6EB
100
AcDbEntity
  8
スト_ル
  6
CONTINUOUS
 62
     6
100
AcDbVertex
100
AcDb2dVertex
 10
609.9634399
 20
1527.7203782681
 30
0.0
  0
VERTEX
  5
708
330
6EB
100
AcDbEntity
  8
スト_ル
  6
CONTINUOUS
 62
     6
100
AcDbVertex
100
AcDb2dVertex
 10
609.7696532999997
 20
1527.3814805681
 30
0.0
  0
VERTEX
  5
709
330
6EB
100
AcDbEntity
  8
スト_ル
  6
CONTINUOUS
 62
     6
100
AcDbVertex
100
AcDb2dVertex
 10
609.5949401999995
 20
1527.0169480681
 30
0.0
  0
VERTEX
  5
70A
330
6EB
100
AcDbEntity
  8
スト_ル
  6
CONTINUOUS
 62
     6
100
AcDbVertex
100
AcDb2dVertex
 10
609.4408263999998
 20
1526.6293747681
 30
0.0
  0
VERTEX
  5
70B
330
6EB
100
AcDbEntity
  8
スト_ル
  6
CONTINUOUS
 62
     6
100
AcDbVertex
100
AcDb2dVertex
 10
609.3083800999997
 20
1526.2218125681
 30
0.0
  0
VERTEX
  5
70C
330
6EB
100
AcDbEntity
  8
スト_ル
  6
CONTINUOUS
 62
     6
100
AcDbVertex
100
AcDb2dVertex
 10
609.1988219999997
 20
1525.7973130681
 30
0.0
  0
VERTEX
  5
70D
330
6EB
100
AcDbEntity
  8
スト_ル
  6
CONTINUOUS
 62
     6
100
AcDbVertex
100
AcDb2dVertex
 10
609.1123046999995
 20
1525.3589280681
 30
0.0
  0
VERTEX
  5
70E
330
6EB
100
AcDbEntity
  8
スト_ル
  6
CONTINUOUS
 62
     6
100
AcDbVertex
100
AcDb2dVertex
 10
609.0503539999999
 20
1524.9103196681
 30
0.0
  0
VERTEX
  5
70F
330
6EB
100
AcDbEntity
  8
スト_ル
  6
CONTINUOUS
 62
     6
100
AcDbVertex
100
AcDb2dVertex
 10
609.0129699999997
 20
1524.4546921681
 30
0.0
  0
VERTEX
  5
710
330
6EB
100
AcDbEntity
  8
スト_ル
  6
CONTINUOUS
 62
     6
100
AcDbVertex
100
AcDb2dVertex
 10
609.0001525999995
 20
1523.9955552681
 30
0.0
  0
VERTEX
  5
711
330
6EB
100
AcDbEntity
  8
スト_ル
  6
CONTINUOUS
 62
     6
100
AcDbVertex
100
AcDb2dVertex
 10
609.0126647999999
 20
1523.5365708681
 30
0.0
  0
VERTEX
  5
712
330
6EB
100
AcDbEntity
  8
スト_ル
  6
CONTINUOUS
 62
     6
100
AcDbVertex
100
AcDb2dVertex
 10
609.0502013999998
 20
1523.0810959681
 30
0.0
  0
VERTEX
  5
713
330
6EB
100
AcDbEntity
  8
スト_ル
  6
CONTINUOUS
 62
     6
100
AcDbVertex
100
AcDb2dVertex
 10
609.1123046999995
 20
1522.6318772681
 30
0.0
  0
VERTEX
  5
714
330
6EB
100
AcDbEntity
  8
スト_ル
  6
CONTINUOUS
 62
     6
100
AcDbVertex
100
AcDb2dVertex
 10
609.1986693999996
 20
1522.1936448681
 30
0.0
  0
VERTEX
  5
715
330
6EB
100
AcDbEntity
  8
スト_ル
  6
CONTINUOUS
 62
     6
100
AcDbVertex
100
AcDb2dVertex
 10
609.3086852999999
 20
1521.7688401681
 30
0.0
  0
VERTEX
  5
716
330
6EB
100
AcDbEntity
  8
スト_ル
  6
CONTINUOUS
 62
     6
100
AcDbVertex
100
AcDb2dVertex
 10
609.4408263999998
 20
1521.3612778681
 30
0.0
  0
VERTEX
  5
717
330
6EB
100
AcDbEntity
  8
スト_ル
  6
CONTINUOUS
 62
     6
100
AcDbVertex
100
AcDb2dVertex
 10
609.5950927999996
 20
1520.9737046681
 30
0.0
  0
VERTEX
  5
718
330
6EB
100
AcDbEntity
  8
スト_ル
  6
CONTINUOUS
 62
     6
100
AcDbVertex
100
AcDb2dVertex
 10
609.7699584999999
 20
1520.6088669681
 30
0.0
  0
VERTEX
  5
719
330
6EB
100
AcDbEntity
  8
スト_ル
  6
CONTINUOUS
 62
     6
100
AcDbVertex
100
AcDb2dVertex
 10
609.9634399
 20
1520.2704270681
 30
0.0
  0
VERTEX
  5
71A
330
6EB
100
AcDbEntity
  8
スト_ル
  6
CONTINUOUS
 62
     6
100
AcDbVertex
100
AcDb2dVertex
 10
610.1750792999995
 20
1519.9599106681
 30
0.0
  0
VERTEX
  5
71B
330
6EB
100
AcDbEntity
  8
スト_ル
  6
CONTINUOUS
 62
     6
100
AcDbVertex
100
AcDb2dVertex
 10
610.4027404999996
 20
1519.6800644681
 30
0.0
  0
VERTEX
  5
71C
330
6EB
100
AcDbEntity
  8
スト_ル
  6
CONTINUOUS
 62
     6
100
AcDbVertex
100
AcDb2dVertex
 10
610.6445923
 20
1519.4331772681
 30
0.0
  0
VERTEX
  5
71D
330
6EB
100
AcDbEntity
  8
スト_ル
  6
CONTINUOUS
 62
     6
100
AcDbVertex
100
AcDb2dVertex
 10
610.8991088999995
 20
1519.2210801681
 30
0.0
  0
VERTEX
  5
71E
330
6EB
100
AcDbEntity
  8
スト_ル
  6
CONTINUOUS
 62
     6
100
AcDbVertex
100
AcDb2dVertex
 10
611.1641539999995
 20
1519.0451462681
 30
0.0
  0
VERTEX
  5
71F
330
6EB
100
AcDbEntity
  8
スト_ル
  6
CONTINUOUS
 62
     6
100
AcDbVertex
100
AcDb2dVertex
 10
611.4378966999997
 20
1518.9070542681
 30
0.0
  0
VERTEX
  5
720
330
6EB
100
AcDbEntity
  8
スト_ル
  6
CONTINUOUS
 62
     6
100
AcDbVertex
100
AcDb2dVertex
 10
611.7180480999995
 20
1518.8077195681
 30
0.0
  0
VERTEX
  5
721
330
6EB
100
AcDbEntity
  8
スト_ル
  6
CONTINUOUS
 62
     6
100
AcDbVertex
100
AcDb2dVertex
 10
612.0024718999997
 20
1518.7477524681
 30
0.0
  0
VERTEX
  5
722
330
6EB
100
AcDbEntity
  8
スト_ル
  6
CONTINUOUS
 62
     6
100
AcDbVertex
100
AcDb2dVertex
 10
612.2890319999996
 20
1518.7273057681
 30
0.0
  0
VERTEX
  5
723
330
6EB
100
AcDbEntity
  8
スト_ル
  6
CONTINUOUS
 62
     6
100
AcDbVertex
100
AcDb2dVertex
 10
612.5755919999996
 20
1518.7472947681
 30
0.0
  0
VERTEX
  5
724
330
6EB
100
AcDbEntity
  8
スト_ル
  6
CONTINUOUS
 62
     6
100
AcDbVertex
100
AcDb2dVertex
 10
612.8600158999997
 20
1518.8072617681
 30
0.0
  0
VERTEX
  5
725
330
6EB
100
AcDbEntity
  8
スト_ル
  6
CONTINUOUS
 62
     6
100
AcDbVertex
100
AcDb2dVertex
 10
613.1404723999998
 20
1518.9070542681
 30
0.0
  0
VERTEX
  5
726
330
6EB
100
AcDbEntity
  8
スト_ル
  6
CONTINUOUS
 62
     6
100
AcDbVertex
100
AcDb2dVertex
 10
613.4142150999995
 20
1519.0452988681
 30
0.0
  0
VERTEX
  5
727
330
6EB
100
AcDbEntity
  8
スト_ル
  6
CONTINUOUS
 62
     6
100
AcDbVertex
100
AcDb2dVertex
 10
613.6794127999996
 20
1519.2212327681
 30
0.0
  0
SEQEND
  5
728
330
6EB
100
AcDbEntity
  8
スト_ル
  6
CONTINUOUS
 62
     6
  0
POLYLINE
  5
729
330
1F
100
AcDbEntity
  8
スト_ル
  6
CONTINUOUS
 62
     6
100
AcDb2dPolyline
 66
     1
 10
0.0
 20
0.0
 30
0.0
 70
   128
  0
VERTEX
  5
72A
330
729
100
AcDbEntity
  8
スト_ル
  6
CONTINUOUS
 62
     6
100
AcDbVertex
100
AcDb2dVertex
 10
613.6794127999996
 20
1519.2212327681
 30
0.0
  0
VERTEX
  5
72B
330
729
100
AcDbEntity
  8
スト_ル
  6
CONTINUOUS
 62
     6
100
AcDbVertex
100
AcDb2dVertex
 10
613.9339294
 20
1519.4331772681
 30
0.0
  0
VERTEX
  5
72C
330
729
100
AcDbEntity
  8
スト_ル
  6
CONTINUOUS
 62
     6
100
AcDbVertex
100
AcDb2dVertex
 10
614.1759337999996
 20
1519.6800644681
 30
0.0
  0
VERTEX
  5
72D
330
729
100
AcDbEntity
  8
スト_ル
  6
CONTINUOUS
 62
     6
100
AcDbVertex
100
AcDb2dVertex
 10
614.4037474999994
 20
1519.9599106681
 30
0.0
  0
VERTEX
  5
72E
330
729
100
AcDbEntity
  8
スト_ル
  6
CONTINUOUS
 62
     6
100
AcDbVertex
100
AcDb2dVertex
 10
614.6149291999999
 20
1520.2704270681
 30
0.0
  0
VERTEX
  5
72F
330
729
100
AcDbEntity
  8
スト_ル
  6
CONTINUOUS
 62
     6
100
AcDbVertex
100
AcDb2dVertex
 10
614.8087157999997
 20
1520.6093247681
 30
0.0
  0
VERTEX
  5
730
330
729
100
AcDbEntity
  8
スト_ル
  6
CONTINUOUS
 62
     6
100
AcDbVertex
100
AcDb2dVertex
 10
614.9835814999996
 20
1520.9738572681
 30
0.0
  0
VERTEX
  5
731
330
729
100
AcDbEntity
  8
スト_ル
  6
CONTINUOUS
 62
     6
100
AcDbVertex
100
AcDb2dVertex
 10
615.1375426999997
 20
1521.3612778681
 30
0.0
  0
VERTEX
  5
732
330
729
100
AcDbEntity
  8
スト_ル
  6
CONTINUOUS
 62
     6
100
AcDbVertex
100
AcDb2dVertex
 10
615.2699889999998
 20
1521.7688401681
 30
0.0
  0
VERTEX
  5
733
330
729
100
AcDbEntity
  8
スト_ル
  6
CONTINUOUS
 62
     6
100
AcDbVertex
100
AcDb2dVertex
 10
615.3796996999998
 20
1522.1933396681
 30
0.0
  0
VERTEX
  5
734
330
729
100
AcDbEntity
  8
スト_ル
  6
CONTINUOUS
 62
     6
100
AcDbVertex
100
AcDb2dVertex
 10
615.4660643999999
 20
1522.6318772681
 30
0.0
  0
SEQEND
  5
735
330
729
100
AcDbEntity
  8
スト_ル
  6
CONTINUOUS
 62
     6
  0
POLYLINE
  5
736
330
1F
100
AcDbEntity
  8
スト_ル
  6
CONTINUOUS
 62
     6
100
AcDb2dPolyline
 66
     1
 10
0.0
 20
0.0
 30
0.0
 70
   128
  0
VERTEX
  5
737
330
736
100
AcDbEntity
  8
スト_ル
  6
CONTINUOUS
 62
     6
100
AcDbVertex
100
AcDb2dVertex
 10
615.4660643999999
 20
1522.6318772681
 30
0.0
  0
VERTEX
  5
738
330
736
100
AcDbEntity
  8
スト_ル
  6
CONTINUOUS
 62
     6
100
AcDbVertex
100
AcDb2dVertex
 10
615.5281676999997
 20
1523.0804856681
 30
0.0
  0
VERTEX
  5
739
330
736
100
AcDbEntity
  8
スト_ル
  6
CONTINUOUS
 62
     6
100
AcDbVertex
100
AcDb2dVertex
 10
615.5655516999994
 20
1523.5361130681
 30
0.0
  0
VERTEX
  5
73A
330
736
100
AcDbEntity
  8
スト_ル
  6
CONTINUOUS
 62
     6
100
AcDbVertex
100
AcDb2dVertex
 10
615.5779113999996
 20
1523.9949448681
 30
0.0
  0
SEQEND
  5
73B
330
736
100
AcDbEntity
  8
スト_ル
  6
CONTINUOUS
 62
     6
  0
LINE
  5
73C
330
1F
100
AcDbEntity
  8
スト_ル
  6
CONTINUOUS
 62
     6
100
AcDbLine
 10
636.4999999999999
 20
1517.9951890681
 30
0.0
 11
636.4999999999999
 21
1514.4952805681
 31
0.0
  0
LINE
  5
73D
330
1F
100
AcDbEntity
  8
スト_ル
  6
CONTINUOUS
 62
     6
100
AcDbLine
 10
611.4999999999999
 20
1517.9951890681
 30
0.0
 11
611.4999999999999
 21
1514.4952805681
 31
0.0
  0
LINE
  5
73E
330
1F
100
AcDbEntity
  8
スト_ル
  6
CONTINUOUS
 62
     6
100
AcDbLine
 10
638.9999999999999
 20
1507.9953415681
 30
0.0
 11
638.9999999999999
 21
1512.9953415681
 31
0.0
  0
LINE
  5
73F
330
1F
100
AcDbEntity
  8
スト_ル
  6
CONTINUOUS
 62
     6
100
AcDbLine
 10
637.5000609999996
 20
1514.4952805681
 30
0.0
 11
638.9999999999999
 21
1512.9953415681
 31
0.0
  0
LINE
  5
740
330
1F
100
AcDbEntity
  8
スト_ル
  6
CONTINUOUS
 62
     6
100
AcDbLine
 10
610.4999389999997
 20
1514.4952805681
 30
0.0
 11
637.5000609999996
 21
1514.4952805681
 31
0.0
  0
LINE
  5
741
330
1F
100
AcDbEntity
  8
スト_ル
  6
CONTINUOUS
 62
     6
100
AcDbLine
 10
608.9999999999999
 20
1512.9953415681
 30
0.0
 11
610.4999389999997
 21
1514.4952805681
 31
0.0
  0
LINE
  5
742
330
1F
100
AcDbEntity
  8
スト_ル
  6
CONTINUOUS
 62
     6
100
AcDbLine
 10
608.9999999999999
 20
1507.9953415681
 30
0.0
 11
608.9999999999999
 21
1512.9953415681
 31
0.0
  0
LINE
  5
743
330
1F
100
AcDbEntity
  8
スト_ル
  6
CONTINUOUS
 62
     6
100
AcDbLine
 10
632.4217834
 20
1512.9953415681
 30
0.0
 11
632.4217834
 21
1507.9953415681
 31
0.0
  0
LINE
  5
744
330
1F
100
AcDbEntity
  8
スト_ル
  6
CONTINUOUS
 62
     6
100
AcDbLine
 10
630.5382384999997
 20
1512.9953415681
 30
0.0
 11
630.5382384999997
 21
1507.9953415681
 31
0.0
  0
LINE
  5
745
330
1F
100
AcDbEntity
  8
スト_ル
  6
CONTINUOUS
 62
     6
100
AcDbLine
 10
617.4617614999996
 20
1512.9953415681
 30
0.0
 11
617.4617614999996
 21
1507.9953415681
 31
0.0
  0
LINE
  5
746
330
1F
100
AcDbEntity
  8
スト_ル
  6
CONTINUOUS
 62
     6
100
AcDbLine
 10
615.5780639999997
 20
1512.9953415681
 30
0.0
 11
615.5780639999997
 21
1507.9953415681
 31
0.0
  0
ARC
  5
747
330
1F
100
AcDbEntity
  8
スト_ル
  6
CONTINUOUS
 62
     6
100
AcDbCircle
 10
635.6911315999995
 20
1510.1822312681
 30
0.0
 40
4.3130302
100
AcDbArc
 50
40.71034240999998
 51
139.28967285
  0
LINE
  5
748
330
1F
100
AcDbEntity
  8
スト_ル
  6
CONTINUOUS
 62
     6
100
AcDbLine
 10
630.5382384999997
 20
1512.9953415681
 30
0.0
 11
632.4217834
 21
1512.9953415681
 31
0.0
  0
ARC
  5
749
330
1F
100
AcDbEntity
  8
スト_ル
  6
CONTINUOUS
 62
     6
100
AcDbCircle
 10
623.9999999999999
 20
1499.4952805681
 30
0.0
 40
15.0000095
100
AcDbArc
 50
64.15853881999998
 51
115.84147644
  0
LINE
  5
74A
330
1F
100
AcDbEntity
  8
スト_ル
  6
CONTINUOUS
 62
     6
100
AcDbLine
 10
615.5780639999997
 20
1512.9953415681
 30
0.0
 11
617.4617614999996
 21
1512.9953415681
 31
0.0
  0
ARC
  5
74B
330
1F
100
AcDbEntity
  8
スト_ル
  6
CONTINUOUS
 62
     6
100
AcDbCircle
 10
612.2890319999996
 20
1510.1393540681
 30
0.0
 40
4.3559611
100
AcDbArc
 50
40.96897887999995
 51
139.03100586
  0
LINE
  5
74C
330
1F
100
AcDbEntity
  8
スト_ル
  6
CONTINUOUS
 62
     6
100
AcDbLine
 10
643.9999999999999
 20
1507.9953415681
 30
0.0
 11
643.9999999999999
 21
1502.9953415681
 31
0.0
  0
LINE
  5
74D
330
1F
100
AcDbEntity
  8
スト_ル
  6
CONTINUOUS
 62
     6
100
AcDbLine
 10
603.9999999999999
 20
1507.9953415681
 30
0.0
 11
643.9999999999999
 21
1507.9953415681
 31
0.0
  0
LINE
  5
74E
330
1F
100
AcDbEntity
  8
スト_ル
  6
CONTINUOUS
 62
     6
100
AcDbLine
 10
603.9999999999999
 20
1507.9953415681
 30
0.0
 11
603.9999999999999
 21
1502.9953415681
 31
0.0
  0
LINE
  5
74F
330
1F
100
AcDbEntity
  8
スト_ル
  6
CONTINUOUS
 62
     6
100
AcDbLine
 10
616.0600000000001
 20
1624.7000000001
 30
0.0
 11
616.0600000000001
 21
1529.9953110681
 31
0.0
  0
LINE
  5
750
330
1F
100
AcDbEntity
  8
スト_ル
  6
CONTINUOUS
 62
     6
100
AcDbLine
 10
631.9399999999997
 20
1529.9953110681
 30
0.0
 11
631.9399999999997
 21
1624.7000000001
 31
0.0
  0
LINE
  5
751
330
1F
100
AcDbEntity
  8
スト_ル
  6
CONTINUOUS
 62
     6
100
AcDbLine
 10
1659.8703943
 20
1557.5000000001
 30
0.0
 11
1659.8703943
 21
1529.9953466397
 31
0.0
  0
LINE
  5
752
330
1F
100
AcDbEntity
  8
スト_ル
  6
CONTINUOUS
 62
     6
100
AcDbLine
 10
1675.7503943
 20
1557.5000000001
 30
0.0
 11
1675.7503943
 21
1529.9953466397
 31
0.0
  0
ENDSEC
  0
SECTION
  2
OBJECTS
  0
DICTIONARY
  5
C
330
0
100
AcDbDictionary
  3
ACAD_GROUP
350
D
  3
ACAD_LAYOUT
350
1A
  3
ACAD_MATERIAL
350
3B
  3
ACAD_MLEADERSTYLE
350
775
  3
ACAD_MLINESTYLE
350
17
  3
ACAD_PLOTSETTINGS
350
19
  3
ACAD_VISUALSTYLE
350
2A
  3
ACDBHEADERROUNDTRIPXREC
350
753
  3
ACDBVARIABLEDICTIONARY
350
773
  0
DICTIONARY
  5
D
102
{ACAD_REACTORS
330
C
102
}
330
C
100
AcDbDictionary
  0
DICTIONARY
  5
1A
102
{ACAD_REACTORS
330
C
102
}
330
C
100
AcDbDictionary
  0
DICTIONARY
  5
3B
102
{ACAD_REACTORS
330
C
102
}
330
C
100
AcDbDictionary
  3
BYBLOCK
350
3D
  3
BYLAYER
350
3C
  3
GLOBAL
350
3E
  0
DICTIONARY
  5
775
102
{ACAD_REACTORS
330
C
102
}
330
C
100
AcDbDictionary
  0
DICTIONARY
  5
17
102
{ACAD_REACTORS
330
C
102
}
330
C
100
AcDbDictionary
  3
STANDARD
350
18
  0
DICTIONARY
  5
19
102
{ACAD_REACTORS
330
C
102
}
330
C
100
AcDbDictionary
  0
DICTIONARY
  5
2A
102
{ACAD_REACTORS
330
C
102
}
330
C
100
AcDbDictionary
  3
2DWIREFRAME
350
2F
  3
3D_HIDDEN
350
31
  3
3DWIREFRAME
350
30
  3
BASIC
350
32
  3
BRIGHTEN
350
36
  3
COLORCHANGE
350
3A
  3
CONCEPTUAL
350
34
  3
DIM
350
35
  3
FACEPATTERN
350
39
  3
FLAT
350
2B
  3
FLATWITHEDGES
350
2C
  3
GOURAUD
350
2D
  3
GOURAUDWITHEDGES
350
2E
  3
LINEPATTERN
350
38
  3
REALISTIC
350
33
  3
THICKEN
350
37
  0
DICTIONARY
  5
753
102
{ACAD_REACTORS
330
C
102
}
330
C
100
AcDbDictionary
  3
CEPSNTYPE
350
75C
  3
DIMSTYLEDATA
350
772
  3
FINGERPRINTGUID
350
75D
  3
HYPERLINKBASE
350
756
  3
INSUNITS
350
75B
  3
LAYOUTDICT
350
758
  3
LWETCUNION
350
75A
  3
PLOTSETDICT
350
759
  3
PSVPSCALE
350
75F
  3
PUCSBASE
350
762
  3
PUCSORGBACK
350
768
  3
PUCSORGBOTTOM
350
764
  3
PUCSORGFRONT
350
767
  3
PUCSORGLEFT
350
765
  3
PUCSORGRIGHT
350
766
  3
PUCSORGTOP
350
763
  3
PUCSORTHOREF
350
760
  3
PUCSORTHOVIEW
350
761
  3
STYLESHEET
350
757
  3
TSTACKALIGN
350
754
  3
TSTACKSIZE
350
755
  3
UCSBASE
350
76B
  3
UCSORGBACK
350
771
  3
UCSORGBOTTOM
350
76D
  3
UCSORGFRONT
350
770
  3
UCSORGLEFT
350
76E
  3
UCSORGRIGHT
350
76F
  3
UCSORGTOP
350
76C
  3
UCSORTHOREF
350
769
  3
UCSORTHOVIEW
350
76A
  3
VERSIONGUID
350
75E
  0
DICTIONARY
  5
773
102
{ACAD_REACTORS
330
C
102
}
330
C
100
AcDbDictionary
  3
DIMASSOC
350
778
  3
HIDETEXT
350
779
  3
PSOLHEIGHT
350
777
  3
PSOLWIDTH
350
776
  0
MATERIAL
  5
3D
102
{ACAD_REACTORS
330
3B
102
}
102
{ACAD_XDICTIONARY
360
77C
102
}
330
3B
100
AcDbMaterial
  1
ByBlock
  0
MATERIAL
  5
3C
102
{ACAD_REACTORS
330
3B
102
}
102
{ACAD_XDICTIONARY
360
77A
102
}
330
3B
100
AcDbMaterial
  1
ByLayer
  0
MATERIAL
  5
3E
102
{ACAD_REACTORS
330
3B
102
}
102
{ACAD_XDICTIONARY
360
77E
102
}
330
3B
100
AcDbMaterial
  1
Global
  0
MLINESTYLE
  5
18
102
{ACAD_REACTORS
330
17
102
}
330
17
100
AcDbMlineStyle
  2
Standard
 70
     0
  3

 62
   256
 51
90.0
 52
90.0
 71
     2
 49
0.5
 62
   256
  6
BYLAYER
 49
-0.5
 62
   256
  6
BYLAYER
  0
ACAD_PROXY_OBJECT
  5
2F
102
{ACAD_REACTORS
330
2A
102
}
330
2A
100
AcDbProxyObject
 90
      499
 91
      501
 93
      436
310
42CC9915DA5C99599C985B595049028333333333333E3BF0000000000000FB0107901411070040501600405405064090741402480A0340
1001
ACAD
1000
AcDbSavedByObjectVersion
1070
     0
  0
ACAD_PROXY_OBJECT
  5
31
102
{ACAD_REACTORS
330
2A
102
}
330
2A
100
AcDbProxyObject
 90
      499
 91
      501
 93
      500
310
424CD108121A5919195B90640502408333333333333E3BF0000000000000FB01079024090700405020000000000001110200405405064090740C02480A0340
1001
ACAD
1000
AcDbSavedByObjectVersion
1070
     0
  0
ACAD_PROXY_OBJECT
  5
30
102
{ACAD_REACTORS
330
2A
102
}
330
2A
100
AcDbProxyObject
 90
      499
 91
      501
 93
      436
310
42CCD915DA5C99599C985B595059028333333333333E3BF0000000000000FB0107901411070040501600405405064090741402480A0340
1001
ACAD
1000
AcDbSavedByObjectVersion
1070
     0
  0
ACAD_PROXY_OBJECT
  5
32
102
{ACAD_REACTORS
330
2A
102
}
330
2A
100
AcDbProxyObject
 90
      499
 91
      501
 93
      388
310
4150985CDA58D07406404333333333333E3BF0000000000000FB0107A41107004050150841D405064090741402480A0350
1001
ACAD
1000
AcDbSavedByObjectVersion
1070
     0
  0
ACAD_PROXY_OBJECT
  5
36
102
{ACAD_REACTORS
330
2A
102
}
330
2A
100
AcDbProxyObject
 90
      499
 91
      501
 93
      428
310
42109C9A59DA1D195B90C409028333333333333E3BF0000000000000FB010790141107004050150841D405064090741402480A029950
1001
ACAD
1000
AcDbSavedByObjectVersion
1070
     0
  0
ACAD_PROXY_OBJECT
  5
3A
102
{ACAD_REACTORS
330
2A
102
}
330
2A
100
AcDbProxyObject
 90
      499
 91
      501
 93
      452
310
42D0DBDB1BDC90DA185B99D95104090240C333333333333E3BF0000000000000FB0108901411070040501508421405064090741402480A0350
1001
ACAD
1000
AcDbSavedByObjectVersion
1070
     0
  0
ACAD_PROXY_OBJECT
  5
34
102
{ACAD_REACTORS
330
2A
102
}
330
2A
100
AcDbProxyObject
 90
      499
 91
      501
 93
      500
310
4290DBDB98D95C1D1D585B10940D028333333333333E3BF0000000000000FB0107902409070040501000000000000111010841D405064090740C02480A0340
1001
ACAD
1000
AcDbSavedByObjectVersion
1070
     0
  0
ACAD_PROXY_OBJECT
  5
35
102
{ACAD_REACTORS
330
2A
102
}
330
2A
100
AcDbProxyObject
 90
      499
 91
      501
 93
      412
310
40D11A5B50B409028333333333333E3BF0000000000000FB010790141107004050150841D405064090741402480A02677FFFFFD0
1001
ACAD
1000
AcDbSavedByObjectVersion
1070
     0
  0
ACAD_PROXY_OBJECT
  5
39
102
{ACAD_REACTORS
330
2A
102
}
330
2A
100
AcDbProxyObject
 90
      499
 91
      501
 93
      444
310
42D19858D95C185D1D195C9B90F409028333333333333E3BF0000000000000FB010790141107004050150841D405064090741402480A0350
1001
ACAD
1000
AcDbSavedByObjectVersion
1070
     0
  0
ACAD_PROXY_OBJECT
  5
2B
102
{ACAD_REACTORS
330
2A
102
}
330
2A
100
AcDbProxyObject
 90
      499
 91
      501
 93
      388
310
41119B185D240901404333333333333E3BF0000000000000F9010740A41107004050150841D405064090741402480A1B50
1001
ACAD
1000
AcDbSavedByObjectVersion
1070
     0
  0
ACAD_PROXY_OBJECT
  5
2C
102
{ACAD_REACTORS
330
2A
102
}
330
2A
100
AcDbProxyObject
 90
      499
 91
      501
 93
      476
310
43519B185D15DA5D1A115919D95CD0140901404333333333333E3BF0000000000000F9010740901411070040501600405405064090741402480A1B50
1001
ACAD
1000
AcDbSavedByObjectVersion
1070
     0
  0
ACAD_PROXY_OBJECT
  5
2D
102
{ACAD_REACTORS
330
2A
102
}
330
2A
100
AcDbProxyObject
 90
      499
 91
      501
 93
      412
310
41D1DBDD5C985D5910240902404333333333333E3BF0000000000000F9010740A411070040501641D405064090741402480A1B50
1001
ACAD
1000
AcDbSavedByObjectVersion
1070
     0
  0
ACAD_PROXY_OBJECT
  5
2E
102
{ACAD_REACTORS
330
2A
102
}
330
2A
100
AcDbProxyObject
 90
      499
 91
      501
 93
      500
310
4411DBDD5C985D5915DA5D1A115919D95CD0340902404333333333333E3BF0000000000000F9010740901411070040501600405405064090741402480A1B50
1001
ACAD
1000
AcDbSavedByObjectVersion
1070
     0
  0
ACAD_PROXY_OBJECT
  5
38
102
{ACAD_REACTORS
330
2A
102
}
330
2A
100
AcDbProxyObject
 90
      499
 91
      501
 93
      444
310
42D31A5B995C185D1D195C9B90E409028333333333333E3BF0000000000000FB010790141107004050750841D405064090741402483A0350
1001
ACAD
1000
AcDbSavedByObjectVersion
1070
     0
  0
ACAD_PROXY_OBJECT
  5
33
102
{ACAD_REACTORS
330
2A
102
}
330
2A
100
AcDbProxyObject
 90
      499
 91
      501
 93
      420
310
425499585B1A5CDD1A58D08409028333333333333E3BF0000000000000FB01079019070040501508421405064090741402480A1B40
1001
ACAD
1000
AcDbSavedByObjectVersion
1070
     0
  0
ACAD_PROXY_OBJECT
  5
37
102
{ACAD_REACTORS
330
2A
102
}
330
2A
100
AcDbProxyObject
 90
      499
 91
      501
 93
      412
310
41D51A1A58DAD95B90D409028333333333333E3BF0000000000000FB010790141107004050150C41D405064090741402480A0350
1001
ACAD
1000
AcDbSavedByObjectVersion
1070
     0
  0
XRECORD
  5
75C
102
{ACAD_REACTORS
330
753
102
}
330
753
100
AcDbXrecord
 90
        0
  0
XRECORD
  5
772
102
{ACAD_REACTORS
330
753
102
}
330
753
100
AcDbXrecord
1000
DSTYLE
1002
{
1070
   340
340
11
1002
}
  0
XRECORD
  5
75D
102
{ACAD_REACTORS
330
753
102
}
330
753
100
AcDbXrecord
  1
{09C8920C-755A-46EC-A13E-8FE60A309147}
  0
XRECORD
  5
756
102
{ACAD_REACTORS
330
753
102
}
330
753
100
AcDbXrecord
  1

  0
XRECORD
  5
75B
102
{ACAD_REACTORS
330
753
102
}
330
753
100
AcDbXrecord
 90
        4
  0
XRECORD
  5
758
102
{ACAD_REACTORS
330
753
102
}
330
753
100
AcDbXrecord
340
1A
  0
XRECORD
  5
75A
102
{ACAD_REACTORS
330
753
102
}
330
753
100
AcDbXrecord
 90
    10781
  0
XRECORD
  5
759
102
{ACAD_REACTORS
330
753
102
}
330
753
100
AcDbXrecord
340
19
  0
XRECORD
  5
75F
102
{ACAD_REACTORS
330
753
102
}
330
753
100
AcDbXrecord
 40
0.0
  0
XRECORD
  5
762
102
{ACAD_REACTORS
330
753
102
}
330
753
100
AcDbXrecord
340
0
  0
XRECORD
  5
768
102
{ACAD_REACTORS
330
753
102
}
330
753
100
AcDbXrecord
 10
0.0
 20
0.0
 30
0.0
  0
XRECORD
  5
764
102
{ACAD_REACTORS
330
753
102
}
330
753
100
AcDbXrecord
 10
0.0
 20
0.0
 30
0.0
  0
XRECORD
  5
767
102
{ACAD_REACTORS
330
753
102
}
330
753
100
AcDbXrecord
 10
0.0
 20
0.0
 30
0.0
  0
XRECORD
  5
765
102
{ACAD_REACTORS
330
753
102
}
330
753
100
AcDbXrecord
 10
0.0
 20
0.0
 30
0.0
  0
XRECORD
  5
766
102
{ACAD_REACTORS
330
753
102
}
330
753
100
AcDbXrecord
 10
0.0
 20
0.0
 30
0.0
  0
XRECORD
  5
763
102
{ACAD_REACTORS
330
753
102
}
330
753
100
AcDbXrecord
 10
0.0
 20
0.0
 30
0.0
  0
XRECORD
  5
760
102
{ACAD_REACTORS
330
753
102
}
330
753
100
AcDbXrecord
340
0
  0
XRECORD
  5
761
102
{ACAD_REACTORS
330
753
102
}
330
753
100
AcDbXrecord
 70
     0
  0
XRECORD
  5
757
102
{ACAD_REACTORS
330
753
102
}
330
753
100
AcDbXrecord
  1

  0
XRECORD
  5
754
102
{ACAD_REACTORS
330
753
102
}
330
753
100
AcDbXrecord
 90
        1
  0
XRECORD
  5
755
102
{ACAD_REACTORS
330
753
102
}
330
753
100
AcDbXrecord
 90
       70
  0
XRECORD
  5
76B
102
{ACAD_REACTORS
330
753
102
}
330
753
100
AcDbXrecord
340
0
  0
XRECORD
  5
771
102
{ACAD_REACTORS
330
753
102
}
330
753
100
AcDbXrecord
 10
0.0
 20
0.0
 30
0.0
  0
XRECORD
  5
76D
102
{ACAD_REACTORS
330
753
102
}
330
753
100
AcDbXrecord
 10
0.0
 20
0.0
 30
0.0
  0
XRECORD
  5
770
102
{ACAD_REACTORS
330
753
102
}
330
753
100
AcDbXrecord
 10
0.0
 20
0.0
 30
0.0
  0
XRECORD
  5
76E
102
{ACAD_REACTORS
330
753
102
}
330
753
100
AcDbXrecord
 10
0.0
 20
0.0
 30
0.0
  0
XRECORD
  5
76F
102
{ACAD_REACTORS
330
753
102
}
330
753
100
AcDbXrecord
 10
0.0
 20
0.0
 30
0.0
  0
XRECORD
  5
76C
102
{ACAD_REACTORS
330
753
102
}
330
753
100
AcDbXrecord
 10
0.0
 20
0.0
 30
0.0
  0
XRECORD
  5
769
102
{ACAD_REACTORS
330
753
102
}
330
753
100
AcDbXrecord
340
0
  0
XRECORD
  5
76A
102
{ACAD_REACTORS
330
753
102
}
330
753
100
AcDbXrecord
 70
     0
  0
XRECORD
  5
75E
102
{ACAD_REACTORS
330
753
102
}
330
753
100
AcDbXrecord
  1
{FAEB1C32-E019-11D5-929B-00C0DF256EC4}
  0
DICTIONARYVAR
  5
778
102
{ACAD_REACTORS
330
773
102
}
330
773
100
DictionaryVariables
280
     0
  1
2
  0
DICTIONARYVAR
  5
779
102
{ACAD_REACTORS
330
773
102
}
330
773
100
DictionaryVariables
280
     0
  1
1
  0
DICTIONARYVAR
  5
777
102
{ACAD_REACTORS
330
773
102
}
330
773
100
DictionaryVariables
280
     0
  1
80.000000
  0
DICTIONARYVAR
  5
776
102
{ACAD_REACTORS
330
773
102
}
330
773
100
DictionaryVariables
280
     0
  1
5.000000
  0
DICTIONARY
  5
77C
330
3D
100
AcDbDictionary
280
     1
  3
ACAD_XREC_ROUNDTRIP
360
77D
  0
DICTIONARY
  5
77A
330
3C
100
AcDbDictionary
280
     1
  3
ACAD_XREC_ROUNDTRIP
360
77B
  0
DICTIONARY
  5
77E
330
3E
100
AcDbDictionary
280
     1
  3
ACAD_XREC_ROUNDTRIP
360
77F
  0
XRECORD
  5
77D
102
{ACAD_REACTORS
330
77C
102
}
330
77C
100
AcDbXrecord
102
MATERIAL
148
0.0
149
0.0
149
0.0
 93
        0
 94
      127
282
     0
 72
     1
 77
     1
171
     1
175
     1
179
     1
273
     0
  0
XRECORD
  5
77B
102
{ACAD_REACTORS
330
77A
102
}
330
77A
100
AcDbXrecord
102
MATERIAL
148
0.0
149
0.0
149
0.0
 93
        0
 94
      127
282
     0
 72
     1
 77
     1
171
     1
175
     1
179
     1
273
     0
  0
XRECORD
  5
77F
102
{ACAD_REACTORS
330
77E
102
}
330
77E
100
AcDbXrecord
102
MATERIAL
148
0.0
149
0.0
149
0.0
 93
        0
 94
      127
282
     0
 72
     1
 77
     1
171
     1
175
     1
179
     1
273
     0
  0
ENDSEC
  0
EOF
