  0
SECTION
  2
HEADER
  9
$ACADVER
  1
AC1014
  9
$ACADMAINTVER
 70
     9
  9
$DWGCODEPAGE
  3
ANSI_932
  9
$INSBASE
 10
0.0
 20
0.0
 30
0.0
  9
$EXTMIN
 10
-2.099999999999992
 20
11.5
 30
0.0
  9
$EXTMAX
 10
199.9
 20
291.5
 30
0.0
  9
$LIMMIN
 10
0.0
 20
0.0
  9
$LIMMAX
 10
210.0
 20
297.0
  9
$ORTHOMODE
 70
     0
  9
$REGENMODE
 70
     1
  9
$FILLMODE
 70
     1
  9
$QTEXTMODE
 70
     0
  9
$MIRRTEXT
 70
     1
  9
$DRAGMODE
 70
     2
  9
$LTSCALE
 40
1.0
  9
$OSMODE
 70
    37
  9
$ATTMODE
 70
     1
  9
$TEXTSIZE
 40
2.5
  9
$TRACEWID
 40
1.0
  9
$TEXTSTYLE
  7
STANDARD
  9
$CLAYER
  8
寸法
  9
$CELTYPE
  6
BYLAYER
  9
$CECOLOR
 62
   256
  9
$CELTSCALE
 40
1.0
  9
$DELOBJ
 70
     1
  9
$DISPSILH
 70
     0
  9
$DIMSCALE
 40
1.0
  9
$DIMASZ
 40
2.5
  9
$DIMEXO
 40
0.625
  9
$DIMDLI
 40
3.75
  9
$DIMRND
 40
0.0
  9
$DIMDLE
 40
0.0
  9
$DIMEXE
 40
1.25
  9
$DIMTP
 40
0.0
  9
$DIMTM
 40
0.0
  9
$DIMTXT
 40
2.5
  9
$DIMCEN
 40
2.5
  9
$DIMTSZ
 40
0.0
  9
$DIMTOL
 70
     0
  9
$DIMLIM
 70
     0
  9
$DIMTIH
 70
     0
  9
$DIMTOH
 70
     0
  9
$DIMSE1
 70
     0
  9
$DIMSE2
 70
     0
  9
$DIMTAD
 70
     1
  9
$DIMZIN
 70
     8
  9
$DIMBLK
  1

  9
$DIMASO
 70
     1
  9
$DIMSHO
 70
     1
  9
$DIMPOST
  1

  9
$DIMAPOST
  1

  9
$DIMALT
 70
     0
  9
$DIMALTD
 70
     3
  9
$DIMALTF
 40
0.03937007874016
  9
$DIMLFAC
 40
1.0
  9
$DIMTOFL
 70
     1
  9
$DIMTVP
 40
0.0
  9
$DIMTIX
 70
     0
  9
$DIMSOXD
 70
     0
  9
$DIMSAH
 70
     0
  9
$DIMBLK1
  1

  9
$DIMBLK2
  1

  9
$DIMSTYLE
  2
ISO-25
  9
$DIMCLRD
 70
     0
  9
$DIMCLRE
 70
     0
  9
$DIMCLRT
 70
     0
  9
$DIMTFAC
 40
1.0
  9
$DIMGAP
 40
0.625
  9
$DIMJUST
 70
     0
  9
$DIMSD1
 70
     0
  9
$DIMSD2
 70
     0
  9
$DIMTOLJ
 70
     0
  9
$DIMTZIN
 70
     8
  9
$DIMALTZ
 70
     0
  9
$DIMALTTZ
 70
     0
  9
$DIMFIT
 70
     3
  9
$DIMUPT
 70
     0
  9
$DIMUNIT
 70
     2
  9
$DIMDEC
 70
     2
  9
$DIMTDEC
 70
     2
  9
$DIMALTU
 70
     2
  9
$DIMALTTD
 70
     3
  9
$DIMTXSTY
  7
STANDARD
  9
$DIMAUNIT
 70
     0
  9
$LUNITS
 70
     2
  9
$LUPREC
 70
     4
  9
$SKETCHINC
 40
1.0
  9
$FILLETRAD
 40
10.0
  9
$AUNITS
 70
     0
  9
$AUPREC
 70
     0
  9
$MENU
  1
.
  9
$ELEVATION
 40
0.0
  9
$PELEVATION
 40
0.0
  9
$THICKNESS
 40
0.0
  9
$LIMCHECK
 70
     0
  9
$CHAMFERA
 40
10.0
  9
$CHAMFERB
 40
10.0
  9
$CHAMFERC
 40
20.0
  9
$CHAMFERD
 40
0.0
  9
$SKPOLY
 70
     0
  9
$TDCREATE
 40
2457957.950778287
  9
$TDUPDATE
 40
2457957.950778646
  9
$TDINDWG
 40
0.0000000116
  9
$TDUSRTIMER
 40
0.0000000116
  9
$USRTIMER
 70
     1
  9
$ANGBASE
 50
0.0
  9
$ANGDIR
 70
     0
  9
$PDMODE
 70
     0
  9
$PDSIZE
 40
0.0
  9
$PLINEWID
 40
0.0
  9
$COORDS
 70
     1
  9
$SPLFRAME
 70
     0
  9
$SPLINETYPE
 70
     6
  9
$SPLINESEGS
 70
     8
  9
$ATTDIA
 70
     0
  9
$ATTREQ
 70
     1
  9
$HANDLING
 70
     1
  9
$HANDSEED
  5
410
  9
$SURFTAB1
 70
     6
  9
$SURFTAB2
 70
     6
  9
$SURFTYPE
 70
     6
  9
$SURFU
 70
     6
  9
$SURFV
 70
     6
  9
$UCSNAME
  2

  9
$UCSORG
 10
0.0
 20
0.0
 30
0.0
  9
$UCSXDIR
 10
1.0
 20
0.0
 30
0.0
  9
$UCSYDIR
 10
0.0
 20
1.0
 30
0.0
  9
$PUCSNAME
  2

  9
$PUCSORG
 10
0.0
 20
0.0
 30
0.0
  9
$PUCSXDIR
 10
1.0
 20
0.0
 30
0.0
  9
$PUCSYDIR
 10
0.0
 20
1.0
 30
0.0
  9
$USERI1
 70
     0
  9
$USERI2
 70
     0
  9
$USERI3
 70
     0
  9
$USERI4
 70
     0
  9
$USERI5
 70
     0
  9
$USERR1
 40
0.0
  9
$USERR2
 40
0.0
  9
$USERR3
 40
0.0
  9
$USERR4
 40
0.0
  9
$USERR5
 40
0.0
  9
$WORLDVIEW
 70
     1
  9
$SHADEDGE
 70
     3
  9
$SHADEDIF
 70
    70
  9
$TILEMODE
 70
     1
  9
$MAXACTVP
 70
    64
  9
$PINSBASE
 10
0.0
 20
0.0
 30
0.0
  9
$PLIMCHECK
 70
     0
  9
$PEXTMIN
 10
1.000000000000000E+20
 20
1.000000000000000E+20
 30
1.000000000000000E+20
  9
$PEXTMAX
 10
-1.000000000000000E+20
 20
-1.000000000000000E+20
 30
-1.000000000000000E+20
  9
$PLIMMIN
 10
0.0
 20
0.0
  9
$PLIMMAX
 10
420.0
 20
297.0
  9
$UNITMODE
 70
     0
  9
$VISRETAIN
 70
     1
  9
$PLINEGEN
 70
     0
  9
$PSLTSCALE
 70
     1
  9
$TREEDEPTH
 70
  3020
  9
$PICKSTYLE
 70
     1
  9
$CMLSTYLE
  2
STANDARD
  9
$CMLJUST
 70
     0
  9
$CMLSCALE
 40
20.0
  9
$PROXYGRAPHICS
 70
     1
  9
$MEASUREMENT
 70
     1
  0
ENDSEC
  0
SECTION
  2
CLASSES
  0
CLASS
  1
ACDBDICTIONARYWDFLT
  2
AcDbDictionaryWithDefault
  3
ObjectDBX Classes
 90
        0
280
     0
281
     0
  0
CLASS
  1
VISUALSTYLE
  2
AcDbVisualStyle
  3
ObjectDBX Classes
 90
     4095
280
     0
281
     0
  0
CLASS
  1
MATERIAL
  2
AcDbMaterial
  3
ObjectDBX Classes
 90
     1153
280
     0
281
     0
  0
CLASS
  1
SUN
  2
AcDbSun
  3
SCENEOE
 90
     1024
280
     0
281
     0
  0
CLASS
  1
DICTIONARYVAR
  2
AcDbDictionaryVar
  3
ObjectDBX Classes
 90
        0
280
     0
281
     0
  0
CLASS
  1
XRECORD
  2
AcDbXrecord
  3
AutoCAD 2000
 90
        0
280
     0
281
     0
  0
CLASS
  1
LWPOLYLINE
  2
AcDbPolyline
  3
AutoCAD 2000
 90
        0
280
     0
281
     1
  0
CLASS
  1
HATCH
  2
AcDbHatch
  3
AutoCAD 2000
 90
        0
280
     0
281
     1
  0
CLASS
  1
ACDBPLACEHOLDER
  2
AcDbPlaceHolder
  3
ObjectDBX Classes
 90
        0
280
     0
281
     0
  0
CLASS
  1
LAYOUT
  2
AcDbLayout
  3
ObjectDBX Classes
 90
        0
280
     0
281
     0
  0
ENDSEC
  0
SECTION
  2
TABLES
  0
TABLE
  2
VPORT
  5
8
330
0
100
AcDbSymbolTable
 70
     1
  0
VPORT
  5
29
330
8
100
AcDbSymbolTableRecord
100
AcDbViewportTableRecord
  2
*ACTIVE
 70
     0
 10
0.0
 20
0.0
 11
1.0
 21
1.0
 12
989.0000000000001
 22
1515.0
 13
0.0
 23
0.0
 14
10.0
 24
10.0
 15
10.0
 25
10.0
 16
0.0
 26
0.0
 36
1.0
 17
0.0
 27
0.0
 37
0.0
 40
2800.0
 41
0.7214285714285715
 42
50.0
 43
0.0
 44
0.0
 50
0.0
 51
0.0
 71
     0
 72
  1000
 73
     1
 74
     3
 75
     0
 76
     0
 77
     0
 78
     0
  0
ENDTAB
  0
TABLE
  2
LTYPE
  5
5
330
0
100
AcDbSymbolTable
 70
     7
  0
LTYPE
  5
14
330
5
100
AcDbSymbolTableRecord
100
AcDbLinetypeTableRecord
  2
BYBLOCK
 70
     0
  3

 72
    65
 73
     0
 40
0.0
  0
LTYPE
  5
15
330
5
100
AcDbSymbolTableRecord
100
AcDbLinetypeTableRecord
  2
BYLAYER
 70
     0
  3

 72
    65
 73
     0
 40
0.0
  0
LTYPE
  5
16
330
5
100
AcDbSymbolTableRecord
100
AcDbLinetypeTableRecord
  2
CONTINUOUS
 70
     0
  3
Solid line
 72
    65
 73
     0
 40
0.0
  0
LTYPE
  5
40
330
5
100
AcDbSymbolTableRecord
100
AcDbLinetypeTableRecord
  2
EXLTYPE1
 70
     0
  3
破線
 72
    65
 73
     2
 40
3.0
 49
2.0
 74
     0
 49
-1.0
 74
     0
  0
LTYPE
  5
41
330
5
100
AcDbSymbolTableRecord
100
AcDbLinetypeTableRecord
  2
EXLTYPE2
 70
     0
  3
点線
 72
    65
 73
     2
 40
2.0
 49
1.0
 74
     0
 49
-1.0
 74
     0
  0
LTYPE
  5
42
330
5
100
AcDbSymbolTableRecord
100
AcDbLinetypeTableRecord
  2
EXLTYPE3
 70
     0
  3
一点鎖線
 72
    65
 73
     4
 40
10.0
 49
7.0
 74
     0
 49
-1.0
 74
     0
 49
1.0
 74
     0
 49
-1.0
 74
     0
  0
LTYPE
  5
43
330
5
100
AcDbSymbolTableRecord
100
AcDbLinetypeTableRecord
  2
EXLTYPE4
 70
     0
  3
二点鎖線
 72
    65
 73
     6
 40
12.0
 49
7.0
 74
     0
 49
-1.0
 74
     0
 49
1.0
 74
     0
 49
-1.0
 74
     0
 49
1.0
 74
     0
 49
-1.0
 74
     0
  0
LTYPE
  5
44
330
5
100
AcDbSymbolTableRecord
100
AcDbLinetypeTableRecord
  2
EXLTYPE5
 70
     0
  3
三点鎖線
 72
    65
 73
     8
 40
37.0
 49
30.0
 74
     0
 49
-1.0
 74
     0
 49
1.0
 74
     0
 49
-1.0
 74
     0
 49
1.0
 74
     0
 49
-1.0
 74
     0
 49
1.0
 74
     0
 49
-1.0
 74
     0
  0
LTYPE
  5
45
330
5
100
AcDbSymbolTableRecord
100
AcDbLinetypeTableRecord
  2
EXLTYPE6
 70
     0
  3
四点鎖線
 72
    65
 73
    10
 40
39.0
 49
30.0
 74
     0
 49
-1.0
 74
     0
 49
1.0
 74
     0
 49
-1.0
 74
     0
 49
1.0
 74
     0
 49
-1.0
 74
     0
 49
1.0
 74
     0
 49
-1.0
 74
     0
 49
1.0
 74
     0
 49
-1.0
 74
     0
  0
ENDTAB
  0
TABLE
  2
LAYER
  5
2
330
0
100
AcDbSymbolTable
 70
     6
  0
LAYER
  5
10
330
2
100
AcDbSymbolTableRecord
100
AcDbLayerTableRecord
  2
0
 70
     0
 62
     7
  6
CONTINUOUS
  0
LAYER
  5
48
330
2
100
AcDbSymbolTableRecord
100
AcDbLayerTableRecord
  2
枠
 70
     0
 62
     7
  6
CONTINUOUS
  0
LAYER
  5
49
330
2
100
AcDbSymbolTableRecord
100
AcDbLayerTableRecord
  2
スト_ル
 70
     0
 62
     7
  6
CONTINUOUS
  0
LAYER
  5
4A
330
2
100
AcDbSymbolTableRecord
100
AcDbLayerTableRecord
  2
寸法
 70
     0
 62
     7
  6
CONTINUOUS
  0
LAYER
  5
4B
330
2
100
AcDbSymbolTableRecord
100
AcDbLayerTableRecord
  2
器具明細表
 70
     0
 62
     7
  6
CONTINUOUS
  0
LAYER
  5
1AF
330
2
100
AcDbSymbolTableRecord
100
AcDbLayerTableRecord
  2
DEFPOINTS
 70
     0
 62
     7
  6
CONTINUOUS
  0
ENDTAB
  0
TABLE
  2
STYLE
  5
3
330
0
100
AcDbSymbolTable
 70
     5
  0
STYLE
  5
11
330
3
100
AcDbSymbolTableRecord
100
AcDbTextStyleTableRecord
  2
STANDARD
 70
     0
 40
0.0
 41
1.0
 50
0.0
 71
     0
 42
2.5
  3
monotxt
  4
extfont
  0
STYLE
  5
46
330
3
100
AcDbSymbolTableRecord
100
AcDbTextStyleTableRecord
  2
EXCADSTD
 70
     0
 40
0.0
 41
1.0
 50
0.0
 71
     0
 42
0.2
  3
monotxt
  4
extfont
  0
STYLE
  5
47
330
3
100
AcDbSymbolTableRecord
100
AcDbTextStyleTableRecord
  2
EXCADVERT
 70
     4
 40
0.0
 41
1.0
 50
0.0
 71
     0
 42
0.286885
  3
monotxt
  4
extfont
  0
STYLE
  5
1AD
330
3
100
AcDbSymbolTableRecord
100
AcDbTextStyleTableRecord
  2
EXCADDIM1
 70
     0
 40
0.0
 41
0.84
 50
0.0
 71
     0
 42
0.2
  3
monotxt
  4
extfont
  0
STYLE
  5
2EF
330
3
100
AcDbSymbolTableRecord
100
AcDbTextStyleTableRecord
  2
EXCADTTF1
 70
     0
 40
0.0
 41
1.0
 50
0.0
 71
     0
 42
0.2
  3
MSGOTHIC.TTC
  4

1001
ACAD
1000
MS Gothic
1071
    32817
  0
ENDTAB
  0
TABLE
  2
VIEW
  5
6
330
0
100
AcDbSymbolTable
 70
     0
  0
ENDTAB
  0
TABLE
  2
UCS
  5
7
330
0
100
AcDbSymbolTable
 70
     0
  0
ENDTAB
  0
TABLE
  2
APPID
  5
9
330
0
100
AcDbSymbolTable
 70
     1
  0
APPID
  5
12
330
9
100
AcDbSymbolTableRecord
100
AcDbRegAppTableRecord
  2
ACAD
 70
     0
  0
ENDTAB
  0
TABLE
  2
DIMSTYLE
  5
A
330
0
100
AcDbSymbolTable
 70
     1
  0
DIMSTYLE
105
27
102
{ACAD_REACTORS
330
1AE
330
1BF
330
1CC
330
1D9
330
1E7
330
1F4
330
206
330
214
330
221
330
230
330
23D
330
24A
330
256
330
262
102
}
330
A
100
AcDbSymbolTableRecord
100
AcDbDimStyleTableRecord
  2
ISO-25
 70
     0
  3

  4

  5

  6

  7

 40
1.0
 41
2.5
 42
0.625
 43
3.75
 44
1.25
 45
0.0
 46
0.0
 47
0.0
 48
0.0
140
2.5
141
2.5
142
0.0
143
0.03937007874016
144
1.0
145
0.0
146
1.0
147
0.625
 71
     0
 72
     0
 73
     0
 74
     0
 75
     0
 76
     0
 77
     1
 78
     8
170
     0
171
     3
172
     1
173
     0
174
     0
175
     0
176
     0
177
     0
178
     0
270
     2
271
     2
272
     2
273
     2
274
     3
340
11
275
     0
280
     0
281
     0
282
     0
283
     0
284
     8
285
     0
286
     0
287
     5
288
     0
  0
ENDTAB
  0
TABLE
  2
BLOCK_RECORD
  5
1
330
0
100
AcDbSymbolTable
 70
    29
  0
BLOCK_RECORD
  5
1F
330
1
100
AcDbSymbolTableRecord
100
AcDbBlockTableRecord
  2
*MODEL_SPACE
  0
BLOCK_RECORD
  5
1B
330
1
100
AcDbSymbolTableRecord
100
AcDbBlockTableRecord
  2
*PAPER_SPACE
  0
BLOCK_RECORD
  5
4C
330
1
100
AcDbSymbolTableRecord
100
AcDbBlockTableRecord
  2
EX_NORM
  0
BLOCK_RECORD
  5
4F
330
1
100
AcDbSymbolTableRecord
100
AcDbBlockTableRecord
  2
EX_BNORM
  0
BLOCK_RECORD
  5
52
330
1
100
AcDbSymbolTableRecord
100
AcDbBlockTableRecord
  2
EX_BCIR
  0
BLOCK_RECORD
  5
55
330
1
100
AcDbSymbolTableRecord
100
AcDbBlockTableRecord
  2
EX_RCIVIL
  0
BLOCK_RECORD
  5
58
330
1
100
AcDbSymbolTableRecord
100
AcDbBlockTableRecord
  2
EX_SLANT
  0
BLOCK_RECORD
  5
5B
330
1
100
AcDbSymbolTableRecord
100
AcDbBlockTableRecord
  2
EX_NONE
  0
BLOCK_RECORD
  5
5E
330
1
100
AcDbSymbolTableRecord
100
AcDbBlockTableRecord
  2
EX_CIVIL
  0
BLOCK_RECORD
  5
61
330
1
100
AcDbSymbolTableRecord
100
AcDbBlockTableRecord
  2
EX_WCIR
  0
BLOCK_RECORD
  5
64
330
1
100
AcDbSymbolTableRecord
100
AcDbBlockTableRecord
  2
EX_WCIR2
  0
BLOCK_RECORD
  5
67
330
1
100
AcDbSymbolTableRecord
100
AcDbBlockTableRecord
  2
EX_WNORM
  0
BLOCK_RECORD
  5
6A
330
1
100
AcDbSymbolTableRecord
100
AcDbBlockTableRecord
  2
EX_NNORM
  0
BLOCK_RECORD
  5
6D
330
1
100
AcDbSymbolTableRecord
100
AcDbBlockTableRecord
  2
EX_BBOX
  0
BLOCK_RECORD
  5
70
330
1
100
AcDbSymbolTableRecord
100
AcDbBlockTableRecord
  2
EX_WBOX
  0
BLOCK_RECORD
  5
73
330
1
100
AcDbSymbolTableRecord
100
AcDbBlockTableRecord
  2
EX_INTEGRAL
  0
BLOCK_RECORD
  5
1B0
330
1
100
AcDbSymbolTableRecord
100
AcDbBlockTableRecord
  2
*D15
  0
BLOCK_RECORD
  5
1C0
330
1
100
AcDbSymbolTableRecord
100
AcDbBlockTableRecord
  2
*D16
  0
BLOCK_RECORD
  5
1CD
330
1
100
AcDbSymbolTableRecord
100
AcDbBlockTableRecord
  2
*D17
  0
BLOCK_RECORD
  5
1DA
330
1
100
AcDbSymbolTableRecord
100
AcDbBlockTableRecord
  2
*D18
  0
BLOCK_RECORD
  5
1E8
330
1
100
AcDbSymbolTableRecord
100
AcDbBlockTableRecord
  2
*D19
  0
BLOCK_RECORD
  5
1F5
330
1
100
AcDbSymbolTableRecord
100
AcDbBlockTableRecord
  2
*D20
  0
BLOCK_RECORD
  5
207
330
1
100
AcDbSymbolTableRecord
100
AcDbBlockTableRecord
  2
*D21
  0
BLOCK_RECORD
  5
215
330
1
100
AcDbSymbolTableRecord
100
AcDbBlockTableRecord
  2
*D22
  0
BLOCK_RECORD
  5
222
330
1
100
AcDbSymbolTableRecord
100
AcDbBlockTableRecord
  2
*D23
  0
BLOCK_RECORD
  5
231
330
1
100
AcDbSymbolTableRecord
100
AcDbBlockTableRecord
  2
*D24
  0
BLOCK_RECORD
  5
23E
330
1
100
AcDbSymbolTableRecord
100
AcDbBlockTableRecord
  2
*D25
  0
BLOCK_RECORD
  5
24B
330
1
100
AcDbSymbolTableRecord
100
AcDbBlockTableRecord
  2
*D26
  0
BLOCK_RECORD
  5
257
330
1
100
AcDbSymbolTableRecord
100
AcDbBlockTableRecord
  2
*D27
  0
BLOCK_RECORD
  5
263
330
1
100
AcDbSymbolTableRecord
100
AcDbBlockTableRecord
  2
*D28
  0
ENDTAB
  0
ENDSEC
  0
SECTION
  2
BLOCKS
  0
BLOCK
  5
20
330
1F
100
AcDbEntity
  8
0
100
AcDbBlockBegin
  2
*MODEL_SPACE
 70
     0
 10
0.0
 20
0.0
 30
0.0
  3
*MODEL_SPACE
  1

  0
ENDBLK
  5
21
330
1F
100
AcDbEntity
  8
0
100
AcDbBlockEnd
  0
BLOCK
  5
1C
330
1B
100
AcDbEntity
 67
     1
  8
0
100
AcDbBlockBegin
  2
*PAPER_SPACE
 70
     0
 10
0.0
 20
0.0
 30
0.0
  3
*PAPER_SPACE
  1

  0
ENDBLK
  5
1D
330
1B
100
AcDbEntity
 67
     1
  8
0
100
AcDbBlockEnd
  0
BLOCK
  5
4D
330
4C
100
AcDbEntity
  8
0
100
AcDbBlockBegin
  2
EX_NORM
 70
     0
 10
0.0
 20
0.0
 30
0.0
  3
EX_NORM
  1

  0
LINE
  5
76
330
4C
100
AcDbEntity
  8
0
  6
CONTINUOUS
 62
     0
100
AcDbLine
 10
0.0
 20
0.0
 30
0.0
 11
-1.0
 21
0.0
 31
0.0
  0
LINE
  5
77
330
4C
100
AcDbEntity
  8
0
  6
CONTINUOUS
 62
     0
100
AcDbLine
 10
0.0
 20
0.0
 30
0.0
 11
-1.0
 21
0.166666667
 31
0.0
  0
LINE
  5
78
330
4C
100
AcDbEntity
  8
0
  6
CONTINUOUS
 62
     0
100
AcDbLine
 10
0.0
 20
0.0
 30
0.0
 11
-1.0
 21
-0.166666667
 31
0.0
  0
ENDBLK
  5
4E
330
4C
100
AcDbEntity
  8
0
100
AcDbBlockEnd
  0
BLOCK
  5
50
330
4F
100
AcDbEntity
  8
0
100
AcDbBlockBegin
  2
EX_BNORM
 70
     0
 10
0.0
 20
0.0
 30
0.0
  3
EX_BNORM
  1

  0
LINE
  5
79
330
4F
100
AcDbEntity
  8
0
  6
CONTINUOUS
 62
     0
100
AcDbLine
 10
0.0
 20
0.0
 30
0.0
 11
-1.0
 21
0.0
 31
0.0
  0
LINE
  5
7A
330
4F
100
AcDbEntity
  8
0
  6
CONTINUOUS
 62
     0
100
AcDbLine
 10
0.0
 20
0.0
 30
0.0
 11
-1.0
 21
0.166666667
 31
0.0
  0
LINE
  5
7B
330
4F
100
AcDbEntity
  8
0
  6
CONTINUOUS
 62
     0
100
AcDbLine
 10
0.0
 20
0.0
 30
0.0
 11
-1.0
 21
-0.166666667
 31
0.0
  0
LINE
  5
7C
330
4F
100
AcDbEntity
  8
0
  6
CONTINUOUS
 62
     0
100
AcDbLine
 10
0.0
 20
0.0
 30
0.0
 11
-1.0
 21
0.083333333
 31
0.0
  0
LINE
  5
7D
330
4F
100
AcDbEntity
  8
0
  6
CONTINUOUS
 62
     0
100
AcDbLine
 10
0.0
 20
0.0
 30
0.0
 11
-1.0
 21
-0.083333333
 31
0.0
  0
LINE
  5
7E
330
4F
100
AcDbEntity
  8
0
  6
CONTINUOUS
 62
     0
100
AcDbLine
 10
-1.0
 20
0.166666667
 30
0.0
 11
-1.0
 21
-0.166666667
 31
0.0
  0
ENDBLK
  5
51
330
4F
100
AcDbEntity
  8
0
100
AcDbBlockEnd
  0
BLOCK
  5
53
330
52
100
AcDbEntity
  8
0
100
AcDbBlockBegin
  2
EX_BCIR
 70
     0
 10
0.0
 20
0.0
 30
0.0
  3
EX_BCIR
  1

  0
LINE
  5
7F
330
52
100
AcDbEntity
  8
0
  6
CONTINUOUS
 62
     0
100
AcDbLine
 10
0.0
 20
0.0
 30
0.0
 11
-1.0
 21
0.0
 31
0.0
  0
CIRCLE
  5
80
330
52
100
AcDbEntity
  8
0
  6
CONTINUOUS
 62
     0
100
AcDbCircle
 10
0.0
 20
0.0
 30
0.0
 40
0.5
  0
CIRCLE
  5
81
330
52
100
AcDbEntity
  8
0
  6
CONTINUOUS
 62
     0
100
AcDbCircle
 10
0.0
 20
0.0
 30
0.0
 40
0.25
  0
ENDBLK
  5
54
330
52
100
AcDbEntity
  8
0
100
AcDbBlockEnd
  0
BLOCK
  5
56
330
55
100
AcDbEntity
  8
0
100
AcDbBlockBegin
  2
EX_RCIVIL
 70
     0
 10
0.0
 20
0.0
 30
0.0
  3
EX_RCIVIL
  1

  0
LINE
  5
82
330
55
100
AcDbEntity
  8
0
  6
CONTINUOUS
 62
     0
100
AcDbLine
 10
0.0
 20
0.0
 30
0.0
 11
-1.0
 21
0.0
 31
0.0
  0
LINE
  5
83
330
55
100
AcDbEntity
  8
0
  6
CONTINUOUS
 62
     0
100
AcDbLine
 10
-1.0
 20
-0.25
 30
0.0
 11
0.0
 21
-0.25
 31
0.0
  0
LINE
  5
84
330
55
100
AcDbEntity
  8
0
  6
CONTINUOUS
 62
     0
100
AcDbLine
 10
-1.0
 20
-0.125
 30
0.0
 11
0.0
 21
-0.125
 31
0.0
  0
ENDBLK
  5
57
330
55
100
AcDbEntity
  8
0
100
AcDbBlockEnd
  0
BLOCK
  5
59
330
58
100
AcDbEntity
  8
0
100
AcDbBlockBegin
  2
EX_SLANT
 70
     0
 10
0.0
 20
0.0
 30
0.0
  3
EX_SLANT
  1

  0
LINE
  5
85
330
58
100
AcDbEntity
  8
0
  6
CONTINUOUS
 62
     0
100
AcDbLine
 10
0.0
 20
0.0
 30
0.0
 11
-1.0
 21
0.0
 31
0.0
  0
LINE
  5
86
330
58
100
AcDbEntity
  8
0
  6
CONTINUOUS
 62
     0
100
AcDbLine
 10
0.707106781
 20
0.707106781
 30
0.0
 11
-0.707106781
 21
-0.707106781
 31
0.0
  0
ENDBLK
  5
5A
330
58
100
AcDbEntity
  8
0
100
AcDbBlockEnd
  0
BLOCK
  5
5C
330
5B
100
AcDbEntity
  8
0
100
AcDbBlockBegin
  2
EX_NONE
 70
     0
 10
0.0
 20
0.0
 30
0.0
  3
EX_NONE
  1

  0
LINE
  5
87
330
5B
100
AcDbEntity
  8
0
  6
CONTINUOUS
 62
     0
100
AcDbLine
 10
0.0
 20
0.0
 30
0.0
 11
-1.0
 21
0.0
 31
0.0
  0
ENDBLK
  5
5D
330
5B
100
AcDbEntity
  8
0
100
AcDbBlockEnd
  0
BLOCK
  5
5F
330
5E
100
AcDbEntity
  8
0
100
AcDbBlockBegin
  2
EX_CIVIL
 70
     0
 10
0.0
 20
0.0
 30
0.0
  3
EX_CIVIL
  1

  0
LINE
  5
88
330
5E
100
AcDbEntity
  8
0
  6
CONTINUOUS
 62
     0
100
AcDbLine
 10
0.0
 20
0.0
 30
0.0
 11
-1.0
 21
0.0
 31
0.0
  0
LINE
  5
89
330
5E
100
AcDbEntity
  8
0
  6
CONTINUOUS
 62
     0
100
AcDbLine
 10
-1.0
 20
0.25
 30
0.0
 11
0.0
 21
0.25
 31
0.0
  0
LINE
  5
8A
330
5E
100
AcDbEntity
  8
0
  6
CONTINUOUS
 62
     0
100
AcDbLine
 10
-1.0
 20
0.125
 30
0.0
 11
0.0
 21
0.125
 31
0.0
  0
ENDBLK
  5
60
330
5E
100
AcDbEntity
  8
0
100
AcDbBlockEnd
  0
BLOCK
  5
62
330
61
100
AcDbEntity
  8
0
100
AcDbBlockBegin
  2
EX_WCIR
 70
     0
 10
0.0
 20
0.0
 30
0.0
  3
EX_WCIR
  1

  0
LINE
  5
8B
330
61
100
AcDbEntity
  8
0
  6
CONTINUOUS
 62
     0
100
AcDbLine
 10
0.0
 20
0.0
 30
0.0
 11
-1.0
 21
0.0
 31
0.0
  0
CIRCLE
  5
8C
330
61
100
AcDbEntity
  8
0
  6
CONTINUOUS
 62
     0
100
AcDbCircle
 10
0.0
 20
0.0
 30
0.0
 40
0.5
  0
ENDBLK
  5
63
330
61
100
AcDbEntity
  8
0
100
AcDbBlockEnd
  0
BLOCK
  5
65
330
64
100
AcDbEntity
  8
0
100
AcDbBlockBegin
  2
EX_WCIR2
 70
     0
 10
0.0
 20
0.0
 30
0.0
  3
EX_WCIR2
  1

  0
LINE
  5
8D
330
64
100
AcDbEntity
  8
0
  6
CONTINUOUS
 62
     0
100
AcDbLine
 10
-0.5
 20
0.0
 30
0.0
 11
-1.0
 21
0.0
 31
0.0
  0
CIRCLE
  5
8E
330
64
100
AcDbEntity
  8
0
  6
CONTINUOUS
 62
     0
100
AcDbCircle
 10
0.0
 20
0.0
 30
0.0
 40
0.5
  0
ENDBLK
  5
66
330
64
100
AcDbEntity
  8
0
100
AcDbBlockEnd
  0
BLOCK
  5
68
330
67
100
AcDbEntity
  8
0
100
AcDbBlockBegin
  2
EX_WNORM
 70
     0
 10
0.0
 20
0.0
 30
0.0
  3
EX_WNORM
  1

  0
LINE
  5
8F
330
67
100
AcDbEntity
  8
0
  6
CONTINUOUS
 62
     0
100
AcDbLine
 10
-1.0
 20
0.0
 30
0.0
 11
-1.0
 21
0.0
 31
0.0
  0
LINE
  5
90
330
67
100
AcDbEntity
  8
0
  6
CONTINUOUS
 62
     0
100
AcDbLine
 10
0.0
 20
0.0
 30
0.0
 11
-1.0
 21
0.166666667
 31
0.0
  0
LINE
  5
91
330
67
100
AcDbEntity
  8
0
  6
CONTINUOUS
 62
     0
100
AcDbLine
 10
0.0
 20
0.0
 30
0.0
 11
-1.0
 21
-0.166666667
 31
0.0
  0
LINE
  5
92
330
67
100
AcDbEntity
  8
0
  6
CONTINUOUS
 62
     0
100
AcDbLine
 10
-1.0
 20
0.166666667
 30
0.0
 11
-1.0
 21
-0.166666667
 31
0.0
  0
ENDBLK
  5
69
330
67
100
AcDbEntity
  8
0
100
AcDbBlockEnd
  0
BLOCK
  5
6B
330
6A
100
AcDbEntity
  8
0
100
AcDbBlockBegin
  2
EX_NNORM
 70
     0
 10
0.0
 20
0.0
 30
0.0
  3
EX_NNORM
  1

  0
LINE
  5
93
330
6A
100
AcDbEntity
  8
0
  6
CONTINUOUS
 62
     0
100
AcDbLine
 10
0.0
 20
0.0
 30
0.0
 11
-1.0
 21
0.0
 31
0.0
  0
LINE
  5
94
330
6A
100
AcDbEntity
  8
0
  6
CONTINUOUS
 62
     0
100
AcDbLine
 10
0.0
 20
0.0
 30
0.0
 11
-1.0
 21
0.166666667
 31
0.0
  0
LINE
  5
95
330
6A
100
AcDbEntity
  8
0
  6
CONTINUOUS
 62
     0
100
AcDbLine
 10
0.0
 20
0.0
 30
0.0
 11
-1.0
 21
-0.166666667
 31
0.0
  0
LINE
  5
96
330
6A
100
AcDbEntity
  8
0
  6
CONTINUOUS
 62
     0
100
AcDbLine
 10
-1.0
 20
0.166666667
 30
0.0
 11
-1.0
 21
-0.166666667
 31
0.0
  0
ENDBLK
  5
6C
330
6A
100
AcDbEntity
  8
0
100
AcDbBlockEnd
  0
BLOCK
  5
6E
330
6D
100
AcDbEntity
  8
0
100
AcDbBlockBegin
  2
EX_BBOX
 70
     0
 10
0.0
 20
0.0
 30
0.0
  3
EX_BBOX
  1

  0
LINE
  5
97
330
6D
100
AcDbEntity
  8
0
  6
CONTINUOUS
 62
     0
100
AcDbLine
 10
0.0
 20
0.0
 30
0.0
 11
-1.0
 21
0.0
 31
0.0
  0
LINE
  5
98
330
6D
100
AcDbEntity
  8
0
  6
CONTINUOUS
 62
     0
100
AcDbLine
 10
-0.5
 20
0.5
 30
0.0
 11
0.5
 21
0.5
 31
0.0
  0
LINE
  5
99
330
6D
100
AcDbEntity
  8
0
  6
CONTINUOUS
 62
     0
100
AcDbLine
 10
0.5
 20
0.5
 30
0.0
 11
0.5
 21
-0.5
 31
0.0
  0
LINE
  5
9A
330
6D
100
AcDbEntity
  8
0
  6
CONTINUOUS
 62
     0
100
AcDbLine
 10
0.5
 20
-0.5
 30
0.0
 11
-0.5
 21
-0.5
 31
0.0
  0
LINE
  5
9B
330
6D
100
AcDbEntity
  8
0
  6
CONTINUOUS
 62
     0
100
AcDbLine
 10
-0.5
 20
-0.5
 30
0.0
 11
-0.5
 21
0.5
 31
0.0
  0
LINE
  5
9C
330
6D
100
AcDbEntity
  8
0
  6
CONTINUOUS
 62
     0
100
AcDbLine
 10
-0.25
 20
0.25
 30
0.0
 11
0.25
 21
0.25
 31
0.0
  0
LINE
  5
9D
330
6D
100
AcDbEntity
  8
0
  6
CONTINUOUS
 62
     0
100
AcDbLine
 10
0.25
 20
0.25
 30
0.0
 11
0.25
 21
-0.25
 31
0.0
  0
LINE
  5
9E
330
6D
100
AcDbEntity
  8
0
  6
CONTINUOUS
 62
     0
100
AcDbLine
 10
0.25
 20
-0.25
 30
0.0
 11
-0.25
 21
-0.25
 31
0.0
  0
LINE
  5
9F
330
6D
100
AcDbEntity
  8
0
  6
CONTINUOUS
 62
     0
100
AcDbLine
 10
-0.25
 20
-0.25
 30
0.0
 11
-0.25
 21
0.25
 31
0.0
  0
ENDBLK
  5
6F
330
6D
100
AcDbEntity
  8
0
100
AcDbBlockEnd
  0
BLOCK
  5
71
330
70
100
AcDbEntity
  8
0
100
AcDbBlockBegin
  2
EX_WBOX
 70
     0
 10
0.0
 20
0.0
 30
0.0
  3
EX_WBOX
  1

  0
LINE
  5
A0
330
70
100
AcDbEntity
  8
0
  6
CONTINUOUS
 62
     0
100
AcDbLine
 10
-0.5
 20
0.0
 30
0.0
 11
-1.0
 21
0.0
 31
0.0
  0
LINE
  5
A1
330
70
100
AcDbEntity
  8
0
  6
CONTINUOUS
 62
     0
100
AcDbLine
 10
-0.5
 20
0.5
 30
0.0
 11
0.5
 21
0.5
 31
0.0
  0
LINE
  5
A2
330
70
100
AcDbEntity
  8
0
  6
CONTINUOUS
 62
     0
100
AcDbLine
 10
0.5
 20
0.5
 30
0.0
 11
0.5
 21
-0.5
 31
0.0
  0
LINE
  5
A3
330
70
100
AcDbEntity
  8
0
  6
CONTINUOUS
 62
     0
100
AcDbLine
 10
0.5
 20
-0.5
 30
0.0
 11
-0.5
 21
-0.5
 31
0.0
  0
LINE
  5
A4
330
70
100
AcDbEntity
  8
0
  6
CONTINUOUS
 62
     0
100
AcDbLine
 10
-0.5
 20
-0.5
 30
0.0
 11
-0.5
 21
0.5
 31
0.0
  0
ENDBLK
  5
72
330
70
100
AcDbEntity
  8
0
100
AcDbBlockEnd
  0
BLOCK
  5
74
330
73
100
AcDbEntity
  8
0
100
AcDbBlockBegin
  2
EX_INTEGRAL
 70
     0
 10
0.0
 20
0.0
 30
0.0
  3
EX_INTEGRAL
  1

  0
LINE
  5
A5
330
73
100
AcDbEntity
  8
0
  6
CONTINUOUS
 62
     0
100
AcDbLine
 10
0.0
 20
0.0
 30
0.0
 11
-1.0
 21
0.0
 31
0.0
  0
ARC
  5
A6
330
73
100
AcDbEntity
  8
0
  6
CONTINUOUS
 62
     0
100
AcDbCircle
 10
0.542115
 20
0.164992
 30
0.0
 40
0.56667
100
AcDbArc
 50
73.07249033629006
 51
196.9275130221199
  0
ARC
  5
A7
330
73
100
AcDbEntity
  8
0
  6
CONTINUOUS
 62
     0
100
AcDbCircle
 10
-0.542115
 20
-0.164992
 30
0.0
 40
0.56667
100
AcDbArc
 50
253.0724869220464
 51
16.9275130559125
  0
ENDBLK
  5
75
330
73
100
AcDbEntity
  8
0
100
AcDbBlockEnd
  0
BLOCK
  5
1B1
330
1B0
100
AcDbEntity
  8
0
100
AcDbBlockBegin
  2
*D15
 70
     1
 10
0.0
 20
0.0
 30
0.0
  3
*D15
  1

  0
LINE
  5
1B3
330
1B0
100
AcDbEntity
  8
寸法
  6
CONTINUOUS
 62
     3
100
AcDbLine
 10
629.3397807924779
 20
671.8318241192992
 30
0.0
 11
629.3397807924779
 21
598.60000000009
 31
0.0
  0
LINE
  5
1B4
330
1B0
100
AcDbEntity
  8
寸法
  6
CONTINUOUS
 62
     3
100
AcDbLine
 10
668.339780792478
 20
671.8318241192992
 30
0.0
 11
668.339780792478
 21
598.60000000009
 31
0.0
  0
LINE
  5
1B5
330
1B0
100
AcDbEntity
  8
寸法
  6
CONTINUOUS
 62
     3
100
AcDbLine
 10
629.3397807924779
 20
618.60000000009
 30
0.0
 11
668.339780792478
 21
618.60000000009
 31
0.0
  0
LINE
  5
1B6
330
1B0
100
AcDbEntity
  8
寸法
  6
CONTINUOUS
 62
     3
100
AcDbLine
 10
594.3397807924779
 20
618.60000000009
 30
0.0
 11
559.3397807924779
 21
618.60000000009
 31
0.0
  0
LINE
  5
1B7
330
1B0
100
AcDbEntity
  8
寸法
  6
CONTINUOUS
 62
     3
100
AcDbLine
 10
703.339780792478
 20
618.60000000009
 30
0.0
 11
738.339780792478
 21
618.60000000009
 31
0.0
  0
INSERT
  5
1B8
330
1B0
100
AcDbEntity
  8
寸法
 62
     3
100
AcDbBlockReference
  2
EX_NORM
 10
629.3397807924779
 20
618.60000000009
 30
0.0
 41
35.0
 42
35.0
 43
35.0
  0
INSERT
  5
1B9
330
1B0
100
AcDbEntity
  8
寸法
 62
     3
100
AcDbBlockReference
  2
EX_NORM
 10
668.339780792478
 20
618.60000000009
 30
0.0
 41
35.0
 42
35.0
 43
35.0
 50
180.0
  0
MTEXT
  5
1BA
330
1B0
100
AcDbEntity
  8
寸法
 62
     2
100
AcDbMText
 10
738.339780792478
 20
642.0999999404853
 30
0.0
 40
40.0
 41
0.0
 71
     5
 72
     1
  1
39
  7
EXCADDIM1
  0
POINT
  5
1BB
330
1B0
100
AcDbEntity
  8
DEFPOINTS
 62
     0
100
AcDbPoint
 10
629.3397807924779
 20
678.8318240000899
 30
0.0
  0
POINT
  5
1BC
330
1B0
100
AcDbEntity
  8
DEFPOINTS
 62
     0
100
AcDbPoint
 10
668.339780792478
 20
678.8318240000899
 30
0.0
  0
POINT
  5
1BD
330
1B0
100
AcDbEntity
  8
DEFPOINTS
 62
     0
100
AcDbPoint
 10
668.339780792478
 20
618.60000000009
 30
0.0
  0
ENDBLK
  5
1B2
330
1B0
100
AcDbEntity
  8
0
100
AcDbBlockEnd
  0
BLOCK
  5
1C1
330
1C0
100
AcDbEntity
  8
0
100
AcDbBlockBegin
  2
*D16
 70
     1
 10
0.0
 20
0.0
 30
0.0
  3
*D16
  1

  0
LINE
  5
1C3
330
1C0
100
AcDbEntity
  8
寸法
  6
CONTINUOUS
 62
     3
100
AcDbLine
 10
586.3397807924781
 20
1670.6384843836
 30
0.0
 11
586.3397807924781
 21
1661.331824
 31
0.0
  0
LINE
  5
1C4
330
1C0
100
AcDbEntity
  8
寸法
  6
CONTINUOUS
 62
     3
100
AcDbLine
 10
711.3397807924779
 20
1670.6384843836
 30
0.0
 11
711.3397807924779
 21
1661.331824
 31
0.0
  0
LINE
  5
1C5
330
1C0
100
AcDbEntity
  8
寸法
  6
CONTINUOUS
 62
     3
100
AcDbLine
 10
621.3397807924781
 20
1661.331824
 30
0.0
 11
676.3397807924779
 21
1661.331824
 31
0.0
  0
INSERT
  5
1C6
330
1C0
100
AcDbEntity
  8
寸法
 62
     3
100
AcDbBlockReference
  2
EX_NORM
 10
586.3397807924781
 20
1661.331824
 30
0.0
 41
35.0
 42
35.0
 43
35.0
 50
180.0
  0
INSERT
  5
1C7
330
1C0
100
AcDbEntity
  8
寸法
 62
     3
100
AcDbBlockReference
  2
EX_NORM
 10
711.3397807924779
 20
1661.331824
 30
0.0
 41
35.0
 42
35.0
 43
35.0
  0
MTEXT
  5
1C8
330
1C0
100
AcDbEntity
  8
寸法
 62
     2
100
AcDbMText
 10
648.8397807924782
 20
1684.831823940395
 30
0.0
 40
40.0
 41
0.0
 71
     5
 72
     1
  1
125
  7
EXCADDIM1
  0
POINT
  5
1C9
330
1C0
100
AcDbEntity
  8
DEFPOINTS
 62
     0
100
AcDbPoint
 10
586.3397807924781
 20
1670.6384843836
 30
0.0
  0
POINT
  5
1CA
330
1C0
100
AcDbEntity
  8
DEFPOINTS
 62
     0
100
AcDbPoint
 10
711.3397807924779
 20
1670.6384843836
 30
0.0
  0
POINT
  5
1CB
330
1C0
100
AcDbEntity
  8
DEFPOINTS
 62
     0
100
AcDbPoint
 10
711.3397807924779
 20
1661.331824
 30
0.0
  0
ENDBLK
  5
1C2
330
1C0
100
AcDbEntity
  8
0
100
AcDbBlockEnd
  0
BLOCK
  5
1CE
330
1CD
100
AcDbEntity
  8
0
100
AcDbBlockBegin
  2
*D17
 70
     1
 10
0.0
 20
0.0
 30
0.0
  3
*D17
  1

  0
LINE
  5
1D0
330
1CD
100
AcDbEntity
  8
寸法
  6
CONTINUOUS
 62
     3
100
AcDbLine
 10
737.0102891044622
 20
921.3318240000001
 30
0.0
 11
1068.839780792478
 21
921.3318240000001
 31
0.0
  0
LINE
  5
1D1
330
1CD
100
AcDbEntity
  8
寸法
  6
CONTINUOUS
 62
     3
100
AcDbLine
 10
661.1042506544624
 20
1601.331824
 30
0.0
 11
1068.839780792478
 21
1601.331824
 31
0.0
  0
LINE
  5
1D2
330
1CD
100
AcDbEntity
  8
寸法
  6
CONTINUOUS
 62
     3
100
AcDbLine
 10
1048.839780792478
 20
956.3318240000001
 30
0.0
 11
1048.839780792478
 21
1566.331824
 31
0.0
  0
INSERT
  5
1D3
330
1CD
100
AcDbEntity
  8
寸法
 62
     3
100
AcDbBlockReference
  2
EX_NORM
 10
1048.839780792478
 20
921.3318240000001
 30
0.0
 41
35.0
 42
35.0
 43
35.0
 50
270.0
  0
INSERT
  5
1D4
330
1CD
100
AcDbEntity
  8
寸法
 62
     3
100
AcDbBlockReference
  2
EX_NORM
 10
1048.839780792478
 20
1601.331824
 30
0.0
 41
35.0
 42
35.0
 43
35.0
 50
90.0
  0
MTEXT
  5
1D5
330
1CD
100
AcDbEntity
  8
寸法
 62
     2
100
AcDbMText
 10
1025.339780852083
 20
1261.331824
 30
0.0
 40
40.0
 41
0.0
 71
     5
 72
     1
  1
680
  7
EXCADDIM1
 11
0.0
 21
1.0
 31
0.0
  0
POINT
  5
1D6
330
1CD
100
AcDbEntity
  8
DEFPOINTS
 62
     0
100
AcDbPoint
 10
724.745819242478
 20
921.3318240000001
 30
0.0
  0
POINT
  5
1D7
330
1CD
100
AcDbEntity
  8
DEFPOINTS
 62
     0
100
AcDbPoint
 10
648.8397807924781
 20
1601.331824
 30
0.0
  0
POINT
  5
1D8
330
1CD
100
AcDbEntity
  8
DEFPOINTS
 62
     0
100
AcDbPoint
 10
1048.839780792478
 20
1601.331824
 30
0.0
  0
ENDBLK
  5
1CF
330
1CD
100
AcDbEntity
  8
0
100
AcDbBlockEnd
  0
BLOCK
  5
1DB
330
1DA
100
AcDbEntity
  8
0
100
AcDbBlockBegin
  2
*D18
 70
     1
 10
0.0
 20
0.0
 30
0.0
  3
*D18
  1

  0
LINE
  5
1DD
330
1DA
100
AcDbEntity
  8
寸法
  6
CONTINUOUS
 62
     3
100
AcDbLine
 10
735.310293092478
 20
1586.331824
 30
0.0
 11
968.8397807924779
 21
1586.331824
 31
0.0
  0
LINE
  5
1DE
330
1DA
100
AcDbEntity
  8
寸法
  6
CONTINUOUS
 62
     3
100
AcDbLine
 10
968.8397807924779
 20
1586.331824
 30
0.0
 11
968.8397807924779
 21
1601.331824
 31
0.0
  0
LINE
  5
1DF
330
1DA
100
AcDbEntity
  8
寸法
  6
CONTINUOUS
 62
     3
100
AcDbLine
 10
968.8397807924779
 20
1551.331824
 30
0.0
 11
968.8397807924779
 21
1516.331824
 31
0.0
  0
LINE
  5
1E0
330
1DA
100
AcDbEntity
  8
寸法
  6
CONTINUOUS
 62
     3
100
AcDbLine
 10
968.8397807924779
 20
1636.331824
 30
0.0
 11
968.8397807924779
 21
1671.331824
 31
0.0
  0
INSERT
  5
1E1
330
1DA
100
AcDbEntity
  8
寸法
 62
     3
100
AcDbBlockReference
  2
EX_NONE
 10
968.8397807924779
 20
1586.331824
 30
0.0
 41
35.0
 42
35.0
 43
35.0
 50
90.0
  0
INSERT
  5
1E2
330
1DA
100
AcDbEntity
  8
寸法
 62
     3
100
AcDbBlockReference
  2
EX_NORM
 10
968.8397807924779
 20
1601.331824
 30
0.0
 41
35.0
 42
35.0
 43
35.0
 50
270.0
  0
MTEXT
  5
1E3
330
1DA
100
AcDbEntity
  8
寸法
 62
     2
100
AcDbMText
 10
945.3397808520831
 20
1671.331824
 30
0.0
 40
40.0
 41
0.0
 71
     5
 72
     1
  1
15
  7
EXCADDIM1
 11
0.0
 21
1.0
 31
0.0
  0
POINT
  5
1E4
330
1DA
100
AcDbEntity
  8
DEFPOINTS
 62
     0
100
AcDbPoint
 10
735.310293092478
 20
1586.331824
 30
0.0
  0
POINT
  5
1E5
330
1DA
100
AcDbEntity
  8
DEFPOINTS
 62
     0
100
AcDbPoint
 10
648.8397807924781
 20
1601.331824
 30
0.0
  0
POINT
  5
1E6
330
1DA
100
AcDbEntity
  8
DEFPOINTS
 62
     0
100
AcDbPoint
 10
968.8397807924779
 20
1601.331824
 30
0.0
  0
ENDBLK
  5
1DC
330
1DA
100
AcDbEntity
  8
0
100
AcDbBlockEnd
  0
BLOCK
  5
1E9
330
1E8
100
AcDbEntity
  8
0
100
AcDbBlockBegin
  2
*D19
 70
     1
 10
0.0
 20
0.0
 30
0.0
  3
*D19
  1

  0
LINE
  5
1EB
330
1E8
100
AcDbEntity
  8
寸法
  6
CONTINUOUS
 62
     3
100
AcDbLine
 10
968.8397807924781
 20
921.331824
 30
0.0
 11
968.8397807924781
 21
936.331824
 31
0.0
  0
LINE
  5
1EC
330
1E8
100
AcDbEntity
  8
寸法
  6
CONTINUOUS
 62
     3
100
AcDbLine
 10
968.8397807924781
 20
886.331824
 30
0.0
 11
968.8397807924781
 21
851.331824
 31
0.0
  0
LINE
  5
1ED
330
1E8
100
AcDbEntity
  8
寸法
  6
CONTINUOUS
 62
     3
100
AcDbLine
 10
968.8397807924781
 20
971.331824
 30
0.0
 11
968.8397807924781
 21
1006.331824
 31
0.0
  0
INSERT
  5
1EE
330
1E8
100
AcDbEntity
  8
寸法
 62
     3
100
AcDbBlockReference
  2
EX_NORM
 10
968.8397807924781
 20
921.331824
 30
0.0
 41
35.0
 42
35.0
 43
35.0
 50
90.0
  0
INSERT
  5
1EF
330
1E8
100
AcDbEntity
  8
寸法
 62
     3
100
AcDbBlockReference
  2
EX_NONE
 10
968.8397807924781
 20
936.331824
 30
0.0
 41
35.0
 42
35.0
 43
35.0
 50
270.0
  0
MTEXT
  5
1F0
330
1E8
100
AcDbEntity
  8
寸法
 62
     2
100
AcDbMText
 10
945.3397808520829
 20
851.3318239999999
 30
0.0
 40
40.0
 41
0.0
 71
     5
 72
     1
  1
15
  7
EXCADDIM1
 11
0.0
 21
1.0
 31
0.0
  0
POINT
  5
1F1
330
1E8
100
AcDbEntity
  8
DEFPOINTS
 62
     0
100
AcDbPoint
 10
724.745819242478
 20
921.3318240000001
 30
0.0
  0
POINT
  5
1F2
330
1E8
100
AcDbEntity
  8
DEFPOINTS
 62
     0
100
AcDbPoint
 10
733.9372695513579
 20
936.3318240000001
 30
0.0
  0
POINT
  5
1F3
330
1E8
100
AcDbEntity
  8
DEFPOINTS
 62
     0
100
AcDbPoint
 10
968.8397807924781
 20
936.331824
 30
0.0
  0
ENDBLK
  5
1EA
330
1E8
100
AcDbEntity
  8
0
100
AcDbBlockEnd
  0
BLOCK
  5
1F6
330
1F5
100
AcDbEntity
  8
0
100
AcDbBlockBegin
  2
*D20
 70
     1
 10
0.0
 20
0.0
 30
0.0
  3
*D20
  1

  0
LINE
  5
1F8
330
1F5
100
AcDbEntity
  8
寸法
  6
CONTINUOUS
 62
     3
100
AcDbLine
 10
733.9372695513579
 20
936.3318240000001
 30
0.0
 11
988.8397807924781
 21
936.3318240000001
 31
0.0
  0
LINE
  5
1F9
330
1F5
100
AcDbEntity
  8
寸法
  6
CONTINUOUS
 62
     3
100
AcDbLine
 10
968.8397807924781
 20
971.3318240000001
 30
0.0
 11
968.8397807924781
 21
1551.331824
 31
0.0
  0
INSERT
  5
1FA
330
1F5
100
AcDbEntity
  8
寸法
 62
     3
100
AcDbBlockReference
  2
EX_NORM
 10
968.8397807924781
 20
936.3318240000001
 30
0.0
 41
35.0
 42
35.0
 43
35.0
 50
270.0
  0
INSERT
  5
1FB
330
1F5
100
AcDbEntity
  8
寸法
 62
     3
100
AcDbBlockReference
  2
EX_NORM
 10
968.8397807924781
 20
1586.331824
 30
0.0
 41
35.0
 42
35.0
 43
35.0
 50
90.0
  0
MTEXT
  5
1FC
330
1F5
100
AcDbEntity
  8
寸法
 62
     2
100
AcDbMText
 10
945.3397808520829
 20
1261.331824
 30
0.0
 40
40.0
 41
0.0
 71
     5
 72
     1
  1
650
  7
EXCADDIM1
 11
0.0
 21
1.0
 31
0.0
  0
POINT
  5
1FD
330
1F5
100
AcDbEntity
  8
DEFPOINTS
 62
     0
100
AcDbPoint
 10
733.9372695513579
 20
936.3318240000001
 30
0.0
  0
POINT
  5
1FE
330
1F5
100
AcDbEntity
  8
DEFPOINTS
 62
     0
100
AcDbPoint
 10
735.310293092478
 20
1586.331824
 30
0.0
  0
POINT
  5
1FF
330
1F5
100
AcDbEntity
  8
DEFPOINTS
 62
     0
100
AcDbPoint
 10
968.8397807924781
 20
1586.331824
 30
0.0
  0
ENDBLK
  5
1F7
330
1F5
100
AcDbEntity
  8
0
100
AcDbBlockEnd
  0
BLOCK
  5
208
330
207
100
AcDbEntity
  8
0
100
AcDbBlockBegin
  2
*D21
 70
     1
 10
0.0
 20
0.0
 30
0.0
  3
*D21
  1

  0
LINE
  5
20A
330
207
100
AcDbEntity
  8
寸法
  6
CONTINUOUS
 62
     3
100
AcDbLine
 10
670.6102900354892
 20
891.3318240000001
 30
0.0
 11
908.8397807924778
 21
891.3318240000001
 31
0.0
  0
LINE
  5
20B
330
207
100
AcDbEntity
  8
寸法
  6
CONTINUOUS
 62
     3
100
AcDbLine
 10
888.8397807924778
 20
921.3318240000001
 30
0.0
 11
888.8397807924778
 21
891.3318240000001
 31
0.0
  0
LINE
  5
20C
330
207
100
AcDbEntity
  8
寸法
  6
CONTINUOUS
 62
     3
100
AcDbLine
 10
888.8397807924778
 20
956.3318240000001
 30
0.0
 11
888.8397807924778
 21
991.3318240000001
 31
0.0
  0
LINE
  5
20D
330
207
100
AcDbEntity
  8
寸法
  6
CONTINUOUS
 62
     3
100
AcDbLine
 10
888.8397807924778
 20
856.3318240000001
 30
0.0
 11
888.8397807924778
 21
821.3318240000001
 31
0.0
  0
INSERT
  5
20E
330
207
100
AcDbEntity
  8
寸法
 62
     3
100
AcDbBlockReference
  2
EX_NORM
 10
888.8397807924778
 20
921.3318240000001
 30
0.0
 41
35.0
 42
35.0
 43
35.0
 50
270.0
  0
INSERT
  5
20F
330
207
100
AcDbEntity
  8
寸法
 62
     3
100
AcDbBlockReference
  2
EX_NORM
 10
888.8397807924778
 20
891.3318240000001
 30
0.0
 41
35.0
 42
35.0
 43
35.0
 50
90.0
  0
MTEXT
  5
210
330
207
100
AcDbEntity
  8
寸法
 62
     2
100
AcDbMText
 10
865.3397808520825
 20
821.3318239999999
 30
0.0
 40
40.0
 41
0.0
 71
     5
 72
     1
  1
30
  7
EXCADDIM1
 11
0.0
 21
1.0
 31
0.0
  0
POINT
  5
211
330
207
100
AcDbEntity
  8
DEFPOINTS
 62
     0
100
AcDbPoint
 10
572.9337423924778
 20
921.3318240000001
 30
0.0
  0
POINT
  5
212
330
207
100
AcDbEntity
  8
DEFPOINTS
 62
     0
100
AcDbPoint
 10
632.3397807924778
 20
891.3318240000001
 30
0.0
  0
POINT
  5
213
330
207
100
AcDbEntity
  8
DEFPOINTS
 62
     0
100
AcDbPoint
 10
888.8397807924778
 20
891.3318240000001
 30
0.0
  0
ENDBLK
  5
209
330
207
100
AcDbEntity
  8
0
100
AcDbBlockEnd
  0
BLOCK
  5
216
330
215
100
AcDbEntity
  8
0
100
AcDbBlockBegin
  2
*D22
 70
     1
 10
0.0
 20
0.0
 30
0.0
  3
*D22
  1

  0
LINE
  5
218
330
215
100
AcDbEntity
  8
寸法
  6
CONTINUOUS
 62
     3
100
AcDbLine
 10
583.8397807924781
 20
917.4000000953674
 30
0.0
 11
583.8397807924781
 21
800.0
 31
0.0
  0
LINE
  5
219
330
215
100
AcDbEntity
  8
寸法
  6
CONTINUOUS
 62
     3
100
AcDbLine
 10
713.8397807924779
 20
917.4000000953674
 30
0.0
 11
713.8397807924779
 21
800.0
 31
0.0
  0
LINE
  5
21A
330
215
100
AcDbEntity
  8
寸法
  6
CONTINUOUS
 62
     3
100
AcDbLine
 10
618.8397807924781
 20
820.0
 30
0.0
 11
678.8397807924779
 21
820.0
 31
0.0
  0
INSERT
  5
21B
330
215
100
AcDbEntity
  8
寸法
 62
     3
100
AcDbBlockReference
  2
EX_NORM
 10
583.8397807924781
 20
820.0
 30
0.0
 41
35.0
 42
35.0
 43
35.0
 50
180.0
  0
INSERT
  5
21C
330
215
100
AcDbEntity
  8
寸法
 62
     3
100
AcDbBlockReference
  2
EX_NORM
 10
713.8397807924779
 20
820.0
 30
0.0
 41
35.0
 42
35.0
 43
35.0
  0
MTEXT
  5
21D
330
215
100
AcDbEntity
  8
寸法
 62
     2
100
AcDbMText
 10
792.0102930924778
 20
843.4999999999999
 30
0.0
 40
40.0
 41
0.0
 71
     5
 72
     1
  1
130
  7
EXCADDIM1
  0
POINT
  5
21E
330
215
100
AcDbEntity
  8
DEFPOINTS
 62
     0
100
AcDbPoint
 10
583.8397807924781
 20
920.0
 30
0.0
  0
POINT
  5
21F
330
215
100
AcDbEntity
  8
DEFPOINTS
 62
     0
100
AcDbPoint
 10
713.8397807924779
 20
920.0
 30
0.0
  0
POINT
  5
220
330
215
100
AcDbEntity
  8
DEFPOINTS
 62
     0
100
AcDbPoint
 10
713.8397807924779
 20
820.0
 30
0.0
  0
ENDBLK
  5
217
330
215
100
AcDbEntity
  8
0
100
AcDbBlockEnd
  0
BLOCK
  5
223
330
222
100
AcDbEntity
  8
0
100
AcDbBlockBegin
  2
*D23
 70
     1
 10
0.0
 20
0.0
 30
0.0
  3
*D23
  1

  0
LINE
  5
225
330
222
100
AcDbEntity
  8
寸法
  6
CONTINUOUS
 62
     3
100
AcDbLine
 10
1710.8809547
 20
671.6000001192092
 30
0.0
 11
1710.8809547
 21
598.6
 31
0.0
  0
LINE
  5
226
330
222
100
AcDbEntity
  8
寸法
  6
CONTINUOUS
 62
     3
100
AcDbLine
 10
1770.8809547
 20
704.3318241192092
 30
0.0
 11
1770.8809547
 21
598.6
 31
0.0
  0
LINE
  5
227
330
222
100
AcDbEntity
  8
寸法
  6
CONTINUOUS
 62
     3
100
AcDbLine
 10
1710.8809547
 20
618.6
 30
0.0
 11
1770.8809547
 21
618.6
 31
0.0
  0
LINE
  5
228
330
222
100
AcDbEntity
  8
寸法
  6
CONTINUOUS
 62
     3
100
AcDbLine
 10
1675.8809547
 20
618.6
 30
0.0
 11
1640.8809547
 21
618.6
 31
0.0
  0
LINE
  5
229
330
222
100
AcDbEntity
  8
寸法
  6
CONTINUOUS
 62
     3
100
AcDbLine
 10
1805.8809547
 20
618.6
 30
0.0
 11
1840.8809547
 21
618.6
 31
0.0
  0
INSERT
  5
22A
330
222
100
AcDbEntity
  8
寸法
 62
     3
100
AcDbBlockReference
  2
EX_NORM
 10
1710.8809547
 20
618.6
 30
0.0
 41
35.0
 42
35.0
 43
35.0
  0
INSERT
  5
22B
330
222
100
AcDbEntity
  8
寸法
 62
     3
100
AcDbBlockReference
  2
EX_NORM
 10
1770.8809547
 20
618.6
 30
0.0
 41
35.0
 42
35.0
 43
35.0
 50
180.0
  0
MTEXT
  5
22C
330
222
100
AcDbEntity
  8
寸法
 62
     2
100
AcDbMText
 10
1840.8809547
 20
642.0999999403955
 30
0.0
 40
40.0
 41
0.0
 71
     5
 72
     1
  1
60
  7
EXCADDIM1
  0
POINT
  5
22D
330
222
100
AcDbEntity
  8
DEFPOINTS
 62
     0
100
AcDbPoint
 10
1710.8809547
 20
678.5999999999999
 30
0.0
  0
POINT
  5
22E
330
222
100
AcDbEntity
  8
DEFPOINTS
 62
     0
100
AcDbPoint
 10
1770.8809547
 20
711.3318239999999
 30
0.0
  0
POINT
  5
22F
330
222
100
AcDbEntity
  8
DEFPOINTS
 62
     0
100
AcDbPoint
 10
1770.8809547
 20
618.6
 30
0.0
  0
ENDBLK
  5
224
330
222
100
AcDbEntity
  8
0
100
AcDbBlockEnd
  0
BLOCK
  5
232
330
231
100
AcDbEntity
  8
0
100
AcDbBlockBegin
  2
*D24
 70
     1
 10
0.0
 20
0.0
 30
0.0
  3
*D24
  1

  0
LINE
  5
234
330
231
100
AcDbEntity
  8
寸法
  6
CONTINUOUS
 62
     3
100
AcDbLine
 10
488.82948769964
 20
2426.658046219209
 30
0.0
 11
488.82948769964
 21
2048.6580461
 31
0.0
  0
LINE
  5
235
330
231
100
AcDbEntity
  8
寸法
  6
CONTINUOUS
 62
     3
100
AcDbLine
 10
808.82948770036
 20
2426.658046219209
 30
0.0
 11
808.82948770036
 21
2048.6580461
 31
0.0
  0
LINE
  5
236
330
231
100
AcDbEntity
  8
寸法
  6
CONTINUOUS
 62
     3
100
AcDbLine
 10
523.82948769964
 20
2068.6580461
 30
0.0
 11
773.82948770036
 21
2068.6580461
 31
0.0
  0
INSERT
  5
237
330
231
100
AcDbEntity
  8
寸法
 62
     3
100
AcDbBlockReference
  2
EX_NORM
 10
488.82948769964
 20
2068.6580461
 30
0.0
 41
35.0
 42
35.0
 43
35.0
 50
180.0
  0
INSERT
  5
238
330
231
100
AcDbEntity
  8
寸法
 62
     3
100
AcDbBlockReference
  2
EX_NORM
 10
808.82948770036
 20
2068.6580461
 30
0.0
 41
35.0
 42
35.0
 43
35.0
  0
MTEXT
  5
239
330
231
100
AcDbEntity
  8
寸法
 62
     2
100
AcDbMText
 10
648.8294877000002
 20
2092.158046040395
 30
0.0
 40
40.0
 41
0.0
 71
     5
 72
     1
  1
320
  7
EXCADDIM1
  0
POINT
  5
23A
330
231
100
AcDbEntity
  8
DEFPOINTS
 62
     0
100
AcDbPoint
 10
488.82948769964
 20
2433.6580461
 30
0.0
  0
POINT
  5
23B
330
231
100
AcDbEntity
  8
DEFPOINTS
 62
     0
100
AcDbPoint
 10
808.82948770036
 20
2433.6580461
 30
0.0
  0
POINT
  5
23C
330
231
100
AcDbEntity
  8
DEFPOINTS
 62
     0
100
AcDbPoint
 10
808.82948770036
 20
2068.6580461
 30
0.0
  0
ENDBLK
  5
233
330
231
100
AcDbEntity
  8
0
100
AcDbBlockEnd
  0
BLOCK
  5
23F
330
23E
100
AcDbEntity
  8
0
100
AcDbBlockBegin
  2
*D25
 70
     1
 10
0.0
 20
0.0
 30
0.0
  3
*D25
  1

  0
LINE
  5
241
330
23E
100
AcDbEntity
  8
寸法
  6
CONTINUOUS
 62
     3
100
AcDbLine
 10
812.5873758579908
 20
2433.6580461
 30
0.0
 11
908.82948770036
 21
2433.6580461
 31
0.0
  0
LINE
  5
242
330
23E
100
AcDbEntity
  8
寸法
  6
CONTINUOUS
 62
     3
100
AcDbLine
 10
655.8294875807907
 20
2128.6580461
 30
0.0
 11
908.82948770036
 21
2128.6580461
 31
0.0
  0
LINE
  5
243
330
23E
100
AcDbEntity
  8
寸法
  6
CONTINUOUS
 62
     3
100
AcDbLine
 10
888.82948770036
 20
2398.6580461
 30
0.0
 11
888.82948770036
 21
2163.6580461
 31
0.0
  0
INSERT
  5
244
330
23E
100
AcDbEntity
  8
寸法
 62
     3
100
AcDbBlockReference
  2
EX_NORM
 10
888.82948770036
 20
2433.6580461
 30
0.0
 41
35.0
 42
35.0
 43
35.0
 50
90.0
  0
INSERT
  5
245
330
23E
100
AcDbEntity
  8
寸法
 62
     3
100
AcDbBlockReference
  2
EX_NORM
 10
888.82948770036
 20
2128.6580461
 30
0.0
 41
35.0
 42
35.0
 43
35.0
 50
270.0
  0
MTEXT
  5
246
330
23E
100
AcDbEntity
  8
寸法
 62
     2
100
AcDbMText
 10
865.3294877599649
 20
2281.1580461
 30
0.0
 40
40.0
 41
0.0
 71
     5
 72
     1
  1
305
  7
EXCADDIM1
 11
0.0
 21
1.0
 31
0.0
  0
POINT
  5
247
330
23E
100
AcDbEntity
  8
DEFPOINTS
 62
     0
100
AcDbPoint
 10
805.5873759772
 20
2433.6580461
 30
0.0
  0
POINT
  5
248
330
23E
100
AcDbEntity
  8
DEFPOINTS
 62
     0
100
AcDbPoint
 10
648.8294877
 20
2128.6580461
 30
0.0
  0
POINT
  5
249
330
23E
100
AcDbEntity
  8
DEFPOINTS
 62
     0
100
AcDbPoint
 10
888.82948770036
 20
2128.6580461
 30
0.0
  0
ENDBLK
  5
240
330
23E
100
AcDbEntity
  8
0
100
AcDbBlockEnd
  0
BLOCK
  5
24C
330
24B
100
AcDbEntity
  8
0
100
AcDbBlockBegin
  2
*D26
 70
     1
 10
0.0
 20
0.0
 30
0.0
  3
*D26
  1

  0
LINE
  5
24E
330
24B
100
AcDbEntity
  8
寸法
  6
CONTINUOUS
 62
     3
100
AcDbLine
 10
1463.145618976009
 20
1041.2877496302
 30
0.0
 11
1320.0
 21
1041.2877496302
 31
0.0
  0
LINE
  5
24F
330
24B
100
AcDbEntity
  8
寸法
  6
CONTINUOUS
 62
     3
100
AcDbLine
 10
1340.0
 20
746.331824
 30
0.0
 11
1340.0
 21
1006.2877496302
 31
0.0
  0
INSERT
  5
250
330
24B
100
AcDbEntity
  8
寸法
 62
     3
100
AcDbBlockReference
  2
EX_NORM
 10
1340.0
 20
711.331824
 30
0.0
 41
35.0
 42
35.0
 43
35.0
 50
270.0
  0
INSERT
  5
251
330
24B
100
AcDbEntity
  8
寸法
 62
     3
100
AcDbBlockReference
  2
EX_NORM
 10
1340.0
 20
1041.2877496302
 30
0.0
 41
35.0
 42
35.0
 43
35.0
 50
90.0
  0
MTEXT
  5
252
330
24B
100
AcDbEntity
  8
寸法
 62
     2
100
AcDbMText
 10
1316.500000059605
 20
876.3097868151001
 30
0.0
 40
40.0
 41
0.0
 71
     5
 72
     1
  1
330
  7
EXCADDIM1
 11
0.0
 21
1.0
 31
0.0
  0
POINT
  5
253
330
24B
100
AcDbEntity
  8
DEFPOINTS
 62
     0
100
AcDbPoint
 10
1294.0
 20
711.3318239999999
 30
0.0
  0
POINT
  5
254
330
24B
100
AcDbEntity
  8
DEFPOINTS
 62
     0
100
AcDbPoint
 10
1470.1456188568
 20
1041.2877496302
 30
0.0
  0
POINT
  5
255
330
24B
100
AcDbEntity
  8
DEFPOINTS
 62
     0
100
AcDbPoint
 10
1340.0
 20
1041.2877496302
 30
0.0
  0
ENDBLK
  5
24D
330
24B
100
AcDbEntity
  8
0
100
AcDbBlockEnd
  0
BLOCK
  5
258
330
257
100
AcDbEntity
  8
0
100
AcDbBlockBegin
  2
*D27
 70
     1
 10
0.0
 20
0.0
 30
0.0
  3
*D27
  1

  0
LINE
  5
25A
330
257
100
AcDbEntity
  8
寸法
  6
CONTINUOUS
 62
     3
100
AcDbLine
 10
1691.000004249103
 20
891.34211709257
 30
0.0
 11
1394.0
 21
891.34211709257
 31
0.0
  0
LINE
  5
25B
330
257
100
AcDbEntity
  8
寸法
  6
CONTINUOUS
 62
     3
100
AcDbLine
 10
1414.0
 20
1006.2877496302
 30
0.0
 11
1414.0
 21
926.34211709257
 31
0.0
  0
INSERT
  5
25C
330
257
100
AcDbEntity
  8
寸法
 62
     3
100
AcDbBlockReference
  2
EX_NORM
 10
1414.0
 20
1041.2877496302
 30
0.0
 41
35.0
 42
35.0
 43
35.0
 50
90.0
  0
INSERT
  5
25D
330
257
100
AcDbEntity
  8
寸法
 62
     3
100
AcDbBlockReference
  2
EX_NORM
 10
1414.0
 20
891.34211709257
 30
0.0
 41
35.0
 42
35.0
 43
35.0
 50
270.0
  0
MTEXT
  5
25E
330
257
100
AcDbEntity
  8
寸法
 62
     2
100
AcDbMText
 10
1390.500000059605
 20
966.314933361385
 30
0.0
 40
40.0
 41
0.0
 71
     5
 72
     1
  1
150
  7
EXCADDIM1
 11
0.0
 21
1.0
 31
0.0
  0
POINT
  5
25F
330
257
100
AcDbEntity
  8
DEFPOINTS
 62
     0
100
AcDbPoint
 10
1470.1456188568
 20
1041.2877496302
 30
0.0
  0
POINT
  5
260
330
257
100
AcDbEntity
  8
DEFPOINTS
 62
     0
100
AcDbPoint
 10
1710.8809547
 20
891.34211709257
 30
0.0
  0
POINT
  5
261
330
257
100
AcDbEntity
  8
DEFPOINTS
 62
     0
100
AcDbPoint
 10
1414.0
 20
891.34211709257
 30
0.0
  0
ENDBLK
  5
259
330
257
100
AcDbEntity
  8
0
100
AcDbBlockEnd
  0
BLOCK
  5
264
330
263
100
AcDbEntity
  8
0
100
AcDbBlockBegin
  2
*D28
 70
     1
 10
0.0
 20
0.0
 30
0.0
  3
*D28
  1

  0
LINE
  5
266
330
263
100
AcDbEntity
  8
寸法
  6
CONTINUOUS
 62
     3
100
AcDbLine
 10
1755.300004439838
 20
1601.3421170926
 30
0.0
 11
1320.0
 21
1601.3421170926
 31
0.0
  0
LINE
  5
267
330
263
100
AcDbEntity
  8
寸法
  6
CONTINUOUS
 62
     3
100
AcDbLine
 10
1340.0
 20
1566.3421170926
 30
0.0
 11
1340.0
 21
1076.2877496302
 31
0.0
  0
INSERT
  5
268
330
263
100
AcDbEntity
  8
寸法
 62
     3
100
AcDbBlockReference
  2
EX_NORM
 10
1340.0
 20
1601.3421170926
 30
0.0
 41
35.0
 42
35.0
 43
35.0
 50
90.0
  0
INSERT
  5
269
330
263
100
AcDbEntity
  8
寸法
 62
     3
100
AcDbBlockReference
  2
EX_NORM
 10
1340.0
 20
1041.2877496302
 30
0.0
 41
35.0
 42
35.0
 43
35.0
 50
270.0
  0
MTEXT
  5
26A
330
263
100
AcDbEntity
  8
寸法
 62
     2
100
AcDbMText
 10
1316.500000059605
 20
1321.3149333614
 30
0.0
 40
40.0
 41
0.0
 71
     5
 72
     1
  1
560
  7
EXCADDIM1
 11
0.0
 21
1.0
 31
0.0
  0
POINT
  5
26B
330
263
100
AcDbEntity
  8
DEFPOINTS
 62
     0
100
AcDbPoint
 10
1767.8809547
 20
1601.3421170926
 30
0.0
  0
POINT
  5
26C
330
263
100
AcDbEntity
  8
DEFPOINTS
 62
     0
100
AcDbPoint
 10
1340.0
 20
1041.2877496302
 30
0.0
  0
POINT
  5
26D
330
263
100
AcDbEntity
  8
DEFPOINTS
 62
     0
100
AcDbPoint
 10
1340.0
 20
1041.2877496302
 30
0.0
  0
ENDBLK
  5
265
330
263
100
AcDbEntity
  8
0
100
AcDbBlockEnd
  0
ENDSEC
  0
SECTION
  2
ENTITIES
  0
LINE
  5
A8
330
1F
100
AcDbEntity
  8
枠
  6
CONTINUOUS
 62
     7
100
AcDbLine
 10
1294.0
 20
711.3318239999999
 30
0.0
 11
1770.8809547
 21
711.3318239999999
 31
0.0
  0
LINE
  5
A9
330
1F
100
AcDbEntity
  8
枠
  6
CONTINUOUS
 62
     7
100
AcDbLine
 10
1770.8809547
 20
711.3318239999999
 30
0.0
 11
1770.8809547
 21
1895.0
 31
0.0
  0
LINE
  5
AA
330
1F
100
AcDbEntity
  8
枠
  6
CONTINUOUS
 62
     7
100
AcDbLine
 10
370.010293092478
 20
711.3318240000001
 30
0.0
 11
1112.010293092478
 21
711.3318240000001
 31
0.0
  0
TEXT
  5
AB
330
1F
100
AcDbEntity
  8
スト_ル
  6
CONTINUOUS
 62
     2
100
AcDbText
 10
1423.000000715256
 20
1676.5102930926
 30
0.0
 40
40.0
  1
ＮＴ７Ａカラー
 41
0.9902439024390244
  7
EXCADSTD
 72
     5
 11
1655.000000715256
 21
1676.5102930926
 31
0.0
100
AcDbText
  0
LEADER
  5
AC
330
1F
100
AcDbEntity
  8
スト_ル
  6
CONTINUOUS
 62
     6
100
AcDbLeader
  3
ISO-25
 76
     3
 10
1748.169238540067
 20
1588.741940880273
 30
0.0
 10
1660.0
 20
1673.0102930926
 30
0.0
 10
1424.0
 20
1673.0102930926
 30
0.0
1001
ACAD
1000
DSTYLE
1002
{
1070
     5
1000
EX_NORM
1070
    41
1040
35.0
1070
   341
1005
4C
1002
}
  0
LINE
  5
AD
330
1F
100
AcDbEntity
  8
スト_ル
  6
CONTINUOUS
 62
     7
100
AcDbLine
 10
1690.497063486611
 20
711.3318240000001
 30
0.0
 11
1691.3809547
 21
678.8318240000001
 31
0.0
  0
LINE
  5
AE
330
1F
100
AcDbEntity
  8
スト_ル
  6
CONTINUOUS
 62
     7
100
AcDbLine
 10
1691.3809547
 20
678.6000000000001
 30
0.0
 11
1730.3809547
 21
678.6000000000001
 31
0.0
  0
LINE
  5
AF
330
1F
100
AcDbEntity
  8
スト_ル
  6
CONTINUOUS
 62
     7
100
AcDbLine
 10
1730.3809547
 20
678.8318240000001
 30
0.0
 11
1731.264845913389
 21
711.3318240000001
 31
0.0
  0
ARC
  5
B0
330
1F
100
AcDbEntity
  8
スト_ル
  6
CONTINUOUS
 62
     7
100
AcDbCircle
 10
1720.754175102
 20
707.4861091619999
 30
0.0
 40
20.0
100
AcDbArc
 50
11.08620762656997
 51
57.38228128393988
  0
ARC
  5
B1
330
1F
100
AcDbEntity
  8
スト_ル
  6
CONTINUOUS
 62
     7
100
AcDbCircle
 10
1701.007734298
 20
707.4861091619999
 30
0.0
 40
20.0
100
AcDbArc
 50
122.6177187160601
 51
168.91379237343
  0
LINE
  5
B2
330
1F
100
AcDbEntity
  8
スト_ル
  6
CONTINUOUS
 62
     7
100
AcDbLine
 10
1690.227108546366
 20
724.3318239999999
 30
0.0
 11
1731.5348008538
 21
724.3318239999999
 31
0.0
  0
LINE
  5
B3
330
1F
100
AcDbEntity
  8
スト_ル
  6
EXLTYPE3
 62
     6
100
AcDbLine
 10
1710.8809547
 20
678.6
 30
0.0
 11
1710.8809547
 21
984.3842009595696
 31
0.0
  0
LINE
  5
B4
330
1F
100
AcDbEntity
  8
スト_ル
  6
EXLTYPE3
 62
     6
100
AcDbLine
 10
1710.8809547
 20
678.6
 30
0.0
 11
1710.8809547
 21
984.3842009595696
 31
0.0
  0
LINE
  5
B5
330
1F
100
AcDbEntity
  8
スト_ル
  6
EXLTYPE3
 62
     6
100
AcDbLine
 10
1710.8809547
 20
678.6
 30
0.0
 11
1710.8809547
 21
984.3842009595696
 31
0.0
  0
ARC
  5
B6
330
1F
100
AcDbEntity
  8
スト_ル
  6
CONTINUOUS
 62
     7
100
AcDbCircle
 10
1788.08796101405
 20
2939.02682993797
 30
0.0
 40
2000.000000000001
100
AcDbArc
 50
261.4510160167003
 51
266.1753436028002
  0
ARC
  5
B7
330
1F
100
AcDbEntity
  8
スト_ル
  6
CONTINUOUS
 62
     7
100
AcDbCircle
 10
1494.49453724595
 20
985.9707883665704
 30
0.0
 40
25.00000000000002
100
AcDbArc
 50
182.3925489416008
 51
261.4510160166994
  0
LINE
  5
B8
330
1F
100
AcDbEntity
  8
スト_ル
  6
CONTINUOUS
 62
     7
100
AcDbLine
 10
1669.94997352705
 20
1549.172905025071
 30
0.0
 11
1650.698283249049
 21
1189.927761169571
 31
0.0
  0
ARC
  5
B9
330
1F
100
AcDbEntity
  8
スト_ル
  6
CONTINUOUS
 62
     7
100
AcDbCircle
 10
1450.98484732155
 20
1200.630261338571
 30
0.0
 40
200.0000000000002
100
AcDbArc
 50
326.3720407754701
 51
356.9324943489704
  0
LINE
  5
BA
330
1F
100
AcDbEntity
  8
スト_ル
  6
EXLTYPE3
 62
     1
100
AcDbLine
 10
1710.88095470005
 20
873.3421170925704
 30
0.0
 11
1710.88095470005
 21
960.5421170925705
 31
0.0
  0
LINE
  5
BB
330
1F
100
AcDbEntity
  8
スト_ル
  6
CONTINUOUS
 62
     7
100
AcDbLine
 10
1699.825308760049
 20
913.1268105825706
 30
0.0
 11
1700.88095470005
 21
891.3421170925704
 31
0.0
  0
LINE
  5
BC
330
1F
100
AcDbEntity
  8
スト_ル
  6
CONTINUOUS
 62
     7
100
AcDbLine
 10
1721.936600640049
 20
913.1268105825706
 30
0.0
 11
1720.88095470005
 21
891.3421170925704
 31
0.0
  0
LINE
  5
BD
330
1F
100
AcDbEntity
  8
スト_ル
  6
CONTINUOUS
 62
     7
100
AcDbLine
 10
1680.88095470005
 20
921.3421170925706
 30
0.0
 11
1669.880954700049
 21
921.3421170925706
 31
0.0
  0
LINE
  5
BE
330
1F
100
AcDbEntity
  8
スト_ル
  6
CONTINUOUS
 62
     7
100
AcDbLine
 10
1767.880954700049
 20
921.3421170925706
 30
0.0
 11
1740.88095470005
 21
921.3421170925706
 31
0.0
  0
LINE
  5
BF
330
1F
100
AcDbEntity
  8
スト_ル
  6
CONTINUOUS
 62
     7
100
AcDbLine
 10
1744.112332481049
 20
931.3421170925704
 30
0.0
 11
1737.968947828049
 21
931.3421170925704
 31
0.0
  0
ARC
  5
C0
330
1F
100
AcDbEntity
  8
スト_ル
  6
CONTINUOUS
 62
     7
100
AcDbCircle
 10
1669.880954700049
 20
925.3421170925702
 30
0.0
 40
4.0
100
AcDbArc
 50
180.0
 51
270.0000000000002
  0
ARC
  5
C1
330
1F
100
AcDbEntity
  8
スト_ル
  6
CONTINUOUS
 62
     7
100
AcDbCircle
 10
1677.880954700049
 20
933.3421170925703
 30
0.0
 40
2.0
100
AcDbArc
 50
180.0
 51
270.0000000000002
  0
ARC
  5
C2
330
1F
100
AcDbEntity
  8
スト_ル
  6
CONTINUOUS
 62
     7
100
AcDbCircle
 10
1767.880954700049
 20
924.3421170925701
 30
0.0
 40
3.000000000000001
100
AcDbArc
 50
270.0000000000002
 51
0.0
  0
LINE
  5
C3
330
1F
100
AcDbEntity
  8
スト_ル
  6
CONTINUOUS
 62
     7
100
AcDbLine
 10
1665.88095470005
 20
931.5078438615706
 30
0.0
 11
1665.88095470005
 21
925.3421170925702
 31
0.0
  0
ARC
  5
C4
330
1F
100
AcDbEntity
  8
スト_ル
  6
CONTINUOUS
 62
     7
100
AcDbCircle
 10
1653.880954700049
 20
931.5078438615706
 30
0.0
 40
12.00000000000001
100
AcDbArc
 50
0.0
 51
86.17534360280004
  0
LINE
  5
C5
330
1F
100
AcDbEntity
  8
スト_ル
  6
CONTINUOUS
 62
     7
100
AcDbLine
 10
1675.88095470005
 20
939.9427715885703
 30
0.0
 11
1675.88095470005
 21
933.3421170925703
 31
0.0
  0
LINE
  5
C6
330
1F
100
AcDbEntity
  8
スト_ル
  6
CONTINUOUS
 62
     7
100
AcDbLine
 10
1680.88095470005
 20
921.3421170925703
 30
0.0
 11
1691.38095470005
 21
911.3421170925703
 31
0.0
  0
LINE
  5
C7
330
1F
100
AcDbEntity
  8
スト_ル
  6
CONTINUOUS
 62
     7
100
AcDbLine
 10
1740.88095470005
 20
921.3421170925704
 30
0.0
 11
1730.380954700049
 21
911.3421170925704
 31
0.0
  0
LINE
  5
C8
330
1F
100
AcDbEntity
  8
スト_ル
  6
CONTINUOUS
 62
     7
100
AcDbLine
 10
1691.380954700049
 20
911.3421170925704
 30
0.0
 11
1691.380954700049
 21
894.3421170925706
 31
0.0
  0
ARC
  5
C9
330
1F
100
AcDbEntity
  8
スト_ル
  6
CONTINUOUS
 62
     7
100
AcDbCircle
 10
1694.380954700049
 20
894.3421170925706
 30
0.0
 40
3.000000000000001
100
AcDbArc
 50
180.0
 51
270.0000000000002
  0
LINE
  5
CA
330
1F
100
AcDbEntity
  8
スト_ル
  6
CONTINUOUS
 62
     7
100
AcDbLine
 10
1730.380954700049
 20
911.3421170925704
 30
0.0
 11
1730.380954700049
 21
894.3421170925706
 31
0.0
  0
ARC
  5
CB
330
1F
100
AcDbEntity
  8
スト_ル
  6
CONTINUOUS
 62
     7
100
AcDbCircle
 10
1727.380954700049
 20
894.3421170925706
 30
0.0
 40
3.000000000000001
100
AcDbArc
 50
270.0000000000002
 51
0.0
  0
LINE
  5
CC
330
1F
100
AcDbEntity
  8
スト_ル
  6
CONTINUOUS
 62
     7
100
AcDbLine
 10
1727.380954700049
 20
891.3421170925704
 30
0.0
 11
1694.380954700049
 21
891.3421170925704
 31
0.0
  0
LINE
  5
CD
330
1F
100
AcDbEntity
  8
スト_ル
  6
CONTINUOUS
 62
     7
100
AcDbLine
 10
1696.463248350549
 20
920.1323376184366
 30
0.0
 11
1683.79296157205
 21
931.3421170925703
 31
0.0
  0
ARC
  5
CE
330
1F
100
AcDbEntity
  8
スト_ル
  6
CONTINUOUS
 62
     7
100
AcDbCircle
 10
1689.837029084049
 20
912.6427970295704
 30
0.0
 40
10.0
100
AcDbArc
 50
2.7742773112987
 51
48.49985629795193
  0
LINE
  5
CF
330
1F
100
AcDbEntity
  8
スト_ル
  6
CONTINUOUS
 62
     7
100
AcDbLine
 10
1725.298661049551
 20
920.1323376184366
 30
0.0
 11
1737.96894782805
 21
931.3421170925703
 31
0.0
  0
ARC
  5
D0
330
1F
100
AcDbEntity
  8
スト_ル
  6
CONTINUOUS
 62
     7
100
AcDbCircle
 10
1731.924880316049
 20
912.6427970295704
 30
0.0
 40
10.0
100
AcDbArc
 50
131.500143702048
 51
177.2257226887013
  0
ARC
  5
D1
330
1F
100
AcDbEntity
  8
スト_ル
  6
CONTINUOUS
 62
     7
100
AcDbCircle
 10
1470.880954700049
 20
1036.34211709257
 30
0.0
 40
5.0
100
AcDbArc
 50
90.00000000000004
 51
184.0467325105499
  0
LINE
  5
D2
330
1F
100
AcDbEntity
  8
スト_ル
  6
CONTINUOUS
 62
     7
100
AcDbLine
 10
1465.893420587342
 20
1035.989266593676
 30
0.0
 11
1469.556866682407
 21
984.2065358720998
 31
0.0
  0
LINE
  5
D3
330
1F
100
AcDbEntity
  8
スト_ル
  6
CONTINUOUS
 62
     7
100
AcDbLine
 10
1562.668352484649
 20
1055.044388814
 30
0.0
 11
1470.145618856756
 21
1041.287749630231
 31
0.0
  0
ARC
  5
D4
330
1F
100
AcDbEntity
  8
スト_ル
  6
CONTINUOUS
 62
     7
100
AcDbCircle
 10
1550.90297899195
 20
1134.174509416571
 30
0.0
 40
80.0
100
AcDbArc
 50
278.4570027318701
 51
326.3720407754701
  0
LINE
  5
D5
330
1F
100
AcDbEntity
  8
スト_ル
  6
CONTINUOUS
 62
     7
100
AcDbLine
 10
1767.880954700049
 20
1601.34211709257
 30
0.0
 11
1759.880954700049
 21
1601.34211709257
 31
0.0
  0
ARC
  5
D6
330
1F
100
AcDbEntity
  8
スト_ル
  6
CONTINUOUS
 62
     7
100
AcDbCircle
 10
1759.880954700049
 20
1597.34211709257
 30
0.0
 40
4.0
100
AcDbArc
 50
90.00000000000004
 51
180.0
  0
ARC
  5
D7
330
1F
100
AcDbEntity
  8
スト_ル
  6
CONTINUOUS
 62
     7
100
AcDbCircle
 10
1767.880954700049
 20
1598.34211709257
 30
0.0
 40
3.000000000000001
100
AcDbArc
 50
0.0
 51
90.00000000000004
  0
LINE
  5
D8
330
1F
100
AcDbEntity
  8
スト_ル
  6
CONTINUOUS
 62
     7
100
AcDbLine
 10
1770.88095470005
 20
1598.34211709257
 30
0.0
 11
1770.88095470005
 21
924.3421170925701
 31
0.0
  0
LINE
  5
D9
330
1F
100
AcDbEntity
  8
スト_ル
  6
CONTINUOUS
 62
     7
100
AcDbLine
 10
1693.86480716915
 20
1570.46186180327
 30
0.0
 11
1748.109630942149
 21
1574.33649207277
 31
0.0
  0
ARC
  5
DA
330
1F
100
AcDbEntity
  8
スト_ル
  6
CONTINUOUS
 62
     7
100
AcDbCircle
 10
1746.88095470005
 20
1583.271659457518
 30
0.0
 40
9.0
100
AcDbArc
 50
274.0856167799719
 51
0.0
  0
LINE
  5
DB
330
1F
100
AcDbEntity
  8
スト_ル
  6
CONTINUOUS
 62
     7
100
AcDbLine
 10
1755.88095470005
 20
1597.34211709257
 30
0.0
 11
1755.88095470005
 21
1583.271659457518
 31
0.0
  0
LINE
  5
DC
330
1F
100
AcDbEntity
  8
スト_ル
  6
CONTINUOUS
 62
     7
100
AcDbLine
 10
1689.501902506971
 20
1568.977409445747
 30
0.0
 11
1673.724955864195
 21
1556.475339359074
 31
0.0
  0
ARC
  5
DD
330
1F
100
AcDbEntity
  8
スト_ル
  6
CONTINUOUS
 62
     7
100
AcDbCircle
 10
1679.935645323049
 20
1548.637780016671
 30
0.0
 40
10.0
100
AcDbArc
 50
128.394236652212
 51
176.9324943490027
  0
LINE
  5
DE
330
1F
100
AcDbEntity
  8
スト_ル
  6
EXLTYPE3
 62
     1
100
AcDbLine
 10
1710.8809547
 20
678.6
 30
0.0
 11
1710.8809547
 21
984.3842009595696
 31
0.0
  0
ARC
  5
DF
330
1F
100
AcDbEntity
  8
スト_ル
  6
CONTINUOUS
 62
     7
100
AcDbCircle
 10
1693.677793909352
 20
1563.707656885999
 30
0.0
 40
6.723716312088331
100
AcDbArc
 50
94.08561677997592
 51
128.3942366522111
  0
ARC
  5
E0
330
1F
100
AcDbEntity
  8
スト_ル
  6
CONTINUOUS
 62
     7
100
AcDbCircle
 10
1660.88095470005
 20
939.9427715885703
 30
0.0
 40
15.00000000000001
100
AcDbArc
 50
0.0
 51
34.22963070865892
  0
ARC
  5
E1
330
1F
100
AcDbEntity
  8
スト_ル
  6
CONTINUOUS
 62
     7
100
AcDbCircle
 10
1743.88095470005
 20
933.3421170925703
 30
0.0
 40
2.0
100
AcDbArc
 50
270.0000000000002
 51
0.0
  0
LINE
  5
E2
330
1F
100
AcDbEntity
  8
スト_ル
  6
CONTINUOUS
 62
     7
100
AcDbLine
 10
1745.88095470005
 20
939.9427715885703
 30
0.0
 11
1745.88095470005
 21
933.3421170925703
 31
0.0
  0
ARC
  5
E3
330
1F
100
AcDbEntity
  8
スト_ル
  6
CONTINUOUS
 62
     7
100
AcDbCircle
 10
1760.88095470005
 20
939.9427715885703
 30
0.0
 40
15.00000000000001
100
AcDbArc
 50
151.1464781019976
 51
180.0
  0
LINE
  5
E4
330
1F
100
AcDbEntity
  8
スト_ル
  6
CONTINUOUS
 62
     7
100
AcDbLine
 10
1683.79296157205
 20
931.3421170925704
 30
0.0
 11
1677.880954700049
 21
931.3421170925704
 31
0.0
  0
LINE
  5
E5
330
1F
100
AcDbEntity
  8
スト_ル
  6
CONTINUOUS
 62
     7
100
AcDbLine
 10
1684.889309167756
 20
917.5246366471357
 30
0.0
 11
1690.143507001256
 21
724.3318239999999
 31
0.0
  0
LINE
  5
E6
330
1F
100
AcDbEntity
  8
スト_ル
  6
CONTINUOUS
 62
     7
100
AcDbLine
 10
1731.618402398745
 20
724.3318239999999
 30
0.0
 11
1736.872600232242
 21
917.5246366470392
 31
0.0
  0
LINE
  5
E7
330
1F
100
AcDbEntity
  8
スト_ル
  6
CONTINUOUS
 62
     2
100
AcDbLine
 10
1694.3
 20
912.8
 30
0.0
 11
1694.3
 21
893.6
 31
0.0
  0
LINE
  5
E8
330
1F
100
AcDbEntity
  8
スト_ル
  6
CONTINUOUS
 62
     2
100
AcDbLine
 10
1697.8
 20
912.0999999999999
 30
0.0
 11
1697.8
 21
893.6
 31
0.0
  0
LINE
  5
E9
330
1F
100
AcDbEntity
  8
スト_ル
  6
CONTINUOUS
 62
     2
100
AcDbLine
 10
1694.739700781549
 20
913.5279798287168
 30
0.0
 11
1683.876695548085
 21
923.1388035789831
 31
0.0
  0
LINE
  5
EA
330
1F
100
AcDbEntity
  8
スト_ル
  6
CONTINUOUS
 62
     2
100
AcDbLine
 10
1697.142694988943
 20
915.5003731320721
 30
0.0
 11
1683.19296157205
 21
927.8421170925703
 31
0.0
  0
LINE
  5
EB
330
1F
100
AcDbEntity
  8
スト_ル
  6
CONTINUOUS
 62
     2
100
AcDbLine
 10
1723.9619094
 20
912.0999999999999
 30
0.0
 11
1723.9619094
 21
893.6
 31
0.0
  0
LINE
  5
EC
330
1F
100
AcDbEntity
  8
スト_ル
  6
CONTINUOUS
 62
     2
100
AcDbLine
 10
1727.4619094
 20
912.8
 30
0.0
 11
1727.4619094
 21
893.6
 31
0.0
  0
LINE
  5
ED
330
1F
100
AcDbEntity
  8
スト_ル
  6
CONTINUOUS
 62
     2
100
AcDbLine
 10
1724.619214411058
 20
915.5003731320721
 30
0.0
 11
1738.568947827951
 21
927.8421170925703
 31
0.0
  0
LINE
  5
EE
330
1F
100
AcDbEntity
  8
スト_ル
  6
CONTINUOUS
 62
     2
100
AcDbLine
 10
1727.022208618451
 20
913.5279798287168
 30
0.0
 11
1737.885213851915
 21
923.1388035789831
 31
0.0
  0
LINE
  5
EF
330
1F
100
AcDbEntity
  8
スト_ル
  6
CONTINUOUS
 62
     2
100
AcDbLine
 10
1747.9619094
 20
928.8000000000001
 30
0.0
 11
1740.2619094
 21
928.8000000000001
 31
0.0
  0
LINE
  5
F0
330
1F
100
AcDbEntity
  8
スト_ル
  6
CONTINUOUS
 62
     2
100
AcDbLine
 10
1751.1619094
 20
924.8000000000001
 30
0.0
 11
1739.3619094
 21
924.8000000000001
 31
0.0
  0
LINE
  5
F1
330
1F
100
AcDbEntity
  8
スト_ル
  6
CONTINUOUS
 62
     2
100
AcDbLine
 10
1751.841421380171
 20
944.0565663293751
 30
0.0
 11
1750.010382178408
 21
940.5110806172148
 31
0.0
  0
LINE
  5
F2
330
1F
100
AcDbEntity
  8
スト_ル
  6
CONTINUOUS
 62
     2
100
AcDbLine
 10
1754.742892205898
 20
940.7392172278005
 30
0.0
 11
1753.035316043315
 21
935.6977039182273
 31
0.0
  0
LINE
  5
F3
330
1F
100
AcDbEntity
  8
スト_ル
  6
CONTINUOUS
 62
     2
100
AcDbLine
 10
1756.3619094
 20
934.0999999999998
 30
0.0
 11
1756.3619094
 21
923.1
 31
0.0
  0
LINE
  5
F4
330
1F
100
AcDbEntity
  8
スト_ル
  6
CONTINUOUS
 62
     2
100
AcDbLine
 10
1748.7619094
 20
938.0936324306299
 30
0.0
 11
1748.7619094
 21
930.0
 31
0.0
  0
LINE
  5
F5
330
1F
100
AcDbEntity
  8
スト_ル
  6
CONTINUOUS
 62
     2
100
AcDbLine
 10
1752.5619094
 20
934.3
 30
0.0
 11
1752.5619094
 21
926.2
 31
0.0
  0
LINE
  5
F6
330
1F
100
AcDbEntity
  8
スト_ル
  6
CONTINUOUS
 62
     2
100
AcDbLine
 10
1666.0036485544
 20
943.73703051622
 30
0.0
 11
1668.655035182223
 21
935.908975015156
 31
0.0
  0
LINE
  5
F7
330
1F
100
AcDbEntity
  8
スト_ル
  6
CONTINUOUS
 62
     2
100
AcDbLine
 10
1669.0728117888
 20
945.69794241939
 30
0.0
 11
1672.249186895474
 21
939.5474500944111
 31
0.0
  0
LINE
  5
F8
330
1F
100
AcDbEntity
  8
スト_ル
  6
CONTINUOUS
 62
     2
100
AcDbLine
 10
1673.0
 20
938.0936324306299
 30
0.0
 11
1673.0
 21
930.1999999999999
 31
0.0
  0
LINE
  5
F9
330
1F
100
AcDbEntity
  8
スト_ル
  6
CONTINUOUS
 62
     2
100
AcDbLine
 10
1669.2
 20
934.3
 30
0.0
 11
1669.2
 21
924.8000000000001
 31
0.0
  0
LINE
  5
FA
330
1F
100
AcDbEntity
  8
スト_ル
  6
CONTINUOUS
 62
     2
100
AcDbLine
 10
1670.6
 20
924.8000000000001
 30
0.0
 11
1682.4
 21
924.8000000000001
 31
0.0
  0
LINE
  5
FB
330
1F
100
AcDbEntity
  8
スト_ル
  6
CONTINUOUS
 62
     2
100
AcDbLine
 10
1673.8
 20
928.8000000000001
 30
0.0
 11
1681.5
 21
928.8000000000001
 31
0.0
  0
LINE
  5
FC
330
1F
100
AcDbEntity
  8
スト_ル
  6
CONTINUOUS
 62
     7
100
AcDbLine
 10
573.2951172999997
 20
921.3421170925708
 30
0.0
 11
724.3638580999992
 21
921.3421170925704
 31
0.0
  0
LINE
  5
FD
330
1F
100
AcDbEntity
  8
スト_ル
  6
CONTINUOUS
 62
     7
100
AcDbLine
 10
603.8294876999997
 20
944.3421170925703
 30
0.0
 11
693.8294876999997
 21
944.3421170925703
 31
0.0
  0
LINE
  5
FE
330
1F
100
AcDbEntity
  8
スト_ル
  6
CONTINUOUS
 62
     7
100
AcDbLine
 10
603.8294876999997
 20
925.3421170925702
 30
0.0
 11
603.8294876999997
 21
939.7048380085704
 31
0.0
  0
ARC
  5
FF
330
1F
100
AcDbEntity
  8
スト_ル
  6
CONTINUOUS
 62
     7
100
AcDbCircle
 10
648.8294876999997
 20
1159.036667558571
 30
0.0
 40
230.0000000000002
100
AcDbArc
 50
248.9778898264001
 51
248.9798868501002
  0
LINE
  5
100
330
1F
100
AcDbEntity
  8
スト_ル
  6
CONTINUOUS
 62
     7
100
AcDbLine
 10
693.8294876999997
 20
925.3421170925702
 30
0.0
 11
693.8294876999997
 21
939.7048380085704
 31
0.0
  0
ARC
  5
101
330
1F
100
AcDbEntity
  8
スト_ル
  6
CONTINUOUS
 62
     7
100
AcDbCircle
 10
610.5595235122997
 20
1064.15324603257
 30
0.0
 40
120.0000000000001
100
AcDbArc
 50
181.7110608422001
 51
266.7849576771009
  0
ARC
  5
102
330
1F
100
AcDbEntity
  8
スト_ル
  6
CONTINUOUS
 62
     7
100
AcDbCircle
 10
687.0994518876994
 20
1064.15324603257
 30
0.0
 40
120.0000000000001
100
AcDbArc
 50
273.2150423228902
 51
358.2889391578204
  0
LINE
  5
103
330
1F
100
AcDbEntity
  8
スト_ル
  6
EXLTYPE3
 62
     1
100
AcDbLine
 10
583.8294876999997
 20
922.3421170925707
 30
0.0
 11
583.8294876999997
 21
951.3421170925704
 31
0.0
  0
LINE
  5
104
330
1F
100
AcDbEntity
  8
スト_ル
  6
EXLTYPE3
 62
     1
100
AcDbLine
 10
713.8294876999997
 20
921.3421170925704
 30
0.0
 11
713.8294876999997
 21
951.3421170925704
 31
0.0
  0
LINE
  5
105
330
1F
100
AcDbEntity
  8
スト_ル
  6
EXLTYPE3
 62
     1
100
AcDbLine
 10
727.8294876999995
 20
936.3421170925704
 30
0.0
 11
698.8294876999997
 21
936.3421170925704
 31
0.0
  0
LINE
  5
106
330
1F
100
AcDbEntity
  8
スト_ル
  6
EXLTYPE3
 62
     1
100
AcDbLine
 10
599.8294876999996
 20
936.3421170925704
 30
0.0
 11
568.8294876999997
 21
936.3421170925704
 31
0.0
  0
LINE
  5
107
330
1F
100
AcDbEntity
  8
スト_ル
  6
CONTINUOUS
 62
     7
100
AcDbLine
 10
563.9150610104998
 20
927.8759168665704
 30
0.0
 11
553.5856884745998
 21
955.8287440265703
 31
0.0
  0
LINE
  5
108
330
1F
100
AcDbEntity
  8
スト_ル
  6
CONTINUOUS
 62
     7
100
AcDbLine
 10
733.7439143894993
 20
927.8759168665704
 30
0.0
 11
744.0732869253997
 21
955.8287440265703
 31
0.0
  0
ARC
  5
109
330
1F
100
AcDbEntity
  8
スト_ル
  6
CONTINUOUS
 62
     7
100
AcDbCircle
 10
753.4533432148997
 20
952.3625437995704
 30
0.0
 40
10.0
100
AcDbArc
 50
120.6914465658028
 51
159.7192806220992
  0
ARC
  5
10A
330
1F
100
AcDbEntity
  8
スト_ル
  6
CONTINUOUS
 62
     7
100
AcDbCircle
 10
724.3638580999992
 20
931.3421170925704
 30
0.0
 40
10.0
100
AcDbArc
 50
270.0000000000002
 51
339.719280622129
  0
ARC
  5
10B
330
1F
100
AcDbEntity
  8
スト_ル
  6
CONTINUOUS
 62
     7
100
AcDbCircle
 10
698.8294876999997
 20
939.7048380085704
 30
0.0
 40
5.0
100
AcDbArc
 50
95.38457493260279
 51
180.0
  0
ARC
  5
10C
330
1F
100
AcDbEntity
  8
スト_ル
  6
CONTINUOUS
 62
     7
100
AcDbCircle
 10
689.8294876999994
 20
925.3421170925702
 30
0.0
 40
4.0
100
AcDbArc
 50
270.0000000000002
 51
0.0
  0
ARC
  5
10D
330
1F
100
AcDbEntity
  8
スト_ル
  6
CONTINUOUS
 62
     7
100
AcDbCircle
 10
607.8294876999997
 20
925.3421170925702
 30
0.0
 40
4.0
100
AcDbArc
 50
180.0
 51
270.0000000000002
  0
ARC
  5
10E
330
1F
100
AcDbEntity
  8
スト_ル
  6
CONTINUOUS
 62
     7
100
AcDbCircle
 10
598.8294876999997
 20
939.7048380085704
 30
0.0
 40
5.0
100
AcDbArc
 50
0.0
 51
84.61542506740042
  0
ARC
  5
10F
330
1F
100
AcDbEntity
  8
スト_ル
  6
CONTINUOUS
 62
     7
100
AcDbCircle
 10
544.2056321850997
 20
952.3625437995704
 30
0.0
 40
10.0
100
AcDbArc
 50
20.28071937790085
 51
59.3085534342004
  0
ARC
  5
110
330
1F
100
AcDbEntity
  8
スト_ル
  6
CONTINUOUS
 62
     7
100
AcDbCircle
 10
573.2951172999997
 20
931.3421170925704
 30
0.0
 40
10.0
100
AcDbArc
 50
200.2807193779009
 51
270.0000000000002
  0
ARC
  5
111
330
1F
100
AcDbEntity
  8
スト_ル
  6
CONTINUOUS
 62
     7
100
AcDbCircle
 10
540.3587145368998
 20
1535.806164387671
 30
0.0
 40
15.00000000000001
100
AcDbArc
 50
97.94250552639971
 51
174.7684673167015
  0
ARC
  5
112
330
1F
100
AcDbEntity
  8
スト_ル
  6
CONTINUOUS
 62
     7
100
AcDbCircle
 10
531.9315272651768
 20
1574.555455600243
 30
0.0
 40
18.0
100
AcDbArc
 50
98.59713390555211
 51
173.6978034631327
  0
ARC
  5
113
330
1F
100
AcDbEntity
  8
スト_ル
  6
CONTINUOUS
 62
     7
100
AcDbCircle
 10
4489.867297253145
 20
1137.44169392059
 30
0.0
 40
4000.000000000003
100
AcDbArc
 50
173.6978034631324
 51
181.0823114661918
  0
ARC
  5
114
330
1F
100
AcDbEntity
  8
スト_ル
  6
CONTINUOUS
 62
     7
100
AcDbCircle
 10
-3192.208321853146
 20
1137.44169392059
 30
0.0
 40
4000.000000000003
100
AcDbArc
 50
358.9176885338085
 51
6.302196536867324
  0
ARC
  5
115
330
1F
100
AcDbEntity
  8
スト_ル
  6
CONTINUOUS
 62
     7
100
AcDbCircle
 10
757.3002608630997
 20
1535.806164387671
 30
0.0
 40
15.00000000000001
100
AcDbArc
 50
5.231532683298524
 51
82.05749447360023
  0
ARC
  5
116
330
1F
100
AcDbEntity
  8
スト_ル
  6
CONTINUOUS
 62
     7
100
AcDbCircle
 10
765.7274481348229
 20
1574.555455600242
 30
0.0
 40
18.0
100
AcDbArc
 50
6.302196536869157
 51
81.40286609444875
  0
ARC
  5
117
330
1F
100
AcDbEntity
  8
スト_ル
  6
CONTINUOUS
 62
     7
100
AcDbCircle
 10
648.8294876999997
 20
801.342117092571
 30
0.0
 40
800.0000000000007
100
AcDbArc
 50
81.40286609444796
 51
98.59713390555196
  0
ARC
  5
118
330
1F
100
AcDbEntity
  8
スト_ル
  6
CONTINUOUS
 62
     7
100
AcDbCircle
 10
648.8294876999997
 20
758.3364920727706
 30
0.0
 40
800.0000000000007
100
AcDbArc
 50
82.05749447365214
 51
97.94250552640001
  0
ARC
  5
119
330
1F
100
AcDbEntity
  8
スト_ル
  6
CONTINUOUS
 62
     7
100
AcDbCircle
 10
648.8294876999997
 20
1221.34211709257
 30
0.0
 40
180.0
100
AcDbArc
 50
270.0000000000002
 51
282.1492550679499
  0
LINE
  5
11A
330
1F
100
AcDbEntity
  8
スト_ル
  6
CONTINUOUS
 62
     7
100
AcDbLine
 10
762.2998134939995
 20
1061.646212800571
 30
0.0
 11
686.7121166138002
 21
1045.373635748571
 31
0.0
  0
LINE
  5
11B
330
1F
100
AcDbEntity
  8
スト_ル
  6
CONTINUOUS
 62
     7
100
AcDbLine
 10
542.0695373547999
 20
1060.201598054571
 30
0.0
 11
610.9468587862001
 21
1045.373635748571
 31
0.0
  0
ARC
  5
11C
330
1F
100
AcDbEntity
  8
スト_ル
  6
CONTINUOUS
 62
     7
100
AcDbCircle
 10
648.8294876999997
 20
1221.34211709257
 30
0.0
 40
180.0
100
AcDbArc
 50
257.8507449320005
 51
270.0000000000002
  0
ARC
  5
11D
330
1F
100
AcDbEntity
  8
スト_ル
  6
CONTINUOUS
 62
     7
100
AcDbCircle
 10
752.8291562654998
 20
1105.63833313657
 30
0.0
 40
45.0
100
AcDbArc
 50
282.1492550679494
 51
0.0
  0
ARC
  5
11E
330
1F
100
AcDbEntity
  8
スト_ル
  6
CONTINUOUS
 62
     7
100
AcDbCircle
 10
544.8298191344999
 20
1105.63833313657
 30
0.0
 40
45.0
100
AcDbArc
 50
180.0
 51
257.850744932
  0
ARC
  5
11F
330
1F
100
AcDbEntity
  8
スト_ル
  6
CONTINUOUS
 62
     7
100
AcDbCircle
 10
-3191.644220515066
 20
1147.397252295123
 30
0.0
 40
3983.000000000005
100
AcDbArc
 50
359.3713992351036
 51
5.617410209901504
  0
ARC
  5
120
330
1F
100
AcDbEntity
  8
スト_ル
  6
CONTINUOUS
 62
     7
100
AcDbCircle
 10
746.1187808167994
 20
1104.193718390571
 30
0.0
 40
45.0
100
AcDbArc
 50
282.1492550679508
 51
359.3713992351035
  0
ARC
  5
121
330
1F
100
AcDbEntity
  8
スト_ル
  6
CONTINUOUS
 62
     7
100
AcDbCircle
 10
551.5401945831998
 20
1104.193718390571
 30
0.0
 40
45.0
100
AcDbArc
 50
180.628600764897
 51
257.850744932
  0
ARC
  5
122
330
1F
100
AcDbEntity
  8
スト_ル
  6
CONTINUOUS
 62
     7
100
AcDbCircle
 10
4489.303195915067
 20
1147.397252295123
 30
0.0
 40
3983.000000000005
100
AcDbArc
 50
174.3825897900984
 51
180.6286007648964
  0
ARC
  5
123
330
1F
100
AcDbEntity
  8
スト_ル
  6
CONTINUOUS
 62
     7
100
AcDbCircle
 10
648.8294876999997
 20
774.3364920727709
 30
0.0
 40
800.0000000000007
100
AcDbArc
 50
81.01636998634669
 51
98.97302174770009
  0
ARC
  5
124
330
1F
100
AcDbEntity
  8
スト_ル
  6
CONTINUOUS
 62
     7
100
AcDbCircle
 10
771.4090165611025
 20
1549.706893303171
 30
0.0
 40
15.00000000000001
100
AcDbArc
 50
5.938116780803759
 51
81.016369986348
  0
ARC
  5
125
330
1F
100
AcDbEntity
  8
スト_ル
  6
CONTINUOUS
 62
     7
100
AcDbCircle
 10
526.2499588388972
 20
1549.706893303171
 30
0.0
 40
15.00000000000001
100
AcDbArc
 50
98.9836300136532
 51
174.0618832191974
  0
ARC
  5
126
330
1F
100
AcDbEntity
  8
スト_ル
  6
CONTINUOUS
 62
     7
100
AcDbCircle
 10
648.8294876999997
 20
1222.342117092571
 30
0.0
 40
250.0000000000002
100
AcDbArc
 50
243.5378136666002
 51
270.0000000000002
  0
ARC
  5
127
330
1F
100
AcDbEntity
  8
スト_ル
  6
CONTINUOUS
 62
     7
100
AcDbCircle
 10
648.8294876999997
 20
1222.342117092571
 30
0.0
 40
250.0000000000002
100
AcDbArc
 50
270.0000000000002
 51
296.4621863333502
  0
LINE
  5
128
330
1F
100
AcDbEntity
  8
スト_ル
  6
EXLTYPE3
 62
     1
100
AcDbLine
 10
573.1294876999999
 20
1586.336492072771
 30
0.0
 11
599.9294877
 21
1586.336492072771
 31
0.0
  0
LINE
  5
129
330
1F
100
AcDbEntity
  8
スト_ル
  6
EXLTYPE3
 62
     1
100
AcDbLine
 10
586.3294876999996
 20
1574.536492072771
 30
0.0
 11
586.3294876999996
 21
1597.93649207277
 31
0.0
  0
LINE
  5
12A
330
1F
100
AcDbEntity
  8
スト_ル
  6
EXLTYPE3
 62
     1
100
AcDbLine
 10
724.5294877000001
 20
1586.336492072771
 30
0.0
 11
697.7294876999999
 21
1586.336492072771
 31
0.0
  0
LINE
  5
12B
330
1F
100
AcDbEntity
  8
スト_ル
  6
EXLTYPE3
 62
     1
100
AcDbLine
 10
711.3294877000004
 20
1574.536492072771
 30
0.0
 11
711.3294877000004
 21
1597.93649207277
 31
0.0
  0
LINE
  5
12C
330
1F
100
AcDbEntity
  8
スト_ル
  6
CONTINUOUS
 62
     7
100
AcDbLine
 10
622.8397807924779
 20
917.8318240000899
 30
0.0
 11
628.1023330937333
 21
724.33182400009
 31
0.0
  0
LINE
  5
12D
330
1F
100
AcDbEntity
  8
スト_ル
  6
CONTINUOUS
 62
     7
100
AcDbLine
 10
669.5772284912226
 20
724.33182400009
 30
0.0
 11
674.8397807924778
 21
917.8318240000899
 31
0.0
  0
LINE
  5
12E
330
1F
100
AcDbEntity
  8
スト_ル
  6
CONTINUOUS
 62
     7
100
AcDbLine
 10
629.339780792478
 20
678.60000000009
 30
0.0
 11
668.339780792478
 21
678.60000000009
 31
0.0
  0
LINE
  5
12F
330
1F
100
AcDbEntity
  8
スト_ル
  6
CONTINUOUS
 62
     7
100
AcDbLine
 10
628.4558895790889
 20
711.3318240000899
 30
0.0
 11
629.3397807924782
 21
678.8318240000899
 31
0.0
  0
LINE
  5
130
330
1F
100
AcDbEntity
  8
スト_ル
  6
CONTINUOUS
 62
     7
100
AcDbLine
 10
668.339780792478
 20
678.8318240000899
 30
0.0
 11
669.2236720058668
 21
711.3318240000899
 31
0.0
  0
ARC
  5
131
330
1F
100
AcDbEntity
  8
スト_ル
  6
CONTINUOUS
 62
     7
100
AcDbCircle
 10
658.713001194478
 20
707.4861091620897
 30
0.0
 40
20.0
100
AcDbArc
 50
11.08620762657089
 51
57.3822812839401
  0
ARC
  5
132
330
1F
100
AcDbEntity
  8
スト_ル
  6
CONTINUOUS
 62
     7
100
AcDbCircle
 10
638.966560390478
 20
707.4861091620897
 30
0.0
 40
20.0
100
AcDbArc
 50
122.6177187160598
 51
168.9137923734291
  0
LINE
  5
133
330
1F
100
AcDbEntity
  8
スト_ル
  6
CONTINUOUS
 62
     7
100
AcDbLine
 10
628.1859346388444
 20
724.33182400009
 30
0.0
 11
669.4936269462778
 21
724.33182400009
 31
0.0
  0
LINE
  5
134
330
1F
100
AcDbEntity
  8
スト_ル
  6
EXLTYPE3
 62
     1
100
AcDbLine
 10
648.8294877
 20
668.0102930925898
 30
0.0
 11
648.8294877
 21
1618.34211709257
 31
0.0
  0
LINE
  5
135
330
1F
100
AcDbEntity
  8
スト_ル
  6
CONTINUOUS
 62
     7
100
AcDbLine
 10
619.3294876999984
 20
921.3421170925697
 30
0.0
 11
622.8397807924782
 21
917.8318240000903
 31
0.0
  0
LINE
  5
136
330
1F
100
AcDbEntity
  8
スト_ル
  6
CONTINUOUS
 62
     7
100
AcDbLine
 10
678.3294877000013
 20
921.3421170925697
 30
0.0
 11
674.8191946075218
 21
917.8318240000899
 31
0.0
  0
LINE
  5
137
330
1F
100
AcDbEntity
  8
スト_ル
  6
EXLTYPE2
 62
     2
100
AcDbLine
 10
665.3294876999997
 20
891.3421170925704
 30
0.0
 11
632.3294876999996
 21
891.3421170925704
 31
0.0
  0
LINE
  5
138
330
1F
100
AcDbEntity
  8
スト_ル
  6
EXLTYPE2
 62
     2
100
AcDbLine
 10
629.3294876999995
 20
894.3421170925706
 30
0.0
 11
629.3294876999995
 21
911.3421170925704
 31
0.0
  0
LINE
  5
139
330
1F
100
AcDbEntity
  8
スト_ル
  6
EXLTYPE2
 62
     2
100
AcDbLine
 10
629.3294876999995
 20
911.3421170925704
 30
0.0
 11
668.3294876999996
 21
911.3421170925704
 31
0.0
  0
LINE
  5
13A
330
1F
100
AcDbEntity
  8
スト_ル
  6
EXLTYPE2
 62
     2
100
AcDbLine
 10
668.3294876999996
 20
894.3421170925706
 30
0.0
 11
668.3294876999996
 21
911.3421170925704
 31
0.0
  0
ARC
  5
13B
330
1F
100
AcDbEntity
  8
スト_ル
  6
EXLTYPE2
 62
     2
100
AcDbCircle
 10
665.3294876999997
 20
894.3421170925706
 30
0.0
 40
3.000000000000001
100
AcDbArc
 50
270.0000000000002
 51
0.0
  0
ARC
  5
13C
330
1F
100
AcDbEntity
  8
スト_ル
  6
EXLTYPE2
 62
     2
100
AcDbCircle
 10
632.3294876999996
 20
894.3421170925706
 30
0.0
 40
3.000000000000001
100
AcDbArc
 50
180.0
 51
270.0000000000002
  0
LINE
  5
13D
330
1F
100
AcDbEntity
  8
スト_ル
  6
EXLTYPE2
 62
     2
100
AcDbLine
 10
622.8397807924782
 20
917.8318240000903
 30
0.0
 11
629.3294876999976
 21
911.3421170925704
 31
0.0
  0
LINE
  5
13E
330
1F
100
AcDbEntity
  8
スト_ル
  6
EXLTYPE2
 62
     2
100
AcDbLine
 10
674.8191946075218
 20
917.8318240000899
 30
0.0
 11
668.3294877000025
 21
911.3421170925704
 31
0.0
  0
LINE
  5
13F
330
1F
100
AcDbEntity
  8
スト_ル
  6
CONTINUOUS
 62
     7
100
AcDbLine
 10
622.8334759556581
 20
917.8318240000899
 30
0.0
 11
674.8334759556578
 21
917.8318240000899
 31
0.0
  0
LINE
  5
140
330
1F
100
AcDbEntity
  8
スト_ル
  6
CONTINUOUS
 62
     7
100
AcDbLine
 10
805.5873759771997
 20
2433.658046099981
 30
0.0
 11
492.0715994228001
 21
2433.658046099981
 31
0.0
  0
ARC
  5
141
330
1F
100
AcDbEntity
  8
スト_ル
  6
CONTINUOUS
 62
     7
100
AcDbCircle
 10
648.8294877
 20
2198.658046099981
 30
0.0
 40
60.00000000000004
100
AcDbArc
 50
270.0000000000002
 51
315.6370767135008
  0
ARC
  5
142
330
1F
100
AcDbEntity
  8
スト_ル
  6
CONTINUOUS
 62
     7
100
AcDbCircle
 10
298.5160957665005
 20
2541.266463147881
 30
0.0
 40
550.0000000000003
100
AcDbArc
 50
315.6370767135001
 51
327.13288665774
  0
ARC
  5
143
330
1F
100
AcDbEntity
  8
スト_ル
  6
CONTINUOUS
 62
     7
100
AcDbCircle
 10
298.5160957665005
 20
2541.266463147881
 30
0.0
 40
560.0000000000003
100
AcDbArc
 50
315.6370767135001
 51
327.13288665774
  0
ARC
  5
144
330
1F
100
AcDbEntity
  8
スト_ル
  6
CONTINUOUS
 62
     7
100
AcDbCircle
 10
648.8294877
 20
2198.658046099981
 30
0.0
 40
70.00000000000004
100
AcDbArc
 50
270.0000000000002
 51
315.6370767135005
  0
ARC
  5
145
330
1F
100
AcDbEntity
  8
スト_ル
  6
CONTINUOUS
 62
     7
100
AcDbCircle
 10
609.2907499260999
 20
2340.47026215798
 30
0.0
 40
190.0000000000002
100
AcDbArc
 50
327.13288665774
 51
353.7095675544807
  0
ARC
  5
146
330
1F
100
AcDbEntity
  8
スト_ル
  6
CONTINUOUS
 62
     7
100
AcDbCircle
 10
-2680.780619266
 20
2703.141443284791
 30
0.0
 40
3500.000000000003
100
AcDbArc
 50
353.7095675544801
 51
355.5310294832201
  0
ARC
  5
147
330
1F
100
AcDbEntity
  8
スト_ル
  6
CONTINUOUS
 62
     7
100
AcDbCircle
 10
609.2907499260999
 20
2340.47026215798
 30
0.0
 40
180.0
100
AcDbArc
 50
327.1328866577401
 51
351.4992343281006
  0
ARC
  5
148
330
1F
100
AcDbEntity
  8
スト_ル
  6
CONTINUOUS
 62
     7
100
AcDbCircle
 10
999.1428796334998
 20
2541.266463147881
 30
0.0
 40
550.0000000000003
100
AcDbArc
 50
212.8671133423001
 51
224.3629232865003
  0
ARC
  5
149
330
1F
100
AcDbEntity
  8
スト_ル
  6
CONTINUOUS
 62
     7
100
AcDbCircle
 10
648.8294877
 20
2198.658046099981
 30
0.0
 40
60.00000000000004
100
AcDbArc
 50
224.3629232865001
 51
270.0000000000002
  0
ARC
  5
14A
330
1F
100
AcDbEntity
  8
スト_ル
  6
CONTINUOUS
 62
     7
100
AcDbCircle
 10
648.8294877
 20
2198.658046099981
 30
0.0
 40
70.00000000000004
100
AcDbArc
 50
224.3629232865008
 51
270.0000000000002
  0
ARC
  5
14B
330
1F
100
AcDbEntity
  8
スト_ル
  6
CONTINUOUS
 62
     7
100
AcDbCircle
 10
999.1428796334998
 20
2541.266463147881
 30
0.0
 40
560.0000000000003
100
AcDbArc
 50
212.8671133423001
 51
224.3629232865003
  0
ARC
  5
14C
330
1F
100
AcDbEntity
  8
スト_ル
  6
CONTINUOUS
 62
     7
100
AcDbCircle
 10
688.3682254738999
 20
2340.47026215798
 30
0.0
 40
190.0000000000002
100
AcDbArc
 50
186.2904324455004
 51
212.8671133423004
  0
ARC
  5
14D
330
1F
100
AcDbEntity
  8
スト_ル
  6
CONTINUOUS
 62
     7
100
AcDbCircle
 10
688.3682254738999
 20
2340.47026215798
 30
0.0
 40
180.0
100
AcDbArc
 50
188.5007656719001
 51
212.8671133423004
  0
ARC
  5
14E
330
1F
100
AcDbEntity
  8
スト_ル
  6
CONTINUOUS
 62
     7
100
AcDbCircle
 10
3978.439594666001
 20
2703.14144328479
 30
0.0
 40
3500.000000000003
100
AcDbArc
 50
184.4689705168001
 51
186.2904324455004
  0
ARC
  5
14F
330
1F
100
AcDbEntity
  8
スト_ル
  6
CONTINUOUS
 62
     7
100
AcDbCircle
 10
774.9827952303996
 20
2336.938046099981
 30
0.0
 40
4.0
100
AcDbArc
 50
270.0000000000002
 51
353.9826928155641
  0
ARC
  5
150
330
1F
100
AcDbEntity
  8
スト_ル
  6
CONTINUOUS
 62
     7
100
AcDbCircle
 10
648.8294877
 20
1764.672056257581
 30
0.0
 40
582.0059898424
100
AcDbArc
 50
77.56825164329994
 51
102.4317483567
  0
ARC
  5
151
330
1F
100
AcDbEntity
  8
スト_ル
  6
CONTINUOUS
 62
     7
100
AcDbCircle
 10
770.4514095750999
 20
2316.382438417681
 30
0.0
 40
17.04914400031
100
AcDbArc
 50
351.4992343280996
 51
77.5682516432993
  0
ARC
  5
152
330
1F
100
AcDbEntity
  8
スト_ル
  6
CONTINUOUS
 62
     7
100
AcDbCircle
 10
527.2075658248999
 20
2316.382438417681
 30
0.0
 40
17.04914400031
100
AcDbArc
 50
102.4317483567002
 51
188.5007656719008
  0
ARC
  5
153
330
1F
100
AcDbEntity
  8
スト_ル
  6
CONTINUOUS
 62
     7
100
AcDbCircle
 10
-2198.660046126
 20
2702.265641623791
 30
0.0
 40
3000.000000000003
100
AcDbArc
 50
352.9960107444801
 51
354.8003502887101
  0
ARC
  5
154
330
1F
100
AcDbEntity
  8
スト_ル
  6
CONTINUOUS
 62
     7
100
AcDbCircle
 10
3496.319021525999
 20
2702.26564162379
 30
0.0
 40
3000.000000000003
100
AcDbArc
 50
185.1996497113001
 51
187.0039892555002
  0
ARC
  5
155
330
1F
100
AcDbEntity
  8
スト_ル
  6
CONTINUOUS
 62
     7
100
AcDbCircle
 10
522.6761801695999
 20
2336.938046099981
 30
0.0
 40
4.0
100
AcDbArc
 50
186.0173071843953
 51
270.0000000000002
  0
ARC
  5
156
330
1F
100
AcDbEntity
  8
スト_ル
  6
CONTINUOUS
 62
     7
100
AcDbCircle
 10
805.5873759771997
 20
2430.65804609998
 30
0.0
 40
3.000000000000001
100
AcDbArc
 50
355.5310294832205
 51
90.00000000000004
  0
ARC
  5
157
330
1F
100
AcDbEntity
  8
スト_ル
  6
CONTINUOUS
 62
     7
100
AcDbCircle
 10
786.0071571070999
 20
2430.65804609998
 30
0.0
 40
3.000000000000001
100
AcDbArc
 50
354.8003502887187
 51
90.00000000000004
  0
ARC
  5
158
330
1F
100
AcDbEntity
  8
スト_ル
  6
CONTINUOUS
 62
     7
100
AcDbCircle
 10
511.6518182929001
 20
2430.65804609998
 30
0.0
 40
3.000000000000001
100
AcDbArc
 50
90.00000000000004
 51
185.1996497112924
  0
ARC
  5
159
330
1F
100
AcDbEntity
  8
スト_ル
  6
CONTINUOUS
 62
     7
100
AcDbCircle
 10
492.0715994228001
 20
2430.658046099981
 30
0.0
 40
3.000000000000001
100
AcDbArc
 50
90.00000000000004
 51
184.4689705168014
  0
LINE
  5
15A
330
1F
100
AcDbEntity
  8
スト_ル
  6
CONTINUOUS
 62
     7
100
AcDbLine
 10
784.2639543350997
 20
2418.658046099981
 30
0.0
 11
513.3950210649001
 21
2418.658046099981
 31
0.0
  0
ARC
  5
15B
330
1F
100
AcDbEntity
  8
スト_ル
  6
CONTINUOUS
 62
     7
100
AcDbCircle
 10
784.2639543350997
 20
2422.658046099981
 30
0.0
 40
4.0
100
AcDbArc
 50
270.0000000000002
 51
354.6449657041229
  0
ARC
  5
15C
330
1F
100
AcDbEntity
  8
スト_ル
  6
CONTINUOUS
 62
     7
100
AcDbCircle
 10
513.3950210649001
 20
2422.658046099981
 30
0.0
 40
4.0
100
AcDbArc
 50
185.3550342959018
 51
270.0000000000002
  0
LINE
  5
15D
330
1F
100
AcDbEntity
  8
スト_ル
  6
EXLTYPE3
 62
     1
100
AcDbLine
 10
648.8294877
 20
2437.99999999998
 30
0.0
 11
648.8294877
 21
2119.99999999998
 31
0.0
  0
ARC
  5
15E
330
1F
100
AcDbEntity
  8
スト_ル
  6
EXLTYPE1
 62
     6
100
AcDbCircle
 10
672.5480365188172
 20
2383.021829626387
 30
0.0
 40
1.5
100
AcDbArc
 50
21.54348066470828
 51
119.9999999999957
  0
LINE
  5
15F
330
1F
100
AcDbEntity
  8
スト_ル
  6
EXLTYPE1
 62
     6
100
AcDbLine
 10
668.2886259399073
 20
2382.294708589633
 30
0.0
 11
671.798036518817
 21
2384.320867732063
 31
0.0
  0
ARC
  5
160
330
1F
100
AcDbEntity
  8
スト_ル
  6
EXLTYPE1
 62
     6
100
AcDbCircle
 10
669.0386259399075
 20
2380.995670483956
 30
0.0
 40
1.5
100
AcDbArc
 50
119.9999999999762
 51
199.9551737240608
  0
ARC
  5
161
330
1F
100
AcDbEntity
  8
スト_ル
  6
EXLTYPE1
 62
     6
100
AcDbCircle
 10
662.3858029084864
 20
2377.154661315894
 30
0.0
 40
1.5
100
AcDbArc
 50
14.4632059318288
 51
120.0000000000004
  0
LINE
  5
162
330
1F
100
AcDbEntity
  8
スト_ル
  6
EXLTYPE1
 62
     6
100
AcDbLine
 10
657.9827580616756
 20
2376.344612995903
 30
0.0
 11
661.6358029084863
 21
2378.453699421571
 31
0.0
  0
ARC
  5
163
330
1F
100
AcDbEntity
  8
スト_ル
  6
EXLTYPE1
 62
     6
100
AcDbCircle
 10
658.7327580616754
 20
2375.045574890226
 30
0.0
 40
1.5
100
AcDbArc
 50
119.9999999999762
 51
187.9756871629773
  0
ARC
  5
164
330
1F
100
AcDbEntity
  8
スト_ル
  6
EXLTYPE1
 62
     6
100
AcDbCircle
 10
654.982758061674
 20
2381.540765418608
 30
0.0
 40
1.5
100
AcDbArc
 50
232.0243128370526
 51
300.0000000000052
  0
LINE
  5
165
330
1F
100
AcDbEntity
  8
スト_ル
  6
EXLTYPE1
 62
     6
100
AcDbLine
 10
655.7327580616742
 20
2380.241727312931
 30
0.0
 11
659.385802908488
 21
2382.350813738601
 31
0.0
  0
ARC
  5
166
330
1F
100
AcDbEntity
  8
スト_ル
  6
EXLTYPE1
 62
     6
100
AcDbCircle
 10
658.6358029084879
 20
2383.649851844278
 30
0.0
 40
1.5
100
AcDbArc
 50
300.0000000000052
 51
45.53679406812338
  0
ARC
  5
167
330
1F
100
AcDbEntity
  8
スト_ル
  6
EXLTYPE1
 62
     6
100
AcDbCircle
 10
665.2886259399087
 20
2387.490861012339
 30
0.0
 40
1.5
100
AcDbArc
 50
220.0448262759401
 51
300.0000000000007
  0
LINE
  5
168
330
1F
100
AcDbEntity
  8
スト_ル
  6
EXLTYPE1
 62
     6
100
AcDbLine
 10
666.0386259399086
 20
2386.191822906663
 30
0.0
 11
669.5480365188182
 21
2388.217982049093
 31
0.0
  0
ARC
  5
169
330
1F
100
AcDbEntity
  8
スト_ル
  6
EXLTYPE1
 62
     6
100
AcDbCircle
 10
668.798036518818
 20
2389.517020154769
 30
0.0
 40
1.5
100
AcDbArc
 50
300.0000000000007
 51
38.4565193352765
  0
ARC
  5
16A
330
1F
100
AcDbEntity
  8
スト_ル
  6
EXLTYPE1
 62
     6
100
AcDbCircle
 10
672.5480365188172
 20
2364.294262573574
 30
0.0
 40
1.5
100
AcDbArc
 50
239.9999999999997
 51
338.4565193352678
  0
LINE
  5
16B
330
1F
100
AcDbEntity
  8
スト_ル
  6
EXLTYPE1
 62
     6
100
AcDbLine
 10
668.2886259399073
 20
2365.021383610328
 30
0.0
 11
671.798036518817
 21
2362.995224467898
 31
0.0
  0
ARC
  5
16C
330
1F
100
AcDbEntity
  8
スト_ル
  6
EXLTYPE1
 62
     6
100
AcDbCircle
 10
669.0386259399075
 20
2366.320421716005
 30
0.0
 40
1.5
100
AcDbArc
 50
160.0448262759633
 51
240.0000000000043
  0
ARC
  5
16D
330
1F
100
AcDbEntity
  8
スト_ル
  6
EXLTYPE1
 62
     6
100
AcDbCircle
 10
665.2886259399087
 20
2359.825231187621
 30
0.0
 40
1.5
100
AcDbArc
 50
59.99999999999957
 51
139.9551737240601
  0
LINE
  5
16E
330
1F
100
AcDbEntity
  8
スト_ル
  6
EXLTYPE1
 62
     6
100
AcDbLine
 10
666.0386259399086
 20
2361.124269293298
 30
0.0
 11
669.5480365188182
 21
2359.098110150867
 31
0.0
  0
ARC
  5
16F
330
1F
100
AcDbEntity
  8
スト_ル
  6
EXLTYPE1
 62
     6
100
AcDbCircle
 10
668.798036518818
 20
2357.799072045191
 30
0.0
 40
1.5
100
AcDbArc
 50
321.5434806647237
 51
59.99999999999957
  0
ARC
  5
170
330
1F
100
AcDbEntity
  8
スト_ル
  6
EXLTYPE1
 62
     6
100
AcDbCircle
 10
648.8294877
 20
2373.65804609998
 30
0.0
 40
20.0
100
AcDbArc
 50
340.0448262759554
 51
19.95517372404503
  0
CIRCLE
  5
171
330
1F
100
AcDbEntity
  8
スト_ル
  6
EXLTYPE1
 62
     6
100
AcDbCircle
 10
648.8294877
 20
2373.65804609998
 30
0.0
 40
4.0
  0
ARC
  5
172
330
1F
100
AcDbEntity
  8
スト_ル
  6
EXLTYPE1
 62
     6
100
AcDbCircle
 10
625.1109388811831
 20
2383.021829626387
 30
0.0
 40
1.5
100
AcDbArc
 50
59.99999999999957
 51
158.4565193352897
  0
LINE
  5
173
330
1F
100
AcDbEntity
  8
スト_ル
  6
EXLTYPE1
 62
     6
100
AcDbLine
 10
629.3703494600926
 20
2382.294708589633
 30
0.0
 11
625.860938881183
 21
2384.320867732063
 31
0.0
  0
ARC
  5
174
330
1F
100
AcDbEntity
  8
スト_ル
  6
EXLTYPE1
 62
     6
100
AcDbCircle
 10
628.6203494600927
 20
2380.995670483956
 30
0.0
 40
1.5
100
AcDbArc
 50
340.0448262759394
 51
60.0000000000191
  0
ARC
  5
175
330
1F
100
AcDbEntity
  8
スト_ル
  6
EXLTYPE1
 62
     6
100
AcDbCircle
 10
635.2731724915138
 20
2377.154661315894
 30
0.0
 40
1.5
100
AcDbArc
 50
59.99999999999957
 51
165.5367940681713
  0
LINE
  5
176
330
1F
100
AcDbEntity
  8
スト_ル
  6
EXLTYPE1
 62
     6
100
AcDbLine
 10
639.6762173383247
 20
2376.344612995903
 30
0.0
 11
636.0231724915137
 21
2378.453699421571
 31
0.0
  0
ARC
  5
177
330
1F
100
AcDbEntity
  8
スト_ル
  6
EXLTYPE1
 62
     6
100
AcDbCircle
 10
638.9262173383246
 20
2375.045574890226
 30
0.0
 40
1.5
100
AcDbArc
 50
352.0243128370228
 51
59.99999999999957
  0
ARC
  5
178
330
1F
100
AcDbEntity
  8
スト_ル
  6
EXLTYPE1
 62
     6
100
AcDbCircle
 10
642.676217338326
 20
2381.540765418608
 30
0.0
 40
1.5
100
AcDbArc
 50
239.9999999999997
 51
307.9756871629519
  0
LINE
  5
179
330
1F
100
AcDbEntity
  8
スト_ル
  6
EXLTYPE1
 62
     6
100
AcDbLine
 10
641.9262173383261
 20
2380.241727312931
 30
0.0
 11
638.2731724915122
 21
2382.350813738601
 31
0.0
  0
ARC
  5
17A
330
1F
100
AcDbEntity
  8
スト_ル
  6
EXLTYPE1
 62
     6
100
AcDbCircle
 10
639.0231724915121
 20
2383.649851844278
 30
0.0
 40
1.5
100
AcDbArc
 50
134.4632059318574
 51
240.0000000000043
  0
ARC
  5
17B
330
1F
100
AcDbEntity
  8
スト_ル
  6
EXLTYPE1
 62
     6
100
AcDbCircle
 10
632.3703494600916
 20
2387.490861012339
 30
0.0
 40
1.5
100
AcDbArc
 50
240.0000000000043
 51
319.9551737240637
  0
LINE
  5
17C
330
1F
100
AcDbEntity
  8
スト_ル
  6
EXLTYPE1
 62
     6
100
AcDbLine
 10
631.6203494600915
 20
2386.191822906663
 30
0.0
 11
628.110938881182
 21
2388.217982049093
 31
0.0
  0
ARC
  5
17D
330
1F
100
AcDbEntity
  8
スト_ル
  6
EXLTYPE1
 62
     6
100
AcDbCircle
 10
628.8609388811819
 20
2389.517020154769
 30
0.0
 40
1.5
100
AcDbArc
 50
141.5434806647235
 51
239.9999999999801
  0
ARC
  5
17E
330
1F
100
AcDbEntity
  8
スト_ル
  6
EXLTYPE1
 62
     6
100
AcDbCircle
 10
625.1109388811831
 20
2364.294262573574
 30
0.0
 40
1.5
100
AcDbArc
 50
201.5434806647326
 51
300.0000000000052
  0
LINE
  5
17F
330
1F
100
AcDbEntity
  8
スト_ル
  6
EXLTYPE1
 62
     6
100
AcDbLine
 10
629.3703494600926
 20
2365.021383610328
 30
0.0
 11
625.860938881183
 21
2362.995224467898
 31
0.0
  0
ARC
  5
180
330
1F
100
AcDbEntity
  8
スト_ル
  6
EXLTYPE1
 62
     6
100
AcDbCircle
 10
628.6203494600927
 20
2366.320421716005
 30
0.0
 40
1.5
100
AcDbArc
 50
300.0000000000152
 51
19.95517372403666
  0
ARC
  5
181
330
1F
100
AcDbEntity
  8
スト_ル
  6
EXLTYPE1
 62
     6
100
AcDbCircle
 10
632.3703494600916
 20
2359.825231187621
 30
0.0
 40
1.5
100
AcDbArc
 50
40.04482627593638
 51
119.9999999999762
  0
LINE
  5
182
330
1F
100
AcDbEntity
  8
スト_ル
  6
EXLTYPE1
 62
     6
100
AcDbLine
 10
631.6203494600915
 20
2361.124269293298
 30
0.0
 11
628.110938881182
 21
2359.098110150867
 31
0.0
  0
ARC
  5
183
330
1F
100
AcDbEntity
  8
スト_ル
  6
EXLTYPE1
 62
     6
100
AcDbCircle
 10
628.8609388811819
 20
2357.799072045191
 30
0.0
 40
1.5
100
AcDbArc
 50
120.0000000000004
 51
218.4565193352767
  0
ARC
  5
184
330
1F
100
AcDbEntity
  8
スト_ル
  6
EXLTYPE1
 62
     6
100
AcDbCircle
 10
648.8294877
 20
2373.65804609998
 30
0.0
 40
27.00000000000005
100
AcDbArc
 50
338.4565193352778
 51
21.54348066472352
  0
ARC
  5
185
330
1F
100
AcDbEntity
  8
スト_ル
  6
EXLTYPE1
 62
     6
100
AcDbCircle
 10
648.8294877
 20
2373.65804609998
 30
0.0
 40
20.0
100
AcDbArc
 50
40.89901830231476
 51
139.9551737240606
  0
ARC
  5
186
330
1F
100
AcDbEntity
  8
スト_ル
  6
EXLTYPE1
 62
     6
100
AcDbCircle
 10
648.8294877
 20
2373.65804609998
 30
0.0
 40
20.0
100
AcDbArc
 50
160.0448262759549
 51
199.9551737240451
  0
ARC
  5
187
330
1F
100
AcDbEntity
  8
スト_ル
  6
EXLTYPE1
 62
     6
100
AcDbCircle
 10
648.8294877
 20
2373.65804609998
 30
0.0
 40
27.00000000000005
100
AcDbArc
 50
38.45651933526384
 51
141.543480664736
  0
ARC
  5
188
330
1F
100
AcDbEntity
  8
スト_ル
  6
EXLTYPE1
 62
     6
100
AcDbCircle
 10
648.8294877
 20
2373.65804609998
 30
0.0
 40
27.00000000000005
100
AcDbArc
 50
158.4565193352765
 51
201.5434806647237
  0
ARC
  5
189
330
1F
100
AcDbEntity
  8
スト_ル
  6
EXLTYPE1
 62
     6
100
AcDbCircle
 10
648.8294877
 20
2373.65804609998
 30
0.0
 40
15.50000000000001
100
AcDbArc
 50
45.53679406813788
 51
134.4632059318591
  0
ARC
  5
18A
330
1F
100
AcDbEntity
  8
スト_ル
  6
EXLTYPE1
 62
     6
100
AcDbCircle
 10
648.8294876999901
 20
2373.65804609998
 30
0.0
 40
8.5
100
AcDbArc
 50
52.02431283696684
 51
127.9756871629457
  0
ARC
  5
18B
330
1F
100
AcDbEntity
  8
スト_ル
  6
EXLTYPE1
 62
     6
100
AcDbCircle
 10
648.8294877
 20
2373.65804609998
 30
0.0
 40
27.00000000000005
100
AcDbArc
 50
218.4565193352623
 51
261.5434806647297
  0
ARC
  5
18C
330
1F
100
AcDbEntity
  8
スト_ル
  6
EXLTYPE1
 62
     6
100
AcDbCircle
 10
645.0794877
 20
2348.43528851878
 30
0.0
 40
1.5
100
AcDbArc
 50
261.5434806647259
 51
0.0
  0
LINE
  5
18D
330
1F
100
AcDbEntity
  8
スト_ル
  6
EXLTYPE1
 62
     6
100
AcDbLine
 10
646.5794877000001
 20
2352.487606803641
 30
0.0
 11
646.5794877000001
 21
2348.43528851878
 31
0.0
  0
ARC
  5
18E
330
1F
100
AcDbEntity
  8
スト_ル
  6
EXLTYPE1
 62
     6
100
AcDbCircle
 10
648.8294877
 20
2373.65804609998
 30
0.0
 40
20.0
100
AcDbArc
 50
220.0448262759396
 51
259.9551737240544
  0
ARC
  5
18F
330
1F
100
AcDbEntity
  8
スト_ル
  6
EXLTYPE1
 62
     6
100
AcDbCircle
 10
645.0794877
 20
2352.487606803641
 30
0.0
 40
1.5
100
AcDbArc
 50
0.0
 51
79.95517372405416
  0
ARC
  5
190
330
1F
100
AcDbEntity
  8
スト_ル
  6
EXLTYPE1
 62
     6
100
AcDbCircle
 10
648.8294877
 20
2373.65804609998
 30
0.0
 40
15.50000000000001
100
AcDbArc
 50
165.5367940681614
 51
254.4632059318506
  0
ARC
  5
191
330
1F
100
AcDbEntity
  8
スト_ル
  6
EXLTYPE1
 62
     6
100
AcDbCircle
 10
645.0794877
 20
2360.169625139764
 30
0.0
 40
1.5
100
AcDbArc
 50
254.463205931867
 51
0.0
  0
LINE
  5
192
330
1F
100
AcDbEntity
  8
スト_ル
  6
EXLTYPE1
 62
     6
100
AcDbLine
 10
646.5794877000001
 20
2364.387797991107
 30
0.0
 11
646.5794877000001
 21
2360.169625139764
 31
0.0
  0
ARC
  5
193
330
1F
100
AcDbEntity
  8
スト_ル
  6
EXLTYPE1
 62
     6
100
AcDbCircle
 10
648.8294876999901
 20
2373.65804609998
 30
0.0
 40
8.5
100
AcDbArc
 50
172.0243128370227
 51
247.9756871630204
  0
ARC
  5
194
330
1F
100
AcDbEntity
  8
スト_ル
  6
EXLTYPE1
 62
     6
100
AcDbCircle
 10
645.0794877
 20
2364.387797991107
 30
0.0
 40
1.5
100
AcDbArc
 50
0.0
 51
67.9756871630198
  0
ARC
  5
195
330
1F
100
AcDbEntity
  8
スト_ル
  6
EXLTYPE1
 62
     6
100
AcDbCircle
 10
648.8294876999901
 20
2373.65804609998
 30
0.0
 40
8.5
100
AcDbArc
 50
292.0243128371037
 51
7.975687162957908
  0
ARC
  5
196
330
1F
100
AcDbEntity
  8
スト_ル
  6
EXLTYPE1
 62
     6
100
AcDbCircle
 10
652.5794877
 20
2364.387797991114
 30
0.0
 40
1.5
100
AcDbArc
 50
112.024312837092
 51
180.0
  0
LINE
  5
197
330
1F
100
AcDbEntity
  8
スト_ル
  6
EXLTYPE1
 62
     6
100
AcDbLine
 10
651.0794877
 20
2364.387797991114
 30
0.0
 11
651.0794877
 21
2360.169625139764
 31
0.0
  0
ARC
  5
198
330
1F
100
AcDbEntity
  8
スト_ル
  6
EXLTYPE1
 62
     6
100
AcDbCircle
 10
648.8294877
 20
2373.65804609998
 30
0.0
 40
15.50000000000001
100
AcDbArc
 50
285.5367940681526
 51
14.4632059318559
  0
ARC
  5
199
330
1F
100
AcDbEntity
  8
スト_ル
  6
EXLTYPE1
 62
     6
100
AcDbCircle
 10
652.5794877
 20
2360.169625139764
 30
0.0
 40
1.5
100
AcDbArc
 50
180.0
 51
285.5367940681625
  0
ARC
  5
19A
330
1F
100
AcDbEntity
  8
スト_ル
  6
EXLTYPE1
 62
     6
100
AcDbCircle
 10
648.8294877
 20
2373.65804609998
 30
0.0
 40
20.0
100
AcDbArc
 50
280.0448262759493
 51
319.9551737240672
  0
ARC
  5
19B
330
1F
100
AcDbEntity
  8
スト_ル
  6
EXLTYPE1
 62
     6
100
AcDbCircle
 10
652.5794877
 20
2352.487606803641
 30
0.0
 40
1.5
100
AcDbArc
 50
100.0448262759352
 51
180.0
  0
LINE
  5
19C
330
1F
100
AcDbEntity
  8
スト_ル
  6
EXLTYPE1
 62
     6
100
AcDbLine
 10
651.0794877
 20
2352.487606803641
 30
0.0
 11
651.0794877
 21
2348.43528851878
 31
0.0
  0
ARC
  5
19D
330
1F
100
AcDbEntity
  8
スト_ル
  6
EXLTYPE1
 62
     6
100
AcDbCircle
 10
648.8294877
 20
2373.65804609998
 30
0.0
 40
27.00000000000005
100
AcDbArc
 50
278.4565193352731
 51
321.5434806647378
  0
ARC
  5
19E
330
1F
100
AcDbEntity
  8
スト_ル
  6
EXLTYPE1
 62
     6
100
AcDbCircle
 10
652.5794877
 20
2348.43528851878
 30
0.0
 40
1.5
100
AcDbArc
 50
180.0
 51
278.4565193352742
  0
ARC
  5
19F
330
1F
100
AcDbEntity
  8
スト_ル
  6
CONTINUOUS
 62
     6
100
AcDbCircle
 10
648.8294877
 20
2373.658046099981
 30
0.0
 40
34.20000000000002
100
AcDbArc
 50
306.1581854398119
 51
306.9182643870501
  0
ARC
  5
1A0
330
1F
100
AcDbEntity
  8
スト_ル
  6
CONTINUOUS
 62
     6
100
AcDbCircle
 10
648.8294877
 20
2373.65804609998
 30
0.0
 40
31.50000000000002
100
AcDbArc
 50
239.7002326236936
 51
300.2997673763087
  0
ARC
  5
1A1
330
1F
100
AcDbEntity
  8
スト_ル
  6
CONTINUOUS
 62
     6
100
AcDbCircle
 10
648.8294877
 20
2373.65804609998
 30
0.0
 40
35.00000000000002
100
AcDbArc
 50
231.4916783843954
 51
308.5083216156049
  0
ARC
  5
1A2
330
1F
100
AcDbEntity
  8
スト_ル
  6
EXLTYPE1
 62
     6
100
AcDbCircle
 10
648.8294877
 20
2373.65804609998
 30
0.0
 40
31.50000000000002
100
AcDbArc
 50
300.2997673763222
 51
239.7002326236795
  0
ARC
  5
1A3
330
1F
100
AcDbEntity
  8
スト_ル
  6
EXLTYPE1
 62
     6
100
AcDbCircle
 10
648.8294877
 20
2373.65804609998
 30
0.0
 40
35.00000000000002
100
AcDbArc
 50
308.5083216156468
 51
231.4916783843954
  0
ARC
  5
1A4
330
1F
100
AcDbEntity
  8
スト_ル
  6
CONTINUOUS
 62
     7
100
AcDbCircle
 10
1748.0341254391
 20
951.76735080451
 30
0.0
 40
7.850277389868372
100
AcDbArc
 50
1.698254512202395
 51
39.67589432378974
  0
LINE
  5
1A5
330
1F
100
AcDbEntity
  8
スト_ル
  6
CONTINUOUS
 62
     7
100
AcDbLine
 10
1755.8809547
 20
952.0
 30
0.0
 11
1755.8809547
 21
938.8948993833611
 31
0.0
  0
LINE
  5
1A6
330
1F
100
AcDbEntity
  8
寸法
  6
CONTINUOUS
 62
     3
100
AcDbLine
 10
615.8397809116872
 20
917.8318240000899
 30
0.0
 11
496.0102930924779
 21
917.8318240000899
 31
0.0
  0
LINE
  5
1A7
330
1F
100
AcDbEntity
  8
寸法
  6
CONTINUOUS
 62
     3
100
AcDbLine
 10
622.3397809116872
 20
678.8318240000899
 30
0.0
 11
496.0102930924779
 21
678.8318240000899
 31
0.0
  0
LINE
  5
1A8
330
1F
100
AcDbEntity
  8
寸法
  6
CONTINUOUS
 62
     3
100
AcDbLine
 10
516.0102930924779
 20
917.8318240000899
 30
0.0
 11
516.0102930924779
 21
678.8318240000899
 31
0.0
  0
LINE
  5
1A9
330
1F
100
AcDbEntity
  8
寸法
  6
CONTINUOUS
 62
     3
100
AcDbLine
 10
521.8436264258113
 20
882.8318240000899
 30
0.0
 11
516.0102930924779
 21
917.8318240000899
 31
0.0
  0
LINE
  5
1AA
330
1F
100
AcDbEntity
  8
寸法
  6
CONTINUOUS
 62
     3
100
AcDbLine
 10
516.0102930924779
 20
917.8318240000899
 30
0.0
 11
510.1769597591446
 21
882.8318240000899
 31
0.0
  0
LINE
  5
1AB
330
1F
100
AcDbEntity
  8
寸法
  6
CONTINUOUS
 62
     3
100
AcDbLine
 10
510.1769597591446
 20
713.8318240000899
 30
0.0
 11
516.0102930924779
 21
678.8318240000899
 31
0.0
  0
LINE
  5
1AC
330
1F
100
AcDbEntity
  8
寸法
  6
CONTINUOUS
 62
     3
100
AcDbLine
 10
516.0102930924779
 20
678.8318240000899
 30
0.0
 11
521.8436264258113
 21
713.8318240000899
 31
0.0
  0
DIMENSION
  5
1AE
330
1F
100
AcDbEntity
  8
寸法
  6
CONTINUOUS
 62
     3
100
AcDbDimension
  2
*D15
 10
668.339780792478
 20
618.60000000009
 30
0.0
 11
738.339780792478
 21
642.0999999404853
 31
0.0
 70
   160
  3
ISO-25
100
AcDbAlignedDimension
 13
629.3397807924779
 23
678.8318240000899
 33
0.0
 14
668.339780792478
 24
678.8318240000899
 34
0.0
100
AcDbRotatedDimension
1001
ACAD
1000
DSTYLE
1002
{
1070
   270
1070
     2
1070
     6
1000
EX_NORM
1070
     7
1000
EX_NORM
1070
    41
1040
35.0
1070
    42
1040
6.99999988079071
1070
    44
1040
20.0
1070
    73
1070
     0
1070
    74
1070
     0
1070
    75
1070
     0
1070
    76
1070
     0
1070
    77
1070
     1
1070
    78
1070
     0
1070
   140
1040
40.0
1070
   147
1040
0.0
1070
   173
1070
     1
1070
   176
1070
     3
1070
   177
1070
     3
1070
   178
1070
     2
1070
   271
1070
     0
1070
   277
1070
     2
1070
   279
1070
     2
1070
   280
1070
     2
1070
   287
1070
     5
1070
   340
1005
1AD
1002
}
  0
TEXT
  5
1BE
330
1F
100
AcDbEntity
  8
寸法
  6
CONTINUOUS
 62
     2
100
AcDbText
 10
512.51029309248
 20
748.3318240000898
 30
0.0
 40
40.0
  1
２３９
 50
90.0
 41
1.029411764705882
  7
EXCADSTD
 72
     5
 11
512.51029309248
 21
848.3318240000898
 31
0.0
100
AcDbText
  0
DIMENSION
  5
1BF
330
1F
100
AcDbEntity
  8
寸法
  6
CONTINUOUS
 62
     3
100
AcDbDimension
  2
*D16
 10
711.3397807924779
 20
1661.331824
 30
0.0
 11
648.8397807924782
 21
1684.831823940395
 31
0.0
 70
   160
  3
ISO-25
100
AcDbAlignedDimension
 13
586.3397807924781
 23
1670.6384843836
 33
0.0
 14
711.3397807924779
 24
1670.6384843836
 34
0.0
100
AcDbRotatedDimension
1001
ACAD
1000
DSTYLE
1002
{
1070
   270
1070
     2
1070
     6
1000
EX_NORM
1070
     7
1000
EX_NORM
1070
    41
1040
35.0
1070
    42
1040
0.0
1070
    44
1040
0.0
1070
    73
1070
     0
1070
    74
1070
     0
1070
    75
1070
     0
1070
    76
1070
     0
1070
    77
1070
     1
1070
    78
1070
     0
1070
   140
1040
40.0
1070
   147
1040
0.0
1070
   173
1070
     1
1070
   176
1070
     3
1070
   177
1070
     3
1070
   178
1070
     2
1070
   271
1070
     0
1070
   277
1070
     2
1070
   279
1070
     2
1070
   280
1070
     0
1070
   287
1070
     5
1070
   340
1005
1AD
1002
}
  0
DIMENSION
  5
1CC
330
1F
100
AcDbEntity
  8
寸法
  6
CONTINUOUS
 62
     3
100
AcDbDimension
  2
*D17
 10
1048.839780792478
 20
1601.331824
 30
0.0
 11
1025.339780852083
 21
1261.331824
 31
0.0
 70
   160
  3
ISO-25
100
AcDbAlignedDimension
 13
724.745819242478
 23
921.3318240000001
 33
0.0
 14
648.8397807924781
 24
1601.331824
 34
0.0
 50
90.0
100
AcDbRotatedDimension
1001
ACAD
1000
DSTYLE
1002
{
1070
   270
1070
     2
1070
     6
1000
EX_NORM
1070
     7
1000
EX_NORM
1070
    41
1040
35.0
1070
    42
1040
12.26446986198425
1070
    44
1040
20.0
1070
    73
1070
     0
1070
    74
1070
     0
1070
    75
1070
     0
1070
    76
1070
     0
1070
    77
1070
     1
1070
    78
1070
     0
1070
   140
1040
40.0
1070
   147
1040
0.0
1070
   173
1070
     1
1070
   176
1070
     3
1070
   177
1070
     3
1070
   178
1070
     2
1070
   271
1070
     0
1070
   277
1070
     2
1070
   279
1070
     2
1070
   280
1070
     0
1070
   287
1070
     5
1070
   340
1005
1AD
1002
}
  0
DIMENSION
  5
1D9
330
1F
100
AcDbEntity
  8
寸法
  6
CONTINUOUS
 62
     3
100
AcDbDimension
  2
*D18
 10
968.8397807924779
 20
1601.331824
 30
0.0
 11
945.3397808520831
 21
1671.331824
 31
0.0
 70
   160
  3
ISO-25
100
AcDbAlignedDimension
 13
735.310293092478
 23
1586.331824
 33
0.0
 14
648.8397807924781
 24
1601.331824
 34
0.0
 50
90.0
100
AcDbRotatedDimension
1001
ACAD
1000
DSTYLE
1002
{
1070
   270
1070
     2
1070
     6
1000
EX_NONE
1070
     7
1000
EX_NORM
1070
    41
1040
35.0
1070
    42
1040
0.0
1070
    44
1040
0.0
1070
    73
1070
     0
1070
    74
1070
     0
1070
    75
1070
     0
1070
    76
1070
     1
1070
    77
1070
     1
1070
    78
1070
     0
1070
   140
1040
40.0
1070
   147
1040
0.0
1070
   173
1070
     1
1070
   176
1070
     3
1070
   177
1070
     3
1070
   178
1070
     2
1070
   271
1070
     0
1070
   277
1070
     2
1070
   279
1070
     2
1070
   280
1070
     2
1070
   287
1070
     5
1070
   340
1005
1AD
1002
}
  0
DIMENSION
  5
1E7
330
1F
100
AcDbEntity
  8
寸法
  6
CONTINUOUS
 62
     3
100
AcDbDimension
  2
*D19
 10
968.8397807924781
 20
936.331824
 30
0.0
 11
945.3397808520829
 21
851.3318239999999
 31
0.0
 70
   160
  3
ISO-25
100
AcDbAlignedDimension
 13
724.745819242478
 23
921.3318240000001
 33
0.0
 14
733.9372695513579
 24
936.3318240000001
 34
0.0
 50
90.0
100
AcDbRotatedDimension
1001
ACAD
1000
DSTYLE
1002
{
1070
   270
1070
     2
1070
     6
1000
EX_NORM
1070
     7
1000
EX_NONE
1070
    41
1040
35.0
1070
    42
1040
0.0
1070
    44
1040
0.0
1070
    73
1070
     0
1070
    74
1070
     0
1070
    75
1070
     1
1070
    76
1070
     1
1070
    77
1070
     1
1070
    78
1070
     0
1070
   140
1040
40.0
1070
   147
1040
0.0
1070
   173
1070
     1
1070
   176
1070
     3
1070
   177
1070
     3
1070
   178
1070
     2
1070
   271
1070
     0
1070
   277
1070
     2
1070
   279
1070
     2
1070
   280
1070
     1
1070
   287
1070
     5
1070
   340
1005
1AD
1002
}
  0
DIMENSION
  5
1F4
330
1F
100
AcDbEntity
  8
寸法
  6
CONTINUOUS
 62
     3
100
AcDbDimension
  2
*D20
 10
968.8397807924781
 20
1586.331824
 30
0.0
 11
945.3397808520829
 21
1261.331824
 31
0.0
 70
   160
  3
ISO-25
100
AcDbAlignedDimension
 13
733.9372695513579
 23
936.3318240000001
 33
0.0
 14
735.310293092478
 24
1586.331824
 34
0.0
 50
90.0
100
AcDbRotatedDimension
1001
ACAD
1000
DSTYLE
1002
{
1070
   270
1070
     2
1070
     6
1000
EX_NORM
1070
     7
1000
EX_NORM
1070
    41
1040
35.0
1070
    42
1040
0.0
1070
    44
1040
20.0
1070
    73
1070
     0
1070
    74
1070
     0
1070
    75
1070
     0
1070
    76
1070
     1
1070
    77
1070
     1
1070
    78
1070
     0
1070
   140
1040
40.0
1070
   147
1040
0.0
1070
   173
1070
     1
1070
   176
1070
     3
1070
   177
1070
     3
1070
   178
1070
     2
1070
   271
1070
     0
1070
   277
1070
     2
1070
   279
1070
     2
1070
   280
1070
     0
1070
   287
1070
     5
1070
   340
1005
1AD
1002
}
  0
TEXT
  5
200
330
1F
100
AcDbEntity
  8
寸法
  6
CONTINUOUS
 62
     2
100
AcDbText
 10
1045.339780852083
 20
766.3318239999999
 30
0.0
 40
40.0
  1
２１０
 50
90.0
 41
1.029411764705882
  7
EXCADSTD
 72
     5
 11
1045.339780852083
 21
866.3318239999999
 31
0.0
100
AcDbText
  0
LINE
  5
201
330
1F
100
AcDbEntity
  8
寸法
  6
CONTINUOUS
 62
     3
100
AcDbLine
 10
1048.839780792478
 20
921.3318240000001
 30
0.0
 11
1048.839780792478
 21
711.3318239999998
 31
0.0
  0
LINE
  5
202
330
1F
100
AcDbEntity
  8
寸法
  6
CONTINUOUS
 62
     3
100
AcDbLine
 10
1054.673114125811
 20
886.3318240000001
 30
0.0
 11
1048.839780792478
 21
921.3318240000001
 31
0.0
  0
LINE
  5
203
330
1F
100
AcDbEntity
  8
寸法
  6
CONTINUOUS
 62
     3
100
AcDbLine
 10
1048.839780792478
 20
921.3318240000001
 30
0.0
 11
1043.006447459145
 21
886.3318240000001
 31
0.0
  0
LINE
  5
204
330
1F
100
AcDbEntity
  8
寸法
  6
CONTINUOUS
 62
     3
100
AcDbLine
 10
1043.006447459145
 20
746.3318239999998
 30
0.0
 11
1048.839780792478
 21
711.3318239999998
 31
0.0
  0
LINE
  5
205
330
1F
100
AcDbEntity
  8
寸法
  6
CONTINUOUS
 62
     3
100
AcDbLine
 10
1048.839780792478
 20
711.3318239999998
 30
0.0
 11
1054.673114125811
 21
746.3318239999998
 31
0.0
  0
DIMENSION
  5
206
330
1F
100
AcDbEntity
  8
寸法
  6
CONTINUOUS
 62
     3
100
AcDbDimension
  2
*D21
 10
888.8397807924778
 20
891.3318240000001
 30
0.0
 11
865.3397808520825
 21
821.3318239999999
 31
0.0
 70
   160
  3
ISO-25
100
AcDbAlignedDimension
 13
572.9337423924778
 23
921.3318240000001
 33
0.0
 14
632.3397807924778
 24
891.3318240000001
 34
0.0
 50
90.0
100
AcDbRotatedDimension
1001
ACAD
1000
DSTYLE
1002
{
1070
   270
1070
     2
1070
     6
1000
EX_NORM
1070
     7
1000
EX_NORM
1070
    41
1040
35.0
1070
    42
1040
38.27050924301147
1070
    44
1040
20.0
1070
    73
1070
     0
1070
    74
1070
     0
1070
    75
1070
     1
1070
    76
1070
     0
1070
    77
1070
     1
1070
    78
1070
     0
1070
   140
1040
40.0
1070
   147
1040
0.0
1070
   173
1070
     1
1070
   176
1070
     3
1070
   177
1070
     3
1070
   178
1070
     2
1070
   271
1070
     0
1070
   277
1070
     2
1070
   279
1070
     2
1070
   280
1070
     2
1070
   287
1070
     5
1070
   340
1005
1AD
1002
}
  0
DIMENSION
  5
214
330
1F
100
AcDbEntity
  8
寸法
  6
CONTINUOUS
 62
     3
100
AcDbDimension
  2
*D22
 10
713.8397807924779
 20
820.0
 30
0.0
 11
792.0102930924778
 21
843.4999999999999
 31
0.0
 70
   160
  1
130
  3
ISO-25
100
AcDbAlignedDimension
 13
583.8397807924781
 23
920.0
 33
0.0
 14
713.8397807924779
 24
920.0
 34
0.0
100
AcDbRotatedDimension
1001
ACAD
1000
DSTYLE
1002
{
1070
   270
1070
     2
1070
     6
1000
EX_NORM
1070
     7
1000
EX_NORM
1070
    41
1040
35.0
1070
    42
1040
2.599999904632568
1070
    44
1040
20.0
1070
    73
1070
     0
1070
    74
1070
     0
1070
    75
1070
     0
1070
    76
1070
     0
1070
    77
1070
     1
1070
    78
1070
     0
1070
   140
1040
40.0
1070
   147
1040
0.0
1070
   173
1070
     1
1070
   176
1070
     3
1070
   177
1070
     3
1070
   178
1070
     2
1070
   271
1070
     0
1070
   277
1070
     2
1070
   279
1070
     2
1070
   280
1070
     0
1070
   287
1070
     5
1070
   340
1005
1AD
1002
}
  0
DIMENSION
  5
221
330
1F
100
AcDbEntity
  8
寸法
  6
CONTINUOUS
 62
     3
100
AcDbDimension
  2
*D23
 10
1770.8809547
 20
618.6
 30
0.0
 11
1840.8809547
 21
642.0999999403955
 31
0.0
 70
   160
  3
ISO-25
100
AcDbAlignedDimension
 13
1710.8809547
 23
678.5999999999999
 33
0.0
 14
1770.8809547
 24
711.3318239999999
 34
0.0
100
AcDbRotatedDimension
1001
ACAD
1000
DSTYLE
1002
{
1070
   270
1070
     2
1070
     6
1000
EX_NORM
1070
     7
1000
EX_NORM
1070
    41
1040
35.0
1070
    42
1040
6.99999988079071
1070
    44
1040
20.0
1070
    73
1070
     0
1070
    74
1070
     0
1070
    75
1070
     0
1070
    76
1070
     0
1070
    77
1070
     1
1070
    78
1070
     0
1070
   140
1040
40.0
1070
   147
1040
0.0
1070
   173
1070
     1
1070
   176
1070
     3
1070
   177
1070
     3
1070
   178
1070
     2
1070
   271
1070
     0
1070
   277
1070
     2
1070
   279
1070
     2
1070
   280
1070
     2
1070
   287
1070
     5
1070
   340
1005
1AD
1002
}
  0
DIMENSION
  5
230
330
1F
100
AcDbEntity
  8
寸法
  6
CONTINUOUS
 62
     3
100
AcDbDimension
  2
*D24
 10
808.82948770036
 20
2068.6580461
 30
0.0
 11
648.8294877000002
 21
2092.158046040395
 31
0.0
 70
   160
  3
ISO-25
100
AcDbAlignedDimension
 13
488.82948769964
 23
2433.6580461
 33
0.0
 14
808.82948770036
 24
2433.6580461
 34
0.0
100
AcDbRotatedDimension
1001
ACAD
1000
DSTYLE
1002
{
1070
   270
1070
     2
1070
     6
1000
EX_NORM
1070
     7
1000
EX_NORM
1070
    41
1040
35.0
1070
    42
1040
6.99999988079071
1070
    44
1040
20.0
1070
    73
1070
     0
1070
    74
1070
     0
1070
    75
1070
     0
1070
    76
1070
     0
1070
    77
1070
     1
1070
    78
1070
     0
1070
   140
1040
40.0
1070
   147
1040
0.0
1070
   173
1070
     1
1070
   176
1070
     3
1070
   177
1070
     3
1070
   178
1070
     2
1070
   271
1070
     0
1070
   277
1070
     2
1070
   279
1070
     2
1070
   280
1070
     0
1070
   287
1070
     5
1070
   340
1005
1AD
1002
}
  0
DIMENSION
  5
23D
330
1F
100
AcDbEntity
  8
寸法
  6
CONTINUOUS
 62
     3
100
AcDbDimension
  2
*D25
 10
888.82948770036
 20
2128.6580461
 30
0.0
 11
865.3294877599649
 21
2281.1580461
 31
0.0
 70
   160
  3
ISO-25
100
AcDbAlignedDimension
 13
805.5873759772
 23
2433.6580461
 33
0.0
 14
648.8294877
 24
2128.6580461
 34
0.0
 50
90.0
100
AcDbRotatedDimension
1001
ACAD
1000
DSTYLE
1002
{
1070
   270
1070
     2
1070
     6
1000
EX_NORM
1070
     7
1000
EX_NORM
1070
    41
1040
35.0
1070
    42
1040
6.99999988079071
1070
    44
1040
20.0
1070
    73
1070
     0
1070
    74
1070
     0
1070
    75
1070
     0
1070
    76
1070
     0
1070
    77
1070
     1
1070
    78
1070
     0
1070
   140
1040
40.0
1070
   147
1040
0.0
1070
   173
1070
     1
1070
   176
1070
     3
1070
   177
1070
     3
1070
   178
1070
     2
1070
   271
1070
     0
1070
   277
1070
     2
1070
   279
1070
     2
1070
   280
1070
     0
1070
   287
1070
     5
1070
   340
1005
1AD
1002
}
  0
DIMENSION
  5
24A
330
1F
100
AcDbEntity
  8
寸法
  6
CONTINUOUS
 62
     3
100
AcDbDimension
  2
*D26
 10
1340.0
 20
1041.2877496302
 30
0.0
 11
1316.500000059605
 21
876.3097868151001
 31
0.0
 70
   160
  3
ISO-25
100
AcDbAlignedDimension
 13
1294.0
 23
711.3318239999999
 33
0.0
 14
1470.1456188568
 24
1041.2877496302
 34
0.0
 50
90.0
100
AcDbRotatedDimension
1001
ACAD
1000
DSTYLE
1002
{
1070
   270
1070
     2
1070
     6
1000
EX_NORM
1070
     7
1000
EX_NORM
1070
    41
1040
35.0
1070
    42
1040
6.99999988079071
1070
    44
1040
20.0
1070
    73
1070
     0
1070
    74
1070
     0
1070
    75
1070
     1
1070
    76
1070
     0
1070
    77
1070
     1
1070
    78
1070
     0
1070
   140
1040
40.0
1070
   147
1040
0.0
1070
   173
1070
     1
1070
   176
1070
     3
1070
   177
1070
     3
1070
   178
1070
     2
1070
   271
1070
     0
1070
   277
1070
     2
1070
   279
1070
     2
1070
   280
1070
     0
1070
   287
1070
     5
1070
   340
1005
1AD
1002
}
  0
DIMENSION
  5
256
330
1F
100
AcDbEntity
  8
寸法
  6
CONTINUOUS
 62
     3
100
AcDbDimension
  2
*D27
 10
1414.0
 20
891.34211709257
 30
0.0
 11
1390.500000059605
 21
966.314933361385
 31
0.0
 70
   160
  3
ISO-25
100
AcDbAlignedDimension
 13
1470.1456188568
 23
1041.2877496302
 33
0.0
 14
1710.8809547
 24
891.34211709257
 34
0.0
 50
90.0
100
AcDbRotatedDimension
1001
ACAD
1000
DSTYLE
1002
{
1070
   270
1070
     2
1070
     6
1000
EX_NORM
1070
     7
1000
EX_NORM
1070
    41
1040
35.0
1070
    42
1040
19.88095045089722
1070
    44
1040
20.0
1070
    73
1070
     0
1070
    74
1070
     0
1070
    75
1070
     1
1070
    76
1070
     0
1070
    77
1070
     1
1070
    78
1070
     0
1070
   140
1040
40.0
1070
   147
1040
0.0
1070
   173
1070
     1
1070
   176
1070
     3
1070
   177
1070
     3
1070
   178
1070
     2
1070
   271
1070
     0
1070
   277
1070
     2
1070
   279
1070
     2
1070
   280
1070
     0
1070
   287
1070
     5
1070
   340
1005
1AD
1002
}
  0
DIMENSION
  5
262
330
1F
100
AcDbEntity
  8
寸法
  6
CONTINUOUS
 62
     3
100
AcDbDimension
  2
*D28
 10
1340.0
 20
1041.2877496302
 30
0.0
 11
1316.500000059605
 21
1321.3149333614
 31
0.0
 70
   160
  3
ISO-25
100
AcDbAlignedDimension
 13
1767.8809547
 23
1601.3421170926
 33
0.0
 14
1340.0
 24
1041.2877496302
 34
0.0
 50
90.0
100
AcDbRotatedDimension
1001
ACAD
1000
DSTYLE
1002
{
1070
   270
1070
     2
1070
     6
1000
EX_NORM
1070
     7
1000
EX_NORM
1070
    41
1040
35.0
1070
    42
1040
12.58095026016235
1070
    44
1040
20.0
1070
    73
1070
     0
1070
    74
1070
     0
1070
    75
1070
     0
1070
    76
1070
     1
1070
    77
1070
     1
1070
    78
1070
     0
1070
   140
1040
40.0
1070
   147
1040
0.0
1070
   173
1070
     1
1070
   176
1070
     3
1070
   177
1070
     3
1070
   178
1070
     2
1070
   271
1070
     0
1070
   277
1070
     2
1070
   279
1070
     2
1070
   280
1070
     0
1070
   287
1070
     5
1070
   340
1005
1AD
1002
}
  0
TEXT
  5
26E
330
1F
100
AcDbEntity
  8
器具明細表
  6
CONTINUOUS
 62
     2
100
AcDbText
 10
1266.0507812
 20
2607.0043945
 30
0.0
 40
60.0
  1
器　具　明　細
 41
1.294715447154472
  7
EXCADSTD
 72
     5
 11
1721.0507812
 21
2607.0043945
 31
0.0
100
AcDbText
  0
TEXT
  5
26F
330
1F
100
AcDbEntity
  8
器具明細表
  6
CONTINUOUS
 62
     2
100
AcDbText
 10
1299.4003906
 20
2535.0
 30
0.0
 40
55.0
  1
品　　番
 41
1.245059288537549
  7
EXCADSTD
 72
     5
 11
1524.4003906
 21
2535.0
 31
0.0
100
AcDbText
  0
TEXT
  5
270
330
1F
100
AcDbEntity
  8
器具明細表
  6
CONTINUOUS
 62
     2
100
AcDbText
 10
1864.0
 20
2535.0
 30
0.0
 40
55.0
  1
個数
 41
0.9226601652892572
  7
EXCADSTD
 72
     5
 11
1943.7442
 21
2535.0
 31
0.0
100
AcDbText
  0
TEXT
  5
271
330
1F
100
AcDbEntity
  8
器具明細表
  6
CONTINUOUS
 62
     2
100
AcDbText
 10
1629.0170898
 20
2535.0
 30
0.0
 40
55.0
  1
品　　名
 41
0.9960474308300394
  7
EXCADSTD
 72
     5
 11
1809.0170898
 21
2535.0
 31
0.0
100
AcDbText
  0
TEXT
  5
272
330
1F
100
AcDbEntity
  8
器具明細表
  6
CONTINUOUS
 62
     2
100
AcDbText
 10
1884.0
 20
2473.9819336
 30
0.0
 40
47.5
  1
１
 41
1.112926243832238
  7
EXCADSTD
 72
     5
 11
1921.759997558594
 21
2473.9819336
 31
0.0
100
AcDbText
  0
TEXT
  5
273
330
1F
100
AcDbEntity
  8
器具明細表
  6
CONTINUOUS
 62
     2
100
AcDbText
 10
1884.0
 20
2408.3816528
 30
0.0
 40
47.5
  1
１
 41
1.112926243832238
  7
EXCADSTD
 72
     5
 11
1921.759997558594
 21
2408.3816528
 31
0.0
100
AcDbText
  0
TEXT
  5
274
330
1F
100
AcDbEntity
  8
器具明細表
  6
CONTINUOUS
 62
     2
100
AcDbText
 10
1582.918457
 20
2405.7791138
 30
0.0
 40
50.0
  1
筒
 41
1.008
  7
EXCADSTD
 72
     5
 11
1618.918457
 21
2405.7791138
 31
0.0
100
AcDbText
  0
TEXT
  5
275
330
1F
100
AcDbEntity
  8
器具明細表
  6
CONTINUOUS
 62
     2
100
AcDbText
 10
1582.918457
 20
2340.779419
 30
0.0
 40
50.0
  1
化粧頭付木ねじ
 41
0.9117073170731708
  7
EXCADSTD
 72
     5
 11
1849.918457
 21
2340.779419
 31
0.0
100
AcDbText
  0
TEXT
  5
276
330
1F
100
AcDbEntity
  8
器具明細表
  6
CONTINUOUS
 62
     2
100
AcDbText
 10
1582.918457
 20
2470.0
 30
0.0
 40
50.0
  1
センタ－スト－ル
 41
0.8161702127659576
  7
EXCADSTD
 72
     5
 11
1856.918457
 21
2470.0
 31
0.0
100
AcDbText
  0
TEXT
  5
277
330
1F
100
AcDbEntity
  8
器具明細表
  6
CONTINUOUS
 62
     2
100
AcDbText
 10
1251.9838562
 20
2407.4801636
 30
0.0
 40
50.0
  1
ＴＶ１０１
 41
0.9317241379310345
  7
EXCADSTD
 72
     5
 11
1444.9838562
 21
2407.4801636
 31
0.0
100
AcDbText
  0
TEXT
  5
278
330
1F
100
AcDbEntity
  8
器具明細表
  6
CONTINUOUS
 62
     2
100
AcDbText
 10
1251.9838562
 20
2472.4804687
 30
0.0
 40
50.0
  1
Ｕ１０１Ａ
 41
0.9317241379310345
  7
EXCADSTD
 72
     5
 11
1444.9838562
 21
2472.4804687
 31
0.0
100
AcDbText
  0
TEXT
  5
279
330
1F
100
AcDbEntity
  8
器具明細表
  6
CONTINUOUS
 62
     2
100
AcDbText
 10
1884.0
 20
2343.381958
 30
0.0
 40
47.5
  1
１
 41
1.112926243832238
  7
EXCADSTD
 72
     5
 11
1921.759997558594
 21
2343.381958
 31
0.0
100
AcDbText
  0
TEXT
  5
27A
330
1F
100
AcDbEntity
  8
0
  6
CONTINUOUS
 62
     2
100
AcDbText
 10
188.95371094
 20
28.27227783
 30
0.0
 40
3.0
  1
１
 41
1.101333351135257
  7
EXCADSTD
 72
     5
 11
191.313710978147
 21
28.27227783
 31
0.0
100
AcDbText
  0
TEXT
  5
27B
330
1F
100
AcDbEntity
  8
0
  6
CONTINUOUS
 62
     2
100
AcDbText
 10
193.02792969
 20
23.83488464
 30
0.0
 40
3.0
  1
１０
 41
1.098531230663528
  7
EXCADSTD
 72
     5
 11
198.2067197774138
 21
23.83488464
 31
0.0
100
AcDbText
  0
TEXT
  5
27C
330
1F
100
AcDbEntity
  8
0
  6
CONTINUOUS
 62
     2
100
AcDbText
 10
20.15000000000003
 20
28.875
 30
0.0
 40
4.25
  1
製図
 41
1.509694117647059
  7
EXCADSTD
 72
     5
 11
30.23260000000003
 21
28.875
 31
0.0
100
AcDbText
  0
TEXT
  5
27D
330
1F
100
AcDbEntity
  8
0
  6
CONTINUOUS
 62
     2
100
AcDbText
 10
35.65000000000003
 20
28.875
 30
0.0
 40
4.25
  1
写図
 41
1.509694117647059
  7
EXCADSTD
 72
     5
 11
45.73260000000003
 21
28.875
 31
0.0
100
AcDbText
  0
TEXT
  5
27E
330
1F
100
AcDbEntity
  8
0
  6
CONTINUOUS
 62
     2
100
AcDbText
 10
50.65000000000003
 20
28.875
 30
0.0
 40
4.25
  1
検図
 41
1.303826737967915
  7
EXCADSTD
 72
     5
 11
59.35770000000004
 21
28.875
 31
0.0
100
AcDbText
  0
TEXT
  5
27F
330
1F
100
AcDbEntity
  8
0
  6
CONTINUOUS
 62
     2
100
AcDbText
 10
63.65000000000003
 20
28.875
 30
0.0
 40
4.25
  1
承認
 41
1.303826737967915
  7
EXCADSTD
 72
     5
 11
72.35770000000004
 21
28.875
 31
0.0
100
AcDbText
  0
TEXT
  5
280
330
1F
100
AcDbEntity
  8
0
  6
CONTINUOUS
 62
     2
100
AcDbText
 10
75.27500000000003
 20
27.875
 30
0.0
 40
4.25
  1
品
 41
1.120000000000002
  7
EXCADSTD
 72
     5
 11
78.67500000000004
 21
27.875
 31
0.0
100
AcDbText
  0
TEXT
  5
281
330
1F
100
AcDbEntity
  8
0
  6
CONTINUOUS
 62
     2
100
AcDbText
 10
75.27500000000003
 20
22.875
 30
0.0
 40
4.25
  1
名
 41
1.120000000000002
  7
EXCADSTD
 72
     5
 11
78.67500000000004
 21
22.875
 31
0.0
100
AcDbText
  0
TEXT
  5
282
330
1F
100
AcDbEntity
  8
0
  6
CONTINUOUS
 62
     2
100
AcDbText
 10
139.275
 20
27.875
 30
0.0
 40
4.25
  1
品
 41
1.120000000000002
  7
EXCADSTD
 72
     5
 11
142.675
 21
27.875
 31
0.0
100
AcDbText
  0
TEXT
  5
283
330
1F
100
AcDbEntity
  8
0
  6
CONTINUOUS
 62
     2
100
AcDbText
 10
139.275
 20
22.875
 30
0.0
 40
4.25
  1
番
 41
1.120000000000002
  7
EXCADSTD
 72
     5
 11
142.675
 21
22.875
 31
0.0
100
AcDbText
  0
TEXT
  5
284
330
1F
100
AcDbEntity
  8
0
  6
CONTINUOUS
 62
     2
100
AcDbText
 10
181.275
 20
27.875
 30
0.0
 40
4.25
  1
尺
 41
1.120000000000002
  7
EXCADSTD
 72
     5
 11
184.675
 21
27.875
 31
0.0
100
AcDbText
  0
TEXT
  5
285
330
1F
100
AcDbEntity
  8
0
  6
CONTINUOUS
 62
     2
100
AcDbText
 10
181.275
 20
22.875
 30
0.0
 40
4.25
  1
度
 41
1.120000000000002
  7
EXCADSTD
 72
     5
 11
184.675
 21
22.875
 31
0.0
100
AcDbText
  0
TEXT
  5
286
330
1F
100
AcDbEntity
  8
0
  6
CONTINUOUS
 62
     2
100
AcDbText
 10
139.275
 20
16.575
 30
0.0
 40
4.25
  1
図
 41
1.120000000000002
  7
EXCADSTD
 72
     5
 11
142.675
 21
16.575
 31
0.0
100
AcDbText
  0
TEXT
  5
287
330
1F
100
AcDbEntity
  8
0
  6
CONTINUOUS
 62
     2
100
AcDbText
 10
139.275
 20
12.275
 30
0.0
 40
4.25
  1
番
 41
1.120000000000002
  7
EXCADSTD
 72
     5
 11
142.675
 21
12.275
 31
0.0
100
AcDbText
  0
TEXT
  5
288
330
1F
100
AcDbEntity
  8
0
  6
CONTINUOUS
 62
     2
100
AcDbText
 10
80.76108398000004
 20
21.82713318
 30
0.0
 40
5.75
  1
センタ－スト－ル用筒
 41
0.9347089145143151
  7
EXCADSTD
 72
     5
 11
126.0610838727117
 21
21.82713318
 31
0.0
100
AcDbText
  0
TEXT
  5
289
330
1F
100
AcDbEntity
  8
0
  6
CONTINUOUS
 62
     2
100
AcDbText
 10
80.56107178000005
 20
27.29315186
 30
0.0
 40
5.75
  1
非水洗センタ－スト－ル
 41
0.9317725730181536
  7
EXCADSTD
 72
     5
 11
130.3110716607908
 21
27.29315186
 31
0.0
100
AcDbText
  0
TEXT
  5
28A
330
1F
100
AcDbEntity
  8
0
  6
CONTINUOUS
 62
     6
100
AcDbText
 10
18.9688574104633
 20
12.49500732
 30
0.0
 40
3.0
  1
'17
 41
0.4689784011919448
  7
EXCADSTD
 72
     5
 11
22.11771238989493
 21
12.49500732
 31
0.0
100
AcDbText
  0
TEXT
  5
28B
330
1F
100
AcDbEntity
  8
0
  6
CONTINUOUS
 62
     6
100
AcDbText
 10
24.83510740569491
 20
12.49500732
 30
0.0
 40
3.0
  1
7
 41
0.4683823529411762
  7
EXCADSTD
 72
     5
 11
25.97260740569491
 21
12.49500732
 31
0.0
100
AcDbText
  0
TEXT
  5
28C
330
1F
100
AcDbEntity
  8
0
  6
CONTINUOUS
 62
     6
100
AcDbText
 10
29.26010741165538
 20
12.49500732
 30
0.0
 40
3.0
  1
22
 41
0.4086486468443998
  7
EXCADSTD
 72
     5
 11
31.42010740211864
 21
12.49500732
 31
0.0
100
AcDbText
  0
TEXT
  5
28D
330
1F
100
AcDbEntity
  8
0
  6
CONTINUOUS
 62
     6
100
AcDbText
 10
22.89999999999992
 20
20.0
 30
0.0
 40
5.0
  1
堀
 41
1.232
  7
EXCADSTD
 72
     5
 11
27.29999999999992
 21
20.0
 31
0.0
100
AcDbText
  0
TEXT
  5
28E
330
1F
100
AcDbEntity
  8
0
  6
CONTINUOUS
 62
     6
100
AcDbText
 10
63.34999997615805
 20
20.0
 30
0.0
 40
5.0
  1
間瀬
 41
1.18991346010815
  7
EXCADSTD
 72
     5
 11
72.69932001986494
 21
20.0
 31
0.0
100
AcDbText
  0
ARC
  5
28F
330
1F
100
AcDbEntity
  8
0
  6
CONTINUOUS
 62
     3
100
AcDbCircle
 10
92.98424810688707
 20
16.69019437507496
 30
0.0
 40
1.907418003737831
100
AcDbArc
 50
153.7591918158497
 51
169.3462759801917
  0
LINE
  5
290
330
1F
100
AcDbEntity
  8
0
  6
CONTINUOUS
 62
     3
100
AcDbLine
 10
91.02432657332506
 20
17.04282432975408
 30
0.0
 11
91.10970934867314
 21
17.04282432975408
 31
0.0
  0
LINE
  5
291
330
1F
100
AcDbEntity
  8
0
  6
CONTINUOUS
 62
     3
100
AcDbLine
 10
90.38375157332499
 20
17.46199932975408
 30
0.0
 11
90.49310157332505
 21
17.46469932975408
 31
0.0
  0
LINE
  5
292
330
1F
100
AcDbEntity
  8
0
  6
CONTINUOUS
 62
     3
100
AcDbLine
 10
89.38340157332502
 20
16.78632432975406
 30
0.0
 11
89.38677657332497
 21
16.60744932975627
 31
0.0
  0
LINE
  5
293
330
1F
100
AcDbEntity
  8
0
  6
CONTINUOUS
 62
     3
100
AcDbLine
 10
89.87142657332495
 20
16.98814932975405
 30
0.0
 11
89.861976573325
 21
16.81129932975405
 31
0.0
  0
LINE
  5
294
330
1F
100
AcDbEntity
  8
0
  6
CONTINUOUS
 62
     3
100
AcDbLine
 10
91.46240157332508
 20
15.53217432975408
 30
0.0
 11
91.45902657332496
 21
15.24394932975407
 31
0.0
  0
LINE
  5
295
330
1F
100
AcDbEntity
  8
0
  6
CONTINUOUS
 62
     3
100
AcDbLine
 10
90.986526573325
 20
15.25069932975408
 30
0.0
 11
90.99327657332506
 21
15.09544932975406
 31
0.0
  0
ARC
  5
296
330
1F
100
AcDbEntity
  8
0
  6
CONTINUOUS
 62
     3
100
AcDbCircle
 10
88.3534413132094
 20
15.05779759565003
 30
0.0
 40
1.127953740078838
100
AcDbArc
 50
332.3987521421788
 51
359.5124385477116
  0
LINE
  5
297
330
1F
100
AcDbEntity
  8
0
  6
CONTINUOUS
 62
     3
100
AcDbLine
 10
80.51727657332506
 20
16.97194932975408
 30
0.0
 11
80.60502657332503
 21
16.97194932975408
 31
0.0
  0
LINE
  5
298
330
1F
100
AcDbEntity
  8
0
  6
CONTINUOUS
 62
     3
100
AcDbLine
 10
90.05502657332502
 20
14.33269932975407
 30
0.0
 11
90.37227657332502
 21
14.33269932975407
 31
0.0
  0
LINE
  5
299
330
1F
100
AcDbEntity
  8
0
  6
CONTINUOUS
 62
     3
100
AcDbLine
 10
89.56902657332509
 20
15.04819932975409
 30
0.0
 11
89.481276573325
 21
15.04819932975409
 31
0.0
  0
LINE
  5
29A
330
1F
100
AcDbEntity
  8
0
  6
CONTINUOUS
 62
     3
100
AcDbLine
 10
90.250776573325
 20
14.57569932975407
 30
0.0
 11
90.41277657332509
 21
14.57569932975407
 31
0.0
  0
LINE
  5
29B
330
1F
100
AcDbEntity
  8
0
  6
CONTINUOUS
 62
     3
100
AcDbLine
 10
90.60852657332507
 20
17.72727432975405
 30
0.0
 11
90.42222657332505
 21
17.72727432975405
 31
0.0
  0
ARC
  5
29C
330
1F
100
AcDbEntity
  8
0
  6
CONTINUOUS
 62
     3
100
AcDbCircle
 10
90.44147339127503
 20
16.85429236291669
 30
0.0
 40
0.612586430102253
100
AcDbArc
 50
17.92452211681263
 51
85.16543319077402
  0
ARC
  5
29D
330
1F
100
AcDbEntity
  8
0
  6
CONTINUOUS
 62
     3
100
AcDbCircle
 10
90.40350964860531
 20
16.92674994707921
 30
0.0
 40
0.535613931103931
100
AcDbArc
 50
92.11404364449162
 51
173.4175047026091
  0
ARC
  5
29E
330
1F
100
AcDbEntity
  8
0
  6
CONTINUOUS
 62
     3
100
AcDbCircle
 10
91.2303140733263
 20
17.13823182975444
 30
0.0
 40
1.4068519372934
100
AcDbArc
 50
193.4375782160214
 51
199.459638038058
  0
ARC
  5
29F
330
1F
100
AcDbEntity
  8
0
  6
CONTINUOUS
 62
     3
100
AcDbCircle
 10
90.50721352387447
 20
17.03138641766612
 30
0.0
 40
0.703563707337184
100
AcDbArc
 50
210.9501336849607
 51
251.7794729821079
  0
ARC
  5
2A0
330
1F
100
AcDbEntity
  8
0
  6
CONTINUOUS
 62
     3
100
AcDbCircle
 10
92.15384669692057
 20
21.39359310503512
 30
0.0
 40
5.36564425851668
100
AcDbArc
 50
249.6420733479936
 51
256.4727051201885
  0
ARC
  5
2A1
330
1F
100
AcDbEntity
  8
0
  6
CONTINUOUS
 62
     3
100
AcDbCircle
 10
90.72045721291951
 20
15.45217258531575
 30
0.0
 40
0.746245075729606
100
AcDbArc
 50
6.154262763177246
 51
76.17509904255616
  0
ARC
  5
2A2
330
1F
100
AcDbEntity
  8
0
  6
CONTINUOUS
 62
     3
100
AcDbCircle
 10
90.34663886467561
 20
15.46692467118045
 30
0.0
 40
1.134515058180645
100
AcDbArc
 50
271.2948770866743
 51
348.6654156292868
  0
ARC
  5
2A3
330
1F
100
AcDbEntity
  8
0
  6
CONTINUOUS
 62
     3
100
AcDbCircle
 10
90.1793005459277
 20
16.08156576811025
 30
0.0
 40
1.75327631578002
100
AcDbArc
 50
241.8829576087176
 51
265.9354096935781
  0
ARC
  5
2A4
330
1F
100
AcDbEntity
  8
0
  6
CONTINUOUS
 62
     3
100
AcDbCircle
 10
90.36361043234862
 20
15.46658639777383
 30
0.0
 40
0.898004035462527
100
AcDbArc
 50
207.7689879465537
 51
262.7817283832026
  0
ARC
  5
2A5
330
1F
100
AcDbEntity
  8
0
  6
CONTINUOUS
 62
     3
100
AcDbCircle
 10
90.4035777744651
 20
15.17002363757167
 30
0.0
 40
0.594395491876676
100
AcDbArc
 50
270.8867385422408
 51
352.7925382056677
  0
ARC
  5
2A6
330
1F
100
AcDbEntity
  8
0
  6
CONTINUOUS
 62
     3
100
AcDbCircle
 10
90.53080045853667
 20
15.19846225433168
 30
0.0
 40
0.458710152219014
100
AcDbArc
 50
6.53892419415897
 51
65.09756080693691
  0
ARC
  5
2A7
330
1F
100
AcDbEntity
  8
0
  6
CONTINUOUS
 62
     3
100
AcDbCircle
 10
89.41714891830426
 20
12.99457141755211
 30
0.0
 40
2.927778413972754
100
AcDbArc
 50
63.49050203733571
 51
76.60259219849584
  0
ARC
  5
2A8
330
1F
100
AcDbEntity
  8
0
  6
CONTINUOUS
 62
     3
100
AcDbCircle
 10
90.452681457995
 20
17.02396411006687
 30
0.0
 40
1.234100950779567
100
AcDbArc
 50
226.0402388947521
 51
253.1776672992999
  0
ARC
  5
2A9
330
1F
100
AcDbEntity
  8
0
  6
CONTINUOUS
 62
     3
100
AcDbCircle
 10
90.05599257925999
 20
16.6219276907553
 30
0.0
 40
0.669372605905611
100
AcDbArc
 50
181.2393899443581
 51
226.5942921332421
  0
ARC
  5
2AA
330
1F
100
AcDbEntity
  8
0
  6
CONTINUOUS
 62
     3
100
AcDbCircle
 10
90.37963496799611
 20
16.72009291101865
 30
0.0
 40
0.99843256030919
100
AcDbArc
 50
117.4083995939977
 51
176.1964688215695
  0
ARC
  5
2AB
330
1F
100
AcDbEntity
  8
0
  6
CONTINUOUS
 62
     3
100
AcDbCircle
 10
90.47711044283906
 20
16.40979097937612
 30
0.0
 40
1.319974865367525
100
AcDbArc
 50
92.38301574576484
 51
114.9635286746436
  0
ARC
  5
2AC
330
1F
100
AcDbEntity
  8
0
  6
CONTINUOUS
 62
     3
100
AcDbCircle
 10
90.58542828460568
 20
16.71663038363955
 30
0.0
 40
1.010907867592157
100
AcDbArc
 50
67.66151957087348
 51
88.69073168448988
  0
ARC
  5
2AD
330
1F
100
AcDbEntity
  8
0
  6
CONTINUOUS
 62
     3
100
AcDbCircle
 10
122.6644453232815
 20
98.70297432964203
 30
0.0
 40
87.02800228963156
100
AcDbArc
 50
248.6422112053103
 51
248.8567777804232
  0
ARC
  5
2AE
330
1F
100
AcDbEntity
  8
0
  6
CONTINUOUS
 62
     3
100
AcDbCircle
 10
65.66900575363869
 20
16.03249792766236
 30
0.0
 40
22.20076085035812
100
AcDbArc
 50
355.7940354718673
 51
4.229650257234378
  0
ARC
  5
2AF
330
1F
100
AcDbEntity
  8
0
  6
CONTINUOUS
 62
     3
100
AcDbCircle
 10
108.7254047179557
 20
16.01881005739387
 30
0.0
 40
20.35906390589
100
AcDbArc
 50
175.3387608397566
 51
184.5428594926176
  0
ARC
  5
2B0
330
1F
100
AcDbEntity
  8
0
  6
CONTINUOUS
 62
     3
100
AcDbCircle
 10
88.14144089371334
 20
7.879804184123326
 30
0.0
 40
6.532859485251088
100
AcDbArc
 50
87.46575055044718
 51
92.90832285102188
  0
ARC
  5
2B1
330
1F
100
AcDbEntity
  8
0
  6
CONTINUOUS
 62
     3
100
AcDbCircle
 10
88.11456076027727
 20
18.95332474358078
 30
0.0
 40
1.319228548840207
100
AcDbArc
 50
256.6209501743446
 51
283.9984576255729
  0
CIRCLE
  5
2B2
330
1F
100
AcDbEntity
  8
0
  6
CONTINUOUS
 62
     3
100
AcDbCircle
 10
88.12855140383354
 20
18.8583546687371
 30
0.0
 40
0.357233446676989
  0
LINE
  5
2B3
330
1F
100
AcDbEntity
  8
0
  6
CONTINUOUS
 62
     3
100
AcDbLine
 10
84.448476573325
 20
16.38402432975409
 30
0.0
 11
84.448476573325
 21
15.30469932975405
 31
0.0
  0
ARC
  5
2B4
330
1F
100
AcDbEntity
  8
0
  6
CONTINUOUS
 62
     3
100
AcDbCircle
 10
63.51176988671594
 20
15.99938058671746
 30
0.0
 40
20.43697806131072
100
AcDbArc
 50
355.5405243117485
 51
4.673398698656258
  0
ARC
  5
2B5
330
1F
100
AcDbEntity
  8
0
  6
CONTINUOUS
 62
     3
100
AcDbCircle
 10
84.1708284986124
 20
18.82206879814488
 30
0.0
 40
1.193349358546016
100
AcDbArc
 50
255.9341994177206
 51
284.5896440601899
  0
ARC
  5
2B6
330
1F
100
AcDbEntity
  8
0
  6
CONTINUOUS
 62
     3
100
AcDbCircle
 10
88.20574727396163
 20
17.20785681383053
 30
0.0
 40
3.762465500458181
100
AcDbArc
 50
172.9875214416311
 51
181.4134392789641
  0
ARC
  5
2B7
330
1F
100
AcDbEntity
  8
0
  6
CONTINUOUS
 62
     3
100
AcDbCircle
 10
85.5754106900255
 20
16.392759888186
 30
0.0
 40
1.34194899665726
100
AcDbArc
 50
87.42068310381028
 51
147.4361518966862
  0
ARC
  5
2B8
330
1F
100
AcDbEntity
  8
0
  6
CONTINUOUS
 62
     3
100
AcDbCircle
 10
85.6772405741377
 20
16.79204664797994
 30
0.0
 40
0.94221437555554
100
AcDbArc
 50
34.84393737091607
 51
92.5207065423111
  0
ARC
  5
2B9
330
1F
100
AcDbEntity
  8
0
  6
CONTINUOUS
 62
     3
100
AcDbCircle
 10
85.47905515344823
 20
16.66285942451527
 30
0.0
 40
1.17869965146059
100
AcDbArc
 50
359.8658335690532
 51
34.49363429411157
  0
ARC
  5
2BA
330
1F
100
AcDbEntity
  8
0
  6
CONTINUOUS
 62
     3
100
AcDbCircle
 10
80.51913601210057
 20
16.43315774812141
 30
0.0
 40
6.142809087866958
100
AcDbArc
 50
358.4775281223095
 51
2.117232414210064
  0
ARC
  5
2BB
330
1F
100
AcDbEntity
  8
0
  6
CONTINUOUS
 62
     3
100
AcDbCircle
 10
102.9657633661698
 20
15.19067374739133
 30
0.0
 40
16.34166579853822
100
AcDbArc
 50
176.2131780319488
 51
182.7488833337936
  0
ARC
  5
2BC
330
1F
100
AcDbEntity
  8
0
  6
CONTINUOUS
 62
     3
100
AcDbCircle
 10
86.35771407332507
 20
11.26015261922778
 30
0.0
 40
3.159693252126744
100
AcDbArc
 50
84.82155189294139
 51
95.17844810705873
  0
ARC
  5
2BD
330
1F
100
AcDbEntity
  8
0
  6
CONTINUOUS
 62
     3
100
AcDbCircle
 10
69.61173378649741
 20
15.67751337882465
 30
0.0
 40
16.50975566668588
100
AcDbArc
 50
355.5862454873798
 51
2.816115806820253
  0
ARC
  5
2BE
330
1F
100
AcDbEntity
  8
0
  6
CONTINUOUS
 62
     3
100
AcDbCircle
 10
84.99447404568528
 20
16.50315138821555
 30
0.0
 40
1.107172507744154
100
AcDbArc
 50
359.2495022237244
 51
32.84055016678327
  0
ARC
  5
2BF
330
1F
100
AcDbEntity
  8
0
  6
CONTINUOUS
 62
     3
100
AcDbCircle
 10
85.30100145205532
 20
16.52366273138689
 30
0.0
 40
0.851645057047003
100
AcDbArc
 50
42.91644474042847
 51
128.3015542351336
  0
ARC
  5
2C0
330
1F
100
AcDbEntity
  8
0
  6
CONTINUOUS
 62
     3
100
AcDbCircle
 10
85.556617223664
 20
16.40795225138056
 30
0.0
 40
1.108398956318131
100
AcDbArc
 50
134.9787476233347
 51
181.2369872983282
  0
ARC
  5
2C1
330
1F
100
AcDbEntity
  8
0
  6
CONTINUOUS
 62
     3
100
AcDbCircle
 10
91.84088578951045
 20
15.29150147009814
 30
0.0
 40
7.395120993114926
100
AcDbArc
 50
179.8977458165987
 51
186.8855675734268
  0
ARC
  5
2C2
330
1F
100
AcDbEntity
  8
0
  6
CONTINUOUS
 62
     3
100
AcDbCircle
 10
84.15808780069315
 20
10.45069254511709
 30
0.0
 40
3.968909094418497
100
AcDbArc
 50
85.07099551674689
 51
93.91830029343228
  0
ARC
  5
2C3
330
1F
100
AcDbEntity
  8
0
  6
CONTINUOUS
 62
     3
100
AcDbCircle
 10
-2246.701542217735
 20
79.43265245587831
 30
0.0
 40
2329.776001260591
100
AcDbArc
 50
358.4169008257799
 51
358.4423418242109
  0
ARC
  5
2C4
330
1F
100
AcDbEntity
  8
0
  6
CONTINUOUS
 62
     3
100
AcDbCircle
 10
81.3324469076592
 20
15.57836489530207
 30
0.0
 40
0.993581603997916
100
AcDbArc
 50
278.3335103000368
 51
329.1221464187299
  0
LINE
  5
2C5
330
1F
100
AcDbEntity
  8
0
  6
CONTINUOUS
 62
     3
100
AcDbLine
 10
81.30297657332497
 20
14.5952743297541
 30
0.0
 11
81.47645157332502
 21
14.5952743297541
 31
0.0
  0
ARC
  5
2C6
330
1F
100
AcDbEntity
  8
0
  6
CONTINUOUS
 62
     3
100
AcDbCircle
 10
81.36959653488739
 20
15.17461380097786
 30
0.0
 40
0.583157304846997
100
AcDbArc
 50
183.0707787095794
 51
263.4402016072427
  0
LINE
  5
2C7
330
1F
100
AcDbEntity
  8
0
  6
CONTINUOUS
 62
     3
100
AcDbLine
 10
80.78727657332499
 20
15.33912432975405
 30
0.0
 11
80.78727657332499
 21
15.14337432975408
 31
0.0
  0
ARC
  5
2C8
330
1F
100
AcDbEntity
  8
0
  6
CONTINUOUS
 62
     3
100
AcDbCircle
 10
81.40701866837841
 20
15.25807479047183
 30
0.0
 40
0.625019433457053
100
AcDbArc
 50
115.7403688633493
 51
172.5491744442191
  0
ARC
  5
2C9
330
1F
100
AcDbEntity
  8
0
  6
CONTINUOUS
 62
     3
100
AcDbCircle
 10
81.95660651757706
 20
14.08318862667978
 30
0.0
 40
1.922065786155208
100
AcDbArc
 50
98.71271710191789
 51
115.2874718053599
  0
ARC
  5
2CA
330
1F
100
AcDbEntity
  8
0
  6
CONTINUOUS
 62
     3
100
AcDbCircle
 10
81.06056099353728
 20
20.07501381160507
 30
0.0
 40
4.136406814694017
100
AcDbArc
 50
278.4088456599976
 51
286.1851416003176
  0
ARC
  5
2CB
330
1F
100
AcDbEntity
  8
0
  6
CONTINUOUS
 62
     3
100
AcDbCircle
 10
78.60908200122273
 20
24.17417570522225
 30
0.0
 40
4.400758833490466
100
AcDbArc
 50
261.7986203004403
 51
278.6803384946418
  0
ARC
  5
2CC
330
1F
100
AcDbEntity
  8
0
  6
CONTINUOUS
 62
     3
100
AcDbCircle
 10
144.1542531413434
 20
16.72960360950846
 30
0.0
 40
64.95474244683605
100
AcDbArc
 50
177.2695926307304
 51
181.4833117237826
  0
ARC
  5
2CD
330
1F
100
AcDbEntity
  8
0
  6
CONTINUOUS
 62
     3
100
AcDbCircle
 10
76.94899361790615
 20
14.99631356880094
 30
0.0
 40
2.272875263114311
100
AcDbArc
 50
335.1860595856123
 51
1.308075913059364
  0
ARC
  5
2CE
330
1F
100
AcDbEntity
  8
0
  6
CONTINUOUS
 62
     3
100
AcDbCircle
 10
77.5389732788548
 20
14.8938351862683
 30
0.0
 40
1.701394688196115
100
AcDbArc
 50
286.2966123578915
 51
329.973223283839
  0
ARC
  5
2CF
330
1F
100
AcDbEntity
  8
0
  6
CONTINUOUS
 62
     3
100
AcDbCircle
 10
77.20955749866656
 20
15.37223152915386
 30
0.0
 40
2.260341410821362
100
AcDbArc
 50
277.0901027239701
 51
290.9134154817058
  0
LINE
  5
2D0
330
1F
100
AcDbEntity
  8
0
  6
CONTINUOUS
 62
     3
100
AcDbLine
 10
77.488551573325
 20
13.12917432975406
 30
0.0
 11
77.36502657332503
 21
13.50514932975404
 31
0.0
  0
ARC
  5
2D1
330
1F
100
AcDbEntity
  8
0
  6
CONTINUOUS
 62
     3
100
AcDbCircle
 10
76.98347289685441
 20
14.6675985944599
 30
0.0
 40
1.223467000390025
100
AcDbArc
 50
288.1715191042997
 51
307.8537826235693
  0
ARC
  5
2D2
330
1F
100
AcDbEntity
  8
0
  6
CONTINUOUS
 62
     3
100
AcDbCircle
 10
77.20927386496024
 20
14.23407518472915
 30
0.0
 40
0.747769185530633
100
AcDbArc
 50
314.592391474832
 51
344.9374073189123
  0
ARC
  5
2D3
330
1F
100
AcDbEntity
  8
0
  6
CONTINUOUS
 62
     3
100
AcDbCircle
 10
28.53385521229316
 20
17.25197335838841
 30
0.0
 40
49.51400430399008
100
AcDbArc
 50
356.8390243485978
 51
2.971133813187157
  0
ARC
  5
2D4
330
1F
100
AcDbEntity
  8
0
  6
CONTINUOUS
 62
     3
100
AcDbCircle
 10
71.01439565227074
 20
14.87342761922788
 30
0.0
 40
6.967015049800598
100
AcDbArc
 50
353.1274757312911
 51
357.106204490141
  0
LINE
  5
2D5
330
1F
100
AcDbEntity
  8
0
  6
CONTINUOUS
 62
     3
100
AcDbLine
 10
80.51727657332506
 20
17.3364493297541
 30
0.0
 11
80.51727657332506
 21
16.97194932975408
 31
0.0
  0
ARC
  5
2D6
330
1F
100
AcDbEntity
  8
0
  6
CONTINUOUS
 62
     3
100
AcDbCircle
 10
81.38253617702989
 20
16.52890191857882
 30
0.0
 40
0.894881105176719
100
AcDbArc
 50
103.4267945469744
 51
150.3242613737993
  0
ARC
  5
2D7
330
1F
100
AcDbEntity
  8
0
  6
CONTINUOUS
 62
     3
100
AcDbCircle
 10
81.44799095798308
 20
16.39383830513021
 30
0.0
 40
1.04195273466423
100
AcDbArc
 50
77.23143261361693
 51
105.203415964315
  0
ARC
  5
2D8
330
1F
100
AcDbEntity
  8
0
  6
CONTINUOUS
 62
     3
100
AcDbCircle
 10
81.4928341281769
 20
16.72741886153421
 30
0.0
 40
0.707346538626002
100
AcDbArc
 50
3.537639967999379
 51
74.8013566619203
  0
ARC
  5
2D9
330
1F
100
AcDbEntity
  8
0
  6
CONTINUOUS
 62
     3
100
AcDbCircle
 10
80.90053873566566
 20
16.59229870375124
 30
0.0
 40
1.310543751018921
100
AcDbArc
 50
353.0315250986587
 51
7.839947970678348
  0
ARC
  5
2DA
330
1F
100
AcDbEntity
  8
0
  6
CONTINUOUS
 62
     3
100
AcDbCircle
 10
82.03230955673345
 20
16.46511332504287
 30
0.0
 40
0.172058828228131
100
AcDbArc
 50
291.5204897073511
 51
349.3445900274031
  0
ARC
  5
2DB
330
1F
100
AcDbEntity
  8
0
  6
CONTINUOUS
 62
     3
100
AcDbCircle
 10
81.63433050110896
 20
17.26407362688748
 30
0.0
 40
1.064113335272784
100
AcDbArc
 50
282.7195832898965
 51
295.6781112778079
  0
ARC
  5
2DC
330
1F
100
AcDbEntity
  8
0
  6
CONTINUOUS
 62
     3
100
AcDbCircle
 10
79.08530099985788
 20
28.61202029775212
 30
0.0
 40
12.69482409370382
100
AcDbArc
 50
278.8438342053764
 51
282.6649181367123
  0
ARC
  5
2DD
330
1F
100
AcDbEntity
  8
0
  6
CONTINUOUS
 62
     3
100
AcDbCircle
 10
81.30970138675784
 20
14.79608481482871
 30
0.0
 40
1.30093661698492
100
AcDbArc
 50
102.0988446293839
 51
129.1556705448828
  0
ARC
  5
2DE
330
1F
100
AcDbEntity
  8
0
  6
CONTINUOUS
 62
     3
100
AcDbCircle
 10
80.93972379030149
 20
15.26366332500801
 30
0.0
 40
0.704795370557922
100
AcDbArc
 50
129.8344892359069
 51
168.4089447024628
  0
ARC
  5
2DF
330
1F
100
AcDbEntity
  8
0
  6
CONTINUOUS
 62
     3
100
AcDbCircle
 10
81.09075018569993
 20
15.17758712547744
 30
0.0
 40
0.871709372588669
100
AcDbArc
 50
164.8589457925044
 51
187.8495628504518
  0
ARC
  5
2E0
330
1F
100
AcDbEntity
  8
0
  6
CONTINUOUS
 62
     3
100
AcDbCircle
 10
81.009153329155
 20
15.14015021572864
 30
0.0
 40
0.78619234712629
100
AcDbArc
 50
185.9586126338419
 51
224.0091989319859
  0
ARC
  5
2E1
330
1F
100
AcDbEntity
  8
0
  6
CONTINUOUS
 62
     3
100
AcDbCircle
 10
81.04562953036887
 20
15.18111104772596
 30
0.0
 40
0.840895657756366
100
AcDbArc
 50
224.289750990011
 51
255.6505938786759
  0
ARC
  5
2E2
330
1F
100
AcDbEntity
  8
0
  6
CONTINUOUS
 62
     3
100
AcDbCircle
 10
81.02928130736754
 20
14.96963494387411
 30
0.0
 40
0.633022832091786
100
AcDbArc
 50
252.3384873625213
 51
268.8069976857606
  0
LINE
  5
2E3
330
1F
100
AcDbEntity
  8
0
  6
CONTINUOUS
 62
     3
100
AcDbLine
 10
81.01610157332496
 20
14.33674932975408
 30
0.0
 11
81.29015157332506
 21
14.33674932975408
 31
0.0
  0
ARC
  5
2E4
330
1F
100
AcDbEntity
  8
0
  6
CONTINUOUS
 62
     3
100
AcDbCircle
 10
81.1661304586701
 20
15.69534026256828
 30
0.0
 40
1.364239920103932
100
AcDbArc
 50
275.2158792069686
 51
319.2336424873511
  0
ARC
  5
2E5
330
1F
100
AcDbEntity
  8
0
  6
CONTINUOUS
 62
     3
100
AcDbCircle
 10
82.68315560558315
 20
14.8649259426573
 30
0.0
 40
0.487535134009722
100
AcDbArc
 50
187.1167640402297
 51
216.4860549324747
  0
ARC
  5
2E6
330
1F
100
AcDbEntity
  8
0
  6
CONTINUOUS
 62
     3
100
AcDbCircle
 10
82.62937735081462
 20
14.8336745652863
 30
0.0
 40
0.425769550620398
100
AcDbArc
 50
217.4081478714985
 51
264.8118660441384
  0
ARC
  5
2E7
330
1F
100
AcDbEntity
  8
0
  6
CONTINUOUS
 62
     3
100
AcDbCircle
 10
82.78995891945593
 20
15.26464512823032
 30
0.0
 40
0.856540620020894
100
AcDbArc
 50
271.2220539293239
 51
292.8159509797653
  0
LINE
  5
2E8
330
1F
100
AcDbEntity
  8
0
  6
CONTINUOUS
 62
     3
100
AcDbLine
 10
82.59087657332506
 20
14.40964932975409
 30
0.0
 11
82.80822657332502
 21
14.40964932975409
 31
0.0
  0
LINE
  5
2E9
330
1F
100
AcDbEntity
  8
0
  6
CONTINUOUS
 62
     3
100
AcDbLine
 10
83.12210157332501
 20
14.47512432975408
 30
0.0
 11
83.12210157332501
 21
14.63239932975405
 31
0.0
  0
ARC
  5
2EA
330
1F
100
AcDbEntity
  8
0
  6
CONTINUOUS
 62
     3
100
AcDbCircle
 10
82.9824207845796
 20
14.9006118874109
 30
0.0
 40
0.30240485913648
100
AcDbArc
 50
243.6191685566582
 51
297.5097757939563
  0
ARC
  5
2EB
330
1F
100
AcDbEntity
  8
0
  6
CONTINUOUS
 62
     3
100
AcDbCircle
 10
83.01823989446038
 20
14.88302928780474
 30
0.0
 40
0.305188683107389
100
AcDbArc
 50
179.9117548191414
 51
236.1065985968857
  0
ARC
  5
2EC
330
1F
100
AcDbEntity
  8
0
  6
CONTINUOUS
 62
     3
100
AcDbCircle
 10
128.065013583871
 20
15.39323843931733
 30
0.0
 40
45.35482655865662
100
AcDbArc
 50
178.2526643324597
 51
180.6439560401927
  0
ARC
  5
2ED
330
1F
100
AcDbEntity
  8
0
  6
CONTINUOUS
 62
     3
100
AcDbCircle
 10
81.70706272602794
 20
16.70191625973315
 30
0.0
 40
1.02690407511459
100
AcDbArc
 50
4.148222840814693
 51
92.36000944257292
  0
ARC
  5
2EE
330
1F
100
AcDbEntity
  8
0
  6
CONTINUOUS
 62
     3
100
AcDbCircle
 10
81.62685324125525
 20
15.96167288926888
 30
0.0
 40
1.766683515327064
100
AcDbArc
 50
88.77000393305703
 51
128.9068631829044
  0
TEXT
  5
2F0
330
1F
100
AcDbEntity
  8
0
  6
CONTINUOUS
 62
     2
100
AcDbText
 10
92.80000000000027
 20
13.85000000000003
 30
0.0
 40
3.375
  1
ジャニス工業株式会社
 41
1.025641025641026
  7
EXCADTTF1
 72
     5
 11
137.8000000000003
 21
13.85000000000003
 31
0.0
100
AcDbText
  0
HATCH
  5
2F1
330
1F
100
AcDbEntity
  8
0
  6
CONTINUOUS
 62
     3
100
AcDbHatch
 10
0.0
 20
0.0
 30
0.0
210
0.0
220
0.0
230
1.0
  2
SOLID
 70
     1
 71
     1
 91
        2
 92
        3
 72
     1
 73
     1
 93
       27
 10
80.517276573325
 20
17.3364493297541
 42
-0.1769427732109284
 10
80.51727657332506
 20
17.3364493297541
 42
0.0
 10
80.51727657332506
 20
16.97194932975408
 42
0.0
 10
80.60502657332506
 20
16.97194932975404
 42
-0.207533601427307
 10
81.17474227895704
 20
17.39932359129048
 42
-0.1226604740888933
 10
81.67827657332505
 20
17.41002432975408
 42
-0.3213715781137954
 10
82.19883280222088
 20
16.77106514378476
 42
-0.064704004662446
 10
82.20140157332501
 20
16.43329932975406
 42
-0.257798906330806
 10
82.09542657332507
 20
16.30504932975406
 42
-0.056602577721096
 10
81.86862657332505
 20
16.22607432975409
 42
-0.0166741689362636
 10
81.03702657332501
 20
16.06812432975407
 42
0.1186092302783404
 10
80.48825157332503
 20
15.80487432975407
 42
0.1699204224386695
 10
80.24930157332504
 20
15.40527432975406
 42
0.1006533494296199
 10
80.22720866795818
 20
15.05853555095727
 42
0.1675695228968024
 10
80.44370157332509
 20
14.59392432975407
 42
0.1376980079804242
 10
80.83722657332497
 20
14.36644932975409
 42
0.0719813663796923
 10
81.01610157332496
 20
14.33674932975408
 42
0.0
 10
81.29015157332506
 20
14.33674932975409
 42
0.1944607457809085
 10
82.19937657332507
 20
14.80452432975407
 42
0.1288538183665954
 10
82.29117657332498
 20
14.57502432975404
 42
0.2098387395261546
 10
82.59087657332506
 20
14.40964932975409
 42
0.0
 10
82.80822657332506
 20
14.40829932975409
 42
0.0945009641609563
 10
83.12210157332501
 20
14.47512432975408
 42
0.0
 10
83.122101573325
 20
14.63239932975407
 42
-0.2395739894657535
 10
82.84805157332507
 20
14.62969932975405
 42
-0.2502312110031057
 10
82.713051573325
 20
14.88349932975414
 42
-0.0104343570771765
 10
82.73127657332509
 20
16.77619932975406
 42
0.4051015674140716
 97
        0
 92
        3
 72
     1
 73
     1
 93
        8
 10
82.213551573325
 20
16.10254932975406
 42
-0.0339435190873666
 10
82.21355157332528
 20
16.10254932975294
 42
-0.0001110072973599
 10
82.18520157332507
 20
15.06844932975405
 42
-0.2253076310552528
 10
81.47645157332502
 20
14.5952743297541
 42
0.0
 10
81.30297657332495
 20
14.5952743297541
 42
-0.3657967558150132
 10
80.78727657332499
 20
15.14337432975408
 42
0.0
 10
80.78727657332507
 20
15.33912432975409
 42
-0.2530797830369341
 10
81.13557657332504
 20
15.82107432975406
 42
-0.0724473624720066
 97
        0
 75
     0
 76
     1
 98
        1
 10
0.0
 20
0.0
  0
HATCH
  5
2F2
330
1F
100
AcDbEntity
  8
0
  6
CONTINUOUS
 62
     3
100
AcDbHatch
 10
0.0
 20
0.0
 30
0.0
210
0.0
220
0.0
230
1.0
  2
SOLID
 70
     1
 71
     1
 91
        1
 92
        3
 72
     1
 73
     1
 93
       30
 10
91.27340157332496
 20
17.53354932975412
 42
-0.0009362235736497
 10
91.27340157332497
 20
17.53354932975407
 42
0.0681165430304653
 10
91.10970934867314
 20
17.04282432975408
 42
0.0
 10
90.49310157332505
 20
17.46469932975409
 42
-0.302112590907374
 10
90.49310157332505
 20
17.46469932975408
 42
0.0
 10
89.871426573325
 20
16.98814932975408
 42
-0.3704245237568778
 10
89.87142657332495
 20
16.98814932975405
 42
0.0
 10
89.90382657332503
 20
16.66954932975407
 42
-0.0262822419456939
 10
90.28722657332503
 20
16.36309932975405
 42
-0.180060563604375
 10
90.89877657332504
 20
16.17679932975409
 42
-0.0298130817160724
 10
90.89877657332501
 20
16.17679932975405
 42
-0.3153987453686078
 10
91.46240157332508
 20
15.53217432975408
 42
0.0
 10
91.45902657332508
 20
15.24394932975405
 42
-0.3510306079065168
 10
90.37227657332502
 20
14.33269932975407
 42
0.0
 10
90.05502657332495
 20
14.33269932975405
 42
-0.1053356344842436
 10
89.35302657332501
 20
14.53519932975408
 42
0.1188608286962634
 10
89.481276573325
 20
15.04819932975409
 42
0.0
 10
90.25077657332504
 20
14.57569932975408
 42
-0.2447573632916039
 10
90.250776573325
 20
14.57569932975407
 42
0.0
 10
90.99327657332503
 20
15.09544932975409
 42
-0.3734162676407277
 10
90.99327657332506
 20
15.09544932975406
 42
0.0
 10
90.72395157332505
 20
15.61452432975409
 42
-0.261219770190848
 10
90.09552657332496
 20
15.84267432975409
 42
-0.0572747914118363
 10
90.09552657332506
 20
15.84267432975408
 42
-0.1189658875692221
 10
89.59602657332499
 20
16.13562432975408
 42
-0.2005226878639636
 10
89.38677657332497
 20
16.60744932975627
 42
0.0
 10
89.38340157332503
 20
16.78632432975404
 42
-0.2622894489606957
 10
89.92002657332506
 20
17.6064493297541
 42
-0.0988461274137808
 10
90.42222657332505
 20
17.72727432975405
 42
0.0
 10
90.60852657332498
 20
17.72727432975409
 42
-0.0920156312561188
 97
        0
 75
     0
 76
     1
 98
        1
 10
0.0
 20
0.0
  0
HATCH
  5
2F3
330
1F
100
AcDbEntity
  8
0
  6
CONTINUOUS
 62
     3
100
AcDbHatch
 10
0.0
 20
0.0
 30
0.0
210
0.0
220
0.0
230
1.0
  2
SOLID
 70
     1
 71
     1
 91
        2
 92
        1
 93
        1
 72
     2
 10
88.12855140383354
 20
18.8583546687371
 40
0.3572334466769884
 50
0.0
 51
360.0
 73
     1
 97
        0
 92
        3
 72
     1
 73
     1
 93
        3
 10
87.80930157332499
 20
17.66989932975406
 42
0.1200283885712921
 10
88.430301573325
 20
14.40627432975403
 42
-0.0401820615762149
 10
87.80997657332499
 20
14.40424932975407
 42
-0.0237521668114666
 97
        0
 75
     0
 76
     1
 98
        1
 10
0.0
 20
0.0
  0
HATCH
  5
2F4
330
1F
100
AcDbEntity
  8
0
  6
CONTINUOUS
 62
     3
100
AcDbHatch
 10
0.0
 20
0.0
 30
0.0
210
0.0
220
0.0
230
1.0
  2
SOLID
 70
     1
 71
     1
 91
        1
 92
        3
 72
     1
 73
     1
 93
       16
 10
83.88687657332501
 20
14.41032432975406
 42
-0.0386228372648426
 10
83.880801573325
 20
17.66449932975407
 42
-0.0398707891902887
 10
84.47142657332503
 20
17.66719932975408
 42
-0.1256886216044368
 10
84.44442657332503
 20
17.11504932975407
 42
-0.0367815758121429
 10
84.44442657332503
 20
17.11504932975405
 42
-0.268021535028829
 10
85.63580157332507
 20
17.73334932975407
 42
-0.2571134422124888
 10
86.45052657332496
 20
17.3303743297541
 42
-0.1522526366014298
 10
86.65775157332502
 20
16.66009932975406
 42
-0.0158825412051521
 10
86.64290157332499
 20
14.40694932975406
 42
-0.0285251271418421
 10
86.07252657332506
 20
14.40694932975406
 42
-0.0452212723224612
 10
86.10155157332503
 20
16.48864932975409
 42
-0.0315567291532142
 10
85.924701573325
 20
17.10357432975409
 42
-0.1476272403790709
 10
84.77315157332501
 20
17.19199932975405
 42
-0.3908144705745794
 10
84.448476573325
 20
16.38402432975404
 42
-0.2046259928850854
 10
84.448476573325
 20
16.38402432975409
 42
0.0
 10
84.49910157332509
 20
14.40492432975408
 42
-0.0304995761723369
 97
        0
 75
     0
 76
     1
 98
        1
 10
0.0
 20
0.0
  0
HATCH
  5
2F5
330
1F
100
AcDbEntity
  8
0
  6
CONTINUOUS
 62
     3
100
AcDbHatch
 10
0.0
 20
0.0
 30
0.0
210
0.0
220
0.0
230
1.0
  2
SOLID
 70
     1
 71
     1
 91
        1
 92
        3
 72
     1
 73
     1
 93
       10
 10
77.97252657332503
 20
14.52169932975406
 42
-0.017362223501556
 10
77.98130157332504
 20
19.8184243297541
 42
-0.0267627618865285
 10
77.981301573325
 20
19.81842432975408
 42
0.0737939047395297
 10
79.27325157332503
 20
19.823824329754
 42
0.0183878899657109
 10
79.22127657332506
 20
15.04819932975405
 42
-0.1144749489451909
 10
79.01202657332497
 20
14.04244932975405
 42
-0.1929163439413163
 10
78.01640157332508
 20
13.26079932975405
 42
-0.0603888289562337
 10
77.488551573325
 20
13.12917432975406
 42
0.0
 10
77.36502657332497
 20
13.50514932975405
 42
0.0860918333465722
 10
77.73425157332503
 20
13.70157432975406
 42
0.1331843103855141
 97
        0
 75
     0
 76
     1
 98
        1
 10
0.0
 20
0.0
  0
TEXT
  5
2F6
330
1F
100
AcDbEntity
  8
0
  6
CONTINUOUS
 62
     7
100
AcDbText
 10
145.325
 20
13.075
 30
0.0
 40
7.0
  1
Ｕ０１０１３９０
 41
1.127659574468085
  7
EXCADSTD
 72
     5
 11
198.325
 21
13.075
 31
0.0
100
AcDbText
  0
LINE
  5
2F7
330
1F
100
AcDbEntity
  8
0
  6
CONTINUOUS
 62
     7
100
AcDbLine
 10
17.90000000000003
 20
11.5
 30
0.0
 11
199.9
 21
11.5
 31
0.0
  0
LINE
  5
2F8
330
1F
100
AcDbEntity
  8
0
  6
EXLTYPE2
 62
     6
100
AcDbLine
 10
17.90000000000003
 20
16.5
 30
0.0
 11
48.90000000000003
 21
16.5
 31
0.0
  0
LINE
  5
2F9
330
1F
100
AcDbEntity
  8
枠
  6
CONTINUOUS
 62
     7
100
AcDbLine
 10
179.0
 20
115.0
 30
0.0
 11
179.0
 21
2915.0
 31
0.0
  0
LINE
  5
2FA
330
1F
100
AcDbEntity
  8
0
  6
CONTINUOUS
 62
     7
100
AcDbLine
 10
17.90000000000003
 20
33.5
 30
0.0
 11
199.9
 21
33.5
 31
0.0
  0
LINE
  5
2FB
330
1F
100
AcDbEntity
  8
枠
  6
CONTINUOUS
 62
     7
100
AcDbLine
 10
1999.0
 20
115.0
 30
0.0
 11
1999.0
 21
2915.0
 31
0.0
  0
LINE
  5
2FC
330
1F
100
AcDbEntity
  8
枠
  6
CONTINUOUS
 62
     7
100
AcDbLine
 10
179.0
 20
2915.0
 30
0.0
 11
1999.0
 21
2915.0
 31
0.0
  0
LINE
  5
2FD
330
1F
100
AcDbEntity
  8
枠
  6
EXLTYPE2
 62
     6
100
AcDbLine
 10
169.0
 20
1515.0
 30
0.0
 11
-21.00000000000001
 21
1515.0
 31
0.0
  0
LINE
  5
2FE
330
1F
100
AcDbEntity
  8
器具明細表
  6
CONTINUOUS
 62
     6
100
AcDbLine
 10
1249.0
 20
2465.0
 30
0.0
 11
1949.0
 21
2465.0
 31
0.0
  0
LINE
  5
2FF
330
1F
100
AcDbEntity
  8
器具明細表
  6
CONTINUOUS
 62
     6
100
AcDbLine
 10
1249.0
 20
2530.0
 30
0.0
 11
1949.0
 21
2530.0
 31
0.0
  0
LINE
  5
300
330
1F
100
AcDbEntity
  8
器具明細表
  6
CONTINUOUS
 62
     6
100
AcDbLine
 10
1249.0
 20
2595.0
 30
0.0
 11
1949.0
 21
2595.0
 31
0.0
  0
LINE
  5
301
330
1F
100
AcDbEntity
  8
器具明細表
  6
CONTINUOUS
 62
     6
100
AcDbLine
 10
1249.0
 20
2400.0003052
 30
0.0
 11
1949.0
 21
2400.0003052
 31
0.0
  0
LINE
  5
302
330
1F
100
AcDbEntity
  8
器具明細表
  6
CONTINUOUS
 62
     6
100
AcDbLine
 10
1249.0
 20
2335.0006104
 30
0.0
 11
1949.0
 21
2335.0006104
 31
0.0
  0
LINE
  5
303
330
1F
100
AcDbEntity
  8
器具明細表
  6
CONTINUOUS
 62
     6
100
AcDbLine
 10
1579.0
 20
2595.0
 30
0.0
 11
1579.0
 21
2335.0006104
 31
0.0
  0
LINE
  5
304
330
1F
100
AcDbEntity
  8
器具明細表
  6
CONTINUOUS
 62
     6
100
AcDbLine
 10
1859.0
 20
2595.0
 30
0.0
 11
1859.0
 21
2335.0006104
 31
0.0
  0
LINE
  5
305
330
1F
100
AcDbEntity
  8
器具明細表
  6
CONTINUOUS
 62
     6
100
AcDbLine
 10
1949.0
 20
2595.0
 30
0.0
 11
1949.0
 21
2335.0006104
 31
0.0
  0
LINE
  5
306
330
1F
100
AcDbEntity
  8
器具明細表
  6
CONTINUOUS
 62
     6
100
AcDbLine
 10
1249.0
 20
2595.0
 30
0.0
 11
1249.0
 21
2335.0006104
 31
0.0
  0
ARC
  5
307
330
1F
100
AcDbEntity
  8
スト_ル
  6
CONTINUOUS
 62
     6
100
AcDbCircle
 10
586.3294877500002
 20
2418.5746565602
 30
0.0
 40
8.000001900000004
100
AcDbArc
 50
179.4027557400027
 51
0.5972442596757592
  0
ARC
  5
308
330
1F
100
AcDbEntity
  8
スト_ル
  6
CONTINUOUS
 62
     6
100
AcDbCircle
 10
579.3295182500001
 20
2461.4332380602
 30
0.0
 40
10.0
100
AcDbArc
 50
0.0
 51
45.57337951999885
  0
ARC
  5
309
330
1F
100
AcDbEntity
  8
スト_ル
  6
CONTINUOUS
 62
     6
100
AcDbCircle
 10
593.3294571500003
 20
2461.4332380602
 30
0.0
 40
10.0
100
AcDbArc
 50
134.4266204800012
 51
180.0
  0
LINE
  5
30A
330
1F
100
AcDbEntity
  8
スト_ル
  6
CONTINUOUS
 62
     6
100
AcDbLine
 10
589.3295182500001
 20
2433.6580461
 30
0.0
 11
589.3295182500001
 21
2461.4332380602
 31
0.0
  0
LINE
  5
30B
330
1F
100
AcDbEntity
  8
スト_ル
  6
CONTINUOUS
 62
     6
100
AcDbLine
 10
583.3294571500003
 20
2433.6580461
 30
0.0
 11
583.3294571500003
 21
2461.4332380602
 31
0.0
  0
LINE
  5
30C
330
1F
100
AcDbEntity
  8
スト_ル
  6
CONTINUOUS
 62
     6
100
AcDbLine
 10
580.8294571500003
 20
2438.5746565602
 30
0.0
 11
589.3295182500001
 21
2438.5746565602
 31
0.0
  0
LINE
  5
30D
330
1F
100
AcDbEntity
  8
スト_ル
  6
CONTINUOUS
 62
     6
100
AcDbLine
 10
580.8294571500003
 20
2433.6580461
 30
0.0
 11
580.8294571500003
 21
2461.4332380602
 31
0.0
  0
ARC
  5
30E
330
1F
100
AcDbEntity
  8
スト_ル
  6
CONTINUOUS
 62
     6
100
AcDbCircle
 10
590.8294571500003
 20
2461.4332380602
 30
0.0
 40
10.0
100
AcDbArc
 50
134.4266204800012
 51
180.0
  0
ARC
  5
30F
330
1F
100
AcDbEntity
  8
スト_ル
  6
CONTINUOUS
 62
     6
100
AcDbCircle
 10
576.8295182500001
 20
2461.4332380602
 30
0.0
 40
10.0
100
AcDbArc
 50
34.41181839862822
 51
45.57337951999885
  0
ARC
  5
310
330
1F
100
AcDbEntity
  8
スト_ル
  6
CONTINUOUS
 62
     6
100
AcDbCircle
 10
711.3294876499998
 20
2418.5746565602
 30
0.0
 40
8.000001900000004
100
AcDbArc
 50
179.4027557403242
 51
0.5972442599973605
  0
ARC
  5
311
330
1F
100
AcDbEntity
  8
スト_ル
  6
CONTINUOUS
 62
     6
100
AcDbCircle
 10
718.3294571499999
 20
2461.4332380602
 30
0.0
 40
10.0
100
AcDbArc
 50
134.4266204800012
 51
180.0
  0
ARC
  5
312
330
1F
100
AcDbEntity
  8
スト_ル
  6
CONTINUOUS
 62
     6
100
AcDbCircle
 10
704.3295182499998
 20
2461.4332380602
 30
0.0
 40
10.0
100
AcDbArc
 50
0.0
 51
45.57337951999885
  0
LINE
  5
313
330
1F
100
AcDbEntity
  8
スト_ル
  6
CONTINUOUS
 62
     6
100
AcDbLine
 10
708.3294571499999
 20
2433.6580461
 30
0.0
 11
708.3294571499999
 21
2461.4332380602
 31
0.0
  0
LINE
  5
314
330
1F
100
AcDbEntity
  8
スト_ル
  6
CONTINUOUS
 62
     6
100
AcDbLine
 10
714.3295182499998
 20
2433.6580461
 30
0.0
 11
714.3295182499998
 21
2461.4332380602
 31
0.0
  0
LINE
  5
315
330
1F
100
AcDbEntity
  8
スト_ル
  6
CONTINUOUS
 62
     6
100
AcDbLine
 10
716.8295182499998
 20
2438.5746565602
 30
0.0
 11
708.3294571499999
 21
2438.5746565602
 31
0.0
  0
LINE
  5
316
330
1F
100
AcDbEntity
  8
スト_ル
  6
CONTINUOUS
 62
     6
100
AcDbLine
 10
716.8295182499998
 20
2433.6580461
 30
0.0
 11
716.8295182499998
 21
2461.4332380602
 31
0.0
  0
ARC
  5
317
330
1F
100
AcDbEntity
  8
スト_ル
  6
CONTINUOUS
 62
     6
100
AcDbCircle
 10
706.8295182499998
 20
2461.4332380602
 30
0.0
 40
10.0
100
AcDbArc
 50
0.0
 51
45.57337951999885
  0
ARC
  5
318
330
1F
100
AcDbEntity
  8
スト_ル
  6
CONTINUOUS
 62
     6
100
AcDbCircle
 10
720.8294571499999
 20
2461.4332380602
 30
0.0
 40
10.0
100
AcDbArc
 50
134.4266204800012
 51
145.5881816013715
  0
CIRCLE
  5
319
330
1F
100
AcDbEntity
  8
スト_ル
  6
CONTINUOUS
 62
     6
100
AcDbCircle
 10
586.3294877000001
 20
1586.33649207279
 30
0.0
 40
8.000001900000004
  0
CIRCLE
  5
31A
330
1F
100
AcDbEntity
  8
スト_ル
  6
CONTINUOUS
 62
     6
100
AcDbCircle
 10
711.3294876999998
 20
1586.33649207279
 30
0.0
 40
8.000001900000004
  0
CIRCLE
  5
31B
330
1F
100
AcDbEntity
  8
スト_ル
  6
CONTINUOUS
 62
     6
100
AcDbCircle
 10
583.8294877000001
 20
936.3421170925701
 30
0.0
 40
8.000001900000004
  0
CIRCLE
  5
31C
330
1F
100
AcDbEntity
  8
スト_ル
  6
CONTINUOUS
 62
     6
100
AcDbCircle
 10
713.8294876999998
 20
936.3421170925701
 30
0.0
 40
8.000001900000004
  0
LINE
  5
31D
330
1F
100
AcDbEntity
  8
0
  6
CONTINUOUS
 62
     6
100
AcDbLine
 10
33.40000000000003
 20
33.5
 30
0.0
 11
33.40000000000003
 21
11.5
 31
0.0
  0
LINE
  5
31E
330
1F
100
AcDbEntity
  8
0
  6
CONTINUOUS
 62
     6
100
AcDbLine
 10
17.90000000000003
 20
28.5
 30
0.0
 11
74.90000000000003
 21
28.5
 31
0.0
  0
CIRCLE
  5
31F
330
1F
100
AcDbEntity
  8
0
  6
CONTINUOUS
 62
     6
100
AcDbCircle
 10
22.90000000000003
 20
14.0
 30
0.0
 40
0.10000002
  0
CIRCLE
  5
320
330
1F
100
AcDbEntity
  8
0
  6
CONTINUOUS
 62
     6
100
AcDbCircle
 10
27.90000000000003
 20
14.0
 30
0.0
 40
0.10000002
  0
CIRCLE
  5
321
330
1F
100
AcDbEntity
  8
0
  6
CONTINUOUS
 62
     6
100
AcDbCircle
 10
38.40000000000003
 20
14.0
 30
0.0
 40
0.10000002
  0
CIRCLE
  5
322
330
1F
100
AcDbEntity
  8
0
  6
CONTINUOUS
 62
     6
100
AcDbCircle
 10
43.40000000000003
 20
14.0
 30
0.0
 40
0.10000002
  0
LINE
  5
323
330
1F
100
AcDbEntity
  8
0
  6
CONTINUOUS
 62
     6
100
AcDbLine
 10
48.90000000000003
 20
33.5
 30
0.0
 11
48.90000000000003
 21
11.5
 31
0.0
  0
LINE
  5
324
330
1F
100
AcDbEntity
  8
0
  6
CONTINUOUS
 62
     6
100
AcDbLine
 10
61.90000000000003
 20
33.5
 30
0.0
 11
61.90000000000003
 21
11.5
 31
0.0
  0
LINE
  5
325
330
1F
100
AcDbEntity
  8
0
  6
CONTINUOUS
 62
     6
100
AcDbLine
 10
74.90000000000003
 20
33.5
 30
0.0
 11
74.90000000000003
 21
11.5
 31
0.0
  0
LINE
  5
326
330
1F
100
AcDbEntity
  8
0
  6
CONTINUOUS
 62
     6
100
AcDbLine
 10
199.9
 20
21.5
 30
0.0
 11
74.90000000000003
 21
21.5
 31
0.0
  0
LINE
  5
327
330
1F
100
AcDbEntity
  8
0
  6
CONTINUOUS
 62
     6
100
AcDbLine
 10
79.90000000000003
 20
33.5
 30
0.0
 11
79.90000000000003
 21
21.5
 31
0.0
  0
LINE
  5
328
330
1F
100
AcDbEntity
  8
0
  6
CONTINUOUS
 62
     6
100
AcDbLine
 10
138.9
 20
33.5
 30
0.0
 11
138.9
 21
11.5
 31
0.0
  0
LINE
  5
329
330
1F
100
AcDbEntity
  8
0
  6
CONTINUOUS
 62
     6
100
AcDbLine
 10
143.9
 20
33.5
 30
0.0
 11
143.9
 21
11.5
 31
0.0
  0
LINE
  5
32A
330
1F
100
AcDbEntity
  8
0
  6
CONTINUOUS
 62
     6
100
AcDbLine
 10
180.9
 20
33.5
 30
0.0
 11
180.9
 21
21.5
 31
0.0
  0
LINE
  5
32B
330
1F
100
AcDbEntity
  8
0
  6
CONTINUOUS
 62
     6
100
AcDbLine
 10
185.9
 20
33.5
 30
0.0
 11
185.9
 21
21.5
 31
0.0
  0
LINE
  5
32C
330
1F
100
AcDbEntity
  8
0
  6
CONTINUOUS
 62
     6
100
AcDbLine
 10
189.16538086
 20
23.80029297
 30
0.0
 11
196.89938965
 21
31.66998291
 31
0.0
  0
LINE
  5
32D
330
1F
100
AcDbEntity
  8
スト_ル
  6
CONTINUOUS
 62
     6
100
AcDbLine
 10
1683.8809547
 20
938.3421170925702
 30
0.0
 11
1683.8809547
 21
931.3421170925703
 31
0.0
  0
LINE
  5
32E
330
1F
100
AcDbEntity
  8
スト_ル
  6
CONTINUOUS
 62
     6
100
AcDbLine
 10
1690.8809547
 20
938.3421170925702
 30
0.0
 11
1690.8809547
 21
931.3421170925703
 31
0.0
  0
LINE
  5
32F
330
1F
100
AcDbEntity
  8
スト_ル
  6
CONTINUOUS
 62
     6
100
AcDbLine
 10
1695.380954699999
 20
938.3421170925702
 30
0.0
 11
1695.380954699999
 21
931.3421170925703
 31
0.0
  0
LINE
  5
330
330
1F
100
AcDbEntity
  8
スト_ル
  6
CONTINUOUS
 62
     6
100
AcDbLine
 10
1702.38095469999
 20
938.3421170925702
 30
0.0
 11
1702.38095469999
 21
931.3421170925703
 31
0.0
  0
LINE
  5
331
330
1F
100
AcDbEntity
  8
スト_ル
  6
CONTINUOUS
 62
     6
100
AcDbLine
 10
1706.8809547
 20
938.3421170925702
 30
0.0
 11
1706.8809547
 21
931.3421170925703
 31
0.0
  0
LINE
  5
332
330
1F
100
AcDbEntity
  8
スト_ル
  6
CONTINUOUS
 62
     6
100
AcDbLine
 10
1737.880954699999
 20
938.3421170925702
 30
0.0
 11
1737.880954699999
 21
931.3421170925703
 31
0.0
  0
LINE
  5
333
330
1F
100
AcDbEntity
  8
スト_ル
  6
CONTINUOUS
 62
     6
100
AcDbLine
 10
1730.8809547
 20
938.3421170925702
 30
0.0
 11
1730.8809547
 21
931.3421170925703
 31
0.0
  0
LINE
  5
334
330
1F
100
AcDbEntity
  8
スト_ル
  6
CONTINUOUS
 62
     6
100
AcDbLine
 10
1726.3809547
 20
938.3421170925702
 30
0.0
 11
1726.3809547
 21
931.3421170925703
 31
0.0
  0
LINE
  5
335
330
1F
100
AcDbEntity
  8
スト_ル
  6
CONTINUOUS
 62
     6
100
AcDbLine
 10
1719.380954700009
 20
938.3421170925702
 30
0.0
 11
1719.380954700009
 21
931.3421170925703
 31
0.0
  0
LINE
  5
336
330
1F
100
AcDbEntity
  8
スト_ル
  6
CONTINUOUS
 62
     6
100
AcDbLine
 10
1714.8809547
 20
938.3421170925702
 30
0.0
 11
1714.8809547
 21
931.3421170925703
 31
0.0
  0
LINE
  5
337
330
1F
100
AcDbEntity
  8
スト_ル
  6
CONTINUOUS
 62
     6
100
AcDbLine
 10
1742.3809547
 20
937.3421170925702
 30
0.0
 11
1742.3809547
 21
932.3421170925702
 31
0.0
  0
ARC
  5
338
330
1F
100
AcDbEntity
  8
スト_ル
  6
CONTINUOUS
 62
     6
100
AcDbCircle
 10
1741.3809547
 20
937.3421170925702
 30
0.0
 40
1.0
100
AcDbArc
 50
0.0
 51
90.00000000000001
  0
LINE
  5
339
330
1F
100
AcDbEntity
  8
スト_ル
  6
CONTINUOUS
 62
     6
100
AcDbLine
 10
1680.380954699999
 20
938.3421170925702
 30
0.0
 11
1741.3809547
 21
938.3421170925702
 31
0.0
  0
ARC
  5
33A
330
1F
100
AcDbEntity
  8
スト_ル
  6
CONTINUOUS
 62
     6
100
AcDbCircle
 10
1680.380954699999
 20
937.3421170925702
 30
0.0
 40
1.0
100
AcDbArc
 50
90.00000000000001
 51
180.0
  0
LINE
  5
33B
330
1F
100
AcDbEntity
  8
スト_ル
  6
CONTINUOUS
 62
     6
100
AcDbLine
 10
1679.3809547
 20
937.3421170925702
 30
0.0
 11
1679.3809547
 21
932.3421170925702
 31
0.0
  0
ARC
  5
33C
330
1F
100
AcDbEntity
  8
スト_ル
  6
CONTINUOUS
 62
     6
100
AcDbCircle
 10
1680.380954699999
 20
932.3421170925702
 30
0.0
 40
1.0
100
AcDbArc
 50
180.0
 51
270.0000000000002
  0
LINE
  5
33D
330
1F
100
AcDbEntity
  8
スト_ル
  6
CONTINUOUS
 62
     6
100
AcDbLine
 10
1680.380954699999
 20
931.3421170925703
 30
0.0
 11
1741.3809547
 21
931.3421170925703
 31
0.0
  0
ARC
  5
33E
330
1F
100
AcDbEntity
  8
スト_ル
  6
CONTINUOUS
 62
     6
100
AcDbCircle
 10
1741.3809547
 20
932.3421170925702
 30
0.0
 40
1.0
100
AcDbArc
 50
270.0000000000002
 51
0.0
  0
POLYLINE
  5
33F
330
1F
100
AcDbEntity
  8
スト_ル
  6
CONTINUOUS
 62
     6
100
AcDb2dPolyline
 66
     1
 10
0.0
 20
0.0
 30
0.0
 70
   128
  0
VERTEX
  5
340
330
33F
100
AcDbEntity
  8
スト_ル
  6
CONTINUOUS
 62
     6
100
AcDbVertex
100
AcDb2dVertex
 10
1661.4294069234
 20
940.8363415450999
 30
0.0
  0
VERTEX
  5
341
330
33F
100
AcDbEntity
  8
スト_ル
  6
CONTINUOUS
 62
     6
100
AcDbVertex
100
AcDb2dVertex
 10
1661.534581794184
 20
940.9028139698578
 30
0.0
  0
VERTEX
  5
342
330
33F
100
AcDbEntity
  8
スト_ル
  6
CONTINUOUS
 62
     6
100
AcDbVertex
100
AcDb2dVertex
 10
1661.832439466645
 20
941.0911582311554
 30
0.0
  0
VERTEX
  5
343
330
33F
100
AcDbEntity
  8
スト_ル
  6
CONTINUOUS
 62
     6
100
AcDbVertex
100
AcDb2dVertex
 10
1662.29647953095
 20
941.3847648095282
 30
0.0
  0
VERTEX
  5
344
330
33F
100
AcDbEntity
  8
スト_ル
  6
CONTINUOUS
 62
     6
100
AcDbVertex
100
AcDb2dVertex
 10
1662.900201577262
 20
941.7670241855117
 30
0.0
  0
VERTEX
  5
345
330
33F
100
AcDbEntity
  8
スト_ル
  6
CONTINUOUS
 62
     6
100
AcDbVertex
100
AcDb2dVertex
 10
1663.617105195747
 20
942.2213268396412
 30
0.0
  0
VERTEX
  5
346
330
33F
100
AcDbEntity
  8
スト_ル
  6
CONTINUOUS
 62
     6
100
AcDbVertex
100
AcDb2dVertex
 10
1664.420689976568
 20
942.7310632524529
 30
0.0
  0
VERTEX
  5
347
330
33F
100
AcDbEntity
  8
スト_ル
  6
CONTINUOUS
 62
     6
100
AcDbVertex
100
AcDb2dVertex
 10
1665.284455509891
 20
943.2796239044815
 30
0.0
  0
VERTEX
  5
348
330
33F
100
AcDbEntity
  8
スト_ル
  6
CONTINUOUS
 62
     6
100
AcDbVertex
100
AcDb2dVertex
 10
1666.181901385882
 20
943.850399276263
 30
0.0
  0
VERTEX
  5
349
330
33F
100
AcDbEntity
  8
スト_ル
  6
CONTINUOUS
 62
     6
100
AcDbVertex
100
AcDb2dVertex
 10
1667.086527194703
 20
944.4267798483328
 30
0.0
  0
VERTEX
  5
34A
330
33F
100
AcDbEntity
  8
スト_ル
  6
CONTINUOUS
 62
     6
100
AcDbVertex
100
AcDb2dVertex
 10
1667.971832526521
 20
944.9921561012267
 30
0.0
  0
VERTEX
  5
34B
330
33F
100
AcDbEntity
  8
スト_ル
  6
CONTINUOUS
 62
     6
100
AcDbVertex
100
AcDb2dVertex
 10
1668.8113169715
 20
945.52991851548
 30
0.0
  0
VERTEX
  5
34C
330
33F
100
AcDbEntity
  8
スト_ル
  6
CONTINUOUS
 62
     6
100
AcDbVertex
100
AcDb2dVertex
 10
1669.288196475437
 20
945.836338186768
 30
0.0
  0
VERTEX
  5
34D
330
33F
100
AcDbEntity
  8
スト_ル
  6
CONTINUOUS
 62
     6
100
AcDbVertex
100
AcDb2dVertex
 10
1669.741625007678
 20
946.1282057115377
 30
0.0
  0
VERTEX
  5
34E
330
33F
100
AcDbEntity
  8
スト_ル
  6
CONTINUOUS
 62
     6
100
AcDbVertex
100
AcDb2dVertex
 10
1670.17472749752
 20
946.4072196970667
 30
0.0
  0
VERTEX
  5
34F
330
33F
100
AcDbEntity
  8
スト_ル
  6
CONTINUOUS
 62
     6
100
AcDbVertex
100
AcDb2dVertex
 10
1670.590628874256
 20
946.675078750632
 30
0.0
  0
VERTEX
  5
350
330
33F
100
AcDbEntity
  8
スト_ル
  6
CONTINUOUS
 62
     6
100
AcDbVertex
100
AcDb2dVertex
 10
1670.992454067181
 20
946.9334814795111
 30
0.0
  0
VERTEX
  5
351
330
33F
100
AcDbEntity
  8
スト_ル
  6
CONTINUOUS
 62
     6
100
AcDbVertex
100
AcDb2dVertex
 10
1671.38332800559
 20
947.1841264909808
 30
0.0
  0
VERTEX
  5
352
330
33F
100
AcDbEntity
  8
スト_ル
  6
CONTINUOUS
 62
     6
100
AcDbVertex
100
AcDb2dVertex
 10
1671.766375618777
 20
947.4287123923191
 30
0.0
  0
VERTEX
  5
353
330
33F
100
AcDbEntity
  8
スト_ル
  6
CONTINUOUS
 62
     6
100
AcDbVertex
100
AcDb2dVertex
 10
1672.144721836037
 20
947.6689377908027
 30
0.0
  0
VERTEX
  5
354
330
33F
100
AcDbEntity
  8
スト_ル
  6
CONTINUOUS
 62
     6
100
AcDbVertex
100
AcDb2dVertex
 10
1672.521491586664
 20
947.9065012937093
 30
0.0
  0
VERTEX
  5
355
330
33F
100
AcDbEntity
  8
スト_ル
  6
CONTINUOUS
 62
     6
100
AcDbVertex
100
AcDb2dVertex
 10
1672.899809799954
 20
948.1431015083159
 30
0.0
  0
VERTEX
  5
356
330
33F
100
AcDbEntity
  8
スト_ル
  6
CONTINUOUS
 62
     6
100
AcDbVertex
100
AcDb2dVertex
 10
1673.2828014052
 20
948.3804370419
 30
0.0
  0
VERTEX
  5
357
330
33F
100
AcDbEntity
  8
スト_ル
  6
CONTINUOUS
 62
     6
100
AcDbVertex
100
AcDb2dVertex
 10
1673.744368519592
 20
948.6632429771274
 30
0.0
  0
VERTEX
  5
358
330
33F
100
AcDbEntity
  8
スト_ル
  6
CONTINUOUS
 62
     6
100
AcDbVertex
100
AcDb2dVertex
 10
1674.216091149903
 20
948.9479162638379
 30
0.0
  0
VERTEX
  5
359
330
33F
100
AcDbEntity
  8
スト_ル
  6
CONTINUOUS
 62
     6
100
AcDbVertex
100
AcDb2dVertex
 10
1674.697250550442
 20
949.2329302985858
 30
0.0
  0
VERTEX
  5
35A
330
33F
100
AcDbEntity
  8
スト_ル
  6
CONTINUOUS
 62
     6
100
AcDbVertex
100
AcDb2dVertex
 10
1675.187127975519
 20
949.5167584779272
 30
0.0
  0
VERTEX
  5
35B
330
33F
100
AcDbEntity
  8
スト_ル
  6
CONTINUOUS
 62
     6
100
AcDbVertex
100
AcDb2dVertex
 10
1675.68500467944
 20
949.7978741984169
 30
0.0
  0
VERTEX
  5
35C
330
33F
100
AcDbEntity
  8
スト_ル
  6
CONTINUOUS
 62
     6
100
AcDbVertex
100
AcDb2dVertex
 10
1676.190161916516
 20
950.0747508566105
 30
0.0
  0
VERTEX
  5
35D
330
33F
100
AcDbEntity
  8
スト_ル
  6
CONTINUOUS
 62
     6
100
AcDbVertex
100
AcDb2dVertex
 10
1676.701880941055
 20
950.3458618490633
 30
0.0
  0
VERTEX
  5
35E
330
33F
100
AcDbEntity
  8
スト_ル
  6
CONTINUOUS
 62
     6
100
AcDbVertex
100
AcDb2dVertex
 10
1677.219443007364
 20
950.6096805723304
 30
0.0
  0
VERTEX
  5
35F
330
33F
100
AcDbEntity
  8
スト_ル
  6
CONTINUOUS
 62
     6
100
AcDbVertex
100
AcDb2dVertex
 10
1677.742129369752
 20
950.8646804229669
 30
0.0
  0
VERTEX
  5
360
330
33F
100
AcDbEntity
  8
スト_ル
  6
CONTINUOUS
 62
     6
100
AcDbVertex
100
AcDb2dVertex
 10
1678.269221282528
 20
951.1093347975284
 30
0.0
  0
VERTEX
  5
361
330
33F
100
AcDbEntity
  8
スト_ル
  6
CONTINUOUS
 62
     6
100
AcDbVertex
100
AcDb2dVertex
 10
1678.8
 20
951.3421170925701
 30
0.0
  0
VERTEX
  5
362
330
33F
100
AcDbEntity
  8
スト_ル
  6
CONTINUOUS
 62
     6
100
AcDbVertex
100
AcDb2dVertex
 10
1680.294174775079
 20
951.9227330022067
 30
0.0
  0
VERTEX
  5
363
330
33F
100
AcDbEntity
  8
スト_ル
  6
CONTINUOUS
 62
     6
100
AcDbVertex
100
AcDb2dVertex
 10
1681.808678674013
 20
952.4118321886526
 30
0.0
  0
VERTEX
  5
364
330
33F
100
AcDbEntity
  8
スト_ル
  6
CONTINUOUS
 62
     6
100
AcDbVertex
100
AcDb2dVertex
 10
1683.340806743867
 20
952.8218804613207
 30
0.0
  0
VERTEX
  5
365
330
33F
100
AcDbEntity
  8
スト_ル
  6
CONTINUOUS
 62
     6
100
AcDbVertex
100
AcDb2dVertex
 10
1684.887854031711
 20
953.1653436296233
 30
0.0
  0
VERTEX
  5
366
330
33F
100
AcDbEntity
  8
スト_ル
  6
CONTINUOUS
 62
     6
100
AcDbVertex
100
AcDb2dVertex
 10
1686.447115584611
 20
953.4546875029737
 30
0.0
  0
VERTEX
  5
367
330
33F
100
AcDbEntity
  8
スト_ル
  6
CONTINUOUS
 62
     6
100
AcDbVertex
100
AcDb2dVertex
 10
1688.015886449636
 20
953.7023778907844
 30
0.0
  0
VERTEX
  5
368
330
33F
100
AcDbEntity
  8
スト_ル
  6
CONTINUOUS
 62
     6
100
AcDbVertex
100
AcDb2dVertex
 10
1689.591461673853
 20
953.9208806024681
 30
0.0
  0
VERTEX
  5
369
330
33F
100
AcDbEntity
  8
スト_ル
  6
CONTINUOUS
 62
     6
100
AcDbVertex
100
AcDb2dVertex
 10
1691.171136304331
 20
954.1226614474381
 30
0.0
  0
VERTEX
  5
36A
330
33F
100
AcDbEntity
  8
スト_ル
  6
CONTINUOUS
 62
     6
100
AcDbVertex
100
AcDb2dVertex
 10
1692.752205388135
 20
954.3201862351063
 30
0.0
  0
VERTEX
  5
36B
330
33F
100
AcDbEntity
  8
スト_ル
  6
CONTINUOUS
 62
     6
100
AcDbVertex
100
AcDb2dVertex
 10
1694.331963972336
 20
954.525920774886
 30
0.0
  0
VERTEX
  5
36C
330
33F
100
AcDbEntity
  8
スト_ル
  6
CONTINUOUS
 62
     6
100
AcDbVertex
100
AcDb2dVertex
 10
1695.907707104
 20
954.75233087619
 30
0.0
  0
VERTEX
  5
36D
330
33F
100
AcDbEntity
  8
スト_ル
  6
CONTINUOUS
 62
     6
100
AcDbVertex
100
AcDb2dVertex
 10
1697.273994247892
 20
954.973511725911
 30
0.0
  0
VERTEX
  5
36E
330
33F
100
AcDbEntity
  8
スト_ル
  6
CONTINUOUS
 62
     6
100
AcDbVertex
100
AcDb2dVertex
 10
1698.636210591087
 20
955.2137995519874
 30
0.0
  0
VERTEX
  5
36F
330
33F
100
AcDbEntity
  8
スト_ル
  6
CONTINUOUS
 62
     6
100
AcDbVertex
100
AcDb2dVertex
 10
1699.995374212685
 20
955.467205753753
 30
0.0
  0
VERTEX
  5
370
330
33F
100
AcDbEntity
  8
スト_ル
  6
CONTINUOUS
 62
     6
100
AcDbVertex
100
AcDb2dVertex
 10
1701.352503191784
 20
955.7277417305422
 30
0.0
  0
VERTEX
  5
371
330
33F
100
AcDbEntity
  8
スト_ル
  6
CONTINUOUS
 62
     6
100
AcDbVertex
100
AcDb2dVertex
 10
1702.708615607487
 20
955.9894188816893
 30
0.0
  0
VERTEX
  5
372
330
33F
100
AcDbEntity
  8
スト_ル
  6
CONTINUOUS
 62
     6
100
AcDbVertex
100
AcDb2dVertex
 10
1704.064729538894
 20
956.2462486065283
 30
0.0
  0
VERTEX
  5
373
330
33F
100
AcDbEntity
  8
スト_ル
  6
CONTINUOUS
 62
     6
100
AcDbVertex
100
AcDb2dVertex
 10
1705.421863065105
 20
956.4922423043934
 30
0.0
  0
VERTEX
  5
374
330
33F
100
AcDbEntity
  8
スト_ル
  6
CONTINUOUS
 62
     6
100
AcDbVertex
100
AcDb2dVertex
 10
1706.781034265221
 20
956.7214113746189
 30
0.0
  0
VERTEX
  5
375
330
33F
100
AcDbEntity
  8
スト_ル
  6
CONTINUOUS
 62
     6
100
AcDbVertex
100
AcDb2dVertex
 10
1708.143261218341
 20
956.9277672165391
 30
0.0
  0
VERTEX
  5
376
330
33F
100
AcDbEntity
  8
スト_ル
  6
CONTINUOUS
 62
     6
100
AcDbVertex
100
AcDb2dVertex
 10
1709.509562003568
 20
957.1053212294881
 30
0.0
  0
VERTEX
  5
377
330
33F
100
AcDbEntity
  8
スト_ル
  6
CONTINUOUS
 62
     6
100
AcDbVertex
100
AcDb2dVertex
 10
1710.8809547
 20
957.2480848128
 30
0.0
  0
VERTEX
  5
378
330
33F
100
AcDbEntity
  8
スト_ル
  6
CONTINUOUS
 62
     6
100
AcDbVertex
100
AcDb2dVertex
 10
1712.433937557972
 20
957.361399473929
 30
0.0
  0
VERTEX
  5
379
330
33F
100
AcDbEntity
  8
スト_ル
  6
CONTINUOUS
 62
     6
100
AcDbVertex
100
AcDb2dVertex
 10
1713.992620037686
 20
957.4236926303588
 30
0.0
  0
VERTEX
  5
37A
330
33F
100
AcDbEntity
  8
スト_ル
  6
CONTINUOUS
 62
     6
100
AcDbVertex
100
AcDb2dVertex
 10
1715.554934943672
 20
957.4357797294367
 30
0.0
  0
VERTEX
  5
37B
330
33F
100
AcDbEntity
  8
スト_ル
  6
CONTINUOUS
 62
     6
100
AcDbVertex
100
AcDb2dVertex
 10
1717.11881508046
 20
957.398476218511
 30
0.0
  0
VERTEX
  5
37C
330
33F
100
AcDbEntity
  8
スト_ル
  6
CONTINUOUS
 62
     6
100
AcDbVertex
100
AcDb2dVertex
 10
1718.682193252575
 20
957.3125975449293
 30
0.0
  0
VERTEX
  5
37D
330
33F
100
AcDbEntity
  8
スト_ル
  6
CONTINUOUS
 62
     6
100
AcDbVertex
100
AcDb2dVertex
 10
1720.243002264549
 20
957.1789591560398
 30
0.0
  0
VERTEX
  5
37E
330
33F
100
AcDbEntity
  8
スト_ル
  6
CONTINUOUS
 62
     6
100
AcDbVertex
100
AcDb2dVertex
 10
1721.79917492091
 20
956.9983764991903
 30
0.0
  0
VERTEX
  5
37F
330
33F
100
AcDbEntity
  8
スト_ル
  6
CONTINUOUS
 62
     6
100
AcDbVertex
100
AcDb2dVertex
 10
1723.348644026187
 20
956.7716650217285
 30
0.0
  0
VERTEX
  5
380
330
33F
100
AcDbEntity
  8
スト_ル
  6
CONTINUOUS
 62
     6
100
AcDbVertex
100
AcDb2dVertex
 10
1724.889342384909
 20
956.499640171003
 30
0.0
  0
VERTEX
  5
381
330
33F
100
AcDbEntity
  8
スト_ル
  6
CONTINUOUS
 62
     6
100
AcDbVertex
100
AcDb2dVertex
 10
1726.419202801604
 20
956.1831173943607
 30
0.0
  0
VERTEX
  5
382
330
33F
100
AcDbEntity
  8
スト_ル
  6
CONTINUOUS
 62
     6
100
AcDbVertex
100
AcDb2dVertex
 10
1727.9361580808
 20
955.82291213915
 30
0.0
  0
VERTEX
  5
383
330
33F
100
AcDbEntity
  8
スト_ル
  6
CONTINUOUS
 62
     6
100
AcDbVertex
100
AcDb2dVertex
 10
1729.07606537728
 20
955.5214409567146
 30
0.0
  0
VERTEX
  5
384
330
33F
100
AcDbEntity
  8
スト_ル
  6
CONTINUOUS
 62
     6
100
AcDbVertex
100
AcDb2dVertex
 10
1730.207850453872
 20
955.1962137571489
 30
0.0
  0
VERTEX
  5
385
330
33F
100
AcDbEntity
  8
スト_ル
  6
CONTINUOUS
 62
     6
100
AcDbVertex
100
AcDb2dVertex
 10
1731.331988967578
 20
954.848090958043
 30
0.0
  0
VERTEX
  5
386
330
33F
100
AcDbEntity
  8
スト_ル
  6
CONTINUOUS
 62
     6
100
AcDbVertex
100
AcDb2dVertex
 10
1732.448956575401
 20
954.4779329769871
 30
0.0
  0
VERTEX
  5
387
330
33F
100
AcDbEntity
  8
スト_ル
  6
CONTINUOUS
 62
     6
100
AcDbVertex
100
AcDb2dVertex
 10
1733.559228934344
 20
954.0866002315711
 30
0.0
  0
VERTEX
  5
388
330
33F
100
AcDbEntity
  8
スト_ル
  6
CONTINUOUS
 62
     6
100
AcDbVertex
100
AcDb2dVertex
 10
1734.663281701411
 20
953.6749531393858
 30
0.0
  0
VERTEX
  5
389
330
33F
100
AcDbEntity
  8
スト_ル
  6
CONTINUOUS
 62
     6
100
AcDbVertex
100
AcDb2dVertex
 10
1735.761590533604
 20
953.2438521180209
 30
0.0
  0
VERTEX
  5
38A
330
33F
100
AcDbEntity
  8
スト_ル
  6
CONTINUOUS
 62
     6
100
AcDbVertex
100
AcDb2dVertex
 10
1736.854631087926
 20
952.7941575850666
 30
0.0
  0
VERTEX
  5
38B
330
33F
100
AcDbEntity
  8
スト_ル
  6
CONTINUOUS
 62
     6
100
AcDbVertex
100
AcDb2dVertex
 10
1737.942879021381
 20
952.3267299581131
 30
0.0
  0
VERTEX
  5
38C
330
33F
100
AcDbEntity
  8
スト_ル
  6
CONTINUOUS
 62
     6
100
AcDbVertex
100
AcDb2dVertex
 10
1739.026809990971
 20
951.8424296547508
 30
0.0
  0
VERTEX
  5
38D
330
33F
100
AcDbEntity
  8
スト_ル
  6
CONTINUOUS
 62
     6
100
AcDbVertex
100
AcDb2dVertex
 10
1740.1068996537
 20
951.3421170925699
 30
0.0
  0
VERTEX
  5
38E
330
33F
100
AcDbEntity
  8
スト_ル
  6
CONTINUOUS
 62
     6
100
AcDbVertex
100
AcDb2dVertex
 10
1740.82901105391
 20
950.9980655665247
 30
0.0
  0
VERTEX
  5
38F
330
33F
100
AcDbEntity
  8
スト_ル
  6
CONTINUOUS
 62
     6
100
AcDbVertex
100
AcDb2dVertex
 10
1741.548592052359
 20
950.64719491997
 30
0.0
  0
VERTEX
  5
390
330
33F
100
AcDbEntity
  8
スト_ル
  6
CONTINUOUS
 62
     6
100
AcDbVertex
100
AcDb2dVertex
 10
1742.264625422421
 20
950.2894982054919
 30
0.0
  0
VERTEX
  5
391
330
33F
100
AcDbEntity
  8
スト_ル
  6
CONTINUOUS
 62
     6
100
AcDbVertex
100
AcDb2dVertex
 10
1742.976093937472
 20
949.9249684756769
 30
0.0
  0
VERTEX
  5
392
330
33F
100
AcDbEntity
  8
スト_ル
  6
CONTINUOUS
 62
     6
100
AcDbVertex
100
AcDb2dVertex
 10
1743.681980370886
 20
949.5535987831104
 30
0.0
  0
VERTEX
  5
393
330
33F
100
AcDbEntity
  8
スト_ル
  6
CONTINUOUS
 62
     6
100
AcDbVertex
100
AcDb2dVertex
 10
1744.381267496039
 20
949.1753821803795
 30
0.0
  0
VERTEX
  5
394
330
33F
100
AcDbEntity
  8
スト_ル
  6
CONTINUOUS
 62
     6
100
AcDbVertex
100
AcDb2dVertex
 10
1745.072938086305
 20
948.7903117200699
 30
0.0
  0
VERTEX
  5
395
330
33F
100
AcDbEntity
  8
スト_ル
  6
CONTINUOUS
 62
     6
100
AcDbVertex
100
AcDb2dVertex
 10
1745.755974915059
 20
948.3983804547679
 30
0.0
  0
VERTEX
  5
396
330
33F
100
AcDbEntity
  8
スト_ル
  6
CONTINUOUS
 62
     6
100
AcDbVertex
100
AcDb2dVertex
 10
1746.429360755676
 20
947.9995814370599
 30
0.0
  0
VERTEX
  5
397
330
33F
100
AcDbEntity
  8
スト_ル
  6
CONTINUOUS
 62
     6
100
AcDbVertex
100
AcDb2dVertex
 10
1747.092078381532
 20
947.5939077195319
 30
0.0
  0
VERTEX
  5
398
330
33F
100
AcDbEntity
  8
スト_ル
  6
CONTINUOUS
 62
     6
100
AcDbVertex
100
AcDb2dVertex
 10
1747.743110566
 20
947.18135235477
 30
0.0
  0
VERTEX
  5
399
330
33F
100
AcDbEntity
  8
スト_ル
  6
CONTINUOUS
 62
     6
100
AcDbVertex
100
AcDb2dVertex
 10
1749.007344777393
 20
946.3328528890704
 30
0.0
  0
VERTEX
  5
39A
330
33F
100
AcDbEntity
  8
スト_ル
  6
CONTINUOUS
 62
     6
100
AcDbVertex
100
AcDb2dVertex
 10
1750.217304719486
 20
945.4425440237884
 30
0.0
  0
VERTEX
  5
39B
330
33F
100
AcDbEntity
  8
スト_ル
  6
CONTINUOUS
 62
     6
100
AcDbVertex
100
AcDb2dVertex
 10
1751.369568561492
 20
944.4961933876809
 30
0.0
  0
VERTEX
  5
39C
330
33F
100
AcDbEntity
  8
スト_ル
  6
CONTINUOUS
 62
     6
100
AcDbVertex
100
AcDb2dVertex
 10
1752.460714472624
 20
943.4795686095058
 30
0.0
  0
VERTEX
  5
39D
330
33F
100
AcDbEntity
  8
スト_ル
  6
CONTINUOUS
 62
     6
100
AcDbVertex
100
AcDb2dVertex
 10
1753.487320622095
 20
942.3784373180204
 30
0.0
  0
VERTEX
  5
39E
330
33F
100
AcDbEntity
  8
スト_ル
  6
CONTINUOUS
 62
     6
100
AcDbVertex
100
AcDb2dVertex
 10
1754.445965179119
 20
941.1785671419817
 30
0.0
  0
VERTEX
  5
39F
330
33F
100
AcDbEntity
  8
スト_ル
  6
CONTINUOUS
 62
     6
100
AcDbVertex
100
AcDb2dVertex
 10
1755.33322631291
 20
939.8657257101474
 30
0.0
  0
VERTEX
  5
3A0
330
33F
100
AcDbEntity
  8
スト_ル
  6
CONTINUOUS
 62
     6
100
AcDbVertex
100
AcDb2dVertex
 10
1756.145682192679
 20
938.4256806512749
 30
0.0
  0
VERTEX
  5
3A1
330
33F
100
AcDbEntity
  8
スト_ル
  6
CONTINUOUS
 62
     6
100
AcDbVertex
100
AcDb2dVertex
 10
1756.879910987642
 20
936.8441995941212
 30
0.0
  0
VERTEX
  5
3A2
330
33F
100
AcDbEntity
  8
スト_ル
  6
CONTINUOUS
 62
     6
100
AcDbVertex
100
AcDb2dVertex
 10
1757.532490867011
 20
935.1070501674436
 30
0.0
  0
VERTEX
  5
3A3
330
33F
100
AcDbEntity
  8
スト_ル
  6
CONTINUOUS
 62
     6
100
AcDbVertex
100
AcDb2dVertex
 10
1758.1
 20
933.1999999999998
 30
0.0
  0
VERTEX
  5
3A4
330
33F
100
AcDbEntity
  8
スト_ル
  6
CONTINUOUS
 62
     6
100
AcDbVertex
100
AcDb2dVertex
 10
1758.440340869881
 20
931.7863145130314
 30
0.0
  0
VERTEX
  5
3A5
330
33F
100
AcDbEntity
  8
スト_ル
  6
CONTINUOUS
 62
     6
100
AcDbVertex
100
AcDb2dVertex
 10
1758.740310886893
 20
930.3237952979998
 30
0.0
  0
VERTEX
  5
3A6
330
33F
100
AcDbEntity
  8
スト_ル
  6
CONTINUOUS
 62
     6
100
AcDbVertex
100
AcDb2dVertex
 10
1759.001586701576
 20
928.8511000063763
 30
0.0
  0
VERTEX
  5
3A7
330
33F
100
AcDbEntity
  8
スト_ル
  6
CONTINUOUS
 62
     6
100
AcDbVertex
100
AcDb2dVertex
 10
1759.225844964471
 20
927.4068862896313
 30
0.0
  0
VERTEX
  5
3A8
330
33F
100
AcDbEntity
  8
スト_ル
  6
CONTINUOUS
 62
     6
100
AcDbVertex
100
AcDb2dVertex
 10
1759.414762326116
 20
926.0298117992361
 30
0.0
  0
VERTEX
  5
3A9
330
33F
100
AcDbEntity
  8
スト_ル
  6
CONTINUOUS
 62
     6
100
AcDbVertex
100
AcDb2dVertex
 10
1759.570015437052
 20
924.7585341866609
 30
0.0
  0
VERTEX
  5
3AA
330
33F
100
AcDbEntity
  8
スト_ル
  6
CONTINUOUS
 62
     6
100
AcDbVertex
100
AcDb2dVertex
 10
1759.69328094782
 20
923.6317111033771
 30
0.0
  0
VERTEX
  5
3AB
330
33F
100
AcDbEntity
  8
スト_ル
  6
CONTINUOUS
 62
     6
100
AcDbVertex
100
AcDb2dVertex
 10
1759.786235508959
 20
922.6880002008552
 30
0.0
  0
VERTEX
  5
3AC
330
33F
100
AcDbEntity
  8
スト_ル
  6
CONTINUOUS
 62
     6
100
AcDbVertex
100
AcDb2dVertex
 10
1759.850555771008
 20
921.9660591305661
 30
0.0
  0
VERTEX
  5
3AD
330
33F
100
AcDbEntity
  8
スト_ル
  6
CONTINUOUS
 62
     6
100
AcDbVertex
100
AcDb2dVertex
 10
1759.887918384509
 20
921.504545543981
 30
0.0
  0
VERTEX
  5
3AE
330
33F
100
AcDbEntity
  8
スト_ル
  6
CONTINUOUS
 62
     6
100
AcDbVertex
100
AcDb2dVertex
 10
1759.9
 20
921.34211709257
 30
0.0
  0
SEQEND
  5
3AF
330
33F
100
AcDbEntity
  8
スト_ル
  6
CONTINUOUS
 62
     6
  0
ARC
  5
3B0
330
1F
100
AcDbEntity
  8
スト_ル
  6
CONTINUOUS
 62
     6
100
AcDbCircle
 10
1793.6561467092
 20
943.3317934999998
 30
0.0
 40
10.0
100
AcDbArc
 50
270.0000000000002
 51
315.5734863299994
  0
ARC
  5
3B1
330
1F
100
AcDbEntity
  8
スト_ル
  6
CONTINUOUS
 62
     6
100
AcDbCircle
 10
1793.6561467092
 20
929.3318544999995
 30
0.0
 40
10.0
100
AcDbArc
 50
44.42662048000054
 51
90.00000000000001
  0
LINE
  5
3B2
330
1F
100
AcDbEntity
  8
スト_ル
  6
CONTINUOUS
 62
     6
100
AcDbLine
 10
1770.8809547
 20
933.3317934999998
 30
0.0
 11
1793.6561467092
 21
933.3317934999998
 31
0.0
  0
LINE
  5
3B3
330
1F
100
AcDbEntity
  8
スト_ル
  6
CONTINUOUS
 62
     6
100
AcDbLine
 10
1770.8809547
 20
939.3318544999995
 30
0.0
 11
1793.6561467092
 21
939.3318544999995
 31
0.0
  0
ARC
  5
3B4
330
1F
100
AcDbEntity
  8
スト_ル
  6
CONTINUOUS
 62
     6
100
AcDbCircle
 10
1764.50387891391
 20
925.8008928183206
 30
0.0
 40
5.0
100
AcDbArc
 50
180.0
 51
270.0000000000002
  0
POLYLINE
  5
3B5
330
1F
100
AcDbEntity
  8
スト_ル
  6
CONTINUOUS
 62
     6
100
AcDb2dPolyline
 66
     1
 10
0.0
 20
0.0
 30
0.0
 70
   128
  0
VERTEX
  5
3B6
330
3B5
100
AcDbEntity
  8
スト_ル
  6
CONTINUOUS
 62
     6
100
AcDbVertex
100
AcDb2dVertex
 10
1685.9235085829
 20
879.49791968949
 30
0.0
  0
VERTEX
  5
3B7
330
3B5
100
AcDbEntity
  8
スト_ル
  6
CONTINUOUS
 62
     6
100
AcDbVertex
100
AcDb2dVertex
 10
1686.157037568055
 20
879.3339002273458
 30
0.0
  0
VERTEX
  5
3B8
330
3B5
100
AcDbEntity
  8
スト_ル
  6
CONTINUOUS
 62
     6
100
AcDbVertex
100
AcDb2dVertex
 10
1686.820002983731
 20
878.8750598086157
 30
0.0
  0
VERTEX
  5
3B9
330
3B5
100
AcDbEntity
  8
スト_ル
  6
CONTINUOUS
 62
     6
100
AcDbVertex
100
AcDb2dVertex
 10
1687.85597252024
 20
878.171225384853
 30
0.0
  0
VERTEX
  5
3BA
330
3B5
100
AcDbEntity
  8
スト_ル
  6
CONTINUOUS
 62
     6
100
AcDbVertex
100
AcDb2dVertex
 10
1689.208513867897
 20
877.2722239076113
 30
0.0
  0
VERTEX
  5
3BB
330
3B5
100
AcDbEntity
  8
スト_ル
  6
CONTINUOUS
 62
     6
100
AcDbVertex
100
AcDb2dVertex
 10
1690.821194717015
 20
876.2278823284437
 30
0.0
  0
VERTEX
  5
3BC
330
3B5
100
AcDbEntity
  8
スト_ル
  6
CONTINUOUS
 62
     6
100
AcDbVertex
100
AcDb2dVertex
 10
1692.637582757909
 20
875.0880275989045
 30
0.0
  0
VERTEX
  5
3BD
330
3B5
100
AcDbEntity
  8
スト_ル
  6
CONTINUOUS
 62
     6
100
AcDbVertex
100
AcDb2dVertex
 10
1694.601245680893
 20
873.9024866705468
 30
0.0
  0
VERTEX
  5
3BE
330
3B5
100
AcDbEntity
  8
スト_ル
  6
CONTINUOUS
 62
     6
100
AcDbVertex
100
AcDb2dVertex
 10
1696.65575117628
 20
872.7210864949237
 30
0.0
  0
VERTEX
  5
3BF
330
3B5
100
AcDbEntity
  8
スト_ル
  6
CONTINUOUS
 62
     6
100
AcDbVertex
100
AcDb2dVertex
 10
1698.744666934384
 20
871.5936540235894
 30
0.0
  0
VERTEX
  5
3C0
330
3B5
100
AcDbEntity
  8
スト_ル
  6
CONTINUOUS
 62
     6
100
AcDbVertex
100
AcDb2dVertex
 10
1700.811560645519
 20
870.570016208097
 30
0.0
  0
VERTEX
  5
3C1
330
3B5
100
AcDbEntity
  8
スト_ル
  6
CONTINUOUS
 62
     6
100
AcDbVertex
100
AcDb2dVertex
 10
1702.8
 20
869.7
 30
0.0
  0
VERTEX
  5
3C2
330
3B5
100
AcDbEntity
  8
スト_ル
  6
CONTINUOUS
 62
     6
100
AcDbVertex
100
AcDb2dVertex
 10
1704.861659796236
 20
868.9574819916317
 30
0.0
  0
VERTEX
  5
3C3
330
3B5
100
AcDbEntity
  8
スト_ル
  6
CONTINUOUS
 62
     6
100
AcDbVertex
100
AcDb2dVertex
 10
1706.792893515494
 20
868.4225432234854
 30
0.0
  0
VERTEX
  5
3C4
330
3B5
100
AcDbEntity
  8
スト_ル
  6
CONTINUOUS
 62
     6
100
AcDbVertex
100
AcDb2dVertex
 10
1708.628823439441
 20
868.0530675736211
 30
0.0
  0
VERTEX
  5
3C5
330
3B5
100
AcDbEntity
  8
スト_ル
  6
CONTINUOUS
 62
     6
100
AcDbVertex
100
AcDb2dVertex
 10
1710.404571849746
 20
867.8069389200984
 30
0.0
  0
VERTEX
  5
3C6
330
3B5
100
AcDbEntity
  8
スト_ル
  6
CONTINUOUS
 62
     6
100
AcDbVertex
100
AcDb2dVertex
 10
1712.155261028077
 20
867.6420411409765
 30
0.0
  0
VERTEX
  5
3C7
330
3B5
100
AcDbEntity
  8
スト_ル
  6
CONTINUOUS
 62
     6
100
AcDbVertex
100
AcDb2dVertex
 10
1713.916013256101
 20
867.5162581143151
 30
0.0
  0
VERTEX
  5
3C8
330
3B5
100
AcDbEntity
  8
スト_ル
  6
CONTINUOUS
 62
     6
100
AcDbVertex
100
AcDb2dVertex
 10
1715.721950815486
 20
867.3874737181739
 30
0.0
  0
VERTEX
  5
3C9
330
3B5
100
AcDbEntity
  8
スト_ル
  6
CONTINUOUS
 62
     6
100
AcDbVertex
100
AcDb2dVertex
 10
1717.608195987901
 20
867.2135718306123
 30
0.0
  0
VERTEX
  5
3CA
330
3B5
100
AcDbEntity
  8
スト_ル
  6
CONTINUOUS
 62
     6
100
AcDbVertex
100
AcDb2dVertex
 10
1719.609871055013
 20
866.9524363296895
 30
0.0
  0
VERTEX
  5
3CB
330
3B5
100
AcDbEntity
  8
スト_ル
  6
CONTINUOUS
 62
     6
100
AcDbVertex
100
AcDb2dVertex
 10
1721.76209829849
 20
866.5619510934657
 30
0.0
  0
VERTEX
  5
3CC
330
3B5
100
AcDbEntity
  8
スト_ル
  6
CONTINUOUS
 62
     6
100
AcDbVertex
100
AcDb2dVertex
 10
1724.1
 20
866.0
 30
0.0
  0
VERTEX
  5
3CD
330
3B5
100
AcDbEntity
  8
スト_ル
  6
CONTINUOUS
 62
     6
100
AcDbVertex
100
AcDb2dVertex
 10
1725.47821136823
 20
865.6045346285924
 30
0.0
  0
VERTEX
  5
3CE
330
3B5
100
AcDbEntity
  8
スト_ル
  6
CONTINUOUS
 62
     6
100
AcDbVertex
100
AcDb2dVertex
 10
1726.889314079237
 20
865.161710492914
 30
0.0
  0
VERTEX
  5
3CF
330
3B5
100
AcDbEntity
  8
スト_ル
  6
CONTINUOUS
 62
     6
100
AcDbVertex
100
AcDb2dVertex
 10
1728.298721434679
 20
864.6894419554314
 30
0.0
  0
VERTEX
  5
3D0
330
3B5
100
AcDbEntity
  8
スト_ル
  6
CONTINUOUS
 62
     6
100
AcDbVertex
100
AcDb2dVertex
 10
1729.671846736214
 20
864.2056433786115
 30
0.0
  0
VERTEX
  5
3D1
330
3B5
100
AcDbEntity
  8
スト_ル
  6
CONTINUOUS
 62
     6
100
AcDbVertex
100
AcDb2dVertex
 10
1730.974103285499
 20
863.7282291249205
 30
0.0
  0
VERTEX
  5
3D2
330
3B5
100
AcDbEntity
  8
スト_ル
  6
CONTINUOUS
 62
     6
100
AcDbVertex
100
AcDb2dVertex
 10
1732.170904384192
 20
863.2751135568253
 30
0.0
  0
VERTEX
  5
3D3
330
3B5
100
AcDbEntity
  8
スト_ル
  6
CONTINUOUS
 62
     6
100
AcDbVertex
100
AcDb2dVertex
 10
1733.227663333952
 20
862.8642110367919
 30
0.0
  0
VERTEX
  5
3D4
330
3B5
100
AcDbEntity
  8
スト_ル
  6
CONTINUOUS
 62
     6
100
AcDbVertex
100
AcDb2dVertex
 10
1734.109793436434
 20
862.5134359272872
 30
0.0
  0
VERTEX
  5
3D5
330
3B5
100
AcDbEntity
  8
スト_ル
  6
CONTINUOUS
 62
     6
100
AcDbVertex
100
AcDb2dVertex
 10
1734.782707993298
 20
862.2407025907776
 30
0.0
  0
VERTEX
  5
3D6
330
3B5
100
AcDbEntity
  8
スト_ル
  6
CONTINUOUS
 62
     6
100
AcDbVertex
100
AcDb2dVertex
 10
1735.2118203062
 20
862.0639253897297
 30
0.0
  0
VERTEX
  5
3D7
330
3B5
100
AcDbEntity
  8
スト_ル
  6
CONTINUOUS
 62
     6
100
AcDbVertex
100
AcDb2dVertex
 10
1735.3625436768
 20
862.00101868661
 30
0.0
  0
SEQEND
  5
3D8
330
3B5
100
AcDbEntity
  8
スト_ル
  6
CONTINUOUS
 62
     6
  0
ARC
  5
3D9
330
1F
100
AcDbEntity
  8
スト_ル
  6
CONTINUOUS
 62
     6
100
AcDbCircle
 10
1793.6561467092
 20
1593.3317935
 30
0.0
 40
10.0
100
AcDbArc
 50
270.0000000000002
 51
315.5734863299994
  0
ARC
  5
3DA
330
1F
100
AcDbEntity
  8
スト_ル
  6
CONTINUOUS
 62
     6
100
AcDbCircle
 10
1793.6561467092
 20
1579.331854499999
 30
0.0
 40
10.0
100
AcDbArc
 50
44.42662048000054
 51
90.00000000000001
  0
LINE
  5
3DB
330
1F
100
AcDbEntity
  8
スト_ル
  6
CONTINUOUS
 62
     6
100
AcDbLine
 10
1770.8809547
 20
1583.3317935
 30
0.0
 11
1793.6561467092
 21
1583.3317935
 31
0.0
  0
LINE
  5
3DC
330
1F
100
AcDbEntity
  8
スト_ル
  6
CONTINUOUS
 62
     6
100
AcDbLine
 10
1770.8809547
 20
1589.331854499999
 30
0.0
 11
1793.6561467092
 21
1589.331854499999
 31
0.0
  0
ARC
  5
3DD
330
1F
100
AcDbEntity
  8
スト_ル
  6
CONTINUOUS
 62
     6
100
AcDbCircle
 10
1755.797565160201
 20
1586.331824000001
 30
0.0
 40
8.000001900000004
100
AcDbArc
 50
89.4027557403242
 51
260.4858381962742
  0
TEXT
  5
3DE
330
1F
100
AcDbEntity
  8
枠
  6
CONTINUOUS
 62
     2
100
AcDbText
 10
1767.3809547
 20
1773.0
 30
0.0
 40
40.0
  1
Ｗ．Ｌ
 50
90.0
 41
1.225
  7
EXCADSTD
 72
     5
 11
1767.3809547
 21
1892.0
 31
0.0
100
AcDbText
  0
TEXT
  5
3DF
330
1F
100
AcDbEntity
  8
枠
  6
CONTINUOUS
 62
     2
100
AcDbText
 10
1468.0
 20
714.8318240000003
 30
0.0
 40
40.0
  1
Ｆ．Ｌ
 41
1.225
  7
EXCADSTD
 72
     5
 11
1587.0
 21
714.8318240000003
 31
0.0
100
AcDbText
  0
TEXT
  5
3E0
330
1F
100
AcDbEntity
  8
0
  6
CONTINUOUS
 62
     2
100
AcDbText
 10
144.30856934
 20
21.59169922
 30
0.0
 40
5.75
  1
ＴＶ１０１
 41
1.143928035982009
  7
EXCADSTD
 72
     5
 11
171.55856934
 21
21.59169922
 31
0.0
100
AcDbText
  0
TEXT
  5
3E1
330
1F
100
AcDbEntity
  8
0
  6
CONTINUOUS
 62
     2
100
AcDbText
 10
144.2795166
 20
27.19315491
 30
0.0
 40
5.75
  1
Ｕ１０１Ａ
 41
1.143928035982009
  7
EXCADSTD
 72
     5
 11
171.5295166
 21
27.19315491
 31
0.0
100
AcDbText
  0
TEXT
  5
3E2
330
1F
100
AcDbEntity
  8
器具明細表
  6
CONTINUOUS
 62
     2
100
AcDbText
 10
1251.9838562
 20
2342.4804688
 30
0.0
 40
50.0
  1
ＮＴ７Ａカラー
 41
0.9117073170731708
  7
EXCADSTD
 72
     5
 11
1518.9838562
 21
2342.4804688
 31
0.0
100
AcDbText
  0
ENDSEC
  0
SECTION
  2
OBJECTS
  0
DICTIONARY
  5
C
330
0
100
AcDbDictionary
  3
ACAD_GROUP
350
D
  3
ACAD_LAYOUT
350
1A
  3
ACAD_MATERIAL
350
3B
  3
ACAD_MLEADERSTYLE
350
405
  3
ACAD_MLINESTYLE
350
17
  3
ACAD_PLOTSETTINGS
350
19
  3
ACAD_VISUALSTYLE
350
2A
  3
ACDBHEADERROUNDTRIPXREC
350
3E3
  3
ACDBVARIABLEDICTIONARY
350
403
  0
DICTIONARY
  5
D
102
{ACAD_REACTORS
330
C
102
}
330
C
100
AcDbDictionary
  0
DICTIONARY
  5
1A
102
{ACAD_REACTORS
330
C
102
}
330
C
100
AcDbDictionary
  0
DICTIONARY
  5
3B
102
{ACAD_REACTORS
330
C
102
}
330
C
100
AcDbDictionary
  3
BYBLOCK
350
3D
  3
BYLAYER
350
3C
  3
GLOBAL
350
3E
  0
DICTIONARY
  5
405
102
{ACAD_REACTORS
330
C
102
}
330
C
100
AcDbDictionary
  0
DICTIONARY
  5
17
102
{ACAD_REACTORS
330
C
102
}
330
C
100
AcDbDictionary
  3
STANDARD
350
18
  0
DICTIONARY
  5
19
102
{ACAD_REACTORS
330
C
102
}
330
C
100
AcDbDictionary
  0
DICTIONARY
  5
2A
102
{ACAD_REACTORS
330
C
102
}
330
C
100
AcDbDictionary
  3
2DWIREFRAME
350
2F
  3
3D_HIDDEN
350
31
  3
3DWIREFRAME
350
30
  3
BASIC
350
32
  3
BRIGHTEN
350
36
  3
COLORCHANGE
350
3A
  3
CONCEPTUAL
350
34
  3
DIM
350
35
  3
FACEPATTERN
350
39
  3
FLAT
350
2B
  3
FLATWITHEDGES
350
2C
  3
GOURAUD
350
2D
  3
GOURAUDWITHEDGES
350
2E
  3
LINEPATTERN
350
38
  3
REALISTIC
350
33
  3
THICKEN
350
37
  0
DICTIONARY
  5
3E3
102
{ACAD_REACTORS
330
C
102
}
330
C
100
AcDbDictionary
  3
CEPSNTYPE
350
3EC
  3
DIMSTYLEDATA
350
402
  3
FINGERPRINTGUID
350
3ED
  3
HYPERLINKBASE
350
3E6
  3
INSUNITS
350
3EB
  3
LAYOUTDICT
350
3E8
  3
LWETCUNION
350
3EA
  3
PLOTSETDICT
350
3E9
  3
PSVPSCALE
350
3EF
  3
PUCSBASE
350
3F2
  3
PUCSORGBACK
350
3F8
  3
PUCSORGBOTTOM
350
3F4
  3
PUCSORGFRONT
350
3F7
  3
PUCSORGLEFT
350
3F5
  3
PUCSORGRIGHT
350
3F6
  3
PUCSORGTOP
350
3F3
  3
PUCSORTHOREF
350
3F0
  3
PUCSORTHOVIEW
350
3F1
  3
STYLESHEET
350
3E7
  3
TSTACKALIGN
350
3E4
  3
TSTACKSIZE
350
3E5
  3
UCSBASE
350
3FB
  3
UCSORGBACK
350
401
  3
UCSORGBOTTOM
350
3FD
  3
UCSORGFRONT
350
400
  3
UCSORGLEFT
350
3FE
  3
UCSORGRIGHT
350
3FF
  3
UCSORGTOP
350
3FC
  3
UCSORTHOREF
350
3F9
  3
UCSORTHOVIEW
350
3FA
  3
VERSIONGUID
350
3EE
  0
DICTIONARY
  5
403
102
{ACAD_REACTORS
330
C
102
}
330
C
100
AcDbDictionary
  3
DIMASSOC
350
408
  3
HIDETEXT
350
409
  3
PSOLHEIGHT
350
407
  3
PSOLWIDTH
350
406
  0
MATERIAL
  5
3D
102
{ACAD_REACTORS
330
3B
102
}
102
{ACAD_XDICTIONARY
360
40C
102
}
330
3B
100
AcDbMaterial
  1
ByBlock
  0
MATERIAL
  5
3C
102
{ACAD_REACTORS
330
3B
102
}
102
{ACAD_XDICTIONARY
360
40A
102
}
330
3B
100
AcDbMaterial
  1
ByLayer
  0
MATERIAL
  5
3E
102
{ACAD_REACTORS
330
3B
102
}
102
{ACAD_XDICTIONARY
360
40E
102
}
330
3B
100
AcDbMaterial
  1
Global
  0
MLINESTYLE
  5
18
102
{ACAD_REACTORS
330
17
102
}
330
17
100
AcDbMlineStyle
  2
Standard
 70
     0
  3

 62
   256
 51
90.0
 52
90.0
 71
     2
 49
0.5
 62
   256
  6
BYLAYER
 49
-0.5
 62
   256
  6
BYLAYER
  0
ACAD_PROXY_OBJECT
  5
2F
102
{ACAD_REACTORS
330
2A
102
}
330
2A
100
AcDbProxyObject
 90
      499
 91
      501
 93
      436
310
42CC9915DA5C99599C985B595049028333333333333E3BF0000000000000FB0107901411070040501600405405064090741402480A0340
1001
ACAD
1000
AcDbSavedByObjectVersion
1070
     0
  0
ACAD_PROXY_OBJECT
  5
31
102
{ACAD_REACTORS
330
2A
102
}
330
2A
100
AcDbProxyObject
 90
      499
 91
      501
 93
      500
310
424CD108121A5919195B90640502408333333333333E3BF0000000000000FB01079024090700405020000000000001110200405405064090740C02480A0340
1001
ACAD
1000
AcDbSavedByObjectVersion
1070
     0
  0
ACAD_PROXY_OBJECT
  5
30
102
{ACAD_REACTORS
330
2A
102
}
330
2A
100
AcDbProxyObject
 90
      499
 91
      501
 93
      436
310
42CCD915DA5C99599C985B595059028333333333333E3BF0000000000000FB0107901411070040501600405405064090741402480A0340
1001
ACAD
1000
AcDbSavedByObjectVersion
1070
     0
  0
ACAD_PROXY_OBJECT
  5
32
102
{ACAD_REACTORS
330
2A
102
}
330
2A
100
AcDbProxyObject
 90
      499
 91
      501
 93
      388
310
4150985CDA58D07406404333333333333E3BF0000000000000FB0107A41107004050150841D405064090741402480A0350
1001
ACAD
1000
AcDbSavedByObjectVersion
1070
     0
  0
ACAD_PROXY_OBJECT
  5
36
102
{ACAD_REACTORS
330
2A
102
}
330
2A
100
AcDbProxyObject
 90
      499
 91
      501
 93
      428
310
42109C9A59DA1D195B90C409028333333333333E3BF0000000000000FB010790141107004050150841D405064090741402480A029950
1001
ACAD
1000
AcDbSavedByObjectVersion
1070
     0
  0
ACAD_PROXY_OBJECT
  5
3A
102
{ACAD_REACTORS
330
2A
102
}
330
2A
100
AcDbProxyObject
 90
      499
 91
      501
 93
      452
310
42D0DBDB1BDC90DA185B99D95104090240C333333333333E3BF0000000000000FB0108901411070040501508421405064090741402480A0350
1001
ACAD
1000
AcDbSavedByObjectVersion
1070
     0
  0
ACAD_PROXY_OBJECT
  5
34
102
{ACAD_REACTORS
330
2A
102
}
330
2A
100
AcDbProxyObject
 90
      499
 91
      501
 93
      500
310
4290DBDB98D95C1D1D585B10940D028333333333333E3BF0000000000000FB0107902409070040501000000000000111010841D405064090740C02480A0340
1001
ACAD
1000
AcDbSavedByObjectVersion
1070
     0
  0
ACAD_PROXY_OBJECT
  5
35
102
{ACAD_REACTORS
330
2A
102
}
330
2A
100
AcDbProxyObject
 90
      499
 91
      501
 93
      412
310
40D11A5B50B409028333333333333E3BF0000000000000FB010790141107004050150841D405064090741402480A02677FFFFFD0
1001
ACAD
1000
AcDbSavedByObjectVersion
1070
     0
  0
ACAD_PROXY_OBJECT
  5
39
102
{ACAD_REACTORS
330
2A
102
}
330
2A
100
AcDbProxyObject
 90
      499
 91
      501
 93
      444
310
42D19858D95C185D1D195C9B90F409028333333333333E3BF0000000000000FB010790141107004050150841D405064090741402480A0350
1001
ACAD
1000
AcDbSavedByObjectVersion
1070
     0
  0
ACAD_PROXY_OBJECT
  5
2B
102
{ACAD_REACTORS
330
2A
102
}
330
2A
100
AcDbProxyObject
 90
      499
 91
      501
 93
      388
310
41119B185D240901404333333333333E3BF0000000000000F9010740A41107004050150841D405064090741402480A1B50
1001
ACAD
1000
AcDbSavedByObjectVersion
1070
     0
  0
ACAD_PROXY_OBJECT
  5
2C
102
{ACAD_REACTORS
330
2A
102
}
330
2A
100
AcDbProxyObject
 90
      499
 91
      501
 93
      476
310
43519B185D15DA5D1A115919D95CD0140901404333333333333E3BF0000000000000F9010740901411070040501600405405064090741402480A1B50
1001
ACAD
1000
AcDbSavedByObjectVersion
1070
     0
  0
ACAD_PROXY_OBJECT
  5
2D
102
{ACAD_REACTORS
330
2A
102
}
330
2A
100
AcDbProxyObject
 90
      499
 91
      501
 93
      412
310
41D1DBDD5C985D5910240902404333333333333E3BF0000000000000F9010740A411070040501641D405064090741402480A1B50
1001
ACAD
1000
AcDbSavedByObjectVersion
1070
     0
  0
ACAD_PROXY_OBJECT
  5
2E
102
{ACAD_REACTORS
330
2A
102
}
330
2A
100
AcDbProxyObject
 90
      499
 91
      501
 93
      500
310
4411DBDD5C985D5915DA5D1A115919D95CD0340902404333333333333E3BF0000000000000F9010740901411070040501600405405064090741402480A1B50
1001
ACAD
1000
AcDbSavedByObjectVersion
1070
     0
  0
ACAD_PROXY_OBJECT
  5
38
102
{ACAD_REACTORS
330
2A
102
}
330
2A
100
AcDbProxyObject
 90
      499
 91
      501
 93
      444
310
42D31A5B995C185D1D195C9B90E409028333333333333E3BF0000000000000FB010790141107004050750841D405064090741402483A0350
1001
ACAD
1000
AcDbSavedByObjectVersion
1070
     0
  0
ACAD_PROXY_OBJECT
  5
33
102
{ACAD_REACTORS
330
2A
102
}
330
2A
100
AcDbProxyObject
 90
      499
 91
      501
 93
      420
310
425499585B1A5CDD1A58D08409028333333333333E3BF0000000000000FB01079019070040501508421405064090741402480A1B40
1001
ACAD
1000
AcDbSavedByObjectVersion
1070
     0
  0
ACAD_PROXY_OBJECT
  5
37
102
{ACAD_REACTORS
330
2A
102
}
330
2A
100
AcDbProxyObject
 90
      499
 91
      501
 93
      412
310
41D51A1A58DAD95B90D409028333333333333E3BF0000000000000FB010790141107004050150C41D405064090741402480A0350
1001
ACAD
1000
AcDbSavedByObjectVersion
1070
     0
  0
XRECORD
  5
3EC
102
{ACAD_REACTORS
330
3E3
102
}
330
3E3
100
AcDbXrecord
 90
        0
  0
XRECORD
  5
402
102
{ACAD_REACTORS
330
3E3
102
}
330
3E3
100
AcDbXrecord
1000
DSTYLE
1002
{
1070
   340
340
11
1002
}
  0
XRECORD
  5
3ED
102
{ACAD_REACTORS
330
3E3
102
}
330
3E3
100
AcDbXrecord
  1
{2190E9C3-22A7-4A44-903F-B7CD3FB151F1}
  0
XRECORD
  5
3E6
102
{ACAD_REACTORS
330
3E3
102
}
330
3E3
100
AcDbXrecord
  1

  0
XRECORD
  5
3EB
102
{ACAD_REACTORS
330
3E3
102
}
330
3E3
100
AcDbXrecord
 90
        4
  0
XRECORD
  5
3E8
102
{ACAD_REACTORS
330
3E3
102
}
330
3E3
100
AcDbXrecord
340
1A
  0
XRECORD
  5
3EA
102
{ACAD_REACTORS
330
3E3
102
}
330
3E3
100
AcDbXrecord
 90
    10781
  0
XRECORD
  5
3E9
102
{ACAD_REACTORS
330
3E3
102
}
330
3E3
100
AcDbXrecord
340
19
  0
XRECORD
  5
3EF
102
{ACAD_REACTORS
330
3E3
102
}
330
3E3
100
AcDbXrecord
 40
0.0
  0
XRECORD
  5
3F2
102
{ACAD_REACTORS
330
3E3
102
}
330
3E3
100
AcDbXrecord
340
0
  0
XRECORD
  5
3F8
102
{ACAD_REACTORS
330
3E3
102
}
330
3E3
100
AcDbXrecord
 10
0.0
 20
0.0
 30
0.0
  0
XRECORD
  5
3F4
102
{ACAD_REACTORS
330
3E3
102
}
330
3E3
100
AcDbXrecord
 10
0.0
 20
0.0
 30
0.0
  0
XRECORD
  5
3F7
102
{ACAD_REACTORS
330
3E3
102
}
330
3E3
100
AcDbXrecord
 10
0.0
 20
0.0
 30
0.0
  0
XRECORD
  5
3F5
102
{ACAD_REACTORS
330
3E3
102
}
330
3E3
100
AcDbXrecord
 10
0.0
 20
0.0
 30
0.0
  0
XRECORD
  5
3F6
102
{ACAD_REACTORS
330
3E3
102
}
330
3E3
100
AcDbXrecord
 10
0.0
 20
0.0
 30
0.0
  0
XRECORD
  5
3F3
102
{ACAD_REACTORS
330
3E3
102
}
330
3E3
100
AcDbXrecord
 10
0.0
 20
0.0
 30
0.0
  0
XRECORD
  5
3F0
102
{ACAD_REACTORS
330
3E3
102
}
330
3E3
100
AcDbXrecord
340
0
  0
XRECORD
  5
3F1
102
{ACAD_REACTORS
330
3E3
102
}
330
3E3
100
AcDbXrecord
 70
     0
  0
XRECORD
  5
3E7
102
{ACAD_REACTORS
330
3E3
102
}
330
3E3
100
AcDbXrecord
  1

  0
XRECORD
  5
3E4
102
{ACAD_REACTORS
330
3E3
102
}
330
3E3
100
AcDbXrecord
 90
        1
  0
XRECORD
  5
3E5
102
{ACAD_REACTORS
330
3E3
102
}
330
3E3
100
AcDbXrecord
 90
       70
  0
XRECORD
  5
3FB
102
{ACAD_REACTORS
330
3E3
102
}
330
3E3
100
AcDbXrecord
340
0
  0
XRECORD
  5
401
102
{ACAD_REACTORS
330
3E3
102
}
330
3E3
100
AcDbXrecord
 10
0.0
 20
0.0
 30
0.0
  0
XRECORD
  5
3FD
102
{ACAD_REACTORS
330
3E3
102
}
330
3E3
100
AcDbXrecord
 10
0.0
 20
0.0
 30
0.0
  0
XRECORD
  5
400
102
{ACAD_REACTORS
330
3E3
102
}
330
3E3
100
AcDbXrecord
 10
0.0
 20
0.0
 30
0.0
  0
XRECORD
  5
3FE
102
{ACAD_REACTORS
330
3E3
102
}
330
3E3
100
AcDbXrecord
 10
0.0
 20
0.0
 30
0.0
  0
XRECORD
  5
3FF
102
{ACAD_REACTORS
330
3E3
102
}
330
3E3
100
AcDbXrecord
 10
0.0
 20
0.0
 30
0.0
  0
XRECORD
  5
3FC
102
{ACAD_REACTORS
330
3E3
102
}
330
3E3
100
AcDbXrecord
 10
0.0
 20
0.0
 30
0.0
  0
XRECORD
  5
3F9
102
{ACAD_REACTORS
330
3E3
102
}
330
3E3
100
AcDbXrecord
340
0
  0
XRECORD
  5
3FA
102
{ACAD_REACTORS
330
3E3
102
}
330
3E3
100
AcDbXrecord
 70
     0
  0
XRECORD
  5
3EE
102
{ACAD_REACTORS
330
3E3
102
}
330
3E3
100
AcDbXrecord
  1
{FAEB1C32-E019-11D5-929B-00C0DF256EC4}
  0
DICTIONARYVAR
  5
408
102
{ACAD_REACTORS
330
403
102
}
330
403
100
DictionaryVariables
280
     0
  1
2
  0
DICTIONARYVAR
  5
409
102
{ACAD_REACTORS
330
403
102
}
330
403
100
DictionaryVariables
280
     0
  1
1
  0
DICTIONARYVAR
  5
407
102
{ACAD_REACTORS
330
403
102
}
330
403
100
DictionaryVariables
280
     0
  1
80.000000
  0
DICTIONARYVAR
  5
406
102
{ACAD_REACTORS
330
403
102
}
330
403
100
DictionaryVariables
280
     0
  1
5.000000
  0
DICTIONARY
  5
40C
330
3D
100
AcDbDictionary
280
     1
  3
ACAD_XREC_ROUNDTRIP
360
40D
  0
DICTIONARY
  5
40A
330
3C
100
AcDbDictionary
280
     1
  3
ACAD_XREC_ROUNDTRIP
360
40B
  0
DICTIONARY
  5
40E
330
3E
100
AcDbDictionary
280
     1
  3
ACAD_XREC_ROUNDTRIP
360
40F
  0
XRECORD
  5
40D
102
{ACAD_REACTORS
330
40C
102
}
330
40C
100
AcDbXrecord
102
MATERIAL
148
0.0
149
0.0
149
0.0
 93
        0
 94
      127
282
     0
 72
     1
 77
     1
171
     1
175
     1
179
     1
273
     0
  0
XRECORD
  5
40B
102
{ACAD_REACTORS
330
40A
102
}
330
40A
100
AcDbXrecord
102
MATERIAL
148
0.0
149
0.0
149
0.0
 93
        0
 94
      127
282
     0
 72
     1
 77
     1
171
     1
175
     1
179
     1
273
     0
  0
XRECORD
  5
40F
102
{ACAD_REACTORS
330
40E
102
}
330
40E
100
AcDbXrecord
102
MATERIAL
148
0.0
149
0.0
149
0.0
 93
        0
 94
      127
282
     0
 72
     1
 77
     1
171
     1
175
     1
179
     1
273
     0
  0
ENDSEC
  0
EOF
