  0
SECTION
  2
HEADER
  9
$ACADVER
  1
AC1014
  9
$ACADMAINTVER
 70
     0
  9
$DWGCODEPAGE
  3
ANSI_932
  9
$INSBASE
 10
0.0
 20
0.0
 30
0.0
  9
$EXTMIN
 10
-269.4
 20
-109.4
 30
0.0
  9
$EXTMAX
 10
809.3
 20
562.6
 30
0.0
  9
$LIMMIN
 10
0.0
 20
0.0
  9
$LIMMAX
 10
420.0
 20
297.0
  9
$ORTHOMODE
 70
     0
  9
$REGENMODE
 70
     1
  9
$FILLMODE
 70
     1
  9
$QTEXTMODE
 70
     0
  9
$MIRRTEXT
 70
     1
  9
$DRAGMODE
 70
     2
  9
$LTSCALE
 40
1.0
  9
$OSMODE
 70
     0
  9
$ATTMODE
 70
     1
  9
$TEXTSIZE
 40
0.2
  9
$TRACEWID
 40
0.05
  9
$TEXTSTYLE
  7
STANDARD
  9
$CLAYER
  8
図枠
  9
$CELTYPE
  6
CONTINUOUS
  9
$CECOLOR
 62
   256
  9
$CELTSCALE
 40
1.0
  9
$DELOBJ
 70
     1
  9
$DISPSILH
 70
     0
  9
$DIMSCALE
 40
1.0
  9
$DIMASZ
 40
0.18
  9
$DIMEXO
 40
0.0625
  9
$DIMDLI
 40
0.38
  9
$DIMRND
 40
0.0
  9
$DIMDLE
 40
0.0
  9
$DIMEXE
 40
0.18
  9
$DIMTP
 40
0.0
  9
$DIMTM
 40
0.0
  9
$DIMTXT
 40
0.18
  9
$DIMCEN
 40
0.09
  9
$DIMTSZ
 40
0.0
  9
$DIMTOL
 70
     0
  9
$DIMLIM
 70
     0
  9
$DIMTIH
 70
     1
  9
$DIMTOH
 70
     1
  9
$DIMSE1
 70
     0
  9
$DIMSE2
 70
     0
  9
$DIMTAD
 70
     0
  9
$DIMZIN
 70
     0
  9
$DIMBLK
  1

  9
$DIMASO
 70
     1
  9
$DIMSHO
 70
     1
  9
$DIMPOST
  1

  9
$DIMAPOST
  1

  9
$DIMALT
 70
     0
  9
$DIMALTD
 70
     2
  9
$DIMALTF
 40
25.4
  9
$DIMLFAC
 40
1.0
  9
$DIMTOFL
 70
     0
  9
$DIMTVP
 40
0.0
  9
$DIMTIX
 70
     0
  9
$DIMSOXD
 70
     0
  9
$DIMSAH
 70
     0
  9
$DIMBLK1
  1

  9
$DIMBLK2
  1

  9
$DIMSTYLE
  2
STANDARD
  9
$DIMCLRD
 70
     0
  9
$DIMCLRE
 70
     0
  9
$DIMCLRT
 70
     0
  9
$DIMTFAC
 40
1.0
  9
$DIMGAP
 40
0.09
  9
$DIMJUST
 70
     0
  9
$DIMSD1
 70
     0
  9
$DIMSD2
 70
     0
  9
$DIMTOLJ
 70
     1
  9
$DIMTZIN
 70
     0
  9
$DIMALTZ
 70
     0
  9
$DIMALTTZ
 70
     0
  9
$DIMFIT
 70
     3
  9
$DIMUPT
 70
     0
  9
$DIMUNIT
 70
     2
  9
$DIMDEC
 70
     4
  9
$DIMTDEC
 70
     4
  9
$DIMALTU
 70
     2
  9
$DIMALTTD
 70
     2
  9
$DIMTXSTY
  7
STANDARD
  9
$DIMAUNIT
 70
     0
  9
$LUNITS
 70
     2
  9
$LUPREC
 70
     4
  9
$SKETCHINC
 40
0.1
  9
$FILLETRAD
 40
0.0
  9
$AUNITS
 70
     0
  9
$AUPREC
 70
     0
  9
$MENU
  1
acad
  9
$ELEVATION
 40
0.0
  9
$PELEVATION
 40
0.0
  9
$THICKNESS
 40
0.0
  9
$LIMCHECK
 70
     0
  9
$BLIPMODE
 70
     1
  9
$CHAMFERA
 40
0.0
  9
$CHAMFERB
 40
0.0
  9
$CHAMFERC
 40
0.0
  9
$CHAMFERD
 40
0.0
  9
$SKPOLY
 70
     0
  9
$TDCREATE
 40
2454536.420233356
  9
$TDUPDATE
 40
2454536.420233356
  9
$TDINDWG
 40
0.0000000000
  9
$TDUSRTIMER
 40
0.0000000000
  9
$USRTIMER
 70
     1
  9
$ANGBASE
 50
0.0
  9
$ANGDIR
 70
     0
  9
$PDMODE
 70
     0
  9
$PDSIZE
 40
0.0
  9
$PLINEWID
 40
0.0
  9
$COORDS
 70
     1
  9
$SPLFRAME
 70
     0
  9
$SPLINETYPE
 70
     6
  9
$SPLINESEGS
 70
     8
  9
$ATTDIA
 70
     0
  9
$ATTREQ
 70
     1
  9
$HANDLING
 70
     1
  9
$HANDSEED
  5
4EC
  9
$SURFTAB1
 70
     6
  9
$SURFTAB2
 70
     6
  9
$SURFTYPE
 70
     6
  9
$SURFU
 70
     6
  9
$SURFV
 70
     6
  9
$UCSNAME
  2

  9
$UCSORG
 10
0.0
 20
0.0
 30
0.0
  9
$UCSXDIR
 10
1.0
 20
0.0
 30
0.0
  9
$UCSYDIR
 10
0.0
 20
1.0
 30
0.0
  9
$PUCSNAME
  2

  9
$PUCSORG
 10
0.0
 20
0.0
 30
0.0
  9
$PUCSXDIR
 10
1.0
 20
0.0
 30
0.0
  9
$PUCSYDIR
 10
0.0
 20
1.0
 30
0.0
  9
$USERI1
 70
     0
  9
$USERI2
 70
     0
  9
$USERI3
 70
     0
  9
$USERI4
 70
     0
  9
$USERI5
 70
     0
  9
$USERR1
 40
0.0
  9
$USERR2
 40
0.0
  9
$USERR3
 40
0.0
  9
$USERR4
 40
0.0
  9
$USERR5
 40
0.0
  9
$WORLDVIEW
 70
     1
  9
$SHADEDGE
 70
     3
  9
$SHADEDIF
 70
    70
  9
$TILEMODE
 70
     1
  9
$MAXACTVP
 70
    16
  9
$PINSBASE
 10
0.0
 20
0.0
 30
0.0
  9
$PLIMCHECK
 70
     0
  9
$PEXTMIN
 10
1.000000E+20
 20
1.000000E+20
 30
1.000000E+20
  9
$PEXTMAX
 10
-1.000000E+20
 20
-1.000000E+20
 30
-1.000000E+20
  9
$PLIMMIN
 10
0.0
 20
0.0
  9
$PLIMMAX
 10
12.0
 20
9.0
  9
$UNITMODE
 70
     0
  9
$VISRETAIN
 70
     0
  9
$PLINEGEN
 70
     1
  9
$PSLTSCALE
 70
     0
  9
$TREEDEPTH
 70
  3020
  9
$PICKSTYLE
 70
     1
  9
$CMLSTYLE
  2
Standard
  9
$CMLJUST
 70
     0
  9
$CMLSCALE
 40
1.0
  9
$PROXYGRAPHICS
 70
     0
  9
$MEASUREMENT
 70
     0
  0
ENDSEC
  0
SECTION
  2
CLASSES
  0
CLASS
  1
LWPOLYLINE
  2
AcDbPolyline
  3
"AutoCAD"
 90
        0
280
     0
281
     1
  0
CLASS
  1
IMAGE
  2
AcDbRasterImage
  3
ISM
 90
      127
280
     0
281
     1
  0
CLASS
  1
OLE2FRAME
  2
AcDbOle2Frame
  3
""
 90
        0
280
     0
281
     1
  0
CLASS
  1
HATCH
  2
AcDbHatch
  3
"ACAD_SEDONA"
 90
        0
280
     0
281
     1
  0
CLASS
  1
DICTIONARYVAR
  2
AcDbDictionaryVar
  3
"AutoCAD"
 90
        0
280
     0
281
     0
  0
CLASS
  1
RASTERVARIABLES
  2
AcDbRasterVariables
  3
ISM
 90
        0
280
     0
281
     0
  0
CLASS
  1
IMAGEDEF
  2
AcDbRasterImageDef
  3
ISM
 90
        0
280
     0
281
     0
  0
CLASS
  1
IMAGEDEF_REACTOR
  2
AcDbRasterImageDefReactor
  3
ISM
 90
        1
280
     0
281
     0
  0
CLASS
  1
IDBUFFER
  2
AcDbIdBuffer
  3
"Acad"
 90
        0
280
     0
281
     0
  0
CLASS
  1
SPATIAL_FILTER
  2
AcDbSpatialFilter
  3
"Acad"
 90
        0
280
     0
281
     0
  0
CLASS
  1
XRECORD
  2
AcDbXrecord
  3
"<Built In>"
 90
        0
280
     0
281
     0
  0
CLASS
  1
SORTENTSTABLE
  2
AcDbSortentsTable
  3
"AutoCAD"
 90
        0
280
     0
281
     0
  0
CLASS
  1
LAYER_INDEX
  2
AcDbLayerIndex
  3
"Acad"
 90
        0
280
     0
281
     0
  0
CLASS
  1
SPATIAL_INDEX
  2
AcDbSpatialIndex
  3
"Acad"
 90
        0
280
     0
281
     0
  0
CLASS
  1
OBJECT_PTR
  2
CAseDLPNTableRecord
  3
"ASE-LPNTableRecord"
 90
        1
280
     0
281
     0
  0
CLASS
  1
LAYOUT
  2
AcDbLayout
  3
"AutoCAD 2000"
 90
        1
280
     0
281
     0
  0
CLASS
  1
PLOTSETTINGS
  2
AcDbPlotSettings
  3
"AutoCAD 2000"
 90
        1
280
     0
281
     0
  0
CLASS
  1
ACDBDICTIONARYWDFLT
  2
AcDbDictionaryWithDefault
  3
"AutoCAD 2000"
 90
        1
280
     0
281
     0
  0
CLASS
  1
ACDBPLACEHOLDER
  2
AcDbPlaceHolder
  3
"AutoCAD 2000"
 90
        1
280
     0
281
     0
  0
CLASS
  1
VBA_PROJECT
  2
AcDbVbaProject
  3
"acadvba"
 90
        1
280
     0
281
     0
  0
CLASS
  1
WIPEOUT
  2
AcDbWipeout
  3
WipeOut|AutoCAD Express Tool|expresstools@autodesk.com
 90
      127
280
     0
281
     1
  0
CLASS
  1
WIPEOUTVARIABLES
  2
AcDbWipeoutVariables
  3
WipeOut|AutoCAD Express Tool|expresstools@autodesk.com
 90
        0
280
     0
281
     0
  0
CLASS
  1
RTEXT
  2
RText
  3
RText|AutoCAD Express Tool|expresstools@autodesk.com
 90
        0
280
     0
281
     1
  0
CLASS
  1
ARCALIGNEDTEXT
  2
AcDbArcAlignedText
  3
ATEXT|AutoCAD Express Tool|expresstools@autodesk.com
 90
        0
280
     0
281
     1
  0
ENDSEC
  0
SECTION
  2
TABLES
  0
TABLE
  2
VPORT
  5
7
100
AcDbSymbolTable
 70
     1
  0
VPORT
  5
15
100
AcDbSymbolTableRecord
100
AcDbViewportTableRecord
  2
*ACTIVE
 70
     0
 10
0.0
 20
0.0
 11
1.0
 21
1.0
 12
1349.75
 22
1133.0
 13
0.0
 23
0.0
 14
1.0
 24
1.0
 15
0.0
 25
0.0
 16
0.0
 26
0.0
 36
1.0
 17
0.0
 27
0.0
 37
0.0
 40
3360.0
 41
1.722533
 42
50.0
 43
0.0
 44
0.0
 50
0.0
 51
0.0
 71
     0
 72
   100
 73
     1
 74
     1
 75
     0
 76
     0
 77
     0
 78
     0
  0
ENDTAB
  0
TABLE
  2
LTYPE
  5
4
100
AcDbSymbolTable
 70
     9
  0
LTYPE
  5
11
100
AcDbSymbolTableRecord
100
AcDbLinetypeTableRecord
  2
BYBLOCK
 70
    64
  3

 72
    65
 73
     0
 40
0.0
  0
LTYPE
  5
12
100
AcDbSymbolTableRecord
100
AcDbLinetypeTableRecord
  2
BYLAYER
 70
    64
  3

 72
    65
 73
     0
 40
0.0
  0
LTYPE
  5
13
100
AcDbSymbolTableRecord
100
AcDbLinetypeTableRecord
  2
CONTINUOUS
 70
    64
  3
実線
 72
    65
 73
     0
 40
0.0
  0
LTYPE
  5
1D
100
AcDbSymbolTableRecord
100
AcDbLinetypeTableRecord
  2
EXLTYPE1
 70
    64
  3
破線
 72
    65
 73
     2
 40
3.0
 49
2.0
 74
     0
 49
-1.0
 74
     0
  0
LTYPE
  5
1E
100
AcDbSymbolTableRecord
100
AcDbLinetypeTableRecord
  2
EXLTYPE2
 70
    64
  3
点線
 72
    65
 73
     2
 40
2.0
 49
1.0
 74
     0
 49
-1.0
 74
     0
  0
LTYPE
  5
1F
100
AcDbSymbolTableRecord
100
AcDbLinetypeTableRecord
  2
EXLTYPE3
 70
    64
  3
一点鎖線
 72
    65
 73
     4
 40
10.0
 49
7.0
 74
     0
 49
-1.0
 74
     0
 49
1.0
 74
     0
 49
-1.0
 74
     0
  0
LTYPE
  5
20
100
AcDbSymbolTableRecord
100
AcDbLinetypeTableRecord
  2
EXLTYPE4
 70
    64
  3
二点鎖線
 72
    65
 73
     6
 40
12.0
 49
7.0
 74
     0
 49
-1.0
 74
     0
 49
1.0
 74
     0
 49
-1.0
 74
     0
 49
1.0
 74
     0
 49
-1.0
 74
     0
  0
LTYPE
  5
21
100
AcDbSymbolTableRecord
100
AcDbLinetypeTableRecord
  2
EXLTYPE5
 70
    64
  3
三点鎖線
 72
    65
 73
     8
 40
37.0
 49
30.0
 74
     0
 49
-1.0
 74
     0
 49
1.0
 74
     0
 49
-1.0
 74
     0
 49
1.0
 74
     0
 49
-1.0
 74
     0
 49
1.0
 74
     0
 49
-1.0
 74
     0
  0
LTYPE
  5
22
100
AcDbSymbolTableRecord
100
AcDbLinetypeTableRecord
  2
EXLTYPE6
 70
    64
  3
四点鎖線
 72
    65
 73
    10
 40
39.0
 49
30.0
 74
     0
 49
-1.0
 74
     0
 49
1.0
 74
     0
 49
-1.0
 74
     0
 49
1.0
 74
     0
 49
-1.0
 74
     0
 49
1.0
 74
     0
 49
-1.0
 74
     0
 49
1.0
 74
     0
 49
-1.0
 74
     0
  0
ENDTAB
  0
TABLE
  2
LAYER
  5
2
100
AcDbSymbolTable
 70
     6
  0
LAYER
  5
14
100
AcDbSymbolTableRecord
100
AcDbLayerTableRecord
  2
0
 70
     0
 62
     7
  6
CONTINUOUS
  0
LAYER
  5
25
100
AcDbSymbolTableRecord
100
AcDbLayerTableRecord
  2
図枠
 70
    64
 62
     7
  6
CONTINUOUS
  0
LAYER
  5
26
100
AcDbSymbolTableRecord
100
AcDbLayerTableRecord
  2
図
 70
    64
 62
     7
  6
CONTINUOUS
  0
LAYER
  5
27
100
AcDbSymbolTableRecord
100
AcDbLayerTableRecord
  2
寸法
 70
    64
 62
     7
  6
CONTINUOUS
  0
LAYER
  5
28
100
AcDbSymbolTableRecord
100
AcDbLayerTableRecord
  2
モリ＼アンカー
 70
    64
 62
     7
  6
CONTINUOUS
  0
LAYER
  5
29
100
AcDbSymbolTableRecord
100
AcDbLayerTableRecord
  2
取付ビスセット
 70
    64
 62
     7
  6
CONTINUOUS
  0
ENDTAB
  0
TABLE
  2
STYLE
  5
3
100
AcDbSymbolTable
 70
     5
  0
STYLE
  5
17
100
AcDbSymbolTableRecord
100
AcDbTextStyleTableRecord
  2
STANDARD
 70
     0
 40
0.0
 41
1.0
 50
0.0
 71
     0
 42
0.0
  3
monotxt
  4
extfont
  0
STYLE
  5
23
100
AcDbSymbolTableRecord
100
AcDbTextStyleTableRecord
  2
EXCADSTD
 70
    64
 40
0.0
 41
1.0
 50
0.0
 71
     0
 42
0.2
  3
monotxt
  4
extfont
  0
STYLE
  5
24
100
AcDbSymbolTableRecord
100
AcDbTextStyleTableRecord
  2
EXCADVERT
 70
    68
 40
0.0
 41
1.0
 50
0.0
 71
     0
 42
0.286885
  3
monotxt
  4
extfont
  0
STYLE
  5
18F
100
AcDbSymbolTableRecord
100
AcDbTextStyleTableRecord
  2
EXCADDIM1
 70
    64
 40
0.0
 41
0.95
 50
0.0
 71
     0
 42
0.2
  3
monotxt
  4
extfont
  0
STYLE
  5
28A
100
AcDbSymbolTableRecord
100
AcDbTextStyleTableRecord
  2
EXCADDIM2
 70
    64
 40
0.0
 41
0.84
 50
0.0
 71
     0
 42
0.2
  3
monotxt
  4
extfont
  0
ENDTAB
  0
TABLE
  2
VIEW
  5
5
100
AcDbSymbolTable
 70
     0
  0
ENDTAB
  0
TABLE
  2
UCS
  5
6
100
AcDbSymbolTable
 70
     0
  0
ENDTAB
  0
TABLE
  2
APPID
  5
8
100
AcDbSymbolTable
 70
     1
  0
APPID
  5
16
100
AcDbSymbolTableRecord
100
AcDbRegAppTableRecord
  2
ACAD
 70
     0
  0
ENDTAB
  0
TABLE
  2
DIMSTYLE
  5
9
100
AcDbSymbolTable
 70
     1
  0
DIMSTYLE
105
18
100
AcDbSymbolTableRecord
100
AcDbDimStyleTableRecord
  2
STANDARD
 70
     0
  3

  4

  5

  6

  7

 40
1.0
 41
0.18
 42
0.0625
 43
0.38
 44
0.18
 45
0.0
 46
0.0
 47
0.0
 48
0.0
 71
     0
 72
     0
 73
     1
 74
     1
 75
     0
 76
     0
 77
     0
 78
     0
140
0.18
141
0.09
142
0.0
143
25.4
144
1.0
145
0.0
146
1.0
147
0.09
170
     0
171
     2
172
     1
173
     0
174
     0
175
     0
176
     0
177
     0
178
     0
270
     2
271
     4
272
     4
273
     2
274
     2
275
     0
280
     0
281
     0
282
     0
283
     1
284
     0
285
     0
286
     0
287
     0
288
     0
340
17
  0
ENDTAB
  0
TABLE
  2
BLOCK_RECORD
  5
1
100
AcDbSymbolTable
 70
    32
  0
BLOCK_RECORD
  5
A
100
AcDbSymbolTableRecord
100
AcDbBlockTableRecord
  2
*MODEL_SPACE
  0
BLOCK_RECORD
  5
B
100
AcDbSymbolTableRecord
100
AcDbBlockTableRecord
  2
*PAPER_SPACE
  0
BLOCK_RECORD
  5
2A
100
AcDbSymbolTableRecord
100
AcDbBlockTableRecord
  2
_EX_NORM
  0
BLOCK_RECORD
  5
2B
100
AcDbSymbolTableRecord
100
AcDbBlockTableRecord
  2
_EX_BNORM
  0
BLOCK_RECORD
  5
2C
100
AcDbSymbolTableRecord
100
AcDbBlockTableRecord
  2
_EX_BCIR
  0
BLOCK_RECORD
  5
2D
100
AcDbSymbolTableRecord
100
AcDbBlockTableRecord
  2
_EX_RCIVIL
  0
BLOCK_RECORD
  5
2E
100
AcDbSymbolTableRecord
100
AcDbBlockTableRecord
  2
_EX_SLANT
  0
BLOCK_RECORD
  5
2F
100
AcDbSymbolTableRecord
100
AcDbBlockTableRecord
  2
_EX_NONE
  0
BLOCK_RECORD
  5
30
100
AcDbSymbolTableRecord
100
AcDbBlockTableRecord
  2
_EX_CIVIL
  0
BLOCK_RECORD
  5
31
100
AcDbSymbolTableRecord
100
AcDbBlockTableRecord
  2
_EX_WCIR
  0
BLOCK_RECORD
  5
32
100
AcDbSymbolTableRecord
100
AcDbBlockTableRecord
  2
_EX_WCIR2
  0
BLOCK_RECORD
  5
33
100
AcDbSymbolTableRecord
100
AcDbBlockTableRecord
  2
_EX_WNORM
  0
BLOCK_RECORD
  5
34
100
AcDbSymbolTableRecord
100
AcDbBlockTableRecord
  2
_EX_NNORM
  0
BLOCK_RECORD
  5
35
100
AcDbSymbolTableRecord
100
AcDbBlockTableRecord
  2
_EX_BBOX
  0
BLOCK_RECORD
  5
36
100
AcDbSymbolTableRecord
100
AcDbBlockTableRecord
  2
_EX_WBOX
  0
BLOCK_RECORD
  5
37
100
AcDbSymbolTableRecord
100
AcDbBlockTableRecord
  2
_EX_INTEGRAL
  0
BLOCK_RECORD
  5
184
100
AcDbSymbolTableRecord
100
AcDbBlockTableRecord
  2
*D14
  0
BLOCK_RECORD
  5
191
100
AcDbSymbolTableRecord
100
AcDbBlockTableRecord
  2
*D15
  0
BLOCK_RECORD
  5
19D
100
AcDbSymbolTableRecord
100
AcDbBlockTableRecord
  2
*D16
  0
BLOCK_RECORD
  5
1A9
100
AcDbSymbolTableRecord
100
AcDbBlockTableRecord
  2
*D17
  0
BLOCK_RECORD
  5
1B5
100
AcDbSymbolTableRecord
100
AcDbBlockTableRecord
  2
*D18
  0
BLOCK_RECORD
  5
1C0
100
AcDbSymbolTableRecord
100
AcDbBlockTableRecord
  2
*D19
  0
BLOCK_RECORD
  5
1CC
100
AcDbSymbolTableRecord
100
AcDbBlockTableRecord
  2
*D20
  0
BLOCK_RECORD
  5
200
100
AcDbSymbolTableRecord
100
AcDbBlockTableRecord
  2
*D21
  0
BLOCK_RECORD
  5
208
100
AcDbSymbolTableRecord
100
AcDbBlockTableRecord
  2
*D22
  0
BLOCK_RECORD
  5
21F
100
AcDbSymbolTableRecord
100
AcDbBlockTableRecord
  2
*D23
  0
BLOCK_RECORD
  5
230
100
AcDbSymbolTableRecord
100
AcDbBlockTableRecord
  2
*D24
  0
BLOCK_RECORD
  5
243
100
AcDbSymbolTableRecord
100
AcDbBlockTableRecord
  2
*D25
  0
BLOCK_RECORD
  5
24F
100
AcDbSymbolTableRecord
100
AcDbBlockTableRecord
  2
*D26
  0
BLOCK_RECORD
  5
25B
100
AcDbSymbolTableRecord
100
AcDbBlockTableRecord
  2
*D27
  0
BLOCK_RECORD
  5
267
100
AcDbSymbolTableRecord
100
AcDbBlockTableRecord
  2
*D28
  0
BLOCK_RECORD
  5
273
100
AcDbSymbolTableRecord
100
AcDbBlockTableRecord
  2
*D29
  0
BLOCK_RECORD
  5
27F
100
AcDbSymbolTableRecord
100
AcDbBlockTableRecord
  2
*D30
  0
BLOCK_RECORD
  5
28C
100
AcDbSymbolTableRecord
100
AcDbBlockTableRecord
  2
*D31
  0
ENDTAB
  0
ENDSEC
  0
SECTION
  2
BLOCKS
  0
BLOCK
  5
D
100
AcDbEntity
  8
0
100
AcDbBlockBegin
  2
*MODEL_SPACE
 70
     0
 10
0.0
 20
0.0
 30
0.0
  3
*MODEL_SPACE
  1

  0
ENDBLK
  5
E
100
AcDbEntity
  8
0
100
AcDbBlockEnd
  0
BLOCK
  5
F
100
AcDbEntity
 67
     1
  8
0
100
AcDbBlockBegin
  2
*PAPER_SPACE
 70
     0
 10
0.0
 20
0.0
 30
0.0
  3
*PAPER_SPACE
  1

  0
ENDBLK
  5
10
100
AcDbEntity
 67
     1
  8
0
100
AcDbBlockEnd
  0
BLOCK
  5
38
100
AcDbEntity
  8
0
100
AcDbBlockBegin
  2
_EX_NORM
 70
     0
 10
0.0
 20
0.0
 30
0.0
  3
_EX_NORM
  1

  0
LINE
  5
39
100
AcDbEntity
  8
0
  6
CONTINUOUS
 62
     0
100
AcDbLine
 10
0.0
 20
0.0
 30
0.0
 11
-1.0
 21
0.0
 31
0.0
  0
LINE
  5
3A
100
AcDbEntity
  8
0
  6
CONTINUOUS
 62
     0
100
AcDbLine
 10
0.0
 20
0.0
 30
0.0
 11
-1.0
 21
0.166667
 31
0.0
  0
LINE
  5
3B
100
AcDbEntity
  8
0
  6
CONTINUOUS
 62
     0
100
AcDbLine
 10
0.0
 20
0.0
 30
0.0
 11
-1.0
 21
-0.166667
 31
0.0
  0
ENDBLK
  5
3C
100
AcDbEntity
  8
0
100
AcDbBlockEnd
  0
BLOCK
  5
3D
100
AcDbEntity
  8
0
100
AcDbBlockBegin
  2
_EX_BNORM
 70
     0
 10
0.0
 20
0.0
 30
0.0
  3
_EX_BNORM
  1

  0
LINE
  5
3E
100
AcDbEntity
  8
0
  6
CONTINUOUS
 62
     0
100
AcDbLine
 10
0.0
 20
0.0
 30
0.0
 11
-1.0
 21
0.0
 31
0.0
  0
LINE
  5
3F
100
AcDbEntity
  8
0
  6
CONTINUOUS
 62
     0
100
AcDbLine
 10
0.0
 20
0.0
 30
0.0
 11
-1.0
 21
0.166667
 31
0.0
  0
LINE
  5
40
100
AcDbEntity
  8
0
  6
CONTINUOUS
 62
     0
100
AcDbLine
 10
0.0
 20
0.0
 30
0.0
 11
-1.0
 21
-0.166667
 31
0.0
  0
LINE
  5
41
100
AcDbEntity
  8
0
  6
CONTINUOUS
 62
     0
100
AcDbLine
 10
0.0
 20
0.0
 30
0.0
 11
-1.0
 21
0.083333
 31
0.0
  0
LINE
  5
42
100
AcDbEntity
  8
0
  6
CONTINUOUS
 62
     0
100
AcDbLine
 10
0.0
 20
0.0
 30
0.0
 11
-1.0
 21
-0.083333
 31
0.0
  0
LINE
  5
43
100
AcDbEntity
  8
0
  6
CONTINUOUS
 62
     0
100
AcDbLine
 10
-1.0
 20
0.166667
 30
0.0
 11
-1.0
 21
-0.166667
 31
0.0
  0
ENDBLK
  5
44
100
AcDbEntity
  8
0
100
AcDbBlockEnd
  0
BLOCK
  5
45
100
AcDbEntity
  8
0
100
AcDbBlockBegin
  2
_EX_BCIR
 70
     0
 10
0.0
 20
0.0
 30
0.0
  3
_EX_BCIR
  1

  0
LINE
  5
46
100
AcDbEntity
  8
0
  6
CONTINUOUS
 62
     0
100
AcDbLine
 10
0.0
 20
0.0
 30
0.0
 11
-1.0
 21
0.0
 31
0.0
  0
CIRCLE
  5
47
100
AcDbEntity
  8
0
  6
CONTINUOUS
 62
     0
100
AcDbCircle
 10
0.0
 20
0.0
 30
0.0
 40
0.5
  0
CIRCLE
  5
48
100
AcDbEntity
  8
0
  6
CONTINUOUS
 62
     0
100
AcDbCircle
 10
0.0
 20
0.0
 30
0.0
 40
0.25
  0
ENDBLK
  5
49
100
AcDbEntity
  8
0
100
AcDbBlockEnd
  0
BLOCK
  5
4A
100
AcDbEntity
  8
0
100
AcDbBlockBegin
  2
_EX_RCIVIL
 70
     0
 10
0.0
 20
0.0
 30
0.0
  3
_EX_RCIVIL
  1

  0
LINE
  5
4B
100
AcDbEntity
  8
0
  6
CONTINUOUS
 62
     0
100
AcDbLine
 10
0.0
 20
0.0
 30
0.0
 11
-1.0
 21
0.0
 31
0.0
  0
LINE
  5
4C
100
AcDbEntity
  8
0
  6
CONTINUOUS
 62
     0
100
AcDbLine
 10
-1.0
 20
-0.25
 30
0.0
 11
0.0
 21
-0.25
 31
0.0
  0
LINE
  5
4D
100
AcDbEntity
  8
0
  6
CONTINUOUS
 62
     0
100
AcDbLine
 10
-1.0
 20
-0.125
 30
0.0
 11
0.0
 21
-0.125
 31
0.0
  0
ENDBLK
  5
4E
100
AcDbEntity
  8
0
100
AcDbBlockEnd
  0
BLOCK
  5
4F
100
AcDbEntity
  8
0
100
AcDbBlockBegin
  2
_EX_SLANT
 70
     0
 10
0.0
 20
0.0
 30
0.0
  3
_EX_SLANT
  1

  0
LINE
  5
50
100
AcDbEntity
  8
0
  6
CONTINUOUS
 62
     0
100
AcDbLine
 10
0.0
 20
0.0
 30
0.0
 11
-1.0
 21
0.0
 31
0.0
  0
LINE
  5
51
100
AcDbEntity
  8
0
  6
CONTINUOUS
 62
     0
100
AcDbLine
 10
0.707107
 20
0.707107
 30
0.0
 11
-0.707107
 21
-0.707107
 31
0.0
  0
ENDBLK
  5
52
100
AcDbEntity
  8
0
100
AcDbBlockEnd
  0
BLOCK
  5
53
100
AcDbEntity
  8
0
100
AcDbBlockBegin
  2
_EX_NONE
 70
     0
 10
0.0
 20
0.0
 30
0.0
  3
_EX_NONE
  1

  0
LINE
  5
54
100
AcDbEntity
  8
0
  6
CONTINUOUS
 62
     0
100
AcDbLine
 10
0.0
 20
0.0
 30
0.0
 11
-1.0
 21
0.0
 31
0.0
  0
ENDBLK
  5
55
100
AcDbEntity
  8
0
100
AcDbBlockEnd
  0
BLOCK
  5
56
100
AcDbEntity
  8
0
100
AcDbBlockBegin
  2
_EX_CIVIL
 70
     0
 10
0.0
 20
0.0
 30
0.0
  3
_EX_CIVIL
  1

  0
LINE
  5
57
100
AcDbEntity
  8
0
  6
CONTINUOUS
 62
     0
100
AcDbLine
 10
0.0
 20
0.0
 30
0.0
 11
-1.0
 21
0.0
 31
0.0
  0
LINE
  5
58
100
AcDbEntity
  8
0
  6
CONTINUOUS
 62
     0
100
AcDbLine
 10
-1.0
 20
0.25
 30
0.0
 11
0.0
 21
0.25
 31
0.0
  0
LINE
  5
59
100
AcDbEntity
  8
0
  6
CONTINUOUS
 62
     0
100
AcDbLine
 10
-1.0
 20
0.125
 30
0.0
 11
0.0
 21
0.125
 31
0.0
  0
ENDBLK
  5
5A
100
AcDbEntity
  8
0
100
AcDbBlockEnd
  0
BLOCK
  5
5B
100
AcDbEntity
  8
0
100
AcDbBlockBegin
  2
_EX_WCIR
 70
     0
 10
0.0
 20
0.0
 30
0.0
  3
_EX_WCIR
  1

  0
LINE
  5
5C
100
AcDbEntity
  8
0
  6
CONTINUOUS
 62
     0
100
AcDbLine
 10
0.0
 20
0.0
 30
0.0
 11
-1.0
 21
0.0
 31
0.0
  0
CIRCLE
  5
5D
100
AcDbEntity
  8
0
  6
CONTINUOUS
 62
     0
100
AcDbCircle
 10
0.0
 20
0.0
 30
0.0
 40
0.5
  0
ENDBLK
  5
5E
100
AcDbEntity
  8
0
100
AcDbBlockEnd
  0
BLOCK
  5
5F
100
AcDbEntity
  8
0
100
AcDbBlockBegin
  2
_EX_WCIR2
 70
     0
 10
0.0
 20
0.0
 30
0.0
  3
_EX_WCIR2
  1

  0
LINE
  5
60
100
AcDbEntity
  8
0
  6
CONTINUOUS
 62
     0
100
AcDbLine
 10
-0.5
 20
0.0
 30
0.0
 11
-1.0
 21
0.0
 31
0.0
  0
CIRCLE
  5
61
100
AcDbEntity
  8
0
  6
CONTINUOUS
 62
     0
100
AcDbCircle
 10
0.0
 20
0.0
 30
0.0
 40
0.5
  0
ENDBLK
  5
62
100
AcDbEntity
  8
0
100
AcDbBlockEnd
  0
BLOCK
  5
63
100
AcDbEntity
  8
0
100
AcDbBlockBegin
  2
_EX_WNORM
 70
     0
 10
0.0
 20
0.0
 30
0.0
  3
_EX_WNORM
  1

  0
LINE
  5
64
100
AcDbEntity
  8
0
  6
CONTINUOUS
 62
     0
100
AcDbLine
 10
-1.0
 20
0.0
 30
0.0
 11
-1.0
 21
0.0
 31
0.0
  0
LINE
  5
65
100
AcDbEntity
  8
0
  6
CONTINUOUS
 62
     0
100
AcDbLine
 10
0.0
 20
0.0
 30
0.0
 11
-1.0
 21
0.166667
 31
0.0
  0
LINE
  5
66
100
AcDbEntity
  8
0
  6
CONTINUOUS
 62
     0
100
AcDbLine
 10
0.0
 20
0.0
 30
0.0
 11
-1.0
 21
-0.166667
 31
0.0
  0
LINE
  5
67
100
AcDbEntity
  8
0
  6
CONTINUOUS
 62
     0
100
AcDbLine
 10
-1.0
 20
0.166667
 30
0.0
 11
-1.0
 21
-0.166667
 31
0.0
  0
ENDBLK
  5
68
100
AcDbEntity
  8
0
100
AcDbBlockEnd
  0
BLOCK
  5
69
100
AcDbEntity
  8
0
100
AcDbBlockBegin
  2
_EX_NNORM
 70
     0
 10
0.0
 20
0.0
 30
0.0
  3
_EX_NNORM
  1

  0
LINE
  5
6A
100
AcDbEntity
  8
0
  6
CONTINUOUS
 62
     0
100
AcDbLine
 10
0.0
 20
0.0
 30
0.0
 11
-1.0
 21
0.0
 31
0.0
  0
LINE
  5
6B
100
AcDbEntity
  8
0
  6
CONTINUOUS
 62
     0
100
AcDbLine
 10
0.0
 20
0.0
 30
0.0
 11
-1.0
 21
0.166667
 31
0.0
  0
LINE
  5
6C
100
AcDbEntity
  8
0
  6
CONTINUOUS
 62
     0
100
AcDbLine
 10
0.0
 20
0.0
 30
0.0
 11
-1.0
 21
-0.166667
 31
0.0
  0
LINE
  5
6D
100
AcDbEntity
  8
0
  6
CONTINUOUS
 62
     0
100
AcDbLine
 10
-1.0
 20
0.166667
 30
0.0
 11
-1.0
 21
-0.166667
 31
0.0
  0
ENDBLK
  5
6E
100
AcDbEntity
  8
0
100
AcDbBlockEnd
  0
BLOCK
  5
6F
100
AcDbEntity
  8
0
100
AcDbBlockBegin
  2
_EX_BBOX
 70
     0
 10
0.0
 20
0.0
 30
0.0
  3
_EX_BBOX
  1

  0
LINE
  5
70
100
AcDbEntity
  8
0
  6
CONTINUOUS
 62
     0
100
AcDbLine
 10
0.0
 20
0.0
 30
0.0
 11
-1.0
 21
0.0
 31
0.0
  0
LINE
  5
71
100
AcDbEntity
  8
0
  6
CONTINUOUS
 62
     0
100
AcDbLine
 10
-0.5
 20
0.5
 30
0.0
 11
0.5
 21
0.5
 31
0.0
  0
LINE
  5
72
100
AcDbEntity
  8
0
  6
CONTINUOUS
 62
     0
100
AcDbLine
 10
0.5
 20
0.5
 30
0.0
 11
0.5
 21
-0.5
 31
0.0
  0
LINE
  5
73
100
AcDbEntity
  8
0
  6
CONTINUOUS
 62
     0
100
AcDbLine
 10
0.5
 20
-0.5
 30
0.0
 11
-0.5
 21
-0.5
 31
0.0
  0
LINE
  5
74
100
AcDbEntity
  8
0
  6
CONTINUOUS
 62
     0
100
AcDbLine
 10
-0.5
 20
-0.5
 30
0.0
 11
-0.5
 21
0.5
 31
0.0
  0
LINE
  5
75
100
AcDbEntity
  8
0
  6
CONTINUOUS
 62
     0
100
AcDbLine
 10
-0.25
 20
0.25
 30
0.0
 11
0.25
 21
0.25
 31
0.0
  0
LINE
  5
76
100
AcDbEntity
  8
0
  6
CONTINUOUS
 62
     0
100
AcDbLine
 10
0.25
 20
0.25
 30
0.0
 11
0.25
 21
-0.25
 31
0.0
  0
LINE
  5
77
100
AcDbEntity
  8
0
  6
CONTINUOUS
 62
     0
100
AcDbLine
 10
0.25
 20
-0.25
 30
0.0
 11
-0.25
 21
-0.25
 31
0.0
  0
LINE
  5
78
100
AcDbEntity
  8
0
  6
CONTINUOUS
 62
     0
100
AcDbLine
 10
-0.25
 20
-0.25
 30
0.0
 11
-0.25
 21
0.25
 31
0.0
  0
ENDBLK
  5
79
100
AcDbEntity
  8
0
100
AcDbBlockEnd
  0
BLOCK
  5
7A
100
AcDbEntity
  8
0
100
AcDbBlockBegin
  2
_EX_WBOX
 70
     0
 10
0.0
 20
0.0
 30
0.0
  3
_EX_WBOX
  1

  0
LINE
  5
7B
100
AcDbEntity
  8
0
  6
CONTINUOUS
 62
     0
100
AcDbLine
 10
-0.5
 20
0.0
 30
0.0
 11
-1.0
 21
0.0
 31
0.0
  0
LINE
  5
7C
100
AcDbEntity
  8
0
  6
CONTINUOUS
 62
     0
100
AcDbLine
 10
-0.5
 20
0.5
 30
0.0
 11
0.5
 21
0.5
 31
0.0
  0
LINE
  5
7D
100
AcDbEntity
  8
0
  6
CONTINUOUS
 62
     0
100
AcDbLine
 10
0.5
 20
0.5
 30
0.0
 11
0.5
 21
-0.5
 31
0.0
  0
LINE
  5
7E
100
AcDbEntity
  8
0
  6
CONTINUOUS
 62
     0
100
AcDbLine
 10
0.5
 20
-0.5
 30
0.0
 11
-0.5
 21
-0.5
 31
0.0
  0
LINE
  5
7F
100
AcDbEntity
  8
0
  6
CONTINUOUS
 62
     0
100
AcDbLine
 10
-0.5
 20
-0.5
 30
0.0
 11
-0.5
 21
0.5
 31
0.0
  0
ENDBLK
  5
80
100
AcDbEntity
  8
0
100
AcDbBlockEnd
  0
BLOCK
  5
81
100
AcDbEntity
  8
0
100
AcDbBlockBegin
  2
_EX_INTEGRAL
 70
     0
 10
0.0
 20
0.0
 30
0.0
  3
_EX_INTEGRAL
  1

  0
LINE
  5
82
100
AcDbEntity
  8
0
  6
CONTINUOUS
 62
     0
100
AcDbLine
 10
0.0
 20
0.0
 30
0.0
 11
-1.0
 21
0.0
 31
0.0
  0
ARC
  5
83
100
AcDbEntity
  8
0
  6
CONTINUOUS
 62
     0
100
AcDbCircle
 10
0.542115
 20
0.164992
 30
0.0
 40
0.56667
100
AcDbArc
 50
73.07249
 51
196.927513
  0
ARC
  5
84
100
AcDbEntity
  8
0
  6
CONTINUOUS
 62
     0
100
AcDbCircle
 10
-0.542115
 20
-0.164992
 30
0.0
 40
0.56667
100
AcDbArc
 50
253.072487
 51
16.927513
  0
ENDBLK
  5
85
100
AcDbEntity
  8
0
100
AcDbBlockEnd
  0
BLOCK
  5
185
100
AcDbEntity
  8
0
100
AcDbBlockBegin
  2
*D14
 70
    65
 10
0.0
 20
0.0
 30
0.0
  3
*D14
  1

  0
LINE
  5
186
100
AcDbEntity
  8
寸法
  6
CONTINUOUS
 62
     3
100
AcDbLine
 10
1203.369029
 20
413.0
 30
0.0
 11
1203.369029
 21
361.0
 31
0.0
  0
LINE
  5
187
100
AcDbEntity
  8
寸法
  6
CONTINUOUS
 62
     3
100
AcDbLine
 10
1246.369029
 20
413.0
 30
0.0
 11
1246.369029
 21
361.0
 31
0.0
  0
TEXT
  5
188
100
AcDbEntity
  8
寸法
  6
CONTINUOUS
 62
     2
100
AcDbText
 10
1268.629029
 20
372.75
 30
0.0
 40
20.0
  1
%%c43
 41
0.945
  7
EXCADSTD
 72
     1
 11
1293.619029
 21
372.75
 31
0.0
100
AcDbText
  0
LINE
  5
189
100
AcDbEntity
  8
寸法
  6
CONTINUOUS
 62
     3
100
AcDbLine
 10
1180.869029
 20
371.0
 30
0.0
 11
1325.119029
 21
371.0
 31
0.0
  0
LINE
  5
18A
100
AcDbEntity
  8
寸法
  6
CONTINUOUS
 62
     3
100
AcDbLine
 10
1185.869029
 20
368.083333
 30
0.0
 11
1203.369029
 21
371.0
 31
0.0
  0
LINE
  5
18B
100
AcDbEntity
  8
寸法
  6
CONTINUOUS
 62
     3
100
AcDbLine
 10
1203.369029
 20
371.0
 30
0.0
 11
1185.869029
 21
373.916667
 31
0.0
  0
LINE
  5
18C
100
AcDbEntity
  8
寸法
  6
CONTINUOUS
 62
     3
100
AcDbLine
 10
1263.869029
 20
373.916667
 30
0.0
 11
1246.369029
 21
371.0
 31
0.0
  0
LINE
  5
18D
100
AcDbEntity
  8
寸法
  6
CONTINUOUS
 62
     3
100
AcDbLine
 10
1246.369029
 20
371.0
 30
0.0
 11
1263.869029
 21
368.083333
 31
0.0
  0
ENDBLK
  5
18E
100
AcDbEntity
  8
0
100
AcDbBlockEnd
  0
BLOCK
  5
192
100
AcDbEntity
  8
0
100
AcDbBlockBegin
  2
*D15
 70
    65
 10
0.0
 20
0.0
 30
0.0
  3
*D15
  1

  0
LINE
  5
193
100
AcDbEntity
  8
寸法
  6
CONTINUOUS
 62
     3
100
AcDbLine
 10
1255.369029
 20
463.0
 30
0.0
 11
1255.369029
 21
531.0
 31
0.0
  0
LINE
  5
194
100
AcDbEntity
  8
寸法
  6
CONTINUOUS
 62
     3
100
AcDbLine
 10
1194.369029
 20
463.0
 30
0.0
 11
1194.369029
 21
531.0
 31
0.0
  0
TEXT
  5
195
100
AcDbEntity
  8
寸法
  6
CONTINUOUS
 62
     2
100
AcDbText
 10
1199.879029
 20
522.75
 30
0.0
 40
20.0
  1
%%c61
 41
0.945
  7
EXCADSTD
 72
     1
 11
1224.869029
 21
522.75
 31
0.0
100
AcDbText
  0
LINE
  5
196
100
AcDbEntity
  8
寸法
  6
CONTINUOUS
 62
     3
100
AcDbLine
 10
1255.369029
 20
521.0
 30
0.0
 11
1194.369029
 21
521.0
 31
0.0
  0
LINE
  5
197
100
AcDbEntity
  8
寸法
  6
CONTINUOUS
 62
     3
100
AcDbLine
 10
1237.869029
 20
518.083333
 30
0.0
 11
1255.369029
 21
521.0
 31
0.0
  0
LINE
  5
198
100
AcDbEntity
  8
寸法
  6
CONTINUOUS
 62
     3
100
AcDbLine
 10
1255.369029
 20
521.0
 30
0.0
 11
1237.869029
 21
523.916667
 31
0.0
  0
LINE
  5
199
100
AcDbEntity
  8
寸法
  6
CONTINUOUS
 62
     3
100
AcDbLine
 10
1211.869029
 20
523.916667
 30
0.0
 11
1194.369029
 21
521.0
 31
0.0
  0
LINE
  5
19A
100
AcDbEntity
  8
寸法
  6
CONTINUOUS
 62
     3
100
AcDbLine
 10
1194.369029
 20
521.0
 30
0.0
 11
1211.869029
 21
518.083333
 31
0.0
  0
ENDBLK
  5
19B
100
AcDbEntity
  8
0
100
AcDbBlockEnd
  0
BLOCK
  5
19E
100
AcDbEntity
  8
0
100
AcDbBlockBegin
  2
*D16
 70
    65
 10
0.0
 20
0.0
 30
0.0
  3
*D16
  1

  0
LINE
  5
19F
100
AcDbEntity
  8
寸法
  6
CONTINUOUS
 62
     3
100
AcDbLine
 10
1245.369029
 20
450.5
 30
0.0
 11
1314.674612
 21
519.805583
 31
0.0
  0
LINE
  5
1A0
100
AcDbEntity
  8
寸法
  6
CONTINUOUS
 62
     3
100
AcDbLine
 10
1204.369029
 20
450.5
 30
0.0
 11
1135.063446
 21
519.805583
 31
0.0
  0
TEXT
  5
1A1
100
AcDbEntity
  8
寸法
  6
CONTINUOUS
 62
     2
100
AcDbText
 10
1204.604029
 20
548.754273
 30
0.0
 40
20.0
  1
90%%d
 41
0.945
  7
EXCADSTD
 72
     1
 11
1224.869029
 21
548.754273
 31
0.0
100
AcDbText
  0
ARC
  5
1A2
100
AcDbEntity
  8
寸法
  6
CONTINUOUS
 62
     3
100
AcDbCircle
 10
1224.869029
 20
429.999966
 30
0.0
 40
117.004297
100
AcDbArc
 50
45.000012
 51
134.999988
  0
LINE
  5
1A3
100
AcDbEntity
  8
寸法
  6
CONTINUOUS
 62
     3
100
AcDbLine
 10
1293.166781
 20
523.046489
 30
0.0
 11
1307.603544
 21
512.734515
 31
0.0
  0
LINE
  5
1A4
100
AcDbEntity
  8
寸法
  6
CONTINUOUS
 62
     3
100
AcDbLine
 10
1307.603544
 20
512.734515
 30
0.0
 11
1297.29157
 21
527.171279
 31
0.0
  0
LINE
  5
1A5
100
AcDbEntity
  8
寸法
  6
CONTINUOUS
 62
     3
100
AcDbLine
 10
1152.446488
 20
527.171279
 30
0.0
 11
1142.134514
 21
512.734515
 31
0.0
  0
LINE
  5
1A6
100
AcDbEntity
  8
寸法
  6
CONTINUOUS
 62
     3
100
AcDbLine
 10
1142.134514
 20
512.734515
 30
0.0
 11
1156.571277
 21
523.046489
 31
0.0
  0
ENDBLK
  5
1A7
100
AcDbEntity
  8
0
100
AcDbBlockEnd
  0
BLOCK
  5
1AA
100
AcDbEntity
  8
0
100
AcDbBlockBegin
  2
*D17
 70
    65
 10
0.0
 20
0.0
 30
0.0
  3
*D17
  1

  0
LINE
  5
1AB
100
AcDbEntity
  8
寸法
  6
CONTINUOUS
 62
     3
100
AcDbLine
 10
1134.869029
 20
409.9
 30
0.0
 11
1134.869029
 21
321.0
 31
0.0
  0
LINE
  5
1AC
100
AcDbEntity
  8
寸法
  6
CONTINUOUS
 62
     3
100
AcDbLine
 10
1224.869029
 20
408.0
 30
0.0
 11
1224.869029
 21
321.0
 31
0.0
  0
TEXT
  5
1AD
100
AcDbEntity
  8
寸法
  6
CONTINUOUS
 62
     2
100
AcDbText
 10
1162.649029
 20
332.75
 30
0.0
 40
20.0
  1
90
 41
0.945
  7
EXCADSTD
 72
     1
 11
1179.869029
 21
332.75
 31
0.0
100
AcDbText
  0
LINE
  5
1AE
100
AcDbEntity
  8
寸法
  6
CONTINUOUS
 62
     3
100
AcDbLine
 10
1134.869029
 20
331.0
 30
0.0
 11
1224.869029
 21
331.0
 31
0.0
  0
LINE
  5
1AF
100
AcDbEntity
  8
寸法
  6
CONTINUOUS
 62
     3
100
AcDbLine
 10
1152.369029
 20
333.916667
 30
0.0
 11
1134.869029
 21
331.0
 31
0.0
  0
LINE
  5
1B0
100
AcDbEntity
  8
寸法
  6
CONTINUOUS
 62
     3
100
AcDbLine
 10
1134.869029
 20
331.0
 30
0.0
 11
1152.369029
 21
328.083333
 31
0.0
  0
LINE
  5
1B1
100
AcDbEntity
  8
寸法
  6
CONTINUOUS
 62
     3
100
AcDbLine
 10
1207.369029
 20
328.083333
 30
0.0
 11
1224.869029
 21
331.0
 31
0.0
  0
LINE
  5
1B2
100
AcDbEntity
  8
寸法
  6
CONTINUOUS
 62
     3
100
AcDbLine
 10
1224.869029
 20
331.0
 30
0.0
 11
1207.369029
 21
333.916667
 31
0.0
  0
ENDBLK
  5
1B3
100
AcDbEntity
  8
0
100
AcDbBlockEnd
  0
BLOCK
  5
1B6
100
AcDbEntity
  8
0
100
AcDbBlockBegin
  2
*D18
 70
    65
 10
0.0
 20
0.0
 30
0.0
  3
*D18
  1

  0
LINE
  5
1B7
100
AcDbEntity
  8
寸法
  6
CONTINUOUS
 62
     3
100
AcDbLine
 10
1434.869029
 20
560.0
 30
0.0
 11
1434.869029
 21
321.0
 31
0.0
  0
TEXT
  5
1B8
100
AcDbEntity
  8
寸法
  6
CONTINUOUS
 62
     2
100
AcDbText
 10
1304.879029
 20
332.75
 30
0.0
 40
20.0
  1
210
 41
0.945
  7
EXCADSTD
 72
     1
 11
1329.869029
 21
332.75
 31
0.0
100
AcDbText
  0
LINE
  5
1B9
100
AcDbEntity
  8
寸法
  6
CONTINUOUS
 62
     3
100
AcDbLine
 10
1434.869029
 20
331.0
 30
0.0
 11
1224.869029
 21
331.0
 31
0.0
  0
LINE
  5
1BA
100
AcDbEntity
  8
寸法
  6
CONTINUOUS
 62
     3
100
AcDbLine
 10
1417.369029
 20
328.083333
 30
0.0
 11
1434.869029
 21
331.0
 31
0.0
  0
LINE
  5
1BB
100
AcDbEntity
  8
寸法
  6
CONTINUOUS
 62
     3
100
AcDbLine
 10
1434.869029
 20
331.0
 30
0.0
 11
1417.369029
 21
333.916667
 31
0.0
  0
LINE
  5
1BC
100
AcDbEntity
  8
寸法
  6
CONTINUOUS
 62
     3
100
AcDbLine
 10
1242.369029
 20
333.916667
 30
0.0
 11
1224.869029
 21
331.0
 31
0.0
  0
LINE
  5
1BD
100
AcDbEntity
  8
寸法
  6
CONTINUOUS
 62
     3
100
AcDbLine
 10
1224.869029
 20
331.0
 30
0.0
 11
1242.369029
 21
328.083333
 31
0.0
  0
ENDBLK
  5
1BE
100
AcDbEntity
  8
0
100
AcDbBlockEnd
  0
BLOCK
  5
1C1
100
AcDbEntity
  8
0
100
AcDbBlockBegin
  2
*D19
 70
    65
 10
0.0
 20
0.0
 30
0.0
  3
*D19
  1

  0
LINE
  5
1C2
100
AcDbEntity
  8
寸法
  6
CONTINUOUS
 62
     3
100
AcDbLine
 10
1397.274405
 20
544.492916
 30
0.0
 11
1375.162878
 21
567.877219
 31
0.0
  0
LINE
  5
1C3
100
AcDbEntity
  8
寸法
  6
CONTINUOUS
 62
     3
100
AcDbLine
 10
1379.109298
 20
527.316511
 30
0.0
 11
1356.997771
 21
550.700814
 31
0.0
  0
TEXT
  5
1C4
100
AcDbEntity
  8
寸法
  6
CONTINUOUS
 62
     2
100
AcDbText
 10
1393.590697
 20
576.124997
 30
0.0
 40
20.0
  1
%%c25
 50
43.397531
 41
0.945
  7
EXCADSTD
 72
     1
 11
1411.748538
 21
593.294531
 31
0.0
100
AcDbText
  0
LINE
  5
1C5
100
AcDbEntity
  8
寸法
  6
CONTINUOUS
 62
     3
100
AcDbLine
 10
1428.507153
 20
604.555388
 30
0.0
 11
1347.519737
 21
527.976007
 31
0.0
  0
LINE
  5
1C6
100
AcDbEntity
  8
寸法
  6
CONTINUOUS
 62
     3
100
AcDbLine
 10
1392.745101
 20
574.753922
 30
0.0
 11
1382.03344
 21
560.611176
 31
0.0
  0
LINE
  5
1C7
100
AcDbEntity
  8
寸法
  6
CONTINUOUS
 62
     3
100
AcDbLine
 10
1382.03344
 20
560.611176
 30
0.0
 11
1396.752929
 21
570.515397
 31
0.0
  0
LINE
  5
1C8
100
AcDbEntity
  8
寸法
  6
CONTINUOUS
 62
     3
100
AcDbLine
 10
1353.156672
 20
529.292025
 30
0.0
 11
1363.868333
 21
543.434771
 31
0.0
  0
LINE
  5
1C9
100
AcDbEntity
  8
寸法
  6
CONTINUOUS
 62
     3
100
AcDbLine
 10
1363.868333
 20
543.434771
 30
0.0
 11
1349.148844
 21
533.53055
 31
0.0
  0
ENDBLK
  5
1CA
100
AcDbEntity
  8
0
100
AcDbBlockEnd
  0
BLOCK
  5
1CD
100
AcDbEntity
  8
0
100
AcDbBlockBegin
  2
*D20
 70
    65
 10
0.0
 20
0.0
 30
0.0
  3
*D20
  1

  0
LINE
  5
1CE
100
AcDbEntity
  8
寸法
  6
CONTINUOUS
 62
     3
100
AcDbLine
 10
785.630971
 20
570.5
 30
0.0
 11
872.0
 21
570.5
 31
0.0
  0
LINE
  5
1CF
100
AcDbEntity
  8
寸法
  6
CONTINUOUS
 62
     3
100
AcDbLine
 10
691.145332
 20
415.5
 30
0.0
 11
872.0
 21
415.5
 31
0.0
  0
TEXT
  5
1D0
100
AcDbEntity
  8
寸法
  6
CONTINUOUS
 62
     2
100
AcDbText
 10
860.25
 20
468.01
 30
0.0
 40
20.0
  1
155
 50
90.0
 41
0.945
  7
EXCADSTD
 72
     1
 11
860.25
 21
493.0
 31
0.0
100
AcDbText
  0
LINE
  5
1D1
100
AcDbEntity
  8
寸法
  6
CONTINUOUS
 62
     3
100
AcDbLine
 10
862.0
 20
570.5
 30
0.0
 11
862.0
 21
415.5
 31
0.0
  0
LINE
  5
1D2
100
AcDbEntity
  8
寸法
  6
CONTINUOUS
 62
     3
100
AcDbLine
 10
864.916667
 20
553.0
 30
0.0
 11
862.0
 21
570.5
 31
0.0
  0
LINE
  5
1D3
100
AcDbEntity
  8
寸法
  6
CONTINUOUS
 62
     3
100
AcDbLine
 10
862.0
 20
570.5
 30
0.0
 11
859.083333
 21
553.0
 31
0.0
  0
LINE
  5
1D4
100
AcDbEntity
  8
寸法
  6
CONTINUOUS
 62
     3
100
AcDbLine
 10
859.083333
 20
433.0
 30
0.0
 11
862.0
 21
415.5
 31
0.0
  0
LINE
  5
1D5
100
AcDbEntity
  8
寸法
  6
CONTINUOUS
 62
     3
100
AcDbLine
 10
862.0
 20
415.5
 30
0.0
 11
864.916667
 21
433.0
 31
0.0
  0
ENDBLK
  5
1D6
100
AcDbEntity
  8
0
100
AcDbBlockEnd
  0
BLOCK
  5
201
100
AcDbEntity
  8
0
100
AcDbBlockBegin
  2
*D21
 70
    65
 10
0.0
 20
0.0
 30
0.0
  3
*D21
  1

  0
TEXT
  5
202
100
AcDbEntity
  8
寸法
  6
CONTINUOUS
 62
     2
100
AcDbText
 10
338.337977
 20
592.421886
 30
0.0
 40
20.0
  1
R8
 50
329.024073
 41
0.945
  7
EXCADSTD
 72
     1
 11
353.102123
 21
583.559133
 31
0.0
100
AcDbText
  0
LINE
  5
203
100
AcDbEntity
  8
寸法
  6
CONTINUOUS
 62
     3
100
AcDbLine
 10
335.878728
 20
588.463842
 30
0.0
 11
379.130971
 21
562.5
 31
0.0
  0
LINE
  5
204
100
AcDbEntity
  8
寸法
  6
CONTINUOUS
 62
     3
100
AcDbLine
 10
355.766545
 20
573.123584
 30
0.0
 11
372.271902
 21
566.617423
 31
0.0
  0
LINE
  5
205
100
AcDbEntity
  8
寸法
  6
CONTINUOUS
 62
     3
100
AcDbLine
 10
372.271902
 20
566.617423
 30
0.0
 11
358.768833
 21
578.124988
 31
0.0
  0
ENDBLK
  5
206
100
AcDbEntity
  8
0
100
AcDbBlockEnd
  0
BLOCK
  5
209
100
AcDbEntity
  8
0
100
AcDbBlockBegin
  2
*D22
 70
    65
 10
0.0
 20
0.0
 30
0.0
  3
*D22
  1

  0
LINE
  5
20A
100
AcDbEntity
  8
寸法
  6
CONTINUOUS
 62
     3
100
AcDbLine
 10
1378.326939
 20
525.5
 30
0.0
 11
1324.869029
 21
525.5
 31
0.0
  0
TEXT
  5
20B
100
AcDbEntity
  8
寸法
  6
CONTINUOUS
 62
     2
100
AcDbText
 10
1333.119029
 20
530.78
 30
0.0
 40
20.0
  1
45
 50
90.0
 41
0.945
  7
EXCADSTD
 72
     1
 11
1333.119029
 21
548.0
 31
0.0
100
AcDbText
  0
LINE
  5
20C
100
AcDbEntity
  8
寸法
  6
CONTINUOUS
 62
     3
100
AcDbLine
 10
1334.869029
 20
593.0
 30
0.0
 11
1334.869029
 21
503.0
 31
0.0
  0
LINE
  5
20D
100
AcDbEntity
  8
寸法
  6
CONTINUOUS
 62
     3
100
AcDbLine
 10
1331.952362
 20
588.0
 30
0.0
 11
1334.869029
 21
570.5
 31
0.0
  0
LINE
  5
20E
100
AcDbEntity
  8
寸法
  6
CONTINUOUS
 62
     3
100
AcDbLine
 10
1334.869029
 20
570.5
 30
0.0
 11
1337.785696
 21
588.0
 31
0.0
  0
LINE
  5
20F
100
AcDbEntity
  8
寸法
  6
CONTINUOUS
 62
     3
100
AcDbLine
 10
1337.785696
 20
508.0
 30
0.0
 11
1334.869029
 21
525.5
 31
0.0
  0
LINE
  5
210
100
AcDbEntity
  8
寸法
  6
CONTINUOUS
 62
     3
100
AcDbLine
 10
1334.869029
 20
525.5
 30
0.0
 11
1331.952362
 21
508.0
 31
0.0
  0
ENDBLK
  5
211
100
AcDbEntity
  8
0
100
AcDbBlockEnd
  0
BLOCK
  5
220
100
AcDbEntity
  8
0
100
AcDbBlockBegin
  2
*D23
 70
    65
 10
0.0
 20
0.0
 30
0.0
  3
*D23
  1

  0
TEXT
  5
221
100
AcDbEntity
  8
寸法
  6
CONTINUOUS
 62
     2
100
AcDbText
 10
324.247529
 20
1022.417721
 30
0.0
 40
20.0
  1
120%%d
 50
290.0
 41
0.945
  7
EXCADSTD
 72
     1
 11
333.836064
 21
996.073438
 31
0.0
100
AcDbText
  0
ARC
  5
222
100
AcDbEntity
  8
寸法
  6
CONTINUOUS
 62
     3
100
AcDbCircle
 10
581.131047
 20
1086.081467
 30
0.0
 40
264.915788
100
AcDbArc
 50
150.000016
 51
269.999984
  0
LINE
  5
223
100
AcDbEntity
  8
寸法
  6
CONTINUOUS
 62
     3
100
AcDbLine
 10
345.483115
 20
1201.925517
 30
0.0
 11
351.707207
 21
1218.539295
 31
0.0
  0
LINE
  5
224
100
AcDbEntity
  8
寸法
  6
CONTINUOUS
 62
     3
100
AcDbLine
 10
351.707207
 20
1218.539295
 30
0.0
 11
340.4313
 21
1204.842184
 31
0.0
  0
LINE
  5
225
100
AcDbEntity
  8
寸法
  6
CONTINUOUS
 62
     3
100
AcDbLine
 10
563.630971
 20
818.249013
 30
0.0
 11
581.130971
 21
821.16568
 31
0.0
  0
LINE
  5
226
100
AcDbEntity
  8
寸法
  6
CONTINUOUS
 62
     3
100
AcDbLine
 10
581.130971
 20
821.16568
 30
0.0
 11
563.630971
 21
824.082346
 31
0.0
  0
ENDBLK
  5
227
100
AcDbEntity
  8
0
100
AcDbBlockEnd
  0
BLOCK
  5
231
100
AcDbEntity
  8
0
100
AcDbBlockBegin
  2
*D24
 70
    65
 10
0.0
 20
0.0
 30
0.0
  3
*D24
  1

  0
LINE
  5
232
100
AcDbEntity
  8
寸法
  6
CONTINUOUS
 62
     3
100
AcDbLine
 10
614.130971
 20
460.5
 30
0.0
 11
812.0
 21
460.5
 31
0.0
  0
TEXT
  5
233
100
AcDbEntity
  8
寸法
  6
CONTINUOUS
 62
     2
100
AcDbText
 10
800.25
 20
420.78
 30
0.0
 40
20.0
  1
45
 50
90.0
 41
0.945
  7
EXCADSTD
 72
     1
 11
800.25
 21
438.0
 31
0.0
100
AcDbText
  0
LINE
  5
234
100
AcDbEntity
  8
寸法
  6
CONTINUOUS
 62
     3
100
AcDbLine
 10
802.0
 20
460.5
 30
0.0
 11
802.0
 21
415.5
 31
0.0
  0
LINE
  5
235
100
AcDbEntity
  8
寸法
  6
CONTINUOUS
 62
     3
100
AcDbLine
 10
804.916667
 20
443.0
 30
0.0
 11
802.0
 21
460.5
 31
0.0
  0
LINE
  5
236
100
AcDbEntity
  8
寸法
  6
CONTINUOUS
 62
     3
100
AcDbLine
 10
802.0
 20
460.5
 30
0.0
 11
799.083333
 21
443.0
 31
0.0
  0
LINE
  5
237
100
AcDbEntity
  8
寸法
  6
CONTINUOUS
 62
     3
100
AcDbLine
 10
799.083333
 20
433.0
 30
0.0
 11
802.0
 21
415.5
 31
0.0
  0
LINE
  5
238
100
AcDbEntity
  8
寸法
  6
CONTINUOUS
 62
     3
100
AcDbLine
 10
802.0
 20
415.5
 30
0.0
 11
804.916667
 21
433.0
 31
0.0
  0
ENDBLK
  5
239
100
AcDbEntity
  8
0
100
AcDbBlockEnd
  0
BLOCK
  5
244
100
AcDbEntity
  8
0
100
AcDbBlockBegin
  2
*D25
 70
    65
 10
0.0
 20
0.0
 30
0.0
  3
*D25
  1

  0
LINE
  5
245
100
AcDbEntity
  8
取付ビスセット
  6
CONTINUOUS
 62
     3
100
AcDbLine
 10
1777.000001
 20
1263.969805
 30
0.0
 11
1902.0
 21
1263.969805
 31
0.0
  0
LINE
  5
246
100
AcDbEntity
  8
取付ビスセット
  6
CONTINUOUS
 62
     3
100
AcDbLine
 10
1840.500005
 20
1133.969805
 30
0.0
 11
1902.0
 21
1133.969805
 31
0.0
  0
TEXT
  5
247
100
AcDbEntity
  8
取付ビスセット
  6
CONTINUOUS
 62
     2
100
AcDbText
 10
1895.5
 20
1174.819805
 30
0.0
 40
20.0
  1
130
 50
90.0
 41
0.945
  7
EXCADSTD
 72
     1
 11
1895.5
 21
1198.969805
 31
0.0
100
AcDbText
  0
LINE
  5
248
100
AcDbEntity
  8
取付ビスセット
  6
CONTINUOUS
 62
     3
100
AcDbLine
 10
1897.0
 20
1263.969805
 30
0.0
 11
1897.0
 21
1133.969805
 31
0.0
  0
LINE
  5
249
100
AcDbEntity
  8
取付ビスセット
  6
CONTINUOUS
 62
     3
100
AcDbLine
 10
1899.5
 20
1248.969805
 30
0.0
 11
1897.0
 21
1263.969805
 31
0.0
  0
LINE
  5
24A
100
AcDbEntity
  8
取付ビスセット
  6
CONTINUOUS
 62
     3
100
AcDbLine
 10
1897.0
 20
1263.969805
 30
0.0
 11
1894.5
 21
1248.969805
 31
0.0
  0
LINE
  5
24B
100
AcDbEntity
  8
取付ビスセット
  6
CONTINUOUS
 62
     3
100
AcDbLine
 10
1894.5
 20
1148.969805
 30
0.0
 11
1897.0
 21
1133.969805
 31
0.0
  0
LINE
  5
24C
100
AcDbEntity
  8
取付ビスセット
  6
CONTINUOUS
 62
     3
100
AcDbLine
 10
1897.0
 20
1133.969805
 30
0.0
 11
1899.5
 21
1148.969805
 31
0.0
  0
ENDBLK
  5
24D
100
AcDbEntity
  8
0
100
AcDbBlockEnd
  0
BLOCK
  5
250
100
AcDbEntity
  8
0
100
AcDbBlockBegin
  2
*D26
 70
    65
 10
0.0
 20
0.0
 30
0.0
  3
*D26
  1

  0
LINE
  5
251
100
AcDbEntity
  8
取付ビスセット
  6
CONTINUOUS
 62
     3
100
AcDbLine
 10
1796.587689
 20
1218.969805
 30
0.0
 11
1853.0
 21
1218.969805
 31
0.0
  0
LINE
  5
252
100
AcDbEntity
  8
取付ビスセット
  6
CONTINUOUS
 62
     3
100
AcDbLine
 10
1796.587689
 20
1178.969805
 30
0.0
 11
1853.0
 21
1178.969805
 31
0.0
  0
TEXT
  5
253
100
AcDbEntity
  8
取付ビスセット
  6
CONTINUOUS
 62
     2
100
AcDbText
 10
1846.5
 20
1182.169805
 30
0.0
 40
20.0
  1
40
 50
90.0
 41
0.945
  7
EXCADSTD
 72
     1
 11
1846.5
 21
1198.969805
 31
0.0
100
AcDbText
  0
LINE
  5
254
100
AcDbEntity
  8
取付ビスセット
  6
CONTINUOUS
 62
     3
100
AcDbLine
 10
1848.0
 20
1218.969805
 30
0.0
 11
1848.0
 21
1178.969805
 31
0.0
  0
LINE
  5
255
100
AcDbEntity
  8
取付ビスセット
  6
CONTINUOUS
 62
     3
100
AcDbLine
 10
1850.5
 20
1203.969805
 30
0.0
 11
1848.0
 21
1218.969805
 31
0.0
  0
LINE
  5
256
100
AcDbEntity
  8
取付ビスセット
  6
CONTINUOUS
 62
     3
100
AcDbLine
 10
1848.0
 20
1218.969805
 30
0.0
 11
1845.5
 21
1203.969805
 31
0.0
  0
LINE
  5
257
100
AcDbEntity
  8
取付ビスセット
  6
CONTINUOUS
 62
     3
100
AcDbLine
 10
1845.5
 20
1193.969805
 30
0.0
 11
1848.0
 21
1178.969805
 31
0.0
  0
LINE
  5
258
100
AcDbEntity
  8
取付ビスセット
  6
CONTINUOUS
 62
     3
100
AcDbLine
 10
1848.0
 20
1178.969805
 30
0.0
 11
1850.5
 21
1193.969805
 31
0.0
  0
ENDBLK
  5
259
100
AcDbEntity
  8
0
100
AcDbBlockEnd
  0
BLOCK
  5
25C
100
AcDbEntity
  8
0
100
AcDbBlockBegin
  2
*D27
 70
    65
 10
0.0
 20
0.0
 30
0.0
  3
*D27
  1

  0
LINE
  5
25D
100
AcDbEntity
  8
取付ビスセット
  6
CONTINUOUS
 62
     3
100
AcDbLine
 10
1689.087689
 20
1186.469805
 30
0.0
 11
1689.087689
 21
1142.0
 31
0.0
  0
LINE
  5
25E
100
AcDbEntity
  8
取付ビスセット
  6
CONTINUOUS
 62
     3
100
AcDbLine
 10
1804.087689
 20
1186.469805
 30
0.0
 11
1804.087689
 21
1142.0
 31
0.0
  0
TEXT
  5
25F
100
AcDbEntity
  8
取付ビスセット
  6
CONTINUOUS
 62
     2
100
AcDbText
 10
1722.437689
 20
1148.5
 30
0.0
 40
20.0
  1
115
 41
0.945
  7
EXCADSTD
 72
     1
 11
1746.587689
 21
1148.5
 31
0.0
100
AcDbText
  0
LINE
  5
260
100
AcDbEntity
  8
取付ビスセット
  6
CONTINUOUS
 62
     3
100
AcDbLine
 10
1689.087689
 20
1147.0
 30
0.0
 11
1804.087689
 21
1147.0
 31
0.0
  0
LINE
  5
261
100
AcDbEntity
  8
取付ビスセット
  6
CONTINUOUS
 62
     3
100
AcDbLine
 10
1704.087689
 20
1149.5
 30
0.0
 11
1689.087689
 21
1147.0
 31
0.0
  0
LINE
  5
262
100
AcDbEntity
  8
取付ビスセット
  6
CONTINUOUS
 62
     3
100
AcDbLine
 10
1689.087689
 20
1147.0
 30
0.0
 11
1704.087689
 21
1144.5
 31
0.0
  0
LINE
  5
263
100
AcDbEntity
  8
取付ビスセット
  6
CONTINUOUS
 62
     3
100
AcDbLine
 10
1789.087689
 20
1144.5
 30
0.0
 11
1804.087689
 21
1147.0
 31
0.0
  0
LINE
  5
264
100
AcDbEntity
  8
取付ビスセット
  6
CONTINUOUS
 62
     3
100
AcDbLine
 10
1804.087689
 20
1147.0
 30
0.0
 11
1789.087689
 21
1149.5
 31
0.0
  0
ENDBLK
  5
265
100
AcDbEntity
  8
0
100
AcDbBlockEnd
  0
BLOCK
  5
268
100
AcDbEntity
  8
0
100
AcDbBlockBegin
  2
*D28
 70
    65
 10
0.0
 20
0.0
 30
0.0
  3
*D28
  1

  0
LINE
  5
269
100
AcDbEntity
  8
取付ビスセット
  6
CONTINUOUS
 62
     3
100
AcDbLine
 10
1647.591742
 20
1141.074116
 30
0.0
 11
1647.591742
 21
1094.0
 31
0.0
  0
LINE
  5
26A
100
AcDbEntity
  8
取付ビスセット
  6
CONTINUOUS
 62
     3
100
AcDbLine
 10
1845.583637
 20
1141.074116
 30
0.0
 11
1845.583637
 21
1094.0
 31
0.0
  0
TEXT
  5
26B
100
AcDbEntity
  8
取付ビスセット
  6
CONTINUOUS
 62
     2
100
AcDbText
 10
1729.787689
 20
1100.5
 30
0.0
 40
20.0
  1
37
 41
0.945
  7
EXCADSTD
 72
     1
 11
1746.587689
 21
1100.5
 31
0.0
100
AcDbText
  0
LINE
  5
26C
100
AcDbEntity
  8
取付ビスセット
  6
CONTINUOUS
 62
     3
100
AcDbLine
 10
1647.591742
 20
1099.0
 30
0.0
 11
1845.583637
 21
1099.0
 31
0.0
  0
LINE
  5
26D
100
AcDbEntity
  8
取付ビスセット
  6
CONTINUOUS
 62
     3
100
AcDbLine
 10
1662.591742
 20
1101.5
 30
0.0
 11
1647.591742
 21
1099.0
 31
0.0
  0
LINE
  5
26E
100
AcDbEntity
  8
取付ビスセット
  6
CONTINUOUS
 62
     3
100
AcDbLine
 10
1647.591742
 20
1099.0
 30
0.0
 11
1662.591742
 21
1096.5
 31
0.0
  0
LINE
  5
26F
100
AcDbEntity
  8
取付ビスセット
  6
CONTINUOUS
 62
     3
100
AcDbLine
 10
1830.583637
 20
1096.5
 30
0.0
 11
1845.583637
 21
1099.0
 31
0.0
  0
LINE
  5
270
100
AcDbEntity
  8
取付ビスセット
  6
CONTINUOUS
 62
     3
100
AcDbLine
 10
1845.583637
 20
1099.0
 30
0.0
 11
1830.583637
 21
1101.5
 31
0.0
  0
ENDBLK
  5
271
100
AcDbEntity
  8
0
100
AcDbBlockEnd
  0
BLOCK
  5
274
100
AcDbEntity
  8
0
100
AcDbBlockBegin
  2
*D29
 70
    65
 10
0.0
 20
0.0
 30
0.0
  3
*D29
  1

  0
LINE
  5
275
100
AcDbEntity
  8
取付ビスセット
  6
CONTINUOUS
 62
     3
100
AcDbLine
 10
1805.600001
 20
546.77754
 30
0.0
 11
1910.0
 21
546.77754
 31
0.0
  0
LINE
  5
276
100
AcDbEntity
  8
取付ビスセット
  6
CONTINUOUS
 62
     3
100
AcDbLine
 10
1877.960332
 20
526.77754
 30
0.0
 11
1910.0
 21
526.77754
 31
0.0
  0
TEXT
  5
277
100
AcDbEntity
  8
取付ビスセット
  6
CONTINUOUS
 62
     2
100
AcDbText
 10
1903.5
 20
564.97754
 30
0.0
 40
20.0
  1
20
 50
90.0
 41
0.945
  7
EXCADSTD
 72
     1
 11
1903.5
 21
581.77754
 31
0.0
100
AcDbText
  0
LINE
  5
278
100
AcDbEntity
  8
取付ビスセット
  6
CONTINUOUS
 62
     3
100
AcDbLine
 10
1905.0
 20
603.277541
 30
0.0
 11
1905.0
 21
511.77754
 31
0.0
  0
LINE
  5
279
100
AcDbEntity
  8
取付ビスセット
  6
CONTINUOUS
 62
     3
100
AcDbLine
 10
1902.5
 20
561.77754
 30
0.0
 11
1905.0
 21
546.77754
 31
0.0
  0
LINE
  5
27A
100
AcDbEntity
  8
取付ビスセット
  6
CONTINUOUS
 62
     3
100
AcDbLine
 10
1905.0
 20
546.77754
 30
0.0
 11
1907.5
 21
561.77754
 31
0.0
  0
LINE
  5
27B
100
AcDbEntity
  8
取付ビスセット
  6
CONTINUOUS
 62
     3
100
AcDbLine
 10
1907.5
 20
511.77754
 30
0.0
 11
1905.0
 21
526.77754
 31
0.0
  0
LINE
  5
27C
100
AcDbEntity
  8
取付ビスセット
  6
CONTINUOUS
 62
     3
100
AcDbLine
 10
1905.0
 20
526.77754
 30
0.0
 11
1902.5
 21
511.77754
 31
0.0
  0
ENDBLK
  5
27D
100
AcDbEntity
  8
0
100
AcDbBlockEnd
  0
BLOCK
  5
280
100
AcDbEntity
  8
0
100
AcDbBlockBegin
  2
*D30
 70
    65
 10
0.0
 20
0.0
 30
0.0
  3
*D30
  1

  0
LINE
  5
281
100
AcDbEntity
  8
取付ビスセット
  6
CONTINUOUS
 62
     3
100
AcDbLine
 10
1671.587689
 20
544.27754
 30
0.0
 11
1671.587689
 21
436.5
 31
0.0
  0
LINE
  5
282
100
AcDbEntity
  8
取付ビスセット
  6
CONTINUOUS
 62
     3
100
AcDbLine
 10
1801.587689
 20
544.27754
 30
0.0
 11
1801.587689
 21
436.5
 31
0.0
  0
TEXT
  5
283
100
AcDbEntity
  8
取付ビスセット
  6
CONTINUOUS
 62
     2
100
AcDbText
 10
1715.587689
 20
443.25
 30
0.0
 40
20.0
  1
130
 41
0.84
  7
EXCADSTD
 72
     1
 11
1736.587689
 21
443.25
 31
0.0
100
AcDbText
  0
LINE
  5
284
100
AcDbEntity
  8
取付ビスセット
  6
CONTINUOUS
 62
     3
100
AcDbLine
 10
1671.587689
 20
441.5
 30
0.0
 11
1801.587689
 21
441.5
 31
0.0
  0
LINE
  5
285
100
AcDbEntity
  8
取付ビスセット
  6
CONTINUOUS
 62
     3
100
AcDbLine
 10
1686.587689
 20
444.0
 30
0.0
 11
1671.587689
 21
441.5
 31
0.0
  0
LINE
  5
286
100
AcDbEntity
  8
取付ビスセット
  6
CONTINUOUS
 62
     3
100
AcDbLine
 10
1671.587689
 20
441.5
 30
0.0
 11
1686.587689
 21
439.0
 31
0.0
  0
LINE
  5
287
100
AcDbEntity
  8
取付ビスセット
  6
CONTINUOUS
 62
     3
100
AcDbLine
 10
1786.587689
 20
439.0
 30
0.0
 11
1801.587689
 21
441.5
 31
0.0
  0
LINE
  5
288
100
AcDbEntity
  8
取付ビスセット
  6
CONTINUOUS
 62
     3
100
AcDbLine
 10
1801.587689
 20
441.5
 30
0.0
 11
1786.587689
 21
444.0
 31
0.0
  0
ENDBLK
  5
289
100
AcDbEntity
  8
0
100
AcDbBlockEnd
  0
BLOCK
  5
28D
100
AcDbEntity
  8
0
100
AcDbBlockBegin
  2
*D31
 70
    65
 10
0.0
 20
0.0
 30
0.0
  3
*D31
  1

  0
LINE
  5
28E
100
AcDbEntity
  8
取付ビスセット
  6
CONTINUOUS
 62
     3
100
AcDbLine
 10
1716.587689
 20
544.27754
 30
0.0
 11
1716.587689
 21
479.5
 31
0.0
  0
LINE
  5
28F
100
AcDbEntity
  8
取付ビスセット
  6
CONTINUOUS
 62
     3
100
AcDbLine
 10
1756.587689
 20
544.27754
 30
0.0
 11
1756.587689
 21
479.5
 31
0.0
  0
TEXT
  5
290
100
AcDbEntity
  8
取付ビスセット
  6
CONTINUOUS
 62
     2
100
AcDbText
 10
1721.887689
 20
486.25
 30
0.0
 40
20.0
  1
40
 41
0.84
  7
EXCADSTD
 72
     1
 11
1736.587689
 21
486.25
 31
0.0
100
AcDbText
  0
LINE
  5
291
100
AcDbEntity
  8
取付ビスセット
  6
CONTINUOUS
 62
     3
100
AcDbLine
 10
1716.587689
 20
484.5
 30
0.0
 11
1756.587689
 21
484.5
 31
0.0
  0
LINE
  5
292
100
AcDbEntity
  8
取付ビスセット
  6
CONTINUOUS
 62
     3
100
AcDbLine
 10
1731.587689
 20
487.0
 30
0.0
 11
1716.587689
 21
484.5
 31
0.0
  0
LINE
  5
293
100
AcDbEntity
  8
取付ビスセット
  6
CONTINUOUS
 62
     3
100
AcDbLine
 10
1716.587689
 20
484.5
 30
0.0
 11
1731.587689
 21
482.0
 31
0.0
  0
LINE
  5
294
100
AcDbEntity
  8
取付ビスセット
  6
CONTINUOUS
 62
     3
100
AcDbLine
 10
1741.587689
 20
482.0
 30
0.0
 11
1756.587689
 21
484.5
 31
0.0
  0
LINE
  5
295
100
AcDbEntity
  8
取付ビスセット
  6
CONTINUOUS
 62
     3
100
AcDbLine
 10
1756.587689
 20
484.5
 30
0.0
 11
1741.587689
 21
487.0
 31
0.0
  0
ENDBLK
  5
296
100
AcDbEntity
  8
0
100
AcDbBlockEnd
  0
ENDSEC
  0
SECTION
  2
ENTITIES
  0
TEXT
  5
86
100
AcDbEntity
  8
図枠
  6
CONTINUOUS
 62
     2
100
AcDbText
 10
832.375
 20
159.0
 30
0.0
 40
17.5
  1
^J
 41
0.0
  7
EXCADSTD
 72
     5
 11
832.375
 21
159.0
 31
0.0
100
AcDbText
  0
TEXT
  5
87
100
AcDbEntity
  8
図枠
  6
CONTINUOUS
 62
     2
100
AcDbText
 10
825.125
 20
168.625
 30
0.0
 40
7.875
  1
＋
 41
0.84
  7
EXCADSTD
 72
     5
 11
831.425
 21
168.625
 31
0.0
100
AcDbText
  0
TEXT
  5
88
100
AcDbEntity
  8
図枠
  6
CONTINUOUS
 62
     2
100
AcDbText
 10
830.375
 20
159.0
 30
0.0
 40
7.875
  1
－
 41
0.84
  7
EXCADSTD
 72
     5
 11
836.675
 21
159.0
 31
0.0
100
AcDbText
  0
TEXT
  5
89
100
AcDbEntity
  8
図枠
  6
CONTINUOUS
 62
     2
100
AcDbText
 10
836.25
 20
159.0
 30
0.0
 40
17.5
  1
２ｍｍ
 41
0.712
  7
EXCADSTD
 72
     5
 11
880.75
 21
159.0
 31
0.0
100
AcDbText
  0
TEXT
  5
8A
100
AcDbEntity
  8
図枠
  6
CONTINUOUS
 62
     2
100
AcDbText
 10
827.875
 20
143.625
 30
0.0
 40
7.875
  1
＋
 41
0.84
  7
EXCADSTD
 72
     5
 11
834.175
 21
143.625
 31
0.0
100
AcDbText
  0
TEXT
  5
8B
100
AcDbEntity
  8
図枠
  6
CONTINUOUS
 62
     2
100
AcDbText
 10
833.125
 20
134.0
 30
0.0
 40
7.875
  1
－
 41
0.84
  7
EXCADSTD
 72
     5
 11
839.425
 21
134.0
 31
0.0
100
AcDbText
  0
TEXT
  5
8C
100
AcDbEntity
  8
図枠
  6
CONTINUOUS
 62
     2
100
AcDbText
 10
839.0
 20
134.0
 30
0.0
 40
17.5
  1
５％
 41
0.744
  7
EXCADSTD
 72
     5
 11
867.4146
 21
134.0
 31
0.0
100
AcDbText
  0
TEXT
  5
8D
100
AcDbEntity
  8
図枠
  6
CONTINUOUS
 62
     2
100
AcDbText
 10
827.375
 20
117.625
 30
0.0
 40
7.875
  1
＋
 41
0.84
  7
EXCADSTD
 72
     5
 11
833.675
 21
117.625
 31
0.0
100
AcDbText
  0
TEXT
  5
8E
100
AcDbEntity
  8
図枠
  6
CONTINUOUS
 62
     2
100
AcDbText
 10
832.625
 20
108.0
 30
0.0
 40
7.875
  1
－
 41
0.84
  7
EXCADSTD
 72
     5
 11
838.925
 21
108.0
 31
0.0
100
AcDbText
  0
TEXT
  5
8F
100
AcDbEntity
  8
図枠
  6
CONTINUOUS
 62
     2
100
AcDbText
 10
838.5
 20
108.0
 30
0.0
 40
17.5
  1
４％
 41
0.744
  7
EXCADSTD
 72
     5
 11
866.9146
 21
108.0
 31
0.0
100
AcDbText
  0
TEXT
  5
90
100
AcDbEntity
  8
図枠
  6
CONTINUOUS
 62
     2
100
AcDbText
 10
827.375
 20
92.625
 30
0.0
 40
7.875
  1
＋
 41
0.84
  7
EXCADSTD
 72
     5
 11
833.675
 21
92.625
 31
0.0
100
AcDbText
  0
TEXT
  5
91
100
AcDbEntity
  8
図枠
  6
CONTINUOUS
 62
     2
100
AcDbText
 10
832.625
 20
83.0
 30
0.0
 40
7.875
  1
－
 41
0.84
  7
EXCADSTD
 72
     5
 11
838.925
 21
83.0
 31
0.0
100
AcDbText
  0
TEXT
  5
92
100
AcDbEntity
  8
図枠
  6
CONTINUOUS
 62
     2
100
AcDbText
 10
838.5
 20
83.0
 30
0.0
 40
17.5
  1
３％
 41
0.744
  7
EXCADSTD
 72
     5
 11
866.9146
 21
83.0
 31
0.0
100
AcDbText
  0
LEADER
  5
93
100
AcDbEntity
  8
図
  6
CONTINUOUS
 62
     3
100
AcDbLeader
  3
STANDARD
 73
     3
 74
     1
 75
     0
 40
0.0
 76
     3
 10
1205.653303
 20
962.398741
 30
0.0
 10
1118.0
 20
827.0
 30
0.0
 10
1083.0
 20
827.0
 30
0.0
 77
     3
1001
ACAD
1000
DSTYLE
1002
{
1070
    41
1040
15.0
1070
     5
1000
_EX_NONE
1070
     6
1000
_EX_NONE
1070
     7
1000
_EX_NONE
1070
   341
1005
2F
1002
}
  0
TEXT
  5
94
100
AcDbEntity
  8
図
  6
CONTINUOUS
 62
     2
100
AcDbText
 10
1090.65
 20
828.75
 30
0.0
 40
20.0
  1
Ｄ
 41
0.945
  7
EXCADSTD
 72
     5
 11
1108.65
 21
828.75
 31
0.0
100
AcDbText
  0
LINE
  5
95
100
AcDbEntity
  8
図
  6
EXLTYPE3
 62
     6
100
AcDbLine
 10
581.130971
 20
580.5
 30
0.0
 11
581.130971
 21
410.5
 31
0.0
  0
LINE
  5
96
100
AcDbEntity
  8
図
  6
CONTINUOUS
 62
     7
100
AcDbLine
 10
880.0
 20
1086.081423
 30
0.0
 11
905.0
 21
1086.081423
 31
0.0
  0
LINE
  5
97
100
AcDbEntity
  8
図
  6
EXLTYPE3
 62
     6
100
AcDbLine
 10
581.130971
 20
1323.0
 30
0.0
 11
581.130971
 21
806.5
 31
0.0
  0
LINE
  5
98
100
AcDbEntity
  8
図
  6
CONTINUOUS
 62
     7
100
AcDbLine
 10
581.130971
 20
1348.0
 30
0.0
 11
581.130971
 21
1323.0
 31
0.0
  0
LINE
  5
99
100
AcDbEntity
  8
図
  6
CONTINUOUS
 62
     3
100
AcDbLine
 10
892.237029
 20
1086.081423
 30
0.0
 11
896.766363
 21
1069.177721
 31
0.0
  0
LINE
  5
9A
100
AcDbEntity
  8
図
  6
CONTINUOUS
 62
     3
100
AcDbLine
 10
892.237029
 20
1086.081423
 30
0.0
 11
887.707696
 21
1069.177721
 31
0.0
  0
LINE
  5
9B
100
AcDbEntity
  8
図
  6
CONTINUOUS
 62
     3
100
AcDbLine
 10
892.237029
 20
1086.081423
 30
0.0
 11
892.237029
 21
1065.0
 31
0.0
  0
TEXT
  5
9C
100
AcDbEntity
  8
図
  6
CONTINUOUS
 62
     2
100
AcDbText
 10
882.637029
 20
1044.1
 30
0.0
 40
20.0
  1
Ａ
 41
0.945
  7
EXCADSTD
 72
     5
 11
900.637029
 21
1044.1
 31
0.0
100
AcDbText
  0
LINE
  5
9D
100
AcDbEntity
  8
図
  6
CONTINUOUS
 62
     3
100
AcDbLine
 10
581.130971
 20
1335.237029
 30
0.0
 11
598.034673
 21
1339.766363
 31
0.0
  0
LINE
  5
9E
100
AcDbEntity
  8
図
  6
CONTINUOUS
 62
     3
100
AcDbLine
 10
581.130971
 20
1335.237029
 30
0.0
 11
598.034673
 21
1330.707696
 31
0.0
  0
LINE
  5
9F
100
AcDbEntity
  8
図
  6
CONTINUOUS
 62
     3
100
AcDbLine
 10
581.130971
 20
1335.237029
 30
0.0
 11
602.212395
 21
1335.237029
 31
0.0
  0
TEXT
  5
A0
100
AcDbEntity
  8
図
  6
CONTINUOUS
 62
     2
100
AcDbText
 10
600.637029
 20
1324.287605
 30
0.0
 40
20.0
  1
Ｂ
 41
0.945
  7
EXCADSTD
 72
     5
 11
618.637029
 21
1324.287605
 31
0.0
100
AcDbText
  0
TEXT
  5
A1
100
AcDbEntity
  8
図
  6
CONTINUOUS
 62
     2
100
AcDbText
 10
604.9
 20
316.4
 30
0.0
 40
20.0
  1
Ａ－Ｏ断面図
 41
0.805
  7
EXCADSTD
 72
     5
 11
719.9
 21
316.4
 31
0.0
100
AcDbText
  0
LINE
  5
A2
100
AcDbEntity
  8
図
  6
CONTINUOUS
 62
     6
100
AcDbLine
 10
604.9
 20
316.4
 30
0.0
 11
720.4
 21
316.4
 31
0.0
  0
TEXT
  5
A3
100
AcDbEntity
  8
図
  6
CONTINUOUS
 62
     2
100
AcDbText
 10
582.3
 20
1064.8
 30
0.0
 40
20.0
  1
Ｏ
 41
0.945
  7
EXCADSTD
 72
     5
 11
600.3
 21
1064.8
 31
0.0
100
AcDbText
  0
CIRCLE
  5
A4
100
AcDbEntity
  8
図
  6
CONTINUOUS
 62
     7
100
AcDbCircle
 10
581.130971
 20
1086.081423
 30
0.0
 40
210.0
  0
ARC
  5
A5
100
AcDbEntity
  8
図
  6
CONTINUOUS
 62
     7
100
AcDbCircle
 10
638.630971
 20
420.5
 30
0.0
 40
5.0
100
AcDbArc
 50
180.0
 51
270.0
  0
LINE
  5
A6
100
AcDbEntity
  8
図
  6
CONTINUOUS
 62
     7
100
AcDbLine
 10
628.630971
 20
455.756248
 30
0.0
 11
633.679553
 21
419.804686
 31
0.0
  0
LINE
  5
A7
100
AcDbEntity
  8
図
  6
CONTINUOUS
 62
     7
100
AcDbLine
 10
379.130971
 20
570.5
 30
0.0
 11
783.130971
 21
570.5
 31
0.0
  0
LINE
  5
A8
100
AcDbEntity
  8
図
  6
CONTINUOUS
 62
     7
100
AcDbLine
 10
601.630971
 20
450.5
 30
0.0
 11
611.630971
 21
460.5
 31
0.0
  0
LINE
  5
A9
100
AcDbEntity
  8
図
  6
CONTINUOUS
 62
     7
100
AcDbLine
 10
602.630971
 20
415.5
 30
0.0
 11
602.630971
 21
423.5
 31
0.0
  0
LINE
  5
AA
100
AcDbEntity
  8
図
  6
CONTINUOUS
 62
     7
100
AcDbLine
 10
601.630971
 20
442.5
 30
0.0
 11
601.630971
 21
450.5
 31
0.0
  0
LINE
  5
AB
100
AcDbEntity
  8
図
  6
CONTINUOUS
 62
     7
100
AcDbLine
 10
581.130971
 20
442.5
 30
0.0
 11
604.94468
 21
442.5
 31
0.0
  0
LINE
  5
AC
100
AcDbEntity
  8
図
  6
CONTINUOUS
 62
     7
100
AcDbLine
 10
601.630971
 20
450.5
 30
0.0
 11
581.130971
 21
450.5
 31
0.0
  0
LINE
  5
AD
100
AcDbEntity
  8
図
  6
CONTINUOUS
 62
     7
100
AcDbLine
 10
581.130971
 20
460.5
 30
0.0
 11
611.630971
 21
460.5
 31
0.0
  0
CIRCLE
  5
AE
100
AcDbEntity
  8
図
  6
CONTINUOUS
 62
     4
100
AcDbCircle
 10
581.130971
 20
1086.081423
 30
0.0
 40
197.625733
  0
ARC
  5
AF
100
AcDbEntity
  8
図
  6
CONTINUOUS
 62
     7
100
AcDbCircle
 10
540.233573
 20
751.880184
 30
0.0
 40
300.0
100
AcDbArc
 50
283.768017
 51
322.057472
  0
ARC
  5
B0
100
AcDbEntity
  8
図
  6
CONTINUOUS
 62
     7
100
AcDbCircle
 10
783.130971
 20
562.5
 30
0.0
 40
8.0
100
AcDbArc
 50
327.805095
 51
142.057472
  0
ARC
  5
B1
100
AcDbEntity
  8
図
  6
CONTINUOUS
 62
     7
100
AcDbCircle
 10
645.957564
 20
456.214092
 30
0.0
 40
5.0
100
AcDbArc
 50
7.186742
 51
109.675984
  0
ARC
  5
B2
100
AcDbEntity
  8
図
  6
CONTINUOUS
 62
     7
100
AcDbCircle
 10
660.540092
 20
420.5
 30
0.0
 40
5.0
100
AcDbArc
 50
187.186742
 51
270.0
  0
LINE
  5
B3
100
AcDbEntity
  8
図
  6
CONTINUOUS
 62
     7
100
AcDbLine
 10
650.918282
 20
456.83961
 30
0.0
 11
655.579374
 21
419.874482
 31
0.0
  0
ARC
  5
B4
100
AcDbEntity
  8
図
  6
CONTINUOUS
 62
     7
100
AcDbCircle
 10
540.233573
 20
751.880184
 30
0.0
 40
308.0
100
AcDbArc
 50
291.800858
 51
322.057472
  0
ARC
  5
B5
100
AcDbEntity
  8
図
  6
CONTINUOUS
 62
     7
100
AcDbCircle
 10
645.957564
 20
456.214092
 30
0.0
 40
13.0
100
AcDbArc
 50
7.186742
 51
48.219723
  0
LINE
  5
B6
100
AcDbEntity
  8
図
  6
CONTINUOUS
 62
     7
100
AcDbLine
 10
663.185565
 20
423.5
 30
0.0
 11
658.855431
 21
457.84044
 31
0.0
  0
ARC
  5
B7
100
AcDbEntity
  8
図
  6
CONTINUOUS
 62
     7
100
AcDbCircle
 10
-902.580201
 20
1623.839645
 30
0.0
 40
1992.0
100
AcDbArc
 50
322.945089
 51
327.805095
  0
LINE
  5
B8
100
AcDbEntity
  8
図
  6
CONTINUOUS
 62
     7
100
AcDbLine
 10
663.185565
 20
423.5
 30
0.0
 11
687.152083
 21
423.5
 31
0.0
  0
ARC
  5
B9
100
AcDbEntity
  8
図
  6
CONTINUOUS
 62
     7
100
AcDbCircle
 10
612.00396
 20
420.5
 30
0.0
 40
5.0
100
AcDbArc
 50
270.0
 51
349.072686
  0
ARC
  5
BA
100
AcDbEntity
  8
図
  6
CONTINUOUS
 62
     7
100
AcDbCircle
 10
630.557267
 20
448.020627
 30
0.0
 40
8.0
100
AcDbArc
 50
106.554831
 51
169.072686
  0
LINE
  5
BB
100
AcDbEntity
  8
図
  6
CONTINUOUS
 62
     7
100
AcDbLine
 10
622.70232
 20
449.537135
 30
0.0
 11
616.913302
 21
419.552182
 31
0.0
  0
ARC
  5
BC
100
AcDbEntity
  8
図
  6
CONTINUOUS
 62
     7
100
AcDbCircle
 10
540.233573
 20
751.880184
 30
0.0
 40
309.0
100
AcDbArc
 50
286.554831
 51
289.675984
  0
LINE
  5
BD
100
AcDbEntity
  8
図
  6
CONTINUOUS
 62
     7
100
AcDbLine
 10
614.847372
 20
451.053644
 30
0.0
 11
609.527753
 21
423.5
 31
0.0
  0
LINE
  5
BE
100
AcDbEntity
  8
図
  6
CONTINUOUS
 62
     7
100
AcDbLine
 10
609.527753
 20
423.5
 30
0.0
 11
581.130971
 21
423.5
 31
0.0
  0
LINE
  5
BF
100
AcDbEntity
  8
図
  6
CONTINUOUS
 62
     7
100
AcDbLine
 10
604.94468
 20
442.5
 30
0.0
 11
615.307607
 21
452.862928
 31
0.0
  0
ARC
  5
C0
100
AcDbEntity
  8
図
  6
CONTINUOUS
 62
     7
100
AcDbCircle
 10
630.557267
 20
448.020627
 30
0.0
 40
16.0
100
AcDbArc
 50
162.383535
 51
169.072686
  0
ARC
  5
C1
100
AcDbEntity
  8
図
  6
CONTINUOUS
 62
     7
100
AcDbCircle
 10
688.645332
 20
420.5
 30
0.0
 40
5.0
100
AcDbArc
 50
270.0
 51
322.902171
  0
ARC
  5
C2
100
AcDbEntity
  8
図
  6
CONTINUOUS
 62
     7
100
AcDbCircle
 10
-902.580201
 20
1623.839645
 30
0.0
 40
2000.0
100
AcDbArc
 50
322.902171
 51
327.805095
  0
ARC
  5
C3
100
AcDbEntity
  8
図
  6
CONTINUOUS
 62
     7
100
AcDbCircle
 10
2064.842144
 20
1623.839645
 30
0.0
 40
2000.0
100
AcDbArc
 50
212.194905
 51
217.097829
  0
ARC
  5
C4
100
AcDbEntity
  8
図
  6
CONTINUOUS
 62
     7
100
AcDbCircle
 10
473.61661
 20
420.5
 30
0.0
 40
5.0
100
AcDbArc
 50
217.097829
 51
270.0
  0
LINE
  5
C5
100
AcDbEntity
  8
図
  6
CONTINUOUS
 62
     7
100
AcDbLine
 10
473.61661
 20
415.5
 30
0.0
 11
688.645332
 21
415.5
 31
0.0
  0
ARC
  5
C6
100
AcDbEntity
  8
図
  6
CONTINUOUS
 62
     7
100
AcDbCircle
 10
379.130971
 20
562.5
 30
0.0
 40
8.0
100
AcDbArc
 50
90.0
 51
212.194905
  0
LINE
  5
C7
100
AcDbEntity
  8
図
  6
EXLTYPE3
 62
     6
100
AcDbLine
 10
674.134747
 20
1139.777178
 30
0.0
 11
571.349882
 21
1080.434309
 31
0.0
  0
ELLIPSE
  5
C8
100
AcDbEntity
  8
図
  6
CONTINUOUS
 62
     7
100
AcDbEllipse
 10
581.130971
 20
1251.281423
 30
0.0
 11
12.500000000000009
 21
-0.0000000000000031
 31
0.0
210
0.0
220
0.0
230
1.0
 40
0.744
 41
0.0
 42
6.2831853071796004
  0
ELLIPSE
  5
C9
100
AcDbEntity
  8
図
  6
CONTINUOUS
 62
     4
100
AcDbEllipse
 10
581.130971
 20
1256.781423
 30
0.0
 11
12.500000000000009
 21
-0.0000000000000031
 31
0.0
210
0.0
220
0.0
230
1.0
 40
0.744
 41
3.4417797324303834
 42
5.9829982283394578
  0
LINE
  5
CA
100
AcDbEntity
  8
図
  6
CONTINUOUS
 62
     7
100
AcDbLine
 10
581.130971
 20
806.5
 30
0.0
 11
581.130971
 21
781.5
 31
0.0
  0
LINE
  5
CB
100
AcDbEntity
  8
図
  6
CONTINUOUS
 62
     3
100
AcDbLine
 10
581.130971
 20
793.737029
 30
0.0
 11
598.034673
 21
798.266363
 31
0.0
  0
LINE
  5
CC
100
AcDbEntity
  8
図
  6
CONTINUOUS
 62
     3
100
AcDbLine
 10
581.130971
 20
793.737029
 30
0.0
 11
598.034673
 21
789.207696
 31
0.0
  0
LINE
  5
CD
100
AcDbEntity
  8
図
  6
CONTINUOUS
 62
     3
100
AcDbLine
 10
581.130971
 20
793.737029
 30
0.0
 11
602.212395
 21
793.737029
 31
0.0
  0
TEXT
  5
CE
100
AcDbEntity
  8
図
  6
CONTINUOUS
 62
     2
100
AcDbText
 10
600.637029
 20
782.787605
 30
0.0
 40
20.0
  1
Ｂ
 41
0.945
  7
EXCADSTD
 72
     5
 11
618.637029
 21
782.787605
 31
0.0
100
AcDbText
  0
ELLIPSE
  5
CF
100
AcDbEntity
  8
図
  6
CONTINUOUS
 62
     4
100
AcDbEllipse
 10
581.130971
 20
528.270447
 30
0.0
 11
12.500000000000011
 21
-0.0000000000000031
 31
0.0
210
0.0
220
0.0
230
1.0
 40
0.687056
 41
0.3455415032705134
 42
1.5707963267948966
  0
ELLIPSE
  5
D0
100
AcDbEntity
  8
図
  6
CONTINUOUS
 62
     7
100
AcDbEllipse
 10
581.130971
 20
534.088203
 30
0.0
 11
12.500000000000011
 21
-0.0000000000000031
 31
0.0
210
0.0
220
0.0
230
1.0
 40
0.687056
 41
4.7123889803846897
 42
1.5707963267948966
  0
LINE
  5
D1
100
AcDbEntity
  8
図
  6
EXLTYPE3
 62
     6
100
AcDbLine
 10
476.648414
 20
1146.404456
 30
0.0
 11
590.91206
 21
1080.434309
 31
0.0
  0
LINE
  5
D2
100
AcDbEntity
  8
図
  6
EXLTYPE3
 62
     6
100
AcDbLine
 10
365.0
 20
1086.081423
 30
0.0
 11
880.0
 21
1086.081423
 31
0.0
  0
CIRCLE
  5
D3
100
AcDbEntity
  8
図
  6
CONTINUOUS
 62
     7
100
AcDbCircle
 10
1224.869029
 20
1086.081423
 30
0.0
 40
210.0
  0
LINE
  5
D4
100
AcDbEntity
  8
図
  6
EXLTYPE3
 62
     6
100
AcDbLine
 10
1224.869029
 20
1300.681423
 30
0.0
 11
1224.869029
 21
870.681423
 31
0.0
  0
LINE
  5
D5
100
AcDbEntity
  8
図
  6
EXLTYPE3
 62
     6
100
AcDbLine
 10
1005.169029
 20
1086.081423
 30
0.0
 11
1440.869029
 21
1086.081423
 31
0.0
  0
CIRCLE
  5
D6
100
AcDbEntity
  8
図
  6
CONTINUOUS
 62
     7
100
AcDbCircle
 10
1224.869029
 20
1086.081423
 30
0.0
 40
20.5
  0
CIRCLE
  5
D7
100
AcDbEntity
  8
図
  6
CONTINUOUS
 62
     7
100
AcDbCircle
 10
1224.869029
 20
1086.081423
 30
0.0
 40
35.0
  0
ARC
  5
D8
100
AcDbEntity
  8
図
  6
CONTINUOUS
 62
     7
100
AcDbCircle
 10
1224.869029
 20
1086.081423
 30
0.0
 40
42.5
100
AcDbArc
 50
144.049432
 51
35.950568
  0
ARC
  5
D9
100
AcDbEntity
  8
図
  6
CONTINUOUS
 62
     7
100
AcDbCircle
 10
1224.869029
 20
1086.081423
 30
0.0
 40
69.0
100
AcDbArc
 50
137.406539
 51
43.793041
  0
ARC
  5
DA
100
AcDbEntity
  8
図
  6
CONTINUOUS
 62
     7
100
AcDbCircle
 10
1207.369029
 20
1283.306549
 30
0.0
 40
10.0
100
AcDbArc
 50
95.070637
 51
180.0
  0
LINE
  5
DB
100
AcDbEntity
  8
図
  6
CONTINUOUS
 62
     7
100
AcDbLine
 10
1197.369029
 20
1283.306549
 30
0.0
 11
1197.369029
 21
1113.066419
 31
0.0
  0
ARC
  5
DC
100
AcDbEntity
  8
図
  6
CONTINUOUS
 62
     7
100
AcDbCircle
 10
1242.369029
 20
1283.306549
 30
0.0
 40
10.0
100
AcDbArc
 50
0.0
 51
84.929363
  0
LINE
  5
DD
100
AcDbEntity
  8
図
  6
CONTINUOUS
 62
     7
100
AcDbLine
 10
1252.369029
 20
1283.306549
 30
0.0
 11
1252.369029
 21
1113.066419
 31
0.0
  0
ARC
  5
DE
100
AcDbEntity
  8
図
  6
CONTINUOUS
 62
     7
100
AcDbCircle
 10
1224.869029
 20
1086.081423
 30
0.0
 40
208.0
100
AcDbArc
 50
84.929363
 51
95.070637
  0
ARC
  5
DF
100
AcDbEntity
  8
図
  6
CONTINUOUS
 62
     7
100
AcDbCircle
 10
1262.369029
 20
1272.548016
 30
0.0
 40
5.0
100
AcDbArc
 50
78.629016
 51
180.0
  0
LINE
  5
E0
100
AcDbEntity
  8
図
  6
CONTINUOUS
 62
     7
100
AcDbLine
 10
1258.069029
 20
1278.281423
 30
0.0
 11
1250.569989
 21
1289.028808
 31
0.0
  0
ARC
  5
E1
100
AcDbEntity
  8
図
  6
CONTINUOUS
 62
     7
100
AcDbCircle
 10
1224.869029
 20
1086.081423
 30
0.0
 40
195.2
100
AcDbArc
 50
77.088309
 51
78.629016
  0
ARC
  5
E2
100
AcDbEntity
  8
図
  6
CONTINUOUS
 62
     7
100
AcDbCircle
 10
1267.369029
 20
1271.472335
 30
0.0
 40
5.0
100
AcDbArc
 50
0.0
 51
77.088309
  0
ARC
  5
E3
100
AcDbEntity
  8
図
  6
CONTINUOUS
 62
     7
100
AcDbCircle
 10
1187.369029
 20
1272.548016
 30
0.0
 40
5.0
100
AcDbArc
 50
0.0
 51
101.370984
  0
LINE
  5
E4
100
AcDbEntity
  8
図
  6
CONTINUOUS
 62
     7
100
AcDbLine
 10
1191.669029
 20
1278.281423
 30
0.0
 11
1199.168069
 21
1289.028808
 31
0.0
  0
ARC
  5
E5
100
AcDbEntity
  8
図
  6
CONTINUOUS
 62
     7
100
AcDbCircle
 10
1224.869029
 20
1086.081423
 30
0.0
 40
195.2
100
AcDbArc
 50
101.370984
 51
102.911691
  0
ARC
  5
E6
100
AcDbEntity
  8
図
  6
CONTINUOUS
 62
     7
100
AcDbCircle
 10
1182.369029
 20
1271.472335
 30
0.0
 40
5.0
100
AcDbArc
 50
102.911691
 51
180.0
  0
LINE
  5
E7
100
AcDbEntity
  8
図
  6
CONTINUOUS
 62
     7
100
AcDbLine
 10
1276.781641
 20
1283.390014
 30
0.0
 11
1272.369029
 21
1275.413909
 31
0.0
  0
LINE
  5
E8
100
AcDbEntity
  8
図
  6
CONTINUOUS
 62
     7
100
AcDbLine
 10
1192.369029
 20
1272.548016
 30
0.0
 11
1192.369029
 21
1116.903493
 31
0.0
  0
LINE
  5
E9
100
AcDbEntity
  8
図
  6
CONTINUOUS
 62
     7
100
AcDbLine
 10
1172.904926
 20
1283.483087
 30
0.0
 11
1177.369029
 21
1275.413909
 31
0.0
  0
ARC
  5
EA
100
AcDbEntity
  8
図
  6
CONTINUOUS
 62
     7
100
AcDbCircle
 10
1224.869029
 20
1086.081423
 30
0.0
 40
205.2
100
AcDbArc
 50
76.129341
 51
82.088963
  0
ARC
  5
EB
100
AcDbEntity
  8
図
  6
CONTINUOUS
 62
     7
100
AcDbCircle
 10
1176.874902
 20
1280.443466
 30
0.0
 40
5.0
100
AcDbArc
 50
103.870659
 51
172.339106
  0
ARC
  5
EC
100
AcDbEntity
  8
図
  6
CONTINUOUS
 62
     7
100
AcDbCircle
 10
1224.869029
 20
1086.081423
 30
0.0
 40
205.2
100
AcDbArc
 50
98.173952
 51
103.870659
  0
LINE
  5
ED
100
AcDbEntity
  8
図
  6
CONTINUOUS
 62
     7
100
AcDbLine
 10
1177.369029
 20
1140.200093
 30
0.0
 11
1177.369029
 21
1271.472335
 31
0.0
  0
ARC
  5
EE
100
AcDbEntity
  8
図
  6
CONTINUOUS
 62
     7
100
AcDbCircle
 10
1187.369029
 20
1113.066419
 30
0.0
 40
10.0
100
AcDbArc
 50
324.261214
 51
0.0
  0
ARC
  5
EF
100
AcDbEntity
  8
図
  6
CONTINUOUS
 62
     7
100
AcDbCircle
 10
1224.869029
 20
1086.081423
 30
0.0
 40
36.2
100
AcDbArc
 50
35.738786
 51
144.261214
  0
ARC
  5
F0
100
AcDbEntity
  8
図
  6
CONTINUOUS
 62
     7
100
AcDbCircle
 10
1182.369029
 20
1116.903493
 30
0.0
 40
10.0
100
AcDbArc
 50
324.049432
 51
0.0
  0
LINE
  5
F1
100
AcDbEntity
  8
図
  6
EXLTYPE3
 62
     6
100
AcDbLine
 10
1120.386472
 20
1146.404456
 30
0.0
 11
1234.650118
 21
1080.434309
 31
0.0
  0
LINE
  5
F2
100
AcDbEntity
  8
図
  6
CONTINUOUS
 62
     7
100
AcDbLine
 10
1272.369029
 20
1140.200093
 30
0.0
 11
1272.369029
 21
1271.472335
 31
0.0
  0
LINE
  5
F3
100
AcDbEntity
  8
図
  6
EXLTYPE3
 62
     6
100
AcDbLine
 10
1327.147932
 20
1145.132176
 30
0.0
 11
1215.08794
 21
1080.434309
 31
0.0
  0
LINE
  5
F4
100
AcDbEntity
  8
図
  6
CONTINUOUS
 62
     7
100
AcDbLine
 10
1172.021979
 20
1281.647268
 30
0.0
 11
1143.724606
 21
1167.571194
 31
0.0
  0
LINE
  5
F5
100
AcDbEntity
  8
図
  6
CONTINUOUS
 62
     7
100
AcDbLine
 10
1277.716079
 20
1281.647268
 30
0.0
 11
1306.013451
 21
1167.571194
 31
0.0
  0
ARC
  5
F6
100
AcDbEntity
  8
図
  6
CONTINUOUS
 62
     7
100
AcDbCircle
 10
1272.863156
 20
1280.443466
 30
0.0
 40
5.0
100
AcDbArc
 50
13.93142
 51
76.129341
  0
ARC
  5
F7
100
AcDbEntity
  8
図
  6
CONTINUOUS
 62
     7
100
AcDbCircle
 10
1144.599152
 20
1161.292772
 30
0.0
 40
5.0
100
AcDbArc
 50
60.0
 51
136.863441
  0
LINE
  5
F8
100
AcDbEntity
  8
図
  6
CONTINUOUS
 62
     7
100
AcDbLine
 10
1147.099152
 20
1165.622899
 30
0.0
 11
1168.323589
 21
1153.368965
 31
0.0
  0
ARC
  5
F9
100
AcDbEntity
  8
図
  6
CONTINUOUS
 62
     7
100
AcDbCircle
 10
1224.869029
 20
1086.081423
 30
0.0
 40
115.0
100
AcDbArc
 50
136.863441
 51
43.136559
  0
ARC
  5
FA
100
AcDbEntity
  8
図
  6
CONTINUOUS
 62
     7
100
AcDbCircle
 10
1167.369029
 20
1140.200093
 30
0.0
 40
10.0
100
AcDbArc
 50
312.097721
 51
0.0
  0
ARC
  5
FB
100
AcDbEntity
  8
図
  6
CONTINUOUS
 62
     7
100
AcDbCircle
 10
1224.869029
 20
1086.081423
 30
0.0
 40
75.0
100
AcDbArc
 50
136.391039
 51
137.985579
  0
ARC
  5
FC
100
AcDbEntity
  8
図
  6
CONTINUOUS
 62
     7
100
AcDbCircle
 10
1163.323589
 20
1144.708711
 30
0.0
 40
10.0
100
AcDbArc
 50
316.391039
 51
60.0
  0
ARC
  5
FD
100
AcDbEntity
  8
図
  6
CONTINUOUS
 62
     7
100
AcDbCircle
 10
1146.766488
 20
1150.803855
 30
0.0
 40
3.0
100
AcDbArc
 50
60.0
 51
150.0
  0
LINE
  5
FE
100
AcDbEntity
  8
図
  6
CONTINUOUS
 62
     7
100
AcDbLine
 10
1127.168412
 20
1122.858992
 30
0.0
 11
1144.168412
 21
1152.303855
 31
0.0
  0
ARC
  5
FF
100
AcDbEntity
  8
図
  6
CONTINUOUS
 62
     7
100
AcDbCircle
 10
1129.766488
 20
1121.358992
 30
0.0
 40
3.0
100
AcDbArc
 50
150.0
 51
240.0
  0
ARC
  5
100
100
AcDbEntity
  8
図
  6
CONTINUOUS
 62
     7
100
AcDbCircle
 10
1164.086997
 20
1140.803855
 30
0.0
 40
3.0
100
AcDbArc
 50
330.0
 51
60.0
  0
LINE
  5
101
100
AcDbEntity
  8
図
  6
CONTINUOUS
 62
     7
100
AcDbLine
 10
1165.586997
 20
1143.401931
 30
0.0
 11
1148.266488
 21
1153.401931
 31
0.0
  0
ARC
  5
102
100
AcDbEntity
  8
図
  6
CONTINUOUS
 62
     7
100
AcDbCircle
 10
1153.408793
 20
1138.308665
 30
0.0
 40
2.0
100
AcDbArc
 50
330.0
 51
59.999991
  0
LINE
  5
103
100
AcDbEntity
  8
図
  6
CONTINUOUS
 62
     7
100
AcDbLine
 10
1155.140844
 20
1137.308665
 30
0.0
 11
1145.640844
 21
1120.854182
 31
0.0
  0
LINE
  5
104
100
AcDbEntity
  8
図
  6
CONTINUOUS
 62
     7
100
AcDbLine
 10
1154.408793
 20
1140.040716
 30
0.0
 11
1150.944692
 21
1142.040716
 31
0.0
  0
LINE
  5
105
100
AcDbEntity
  8
図
  6
CONTINUOUS
 62
     7
100
AcDbLine
 10
1148.212641
 20
1141.308665
 30
0.0
 11
1138.712641
 21
1124.854182
 31
0.0
  0
ARC
  5
106
100
AcDbEntity
  8
図
  6
CONTINUOUS
 62
     7
100
AcDbCircle
 10
1149.944692
 20
1140.308665
 30
0.0
 40
2.0
100
AcDbArc
 50
59.999991
 51
150.0
  0
ARC
  5
107
100
AcDbEntity
  8
図
  6
CONTINUOUS
 62
     7
100
AcDbCircle
 10
1140.444692
 20
1123.854182
 30
0.0
 40
2.0
100
AcDbArc
 50
150.0
 51
240.0
  0
ARC
  5
108
100
AcDbEntity
  8
図
  6
CONTINUOUS
 62
     7
100
AcDbCircle
 10
1143.908793
 20
1121.854182
 30
0.0
 40
2.0
100
AcDbArc
 50
240.0
 51
330.0
  0
LINE
  5
109
100
AcDbEntity
  8
図
  6
CONTINUOUS
 62
     7
100
AcDbLine
 10
1142.908793
 20
1120.122131
 30
0.0
 11
1139.444692
 21
1122.122131
 31
0.0
  0
ARC
  5
10A
100
AcDbEntity
  8
図
  6
CONTINUOUS
 62
     7
100
AcDbCircle
 10
1224.869029
 20
1086.081423
 30
0.0
 40
77.0
100
AcDbArc
 50
150.0
 51
30.0
  0
ARC
  5
10B
100
AcDbEntity
  8
図
  6
CONTINUOUS
 62
     7
100
AcDbCircle
 10
1224.869029
 20
1086.081423
 30
0.0
 40
103.0
100
AcDbArc
 50
161.196519
 51
258.917331
  0
ARC
  5
10C
100
AcDbEntity
  8
図
  6
CONTINUOUS
 62
     7
100
AcDbCircle
 10
1215.369029
 20
998.081423
 30
0.0
 40
2.0
100
AcDbArc
 50
90.0
 51
180.0
  0
LINE
  5
10D
100
AcDbEntity
  8
図
  6
CONTINUOUS
 62
     7
100
AcDbLine
 10
1234.369029
 20
1000.081423
 30
0.0
 11
1215.369029
 21
1000.081423
 31
0.0
  0
ARC
  5
10E
100
AcDbEntity
  8
図
  6
CONTINUOUS
 62
     7
100
AcDbCircle
 10
1234.369029
 20
998.081423
 30
0.0
 40
2.0
100
AcDbArc
 50
0.000009
 51
90.0
  0
LINE
  5
10F
100
AcDbEntity
  8
図
  6
CONTINUOUS
 62
     7
100
AcDbLine
 10
1236.369029
 20
998.081423
 30
0.0
 11
1236.369029
 21
994.081423
 31
0.0
  0
ARC
  5
110
100
AcDbEntity
  8
図
  6
CONTINUOUS
 62
     7
100
AcDbCircle
 10
1234.369029
 20
994.081423
 30
0.0
 40
2.0
100
AcDbArc
 50
270.0
 51
0.000009
  0
LINE
  5
111
100
AcDbEntity
  8
図
  6
CONTINUOUS
 62
     7
100
AcDbLine
 10
1234.369029
 20
992.081423
 30
0.0
 11
1215.369029
 21
992.081423
 31
0.0
  0
ARC
  5
112
100
AcDbEntity
  8
図
  6
CONTINUOUS
 62
     7
100
AcDbCircle
 10
1215.369029
 20
994.081423
 30
0.0
 40
2.0
100
AcDbArc
 50
180.0
 51
270.0
  0
LINE
  5
113
100
AcDbEntity
  8
図
  6
CONTINUOUS
 62
     7
100
AcDbLine
 10
1213.369029
 20
998.081423
 30
0.0
 11
1213.369029
 21
994.081423
 31
0.0
  0
LINE
  5
114
100
AcDbEntity
  8
図
  6
CONTINUOUS
 62
     7
100
AcDbLine
 10
1207.869029
 20
983.081423
 30
0.0
 11
1241.869029
 21
983.081423
 31
0.0
  0
LINE
  5
115
100
AcDbEntity
  8
図
  6
CONTINUOUS
 62
     7
100
AcDbLine
 10
1257.369029
 20
1272.548016
 30
0.0
 11
1257.369029
 21
1116.903493
 31
0.0
  0
ARC
  5
116
100
AcDbEntity
  8
図
  6
CONTINUOUS
 62
     7
100
AcDbCircle
 10
1262.369029
 20
1113.066419
 30
0.0
 40
10.0
100
AcDbArc
 50
180.0
 51
215.738786
  0
ARC
  5
117
100
AcDbEntity
  8
図
  6
CONTINUOUS
 62
     7
100
AcDbCircle
 10
1267.369029
 20
1116.903493
 30
0.0
 40
10.0
100
AcDbArc
 50
180.0
 51
215.950568
  0
ARC
  5
118
100
AcDbEntity
  8
図
  6
CONTINUOUS
 62
     7
100
AcDbCircle
 10
1282.369029
 20
1140.200093
 30
0.0
 40
10.0
100
AcDbArc
 50
180.0
 51
219.618568
  0
LINE
  5
119
100
AcDbEntity
  8
図
  6
CONTINUOUS
 62
     7
100
AcDbLine
 10
1302.638905
 20
1165.622899
 30
0.0
 11
1281.414469
 21
1153.368965
 31
0.0
  0
ARC
  5
11A
100
AcDbEntity
  8
図
  6
CONTINUOUS
 62
     7
100
AcDbCircle
 10
1305.138905
 20
1161.292772
 30
0.0
 40
5.0
100
AcDbArc
 50
43.136559
 51
120.0
  0
ARC
  5
11B
100
AcDbEntity
  8
図
  6
CONTINUOUS
 62
     7
100
AcDbCircle
 10
1299.793366
 20
1140.308665
 30
0.0
 40
2.0
100
AcDbArc
 50
30.0
 51
120.000009
  0
LINE
  5
11C
100
AcDbEntity
  8
図
  6
CONTINUOUS
 62
     7
100
AcDbLine
 10
1301.525417
 20
1141.308665
 30
0.0
 11
1311.025417
 21
1124.854182
 31
0.0
  0
ARC
  5
11D
100
AcDbEntity
  8
図
  6
CONTINUOUS
 62
     7
100
AcDbCircle
 10
1309.293366
 20
1123.854182
 30
0.0
 40
2.0
100
AcDbArc
 50
300.0
 51
30.0
  0
LINE
  5
11E
100
AcDbEntity
  8
図
  6
CONTINUOUS
 62
     7
100
AcDbLine
 10
1294.597214
 20
1137.308665
 30
0.0
 11
1304.097214
 21
1120.854182
 31
0.0
  0
ARC
  5
11F
100
AcDbEntity
  8
図
  6
CONTINUOUS
 62
     7
100
AcDbCircle
 10
1296.329264
 20
1138.308665
 30
0.0
 40
2.0
100
AcDbArc
 50
120.000009
 51
210.0
  0
ARC
  5
120
100
AcDbEntity
  8
図
  6
CONTINUOUS
 62
     7
100
AcDbCircle
 10
1305.829264
 20
1121.854182
 30
0.0
 40
2.0
100
AcDbArc
 50
210.0
 51
300.0
  0
ARC
  5
121
100
AcDbEntity
  8
図
  6
CONTINUOUS
 62
     7
100
AcDbCircle
 10
1285.651061
 20
1140.803855
 30
0.0
 40
3.0
100
AcDbArc
 50
120.0
 51
210.0
  0
LINE
  5
122
100
AcDbEntity
  8
図
  6
CONTINUOUS
 62
     7
100
AcDbLine
 10
1284.151061
 20
1143.401931
 30
0.0
 11
1301.471569
 21
1153.401931
 31
0.0
  0
ARC
  5
123
100
AcDbEntity
  8
図
  6
CONTINUOUS
 62
     7
100
AcDbCircle
 10
1302.971569
 20
1150.803855
 30
0.0
 40
3.0
100
AcDbArc
 50
30.0
 51
120.0
  0
LINE
  5
124
100
AcDbEntity
  8
図
  6
CONTINUOUS
 62
     7
100
AcDbLine
 10
1322.569645
 20
1122.858992
 30
0.0
 11
1305.569645
 21
1152.303855
 31
0.0
  0
LINE
  5
125
100
AcDbEntity
  8
図
  6
CONTINUOUS
 62
     7
100
AcDbLine
 10
1295.329264
 20
1140.040716
 30
0.0
 11
1298.793366
 21
1142.040716
 31
0.0
  0
LINE
  5
126
100
AcDbEntity
  8
図
  6
CONTINUOUS
 62
     7
100
AcDbLine
 10
1306.829264
 20
1120.122131
 30
0.0
 11
1310.293366
 21
1122.122131
 31
0.0
  0
ARC
  5
127
100
AcDbEntity
  8
図
  6
CONTINUOUS
 62
     7
100
AcDbCircle
 10
1286.414469
 20
1144.708711
 30
0.0
 40
10.0
100
AcDbArc
 50
120.0
 51
223.608961
  0
ARC
  5
128
100
AcDbEntity
  8
図
  6
CONTINUOUS
 62
     7
100
AcDbCircle
 10
1224.869029
 20
1086.081423
 30
0.0
 40
75.0
100
AcDbArc
 50
137.332075
 51
43.608961
  0
LINE
  5
129
100
AcDbEntity
  8
図
  6
CONTINUOUS
 62
     7
100
AcDbLine
 10
1158.185073
 20
1124.581423
 30
0.0
 11
1166.685073
 21
1139.303855
 31
0.0
  0
ARC
  5
12A
100
AcDbEntity
  8
図
  6
CONTINUOUS
 62
     7
100
AcDbCircle
 10
1207.869029
 20
986.081423
 30
0.0
 40
3.0
100
AcDbArc
 50
201.082547
 51
270.0
  0
ARC
  5
12B
100
AcDbEntity
  8
図
  6
CONTINUOUS
 62
     7
100
AcDbCircle
 10
1241.869029
 20
986.081423
 30
0.0
 40
3.0
100
AcDbArc
 50
270.0
 51
338.917453
  0
LINE
  5
12C
100
AcDbEntity
  8
図
  6
CONTINUOUS
 62
     7
100
AcDbLine
 10
1291.552985
 20
1124.581423
 30
0.0
 11
1283.052985
 21
1139.303855
 31
0.0
  0
ARC
  5
12D
100
AcDbEntity
  8
図
  6
CONTINUOUS
 62
     7
100
AcDbCircle
 10
1319.971569
 20
1121.358992
 30
0.0
 40
3.0
100
AcDbArc
 50
321.082547
 51
30.0
  0
ARC
  5
12E
100
AcDbEntity
  8
図
  6
CONTINUOUS
 62
     7
100
AcDbCircle
 10
1224.869029
 20
1086.081423
 30
0.0
 40
103.0
100
AcDbArc
 50
281.082669
 51
18.917331
  0
ARC
  5
12F
100
AcDbEntity
  8
図
  6
EXLTYPE2
 62
     2
100
AcDbCircle
 10
1426.869029
 20
562.5
 30
0.0
 40
8.0
100
AcDbArc
 50
335.179923
 51
356.395383
  0
LINE
  5
130
100
AcDbEntity
  8
図
  6
CONTINUOUS
 62
     7
100
AcDbLine
 10
1245.369029
 20
450.5
 30
0.0
 11
1255.369029
 21
460.5
 31
0.0
  0
LINE
  5
131
100
AcDbEntity
  8
図
  6
CONTINUOUS
 62
     7
100
AcDbLine
 10
1246.369029
 20
415.5
 30
0.0
 11
1246.369029
 21
423.5
 31
0.0
  0
LINE
  5
132
100
AcDbEntity
  8
図
  6
CONTINUOUS
 62
     7
100
AcDbLine
 10
1245.369029
 20
442.5
 30
0.0
 11
1245.369029
 21
450.5
 31
0.0
  0
LINE
  5
133
100
AcDbEntity
  8
図
  6
CONTINUOUS
 62
     7
100
AcDbLine
 10
1204.369029
 20
450.5
 30
0.0
 11
1194.369029
 21
460.5
 31
0.0
  0
LINE
  5
134
100
AcDbEntity
  8
図
  6
CONTINUOUS
 62
     7
100
AcDbLine
 10
1201.05532
 20
442.5
 30
0.0
 11
1248.682737
 21
442.5
 31
0.0
  0
LINE
  5
135
100
AcDbEntity
  8
図
  6
CONTINUOUS
 62
     7
100
AcDbLine
 10
1194.369029
 20
460.5
 30
0.0
 11
1255.369029
 21
460.5
 31
0.0
  0
LINE
  5
136
100
AcDbEntity
  8
図
  6
CONTINUOUS
 62
     7
100
AcDbLine
 10
1245.369029
 20
450.5
 30
0.0
 11
1204.369029
 21
450.5
 31
0.0
  0
LINE
  5
137
100
AcDbEntity
  8
図
  6
CONTINUOUS
 62
     7
100
AcDbLine
 10
1022.869029
 20
570.5
 30
0.0
 11
1426.869029
 21
570.5
 31
0.0
  0
LINE
  5
138
100
AcDbEntity
  8
図
  6
CONTINUOUS
 62
     7
100
AcDbLine
 10
1204.369029
 20
442.5
 30
0.0
 11
1204.369029
 21
450.5
 31
0.0
  0
LINE
  5
139
100
AcDbEntity
  8
図
  6
CONTINUOUS
 62
     7
100
AcDbLine
 10
1203.369029
 20
415.5
 30
0.0
 11
1203.369029
 21
423.5
 31
0.0
  0
ARC
  5
13A
100
AcDbEntity
  8
図
  6
EXLTYPE2
 62
     2
100
AcDbCircle
 10
1423.242515
 20
560.5
 30
0.0
 40
10.0
100
AcDbArc
 50
270.0
 51
327.700733
  0
ARC
  5
13B
100
AcDbEntity
  8
図
  6
EXLTYPE2
 62
     2
100
AcDbCircle
 10
-258.842144
 20
1623.839645
 30
0.0
 40
2000.0
100
AcDbArc
 50
327.700733
 51
327.805095
  0
ARC
  5
13C
100
AcDbEntity
  8
図
  6
CONTINUOUS
 62
     7
100
AcDbCircle
 10
1230.661651
 20
619.189838
 30
0.0
 40
192.0
100
AcDbArc
 50
279.688299
 51
294.704711
  0
ARC
  5
13D
100
AcDbEntity
  8
図
  6
CONTINUOUS
 62
     7
100
AcDbCircle
 10
1265.160708
 20
417.113578
 30
0.0
 40
13.0
100
AcDbArc
 50
99.688299
 51
150.576354
  0
ARC
  5
13E
100
AcDbEntity
  8
図
  6
CONTINUOUS
 62
     7
100
AcDbCircle
 10
1413.351113
 20
542.684014
 30
0.0
 40
20.0
100
AcDbArc
 50
323.295364
 51
355.71631
  0
LINE
  5
13F
100
AcDbEntity
  8
図
  6
CONTINUOUS
 62
     7
100
AcDbLine
 10
1433.295242
 20
541.190116
 30
0.0
 11
1434.84668
 21
561.902441
 31
0.0
  0
ARC
  5
140
100
AcDbEntity
  8
図
  6
CONTINUOUS
 62
     7
100
AcDbCircle
 10
1188.867474
 20
710.03722
 30
0.0
 40
300.0
100
AcDbArc
 50
294.704711
 51
323.295364
  0
ARC
  5
141
100
AcDbEntity
  8
図
  6
CONTINUOUS
 62
     7
100
AcDbCircle
 10
1188.867474
 20
710.03722
 30
0.0
 40
292.0
100
AcDbArc
 50
294.704711
 51
323.387401
  0
LINE
  5
142
100
AcDbEntity
  8
図
  6
CONTINUOUS
 62
     7
100
AcDbLine
 10
1425.595912
 20
542.290379
 30
0.0
 11
1426.869029
 21
562.5
 31
0.0
  0
ARC
  5
143
100
AcDbEntity
  8
図
  6
CONTINUOUS
 62
     7
100
AcDbCircle
 10
1413.619652
 20
543.04483
 30
0.0
 40
12.0
100
AcDbArc
 50
323.387401
 51
356.395383
  0
ARC
  5
144
100
AcDbEntity
  8
図
  6
CONTINUOUS
 62
     7
100
AcDbCircle
 10
1265.766427
 20
751.880184
 30
0.0
 40
300.0
100
AcDbArc
 50
217.942528
 51
256.231983
  0
ARC
  5
145
100
AcDbEntity
  8
図
  6
CONTINUOUS
 62
     7
100
AcDbCircle
 10
1175.442733
 20
448.020627
 30
0.0
 40
8.0
100
AcDbArc
 50
10.927314
 51
73.445169
  0
ARC
  5
146
100
AcDbEntity
  8
図
  6
CONTINUOUS
 62
     7
100
AcDbCircle
 10
1193.99604
 20
420.5
 30
0.0
 40
5.0
100
AcDbArc
 50
190.927314
 51
270.0
  0
LINE
  5
147
100
AcDbEntity
  8
図
  6
CONTINUOUS
 62
     7
100
AcDbLine
 10
1183.29768
 20
449.537135
 30
0.0
 11
1189.086698
 21
419.552182
 31
0.0
  0
ARC
  5
148
100
AcDbEntity
  8
図
  6
CONTINUOUS
 62
     7
100
AcDbCircle
 10
1175.442733
 20
448.020627
 30
0.0
 40
16.0
100
AcDbArc
 50
10.927314
 51
17.616465
  0
LINE
  5
149
100
AcDbEntity
  8
図
  6
CONTINUOUS
 62
     7
100
AcDbLine
 10
1201.05532
 20
442.5
 30
0.0
 11
1190.692393
 21
452.862928
 31
0.0
  0
LINE
  5
14A
100
AcDbEntity
  8
図
  6
CONTINUOUS
 62
     7
100
AcDbLine
 10
1196.472247
 20
423.5
 30
0.0
 11
1191.152628
 21
451.053644
 31
0.0
  0
LINE
  5
14B
100
AcDbEntity
  8
図
  6
CONTINUOUS
 62
     7
100
AcDbLine
 10
1253.837563
 20
423.5
 30
0.0
 11
1196.472247
 21
423.5
 31
0.0
  0
ARC
  5
14C
100
AcDbEntity
  8
図
  6
CONTINUOUS
 62
     7
100
AcDbCircle
 10
1183.971631
 20
751.880184
 30
0.0
 40
300.0
100
AcDbArc
 50
283.768017
 51
322.057472
  0
ARC
  5
14D
100
AcDbEntity
  8
図
  6
CONTINUOUS
 62
     7
100
AcDbCircle
 10
1426.869029
 20
562.5
 30
0.0
 40
8.0
100
AcDbArc
 50
355.71631
 51
142.057472
  0
LINE
  5
14E
100
AcDbEntity
  8
図
  6
EXLTYPE3
 62
     6
100
AcDbLine
 10
1384.769029
 20
539.52456
 30
0.0
 11
1400.765378
 21
522.607434
 31
0.0
  0
LINE
  5
14F
100
AcDbEntity
  8
図
  6
CONTINUOUS
 62
     7
100
AcDbLine
 10
1404.493149
 20
536.85865
 30
0.0
 11
1398.992046
 21
542.676405
 31
0.0
  0
LINE
  5
150
100
AcDbEntity
  8
図
  6
CONTINUOUS
 62
     7
100
AcDbLine
 10
1386.328042
 20
519.682245
 30
0.0
 11
1380.826939
 21
525.5
 31
0.0
  0
LINE
  5
151
100
AcDbEntity
  8
図
  6
CONTINUOUS
 62
     7
100
AcDbLine
 10
1248.682737
 20
442.5
 30
0.0
 11
1259.455963
 21
453.273225
 31
0.0
  0
ARC
  5
152
100
AcDbEntity
  8
図
  6
CONTINUOUS
 62
     7
100
AcDbCircle
 10
1183.971631
 20
751.880184
 30
0.0
 40
308.0
100
AcDbArc
 50
284.186502
 51
322.057472
  0
LINE
  5
153
100
AcDbEntity
  8
図
  6
EXLTYPE2
 62
     2
100
AcDbLine
 10
1266.440377
 20
449.537135
 30
0.0
 11
1260.65136
 21
419.552182
 31
0.0
  0
ARC
  5
154
100
AcDbEntity
  8
図
  6
EXLTYPE2
 62
     2
100
AcDbCircle
 10
1274.295325
 20
448.020627
 30
0.0
 40
8.0
100
AcDbArc
 50
106.554831
 51
169.072686
  0
LINE
  5
155
100
AcDbEntity
  8
図
  6
EXLTYPE2
 62
     2
100
AcDbLine
 10
1423.242515
 20
550.5
 30
0.0
 11
1421.075952
 21
550.5
 31
0.0
  0
ARC
  5
156
100
AcDbEntity
  8
図
  6
EXLTYPE2
 62
     2
100
AcDbCircle
 10
1183.971631
 20
751.880184
 30
0.0
 40
309.0
100
AcDbArc
 50
286.554831
 51
318.82586
  0
ARC
  5
157
100
AcDbEntity
  8
図
  6
EXLTYPE2
 62
     2
100
AcDbCircle
 10
1421.075952
 20
544.5
 30
0.0
 40
6.0
100
AcDbArc
 50
90.0
 51
138.82586
  0
ARC
  5
158
100
AcDbEntity
  8
図
  6
CONTINUOUS
 62
     7
100
AcDbCircle
 10
1265.150545
 20
417.111843
 30
0.0
 40
5.0
100
AcDbArc
 50
99.685418
 51
160.195263
  0
ARC
  5
159
100
AcDbEntity
  8
図
  6
CONTINUOUS
 62
     7
100
AcDbCircle
 10
1255.742017
 20
420.5
 30
0.0
 40
5.0
100
AcDbArc
 50
270.0
 51
340.195263
  0
ARC
  5
15A
100
AcDbEntity
  8
図
  6
CONTINUOUS
 62
     7
100
AcDbCircle
 10
1230.661651
 20
619.189838
 30
0.0
 40
200.0
100
AcDbArc
 50
279.685418
 51
294.704711
  0
LINE
  5
15B
100
AcDbEntity
  8
図
  6
CONTINUOUS
 62
     7
100
AcDbLine
 10
1117.354668
 20
415.5
 30
0.0
 11
1332.38339
 21
415.5
 31
0.0
  0
LINE
  5
15C
100
AcDbEntity
  8
図
  6
EXLTYPE3
 62
     6
100
AcDbLine
 10
1224.869029
 20
580.5
 30
0.0
 11
1224.869029
 21
410.5
 31
0.0
  0
ARC
  5
15D
100
AcDbEntity
  8
図
  6
CONTINUOUS
 62
     7
100
AcDbCircle
 10
-258.842144
 20
1623.839645
 30
0.0
 40
2000.0
100
AcDbArc
 50
322.902171
 51
325.139875
  0
ARC
  5
15E
100
AcDbEntity
  8
図
  6
CONTINUOUS
 62
     7
100
AcDbCircle
 10
1332.38339
 20
420.5
 30
0.0
 40
5.0
100
AcDbArc
 50
270.0
 51
322.902171
  0
LINE
  5
15F
100
AcDbEntity
  8
図
  6
EXLTYPE3
 62
     6
100
AcDbLine
 10
1134.869029
 20
412.4
 30
0.0
 11
1134.869029
 21
433.8
 31
0.0
  0
LINE
  5
160
100
AcDbEntity
  8
図
  6
CONTINUOUS
 62
     6
100
AcDbLine
 10
1209.369029
 20
279.0
 30
0.0
 11
1324.869029
 21
279.0
 31
0.0
  0
TEXT
  5
161
100
AcDbEntity
  8
図
  6
CONTINUOUS
 62
     2
100
AcDbText
 10
1209.369029
 20
279.0
 30
0.0
 40
20.0
  1
Ｂ－Ｂ断面図
 41
0.805
  7
EXCADSTD
 72
     5
 11
1324.369029
 21
279.0
 31
0.0
100
AcDbText
  0
CIRCLE
  5
162
100
AcDbEntity
  8
図
  6
CONTINUOUS
 62
     3
100
AcDbCircle
 10
1224.869029
 20
992.081423
 30
0.0
 40
35.359663
  0
CIRCLE
  5
163
100
AcDbEntity
  8
図
  6
EXLTYPE3
 62
     6
100
AcDbCircle
 10
1224.869029
 20
1086.081423
 30
0.0
 40
90.0
  0
CIRCLE
  5
164
100
AcDbEntity
  8
図
  6
EXLTYPE3
 62
     6
100
AcDbCircle
 10
581.130971
 20
1086.081423
 30
0.0
 40
90.0
  0
TEXT
  5
165
100
AcDbEntity
  8
図
  6
CONTINUOUS
 62
     2
100
AcDbText
 10
1068.335858
 20
365.946778
 30
0.0
 40
20.0
  1
Ｃ
 41
0.945
  7
EXCADSTD
 72
     5
 11
1086.335858
 21
365.946778
 31
0.0
100
AcDbText
  0
CIRCLE
  5
166
100
AcDbEntity
  8
図
  6
CONTINUOUS
 62
     7
100
AcDbCircle
 10
581.130971
 20
1086.081423
 30
0.0
 40
30.5
  0
CIRCLE
  5
167
100
AcDbEntity
  8
図
  6
CONTINUOUS
 62
     7
100
AcDbCircle
 10
581.130971
 20
1086.081423
 30
0.0
 40
20.5
  0
LINE
  5
168
100
AcDbEntity
  8
図
  6
CONTINUOUS
 62
     6
100
AcDbLine
 10
1634.912311
 20
365.75
 30
0.0
 11
1840.412311
 21
365.75
 31
0.0
  0
TEXT
  5
169
100
AcDbEntity
  8
図
  6
CONTINUOUS
 62
     2
100
AcDbText
 10
1634.912311
 20
365.75
 30
0.0
 40
20.0
  1
Ｃ部詳細図　Ｓ：１／１
 41
0.792273
  7
EXCADSTD
 72
     5
 11
1842.41231
 21
365.75
 31
0.0
100
AcDbText
  0
LINE
  5
16A
100
AcDbEntity
  8
図
  6
CONTINUOUS
 62
     6
100
AcDbLine
 10
1644.5
 20
976.25
 30
0.0
 11
1850.0
 21
976.25
 31
0.0
  0
TEXT
  5
16B
100
AcDbEntity
  8
図
  6
CONTINUOUS
 62
     2
100
AcDbText
 10
1644.5
 20
976.25
 30
0.0
 40
20.0
  1
Ｄ部詳細図　Ｓ：１／１
 41
0.792273
  7
EXCADSTD
 72
     5
 11
1851.999999
 21
976.25
 31
0.0
100
AcDbText
  0
LINE
  5
16C
100
AcDbEntity
  8
図
  6
CONTINUOUS
 62
     7
100
AcDbLine
 10
1130.869029
 20
419.5
 30
0.0
 11
1130.869029
 21
427.5
 31
0.0
  0
LINE
  5
16D
100
AcDbEntity
  8
図
  6
CONTINUOUS
 62
     7
100
AcDbLine
 10
1138.869029
 20
419.5
 30
0.0
 11
1138.869029
 21
427.5
 31
0.0
  0
ARC
  5
16E
100
AcDbEntity
  8
図
  6
CONTINUOUS
 62
     7
100
AcDbCircle
 10
1147.869029
 20
417.5
 30
0.0
 40
2.0
100
AcDbArc
 50
26.565051
 51
90.0
  0
LINE
  5
16F
100
AcDbEntity
  8
図
  6
CONTINUOUS
 62
     7
100
AcDbLine
 10
1149.657883
 20
418.394427
 30
0.0
 11
1150.55231
 21
416.605573
 31
0.0
  0
ARC
  5
170
100
AcDbEntity
  8
図
  6
CONTINUOUS
 62
     7
100
AcDbCircle
 10
1147.663578
 20
417.5
 30
0.0
 40
10.0
100
AcDbArc
 50
55.103266
 51
90.0
  0
ARC
  5
171
100
AcDbEntity
  8
図
  6
CONTINUOUS
 62
     7
100
AcDbCircle
 10
1113.1186
 20
420.5
 30
0.0
 40
5.0
100
AcDbArc
 50
217.097829
 51
270.0
  0
ARC
  5
172
100
AcDbEntity
  8
図
  6
CONTINUOUS
 62
     7
100
AcDbCircle
 10
1121.869029
 20
417.5
 30
0.0
 40
2.0
100
AcDbArc
 50
90.0
 51
153.434949
  0
ARC
  5
173
100
AcDbEntity
  8
図
  6
CONTINUOUS
 62
     7
100
AcDbCircle
 10
1117.396893
 20
417.5
 30
0.0
 40
2.0
100
AcDbArc
 50
270.0
 51
333.434949
  0
LINE
  5
174
100
AcDbEntity
  8
図
  6
CONTINUOUS
 62
     7
100
AcDbLine
 10
1120.080174
 20
418.394427
 30
0.0
 11
1119.185747
 21
416.605573
 31
0.0
  0
ARC
  5
175
100
AcDbEntity
  8
図
  6
CONTINUOUS
 62
     7
100
AcDbCircle
 10
1121.703328
 20
417.5
 30
0.0
 40
10.0
100
AcDbArc
 50
90.0
 51
138.848123
  0
LINE
  5
176
100
AcDbEntity
  8
図
  6
CONTINUOUS
 62
     7
100
AcDbLine
 10
1147.663578
 20
427.5
 30
0.0
 11
1121.703328
 21
427.5
 31
0.0
  0
LINE
  5
177
100
AcDbEntity
  8
図
  6
CONTINUOUS
 62
     7
100
AcDbLine
 10
1113.1186
 20
415.5
 30
0.0
 11
1162.643557
 21
415.5
 31
0.0
  0
LINE
  5
178
100
AcDbEntity
  8
図
  6
CONTINUOUS
 62
     7
100
AcDbLine
 10
1147.869029
 20
419.5
 30
0.0
 11
1121.869029
 21
419.5
 31
0.0
  0
ARC
  5
179
100
AcDbEntity
  8
図
  6
CONTINUOUS
 62
     7
100
AcDbCircle
 10
1170.500597
 20
452.681149
 30
0.0
 40
13.0
100
AcDbArc
 50
133.797449
 51
172.466746
  0
ARC
  5
17A
100
AcDbEntity
  8
図
  6
CONTINUOUS
 62
     7
100
AcDbCircle
 10
1265.766427
 20
751.880184
 30
0.0
 40
309.0
100
AcDbArc
 50
252.324468
 51
253.445169
  0
ARC
  5
17B
100
AcDbEntity
  8
図
  6
CONTINUOUS
 62
     7
100
AcDbCircle
 10
1152.341165
 20
417.5
 30
0.0
 40
2.0
100
AcDbArc
 50
206.565051
 51
270.0
  0
ARC
  5
17C
100
AcDbEntity
  8
図
  6
CONTINUOUS
 62
     7
100
AcDbCircle
 10
1170.500597
 20
452.681149
 30
0.0
 40
5.0
100
AcDbArc
 50
71.478854
 51
172.466746
  0
LINE
  5
17D
100
AcDbEntity
  8
図
  6
CONTINUOUS
 62
     7
100
AcDbLine
 10
1153.38457
 20
425.701845
 30
0.0
 11
1157.639484
 21
454.576348
 31
0.0
  0
LINE
  5
17E
100
AcDbEntity
  8
図
  6
CONTINUOUS
 62
     7
100
AcDbLine
 10
1160.670887
 20
419.781498
 30
0.0
 11
1165.552491
 21
453.39965
 31
0.0
  0
ARC
  5
17F
100
AcDbEntity
  8
図
  6
CONTINUOUS
 62
     7
100
AcDbCircle
 10
1155.722781
 20
420.5
 30
0.0
 40
5.0
100
AcDbArc
 50
270.0
 51
351.737976
  0
ARC
  5
180
100
AcDbEntity
  8
図
  6
CONTINUOUS
 62
     7
100
AcDbCircle
 10
1022.869029
 20
562.5
 30
0.0
 40
8.0
100
AcDbArc
 50
37.942528
 51
211.040933
  0
ARC
  5
181
100
AcDbEntity
  8
図
  6
CONTINUOUS
 62
     7
100
AcDbCircle
 10
2729.612902
 20
1589.675424
 30
0.0
 40
2000.0
100
AcDbArc
 50
211.040933
 51
215.877403
  0
ARC
  5
182
100
AcDbEntity
  8
図
  6
CONTINUOUS
 62
     7
100
AcDbCircle
 10
1265.766427
 20
751.880184
 30
0.0
 40
308.0
100
AcDbArc
 50
217.942528
 51
250.213445
  0
ARC
  5
183
100
AcDbEntity
  8
図
  6
CONTINUOUS
 62
     7
100
AcDbCircle
 10
2729.910583
 20
1589.180638
 30
0.0
 40
1992.0
100
AcDbArc
 50
211.024324
 51
215.79519
  0
DIMENSION
  5
190
100
AcDbEntity
  8
寸法
  6
CONTINUOUS
 62
     3
100
AcDbDimension
  2
*D14
 10
1246.369029
 20
371.0
 30
0.0
 11
1293.619029
 21
382.75
 31
0.0
 70
   160
  1
%%c43
  3
STANDARD
100
AcDbAlignedDimension
 13
1203.369029
 23
415.5
 33
0.0
 14
1246.369029
 24
415.5
 34
0.0
100
AcDbRotatedDimension
1001
ACAD
1000
DSTYLE
1002
{
1070
     6
1000
_EX_NORM
1070
     7
1000
_EX_NORM
1070
    41
1040
17.5
1070
    42
1040
2.5
1070
    44
1040
10.0
1070
    73
1070
     0
1070
    74
1070
     0
1070
    75
1070
     0
1070
    76
1070
     0
1070
    77
1070
     1
1070
    78
1070
     8
1070
   140
1040
20.0
1070
   147
1040
1.75
1070
   173
1070
     1
1070
   176
1070
     3
1070
   177
1070
     3
1070
   178
1070
     2
1070
   271
1070
     3
1070
   279
1070
     2
1070
   280
1070
     2
1070
   287
1070
     5
1070
   340
1005
18F
1002
}
  0
DIMENSION
  5
19C
100
AcDbEntity
  8
寸法
  6
CONTINUOUS
 62
     3
100
AcDbDimension
  2
*D15
 10
1194.369029
 20
521.0
 30
0.0
 11
1224.869029
 21
532.75
 31
0.0
 70
   160
  1
%%c61
  3
STANDARD
100
AcDbAlignedDimension
 13
1255.369029
 23
460.5
 33
0.0
 14
1194.369029
 24
460.5
 34
0.0
100
AcDbRotatedDimension
1001
ACAD
1000
DSTYLE
1002
{
1070
     6
1000
_EX_NORM
1070
     7
1000
_EX_NORM
1070
    41
1040
17.5
1070
    42
1040
2.5
1070
    44
1040
10.0
1070
    73
1070
     0
1070
    74
1070
     0
1070
    75
1070
     0
1070
    76
1070
     0
1070
    77
1070
     1
1070
    78
1070
     8
1070
   140
1040
20.0
1070
   147
1040
1.75
1070
   173
1070
     1
1070
   176
1070
     3
1070
   177
1070
     3
1070
   178
1070
     2
1070
   271
1070
     3
1070
   279
1070
     2
1070
   280
1070
     0
1070
   287
1070
     5
1070
   340
1005
18F
1002
}
  0
DIMENSION
  5
1A8
100
AcDbEntity
  8
寸法
  6
CONTINUOUS
 62
     3
100
AcDbDimension
  2
*D16
 10
1224.869029
 20
547.004273
 30
0.0
 11
1224.869029
 21
558.754273
 31
0.0
 70
   165
  1
90%%d
  3
STANDARD
100
AcDb3PointAngularDimension
 13
1245.324835
 23
450.455806
 33
0.0
 14
1204.413223
 24
450.455806
 34
0.0
 15
1224.869029
 25
430.0
 35
0.0
1001
ACAD
1000
DSTYLE
1002
{
1070
     6
1000
_EX_NORM
1070
     7
1000
_EX_NORM
1070
    41
1040
17.5
1070
    42
1040
0.0625
1070
    44
1040
10.0
1070
    73
1070
     0
1070
    74
1070
     0
1070
    75
1070
     0
1070
    76
1070
     0
1070
    77
1070
     1
1070
    78
1070
     8
1070
   140
1040
20.0
1070
   147
1040
1.75
1070
   173
1070
     1
1070
   176
1070
     3
1070
   177
1070
     3
1070
   178
1070
     2
1070
   271
1070
     3
1070
   279
1070
     2
1070
   280
1070
     0
1070
   287
1070
     5
1070
   340
1005
18F
1002
}
  0
DIMENSION
  5
1B4
100
AcDbEntity
  8
寸法
  6
CONTINUOUS
 62
     3
100
AcDbDimension
  2
*D17
 10
1224.869029
 20
331.0
 30
0.0
 11
1179.869029
 21
342.75
 31
0.0
 70
   160
  1
90
  3
STANDARD
100
AcDbAlignedDimension
 13
1134.869029
 23
412.4
 33
0.0
 14
1224.869029
 24
410.5
 34
0.0
100
AcDbRotatedDimension
1001
ACAD
1000
DSTYLE
1002
{
1070
     6
1000
_EX_NORM
1070
     7
1000
_EX_NORM
1070
    41
1040
17.5
1070
    42
1040
2.5
1070
    44
1040
10.0
1070
    73
1070
     0
1070
    74
1070
     0
1070
    75
1070
     0
1070
    76
1070
     0
1070
    77
1070
     1
1070
    78
1070
     8
1070
   140
1040
20.0
1070
   147
1040
1.75
1070
   173
1070
     1
1070
   176
1070
     3
1070
   177
1070
     3
1070
   178
1070
     2
1070
   271
1070
     3
1070
   279
1070
     2
1070
   280
1070
     0
1070
   287
1070
     5
1070
   340
1005
18F
1002
}
  0
DIMENSION
  5
1BF
100
AcDbEntity
  8
寸法
  6
CONTINUOUS
 62
     3
100
AcDbDimension
  2
*D18
 10
1224.869029
 20
331.0
 30
0.0
 11
1329.869029
 21
342.75
 31
0.0
 70
   160
  1
210
  3
STANDARD
100
AcDbAlignedDimension
 13
1434.869029
 23
562.5
 33
0.0
 14
1224.869029
 24
410.5
 34
0.0
100
AcDbRotatedDimension
1001
ACAD
1000
DSTYLE
1002
{
1070
     6
1000
_EX_NORM
1070
     7
1000
_EX_NORM
1070
    41
1040
17.5
1070
    42
1040
2.5
1070
    44
1040
10.0
1070
    73
1070
     0
1070
    74
1070
     0
1070
    75
1070
     0
1070
    76
1070
     1
1070
    77
1070
     1
1070
    78
1070
     8
1070
   140
1040
20.0
1070
   147
1040
1.75
1070
   173
1070
     1
1070
   176
1070
     3
1070
   177
1070
     3
1070
   178
1070
     2
1070
   271
1070
     3
1070
   279
1070
     2
1070
   280
1070
     0
1070
   287
1070
     5
1070
   340
1005
18F
1002
}
  0
DIMENSION
  5
1CB
100
AcDbEntity
  8
寸法
  6
CONTINUOUS
 62
     3
100
AcDbDimension
  2
*D19
 10
1363.868333
 20
543.434771
 30
0.0
 11
1404.877976
 21
600.560574
 31
0.0
 70
   161
  1
%%c25
  3
STANDARD
100
AcDbAlignedDimension
 13
1398.992046
 23
542.676405
 33
0.0
 14
1380.826939
 24
525.5
 34
0.0
1001
ACAD
1000
DSTYLE
1002
{
1070
     6
1000
_EX_NORM
1070
     7
1000
_EX_NORM
1070
    41
1040
17.5
1070
    42
1040
2.5
1070
    44
1040
10.0
1070
    73
1070
     0
1070
    74
1070
     0
1070
    75
1070
     0
1070
    76
1070
     0
1070
    77
1070
     1
1070
    78
1070
     8
1070
   140
1040
20.0
1070
   147
1040
1.75
1070
   173
1070
     1
1070
   176
1070
     3
1070
   177
1070
     3
1070
   178
1070
     2
1070
   271
1070
     3
1070
   279
1070
     2
1070
   280
1070
     0
1070
   287
1070
     5
1070
   340
1005
18F
1002
}
  0
DIMENSION
  5
1D7
100
AcDbEntity
  8
寸法
  6
CONTINUOUS
 62
     3
100
AcDbDimension
  2
*D20
 10
862.0
 20
415.5
 30
0.0
 11
850.25
 21
493.0
 31
0.0
 70
   160
  1
155
  3
STANDARD
100
AcDbAlignedDimension
 13
783.130971
 23
570.5
 33
0.0
 14
688.645332
 24
415.5
 34
0.0
 50
90.0
100
AcDbRotatedDimension
1001
ACAD
1000
DSTYLE
1002
{
1070
     6
1000
_EX_NORM
1070
     7
1000
_EX_NORM
1070
    41
1040
17.5
1070
    42
1040
2.5
1070
    44
1040
10.0
1070
    73
1070
     0
1070
    74
1070
     0
1070
    75
1070
     0
1070
    76
1070
     0
1070
    77
1070
     1
1070
    78
1070
     8
1070
   140
1040
20.0
1070
   147
1040
1.75
1070
   173
1070
     1
1070
   176
1070
     3
1070
   177
1070
     3
1070
   178
1070
     2
1070
   271
1070
     3
1070
   279
1070
     2
1070
   280
1070
     0
1070
   287
1070
     5
1070
   340
1005
18F
1002
}
  0
LINE
  5
1D8
100
AcDbEntity
  8
寸法
  6
CONTINUOUS
 62
     3
100
AcDbLine
 10
691.130971
 20
413.0
 30
0.0
 11
691.130971
 21
361.0
 31
0.0
  0
LINE
  5
1D9
100
AcDbEntity
  8
寸法
  6
CONTINUOUS
 62
     3
100
AcDbLine
 10
471.130971
 20
413.0
 30
0.0
 11
471.130971
 21
361.0
 31
0.0
  0
TEXT
  5
1DA
100
AcDbEntity
  8
寸法
  6
CONTINUOUS
 62
     2
100
AcDbText
 10
529.255971
 20
372.75
 30
0.0
 40
20.0
  1
φ
 41
0.945
  7
EXCADSTD
 72
     5
 11
547.255971
 21
372.75
 31
0.0
100
AcDbText
  0
TEXT
  5
1DB
100
AcDbEntity
  8
寸法
  6
CONTINUOUS
 62
     2
100
AcDbText
 10
549.755971
 20
372.75
 30
0.0
 40
20.0
  1
２２０
 41
0.833
  7
EXCADSTD
 72
     5
 11
609.255971
 21
372.75
 31
0.0
100
AcDbText
  0
TEXT
  5
1DC
100
AcDbEntity
  8
寸法
  6
CONTINUOUS
 62
     2
100
AcDbText
 10
607.255971
 20
382.75
 30
0.0
 40
10.0
  1
＋
 41
0.945
  7
EXCADSTD
 72
     5
 11
616.255971
 21
382.75
 31
0.0
100
AcDbText
  0
TEXT
  5
1DD
100
AcDbEntity
  8
寸法
  6
CONTINUOUS
 62
     2
100
AcDbText
 10
607.255971
 20
372.75
 30
0.0
 40
10.0
  1
－
 41
0.945
  7
EXCADSTD
 72
     5
 11
616.255971
 21
372.75
 31
0.0
100
AcDbText
  0
TEXT
  5
1DE
100
AcDbEntity
  8
寸法
  6
CONTINUOUS
 62
     2
100
AcDbText
 10
616.505971
 20
372.75
 30
0.0
 40
20.0
  1
７
 41
0.945
  7
EXCADSTD
 72
     5
 11
634.505971
 21
372.75
 31
0.0
100
AcDbText
  0
LINE
  5
1DF
100
AcDbEntity
  8
寸法
  6
CONTINUOUS
 62
     3
100
AcDbLine
 10
691.130971
 20
371.0
 30
0.0
 11
471.130971
 21
371.0
 31
0.0
  0
LINE
  5
1E0
100
AcDbEntity
  8
寸法
  6
CONTINUOUS
 62
     3
100
AcDbLine
 10
673.630971
 20
368.083333
 30
0.0
 11
691.130971
 21
371.0
 31
0.0
  0
LINE
  5
1E1
100
AcDbEntity
  8
寸法
  6
CONTINUOUS
 62
     3
100
AcDbLine
 10
691.130971
 20
371.0
 30
0.0
 11
673.630971
 21
373.916667
 31
0.0
  0
LINE
  5
1E2
100
AcDbEntity
  8
寸法
  6
CONTINUOUS
 62
     3
100
AcDbLine
 10
488.630971
 20
373.916667
 30
0.0
 11
471.130971
 21
371.0
 31
0.0
  0
LINE
  5
1E3
100
AcDbEntity
  8
寸法
  6
CONTINUOUS
 62
     3
100
AcDbLine
 10
471.130971
 20
371.0
 30
0.0
 11
488.630971
 21
368.083333
 31
0.0
  0
TEXT
  5
1E4
100
AcDbEntity
  8
寸法
  6
CONTINUOUS
 62
     2
100
AcDbText
 10
629.116496
 20
562.20811
 30
0.0
 40
20.0
  1
Ｒ
 50
295.221827
 41
0.945
  7
EXCADSTD
 72
     5
 11
636.786727
 21
545.924144
 31
0.0
100
AcDbText
  0
TEXT
  5
1E5
100
AcDbEntity
  8
寸法
  6
CONTINUOUS
 62
     2
100
AcDbText
 10
637.852037
 20
543.662482
 30
0.0
 40
20.0
  1
３００
 50
295.221827
 41
0.833
  7
EXCADSTD
 72
     5
 11
663.206413
 21
489.834927
 31
0.0
100
AcDbText
  0
TEXT
  5
1E6
100
AcDbEntity
  8
寸法
  6
CONTINUOUS
 62
     2
100
AcDbText
 10
480.781541
 20
496.047238
 30
0.0
 40
20.0
  1
Ｒ
 50
35.533217
 41
0.945
  7
EXCADSTD
 72
     5
 11
495.429558
 21
506.508385
 31
0.0
100
AcDbText
  0
TEXT
  5
1E7
100
AcDbEntity
  8
寸法
  6
CONTINUOUS
 62
     2
100
AcDbText
 10
497.464004
 20
507.961322
 30
0.0
 40
20.0
  1
２０００
 50
35.533217
 41
0.819
  7
EXCADSTD
 72
     5
 11
560.938745
 21
553.292959
 31
0.0
100
AcDbText
  0
LINE
  5
1E8
100
AcDbEntity
  8
寸法
  6
CONTINUOUS
 62
     3
100
AcDbLine
 10
491.130971
 20
1083.581423
 30
0.0
 11
491.130971
 21
736.5
 31
0.0
  0
LINE
  5
1E9
100
AcDbEntity
  8
寸法
  6
CONTINUOUS
 62
     3
100
AcDbLine
 10
671.130971
 20
1083.581423
 30
0.0
 11
671.130971
 21
736.5
 31
0.0
  0
TEXT
  5
1EA
100
AcDbEntity
  8
寸法
  6
CONTINUOUS
 62
     2
100
AcDbText
 10
529.255971
 20
748.25
 30
0.0
 40
20.0
  1
φ
 41
0.945
  7
EXCADSTD
 72
     5
 11
547.255971
 21
748.25
 31
0.0
100
AcDbText
  0
TEXT
  5
1EB
100
AcDbEntity
  8
寸法
  6
CONTINUOUS
 62
     2
100
AcDbText
 10
549.755971
 20
748.25
 30
0.0
 40
20.0
  1
１８０
 41
0.833
  7
EXCADSTD
 72
     5
 11
609.255971
 21
748.25
 31
0.0
100
AcDbText
  0
TEXT
  5
1EC
100
AcDbEntity
  8
寸法
  6
CONTINUOUS
 62
     2
100
AcDbText
 10
607.255971
 20
758.25
 30
0.0
 40
10.0
  1
＋
 41
0.945
  7
EXCADSTD
 72
     5
 11
616.255971
 21
758.25
 31
0.0
100
AcDbText
  0
TEXT
  5
1ED
100
AcDbEntity
  8
寸法
  6
CONTINUOUS
 62
     2
100
AcDbText
 10
607.255971
 20
748.25
 30
0.0
 40
10.0
  1
－
 41
0.945
  7
EXCADSTD
 72
     5
 11
616.255971
 21
748.25
 31
0.0
100
AcDbText
  0
TEXT
  5
1EE
100
AcDbEntity
  8
寸法
  6
CONTINUOUS
 62
     2
100
AcDbText
 10
616.505971
 20
748.25
 30
0.0
 40
20.0
  1
４
 41
0.945
  7
EXCADSTD
 72
     5
 11
634.505971
 21
748.25
 31
0.0
100
AcDbText
  0
LINE
  5
1EF
100
AcDbEntity
  8
寸法
  6
CONTINUOUS
 62
     3
100
AcDbLine
 10
491.130971
 20
746.5
 30
0.0
 11
671.130971
 21
746.5
 31
0.0
  0
LINE
  5
1F0
100
AcDbEntity
  8
寸法
  6
CONTINUOUS
 62
     3
100
AcDbLine
 10
508.630971
 20
749.416667
 30
0.0
 11
491.130971
 21
746.5
 31
0.0
  0
LINE
  5
1F1
100
AcDbEntity
  8
寸法
  6
CONTINUOUS
 62
     3
100
AcDbLine
 10
491.130971
 20
746.5
 30
0.0
 11
508.630971
 21
743.583333
 31
0.0
  0
LINE
  5
1F2
100
AcDbEntity
  8
寸法
  6
CONTINUOUS
 62
     3
100
AcDbLine
 10
653.630971
 20
743.583333
 30
0.0
 11
671.130971
 21
746.5
 31
0.0
  0
LINE
  5
1F3
100
AcDbEntity
  8
寸法
  6
CONTINUOUS
 62
     3
100
AcDbLine
 10
671.130971
 20
746.5
 30
0.0
 11
653.630971
 21
749.416667
 31
0.0
  0
LINE
  5
1F4
100
AcDbEntity
  8
寸法
  6
CONTINUOUS
 62
     3
100
AcDbLine
 10
371.130971
 20
1083.581423
 30
0.0
 11
371.130971
 21
696.5
 31
0.0
  0
LINE
  5
1F5
100
AcDbEntity
  8
寸法
  6
CONTINUOUS
 62
     3
100
AcDbLine
 10
791.130971
 20
1083.581423
 30
0.0
 11
791.130971
 21
696.5
 31
0.0
  0
TEXT
  5
1F6
100
AcDbEntity
  8
寸法
  6
CONTINUOUS
 62
     2
100
AcDbText
 10
529.255971
 20
708.25
 30
0.0
 40
20.0
  1
φ
 41
0.945
  7
EXCADSTD
 72
     5
 11
547.255971
 21
708.25
 31
0.0
100
AcDbText
  0
TEXT
  5
1F7
100
AcDbEntity
  8
寸法
  6
CONTINUOUS
 62
     2
100
AcDbText
 10
549.755971
 20
708.25
 30
0.0
 40
20.0
  1
４２０
 41
0.833
  7
EXCADSTD
 72
     5
 11
609.255971
 21
708.25
 31
0.0
100
AcDbText
  0
TEXT
  5
1F8
100
AcDbEntity
  8
寸法
  6
CONTINUOUS
 62
     2
100
AcDbText
 10
607.255971
 20
718.25
 30
0.0
 40
10.0
  1
＋
 41
0.945
  7
EXCADSTD
 72
     5
 11
616.255971
 21
718.25
 31
0.0
100
AcDbText
  0
TEXT
  5
1F9
100
AcDbEntity
  8
寸法
  6
CONTINUOUS
 62
     2
100
AcDbText
 10
607.255971
 20
708.25
 30
0.0
 40
10.0
  1
－
 41
0.945
  7
EXCADSTD
 72
     5
 11
616.255971
 21
708.25
 31
0.0
100
AcDbText
  0
TEXT
  5
1FA
100
AcDbEntity
  8
寸法
  6
CONTINUOUS
 62
     2
100
AcDbText
 10
616.505971
 20
708.25
 30
0.0
 40
20.0
  1
７
 41
0.945
  7
EXCADSTD
 72
     5
 11
634.505971
 21
708.25
 31
0.0
100
AcDbText
  0
LINE
  5
1FB
100
AcDbEntity
  8
寸法
  6
CONTINUOUS
 62
     3
100
AcDbLine
 10
371.130971
 20
706.5
 30
0.0
 11
791.130971
 21
706.5
 31
0.0
  0
LINE
  5
1FC
100
AcDbEntity
  8
寸法
  6
CONTINUOUS
 62
     3
100
AcDbLine
 10
388.630971
 20
709.416667
 30
0.0
 11
371.130971
 21
706.5
 31
0.0
  0
LINE
  5
1FD
100
AcDbEntity
  8
寸法
  6
CONTINUOUS
 62
     3
100
AcDbLine
 10
371.130971
 20
706.5
 30
0.0
 11
388.630971
 21
703.583333
 31
0.0
  0
LINE
  5
1FE
100
AcDbEntity
  8
寸法
  6
CONTINUOUS
 62
     3
100
AcDbLine
 10
773.630971
 20
703.583333
 30
0.0
 11
791.130971
 21
706.5
 31
0.0
  0
LINE
  5
1FF
100
AcDbEntity
  8
寸法
  6
CONTINUOUS
 62
     3
100
AcDbLine
 10
791.130971
 20
706.5
 30
0.0
 11
773.630971
 21
709.416667
 31
0.0
  0
DIMENSION
  5
207
100
AcDbEntity
  8
寸法
  6
CONTINUOUS
 62
     3
100
AcDbDimension
  2
*D21
 10
379.130971
 20
562.5
 30
0.0
 11
358.248902
 21
592.132969
 31
0.0
 70
   164
  1
R8
  3
STANDARD
100
AcDbRadialDimension
 15
372.271902
 25
566.617423
 35
0.0
 40
0.0
1001
ACAD
1000
DSTYLE
1002
{
1070
     6
1000
_EX_NORM
1070
     7
1000
_EX_NORM
1070
    41
1040
17.5
1070
    73
1070
     0
1070
    74
1070
     0
1070
    77
1070
     1
1070
    78
1070
     8
1070
   140
1040
20.0
1070
   147
1040
1.75
1070
   173
1070
     1
1070
   176
1070
     3
1070
   177
1070
     3
1070
   178
1070
     2
1070
   271
1070
     3
1070
   279
1070
     2
1070
   280
1070
     0
1070
   287
1070
     5
1070
   340
1005
18F
1002
}
  0
DIMENSION
  5
212
100
AcDbEntity
  8
寸法
  6
CONTINUOUS
 62
     3
100
AcDbDimension
  2
*D22
 10
1334.869029
 20
525.5
 30
0.0
 11
1323.119029
 21
548.0
 31
0.0
 70
   160
  1
45
  3
STANDARD
100
AcDbAlignedDimension
 13
1426.869029
 23
570.5
 33
0.0
 14
1380.826939
 24
525.5
 34
0.0
 50
90.0
100
AcDbRotatedDimension
1001
ACAD
1000
DSTYLE
1002
{
1070
     6
1000
_EX_NORM
1070
     7
1000
_EX_NORM
1070
    41
1040
17.5
1070
    42
1040
2.5
1070
    44
1040
10.0
1070
    73
1070
     0
1070
    74
1070
     0
1070
    75
1070
     1
1070
    76
1070
     0
1070
    77
1070
     1
1070
    78
1070
     8
1070
   140
1040
20.0
1070
   147
1040
1.75
1070
   173
1070
     1
1070
   176
1070
     3
1070
   177
1070
     3
1070
   178
1070
     2
1070
   271
1070
     3
1070
   279
1070
     2
1070
   280
1070
     0
1070
   287
1070
     5
1070
   340
1005
18F
1002
}
  0
LINE
  5
213
100
AcDbEntity
  8
寸法
  6
CONTINUOUS
 62
     3
100
AcDbLine
 10
1204.369029
 20
451.0
 30
0.0
 11
1204.369029
 21
501.0
 31
0.0
  0
LINE
  5
214
100
AcDbEntity
  8
寸法
  6
CONTINUOUS
 62
     3
100
AcDbLine
 10
1245.369029
 20
450.4
 30
0.0
 11
1245.369029
 21
501.0
 31
0.0
  0
TEXT
  5
215
100
AcDbEntity
  8
寸法
  6
CONTINUOUS
 62
     2
100
AcDbText
 10
1182.244029
 20
492.75
 30
0.0
 40
20.0
  1
φ
 41
0.945
  7
EXCADSTD
 72
     5
 11
1200.244029
 21
492.75
 31
0.0
100
AcDbText
  0
TEXT
  5
216
100
AcDbEntity
  8
寸法
  6
CONTINUOUS
 62
     2
100
AcDbText
 10
1202.744029
 20
492.75
 30
0.0
 40
20.0
  1
４１
 41
0.861
  7
EXCADSTD
 72
     5
 11
1240.324629
 21
492.75
 31
0.0
100
AcDbText
  0
TEXT
  5
217
100
AcDbEntity
  8
寸法
  6
CONTINUOUS
 62
     2
100
AcDbText
 10
1241.744029
 20
502.75
 30
0.0
 40
10.0
  1
＋
 41
0.945
  7
EXCADSTD
 72
     5
 11
1250.744029
 21
502.75
 31
0.0
100
AcDbText
  0
TEXT
  5
218
100
AcDbEntity
  8
寸法
  6
CONTINUOUS
 62
     2
100
AcDbText
 10
1241.744029
 20
492.75
 30
0.0
 40
10.0
  1
－
 41
0.945
  7
EXCADSTD
 72
     5
 11
1250.744029
 21
492.75
 31
0.0
100
AcDbText
  0
TEXT
  5
219
100
AcDbEntity
  8
寸法
  6
CONTINUOUS
 62
     2
100
AcDbText
 10
1250.994029
 20
492.75
 30
0.0
 40
20.0
  1
２
 41
0.945
  7
EXCADSTD
 72
     5
 11
1268.994029
 21
492.75
 31
0.0
100
AcDbText
  0
LINE
  5
21A
100
AcDbEntity
  8
寸法
  6
CONTINUOUS
 62
     3
100
AcDbLine
 10
1181.869029
 20
491.0
 30
0.0
 11
1267.869029
 21
491.0
 31
0.0
  0
LINE
  5
21B
100
AcDbEntity
  8
寸法
  6
CONTINUOUS
 62
     3
100
AcDbLine
 10
1186.869029
 20
488.083333
 30
0.0
 11
1204.369029
 21
491.0
 31
0.0
  0
LINE
  5
21C
100
AcDbEntity
  8
寸法
  6
CONTINUOUS
 62
     3
100
AcDbLine
 10
1204.369029
 20
491.0
 30
0.0
 11
1186.869029
 21
493.916667
 31
0.0
  0
LINE
  5
21D
100
AcDbEntity
  8
寸法
  6
CONTINUOUS
 62
     3
100
AcDbLine
 10
1262.869029
 20
493.916667
 30
0.0
 11
1245.369029
 21
491.0
 31
0.0
  0
LINE
  5
21E
100
AcDbEntity
  8
寸法
  6
CONTINUOUS
 62
     3
100
AcDbLine
 10
1245.369029
 20
491.0
 30
0.0
 11
1262.869029
 21
488.083333
 31
0.0
  0
DIMENSION
  5
228
100
AcDbEntity
  8
寸法
  6
CONTINUOUS
 62
     3
100
AcDbDimension
  2
*D23
 10
351.707207
 20
953.623552
 30
0.0
 11
343.23299
 21
999.493639
 31
0.0
 70
   165
  1
120%%d
  3
STANDARD
100
AcDb3PointAngularDimension
 13
351.707207
 23
1218.539295
 33
0.0
 14
581.130971
 24
821.16568
 34
0.0
 15
581.130971
 25
1086.081423
 35
0.0
1001
ACAD
1000
DSTYLE
1002
{
1070
     6
1000
_EX_NORM
1070
     7
1000
_EX_NORM
1070
    41
1040
17.5
1070
    42
1040
0.0
1070
    44
1040
0.0
1070
    73
1070
     0
1070
    74
1070
     0
1070
    75
1070
     1
1070
    76
1070
     1
1070
    77
1070
     1
1070
    78
1070
     8
1070
   140
1040
20.0
1070
   147
1040
1.75
1070
   173
1070
     1
1070
   176
1070
     3
1070
   177
1070
     3
1070
   178
1070
     2
1070
   271
1070
     3
1070
   279
1070
     2
1070
   280
1070
     0
1070
   287
1070
     5
1070
   340
1005
18F
1002
}
  0
ARC
  5
229
100
AcDbEntity
  8
寸法
  6
CONTINUOUS
 62
     3
100
AcDbCircle
 10
581.131062
 20
1086.081371
 30
0.0
 40
264.915691
100
AcDbArc
 50
269.99998
 51
30.00002
  0
LINE
  5
22A
100
AcDbEntity
  8
寸法
  6
CONTINUOUS
 62
     3
100
AcDbLine
 10
598.630971
 20
824.082346
 30
0.0
 11
581.130971
 21
821.16568
 31
0.0
  0
LINE
  5
22B
100
AcDbEntity
  8
寸法
  6
CONTINUOUS
 62
     3
100
AcDbLine
 10
581.130971
 20
821.16568
 30
0.0
 11
598.630971
 21
818.249013
 31
0.0
  0
LINE
  5
22C
100
AcDbEntity
  8
寸法
  6
CONTINUOUS
 62
     3
100
AcDbLine
 10
821.830642
 20
1204.842184
 30
0.0
 11
810.554735
 21
1218.539295
 31
0.0
  0
LINE
  5
22D
100
AcDbEntity
  8
寸法
  6
CONTINUOUS
 62
     3
100
AcDbLine
 10
810.554735
 20
1218.539295
 30
0.0
 11
816.778828
 21
1201.925517
 31
0.0
  0
TEXT
  5
22E
100
AcDbEntity
  8
寸法
  6
CONTINUOUS
 62
     2
100
AcDbText
 10
817.010956
 20
964.711197
 30
0.0
 40
20.0
  1
１２０
 50
70.0
 41
0.833
  7
EXCADSTD
 72
     5
 11
837.361155
 21
1020.622908
 31
0.0
100
AcDbText
  0
TEXT
  5
22F
100
AcDbEntity
  8
寸法
  6
CONTINUOUS
 62
     2
100
AcDbText
 10
836.677114
 20
1018.743522
 30
0.0
 40
20.0
  1
ﾟ
 50
70.0
 41
0.5625
  7
EXCADSTD
 72
     5
 11
839.178137
 21
1025.615025
 31
0.0
100
AcDbText
  0
DIMENSION
  5
23A
100
AcDbEntity
  8
寸法
  6
CONTINUOUS
 62
     3
100
AcDbDimension
  2
*D24
 10
802.0
 20
415.5
 30
0.0
 11
790.25
 21
438.0
 31
0.0
 70
   160
  1
45
  3
STANDARD
100
AcDbAlignedDimension
 13
611.630971
 23
460.5
 33
0.0
 14
688.645332
 24
415.5
 34
0.0
 50
90.0
100
AcDbRotatedDimension
1001
ACAD
1000
DSTYLE
1002
{
1070
     6
1000
_EX_NORM
1070
     7
1000
_EX_NORM
1070
    41
1040
17.5
1070
    42
1040
2.5
1070
    44
1040
10.0
1070
    73
1070
     0
1070
    74
1070
     0
1070
    75
1070
     0
1070
    76
1070
     1
1070
    77
1070
     1
1070
    78
1070
     8
1070
   140
1040
20.0
1070
   147
1040
1.75
1070
   173
1070
     1
1070
   176
1070
     3
1070
   177
1070
     3
1070
   178
1070
     2
1070
   271
1070
     3
1070
   279
1070
     2
1070
   280
1070
     0
1070
   287
1070
     5
1070
   340
1005
18F
1002
}
  0
LINE
  5
23B
100
AcDbEntity
  8
寸法
  6
CONTINUOUS
 62
     3
100
AcDbLine
 10
668.070761
 20
480.480749
 30
0.0
 11
613.515991
 21
596.300988
 31
0.0
  0
LINE
  5
23C
100
AcDbEntity
  8
寸法
  6
CONTINUOUS
 62
     3
100
AcDbLine
 10
668.070761
 20
480.480749
 30
0.0
 11
656.77016
 21
493.842875
 31
0.0
  0
LINE
  5
23D
100
AcDbEntity
  8
寸法
  6
CONTINUOUS
 62
     3
100
AcDbLine
 10
668.070761
 20
480.480749
 30
0.0
 11
664.965217
 21
497.70299
 31
0.0
  0
LINE
  5
23E
100
AcDbEntity
  8
寸法
  6
CONTINUOUS
 62
     3
100
AcDbLine
 10
437.284696
 20
461.489976
 30
0.0
 11
448.408234
 21
474.999857
 31
0.0
  0
LINE
  5
23F
100
AcDbEntity
  8
寸法
  6
CONTINUOUS
 62
     3
100
AcDbLine
 10
437.284696
 20
461.489976
 30
0.0
 11
453.672904
 21
467.628107
 31
0.0
  0
LINE
  5
240
100
AcDbEntity
  8
寸法
  6
CONTINUOUS
 62
     3
100
AcDbLine
 10
437.284696
 20
461.489976
 30
0.0
 11
602.981979
 21
579.825695
 31
0.0
  0
LINE
  5
241
100
AcDbEntity
  8
寸法
  6
CONTINUOUS
 62
     3
100
AcDbLine
 10
488.127195
 20
1139.777178
 30
0.0
 11
342.928273
 21
1223.607815
 31
0.0
  0
LINE
  5
242
100
AcDbEntity
  8
寸法
  6
CONTINUOUS
 62
     3
100
AcDbLine
 10
674.134747
 20
1139.777178
 30
0.0
 11
819.33367
 21
1223.607815
 31
0.0
  0
DIMENSION
  5
24E
100
AcDbEntity
  8
取付ビスセット
  6
CONTINUOUS
 62
     3
100
AcDbDimension
  2
*D25
 10
1897.0
 20
1133.969805
 30
0.0
 11
1885.5
 21
1198.969805
 31
0.0
 70
   160
  3
STANDARD
100
AcDbAlignedDimension
 13
1746.587689
 23
1263.969805
 33
0.0
 14
1746.587689
 24
1133.969805
 34
0.0
 50
90.0
100
AcDbRotatedDimension
1001
ACAD
1000
DSTYLE
1002
{
1070
     6
1000
_EX_NORM
1070
     7
1000
_EX_NORM
1070
    41
1040
15.0
1070
    42
1040
30.412312
1070
    44
1040
5.0
1070
    73
1070
     0
1070
    74
1070
     0
1070
    75
1070
     0
1070
    76
1070
     0
1070
    77
1070
     1
1070
    78
1070
     8
1070
   140
1040
20.0
1070
   147
1040
1.5
1070
   173
1070
     1
1070
   176
1070
     3
1070
   177
1070
     3
1070
   178
1070
     2
1070
   271
1070
     2
1070
   279
1070
     2
1070
   280
1070
     0
1070
   287
1070
     5
1070
   340
1005
18F
1002
}
  0
DIMENSION
  5
25A
100
AcDbEntity
  8
取付ビスセット
  6
CONTINUOUS
 62
     3
100
AcDbDimension
  2
*D26
 10
1848.0
 20
1178.969805
 30
0.0
 11
1836.5
 21
1198.969805
 31
0.0
 70
   160
  3
STANDARD
100
AcDbAlignedDimension
 13
1794.087689
 23
1218.969805
 33
0.0
 14
1794.087689
 24
1178.969805
 34
0.0
 50
90.0
100
AcDbRotatedDimension
1001
ACAD
1000
DSTYLE
1002
{
1070
     6
1000
_EX_NORM
1070
     7
1000
_EX_NORM
1070
    41
1040
15.0
1070
    42
1040
2.5
1070
    44
1040
5.0
1070
    73
1070
     0
1070
    74
1070
     0
1070
    75
1070
     0
1070
    76
1070
     0
1070
    77
1070
     1
1070
    78
1070
     8
1070
   140
1040
20.0
1070
   147
1040
1.5
1070
   173
1070
     1
1070
   176
1070
     3
1070
   177
1070
     3
1070
   178
1070
     2
1070
   271
1070
     2
1070
   279
1070
     2
1070
   280
1070
     0
1070
   287
1070
     5
1070
   340
1005
18F
1002
}
  0
DIMENSION
  5
266
100
AcDbEntity
  8
取付ビスセット
  6
CONTINUOUS
 62
     3
100
AcDbDimension
  2
*D27
 10
1804.087689
 20
1147.0
 30
0.0
 11
1746.587689
 21
1158.5
 31
0.0
 70
   160
  3
STANDARD
100
AcDbAlignedDimension
 13
1689.087689
 23
1188.969805
 33
0.0
 14
1804.087689
 24
1188.969805
 34
0.0
100
AcDbRotatedDimension
1001
ACAD
1000
DSTYLE
1002
{
1070
     6
1000
_EX_NORM
1070
     7
1000
_EX_NORM
1070
    41
1040
15.0
1070
    42
1040
2.5
1070
    44
1040
5.0
1070
    73
1070
     0
1070
    74
1070
     0
1070
    75
1070
     0
1070
    76
1070
     0
1070
    77
1070
     1
1070
    78
1070
     8
1070
   140
1040
20.0
1070
   147
1040
1.5
1070
   173
1070
     1
1070
   176
1070
     3
1070
   177
1070
     3
1070
   178
1070
     2
1070
   271
1070
     2
1070
   279
1070
     2
1070
   280
1070
     0
1070
   287
1070
     5
1070
   340
1005
18F
1002
}
  0
DIMENSION
  5
272
100
AcDbEntity
  8
取付ビスセット
  6
CONTINUOUS
 62
     3
100
AcDbDimension
  2
*D28
 10
1845.583637
 20
1099.0
 30
0.0
 11
1746.587689
 21
1110.5
 31
0.0
 70
   160
  1
37
  3
STANDARD
100
AcDbAlignedDimension
 13
1647.591742
 23
1143.574116
 33
0.0
 14
1845.583637
 24
1143.574116
 34
0.0
100
AcDbRotatedDimension
1001
ACAD
1000
DSTYLE
1002
{
1070
     6
1000
_EX_NORM
1070
     7
1000
_EX_NORM
1070
    41
1040
15.0
1070
    42
1040
2.5
1070
    44
1040
5.0
1070
    73
1070
     0
1070
    74
1070
     0
1070
    75
1070
     0
1070
    76
1070
     0
1070
    77
1070
     1
1070
    78
1070
     8
1070
   140
1040
20.0
1070
   147
1040
1.5
1070
   173
1070
     1
1070
   176
1070
     3
1070
   177
1070
     3
1070
   178
1070
     2
1070
   271
1070
     2
1070
   279
1070
     2
1070
   280
1070
     0
1070
   287
1070
     5
1070
   340
1005
18F
1002
}
  0
DIMENSION
  5
27E
100
AcDbEntity
  8
取付ビスセット
  6
CONTINUOUS
 62
     3
100
AcDbDimension
  2
*D29
 10
1905.0
 20
526.77754
 30
0.0
 11
1893.5
 21
581.77754
 31
0.0
 70
   160
  3
STANDARD
100
AcDbAlignedDimension
 13
1780.407349
 23
546.77754
 33
0.0
 14
1875.460332
 24
526.77754
 34
0.0
 50
90.0
100
AcDbRotatedDimension
1001
ACAD
1000
DSTYLE
1002
{
1070
     6
1000
_EX_NORM
1070
     7
1000
_EX_NORM
1070
    41
1040
15.0
1070
    42
1040
25.192652
1070
    44
1040
5.0
1070
    73
1070
     0
1070
    74
1070
     0
1070
    75
1070
     0
1070
    76
1070
     0
1070
    77
1070
     1
1070
    78
1070
     8
1070
   140
1040
20.0
1070
   147
1040
1.5
1070
   173
1070
     1
1070
   176
1070
     3
1070
   177
1070
     3
1070
   178
1070
     2
1070
   271
1070
     2
1070
   279
1070
     2
1070
   280
1070
     1
1070
   287
1070
     5
1070
   340
1005
18F
1002
}
  0
DIMENSION
  5
28B
100
AcDbEntity
  8
取付ビスセット
  6
CONTINUOUS
 62
     3
100
AcDbDimension
  2
*D30
 10
1801.587689
 20
441.5
 30
0.0
 11
1736.587689
 21
453.25
 31
0.0
 70
   160
  3
STANDARD
100
AcDbAlignedDimension
 13
1671.587689
 23
546.77754
 33
0.0
 14
1801.587689
 24
546.77754
 34
0.0
100
AcDbRotatedDimension
1001
ACAD
1000
DSTYLE
1002
{
1070
     6
1000
_EX_NORM
1070
     7
1000
_EX_NORM
1070
    41
1040
15.0
1070
    42
1040
2.5
1070
    44
1040
5.0
1070
    73
1070
     0
1070
    74
1070
     0
1070
    75
1070
     0
1070
    76
1070
     0
1070
    77
1070
     1
1070
    78
1070
     8
1070
   140
1040
20.0
1070
   147
1040
1.75
1070
   173
1070
     1
1070
   176
1070
     3
1070
   177
1070
     3
1070
   178
1070
     2
1070
   271
1070
     2
1070
   279
1070
     2
1070
   280
1070
     0
1070
   287
1070
     5
1070
   340
1005
28A
1002
}
  0
DIMENSION
  5
297
100
AcDbEntity
  8
取付ビスセット
  6
CONTINUOUS
 62
     3
100
AcDbDimension
  2
*D31
 10
1756.587689
 20
484.5
 30
0.0
 11
1736.587689
 21
496.25
 31
0.0
 70
   160
  3
STANDARD
100
AcDbAlignedDimension
 13
1716.587689
 23
546.77754
 33
0.0
 14
1756.587689
 24
546.77754
 34
0.0
100
AcDbRotatedDimension
1001
ACAD
1000
DSTYLE
1002
{
1070
     6
1000
_EX_NORM
1070
     7
1000
_EX_NORM
1070
    41
1040
15.0
1070
    42
1040
2.5
1070
    44
1040
5.0
1070
    73
1070
     0
1070
    74
1070
     0
1070
    75
1070
     0
1070
    76
1070
     0
1070
    77
1070
     1
1070
    78
1070
     8
1070
   140
1040
20.0
1070
   147
1040
1.75
1070
   173
1070
     1
1070
   176
1070
     3
1070
   177
1070
     3
1070
   178
1070
     2
1070
   271
1070
     2
1070
   279
1070
     2
1070
   280
1070
     0
1070
   287
1070
     5
1070
   340
1005
28A
1002
}
  0
TEXT
  5
298
100
AcDbEntity
  8
図枠
  6
CONTINUOUS
 62
     7
100
AcDbText
 10
1803.75
 20
65.0
 30
0.0
 40
30.0
  1
１１５２８６０
 41
0.91
  7
EXCADSTD
 72
     5
 11
2031.25
 21
65.0
 31
0.0
100
AcDbText
  0
LINE
  5
299
100
AcDbEntity
  8
図枠
  6
CONTINUOUS
 62
     6
100
AcDbLine
 10
1824.075
 20
264.2
 30
0.0
 11
2006.0
 21
264.2
 31
0.0
  0
LINE
  5
29A
100
AcDbEntity
  8
図枠
  6
CONTINUOUS
 62
     6
100
AcDbLine
 10
1824.075
 20
258.7
 30
0.0
 11
2006.0
 21
258.7
 31
0.0
  0
LINE
  5
29B
100
AcDbEntity
  8
図枠
  6
CONTINUOUS
 62
     2
100
AcDbLine
 10
1391.999985
 20
91.100098
 30
0.0
 11
1406.800552
 21
91.100098
 31
0.0
  0
LINE
  5
29C
100
AcDbEntity
  8
図枠
  6
CONTINUOUS
 62
     2
100
AcDbLine
 10
1391.999985
 20
89.600159
 30
0.0
 11
1406.800552
 21
89.600159
 31
0.0
  0
LINE
  5
29D
100
AcDbEntity
  8
図枠
  6
CONTINUOUS
 62
     2
100
AcDbLine
 10
1391.999985
 20
88.10022
 30
0.0
 11
1406.800552
 21
88.10022
 31
0.0
  0
LINE
  5
29E
100
AcDbEntity
  8
図枠
  6
CONTINUOUS
 62
     2
100
AcDbLine
 10
1391.999985
 20
83.900009
 30
0.0
 11
1406.800552
 21
83.900009
 31
0.0
  0
LINE
  5
29F
100
AcDbEntity
  8
図枠
  6
CONTINUOUS
 62
     2
100
AcDbLine
 10
1391.999985
 20
82.40007
 30
0.0
 11
1406.800552
 21
82.40007
 31
0.0
  0
LINE
  5
2A0
100
AcDbEntity
  8
図枠
  6
CONTINUOUS
 62
     2
100
AcDbLine
 10
1391.999985
 20
81.000076
 30
0.0
 11
1406.800552
 21
81.000076
 31
0.0
  0
LINE
  5
2A1
100
AcDbEntity
  8
図枠
  6
CONTINUOUS
 62
     2
100
AcDbLine
 10
1427.400375
 20
84.500061
 30
0.0
 11
1432.190643
 21
84.500061
 31
0.0
  0
LINE
  5
2A2
100
AcDbEntity
  8
図枠
  6
CONTINUOUS
 62
     2
100
AcDbLine
 10
1438.745667
 20
84.500061
 30
0.0
 11
1451.738144
 21
84.500061
 31
0.0
  0
LINE
  5
2A3
100
AcDbEntity
  8
図枠
  6
CONTINUOUS
 62
     2
100
AcDbLine
 10
1414.199692
 20
89.925018
 30
0.0
 11
1416.999527
 21
89.925018
 31
0.0
  0
LINE
  5
2A4
100
AcDbEntity
  8
図枠
  6
CONTINUOUS
 62
     2
100
AcDbLine
 10
1420.800034
 20
89.925018
 30
0.0
 11
1423.599869
 21
89.925018
 31
0.0
  0
LINE
  5
2A5
100
AcDbEntity
  8
図枠
  6
CONTINUOUS
 62
     2
100
AcDbLine
 10
1414.199692
 20
91.200119
 30
0.0
 11
1416.999527
 21
91.200119
 31
0.0
  0
LINE
  5
2A6
100
AcDbEntity
  8
図枠
  6
CONTINUOUS
 62
     2
100
AcDbLine
 10
1420.800034
 20
91.200119
 30
0.0
 11
1423.599869
 21
91.200119
 31
0.0
  0
LINE
  5
2A7
100
AcDbEntity
  8
図枠
  6
CONTINUOUS
 62
     2
100
AcDbLine
 10
1420.800034
 20
88.599945
 30
0.0
 11
1423.599869
 21
88.599945
 31
0.0
  0
LINE
  5
2A8
100
AcDbEntity
  8
図枠
  6
CONTINUOUS
 62
     2
100
AcDbLine
 10
1414.199692
 20
88.599945
 30
0.0
 11
1416.999527
 21
88.599945
 31
0.0
  0
LINE
  5
2A9
100
AcDbEntity
  8
図枠
  6
CONTINUOUS
 62
     2
100
AcDbLine
 10
1416.95787
 20
72.873703
 30
0.0
 11
1422.774139
 21
84.800049
 31
0.0
  0
LINE
  5
2AA
100
AcDbEntity
  8
図枠
  6
CONTINUOUS
 62
     2
100
AcDbLine
 10
1391.999985
 20
70.900055
 30
0.0
 11
1407.5271
 21
70.900055
 31
0.0
  0
ARC
  5
2AB
100
AcDbEntity
  8
図枠
  6
CONTINUOUS
 62
     2
100
AcDbCircle
 10
1407.327057
 20
77.200104
 30
0.0
 40
6.299996
100
AcDbArc
 50
271.81958
 51
336.289307
  0
LINE
  5
2AC
100
AcDbEntity
  8
図枠
  6
CONTINUOUS
 62
     2
100
AcDbLine
 10
1413.095261
 20
74.666763
 30
0.0
 11
1418.037659
 21
84.800049
 31
0.0
  0
LINE
  5
2AD
100
AcDbEntity
  8
図枠
  6
CONTINUOUS
 62
     2
100
AcDbLine
 10
1391.999985
 20
67.09993
 30
0.0
 11
1407.5271
 21
67.09993
 31
0.0
  0
LINE
  5
2AE
100
AcDbEntity
  8
図枠
  6
CONTINUOUS
 62
     2
100
AcDbLine
 10
1391.999985
 20
68.274857
 30
0.0
 11
1407.5271
 21
68.274857
 31
0.0
  0
LINE
  5
2AF
100
AcDbEntity
  8
図枠
  6
CONTINUOUS
 62
     2
100
AcDbLine
 10
1391.999985
 20
69.549805
 30
0.0
 11
1407.5271
 21
69.549805
 31
0.0
  0
ARC
  5
2B0
100
AcDbEntity
  8
図枠
  6
CONTINUOUS
 62
     2
100
AcDbCircle
 10
1408.427292
 20
76.399933
 30
0.0
 40
9.299989
100
AcDbArc
 50
270.0
 51
335.027344
  0
LINE
  5
2B1
100
AcDbEntity
  8
図枠
  6
CONTINUOUS
 62
     2
100
AcDbLine
 10
1413.807846
 20
72.873703
 30
0.0
 11
1419.624115
 21
84.800049
 31
0.0
  0
LINE
  5
2B2
100
AcDbEntity
  8
図枠
  6
CONTINUOUS
 62
     2
100
AcDbLine
 10
1415.48288
 20
72.873703
 30
0.0
 11
1421.299149
 21
84.800049
 31
0.0
  0
LINE
  5
2B3
100
AcDbEntity
  8
図枠
  6
CONTINUOUS
 62
     2
100
AcDbLine
 10
1439.015137
 20
82.899948
 30
0.0
 11
1449.43956
 21
82.899948
 31
0.0
  0
LINE
  5
2B4
100
AcDbEntity
  8
図枠
  6
CONTINUOUS
 62
     2
100
AcDbLine
 10
1427.400375
 20
82.899948
 30
0.0
 11
1432.459885
 21
82.899948
 31
0.0
  0
ARC
  5
2B5
100
AcDbEntity
  8
図枠
  6
CONTINUOUS
 62
     2
100
AcDbCircle
 10
1408.32727
 20
76.399933
 30
0.0
 40
7.924991
100
AcDbArc
 50
270.0
 51
333.579834
  0
ARC
  5
2B6
100
AcDbEntity
  8
図枠
  6
CONTINUOUS
 62
     2
100
AcDbCircle
 10
1408.227249
 20
76.399933
 30
0.0
 40
6.549993
100
AcDbArc
 50
270.0
 51
327.428223
  0
LINE
  5
2B7
100
AcDbEntity
  8
図枠
  6
CONTINUOUS
 62
     2
100
AcDbLine
 10
1437.581421
 20
66.999985
 30
0.0
 11
1434.096771
 21
89.000031
 31
0.0
  0
LINE
  5
2B8
100
AcDbEntity
  8
図枠
  6
CONTINUOUS
 62
     2
100
AcDbLine
 10
1436.062866
 20
66.999985
 30
0.0
 11
1432.577759
 21
89.000031
 31
0.0
  0
LINE
  5
2B9
100
AcDbEntity
  8
図枠
  6
CONTINUOUS
 62
     2
100
AcDbLine
 10
1440.419632
 20
66.999985
 30
0.0
 11
1436.932388
 21
89.000031
 31
0.0
  0
LINE
  5
2BA
100
AcDbEntity
  8
図枠
  6
CONTINUOUS
 62
     2
100
AcDbLine
 10
1438.999954
 20
66.999985
 30
0.0
 11
1435.514999
 21
89.000031
 31
0.0
  0
ARC
  5
2BB
100
AcDbEntity
  8
図枠
  6
CONTINUOUS
 62
     2
100
AcDbCircle
 10
1443.876892
 20
81.495453
 30
0.0
 40
7.500067
100
AcDbArc
 50
265.063721
 51
335.998779
  0
ARC
  5
2BC
100
AcDbEntity
  8
図枠
  6
CONTINUOUS
 62
     2
100
AcDbCircle
 10
1443.976913
 20
80.995346
 30
0.0
 40
4.500073
100
AcDbArc
 50
291.123291
 51
335.998779
  0
ARC
  5
2BD
100
AcDbEntity
  8
図枠
  6
CONTINUOUS
 62
     2
100
AcDbCircle
 10
1443.876892
 20
81.195389
 30
0.0
 40
6.000071
100
AcDbArc
 50
271.032715
 51
335.998779
  0
LINE
  5
2BE
100
AcDbEntity
  8
図枠
  6
CONTINUOUS
 62
     2
100
AcDbLine
 10
1453.624207
 20
84.950043
 30
0.0
 11
1450.728699
 21
78.445221
 31
0.0
  0
LINE
  5
2BF
100
AcDbEntity
  8
図枠
  6
CONTINUOUS
 62
     2
100
AcDbLine
 10
1451.242462
 20
83.286453
 30
0.0
 11
1449.35907
 21
79.055267
 31
0.0
  0
LINE
  5
2C0
100
AcDbEntity
  8
図枠
  6
CONTINUOUS
 62
     2
100
AcDbLine
 10
1449.033066
 20
81.786362
 30
0.0
 11
1448.089462
 21
79.665543
 31
0.0
  0
LINE
  5
2C1
100
AcDbEntity
  8
図枠
  6
CONTINUOUS
 62
     2
100
AcDbLine
 10
1446.004578
 20
78.530899
 30
0.0
 11
1447.322937
 21
81.493164
 31
0.0
  0
ARC
  5
2C2
100
AcDbEntity
  8
図枠
  6
CONTINUOUS
 62
     2
100
AcDbCircle
 10
1441.929947
 20
80.300003
 30
0.0
 40
4.350003
100
AcDbArc
 50
283.010254
 51
336.006592
  0
LINE
  5
2C3
100
AcDbEntity
  8
図枠
  6
CONTINUOUS
 62
     2
100
AcDbLine
 10
1457.999741
 20
90.999771
 30
0.0
 11
1484.79982
 21
90.999771
 31
0.0
  0
LINE
  5
2C4
100
AcDbEntity
  8
図枠
  6
CONTINUOUS
 62
     2
100
AcDbLine
 10
1457.999741
 20
89.399734
 30
0.0
 11
1484.79982
 21
89.399734
 31
0.0
  0
LINE
  5
2C5
100
AcDbEntity
  8
図枠
  6
CONTINUOUS
 62
     2
100
AcDbLine
 10
1457.999741
 20
87.799698
 30
0.0
 11
1484.79982
 21
87.799698
 31
0.0
  0
LINE
  5
2C6
100
AcDbEntity
  8
図枠
  6
CONTINUOUS
 62
     2
100
AcDbLine
 10
1455.599838
 20
70.599991
 30
0.0
 11
1487.199722
 21
70.599991
 31
0.0
  0
LINE
  5
2C7
100
AcDbEntity
  8
図枠
  6
CONTINUOUS
 62
     2
100
AcDbLine
 10
1455.599838
 20
68.999954
 30
0.0
 11
1487.199722
 21
68.999954
 31
0.0
  0
LINE
  5
2C8
100
AcDbEntity
  8
図枠
  6
CONTINUOUS
 62
     2
100
AcDbLine
 10
1455.599838
 20
67.399918
 30
0.0
 11
1487.199722
 21
67.399918
 31
0.0
  0
LINE
  5
2C9
100
AcDbEntity
  8
図枠
  6
CONTINUOUS
 62
     2
100
AcDbLine
 10
1491.000229
 20
67.399918
 30
0.0
 11
1498.91626
 21
67.399918
 31
0.0
  0
LINE
  5
2CA
100
AcDbEntity
  8
図枠
  6
CONTINUOUS
 62
     2
100
AcDbLine
 10
1491.000229
 20
68.999954
 30
0.0
 11
1498.91626
 21
68.999954
 31
0.0
  0
LINE
  5
2CB
100
AcDbEntity
  8
図枠
  6
CONTINUOUS
 62
     2
100
AcDbLine
 10
1491.000229
 20
70.599991
 30
0.0
 11
1498.91626
 21
70.599991
 31
0.0
  0
LINE
  5
2CC
100
AcDbEntity
  8
図枠
  6
CONTINUOUS
 62
     2
100
AcDbLine
 10
1493.400131
 20
90.999771
 30
0.0
 11
1521.037689
 21
90.999771
 31
0.0
  0
LINE
  5
2CD
100
AcDbEntity
  8
図枠
  6
CONTINUOUS
 62
     2
100
AcDbLine
 10
1493.400131
 20
89.399734
 30
0.0
 11
1519.875198
 21
89.399734
 31
0.0
  0
LINE
  5
2CE
100
AcDbEntity
  8
図枠
  6
CONTINUOUS
 62
     2
100
AcDbLine
 10
1493.400131
 20
87.799698
 30
0.0
 11
1518.712784
 21
87.799698
 31
0.0
  0
LINE
  5
2CF
100
AcDbEntity
  8
図枠
  6
CONTINUOUS
 62
     2
100
AcDbLine
 10
1504.540878
 20
72.930313
 30
0.0
 11
1514.327713
 21
86.400009
 31
0.0
  0
LINE
  5
2D0
100
AcDbEntity
  8
図枠
  6
CONTINUOUS
 62
     2
100
AcDbLine
 10
1503.428513
 20
73.738495
 30
0.0
 11
1512.628189
 21
86.400009
 31
0.0
  0
LINE
  5
2D1
100
AcDbEntity
  8
図枠
  6
CONTINUOUS
 62
     2
100
AcDbLine
 10
1515.996185
 20
86.400009
 30
0.0
 11
1505.571381
 21
72.051254
 31
0.0
  0
LINE
  5
2D2
100
AcDbEntity
  8
図枠
  6
CONTINUOUS
 62
     2
100
AcDbLine
 10
1517.695786
 20
86.400009
 30
0.0
 11
1506.662308
 21
71.21347
 31
0.0
  0
ARC
  5
2D3
100
AcDbEntity
  8
図枠
  6
CONTINUOUS
 62
     2
100
AcDbCircle
 10
1498.91626
 20
76.800018
 30
0.0
 40
5.425005
100
AcDbArc
 50
270.0
 51
325.51001
  0
ARC
  5
2D4
100
AcDbEntity
  8
図枠
  6
CONTINUOUS
 62
     2
100
AcDbCircle
 10
1498.91626
 20
76.800018
 30
0.0
 40
6.800003
100
AcDbArc
 50
270.0
 51
324.896729
  0
ARC
  5
2D5
100
AcDbEntity
  8
図枠
  6
CONTINUOUS
 62
     2
100
AcDbCircle
 10
1498.91626
 20
76.800018
 30
0.0
 40
8.175001
100
AcDbArc
 50
270.0
 51
324.490234
  0
ARC
  5
2D6
100
AcDbEntity
  8
図枠
  6
CONTINUOUS
 62
     2
100
AcDbCircle
 10
1498.91626
 20
76.800018
 30
0.0
 40
9.549999
100
AcDbArc
 50
270.0
 51
324.200195
  0
LINE
  5
2D7
100
AcDbEntity
  8
図枠
  6
CONTINUOUS
 62
     2
100
AcDbLine
 10
1513.49054
 20
78.485275
 30
0.0
 11
1523.474518
 21
66.999985
 31
0.0
  0
LINE
  5
2D8
100
AcDbEntity
  8
図枠
  6
CONTINUOUS
 62
     2
100
AcDbLine
 10
1512.661148
 20
77.343689
 30
0.0
 11
1521.652618
 21
66.999985
 31
0.0
  0
LINE
  5
2D9
100
AcDbEntity
  8
図枠
  6
CONTINUOUS
 62
     2
100
AcDbLine
 10
1511.01709
 20
75.080811
 30
0.0
 11
1518.041855
 21
66.999985
 31
0.0
  0
LINE
  5
2DA
100
AcDbEntity
  8
図枠
  6
CONTINUOUS
 62
     2
100
AcDbLine
 10
1511.846481
 20
76.222397
 30
0.0
 11
1519.863754
 21
66.999985
 31
0.0
  0
LINE
  5
2DB
100
AcDbEntity
  8
図枠
  6
CONTINUOUS
 62
     2
100
AcDbLine
 10
1534.199692
 20
91.149994
 30
0.0
 11
1563.399673
 21
91.149994
 31
0.0
  0
LINE
  5
2DC
100
AcDbEntity
  8
図枠
  6
CONTINUOUS
 62
     2
100
AcDbLine
 10
1534.199692
 20
89.525009
 30
0.0
 11
1563.399673
 21
89.525009
 31
0.0
  0
LINE
  5
2DD
100
AcDbEntity
  8
図枠
  6
CONTINUOUS
 62
     2
100
AcDbLine
 10
1546.749512
 20
70.774933
 30
0.0
 11
1546.749512
 21
88.525024
 31
0.0
  0
LINE
  5
2DE
100
AcDbEntity
  8
図枠
  6
CONTINUOUS
 62
     2
100
AcDbLine
 10
1548.074509
 20
70.774933
 30
0.0
 11
1548.074509
 21
88.525024
 31
0.0
  0
LINE
  5
2DF
100
AcDbEntity
  8
図枠
  6
CONTINUOUS
 62
     2
100
AcDbLine
 10
1549.524857
 20
70.774933
 30
0.0
 11
1549.524857
 21
88.525024
 31
0.0
  0
LINE
  5
2E0
100
AcDbEntity
  8
図枠
  6
CONTINUOUS
 62
     2
100
AcDbLine
 10
1550.849854
 20
70.774933
 30
0.0
 11
1550.849854
 21
88.525024
 31
0.0
  0
LINE
  5
2E1
100
AcDbEntity
  8
図枠
  6
CONTINUOUS
 62
     2
100
AcDbLine
 10
1532.999741
 20
69.774948
 30
0.0
 11
1564.599625
 21
69.774948
 31
0.0
  0
LINE
  5
2E2
100
AcDbEntity
  8
図枠
  6
CONTINUOUS
 62
     2
100
AcDbLine
 10
1532.999741
 20
68.399979
 30
0.0
 11
1564.599625
 21
68.399979
 31
0.0
  0
LINE
  5
2E3
100
AcDbEntity
  8
図枠
  6
CONTINUOUS
 62
     2
100
AcDbLine
 10
1532.999741
 20
67.025009
 30
0.0
 11
1564.599625
 21
67.025009
 31
0.0
  0
LINE
  5
2E4
100
AcDbEntity
  8
図枠
  6
CONTINUOUS
 62
     7
100
AcDbLine
 10
1573.620163
 20
88.207794
 30
0.0
 11
1570.960556
 21
91.611954
 31
0.0
  0
LINE
  5
2E5
100
AcDbEntity
  8
図枠
  6
CONTINUOUS
 62
     7
100
AcDbLine
 10
1575.459991
 20
88.207794
 30
0.0
 11
1572.800385
 21
91.611954
 31
0.0
  0
LINE
  5
2E6
100
AcDbEntity
  8
図枠
  6
CONTINUOUS
 62
     7
100
AcDbLine
 10
1579.275604
 20
88.419739
 30
0.0
 11
1579.275604
 21
91.400009
 31
0.0
  0
LINE
  5
2E7
100
AcDbEntity
  8
図枠
  6
CONTINUOUS
 62
     7
100
AcDbLine
 10
1580.724884
 20
88.419739
 30
0.0
 11
1580.724884
 21
91.400009
 31
0.0
  0
LINE
  5
2E8
100
AcDbEntity
  8
図枠
  6
CONTINUOUS
 62
     7
100
AcDbLine
 10
1585.27536
 20
88.419739
 30
0.0
 11
1585.27536
 21
91.400009
 31
0.0
  0
LINE
  5
2E9
100
AcDbEntity
  8
図枠
  6
CONTINUOUS
 62
     7
100
AcDbLine
 10
1586.72464
 20
88.419739
 30
0.0
 11
1586.72464
 21
91.400009
 31
0.0
  0
LINE
  5
2EA
100
AcDbEntity
  8
図枠
  6
CONTINUOUS
 62
     7
100
AcDbLine
 10
1590.540176
 20
88.207794
 30
0.0
 11
1593.199783
 21
91.611954
 31
0.0
  0
LINE
  5
2EB
100
AcDbEntity
  8
図枠
  6
CONTINUOUS
 62
     7
100
AcDbLine
 10
1592.380081
 20
88.207794
 30
0.0
 11
1595.039688
 21
91.611954
 31
0.0
  0
LINE
  5
2EC
100
AcDbEntity
  8
図枠
  6
CONTINUOUS
 62
     7
100
AcDbLine
 10
1567.20018
 20
87.419754
 30
0.0
 11
1598.800064
 21
87.419754
 31
0.0
  0
LINE
  5
2ED
100
AcDbEntity
  8
図枠
  6
CONTINUOUS
 62
     2
100
AcDbLine
 10
1573.826538
 20
86.480041
 30
0.0
 11
1575.238129
 21
82.599655
 31
0.0
  0
LINE
  5
2EE
100
AcDbEntity
  8
図枠
  6
CONTINUOUS
 62
     7
100
AcDbLine
 10
1575.581146
 20
86.480118
 30
0.0
 11
1576.994492
 21
82.599503
 31
0.0
  0
LINE
  5
2EF
100
AcDbEntity
  8
図枠
  6
CONTINUOUS
 62
     7
100
AcDbLine
 10
1577.284027
 20
86.480118
 30
0.0
 11
1578.697296
 21
82.599503
 31
0.0
  0
LINE
  5
2F0
100
AcDbEntity
  8
図枠
  6
CONTINUOUS
 62
     2
100
AcDbLine
 10
1588.716141
 20
86.480118
 30
0.0
 11
1587.302872
 21
82.599503
 31
0.0
  0
LINE
  5
2F1
100
AcDbEntity
  8
図枠
  6
CONTINUOUS
 62
     2
100
AcDbLine
 10
1590.418945
 20
86.480118
 30
0.0
 11
1589.005676
 21
82.599503
 31
0.0
  0
LINE
  5
2F2
100
AcDbEntity
  8
図枠
  6
CONTINUOUS
 62
     2
100
AcDbLine
 10
1592.173706
 20
86.479965
 30
0.0
 11
1590.762192
 21
82.599655
 31
0.0
  0
LINE
  5
2F3
100
AcDbEntity
  8
図枠
  6
CONTINUOUS
 62
     7
100
AcDbLine
 10
1567.20018
 20
81.659866
 30
0.0
 11
1598.800064
 21
81.659866
 31
0.0
  0
LINE
  5
2F4
100
AcDbEntity
  8
図枠
  6
CONTINUOUS
 62
     7
100
AcDbLine
 10
1567.20018
 20
77.519852
 30
0.0
 11
1580.075241
 21
77.519852
 31
0.0
  0
LINE
  5
2F5
100
AcDbEntity
  8
図枠
  6
CONTINUOUS
 62
     7
100
AcDbLine
 10
1585.925003
 20
77.519852
 30
0.0
 11
1598.800064
 21
77.519852
 31
0.0
  0
LINE
  5
2F6
100
AcDbEntity
  8
図枠
  6
CONTINUOUS
 62
     7
100
AcDbLine
 10
1567.20018
 20
73.379837
 30
0.0
 11
1580.075241
 21
73.379837
 31
0.0
  0
LINE
  5
2F7
100
AcDbEntity
  8
図枠
  6
CONTINUOUS
 62
     7
100
AcDbLine
 10
1585.925003
 20
73.379837
 30
0.0
 11
1598.800064
 21
73.379837
 31
0.0
  0
LINE
  5
2F8
100
AcDbEntity
  8
図枠
  6
CONTINUOUS
 62
     2
100
AcDbLine
 10
1581.075226
 20
66.999985
 30
0.0
 11
1581.075226
 21
80.659882
 31
0.0
  0
LINE
  5
2F9
100
AcDbEntity
  8
図枠
  6
CONTINUOUS
 62
     2
100
AcDbLine
 10
1582.325226
 20
66.999985
 30
0.0
 11
1582.325226
 21
80.659882
 31
0.0
  0
LINE
  5
2FA
100
AcDbEntity
  8
図枠
  6
CONTINUOUS
 62
     2
100
AcDbLine
 10
1583.675018
 20
66.999985
 30
0.0
 11
1583.675018
 21
80.659882
 31
0.0
  0
LINE
  5
2FB
100
AcDbEntity
  8
図枠
  6
CONTINUOUS
 62
     2
100
AcDbLine
 10
1584.925018
 20
66.999985
 30
0.0
 11
1584.925018
 21
80.659882
 31
0.0
  0
LINE
  5
2FC
100
AcDbEntity
  8
図枠
  6
CONTINUOUS
 62
     2
100
AcDbLine
 10
1568.620239
 20
66.670395
 30
0.0
 11
1575.304123
 21
72.709442
 31
0.0
  0
LINE
  5
2FD
100
AcDbEntity
  8
図枠
  6
CONTINUOUS
 62
     2
100
AcDbLine
 10
1570.559021
 20
66.670395
 30
0.0
 11
1577.242905
 21
72.709442
 31
0.0
  0
LINE
  5
2FE
100
AcDbEntity
  8
図枠
  6
CONTINUOUS
 62
     2
100
AcDbLine
 10
1572.423569
 20
66.670395
 30
0.0
 11
1579.107452
 21
72.709442
 31
0.0
  0
LINE
  5
2FF
100
AcDbEntity
  8
図枠
  6
CONTINUOUS
 62
     2
100
AcDbLine
 10
1593.576752
 20
66.670395
 30
0.0
 11
1586.892868
 21
72.709442
 31
0.0
  0
LINE
  5
300
100
AcDbEntity
  8
図枠
  6
CONTINUOUS
 62
     2
100
AcDbLine
 10
1595.441299
 20
66.670395
 30
0.0
 11
1588.757416
 21
72.709442
 31
0.0
  0
LINE
  5
301
100
AcDbEntity
  8
図枠
  6
CONTINUOUS
 62
     2
100
AcDbLine
 10
1597.380005
 20
66.670395
 30
0.0
 11
1590.696121
 21
72.709442
 31
0.0
  0
LINE
  5
302
100
AcDbEntity
  8
図枠
  6
CONTINUOUS
 62
     2
100
AcDbLine
 10
1608.249756
 20
66.999985
 30
0.0
 11
1608.249756
 21
91.400009
 31
0.0
  0
LINE
  5
303
100
AcDbEntity
  8
図枠
  6
CONTINUOUS
 62
     2
100
AcDbLine
 10
1609.699951
 20
66.999985
 30
0.0
 11
1609.699951
 21
91.400009
 31
0.0
  0
LINE
  5
304
100
AcDbEntity
  8
図枠
  6
CONTINUOUS
 62
     2
100
AcDbLine
 10
1611.150146
 20
66.999985
 30
0.0
 11
1611.150146
 21
91.400009
 31
0.0
  0
LINE
  5
305
100
AcDbEntity
  8
図枠
  6
CONTINUOUS
 62
     7
100
AcDbLine
 10
1601.999985
 20
87.900101
 30
0.0
 11
1607.249771
 21
87.900101
 31
0.0
  0
LINE
  5
306
100
AcDbEntity
  8
図枠
  6
CONTINUOUS
 62
     7
100
AcDbLine
 10
1612.150131
 20
87.900101
 30
0.0
 11
1613.199478
 21
87.900101
 31
0.0
  0
LINE
  5
307
100
AcDbEntity
  8
図枠
  6
CONTINUOUS
 62
     2
100
AcDbLine
 10
1602.235733
 20
66.994492
 30
0.0
 11
1604.329163
 21
86.905609
 31
0.0
  0
LINE
  5
308
100
AcDbEntity
  8
図枠
  6
CONTINUOUS
 62
     2
100
AcDbLine
 10
1603.592697
 20
66.994492
 30
0.0
 11
1605.686127
 21
86.905609
 31
0.0
  0
LINE
  5
309
100
AcDbEntity
  8
図枠
  6
CONTINUOUS
 62
     2
100
AcDbLine
 10
1611.737839
 20
85.184876
 30
0.0
 11
1613.611771
 21
82.604691
 31
0.0
  0
LINE
  5
30A
100
AcDbEntity
  8
図枠
  6
CONTINUOUS
 62
     2
100
AcDbLine
 10
1611.737762
 20
83.314682
 30
0.0
 11
1613.611847
 21
80.734192
 31
0.0
  0
LINE
  5
30B
100
AcDbEntity
  8
図枠
  6
CONTINUOUS
 62
     2
100
AcDbLine
 10
1615.738235
 20
85.570313
 30
0.0
 11
1617.198959
 21
91.429688
 31
0.0
  0
LINE
  5
30C
100
AcDbEntity
  8
図枠
  6
CONTINUOUS
 62
     2
100
AcDbLine
 10
1617.026535
 20
85.570313
 30
0.0
 11
1618.487259
 21
91.429688
 31
0.0
  0
LINE
  5
30D
100
AcDbEntity
  8
図枠
  6
CONTINUOUS
 62
     2
100
AcDbLine
 10
1618.108231
 20
85.570313
 30
0.0
 11
1619.569794
 21
91.429688
 31
0.0
  0
LINE
  5
30E
100
AcDbEntity
  8
図枠
  6
CONTINUOUS
 62
     7
100
AcDbLine
 10
1619.689346
 20
87.900101
 30
0.0
 11
1622.550064
 21
87.900101
 31
0.0
  0
LINE
  5
30F
100
AcDbEntity
  8
図枠
  6
CONTINUOUS
 62
     7
100
AcDbLine
 10
1627.450424
 20
87.900101
 30
0.0
 11
1633.599869
 21
87.900101
 31
0.0
  0
LINE
  5
310
100
AcDbEntity
  8
図枠
  6
CONTINUOUS
 62
     2
100
AcDbLine
 10
1623.550049
 20
66.999985
 30
0.0
 11
1623.550049
 21
91.400009
 31
0.0
  0
LINE
  5
311
100
AcDbEntity
  8
図枠
  6
CONTINUOUS
 62
     2
100
AcDbLine
 10
1625.000244
 20
66.999985
 30
0.0
 11
1625.000244
 21
91.400009
 31
0.0
  0
LINE
  5
312
100
AcDbEntity
  8
図枠
  6
CONTINUOUS
 62
     2
100
AcDbLine
 10
1626.450439
 20
66.999985
 30
0.0
 11
1626.450439
 21
91.400009
 31
0.0
  0
LINE
  5
313
100
AcDbEntity
  8
図枠
  6
CONTINUOUS
 62
     7
100
AcDbLine
 10
1615.800034
 20
81.899734
 30
0.0
 11
1622.550064
 21
81.899734
 31
0.0
  0
LINE
  5
314
100
AcDbEntity
  8
図枠
  6
CONTINUOUS
 62
     7
100
AcDbLine
 10
1627.450424
 20
81.899734
 30
0.0
 11
1634.200455
 21
81.899734
 31
0.0
  0
LINE
  5
315
100
AcDbEntity
  8
図枠
  6
CONTINUOUS
 62
     2
100
AcDbLine
 10
1616.122528
 20
66.98381
 30
0.0
 11
1618.658234
 21
80.915924
 31
0.0
  0
LINE
  5
316
100
AcDbEntity
  8
図枠
  6
CONTINUOUS
 62
     2
100
AcDbLine
 10
1617.520157
 20
66.98381
 30
0.0
 11
1620.055786
 21
80.915924
 31
0.0
  0
LINE
  5
317
100
AcDbEntity
  8
図枠
  6
CONTINUOUS
 62
     2
100
AcDbLine
 10
1618.714844
 20
66.98381
 30
0.0
 11
1621.250473
 21
80.915924
 31
0.0
  0
LINE
  5
318
100
AcDbEntity
  8
図枠
  6
CONTINUOUS
 62
     2
100
AcDbLine
 10
1631.285721
 20
66.98381
 30
0.0
 11
1628.750015
 21
80.915924
 31
0.0
  0
LINE
  5
319
100
AcDbEntity
  8
図枠
  6
CONTINUOUS
 62
     2
100
AcDbLine
 10
1632.480179
 20
66.98381
 30
0.0
 11
1629.943329
 21
80.915924
 31
0.0
  0
LINE
  5
31A
100
AcDbEntity
  8
図枠
  6
CONTINUOUS
 62
     2
100
AcDbLine
 10
1633.877808
 20
66.98381
 30
0.0
 11
1631.340958
 21
80.915924
 31
0.0
  0
LINE
  5
31B
100
AcDbEntity
  8
図枠
  6
CONTINUOUS
 62
     2
100
AcDbLine
 10
1637.400375
 20
88.874985
 30
0.0
 11
1654.848495
 21
88.874985
 31
0.0
  0
LINE
  5
31C
100
AcDbEntity
  8
図枠
  6
CONTINUOUS
 62
     2
100
AcDbLine
 10
1637.400375
 20
87.52504
 30
0.0
 11
1655.339752
 21
87.52504
 31
0.0
  0
LINE
  5
31D
100
AcDbEntity
  8
図枠
  6
CONTINUOUS
 62
     2
100
AcDbLine
 10
1661.967941
 20
87.52504
 30
0.0
 11
1669.000259
 21
87.52504
 31
0.0
  0
LINE
  5
31E
100
AcDbEntity
  8
図枠
  6
CONTINUOUS
 62
     2
100
AcDbLine
 10
1661.476608
 20
88.874985
 30
0.0
 11
1669.000259
 21
88.874985
 31
0.0
  0
LINE
  5
31F
100
AcDbEntity
  8
図枠
  6
CONTINUOUS
 62
     2
100
AcDbLine
 10
1663.925568
 20
89.87497
 30
0.0
 11
1663.925568
 21
91.400009
 31
0.0
  0
LINE
  5
320
100
AcDbEntity
  8
図枠
  6
CONTINUOUS
 62
     2
100
AcDbLine
 10
1665.550552
 20
89.87497
 30
0.0
 11
1665.550552
 21
91.400009
 31
0.0
  0
LINE
  5
321
100
AcDbEntity
  8
図枠
  6
CONTINUOUS
 62
     2
100
AcDbLine
 10
1667.074677
 20
89.87497
 30
0.0
 11
1667.074677
 21
91.400009
 31
0.0
  0
LINE
  5
322
100
AcDbEntity
  8
図枠
  6
CONTINUOUS
 62
     2
100
AcDbLine
 10
1663.831497
 20
66.939713
 30
0.0
 11
1654.907623
 21
91.460281
 31
0.0
  0
LINE
  5
323
100
AcDbEntity
  8
図枠
  6
CONTINUOUS
 62
     2
100
AcDbLine
 10
1665.427719
 20
66.939713
 30
0.0
 11
1656.503845
 21
91.460281
 31
0.0
  0
LINE
  5
324
100
AcDbEntity
  8
図枠
  6
CONTINUOUS
 62
     2
100
AcDbLine
 10
1666.864716
 20
66.939713
 30
0.0
 11
1657.939316
 21
91.460281
 31
0.0
  0
LINE
  5
325
100
AcDbEntity
  8
図枠
  6
CONTINUOUS
 62
     2
100
AcDbLine
 10
1668.461014
 20
66.939713
 30
0.0
 11
1659.535538
 21
91.460281
 31
0.0
  0
LINE
  5
326
100
AcDbEntity
  8
図枠
  6
CONTINUOUS
 62
     2
100
AcDbLine
 10
1639.199692
 20
81.674973
 30
0.0
 11
1655.200211
 21
81.674973
 31
0.0
  0
LINE
  5
327
100
AcDbEntity
  8
図枠
  6
CONTINUOUS
 62
     2
100
AcDbLine
 10
1639.199692
 20
80.325027
 30
0.0
 11
1655.200211
 21
80.325027
 31
0.0
  0
LINE
  5
328
100
AcDbEntity
  8
図枠
  6
CONTINUOUS
 62
     2
100
AcDbLine
 10
1645.025421
 20
79.325043
 30
0.0
 11
1645.025421
 21
72.884842
 31
0.0
  0
LINE
  5
329
100
AcDbEntity
  8
図枠
  6
CONTINUOUS
 62
     2
100
AcDbLine
 10
1646.400391
 20
79.325043
 30
0.0
 11
1646.400391
 21
73.177048
 31
0.0
  0
LINE
  5
32A
100
AcDbEntity
  8
図枠
  6
CONTINUOUS
 62
     2
100
AcDbLine
 10
1647.999512
 20
79.325043
 30
0.0
 11
1647.999512
 21
73.516937
 31
0.0
  0
LINE
  5
32B
100
AcDbEntity
  8
図枠
  6
CONTINUOUS
 62
     2
100
AcDbLine
 10
1649.374481
 20
79.325043
 30
0.0
 11
1649.374481
 21
73.809143
 31
0.0
  0
LINE
  5
32C
100
AcDbEntity
  8
図枠
  6
CONTINUOUS
 62
     2
100
AcDbLine
 10
1638.877579
 20
70.5784
 30
0.0
 11
1655.522324
 21
74.115692
 31
0.0
  0
LINE
  5
32D
100
AcDbEntity
  8
図枠
  6
CONTINUOUS
 62
     2
100
AcDbLine
 10
1638.877579
 20
68.967987
 30
0.0
 11
1655.522324
 21
72.506043
 31
0.0
  0
LINE
  5
32E
100
AcDbEntity
  8
図枠
  6
CONTINUOUS
 62
     2
100
AcDbLine
 10
1638.877579
 20
67.357956
 30
0.0
 11
1655.522324
 21
70.895706
 31
0.0
  0
LINE
  5
32F
100
AcDbEntity
  8
図枠
  6
CONTINUOUS
 62
     2
100
AcDbLine
 10
1672.148529
 20
86.40947
 30
0.0
 11
1687.588593
 21
91.575714
 31
0.0
  0
LINE
  5
330
100
AcDbEntity
  8
図枠
  6
CONTINUOUS
 62
     2
100
AcDbLine
 10
1672.148529
 20
84.985596
 30
0.0
 11
1687.588593
 21
90.152069
 31
0.0
  0
LINE
  5
331
100
AcDbEntity
  8
図枠
  6
CONTINUOUS
 62
     2
100
AcDbLine
 10
1689.011017
 20
91.575714
 30
0.0
 11
1704.45108
 21
86.409317
 31
0.0
  0
LINE
  5
332
100
AcDbEntity
  8
図枠
  6
CONTINUOUS
 62
     2
100
AcDbLine
 10
1689.011017
 20
90.152069
 30
0.0
 11
1704.45108
 21
84.986359
 31
0.0
  0
LINE
  5
333
100
AcDbEntity
  8
図枠
  6
CONTINUOUS
 62
     2
100
AcDbLine
 10
1677.300278
 20
84.675003
 30
0.0
 11
1699.300552
 21
84.675003
 31
0.0
  0
LINE
  5
334
100
AcDbEntity
  8
図枠
  6
CONTINUOUS
 62
     2
100
AcDbLine
 10
1677.300278
 20
83.325058
 30
0.0
 11
1699.300552
 21
83.325058
 31
0.0
  0
LINE
  5
335
100
AcDbEntity
  8
図枠
  6
CONTINUOUS
 62
     2
100
AcDbLine
 10
1672.20018
 20
78.674942
 30
0.0
 11
1704.399429
 21
78.674942
 31
0.0
  0
LINE
  5
336
100
AcDbEntity
  8
図枠
  6
CONTINUOUS
 62
     2
100
AcDbLine
 10
1672.20018
 20
77.324997
 30
0.0
 11
1704.399429
 21
77.324997
 31
0.0
  0
LINE
  5
337
100
AcDbEntity
  8
図枠
  6
CONTINUOUS
 62
     2
100
AcDbLine
 10
1677.299286
 20
76.418701
 30
0.0
 11
1674.018036
 21
69.381271
 31
0.0
  0
LINE
  5
338
100
AcDbEntity
  8
図枠
  6
CONTINUOUS
 62
     2
100
AcDbLine
 10
1678.678452
 20
76.418701
 30
0.0
 11
1675.397202
 21
69.381271
 31
0.0
  0
LINE
  5
339
100
AcDbEntity
  8
図枠
  6
CONTINUOUS
 62
     2
100
AcDbLine
 10
1680.057465
 20
76.418701
 30
0.0
 11
1676.776062
 21
69.381271
 31
0.0
  0
LINE
  5
33A
100
AcDbEntity
  8
図枠
  6
CONTINUOUS
 62
     2
100
AcDbLine
 10
1681.43663
 20
76.418701
 30
0.0
 11
1678.155304
 21
69.381271
 31
0.0
  0
LINE
  5
33B
100
AcDbEntity
  8
図枠
  6
CONTINUOUS
 62
     2
100
AcDbLine
 10
1695.162979
 20
76.418701
 30
0.0
 11
1698.444382
 21
69.381271
 31
0.0
  0
LINE
  5
33C
100
AcDbEntity
  8
図枠
  6
CONTINUOUS
 62
     2
100
AcDbLine
 10
1696.542221
 20
76.418701
 30
0.0
 11
1699.823547
 21
69.381271
 31
0.0
  0
LINE
  5
33D
100
AcDbEntity
  8
図枠
  6
CONTINUOUS
 62
     2
100
AcDbLine
 10
1697.921158
 20
76.418701
 30
0.0
 11
1701.202408
 21
69.381271
 31
0.0
  0
LINE
  5
33E
100
AcDbEntity
  8
図枠
  6
CONTINUOUS
 62
     2
100
AcDbLine
 10
1699.300324
 20
76.418701
 30
0.0
 11
1702.581574
 21
69.381271
 31
0.0
  0
LINE
  5
33F
100
AcDbEntity
  8
図枠
  6
CONTINUOUS
 62
     2
100
AcDbLine
 10
1673.354202
 20
68.474976
 30
0.0
 11
1703.245407
 21
68.474976
 31
0.0
  0
LINE
  5
340
100
AcDbEntity
  8
図枠
  6
CONTINUOUS
 62
     2
100
AcDbLine
 10
1672.724777
 20
67.12503
 30
0.0
 11
1703.874832
 21
67.12503
 31
0.0
  0
LINE
  5
341
100
AcDbEntity
  8
図枠
  6
CONTINUOUS
 62
     2
100
AcDbLine
 10
1713.124786
 20
91.400009
 30
0.0
 11
1713.124786
 21
89.87497
 31
0.0
  0
LINE
  5
342
100
AcDbEntity
  8
図枠
  6
CONTINUOUS
 62
     2
100
AcDbLine
 10
1714.374786
 20
91.400009
 30
0.0
 11
1714.374786
 21
89.87497
 31
0.0
  0
LINE
  5
343
100
AcDbEntity
  8
図枠
  6
CONTINUOUS
 62
     2
100
AcDbLine
 10
1715.624481
 20
91.400009
 30
0.0
 11
1715.624481
 21
89.87497
 31
0.0
  0
LINE
  5
344
100
AcDbEntity
  8
図枠
  6
CONTINUOUS
 62
     2
100
AcDbLine
 10
1716.874481
 20
91.400009
 30
0.0
 11
1716.874481
 21
89.87497
 31
0.0
  0
LINE
  5
345
100
AcDbEntity
  8
図枠
  6
CONTINUOUS
 62
     2
100
AcDbLine
 10
1707.59935
 20
88.874985
 30
0.0
 11
1721.612335
 21
88.874985
 31
0.0
  0
LINE
  5
346
100
AcDbEntity
  8
図枠
  6
CONTINUOUS
 62
     2
100
AcDbLine
 10
1707.59935
 20
87.52504
 30
0.0
 11
1720.667282
 21
87.52504
 31
0.0
  0
LINE
  5
347
100
AcDbEntity
  8
図枠
  6
CONTINUOUS
 62
     2
100
AcDbLine
 10
1715.875946
 20
86.705795
 30
0.0
 11
1707.172867
 21
74.273926
 31
0.0
  0
LINE
  5
348
100
AcDbEntity
  8
図枠
  6
CONTINUOUS
 62
     2
100
AcDbLine
 10
1717.707001
 20
86.705795
 30
0.0
 11
1707.172867
 21
71.658417
 31
0.0
  0
LINE
  5
349
100
AcDbEntity
  8
図枠
  6
CONTINUOUS
 62
     2
100
AcDbLine
 10
1719.721237
 20
86.705795
 30
0.0
 11
1707.172867
 21
68.780991
 31
0.0
  0
LINE
  5
34A
100
AcDbEntity
  8
図枠
  6
CONTINUOUS
 62
     2
100
AcDbLine
 10
1716.458908
 20
80.302063
 30
0.0
 11
1721.981369
 21
76.435867
 31
0.0
  0
LINE
  5
34B
100
AcDbEntity
  8
図枠
  6
CONTINUOUS
 62
     2
100
AcDbLine
 10
1715.598694
 20
79.073273
 30
0.0
 11
1721.981369
 21
74.604889
 31
0.0
  0
LINE
  5
34C
100
AcDbEntity
  8
図枠
  6
CONTINUOUS
 62
     2
100
AcDbLine
 10
1714.652191
 20
77.721268
 30
0.0
 11
1721.981369
 21
72.590347
 31
0.0
  0
LINE
  5
34D
100
AcDbEntity
  8
図枠
  6
CONTINUOUS
 62
     2
100
AcDbLine
 10
1713.124786
 20
76.283051
 30
0.0
 11
1713.124786
 21
66.999985
 31
0.0
  0
LINE
  5
34E
100
AcDbEntity
  8
図枠
  6
CONTINUOUS
 62
     2
100
AcDbLine
 10
1714.374786
 20
76.915527
 30
0.0
 11
1714.374786
 21
66.999985
 31
0.0
  0
LINE
  5
34F
100
AcDbEntity
  8
図枠
  6
CONTINUOUS
 62
     2
100
AcDbLine
 10
1715.624481
 20
76.040665
 30
0.0
 11
1715.624481
 21
66.999985
 31
0.0
  0
LINE
  5
350
100
AcDbEntity
  8
図枠
  6
CONTINUOUS
 62
     2
100
AcDbLine
 10
1716.874481
 20
75.165573
 30
0.0
 11
1716.874481
 21
66.999985
 31
0.0
  0
LINE
  5
351
100
AcDbEntity
  8
図枠
  6
CONTINUOUS
 62
     2
100
AcDbLine
 10
1723.800522
 20
84.675003
 30
0.0
 11
1728.324753
 21
84.675003
 31
0.0
  0
LINE
  5
352
100
AcDbEntity
  8
図枠
  6
CONTINUOUS
 62
     2
100
AcDbLine
 10
1723.800522
 20
83.325058
 30
0.0
 11
1728.324753
 21
83.325058
 31
0.0
  0
LINE
  5
353
100
AcDbEntity
  8
図枠
  6
CONTINUOUS
 62
     2
100
AcDbLine
 10
1734.074417
 20
84.675003
 30
0.0
 11
1738.599869
 21
84.675003
 31
0.0
  0
LINE
  5
354
100
AcDbEntity
  8
図枠
  6
CONTINUOUS
 62
     2
100
AcDbLine
 10
1734.074417
 20
83.325058
 30
0.0
 11
1738.599869
 21
83.325058
 31
0.0
  0
LINE
  5
355
100
AcDbEntity
  8
図枠
  6
CONTINUOUS
 62
     2
100
AcDbLine
 10
1729.324738
 20
91.400009
 30
0.0
 11
1729.324738
 21
69.47496
 31
0.0
  0
LINE
  5
356
100
AcDbEntity
  8
図枠
  6
CONTINUOUS
 62
     2
100
AcDbLine
 10
1730.574738
 20
91.400009
 30
0.0
 11
1730.574738
 21
69.47496
 31
0.0
  0
LINE
  5
357
100
AcDbEntity
  8
図枠
  6
CONTINUOUS
 62
     2
100
AcDbLine
 10
1731.824432
 20
91.400009
 30
0.0
 11
1731.824432
 21
69.47496
 31
0.0
  0
LINE
  5
358
100
AcDbEntity
  8
図枠
  6
CONTINUOUS
 62
     2
100
AcDbLine
 10
1733.074432
 20
91.400009
 30
0.0
 11
1733.074432
 21
69.47496
 31
0.0
  0
LINE
  5
359
100
AcDbEntity
  8
図枠
  6
CONTINUOUS
 62
     2
100
AcDbLine
 10
1721.399399
 20
68.474976
 30
0.0
 11
1739.200455
 21
68.474976
 31
0.0
  0
LINE
  5
35A
100
AcDbEntity
  8
図枠
  6
CONTINUOUS
 62
     2
100
AcDbLine
 10
1721.399399
 20
67.12503
 30
0.0
 11
1739.200455
 21
67.12503
 31
0.0
  0
LINE
  5
35B
100
AcDbEntity
  8
図枠
  6
CONTINUOUS
 62
     3
100
AcDbLine
 10
1419.800049
 20
92.399994
 30
0.0
 11
1424.599854
 21
92.399994
 31
0.0
  0
LINE
  5
35C
100
AcDbEntity
  8
図枠
  6
CONTINUOUS
 62
     3
100
AcDbLine
 10
1424.599854
 20
92.399994
 30
0.0
 11
1424.599854
 21
87.600037
 31
0.0
  0
LINE
  5
35D
100
AcDbEntity
  8
図枠
  6
CONTINUOUS
 62
     3
100
AcDbLine
 10
1424.599854
 20
87.600037
 30
0.0
 11
1419.800049
 21
87.600037
 31
0.0
  0
LINE
  5
35E
100
AcDbEntity
  8
図枠
  6
CONTINUOUS
 62
     3
100
AcDbLine
 10
1419.800049
 20
92.399994
 30
0.0
 11
1419.800049
 21
87.600037
 31
0.0
  0
LINE
  5
35F
100
AcDbEntity
  8
図枠
  6
CONTINUOUS
 62
     3
100
AcDbLine
 10
1413.199707
 20
92.399994
 30
0.0
 11
1417.999512
 21
92.399994
 31
0.0
  0
LINE
  5
360
100
AcDbEntity
  8
図枠
  6
CONTINUOUS
 62
     3
100
AcDbLine
 10
1417.999512
 20
92.399994
 30
0.0
 11
1417.999512
 21
87.600037
 31
0.0
  0
LINE
  5
361
100
AcDbEntity
  8
図枠
  6
CONTINUOUS
 62
     3
100
AcDbLine
 10
1417.999512
 20
87.600037
 30
0.0
 11
1413.199707
 21
87.600037
 31
0.0
  0
LINE
  5
362
100
AcDbEntity
  8
図枠
  6
CONTINUOUS
 62
     3
100
AcDbLine
 10
1413.199707
 20
92.399994
 30
0.0
 11
1413.199707
 21
87.600037
 31
0.0
  0
LINE
  5
363
100
AcDbEntity
  8
図枠
  6
CONTINUOUS
 62
     3
100
AcDbLine
 10
1391.0
 20
71.999985
 30
0.0
 11
1407.5271
 21
71.999985
 31
0.0
  0
ARC
  5
364
100
AcDbEntity
  8
図枠
  6
CONTINUOUS
 62
     3
100
AcDbCircle
 10
1407.5271
 20
76.800018
 30
0.0
 40
4.8
100
AcDbArc
 50
270.000031
 51
333.99855
  0
LINE
  5
365
100
AcDbEntity
  8
図枠
  6
CONTINUOUS
 62
     3
100
AcDbLine
 10
1411.841064
 20
74.695831
 30
0.0
 11
1417.257324
 21
85.800034
 31
0.0
  0
LINE
  5
366
100
AcDbEntity
  8
図枠
  6
CONTINUOUS
 62
     3
100
AcDbLine
 10
1417.257324
 20
85.800034
 30
0.0
 11
1424.599854
 21
85.800034
 31
0.0
  0
LINE
  5
367
100
AcDbEntity
  8
図枠
  6
CONTINUOUS
 62
     3
100
AcDbLine
 10
1424.599854
 20
85.800034
 30
0.0
 11
1417.900635
 21
72.065598
 31
0.0
  0
ARC
  5
368
100
AcDbEntity
  8
図枠
  6
CONTINUOUS
 62
     3
100
AcDbCircle
 10
1408.194824
 20
76.800018
 30
0.0
 40
10.799999
100
AcDbArc
 50
270.000031
 51
334.000137
  0
LINE
  5
369
100
AcDbEntity
  8
図枠
  6
CONTINUOUS
 62
     3
100
AcDbLine
 10
1408.194824
 20
66.0
 30
0.0
 11
1391.0
 21
66.0
 31
0.0
  0
LINE
  5
36A
100
AcDbEntity
  8
図枠
  6
CONTINUOUS
 62
     3
100
AcDbLine
 10
1391.0
 20
71.999985
 30
0.0
 11
1391.0
 21
66.0
 31
0.0
  0
LINE
  5
36B
100
AcDbEntity
  8
図枠
  6
CONTINUOUS
 62
     3
100
AcDbLine
 10
1391.0
 20
85.199982
 30
0.0
 11
1407.800537
 21
85.199982
 31
0.0
  0
LINE
  5
36C
100
AcDbEntity
  8
図枠
  6
CONTINUOUS
 62
     3
100
AcDbLine
 10
1407.800537
 20
85.199982
 30
0.0
 11
1407.800537
 21
79.799973
 31
0.0
  0
LINE
  5
36D
100
AcDbEntity
  8
図枠
  6
CONTINUOUS
 62
     3
100
AcDbLine
 10
1407.800537
 20
79.799973
 30
0.0
 11
1391.0
 21
79.799973
 31
0.0
  0
LINE
  5
36E
100
AcDbEntity
  8
図枠
  6
CONTINUOUS
 62
     3
100
AcDbLine
 10
1391.0
 20
85.199982
 30
0.0
 11
1391.0
 21
79.799973
 31
0.0
  0
LINE
  5
36F
100
AcDbEntity
  8
図枠
  6
CONTINUOUS
 62
     3
100
AcDbLine
 10
1391.0
 20
92.399994
 30
0.0
 11
1407.800537
 21
92.399994
 31
0.0
  0
LINE
  5
370
100
AcDbEntity
  8
図枠
  6
CONTINUOUS
 62
     3
100
AcDbLine
 10
1407.800537
 20
92.399994
 30
0.0
 11
1407.800537
 21
86.999985
 31
0.0
  0
LINE
  5
371
100
AcDbEntity
  8
図枠
  6
CONTINUOUS
 62
     3
100
AcDbLine
 10
1407.800537
 20
86.999985
 30
0.0
 11
1391.0
 21
86.999985
 31
0.0
  0
LINE
  5
372
100
AcDbEntity
  8
図枠
  6
CONTINUOUS
 62
     3
100
AcDbLine
 10
1391.0
 20
92.399994
 30
0.0
 11
1391.0
 21
86.999985
 31
0.0
  0
LINE
  5
373
100
AcDbEntity
  8
図枠
  6
CONTINUOUS
 62
     3
100
AcDbLine
 10
1426.400391
 20
85.800034
 30
0.0
 11
1431.865479
 21
85.800034
 31
0.0
  0
LINE
  5
374
100
AcDbEntity
  8
図枠
  6
CONTINUOUS
 62
     3
100
AcDbLine
 10
1431.200195
 20
90.000015
 30
0.0
 11
1431.865479
 21
85.800034
 31
0.0
  0
LINE
  5
375
100
AcDbEntity
  8
図枠
  6
CONTINUOUS
 62
     3
100
AcDbLine
 10
1431.200195
 20
90.000015
 30
0.0
 11
1437.882324
 21
90.000015
 31
0.0
  0
LINE
  5
376
100
AcDbEntity
  8
図枠
  6
CONTINUOUS
 62
     3
100
AcDbLine
 10
1437.882324
 20
90.000015
 30
0.0
 11
1438.547607
 21
85.800034
 31
0.0
  0
LINE
  5
377
100
AcDbEntity
  8
図枠
  6
CONTINUOUS
 62
     3
100
AcDbLine
 10
1438.547607
 20
85.800034
 30
0.0
 11
1455.200439
 21
85.800034
 31
0.0
  0
LINE
  5
378
100
AcDbEntity
  8
図枠
  6
CONTINUOUS
 62
     3
100
AcDbLine
 10
1455.200439
 20
85.800034
 30
0.0
 11
1451.698242
 21
77.934814
 31
0.0
  0
ARC
  5
379
100
AcDbEntity
  8
図枠
  6
CONTINUOUS
 62
     3
100
AcDbCircle
 10
1443.476807
 20
81.595474
 30
0.0
 40
9.000063
100
AcDbArc
 50
263.465775
 51
335.998779
  0
LINE
  5
37A
100
AcDbEntity
  8
図枠
  6
CONTINUOUS
 62
     3
100
AcDbLine
 10
1442.451416
 20
72.6539
 30
0.0
 11
1441.795898
 21
76.800018
 31
0.0
  0
ARC
  5
37B
100
AcDbEntity
  8
図枠
  6
CONTINUOUS
 62
     3
100
AcDbCircle
 10
1441.629883
 20
80.400024
 30
0.0
 40
3.600003
100
AcDbArc
 50
272.623749
 51
336.006531
  0
LINE
  5
37C
100
AcDbEntity
  8
図枠
  6
CONTINUOUS
 62
     3
100
AcDbLine
 10
1444.919678
 20
78.935715
 30
0.0
 11
1446.10498
 21
81.599976
 31
0.0
  0
LINE
  5
37D
100
AcDbEntity
  8
図枠
  6
CONTINUOUS
 62
     3
100
AcDbLine
 10
1446.10498
 20
81.599976
 30
0.0
 11
1439.212891
 21
81.599976
 31
0.0
  0
LINE
  5
37E
100
AcDbEntity
  8
図枠
  6
CONTINUOUS
 62
     3
100
AcDbLine
 10
1439.212891
 20
81.599976
 30
0.0
 11
1441.683594
 21
66.0
 31
0.0
  0
LINE
  5
37F
100
AcDbEntity
  8
図枠
  6
CONTINUOUS
 62
     3
100
AcDbLine
 10
1441.683594
 20
66.0
 30
0.0
 11
1435.001465
 21
66.0
 31
0.0
  0
LINE
  5
380
100
AcDbEntity
  8
図枠
  6
CONTINUOUS
 62
     3
100
AcDbLine
 10
1435.001465
 20
66.0
 30
0.0
 11
1432.530762
 21
81.599976
 31
0.0
  0
LINE
  5
381
100
AcDbEntity
  8
図枠
  6
CONTINUOUS
 62
     3
100
AcDbLine
 10
1432.530762
 20
81.599976
 30
0.0
 11
1426.400391
 21
81.599976
 31
0.0
  0
LINE
  5
382
100
AcDbEntity
  8
図枠
  6
CONTINUOUS
 62
     3
100
AcDbLine
 10
1426.400391
 20
85.800034
 30
0.0
 11
1426.400391
 21
81.599976
 31
0.0
  0
LINE
  5
383
100
AcDbEntity
  8
図枠
  6
CONTINUOUS
 62
     3
100
AcDbLine
 10
1454.599854
 20
71.999985
 30
0.0
 11
1488.199707
 21
71.999985
 31
0.0
  0
LINE
  5
384
100
AcDbEntity
  8
図枠
  6
CONTINUOUS
 62
     3
100
AcDbLine
 10
1488.199707
 20
71.999985
 30
0.0
 11
1488.199707
 21
66.0
 31
0.0
  0
LINE
  5
385
100
AcDbEntity
  8
図枠
  6
CONTINUOUS
 62
     3
100
AcDbLine
 10
1488.199707
 20
66.0
 30
0.0
 11
1454.599854
 21
66.0
 31
0.0
  0
LINE
  5
386
100
AcDbEntity
  8
図枠
  6
CONTINUOUS
 62
     3
100
AcDbLine
 10
1454.599854
 20
66.0
 30
0.0
 11
1454.599854
 21
71.999985
 31
0.0
  0
LINE
  5
387
100
AcDbEntity
  8
図枠
  6
CONTINUOUS
 62
     3
100
AcDbLine
 10
1456.999756
 20
92.399994
 30
0.0
 11
1485.799805
 21
92.399994
 31
0.0
  0
LINE
  5
388
100
AcDbEntity
  8
図枠
  6
CONTINUOUS
 62
     3
100
AcDbLine
 10
1485.799805
 20
92.399994
 30
0.0
 11
1485.799805
 21
86.400009
 31
0.0
  0
LINE
  5
389
100
AcDbEntity
  8
図枠
  6
CONTINUOUS
 62
     3
100
AcDbLine
 10
1485.799805
 20
86.400009
 30
0.0
 11
1456.999756
 21
86.400009
 31
0.0
  0
LINE
  5
38A
100
AcDbEntity
  8
図枠
  6
CONTINUOUS
 62
     3
100
AcDbLine
 10
1456.999756
 20
92.399994
 30
0.0
 11
1456.999756
 21
86.400009
 31
0.0
  0
LINE
  5
38B
100
AcDbEntity
  8
図枠
  6
CONTINUOUS
 62
     3
100
AcDbLine
 10
1492.400146
 20
92.399994
 30
0.0
 11
1523.600098
 21
92.399994
 31
0.0
  0
LINE
  5
38C
100
AcDbEntity
  8
図枠
  6
CONTINUOUS
 62
     3
100
AcDbLine
 10
1523.600098
 20
92.399994
 30
0.0
 11
1514.244629
 21
79.523178
 31
0.0
  0
LINE
  5
38D
100
AcDbEntity
  8
図枠
  6
CONTINUOUS
 62
     3
100
AcDbLine
 10
1514.244629
 20
79.523178
 30
0.0
 11
1526.0
 21
66.0
 31
0.0
  0
LINE
  5
38E
100
AcDbEntity
  8
図枠
  6
CONTINUOUS
 62
     3
100
AcDbLine
 10
1526.0
 20
66.0
 30
0.0
 11
1517.254883
 21
66.0
 31
0.0
  0
LINE
  5
38F
100
AcDbEntity
  8
図枠
  6
CONTINUOUS
 62
     3
100
AcDbLine
 10
1517.254883
 20
66.0
 30
0.0
 11
1510.262695
 21
74.043289
 31
0.0
  0
LINE
  5
390
100
AcDbEntity
  8
図枠
  6
CONTINUOUS
 62
     3
100
AcDbLine
 10
1510.262695
 20
74.043289
 30
0.0
 11
1507.654053
 21
70.451904
 31
0.0
  0
ARC
  5
391
100
AcDbEntity
  8
図枠
  6
CONTINUOUS
 62
     3
100
AcDbCircle
 10
1498.91626
 20
76.800018
 30
0.0
 40
10.799999
100
AcDbArc
 50
270.000031
 51
324.00116
  0
LINE
  5
392
100
AcDbEntity
  8
図枠
  6
CONTINUOUS
 62
     3
100
AcDbLine
 10
1498.91626
 20
66.0
 30
0.0
 11
1490.000244
 21
66.0
 31
0.0
  0
LINE
  5
393
100
AcDbEntity
  8
図枠
  6
CONTINUOUS
 62
     3
100
AcDbLine
 10
1490.000244
 20
66.0
 30
0.0
 11
1490.000244
 21
71.999985
 31
0.0
  0
LINE
  5
394
100
AcDbEntity
  8
図枠
  6
CONTINUOUS
 62
     3
100
AcDbLine
 10
1490.000244
 20
71.999985
 30
0.0
 11
1497.563721
 21
71.999985
 31
0.0
  0
ARC
  5
395
100
AcDbEntity
  8
図枠
  6
CONTINUOUS
 62
     3
100
AcDbCircle
 10
1497.563721
 20
77.999969
 30
0.0
 40
5.999999
100
AcDbArc
 50
270.000031
 51
323.996597
  0
LINE
  5
396
100
AcDbEntity
  8
図枠
  6
CONTINUOUS
 62
     3
100
AcDbLine
 10
1502.417236
 20
74.473282
 30
0.0
 11
1511.083008
 21
86.400009
 31
0.0
  0
LINE
  5
397
100
AcDbEntity
  8
図枠
  6
CONTINUOUS
 62
     3
100
AcDbLine
 10
1511.083008
 20
86.400009
 30
0.0
 11
1492.400146
 21
86.400009
 31
0.0
  0
LINE
  5
398
100
AcDbEntity
  8
図枠
  6
CONTINUOUS
 62
     3
100
AcDbLine
 10
1492.400146
 20
92.399994
 30
0.0
 11
1492.400146
 21
86.400009
 31
0.0
  0
LINE
  5
399
100
AcDbEntity
  8
図枠
  6
CONTINUOUS
 62
     3
100
AcDbLine
 10
1533.199707
 20
92.399994
 30
0.0
 11
1564.399658
 21
92.399994
 31
0.0
  0
LINE
  5
39A
100
AcDbEntity
  8
図枠
  6
CONTINUOUS
 62
     3
100
AcDbLine
 10
1564.399658
 20
92.399994
 30
0.0
 11
1564.399658
 21
88.200012
 31
0.0
  0
LINE
  5
39B
100
AcDbEntity
  8
図枠
  6
CONTINUOUS
 62
     3
100
AcDbLine
 10
1564.399658
 20
88.200012
 30
0.0
 11
1552.099854
 21
88.200012
 31
0.0
  0
LINE
  5
39C
100
AcDbEntity
  8
図枠
  6
CONTINUOUS
 62
     3
100
AcDbLine
 10
1552.099854
 20
88.200012
 30
0.0
 11
1552.099854
 21
70.800034
 31
0.0
  0
LINE
  5
39D
100
AcDbEntity
  8
図枠
  6
CONTINUOUS
 62
     3
100
AcDbLine
 10
1552.099854
 20
70.800034
 30
0.0
 11
1565.599609
 21
70.800034
 31
0.0
  0
LINE
  5
39E
100
AcDbEntity
  8
図枠
  6
CONTINUOUS
 62
     3
100
AcDbLine
 10
1565.599609
 20
70.800034
 30
0.0
 11
1565.599609
 21
66.0
 31
0.0
  0
LINE
  5
39F
100
AcDbEntity
  8
図枠
  6
CONTINUOUS
 62
     3
100
AcDbLine
 10
1565.599609
 20
66.0
 30
0.0
 11
1531.999756
 21
66.0
 31
0.0
  0
LINE
  5
3A0
100
AcDbEntity
  8
図枠
  6
CONTINUOUS
 62
     3
100
AcDbLine
 10
1531.999756
 20
66.0
 30
0.0
 11
1531.999756
 21
70.800034
 31
0.0
  0
LINE
  5
3A1
100
AcDbEntity
  8
図枠
  6
CONTINUOUS
 62
     3
100
AcDbLine
 10
1531.999756
 20
70.800034
 30
0.0
 11
1545.499512
 21
70.800034
 31
0.0
  0
LINE
  5
3A2
100
AcDbEntity
  8
図枠
  6
CONTINUOUS
 62
     3
100
AcDbLine
 10
1545.499512
 20
70.800034
 30
0.0
 11
1545.499512
 21
88.200012
 31
0.0
  0
LINE
  5
3A3
100
AcDbEntity
  8
図枠
  6
CONTINUOUS
 62
     3
100
AcDbLine
 10
1545.499512
 20
88.200012
 30
0.0
 11
1533.199707
 21
88.200012
 31
0.0
  0
LINE
  5
3A4
100
AcDbEntity
  8
図枠
  6
CONTINUOUS
 62
     3
100
AcDbLine
 10
1533.199707
 20
92.399994
 30
0.0
 11
1533.199707
 21
88.200012
 31
0.0
  0
LINE
  5
3A5
100
AcDbEntity
  8
図枠
  6
CONTINUOUS
 62
     3
100
AcDbLine
 10
1566.200195
 20
88.799988
 30
0.0
 11
1571.412598
 21
88.799988
 31
0.0
  0
LINE
  5
3A6
100
AcDbEntity
  8
図枠
  6
CONTINUOUS
 62
     3
100
AcDbLine
 10
1571.412598
 20
88.799988
 30
0.0
 11
1568.600098
 21
92.399994
 31
0.0
  0
LINE
  5
3A7
100
AcDbEntity
  8
図枠
  6
CONTINUOUS
 62
     3
100
AcDbLine
 10
1568.600098
 20
92.399994
 30
0.0
 11
1573.929688
 21
92.399994
 31
0.0
  0
LINE
  5
3A8
100
AcDbEntity
  8
図枠
  6
CONTINUOUS
 62
     3
100
AcDbLine
 10
1573.929688
 20
92.399994
 30
0.0
 11
1576.742188
 21
88.799988
 31
0.0
  0
LINE
  5
3A9
100
AcDbEntity
  8
図枠
  6
CONTINUOUS
 62
     3
100
AcDbLine
 10
1576.742188
 20
88.799988
 30
0.0
 11
1577.900635
 21
88.799988
 31
0.0
  0
LINE
  5
3AA
100
AcDbEntity
  8
図枠
  6
CONTINUOUS
 62
     3
100
AcDbLine
 10
1577.900635
 20
88.799988
 30
0.0
 11
1577.900635
 21
92.399994
 31
0.0
  0
LINE
  5
3AB
100
AcDbEntity
  8
図枠
  6
CONTINUOUS
 62
     3
100
AcDbLine
 10
1577.900635
 20
92.399994
 30
0.0
 11
1582.099854
 21
92.399994
 31
0.0
  0
LINE
  5
3AC
100
AcDbEntity
  8
図枠
  6
CONTINUOUS
 62
     3
100
AcDbLine
 10
1582.099854
 20
92.399994
 30
0.0
 11
1582.099854
 21
88.799988
 31
0.0
  0
LINE
  5
3AD
100
AcDbEntity
  8
図枠
  6
CONTINUOUS
 62
     3
100
AcDbLine
 10
1582.099854
 20
88.799988
 30
0.0
 11
1583.900391
 21
88.799988
 31
0.0
  0
LINE
  5
3AE
100
AcDbEntity
  8
図枠
  6
CONTINUOUS
 62
     3
100
AcDbLine
 10
1583.900391
 20
88.799988
 30
0.0
 11
1583.900391
 21
92.399994
 31
0.0
  0
LINE
  5
3AF
100
AcDbEntity
  8
図枠
  6
CONTINUOUS
 62
     3
100
AcDbLine
 10
1583.900391
 20
92.399994
 30
0.0
 11
1588.099609
 21
92.399994
 31
0.0
  0
LINE
  5
3B0
100
AcDbEntity
  8
図枠
  6
CONTINUOUS
 62
     3
100
AcDbLine
 10
1588.099609
 20
92.399994
 30
0.0
 11
1588.099609
 21
88.799988
 31
0.0
  0
LINE
  5
3B1
100
AcDbEntity
  8
図枠
  6
CONTINUOUS
 62
     3
100
AcDbLine
 10
1588.099609
 20
88.799988
 30
0.0
 11
1589.258057
 21
88.799988
 31
0.0
  0
LINE
  5
3B2
100
AcDbEntity
  8
図枠
  6
CONTINUOUS
 62
     3
100
AcDbLine
 10
1589.258057
 20
88.799988
 30
0.0
 11
1592.070557
 21
92.399994
 31
0.0
  0
LINE
  5
3B3
100
AcDbEntity
  8
図枠
  6
CONTINUOUS
 62
     3
100
AcDbLine
 10
1592.070557
 20
92.399994
 30
0.0
 11
1597.400146
 21
92.399994
 31
0.0
  0
LINE
  5
3B4
100
AcDbEntity
  8
図枠
  6
CONTINUOUS
 62
     3
100
AcDbLine
 10
1597.400146
 20
92.399994
 30
0.0
 11
1594.587646
 21
88.799988
 31
0.0
  0
LINE
  5
3B5
100
AcDbEntity
  8
図枠
  6
CONTINUOUS
 62
     3
100
AcDbLine
 10
1594.587646
 20
88.799988
 30
0.0
 11
1599.800049
 21
88.799988
 31
0.0
  0
LINE
  5
3B6
100
AcDbEntity
  8
図枠
  6
CONTINUOUS
 62
     3
100
AcDbLine
 10
1599.800049
 20
88.799988
 30
0.0
 11
1599.800049
 21
86.039978
 31
0.0
  0
LINE
  5
3B7
100
AcDbEntity
  8
図枠
  6
CONTINUOUS
 62
     3
100
AcDbLine
 10
1599.800049
 20
86.039978
 30
0.0
 11
1593.476807
 21
86.039978
 31
0.0
  0
LINE
  5
3B8
100
AcDbEntity
  8
図枠
  6
CONTINUOUS
 62
     3
100
AcDbLine
 10
1593.476807
 20
86.039978
 30
0.0
 11
1592.385498
 21
83.040024
 31
0.0
  0
LINE
  5
3B9
100
AcDbEntity
  8
図枠
  6
CONTINUOUS
 62
     3
100
AcDbLine
 10
1592.385498
 20
83.040024
 30
0.0
 11
1599.800049
 21
83.040024
 31
0.0
  0
LINE
  5
3BA
100
AcDbEntity
  8
図枠
  6
CONTINUOUS
 62
     3
100
AcDbLine
 10
1599.800049
 20
83.040024
 30
0.0
 11
1599.800049
 21
80.280014
 31
0.0
  0
LINE
  5
3BB
100
AcDbEntity
  8
図枠
  6
CONTINUOUS
 62
     3
100
AcDbLine
 10
1599.800049
 20
80.280014
 30
0.0
 11
1586.0
 21
80.280014
 31
0.0
  0
LINE
  5
3BC
100
AcDbEntity
  8
図枠
  6
CONTINUOUS
 62
     3
100
AcDbLine
 10
1586.0
 20
80.280014
 30
0.0
 11
1586.0
 21
78.900009
 31
0.0
  0
LINE
  5
3BD
100
AcDbEntity
  8
図枠
  6
CONTINUOUS
 62
     3
100
AcDbLine
 10
1586.0
 20
78.900009
 30
0.0
 11
1599.800049
 21
78.900009
 31
0.0
  0
LINE
  5
3BE
100
AcDbEntity
  8
図枠
  6
CONTINUOUS
 62
     3
100
AcDbLine
 10
1599.800049
 20
78.900009
 30
0.0
 11
1599.800049
 21
76.139999
 31
0.0
  0
LINE
  5
3BF
100
AcDbEntity
  8
図枠
  6
CONTINUOUS
 62
     3
100
AcDbLine
 10
1599.800049
 20
76.139999
 30
0.0
 11
1586.0
 21
76.139999
 31
0.0
  0
LINE
  5
3C0
100
AcDbEntity
  8
図枠
  6
CONTINUOUS
 62
     3
100
AcDbLine
 10
1586.0
 20
76.139999
 30
0.0
 11
1586.0
 21
74.759995
 31
0.0
  0
LINE
  5
3C1
100
AcDbEntity
  8
図枠
  6
CONTINUOUS
 62
     3
100
AcDbLine
 10
1586.0
 20
74.759995
 30
0.0
 11
1599.800049
 21
74.759995
 31
0.0
  0
LINE
  5
3C2
100
AcDbEntity
  8
図枠
  6
CONTINUOUS
 62
     3
100
AcDbLine
 10
1599.800049
 20
74.759995
 30
0.0
 11
1599.800049
 21
71.999985
 31
0.0
  0
LINE
  5
3C3
100
AcDbEntity
  8
図枠
  6
CONTINUOUS
 62
     3
100
AcDbLine
 10
1599.800049
 20
71.999985
 30
0.0
 11
1593.159424
 21
71.999985
 31
0.0
  0
LINE
  5
3C4
100
AcDbEntity
  8
図枠
  6
CONTINUOUS
 62
     3
100
AcDbLine
 10
1593.159424
 20
71.999985
 30
0.0
 11
1599.800049
 21
66.0
 31
0.0
  0
LINE
  5
3C5
100
AcDbEntity
  8
図枠
  6
CONTINUOUS
 62
     3
100
AcDbLine
 10
1599.800049
 20
66.0
 30
0.0
 11
1592.640625
 21
66.0
 31
0.0
  0
LINE
  5
3C6
100
AcDbEntity
  8
図枠
  6
CONTINUOUS
 62
     3
100
AcDbLine
 10
1592.640625
 20
66.0
 30
0.0
 11
1586.0
 21
71.999985
 31
0.0
  0
LINE
  5
3C7
100
AcDbEntity
  8
図枠
  6
CONTINUOUS
 62
     3
100
AcDbLine
 10
1586.0
 20
71.999985
 30
0.0
 11
1586.0
 21
66.0
 31
0.0
  0
LINE
  5
3C8
100
AcDbEntity
  8
図枠
  6
CONTINUOUS
 62
     3
100
AcDbLine
 10
1586.0
 20
66.0
 30
0.0
 11
1580.000244
 21
66.0
 31
0.0
  0
LINE
  5
3C9
100
AcDbEntity
  8
図枠
  6
CONTINUOUS
 62
     3
100
AcDbLine
 10
1580.000244
 20
66.0
 30
0.0
 11
1580.000244
 21
71.999985
 31
0.0
  0
LINE
  5
3CA
100
AcDbEntity
  8
図枠
  6
CONTINUOUS
 62
     3
100
AcDbLine
 10
1580.000244
 20
71.999985
 30
0.0
 11
1573.359619
 21
66.0
 31
0.0
  0
LINE
  5
3CB
100
AcDbEntity
  8
図枠
  6
CONTINUOUS
 62
     3
100
AcDbLine
 10
1573.359619
 20
66.0
 30
0.0
 11
1566.200195
 21
66.0
 31
0.0
  0
LINE
  5
3CC
100
AcDbEntity
  8
図枠
  6
CONTINUOUS
 62
     3
100
AcDbLine
 10
1566.200195
 20
66.0
 30
0.0
 11
1572.84082
 21
71.999985
 31
0.0
  0
LINE
  5
3CD
100
AcDbEntity
  8
図枠
  6
CONTINUOUS
 62
     3
100
AcDbLine
 10
1572.84082
 20
71.999985
 30
0.0
 11
1566.200195
 21
71.999985
 31
0.0
  0
LINE
  5
3CE
100
AcDbEntity
  8
図枠
  6
CONTINUOUS
 62
     3
100
AcDbLine
 10
1566.200195
 20
71.999985
 30
0.0
 11
1566.200195
 21
74.759995
 31
0.0
  0
LINE
  5
3CF
100
AcDbEntity
  8
図枠
  6
CONTINUOUS
 62
     3
100
AcDbLine
 10
1566.200195
 20
74.759995
 30
0.0
 11
1580.000244
 21
74.759995
 31
0.0
  0
LINE
  5
3D0
100
AcDbEntity
  8
図枠
  6
CONTINUOUS
 62
     3
100
AcDbLine
 10
1580.000244
 20
74.759995
 30
0.0
 11
1580.000244
 21
76.139999
 31
0.0
  0
LINE
  5
3D1
100
AcDbEntity
  8
図枠
  6
CONTINUOUS
 62
     3
100
AcDbLine
 10
1580.000244
 20
76.139999
 30
0.0
 11
1566.200195
 21
76.139999
 31
0.0
  0
LINE
  5
3D2
100
AcDbEntity
  8
図枠
  6
CONTINUOUS
 62
     3
100
AcDbLine
 10
1566.200195
 20
76.139999
 30
0.0
 11
1566.200195
 21
78.900009
 31
0.0
  0
LINE
  5
3D3
100
AcDbEntity
  8
図枠
  6
CONTINUOUS
 62
     3
100
AcDbLine
 10
1566.200195
 20
78.900009
 30
0.0
 11
1580.000244
 21
78.900009
 31
0.0
  0
LINE
  5
3D4
100
AcDbEntity
  8
図枠
  6
CONTINUOUS
 62
     3
100
AcDbLine
 10
1580.000244
 20
78.900009
 30
0.0
 11
1580.000244
 21
80.280014
 31
0.0
  0
LINE
  5
3D5
100
AcDbEntity
  8
図枠
  6
CONTINUOUS
 62
     3
100
AcDbLine
 10
1580.000244
 20
80.280014
 30
0.0
 11
1566.200195
 21
80.280014
 31
0.0
  0
LINE
  5
3D6
100
AcDbEntity
  8
図枠
  6
CONTINUOUS
 62
     3
100
AcDbLine
 10
1566.200195
 20
80.280014
 30
0.0
 11
1566.200195
 21
83.040024
 31
0.0
  0
LINE
  5
3D7
100
AcDbEntity
  8
図枠
  6
CONTINUOUS
 62
     3
100
AcDbLine
 10
1566.200195
 20
83.040024
 30
0.0
 11
1573.614746
 21
83.040024
 31
0.0
  0
LINE
  5
3D8
100
AcDbEntity
  8
図枠
  6
CONTINUOUS
 62
     3
100
AcDbLine
 10
1573.614746
 20
83.040024
 30
0.0
 11
1572.523438
 21
86.039978
 31
0.0
  0
LINE
  5
3D9
100
AcDbEntity
  8
図枠
  6
CONTINUOUS
 62
     3
100
AcDbLine
 10
1572.523438
 20
86.039978
 30
0.0
 11
1566.200195
 21
86.039978
 31
0.0
  0
LINE
  5
3DA
100
AcDbEntity
  8
図枠
  6
CONTINUOUS
 62
     3
100
AcDbLine
 10
1566.200195
 20
88.799988
 30
0.0
 11
1566.200195
 21
86.039978
 31
0.0
  0
LINE
  5
3DB
100
AcDbEntity
  8
図枠
  6
CONTINUOUS
 62
     3
100
AcDbLine
 10
1578.907715
 20
86.039978
 30
0.0
 11
1587.092529
 21
86.039978
 31
0.0
  0
LINE
  5
3DC
100
AcDbEntity
  8
図枠
  6
CONTINUOUS
 62
     3
100
AcDbLine
 10
1587.092529
 20
86.039978
 30
0.0
 11
1586.0
 21
83.040024
 31
0.0
  0
LINE
  5
3DD
100
AcDbEntity
  8
図枠
  6
CONTINUOUS
 62
     3
100
AcDbLine
 10
1586.0
 20
83.040024
 30
0.0
 11
1580.000244
 21
83.040024
 31
0.0
  0
LINE
  5
3DE
100
AcDbEntity
  8
図枠
  6
CONTINUOUS
 62
     3
100
AcDbLine
 10
1580.000244
 20
83.040024
 30
0.0
 11
1578.907715
 21
86.039978
 31
0.0
  0
LINE
  5
3DF
100
AcDbEntity
  8
図枠
  6
CONTINUOUS
 62
     3
100
AcDbLine
 10
1616.152588
 20
92.399994
 30
0.0
 11
1621.100098
 21
92.399994
 31
0.0
  0
LINE
  5
3E0
100
AcDbEntity
  8
図枠
  6
CONTINUOUS
 62
     3
100
AcDbLine
 10
1621.100098
 20
92.399994
 30
0.0
 11
1620.351807
 21
89.399963
 31
0.0
  0
LINE
  5
3E1
100
AcDbEntity
  8
図枠
  6
CONTINUOUS
 62
     3
100
AcDbLine
 10
1620.351807
 20
89.399963
 30
0.0
 11
1622.300049
 21
89.399963
 31
0.0
  0
LINE
  5
3E2
100
AcDbEntity
  8
図枠
  6
CONTINUOUS
 62
     3
100
AcDbLine
 10
1622.300049
 20
89.399963
 30
0.0
 11
1622.300049
 21
92.399994
 31
0.0
  0
LINE
  5
3E3
100
AcDbEntity
  8
図枠
  6
CONTINUOUS
 62
     3
100
AcDbLine
 10
1622.300049
 20
92.399994
 30
0.0
 11
1627.700439
 21
92.399994
 31
0.0
  0
LINE
  5
3E4
100
AcDbEntity
  8
図枠
  6
CONTINUOUS
 62
     3
100
AcDbLine
 10
1627.700439
 20
92.399994
 30
0.0
 11
1627.700439
 21
89.399963
 31
0.0
  0
LINE
  5
3E5
100
AcDbEntity
  8
図枠
  6
CONTINUOUS
 62
     3
100
AcDbLine
 10
1627.700439
 20
89.399963
 30
0.0
 11
1634.599854
 21
89.399963
 31
0.0
  0
LINE
  5
3E6
100
AcDbEntity
  8
図枠
  6
CONTINUOUS
 62
     3
100
AcDbLine
 10
1634.599854
 20
89.399963
 30
0.0
 11
1634.599854
 21
86.400009
 31
0.0
  0
LINE
  5
3E7
100
AcDbEntity
  8
図枠
  6
CONTINUOUS
 62
     3
100
AcDbLine
 10
1627.700439
 20
86.400009
 30
0.0
 11
1634.599854
 21
86.400009
 31
0.0
  0
LINE
  5
3E8
100
AcDbEntity
  8
図枠
  6
CONTINUOUS
 62
     3
100
AcDbLine
 10
1627.700439
 20
86.400009
 30
0.0
 11
1627.700439
 21
83.399979
 31
0.0
  0
LINE
  5
3E9
100
AcDbEntity
  8
図枠
  6
CONTINUOUS
 62
     3
100
AcDbLine
 10
1627.700439
 20
83.399979
 30
0.0
 11
1635.200439
 21
83.399979
 31
0.0
  0
LINE
  5
3EA
100
AcDbEntity
  8
図枠
  6
CONTINUOUS
 62
     3
100
AcDbLine
 10
1635.200439
 20
83.399979
 30
0.0
 11
1635.200439
 21
80.400024
 31
0.0
  0
LINE
  5
3EB
100
AcDbEntity
  8
図枠
  6
CONTINUOUS
 62
     3
100
AcDbLine
 10
1635.200439
 20
80.400024
 30
0.0
 11
1632.578369
 21
80.400024
 31
0.0
  0
LINE
  5
3EC
100
AcDbEntity
  8
図枠
  6
CONTINUOUS
 62
     3
100
AcDbLine
 10
1632.578369
 20
80.400024
 30
0.0
 11
1635.200439
 21
66.0
 31
0.0
  0
LINE
  5
3ED
100
AcDbEntity
  8
図枠
  6
CONTINUOUS
 62
     3
100
AcDbLine
 10
1635.200439
 20
66.0
 30
0.0
 11
1630.321289
 21
66.0
 31
0.0
  0
LINE
  5
3EE
100
AcDbEntity
  8
図枠
  6
CONTINUOUS
 62
     3
100
AcDbLine
 10
1630.321289
 20
66.0
 30
0.0
 11
1627.700439
 21
80.399872
 31
0.0
  0
LINE
  5
3EF
100
AcDbEntity
  8
図枠
  6
CONTINUOUS
 62
     3
100
AcDbLine
 10
1627.700439
 20
80.399872
 30
0.0
 11
1627.700439
 21
66.0
 31
0.0
  0
LINE
  5
3F0
100
AcDbEntity
  8
図枠
  6
CONTINUOUS
 62
     3
100
AcDbLine
 10
1627.700439
 20
66.0
 30
0.0
 11
1622.300049
 21
66.0
 31
0.0
  0
LINE
  5
3F1
100
AcDbEntity
  8
図枠
  6
CONTINUOUS
 62
     3
100
AcDbLine
 10
1622.300049
 20
66.0
 30
0.0
 11
1622.300049
 21
80.400024
 31
0.0
  0
LINE
  5
3F2
100
AcDbEntity
  8
図枠
  6
CONTINUOUS
 62
     3
100
AcDbLine
 10
1622.300049
 20
80.400024
 30
0.0
 11
1619.679199
 21
66.0
 31
0.0
  0
LINE
  5
3F3
100
AcDbEntity
  8
図枠
  6
CONTINUOUS
 62
     3
100
AcDbLine
 10
1619.679199
 20
66.0
 30
0.0
 11
1614.800049
 21
66.0
 31
0.0
  0
LINE
  5
3F4
100
AcDbEntity
  8
図枠
  6
CONTINUOUS
 62
     3
100
AcDbLine
 10
1614.800049
 20
66.0
 30
0.0
 11
1617.420898
 21
80.400024
 31
0.0
  0
LINE
  5
3F5
100
AcDbEntity
  8
図枠
  6
CONTINUOUS
 62
     3
100
AcDbLine
 10
1617.420898
 20
80.400024
 30
0.0
 11
1614.800049
 21
80.400024
 31
0.0
  0
LINE
  5
3F6
100
AcDbEntity
  8
図枠
  6
CONTINUOUS
 62
     3
100
AcDbLine
 10
1614.800049
 20
80.400024
 30
0.0
 11
1614.800049
 21
83.399979
 31
0.0
  0
LINE
  5
3F7
100
AcDbEntity
  8
図枠
  6
CONTINUOUS
 62
     3
100
AcDbLine
 10
1614.800049
 20
83.399979
 30
0.0
 11
1622.300049
 21
83.399979
 31
0.0
  0
LINE
  5
3F8
100
AcDbEntity
  8
図枠
  6
CONTINUOUS
 62
     3
100
AcDbLine
 10
1622.300049
 20
83.399979
 30
0.0
 11
1622.300049
 21
86.400009
 31
0.0
  0
LINE
  5
3F9
100
AcDbEntity
  8
図枠
  6
CONTINUOUS
 62
     3
100
AcDbLine
 10
1622.300049
 20
86.400009
 30
0.0
 11
1619.603516
 21
86.400009
 31
0.0
  0
LINE
  5
3FA
100
AcDbEntity
  8
図枠
  6
CONTINUOUS
 62
     3
100
AcDbLine
 10
1619.603516
 20
86.400009
 30
0.0
 11
1619.155518
 21
84.600006
 31
0.0
  0
LINE
  5
3FB
100
AcDbEntity
  8
図枠
  6
CONTINUOUS
 62
     3
100
AcDbLine
 10
1619.155518
 20
84.600006
 30
0.0
 11
1614.208008
 21
84.600006
 31
0.0
  0
LINE
  5
3FC
100
AcDbEntity
  8
図枠
  6
CONTINUOUS
 62
     3
100
AcDbLine
 10
1616.152588
 20
92.399994
 30
0.0
 11
1614.208008
 21
84.600006
 31
0.0
  0
LINE
  5
3FD
100
AcDbEntity
  8
図枠
  6
CONTINUOUS
 62
     3
100
AcDbLine
 10
1601.0
 20
89.399963
 30
0.0
 11
1606.999756
 21
89.399963
 31
0.0
  0
LINE
  5
3FE
100
AcDbEntity
  8
図枠
  6
CONTINUOUS
 62
     3
100
AcDbLine
 10
1606.999756
 20
89.399963
 30
0.0
 11
1606.999756
 21
92.399994
 31
0.0
  0
LINE
  5
3FF
100
AcDbEntity
  8
図枠
  6
CONTINUOUS
 62
     3
100
AcDbLine
 10
1606.999756
 20
92.399994
 30
0.0
 11
1612.400146
 21
92.399994
 31
0.0
  0
LINE
  5
400
100
AcDbEntity
  8
図枠
  6
CONTINUOUS
 62
     3
100
AcDbLine
 10
1612.400146
 20
92.399994
 30
0.0
 11
1612.400146
 21
89.399963
 31
0.0
  0
LINE
  5
401
100
AcDbEntity
  8
図枠
  6
CONTINUOUS
 62
     3
100
AcDbLine
 10
1612.400146
 20
89.399963
 30
0.0
 11
1614.199463
 21
89.399963
 31
0.0
  0
LINE
  5
402
100
AcDbEntity
  8
図枠
  6
CONTINUOUS
 62
     3
100
AcDbLine
 10
1614.199463
 20
89.399963
 30
0.0
 11
1614.199463
 21
86.400009
 31
0.0
  0
LINE
  5
403
100
AcDbEntity
  8
図枠
  6
CONTINUOUS
 62
     3
100
AcDbLine
 10
1614.199463
 20
86.400009
 30
0.0
 11
1612.400146
 21
86.400009
 31
0.0
  0
LINE
  5
404
100
AcDbEntity
  8
図枠
  6
CONTINUOUS
 62
     3
100
AcDbLine
 10
1612.400146
 20
86.400009
 30
0.0
 11
1614.199463
 21
83.922668
 31
0.0
  0
LINE
  5
405
100
AcDbEntity
  8
図枠
  6
CONTINUOUS
 62
     3
100
AcDbLine
 10
1614.199463
 20
83.922668
 30
0.0
 11
1614.199463
 21
77.798019
 31
0.0
  0
LINE
  5
406
100
AcDbEntity
  8
図枠
  6
CONTINUOUS
 62
     3
100
AcDbLine
 10
1614.199463
 20
77.798019
 30
0.0
 11
1612.400146
 21
80.275513
 31
0.0
  0
LINE
  5
407
100
AcDbEntity
  8
図枠
  6
CONTINUOUS
 62
     3
100
AcDbLine
 10
1612.400146
 20
80.275513
 30
0.0
 11
1612.400146
 21
66.0
 31
0.0
  0
LINE
  5
408
100
AcDbEntity
  8
図枠
  6
CONTINUOUS
 62
     3
100
AcDbLine
 10
1612.400146
 20
66.0
 30
0.0
 11
1606.999756
 21
66.0
 31
0.0
  0
LINE
  5
409
100
AcDbEntity
  8
図枠
  6
CONTINUOUS
 62
     3
100
AcDbLine
 10
1606.999756
 20
66.0
 30
0.0
 11
1606.999756
 21
86.400009
 31
0.0
  0
LINE
  5
40A
100
AcDbEntity
  8
図枠
  6
CONTINUOUS
 62
     3
100
AcDbLine
 10
1606.76416
 20
86.400009
 30
0.0
 11
1604.619385
 21
66.0
 31
0.0
  0
LINE
  5
40B
100
AcDbEntity
  8
図枠
  6
CONTINUOUS
 62
     3
100
AcDbLine
 10
1604.619385
 20
66.0
 30
0.0
 11
1601.0
 21
66.0
 31
0.0
  0
LINE
  5
40C
100
AcDbEntity
  8
図枠
  6
CONTINUOUS
 62
     3
100
AcDbLine
 10
1601.0
 20
66.0
 30
0.0
 11
1603.144775
 21
86.400009
 31
0.0
  0
LINE
  5
40D
100
AcDbEntity
  8
図枠
  6
CONTINUOUS
 62
     3
100
AcDbLine
 10
1603.144775
 20
86.400009
 30
0.0
 11
1601.0
 21
86.400009
 31
0.0
  0
LINE
  5
40E
100
AcDbEntity
  8
図枠
  6
CONTINUOUS
 62
     3
100
AcDbLine
 10
1601.0
 20
89.399963
 30
0.0
 11
1601.0
 21
86.400009
 31
0.0
  0
LINE
  5
40F
100
AcDbEntity
  8
図枠
  6
CONTINUOUS
 62
     3
100
AcDbLine
 10
1636.400391
 20
90.000015
 30
0.0
 11
1654.240967
 21
90.000015
 31
0.0
  0
LINE
  5
410
100
AcDbEntity
  8
図枠
  6
CONTINUOUS
 62
     3
100
AcDbLine
 10
1654.240967
 20
90.000015
 30
0.0
 11
1653.368164
 21
92.399994
 31
0.0
  0
LINE
  5
411
100
AcDbEntity
  8
図枠
  6
CONTINUOUS
 62
     3
100
AcDbLine
 10
1653.368164
 20
92.399994
 30
0.0
 11
1660.390869
 21
92.399994
 31
0.0
  0
LINE
  5
412
100
AcDbEntity
  8
図枠
  6
CONTINUOUS
 62
     3
100
AcDbLine
 10
1660.390869
 20
92.399994
 30
0.0
 11
1661.264893
 21
90.000015
 31
0.0
  0
LINE
  5
413
100
AcDbEntity
  8
図枠
  6
CONTINUOUS
 62
     3
100
AcDbLine
 10
1661.264893
 20
90.000015
 30
0.0
 11
1662.800537
 21
90.000015
 31
0.0
  0
LINE
  5
414
100
AcDbEntity
  8
図枠
  6
CONTINUOUS
 62
     3
100
AcDbLine
 10
1662.800537
 20
90.000015
 30
0.0
 11
1662.800537
 21
92.399994
 31
0.0
  0
LINE
  5
415
100
AcDbEntity
  8
図枠
  6
CONTINUOUS
 62
     3
100
AcDbLine
 10
1662.800537
 20
92.399994
 30
0.0
 11
1668.199707
 21
92.399994
 31
0.0
  0
LINE
  5
416
100
AcDbEntity
  8
図枠
  6
CONTINUOUS
 62
     3
100
AcDbLine
 10
1668.199707
 20
92.399994
 30
0.0
 11
1668.199707
 21
90.000015
 31
0.0
  0
LINE
  5
417
100
AcDbEntity
  8
図枠
  6
CONTINUOUS
 62
     3
100
AcDbLine
 10
1668.199707
 20
90.000015
 30
0.0
 11
1670.000244
 21
90.000015
 31
0.0
  0
LINE
  5
418
100
AcDbEntity
  8
図枠
  6
CONTINUOUS
 62
     3
100
AcDbLine
 10
1670.000244
 20
90.000015
 30
0.0
 11
1670.000244
 21
86.400009
 31
0.0
  0
LINE
  5
419
100
AcDbEntity
  8
図枠
  6
CONTINUOUS
 62
     3
100
AcDbLine
 10
1670.000244
 20
86.400009
 30
0.0
 11
1662.574707
 21
86.400009
 31
0.0
  0
LINE
  5
41A
100
AcDbEntity
  8
図枠
  6
CONTINUOUS
 62
     3
100
AcDbLine
 10
1662.574707
 20
86.400009
 30
0.0
 11
1670.000244
 21
66.0
 31
0.0
  0
LINE
  5
41B
100
AcDbEntity
  8
図枠
  6
CONTINUOUS
 62
     3
100
AcDbLine
 10
1670.000244
 20
66.0
 30
0.0
 11
1662.976318
 21
66.0
 31
0.0
  0
LINE
  5
41C
100
AcDbEntity
  8
図枠
  6
CONTINUOUS
 62
     3
100
AcDbLine
 10
1662.976318
 20
66.0
 30
0.0
 11
1655.552002
 21
86.400009
 31
0.0
  0
LINE
  5
41D
100
AcDbEntity
  8
図枠
  6
CONTINUOUS
 62
     3
100
AcDbLine
 10
1655.552002
 20
86.400009
 30
0.0
 11
1636.400391
 21
86.400009
 31
0.0
  0
LINE
  5
41E
100
AcDbEntity
  8
図枠
  6
CONTINUOUS
 62
     3
100
AcDbLine
 10
1636.400391
 20
90.000015
 30
0.0
 11
1636.400391
 21
86.400009
 31
0.0
  0
LINE
  5
41F
100
AcDbEntity
  8
図枠
  6
CONTINUOUS
 62
     3
100
AcDbLine
 10
1638.199707
 20
82.800003
 30
0.0
 11
1656.200195
 21
82.800003
 31
0.0
  0
LINE
  5
420
100
AcDbEntity
  8
図枠
  6
CONTINUOUS
 62
     3
100
AcDbLine
 10
1656.200195
 20
82.800003
 30
0.0
 11
1656.200195
 21
79.199997
 31
0.0
  0
LINE
  5
421
100
AcDbEntity
  8
図枠
  6
CONTINUOUS
 62
     3
100
AcDbLine
 10
1656.200195
 20
79.199997
 30
0.0
 11
1650.499512
 21
79.199997
 31
0.0
  0
LINE
  5
422
100
AcDbEntity
  8
図枠
  6
CONTINUOUS
 62
     3
100
AcDbLine
 10
1650.499512
 20
79.199997
 30
0.0
 11
1650.499512
 21
74.198853
 31
0.0
  0
LINE
  5
423
100
AcDbEntity
  8
図枠
  6
CONTINUOUS
 62
     3
100
AcDbLine
 10
1650.499512
 20
74.198853
 30
0.0
 11
1656.500488
 21
75.474182
 31
0.0
  0
LINE
  5
424
100
AcDbEntity
  8
図枠
  6
CONTINUOUS
 62
     3
100
AcDbLine
 10
1656.500488
 20
75.474182
 30
0.0
 11
1656.500488
 21
69.953552
 31
0.0
  0
LINE
  5
425
100
AcDbEntity
  8
図枠
  6
CONTINUOUS
 62
     3
100
AcDbLine
 10
1656.500488
 20
69.953552
 30
0.0
 11
1637.899414
 21
66.0
 31
0.0
  0
LINE
  5
426
100
AcDbEntity
  8
図枠
  6
CONTINUOUS
 62
     3
100
AcDbLine
 10
1637.899414
 20
66.0
 30
0.0
 11
1637.899414
 21
71.52063
 31
0.0
  0
LINE
  5
427
100
AcDbEntity
  8
図枠
  6
CONTINUOUS
 62
     3
100
AcDbLine
 10
1637.899414
 20
71.52063
 30
0.0
 11
1643.900391
 21
72.795959
 31
0.0
  0
LINE
  5
428
100
AcDbEntity
  8
図枠
  6
CONTINUOUS
 62
     3
100
AcDbLine
 10
1643.900391
 20
72.795959
 30
0.0
 11
1643.900391
 21
79.199997
 31
0.0
  0
LINE
  5
429
100
AcDbEntity
  8
図枠
  6
CONTINUOUS
 62
     3
100
AcDbLine
 10
1643.900391
 20
79.199997
 30
0.0
 11
1638.199707
 21
79.199997
 31
0.0
  0
LINE
  5
42A
100
AcDbEntity
  8
図枠
  6
CONTINUOUS
 62
     3
100
AcDbLine
 10
1638.199707
 20
82.800003
 30
0.0
 11
1638.199707
 21
79.199997
 31
0.0
  0
LINE
  5
42B
100
AcDbEntity
  8
図枠
  6
CONTINUOUS
 62
     3
100
AcDbLine
 10
1671.200195
 20
79.799973
 30
0.0
 11
1705.399414
 21
79.799973
 31
0.0
  0
LINE
  5
42C
100
AcDbEntity
  8
図枠
  6
CONTINUOUS
 62
     3
100
AcDbLine
 10
1705.399414
 20
79.799973
 30
0.0
 11
1705.399414
 21
76.199966
 31
0.0
  0
LINE
  5
42D
100
AcDbEntity
  8
図枠
  6
CONTINUOUS
 62
     3
100
AcDbLine
 10
1705.399414
 20
76.199966
 30
0.0
 11
1700.643555
 21
76.199966
 31
0.0
  0
LINE
  5
42E
100
AcDbEntity
  8
図枠
  6
CONTINUOUS
 62
     3
100
AcDbLine
 10
1700.643555
 20
76.199966
 30
0.0
 11
1705.399414
 21
66.0
 31
0.0
  0
LINE
  5
42F
100
AcDbEntity
  8
図枠
  6
CONTINUOUS
 62
     3
100
AcDbLine
 10
1705.399414
 20
66.0
 30
0.0
 11
1671.200195
 21
66.0
 31
0.0
  0
LINE
  5
430
100
AcDbEntity
  8
図枠
  6
CONTINUOUS
 62
     3
100
AcDbLine
 10
1671.200195
 20
66.0
 30
0.0
 11
1675.956055
 21
76.199966
 31
0.0
  0
LINE
  5
431
100
AcDbEntity
  8
図枠
  6
CONTINUOUS
 62
     3
100
AcDbLine
 10
1675.956055
 20
76.199966
 30
0.0
 11
1671.200195
 21
76.199966
 31
0.0
  0
LINE
  5
432
100
AcDbEntity
  8
図枠
  6
CONTINUOUS
 62
     3
100
AcDbLine
 10
1671.200195
 20
79.799973
 30
0.0
 11
1671.200195
 21
76.199966
 31
0.0
  0
LINE
  5
433
100
AcDbEntity
  8
図枠
  6
CONTINUOUS
 62
     3
100
AcDbLine
 10
1682.575928
 20
76.199966
 30
0.0
 11
1694.023682
 21
76.199966
 31
0.0
  0
LINE
  5
434
100
AcDbEntity
  8
図枠
  6
CONTINUOUS
 62
     3
100
AcDbLine
 10
1694.023682
 20
76.199966
 30
0.0
 11
1697.101074
 21
69.600006
 31
0.0
  0
LINE
  5
435
100
AcDbEntity
  8
図枠
  6
CONTINUOUS
 62
     3
100
AcDbLine
 10
1697.101074
 20
69.600006
 30
0.0
 11
1679.498535
 21
69.600006
 31
0.0
  0
LINE
  5
436
100
AcDbEntity
  8
図枠
  6
CONTINUOUS
 62
     3
100
AcDbLine
 10
1682.575928
 20
76.199966
 30
0.0
 11
1679.498535
 21
69.600006
 31
0.0
  0
LINE
  5
437
100
AcDbEntity
  8
図枠
  6
CONTINUOUS
 62
     3
100
AcDbLine
 10
1671.200195
 20
87.278458
 30
0.0
 11
1688.299805
 21
92.99997
 31
0.0
  0
LINE
  5
438
100
AcDbEntity
  8
図枠
  6
CONTINUOUS
 62
     3
100
AcDbLine
 10
1688.299805
 20
92.99997
 30
0.0
 11
1705.399414
 21
87.278305
 31
0.0
  0
LINE
  5
439
100
AcDbEntity
  8
図枠
  6
CONTINUOUS
 62
     3
100
AcDbLine
 10
1705.399414
 20
87.278305
 30
0.0
 11
1705.399414
 21
83.482147
 31
0.0
  0
LINE
  5
43A
100
AcDbEntity
  8
図枠
  6
CONTINUOUS
 62
     3
100
AcDbLine
 10
1705.399414
 20
83.482147
 30
0.0
 11
1700.300537
 21
85.188538
 31
0.0
  0
LINE
  5
43B
100
AcDbEntity
  8
図枠
  6
CONTINUOUS
 62
     3
100
AcDbLine
 10
1700.300537
 20
85.188538
 30
0.0
 11
1700.300537
 21
82.200027
 31
0.0
  0
LINE
  5
43C
100
AcDbEntity
  8
図枠
  6
CONTINUOUS
 62
     3
100
AcDbLine
 10
1700.300537
 20
82.200027
 30
0.0
 11
1676.300293
 21
82.200027
 31
0.0
  0
LINE
  5
43D
100
AcDbEntity
  8
図枠
  6
CONTINUOUS
 62
     3
100
AcDbLine
 10
1676.300293
 20
82.200027
 30
0.0
 11
1676.300293
 21
85.188538
 31
0.0
  0
LINE
  5
43E
100
AcDbEntity
  8
図枠
  6
CONTINUOUS
 62
     3
100
AcDbLine
 10
1676.300293
 20
85.188538
 30
0.0
 11
1671.200195
 21
83.482147
 31
0.0
  0
LINE
  5
43F
100
AcDbEntity
  8
図枠
  6
CONTINUOUS
 62
     3
100
AcDbLine
 10
1671.200195
 20
87.278458
 30
0.0
 11
1671.200195
 21
83.482147
 31
0.0
  0
LINE
  5
440
100
AcDbEntity
  8
図枠
  6
CONTINUOUS
 62
     3
100
AcDbLine
 10
1678.127686
 20
85.800034
 30
0.0
 11
1688.299805
 21
89.203735
 31
0.0
  0
LINE
  5
441
100
AcDbEntity
  8
図枠
  6
CONTINUOUS
 62
     3
100
AcDbLine
 10
1688.299805
 20
89.203735
 30
0.0
 11
1698.473145
 21
85.800034
 31
0.0
  0
LINE
  5
442
100
AcDbEntity
  8
図枠
  6
CONTINUOUS
 62
     3
100
AcDbLine
 10
1698.473145
 20
85.800034
 30
0.0
 11
1678.127686
 21
85.800034
 31
0.0
  0
LINE
  5
443
100
AcDbEntity
  8
図枠
  6
CONTINUOUS
 62
     3
100
AcDbLine
 10
1722.800537
 20
85.800034
 30
0.0
 11
1728.199707
 21
85.800034
 31
0.0
  0
LINE
  5
444
100
AcDbEntity
  8
図枠
  6
CONTINUOUS
 62
     3
100
AcDbLine
 10
1728.199707
 20
85.800034
 30
0.0
 11
1728.199707
 21
92.399994
 31
0.0
  0
LINE
  5
445
100
AcDbEntity
  8
図枠
  6
CONTINUOUS
 62
     3
100
AcDbLine
 10
1728.199707
 20
92.399994
 30
0.0
 11
1734.199463
 21
92.399994
 31
0.0
  0
LINE
  5
446
100
AcDbEntity
  8
図枠
  6
CONTINUOUS
 62
     3
100
AcDbLine
 10
1734.199463
 20
92.399994
 30
0.0
 11
1734.199463
 21
85.800034
 31
0.0
  0
LINE
  5
447
100
AcDbEntity
  8
図枠
  6
CONTINUOUS
 62
     3
100
AcDbLine
 10
1734.199463
 20
85.800034
 30
0.0
 11
1739.599854
 21
85.800034
 31
0.0
  0
LINE
  5
448
100
AcDbEntity
  8
図枠
  6
CONTINUOUS
 62
     3
100
AcDbLine
 10
1739.599854
 20
85.800034
 30
0.0
 11
1739.599854
 21
82.200027
 31
0.0
  0
LINE
  5
449
100
AcDbEntity
  8
図枠
  6
CONTINUOUS
 62
     3
100
AcDbLine
 10
1739.599854
 20
82.200027
 30
0.0
 11
1734.199463
 21
82.200027
 31
0.0
  0
LINE
  5
44A
100
AcDbEntity
  8
図枠
  6
CONTINUOUS
 62
     3
100
AcDbLine
 10
1734.199463
 20
82.200027
 30
0.0
 11
1734.199463
 21
69.600006
 31
0.0
  0
LINE
  5
44B
100
AcDbEntity
  8
図枠
  6
CONTINUOUS
 62
     3
100
AcDbLine
 10
1734.199463
 20
69.600006
 30
0.0
 11
1740.200439
 21
69.600006
 31
0.0
  0
LINE
  5
44C
100
AcDbEntity
  8
図枠
  6
CONTINUOUS
 62
     3
100
AcDbLine
 10
1740.200439
 20
69.600006
 30
0.0
 11
1740.200439
 21
66.0
 31
0.0
  0
LINE
  5
44D
100
AcDbEntity
  8
図枠
  6
CONTINUOUS
 62
     3
100
AcDbLine
 10
1740.200439
 20
66.0
 30
0.0
 11
1720.399414
 21
66.0
 31
0.0
  0
LINE
  5
44E
100
AcDbEntity
  8
図枠
  6
CONTINUOUS
 62
     3
100
AcDbLine
 10
1720.399414
 20
66.0
 30
0.0
 11
1720.399414
 21
69.600006
 31
0.0
  0
LINE
  5
44F
100
AcDbEntity
  8
図枠
  6
CONTINUOUS
 62
     3
100
AcDbLine
 10
1720.399414
 20
69.600006
 30
0.0
 11
1728.199707
 21
69.600006
 31
0.0
  0
LINE
  5
450
100
AcDbEntity
  8
図枠
  6
CONTINUOUS
 62
     3
100
AcDbLine
 10
1728.199707
 20
69.600006
 30
0.0
 11
1728.199707
 21
82.200027
 31
0.0
  0
LINE
  5
451
100
AcDbEntity
  8
図枠
  6
CONTINUOUS
 62
     3
100
AcDbLine
 10
1728.199707
 20
82.200027
 30
0.0
 11
1722.800537
 21
82.200027
 31
0.0
  0
LINE
  5
452
100
AcDbEntity
  8
図枠
  6
CONTINUOUS
 62
     3
100
AcDbLine
 10
1722.800537
 20
85.800034
 30
0.0
 11
1722.800537
 21
82.200027
 31
0.0
  0
LINE
  5
453
100
AcDbEntity
  8
図枠
  6
CONTINUOUS
 62
     3
100
AcDbLine
 10
1706.599365
 20
90.000015
 30
0.0
 11
1711.999756
 21
90.000015
 31
0.0
  0
LINE
  5
454
100
AcDbEntity
  8
図枠
  6
CONTINUOUS
 62
     3
100
AcDbLine
 10
1711.999756
 20
90.000015
 30
0.0
 11
1711.999756
 21
92.399994
 31
0.0
  0
LINE
  5
455
100
AcDbEntity
  8
図枠
  6
CONTINUOUS
 62
     3
100
AcDbLine
 10
1711.999756
 20
92.399994
 30
0.0
 11
1717.999512
 21
92.399994
 31
0.0
  0
LINE
  5
456
100
AcDbEntity
  8
図枠
  6
CONTINUOUS
 62
     3
100
AcDbLine
 10
1717.999512
 20
92.399994
 30
0.0
 11
1717.999512
 21
90.000015
 31
0.0
  0
LINE
  5
457
100
AcDbEntity
  8
図枠
  6
CONTINUOUS
 62
     3
100
AcDbLine
 10
1717.999512
 20
90.000015
 30
0.0
 11
1723.399902
 21
90.000015
 31
0.0
  0
LINE
  5
458
100
AcDbEntity
  8
図枠
  6
CONTINUOUS
 62
     3
100
AcDbLine
 10
1723.399902
 20
90.000015
 30
0.0
 11
1717.206055
 21
81.152283
 31
0.0
  0
LINE
  5
459
100
AcDbEntity
  8
図枠
  6
CONTINUOUS
 62
     3
100
AcDbLine
 10
1717.206055
 20
81.152283
 30
0.0
 11
1722.800537
 21
77.235657
 31
0.0
  0
LINE
  5
45A
100
AcDbEntity
  8
図枠
  6
CONTINUOUS
 62
     3
100
AcDbLine
 10
1722.800537
 20
77.235657
 30
0.0
 11
1722.800537
 21
70.643555
 31
0.0
  0
LINE
  5
45B
100
AcDbEntity
  8
図枠
  6
CONTINUOUS
 62
     3
100
AcDbLine
 10
1722.800537
 20
70.643555
 30
0.0
 11
1717.999512
 21
74.004608
 31
0.0
  0
LINE
  5
45C
100
AcDbEntity
  8
図枠
  6
CONTINUOUS
 62
     3
100
AcDbLine
 10
1717.999512
 20
74.004608
 30
0.0
 11
1717.999512
 21
66.0
 31
0.0
  0
LINE
  5
45D
100
AcDbEntity
  8
図枠
  6
CONTINUOUS
 62
     3
100
AcDbLine
 10
1717.999512
 20
66.0
 30
0.0
 11
1711.999756
 21
66.0
 31
0.0
  0
LINE
  5
45E
100
AcDbEntity
  8
図枠
  6
CONTINUOUS
 62
     3
100
AcDbLine
 10
1711.999756
 20
66.0
 30
0.0
 11
1711.999756
 21
73.714233
 31
0.0
  0
LINE
  5
45F
100
AcDbEntity
  8
図枠
  6
CONTINUOUS
 62
     3
100
AcDbLine
 10
1711.999756
 20
73.714233
 30
0.0
 11
1706.599365
 21
66.0
 31
0.0
  0
LINE
  5
460
100
AcDbEntity
  8
図枠
  6
CONTINUOUS
 62
     3
100
AcDbLine
 10
1706.599365
 20
66.0
 30
0.0
 11
1706.599365
 21
75.416351
 31
0.0
  0
LINE
  5
461
100
AcDbEntity
  8
図枠
  6
CONTINUOUS
 62
     3
100
AcDbLine
 10
1706.599365
 20
75.416351
 30
0.0
 11
1714.288574
 21
86.400009
 31
0.0
  0
LINE
  5
462
100
AcDbEntity
  8
図枠
  6
CONTINUOUS
 62
     3
100
AcDbLine
 10
1714.288574
 20
86.400009
 30
0.0
 11
1706.599365
 21
86.400009
 31
0.0
  0
LINE
  5
463
100
AcDbEntity
  8
図枠
  6
CONTINUOUS
 62
     3
100
AcDbLine
 10
1706.599365
 20
90.000015
 30
0.0
 11
1706.599365
 21
86.400009
 31
0.0
  0
LINE
  5
464
100
AcDbEntity
  8
図枠
  6
CONTINUOUS
 62
     7
100
AcDbLine
 10
60.5
 20
747.5
 30
0.0
 11
130.0
 21
747.5
 31
0.0
  0
TEXT
  5
465
100
AcDbEntity
  8
図枠
  6
CONTINUOUS
 62
     6
100
AcDbText
 10
154.929482
 20
152.957437
 30
0.0
 40
20.0
  1
△
 41
1.18
  7
EXCADVERT
 72
     3
 11
154.929482
 21
132.957437
 31
0.0
100
AcDbText
  0
TEXT
  5
466
100
AcDbEntity
  8
図枠
  6
CONTINUOUS
 62
     6
100
AcDbText
 10
154.929482
 20
127.957437
 30
0.0
 40
20.0
  1
△
 41
1.18
  7
EXCADVERT
 72
     3
 11
154.929482
 21
107.957437
 31
0.0
100
AcDbText
  0
TEXT
  5
467
100
AcDbEntity
  8
図枠
  6
CONTINUOUS
 62
     6
100
AcDbText
 10
154.929482
 20
102.957437
 30
0.0
 40
20.0
  1
△
 41
1.18
  7
EXCADVERT
 72
     3
 11
154.929482
 21
82.957437
 31
0.0
100
AcDbText
  0
LINE
  5
468
100
AcDbEntity
  8
図枠
  6
CONTINUOUS
 62
     7
100
AcDbLine
 10
130.0
 20
55.0
 30
0.0
 11
2055.0
 21
55.0
 31
0.0
  0
LINE
  5
469
100
AcDbEntity
  8
図枠
  6
CONTINUOUS
 62
     7
100
AcDbLine
 10
2055.0
 20
55.0
 30
0.0
 11
2055.0
 21
1440.0
 31
0.0
  0
LINE
  5
46A
100
AcDbEntity
  8
図枠
  6
CONTINUOUS
 62
     7
100
AcDbLine
 10
130.0
 20
55.0
 30
0.0
 11
130.0
 21
1440.0
 31
0.0
  0
LINE
  5
46B
100
AcDbEntity
  8
図枠
  6
CONTINUOUS
 62
     7
100
AcDbLine
 10
1375.0
 20
237.5
 30
0.0
 11
2055.0
 21
237.5
 31
0.0
  0
LINE
  5
46C
100
AcDbEntity
  8
図枠
  6
CONTINUOUS
 62
     7
100
AcDbLine
 10
1375.0
 20
237.5
 30
0.0
 11
1375.0
 21
55.0
 31
0.0
  0
LINE
  5
46D
100
AcDbEntity
  8
図枠
  6
CONTINUOUS
 62
     7
100
AcDbLine
 10
130.0
 20
1440.0
 30
0.0
 11
2055.0
 21
1440.0
 31
0.0
  0
LINE
  5
46E
100
AcDbEntity
  8
図枠
  6
CONTINUOUS
 62
     6
100
AcDbLine
 10
1375.0
 20
105.0
 30
0.0
 11
2055.0
 21
105.0
 31
0.0
  0
LINE
  5
46F
100
AcDbEntity
  8
図枠
  6
CONTINUOUS
 62
     6
100
AcDbLine
 10
2055.0
 20
155.0
 30
0.0
 11
1375.0
 21
155.0
 31
0.0
  0
LINE
  5
470
100
AcDbEntity
  8
図枠
  6
CONTINUOUS
 62
     6
100
AcDbLine
 10
1890.0
 20
237.5
 30
0.0
 11
1890.0
 21
155.0
 31
0.0
  0
LINE
  5
471
100
AcDbEntity
  8
図枠
  6
CONTINUOUS
 62
     6
100
AcDbLine
 10
1953.75
 20
237.5
 30
0.0
 11
1953.75
 21
155.0
 31
0.0
  0
LINE
  5
472
100
AcDbEntity
  8
図枠
  6
CONTINUOUS
 62
     6
100
AcDbLine
 10
2055.0
 20
212.5
 30
0.0
 11
1890.0
 21
212.5
 31
0.0
  0
LINE
  5
473
100
AcDbEntity
  8
図枠
  6
CONTINUOUS
 62
     6
100
AcDbLine
 10
1755.0
 20
155.0
 30
0.0
 11
1755.0
 21
55.0
 31
0.0
  0
LINE
  5
474
100
AcDbEntity
  8
図枠
  6
CONTINUOUS
 62
     6
100
AcDbLine
 10
1780.0
 20
55.0
 30
0.0
 11
1780.0
 21
155.0
 31
0.0
  0
LINE
  5
475
100
AcDbEntity
  8
図枠
  6
CONTINUOUS
 62
     6
100
AcDbLine
 10
1400.0
 20
237.5
 30
0.0
 11
1400.0
 21
105.0
 31
0.0
  0
LINE
  5
476
100
AcDbEntity
  8
図枠
  6
CONTINUOUS
 62
     6
100
AcDbLine
 10
1755.0
 20
237.5
 30
0.0
 11
1755.0
 21
155.0
 31
0.0
  0
LINE
  5
477
100
AcDbEntity
  8
図枠
  6
CONTINUOUS
 62
     6
100
AcDbLine
 10
1730.0
 20
237.5
 30
0.0
 11
1730.0
 21
155.0
 31
0.0
  0
LINE
  5
478
100
AcDbEntity
  8
図枠
  6
CONTINUOUS
 62
     6
100
AcDbLine
 10
1552.5
 20
237.5
 30
0.0
 11
1552.5
 21
155.0
 31
0.0
  0
LINE
  5
479
100
AcDbEntity
  8
図枠
  6
CONTINUOUS
 62
     6
100
AcDbLine
 10
1577.5
 20
237.5
 30
0.0
 11
1577.5
 21
155.0
 31
0.0
  0
LINE
  5
47A
100
AcDbEntity
  8
図枠
  6
CONTINUOUS
 62
     6
100
AcDbLine
 10
1463.75
 20
237.5
 30
0.0
 11
1463.75
 21
155.0
 31
0.0
  0
LINE
  5
47B
100
AcDbEntity
  8
図枠
  6
CONTINUOUS
 62
     6
100
AcDbLine
 10
1488.75
 20
237.5
 30
0.0
 11
1488.75
 21
155.0
 31
0.0
  0
LINE
  5
47C
100
AcDbEntity
  8
図枠
  6
CONTINUOUS
 62
     6
100
AcDbLine
 10
530.0
 20
205.0
 30
0.0
 11
530.0
 21
55.0
 31
0.0
  0
LINE
  5
47D
100
AcDbEntity
  8
図枠
  6
CONTINUOUS
 62
     6
100
AcDbLine
 10
455.0
 20
205.0
 30
0.0
 11
455.0
 21
55.0
 31
0.0
  0
LINE
  5
47E
100
AcDbEntity
  8
図枠
  6
CONTINUOUS
 62
     6
100
AcDbLine
 10
180.0
 20
205.0
 30
0.0
 11
180.0
 21
55.0
 31
0.0
  0
LINE
  5
47F
100
AcDbEntity
  8
図枠
  6
CONTINUOUS
 62
     6
100
AcDbLine
 10
355.0
 20
205.0
 30
0.0
 11
355.0
 21
55.0
 31
0.0
  0
LINE
  5
480
100
AcDbEntity
  8
図枠
  6
CONTINUOUS
 62
     6
100
AcDbLine
 10
130.0
 20
155.0
 30
0.0
 11
580.0
 21
155.0
 31
0.0
  0
LINE
  5
481
100
AcDbEntity
  8
図枠
  6
CONTINUOUS
 62
     6
100
AcDbLine
 10
130.0
 20
130.0
 30
0.0
 11
580.0
 21
130.0
 31
0.0
  0
LINE
  5
482
100
AcDbEntity
  8
図枠
  6
CONTINUOUS
 62
     6
100
AcDbLine
 10
130.0
 20
105.0
 30
0.0
 11
580.0
 21
105.0
 31
0.0
  0
LINE
  5
483
100
AcDbEntity
  8
図枠
  6
CONTINUOUS
 62
     6
100
AcDbLine
 10
130.0
 20
80.0
 30
0.0
 11
580.0
 21
80.0
 31
0.0
  0
LINE
  5
484
100
AcDbEntity
  8
図枠
  6
CONTINUOUS
 62
     7
100
AcDbLine
 10
580.0
 20
205.0
 30
0.0
 11
580.0
 21
55.0
 31
0.0
  0
TEXT
  5
485
100
AcDbEntity
  8
図枠
  6
CONTINUOUS
 62
     2
100
AcDbText
 10
1898.125
 20
215.0
 30
0.0
 40
20.0
  1
尺度
 41
0.9975
  7
EXCADSTD
 72
     5
 11
1941.6635
 21
215.0
 31
0.0
100
AcDbText
  0
TEXT
  5
486
100
AcDbEntity
  8
図枠
  6
CONTINUOUS
 62
     2
100
AcDbText
 10
1968.125
 20
215.0
 30
0.0
 40
20.0
  1
投影法
 41
1.015
  7
EXCADSTD
 72
     5
 11
2040.625
 21
215.0
 31
0.0
100
AcDbText
  0
TEXT
  5
487
100
AcDbEntity
  8
図枠
  6
CONTINUOUS
 62
     2
100
AcDbText
 10
1959.625
 20
172.5
 30
0.0
 40
22.5
  1
第３角法
 41
0.835333
  7
EXCADSTD
 72
     5
 11
2049.125
 21
172.5
 31
0.0
100
AcDbText
  0
TEXT
  5
488
100
AcDbEntity
  8
図枠
  6
CONTINUOUS
 62
     2
100
AcDbText
 10
1387.5
 20
150.0
 30
0.0
 40
20.0
  1
品名
 41
1.125
  7
EXCADVERT
 72
     3
 11
1387.5
 21
110.0
 31
0.0
100
AcDbText
  0
TEXT
  5
489
100
AcDbEntity
  8
図枠
  6
CONTINUOUS
 62
     2
100
AcDbText
 10
1767.5
 20
151.25
 30
0.0
 40
20.0
  1
品番
 41
1.125
  7
EXCADVERT
 72
     3
 11
1767.5
 21
108.75
 31
0.0
100
AcDbText
  0
TEXT
  5
48A
100
AcDbEntity
  8
図枠
  6
CONTINUOUS
 62
     2
100
AcDbText
 10
1767.5
 20
100.0
 30
0.0
 40
20.0
  1
図番
 41
1.125
  7
EXCADVERT
 72
     3
 11
1767.5
 21
60.0
 31
0.0
100
AcDbText
  0
TEXT
  5
48B
100
AcDbEntity
  8
図枠
  6
CONTINUOUS
 62
     2
100
AcDbText
 10
1387.5
 20
226.25
 30
0.0
 40
23.75
  1
設計
  7
EXCADVERT
 72
     3
 11
1387.5
 21
166.25
 31
0.0
100
AcDbText
  0
TEXT
  5
48C
100
AcDbEntity
  8
図枠
  6
CONTINUOUS
 62
     2
100
AcDbText
 10
1476.25
 20
226.25
 30
0.0
 40
23.75
  1
製図
  7
EXCADVERT
 72
     3
 11
1476.25
 21
166.25
 31
0.0
100
AcDbText
  0
TEXT
  5
48D
100
AcDbEntity
  8
図枠
  6
CONTINUOUS
 62
     2
100
AcDbText
 10
1565.0
 20
226.25
 30
0.0
 40
23.75
  1
写図
  7
EXCADVERT
 72
     3
 11
1565.0
 21
166.25
 31
0.0
100
AcDbText
  0
TEXT
  5
48E
100
AcDbEntity
  8
図枠
  6
CONTINUOUS
 62
     2
100
AcDbText
 10
1742.5
 20
226.25
 30
0.0
 40
23.75
  1
承認
  7
EXCADVERT
 72
     3
 11
1742.5
 21
166.25
 31
0.0
100
AcDbText
  0
TEXT
  5
48F
100
AcDbEntity
  8
図枠
  6
CONTINUOUS
 62
     2
100
AcDbText
 10
135.5
 20
57.0
 30
0.0
 40
20.0
  1
符号
 41
0.84
  7
EXCADSTD
 72
     5
 11
172.164
 21
57.0
 31
0.0
100
AcDbText
  0
TEXT
  5
490
100
AcDbEntity
  8
図枠
  6
CONTINUOUS
 62
     2
100
AcDbText
 10
363.0
 20
57.0
 30
0.0
 40
20.0
  1
制改ＮＯ
 41
0.84
  7
EXCADSTD
 72
     5
 11
443.0
 21
57.0
 31
0.0
100
AcDbText
  0
TEXT
  5
491
100
AcDbEntity
  8
図枠
  6
CONTINUOUS
 62
     2
100
AcDbText
 10
474.0
 20
57.0
 30
0.0
 40
20.0
  1
日付
 41
0.84
  7
EXCADSTD
 72
     5
 11
510.664
 21
57.0
 31
0.0
100
AcDbText
  0
TEXT
  5
492
100
AcDbEntity
  8
図枠
  6
CONTINUOUS
 62
     2
100
AcDbText
 10
535.5
 20
58.0
 30
0.0
 40
20.0
  1
担当
 41
0.84
  7
EXCADSTD
 72
     5
 11
572.164
 21
58.0
 31
0.0
100
AcDbText
  0
LINE
  5
493
100
AcDbEntity
  8
図枠
  6
CONTINUOUS
 62
     6
100
AcDbLine
 10
1907.22549
 20
168.36088
 30
0.0
 11
1938.787142
 21
200.47641
 31
0.0
  0
TEXT
  5
494
100
AcDbEntity
  8
図枠
  6
CONTINUOUS
 62
     2
100
AcDbText
 10
1906.65
 20
180.8
 30
0.0
 40
20.0
  1
1
 41
0.5
  7
EXCADSTD
 72
     5
 11
1913.15
 21
180.8
 31
0.0
100
AcDbText
  0
TEXT
  5
495
100
AcDbEntity
  8
図枠
  6
CONTINUOUS
 62
     2
100
AcDbText
 10
211.498006
 20
57.500067
 30
0.0
 40
20.0
  1
変更事項
 41
1.165512
  7
EXCADSTD
 72
     5
 11
322.499131
 21
57.500067
 31
0.0
100
AcDbText
  0
TEXT
  5
496
100
AcDbEntity
  8
図枠
  6
CONTINUOUS
 62
     2
100
AcDbText
 10
621.25
 20
182.5
 30
0.0
 40
20.0
  1
寸法許容差
 41
2.037
  7
EXCADSTD
 72
     5
 11
863.75
 21
182.5
 31
0.0
100
AcDbText
  0
TEXT
  5
497
100
AcDbEntity
  8
図枠
  6
CONTINUOUS
 62
     2
100
AcDbText
 10
595.0
 20
160.0
 30
0.0
 40
15.0
  1
４０ｍｍ以下
 41
0.84
  7
EXCADSTD
 72
     5
 11
685.0
 21
160.0
 31
0.0
100
AcDbText
  0
TEXT
  5
498
100
AcDbEntity
  8
図枠
  6
CONTINUOUS
 62
     2
100
AcDbText
 10
595.0
 20
85.0
 30
0.0
 40
15.0
  1
１５１ｍｍ以上
 41
0.84
  7
EXCADSTD
 72
     5
 11
700.0
 21
85.0
 31
0.0
100
AcDbText
  0
LINE
  5
499
100
AcDbEntity
  8
図枠
  6
CONTINUOUS
 62
     7
100
AcDbLine
 10
905.0
 20
205.0
 30
0.0
 11
905.0
 21
55.0
 31
0.0
  0
LINE
  5
49A
100
AcDbEntity
  8
図枠
  6
CONTINUOUS
 62
     6
100
AcDbLine
 10
130.0
 20
180.0
 30
0.0
 11
905.0
 21
180.0
 31
0.0
  0
LINE
  5
49B
100
AcDbEntity
  8
図枠
  6
CONTINUOUS
 62
     7
100
AcDbLine
 10
130.0
 20
205.0
 30
0.0
 11
905.0
 21
205.0
 31
0.0
  0
TEXT
  5
49C
100
AcDbEntity
  8
図枠
  6
CONTINUOUS
 62
     6
100
AcDbText
 10
154.929482
 20
177.957437
 30
0.0
 40
20.0
  1
△
 41
1.18
  7
EXCADVERT
 72
     3
 11
154.929482
 21
157.957437
 31
0.0
100
AcDbText
  0
TEXT
  5
49D
100
AcDbEntity
  8
図枠
  6
CONTINUOUS
 62
     6
100
AcDbText
 10
154.929482
 20
202.957437
 30
0.0
 40
20.0
  1
△
 41
1.18
  7
EXCADVERT
 72
     3
 11
154.929482
 21
182.957437
 31
0.0
100
AcDbText
  0
LINE
  5
49E
100
AcDbEntity
  8
図枠
  6
CONTINUOUS
 62
     7
100
AcDbLine
 10
2085.0
 20
747.5
 30
0.0
 11
2055.0
 21
747.5
 31
0.0
  0
TEXT
  5
49F
100
AcDbEntity
  8
図枠
  6
CONTINUOUS
 62
     2
100
AcDbText
 10
1927.65
 20
165.8
 30
0.0
 40
20.0
  1
５
 41
0.84
  7
EXCADSTD
 72
     5
 11
1943.65
 21
165.8
 31
0.0
100
AcDbText
  0
LINE
  5
4A0
100
AcDbEntity
  8
図枠
  6
CONTINUOUS
 62
     6
100
AcDbLine
 10
1641.25
 20
237.5
 30
0.0
 11
1641.25
 21
155.0
 31
0.0
  0
LINE
  5
4A1
100
AcDbEntity
  8
図枠
  6
CONTINUOUS
 62
     6
100
AcDbLine
 10
1666.25
 20
237.5
 30
0.0
 11
1666.25
 21
155.0
 31
0.0
  0
TEXT
  5
4A2
100
AcDbEntity
  8
図枠
  6
CONTINUOUS
 62
     2
100
AcDbText
 10
1653.75
 20
226.25
 30
0.0
 40
23.75
  1
検図
  7
EXCADVERT
 72
     3
 11
1653.75
 21
166.25
 31
0.0
100
AcDbText
  0
TEXT
  5
4A3
100
AcDbEntity
  8
図枠
  6
CONTINUOUS
 62
     2
100
AcDbText
 10
595.0
 20
135.0
 30
0.0
 40
15.0
  1
４１ｍｍ以上５０ｍｍまで
 41
0.84
  7
EXCADSTD
 72
     5
 11
775.0
 21
135.0
 31
0.0
100
AcDbText
  0
TEXT
  5
4A4
100
AcDbEntity
  8
図枠
  6
CONTINUOUS
 62
     2
100
AcDbText
 10
595.0
 20
110.0
 30
0.0
 40
15.0
  1
５１ｍｍ以上１５０ｍｍまで
 41
0.84
  7
EXCADSTD
 72
     5
 11
790.0
 21
110.0
 31
0.0
100
AcDbText
  0
TEXT
  5
4A5
100
AcDbEntity
  8
図枠
  6
CONTINUOUS
 62
     2
100
AcDbText
 10
589.0
 20
60.0
 30
0.0
 40
15.0
  1
１ｍｍ未満は切上げ、最大は２５ｍｍとする。
 41
0.8
  7
EXCADSTD
 72
     5
 11
888.999999
 21
60.0
 31
0.0
100
AcDbText
  0
CIRCLE
  5
4A6
100
AcDbEntity
  8
図枠
  6
CONTINUOUS
 62
     6
100
AcDbCircle
 10
505.0
 20
92.5
 30
0.0
 40
0.5
  0
CIRCLE
  5
4A7
100
AcDbEntity
  8
図枠
  6
CONTINUOUS
 62
     6
100
AcDbCircle
 10
480.0
 20
92.5
 30
0.0
 40
0.5
  0
CIRCLE
  5
4A8
100
AcDbEntity
  8
図枠
  6
CONTINUOUS
 62
     6
100
AcDbCircle
 10
505.0
 20
117.5
 30
0.0
 40
0.5
  0
CIRCLE
  5
4A9
100
AcDbEntity
  8
図枠
  6
CONTINUOUS
 62
     6
100
AcDbCircle
 10
480.0
 20
117.5
 30
0.0
 40
0.5
  0
CIRCLE
  5
4AA
100
AcDbEntity
  8
図枠
  6
CONTINUOUS
 62
     6
100
AcDbCircle
 10
505.0
 20
142.5
 30
0.0
 40
0.5
  0
CIRCLE
  5
4AB
100
AcDbEntity
  8
図枠
  6
CONTINUOUS
 62
     6
100
AcDbCircle
 10
480.0
 20
142.5
 30
0.0
 40
0.5
  0
CIRCLE
  5
4AC
100
AcDbEntity
  8
図枠
  6
CONTINUOUS
 62
     6
100
AcDbCircle
 10
505.0
 20
167.5
 30
0.0
 40
0.5
  0
CIRCLE
  5
4AD
100
AcDbEntity
  8
図枠
  6
CONTINUOUS
 62
     6
100
AcDbCircle
 10
480.0
 20
167.5
 30
0.0
 40
0.5
  0
CIRCLE
  5
4AE
100
AcDbEntity
  8
図枠
  6
CONTINUOUS
 62
     6
100
AcDbCircle
 10
505.0
 20
192.5
 30
0.0
 40
0.5
  0
CIRCLE
  5
4AF
100
AcDbEntity
  8
図枠
  6
CONTINUOUS
 62
     6
100
AcDbCircle
 10
480.0
 20
192.5
 30
0.0
 40
0.5
  0
CIRCLE
  5
4B0
100
AcDbEntity
  8
図枠
  6
CONTINUOUS
 62
     6
100
AcDbCircle
 10
505.0
 20
92.5
 30
0.0
 40
0.5
  0
CIRCLE
  5
4B1
100
AcDbEntity
  8
図枠
  6
CONTINUOUS
 62
     6
100
AcDbCircle
 10
480.0
 20
92.5
 30
0.0
 40
0.5
  0
LINE
  5
4B2
100
AcDbEntity
  8
図枠
  6
CONTINUOUS
 62
     6
100
AcDbLine
 10
914.0
 20
79.0
 30
0.0
 11
1365.0
 21
79.0
 31
0.0
  0
TEXT
  5
4B3
100
AcDbEntity
  8
図枠
  6
CONTINUOUS
 62
     2
100
AcDbText
 10
916.5
 20
82.35
 30
0.0
 40
20.0
  1
注１．外観・寸法・性能及び品質は、別途定める製品規格による。
 41
0.6356
  7
EXCADSTD
 72
     5
 11
1370.499991
 21
82.35
 31
0.0
100
AcDbText
  0
TEXT
  5
4B4
100
AcDbEntity
  8
図枠
  6
CONTINUOUS
 62
     2
100
AcDbText
 10
916.5
 20
110.7
 30
0.0
 40
20.0
  1
注２．(　)内寸法は参考寸法を表わす。
 41
0.608809
  7
EXCADSTD
 72
     5
 11
1186.499995
 21
110.7
 31
0.0
100
AcDbText
  0
TEXT
  5
4B5
100
AcDbEntity
  8
図枠
  6
CONTINUOUS
 62
     2
100
AcDbText
 10
1424.25
 20
113.5
 30
0.0
 40
30.0
  1
丸形洗面器
 41
0.91
  7
EXCADSTD
 72
     5
 11
1586.75
 21
113.5
 31
0.0
100
AcDbText
  0
LINE
  5
4B6
100
AcDbEntity
  8
図枠
  6
CONTINUOUS
 62
     6
100
AcDbLine
 10
914.0
 20
107.35
 30
0.0
 11
1365.0
 21
107.35
 31
0.0
  0
TEXT
  5
4B7
100
AcDbEntity
  8
図枠
  6
CONTINUOUS
 62
     2
100
AcDbText
 10
916.5
 20
139.05
 30
0.0
 40
20.0
  1
注３．ロゴマーク・品番及び色番の表示は無しとする。
 41
0.63672
  7
EXCADSTD
 72
     5
 11
1295.499993
 21
139.05
 31
0.0
100
AcDbText
  0
LINE
  5
4B8
100
AcDbEntity
  8
図枠
  6
CONTINUOUS
 62
     6
100
AcDbLine
 10
914.0
 20
135.7
 30
0.0
 11
1365.0
 21
135.7
 31
0.0
  0
TEXT
  5
4B9
100
AcDbEntity
  8
図枠
  6
CONTINUOUS
 62
     2
100
AcDbText
 10
1823.7
 20
114.2
 30
0.0
 40
30.0
  1
Ｌ４２４
 41
0.826
  7
EXCADSTD
 72
     5
 11
1941.7
 21
114.2
 31
0.0
100
AcDbText
  0
TEXT
  5
4BA
100
AcDbEntity
  8
図枠
  6
CONTINUOUS
 62
     6
100
AcDbText
 10
1489.672058
 20
158.125037
 30
0.0
 40
12.5
  1
１６
 41
0.7392
  7
EXCADSTD
 72
     5
 11
1509.837257
 21
158.125037
 31
0.0
100
AcDbText
  0
CIRCLE
  5
4BB
100
AcDbEntity
  8
図枠
  6
CONTINUOUS
 62
     6
100
AcDbCircle
 10
1511.4
 20
164.65
 30
0.0
 40
0.5
  0
CIRCLE
  5
4BC
100
AcDbEntity
  8
図枠
  6
CONTINUOUS
 62
     6
100
AcDbCircle
 10
1530.35
 20
164.65
 30
0.0
 40
0.5
  0
TEXT
  5
4BD
100
AcDbEntity
  8
図枠
  6
CONTINUOUS
 62
     2
100
AcDbText
 10
1500.125
 20
194.75
 30
0.0
 40
20.0
  1
間瀬
 41
0.861
  7
EXCADSTD
 72
     5
 11
1537.7056
 21
194.75
 31
0.0
100
AcDbText
  0
TEXT
  5
4BE
100
AcDbEntity
  8
図枠
  6
CONTINUOUS
 62
     6
100
AcDbText
 10
1530.922058
 20
158.075037
 30
0.0
 40
12.5
  1
２１
 41
0.7392
  7
EXCADSTD
 72
     5
 11
1551.087257
 21
158.075037
 31
0.0
100
AcDbText
  0
TEXT
  5
4BF
100
AcDbEntity
  8
図枠
  6
CONTINUOUS
 62
     6
100
AcDbText
 10
1509.722058
 20
158.325037
 30
0.0
 40
12.5
  1
１０
 41
0.7392
  7
EXCADSTD
 72
     5
 11
1529.887257
 21
158.325037
 31
0.0
100
AcDbText
  0
TEXT
  5
4C0
100
AcDbEntity
  8
図枠
  6
CONTINUOUS
 62
     2
100
AcDbText
 10
1779.875
 20
194.75
 30
0.0
 40
20.0
  1
堀
 41
0.945
  7
EXCADSTD
 72
     5
 11
1797.875
 21
194.75
 31
0.0
100
AcDbText
  0
TEXT
  5
4C1
100
AcDbEntity
  8
図枠
  6
CONTINUOUS
 62
     2
100
AcDbText
 10
1824.075
 20
266.2
 30
0.0
 40
30.0
  1
容量：２.４Ｌ
 41
0.769381
  7
EXCADSTD
 72
     5
 11
2011.325
 21
266.2
 31
0.0
100
AcDbText
  0
CIRCLE
  5
4C2
100
AcDbEntity
  8
取付ビスセット
  6
CONTINUOUS
 62
     3
100
AcDbCircle
 10
1134.869029
 20
426.75
 30
0.0
 40
27.340177
  0
LINE
  5
4C3
100
AcDbEntity
  8
取付ビスセット
  6
CONTINUOUS
 62
     3
100
AcDbLine
 10
1095.685858
 20
364.196778
 30
0.0
 11
1061.984932
 21
364.196778
 31
0.0
  0
LINE
  5
4C4
100
AcDbEntity
  8
取付ビスセット
  6
CONTINUOUS
 62
     3
100
AcDbLine
 10
1120.35549
 20
403.580139
 30
0.0
 11
1095.685858
 21
364.196778
 31
0.0
  0
ARC
  5
4C5
100
AcDbEntity
  8
取付ビスセット
  6
CONTINUOUS
 62
     7
100
AcDbCircle
 10
1699.087689
 20
1208.969805
 30
0.0
 40
10.0
100
AcDbArc
 50
90.0
 51
180.0
  0
LINE
  5
4C6
100
AcDbEntity
  8
取付ビスセット
  6
CONTINUOUS
 62
     7
100
AcDbLine
 10
1794.087689
 20
1218.969805
 30
0.0
 11
1699.087689
 21
1218.969805
 31
0.0
  0
ARC
  5
4C7
100
AcDbEntity
  8
取付ビスセット
  6
CONTINUOUS
 62
     7
100
AcDbCircle
 10
1794.087689
 20
1208.969805
 30
0.0
 40
10.0
100
AcDbArc
 50
0.000009
 51
90.0
  0
LINE
  5
4C8
100
AcDbEntity
  8
取付ビスセット
  6
CONTINUOUS
 62
     7
100
AcDbLine
 10
1804.087689
 20
1208.969805
 30
0.0
 11
1804.087689
 21
1188.969805
 31
0.0
  0
ARC
  5
4C9
100
AcDbEntity
  8
取付ビスセット
  6
CONTINUOUS
 62
     7
100
AcDbCircle
 10
1794.087689
 20
1188.969805
 30
0.0
 40
10.0
100
AcDbArc
 50
270.0
 51
0.000009
  0
LINE
  5
4CA
100
AcDbEntity
  8
取付ビスセット
  6
CONTINUOUS
 62
     7
100
AcDbLine
 10
1794.087689
 20
1178.969805
 30
0.0
 11
1699.087689
 21
1178.969805
 31
0.0
  0
ARC
  5
4CB
100
AcDbEntity
  8
取付ビスセット
  6
CONTINUOUS
 62
     7
100
AcDbCircle
 10
1699.087689
 20
1188.969805
 30
0.0
 40
10.0
100
AcDbArc
 50
180.0
 51
270.0
  0
LINE
  5
4CC
100
AcDbEntity
  8
取付ビスセット
  6
CONTINUOUS
 62
     7
100
AcDbLine
 10
1689.087689
 20
1208.969805
 30
0.0
 11
1689.087689
 21
1188.969805
 31
0.0
  0
ARC
  5
4CD
100
AcDbEntity
  8
取付ビスセット
  6
CONTINUOUS
 62
     7
100
AcDbCircle
 10
1661.587689
 20
1148.969805
 30
0.0
 40
15.0
100
AcDbArc
 50
201.082547
 51
270.0
  0
ARC
  5
4CE
100
AcDbEntity
  8
取付ビスセット
  6
CONTINUOUS
 62
     7
100
AcDbCircle
 10
1831.587689
 20
1148.969805
 30
0.0
 40
15.0
100
AcDbArc
 50
270.0
 51
338.917453
  0
ARC
  5
4CF
100
AcDbEntity
  8
取付ビスセット
  6
CONTINUOUS
 62
     7
100
AcDbCircle
 10
1746.587689
 20
1648.969805
 30
0.0
 40
345.0
100
AcDbArc
 50
246.755018
 51
295.463049
  0
ARC
  5
4D0
100
AcDbEntity
  8
取付ビスセット
  6
CONTINUOUS
 62
     7
100
AcDbCircle
 10
1746.587689
 20
1648.969805
 30
0.0
 40
375.0
100
AcDbArc
 50
246.755018
 51
295.463049
  0
ARC
  5
4D1
100
AcDbEntity
  8
取付ビスセット
  6
CONTINUOUS
 62
     7
100
AcDbCircle
 10
1746.587689
 20
1648.969805
 30
0.0
 40
385.0
100
AcDbArc
 50
246.755018
 51
295.463049
  0
ARC
  5
4D2
100
AcDbEntity
  8
取付ビスセット
  6
CONTINUOUS
 62
     7
100
AcDbCircle
 10
1746.587689
 20
1648.969805
 30
0.0
 40
515.0
100
AcDbArc
 50
249.507043
 51
258.917331
  0
ARC
  5
4D3
100
AcDbEntity
  8
取付ビスセット
  6
CONTINUOUS
 62
     7
100
AcDbCircle
 10
1746.587689
 20
1648.969805
 30
0.0
 40
575.0
100
AcDbArc
 50
250.047463
 51
291.610615
  0
ARC
  5
4D4
100
AcDbEntity
  8
取付ビスセット
  6
CONTINUOUS
 62
     7
100
AcDbCircle
 10
1746.587689
 20
1648.969805
 30
0.0
 40
515.0
100
AcDbArc
 50
281.082669
 51
290.418448
  0
LINE
  5
4D5
100
AcDbEntity
  8
取付ビスセット
  6
EXLTYPE3
 62
     6
100
AcDbLine
 10
1746.587689
 20
1353.562688
 30
0.0
 11
1746.587689
 21
1045.0
 31
0.0
  0
LINE
  5
4D6
100
AcDbEntity
  8
取付ビスセット
  6
EXLTYPE3
 62
     6
100
AcDbLine
 10
1678.0
 20
1198.969805
 30
0.0
 11
1817.5
 21
1198.969805
 31
0.0
  0
LINE
  5
4D7
100
AcDbEntity
  8
取付ビスセット
  6
CONTINUOUS
 62
     7
100
AcDbLine
 10
1661.587689
 20
1133.969805
 30
0.0
 11
1831.587689
 21
1133.969805
 31
0.0
  0
LINE
  5
4D8
100
AcDbEntity
  8
取付ビスセット
  6
CONTINUOUS
 62
     7
100
AcDbLine
 10
1716.587689
 20
546.77754
 30
0.0
 11
1716.587689
 21
586.77754
 31
0.0
  0
LINE
  5
4D9
100
AcDbEntity
  8
取付ビスセット
  6
CONTINUOUS
 62
     7
100
AcDbLine
 10
1756.587689
 20
546.77754
 30
0.0
 11
1756.587689
 21
586.77754
 31
0.0
  0
ARC
  5
4DA
100
AcDbEntity
  8
取付ビスセット
  6
CONTINUOUS
 62
     7
100
AcDbCircle
 10
1840.856449
 20
551.77754
 30
0.0
 40
25.0
100
AcDbArc
 50
270.0
 51
352.466746
  0
ARC
  5
4DB
100
AcDbEntity
  8
取付ビスセット
  6
CONTINUOUS
 62
     7
100
AcDbCircle
 10
1801.587689
 20
536.77754
 30
0.0
 40
10.0
100
AcDbArc
 50
26.565051
 51
90.0
  0
ARC
  5
4DC
100
AcDbEntity
  8
取付ビスセット
  6
CONTINUOUS
 62
     7
100
AcDbCircle
 10
1823.948369
 20
536.77754
 30
0.0
 40
10.0
100
AcDbArc
 50
206.565051
 51
270.0
  0
LINE
  5
4DD
100
AcDbEntity
  8
取付ビスセット
  6
CONTINUOUS
 62
     7
100
AcDbLine
 10
1810.531961
 20
541.249676
 30
0.0
 11
1815.004097
 21
532.305404
 31
0.0
  0
ARC
  5
4DE
100
AcDbEntity
  8
取付ビスセット
  6
CONTINUOUS
 62
     7
100
AcDbCircle
 10
1800.560437
 20
536.77754
 30
0.0
 40
50.0
100
AcDbArc
 50
55.103266
 51
90.0
  0
LINE
  5
4DF
100
AcDbEntity
  8
取付ビスセット
  6
CONTINUOUS
 62
     7
100
AcDbLine
 10
1841.30384
 20
669.575724
 30
0.0
 11
1829.165393
 21
577.786764
 31
0.0
  0
LINE
  5
4E0
100
AcDbEntity
  8
取付ビスセット
  6
CONTINUOUS
 62
     7
100
AcDbLine
 10
1880.958597
 20
664.33166
 30
0.0
 11
1865.640672
 21
548.5
 31
0.0
  0
ARC
  5
4E1
100
AcDbEntity
  8
取付ビスセット
  6
CONTINUOUS
 62
     7
100
AcDbCircle
 10
1627.835545
 20
551.77754
 30
0.0
 40
25.0
100
AcDbArc
 50
217.097829
 51
270.0
  0
ARC
  5
4E2
100
AcDbEntity
  8
取付ビスセット
  6
CONTINUOUS
 62
     7
100
AcDbCircle
 10
1671.587689
 20
536.77754
 30
0.0
 40
10.0
100
AcDbArc
 50
90.0
 51
153.434949
  0
ARC
  5
4E3
100
AcDbEntity
  8
取付ビスセット
  6
CONTINUOUS
 62
     7
100
AcDbCircle
 10
1649.227009
 20
536.77754
 30
0.0
 40
10.0
100
AcDbArc
 50
270.0
 51
333.434949
  0
LINE
  5
4E4
100
AcDbEntity
  8
取付ビスセット
  6
CONTINUOUS
 62
     7
100
AcDbLine
 10
1662.643417
 20
541.249676
 30
0.0
 11
1658.171281
 21
532.305404
 31
0.0
  0
ARC
  5
4E5
100
AcDbEntity
  8
取付ビスセット
  6
CONTINUOUS
 62
     7
100
AcDbCircle
 10
1670.759187
 20
536.77754
 30
0.0
 40
50.0
100
AcDbArc
 50
90.0
 51
138.848123
  0
ARC
  5
4E6
100
AcDbEntity
  8
取付ビスセット
  6
CONTINUOUS
 62
     7
100
AcDbCircle
 10
9583.963212
 20
6568.475767
 30
0.0
 40
10000.0
100
AcDbArc
 50
216.511144
 51
217.097829
  0
ARC
  5
4E7
100
AcDbEntity
  8
取付ビスセット
  6
CONTINUOUS
 62
     7
100
AcDbCircle
 10
9583.963212
 20
6568.475767
 30
0.0
 40
9960.0
100
AcDbArc
 50
216.511144
 51
217.03399
  0
LINE
  5
4E8
100
AcDbEntity
  8
取付ビスセット
  6
CONTINUOUS
 62
     7
100
AcDbLine
 10
1800.560437
 20
586.77754
 30
0.0
 11
1670.759187
 21
586.77754
 31
0.0
  0
LINE
  5
4E9
100
AcDbEntity
  8
取付ビスセット
  6
CONTINUOUS
 62
     7
100
AcDbLine
 10
1627.835545
 20
526.77754
 30
0.0
 11
1875.460332
 21
526.77754
 31
0.0
  0
LINE
  5
4EA
100
AcDbEntity
  8
取付ビスセット
  6
EXLTYPE3
 62
     6
100
AcDbLine
 10
1736.587689
 20
511.27754
 30
0.0
 11
1736.587689
 21
608.5
 31
0.0
  0
LINE
  5
4EB
100
AcDbEntity
  8
取付ビスセット
  6
CONTINUOUS
 62
     7
100
AcDbLine
 10
1801.587689
 20
546.77754
 30
0.0
 11
1671.587689
 21
546.77754
 31
0.0
  0
ENDSEC
  0
SECTION
  2
OBJECTS
  0
DICTIONARY
  5
19
100
AcDbDictionary
  3
ACAD_GROUP
350
1A
  3
ACAD_MLINESTYLE
350
1B
  0
DICTIONARY
  5
1A
102
{ACAD_REACTORS
330
19
102
}
100
AcDbDictionary
  0
DICTIONARY
  5
1B
102
{ACAD_REACTORS
330
19
102
}
100
AcDbDictionary
  3
STANDARD
350
1C
  0
MLINESTYLE
  5
1C
102
{ACAD_REACTORS
330
1B
102
}
100
AcDbMlineStyle
  2
Standard
 70
     0
  3

 62
     0
 51
90.0
 52
90.0
 71
     2
 49
0.5
 62
   256
  6
ByLayer
 49
-0.5
 62
   256
  6
ByLayer
  0
ENDSEC
  0
EOF
