  0
SECTION
  2
HEADER
  9
$ACADVER
  1
AC1014
  9
$ACADMAINTVER
 70
     0
  9
$DWGCODEPAGE
  3
ANSI_932
  9
$INSBASE
 10
0.0
 20
0.0
 30
0.0
  9
$EXTMIN
 10
0.4
 20
10.0
 30
0.0
  9
$EXTMAX
 10
198.0
 20
286.0
 30
0.0
  9
$LIMMIN
 10
0.0
 20
0.0
  9
$LIMMAX
 10
210.0
 20
297.0
  9
$ORTHOMODE
 70
     0
  9
$REGENMODE
 70
     1
  9
$FILLMODE
 70
     1
  9
$QTEXTMODE
 70
     0
  9
$MIRRTEXT
 70
     1
  9
$DRAGMODE
 70
     2
  9
$LTSCALE
 40
1.0
  9
$OSMODE
 70
     0
  9
$ATTMODE
 70
     1
  9
$TEXTSIZE
 40
0.2
  9
$TRACEWID
 40
0.05
  9
$TEXTSTYLE
  7
STANDARD
  9
$CLAYER
  8
LAY-2
  9
$CELTYPE
  6
CONTINUOUS
  9
$CECOLOR
 62
   256
  9
$CELTSCALE
 40
1.0
  9
$DELOBJ
 70
     1
  9
$DISPSILH
 70
     0
  9
$DIMSCALE
 40
1.0
  9
$DIMASZ
 40
0.18
  9
$DIMEXO
 40
0.0625
  9
$DIMDLI
 40
0.38
  9
$DIMRND
 40
0.0
  9
$DIMDLE
 40
0.0
  9
$DIMEXE
 40
0.18
  9
$DIMTP
 40
0.0
  9
$DIMTM
 40
0.0
  9
$DIMTXT
 40
0.18
  9
$DIMCEN
 40
0.09
  9
$DIMTSZ
 40
0.0
  9
$DIMTOL
 70
     0
  9
$DIMLIM
 70
     0
  9
$DIMTIH
 70
     1
  9
$DIMTOH
 70
     1
  9
$DIMSE1
 70
     0
  9
$DIMSE2
 70
     0
  9
$DIMTAD
 70
     0
  9
$DIMZIN
 70
     0
  9
$DIMBLK
  1

  9
$DIMASO
 70
     1
  9
$DIMSHO
 70
     1
  9
$DIMPOST
  1

  9
$DIMAPOST
  1

  9
$DIMALT
 70
     0
  9
$DIMALTD
 70
     2
  9
$DIMALTF
 40
25.4
  9
$DIMLFAC
 40
1.0
  9
$DIMTOFL
 70
     0
  9
$DIMTVP
 40
0.0
  9
$DIMTIX
 70
     0
  9
$DIMSOXD
 70
     0
  9
$DIMSAH
 70
     0
  9
$DIMBLK1
  1

  9
$DIMBLK2
  1

  9
$DIMSTYLE
  2
STANDARD
  9
$DIMCLRD
 70
     0
  9
$DIMCLRE
 70
     0
  9
$DIMCLRT
 70
     0
  9
$DIMTFAC
 40
1.0
  9
$DIMGAP
 40
0.09
  9
$DIMJUST
 70
     0
  9
$DIMSD1
 70
     0
  9
$DIMSD2
 70
     0
  9
$DIMTOLJ
 70
     1
  9
$DIMTZIN
 70
     0
  9
$DIMALTZ
 70
     0
  9
$DIMALTTZ
 70
     0
  9
$DIMFIT
 70
     3
  9
$DIMUPT
 70
     0
  9
$DIMUNIT
 70
     2
  9
$DIMDEC
 70
     4
  9
$DIMTDEC
 70
     4
  9
$DIMALTU
 70
     2
  9
$DIMALTTD
 70
     2
  9
$DIMTXSTY
  7
STANDARD
  9
$DIMAUNIT
 70
     0
  9
$LUNITS
 70
     2
  9
$LUPREC
 70
     4
  9
$SKETCHINC
 40
0.1
  9
$FILLETRAD
 40
0.0
  9
$AUNITS
 70
     0
  9
$AUPREC
 70
     0
  9
$MENU
  1
acad
  9
$ELEVATION
 40
0.0
  9
$PELEVATION
 40
0.0
  9
$THICKNESS
 40
0.0
  9
$LIMCHECK
 70
     0
  9
$BLIPMODE
 70
     1
  9
$CHAMFERA
 40
0.0
  9
$CHAMFERB
 40
0.0
  9
$CHAMFERC
 40
0.0
  9
$CHAMFERD
 40
0.0
  9
$SKPOLY
 70
     0
  9
$TDCREATE
 40
2455889.368438600
  9
$TDUPDATE
 40
2455889.368438600
  9
$TDINDWG
 40
0.0000000000
  9
$TDUSRTIMER
 40
0.0000000000
  9
$USRTIMER
 70
     1
  9
$ANGBASE
 50
0.0
  9
$ANGDIR
 70
     0
  9
$PDMODE
 70
     0
  9
$PDSIZE
 40
0.0
  9
$PLINEWID
 40
0.0
  9
$COORDS
 70
     1
  9
$SPLFRAME
 70
     0
  9
$SPLINETYPE
 70
     6
  9
$SPLINESEGS
 70
     8
  9
$ATTDIA
 70
     0
  9
$ATTREQ
 70
     1
  9
$HANDLING
 70
     1
  9
$HANDSEED
  5
4DB
  9
$SURFTAB1
 70
     6
  9
$SURFTAB2
 70
     6
  9
$SURFTYPE
 70
     6
  9
$SURFU
 70
     6
  9
$SURFV
 70
     6
  9
$UCSNAME
  2

  9
$UCSORG
 10
0.0
 20
0.0
 30
0.0
  9
$UCSXDIR
 10
1.0
 20
0.0
 30
0.0
  9
$UCSYDIR
 10
0.0
 20
1.0
 30
0.0
  9
$PUCSNAME
  2

  9
$PUCSORG
 10
0.0
 20
0.0
 30
0.0
  9
$PUCSXDIR
 10
1.0
 20
0.0
 30
0.0
  9
$PUCSYDIR
 10
0.0
 20
1.0
 30
0.0
  9
$USERI1
 70
     0
  9
$USERI2
 70
     0
  9
$USERI3
 70
     0
  9
$USERI4
 70
     0
  9
$USERI5
 70
     0
  9
$USERR1
 40
0.0
  9
$USERR2
 40
0.0
  9
$USERR3
 40
0.0
  9
$USERR4
 40
0.0
  9
$USERR5
 40
0.0
  9
$WORLDVIEW
 70
     1
  9
$SHADEDGE
 70
     3
  9
$SHADEDIF
 70
    70
  9
$TILEMODE
 70
     1
  9
$MAXACTVP
 70
    16
  9
$PINSBASE
 10
0.0
 20
0.0
 30
0.0
  9
$PLIMCHECK
 70
     0
  9
$PEXTMIN
 10
1.000000E+20
 20
1.000000E+20
 30
1.000000E+20
  9
$PEXTMAX
 10
-1.000000E+20
 20
-1.000000E+20
 30
-1.000000E+20
  9
$PLIMMIN
 10
0.0
 20
0.0
  9
$PLIMMAX
 10
12.0
 20
9.0
  9
$UNITMODE
 70
     0
  9
$VISRETAIN
 70
     0
  9
$PLINEGEN
 70
     1
  9
$PSLTSCALE
 70
     0
  9
$TREEDEPTH
 70
  3020
  9
$PICKSTYLE
 70
     1
  9
$CMLSTYLE
  2
Standard
  9
$CMLJUST
 70
     0
  9
$CMLSCALE
 40
1.0
  9
$PROXYGRAPHICS
 70
     0
  9
$MEASUREMENT
 70
     0
  0
ENDSEC
  0
SECTION
  2
CLASSES
  0
CLASS
  1
LWPOLYLINE
  2
AcDbPolyline
  3
"AutoCAD"
 90
        0
280
     0
281
     1
  0
CLASS
  1
IMAGE
  2
AcDbRasterImage
  3
ISM
 90
      127
280
     0
281
     1
  0
CLASS
  1
OLE2FRAME
  2
AcDbOle2Frame
  3
""
 90
        0
280
     0
281
     1
  0
CLASS
  1
HATCH
  2
AcDbHatch
  3
"ACAD_SEDONA"
 90
        0
280
     0
281
     1
  0
CLASS
  1
DICTIONARYVAR
  2
AcDbDictionaryVar
  3
"AutoCAD"
 90
        0
280
     0
281
     0
  0
CLASS
  1
RASTERVARIABLES
  2
AcDbRasterVariables
  3
ISM
 90
        0
280
     0
281
     0
  0
CLASS
  1
IMAGEDEF
  2
AcDbRasterImageDef
  3
ISM
 90
        0
280
     0
281
     0
  0
CLASS
  1
IMAGEDEF_REACTOR
  2
AcDbRasterImageDefReactor
  3
ISM
 90
        1
280
     0
281
     0
  0
CLASS
  1
IDBUFFER
  2
AcDbIdBuffer
  3
"Acad"
 90
        0
280
     0
281
     0
  0
CLASS
  1
SPATIAL_FILTER
  2
AcDbSpatialFilter
  3
"Acad"
 90
        0
280
     0
281
     0
  0
CLASS
  1
XRECORD
  2
AcDbXrecord
  3
"<Built In>"
 90
        0
280
     0
281
     0
  0
CLASS
  1
SORTENTSTABLE
  2
AcDbSortentsTable
  3
"AutoCAD"
 90
        0
280
     0
281
     0
  0
CLASS
  1
LAYER_INDEX
  2
AcDbLayerIndex
  3
"Acad"
 90
        0
280
     0
281
     0
  0
CLASS
  1
SPATIAL_INDEX
  2
AcDbSpatialIndex
  3
"Acad"
 90
        0
280
     0
281
     0
  0
CLASS
  1
OBJECT_PTR
  2
CAseDLPNTableRecord
  3
"ASE-LPNTableRecord"
 90
        1
280
     0
281
     0
  0
CLASS
  1
LAYOUT
  2
AcDbLayout
  3
"AutoCAD 2000"
 90
        1
280
     0
281
     0
  0
CLASS
  1
PLOTSETTINGS
  2
AcDbPlotSettings
  3
"AutoCAD 2000"
 90
        1
280
     0
281
     0
  0
CLASS
  1
ACDBDICTIONARYWDFLT
  2
AcDbDictionaryWithDefault
  3
"AutoCAD 2000"
 90
        1
280
     0
281
     0
  0
CLASS
  1
ACDBPLACEHOLDER
  2
AcDbPlaceHolder
  3
"AutoCAD 2000"
 90
        1
280
     0
281
     0
  0
CLASS
  1
VBA_PROJECT
  2
AcDbVbaProject
  3
"acadvba"
 90
        1
280
     0
281
     0
  0
CLASS
  1
WIPEOUT
  2
AcDbWipeout
  3
WipeOut|AutoCAD Express Tool|expresstools@autodesk.com
 90
      127
280
     0
281
     1
  0
CLASS
  1
WIPEOUTVARIABLES
  2
AcDbWipeoutVariables
  3
WipeOut|AutoCAD Express Tool|expresstools@autodesk.com
 90
        0
280
     0
281
     0
  0
CLASS
  1
RTEXT
  2
RText
  3
RText|AutoCAD Express Tool|expresstools@autodesk.com
 90
        0
280
     0
281
     1
  0
CLASS
  1
ARCALIGNEDTEXT
  2
AcDbArcAlignedText
  3
ATEXT|AutoCAD Express Tool|expresstools@autodesk.com
 90
        0
280
     0
281
     1
  0
ENDSEC
  0
SECTION
  2
TABLES
  0
TABLE
  2
VPORT
  5
7
100
AcDbSymbolTable
 70
     1
  0
VPORT
  5
15
100
AcDbSymbolTableRecord
100
AcDbViewportTableRecord
  2
*ACTIVE
 70
     0
 10
0.0
 20
0.0
 11
1.0
 21
1.0
 12
198.4
 22
296.0
 13
0.0
 23
0.0
 14
1.0
 24
1.0
 15
0.0
 25
0.0
 16
0.0
 26
0.0
 36
1.0
 17
0.0
 27
0.0
 37
0.0
 40
552.0
 41
1.722533
 42
50.0
 43
0.0
 44
0.0
 50
0.0
 51
0.0
 71
     0
 72
   100
 73
     1
 74
     1
 75
     0
 76
     0
 77
     0
 78
     0
  0
ENDTAB
  0
TABLE
  2
LTYPE
  5
4
100
AcDbSymbolTable
 70
     9
  0
LTYPE
  5
11
100
AcDbSymbolTableRecord
100
AcDbLinetypeTableRecord
  2
BYBLOCK
 70
    64
  3

 72
    65
 73
     0
 40
0.0
  0
LTYPE
  5
12
100
AcDbSymbolTableRecord
100
AcDbLinetypeTableRecord
  2
BYLAYER
 70
    64
  3

 72
    65
 73
     0
 40
0.0
  0
LTYPE
  5
13
100
AcDbSymbolTableRecord
100
AcDbLinetypeTableRecord
  2
CONTINUOUS
 70
    64
  3
実線
 72
    65
 73
     0
 40
0.0
  0
LTYPE
  5
1D
100
AcDbSymbolTableRecord
100
AcDbLinetypeTableRecord
  2
EXLTYPE1
 70
    64
  3
破線
 72
    65
 73
     2
 40
3.0
 49
2.0
 74
     0
 49
-1.0
 74
     0
  0
LTYPE
  5
1E
100
AcDbSymbolTableRecord
100
AcDbLinetypeTableRecord
  2
EXLTYPE2
 70
    64
  3
点線
 72
    65
 73
     2
 40
2.0
 49
1.0
 74
     0
 49
-1.0
 74
     0
  0
LTYPE
  5
1F
100
AcDbSymbolTableRecord
100
AcDbLinetypeTableRecord
  2
EXLTYPE3
 70
    64
  3
一点鎖線
 72
    65
 73
     4
 40
10.0
 49
7.0
 74
     0
 49
-1.0
 74
     0
 49
1.0
 74
     0
 49
-1.0
 74
     0
  0
LTYPE
  5
20
100
AcDbSymbolTableRecord
100
AcDbLinetypeTableRecord
  2
EXLTYPE4
 70
    64
  3
二点鎖線
 72
    65
 73
     6
 40
12.0
 49
7.0
 74
     0
 49
-1.0
 74
     0
 49
1.0
 74
     0
 49
-1.0
 74
     0
 49
1.0
 74
     0
 49
-1.0
 74
     0
  0
LTYPE
  5
21
100
AcDbSymbolTableRecord
100
AcDbLinetypeTableRecord
  2
EXLTYPE5
 70
    64
  3
三点鎖線
 72
    65
 73
     8
 40
37.0
 49
30.0
 74
     0
 49
-1.0
 74
     0
 49
1.0
 74
     0
 49
-1.0
 74
     0
 49
1.0
 74
     0
 49
-1.0
 74
     0
 49
1.0
 74
     0
 49
-1.0
 74
     0
  0
LTYPE
  5
22
100
AcDbSymbolTableRecord
100
AcDbLinetypeTableRecord
  2
EXLTYPE6
 70
    64
  3
四点鎖線
 72
    65
 73
    10
 40
39.0
 49
30.0
 74
     0
 49
-1.0
 74
     0
 49
1.0
 74
     0
 49
-1.0
 74
     0
 49
1.0
 74
     0
 49
-1.0
 74
     0
 49
1.0
 74
     0
 49
-1.0
 74
     0
 49
1.0
 74
     0
 49
-1.0
 74
     0
  0
ENDTAB
  0
TABLE
  2
LAYER
  5
2
100
AcDbSymbolTable
 70
     3
  0
LAYER
  5
14
100
AcDbSymbolTableRecord
100
AcDbLayerTableRecord
  2
0
 70
     0
 62
     7
  6
CONTINUOUS
  0
LAYER
  5
25
100
AcDbSymbolTableRecord
100
AcDbLayerTableRecord
  2
LAY-1
 70
    64
 62
     7
  6
CONTINUOUS
  0
LAYER
  5
26
100
AcDbSymbolTableRecord
100
AcDbLayerTableRecord
  2
LAY-2
 70
    64
 62
     7
  6
CONTINUOUS
  0
ENDTAB
  0
TABLE
  2
STYLE
  5
3
100
AcDbSymbolTable
 70
     4
  0
STYLE
  5
17
100
AcDbSymbolTableRecord
100
AcDbTextStyleTableRecord
  2
STANDARD
 70
     0
 40
0.0
 41
1.0
 50
0.0
 71
     0
 42
0.0
  3
monotxt
  4
extfont
  0
STYLE
  5
23
100
AcDbSymbolTableRecord
100
AcDbTextStyleTableRecord
  2
EXCADSTD
 70
    64
 40
0.0
 41
1.0
 50
0.0
 71
     0
 42
0.2
  3
monotxt
  4
extfont
  0
STYLE
  5
24
100
AcDbSymbolTableRecord
100
AcDbTextStyleTableRecord
  2
EXCADVERT
 70
    68
 40
0.0
 41
1.0
 50
0.0
 71
     0
 42
0.286885
  3
monotxt
  4
extfont
  0
STYLE
  5
3EB
100
AcDbSymbolTableRecord
100
AcDbTextStyleTableRecord
  2
EXCADDIM1
 70
    64
 40
0.0
 41
0.84
 50
0.0
 71
     0
 42
0.2
  3
monotxt
  4
extfont
  0
ENDTAB
  0
TABLE
  2
VIEW
  5
5
100
AcDbSymbolTable
 70
     0
  0
ENDTAB
  0
TABLE
  2
UCS
  5
6
100
AcDbSymbolTable
 70
     0
  0
ENDTAB
  0
TABLE
  2
APPID
  5
8
100
AcDbSymbolTable
 70
     1
  0
APPID
  5
16
100
AcDbSymbolTableRecord
100
AcDbRegAppTableRecord
  2
ACAD
 70
     0
  0
ENDTAB
  0
TABLE
  2
DIMSTYLE
  5
9
100
AcDbSymbolTable
 70
     1
  0
DIMSTYLE
105
18
100
AcDbSymbolTableRecord
100
AcDbDimStyleTableRecord
  2
STANDARD
 70
     0
  3

  4

  5

  6

  7

 40
1.0
 41
0.18
 42
0.0625
 43
0.38
 44
0.18
 45
0.0
 46
0.0
 47
0.0
 48
0.0
 71
     0
 72
     0
 73
     1
 74
     1
 75
     0
 76
     0
 77
     0
 78
     0
140
0.18
141
0.09
142
0.0
143
25.4
144
1.0
145
0.0
146
1.0
147
0.09
170
     0
171
     2
172
     1
173
     0
174
     0
175
     0
176
     0
177
     0
178
     0
270
     2
271
     4
272
     4
273
     2
274
     2
275
     0
280
     0
281
     0
282
     0
283
     1
284
     0
285
     0
286
     0
287
     0
288
     0
340
17
  0
ENDTAB
  0
TABLE
  2
BLOCK_RECORD
  5
1
100
AcDbSymbolTable
 70
    22
  0
BLOCK_RECORD
  5
A
100
AcDbSymbolTableRecord
100
AcDbBlockTableRecord
  2
*MODEL_SPACE
  0
BLOCK_RECORD
  5
B
100
AcDbSymbolTableRecord
100
AcDbBlockTableRecord
  2
*PAPER_SPACE
  0
BLOCK_RECORD
  5
27
100
AcDbSymbolTableRecord
100
AcDbBlockTableRecord
  2
_EX_NORM
  0
BLOCK_RECORD
  5
28
100
AcDbSymbolTableRecord
100
AcDbBlockTableRecord
  2
_EX_BNORM
  0
BLOCK_RECORD
  5
29
100
AcDbSymbolTableRecord
100
AcDbBlockTableRecord
  2
_EX_BCIR
  0
BLOCK_RECORD
  5
2A
100
AcDbSymbolTableRecord
100
AcDbBlockTableRecord
  2
_EX_RCIVIL
  0
BLOCK_RECORD
  5
2B
100
AcDbSymbolTableRecord
100
AcDbBlockTableRecord
  2
_EX_SLANT
  0
BLOCK_RECORD
  5
2C
100
AcDbSymbolTableRecord
100
AcDbBlockTableRecord
  2
_EX_NONE
  0
BLOCK_RECORD
  5
2D
100
AcDbSymbolTableRecord
100
AcDbBlockTableRecord
  2
_EX_CIVIL
  0
BLOCK_RECORD
  5
2E
100
AcDbSymbolTableRecord
100
AcDbBlockTableRecord
  2
_EX_WCIR
  0
BLOCK_RECORD
  5
2F
100
AcDbSymbolTableRecord
100
AcDbBlockTableRecord
  2
_EX_WCIR2
  0
BLOCK_RECORD
  5
30
100
AcDbSymbolTableRecord
100
AcDbBlockTableRecord
  2
_EX_WNORM
  0
BLOCK_RECORD
  5
31
100
AcDbSymbolTableRecord
100
AcDbBlockTableRecord
  2
_EX_NNORM
  0
BLOCK_RECORD
  5
32
100
AcDbSymbolTableRecord
100
AcDbBlockTableRecord
  2
_EX_BBOX
  0
BLOCK_RECORD
  5
33
100
AcDbSymbolTableRecord
100
AcDbBlockTableRecord
  2
_EX_WBOX
  0
BLOCK_RECORD
  5
34
100
AcDbSymbolTableRecord
100
AcDbBlockTableRecord
  2
_EX_INTEGRAL
  0
BLOCK_RECORD
  5
3E0
100
AcDbSymbolTableRecord
100
AcDbBlockTableRecord
  2
*D14
  0
BLOCK_RECORD
  5
3ED
100
AcDbSymbolTableRecord
100
AcDbBlockTableRecord
  2
*D15
  0
BLOCK_RECORD
  5
3F9
100
AcDbSymbolTableRecord
100
AcDbBlockTableRecord
  2
*D16
  0
BLOCK_RECORD
  5
402
100
AcDbSymbolTableRecord
100
AcDbBlockTableRecord
  2
*D17
  0
BLOCK_RECORD
  5
40E
100
AcDbSymbolTableRecord
100
AcDbBlockTableRecord
  2
*D18
  0
BLOCK_RECORD
  5
423
100
AcDbSymbolTableRecord
100
AcDbBlockTableRecord
  2
*D19
  0
BLOCK_RECORD
  5
42D
100
AcDbSymbolTableRecord
100
AcDbBlockTableRecord
  2
*D20
  0
BLOCK_RECORD
  5
438
100
AcDbSymbolTableRecord
100
AcDbBlockTableRecord
  2
*D21
  0
ENDTAB
  0
ENDSEC
  0
SECTION
  2
BLOCKS
  0
BLOCK
  5
D
100
AcDbEntity
  8
0
100
AcDbBlockBegin
  2
*MODEL_SPACE
 70
     0
 10
0.0
 20
0.0
 30
0.0
  3
*MODEL_SPACE
  1

  0
ENDBLK
  5
E
100
AcDbEntity
  8
0
100
AcDbBlockEnd
  0
BLOCK
  5
F
100
AcDbEntity
 67
     1
  8
0
100
AcDbBlockBegin
  2
*PAPER_SPACE
 70
     0
 10
0.0
 20
0.0
 30
0.0
  3
*PAPER_SPACE
  1

  0
ENDBLK
  5
10
100
AcDbEntity
 67
     1
  8
0
100
AcDbBlockEnd
  0
BLOCK
  5
35
100
AcDbEntity
  8
0
100
AcDbBlockBegin
  2
_EX_NORM
 70
     0
 10
0.0
 20
0.0
 30
0.0
  3
_EX_NORM
  1

  0
LINE
  5
36
100
AcDbEntity
  8
0
  6
CONTINUOUS
 62
     0
100
AcDbLine
 10
0.0
 20
0.0
 30
0.0
 11
-1.0
 21
0.0
 31
0.0
  0
LINE
  5
37
100
AcDbEntity
  8
0
  6
CONTINUOUS
 62
     0
100
AcDbLine
 10
0.0
 20
0.0
 30
0.0
 11
-1.0
 21
0.166667
 31
0.0
  0
LINE
  5
38
100
AcDbEntity
  8
0
  6
CONTINUOUS
 62
     0
100
AcDbLine
 10
0.0
 20
0.0
 30
0.0
 11
-1.0
 21
-0.166667
 31
0.0
  0
ENDBLK
  5
39
100
AcDbEntity
  8
0
100
AcDbBlockEnd
  0
BLOCK
  5
3A
100
AcDbEntity
  8
0
100
AcDbBlockBegin
  2
_EX_BNORM
 70
     0
 10
0.0
 20
0.0
 30
0.0
  3
_EX_BNORM
  1

  0
LINE
  5
3B
100
AcDbEntity
  8
0
  6
CONTINUOUS
 62
     0
100
AcDbLine
 10
0.0
 20
0.0
 30
0.0
 11
-1.0
 21
0.0
 31
0.0
  0
LINE
  5
3C
100
AcDbEntity
  8
0
  6
CONTINUOUS
 62
     0
100
AcDbLine
 10
0.0
 20
0.0
 30
0.0
 11
-1.0
 21
0.166667
 31
0.0
  0
LINE
  5
3D
100
AcDbEntity
  8
0
  6
CONTINUOUS
 62
     0
100
AcDbLine
 10
0.0
 20
0.0
 30
0.0
 11
-1.0
 21
-0.166667
 31
0.0
  0
LINE
  5
3E
100
AcDbEntity
  8
0
  6
CONTINUOUS
 62
     0
100
AcDbLine
 10
0.0
 20
0.0
 30
0.0
 11
-1.0
 21
0.083333
 31
0.0
  0
LINE
  5
3F
100
AcDbEntity
  8
0
  6
CONTINUOUS
 62
     0
100
AcDbLine
 10
0.0
 20
0.0
 30
0.0
 11
-1.0
 21
-0.083333
 31
0.0
  0
LINE
  5
40
100
AcDbEntity
  8
0
  6
CONTINUOUS
 62
     0
100
AcDbLine
 10
-1.0
 20
0.166667
 30
0.0
 11
-1.0
 21
-0.166667
 31
0.0
  0
ENDBLK
  5
41
100
AcDbEntity
  8
0
100
AcDbBlockEnd
  0
BLOCK
  5
42
100
AcDbEntity
  8
0
100
AcDbBlockBegin
  2
_EX_BCIR
 70
     0
 10
0.0
 20
0.0
 30
0.0
  3
_EX_BCIR
  1

  0
LINE
  5
43
100
AcDbEntity
  8
0
  6
CONTINUOUS
 62
     0
100
AcDbLine
 10
0.0
 20
0.0
 30
0.0
 11
-1.0
 21
0.0
 31
0.0
  0
CIRCLE
  5
44
100
AcDbEntity
  8
0
  6
CONTINUOUS
 62
     0
100
AcDbCircle
 10
0.0
 20
0.0
 30
0.0
 40
0.5
  0
CIRCLE
  5
45
100
AcDbEntity
  8
0
  6
CONTINUOUS
 62
     0
100
AcDbCircle
 10
0.0
 20
0.0
 30
0.0
 40
0.25
  0
ENDBLK
  5
46
100
AcDbEntity
  8
0
100
AcDbBlockEnd
  0
BLOCK
  5
47
100
AcDbEntity
  8
0
100
AcDbBlockBegin
  2
_EX_RCIVIL
 70
     0
 10
0.0
 20
0.0
 30
0.0
  3
_EX_RCIVIL
  1

  0
LINE
  5
48
100
AcDbEntity
  8
0
  6
CONTINUOUS
 62
     0
100
AcDbLine
 10
0.0
 20
0.0
 30
0.0
 11
-1.0
 21
0.0
 31
0.0
  0
LINE
  5
49
100
AcDbEntity
  8
0
  6
CONTINUOUS
 62
     0
100
AcDbLine
 10
-1.0
 20
-0.25
 30
0.0
 11
0.0
 21
-0.25
 31
0.0
  0
LINE
  5
4A
100
AcDbEntity
  8
0
  6
CONTINUOUS
 62
     0
100
AcDbLine
 10
-1.0
 20
-0.125
 30
0.0
 11
0.0
 21
-0.125
 31
0.0
  0
ENDBLK
  5
4B
100
AcDbEntity
  8
0
100
AcDbBlockEnd
  0
BLOCK
  5
4C
100
AcDbEntity
  8
0
100
AcDbBlockBegin
  2
_EX_SLANT
 70
     0
 10
0.0
 20
0.0
 30
0.0
  3
_EX_SLANT
  1

  0
LINE
  5
4D
100
AcDbEntity
  8
0
  6
CONTINUOUS
 62
     0
100
AcDbLine
 10
0.0
 20
0.0
 30
0.0
 11
-1.0
 21
0.0
 31
0.0
  0
LINE
  5
4E
100
AcDbEntity
  8
0
  6
CONTINUOUS
 62
     0
100
AcDbLine
 10
0.707107
 20
0.707107
 30
0.0
 11
-0.707107
 21
-0.707107
 31
0.0
  0
ENDBLK
  5
4F
100
AcDbEntity
  8
0
100
AcDbBlockEnd
  0
BLOCK
  5
50
100
AcDbEntity
  8
0
100
AcDbBlockBegin
  2
_EX_NONE
 70
     0
 10
0.0
 20
0.0
 30
0.0
  3
_EX_NONE
  1

  0
LINE
  5
51
100
AcDbEntity
  8
0
  6
CONTINUOUS
 62
     0
100
AcDbLine
 10
0.0
 20
0.0
 30
0.0
 11
-1.0
 21
0.0
 31
0.0
  0
ENDBLK
  5
52
100
AcDbEntity
  8
0
100
AcDbBlockEnd
  0
BLOCK
  5
53
100
AcDbEntity
  8
0
100
AcDbBlockBegin
  2
_EX_CIVIL
 70
     0
 10
0.0
 20
0.0
 30
0.0
  3
_EX_CIVIL
  1

  0
LINE
  5
54
100
AcDbEntity
  8
0
  6
CONTINUOUS
 62
     0
100
AcDbLine
 10
0.0
 20
0.0
 30
0.0
 11
-1.0
 21
0.0
 31
0.0
  0
LINE
  5
55
100
AcDbEntity
  8
0
  6
CONTINUOUS
 62
     0
100
AcDbLine
 10
-1.0
 20
0.25
 30
0.0
 11
0.0
 21
0.25
 31
0.0
  0
LINE
  5
56
100
AcDbEntity
  8
0
  6
CONTINUOUS
 62
     0
100
AcDbLine
 10
-1.0
 20
0.125
 30
0.0
 11
0.0
 21
0.125
 31
0.0
  0
ENDBLK
  5
57
100
AcDbEntity
  8
0
100
AcDbBlockEnd
  0
BLOCK
  5
58
100
AcDbEntity
  8
0
100
AcDbBlockBegin
  2
_EX_WCIR
 70
     0
 10
0.0
 20
0.0
 30
0.0
  3
_EX_WCIR
  1

  0
LINE
  5
59
100
AcDbEntity
  8
0
  6
CONTINUOUS
 62
     0
100
AcDbLine
 10
0.0
 20
0.0
 30
0.0
 11
-1.0
 21
0.0
 31
0.0
  0
CIRCLE
  5
5A
100
AcDbEntity
  8
0
  6
CONTINUOUS
 62
     0
100
AcDbCircle
 10
0.0
 20
0.0
 30
0.0
 40
0.5
  0
ENDBLK
  5
5B
100
AcDbEntity
  8
0
100
AcDbBlockEnd
  0
BLOCK
  5
5C
100
AcDbEntity
  8
0
100
AcDbBlockBegin
  2
_EX_WCIR2
 70
     0
 10
0.0
 20
0.0
 30
0.0
  3
_EX_WCIR2
  1

  0
LINE
  5
5D
100
AcDbEntity
  8
0
  6
CONTINUOUS
 62
     0
100
AcDbLine
 10
-0.5
 20
0.0
 30
0.0
 11
-1.0
 21
0.0
 31
0.0
  0
CIRCLE
  5
5E
100
AcDbEntity
  8
0
  6
CONTINUOUS
 62
     0
100
AcDbCircle
 10
0.0
 20
0.0
 30
0.0
 40
0.5
  0
ENDBLK
  5
5F
100
AcDbEntity
  8
0
100
AcDbBlockEnd
  0
BLOCK
  5
60
100
AcDbEntity
  8
0
100
AcDbBlockBegin
  2
_EX_WNORM
 70
     0
 10
0.0
 20
0.0
 30
0.0
  3
_EX_WNORM
  1

  0
LINE
  5
61
100
AcDbEntity
  8
0
  6
CONTINUOUS
 62
     0
100
AcDbLine
 10
-1.0
 20
0.0
 30
0.0
 11
-1.0
 21
0.0
 31
0.0
  0
LINE
  5
62
100
AcDbEntity
  8
0
  6
CONTINUOUS
 62
     0
100
AcDbLine
 10
0.0
 20
0.0
 30
0.0
 11
-1.0
 21
0.166667
 31
0.0
  0
LINE
  5
63
100
AcDbEntity
  8
0
  6
CONTINUOUS
 62
     0
100
AcDbLine
 10
0.0
 20
0.0
 30
0.0
 11
-1.0
 21
-0.166667
 31
0.0
  0
LINE
  5
64
100
AcDbEntity
  8
0
  6
CONTINUOUS
 62
     0
100
AcDbLine
 10
-1.0
 20
0.166667
 30
0.0
 11
-1.0
 21
-0.166667
 31
0.0
  0
ENDBLK
  5
65
100
AcDbEntity
  8
0
100
AcDbBlockEnd
  0
BLOCK
  5
66
100
AcDbEntity
  8
0
100
AcDbBlockBegin
  2
_EX_NNORM
 70
     0
 10
0.0
 20
0.0
 30
0.0
  3
_EX_NNORM
  1

  0
LINE
  5
67
100
AcDbEntity
  8
0
  6
CONTINUOUS
 62
     0
100
AcDbLine
 10
0.0
 20
0.0
 30
0.0
 11
-1.0
 21
0.0
 31
0.0
  0
LINE
  5
68
100
AcDbEntity
  8
0
  6
CONTINUOUS
 62
     0
100
AcDbLine
 10
0.0
 20
0.0
 30
0.0
 11
-1.0
 21
0.166667
 31
0.0
  0
LINE
  5
69
100
AcDbEntity
  8
0
  6
CONTINUOUS
 62
     0
100
AcDbLine
 10
0.0
 20
0.0
 30
0.0
 11
-1.0
 21
-0.166667
 31
0.0
  0
LINE
  5
6A
100
AcDbEntity
  8
0
  6
CONTINUOUS
 62
     0
100
AcDbLine
 10
-1.0
 20
0.166667
 30
0.0
 11
-1.0
 21
-0.166667
 31
0.0
  0
ENDBLK
  5
6B
100
AcDbEntity
  8
0
100
AcDbBlockEnd
  0
BLOCK
  5
6C
100
AcDbEntity
  8
0
100
AcDbBlockBegin
  2
_EX_BBOX
 70
     0
 10
0.0
 20
0.0
 30
0.0
  3
_EX_BBOX
  1

  0
LINE
  5
6D
100
AcDbEntity
  8
0
  6
CONTINUOUS
 62
     0
100
AcDbLine
 10
0.0
 20
0.0
 30
0.0
 11
-1.0
 21
0.0
 31
0.0
  0
LINE
  5
6E
100
AcDbEntity
  8
0
  6
CONTINUOUS
 62
     0
100
AcDbLine
 10
-0.5
 20
0.5
 30
0.0
 11
0.5
 21
0.5
 31
0.0
  0
LINE
  5
6F
100
AcDbEntity
  8
0
  6
CONTINUOUS
 62
     0
100
AcDbLine
 10
0.5
 20
0.5
 30
0.0
 11
0.5
 21
-0.5
 31
0.0
  0
LINE
  5
70
100
AcDbEntity
  8
0
  6
CONTINUOUS
 62
     0
100
AcDbLine
 10
0.5
 20
-0.5
 30
0.0
 11
-0.5
 21
-0.5
 31
0.0
  0
LINE
  5
71
100
AcDbEntity
  8
0
  6
CONTINUOUS
 62
     0
100
AcDbLine
 10
-0.5
 20
-0.5
 30
0.0
 11
-0.5
 21
0.5
 31
0.0
  0
LINE
  5
72
100
AcDbEntity
  8
0
  6
CONTINUOUS
 62
     0
100
AcDbLine
 10
-0.25
 20
0.25
 30
0.0
 11
0.25
 21
0.25
 31
0.0
  0
LINE
  5
73
100
AcDbEntity
  8
0
  6
CONTINUOUS
 62
     0
100
AcDbLine
 10
0.25
 20
0.25
 30
0.0
 11
0.25
 21
-0.25
 31
0.0
  0
LINE
  5
74
100
AcDbEntity
  8
0
  6
CONTINUOUS
 62
     0
100
AcDbLine
 10
0.25
 20
-0.25
 30
0.0
 11
-0.25
 21
-0.25
 31
0.0
  0
LINE
  5
75
100
AcDbEntity
  8
0
  6
CONTINUOUS
 62
     0
100
AcDbLine
 10
-0.25
 20
-0.25
 30
0.0
 11
-0.25
 21
0.25
 31
0.0
  0
ENDBLK
  5
76
100
AcDbEntity
  8
0
100
AcDbBlockEnd
  0
BLOCK
  5
77
100
AcDbEntity
  8
0
100
AcDbBlockBegin
  2
_EX_WBOX
 70
     0
 10
0.0
 20
0.0
 30
0.0
  3
_EX_WBOX
  1

  0
LINE
  5
78
100
AcDbEntity
  8
0
  6
CONTINUOUS
 62
     0
100
AcDbLine
 10
-0.5
 20
0.0
 30
0.0
 11
-1.0
 21
0.0
 31
0.0
  0
LINE
  5
79
100
AcDbEntity
  8
0
  6
CONTINUOUS
 62
     0
100
AcDbLine
 10
-0.5
 20
0.5
 30
0.0
 11
0.5
 21
0.5
 31
0.0
  0
LINE
  5
7A
100
AcDbEntity
  8
0
  6
CONTINUOUS
 62
     0
100
AcDbLine
 10
0.5
 20
0.5
 30
0.0
 11
0.5
 21
-0.5
 31
0.0
  0
LINE
  5
7B
100
AcDbEntity
  8
0
  6
CONTINUOUS
 62
     0
100
AcDbLine
 10
0.5
 20
-0.5
 30
0.0
 11
-0.5
 21
-0.5
 31
0.0
  0
LINE
  5
7C
100
AcDbEntity
  8
0
  6
CONTINUOUS
 62
     0
100
AcDbLine
 10
-0.5
 20
-0.5
 30
0.0
 11
-0.5
 21
0.5
 31
0.0
  0
ENDBLK
  5
7D
100
AcDbEntity
  8
0
100
AcDbBlockEnd
  0
BLOCK
  5
7E
100
AcDbEntity
  8
0
100
AcDbBlockBegin
  2
_EX_INTEGRAL
 70
     0
 10
0.0
 20
0.0
 30
0.0
  3
_EX_INTEGRAL
  1

  0
LINE
  5
7F
100
AcDbEntity
  8
0
  6
CONTINUOUS
 62
     0
100
AcDbLine
 10
0.0
 20
0.0
 30
0.0
 11
-1.0
 21
0.0
 31
0.0
  0
ARC
  5
80
100
AcDbEntity
  8
0
  6
CONTINUOUS
 62
     0
100
AcDbCircle
 10
0.542115
 20
0.164992
 30
0.0
 40
0.56667
100
AcDbArc
 50
73.07249
 51
196.927513
  0
ARC
  5
81
100
AcDbEntity
  8
0
  6
CONTINUOUS
 62
     0
100
AcDbCircle
 10
-0.542115
 20
-0.164992
 30
0.0
 40
0.56667
100
AcDbArc
 50
253.072487
 51
16.927513
  0
ENDBLK
  5
82
100
AcDbEntity
  8
0
100
AcDbBlockEnd
  0
BLOCK
  5
3E1
100
AcDbEntity
  8
0
100
AcDbBlockBegin
  2
*D14
 70
    65
 10
0.0
 20
0.0
 30
0.0
  3
*D14
  1

  0
TEXT
  5
3E2
100
AcDbEntity
  8
LAY-2
  6
CONTINUOUS
 62
     2
100
AcDbText
 10
349.2
 20
365.196049
 30
0.0
 40
8.0
  1
40
 50
90.0
 41
0.84
  7
EXCADSTD
 72
     1
 11
349.2
 21
371.076049
 31
0.0
100
AcDbText
  0
LINE
  5
3E3
100
AcDbEntity
  8
LAY-2
  6
CONTINUOUS
 62
     3
100
AcDbLine
 10
331.010331
 20
391.076049
 30
0.0
 11
353.2
 21
391.076049
 31
0.0
  0
LINE
  5
3E4
100
AcDbEntity
  8
LAY-2
  6
CONTINUOUS
 62
     3
100
AcDbLine
 10
327.706563
 20
351.076049
 30
0.0
 11
353.2
 21
351.076049
 31
0.0
  0
LINE
  5
3E5
100
AcDbEntity
  8
LAY-2
  6
CONTINUOUS
 62
     3
100
AcDbLine
 10
351.2
 20
391.076049
 30
0.0
 11
351.2
 21
351.076049
 31
0.0
  0
LINE
  5
3E6
100
AcDbEntity
  8
LAY-2
  6
CONTINUOUS
 62
     3
100
AcDbLine
 10
352.2
 20
385.076049
 30
0.0
 11
351.2
 21
391.076049
 31
0.0
  0
LINE
  5
3E7
100
AcDbEntity
  8
LAY-2
  6
CONTINUOUS
 62
     3
100
AcDbLine
 10
351.2
 20
391.076049
 30
0.0
 11
350.2
 21
385.076049
 31
0.0
  0
LINE
  5
3E8
100
AcDbEntity
  8
LAY-2
  6
CONTINUOUS
 62
     3
100
AcDbLine
 10
350.2
 20
357.076049
 30
0.0
 11
351.2
 21
351.076049
 31
0.0
  0
LINE
  5
3E9
100
AcDbEntity
  8
LAY-2
  6
CONTINUOUS
 62
     3
100
AcDbLine
 10
351.2
 20
351.076049
 30
0.0
 11
352.2
 21
357.076049
 31
0.0
  0
ENDBLK
  5
3EA
100
AcDbEntity
  8
0
100
AcDbBlockEnd
  0
BLOCK
  5
3EE
100
AcDbEntity
  8
0
100
AcDbBlockBegin
  2
*D15
 70
    65
 10
0.0
 20
0.0
 30
0.0
  3
*D15
  1

  0
TEXT
  5
3EF
100
AcDbEntity
  8
LAY-2
  6
CONTINUOUS
 62
     2
100
AcDbText
 10
349.2
 20
220.529091
 30
0.0
 40
8.0
  1
36
 50
90.0
 41
0.84
  7
EXCADSTD
 72
     1
 11
349.2
 21
226.409091
 31
0.0
100
AcDbText
  0
LINE
  5
3F0
100
AcDbEntity
  8
LAY-2
  6
CONTINUOUS
 62
     3
100
AcDbLine
 10
327.010331
 20
208.409091
 30
0.0
 11
353.2
 21
208.409091
 31
0.0
  0
LINE
  5
3F1
100
AcDbEntity
  8
LAY-2
  6
CONTINUOUS
 62
     3
100
AcDbLine
 10
327.010331
 20
244.409091
 30
0.0
 11
353.2
 21
244.409091
 31
0.0
  0
LINE
  5
3F2
100
AcDbEntity
  8
LAY-2
  6
CONTINUOUS
 62
     3
100
AcDbLine
 10
351.2
 20
208.409091
 30
0.0
 11
351.2
 21
244.409091
 31
0.0
  0
LINE
  5
3F3
100
AcDbEntity
  8
LAY-2
  6
CONTINUOUS
 62
     3
100
AcDbLine
 10
350.2
 20
214.409091
 30
0.0
 11
351.2
 21
208.409091
 31
0.0
  0
LINE
  5
3F4
100
AcDbEntity
  8
LAY-2
  6
CONTINUOUS
 62
     3
100
AcDbLine
 10
351.2
 20
208.409091
 30
0.0
 11
352.2
 21
214.409091
 31
0.0
  0
LINE
  5
3F5
100
AcDbEntity
  8
LAY-2
  6
CONTINUOUS
 62
     3
100
AcDbLine
 10
352.2
 20
238.409091
 30
0.0
 11
351.2
 21
244.409091
 31
0.0
  0
LINE
  5
3F6
100
AcDbEntity
  8
LAY-2
  6
CONTINUOUS
 62
     3
100
AcDbLine
 10
351.2
 20
244.409091
 30
0.0
 11
350.2
 21
238.409091
 31
0.0
  0
ENDBLK
  5
3F7
100
AcDbEntity
  8
0
100
AcDbBlockEnd
  0
BLOCK
  5
3FA
100
AcDbEntity
  8
0
100
AcDbBlockBegin
  2
*D16
 70
    65
 10
0.0
 20
0.0
 30
0.0
  3
*D16
  1

  0
TEXT
  5
3FB
100
AcDbEntity
  8
LAY-2
  6
CONTINUOUS
 62
     2
100
AcDbText
 10
349.2
 20
245.049091
 30
0.0
 40
8.0
  1
8
 50
90.0
 41
0.84
  7
EXCADSTD
 72
     1
 11
349.2
 21
248.409091
 31
0.0
100
AcDbText
  0
LINE
  5
3FC
100
AcDbEntity
  8
LAY-2
  6
CONTINUOUS
 62
     3
100
AcDbLine
 10
321.010331
 20
252.409091
 30
0.0
 11
353.2
 21
252.409091
 31
0.0
  0
LINE
  5
3FD
100
AcDbEntity
  8
LAY-2
  6
CONTINUOUS
 62
     3
100
AcDbLine
 10
351.2
 20
238.409091
 30
0.0
 11
351.2
 21
258.409091
 31
0.0
  0
LINE
  5
3FE
100
AcDbEntity
  8
LAY-2
  6
CONTINUOUS
 62
     3
100
AcDbLine
 10
350.2
 20
258.409091
 30
0.0
 11
351.2
 21
252.409091
 31
0.0
  0
LINE
  5
3FF
100
AcDbEntity
  8
LAY-2
  6
CONTINUOUS
 62
     3
100
AcDbLine
 10
351.2
 20
252.409091
 30
0.0
 11
352.2
 21
258.409091
 31
0.0
  0
ENDBLK
  5
400
100
AcDbEntity
  8
0
100
AcDbBlockEnd
  0
BLOCK
  5
403
100
AcDbEntity
  8
0
100
AcDbBlockBegin
  2
*D17
 70
    65
 10
0.0
 20
0.0
 30
0.0
  3
*D17
  1

  0
TEXT
  5
404
100
AcDbEntity
  8
LAY-2
  6
CONTINUOUS
 62
     2
100
AcDbText
 10
216.650331
 20
274.0
 30
0.0
 40
8.0
  1
Ａ
 41
0.84
  7
EXCADSTD
 72
     1
 11
220.010331
 21
274.0
 31
0.0
100
AcDbText
  0
LINE
  5
405
100
AcDbEntity
  8
LAY-2
  6
CONTINUOUS
 62
     3
100
AcDbLine
 10
120.010331
 20
255.409091
 30
0.0
 11
120.010331
 21
274.0
 31
0.0
  0
LINE
  5
406
100
AcDbEntity
  8
LAY-2
  6
CONTINUOUS
 62
     3
100
AcDbLine
 10
320.010331
 20
255.409091
 30
0.0
 11
320.010331
 21
274.0
 31
0.0
  0
LINE
  5
407
100
AcDbEntity
  8
LAY-2
  6
CONTINUOUS
 62
     3
100
AcDbLine
 10
120.010331
 20
272.0
 30
0.0
 11
320.010331
 21
272.0
 31
0.0
  0
LINE
  5
408
100
AcDbEntity
  8
LAY-2
  6
CONTINUOUS
 62
     3
100
AcDbLine
 10
126.010331
 20
273.0
 30
0.0
 11
120.010331
 21
272.0
 31
0.0
  0
LINE
  5
409
100
AcDbEntity
  8
LAY-2
  6
CONTINUOUS
 62
     3
100
AcDbLine
 10
120.010331
 20
272.0
 30
0.0
 11
126.010331
 21
271.0
 31
0.0
  0
LINE
  5
40A
100
AcDbEntity
  8
LAY-2
  6
CONTINUOUS
 62
     3
100
AcDbLine
 10
314.010331
 20
271.0
 30
0.0
 11
320.010331
 21
272.0
 31
0.0
  0
LINE
  5
40B
100
AcDbEntity
  8
LAY-2
  6
CONTINUOUS
 62
     3
100
AcDbLine
 10
320.010331
 20
272.0
 30
0.0
 11
314.010331
 21
273.0
 31
0.0
  0
ENDBLK
  5
40C
100
AcDbEntity
  8
0
100
AcDbBlockEnd
  0
BLOCK
  5
40F
100
AcDbEntity
  8
0
100
AcDbBlockBegin
  2
*D18
 70
    65
 10
0.0
 20
0.0
 30
0.0
  3
*D18
  1

  0
TEXT
  5
410
100
AcDbEntity
  8
LAY-2
  6
CONTINUOUS
 62
     2
100
AcDbText
 10
291.8
 20
240.999091
 30
0.0
 40
8.0
  1
%%c12.7
 50
90.0
 41
0.84
  7
EXCADSTD
 72
     1
 11
291.8
 21
252.759091
 31
0.0
100
AcDbText
  0
LINE
  5
411
100
AcDbEntity
  8
LAY-2
  6
CONTINUOUS
 62
     3
100
AcDbLine
 10
293.8
 20
265.399998
 30
0.0
 11
293.8
 21
214.059091
 31
0.0
  0
LINE
  5
412
100
AcDbEntity
  8
LAY-2
  6
CONTINUOUS
 62
     3
100
AcDbLine
 10
292.8
 20
238.759091
 30
0.0
 11
293.8
 21
232.759091
 31
0.0
  0
LINE
  5
413
100
AcDbEntity
  8
LAY-2
  6
CONTINUOUS
 62
     3
100
AcDbLine
 10
293.8
 20
232.759091
 30
0.0
 11
294.8
 21
238.759091
 31
0.0
  0
LINE
  5
414
100
AcDbEntity
  8
LAY-2
  6
CONTINUOUS
 62
     3
100
AcDbLine
 10
294.8
 20
214.059091
 30
0.0
 11
293.8
 21
220.059091
 31
0.0
  0
LINE
  5
415
100
AcDbEntity
  8
LAY-2
  6
CONTINUOUS
 62
     3
100
AcDbLine
 10
293.8
 20
220.059091
 30
0.0
 11
292.8
 21
214.059091
 31
0.0
  0
ENDBLK
  5
416
100
AcDbEntity
  8
0
100
AcDbBlockEnd
  0
BLOCK
  5
424
100
AcDbEntity
  8
0
100
AcDbBlockBegin
  2
*D19
 70
    65
 10
0.0
 20
0.0
 30
0.0
  3
*D19
  1

  0
TEXT
  5
425
100
AcDbEntity
  8
LAY-2
  6
CONTINUOUS
 62
     2
100
AcDbText
 10
309.130331
 20
431.9
 30
0.0
 40
8.0
  1
10
 41
0.84
  7
EXCADSTD
 72
     1
 11
315.010331
 21
431.9
 31
0.0
100
AcDbText
  0
LINE
  5
426
100
AcDbEntity
  8
LAY-2
  6
CONTINUOUS
 62
     3
100
AcDbLine
 10
310.010331
 20
392.076049
 30
0.0
 11
310.010331
 21
431.9
 31
0.0
  0
LINE
  5
427
100
AcDbEntity
  8
LAY-2
  6
CONTINUOUS
 62
     3
100
AcDbLine
 10
320.010331
 20
420.776049
 30
0.0
 11
320.010331
 21
431.9
 31
0.0
  0
LINE
  5
428
100
AcDbEntity
  8
LAY-2
  6
CONTINUOUS
 62
     3
100
AcDbLine
 10
304.010331
 20
429.9
 30
0.0
 11
326.010331
 21
429.9
 31
0.0
  0
LINE
  5
429
100
AcDbEntity
  8
LAY-2
  6
CONTINUOUS
 62
     3
100
AcDbLine
 10
304.010331
 20
428.9
 30
0.0
 11
310.010331
 21
429.9
 31
0.0
  0
LINE
  5
42A
100
AcDbEntity
  8
LAY-2
  6
CONTINUOUS
 62
     3
100
AcDbLine
 10
310.010331
 20
429.9
 30
0.0
 11
304.010331
 21
430.9
 31
0.0
  0
ENDBLK
  5
42B
100
AcDbEntity
  8
0
100
AcDbBlockEnd
  0
BLOCK
  5
42E
100
AcDbEntity
  8
0
100
AcDbBlockBegin
  2
*D20
 70
    65
 10
0.0
 20
0.0
 30
0.0
  3
*D20
  1

  0
TEXT
  5
42F
100
AcDbEntity
  8
LAY-2
  6
CONTINUOUS
 62
     2
100
AcDbText
 10
319.130331
 20
431.9
 30
0.0
 40
8.0
  1
10
 41
0.84
  7
EXCADSTD
 72
     1
 11
325.010331
 21
431.9
 31
0.0
100
AcDbText
  0
LINE
  5
430
100
AcDbEntity
  8
LAY-2
  6
CONTINUOUS
 62
     3
100
AcDbLine
 10
330.010331
 20
392.076049
 30
0.0
 11
330.010331
 21
431.9
 31
0.0
  0
LINE
  5
431
100
AcDbEntity
  8
LAY-2
  6
CONTINUOUS
 62
     3
100
AcDbLine
 10
314.010331
 20
429.9
 30
0.0
 11
336.010331
 21
429.9
 31
0.0
  0
CIRCLE
  5
432
100
AcDbEntity
  8
LAY-2
  6
CONTINUOUS
 62
     3
100
AcDbCircle
 10
320.010331
 20
429.9
 30
0.0
 40
0.5
  0
CIRCLE
  5
433
100
AcDbEntity
  8
LAY-2
  6
CONTINUOUS
 62
     3
100
AcDbCircle
 10
320.010331
 20
429.9
 30
0.0
 40
0.25
  0
LINE
  5
434
100
AcDbEntity
  8
LAY-2
  6
CONTINUOUS
 62
     3
100
AcDbLine
 10
336.010331
 20
430.9
 30
0.0
 11
330.010331
 21
429.9
 31
0.0
  0
LINE
  5
435
100
AcDbEntity
  8
LAY-2
  6
CONTINUOUS
 62
     3
100
AcDbLine
 10
330.010331
 20
429.9
 30
0.0
 11
336.010331
 21
428.9
 31
0.0
  0
ENDBLK
  5
436
100
AcDbEntity
  8
0
100
AcDbBlockEnd
  0
BLOCK
  5
439
100
AcDbEntity
  8
0
100
AcDbBlockBegin
  2
*D21
 70
    65
 10
0.0
 20
0.0
 30
0.0
  3
*D21
  1

  0
TEXT
  5
43A
100
AcDbEntity
  8
LAY-2
  6
CONTINUOUS
 62
     2
100
AcDbText
 10
349.2
 20
398.546049
 30
0.0
 40
8.0
  1
27
 50
90.0
 41
0.84
  7
EXCADSTD
 72
     1
 11
349.2
 21
404.426049
 31
0.0
100
AcDbText
  0
LINE
  5
43B
100
AcDbEntity
  8
LAY-2
  6
CONTINUOUS
 62
     3
100
AcDbLine
 10
321.010331
 20
417.776049
 30
0.0
 11
353.2
 21
417.776049
 31
0.0
  0
LINE
  5
43C
100
AcDbEntity
  8
LAY-2
  6
CONTINUOUS
 62
     3
100
AcDbLine
 10
351.2
 20
391.076049
 30
0.0
 11
351.2
 21
417.776049
 31
0.0
  0
LINE
  5
43D
100
AcDbEntity
  8
LAY-2
  6
CONTINUOUS
 62
     3
100
AcDbLine
 10
350.2
 20
397.076049
 30
0.0
 11
351.2
 21
391.076049
 31
0.0
  0
LINE
  5
43E
100
AcDbEntity
  8
LAY-2
  6
CONTINUOUS
 62
     3
100
AcDbLine
 10
351.2
 20
391.076049
 30
0.0
 11
352.2
 21
397.076049
 31
0.0
  0
LINE
  5
43F
100
AcDbEntity
  8
LAY-2
  6
CONTINUOUS
 62
     3
100
AcDbLine
 10
352.2
 20
411.776049
 30
0.0
 11
351.2
 21
417.776049
 31
0.0
  0
LINE
  5
440
100
AcDbEntity
  8
LAY-2
  6
CONTINUOUS
 62
     3
100
AcDbLine
 10
351.2
 20
417.776049
 30
0.0
 11
350.2
 21
411.776049
 31
0.0
  0
ENDBLK
  5
441
100
AcDbEntity
  8
0
100
AcDbBlockEnd
  0
ENDSEC
  0
SECTION
  2
ENTITIES
  0
LINE
  5
83
100
AcDbEntity
  8
LAY-1
  6
CONTINUOUS
 62
     7
100
AcDbLine
 10
20.0
 20
10.0
 30
0.0
 11
198.0
 21
10.0
 31
0.0
  0
LINE
  5
84
100
AcDbEntity
  8
LAY-1
  6
CONTINUOUS
 62
     7
100
AcDbLine
 10
198.0
 20
286.0
 30
0.0
 11
198.0
 21
10.0
 31
0.0
  0
LINE
  5
85
100
AcDbEntity
  8
LAY-1
  6
CONTINUOUS
 62
     7
100
AcDbLine
 10
198.0
 20
286.0
 30
0.0
 11
20.0
 21
286.0
 31
0.0
  0
LINE
  5
86
100
AcDbEntity
  8
LAY-1
  6
CONTINUOUS
 62
     7
100
AcDbLine
 10
20.0
 20
286.0
 30
0.0
 11
20.0
 21
10.0
 31
0.0
  0
LINE
  5
87
100
AcDbEntity
  8
LAY-1
  6
CONTINUOUS
 62
     7
100
AcDbLine
 10
198.0
 20
32.0
 30
0.0
 11
20.0
 21
32.0
 31
0.0
  0
TEXT
  5
88
100
AcDbEntity
  8
LAY-1
  6
CONTINUOUS
 62
     2
100
AcDbText
 10
22.5
 20
27.6
 30
0.0
 40
3.8
  1
設計
 41
1.105263
  7
EXCADSTD
 72
     5
 11
31.666
 21
27.6
 31
0.0
100
AcDbText
  0
TEXT
  5
89
100
AcDbEntity
  8
LAY-1
  6
CONTINUOUS
 62
     2
100
AcDbText
 10
37.5
 20
27.6
 30
0.0
 40
3.8
  1
製図
 41
1.105263
  7
EXCADSTD
 72
     5
 11
46.666
 21
27.6
 31
0.0
100
AcDbText
  0
TEXT
  5
8A
100
AcDbEntity
  8
LAY-1
  6
CONTINUOUS
 62
     2
100
AcDbText
 10
51.5
 20
27.6
 30
0.0
 40
3.8
  1
検図
 41
1.105263
  7
EXCADSTD
 72
     5
 11
60.666
 21
27.6
 31
0.0
100
AcDbText
  0
CIRCLE
  5
8B
100
AcDbEntity
  8
LAY-1
  6
CONTINUOUS
 62
     7
100
AcDbCircle
 10
25.0
 20
12.4
 30
0.0
 40
0.15
  0
CIRCLE
  5
8C
100
AcDbEntity
  8
LAY-1
  6
CONTINUOUS
 62
     7
100
AcDbCircle
 10
30.0
 20
12.4
 30
0.0
 40
0.15
  0
CIRCLE
  5
8D
100
AcDbEntity
  8
LAY-1
  6
CONTINUOUS
 62
     7
100
AcDbCircle
 10
40.0
 20
12.4
 30
0.0
 40
0.15
  0
CIRCLE
  5
8E
100
AcDbEntity
  8
LAY-1
  6
CONTINUOUS
 62
     7
100
AcDbCircle
 10
45.0
 20
12.4
 30
0.0
 40
0.15
  0
TEXT
  5
8F
100
AcDbEntity
  8
LAY-1
  6
CONTINUOUS
 62
     2
100
AcDbText
 10
64.5
 20
27.6
 30
0.0
 40
3.8
  1
承認
 41
1.105263
  7
EXCADSTD
 72
     5
 11
73.666
 21
27.6
 31
0.0
100
AcDbText
  0
TEXT
  5
90
100
AcDbEntity
  8
LAY-1
  6
CONTINUOUS
 62
     2
100
AcDbText
 10
78.5
 20
30.8
 30
0.0
 40
3.8
  1
品名
 41
1.052632
  7
EXCADVERT
 72
     3
 11
78.5
 21
21.2
 31
0.0
100
AcDbText
  0
TEXT
  5
91
100
AcDbEntity
  8
LAY-1
  6
CONTINUOUS
 62
     2
100
AcDbText
 10
34.25
 20
10.9
 30
0.0
 40
3.0
  1
１３
 41
0.91
  7
EXCADSTD
 72
     5
 11
40.2079
 21
10.9
 31
0.0
100
AcDbText
  0
TEXT
  5
92
100
AcDbEntity
  8
LAY-1
  6
CONTINUOUS
 62
     2
100
AcDbText
 10
193.179259
 20
20.87
 30
0.0
 40
4.0
  1
２
 41
0.84
  7
EXCADSTD
 72
     5
 11
196.379259
 21
20.87
 31
0.0
100
AcDbText
  0
TEXT
  5
93
100
AcDbEntity
  8
LAY-1
  6
CONTINUOUS
 62
     2
100
AcDbText
 10
142.5
 20
19.3
 30
0.0
 40
3.8
  1
図番
 41
1.052632
  7
EXCADVERT
 72
     3
 11
142.5
 21
10.7
 31
0.0
100
AcDbText
  0
TEXT
  5
94
100
AcDbEntity
  8
LAY-1
  6
CONTINUOUS
 62
     2
100
AcDbText
 10
184.5
 20
30.8
 30
0.0
 40
3.8
  1
尺度
 41
1.052632
  7
EXCADVERT
 72
     3
 11
184.5
 21
21.2
 31
0.0
100
AcDbText
  0
TEXT
  5
95
100
AcDbEntity
  8
LAY-1
  6
CONTINUOUS
 62
     2
100
AcDbText
 10
142.5
 20
30.8
 30
0.0
 40
3.8
  1
品番
 41
1.052632
  7
EXCADVERT
 72
     3
 11
142.5
 21
21.2
 31
0.0
100
AcDbText
  0
TEXT
  5
96
100
AcDbEntity
  8
LAY-1
  6
CONTINUOUS
 62
     2
100
AcDbText
 10
187.769259
 20
26.99
 30
0.0
 40
4.0
  1
１
 41
0.84
  7
EXCADSTD
 72
     5
 11
190.969259
 21
26.99
 31
0.0
100
AcDbText
  0
TEXT
  5
97
100
AcDbEntity
  8
LAY-1
  6
CONTINUOUS
 62
     7
100
AcDbText
 10
85.0
 20
23.15
 30
0.0
 40
5.5
  1
樹脂製タオル掛
 41
1.112727
  7
EXCADSTD
 72
     5
 11
136.0
 21
23.15
 31
0.0
100
AcDbText
  0
TEXT
  5
98
100
AcDbEntity
  8
LAY-1
  6
CONTINUOUS
 62
     2
100
AcDbText
 10
87.0
 20
281.6
 30
0.0
 40
3.8
  1
番号
 41
0.994737
  7
EXCADSTD
 72
     5
 11
95.2494
 21
281.6
 31
0.0
100
AcDbText
  0
TEXT
  5
99
100
AcDbEntity
  8
LAY-1
  6
CONTINUOUS
 62
     2
100
AcDbText
 10
103.0
 20
281.6
 30
0.0
 40
3.8
  1
品名
 41
1.989474
  7
EXCADSTD
 72
     5
 11
119.4988
 21
281.6
 31
0.0
100
AcDbText
  0
TEXT
  5
9A
100
AcDbEntity
  8
LAY-1
  6
CONTINUOUS
 62
     2
100
AcDbText
 10
133.0
 20
281.6
 30
0.0
 40
3.8
  1
材質
 41
1.989474
  7
EXCADSTD
 72
     5
 11
149.4988
 21
281.6
 31
0.0
100
AcDbText
  0
TEXT
  5
9B
100
AcDbEntity
  8
LAY-1
  6
CONTINUOUS
 62
     2
100
AcDbText
 10
158.0
 20
281.6
 30
0.0
 40
3.8
  1
個数
 41
0.994737
  7
EXCADSTD
 72
     5
 11
166.2494
 21
281.6
 31
0.0
100
AcDbText
  0
TEXT
  5
9C
100
AcDbEntity
  8
LAY-1
  6
CONTINUOUS
 62
     2
100
AcDbText
 10
174.0
 20
281.6
 30
0.0
 40
3.8
  1
備考
 41
1.989474
  7
EXCADSTD
 72
     5
 11
190.4988
 21
281.6
 31
0.0
100
AcDbText
  0
TEXT
  5
9D
100
AcDbEntity
  8
LAY-1
  6
CONTINUOUS
 62
     2
100
AcDbText
 10
89.5
 20
276.6
 30
0.0
 40
3.8
  1
１
 41
0.884211
  7
EXCADSTD
 72
     5
 11
92.7
 21
276.6
 31
0.0
100
AcDbText
  0
TEXT
  5
9E
100
AcDbEntity
  8
LAY-1
  6
CONTINUOUS
 62
     2
100
AcDbText
 10
98.4
 20
276.6
 30
0.0
 40
3.8
  1
ブラケット
 41
0.884211
  7
EXCADSTD
 72
     5
 11
118.4
 21
276.6
 31
0.0
100
AcDbText
  0
TEXT
  5
9F
100
AcDbEntity
  8
LAY-1
  6
CONTINUOUS
 62
     2
100
AcDbText
 10
128.4
 20
276.6
 30
0.0
 40
3.8
  1
合成樹脂
 41
0.884211
  7
EXCADSTD
 72
     5
 11
144.4
 21
276.6
 31
0.0
100
AcDbText
  0
TEXT
  5
A0
100
AcDbEntity
  8
LAY-1
  6
CONTINUOUS
 62
     2
100
AcDbText
 10
160.5
 20
276.6
 30
0.0
 40
3.8
  1
２
 41
0.884211
  7
EXCADSTD
 72
     5
 11
163.7
 21
276.6
 31
0.0
100
AcDbText
  0
TEXT
  5
A1
100
AcDbEntity
  8
LAY-1
  6
CONTINUOUS
 62
     2
100
AcDbText
 10
89.5
 20
271.6
 30
0.0
 40
3.8
  1
２
 41
0.884211
  7
EXCADSTD
 72
     5
 11
92.7
 21
271.6
 31
0.0
100
AcDbText
  0
TEXT
  5
A2
100
AcDbEntity
  8
LAY-1
  6
CONTINUOUS
 62
     2
100
AcDbText
 10
89.5
 20
266.6
 30
0.0
 40
3.8
  1
３
 41
0.884211
  7
EXCADSTD
 72
     5
 11
92.7
 21
266.6
 31
0.0
100
AcDbText
  0
TEXT
  5
A3
100
AcDbEntity
  8
LAY-1
  6
CONTINUOUS
 62
     2
100
AcDbText
 10
98.4
 20
271.6
 30
0.0
 40
3.8
  1
パイプ
 41
0.884211
  7
EXCADSTD
 72
     5
 11
110.4
 21
271.6
 31
0.0
100
AcDbText
  0
TEXT
  5
A4
100
AcDbEntity
  8
LAY-1
  6
CONTINUOUS
 62
     2
100
AcDbText
 10
128.4
 20
271.6
 30
0.0
 40
3.8
  1
ステンレス
 41
0.884211
  7
EXCADSTD
 72
     5
 11
148.4
 21
271.6
 31
0.0
100
AcDbText
  0
TEXT
  5
A5
100
AcDbEntity
  8
LAY-1
  6
CONTINUOUS
 62
     2
100
AcDbText
 10
160.5
 20
271.6
 30
0.0
 40
3.8
  1
１
 41
0.884211
  7
EXCADSTD
 72
     5
 11
163.7
 21
271.6
 31
0.0
100
AcDbText
  0
TEXT
  5
A6
100
AcDbEntity
  8
LAY-1
  6
CONTINUOUS
 62
     2
100
AcDbText
 10
98.4
 20
266.6
 30
0.0
 40
3.8
  1
タッピンネジ
 41
0.884211
  7
EXCADSTD
 72
     5
 11
122.4
 21
266.6
 31
0.0
100
AcDbText
  0
TEXT
  5
A7
100
AcDbEntity
  8
LAY-1
  6
CONTINUOUS
 62
     2
100
AcDbText
 10
128.4
 20
266.6
 30
0.0
 40
3.8
  1
ステンレス
 41
0.884211
  7
EXCADSTD
 72
     5
 11
148.4
 21
266.6
 31
0.0
100
AcDbText
  0
TEXT
  5
A8
100
AcDbEntity
  8
LAY-1
  6
CONTINUOUS
 62
     2
100
AcDbText
 10
160.5
 20
266.6
 30
0.0
 40
3.8
  1
４
 41
0.884211
  7
EXCADSTD
 72
     5
 11
163.7
 21
266.6
 31
0.0
100
AcDbText
  0
TEXT
  5
A9
100
AcDbEntity
  8
LAY-1
  6
CONTINUOUS
 62
     2
100
AcDbText
 10
169.4
 20
276.6
 30
0.0
 40
3.8
  1
オフホワイト
 41
0.736842
  7
EXCADSTD
 72
     5
 11
189.4
 21
276.6
 31
0.0
100
AcDbText
  0
TEXT
  5
AA
100
AcDbEntity
  8
LAY-1
  6
CONTINUOUS
 62
     2
100
AcDbText
 10
169.4
 20
266.6
 30
0.0
 40
3.8
  1
十字穴付ナベ１種
 41
0.729474
  7
EXCADSTD
 72
     5
 11
195.8
 21
266.6
 31
0.0
100
AcDbText
  0
LINE
  5
AB
100
AcDbEntity
  8
LAY-1
  6
CONTINUOUS
 62
     6
100
AcDbLine
 10
76.0
 20
27.0
 30
0.0
 11
20.0
 21
27.0
 31
0.0
  0
LINE
  5
AC
100
AcDbEntity
  8
LAY-1
  6
CONTINUOUS
 62
     6
100
AcDbLine
 10
35.0
 20
10.0
 30
0.0
 11
35.0
 21
32.0
 31
0.0
  0
LINE
  5
AD
100
AcDbEntity
  8
LAY-1
  6
CONTINUOUS
 62
     6
100
AcDbLine
 10
50.0
 20
10.0
 30
0.0
 11
50.0
 21
32.0
 31
0.0
  0
LINE
  5
AE
100
AcDbEntity
  8
LAY-1
  6
CONTINUOUS
 62
     6
100
AcDbLine
 10
63.0
 20
10.0
 30
0.0
 11
63.0
 21
32.0
 31
0.0
  0
LINE
  5
AF
100
AcDbEntity
  8
LAY-1
  6
CONTINUOUS
 62
     6
100
AcDbLine
 10
76.0
 20
10.0
 30
0.0
 11
76.0
 21
32.0
 31
0.0
  0
LINE
  5
B0
100
AcDbEntity
  8
LAY-1
  6
CONTINUOUS
 62
     6
100
AcDbLine
 10
76.0
 20
20.0
 30
0.0
 11
198.0
 21
20.0
 31
0.0
  0
LINE
  5
B1
100
AcDbEntity
  8
LAY-1
  6
CONTINUOUS
 62
     6
100
AcDbLine
 10
182.0
 20
20.0
 30
0.0
 11
182.0
 21
32.0
 31
0.0
  0
LINE
  5
B2
100
AcDbEntity
  8
LAY-1
  6
CONTINUOUS
 62
     6
100
AcDbLine
 10
81.0
 20
20.0
 30
0.0
 11
81.0
 21
32.0
 31
0.0
  0
LINE
  5
B3
100
AcDbEntity
  8
LAY-1
  6
EXLTYPE2
 62
     6
100
AcDbLine
 10
20.0
 20
15.0
 30
0.0
 11
76.0
 21
15.0
 31
0.0
  0
LINE
  5
B4
100
AcDbEntity
  8
LAY-1
  6
CONTINUOUS
 62
     6
100
AcDbLine
 10
196.9
 20
29.8125
 30
0.0
 11
188.1
 21
22.3875
 31
0.0
  0
LINE
  5
B5
100
AcDbEntity
  8
LAY-1
  6
CONTINUOUS
 62
     6
100
AcDbLine
 10
140.0
 20
32.0
 30
0.0
 11
140.0
 21
10.0
 31
0.0
  0
LINE
  5
B6
100
AcDbEntity
  8
LAY-1
  6
CONTINUOUS
 62
     6
100
AcDbLine
 10
145.0
 20
10.0
 30
0.0
 11
145.0
 21
32.0
 31
0.0
  0
LINE
  5
B7
100
AcDbEntity
  8
LAY-1
  6
CONTINUOUS
 62
     6
100
AcDbLine
 10
187.0
 20
32.0
 30
0.0
 11
187.0
 21
20.0
 31
0.0
  0
LINE
  5
B8
100
AcDbEntity
  8
LAY-1
  6
CONTINUOUS
 62
     6
100
AcDbLine
 10
168.0
 20
286.0
 30
0.0
 11
168.0
 21
266.0
 31
0.0
  0
LINE
  5
B9
100
AcDbEntity
  8
LAY-1
  6
CONTINUOUS
 62
     6
100
AcDbLine
 10
157.0
 20
286.0
 30
0.0
 11
157.0
 21
266.0
 31
0.0
  0
LINE
  5
BA
100
AcDbEntity
  8
LAY-1
  6
CONTINUOUS
 62
     6
100
AcDbLine
 10
127.0
 20
286.0
 30
0.0
 11
127.0
 21
266.0
 31
0.0
  0
LINE
  5
BB
100
AcDbEntity
  8
LAY-1
  6
CONTINUOUS
 62
     6
100
AcDbLine
 10
97.0
 20
286.0
 30
0.0
 11
97.0
 21
266.0
 31
0.0
  0
LINE
  5
BC
100
AcDbEntity
  8
LAY-1
  6
CONTINUOUS
 62
     6
100
AcDbLine
 10
86.0
 20
286.0
 30
0.0
 11
86.0
 21
266.0
 31
0.0
  0
LINE
  5
BD
100
AcDbEntity
  8
LAY-1
  6
CONTINUOUS
 62
     6
100
AcDbLine
 10
86.0
 20
281.0
 30
0.0
 11
198.0
 21
281.0
 31
0.0
  0
LINE
  5
BE
100
AcDbEntity
  8
LAY-1
  6
CONTINUOUS
 62
     6
100
AcDbLine
 10
86.0
 20
276.0
 30
0.0
 11
198.0
 21
276.0
 31
0.0
  0
LINE
  5
BF
100
AcDbEntity
  8
LAY-1
  6
CONTINUOUS
 62
     6
100
AcDbLine
 10
86.0
 20
271.0
 30
0.0
 11
198.0
 21
271.0
 31
0.0
  0
LINE
  5
C0
100
AcDbEntity
  8
LAY-1
  6
CONTINUOUS
 62
     6
100
AcDbLine
 10
86.0
 20
266.0
 30
0.0
 11
198.0
 21
266.0
 31
0.0
  0
LINE
  5
C1
100
AcDbEntity
  8
LAY-1
  6
CONTINUOUS
 62
     2
100
AcDbLine
 10
78.118
 20
16.578
 30
0.0
 11
78.118
 21
17.12
 31
0.0
  0
LINE
  5
C2
100
AcDbEntity
  8
LAY-1
  6
CONTINUOUS
 62
     2
100
AcDbLine
 10
78.118
 20
17.12
 30
0.0
 11
80.708
 21
17.12
 31
0.0
  0
LINE
  5
C3
100
AcDbEntity
  8
LAY-1
  6
CONTINUOUS
 62
     2
100
AcDbLine
 10
80.708
 20
17.12
 30
0.0
 11
80.708
 21
16.578
 31
0.0
  0
LINE
  5
C4
100
AcDbEntity
  8
LAY-1
  6
CONTINUOUS
 62
     2
100
AcDbLine
 10
80.708
 20
16.578
 30
0.0
 11
78.118
 21
16.578
 31
0.0
  0
LINE
  5
C5
100
AcDbEntity
  8
LAY-1
  6
CONTINUOUS
 62
     2
100
AcDbLine
 10
78.268
 20
16.728
 30
0.0
 11
78.268
 21
16.97
 31
0.0
  0
LINE
  5
C6
100
AcDbEntity
  8
LAY-1
  6
CONTINUOUS
 62
     2
100
AcDbLine
 10
78.268
 20
16.97
 30
0.0
 11
80.558
 21
16.97
 31
0.0
  0
LINE
  5
C7
100
AcDbEntity
  8
LAY-1
  6
CONTINUOUS
 62
     2
100
AcDbLine
 10
80.558
 20
16.97
 30
0.0
 11
80.558
 21
16.728
 31
0.0
  0
LINE
  5
C8
100
AcDbEntity
  8
LAY-1
  6
CONTINUOUS
 62
     2
100
AcDbLine
 10
80.558
 20
16.728
 30
0.0
 11
78.268
 21
16.728
 31
0.0
  0
LINE
  5
C9
100
AcDbEntity
  8
LAY-1
  6
CONTINUOUS
 62
     2
100
AcDbLine
 10
78.118
 20
15.252
 30
0.0
 11
78.118
 21
15.794
 31
0.0
  0
LINE
  5
CA
100
AcDbEntity
  8
LAY-1
  6
CONTINUOUS
 62
     2
100
AcDbLine
 10
78.118
 20
15.794
 30
0.0
 11
80.708
 21
15.794
 31
0.0
  0
LINE
  5
CB
100
AcDbEntity
  8
LAY-1
  6
CONTINUOUS
 62
     2
100
AcDbLine
 10
80.708
 20
15.794
 30
0.0
 11
80.708
 21
15.252
 31
0.0
  0
LINE
  5
CC
100
AcDbEntity
  8
LAY-1
  6
CONTINUOUS
 62
     2
100
AcDbLine
 10
80.708
 20
15.252
 30
0.0
 11
78.118
 21
15.252
 31
0.0
  0
LINE
  5
CD
100
AcDbEntity
  8
LAY-1
  6
CONTINUOUS
 62
     2
100
AcDbLine
 10
78.268
 20
15.402
 30
0.0
 11
78.268
 21
15.644
 31
0.0
  0
LINE
  5
CE
100
AcDbEntity
  8
LAY-1
  6
CONTINUOUS
 62
     2
100
AcDbLine
 10
78.268
 20
15.644
 30
0.0
 11
80.558
 21
15.644
 31
0.0
  0
LINE
  5
CF
100
AcDbEntity
  8
LAY-1
  6
CONTINUOUS
 62
     2
100
AcDbLine
 10
80.558
 20
15.644
 30
0.0
 11
80.558
 21
15.402
 31
0.0
  0
LINE
  5
D0
100
AcDbEntity
  8
LAY-1
  6
CONTINUOUS
 62
     2
100
AcDbLine
 10
80.558
 20
15.402
 30
0.0
 11
78.268
 21
15.402
 31
0.0
  0
LINE
  5
D1
100
AcDbEntity
  8
LAY-1
  6
CONTINUOUS
 62
     2
100
AcDbLine
 10
81.938
 20
16.578
 30
0.0
 11
81.938
 21
17.12
 31
0.0
  0
LINE
  5
D2
100
AcDbEntity
  8
LAY-1
  6
CONTINUOUS
 62
     2
100
AcDbLine
 10
81.938
 20
17.12
 30
0.0
 11
82.464
 21
17.12
 31
0.0
  0
LINE
  5
D3
100
AcDbEntity
  8
LAY-1
  6
CONTINUOUS
 62
     2
100
AcDbLine
 10
82.464
 20
17.12
 30
0.0
 11
82.464
 21
16.578
 31
0.0
  0
LINE
  5
D4
100
AcDbEntity
  8
LAY-1
  6
CONTINUOUS
 62
     2
100
AcDbLine
 10
82.464
 20
16.578
 30
0.0
 11
81.938
 21
16.578
 31
0.0
  0
LINE
  5
D5
100
AcDbEntity
  8
LAY-1
  6
CONTINUOUS
 62
     2
100
AcDbLine
 10
82.088
 20
16.728
 30
0.0
 11
82.088
 21
16.97
 31
0.0
  0
LINE
  5
D6
100
AcDbEntity
  8
LAY-1
  6
CONTINUOUS
 62
     2
100
AcDbLine
 10
82.088
 20
16.97
 30
0.0
 11
82.314
 21
16.97
 31
0.0
  0
LINE
  5
D7
100
AcDbEntity
  8
LAY-1
  6
CONTINUOUS
 62
     2
100
AcDbLine
 10
82.314
 20
16.97
 30
0.0
 11
82.314
 21
16.728
 31
0.0
  0
LINE
  5
D8
100
AcDbEntity
  8
LAY-1
  6
CONTINUOUS
 62
     2
100
AcDbLine
 10
82.314
 20
16.728
 30
0.0
 11
82.088
 21
16.728
 31
0.0
  0
LINE
  5
D9
100
AcDbEntity
  8
LAY-1
  6
CONTINUOUS
 62
     2
100
AcDbLine
 10
83.072
 20
16.578
 30
0.0
 11
83.072
 21
17.12
 31
0.0
  0
LINE
  5
DA
100
AcDbEntity
  8
LAY-1
  6
CONTINUOUS
 62
     2
100
AcDbLine
 10
83.072
 20
17.12
 30
0.0
 11
83.598
 21
17.12
 31
0.0
  0
LINE
  5
DB
100
AcDbEntity
  8
LAY-1
  6
CONTINUOUS
 62
     2
100
AcDbLine
 10
83.598
 20
17.12
 30
0.0
 11
83.598
 21
16.578
 31
0.0
  0
LINE
  5
DC
100
AcDbEntity
  8
LAY-1
  6
CONTINUOUS
 62
     2
100
AcDbLine
 10
83.598
 20
16.578
 30
0.0
 11
83.072
 21
16.578
 31
0.0
  0
LINE
  5
DD
100
AcDbEntity
  8
LAY-1
  6
CONTINUOUS
 62
     2
100
AcDbLine
 10
83.222
 20
16.728
 30
0.0
 11
83.222
 21
16.97
 31
0.0
  0
LINE
  5
DE
100
AcDbEntity
  8
LAY-1
  6
CONTINUOUS
 62
     2
100
AcDbLine
 10
83.222
 20
16.97
 30
0.0
 11
83.448
 21
16.97
 31
0.0
  0
LINE
  5
DF
100
AcDbEntity
  8
LAY-1
  6
CONTINUOUS
 62
     2
100
AcDbLine
 10
83.448
 20
16.97
 30
0.0
 11
83.448
 21
16.728
 31
0.0
  0
LINE
  5
E0
100
AcDbEntity
  8
LAY-1
  6
CONTINUOUS
 62
     2
100
AcDbLine
 10
83.448
 20
16.728
 30
0.0
 11
83.222
 21
16.728
 31
0.0
  0
LINE
  5
E1
100
AcDbEntity
  8
LAY-1
  6
CONTINUOUS
 62
     2
100
AcDbLine
 10
78.118
 20
13.612
 30
0.0
 11
80.809981
 21
13.612
 31
0.0
  0
ARC
  5
E2
100
AcDbEntity
  8
LAY-1
  6
CONTINUOUS
 62
     2
100
AcDbCircle
 10
80.809981
 20
14.588
 30
0.0
 40
0.976
100
AcDbArc
 50
270.0
 51
334.0
  0
LINE
  5
E3
100
AcDbEntity
  8
LAY-1
  6
CONTINUOUS
 62
     2
100
AcDbLine
 10
81.687204
 20
14.16015
 30
0.0
 11
82.57773
 21
15.986
 31
0.0
  0
LINE
  5
E4
100
AcDbEntity
  8
LAY-1
  6
CONTINUOUS
 62
     2
100
AcDbLine
 10
82.57773
 20
15.986
 30
0.0
 11
83.50795
 21
15.986
 31
0.0
  0
LINE
  5
E5
100
AcDbEntity
  8
LAY-1
  6
CONTINUOUS
 62
     2
100
AcDbLine
 10
83.50795
 20
15.986
 30
0.0
 11
82.460916
 21
13.839262
 31
0.0
  0
ARC
  5
E6
100
AcDbEntity
  8
LAY-1
  6
CONTINUOUS
 62
     2
100
AcDbCircle
 10
80.925776
 20
14.588
 30
0.0
 40
1.708
100
AcDbArc
 50
270.0
 51
334.0
  0
LINE
  5
E7
100
AcDbEntity
  8
LAY-1
  6
CONTINUOUS
 62
     2
100
AcDbLine
 10
80.925776
 20
12.88
 30
0.0
 11
78.118
 21
12.88
 31
0.0
  0
LINE
  5
E8
100
AcDbEntity
  8
LAY-1
  6
CONTINUOUS
 62
     2
100
AcDbLine
 10
78.118
 20
12.88
 30
0.0
 11
78.118
 21
13.612
 31
0.0
  0
LINE
  5
E9
100
AcDbEntity
  8
LAY-1
  6
CONTINUOUS
 62
     2
100
AcDbLine
 10
78.268
 20
13.03
 30
0.0
 11
78.268
 21
13.462
 31
0.0
  0
LINE
  5
EA
100
AcDbEntity
  8
LAY-1
  6
CONTINUOUS
 62
     2
100
AcDbLine
 10
78.268
 20
13.462
 30
0.0
 11
80.809981
 21
13.462
 31
0.0
  0
ARC
  5
EB
100
AcDbEntity
  8
LAY-1
  6
CONTINUOUS
 62
     2
100
AcDbCircle
 10
80.809981
 20
14.588
 30
0.0
 40
1.126
100
AcDbArc
 50
270.0
 51
334.0
  0
LINE
  5
EC
100
AcDbEntity
  8
LAY-1
  6
CONTINUOUS
 62
     2
100
AcDbLine
 10
81.822023
 20
14.094394
 30
0.0
 11
82.671461
 21
15.836
 31
0.0
  0
LINE
  5
ED
100
AcDbEntity
  8
LAY-1
  6
CONTINUOUS
 62
     2
100
AcDbLine
 10
82.671461
 20
15.836
 30
0.0
 11
83.2679
 21
15.836
 31
0.0
  0
LINE
  5
EE
100
AcDbEntity
  8
LAY-1
  6
CONTINUOUS
 62
     2
100
AcDbLine
 10
83.2679
 20
15.836
 30
0.0
 11
82.326097
 21
13.905018
 31
0.0
  0
ARC
  5
EF
100
AcDbEntity
  8
LAY-1
  6
CONTINUOUS
 62
     2
100
AcDbCircle
 10
80.925776
 20
14.588
 30
0.0
 40
1.558
100
AcDbArc
 50
270.0
 51
334.0
  0
LINE
  5
F0
100
AcDbEntity
  8
LAY-1
  6
CONTINUOUS
 62
     2
100
AcDbLine
 10
80.925776
 20
13.03
 30
0.0
 11
78.268
 21
13.03
 31
0.0
  0
LINE
  5
F1
100
AcDbEntity
  8
LAY-1
  6
CONTINUOUS
 62
     2
100
AcDbLine
 10
78.418
 20
13.312
 30
0.0
 11
80.809981
 21
13.312
 31
0.0
  0
ARC
  5
F2
100
AcDbEntity
  8
LAY-1
  6
CONTINUOUS
 62
     2
100
AcDbCircle
 10
80.809981
 20
14.588
 30
0.0
 40
1.276
100
AcDbArc
 50
270.0
 51
334.0
  0
LINE
  5
F3
100
AcDbEntity
  8
LAY-1
  6
CONTINUOUS
 62
     2
100
AcDbLine
 10
81.956842
 20
14.028638
 30
0.0
 11
82.765191
 21
15.686
 31
0.0
  0
LINE
  5
F4
100
AcDbEntity
  8
LAY-1
  6
CONTINUOUS
 62
     2
100
AcDbLine
 10
82.765191
 20
15.686
 30
0.0
 11
83.027849
 21
15.686
 31
0.0
  0
LINE
  5
F5
100
AcDbEntity
  8
LAY-1
  6
CONTINUOUS
 62
     2
100
AcDbLine
 10
83.027849
 20
15.686
 30
0.0
 11
82.191278
 21
13.970773
 31
0.0
  0
ARC
  5
F6
100
AcDbEntity
  8
LAY-1
  6
CONTINUOUS
 62
     2
100
AcDbCircle
 10
80.925776
 20
14.588
 30
0.0
 40
1.408
100
AcDbArc
 50
270.0
 51
334.0
  0
LINE
  5
F7
100
AcDbEntity
  8
LAY-1
  6
CONTINUOUS
 62
     2
100
AcDbLine
 10
80.925776
 20
13.18
 30
0.0
 11
78.418
 21
13.18
 31
0.0
  0
LINE
  5
F8
100
AcDbEntity
  8
LAY-1
  6
CONTINUOUS
 62
     2
100
AcDbLine
 10
78.418
 20
13.18
 30
0.0
 11
78.418
 21
13.312
 31
0.0
  0
LINE
  5
F9
100
AcDbEntity
  8
LAY-1
  6
CONTINUOUS
 62
     2
100
AcDbLine
 10
85.171981
 20
15.986
 30
0.0
 11
85.057627
 21
16.708
 31
0.0
  0
LINE
  5
FA
100
AcDbEntity
  8
LAY-1
  6
CONTINUOUS
 62
     2
100
AcDbLine
 10
85.057627
 20
16.708
 30
0.0
 11
85.903888
 21
16.708
 31
0.0
  0
LINE
  5
FB
100
AcDbEntity
  8
LAY-1
  6
CONTINUOUS
 62
     2
100
AcDbLine
 10
85.903888
 20
16.708
 30
0.0
 11
86.018241
 21
15.986
 31
0.0
  0
LINE
  5
FC
100
AcDbEntity
  8
LAY-1
  6
CONTINUOUS
 62
     2
100
AcDbLine
 10
86.018241
 20
15.986
 30
0.0
 11
88.77902
 21
15.986
 31
0.0
  0
LINE
  5
FD
100
AcDbEntity
  8
LAY-1
  6
CONTINUOUS
 62
     2
100
AcDbLine
 10
88.77902
 20
15.986
 30
0.0
 11
88.273856
 21
14.851382
 31
0.0
  0
ARC
  5
FE
100
AcDbEntity
  8
LAY-1
  6
CONTINUOUS
 62
     2
100
AcDbCircle
 10
86.996719
 20
15.42
 30
0.0
 40
1.398
100
AcDbArc
 50
270.0
 51
336.0
  0
LINE
  5
FF
100
AcDbEntity
  8
LAY-1
  6
CONTINUOUS
 62
     2
100
AcDbLine
 10
86.996719
 20
14.022
 30
0.0
 11
86.946912
 21
14.022
 31
0.0
  0
LINE
  5
100
100
AcDbEntity
  8
LAY-1
  6
CONTINUOUS
 62
     2
100
AcDbLine
 10
86.946912
 20
14.022
 30
0.0
 11
86.873291
 21
14.486829
 31
0.0
  0
ARC
  5
101
100
AcDbEntity
  8
LAY-1
  6
CONTINUOUS
 62
     2
100
AcDbCircle
 10
86.687184
 20
15.234
 30
0.0
 40
0.77
100
AcDbArc
 50
283.986683
 51
336.0
  0
LINE
  5
102
100
AcDbEntity
  8
LAY-1
  6
CONTINUOUS
 62
     2
100
AcDbLine
 10
87.390614
 20
14.920813
 30
0.0
 11
87.67698
 21
15.564
 31
0.0
  0
LINE
  5
103
100
AcDbEntity
  8
LAY-1
  6
CONTINUOUS
 62
     2
100
AcDbLine
 10
87.67698
 20
15.564
 30
0.0
 11
86.08508
 21
15.564
 31
0.0
  0
LINE
  5
104
100
AcDbEntity
  8
LAY-1
  6
CONTINUOUS
 62
     2
100
AcDbLine
 10
86.08508
 20
15.564
 30
0.0
 11
86.510184
 21
12.88
 31
0.0
  0
LINE
  5
105
100
AcDbEntity
  8
LAY-1
  6
CONTINUOUS
 62
     2
100
AcDbLine
 10
86.510184
 20
12.88
 30
0.0
 11
85.663923
 21
12.88
 31
0.0
  0
LINE
  5
106
100
AcDbEntity
  8
LAY-1
  6
CONTINUOUS
 62
     2
100
AcDbLine
 10
85.663923
 20
12.88
 30
0.0
 11
85.238819
 21
15.564
 31
0.0
  0
LINE
  5
107
100
AcDbEntity
  8
LAY-1
  6
CONTINUOUS
 62
     2
100
AcDbLine
 10
85.238819
 20
15.564
 30
0.0
 11
84.206
 21
15.564
 31
0.0
  0
LINE
  5
108
100
AcDbEntity
  8
LAY-1
  6
CONTINUOUS
 62
     2
100
AcDbLine
 10
84.206
 20
15.564
 30
0.0
 11
84.206
 21
15.986
 31
0.0
  0
LINE
  5
109
100
AcDbEntity
  8
LAY-1
  6
CONTINUOUS
 62
     2
100
AcDbLine
 10
84.206
 20
15.986
 30
0.0
 11
85.171981
 21
15.986
 31
0.0
  0
LINE
  5
10A
100
AcDbEntity
  8
LAY-1
  6
CONTINUOUS
 62
     2
100
AcDbLine
 10
85.347608
 20
15.836
 30
0.0
 11
85.233255
 21
16.558
 31
0.0
  0
LINE
  5
10B
100
AcDbEntity
  8
LAY-1
  6
CONTINUOUS
 62
     2
100
AcDbLine
 10
85.233255
 20
16.558
 30
0.0
 11
85.775776
 21
16.558
 31
0.0
  0
LINE
  5
10C
100
AcDbEntity
  8
LAY-1
  6
CONTINUOUS
 62
     2
100
AcDbLine
 10
85.775776
 20
16.558
 30
0.0
 11
85.890129
 21
15.836
 31
0.0
  0
LINE
  5
10D
100
AcDbEntity
  8
LAY-1
  6
CONTINUOUS
 62
     2
100
AcDbLine
 10
85.890129
 20
15.836
 30
0.0
 11
88.548041
 21
15.836
 31
0.0
  0
LINE
  5
10E
100
AcDbEntity
  8
LAY-1
  6
CONTINUOUS
 62
     2
100
AcDbLine
 10
88.548041
 20
15.836
 30
0.0
 11
88.136824
 21
14.912393
 31
0.0
  0
ARC
  5
10F
100
AcDbEntity
  8
LAY-1
  6
CONTINUOUS
 62
     2
100
AcDbCircle
 10
86.996719
 20
15.42
 30
0.0
 40
1.248
100
AcDbArc
 50
270.0
 51
336.0
  0
LINE
  5
110
100
AcDbEntity
  8
LAY-1
  6
CONTINUOUS
 62
     2
100
AcDbLine
 10
86.996719
 20
14.172
 30
0.0
 11
87.075024
 21
14.172
 31
0.0
  0
LINE
  5
111
100
AcDbEntity
  8
LAY-1
  6
CONTINUOUS
 62
     2
100
AcDbLine
 10
87.075024
 20
14.172
 30
0.0
 11
87.041307
 21
14.384884
 31
0.0
  0
ARC
  5
112
100
AcDbEntity
  8
LAY-1
  6
CONTINUOUS
 62
     2
100
AcDbCircle
 10
86.687184
 20
15.234
 30
0.0
 40
0.92
100
AcDbArc
 50
292.638505
 51
336.0
  0
LINE
  5
113
100
AcDbEntity
  8
LAY-1
  6
CONTINUOUS
 62
     2
100
AcDbLine
 10
87.527646
 20
14.859802
 30
0.0
 11
87.907959
 21
15.714
 31
0.0
  0
LINE
  5
114
100
AcDbEntity
  8
LAY-1
  6
CONTINUOUS
 62
     2
100
AcDbLine
 10
87.907959
 20
15.714
 30
0.0
 11
85.909452
 21
15.714
 31
0.0
  0
LINE
  5
115
100
AcDbEntity
  8
LAY-1
  6
CONTINUOUS
 62
     2
100
AcDbLine
 10
85.909452
 20
15.714
 30
0.0
 11
86.334556
 21
13.03
 31
0.0
  0
LINE
  5
116
100
AcDbEntity
  8
LAY-1
  6
CONTINUOUS
 62
     2
100
AcDbLine
 10
86.334556
 20
13.03
 30
0.0
 11
85.792035
 21
13.03
 31
0.0
  0
LINE
  5
117
100
AcDbEntity
  8
LAY-1
  6
CONTINUOUS
 62
     2
100
AcDbLine
 10
85.792035
 20
13.03
 30
0.0
 11
85.366931
 21
15.714
 31
0.0
  0
LINE
  5
118
100
AcDbEntity
  8
LAY-1
  6
CONTINUOUS
 62
     2
100
AcDbLine
 10
85.366931
 20
15.714
 30
0.0
 11
84.356
 21
15.714
 31
0.0
  0
LINE
  5
119
100
AcDbEntity
  8
LAY-1
  6
CONTINUOUS
 62
     2
100
AcDbLine
 10
84.356
 20
15.714
 30
0.0
 11
84.356
 21
15.836
 31
0.0
  0
LINE
  5
11A
100
AcDbEntity
  8
LAY-1
  6
CONTINUOUS
 62
     2
100
AcDbLine
 10
84.356
 20
15.836
 30
0.0
 11
85.347608
 21
15.836
 31
0.0
  0
LINE
  5
11B
100
AcDbEntity
  8
LAY-1
  6
CONTINUOUS
 62
     2
100
AcDbLine
 10
85.63
 20
16.37
 30
0.0
 11
86.13
 21
13.18
 31
0.0
  0
LINE
  5
11C
100
AcDbEntity
  8
LAY-1
  6
CONTINUOUS
 62
     2
100
AcDbLine
 10
85.44
 20
16.41
 30
0.0
 11
85.95
 21
13.17
 31
0.0
  0
LINE
  5
11D
100
AcDbEntity
  8
LAY-1
  6
CONTINUOUS
 62
     2
100
AcDbLine
 10
88.05
 20
15.68
 30
0.0
 11
87.56
 21
14.55
 31
0.0
  0
LINE
  5
11E
100
AcDbEntity
  8
LAY-1
  6
CONTINUOUS
 62
     2
100
AcDbLine
 10
88.3
 20
15.7
 30
0.0
 11
87.78
 21
14.59
 31
0.0
  0
LINE
  5
11F
100
AcDbEntity
  8
LAY-1
  6
CONTINUOUS
 62
     2
100
AcDbLine
 10
87.64
 20
14.51
 30
0.0
 11
87.19
 21
14.32
 31
0.0
  0
LINE
  5
120
100
AcDbEntity
  8
LAY-1
  6
CONTINUOUS
 62
     2
100
AcDbLine
 10
89.421
 20
17.12
 30
0.0
 11
94.075
 21
17.12
 31
0.0
  0
LINE
  5
121
100
AcDbEntity
  8
LAY-1
  6
CONTINUOUS
 62
     2
100
AcDbLine
 10
94.075
 20
17.12
 30
0.0
 11
94.075
 21
16.388
 31
0.0
  0
LINE
  5
122
100
AcDbEntity
  8
LAY-1
  6
CONTINUOUS
 62
     2
100
AcDbLine
 10
94.075
 20
16.388
 30
0.0
 11
89.421
 21
16.388
 31
0.0
  0
LINE
  5
123
100
AcDbEntity
  8
LAY-1
  6
CONTINUOUS
 62
     2
100
AcDbLine
 10
89.421
 20
16.388
 30
0.0
 11
89.421
 21
17.12
 31
0.0
  0
LINE
  5
124
100
AcDbEntity
  8
LAY-1
  6
CONTINUOUS
 62
     2
100
AcDbLine
 10
89.571
 20
16.97
 30
0.0
 11
93.925
 21
16.97
 31
0.0
  0
LINE
  5
125
100
AcDbEntity
  8
LAY-1
  6
CONTINUOUS
 62
     2
100
AcDbLine
 10
93.925
 20
16.97
 30
0.0
 11
93.925
 21
16.538
 31
0.0
  0
LINE
  5
126
100
AcDbEntity
  8
LAY-1
  6
CONTINUOUS
 62
     2
100
AcDbLine
 10
93.925
 20
16.538
 30
0.0
 11
89.571
 21
16.538
 31
0.0
  0
LINE
  5
127
100
AcDbEntity
  8
LAY-1
  6
CONTINUOUS
 62
     2
100
AcDbLine
 10
89.571
 20
16.538
 30
0.0
 11
89.571
 21
16.97
 31
0.0
  0
LINE
  5
128
100
AcDbEntity
  8
LAY-1
  6
CONTINUOUS
 62
     2
100
AcDbLine
 10
89.73
 20
16.74
 30
0.0
 11
93.82
 21
16.74
 31
0.0
  0
LINE
  5
129
100
AcDbEntity
  8
LAY-1
  6
CONTINUOUS
 62
     2
100
AcDbLine
 10
89.058
 20
13.612
 30
0.0
 11
94.438
 21
13.612
 31
0.0
  0
LINE
  5
12A
100
AcDbEntity
  8
LAY-1
  6
CONTINUOUS
 62
     2
100
AcDbLine
 10
94.438
 20
13.612
 30
0.0
 11
94.438
 21
12.88
 31
0.0
  0
LINE
  5
12B
100
AcDbEntity
  8
LAY-1
  6
CONTINUOUS
 62
     2
100
AcDbLine
 10
94.438
 20
12.88
 30
0.0
 11
89.058
 21
12.88
 31
0.0
  0
LINE
  5
12C
100
AcDbEntity
  8
LAY-1
  6
CONTINUOUS
 62
     2
100
AcDbLine
 10
89.058
 20
12.88
 30
0.0
 11
89.058
 21
13.612
 31
0.0
  0
LINE
  5
12D
100
AcDbEntity
  8
LAY-1
  6
CONTINUOUS
 62
     2
100
AcDbLine
 10
89.208
 20
13.462
 30
0.0
 11
94.288
 21
13.462
 31
0.0
  0
LINE
  5
12E
100
AcDbEntity
  8
LAY-1
  6
CONTINUOUS
 62
     2
100
AcDbLine
 10
94.288
 20
13.462
 30
0.0
 11
94.288
 21
13.03
 31
0.0
  0
LINE
  5
12F
100
AcDbEntity
  8
LAY-1
  6
CONTINUOUS
 62
     2
100
AcDbLine
 10
94.288
 20
13.03
 30
0.0
 11
89.208
 21
13.03
 31
0.0
  0
LINE
  5
130
100
AcDbEntity
  8
LAY-1
  6
CONTINUOUS
 62
     2
100
AcDbLine
 10
89.208
 20
13.03
 30
0.0
 11
89.208
 21
13.462
 31
0.0
  0
LINE
  5
131
100
AcDbEntity
  8
LAY-1
  6
CONTINUOUS
 62
     2
100
AcDbLine
 10
89.37
 20
13.24
 30
0.0
 11
94.17
 21
13.24
 31
0.0
  0
LINE
  5
132
100
AcDbEntity
  8
LAY-1
  6
CONTINUOUS
 62
     2
100
AcDbLine
 10
95.56
 20
17.12
 30
0.0
 11
100.481608
 21
17.12
 31
0.0
  0
LINE
  5
133
100
AcDbEntity
  8
LAY-1
  6
CONTINUOUS
 62
     2
100
AcDbLine
 10
100.481608
 20
17.12
 30
0.0
 11
98.71167
 21
14.683889
 31
0.0
  0
LINE
  5
134
100
AcDbEntity
  8
LAY-1
  6
CONTINUOUS
 62
     2
100
AcDbLine
 10
98.71167
 20
14.683889
 30
0.0
 11
100.786807
 21
12.88
 31
0.0
  0
LINE
  5
135
100
AcDbEntity
  8
LAY-1
  6
CONTINUOUS
 62
     2
100
AcDbLine
 10
100.786807
 20
12.88
 30
0.0
 11
99.740083
 21
12.88
 31
0.0
  0
LINE
  5
136
100
AcDbEntity
  8
LAY-1
  6
CONTINUOUS
 62
     2
100
AcDbLine
 10
99.740083
 20
12.88
 30
0.0
 11
98.306489
 21
14.126204
 31
0.0
  0
LINE
  5
137
100
AcDbEntity
  8
LAY-1
  6
CONTINUOUS
 62
     2
100
AcDbLine
 10
98.306489
 20
14.126204
 30
0.0
 11
97.9126
 21
13.584063
 31
0.0
  0
ARC
  5
138
100
AcDbEntity
  8
LAY-1
  6
CONTINUOUS
 62
     2
100
AcDbCircle
 10
96.530799
 20
14.588
 30
0.0
 40
1.708
100
AcDbArc
 50
270.0
 51
324.0
  0
LINE
  5
139
100
AcDbEntity
  8
LAY-1
  6
CONTINUOUS
 62
     2
100
AcDbLine
 10
96.530799
 20
12.88
 30
0.0
 11
95.246
 21
12.88
 31
0.0
  0
LINE
  5
13A
100
AcDbEntity
  8
LAY-1
  6
CONTINUOUS
 62
     2
100
AcDbLine
 10
95.246
 20
12.88
 30
0.0
 11
95.246
 21
13.612
 31
0.0
  0
LINE
  5
13B
100
AcDbEntity
  8
LAY-1
  6
CONTINUOUS
 62
     2
100
AcDbLine
 10
95.246
 20
13.612
 30
0.0
 11
96.29925
 21
13.612
 31
0.0
  0
ARC
  5
13C
100
AcDbEntity
  8
LAY-1
  6
CONTINUOUS
 62
     2
100
AcDbCircle
 10
96.29925
 20
14.794
 30
0.0
 40
1.182
100
AcDbArc
 50
270.0
 51
324.0
  0
LINE
  5
13D
100
AcDbEntity
  8
LAY-1
  6
CONTINUOUS
 62
     2
100
AcDbLine
 10
97.255509
 20
14.099238
 30
0.0
 11
98.918392
 21
16.388
 31
0.0
  0
LINE
  5
13E
100
AcDbEntity
  8
LAY-1
  6
CONTINUOUS
 62
     2
100
AcDbLine
 10
98.918392
 20
16.388
 30
0.0
 11
95.56
 21
16.388
 31
0.0
  0
LINE
  5
13F
100
AcDbEntity
  8
LAY-1
  6
CONTINUOUS
 62
     2
100
AcDbLine
 10
95.56
 20
16.388
 30
0.0
 11
95.56
 21
17.12
 31
0.0
  0
LINE
  5
140
100
AcDbEntity
  8
LAY-1
  6
CONTINUOUS
 62
     2
100
AcDbLine
 10
95.396
 20
13.462
 30
0.0
 11
96.29925
 21
13.462
 31
0.0
  0
ARC
  5
141
100
AcDbEntity
  8
LAY-1
  6
CONTINUOUS
 62
     2
100
AcDbCircle
 10
96.29925
 20
14.794
 30
0.0
 40
1.332
100
AcDbArc
 50
270.0
 51
324.0
  0
LINE
  5
142
100
AcDbEntity
  8
LAY-1
  6
CONTINUOUS
 62
     2
100
AcDbLine
 10
97.376861
 20
14.01107
 30
0.0
 11
99.212783
 21
16.538
 31
0.0
  0
LINE
  5
143
100
AcDbEntity
  8
LAY-1
  6
CONTINUOUS
 62
     2
100
AcDbLine
 10
99.212783
 20
16.538
 30
0.0
 11
95.71
 21
16.538
 31
0.0
  0
LINE
  5
144
100
AcDbEntity
  8
LAY-1
  6
CONTINUOUS
 62
     2
100
AcDbLine
 10
95.71
 20
16.538
 30
0.0
 11
95.71
 21
16.97
 31
0.0
  0
LINE
  5
145
100
AcDbEntity
  8
LAY-1
  6
CONTINUOUS
 62
     2
100
AcDbLine
 10
95.71
 20
16.97
 30
0.0
 11
100.187217
 21
16.97
 31
0.0
  0
LINE
  5
146
100
AcDbEntity
  8
LAY-1
  6
CONTINUOUS
 62
     2
100
AcDbLine
 10
100.187217
 20
16.97
 30
0.0
 11
98.509527
 21
14.660857
 31
0.0
  0
LINE
  5
147
100
AcDbEntity
  8
LAY-1
  6
CONTINUOUS
 62
     2
100
AcDbLine
 10
98.509527
 20
14.660857
 30
0.0
 11
100.385614
 21
13.03
 31
0.0
  0
LINE
  5
148
100
AcDbEntity
  8
LAY-1
  6
CONTINUOUS
 62
     2
100
AcDbLine
 10
100.385614
 20
13.03
 30
0.0
 11
99.796165
 21
13.03
 31
0.0
  0
LINE
  5
149
100
AcDbEntity
  8
LAY-1
  6
CONTINUOUS
 62
     2
100
AcDbLine
 10
99.796165
 20
13.03
 30
0.0
 11
98.281354
 21
14.346805
 31
0.0
  0
LINE
  5
14A
100
AcDbEntity
  8
LAY-1
  6
CONTINUOUS
 62
     2
100
AcDbLine
 10
98.281354
 20
14.346805
 30
0.0
 11
97.791247
 21
13.672231
 31
0.0
  0
ARC
  5
14B
100
AcDbEntity
  8
LAY-1
  6
CONTINUOUS
 62
     2
100
AcDbCircle
 10
96.530799
 20
14.588
 30
0.0
 40
1.558
100
AcDbArc
 50
270.0
 51
324.0
  0
LINE
  5
14C
100
AcDbEntity
  8
LAY-1
  6
CONTINUOUS
 62
     2
100
AcDbLine
 10
96.530799
 20
13.03
 30
0.0
 11
95.396
 21
13.03
 31
0.0
  0
LINE
  5
14D
100
AcDbEntity
  8
LAY-1
  6
CONTINUOUS
 62
     2
100
AcDbLine
 10
95.396
 20
13.03
 30
0.0
 11
95.396
 21
13.462
 31
0.0
  0
LINE
  5
14E
100
AcDbEntity
  8
LAY-1
  6
CONTINUOUS
 62
     2
100
AcDbLine
 10
95.86
 20
16.82
 30
0.0
 11
99.892825
 21
16.82
 31
0.0
  0
LINE
  5
14F
100
AcDbEntity
  8
LAY-1
  6
CONTINUOUS
 62
     2
100
AcDbLine
 10
99.892825
 20
16.82
 30
0.0
 11
98.307383
 21
14.637826
 31
0.0
  0
LINE
  5
150
100
AcDbEntity
  8
LAY-1
  6
CONTINUOUS
 62
     2
100
AcDbLine
 10
98.307383
 20
14.637826
 30
0.0
 11
99.98442
 21
13.18
 31
0.0
  0
LINE
  5
151
100
AcDbEntity
  8
LAY-1
  6
CONTINUOUS
 62
     2
100
AcDbLine
 10
99.98442
 20
13.18
 30
0.0
 11
99.852248
 21
13.18
 31
0.0
  0
LINE
  5
152
100
AcDbEntity
  8
LAY-1
  6
CONTINUOUS
 62
     2
100
AcDbLine
 10
99.852248
 20
13.18
 30
0.0
 11
98.25622
 21
14.567406
 31
0.0
  0
LINE
  5
153
100
AcDbEntity
  8
LAY-1
  6
CONTINUOUS
 62
     2
100
AcDbLine
 10
98.25622
 20
14.567406
 30
0.0
 11
97.669895
 21
13.760398
 31
0.0
  0
ARC
  5
154
100
AcDbEntity
  8
LAY-1
  6
CONTINUOUS
 62
     2
100
AcDbCircle
 10
96.530799
 20
14.588
 30
0.0
 40
1.408
100
AcDbArc
 50
270.0
 51
324.0
  0
LINE
  5
155
100
AcDbEntity
  8
LAY-1
  6
CONTINUOUS
 62
     2
100
AcDbLine
 10
96.530799
 20
13.18
 30
0.0
 11
95.546
 21
13.18
 31
0.0
  0
LINE
  5
156
100
AcDbEntity
  8
LAY-1
  6
CONTINUOUS
 62
     2
100
AcDbLine
 10
95.546
 20
13.18
 30
0.0
 11
95.546
 21
13.312
 31
0.0
  0
LINE
  5
157
100
AcDbEntity
  8
LAY-1
  6
CONTINUOUS
 62
     2
100
AcDbLine
 10
95.546
 20
13.312
 30
0.0
 11
96.29925
 21
13.312
 31
0.0
  0
ARC
  5
158
100
AcDbEntity
  8
LAY-1
  6
CONTINUOUS
 62
     2
100
AcDbCircle
 10
96.29925
 20
14.794
 30
0.0
 40
1.482
100
AcDbArc
 50
270.0
 51
324.0
  0
LINE
  5
159
100
AcDbEntity
  8
LAY-1
  6
CONTINUOUS
 62
     2
100
AcDbLine
 10
97.498214
 20
13.922902
 30
0.0
 11
99.507175
 21
16.688
 31
0.0
  0
LINE
  5
15A
100
AcDbEntity
  8
LAY-1
  6
CONTINUOUS
 62
     2
100
AcDbLine
 10
99.507175
 20
16.688
 30
0.0
 11
95.86
 21
16.688
 31
0.0
  0
LINE
  5
15B
100
AcDbEntity
  8
LAY-1
  6
CONTINUOUS
 62
     2
100
AcDbLine
 10
95.86
 20
16.688
 30
0.0
 11
95.86
 21
16.82
 31
0.0
  0
LINE
  5
15C
100
AcDbEntity
  8
LAY-1
  6
CONTINUOUS
 62
     2
100
AcDbLine
 10
102.577
 20
17.12
 30
0.0
 11
107.643
 21
17.12
 31
0.0
  0
LINE
  5
15D
100
AcDbEntity
  8
LAY-1
  6
CONTINUOUS
 62
     2
100
AcDbLine
 10
107.643
 20
17.12
 30
0.0
 11
107.643
 21
16.698
 31
0.0
  0
LINE
  5
15E
100
AcDbEntity
  8
LAY-1
  6
CONTINUOUS
 62
     2
100
AcDbLine
 10
107.643
 20
16.698
 30
0.0
 11
105.528
 21
16.698
 31
0.0
  0
LINE
  5
15F
100
AcDbEntity
  8
LAY-1
  6
CONTINUOUS
 62
     2
100
AcDbLine
 10
105.528
 20
16.698
 30
0.0
 11
105.528
 21
13.406
 31
0.0
  0
LINE
  5
160
100
AcDbEntity
  8
LAY-1
  6
CONTINUOUS
 62
     2
100
AcDbLine
 10
105.528
 20
13.406
 30
0.0
 11
107.85
 21
13.406
 31
0.0
  0
LINE
  5
161
100
AcDbEntity
  8
LAY-1
  6
CONTINUOUS
 62
     2
100
AcDbLine
 10
107.85
 20
13.406
 30
0.0
 11
107.85
 21
12.88
 31
0.0
  0
LINE
  5
162
100
AcDbEntity
  8
LAY-1
  6
CONTINUOUS
 62
     2
100
AcDbLine
 10
107.85
 20
12.88
 30
0.0
 11
102.37
 21
12.88
 31
0.0
  0
LINE
  5
163
100
AcDbEntity
  8
LAY-1
  6
CONTINUOUS
 62
     2
100
AcDbLine
 10
102.37
 20
12.88
 30
0.0
 11
102.37
 21
13.406
 31
0.0
  0
LINE
  5
164
100
AcDbEntity
  8
LAY-1
  6
CONTINUOUS
 62
     2
100
AcDbLine
 10
102.37
 20
13.406
 30
0.0
 11
104.692
 21
13.406
 31
0.0
  0
LINE
  5
165
100
AcDbEntity
  8
LAY-1
  6
CONTINUOUS
 62
     2
100
AcDbLine
 10
104.692
 20
13.406
 30
0.0
 11
104.692
 21
16.698
 31
0.0
  0
LINE
  5
166
100
AcDbEntity
  8
LAY-1
  6
CONTINUOUS
 62
     2
100
AcDbLine
 10
104.692
 20
16.698
 30
0.0
 11
102.577
 21
16.698
 31
0.0
  0
LINE
  5
167
100
AcDbEntity
  8
LAY-1
  6
CONTINUOUS
 62
     2
100
AcDbLine
 10
102.577
 20
16.698
 30
0.0
 11
102.577
 21
17.12
 31
0.0
  0
LINE
  5
168
100
AcDbEntity
  8
LAY-1
  6
CONTINUOUS
 62
     2
100
AcDbLine
 10
102.727
 20
16.97
 30
0.0
 11
107.493
 21
16.97
 31
0.0
  0
LINE
  5
169
100
AcDbEntity
  8
LAY-1
  6
CONTINUOUS
 62
     2
100
AcDbLine
 10
107.493
 20
16.97
 30
0.0
 11
107.493
 21
16.848
 31
0.0
  0
LINE
  5
16A
100
AcDbEntity
  8
LAY-1
  6
CONTINUOUS
 62
     2
100
AcDbLine
 10
107.493
 20
16.848
 30
0.0
 11
105.378
 21
16.848
 31
0.0
  0
LINE
  5
16B
100
AcDbEntity
  8
LAY-1
  6
CONTINUOUS
 62
     2
100
AcDbLine
 10
105.378
 20
16.848
 30
0.0
 11
105.378
 21
13.256
 31
0.0
  0
LINE
  5
16C
100
AcDbEntity
  8
LAY-1
  6
CONTINUOUS
 62
     2
100
AcDbLine
 10
105.378
 20
13.256
 30
0.0
 11
107.7
 21
13.256
 31
0.0
  0
LINE
  5
16D
100
AcDbEntity
  8
LAY-1
  6
CONTINUOUS
 62
     2
100
AcDbLine
 10
107.7
 20
13.256
 30
0.0
 11
107.7
 21
13.03
 31
0.0
  0
LINE
  5
16E
100
AcDbEntity
  8
LAY-1
  6
CONTINUOUS
 62
     2
100
AcDbLine
 10
107.7
 20
13.03
 30
0.0
 11
102.52
 21
13.03
 31
0.0
  0
LINE
  5
16F
100
AcDbEntity
  8
LAY-1
  6
CONTINUOUS
 62
     2
100
AcDbLine
 10
102.52
 20
13.03
 30
0.0
 11
102.52
 21
13.256
 31
0.0
  0
LINE
  5
170
100
AcDbEntity
  8
LAY-1
  6
CONTINUOUS
 62
     2
100
AcDbLine
 10
102.52
 20
13.256
 30
0.0
 11
104.842
 21
13.256
 31
0.0
  0
LINE
  5
171
100
AcDbEntity
  8
LAY-1
  6
CONTINUOUS
 62
     2
100
AcDbLine
 10
104.842
 20
13.256
 30
0.0
 11
104.842
 21
16.848
 31
0.0
  0
LINE
  5
172
100
AcDbEntity
  8
LAY-1
  6
CONTINUOUS
 62
     2
100
AcDbLine
 10
104.842
 20
16.848
 30
0.0
 11
102.727
 21
16.848
 31
0.0
  0
LINE
  5
173
100
AcDbEntity
  8
LAY-1
  6
CONTINUOUS
 62
     2
100
AcDbLine
 10
102.727
 20
16.848
 30
0.0
 11
102.727
 21
16.97
 31
0.0
  0
LINE
  5
174
100
AcDbEntity
  8
LAY-1
  6
CONTINUOUS
 62
     2
100
AcDbLine
 10
105.04
 20
16.78
 30
0.0
 11
105.04
 21
13.2
 31
0.0
  0
LINE
  5
175
100
AcDbEntity
  8
LAY-1
  6
CONTINUOUS
 62
     2
100
AcDbLine
 10
105.19
 20
16.77
 30
0.0
 11
105.19
 21
13.15
 31
0.0
  0
LINE
  5
176
100
AcDbEntity
  8
LAY-1
  6
CONTINUOUS
 62
     2
100
AcDbLine
 10
110.11
 20
17.12
 30
0.0
 11
110.688
 21
17.12
 31
0.0
  0
LINE
  5
177
100
AcDbEntity
  8
LAY-1
  6
CONTINUOUS
 62
     2
100
AcDbLine
 10
110.688
 20
17.12
 30
0.0
 11
110.688
 21
16.5
 31
0.0
  0
LINE
  5
178
100
AcDbEntity
  8
LAY-1
  6
CONTINUOUS
 62
     2
100
AcDbLine
 10
110.688
 20
16.5
 30
0.0
 11
111.296
 21
16.5
 31
0.0
  0
LINE
  5
179
100
AcDbEntity
  8
LAY-1
  6
CONTINUOUS
 62
     2
100
AcDbLine
 10
111.296
 20
16.5
 30
0.0
 11
111.296
 21
17.12
 31
0.0
  0
LINE
  5
17A
100
AcDbEntity
  8
LAY-1
  6
CONTINUOUS
 62
     2
100
AcDbLine
 10
111.296
 20
17.12
 30
0.0
 11
111.874
 21
17.12
 31
0.0
  0
LINE
  5
17B
100
AcDbEntity
  8
LAY-1
  6
CONTINUOUS
 62
     2
100
AcDbLine
 10
111.874
 20
17.12
 30
0.0
 11
111.874
 21
16.5
 31
0.0
  0
LINE
  5
17C
100
AcDbEntity
  8
LAY-1
  6
CONTINUOUS
 62
     2
100
AcDbLine
 10
111.874
 20
16.5
 30
0.0
 11
112.294763
 21
16.5
 31
0.0
  0
LINE
  5
17D
100
AcDbEntity
  8
LAY-1
  6
CONTINUOUS
 62
     2
100
AcDbLine
 10
112.294763
 20
16.5
 30
0.0
 11
112.77916
 21
17.12
 31
0.0
  0
LINE
  5
17E
100
AcDbEntity
  8
LAY-1
  6
CONTINUOUS
 62
     2
100
AcDbLine
 10
112.77916
 20
17.12
 30
0.0
 11
113.314454
 21
17.12
 31
0.0
  0
LINE
  5
17F
100
AcDbEntity
  8
LAY-1
  6
CONTINUOUS
 62
     2
100
AcDbLine
 10
113.314454
 20
17.12
 30
0.0
 11
112.830057
 21
16.5
 31
0.0
  0
LINE
  5
180
100
AcDbEntity
  8
LAY-1
  6
CONTINUOUS
 62
     2
100
AcDbLine
 10
112.830057
 20
16.5
 30
0.0
 11
113.732
 21
16.5
 31
0.0
  0
LINE
  5
181
100
AcDbEntity
  8
LAY-1
  6
CONTINUOUS
 62
     2
100
AcDbLine
 10
113.732
 20
16.5
 30
0.0
 11
113.732
 21
16.326
 31
0.0
  0
LINE
  5
182
100
AcDbEntity
  8
LAY-1
  6
CONTINUOUS
 62
     2
100
AcDbLine
 10
113.732
 20
16.326
 30
0.0
 11
112.688778
 21
16.326
 31
0.0
  0
LINE
  5
183
100
AcDbEntity
  8
LAY-1
  6
CONTINUOUS
 62
     2
100
AcDbLine
 10
112.688778
 20
16.326
 30
0.0
 11
112.391778
 21
15.51
 31
0.0
  0
LINE
  5
184
100
AcDbEntity
  8
LAY-1
  6
CONTINUOUS
 62
     2
100
AcDbLine
 10
112.391778
 20
15.51
 30
0.0
 11
113.732
 21
15.51
 31
0.0
  0
LINE
  5
185
100
AcDbEntity
  8
LAY-1
  6
CONTINUOUS
 62
     2
100
AcDbLine
 10
113.732
 20
15.51
 30
0.0
 11
113.732
 21
15.422
 31
0.0
  0
LINE
  5
186
100
AcDbEntity
  8
LAY-1
  6
CONTINUOUS
 62
     2
100
AcDbLine
 10
113.732
 20
15.422
 30
0.0
 11
111.358
 21
15.422
 31
0.0
  0
LINE
  5
187
100
AcDbEntity
  8
LAY-1
  6
CONTINUOUS
 62
     2
100
AcDbLine
 10
111.358
 20
15.422
 30
0.0
 11
111.358
 21
14.798
 31
0.0
  0
LINE
  5
188
100
AcDbEntity
  8
LAY-1
  6
CONTINUOUS
 62
     2
100
AcDbLine
 10
111.358
 20
14.798
 30
0.0
 11
113.732
 21
14.798
 31
0.0
  0
LINE
  5
189
100
AcDbEntity
  8
LAY-1
  6
CONTINUOUS
 62
     2
100
AcDbLine
 10
113.732
 20
14.798
 30
0.0
 11
113.732
 21
14.624
 31
0.0
  0
LINE
  5
18A
100
AcDbEntity
  8
LAY-1
  6
CONTINUOUS
 62
     2
100
AcDbLine
 10
113.732
 20
14.624
 30
0.0
 11
111.358
 21
14.624
 31
0.0
  0
LINE
  5
18B
100
AcDbEntity
  8
LAY-1
  6
CONTINUOUS
 62
     2
100
AcDbLine
 10
111.358
 20
14.624
 30
0.0
 11
111.358
 21
14.0
 31
0.0
  0
LINE
  5
18C
100
AcDbEntity
  8
LAY-1
  6
CONTINUOUS
 62
     2
100
AcDbLine
 10
111.468355
 20
14.0
 30
0.0
 11
113.732
 21
14.0
 31
0.0
  0
LINE
  5
18D
100
AcDbEntity
  8
LAY-1
  6
CONTINUOUS
 62
     2
100
AcDbLine
 10
113.732
 20
14.0
 30
0.0
 11
113.732
 21
13.912
 31
0.0
  0
LINE
  5
18E
100
AcDbEntity
  8
LAY-1
  6
CONTINUOUS
 62
     2
100
AcDbLine
 10
113.732
 20
13.912
 30
0.0
 11
112.350288
 21
13.912
 31
0.0
  0
LINE
  5
18F
100
AcDbEntity
  8
LAY-1
  6
CONTINUOUS
 62
     2
100
AcDbLine
 10
112.350288
 20
13.912
 30
0.0
 11
113.492288
 21
12.88
 31
0.0
  0
LINE
  5
190
100
AcDbEntity
  8
LAY-1
  6
CONTINUOUS
 62
     2
100
AcDbLine
 10
113.492288
 20
12.88
 30
0.0
 11
112.707735
 21
12.88
 31
0.0
  0
LINE
  5
191
100
AcDbEntity
  8
LAY-1
  6
CONTINUOUS
 62
     2
100
AcDbLine
 10
112.707735
 20
12.88
 30
0.0
 11
111.468355
 21
14.0
 31
0.0
  0
LINE
  5
192
100
AcDbEntity
  8
LAY-1
  6
CONTINUOUS
 62
     2
100
AcDbLine
 10
111.358
 20
14.099725
 30
0.0
 11
111.358
 21
12.88
 31
0.0
  0
LINE
  5
193
100
AcDbEntity
  8
LAY-1
  6
CONTINUOUS
 62
     2
100
AcDbLine
 10
111.358
 20
12.88
 30
0.0
 11
110.626
 21
12.88
 31
0.0
  0
LINE
  5
194
100
AcDbEntity
  8
LAY-1
  6
CONTINUOUS
 62
     2
100
AcDbLine
 10
110.626
 20
12.88
 30
0.0
 11
110.626
 21
14.099725
 31
0.0
  0
LINE
  5
195
100
AcDbEntity
  8
LAY-1
  6
CONTINUOUS
 62
     2
100
AcDbLine
 10
110.515645
 20
14.0
 30
0.0
 11
109.276265
 21
12.88
 31
0.0
  0
LINE
  5
196
100
AcDbEntity
  8
LAY-1
  6
CONTINUOUS
 62
     2
100
AcDbLine
 10
109.276265
 20
12.88
 30
0.0
 11
108.491712
 21
12.88
 31
0.0
  0
LINE
  5
197
100
AcDbEntity
  8
LAY-1
  6
CONTINUOUS
 62
     2
100
AcDbLine
 10
108.491712
 20
12.88
 30
0.0
 11
109.633712
 21
13.912
 31
0.0
  0
LINE
  5
198
100
AcDbEntity
  8
LAY-1
  6
CONTINUOUS
 62
     2
100
AcDbLine
 10
109.633712
 20
13.912
 30
0.0
 11
108.252
 21
13.912
 31
0.0
  0
LINE
  5
199
100
AcDbEntity
  8
LAY-1
  6
CONTINUOUS
 62
     2
100
AcDbLine
 10
108.252
 20
13.912
 30
0.0
 11
108.252
 21
14.0
 31
0.0
  0
LINE
  5
19A
100
AcDbEntity
  8
LAY-1
  6
CONTINUOUS
 62
     2
100
AcDbLine
 10
108.252
 20
14.0
 30
0.0
 11
110.515645
 21
14.0
 31
0.0
  0
LINE
  5
19B
100
AcDbEntity
  8
LAY-1
  6
CONTINUOUS
 62
     2
100
AcDbLine
 10
110.626
 20
14.0
 30
0.0
 11
110.626
 21
14.624
 31
0.0
  0
LINE
  5
19C
100
AcDbEntity
  8
LAY-1
  6
CONTINUOUS
 62
     2
100
AcDbLine
 10
110.626
 20
14.624
 30
0.0
 11
108.252
 21
14.624
 31
0.0
  0
LINE
  5
19D
100
AcDbEntity
  8
LAY-1
  6
CONTINUOUS
 62
     2
100
AcDbLine
 10
108.252
 20
14.624
 30
0.0
 11
108.252
 21
14.798
 31
0.0
  0
LINE
  5
19E
100
AcDbEntity
  8
LAY-1
  6
CONTINUOUS
 62
     2
100
AcDbLine
 10
108.252
 20
14.798
 30
0.0
 11
110.626
 21
14.798
 31
0.0
  0
LINE
  5
19F
100
AcDbEntity
  8
LAY-1
  6
CONTINUOUS
 62
     2
100
AcDbLine
 10
110.626
 20
14.798
 30
0.0
 11
110.626
 21
15.422
 31
0.0
  0
LINE
  5
1A0
100
AcDbEntity
  8
LAY-1
  6
CONTINUOUS
 62
     2
100
AcDbLine
 10
110.626
 20
15.422
 30
0.0
 11
108.252
 21
15.422
 31
0.0
  0
LINE
  5
1A1
100
AcDbEntity
  8
LAY-1
  6
CONTINUOUS
 62
     2
100
AcDbLine
 10
108.252
 20
15.422
 30
0.0
 11
108.252
 21
15.51
 31
0.0
  0
LINE
  5
1A2
100
AcDbEntity
  8
LAY-1
  6
CONTINUOUS
 62
     2
100
AcDbLine
 10
108.252
 20
15.51
 30
0.0
 11
109.592222
 21
15.51
 31
0.0
  0
LINE
  5
1A3
100
AcDbEntity
  8
LAY-1
  6
CONTINUOUS
 62
     2
100
AcDbLine
 10
109.592222
 20
15.51
 30
0.0
 11
109.295222
 21
16.326
 31
0.0
  0
LINE
  5
1A4
100
AcDbEntity
  8
LAY-1
  6
CONTINUOUS
 62
     2
100
AcDbLine
 10
109.295222
 20
16.326
 30
0.0
 11
108.252
 21
16.326
 31
0.0
  0
LINE
  5
1A5
100
AcDbEntity
  8
LAY-1
  6
CONTINUOUS
 62
     2
100
AcDbLine
 10
108.252
 20
16.326
 30
0.0
 11
108.252
 21
16.5
 31
0.0
  0
LINE
  5
1A6
100
AcDbEntity
  8
LAY-1
  6
CONTINUOUS
 62
     2
100
AcDbLine
 10
108.252
 20
16.5
 30
0.0
 11
109.153943
 21
16.5
 31
0.0
  0
LINE
  5
1A7
100
AcDbEntity
  8
LAY-1
  6
CONTINUOUS
 62
     2
100
AcDbLine
 10
109.153943
 20
16.5
 30
0.0
 11
108.669546
 21
17.12
 31
0.0
  0
LINE
  5
1A8
100
AcDbEntity
  8
LAY-1
  6
CONTINUOUS
 62
     2
100
AcDbLine
 10
108.669546
 20
17.12
 30
0.0
 11
109.20484
 21
17.12
 31
0.0
  0
LINE
  5
1A9
100
AcDbEntity
  8
LAY-1
  6
CONTINUOUS
 62
     2
100
AcDbLine
 10
109.20484
 20
17.12
 30
0.0
 11
109.689237
 21
16.5
 31
0.0
  0
LINE
  5
1AA
100
AcDbEntity
  8
LAY-1
  6
CONTINUOUS
 62
     2
100
AcDbLine
 10
109.689237
 20
16.5
 30
0.0
 11
110.11
 21
16.5
 31
0.0
  0
LINE
  5
1AB
100
AcDbEntity
  8
LAY-1
  6
CONTINUOUS
 62
     2
100
AcDbLine
 10
110.11
 20
16.5
 30
0.0
 11
110.11
 21
17.12
 31
0.0
  0
LINE
  5
1AC
100
AcDbEntity
  8
LAY-1
  6
CONTINUOUS
 62
     2
100
AcDbLine
 10
109.63
 20
16.3
 30
0.0
 11
112.47
 21
16.3
 31
0.0
  0
LINE
  5
1AD
100
AcDbEntity
  8
LAY-1
  6
CONTINUOUS
 62
     2
100
AcDbLine
 10
110.3
 20
16.96
 30
0.0
 11
110.3
 21
16.43
 31
0.0
  0
LINE
  5
1AE
100
AcDbEntity
  8
LAY-1
  6
CONTINUOUS
 62
     2
100
AcDbLine
 10
110.56
 20
16.98
 30
0.0
 11
110.56
 21
16.46
 31
0.0
  0
LINE
  5
1AF
100
AcDbEntity
  8
LAY-1
  6
CONTINUOUS
 62
     2
100
AcDbLine
 10
111.47
 20
16.94
 30
0.0
 11
111.47
 21
16.44
 31
0.0
  0
LINE
  5
1B0
100
AcDbEntity
  8
LAY-1
  6
CONTINUOUS
 62
     2
100
AcDbLine
 10
111.72
 20
16.98
 30
0.0
 11
111.72
 21
16.5
 31
0.0
  0
LINE
  5
1B1
100
AcDbEntity
  8
LAY-1
  6
CONTINUOUS
 62
     2
100
AcDbLine
 10
110.84
 20
15.39
 30
0.0
 11
110.84
 21
13.06
 31
0.0
  0
LINE
  5
1B2
100
AcDbEntity
  8
LAY-1
  6
CONTINUOUS
 62
     2
100
AcDbLine
 10
111.13
 20
15.36
 30
0.0
 11
111.13
 21
13.1
 31
0.0
  0
LINE
  5
1B3
100
AcDbEntity
  8
LAY-1
  6
CONTINUOUS
 62
     2
100
AcDbLine
 10
108.92
 20
16.99
 30
0.0
 11
109.33
 21
16.46
 31
0.0
  0
LINE
  5
1B4
100
AcDbEntity
  8
LAY-1
  6
CONTINUOUS
 62
     2
100
AcDbLine
 10
109.14
 20
16.99
 30
0.0
 11
109.56
 21
16.43
 31
0.0
  0
LINE
  5
1B5
100
AcDbEntity
  8
LAY-1
  6
CONTINUOUS
 62
     2
100
AcDbLine
 10
112.86
 20
16.99
 30
0.0
 11
112.44
 21
16.46
 31
0.0
  0
LINE
  5
1B6
100
AcDbEntity
  8
LAY-1
  6
CONTINUOUS
 62
     2
100
AcDbLine
 10
113.07
 20
17.02
 30
0.0
 11
112.64
 21
16.44
 31
0.0
  0
LINE
  5
1B7
100
AcDbEntity
  8
LAY-1
  6
CONTINUOUS
 62
     2
100
AcDbLine
 10
111.88
 20
16.12
 30
0.0
 11
111.68
 21
15.54
 31
0.0
  0
LINE
  5
1B8
100
AcDbEntity
  8
LAY-1
  6
CONTINUOUS
 62
     2
100
AcDbLine
 10
112.17
 20
16.18
 30
0.0
 11
111.92
 21
15.54
 31
0.0
  0
LINE
  5
1B9
100
AcDbEntity
  8
LAY-1
  6
CONTINUOUS
 62
     2
100
AcDbLine
 10
112.47
 20
16.16
 30
0.0
 11
112.19
 21
15.54
 31
0.0
  0
LINE
  5
1BA
100
AcDbEntity
  8
LAY-1
  6
CONTINUOUS
 62
     2
100
AcDbLine
 10
110.08
 20
16.16
 30
0.0
 11
110.34
 21
15.56
 31
0.0
  0
LINE
  5
1BB
100
AcDbEntity
  8
LAY-1
  6
CONTINUOUS
 62
     2
100
AcDbLine
 10
109.82
 20
16.2
 30
0.0
 11
110.08
 21
15.56
 31
0.0
  0
LINE
  5
1BC
100
AcDbEntity
  8
LAY-1
  6
CONTINUOUS
 62
     2
100
AcDbLine
 10
109.57
 20
16.16
 30
0.0
 11
109.88
 21
15.47
 31
0.0
  0
LINE
  5
1BD
100
AcDbEntity
  8
LAY-1
  6
CONTINUOUS
 62
     2
100
AcDbLine
 10
109.8
 20
13.83
 30
0.0
 11
108.92
 21
13.03
 31
0.0
  0
LINE
  5
1BE
100
AcDbEntity
  8
LAY-1
  6
CONTINUOUS
 62
     2
100
AcDbLine
 10
110.06
 20
13.84
 30
0.0
 11
109.19
 21
13.03
 31
0.0
  0
LINE
  5
1BF
100
AcDbEntity
  8
LAY-1
  6
CONTINUOUS
 62
     2
100
AcDbLine
 10
111.86
 20
13.82
 30
0.0
 11
112.72
 21
13.03
 31
0.0
  0
LINE
  5
1C0
100
AcDbEntity
  8
LAY-1
  6
CONTINUOUS
 62
     2
100
AcDbLine
 10
112.17
 20
13.77
 30
0.0
 11
112.99
 21
13.04
 31
0.0
  0
LINE
  5
1C1
100
AcDbEntity
  8
LAY-1
  6
CONTINUOUS
 62
     2
100
AcDbLine
 10
115.94
 20
17.1
 30
0.0
 11
115.94
 21
12.9
 31
0.0
  0
LINE
  5
1C2
100
AcDbEntity
  8
LAY-1
  6
CONTINUOUS
 62
     2
100
AcDbLine
 10
115.72
 20
17.08
 30
0.0
 11
115.72
 21
12.94
 31
0.0
  0
LINE
  5
1C3
100
AcDbEntity
  8
LAY-1
  6
CONTINUOUS
 62
     2
100
AcDbLine
 10
115.51
 20
17.08
 30
0.0
 11
115.51
 21
12.92
 31
0.0
  0
LINE
  5
1C4
100
AcDbEntity
  8
LAY-1
  6
CONTINUOUS
 62
     2
100
AcDbLine
 10
115.34
 20
17.08
 30
0.0
 11
115.34
 21
12.97
 31
0.0
  0
LINE
  5
1C5
100
AcDbEntity
  8
LAY-1
  6
CONTINUOUS
 62
     2
100
AcDbLine
 10
114.27
 20
16.61
 30
0.0
 11
115.17
 21
16.61
 31
0.0
  0
LINE
  5
1C6
100
AcDbEntity
  8
LAY-1
  6
CONTINUOUS
 62
     2
100
AcDbLine
 10
116.04
 20
16.04
 30
0.0
 11
116.24
 21
15.77
 31
0.0
  0
LINE
  5
1C7
100
AcDbEntity
  8
LAY-1
  6
CONTINUOUS
 62
     2
100
AcDbLine
 10
116.04
 20
15.78
 30
0.0
 11
116.25
 21
15.49
 31
0.0
  0
LINE
  5
1C8
100
AcDbEntity
  8
LAY-1
  6
CONTINUOUS
 62
     2
100
AcDbLine
 10
116.07
 20
15.36
 30
0.0
 11
116.21
 21
15.16
 31
0.0
  0
LINE
  5
1C9
100
AcDbEntity
  8
LAY-1
  6
CONTINUOUS
 62
     2
100
AcDbLine
 10
114.62
 20
16.16
 30
0.0
 11
114.23
 21
12.83
 31
0.0
  0
LINE
  5
1CA
100
AcDbEntity
  8
LAY-1
  6
CONTINUOUS
 62
     2
100
AcDbLine
 10
114.81
 20
16.18
 30
0.0
 11
114.43
 21
12.8
 31
0.0
  0
LINE
  5
1CB
100
AcDbEntity
  8
LAY-1
  6
CONTINUOUS
 62
     2
100
AcDbLine
 10
114.96
 20
16.18
 30
0.0
 11
114.61
 21
12.9
 31
0.0
  0
LINE
  5
1CC
100
AcDbEntity
  8
LAY-1
  6
CONTINUOUS
 62
     2
100
AcDbLine
 10
116.06
 20
16.6
 30
0.0
 11
116.23
 21
16.6
 31
0.0
  0
LINE
  5
1CD
100
AcDbEntity
  8
LAY-1
  6
CONTINUOUS
 62
     2
100
AcDbLine
 10
116.9
 20
17.12
 30
0.0
 11
116.59
 21
15.99
 31
0.0
  0
LINE
  5
1CE
100
AcDbEntity
  8
LAY-1
  6
CONTINUOUS
 62
     2
100
AcDbLine
 10
117.15
 20
17.13
 30
0.0
 11
116.8
 21
16.05
 31
0.0
  0
LINE
  5
1CF
100
AcDbEntity
  8
LAY-1
  6
CONTINUOUS
 62
     2
100
AcDbLine
 10
117.39
 20
17.12
 30
0.0
 11
117.07
 21
16.02
 31
0.0
  0
LINE
  5
1D0
100
AcDbEntity
  8
LAY-1
  6
CONTINUOUS
 62
     2
100
AcDbLine
 10
117.9
 20
17.12
 30
0.0
 11
117.9
 21
12.83
 31
0.0
  0
LINE
  5
1D1
100
AcDbEntity
  8
LAY-1
  6
CONTINUOUS
 62
     2
100
AcDbLine
 10
118.07
 20
17.12
 30
0.0
 11
118.07
 21
12.83
 31
0.0
  0
LINE
  5
1D2
100
AcDbEntity
  8
LAY-1
  6
CONTINUOUS
 62
     2
100
AcDbLine
 10
118.26
 20
17.13
 30
0.0
 11
118.26
 21
12.87
 31
0.0
  0
LINE
  5
1D3
100
AcDbEntity
  8
LAY-1
  6
CONTINUOUS
 62
     2
100
AcDbLine
 10
118.46
 20
17.13
 30
0.0
 11
118.46
 21
12.83
 31
0.0
  0
LINE
  5
1D4
100
AcDbEntity
  8
LAY-1
  6
CONTINUOUS
 62
     2
100
AcDbLine
 10
118.6
 20
17.09
 30
0.0
 11
118.6
 21
12.83
 31
0.0
  0
LINE
  5
1D5
100
AcDbEntity
  8
LAY-1
  6
CONTINUOUS
 62
     2
100
AcDbLine
 10
117.38
 20
16.63
 30
0.0
 11
117.8
 21
16.63
 31
0.0
  0
LINE
  5
1D6
100
AcDbEntity
  8
LAY-1
  6
CONTINUOUS
 62
     2
100
AcDbLine
 10
118.76
 20
16.64
 30
0.0
 11
119.82
 21
16.64
 31
0.0
  0
LINE
  5
1D7
100
AcDbEntity
  8
LAY-1
  6
CONTINUOUS
 62
     2
100
AcDbLine
 10
116.61
 20
15.61
 30
0.0
 11
117.74
 21
15.61
 31
0.0
  0
LINE
  5
1D8
100
AcDbEntity
  8
LAY-1
  6
CONTINUOUS
 62
     2
100
AcDbLine
 10
118.76
 20
15.6
 30
0.0
 11
119.78
 21
15.6
 31
0.0
  0
LINE
  5
1D9
100
AcDbEntity
  8
LAY-1
  6
CONTINUOUS
 62
     2
100
AcDbLine
 10
117.08
 20
15.21
 30
0.0
 11
116.65
 21
12.87
 31
0.0
  0
LINE
  5
1DA
100
AcDbEntity
  8
LAY-1
  6
CONTINUOUS
 62
     2
100
AcDbLine
 10
117.38
 20
15.19
 30
0.0
 11
116.97
 21
12.87
 31
0.0
  0
LINE
  5
1DB
100
AcDbEntity
  8
LAY-1
  6
CONTINUOUS
 62
     2
100
AcDbLine
 10
117.63
 20
15.18
 30
0.0
 11
117.17
 21
12.85
 31
0.0
  0
LINE
  5
1DC
100
AcDbEntity
  8
LAY-1
  6
CONTINUOUS
 62
     2
100
AcDbLine
 10
118.81
 20
15.14
 30
0.0
 11
119.25
 21
12.86
 31
0.0
  0
LINE
  5
1DD
100
AcDbEntity
  8
LAY-1
  6
CONTINUOUS
 62
     2
100
AcDbLine
 10
119.034399
 20
15.148915
 30
0.0
 11
119.47
 21
12.9
 31
0.0
  0
LINE
  5
1DE
100
AcDbEntity
  8
LAY-1
  6
CONTINUOUS
 62
     2
100
AcDbLine
 10
119.277857
 20
15.145921
 30
0.0
 11
119.71
 21
12.8
 31
0.0
  0
LINE
  5
1DF
100
AcDbEntity
  8
LAY-1
  6
CONTINUOUS
 62
     2
100
AcDbLine
 10
123.484
 20
15.47
 30
0.0
 11
123.484
 21
15.15
 31
0.0
  0
LINE
  5
1E0
100
AcDbEntity
  8
LAY-1
  6
CONTINUOUS
 62
     2
100
AcDbLine
 10
123.484
 20
15.15
 30
0.0
 11
122.452
 21
15.15
 31
0.0
  0
LINE
  5
1E1
100
AcDbEntity
  8
LAY-1
  6
CONTINUOUS
 62
     2
100
AcDbLine
 10
122.452
 20
15.15
 30
0.0
 11
122.452
 21
13.955588
 31
0.0
  0
LINE
  5
1E2
100
AcDbEntity
  8
LAY-1
  6
CONTINUOUS
 62
     2
100
AcDbLine
 10
122.452
 20
13.955588
 30
0.0
 11
123.484
 21
14.174946
 31
0.0
  0
LINE
  5
1E3
100
AcDbEntity
  8
LAY-1
  6
CONTINUOUS
 62
     2
100
AcDbLine
 10
123.484
 20
14.174946
 30
0.0
 11
123.484
 21
13.531649
 31
0.0
  0
LINE
  5
1E4
100
AcDbEntity
  8
LAY-1
  6
CONTINUOUS
 62
     2
100
AcDbLine
 10
123.484
 20
13.531649
 30
0.0
 11
120.584
 21
12.915235
 31
0.0
  0
LINE
  5
1E5
100
AcDbEntity
  8
LAY-1
  6
CONTINUOUS
 62
     2
100
AcDbLine
 10
120.584
 20
12.915235
 30
0.0
 11
120.584
 21
13.558532
 31
0.0
  0
LINE
  5
1E6
100
AcDbEntity
  8
LAY-1
  6
CONTINUOUS
 62
     2
100
AcDbLine
 10
120.584
 20
13.558532
 30
0.0
 11
121.616
 21
13.777891
 31
0.0
  0
LINE
  5
1E7
100
AcDbEntity
  8
LAY-1
  6
CONTINUOUS
 62
     2
100
AcDbLine
 10
121.616
 20
13.777891
 30
0.0
 11
121.616
 21
15.15
 31
0.0
  0
LINE
  5
1E8
100
AcDbEntity
  8
LAY-1
  6
CONTINUOUS
 62
     2
100
AcDbLine
 10
121.616
 20
15.15
 30
0.0
 11
120.584
 21
15.15
 31
0.0
  0
LINE
  5
1E9
100
AcDbEntity
  8
LAY-1
  6
CONTINUOUS
 62
     2
100
AcDbLine
 10
120.584
 20
15.15
 30
0.0
 11
120.584
 21
15.47
 31
0.0
  0
LINE
  5
1EA
100
AcDbEntity
  8
LAY-1
  6
CONTINUOUS
 62
     2
100
AcDbLine
 10
120.584
 20
15.47
 30
0.0
 11
123.484
 21
15.47
 31
0.0
  0
LINE
  5
1EB
100
AcDbEntity
  8
LAY-1
  6
CONTINUOUS
 62
     2
100
AcDbLine
 10
120.734
 20
15.32
 30
0.0
 11
123.334
 21
15.32
 31
0.0
  0
LINE
  5
1EC
100
AcDbEntity
  8
LAY-1
  6
CONTINUOUS
 62
     2
100
AcDbLine
 10
122.302
 20
15.3
 30
0.0
 11
122.302
 21
13.770353
 31
0.0
  0
LINE
  5
1ED
100
AcDbEntity
  8
LAY-1
  6
CONTINUOUS
 62
     2
100
AcDbLine
 10
122.302
 20
13.770353
 30
0.0
 11
123.334
 21
13.989712
 31
0.0
  0
LINE
  5
1EE
100
AcDbEntity
  8
LAY-1
  6
CONTINUOUS
 62
     2
100
AcDbLine
 10
123.334
 20
13.989712
 30
0.0
 11
123.334
 21
13.653116
 31
0.0
  0
LINE
  5
1EF
100
AcDbEntity
  8
LAY-1
  6
CONTINUOUS
 62
     2
100
AcDbLine
 10
123.334
 20
13.653116
 30
0.0
 11
120.734
 21
13.100469
 31
0.0
  0
LINE
  5
1F0
100
AcDbEntity
  8
LAY-1
  6
CONTINUOUS
 62
     2
100
AcDbLine
 10
120.734
 20
13.100469
 30
0.0
 11
120.734
 21
13.437065
 31
0.0
  0
LINE
  5
1F1
100
AcDbEntity
  8
LAY-1
  6
CONTINUOUS
 62
     2
100
AcDbLine
 10
120.734
 20
13.437065
 30
0.0
 11
121.766
 21
13.656423
 31
0.0
  0
LINE
  5
1F2
100
AcDbEntity
  8
LAY-1
  6
CONTINUOUS
 62
     2
100
AcDbLine
 10
121.766
 20
13.656423
 30
0.0
 11
121.766
 21
15.3
 31
0.0
  0
LINE
  5
1F3
100
AcDbEntity
  8
LAY-1
  6
CONTINUOUS
 62
     2
100
AcDbLine
 10
121.95
 20
15.19
 30
0.0
 11
121.95
 21
13.7
 31
0.0
  0
LINE
  5
1F4
100
AcDbEntity
  8
LAY-1
  6
CONTINUOUS
 62
     2
100
AcDbLine
 10
122.15
 20
15.16
 30
0.0
 11
122.15
 21
13.79
 31
0.0
  0
LINE
  5
1F5
100
AcDbEntity
  8
LAY-1
  6
CONTINUOUS
 62
     2
100
AcDbLine
 10
120.9
 20
13.29
 30
0.0
 11
123.18
 21
13.79
 31
0.0
  0
LINE
  5
1F6
100
AcDbEntity
  8
LAY-1
  6
CONTINUOUS
 62
     2
100
AcDbLine
 10
124.198544
 20
17.12
 30
0.0
 11
124.3485
 21
16.708
 31
0.0
  0
LINE
  5
1F7
100
AcDbEntity
  8
LAY-1
  6
CONTINUOUS
 62
     2
100
AcDbLine
 10
124.3485
 20
16.708
 30
0.0
 11
124.868
 21
16.708
 31
0.0
  0
LINE
  5
1F8
100
AcDbEntity
  8
LAY-1
  6
CONTINUOUS
 62
     2
100
AcDbLine
 10
124.868
 20
16.708
 30
0.0
 11
124.868
 21
17.12
 31
0.0
  0
LINE
  5
1F9
100
AcDbEntity
  8
LAY-1
  6
CONTINUOUS
 62
     2
100
AcDbLine
 10
124.868
 20
17.12
 30
0.0
 11
125.496
 21
17.12
 31
0.0
  0
LINE
  5
1FA
100
AcDbEntity
  8
LAY-1
  6
CONTINUOUS
 62
     2
100
AcDbLine
 10
125.496
 20
17.12
 30
0.0
 11
125.496
 21
16.708
 31
0.0
  0
LINE
  5
1FB
100
AcDbEntity
  8
LAY-1
  6
CONTINUOUS
 62
     2
100
AcDbLine
 10
125.496
 20
16.708
 30
0.0
 11
125.806
 21
16.708
 31
0.0
  0
LINE
  5
1FC
100
AcDbEntity
  8
LAY-1
  6
CONTINUOUS
 62
     2
100
AcDbLine
 10
125.806
 20
16.708
 30
0.0
 11
125.806
 21
16.388
 31
0.0
  0
LINE
  5
1FD
100
AcDbEntity
  8
LAY-1
  6
CONTINUOUS
 62
     2
100
AcDbLine
 10
125.806
 20
16.388
 30
0.0
 11
124.46497
 21
16.388
 31
0.0
  0
LINE
  5
1FE
100
AcDbEntity
  8
LAY-1
  6
CONTINUOUS
 62
     2
100
AcDbLine
 10
124.46497
 20
16.388
 30
0.0
 11
125.741778
 21
12.88
 31
0.0
  0
LINE
  5
1FF
100
AcDbEntity
  8
LAY-1
  6
CONTINUOUS
 62
     2
100
AcDbLine
 10
125.741778
 20
12.88
 30
0.0
 11
124.853031
 21
12.88
 31
0.0
  0
LINE
  5
200
100
AcDbEntity
  8
LAY-1
  6
CONTINUOUS
 62
     2
100
AcDbLine
 10
124.853031
 20
12.88
 30
0.0
 11
123.576224
 21
16.388
 31
0.0
  0
LINE
  5
201
100
AcDbEntity
  8
LAY-1
  6
CONTINUOUS
 62
     2
100
AcDbLine
 10
123.576224
 20
16.388
 30
0.0
 11
120.326
 21
16.388
 31
0.0
  0
LINE
  5
202
100
AcDbEntity
  8
LAY-1
  6
CONTINUOUS
 62
     2
100
AcDbLine
 10
120.326
 20
16.388
 30
0.0
 11
120.326
 21
16.708
 31
0.0
  0
LINE
  5
203
100
AcDbEntity
  8
LAY-1
  6
CONTINUOUS
 62
     2
100
AcDbLine
 10
120.326
 20
16.708
 30
0.0
 11
123.459753
 21
16.708
 31
0.0
  0
LINE
  5
204
100
AcDbEntity
  8
LAY-1
  6
CONTINUOUS
 62
     2
100
AcDbLine
 10
123.459753
 20
16.708
 30
0.0
 11
123.309797
 21
17.12
 31
0.0
  0
LINE
  5
205
100
AcDbEntity
  8
LAY-1
  6
CONTINUOUS
 62
     2
100
AcDbLine
 10
123.309797
 20
17.12
 30
0.0
 11
124.198544
 21
17.12
 31
0.0
  0
LINE
  5
206
100
AcDbEntity
  8
LAY-1
  6
CONTINUOUS
 62
     2
100
AcDbLine
 10
123.673975
 20
16.558
 30
0.0
 11
123.52402
 21
16.97
 31
0.0
  0
LINE
  5
207
100
AcDbEntity
  8
LAY-1
  6
CONTINUOUS
 62
     2
100
AcDbLine
 10
123.52402
 20
16.97
 30
0.0
 11
124.093513
 21
16.97
 31
0.0
  0
LINE
  5
208
100
AcDbEntity
  8
LAY-1
  6
CONTINUOUS
 62
     2
100
AcDbLine
 10
124.093513
 20
16.97
 30
0.0
 11
124.243469
 21
16.558
 31
0.0
  0
LINE
  5
209
100
AcDbEntity
  8
LAY-1
  6
CONTINUOUS
 62
     2
100
AcDbLine
 10
124.243469
 20
16.558
 30
0.0
 11
125.018
 21
16.558
 31
0.0
  0
LINE
  5
20A
100
AcDbEntity
  8
LAY-1
  6
CONTINUOUS
 62
     2
100
AcDbLine
 10
125.018
 20
16.558
 30
0.0
 11
125.018
 21
16.97
 31
0.0
  0
LINE
  5
20B
100
AcDbEntity
  8
LAY-1
  6
CONTINUOUS
 62
     2
100
AcDbLine
 10
125.018
 20
16.97
 30
0.0
 11
125.346
 21
16.97
 31
0.0
  0
LINE
  5
20C
100
AcDbEntity
  8
LAY-1
  6
CONTINUOUS
 62
     2
100
AcDbLine
 10
125.346
 20
16.97
 30
0.0
 11
125.346
 21
16.558
 31
0.0
  0
LINE
  5
20D
100
AcDbEntity
  8
LAY-1
  6
CONTINUOUS
 62
     2
100
AcDbLine
 10
125.346
 20
16.558
 30
0.0
 11
125.656
 21
16.558
 31
0.0
  0
LINE
  5
20E
100
AcDbEntity
  8
LAY-1
  6
CONTINUOUS
 62
     2
100
AcDbLine
 10
124.250748
 20
16.538
 30
0.0
 11
125.527556
 21
13.03
 31
0.0
  0
LINE
  5
20F
100
AcDbEntity
  8
LAY-1
  6
CONTINUOUS
 62
     2
100
AcDbLine
 10
125.527556
 20
13.03
 30
0.0
 11
124.958062
 21
13.03
 31
0.0
  0
LINE
  5
210
100
AcDbEntity
  8
LAY-1
  6
CONTINUOUS
 62
     2
100
AcDbLine
 10
124.958062
 20
13.03
 30
0.0
 11
123.681255
 21
16.538
 31
0.0
  0
LINE
  5
211
100
AcDbEntity
  8
LAY-1
  6
CONTINUOUS
 62
     2
100
AcDbLine
 10
120.476
 20
16.558
 30
0.0
 11
123.673975
 21
16.558
 31
0.0
  0
LINE
  5
212
100
AcDbEntity
  8
LAY-1
  6
CONTINUOUS
 62
     2
100
AcDbLine
 10
123.94
 20
16.77
 30
0.0
 11
125.27
 21
13.2
 31
0.0
  0
LINE
  5
213
100
AcDbEntity
  8
LAY-1
  6
CONTINUOUS
 62
     2
100
AcDbLine
 10
123.78
 20
16.78
 30
0.0
 11
125.07
 21
13.14
 31
0.0
  0
LINE
  5
214
100
AcDbEntity
  8
LAY-1
  6
CONTINUOUS
 62
     2
100
AcDbLine
 10
129.103
 20
17.215826
 30
0.0
 11
131.894
 21
16.281971
 31
0.0
  0
LINE
  5
215
100
AcDbEntity
  8
LAY-1
  6
CONTINUOUS
 62
     2
100
AcDbLine
 10
131.894
 20
16.281971
 30
0.0
 11
131.894
 21
15.946318
 31
0.0
  0
LINE
  5
216
100
AcDbEntity
  8
LAY-1
  6
CONTINUOUS
 62
     2
100
AcDbLine
 10
131.894
 20
15.946318
 30
0.0
 11
131.013
 21
16.241097
 31
0.0
  0
LINE
  5
217
100
AcDbEntity
  8
LAY-1
  6
CONTINUOUS
 62
     2
100
AcDbLine
 10
131.013
 20
16.241097
 30
0.0
 11
131.013
 21
15.666
 31
0.0
  0
LINE
  5
218
100
AcDbEntity
  8
LAY-1
  6
CONTINUOUS
 62
     2
100
AcDbLine
 10
131.013
 20
15.666
 30
0.0
 11
127.193
 21
15.666
 31
0.0
  0
LINE
  5
219
100
AcDbEntity
  8
LAY-1
  6
CONTINUOUS
 62
     2
100
AcDbLine
 10
127.193
 20
15.666
 30
0.0
 11
127.193
 21
16.241097
 31
0.0
  0
LINE
  5
21A
100
AcDbEntity
  8
LAY-1
  6
CONTINUOUS
 62
     2
100
AcDbLine
 10
127.193
 20
16.241097
 30
0.0
 11
126.312
 21
15.946318
 31
0.0
  0
LINE
  5
21B
100
AcDbEntity
  8
LAY-1
  6
CONTINUOUS
 62
     2
100
AcDbLine
 10
126.312
 20
15.946318
 30
0.0
 11
126.312
 21
16.281971
 31
0.0
  0
LINE
  5
21C
100
AcDbEntity
  8
LAY-1
  6
CONTINUOUS
 62
     2
100
AcDbLine
 10
126.312
 20
16.281971
 30
0.0
 11
129.103
 21
17.215826
 31
0.0
  0
LINE
  5
21D
100
AcDbEntity
  8
LAY-1
  6
CONTINUOUS
 62
     2
100
AcDbLine
 10
127.333897
 20
16.28824
 30
0.0
 11
129.103
 21
16.880174
 31
0.0
  0
LINE
  5
21E
100
AcDbEntity
  8
LAY-1
  6
CONTINUOUS
 62
     2
100
AcDbLine
 10
129.103
 20
16.880174
 30
0.0
 11
130.938653
 21
16.265973
 31
0.0
  0
LINE
  5
21F
100
AcDbEntity
  8
LAY-1
  6
CONTINUOUS
 62
     2
100
AcDbLine
 10
130.8
 20
15.986
 30
0.0
 11
127.3
 21
15.986
 31
0.0
  0
LINE
  5
220
100
AcDbEntity
  8
LAY-1
  6
CONTINUOUS
 62
     2
100
AcDbLine
 10
126.49
 20
16.16
 30
0.0
 11
129.13
 21
17.06
 31
0.0
  0
LINE
  5
221
100
AcDbEntity
  8
LAY-1
  6
CONTINUOUS
 62
     2
100
AcDbLine
 10
129.12
 20
17.03
 30
0.0
 11
131.74
 21
16.16
 31
0.0
  0
LINE
  5
222
100
AcDbEntity
  8
LAY-1
  6
CONTINUOUS
 62
     2
100
AcDbLine
 10
127.33
 20
15.8
 30
0.0
 11
130.86
 21
15.81
 31
0.0
  0
LINE
  5
223
100
AcDbEntity
  8
LAY-1
  6
CONTINUOUS
 62
     2
100
AcDbLine
 10
131.894
 20
14.954
 30
0.0
 11
131.894
 21
14.634
 31
0.0
  0
LINE
  5
224
100
AcDbEntity
  8
LAY-1
  6
CONTINUOUS
 62
     2
100
AcDbLine
 10
131.894
 20
14.634
 30
0.0
 11
130.990644
 21
14.634
 31
0.0
  0
LINE
  5
225
100
AcDbEntity
  8
LAY-1
  6
CONTINUOUS
 62
     2
100
AcDbLine
 10
130.990644
 20
14.634
 30
0.0
 11
131.808547
 21
12.88
 31
0.0
  0
LINE
  5
226
100
AcDbEntity
  8
LAY-1
  6
CONTINUOUS
 62
     2
100
AcDbLine
 10
131.808547
 20
12.88
 30
0.0
 11
126.397453
 21
12.88
 31
0.0
  0
LINE
  5
227
100
AcDbEntity
  8
LAY-1
  6
CONTINUOUS
 62
     2
100
AcDbLine
 10
126.397453
 20
12.88
 30
0.0
 11
127.215356
 21
14.634
 31
0.0
  0
LINE
  5
228
100
AcDbEntity
  8
LAY-1
  6
CONTINUOUS
 62
     2
100
AcDbLine
 10
127.215356
 20
14.634
 30
0.0
 11
126.312
 21
14.634
 31
0.0
  0
LINE
  5
229
100
AcDbEntity
  8
LAY-1
  6
CONTINUOUS
 62
     2
100
AcDbLine
 10
126.312
 20
14.634
 30
0.0
 11
126.312
 21
14.954
 31
0.0
  0
LINE
  5
22A
100
AcDbEntity
  8
LAY-1
  6
CONTINUOUS
 62
     2
100
AcDbLine
 10
126.312
 20
14.954
 30
0.0
 11
131.894
 21
14.954
 31
0.0
  0
LINE
  5
22B
100
AcDbEntity
  8
LAY-1
  6
CONTINUOUS
 62
     2
100
AcDbLine
 10
126.462
 20
14.804
 30
0.0
 11
131.744
 21
14.804
 31
0.0
  0
LINE
  5
22C
100
AcDbEntity
  8
LAY-1
  6
CONTINUOUS
 62
     2
100
AcDbLine
 10
130.755191
 20
14.784
 30
0.0
 11
131.573094
 21
13.03
 31
0.0
  0
LINE
  5
22D
100
AcDbEntity
  8
LAY-1
  6
CONTINUOUS
 62
     2
100
AcDbLine
 10
131.573094
 20
13.03
 30
0.0
 11
126.632906
 21
13.03
 31
0.0
  0
LINE
  5
22E
100
AcDbEntity
  8
LAY-1
  6
CONTINUOUS
 62
     2
100
AcDbLine
 10
126.632906
 20
13.03
 30
0.0
 11
127.450809
 21
14.784
 31
0.0
  0
LINE
  5
22F
100
AcDbEntity
  8
LAY-1
  6
CONTINUOUS
 62
     2
100
AcDbLine
 10
128.023232
 20
14.634
 30
0.0
 11
130.182768
 21
14.634
 31
0.0
  0
LINE
  5
230
100
AcDbEntity
  8
LAY-1
  6
CONTINUOUS
 62
     2
100
AcDbLine
 10
130.182768
 20
14.634
 30
0.0
 11
130.851453
 21
13.2
 31
0.0
  0
LINE
  5
231
100
AcDbEntity
  8
LAY-1
  6
CONTINUOUS
 62
     2
100
AcDbLine
 10
130.851453
 20
13.2
 30
0.0
 11
127.354547
 21
13.2
 31
0.0
  0
LINE
  5
232
100
AcDbEntity
  8
LAY-1
  6
CONTINUOUS
 62
     2
100
AcDbLine
 10
127.354547
 20
13.2
 30
0.0
 11
128.023232
 21
14.634
 31
0.0
  0
LINE
  5
233
100
AcDbEntity
  8
LAY-1
  6
CONTINUOUS
 62
     2
100
AcDbLine
 10
127.61
 20
14.64
 30
0.0
 11
126.94
 21
13.22
 31
0.0
  0
LINE
  5
234
100
AcDbEntity
  8
LAY-1
  6
CONTINUOUS
 62
     2
100
AcDbLine
 10
127.85
 20
14.66
 30
0.0
 11
127.19
 21
13.22
 31
0.0
  0
LINE
  5
235
100
AcDbEntity
  8
LAY-1
  6
CONTINUOUS
 62
     2
100
AcDbLine
 10
130.37
 20
14.63
 30
0.0
 11
131.07
 21
13.17
 31
0.0
  0
LINE
  5
236
100
AcDbEntity
  8
LAY-1
  6
CONTINUOUS
 62
     2
100
AcDbLine
 10
130.63
 20
14.63
 30
0.0
 11
131.32
 21
13.14
 31
0.0
  0
LINE
  5
237
100
AcDbEntity
  8
LAY-1
  6
CONTINUOUS
 62
     2
100
AcDbLine
 10
134.062
 20
17.12
 30
0.0
 11
134.062
 21
16.708
 31
0.0
  0
LINE
  5
238
100
AcDbEntity
  8
LAY-1
  6
CONTINUOUS
 62
     2
100
AcDbLine
 10
134.062
 20
16.708
 30
0.0
 11
134.854309
 21
16.708
 31
0.0
  0
LINE
  5
239
100
AcDbEntity
  8
LAY-1
  6
CONTINUOUS
 62
     2
100
AcDbLine
 10
134.854309
 20
16.708
 30
0.0
 11
133.833746
 21
15.250485
 31
0.0
  0
LINE
  5
23A
100
AcDbEntity
  8
LAY-1
  6
CONTINUOUS
 62
     2
100
AcDbLine
 10
133.833746
 20
15.250485
 30
0.0
 11
134.888
 21
14.512289
 31
0.0
  0
LINE
  5
23B
100
AcDbEntity
  8
LAY-1
  6
CONTINUOUS
 62
     2
100
AcDbLine
 10
134.888
 20
14.512289
 30
0.0
 11
134.888
 21
13.765097
 31
0.0
  0
LINE
  5
23C
100
AcDbEntity
  8
LAY-1
  6
CONTINUOUS
 62
     2
100
AcDbLine
 10
134.888
 20
13.765097
 30
0.0
 11
134.062
 21
14.343469
 31
0.0
  0
LINE
  5
23D
100
AcDbEntity
  8
LAY-1
  6
CONTINUOUS
 62
     2
100
AcDbLine
 10
134.062
 20
14.343469
 30
0.0
 11
134.062
 21
12.88
 31
0.0
  0
LINE
  5
23E
100
AcDbEntity
  8
LAY-1
  6
CONTINUOUS
 62
     2
100
AcDbLine
 10
134.062
 20
12.88
 30
0.0
 11
133.33
 21
12.88
 31
0.0
  0
LINE
  5
23F
100
AcDbEntity
  8
LAY-1
  6
CONTINUOUS
 62
     2
100
AcDbLine
 10
133.33
 20
12.88
 30
0.0
 11
133.33
 21
14.531061
 31
0.0
  0
LINE
  5
240
100
AcDbEntity
  8
LAY-1
  6
CONTINUOUS
 62
     2
100
AcDbLine
 10
133.33
 20
14.531061
 30
0.0
 11
132.402
 21
13.205739
 31
0.0
  0
LINE
  5
241
100
AcDbEntity
  8
LAY-1
  6
CONTINUOUS
 62
     2
100
AcDbLine
 10
132.402
 20
13.205739
 30
0.0
 11
132.402
 21
14.302705
 31
0.0
  0
LINE
  5
242
100
AcDbEntity
  8
LAY-1
  6
CONTINUOUS
 62
     2
100
AcDbLine
 10
132.402
 20
14.302705
 30
0.0
 11
133.862139
 21
16.388
 31
0.0
  0
LINE
  5
243
100
AcDbEntity
  8
LAY-1
  6
CONTINUOUS
 62
     2
100
AcDbLine
 10
133.862139
 20
16.388
 30
0.0
 11
132.402
 21
16.388
 31
0.0
  0
LINE
  5
244
100
AcDbEntity
  8
LAY-1
  6
CONTINUOUS
 62
     2
100
AcDbLine
 10
132.402
 20
16.388
 30
0.0
 11
132.402
 21
16.708
 31
0.0
  0
LINE
  5
245
100
AcDbEntity
  8
LAY-1
  6
CONTINUOUS
 62
     2
100
AcDbLine
 10
132.402
 20
16.708
 30
0.0
 11
133.33
 21
16.708
 31
0.0
  0
LINE
  5
246
100
AcDbEntity
  8
LAY-1
  6
CONTINUOUS
 62
     2
100
AcDbLine
 10
133.33
 20
16.708
 30
0.0
 11
133.33
 21
17.12
 31
0.0
  0
LINE
  5
247
100
AcDbEntity
  8
LAY-1
  6
CONTINUOUS
 62
     2
100
AcDbLine
 10
133.33
 20
17.12
 30
0.0
 11
134.062
 21
17.12
 31
0.0
  0
LINE
  5
248
100
AcDbEntity
  8
LAY-1
  6
CONTINUOUS
 62
     2
100
AcDbLine
 10
133.912
 20
16.97
 30
0.0
 11
133.912
 21
16.558
 31
0.0
  0
LINE
  5
249
100
AcDbEntity
  8
LAY-1
  6
CONTINUOUS
 62
     2
100
AcDbLine
 10
133.912
 20
16.558
 30
0.0
 11
134.566162
 21
16.558
 31
0.0
  0
LINE
  5
24A
100
AcDbEntity
  8
LAY-1
  6
CONTINUOUS
 62
     2
100
AcDbLine
 10
134.566162
 20
16.558
 30
0.0
 11
133.624837
 21
15.213649
 31
0.0
  0
LINE
  5
24B
100
AcDbEntity
  8
LAY-1
  6
CONTINUOUS
 62
     2
100
AcDbLine
 10
133.624837
 20
15.213649
 30
0.0
 11
134.738
 21
14.434204
 31
0.0
  0
LINE
  5
24C
100
AcDbEntity
  8
LAY-1
  6
CONTINUOUS
 62
     2
100
AcDbLine
 10
134.738
 20
14.434204
 30
0.0
 11
134.738
 21
14.053245
 31
0.0
  0
LINE
  5
24D
100
AcDbEntity
  8
LAY-1
  6
CONTINUOUS
 62
     2
100
AcDbLine
 10
134.738
 20
14.053245
 30
0.0
 11
133.912
 21
14.631616
 31
0.0
  0
LINE
  5
24E
100
AcDbEntity
  8
LAY-1
  6
CONTINUOUS
 62
     2
100
AcDbLine
 10
133.912
 20
14.631616
 30
0.0
 11
133.912
 21
13.03
 31
0.0
  0
LINE
  5
24F
100
AcDbEntity
  8
LAY-1
  6
CONTINUOUS
 62
     2
100
AcDbLine
 10
133.912
 20
13.03
 30
0.0
 11
133.48
 21
13.03
 31
0.0
  0
LINE
  5
250
100
AcDbEntity
  8
LAY-1
  6
CONTINUOUS
 62
     2
100
AcDbLine
 10
133.48
 20
13.03
 30
0.0
 11
133.48
 21
15.0068
 31
0.0
  0
LINE
  5
251
100
AcDbEntity
  8
LAY-1
  6
CONTINUOUS
 62
     2
100
AcDbLine
 10
133.48
 20
15.0068
 30
0.0
 11
132.552
 21
13.681478
 31
0.0
  0
LINE
  5
252
100
AcDbEntity
  8
LAY-1
  6
CONTINUOUS
 62
     2
100
AcDbLine
 10
132.552
 20
13.681478
 30
0.0
 11
132.552
 21
14.25541
 31
0.0
  0
LINE
  5
253
100
AcDbEntity
  8
LAY-1
  6
CONTINUOUS
 62
     2
100
AcDbLine
 10
132.552
 20
14.25541
 30
0.0
 11
134.150286
 21
16.538
 31
0.0
  0
LINE
  5
254
100
AcDbEntity
  8
LAY-1
  6
CONTINUOUS
 62
     2
100
AcDbLine
 10
132.552
 20
16.558
 30
0.0
 11
133.48
 21
16.558
 31
0.0
  0
LINE
  5
255
100
AcDbEntity
  8
LAY-1
  6
CONTINUOUS
 62
     2
100
AcDbLine
 10
133.48
 20
16.558
 30
0.0
 11
133.48
 21
16.97
 31
0.0
  0
LINE
  5
256
100
AcDbEntity
  8
LAY-1
  6
CONTINUOUS
 62
     2
100
AcDbLine
 10
133.48
 20
16.97
 30
0.0
 11
133.912
 21
16.97
 31
0.0
  0
LINE
  5
257
100
AcDbEntity
  8
LAY-1
  6
CONTINUOUS
 62
     2
100
AcDbLine
 10
133.66
 20
16.82
 30
0.0
 11
133.66
 21
16.54
 31
0.0
  0
LINE
  5
258
100
AcDbEntity
  8
LAY-1
  6
CONTINUOUS
 62
     2
100
AcDbLine
 10
133.69
 20
14.81
 30
0.0
 11
133.69
 21
13.2
 31
0.0
  0
LINE
  5
259
100
AcDbEntity
  8
LAY-1
  6
CONTINUOUS
 62
     2
100
AcDbLine
 10
134.2
 20
16.36
 30
0.0
 11
132.69
 21
14.18
 31
0.0
  0
LINE
  5
25A
100
AcDbEntity
  8
LAY-1
  6
CONTINUOUS
 62
     2
100
AcDbLine
 10
133.52
 20
15.11
 30
0.0
 11
134.6
 21
14.35
 31
0.0
  0
LINE
  5
25B
100
AcDbEntity
  8
LAY-1
  6
CONTINUOUS
 62
     2
100
AcDbLine
 10
136.118
 20
17.12
 30
0.0
 11
136.85
 21
17.12
 31
0.0
  0
LINE
  5
25C
100
AcDbEntity
  8
LAY-1
  6
CONTINUOUS
 62
     2
100
AcDbLine
 10
136.85
 20
17.12
 30
0.0
 11
136.85
 21
15.986
 31
0.0
  0
LINE
  5
25D
100
AcDbEntity
  8
LAY-1
  6
CONTINUOUS
 62
     2
100
AcDbLine
 10
136.85
 20
15.986
 30
0.0
 11
137.78
 21
15.986
 31
0.0
  0
LINE
  5
25E
100
AcDbEntity
  8
LAY-1
  6
CONTINUOUS
 62
     2
100
AcDbLine
 10
137.78
 20
15.986
 30
0.0
 11
137.78
 21
15.666
 31
0.0
  0
LINE
  5
25F
100
AcDbEntity
  8
LAY-1
  6
CONTINUOUS
 62
     2
100
AcDbLine
 10
137.78
 20
15.666
 30
0.0
 11
136.85
 21
15.666
 31
0.0
  0
LINE
  5
260
100
AcDbEntity
  8
LAY-1
  6
CONTINUOUS
 62
     2
100
AcDbLine
 10
136.85
 20
15.666
 30
0.0
 11
136.85
 21
13.2
 31
0.0
  0
LINE
  5
261
100
AcDbEntity
  8
LAY-1
  6
CONTINUOUS
 62
     2
100
AcDbLine
 10
136.85
 20
13.2
 30
0.0
 11
137.882
 21
13.2
 31
0.0
  0
LINE
  5
262
100
AcDbEntity
  8
LAY-1
  6
CONTINUOUS
 62
     2
100
AcDbLine
 10
137.882
 20
13.2
 30
0.0
 11
137.882
 21
12.88
 31
0.0
  0
LINE
  5
263
100
AcDbEntity
  8
LAY-1
  6
CONTINUOUS
 62
     2
100
AcDbLine
 10
137.882
 20
12.88
 30
0.0
 11
134.776
 21
12.88
 31
0.0
  0
LINE
  5
264
100
AcDbEntity
  8
LAY-1
  6
CONTINUOUS
 62
     2
100
AcDbLine
 10
134.776
 20
12.88
 30
0.0
 11
134.776
 21
13.2
 31
0.0
  0
LINE
  5
265
100
AcDbEntity
  8
LAY-1
  6
CONTINUOUS
 62
     2
100
AcDbLine
 10
134.776
 20
13.2
 30
0.0
 11
136.118
 21
13.2
 31
0.0
  0
LINE
  5
266
100
AcDbEntity
  8
LAY-1
  6
CONTINUOUS
 62
     2
100
AcDbLine
 10
136.118
 20
13.2
 30
0.0
 11
136.118
 21
15.666
 31
0.0
  0
LINE
  5
267
100
AcDbEntity
  8
LAY-1
  6
CONTINUOUS
 62
     2
100
AcDbLine
 10
136.118
 20
15.666
 30
0.0
 11
135.188
 21
15.666
 31
0.0
  0
LINE
  5
268
100
AcDbEntity
  8
LAY-1
  6
CONTINUOUS
 62
     2
100
AcDbLine
 10
135.188
 20
15.666
 30
0.0
 11
135.188
 21
15.986
 31
0.0
  0
LINE
  5
269
100
AcDbEntity
  8
LAY-1
  6
CONTINUOUS
 62
     2
100
AcDbLine
 10
135.188
 20
15.986
 30
0.0
 11
136.118
 21
15.986
 31
0.0
  0
LINE
  5
26A
100
AcDbEntity
  8
LAY-1
  6
CONTINUOUS
 62
     2
100
AcDbLine
 10
136.118
 20
15.986
 30
0.0
 11
136.118
 21
17.12
 31
0.0
  0
LINE
  5
26B
100
AcDbEntity
  8
LAY-1
  6
CONTINUOUS
 62
     2
100
AcDbLine
 10
136.7
 20
16.97
 30
0.0
 11
136.7
 21
15.836
 31
0.0
  0
LINE
  5
26C
100
AcDbEntity
  8
LAY-1
  6
CONTINUOUS
 62
     2
100
AcDbLine
 10
136.7
 20
15.836
 30
0.0
 11
137.63
 21
15.836
 31
0.0
  0
LINE
  5
26D
100
AcDbEntity
  8
LAY-1
  6
CONTINUOUS
 62
     2
100
AcDbLine
 10
136.7
 20
15.816
 30
0.0
 11
136.7
 21
13.05
 31
0.0
  0
LINE
  5
26E
100
AcDbEntity
  8
LAY-1
  6
CONTINUOUS
 62
     2
100
AcDbLine
 10
137.732
 20
13.03
 30
0.0
 11
134.926
 21
13.03
 31
0.0
  0
LINE
  5
26F
100
AcDbEntity
  8
LAY-1
  6
CONTINUOUS
 62
     2
100
AcDbLine
 10
136.268
 20
13.05
 30
0.0
 11
136.268
 21
15.816
 31
0.0
  0
LINE
  5
270
100
AcDbEntity
  8
LAY-1
  6
CONTINUOUS
 62
     2
100
AcDbLine
 10
135.338
 20
15.836
 30
0.0
 11
136.268
 21
15.836
 31
0.0
  0
LINE
  5
271
100
AcDbEntity
  8
LAY-1
  6
CONTINUOUS
 62
     2
100
AcDbLine
 10
136.268
 20
15.836
 30
0.0
 11
136.268
 21
16.97
 31
0.0
  0
LINE
  5
272
100
AcDbEntity
  8
LAY-1
  6
CONTINUOUS
 62
     2
100
AcDbLine
 10
136.268
 20
16.97
 30
0.0
 11
136.7
 21
16.97
 31
0.0
  0
LINE
  5
273
100
AcDbEntity
  8
LAY-1
  6
CONTINUOUS
 62
     2
100
AcDbLine
 10
136.47
 20
16.81
 30
0.0
 11
136.47
 21
13.18
 31
0.0
  0
LINE
  5
274
100
AcDbEntity
  8
LAY-1
  6
CONTINUOUS
 62
     2
100
AcDbLine
 10
110.56
 20
15.52
 30
0.0
 11
111.48
 21
15.52
 31
0.0
  0
LINE
  5
275
100
AcDbEntity
  8
LAY-1
  6
CONTINUOUS
 62
     2
100
AcDbLine
 10
116.18
 20
16.388
 30
0.0
 11
116.03
 21
16.388
 31
0.0
  0
LINE
  5
276
100
AcDbEntity
  8
LAY-1
  6
CONTINUOUS
 62
     2
100
AcDbLine
 10
115.23
 20
16.388
 30
0.0
 11
114.26
 21
16.388
 31
0.0
  0
LINE
  5
277
100
AcDbEntity
  8
LAY-1
  6
CONTINUOUS
 62
     2
100
AcDbLine
 10
119.77
 20
16.388
 30
0.0
 11
118.8
 21
16.388
 31
0.0
  0
LINE
  5
278
100
AcDbEntity
  8
LAY-1
  6
CONTINUOUS
 62
     2
100
AcDbLine
 10
117.81
 20
16.388
 30
0.0
 11
117.32
 21
16.388
 31
0.0
  0
LINE
  5
279
100
AcDbEntity
  8
LAY-1
  6
CONTINUOUS
 62
     2
100
AcDbLine
 10
116.58
 20
15.356
 30
0.0
 11
117.76
 21
15.356
 31
0.0
  0
LINE
  5
27A
100
AcDbEntity
  8
LAY-1
  6
CONTINUOUS
 62
     2
100
AcDbLine
 10
118.74
 20
15.356
 30
0.0
 11
119.78
 21
15.356
 31
0.0
  0
LINE
  5
27B
100
AcDbEntity
  8
LAY-1
  6
CONTINUOUS
 62
     3
100
AcDbLine
 10
84.056
 20
16.136
 30
0.0
 11
84.056
 21
15.414
 31
0.0
  0
LINE
  5
27C
100
AcDbEntity
  8
LAY-1
  6
CONTINUOUS
 62
     3
100
AcDbLine
 10
88.908
 20
13.762
 30
0.0
 11
88.908
 21
12.73
 31
0.0
  0
LINE
  5
27D
100
AcDbEntity
  8
LAY-1
  6
CONTINUOUS
 62
     3
100
AcDbLine
 10
95.096
 20
13.762
 30
0.0
 11
95.096
 21
12.73
 31
0.0
  0
LINE
  5
27E
100
AcDbEntity
  8
LAY-1
  6
CONTINUOUS
 62
     3
100
AcDbLine
 10
102.22
 20
13.556
 30
0.0
 11
102.22
 21
12.73
 31
0.0
  0
LINE
  5
27F
100
AcDbEntity
  8
LAY-1
  6
CONTINUOUS
 62
     3
100
AcDbLine
 10
120.176
 20
16.858
 30
0.0
 11
120.176
 21
16.238
 31
0.0
  0
LINE
  5
280
100
AcDbEntity
  8
LAY-1
  6
CONTINUOUS
 62
     3
100
AcDbLine
 10
83.748
 20
17.27
 30
0.0
 11
83.748
 21
16.428
 31
0.0
  0
LINE
  5
281
100
AcDbEntity
  8
LAY-1
  6
CONTINUOUS
 62
     3
100
AcDbLine
 10
77.968
 20
15.102
 30
0.0
 11
80.858
 21
15.102
 31
0.0
  0
LINE
  5
282
100
AcDbEntity
  8
LAY-1
  6
CONTINUOUS
 62
     3
100
AcDbLine
 10
77.968
 20
15.944
 30
0.0
 11
80.858
 21
15.944
 31
0.0
  0
LINE
  5
283
100
AcDbEntity
  8
LAY-1
  6
CONTINUOUS
 62
     3
100
AcDbLine
 10
77.968
 20
13.762
 30
0.0
 11
80.809981
 21
13.762
 31
0.0
  0
LINE
  5
284
100
AcDbEntity
  8
LAY-1
  6
CONTINUOUS
 62
     3
100
AcDbLine
 10
82.922
 20
17.27
 30
0.0
 11
82.922
 21
16.428
 31
0.0
  0
LINE
  5
285
100
AcDbEntity
  8
LAY-1
  6
CONTINUOUS
 62
     3
100
AcDbLine
 10
81.788
 20
17.27
 30
0.0
 11
81.788
 21
16.428
 31
0.0
  0
LINE
  5
286
100
AcDbEntity
  8
LAY-1
  6
CONTINUOUS
 62
     3
100
AcDbLine
 10
82.614
 20
17.27
 30
0.0
 11
82.614
 21
16.428
 31
0.0
  0
LINE
  5
287
100
AcDbEntity
  8
LAY-1
  6
CONTINUOUS
 62
     3
100
AcDbLine
 10
83.748
 20
16.136
 30
0.0
 11
82.484
 21
16.136
 31
0.0
  0
LINE
  5
288
100
AcDbEntity
  8
LAY-1
  6
CONTINUOUS
 62
     3
100
AcDbLine
 10
83.748
 20
16.136
 30
0.0
 11
82.595735
 21
13.773506
 31
0.0
  0
LINE
  5
289
100
AcDbEntity
  8
LAY-1
  6
CONTINUOUS
 62
     3
100
AcDbLine
 10
82.484
 20
16.136
 30
0.0
 11
81.552385
 21
14.225905
 31
0.0
  0
ARC
  5
28A
100
AcDbEntity
  8
LAY-1
  6
CONTINUOUS
 62
     3
100
AcDbCircle
 10
80.925776
 20
14.588
 30
0.0
 40
1.858
100
AcDbArc
 50
270.0
 51
334.0
  0
ARC
  5
28B
100
AcDbEntity
  8
LAY-1
  6
CONTINUOUS
 62
     3
100
AcDbCircle
 10
80.809981
 20
14.588
 30
0.0
 40
0.826
100
AcDbArc
 50
270.0
 51
334.0
  0
LINE
  5
28C
100
AcDbEntity
  8
LAY-1
  6
CONTINUOUS
 62
     3
100
AcDbLine
 10
77.968
 20
17.27
 30
0.0
 11
77.968
 21
16.428
 31
0.0
  0
LINE
  5
28D
100
AcDbEntity
  8
LAY-1
  6
CONTINUOUS
 62
     3
100
AcDbLine
 10
77.968
 20
15.944
 30
0.0
 11
77.968
 21
15.102
 31
0.0
  0
LINE
  5
28E
100
AcDbEntity
  8
LAY-1
  6
CONTINUOUS
 62
     3
100
AcDbLine
 10
77.968
 20
13.762
 30
0.0
 11
77.968
 21
12.73
 31
0.0
  0
LINE
  5
28F
100
AcDbEntity
  8
LAY-1
  6
CONTINUOUS
 62
     3
100
AcDbLine
 10
82.922
 20
17.27
 30
0.0
 11
83.748
 21
17.27
 31
0.0
  0
LINE
  5
290
100
AcDbEntity
  8
LAY-1
  6
CONTINUOUS
 62
     3
100
AcDbLine
 10
77.968
 20
17.27
 30
0.0
 11
80.858
 21
17.27
 31
0.0
  0
LINE
  5
291
100
AcDbEntity
  8
LAY-1
  6
CONTINUOUS
 62
     3
100
AcDbLine
 10
81.788
 20
17.27
 30
0.0
 11
82.614
 21
17.27
 31
0.0
  0
LINE
  5
292
100
AcDbEntity
  8
LAY-1
  6
CONTINUOUS
 62
     3
100
AcDbLine
 10
77.968
 20
16.428
 30
0.0
 11
80.858
 21
16.428
 31
0.0
  0
LINE
  5
293
100
AcDbEntity
  8
LAY-1
  6
CONTINUOUS
 62
     3
100
AcDbLine
 10
81.788
 20
16.428
 30
0.0
 11
82.614
 21
16.428
 31
0.0
  0
LINE
  5
294
100
AcDbEntity
  8
LAY-1
  6
CONTINUOUS
 62
     3
100
AcDbLine
 10
82.922
 20
16.428
 30
0.0
 11
83.748
 21
16.428
 31
0.0
  0
LINE
  5
295
100
AcDbEntity
  8
LAY-1
  6
CONTINUOUS
 62
     3
100
AcDbLine
 10
80.858
 20
17.27
 30
0.0
 11
80.858
 21
16.428
 31
0.0
  0
LINE
  5
296
100
AcDbEntity
  8
LAY-1
  6
CONTINUOUS
 62
     3
100
AcDbLine
 10
80.858
 20
15.944
 30
0.0
 11
80.858
 21
15.102
 31
0.0
  0
LINE
  5
297
100
AcDbEntity
  8
LAY-1
  6
CONTINUOUS
 62
     3
100
AcDbLine
 10
77.968
 20
12.73
 30
0.0
 11
80.925776
 21
12.73
 31
0.0
  0
LINE
  5
298
100
AcDbEntity
  8
LAY-1
  6
CONTINUOUS
 62
     3
100
AcDbLine
 10
84.882
 20
16.858
 30
0.0
 11
86.032
 21
16.858
 31
0.0
  0
LINE
  5
299
100
AcDbEntity
  8
LAY-1
  6
CONTINUOUS
 62
     3
100
AcDbLine
 10
89.01
 20
16.136
 30
0.0
 11
88.410888
 21
14.790372
 31
0.0
  0
LINE
  5
29A
100
AcDbEntity
  8
LAY-1
  6
CONTINUOUS
 62
     3
100
AcDbLine
 10
86.8188
 20
13.872
 30
0.0
 11
86.996719
 21
13.872
 31
0.0
  0
LINE
  5
29B
100
AcDbEntity
  8
LAY-1
  6
CONTINUOUS
 62
     3
100
AcDbLine
 10
87.446
 20
15.414
 30
0.0
 11
87.253583
 21
14.981823
 31
0.0
  0
LINE
  5
29C
100
AcDbEntity
  8
LAY-1
  6
CONTINUOUS
 62
     3
100
AcDbLine
 10
86.701254
 20
14.61416
 30
0.0
 11
86.8188
 21
13.872
 31
0.0
  0
ARC
  5
29D
100
AcDbEntity
  8
LAY-1
  6
CONTINUOUS
 62
     3
100
AcDbCircle
 10
86.996719
 20
15.42
 30
0.0
 40
1.548
100
AcDbArc
 50
270.0
 51
336.0
  0
ARC
  5
29E
100
AcDbEntity
  8
LAY-1
  6
CONTINUOUS
 62
     3
100
AcDbCircle
 10
86.687184
 20
15.234
 30
0.0
 40
0.62
100
AcDbArc
 50
271.300286
 51
336.0
  0
LINE
  5
29F
100
AcDbEntity
  8
LAY-1
  6
CONTINUOUS
 62
     3
100
AcDbLine
 10
85.535811
 20
12.73
 30
0.0
 11
86.685811
 21
12.73
 31
0.0
  0
LINE
  5
2A0
100
AcDbEntity
  8
LAY-1
  6
CONTINUOUS
 62
     3
100
AcDbLine
 10
84.056
 20
16.136
 30
0.0
 11
84.996354
 21
16.136
 31
0.0
  0
LINE
  5
2A1
100
AcDbEntity
  8
LAY-1
  6
CONTINUOUS
 62
     3
100
AcDbLine
 10
86.146354
 20
16.136
 30
0.0
 11
89.01
 21
16.136
 31
0.0
  0
LINE
  5
2A2
100
AcDbEntity
  8
LAY-1
  6
CONTINUOUS
 62
     3
100
AcDbLine
 10
84.056
 20
15.414
 30
0.0
 11
85.110707
 21
15.414
 31
0.0
  0
LINE
  5
2A3
100
AcDbEntity
  8
LAY-1
  6
CONTINUOUS
 62
     3
100
AcDbLine
 10
86.260707
 20
15.414
 30
0.0
 11
87.446
 21
15.414
 31
0.0
  0
LINE
  5
2A4
100
AcDbEntity
  8
LAY-1
  6
CONTINUOUS
 62
     3
100
AcDbLine
 10
84.882
 20
16.858
 30
0.0
 11
84.996354
 21
16.136
 31
0.0
  0
LINE
  5
2A5
100
AcDbEntity
  8
LAY-1
  6
CONTINUOUS
 62
     3
100
AcDbLine
 10
85.110707
 20
15.414
 30
0.0
 11
85.535811
 21
12.73
 31
0.0
  0
LINE
  5
2A6
100
AcDbEntity
  8
LAY-1
  6
CONTINUOUS
 62
     3
100
AcDbLine
 10
86.032
 20
16.858
 30
0.0
 11
86.146354
 21
16.136
 31
0.0
  0
LINE
  5
2A7
100
AcDbEntity
  8
LAY-1
  6
CONTINUOUS
 62
     3
100
AcDbLine
 10
86.260707
 20
15.414
 30
0.0
 11
86.685811
 21
12.73
 31
0.0
  0
LINE
  5
2A8
100
AcDbEntity
  8
LAY-1
  6
CONTINUOUS
 62
     3
100
AcDbLine
 10
89.271
 20
16.238
 30
0.0
 11
94.225
 21
16.238
 31
0.0
  0
LINE
  5
2A9
100
AcDbEntity
  8
LAY-1
  6
CONTINUOUS
 62
     3
100
AcDbLine
 10
88.908
 20
13.762
 30
0.0
 11
94.588
 21
13.762
 31
0.0
  0
LINE
  5
2AA
100
AcDbEntity
  8
LAY-1
  6
CONTINUOUS
 62
     3
100
AcDbLine
 10
89.271
 20
17.27
 30
0.0
 11
89.271
 21
16.238
 31
0.0
  0
LINE
  5
2AB
100
AcDbEntity
  8
LAY-1
  6
CONTINUOUS
 62
     3
100
AcDbLine
 10
94.225
 20
17.27
 30
0.0
 11
94.225
 21
16.238
 31
0.0
  0
LINE
  5
2AC
100
AcDbEntity
  8
LAY-1
  6
CONTINUOUS
 62
     3
100
AcDbLine
 10
94.588
 20
13.762
 30
0.0
 11
94.588
 21
12.73
 31
0.0
  0
LINE
  5
2AD
100
AcDbEntity
  8
LAY-1
  6
CONTINUOUS
 62
     3
100
AcDbLine
 10
89.271
 20
17.27
 30
0.0
 11
94.225
 21
17.27
 31
0.0
  0
LINE
  5
2AE
100
AcDbEntity
  8
LAY-1
  6
CONTINUOUS
 62
     3
100
AcDbLine
 10
88.908
 20
12.73
 30
0.0
 11
94.588
 21
12.73
 31
0.0
  0
LINE
  5
2AF
100
AcDbEntity
  8
LAY-1
  6
CONTINUOUS
 62
     3
100
AcDbLine
 10
95.41
 20
17.27
 30
0.0
 11
95.41
 21
16.238
 31
0.0
  0
LINE
  5
2B0
100
AcDbEntity
  8
LAY-1
  6
CONTINUOUS
 62
     3
100
AcDbLine
 10
95.41
 20
16.238
 30
0.0
 11
98.624
 21
16.238
 31
0.0
  0
LINE
  5
2B1
100
AcDbEntity
  8
LAY-1
  6
CONTINUOUS
 62
     3
100
AcDbLine
 10
95.096
 20
13.762
 30
0.0
 11
96.29925
 21
13.762
 31
0.0
  0
LINE
  5
2B2
100
AcDbEntity
  8
LAY-1
  6
CONTINUOUS
 62
     3
100
AcDbLine
 10
98.624
 20
16.238
 30
0.0
 11
97.134156
 21
14.187406
 31
0.0
  0
LINE
  5
2B3
100
AcDbEntity
  8
LAY-1
  6
CONTINUOUS
 62
     3
100
AcDbLine
 10
101.188
 20
12.73
 30
0.0
 11
98.913813
 21
14.70692
 31
0.0
  0
LINE
  5
2B4
100
AcDbEntity
  8
LAY-1
  6
CONTINUOUS
 62
     3
100
AcDbLine
 10
99.684
 20
12.73
 30
0.0
 11
98.331623
 21
13.905604
 31
0.0
  0
ARC
  5
2B5
100
AcDbEntity
  8
LAY-1
  6
CONTINUOUS
 62
     3
100
AcDbCircle
 10
96.530799
 20
14.588
 30
0.0
 40
1.858
100
AcDbArc
 50
270.0
 51
324.0
  0
ARC
  5
2B6
100
AcDbEntity
  8
LAY-1
  6
CONTINUOUS
 62
     3
100
AcDbCircle
 10
96.29925
 20
14.794
 30
0.0
 40
1.032
100
AcDbArc
 50
270.0
 51
324.0
  0
LINE
  5
2B7
100
AcDbEntity
  8
LAY-1
  6
CONTINUOUS
 62
     3
100
AcDbLine
 10
95.096
 20
12.73
 30
0.0
 11
96.530799
 21
12.73
 31
0.0
  0
LINE
  5
2B8
100
AcDbEntity
  8
LAY-1
  6
CONTINUOUS
 62
     3
100
AcDbLine
 10
99.684
 20
12.73
 30
0.0
 11
101.188
 21
12.73
 31
0.0
  0
LINE
  5
2B9
100
AcDbEntity
  8
LAY-1
  6
CONTINUOUS
 62
     3
100
AcDbLine
 10
100.776
 20
17.27
 30
0.0
 11
98.913813
 21
14.70692
 31
0.0
  0
LINE
  5
2BA
100
AcDbEntity
  8
LAY-1
  6
CONTINUOUS
 62
     3
100
AcDbLine
 10
98.331623
 20
13.905604
 30
0.0
 11
98.033952
 21
13.495895
 31
0.0
  0
LINE
  5
2BB
100
AcDbEntity
  8
LAY-1
  6
CONTINUOUS
 62
     3
100
AcDbLine
 10
95.41
 20
17.27
 30
0.0
 11
100.776
 21
17.27
 31
0.0
  0
LINE
  5
2BC
100
AcDbEntity
  8
LAY-1
  6
CONTINUOUS
 62
     3
100
AcDbLine
 10
108.0
 20
13.556
 30
0.0
 11
108.0
 21
12.73
 31
0.0
  0
LINE
  5
2BD
100
AcDbEntity
  8
LAY-1
  6
CONTINUOUS
 62
     3
100
AcDbLine
 10
102.22
 20
12.73
 30
0.0
 11
108.0
 21
12.73
 31
0.0
  0
LINE
  5
2BE
100
AcDbEntity
  8
LAY-1
  6
CONTINUOUS
 62
     3
100
AcDbLine
 10
104.542
 20
16.548
 30
0.0
 11
104.542
 21
13.556
 31
0.0
  0
LINE
  5
2BF
100
AcDbEntity
  8
LAY-1
  6
CONTINUOUS
 62
     3
100
AcDbLine
 10
105.678
 20
16.548
 30
0.0
 11
105.678
 21
13.556
 31
0.0
  0
LINE
  5
2C0
100
AcDbEntity
  8
LAY-1
  6
CONTINUOUS
 62
     3
100
AcDbLine
 10
102.427
 20
17.27
 30
0.0
 11
102.427
 21
16.548
 31
0.0
  0
LINE
  5
2C1
100
AcDbEntity
  8
LAY-1
  6
CONTINUOUS
 62
     3
100
AcDbLine
 10
107.793
 20
17.27
 30
0.0
 11
107.793
 21
16.548
 31
0.0
  0
LINE
  5
2C2
100
AcDbEntity
  8
LAY-1
  6
CONTINUOUS
 62
     3
100
AcDbLine
 10
102.427
 20
16.548
 30
0.0
 11
104.542
 21
16.548
 31
0.0
  0
LINE
  5
2C3
100
AcDbEntity
  8
LAY-1
  6
CONTINUOUS
 62
     3
100
AcDbLine
 10
105.678
 20
16.548
 30
0.0
 11
107.793
 21
16.548
 31
0.0
  0
LINE
  5
2C4
100
AcDbEntity
  8
LAY-1
  6
CONTINUOUS
 62
     3
100
AcDbLine
 10
102.22
 20
13.556
 30
0.0
 11
104.542
 21
13.556
 31
0.0
  0
LINE
  5
2C5
100
AcDbEntity
  8
LAY-1
  6
CONTINUOUS
 62
     3
100
AcDbLine
 10
105.678
 20
13.556
 30
0.0
 11
108.0
 21
13.556
 31
0.0
  0
LINE
  5
2C6
100
AcDbEntity
  8
LAY-1
  6
CONTINUOUS
 62
     3
100
AcDbLine
 10
102.427
 20
17.27
 30
0.0
 11
107.793
 21
17.27
 31
0.0
  0
LINE
  5
2C7
100
AcDbEntity
  8
LAY-1
  6
CONTINUOUS
 62
     3
100
AcDbLine
 10
111.508
 20
13.762
 30
0.0
 11
112.65
 21
12.73
 31
0.0
  0
LINE
  5
2C8
100
AcDbEntity
  8
LAY-1
  6
CONTINUOUS
 62
     3
100
AcDbLine
 10
110.476
 20
13.762
 30
0.0
 11
109.334
 21
12.73
 31
0.0
  0
LINE
  5
2C9
100
AcDbEntity
  8
LAY-1
  6
CONTINUOUS
 62
     3
100
AcDbLine
 10
112.74
 20
13.762
 30
0.0
 11
113.882
 21
12.73
 31
0.0
  0
LINE
  5
2CA
100
AcDbEntity
  8
LAY-1
  6
CONTINUOUS
 62
     3
100
AcDbLine
 10
109.244
 20
13.762
 30
0.0
 11
108.102
 21
12.73
 31
0.0
  0
LINE
  5
2CB
100
AcDbEntity
  8
LAY-1
  6
CONTINUOUS
 62
     3
100
AcDbLine
 10
111.146
 20
17.27
 30
0.0
 11
111.146
 21
16.65
 31
0.0
  0
LINE
  5
2CC
100
AcDbEntity
  8
LAY-1
  6
CONTINUOUS
 62
     3
100
AcDbLine
 10
110.838
 20
17.27
 30
0.0
 11
110.838
 21
16.65
 31
0.0
  0
LINE
  5
2CD
100
AcDbEntity
  8
LAY-1
  6
CONTINUOUS
 62
     3
100
AcDbLine
 10
112.024
 20
17.27
 30
0.0
 11
112.024
 21
16.65
 31
0.0
  0
LINE
  5
2CE
100
AcDbEntity
  8
LAY-1
  6
CONTINUOUS
 62
     3
100
AcDbLine
 10
113.622
 20
17.27
 30
0.0
 11
113.137603
 21
16.65
 31
0.0
  0
LINE
  5
2CF
100
AcDbEntity
  8
LAY-1
  6
CONTINUOUS
 62
     3
100
AcDbLine
 10
112.706
 20
17.27
 30
0.0
 11
112.221603
 21
16.65
 31
0.0
  0
LINE
  5
2D0
100
AcDbEntity
  8
LAY-1
  6
CONTINUOUS
 62
     3
100
AcDbLine
 10
109.96
 20
17.27
 30
0.0
 11
109.96
 21
16.65
 31
0.0
  0
LINE
  5
2D1
100
AcDbEntity
  8
LAY-1
  6
CONTINUOUS
 62
     3
100
AcDbLine
 10
109.278
 20
17.27
 30
0.0
 11
109.762397
 21
16.65
 31
0.0
  0
LINE
  5
2D2
100
AcDbEntity
  8
LAY-1
  6
CONTINUOUS
 62
     3
100
AcDbLine
 10
108.362
 20
17.27
 30
0.0
 11
108.846397
 21
16.65
 31
0.0
  0
LINE
  5
2D3
100
AcDbEntity
  8
LAY-1
  6
CONTINUOUS
 62
     3
100
AcDbLine
 10
112.606
 20
15.66
 30
0.0
 11
112.793809
 21
16.176
 31
0.0
  0
LINE
  5
2D4
100
AcDbEntity
  8
LAY-1
  6
CONTINUOUS
 62
     3
100
AcDbLine
 10
111.508
 20
15.66
 30
0.0
 11
111.695809
 21
16.176
 31
0.0
  0
LINE
  5
2D5
100
AcDbEntity
  8
LAY-1
  6
CONTINUOUS
 62
     3
100
AcDbLine
 10
110.476
 20
15.66
 30
0.0
 11
110.288191
 21
16.176
 31
0.0
  0
LINE
  5
2D6
100
AcDbEntity
  8
LAY-1
  6
CONTINUOUS
 62
     3
100
AcDbLine
 10
109.378
 20
15.66
 30
0.0
 11
109.190191
 21
16.176
 31
0.0
  0
LINE
  5
2D7
100
AcDbEntity
  8
LAY-1
  6
CONTINUOUS
 62
     3
100
AcDbLine
 10
108.362
 20
17.27
 30
0.0
 11
109.278
 21
17.27
 31
0.0
  0
LINE
  5
2D8
100
AcDbEntity
  8
LAY-1
  6
CONTINUOUS
 62
     3
100
AcDbLine
 10
109.96
 20
17.27
 30
0.0
 11
110.838
 21
17.27
 31
0.0
  0
LINE
  5
2D9
100
AcDbEntity
  8
LAY-1
  6
CONTINUOUS
 62
     3
100
AcDbLine
 10
111.146
 20
17.27
 30
0.0
 11
112.024
 21
17.27
 31
0.0
  0
LINE
  5
2DA
100
AcDbEntity
  8
LAY-1
  6
CONTINUOUS
 62
     3
100
AcDbLine
 10
112.706
 20
17.27
 30
0.0
 11
113.622
 21
17.27
 31
0.0
  0
LINE
  5
2DB
100
AcDbEntity
  8
LAY-1
  6
CONTINUOUS
 62
     3
100
AcDbLine
 10
108.102
 20
16.65
 30
0.0
 11
108.102
 21
16.176
 31
0.0
  0
LINE
  5
2DC
100
AcDbEntity
  8
LAY-1
  6
CONTINUOUS
 62
     3
100
AcDbLine
 10
108.102
 20
15.66
 30
0.0
 11
108.102
 21
15.272
 31
0.0
  0
LINE
  5
2DD
100
AcDbEntity
  8
LAY-1
  6
CONTINUOUS
 62
     3
100
AcDbLine
 10
108.102
 20
14.948
 30
0.0
 11
108.102
 21
14.474
 31
0.0
  0
LINE
  5
2DE
100
AcDbEntity
  8
LAY-1
  6
CONTINUOUS
 62
     3
100
AcDbLine
 10
108.102
 20
14.15
 30
0.0
 11
108.102
 21
13.762
 31
0.0
  0
LINE
  5
2DF
100
AcDbEntity
  8
LAY-1
  6
CONTINUOUS
 62
     3
100
AcDbLine
 10
108.102
 20
12.73
 30
0.0
 11
109.334
 21
12.73
 31
0.0
  0
LINE
  5
2E0
100
AcDbEntity
  8
LAY-1
  6
CONTINUOUS
 62
     3
100
AcDbLine
 10
110.476
 20
12.73
 30
0.0
 11
111.508
 21
12.73
 31
0.0
  0
LINE
  5
2E1
100
AcDbEntity
  8
LAY-1
  6
CONTINUOUS
 62
     3
100
AcDbLine
 10
112.65
 20
12.73
 30
0.0
 11
113.882
 21
12.73
 31
0.0
  0
LINE
  5
2E2
100
AcDbEntity
  8
LAY-1
  6
CONTINUOUS
 62
     3
100
AcDbLine
 10
113.882
 20
13.762
 30
0.0
 11
113.882
 21
14.15
 31
0.0
  0
LINE
  5
2E3
100
AcDbEntity
  8
LAY-1
  6
CONTINUOUS
 62
     3
100
AcDbLine
 10
113.882
 20
14.474
 30
0.0
 11
113.882
 21
14.948
 31
0.0
  0
LINE
  5
2E4
100
AcDbEntity
  8
LAY-1
  6
CONTINUOUS
 62
     3
100
AcDbLine
 10
113.882
 20
15.272
 30
0.0
 11
113.882
 21
15.66
 31
0.0
  0
LINE
  5
2E5
100
AcDbEntity
  8
LAY-1
  6
CONTINUOUS
 62
     3
100
AcDbLine
 10
113.882
 20
16.176
 30
0.0
 11
113.882
 21
16.65
 31
0.0
  0
LINE
  5
2E6
100
AcDbEntity
  8
LAY-1
  6
CONTINUOUS
 62
     3
100
AcDbLine
 10
110.476
 20
13.762
 30
0.0
 11
110.476
 21
12.73
 31
0.0
  0
LINE
  5
2E7
100
AcDbEntity
  8
LAY-1
  6
CONTINUOUS
 62
     3
100
AcDbLine
 10
111.508
 20
13.762
 30
0.0
 11
111.508
 21
12.73
 31
0.0
  0
LINE
  5
2E8
100
AcDbEntity
  8
LAY-1
  6
CONTINUOUS
 62
     3
100
AcDbLine
 10
110.476
 20
15.272
 30
0.0
 11
110.476
 21
14.948
 31
0.0
  0
LINE
  5
2E9
100
AcDbEntity
  8
LAY-1
  6
CONTINUOUS
 62
     3
100
AcDbLine
 10
110.476
 20
14.474
 30
0.0
 11
110.476
 21
14.15
 31
0.0
  0
LINE
  5
2EA
100
AcDbEntity
  8
LAY-1
  6
CONTINUOUS
 62
     3
100
AcDbLine
 10
111.508
 20
15.272
 30
0.0
 11
111.508
 21
14.948
 31
0.0
  0
LINE
  5
2EB
100
AcDbEntity
  8
LAY-1
  6
CONTINUOUS
 62
     3
100
AcDbLine
 10
111.508
 20
14.474
 30
0.0
 11
111.508
 21
14.15
 31
0.0
  0
LINE
  5
2EC
100
AcDbEntity
  8
LAY-1
  6
CONTINUOUS
 62
     3
100
AcDbLine
 10
108.102
 20
16.65
 30
0.0
 11
108.846397
 21
16.65
 31
0.0
  0
LINE
  5
2ED
100
AcDbEntity
  8
LAY-1
  6
CONTINUOUS
 62
     3
100
AcDbLine
 10
109.762397
 20
16.65
 30
0.0
 11
109.96
 21
16.65
 31
0.0
  0
LINE
  5
2EE
100
AcDbEntity
  8
LAY-1
  6
CONTINUOUS
 62
     3
100
AcDbLine
 10
110.838
 20
16.65
 30
0.0
 11
111.146
 21
16.65
 31
0.0
  0
LINE
  5
2EF
100
AcDbEntity
  8
LAY-1
  6
CONTINUOUS
 62
     3
100
AcDbLine
 10
112.024
 20
16.65
 30
0.0
 11
112.221603
 21
16.65
 31
0.0
  0
LINE
  5
2F0
100
AcDbEntity
  8
LAY-1
  6
CONTINUOUS
 62
     3
100
AcDbLine
 10
113.137603
 20
16.65
 30
0.0
 11
113.882
 21
16.65
 31
0.0
  0
LINE
  5
2F1
100
AcDbEntity
  8
LAY-1
  6
CONTINUOUS
 62
     3
100
AcDbLine
 10
112.793809
 20
16.176
 30
0.0
 11
113.882
 21
16.176
 31
0.0
  0
LINE
  5
2F2
100
AcDbEntity
  8
LAY-1
  6
CONTINUOUS
 62
     3
100
AcDbLine
 10
108.102
 20
16.176
 30
0.0
 11
109.190191
 21
16.176
 31
0.0
  0
LINE
  5
2F3
100
AcDbEntity
  8
LAY-1
  6
CONTINUOUS
 62
     3
100
AcDbLine
 10
110.288191
 20
16.176
 30
0.0
 11
111.695809
 21
16.176
 31
0.0
  0
LINE
  5
2F4
100
AcDbEntity
  8
LAY-1
  6
CONTINUOUS
 62
     3
100
AcDbLine
 10
108.102
 20
15.66
 30
0.0
 11
109.378
 21
15.66
 31
0.0
  0
LINE
  5
2F5
100
AcDbEntity
  8
LAY-1
  6
CONTINUOUS
 62
     3
100
AcDbLine
 10
110.476
 20
15.66
 30
0.0
 11
111.508
 21
15.66
 31
0.0
  0
LINE
  5
2F6
100
AcDbEntity
  8
LAY-1
  6
CONTINUOUS
 62
     3
100
AcDbLine
 10
112.606
 20
15.66
 30
0.0
 11
113.882
 21
15.66
 31
0.0
  0
LINE
  5
2F7
100
AcDbEntity
  8
LAY-1
  6
CONTINUOUS
 62
     3
100
AcDbLine
 10
108.102
 20
15.272
 30
0.0
 11
110.476
 21
15.272
 31
0.0
  0
LINE
  5
2F8
100
AcDbEntity
  8
LAY-1
  6
CONTINUOUS
 62
     3
100
AcDbLine
 10
111.508
 20
15.272
 30
0.0
 11
113.882
 21
15.272
 31
0.0
  0
LINE
  5
2F9
100
AcDbEntity
  8
LAY-1
  6
CONTINUOUS
 62
     3
100
AcDbLine
 10
108.102
 20
14.948
 30
0.0
 11
110.476
 21
14.948
 31
0.0
  0
LINE
  5
2FA
100
AcDbEntity
  8
LAY-1
  6
CONTINUOUS
 62
     3
100
AcDbLine
 10
111.508
 20
14.948
 30
0.0
 11
113.882
 21
14.948
 31
0.0
  0
LINE
  5
2FB
100
AcDbEntity
  8
LAY-1
  6
CONTINUOUS
 62
     3
100
AcDbLine
 10
108.102
 20
14.474
 30
0.0
 11
110.476
 21
14.474
 31
0.0
  0
LINE
  5
2FC
100
AcDbEntity
  8
LAY-1
  6
CONTINUOUS
 62
     3
100
AcDbLine
 10
111.508
 20
14.474
 30
0.0
 11
113.882
 21
14.474
 31
0.0
  0
LINE
  5
2FD
100
AcDbEntity
  8
LAY-1
  6
CONTINUOUS
 62
     3
100
AcDbLine
 10
108.102
 20
14.15
 30
0.0
 11
110.476
 21
14.15
 31
0.0
  0
LINE
  5
2FE
100
AcDbEntity
  8
LAY-1
  6
CONTINUOUS
 62
     3
100
AcDbLine
 10
111.508
 20
14.15
 30
0.0
 11
113.882
 21
14.15
 31
0.0
  0
LINE
  5
2FF
100
AcDbEntity
  8
LAY-1
  6
CONTINUOUS
 62
     3
100
AcDbLine
 10
108.102
 20
13.762
 30
0.0
 11
109.244
 21
13.762
 31
0.0
  0
LINE
  5
300
100
AcDbEntity
  8
LAY-1
  6
CONTINUOUS
 62
     3
100
AcDbLine
 10
112.74
 20
13.762
 30
0.0
 11
113.882
 21
13.762
 31
0.0
  0
LINE
  5
301
100
AcDbEntity
  8
LAY-1
  6
CONTINUOUS
 62
     3
100
AcDbLine
 10
114.139
 20
16.754
 30
0.0
 11
114.139
 21
16.238
 31
0.0
  0
LINE
  5
302
100
AcDbEntity
  8
LAY-1
  6
CONTINUOUS
 62
     3
100
AcDbLine
 10
114.088
 20
12.73
 30
0.0
 11
114.456706
 21
16.238
 31
0.0
  0
LINE
  5
303
100
AcDbEntity
  8
LAY-1
  6
CONTINUOUS
 62
     3
100
AcDbLine
 10
114.71
 20
12.73
 30
0.0
 11
115.078706
 21
16.238
 31
0.0
  0
LINE
  5
304
100
AcDbEntity
  8
LAY-1
  6
CONTINUOUS
 62
     3
100
AcDbLine
 10
116.099
 20
16.238
 30
0.0
 11
116.358
 21
15.881517
 31
0.0
  0
LINE
  5
305
100
AcDbEntity
  8
LAY-1
  6
CONTINUOUS
 62
     3
100
AcDbLine
 10
116.099
 20
15.086483
 30
0.0
 11
116.358
 21
14.73
 31
0.0
  0
LINE
  5
306
100
AcDbEntity
  8
LAY-1
  6
CONTINUOUS
 62
     3
100
AcDbLine
 10
119.97
 20
12.73
 30
0.0
 11
119.519142
 21
15.206
 31
0.0
  0
LINE
  5
307
100
AcDbEntity
  8
LAY-1
  6
CONTINUOUS
 62
     3
100
AcDbLine
 10
119.13
 20
12.73
 30
0.0
 11
118.68
 21
15.201286
 31
0.0
  0
LINE
  5
308
100
AcDbEntity
  8
LAY-1
  6
CONTINUOUS
 62
     3
100
AcDbLine
 10
117.302
 20
12.73
 30
0.0
 11
117.752
 21
15.201286
 31
0.0
  0
LINE
  5
309
100
AcDbEntity
  8
LAY-1
  6
CONTINUOUS
 62
     3
100
AcDbLine
 10
116.912858
 20
15.206
 30
0.0
 11
116.462
 21
12.73
 31
0.0
  0
LINE
  5
30A
100
AcDbEntity
  8
LAY-1
  6
CONTINUOUS
 62
     3
100
AcDbLine
 10
117.2629
 20
15.93
 30
0.0
 11
116.4129
 21
15.93
 31
0.0
  0
LINE
  5
30B
100
AcDbEntity
  8
LAY-1
  6
CONTINUOUS
 62
     3
100
AcDbLine
 10
116.747
 20
17.27
 30
0.0
 11
116.618347
 21
16.754
 31
0.0
  0
LINE
  5
30C
100
AcDbEntity
  8
LAY-1
  6
CONTINUOUS
 62
     3
100
AcDbLine
 10
116.617349
 20
16.75
 30
0.0
 11
116.4129
 21
15.93
 31
0.0
  0
LINE
  5
30D
100
AcDbEntity
  8
LAY-1
  6
CONTINUOUS
 62
     3
100
AcDbLine
 10
114.088
 20
12.73
 30
0.0
 11
114.71
 21
12.73
 31
0.0
  0
LINE
  5
30E
100
AcDbEntity
  8
LAY-1
  6
CONTINUOUS
 62
     3
100
AcDbLine
 10
115.171
 20
12.73
 30
0.0
 11
116.099
 21
12.73
 31
0.0
  0
LINE
  5
30F
100
AcDbEntity
  8
LAY-1
  6
CONTINUOUS
 62
     3
100
AcDbLine
 10
116.462
 20
12.73
 30
0.0
 11
117.302
 21
12.73
 31
0.0
  0
LINE
  5
310
100
AcDbEntity
  8
LAY-1
  6
CONTINUOUS
 62
     3
100
AcDbLine
 10
117.752
 20
12.73
 30
0.0
 11
118.68
 21
12.73
 31
0.0
  0
LINE
  5
311
100
AcDbEntity
  8
LAY-1
  6
CONTINUOUS
 62
     3
100
AcDbLine
 10
119.13
 20
12.73
 30
0.0
 11
119.97
 21
12.73
 31
0.0
  0
LINE
  5
312
100
AcDbEntity
  8
LAY-1
  6
CONTINUOUS
 62
     3
100
AcDbLine
 10
118.68
 20
17.27
 30
0.0
 11
118.68
 21
16.754
 31
0.0
  0
LINE
  5
313
100
AcDbEntity
  8
LAY-1
  6
CONTINUOUS
 62
     3
100
AcDbLine
 10
118.68
 20
16.238
 30
0.0
 11
118.68
 21
15.722
 31
0.0
  0
LINE
  5
314
100
AcDbEntity
  8
LAY-1
  6
CONTINUOUS
 62
     3
100
AcDbLine
 10
118.68
 20
15.206
 30
0.0
 11
118.68
 21
12.73
 31
0.0
  0
LINE
  5
315
100
AcDbEntity
  8
LAY-1
  6
CONTINUOUS
 62
     3
100
AcDbLine
 10
117.752
 20
17.27
 30
0.0
 11
117.752
 21
16.754
 31
0.0
  0
LINE
  5
316
100
AcDbEntity
  8
LAY-1
  6
CONTINUOUS
 62
     3
100
AcDbLine
 10
117.752
 20
16.238
 30
0.0
 11
117.752
 21
15.722
 31
0.0
  0
LINE
  5
317
100
AcDbEntity
  8
LAY-1
  6
CONTINUOUS
 62
     3
100
AcDbLine
 10
117.752
 20
15.206
 30
0.0
 11
117.752
 21
12.73
 31
0.0
  0
LINE
  5
318
100
AcDbEntity
  8
LAY-1
  6
CONTINUOUS
 62
     3
100
AcDbLine
 10
115.171
 20
17.27
 30
0.0
 11
115.171
 21
16.754
 31
0.0
  0
LINE
  5
319
100
AcDbEntity
  8
LAY-1
  6
CONTINUOUS
 62
     3
100
AcDbLine
 10
115.171
 20
16.238
 30
0.0
 11
115.171
 21
12.73
 31
0.0
  0
LINE
  5
31A
100
AcDbEntity
  8
LAY-1
  6
CONTINUOUS
 62
     3
100
AcDbLine
 10
114.139
 20
16.238
 30
0.0
 11
114.456706
 21
16.238
 31
0.0
  0
LINE
  5
31B
100
AcDbEntity
  8
LAY-1
  6
CONTINUOUS
 62
     3
100
AcDbLine
 10
115.078706
 20
16.238
 30
0.0
 11
115.171
 21
16.238
 31
0.0
  0
LINE
  5
31C
100
AcDbEntity
  8
LAY-1
  6
CONTINUOUS
 62
     3
100
AcDbLine
 10
118.68
 20
16.238
 30
0.0
 11
119.919
 21
16.238
 31
0.0
  0
LINE
  5
31D
100
AcDbEntity
  8
LAY-1
  6
CONTINUOUS
 62
     3
100
AcDbLine
 10
118.68
 20
16.754
 30
0.0
 11
119.919
 21
16.754
 31
0.0
  0
LINE
  5
31E
100
AcDbEntity
  8
LAY-1
  6
CONTINUOUS
 62
     3
100
AcDbLine
 10
114.139
 20
16.754
 30
0.0
 11
115.171
 21
16.754
 31
0.0
  0
LINE
  5
31F
100
AcDbEntity
  8
LAY-1
  6
CONTINUOUS
 62
     3
100
AcDbLine
 10
116.099
 20
16.754
 30
0.0
 11
116.358
 21
16.754
 31
0.0
  0
LINE
  5
320
100
AcDbEntity
  8
LAY-1
  6
CONTINUOUS
 62
     3
100
AcDbLine
 10
116.099
 20
15.086483
 30
0.0
 11
116.099
 21
12.73
 31
0.0
  0
LINE
  5
321
100
AcDbEntity
  8
LAY-1
  6
CONTINUOUS
 62
     3
100
AcDbLine
 10
116.912858
 20
15.206
 30
0.0
 11
116.462
 21
15.206
 31
0.0
  0
LINE
  5
322
100
AcDbEntity
  8
LAY-1
  6
CONTINUOUS
 62
     3
100
AcDbLine
 10
119.919
 20
15.206
 30
0.0
 11
119.519142
 21
15.206
 31
0.0
  0
LINE
  5
323
100
AcDbEntity
  8
LAY-1
  6
CONTINUOUS
 62
     3
100
AcDbLine
 10
119.919
 20
15.722
 30
0.0
 11
118.68
 21
15.722
 31
0.0
  0
LINE
  5
324
100
AcDbEntity
  8
LAY-1
  6
CONTINUOUS
 62
     3
100
AcDbLine
 10
117.597
 20
17.27
 30
0.0
 11
117.468347
 21
16.754
 31
0.0
  0
LINE
  5
325
100
AcDbEntity
  8
LAY-1
  6
CONTINUOUS
 62
     3
100
AcDbLine
 10
117.468347
 20
16.754
 30
0.0
 11
117.752
 21
16.754
 31
0.0
  0
LINE
  5
326
100
AcDbEntity
  8
LAY-1
  6
CONTINUOUS
 62
     3
100
AcDbLine
 10
119.919
 20
16.754
 30
0.0
 11
119.919
 21
16.238
 31
0.0
  0
LINE
  5
327
100
AcDbEntity
  8
LAY-1
  6
CONTINUOUS
 62
     3
100
AcDbLine
 10
119.919
 20
15.722
 30
0.0
 11
119.919
 21
15.206
 31
0.0
  0
LINE
  5
328
100
AcDbEntity
  8
LAY-1
  6
CONTINUOUS
 62
     3
100
AcDbLine
 10
116.099
 20
16.238
 30
0.0
 11
116.358
 21
16.238
 31
0.0
  0
LINE
  5
329
100
AcDbEntity
  8
LAY-1
  6
CONTINUOUS
 62
     3
100
AcDbLine
 10
117.337699
 20
16.23
 30
0.0
 11
117.2629
 21
15.93
 31
0.0
  0
LINE
  5
32A
100
AcDbEntity
  8
LAY-1
  6
CONTINUOUS
 62
     3
100
AcDbLine
 10
117.339694
 20
16.238
 30
0.0
 11
117.752
 21
16.238
 31
0.0
  0
LINE
  5
32B
100
AcDbEntity
  8
LAY-1
  6
CONTINUOUS
 62
     3
100
AcDbLine
 10
116.358
 20
16.75
 30
0.0
 11
116.358
 21
16.238
 31
0.0
  0
LINE
  5
32C
100
AcDbEntity
  8
LAY-1
  6
CONTINUOUS
 62
     3
100
AcDbLine
 10
116.358
 20
15.881517
 30
0.0
 11
116.358
 21
14.73
 31
0.0
  0
LINE
  5
32D
100
AcDbEntity
  8
LAY-1
  6
CONTINUOUS
 62
     3
100
AcDbLine
 10
116.099
 20
17.27
 30
0.0
 11
116.099
 21
16.754
 31
0.0
  0
LINE
  5
32E
100
AcDbEntity
  8
LAY-1
  6
CONTINUOUS
 62
     3
100
AcDbLine
 10
117.752
 20
15.722
 30
0.0
 11
116.462
 21
15.722
 31
0.0
  0
LINE
  5
32F
100
AcDbEntity
  8
LAY-1
  6
CONTINUOUS
 62
     3
100
AcDbLine
 10
116.462
 20
15.722
 30
0.0
 11
116.462
 21
15.206
 31
0.0
  0
LINE
  5
330
100
AcDbEntity
  8
LAY-1
  6
CONTINUOUS
 62
     3
100
AcDbLine
 10
115.171
 20
17.27
 30
0.0
 11
116.099
 21
17.27
 31
0.0
  0
LINE
  5
331
100
AcDbEntity
  8
LAY-1
  6
CONTINUOUS
 62
     3
100
AcDbLine
 10
116.747
 20
17.27
 30
0.0
 11
117.597
 21
17.27
 31
0.0
  0
LINE
  5
332
100
AcDbEntity
  8
LAY-1
  6
CONTINUOUS
 62
     3
100
AcDbLine
 10
117.752
 20
17.27
 30
0.0
 11
118.68
 21
17.27
 31
0.0
  0
LINE
  5
333
100
AcDbEntity
  8
LAY-1
  6
CONTINUOUS
 62
     3
100
AcDbLine
 10
125.956
 20
16.858
 30
0.0
 11
125.956
 21
16.238
 31
0.0
  0
LINE
  5
334
100
AcDbEntity
  8
LAY-1
  6
CONTINUOUS
 62
     3
100
AcDbLine
 10
125.646
 20
17.27
 30
0.0
 11
125.646
 21
16.858
 31
0.0
  0
LINE
  5
335
100
AcDbEntity
  8
LAY-1
  6
CONTINUOUS
 62
     3
100
AcDbLine
 10
124.718
 20
17.27
 30
0.0
 11
124.718
 21
16.858
 31
0.0
  0
LINE
  5
336
100
AcDbEntity
  8
LAY-1
  6
CONTINUOUS
 62
     3
100
AcDbLine
 10
120.434
 20
15.62
 30
0.0
 11
123.634
 21
15.62
 31
0.0
  0
LINE
  5
337
100
AcDbEntity
  8
LAY-1
  6
CONTINUOUS
 62
     3
100
AcDbLine
 10
121.466
 20
15.0
 30
0.0
 11
121.466
 21
13.899358
 31
0.0
  0
LINE
  5
338
100
AcDbEntity
  8
LAY-1
  6
CONTINUOUS
 62
     3
100
AcDbLine
 10
122.602
 20
15.0
 30
0.0
 11
122.602
 21
14.140823
 31
0.0
  0
LINE
  5
339
100
AcDbEntity
  8
LAY-1
  6
CONTINUOUS
 62
     3
100
AcDbLine
 10
120.434
 20
12.73
 30
0.0
 11
123.634
 21
13.410181
 31
0.0
  0
LINE
  5
33A
100
AcDbEntity
  8
LAY-1
  6
CONTINUOUS
 62
     3
100
AcDbLine
 10
120.434
 20
15.62
 30
0.0
 11
120.434
 21
15.0
 31
0.0
  0
LINE
  5
33B
100
AcDbEntity
  8
LAY-1
  6
CONTINUOUS
 62
     3
100
AcDbLine
 10
120.434
 20
13.68
 30
0.0
 11
120.434
 21
12.73
 31
0.0
  0
LINE
  5
33C
100
AcDbEntity
  8
LAY-1
  6
CONTINUOUS
 62
     3
100
AcDbLine
 10
123.634
 20
15.62
 30
0.0
 11
123.634
 21
15.0
 31
0.0
  0
LINE
  5
33D
100
AcDbEntity
  8
LAY-1
  6
CONTINUOUS
 62
     3
100
AcDbLine
 10
123.634
 20
14.360181
 30
0.0
 11
123.634
 21
13.410181
 31
0.0
  0
LINE
  5
33E
100
AcDbEntity
  8
LAY-1
  6
CONTINUOUS
 62
     3
100
AcDbLine
 10
120.434
 20
15.0
 30
0.0
 11
121.466
 21
15.0
 31
0.0
  0
LINE
  5
33F
100
AcDbEntity
  8
LAY-1
  6
CONTINUOUS
 62
     3
100
AcDbLine
 10
122.602
 20
15.0
 30
0.0
 11
123.634
 21
15.0
 31
0.0
  0
LINE
  5
340
100
AcDbEntity
  8
LAY-1
  6
CONTINUOUS
 62
     3
100
AcDbLine
 10
120.434
 20
13.68
 30
0.0
 11
121.466
 21
13.899358
 31
0.0
  0
LINE
  5
341
100
AcDbEntity
  8
LAY-1
  6
CONTINUOUS
 62
     3
100
AcDbLine
 10
122.602
 20
14.140823
 30
0.0
 11
123.634
 21
14.360181
 31
0.0
  0
LINE
  5
342
100
AcDbEntity
  8
LAY-1
  6
CONTINUOUS
 62
     3
100
AcDbLine
 10
120.176
 20
16.858
 30
0.0
 11
123.245531
 21
16.858
 31
0.0
  0
LINE
  5
343
100
AcDbEntity
  8
LAY-1
  6
CONTINUOUS
 62
     3
100
AcDbLine
 10
124.453531
 20
16.858
 30
0.0
 11
124.718
 21
16.858
 31
0.0
  0
LINE
  5
344
100
AcDbEntity
  8
LAY-1
  6
CONTINUOUS
 62
     3
100
AcDbLine
 10
125.646
 20
16.858
 30
0.0
 11
125.956
 21
16.858
 31
0.0
  0
LINE
  5
345
100
AcDbEntity
  8
LAY-1
  6
CONTINUOUS
 62
     3
100
AcDbLine
 10
125.956
 20
12.73
 30
0.0
 11
124.679192
 21
16.238
 31
0.0
  0
LINE
  5
346
100
AcDbEntity
  8
LAY-1
  6
CONTINUOUS
 62
     3
100
AcDbLine
 10
124.453531
 20
16.858
 30
0.0
 11
124.303575
 21
17.27
 31
0.0
  0
LINE
  5
347
100
AcDbEntity
  8
LAY-1
  6
CONTINUOUS
 62
     3
100
AcDbLine
 10
120.176
 20
16.238
 30
0.0
 11
123.471192
 21
16.238
 31
0.0
  0
LINE
  5
348
100
AcDbEntity
  8
LAY-1
  6
CONTINUOUS
 62
     3
100
AcDbLine
 10
124.679192
 20
16.238
 30
0.0
 11
125.956
 21
16.238
 31
0.0
  0
LINE
  5
349
100
AcDbEntity
  8
LAY-1
  6
CONTINUOUS
 62
     3
100
AcDbLine
 10
124.748
 20
12.73
 30
0.0
 11
123.471192
 21
16.238
 31
0.0
  0
LINE
  5
34A
100
AcDbEntity
  8
LAY-1
  6
CONTINUOUS
 62
     3
100
AcDbLine
 10
123.245531
 20
16.858
 30
0.0
 11
123.095575
 21
17.27
 31
0.0
  0
LINE
  5
34B
100
AcDbEntity
  8
LAY-1
  6
CONTINUOUS
 62
     3
100
AcDbLine
 10
123.095575
 20
17.27
 30
0.0
 11
124.303575
 21
17.27
 31
0.0
  0
LINE
  5
34C
100
AcDbEntity
  8
LAY-1
  6
CONTINUOUS
 62
     3
100
AcDbLine
 10
124.718
 20
17.27
 30
0.0
 11
125.646
 21
17.27
 31
0.0
  0
LINE
  5
34D
100
AcDbEntity
  8
LAY-1
  6
CONTINUOUS
 62
     3
100
AcDbLine
 10
126.162
 20
15.104
 30
0.0
 11
132.044
 21
15.104
 31
0.0
  0
LINE
  5
34E
100
AcDbEntity
  8
LAY-1
  6
CONTINUOUS
 62
     3
100
AcDbLine
 10
127.043
 20
15.516
 30
0.0
 11
131.163
 21
15.516
 31
0.0
  0
LINE
  5
34F
100
AcDbEntity
  8
LAY-1
  6
CONTINUOUS
 62
     3
100
AcDbLine
 10
127.351631
 20
16.136
 30
0.0
 11
130.854369
 21
16.136
 31
0.0
  0
LINE
  5
350
100
AcDbEntity
  8
LAY-1
  6
CONTINUOUS
 62
     3
100
AcDbLine
 10
124.748
 20
12.73
 30
0.0
 11
125.956
 21
12.73
 31
0.0
  0
LINE
  5
351
100
AcDbEntity
  8
LAY-1
  6
CONTINUOUS
 62
     3
100
AcDbLine
 10
126.162
 20
12.73
 30
0.0
 11
132.044
 21
12.73
 31
0.0
  0
LINE
  5
352
100
AcDbEntity
  8
LAY-1
  6
CONTINUOUS
 62
     3
100
AcDbLine
 10
129.103
 20
17.374
 30
0.0
 11
126.162
 21
16.389955
 31
0.0
  0
LINE
  5
353
100
AcDbEntity
  8
LAY-1
  6
CONTINUOUS
 62
     3
100
AcDbLine
 10
129.103
 20
17.374
 30
0.0
 11
132.044
 21
16.389955
 31
0.0
  0
LINE
  5
354
100
AcDbEntity
  8
LAY-1
  6
CONTINUOUS
 62
     3
100
AcDbLine
 10
127.043
 20
15.516
 30
0.0
 11
127.043
 21
16.032734
 31
0.0
  0
LINE
  5
355
100
AcDbEntity
  8
LAY-1
  6
CONTINUOUS
 62
     3
100
AcDbLine
 10
131.163
 20
15.516
 30
0.0
 11
131.163
 21
16.032734
 31
0.0
  0
LINE
  5
356
100
AcDbEntity
  8
LAY-1
  6
CONTINUOUS
 62
     3
100
AcDbLine
 10
126.162
 20
12.73
 30
0.0
 11
126.979904
 21
14.484
 31
0.0
  0
LINE
  5
357
100
AcDbEntity
  8
LAY-1
  6
CONTINUOUS
 62
     3
100
AcDbLine
 10
127.59
 20
13.35
 30
0.0
 11
128.118793
 21
14.484
 31
0.0
  0
LINE
  5
358
100
AcDbEntity
  8
LAY-1
  6
CONTINUOUS
 62
     3
100
AcDbLine
 10
130.616
 20
13.35
 30
0.0
 11
130.087207
 21
14.484
 31
0.0
  0
LINE
  5
359
100
AcDbEntity
  8
LAY-1
  6
CONTINUOUS
 62
     3
100
AcDbLine
 10
132.044
 20
12.73
 30
0.0
 11
131.226096
 21
14.484
 31
0.0
  0
LINE
  5
35A
100
AcDbEntity
  8
LAY-1
  6
CONTINUOUS
 62
     3
100
AcDbLine
 10
126.162
 20
16.389955
 30
0.0
 11
126.162
 21
15.737955
 31
0.0
  0
LINE
  5
35B
100
AcDbEntity
  8
LAY-1
  6
CONTINUOUS
 62
     3
100
AcDbLine
 10
126.162
 20
15.104
 30
0.0
 11
126.162
 21
14.484
 31
0.0
  0
LINE
  5
35C
100
AcDbEntity
  8
LAY-1
  6
CONTINUOUS
 62
     3
100
AcDbLine
 10
132.044
 20
16.389955
 30
0.0
 11
132.044
 21
15.737955
 31
0.0
  0
LINE
  5
35D
100
AcDbEntity
  8
LAY-1
  6
CONTINUOUS
 62
     3
100
AcDbLine
 10
132.044
 20
15.104
 30
0.0
 11
132.044
 21
14.484
 31
0.0
  0
LINE
  5
35E
100
AcDbEntity
  8
LAY-1
  6
CONTINUOUS
 62
     3
100
AcDbLine
 10
131.226096
 20
14.484
 30
0.0
 11
132.044
 21
14.484
 31
0.0
  0
LINE
  5
35F
100
AcDbEntity
  8
LAY-1
  6
CONTINUOUS
 62
     3
100
AcDbLine
 10
126.162
 20
14.484
 30
0.0
 11
126.979904
 21
14.484
 31
0.0
  0
LINE
  5
360
100
AcDbEntity
  8
LAY-1
  6
CONTINUOUS
 62
     3
100
AcDbLine
 10
128.118793
 20
14.484
 30
0.0
 11
130.087207
 21
14.484
 31
0.0
  0
LINE
  5
361
100
AcDbEntity
  8
LAY-1
  6
CONTINUOUS
 62
     3
100
AcDbLine
 10
129.103
 20
16.722
 30
0.0
 11
130.854369
 21
16.136
 31
0.0
  0
LINE
  5
362
100
AcDbEntity
  8
LAY-1
  6
CONTINUOUS
 62
     3
100
AcDbLine
 10
131.163
 20
16.032734
 30
0.0
 11
132.044
 21
15.737955
 31
0.0
  0
LINE
  5
363
100
AcDbEntity
  8
LAY-1
  6
CONTINUOUS
 62
     3
100
AcDbLine
 10
129.103
 20
16.722
 30
0.0
 11
127.351631
 21
16.136
 31
0.0
  0
LINE
  5
364
100
AcDbEntity
  8
LAY-1
  6
CONTINUOUS
 62
     3
100
AcDbLine
 10
127.043
 20
16.032734
 30
0.0
 11
126.162
 21
15.737955
 31
0.0
  0
LINE
  5
365
100
AcDbEntity
  8
LAY-1
  6
CONTINUOUS
 62
     3
100
AcDbLine
 10
127.59
 20
13.35
 30
0.0
 11
130.616
 21
13.35
 31
0.0
  0
LINE
  5
366
100
AcDbEntity
  8
LAY-1
  6
CONTINUOUS
 62
     3
100
AcDbLine
 10
138.032
 20
13.35
 30
0.0
 11
138.032
 21
12.73
 31
0.0
  0
LINE
  5
367
100
AcDbEntity
  8
LAY-1
  6
CONTINUOUS
 62
     3
100
AcDbLine
 10
134.626
 20
13.35
 30
0.0
 11
134.626
 21
12.73
 31
0.0
  0
LINE
  5
368
100
AcDbEntity
  8
LAY-1
  6
CONTINUOUS
 62
     3
100
AcDbLine
 10
132.252
 20
16.238
 30
0.0
 11
133.573992
 21
16.238
 31
0.0
  0
LINE
  5
369
100
AcDbEntity
  8
LAY-1
  6
CONTINUOUS
 62
     3
100
AcDbLine
 10
132.252
 20
14.35
 30
0.0
 11
133.573992
 21
16.238
 31
0.0
  0
LINE
  5
36A
100
AcDbEntity
  8
LAY-1
  6
CONTINUOUS
 62
     3
100
AcDbLine
 10
137.93
 20
16.136
 30
0.0
 11
137.93
 21
15.516
 31
0.0
  0
LINE
  5
36B
100
AcDbEntity
  8
LAY-1
  6
CONTINUOUS
 62
     3
100
AcDbLine
 10
133.18
 20
17.27
 30
0.0
 11
134.212
 21
17.27
 31
0.0
  0
LINE
  5
36C
100
AcDbEntity
  8
LAY-1
  6
CONTINUOUS
 62
     3
100
AcDbLine
 10
135.968
 20
17.27
 30
0.0
 11
137.0
 21
17.27
 31
0.0
  0
LINE
  5
36D
100
AcDbEntity
  8
LAY-1
  6
CONTINUOUS
 62
     3
100
AcDbLine
 10
134.212
 20
14.055321
 30
0.0
 11
135.038
 21
13.47695
 31
0.0
  0
LINE
  5
36E
100
AcDbEntity
  8
LAY-1
  6
CONTINUOUS
 62
     3
100
AcDbLine
 10
134.042656
 20
15.287321
 30
0.0
 11
135.038
 21
14.590374
 31
0.0
  0
LINE
  5
36F
100
AcDbEntity
  8
LAY-1
  6
CONTINUOUS
 62
     3
100
AcDbLine
 10
132.252
 20
14.35
 30
0.0
 11
132.252
 21
12.73
 31
0.0
  0
LINE
  5
370
100
AcDbEntity
  8
LAY-1
  6
CONTINUOUS
 62
     3
100
AcDbLine
 10
132.252
 20
16.858
 30
0.0
 11
132.252
 21
16.238
 31
0.0
  0
LINE
  5
371
100
AcDbEntity
  8
LAY-1
  6
CONTINUOUS
 62
     3
100
AcDbLine
 10
133.18
 20
17.27
 30
0.0
 11
133.18
 21
16.858
 31
0.0
  0
LINE
  5
372
100
AcDbEntity
  8
LAY-1
  6
CONTINUOUS
 62
     3
100
AcDbLine
 10
133.18
 20
14.055321
 30
0.0
 11
133.18
 21
12.73
 31
0.0
  0
LINE
  5
373
100
AcDbEntity
  8
LAY-1
  6
CONTINUOUS
 62
     3
100
AcDbLine
 10
134.212
 20
17.27
 30
0.0
 11
134.212
 21
16.858
 31
0.0
  0
LINE
  5
374
100
AcDbEntity
  8
LAY-1
  6
CONTINUOUS
 62
     3
100
AcDbLine
 10
134.212
 20
14.055321
 30
0.0
 11
134.212
 21
12.73
 31
0.0
  0
LINE
  5
375
100
AcDbEntity
  8
LAY-1
  6
CONTINUOUS
 62
     3
100
AcDbLine
 10
135.038
 20
16.136
 30
0.0
 11
135.038
 21
15.516
 31
0.0
  0
LINE
  5
376
100
AcDbEntity
  8
LAY-1
  6
CONTINUOUS
 62
     3
100
AcDbLine
 10
135.038
 20
14.590374
 30
0.0
 11
135.038
 21
13.47695
 31
0.0
  0
LINE
  5
377
100
AcDbEntity
  8
LAY-1
  6
CONTINUOUS
 62
     3
100
AcDbLine
 10
132.252
 20
16.858
 30
0.0
 11
133.18
 21
16.858
 31
0.0
  0
LINE
  5
378
100
AcDbEntity
  8
LAY-1
  6
CONTINUOUS
 62
     3
100
AcDbLine
 10
134.212
 20
16.858
 30
0.0
 11
135.142457
 21
16.858
 31
0.0
  0
LINE
  5
379
100
AcDbEntity
  8
LAY-1
  6
CONTINUOUS
 62
     3
100
AcDbLine
 10
132.252
 20
12.73
 30
0.0
 11
133.18
 21
14.055321
 31
0.0
  0
LINE
  5
37A
100
AcDbEntity
  8
LAY-1
  6
CONTINUOUS
 62
     3
100
AcDbLine
 10
134.042656
 20
15.287321
 30
0.0
 11
135.142457
 21
16.858
 31
0.0
  0
LINE
  5
37B
100
AcDbEntity
  8
LAY-1
  6
CONTINUOUS
 62
     3
100
AcDbLine
 10
135.968
 20
17.27
 30
0.0
 11
135.968
 21
16.136
 31
0.0
  0
LINE
  5
37C
100
AcDbEntity
  8
LAY-1
  6
CONTINUOUS
 62
     3
100
AcDbLine
 10
135.038
 20
15.516
 30
0.0
 11
135.968
 21
15.516
 31
0.0
  0
LINE
  5
37D
100
AcDbEntity
  8
LAY-1
  6
CONTINUOUS
 62
     3
100
AcDbLine
 10
137.0
 20
15.516
 30
0.0
 11
137.93
 21
15.516
 31
0.0
  0
LINE
  5
37E
100
AcDbEntity
  8
LAY-1
  6
CONTINUOUS
 62
     3
100
AcDbLine
 10
137.0
 20
17.27
 30
0.0
 11
137.0
 21
16.136
 31
0.0
  0
LINE
  5
37F
100
AcDbEntity
  8
LAY-1
  6
CONTINUOUS
 62
     3
100
AcDbLine
 10
135.038
 20
16.136
 30
0.0
 11
135.968
 21
16.136
 31
0.0
  0
LINE
  5
380
100
AcDbEntity
  8
LAY-1
  6
CONTINUOUS
 62
     3
100
AcDbLine
 10
137.0
 20
16.136
 30
0.0
 11
137.93
 21
16.136
 31
0.0
  0
LINE
  5
381
100
AcDbEntity
  8
LAY-1
  6
CONTINUOUS
 62
     3
100
AcDbLine
 10
135.968
 20
15.516
 30
0.0
 11
135.968
 21
13.35
 31
0.0
  0
LINE
  5
382
100
AcDbEntity
  8
LAY-1
  6
CONTINUOUS
 62
     3
100
AcDbLine
 10
134.626
 20
13.35
 30
0.0
 11
135.968
 21
13.35
 31
0.0
  0
LINE
  5
383
100
AcDbEntity
  8
LAY-1
  6
CONTINUOUS
 62
     3
100
AcDbLine
 10
137.0
 20
13.35
 30
0.0
 11
138.032
 21
13.35
 31
0.0
  0
LINE
  5
384
100
AcDbEntity
  8
LAY-1
  6
CONTINUOUS
 62
     3
100
AcDbLine
 10
137.0
 20
15.516
 30
0.0
 11
137.0
 21
13.35
 31
0.0
  0
LINE
  5
385
100
AcDbEntity
  8
LAY-1
  6
CONTINUOUS
 62
     3
100
AcDbLine
 10
134.626
 20
12.73
 30
0.0
 11
138.032
 21
12.73
 31
0.0
  0
LINE
  5
386
100
AcDbEntity
  8
LAY-1
  6
CONTINUOUS
 62
     3
100
AcDbLine
 10
133.18
 20
12.73
 30
0.0
 11
134.212
 21
12.73
 31
0.0
  0
TEXT
  5
387
100
AcDbEntity
  8
LAY-1
  6
CONTINUOUS
 62
     2
100
AcDbText
 10
37.4
 20
18.5
 30
0.0
 40
5.0
  1
宮田
 41
0.8568
  7
EXCADSTD
 72
     5
 11
46.74932
 21
18.5
 31
0.0
100
AcDbText
  0
TEXT
  5
388
100
AcDbEntity
  8
LAY-1
  6
CONTINUOUS
 62
     7
100
AcDbText
 10
150.0
 20
11.75
 30
0.0
 40
6.5
  1
９１３１００
 41
0.926154
  7
EXCADSTD
 72
     5
 11
193.0
 21
11.75
 31
0.0
100
AcDbText
  0
TEXT
  5
389
100
AcDbEntity
  8
LAY-1
  6
CONTINUOUS
 62
     2
100
AcDbText
 10
39.25
 20
10.9
 30
0.0
 40
3.0
  1
１２
 41
0.91
  7
EXCADSTD
 72
     5
 11
45.2079
 21
10.9
 31
0.0
100
AcDbText
  0
TEXT
  5
38A
100
AcDbEntity
  8
LAY-1
  6
CONTINUOUS
 62
     2
100
AcDbText
 10
44.25
 20
10.9
 30
0.0
 40
3.0
  1
２２
 41
0.91
  7
EXCADSTD
 72
     5
 11
50.2079
 21
10.9
 31
0.0
100
AcDbText
  0
TEXT
  5
38B
100
AcDbEntity
  8
LAY-1
  6
CONTINUOUS
 62
     2
100
AcDbText
 10
51.45
 20
18.5
 30
0.0
 40
5.0
  1
又場
 41
0.8568
  7
EXCADSTD
 72
     5
 11
60.79932
 21
18.5
 31
0.0
100
AcDbText
  0
TEXT
  5
38C
100
AcDbEntity
  8
LAY-1
  6
CONTINUOUS
 62
     2
100
AcDbText
 10
64.55
 20
18.5
 30
0.0
 40
5.0
  1
岩田
 41
0.8568
  7
EXCADSTD
 72
     5
 11
73.89932
 21
18.5
 31
0.0
100
AcDbText
  0
LINE
  5
38D
100
AcDbEntity
  8
LAY-1
  6
EXLTYPE2
 62
     6
100
AcDbLine
 10
20.0
 20
148.0
 30
0.0
 11
0.4
 21
148.0
 31
0.0
  0
TEXT
  5
38E
100
AcDbEntity
  8
LAY-2
  6
CONTINUOUS
 62
     2
100
AcDbText
 10
294.3
 20
95.0
 30
0.0
 40
8.0
  1
製品番号
 41
1.12875
  7
EXCADSTD
 72
     5
 11
337.3
 21
95.0
 31
0.0
100
AcDbText
  0
TEXT
  5
38F
100
AcDbEntity
  8
LAY-2
  6
CONTINUOUS
 62
     2
100
AcDbText
 10
356.0
 20
95.0
 30
0.0
 40
8.0
  1
Ａ
 41
1.05
  7
EXCADSTD
 72
     5
 11
364.0
 21
95.0
 31
0.0
100
AcDbText
  0
LINE
  5
390
100
AcDbEntity
  8
LAY-2
  6
EXLTYPE3
 62
     1
100
AcDbLine
 10
120.010331
 20
419.776049
 30
0.0
 11
120.010331
 21
380.726788
 31
0.0
  0
LINE
  5
391
100
AcDbEntity
  8
LAY-2
  6
CONTINUOUS
 62
     2
100
AcDbLine
 10
130.010331
 20
391.076049
 30
0.0
 11
110.010331
 21
391.076049
 31
0.0
  0
ARC
  5
392
100
AcDbEntity
  8
LAY-2
  6
CONTINUOUS
 62
     2
100
AcDbCircle
 10
121.488717
 20
346.076049
 30
0.0
 40
5.0
100
AcDbArc
 50
192.598328
 51
270.0
  0
ARC
  5
393
100
AcDbEntity
  8
LAY-2
  6
CONTINUOUS
 62
     2
100
AcDbCircle
 10
409.38604
 20
410.419905
 30
0.0
 40
300.0
100
AcDbArc
 50
183.696969
 51
192.598328
  0
LINE
  5
394
100
AcDbEntity
  8
LAY-2
  6
CONTINUOUS
 62
     2
100
AcDbLine
 10
130.010331
 20
391.076049
 30
0.0
 11
128.568531
 21
343.016076
 31
0.0
  0
LINE
  5
395
100
AcDbEntity
  8
LAY-2
  6
CONTINUOUS
 62
     2
100
AcDbLine
 10
126.569431
 20
341.076049
 30
0.0
 11
121.488717
 21
341.076049
 31
0.0
  0
ARC
  5
396
100
AcDbEntity
  8
LAY-2
  6
CONTINUOUS
 62
     2
100
AcDbCircle
 10
126.569431
 20
343.076049
 30
0.0
 40
2.0
100
AcDbArc
 50
270.0
 51
358.281642
  0
LINE
  5
397
100
AcDbEntity
  8
LAY-2
  6
CONTINUOUS
 62
     2
100
AcDbLine
 10
129.901343
 20
388.041054
 30
0.0
 11
130.010331
 21
391.076049
 31
0.0
  0
ARC
  5
398
100
AcDbEntity
  8
LAY-2
  6
CONTINUOUS
 62
     2
100
AcDbCircle
 10
127.90165
 20
388.076049
 30
0.0
 40
2.0
100
AcDbArc
 50
270.0
 51
358.997426
  0
LINE
  5
399
100
AcDbEntity
  8
LAY-2
  6
CONTINUOUS
 62
     2
100
AcDbLine
 10
110.010331
 20
391.076049
 30
0.0
 11
110.211632
 21
387.991126
 31
0.0
  0
ARC
  5
39A
100
AcDbEntity
  8
LAY-2
  6
CONTINUOUS
 62
     2
100
AcDbCircle
 10
112.209828
 20
388.076049
 30
0.0
 40
2.0
100
AcDbArc
 50
182.433606
 51
270.0
  0
LINE
  5
39B
100
AcDbEntity
  8
LAY-2
  6
CONTINUOUS
 62
     2
100
AcDbLine
 10
112.209828
 20
386.076049
 30
0.0
 11
127.90165
 21
386.076049
 31
0.0
  0
LINE
  5
39C
100
AcDbEntity
  8
LAY-2
  6
EXLTYPE3
 62
     1
100
AcDbLine
 10
126.810331
 20
351.076049
 30
0.0
 11
326.706563
 21
351.076049
 31
0.0
  0
LINE
  5
39D
100
AcDbEntity
  8
LAY-2
  6
CONTINUOUS
 62
     2
100
AcDbLine
 10
129.000831
 20
357.426049
 30
0.0
 11
219.010331
 21
357.426049
 31
0.0
  0
LINE
  5
39E
100
AcDbEntity
  8
LAY-2
  6
CONTINUOUS
 62
     2
100
AcDbLine
 10
221.010331
 20
357.426049
 30
0.0
 11
311.019831
 21
357.426049
 31
0.0
  0
LINE
  5
39F
100
AcDbEntity
  8
LAY-2
  6
CONTINUOUS
 62
     2
100
AcDbLine
 10
129.000831
 20
344.726049
 30
0.0
 11
219.010331
 21
344.726049
 31
0.0
  0
LINE
  5
3A0
100
AcDbEntity
  8
LAY-2
  6
CONTINUOUS
 62
     2
100
AcDbLine
 10
221.010331
 20
344.726049
 30
0.0
 11
311.019831
 21
344.726049
 31
0.0
  0
LINE
  5
3A1
100
AcDbEntity
  8
LAY-2
  6
EXLTYPE3
 62
     1
100
AcDbLine
 10
120.010331
 20
198.409091
 30
0.0
 11
120.010331
 21
254.409091
 31
0.0
  0
LINE
  5
3A2
100
AcDbEntity
  8
LAY-2
  6
EXLTYPE3
 62
     1
100
AcDbLine
 10
126.010331
 20
208.409091
 30
0.0
 11
114.010331
 21
208.409091
 31
0.0
  0
LINE
  5
3A3
100
AcDbEntity
  8
LAY-2
  6
EXLTYPE3
 62
     1
100
AcDbLine
 10
126.010331
 20
244.409091
 30
0.0
 11
114.010331
 21
244.409091
 31
0.0
  0
ARC
  5
3A4
100
AcDbEntity
  8
LAY-2
  6
CONTINUOUS
 62
     2
100
AcDbCircle
 10
126.510331
 20
219.599157
 30
0.0
 40
2.0
100
AcDbArc
 50
264.805571
 51
0.0
  0
ARC
  5
3A5
100
AcDbEntity
  8
LAY-2
  6
CONTINUOUS
 62
     2
100
AcDbCircle
 10
126.510331
 20
233.219025
 30
0.0
 40
2.0
100
AcDbArc
 50
0.0
 51
95.194429
  0
LINE
  5
3A6
100
AcDbEntity
  8
LAY-2
  6
CONTINUOUS
 62
     2
100
AcDbLine
 10
126.329259
 20
235.210812
 30
0.0
 11
118.510331
 21
235.210812
 31
0.0
  0
LINE
  5
3A7
100
AcDbEntity
  8
LAY-2
  6
CONTINUOUS
 62
     2
100
AcDbLine
 10
128.510331
 20
226.409091
 30
0.0
 11
128.510331
 21
219.599157
 31
0.0
  0
LINE
  5
3A8
100
AcDbEntity
  8
LAY-2
  6
CONTINUOUS
 62
     2
100
AcDbLine
 10
128.510331
 20
226.409091
 30
0.0
 11
128.510331
 21
233.219025
 31
0.0
  0
ARC
  5
3A9
100
AcDbEntity
  8
LAY-2
  6
CONTINUOUS
 62
     2
100
AcDbCircle
 10
118.510331
 20
240.40223
 30
0.0
 40
5.191418
100
AcDbArc
 50
193.274684
 51
270.0
  0
ARC
  5
3AA
100
AcDbEntity
  8
LAY-2
  6
CONTINUOUS
 62
     2
100
AcDbCircle
 10
118.510331
 20
212.415952
 30
0.0
 40
5.191418
100
AcDbArc
 50
90.0
 51
166.725316
  0
LINE
  5
3AB
100
AcDbEntity
  8
LAY-2
  6
CONTINUOUS
 62
     2
100
AcDbLine
 10
126.329259
 20
217.60737
 30
0.0
 11
118.510331
 21
217.60737
 31
0.0
  0
ARC
  5
3AC
100
AcDbEntity
  8
LAY-2
  6
CONTINUOUS
 62
     2
100
AcDbCircle
 10
120.010331
 20
152.409091
 30
0.0
 40
100.0
100
AcDbArc
 50
86.173498
 51
93.826502
  0
ARC
  5
3AD
100
AcDbEntity
  8
LAY-2
  6
CONTINUOUS
 62
     2
100
AcDbCircle
 10
126.550403
 20
250.19062
 30
0.0
 40
2.0
100
AcDbArc
 50
6.962063
 51
90.0
  0
ARC
  5
3AE
100
AcDbEntity
  8
LAY-2
  6
CONTINUOUS
 62
     2
100
AcDbCircle
 10
113.470258
 20
250.19062
 30
0.0
 40
2.0
100
AcDbArc
 50
90.0
 51
173.037937
  0
ARC
  5
3AF
100
AcDbEntity
  8
LAY-2
  6
CONTINUOUS
 62
     2
100
AcDbCircle
 10
310.010331
 20
226.19062
 30
0.0
 40
200.0
100
AcDbArc
 50
173.037937
 51
180.0
  0
ARC
  5
3B0
100
AcDbEntity
  8
LAY-2
  6
CONTINUOUS
 62
     2
100
AcDbCircle
 10
120.010331
 20
300.409091
 30
0.0
 40
100.0
100
AcDbArc
 50
266.173498
 51
273.826502
  0
ARC
  5
3B1
100
AcDbEntity
  8
LAY-2
  6
CONTINUOUS
 62
     2
100
AcDbCircle
 10
126.550403
 20
202.627562
 30
0.0
 40
2.0
100
AcDbArc
 50
270.0
 51
353.037937
  0
ARC
  5
3B2
100
AcDbEntity
  8
LAY-2
  6
CONTINUOUS
 62
     2
100
AcDbCircle
 10
113.470258
 20
202.627562
 30
0.0
 40
2.0
100
AcDbArc
 50
186.962063
 51
270.0
  0
ARC
  5
3B3
100
AcDbEntity
  8
LAY-2
  6
CONTINUOUS
 62
     2
100
AcDbCircle
 10
310.010331
 20
226.627562
 30
0.0
 40
200.0
100
AcDbArc
 50
180.0
 51
186.962063
  0
LINE
  5
3B4
100
AcDbEntity
  8
LAY-2
  6
EXLTYPE3
 62
     1
100
AcDbLine
 10
108.01045
 20
226.409091
 30
0.0
 11
332.010211
 21
226.409091
 31
0.0
  0
LINE
  5
3B5
100
AcDbEntity
  8
LAY-2
  6
CONTINUOUS
 62
     2
100
AcDbLine
 10
128.510331
 20
232.759091
 30
0.0
 11
219.010331
 21
232.759091
 31
0.0
  0
LINE
  5
3B6
100
AcDbEntity
  8
LAY-2
  6
CONTINUOUS
 62
     2
100
AcDbLine
 10
221.010331
 20
232.759091
 30
0.0
 11
311.510331
 21
232.759091
 31
0.0
  0
LINE
  5
3B7
100
AcDbEntity
  8
LAY-2
  6
CONTINUOUS
 62
     2
100
AcDbLine
 10
128.510331
 20
220.059091
 30
0.0
 11
219.010331
 21
220.059091
 31
0.0
  0
LINE
  5
3B8
100
AcDbEntity
  8
LAY-2
  6
CONTINUOUS
 62
     2
100
AcDbLine
 10
221.010331
 20
220.059091
 30
0.0
 11
311.510331
 21
220.059091
 31
0.0
  0
ARC
  5
3B9
100
AcDbEntity
  8
LAY-2
  6
CONTINUOUS
 62
     2
100
AcDbCircle
 10
-69.989669
 20
226.627562
 30
0.0
 40
200.0
100
AcDbArc
 50
353.037937
 51
358.117933
  0
ARC
  5
3BA
100
AcDbEntity
  8
LAY-2
  6
CONTINUOUS
 62
     2
100
AcDbCircle
 10
-69.989669
 20
226.19062
 30
0.0
 40
200.0
100
AcDbArc
 50
1.882067
 51
6.962063
  0
LINE
  5
3BB
100
AcDbEntity
  8
LAY-2
  6
EXLTYPE3
 62
     1
100
AcDbLine
 10
320.010331
 20
419.776049
 30
0.0
 11
320.010331
 21
380.726788
 31
0.0
  0
LINE
  5
3BC
100
AcDbEntity
  8
LAY-2
  6
CONTINUOUS
 62
     2
100
AcDbLine
 10
310.010331
 20
391.076049
 30
0.0
 11
330.010331
 21
391.076049
 31
0.0
  0
ARC
  5
3BD
100
AcDbEntity
  8
LAY-2
  6
CONTINUOUS
 62
     2
100
AcDbCircle
 10
318.531944
 20
346.076049
 30
0.0
 40
5.0
100
AcDbArc
 50
270.0
 51
347.401672
  0
ARC
  5
3BE
100
AcDbEntity
  8
LAY-2
  6
CONTINUOUS
 62
     2
100
AcDbCircle
 10
30.634621
 20
410.419905
 30
0.0
 40
300.0
100
AcDbArc
 50
347.401672
 51
356.303031
  0
LINE
  5
3BF
100
AcDbEntity
  8
LAY-2
  6
CONTINUOUS
 62
     2
100
AcDbLine
 10
310.010331
 20
391.076049
 30
0.0
 11
311.45213
 21
343.016076
 31
0.0
  0
LINE
  5
3C0
100
AcDbEntity
  8
LAY-2
  6
CONTINUOUS
 62
     2
100
AcDbLine
 10
313.45123
 20
341.076049
 30
0.0
 11
318.531944
 21
341.076049
 31
0.0
  0
ARC
  5
3C1
100
AcDbEntity
  8
LAY-2
  6
CONTINUOUS
 62
     2
100
AcDbCircle
 10
313.45123
 20
343.076049
 30
0.0
 40
2.0
100
AcDbArc
 50
181.718358
 51
270.0
  0
LINE
  5
3C2
100
AcDbEntity
  8
LAY-2
  6
CONTINUOUS
 62
     2
100
AcDbLine
 10
310.119318
 20
388.041054
 30
0.0
 11
310.010331
 21
391.076049
 31
0.0
  0
ARC
  5
3C3
100
AcDbEntity
  8
LAY-2
  6
CONTINUOUS
 62
     2
100
AcDbCircle
 10
312.119012
 20
388.076049
 30
0.0
 40
2.0
100
AcDbArc
 50
181.002574
 51
270.0
  0
LINE
  5
3C4
100
AcDbEntity
  8
LAY-2
  6
CONTINUOUS
 62
     2
100
AcDbLine
 10
330.010331
 20
391.076049
 30
0.0
 11
329.809029
 21
387.991126
 31
0.0
  0
ARC
  5
3C5
100
AcDbEntity
  8
LAY-2
  6
CONTINUOUS
 62
     2
100
AcDbCircle
 10
327.810833
 20
388.076049
 30
0.0
 40
2.0
100
AcDbArc
 50
270.0
 51
357.566394
  0
LINE
  5
3C6
100
AcDbEntity
  8
LAY-2
  6
CONTINUOUS
 62
     2
100
AcDbLine
 10
327.810833
 20
386.076049
 30
0.0
 11
312.119012
 21
386.076049
 31
0.0
  0
LINE
  5
3C7
100
AcDbEntity
  8
LAY-2
  6
EXLTYPE3
 62
     1
100
AcDbLine
 10
320.010331
 20
198.409091
 30
0.0
 11
320.010331
 21
254.409091
 31
0.0
  0
CIRCLE
  5
3C8
100
AcDbEntity
  8
LAY-2
  6
CONTINUOUS
 62
     2
100
AcDbCircle
 10
320.010331
 20
244.409091
 30
0.0
 40
4.0
  0
ARC
  5
3C9
100
AcDbEntity
  8
LAY-2
  6
CONTINUOUS
 62
     2
100
AcDbCircle
 10
313.510331
 20
219.599157
 30
0.0
 40
2.0
100
AcDbArc
 50
180.0
 51
275.194429
  0
ARC
  5
3CA
100
AcDbEntity
  8
LAY-2
  6
CONTINUOUS
 62
     2
100
AcDbCircle
 10
313.510331
 20
233.219025
 30
0.0
 40
2.0
100
AcDbArc
 50
84.805571
 51
180.0
  0
LINE
  5
3CB
100
AcDbEntity
  8
LAY-2
  6
CONTINUOUS
 62
     2
100
AcDbLine
 10
313.691402
 20
235.210812
 30
0.0
 11
321.510331
 21
235.210812
 31
0.0
  0
LINE
  5
3CC
100
AcDbEntity
  8
LAY-2
  6
CONTINUOUS
 62
     2
100
AcDbLine
 10
311.510331
 20
226.409091
 30
0.0
 11
311.510331
 21
219.599157
 31
0.0
  0
LINE
  5
3CD
100
AcDbEntity
  8
LAY-2
  6
CONTINUOUS
 62
     2
100
AcDbLine
 10
311.510331
 20
226.409091
 30
0.0
 11
311.510331
 21
233.219025
 31
0.0
  0
ARC
  5
3CE
100
AcDbEntity
  8
LAY-2
  6
CONTINUOUS
 62
     2
100
AcDbCircle
 10
321.510331
 20
240.40223
 30
0.0
 40
5.191418
100
AcDbArc
 50
270.0
 51
346.725316
  0
ARC
  5
3CF
100
AcDbEntity
  8
LAY-2
  6
CONTINUOUS
 62
     2
100
AcDbCircle
 10
321.510331
 20
212.415952
 30
0.0
 40
5.191418
100
AcDbArc
 50
13.274684
 51
90.0
  0
LINE
  5
3D0
100
AcDbEntity
  8
LAY-2
  6
CONTINUOUS
 62
     2
100
AcDbLine
 10
313.691402
 20
217.60737
 30
0.0
 11
321.510331
 21
217.60737
 31
0.0
  0
ARC
  5
3D1
100
AcDbEntity
  8
LAY-2
  6
CONTINUOUS
 62
     2
100
AcDbCircle
 10
320.010331
 20
152.409091
 30
0.0
 40
100.0
100
AcDbArc
 50
86.173498
 51
93.826502
  0
ARC
  5
3D2
100
AcDbEntity
  8
LAY-2
  6
CONTINUOUS
 62
     2
100
AcDbCircle
 10
313.470258
 20
250.19062
 30
0.0
 40
2.0
100
AcDbArc
 50
90.0
 51
173.037937
  0
ARC
  5
3D3
100
AcDbEntity
  8
LAY-2
  6
CONTINUOUS
 62
     2
100
AcDbCircle
 10
326.550403
 20
250.19062
 30
0.0
 40
2.0
100
AcDbArc
 50
6.962063
 51
90.0
  0
ARC
  5
3D4
100
AcDbEntity
  8
LAY-2
  6
CONTINUOUS
 62
     2
100
AcDbCircle
 10
130.010331
 20
226.19062
 30
0.0
 40
200.0
100
AcDbArc
 50
0.0
 51
6.962063
  0
ARC
  5
3D5
100
AcDbEntity
  8
LAY-2
  6
CONTINUOUS
 62
     2
100
AcDbCircle
 10
320.010331
 20
300.409091
 30
0.0
 40
100.0
100
AcDbArc
 50
266.173498
 51
273.826502
  0
ARC
  5
3D6
100
AcDbEntity
  8
LAY-2
  6
CONTINUOUS
 62
     2
100
AcDbCircle
 10
313.470258
 20
202.627562
 30
0.0
 40
2.0
100
AcDbArc
 50
186.962063
 51
270.0
  0
ARC
  5
3D7
100
AcDbEntity
  8
LAY-2
  6
CONTINUOUS
 62
     2
100
AcDbCircle
 10
326.550403
 20
202.627562
 30
0.0
 40
2.0
100
AcDbArc
 50
270.0
 51
353.037937
  0
ARC
  5
3D8
100
AcDbEntity
  8
LAY-2
  6
CONTINUOUS
 62
     2
100
AcDbCircle
 10
130.010331
 20
226.627562
 30
0.0
 40
200.0
100
AcDbArc
 50
353.037937
 51
0.0
  0
ARC
  5
3D9
100
AcDbEntity
  8
LAY-2
  6
CONTINUOUS
 62
     2
100
AcDbCircle
 10
510.010331
 20
226.627562
 30
0.0
 40
200.0
100
AcDbArc
 50
181.882067
 51
186.962063
  0
ARC
  5
3DA
100
AcDbEntity
  8
LAY-2
  6
CONTINUOUS
 62
     2
100
AcDbCircle
 10
510.010331
 20
226.19062
 30
0.0
 40
200.0
100
AcDbArc
 50
173.037937
 51
178.117933
  0
LINE
  5
3DB
100
AcDbEntity
  8
LAY-2
  6
EXLTYPE3
 62
     1
100
AcDbLine
 10
314.010331
 20
244.409091
 30
0.0
 11
326.010331
 21
244.409091
 31
0.0
  0
LINE
  5
3DC
100
AcDbEntity
  8
LAY-2
  6
EXLTYPE3
 62
     1
100
AcDbLine
 10
314.010331
 20
208.409091
 30
0.0
 11
326.010331
 21
208.409091
 31
0.0
  0
CIRCLE
  5
3DD
100
AcDbEntity
  8
LAY-2
  6
CONTINUOUS
 62
     2
100
AcDbCircle
 10
320.010331
 20
208.409091
 30
0.0
 40
4.0
  0
CIRCLE
  5
3DE
100
AcDbEntity
  8
LAY-2
  6
CONTINUOUS
 62
     2
100
AcDbCircle
 10
120.010331
 20
244.409091
 30
0.0
 40
4.0
  0
CIRCLE
  5
3DF
100
AcDbEntity
  8
LAY-2
  6
CONTINUOUS
 62
     2
100
AcDbCircle
 10
120.010331
 20
208.409091
 30
0.0
 40
4.0
  0
DIMENSION
  5
3EC
100
AcDbEntity
  8
LAY-2
  6
CONTINUOUS
 62
     3
100
AcDbDimension
  2
*D14
 10
351.2
 20
351.076049
 30
0.0
 11
345.2
 21
371.076049
 31
0.0
 70
   160
  1
40
  3
STANDARD
100
AcDbAlignedDimension
 13
330.010331
 23
391.076049
 33
0.0
 14
326.706563
 24
351.076049
 34
0.0
 50
90.0
100
AcDbRotatedDimension
1001
ACAD
1000
DSTYLE
1002
{
1070
     6
1000
_EX_NORM
1070
     7
1000
_EX_NORM
1070
    41
1040
6.0
1070
    42
1040
1.0
1070
    44
1040
2.0
1070
    73
1070
     0
1070
    74
1070
     0
1070
    75
1070
     0
1070
    76
1070
     0
1070
    77
1070
     1
1070
    78
1070
     8
1070
   140
1040
8.0
1070
   147
1040
2.0
1070
   173
1070
     1
1070
   176
1070
     3
1070
   177
1070
     3
1070
   178
1070
     2
1070
   271
1070
     2
1070
   279
1070
     2
1070
   280
1070
     0
1070
   287
1070
     5
1070
   340
1005
3EB
1002
}
  0
DIMENSION
  5
3F8
100
AcDbEntity
  8
LAY-2
  6
CONTINUOUS
 62
     3
100
AcDbDimension
  2
*D15
 10
351.2
 20
244.409091
 30
0.0
 11
345.2
 21
226.409091
 31
0.0
 70
   160
  3
STANDARD
100
AcDbAlignedDimension
 13
326.010331
 23
208.409091
 33
0.0
 14
326.010331
 24
244.409091
 34
0.0
 50
90.0
100
AcDbRotatedDimension
1001
ACAD
1000
DSTYLE
1002
{
1070
     6
1000
_EX_NORM
1070
     7
1000
_EX_NORM
1070
    41
1040
6.0
1070
    42
1040
1.0
1070
    44
1040
2.0
1070
    73
1070
     0
1070
    74
1070
     0
1070
    75
1070
     0
1070
    76
1070
     0
1070
    77
1070
     1
1070
    78
1070
     8
1070
   140
1040
8.0
1070
   147
1040
2.0
1070
   173
1070
     1
1070
   176
1070
     3
1070
   177
1070
     3
1070
   178
1070
     2
1070
   271
1070
     2
1070
   279
1070
     2
1070
   280
1070
     0
1070
   287
1070
     5
1070
   340
1005
3EB
1002
}
  0
DIMENSION
  5
401
100
AcDbEntity
  8
LAY-2
  6
CONTINUOUS
 62
     3
100
AcDbDimension
  2
*D16
 10
351.2
 20
252.409091
 30
0.0
 11
345.2
 21
248.409091
 31
0.0
 70
   160
  3
STANDARD
100
AcDbAlignedDimension
 13
326.010331
 23
244.409091
 33
0.0
 14
320.010331
 24
252.409091
 34
0.0
 50
90.0
100
AcDbRotatedDimension
1001
ACAD
1000
DSTYLE
1002
{
1070
     6
1000
_EX_NONE
1070
     7
1000
_EX_NORM
1070
    41
1040
6.0
1070
    42
1040
1.0
1070
    44
1040
2.0
1070
    73
1070
     0
1070
    74
1070
     0
1070
    75
1070
     1
1070
    76
1070
     0
1070
    77
1070
     1
1070
    78
1070
     8
1070
   140
1040
8.0
1070
   147
1040
2.0
1070
   173
1070
     1
1070
   176
1070
     3
1070
   177
1070
     3
1070
   178
1070
     2
1070
   271
1070
     2
1070
   279
1070
     2
1070
   280
1070
     0
1070
   287
1070
     5
1070
   340
1005
3EB
1002
}
  0
DIMENSION
  5
40D
100
AcDbEntity
  8
LAY-2
  6
CONTINUOUS
 62
     3
100
AcDbDimension
  2
*D17
 10
320.010331
 20
272.0
 30
0.0
 11
220.010331
 21
278.0
 31
0.0
 70
   160
  1
Ａ
  3
STANDARD
100
AcDbAlignedDimension
 13
120.010331
 23
254.409091
 33
0.0
 14
320.010331
 24
254.409091
 34
0.0
100
AcDbRotatedDimension
1001
ACAD
1000
DSTYLE
1002
{
1070
     6
1000
_EX_NORM
1070
     7
1000
_EX_NORM
1070
    41
1040
6.0
1070
    42
1040
1.0
1070
    44
1040
2.0
1070
    73
1070
     0
1070
    74
1070
     0
1070
    75
1070
     0
1070
    76
1070
     0
1070
    77
1070
     1
1070
    78
1070
     8
1070
   140
1040
8.0
1070
   147
1040
2.0
1070
   173
1070
     1
1070
   176
1070
     3
1070
   177
1070
     3
1070
   178
1070
     2
1070
   271
1070
     2
1070
   279
1070
     2
1070
   280
1070
     0
1070
   287
1070
     5
1070
   340
1005
3EB
1002
}
  0
DIMENSION
  5
417
100
AcDbEntity
  8
LAY-2
  6
CONTINUOUS
 62
     3
100
AcDbDimension
  2
*D18
 10
293.8
 20
220.059091
 30
0.0
 11
287.8
 21
252.759091
 31
0.0
 70
   160
  1
%%c12.7
  3
STANDARD
100
AcDbAlignedDimension
 13
293.8
 23
232.759091
 33
0.0
 14
293.8
 24
220.059091
 34
0.0
 50
90.0
100
AcDbRotatedDimension
1001
ACAD
1000
DSTYLE
1002
{
1070
     6
1000
_EX_NORM
1070
     7
1000
_EX_NORM
1070
    41
1040
6.0
1070
    42
1040
0.0
1070
    44
1040
0.0
1070
    73
1070
     0
1070
    74
1070
     0
1070
    75
1070
     1
1070
    76
1070
     1
1070
    77
1070
     1
1070
    78
1070
     8
1070
   140
1040
8.0
1070
   147
1040
2.0
1070
   173
1070
     1
1070
   176
1070
     3
1070
   177
1070
     3
1070
   178
1070
     2
1070
   271
1070
     2
1070
   279
1070
     2
1070
   280
1070
     0
1070
   287
1070
     5
1070
   340
1005
3EB
1002
}
  0
LINE
  5
418
100
AcDbEntity
  8
LAY-2
  6
CONTINUOUS
 62
     2
100
AcDbLine
 10
118.510331
 20
391.076049
 30
0.0
 11
118.510331
 21
414.076049
 31
0.0
  0
LINE
  5
419
100
AcDbEntity
  8
LAY-2
  6
CONTINUOUS
 62
     2
100
AcDbLine
 10
121.510331
 20
391.076049
 30
0.0
 11
121.510331
 21
414.076049
 31
0.0
  0
LINE
  5
41A
100
AcDbEntity
  8
LAY-2
  6
CONTINUOUS
 62
     2
100
AcDbLine
 10
120.010331
 20
417.776049
 30
0.0
 11
118.510331
 21
414.076049
 31
0.0
  0
LINE
  5
41B
100
AcDbEntity
  8
LAY-2
  6
CONTINUOUS
 62
     2
100
AcDbLine
 10
120.010331
 20
417.776049
 30
0.0
 11
121.510331
 21
414.076049
 31
0.0
  0
LINE
  5
41C
100
AcDbEntity
  8
LAY-2
  6
CONTINUOUS
 62
     2
100
AcDbLine
 10
318.510331
 20
391.076049
 30
0.0
 11
318.510331
 21
414.076049
 31
0.0
  0
LINE
  5
41D
100
AcDbEntity
  8
LAY-2
  6
CONTINUOUS
 62
     2
100
AcDbLine
 10
321.510331
 20
391.076049
 30
0.0
 11
321.510331
 21
414.076049
 31
0.0
  0
LINE
  5
41E
100
AcDbEntity
  8
LAY-2
  6
CONTINUOUS
 62
     2
100
AcDbLine
 10
320.010331
 20
417.776049
 30
0.0
 11
318.510331
 21
414.076049
 31
0.0
  0
LINE
  5
41F
100
AcDbEntity
  8
LAY-2
  6
CONTINUOUS
 62
     2
100
AcDbLine
 10
320.010331
 20
417.776049
 30
0.0
 11
321.510331
 21
414.076049
 31
0.0
  0
TEXT
  5
420
100
AcDbEntity
  8
LAY-2
  6
CONTINUOUS
 62
     2
100
AcDbText
 10
80.3
 20
416.275371
 30
0.0
 40
8.0
  1
^J４×３０
 41
0.6322
  7
EXCADSTD
 72
     5
 11
109.3
 21
416.275371
 31
0.0
100
AcDbText
  0
TEXT
  5
421
100
AcDbEntity
  8
LAY-2
  6
CONTINUOUS
 62
     2
100
AcDbText
 10
108.8
 20
416.275371
 30
0.0
 40
8.0
  1
^J
 41
0.0
  7
EXCADSTD
 72
     5
 11
108.8
 21
416.275371
 31
0.0
100
AcDbText
  0
LEADER
  5
422
100
AcDbEntity
  8
LAY-2
  6
CONTINUOUS
 62
     3
100
AcDbLeader
  3
STANDARD
 73
     3
 74
     1
 75
     0
 40
0.0
 76
     3
 10
118.510331
 20
405.6
 30
0.0
 10
107.8
 20
415.275371
 30
0.0
 10
81.7
 20
415.275371
 30
0.0
 77
     3
1001
ACAD
1000
DSTYLE
1002
{
1070
    41
1040
6.0
1070
     5
1000
_EX_NORM
1070
     6
1000
_EX_NORM
1070
     7
1000
_EX_NORM
1070
   341
1005
27
1002
}
  0
DIMENSION
  5
42C
100
AcDbEntity
  8
LAY-2
  6
CONTINUOUS
 62
     3
100
AcDbDimension
  2
*D19
 10
320.010331
 20
429.9
 30
0.0
 11
315.010331
 21
435.9
 31
0.0
 70
   160
  3
STANDARD
100
AcDbAlignedDimension
 13
310.010331
 23
391.076049
 33
0.0
 14
320.010331
 24
419.776049
 34
0.0
100
AcDbRotatedDimension
1001
ACAD
1000
DSTYLE
1002
{
1070
     6
1000
_EX_NORM
1070
     7
1000
_EX_NONE
1070
    41
1040
6.0
1070
    42
1040
1.0
1070
    44
1040
2.0
1070
    73
1070
     0
1070
    74
1070
     0
1070
    75
1070
     0
1070
    76
1070
     0
1070
    77
1070
     1
1070
    78
1070
     8
1070
   140
1040
8.0
1070
   147
1040
2.0
1070
   173
1070
     1
1070
   176
1070
     3
1070
   177
1070
     3
1070
   178
1070
     2
1070
   271
1070
     2
1070
   279
1070
     2
1070
   280
1070
     0
1070
   287
1070
     5
1070
   340
1005
3EB
1002
}
  0
DIMENSION
  5
437
100
AcDbEntity
  8
LAY-2
  6
CONTINUOUS
 62
     3
100
AcDbDimension
  2
*D20
 10
330.010331
 20
429.9
 30
0.0
 11
325.010331
 21
435.9
 31
0.0
 70
   160
  3
STANDARD
100
AcDbAlignedDimension
 13
320.010331
 23
419.776049
 33
0.0
 14
330.010331
 24
391.076049
 34
0.0
100
AcDbRotatedDimension
1001
ACAD
1000
DSTYLE
1002
{
1070
     6
1000
_EX_BCIR
1070
     7
1000
_EX_NORM
1070
    41
1040
1.0
1070
    42
1040
1.0
1070
    44
1040
2.0
1070
    73
1070
     0
1070
    74
1070
     0
1070
    75
1070
     1
1070
    76
1070
     0
1070
    77
1070
     1
1070
    78
1070
     8
1070
   140
1040
8.0
1070
   147
1040
2.0
1070
   173
1070
     1
1070
   176
1070
     3
1070
   177
1070
     3
1070
   178
1070
     2
1070
   271
1070
     2
1070
   279
1070
     2
1070
   280
1070
     0
1070
   287
1070
     5
1070
   340
1005
3EB
1002
}
  0
DIMENSION
  5
442
100
AcDbEntity
  8
LAY-2
  6
CONTINUOUS
 62
     3
100
AcDbDimension
  2
*D21
 10
351.2
 20
417.776049
 30
0.0
 11
345.2
 21
404.426049
 31
0.0
 70
   160
  1
27
  3
STANDARD
100
AcDbAlignedDimension
 13
351.2
 23
391.076049
 33
0.0
 14
320.010331
 24
417.776049
 34
0.0
 50
90.0
100
AcDbRotatedDimension
1001
ACAD
1000
DSTYLE
1002
{
1070
     6
1000
_EX_NORM
1070
     7
1000
_EX_NORM
1070
    41
1040
6.0
1070
    42
1040
1.0
1070
    44
1040
2.0
1070
    73
1070
     0
1070
    74
1070
     0
1070
    75
1070
     1
1070
    76
1070
     0
1070
    77
1070
     1
1070
    78
1070
     8
1070
   140
1040
8.0
1070
   147
1040
2.0
1070
   173
1070
     1
1070
   176
1070
     3
1070
   177
1070
     3
1070
   178
1070
     2
1070
   271
1070
     2
1070
   279
1070
     2
1070
   280
1070
     0
1070
   287
1070
     5
1070
   340
1005
3EB
1002
}
  0
LEADER
  5
443
100
AcDbEntity
  8
LAY-2
  6
CONTINUOUS
 62
     3
100
AcDbLeader
  3
STANDARD
 73
     3
 74
     1
 75
     0
 40
0.0
 76
     2
 10
129.631359
 20
378.443653
 30
0.0
 10
159.178542
 20
401.902326
 30
0.0
 77
     3
1001
ACAD
1000
DSTYLE
1002
{
1070
    41
1040
6.0
1070
     5
1000
_EX_NORM
1070
     6
1000
_EX_NORM
1070
     7
1000
_EX_NORM
1070
   341
1005
27
1002
}
  0
LEADER
  5
444
100
AcDbEntity
  8
LAY-2
  6
CONTINUOUS
 62
     3
100
AcDbLeader
  3
STANDARD
 73
     3
 74
     1
 75
     0
 40
0.0
 76
     2
 10
244.3
 20
357.426049
 30
0.0
 10
265.558698
 20
376.45147
 30
0.0
 77
     3
1001
ACAD
1000
DSTYLE
1002
{
1070
    41
1040
6.0
1070
     5
1000
_EX_NORM
1070
     6
1000
_EX_NORM
1070
     7
1000
_EX_NORM
1070
   341
1005
27
1002
}
  0
LEADER
  5
445
100
AcDbEntity
  8
LAY-2
  6
CONTINUOUS
 62
     3
100
AcDbLeader
  3
STANDARD
 73
     3
 74
     1
 75
     0
 40
0.0
 76
     2
 10
121.510331
 20
403.3
 30
0.0
 10
158.646558
 20
427.63875
 30
0.0
 77
     3
1001
ACAD
1000
DSTYLE
1002
{
1070
    41
1040
6.0
1070
     5
1000
_EX_NORM
1070
     6
1000
_EX_NORM
1070
     7
1000
_EX_NORM
1070
   341
1005
27
1002
}
  0
LEADER
  5
446
100
AcDbEntity
  8
LAY-2
  6
CONTINUOUS
 62
     3
100
AcDbLeader
  3
STANDARD
 73
     3
 74
     1
 75
     0
 40
0.0
 76
     2
 10
318.510331
 20
402.6
 30
0.0
 10
281.315051
 20
427.549688
 30
0.0
 77
     3
1001
ACAD
1000
DSTYLE
1002
{
1070
    41
1040
6.0
1070
     5
1000
_EX_NORM
1070
     6
1000
_EX_NORM
1070
     7
1000
_EX_NORM
1070
   341
1005
27
1002
}
  0
LEADER
  5
447
100
AcDbEntity
  8
LAY-2
  6
CONTINUOUS
 62
     3
100
AcDbLeader
  3
STANDARD
 73
     3
 74
     1
 75
     0
 40
0.0
 76
     2
 10
310.389302
 20
378.443653
 30
0.0
 10
280.842119
 20
401.902326
 30
0.0
 77
     3
1001
ACAD
1000
DSTYLE
1002
{
1070
    41
1040
6.0
1070
     5
1000
_EX_NORM
1070
     6
1000
_EX_NORM
1070
     7
1000
_EX_NORM
1070
   341
1005
27
1002
}
  0
LINE
  5
448
100
AcDbEntity
  8
LAY-2
  6
CONTINUOUS
 62
     6
100
AcDbLine
 10
376.0
 20
74.0
 30
0.0
 11
376.0
 21
104.0
 31
0.0
  0
LINE
  5
449
100
AcDbEntity
  8
LAY-2
  6
CONTINUOUS
 62
     6
100
AcDbLine
 10
346.0
 20
74.0
 30
0.0
 11
346.0
 21
104.0
 31
0.0
  0
LINE
  5
44A
100
AcDbEntity
  8
LAY-2
  6
CONTINUOUS
 62
     6
100
AcDbLine
 10
286.0
 20
74.0
 30
0.0
 11
286.0
 21
104.0
 31
0.0
  0
LINE
  5
44B
100
AcDbEntity
  8
LAY-2
  6
CONTINUOUS
 62
     6
100
AcDbLine
 10
376.0
 20
94.0
 30
0.0
 11
286.0
 21
94.0
 31
0.0
  0
LINE
  5
44C
100
AcDbEntity
  8
LAY-2
  6
CONTINUOUS
 62
     6
100
AcDbLine
 10
376.0
 20
104.0
 30
0.0
 11
286.0
 21
104.0
 31
0.0
  0
LINE
  5
44D
100
AcDbEntity
  8
LAY-2
  6
CONTINUOUS
 62
     6
100
AcDbLine
 10
376.0
 20
84.0
 30
0.0
 11
286.0
 21
84.0
 31
0.0
  0
LINE
  5
44E
100
AcDbEntity
  8
LAY-2
  6
CONTINUOUS
 62
     6
100
AcDbLine
 10
376.0
 20
74.0
 30
0.0
 11
286.0
 21
74.0
 31
0.0
  0
TEXT
  5
44F
100
AcDbEntity
  8
LAY-2
  6
CONTINUOUS
 62
     2
100
AcDbText
 10
159.939263
 20
401.049224
 30
0.0
 40
14.142136
  1
１
 41
0.84
  7
EXCADSTD
 72
     5
 11
171.252971
 21
401.049224
 31
0.0
100
AcDbText
  0
TEXT
  5
450
100
AcDbEntity
  8
LAY-2
  6
CONTINUOUS
 62
     2
100
AcDbText
 10
265.939263
 20
401.049224
 30
0.0
 40
14.142136
  1
１
 41
0.84
  7
EXCADSTD
 72
     5
 11
277.252971
 21
401.049224
 31
0.0
100
AcDbText
  0
TEXT
  5
451
100
AcDbEntity
  8
LAY-2
  6
CONTINUOUS
 62
     2
100
AcDbText
 10
265.939263
 20
426.049224
 30
0.0
 40
14.142136
  1
３
 41
0.84
  7
EXCADSTD
 72
     5
 11
277.252971
 21
426.049224
 31
0.0
100
AcDbText
  0
TEXT
  5
452
100
AcDbEntity
  8
LAY-2
  6
CONTINUOUS
 62
     2
100
AcDbText
 10
159.93927
 20
426.049231
 30
0.0
 40
14.14212
  1
３
 41
0.84
  7
EXCADSTD
 72
     5
 11
171.252967
 21
426.049231
 31
0.0
100
AcDbText
  0
TEXT
  5
453
100
AcDbEntity
  8
LAY-2
  6
CONTINUOUS
 62
     2
100
AcDbText
 10
265.939263
 20
376.049224
 30
0.0
 40
14.142136
  1
２
 41
0.84
  7
EXCADSTD
 72
     5
 11
277.252971
 21
376.049224
 31
0.0
100
AcDbText
  0
ARC
  5
454
100
AcDbEntity
  8
LAY-2
  6
CONTINUOUS
 62
     3
100
AcDbCircle
 10
226.353312
 20
347.901049
 30
0.0
 40
8.0
100
AcDbArc
 50
156.617036
 51
203.382964
  0
ARC
  5
455
100
AcDbEntity
  8
LAY-2
  6
CONTINUOUS
 62
     3
100
AcDbCircle
 10
211.667349
 20
354.251049
 30
0.0
 40
8.0
100
AcDbArc
 50
336.617036
 51
23.382964
  0
ARC
  5
456
100
AcDbEntity
  8
LAY-2
  6
CONTINUOUS
 62
     3
100
AcDbCircle
 10
228.353312
 20
347.901049
 30
0.0
 40
8.0
100
AcDbArc
 50
156.617036
 51
203.382964
  0
ARC
  5
457
100
AcDbEntity
  8
LAY-2
  6
CONTINUOUS
 62
     3
100
AcDbCircle
 10
213.667349
 20
354.251049
 30
0.0
 40
8.0
100
AcDbArc
 50
336.617036
 51
23.382964
  0
ARC
  5
458
100
AcDbEntity
  8
LAY-2
  6
CONTINUOUS
 62
     3
100
AcDbCircle
 10
226.353312
 20
223.234091
 30
0.0
 40
8.0
100
AcDbArc
 50
156.617036
 51
203.382964
  0
ARC
  5
459
100
AcDbEntity
  8
LAY-2
  6
CONTINUOUS
 62
     3
100
AcDbCircle
 10
211.667349
 20
229.584091
 30
0.0
 40
8.0
100
AcDbArc
 50
336.617036
 51
23.382964
  0
ARC
  5
45A
100
AcDbEntity
  8
LAY-2
  6
CONTINUOUS
 62
     3
100
AcDbCircle
 10
228.353312
 20
223.234091
 30
0.0
 40
8.0
100
AcDbArc
 50
156.617036
 51
203.382964
  0
ARC
  5
45B
100
AcDbEntity
  8
LAY-2
  6
CONTINUOUS
 62
     3
100
AcDbCircle
 10
213.667349
 20
229.584091
 30
0.0
 40
8.0
100
AcDbArc
 50
336.617036
 51
23.382964
  0
LINE
  5
45C
100
AcDbEntity
  8
LAY-2
  6
CONTINUOUS
 62
     3
100
AcDbLine
 10
322.060331
 20
243.909091
 30
0.0
 11
322.060331
 21
244.909091
 31
0.0
  0
LINE
  5
45D
100
AcDbEntity
  8
LAY-2
  6
CONTINUOUS
 62
     3
100
AcDbLine
 10
319.510331
 20
246.459091
 30
0.0
 11
320.510331
 21
246.459091
 31
0.0
  0
LINE
  5
45E
100
AcDbEntity
  8
LAY-2
  6
CONTINUOUS
 62
     3
100
AcDbLine
 10
319.510331
 20
242.359091
 30
0.0
 11
320.510331
 21
242.359091
 31
0.0
  0
LINE
  5
45F
100
AcDbEntity
  8
LAY-2
  6
CONTINUOUS
 62
     3
100
AcDbLine
 10
317.960331
 20
244.909091
 30
0.0
 11
319.010331
 21
244.909091
 31
0.0
  0
LINE
  5
460
100
AcDbEntity
  8
LAY-2
  6
CONTINUOUS
 62
     3
100
AcDbLine
 10
321.010331
 20
244.909091
 30
0.0
 11
322.060331
 21
244.909091
 31
0.0
  0
LINE
  5
461
100
AcDbEntity
  8
LAY-2
  6
CONTINUOUS
 62
     3
100
AcDbLine
 10
319.510331
 20
246.459091
 30
0.0
 11
319.510331
 21
245.409091
 31
0.0
  0
LINE
  5
462
100
AcDbEntity
  8
LAY-2
  6
CONTINUOUS
 62
     3
100
AcDbLine
 10
319.510331
 20
243.409091
 30
0.0
 11
319.510331
 21
242.359091
 31
0.0
  0
LINE
  5
463
100
AcDbEntity
  8
LAY-2
  6
CONTINUOUS
 62
     3
100
AcDbLine
 10
317.960331
 20
243.909091
 30
0.0
 11
319.010331
 21
243.909091
 31
0.0
  0
LINE
  5
464
100
AcDbEntity
  8
LAY-2
  6
CONTINUOUS
 62
     3
100
AcDbLine
 10
321.010331
 20
243.909091
 30
0.0
 11
322.060331
 21
243.909091
 31
0.0
  0
LINE
  5
465
100
AcDbEntity
  8
LAY-2
  6
CONTINUOUS
 62
     3
100
AcDbLine
 10
320.510331
 20
246.459091
 30
0.0
 11
320.510331
 21
245.409091
 31
0.0
  0
LINE
  5
466
100
AcDbEntity
  8
LAY-2
  6
CONTINUOUS
 62
     3
100
AcDbLine
 10
320.510331
 20
243.409091
 30
0.0
 11
320.510331
 21
242.359091
 31
0.0
  0
ARC
  5
467
100
AcDbEntity
  8
LAY-2
  6
CONTINUOUS
 62
     3
100
AcDbCircle
 10
319.010331
 20
245.409091
 30
0.0
 40
0.5
100
AcDbArc
 50
270.0
 51
0.0
  0
ARC
  5
468
100
AcDbEntity
  8
LAY-2
  6
CONTINUOUS
 62
     3
100
AcDbCircle
 10
319.010331
 20
243.409091
 30
0.0
 40
0.5
100
AcDbArc
 50
0.0
 51
90.0
  0
ARC
  5
469
100
AcDbEntity
  8
LAY-2
  6
CONTINUOUS
 62
     3
100
AcDbCircle
 10
321.010331
 20
243.409091
 30
0.0
 40
0.5
100
AcDbArc
 50
90.0
 51
180.0
  0
ARC
  5
46A
100
AcDbEntity
  8
LAY-2
  6
CONTINUOUS
 62
     3
100
AcDbCircle
 10
321.010331
 20
245.409091
 30
0.0
 40
0.5
100
AcDbArc
 50
180.0
 51
270.0
  0
LINE
  5
46B
100
AcDbEntity
  8
LAY-2
  6
CONTINUOUS
 62
     3
100
AcDbLine
 10
317.960331
 20
243.909091
 30
0.0
 11
317.960331
 21
244.909091
 31
0.0
  0
CIRCLE
  5
46C
100
AcDbEntity
  8
LAY-2
  6
CONTINUOUS
 62
     3
100
AcDbCircle
 10
320.010331
 20
244.409091
 30
0.0
 40
3.5
  0
ARC
  5
46D
100
AcDbEntity
  8
LAY-2
  6
CONTINUOUS
 62
     3
100
AcDbCircle
 10
319.010331
 20
207.409091
 30
0.0
 40
0.5
100
AcDbArc
 50
0.0
 51
90.0
  0
ARC
  5
46E
100
AcDbEntity
  8
LAY-2
  6
CONTINUOUS
 62
     3
100
AcDbCircle
 10
319.010331
 20
209.409091
 30
0.0
 40
0.5
100
AcDbArc
 50
270.0
 51
0.0
  0
ARC
  5
46F
100
AcDbEntity
  8
LAY-2
  6
CONTINUOUS
 62
     3
100
AcDbCircle
 10
321.010331
 20
209.409091
 30
0.0
 40
0.5
100
AcDbArc
 50
180.0
 51
270.0
  0
ARC
  5
470
100
AcDbEntity
  8
LAY-2
  6
CONTINUOUS
 62
     3
100
AcDbCircle
 10
321.010331
 20
207.409091
 30
0.0
 40
0.5
100
AcDbArc
 50
90.0
 51
180.0
  0
LINE
  5
471
100
AcDbEntity
  8
LAY-2
  6
CONTINUOUS
 62
     3
100
AcDbLine
 10
319.510331
 20
206.359091
 30
0.0
 11
320.510331
 21
206.359091
 31
0.0
  0
LINE
  5
472
100
AcDbEntity
  8
LAY-2
  6
CONTINUOUS
 62
     3
100
AcDbLine
 10
319.510331
 20
206.359091
 30
0.0
 11
319.510331
 21
207.409091
 31
0.0
  0
LINE
  5
473
100
AcDbEntity
  8
LAY-2
  6
CONTINUOUS
 62
     3
100
AcDbLine
 10
320.510331
 20
206.359091
 30
0.0
 11
320.510331
 21
207.409091
 31
0.0
  0
LINE
  5
474
100
AcDbEntity
  8
LAY-2
  6
CONTINUOUS
 62
     3
100
AcDbLine
 10
319.510331
 20
210.459091
 30
0.0
 11
320.510331
 21
210.459091
 31
0.0
  0
LINE
  5
475
100
AcDbEntity
  8
LAY-2
  6
CONTINUOUS
 62
     3
100
AcDbLine
 10
319.510331
 20
209.409091
 30
0.0
 11
319.510331
 21
210.459091
 31
0.0
  0
LINE
  5
476
100
AcDbEntity
  8
LAY-2
  6
CONTINUOUS
 62
     3
100
AcDbLine
 10
320.510331
 20
209.409091
 30
0.0
 11
320.510331
 21
210.459091
 31
0.0
  0
LINE
  5
477
100
AcDbEntity
  8
LAY-2
  6
CONTINUOUS
 62
     3
100
AcDbLine
 10
322.060331
 20
208.909091
 30
0.0
 11
322.060331
 21
207.909091
 31
0.0
  0
LINE
  5
478
100
AcDbEntity
  8
LAY-2
  6
CONTINUOUS
 62
     3
100
AcDbLine
 10
321.010331
 20
207.909091
 30
0.0
 11
322.060331
 21
207.909091
 31
0.0
  0
LINE
  5
479
100
AcDbEntity
  8
LAY-2
  6
CONTINUOUS
 62
     3
100
AcDbLine
 10
321.010331
 20
208.909091
 30
0.0
 11
322.060331
 21
208.909091
 31
0.0
  0
LINE
  5
47A
100
AcDbEntity
  8
LAY-2
  6
CONTINUOUS
 62
     3
100
AcDbLine
 10
317.960331
 20
208.909091
 30
0.0
 11
317.960331
 21
207.909091
 31
0.0
  0
LINE
  5
47B
100
AcDbEntity
  8
LAY-2
  6
CONTINUOUS
 62
     3
100
AcDbLine
 10
317.960331
 20
207.909091
 30
0.0
 11
319.010331
 21
207.909091
 31
0.0
  0
LINE
  5
47C
100
AcDbEntity
  8
LAY-2
  6
CONTINUOUS
 62
     3
100
AcDbLine
 10
317.960331
 20
208.909091
 30
0.0
 11
319.010331
 21
208.909091
 31
0.0
  0
CIRCLE
  5
47D
100
AcDbEntity
  8
LAY-2
  6
CONTINUOUS
 62
     3
100
AcDbCircle
 10
320.010331
 20
208.409091
 30
0.0
 40
3.5
  0
ARC
  5
47E
100
AcDbEntity
  8
LAY-2
  6
CONTINUOUS
 62
     3
100
AcDbCircle
 10
121.010331
 20
245.409091
 30
0.0
 40
0.5
100
AcDbArc
 50
180.0
 51
270.0
  0
ARC
  5
47F
100
AcDbEntity
  8
LAY-2
  6
CONTINUOUS
 62
     3
100
AcDbCircle
 10
121.010331
 20
243.409091
 30
0.0
 40
0.5
100
AcDbArc
 50
90.0
 51
180.0
  0
ARC
  5
480
100
AcDbEntity
  8
LAY-2
  6
CONTINUOUS
 62
     3
100
AcDbCircle
 10
119.010331
 20
243.409091
 30
0.0
 40
0.5
100
AcDbArc
 50
0.0
 51
90.0
  0
ARC
  5
481
100
AcDbEntity
  8
LAY-2
  6
CONTINUOUS
 62
     3
100
AcDbCircle
 10
119.010331
 20
245.409091
 30
0.0
 40
0.5
100
AcDbArc
 50
270.0
 51
0.0
  0
LINE
  5
482
100
AcDbEntity
  8
LAY-2
  6
CONTINUOUS
 62
     3
100
AcDbLine
 10
120.510331
 20
246.459091
 30
0.0
 11
119.510331
 21
246.459091
 31
0.0
  0
LINE
  5
483
100
AcDbEntity
  8
LAY-2
  6
CONTINUOUS
 62
     3
100
AcDbLine
 10
120.510331
 20
246.459091
 30
0.0
 11
120.510331
 21
245.409091
 31
0.0
  0
LINE
  5
484
100
AcDbEntity
  8
LAY-2
  6
CONTINUOUS
 62
     3
100
AcDbLine
 10
119.510331
 20
246.459091
 30
0.0
 11
119.510331
 21
245.409091
 31
0.0
  0
LINE
  5
485
100
AcDbEntity
  8
LAY-2
  6
CONTINUOUS
 62
     3
100
AcDbLine
 10
120.510331
 20
242.359091
 30
0.0
 11
119.510331
 21
242.359091
 31
0.0
  0
LINE
  5
486
100
AcDbEntity
  8
LAY-2
  6
CONTINUOUS
 62
     3
100
AcDbLine
 10
120.510331
 20
243.409091
 30
0.0
 11
120.510331
 21
242.359091
 31
0.0
  0
LINE
  5
487
100
AcDbEntity
  8
LAY-2
  6
CONTINUOUS
 62
     3
100
AcDbLine
 10
119.510331
 20
243.409091
 30
0.0
 11
119.510331
 21
242.359091
 31
0.0
  0
LINE
  5
488
100
AcDbEntity
  8
LAY-2
  6
CONTINUOUS
 62
     3
100
AcDbLine
 10
117.960331
 20
243.909091
 30
0.0
 11
117.960331
 21
244.909091
 31
0.0
  0
LINE
  5
489
100
AcDbEntity
  8
LAY-2
  6
CONTINUOUS
 62
     3
100
AcDbLine
 10
119.010331
 20
244.909091
 30
0.0
 11
117.960331
 21
244.909091
 31
0.0
  0
LINE
  5
48A
100
AcDbEntity
  8
LAY-2
  6
CONTINUOUS
 62
     3
100
AcDbLine
 10
119.010331
 20
243.909091
 30
0.0
 11
117.960331
 21
243.909091
 31
0.0
  0
LINE
  5
48B
100
AcDbEntity
  8
LAY-2
  6
CONTINUOUS
 62
     3
100
AcDbLine
 10
122.060331
 20
243.909091
 30
0.0
 11
122.060331
 21
244.909091
 31
0.0
  0
LINE
  5
48C
100
AcDbEntity
  8
LAY-2
  6
CONTINUOUS
 62
     3
100
AcDbLine
 10
122.060331
 20
244.909091
 30
0.0
 11
121.010331
 21
244.909091
 31
0.0
  0
LINE
  5
48D
100
AcDbEntity
  8
LAY-2
  6
CONTINUOUS
 62
     3
100
AcDbLine
 10
122.060331
 20
243.909091
 30
0.0
 11
121.010331
 21
243.909091
 31
0.0
  0
CIRCLE
  5
48E
100
AcDbEntity
  8
LAY-2
  6
CONTINUOUS
 62
     3
100
AcDbCircle
 10
120.010331
 20
244.409091
 30
0.0
 40
3.5
  0
ARC
  5
48F
100
AcDbEntity
  8
LAY-2
  6
CONTINUOUS
 62
     3
100
AcDbCircle
 10
121.010331
 20
207.409091
 30
0.0
 40
0.5
100
AcDbArc
 50
90.0
 51
180.0
  0
ARC
  5
490
100
AcDbEntity
  8
LAY-2
  6
CONTINUOUS
 62
     3
100
AcDbCircle
 10
121.010331
 20
209.409091
 30
0.0
 40
0.5
100
AcDbArc
 50
180.0
 51
270.0
  0
ARC
  5
491
100
AcDbEntity
  8
LAY-2
  6
CONTINUOUS
 62
     3
100
AcDbCircle
 10
119.010331
 20
209.409091
 30
0.0
 40
0.5
100
AcDbArc
 50
270.0
 51
0.0
  0
ARC
  5
492
100
AcDbEntity
  8
LAY-2
  6
CONTINUOUS
 62
     3
100
AcDbCircle
 10
119.010331
 20
207.409091
 30
0.0
 40
0.5
100
AcDbArc
 50
0.0
 51
90.0
  0
LINE
  5
493
100
AcDbEntity
  8
LAY-2
  6
CONTINUOUS
 62
     3
100
AcDbLine
 10
120.510331
 20
206.359091
 30
0.0
 11
119.510331
 21
206.359091
 31
0.0
  0
LINE
  5
494
100
AcDbEntity
  8
LAY-2
  6
CONTINUOUS
 62
     3
100
AcDbLine
 10
120.510331
 20
206.359091
 30
0.0
 11
120.510331
 21
207.409091
 31
0.0
  0
LINE
  5
495
100
AcDbEntity
  8
LAY-2
  6
CONTINUOUS
 62
     3
100
AcDbLine
 10
119.510331
 20
206.359091
 30
0.0
 11
119.510331
 21
207.409091
 31
0.0
  0
LINE
  5
496
100
AcDbEntity
  8
LAY-2
  6
CONTINUOUS
 62
     3
100
AcDbLine
 10
120.510331
 20
210.459091
 30
0.0
 11
119.510331
 21
210.459091
 31
0.0
  0
LINE
  5
497
100
AcDbEntity
  8
LAY-2
  6
CONTINUOUS
 62
     3
100
AcDbLine
 10
120.510331
 20
209.409091
 30
0.0
 11
120.510331
 21
210.459091
 31
0.0
  0
LINE
  5
498
100
AcDbEntity
  8
LAY-2
  6
CONTINUOUS
 62
     3
100
AcDbLine
 10
119.510331
 20
209.409091
 30
0.0
 11
119.510331
 21
210.459091
 31
0.0
  0
LINE
  5
499
100
AcDbEntity
  8
LAY-2
  6
CONTINUOUS
 62
     3
100
AcDbLine
 10
117.960331
 20
208.909091
 30
0.0
 11
117.960331
 21
207.909091
 31
0.0
  0
LINE
  5
49A
100
AcDbEntity
  8
LAY-2
  6
CONTINUOUS
 62
     3
100
AcDbLine
 10
119.010331
 20
207.909091
 30
0.0
 11
117.960331
 21
207.909091
 31
0.0
  0
LINE
  5
49B
100
AcDbEntity
  8
LAY-2
  6
CONTINUOUS
 62
     3
100
AcDbLine
 10
119.010331
 20
208.909091
 30
0.0
 11
117.960331
 21
208.909091
 31
0.0
  0
LINE
  5
49C
100
AcDbEntity
  8
LAY-2
  6
CONTINUOUS
 62
     3
100
AcDbLine
 10
122.060331
 20
208.909091
 30
0.0
 11
122.060331
 21
207.909091
 31
0.0
  0
LINE
  5
49D
100
AcDbEntity
  8
LAY-2
  6
CONTINUOUS
 62
     3
100
AcDbLine
 10
122.060331
 20
207.909091
 30
0.0
 11
121.010331
 21
207.909091
 31
0.0
  0
LINE
  5
49E
100
AcDbEntity
  8
LAY-2
  6
CONTINUOUS
 62
     3
100
AcDbLine
 10
122.060331
 20
208.909091
 30
0.0
 11
121.010331
 21
208.909091
 31
0.0
  0
CIRCLE
  5
49F
100
AcDbEntity
  8
LAY-2
  6
CONTINUOUS
 62
     3
100
AcDbCircle
 10
120.010331
 20
208.409091
 30
0.0
 40
3.5
  0
ELLIPSE
  5
4A0
100
AcDbEntity
  8
LAY-2
  6
CONTINUOUS
 62
     3
100
AcDbEllipse
 10
320.010331
 20
384.516215
 30
0.0
 11
4.0
 21
0.0
 31
0.0
210
0.0
220
0.0
230
1.0
 40
0.221564
 41
0.0
 42
3.1415926535897931
  0
ELLIPSE
  5
4A1
100
AcDbEntity
  8
LAY-2
  6
CONTINUOUS
 62
     3
100
AcDbEllipse
 10
320.010331
 20
384.516215
 30
0.0
 11
4.0
 21
0.0
 31
0.0
210
0.0
220
0.0
230
1.0
 40
0.447357
 41
3.1415926535897931
 42
0.0
  0
LINE
  5
4A2
100
AcDbEntity
  8
LAY-2
  6
CONTINUOUS
 62
     3
100
AcDbLine
 10
319.510331
 20
385.176919
 30
0.0
 11
319.510331
 21
385.395519
 31
0.0
  0
LINE
  5
4A3
100
AcDbEntity
  8
LAY-2
  6
CONTINUOUS
 62
     3
100
AcDbLine
 10
320.510331
 20
385.176919
 30
0.0
 11
320.510331
 21
385.395519
 31
0.0
  0
ARC
  5
4A4
100
AcDbEntity
  8
LAY-2
  6
CONTINUOUS
 62
     3
100
AcDbCircle
 10
320.010331
 20
391.156049
 30
0.0
 40
6.0
100
AcDbArc
 50
255.773578
 51
265.219808
  0
ARC
  5
4A5
100
AcDbEntity
  8
LAY-2
  6
CONTINUOUS
 62
     3
100
AcDbCircle
 10
320.010331
 20
391.156049
 30
0.0
 40
6.0
100
AcDbArc
 50
274.780192
 51
284.226422
  0
ELLIPSE
  5
4A6
100
AcDbEntity
  8
LAY-2
  6
CONTINUOUS
 62
     3
100
AcDbEllipse
 10
120.010331
 20
384.516215
 30
0.0
 11
-4.0
 21
0.0000000000000005
 31
0.0
210
0.0
220
0.0
230
1.0
 40
0.221564
 41
3.1415926535897931
 42
0.0
  0
ELLIPSE
  5
4A7
100
AcDbEntity
  8
LAY-2
  6
CONTINUOUS
 62
     3
100
AcDbEllipse
 10
120.010331
 20
384.516215
 30
0.0
 11
-4.0
 21
0.0000000000000005
 31
0.0
210
0.0
220
0.0
230
1.0
 40
0.447357
 41
0.0
 42
3.1415926535897931
  0
ARC
  5
4A8
100
AcDbEntity
  8
LAY-2
  6
CONTINUOUS
 62
     3
100
AcDbCircle
 10
120.010331
 20
391.156049
 30
0.0
 40
6.0
100
AcDbArc
 50
274.780192
 51
284.226422
  0
ARC
  5
4A9
100
AcDbEntity
  8
LAY-2
  6
CONTINUOUS
 62
     3
100
AcDbCircle
 10
120.010331
 20
391.156049
 30
0.0
 40
6.0
100
AcDbArc
 50
255.773578
 51
265.219808
  0
LINE
  5
4AA
100
AcDbEntity
  8
LAY-2
  6
CONTINUOUS
 62
     3
100
AcDbLine
 10
119.510331
 20
385.176919
 30
0.0
 11
119.510331
 21
385.395519
 31
0.0
  0
LINE
  5
4AB
100
AcDbEntity
  8
LAY-2
  6
CONTINUOUS
 62
     3
100
AcDbLine
 10
120.510331
 20
385.176919
 30
0.0
 11
120.510331
 21
385.395519
 31
0.0
  0
LINE
  5
4AC
100
AcDbEntity
  8
LAY-2
  6
CONTINUOUS
 62
     3
100
AcDbLine
 10
118.010331
 20
400.605371
 30
0.0
 11
122.010331
 21
401.346727
 31
0.0
  0
LINE
  5
4AD
100
AcDbEntity
  8
LAY-2
  6
CONTINUOUS
 62
     3
100
AcDbLine
 10
118.010331
 20
402.005371
 30
0.0
 11
122.010331
 21
402.746727
 31
0.0
  0
LINE
  5
4AE
100
AcDbEntity
  8
LAY-2
  6
CONTINUOUS
 62
     3
100
AcDbLine
 10
118.010331
 20
403.405371
 30
0.0
 11
122.010331
 21
404.146727
 31
0.0
  0
LINE
  5
4AF
100
AcDbEntity
  8
LAY-2
  6
CONTINUOUS
 62
     3
100
AcDbLine
 10
118.010331
 20
404.805371
 30
0.0
 11
122.010331
 21
405.546727
 31
0.0
  0
LINE
  5
4B0
100
AcDbEntity
  8
LAY-2
  6
CONTINUOUS
 62
     3
100
AcDbLine
 10
118.010331
 20
406.205371
 30
0.0
 11
122.010331
 21
406.946727
 31
0.0
  0
LINE
  5
4B1
100
AcDbEntity
  8
LAY-2
  6
CONTINUOUS
 62
     3
100
AcDbLine
 10
118.010331
 20
407.605371
 30
0.0
 11
122.010331
 21
408.346727
 31
0.0
  0
LINE
  5
4B2
100
AcDbEntity
  8
LAY-2
  6
CONTINUOUS
 62
     3
100
AcDbLine
 10
118.010331
 20
409.005371
 30
0.0
 11
122.010331
 21
409.746727
 31
0.0
  0
LINE
  5
4B3
100
AcDbEntity
  8
LAY-2
  6
CONTINUOUS
 62
     3
100
AcDbLine
 10
118.010331
 20
410.405371
 30
0.0
 11
122.010331
 21
411.146727
 31
0.0
  0
LINE
  5
4B4
100
AcDbEntity
  8
LAY-2
  6
CONTINUOUS
 62
     3
100
AcDbLine
 10
118.010331
 20
411.805371
 30
0.0
 11
122.010331
 21
412.546727
 31
0.0
  0
LINE
  5
4B5
100
AcDbEntity
  8
LAY-2
  6
CONTINUOUS
 62
     3
100
AcDbLine
 10
118.010331
 20
413.205371
 30
0.0
 11
122.010331
 21
413.946727
 31
0.0
  0
LINE
  5
4B6
100
AcDbEntity
  8
LAY-2
  6
CONTINUOUS
 62
     3
100
AcDbLine
 10
118.242354
 20
414.648374
 30
0.0
 11
121.531192
 21
415.257924
 31
0.0
  0
LINE
  5
4B7
100
AcDbEntity
  8
LAY-2
  6
CONTINUOUS
 62
     3
100
AcDbLine
 10
118.856032
 20
416.162112
 30
0.0
 11
121.00329
 21
416.560083
 31
0.0
  0
LINE
  5
4B8
100
AcDbEntity
  8
LAY-2
  6
CONTINUOUS
 62
     3
100
AcDbLine
 10
118.010331
 20
392.205371
 30
0.0
 11
122.010331
 21
392.946727
 31
0.0
  0
LINE
  5
4B9
100
AcDbEntity
  8
LAY-2
  6
CONTINUOUS
 62
     3
100
AcDbLine
 10
118.010331
 20
393.605371
 30
0.0
 11
122.010331
 21
394.346727
 31
0.0
  0
LINE
  5
4BA
100
AcDbEntity
  8
LAY-2
  6
CONTINUOUS
 62
     3
100
AcDbLine
 10
118.010331
 20
395.005371
 30
0.0
 11
122.010331
 21
395.746727
 31
0.0
  0
LINE
  5
4BB
100
AcDbEntity
  8
LAY-2
  6
CONTINUOUS
 62
     3
100
AcDbLine
 10
118.010331
 20
396.405371
 30
0.0
 11
122.010331
 21
397.146727
 31
0.0
  0
LINE
  5
4BC
100
AcDbEntity
  8
LAY-2
  6
CONTINUOUS
 62
     3
100
AcDbLine
 10
118.010331
 20
397.805371
 30
0.0
 11
122.010331
 21
398.546727
 31
0.0
  0
LINE
  5
4BD
100
AcDbEntity
  8
LAY-2
  6
CONTINUOUS
 62
     3
100
AcDbLine
 10
118.010331
 20
399.205371
 30
0.0
 11
122.010331
 21
399.946727
 31
0.0
  0
LINE
  5
4BE
100
AcDbEntity
  8
LAY-2
  6
CONTINUOUS
 62
     3
100
AcDbLine
 10
119.470779
 20
391.076049
 30
0.0
 11
122.010331
 21
391.546727
 31
0.0
  0
LINE
  5
4BF
100
AcDbEntity
  8
LAY-2
  6
CONTINUOUS
 62
     3
100
AcDbLine
 10
318.010331
 20
400.605371
 30
0.0
 11
322.010331
 21
401.346727
 31
0.0
  0
LINE
  5
4C0
100
AcDbEntity
  8
LAY-2
  6
CONTINUOUS
 62
     3
100
AcDbLine
 10
318.010331
 20
402.005371
 30
0.0
 11
322.010331
 21
402.746727
 31
0.0
  0
LINE
  5
4C1
100
AcDbEntity
  8
LAY-2
  6
CONTINUOUS
 62
     3
100
AcDbLine
 10
318.010331
 20
403.405371
 30
0.0
 11
322.010331
 21
404.146727
 31
0.0
  0
LINE
  5
4C2
100
AcDbEntity
  8
LAY-2
  6
CONTINUOUS
 62
     3
100
AcDbLine
 10
318.010331
 20
404.805371
 30
0.0
 11
322.010331
 21
405.546727
 31
0.0
  0
LINE
  5
4C3
100
AcDbEntity
  8
LAY-2
  6
CONTINUOUS
 62
     3
100
AcDbLine
 10
318.010331
 20
406.205371
 30
0.0
 11
322.010331
 21
406.946727
 31
0.0
  0
LINE
  5
4C4
100
AcDbEntity
  8
LAY-2
  6
CONTINUOUS
 62
     3
100
AcDbLine
 10
318.010331
 20
407.605371
 30
0.0
 11
322.010331
 21
408.346727
 31
0.0
  0
LINE
  5
4C5
100
AcDbEntity
  8
LAY-2
  6
CONTINUOUS
 62
     3
100
AcDbLine
 10
318.010331
 20
409.005371
 30
0.0
 11
322.010331
 21
409.746727
 31
0.0
  0
LINE
  5
4C6
100
AcDbEntity
  8
LAY-2
  6
CONTINUOUS
 62
     3
100
AcDbLine
 10
318.010331
 20
410.405371
 30
0.0
 11
322.010331
 21
411.146727
 31
0.0
  0
LINE
  5
4C7
100
AcDbEntity
  8
LAY-2
  6
CONTINUOUS
 62
     3
100
AcDbLine
 10
318.010331
 20
392.205371
 30
0.0
 11
322.010331
 21
392.946727
 31
0.0
  0
LINE
  5
4C8
100
AcDbEntity
  8
LAY-2
  6
CONTINUOUS
 62
     3
100
AcDbLine
 10
318.010331
 20
393.605371
 30
0.0
 11
322.010331
 21
394.346727
 31
0.0
  0
LINE
  5
4C9
100
AcDbEntity
  8
LAY-2
  6
CONTINUOUS
 62
     3
100
AcDbLine
 10
318.010331
 20
395.005371
 30
0.0
 11
322.010331
 21
395.746727
 31
0.0
  0
LINE
  5
4CA
100
AcDbEntity
  8
LAY-2
  6
CONTINUOUS
 62
     3
100
AcDbLine
 10
318.010331
 20
396.405371
 30
0.0
 11
322.010331
 21
397.146727
 31
0.0
  0
LINE
  5
4CB
100
AcDbEntity
  8
LAY-2
  6
CONTINUOUS
 62
     3
100
AcDbLine
 10
318.010331
 20
397.805371
 30
0.0
 11
322.010331
 21
398.546727
 31
0.0
  0
LINE
  5
4CC
100
AcDbEntity
  8
LAY-2
  6
CONTINUOUS
 62
     3
100
AcDbLine
 10
318.010331
 20
399.205371
 30
0.0
 11
322.010331
 21
399.946727
 31
0.0
  0
LINE
  5
4CD
100
AcDbEntity
  8
LAY-2
  6
CONTINUOUS
 62
     3
100
AcDbLine
 10
319.470779
 20
391.076049
 30
0.0
 11
322.010331
 21
391.546727
 31
0.0
  0
LINE
  5
4CE
100
AcDbEntity
  8
LAY-2
  6
CONTINUOUS
 62
     3
100
AcDbLine
 10
318.010331
 20
411.805371
 30
0.0
 11
322.010331
 21
412.546727
 31
0.0
  0
LINE
  5
4CF
100
AcDbEntity
  8
LAY-2
  6
CONTINUOUS
 62
     3
100
AcDbLine
 10
318.010331
 20
413.205371
 30
0.0
 11
322.010331
 21
413.946727
 31
0.0
  0
LINE
  5
4D0
100
AcDbEntity
  8
LAY-2
  6
CONTINUOUS
 62
     3
100
AcDbLine
 10
318.242354
 20
414.648374
 30
0.0
 11
321.531192
 21
415.257924
 31
0.0
  0
LINE
  5
4D1
100
AcDbEntity
  8
LAY-2
  6
CONTINUOUS
 62
     3
100
AcDbLine
 10
318.856032
 20
416.162112
 30
0.0
 11
321.00329
 21
416.560083
 31
0.0
  0
CIRCLE
  5
4D2
100
AcDbEntity
  8
LAY-2
  6
CONTINUOUS
 62
     3
100
AcDbCircle
 10
167.010331
 20
408.120291
 30
0.0
 40
10.0
  0
CIRCLE
  5
4D3
100
AcDbEntity
  8
LAY-2
  6
CONTINUOUS
 62
     3
100
AcDbCircle
 10
273.010331
 20
408.120291
 30
0.0
 40
10.0
  0
CIRCLE
  5
4D4
100
AcDbEntity
  8
LAY-2
  6
CONTINUOUS
 62
     3
100
AcDbCircle
 10
273.010331
 20
433.120291
 30
0.0
 40
10.0
  0
CIRCLE
  5
4D5
100
AcDbEntity
  8
LAY-2
  6
CONTINUOUS
 62
     3
100
AcDbCircle
 10
167.010331
 20
433.120291
 30
0.0
 40
10.0
  0
CIRCLE
  5
4D6
100
AcDbEntity
  8
LAY-2
  6
CONTINUOUS
 62
     3
100
AcDbCircle
 10
273.010331
 20
383.120291
 30
0.0
 40
10.0
  0
TEXT
  5
4D7
100
AcDbEntity
  8
LAY-2
  6
CONTINUOUS
 62
     2
100
AcDbText
 10
348.0
 20
85.0
 30
0.0
 40
8.0
  1
６００
 41
0.91
  7
EXCADSTD
 72
     5
 11
374.0
 21
85.0
 31
0.0
100
AcDbText
  0
TEXT
  5
4D8
100
AcDbEntity
  8
LAY-2
  6
CONTINUOUS
 62
     2
100
AcDbText
 10
295.0
 20
85.0
 30
0.0
 40
8.0
  1
ＮＡ１９３Ｖ
 41
0.735
  7
EXCADSTD
 72
     5
 11
337.0
 21
85.0
 31
0.0
100
AcDbText
  0
TEXT
  5
4D9
100
AcDbEntity
  8
LAY-2
  6
CONTINUOUS
 62
     2
100
AcDbText
 10
348.0
 20
75.0
 30
0.0
 40
8.0
  1
４５０
 41
0.91
  7
EXCADSTD
 72
     5
 11
374.0
 21
75.0
 31
0.0
100
AcDbText
  0
TEXT
  5
4DA
100
AcDbEntity
  8
LAY-2
  6
CONTINUOUS
 62
     2
100
AcDbText
 10
295.0
 20
75.0
 30
0.0
 40
8.0
  1
ＮＡ１９４Ｖ
 41
0.735
  7
EXCADSTD
 72
     5
 11
337.0
 21
75.0
 31
0.0
100
AcDbText
  0
ENDSEC
  0
SECTION
  2
OBJECTS
  0
DICTIONARY
  5
19
100
AcDbDictionary
  3
ACAD_GROUP
350
1A
  3
ACAD_MLINESTYLE
350
1B
  0
DICTIONARY
  5
1A
102
{ACAD_REACTORS
330
19
102
}
100
AcDbDictionary
  0
DICTIONARY
  5
1B
102
{ACAD_REACTORS
330
19
102
}
100
AcDbDictionary
  3
STANDARD
350
1C
  0
MLINESTYLE
  5
1C
102
{ACAD_REACTORS
330
1B
102
}
100
AcDbMlineStyle
  2
Standard
 70
     0
  3

 62
     0
 51
90.0
 52
90.0
 71
     2
 49
0.5
 62
   256
  6
ByLayer
 49
-0.5
 62
   256
  6
ByLayer
  0
ENDSEC
  0
EOF
