  0
SECTION
  2
HEADER
  9
$ACADVER
  1
AC1014
  9
$ACADMAINTVER
 70
     0
  9
$DWGCODEPAGE
  3
ANSI_932
  9
$INSBASE
 10
0.0
 20
0.0
 30
0.0
  9
$EXTMIN
 10
0.0
 20
11.5
 30
0.0
  9
$EXTMAX
 10
200.0
 20
289.5
 30
0.0
  9
$LIMMIN
 10
0.0
 20
0.0
  9
$LIMMAX
 10
210.0
 20
297.0
  9
$ORTHOMODE
 70
     0
  9
$REGENMODE
 70
     1
  9
$FILLMODE
 70
     1
  9
$QTEXTMODE
 70
     0
  9
$MIRRTEXT
 70
     1
  9
$DRAGMODE
 70
     2
  9
$LTSCALE
 40
1.0
  9
$OSMODE
 70
     0
  9
$ATTMODE
 70
     1
  9
$TEXTSIZE
 40
0.2
  9
$TRACEWID
 40
0.05
  9
$TEXTSTYLE
  7
STANDARD
  9
$CLAYER
  8
LAY-1
  9
$CELTYPE
  6
CONTINUOUS
  9
$CECOLOR
 62
   256
  9
$CELTSCALE
 40
1.0
  9
$DELOBJ
 70
     1
  9
$DISPSILH
 70
     0
  9
$DIMSCALE
 40
1.0
  9
$DIMASZ
 40
0.18
  9
$DIMEXO
 40
0.0625
  9
$DIMDLI
 40
0.38
  9
$DIMRND
 40
0.0
  9
$DIMDLE
 40
0.0
  9
$DIMEXE
 40
0.18
  9
$DIMTP
 40
0.0
  9
$DIMTM
 40
0.0
  9
$DIMTXT
 40
0.18
  9
$DIMCEN
 40
0.09
  9
$DIMTSZ
 40
0.0
  9
$DIMTOL
 70
     0
  9
$DIMLIM
 70
     0
  9
$DIMTIH
 70
     1
  9
$DIMTOH
 70
     1
  9
$DIMSE1
 70
     0
  9
$DIMSE2
 70
     0
  9
$DIMTAD
 70
     0
  9
$DIMZIN
 70
     0
  9
$DIMBLK
  1

  9
$DIMASO
 70
     1
  9
$DIMSHO
 70
     1
  9
$DIMPOST
  1

  9
$DIMAPOST
  1

  9
$DIMALT
 70
     0
  9
$DIMALTD
 70
     2
  9
$DIMALTF
 40
25.4
  9
$DIMLFAC
 40
1.0
  9
$DIMTOFL
 70
     0
  9
$DIMTVP
 40
0.0
  9
$DIMTIX
 70
     0
  9
$DIMSOXD
 70
     0
  9
$DIMSAH
 70
     0
  9
$DIMBLK1
  1

  9
$DIMBLK2
  1

  9
$DIMSTYLE
  2
STANDARD
  9
$DIMCLRD
 70
     0
  9
$DIMCLRE
 70
     0
  9
$DIMCLRT
 70
     0
  9
$DIMTFAC
 40
1.0
  9
$DIMGAP
 40
0.09
  9
$DIMJUST
 70
     0
  9
$DIMSD1
 70
     0
  9
$DIMSD2
 70
     0
  9
$DIMTOLJ
 70
     1
  9
$DIMTZIN
 70
     0
  9
$DIMALTZ
 70
     0
  9
$DIMALTTZ
 70
     0
  9
$DIMFIT
 70
     3
  9
$DIMUPT
 70
     0
  9
$DIMUNIT
 70
     2
  9
$DIMDEC
 70
     4
  9
$DIMTDEC
 70
     4
  9
$DIMALTU
 70
     2
  9
$DIMALTTD
 70
     2
  9
$DIMTXSTY
  7
STANDARD
  9
$DIMAUNIT
 70
     0
  9
$LUNITS
 70
     2
  9
$LUPREC
 70
     4
  9
$SKETCHINC
 40
0.1
  9
$FILLETRAD
 40
0.0
  9
$AUNITS
 70
     0
  9
$AUPREC
 70
     0
  9
$MENU
  1
acad
  9
$ELEVATION
 40
0.0
  9
$PELEVATION
 40
0.0
  9
$THICKNESS
 40
0.0
  9
$LIMCHECK
 70
     0
  9
$BLIPMODE
 70
     1
  9
$CHAMFERA
 40
0.0
  9
$CHAMFERB
 40
0.0
  9
$CHAMFERC
 40
0.0
  9
$CHAMFERD
 40
0.0
  9
$SKPOLY
 70
     0
  9
$TDCREATE
 40
2454533.431612315
  9
$TDUPDATE
 40
2454533.431612315
  9
$TDINDWG
 40
0.0000000000
  9
$TDUSRTIMER
 40
0.0000000000
  9
$USRTIMER
 70
     1
  9
$ANGBASE
 50
0.0
  9
$ANGDIR
 70
     0
  9
$PDMODE
 70
     0
  9
$PDSIZE
 40
0.0
  9
$PLINEWID
 40
0.0
  9
$COORDS
 70
     1
  9
$SPLFRAME
 70
     0
  9
$SPLINETYPE
 70
     6
  9
$SPLINESEGS
 70
     8
  9
$ATTDIA
 70
     0
  9
$ATTREQ
 70
     1
  9
$HANDLING
 70
     1
  9
$HANDSEED
  5
4E4
  9
$SURFTAB1
 70
     6
  9
$SURFTAB2
 70
     6
  9
$SURFTYPE
 70
     6
  9
$SURFU
 70
     6
  9
$SURFV
 70
     6
  9
$UCSNAME
  2

  9
$UCSORG
 10
0.0
 20
0.0
 30
0.0
  9
$UCSXDIR
 10
1.0
 20
0.0
 30
0.0
  9
$UCSYDIR
 10
0.0
 20
1.0
 30
0.0
  9
$PUCSNAME
  2

  9
$PUCSORG
 10
0.0
 20
0.0
 30
0.0
  9
$PUCSXDIR
 10
1.0
 20
0.0
 30
0.0
  9
$PUCSYDIR
 10
0.0
 20
1.0
 30
0.0
  9
$USERI1
 70
     0
  9
$USERI2
 70
     0
  9
$USERI3
 70
     0
  9
$USERI4
 70
     0
  9
$USERI5
 70
     0
  9
$USERR1
 40
0.0
  9
$USERR2
 40
0.0
  9
$USERR3
 40
0.0
  9
$USERR4
 40
0.0
  9
$USERR5
 40
0.0
  9
$WORLDVIEW
 70
     1
  9
$SHADEDGE
 70
     3
  9
$SHADEDIF
 70
    70
  9
$TILEMODE
 70
     1
  9
$MAXACTVP
 70
    16
  9
$PINSBASE
 10
0.0
 20
0.0
 30
0.0
  9
$PLIMCHECK
 70
     0
  9
$PEXTMIN
 10
1.000000E+20
 20
1.000000E+20
 30
1.000000E+20
  9
$PEXTMAX
 10
-1.000000E+20
 20
-1.000000E+20
 30
-1.000000E+20
  9
$PLIMMIN
 10
0.0
 20
0.0
  9
$PLIMMAX
 10
12.0
 20
9.0
  9
$UNITMODE
 70
     0
  9
$VISRETAIN
 70
     0
  9
$PLINEGEN
 70
     1
  9
$PSLTSCALE
 70
     0
  9
$TREEDEPTH
 70
  3020
  9
$PICKSTYLE
 70
     1
  9
$CMLSTYLE
  2
Standard
  9
$CMLJUST
 70
     0
  9
$CMLSCALE
 40
1.0
  9
$PROXYGRAPHICS
 70
     0
  9
$MEASUREMENT
 70
     0
  0
ENDSEC
  0
SECTION
  2
CLASSES
  0
CLASS
  1
LWPOLYLINE
  2
AcDbPolyline
  3
"AutoCAD"
 90
        0
280
     0
281
     1
  0
CLASS
  1
IMAGE
  2
AcDbRasterImage
  3
ISM
 90
      127
280
     0
281
     1
  0
CLASS
  1
OLE2FRAME
  2
AcDbOle2Frame
  3
""
 90
        0
280
     0
281
     1
  0
CLASS
  1
HATCH
  2
AcDbHatch
  3
"ACAD_SEDONA"
 90
        0
280
     0
281
     1
  0
CLASS
  1
DICTIONARYVAR
  2
AcDbDictionaryVar
  3
"AutoCAD"
 90
        0
280
     0
281
     0
  0
CLASS
  1
RASTERVARIABLES
  2
AcDbRasterVariables
  3
ISM
 90
        0
280
     0
281
     0
  0
CLASS
  1
IMAGEDEF
  2
AcDbRasterImageDef
  3
ISM
 90
        0
280
     0
281
     0
  0
CLASS
  1
IMAGEDEF_REACTOR
  2
AcDbRasterImageDefReactor
  3
ISM
 90
        1
280
     0
281
     0
  0
CLASS
  1
IDBUFFER
  2
AcDbIdBuffer
  3
"Acad"
 90
        0
280
     0
281
     0
  0
CLASS
  1
SPATIAL_FILTER
  2
AcDbSpatialFilter
  3
"Acad"
 90
        0
280
     0
281
     0
  0
CLASS
  1
XRECORD
  2
AcDbXrecord
  3
"<Built In>"
 90
        0
280
     0
281
     0
  0
CLASS
  1
SORTENTSTABLE
  2
AcDbSortentsTable
  3
"AutoCAD"
 90
        0
280
     0
281
     0
  0
CLASS
  1
LAYER_INDEX
  2
AcDbLayerIndex
  3
"Acad"
 90
        0
280
     0
281
     0
  0
CLASS
  1
SPATIAL_INDEX
  2
AcDbSpatialIndex
  3
"Acad"
 90
        0
280
     0
281
     0
  0
CLASS
  1
OBJECT_PTR
  2
CAseDLPNTableRecord
  3
"ASE-LPNTableRecord"
 90
        1
280
     0
281
     0
  0
CLASS
  1
LAYOUT
  2
AcDbLayout
  3
"AutoCAD 2000"
 90
        1
280
     0
281
     0
  0
CLASS
  1
PLOTSETTINGS
  2
AcDbPlotSettings
  3
"AutoCAD 2000"
 90
        1
280
     0
281
     0
  0
CLASS
  1
ACDBDICTIONARYWDFLT
  2
AcDbDictionaryWithDefault
  3
"AutoCAD 2000"
 90
        1
280
     0
281
     0
  0
CLASS
  1
ACDBPLACEHOLDER
  2
AcDbPlaceHolder
  3
"AutoCAD 2000"
 90
        1
280
     0
281
     0
  0
CLASS
  1
VBA_PROJECT
  2
AcDbVbaProject
  3
"acadvba"
 90
        1
280
     0
281
     0
  0
CLASS
  1
WIPEOUT
  2
AcDbWipeout
  3
WipeOut|AutoCAD Express Tool|expresstools@autodesk.com
 90
      127
280
     0
281
     1
  0
CLASS
  1
WIPEOUTVARIABLES
  2
AcDbWipeoutVariables
  3
WipeOut|AutoCAD Express Tool|expresstools@autodesk.com
 90
        0
280
     0
281
     0
  0
CLASS
  1
RTEXT
  2
RText
  3
RText|AutoCAD Express Tool|expresstools@autodesk.com
 90
        0
280
     0
281
     1
  0
CLASS
  1
ARCALIGNEDTEXT
  2
AcDbArcAlignedText
  3
ATEXT|AutoCAD Express Tool|expresstools@autodesk.com
 90
        0
280
     0
281
     1
  0
ENDSEC
  0
SECTION
  2
TABLES
  0
TABLE
  2
VPORT
  5
7
100
AcDbSymbolTable
 70
     1
  0
VPORT
  5
15
100
AcDbSymbolTableRecord
100
AcDbViewportTableRecord
  2
*ACTIVE
 70
     0
 10
0.0
 20
0.0
 11
1.0
 21
1.0
 12
250.0
 22
376.25
 13
0.0
 23
0.0
 14
1.0
 24
1.0
 15
0.0
 25
0.0
 16
0.0
 26
0.0
 36
1.0
 17
0.0
 27
0.0
 37
0.0
 40
695.0
 41
1.722533
 42
50.0
 43
0.0
 44
0.0
 50
0.0
 51
0.0
 71
     0
 72
   100
 73
     1
 74
     1
 75
     0
 76
     0
 77
     0
 78
     0
  0
ENDTAB
  0
TABLE
  2
LTYPE
  5
4
100
AcDbSymbolTable
 70
     9
  0
LTYPE
  5
11
100
AcDbSymbolTableRecord
100
AcDbLinetypeTableRecord
  2
BYBLOCK
 70
    64
  3

 72
    65
 73
     0
 40
0.0
  0
LTYPE
  5
12
100
AcDbSymbolTableRecord
100
AcDbLinetypeTableRecord
  2
BYLAYER
 70
    64
  3

 72
    65
 73
     0
 40
0.0
  0
LTYPE
  5
13
100
AcDbSymbolTableRecord
100
AcDbLinetypeTableRecord
  2
CONTINUOUS
 70
    64
  3
実線
 72
    65
 73
     0
 40
0.0
  0
LTYPE
  5
1D
100
AcDbSymbolTableRecord
100
AcDbLinetypeTableRecord
  2
EXLTYPE1
 70
    64
  3
破線
 72
    65
 73
     2
 40
3.0
 49
2.0
 74
     0
 49
-1.0
 74
     0
  0
LTYPE
  5
1E
100
AcDbSymbolTableRecord
100
AcDbLinetypeTableRecord
  2
EXLTYPE2
 70
    64
  3
点線
 72
    65
 73
     2
 40
2.0
 49
1.0
 74
     0
 49
-1.0
 74
     0
  0
LTYPE
  5
1F
100
AcDbSymbolTableRecord
100
AcDbLinetypeTableRecord
  2
EXLTYPE3
 70
    64
  3
一点鎖線
 72
    65
 73
     4
 40
10.0
 49
7.0
 74
     0
 49
-1.0
 74
     0
 49
1.0
 74
     0
 49
-1.0
 74
     0
  0
LTYPE
  5
20
100
AcDbSymbolTableRecord
100
AcDbLinetypeTableRecord
  2
EXLTYPE4
 70
    64
  3
二点鎖線
 72
    65
 73
     6
 40
12.0
 49
7.0
 74
     0
 49
-1.0
 74
     0
 49
1.0
 74
     0
 49
-1.0
 74
     0
 49
1.0
 74
     0
 49
-1.0
 74
     0
  0
LTYPE
  5
21
100
AcDbSymbolTableRecord
100
AcDbLinetypeTableRecord
  2
EXLTYPE5
 70
    64
  3
三点鎖線
 72
    65
 73
     8
 40
37.0
 49
30.0
 74
     0
 49
-1.0
 74
     0
 49
1.0
 74
     0
 49
-1.0
 74
     0
 49
1.0
 74
     0
 49
-1.0
 74
     0
 49
1.0
 74
     0
 49
-1.0
 74
     0
  0
LTYPE
  5
22
100
AcDbSymbolTableRecord
100
AcDbLinetypeTableRecord
  2
EXLTYPE6
 70
    64
  3
四点鎖線
 72
    65
 73
    10
 40
39.0
 49
30.0
 74
     0
 49
-1.0
 74
     0
 49
1.0
 74
     0
 49
-1.0
 74
     0
 49
1.0
 74
     0
 49
-1.0
 74
     0
 49
1.0
 74
     0
 49
-1.0
 74
     0
 49
1.0
 74
     0
 49
-1.0
 74
     0
  0
ENDTAB
  0
TABLE
  2
LAYER
  5
2
100
AcDbSymbolTable
 70
     4
  0
LAYER
  5
14
100
AcDbSymbolTableRecord
100
AcDbLayerTableRecord
  2
0
 70
     0
 62
     7
  6
CONTINUOUS
  0
LAYER
  5
25
100
AcDbSymbolTableRecord
100
AcDbLayerTableRecord
  2
LAY-1
 70
    64
 62
     7
  6
CONTINUOUS
  0
LAYER
  5
26
100
AcDbSymbolTableRecord
100
AcDbLayerTableRecord
  2
LAY-2
 70
    64
 62
     7
  6
CONTINUOUS
  0
LAYER
  5
27
100
AcDbSymbolTableRecord
100
AcDbLayerTableRecord
  2
LAY-3
 70
    64
 62
     7
  6
CONTINUOUS
  0
ENDTAB
  0
TABLE
  2
STYLE
  5
3
100
AcDbSymbolTable
 70
     5
  0
STYLE
  5
17
100
AcDbSymbolTableRecord
100
AcDbTextStyleTableRecord
  2
STANDARD
 70
     0
 40
0.0
 41
1.0
 50
0.0
 71
     0
 42
0.0
  3
monotxt
  4
extfont
  0
STYLE
  5
23
100
AcDbSymbolTableRecord
100
AcDbTextStyleTableRecord
  2
EXCADSTD
 70
    64
 40
0.0
 41
1.0
 50
0.0
 71
     0
 42
0.2
  3
monotxt
  4
extfont
  0
STYLE
  5
24
100
AcDbSymbolTableRecord
100
AcDbTextStyleTableRecord
  2
EXCADVERT
 70
    68
 40
0.0
 41
1.0
 50
0.0
 71
     0
 42
0.286885
  3
monotxt
  4
extfont
  0
STYLE
  5
475
100
AcDbSymbolTableRecord
100
AcDbTextStyleTableRecord
  2
EXCADDIM1
 70
    64
 40
0.0
 41
0.84
 50
0.0
 71
     0
 42
0.2
  3
monotxt
  4
extfont
  0
STYLE
  5
4E2
100
AcDbSymbolTableRecord
100
AcDbTextStyleTableRecord
  2
EXCADDIM2
 70
    64
 40
0.0
 41
0.95
 50
0.0
 71
     0
 42
0.2
  3
monotxt
  4
extfont
  0
ENDTAB
  0
TABLE
  2
VIEW
  5
5
100
AcDbSymbolTable
 70
     0
  0
ENDTAB
  0
TABLE
  2
UCS
  5
6
100
AcDbSymbolTable
 70
     0
  0
ENDTAB
  0
TABLE
  2
APPID
  5
8
100
AcDbSymbolTable
 70
     1
  0
APPID
  5
16
100
AcDbSymbolTableRecord
100
AcDbRegAppTableRecord
  2
ACAD
 70
     0
  0
ENDTAB
  0
TABLE
  2
DIMSTYLE
  5
9
100
AcDbSymbolTable
 70
     1
  0
DIMSTYLE
105
18
100
AcDbSymbolTableRecord
100
AcDbDimStyleTableRecord
  2
STANDARD
 70
     0
  3

  4

  5

  6

  7

 40
1.0
 41
0.18
 42
0.0625
 43
0.38
 44
0.18
 45
0.0
 46
0.0
 47
0.0
 48
0.0
 71
     0
 72
     0
 73
     1
 74
     1
 75
     0
 76
     0
 77
     0
 78
     0
140
0.18
141
0.09
142
0.0
143
25.4
144
1.0
145
0.0
146
1.0
147
0.09
170
     0
171
     2
172
     1
173
     0
174
     0
175
     0
176
     0
177
     0
178
     0
270
     2
271
     4
272
     4
273
     2
274
     2
275
     0
280
     0
281
     0
282
     0
283
     1
284
     0
285
     0
286
     0
287
     0
288
     0
340
17
  0
ENDTAB
  0
TABLE
  2
BLOCK_RECORD
  5
1
100
AcDbSymbolTable
 70
    23
  0
BLOCK_RECORD
  5
A
100
AcDbSymbolTableRecord
100
AcDbBlockTableRecord
  2
*MODEL_SPACE
  0
BLOCK_RECORD
  5
B
100
AcDbSymbolTableRecord
100
AcDbBlockTableRecord
  2
*PAPER_SPACE
  0
BLOCK_RECORD
  5
28
100
AcDbSymbolTableRecord
100
AcDbBlockTableRecord
  2
_EX_NORM
  0
BLOCK_RECORD
  5
29
100
AcDbSymbolTableRecord
100
AcDbBlockTableRecord
  2
_EX_BNORM
  0
BLOCK_RECORD
  5
2A
100
AcDbSymbolTableRecord
100
AcDbBlockTableRecord
  2
_EX_BCIR
  0
BLOCK_RECORD
  5
2B
100
AcDbSymbolTableRecord
100
AcDbBlockTableRecord
  2
_EX_RCIVIL
  0
BLOCK_RECORD
  5
2C
100
AcDbSymbolTableRecord
100
AcDbBlockTableRecord
  2
_EX_SLANT
  0
BLOCK_RECORD
  5
2D
100
AcDbSymbolTableRecord
100
AcDbBlockTableRecord
  2
_EX_NONE
  0
BLOCK_RECORD
  5
2E
100
AcDbSymbolTableRecord
100
AcDbBlockTableRecord
  2
_EX_CIVIL
  0
BLOCK_RECORD
  5
2F
100
AcDbSymbolTableRecord
100
AcDbBlockTableRecord
  2
_EX_WCIR
  0
BLOCK_RECORD
  5
30
100
AcDbSymbolTableRecord
100
AcDbBlockTableRecord
  2
_EX_WCIR2
  0
BLOCK_RECORD
  5
31
100
AcDbSymbolTableRecord
100
AcDbBlockTableRecord
  2
_EX_WNORM
  0
BLOCK_RECORD
  5
32
100
AcDbSymbolTableRecord
100
AcDbBlockTableRecord
  2
_EX_NNORM
  0
BLOCK_RECORD
  5
33
100
AcDbSymbolTableRecord
100
AcDbBlockTableRecord
  2
_EX_BBOX
  0
BLOCK_RECORD
  5
34
100
AcDbSymbolTableRecord
100
AcDbBlockTableRecord
  2
_EX_WBOX
  0
BLOCK_RECORD
  5
35
100
AcDbSymbolTableRecord
100
AcDbBlockTableRecord
  2
_EX_INTEGRAL
  0
BLOCK_RECORD
  5
46A
100
AcDbSymbolTableRecord
100
AcDbBlockTableRecord
  2
*D14
  0
BLOCK_RECORD
  5
477
100
AcDbSymbolTableRecord
100
AcDbBlockTableRecord
  2
*D15
  0
BLOCK_RECORD
  5
483
100
AcDbSymbolTableRecord
100
AcDbBlockTableRecord
  2
*D16
  0
BLOCK_RECORD
  5
48F
100
AcDbSymbolTableRecord
100
AcDbBlockTableRecord
  2
*D17
  0
BLOCK_RECORD
  5
49B
100
AcDbSymbolTableRecord
100
AcDbBlockTableRecord
  2
*D18
  0
BLOCK_RECORD
  5
4A7
100
AcDbSymbolTableRecord
100
AcDbBlockTableRecord
  2
*D19
  0
BLOCK_RECORD
  5
4B3
100
AcDbSymbolTableRecord
100
AcDbBlockTableRecord
  2
*D20
  0
BLOCK_RECORD
  5
4BF
100
AcDbSymbolTableRecord
100
AcDbBlockTableRecord
  2
*D21
  0
BLOCK_RECORD
  5
4D7
100
AcDbSymbolTableRecord
100
AcDbBlockTableRecord
  2
*D22
  0
ENDTAB
  0
ENDSEC
  0
SECTION
  2
BLOCKS
  0
BLOCK
  5
D
100
AcDbEntity
  8
0
100
AcDbBlockBegin
  2
*MODEL_SPACE
 70
     0
 10
0.0
 20
0.0
 30
0.0
  3
*MODEL_SPACE
  1

  0
ENDBLK
  5
E
100
AcDbEntity
  8
0
100
AcDbBlockEnd
  0
BLOCK
  5
F
100
AcDbEntity
 67
     1
  8
0
100
AcDbBlockBegin
  2
*PAPER_SPACE
 70
     0
 10
0.0
 20
0.0
 30
0.0
  3
*PAPER_SPACE
  1

  0
ENDBLK
  5
10
100
AcDbEntity
 67
     1
  8
0
100
AcDbBlockEnd
  0
BLOCK
  5
36
100
AcDbEntity
  8
0
100
AcDbBlockBegin
  2
_EX_NORM
 70
     0
 10
0.0
 20
0.0
 30
0.0
  3
_EX_NORM
  1

  0
LINE
  5
37
100
AcDbEntity
  8
0
  6
CONTINUOUS
 62
     0
100
AcDbLine
 10
0.0
 20
0.0
 30
0.0
 11
-1.0
 21
0.0
 31
0.0
  0
LINE
  5
38
100
AcDbEntity
  8
0
  6
CONTINUOUS
 62
     0
100
AcDbLine
 10
0.0
 20
0.0
 30
0.0
 11
-1.0
 21
0.166667
 31
0.0
  0
LINE
  5
39
100
AcDbEntity
  8
0
  6
CONTINUOUS
 62
     0
100
AcDbLine
 10
0.0
 20
0.0
 30
0.0
 11
-1.0
 21
-0.166667
 31
0.0
  0
ENDBLK
  5
3A
100
AcDbEntity
  8
0
100
AcDbBlockEnd
  0
BLOCK
  5
3B
100
AcDbEntity
  8
0
100
AcDbBlockBegin
  2
_EX_BNORM
 70
     0
 10
0.0
 20
0.0
 30
0.0
  3
_EX_BNORM
  1

  0
LINE
  5
3C
100
AcDbEntity
  8
0
  6
CONTINUOUS
 62
     0
100
AcDbLine
 10
0.0
 20
0.0
 30
0.0
 11
-1.0
 21
0.0
 31
0.0
  0
LINE
  5
3D
100
AcDbEntity
  8
0
  6
CONTINUOUS
 62
     0
100
AcDbLine
 10
0.0
 20
0.0
 30
0.0
 11
-1.0
 21
0.166667
 31
0.0
  0
LINE
  5
3E
100
AcDbEntity
  8
0
  6
CONTINUOUS
 62
     0
100
AcDbLine
 10
0.0
 20
0.0
 30
0.0
 11
-1.0
 21
-0.166667
 31
0.0
  0
LINE
  5
3F
100
AcDbEntity
  8
0
  6
CONTINUOUS
 62
     0
100
AcDbLine
 10
0.0
 20
0.0
 30
0.0
 11
-1.0
 21
0.083333
 31
0.0
  0
LINE
  5
40
100
AcDbEntity
  8
0
  6
CONTINUOUS
 62
     0
100
AcDbLine
 10
0.0
 20
0.0
 30
0.0
 11
-1.0
 21
-0.083333
 31
0.0
  0
LINE
  5
41
100
AcDbEntity
  8
0
  6
CONTINUOUS
 62
     0
100
AcDbLine
 10
-1.0
 20
0.166667
 30
0.0
 11
-1.0
 21
-0.166667
 31
0.0
  0
ENDBLK
  5
42
100
AcDbEntity
  8
0
100
AcDbBlockEnd
  0
BLOCK
  5
43
100
AcDbEntity
  8
0
100
AcDbBlockBegin
  2
_EX_BCIR
 70
     0
 10
0.0
 20
0.0
 30
0.0
  3
_EX_BCIR
  1

  0
LINE
  5
44
100
AcDbEntity
  8
0
  6
CONTINUOUS
 62
     0
100
AcDbLine
 10
0.0
 20
0.0
 30
0.0
 11
-1.0
 21
0.0
 31
0.0
  0
CIRCLE
  5
45
100
AcDbEntity
  8
0
  6
CONTINUOUS
 62
     0
100
AcDbCircle
 10
0.0
 20
0.0
 30
0.0
 40
0.5
  0
CIRCLE
  5
46
100
AcDbEntity
  8
0
  6
CONTINUOUS
 62
     0
100
AcDbCircle
 10
0.0
 20
0.0
 30
0.0
 40
0.25
  0
ENDBLK
  5
47
100
AcDbEntity
  8
0
100
AcDbBlockEnd
  0
BLOCK
  5
48
100
AcDbEntity
  8
0
100
AcDbBlockBegin
  2
_EX_RCIVIL
 70
     0
 10
0.0
 20
0.0
 30
0.0
  3
_EX_RCIVIL
  1

  0
LINE
  5
49
100
AcDbEntity
  8
0
  6
CONTINUOUS
 62
     0
100
AcDbLine
 10
0.0
 20
0.0
 30
0.0
 11
-1.0
 21
0.0
 31
0.0
  0
LINE
  5
4A
100
AcDbEntity
  8
0
  6
CONTINUOUS
 62
     0
100
AcDbLine
 10
-1.0
 20
-0.25
 30
0.0
 11
0.0
 21
-0.25
 31
0.0
  0
LINE
  5
4B
100
AcDbEntity
  8
0
  6
CONTINUOUS
 62
     0
100
AcDbLine
 10
-1.0
 20
-0.125
 30
0.0
 11
0.0
 21
-0.125
 31
0.0
  0
ENDBLK
  5
4C
100
AcDbEntity
  8
0
100
AcDbBlockEnd
  0
BLOCK
  5
4D
100
AcDbEntity
  8
0
100
AcDbBlockBegin
  2
_EX_SLANT
 70
     0
 10
0.0
 20
0.0
 30
0.0
  3
_EX_SLANT
  1

  0
LINE
  5
4E
100
AcDbEntity
  8
0
  6
CONTINUOUS
 62
     0
100
AcDbLine
 10
0.0
 20
0.0
 30
0.0
 11
-1.0
 21
0.0
 31
0.0
  0
LINE
  5
4F
100
AcDbEntity
  8
0
  6
CONTINUOUS
 62
     0
100
AcDbLine
 10
0.707107
 20
0.707107
 30
0.0
 11
-0.707107
 21
-0.707107
 31
0.0
  0
ENDBLK
  5
50
100
AcDbEntity
  8
0
100
AcDbBlockEnd
  0
BLOCK
  5
51
100
AcDbEntity
  8
0
100
AcDbBlockBegin
  2
_EX_NONE
 70
     0
 10
0.0
 20
0.0
 30
0.0
  3
_EX_NONE
  1

  0
LINE
  5
52
100
AcDbEntity
  8
0
  6
CONTINUOUS
 62
     0
100
AcDbLine
 10
0.0
 20
0.0
 30
0.0
 11
-1.0
 21
0.0
 31
0.0
  0
ENDBLK
  5
53
100
AcDbEntity
  8
0
100
AcDbBlockEnd
  0
BLOCK
  5
54
100
AcDbEntity
  8
0
100
AcDbBlockBegin
  2
_EX_CIVIL
 70
     0
 10
0.0
 20
0.0
 30
0.0
  3
_EX_CIVIL
  1

  0
LINE
  5
55
100
AcDbEntity
  8
0
  6
CONTINUOUS
 62
     0
100
AcDbLine
 10
0.0
 20
0.0
 30
0.0
 11
-1.0
 21
0.0
 31
0.0
  0
LINE
  5
56
100
AcDbEntity
  8
0
  6
CONTINUOUS
 62
     0
100
AcDbLine
 10
-1.0
 20
0.25
 30
0.0
 11
0.0
 21
0.25
 31
0.0
  0
LINE
  5
57
100
AcDbEntity
  8
0
  6
CONTINUOUS
 62
     0
100
AcDbLine
 10
-1.0
 20
0.125
 30
0.0
 11
0.0
 21
0.125
 31
0.0
  0
ENDBLK
  5
58
100
AcDbEntity
  8
0
100
AcDbBlockEnd
  0
BLOCK
  5
59
100
AcDbEntity
  8
0
100
AcDbBlockBegin
  2
_EX_WCIR
 70
     0
 10
0.0
 20
0.0
 30
0.0
  3
_EX_WCIR
  1

  0
LINE
  5
5A
100
AcDbEntity
  8
0
  6
CONTINUOUS
 62
     0
100
AcDbLine
 10
0.0
 20
0.0
 30
0.0
 11
-1.0
 21
0.0
 31
0.0
  0
CIRCLE
  5
5B
100
AcDbEntity
  8
0
  6
CONTINUOUS
 62
     0
100
AcDbCircle
 10
0.0
 20
0.0
 30
0.0
 40
0.5
  0
ENDBLK
  5
5C
100
AcDbEntity
  8
0
100
AcDbBlockEnd
  0
BLOCK
  5
5D
100
AcDbEntity
  8
0
100
AcDbBlockBegin
  2
_EX_WCIR2
 70
     0
 10
0.0
 20
0.0
 30
0.0
  3
_EX_WCIR2
  1

  0
LINE
  5
5E
100
AcDbEntity
  8
0
  6
CONTINUOUS
 62
     0
100
AcDbLine
 10
-0.5
 20
0.0
 30
0.0
 11
-1.0
 21
0.0
 31
0.0
  0
CIRCLE
  5
5F
100
AcDbEntity
  8
0
  6
CONTINUOUS
 62
     0
100
AcDbCircle
 10
0.0
 20
0.0
 30
0.0
 40
0.5
  0
ENDBLK
  5
60
100
AcDbEntity
  8
0
100
AcDbBlockEnd
  0
BLOCK
  5
61
100
AcDbEntity
  8
0
100
AcDbBlockBegin
  2
_EX_WNORM
 70
     0
 10
0.0
 20
0.0
 30
0.0
  3
_EX_WNORM
  1

  0
LINE
  5
62
100
AcDbEntity
  8
0
  6
CONTINUOUS
 62
     0
100
AcDbLine
 10
-1.0
 20
0.0
 30
0.0
 11
-1.0
 21
0.0
 31
0.0
  0
LINE
  5
63
100
AcDbEntity
  8
0
  6
CONTINUOUS
 62
     0
100
AcDbLine
 10
0.0
 20
0.0
 30
0.0
 11
-1.0
 21
0.166667
 31
0.0
  0
LINE
  5
64
100
AcDbEntity
  8
0
  6
CONTINUOUS
 62
     0
100
AcDbLine
 10
0.0
 20
0.0
 30
0.0
 11
-1.0
 21
-0.166667
 31
0.0
  0
LINE
  5
65
100
AcDbEntity
  8
0
  6
CONTINUOUS
 62
     0
100
AcDbLine
 10
-1.0
 20
0.166667
 30
0.0
 11
-1.0
 21
-0.166667
 31
0.0
  0
ENDBLK
  5
66
100
AcDbEntity
  8
0
100
AcDbBlockEnd
  0
BLOCK
  5
67
100
AcDbEntity
  8
0
100
AcDbBlockBegin
  2
_EX_NNORM
 70
     0
 10
0.0
 20
0.0
 30
0.0
  3
_EX_NNORM
  1

  0
LINE
  5
68
100
AcDbEntity
  8
0
  6
CONTINUOUS
 62
     0
100
AcDbLine
 10
0.0
 20
0.0
 30
0.0
 11
-1.0
 21
0.0
 31
0.0
  0
LINE
  5
69
100
AcDbEntity
  8
0
  6
CONTINUOUS
 62
     0
100
AcDbLine
 10
0.0
 20
0.0
 30
0.0
 11
-1.0
 21
0.166667
 31
0.0
  0
LINE
  5
6A
100
AcDbEntity
  8
0
  6
CONTINUOUS
 62
     0
100
AcDbLine
 10
0.0
 20
0.0
 30
0.0
 11
-1.0
 21
-0.166667
 31
0.0
  0
LINE
  5
6B
100
AcDbEntity
  8
0
  6
CONTINUOUS
 62
     0
100
AcDbLine
 10
-1.0
 20
0.166667
 30
0.0
 11
-1.0
 21
-0.166667
 31
0.0
  0
ENDBLK
  5
6C
100
AcDbEntity
  8
0
100
AcDbBlockEnd
  0
BLOCK
  5
6D
100
AcDbEntity
  8
0
100
AcDbBlockBegin
  2
_EX_BBOX
 70
     0
 10
0.0
 20
0.0
 30
0.0
  3
_EX_BBOX
  1

  0
LINE
  5
6E
100
AcDbEntity
  8
0
  6
CONTINUOUS
 62
     0
100
AcDbLine
 10
0.0
 20
0.0
 30
0.0
 11
-1.0
 21
0.0
 31
0.0
  0
LINE
  5
6F
100
AcDbEntity
  8
0
  6
CONTINUOUS
 62
     0
100
AcDbLine
 10
-0.5
 20
0.5
 30
0.0
 11
0.5
 21
0.5
 31
0.0
  0
LINE
  5
70
100
AcDbEntity
  8
0
  6
CONTINUOUS
 62
     0
100
AcDbLine
 10
0.5
 20
0.5
 30
0.0
 11
0.5
 21
-0.5
 31
0.0
  0
LINE
  5
71
100
AcDbEntity
  8
0
  6
CONTINUOUS
 62
     0
100
AcDbLine
 10
0.5
 20
-0.5
 30
0.0
 11
-0.5
 21
-0.5
 31
0.0
  0
LINE
  5
72
100
AcDbEntity
  8
0
  6
CONTINUOUS
 62
     0
100
AcDbLine
 10
-0.5
 20
-0.5
 30
0.0
 11
-0.5
 21
0.5
 31
0.0
  0
LINE
  5
73
100
AcDbEntity
  8
0
  6
CONTINUOUS
 62
     0
100
AcDbLine
 10
-0.25
 20
0.25
 30
0.0
 11
0.25
 21
0.25
 31
0.0
  0
LINE
  5
74
100
AcDbEntity
  8
0
  6
CONTINUOUS
 62
     0
100
AcDbLine
 10
0.25
 20
0.25
 30
0.0
 11
0.25
 21
-0.25
 31
0.0
  0
LINE
  5
75
100
AcDbEntity
  8
0
  6
CONTINUOUS
 62
     0
100
AcDbLine
 10
0.25
 20
-0.25
 30
0.0
 11
-0.25
 21
-0.25
 31
0.0
  0
LINE
  5
76
100
AcDbEntity
  8
0
  6
CONTINUOUS
 62
     0
100
AcDbLine
 10
-0.25
 20
-0.25
 30
0.0
 11
-0.25
 21
0.25
 31
0.0
  0
ENDBLK
  5
77
100
AcDbEntity
  8
0
100
AcDbBlockEnd
  0
BLOCK
  5
78
100
AcDbEntity
  8
0
100
AcDbBlockBegin
  2
_EX_WBOX
 70
     0
 10
0.0
 20
0.0
 30
0.0
  3
_EX_WBOX
  1

  0
LINE
  5
79
100
AcDbEntity
  8
0
  6
CONTINUOUS
 62
     0
100
AcDbLine
 10
-0.5
 20
0.0
 30
0.0
 11
-1.0
 21
0.0
 31
0.0
  0
LINE
  5
7A
100
AcDbEntity
  8
0
  6
CONTINUOUS
 62
     0
100
AcDbLine
 10
-0.5
 20
0.5
 30
0.0
 11
0.5
 21
0.5
 31
0.0
  0
LINE
  5
7B
100
AcDbEntity
  8
0
  6
CONTINUOUS
 62
     0
100
AcDbLine
 10
0.5
 20
0.5
 30
0.0
 11
0.5
 21
-0.5
 31
0.0
  0
LINE
  5
7C
100
AcDbEntity
  8
0
  6
CONTINUOUS
 62
     0
100
AcDbLine
 10
0.5
 20
-0.5
 30
0.0
 11
-0.5
 21
-0.5
 31
0.0
  0
LINE
  5
7D
100
AcDbEntity
  8
0
  6
CONTINUOUS
 62
     0
100
AcDbLine
 10
-0.5
 20
-0.5
 30
0.0
 11
-0.5
 21
0.5
 31
0.0
  0
ENDBLK
  5
7E
100
AcDbEntity
  8
0
100
AcDbBlockEnd
  0
BLOCK
  5
7F
100
AcDbEntity
  8
0
100
AcDbBlockBegin
  2
_EX_INTEGRAL
 70
     0
 10
0.0
 20
0.0
 30
0.0
  3
_EX_INTEGRAL
  1

  0
LINE
  5
80
100
AcDbEntity
  8
0
  6
CONTINUOUS
 62
     0
100
AcDbLine
 10
0.0
 20
0.0
 30
0.0
 11
-1.0
 21
0.0
 31
0.0
  0
ARC
  5
81
100
AcDbEntity
  8
0
  6
CONTINUOUS
 62
     0
100
AcDbCircle
 10
0.542115
 20
0.164992
 30
0.0
 40
0.56667
100
AcDbArc
 50
73.07249
 51
196.927513
  0
ARC
  5
82
100
AcDbEntity
  8
0
  6
CONTINUOUS
 62
     0
100
AcDbCircle
 10
-0.542115
 20
-0.164992
 30
0.0
 40
0.56667
100
AcDbArc
 50
253.072487
 51
16.927513
  0
ENDBLK
  5
83
100
AcDbEntity
  8
0
100
AcDbBlockEnd
  0
BLOCK
  5
46B
100
AcDbEntity
  8
0
100
AcDbBlockBegin
  2
*D14
 70
    65
 10
0.0
 20
0.0
 30
0.0
  3
*D14
  1

  0
LINE
  5
46C
100
AcDbEntity
  8
LAY-3
  6
CONTINUOUS
 62
     3
100
AcDbLine
 10
89.729534
 20
384.846737
 30
0.0
 11
89.729534
 21
316.618805
 31
0.0
  0
LINE
  5
46D
100
AcDbEntity
  8
LAY-3
  6
CONTINUOUS
 62
     3
100
AcDbLine
 10
258.821311
 20
382.368817
 30
0.0
 11
258.821311
 21
316.618805
 31
0.0
  0
TEXT
  5
46E
100
AcDbEntity
  8
LAY-3
  6
CONTINUOUS
 62
     2
100
AcDbText
 10
163.775423
 20
319.993805
 30
0.0
 40
10.0
  1
170
 41
0.84
  7
EXCADSTD
 72
     1
 11
174.275423
 21
319.993805
 31
0.0
100
AcDbText
  0
LINE
  5
46F
100
AcDbEntity
  8
LAY-3
  6
CONTINUOUS
 62
     3
100
AcDbLine
 10
89.729534
 20
319.118805
 30
0.0
 11
258.821311
 21
319.118805
 31
0.0
  0
LINE
  5
470
100
AcDbEntity
  8
LAY-3
  6
CONTINUOUS
 62
     3
100
AcDbLine
 10
97.229534
 20
320.368805
 30
0.0
 11
89.729534
 21
319.118805
 31
0.0
  0
LINE
  5
471
100
AcDbEntity
  8
LAY-3
  6
CONTINUOUS
 62
     3
100
AcDbLine
 10
89.729534
 20
319.118805
 30
0.0
 11
97.229534
 21
317.868805
 31
0.0
  0
LINE
  5
472
100
AcDbEntity
  8
LAY-3
  6
CONTINUOUS
 62
     3
100
AcDbLine
 10
251.321311
 20
317.868805
 30
0.0
 11
258.821311
 21
319.118805
 31
0.0
  0
LINE
  5
473
100
AcDbEntity
  8
LAY-3
  6
CONTINUOUS
 62
     3
100
AcDbLine
 10
258.821311
 20
319.118805
 30
0.0
 11
251.321311
 21
320.368805
 31
0.0
  0
ENDBLK
  5
474
100
AcDbEntity
  8
0
100
AcDbBlockEnd
  0
BLOCK
  5
478
100
AcDbEntity
  8
0
100
AcDbBlockBegin
  2
*D15
 70
    65
 10
0.0
 20
0.0
 30
0.0
  3
*D15
  1

  0
LINE
  5
479
100
AcDbEntity
  8
LAY-3
  6
CONTINUOUS
 62
     3
100
AcDbLine
 10
141.321327
 20
387.548904
 30
0.0
 11
141.321327
 21
331.618805
 31
0.0
  0
LINE
  5
47A
100
AcDbEntity
  8
LAY-3
  6
CONTINUOUS
 62
     3
100
AcDbLine
 10
211.321281
 20
387.548904
 30
0.0
 11
211.321281
 21
331.618805
 31
0.0
  0
TEXT
  5
47B
100
AcDbEntity
  8
LAY-3
  6
CONTINUOUS
 62
     2
100
AcDbText
 10
168.971304
 20
334.993805
 30
0.0
 40
10.0
  1
70
 41
0.84
  7
EXCADSTD
 72
     1
 11
176.321304
 21
334.993805
 31
0.0
100
AcDbText
  0
LINE
  5
47C
100
AcDbEntity
  8
LAY-3
  6
CONTINUOUS
 62
     3
100
AcDbLine
 10
141.321327
 20
334.118805
 30
0.0
 11
211.321281
 21
334.118805
 31
0.0
  0
LINE
  5
47D
100
AcDbEntity
  8
LAY-3
  6
CONTINUOUS
 62
     3
100
AcDbLine
 10
148.821327
 20
335.368805
 30
0.0
 11
141.321327
 21
334.118805
 31
0.0
  0
LINE
  5
47E
100
AcDbEntity
  8
LAY-3
  6
CONTINUOUS
 62
     3
100
AcDbLine
 10
141.321327
 20
334.118805
 30
0.0
 11
148.821327
 21
332.868805
 31
0.0
  0
LINE
  5
47F
100
AcDbEntity
  8
LAY-3
  6
CONTINUOUS
 62
     3
100
AcDbLine
 10
203.821281
 20
332.868805
 30
0.0
 11
211.321281
 21
334.118805
 31
0.0
  0
LINE
  5
480
100
AcDbEntity
  8
LAY-3
  6
CONTINUOUS
 62
     3
100
AcDbLine
 10
211.321281
 20
334.118805
 30
0.0
 11
203.821281
 21
335.368805
 31
0.0
  0
ENDBLK
  5
481
100
AcDbEntity
  8
0
100
AcDbBlockEnd
  0
BLOCK
  5
484
100
AcDbEntity
  8
0
100
AcDbBlockBegin
  2
*D16
 70
    65
 10
0.0
 20
0.0
 30
0.0
  3
*D16
  1

  0
LINE
  5
485
100
AcDbEntity
  8
LAY-3
  6
CONTINUOUS
 62
     3
100
AcDbLine
 10
151.321307
 20
408.873738
 30
0.0
 11
151.321307
 21
346.618805
 31
0.0
  0
LINE
  5
486
100
AcDbEntity
  8
LAY-3
  6
CONTINUOUS
 62
     3
100
AcDbLine
 10
201.321311
 20
408.873738
 30
0.0
 11
201.321311
 21
346.618805
 31
0.0
  0
TEXT
  5
487
100
AcDbEntity
  8
LAY-3
  6
CONTINUOUS
 62
     2
100
AcDbText
 10
168.971309
 20
349.993805
 30
0.0
 40
10.0
  1
50
 41
0.84
  7
EXCADSTD
 72
     1
 11
176.321309
 21
349.993805
 31
0.0
100
AcDbText
  0
LINE
  5
488
100
AcDbEntity
  8
LAY-3
  6
CONTINUOUS
 62
     3
100
AcDbLine
 10
151.321307
 20
349.118805
 30
0.0
 11
201.321311
 21
349.118805
 31
0.0
  0
LINE
  5
489
100
AcDbEntity
  8
LAY-3
  6
CONTINUOUS
 62
     3
100
AcDbLine
 10
158.821307
 20
350.368805
 30
0.0
 11
151.321307
 21
349.118805
 31
0.0
  0
LINE
  5
48A
100
AcDbEntity
  8
LAY-3
  6
CONTINUOUS
 62
     3
100
AcDbLine
 10
151.321307
 20
349.118805
 30
0.0
 11
158.821307
 21
347.868805
 31
0.0
  0
LINE
  5
48B
100
AcDbEntity
  8
LAY-3
  6
CONTINUOUS
 62
     3
100
AcDbLine
 10
193.821311
 20
347.868805
 30
0.0
 11
201.321311
 21
349.118805
 31
0.0
  0
LINE
  5
48C
100
AcDbEntity
  8
LAY-3
  6
CONTINUOUS
 62
     3
100
AcDbLine
 10
201.321311
 20
349.118805
 30
0.0
 11
193.821311
 21
350.368805
 31
0.0
  0
ENDBLK
  5
48D
100
AcDbEntity
  8
0
100
AcDbBlockEnd
  0
BLOCK
  5
490
100
AcDbEntity
  8
0
100
AcDbBlockBegin
  2
*D17
 70
    65
 10
0.0
 20
0.0
 30
0.0
  3
*D17
  1

  0
LINE
  5
491
100
AcDbEntity
  8
LAY-3
  6
CONTINUOUS
 62
     3
100
AcDbLine
 10
425.740737
 20
390.548904
 30
0.0
 11
425.740737
 21
366.798904
 31
0.0
  0
LINE
  5
492
100
AcDbEntity
  8
LAY-3
  6
CONTINUOUS
 62
     3
100
AcDbLine
 10
458.23923
 20
396.548541
 30
0.0
 11
458.23923
 21
366.798904
 31
0.0
  0
TEXT
  5
493
100
AcDbEntity
  8
LAY-3
  6
CONTINUOUS
 62
     2
100
AcDbText
 10
430.439983
 20
370.173904
 30
0.0
 40
10.0
  1
32.5
 41
0.84
  7
EXCADSTD
 72
     1
 11
441.989983
 21
370.173904
 31
0.0
100
AcDbText
  0
LINE
  5
494
100
AcDbEntity
  8
LAY-3
  6
CONTINUOUS
 62
     3
100
AcDbLine
 10
425.740737
 20
369.298904
 30
0.0
 11
458.23923
 21
369.298904
 31
0.0
  0
LINE
  5
495
100
AcDbEntity
  8
LAY-3
  6
CONTINUOUS
 62
     3
100
AcDbLine
 10
433.240737
 20
370.548904
 30
0.0
 11
425.740737
 21
369.298904
 31
0.0
  0
LINE
  5
496
100
AcDbEntity
  8
LAY-3
  6
CONTINUOUS
 62
     3
100
AcDbLine
 10
425.740737
 20
369.298904
 30
0.0
 11
433.240737
 21
368.048904
 31
0.0
  0
LINE
  5
497
100
AcDbEntity
  8
LAY-3
  6
CONTINUOUS
 62
     3
100
AcDbLine
 10
450.73923
 20
368.048904
 30
0.0
 11
458.23923
 21
369.298904
 31
0.0
  0
LINE
  5
498
100
AcDbEntity
  8
LAY-3
  6
CONTINUOUS
 62
     3
100
AcDbLine
 10
458.23923
 20
369.298904
 30
0.0
 11
450.73923
 21
370.548904
 31
0.0
  0
ENDBLK
  5
499
100
AcDbEntity
  8
0
100
AcDbBlockEnd
  0
BLOCK
  5
49C
100
AcDbEntity
  8
0
100
AcDbBlockBegin
  2
*D18
 70
    65
 10
0.0
 20
0.0
 30
0.0
  3
*D18
  1

  0
LINE
  5
49D
100
AcDbEntity
  8
LAY-3
  6
CONTINUOUS
 62
     3
100
AcDbLine
 10
432.490737
 20
389.298904
 30
0.0
 11
488.096295
 21
389.298904
 31
0.0
  0
LINE
  5
49E
100
AcDbEntity
  8
LAY-3
  6
CONTINUOUS
 62
     3
100
AcDbLine
 10
432.490737
 20
434.298904
 30
0.0
 11
488.096295
 21
434.298904
 31
0.0
  0
TEXT
  5
49F
100
AcDbEntity
  8
LAY-3
  6
CONTINUOUS
 62
     2
100
AcDbText
 10
484.721295
 20
404.448904
 30
0.0
 40
10.0
  1
45
 50
90.0
 41
0.84
  7
EXCADSTD
 72
     1
 11
484.721295
 21
411.798904
 31
0.0
100
AcDbText
  0
LINE
  5
4A0
100
AcDbEntity
  8
LAY-3
  6
CONTINUOUS
 62
     3
100
AcDbLine
 10
485.596295
 20
389.298904
 30
0.0
 11
485.596295
 21
434.298904
 31
0.0
  0
LINE
  5
4A1
100
AcDbEntity
  8
LAY-3
  6
CONTINUOUS
 62
     3
100
AcDbLine
 10
484.346295
 20
396.798904
 30
0.0
 11
485.596295
 21
389.298904
 31
0.0
  0
LINE
  5
4A2
100
AcDbEntity
  8
LAY-3
  6
CONTINUOUS
 62
     3
100
AcDbLine
 10
485.596295
 20
389.298904
 30
0.0
 11
486.846295
 21
396.798904
 31
0.0
  0
LINE
  5
4A3
100
AcDbEntity
  8
LAY-3
  6
CONTINUOUS
 62
     3
100
AcDbLine
 10
486.846295
 20
426.798904
 30
0.0
 11
485.596295
 21
434.298904
 31
0.0
  0
LINE
  5
4A4
100
AcDbEntity
  8
LAY-3
  6
CONTINUOUS
 62
     3
100
AcDbLine
 10
485.596295
 20
434.298904
 30
0.0
 11
484.346295
 21
426.798904
 31
0.0
  0
ENDBLK
  5
4A5
100
AcDbEntity
  8
0
100
AcDbBlockEnd
  0
BLOCK
  5
4A8
100
AcDbEntity
  8
0
100
AcDbBlockBegin
  2
*D19
 70
    65
 10
0.0
 20
0.0
 30
0.0
  3
*D19
  1

  0
LINE
  5
4A9
100
AcDbEntity
  8
LAY-3
  6
CONTINUOUS
 62
     3
100
AcDbLine
 10
141.321327
 20
443.5489
 30
0.0
 11
141.321327
 21
474.2989
 31
0.0
  0
LINE
  5
4AA
100
AcDbEntity
  8
LAY-3
  6
CONTINUOUS
 62
     3
100
AcDbLine
 10
258.821342
 20
423.548904
 30
0.0
 11
258.821342
 21
474.2989
 31
0.0
  0
TEXT
  5
4AB
100
AcDbEntity
  8
LAY-3
  6
CONTINUOUS
 62
     2
100
AcDbText
 10
185.371335
 20
472.6739
 30
0.0
 40
10.0
  1
117.5
 41
0.84
  7
EXCADSTD
 72
     1
 11
200.071335
 21
472.6739
 31
0.0
100
AcDbText
  0
LINE
  5
4AC
100
AcDbEntity
  8
LAY-3
  6
CONTINUOUS
 62
     3
100
AcDbLine
 10
141.321327
 20
471.7989
 30
0.0
 11
258.821342
 21
471.7989
 31
0.0
  0
LINE
  5
4AD
100
AcDbEntity
  8
LAY-3
  6
CONTINUOUS
 62
     3
100
AcDbLine
 10
148.821327
 20
473.0489
 30
0.0
 11
141.321327
 21
471.7989
 31
0.0
  0
LINE
  5
4AE
100
AcDbEntity
  8
LAY-3
  6
CONTINUOUS
 62
     3
100
AcDbLine
 10
141.321327
 20
471.7989
 30
0.0
 11
148.821327
 21
470.5489
 31
0.0
  0
LINE
  5
4AF
100
AcDbEntity
  8
LAY-3
  6
CONTINUOUS
 62
     3
100
AcDbLine
 10
251.321342
 20
470.5489
 30
0.0
 11
258.821342
 21
471.7989
 31
0.0
  0
LINE
  5
4B0
100
AcDbEntity
  8
LAY-3
  6
CONTINUOUS
 62
     3
100
AcDbLine
 10
258.821342
 20
471.7989
 30
0.0
 11
251.321342
 21
473.0489
 31
0.0
  0
ENDBLK
  5
4B1
100
AcDbEntity
  8
0
100
AcDbBlockEnd
  0
BLOCK
  5
4B4
100
AcDbEntity
  8
0
100
AcDbBlockBegin
  2
*D20
 70
    65
 10
0.0
 20
0.0
 30
0.0
  3
*D20
  1

  0
LINE
  5
4B5
100
AcDbEntity
  8
LAY-3
  6
CONTINUOUS
 62
     3
100
AcDbLine
 10
338.639705
 20
364.671493
 30
0.0
 11
306.5
 21
364.671493
 31
0.0
  0
LINE
  5
4B6
100
AcDbEntity
  8
LAY-3
  6
CONTINUOUS
 62
     3
100
AcDbLine
 10
378.990715
 20
441.798904
 30
0.0
 11
306.5
 21
441.798904
 31
0.0
  0
LINE
  5
4B7
100
AcDbEntity
  8
LAY-3
  6
CONTINUOUS
 62
     3
100
AcDbLine
 10
309.0
 20
364.671493
 30
0.0
 11
309.0
 21
441.798904
 31
0.0
  0
LINE
  5
4B8
100
AcDbEntity
  8
LAY-3
  6
CONTINUOUS
 62
     3
100
AcDbLine
 10
307.75
 20
372.171493
 30
0.0
 11
309.0
 21
364.671493
 31
0.0
  0
LINE
  5
4B9
100
AcDbEntity
  8
LAY-3
  6
CONTINUOUS
 62
     3
100
AcDbLine
 10
309.0
 20
364.671493
 30
0.0
 11
310.25
 21
372.171493
 31
0.0
  0
LINE
  5
4BA
100
AcDbEntity
  8
LAY-3
  6
CONTINUOUS
 62
     3
100
AcDbLine
 10
310.25
 20
434.298904
 30
0.0
 11
309.0
 21
441.798904
 31
0.0
  0
LINE
  5
4BB
100
AcDbEntity
  8
LAY-3
  6
CONTINUOUS
 62
     3
100
AcDbLine
 10
309.0
 20
441.798904
 30
0.0
 11
307.75
 21
434.298904
 31
0.0
  0
TEXT
  5
4BC
100
AcDbEntity
  8
LAY-3
  6
CONTINUOUS
 62
     2
100
AcDbText
 10
308.125
 20
395.885199
 30
0.0
 40
10.0
  1
77
 50
90.0
 41
0.84
  7
EXCADSTD
 72
     1
 11
308.125
 21
403.235199
 31
0.0
100
AcDbText
  0
ENDBLK
  5
4BD
100
AcDbEntity
  8
0
100
AcDbBlockEnd
  0
BLOCK
  5
4C0
100
AcDbEntity
  8
0
100
AcDbBlockBegin
  2
*D21
 70
    65
 10
0.0
 20
0.0
 30
0.0
  3
*D21
  1

  0
LINE
  5
4C1
100
AcDbEntity
  8
LAY-3
  6
CONTINUOUS
 62
     3
100
AcDbLine
 10
330.889705
 20
375.921493
 30
0.0
 11
330.889705
 21
474.2989
 31
0.0
  0
LINE
  5
4C2
100
AcDbEntity
  8
LAY-3
  6
CONTINUOUS
 62
     3
100
AcDbLine
 10
430.740737
 20
436.048904
 30
0.0
 11
430.740737
 21
474.2989
 31
0.0
  0
LINE
  5
4C3
100
AcDbEntity
  8
LAY-3
  6
CONTINUOUS
 62
     3
100
AcDbLine
 10
330.889705
 20
471.7989
 30
0.0
 11
430.740737
 21
471.7989
 31
0.0
  0
LINE
  5
4C4
100
AcDbEntity
  8
LAY-3
  6
CONTINUOUS
 62
     3
100
AcDbLine
 10
338.389705
 20
473.0489
 30
0.0
 11
330.889705
 21
471.7989
 31
0.0
  0
LINE
  5
4C5
100
AcDbEntity
  8
LAY-3
  6
CONTINUOUS
 62
     3
100
AcDbLine
 10
330.889705
 20
471.7989
 30
0.0
 11
338.389705
 21
470.5489
 31
0.0
  0
LINE
  5
4C6
100
AcDbEntity
  8
LAY-3
  6
CONTINUOUS
 62
     3
100
AcDbLine
 10
423.240737
 20
470.5489
 30
0.0
 11
430.740737
 21
471.7989
 31
0.0
  0
LINE
  5
4C7
100
AcDbEntity
  8
LAY-3
  6
CONTINUOUS
 62
     3
100
AcDbLine
 10
430.740737
 20
471.7989
 30
0.0
 11
423.240737
 21
473.0489
 31
0.0
  0
TEXT
  5
4C8
100
AcDbEntity
  8
LAY-3
  6
CONTINUOUS
 62
     2
100
AcDbText
 10
370.315221
 20
472.6739
 30
0.0
 40
10.0
  1
100
 41
0.84
  7
EXCADSTD
 72
     1
 11
380.815221
 21
472.6739
 31
0.0
100
AcDbText
  0
ENDBLK
  5
4C9
100
AcDbEntity
  8
0
100
AcDbBlockEnd
  0
BLOCK
  5
4D8
100
AcDbEntity
  8
0
100
AcDbBlockBegin
  2
*D22
 70
    65
 10
0.0
 20
0.0
 30
0.0
  3
*D22
  1

  0
LINE
  5
4D9
100
AcDbEntity
  8
LAY-3
  6
CONTINUOUS
 62
     3
100
AcDbLine
 10
207.66087
 20
416.298904
 30
0.0
 11
229.3
 21
416.298904
 31
0.0
  0
LINE
  5
4DA
100
AcDbEntity
  8
LAY-3
  6
CONTINUOUS
 62
     3
100
AcDbLine
 10
181.921307
 20
398.298904
 30
0.0
 11
229.3
 21
398.298904
 31
0.0
  0
TEXT
  5
4DB
100
AcDbEntity
  8
LAY-3
  6
CONTINUOUS
 62
     2
100
AcDbText
 10
226.05
 20
398.898904
 30
0.0
 40
10.0
  1
18
 50
90.0
 41
0.945
  7
EXCADSTD
 72
     1
 11
226.05
 21
407.298904
 31
0.0
100
AcDbText
  0
LINE
  5
4DC
100
AcDbEntity
  8
LAY-3
  6
CONTINUOUS
 62
     3
100
AcDbLine
 10
226.8
 20
416.298904
 30
0.0
 11
226.8
 21
398.298904
 31
0.0
  0
LINE
  5
4DD
100
AcDbEntity
  8
LAY-3
  6
CONTINUOUS
 62
     3
100
AcDbLine
 10
228.05
 20
408.798904
 30
0.0
 11
226.8
 21
416.298904
 31
0.0
  0
LINE
  5
4DE
100
AcDbEntity
  8
LAY-3
  6
CONTINUOUS
 62
     3
100
AcDbLine
 10
226.8
 20
416.298904
 30
0.0
 11
225.55
 21
408.798904
 31
0.0
  0
LINE
  5
4DF
100
AcDbEntity
  8
LAY-3
  6
CONTINUOUS
 62
     3
100
AcDbLine
 10
225.55
 20
405.798904
 30
0.0
 11
226.8
 21
398.298904
 31
0.0
  0
LINE
  5
4E0
100
AcDbEntity
  8
LAY-3
  6
CONTINUOUS
 62
     3
100
AcDbLine
 10
226.8
 20
398.298904
 30
0.0
 11
228.05
 21
405.798904
 31
0.0
  0
ENDBLK
  5
4E1
100
AcDbEntity
  8
0
100
AcDbBlockEnd
  0
ENDSEC
  0
SECTION
  2
ENTITIES
  0
LINE
  5
84
100
AcDbEntity
  8
LAY-1
  6
CONTINUOUS
 62
     7
100
AcDbLine
 10
45.0
 20
28.75
 30
0.0
 11
500.0
 21
28.75
 31
0.0
  0
LINE
  5
85
100
AcDbEntity
  8
LAY-1
  6
CONTINUOUS
 62
     7
100
AcDbLine
 10
500.0
 20
28.75
 30
0.0
 11
500.0
 21
723.75
 31
0.0
  0
LINE
  5
86
100
AcDbEntity
  8
LAY-1
  6
CONTINUOUS
 62
     7
100
AcDbLine
 10
45.0
 20
28.75
 30
0.0
 11
45.0
 21
723.75
 31
0.0
  0
LINE
  5
87
100
AcDbEntity
  8
LAY-1
  6
CONTINUOUS
 62
     7
100
AcDbLine
 10
45.0
 20
83.75
 30
0.0
 11
500.0
 21
83.75
 31
0.0
  0
LINE
  5
88
100
AcDbEntity
  8
LAY-1
  6
CONTINUOUS
 62
     6
100
AcDbLine
 10
500.0
 20
53.75
 30
0.0
 11
187.5
 21
53.75
 31
0.0
  0
LINE
  5
89
100
AcDbEntity
  8
LAY-1
  6
CONTINUOUS
 62
     6
100
AcDbLine
 10
465.0
 20
83.75
 30
0.0
 11
465.0
 21
53.75
 31
0.0
  0
LINE
  5
8A
100
AcDbEntity
  8
LAY-1
  6
CONTINUOUS
 62
     6
100
AcDbLine
 10
452.5
 20
83.75
 30
0.0
 11
452.5
 21
53.75
 31
0.0
  0
LINE
  5
8B
100
AcDbEntity
  8
LAY-1
  6
CONTINUOUS
 62
     6
100
AcDbLine
 10
360.0
 20
83.75
 30
0.0
 11
360.0
 21
28.75
 31
0.0
  0
LINE
  5
8C
100
AcDbEntity
  8
LAY-1
  6
CONTINUOUS
 62
     6
100
AcDbLine
 10
347.5
 20
83.75
 30
0.0
 11
347.5
 21
28.75
 31
0.0
  0
LINE
  5
8D
100
AcDbEntity
  8
LAY-1
  6
CONTINUOUS
 62
     6
100
AcDbLine
 10
200.0
 20
83.75
 30
0.0
 11
200.0
 21
53.75
 31
0.0
  0
LINE
  5
8E
100
AcDbEntity
  8
LAY-1
  6
CONTINUOUS
 62
     6
100
AcDbLine
 10
187.5
 20
83.75
 30
0.0
 11
187.5
 21
28.75
 31
0.0
  0
LINE
  5
8F
100
AcDbEntity
  8
LAY-1
  6
CONTINUOUS
 62
     6
100
AcDbLine
 10
155.0
 20
83.75
 30
0.0
 11
155.0
 21
28.75
 31
0.0
  0
LINE
  5
90
100
AcDbEntity
  8
LAY-1
  6
CONTINUOUS
 62
     6
100
AcDbLine
 10
122.5
 20
83.75
 30
0.0
 11
122.5
 21
28.75
 31
0.0
  0
LINE
  5
91
100
AcDbEntity
  8
LAY-1
  6
CONTINUOUS
 62
     6
100
AcDbLine
 10
83.75
 20
83.75
 30
0.0
 11
83.75
 21
28.75
 31
0.0
  0
LINE
  5
92
100
AcDbEntity
  8
LAY-1
  6
CONTINUOUS
 62
     6
100
AcDbLine
 10
45.0
 20
71.25
 30
0.0
 11
187.5
 21
71.25
 31
0.0
  0
TEXT
  5
93
100
AcDbEntity
  8
LAY-1
  6
CONTINUOUS
 62
     2
100
AcDbText
 10
471.569824
 20
63.337212
 30
0.0
 40
10.0
  1
ＮＳ
 41
0.8925
  7
EXCADSTD
 72
     5
 11
491.047574
 21
63.337212
 31
0.0
100
AcDbText
  0
TEXT
  5
94
100
AcDbEntity
  8
LAY-1
  6
CONTINUOUS
 62
     2
100
AcDbText
 10
50.625
 20
72.1875
 30
0.0
 40
10.625
  1
製図
 41
1.087059
  7
EXCADSTD
 72
     5
 11
75.8315
 21
72.1875
 31
0.0
100
AcDbText
  0
TEXT
  5
95
100
AcDbEntity
  8
LAY-1
  6
CONTINUOUS
 62
     2
100
AcDbText
 10
89.375
 20
72.1875
 30
0.0
 40
10.625
  1
写図
 41
1.087059
  7
EXCADSTD
 72
     5
 11
114.5815
 21
72.1875
 31
0.0
100
AcDbText
  0
TEXT
  5
96
100
AcDbEntity
  8
LAY-1
  6
CONTINUOUS
 62
     2
100
AcDbText
 10
126.875
 20
72.1875
 30
0.0
 40
10.625
  1
検図
 41
0.938824
  7
EXCADSTD
 72
     5
 11
148.64425
 21
72.1875
 31
0.0
100
AcDbText
  0
TEXT
  5
97
100
AcDbEntity
  8
LAY-1
  6
CONTINUOUS
 62
     2
100
AcDbText
 10
159.375
 20
72.1875
 30
0.0
 40
10.625
  1
承認
 41
0.938824
  7
EXCADSTD
 72
     5
 11
181.14425
 21
72.1875
 31
0.0
100
AcDbText
  0
TEXT
  5
98
100
AcDbEntity
  8
LAY-1
  6
CONTINUOUS
 62
     2
100
AcDbText
 10
188.9375
 20
69.6875
 30
0.0
 40
10.625
  1
品
 41
0.84
  7
EXCADSTD
 72
     5
 11
197.4375
 21
69.6875
 31
0.0
100
AcDbText
  0
TEXT
  5
99
100
AcDbEntity
  8
LAY-1
  6
CONTINUOUS
 62
     2
100
AcDbText
 10
188.9375
 20
57.1875
 30
0.0
 40
10.625
  1
名
 41
0.84
  7
EXCADSTD
 72
     5
 11
197.4375
 21
57.1875
 31
0.0
100
AcDbText
  0
TEXT
  5
9A
100
AcDbEntity
  8
LAY-1
  6
CONTINUOUS
 62
     2
100
AcDbText
 10
348.9375
 20
69.6875
 30
0.0
 40
10.625
  1
品
 41
0.84
  7
EXCADSTD
 72
     5
 11
357.4375
 21
69.6875
 31
0.0
100
AcDbText
  0
TEXT
  5
9B
100
AcDbEntity
  8
LAY-1
  6
CONTINUOUS
 62
     2
100
AcDbText
 10
348.9375
 20
57.1875
 30
0.0
 40
10.625
  1
番
 41
0.84
  7
EXCADSTD
 72
     5
 11
357.4375
 21
57.1875
 31
0.0
100
AcDbText
  0
TEXT
  5
9C
100
AcDbEntity
  8
LAY-1
  6
CONTINUOUS
 62
     2
100
AcDbText
 10
454.1875
 20
69.6875
 30
0.0
 40
10.625
  1
尺
 41
0.84
  7
EXCADSTD
 72
     5
 11
462.6875
 21
69.6875
 31
0.0
100
AcDbText
  0
TEXT
  5
9D
100
AcDbEntity
  8
LAY-1
  6
CONTINUOUS
 62
     2
100
AcDbText
 10
454.1875
 20
57.1875
 30
0.0
 40
10.625
  1
度
 41
0.84
  7
EXCADSTD
 72
     5
 11
462.6875
 21
57.1875
 31
0.0
100
AcDbText
  0
TEXT
  5
9E
100
AcDbEntity
  8
LAY-1
  6
CONTINUOUS
 62
     2
100
AcDbText
 10
348.9375
 20
41.4375
 30
0.0
 40
10.625
  1
図
 41
0.84
  7
EXCADSTD
 72
     5
 11
357.4375
 21
41.4375
 31
0.0
100
AcDbText
  0
TEXT
  5
9F
100
AcDbEntity
  8
LAY-1
  6
CONTINUOUS
 62
     2
100
AcDbText
 10
348.9375
 20
30.6875
 30
0.0
 40
10.625
  1
番
 41
0.84
  7
EXCADSTD
 72
     5
 11
357.4375
 21
30.6875
 31
0.0
100
AcDbText
  0
LINE
  5
A0
100
AcDbEntity
  8
LAY-1
  6
CONTINUOUS
 62
     3
100
AcDbLine
 10
206.861938
 20
45.071999
 30
0.0
 11
204.846024
 21
45.071999
 31
0.0
  0
LINE
  5
A1
100
AcDbEntity
  8
LAY-1
  6
CONTINUOUS
 62
     3
100
AcDbLine
 10
206.861938
 20
47.08799
 30
0.0
 11
206.861938
 21
45.071999
 31
0.0
  0
LINE
  5
A2
100
AcDbEntity
  8
LAY-1
  6
CONTINUOUS
 62
     3
100
AcDbLine
 10
204.846024
 20
47.08799
 30
0.0
 11
206.861938
 21
47.08799
 31
0.0
  0
LINE
  5
A3
100
AcDbEntity
  8
LAY-1
  6
CONTINUOUS
 62
     3
100
AcDbLine
 10
204.846024
 20
47.08799
 30
0.0
 11
204.846024
 21
45.071999
 31
0.0
  0
LINE
  5
A4
100
AcDbEntity
  8
LAY-1
  6
CONTINUOUS
 62
     3
100
AcDbLine
 10
204.089798
 20
45.071999
 30
0.0
 11
202.073883
 21
45.071999
 31
0.0
  0
LINE
  5
A5
100
AcDbEntity
  8
LAY-1
  6
CONTINUOUS
 62
     3
100
AcDbLine
 10
204.089798
 20
47.08799
 30
0.0
 11
204.089798
 21
45.071999
 31
0.0
  0
LINE
  5
A6
100
AcDbEntity
  8
LAY-1
  6
CONTINUOUS
 62
     3
100
AcDbLine
 10
202.073883
 20
47.08799
 30
0.0
 11
204.089798
 21
47.08799
 31
0.0
  0
LINE
  5
A7
100
AcDbEntity
  8
LAY-1
  6
CONTINUOUS
 62
     3
100
AcDbLine
 10
202.073883
 20
47.08799
 30
0.0
 11
202.073883
 21
45.071999
 31
0.0
  0
LINE
  5
A8
100
AcDbEntity
  8
LAY-1
  6
CONTINUOUS
 62
     3
100
AcDbLine
 10
199.971832
 20
36.0
 30
0.0
 11
192.75
 21
36.0
 31
0.0
  0
ARC
  5
A9
100
AcDbEntity
  8
LAY-1
  6
CONTINUOUS
 62
     3
100
AcDbCircle
 10
199.971832
 20
40.536018
 30
0.0
 40
4.535999
100
AcDbArc
 50
270.000031
 51
334.000137
  0
LINE
  5
AA
100
AcDbEntity
  8
LAY-1
  6
CONTINUOUS
 62
     3
100
AcDbLine
 10
206.861938
 20
44.316002
 30
0.0
 11
204.048256
 21
38.547531
 31
0.0
  0
LINE
  5
AB
100
AcDbEntity
  8
LAY-1
  6
CONTINUOUS
 62
     3
100
AcDbLine
 10
203.778061
 20
44.316002
 30
0.0
 11
206.861938
 21
44.316002
 31
0.0
  0
LINE
  5
AC
100
AcDbEntity
  8
LAY-1
  6
CONTINUOUS
 62
     3
100
AcDbLine
 10
201.503243
 20
39.652267
 30
0.0
 11
203.778061
 21
44.316002
 31
0.0
  0
ARC
  5
AD
100
AcDbEntity
  8
LAY-1
  6
CONTINUOUS
 62
     3
100
AcDbCircle
 10
199.691376
 20
40.536018
 30
0.0
 40
2.016
100
AcDbArc
 50
270.000031
 51
333.99855
  0
LINE
  5
AE
100
AcDbEntity
  8
LAY-1
  6
CONTINUOUS
 62
     3
100
AcDbLine
 10
192.75
 20
38.519989
 30
0.0
 11
199.691376
 21
38.519989
 31
0.0
  0
LINE
  5
AF
100
AcDbEntity
  8
LAY-1
  6
CONTINUOUS
 62
     3
100
AcDbLine
 10
192.75
 20
38.519989
 30
0.0
 11
192.75
 21
36.0
 31
0.0
  0
LINE
  5
B0
100
AcDbEntity
  8
LAY-1
  6
CONTINUOUS
 62
     3
100
AcDbLine
 10
199.806236
 20
41.795975
 30
0.0
 11
192.75
 21
41.795975
 31
0.0
  0
LINE
  5
B1
100
AcDbEntity
  8
LAY-1
  6
CONTINUOUS
 62
     3
100
AcDbLine
 10
199.806236
 20
44.064003
 30
0.0
 11
199.806236
 21
41.795975
 31
0.0
  0
LINE
  5
B2
100
AcDbEntity
  8
LAY-1
  6
CONTINUOUS
 62
     3
100
AcDbLine
 10
192.75
 20
44.064003
 30
0.0
 11
199.806236
 21
44.064003
 31
0.0
  0
LINE
  5
B3
100
AcDbEntity
  8
LAY-1
  6
CONTINUOUS
 62
     3
100
AcDbLine
 10
192.75
 20
44.064003
 30
0.0
 11
192.75
 21
41.795975
 31
0.0
  0
LINE
  5
B4
100
AcDbEntity
  8
LAY-1
  6
CONTINUOUS
 62
     3
100
AcDbLine
 10
199.806236
 20
44.82
 30
0.0
 11
192.75
 21
44.82
 31
0.0
  0
LINE
  5
B5
100
AcDbEntity
  8
LAY-1
  6
CONTINUOUS
 62
     3
100
AcDbLine
 10
199.806236
 20
47.08799
 30
0.0
 11
199.806236
 21
44.82
 31
0.0
  0
LINE
  5
B6
100
AcDbEntity
  8
LAY-1
  6
CONTINUOUS
 62
     3
100
AcDbLine
 10
192.75
 20
47.08799
 30
0.0
 11
199.806236
 21
47.08799
 31
0.0
  0
LINE
  5
B7
100
AcDbEntity
  8
LAY-1
  6
CONTINUOUS
 62
     3
100
AcDbLine
 10
192.75
 20
47.08799
 30
0.0
 11
192.75
 21
44.82
 31
0.0
  0
LINE
  5
B8
100
AcDbEntity
  8
LAY-1
  6
CONTINUOUS
 62
     3
100
AcDbLine
 10
207.618164
 20
44.316002
 30
0.0
 11
207.618164
 21
42.551971
 31
0.0
  0
LINE
  5
B9
100
AcDbEntity
  8
LAY-1
  6
CONTINUOUS
 62
     3
100
AcDbLine
 10
207.618164
 20
44.316002
 30
0.0
 11
209.913506
 21
44.316002
 31
0.0
  0
LINE
  5
BA
100
AcDbEntity
  8
LAY-1
  6
CONTINUOUS
 62
     3
100
AcDbLine
 10
209.634079
 20
46.079994
 30
0.0
 11
209.913506
 21
44.316002
 31
0.0
  0
LINE
  5
BB
100
AcDbEntity
  8
LAY-1
  6
CONTINUOUS
 62
     3
100
AcDbLine
 10
209.634079
 20
46.079994
 30
0.0
 11
212.44059
 21
46.079994
 31
0.0
  0
LINE
  5
BC
100
AcDbEntity
  8
LAY-1
  6
CONTINUOUS
 62
     3
100
AcDbLine
 10
212.44059
 20
46.079994
 30
0.0
 11
212.719978
 21
44.316002
 31
0.0
  0
LINE
  5
BD
100
AcDbEntity
  8
LAY-1
  6
CONTINUOUS
 62
     3
100
AcDbLine
 10
212.719978
 20
44.316002
 30
0.0
 11
219.714188
 21
44.316002
 31
0.0
  0
LINE
  5
BE
100
AcDbEntity
  8
LAY-1
  6
CONTINUOUS
 62
     3
100
AcDbLine
 10
219.714188
 20
44.316002
 30
0.0
 11
218.243279
 21
41.012627
 31
0.0
  0
ARC
  5
BF
100
AcDbEntity
  8
LAY-1
  6
CONTINUOUS
 62
     3
100
AcDbCircle
 10
214.790253
 20
42.550102
 30
0.0
 40
3.780026
100
AcDbArc
 50
263.465775
 51
335.998779
  0
LINE
  5
C0
100
AcDbEntity
  8
LAY-1
  6
CONTINUOUS
 62
     3
100
AcDbLine
 10
214.359612
 20
38.794647
 30
0.0
 11
214.084267
 21
40.536018
 31
0.0
  0
ARC
  5
C1
100
AcDbEntity
  8
LAY-1
  6
CONTINUOUS
 62
     3
100
AcDbCircle
 10
214.014534
 20
42.048012
 30
0.0
 40
1.512001
100
AcDbArc
 50
272.623749
 51
336.006531
  0
LINE
  5
C2
100
AcDbEntity
  8
LAY-1
  6
CONTINUOUS
 62
     3
100
AcDbLine
 10
215.396256
 20
41.433006
 30
0.0
 11
215.894073
 21
42.551971
 31
0.0
  0
LINE
  5
C3
100
AcDbEntity
  8
LAY-1
  6
CONTINUOUS
 62
     3
100
AcDbLine
 10
215.894073
 20
42.551971
 30
0.0
 11
212.999405
 21
42.551971
 31
0.0
  0
LINE
  5
C4
100
AcDbEntity
  8
LAY-1
  6
CONTINUOUS
 62
     3
100
AcDbLine
 10
212.999405
 20
42.551971
 30
0.0
 11
214.037117
 21
36.0
 31
0.0
  0
LINE
  5
C5
100
AcDbEntity
  8
LAY-1
  6
CONTINUOUS
 62
     3
100
AcDbLine
 10
214.037117
 20
36.0
 30
0.0
 11
211.230606
 21
36.0
 31
0.0
  0
LINE
  5
C6
100
AcDbEntity
  8
LAY-1
  6
CONTINUOUS
 62
     3
100
AcDbLine
 10
211.230606
 20
36.0
 30
0.0
 11
210.192932
 21
42.551971
 31
0.0
  0
LINE
  5
C7
100
AcDbEntity
  8
LAY-1
  6
CONTINUOUS
 62
     3
100
AcDbLine
 10
210.192932
 20
42.551971
 30
0.0
 11
207.618164
 21
42.551971
 31
0.0
  0
LINE
  5
C8
100
AcDbEntity
  8
LAY-1
  6
CONTINUOUS
 62
     3
100
AcDbLine
 10
219.461922
 20
36.0
 30
0.0
 11
219.461922
 21
38.519989
 31
0.0
  0
LINE
  5
C9
100
AcDbEntity
  8
LAY-1
  6
CONTINUOUS
 62
     3
100
AcDbLine
 10
219.461922
 20
38.519989
 30
0.0
 11
233.57386
 21
38.519989
 31
0.0
  0
LINE
  5
CA
100
AcDbEntity
  8
LAY-1
  6
CONTINUOUS
 62
     3
100
AcDbLine
 10
233.57386
 20
38.519989
 30
0.0
 11
233.57386
 21
36.0
 31
0.0
  0
LINE
  5
CB
100
AcDbEntity
  8
LAY-1
  6
CONTINUOUS
 62
     3
100
AcDbLine
 10
233.57386
 20
36.0
 30
0.0
 11
219.461922
 21
36.0
 31
0.0
  0
LINE
  5
CC
100
AcDbEntity
  8
LAY-1
  6
CONTINUOUS
 62
     3
100
AcDbLine
 10
220.469879
 20
47.08799
 30
0.0
 11
220.469879
 21
44.568001
 31
0.0
  0
LINE
  5
CD
100
AcDbEntity
  8
LAY-1
  6
CONTINUOUS
 62
     3
100
AcDbLine
 10
220.469879
 20
47.08799
 30
0.0
 11
232.565903
 21
47.08799
 31
0.0
  0
LINE
  5
CE
100
AcDbEntity
  8
LAY-1
  6
CONTINUOUS
 62
     3
100
AcDbLine
 10
232.565903
 20
47.08799
 30
0.0
 11
232.565903
 21
44.568001
 31
0.0
  0
LINE
  5
CF
100
AcDbEntity
  8
LAY-1
  6
CONTINUOUS
 62
     3
100
AcDbLine
 10
232.565903
 20
44.568001
 30
0.0
 11
220.469879
 21
44.568001
 31
0.0
  0
LINE
  5
D0
100
AcDbEntity
  8
LAY-1
  6
CONTINUOUS
 62
     3
100
AcDbLine
 10
235.338043
 20
47.08799
 30
0.0
 11
235.338043
 21
44.568001
 31
0.0
  0
LINE
  5
D1
100
AcDbEntity
  8
LAY-1
  6
CONTINUOUS
 62
     3
100
AcDbLine
 10
235.338043
 20
47.08799
 30
0.0
 11
248.442024
 21
47.08799
 31
0.0
  0
LINE
  5
D2
100
AcDbEntity
  8
LAY-1
  6
CONTINUOUS
 62
     3
100
AcDbLine
 10
248.442024
 20
47.08799
 30
0.0
 11
244.512733
 21
41.679741
 31
0.0
  0
LINE
  5
D3
100
AcDbEntity
  8
LAY-1
  6
CONTINUOUS
 62
     3
100
AcDbLine
 10
244.512733
 20
41.679741
 30
0.0
 11
249.449982
 21
36.0
 31
0.0
  0
LINE
  5
D4
100
AcDbEntity
  8
LAY-1
  6
CONTINUOUS
 62
     3
100
AcDbLine
 10
249.449982
 20
36.0
 30
0.0
 11
245.777039
 21
36.0
 31
0.0
  0
LINE
  5
D5
100
AcDbEntity
  8
LAY-1
  6
CONTINUOUS
 62
     3
100
AcDbLine
 10
245.777039
 20
36.0
 30
0.0
 11
242.840332
 21
39.378181
 31
0.0
  0
LINE
  5
D6
100
AcDbEntity
  8
LAY-1
  6
CONTINUOUS
 62
     3
100
AcDbLine
 10
242.840332
 20
39.378181
 30
0.0
 11
241.744713
 21
37.869812
 31
0.0
  0
ARC
  5
D7
100
AcDbEntity
  8
LAY-1
  6
CONTINUOUS
 62
     3
100
AcDbCircle
 10
238.074821
 20
40.536018
 30
0.0
 40
4.535999
100
AcDbArc
 50
270.000031
 51
324.00116
  0
LINE
  5
D8
100
AcDbEntity
  8
LAY-1
  6
CONTINUOUS
 62
     3
100
AcDbLine
 10
238.074821
 20
36.0
 30
0.0
 11
234.330086
 21
36.0
 31
0.0
  0
LINE
  5
D9
100
AcDbEntity
  8
LAY-1
  6
CONTINUOUS
 62
     3
100
AcDbLine
 10
234.330086
 20
36.0
 30
0.0
 11
234.330086
 21
38.519989
 31
0.0
  0
LINE
  5
DA
100
AcDbEntity
  8
LAY-1
  6
CONTINUOUS
 62
     3
100
AcDbLine
 10
234.330086
 20
38.519989
 30
0.0
 11
237.506775
 21
38.519989
 31
0.0
  0
ARC
  5
DB
100
AcDbEntity
  8
LAY-1
  6
CONTINUOUS
 62
     3
100
AcDbCircle
 10
237.506775
 20
41.039978
 30
0.0
 40
2.519999
100
AcDbArc
 50
270.000031
 51
323.996597
  0
LINE
  5
DC
100
AcDbEntity
  8
LAY-1
  6
CONTINUOUS
 62
     3
100
AcDbLine
 10
239.545235
 20
39.558769
 30
0.0
 11
243.184876
 21
44.568001
 31
0.0
  0
LINE
  5
DD
100
AcDbEntity
  8
LAY-1
  6
CONTINUOUS
 62
     3
100
AcDbLine
 10
243.184876
 20
44.568001
 30
0.0
 11
235.338043
 21
44.568001
 31
0.0
  0
LINE
  5
DE
100
AcDbEntity
  8
LAY-1
  6
CONTINUOUS
 62
     3
100
AcDbLine
 10
252.473892
 20
47.08799
 30
0.0
 11
252.473892
 21
45.323997
 31
0.0
  0
LINE
  5
DF
100
AcDbEntity
  8
LAY-1
  6
CONTINUOUS
 62
     3
100
AcDbLine
 10
252.473892
 20
47.08799
 30
0.0
 11
265.577835
 21
47.08799
 31
0.0
  0
LINE
  5
E0
100
AcDbEntity
  8
LAY-1
  6
CONTINUOUS
 62
     3
100
AcDbLine
 10
265.577835
 20
47.08799
 30
0.0
 11
265.577835
 21
45.323997
 31
0.0
  0
LINE
  5
E1
100
AcDbEntity
  8
LAY-1
  6
CONTINUOUS
 62
     3
100
AcDbLine
 10
265.577835
 20
45.323997
 30
0.0
 11
260.411934
 21
45.323997
 31
0.0
  0
LINE
  5
E2
100
AcDbEntity
  8
LAY-1
  6
CONTINUOUS
 62
     3
100
AcDbLine
 10
260.411934
 20
45.323997
 30
0.0
 11
260.411934
 21
38.016029
 31
0.0
  0
LINE
  5
E3
100
AcDbEntity
  8
LAY-1
  6
CONTINUOUS
 62
     3
100
AcDbLine
 10
260.411934
 20
38.016029
 30
0.0
 11
266.081833
 21
38.016029
 31
0.0
  0
LINE
  5
E4
100
AcDbEntity
  8
LAY-1
  6
CONTINUOUS
 62
     3
100
AcDbLine
 10
266.081833
 20
38.016029
 30
0.0
 11
266.081833
 21
36.0
 31
0.0
  0
LINE
  5
E5
100
AcDbEntity
  8
LAY-1
  6
CONTINUOUS
 62
     3
100
AcDbLine
 10
266.081833
 20
36.0
 30
0.0
 11
251.969894
 21
36.0
 31
0.0
  0
LINE
  5
E6
100
AcDbEntity
  8
LAY-1
  6
CONTINUOUS
 62
     3
100
AcDbLine
 10
251.969894
 20
36.0
 30
0.0
 11
251.969894
 21
38.016029
 31
0.0
  0
LINE
  5
E7
100
AcDbEntity
  8
LAY-1
  6
CONTINUOUS
 62
     3
100
AcDbLine
 10
251.969894
 20
38.016029
 30
0.0
 11
257.639793
 21
38.016029
 31
0.0
  0
LINE
  5
E8
100
AcDbEntity
  8
LAY-1
  6
CONTINUOUS
 62
     3
100
AcDbLine
 10
257.639793
 20
38.016029
 30
0.0
 11
257.639793
 21
45.323997
 31
0.0
  0
LINE
  5
E9
100
AcDbEntity
  8
LAY-1
  6
CONTINUOUS
 62
     3
100
AcDbLine
 10
257.639793
 20
45.323997
 30
0.0
 11
252.473892
 21
45.323997
 31
0.0
  0
LINE
  5
EA
100
AcDbEntity
  8
LAY-1
  6
CONTINUOUS
 62
     3
100
AcDbLine
 10
266.334061
 20
45.575996
 30
0.0
 11
266.334061
 21
44.416786
 31
0.0
  0
LINE
  5
EB
100
AcDbEntity
  8
LAY-1
  6
CONTINUOUS
 62
     3
100
AcDbLine
 10
266.334061
 20
45.575996
 30
0.0
 11
268.523277
 21
45.575996
 31
0.0
  0
LINE
  5
EC
100
AcDbEntity
  8
LAY-1
  6
CONTINUOUS
 62
     3
100
AcDbLine
 10
268.523277
 20
45.575996
 30
0.0
 11
267.342056
 21
47.08799
 31
0.0
  0
LINE
  5
ED
100
AcDbEntity
  8
LAY-1
  6
CONTINUOUS
 62
     3
100
AcDbLine
 10
267.342056
 20
47.08799
 30
0.0
 11
269.580483
 21
47.08799
 31
0.0
  0
LINE
  5
EE
100
AcDbEntity
  8
LAY-1
  6
CONTINUOUS
 62
     3
100
AcDbLine
 10
269.580483
 20
47.08799
 30
0.0
 11
270.761704
 21
45.575996
 31
0.0
  0
LINE
  5
EF
100
AcDbEntity
  8
LAY-1
  6
CONTINUOUS
 62
     3
100
AcDbLine
 10
270.761704
 20
45.575996
 30
0.0
 11
271.248268
 21
45.575996
 31
0.0
  0
LINE
  5
F0
100
AcDbEntity
  8
LAY-1
  6
CONTINUOUS
 62
     3
100
AcDbLine
 10
271.248268
 20
45.575996
 30
0.0
 11
271.248268
 21
47.08799
 31
0.0
  0
LINE
  5
F1
100
AcDbEntity
  8
LAY-1
  6
CONTINUOUS
 62
     3
100
AcDbLine
 10
271.248268
 20
47.08799
 30
0.0
 11
273.011917
 21
47.08799
 31
0.0
  0
LINE
  5
F2
100
AcDbEntity
  8
LAY-1
  6
CONTINUOUS
 62
     3
100
AcDbLine
 10
273.011917
 20
47.08799
 30
0.0
 11
273.011917
 21
45.575996
 31
0.0
  0
LINE
  5
F3
100
AcDbEntity
  8
LAY-1
  6
CONTINUOUS
 62
     3
100
AcDbLine
 10
273.011917
 20
45.575996
 30
0.0
 11
273.768143
 21
45.575996
 31
0.0
  0
LINE
  5
F4
100
AcDbEntity
  8
LAY-1
  6
CONTINUOUS
 62
     3
100
AcDbLine
 10
273.768143
 20
45.575996
 30
0.0
 11
273.768143
 21
47.08799
 31
0.0
  0
LINE
  5
F5
100
AcDbEntity
  8
LAY-1
  6
CONTINUOUS
 62
     3
100
AcDbLine
 10
273.768143
 20
47.08799
 30
0.0
 11
275.53183
 21
47.08799
 31
0.0
  0
LINE
  5
F6
100
AcDbEntity
  8
LAY-1
  6
CONTINUOUS
 62
     3
100
AcDbLine
 10
275.53183
 20
47.08799
 30
0.0
 11
275.53183
 21
45.575996
 31
0.0
  0
LINE
  5
F7
100
AcDbEntity
  8
LAY-1
  6
CONTINUOUS
 62
     3
100
AcDbLine
 10
275.53183
 20
45.575996
 30
0.0
 11
276.018394
 21
45.575996
 31
0.0
  0
LINE
  5
F8
100
AcDbEntity
  8
LAY-1
  6
CONTINUOUS
 62
     3
100
AcDbLine
 10
276.018394
 20
45.575996
 30
0.0
 11
277.199615
 21
47.08799
 31
0.0
  0
LINE
  5
F9
100
AcDbEntity
  8
LAY-1
  6
CONTINUOUS
 62
     3
100
AcDbLine
 10
277.199615
 20
47.08799
 30
0.0
 11
279.438042
 21
47.08799
 31
0.0
  0
LINE
  5
FA
100
AcDbEntity
  8
LAY-1
  6
CONTINUOUS
 62
     3
100
AcDbLine
 10
279.438042
 20
47.08799
 30
0.0
 11
278.256821
 21
45.575996
 31
0.0
  0
LINE
  5
FB
100
AcDbEntity
  8
LAY-1
  6
CONTINUOUS
 62
     3
100
AcDbLine
 10
278.256821
 20
45.575996
 30
0.0
 11
280.445999
 21
45.575996
 31
0.0
  0
LINE
  5
FC
100
AcDbEntity
  8
LAY-1
  6
CONTINUOUS
 62
     3
100
AcDbLine
 10
280.445999
 20
45.575996
 30
0.0
 11
280.445999
 21
44.416786
 31
0.0
  0
LINE
  5
FD
100
AcDbEntity
  8
LAY-1
  6
CONTINUOUS
 62
     3
100
AcDbLine
 10
280.445999
 20
44.416786
 30
0.0
 11
277.790245
 21
44.416786
 31
0.0
  0
LINE
  5
FE
100
AcDbEntity
  8
LAY-1
  6
CONTINUOUS
 62
     3
100
AcDbLine
 10
277.790245
 20
44.416786
 30
0.0
 11
277.331909
 21
43.15683
 31
0.0
  0
LINE
  5
FF
100
AcDbEntity
  8
LAY-1
  6
CONTINUOUS
 62
     3
100
AcDbLine
 10
277.331909
 20
43.15683
 30
0.0
 11
280.445999
 21
43.15683
 31
0.0
  0
LINE
  5
100
100
AcDbEntity
  8
LAY-1
  6
CONTINUOUS
 62
     3
100
AcDbLine
 10
280.445999
 20
43.15683
 30
0.0
 11
280.445999
 21
41.99762
 31
0.0
  0
LINE
  5
101
100
AcDbEntity
  8
LAY-1
  6
CONTINUOUS
 62
     3
100
AcDbLine
 10
280.445999
 20
41.99762
 30
0.0
 11
274.649986
 21
41.99762
 31
0.0
  0
LINE
  5
102
100
AcDbEntity
  8
LAY-1
  6
CONTINUOUS
 62
     3
100
AcDbLine
 10
274.649986
 20
41.99762
 30
0.0
 11
274.649986
 21
41.418015
 31
0.0
  0
LINE
  5
103
100
AcDbEntity
  8
LAY-1
  6
CONTINUOUS
 62
     3
100
AcDbLine
 10
274.649986
 20
41.418015
 30
0.0
 11
280.445999
 21
41.418015
 31
0.0
  0
LINE
  5
104
100
AcDbEntity
  8
LAY-1
  6
CONTINUOUS
 62
     3
100
AcDbLine
 10
280.445999
 20
41.418015
 30
0.0
 11
280.445999
 21
40.258804
 31
0.0
  0
LINE
  5
105
100
AcDbEntity
  8
LAY-1
  6
CONTINUOUS
 62
     3
100
AcDbLine
 10
280.445999
 20
40.258804
 30
0.0
 11
274.649986
 21
40.258804
 31
0.0
  0
LINE
  5
106
100
AcDbEntity
  8
LAY-1
  6
CONTINUOUS
 62
     3
100
AcDbLine
 10
274.649986
 20
40.258804
 30
0.0
 11
274.649986
 21
39.679199
 31
0.0
  0
LINE
  5
107
100
AcDbEntity
  8
LAY-1
  6
CONTINUOUS
 62
     3
100
AcDbLine
 10
274.649986
 20
39.679199
 30
0.0
 11
280.445999
 21
39.679199
 31
0.0
  0
LINE
  5
108
100
AcDbEntity
  8
LAY-1
  6
CONTINUOUS
 62
     3
100
AcDbLine
 10
280.445999
 20
39.679199
 30
0.0
 11
280.445999
 21
38.519989
 31
0.0
  0
LINE
  5
109
100
AcDbEntity
  8
LAY-1
  6
CONTINUOUS
 62
     3
100
AcDbLine
 10
280.445999
 20
38.519989
 30
0.0
 11
277.65696
 21
38.519989
 31
0.0
  0
LINE
  5
10A
100
AcDbEntity
  8
LAY-1
  6
CONTINUOUS
 62
     3
100
AcDbLine
 10
277.65696
 20
38.519989
 30
0.0
 11
280.445999
 21
36.0
 31
0.0
  0
LINE
  5
10B
100
AcDbEntity
  8
LAY-1
  6
CONTINUOUS
 62
     3
100
AcDbLine
 10
280.445999
 20
36.0
 30
0.0
 11
277.439064
 21
36.0
 31
0.0
  0
LINE
  5
10C
100
AcDbEntity
  8
LAY-1
  6
CONTINUOUS
 62
     3
100
AcDbLine
 10
277.439064
 20
36.0
 30
0.0
 11
274.649986
 21
38.519989
 31
0.0
  0
LINE
  5
10D
100
AcDbEntity
  8
LAY-1
  6
CONTINUOUS
 62
     3
100
AcDbLine
 10
274.649986
 20
38.519989
 30
0.0
 11
274.649986
 21
36.0
 31
0.0
  0
LINE
  5
10E
100
AcDbEntity
  8
LAY-1
  6
CONTINUOUS
 62
     3
100
AcDbLine
 10
274.649986
 20
36.0
 30
0.0
 11
272.130112
 21
36.0
 31
0.0
  0
LINE
  5
10F
100
AcDbEntity
  8
LAY-1
  6
CONTINUOUS
 62
     3
100
AcDbLine
 10
272.130112
 20
36.0
 30
0.0
 11
272.130112
 21
38.519989
 31
0.0
  0
LINE
  5
110
100
AcDbEntity
  8
LAY-1
  6
CONTINUOUS
 62
     3
100
AcDbLine
 10
272.130112
 20
38.519989
 30
0.0
 11
269.341034
 21
36.0
 31
0.0
  0
LINE
  5
111
100
AcDbEntity
  8
LAY-1
  6
CONTINUOUS
 62
     3
100
AcDbLine
 10
269.341034
 20
36.0
 30
0.0
 11
266.334061
 21
36.0
 31
0.0
  0
LINE
  5
112
100
AcDbEntity
  8
LAY-1
  6
CONTINUOUS
 62
     3
100
AcDbLine
 10
266.334061
 20
36.0
 30
0.0
 11
269.123138
 21
38.519989
 31
0.0
  0
LINE
  5
113
100
AcDbEntity
  8
LAY-1
  6
CONTINUOUS
 62
     3
100
AcDbLine
 10
269.123138
 20
38.519989
 30
0.0
 11
266.334061
 21
38.519989
 31
0.0
  0
LINE
  5
114
100
AcDbEntity
  8
LAY-1
  6
CONTINUOUS
 62
     3
100
AcDbLine
 10
266.334061
 20
38.519989
 30
0.0
 11
266.334061
 21
39.679199
 31
0.0
  0
LINE
  5
115
100
AcDbEntity
  8
LAY-1
  6
CONTINUOUS
 62
     3
100
AcDbLine
 10
266.334061
 20
39.679199
 30
0.0
 11
272.130112
 21
39.679199
 31
0.0
  0
LINE
  5
116
100
AcDbEntity
  8
LAY-1
  6
CONTINUOUS
 62
     3
100
AcDbLine
 10
272.130112
 20
39.679199
 30
0.0
 11
272.130112
 21
40.258804
 31
0.0
  0
LINE
  5
117
100
AcDbEntity
  8
LAY-1
  6
CONTINUOUS
 62
     3
100
AcDbLine
 10
272.130112
 20
40.258804
 30
0.0
 11
266.334061
 21
40.258804
 31
0.0
  0
LINE
  5
118
100
AcDbEntity
  8
LAY-1
  6
CONTINUOUS
 62
     3
100
AcDbLine
 10
266.334061
 20
40.258804
 30
0.0
 11
266.334061
 21
41.418015
 31
0.0
  0
LINE
  5
119
100
AcDbEntity
  8
LAY-1
  6
CONTINUOUS
 62
     3
100
AcDbLine
 10
266.334061
 20
41.418015
 30
0.0
 11
272.130112
 21
41.418015
 31
0.0
  0
LINE
  5
11A
100
AcDbEntity
  8
LAY-1
  6
CONTINUOUS
 62
     3
100
AcDbLine
 10
272.130112
 20
41.418015
 30
0.0
 11
272.130112
 21
41.99762
 31
0.0
  0
LINE
  5
11B
100
AcDbEntity
  8
LAY-1
  6
CONTINUOUS
 62
     3
100
AcDbLine
 10
272.130112
 20
41.99762
 30
0.0
 11
266.334061
 21
41.99762
 31
0.0
  0
LINE
  5
11C
100
AcDbEntity
  8
LAY-1
  6
CONTINUOUS
 62
     3
100
AcDbLine
 10
266.334061
 20
41.99762
 30
0.0
 11
266.334061
 21
43.15683
 31
0.0
  0
LINE
  5
11D
100
AcDbEntity
  8
LAY-1
  6
CONTINUOUS
 62
     3
100
AcDbLine
 10
266.334061
 20
43.15683
 30
0.0
 11
269.448189
 21
43.15683
 31
0.0
  0
LINE
  5
11E
100
AcDbEntity
  8
LAY-1
  6
CONTINUOUS
 62
     3
100
AcDbLine
 10
269.448189
 20
43.15683
 30
0.0
 11
268.989853
 21
44.416786
 31
0.0
  0
LINE
  5
11F
100
AcDbEntity
  8
LAY-1
  6
CONTINUOUS
 62
     3
100
AcDbLine
 10
268.989853
 20
44.416786
 30
0.0
 11
266.334061
 21
44.416786
 31
0.0
  0
LINE
  5
120
100
AcDbEntity
  8
LAY-1
  6
CONTINUOUS
 62
     3
100
AcDbLine
 10
271.671242
 20
44.416786
 30
0.0
 11
275.108856
 21
44.416786
 31
0.0
  0
LINE
  5
121
100
AcDbEntity
  8
LAY-1
  6
CONTINUOUS
 62
     3
100
AcDbLine
 10
275.108856
 20
44.416786
 30
0.0
 11
274.649986
 21
43.15683
 31
0.0
  0
LINE
  5
122
100
AcDbEntity
  8
LAY-1
  6
CONTINUOUS
 62
     3
100
AcDbLine
 10
274.649986
 20
43.15683
 30
0.0
 11
272.130112
 21
43.15683
 31
0.0
  0
LINE
  5
123
100
AcDbEntity
  8
LAY-1
  6
CONTINUOUS
 62
     3
100
AcDbLine
 10
272.130112
 20
43.15683
 30
0.0
 11
271.671242
 21
44.416786
 31
0.0
  0
LINE
  5
124
100
AcDbEntity
  8
LAY-1
  6
CONTINUOUS
 62
     3
100
AcDbLine
 10
287.314095
 20
47.08799
 30
0.0
 11
286.497368
 21
43.812004
 31
0.0
  0
LINE
  5
125
100
AcDbEntity
  8
LAY-1
  6
CONTINUOUS
 62
     3
100
AcDbLine
 10
287.314095
 20
47.08799
 30
0.0
 11
289.392036
 21
47.08799
 31
0.0
  0
LINE
  5
126
100
AcDbEntity
  8
LAY-1
  6
CONTINUOUS
 62
     3
100
AcDbLine
 10
289.392036
 20
47.08799
 30
0.0
 11
289.077744
 21
45.827995
 31
0.0
  0
LINE
  5
127
100
AcDbEntity
  8
LAY-1
  6
CONTINUOUS
 62
     3
100
AcDbLine
 10
289.077744
 20
45.827995
 30
0.0
 11
289.896034
 21
45.827995
 31
0.0
  0
LINE
  5
128
100
AcDbEntity
  8
LAY-1
  6
CONTINUOUS
 62
     3
100
AcDbLine
 10
289.896034
 20
45.827995
 30
0.0
 11
289.896034
 21
47.08799
 31
0.0
  0
LINE
  5
129
100
AcDbEntity
  8
LAY-1
  6
CONTINUOUS
 62
     3
100
AcDbLine
 10
289.896034
 20
47.08799
 30
0.0
 11
292.164177
 21
47.08799
 31
0.0
  0
LINE
  5
12A
100
AcDbEntity
  8
LAY-1
  6
CONTINUOUS
 62
     3
100
AcDbLine
 10
292.164177
 20
47.08799
 30
0.0
 11
292.164177
 21
45.827995
 31
0.0
  0
LINE
  5
12B
100
AcDbEntity
  8
LAY-1
  6
CONTINUOUS
 62
     3
100
AcDbLine
 10
292.164177
 20
45.827995
 30
0.0
 11
295.061935
 21
45.827995
 31
0.0
  0
LINE
  5
12C
100
AcDbEntity
  8
LAY-1
  6
CONTINUOUS
 62
     3
100
AcDbLine
 10
295.061935
 20
45.827995
 30
0.0
 11
295.061935
 21
44.568001
 31
0.0
  0
LINE
  5
12D
100
AcDbEntity
  8
LAY-1
  6
CONTINUOUS
 62
     3
100
AcDbLine
 10
292.164177
 20
44.568001
 30
0.0
 11
295.061935
 21
44.568001
 31
0.0
  0
LINE
  5
12E
100
AcDbEntity
  8
LAY-1
  6
CONTINUOUS
 62
     3
100
AcDbLine
 10
292.164177
 20
44.568001
 30
0.0
 11
292.164177
 21
43.308006
 31
0.0
  0
LINE
  5
12F
100
AcDbEntity
  8
LAY-1
  6
CONTINUOUS
 62
     3
100
AcDbLine
 10
292.164177
 20
43.308006
 30
0.0
 11
295.314163
 21
43.308006
 31
0.0
  0
LINE
  5
130
100
AcDbEntity
  8
LAY-1
  6
CONTINUOUS
 62
     3
100
AcDbLine
 10
295.314163
 20
43.308006
 30
0.0
 11
295.314163
 21
42.048012
 31
0.0
  0
LINE
  5
131
100
AcDbEntity
  8
LAY-1
  6
CONTINUOUS
 62
     3
100
AcDbLine
 10
295.314163
 20
42.048012
 30
0.0
 11
294.212898
 21
42.048012
 31
0.0
  0
LINE
  5
132
100
AcDbEntity
  8
LAY-1
  6
CONTINUOUS
 62
     3
100
AcDbLine
 10
294.212898
 20
42.048012
 30
0.0
 11
295.314163
 21
36.0
 31
0.0
  0
LINE
  5
133
100
AcDbEntity
  8
LAY-1
  6
CONTINUOUS
 62
     3
100
AcDbLine
 10
295.314163
 20
36.0
 30
0.0
 11
293.264946
 21
36.0
 31
0.0
  0
LINE
  5
134
100
AcDbEntity
  8
LAY-1
  6
CONTINUOUS
 62
     3
100
AcDbLine
 10
293.264946
 20
36.0
 30
0.0
 11
292.164177
 21
42.047935
 31
0.0
  0
LINE
  5
135
100
AcDbEntity
  8
LAY-1
  6
CONTINUOUS
 62
     3
100
AcDbLine
 10
292.164177
 20
42.047935
 30
0.0
 11
292.164177
 21
36.0
 31
0.0
  0
LINE
  5
136
100
AcDbEntity
  8
LAY-1
  6
CONTINUOUS
 62
     3
100
AcDbLine
 10
292.164177
 20
36.0
 30
0.0
 11
289.896034
 21
36.0
 31
0.0
  0
LINE
  5
137
100
AcDbEntity
  8
LAY-1
  6
CONTINUOUS
 62
     3
100
AcDbLine
 10
289.896034
 20
36.0
 30
0.0
 11
289.896034
 21
42.048012
 31
0.0
  0
LINE
  5
138
100
AcDbEntity
  8
LAY-1
  6
CONTINUOUS
 62
     3
100
AcDbLine
 10
289.896034
 20
42.048012
 30
0.0
 11
288.795265
 21
36.0
 31
0.0
  0
LINE
  5
139
100
AcDbEntity
  8
LAY-1
  6
CONTINUOUS
 62
     3
100
AcDbLine
 10
288.795265
 20
36.0
 30
0.0
 11
286.74601
 21
36.0
 31
0.0
  0
LINE
  5
13A
100
AcDbEntity
  8
LAY-1
  6
CONTINUOUS
 62
     3
100
AcDbLine
 10
286.74601
 20
36.0
 30
0.0
 11
287.846779
 21
42.048012
 31
0.0
  0
LINE
  5
13B
100
AcDbEntity
  8
LAY-1
  6
CONTINUOUS
 62
     3
100
AcDbLine
 10
287.846779
 20
42.048012
 30
0.0
 11
286.74601
 21
42.048012
 31
0.0
  0
LINE
  5
13C
100
AcDbEntity
  8
LAY-1
  6
CONTINUOUS
 62
     3
100
AcDbLine
 10
286.74601
 20
42.048012
 30
0.0
 11
286.74601
 21
43.308006
 31
0.0
  0
LINE
  5
13D
100
AcDbEntity
  8
LAY-1
  6
CONTINUOUS
 62
     3
100
AcDbLine
 10
286.74601
 20
43.308006
 30
0.0
 11
289.896034
 21
43.308006
 31
0.0
  0
LINE
  5
13E
100
AcDbEntity
  8
LAY-1
  6
CONTINUOUS
 62
     3
100
AcDbLine
 10
289.896034
 20
43.308006
 30
0.0
 11
289.896034
 21
44.568001
 31
0.0
  0
LINE
  5
13F
100
AcDbEntity
  8
LAY-1
  6
CONTINUOUS
 62
     3
100
AcDbLine
 10
289.896034
 20
44.568001
 30
0.0
 11
288.763489
 21
44.568001
 31
0.0
  0
LINE
  5
140
100
AcDbEntity
  8
LAY-1
  6
CONTINUOUS
 62
     3
100
AcDbLine
 10
288.763489
 20
44.568001
 30
0.0
 11
288.57531
 21
43.812004
 31
0.0
  0
LINE
  5
141
100
AcDbEntity
  8
LAY-1
  6
CONTINUOUS
 62
     3
100
AcDbLine
 10
288.57531
 20
43.812004
 30
0.0
 11
286.497368
 21
43.812004
 31
0.0
  0
LINE
  5
142
100
AcDbEntity
  8
LAY-1
  6
CONTINUOUS
 62
     3
100
AcDbLine
 10
280.949997
 20
45.827995
 30
0.0
 11
280.949997
 21
44.568001
 31
0.0
  0
LINE
  5
143
100
AcDbEntity
  8
LAY-1
  6
CONTINUOUS
 62
     3
100
AcDbLine
 10
280.949997
 20
45.827995
 30
0.0
 11
283.46991
 21
45.827995
 31
0.0
  0
LINE
  5
144
100
AcDbEntity
  8
LAY-1
  6
CONTINUOUS
 62
     3
100
AcDbLine
 10
283.46991
 20
45.827995
 30
0.0
 11
283.46991
 21
47.08799
 31
0.0
  0
LINE
  5
145
100
AcDbEntity
  8
LAY-1
  6
CONTINUOUS
 62
     3
100
AcDbLine
 10
283.46991
 20
47.08799
 30
0.0
 11
285.738052
 21
47.08799
 31
0.0
  0
LINE
  5
146
100
AcDbEntity
  8
LAY-1
  6
CONTINUOUS
 62
     3
100
AcDbLine
 10
285.738052
 20
47.08799
 30
0.0
 11
285.738052
 21
45.827995
 31
0.0
  0
LINE
  5
147
100
AcDbEntity
  8
LAY-1
  6
CONTINUOUS
 62
     3
100
AcDbLine
 10
285.738052
 20
45.827995
 30
0.0
 11
286.493782
 21
45.827995
 31
0.0
  0
LINE
  5
148
100
AcDbEntity
  8
LAY-1
  6
CONTINUOUS
 62
     3
100
AcDbLine
 10
286.493782
 20
45.827995
 30
0.0
 11
286.493782
 21
44.568001
 31
0.0
  0
LINE
  5
149
100
AcDbEntity
  8
LAY-1
  6
CONTINUOUS
 62
     3
100
AcDbLine
 10
286.493782
 20
44.568001
 30
0.0
 11
285.738052
 21
44.568001
 31
0.0
  0
LINE
  5
14A
100
AcDbEntity
  8
LAY-1
  6
CONTINUOUS
 62
     3
100
AcDbLine
 10
285.738052
 20
44.568001
 30
0.0
 11
286.493782
 21
43.527504
 31
0.0
  0
LINE
  5
14B
100
AcDbEntity
  8
LAY-1
  6
CONTINUOUS
 62
     3
100
AcDbLine
 10
286.493782
 20
43.527504
 30
0.0
 11
286.493782
 21
40.955177
 31
0.0
  0
LINE
  5
14C
100
AcDbEntity
  8
LAY-1
  6
CONTINUOUS
 62
     3
100
AcDbLine
 10
286.493782
 20
40.955177
 30
0.0
 11
285.738052
 21
41.995712
 31
0.0
  0
LINE
  5
14D
100
AcDbEntity
  8
LAY-1
  6
CONTINUOUS
 62
     3
100
AcDbLine
 10
285.738052
 20
41.995712
 30
0.0
 11
285.738052
 21
36.0
 31
0.0
  0
LINE
  5
14E
100
AcDbEntity
  8
LAY-1
  6
CONTINUOUS
 62
     3
100
AcDbLine
 10
285.738052
 20
36.0
 30
0.0
 11
283.46991
 21
36.0
 31
0.0
  0
LINE
  5
14F
100
AcDbEntity
  8
LAY-1
  6
CONTINUOUS
 62
     3
100
AcDbLine
 10
283.46991
 20
36.0
 30
0.0
 11
283.46991
 21
44.568001
 31
0.0
  0
LINE
  5
150
100
AcDbEntity
  8
LAY-1
  6
CONTINUOUS
 62
     3
100
AcDbLine
 10
283.370956
 20
44.568001
 30
0.0
 11
282.470154
 21
36.0
 31
0.0
  0
LINE
  5
151
100
AcDbEntity
  8
LAY-1
  6
CONTINUOUS
 62
     3
100
AcDbLine
 10
282.470154
 20
36.0
 30
0.0
 11
280.949997
 21
36.0
 31
0.0
  0
LINE
  5
152
100
AcDbEntity
  8
LAY-1
  6
CONTINUOUS
 62
     3
100
AcDbLine
 10
280.949997
 20
36.0
 30
0.0
 11
281.8508
 21
44.568001
 31
0.0
  0
LINE
  5
153
100
AcDbEntity
  8
LAY-1
  6
CONTINUOUS
 62
     3
100
AcDbLine
 10
281.8508
 20
44.568001
 30
0.0
 11
280.949997
 21
44.568001
 31
0.0
  0
LINE
  5
154
100
AcDbEntity
  8
LAY-1
  6
CONTINUOUS
 62
     3
100
AcDbLine
 10
296.573891
 20
43.056007
 30
0.0
 11
296.573891
 21
41.544014
 31
0.0
  0
LINE
  5
155
100
AcDbEntity
  8
LAY-1
  6
CONTINUOUS
 62
     3
100
AcDbLine
 10
296.573891
 20
43.056007
 30
0.0
 11
304.134087
 21
43.056007
 31
0.0
  0
LINE
  5
156
100
AcDbEntity
  8
LAY-1
  6
CONTINUOUS
 62
     3
100
AcDbLine
 10
304.134087
 20
43.056007
 30
0.0
 11
304.134087
 21
41.544014
 31
0.0
  0
LINE
  5
157
100
AcDbEntity
  8
LAY-1
  6
CONTINUOUS
 62
     3
100
AcDbLine
 10
304.134087
 20
41.544014
 30
0.0
 11
301.739792
 21
41.544014
 31
0.0
  0
LINE
  5
158
100
AcDbEntity
  8
LAY-1
  6
CONTINUOUS
 62
     3
100
AcDbLine
 10
301.739792
 20
41.544014
 30
0.0
 11
301.739792
 21
39.443527
 31
0.0
  0
LINE
  5
159
100
AcDbEntity
  8
LAY-1
  6
CONTINUOUS
 62
     3
100
AcDbLine
 10
301.739792
 20
39.443527
 30
0.0
 11
304.260201
 21
39.979149
 31
0.0
  0
LINE
  5
15A
100
AcDbEntity
  8
LAY-1
  6
CONTINUOUS
 62
     3
100
AcDbLine
 10
304.260201
 20
39.979149
 30
0.0
 11
304.260201
 21
37.6605
 31
0.0
  0
LINE
  5
15B
100
AcDbEntity
  8
LAY-1
  6
CONTINUOUS
 62
     3
100
AcDbLine
 10
304.260201
 20
37.6605
 30
0.0
 11
296.447739
 21
36.0
 31
0.0
  0
LINE
  5
15C
100
AcDbEntity
  8
LAY-1
  6
CONTINUOUS
 62
     3
100
AcDbLine
 10
296.447739
 20
36.0
 30
0.0
 11
296.447739
 21
38.318649
 31
0.0
  0
LINE
  5
15D
100
AcDbEntity
  8
LAY-1
  6
CONTINUOUS
 62
     3
100
AcDbLine
 10
296.447739
 20
38.318649
 30
0.0
 11
298.968147
 21
38.854309
 31
0.0
  0
LINE
  5
15E
100
AcDbEntity
  8
LAY-1
  6
CONTINUOUS
 62
     3
100
AcDbLine
 10
298.968147
 20
38.854309
 30
0.0
 11
298.968147
 21
41.544014
 31
0.0
  0
LINE
  5
15F
100
AcDbEntity
  8
LAY-1
  6
CONTINUOUS
 62
     3
100
AcDbLine
 10
298.968147
 20
41.544014
 30
0.0
 11
296.573891
 21
41.544014
 31
0.0
  0
LINE
  5
160
100
AcDbEntity
  8
LAY-1
  6
CONTINUOUS
 62
     3
100
AcDbLine
 10
295.818161
 20
46.079994
 30
0.0
 11
295.818161
 21
44.568001
 31
0.0
  0
LINE
  5
161
100
AcDbEntity
  8
LAY-1
  6
CONTINUOUS
 62
     3
100
AcDbLine
 10
295.818161
 20
46.079994
 30
0.0
 11
303.311218
 21
46.079994
 31
0.0
  0
LINE
  5
162
100
AcDbEntity
  8
LAY-1
  6
CONTINUOUS
 62
     3
100
AcDbLine
 10
303.311218
 20
46.079994
 30
0.0
 11
302.944626
 21
47.08799
 31
0.0
  0
LINE
  5
163
100
AcDbEntity
  8
LAY-1
  6
CONTINUOUS
 62
     3
100
AcDbLine
 10
302.944626
 20
47.08799
 30
0.0
 11
305.89415
 21
47.08799
 31
0.0
  0
LINE
  5
164
100
AcDbEntity
  8
LAY-1
  6
CONTINUOUS
 62
     3
100
AcDbLine
 10
305.89415
 20
47.08799
 30
0.0
 11
306.261238
 21
46.079994
 31
0.0
  0
LINE
  5
165
100
AcDbEntity
  8
LAY-1
  6
CONTINUOUS
 62
     3
100
AcDbLine
 10
306.261238
 20
46.079994
 30
0.0
 11
306.906227
 21
46.079994
 31
0.0
  0
LINE
  5
166
100
AcDbEntity
  8
LAY-1
  6
CONTINUOUS
 62
     3
100
AcDbLine
 10
306.906227
 20
46.079994
 30
0.0
 11
306.906227
 21
47.08799
 31
0.0
  0
LINE
  5
167
100
AcDbEntity
  8
LAY-1
  6
CONTINUOUS
 62
     3
100
AcDbLine
 10
306.906227
 20
47.08799
 30
0.0
 11
309.173874
 21
47.08799
 31
0.0
  0
LINE
  5
168
100
AcDbEntity
  8
LAY-1
  6
CONTINUOUS
 62
     3
100
AcDbLine
 10
309.173874
 20
47.08799
 30
0.0
 11
309.173874
 21
46.079994
 31
0.0
  0
LINE
  5
169
100
AcDbEntity
  8
LAY-1
  6
CONTINUOUS
 62
     3
100
AcDbLine
 10
309.173874
 20
46.079994
 30
0.0
 11
309.930099
 21
46.079994
 31
0.0
  0
LINE
  5
16A
100
AcDbEntity
  8
LAY-1
  6
CONTINUOUS
 62
     3
100
AcDbLine
 10
309.930099
 20
46.079994
 30
0.0
 11
309.930099
 21
44.568001
 31
0.0
  0
LINE
  5
16B
100
AcDbEntity
  8
LAY-1
  6
CONTINUOUS
 62
     3
100
AcDbLine
 10
309.930099
 20
44.568001
 30
0.0
 11
306.811356
 21
44.568001
 31
0.0
  0
LINE
  5
16C
100
AcDbEntity
  8
LAY-1
  6
CONTINUOUS
 62
     3
100
AcDbLine
 10
306.811356
 20
44.568001
 30
0.0
 11
309.930099
 21
36.0
 31
0.0
  0
LINE
  5
16D
100
AcDbEntity
  8
LAY-1
  6
CONTINUOUS
 62
     3
100
AcDbLine
 10
309.930099
 20
36.0
 30
0.0
 11
306.980042
 21
36.0
 31
0.0
  0
LINE
  5
16E
100
AcDbEntity
  8
LAY-1
  6
CONTINUOUS
 62
     3
100
AcDbLine
 10
306.980042
 20
36.0
 30
0.0
 11
303.861832
 21
44.568001
 31
0.0
  0
LINE
  5
16F
100
AcDbEntity
  8
LAY-1
  6
CONTINUOUS
 62
     3
100
AcDbLine
 10
303.861832
 20
44.568001
 30
0.0
 11
295.818161
 21
44.568001
 31
0.0
  0
LINE
  5
170
100
AcDbEntity
  8
LAY-1
  6
CONTINUOUS
 62
     3
100
AcDbLine
 10
310.434097
 20
44.936958
 30
0.0
 11
310.434097
 21
43.342491
 31
0.0
  0
LINE
  5
171
100
AcDbEntity
  8
LAY-1
  6
CONTINUOUS
 62
     3
100
AcDbLine
 10
310.434097
 20
44.936958
 30
0.0
 11
317.615913
 21
47.339989
 31
0.0
  0
LINE
  5
172
100
AcDbEntity
  8
LAY-1
  6
CONTINUOUS
 62
     3
100
AcDbLine
 10
317.615913
 20
47.339989
 30
0.0
 11
324.797768
 21
44.936882
 31
0.0
  0
LINE
  5
173
100
AcDbEntity
  8
LAY-1
  6
CONTINUOUS
 62
     3
100
AcDbLine
 10
324.797768
 20
44.936882
 30
0.0
 11
324.797768
 21
43.342491
 31
0.0
  0
LINE
  5
174
100
AcDbEntity
  8
LAY-1
  6
CONTINUOUS
 62
     3
100
AcDbLine
 10
324.797768
 20
43.342491
 30
0.0
 11
322.656235
 21
44.059196
 31
0.0
  0
LINE
  5
175
100
AcDbEntity
  8
LAY-1
  6
CONTINUOUS
 62
     3
100
AcDbLine
 10
322.656235
 20
44.059196
 30
0.0
 11
322.656235
 21
42.804009
 31
0.0
  0
LINE
  5
176
100
AcDbEntity
  8
LAY-1
  6
CONTINUOUS
 62
     3
100
AcDbLine
 10
322.656235
 20
42.804009
 30
0.0
 11
312.576126
 21
42.804009
 31
0.0
  0
LINE
  5
177
100
AcDbEntity
  8
LAY-1
  6
CONTINUOUS
 62
     3
100
AcDbLine
 10
312.576126
 20
42.804009
 30
0.0
 11
312.576126
 21
44.059196
 31
0.0
  0
LINE
  5
178
100
AcDbEntity
  8
LAY-1
  6
CONTINUOUS
 62
     3
100
AcDbLine
 10
312.576126
 20
44.059196
 30
0.0
 11
310.434097
 21
43.342491
 31
0.0
  0
LINE
  5
179
100
AcDbEntity
  8
LAY-1
  6
CONTINUOUS
 62
     3
100
AcDbLine
 10
313.343643
 20
44.316002
 30
0.0
 11
317.615913
 21
45.74556
 31
0.0
  0
LINE
  5
17A
100
AcDbEntity
  8
LAY-1
  6
CONTINUOUS
 62
     3
100
AcDbLine
 10
317.615913
 20
45.74556
 30
0.0
 11
321.888718
 21
44.316002
 31
0.0
  0
LINE
  5
17B
100
AcDbEntity
  8
LAY-1
  6
CONTINUOUS
 62
     3
100
AcDbLine
 10
321.888718
 20
44.316002
 30
0.0
 11
313.343643
 21
44.316002
 31
0.0
  0
LINE
  5
17C
100
AcDbEntity
  8
LAY-1
  6
CONTINUOUS
 62
     3
100
AcDbLine
 10
310.434097
 20
41.795975
 30
0.0
 11
310.434097
 21
40.283981
 31
0.0
  0
LINE
  5
17D
100
AcDbEntity
  8
LAY-1
  6
CONTINUOUS
 62
     3
100
AcDbLine
 10
310.434097
 20
41.795975
 30
0.0
 11
324.797768
 21
41.795975
 31
0.0
  0
LINE
  5
17E
100
AcDbEntity
  8
LAY-1
  6
CONTINUOUS
 62
     3
100
AcDbLine
 10
324.797768
 20
41.795975
 30
0.0
 11
324.797768
 21
40.283981
 31
0.0
  0
LINE
  5
17F
100
AcDbEntity
  8
LAY-1
  6
CONTINUOUS
 62
     3
100
AcDbLine
 10
324.797768
 20
40.283981
 30
0.0
 11
322.800278
 21
40.283981
 31
0.0
  0
LINE
  5
180
100
AcDbEntity
  8
LAY-1
  6
CONTINUOUS
 62
     3
100
AcDbLine
 10
322.800278
 20
40.283981
 30
0.0
 11
324.797768
 21
36.0
 31
0.0
  0
LINE
  5
181
100
AcDbEntity
  8
LAY-1
  6
CONTINUOUS
 62
     3
100
AcDbLine
 10
324.797768
 20
36.0
 30
0.0
 11
310.434097
 21
36.0
 31
0.0
  0
LINE
  5
182
100
AcDbEntity
  8
LAY-1
  6
CONTINUOUS
 62
     3
100
AcDbLine
 10
310.434097
 20
36.0
 30
0.0
 11
312.431549
 21
40.283981
 31
0.0
  0
LINE
  5
183
100
AcDbEntity
  8
LAY-1
  6
CONTINUOUS
 62
     3
100
AcDbLine
 10
312.431549
 20
40.283981
 30
0.0
 11
310.434097
 21
40.283981
 31
0.0
  0
LINE
  5
184
100
AcDbEntity
  8
LAY-1
  6
CONTINUOUS
 62
     3
100
AcDbLine
 10
315.211891
 20
40.283981
 30
0.0
 11
320.019936
 21
40.283981
 31
0.0
  0
LINE
  5
185
100
AcDbEntity
  8
LAY-1
  6
CONTINUOUS
 62
     3
100
AcDbLine
 10
320.019936
 20
40.283981
 30
0.0
 11
321.312431
 21
37.511993
 31
0.0
  0
LINE
  5
186
100
AcDbEntity
  8
LAY-1
  6
CONTINUOUS
 62
     3
100
AcDbLine
 10
321.312431
 20
37.511993
 30
0.0
 11
313.919395
 21
37.511993
 31
0.0
  0
LINE
  5
187
100
AcDbEntity
  8
LAY-1
  6
CONTINUOUS
 62
     3
100
AcDbLine
 10
315.211891
 20
40.283981
 30
0.0
 11
313.919395
 21
37.511993
 31
0.0
  0
LINE
  5
188
100
AcDbEntity
  8
LAY-1
  6
CONTINUOUS
 62
     3
100
AcDbLine
 10
332.106232
 20
44.316002
 30
0.0
 11
332.106232
 21
42.804009
 31
0.0
  0
LINE
  5
189
100
AcDbEntity
  8
LAY-1
  6
CONTINUOUS
 62
     3
100
AcDbLine
 10
332.106232
 20
44.316002
 30
0.0
 11
334.373878
 21
44.316002
 31
0.0
  0
LINE
  5
18A
100
AcDbEntity
  8
LAY-1
  6
CONTINUOUS
 62
     3
100
AcDbLine
 10
334.373878
 20
44.316002
 30
0.0
 11
334.373878
 21
47.08799
 31
0.0
  0
LINE
  5
18B
100
AcDbEntity
  8
LAY-1
  6
CONTINUOUS
 62
     3
100
AcDbLine
 10
334.373878
 20
47.08799
 30
0.0
 11
336.893753
 21
47.08799
 31
0.0
  0
LINE
  5
18C
100
AcDbEntity
  8
LAY-1
  6
CONTINUOUS
 62
     3
100
AcDbLine
 10
336.893753
 20
47.08799
 30
0.0
 11
336.893753
 21
44.316002
 31
0.0
  0
LINE
  5
18D
100
AcDbEntity
  8
LAY-1
  6
CONTINUOUS
 62
     3
100
AcDbLine
 10
336.893753
 20
44.316002
 30
0.0
 11
339.161934
 21
44.316002
 31
0.0
  0
LINE
  5
18E
100
AcDbEntity
  8
LAY-1
  6
CONTINUOUS
 62
     3
100
AcDbLine
 10
339.161934
 20
44.316002
 30
0.0
 11
339.161934
 21
42.804009
 31
0.0
  0
LINE
  5
18F
100
AcDbEntity
  8
LAY-1
  6
CONTINUOUS
 62
     3
100
AcDbLine
 10
339.161934
 20
42.804009
 30
0.0
 11
336.893753
 21
42.804009
 31
0.0
  0
LINE
  5
190
100
AcDbEntity
  8
LAY-1
  6
CONTINUOUS
 62
     3
100
AcDbLine
 10
336.893753
 20
42.804009
 30
0.0
 11
336.893753
 21
37.511993
 31
0.0
  0
LINE
  5
191
100
AcDbEntity
  8
LAY-1
  6
CONTINUOUS
 62
     3
100
AcDbLine
 10
336.893753
 20
37.511993
 30
0.0
 11
339.414162
 21
37.511993
 31
0.0
  0
LINE
  5
192
100
AcDbEntity
  8
LAY-1
  6
CONTINUOUS
 62
     3
100
AcDbLine
 10
339.414162
 20
37.511993
 30
0.0
 11
339.414162
 21
36.0
 31
0.0
  0
LINE
  5
193
100
AcDbEntity
  8
LAY-1
  6
CONTINUOUS
 62
     3
100
AcDbLine
 10
339.414162
 20
36.0
 30
0.0
 11
331.09774
 21
36.0
 31
0.0
  0
LINE
  5
194
100
AcDbEntity
  8
LAY-1
  6
CONTINUOUS
 62
     3
100
AcDbLine
 10
331.09774
 20
36.0
 30
0.0
 11
331.09774
 21
37.511993
 31
0.0
  0
LINE
  5
195
100
AcDbEntity
  8
LAY-1
  6
CONTINUOUS
 62
     3
100
AcDbLine
 10
331.09774
 20
37.511993
 30
0.0
 11
334.373878
 21
37.511993
 31
0.0
  0
LINE
  5
196
100
AcDbEntity
  8
LAY-1
  6
CONTINUOUS
 62
     3
100
AcDbLine
 10
334.373878
 20
37.511993
 30
0.0
 11
334.373878
 21
42.804009
 31
0.0
  0
LINE
  5
197
100
AcDbEntity
  8
LAY-1
  6
CONTINUOUS
 62
     3
100
AcDbLine
 10
334.373878
 20
42.804009
 30
0.0
 11
332.106232
 21
42.804009
 31
0.0
  0
LINE
  5
198
100
AcDbEntity
  8
LAY-1
  6
CONTINUOUS
 62
     3
100
AcDbLine
 10
325.301727
 20
46.079994
 30
0.0
 11
325.301727
 21
44.568001
 31
0.0
  0
LINE
  5
199
100
AcDbEntity
  8
LAY-1
  6
CONTINUOUS
 62
     3
100
AcDbLine
 10
325.301727
 20
46.079994
 30
0.0
 11
327.569908
 21
46.079994
 31
0.0
  0
LINE
  5
19A
100
AcDbEntity
  8
LAY-1
  6
CONTINUOUS
 62
     3
100
AcDbLine
 10
327.569908
 20
46.079994
 30
0.0
 11
327.569908
 21
47.08799
 31
0.0
  0
LINE
  5
19B
100
AcDbEntity
  8
LAY-1
  6
CONTINUOUS
 62
     3
100
AcDbLine
 10
327.569908
 20
47.08799
 30
0.0
 11
330.089783
 21
47.08799
 31
0.0
  0
LINE
  5
19C
100
AcDbEntity
  8
LAY-1
  6
CONTINUOUS
 62
     3
100
AcDbLine
 10
330.089783
 20
47.08799
 30
0.0
 11
330.089783
 21
46.079994
 31
0.0
  0
LINE
  5
19D
100
AcDbEntity
  8
LAY-1
  6
CONTINUOUS
 62
     3
100
AcDbLine
 10
330.089783
 20
46.079994
 30
0.0
 11
332.357964
 21
46.079994
 31
0.0
  0
LINE
  5
19E
100
AcDbEntity
  8
LAY-1
  6
CONTINUOUS
 62
     3
100
AcDbLine
 10
332.357964
 20
46.079994
 30
0.0
 11
329.756531
 21
42.363945
 31
0.0
  0
LINE
  5
19F
100
AcDbEntity
  8
LAY-1
  6
CONTINUOUS
 62
     3
100
AcDbLine
 10
329.756531
 20
42.363945
 30
0.0
 11
332.106232
 21
40.718971
 31
0.0
  0
LINE
  5
1A0
100
AcDbEntity
  8
LAY-1
  6
CONTINUOUS
 62
     3
100
AcDbLine
 10
332.106232
 20
40.718971
 30
0.0
 11
332.106232
 21
37.950302
 31
0.0
  0
LINE
  5
1A1
100
AcDbEntity
  8
LAY-1
  6
CONTINUOUS
 62
     3
100
AcDbLine
 10
332.106232
 20
37.950302
 30
0.0
 11
330.089783
 21
39.361931
 31
0.0
  0
LINE
  5
1A2
100
AcDbEntity
  8
LAY-1
  6
CONTINUOUS
 62
     3
100
AcDbLine
 10
330.089783
 20
39.361931
 30
0.0
 11
330.089783
 21
36.0
 31
0.0
  0
LINE
  5
1A3
100
AcDbEntity
  8
LAY-1
  6
CONTINUOUS
 62
     3
100
AcDbLine
 10
330.089783
 20
36.0
 30
0.0
 11
327.569908
 21
36.0
 31
0.0
  0
LINE
  5
1A4
100
AcDbEntity
  8
LAY-1
  6
CONTINUOUS
 62
     3
100
AcDbLine
 10
327.569908
 20
36.0
 30
0.0
 11
327.569908
 21
39.239975
 31
0.0
  0
LINE
  5
1A5
100
AcDbEntity
  8
LAY-1
  6
CONTINUOUS
 62
     3
100
AcDbLine
 10
327.569908
 20
39.239975
 30
0.0
 11
325.301727
 21
36.0
 31
0.0
  0
LINE
  5
1A6
100
AcDbEntity
  8
LAY-1
  6
CONTINUOUS
 62
     3
100
AcDbLine
 10
325.301727
 20
36.0
 30
0.0
 11
325.301727
 21
39.954849
 31
0.0
  0
LINE
  5
1A7
100
AcDbEntity
  8
LAY-1
  6
CONTINUOUS
 62
     3
100
AcDbLine
 10
325.301727
 20
39.954849
 30
0.0
 11
328.531212
 21
44.568001
 31
0.0
  0
LINE
  5
1A8
100
AcDbEntity
  8
LAY-1
  6
CONTINUOUS
 62
     3
100
AcDbLine
 10
328.531212
 20
44.568001
 30
0.0
 11
325.301727
 21
44.568001
 31
0.0
  0
ARC
  5
1A9
100
AcDbEntity
  8
LAY-1
  6
CONTINUOUS
 62
     2
100
AcDbCircle
 10
214.790253
 20
42.550102
 30
0.0
 40
1.575031
100
AcDbArc
 50
310.768311
 51
335.998779
  0
LINE
  5
1AA
100
AcDbEntity
  8
LAY-1
  6
CONTINUOUS
 62
     2
100
AcDbLine
 10
216.60006
 20
42.741028
 30
0.0
 11
216.229919
 21
41.909767
 31
0.0
  0
LINE
  5
1AB
100
AcDbEntity
  8
LAY-1
  6
CONTINUOUS
 62
     2
100
AcDbLine
 10
212.246269
 20
43.686005
 30
0.0
 11
218.054604
 21
43.686005
 31
0.0
  0
ARC
  5
1AC
100
AcDbEntity
  8
LAY-1
  6
CONTINUOUS
 62
     2
100
AcDbCircle
 10
238.074821
 20
40.536018
 30
0.0
 40
3.906002
100
AcDbArc
 50
270.000031
 51
324.00116
  0
ARC
  5
1AD
100
AcDbEntity
  8
LAY-1
  6
CONTINUOUS
 62
     2
100
AcDbCircle
 10
238.074821
 20
40.536018
 30
0.0
 40
3.276002
100
AcDbArc
 50
270.000031
 51
324.00116
  0
ARC
  5
1AE
100
AcDbEntity
  8
LAY-1
  6
CONTINUOUS
 62
     2
100
AcDbCircle
 10
199.891418
 20
40.536018
 30
0.0
 40
3.905995
100
AcDbArc
 50
270.000031
 51
333.99855
  0
ARC
  5
1AF
100
AcDbEntity
  8
LAY-1
  6
CONTINUOUS
 62
     2
100
AcDbCircle
 10
199.691376
 20
40.536018
 30
0.0
 40
2.645998
100
AcDbArc
 50
270.000031
 51
333.99855
  0
ARC
  5
1B0
100
AcDbEntity
  8
LAY-1
  6
CONTINUOUS
 62
     2
100
AcDbCircle
 10
199.791397
 20
40.536018
 30
0.0
 40
3.275998
100
AcDbArc
 50
270.000031
 51
333.99855
  0
LINE
  5
1B1
100
AcDbEntity
  8
LAY-1
  6
CONTINUOUS
 62
     2
100
AcDbLine
 10
193.210205
 20
46.508032
 30
0.0
 11
199.345993
 21
46.508032
 31
0.0
  0
LINE
  5
1B2
100
AcDbEntity
  8
LAY-1
  6
CONTINUOUS
 62
     2
100
AcDbLine
 10
193.210205
 20
45.928036
 30
0.0
 11
199.345993
 21
45.928036
 31
0.0
  0
LINE
  5
1B3
100
AcDbEntity
  8
LAY-1
  6
CONTINUOUS
 62
     2
100
AcDbLine
 10
193.210205
 20
45.348078
 30
0.0
 11
199.345993
 21
45.348078
 31
0.0
  0
LINE
  5
1B4
100
AcDbEntity
  8
LAY-1
  6
CONTINUOUS
 62
     2
100
AcDbLine
 10
193.210205
 20
43.534008
 30
0.0
 11
199.345993
 21
43.534008
 31
0.0
  0
LINE
  5
1B5
100
AcDbEntity
  8
LAY-1
  6
CONTINUOUS
 62
     2
100
AcDbLine
 10
193.210205
 20
42.903973
 30
0.0
 11
199.345993
 21
42.903973
 31
0.0
  0
LINE
  5
1B6
100
AcDbEntity
  8
LAY-1
  6
CONTINUOUS
 62
     2
100
AcDbLine
 10
193.210205
 20
42.324015
 30
0.0
 11
199.345993
 21
42.324015
 31
0.0
  0
LINE
  5
1B7
100
AcDbEntity
  8
LAY-1
  6
CONTINUOUS
 62
     2
100
AcDbLine
 10
193.210205
 20
37.889992
 30
0.0
 11
199.691376
 21
37.889992
 31
0.0
  0
LINE
  5
1B8
100
AcDbEntity
  8
LAY-1
  6
CONTINUOUS
 62
     2
100
AcDbLine
 10
193.210205
 20
37.259995
 30
0.0
 11
199.691376
 21
37.259995
 31
0.0
  0
LINE
  5
1B9
100
AcDbEntity
  8
LAY-1
  6
CONTINUOUS
 62
     2
100
AcDbLine
 10
193.210205
 20
36.629997
 30
0.0
 11
199.691376
 21
36.629997
 31
0.0
  0
LINE
  5
1BA
100
AcDbEntity
  8
LAY-1
  6
CONTINUOUS
 62
     2
100
AcDbLine
 10
202.069267
 20
39.376007
 30
0.0
 11
204.277061
 21
43.902591
 31
0.0
  0
LINE
  5
1BB
100
AcDbEntity
  8
LAY-1
  6
CONTINUOUS
 62
     2
100
AcDbLine
 10
202.735313
 20
39.099899
 30
0.0
 11
205.077919
 21
43.902594
 31
0.0
  0
LINE
  5
1BC
100
AcDbEntity
  8
LAY-1
  6
CONTINUOUS
 62
     2
100
AcDbLine
 10
203.401321
 20
38.823563
 30
0.0
 11
205.878281
 21
43.902586
 31
0.0
  0
LINE
  5
1BD
100
AcDbEntity
  8
LAY-1
  6
CONTINUOUS
 62
     2
100
AcDbLine
 10
202.534088
 20
46.423994
 30
0.0
 11
203.629593
 21
46.423994
 31
0.0
  0
LINE
  5
1BE
100
AcDbEntity
  8
LAY-1
  6
CONTINUOUS
 62
     2
100
AcDbLine
 10
202.534088
 20
45.709997
 30
0.0
 11
203.629593
 21
45.709997
 31
0.0
  0
LINE
  5
1BF
100
AcDbEntity
  8
LAY-1
  6
CONTINUOUS
 62
     2
100
AcDbLine
 10
205.306229
 20
46.423994
 30
0.0
 11
206.401733
 21
46.423994
 31
0.0
  0
LINE
  5
1C0
100
AcDbEntity
  8
LAY-1
  6
CONTINUOUS
 62
     2
100
AcDbLine
 10
205.306229
 20
45.709997
 30
0.0
 11
206.401733
 21
45.709997
 31
0.0
  0
LINE
  5
1C1
100
AcDbEntity
  8
LAY-1
  6
CONTINUOUS
 62
     2
100
AcDbLine
 10
208.078369
 20
43.056046
 30
0.0
 11
211.07016
 21
43.056046
 31
0.0
  0
LINE
  5
1C2
100
AcDbEntity
  8
LAY-1
  6
CONTINUOUS
 62
     2
100
AcDbLine
 10
210.343842
 20
45.625671
 30
0.0
 11
210.651268
 21
43.686005
 31
0.0
  0
LINE
  5
1C3
100
AcDbEntity
  8
LAY-1
  6
CONTINUOUS
 62
     2
100
AcDbLine
 10
211.797012
 20
36.454326
 30
0.0
 11
210.862259
 21
42.354761
 31
0.0
  0
ARC
  5
1C4
100
AcDbEntity
  8
LAY-1
  6
CONTINUOUS
 62
     2
100
AcDbCircle
 10
214.740242
 20
42.550102
 30
0.0
 40
2.20503
100
AcDbArc
 50
272.671387
 51
335.998779
  0
ARC
  5
1C5
100
AcDbEntity
  8
LAY-1
  6
CONTINUOUS
 62
     2
100
AcDbCircle
 10
214.690231
 20
42.550102
 30
0.0
 40
2.835028
100
AcDbArc
 50
267.367432
 51
335.998779
  0
LINE
  5
1C6
100
AcDbEntity
  8
LAY-1
  6
CONTINUOUS
 62
     2
100
AcDbLine
 10
218.337921
 20
43.772632
 30
0.0
 11
217.280373
 21
41.397148
 31
0.0
  0
LINE
  5
1C7
100
AcDbEntity
  8
LAY-1
  6
CONTINUOUS
 62
     2
100
AcDbLine
 10
213.272652
 20
36.454326
 30
0.0
 11
212.305092
 21
42.562204
 31
0.0
  0
LINE
  5
1C8
100
AcDbEntity
  8
LAY-1
  6
CONTINUOUS
 62
     2
100
AcDbLine
 10
212.584824
 20
36.454326
 30
0.0
 11
211.132111
 21
45.625669
 31
0.0
  0
LINE
  5
1C9
100
AcDbEntity
  8
LAY-1
  6
CONTINUOUS
 62
     2
100
AcDbLine
 10
211.819939
 20
45.625669
 30
0.0
 11
212.098907
 21
43.864866
 31
0.0
  0
LINE
  5
1CA
100
AcDbEntity
  8
LAY-1
  6
CONTINUOUS
 62
     2
100
AcDbLine
 10
208.078369
 20
43.686005
 30
0.0
 11
210.151276
 21
43.686005
 31
0.0
  0
LINE
  5
1CB
100
AcDbEntity
  8
LAY-1
  6
CONTINUOUS
 62
     2
100
AcDbLine
 10
217.417473
 20
43.142599
 30
0.0
 11
216.755127
 21
41.653381
 31
0.0
  0
LINE
  5
1CC
100
AcDbEntity
  8
LAY-1
  6
CONTINUOUS
 62
     2
100
AcDbLine
 10
212.026848
 20
43.056046
 30
0.0
 11
216.834549
 21
43.056046
 31
0.0
  0
ARC
  5
1CD
100
AcDbEntity
  8
LAY-1
  6
CONTINUOUS
 62
     2
100
AcDbCircle
 10
214.640221
 20
42.550102
 30
0.0
 40
3.465028
100
AcDbArc
 50
269.611328
 51
335.998779
  0
LINE
  5
1CE
100
AcDbEntity
  8
LAY-1
  6
CONTINUOUS
 62
     2
100
AcDbLine
 10
218.977455
 20
43.772639
 30
0.0
 11
217.805618
 21
41.140839
 31
0.0
  0
LINE
  5
1CF
100
AcDbEntity
  8
LAY-1
  6
CONTINUOUS
 62
     2
100
AcDbLine
 10
245.828156
 20
45.828033
 30
0.0
 11
240.720161
 21
38.795677
 31
0.0
  0
LINE
  5
1D0
100
AcDbEntity
  8
LAY-1
  6
CONTINUOUS
 62
     2
100
AcDbLine
 10
244.467033
 20
45.198074
 30
0.0
 11
240.08551
 21
39.166008
 31
0.0
  0
ARC
  5
1D1
100
AcDbEntity
  8
LAY-1
  6
CONTINUOUS
 62
     2
100
AcDbCircle
 10
238.24984
 20
40.436016
 30
0.0
 40
2.331005
100
AcDbArc
 50
270.000031
 51
324.00116
  0
LINE
  5
1D2
100
AcDbEntity
  8
LAY-1
  6
CONTINUOUS
 62
     2
100
AcDbLine
 10
220.969872
 20
46.503898
 30
0.0
 11
232.06591
 21
46.503898
 31
0.0
  0
LINE
  5
1D3
100
AcDbEntity
  8
LAY-1
  6
CONTINUOUS
 62
     2
100
AcDbLine
 10
220.969872
 20
45.848938
 30
0.0
 11
232.06591
 21
45.848938
 31
0.0
  0
LINE
  5
1D4
100
AcDbEntity
  8
LAY-1
  6
CONTINUOUS
 62
     2
100
AcDbLine
 10
220.969872
 20
45.168978
 30
0.0
 11
232.06591
 21
45.168978
 31
0.0
  0
LINE
  5
1D5
100
AcDbEntity
  8
LAY-1
  6
CONTINUOUS
 62
     2
100
AcDbLine
 10
219.961914
 20
37.911011
 30
0.0
 11
233.073868
 21
37.911011
 31
0.0
  0
LINE
  5
1D6
100
AcDbEntity
  8
LAY-1
  6
CONTINUOUS
 62
     2
100
AcDbLine
 10
219.961914
 20
37.281014
 30
0.0
 11
233.073868
 21
37.281014
 31
0.0
  0
LINE
  5
1D7
100
AcDbEntity
  8
LAY-1
  6
CONTINUOUS
 62
     2
100
AcDbLine
 10
219.961914
 20
36.600977
 30
0.0
 11
233.073868
 21
36.600977
 31
0.0
  0
LINE
  5
1D8
100
AcDbEntity
  8
LAY-1
  6
CONTINUOUS
 62
     2
100
AcDbLine
 10
235.838036
 20
46.483031
 30
0.0
 11
246.564201
 21
46.483031
 31
0.0
  0
LINE
  5
1D9
100
AcDbEntity
  8
LAY-1
  6
CONTINUOUS
 62
     2
100
AcDbLine
 10
247.214226
 20
46.458031
 30
0.0
 11
241.379761
 21
38.425156
 31
0.0
  0
LINE
  5
1DA
100
AcDbEntity
  8
LAY-1
  6
CONTINUOUS
 62
     2
100
AcDbLine
 10
235.838036
 20
45.828033
 30
0.0
 11
245.328125
 21
45.828033
 31
0.0
  0
LINE
  5
1DB
100
AcDbEntity
  8
LAY-1
  6
CONTINUOUS
 62
     2
100
AcDbLine
 10
238.074821
 20
37.914992
 30
0.0
 11
234.830078
 21
37.914992
 31
0.0
  0
LINE
  5
1DC
100
AcDbEntity
  8
LAY-1
  6
CONTINUOUS
 62
     2
100
AcDbLine
 10
238.074821
 20
37.259995
 30
0.0
 11
234.830078
 21
37.259995
 31
0.0
  0
LINE
  5
1DD
100
AcDbEntity
  8
LAY-1
  6
CONTINUOUS
 62
     2
100
AcDbLine
 10
238.074821
 20
36.604997
 30
0.0
 11
234.830078
 21
36.604997
 31
0.0
  0
LINE
  5
1DE
100
AcDbEntity
  8
LAY-1
  6
CONTINUOUS
 62
     2
100
AcDbLine
 10
243.107971
 20
39.934288
 30
0.0
 11
246.092896
 21
36.5
 31
0.0
  0
LINE
  5
1DF
100
AcDbEntity
  8
LAY-1
  6
CONTINUOUS
 62
     2
100
AcDbLine
 10
243.488373
 20
40.382627
 30
0.0
 11
246.86293
 21
36.5
 31
0.0
  0
LINE
  5
1E0
100
AcDbEntity
  8
LAY-1
  6
CONTINUOUS
 62
     2
100
AcDbLine
 10
243.868279
 20
40.830737
 30
0.0
 11
247.632355
 21
36.5
 31
0.0
  0
LINE
  5
1E1
100
AcDbEntity
  8
LAY-1
  6
CONTINUOUS
 62
     2
100
AcDbLine
 10
244.248184
 20
41.278962
 30
0.0
 11
248.402313
 21
36.5
 31
0.0
  0
LINE
  5
1E2
100
AcDbEntity
  8
LAY-1
  6
CONTINUOUS
 62
     2
100
AcDbLine
 10
235.838036
 20
45.148073
 30
0.0
 11
243.841995
 21
45.148073
 31
0.0
  0
LINE
  5
1E3
100
AcDbEntity
  8
LAY-1
  6
CONTINUOUS
 62
     2
100
AcDbLine
 10
252.973885
 20
46.508032
 30
0.0
 11
265.077843
 21
46.508032
 31
0.0
  0
LINE
  5
1E4
100
AcDbEntity
  8
LAY-1
  6
CONTINUOUS
 62
     2
100
AcDbLine
 10
252.973885
 20
45.878035
 30
0.0
 11
265.077843
 21
45.878035
 31
0.0
  0
LINE
  5
1E5
100
AcDbEntity
  8
LAY-1
  6
CONTINUOUS
 62
     2
100
AcDbLine
 10
258.16935
 20
37.869979
 30
0.0
 11
258.16935
 21
45.303055
 31
0.0
  0
LINE
  5
1E6
100
AcDbEntity
  8
LAY-1
  6
CONTINUOUS
 62
     2
100
AcDbLine
 10
258.798965
 20
37.869979
 30
0.0
 11
258.798965
 21
45.303055
 31
0.0
  0
LINE
  5
1E7
100
AcDbEntity
  8
LAY-1
  6
CONTINUOUS
 62
     2
100
AcDbLine
 10
259.428543
 20
37.869979
 30
0.0
 11
259.428543
 21
45.303055
 31
0.0
  0
LINE
  5
1E8
100
AcDbEntity
  8
LAY-1
  6
CONTINUOUS
 62
     2
100
AcDbLine
 10
260.00811
 20
37.869979
 30
0.0
 11
260.00811
 21
45.303055
 31
0.0
  0
LINE
  5
1E9
100
AcDbEntity
  8
LAY-1
  6
CONTINUOUS
 62
     2
100
AcDbLine
 10
252.469887
 20
37.369979
 30
0.0
 11
265.581841
 21
37.369979
 31
0.0
  0
LINE
  5
1EA
100
AcDbEntity
  8
LAY-1
  6
CONTINUOUS
 62
     2
100
AcDbLine
 10
252.469887
 20
36.614982
 30
0.0
 11
265.581841
 21
36.614982
 31
0.0
  0
LINE
  5
1EB
100
AcDbEntity
  8
LAY-1
  6
CONTINUOUS
 62
     2
100
AcDbLine
 10
268.531899
 20
46.58799
 30
0.0
 11
269.46772
 21
45.390376
 31
0.0
  0
LINE
  5
1EC
100
AcDbEntity
  8
LAY-1
  6
CONTINUOUS
 62
     2
100
AcDbLine
 10
269.331192
 20
46.58799
 30
0.0
 11
270.267014
 21
45.390376
 31
0.0
  0
LINE
  5
1ED
100
AcDbEntity
  8
LAY-1
  6
CONTINUOUS
 62
     2
100
AcDbLine
 10
271.827835
 20
46.58799
 30
0.0
 11
271.827835
 21
45.496391
 31
0.0
  0
LINE
  5
1EE
100
AcDbEntity
  8
LAY-1
  6
CONTINUOUS
 62
     2
100
AcDbLine
 10
272.507462
 20
46.58799
 30
0.0
 11
272.507462
 21
45.496391
 31
0.0
  0
LINE
  5
1EF
100
AcDbEntity
  8
LAY-1
  6
CONTINUOUS
 62
     2
100
AcDbLine
 10
274.347748
 20
46.58799
 30
0.0
 11
274.347748
 21
45.496391
 31
0.0
  0
LINE
  5
1F0
100
AcDbEntity
  8
LAY-1
  6
CONTINUOUS
 62
     2
100
AcDbLine
 10
275.077347
 20
46.58799
 30
0.0
 11
275.077347
 21
45.496391
 31
0.0
  0
LINE
  5
1F1
100
AcDbEntity
  8
LAY-1
  6
CONTINUOUS
 62
     2
100
AcDbLine
 10
277.498917
 20
46.58799
 30
0.0
 11
276.563095
 21
45.390376
 31
0.0
  0
LINE
  5
1F2
100
AcDbEntity
  8
LAY-1
  6
CONTINUOUS
 62
     2
100
AcDbLine
 10
278.348221
 20
46.58799
 30
0.0
 11
277.412399
 21
45.390376
 31
0.0
  0
LINE
  5
1F3
100
AcDbEntity
  8
LAY-1
  6
CONTINUOUS
 62
     2
100
AcDbLine
 10
266.834053
 20
44.996391
 30
0.0
 11
279.946007
 21
44.996391
 31
0.0
  0
LINE
  5
1F4
100
AcDbEntity
  8
LAY-1
  6
CONTINUOUS
 62
     2
100
AcDbLine
 10
270.107941
 20
43.047071
 30
0.0
 11
269.569458
 21
44.526545
 31
0.0
  0
LINE
  5
1F5
100
AcDbEntity
  8
LAY-1
  6
CONTINUOUS
 62
     2
100
AcDbLine
 10
270.878052
 20
43.047071
 30
0.0
 11
270.339569
 21
44.526545
 31
0.0
  0
LINE
  5
1F6
100
AcDbEntity
  8
LAY-1
  6
CONTINUOUS
 62
     2
100
AcDbLine
 10
271.598152
 20
43.047129
 30
0.0
 11
271.06028
 21
44.526487
 31
0.0
  0
LINE
  5
1F7
100
AcDbEntity
  8
LAY-1
  6
CONTINUOUS
 62
     2
100
AcDbLine
 10
275.229858
 20
43.047017
 30
0.0
 11
275.768913
 21
44.526599
 31
0.0
  0
LINE
  5
1F8
100
AcDbEntity
  8
LAY-1
  6
CONTINUOUS
 62
     2
100
AcDbLine
 10
276.000504
 20
43.047017
 30
0.0
 11
276.539558
 21
44.526599
 31
0.0
  0
LINE
  5
1F9
100
AcDbEntity
  8
LAY-1
  6
CONTINUOUS
 62
     2
100
AcDbLine
 10
276.720604
 20
43.047017
 30
0.0
 11
277.259659
 21
44.526599
 31
0.0
  0
LINE
  5
1FA
100
AcDbEntity
  8
LAY-1
  6
CONTINUOUS
 62
     2
100
AcDbLine
 10
266.834053
 20
42.577225
 30
0.0
 11
279.946007
 21
42.577225
 31
0.0
  0
LINE
  5
1FB
100
AcDbEntity
  8
LAY-1
  6
CONTINUOUS
 62
     2
100
AcDbLine
 10
266.834053
 20
40.838409
 30
0.0
 11
272.209686
 21
40.838409
 31
0.0
  0
LINE
  5
1FC
100
AcDbEntity
  8
LAY-1
  6
CONTINUOUS
 62
     2
100
AcDbLine
 10
266.834053
 20
39.099594
 30
0.0
 11
272.209686
 21
39.099594
 31
0.0
  0
LINE
  5
1FD
100
AcDbEntity
  8
LAY-1
  6
CONTINUOUS
 62
     2
100
AcDbLine
 10
274.618897
 20
39.099594
 30
0.0
 11
279.946007
 21
39.099594
 31
0.0
  0
LINE
  5
1FE
100
AcDbEntity
  8
LAY-1
  6
CONTINUOUS
 62
     2
100
AcDbLine
 10
267.627205
 20
36.5
 30
0.0
 11
270.133308
 21
38.764385
 31
0.0
  0
LINE
  5
1FF
100
AcDbEntity
  8
LAY-1
  6
CONTINUOUS
 62
     2
100
AcDbLine
 10
268.466934
 20
36.5
 30
0.0
 11
270.973114
 21
38.76439
 31
0.0
  0
LINE
  5
200
100
AcDbEntity
  8
LAY-1
  6
CONTINUOUS
 62
     2
100
AcDbLine
 10
269.257187
 20
36.5
 30
0.0
 11
271.763367
 21
38.76439
 31
0.0
  0
LINE
  5
201
100
AcDbEntity
  8
LAY-1
  6
CONTINUOUS
 62
     2
100
AcDbLine
 10
272.709679
 20
36.5
 30
0.0
 11
272.709679
 21
42.077225
 31
0.0
  0
LINE
  5
202
100
AcDbEntity
  8
LAY-1
  6
CONTINUOUS
 62
     2
100
AcDbLine
 10
273.439278
 20
36.5
 30
0.0
 11
273.439278
 21
42.077225
 31
0.0
  0
LINE
  5
203
100
AcDbEntity
  8
LAY-1
  6
CONTINUOUS
 62
     2
100
AcDbLine
 10
274.118904
 20
36.5
 30
0.0
 11
274.118904
 21
42.077225
 31
0.0
  0
LINE
  5
204
100
AcDbEntity
  8
LAY-1
  6
CONTINUOUS
 62
     2
100
AcDbLine
 10
277.542938
 20
36.5
 30
0.0
 11
275.036835
 21
38.764385
 31
0.0
  0
LINE
  5
205
100
AcDbEntity
  8
LAY-1
  6
CONTINUOUS
 62
     2
100
AcDbLine
 10
278.382706
 20
36.5
 30
0.0
 11
275.876526
 21
38.76439
 31
0.0
  0
LINE
  5
206
100
AcDbEntity
  8
LAY-1
  6
CONTINUOUS
 62
     2
100
AcDbLine
 10
279.222969
 20
36.5
 30
0.0
 11
276.716789
 21
38.76439
 31
0.0
  0
LINE
  5
207
100
AcDbEntity
  8
LAY-1
  6
CONTINUOUS
 62
     2
100
AcDbLine
 10
283.999466
 20
46.58799
 30
0.0
 11
283.999466
 21
45.697998
 31
0.0
  0
LINE
  5
208
100
AcDbEntity
  8
LAY-1
  6
CONTINUOUS
 62
     2
100
AcDbLine
 10
284.629044
 20
46.58799
 30
0.0
 11
284.629044
 21
45.697998
 31
0.0
  0
LINE
  5
209
100
AcDbEntity
  8
LAY-1
  6
CONTINUOUS
 62
     2
100
AcDbLine
 10
285.258659
 20
46.58799
 30
0.0
 11
285.258659
 21
45.697998
 31
0.0
  0
LINE
  5
20A
100
AcDbEntity
  8
LAY-1
  6
CONTINUOUS
 62
     2
100
AcDbLine
 10
281.449989
 20
45.197998
 30
0.0
 11
285.99379
 21
45.197998
 31
0.0
  0
LINE
  5
20B
100
AcDbEntity
  8
LAY-1
  6
CONTINUOUS
 62
     2
100
AcDbLine
 10
281.486038
 20
36.497262
 30
0.0
 11
282.348007
 21
44.700736
 31
0.0
  0
LINE
  5
20C
100
AcDbEntity
  8
LAY-1
  6
CONTINUOUS
 62
     2
100
AcDbLine
 10
282.069191
 20
36.497262
 30
0.0
 11
282.931198
 21
44.700736
 31
0.0
  0
LINE
  5
20D
100
AcDbEntity
  8
LAY-1
  6
CONTINUOUS
 62
     2
100
AcDbLine
 10
283.999466
 20
36.5
 30
0.0
 11
283.999466
 21
44.697999
 31
0.0
  0
LINE
  5
20E
100
AcDbEntity
  8
LAY-1
  6
CONTINUOUS
 62
     2
100
AcDbLine
 10
284.629044
 20
36.5
 30
0.0
 11
284.629044
 21
44.697999
 31
0.0
  0
LINE
  5
20F
100
AcDbEntity
  8
LAY-1
  6
CONTINUOUS
 62
     2
100
AcDbLine
 10
285.258659
 20
36.5
 30
0.0
 11
285.258659
 21
44.697999
 31
0.0
  0
LINE
  5
210
100
AcDbEntity
  8
LAY-1
  6
CONTINUOUS
 62
     2
100
AcDbLine
 10
285.552315
 20
44.038561
 30
0.0
 11
286.200089
 21
43.14596
 31
0.0
  0
LINE
  5
211
100
AcDbEntity
  8
LAY-1
  6
CONTINUOUS
 62
     2
100
AcDbLine
 10
285.552315
 20
43.066062
 30
0.0
 11
286.200089
 21
42.17346
 31
0.0
  0
LINE
  5
212
100
AcDbEntity
  8
LAY-1
  6
CONTINUOUS
 62
     2
100
AcDbLine
 10
287.117294
 20
44.29715
 30
0.0
 11
287.692207
 21
46.602844
 31
0.0
  0
LINE
  5
213
100
AcDbEntity
  8
LAY-1
  6
CONTINUOUS
 62
     2
100
AcDbLine
 10
287.71685
 20
44.297172
 30
0.0
 11
288.291306
 21
46.602822
 31
0.0
  0
LINE
  5
214
100
AcDbEntity
  8
LAY-1
  6
CONTINUOUS
 62
     2
100
AcDbLine
 10
288.240952
 20
44.29715
 30
0.0
 11
288.815865
 21
46.602844
 31
0.0
  0
LINE
  5
215
100
AcDbEntity
  8
LAY-1
  6
CONTINUOUS
 62
     2
100
AcDbLine
 10
290.425591
 20
45.697998
 30
0.0
 11
290.425591
 21
46.58799
 31
0.0
  0
LINE
  5
216
100
AcDbEntity
  8
LAY-1
  6
CONTINUOUS
 62
     2
100
AcDbLine
 10
291.105179
 20
45.697998
 30
0.0
 11
291.105179
 21
46.58799
 31
0.0
  0
LINE
  5
217
100
AcDbEntity
  8
LAY-1
  6
CONTINUOUS
 62
     2
100
AcDbLine
 10
291.734795
 20
45.697998
 30
0.0
 11
291.734795
 21
46.58799
 31
0.0
  0
LINE
  5
218
100
AcDbEntity
  8
LAY-1
  6
CONTINUOUS
 62
     2
100
AcDbLine
 10
288.965553
 20
45.197998
 30
0.0
 11
294.561943
 21
45.197998
 31
0.0
  0
LINE
  5
219
100
AcDbEntity
  8
LAY-1
  6
CONTINUOUS
 62
     2
100
AcDbLine
 10
290.425591
 20
44.697999
 30
0.0
 11
290.425591
 21
43.178009
 31
0.0
  0
LINE
  5
21A
100
AcDbEntity
  8
LAY-1
  6
CONTINUOUS
 62
     2
100
AcDbLine
 10
291.105179
 20
44.697999
 30
0.0
 11
291.105179
 21
43.178009
 31
0.0
  0
LINE
  5
21B
100
AcDbEntity
  8
LAY-1
  6
CONTINUOUS
 62
     2
100
AcDbLine
 10
291.734795
 20
44.697999
 30
0.0
 11
291.734795
 21
43.178009
 31
0.0
  0
LINE
  5
21C
100
AcDbEntity
  8
LAY-1
  6
CONTINUOUS
 62
     2
100
AcDbLine
 10
287.246002
 20
42.678009
 30
0.0
 11
294.814171
 21
42.678009
 31
0.0
  0
LINE
  5
21D
100
AcDbEntity
  8
LAY-1
  6
CONTINUOUS
 62
     2
100
AcDbLine
 10
288.361992
 20
42.186097
 30
0.0
 11
287.325195
 21
36.491912
 31
0.0
  0
LINE
  5
21E
100
AcDbEntity
  8
LAY-1
  6
CONTINUOUS
 62
     2
100
AcDbLine
 10
288.95182
 20
42.186097
 30
0.0
 11
287.915062
 21
36.491912
 31
0.0
  0
LINE
  5
21F
100
AcDbEntity
  8
LAY-1
  6
CONTINUOUS
 62
     2
100
AcDbLine
 10
289.472298
 20
42.186104
 30
0.0
 11
288.435005
 21
36.491905
 31
0.0
  0
LINE
  5
220
100
AcDbEntity
  8
LAY-1
  6
CONTINUOUS
 62
     2
100
AcDbLine
 10
290.425591
 20
42.17801
 30
0.0
 11
290.425591
 21
36.5
 31
0.0
  0
LINE
  5
221
100
AcDbEntity
  8
LAY-1
  6
CONTINUOUS
 62
     2
100
AcDbLine
 10
291.055168
 20
42.17801
 30
0.0
 11
291.055168
 21
36.5
 31
0.0
  0
LINE
  5
222
100
AcDbEntity
  8
LAY-1
  6
CONTINUOUS
 62
     2
100
AcDbLine
 10
291.734795
 20
42.17801
 30
0.0
 11
291.734795
 21
36.5
 31
0.0
  0
LINE
  5
223
100
AcDbEntity
  8
LAY-1
  6
CONTINUOUS
 62
     2
100
AcDbLine
 10
292.587379
 20
42.186104
 30
0.0
 11
293.624672
 21
36.491905
 31
0.0
  0
LINE
  5
224
100
AcDbEntity
  8
LAY-1
  6
CONTINUOUS
 62
     2
100
AcDbLine
 10
293.127731
 20
42.186104
 30
0.0
 11
294.165024
 21
36.491905
 31
0.0
  0
LINE
  5
225
100
AcDbEntity
  8
LAY-1
  6
CONTINUOUS
 62
     2
100
AcDbLine
 10
293.76757
 20
42.186104
 30
0.0
 11
294.804863
 21
36.491905
 31
0.0
  0
LINE
  5
226
100
AcDbEntity
  8
LAY-1
  6
CONTINUOUS
 62
     2
100
AcDbLine
 10
296.318153
 20
45.600039
 30
0.0
 11
303.456024
 21
45.600039
 31
0.0
  0
LINE
  5
227
100
AcDbEntity
  8
LAY-1
  6
CONTINUOUS
 62
     2
100
AcDbLine
 10
296.318153
 20
44.970041
 30
0.0
 11
303.685326
 21
44.970041
 31
0.0
  0
LINE
  5
228
100
AcDbEntity
  8
LAY-1
  6
CONTINUOUS
 62
     2
100
AcDbLine
 10
307.279152
 20
36.469847
 30
0.0
 11
303.585495
 21
46.618143
 31
0.0
  0
LINE
  5
229
100
AcDbEntity
  8
LAY-1
  6
CONTINUOUS
 62
     2
100
AcDbLine
 10
307.949242
 20
36.469849
 30
0.0
 11
304.255737
 21
46.618141
 31
0.0
  0
LINE
  5
22A
100
AcDbEntity
  8
LAY-1
  6
CONTINUOUS
 62
     2
100
AcDbLine
 10
308.619331
 20
36.469849
 30
0.0
 11
304.925827
 21
46.618141
 31
0.0
  0
LINE
  5
22B
100
AcDbEntity
  8
LAY-1
  6
CONTINUOUS
 62
     2
100
AcDbLine
 10
309.289421
 20
36.46984
 30
0.0
 11
305.595345
 21
46.618148
 31
0.0
  0
LINE
  5
22C
100
AcDbEntity
  8
LAY-1
  6
CONTINUOUS
 62
     2
100
AcDbLine
 10
307.385773
 20
46.100038
 30
0.0
 11
307.385773
 21
46.58799
 31
0.0
  0
LINE
  5
22D
100
AcDbEntity
  8
LAY-1
  6
CONTINUOUS
 62
     2
100
AcDbLine
 10
308.065399
 20
46.100038
 30
0.0
 11
308.065399
 21
46.58799
 31
0.0
  0
LINE
  5
22E
100
AcDbEntity
  8
LAY-1
  6
CONTINUOUS
 62
     2
100
AcDbLine
 10
308.744987
 20
46.100038
 30
0.0
 11
308.744987
 21
46.58799
 31
0.0
  0
LINE
  5
22F
100
AcDbEntity
  8
LAY-1
  6
CONTINUOUS
 62
     2
100
AcDbLine
 10
306.465935
 20
45.600039
 30
0.0
 11
309.430107
 21
45.600039
 31
0.0
  0
LINE
  5
230
100
AcDbEntity
  8
LAY-1
  6
CONTINUOUS
 62
     2
100
AcDbLine
 10
306.695274
 20
44.970041
 30
0.0
 11
309.430107
 21
44.970041
 31
0.0
  0
LINE
  5
231
100
AcDbEntity
  8
LAY-1
  6
CONTINUOUS
 62
     2
100
AcDbLine
 10
297.073883
 20
42.591024
 30
0.0
 11
303.634094
 21
42.591024
 31
0.0
  0
LINE
  5
232
100
AcDbEntity
  8
LAY-1
  6
CONTINUOUS
 62
     2
100
AcDbLine
 10
297.073883
 20
41.960989
 30
0.0
 11
303.634094
 21
41.960989
 31
0.0
  0
LINE
  5
233
100
AcDbEntity
  8
LAY-1
  6
CONTINUOUS
 62
     2
100
AcDbLine
 10
299.447731
 20
41.460989
 30
0.0
 11
299.447731
 21
38.947788
 31
0.0
  0
LINE
  5
234
100
AcDbEntity
  8
LAY-1
  6
CONTINUOUS
 62
     2
100
AcDbLine
 10
300.077309
 20
41.460989
 30
0.0
 11
300.077309
 21
39.081608
 31
0.0
  0
LINE
  5
235
100
AcDbEntity
  8
LAY-1
  6
CONTINUOUS
 62
     2
100
AcDbLine
 10
300.706886
 20
41.460989
 30
0.0
 11
300.706886
 21
39.21543
 31
0.0
  0
LINE
  5
236
100
AcDbEntity
  8
LAY-1
  6
CONTINUOUS
 62
     2
100
AcDbLine
 10
301.336502
 20
41.460989
 30
0.0
 11
301.336502
 21
39.349257
 31
0.0
  0
LINE
  5
237
100
AcDbEntity
  8
LAY-1
  6
CONTINUOUS
 62
     2
100
AcDbLine
 10
296.936821
 20
37.914079
 30
0.0
 11
303.771118
 21
39.366749
 31
0.0
  0
LINE
  5
238
100
AcDbEntity
  8
LAY-1
  6
CONTINUOUS
 62
     2
100
AcDbLine
 10
296.936821
 20
37.220007
 30
0.0
 11
303.771118
 21
38.672713
 31
0.0
  0
LINE
  5
239
100
AcDbEntity
  8
LAY-1
  6
CONTINUOUS
 62
     2
100
AcDbLine
 10
296.936821
 20
36.625932
 30
0.0
 11
303.771118
 21
38.078602
 31
0.0
  0
LINE
  5
23A
100
AcDbEntity
  8
LAY-1
  6
CONTINUOUS
 62
     2
100
AcDbLine
 10
310.908264
 20
44.581486
 30
0.0
 11
317.37883
 21
46.74635
 31
0.0
  0
LINE
  5
23B
100
AcDbEntity
  8
LAY-1
  6
CONTINUOUS
 62
     2
100
AcDbLine
 10
310.908264
 20
43.917156
 30
0.0
 11
317.37883
 21
46.082059
 31
0.0
  0
LINE
  5
23C
100
AcDbEntity
  8
LAY-1
  6
CONTINUOUS
 62
     2
100
AcDbLine
 10
317.852997
 20
46.746348
 30
0.0
 11
324.323601
 21
44.581326
 31
0.0
  0
LINE
  5
23D
100
AcDbEntity
  8
LAY-1
  6
CONTINUOUS
 62
     2
100
AcDbLine
 10
317.852997
 20
46.132058
 30
0.0
 11
324.323601
 21
43.967036
 31
0.0
  0
LINE
  5
23E
100
AcDbEntity
  8
LAY-1
  6
CONTINUOUS
 62
     2
100
AcDbLine
 10
322.156242
 20
43.899027
 30
0.0
 11
313.076118
 21
43.899027
 31
0.0
  0
LINE
  5
23F
100
AcDbEntity
  8
LAY-1
  6
CONTINUOUS
 62
     2
100
AcDbLine
 10
322.156242
 20
43.21899
 30
0.0
 11
313.076118
 21
43.21899
 31
0.0
  0
LINE
  5
240
100
AcDbEntity
  8
LAY-1
  6
CONTINUOUS
 62
     2
100
AcDbLine
 10
310.93409
 20
41.26598
 30
0.0
 11
324.297775
 21
41.26598
 31
0.0
  0
LINE
  5
241
100
AcDbEntity
  8
LAY-1
  6
CONTINUOUS
 62
     2
100
AcDbLine
 10
310.93409
 20
40.686022
 30
0.0
 11
324.297775
 21
40.686022
 31
0.0
  0
LINE
  5
242
100
AcDbEntity
  8
LAY-1
  6
CONTINUOUS
 62
     2
100
AcDbLine
 10
313.003334
 20
40.232883
 30
0.0
 11
311.727814
 21
37.498115
 31
0.0
  0
LINE
  5
243
100
AcDbEntity
  8
LAY-1
  6
CONTINUOUS
 62
     2
100
AcDbLine
 10
313.798584
 20
40.232886
 30
0.0
 11
312.523026
 21
37.498115
 31
0.0
  0
LINE
  5
244
100
AcDbEntity
  8
LAY-1
  6
CONTINUOUS
 62
     2
100
AcDbLine
 10
314.593834
 20
40.232886
 30
0.0
 11
313.318275
 21
37.498115
 31
0.0
  0
LINE
  5
245
100
AcDbEntity
  8
LAY-1
  6
CONTINUOUS
 62
     2
100
AcDbLine
 10
320.638527
 20
40.232917
 30
0.0
 11
321.914581
 21
37.498084
 31
0.0
  0
LINE
  5
246
100
AcDbEntity
  8
LAY-1
  6
CONTINUOUS
 62
     2
100
AcDbLine
 10
321.434273
 20
40.232855
 30
0.0
 11
322.709259
 21
37.498146
 31
0.0
  0
LINE
  5
247
100
AcDbEntity
  8
LAY-1
  6
CONTINUOUS
 62
     2
100
AcDbLine
 10
322.22998
 20
40.232829
 30
0.0
 11
323.504547
 21
37.498172
 31
0.0
  0
LINE
  5
248
100
AcDbEntity
  8
LAY-1
  6
CONTINUOUS
 62
     2
100
AcDbLine
 10
311.421341
 20
37.044979
 30
0.0
 11
323.810524
 21
37.044979
 31
0.0
  0
LINE
  5
249
100
AcDbEntity
  8
LAY-1
  6
CONTINUOUS
 62
     2
100
AcDbLine
 10
311.127571
 20
36.414982
 30
0.0
 11
324.104294
 21
36.414982
 31
0.0
  0
LINE
  5
24A
100
AcDbEntity
  8
LAY-1
  6
CONTINUOUS
 62
     2
100
AcDbLine
 10
328.099464
 20
46.100038
 30
0.0
 11
328.099464
 21
46.58799
 31
0.0
  0
LINE
  5
24B
100
AcDbEntity
  8
LAY-1
  6
CONTINUOUS
 62
     2
100
AcDbLine
 10
328.829063
 20
46.100038
 30
0.0
 11
328.829063
 21
46.58799
 31
0.0
  0
LINE
  5
24C
100
AcDbEntity
  8
LAY-1
  6
CONTINUOUS
 62
     2
100
AcDbLine
 10
329.558701
 20
46.100038
 30
0.0
 11
329.558701
 21
46.58799
 31
0.0
  0
LINE
  5
24D
100
AcDbEntity
  8
LAY-1
  6
CONTINUOUS
 62
     2
100
AcDbLine
 10
325.80172
 20
45.600039
 30
0.0
 11
331.521973
 21
45.600039
 31
0.0
  0
LINE
  5
24E
100
AcDbEntity
  8
LAY-1
  6
CONTINUOUS
 62
     2
100
AcDbLine
 10
325.80172
 20
44.970041
 30
0.0
 11
331.080956
 21
44.970041
 31
0.0
  0
LINE
  5
24F
100
AcDbEntity
  8
LAY-1
  6
CONTINUOUS
 62
     2
100
AcDbLine
 10
329.094795
 20
44.560419
 30
0.0
 11
325.58844
 21
39.55118
 31
0.0
  0
LINE
  5
250
100
AcDbEntity
  8
LAY-1
  6
CONTINUOUS
 62
     2
100
AcDbLine
 10
329.914154
 20
44.56045
 30
0.0
 11
325.588478
 21
38.382128
 31
0.0
  0
LINE
  5
251
100
AcDbEntity
  8
LAY-1
  6
CONTINUOUS
 62
     2
100
AcDbLine
 10
330.684494
 20
44.560443
 30
0.0
 11
325.588478
 21
37.281433
 31
0.0
  0
LINE
  5
252
100
AcDbEntity
  8
LAY-1
  6
CONTINUOUS
 62
     2
100
AcDbLine
 10
329.482483
 20
41.971727
 30
0.0
 11
331.696686
 21
40.42116
 31
0.0
  0
LINE
  5
253
100
AcDbEntity
  8
LAY-1
  6
CONTINUOUS
 62
     2
100
AcDbLine
 10
329.121117
 20
41.455499
 30
0.0
 11
331.696648
 21
39.651998
 31
0.0
  0
LINE
  5
254
100
AcDbEntity
  8
LAY-1
  6
CONTINUOUS
 62
     2
100
AcDbLine
 10
328.736252
 20
40.905782
 30
0.0
 11
331.696648
 21
38.832875
 31
0.0
  0
LINE
  5
255
100
AcDbEntity
  8
LAY-1
  6
CONTINUOUS
 62
     2
100
AcDbLine
 10
328.099464
 20
40.368057
 30
0.0
 11
328.099464
 21
36.5
 31
0.0
  0
LINE
  5
256
100
AcDbEntity
  8
LAY-1
  6
CONTINUOUS
 62
     2
100
AcDbLine
 10
328.829063
 20
40.340789
 30
0.0
 11
328.829063
 21
36.5
 31
0.0
  0
LINE
  5
257
100
AcDbEntity
  8
LAY-1
  6
CONTINUOUS
 62
     2
100
AcDbLine
 10
329.558701
 20
39.829892
 30
0.0
 11
329.558701
 21
36.5
 31
0.0
  0
LINE
  5
258
100
AcDbEntity
  8
LAY-1
  6
CONTINUOUS
 62
     2
100
AcDbLine
 10
334.903435
 20
37.544979
 30
0.0
 11
334.903435
 21
46.58799
 31
0.0
  0
LINE
  5
259
100
AcDbEntity
  8
LAY-1
  6
CONTINUOUS
 62
     2
100
AcDbLine
 10
335.633034
 20
37.544979
 30
0.0
 11
335.633034
 21
46.58799
 31
0.0
  0
LINE
  5
25A
100
AcDbEntity
  8
LAY-1
  6
CONTINUOUS
 62
     2
100
AcDbLine
 10
336.362671
 20
37.544979
 30
0.0
 11
336.362671
 21
46.58799
 31
0.0
  0
LINE
  5
25B
100
AcDbEntity
  8
LAY-1
  6
CONTINUOUS
 62
     2
100
AcDbLine
 10
332.606224
 20
43.836008
 30
0.0
 11
334.403442
 21
43.836008
 31
0.0
  0
LINE
  5
25C
100
AcDbEntity
  8
LAY-1
  6
CONTINUOUS
 62
     2
100
AcDbLine
 10
332.606224
 20
43.206049
 30
0.0
 11
334.403442
 21
43.206049
 31
0.0
  0
LINE
  5
25D
100
AcDbEntity
  8
LAY-1
  6
CONTINUOUS
 62
     2
100
AcDbLine
 10
336.862663
 20
43.836008
 30
0.0
 11
338.661942
 21
43.836008
 31
0.0
  0
LINE
  5
25E
100
AcDbEntity
  8
LAY-1
  6
CONTINUOUS
 62
     2
100
AcDbLine
 10
336.862663
 20
43.156048
 30
0.0
 11
338.661942
 21
43.156048
 31
0.0
  0
LINE
  5
25F
100
AcDbEntity
  8
LAY-1
  6
CONTINUOUS
 62
     2
100
AcDbLine
 10
331.597733
 20
37.044979
 30
0.0
 11
338.914169
 21
37.044979
 31
0.0
  0
LINE
  5
260
100
AcDbEntity
  8
LAY-1
  6
CONTINUOUS
 62
     2
100
AcDbLine
 10
331.597733
 20
36.414982
 30
0.0
 11
338.914169
 21
36.414982
 31
0.0
  0
LINE
  5
261
100
AcDbEntity
  8
LAY-1
  6
CONTINUOUS
 62
     2
100
AcDbLine
 10
274.618897
 20
40.838409
 30
0.0
 11
279.946007
 21
40.838409
 31
0.0
  0
LINE
  5
262
100
AcDbEntity
  8
LAY-1
  6
EXLTYPE2
 62
     6
100
AcDbLine
 10
0.0
 20
371.25
 30
0.0
 11
45.0
 21
371.25
 31
0.0
  0
LINE
  5
263
100
AcDbEntity
  8
LAY-1
  6
CONTINUOUS
 62
     7
100
AcDbLine
 10
45.0
 20
723.75
 30
0.0
 11
500.0
 21
723.75
 31
0.0
  0
TEXT
  5
264
100
AcDbEntity
  8
LAY-1
  6
CONTINUOUS
 62
     2
100
AcDbText
 10
222.5
 20
712.75
 30
0.0
 40
9.5
  1
番号
 41
0.994737
  7
EXCADSTD
 72
     5
 11
243.1235
 21
712.75
 31
0.0
100
AcDbText
  0
TEXT
  5
265
100
AcDbEntity
  8
LAY-1
  6
CONTINUOUS
 62
     2
100
AcDbText
 10
262.5
 20
712.75
 30
0.0
 40
9.5
  1
品名
 41
1.989474
  7
EXCADSTD
 72
     5
 11
303.747
 21
712.75
 31
0.0
100
AcDbText
  0
TEXT
  5
266
100
AcDbEntity
  8
LAY-1
  6
CONTINUOUS
 62
     2
100
AcDbText
 10
337.5
 20
712.75
 30
0.0
 40
9.5
  1
材質
 41
1.989474
  7
EXCADSTD
 72
     5
 11
378.747
 21
712.75
 31
0.0
100
AcDbText
  0
TEXT
  5
267
100
AcDbEntity
  8
LAY-1
  6
CONTINUOUS
 62
     2
100
AcDbText
 10
400.0
 20
712.75
 30
0.0
 40
9.5
  1
個数
 41
0.994737
  7
EXCADSTD
 72
     5
 11
420.6235
 21
712.75
 31
0.0
100
AcDbText
  0
TEXT
  5
268
100
AcDbEntity
  8
LAY-1
  6
CONTINUOUS
 62
     2
100
AcDbText
 10
440.0
 20
712.75
 30
0.0
 40
9.5
  1
備考
 41
1.989474
  7
EXCADSTD
 72
     5
 11
481.247
 21
712.75
 31
0.0
100
AcDbText
  0
TEXT
  5
269
100
AcDbEntity
  8
LAY-1
  6
CONTINUOUS
 62
     2
100
AcDbText
 10
228.75
 20
700.25
 30
0.0
 40
9.5
  1
１
 41
0.884211
  7
EXCADSTD
 72
     5
 11
236.75
 21
700.25
 31
0.0
100
AcDbText
  0
TEXT
  5
26A
100
AcDbEntity
  8
LAY-1
  6
CONTINUOUS
 62
     2
100
AcDbText
 10
406.25
 20
700.25
 30
0.0
 40
9.5
  1
１
 41
0.884211
  7
EXCADSTD
 72
     5
 11
414.25
 21
700.25
 31
0.0
100
AcDbText
  0
TEXT
  5
26B
100
AcDbEntity
  8
LAY-1
  6
CONTINUOUS
 62
     2
100
AcDbText
 10
228.75
 20
687.75
 30
0.0
 40
9.5
  1
２
 41
0.884211
  7
EXCADSTD
 72
     5
 11
236.75
 21
687.75
 31
0.0
100
AcDbText
  0
TEXT
  5
26C
100
AcDbEntity
  8
LAY-1
  6
CONTINUOUS
 62
     2
100
AcDbText
 10
228.75
 20
675.25
 30
0.0
 40
9.5
  1
３
 41
0.884211
  7
EXCADSTD
 72
     5
 11
236.75
 21
675.25
 31
0.0
100
AcDbText
  0
TEXT
  5
26D
100
AcDbEntity
  8
LAY-1
  6
CONTINUOUS
 62
     2
100
AcDbText
 10
228.75
 20
662.75
 30
0.0
 40
9.5
  1
４
 41
0.884211
  7
EXCADSTD
 72
     5
 11
236.75
 21
662.75
 31
0.0
100
AcDbText
  0
LINE
  5
26E
100
AcDbEntity
  8
LAY-1
  6
CONTINUOUS
 62
     6
100
AcDbLine
 10
220.0
 20
711.25
 30
0.0
 11
500.0
 21
711.25
 31
0.0
  0
LINE
  5
26F
100
AcDbEntity
  8
LAY-1
  6
CONTINUOUS
 62
     6
100
AcDbLine
 10
220.0
 20
698.75
 30
0.0
 11
500.0
 21
698.75
 31
0.0
  0
LINE
  5
270
100
AcDbEntity
  8
LAY-1
  6
CONTINUOUS
 62
     6
100
AcDbLine
 10
220.0
 20
686.25
 30
0.0
 11
500.0
 21
686.25
 31
0.0
  0
LINE
  5
271
100
AcDbEntity
  8
LAY-1
  6
CONTINUOUS
 62
     6
100
AcDbLine
 10
220.0
 20
661.25
 30
0.0
 11
500.0
 21
661.25
 31
0.0
  0
LINE
  5
272
100
AcDbEntity
  8
LAY-1
  6
CONTINUOUS
 62
     6
100
AcDbLine
 10
220.0
 20
673.75
 30
0.0
 11
500.0
 21
673.75
 31
0.0
  0
TEXT
  5
273
100
AcDbEntity
  8
LAY-1
  6
CONTINUOUS
 62
     2
100
AcDbText
 10
326.0
 20
700.25
 30
0.0
 40
9.5
  1
アルミニウム
 41
0.884211
  7
EXCADSTD
 72
     5
 11
386.0
 21
700.25
 31
0.0
100
AcDbText
  0
LINE
  5
274
100
AcDbEntity
  8
LAY-1
  6
EXLTYPE2
 62
     6
100
AcDbLine
 10
45.0
 20
41.25
 30
0.0
 11
122.5
 21
41.25
 31
0.0
  0
CIRCLE
  5
275
100
AcDbEntity
  8
LAY-1
  6
CONTINUOUS
 62
     6
100
AcDbCircle
 10
57.5
 20
35.0
 30
0.0
 40
0.25
  0
CIRCLE
  5
276
100
AcDbEntity
  8
LAY-1
  6
CONTINUOUS
 62
     6
100
AcDbCircle
 10
70.0
 20
35.0
 30
0.0
 40
0.25
  0
CIRCLE
  5
277
100
AcDbEntity
  8
LAY-1
  6
CONTINUOUS
 62
     6
100
AcDbCircle
 10
96.25
 20
35.0
 30
0.0
 40
0.25
  0
CIRCLE
  5
278
100
AcDbEntity
  8
LAY-1
  6
CONTINUOUS
 62
     6
100
AcDbCircle
 10
108.75
 20
35.0
 30
0.0
 40
0.25
  0
TEXT
  5
279
100
AcDbEntity
  8
LAY-1
  6
CONTINUOUS
 62
     6
100
AcDbText
 10
158.875
 20
50.0
 30
0.0
 40
12.5
  1
又場
 41
0.8568
  7
EXCADSTD
 72
     5
 11
182.2483
 21
50.0
 31
0.0
100
AcDbText
  0
TEXT
  5
27A
100
AcDbEntity
  8
LAY-1
  6
CONTINUOUS
 62
     6
100
AcDbText
 10
124.125
 20
50.0
 30
0.0
 40
12.5
  1
間瀬
 41
0.7728
  7
EXCADSTD
 72
     5
 11
145.2068
 21
50.0
 31
0.0
100
AcDbText
  0
TEXT
  5
27B
100
AcDbEntity
  8
LAY-1
  6
CONTINUOUS
 62
     6
100
AcDbText
 10
146.125
 20
49.875
 30
0.0
 40
7.5
  1
ゆ
 41
0.98
  7
EXCADSTD
 72
     5
 11
153.125
 21
49.875
 31
0.0
100
AcDbText
  0
TEXT
  5
27C
100
AcDbEntity
  8
LAY-1
  6
CONTINUOUS
 62
     6
100
AcDbText
 10
51.875
 20
50.0
 30
0.0
 40
12.5
  1
風穴
 41
0.8736
  7
EXCADSTD
 72
     5
 11
75.7066
 21
50.0
 31
0.0
100
AcDbText
  0
TEXT
  5
27D
100
AcDbEntity
  8
LAY-1
  6
CONTINUOUS
 62
     6
100
AcDbText
 10
45.511029
 20
31.737518
 30
0.0
 40
6.25
  1
１７
 41
0.75768
  7
EXCADSTD
 72
     5
 11
55.845694
 21
31.737518
 31
0.0
100
AcDbText
  0
TEXT
  5
27E
100
AcDbEntity
  8
LAY-1
  6
CONTINUOUS
 62
     6
100
AcDbText
 10
61.136029
 20
31.737518
 30
0.0
 40
6.25
  1
３
 41
0.89208
  7
EXCADSTD
 72
     5
 11
66.446029
 21
31.737518
 31
0.0
100
AcDbText
  0
TEXT
  5
27F
100
AcDbEntity
  8
LAY-1
  6
CONTINUOUS
 62
     6
100
AcDbText
 10
71.711029
 20
31.737518
 30
0.0
 40
6.25
  1
３１
 41
0.75768
  7
EXCADSTD
 72
     5
 11
82.045694
 21
31.737518
 31
0.0
100
AcDbText
  0
TEXT
  5
280
100
AcDbEntity
  8
LAY-1
  6
CONTINUOUS
 62
     7
100
AcDbText
 10
379.375
 20
32.875
 30
0.0
 40
17.5
  1
９４９５００
 41
0.81
  7
EXCADSTD
 72
     5
 11
480.625
 21
32.875
 31
0.0
100
AcDbText
  0
TEXT
  5
281
100
AcDbEntity
  8
LAY-1
  6
CONTINUOUS
 62
     2
100
AcDbText
 10
367.75
 20
60.625
 30
0.0
 40
16.25
  1
ＮＡ１１９
 41
0.801231
  7
EXCADSTD
 72
     5
 11
445.25
 21
60.625
 31
0.0
100
AcDbText
  0
TEXT
  5
282
100
AcDbEntity
  8
LAY-1
  6
CONTINUOUS
 62
     2
100
AcDbText
 10
225.0
 20
60.125
 30
0.0
 40
16.25
  1
タオルハンガー
 41
0.72
  7
EXCADSTD
 72
     5
 11
322.5
 21
60.125
 31
0.0
100
AcDbText
  0
TEXT
  5
283
100
AcDbEntity
  8
LAY-1
  6
CONTINUOUS
 62
     2
100
AcDbText
 10
326.0
 20
687.75
 30
0.0
 40
9.5
  1
アルミニウム
 41
0.884211
  7
EXCADSTD
 72
     5
 11
386.0
 21
687.75
 31
0.0
100
AcDbText
  0
TEXT
  5
284
100
AcDbEntity
  8
LAY-1
  6
CONTINUOUS
 62
     2
100
AcDbText
 10
406.25
 20
687.75
 30
0.0
 40
9.5
  1
１
 41
0.884211
  7
EXCADSTD
 72
     5
 11
414.25
 21
687.75
 31
0.0
100
AcDbText
  0
TEXT
  5
285
100
AcDbEntity
  8
LAY-1
  6
CONTINUOUS
 62
     2
100
AcDbText
 10
326.0
 20
675.25
 30
0.0
 40
9.5
  1
合成ゴム
 41
0.884211
  7
EXCADSTD
 72
     5
 11
366.0
 21
675.25
 31
0.0
100
AcDbText
  0
TEXT
  5
286
100
AcDbEntity
  8
LAY-1
  6
CONTINUOUS
 62
     2
100
AcDbText
 10
406.25
 20
675.25
 30
0.0
 40
9.5
  1
２
 41
0.884211
  7
EXCADSTD
 72
     5
 11
414.25
 21
675.25
 31
0.0
100
AcDbText
  0
TEXT
  5
287
100
AcDbEntity
  8
LAY-1
  6
CONTINUOUS
 62
     2
100
AcDbText
 10
326.0
 20
662.75
 30
0.0
 40
9.5
  1
ステンレス
 41
0.884211
  7
EXCADSTD
 72
     5
 11
376.0
 21
662.75
 31
0.0
100
AcDbText
  0
TEXT
  5
288
100
AcDbEntity
  8
LAY-1
  6
CONTINUOUS
 62
     2
100
AcDbText
 10
406.25
 20
662.75
 30
0.0
 40
9.5
  1
３
 41
0.884211
  7
EXCADSTD
 72
     5
 11
414.25
 21
662.75
 31
0.0
100
AcDbText
  0
LINE
  5
289
100
AcDbEntity
  8
LAY-1
  6
CONTINUOUS
 62
     6
100
AcDbLine
 10
220.0
 20
723.75
 30
0.0
 11
220.0
 21
661.25
 31
0.0
  0
LINE
  5
28A
100
AcDbEntity
  8
LAY-1
  6
CONTINUOUS
 62
     6
100
AcDbLine
 10
247.5
 20
723.75
 30
0.0
 11
247.5
 21
661.25
 31
0.0
  0
LINE
  5
28B
100
AcDbEntity
  8
LAY-1
  6
CONTINUOUS
 62
     6
100
AcDbLine
 10
322.5
 20
723.75
 30
0.0
 11
322.5
 21
661.25
 31
0.0
  0
LINE
  5
28C
100
AcDbEntity
  8
LAY-1
  6
CONTINUOUS
 62
     6
100
AcDbLine
 10
397.5
 20
723.75
 30
0.0
 11
397.5
 21
661.25
 31
0.0
  0
LINE
  5
28D
100
AcDbEntity
  8
LAY-1
  6
CONTINUOUS
 62
     6
100
AcDbLine
 10
425.0
 20
723.75
 30
0.0
 11
425.0
 21
661.25
 31
0.0
  0
TEXT
  5
28E
100
AcDbEntity
  8
LAY-1
  6
CONTINUOUS
 62
     2
100
AcDbText
 10
251.0
 20
700.25
 30
0.0
 40
9.5
  1
メインフレーム
 41
0.884211
  7
EXCADSTD
 72
     5
 11
321.0
 21
700.25
 31
0.0
100
AcDbText
  0
TEXT
  5
28F
100
AcDbEntity
  8
LAY-1
  6
CONTINUOUS
 62
     2
100
AcDbText
 10
251.0
 20
687.75
 30
0.0
 40
9.5
  1
アーム
 41
0.884211
  7
EXCADSTD
 72
     5
 11
281.0
 21
687.75
 31
0.0
100
AcDbText
  0
TEXT
  5
290
100
AcDbEntity
  8
LAY-1
  6
CONTINUOUS
 62
     2
100
AcDbText
 10
251.0
 20
675.25
 30
0.0
 40
9.5
  1
リング
 41
0.884211
  7
EXCADSTD
 72
     5
 11
281.0
 21
675.25
 31
0.0
100
AcDbText
  0
TEXT
  5
291
100
AcDbEntity
  8
LAY-1
  6
CONTINUOUS
 62
     2
100
AcDbText
 10
251.0
 20
662.75
 30
0.0
 40
9.5
  1
取付ネジ
 41
0.884211
  7
EXCADSTD
 72
     5
 11
291.0
 21
662.75
 31
0.0
100
AcDbText
  0
TEXT
  5
292
100
AcDbEntity
  8
LAY-1
  6
CONTINUOUS
 62
     2
100
AcDbText
 10
428.5
 20
662.75
 30
0.0
 40
9.5
  1
呼ビ４×３０
 41
0.884211
  7
EXCADSTD
 72
     5
 11
488.5
 21
662.75
 31
0.0
100
AcDbText
  0
LINE
  5
293
100
AcDbEntity
  8
LAY-2
  6
CONTINUOUS
 62
     2
100
AcDbLine
 10
141.321327
 20
441.7989
 30
0.0
 11
211.321281
 21
441.7989
 31
0.0
  0
LINE
  5
294
100
AcDbEntity
  8
LAY-2
  6
CONTINUOUS
 62
     2
100
AcDbLine
 10
141.321327
 20
389.298904
 30
0.0
 11
211.321281
 21
389.298904
 31
0.0
  0
LINE
  5
295
100
AcDbEntity
  8
LAY-2
  6
CONTINUOUS
 62
     2
100
AcDbLine
 10
141.321327
 20
441.7989
 30
0.0
 11
141.321327
 21
389.298904
 31
0.0
  0
LINE
  5
296
100
AcDbEntity
  8
LAY-2
  6
CONTINUOUS
 62
     2
100
AcDbLine
 10
211.321311
 20
441.7989
 30
0.0
 11
211.321311
 21
389.298904
 31
0.0
  0
LINE
  5
297
100
AcDbEntity
  8
LAY-2
  6
CONTINUOUS
 62
     2
100
AcDbLine
 10
176.921307
 20
396.298904
 30
0.0
 11
175.721307
 21
396.298904
 31
0.0
  0
LINE
  5
298
100
AcDbEntity
  8
LAY-2
  6
CONTINUOUS
 62
     2
100
AcDbLine
 10
176.921307
 20
400.298904
 30
0.0
 11
175.721307
 21
400.298904
 31
0.0
  0
LINE
  5
299
100
AcDbEntity
  8
LAY-2
  6
CONTINUOUS
 62
     2
100
AcDbLine
 10
178.321307
 20
397.698906
 30
0.0
 11
178.321307
 21
398.898903
 31
0.0
  0
LINE
  5
29A
100
AcDbEntity
  8
LAY-2
  6
CONTINUOUS
 62
     2
100
AcDbLine
 10
174.321307
 20
397.698906
 30
0.0
 11
174.321307
 21
398.898903
 31
0.0
  0
LINE
  5
29B
100
AcDbEntity
  8
LAY-2
  6
CONTINUOUS
 62
     2
100
AcDbLine
 10
176.921317
 20
399.898906
 30
0.0
 11
176.921317
 21
402.253646
 31
0.0
  0
LINE
  5
29C
100
AcDbEntity
  8
LAY-2
  6
CONTINUOUS
 62
     2
100
AcDbLine
 10
175.721307
 20
399.898903
 30
0.0
 11
175.721307
 21
402.253646
 31
0.0
  0
LINE
  5
29D
100
AcDbEntity
  8
LAY-2
  6
CONTINUOUS
 62
     2
100
AcDbLine
 10
175.721307
 20
396.698902
 30
0.0
 11
175.721307
 21
394.344162
 31
0.0
  0
LINE
  5
29E
100
AcDbEntity
  8
LAY-2
  6
CONTINUOUS
 62
     2
100
AcDbLine
 10
176.921317
 20
396.698906
 30
0.0
 11
176.921317
 21
394.344162
 31
0.0
  0
LINE
  5
29F
100
AcDbEntity
  8
LAY-2
  6
CONTINUOUS
 62
     2
100
AcDbLine
 10
174.721307
 20
398.898903
 30
0.0
 11
172.366557
 21
398.898903
 31
0.0
  0
LINE
  5
2A0
100
AcDbEntity
  8
LAY-2
  6
CONTINUOUS
 62
     2
100
AcDbLine
 10
174.721307
 20
397.698906
 30
0.0
 11
172.366557
 21
397.698906
 31
0.0
  0
LINE
  5
2A1
100
AcDbEntity
  8
LAY-2
  6
CONTINUOUS
 62
     2
100
AcDbLine
 10
177.921307
 20
397.698906
 30
0.0
 11
180.276057
 21
397.698906
 31
0.0
  0
LINE
  5
2A2
100
AcDbEntity
  8
LAY-2
  6
CONTINUOUS
 62
     2
100
AcDbLine
 10
177.921307
 20
398.898903
 30
0.0
 11
180.276057
 21
398.898903
 31
0.0
  0
LINE
  5
2A3
100
AcDbEntity
  8
LAY-2
  6
CONTINUOUS
 62
     2
100
AcDbLine
 10
258.821315
 20
416.7989
 30
0.0
 11
258.821315
 21
384.11882
 31
0.0
  0
LINE
  5
2A4
100
AcDbEntity
  8
LAY-2
  6
CONTINUOUS
 62
     2
100
AcDbLine
 10
248.821342
 20
421.798904
 30
0.0
 11
248.821342
 21
384.11882
 31
0.0
  0
LINE
  5
2A5
100
AcDbEntity
  8
LAY-2
  6
CONTINUOUS
 62
     2
100
AcDbLine
 10
258.821342
 20
421.89891
 30
0.0
 11
258.821342
 21
384.11882
 31
0.0
  0
LINE
  5
2A6
100
AcDbEntity
  8
LAY-2
  6
CONTINUOUS
 62
     2
100
AcDbLine
 10
240.022264
 20
379.118805
 30
0.0
 11
243.821311
 21
379.118805
 31
0.0
  0
LINE
  5
2A7
100
AcDbEntity
  8
LAY-2
  6
CONTINUOUS
 62
     2
100
AcDbLine
 10
240.022264
 20
369.118805
 30
0.0
 11
243.821311
 21
369.118805
 31
0.0
  0
LINE
  5
2A8
100
AcDbEntity
  8
LAY-2
  6
CONTINUOUS
 62
     2
100
AcDbLine
 10
141.321327
 20
421.798904
 30
0.0
 11
211.321311
 21
421.798904
 31
0.0
  0
LINE
  5
2A9
100
AcDbEntity
  8
LAY-2
  6
CONTINUOUS
 62
     2
100
AcDbLine
 10
211.321311
 20
426.798904
 30
0.0
 11
243.821342
 21
426.798904
 31
0.0
  0
LINE
  5
2AA
100
AcDbEntity
  8
LAY-2
  6
CONTINUOUS
 62
     2
100
AcDbLine
 10
211.321311
 20
436.798904
 30
0.0
 11
243.821342
 21
436.798904
 31
0.0
  0
LINE
  5
2AB
100
AcDbEntity
  8
LAY-2
  6
CONTINUOUS
 62
     2
100
AcDbLine
 10
149.721317
 20
416.898903
 30
0.0
 11
147.366567
 21
416.898903
 31
0.0
  0
LINE
  5
2AC
100
AcDbEntity
  8
LAY-2
  6
CONTINUOUS
 62
     2
100
AcDbLine
 10
149.721317
 20
415.698906
 30
0.0
 11
147.366567
 21
415.698906
 31
0.0
  0
LINE
  5
2AD
100
AcDbEntity
  8
LAY-2
  6
CONTINUOUS
 62
     2
100
AcDbLine
 10
152.921317
 20
415.698906
 30
0.0
 11
155.276057
 21
415.698906
 31
0.0
  0
LINE
  5
2AE
100
AcDbEntity
  8
LAY-2
  6
CONTINUOUS
 62
     2
100
AcDbLine
 10
152.921317
 20
416.898903
 30
0.0
 11
155.276057
 21
416.898903
 31
0.0
  0
LINE
  5
2AF
100
AcDbEntity
  8
LAY-2
  6
CONTINUOUS
 62
     2
100
AcDbLine
 10
150.721307
 20
414.698906
 30
0.0
 11
150.721307
 21
412.344162
 31
0.0
  0
LINE
  5
2B0
100
AcDbEntity
  8
LAY-2
  6
CONTINUOUS
 62
     2
100
AcDbLine
 10
151.921317
 20
414.698902
 30
0.0
 11
151.921317
 21
412.344162
 31
0.0
  0
LINE
  5
2B1
100
AcDbEntity
  8
LAY-2
  6
CONTINUOUS
 62
     2
100
AcDbLine
 10
151.921317
 20
417.898903
 30
0.0
 11
151.921317
 21
420.253646
 31
0.0
  0
LINE
  5
2B2
100
AcDbEntity
  8
LAY-2
  6
CONTINUOUS
 62
     2
100
AcDbLine
 10
150.721307
 20
417.898906
 30
0.0
 11
150.721307
 21
420.253646
 31
0.0
  0
LINE
  5
2B3
100
AcDbEntity
  8
LAY-2
  6
CONTINUOUS
 62
     2
100
AcDbLine
 10
153.321307
 20
415.698906
 30
0.0
 11
153.321307
 21
416.898903
 31
0.0
  0
LINE
  5
2B4
100
AcDbEntity
  8
LAY-2
  6
CONTINUOUS
 62
     2
100
AcDbLine
 10
149.321307
 20
415.698906
 30
0.0
 11
149.321307
 21
416.898903
 31
0.0
  0
LINE
  5
2B5
100
AcDbEntity
  8
LAY-2
  6
CONTINUOUS
 62
     2
100
AcDbLine
 10
150.721317
 20
418.298904
 30
0.0
 11
151.921317
 21
418.298904
 31
0.0
  0
LINE
  5
2B6
100
AcDbEntity
  8
LAY-2
  6
CONTINUOUS
 62
     2
100
AcDbLine
 10
150.721317
 20
414.298904
 30
0.0
 11
151.921317
 21
414.298904
 31
0.0
  0
LINE
  5
2B7
100
AcDbEntity
  8
LAY-2
  6
CONTINUOUS
 62
     2
100
AcDbLine
 10
202.92131
 20
415.698906
 30
0.0
 11
205.276054
 21
415.698906
 31
0.0
  0
LINE
  5
2B8
100
AcDbEntity
  8
LAY-2
  6
CONTINUOUS
 62
     2
100
AcDbLine
 10
202.92131
 20
416.898903
 30
0.0
 11
205.276054
 21
416.898903
 31
0.0
  0
LINE
  5
2B9
100
AcDbEntity
  8
LAY-2
  6
CONTINUOUS
 62
     2
100
AcDbLine
 10
199.721305
 20
415.698906
 30
0.0
 11
197.366561
 21
415.698906
 31
0.0
  0
LINE
  5
2BA
100
AcDbEntity
  8
LAY-2
  6
CONTINUOUS
 62
     2
100
AcDbLine
 10
200.721305
 20
414.698902
 30
0.0
 11
200.721305
 21
412.344162
 31
0.0
  0
LINE
  5
2BB
100
AcDbEntity
  8
LAY-2
  6
CONTINUOUS
 62
     2
100
AcDbLine
 10
201.921318
 20
414.698906
 30
0.0
 11
201.921318
 21
412.344162
 31
0.0
  0
LINE
  5
2BC
100
AcDbEntity
  8
LAY-2
  6
CONTINUOUS
 62
     2
100
AcDbLine
 10
200.721305
 20
417.898903
 30
0.0
 11
200.721305
 21
420.253646
 31
0.0
  0
LINE
  5
2BD
100
AcDbEntity
  8
LAY-2
  6
CONTINUOUS
 62
     2
100
AcDbLine
 10
199.721305
 20
416.898903
 30
0.0
 11
197.366561
 21
416.898903
 31
0.0
  0
LINE
  5
2BE
100
AcDbEntity
  8
LAY-2
  6
CONTINUOUS
 62
     2
100
AcDbLine
 10
201.921318
 20
417.898906
 30
0.0
 11
201.921318
 21
420.253646
 31
0.0
  0
LINE
  5
2BF
100
AcDbEntity
  8
LAY-2
  6
CONTINUOUS
 62
     2
100
AcDbLine
 10
199.321311
 20
415.698906
 30
0.0
 11
199.321311
 21
416.898903
 31
0.0
  0
LINE
  5
2C0
100
AcDbEntity
  8
LAY-2
  6
CONTINUOUS
 62
     2
100
AcDbLine
 10
203.321311
 20
415.698906
 30
0.0
 11
203.321311
 21
416.898903
 31
0.0
  0
LINE
  5
2C1
100
AcDbEntity
  8
LAY-2
  6
CONTINUOUS
 62
     2
100
AcDbLine
 10
201.921302
 20
418.298904
 30
0.0
 11
200.721305
 21
418.298904
 31
0.0
  0
LINE
  5
2C2
100
AcDbEntity
  8
LAY-2
  6
CONTINUOUS
 62
     2
100
AcDbLine
 10
201.921302
 20
414.298904
 30
0.0
 11
200.721305
 21
414.298904
 31
0.0
  0
LINE
  5
2C3
100
AcDbEntity
  8
LAY-2
  6
CONTINUOUS
 62
     2
100
AcDbLine
 10
236.322264
 20
367.600855
 30
0.0
 11
236.322264
 21
374.118805
 31
0.0
  0
LINE
  5
2C4
100
AcDbEntity
  8
LAY-2
  6
CONTINUOUS
 62
     2
100
AcDbLine
 10
240.022264
 20
367.600855
 30
0.0
 11
240.022264
 21
374.118805
 31
0.0
  0
LINE
  5
2C5
100
AcDbEntity
  8
LAY-2
  6
CONTINUOUS
 62
     2
100
AcDbLine
 10
240.022264
 20
380.636754
 30
0.0
 11
240.022264
 21
374.118805
 31
0.0
  0
LINE
  5
2C6
100
AcDbEntity
  8
LAY-2
  6
CONTINUOUS
 62
     2
100
AcDbLine
 10
236.322264
 20
380.636754
 30
0.0
 11
236.322264
 21
374.118805
 31
0.0
  0
CIRCLE
  5
2C7
100
AcDbEntity
  8
LAY-2
  6
CONTINUOUS
 62
     2
100
AcDbCircle
 10
176.321307
 20
398.298904
 30
0.0
 40
4.0
  0
ARC
  5
2C8
100
AcDbEntity
  8
LAY-2
  6
CONTINUOUS
 62
     2
100
AcDbCircle
 10
177.921317
 20
396.698906
 30
0.0
 40
1.0
100
AcDbArc
 50
89.999982
 51
179.99998
  0
ARC
  5
2C9
100
AcDbEntity
  8
LAY-2
  6
CONTINUOUS
 62
     2
100
AcDbCircle
 10
174.721307
 20
399.898903
 30
0.0
 40
1.0
100
AcDbArc
 50
269.99998
 51
359.99996
  0
ARC
  5
2CA
100
AcDbEntity
  8
LAY-2
  6
CONTINUOUS
 62
     2
100
AcDbCircle
 10
174.721307
 20
396.698902
 30
0.0
 40
1.0
100
AcDbArc
 50
359.99995
 51
89.999982
  0
ARC
  5
2CB
100
AcDbEntity
  8
LAY-2
  6
CONTINUOUS
 62
     2
100
AcDbCircle
 10
177.921317
 20
399.898906
 30
0.0
 40
1.0
100
AcDbArc
 50
179.99999
 51
269.99998
  0
ARC
  5
2CC
100
AcDbEntity
  8
LAY-2
  6
CONTINUOUS
 62
     2
100
AcDbCircle
 10
176.321307
 20
398.298904
 30
0.0
 40
2.8
100
AcDbArc
 50
192.37362
 51
257.62637
  0
ARC
  5
2CD
100
AcDbEntity
  8
LAY-2
  6
CONTINUOUS
 62
     2
100
AcDbCircle
 10
176.321307
 20
398.298904
 30
0.0
 40
2.8
100
AcDbArc
 50
12.373571
 51
77.626329
  0
ARC
  5
2CE
100
AcDbEntity
  8
LAY-2
  6
CONTINUOUS
 62
     2
100
AcDbCircle
 10
176.321307
 20
398.298904
 30
0.0
 40
2.8
100
AcDbArc
 50
102.37361
 51
167.62635
  0
ARC
  5
2CF
100
AcDbEntity
  8
LAY-2
  6
CONTINUOUS
 62
     2
100
AcDbCircle
 10
176.321307
 20
398.298904
 30
0.0
 40
2.8
100
AcDbArc
 50
282.37364
 51
347.62639
  0
CIRCLE
  5
2D0
100
AcDbEntity
  8
LAY-2
  6
CONTINUOUS
 62
     2
100
AcDbCircle
 10
176.321307
 20
398.298904
 30
0.0
 40
4.35
  0
ARC
  5
2D1
100
AcDbEntity
  8
LAY-2
  6
CONTINUOUS
 62
     2
100
AcDbCircle
 10
243.821311
 20
384.11882
 30
0.0
 40
5.0
100
AcDbArc
 50
270.0
 51
359.99999
  0
ARC
  5
2D2
100
AcDbEntity
  8
LAY-2
  6
CONTINUOUS
 62
     2
100
AcDbCircle
 10
243.821311
 20
384.11882
 30
0.0
 40
15.0
100
AcDbArc
 50
270.0
 51
359.99999
  0
ARC
  5
2D3
100
AcDbEntity
  8
LAY-2
  6
CONTINUOUS
 62
     2
100
AcDbCircle
 10
243.821342
 20
421.798904
 30
0.0
 40
5.0
100
AcDbArc
 50
0.0
 51
90.0
  0
ARC
  5
2D4
100
AcDbEntity
  8
LAY-2
  6
CONTINUOUS
 62
     2
100
AcDbCircle
 10
243.821342
 20
421.798904
 30
0.0
 40
15.0
100
AcDbArc
 50
0.0
 51
90.0
  0
CIRCLE
  5
2D5
100
AcDbEntity
  8
LAY-2
  6
CONTINUOUS
 62
     2
100
AcDbCircle
 10
151.321307
 20
416.298904
 30
0.0
 40
4.35
  0
ARC
  5
2D6
100
AcDbEntity
  8
LAY-2
  6
CONTINUOUS
 62
     2
100
AcDbCircle
 10
151.321307
 20
416.298904
 30
0.0
 40
2.8
100
AcDbArc
 50
192.37361
 51
257.62636
  0
ARC
  5
2D7
100
AcDbEntity
  8
LAY-2
  6
CONTINUOUS
 62
     2
100
AcDbCircle
 10
151.321307
 20
416.298904
 30
0.0
 40
2.8
100
AcDbArc
 50
12.373648
 51
77.626393
  0
ARC
  5
2D8
100
AcDbEntity
  8
LAY-2
  6
CONTINUOUS
 62
     2
100
AcDbCircle
 10
151.321307
 20
416.298904
 30
0.0
 40
2.8
100
AcDbArc
 50
102.37367
 51
167.62643
  0
ARC
  5
2D9
100
AcDbEntity
  8
LAY-2
  6
CONTINUOUS
 62
     2
100
AcDbCircle
 10
151.321307
 20
416.298904
 30
0.0
 40
2.8
100
AcDbArc
 50
282.37363
 51
347.62638
  0
ARC
  5
2DA
100
AcDbEntity
  8
LAY-2
  6
CONTINUOUS
 62
     2
100
AcDbCircle
 10
149.721307
 20
417.898906
 30
0.0
 40
1.0
100
AcDbArc
 50
270.00002
 51
0.0
  0
ARC
  5
2DB
100
AcDbEntity
  8
LAY-2
  6
CONTINUOUS
 62
     2
100
AcDbCircle
 10
152.921317
 20
414.698902
 30
0.0
 40
1.0
100
AcDbArc
 50
90.000018
 51
180.00005
  0
ARC
  5
2DC
100
AcDbEntity
  8
LAY-2
  6
CONTINUOUS
 62
     2
100
AcDbCircle
 10
152.921317
 20
417.898903
 30
0.0
 40
1.0
100
AcDbArc
 50
180.00004
 51
270.00002
  0
ARC
  5
2DD
100
AcDbEntity
  8
LAY-2
  6
CONTINUOUS
 62
     2
100
AcDbCircle
 10
149.721307
 20
414.698906
 30
0.0
 40
1.0
100
AcDbArc
 50
0.000022
 51
90.000018
  0
CIRCLE
  5
2DE
100
AcDbEntity
  8
LAY-2
  6
CONTINUOUS
 62
     2
100
AcDbCircle
 10
151.321307
 20
416.298904
 30
0.0
 40
4.0
  0
CIRCLE
  5
2DF
100
AcDbEntity
  8
LAY-2
  6
CONTINUOUS
 62
     2
100
AcDbCircle
 10
201.321311
 20
416.298904
 30
0.0
 40
4.35
  0
ARC
  5
2E0
100
AcDbEntity
  8
LAY-2
  6
CONTINUOUS
 62
     2
100
AcDbCircle
 10
201.321311
 20
416.298904
 30
0.0
 40
2.8
100
AcDbArc
 50
282.37364
 51
347.62639
  0
ARC
  5
2E1
100
AcDbEntity
  8
LAY-2
  6
CONTINUOUS
 62
     2
100
AcDbCircle
 10
201.321311
 20
416.298904
 30
0.0
 40
2.8
100
AcDbArc
 50
192.37362
 51
257.62637
  0
ARC
  5
2E2
100
AcDbEntity
  8
LAY-2
  6
CONTINUOUS
 62
     2
100
AcDbCircle
 10
201.321311
 20
416.298904
 30
0.0
 40
2.8
100
AcDbArc
 50
12.373571
 51
77.626329
  0
CIRCLE
  5
2E3
100
AcDbEntity
  8
LAY-2
  6
CONTINUOUS
 62
     2
100
AcDbCircle
 10
201.321311
 20
416.298904
 30
0.0
 40
4.0
  0
ARC
  5
2E4
100
AcDbEntity
  8
LAY-2
  6
CONTINUOUS
 62
     2
100
AcDbCircle
 10
201.321311
 20
416.298904
 30
0.0
 40
2.8
100
AcDbArc
 50
102.37361
 51
167.62635
  0
ARC
  5
2E5
100
AcDbEntity
  8
LAY-2
  6
CONTINUOUS
 62
     2
100
AcDbCircle
 10
199.721305
 20
414.698902
 30
0.0
 40
1.0
100
AcDbArc
 50
359.99995
 51
89.999982
  0
ARC
  5
2E6
100
AcDbEntity
  8
LAY-2
  6
CONTINUOUS
 62
     2
100
AcDbCircle
 10
202.921318
 20
414.698906
 30
0.0
 40
1.0
100
AcDbArc
 50
89.999982
 51
179.99998
  0
ARC
  5
2E7
100
AcDbEntity
  8
LAY-2
  6
CONTINUOUS
 62
     2
100
AcDbCircle
 10
199.721305
 20
417.898903
 30
0.0
 40
1.0
100
AcDbArc
 50
269.99998
 51
359.99996
  0
ARC
  5
2E8
100
AcDbEntity
  8
LAY-2
  6
CONTINUOUS
 62
     2
100
AcDbCircle
 10
202.921318
 20
417.898906
 30
0.0
 40
1.0
100
AcDbArc
 50
179.99999
 51
269.99998
  0
ARC
  5
2E9
100
AcDbEntity
  8
LAY-2
  6
CONTINUOUS
 62
     2
100
AcDbCircle
 10
238.172264
 20
365.868805
 30
0.0
 40
1.25
100
AcDbArc
 50
270.0
 51
324.62541
  0
ARC
  5
2EA
100
AcDbEntity
  8
LAY-2
  6
CONTINUOUS
 62
     2
100
AcDbCircle
 10
240.822264
 20
380.487316
 30
0.0
 40
4.5
100
AcDbArc
 50
144.62541
 51
180.0
  0
ARC
  5
2EB
100
AcDbEntity
  8
LAY-2
  6
CONTINUOUS
 62
     2
100
AcDbCircle
 10
240.822264
 20
367.750293
 30
0.0
 40
4.5
100
AcDbArc
 50
180.0
 51
215.37459
  0
ARC
  5
2EC
100
AcDbEntity
  8
LAY-2
  6
CONTINUOUS
 62
     2
100
AcDbCircle
 10
238.172264
 20
365.868805
 30
0.0
 40
1.25
100
AcDbArc
 50
212.20423
 51
270.0
  0
ARC
  5
2ED
100
AcDbEntity
  8
LAY-2
  6
CONTINUOUS
 62
     2
100
AcDbCircle
 10
238.172264
 20
382.368805
 30
0.0
 40
1.25
100
AcDbArc
 50
90.0
 51
147.79577
  0
ARC
  5
2EE
100
AcDbEntity
  8
LAY-2
  6
CONTINUOUS
 62
     2
100
AcDbCircle
 10
235.522264
 20
367.750293
 30
0.0
 40
4.5
100
AcDbArc
 50
324.62541
 51
0.0
  0
ARC
  5
2EF
100
AcDbEntity
  8
LAY-2
  6
CONTINUOUS
 62
     2
100
AcDbCircle
 10
238.172264
 20
382.368805
 30
0.0
 40
1.25
100
AcDbArc
 50
35.37459
 51
90.0
  0
ARC
  5
2F0
100
AcDbEntity
  8
LAY-2
  6
CONTINUOUS
 62
     2
100
AcDbCircle
 10
235.522264
 20
380.487316
 30
0.0
 40
4.5
100
AcDbArc
 50
0.0
 51
35.37459
  0
LINE
  5
2F1
100
AcDbEntity
  8
LAY-2
  6
CONTINUOUS
 62
     2
100
AcDbLine
 10
121.022297
 20
369.118805
 30
0.0
 11
236.322264
 21
369.118805
 31
0.0
  0
LINE
  5
2F2
100
AcDbEntity
  8
LAY-2
  6
CONTINUOUS
 62
     2
100
AcDbLine
 10
121.022297
 20
379.118805
 30
0.0
 11
236.322264
 21
379.118805
 31
0.0
  0
LINE
  5
2F3
100
AcDbEntity
  8
LAY-2
  6
CONTINUOUS
 62
     2
100
AcDbLine
 10
109.417577
 20
370.929709
 30
0.0
 11
90.840017
 21
383.949562
 31
0.0
  0
LINE
  5
2F4
100
AcDbEntity
  8
LAY-2
  6
CONTINUOUS
 62
     2
100
AcDbLine
 10
114.906807
 20
369.118805
 30
0.0
 11
117.322297
 21
369.118805
 31
0.0
  0
LINE
  5
2F5
100
AcDbEntity
  8
LAY-2
  6
CONTINUOUS
 62
     2
100
AcDbLine
 10
113.110147
 20
380.821354
 30
0.0
 11
96.202327
 21
392.194695
 31
0.0
  0
LINE
  5
2F6
100
AcDbEntity
  8
LAY-2
  6
CONTINUOUS
 62
     2
100
AcDbLine
 10
121.022297
 20
367.600855
 30
0.0
 11
121.022297
 21
374.118805
 31
0.0
  0
LINE
  5
2F7
100
AcDbEntity
  8
LAY-2
  6
CONTINUOUS
 62
     2
100
AcDbLine
 10
117.322297
 20
380.636754
 30
0.0
 11
117.322297
 21
374.118805
 31
0.0
  0
LINE
  5
2F8
100
AcDbEntity
  8
LAY-2
  6
CONTINUOUS
 62
     2
100
AcDbLine
 10
121.022297
 20
380.636754
 30
0.0
 11
121.022297
 21
374.118805
 31
0.0
  0
LINE
  5
2F9
100
AcDbEntity
  8
LAY-2
  6
CONTINUOUS
 62
     2
100
AcDbLine
 10
117.322297
 20
367.600855
 30
0.0
 11
117.322297
 21
374.118805
 31
0.0
  0
ARC
  5
2FA
100
AcDbEntity
  8
LAY-2
  6
CONTINUOUS
 62
     2
100
AcDbCircle
 10
118.691567
 20
389.118805
 30
0.0
 40
10.0
100
AcDbArc
 50
236.07256
 51
262.12994
  0
ARC
  5
2FB
100
AcDbEntity
  8
LAY-2
  6
CONTINUOUS
 62
     2
100
AcDbCircle
 10
115.156807
 20
379.118805
 30
0.0
 40
10.0
100
AcDbArc
 50
234.97578
 51
270.0
  0
ARC
  5
2FC
100
AcDbEntity
  8
LAY-2
  6
CONTINUOUS
 62
     2
100
AcDbCircle
 10
119.172297
 20
365.868805
 30
0.0
 40
1.25
100
AcDbArc
 50
212.20423
 51
270.0
  0
ARC
  5
2FD
100
AcDbEntity
  8
LAY-2
  6
CONTINUOUS
 62
     2
100
AcDbCircle
 10
116.522297
 20
380.487316
 30
0.0
 40
4.5
100
AcDbArc
 50
0.0
 51
35.37459
  0
ARC
  5
2FE
100
AcDbEntity
  8
LAY-2
  6
CONTINUOUS
 62
     2
100
AcDbCircle
 10
119.172297
 20
382.368805
 30
0.0
 40
1.25
100
AcDbArc
 50
35.37459
 51
90.0
  0
ARC
  5
2FF
100
AcDbEntity
  8
LAY-2
  6
CONTINUOUS
 62
     2
100
AcDbCircle
 10
116.522297
 20
367.750293
 30
0.0
 40
4.5
100
AcDbArc
 50
324.62541
 51
0.0
  0
ARC
  5
300
100
AcDbEntity
  8
LAY-2
  6
CONTINUOUS
 62
     2
100
AcDbCircle
 10
119.172297
 20
382.368805
 30
0.0
 40
1.25
100
AcDbArc
 50
90.0
 51
147.79577
  0
ARC
  5
301
100
AcDbEntity
  8
LAY-2
  6
CONTINUOUS
 62
     2
100
AcDbCircle
 10
121.822297
 20
367.750293
 30
0.0
 40
4.5
100
AcDbArc
 50
180.0
 51
215.37459
  0
ARC
  5
302
100
AcDbEntity
  8
LAY-2
  6
CONTINUOUS
 62
     2
100
AcDbCircle
 10
121.822297
 20
380.487316
 30
0.0
 40
4.5
100
AcDbArc
 50
144.62541
 51
180.0
  0
ARC
  5
303
100
AcDbEntity
  8
LAY-2
  6
CONTINUOUS
 62
     2
100
AcDbCircle
 10
119.172297
 20
365.868805
 30
0.0
 40
1.25
100
AcDbArc
 50
270.0
 51
324.62541
  0
ARC
  5
304
100
AcDbEntity
  8
LAY-2
  6
CONTINUOUS
 62
     2
100
AcDbCircle
 10
95.328648
 20
390.281926
 30
0.0
 40
2.097073
100
AcDbArc
 50
64.114786
 51
75.450797
  0
ARC
  5
305
100
AcDbEntity
  8
LAY-2
  6
CONTINUOUS
 62
     2
100
AcDbCircle
 10
95.727754
 20
389.883572
 30
0.0
 40
2.431534
100
AcDbArc
 50
86.989472
 51
98.325483
  0
ARC
  5
306
100
AcDbEntity
  8
LAY-2
  6
CONTINUOUS
 62
     2
100
AcDbCircle
 10
96.040767
 20
389.414492
 30
0.0
 40
2.950917
100
AcDbArc
 50
103.02547
 51
114.361481
  0
ARC
  5
307
100
AcDbEntity
  8
LAY-2
  6
CONTINUOUS
 62
     2
100
AcDbCircle
 10
96.255469
 20
388.893071
 30
0.0
 40
3.514528
100
AcDbArc
 50
114.043636
 51
125.379648
  0
ARC
  5
308
100
AcDbEntity
  8
LAY-2
  6
CONTINUOUS
 62
     2
100
AcDbCircle
 10
96.363494
 20
388.339592
 30
0.0
 40
4.035041
100
AcDbArc
 50
122.078076
 51
133.414087
  0
ARC
  5
309
100
AcDbEntity
  8
LAY-2
  6
CONTINUOUS
 62
     2
100
AcDbCircle
 10
96.360608
 20
387.775626
 30
0.0
 40
4.459784
100
AcDbArc
 50
128.401251
 51
139.737262
  0
ARC
  5
30A
100
AcDbEntity
  8
LAY-2
  6
CONTINUOUS
 62
     2
100
AcDbCircle
 10
96.246939
 20
387.223349
 30
0.0
 40
4.755797
100
AcDbArc
 50
133.764108
 51
145.100119
  0
ARC
  5
30B
100
AcDbEntity
  8
LAY-2
  6
CONTINUOUS
 62
     2
100
AcDbCircle
 10
96.026921
 20
386.704103
 30
0.0
 40
4.903573
100
AcDbArc
 50
138.639596
 51
149.975607
  0
ARC
  5
30C
100
AcDbEntity
  8
LAY-2
  6
CONTINUOUS
 62
     2
100
AcDbCircle
 10
95.709133
 20
386.238238
 30
0.0
 40
4.89395
100
AcDbArc
 50
143.377183
 51
154.713194
  0
ARC
  5
30D
100
AcDbEntity
  8
LAY-2
  6
CONTINUOUS
 62
     2
100
AcDbCircle
 10
95.305977
 20
385.843974
 30
0.0
 40
4.727489
100
AcDbArc
 50
148.292145
 51
159.628156
  0
ARC
  5
30E
100
AcDbEntity
  8
LAY-2
  6
CONTINUOUS
 62
     2
100
AcDbCircle
 10
94.833177
 20
385.536573
 30
0.0
 40
4.414551
100
AcDbArc
 50
153.741489
 51
165.0775
  0
ARC
  5
30F
100
AcDbEntity
  8
LAY-2
  6
CONTINUOUS
 62
     2
100
AcDbCircle
 10
94.309193
 20
385.328176
 30
0.0
 40
3.976151
100
AcDbArc
 50
160.22565
 51
171.561662
  0
ARC
  5
310
100
AcDbEntity
  8
LAY-2
  6
CONTINUOUS
 62
     2
100
AcDbCircle
 10
93.754455
 20
385.226797
 30
0.0
 40
3.447086
100
AcDbArc
 50
168.540359
 51
179.87637
  0
ARC
  5
311
100
AcDbEntity
  8
LAY-2
  6
CONTINUOUS
 62
     2
100
AcDbCircle
 10
93.190618
 20
385.236482
 30
0.0
 40
2.883242
100
AcDbArc
 50
180.04466
 51
191.380671
  0
ARC
  5
312
100
AcDbEntity
  8
LAY-2
  6
CONTINUOUS
 62
     2
100
AcDbCircle
 10
92.639689
 20
385.356766
 30
0.0
 40
2.377706
100
AcDbArc
 50
196.850136
 51
208.186147
  0
ARC
  5
313
100
AcDbEntity
  8
LAY-2
  6
CONTINUOUS
 62
     2
100
AcDbCircle
 10
92.123141
 20
385.582987
 30
0.0
 40
2.077136
100
AcDbArc
 50
220.511187
 51
231.847199
  0
ARC
  5
314
100
AcDbEntity
  8
LAY-2
  6
CONTINUOUS
 62
     2
100
AcDbCircle
 10
94.530787
 20
389.389255
 30
0.0
 40
3.271218
100
AcDbArc
 50
60.922429
 51
72.06614
  0
ARC
  5
315
100
AcDbEntity
  8
LAY-2
  6
CONTINUOUS
 62
     2
100
AcDbCircle
 10
94.766309
 20
389.169266
 30
0.0
 40
3.420468
100
AcDbArc
 50
76.960276
 51
88.103987
  0
ARC
  5
316
100
AcDbEntity
  8
LAY-2
  6
CONTINUOUS
 62
     2
100
AcDbCircle
 10
94.954873
 20
388.907934
 30
0.0
 40
3.6807
100
AcDbArc
 50
91.173737
 51
102.317448
  0
ARC
  5
317
100
AcDbEntity
  8
LAY-2
  6
CONTINUOUS
 62
     2
100
AcDbCircle
 10
95.089376
 20
388.615054
 30
0.0
 40
3.996125
100
AcDbArc
 50
103.305764
 51
114.449475
  0
ARC
  5
318
100
AcDbEntity
  8
LAY-2
  6
CONTINUOUS
 62
     2
100
AcDbCircle
 10
95.164742
 20
388.301762
 30
0.0
 40
4.312948
100
AcDbArc
 50
113.638281
 51
124.781991
  0
ARC
  5
319
100
AcDbEntity
  8
LAY-2
  6
CONTINUOUS
 62
     2
100
AcDbCircle
 10
95.178132
 20
387.979729
 30
0.0
 40
4.588334
100
AcDbArc
 50
122.624826
 51
133.768537
  0
ARC
  5
31A
100
AcDbEntity
  8
LAY-2
  6
CONTINUOUS
 62
     2
100
AcDbCircle
 10
95.129028
 20
387.661257
 30
0.0
 40
4.791179
100
AcDbArc
 50
130.708531
 51
141.852242
  0
ARC
  5
31B
100
AcDbEntity
  8
LAY-2
  6
CONTINUOUS
 62
     2
100
AcDbCircle
 10
95.019301
 20
387.358241
 30
0.0
 40
4.901624
100
AcDbArc
 50
138.272154
 51
149.415864
  0
ARC
  5
31C
100
AcDbEntity
  8
LAY-2
  6
CONTINUOUS
 62
     2
100
AcDbCircle
 10
94.853078
 20
387.082112
 30
0.0
 40
4.90961
100
AcDbArc
 50
145.652002
 51
156.795713
  0
ARC
  5
31D
100
AcDbEntity
  8
LAY-2
  6
CONTINUOUS
 62
     2
100
AcDbCircle
 10
94.636626
 20
386.843385
 30
0.0
 40
4.81438
100
AcDbArc
 50
153.167066
 51
164.310777
  0
ARC
  5
31E
100
AcDbEntity
  8
LAY-2
  6
CONTINUOUS
 62
     2
100
AcDbCircle
 10
94.378112
 20
386.650974
 30
0.0
 40
4.624573
100
AcDbArc
 50
161.148016
 51
172.291727
  0
ARC
  5
31F
100
AcDbEntity
  8
LAY-2
  6
CONTINUOUS
 62
     2
100
AcDbCircle
 10
94.087292
 20
386.512159
 30
0.0
 40
4.358579
100
AcDbArc
 50
169.970007
 51
181.113718
  0
ARC
  5
320
100
AcDbEntity
  8
LAY-2
  6
CONTINUOUS
 62
     2
100
AcDbCircle
 10
93.77511
 20
386.432113
 30
0.0
 40
4.045576
100
AcDbArc
 50
180.066153
 51
191.209864
  0
ARC
  5
321
100
AcDbEntity
  8
LAY-2
  6
CONTINUOUS
 62
     2
100
AcDbCircle
 10
93.453359
 20
386.413964
 30
0.0
 40
3.726703
100
AcDbArc
 50
191.897837
 51
203.041548
  0
ARC
  5
322
100
AcDbEntity
  8
LAY-2
  6
CONTINUOUS
 62
     2
100
AcDbCircle
 10
93.134155
 20
386.458304
 30
0.0
 40
3.454298
100
AcDbArc
 50
205.791669
 51
216.93538
  0
ARC
  5
323
100
AcDbEntity
  8
LAY-2
  6
CONTINUOUS
 62
     2
100
AcDbCircle
 10
92.829555
 20
386.563576
 30
0.0
 40
3.28497
100
AcDbArc
 50
221.600702
 51
232.744413
  0
ARC
  5
324
100
AcDbEntity
  8
LAY-2
  6
CONTINUOUS
 62
     2
100
AcDbCircle
 10
340.590461
 20
374.458206
 30
0.0
 40
5.0
100
AcDbArc
 50
145.00016
 51
325.00015
  0
ARC
  5
325
100
AcDbEntity
  8
LAY-2
  6
CONTINUOUS
 62
     2
100
AcDbCircle
 10
340.389705
 20
374.171493
 30
0.0
 40
9.5
100
AcDbArc
 50
86.756947
 51
23.242814
  0
LINE
  5
326
100
AcDbEntity
  8
LAY-2
  6
CONTINUOUS
 62
     2
100
AcDbLine
 10
344.686285
 20
371.59031
 30
0.0
 11
384.836524
 21
428.930997
 31
0.0
  0
LINE
  5
327
100
AcDbEntity
  8
LAY-2
  6
CONTINUOUS
 62
     2
100
AcDbLine
 10
336.494671
 20
377.32604
 30
0.0
 11
376.644948
 21
434.666781
 31
0.0
  0
ARC
  5
328
100
AcDbEntity
  8
LAY-2
  6
CONTINUOUS
 62
     2
100
AcDbCircle
 10
380.740715
 20
431.798904
 30
0.0
 40
10.0
100
AcDbArc
 50
14.477515
 51
205.00008
  0
ARC
  5
329
100
AcDbEntity
  8
LAY-2
  6
CONTINUOUS
 62
     2
100
AcDbCircle
 10
380.740715
 20
431.798904
 30
0.0
 40
5.0
100
AcDbArc
 50
325.0001
 51
145.0001
  0
ARC
  5
32A
100
AcDbEntity
  8
LAY-2
  6
CONTINUOUS
 62
     2
100
AcDbCircle
 10
380.740715
 20
431.798904
 30
0.0
 40
10.0
100
AcDbArc
 50
265.00046
 51
345.52249
  0
LINE
  5
32B
100
AcDbEntity
  8
LAY-2
  6
CONTINUOUS
 62
     2
100
AcDbLine
 10
390.423194
 20
434.298904
 30
0.0
 11
430.740767
 21
434.298904
 31
0.0
  0
LINE
  5
32C
100
AcDbEntity
  8
LAY-2
  6
CONTINUOUS
 62
     2
100
AcDbLine
 10
390.423194
 20
429.298904
 30
0.0
 11
420.740767
 21
429.298904
 31
0.0
  0
ARC
  5
32D
100
AcDbEntity
  8
LAY-2
  6
CONTINUOUS
 62
     2
100
AcDbCircle
 10
420.740737
 20
424.298904
 30
0.0
 40
5.0
100
AcDbArc
 50
0.0
 51
89.999982
  0
LINE
  5
32E
100
AcDbEntity
  8
LAY-2
  6
CONTINUOUS
 62
     2
100
AcDbLine
 10
430.740737
 20
434.298904
 30
0.0
 11
430.740737
 21
389.298904
 31
0.0
  0
LINE
  5
32F
100
AcDbEntity
  8
LAY-2
  6
CONTINUOUS
 62
     2
100
AcDbLine
 10
428.740737
 20
389.298904
 30
0.0
 11
430.740767
 21
389.298904
 31
0.0
  0
LINE
  5
330
100
AcDbEntity
  8
LAY-2
  6
EXLTYPE1
 62
     2
100
AcDbLine
 10
425.740767
 20
416.89891
 30
0.0
 11
426.940777
 21
416.89891
 31
0.0
  0
LINE
  5
331
100
AcDbEntity
  8
LAY-2
  6
EXLTYPE1
 62
     2
100
AcDbLine
 10
426.940747
 20
412.298904
 30
0.0
 11
426.940747
 21
420.298904
 31
0.0
  0
LINE
  5
332
100
AcDbEntity
  8
LAY-2
  6
EXLTYPE1
 62
     2
100
AcDbLine
 10
426.940747
 20
420.298904
 30
0.0
 11
428.240767
 21
420.298904
 31
0.0
  0
LINE
  5
333
100
AcDbEntity
  8
LAY-2
  6
EXLTYPE1
 62
     2
100
AcDbLine
 10
425.740817
 20
419.098721
 30
0.0
 11
426.940827
 21
420.298728
 31
0.0
  0
LINE
  5
334
100
AcDbEntity
  8
LAY-2
  6
EXLTYPE1
 62
     2
100
AcDbLine
 10
425.740767
 20
415.698898
 30
0.0
 11
426.940777
 21
415.698898
 31
0.0
  0
LINE
  5
335
100
AcDbEntity
  8
LAY-2
  6
EXLTYPE1
 62
     2
100
AcDbLine
 10
425.741307
 20
413.499505
 30
0.0
 11
426.941317
 21
412.299497
 31
0.0
  0
LINE
  5
336
100
AcDbEntity
  8
LAY-2
  6
EXLTYPE1
 62
     2
100
AcDbLine
 10
426.940747
 20
412.298904
 30
0.0
 11
428.240767
 21
412.298904
 31
0.0
  0
LINE
  5
337
100
AcDbEntity
  8
LAY-2
  6
CONTINUOUS
 62
     2
100
AcDbLine
 10
434.395247
 20
414.7989
 30
0.0
 11
435.751207
 21
414.7989
 31
0.0
  0
LINE
  5
338
100
AcDbEntity
  8
LAY-2
  6
CONTINUOUS
 62
     2
100
AcDbLine
 10
436.039837
 20
414.298886
 30
0.0
 11
435.039977
 21
418.298877
 31
0.0
  0
LINE
  5
339
100
AcDbEntity
  8
LAY-2
  6
CONTINUOUS
 62
     2
100
AcDbLine
 10
436.328597
 20
414.7989
 30
0.0
 11
437.684557
 21
414.7989
 31
0.0
  0
LINE
  5
33A
100
AcDbEntity
  8
LAY-2
  6
CONTINUOUS
 62
     2
100
AcDbLine
 10
437.973037
 20
414.298899
 30
0.0
 11
436.973177
 21
418.298905
 31
0.0
  0
LINE
  5
33B
100
AcDbEntity
  8
LAY-2
  6
CONTINUOUS
 62
     2
100
AcDbLine
 10
438.261887
 20
414.7989
 30
0.0
 11
439.617847
 21
414.7989
 31
0.0
  0
LINE
  5
33C
100
AcDbEntity
  8
LAY-2
  6
CONTINUOUS
 62
     2
100
AcDbLine
 10
439.906517
 20
414.298897
 30
0.0
 11
438.906657
 21
418.298888
 31
0.0
  0
LINE
  5
33D
100
AcDbEntity
  8
LAY-2
  6
CONTINUOUS
 62
     2
100
AcDbLine
 10
440.195537
 20
414.798753
 30
0.0
 11
439.906857
 21
414.298743
 31
0.0
  0
LINE
  5
33E
100
AcDbEntity
  8
LAY-2
  6
CONTINUOUS
 62
     2
100
AcDbLine
 10
440.195237
 20
414.7989
 30
0.0
 11
441.551197
 21
414.7989
 31
0.0
  0
LINE
  5
33F
100
AcDbEntity
  8
LAY-2
  6
CONTINUOUS
 62
     2
100
AcDbLine
 10
442.128587
 20
414.7989
 30
0.0
 11
443.484547
 21
414.7989
 31
0.0
  0
LINE
  5
340
100
AcDbEntity
  8
LAY-2
  6
CONTINUOUS
 62
     2
100
AcDbLine
 10
443.773227
 20
414.298912
 30
0.0
 11
442.773367
 21
418.298917
 31
0.0
  0
LINE
  5
341
100
AcDbEntity
  8
LAY-2
  6
CONTINUOUS
 62
     2
100
AcDbLine
 10
445.706597
 20
414.298955
 30
0.0
 11
444.706737
 21
418.29896
 31
0.0
  0
LINE
  5
342
100
AcDbEntity
  8
LAY-2
  6
CONTINUOUS
 62
     2
100
AcDbLine
 10
445.995227
 20
414.7989
 30
0.0
 11
447.351177
 21
414.7989
 31
0.0
  0
LINE
  5
343
100
AcDbEntity
  8
LAY-2
  6
CONTINUOUS
 62
     2
100
AcDbLine
 10
447.639847
 20
414.298916
 30
0.0
 11
446.639987
 21
418.298921
 31
0.0
  0
LINE
  5
344
100
AcDbEntity
  8
LAY-2
  6
CONTINUOUS
 62
     2
100
AcDbLine
 10
449.573307
 20
414.299091
 30
0.0
 11
449.284627
 21
414.799088
 31
0.0
  0
LINE
  5
345
100
AcDbEntity
  8
LAY-2
  6
CONTINUOUS
 62
     2
100
AcDbLine
 10
451.506617
 20
414.299004
 30
0.0
 11
451.217937
 21
414.799014
 31
0.0
  0
LINE
  5
346
100
AcDbEntity
  8
LAY-2
  6
CONTINUOUS
 62
     2
100
AcDbLine
 10
451.795277
 20
414.7989
 30
0.0
 11
453.151227
 21
414.7989
 31
0.0
  0
LINE
  5
347
100
AcDbEntity
  8
LAY-2
  6
CONTINUOUS
 62
     2
100
AcDbLine
 10
453.439827
 20
414.298881
 30
0.0
 11
452.439967
 21
418.298901
 31
0.0
  0
LINE
  5
348
100
AcDbEntity
  8
LAY-2
  6
CONTINUOUS
 62
     2
100
AcDbLine
 10
453.440027
 20
414.299029
 30
0.0
 11
453.151357
 21
414.799026
 31
0.0
  0
LINE
  5
349
100
AcDbEntity
  8
LAY-2
  6
CONTINUOUS
 62
     2
100
AcDbLine
 10
453.728937
 20
414.798659
 30
0.0
 11
453.440267
 21
414.298676
 31
0.0
  0
LINE
  5
34A
100
AcDbEntity
  8
LAY-2
  6
CONTINUOUS
 62
     2
100
AcDbLine
 10
453.312177
 20
414.798785
 30
0.0
 11
454.928507
 21
415.290779
 31
0.0
  0
LINE
  5
34B
100
AcDbEntity
  8
LAY-2
  6
CONTINUOUS
 62
     2
100
AcDbLine
 10
453.728197
 20
414.798831
 30
0.0
 11
452.728327
 21
417.798826
 31
0.0
  0
LINE
  5
34C
100
AcDbEntity
  8
LAY-2
  6
CONTINUOUS
 62
     2
100
AcDbLine
 10
454.180977
 20
417.534625
 30
0.0
 11
454.928727
 21
415.291012
 31
0.0
  0
LINE
  5
34D
100
AcDbEntity
  8
LAY-2
  6
CONTINUOUS
 62
     2
100
AcDbLine
 10
455.310147
 20
415.406827
 30
0.0
 11
455.085957
 21
415.018506
 31
0.0
  0
LINE
  5
34E
100
AcDbEntity
  8
LAY-2
  6
CONTINUOUS
 62
     2
100
AcDbLine
 10
455.085497
 20
415.01869
 30
0.0
 11
454.373217
 21
417.868218
 31
0.0
  0
LINE
  5
34F
100
AcDbEntity
  8
LAY-2
  6
CONTINUOUS
 62
     2
100
AcDbLine
 10
454.647237
 20
417.391996
 30
0.0
 11
455.308867
 21
415.406732
 31
0.0
  0
LINE
  5
350
100
AcDbEntity
  8
LAY-2
  6
CONTINUOUS
 62
     2
100
AcDbLine
 10
455.309847
 20
415.406857
 30
0.0
 11
456.584297
 21
415.794787
 31
0.0
  0
LINE
  5
351
100
AcDbEntity
  8
LAY-2
  6
CONTINUOUS
 62
     2
100
AcDbLine
 10
456.775317
 20
415.852805
 30
0.0
 11
456.663227
 21
415.658658
 31
0.0
  0
LINE
  5
352
100
AcDbEntity
  8
LAY-2
  6
CONTINUOUS
 62
     2
100
AcDbLine
 10
456.585217
 20
415.795256
 30
0.0
 11
456.211357
 21
416.917071
 31
0.0
  0
LINE
  5
353
100
AcDbEntity
  8
LAY-2
  6
CONTINUOUS
 62
     2
100
AcDbLine
 10
456.663037
 20
415.658766
 30
0.0
 11
456.306897
 21
417.083541
 31
0.0
  0
LINE
  5
354
100
AcDbEntity
  8
LAY-2
  6
CONTINUOUS
 62
     2
100
AcDbLine
 10
456.444137
 20
416.845537
 30
0.0
 11
456.774937
 21
415.852895
 31
0.0
  0
LINE
  5
355
100
AcDbEntity
  8
LAY-2
  6
CONTINUOUS
 62
     2
100
AcDbLine
 10
456.443847
 20
416.845045
 30
0.0
 11
458.239747
 21
416.29839
 31
0.0
  0
LINE
  5
356
100
AcDbEntity
  8
LAY-2
  6
CONTINUOUS
 62
     2
100
AcDbLine
 10
456.774947
 20
415.852817
 30
0.0
 11
458.240067
 21
416.298786
 31
0.0
  0
LINE
  5
357
100
AcDbEntity
  8
LAY-2
  6
CONTINUOUS
 62
     2
100
AcDbLine
 10
456.307017
 20
417.083695
 30
0.0
 11
456.444427
 21
416.845689
 31
0.0
  0
LINE
  5
358
100
AcDbEntity
  8
LAY-2
  6
CONTINUOUS
 62
     2
100
AcDbLine
 10
454.647887
 20
417.391718
 30
0.0
 11
456.210117
 21
416.916192
 31
0.0
  0
LINE
  5
359
100
AcDbEntity
  8
LAY-2
  6
CONTINUOUS
 62
     2
100
AcDbLine
 10
453.311867
 20
417.798391
 30
0.0
 11
454.180417
 21
417.534012
 31
0.0
  0
LINE
  5
35A
100
AcDbEntity
  8
LAY-2
  6
CONTINUOUS
 62
     2
100
AcDbLine
 10
454.373687
 20
417.868357
 30
0.0
 11
454.662367
 21
417.368353
 31
0.0
  0
LINE
  5
35B
100
AcDbEntity
  8
LAY-2
  6
CONTINUOUS
 62
     2
100
AcDbLine
 10
452.440357
 20
418.299021
 30
0.0
 11
452.729027
 21
417.799024
 31
0.0
  0
LINE
  5
35C
100
AcDbEntity
  8
LAY-2
  6
CONTINUOUS
 62
     2
100
AcDbLine
 10
452.728687
 20
417.7989
 30
0.0
 11
453.312117
 21
417.7989
 31
0.0
  0
LINE
  5
35D
100
AcDbEntity
  8
LAY-2
  6
CONTINUOUS
 62
     2
100
AcDbLine
 10
450.795397
 20
417.7989
 30
0.0
 11
452.151347
 21
417.7989
 31
0.0
  0
LINE
  5
35E
100
AcDbEntity
  8
LAY-2
  6
CONTINUOUS
 62
     2
100
AcDbLine
 10
452.152287
 20
417.799197
 30
0.0
 11
453.152137
 21
414.799179
 31
0.0
  0
LINE
  5
35F
100
AcDbEntity
  8
LAY-2
  6
CONTINUOUS
 62
     2
100
AcDbLine
 10
452.151477
 20
417.798766
 30
0.0
 11
452.440177
 21
418.298803
 31
0.0
  0
LINE
  5
360
100
AcDbEntity
  8
LAY-2
  6
CONTINUOUS
 62
     2
100
AcDbLine
 10
454.180917
 20
417.534431
 30
0.0
 11
454.373577
 21
417.868124
 31
0.0
  0
LINE
  5
361
100
AcDbEntity
  8
LAY-2
  6
CONTINUOUS
 62
     2
100
AcDbLine
 10
450.507107
 20
418.299081
 30
0.0
 11
450.795777
 21
417.799084
 31
0.0
  0
LINE
  5
362
100
AcDbEntity
  8
LAY-2
  6
CONTINUOUS
 62
     2
100
AcDbLine
 10
451.506397
 20
414.29889
 30
0.0
 11
450.506537
 21
418.298888
 31
0.0
  0
LINE
  5
363
100
AcDbEntity
  8
LAY-2
  6
CONTINUOUS
 62
     2
100
AcDbLine
 10
448.862047
 20
417.7989
 30
0.0
 11
450.217997
 21
417.7989
 31
0.0
  0
LINE
  5
364
100
AcDbEntity
  8
LAY-2
  6
CONTINUOUS
 62
     2
100
AcDbLine
 10
450.218157
 20
417.798745
 30
0.0
 11
450.506837
 21
418.298755
 31
0.0
  0
LINE
  5
365
100
AcDbEntity
  8
LAY-2
  6
CONTINUOUS
 62
     2
100
AcDbLine
 10
450.219097
 20
417.799276
 30
0.0
 11
451.218947
 21
414.799267
 31
0.0
  0
LINE
  5
366
100
AcDbEntity
  8
LAY-2
  6
CONTINUOUS
 62
     2
100
AcDbLine
 10
451.794987
 20
414.798776
 30
0.0
 11
450.795107
 21
417.798779
 31
0.0
  0
LINE
  5
367
100
AcDbEntity
  8
LAY-2
  6
CONTINUOUS
 62
     2
100
AcDbLine
 10
451.795627
 20
414.798685
 30
0.0
 11
451.506967
 21
414.298701
 31
0.0
  0
LINE
  5
368
100
AcDbEntity
  8
LAY-2
  6
CONTINUOUS
 62
     2
100
AcDbLine
 10
449.861927
 20
414.7989
 30
0.0
 11
451.217877
 21
414.7989
 31
0.0
  0
LINE
  5
369
100
AcDbEntity
  8
LAY-2
  6
CONTINUOUS
 62
     2
100
AcDbLine
 10
449.862247
 20
414.79875
 30
0.0
 11
449.573567
 21
414.29874
 31
0.0
  0
LINE
  5
36A
100
AcDbEntity
  8
LAY-2
  6
CONTINUOUS
 62
     2
100
AcDbLine
 10
449.573157
 20
414.298899
 30
0.0
 11
448.573297
 21
418.29889
 31
0.0
  0
LINE
  5
36B
100
AcDbEntity
  8
LAY-2
  6
CONTINUOUS
 62
     2
100
AcDbLine
 10
449.861587
 20
414.798854
 30
0.0
 11
448.861717
 21
417.798848
 31
0.0
  0
LINE
  5
36C
100
AcDbEntity
  8
LAY-2
  6
CONTINUOUS
 62
     2
100
AcDbLine
 10
448.285537
 20
417.799216
 30
0.0
 11
449.285387
 21
414.799212
 31
0.0
  0
LINE
  5
36D
100
AcDbEntity
  8
LAY-2
  6
CONTINUOUS
 62
     2
100
AcDbLine
 10
448.284927
 20
417.798848
 30
0.0
 11
448.573597
 21
418.298831
 31
0.0
  0
LINE
  5
36E
100
AcDbEntity
  8
LAY-2
  6
CONTINUOUS
 62
     2
100
AcDbLine
 10
448.573637
 20
418.299018
 30
0.0
 11
448.862307
 21
417.799021
 31
0.0
  0
LINE
  5
36F
100
AcDbEntity
  8
LAY-2
  6
CONTINUOUS
 62
     2
100
AcDbLine
 10
446.928697
 20
417.7989
 30
0.0
 11
448.284717
 21
417.7989
 31
0.0
  0
LINE
  5
370
100
AcDbEntity
  8
LAY-2
  6
CONTINUOUS
 62
     2
100
AcDbLine
 10
446.640337
 20
418.299041
 30
0.0
 11
446.929017
 21
417.799044
 31
0.0
  0
LINE
  5
371
100
AcDbEntity
  8
LAY-2
  6
CONTINUOUS
 62
     2
100
AcDbLine
 10
446.351537
 20
417.798827
 30
0.0
 11
446.640217
 21
418.298837
 31
0.0
  0
LINE
  5
372
100
AcDbEntity
  8
LAY-2
  6
CONTINUOUS
 62
     2
100
AcDbLine
 10
446.352287
 20
417.799219
 30
0.0
 11
447.352137
 21
414.79921
 31
0.0
  0
LINE
  5
373
100
AcDbEntity
  8
LAY-2
  6
CONTINUOUS
 62
     2
100
AcDbLine
 10
444.995347
 20
417.7989
 30
0.0
 11
446.351367
 21
417.7989
 31
0.0
  0
LINE
  5
374
100
AcDbEntity
  8
LAY-2
  6
CONTINUOUS
 62
     2
100
AcDbLine
 10
447.928257
 20
414.798822
 30
0.0
 11
446.928387
 21
417.798817
 31
0.0
  0
LINE
  5
375
100
AcDbEntity
  8
LAY-2
  6
CONTINUOUS
 62
     2
100
AcDbLine
 10
447.928917
 20
414.79874
 30
0.0
 11
447.640247
 21
414.298756
 31
0.0
  0
LINE
  5
376
100
AcDbEntity
  8
LAY-2
  6
CONTINUOUS
 62
     2
100
AcDbLine
 10
447.639977
 20
414.298996
 30
0.0
 11
447.351297
 21
414.798999
 31
0.0
  0
LINE
  5
377
100
AcDbEntity
  8
LAY-2
  6
CONTINUOUS
 62
     2
100
AcDbLine
 10
447.928577
 20
414.7989
 30
0.0
 11
449.284527
 21
414.7989
 31
0.0
  0
LINE
  5
378
100
AcDbEntity
  8
LAY-2
  6
CONTINUOUS
 62
     2
100
AcDbLine
 10
445.995517
 20
414.798785
 30
0.0
 11
445.706847
 21
414.298801
 31
0.0
  0
LINE
  5
379
100
AcDbEntity
  8
LAY-2
  6
CONTINUOUS
 62
     2
100
AcDbLine
 10
445.706667
 20
414.299045
 30
0.0
 11
445.417987
 21
414.799042
 31
0.0
  0
LINE
  5
37A
100
AcDbEntity
  8
LAY-2
  6
CONTINUOUS
 62
     2
100
AcDbLine
 10
444.061937
 20
414.7989
 30
0.0
 11
445.417887
 21
414.7989
 31
0.0
  0
LINE
  5
37B
100
AcDbEntity
  8
LAY-2
  6
CONTINUOUS
 62
     2
100
AcDbLine
 10
444.062197
 20
414.798716
 30
0.0
 11
443.773527
 21
414.298732
 31
0.0
  0
LINE
  5
37C
100
AcDbEntity
  8
LAY-2
  6
CONTINUOUS
 62
     2
100
AcDbLine
 10
444.419037
 20
417.799225
 30
0.0
 11
445.418887
 21
414.799215
 31
0.0
  0
LINE
  5
37D
100
AcDbEntity
  8
LAY-2
  6
CONTINUOUS
 62
     2
100
AcDbLine
 10
445.995037
 20
414.798848
 30
0.0
 11
444.995157
 21
417.798859
 31
0.0
  0
LINE
  5
37E
100
AcDbEntity
  8
LAY-2
  6
CONTINUOUS
 62
     2
100
AcDbLine
 10
444.418267
 20
417.79882
 30
0.0
 11
444.706927
 21
418.298804
 31
0.0
  0
LINE
  5
37F
100
AcDbEntity
  8
LAY-2
  6
CONTINUOUS
 62
     2
100
AcDbLine
 10
444.707007
 20
418.299031
 30
0.0
 11
444.995687
 21
417.799034
 31
0.0
  0
LINE
  5
380
100
AcDbEntity
  8
LAY-2
  6
CONTINUOUS
 62
     2
100
AcDbLine
 10
443.062057
 20
417.7989
 30
0.0
 11
444.418017
 21
417.7989
 31
0.0
  0
LINE
  5
381
100
AcDbEntity
  8
LAY-2
  6
CONTINUOUS
 62
     2
100
AcDbLine
 10
442.773637
 20
418.299012
 30
0.0
 11
443.062307
 21
417.799015
 31
0.0
  0
LINE
  5
382
100
AcDbEntity
  8
LAY-2
  6
CONTINUOUS
 62
     2
100
AcDbLine
 10
442.484857
 20
417.798777
 30
0.0
 11
442.773537
 21
418.2988
 31
0.0
  0
LINE
  5
383
100
AcDbEntity
  8
LAY-2
  6
CONTINUOUS
 62
     2
100
AcDbLine
 10
442.485537
 20
417.799234
 30
0.0
 11
443.485397
 21
414.799217
 31
0.0
  0
LINE
  5
384
100
AcDbEntity
  8
LAY-2
  6
CONTINUOUS
 62
     2
100
AcDbLine
 10
444.061647
 20
414.798872
 30
0.0
 11
443.061787
 21
417.79886
 31
0.0
  0
LINE
  5
385
100
AcDbEntity
  8
LAY-2
  6
CONTINUOUS
 62
     2
100
AcDbLine
 10
443.773367
 20
414.299014
 30
0.0
 11
443.484687
 21
414.799024
 31
0.0
  0
LINE
  5
386
100
AcDbEntity
  8
LAY-2
  6
CONTINUOUS
 62
     2
100
AcDbLine
 10
442.128857
 20
414.79887
 30
0.0
 11
441.840157
 21
414.298834
 31
0.0
  0
LINE
  5
387
100
AcDbEntity
  8
LAY-2
  6
CONTINUOUS
 62
     2
100
AcDbLine
 10
441.839987
 20
414.298903
 30
0.0
 11
440.840127
 21
418.298908
 31
0.0
  0
LINE
  5
388
100
AcDbEntity
  8
LAY-2
  6
CONTINUOUS
 62
     2
100
AcDbLine
 10
440.552277
 20
417.799241
 30
0.0
 11
441.552127
 21
414.799239
 31
0.0
  0
LINE
  5
389
100
AcDbEntity
  8
LAY-2
  6
CONTINUOUS
 62
     2
100
AcDbLine
 10
442.128357
 20
414.798823
 30
0.0
 11
441.128487
 21
417.798818
 31
0.0
  0
LINE
  5
38A
100
AcDbEntity
  8
LAY-2
  6
CONTINUOUS
 62
     2
100
AcDbLine
 10
441.840047
 20
414.299042
 30
0.0
 11
441.551377
 21
414.799039
 31
0.0
  0
LINE
  5
38B
100
AcDbEntity
  8
LAY-2
  6
CONTINUOUS
 62
     2
100
AcDbLine
 10
455.085597
 20
415.018756
 30
0.0
 11
454.928437
 21
415.290974
 31
0.0
  0
LINE
  5
38C
100
AcDbEntity
  8
LAY-2
  6
CONTINUOUS
 62
     2
100
AcDbLine
 10
456.662917
 20
415.658903
 30
0.0
 11
456.584327
 21
415.795019
 31
0.0
  0
LINE
  5
38D
100
AcDbEntity
  8
LAY-2
  6
CONTINUOUS
 62
     2
100
AcDbLine
 10
434.752267
 20
417.799201
 30
0.0
 11
435.752117
 21
414.799206
 31
0.0
  0
LINE
  5
38E
100
AcDbEntity
  8
LAY-2
  6
CONTINUOUS
 62
     2
100
AcDbLine
 10
436.039947
 20
414.298976
 30
0.0
 11
435.751267
 21
414.798979
 31
0.0
  0
LINE
  5
38F
100
AcDbEntity
  8
LAY-2
  6
CONTINUOUS
 62
     2
100
AcDbLine
 10
436.328857
 20
414.798676
 30
0.0
 11
436.040187
 21
414.298692
 31
0.0
  0
LINE
  5
390
100
AcDbEntity
  8
LAY-2
  6
CONTINUOUS
 62
     2
100
AcDbLine
 10
436.328247
 20
414.798886
 30
0.0
 11
435.328377
 21
417.798881
 31
0.0
  0
LINE
  5
391
100
AcDbEntity
  8
LAY-2
  6
CONTINUOUS
 62
     2
100
AcDbLine
 10
433.395367
 20
417.7989
 30
0.0
 11
434.751327
 21
417.7989
 31
0.0
  0
LINE
  5
392
100
AcDbEntity
  8
LAY-2
  6
CONTINUOUS
 62
     2
100
AcDbLine
 10
434.751537
 20
417.798906
 30
0.0
 11
435.040237
 21
418.298942
 31
0.0
  0
LINE
  5
393
100
AcDbEntity
  8
LAY-2
  6
CONTINUOUS
 62
     2
100
AcDbLine
 10
435.040377
 20
418.29903
 30
0.0
 11
435.329047
 21
417.799033
 31
0.0
  0
LINE
  5
394
100
AcDbEntity
  8
LAY-2
  6
CONTINUOUS
 62
     2
100
AcDbLine
 10
435.328717
 20
417.7989
 30
0.0
 11
436.684677
 21
417.7989
 31
0.0
  0
LINE
  5
395
100
AcDbEntity
  8
LAY-2
  6
CONTINUOUS
 62
     2
100
AcDbLine
 10
436.685507
 20
417.799198
 30
0.0
 11
437.685367
 21
414.799182
 31
0.0
  0
LINE
  5
396
100
AcDbEntity
  8
LAY-2
  6
CONTINUOUS
 62
     2
100
AcDbLine
 10
436.973667
 20
418.299021
 30
0.0
 11
437.262337
 21
417.799017
 31
0.0
  0
LINE
  5
397
100
AcDbEntity
  8
LAY-2
  6
CONTINUOUS
 62
     2
100
AcDbLine
 10
436.684967
 20
417.79888
 30
0.0
 11
436.973627
 21
418.298863
 31
0.0
  0
LINE
  5
398
100
AcDbEntity
  8
LAY-2
  6
CONTINUOUS
 62
     2
100
AcDbLine
 10
437.262007
 20
417.7989
 30
0.0
 11
438.618027
 21
417.7989
 31
0.0
  0
LINE
  5
399
100
AcDbEntity
  8
LAY-2
  6
CONTINUOUS
 62
     2
100
AcDbLine
 10
438.261667
 20
414.798847
 30
0.0
 11
437.261797
 21
417.798843
 31
0.0
  0
LINE
  5
39A
100
AcDbEntity
  8
LAY-2
  6
CONTINUOUS
 62
     2
100
AcDbLine
 10
438.262197
 20
414.798802
 30
0.0
 11
437.973517
 21
414.298791
 31
0.0
  0
LINE
  5
39B
100
AcDbEntity
  8
LAY-2
  6
CONTINUOUS
 62
     2
100
AcDbLine
 10
437.973307
 20
414.298963
 30
0.0
 11
437.684627
 21
414.79896
 31
0.0
  0
LINE
  5
39C
100
AcDbEntity
  8
LAY-2
  6
CONTINUOUS
 62
     2
100
AcDbLine
 10
438.618967
 20
417.799272
 30
0.0
 11
439.618817
 21
414.799256
 31
0.0
  0
LINE
  5
39D
100
AcDbEntity
  8
LAY-2
  6
CONTINUOUS
 62
     2
100
AcDbLine
 10
440.194917
 20
414.798842
 30
0.0
 11
439.195047
 21
417.79883
 31
0.0
  0
LINE
  5
39E
100
AcDbEntity
  8
LAY-2
  6
CONTINUOUS
 62
     2
100
AcDbLine
 10
439.195357
 20
417.7989
 30
0.0
 11
440.551377
 21
417.7989
 31
0.0
  0
LINE
  5
39F
100
AcDbEntity
  8
LAY-2
  6
CONTINUOUS
 62
     2
100
AcDbLine
 10
438.907077
 20
418.299042
 30
0.0
 11
439.195747
 21
417.799045
 31
0.0
  0
LINE
  5
3A0
100
AcDbEntity
  8
LAY-2
  6
CONTINUOUS
 62
     2
100
AcDbLine
 10
438.618237
 20
417.798835
 30
0.0
 11
438.906887
 21
418.298793
 31
0.0
  0
LINE
  5
3A1
100
AcDbEntity
  8
LAY-2
  6
CONTINUOUS
 62
     2
100
AcDbLine
 10
440.551577
 20
417.79891
 30
0.0
 11
440.840257
 21
418.29892
 31
0.0
  0
LINE
  5
3A2
100
AcDbEntity
  8
LAY-2
  6
CONTINUOUS
 62
     2
100
AcDbLine
 10
440.840387
 20
418.299038
 30
0.0
 11
441.129077
 21
417.799028
 31
0.0
  0
LINE
  5
3A3
100
AcDbEntity
  8
LAY-2
  6
CONTINUOUS
 62
     2
100
AcDbLine
 10
441.128707
 20
417.7989
 30
0.0
 11
442.484667
 21
417.7989
 31
0.0
  0
LINE
  5
3A4
100
AcDbEntity
  8
LAY-2
  6
CONTINUOUS
 62
     2
100
AcDbLine
 10
439.906707
 20
414.299019
 30
0.0
 11
439.618037
 21
414.799016
 31
0.0
  0
LINE
  5
3A5
100
AcDbEntity
  8
LAY-2
  6
EXLTYPE1
 62
     2
100
AcDbLine
 10
430.529277
 20
414.798904
 30
0.0
 11
430.740737
 21
414.798904
 31
0.0
  0
LINE
  5
3A6
100
AcDbEntity
  8
LAY-2
  6
CONTINUOUS
 62
     2
100
AcDbLine
 10
432.462627
 20
414.7989
 30
0.0
 11
433.818587
 21
414.7989
 31
0.0
  0
LINE
  5
3A7
100
AcDbEntity
  8
LAY-2
  6
CONTINUOUS
 62
     2
100
AcDbLine
 10
434.107077
 20
414.2989
 30
0.0
 11
433.107217
 21
418.298906
 31
0.0
  0
LINE
  5
3A8
100
AcDbEntity
  8
LAY-2
  6
CONTINUOUS
 62
     2
100
AcDbLine
 10
431.462757
 20
417.7989
 30
0.0
 11
432.818707
 21
417.7989
 31
0.0
  0
LINE
  5
3A9
100
AcDbEntity
  8
LAY-2
  6
CONTINUOUS
 62
     2
100
AcDbLine
 10
432.819547
 20
417.799198
 30
0.0
 11
433.819397
 21
414.799182
 31
0.0
  0
LINE
  5
3AA
100
AcDbEntity
  8
LAY-2
  6
CONTINUOUS
 62
     2
100
AcDbLine
 10
433.107697
 20
418.299022
 30
0.0
 11
433.396377
 21
417.799018
 31
0.0
  0
LINE
  5
3AB
100
AcDbEntity
  8
LAY-2
  6
CONTINUOUS
 62
     2
100
AcDbLine
 10
432.818997
 20
417.798878
 30
0.0
 11
433.107667
 21
418.298862
 31
0.0
  0
LINE
  5
3AC
100
AcDbEntity
  8
LAY-2
  6
CONTINUOUS
 62
     2
100
AcDbLine
 10
434.395707
 20
414.798849
 30
0.0
 11
433.395837
 21
417.798844
 31
0.0
  0
LINE
  5
3AD
100
AcDbEntity
  8
LAY-2
  6
CONTINUOUS
 62
     2
100
AcDbLine
 10
434.396237
 20
414.798801
 30
0.0
 11
434.107557
 21
414.298791
 31
0.0
  0
LINE
  5
3AE
100
AcDbEntity
  8
LAY-2
  6
CONTINUOUS
 62
     2
100
AcDbLine
 10
434.107337
 20
414.298965
 30
0.0
 11
433.818667
 21
414.798962
 31
0.0
  0
LINE
  5
3AF
100
AcDbEntity
  8
LAY-2
  6
EXLTYPE1
 62
     2
100
AcDbLine
 10
428.240767
 20
411.948906
 30
0.0
 11
428.240767
 21
420.648903
 31
0.0
  0
LINE
  5
3B0
100
AcDbEntity
  8
LAY-2
  6
EXLTYPE1
 62
     2
100
AcDbLine
 10
425.740737
 20
420.648903
 30
0.0
 11
428.240767
 21
420.648903
 31
0.0
  0
LINE
  5
3B1
100
AcDbEntity
  8
LAY-2
  6
EXLTYPE1
 62
     2
100
AcDbLine
 10
425.740737
 20
411.948906
 30
0.0
 11
428.240767
 21
411.948906
 31
0.0
  0
LINE
  5
3B2
100
AcDbEntity
  8
LAY-2
  6
EXLTYPE1
 62
     2
100
AcDbLine
 10
428.240767
 20
414.048904
 30
0.0
 11
430.740737
 21
414.048904
 31
0.0
  0
LINE
  5
3B3
100
AcDbEntity
  8
LAY-2
  6
EXLTYPE1
 62
     2
100
AcDbLine
 10
428.240767
 20
418.548904
 30
0.0
 11
430.740737
 21
418.548904
 31
0.0
  0
LINE
  5
3B4
100
AcDbEntity
  8
LAY-2
  6
CONTINUOUS
 62
     2
100
AcDbLine
 10
431.174067
 20
418.298901
 30
0.0
 11
431.462737
 21
417.798901
 31
0.0
  0
LINE
  5
3B5
100
AcDbEntity
  8
LAY-2
  6
CONTINUOUS
 62
     2
100
AcDbLine
 10
430.885397
 20
417.798901
 30
0.0
 11
431.174077
 21
418.298905
 31
0.0
  0
LINE
  5
3B6
100
AcDbEntity
  8
LAY-2
  6
EXLTYPE1
 62
     2
100
AcDbLine
 10
430.240587
 20
414.298902
 30
0.0
 11
429.951907
 21
414.798902
 31
0.0
  0
LINE
  5
3B7
100
AcDbEntity
  8
LAY-2
  6
EXLTYPE1
 62
     2
100
AcDbLine
 10
430.529287
 20
414.798893
 30
0.0
 11
430.240607
 21
414.298897
 31
0.0
  0
LINE
  5
3B8
100
AcDbEntity
  8
LAY-2
  6
CONTINUOUS
 62
     2
100
AcDbLine
 10
432.173927
 20
414.298905
 30
0.0
 11
431.174067
 21
418.298904
 31
0.0
  0
LINE
  5
3B9
100
AcDbEntity
  8
LAY-2
  6
EXLTYPE1
 62
     2
100
AcDbLine
 10
430.240597
 20
414.298902
 30
0.0
 11
429.432257
 21
417.532685
 31
0.0
  0
LINE
  5
3BA
100
AcDbEntity
  8
LAY-2
  6
EXLTYPE1
 62
     2
100
AcDbLine
 10
429.240737
 20
417.798904
 30
0.0
 11
429.240737
 21
414.798904
 31
0.0
  0
LINE
  5
3BB
100
AcDbEntity
  8
LAY-2
  6
EXLTYPE1
 62
     2
100
AcDbLine
 10
428.240737
 20
418.798901
 30
0.0
 11
429.240737
 21
417.7989
 31
0.0
  0
LINE
  5
3BC
100
AcDbEntity
  8
LAY-2
  6
EXLTYPE1
 62
     2
100
AcDbLine
 10
428.240737
 20
413.798904
 30
0.0
 11
429.240737
 21
414.798905
 31
0.0
  0
LINE
  5
3BD
100
AcDbEntity
  8
LAY-2
  6
EXLTYPE1
 62
     2
100
AcDbLine
 10
429.240737
 20
414.798904
 30
0.0
 11
429.951907
 21
414.798904
 31
0.0
  0
LINE
  5
3BE
100
AcDbEntity
  8
LAY-2
  6
EXLTYPE1
 62
     2
100
AcDbLine
 10
429.240737
 20
417.798904
 30
0.0
 11
430.740737
 21
417.798904
 31
0.0
  0
LINE
  5
3BF
100
AcDbEntity
  8
LAY-2
  6
CONTINUOUS
 62
     2
100
AcDbLine
 10
432.173917
 20
414.298902
 30
0.0
 11
431.885247
 21
414.798902
 31
0.0
  0
LINE
  5
3C0
100
AcDbEntity
  8
LAY-2
  6
EXLTYPE1
 62
     2
100
AcDbLine
 10
430.064397
 20
416.193778
 30
0.0
 11
430.529297
 21
414.798906
 31
0.0
  0
LINE
  5
3C1
100
AcDbEntity
  8
LAY-2
  6
CONTINUOUS
 62
     2
100
AcDbLine
 10
431.462747
 20
417.798905
 30
0.0
 11
432.462617
 21
414.798905
 31
0.0
  0
LINE
  5
3C2
100
AcDbEntity
  8
LAY-2
  6
CONTINUOUS
 62
     2
100
AcDbLine
 10
430.885397
 20
417.798905
 30
0.0
 11
431.885247
 21
414.798905
 31
0.0
  0
LINE
  5
3C3
100
AcDbEntity
  8
LAY-2
  6
CONTINUOUS
 62
     2
100
AcDbLine
 10
432.462617
 20
414.798897
 30
0.0
 11
432.173937
 21
414.2989
 31
0.0
  0
LINE
  5
3C4
100
AcDbEntity
  8
LAY-2
  6
EXLTYPE1
 62
     2
100
AcDbLine
 10
429.524527
 20
416.081244
 30
0.0
 11
429.951907
 21
414.798906
 31
0.0
  0
LINE
  5
3C5
100
AcDbEntity
  8
LAY-2
  6
EXLTYPE1
 62
     2
100
AcDbLine
 10
429.525567
 20
416.064301
 30
0.0
 11
429.435337
 21
417.526058
 31
0.0
  0
LINE
  5
3C6
100
AcDbEntity
  8
LAY-2
  6
EXLTYPE1
 62
     2
100
AcDbLine
 10
429.435337
 20
417.526059
 30
0.0
 11
430.054937
 21
416.190628
 31
0.0
  0
LINE
  5
3C7
100
AcDbEntity
  8
LAY-2
  6
CONTINUOUS
 62
     2
100
AcDbLine
 10
430.740737
 20
414.798904
 30
0.0
 11
431.885237
 21
414.798904
 31
0.0
  0
LINE
  5
3C8
100
AcDbEntity
  8
LAY-2
  6
CONTINUOUS
 62
     2
100
AcDbLine
 10
430.740737
 20
417.798904
 30
0.0
 11
430.885387
 21
417.798904
 31
0.0
  0
LINE
  5
3C9
100
AcDbEntity
  8
LAY-2
  6
CONTINUOUS
 62
     2
100
AcDbLine
 10
434.395217
 20
396.7989
 30
0.0
 11
435.751177
 21
396.7989
 31
0.0
  0
LINE
  5
3CA
100
AcDbEntity
  8
LAY-2
  6
CONTINUOUS
 62
     2
100
AcDbLine
 10
436.039797
 20
396.298887
 30
0.0
 11
435.039947
 21
400.298877
 31
0.0
  0
LINE
  5
3CB
100
AcDbEntity
  8
LAY-2
  6
CONTINUOUS
 62
     2
100
AcDbLine
 10
436.328567
 20
396.7989
 30
0.0
 11
437.684527
 21
396.7989
 31
0.0
  0
LINE
  5
3CC
100
AcDbEntity
  8
LAY-2
  6
CONTINUOUS
 62
     2
100
AcDbLine
 10
437.973007
 20
396.298899
 30
0.0
 11
436.973147
 21
400.298904
 31
0.0
  0
LINE
  5
3CD
100
AcDbEntity
  8
LAY-2
  6
CONTINUOUS
 62
     2
100
AcDbLine
 10
438.261857
 20
396.7989
 30
0.0
 11
439.617817
 21
396.7989
 31
0.0
  0
LINE
  5
3CE
100
AcDbEntity
  8
LAY-2
  6
CONTINUOUS
 62
     2
100
AcDbLine
 10
439.906487
 20
396.298897
 30
0.0
 11
438.906627
 21
400.298888
 31
0.0
  0
LINE
  5
3CF
100
AcDbEntity
  8
LAY-2
  6
CONTINUOUS
 62
     2
100
AcDbLine
 10
440.195517
 20
396.798749
 30
0.0
 11
439.906837
 21
396.298739
 31
0.0
  0
LINE
  5
3D0
100
AcDbEntity
  8
LAY-2
  6
CONTINUOUS
 62
     2
100
AcDbLine
 10
440.195207
 20
396.7989
 30
0.0
 11
441.551167
 21
396.7989
 31
0.0
  0
LINE
  5
3D1
100
AcDbEntity
  8
LAY-2
  6
CONTINUOUS
 62
     2
100
AcDbLine
 10
442.128557
 20
396.7989
 30
0.0
 11
443.484507
 21
396.7989
 31
0.0
  0
LINE
  5
3D2
100
AcDbEntity
  8
LAY-2
  6
CONTINUOUS
 62
     2
100
AcDbLine
 10
443.773197
 20
396.298912
 30
0.0
 11
442.773337
 21
400.298917
 31
0.0
  0
LINE
  5
3D3
100
AcDbEntity
  8
LAY-2
  6
CONTINUOUS
 62
     2
100
AcDbLine
 10
445.706567
 20
396.298954
 30
0.0
 11
444.706707
 21
400.298959
 31
0.0
  0
LINE
  5
3D4
100
AcDbEntity
  8
LAY-2
  6
CONTINUOUS
 62
     2
100
AcDbLine
 10
445.995197
 20
396.7989
 30
0.0
 11
447.351147
 21
396.7989
 31
0.0
  0
LINE
  5
3D5
100
AcDbEntity
  8
LAY-2
  6
CONTINUOUS
 62
     2
100
AcDbLine
 10
447.639817
 20
396.298916
 30
0.0
 11
446.639957
 21
400.298922
 31
0.0
  0
LINE
  5
3D6
100
AcDbEntity
  8
LAY-2
  6
CONTINUOUS
 62
     2
100
AcDbLine
 10
449.573277
 20
396.299099
 30
0.0
 11
449.284607
 21
396.799096
 31
0.0
  0
LINE
  5
3D7
100
AcDbEntity
  8
LAY-2
  6
CONTINUOUS
 62
     2
100
AcDbLine
 10
451.506597
 20
396.299008
 30
0.0
 11
451.217917
 21
396.799018
 31
0.0
  0
LINE
  5
3D8
100
AcDbEntity
  8
LAY-2
  6
CONTINUOUS
 62
     2
100
AcDbLine
 10
451.795237
 20
396.7989
 30
0.0
 11
453.151197
 21
396.7989
 31
0.0
  0
LINE
  5
3D9
100
AcDbEntity
  8
LAY-2
  6
CONTINUOUS
 62
     2
100
AcDbLine
 10
453.439797
 20
396.298881
 30
0.0
 11
452.439937
 21
400.298901
 31
0.0
  0
LINE
  5
3DA
100
AcDbEntity
  8
LAY-2
  6
CONTINUOUS
 62
     2
100
AcDbLine
 10
453.440007
 20
396.299033
 30
0.0
 11
453.151327
 21
396.79903
 31
0.0
  0
LINE
  5
3DB
100
AcDbEntity
  8
LAY-2
  6
CONTINUOUS
 62
     2
100
AcDbLine
 10
453.728897
 20
396.798663
 30
0.0
 11
453.440227
 21
396.298679
 31
0.0
  0
LINE
  5
3DC
100
AcDbEntity
  8
LAY-2
  6
CONTINUOUS
 62
     2
100
AcDbLine
 10
453.312147
 20
396.798786
 30
0.0
 11
454.928477
 21
397.29078
 31
0.0
  0
LINE
  5
3DD
100
AcDbEntity
  8
LAY-2
  6
CONTINUOUS
 62
     2
100
AcDbLine
 10
453.728157
 20
396.79883
 30
0.0
 11
452.728287
 21
399.798825
 31
0.0
  0
LINE
  5
3DE
100
AcDbEntity
  8
LAY-2
  6
CONTINUOUS
 62
     2
100
AcDbLine
 10
454.180937
 20
399.534622
 30
0.0
 11
454.928687
 21
397.291009
 31
0.0
  0
LINE
  5
3DF
100
AcDbEntity
  8
LAY-2
  6
CONTINUOUS
 62
     2
100
AcDbLine
 10
455.310117
 20
397.406831
 30
0.0
 11
455.085917
 21
397.01851
 31
0.0
  0
LINE
  5
3E0
100
AcDbEntity
  8
LAY-2
  6
CONTINUOUS
 62
     2
100
AcDbLine
 10
455.085467
 20
397.01869
 30
0.0
 11
454.373187
 21
399.868218
 31
0.0
  0
LINE
  5
3E1
100
AcDbEntity
  8
LAY-2
  6
CONTINUOUS
 62
     2
100
AcDbLine
 10
454.647207
 20
399.391997
 30
0.0
 11
455.308837
 21
397.406733
 31
0.0
  0
LINE
  5
3E2
100
AcDbEntity
  8
LAY-2
  6
CONTINUOUS
 62
     2
100
AcDbLine
 10
455.309817
 20
397.406857
 30
0.0
 11
456.584267
 21
397.794788
 31
0.0
  0
LINE
  5
3E3
100
AcDbEntity
  8
LAY-2
  6
CONTINUOUS
 62
     2
100
AcDbLine
 10
456.775287
 20
397.852809
 30
0.0
 11
456.663197
 21
397.658662
 31
0.0
  0
LINE
  5
3E4
100
AcDbEntity
  8
LAY-2
  6
CONTINUOUS
 62
     2
100
AcDbLine
 10
456.585197
 20
397.79526
 30
0.0
 11
456.211337
 21
398.917075
 31
0.0
  0
LINE
  5
3E5
100
AcDbEntity
  8
LAY-2
  6
CONTINUOUS
 62
     2
100
AcDbLine
 10
456.663007
 20
397.658766
 30
0.0
 11
456.306857
 21
399.083541
 31
0.0
  0
LINE
  5
3E6
100
AcDbEntity
  8
LAY-2
  6
CONTINUOUS
 62
     2
100
AcDbLine
 10
456.444107
 20
398.845537
 30
0.0
 11
456.774907
 21
397.852895
 31
0.0
  0
LINE
  5
3E7
100
AcDbEntity
  8
LAY-2
  6
CONTINUOUS
 62
     2
100
AcDbLine
 10
456.443817
 20
398.845048
 30
0.0
 11
458.239717
 21
398.298393
 31
0.0
  0
LINE
  5
3E8
100
AcDbEntity
  8
LAY-2
  6
CONTINUOUS
 62
     2
100
AcDbLine
 10
456.774917
 20
397.852818
 30
0.0
 11
458.240037
 21
398.298787
 31
0.0
  0
LINE
  5
3E9
100
AcDbEntity
  8
LAY-2
  6
CONTINUOUS
 62
     2
100
AcDbLine
 10
456.306997
 20
399.083699
 30
0.0
 11
456.444407
 21
398.845693
 31
0.0
  0
LINE
  5
3EA
100
AcDbEntity
  8
LAY-2
  6
CONTINUOUS
 62
     2
100
AcDbLine
 10
454.647857
 20
399.391722
 30
0.0
 11
456.210077
 21
398.916195
 31
0.0
  0
LINE
  5
3EB
100
AcDbEntity
  8
LAY-2
  6
CONTINUOUS
 62
     2
100
AcDbLine
 10
453.311827
 20
399.798394
 30
0.0
 11
454.180387
 21
399.534015
 31
0.0
  0
LINE
  5
3EC
100
AcDbEntity
  8
LAY-2
  6
CONTINUOUS
 62
     2
100
AcDbLine
 10
454.373667
 20
399.868361
 30
0.0
 11
454.662347
 21
399.368357
 31
0.0
  0
LINE
  5
3ED
100
AcDbEntity
  8
LAY-2
  6
CONTINUOUS
 62
     2
100
AcDbLine
 10
452.440337
 20
400.299029
 30
0.0
 11
452.729007
 21
399.799032
 31
0.0
  0
LINE
  5
3EE
100
AcDbEntity
  8
LAY-2
  6
CONTINUOUS
 62
     2
100
AcDbLine
 10
452.728657
 20
399.7989
 30
0.0
 11
453.312087
 21
399.7989
 31
0.0
  0
LINE
  5
3EF
100
AcDbEntity
  8
LAY-2
  6
CONTINUOUS
 62
     2
100
AcDbLine
 10
450.795367
 20
399.7989
 30
0.0
 11
452.151317
 21
399.7989
 31
0.0
  0
LINE
  5
3F0
100
AcDbEntity
  8
LAY-2
  6
CONTINUOUS
 62
     2
100
AcDbLine
 10
452.152237
 20
399.799193
 30
0.0
 11
453.152097
 21
396.799173
 31
0.0
  0
LINE
  5
3F1
100
AcDbEntity
  8
LAY-2
  6
CONTINUOUS
 62
     2
100
AcDbLine
 10
452.151457
 20
399.798762
 30
0.0
 11
452.440157
 21
400.298799
 31
0.0
  0
LINE
  5
3F2
100
AcDbEntity
  8
LAY-2
  6
CONTINUOUS
 62
     2
100
AcDbLine
 10
454.180887
 20
399.534435
 30
0.0
 11
454.373537
 21
399.868128
 31
0.0
  0
LINE
  5
3F3
100
AcDbEntity
  8
LAY-2
  6
CONTINUOUS
 62
     2
100
AcDbLine
 10
450.507087
 20
400.299089
 30
0.0
 11
450.795757
 21
399.799092
 31
0.0
  0
LINE
  5
3F4
100
AcDbEntity
  8
LAY-2
  6
CONTINUOUS
 62
     2
100
AcDbLine
 10
451.506367
 20
396.298889
 30
0.0
 11
450.506507
 21
400.298887
 31
0.0
  0
LINE
  5
3F5
100
AcDbEntity
  8
LAY-2
  6
CONTINUOUS
 62
     2
100
AcDbLine
 10
448.862017
 20
399.7989
 30
0.0
 11
450.217967
 21
399.7989
 31
0.0
  0
LINE
  5
3F6
100
AcDbEntity
  8
LAY-2
  6
CONTINUOUS
 62
     2
100
AcDbLine
 10
450.218127
 20
399.798741
 30
0.0
 11
450.506817
 21
400.298751
 31
0.0
  0
LINE
  5
3F7
100
AcDbEntity
  8
LAY-2
  6
CONTINUOUS
 62
     2
100
AcDbLine
 10
450.219057
 20
399.799271
 30
0.0
 11
451.218907
 21
396.799262
 31
0.0
  0
LINE
  5
3F8
100
AcDbEntity
  8
LAY-2
  6
CONTINUOUS
 62
     2
100
AcDbLine
 10
451.794947
 20
396.798773
 30
0.0
 11
450.795077
 21
399.798776
 31
0.0
  0
LINE
  5
3F9
100
AcDbEntity
  8
LAY-2
  6
CONTINUOUS
 62
     2
100
AcDbLine
 10
451.795597
 20
396.798689
 30
0.0
 11
451.506927
 21
396.298705
 31
0.0
  0
LINE
  5
3FA
100
AcDbEntity
  8
LAY-2
  6
CONTINUOUS
 62
     2
100
AcDbLine
 10
449.861897
 20
396.7989
 30
0.0
 11
451.217847
 21
396.7989
 31
0.0
  0
LINE
  5
3FB
100
AcDbEntity
  8
LAY-2
  6
CONTINUOUS
 62
     2
100
AcDbLine
 10
449.862207
 20
396.798754
 30
0.0
 11
449.573527
 21
396.298743
 31
0.0
  0
LINE
  5
3FC
100
AcDbEntity
  8
LAY-2
  6
CONTINUOUS
 62
     2
100
AcDbLine
 10
449.573127
 20
396.298899
 30
0.0
 11
448.573267
 21
400.29889
 31
0.0
  0
LINE
  5
3FD
100
AcDbEntity
  8
LAY-2
  6
CONTINUOUS
 62
     2
100
AcDbLine
 10
449.861547
 20
396.798851
 30
0.0
 11
448.861687
 21
399.798846
 31
0.0
  0
LINE
  5
3FE
100
AcDbEntity
  8
LAY-2
  6
CONTINUOUS
 62
     2
100
AcDbLine
 10
448.285497
 20
399.799211
 30
0.0
 11
449.285347
 21
396.799207
 31
0.0
  0
LINE
  5
3FF
100
AcDbEntity
  8
LAY-2
  6
CONTINUOUS
 62
     2
100
AcDbLine
 10
448.284907
 20
399.798844
 30
0.0
 11
448.573577
 21
400.298828
 31
0.0
  0
LINE
  5
400
100
AcDbEntity
  8
LAY-2
  6
CONTINUOUS
 62
     2
100
AcDbLine
 10
448.573617
 20
400.299026
 30
0.0
 11
448.862287
 21
399.799029
 31
0.0
  0
LINE
  5
401
100
AcDbEntity
  8
LAY-2
  6
CONTINUOUS
 62
     2
100
AcDbLine
 10
446.928667
 20
399.7989
 30
0.0
 11
448.284687
 21
399.7989
 31
0.0
  0
LINE
  5
402
100
AcDbEntity
  8
LAY-2
  6
CONTINUOUS
 62
     2
100
AcDbLine
 10
446.640317
 20
400.299049
 30
0.0
 11
446.928987
 21
399.799052
 31
0.0
  0
LINE
  5
403
100
AcDbEntity
  8
LAY-2
  6
CONTINUOUS
 62
     2
100
AcDbLine
 10
446.351517
 20
399.798827
 30
0.0
 11
446.640197
 21
400.298837
 31
0.0
  0
LINE
  5
404
100
AcDbEntity
  8
LAY-2
  6
CONTINUOUS
 62
     2
100
AcDbLine
 10
446.352237
 20
399.799214
 30
0.0
 11
447.352087
 21
396.799205
 31
0.0
  0
LINE
  5
405
100
AcDbEntity
  8
LAY-2
  6
CONTINUOUS
 62
     2
100
AcDbLine
 10
444.995317
 20
399.7989
 30
0.0
 11
446.351337
 21
399.7989
 31
0.0
  0
LINE
  5
406
100
AcDbEntity
  8
LAY-2
  6
CONTINUOUS
 62
     2
100
AcDbLine
 10
447.928217
 20
396.798819
 30
0.0
 11
446.928347
 21
399.798816
 31
0.0
  0
LINE
  5
407
100
AcDbEntity
  8
LAY-2
  6
CONTINUOUS
 62
     2
100
AcDbLine
 10
447.928887
 20
396.79874
 30
0.0
 11
447.640217
 21
396.298756
 31
0.0
  0
LINE
  5
408
100
AcDbEntity
  8
LAY-2
  6
CONTINUOUS
 62
     2
100
AcDbLine
 10
447.639947
 20
396.299003
 30
0.0
 11
447.351277
 21
396.799007
 31
0.0
  0
LINE
  5
409
100
AcDbEntity
  8
LAY-2
  6
CONTINUOUS
 62
     2
100
AcDbLine
 10
447.928547
 20
396.7989
 30
0.0
 11
449.284497
 21
396.7989
 31
0.0
  0
LINE
  5
40A
100
AcDbEntity
  8
LAY-2
  6
CONTINUOUS
 62
     2
100
AcDbLine
 10
445.995487
 20
396.798785
 30
0.0
 11
445.706817
 21
396.298801
 31
0.0
  0
LINE
  5
40B
100
AcDbEntity
  8
LAY-2
  6
CONTINUOUS
 62
     2
100
AcDbLine
 10
445.706637
 20
396.299053
 30
0.0
 11
445.417967
 21
396.79905
 31
0.0
  0
LINE
  5
40C
100
AcDbEntity
  8
LAY-2
  6
CONTINUOUS
 62
     2
100
AcDbLine
 10
444.061907
 20
396.7989
 30
0.0
 11
445.417857
 21
396.7989
 31
0.0
  0
LINE
  5
40D
100
AcDbEntity
  8
LAY-2
  6
CONTINUOUS
 62
     2
100
AcDbLine
 10
444.062167
 20
396.798716
 30
0.0
 11
443.773497
 21
396.298732
 31
0.0
  0
LINE
  5
40E
100
AcDbEntity
  8
LAY-2
  6
CONTINUOUS
 62
     2
100
AcDbLine
 10
444.418997
 20
399.79922
 30
0.0
 11
445.418847
 21
396.799211
 31
0.0
  0
LINE
  5
40F
100
AcDbEntity
  8
LAY-2
  6
CONTINUOUS
 62
     2
100
AcDbLine
 10
445.994997
 20
396.798847
 30
0.0
 11
444.995127
 21
399.798857
 31
0.0
  0
LINE
  5
410
100
AcDbEntity
  8
LAY-2
  6
CONTINUOUS
 62
     2
100
AcDbLine
 10
444.418247
 20
399.798816
 30
0.0
 11
444.706907
 21
400.2988
 31
0.0
  0
LINE
  5
411
100
AcDbEntity
  8
LAY-2
  6
CONTINUOUS
 62
     2
100
AcDbLine
 10
444.706987
 20
400.299039
 30
0.0
 11
444.995667
 21
399.799042
 31
0.0
  0
LINE
  5
412
100
AcDbEntity
  8
LAY-2
  6
CONTINUOUS
 62
     2
100
AcDbLine
 10
443.062027
 20
399.7989
 30
0.0
 11
444.417987
 21
399.7989
 31
0.0
  0
LINE
  5
413
100
AcDbEntity
  8
LAY-2
  6
CONTINUOUS
 62
     2
100
AcDbLine
 10
442.773617
 20
400.299019
 30
0.0
 11
443.062287
 21
399.799022
 31
0.0
  0
LINE
  5
414
100
AcDbEntity
  8
LAY-2
  6
CONTINUOUS
 62
     2
100
AcDbLine
 10
442.484827
 20
399.798773
 30
0.0
 11
442.773517
 21
400.298797
 31
0.0
  0
LINE
  5
415
100
AcDbEntity
  8
LAY-2
  6
CONTINUOUS
 62
     2
100
AcDbLine
 10
442.485497
 20
399.799229
 30
0.0
 11
443.485347
 21
396.799213
 31
0.0
  0
LINE
  5
416
100
AcDbEntity
  8
LAY-2
  6
CONTINUOUS
 62
     2
100
AcDbLine
 10
444.061617
 20
396.798871
 30
0.0
 11
443.061747
 21
399.798858
 31
0.0
  0
LINE
  5
417
100
AcDbEntity
  8
LAY-2
  6
CONTINUOUS
 62
     2
100
AcDbLine
 10
443.773337
 20
396.299021
 30
0.0
 11
443.484657
 21
396.799031
 31
0.0
  0
LINE
  5
418
100
AcDbEntity
  8
LAY-2
  6
CONTINUOUS
 62
     2
100
AcDbLine
 10
442.128827
 20
396.798866
 30
0.0
 11
441.840137
 21
396.29883
 31
0.0
  0
LINE
  5
419
100
AcDbEntity
  8
LAY-2
  6
CONTINUOUS
 62
     2
100
AcDbLine
 10
441.839957
 20
396.298903
 30
0.0
 11
440.840097
 21
400.298909
 31
0.0
  0
LINE
  5
41A
100
AcDbEntity
  8
LAY-2
  6
CONTINUOUS
 62
     2
100
AcDbLine
 10
440.552237
 20
399.799236
 30
0.0
 11
441.552087
 21
396.799233
 31
0.0
  0
LINE
  5
41B
100
AcDbEntity
  8
LAY-2
  6
CONTINUOUS
 62
     2
100
AcDbLine
 10
442.128327
 20
396.798823
 30
0.0
 11
441.128457
 21
399.798816
 31
0.0
  0
LINE
  5
41C
100
AcDbEntity
  8
LAY-2
  6
CONTINUOUS
 62
     2
100
AcDbLine
 10
441.840027
 20
396.29905
 30
0.0
 11
441.551357
 21
396.799044
 31
0.0
  0
LINE
  5
41D
100
AcDbEntity
  8
LAY-2
  6
CONTINUOUS
 62
     2
100
AcDbLine
 10
455.085577
 20
397.01876
 30
0.0
 11
454.928417
 21
397.290978
 31
0.0
  0
LINE
  5
41E
100
AcDbEntity
  8
LAY-2
  6
CONTINUOUS
 62
     2
100
AcDbLine
 10
456.662887
 20
397.65891
 30
0.0
 11
456.584307
 21
397.795026
 31
0.0
  0
LINE
  5
41F
100
AcDbEntity
  8
LAY-2
  6
CONTINUOUS
 62
     2
100
AcDbLine
 10
434.107047
 20
396.2989
 30
0.0
 11
433.107187
 21
400.298906
 31
0.0
  0
LINE
  5
420
100
AcDbEntity
  8
LAY-2
  6
CONTINUOUS
 62
     2
100
AcDbLine
 10
434.752227
 20
399.799197
 30
0.0
 11
435.752067
 21
396.799202
 31
0.0
  0
LINE
  5
421
100
AcDbEntity
  8
LAY-2
  6
CONTINUOUS
 62
     2
100
AcDbLine
 10
436.039927
 20
396.29898
 30
0.0
 11
435.751247
 21
396.798983
 31
0.0
  0
LINE
  5
422
100
AcDbEntity
  8
LAY-2
  6
CONTINUOUS
 62
     2
100
AcDbLine
 10
436.328827
 20
396.798676
 30
0.0
 11
436.040157
 21
396.298692
 31
0.0
  0
LINE
  5
423
100
AcDbEntity
  8
LAY-2
  6
CONTINUOUS
 62
     2
100
AcDbLine
 10
436.328217
 20
396.798884
 30
0.0
 11
435.328347
 21
399.79888
 31
0.0
  0
LINE
  5
424
100
AcDbEntity
  8
LAY-2
  6
CONTINUOUS
 62
     2
100
AcDbLine
 10
433.395337
 20
399.7989
 30
0.0
 11
434.751297
 21
399.7989
 31
0.0
  0
LINE
  5
425
100
AcDbEntity
  8
LAY-2
  6
CONTINUOUS
 62
     2
100
AcDbLine
 10
434.751507
 20
399.798906
 30
0.0
 11
435.040207
 21
400.298942
 31
0.0
  0
LINE
  5
426
100
AcDbEntity
  8
LAY-2
  6
CONTINUOUS
 62
     2
100
AcDbLine
 10
435.040357
 20
400.299038
 30
0.0
 11
435.329027
 21
399.799041
 31
0.0
  0
LINE
  5
427
100
AcDbEntity
  8
LAY-2
  6
CONTINUOUS
 62
     2
100
AcDbLine
 10
435.328687
 20
399.7989
 30
0.0
 11
436.684647
 21
399.7989
 31
0.0
  0
LINE
  5
428
100
AcDbEntity
  8
LAY-2
  6
CONTINUOUS
 62
     2
100
AcDbLine
 10
436.685467
 20
399.799194
 30
0.0
 11
437.685317
 21
396.799177
 31
0.0
  0
LINE
  5
429
100
AcDbEntity
  8
LAY-2
  6
CONTINUOUS
 62
     2
100
AcDbLine
 10
436.973637
 20
400.299028
 30
0.0
 11
437.262317
 21
399.799024
 31
0.0
  0
LINE
  5
42A
100
AcDbEntity
  8
LAY-2
  6
CONTINUOUS
 62
     2
100
AcDbLine
 10
436.684937
 20
399.79888
 30
0.0
 11
436.973597
 21
400.298863
 31
0.0
  0
LINE
  5
42B
100
AcDbEntity
  8
LAY-2
  6
CONTINUOUS
 62
     2
100
AcDbLine
 10
437.261977
 20
399.7989
 30
0.0
 11
438.617997
 21
399.7989
 31
0.0
  0
LINE
  5
42C
100
AcDbEntity
  8
LAY-2
  6
CONTINUOUS
 62
     2
100
AcDbLine
 10
438.261637
 20
396.798845
 30
0.0
 11
437.261767
 21
399.798841
 31
0.0
  0
LINE
  5
42D
100
AcDbEntity
  8
LAY-2
  6
CONTINUOUS
 62
     2
100
AcDbLine
 10
438.262167
 20
396.798802
 30
0.0
 11
437.973487
 21
396.298791
 31
0.0
  0
LINE
  5
42E
100
AcDbEntity
  8
LAY-2
  6
CONTINUOUS
 62
     2
100
AcDbLine
 10
437.973287
 20
396.298967
 30
0.0
 11
437.684607
 21
396.798964
 31
0.0
  0
LINE
  5
42F
100
AcDbEntity
  8
LAY-2
  6
CONTINUOUS
 62
     2
100
AcDbLine
 10
438.618927
 20
399.799267
 30
0.0
 11
439.618777
 21
396.799251
 31
0.0
  0
LINE
  5
430
100
AcDbEntity
  8
LAY-2
  6
CONTINUOUS
 62
     2
100
AcDbLine
 10
440.194877
 20
396.798841
 30
0.0
 11
439.195017
 21
399.798829
 31
0.0
  0
LINE
  5
431
100
AcDbEntity
  8
LAY-2
  6
CONTINUOUS
 62
     2
100
AcDbLine
 10
439.195327
 20
399.7989
 30
0.0
 11
440.551347
 21
399.7989
 31
0.0
  0
LINE
  5
432
100
AcDbEntity
  8
LAY-2
  6
CONTINUOUS
 62
     2
100
AcDbLine
 10
438.907047
 20
400.299049
 30
0.0
 11
439.195727
 21
399.799053
 31
0.0
  0
LINE
  5
433
100
AcDbEntity
  8
LAY-2
  6
CONTINUOUS
 62
     2
100
AcDbLine
 10
438.618207
 20
399.798835
 30
0.0
 11
438.906857
 21
400.298793
 31
0.0
  0
LINE
  5
434
100
AcDbEntity
  8
LAY-2
  6
CONTINUOUS
 62
     2
100
AcDbLine
 10
440.551557
 20
399.798906
 30
0.0
 11
440.840237
 21
400.298917
 31
0.0
  0
LINE
  5
435
100
AcDbEntity
  8
LAY-2
  6
CONTINUOUS
 62
     2
100
AcDbLine
 10
440.840367
 20
400.299045
 30
0.0
 11
441.129047
 21
399.799035
 31
0.0
  0
LINE
  5
436
100
AcDbEntity
  8
LAY-2
  6
CONTINUOUS
 62
     2
100
AcDbLine
 10
441.128677
 20
399.7989
 30
0.0
 11
442.484637
 21
399.7989
 31
0.0
  0
LINE
  5
437
100
AcDbEntity
  8
LAY-2
  6
CONTINUOUS
 62
     2
100
AcDbLine
 10
439.906687
 20
396.299023
 30
0.0
 11
439.618017
 21
396.79902
 31
0.0
  0
LINE
  5
438
100
AcDbEntity
  8
LAY-2
  6
CONTINUOUS
 62
     2
100
AcDbLine
 10
432.462597
 20
396.7989
 30
0.0
 11
433.818557
 21
396.7989
 31
0.0
  0
LINE
  5
439
100
AcDbEntity
  8
LAY-2
  6
CONTINUOUS
 62
     2
100
AcDbLine
 10
430.740707
 20
396.798904
 30
0.0
 11
431.885207
 21
396.798904
 31
0.0
  0
LINE
  5
43A
100
AcDbEntity
  8
LAY-2
  6
CONTINUOUS
 62
     2
100
AcDbLine
 10
431.462727
 20
399.7989
 30
0.0
 11
432.818677
 21
399.7989
 31
0.0
  0
LINE
  5
43B
100
AcDbEntity
  8
LAY-2
  6
CONTINUOUS
 62
     2
100
AcDbLine
 10
432.819497
 20
399.799193
 30
0.0
 11
433.819357
 21
396.799176
 31
0.0
  0
LINE
  5
43C
100
AcDbEntity
  8
LAY-2
  6
CONTINUOUS
 62
     2
100
AcDbLine
 10
433.107677
 20
400.299026
 30
0.0
 11
433.396357
 21
399.799022
 31
0.0
  0
LINE
  5
43D
100
AcDbEntity
  8
LAY-2
  6
CONTINUOUS
 62
     2
100
AcDbLine
 10
432.818967
 20
399.798878
 30
0.0
 11
433.107637
 21
400.298862
 31
0.0
  0
LINE
  5
43E
100
AcDbEntity
  8
LAY-2
  6
CONTINUOUS
 62
     2
100
AcDbLine
 10
434.395677
 20
396.798848
 30
0.0
 11
433.395807
 21
399.798843
 31
0.0
  0
LINE
  5
43F
100
AcDbEntity
  8
LAY-2
  6
CONTINUOUS
 62
     2
100
AcDbLine
 10
434.396207
 20
396.798801
 30
0.0
 11
434.107527
 21
396.298791
 31
0.0
  0
LINE
  5
440
100
AcDbEntity
  8
LAY-2
  6
CONTINUOUS
 62
     2
100
AcDbLine
 10
434.107317
 20
396.298969
 30
0.0
 11
433.818647
 21
396.798966
 31
0.0
  0
LINE
  5
441
100
AcDbEntity
  8
LAY-2
  6
CONTINUOUS
 62
     2
100
AcDbLine
 10
432.173887
 20
396.298898
 30
0.0
 11
431.885207
 21
396.798899
 31
0.0
  0
LINE
  5
442
100
AcDbEntity
  8
LAY-2
  6
CONTINUOUS
 62
     2
100
AcDbLine
 10
430.740707
 20
399.798904
 30
0.0
 11
430.885357
 21
399.798904
 31
0.0
  0
LINE
  5
443
100
AcDbEntity
  8
LAY-2
  6
CONTINUOUS
 62
     2
100
AcDbLine
 10
432.462587
 20
396.798897
 30
0.0
 11
432.173907
 21
396.2989
 31
0.0
  0
LINE
  5
444
100
AcDbEntity
  8
LAY-2
  6
CONTINUOUS
 62
     2
100
AcDbLine
 10
430.885357
 20
399.798903
 30
0.0
 11
431.885207
 21
396.798902
 31
0.0
  0
LINE
  5
445
100
AcDbEntity
  8
LAY-2
  6
CONTINUOUS
 62
     2
100
AcDbLine
 10
431.462717
 20
399.798906
 30
0.0
 11
432.462597
 21
396.798905
 31
0.0
  0
LINE
  5
446
100
AcDbEntity
  8
LAY-2
  6
CONTINUOUS
 62
     2
100
AcDbLine
 10
432.173897
 20
396.298905
 30
0.0
 11
431.174037
 21
400.298904
 31
0.0
  0
LINE
  5
447
100
AcDbEntity
  8
LAY-2
  6
CONTINUOUS
 62
     2
100
AcDbLine
 10
430.885367
 20
399.798901
 30
0.0
 11
431.174037
 21
400.298898
 31
0.0
  0
LINE
  5
448
100
AcDbEntity
  8
LAY-2
  6
CONTINUOUS
 62
     2
100
AcDbLine
 10
431.174047
 20
400.298905
 30
0.0
 11
431.462717
 21
399.798908
 31
0.0
  0
LINE
  5
449
100
AcDbEntity
  8
LAY-2
  6
EXLTYPE1
 62
     2
100
AcDbLine
 10
425.740737
 20
398.89891
 30
0.0
 11
426.940747
 21
398.89891
 31
0.0
  0
LINE
  5
44A
100
AcDbEntity
  8
LAY-2
  6
EXLTYPE1
 62
     2
100
AcDbLine
 10
426.940717
 20
394.298904
 30
0.0
 11
426.940717
 21
402.298904
 31
0.0
  0
LINE
  5
44B
100
AcDbEntity
  8
LAY-2
  6
EXLTYPE1
 62
     2
100
AcDbLine
 10
426.940717
 20
402.298904
 30
0.0
 11
428.240737
 21
402.298904
 31
0.0
  0
LINE
  5
44C
100
AcDbEntity
  8
LAY-2
  6
EXLTYPE1
 62
     2
100
AcDbLine
 10
425.740787
 20
401.098721
 30
0.0
 11
426.940797
 21
402.298728
 31
0.0
  0
LINE
  5
44D
100
AcDbEntity
  8
LAY-2
  6
EXLTYPE1
 62
     2
100
AcDbLine
 10
425.740737
 20
397.698898
 30
0.0
 11
426.940747
 21
397.698898
 31
0.0
  0
LINE
  5
44E
100
AcDbEntity
  8
LAY-2
  6
EXLTYPE1
 62
     2
100
AcDbLine
 10
425.741277
 20
395.499505
 30
0.0
 11
426.941287
 21
394.299497
 31
0.0
  0
LINE
  5
44F
100
AcDbEntity
  8
LAY-2
  6
EXLTYPE1
 62
     2
100
AcDbLine
 10
426.940717
 20
394.298904
 30
0.0
 11
428.240737
 21
394.298904
 31
0.0
  0
LINE
  5
450
100
AcDbEntity
  8
LAY-2
  6
EXLTYPE1
 62
     2
100
AcDbLine
 10
428.240737
 20
393.948906
 30
0.0
 11
428.240737
 21
402.648903
 31
0.0
  0
LINE
  5
451
100
AcDbEntity
  8
LAY-2
  6
EXLTYPE1
 62
     2
100
AcDbLine
 10
425.740707
 20
402.648903
 30
0.0
 11
428.240737
 21
402.648903
 31
0.0
  0
LINE
  5
452
100
AcDbEntity
  8
LAY-2
  6
EXLTYPE1
 62
     2
100
AcDbLine
 10
425.740707
 20
393.948906
 30
0.0
 11
428.240737
 21
393.948906
 31
0.0
  0
LINE
  5
453
100
AcDbEntity
  8
LAY-2
  6
EXLTYPE1
 62
     2
100
AcDbLine
 10
428.240737
 20
396.048904
 30
0.0
 11
430.740707
 21
396.048904
 31
0.0
  0
LINE
  5
454
100
AcDbEntity
  8
LAY-2
  6
EXLTYPE1
 62
     2
100
AcDbLine
 10
428.240737
 20
400.548904
 30
0.0
 11
430.740707
 21
400.548904
 31
0.0
  0
LINE
  5
455
100
AcDbEntity
  8
LAY-2
  6
EXLTYPE1
 62
     2
100
AcDbLine
 10
430.064357
 20
398.193778
 30
0.0
 11
430.529267
 21
396.798906
 31
0.0
  0
LINE
  5
456
100
AcDbEntity
  8
LAY-2
  6
EXLTYPE1
 62
     2
100
AcDbLine
 10
429.240707
 20
399.798904
 30
0.0
 11
430.740707
 21
399.798904
 31
0.0
  0
LINE
  5
457
100
AcDbEntity
  8
LAY-2
  6
EXLTYPE1
 62
     2
100
AcDbLine
 10
428.240707
 20
395.798904
 30
0.0
 11
429.240707
 21
396.798905
 31
0.0
  0
LINE
  5
458
100
AcDbEntity
  8
LAY-2
  6
EXLTYPE1
 62
     2
100
AcDbLine
 10
429.240707
 20
396.798904
 30
0.0
 11
429.951877
 21
396.798904
 31
0.0
  0
LINE
  5
459
100
AcDbEntity
  8
LAY-2
  6
EXLTYPE1
 62
     2
100
AcDbLine
 10
429.240707
 20
399.798904
 30
0.0
 11
429.240707
 21
396.798904
 31
0.0
  0
LINE
  5
45A
100
AcDbEntity
  8
LAY-2
  6
EXLTYPE1
 62
     2
100
AcDbLine
 10
428.240707
 20
400.798901
 30
0.0
 11
429.240707
 21
399.7989
 31
0.0
  0
LINE
  5
45B
100
AcDbEntity
  8
LAY-2
  6
EXLTYPE1
 62
     2
100
AcDbLine
 10
430.240567
 20
396.298902
 30
0.0
 11
429.432227
 21
399.532685
 31
0.0
  0
LINE
  5
45C
100
AcDbEntity
  8
LAY-2
  6
EXLTYPE1
 62
     2
100
AcDbLine
 10
430.240557
 20
396.298902
 30
0.0
 11
429.951877
 21
396.798902
 31
0.0
  0
LINE
  5
45D
100
AcDbEntity
  8
LAY-2
  6
EXLTYPE1
 62
     2
100
AcDbLine
 10
430.529257
 20
396.798893
 30
0.0
 11
430.240577
 21
396.298897
 31
0.0
  0
LINE
  5
45E
100
AcDbEntity
  8
LAY-2
  6
EXLTYPE1
 62
     2
100
AcDbLine
 10
429.525537
 20
398.064301
 30
0.0
 11
429.435307
 21
399.526058
 31
0.0
  0
LINE
  5
45F
100
AcDbEntity
  8
LAY-2
  6
EXLTYPE1
 62
     2
100
AcDbLine
 10
429.524497
 20
398.081244
 30
0.0
 11
429.951877
 21
396.798906
 31
0.0
  0
LINE
  5
460
100
AcDbEntity
  8
LAY-2
  6
EXLTYPE1
 62
     2
100
AcDbLine
 10
429.435307
 20
399.526059
 30
0.0
 11
430.054907
 21
398.190628
 31
0.0
  0
LINE
  5
461
100
AcDbEntity
  8
LAY-2
  6
EXLTYPE1
 62
     2
100
AcDbLine
 10
430.529247
 20
396.798904
 30
0.0
 11
430.740707
 21
396.798904
 31
0.0
  0
ARC
  5
462
100
AcDbEntity
  8
LAY-2
  6
CONTINUOUS
 62
     2
100
AcDbCircle
 10
428.740737
 20
392.298904
 30
0.0
 40
3.0
100
AcDbArc
 50
179.99998
 51
270.00002
  0
LINE
  5
463
100
AcDbEntity
  8
LAY-2
  6
CONTINUOUS
 62
     2
100
AcDbLine
 10
425.740737
 20
424.298904
 30
0.0
 11
425.740737
 21
392.298904
 31
0.0
  0
LINE
  5
464
100
AcDbEntity
  8
LAY-2
  6
EXLTYPE3
 62
     6
100
AcDbLine
 10
146.231757
 20
416.298904
 30
0.0
 11
155.861317
 21
416.298904
 31
0.0
  0
LINE
  5
465
100
AcDbEntity
  8
LAY-2
  6
EXLTYPE3
 62
     6
100
AcDbLine
 10
151.321307
 20
421.195849
 30
0.0
 11
151.321307
 21
410.596081
 31
0.0
  0
LINE
  5
466
100
AcDbEntity
  8
LAY-2
  6
EXLTYPE3
 62
     6
100
AcDbLine
 10
176.321307
 20
403.866069
 30
0.0
 11
176.321307
 21
392.42505
 31
0.0
  0
LINE
  5
467
100
AcDbEntity
  8
LAY-2
  6
EXLTYPE3
 62
     6
100
AcDbLine
 10
180.861307
 20
398.298904
 30
0.0
 11
171.781307
 21
398.298904
 31
0.0
  0
LINE
  5
468
100
AcDbEntity
  8
LAY-2
  6
EXLTYPE3
 62
     6
100
AcDbLine
 10
206.41087
 20
416.298904
 30
0.0
 11
196.781303
 21
416.298904
 31
0.0
  0
LINE
  5
469
100
AcDbEntity
  8
LAY-2
  6
EXLTYPE3
 62
     6
100
AcDbLine
 10
201.321311
 20
421.195849
 30
0.0
 11
201.321311
 21
410.596081
 31
0.0
  0
DIMENSION
  5
476
100
AcDbEntity
  8
LAY-3
  6
CONTINUOUS
 62
     3
100
AcDbDimension
  2
*D14
 10
258.821311
 20
319.118805
 30
0.0
 11
174.275423
 21
324.993805
 31
0.0
 70
   160
  1
170
  3
STANDARD
100
AcDbAlignedDimension
 13
89.729534
 23
386.596737
 33
0.0
 14
258.821311
 24
384.118817
 34
0.0
100
AcDbRotatedDimension
1001
ACAD
1000
DSTYLE
1002
{
1070
     6
1000
_EX_NORM
1070
     7
1000
_EX_NORM
1070
    41
1040
7.5
1070
    42
1040
1.75
1070
    44
1040
2.5
1070
    73
1070
     0
1070
    74
1070
     0
1070
    75
1070
     0
1070
    76
1070
     0
1070
    77
1070
     1
1070
    78
1070
     8
1070
   140
1040
10.0
1070
   147
1040
0.875
1070
   173
1070
     1
1070
   176
1070
     3
1070
   177
1070
     3
1070
   178
1070
     2
1070
   271
1070
     2
1070
   279
1070
     2
1070
   280
1070
     0
1070
   287
1070
     5
1070
   340
1005
475
1002
}
  0
DIMENSION
  5
482
100
AcDbEntity
  8
LAY-3
  6
CONTINUOUS
 62
     3
100
AcDbDimension
  2
*D15
 10
211.321281
 20
334.118805
 30
0.0
 11
176.321304
 21
339.993805
 31
0.0
 70
   160
  3
STANDARD
100
AcDbAlignedDimension
 13
141.321327
 23
389.298904
 33
0.0
 14
211.321281
 24
389.298904
 34
0.0
100
AcDbRotatedDimension
1001
ACAD
1000
DSTYLE
1002
{
1070
     6
1000
_EX_NORM
1070
     7
1000
_EX_NORM
1070
    41
1040
7.5
1070
    42
1040
1.75
1070
    44
1040
2.5
1070
    73
1070
     0
1070
    74
1070
     0
1070
    75
1070
     0
1070
    76
1070
     0
1070
    77
1070
     1
1070
    78
1070
     8
1070
   140
1040
10.0
1070
   147
1040
0.875
1070
   173
1070
     1
1070
   176
1070
     3
1070
   177
1070
     3
1070
   178
1070
     2
1070
   271
1070
     2
1070
   279
1070
     2
1070
   280
1070
     0
1070
   287
1070
     5
1070
   340
1005
475
1002
}
  0
DIMENSION
  5
48E
100
AcDbEntity
  8
LAY-3
  6
CONTINUOUS
 62
     3
100
AcDbDimension
  2
*D16
 10
201.321311
 20
349.118805
 30
0.0
 11
176.321309
 21
354.993805
 31
0.0
 70
   160
  3
STANDARD
100
AcDbAlignedDimension
 13
151.321307
 23
410.623738
 33
0.0
 14
201.321311
 24
410.623738
 34
0.0
100
AcDbRotatedDimension
1001
ACAD
1000
DSTYLE
1002
{
1070
     6
1000
_EX_NORM
1070
     7
1000
_EX_NORM
1070
    41
1040
7.5
1070
    42
1040
1.75
1070
    44
1040
2.5
1070
    73
1070
     0
1070
    74
1070
     0
1070
    75
1070
     0
1070
    76
1070
     0
1070
    77
1070
     1
1070
    78
1070
     8
1070
   140
1040
10.0
1070
   147
1040
0.875
1070
   173
1070
     1
1070
   176
1070
     3
1070
   177
1070
     3
1070
   178
1070
     2
1070
   271
1070
     2
1070
   279
1070
     2
1070
   280
1070
     0
1070
   287
1070
     5
1070
   340
1005
475
1002
}
  0
DIMENSION
  5
49A
100
AcDbEntity
  8
LAY-3
  6
CONTINUOUS
 62
     3
100
AcDbDimension
  2
*D17
 10
458.23923
 20
369.298904
 30
0.0
 11
441.989983
 21
375.173904
 31
0.0
 70
   160
  3
STANDARD
100
AcDbAlignedDimension
 13
425.740737
 23
392.298904
 33
0.0
 14
458.23923
 24
398.298541
 34
0.0
100
AcDbRotatedDimension
1001
ACAD
1000
DSTYLE
1002
{
1070
     6
1000
_EX_NORM
1070
     7
1000
_EX_NORM
1070
    41
1040
7.5
1070
    42
1040
1.75
1070
    44
1040
2.5
1070
    73
1070
     0
1070
    74
1070
     0
1070
    75
1070
     0
1070
    76
1070
     0
1070
    77
1070
     1
1070
    78
1070
     8
1070
   140
1040
10.0
1070
   147
1040
0.875
1070
   173
1070
     1
1070
   176
1070
     3
1070
   177
1070
     3
1070
   178
1070
     2
1070
   271
1070
     2
1070
   279
1070
     2
1070
   280
1070
     0
1070
   287
1070
     5
1070
   340
1005
475
1002
}
  0
DIMENSION
  5
4A6
100
AcDbEntity
  8
LAY-3
  6
CONTINUOUS
 62
     3
100
AcDbDimension
  2
*D18
 10
485.596295
 20
434.298904
 30
0.0
 11
479.721295
 21
411.798904
 31
0.0
 70
   160
  3
STANDARD
100
AcDbAlignedDimension
 13
430.740737
 23
389.298904
 33
0.0
 14
430.740737
 24
434.298904
 34
0.0
 50
90.0
100
AcDbRotatedDimension
1001
ACAD
1000
DSTYLE
1002
{
1070
     6
1000
_EX_NORM
1070
     7
1000
_EX_NORM
1070
    41
1040
7.5
1070
    42
1040
1.75
1070
    44
1040
2.5
1070
    73
1070
     0
1070
    74
1070
     0
1070
    75
1070
     0
1070
    76
1070
     0
1070
    77
1070
     1
1070
    78
1070
     8
1070
   140
1040
10.0
1070
   147
1040
0.875
1070
   173
1070
     1
1070
   176
1070
     3
1070
   177
1070
     3
1070
   178
1070
     2
1070
   271
1070
     2
1070
   279
1070
     2
1070
   280
1070
     0
1070
   287
1070
     5
1070
   340
1005
475
1002
}
  0
DIMENSION
  5
4B2
100
AcDbEntity
  8
LAY-3
  6
CONTINUOUS
 62
     3
100
AcDbDimension
  2
*D19
 10
258.821342
 20
471.7989
 30
0.0
 11
200.071335
 21
477.6739
 31
0.0
 70
   160
  3
STANDARD
100
AcDbAlignedDimension
 13
141.321327
 23
441.7989
 33
0.0
 14
258.821342
 24
421.798904
 34
0.0
100
AcDbRotatedDimension
1001
ACAD
1000
DSTYLE
1002
{
1070
     6
1000
_EX_NORM
1070
     7
1000
_EX_NORM
1070
    41
1040
7.5
1070
    42
1040
1.75
1070
    44
1040
2.5
1070
    73
1070
     0
1070
    74
1070
     0
1070
    75
1070
     0
1070
    76
1070
     0
1070
    77
1070
     1
1070
    78
1070
     8
1070
   140
1040
10.0
1070
   147
1040
0.875
1070
   173
1070
     1
1070
   176
1070
     3
1070
   177
1070
     3
1070
   178
1070
     2
1070
   271
1070
     2
1070
   279
1070
     2
1070
   280
1070
     0
1070
   287
1070
     5
1070
   340
1005
475
1002
}
  0
DIMENSION
  5
4BE
100
AcDbEntity
  8
LAY-3
  6
CONTINUOUS
 62
     2
100
AcDbDimension
  2
*D20
 10
309.0
 20
441.798904
 30
0.0
 11
303.125
 21
403.235199
 31
0.0
 70
   160
  1
77
  3
STANDARD
100
AcDbAlignedDimension
 13
340.389705
 23
364.671493
 33
0.0
 14
380.740715
 24
441.798904
 34
0.0
 50
90.0
100
AcDbRotatedDimension
1001
ACAD
1000
DSTYLE
1002
{
1070
     6
1000
_EX_NORM
1070
     7
1000
_EX_NORM
1070
    41
1040
7.5
1070
    42
1040
1.75
1070
    44
1040
2.5
1070
    73
1070
     0
1070
    74
1070
     0
1070
    75
1070
     0
1070
    76
1070
     0
1070
    77
1070
     1
1070
    78
1070
     8
1070
   140
1040
10.0
1070
   147
1040
0.875
1070
   173
1070
     1
1070
   176
1070
     3
1070
   177
1070
     3
1070
   178
1070
     2
1070
   271
1070
     2
1070
   279
1070
     2
1070
   280
1070
     0
1070
   287
1070
     5
1070
   340
1005
475
1002
}
  0
DIMENSION
  5
4CA
100
AcDbEntity
  8
LAY-3
  6
CONTINUOUS
 62
     2
100
AcDbDimension
  2
*D21
 10
430.740737
 20
471.7989
 30
0.0
 11
380.815221
 21
477.6739
 31
0.0
 70
   160
  1
100
  3
STANDARD
100
AcDbAlignedDimension
 13
330.889705
 23
374.171493
 33
0.0
 14
430.740737
 24
434.298904
 34
0.0
100
AcDbRotatedDimension
1001
ACAD
1000
DSTYLE
1002
{
1070
     6
1000
_EX_NORM
1070
     7
1000
_EX_NORM
1070
    41
1040
7.5
1070
    42
1040
1.75
1070
    44
1040
2.5
1070
    73
1070
     0
1070
    74
1070
     0
1070
    75
1070
     0
1070
    76
1070
     0
1070
    77
1070
     1
1070
    78
1070
     8
1070
   140
1040
10.0
1070
   147
1040
0.875
1070
   173
1070
     1
1070
   176
1070
     3
1070
   177
1070
     3
1070
   178
1070
     2
1070
   271
1070
     2
1070
   279
1070
     2
1070
   280
1070
     0
1070
   287
1070
     5
1070
   340
1005
475
1002
}
  0
CIRCLE
  5
4CB
100
AcDbEntity
  8
LAY-3
  6
CONTINUOUS
 62
     3
100
AcDbCircle
 10
98.060147
 20
416.832331
 30
0.0
 40
6.5
  0
TEXT
  5
4CC
100
AcDbEntity
  8
LAY-3
  6
CONTINUOUS
 62
     2
100
AcDbText
 10
92.33903
 20
410.582331
 30
0.0
 40
12.5
  1
３
 41
0.84
  7
EXCADSTD
 72
     5
 11
102.33903
 21
410.582331
 31
0.0
100
AcDbText
  0
LEADER
  5
4CD
100
AcDbEntity
  8
LAY-3
  6
CONTINUOUS
 62
     3
100
AcDbLeader
  3
STANDARD
 73
     3
 74
     1
 75
     0
 40
0.0
 76
     2
 10
117.843028
 20
382.589847
 30
0.0
 10
101.311746
 20
411.204089
 30
0.0
 77
     3
1001
ACAD
1000
DSTYLE
1002
{
1070
    41
1040
8.75
1070
     5
1000
_EX_NORM
1070
     6
1000
_EX_NORM
1070
     7
1000
_EX_NORM
1070
   341
1005
28
1002
}
  0
CIRCLE
  5
4CE
100
AcDbEntity
  8
LAY-3
  6
CONTINUOUS
 62
     3
100
AcDbCircle
 10
242.3
 20
462.0
 30
0.0
 40
6.5
  0
TEXT
  5
4CF
100
AcDbEntity
  8
LAY-3
  6
CONTINUOUS
 62
     2
100
AcDbText
 10
236.578883
 20
455.75
 30
0.0
 40
12.5
  1
２
 41
0.84
  7
EXCADSTD
 72
     5
 11
246.578883
 21
455.75
 31
0.0
100
AcDbText
  0
LEADER
  5
4D0
100
AcDbEntity
  8
LAY-3
  6
CONTINUOUS
 62
     3
100
AcDbLeader
  3
STANDARD
 73
     3
 74
     1
 75
     0
 40
0.0
 76
     2
 10
248.96871
 20
435.88807
 30
0.0
 10
243.908406
 20
455.702141
 30
0.0
 77
     3
1001
ACAD
1000
DSTYLE
1002
{
1070
    41
1040
8.75
1070
     5
1000
_EX_NORM
1070
     6
1000
_EX_NORM
1070
     7
1000
_EX_NORM
1070
   341
1005
28
1002
}
  0
TEXT
  5
4D1
100
AcDbEntity
  8
LAY-3
  6
CONTINUOUS
 62
     2
100
AcDbText
 10
398.575178
 20
455.457798
 30
0.0
 40
12.5
  1
１
 41
0.84
  7
EXCADSTD
 72
     5
 11
408.575178
 21
455.457798
 31
0.0
100
AcDbText
  0
CIRCLE
  5
4D2
100
AcDbEntity
  8
LAY-3
  6
CONTINUOUS
 62
     3
100
AcDbCircle
 10
404.296295
 20
461.707798
 30
0.0
 40
6.5
  0
LEADER
  5
4D3
100
AcDbEntity
  8
LAY-3
  6
CONTINUOUS
 62
     3
100
AcDbLeader
  3
STANDARD
 73
     3
 74
     1
 75
     0
 40
0.0
 76
     2
 10
419.104845
 20
434.298905
 30
0.0
 10
407.386015
 20
455.989089
 30
0.0
 77
     3
1001
ACAD
1000
DSTYLE
1002
{
1070
    41
1040
8.75
1070
     5
1000
_EX_NORM
1070
     6
1000
_EX_NORM
1070
     7
1000
_EX_NORM
1070
   341
1005
28
1002
}
  0
CIRCLE
  5
4D4
100
AcDbEntity
  8
LAY-3
  6
CONTINUOUS
 62
     3
100
AcDbCircle
 10
454.771117
 20
461.707798
 30
0.0
 40
6.5
  0
TEXT
  5
4D5
100
AcDbEntity
  8
LAY-3
  6
CONTINUOUS
 62
     2
100
AcDbText
 10
449.05
 20
455.457798
 30
0.0
 40
12.5
  1
４
 41
0.84
  7
EXCADSTD
 72
     5
 11
459.05
 21
455.457798
 31
0.0
100
AcDbText
  0
LEADER
  5
4D6
100
AcDbEntity
  8
LAY-3
  6
CONTINUOUS
 62
     3
100
AcDbLeader
  3
STANDARD
 73
     3
 74
     1
 75
     0
 40
0.0
 76
     2
 10
445.61
 20
417.7989
 30
0.0
 10
453.879124
 20
455.269293
 30
0.0
 77
     3
1001
ACAD
1000
DSTYLE
1002
{
1070
    41
1040
8.75
1070
     5
1000
_EX_NORM
1070
     6
1000
_EX_NORM
1070
     7
1000
_EX_NORM
1070
   341
1005
28
1002
}
  0
DIMENSION
  5
4E3
100
AcDbEntity
  8
LAY-3
  6
CONTINUOUS
 62
     3
100
AcDbDimension
  2
*D22
 10
226.8
 20
398.298904
 30
0.0
 11
221.05
 21
407.298904
 31
0.0
 70
   160
  3
STANDARD
100
AcDbAlignedDimension
 13
206.41087
 23
416.298904
 33
0.0
 14
180.671307
 24
398.298904
 34
0.0
 50
90.0
100
AcDbRotatedDimension
1001
ACAD
1000
DSTYLE
1002
{
1070
     6
1000
_EX_NORM
1070
     7
1000
_EX_NORM
1070
    41
1040
7.5
1070
    42
1040
1.25
1070
    44
1040
2.5
1070
    73
1070
     0
1070
    74
1070
     0
1070
    75
1070
     0
1070
    76
1070
     0
1070
    77
1070
     1
1070
    78
1070
     8
1070
   140
1040
10.0
1070
   147
1040
0.75
1070
   173
1070
     1
1070
   176
1070
     3
1070
   177
1070
     3
1070
   178
1070
     2
1070
   271
1070
     2
1070
   279
1070
     2
1070
   280
1070
     0
1070
   287
1070
     5
1070
   340
1005
4E2
1002
}
  0
ENDSEC
  0
SECTION
  2
OBJECTS
  0
DICTIONARY
  5
19
100
AcDbDictionary
  3
ACAD_GROUP
350
1A
  3
ACAD_MLINESTYLE
350
1B
  0
DICTIONARY
  5
1A
102
{ACAD_REACTORS
330
19
102
}
100
AcDbDictionary
  0
DICTIONARY
  5
1B
102
{ACAD_REACTORS
330
19
102
}
100
AcDbDictionary
  3
STANDARD
350
1C
  0
MLINESTYLE
  5
1C
102
{ACAD_REACTORS
330
1B
102
}
100
AcDbMlineStyle
  2
Standard
 70
     0
  3

 62
     0
 51
90.0
 52
90.0
 71
     2
 49
0.5
 62
   256
  6
ByLayer
 49
-0.5
 62
   256
  6
ByLayer
  0
ENDSEC
  0
EOF
