  0
SECTION
  2
HEADER
  9
$ACADVER
  1
AC1014
  9
$ACADMAINTVER
 70
     0
  9
$DWGCODEPAGE
  3
ANSI_932
  9
$INSBASE
 10
0.0
 20
0.0
 30
0.0
  9
$EXTMIN
 10
0.0
 20
11.5
 30
0.0
  9
$EXTMAX
 10
200.0
 20
289.5
 30
0.0
  9
$LIMMIN
 10
0.0
 20
0.0
  9
$LIMMAX
 10
210.0
 20
297.0
  9
$ORTHOMODE
 70
     0
  9
$REGENMODE
 70
     1
  9
$FILLMODE
 70
     1
  9
$QTEXTMODE
 70
     0
  9
$MIRRTEXT
 70
     1
  9
$DRAGMODE
 70
     2
  9
$LTSCALE
 40
1.0
  9
$OSMODE
 70
     0
  9
$ATTMODE
 70
     1
  9
$TEXTSIZE
 40
0.2
  9
$TRACEWID
 40
0.05
  9
$TEXTSTYLE
  7
STANDARD
  9
$CLAYER
  8
LAY-1
  9
$CELTYPE
  6
CONTINUOUS
  9
$CECOLOR
 62
   256
  9
$CELTSCALE
 40
1.0
  9
$DELOBJ
 70
     1
  9
$DISPSILH
 70
     0
  9
$DIMSCALE
 40
1.0
  9
$DIMASZ
 40
0.18
  9
$DIMEXO
 40
0.0625
  9
$DIMDLI
 40
0.38
  9
$DIMRND
 40
0.0
  9
$DIMDLE
 40
0.0
  9
$DIMEXE
 40
0.18
  9
$DIMTP
 40
0.0
  9
$DIMTM
 40
0.0
  9
$DIMTXT
 40
0.18
  9
$DIMCEN
 40
0.09
  9
$DIMTSZ
 40
0.0
  9
$DIMTOL
 70
     0
  9
$DIMLIM
 70
     0
  9
$DIMTIH
 70
     1
  9
$DIMTOH
 70
     1
  9
$DIMSE1
 70
     0
  9
$DIMSE2
 70
     0
  9
$DIMTAD
 70
     0
  9
$DIMZIN
 70
     0
  9
$DIMBLK
  1

  9
$DIMASO
 70
     1
  9
$DIMSHO
 70
     1
  9
$DIMPOST
  1

  9
$DIMAPOST
  1

  9
$DIMALT
 70
     0
  9
$DIMALTD
 70
     2
  9
$DIMALTF
 40
25.4
  9
$DIMLFAC
 40
1.0
  9
$DIMTOFL
 70
     0
  9
$DIMTVP
 40
0.0
  9
$DIMTIX
 70
     0
  9
$DIMSOXD
 70
     0
  9
$DIMSAH
 70
     0
  9
$DIMBLK1
  1

  9
$DIMBLK2
  1

  9
$DIMSTYLE
  2
STANDARD
  9
$DIMCLRD
 70
     0
  9
$DIMCLRE
 70
     0
  9
$DIMCLRT
 70
     0
  9
$DIMTFAC
 40
1.0
  9
$DIMGAP
 40
0.09
  9
$DIMJUST
 70
     0
  9
$DIMSD1
 70
     0
  9
$DIMSD2
 70
     0
  9
$DIMTOLJ
 70
     1
  9
$DIMTZIN
 70
     0
  9
$DIMALTZ
 70
     0
  9
$DIMALTTZ
 70
     0
  9
$DIMFIT
 70
     3
  9
$DIMUPT
 70
     0
  9
$DIMUNIT
 70
     2
  9
$DIMDEC
 70
     4
  9
$DIMTDEC
 70
     4
  9
$DIMALTU
 70
     2
  9
$DIMALTTD
 70
     2
  9
$DIMTXSTY
  7
STANDARD
  9
$DIMAUNIT
 70
     0
  9
$LUNITS
 70
     2
  9
$LUPREC
 70
     4
  9
$SKETCHINC
 40
0.1
  9
$FILLETRAD
 40
0.0
  9
$AUNITS
 70
     0
  9
$AUPREC
 70
     0
  9
$MENU
  1
acad
  9
$ELEVATION
 40
0.0
  9
$PELEVATION
 40
0.0
  9
$THICKNESS
 40
0.0
  9
$LIMCHECK
 70
     0
  9
$BLIPMODE
 70
     1
  9
$CHAMFERA
 40
0.0
  9
$CHAMFERB
 40
0.0
  9
$CHAMFERC
 40
0.0
  9
$CHAMFERD
 40
0.0
  9
$SKPOLY
 70
     0
  9
$TDCREATE
 40
2454533.044469387
  9
$TDUPDATE
 40
2454533.044469387
  9
$TDINDWG
 40
0.0000000000
  9
$TDUSRTIMER
 40
0.0000000000
  9
$USRTIMER
 70
     1
  9
$ANGBASE
 50
0.0
  9
$ANGDIR
 70
     0
  9
$PDMODE
 70
     0
  9
$PDSIZE
 40
0.0
  9
$PLINEWID
 40
0.0
  9
$COORDS
 70
     1
  9
$SPLFRAME
 70
     0
  9
$SPLINETYPE
 70
     6
  9
$SPLINESEGS
 70
     8
  9
$ATTDIA
 70
     0
  9
$ATTREQ
 70
     1
  9
$HANDLING
 70
     1
  9
$HANDSEED
  5
4F3
  9
$SURFTAB1
 70
     6
  9
$SURFTAB2
 70
     6
  9
$SURFTYPE
 70
     6
  9
$SURFU
 70
     6
  9
$SURFV
 70
     6
  9
$UCSNAME
  2

  9
$UCSORG
 10
0.0
 20
0.0
 30
0.0
  9
$UCSXDIR
 10
1.0
 20
0.0
 30
0.0
  9
$UCSYDIR
 10
0.0
 20
1.0
 30
0.0
  9
$PUCSNAME
  2

  9
$PUCSORG
 10
0.0
 20
0.0
 30
0.0
  9
$PUCSXDIR
 10
1.0
 20
0.0
 30
0.0
  9
$PUCSYDIR
 10
0.0
 20
1.0
 30
0.0
  9
$USERI1
 70
     0
  9
$USERI2
 70
     0
  9
$USERI3
 70
     0
  9
$USERI4
 70
     0
  9
$USERI5
 70
     0
  9
$USERR1
 40
0.0
  9
$USERR2
 40
0.0
  9
$USERR3
 40
0.0
  9
$USERR4
 40
0.0
  9
$USERR5
 40
0.0
  9
$WORLDVIEW
 70
     1
  9
$SHADEDGE
 70
     3
  9
$SHADEDIF
 70
    70
  9
$TILEMODE
 70
     1
  9
$MAXACTVP
 70
    16
  9
$PINSBASE
 10
0.0
 20
0.0
 30
0.0
  9
$PLIMCHECK
 70
     0
  9
$PEXTMIN
 10
1.000000E+20
 20
1.000000E+20
 30
1.000000E+20
  9
$PEXTMAX
 10
-1.000000E+20
 20
-1.000000E+20
 30
-1.000000E+20
  9
$PLIMMIN
 10
0.0
 20
0.0
  9
$PLIMMAX
 10
12.0
 20
9.0
  9
$UNITMODE
 70
     0
  9
$VISRETAIN
 70
     0
  9
$PLINEGEN
 70
     1
  9
$PSLTSCALE
 70
     0
  9
$TREEDEPTH
 70
  3020
  9
$PICKSTYLE
 70
     1
  9
$CMLSTYLE
  2
Standard
  9
$CMLJUST
 70
     0
  9
$CMLSCALE
 40
1.0
  9
$PROXYGRAPHICS
 70
     0
  9
$MEASUREMENT
 70
     0
  0
ENDSEC
  0
SECTION
  2
CLASSES
  0
CLASS
  1
LWPOLYLINE
  2
AcDbPolyline
  3
"AutoCAD"
 90
        0
280
     0
281
     1
  0
CLASS
  1
IMAGE
  2
AcDbRasterImage
  3
ISM
 90
      127
280
     0
281
     1
  0
CLASS
  1
OLE2FRAME
  2
AcDbOle2Frame
  3
""
 90
        0
280
     0
281
     1
  0
CLASS
  1
HATCH
  2
AcDbHatch
  3
"ACAD_SEDONA"
 90
        0
280
     0
281
     1
  0
CLASS
  1
DICTIONARYVAR
  2
AcDbDictionaryVar
  3
"AutoCAD"
 90
        0
280
     0
281
     0
  0
CLASS
  1
RASTERVARIABLES
  2
AcDbRasterVariables
  3
ISM
 90
        0
280
     0
281
     0
  0
CLASS
  1
IMAGEDEF
  2
AcDbRasterImageDef
  3
ISM
 90
        0
280
     0
281
     0
  0
CLASS
  1
IMAGEDEF_REACTOR
  2
AcDbRasterImageDefReactor
  3
ISM
 90
        1
280
     0
281
     0
  0
CLASS
  1
IDBUFFER
  2
AcDbIdBuffer
  3
"Acad"
 90
        0
280
     0
281
     0
  0
CLASS
  1
SPATIAL_FILTER
  2
AcDbSpatialFilter
  3
"Acad"
 90
        0
280
     0
281
     0
  0
CLASS
  1
XRECORD
  2
AcDbXrecord
  3
"<Built In>"
 90
        0
280
     0
281
     0
  0
CLASS
  1
SORTENTSTABLE
  2
AcDbSortentsTable
  3
"AutoCAD"
 90
        0
280
     0
281
     0
  0
CLASS
  1
LAYER_INDEX
  2
AcDbLayerIndex
  3
"Acad"
 90
        0
280
     0
281
     0
  0
CLASS
  1
SPATIAL_INDEX
  2
AcDbSpatialIndex
  3
"Acad"
 90
        0
280
     0
281
     0
  0
CLASS
  1
OBJECT_PTR
  2
CAseDLPNTableRecord
  3
"ASE-LPNTableRecord"
 90
        1
280
     0
281
     0
  0
CLASS
  1
LAYOUT
  2
AcDbLayout
  3
"AutoCAD 2000"
 90
        1
280
     0
281
     0
  0
CLASS
  1
PLOTSETTINGS
  2
AcDbPlotSettings
  3
"AutoCAD 2000"
 90
        1
280
     0
281
     0
  0
CLASS
  1
ACDBDICTIONARYWDFLT
  2
AcDbDictionaryWithDefault
  3
"AutoCAD 2000"
 90
        1
280
     0
281
     0
  0
CLASS
  1
ACDBPLACEHOLDER
  2
AcDbPlaceHolder
  3
"AutoCAD 2000"
 90
        1
280
     0
281
     0
  0
CLASS
  1
VBA_PROJECT
  2
AcDbVbaProject
  3
"acadvba"
 90
        1
280
     0
281
     0
  0
CLASS
  1
WIPEOUT
  2
AcDbWipeout
  3
WipeOut|AutoCAD Express Tool|expresstools@autodesk.com
 90
      127
280
     0
281
     1
  0
CLASS
  1
WIPEOUTVARIABLES
  2
AcDbWipeoutVariables
  3
WipeOut|AutoCAD Express Tool|expresstools@autodesk.com
 90
        0
280
     0
281
     0
  0
CLASS
  1
RTEXT
  2
RText
  3
RText|AutoCAD Express Tool|expresstools@autodesk.com
 90
        0
280
     0
281
     1
  0
CLASS
  1
ARCALIGNEDTEXT
  2
AcDbArcAlignedText
  3
ATEXT|AutoCAD Express Tool|expresstools@autodesk.com
 90
        0
280
     0
281
     1
  0
ENDSEC
  0
SECTION
  2
TABLES
  0
TABLE
  2
VPORT
  5
7
100
AcDbSymbolTable
 70
     1
  0
VPORT
  5
15
100
AcDbSymbolTableRecord
100
AcDbViewportTableRecord
  2
*ACTIVE
 70
     0
 10
0.0
 20
0.0
 11
1.0
 21
1.0
 12
250.0
 22
376.25
 13
0.0
 23
0.0
 14
1.0
 24
1.0
 15
0.0
 25
0.0
 16
0.0
 26
0.0
 36
1.0
 17
0.0
 27
0.0
 37
0.0
 40
695.0
 41
1.722533
 42
50.0
 43
0.0
 44
0.0
 50
0.0
 51
0.0
 71
     0
 72
   100
 73
     1
 74
     1
 75
     0
 76
     0
 77
     0
 78
     0
  0
ENDTAB
  0
TABLE
  2
LTYPE
  5
4
100
AcDbSymbolTable
 70
     9
  0
LTYPE
  5
11
100
AcDbSymbolTableRecord
100
AcDbLinetypeTableRecord
  2
BYBLOCK
 70
    64
  3

 72
    65
 73
     0
 40
0.0
  0
LTYPE
  5
12
100
AcDbSymbolTableRecord
100
AcDbLinetypeTableRecord
  2
BYLAYER
 70
    64
  3

 72
    65
 73
     0
 40
0.0
  0
LTYPE
  5
13
100
AcDbSymbolTableRecord
100
AcDbLinetypeTableRecord
  2
CONTINUOUS
 70
    64
  3
実線
 72
    65
 73
     0
 40
0.0
  0
LTYPE
  5
1D
100
AcDbSymbolTableRecord
100
AcDbLinetypeTableRecord
  2
EXLTYPE1
 70
    64
  3
破線
 72
    65
 73
     2
 40
3.0
 49
2.0
 74
     0
 49
-1.0
 74
     0
  0
LTYPE
  5
1E
100
AcDbSymbolTableRecord
100
AcDbLinetypeTableRecord
  2
EXLTYPE2
 70
    64
  3
点線
 72
    65
 73
     2
 40
2.0
 49
1.0
 74
     0
 49
-1.0
 74
     0
  0
LTYPE
  5
1F
100
AcDbSymbolTableRecord
100
AcDbLinetypeTableRecord
  2
EXLTYPE3
 70
    64
  3
一点鎖線
 72
    65
 73
     4
 40
10.0
 49
7.0
 74
     0
 49
-1.0
 74
     0
 49
1.0
 74
     0
 49
-1.0
 74
     0
  0
LTYPE
  5
20
100
AcDbSymbolTableRecord
100
AcDbLinetypeTableRecord
  2
EXLTYPE4
 70
    64
  3
二点鎖線
 72
    65
 73
     6
 40
12.0
 49
7.0
 74
     0
 49
-1.0
 74
     0
 49
1.0
 74
     0
 49
-1.0
 74
     0
 49
1.0
 74
     0
 49
-1.0
 74
     0
  0
LTYPE
  5
21
100
AcDbSymbolTableRecord
100
AcDbLinetypeTableRecord
  2
EXLTYPE5
 70
    64
  3
三点鎖線
 72
    65
 73
     8
 40
37.0
 49
30.0
 74
     0
 49
-1.0
 74
     0
 49
1.0
 74
     0
 49
-1.0
 74
     0
 49
1.0
 74
     0
 49
-1.0
 74
     0
 49
1.0
 74
     0
 49
-1.0
 74
     0
  0
LTYPE
  5
22
100
AcDbSymbolTableRecord
100
AcDbLinetypeTableRecord
  2
EXLTYPE6
 70
    64
  3
四点鎖線
 72
    65
 73
    10
 40
39.0
 49
30.0
 74
     0
 49
-1.0
 74
     0
 49
1.0
 74
     0
 49
-1.0
 74
     0
 49
1.0
 74
     0
 49
-1.0
 74
     0
 49
1.0
 74
     0
 49
-1.0
 74
     0
 49
1.0
 74
     0
 49
-1.0
 74
     0
  0
ENDTAB
  0
TABLE
  2
LAYER
  5
2
100
AcDbSymbolTable
 70
     4
  0
LAYER
  5
14
100
AcDbSymbolTableRecord
100
AcDbLayerTableRecord
  2
0
 70
     0
 62
     7
  6
CONTINUOUS
  0
LAYER
  5
25
100
AcDbSymbolTableRecord
100
AcDbLayerTableRecord
  2
LAY-1
 70
    64
 62
     7
  6
CONTINUOUS
  0
LAYER
  5
26
100
AcDbSymbolTableRecord
100
AcDbLayerTableRecord
  2
LAY-2
 70
    64
 62
     7
  6
CONTINUOUS
  0
LAYER
  5
27
100
AcDbSymbolTableRecord
100
AcDbLayerTableRecord
  2
LAY-3
 70
    64
 62
     7
  6
CONTINUOUS
  0
ENDTAB
  0
TABLE
  2
STYLE
  5
3
100
AcDbSymbolTable
 70
     4
  0
STYLE
  5
17
100
AcDbSymbolTableRecord
100
AcDbTextStyleTableRecord
  2
STANDARD
 70
     0
 40
0.0
 41
1.0
 50
0.0
 71
     0
 42
0.0
  3
monotxt
  4
extfont
  0
STYLE
  5
23
100
AcDbSymbolTableRecord
100
AcDbTextStyleTableRecord
  2
EXCADSTD
 70
    64
 40
0.0
 41
1.0
 50
0.0
 71
     0
 42
0.2
  3
monotxt
  4
extfont
  0
STYLE
  5
24
100
AcDbSymbolTableRecord
100
AcDbTextStyleTableRecord
  2
EXCADVERT
 70
    68
 40
0.0
 41
1.0
 50
0.0
 71
     0
 42
0.286885
  3
monotxt
  4
extfont
  0
STYLE
  5
48F
100
AcDbSymbolTableRecord
100
AcDbTextStyleTableRecord
  2
EXCADDIM1
 70
    64
 40
0.0
 41
0.84
 50
0.0
 71
     0
 42
0.2
  3
monotxt
  4
extfont
  0
ENDTAB
  0
TABLE
  2
VIEW
  5
5
100
AcDbSymbolTable
 70
     0
  0
ENDTAB
  0
TABLE
  2
UCS
  5
6
100
AcDbSymbolTable
 70
     0
  0
ENDTAB
  0
TABLE
  2
APPID
  5
8
100
AcDbSymbolTable
 70
     1
  0
APPID
  5
16
100
AcDbSymbolTableRecord
100
AcDbRegAppTableRecord
  2
ACAD
 70
     0
  0
ENDTAB
  0
TABLE
  2
DIMSTYLE
  5
9
100
AcDbSymbolTable
 70
     1
  0
DIMSTYLE
105
18
100
AcDbSymbolTableRecord
100
AcDbDimStyleTableRecord
  2
STANDARD
 70
     0
  3

  4

  5

  6

  7

 40
1.0
 41
0.18
 42
0.0625
 43
0.38
 44
0.18
 45
0.0
 46
0.0
 47
0.0
 48
0.0
 71
     0
 72
     0
 73
     1
 74
     1
 75
     0
 76
     0
 77
     0
 78
     0
140
0.18
141
0.09
142
0.0
143
25.4
144
1.0
145
0.0
146
1.0
147
0.09
170
     0
171
     2
172
     1
173
     0
174
     0
175
     0
176
     0
177
     0
178
     0
270
     2
271
     4
272
     4
273
     2
274
     2
275
     0
280
     0
281
     0
282
     0
283
     1
284
     0
285
     0
286
     0
287
     0
288
     0
340
17
  0
ENDTAB
  0
TABLE
  2
BLOCK_RECORD
  5
1
100
AcDbSymbolTable
 70
    22
  0
BLOCK_RECORD
  5
A
100
AcDbSymbolTableRecord
100
AcDbBlockTableRecord
  2
*MODEL_SPACE
  0
BLOCK_RECORD
  5
B
100
AcDbSymbolTableRecord
100
AcDbBlockTableRecord
  2
*PAPER_SPACE
  0
BLOCK_RECORD
  5
28
100
AcDbSymbolTableRecord
100
AcDbBlockTableRecord
  2
_EX_NORM
  0
BLOCK_RECORD
  5
29
100
AcDbSymbolTableRecord
100
AcDbBlockTableRecord
  2
_EX_BNORM
  0
BLOCK_RECORD
  5
2A
100
AcDbSymbolTableRecord
100
AcDbBlockTableRecord
  2
_EX_BCIR
  0
BLOCK_RECORD
  5
2B
100
AcDbSymbolTableRecord
100
AcDbBlockTableRecord
  2
_EX_RCIVIL
  0
BLOCK_RECORD
  5
2C
100
AcDbSymbolTableRecord
100
AcDbBlockTableRecord
  2
_EX_SLANT
  0
BLOCK_RECORD
  5
2D
100
AcDbSymbolTableRecord
100
AcDbBlockTableRecord
  2
_EX_NONE
  0
BLOCK_RECORD
  5
2E
100
AcDbSymbolTableRecord
100
AcDbBlockTableRecord
  2
_EX_CIVIL
  0
BLOCK_RECORD
  5
2F
100
AcDbSymbolTableRecord
100
AcDbBlockTableRecord
  2
_EX_WCIR
  0
BLOCK_RECORD
  5
30
100
AcDbSymbolTableRecord
100
AcDbBlockTableRecord
  2
_EX_WCIR2
  0
BLOCK_RECORD
  5
31
100
AcDbSymbolTableRecord
100
AcDbBlockTableRecord
  2
_EX_WNORM
  0
BLOCK_RECORD
  5
32
100
AcDbSymbolTableRecord
100
AcDbBlockTableRecord
  2
_EX_NNORM
  0
BLOCK_RECORD
  5
33
100
AcDbSymbolTableRecord
100
AcDbBlockTableRecord
  2
_EX_BBOX
  0
BLOCK_RECORD
  5
34
100
AcDbSymbolTableRecord
100
AcDbBlockTableRecord
  2
_EX_WBOX
  0
BLOCK_RECORD
  5
35
100
AcDbSymbolTableRecord
100
AcDbBlockTableRecord
  2
_EX_INTEGRAL
  0
BLOCK_RECORD
  5
484
100
AcDbSymbolTableRecord
100
AcDbBlockTableRecord
  2
*D14
  0
BLOCK_RECORD
  5
491
100
AcDbSymbolTableRecord
100
AcDbBlockTableRecord
  2
*D15
  0
BLOCK_RECORD
  5
49D
100
AcDbSymbolTableRecord
100
AcDbBlockTableRecord
  2
*D16
  0
BLOCK_RECORD
  5
4A9
100
AcDbSymbolTableRecord
100
AcDbBlockTableRecord
  2
*D17
  0
BLOCK_RECORD
  5
4B5
100
AcDbSymbolTableRecord
100
AcDbBlockTableRecord
  2
*D18
  0
BLOCK_RECORD
  5
4BE
100
AcDbSymbolTableRecord
100
AcDbBlockTableRecord
  2
*D19
  0
BLOCK_RECORD
  5
4CA
100
AcDbSymbolTableRecord
100
AcDbBlockTableRecord
  2
*D20
  0
BLOCK_RECORD
  5
4D6
100
AcDbSymbolTableRecord
100
AcDbBlockTableRecord
  2
*D21
  0
ENDTAB
  0
ENDSEC
  0
SECTION
  2
BLOCKS
  0
BLOCK
  5
D
100
AcDbEntity
  8
0
100
AcDbBlockBegin
  2
*MODEL_SPACE
 70
     0
 10
0.0
 20
0.0
 30
0.0
  3
*MODEL_SPACE
  1

  0
ENDBLK
  5
E
100
AcDbEntity
  8
0
100
AcDbBlockEnd
  0
BLOCK
  5
F
100
AcDbEntity
 67
     1
  8
0
100
AcDbBlockBegin
  2
*PAPER_SPACE
 70
     0
 10
0.0
 20
0.0
 30
0.0
  3
*PAPER_SPACE
  1

  0
ENDBLK
  5
10
100
AcDbEntity
 67
     1
  8
0
100
AcDbBlockEnd
  0
BLOCK
  5
36
100
AcDbEntity
  8
0
100
AcDbBlockBegin
  2
_EX_NORM
 70
     0
 10
0.0
 20
0.0
 30
0.0
  3
_EX_NORM
  1

  0
LINE
  5
37
100
AcDbEntity
  8
0
  6
CONTINUOUS
 62
     0
100
AcDbLine
 10
0.0
 20
0.0
 30
0.0
 11
-1.0
 21
0.0
 31
0.0
  0
LINE
  5
38
100
AcDbEntity
  8
0
  6
CONTINUOUS
 62
     0
100
AcDbLine
 10
0.0
 20
0.0
 30
0.0
 11
-1.0
 21
0.166667
 31
0.0
  0
LINE
  5
39
100
AcDbEntity
  8
0
  6
CONTINUOUS
 62
     0
100
AcDbLine
 10
0.0
 20
0.0
 30
0.0
 11
-1.0
 21
-0.166667
 31
0.0
  0
ENDBLK
  5
3A
100
AcDbEntity
  8
0
100
AcDbBlockEnd
  0
BLOCK
  5
3B
100
AcDbEntity
  8
0
100
AcDbBlockBegin
  2
_EX_BNORM
 70
     0
 10
0.0
 20
0.0
 30
0.0
  3
_EX_BNORM
  1

  0
LINE
  5
3C
100
AcDbEntity
  8
0
  6
CONTINUOUS
 62
     0
100
AcDbLine
 10
0.0
 20
0.0
 30
0.0
 11
-1.0
 21
0.0
 31
0.0
  0
LINE
  5
3D
100
AcDbEntity
  8
0
  6
CONTINUOUS
 62
     0
100
AcDbLine
 10
0.0
 20
0.0
 30
0.0
 11
-1.0
 21
0.166667
 31
0.0
  0
LINE
  5
3E
100
AcDbEntity
  8
0
  6
CONTINUOUS
 62
     0
100
AcDbLine
 10
0.0
 20
0.0
 30
0.0
 11
-1.0
 21
-0.166667
 31
0.0
  0
LINE
  5
3F
100
AcDbEntity
  8
0
  6
CONTINUOUS
 62
     0
100
AcDbLine
 10
0.0
 20
0.0
 30
0.0
 11
-1.0
 21
0.083333
 31
0.0
  0
LINE
  5
40
100
AcDbEntity
  8
0
  6
CONTINUOUS
 62
     0
100
AcDbLine
 10
0.0
 20
0.0
 30
0.0
 11
-1.0
 21
-0.083333
 31
0.0
  0
LINE
  5
41
100
AcDbEntity
  8
0
  6
CONTINUOUS
 62
     0
100
AcDbLine
 10
-1.0
 20
0.166667
 30
0.0
 11
-1.0
 21
-0.166667
 31
0.0
  0
ENDBLK
  5
42
100
AcDbEntity
  8
0
100
AcDbBlockEnd
  0
BLOCK
  5
43
100
AcDbEntity
  8
0
100
AcDbBlockBegin
  2
_EX_BCIR
 70
     0
 10
0.0
 20
0.0
 30
0.0
  3
_EX_BCIR
  1

  0
LINE
  5
44
100
AcDbEntity
  8
0
  6
CONTINUOUS
 62
     0
100
AcDbLine
 10
0.0
 20
0.0
 30
0.0
 11
-1.0
 21
0.0
 31
0.0
  0
CIRCLE
  5
45
100
AcDbEntity
  8
0
  6
CONTINUOUS
 62
     0
100
AcDbCircle
 10
0.0
 20
0.0
 30
0.0
 40
0.5
  0
CIRCLE
  5
46
100
AcDbEntity
  8
0
  6
CONTINUOUS
 62
     0
100
AcDbCircle
 10
0.0
 20
0.0
 30
0.0
 40
0.25
  0
ENDBLK
  5
47
100
AcDbEntity
  8
0
100
AcDbBlockEnd
  0
BLOCK
  5
48
100
AcDbEntity
  8
0
100
AcDbBlockBegin
  2
_EX_RCIVIL
 70
     0
 10
0.0
 20
0.0
 30
0.0
  3
_EX_RCIVIL
  1

  0
LINE
  5
49
100
AcDbEntity
  8
0
  6
CONTINUOUS
 62
     0
100
AcDbLine
 10
0.0
 20
0.0
 30
0.0
 11
-1.0
 21
0.0
 31
0.0
  0
LINE
  5
4A
100
AcDbEntity
  8
0
  6
CONTINUOUS
 62
     0
100
AcDbLine
 10
-1.0
 20
-0.25
 30
0.0
 11
0.0
 21
-0.25
 31
0.0
  0
LINE
  5
4B
100
AcDbEntity
  8
0
  6
CONTINUOUS
 62
     0
100
AcDbLine
 10
-1.0
 20
-0.125
 30
0.0
 11
0.0
 21
-0.125
 31
0.0
  0
ENDBLK
  5
4C
100
AcDbEntity
  8
0
100
AcDbBlockEnd
  0
BLOCK
  5
4D
100
AcDbEntity
  8
0
100
AcDbBlockBegin
  2
_EX_SLANT
 70
     0
 10
0.0
 20
0.0
 30
0.0
  3
_EX_SLANT
  1

  0
LINE
  5
4E
100
AcDbEntity
  8
0
  6
CONTINUOUS
 62
     0
100
AcDbLine
 10
0.0
 20
0.0
 30
0.0
 11
-1.0
 21
0.0
 31
0.0
  0
LINE
  5
4F
100
AcDbEntity
  8
0
  6
CONTINUOUS
 62
     0
100
AcDbLine
 10
0.707107
 20
0.707107
 30
0.0
 11
-0.707107
 21
-0.707107
 31
0.0
  0
ENDBLK
  5
50
100
AcDbEntity
  8
0
100
AcDbBlockEnd
  0
BLOCK
  5
51
100
AcDbEntity
  8
0
100
AcDbBlockBegin
  2
_EX_NONE
 70
     0
 10
0.0
 20
0.0
 30
0.0
  3
_EX_NONE
  1

  0
LINE
  5
52
100
AcDbEntity
  8
0
  6
CONTINUOUS
 62
     0
100
AcDbLine
 10
0.0
 20
0.0
 30
0.0
 11
-1.0
 21
0.0
 31
0.0
  0
ENDBLK
  5
53
100
AcDbEntity
  8
0
100
AcDbBlockEnd
  0
BLOCK
  5
54
100
AcDbEntity
  8
0
100
AcDbBlockBegin
  2
_EX_CIVIL
 70
     0
 10
0.0
 20
0.0
 30
0.0
  3
_EX_CIVIL
  1

  0
LINE
  5
55
100
AcDbEntity
  8
0
  6
CONTINUOUS
 62
     0
100
AcDbLine
 10
0.0
 20
0.0
 30
0.0
 11
-1.0
 21
0.0
 31
0.0
  0
LINE
  5
56
100
AcDbEntity
  8
0
  6
CONTINUOUS
 62
     0
100
AcDbLine
 10
-1.0
 20
0.25
 30
0.0
 11
0.0
 21
0.25
 31
0.0
  0
LINE
  5
57
100
AcDbEntity
  8
0
  6
CONTINUOUS
 62
     0
100
AcDbLine
 10
-1.0
 20
0.125
 30
0.0
 11
0.0
 21
0.125
 31
0.0
  0
ENDBLK
  5
58
100
AcDbEntity
  8
0
100
AcDbBlockEnd
  0
BLOCK
  5
59
100
AcDbEntity
  8
0
100
AcDbBlockBegin
  2
_EX_WCIR
 70
     0
 10
0.0
 20
0.0
 30
0.0
  3
_EX_WCIR
  1

  0
LINE
  5
5A
100
AcDbEntity
  8
0
  6
CONTINUOUS
 62
     0
100
AcDbLine
 10
0.0
 20
0.0
 30
0.0
 11
-1.0
 21
0.0
 31
0.0
  0
CIRCLE
  5
5B
100
AcDbEntity
  8
0
  6
CONTINUOUS
 62
     0
100
AcDbCircle
 10
0.0
 20
0.0
 30
0.0
 40
0.5
  0
ENDBLK
  5
5C
100
AcDbEntity
  8
0
100
AcDbBlockEnd
  0
BLOCK
  5
5D
100
AcDbEntity
  8
0
100
AcDbBlockBegin
  2
_EX_WCIR2
 70
     0
 10
0.0
 20
0.0
 30
0.0
  3
_EX_WCIR2
  1

  0
LINE
  5
5E
100
AcDbEntity
  8
0
  6
CONTINUOUS
 62
     0
100
AcDbLine
 10
-0.5
 20
0.0
 30
0.0
 11
-1.0
 21
0.0
 31
0.0
  0
CIRCLE
  5
5F
100
AcDbEntity
  8
0
  6
CONTINUOUS
 62
     0
100
AcDbCircle
 10
0.0
 20
0.0
 30
0.0
 40
0.5
  0
ENDBLK
  5
60
100
AcDbEntity
  8
0
100
AcDbBlockEnd
  0
BLOCK
  5
61
100
AcDbEntity
  8
0
100
AcDbBlockBegin
  2
_EX_WNORM
 70
     0
 10
0.0
 20
0.0
 30
0.0
  3
_EX_WNORM
  1

  0
LINE
  5
62
100
AcDbEntity
  8
0
  6
CONTINUOUS
 62
     0
100
AcDbLine
 10
-1.0
 20
0.0
 30
0.0
 11
-1.0
 21
0.0
 31
0.0
  0
LINE
  5
63
100
AcDbEntity
  8
0
  6
CONTINUOUS
 62
     0
100
AcDbLine
 10
0.0
 20
0.0
 30
0.0
 11
-1.0
 21
0.166667
 31
0.0
  0
LINE
  5
64
100
AcDbEntity
  8
0
  6
CONTINUOUS
 62
     0
100
AcDbLine
 10
0.0
 20
0.0
 30
0.0
 11
-1.0
 21
-0.166667
 31
0.0
  0
LINE
  5
65
100
AcDbEntity
  8
0
  6
CONTINUOUS
 62
     0
100
AcDbLine
 10
-1.0
 20
0.166667
 30
0.0
 11
-1.0
 21
-0.166667
 31
0.0
  0
ENDBLK
  5
66
100
AcDbEntity
  8
0
100
AcDbBlockEnd
  0
BLOCK
  5
67
100
AcDbEntity
  8
0
100
AcDbBlockBegin
  2
_EX_NNORM
 70
     0
 10
0.0
 20
0.0
 30
0.0
  3
_EX_NNORM
  1

  0
LINE
  5
68
100
AcDbEntity
  8
0
  6
CONTINUOUS
 62
     0
100
AcDbLine
 10
0.0
 20
0.0
 30
0.0
 11
-1.0
 21
0.0
 31
0.0
  0
LINE
  5
69
100
AcDbEntity
  8
0
  6
CONTINUOUS
 62
     0
100
AcDbLine
 10
0.0
 20
0.0
 30
0.0
 11
-1.0
 21
0.166667
 31
0.0
  0
LINE
  5
6A
100
AcDbEntity
  8
0
  6
CONTINUOUS
 62
     0
100
AcDbLine
 10
0.0
 20
0.0
 30
0.0
 11
-1.0
 21
-0.166667
 31
0.0
  0
LINE
  5
6B
100
AcDbEntity
  8
0
  6
CONTINUOUS
 62
     0
100
AcDbLine
 10
-1.0
 20
0.166667
 30
0.0
 11
-1.0
 21
-0.166667
 31
0.0
  0
ENDBLK
  5
6C
100
AcDbEntity
  8
0
100
AcDbBlockEnd
  0
BLOCK
  5
6D
100
AcDbEntity
  8
0
100
AcDbBlockBegin
  2
_EX_BBOX
 70
     0
 10
0.0
 20
0.0
 30
0.0
  3
_EX_BBOX
  1

  0
LINE
  5
6E
100
AcDbEntity
  8
0
  6
CONTINUOUS
 62
     0
100
AcDbLine
 10
0.0
 20
0.0
 30
0.0
 11
-1.0
 21
0.0
 31
0.0
  0
LINE
  5
6F
100
AcDbEntity
  8
0
  6
CONTINUOUS
 62
     0
100
AcDbLine
 10
-0.5
 20
0.5
 30
0.0
 11
0.5
 21
0.5
 31
0.0
  0
LINE
  5
70
100
AcDbEntity
  8
0
  6
CONTINUOUS
 62
     0
100
AcDbLine
 10
0.5
 20
0.5
 30
0.0
 11
0.5
 21
-0.5
 31
0.0
  0
LINE
  5
71
100
AcDbEntity
  8
0
  6
CONTINUOUS
 62
     0
100
AcDbLine
 10
0.5
 20
-0.5
 30
0.0
 11
-0.5
 21
-0.5
 31
0.0
  0
LINE
  5
72
100
AcDbEntity
  8
0
  6
CONTINUOUS
 62
     0
100
AcDbLine
 10
-0.5
 20
-0.5
 30
0.0
 11
-0.5
 21
0.5
 31
0.0
  0
LINE
  5
73
100
AcDbEntity
  8
0
  6
CONTINUOUS
 62
     0
100
AcDbLine
 10
-0.25
 20
0.25
 30
0.0
 11
0.25
 21
0.25
 31
0.0
  0
LINE
  5
74
100
AcDbEntity
  8
0
  6
CONTINUOUS
 62
     0
100
AcDbLine
 10
0.25
 20
0.25
 30
0.0
 11
0.25
 21
-0.25
 31
0.0
  0
LINE
  5
75
100
AcDbEntity
  8
0
  6
CONTINUOUS
 62
     0
100
AcDbLine
 10
0.25
 20
-0.25
 30
0.0
 11
-0.25
 21
-0.25
 31
0.0
  0
LINE
  5
76
100
AcDbEntity
  8
0
  6
CONTINUOUS
 62
     0
100
AcDbLine
 10
-0.25
 20
-0.25
 30
0.0
 11
-0.25
 21
0.25
 31
0.0
  0
ENDBLK
  5
77
100
AcDbEntity
  8
0
100
AcDbBlockEnd
  0
BLOCK
  5
78
100
AcDbEntity
  8
0
100
AcDbBlockBegin
  2
_EX_WBOX
 70
     0
 10
0.0
 20
0.0
 30
0.0
  3
_EX_WBOX
  1

  0
LINE
  5
79
100
AcDbEntity
  8
0
  6
CONTINUOUS
 62
     0
100
AcDbLine
 10
-0.5
 20
0.0
 30
0.0
 11
-1.0
 21
0.0
 31
0.0
  0
LINE
  5
7A
100
AcDbEntity
  8
0
  6
CONTINUOUS
 62
     0
100
AcDbLine
 10
-0.5
 20
0.5
 30
0.0
 11
0.5
 21
0.5
 31
0.0
  0
LINE
  5
7B
100
AcDbEntity
  8
0
  6
CONTINUOUS
 62
     0
100
AcDbLine
 10
0.5
 20
0.5
 30
0.0
 11
0.5
 21
-0.5
 31
0.0
  0
LINE
  5
7C
100
AcDbEntity
  8
0
  6
CONTINUOUS
 62
     0
100
AcDbLine
 10
0.5
 20
-0.5
 30
0.0
 11
-0.5
 21
-0.5
 31
0.0
  0
LINE
  5
7D
100
AcDbEntity
  8
0
  6
CONTINUOUS
 62
     0
100
AcDbLine
 10
-0.5
 20
-0.5
 30
0.0
 11
-0.5
 21
0.5
 31
0.0
  0
ENDBLK
  5
7E
100
AcDbEntity
  8
0
100
AcDbBlockEnd
  0
BLOCK
  5
7F
100
AcDbEntity
  8
0
100
AcDbBlockBegin
  2
_EX_INTEGRAL
 70
     0
 10
0.0
 20
0.0
 30
0.0
  3
_EX_INTEGRAL
  1

  0
LINE
  5
80
100
AcDbEntity
  8
0
  6
CONTINUOUS
 62
     0
100
AcDbLine
 10
0.0
 20
0.0
 30
0.0
 11
-1.0
 21
0.0
 31
0.0
  0
ARC
  5
81
100
AcDbEntity
  8
0
  6
CONTINUOUS
 62
     0
100
AcDbCircle
 10
0.542115
 20
0.164992
 30
0.0
 40
0.56667
100
AcDbArc
 50
73.07249
 51
196.927513
  0
ARC
  5
82
100
AcDbEntity
  8
0
  6
CONTINUOUS
 62
     0
100
AcDbCircle
 10
-0.542115
 20
-0.164992
 30
0.0
 40
0.56667
100
AcDbArc
 50
253.072487
 51
16.927513
  0
ENDBLK
  5
83
100
AcDbEntity
  8
0
100
AcDbBlockEnd
  0
BLOCK
  5
485
100
AcDbEntity
  8
0
100
AcDbBlockBegin
  2
*D14
 70
    65
 10
0.0
 20
0.0
 30
0.0
  3
*D14
  1

  0
LINE
  5
486
100
AcDbEntity
  8
LAY-3
  6
CONTINUOUS
 62
     3
100
AcDbLine
 10
418.509127
 20
395.21524
 30
0.0
 11
418.509127
 21
371.46524
 31
0.0
  0
LINE
  5
487
100
AcDbEntity
  8
LAY-3
  6
CONTINUOUS
 62
     3
100
AcDbLine
 10
451.00762
 20
401.214877
 30
0.0
 11
451.00762
 21
371.46524
 31
0.0
  0
TEXT
  5
488
100
AcDbEntity
  8
LAY-3
  6
CONTINUOUS
 62
     2
100
AcDbText
 10
423.208373
 20
374.84024
 30
0.0
 40
10.0
  1
32.5
 41
0.84
  7
EXCADSTD
 72
     1
 11
434.758373
 21
374.84024
 31
0.0
100
AcDbText
  0
LINE
  5
489
100
AcDbEntity
  8
LAY-3
  6
CONTINUOUS
 62
     3
100
AcDbLine
 10
418.509127
 20
373.96524
 30
0.0
 11
451.00762
 21
373.96524
 31
0.0
  0
LINE
  5
48A
100
AcDbEntity
  8
LAY-3
  6
CONTINUOUS
 62
     3
100
AcDbLine
 10
426.009127
 20
375.21524
 30
0.0
 11
418.509127
 21
373.96524
 31
0.0
  0
LINE
  5
48B
100
AcDbEntity
  8
LAY-3
  6
CONTINUOUS
 62
     3
100
AcDbLine
 10
418.509127
 20
373.96524
 30
0.0
 11
426.009127
 21
372.71524
 31
0.0
  0
LINE
  5
48C
100
AcDbEntity
  8
LAY-3
  6
CONTINUOUS
 62
     3
100
AcDbLine
 10
443.50762
 20
372.71524
 30
0.0
 11
451.00762
 21
373.96524
 31
0.0
  0
LINE
  5
48D
100
AcDbEntity
  8
LAY-3
  6
CONTINUOUS
 62
     3
100
AcDbLine
 10
451.00762
 20
373.96524
 30
0.0
 11
443.50762
 21
375.21524
 31
0.0
  0
ENDBLK
  5
48E
100
AcDbEntity
  8
0
100
AcDbBlockEnd
  0
BLOCK
  5
492
100
AcDbEntity
  8
0
100
AcDbBlockBegin
  2
*D15
 70
    65
 10
0.0
 20
0.0
 30
0.0
  3
*D15
  1

  0
LINE
  5
493
100
AcDbEntity
  8
LAY-3
  6
CONTINUOUS
 62
     3
100
AcDbLine
 10
363.509146
 20
437.715241
 30
0.0
 11
363.509146
 21
471.465241
 31
0.0
  0
LINE
  5
494
100
AcDbEntity
  8
LAY-3
  6
CONTINUOUS
 62
     3
100
AcDbLine
 10
423.509127
 20
440.215241
 30
0.0
 11
423.509127
 21
471.465241
 31
0.0
  0
TEXT
  5
495
100
AcDbEntity
  8
LAY-3
  6
CONTINUOUS
 62
     2
100
AcDbText
 10
386.159136
 20
469.715241
 30
0.0
 40
10.0
  1
60
 41
0.84
  7
EXCADSTD
 72
     1
 11
393.509136
 21
469.715241
 31
0.0
100
AcDbText
  0
LINE
  5
496
100
AcDbEntity
  8
LAY-3
  6
CONTINUOUS
 62
     3
100
AcDbLine
 10
363.509146
 20
468.965241
 30
0.0
 11
423.509127
 21
468.965241
 31
0.0
  0
LINE
  5
497
100
AcDbEntity
  8
LAY-3
  6
CONTINUOUS
 62
     3
100
AcDbLine
 10
371.009146
 20
470.215241
 30
0.0
 11
363.509146
 21
468.965241
 31
0.0
  0
LINE
  5
498
100
AcDbEntity
  8
LAY-3
  6
CONTINUOUS
 62
     3
100
AcDbLine
 10
363.509146
 20
468.965241
 30
0.0
 11
371.009146
 21
467.715241
 31
0.0
  0
LINE
  5
499
100
AcDbEntity
  8
LAY-3
  6
CONTINUOUS
 62
     3
100
AcDbLine
 10
416.009127
 20
467.715241
 30
0.0
 11
423.509127
 21
468.965241
 31
0.0
  0
LINE
  5
49A
100
AcDbEntity
  8
LAY-3
  6
CONTINUOUS
 62
     3
100
AcDbLine
 10
423.509127
 20
468.965241
 30
0.0
 11
416.009127
 21
470.215241
 31
0.0
  0
ENDBLK
  5
49B
100
AcDbEntity
  8
0
100
AcDbBlockEnd
  0
BLOCK
  5
49E
100
AcDbEntity
  8
0
100
AcDbBlockBegin
  2
*D16
 70
    65
 10
0.0
 20
0.0
 30
0.0
  3
*D16
  1

  0
LINE
  5
49F
100
AcDbEntity
  8
LAY-3
  6
CONTINUOUS
 62
     3
100
AcDbLine
 10
372.259146
 20
446.465241
 30
0.0
 11
346.009146
 21
446.465241
 31
0.0
  0
LINE
  5
4A0
100
AcDbEntity
  8
LAY-3
  6
CONTINUOUS
 62
     3
100
AcDbLine
 10
420.259147
 20
393.96524
 30
0.0
 11
346.009146
 21
393.96524
 31
0.0
  0
TEXT
  5
4A1
100
AcDbEntity
  8
LAY-3
  6
CONTINUOUS
 62
     2
100
AcDbText
 10
347.759146
 20
412.86524
 30
0.0
 40
10.0
  1
53
 50
90.0
 41
0.84
  7
EXCADSTD
 72
     1
 11
347.759146
 21
420.21524
 31
0.0
100
AcDbText
  0
LINE
  5
4A2
100
AcDbEntity
  8
LAY-3
  6
CONTINUOUS
 62
     3
100
AcDbLine
 10
348.509146
 20
446.465241
 30
0.0
 11
348.509146
 21
393.96524
 31
0.0
  0
LINE
  5
4A3
100
AcDbEntity
  8
LAY-3
  6
CONTINUOUS
 62
     3
100
AcDbLine
 10
349.759146
 20
438.965241
 30
0.0
 11
348.509146
 21
446.465241
 31
0.0
  0
LINE
  5
4A4
100
AcDbEntity
  8
LAY-3
  6
CONTINUOUS
 62
     3
100
AcDbLine
 10
348.509146
 20
446.465241
 30
0.0
 11
347.259146
 21
438.965241
 31
0.0
  0
LINE
  5
4A5
100
AcDbEntity
  8
LAY-3
  6
CONTINUOUS
 62
     3
100
AcDbLine
 10
347.259146
 20
401.46524
 30
0.0
 11
348.509146
 21
393.96524
 31
0.0
  0
LINE
  5
4A6
100
AcDbEntity
  8
LAY-3
  6
CONTINUOUS
 62
     3
100
AcDbLine
 10
348.509146
 20
393.96524
 30
0.0
 11
349.759146
 21
401.46524
 31
0.0
  0
ENDBLK
  5
4A7
100
AcDbEntity
  8
0
100
AcDbBlockEnd
  0
BLOCK
  5
4AA
100
AcDbEntity
  8
0
100
AcDbBlockBegin
  2
*D17
 70
    65
 10
0.0
 20
0.0
 30
0.0
  3
*D17
  1

  0
LINE
  5
4AB
100
AcDbEntity
  8
LAY-3
  6
CONTINUOUS
 62
     3
100
AcDbLine
 10
276.394668
 20
420.96524
 30
0.0
 11
300.5
 21
420.96524
 31
0.0
  0
LINE
  5
4AC
100
AcDbEntity
  8
LAY-3
  6
CONTINUOUS
 62
     3
100
AcDbLine
 10
276.66835
 20
402.96524
 30
0.0
 11
300.5
 21
402.96524
 31
0.0
  0
TEXT
  5
4AD
100
AcDbEntity
  8
LAY-3
  6
CONTINUOUS
 62
     2
100
AcDbText
 10
297.125
 20
404.61524
 30
0.0
 40
10.0
  1
18
 50
90.0
 41
0.84
  7
EXCADSTD
 72
     1
 11
297.125
 21
411.96524
 31
0.0
100
AcDbText
  0
LINE
  5
4AE
100
AcDbEntity
  8
LAY-3
  6
CONTINUOUS
 62
     3
100
AcDbLine
 10
298.0
 20
420.96524
 30
0.0
 11
298.0
 21
402.96524
 31
0.0
  0
LINE
  5
4AF
100
AcDbEntity
  8
LAY-3
  6
CONTINUOUS
 62
     3
100
AcDbLine
 10
299.25
 20
413.46524
 30
0.0
 11
298.0
 21
420.96524
 31
0.0
  0
LINE
  5
4B0
100
AcDbEntity
  8
LAY-3
  6
CONTINUOUS
 62
     3
100
AcDbLine
 10
298.0
 20
420.96524
 30
0.0
 11
296.75
 21
413.46524
 31
0.0
  0
LINE
  5
4B1
100
AcDbEntity
  8
LAY-3
  6
CONTINUOUS
 62
     3
100
AcDbLine
 10
296.75
 20
410.46524
 30
0.0
 11
298.0
 21
402.96524
 31
0.0
  0
LINE
  5
4B2
100
AcDbEntity
  8
LAY-3
  6
CONTINUOUS
 62
     3
100
AcDbLine
 10
298.0
 20
402.96524
 30
0.0
 11
299.25
 21
410.46524
 31
0.0
  0
ENDBLK
  5
4B3
100
AcDbEntity
  8
0
100
AcDbBlockEnd
  0
BLOCK
  5
4B6
100
AcDbEntity
  8
0
100
AcDbBlockBegin
  2
*D18
 70
    65
 10
0.0
 20
0.0
 30
0.0
  3
*D18
  1

  0
LINE
  5
4B7
100
AcDbEntity
  8
LAY-3
  6
CONTINUOUS
 62
     3
100
AcDbLine
 10
284.750015
 20
393.96524
 30
0.0
 11
300.5
 21
393.96524
 31
0.0
  0
TEXT
  5
4B8
100
AcDbEntity
  8
LAY-3
  6
CONTINUOUS
 62
     2
100
AcDbText
 10
297.125
 20
377.26524
 30
0.0
 40
10.0
  1
9
 50
90.0
 41
0.84
  7
EXCADSTD
 72
     1
 11
297.125
 21
381.46524
 31
0.0
100
AcDbText
  0
LINE
  5
4B9
100
AcDbEntity
  8
LAY-3
  6
CONTINUOUS
 62
     3
100
AcDbLine
 10
298.0
 20
410.46524
 30
0.0
 11
298.0
 21
375.59024
 31
0.0
  0
LINE
  5
4BA
100
AcDbEntity
  8
LAY-3
  6
CONTINUOUS
 62
     3
100
AcDbLine
 10
299.25
 20
386.46524
 30
0.0
 11
298.0
 21
393.96524
 31
0.0
  0
LINE
  5
4BB
100
AcDbEntity
  8
LAY-3
  6
CONTINUOUS
 62
     3
100
AcDbLine
 10
298.0
 20
393.96524
 30
0.0
 11
296.75
 21
386.46524
 31
0.0
  0
ENDBLK
  5
4BC
100
AcDbEntity
  8
0
100
AcDbBlockEnd
  0
BLOCK
  5
4BF
100
AcDbEntity
  8
0
100
AcDbBlockBegin
  2
*D19
 70
    65
 10
0.0
 20
0.0
 30
0.0
  3
*D19
  1

  0
LINE
  5
4C0
100
AcDbEntity
  8
LAY-3
  6
CONTINUOUS
 62
     3
100
AcDbLine
 10
97.999997
 20
388.096549
 30
0.0
 11
97.999997
 21
371.465239
 31
0.0
  0
LINE
  5
4C1
100
AcDbEntity
  8
LAY-3
  6
CONTINUOUS
 62
     3
100
AcDbLine
 10
268.0
 20
389.063346
 30
0.0
 11
268.0
 21
371.465239
 31
0.0
  0
TEXT
  5
4C2
100
AcDbEntity
  8
LAY-3
  6
CONTINUOUS
 62
     2
100
AcDbText
 10
172.499999
 20
374.840239
 30
0.0
 40
10.0
  1
430
 41
0.84
  7
EXCADSTD
 72
     1
 11
182.999999
 21
374.840239
 31
0.0
100
AcDbText
  0
LINE
  5
4C3
100
AcDbEntity
  8
LAY-3
  6
CONTINUOUS
 62
     3
100
AcDbLine
 10
97.999997
 20
373.965239
 30
0.0
 11
268.0
 21
373.965239
 31
0.0
  0
LINE
  5
4C4
100
AcDbEntity
  8
LAY-3
  6
CONTINUOUS
 62
     3
100
AcDbLine
 10
105.499997
 20
375.215239
 30
0.0
 11
97.999997
 21
373.965239
 31
0.0
  0
LINE
  5
4C5
100
AcDbEntity
  8
LAY-3
  6
CONTINUOUS
 62
     3
100
AcDbLine
 10
97.999997
 20
373.965239
 30
0.0
 11
105.499997
 21
372.715239
 31
0.0
  0
LINE
  5
4C6
100
AcDbEntity
  8
LAY-3
  6
CONTINUOUS
 62
     3
100
AcDbLine
 10
260.5
 20
372.715239
 30
0.0
 11
268.0
 21
373.965239
 31
0.0
  0
LINE
  5
4C7
100
AcDbEntity
  8
LAY-3
  6
CONTINUOUS
 62
     3
100
AcDbLine
 10
268.0
 20
373.965239
 30
0.0
 11
260.5
 21
375.215239
 31
0.0
  0
ENDBLK
  5
4C8
100
AcDbEntity
  8
0
100
AcDbBlockEnd
  0
BLOCK
  5
4CB
100
AcDbEntity
  8
0
100
AcDbBlockBegin
  2
*D20
 70
    65
 10
0.0
 20
0.0
 30
0.0
  3
*D20
  1

  0
LINE
  5
4CC
100
AcDbEntity
  8
LAY-3
  6
CONTINUOUS
 62
     3
100
AcDbLine
 10
82.999967
 20
392.21524
 30
0.0
 11
82.999967
 21
356.465239
 31
0.0
  0
LINE
  5
4CD
100
AcDbEntity
  8
LAY-3
  6
CONTINUOUS
 62
     3
100
AcDbLine
 10
283.0
 20
392.215247
 30
0.0
 11
283.0
 21
356.465239
 31
0.0
  0
TEXT
  5
4CE
100
AcDbEntity
  8
LAY-3
  6
CONTINUOUS
 62
     2
100
AcDbText
 10
172.499984
 20
359.840239
 30
0.0
 40
10.0
  1
460
 41
0.84
  7
EXCADSTD
 72
     1
 11
182.999984
 21
359.840239
 31
0.0
100
AcDbText
  0
LINE
  5
4CF
100
AcDbEntity
  8
LAY-3
  6
CONTINUOUS
 62
     3
100
AcDbLine
 10
82.999967
 20
358.965239
 30
0.0
 11
283.0
 21
358.965239
 31
0.0
  0
LINE
  5
4D0
100
AcDbEntity
  8
LAY-3
  6
CONTINUOUS
 62
     3
100
AcDbLine
 10
90.499967
 20
360.215239
 30
0.0
 11
82.999967
 21
358.965239
 31
0.0
  0
LINE
  5
4D1
100
AcDbEntity
  8
LAY-3
  6
CONTINUOUS
 62
     3
100
AcDbLine
 10
82.999967
 20
358.965239
 30
0.0
 11
90.499967
 21
357.715239
 31
0.0
  0
LINE
  5
4D2
100
AcDbEntity
  8
LAY-3
  6
CONTINUOUS
 62
     3
100
AcDbLine
 10
275.5
 20
357.715239
 30
0.0
 11
283.0
 21
358.965239
 31
0.0
  0
LINE
  5
4D3
100
AcDbEntity
  8
LAY-3
  6
CONTINUOUS
 62
     3
100
AcDbLine
 10
283.0
 20
358.965239
 30
0.0
 11
275.5
 21
360.215239
 31
0.0
  0
ENDBLK
  5
4D4
100
AcDbEntity
  8
0
100
AcDbBlockEnd
  0
BLOCK
  5
4D7
100
AcDbEntity
  8
0
100
AcDbBlockBegin
  2
*D21
 70
    65
 10
0.0
 20
0.0
 30
0.0
  3
*D21
  1

  0
LINE
  5
4D8
100
AcDbEntity
  8
LAY-3
  6
CONTINUOUS
 62
     3
100
AcDbLine
 10
253.0
 20
448.215241
 30
0.0
 11
253.0
 21
468.965241
 31
0.0
  0
LINE
  5
4D9
100
AcDbEntity
  8
LAY-3
  6
CONTINUOUS
 62
     3
100
AcDbLine
 10
283.0
 20
448.215241
 30
0.0
 11
283.0
 21
468.965241
 31
0.0
  0
TEXT
  5
4DA
100
AcDbEntity
  8
LAY-3
  6
CONTINUOUS
 62
     2
100
AcDbText
 10
260.65
 20
467.340241
 30
0.0
 40
10.0
  1
30
 41
0.84
  7
EXCADSTD
 72
     1
 11
268.0
 21
467.340241
 31
0.0
100
AcDbText
  0
LINE
  5
4DB
100
AcDbEntity
  8
LAY-3
  6
CONTINUOUS
 62
     3
100
AcDbLine
 10
253.0
 20
466.465241
 30
0.0
 11
283.0
 21
466.465241
 31
0.0
  0
LINE
  5
4DC
100
AcDbEntity
  8
LAY-3
  6
CONTINUOUS
 62
     3
100
AcDbLine
 10
260.5
 20
467.715241
 30
0.0
 11
253.0
 21
466.465241
 31
0.0
  0
LINE
  5
4DD
100
AcDbEntity
  8
LAY-3
  6
CONTINUOUS
 62
     3
100
AcDbLine
 10
253.0
 20
466.465241
 30
0.0
 11
260.5
 21
465.215241
 31
0.0
  0
LINE
  5
4DE
100
AcDbEntity
  8
LAY-3
  6
CONTINUOUS
 62
     3
100
AcDbLine
 10
275.5
 20
465.215241
 30
0.0
 11
283.0
 21
466.465241
 31
0.0
  0
LINE
  5
4DF
100
AcDbEntity
  8
LAY-3
  6
CONTINUOUS
 62
     3
100
AcDbLine
 10
283.0
 20
466.465241
 30
0.0
 11
275.5
 21
467.715241
 31
0.0
  0
ENDBLK
  5
4E0
100
AcDbEntity
  8
0
100
AcDbBlockEnd
  0
ENDSEC
  0
SECTION
  2
ENTITIES
  0
LINE
  5
84
100
AcDbEntity
  8
LAY-1
  6
CONTINUOUS
 62
     7
100
AcDbLine
 10
45.0
 20
28.75
 30
0.0
 11
500.0
 21
28.75
 31
0.0
  0
LINE
  5
85
100
AcDbEntity
  8
LAY-1
  6
CONTINUOUS
 62
     7
100
AcDbLine
 10
500.0
 20
28.75
 30
0.0
 11
500.0
 21
723.75
 31
0.0
  0
LINE
  5
86
100
AcDbEntity
  8
LAY-1
  6
CONTINUOUS
 62
     7
100
AcDbLine
 10
45.0
 20
28.75
 30
0.0
 11
45.0
 21
723.75
 31
0.0
  0
LINE
  5
87
100
AcDbEntity
  8
LAY-1
  6
CONTINUOUS
 62
     7
100
AcDbLine
 10
45.0
 20
83.75
 30
0.0
 11
500.0
 21
83.75
 31
0.0
  0
LINE
  5
88
100
AcDbEntity
  8
LAY-1
  6
CONTINUOUS
 62
     6
100
AcDbLine
 10
500.0
 20
53.75
 30
0.0
 11
187.5
 21
53.75
 31
0.0
  0
LINE
  5
89
100
AcDbEntity
  8
LAY-1
  6
CONTINUOUS
 62
     6
100
AcDbLine
 10
465.0
 20
83.75
 30
0.0
 11
465.0
 21
53.75
 31
0.0
  0
LINE
  5
8A
100
AcDbEntity
  8
LAY-1
  6
CONTINUOUS
 62
     6
100
AcDbLine
 10
452.5
 20
83.75
 30
0.0
 11
452.5
 21
53.75
 31
0.0
  0
LINE
  5
8B
100
AcDbEntity
  8
LAY-1
  6
CONTINUOUS
 62
     6
100
AcDbLine
 10
360.0
 20
83.75
 30
0.0
 11
360.0
 21
28.75
 31
0.0
  0
LINE
  5
8C
100
AcDbEntity
  8
LAY-1
  6
CONTINUOUS
 62
     6
100
AcDbLine
 10
347.5
 20
83.75
 30
0.0
 11
347.5
 21
28.75
 31
0.0
  0
LINE
  5
8D
100
AcDbEntity
  8
LAY-1
  6
CONTINUOUS
 62
     6
100
AcDbLine
 10
200.0
 20
83.75
 30
0.0
 11
200.0
 21
53.75
 31
0.0
  0
LINE
  5
8E
100
AcDbEntity
  8
LAY-1
  6
CONTINUOUS
 62
     6
100
AcDbLine
 10
187.5
 20
83.75
 30
0.0
 11
187.5
 21
28.75
 31
0.0
  0
LINE
  5
8F
100
AcDbEntity
  8
LAY-1
  6
CONTINUOUS
 62
     6
100
AcDbLine
 10
155.0
 20
83.75
 30
0.0
 11
155.0
 21
28.75
 31
0.0
  0
LINE
  5
90
100
AcDbEntity
  8
LAY-1
  6
CONTINUOUS
 62
     6
100
AcDbLine
 10
122.5
 20
83.75
 30
0.0
 11
122.5
 21
28.75
 31
0.0
  0
LINE
  5
91
100
AcDbEntity
  8
LAY-1
  6
CONTINUOUS
 62
     6
100
AcDbLine
 10
83.75
 20
83.75
 30
0.0
 11
83.75
 21
28.75
 31
0.0
  0
LINE
  5
92
100
AcDbEntity
  8
LAY-1
  6
CONTINUOUS
 62
     6
100
AcDbLine
 10
45.0
 20
71.25
 30
0.0
 11
187.5
 21
71.25
 31
0.0
  0
TEXT
  5
93
100
AcDbEntity
  8
LAY-1
  6
CONTINUOUS
 62
     2
100
AcDbText
 10
471.569824
 20
63.337212
 30
0.0
 40
10.0
  1
ＮＳ
 41
0.8925
  7
EXCADSTD
 72
     5
 11
491.047574
 21
63.337212
 31
0.0
100
AcDbText
  0
TEXT
  5
94
100
AcDbEntity
  8
LAY-1
  6
CONTINUOUS
 62
     2
100
AcDbText
 10
50.625
 20
72.1875
 30
0.0
 40
10.625
  1
製図
 41
1.087059
  7
EXCADSTD
 72
     5
 11
75.8315
 21
72.1875
 31
0.0
100
AcDbText
  0
TEXT
  5
95
100
AcDbEntity
  8
LAY-1
  6
CONTINUOUS
 62
     2
100
AcDbText
 10
89.375
 20
72.1875
 30
0.0
 40
10.625
  1
写図
 41
1.087059
  7
EXCADSTD
 72
     5
 11
114.5815
 21
72.1875
 31
0.0
100
AcDbText
  0
TEXT
  5
96
100
AcDbEntity
  8
LAY-1
  6
CONTINUOUS
 62
     2
100
AcDbText
 10
126.875
 20
72.1875
 30
0.0
 40
10.625
  1
検図
 41
0.938824
  7
EXCADSTD
 72
     5
 11
148.64425
 21
72.1875
 31
0.0
100
AcDbText
  0
TEXT
  5
97
100
AcDbEntity
  8
LAY-1
  6
CONTINUOUS
 62
     2
100
AcDbText
 10
159.375
 20
72.1875
 30
0.0
 40
10.625
  1
承認
 41
0.938824
  7
EXCADSTD
 72
     5
 11
181.14425
 21
72.1875
 31
0.0
100
AcDbText
  0
TEXT
  5
98
100
AcDbEntity
  8
LAY-1
  6
CONTINUOUS
 62
     2
100
AcDbText
 10
188.9375
 20
69.6875
 30
0.0
 40
10.625
  1
品
 41
0.84
  7
EXCADSTD
 72
     5
 11
197.4375
 21
69.6875
 31
0.0
100
AcDbText
  0
TEXT
  5
99
100
AcDbEntity
  8
LAY-1
  6
CONTINUOUS
 62
     2
100
AcDbText
 10
188.9375
 20
57.1875
 30
0.0
 40
10.625
  1
名
 41
0.84
  7
EXCADSTD
 72
     5
 11
197.4375
 21
57.1875
 31
0.0
100
AcDbText
  0
TEXT
  5
9A
100
AcDbEntity
  8
LAY-1
  6
CONTINUOUS
 62
     2
100
AcDbText
 10
348.9375
 20
69.6875
 30
0.0
 40
10.625
  1
品
 41
0.84
  7
EXCADSTD
 72
     5
 11
357.4375
 21
69.6875
 31
0.0
100
AcDbText
  0
TEXT
  5
9B
100
AcDbEntity
  8
LAY-1
  6
CONTINUOUS
 62
     2
100
AcDbText
 10
348.9375
 20
57.1875
 30
0.0
 40
10.625
  1
番
 41
0.84
  7
EXCADSTD
 72
     5
 11
357.4375
 21
57.1875
 31
0.0
100
AcDbText
  0
TEXT
  5
9C
100
AcDbEntity
  8
LAY-1
  6
CONTINUOUS
 62
     2
100
AcDbText
 10
454.1875
 20
69.6875
 30
0.0
 40
10.625
  1
尺
 41
0.84
  7
EXCADSTD
 72
     5
 11
462.6875
 21
69.6875
 31
0.0
100
AcDbText
  0
TEXT
  5
9D
100
AcDbEntity
  8
LAY-1
  6
CONTINUOUS
 62
     2
100
AcDbText
 10
454.1875
 20
57.1875
 30
0.0
 40
10.625
  1
度
 41
0.84
  7
EXCADSTD
 72
     5
 11
462.6875
 21
57.1875
 31
0.0
100
AcDbText
  0
TEXT
  5
9E
100
AcDbEntity
  8
LAY-1
  6
CONTINUOUS
 62
     2
100
AcDbText
 10
348.9375
 20
41.4375
 30
0.0
 40
10.625
  1
図
 41
0.84
  7
EXCADSTD
 72
     5
 11
357.4375
 21
41.4375
 31
0.0
100
AcDbText
  0
TEXT
  5
9F
100
AcDbEntity
  8
LAY-1
  6
CONTINUOUS
 62
     2
100
AcDbText
 10
348.9375
 20
30.6875
 30
0.0
 40
10.625
  1
番
 41
0.84
  7
EXCADSTD
 72
     5
 11
357.4375
 21
30.6875
 31
0.0
100
AcDbText
  0
LINE
  5
A0
100
AcDbEntity
  8
LAY-1
  6
CONTINUOUS
 62
     3
100
AcDbLine
 10
206.861938
 20
45.071999
 30
0.0
 11
204.846024
 21
45.071999
 31
0.0
  0
LINE
  5
A1
100
AcDbEntity
  8
LAY-1
  6
CONTINUOUS
 62
     3
100
AcDbLine
 10
206.861938
 20
47.08799
 30
0.0
 11
206.861938
 21
45.071999
 31
0.0
  0
LINE
  5
A2
100
AcDbEntity
  8
LAY-1
  6
CONTINUOUS
 62
     3
100
AcDbLine
 10
204.846024
 20
47.08799
 30
0.0
 11
206.861938
 21
47.08799
 31
0.0
  0
LINE
  5
A3
100
AcDbEntity
  8
LAY-1
  6
CONTINUOUS
 62
     3
100
AcDbLine
 10
204.846024
 20
47.08799
 30
0.0
 11
204.846024
 21
45.071999
 31
0.0
  0
LINE
  5
A4
100
AcDbEntity
  8
LAY-1
  6
CONTINUOUS
 62
     3
100
AcDbLine
 10
204.089798
 20
45.071999
 30
0.0
 11
202.073883
 21
45.071999
 31
0.0
  0
LINE
  5
A5
100
AcDbEntity
  8
LAY-1
  6
CONTINUOUS
 62
     3
100
AcDbLine
 10
204.089798
 20
47.08799
 30
0.0
 11
204.089798
 21
45.071999
 31
0.0
  0
LINE
  5
A6
100
AcDbEntity
  8
LAY-1
  6
CONTINUOUS
 62
     3
100
AcDbLine
 10
202.073883
 20
47.08799
 30
0.0
 11
204.089798
 21
47.08799
 31
0.0
  0
LINE
  5
A7
100
AcDbEntity
  8
LAY-1
  6
CONTINUOUS
 62
     3
100
AcDbLine
 10
202.073883
 20
47.08799
 30
0.0
 11
202.073883
 21
45.071999
 31
0.0
  0
LINE
  5
A8
100
AcDbEntity
  8
LAY-1
  6
CONTINUOUS
 62
     3
100
AcDbLine
 10
199.971832
 20
36.0
 30
0.0
 11
192.75
 21
36.0
 31
0.0
  0
ARC
  5
A9
100
AcDbEntity
  8
LAY-1
  6
CONTINUOUS
 62
     3
100
AcDbCircle
 10
199.971832
 20
40.536018
 30
0.0
 40
4.535999
100
AcDbArc
 50
270.000031
 51
334.000137
  0
LINE
  5
AA
100
AcDbEntity
  8
LAY-1
  6
CONTINUOUS
 62
     3
100
AcDbLine
 10
206.861938
 20
44.316002
 30
0.0
 11
204.048256
 21
38.547531
 31
0.0
  0
LINE
  5
AB
100
AcDbEntity
  8
LAY-1
  6
CONTINUOUS
 62
     3
100
AcDbLine
 10
203.778061
 20
44.316002
 30
0.0
 11
206.861938
 21
44.316002
 31
0.0
  0
LINE
  5
AC
100
AcDbEntity
  8
LAY-1
  6
CONTINUOUS
 62
     3
100
AcDbLine
 10
201.503243
 20
39.652267
 30
0.0
 11
203.778061
 21
44.316002
 31
0.0
  0
ARC
  5
AD
100
AcDbEntity
  8
LAY-1
  6
CONTINUOUS
 62
     3
100
AcDbCircle
 10
199.691376
 20
40.536018
 30
0.0
 40
2.016
100
AcDbArc
 50
270.000031
 51
333.99855
  0
LINE
  5
AE
100
AcDbEntity
  8
LAY-1
  6
CONTINUOUS
 62
     3
100
AcDbLine
 10
192.75
 20
38.519989
 30
0.0
 11
199.691376
 21
38.519989
 31
0.0
  0
LINE
  5
AF
100
AcDbEntity
  8
LAY-1
  6
CONTINUOUS
 62
     3
100
AcDbLine
 10
192.75
 20
38.519989
 30
0.0
 11
192.75
 21
36.0
 31
0.0
  0
LINE
  5
B0
100
AcDbEntity
  8
LAY-1
  6
CONTINUOUS
 62
     3
100
AcDbLine
 10
199.806236
 20
41.795975
 30
0.0
 11
192.75
 21
41.795975
 31
0.0
  0
LINE
  5
B1
100
AcDbEntity
  8
LAY-1
  6
CONTINUOUS
 62
     3
100
AcDbLine
 10
199.806236
 20
44.064003
 30
0.0
 11
199.806236
 21
41.795975
 31
0.0
  0
LINE
  5
B2
100
AcDbEntity
  8
LAY-1
  6
CONTINUOUS
 62
     3
100
AcDbLine
 10
192.75
 20
44.064003
 30
0.0
 11
199.806236
 21
44.064003
 31
0.0
  0
LINE
  5
B3
100
AcDbEntity
  8
LAY-1
  6
CONTINUOUS
 62
     3
100
AcDbLine
 10
192.75
 20
44.064003
 30
0.0
 11
192.75
 21
41.795975
 31
0.0
  0
LINE
  5
B4
100
AcDbEntity
  8
LAY-1
  6
CONTINUOUS
 62
     3
100
AcDbLine
 10
199.806236
 20
44.82
 30
0.0
 11
192.75
 21
44.82
 31
0.0
  0
LINE
  5
B5
100
AcDbEntity
  8
LAY-1
  6
CONTINUOUS
 62
     3
100
AcDbLine
 10
199.806236
 20
47.08799
 30
0.0
 11
199.806236
 21
44.82
 31
0.0
  0
LINE
  5
B6
100
AcDbEntity
  8
LAY-1
  6
CONTINUOUS
 62
     3
100
AcDbLine
 10
192.75
 20
47.08799
 30
0.0
 11
199.806236
 21
47.08799
 31
0.0
  0
LINE
  5
B7
100
AcDbEntity
  8
LAY-1
  6
CONTINUOUS
 62
     3
100
AcDbLine
 10
192.75
 20
47.08799
 30
0.0
 11
192.75
 21
44.82
 31
0.0
  0
LINE
  5
B8
100
AcDbEntity
  8
LAY-1
  6
CONTINUOUS
 62
     3
100
AcDbLine
 10
207.618164
 20
44.316002
 30
0.0
 11
207.618164
 21
42.551971
 31
0.0
  0
LINE
  5
B9
100
AcDbEntity
  8
LAY-1
  6
CONTINUOUS
 62
     3
100
AcDbLine
 10
207.618164
 20
44.316002
 30
0.0
 11
209.913506
 21
44.316002
 31
0.0
  0
LINE
  5
BA
100
AcDbEntity
  8
LAY-1
  6
CONTINUOUS
 62
     3
100
AcDbLine
 10
209.634079
 20
46.079994
 30
0.0
 11
209.913506
 21
44.316002
 31
0.0
  0
LINE
  5
BB
100
AcDbEntity
  8
LAY-1
  6
CONTINUOUS
 62
     3
100
AcDbLine
 10
209.634079
 20
46.079994
 30
0.0
 11
212.44059
 21
46.079994
 31
0.0
  0
LINE
  5
BC
100
AcDbEntity
  8
LAY-1
  6
CONTINUOUS
 62
     3
100
AcDbLine
 10
212.44059
 20
46.079994
 30
0.0
 11
212.719978
 21
44.316002
 31
0.0
  0
LINE
  5
BD
100
AcDbEntity
  8
LAY-1
  6
CONTINUOUS
 62
     3
100
AcDbLine
 10
212.719978
 20
44.316002
 30
0.0
 11
219.714188
 21
44.316002
 31
0.0
  0
LINE
  5
BE
100
AcDbEntity
  8
LAY-1
  6
CONTINUOUS
 62
     3
100
AcDbLine
 10
219.714188
 20
44.316002
 30
0.0
 11
218.243279
 21
41.012627
 31
0.0
  0
ARC
  5
BF
100
AcDbEntity
  8
LAY-1
  6
CONTINUOUS
 62
     3
100
AcDbCircle
 10
214.790253
 20
42.550102
 30
0.0
 40
3.780026
100
AcDbArc
 50
263.465775
 51
335.998779
  0
LINE
  5
C0
100
AcDbEntity
  8
LAY-1
  6
CONTINUOUS
 62
     3
100
AcDbLine
 10
214.359612
 20
38.794647
 30
0.0
 11
214.084267
 21
40.536018
 31
0.0
  0
ARC
  5
C1
100
AcDbEntity
  8
LAY-1
  6
CONTINUOUS
 62
     3
100
AcDbCircle
 10
214.014534
 20
42.048012
 30
0.0
 40
1.512001
100
AcDbArc
 50
272.623749
 51
336.006531
  0
LINE
  5
C2
100
AcDbEntity
  8
LAY-1
  6
CONTINUOUS
 62
     3
100
AcDbLine
 10
215.396256
 20
41.433006
 30
0.0
 11
215.894073
 21
42.551971
 31
0.0
  0
LINE
  5
C3
100
AcDbEntity
  8
LAY-1
  6
CONTINUOUS
 62
     3
100
AcDbLine
 10
215.894073
 20
42.551971
 30
0.0
 11
212.999405
 21
42.551971
 31
0.0
  0
LINE
  5
C4
100
AcDbEntity
  8
LAY-1
  6
CONTINUOUS
 62
     3
100
AcDbLine
 10
212.999405
 20
42.551971
 30
0.0
 11
214.037117
 21
36.0
 31
0.0
  0
LINE
  5
C5
100
AcDbEntity
  8
LAY-1
  6
CONTINUOUS
 62
     3
100
AcDbLine
 10
214.037117
 20
36.0
 30
0.0
 11
211.230606
 21
36.0
 31
0.0
  0
LINE
  5
C6
100
AcDbEntity
  8
LAY-1
  6
CONTINUOUS
 62
     3
100
AcDbLine
 10
211.230606
 20
36.0
 30
0.0
 11
210.192932
 21
42.551971
 31
0.0
  0
LINE
  5
C7
100
AcDbEntity
  8
LAY-1
  6
CONTINUOUS
 62
     3
100
AcDbLine
 10
210.192932
 20
42.551971
 30
0.0
 11
207.618164
 21
42.551971
 31
0.0
  0
LINE
  5
C8
100
AcDbEntity
  8
LAY-1
  6
CONTINUOUS
 62
     3
100
AcDbLine
 10
219.461922
 20
36.0
 30
0.0
 11
219.461922
 21
38.519989
 31
0.0
  0
LINE
  5
C9
100
AcDbEntity
  8
LAY-1
  6
CONTINUOUS
 62
     3
100
AcDbLine
 10
219.461922
 20
38.519989
 30
0.0
 11
233.57386
 21
38.519989
 31
0.0
  0
LINE
  5
CA
100
AcDbEntity
  8
LAY-1
  6
CONTINUOUS
 62
     3
100
AcDbLine
 10
233.57386
 20
38.519989
 30
0.0
 11
233.57386
 21
36.0
 31
0.0
  0
LINE
  5
CB
100
AcDbEntity
  8
LAY-1
  6
CONTINUOUS
 62
     3
100
AcDbLine
 10
233.57386
 20
36.0
 30
0.0
 11
219.461922
 21
36.0
 31
0.0
  0
LINE
  5
CC
100
AcDbEntity
  8
LAY-1
  6
CONTINUOUS
 62
     3
100
AcDbLine
 10
220.469879
 20
47.08799
 30
0.0
 11
220.469879
 21
44.568001
 31
0.0
  0
LINE
  5
CD
100
AcDbEntity
  8
LAY-1
  6
CONTINUOUS
 62
     3
100
AcDbLine
 10
220.469879
 20
47.08799
 30
0.0
 11
232.565903
 21
47.08799
 31
0.0
  0
LINE
  5
CE
100
AcDbEntity
  8
LAY-1
  6
CONTINUOUS
 62
     3
100
AcDbLine
 10
232.565903
 20
47.08799
 30
0.0
 11
232.565903
 21
44.568001
 31
0.0
  0
LINE
  5
CF
100
AcDbEntity
  8
LAY-1
  6
CONTINUOUS
 62
     3
100
AcDbLine
 10
232.565903
 20
44.568001
 30
0.0
 11
220.469879
 21
44.568001
 31
0.0
  0
LINE
  5
D0
100
AcDbEntity
  8
LAY-1
  6
CONTINUOUS
 62
     3
100
AcDbLine
 10
235.338043
 20
47.08799
 30
0.0
 11
235.338043
 21
44.568001
 31
0.0
  0
LINE
  5
D1
100
AcDbEntity
  8
LAY-1
  6
CONTINUOUS
 62
     3
100
AcDbLine
 10
235.338043
 20
47.08799
 30
0.0
 11
248.442024
 21
47.08799
 31
0.0
  0
LINE
  5
D2
100
AcDbEntity
  8
LAY-1
  6
CONTINUOUS
 62
     3
100
AcDbLine
 10
248.442024
 20
47.08799
 30
0.0
 11
244.512733
 21
41.679741
 31
0.0
  0
LINE
  5
D3
100
AcDbEntity
  8
LAY-1
  6
CONTINUOUS
 62
     3
100
AcDbLine
 10
244.512733
 20
41.679741
 30
0.0
 11
249.449982
 21
36.0
 31
0.0
  0
LINE
  5
D4
100
AcDbEntity
  8
LAY-1
  6
CONTINUOUS
 62
     3
100
AcDbLine
 10
249.449982
 20
36.0
 30
0.0
 11
245.777039
 21
36.0
 31
0.0
  0
LINE
  5
D5
100
AcDbEntity
  8
LAY-1
  6
CONTINUOUS
 62
     3
100
AcDbLine
 10
245.777039
 20
36.0
 30
0.0
 11
242.840332
 21
39.378181
 31
0.0
  0
LINE
  5
D6
100
AcDbEntity
  8
LAY-1
  6
CONTINUOUS
 62
     3
100
AcDbLine
 10
242.840332
 20
39.378181
 30
0.0
 11
241.744713
 21
37.869812
 31
0.0
  0
ARC
  5
D7
100
AcDbEntity
  8
LAY-1
  6
CONTINUOUS
 62
     3
100
AcDbCircle
 10
238.074821
 20
40.536018
 30
0.0
 40
4.535999
100
AcDbArc
 50
270.000031
 51
324.00116
  0
LINE
  5
D8
100
AcDbEntity
  8
LAY-1
  6
CONTINUOUS
 62
     3
100
AcDbLine
 10
238.074821
 20
36.0
 30
0.0
 11
234.330086
 21
36.0
 31
0.0
  0
LINE
  5
D9
100
AcDbEntity
  8
LAY-1
  6
CONTINUOUS
 62
     3
100
AcDbLine
 10
234.330086
 20
36.0
 30
0.0
 11
234.330086
 21
38.519989
 31
0.0
  0
LINE
  5
DA
100
AcDbEntity
  8
LAY-1
  6
CONTINUOUS
 62
     3
100
AcDbLine
 10
234.330086
 20
38.519989
 30
0.0
 11
237.506775
 21
38.519989
 31
0.0
  0
ARC
  5
DB
100
AcDbEntity
  8
LAY-1
  6
CONTINUOUS
 62
     3
100
AcDbCircle
 10
237.506775
 20
41.039978
 30
0.0
 40
2.519999
100
AcDbArc
 50
270.000031
 51
323.996597
  0
LINE
  5
DC
100
AcDbEntity
  8
LAY-1
  6
CONTINUOUS
 62
     3
100
AcDbLine
 10
239.545235
 20
39.558769
 30
0.0
 11
243.184876
 21
44.568001
 31
0.0
  0
LINE
  5
DD
100
AcDbEntity
  8
LAY-1
  6
CONTINUOUS
 62
     3
100
AcDbLine
 10
243.184876
 20
44.568001
 30
0.0
 11
235.338043
 21
44.568001
 31
0.0
  0
LINE
  5
DE
100
AcDbEntity
  8
LAY-1
  6
CONTINUOUS
 62
     3
100
AcDbLine
 10
252.473892
 20
47.08799
 30
0.0
 11
252.473892
 21
45.323997
 31
0.0
  0
LINE
  5
DF
100
AcDbEntity
  8
LAY-1
  6
CONTINUOUS
 62
     3
100
AcDbLine
 10
252.473892
 20
47.08799
 30
0.0
 11
265.577835
 21
47.08799
 31
0.0
  0
LINE
  5
E0
100
AcDbEntity
  8
LAY-1
  6
CONTINUOUS
 62
     3
100
AcDbLine
 10
265.577835
 20
47.08799
 30
0.0
 11
265.577835
 21
45.323997
 31
0.0
  0
LINE
  5
E1
100
AcDbEntity
  8
LAY-1
  6
CONTINUOUS
 62
     3
100
AcDbLine
 10
265.577835
 20
45.323997
 30
0.0
 11
260.411934
 21
45.323997
 31
0.0
  0
LINE
  5
E2
100
AcDbEntity
  8
LAY-1
  6
CONTINUOUS
 62
     3
100
AcDbLine
 10
260.411934
 20
45.323997
 30
0.0
 11
260.411934
 21
38.016029
 31
0.0
  0
LINE
  5
E3
100
AcDbEntity
  8
LAY-1
  6
CONTINUOUS
 62
     3
100
AcDbLine
 10
260.411934
 20
38.016029
 30
0.0
 11
266.081833
 21
38.016029
 31
0.0
  0
LINE
  5
E4
100
AcDbEntity
  8
LAY-1
  6
CONTINUOUS
 62
     3
100
AcDbLine
 10
266.081833
 20
38.016029
 30
0.0
 11
266.081833
 21
36.0
 31
0.0
  0
LINE
  5
E5
100
AcDbEntity
  8
LAY-1
  6
CONTINUOUS
 62
     3
100
AcDbLine
 10
266.081833
 20
36.0
 30
0.0
 11
251.969894
 21
36.0
 31
0.0
  0
LINE
  5
E6
100
AcDbEntity
  8
LAY-1
  6
CONTINUOUS
 62
     3
100
AcDbLine
 10
251.969894
 20
36.0
 30
0.0
 11
251.969894
 21
38.016029
 31
0.0
  0
LINE
  5
E7
100
AcDbEntity
  8
LAY-1
  6
CONTINUOUS
 62
     3
100
AcDbLine
 10
251.969894
 20
38.016029
 30
0.0
 11
257.639793
 21
38.016029
 31
0.0
  0
LINE
  5
E8
100
AcDbEntity
  8
LAY-1
  6
CONTINUOUS
 62
     3
100
AcDbLine
 10
257.639793
 20
38.016029
 30
0.0
 11
257.639793
 21
45.323997
 31
0.0
  0
LINE
  5
E9
100
AcDbEntity
  8
LAY-1
  6
CONTINUOUS
 62
     3
100
AcDbLine
 10
257.639793
 20
45.323997
 30
0.0
 11
252.473892
 21
45.323997
 31
0.0
  0
LINE
  5
EA
100
AcDbEntity
  8
LAY-1
  6
CONTINUOUS
 62
     3
100
AcDbLine
 10
266.334061
 20
45.575996
 30
0.0
 11
266.334061
 21
44.416786
 31
0.0
  0
LINE
  5
EB
100
AcDbEntity
  8
LAY-1
  6
CONTINUOUS
 62
     3
100
AcDbLine
 10
266.334061
 20
45.575996
 30
0.0
 11
268.523277
 21
45.575996
 31
0.0
  0
LINE
  5
EC
100
AcDbEntity
  8
LAY-1
  6
CONTINUOUS
 62
     3
100
AcDbLine
 10
268.523277
 20
45.575996
 30
0.0
 11
267.342056
 21
47.08799
 31
0.0
  0
LINE
  5
ED
100
AcDbEntity
  8
LAY-1
  6
CONTINUOUS
 62
     3
100
AcDbLine
 10
267.342056
 20
47.08799
 30
0.0
 11
269.580483
 21
47.08799
 31
0.0
  0
LINE
  5
EE
100
AcDbEntity
  8
LAY-1
  6
CONTINUOUS
 62
     3
100
AcDbLine
 10
269.580483
 20
47.08799
 30
0.0
 11
270.761704
 21
45.575996
 31
0.0
  0
LINE
  5
EF
100
AcDbEntity
  8
LAY-1
  6
CONTINUOUS
 62
     3
100
AcDbLine
 10
270.761704
 20
45.575996
 30
0.0
 11
271.248268
 21
45.575996
 31
0.0
  0
LINE
  5
F0
100
AcDbEntity
  8
LAY-1
  6
CONTINUOUS
 62
     3
100
AcDbLine
 10
271.248268
 20
45.575996
 30
0.0
 11
271.248268
 21
47.08799
 31
0.0
  0
LINE
  5
F1
100
AcDbEntity
  8
LAY-1
  6
CONTINUOUS
 62
     3
100
AcDbLine
 10
271.248268
 20
47.08799
 30
0.0
 11
273.011917
 21
47.08799
 31
0.0
  0
LINE
  5
F2
100
AcDbEntity
  8
LAY-1
  6
CONTINUOUS
 62
     3
100
AcDbLine
 10
273.011917
 20
47.08799
 30
0.0
 11
273.011917
 21
45.575996
 31
0.0
  0
LINE
  5
F3
100
AcDbEntity
  8
LAY-1
  6
CONTINUOUS
 62
     3
100
AcDbLine
 10
273.011917
 20
45.575996
 30
0.0
 11
273.768143
 21
45.575996
 31
0.0
  0
LINE
  5
F4
100
AcDbEntity
  8
LAY-1
  6
CONTINUOUS
 62
     3
100
AcDbLine
 10
273.768143
 20
45.575996
 30
0.0
 11
273.768143
 21
47.08799
 31
0.0
  0
LINE
  5
F5
100
AcDbEntity
  8
LAY-1
  6
CONTINUOUS
 62
     3
100
AcDbLine
 10
273.768143
 20
47.08799
 30
0.0
 11
275.53183
 21
47.08799
 31
0.0
  0
LINE
  5
F6
100
AcDbEntity
  8
LAY-1
  6
CONTINUOUS
 62
     3
100
AcDbLine
 10
275.53183
 20
47.08799
 30
0.0
 11
275.53183
 21
45.575996
 31
0.0
  0
LINE
  5
F7
100
AcDbEntity
  8
LAY-1
  6
CONTINUOUS
 62
     3
100
AcDbLine
 10
275.53183
 20
45.575996
 30
0.0
 11
276.018394
 21
45.575996
 31
0.0
  0
LINE
  5
F8
100
AcDbEntity
  8
LAY-1
  6
CONTINUOUS
 62
     3
100
AcDbLine
 10
276.018394
 20
45.575996
 30
0.0
 11
277.199615
 21
47.08799
 31
0.0
  0
LINE
  5
F9
100
AcDbEntity
  8
LAY-1
  6
CONTINUOUS
 62
     3
100
AcDbLine
 10
277.199615
 20
47.08799
 30
0.0
 11
279.438042
 21
47.08799
 31
0.0
  0
LINE
  5
FA
100
AcDbEntity
  8
LAY-1
  6
CONTINUOUS
 62
     3
100
AcDbLine
 10
279.438042
 20
47.08799
 30
0.0
 11
278.256821
 21
45.575996
 31
0.0
  0
LINE
  5
FB
100
AcDbEntity
  8
LAY-1
  6
CONTINUOUS
 62
     3
100
AcDbLine
 10
278.256821
 20
45.575996
 30
0.0
 11
280.445999
 21
45.575996
 31
0.0
  0
LINE
  5
FC
100
AcDbEntity
  8
LAY-1
  6
CONTINUOUS
 62
     3
100
AcDbLine
 10
280.445999
 20
45.575996
 30
0.0
 11
280.445999
 21
44.416786
 31
0.0
  0
LINE
  5
FD
100
AcDbEntity
  8
LAY-1
  6
CONTINUOUS
 62
     3
100
AcDbLine
 10
280.445999
 20
44.416786
 30
0.0
 11
277.790245
 21
44.416786
 31
0.0
  0
LINE
  5
FE
100
AcDbEntity
  8
LAY-1
  6
CONTINUOUS
 62
     3
100
AcDbLine
 10
277.790245
 20
44.416786
 30
0.0
 11
277.331909
 21
43.15683
 31
0.0
  0
LINE
  5
FF
100
AcDbEntity
  8
LAY-1
  6
CONTINUOUS
 62
     3
100
AcDbLine
 10
277.331909
 20
43.15683
 30
0.0
 11
280.445999
 21
43.15683
 31
0.0
  0
LINE
  5
100
100
AcDbEntity
  8
LAY-1
  6
CONTINUOUS
 62
     3
100
AcDbLine
 10
280.445999
 20
43.15683
 30
0.0
 11
280.445999
 21
41.99762
 31
0.0
  0
LINE
  5
101
100
AcDbEntity
  8
LAY-1
  6
CONTINUOUS
 62
     3
100
AcDbLine
 10
280.445999
 20
41.99762
 30
0.0
 11
274.649986
 21
41.99762
 31
0.0
  0
LINE
  5
102
100
AcDbEntity
  8
LAY-1
  6
CONTINUOUS
 62
     3
100
AcDbLine
 10
274.649986
 20
41.99762
 30
0.0
 11
274.649986
 21
41.418015
 31
0.0
  0
LINE
  5
103
100
AcDbEntity
  8
LAY-1
  6
CONTINUOUS
 62
     3
100
AcDbLine
 10
274.649986
 20
41.418015
 30
0.0
 11
280.445999
 21
41.418015
 31
0.0
  0
LINE
  5
104
100
AcDbEntity
  8
LAY-1
  6
CONTINUOUS
 62
     3
100
AcDbLine
 10
280.445999
 20
41.418015
 30
0.0
 11
280.445999
 21
40.258804
 31
0.0
  0
LINE
  5
105
100
AcDbEntity
  8
LAY-1
  6
CONTINUOUS
 62
     3
100
AcDbLine
 10
280.445999
 20
40.258804
 30
0.0
 11
274.649986
 21
40.258804
 31
0.0
  0
LINE
  5
106
100
AcDbEntity
  8
LAY-1
  6
CONTINUOUS
 62
     3
100
AcDbLine
 10
274.649986
 20
40.258804
 30
0.0
 11
274.649986
 21
39.679199
 31
0.0
  0
LINE
  5
107
100
AcDbEntity
  8
LAY-1
  6
CONTINUOUS
 62
     3
100
AcDbLine
 10
274.649986
 20
39.679199
 30
0.0
 11
280.445999
 21
39.679199
 31
0.0
  0
LINE
  5
108
100
AcDbEntity
  8
LAY-1
  6
CONTINUOUS
 62
     3
100
AcDbLine
 10
280.445999
 20
39.679199
 30
0.0
 11
280.445999
 21
38.519989
 31
0.0
  0
LINE
  5
109
100
AcDbEntity
  8
LAY-1
  6
CONTINUOUS
 62
     3
100
AcDbLine
 10
280.445999
 20
38.519989
 30
0.0
 11
277.65696
 21
38.519989
 31
0.0
  0
LINE
  5
10A
100
AcDbEntity
  8
LAY-1
  6
CONTINUOUS
 62
     3
100
AcDbLine
 10
277.65696
 20
38.519989
 30
0.0
 11
280.445999
 21
36.0
 31
0.0
  0
LINE
  5
10B
100
AcDbEntity
  8
LAY-1
  6
CONTINUOUS
 62
     3
100
AcDbLine
 10
280.445999
 20
36.0
 30
0.0
 11
277.439064
 21
36.0
 31
0.0
  0
LINE
  5
10C
100
AcDbEntity
  8
LAY-1
  6
CONTINUOUS
 62
     3
100
AcDbLine
 10
277.439064
 20
36.0
 30
0.0
 11
274.649986
 21
38.519989
 31
0.0
  0
LINE
  5
10D
100
AcDbEntity
  8
LAY-1
  6
CONTINUOUS
 62
     3
100
AcDbLine
 10
274.649986
 20
38.519989
 30
0.0
 11
274.649986
 21
36.0
 31
0.0
  0
LINE
  5
10E
100
AcDbEntity
  8
LAY-1
  6
CONTINUOUS
 62
     3
100
AcDbLine
 10
274.649986
 20
36.0
 30
0.0
 11
272.130112
 21
36.0
 31
0.0
  0
LINE
  5
10F
100
AcDbEntity
  8
LAY-1
  6
CONTINUOUS
 62
     3
100
AcDbLine
 10
272.130112
 20
36.0
 30
0.0
 11
272.130112
 21
38.519989
 31
0.0
  0
LINE
  5
110
100
AcDbEntity
  8
LAY-1
  6
CONTINUOUS
 62
     3
100
AcDbLine
 10
272.130112
 20
38.519989
 30
0.0
 11
269.341034
 21
36.0
 31
0.0
  0
LINE
  5
111
100
AcDbEntity
  8
LAY-1
  6
CONTINUOUS
 62
     3
100
AcDbLine
 10
269.341034
 20
36.0
 30
0.0
 11
266.334061
 21
36.0
 31
0.0
  0
LINE
  5
112
100
AcDbEntity
  8
LAY-1
  6
CONTINUOUS
 62
     3
100
AcDbLine
 10
266.334061
 20
36.0
 30
0.0
 11
269.123138
 21
38.519989
 31
0.0
  0
LINE
  5
113
100
AcDbEntity
  8
LAY-1
  6
CONTINUOUS
 62
     3
100
AcDbLine
 10
269.123138
 20
38.519989
 30
0.0
 11
266.334061
 21
38.519989
 31
0.0
  0
LINE
  5
114
100
AcDbEntity
  8
LAY-1
  6
CONTINUOUS
 62
     3
100
AcDbLine
 10
266.334061
 20
38.519989
 30
0.0
 11
266.334061
 21
39.679199
 31
0.0
  0
LINE
  5
115
100
AcDbEntity
  8
LAY-1
  6
CONTINUOUS
 62
     3
100
AcDbLine
 10
266.334061
 20
39.679199
 30
0.0
 11
272.130112
 21
39.679199
 31
0.0
  0
LINE
  5
116
100
AcDbEntity
  8
LAY-1
  6
CONTINUOUS
 62
     3
100
AcDbLine
 10
272.130112
 20
39.679199
 30
0.0
 11
272.130112
 21
40.258804
 31
0.0
  0
LINE
  5
117
100
AcDbEntity
  8
LAY-1
  6
CONTINUOUS
 62
     3
100
AcDbLine
 10
272.130112
 20
40.258804
 30
0.0
 11
266.334061
 21
40.258804
 31
0.0
  0
LINE
  5
118
100
AcDbEntity
  8
LAY-1
  6
CONTINUOUS
 62
     3
100
AcDbLine
 10
266.334061
 20
40.258804
 30
0.0
 11
266.334061
 21
41.418015
 31
0.0
  0
LINE
  5
119
100
AcDbEntity
  8
LAY-1
  6
CONTINUOUS
 62
     3
100
AcDbLine
 10
266.334061
 20
41.418015
 30
0.0
 11
272.130112
 21
41.418015
 31
0.0
  0
LINE
  5
11A
100
AcDbEntity
  8
LAY-1
  6
CONTINUOUS
 62
     3
100
AcDbLine
 10
272.130112
 20
41.418015
 30
0.0
 11
272.130112
 21
41.99762
 31
0.0
  0
LINE
  5
11B
100
AcDbEntity
  8
LAY-1
  6
CONTINUOUS
 62
     3
100
AcDbLine
 10
272.130112
 20
41.99762
 30
0.0
 11
266.334061
 21
41.99762
 31
0.0
  0
LINE
  5
11C
100
AcDbEntity
  8
LAY-1
  6
CONTINUOUS
 62
     3
100
AcDbLine
 10
266.334061
 20
41.99762
 30
0.0
 11
266.334061
 21
43.15683
 31
0.0
  0
LINE
  5
11D
100
AcDbEntity
  8
LAY-1
  6
CONTINUOUS
 62
     3
100
AcDbLine
 10
266.334061
 20
43.15683
 30
0.0
 11
269.448189
 21
43.15683
 31
0.0
  0
LINE
  5
11E
100
AcDbEntity
  8
LAY-1
  6
CONTINUOUS
 62
     3
100
AcDbLine
 10
269.448189
 20
43.15683
 30
0.0
 11
268.989853
 21
44.416786
 31
0.0
  0
LINE
  5
11F
100
AcDbEntity
  8
LAY-1
  6
CONTINUOUS
 62
     3
100
AcDbLine
 10
268.989853
 20
44.416786
 30
0.0
 11
266.334061
 21
44.416786
 31
0.0
  0
LINE
  5
120
100
AcDbEntity
  8
LAY-1
  6
CONTINUOUS
 62
     3
100
AcDbLine
 10
271.671242
 20
44.416786
 30
0.0
 11
275.108856
 21
44.416786
 31
0.0
  0
LINE
  5
121
100
AcDbEntity
  8
LAY-1
  6
CONTINUOUS
 62
     3
100
AcDbLine
 10
275.108856
 20
44.416786
 30
0.0
 11
274.649986
 21
43.15683
 31
0.0
  0
LINE
  5
122
100
AcDbEntity
  8
LAY-1
  6
CONTINUOUS
 62
     3
100
AcDbLine
 10
274.649986
 20
43.15683
 30
0.0
 11
272.130112
 21
43.15683
 31
0.0
  0
LINE
  5
123
100
AcDbEntity
  8
LAY-1
  6
CONTINUOUS
 62
     3
100
AcDbLine
 10
272.130112
 20
43.15683
 30
0.0
 11
271.671242
 21
44.416786
 31
0.0
  0
LINE
  5
124
100
AcDbEntity
  8
LAY-1
  6
CONTINUOUS
 62
     3
100
AcDbLine
 10
287.314095
 20
47.08799
 30
0.0
 11
286.497368
 21
43.812004
 31
0.0
  0
LINE
  5
125
100
AcDbEntity
  8
LAY-1
  6
CONTINUOUS
 62
     3
100
AcDbLine
 10
287.314095
 20
47.08799
 30
0.0
 11
289.392036
 21
47.08799
 31
0.0
  0
LINE
  5
126
100
AcDbEntity
  8
LAY-1
  6
CONTINUOUS
 62
     3
100
AcDbLine
 10
289.392036
 20
47.08799
 30
0.0
 11
289.077744
 21
45.827995
 31
0.0
  0
LINE
  5
127
100
AcDbEntity
  8
LAY-1
  6
CONTINUOUS
 62
     3
100
AcDbLine
 10
289.077744
 20
45.827995
 30
0.0
 11
289.896034
 21
45.827995
 31
0.0
  0
LINE
  5
128
100
AcDbEntity
  8
LAY-1
  6
CONTINUOUS
 62
     3
100
AcDbLine
 10
289.896034
 20
45.827995
 30
0.0
 11
289.896034
 21
47.08799
 31
0.0
  0
LINE
  5
129
100
AcDbEntity
  8
LAY-1
  6
CONTINUOUS
 62
     3
100
AcDbLine
 10
289.896034
 20
47.08799
 30
0.0
 11
292.164177
 21
47.08799
 31
0.0
  0
LINE
  5
12A
100
AcDbEntity
  8
LAY-1
  6
CONTINUOUS
 62
     3
100
AcDbLine
 10
292.164177
 20
47.08799
 30
0.0
 11
292.164177
 21
45.827995
 31
0.0
  0
LINE
  5
12B
100
AcDbEntity
  8
LAY-1
  6
CONTINUOUS
 62
     3
100
AcDbLine
 10
292.164177
 20
45.827995
 30
0.0
 11
295.061935
 21
45.827995
 31
0.0
  0
LINE
  5
12C
100
AcDbEntity
  8
LAY-1
  6
CONTINUOUS
 62
     3
100
AcDbLine
 10
295.061935
 20
45.827995
 30
0.0
 11
295.061935
 21
44.568001
 31
0.0
  0
LINE
  5
12D
100
AcDbEntity
  8
LAY-1
  6
CONTINUOUS
 62
     3
100
AcDbLine
 10
292.164177
 20
44.568001
 30
0.0
 11
295.061935
 21
44.568001
 31
0.0
  0
LINE
  5
12E
100
AcDbEntity
  8
LAY-1
  6
CONTINUOUS
 62
     3
100
AcDbLine
 10
292.164177
 20
44.568001
 30
0.0
 11
292.164177
 21
43.308006
 31
0.0
  0
LINE
  5
12F
100
AcDbEntity
  8
LAY-1
  6
CONTINUOUS
 62
     3
100
AcDbLine
 10
292.164177
 20
43.308006
 30
0.0
 11
295.314163
 21
43.308006
 31
0.0
  0
LINE
  5
130
100
AcDbEntity
  8
LAY-1
  6
CONTINUOUS
 62
     3
100
AcDbLine
 10
295.314163
 20
43.308006
 30
0.0
 11
295.314163
 21
42.048012
 31
0.0
  0
LINE
  5
131
100
AcDbEntity
  8
LAY-1
  6
CONTINUOUS
 62
     3
100
AcDbLine
 10
295.314163
 20
42.048012
 30
0.0
 11
294.212898
 21
42.048012
 31
0.0
  0
LINE
  5
132
100
AcDbEntity
  8
LAY-1
  6
CONTINUOUS
 62
     3
100
AcDbLine
 10
294.212898
 20
42.048012
 30
0.0
 11
295.314163
 21
36.0
 31
0.0
  0
LINE
  5
133
100
AcDbEntity
  8
LAY-1
  6
CONTINUOUS
 62
     3
100
AcDbLine
 10
295.314163
 20
36.0
 30
0.0
 11
293.264946
 21
36.0
 31
0.0
  0
LINE
  5
134
100
AcDbEntity
  8
LAY-1
  6
CONTINUOUS
 62
     3
100
AcDbLine
 10
293.264946
 20
36.0
 30
0.0
 11
292.164177
 21
42.047935
 31
0.0
  0
LINE
  5
135
100
AcDbEntity
  8
LAY-1
  6
CONTINUOUS
 62
     3
100
AcDbLine
 10
292.164177
 20
42.047935
 30
0.0
 11
292.164177
 21
36.0
 31
0.0
  0
LINE
  5
136
100
AcDbEntity
  8
LAY-1
  6
CONTINUOUS
 62
     3
100
AcDbLine
 10
292.164177
 20
36.0
 30
0.0
 11
289.896034
 21
36.0
 31
0.0
  0
LINE
  5
137
100
AcDbEntity
  8
LAY-1
  6
CONTINUOUS
 62
     3
100
AcDbLine
 10
289.896034
 20
36.0
 30
0.0
 11
289.896034
 21
42.048012
 31
0.0
  0
LINE
  5
138
100
AcDbEntity
  8
LAY-1
  6
CONTINUOUS
 62
     3
100
AcDbLine
 10
289.896034
 20
42.048012
 30
0.0
 11
288.795265
 21
36.0
 31
0.0
  0
LINE
  5
139
100
AcDbEntity
  8
LAY-1
  6
CONTINUOUS
 62
     3
100
AcDbLine
 10
288.795265
 20
36.0
 30
0.0
 11
286.74601
 21
36.0
 31
0.0
  0
LINE
  5
13A
100
AcDbEntity
  8
LAY-1
  6
CONTINUOUS
 62
     3
100
AcDbLine
 10
286.74601
 20
36.0
 30
0.0
 11
287.846779
 21
42.048012
 31
0.0
  0
LINE
  5
13B
100
AcDbEntity
  8
LAY-1
  6
CONTINUOUS
 62
     3
100
AcDbLine
 10
287.846779
 20
42.048012
 30
0.0
 11
286.74601
 21
42.048012
 31
0.0
  0
LINE
  5
13C
100
AcDbEntity
  8
LAY-1
  6
CONTINUOUS
 62
     3
100
AcDbLine
 10
286.74601
 20
42.048012
 30
0.0
 11
286.74601
 21
43.308006
 31
0.0
  0
LINE
  5
13D
100
AcDbEntity
  8
LAY-1
  6
CONTINUOUS
 62
     3
100
AcDbLine
 10
286.74601
 20
43.308006
 30
0.0
 11
289.896034
 21
43.308006
 31
0.0
  0
LINE
  5
13E
100
AcDbEntity
  8
LAY-1
  6
CONTINUOUS
 62
     3
100
AcDbLine
 10
289.896034
 20
43.308006
 30
0.0
 11
289.896034
 21
44.568001
 31
0.0
  0
LINE
  5
13F
100
AcDbEntity
  8
LAY-1
  6
CONTINUOUS
 62
     3
100
AcDbLine
 10
289.896034
 20
44.568001
 30
0.0
 11
288.763489
 21
44.568001
 31
0.0
  0
LINE
  5
140
100
AcDbEntity
  8
LAY-1
  6
CONTINUOUS
 62
     3
100
AcDbLine
 10
288.763489
 20
44.568001
 30
0.0
 11
288.57531
 21
43.812004
 31
0.0
  0
LINE
  5
141
100
AcDbEntity
  8
LAY-1
  6
CONTINUOUS
 62
     3
100
AcDbLine
 10
288.57531
 20
43.812004
 30
0.0
 11
286.497368
 21
43.812004
 31
0.0
  0
LINE
  5
142
100
AcDbEntity
  8
LAY-1
  6
CONTINUOUS
 62
     3
100
AcDbLine
 10
280.949997
 20
45.827995
 30
0.0
 11
280.949997
 21
44.568001
 31
0.0
  0
LINE
  5
143
100
AcDbEntity
  8
LAY-1
  6
CONTINUOUS
 62
     3
100
AcDbLine
 10
280.949997
 20
45.827995
 30
0.0
 11
283.46991
 21
45.827995
 31
0.0
  0
LINE
  5
144
100
AcDbEntity
  8
LAY-1
  6
CONTINUOUS
 62
     3
100
AcDbLine
 10
283.46991
 20
45.827995
 30
0.0
 11
283.46991
 21
47.08799
 31
0.0
  0
LINE
  5
145
100
AcDbEntity
  8
LAY-1
  6
CONTINUOUS
 62
     3
100
AcDbLine
 10
283.46991
 20
47.08799
 30
0.0
 11
285.738052
 21
47.08799
 31
0.0
  0
LINE
  5
146
100
AcDbEntity
  8
LAY-1
  6
CONTINUOUS
 62
     3
100
AcDbLine
 10
285.738052
 20
47.08799
 30
0.0
 11
285.738052
 21
45.827995
 31
0.0
  0
LINE
  5
147
100
AcDbEntity
  8
LAY-1
  6
CONTINUOUS
 62
     3
100
AcDbLine
 10
285.738052
 20
45.827995
 30
0.0
 11
286.493782
 21
45.827995
 31
0.0
  0
LINE
  5
148
100
AcDbEntity
  8
LAY-1
  6
CONTINUOUS
 62
     3
100
AcDbLine
 10
286.493782
 20
45.827995
 30
0.0
 11
286.493782
 21
44.568001
 31
0.0
  0
LINE
  5
149
100
AcDbEntity
  8
LAY-1
  6
CONTINUOUS
 62
     3
100
AcDbLine
 10
286.493782
 20
44.568001
 30
0.0
 11
285.738052
 21
44.568001
 31
0.0
  0
LINE
  5
14A
100
AcDbEntity
  8
LAY-1
  6
CONTINUOUS
 62
     3
100
AcDbLine
 10
285.738052
 20
44.568001
 30
0.0
 11
286.493782
 21
43.527504
 31
0.0
  0
LINE
  5
14B
100
AcDbEntity
  8
LAY-1
  6
CONTINUOUS
 62
     3
100
AcDbLine
 10
286.493782
 20
43.527504
 30
0.0
 11
286.493782
 21
40.955177
 31
0.0
  0
LINE
  5
14C
100
AcDbEntity
  8
LAY-1
  6
CONTINUOUS
 62
     3
100
AcDbLine
 10
286.493782
 20
40.955177
 30
0.0
 11
285.738052
 21
41.995712
 31
0.0
  0
LINE
  5
14D
100
AcDbEntity
  8
LAY-1
  6
CONTINUOUS
 62
     3
100
AcDbLine
 10
285.738052
 20
41.995712
 30
0.0
 11
285.738052
 21
36.0
 31
0.0
  0
LINE
  5
14E
100
AcDbEntity
  8
LAY-1
  6
CONTINUOUS
 62
     3
100
AcDbLine
 10
285.738052
 20
36.0
 30
0.0
 11
283.46991
 21
36.0
 31
0.0
  0
LINE
  5
14F
100
AcDbEntity
  8
LAY-1
  6
CONTINUOUS
 62
     3
100
AcDbLine
 10
283.46991
 20
36.0
 30
0.0
 11
283.46991
 21
44.568001
 31
0.0
  0
LINE
  5
150
100
AcDbEntity
  8
LAY-1
  6
CONTINUOUS
 62
     3
100
AcDbLine
 10
283.370956
 20
44.568001
 30
0.0
 11
282.470154
 21
36.0
 31
0.0
  0
LINE
  5
151
100
AcDbEntity
  8
LAY-1
  6
CONTINUOUS
 62
     3
100
AcDbLine
 10
282.470154
 20
36.0
 30
0.0
 11
280.949997
 21
36.0
 31
0.0
  0
LINE
  5
152
100
AcDbEntity
  8
LAY-1
  6
CONTINUOUS
 62
     3
100
AcDbLine
 10
280.949997
 20
36.0
 30
0.0
 11
281.8508
 21
44.568001
 31
0.0
  0
LINE
  5
153
100
AcDbEntity
  8
LAY-1
  6
CONTINUOUS
 62
     3
100
AcDbLine
 10
281.8508
 20
44.568001
 30
0.0
 11
280.949997
 21
44.568001
 31
0.0
  0
LINE
  5
154
100
AcDbEntity
  8
LAY-1
  6
CONTINUOUS
 62
     3
100
AcDbLine
 10
296.573891
 20
43.056007
 30
0.0
 11
296.573891
 21
41.544014
 31
0.0
  0
LINE
  5
155
100
AcDbEntity
  8
LAY-1
  6
CONTINUOUS
 62
     3
100
AcDbLine
 10
296.573891
 20
43.056007
 30
0.0
 11
304.134087
 21
43.056007
 31
0.0
  0
LINE
  5
156
100
AcDbEntity
  8
LAY-1
  6
CONTINUOUS
 62
     3
100
AcDbLine
 10
304.134087
 20
43.056007
 30
0.0
 11
304.134087
 21
41.544014
 31
0.0
  0
LINE
  5
157
100
AcDbEntity
  8
LAY-1
  6
CONTINUOUS
 62
     3
100
AcDbLine
 10
304.134087
 20
41.544014
 30
0.0
 11
301.739792
 21
41.544014
 31
0.0
  0
LINE
  5
158
100
AcDbEntity
  8
LAY-1
  6
CONTINUOUS
 62
     3
100
AcDbLine
 10
301.739792
 20
41.544014
 30
0.0
 11
301.739792
 21
39.443527
 31
0.0
  0
LINE
  5
159
100
AcDbEntity
  8
LAY-1
  6
CONTINUOUS
 62
     3
100
AcDbLine
 10
301.739792
 20
39.443527
 30
0.0
 11
304.260201
 21
39.979149
 31
0.0
  0
LINE
  5
15A
100
AcDbEntity
  8
LAY-1
  6
CONTINUOUS
 62
     3
100
AcDbLine
 10
304.260201
 20
39.979149
 30
0.0
 11
304.260201
 21
37.6605
 31
0.0
  0
LINE
  5
15B
100
AcDbEntity
  8
LAY-1
  6
CONTINUOUS
 62
     3
100
AcDbLine
 10
304.260201
 20
37.6605
 30
0.0
 11
296.447739
 21
36.0
 31
0.0
  0
LINE
  5
15C
100
AcDbEntity
  8
LAY-1
  6
CONTINUOUS
 62
     3
100
AcDbLine
 10
296.447739
 20
36.0
 30
0.0
 11
296.447739
 21
38.318649
 31
0.0
  0
LINE
  5
15D
100
AcDbEntity
  8
LAY-1
  6
CONTINUOUS
 62
     3
100
AcDbLine
 10
296.447739
 20
38.318649
 30
0.0
 11
298.968147
 21
38.854309
 31
0.0
  0
LINE
  5
15E
100
AcDbEntity
  8
LAY-1
  6
CONTINUOUS
 62
     3
100
AcDbLine
 10
298.968147
 20
38.854309
 30
0.0
 11
298.968147
 21
41.544014
 31
0.0
  0
LINE
  5
15F
100
AcDbEntity
  8
LAY-1
  6
CONTINUOUS
 62
     3
100
AcDbLine
 10
298.968147
 20
41.544014
 30
0.0
 11
296.573891
 21
41.544014
 31
0.0
  0
LINE
  5
160
100
AcDbEntity
  8
LAY-1
  6
CONTINUOUS
 62
     3
100
AcDbLine
 10
295.818161
 20
46.079994
 30
0.0
 11
295.818161
 21
44.568001
 31
0.0
  0
LINE
  5
161
100
AcDbEntity
  8
LAY-1
  6
CONTINUOUS
 62
     3
100
AcDbLine
 10
295.818161
 20
46.079994
 30
0.0
 11
303.311218
 21
46.079994
 31
0.0
  0
LINE
  5
162
100
AcDbEntity
  8
LAY-1
  6
CONTINUOUS
 62
     3
100
AcDbLine
 10
303.311218
 20
46.079994
 30
0.0
 11
302.944626
 21
47.08799
 31
0.0
  0
LINE
  5
163
100
AcDbEntity
  8
LAY-1
  6
CONTINUOUS
 62
     3
100
AcDbLine
 10
302.944626
 20
47.08799
 30
0.0
 11
305.89415
 21
47.08799
 31
0.0
  0
LINE
  5
164
100
AcDbEntity
  8
LAY-1
  6
CONTINUOUS
 62
     3
100
AcDbLine
 10
305.89415
 20
47.08799
 30
0.0
 11
306.261238
 21
46.079994
 31
0.0
  0
LINE
  5
165
100
AcDbEntity
  8
LAY-1
  6
CONTINUOUS
 62
     3
100
AcDbLine
 10
306.261238
 20
46.079994
 30
0.0
 11
306.906227
 21
46.079994
 31
0.0
  0
LINE
  5
166
100
AcDbEntity
  8
LAY-1
  6
CONTINUOUS
 62
     3
100
AcDbLine
 10
306.906227
 20
46.079994
 30
0.0
 11
306.906227
 21
47.08799
 31
0.0
  0
LINE
  5
167
100
AcDbEntity
  8
LAY-1
  6
CONTINUOUS
 62
     3
100
AcDbLine
 10
306.906227
 20
47.08799
 30
0.0
 11
309.173874
 21
47.08799
 31
0.0
  0
LINE
  5
168
100
AcDbEntity
  8
LAY-1
  6
CONTINUOUS
 62
     3
100
AcDbLine
 10
309.173874
 20
47.08799
 30
0.0
 11
309.173874
 21
46.079994
 31
0.0
  0
LINE
  5
169
100
AcDbEntity
  8
LAY-1
  6
CONTINUOUS
 62
     3
100
AcDbLine
 10
309.173874
 20
46.079994
 30
0.0
 11
309.930099
 21
46.079994
 31
0.0
  0
LINE
  5
16A
100
AcDbEntity
  8
LAY-1
  6
CONTINUOUS
 62
     3
100
AcDbLine
 10
309.930099
 20
46.079994
 30
0.0
 11
309.930099
 21
44.568001
 31
0.0
  0
LINE
  5
16B
100
AcDbEntity
  8
LAY-1
  6
CONTINUOUS
 62
     3
100
AcDbLine
 10
309.930099
 20
44.568001
 30
0.0
 11
306.811356
 21
44.568001
 31
0.0
  0
LINE
  5
16C
100
AcDbEntity
  8
LAY-1
  6
CONTINUOUS
 62
     3
100
AcDbLine
 10
306.811356
 20
44.568001
 30
0.0
 11
309.930099
 21
36.0
 31
0.0
  0
LINE
  5
16D
100
AcDbEntity
  8
LAY-1
  6
CONTINUOUS
 62
     3
100
AcDbLine
 10
309.930099
 20
36.0
 30
0.0
 11
306.980042
 21
36.0
 31
0.0
  0
LINE
  5
16E
100
AcDbEntity
  8
LAY-1
  6
CONTINUOUS
 62
     3
100
AcDbLine
 10
306.980042
 20
36.0
 30
0.0
 11
303.861832
 21
44.568001
 31
0.0
  0
LINE
  5
16F
100
AcDbEntity
  8
LAY-1
  6
CONTINUOUS
 62
     3
100
AcDbLine
 10
303.861832
 20
44.568001
 30
0.0
 11
295.818161
 21
44.568001
 31
0.0
  0
LINE
  5
170
100
AcDbEntity
  8
LAY-1
  6
CONTINUOUS
 62
     3
100
AcDbLine
 10
310.434097
 20
44.936958
 30
0.0
 11
310.434097
 21
43.342491
 31
0.0
  0
LINE
  5
171
100
AcDbEntity
  8
LAY-1
  6
CONTINUOUS
 62
     3
100
AcDbLine
 10
310.434097
 20
44.936958
 30
0.0
 11
317.615913
 21
47.339989
 31
0.0
  0
LINE
  5
172
100
AcDbEntity
  8
LAY-1
  6
CONTINUOUS
 62
     3
100
AcDbLine
 10
317.615913
 20
47.339989
 30
0.0
 11
324.797768
 21
44.936882
 31
0.0
  0
LINE
  5
173
100
AcDbEntity
  8
LAY-1
  6
CONTINUOUS
 62
     3
100
AcDbLine
 10
324.797768
 20
44.936882
 30
0.0
 11
324.797768
 21
43.342491
 31
0.0
  0
LINE
  5
174
100
AcDbEntity
  8
LAY-1
  6
CONTINUOUS
 62
     3
100
AcDbLine
 10
324.797768
 20
43.342491
 30
0.0
 11
322.656235
 21
44.059196
 31
0.0
  0
LINE
  5
175
100
AcDbEntity
  8
LAY-1
  6
CONTINUOUS
 62
     3
100
AcDbLine
 10
322.656235
 20
44.059196
 30
0.0
 11
322.656235
 21
42.804009
 31
0.0
  0
LINE
  5
176
100
AcDbEntity
  8
LAY-1
  6
CONTINUOUS
 62
     3
100
AcDbLine
 10
322.656235
 20
42.804009
 30
0.0
 11
312.576126
 21
42.804009
 31
0.0
  0
LINE
  5
177
100
AcDbEntity
  8
LAY-1
  6
CONTINUOUS
 62
     3
100
AcDbLine
 10
312.576126
 20
42.804009
 30
0.0
 11
312.576126
 21
44.059196
 31
0.0
  0
LINE
  5
178
100
AcDbEntity
  8
LAY-1
  6
CONTINUOUS
 62
     3
100
AcDbLine
 10
312.576126
 20
44.059196
 30
0.0
 11
310.434097
 21
43.342491
 31
0.0
  0
LINE
  5
179
100
AcDbEntity
  8
LAY-1
  6
CONTINUOUS
 62
     3
100
AcDbLine
 10
313.343643
 20
44.316002
 30
0.0
 11
317.615913
 21
45.74556
 31
0.0
  0
LINE
  5
17A
100
AcDbEntity
  8
LAY-1
  6
CONTINUOUS
 62
     3
100
AcDbLine
 10
317.615913
 20
45.74556
 30
0.0
 11
321.888718
 21
44.316002
 31
0.0
  0
LINE
  5
17B
100
AcDbEntity
  8
LAY-1
  6
CONTINUOUS
 62
     3
100
AcDbLine
 10
321.888718
 20
44.316002
 30
0.0
 11
313.343643
 21
44.316002
 31
0.0
  0
LINE
  5
17C
100
AcDbEntity
  8
LAY-1
  6
CONTINUOUS
 62
     3
100
AcDbLine
 10
310.434097
 20
41.795975
 30
0.0
 11
310.434097
 21
40.283981
 31
0.0
  0
LINE
  5
17D
100
AcDbEntity
  8
LAY-1
  6
CONTINUOUS
 62
     3
100
AcDbLine
 10
310.434097
 20
41.795975
 30
0.0
 11
324.797768
 21
41.795975
 31
0.0
  0
LINE
  5
17E
100
AcDbEntity
  8
LAY-1
  6
CONTINUOUS
 62
     3
100
AcDbLine
 10
324.797768
 20
41.795975
 30
0.0
 11
324.797768
 21
40.283981
 31
0.0
  0
LINE
  5
17F
100
AcDbEntity
  8
LAY-1
  6
CONTINUOUS
 62
     3
100
AcDbLine
 10
324.797768
 20
40.283981
 30
0.0
 11
322.800278
 21
40.283981
 31
0.0
  0
LINE
  5
180
100
AcDbEntity
  8
LAY-1
  6
CONTINUOUS
 62
     3
100
AcDbLine
 10
322.800278
 20
40.283981
 30
0.0
 11
324.797768
 21
36.0
 31
0.0
  0
LINE
  5
181
100
AcDbEntity
  8
LAY-1
  6
CONTINUOUS
 62
     3
100
AcDbLine
 10
324.797768
 20
36.0
 30
0.0
 11
310.434097
 21
36.0
 31
0.0
  0
LINE
  5
182
100
AcDbEntity
  8
LAY-1
  6
CONTINUOUS
 62
     3
100
AcDbLine
 10
310.434097
 20
36.0
 30
0.0
 11
312.431549
 21
40.283981
 31
0.0
  0
LINE
  5
183
100
AcDbEntity
  8
LAY-1
  6
CONTINUOUS
 62
     3
100
AcDbLine
 10
312.431549
 20
40.283981
 30
0.0
 11
310.434097
 21
40.283981
 31
0.0
  0
LINE
  5
184
100
AcDbEntity
  8
LAY-1
  6
CONTINUOUS
 62
     3
100
AcDbLine
 10
315.211891
 20
40.283981
 30
0.0
 11
320.019936
 21
40.283981
 31
0.0
  0
LINE
  5
185
100
AcDbEntity
  8
LAY-1
  6
CONTINUOUS
 62
     3
100
AcDbLine
 10
320.019936
 20
40.283981
 30
0.0
 11
321.312431
 21
37.511993
 31
0.0
  0
LINE
  5
186
100
AcDbEntity
  8
LAY-1
  6
CONTINUOUS
 62
     3
100
AcDbLine
 10
321.312431
 20
37.511993
 30
0.0
 11
313.919395
 21
37.511993
 31
0.0
  0
LINE
  5
187
100
AcDbEntity
  8
LAY-1
  6
CONTINUOUS
 62
     3
100
AcDbLine
 10
315.211891
 20
40.283981
 30
0.0
 11
313.919395
 21
37.511993
 31
0.0
  0
LINE
  5
188
100
AcDbEntity
  8
LAY-1
  6
CONTINUOUS
 62
     3
100
AcDbLine
 10
332.106232
 20
44.316002
 30
0.0
 11
332.106232
 21
42.804009
 31
0.0
  0
LINE
  5
189
100
AcDbEntity
  8
LAY-1
  6
CONTINUOUS
 62
     3
100
AcDbLine
 10
332.106232
 20
44.316002
 30
0.0
 11
334.373878
 21
44.316002
 31
0.0
  0
LINE
  5
18A
100
AcDbEntity
  8
LAY-1
  6
CONTINUOUS
 62
     3
100
AcDbLine
 10
334.373878
 20
44.316002
 30
0.0
 11
334.373878
 21
47.08799
 31
0.0
  0
LINE
  5
18B
100
AcDbEntity
  8
LAY-1
  6
CONTINUOUS
 62
     3
100
AcDbLine
 10
334.373878
 20
47.08799
 30
0.0
 11
336.893753
 21
47.08799
 31
0.0
  0
LINE
  5
18C
100
AcDbEntity
  8
LAY-1
  6
CONTINUOUS
 62
     3
100
AcDbLine
 10
336.893753
 20
47.08799
 30
0.0
 11
336.893753
 21
44.316002
 31
0.0
  0
LINE
  5
18D
100
AcDbEntity
  8
LAY-1
  6
CONTINUOUS
 62
     3
100
AcDbLine
 10
336.893753
 20
44.316002
 30
0.0
 11
339.161934
 21
44.316002
 31
0.0
  0
LINE
  5
18E
100
AcDbEntity
  8
LAY-1
  6
CONTINUOUS
 62
     3
100
AcDbLine
 10
339.161934
 20
44.316002
 30
0.0
 11
339.161934
 21
42.804009
 31
0.0
  0
LINE
  5
18F
100
AcDbEntity
  8
LAY-1
  6
CONTINUOUS
 62
     3
100
AcDbLine
 10
339.161934
 20
42.804009
 30
0.0
 11
336.893753
 21
42.804009
 31
0.0
  0
LINE
  5
190
100
AcDbEntity
  8
LAY-1
  6
CONTINUOUS
 62
     3
100
AcDbLine
 10
336.893753
 20
42.804009
 30
0.0
 11
336.893753
 21
37.511993
 31
0.0
  0
LINE
  5
191
100
AcDbEntity
  8
LAY-1
  6
CONTINUOUS
 62
     3
100
AcDbLine
 10
336.893753
 20
37.511993
 30
0.0
 11
339.414162
 21
37.511993
 31
0.0
  0
LINE
  5
192
100
AcDbEntity
  8
LAY-1
  6
CONTINUOUS
 62
     3
100
AcDbLine
 10
339.414162
 20
37.511993
 30
0.0
 11
339.414162
 21
36.0
 31
0.0
  0
LINE
  5
193
100
AcDbEntity
  8
LAY-1
  6
CONTINUOUS
 62
     3
100
AcDbLine
 10
339.414162
 20
36.0
 30
0.0
 11
331.09774
 21
36.0
 31
0.0
  0
LINE
  5
194
100
AcDbEntity
  8
LAY-1
  6
CONTINUOUS
 62
     3
100
AcDbLine
 10
331.09774
 20
36.0
 30
0.0
 11
331.09774
 21
37.511993
 31
0.0
  0
LINE
  5
195
100
AcDbEntity
  8
LAY-1
  6
CONTINUOUS
 62
     3
100
AcDbLine
 10
331.09774
 20
37.511993
 30
0.0
 11
334.373878
 21
37.511993
 31
0.0
  0
LINE
  5
196
100
AcDbEntity
  8
LAY-1
  6
CONTINUOUS
 62
     3
100
AcDbLine
 10
334.373878
 20
37.511993
 30
0.0
 11
334.373878
 21
42.804009
 31
0.0
  0
LINE
  5
197
100
AcDbEntity
  8
LAY-1
  6
CONTINUOUS
 62
     3
100
AcDbLine
 10
334.373878
 20
42.804009
 30
0.0
 11
332.106232
 21
42.804009
 31
0.0
  0
LINE
  5
198
100
AcDbEntity
  8
LAY-1
  6
CONTINUOUS
 62
     3
100
AcDbLine
 10
325.301727
 20
46.079994
 30
0.0
 11
325.301727
 21
44.568001
 31
0.0
  0
LINE
  5
199
100
AcDbEntity
  8
LAY-1
  6
CONTINUOUS
 62
     3
100
AcDbLine
 10
325.301727
 20
46.079994
 30
0.0
 11
327.569908
 21
46.079994
 31
0.0
  0
LINE
  5
19A
100
AcDbEntity
  8
LAY-1
  6
CONTINUOUS
 62
     3
100
AcDbLine
 10
327.569908
 20
46.079994
 30
0.0
 11
327.569908
 21
47.08799
 31
0.0
  0
LINE
  5
19B
100
AcDbEntity
  8
LAY-1
  6
CONTINUOUS
 62
     3
100
AcDbLine
 10
327.569908
 20
47.08799
 30
0.0
 11
330.089783
 21
47.08799
 31
0.0
  0
LINE
  5
19C
100
AcDbEntity
  8
LAY-1
  6
CONTINUOUS
 62
     3
100
AcDbLine
 10
330.089783
 20
47.08799
 30
0.0
 11
330.089783
 21
46.079994
 31
0.0
  0
LINE
  5
19D
100
AcDbEntity
  8
LAY-1
  6
CONTINUOUS
 62
     3
100
AcDbLine
 10
330.089783
 20
46.079994
 30
0.0
 11
332.357964
 21
46.079994
 31
0.0
  0
LINE
  5
19E
100
AcDbEntity
  8
LAY-1
  6
CONTINUOUS
 62
     3
100
AcDbLine
 10
332.357964
 20
46.079994
 30
0.0
 11
329.756531
 21
42.363945
 31
0.0
  0
LINE
  5
19F
100
AcDbEntity
  8
LAY-1
  6
CONTINUOUS
 62
     3
100
AcDbLine
 10
329.756531
 20
42.363945
 30
0.0
 11
332.106232
 21
40.718971
 31
0.0
  0
LINE
  5
1A0
100
AcDbEntity
  8
LAY-1
  6
CONTINUOUS
 62
     3
100
AcDbLine
 10
332.106232
 20
40.718971
 30
0.0
 11
332.106232
 21
37.950302
 31
0.0
  0
LINE
  5
1A1
100
AcDbEntity
  8
LAY-1
  6
CONTINUOUS
 62
     3
100
AcDbLine
 10
332.106232
 20
37.950302
 30
0.0
 11
330.089783
 21
39.361931
 31
0.0
  0
LINE
  5
1A2
100
AcDbEntity
  8
LAY-1
  6
CONTINUOUS
 62
     3
100
AcDbLine
 10
330.089783
 20
39.361931
 30
0.0
 11
330.089783
 21
36.0
 31
0.0
  0
LINE
  5
1A3
100
AcDbEntity
  8
LAY-1
  6
CONTINUOUS
 62
     3
100
AcDbLine
 10
330.089783
 20
36.0
 30
0.0
 11
327.569908
 21
36.0
 31
0.0
  0
LINE
  5
1A4
100
AcDbEntity
  8
LAY-1
  6
CONTINUOUS
 62
     3
100
AcDbLine
 10
327.569908
 20
36.0
 30
0.0
 11
327.569908
 21
39.239975
 31
0.0
  0
LINE
  5
1A5
100
AcDbEntity
  8
LAY-1
  6
CONTINUOUS
 62
     3
100
AcDbLine
 10
327.569908
 20
39.239975
 30
0.0
 11
325.301727
 21
36.0
 31
0.0
  0
LINE
  5
1A6
100
AcDbEntity
  8
LAY-1
  6
CONTINUOUS
 62
     3
100
AcDbLine
 10
325.301727
 20
36.0
 30
0.0
 11
325.301727
 21
39.954849
 31
0.0
  0
LINE
  5
1A7
100
AcDbEntity
  8
LAY-1
  6
CONTINUOUS
 62
     3
100
AcDbLine
 10
325.301727
 20
39.954849
 30
0.0
 11
328.531212
 21
44.568001
 31
0.0
  0
LINE
  5
1A8
100
AcDbEntity
  8
LAY-1
  6
CONTINUOUS
 62
     3
100
AcDbLine
 10
328.531212
 20
44.568001
 30
0.0
 11
325.301727
 21
44.568001
 31
0.0
  0
ARC
  5
1A9
100
AcDbEntity
  8
LAY-1
  6
CONTINUOUS
 62
     2
100
AcDbCircle
 10
214.790253
 20
42.550102
 30
0.0
 40
1.575031
100
AcDbArc
 50
310.768311
 51
335.998779
  0
LINE
  5
1AA
100
AcDbEntity
  8
LAY-1
  6
CONTINUOUS
 62
     2
100
AcDbLine
 10
216.60006
 20
42.741028
 30
0.0
 11
216.229919
 21
41.909767
 31
0.0
  0
LINE
  5
1AB
100
AcDbEntity
  8
LAY-1
  6
CONTINUOUS
 62
     2
100
AcDbLine
 10
212.246269
 20
43.686005
 30
0.0
 11
218.054604
 21
43.686005
 31
0.0
  0
ARC
  5
1AC
100
AcDbEntity
  8
LAY-1
  6
CONTINUOUS
 62
     2
100
AcDbCircle
 10
238.074821
 20
40.536018
 30
0.0
 40
3.906002
100
AcDbArc
 50
270.000031
 51
324.00116
  0
ARC
  5
1AD
100
AcDbEntity
  8
LAY-1
  6
CONTINUOUS
 62
     2
100
AcDbCircle
 10
238.074821
 20
40.536018
 30
0.0
 40
3.276002
100
AcDbArc
 50
270.000031
 51
324.00116
  0
ARC
  5
1AE
100
AcDbEntity
  8
LAY-1
  6
CONTINUOUS
 62
     2
100
AcDbCircle
 10
199.891418
 20
40.536018
 30
0.0
 40
3.905995
100
AcDbArc
 50
270.000031
 51
333.99855
  0
ARC
  5
1AF
100
AcDbEntity
  8
LAY-1
  6
CONTINUOUS
 62
     2
100
AcDbCircle
 10
199.691376
 20
40.536018
 30
0.0
 40
2.645998
100
AcDbArc
 50
270.000031
 51
333.99855
  0
ARC
  5
1B0
100
AcDbEntity
  8
LAY-1
  6
CONTINUOUS
 62
     2
100
AcDbCircle
 10
199.791397
 20
40.536018
 30
0.0
 40
3.275998
100
AcDbArc
 50
270.000031
 51
333.99855
  0
LINE
  5
1B1
100
AcDbEntity
  8
LAY-1
  6
CONTINUOUS
 62
     2
100
AcDbLine
 10
193.210205
 20
46.508032
 30
0.0
 11
199.345993
 21
46.508032
 31
0.0
  0
LINE
  5
1B2
100
AcDbEntity
  8
LAY-1
  6
CONTINUOUS
 62
     2
100
AcDbLine
 10
193.210205
 20
45.928036
 30
0.0
 11
199.345993
 21
45.928036
 31
0.0
  0
LINE
  5
1B3
100
AcDbEntity
  8
LAY-1
  6
CONTINUOUS
 62
     2
100
AcDbLine
 10
193.210205
 20
45.348078
 30
0.0
 11
199.345993
 21
45.348078
 31
0.0
  0
LINE
  5
1B4
100
AcDbEntity
  8
LAY-1
  6
CONTINUOUS
 62
     2
100
AcDbLine
 10
193.210205
 20
43.534008
 30
0.0
 11
199.345993
 21
43.534008
 31
0.0
  0
LINE
  5
1B5
100
AcDbEntity
  8
LAY-1
  6
CONTINUOUS
 62
     2
100
AcDbLine
 10
193.210205
 20
42.903973
 30
0.0
 11
199.345993
 21
42.903973
 31
0.0
  0
LINE
  5
1B6
100
AcDbEntity
  8
LAY-1
  6
CONTINUOUS
 62
     2
100
AcDbLine
 10
193.210205
 20
42.324015
 30
0.0
 11
199.345993
 21
42.324015
 31
0.0
  0
LINE
  5
1B7
100
AcDbEntity
  8
LAY-1
  6
CONTINUOUS
 62
     2
100
AcDbLine
 10
193.210205
 20
37.889992
 30
0.0
 11
199.691376
 21
37.889992
 31
0.0
  0
LINE
  5
1B8
100
AcDbEntity
  8
LAY-1
  6
CONTINUOUS
 62
     2
100
AcDbLine
 10
193.210205
 20
37.259995
 30
0.0
 11
199.691376
 21
37.259995
 31
0.0
  0
LINE
  5
1B9
100
AcDbEntity
  8
LAY-1
  6
CONTINUOUS
 62
     2
100
AcDbLine
 10
193.210205
 20
36.629997
 30
0.0
 11
199.691376
 21
36.629997
 31
0.0
  0
LINE
  5
1BA
100
AcDbEntity
  8
LAY-1
  6
CONTINUOUS
 62
     2
100
AcDbLine
 10
202.069267
 20
39.376007
 30
0.0
 11
204.277061
 21
43.902591
 31
0.0
  0
LINE
  5
1BB
100
AcDbEntity
  8
LAY-1
  6
CONTINUOUS
 62
     2
100
AcDbLine
 10
202.735313
 20
39.099899
 30
0.0
 11
205.077919
 21
43.902594
 31
0.0
  0
LINE
  5
1BC
100
AcDbEntity
  8
LAY-1
  6
CONTINUOUS
 62
     2
100
AcDbLine
 10
203.401321
 20
38.823563
 30
0.0
 11
205.878281
 21
43.902586
 31
0.0
  0
LINE
  5
1BD
100
AcDbEntity
  8
LAY-1
  6
CONTINUOUS
 62
     2
100
AcDbLine
 10
202.534088
 20
46.423994
 30
0.0
 11
203.629593
 21
46.423994
 31
0.0
  0
LINE
  5
1BE
100
AcDbEntity
  8
LAY-1
  6
CONTINUOUS
 62
     2
100
AcDbLine
 10
202.534088
 20
45.709997
 30
0.0
 11
203.629593
 21
45.709997
 31
0.0
  0
LINE
  5
1BF
100
AcDbEntity
  8
LAY-1
  6
CONTINUOUS
 62
     2
100
AcDbLine
 10
205.306229
 20
46.423994
 30
0.0
 11
206.401733
 21
46.423994
 31
0.0
  0
LINE
  5
1C0
100
AcDbEntity
  8
LAY-1
  6
CONTINUOUS
 62
     2
100
AcDbLine
 10
205.306229
 20
45.709997
 30
0.0
 11
206.401733
 21
45.709997
 31
0.0
  0
LINE
  5
1C1
100
AcDbEntity
  8
LAY-1
  6
CONTINUOUS
 62
     2
100
AcDbLine
 10
208.078369
 20
43.056046
 30
0.0
 11
211.07016
 21
43.056046
 31
0.0
  0
LINE
  5
1C2
100
AcDbEntity
  8
LAY-1
  6
CONTINUOUS
 62
     2
100
AcDbLine
 10
210.343842
 20
45.625671
 30
0.0
 11
210.651268
 21
43.686005
 31
0.0
  0
LINE
  5
1C3
100
AcDbEntity
  8
LAY-1
  6
CONTINUOUS
 62
     2
100
AcDbLine
 10
211.797012
 20
36.454326
 30
0.0
 11
210.862259
 21
42.354761
 31
0.0
  0
ARC
  5
1C4
100
AcDbEntity
  8
LAY-1
  6
CONTINUOUS
 62
     2
100
AcDbCircle
 10
214.740242
 20
42.550102
 30
0.0
 40
2.20503
100
AcDbArc
 50
272.671387
 51
335.998779
  0
ARC
  5
1C5
100
AcDbEntity
  8
LAY-1
  6
CONTINUOUS
 62
     2
100
AcDbCircle
 10
214.690231
 20
42.550102
 30
0.0
 40
2.835028
100
AcDbArc
 50
267.367432
 51
335.998779
  0
LINE
  5
1C6
100
AcDbEntity
  8
LAY-1
  6
CONTINUOUS
 62
     2
100
AcDbLine
 10
218.337921
 20
43.772632
 30
0.0
 11
217.280373
 21
41.397148
 31
0.0
  0
LINE
  5
1C7
100
AcDbEntity
  8
LAY-1
  6
CONTINUOUS
 62
     2
100
AcDbLine
 10
213.272652
 20
36.454326
 30
0.0
 11
212.305092
 21
42.562204
 31
0.0
  0
LINE
  5
1C8
100
AcDbEntity
  8
LAY-1
  6
CONTINUOUS
 62
     2
100
AcDbLine
 10
212.584824
 20
36.454326
 30
0.0
 11
211.132111
 21
45.625669
 31
0.0
  0
LINE
  5
1C9
100
AcDbEntity
  8
LAY-1
  6
CONTINUOUS
 62
     2
100
AcDbLine
 10
211.819939
 20
45.625669
 30
0.0
 11
212.098907
 21
43.864866
 31
0.0
  0
LINE
  5
1CA
100
AcDbEntity
  8
LAY-1
  6
CONTINUOUS
 62
     2
100
AcDbLine
 10
208.078369
 20
43.686005
 30
0.0
 11
210.151276
 21
43.686005
 31
0.0
  0
LINE
  5
1CB
100
AcDbEntity
  8
LAY-1
  6
CONTINUOUS
 62
     2
100
AcDbLine
 10
217.417473
 20
43.142599
 30
0.0
 11
216.755127
 21
41.653381
 31
0.0
  0
LINE
  5
1CC
100
AcDbEntity
  8
LAY-1
  6
CONTINUOUS
 62
     2
100
AcDbLine
 10
212.026848
 20
43.056046
 30
0.0
 11
216.834549
 21
43.056046
 31
0.0
  0
ARC
  5
1CD
100
AcDbEntity
  8
LAY-1
  6
CONTINUOUS
 62
     2
100
AcDbCircle
 10
214.640221
 20
42.550102
 30
0.0
 40
3.465028
100
AcDbArc
 50
269.611328
 51
335.998779
  0
LINE
  5
1CE
100
AcDbEntity
  8
LAY-1
  6
CONTINUOUS
 62
     2
100
AcDbLine
 10
218.977455
 20
43.772639
 30
0.0
 11
217.805618
 21
41.140839
 31
0.0
  0
LINE
  5
1CF
100
AcDbEntity
  8
LAY-1
  6
CONTINUOUS
 62
     2
100
AcDbLine
 10
245.828156
 20
45.828033
 30
0.0
 11
240.720161
 21
38.795677
 31
0.0
  0
LINE
  5
1D0
100
AcDbEntity
  8
LAY-1
  6
CONTINUOUS
 62
     2
100
AcDbLine
 10
244.467033
 20
45.198074
 30
0.0
 11
240.08551
 21
39.166008
 31
0.0
  0
ARC
  5
1D1
100
AcDbEntity
  8
LAY-1
  6
CONTINUOUS
 62
     2
100
AcDbCircle
 10
238.24984
 20
40.436016
 30
0.0
 40
2.331005
100
AcDbArc
 50
270.000031
 51
324.00116
  0
LINE
  5
1D2
100
AcDbEntity
  8
LAY-1
  6
CONTINUOUS
 62
     2
100
AcDbLine
 10
220.969872
 20
46.503898
 30
0.0
 11
232.06591
 21
46.503898
 31
0.0
  0
LINE
  5
1D3
100
AcDbEntity
  8
LAY-1
  6
CONTINUOUS
 62
     2
100
AcDbLine
 10
220.969872
 20
45.848938
 30
0.0
 11
232.06591
 21
45.848938
 31
0.0
  0
LINE
  5
1D4
100
AcDbEntity
  8
LAY-1
  6
CONTINUOUS
 62
     2
100
AcDbLine
 10
220.969872
 20
45.168978
 30
0.0
 11
232.06591
 21
45.168978
 31
0.0
  0
LINE
  5
1D5
100
AcDbEntity
  8
LAY-1
  6
CONTINUOUS
 62
     2
100
AcDbLine
 10
219.961914
 20
37.911011
 30
0.0
 11
233.073868
 21
37.911011
 31
0.0
  0
LINE
  5
1D6
100
AcDbEntity
  8
LAY-1
  6
CONTINUOUS
 62
     2
100
AcDbLine
 10
219.961914
 20
37.281014
 30
0.0
 11
233.073868
 21
37.281014
 31
0.0
  0
LINE
  5
1D7
100
AcDbEntity
  8
LAY-1
  6
CONTINUOUS
 62
     2
100
AcDbLine
 10
219.961914
 20
36.600977
 30
0.0
 11
233.073868
 21
36.600977
 31
0.0
  0
LINE
  5
1D8
100
AcDbEntity
  8
LAY-1
  6
CONTINUOUS
 62
     2
100
AcDbLine
 10
235.838036
 20
46.483031
 30
0.0
 11
246.564201
 21
46.483031
 31
0.0
  0
LINE
  5
1D9
100
AcDbEntity
  8
LAY-1
  6
CONTINUOUS
 62
     2
100
AcDbLine
 10
247.214226
 20
46.458031
 30
0.0
 11
241.379761
 21
38.425156
 31
0.0
  0
LINE
  5
1DA
100
AcDbEntity
  8
LAY-1
  6
CONTINUOUS
 62
     2
100
AcDbLine
 10
235.838036
 20
45.828033
 30
0.0
 11
245.328125
 21
45.828033
 31
0.0
  0
LINE
  5
1DB
100
AcDbEntity
  8
LAY-1
  6
CONTINUOUS
 62
     2
100
AcDbLine
 10
238.074821
 20
37.914992
 30
0.0
 11
234.830078
 21
37.914992
 31
0.0
  0
LINE
  5
1DC
100
AcDbEntity
  8
LAY-1
  6
CONTINUOUS
 62
     2
100
AcDbLine
 10
238.074821
 20
37.259995
 30
0.0
 11
234.830078
 21
37.259995
 31
0.0
  0
LINE
  5
1DD
100
AcDbEntity
  8
LAY-1
  6
CONTINUOUS
 62
     2
100
AcDbLine
 10
238.074821
 20
36.604997
 30
0.0
 11
234.830078
 21
36.604997
 31
0.0
  0
LINE
  5
1DE
100
AcDbEntity
  8
LAY-1
  6
CONTINUOUS
 62
     2
100
AcDbLine
 10
243.107971
 20
39.934288
 30
0.0
 11
246.092896
 21
36.5
 31
0.0
  0
LINE
  5
1DF
100
AcDbEntity
  8
LAY-1
  6
CONTINUOUS
 62
     2
100
AcDbLine
 10
243.488373
 20
40.382627
 30
0.0
 11
246.86293
 21
36.5
 31
0.0
  0
LINE
  5
1E0
100
AcDbEntity
  8
LAY-1
  6
CONTINUOUS
 62
     2
100
AcDbLine
 10
243.868279
 20
40.830737
 30
0.0
 11
247.632355
 21
36.5
 31
0.0
  0
LINE
  5
1E1
100
AcDbEntity
  8
LAY-1
  6
CONTINUOUS
 62
     2
100
AcDbLine
 10
244.248184
 20
41.278962
 30
0.0
 11
248.402313
 21
36.5
 31
0.0
  0
LINE
  5
1E2
100
AcDbEntity
  8
LAY-1
  6
CONTINUOUS
 62
     2
100
AcDbLine
 10
235.838036
 20
45.148073
 30
0.0
 11
243.841995
 21
45.148073
 31
0.0
  0
LINE
  5
1E3
100
AcDbEntity
  8
LAY-1
  6
CONTINUOUS
 62
     2
100
AcDbLine
 10
252.973885
 20
46.508032
 30
0.0
 11
265.077843
 21
46.508032
 31
0.0
  0
LINE
  5
1E4
100
AcDbEntity
  8
LAY-1
  6
CONTINUOUS
 62
     2
100
AcDbLine
 10
252.973885
 20
45.878035
 30
0.0
 11
265.077843
 21
45.878035
 31
0.0
  0
LINE
  5
1E5
100
AcDbEntity
  8
LAY-1
  6
CONTINUOUS
 62
     2
100
AcDbLine
 10
258.16935
 20
37.869979
 30
0.0
 11
258.16935
 21
45.303055
 31
0.0
  0
LINE
  5
1E6
100
AcDbEntity
  8
LAY-1
  6
CONTINUOUS
 62
     2
100
AcDbLine
 10
258.798965
 20
37.869979
 30
0.0
 11
258.798965
 21
45.303055
 31
0.0
  0
LINE
  5
1E7
100
AcDbEntity
  8
LAY-1
  6
CONTINUOUS
 62
     2
100
AcDbLine
 10
259.428543
 20
37.869979
 30
0.0
 11
259.428543
 21
45.303055
 31
0.0
  0
LINE
  5
1E8
100
AcDbEntity
  8
LAY-1
  6
CONTINUOUS
 62
     2
100
AcDbLine
 10
260.00811
 20
37.869979
 30
0.0
 11
260.00811
 21
45.303055
 31
0.0
  0
LINE
  5
1E9
100
AcDbEntity
  8
LAY-1
  6
CONTINUOUS
 62
     2
100
AcDbLine
 10
252.469887
 20
37.369979
 30
0.0
 11
265.581841
 21
37.369979
 31
0.0
  0
LINE
  5
1EA
100
AcDbEntity
  8
LAY-1
  6
CONTINUOUS
 62
     2
100
AcDbLine
 10
252.469887
 20
36.614982
 30
0.0
 11
265.581841
 21
36.614982
 31
0.0
  0
LINE
  5
1EB
100
AcDbEntity
  8
LAY-1
  6
CONTINUOUS
 62
     2
100
AcDbLine
 10
268.531899
 20
46.58799
 30
0.0
 11
269.46772
 21
45.390376
 31
0.0
  0
LINE
  5
1EC
100
AcDbEntity
  8
LAY-1
  6
CONTINUOUS
 62
     2
100
AcDbLine
 10
269.331192
 20
46.58799
 30
0.0
 11
270.267014
 21
45.390376
 31
0.0
  0
LINE
  5
1ED
100
AcDbEntity
  8
LAY-1
  6
CONTINUOUS
 62
     2
100
AcDbLine
 10
271.827835
 20
46.58799
 30
0.0
 11
271.827835
 21
45.496391
 31
0.0
  0
LINE
  5
1EE
100
AcDbEntity
  8
LAY-1
  6
CONTINUOUS
 62
     2
100
AcDbLine
 10
272.507462
 20
46.58799
 30
0.0
 11
272.507462
 21
45.496391
 31
0.0
  0
LINE
  5
1EF
100
AcDbEntity
  8
LAY-1
  6
CONTINUOUS
 62
     2
100
AcDbLine
 10
274.347748
 20
46.58799
 30
0.0
 11
274.347748
 21
45.496391
 31
0.0
  0
LINE
  5
1F0
100
AcDbEntity
  8
LAY-1
  6
CONTINUOUS
 62
     2
100
AcDbLine
 10
275.077347
 20
46.58799
 30
0.0
 11
275.077347
 21
45.496391
 31
0.0
  0
LINE
  5
1F1
100
AcDbEntity
  8
LAY-1
  6
CONTINUOUS
 62
     2
100
AcDbLine
 10
277.498917
 20
46.58799
 30
0.0
 11
276.563095
 21
45.390376
 31
0.0
  0
LINE
  5
1F2
100
AcDbEntity
  8
LAY-1
  6
CONTINUOUS
 62
     2
100
AcDbLine
 10
278.348221
 20
46.58799
 30
0.0
 11
277.412399
 21
45.390376
 31
0.0
  0
LINE
  5
1F3
100
AcDbEntity
  8
LAY-1
  6
CONTINUOUS
 62
     2
100
AcDbLine
 10
266.834053
 20
44.996391
 30
0.0
 11
279.946007
 21
44.996391
 31
0.0
  0
LINE
  5
1F4
100
AcDbEntity
  8
LAY-1
  6
CONTINUOUS
 62
     2
100
AcDbLine
 10
270.107941
 20
43.047071
 30
0.0
 11
269.569458
 21
44.526545
 31
0.0
  0
LINE
  5
1F5
100
AcDbEntity
  8
LAY-1
  6
CONTINUOUS
 62
     2
100
AcDbLine
 10
270.878052
 20
43.047071
 30
0.0
 11
270.339569
 21
44.526545
 31
0.0
  0
LINE
  5
1F6
100
AcDbEntity
  8
LAY-1
  6
CONTINUOUS
 62
     2
100
AcDbLine
 10
271.598152
 20
43.047129
 30
0.0
 11
271.06028
 21
44.526487
 31
0.0
  0
LINE
  5
1F7
100
AcDbEntity
  8
LAY-1
  6
CONTINUOUS
 62
     2
100
AcDbLine
 10
275.229858
 20
43.047017
 30
0.0
 11
275.768913
 21
44.526599
 31
0.0
  0
LINE
  5
1F8
100
AcDbEntity
  8
LAY-1
  6
CONTINUOUS
 62
     2
100
AcDbLine
 10
276.000504
 20
43.047017
 30
0.0
 11
276.539558
 21
44.526599
 31
0.0
  0
LINE
  5
1F9
100
AcDbEntity
  8
LAY-1
  6
CONTINUOUS
 62
     2
100
AcDbLine
 10
276.720604
 20
43.047017
 30
0.0
 11
277.259659
 21
44.526599
 31
0.0
  0
LINE
  5
1FA
100
AcDbEntity
  8
LAY-1
  6
CONTINUOUS
 62
     2
100
AcDbLine
 10
266.834053
 20
42.577225
 30
0.0
 11
279.946007
 21
42.577225
 31
0.0
  0
LINE
  5
1FB
100
AcDbEntity
  8
LAY-1
  6
CONTINUOUS
 62
     2
100
AcDbLine
 10
266.834053
 20
40.838409
 30
0.0
 11
272.209686
 21
40.838409
 31
0.0
  0
LINE
  5
1FC
100
AcDbEntity
  8
LAY-1
  6
CONTINUOUS
 62
     2
100
AcDbLine
 10
266.834053
 20
39.099594
 30
0.0
 11
272.209686
 21
39.099594
 31
0.0
  0
LINE
  5
1FD
100
AcDbEntity
  8
LAY-1
  6
CONTINUOUS
 62
     2
100
AcDbLine
 10
274.618897
 20
39.099594
 30
0.0
 11
279.946007
 21
39.099594
 31
0.0
  0
LINE
  5
1FE
100
AcDbEntity
  8
LAY-1
  6
CONTINUOUS
 62
     2
100
AcDbLine
 10
267.627205
 20
36.5
 30
0.0
 11
270.133308
 21
38.764385
 31
0.0
  0
LINE
  5
1FF
100
AcDbEntity
  8
LAY-1
  6
CONTINUOUS
 62
     2
100
AcDbLine
 10
268.466934
 20
36.5
 30
0.0
 11
270.973114
 21
38.76439
 31
0.0
  0
LINE
  5
200
100
AcDbEntity
  8
LAY-1
  6
CONTINUOUS
 62
     2
100
AcDbLine
 10
269.257187
 20
36.5
 30
0.0
 11
271.763367
 21
38.76439
 31
0.0
  0
LINE
  5
201
100
AcDbEntity
  8
LAY-1
  6
CONTINUOUS
 62
     2
100
AcDbLine
 10
272.709679
 20
36.5
 30
0.0
 11
272.709679
 21
42.077225
 31
0.0
  0
LINE
  5
202
100
AcDbEntity
  8
LAY-1
  6
CONTINUOUS
 62
     2
100
AcDbLine
 10
273.439278
 20
36.5
 30
0.0
 11
273.439278
 21
42.077225
 31
0.0
  0
LINE
  5
203
100
AcDbEntity
  8
LAY-1
  6
CONTINUOUS
 62
     2
100
AcDbLine
 10
274.118904
 20
36.5
 30
0.0
 11
274.118904
 21
42.077225
 31
0.0
  0
LINE
  5
204
100
AcDbEntity
  8
LAY-1
  6
CONTINUOUS
 62
     2
100
AcDbLine
 10
277.542938
 20
36.5
 30
0.0
 11
275.036835
 21
38.764385
 31
0.0
  0
LINE
  5
205
100
AcDbEntity
  8
LAY-1
  6
CONTINUOUS
 62
     2
100
AcDbLine
 10
278.382706
 20
36.5
 30
0.0
 11
275.876526
 21
38.76439
 31
0.0
  0
LINE
  5
206
100
AcDbEntity
  8
LAY-1
  6
CONTINUOUS
 62
     2
100
AcDbLine
 10
279.222969
 20
36.5
 30
0.0
 11
276.716789
 21
38.76439
 31
0.0
  0
LINE
  5
207
100
AcDbEntity
  8
LAY-1
  6
CONTINUOUS
 62
     2
100
AcDbLine
 10
283.999466
 20
46.58799
 30
0.0
 11
283.999466
 21
45.697998
 31
0.0
  0
LINE
  5
208
100
AcDbEntity
  8
LAY-1
  6
CONTINUOUS
 62
     2
100
AcDbLine
 10
284.629044
 20
46.58799
 30
0.0
 11
284.629044
 21
45.697998
 31
0.0
  0
LINE
  5
209
100
AcDbEntity
  8
LAY-1
  6
CONTINUOUS
 62
     2
100
AcDbLine
 10
285.258659
 20
46.58799
 30
0.0
 11
285.258659
 21
45.697998
 31
0.0
  0
LINE
  5
20A
100
AcDbEntity
  8
LAY-1
  6
CONTINUOUS
 62
     2
100
AcDbLine
 10
281.449989
 20
45.197998
 30
0.0
 11
285.99379
 21
45.197998
 31
0.0
  0
LINE
  5
20B
100
AcDbEntity
  8
LAY-1
  6
CONTINUOUS
 62
     2
100
AcDbLine
 10
281.486038
 20
36.497262
 30
0.0
 11
282.348007
 21
44.700736
 31
0.0
  0
LINE
  5
20C
100
AcDbEntity
  8
LAY-1
  6
CONTINUOUS
 62
     2
100
AcDbLine
 10
282.069191
 20
36.497262
 30
0.0
 11
282.931198
 21
44.700736
 31
0.0
  0
LINE
  5
20D
100
AcDbEntity
  8
LAY-1
  6
CONTINUOUS
 62
     2
100
AcDbLine
 10
283.999466
 20
36.5
 30
0.0
 11
283.999466
 21
44.697999
 31
0.0
  0
LINE
  5
20E
100
AcDbEntity
  8
LAY-1
  6
CONTINUOUS
 62
     2
100
AcDbLine
 10
284.629044
 20
36.5
 30
0.0
 11
284.629044
 21
44.697999
 31
0.0
  0
LINE
  5
20F
100
AcDbEntity
  8
LAY-1
  6
CONTINUOUS
 62
     2
100
AcDbLine
 10
285.258659
 20
36.5
 30
0.0
 11
285.258659
 21
44.697999
 31
0.0
  0
LINE
  5
210
100
AcDbEntity
  8
LAY-1
  6
CONTINUOUS
 62
     2
100
AcDbLine
 10
285.552315
 20
44.038561
 30
0.0
 11
286.200089
 21
43.14596
 31
0.0
  0
LINE
  5
211
100
AcDbEntity
  8
LAY-1
  6
CONTINUOUS
 62
     2
100
AcDbLine
 10
285.552315
 20
43.066062
 30
0.0
 11
286.200089
 21
42.17346
 31
0.0
  0
LINE
  5
212
100
AcDbEntity
  8
LAY-1
  6
CONTINUOUS
 62
     2
100
AcDbLine
 10
287.117294
 20
44.29715
 30
0.0
 11
287.692207
 21
46.602844
 31
0.0
  0
LINE
  5
213
100
AcDbEntity
  8
LAY-1
  6
CONTINUOUS
 62
     2
100
AcDbLine
 10
287.71685
 20
44.297172
 30
0.0
 11
288.291306
 21
46.602822
 31
0.0
  0
LINE
  5
214
100
AcDbEntity
  8
LAY-1
  6
CONTINUOUS
 62
     2
100
AcDbLine
 10
288.240952
 20
44.29715
 30
0.0
 11
288.815865
 21
46.602844
 31
0.0
  0
LINE
  5
215
100
AcDbEntity
  8
LAY-1
  6
CONTINUOUS
 62
     2
100
AcDbLine
 10
290.425591
 20
45.697998
 30
0.0
 11
290.425591
 21
46.58799
 31
0.0
  0
LINE
  5
216
100
AcDbEntity
  8
LAY-1
  6
CONTINUOUS
 62
     2
100
AcDbLine
 10
291.105179
 20
45.697998
 30
0.0
 11
291.105179
 21
46.58799
 31
0.0
  0
LINE
  5
217
100
AcDbEntity
  8
LAY-1
  6
CONTINUOUS
 62
     2
100
AcDbLine
 10
291.734795
 20
45.697998
 30
0.0
 11
291.734795
 21
46.58799
 31
0.0
  0
LINE
  5
218
100
AcDbEntity
  8
LAY-1
  6
CONTINUOUS
 62
     2
100
AcDbLine
 10
288.965553
 20
45.197998
 30
0.0
 11
294.561943
 21
45.197998
 31
0.0
  0
LINE
  5
219
100
AcDbEntity
  8
LAY-1
  6
CONTINUOUS
 62
     2
100
AcDbLine
 10
290.425591
 20
44.697999
 30
0.0
 11
290.425591
 21
43.178009
 31
0.0
  0
LINE
  5
21A
100
AcDbEntity
  8
LAY-1
  6
CONTINUOUS
 62
     2
100
AcDbLine
 10
291.105179
 20
44.697999
 30
0.0
 11
291.105179
 21
43.178009
 31
0.0
  0
LINE
  5
21B
100
AcDbEntity
  8
LAY-1
  6
CONTINUOUS
 62
     2
100
AcDbLine
 10
291.734795
 20
44.697999
 30
0.0
 11
291.734795
 21
43.178009
 31
0.0
  0
LINE
  5
21C
100
AcDbEntity
  8
LAY-1
  6
CONTINUOUS
 62
     2
100
AcDbLine
 10
287.246002
 20
42.678009
 30
0.0
 11
294.814171
 21
42.678009
 31
0.0
  0
LINE
  5
21D
100
AcDbEntity
  8
LAY-1
  6
CONTINUOUS
 62
     2
100
AcDbLine
 10
288.361992
 20
42.186097
 30
0.0
 11
287.325195
 21
36.491912
 31
0.0
  0
LINE
  5
21E
100
AcDbEntity
  8
LAY-1
  6
CONTINUOUS
 62
     2
100
AcDbLine
 10
288.95182
 20
42.186097
 30
0.0
 11
287.915062
 21
36.491912
 31
0.0
  0
LINE
  5
21F
100
AcDbEntity
  8
LAY-1
  6
CONTINUOUS
 62
     2
100
AcDbLine
 10
289.472298
 20
42.186104
 30
0.0
 11
288.435005
 21
36.491905
 31
0.0
  0
LINE
  5
220
100
AcDbEntity
  8
LAY-1
  6
CONTINUOUS
 62
     2
100
AcDbLine
 10
290.425591
 20
42.17801
 30
0.0
 11
290.425591
 21
36.5
 31
0.0
  0
LINE
  5
221
100
AcDbEntity
  8
LAY-1
  6
CONTINUOUS
 62
     2
100
AcDbLine
 10
291.055168
 20
42.17801
 30
0.0
 11
291.055168
 21
36.5
 31
0.0
  0
LINE
  5
222
100
AcDbEntity
  8
LAY-1
  6
CONTINUOUS
 62
     2
100
AcDbLine
 10
291.734795
 20
42.17801
 30
0.0
 11
291.734795
 21
36.5
 31
0.0
  0
LINE
  5
223
100
AcDbEntity
  8
LAY-1
  6
CONTINUOUS
 62
     2
100
AcDbLine
 10
292.587379
 20
42.186104
 30
0.0
 11
293.624672
 21
36.491905
 31
0.0
  0
LINE
  5
224
100
AcDbEntity
  8
LAY-1
  6
CONTINUOUS
 62
     2
100
AcDbLine
 10
293.127731
 20
42.186104
 30
0.0
 11
294.165024
 21
36.491905
 31
0.0
  0
LINE
  5
225
100
AcDbEntity
  8
LAY-1
  6
CONTINUOUS
 62
     2
100
AcDbLine
 10
293.76757
 20
42.186104
 30
0.0
 11
294.804863
 21
36.491905
 31
0.0
  0
LINE
  5
226
100
AcDbEntity
  8
LAY-1
  6
CONTINUOUS
 62
     2
100
AcDbLine
 10
296.318153
 20
45.600039
 30
0.0
 11
303.456024
 21
45.600039
 31
0.0
  0
LINE
  5
227
100
AcDbEntity
  8
LAY-1
  6
CONTINUOUS
 62
     2
100
AcDbLine
 10
296.318153
 20
44.970041
 30
0.0
 11
303.685326
 21
44.970041
 31
0.0
  0
LINE
  5
228
100
AcDbEntity
  8
LAY-1
  6
CONTINUOUS
 62
     2
100
AcDbLine
 10
307.279152
 20
36.469847
 30
0.0
 11
303.585495
 21
46.618143
 31
0.0
  0
LINE
  5
229
100
AcDbEntity
  8
LAY-1
  6
CONTINUOUS
 62
     2
100
AcDbLine
 10
307.949242
 20
36.469849
 30
0.0
 11
304.255737
 21
46.618141
 31
0.0
  0
LINE
  5
22A
100
AcDbEntity
  8
LAY-1
  6
CONTINUOUS
 62
     2
100
AcDbLine
 10
308.619331
 20
36.469849
 30
0.0
 11
304.925827
 21
46.618141
 31
0.0
  0
LINE
  5
22B
100
AcDbEntity
  8
LAY-1
  6
CONTINUOUS
 62
     2
100
AcDbLine
 10
309.289421
 20
36.46984
 30
0.0
 11
305.595345
 21
46.618148
 31
0.0
  0
LINE
  5
22C
100
AcDbEntity
  8
LAY-1
  6
CONTINUOUS
 62
     2
100
AcDbLine
 10
307.385773
 20
46.100038
 30
0.0
 11
307.385773
 21
46.58799
 31
0.0
  0
LINE
  5
22D
100
AcDbEntity
  8
LAY-1
  6
CONTINUOUS
 62
     2
100
AcDbLine
 10
308.065399
 20
46.100038
 30
0.0
 11
308.065399
 21
46.58799
 31
0.0
  0
LINE
  5
22E
100
AcDbEntity
  8
LAY-1
  6
CONTINUOUS
 62
     2
100
AcDbLine
 10
308.744987
 20
46.100038
 30
0.0
 11
308.744987
 21
46.58799
 31
0.0
  0
LINE
  5
22F
100
AcDbEntity
  8
LAY-1
  6
CONTINUOUS
 62
     2
100
AcDbLine
 10
306.465935
 20
45.600039
 30
0.0
 11
309.430107
 21
45.600039
 31
0.0
  0
LINE
  5
230
100
AcDbEntity
  8
LAY-1
  6
CONTINUOUS
 62
     2
100
AcDbLine
 10
306.695274
 20
44.970041
 30
0.0
 11
309.430107
 21
44.970041
 31
0.0
  0
LINE
  5
231
100
AcDbEntity
  8
LAY-1
  6
CONTINUOUS
 62
     2
100
AcDbLine
 10
297.073883
 20
42.591024
 30
0.0
 11
303.634094
 21
42.591024
 31
0.0
  0
LINE
  5
232
100
AcDbEntity
  8
LAY-1
  6
CONTINUOUS
 62
     2
100
AcDbLine
 10
297.073883
 20
41.960989
 30
0.0
 11
303.634094
 21
41.960989
 31
0.0
  0
LINE
  5
233
100
AcDbEntity
  8
LAY-1
  6
CONTINUOUS
 62
     2
100
AcDbLine
 10
299.447731
 20
41.460989
 30
0.0
 11
299.447731
 21
38.947788
 31
0.0
  0
LINE
  5
234
100
AcDbEntity
  8
LAY-1
  6
CONTINUOUS
 62
     2
100
AcDbLine
 10
300.077309
 20
41.460989
 30
0.0
 11
300.077309
 21
39.081608
 31
0.0
  0
LINE
  5
235
100
AcDbEntity
  8
LAY-1
  6
CONTINUOUS
 62
     2
100
AcDbLine
 10
300.706886
 20
41.460989
 30
0.0
 11
300.706886
 21
39.21543
 31
0.0
  0
LINE
  5
236
100
AcDbEntity
  8
LAY-1
  6
CONTINUOUS
 62
     2
100
AcDbLine
 10
301.336502
 20
41.460989
 30
0.0
 11
301.336502
 21
39.349257
 31
0.0
  0
LINE
  5
237
100
AcDbEntity
  8
LAY-1
  6
CONTINUOUS
 62
     2
100
AcDbLine
 10
296.936821
 20
37.914079
 30
0.0
 11
303.771118
 21
39.366749
 31
0.0
  0
LINE
  5
238
100
AcDbEntity
  8
LAY-1
  6
CONTINUOUS
 62
     2
100
AcDbLine
 10
296.936821
 20
37.220007
 30
0.0
 11
303.771118
 21
38.672713
 31
0.0
  0
LINE
  5
239
100
AcDbEntity
  8
LAY-1
  6
CONTINUOUS
 62
     2
100
AcDbLine
 10
296.936821
 20
36.625932
 30
0.0
 11
303.771118
 21
38.078602
 31
0.0
  0
LINE
  5
23A
100
AcDbEntity
  8
LAY-1
  6
CONTINUOUS
 62
     2
100
AcDbLine
 10
310.908264
 20
44.581486
 30
0.0
 11
317.37883
 21
46.74635
 31
0.0
  0
LINE
  5
23B
100
AcDbEntity
  8
LAY-1
  6
CONTINUOUS
 62
     2
100
AcDbLine
 10
310.908264
 20
43.917156
 30
0.0
 11
317.37883
 21
46.082059
 31
0.0
  0
LINE
  5
23C
100
AcDbEntity
  8
LAY-1
  6
CONTINUOUS
 62
     2
100
AcDbLine
 10
317.852997
 20
46.746348
 30
0.0
 11
324.323601
 21
44.581326
 31
0.0
  0
LINE
  5
23D
100
AcDbEntity
  8
LAY-1
  6
CONTINUOUS
 62
     2
100
AcDbLine
 10
317.852997
 20
46.132058
 30
0.0
 11
324.323601
 21
43.967036
 31
0.0
  0
LINE
  5
23E
100
AcDbEntity
  8
LAY-1
  6
CONTINUOUS
 62
     2
100
AcDbLine
 10
322.156242
 20
43.899027
 30
0.0
 11
313.076118
 21
43.899027
 31
0.0
  0
LINE
  5
23F
100
AcDbEntity
  8
LAY-1
  6
CONTINUOUS
 62
     2
100
AcDbLine
 10
322.156242
 20
43.21899
 30
0.0
 11
313.076118
 21
43.21899
 31
0.0
  0
LINE
  5
240
100
AcDbEntity
  8
LAY-1
  6
CONTINUOUS
 62
     2
100
AcDbLine
 10
310.93409
 20
41.26598
 30
0.0
 11
324.297775
 21
41.26598
 31
0.0
  0
LINE
  5
241
100
AcDbEntity
  8
LAY-1
  6
CONTINUOUS
 62
     2
100
AcDbLine
 10
310.93409
 20
40.686022
 30
0.0
 11
324.297775
 21
40.686022
 31
0.0
  0
LINE
  5
242
100
AcDbEntity
  8
LAY-1
  6
CONTINUOUS
 62
     2
100
AcDbLine
 10
313.003334
 20
40.232883
 30
0.0
 11
311.727814
 21
37.498115
 31
0.0
  0
LINE
  5
243
100
AcDbEntity
  8
LAY-1
  6
CONTINUOUS
 62
     2
100
AcDbLine
 10
313.798584
 20
40.232886
 30
0.0
 11
312.523026
 21
37.498115
 31
0.0
  0
LINE
  5
244
100
AcDbEntity
  8
LAY-1
  6
CONTINUOUS
 62
     2
100
AcDbLine
 10
314.593834
 20
40.232886
 30
0.0
 11
313.318275
 21
37.498115
 31
0.0
  0
LINE
  5
245
100
AcDbEntity
  8
LAY-1
  6
CONTINUOUS
 62
     2
100
AcDbLine
 10
320.638527
 20
40.232917
 30
0.0
 11
321.914581
 21
37.498084
 31
0.0
  0
LINE
  5
246
100
AcDbEntity
  8
LAY-1
  6
CONTINUOUS
 62
     2
100
AcDbLine
 10
321.434273
 20
40.232855
 30
0.0
 11
322.709259
 21
37.498146
 31
0.0
  0
LINE
  5
247
100
AcDbEntity
  8
LAY-1
  6
CONTINUOUS
 62
     2
100
AcDbLine
 10
322.22998
 20
40.232829
 30
0.0
 11
323.504547
 21
37.498172
 31
0.0
  0
LINE
  5
248
100
AcDbEntity
  8
LAY-1
  6
CONTINUOUS
 62
     2
100
AcDbLine
 10
311.421341
 20
37.044979
 30
0.0
 11
323.810524
 21
37.044979
 31
0.0
  0
LINE
  5
249
100
AcDbEntity
  8
LAY-1
  6
CONTINUOUS
 62
     2
100
AcDbLine
 10
311.127571
 20
36.414982
 30
0.0
 11
324.104294
 21
36.414982
 31
0.0
  0
LINE
  5
24A
100
AcDbEntity
  8
LAY-1
  6
CONTINUOUS
 62
     2
100
AcDbLine
 10
328.099464
 20
46.100038
 30
0.0
 11
328.099464
 21
46.58799
 31
0.0
  0
LINE
  5
24B
100
AcDbEntity
  8
LAY-1
  6
CONTINUOUS
 62
     2
100
AcDbLine
 10
328.829063
 20
46.100038
 30
0.0
 11
328.829063
 21
46.58799
 31
0.0
  0
LINE
  5
24C
100
AcDbEntity
  8
LAY-1
  6
CONTINUOUS
 62
     2
100
AcDbLine
 10
329.558701
 20
46.100038
 30
0.0
 11
329.558701
 21
46.58799
 31
0.0
  0
LINE
  5
24D
100
AcDbEntity
  8
LAY-1
  6
CONTINUOUS
 62
     2
100
AcDbLine
 10
325.80172
 20
45.600039
 30
0.0
 11
331.521973
 21
45.600039
 31
0.0
  0
LINE
  5
24E
100
AcDbEntity
  8
LAY-1
  6
CONTINUOUS
 62
     2
100
AcDbLine
 10
325.80172
 20
44.970041
 30
0.0
 11
331.080956
 21
44.970041
 31
0.0
  0
LINE
  5
24F
100
AcDbEntity
  8
LAY-1
  6
CONTINUOUS
 62
     2
100
AcDbLine
 10
329.094795
 20
44.560419
 30
0.0
 11
325.58844
 21
39.55118
 31
0.0
  0
LINE
  5
250
100
AcDbEntity
  8
LAY-1
  6
CONTINUOUS
 62
     2
100
AcDbLine
 10
329.914154
 20
44.56045
 30
0.0
 11
325.588478
 21
38.382128
 31
0.0
  0
LINE
  5
251
100
AcDbEntity
  8
LAY-1
  6
CONTINUOUS
 62
     2
100
AcDbLine
 10
330.684494
 20
44.560443
 30
0.0
 11
325.588478
 21
37.281433
 31
0.0
  0
LINE
  5
252
100
AcDbEntity
  8
LAY-1
  6
CONTINUOUS
 62
     2
100
AcDbLine
 10
329.482483
 20
41.971727
 30
0.0
 11
331.696686
 21
40.42116
 31
0.0
  0
LINE
  5
253
100
AcDbEntity
  8
LAY-1
  6
CONTINUOUS
 62
     2
100
AcDbLine
 10
329.121117
 20
41.455499
 30
0.0
 11
331.696648
 21
39.651998
 31
0.0
  0
LINE
  5
254
100
AcDbEntity
  8
LAY-1
  6
CONTINUOUS
 62
     2
100
AcDbLine
 10
328.736252
 20
40.905782
 30
0.0
 11
331.696648
 21
38.832875
 31
0.0
  0
LINE
  5
255
100
AcDbEntity
  8
LAY-1
  6
CONTINUOUS
 62
     2
100
AcDbLine
 10
328.099464
 20
40.368057
 30
0.0
 11
328.099464
 21
36.5
 31
0.0
  0
LINE
  5
256
100
AcDbEntity
  8
LAY-1
  6
CONTINUOUS
 62
     2
100
AcDbLine
 10
328.829063
 20
40.340789
 30
0.0
 11
328.829063
 21
36.5
 31
0.0
  0
LINE
  5
257
100
AcDbEntity
  8
LAY-1
  6
CONTINUOUS
 62
     2
100
AcDbLine
 10
329.558701
 20
39.829892
 30
0.0
 11
329.558701
 21
36.5
 31
0.0
  0
LINE
  5
258
100
AcDbEntity
  8
LAY-1
  6
CONTINUOUS
 62
     2
100
AcDbLine
 10
334.903435
 20
37.544979
 30
0.0
 11
334.903435
 21
46.58799
 31
0.0
  0
LINE
  5
259
100
AcDbEntity
  8
LAY-1
  6
CONTINUOUS
 62
     2
100
AcDbLine
 10
335.633034
 20
37.544979
 30
0.0
 11
335.633034
 21
46.58799
 31
0.0
  0
LINE
  5
25A
100
AcDbEntity
  8
LAY-1
  6
CONTINUOUS
 62
     2
100
AcDbLine
 10
336.362671
 20
37.544979
 30
0.0
 11
336.362671
 21
46.58799
 31
0.0
  0
LINE
  5
25B
100
AcDbEntity
  8
LAY-1
  6
CONTINUOUS
 62
     2
100
AcDbLine
 10
332.606224
 20
43.836008
 30
0.0
 11
334.403442
 21
43.836008
 31
0.0
  0
LINE
  5
25C
100
AcDbEntity
  8
LAY-1
  6
CONTINUOUS
 62
     2
100
AcDbLine
 10
332.606224
 20
43.206049
 30
0.0
 11
334.403442
 21
43.206049
 31
0.0
  0
LINE
  5
25D
100
AcDbEntity
  8
LAY-1
  6
CONTINUOUS
 62
     2
100
AcDbLine
 10
336.862663
 20
43.836008
 30
0.0
 11
338.661942
 21
43.836008
 31
0.0
  0
LINE
  5
25E
100
AcDbEntity
  8
LAY-1
  6
CONTINUOUS
 62
     2
100
AcDbLine
 10
336.862663
 20
43.156048
 30
0.0
 11
338.661942
 21
43.156048
 31
0.0
  0
LINE
  5
25F
100
AcDbEntity
  8
LAY-1
  6
CONTINUOUS
 62
     2
100
AcDbLine
 10
331.597733
 20
37.044979
 30
0.0
 11
338.914169
 21
37.044979
 31
0.0
  0
LINE
  5
260
100
AcDbEntity
  8
LAY-1
  6
CONTINUOUS
 62
     2
100
AcDbLine
 10
331.597733
 20
36.414982
 30
0.0
 11
338.914169
 21
36.414982
 31
0.0
  0
LINE
  5
261
100
AcDbEntity
  8
LAY-1
  6
CONTINUOUS
 62
     2
100
AcDbLine
 10
274.618897
 20
40.838409
 30
0.0
 11
279.946007
 21
40.838409
 31
0.0
  0
LINE
  5
262
100
AcDbEntity
  8
LAY-1
  6
EXLTYPE2
 62
     6
100
AcDbLine
 10
0.0
 20
371.25
 30
0.0
 11
45.0
 21
371.25
 31
0.0
  0
LINE
  5
263
100
AcDbEntity
  8
LAY-1
  6
CONTINUOUS
 62
     7
100
AcDbLine
 10
45.0
 20
723.75
 30
0.0
 11
500.0
 21
723.75
 31
0.0
  0
TEXT
  5
264
100
AcDbEntity
  8
LAY-1
  6
CONTINUOUS
 62
     2
100
AcDbText
 10
222.5
 20
712.75
 30
0.0
 40
9.5
  1
番号
 41
0.994737
  7
EXCADSTD
 72
     5
 11
243.1235
 21
712.75
 31
0.0
100
AcDbText
  0
TEXT
  5
265
100
AcDbEntity
  8
LAY-1
  6
CONTINUOUS
 62
     2
100
AcDbText
 10
262.5
 20
712.75
 30
0.0
 40
9.5
  1
品名
 41
1.989474
  7
EXCADSTD
 72
     5
 11
303.747
 21
712.75
 31
0.0
100
AcDbText
  0
TEXT
  5
266
100
AcDbEntity
  8
LAY-1
  6
CONTINUOUS
 62
     2
100
AcDbText
 10
337.5
 20
712.75
 30
0.0
 40
9.5
  1
材質
 41
1.989474
  7
EXCADSTD
 72
     5
 11
378.747
 21
712.75
 31
0.0
100
AcDbText
  0
TEXT
  5
267
100
AcDbEntity
  8
LAY-1
  6
CONTINUOUS
 62
     2
100
AcDbText
 10
400.0
 20
712.75
 30
0.0
 40
9.5
  1
個数
 41
0.994737
  7
EXCADSTD
 72
     5
 11
420.6235
 21
712.75
 31
0.0
100
AcDbText
  0
TEXT
  5
268
100
AcDbEntity
  8
LAY-1
  6
CONTINUOUS
 62
     2
100
AcDbText
 10
440.0
 20
712.75
 30
0.0
 40
9.5
  1
備考
 41
1.989474
  7
EXCADSTD
 72
     5
 11
481.247
 21
712.75
 31
0.0
100
AcDbText
  0
TEXT
  5
269
100
AcDbEntity
  8
LAY-1
  6
CONTINUOUS
 62
     2
100
AcDbText
 10
228.75
 20
700.25
 30
0.0
 40
9.5
  1
１
 41
0.884211
  7
EXCADSTD
 72
     5
 11
236.75
 21
700.25
 31
0.0
100
AcDbText
  0
TEXT
  5
26A
100
AcDbEntity
  8
LAY-1
  6
CONTINUOUS
 62
     2
100
AcDbText
 10
228.75
 20
687.75
 30
0.0
 40
9.5
  1
２
 41
0.884211
  7
EXCADSTD
 72
     5
 11
236.75
 21
687.75
 31
0.0
100
AcDbText
  0
TEXT
  5
26B
100
AcDbEntity
  8
LAY-1
  6
CONTINUOUS
 62
     2
100
AcDbText
 10
228.75
 20
675.25
 30
0.0
 40
9.5
  1
３
 41
0.884211
  7
EXCADSTD
 72
     5
 11
236.75
 21
675.25
 31
0.0
100
AcDbText
  0
TEXT
  5
26C
100
AcDbEntity
  8
LAY-1
  6
CONTINUOUS
 62
     2
100
AcDbText
 10
228.75
 20
662.75
 30
0.0
 40
9.5
  1
４
 41
0.884211
  7
EXCADSTD
 72
     5
 11
236.75
 21
662.75
 31
0.0
100
AcDbText
  0
LINE
  5
26D
100
AcDbEntity
  8
LAY-1
  6
CONTINUOUS
 62
     6
100
AcDbLine
 10
220.0
 20
711.25
 30
0.0
 11
500.0
 21
711.25
 31
0.0
  0
LINE
  5
26E
100
AcDbEntity
  8
LAY-1
  6
CONTINUOUS
 62
     6
100
AcDbLine
 10
220.0
 20
698.75
 30
0.0
 11
500.0
 21
698.75
 31
0.0
  0
LINE
  5
26F
100
AcDbEntity
  8
LAY-1
  6
CONTINUOUS
 62
     6
100
AcDbLine
 10
220.0
 20
686.25
 30
0.0
 11
500.0
 21
686.25
 31
0.0
  0
LINE
  5
270
100
AcDbEntity
  8
LAY-1
  6
CONTINUOUS
 62
     6
100
AcDbLine
 10
220.0
 20
661.25
 30
0.0
 11
500.0
 21
661.25
 31
0.0
  0
LINE
  5
271
100
AcDbEntity
  8
LAY-1
  6
CONTINUOUS
 62
     6
100
AcDbLine
 10
220.0
 20
673.75
 30
0.0
 11
500.0
 21
673.75
 31
0.0
  0
LINE
  5
272
100
AcDbEntity
  8
LAY-1
  6
EXLTYPE2
 62
     6
100
AcDbLine
 10
45.0
 20
41.25
 30
0.0
 11
122.5
 21
41.25
 31
0.0
  0
CIRCLE
  5
273
100
AcDbEntity
  8
LAY-1
  6
CONTINUOUS
 62
     6
100
AcDbCircle
 10
57.5
 20
35.0
 30
0.0
 40
0.25
  0
CIRCLE
  5
274
100
AcDbEntity
  8
LAY-1
  6
CONTINUOUS
 62
     6
100
AcDbCircle
 10
70.0
 20
35.0
 30
0.0
 40
0.25
  0
CIRCLE
  5
275
100
AcDbEntity
  8
LAY-1
  6
CONTINUOUS
 62
     6
100
AcDbCircle
 10
96.25
 20
35.0
 30
0.0
 40
0.25
  0
CIRCLE
  5
276
100
AcDbEntity
  8
LAY-1
  6
CONTINUOUS
 62
     6
100
AcDbCircle
 10
108.75
 20
35.0
 30
0.0
 40
0.25
  0
TEXT
  5
277
100
AcDbEntity
  8
LAY-1
  6
CONTINUOUS
 62
     6
100
AcDbText
 10
158.875
 20
50.0
 30
0.0
 40
12.5
  1
又場
 41
0.8568
  7
EXCADSTD
 72
     5
 11
182.2483
 21
50.0
 31
0.0
100
AcDbText
  0
TEXT
  5
278
100
AcDbEntity
  8
LAY-1
  6
CONTINUOUS
 62
     6
100
AcDbText
 10
124.125
 20
50.0
 30
0.0
 40
12.5
  1
間瀬
 41
0.7728
  7
EXCADSTD
 72
     5
 11
145.2068
 21
50.0
 31
0.0
100
AcDbText
  0
TEXT
  5
279
100
AcDbEntity
  8
LAY-1
  6
CONTINUOUS
 62
     6
100
AcDbText
 10
146.125
 20
49.875
 30
0.0
 40
7.5
  1
ゆ
 41
0.98
  7
EXCADSTD
 72
     5
 11
153.125
 21
49.875
 31
0.0
100
AcDbText
  0
TEXT
  5
27A
100
AcDbEntity
  8
LAY-1
  6
CONTINUOUS
 62
     6
100
AcDbText
 10
51.875
 20
50.0
 30
0.0
 40
12.5
  1
風穴
 41
0.8736
  7
EXCADSTD
 72
     5
 11
75.7066
 21
50.0
 31
0.0
100
AcDbText
  0
TEXT
  5
27B
100
AcDbEntity
  8
LAY-1
  6
CONTINUOUS
 62
     6
100
AcDbText
 10
45.511029
 20
31.737518
 30
0.0
 40
6.25
  1
１７
 41
0.75768
  7
EXCADSTD
 72
     5
 11
55.845694
 21
31.737518
 31
0.0
100
AcDbText
  0
TEXT
  5
27C
100
AcDbEntity
  8
LAY-1
  6
CONTINUOUS
 62
     2
100
AcDbText
 10
406.25
 20
687.75
 30
0.0
 40
9.5
  1
１
 41
0.884211
  7
EXCADSTD
 72
     5
 11
414.25
 21
687.75
 31
0.0
100
AcDbText
  0
TEXT
  5
27D
100
AcDbEntity
  8
LAY-1
  6
CONTINUOUS
 62
     2
100
AcDbText
 10
406.25
 20
675.25
 30
0.0
 40
9.5
  1
２
 41
0.884211
  7
EXCADSTD
 72
     5
 11
414.25
 21
675.25
 31
0.0
100
AcDbText
  0
TEXT
  5
27E
100
AcDbEntity
  8
LAY-1
  6
CONTINUOUS
 62
     2
100
AcDbText
 10
326.0
 20
662.75
 30
0.0
 40
9.5
  1
ステンレス
 41
0.884211
  7
EXCADSTD
 72
     5
 11
376.0
 21
662.75
 31
0.0
100
AcDbText
  0
LINE
  5
27F
100
AcDbEntity
  8
LAY-1
  6
CONTINUOUS
 62
     6
100
AcDbLine
 10
220.0
 20
723.75
 30
0.0
 11
220.0
 21
661.25
 31
0.0
  0
LINE
  5
280
100
AcDbEntity
  8
LAY-1
  6
CONTINUOUS
 62
     6
100
AcDbLine
 10
247.5
 20
723.75
 30
0.0
 11
247.5
 21
661.25
 31
0.0
  0
LINE
  5
281
100
AcDbEntity
  8
LAY-1
  6
CONTINUOUS
 62
     6
100
AcDbLine
 10
322.5
 20
723.75
 30
0.0
 11
322.5
 21
661.25
 31
0.0
  0
LINE
  5
282
100
AcDbEntity
  8
LAY-1
  6
CONTINUOUS
 62
     6
100
AcDbLine
 10
397.5
 20
723.75
 30
0.0
 11
397.5
 21
661.25
 31
0.0
  0
LINE
  5
283
100
AcDbEntity
  8
LAY-1
  6
CONTINUOUS
 62
     6
100
AcDbLine
 10
425.0
 20
723.75
 30
0.0
 11
425.0
 21
661.25
 31
0.0
  0
TEXT
  5
284
100
AcDbEntity
  8
LAY-1
  6
CONTINUOUS
 62
     7
100
AcDbText
 10
379.375
 20
32.875
 30
0.0
 40
17.5
  1
９４９６００
 41
0.81
  7
EXCADSTD
 72
     5
 11
480.625
 21
32.875
 31
0.0
100
AcDbText
  0
TEXT
  5
285
100
AcDbEntity
  8
LAY-1
  6
CONTINUOUS
 62
     2
100
AcDbText
 10
367.75
 20
60.625
 30
0.0
 40
16.25
  1
ＮＡ２２１
 41
0.801231
  7
EXCADSTD
 72
     5
 11
445.25
 21
60.625
 31
0.0
100
AcDbText
  0
TEXT
  5
286
100
AcDbEntity
  8
LAY-1
  6
CONTINUOUS
 62
     2
100
AcDbText
 10
326.0
 20
675.25
 30
0.0
 40
9.5
  1
アルミニウム
 41
0.884211
  7
EXCADSTD
 72
     5
 11
386.0
 21
675.25
 31
0.0
100
AcDbText
  0
TEXT
  5
287
100
AcDbEntity
  8
LAY-1
  6
CONTINUOUS
 62
     2
100
AcDbText
 10
326.0
 20
700.25
 30
0.0
 40
9.5
  1
ステンレス
 41
0.884211
  7
EXCADSTD
 72
     5
 11
376.0
 21
700.25
 31
0.0
100
AcDbText
  0
TEXT
  5
288
100
AcDbEntity
  8
LAY-1
  6
CONTINUOUS
 62
     2
100
AcDbText
 10
326.0
 20
687.75
 30
0.0
 40
9.5
  1
ステンレス
 41
0.884211
  7
EXCADSTD
 72
     5
 11
376.0
 21
687.75
 31
0.0
100
AcDbText
  0
TEXT
  5
289
100
AcDbEntity
  8
LAY-1
  6
CONTINUOUS
 62
     2
100
AcDbText
 10
406.25
 20
700.25
 30
0.0
 40
9.5
  1
２
 41
0.884211
  7
EXCADSTD
 72
     5
 11
414.25
 21
700.25
 31
0.0
100
AcDbText
  0
TEXT
  5
28A
100
AcDbEntity
  8
LAY-1
  6
CONTINUOUS
 62
     2
100
AcDbText
 10
406.25
 20
662.75
 30
0.0
 40
9.5
  1
４
 41
0.884211
  7
EXCADSTD
 72
     5
 11
414.25
 21
662.75
 31
0.0
100
AcDbText
  0
TEXT
  5
28B
100
AcDbEntity
  8
LAY-1
  6
CONTINUOUS
 62
     6
100
AcDbText
 10
61.136029
 20
31.737518
 30
0.0
 40
6.25
  1
４
 41
0.89208
  7
EXCADSTD
 72
     5
 11
66.446029
 21
31.737518
 31
0.0
100
AcDbText
  0
TEXT
  5
28C
100
AcDbEntity
  8
LAY-1
  6
CONTINUOUS
 62
     6
100
AcDbText
 10
74.029779
 20
31.737518
 30
0.0
 40
6.25
  1
１
 41
0.89208
  7
EXCADSTD
 72
     5
 11
79.339779
 21
31.737518
 31
0.0
100
AcDbText
  0
TEXT
  5
28D
100
AcDbEntity
  8
LAY-1
  6
CONTINUOUS
 62
     2
100
AcDbText
 10
251.0
 20
700.25
 30
0.0
 40
9.5
  1
エンドキャップ
 41
0.732632
  7
EXCADSTD
 72
     5
 11
309.0
 21
700.25
 31
0.0
100
AcDbText
  0
TEXT
  5
28E
100
AcDbEntity
  8
LAY-1
  6
CONTINUOUS
 62
     2
100
AcDbText
 10
251.0
 20
687.75
 30
0.0
 40
9.5
  1
バー
 41
0.795789
  7
EXCADSTD
 72
     5
 11
267.4988
 21
687.75
 31
0.0
100
AcDbText
  0
TEXT
  5
28F
100
AcDbEntity
  8
LAY-1
  6
CONTINUOUS
 62
     2
100
AcDbText
 10
251.0
 20
675.25
 30
0.0
 40
9.5
  1
アームブラケット
 41
0.729474
  7
EXCADSTD
 72
     5
 11
317.0
 21
675.25
 31
0.0
100
AcDbText
  0
TEXT
  5
290
100
AcDbEntity
  8
LAY-1
  6
CONTINUOUS
 62
     2
100
AcDbText
 10
251.0
 20
662.75
 30
0.0
 40
9.5
  1
取付ネジ
 41
0.751579
  7
EXCADSTD
 72
     5
 11
285.0
 21
662.75
 31
0.0
100
AcDbText
  0
TEXT
  5
291
100
AcDbEntity
  8
LAY-1
  6
CONTINUOUS
 62
     2
100
AcDbText
 10
230.0
 20
60.125
 30
0.0
 40
16.25
  1
タオルバー
 41
0.904615
  7
EXCADSTD
 72
     5
 11
317.5
 21
60.125
 31
0.0
100
AcDbText
  0
TEXT
  5
292
100
AcDbEntity
  8
LAY-1
  6
CONTINUOUS
 62
     2
100
AcDbText
 10
428.5
 20
662.75
 30
0.0
 40
9.5
  1
呼ビ４×３０
 41
0.884211
  7
EXCADSTD
 72
     5
 11
488.5
 21
662.75
 31
0.0
100
AcDbText
  0
LINE
  5
293
100
AcDbEntity
  8
LAY-2
  6
EXLTYPE3
 62
     6
100
AcDbLine
 10
286.619995
 20
436.465241
 30
0.0
 11
77.924227
 21
436.465241
 31
0.0
  0
LINE
  5
294
100
AcDbEntity
  8
LAY-2
  6
EXLTYPE3
 62
     6
100
AcDbLine
 10
97.999997
 20
448.518672
 30
0.0
 11
97.999997
 21
389.846549
 31
0.0
  0
LINE
  5
295
100
AcDbEntity
  8
LAY-2
  6
EXLTYPE3
 62
     6
100
AcDbLine
 10
104.948577
 20
402.965239
 30
0.0
 11
91.081637
 21
402.965239
 31
0.0
  0
LINE
  5
296
100
AcDbEntity
  8
LAY-2
  6
EXLTYPE3
 62
     6
100
AcDbLine
 10
104.583647
 20
420.96524
 30
0.0
 11
91.355317
 21
420.96524
 31
0.0
  0
LINE
  5
297
100
AcDbEntity
  8
LAY-2
  6
EXLTYPE3
 62
     6
100
AcDbLine
 10
268.0
 20
448.014483
 30
0.0
 11
268.0
 21
390.813346
 31
0.0
  0
LINE
  5
298
100
AcDbEntity
  8
LAY-2
  6
EXLTYPE3
 62
     6
100
AcDbLine
 10
261.051414
 20
402.965239
 30
0.0
 11
274.91835
 21
402.965239
 31
0.0
  0
LINE
  5
299
100
AcDbEntity
  8
LAY-2
  6
EXLTYPE3
 62
     6
100
AcDbLine
 10
261.416336
 20
420.96524
 30
0.0
 11
274.644668
 21
420.96524
 31
0.0
  0
LINE
  5
29A
100
AcDbEntity
  8
LAY-2
  6
CONTINUOUS
 62
     2
100
AcDbLine
 10
253.0
 20
446.465241
 30
0.0
 11
283.0
 21
446.465241
 31
0.0
  0
LINE
  5
29B
100
AcDbEntity
  8
LAY-2
  6
CONTINUOUS
 62
     2
100
AcDbLine
 10
253.0
 20
426.465241
 30
0.0
 11
283.119995
 21
426.465241
 31
0.0
  0
LINE
  5
29C
100
AcDbEntity
  8
LAY-2
  6
CONTINUOUS
 62
     2
100
AcDbLine
 10
253.000015
 20
393.965239
 30
0.0
 11
283.000015
 21
393.965239
 31
0.0
  0
LINE
  5
29D
100
AcDbEntity
  8
LAY-2
  6
CONTINUOUS
 62
     2
100
AcDbLine
 10
253.0
 20
446.465238
 30
0.0
 11
253.0
 21
393.965239
 31
0.0
  0
LINE
  5
29E
100
AcDbEntity
  8
LAY-2
  6
CONTINUOUS
 62
     2
100
AcDbLine
 10
283.0
 20
446.465245
 30
0.0
 11
283.0
 21
393.965247
 31
0.0
  0
LINE
  5
29F
100
AcDbEntity
  8
LAY-2
  6
CONTINUOUS
 62
     2
100
AcDbLine
 10
268.600006
 20
401.365241
 30
0.0
 11
268.600006
 21
400.965239
 31
0.0
  0
LINE
  5
2A0
100
AcDbEntity
  8
LAY-2
  6
CONTINUOUS
 62
     2
100
AcDbLine
 10
267.399994
 20
404.965239
 30
0.0
 11
267.399994
 21
404.565238
 31
0.0
  0
LINE
  5
2A1
100
AcDbEntity
  8
LAY-2
  6
CONTINUOUS
 62
     2
100
AcDbLine
 10
266.0
 20
403.565238
 30
0.0
 11
266.400009
 21
403.565238
 31
0.0
  0
LINE
  5
2A2
100
AcDbEntity
  8
LAY-2
  6
CONTINUOUS
 62
     2
100
AcDbLine
 10
269.600006
 20
402.365241
 30
0.0
 11
270.0
 21
402.365241
 31
0.0
  0
LINE
  5
2A3
100
AcDbEntity
  8
LAY-2
  6
CONTINUOUS
 62
     2
100
AcDbLine
 10
267.400009
 20
404.965239
 30
0.0
 11
268.600006
 21
404.965239
 31
0.0
  0
LINE
  5
2A4
100
AcDbEntity
  8
LAY-2
  6
CONTINUOUS
 62
     2
100
AcDbLine
 10
267.400009
 20
400.965239
 30
0.0
 11
268.600006
 21
400.965239
 31
0.0
  0
LINE
  5
2A5
100
AcDbEntity
  8
LAY-2
  6
CONTINUOUS
 62
     2
100
AcDbLine
 10
266.0
 20
403.565238
 30
0.0
 11
266.0
 21
402.365241
 31
0.0
  0
LINE
  5
2A6
100
AcDbEntity
  8
LAY-2
  6
CONTINUOUS
 62
     2
100
AcDbLine
 10
270.0
 20
403.565238
 30
0.0
 11
270.0
 21
402.365241
 31
0.0
  0
LINE
  5
2A7
100
AcDbEntity
  8
LAY-2
  6
CONTINUOUS
 62
     2
100
AcDbLine
 10
268.600006
 20
404.965239
 30
0.0
 11
268.600006
 21
404.565238
 31
0.0
  0
LINE
  5
2A8
100
AcDbEntity
  8
LAY-2
  6
CONTINUOUS
 62
     2
100
AcDbLine
 10
267.399994
 20
401.365241
 30
0.0
 11
267.399994
 21
400.965239
 31
0.0
  0
LINE
  5
2A9
100
AcDbEntity
  8
LAY-2
  6
CONTINUOUS
 62
     2
100
AcDbLine
 10
266.0
 20
402.365241
 30
0.0
 11
266.400009
 21
402.365241
 31
0.0
  0
LINE
  5
2AA
100
AcDbEntity
  8
LAY-2
  6
CONTINUOUS
 62
     2
100
AcDbLine
 10
269.600006
 20
403.565238
 30
0.0
 11
270.0
 21
403.565238
 31
0.0
  0
LINE
  5
2AB
100
AcDbEntity
  8
LAY-2
  6
CONTINUOUS
 62
     2
100
AcDbLine
 10
267.399994
 20
400.965239
 30
0.0
 11
267.399994
 21
399.010497
 31
0.0
  0
LINE
  5
2AC
100
AcDbEntity
  8
LAY-2
  6
CONTINUOUS
 62
     2
100
AcDbLine
 10
268.600006
 20
400.965239
 30
0.0
 11
268.600006
 21
399.010497
 31
0.0
  0
LINE
  5
2AD
100
AcDbEntity
  8
LAY-2
  6
CONTINUOUS
 62
     2
100
AcDbLine
 10
268.600006
 20
404.965239
 30
0.0
 11
268.600006
 21
406.919982
 31
0.0
  0
LINE
  5
2AE
100
AcDbEntity
  8
LAY-2
  6
CONTINUOUS
 62
     2
100
AcDbLine
 10
267.399994
 20
404.965239
 30
0.0
 11
267.399994
 21
406.919982
 31
0.0
  0
LINE
  5
2AF
100
AcDbEntity
  8
LAY-2
  6
CONTINUOUS
 62
     2
100
AcDbLine
 10
270.0
 20
402.365241
 30
0.0
 11
271.954742
 21
402.365241
 31
0.0
  0
LINE
  5
2B0
100
AcDbEntity
  8
LAY-2
  6
CONTINUOUS
 62
     2
100
AcDbLine
 10
270.0
 20
403.565238
 30
0.0
 11
271.954742
 21
403.565238
 31
0.0
  0
LINE
  5
2B1
100
AcDbEntity
  8
LAY-2
  6
CONTINUOUS
 62
     2
100
AcDbLine
 10
266.0
 20
403.565238
 30
0.0
 11
264.045257
 21
403.565238
 31
0.0
  0
LINE
  5
2B2
100
AcDbEntity
  8
LAY-2
  6
CONTINUOUS
 62
     2
100
AcDbLine
 10
266.0
 20
402.365241
 30
0.0
 11
264.045257
 21
402.365241
 31
0.0
  0
LINE
  5
2B3
100
AcDbEntity
  8
LAY-2
  6
CONTINUOUS
 62
     2
100
AcDbLine
 10
268.600006
 20
419.365241
 30
0.0
 11
268.600006
 21
418.96524
 31
0.0
  0
LINE
  5
2B4
100
AcDbEntity
  8
LAY-2
  6
CONTINUOUS
 62
     2
100
AcDbLine
 10
267.399994
 20
422.96524
 30
0.0
 11
267.399994
 21
422.56524
 31
0.0
  0
LINE
  5
2B5
100
AcDbEntity
  8
LAY-2
  6
CONTINUOUS
 62
     2
100
AcDbLine
 10
266.0
 20
421.565238
 30
0.0
 11
266.400009
 21
421.565238
 31
0.0
  0
LINE
  5
2B6
100
AcDbEntity
  8
LAY-2
  6
CONTINUOUS
 62
     2
100
AcDbLine
 10
269.600006
 20
420.365241
 30
0.0
 11
270.0
 21
420.365241
 31
0.0
  0
LINE
  5
2B7
100
AcDbEntity
  8
LAY-2
  6
CONTINUOUS
 62
     2
100
AcDbLine
 10
267.400009
 20
422.96524
 30
0.0
 11
268.600006
 21
422.96524
 31
0.0
  0
LINE
  5
2B8
100
AcDbEntity
  8
LAY-2
  6
CONTINUOUS
 62
     2
100
AcDbLine
 10
267.400009
 20
418.96524
 30
0.0
 11
268.600006
 21
418.96524
 31
0.0
  0
LINE
  5
2B9
100
AcDbEntity
  8
LAY-2
  6
CONTINUOUS
 62
     2
100
AcDbLine
 10
266.0
 20
421.565238
 30
0.0
 11
266.0
 21
420.365241
 31
0.0
  0
LINE
  5
2BA
100
AcDbEntity
  8
LAY-2
  6
CONTINUOUS
 62
     2
100
AcDbLine
 10
270.0
 20
421.565238
 30
0.0
 11
270.0
 21
420.365241
 31
0.0
  0
LINE
  5
2BB
100
AcDbEntity
  8
LAY-2
  6
CONTINUOUS
 62
     2
100
AcDbLine
 10
268.600006
 20
422.96524
 30
0.0
 11
268.600006
 21
422.56524
 31
0.0
  0
LINE
  5
2BC
100
AcDbEntity
  8
LAY-2
  6
CONTINUOUS
 62
     2
100
AcDbLine
 10
267.399994
 20
419.365241
 30
0.0
 11
267.399994
 21
418.96524
 31
0.0
  0
LINE
  5
2BD
100
AcDbEntity
  8
LAY-2
  6
CONTINUOUS
 62
     2
100
AcDbLine
 10
266.0
 20
420.365241
 30
0.0
 11
266.400009
 21
420.365241
 31
0.0
  0
LINE
  5
2BE
100
AcDbEntity
  8
LAY-2
  6
CONTINUOUS
 62
     2
100
AcDbLine
 10
269.600006
 20
421.565238
 30
0.0
 11
270.0
 21
421.565238
 31
0.0
  0
LINE
  5
2BF
100
AcDbEntity
  8
LAY-2
  6
CONTINUOUS
 62
     2
100
AcDbLine
 10
267.399994
 20
418.96524
 30
0.0
 11
267.399994
 21
417.010497
 31
0.0
  0
LINE
  5
2C0
100
AcDbEntity
  8
LAY-2
  6
CONTINUOUS
 62
     2
100
AcDbLine
 10
268.600006
 20
418.96524
 30
0.0
 11
268.600006
 21
417.010497
 31
0.0
  0
LINE
  5
2C1
100
AcDbEntity
  8
LAY-2
  6
CONTINUOUS
 62
     2
100
AcDbLine
 10
268.600006
 20
422.96524
 30
0.0
 11
268.600006
 21
424.919984
 31
0.0
  0
LINE
  5
2C2
100
AcDbEntity
  8
LAY-2
  6
CONTINUOUS
 62
     2
100
AcDbLine
 10
267.399994
 20
422.96524
 30
0.0
 11
267.399994
 21
424.919984
 31
0.0
  0
LINE
  5
2C3
100
AcDbEntity
  8
LAY-2
  6
CONTINUOUS
 62
     2
100
AcDbLine
 10
270.0
 20
420.365241
 30
0.0
 11
271.954742
 21
420.365241
 31
0.0
  0
LINE
  5
2C4
100
AcDbEntity
  8
LAY-2
  6
CONTINUOUS
 62
     2
100
AcDbLine
 10
270.0
 20
421.565238
 30
0.0
 11
271.954742
 21
421.565238
 31
0.0
  0
LINE
  5
2C5
100
AcDbEntity
  8
LAY-2
  6
CONTINUOUS
 62
     2
100
AcDbLine
 10
266.0
 20
421.565238
 30
0.0
 11
264.045257
 21
421.565238
 31
0.0
  0
LINE
  5
2C6
100
AcDbEntity
  8
LAY-2
  6
CONTINUOUS
 62
     2
100
AcDbLine
 10
266.0
 20
420.365241
 30
0.0
 11
264.045257
 21
420.365241
 31
0.0
  0
LINE
  5
2C7
100
AcDbEntity
  8
LAY-2
  6
EXLTYPE1
 62
     2
100
AcDbLine
 10
273.0
 20
436.552745
 30
0.0
 11
273.0
 21
431.465245
 31
0.0
  0
LINE
  5
2C8
100
AcDbEntity
  8
LAY-2
  6
EXLTYPE1
 62
     2
100
AcDbLine
 10
273.0
 20
441.465238
 30
0.0
 11
277.0
 21
441.465238
 31
0.0
  0
LINE
  5
2C9
100
AcDbEntity
  8
LAY-2
  6
EXLTYPE1
 62
     2
100
AcDbLine
 10
281.0
 20
440.965238
 30
0.0
 11
281.0
 21
441.465238
 31
0.0
  0
LINE
  5
2CA
100
AcDbEntity
  8
LAY-2
  6
EXLTYPE1
 62
     2
100
AcDbLine
 10
277.0
 20
440.965238
 30
0.0
 11
277.0
 21
441.465238
 31
0.0
  0
LINE
  5
2CB
100
AcDbEntity
  8
LAY-2
  6
EXLTYPE1
 62
     2
100
AcDbLine
 10
277.0
 20
440.965238
 30
0.0
 11
281.0
 21
440.965238
 31
0.0
  0
LINE
  5
2CC
100
AcDbEntity
  8
LAY-2
  6
EXLTYPE1
 62
     2
100
AcDbLine
 10
273.0
 20
431.465245
 30
0.0
 11
253.0
 21
431.465245
 31
0.0
  0
LINE
  5
2CD
100
AcDbEntity
  8
LAY-2
  6
EXLTYPE1
 62
     2
100
AcDbLine
 10
273.0
 20
436.377746
 30
0.0
 11
273.0
 21
441.465245
 31
0.0
  0
LINE
  5
2CE
100
AcDbEntity
  8
LAY-2
  6
EXLTYPE1
 62
     2
100
AcDbLine
 10
273.0
 20
441.465245
 30
0.0
 11
253.0
 21
441.465245
 31
0.0
  0
LINE
  5
2CF
100
AcDbEntity
  8
LAY-2
  6
EXLTYPE1
 62
     2
100
AcDbLine
 10
281.0
 20
431.965238
 30
0.0
 11
281.0
 21
431.465238
 31
0.0
  0
LINE
  5
2D0
100
AcDbEntity
  8
LAY-2
  6
EXLTYPE1
 62
     2
100
AcDbLine
 10
277.0
 20
431.965238
 30
0.0
 11
281.0
 21
431.965238
 31
0.0
  0
LINE
  5
2D1
100
AcDbEntity
  8
LAY-2
  6
EXLTYPE1
 62
     2
100
AcDbLine
 10
277.0
 20
431.965238
 30
0.0
 11
277.0
 21
431.465238
 31
0.0
  0
LINE
  5
2D2
100
AcDbEntity
  8
LAY-2
  6
EXLTYPE1
 62
     2
100
AcDbLine
 10
273.0
 20
431.465238
 30
0.0
 11
277.0
 21
431.465238
 31
0.0
  0
LINE
  5
2D3
100
AcDbEntity
  8
LAY-2
  6
EXLTYPE1
 62
     2
100
AcDbLine
 10
92.999997
 20
436.552745
 30
0.0
 11
92.999997
 21
431.465245
 31
0.0
  0
LINE
  5
2D4
100
AcDbEntity
  8
LAY-2
  6
CONTINUOUS
 62
     2
100
AcDbLine
 10
112.999997
 20
446.465241
 30
0.0
 11
82.999997
 21
446.465241
 31
0.0
  0
LINE
  5
2D5
100
AcDbEntity
  8
LAY-2
  6
CONTINUOUS
 62
     2
100
AcDbLine
 10
112.999997
 20
426.465241
 30
0.0
 11
82.880007
 21
426.465241
 31
0.0
  0
LINE
  5
2D6
100
AcDbEntity
  8
LAY-2
  6
CONTINUOUS
 62
     2
100
AcDbLine
 10
112.999967
 20
393.965239
 30
0.0
 11
82.999967
 21
393.965239
 31
0.0
  0
LINE
  5
2D7
100
AcDbEntity
  8
LAY-2
  6
CONTINUOUS
 62
     2
100
AcDbLine
 10
112.999997
 20
446.465238
 30
0.0
 11
112.999997
 21
393.965239
 31
0.0
  0
LINE
  5
2D8
100
AcDbEntity
  8
LAY-2
  6
CONTINUOUS
 62
     2
100
AcDbLine
 10
82.999997
 20
446.465245
 30
0.0
 11
82.999997
 21
393.965247
 31
0.0
  0
LINE
  5
2D9
100
AcDbEntity
  8
LAY-2
  6
CONTINUOUS
 62
     2
100
AcDbLine
 10
97.399997
 20
401.365241
 30
0.0
 11
97.399997
 21
400.965239
 31
0.0
  0
LINE
  5
2DA
100
AcDbEntity
  8
LAY-2
  6
CONTINUOUS
 62
     2
100
AcDbLine
 10
98.600007
 20
404.965239
 30
0.0
 11
98.600007
 21
404.565238
 31
0.0
  0
LINE
  5
2DB
100
AcDbEntity
  8
LAY-2
  6
CONTINUOUS
 62
     2
100
AcDbLine
 10
99.999997
 20
403.565238
 30
0.0
 11
99.600007
 21
403.565238
 31
0.0
  0
LINE
  5
2DC
100
AcDbEntity
  8
LAY-2
  6
CONTINUOUS
 62
     2
100
AcDbLine
 10
96.399997
 20
402.365241
 30
0.0
 11
95.999997
 21
402.365241
 31
0.0
  0
LINE
  5
2DD
100
AcDbEntity
  8
LAY-2
  6
CONTINUOUS
 62
     2
100
AcDbLine
 10
98.600007
 20
404.965239
 30
0.0
 11
97.399997
 21
404.965239
 31
0.0
  0
LINE
  5
2DE
100
AcDbEntity
  8
LAY-2
  6
CONTINUOUS
 62
     2
100
AcDbLine
 10
98.600007
 20
400.965239
 30
0.0
 11
97.399997
 21
400.965239
 31
0.0
  0
LINE
  5
2DF
100
AcDbEntity
  8
LAY-2
  6
CONTINUOUS
 62
     2
100
AcDbLine
 10
99.999997
 20
403.565238
 30
0.0
 11
99.999997
 21
402.365241
 31
0.0
  0
LINE
  5
2E0
100
AcDbEntity
  8
LAY-2
  6
CONTINUOUS
 62
     2
100
AcDbLine
 10
95.999997
 20
403.565238
 30
0.0
 11
95.999997
 21
402.365241
 31
0.0
  0
LINE
  5
2E1
100
AcDbEntity
  8
LAY-2
  6
CONTINUOUS
 62
     2
100
AcDbLine
 10
97.399997
 20
404.965239
 30
0.0
 11
97.399997
 21
404.565238
 31
0.0
  0
LINE
  5
2E2
100
AcDbEntity
  8
LAY-2
  6
CONTINUOUS
 62
     2
100
AcDbLine
 10
98.600007
 20
401.365241
 30
0.0
 11
98.600007
 21
400.965239
 31
0.0
  0
LINE
  5
2E3
100
AcDbEntity
  8
LAY-2
  6
CONTINUOUS
 62
     2
100
AcDbLine
 10
99.999997
 20
402.365241
 30
0.0
 11
99.600007
 21
402.365241
 31
0.0
  0
LINE
  5
2E4
100
AcDbEntity
  8
LAY-2
  6
CONTINUOUS
 62
     2
100
AcDbLine
 10
96.399997
 20
403.565238
 30
0.0
 11
95.999997
 21
403.565238
 31
0.0
  0
LINE
  5
2E5
100
AcDbEntity
  8
LAY-2
  6
CONTINUOUS
 62
     2
100
AcDbLine
 10
98.600007
 20
400.965239
 30
0.0
 11
98.600007
 21
399.010497
 31
0.0
  0
LINE
  5
2E6
100
AcDbEntity
  8
LAY-2
  6
CONTINUOUS
 62
     2
100
AcDbLine
 10
97.399997
 20
400.965239
 30
0.0
 11
97.399997
 21
399.010497
 31
0.0
  0
LINE
  5
2E7
100
AcDbEntity
  8
LAY-2
  6
CONTINUOUS
 62
     2
100
AcDbLine
 10
97.399997
 20
404.965239
 30
0.0
 11
97.399997
 21
406.919982
 31
0.0
  0
LINE
  5
2E8
100
AcDbEntity
  8
LAY-2
  6
CONTINUOUS
 62
     2
100
AcDbLine
 10
98.600007
 20
404.965239
 30
0.0
 11
98.600007
 21
406.919982
 31
0.0
  0
LINE
  5
2E9
100
AcDbEntity
  8
LAY-2
  6
CONTINUOUS
 62
     2
100
AcDbLine
 10
95.999997
 20
402.365241
 30
0.0
 11
94.045257
 21
402.365241
 31
0.0
  0
LINE
  5
2EA
100
AcDbEntity
  8
LAY-2
  6
CONTINUOUS
 62
     2
100
AcDbLine
 10
95.999997
 20
403.565238
 30
0.0
 11
94.045257
 21
403.565238
 31
0.0
  0
LINE
  5
2EB
100
AcDbEntity
  8
LAY-2
  6
CONTINUOUS
 62
     2
100
AcDbLine
 10
99.999997
 20
403.565238
 30
0.0
 11
101.954747
 21
403.565238
 31
0.0
  0
LINE
  5
2EC
100
AcDbEntity
  8
LAY-2
  6
CONTINUOUS
 62
     2
100
AcDbLine
 10
99.999997
 20
402.365241
 30
0.0
 11
101.954747
 21
402.365241
 31
0.0
  0
LINE
  5
2ED
100
AcDbEntity
  8
LAY-2
  6
CONTINUOUS
 62
     2
100
AcDbLine
 10
97.399997
 20
419.365241
 30
0.0
 11
97.399997
 21
418.96524
 31
0.0
  0
LINE
  5
2EE
100
AcDbEntity
  8
LAY-2
  6
CONTINUOUS
 62
     2
100
AcDbLine
 10
98.600007
 20
422.96524
 30
0.0
 11
98.600007
 21
422.56524
 31
0.0
  0
LINE
  5
2EF
100
AcDbEntity
  8
LAY-2
  6
CONTINUOUS
 62
     2
100
AcDbLine
 10
99.999997
 20
421.565238
 30
0.0
 11
99.600007
 21
421.565238
 31
0.0
  0
LINE
  5
2F0
100
AcDbEntity
  8
LAY-2
  6
CONTINUOUS
 62
     2
100
AcDbLine
 10
96.399997
 20
420.365241
 30
0.0
 11
95.999997
 21
420.365241
 31
0.0
  0
LINE
  5
2F1
100
AcDbEntity
  8
LAY-2
  6
CONTINUOUS
 62
     2
100
AcDbLine
 10
98.600007
 20
422.96524
 30
0.0
 11
97.399997
 21
422.96524
 31
0.0
  0
LINE
  5
2F2
100
AcDbEntity
  8
LAY-2
  6
CONTINUOUS
 62
     2
100
AcDbLine
 10
98.600007
 20
418.96524
 30
0.0
 11
97.399997
 21
418.96524
 31
0.0
  0
LINE
  5
2F3
100
AcDbEntity
  8
LAY-2
  6
CONTINUOUS
 62
     2
100
AcDbLine
 10
99.999997
 20
421.565238
 30
0.0
 11
99.999997
 21
420.365241
 31
0.0
  0
LINE
  5
2F4
100
AcDbEntity
  8
LAY-2
  6
CONTINUOUS
 62
     2
100
AcDbLine
 10
95.999997
 20
421.565238
 30
0.0
 11
95.999997
 21
420.365241
 31
0.0
  0
LINE
  5
2F5
100
AcDbEntity
  8
LAY-2
  6
CONTINUOUS
 62
     2
100
AcDbLine
 10
97.399997
 20
422.96524
 30
0.0
 11
97.399997
 21
422.56524
 31
0.0
  0
LINE
  5
2F6
100
AcDbEntity
  8
LAY-2
  6
CONTINUOUS
 62
     2
100
AcDbLine
 10
98.600007
 20
419.365241
 30
0.0
 11
98.600007
 21
418.96524
 31
0.0
  0
LINE
  5
2F7
100
AcDbEntity
  8
LAY-2
  6
CONTINUOUS
 62
     2
100
AcDbLine
 10
99.999997
 20
420.365241
 30
0.0
 11
99.600007
 21
420.365241
 31
0.0
  0
LINE
  5
2F8
100
AcDbEntity
  8
LAY-2
  6
CONTINUOUS
 62
     2
100
AcDbLine
 10
96.399997
 20
421.565238
 30
0.0
 11
95.999997
 21
421.565238
 31
0.0
  0
LINE
  5
2F9
100
AcDbEntity
  8
LAY-2
  6
CONTINUOUS
 62
     2
100
AcDbLine
 10
98.600007
 20
418.96524
 30
0.0
 11
98.600007
 21
417.010497
 31
0.0
  0
LINE
  5
2FA
100
AcDbEntity
  8
LAY-2
  6
CONTINUOUS
 62
     2
100
AcDbLine
 10
97.399997
 20
418.96524
 30
0.0
 11
97.399997
 21
417.010497
 31
0.0
  0
LINE
  5
2FB
100
AcDbEntity
  8
LAY-2
  6
CONTINUOUS
 62
     2
100
AcDbLine
 10
97.399997
 20
422.96524
 30
0.0
 11
97.399997
 21
424.919984
 31
0.0
  0
LINE
  5
2FC
100
AcDbEntity
  8
LAY-2
  6
CONTINUOUS
 62
     2
100
AcDbLine
 10
98.600007
 20
422.96524
 30
0.0
 11
98.600007
 21
424.919984
 31
0.0
  0
LINE
  5
2FD
100
AcDbEntity
  8
LAY-2
  6
CONTINUOUS
 62
     2
100
AcDbLine
 10
95.999997
 20
420.365241
 30
0.0
 11
94.045257
 21
420.365241
 31
0.0
  0
LINE
  5
2FE
100
AcDbEntity
  8
LAY-2
  6
CONTINUOUS
 62
     2
100
AcDbLine
 10
95.999997
 20
421.565238
 30
0.0
 11
94.045257
 21
421.565238
 31
0.0
  0
LINE
  5
2FF
100
AcDbEntity
  8
LAY-2
  6
CONTINUOUS
 62
     2
100
AcDbLine
 10
99.999997
 20
421.565238
 30
0.0
 11
101.954747
 21
421.565238
 31
0.0
  0
LINE
  5
300
100
AcDbEntity
  8
LAY-2
  6
CONTINUOUS
 62
     2
100
AcDbLine
 10
99.999997
 20
420.365241
 30
0.0
 11
101.954747
 21
420.365241
 31
0.0
  0
LINE
  5
301
100
AcDbEntity
  8
LAY-2
  6
EXLTYPE1
 62
     2
100
AcDbLine
 10
92.999997
 20
431.465245
 30
0.0
 11
112.999997
 21
431.465245
 31
0.0
  0
LINE
  5
302
100
AcDbEntity
  8
LAY-2
  6
EXLTYPE1
 62
     2
100
AcDbLine
 10
92.999997
 20
436.377746
 30
0.0
 11
92.999997
 21
441.465245
 31
0.0
  0
LINE
  5
303
100
AcDbEntity
  8
LAY-2
  6
EXLTYPE1
 62
     2
100
AcDbLine
 10
92.999997
 20
441.465245
 30
0.0
 11
112.999997
 21
441.465245
 31
0.0
  0
LINE
  5
304
100
AcDbEntity
  8
LAY-2
  6
CONTINUOUS
 62
     2
100
AcDbLine
 10
112.999997
 20
441.465241
 30
0.0
 11
174.658313
 21
441.465241
 31
0.0
  0
LINE
  5
305
100
AcDbEntity
  8
LAY-2
  6
CONTINUOUS
 62
     2
100
AcDbLine
 10
112.999997
 20
431.465241
 30
0.0
 11
174.658313
 21
431.465241
 31
0.0
  0
LINE
  5
306
100
AcDbEntity
  8
LAY-2
  6
CONTINUOUS
 62
     2
100
AcDbLine
 10
191.34169
 20
431.465241
 30
0.0
 11
253.0
 21
431.465241
 31
0.0
  0
LINE
  5
307
100
AcDbEntity
  8
LAY-2
  6
CONTINUOUS
 62
     2
100
AcDbLine
 10
191.34169
 20
441.465241
 30
0.0
 11
253.0
 21
441.465241
 31
0.0
  0
LINE
  5
308
100
AcDbEntity
  8
LAY-2
  6
EXLTYPE1
 62
     2
100
AcDbLine
 10
281.0
 20
431.465238
 30
0.0
 11
283.0
 21
431.465238
 31
0.0
  0
LINE
  5
309
100
AcDbEntity
  8
LAY-2
  6
EXLTYPE1
 62
     2
100
AcDbLine
 10
281.0
 20
441.465238
 30
0.0
 11
283.0
 21
441.465238
 31
0.0
  0
LINE
  5
30A
100
AcDbEntity
  8
LAY-2
  6
EXLTYPE1
 62
     2
100
AcDbLine
 10
92.999997
 20
441.465238
 30
0.0
 11
88.999997
 21
441.465238
 31
0.0
  0
LINE
  5
30B
100
AcDbEntity
  8
LAY-2
  6
EXLTYPE1
 62
     2
100
AcDbLine
 10
84.999997
 20
440.965238
 30
0.0
 11
84.999997
 21
441.465238
 31
0.0
  0
LINE
  5
30C
100
AcDbEntity
  8
LAY-2
  6
EXLTYPE1
 62
     2
100
AcDbLine
 10
88.999997
 20
440.965238
 30
0.0
 11
88.999997
 21
441.465238
 31
0.0
  0
LINE
  5
30D
100
AcDbEntity
  8
LAY-2
  6
EXLTYPE1
 62
     2
100
AcDbLine
 10
88.999997
 20
440.965238
 30
0.0
 11
84.999997
 21
440.965238
 31
0.0
  0
LINE
  5
30E
100
AcDbEntity
  8
LAY-2
  6
EXLTYPE1
 62
     2
100
AcDbLine
 10
84.999997
 20
431.965238
 30
0.0
 11
84.999997
 21
431.465238
 31
0.0
  0
LINE
  5
30F
100
AcDbEntity
  8
LAY-2
  6
EXLTYPE1
 62
     2
100
AcDbLine
 10
88.999997
 20
431.965238
 30
0.0
 11
84.999997
 21
431.965238
 31
0.0
  0
LINE
  5
310
100
AcDbEntity
  8
LAY-2
  6
EXLTYPE1
 62
     2
100
AcDbLine
 10
88.999997
 20
431.965238
 30
0.0
 11
88.999997
 21
431.465238
 31
0.0
  0
LINE
  5
311
100
AcDbEntity
  8
LAY-2
  6
EXLTYPE1
 62
     2
100
AcDbLine
 10
92.999997
 20
431.465238
 30
0.0
 11
88.999997
 21
431.465238
 31
0.0
  0
LINE
  5
312
100
AcDbEntity
  8
LAY-2
  6
EXLTYPE1
 62
     2
100
AcDbLine
 10
84.999997
 20
431.465238
 30
0.0
 11
82.999997
 21
431.465238
 31
0.0
  0
LINE
  5
313
100
AcDbEntity
  8
LAY-2
  6
EXLTYPE1
 62
     2
100
AcDbLine
 10
84.999997
 20
441.465238
 30
0.0
 11
82.999997
 21
441.465238
 31
0.0
  0
CIRCLE
  5
314
100
AcDbEntity
  8
LAY-2
  6
CONTINUOUS
 62
     2
100
AcDbCircle
 10
268.0
 20
402.965239
 30
0.0
 40
4.0
  0
ARC
  5
315
100
AcDbEntity
  8
LAY-2
  6
CONTINUOUS
 62
     2
100
AcDbCircle
 10
266.399994
 20
404.565238
 30
0.0
 40
1.0
100
AcDbArc
 50
270.00002
 51
0.0
  0
ARC
  5
316
100
AcDbEntity
  8
LAY-2
  6
CONTINUOUS
 62
     2
100
AcDbCircle
 10
269.600006
 20
401.365241
 30
0.0
 40
1.0
100
AcDbArc
 50
89.999982
 51
179.99996
  0
ARC
  5
317
100
AcDbEntity
  8
LAY-2
  6
CONTINUOUS
 62
     2
100
AcDbCircle
 10
269.600006
 20
404.565238
 30
0.0
 40
1.0
100
AcDbArc
 50
179.99998
 51
270.00002
  0
ARC
  5
318
100
AcDbEntity
  8
LAY-2
  6
CONTINUOUS
 62
     2
100
AcDbCircle
 10
266.399994
 20
401.365241
 30
0.0
 40
1.0
100
AcDbArc
 50
0.0
 51
89.999982
  0
ARC
  5
319
100
AcDbEntity
  8
LAY-2
  6
CONTINUOUS
 62
     2
100
AcDbCircle
 10
268.0
 20
402.965239
 30
0.0
 40
2.8
100
AcDbArc
 50
12.373625
 51
77.626377
  0
ARC
  5
31A
100
AcDbEntity
  8
LAY-2
  6
CONTINUOUS
 62
     2
100
AcDbCircle
 10
268.0
 20
402.965239
 30
0.0
 40
2.8
100
AcDbArc
 50
192.37361
 51
257.62636
  0
ARC
  5
31B
100
AcDbEntity
  8
LAY-2
  6
CONTINUOUS
 62
     2
100
AcDbCircle
 10
268.0
 20
402.965239
 30
0.0
 40
2.8
100
AcDbArc
 50
282.37362
 51
347.62637
  0
ARC
  5
31C
100
AcDbEntity
  8
LAY-2
  6
CONTINUOUS
 62
     2
100
AcDbCircle
 10
268.0
 20
402.965239
 30
0.0
 40
2.8
100
AcDbArc
 50
102.37364
 51
167.62639
  0
CIRCLE
  5
31D
100
AcDbEntity
  8
LAY-2
  6
CONTINUOUS
 62
     2
100
AcDbCircle
 10
268.0
 20
420.96524
 30
0.0
 40
4.0
  0
ARC
  5
31E
100
AcDbEntity
  8
LAY-2
  6
CONTINUOUS
 62
     2
100
AcDbCircle
 10
266.399994
 20
422.56524
 30
0.0
 40
1.0
100
AcDbArc
 50
270.00002
 51
0.0
  0
ARC
  5
31F
100
AcDbEntity
  8
LAY-2
  6
CONTINUOUS
 62
     2
100
AcDbCircle
 10
269.600006
 20
419.365241
 30
0.0
 40
1.0
100
AcDbArc
 50
89.999982
 51
179.99996
  0
ARC
  5
320
100
AcDbEntity
  8
LAY-2
  6
CONTINUOUS
 62
     2
100
AcDbCircle
 10
269.600006
 20
422.56524
 30
0.0
 40
1.0
100
AcDbArc
 50
179.99998
 51
270.00002
  0
ARC
  5
321
100
AcDbEntity
  8
LAY-2
  6
CONTINUOUS
 62
     2
100
AcDbCircle
 10
266.399994
 20
419.365241
 30
0.0
 40
1.0
100
AcDbArc
 50
0.0
 51
89.999982
  0
ARC
  5
322
100
AcDbEntity
  8
LAY-2
  6
CONTINUOUS
 62
     2
100
AcDbCircle
 10
268.0
 20
420.96524
 30
0.0
 40
2.8
100
AcDbArc
 50
12.373625
 51
77.626377
  0
ARC
  5
323
100
AcDbEntity
  8
LAY-2
  6
CONTINUOUS
 62
     2
100
AcDbCircle
 10
268.0
 20
420.96524
 30
0.0
 40
2.8
100
AcDbArc
 50
192.37361
 51
257.62636
  0
ARC
  5
324
100
AcDbEntity
  8
LAY-2
  6
CONTINUOUS
 62
     2
100
AcDbCircle
 10
268.0
 20
420.96524
 30
0.0
 40
2.8
100
AcDbArc
 50
282.37362
 51
347.62637
  0
ARC
  5
325
100
AcDbEntity
  8
LAY-2
  6
CONTINUOUS
 62
     2
100
AcDbCircle
 10
268.0
 20
420.96524
 30
0.0
 40
2.8
100
AcDbArc
 50
102.37364
 51
167.62639
  0
CIRCLE
  5
326
100
AcDbEntity
  8
LAY-2
  6
CONTINUOUS
 62
     2
100
AcDbCircle
 10
97.999997
 20
402.965239
 30
0.0
 40
4.0
  0
ARC
  5
327
100
AcDbEntity
  8
LAY-2
  6
CONTINUOUS
 62
     2
100
AcDbCircle
 10
99.600007
 20
404.565238
 30
0.0
 40
1.0
100
AcDbArc
 50
179.99996
 51
269.99995
  0
ARC
  5
328
100
AcDbEntity
  8
LAY-2
  6
CONTINUOUS
 62
     2
100
AcDbCircle
 10
96.399997
 20
401.365241
 30
0.0
 40
1.0
100
AcDbArc
 50
0.0
 51
89.999982
  0
ARC
  5
329
100
AcDbEntity
  8
LAY-2
  6
CONTINUOUS
 62
     2
100
AcDbCircle
 10
96.399997
 20
404.565238
 30
0.0
 40
1.0
100
AcDbArc
 50
269.99996
 51
0.0
  0
ARC
  5
32A
100
AcDbEntity
  8
LAY-2
  6
CONTINUOUS
 62
     2
100
AcDbCircle
 10
99.600007
 20
401.365241
 30
0.0
 40
1.0
100
AcDbArc
 50
89.999982
 51
179.99996
  0
ARC
  5
32B
100
AcDbEntity
  8
LAY-2
  6
CONTINUOUS
 62
     2
100
AcDbCircle
 10
97.999997
 20
402.965239
 30
0.0
 40
2.8
100
AcDbArc
 50
102.37359
 51
167.62634
  0
ARC
  5
32C
100
AcDbEntity
  8
LAY-2
  6
CONTINUOUS
 62
     2
100
AcDbCircle
 10
97.999997
 20
402.965239
 30
0.0
 40
2.8
100
AcDbArc
 50
282.37362
 51
347.62637
  0
ARC
  5
32D
100
AcDbEntity
  8
LAY-2
  6
CONTINUOUS
 62
     2
100
AcDbCircle
 10
97.999997
 20
402.965239
 30
0.0
 40
2.8
100
AcDbArc
 50
192.37361
 51
257.62636
  0
ARC
  5
32E
100
AcDbEntity
  8
LAY-2
  6
CONTINUOUS
 62
     2
100
AcDbCircle
 10
97.999997
 20
402.965239
 30
0.0
 40
2.8
100
AcDbArc
 50
12.373571
 51
77.626323
  0
CIRCLE
  5
32F
100
AcDbEntity
  8
LAY-2
  6
CONTINUOUS
 62
     2
100
AcDbCircle
 10
97.999997
 20
420.96524
 30
0.0
 40
4.0
  0
ARC
  5
330
100
AcDbEntity
  8
LAY-2
  6
CONTINUOUS
 62
     2
100
AcDbCircle
 10
99.600007
 20
422.56524
 30
0.0
 40
1.0
100
AcDbArc
 50
179.99996
 51
269.99995
  0
ARC
  5
331
100
AcDbEntity
  8
LAY-2
  6
CONTINUOUS
 62
     2
100
AcDbCircle
 10
96.399997
 20
419.365241
 30
0.0
 40
1.0
100
AcDbArc
 50
0.0
 51
89.999982
  0
ARC
  5
332
100
AcDbEntity
  8
LAY-2
  6
CONTINUOUS
 62
     2
100
AcDbCircle
 10
96.399997
 20
422.56524
 30
0.0
 40
1.0
100
AcDbArc
 50
269.99996
 51
0.0
  0
ARC
  5
333
100
AcDbEntity
  8
LAY-2
  6
CONTINUOUS
 62
     2
100
AcDbCircle
 10
99.600007
 20
419.365241
 30
0.0
 40
1.0
100
AcDbArc
 50
89.999982
 51
179.99996
  0
ARC
  5
334
100
AcDbEntity
  8
LAY-2
  6
CONTINUOUS
 62
     2
100
AcDbCircle
 10
97.999997
 20
420.96524
 30
0.0
 40
2.8
100
AcDbArc
 50
102.37359
 51
167.62634
  0
ARC
  5
335
100
AcDbEntity
  8
LAY-2
  6
CONTINUOUS
 62
     2
100
AcDbCircle
 10
97.999997
 20
420.96524
 30
0.0
 40
2.8
100
AcDbArc
 50
282.37362
 51
347.62637
  0
ARC
  5
336
100
AcDbEntity
  8
LAY-2
  6
CONTINUOUS
 62
     2
100
AcDbCircle
 10
97.999997
 20
420.96524
 30
0.0
 40
2.8
100
AcDbArc
 50
192.37361
 51
257.62636
  0
ARC
  5
337
100
AcDbEntity
  8
LAY-2
  6
CONTINUOUS
 62
     2
100
AcDbCircle
 10
97.999997
 20
420.96524
 30
0.0
 40
2.8
100
AcDbArc
 50
12.373571
 51
77.626323
  0
ARC
  5
338
100
AcDbEntity
  8
LAY-2
  6
CONTINUOUS
 62
     2
100
AcDbCircle
 10
193.0
 20
438.965241
 30
0.0
 40
3.0
100
AcDbArc
 50
123.55732
 51
236.44268
  0
ARC
  5
339
100
AcDbEntity
  8
LAY-2
  6
CONTINUOUS
 62
     2
100
AcDbCircle
 10
193.0
 20
433.965241
 30
0.0
 40
3.0
100
AcDbArc
 50
123.55732
 51
236.44268
  0
ARC
  5
33A
100
AcDbEntity
  8
LAY-2
  6
CONTINUOUS
 62
     2
100
AcDbCircle
 10
189.683376
 20
433.965241
 30
0.0
 40
3.0
100
AcDbArc
 50
303.55731
 51
56.442699
  0
ARC
  5
33B
100
AcDbEntity
  8
LAY-2
  6
CONTINUOUS
 62
     2
100
AcDbCircle
 10
173.0
 20
433.965241
 30
0.0
 40
3.0
100
AcDbArc
 50
303.55728
 51
56.442648
  0
ARC
  5
33C
100
AcDbEntity
  8
LAY-2
  6
CONTINUOUS
 62
     2
100
AcDbCircle
 10
176.316623
 20
438.965241
 30
0.0
 40
3.0
100
AcDbArc
 50
123.55733
 51
236.44273
  0
ARC
  5
33D
100
AcDbEntity
  8
LAY-2
  6
CONTINUOUS
 62
     2
100
AcDbCircle
 10
173.0
 20
438.965241
 30
0.0
 40
3.0
100
AcDbArc
 50
303.55728
 51
56.442648
  0
CIRCLE
  5
33E
100
AcDbEntity
  8
LAY-2
  6
CONTINUOUS
 62
     2
100
AcDbCircle
 10
268.0
 20
420.96524
 30
0.0
 40
4.35
  0
CIRCLE
  5
33F
100
AcDbEntity
  8
LAY-2
  6
CONTINUOUS
 62
     2
100
AcDbCircle
 10
268.0
 20
402.965239
 30
0.0
 40
4.35
  0
CIRCLE
  5
340
100
AcDbEntity
  8
LAY-2
  6
CONTINUOUS
 62
     2
100
AcDbCircle
 10
97.999997
 20
420.96524
 30
0.0
 40
4.35
  0
CIRCLE
  5
341
100
AcDbEntity
  8
LAY-2
  6
CONTINUOUS
 62
     2
100
AcDbCircle
 10
97.999997
 20
402.965239
 30
0.0
 40
4.35
  0
LINE
  5
342
100
AcDbEntity
  8
LAY-2
  6
EXLTYPE3
 62
     6
100
AcDbLine
 10
183.0
 20
437.765241
 30
0.0
 11
183.0
 21
435.165241
 31
0.0
  0
LINE
  5
343
100
AcDbEntity
  8
LAY-2
  6
EXLTYPE3
 62
     6
100
AcDbLine
 10
183.0
 20
443.465241
 30
0.0
 11
183.0
 21
440.365241
 31
0.0
  0
LINE
  5
344
100
AcDbEntity
  8
LAY-2
  6
EXLTYPE3
 62
     6
100
AcDbLine
 10
183.0
 20
432.565241
 30
0.0
 11
183.0
 21
429.465241
 31
0.0
  0
LINE
  5
345
100
AcDbEntity
  8
LAY-2
  6
EXLTYPE3
 62
     6
100
AcDbLine
 10
361.251654
 20
436.465241
 30
0.0
 11
386.543799
 21
436.465241
 31
0.0
  0
LINE
  5
346
100
AcDbEntity
  8
LAY-2
  6
EXLTYPE3
 62
     6
100
AcDbLine
 10
373.509146
 20
448.670243
 30
0.0
 11
373.509146
 21
423.890244
 31
0.0
  0
LINE
  5
347
100
AcDbEntity
  8
LAY-2
  6
CONTINUOUS
 62
     2
100
AcDbLine
 10
383.19161
 20
438.965241
 30
0.0
 11
423.509147
 21
438.965241
 31
0.0
  0
LINE
  5
348
100
AcDbEntity
  8
LAY-2
  6
CONTINUOUS
 62
     2
100
AcDbLine
 10
383.19161
 20
433.965241
 30
0.0
 11
413.509147
 21
433.965241
 31
0.0
  0
LINE
  5
349
100
AcDbEntity
  8
LAY-2
  6
CONTINUOUS
 62
     2
100
AcDbLine
 10
423.509127
 20
438.965241
 30
0.0
 11
423.509127
 21
393.965239
 31
0.0
  0
LINE
  5
34A
100
AcDbEntity
  8
LAY-2
  6
CONTINUOUS
 62
     2
100
AcDbLine
 10
421.509147
 20
393.965239
 30
0.0
 11
423.509147
 21
393.965239
 31
0.0
  0
LINE
  5
34B
100
AcDbEntity
  8
LAY-2
  6
CONTINUOUS
 62
     2
100
AcDbLine
 10
418.509127
 20
428.965241
 30
0.0
 11
418.509127
 21
396.96524
 31
0.0
  0
LINE
  5
34C
100
AcDbEntity
  8
LAY-2
  6
CONTINUOUS
 62
     2
100
AcDbLine
 10
432.875027
 20
400.965358
 30
0.0
 11
432.586347
 21
401.465355
 31
0.0
  0
LINE
  5
34D
100
AcDbEntity
  8
LAY-2
  6
CONTINUOUS
 62
     2
100
AcDbLine
 10
434.097007
 20
404.465236
 30
0.0
 11
435.452967
 21
404.465236
 31
0.0
  0
LINE
  5
34E
100
AcDbEntity
  8
LAY-2
  6
CONTINUOUS
 62
     2
100
AcDbLine
 10
433.808707
 20
404.965381
 30
0.0
 11
434.097387
 21
404.46537
 31
0.0
  0
LINE
  5
34F
100
AcDbEntity
  8
LAY-2
  6
CONTINUOUS
 62
     2
100
AcDbLine
 10
433.519887
 20
404.465242
 30
0.0
 11
433.808567
 21
404.965252
 31
0.0
  0
LINE
  5
350
100
AcDbEntity
  8
LAY-2
  6
CONTINUOUS
 62
     2
100
AcDbLine
 10
431.586537
 20
404.465171
 30
0.0
 11
431.875187
 21
404.965128
 31
0.0
  0
LINE
  5
351
100
AcDbEntity
  8
LAY-2
  6
CONTINUOUS
 62
     2
100
AcDbLine
 10
431.875387
 20
404.965385
 30
0.0
 11
432.164057
 21
404.465388
 31
0.0
  0
LINE
  5
352
100
AcDbEntity
  8
LAY-2
  6
CONTINUOUS
 62
     2
100
AcDbLine
 10
432.163657
 20
404.465236
 30
0.0
 11
433.519677
 21
404.465236
 31
0.0
  0
LINE
  5
353
100
AcDbEntity
  8
LAY-2
  6
CONTINUOUS
 62
     2
100
AcDbLine
 10
433.163217
 20
401.465177
 30
0.0
 11
432.163347
 21
404.465165
 31
0.0
  0
LINE
  5
354
100
AcDbEntity
  8
LAY-2
  6
CONTINUOUS
 62
     2
100
AcDbLine
 10
431.587257
 20
404.465602
 30
0.0
 11
432.587107
 21
401.465586
 31
0.0
  0
LINE
  5
355
100
AcDbEntity
  8
LAY-2
  6
CONTINUOUS
 62
     2
100
AcDbLine
 10
430.941617
 20
400.965303
 30
0.0
 11
430.652947
 21
401.4653
 31
0.0
  0
LINE
  5
356
100
AcDbEntity
  8
LAY-2
  6
CONTINUOUS
 62
     2
100
AcDbLine
 10
431.230507
 20
401.465137
 30
0.0
 11
430.941817
 21
400.965127
 31
0.0
  0
LINE
  5
357
100
AcDbEntity
  8
LAY-2
  6
CONTINUOUS
 62
     2
100
AcDbLine
 10
431.229967
 20
401.465181
 30
0.0
 11
430.230097
 21
404.465176
 31
0.0
  0
LINE
  5
358
100
AcDbEntity
  8
LAY-2
  6
CONTINUOUS
 62
     2
100
AcDbLine
 10
430.230307
 20
404.465236
 30
0.0
 11
431.586327
 21
404.465236
 31
0.0
  0
LINE
  5
359
100
AcDbEntity
  8
LAY-2
  6
CONTINUOUS
 62
     2
100
AcDbLine
 10
429.653267
 20
404.465215
 30
0.0
 11
429.941937
 21
404.965199
 31
0.0
  0
LINE
  5
35A
100
AcDbEntity
  8
LAY-2
  6
CONTINUOUS
 62
     2
100
AcDbLine
 10
429.941977
 20
404.965363
 30
0.0
 11
430.230657
 21
404.46536
 31
0.0
  0
LINE
  5
35B
100
AcDbEntity
  8
LAY-2
  6
CONTINUOUS
 62
     2
100
AcDbLine
 10
429.653797
 20
404.465529
 30
0.0
 11
430.653657
 21
401.465513
 31
0.0
  0
LINE
  5
35C
100
AcDbEntity
  8
LAY-2
  6
CONTINUOUS
 62
     2
100
AcDbLine
 10
428.297027
 20
404.465236
 30
0.0
 11
429.652977
 21
404.465236
 31
0.0
  0
LINE
  5
35D
100
AcDbEntity
  8
LAY-2
  6
CONTINUOUS
 62
     2
100
AcDbLine
 10
449.631227
 20
402.325246
 30
0.0
 11
449.552637
 21
402.461361
 31
0.0
  0
LINE
  5
35E
100
AcDbEntity
  8
LAY-2
  6
CONTINUOUS
 62
     2
100
AcDbLine
 10
448.053917
 20
401.685095
 30
0.0
 11
447.896747
 21
401.957314
 31
0.0
  0
LINE
  5
35F
100
AcDbEntity
  8
LAY-2
  6
CONTINUOUS
 62
     2
100
AcDbLine
 10
434.808357
 20
400.965385
 30
0.0
 11
434.519687
 21
401.465379
 31
0.0
  0
LINE
  5
360
100
AcDbEntity
  8
LAY-2
  6
CONTINUOUS
 62
     2
100
AcDbLine
 10
435.096657
 20
401.465158
 30
0.0
 11
434.096787
 21
404.465151
 31
0.0
  0
LINE
  5
361
100
AcDbEntity
  8
LAY-2
  6
CONTINUOUS
 62
     2
100
AcDbLine
 10
433.520567
 20
404.465572
 30
0.0
 11
434.520417
 21
401.465568
 31
0.0
  0
LINE
  5
362
100
AcDbEntity
  8
LAY-2
  6
CONTINUOUS
 62
     2
100
AcDbLine
 10
434.808297
 20
400.965239
 30
0.0
 11
433.808427
 21
404.965244
 31
0.0
  0
LINE
  5
363
100
AcDbEntity
  8
LAY-2
  6
CONTINUOUS
 62
     2
100
AcDbLine
 10
435.097167
 20
401.465202
 30
0.0
 11
434.808467
 21
400.965165
 31
0.0
  0
LINE
  5
364
100
AcDbEntity
  8
LAY-2
  6
CONTINUOUS
 62
     2
100
AcDbLine
 10
436.741677
 20
400.965356
 30
0.0
 11
436.452997
 21
401.465367
 31
0.0
  0
LINE
  5
365
100
AcDbEntity
  8
LAY-2
  6
CONTINUOUS
 62
     2
100
AcDbLine
 10
437.029947
 20
401.465206
 30
0.0
 11
436.030087
 21
404.465194
 31
0.0
  0
LINE
  5
366
100
AcDbEntity
  8
LAY-2
  6
CONTINUOUS
 62
     2
100
AcDbLine
 10
435.453827
 20
404.465565
 30
0.0
 11
436.453687
 21
401.465548
 31
0.0
  0
LINE
  5
367
100
AcDbEntity
  8
LAY-2
  6
CONTINUOUS
 62
     2
100
AcDbLine
 10
435.453167
 20
404.465109
 30
0.0
 11
435.741857
 21
404.965132
 31
0.0
  0
LINE
  5
368
100
AcDbEntity
  8
LAY-2
  6
CONTINUOUS
 62
     2
100
AcDbLine
 10
435.741947
 20
404.965355
 30
0.0
 11
436.030617
 21
404.465358
 31
0.0
  0
LINE
  5
369
100
AcDbEntity
  8
LAY-2
  6
CONTINUOUS
 62
     2
100
AcDbLine
 10
436.030357
 20
404.465236
 30
0.0
 11
437.386317
 21
404.465236
 31
0.0
  0
LINE
  5
36A
100
AcDbEntity
  8
LAY-2
  6
CONTINUOUS
 62
     2
100
AcDbLine
 10
437.675327
 20
404.965374
 30
0.0
 11
437.963997
 21
404.465377
 31
0.0
  0
LINE
  5
36B
100
AcDbEntity
  8
LAY-2
  6
CONTINUOUS
 62
     2
100
AcDbLine
 10
437.386577
 20
404.465152
 30
0.0
 11
437.675247
 21
404.965136
 31
0.0
  0
LINE
  5
36C
100
AcDbEntity
  8
LAY-2
  6
CONTINUOUS
 62
     2
100
AcDbLine
 10
438.963337
 20
401.465183
 30
0.0
 11
437.963457
 21
404.465192
 31
0.0
  0
LINE
  5
36D
100
AcDbEntity
  8
LAY-2
  6
CONTINUOUS
 62
     2
100
AcDbLine
 10
437.387327
 20
404.465556
 30
0.0
 11
438.387177
 21
401.465547
 31
0.0
  0
LINE
  5
36E
100
AcDbEntity
  8
LAY-2
  6
CONTINUOUS
 62
     2
100
AcDbLine
 10
437.030497
 20
401.465051
 30
0.0
 11
436.741837
 21
400.965067
 31
0.0
  0
LINE
  5
36F
100
AcDbEntity
  8
LAY-2
  6
CONTINUOUS
 62
     2
100
AcDbLine
 10
437.030237
 20
401.465236
 30
0.0
 11
438.386197
 21
401.465236
 31
0.0
  0
LINE
  5
370
100
AcDbEntity
  8
LAY-2
  6
CONTINUOUS
 62
     2
100
AcDbLine
 10
438.674977
 20
400.965388
 30
0.0
 11
438.386297
 21
401.465385
 31
0.0
  0
LINE
  5
371
100
AcDbEntity
  8
LAY-2
  6
CONTINUOUS
 62
     2
100
AcDbLine
 10
438.963817
 20
401.46512
 30
0.0
 11
438.675157
 21
400.965136
 31
0.0
  0
LINE
  5
372
100
AcDbEntity
  8
LAY-2
  6
CONTINUOUS
 62
     2
100
AcDbLine
 10
440.896877
 20
401.465236
 30
0.0
 11
442.252837
 21
401.465236
 31
0.0
  0
LINE
  5
373
100
AcDbEntity
  8
LAY-2
  6
CONTINUOUS
 62
     2
100
AcDbLine
 10
440.608287
 20
400.965339
 30
0.0
 11
440.319607
 21
401.465342
 31
0.0
  0
LINE
  5
374
100
AcDbEntity
  8
LAY-2
  6
CONTINUOUS
 62
     2
100
AcDbLine
 10
440.897217
 20
401.465075
 30
0.0
 11
440.608547
 21
400.965091
 31
0.0
  0
LINE
  5
375
100
AcDbEntity
  8
LAY-2
  6
CONTINUOUS
 62
     2
100
AcDbLine
 10
440.896557
 20
401.465154
 30
0.0
 11
439.896687
 21
404.465151
 31
0.0
  0
LINE
  5
376
100
AcDbEntity
  8
LAY-2
  6
CONTINUOUS
 62
     2
100
AcDbLine
 10
437.963647
 20
404.465236
 30
0.0
 11
439.319667
 21
404.465236
 31
0.0
  0
LINE
  5
377
100
AcDbEntity
  8
LAY-2
  6
CONTINUOUS
 62
     2
100
AcDbLine
 10
439.320577
 20
404.465549
 30
0.0
 11
440.320427
 21
401.46554
 31
0.0
  0
LINE
  5
378
100
AcDbEntity
  8
LAY-2
  6
CONTINUOUS
 62
     2
100
AcDbLine
 10
439.319847
 20
404.465163
 30
0.0
 11
439.608527
 21
404.965173
 31
0.0
  0
LINE
  5
379
100
AcDbEntity
  8
LAY-2
  6
CONTINUOUS
 62
     2
100
AcDbLine
 10
439.608647
 20
404.965384
 30
0.0
 11
439.897327
 21
404.465387
 31
0.0
  0
LINE
  5
37A
100
AcDbEntity
  8
LAY-2
  6
CONTINUOUS
 62
     2
100
AcDbLine
 10
439.896997
 20
404.465236
 30
0.0
 11
441.253017
 21
404.465236
 31
0.0
  0
LINE
  5
37B
100
AcDbEntity
  8
LAY-2
  6
CONTINUOUS
 62
     2
100
AcDbLine
 10
441.541947
 20
404.965361
 30
0.0
 11
441.830617
 21
404.465364
 31
0.0
  0
LINE
  5
37C
100
AcDbEntity
  8
LAY-2
  6
CONTINUOUS
 62
     2
100
AcDbLine
 10
441.253247
 20
404.465179
 30
0.0
 11
441.541907
 21
404.965163
 31
0.0
  0
LINE
  5
37D
100
AcDbEntity
  8
LAY-2
  6
CONTINUOUS
 62
     2
100
AcDbLine
 10
441.253827
 20
404.465546
 30
0.0
 11
442.253677
 21
401.465542
 31
0.0
  0
LINE
  5
37E
100
AcDbEntity
  8
LAY-2
  6
CONTINUOUS
 62
     2
100
AcDbLine
 10
442.829887
 20
401.465187
 30
0.0
 11
441.830017
 21
404.465182
 31
0.0
  0
LINE
  5
37F
100
AcDbEntity
  8
LAY-2
  6
CONTINUOUS
 62
     2
100
AcDbLine
 10
442.541457
 20
400.965234
 30
0.0
 11
441.541597
 21
404.965225
 31
0.0
  0
LINE
  5
380
100
AcDbEntity
  8
LAY-2
  6
CONTINUOUS
 62
     2
100
AcDbLine
 10
442.830547
 20
401.465089
 30
0.0
 11
442.541857
 21
400.965079
 31
0.0
  0
LINE
  5
381
100
AcDbEntity
  8
LAY-2
  6
CONTINUOUS
 62
     2
100
AcDbLine
 10
442.830227
 20
401.465236
 30
0.0
 11
444.186187
 21
401.465236
 31
0.0
  0
LINE
  5
382
100
AcDbEntity
  8
LAY-2
  6
CONTINUOUS
 62
     2
100
AcDbLine
 10
444.763927
 20
401.465024
 30
0.0
 11
444.475257
 21
400.965041
 31
0.0
  0
LINE
  5
383
100
AcDbEntity
  8
LAY-2
  6
CONTINUOUS
 62
     2
100
AcDbLine
 10
444.763287
 20
401.465109
 30
0.0
 11
443.763417
 21
404.465111
 31
0.0
  0
LINE
  5
384
100
AcDbEntity
  8
LAY-2
  6
CONTINUOUS
 62
     2
100
AcDbLine
 10
443.187387
 20
404.465606
 30
0.0
 11
444.187237
 21
401.465597
 31
0.0
  0
LINE
  5
385
100
AcDbEntity
  8
LAY-2
  6
CONTINUOUS
 62
     2
100
AcDbLine
 10
443.186467
 20
404.465077
 30
0.0
 11
443.475147
 21
404.965087
 31
0.0
  0
LINE
  5
386
100
AcDbEntity
  8
LAY-2
  6
CONTINUOUS
 62
     2
100
AcDbLine
 10
441.830347
 20
404.465236
 30
0.0
 11
443.186307
 21
404.465236
 31
0.0
  0
LINE
  5
387
100
AcDbEntity
  8
LAY-2
  6
CONTINUOUS
 62
     2
100
AcDbLine
 10
444.474707
 20
400.965225
 30
0.0
 11
443.474847
 21
404.965223
 31
0.0
  0
LINE
  5
388
100
AcDbEntity
  8
LAY-2
  6
CONTINUOUS
 62
     2
100
AcDbLine
 10
443.475417
 20
404.965424
 30
0.0
 11
443.764097
 21
404.465427
 31
0.0
  0
LINE
  5
389
100
AcDbEntity
  8
LAY-2
  6
CONTINUOUS
 62
     2
100
AcDbLine
 10
447.149217
 20
404.200771
 30
0.0
 11
447.341877
 21
404.534463
 31
0.0
  0
LINE
  5
38A
100
AcDbEntity
  8
LAY-2
  6
CONTINUOUS
 62
     2
100
AcDbLine
 10
445.119797
 20
404.465098
 30
0.0
 11
445.408487
 21
404.965134
 31
0.0
  0
LINE
  5
38B
100
AcDbEntity
  8
LAY-2
  6
CONTINUOUS
 62
     2
100
AcDbLine
 10
445.120577
 20
404.465529
 30
0.0
 11
446.120427
 21
401.465509
 31
0.0
  0
LINE
  5
38C
100
AcDbEntity
  8
LAY-2
  6
CONTINUOUS
 62
     2
100
AcDbLine
 10
443.763697
 20
404.465236
 30
0.0
 11
445.119657
 21
404.465236
 31
0.0
  0
LINE
  5
38D
100
AcDbEntity
  8
LAY-2
  6
CONTINUOUS
 62
     2
100
AcDbLine
 10
445.696987
 20
404.465236
 30
0.0
 11
446.280417
 21
404.465236
 31
0.0
  0
LINE
  5
38E
100
AcDbEntity
  8
LAY-2
  6
CONTINUOUS
 62
     2
100
AcDbLine
 10
445.408667
 20
404.965364
 30
0.0
 11
445.697337
 21
404.465367
 31
0.0
  0
LINE
  5
38F
100
AcDbEntity
  8
LAY-2
  6
CONTINUOUS
 62
     2
100
AcDbLine
 10
447.341997
 20
404.534696
 30
0.0
 11
447.630677
 21
404.034693
 31
0.0
  0
LINE
  5
390
100
AcDbEntity
  8
LAY-2
  6
CONTINUOUS
 62
     2
100
AcDbLine
 10
429.296927
 20
419.465236
 30
0.0
 11
430.652887
 21
419.465236
 31
0.0
  0
LINE
  5
391
100
AcDbEntity
  8
LAY-2
  6
CONTINUOUS
 62
     2
100
AcDbLine
 10
430.941367
 20
418.965235
 30
0.0
 11
429.941507
 21
422.96524
 31
0.0
  0
LINE
  5
392
100
AcDbEntity
  8
LAY-2
  6
CONTINUOUS
 62
     2
100
AcDbLine
 10
431.230217
 20
419.465236
 30
0.0
 11
432.586177
 21
419.465236
 31
0.0
  0
LINE
  5
393
100
AcDbEntity
  8
LAY-2
  6
CONTINUOUS
 62
     2
100
AcDbLine
 10
432.874847
 20
418.965233
 30
0.0
 11
431.874987
 21
422.965223
 31
0.0
  0
LINE
  5
394
100
AcDbEntity
  8
LAY-2
  6
CONTINUOUS
 62
     2
100
AcDbLine
 10
433.163877
 20
419.465089
 30
0.0
 11
432.875197
 21
418.965078
 31
0.0
  0
LINE
  5
395
100
AcDbEntity
  8
LAY-2
  6
CONTINUOUS
 62
     2
100
AcDbLine
 10
433.163567
 20
419.465236
 30
0.0
 11
434.519527
 21
419.465236
 31
0.0
  0
LINE
  5
396
100
AcDbEntity
  8
LAY-2
  6
CONTINUOUS
 62
     2
100
AcDbLine
 10
435.096917
 20
419.465236
 30
0.0
 11
436.452877
 21
419.465236
 31
0.0
  0
LINE
  5
397
100
AcDbEntity
  8
LAY-2
  6
CONTINUOUS
 62
     2
100
AcDbLine
 10
436.741557
 20
418.965247
 30
0.0
 11
435.741697
 21
422.965253
 31
0.0
  0
LINE
  5
398
100
AcDbEntity
  8
LAY-2
  6
CONTINUOUS
 62
     2
100
AcDbLine
 10
438.674937
 20
418.96529
 30
0.0
 11
437.675067
 21
422.965296
 31
0.0
  0
LINE
  5
399
100
AcDbEntity
  8
LAY-2
  6
CONTINUOUS
 62
     2
100
AcDbLine
 10
438.963557
 20
419.465236
 30
0.0
 11
440.319517
 21
419.465236
 31
0.0
  0
LINE
  5
39A
100
AcDbEntity
  8
LAY-2
  6
CONTINUOUS
 62
     2
100
AcDbLine
 10
440.608187
 20
418.965251
 30
0.0
 11
439.608317
 21
422.965257
 31
0.0
  0
LINE
  5
39B
100
AcDbEntity
  8
LAY-2
  6
CONTINUOUS
 62
     2
100
AcDbLine
 10
442.541637
 20
418.965427
 30
0.0
 11
442.252967
 21
419.465424
 31
0.0
  0
LINE
  5
39C
100
AcDbEntity
  8
LAY-2
  6
CONTINUOUS
 62
     2
100
AcDbLine
 10
444.474947
 20
418.96534
 30
0.0
 11
444.186267
 21
419.46535
 31
0.0
  0
LINE
  5
39D
100
AcDbEntity
  8
LAY-2
  6
CONTINUOUS
 62
     2
100
AcDbLine
 10
444.763607
 20
419.465236
 30
0.0
 11
446.119567
 21
419.465236
 31
0.0
  0
LINE
  5
39E
100
AcDbEntity
  8
LAY-2
  6
CONTINUOUS
 62
     2
100
AcDbLine
 10
446.408167
 20
418.965216
 30
0.0
 11
445.408297
 21
422.965236
 31
0.0
  0
LINE
  5
39F
100
AcDbEntity
  8
LAY-2
  6
CONTINUOUS
 62
     2
100
AcDbLine
 10
446.408357
 20
418.965364
 30
0.0
 11
446.119687
 21
419.465361
 31
0.0
  0
LINE
  5
3A0
100
AcDbEntity
  8
LAY-2
  6
CONTINUOUS
 62
     2
100
AcDbLine
 10
446.697267
 20
419.464995
 30
0.0
 11
446.408597
 21
418.965011
 31
0.0
  0
LINE
  5
3A1
100
AcDbEntity
  8
LAY-2
  6
CONTINUOUS
 62
     2
100
AcDbLine
 10
446.280517
 20
419.465121
 30
0.0
 11
447.896837
 21
419.957114
 31
0.0
  0
LINE
  5
3A2
100
AcDbEntity
  8
LAY-2
  6
CONTINUOUS
 62
     2
100
AcDbLine
 10
446.696527
 20
419.465166
 30
0.0
 11
445.696657
 21
422.465161
 31
0.0
  0
LINE
  5
3A3
100
AcDbEntity
  8
LAY-2
  6
CONTINUOUS
 62
     2
100
AcDbLine
 10
447.149317
 20
422.200961
 30
0.0
 11
447.897057
 21
419.957347
 31
0.0
  0
LINE
  5
3A4
100
AcDbEntity
  8
LAY-2
  6
CONTINUOUS
 62
     2
100
AcDbLine
 10
448.278487
 20
420.073163
 30
0.0
 11
448.054287
 21
419.684841
 31
0.0
  0
LINE
  5
3A5
100
AcDbEntity
  8
LAY-2
  6
CONTINUOUS
 62
     2
100
AcDbLine
 10
448.053837
 20
419.685026
 30
0.0
 11
447.341547
 21
422.534554
 31
0.0
  0
LINE
  5
3A6
100
AcDbEntity
  8
LAY-2
  6
CONTINUOUS
 62
     2
100
AcDbLine
 10
447.615567
 20
422.058331
 30
0.0
 11
448.277207
 21
420.073068
 31
0.0
  0
LINE
  5
3A7
100
AcDbEntity
  8
LAY-2
  6
CONTINUOUS
 62
     2
100
AcDbLine
 10
448.278187
 20
420.073192
 30
0.0
 11
449.552637
 21
420.461122
 31
0.0
  0
LINE
  5
3A8
100
AcDbEntity
  8
LAY-2
  6
CONTINUOUS
 62
     2
100
AcDbLine
 10
449.553547
 20
420.461591
 30
0.0
 11
449.179687
 21
421.583406
 31
0.0
  0
LINE
  5
3A9
100
AcDbEntity
  8
LAY-2
  6
CONTINUOUS
 62
     2
100
AcDbLine
 10
449.631367
 20
420.325101
 30
0.0
 11
449.275227
 21
421.749876
 31
0.0
  0
LINE
  5
3AA
100
AcDbEntity
  8
LAY-2
  6
CONTINUOUS
 62
     2
100
AcDbLine
 10
449.412467
 20
421.511873
 30
0.0
 11
449.743267
 21
420.519231
 31
0.0
  0
LINE
  5
3AB
100
AcDbEntity
  8
LAY-2
  6
CONTINUOUS
 62
     2
100
AcDbLine
 10
449.412177
 20
421.511381
 30
0.0
 11
451.208087
 21
420.964725
 31
0.0
  0
LINE
  5
3AC
100
AcDbEntity
  8
LAY-2
  6
CONTINUOUS
 62
     2
100
AcDbLine
 10
449.275347
 20
421.750031
 30
0.0
 11
449.412767
 21
421.512024
 31
0.0
  0
LINE
  5
3AD
100
AcDbEntity
  8
LAY-2
  6
CONTINUOUS
 62
     2
100
AcDbLine
 10
447.616217
 20
422.058054
 30
0.0
 11
449.178447
 21
421.582527
 31
0.0
  0
LINE
  5
3AE
100
AcDbEntity
  8
LAY-2
  6
CONTINUOUS
 62
     2
100
AcDbLine
 10
446.280197
 20
422.464726
 30
0.0
 11
447.148747
 21
422.200347
 31
0.0
  0
LINE
  5
3AF
100
AcDbEntity
  8
LAY-2
  6
CONTINUOUS
 62
     2
100
AcDbLine
 10
447.342017
 20
422.534692
 30
0.0
 11
447.630697
 21
422.034689
 31
0.0
  0
LINE
  5
3B0
100
AcDbEntity
  8
LAY-2
  6
CONTINUOUS
 62
     2
100
AcDbLine
 10
445.408687
 20
422.965357
 30
0.0
 11
445.697357
 21
422.46536
 31
0.0
  0
LINE
  5
3B1
100
AcDbEntity
  8
LAY-2
  6
CONTINUOUS
 62
     2
100
AcDbLine
 10
445.697017
 20
422.465236
 30
0.0
 11
446.280447
 21
422.465236
 31
0.0
  0
LINE
  5
3B2
100
AcDbEntity
  8
LAY-2
  6
CONTINUOUS
 62
     2
100
AcDbLine
 10
443.763727
 20
422.465236
 30
0.0
 11
445.119687
 21
422.465236
 31
0.0
  0
LINE
  5
3B3
100
AcDbEntity
  8
LAY-2
  6
CONTINUOUS
 62
     2
100
AcDbLine
 10
445.120617
 20
422.465532
 30
0.0
 11
446.120467
 21
419.465514
 31
0.0
  0
LINE
  5
3B4
100
AcDbEntity
  8
LAY-2
  6
CONTINUOUS
 62
     2
100
AcDbLine
 10
445.119817
 20
422.465101
 30
0.0
 11
445.408507
 21
422.965138
 31
0.0
  0
LINE
  5
3B5
100
AcDbEntity
  8
LAY-2
  6
CONTINUOUS
 62
     2
100
AcDbLine
 10
447.149247
 20
422.200767
 30
0.0
 11
447.341907
 21
422.534459
 31
0.0
  0
LINE
  5
3B6
100
AcDbEntity
  8
LAY-2
  6
CONTINUOUS
 62
     2
100
AcDbLine
 10
443.475437
 20
422.965417
 30
0.0
 11
443.764117
 21
422.46542
 31
0.0
  0
LINE
  5
3B7
100
AcDbEntity
  8
LAY-2
  6
CONTINUOUS
 62
     2
100
AcDbLine
 10
444.474737
 20
418.965225
 30
0.0
 11
443.474877
 21
422.965223
 31
0.0
  0
LINE
  5
3B8
100
AcDbEntity
  8
LAY-2
  6
CONTINUOUS
 62
     2
100
AcDbLine
 10
441.830377
 20
422.465236
 30
0.0
 11
443.186337
 21
422.465236
 31
0.0
  0
LINE
  5
3B9
100
AcDbEntity
  8
LAY-2
  6
CONTINUOUS
 62
     2
100
AcDbLine
 10
443.186487
 20
422.465081
 30
0.0
 11
443.475167
 21
422.965091
 31
0.0
  0
LINE
  5
3BA
100
AcDbEntity
  8
LAY-2
  6
CONTINUOUS
 62
     2
100
AcDbLine
 10
443.187427
 20
422.465612
 30
0.0
 11
444.187277
 21
419.465603
 31
0.0
  0
LINE
  5
3BB
100
AcDbEntity
  8
LAY-2
  6
CONTINUOUS
 62
     2
100
AcDbLine
 10
444.763317
 20
419.465112
 30
0.0
 11
443.763447
 21
422.465114
 31
0.0
  0
LINE
  5
3BC
100
AcDbEntity
  8
LAY-2
  6
CONTINUOUS
 62
     2
100
AcDbLine
 10
444.763967
 20
419.46502
 30
0.0
 11
444.475297
 21
418.965037
 31
0.0
  0
LINE
  5
3BD
100
AcDbEntity
  8
LAY-2
  6
CONTINUOUS
 62
     2
100
AcDbLine
 10
442.830257
 20
419.465236
 30
0.0
 11
444.186217
 21
419.465236
 31
0.0
  0
LINE
  5
3BE
100
AcDbEntity
  8
LAY-2
  6
CONTINUOUS
 62
     2
100
AcDbLine
 10
442.830577
 20
419.465085
 30
0.0
 11
442.541897
 21
418.965075
 31
0.0
  0
LINE
  5
3BF
100
AcDbEntity
  8
LAY-2
  6
CONTINUOUS
 62
     2
100
AcDbLine
 10
442.541487
 20
418.965235
 30
0.0
 11
441.541627
 21
422.965225
 31
0.0
  0
LINE
  5
3C0
100
AcDbEntity
  8
LAY-2
  6
CONTINUOUS
 62
     2
100
AcDbLine
 10
442.829917
 20
419.46519
 30
0.0
 11
441.830047
 21
422.465184
 31
0.0
  0
LINE
  5
3C1
100
AcDbEntity
  8
LAY-2
  6
CONTINUOUS
 62
     2
100
AcDbLine
 10
441.253877
 20
422.465551
 30
0.0
 11
442.253717
 21
419.465548
 31
0.0
  0
LINE
  5
3C2
100
AcDbEntity
  8
LAY-2
  6
CONTINUOUS
 62
     2
100
AcDbLine
 10
441.253267
 20
422.465183
 30
0.0
 11
441.541927
 21
422.965167
 31
0.0
  0
LINE
  5
3C3
100
AcDbEntity
  8
LAY-2
  6
CONTINUOUS
 62
     2
100
AcDbLine
 10
441.541967
 20
422.965354
 30
0.0
 11
441.830637
 21
422.465357
 31
0.0
  0
LINE
  5
3C4
100
AcDbEntity
  8
LAY-2
  6
CONTINUOUS
 62
     2
100
AcDbLine
 10
439.897027
 20
422.465236
 30
0.0
 11
441.253047
 21
422.465236
 31
0.0
  0
LINE
  5
3C5
100
AcDbEntity
  8
LAY-2
  6
CONTINUOUS
 62
     2
100
AcDbLine
 10
439.608677
 20
422.965377
 30
0.0
 11
439.897347
 21
422.46538
 31
0.0
  0
LINE
  5
3C6
100
AcDbEntity
  8
LAY-2
  6
CONTINUOUS
 62
     2
100
AcDbLine
 10
439.319877
 20
422.465163
 30
0.0
 11
439.608557
 21
422.965173
 31
0.0
  0
LINE
  5
3C7
100
AcDbEntity
  8
LAY-2
  6
CONTINUOUS
 62
     2
100
AcDbLine
 10
439.320617
 20
422.465555
 30
0.0
 11
440.320467
 21
419.465546
 31
0.0
  0
LINE
  5
3C8
100
AcDbEntity
  8
LAY-2
  6
CONTINUOUS
 62
     2
100
AcDbLine
 10
437.963677
 20
422.465236
 30
0.0
 11
439.319697
 21
422.465236
 31
0.0
  0
LINE
  5
3C9
100
AcDbEntity
  8
LAY-2
  6
CONTINUOUS
 62
     2
100
AcDbLine
 10
440.896587
 20
419.465157
 30
0.0
 11
439.896717
 21
422.465152
 31
0.0
  0
LINE
  5
3CA
100
AcDbEntity
  8
LAY-2
  6
CONTINUOUS
 62
     2
100
AcDbLine
 10
440.897247
 20
419.465075
 30
0.0
 11
440.608577
 21
418.965091
 31
0.0
  0
LINE
  5
3CB
100
AcDbEntity
  8
LAY-2
  6
CONTINUOUS
 62
     2
100
AcDbLine
 10
440.608307
 20
418.965331
 30
0.0
 11
440.319627
 21
419.465335
 31
0.0
  0
LINE
  5
3CC
100
AcDbEntity
  8
LAY-2
  6
CONTINUOUS
 62
     2
100
AcDbLine
 10
440.896907
 20
419.465236
 30
0.0
 11
442.252867
 21
419.465236
 31
0.0
  0
LINE
  5
3CD
100
AcDbEntity
  8
LAY-2
  6
CONTINUOUS
 62
     2
100
AcDbLine
 10
438.963847
 20
419.46512
 30
0.0
 11
438.675187
 21
418.965136
 31
0.0
  0
LINE
  5
3CE
100
AcDbEntity
  8
LAY-2
  6
CONTINUOUS
 62
     2
100
AcDbLine
 10
438.674997
 20
418.965381
 30
0.0
 11
438.386327
 21
419.465378
 31
0.0
  0
LINE
  5
3CF
100
AcDbEntity
  8
LAY-2
  6
CONTINUOUS
 62
     2
100
AcDbLine
 10
437.030267
 20
419.465236
 30
0.0
 11
438.386227
 21
419.465236
 31
0.0
  0
LINE
  5
3D0
100
AcDbEntity
  8
LAY-2
  6
CONTINUOUS
 62
     2
100
AcDbLine
 10
437.030527
 20
419.465051
 30
0.0
 11
436.741867
 21
418.965067
 31
0.0
  0
LINE
  5
3D1
100
AcDbEntity
  8
LAY-2
  6
CONTINUOUS
 62
     2
100
AcDbLine
 10
437.387377
 20
422.46556
 30
0.0
 11
438.387227
 21
419.46555
 31
0.0
  0
LINE
  5
3D2
100
AcDbEntity
  8
LAY-2
  6
CONTINUOUS
 62
     2
100
AcDbLine
 10
438.963367
 20
419.465184
 30
0.0
 11
437.963487
 21
422.465194
 31
0.0
  0
LINE
  5
3D3
100
AcDbEntity
  8
LAY-2
  6
CONTINUOUS
 62
     2
100
AcDbLine
 10
437.386597
 20
422.465156
 30
0.0
 11
437.675267
 21
422.965139
 31
0.0
  0
LINE
  5
3D4
100
AcDbEntity
  8
LAY-2
  6
CONTINUOUS
 62
     2
100
AcDbLine
 10
437.675347
 20
422.965367
 30
0.0
 11
437.964017
 21
422.46537
 31
0.0
  0
LINE
  5
3D5
100
AcDbEntity
  8
LAY-2
  6
CONTINUOUS
 62
     2
100
AcDbLine
 10
436.030387
 20
422.465236
 30
0.0
 11
437.386347
 21
422.465236
 31
0.0
  0
LINE
  5
3D6
100
AcDbEntity
  8
LAY-2
  6
CONTINUOUS
 62
     2
100
AcDbLine
 10
435.741967
 20
422.965347
 30
0.0
 11
436.030637
 21
422.46535
 31
0.0
  0
LINE
  5
3D7
100
AcDbEntity
  8
LAY-2
  6
CONTINUOUS
 62
     2
100
AcDbLine
 10
435.453187
 20
422.465113
 30
0.0
 11
435.741877
 21
422.965136
 31
0.0
  0
LINE
  5
3D8
100
AcDbEntity
  8
LAY-2
  6
CONTINUOUS
 62
     2
100
AcDbLine
 10
435.453877
 20
422.465569
 30
0.0
 11
436.453727
 21
419.465553
 31
0.0
  0
LINE
  5
3D9
100
AcDbEntity
  8
LAY-2
  6
CONTINUOUS
 62
     2
100
AcDbLine
 10
437.029987
 20
419.465207
 30
0.0
 11
436.030117
 21
422.465195
 31
0.0
  0
LINE
  5
3DA
100
AcDbEntity
  8
LAY-2
  6
CONTINUOUS
 62
     2
100
AcDbLine
 10
436.741697
 20
418.965349
 30
0.0
 11
436.453017
 21
419.465359
 31
0.0
  0
LINE
  5
3DB
100
AcDbEntity
  8
LAY-2
  6
CONTINUOUS
 62
     2
100
AcDbLine
 10
435.097187
 20
419.465206
 30
0.0
 11
434.808487
 21
418.965169
 31
0.0
  0
LINE
  5
3DC
100
AcDbEntity
  8
LAY-2
  6
CONTINUOUS
 62
     2
100
AcDbLine
 10
434.808327
 20
418.965238
 30
0.0
 11
433.808457
 21
422.965244
 31
0.0
  0
LINE
  5
3DD
100
AcDbEntity
  8
LAY-2
  6
CONTINUOUS
 62
     2
100
AcDbLine
 10
433.520617
 20
422.465576
 30
0.0
 11
434.520467
 21
419.465574
 31
0.0
  0
LINE
  5
3DE
100
AcDbEntity
  8
LAY-2
  6
CONTINUOUS
 62
     2
100
AcDbLine
 10
435.096687
 20
419.465158
 30
0.0
 11
434.096827
 21
422.465154
 31
0.0
  0
LINE
  5
3DF
100
AcDbEntity
  8
LAY-2
  6
CONTINUOUS
 62
     2
100
AcDbLine
 10
434.808387
 20
418.965378
 30
0.0
 11
434.519707
 21
419.465375
 31
0.0
  0
LINE
  5
3E0
100
AcDbEntity
  8
LAY-2
  6
CONTINUOUS
 62
     2
100
AcDbLine
 10
448.053937
 20
419.685091
 30
0.0
 11
447.896767
 21
419.95731
 31
0.0
  0
LINE
  5
3E1
100
AcDbEntity
  8
LAY-2
  6
CONTINUOUS
 62
     2
100
AcDbLine
 10
449.631247
 20
420.325238
 30
0.0
 11
449.552657
 21
420.461354
 31
0.0
  0
LINE
  5
3E2
100
AcDbEntity
  8
LAY-2
  6
CONTINUOUS
 62
     2
100
AcDbLine
 10
428.297057
 20
422.465236
 30
0.0
 11
429.653007
 21
422.465236
 31
0.0
  0
LINE
  5
3E3
100
AcDbEntity
  8
LAY-2
  6
CONTINUOUS
 62
     2
100
AcDbLine
 10
429.653847
 20
422.465534
 30
0.0
 11
430.653697
 21
419.465517
 31
0.0
  0
LINE
  5
3E4
100
AcDbEntity
  8
LAY-2
  6
CONTINUOUS
 62
     2
100
AcDbLine
 10
429.941997
 20
422.965356
 30
0.0
 11
430.230677
 21
422.465352
 31
0.0
  0
LINE
  5
3E5
100
AcDbEntity
  8
LAY-2
  6
CONTINUOUS
 62
     2
100
AcDbLine
 10
429.653297
 20
422.465215
 30
0.0
 11
429.941957
 21
422.965199
 31
0.0
  0
LINE
  5
3E6
100
AcDbEntity
  8
LAY-2
  6
CONTINUOUS
 62
     2
100
AcDbLine
 10
430.230337
 20
422.465236
 30
0.0
 11
431.586357
 21
422.465236
 31
0.0
  0
LINE
  5
3E7
100
AcDbEntity
  8
LAY-2
  6
CONTINUOUS
 62
     2
100
AcDbLine
 10
431.229997
 20
419.465183
 30
0.0
 11
430.230137
 21
422.465178
 31
0.0
  0
LINE
  5
3E8
100
AcDbEntity
  8
LAY-2
  6
CONTINUOUS
 62
     2
100
AcDbLine
 10
431.230537
 20
419.465137
 30
0.0
 11
430.941847
 21
418.965127
 31
0.0
  0
LINE
  5
3E9
100
AcDbEntity
  8
LAY-2
  6
CONTINUOUS
 62
     2
100
AcDbLine
 10
430.941637
 20
418.965299
 30
0.0
 11
430.652967
 21
419.465296
 31
0.0
  0
LINE
  5
3EA
100
AcDbEntity
  8
LAY-2
  6
CONTINUOUS
 62
     2
100
AcDbLine
 10
431.587297
 20
422.465608
 30
0.0
 11
432.587157
 21
419.465591
 31
0.0
  0
LINE
  5
3EB
100
AcDbEntity
  8
LAY-2
  6
CONTINUOUS
 62
     2
100
AcDbLine
 10
433.163247
 20
419.465178
 30
0.0
 11
432.163377
 21
422.465166
 31
0.0
  0
LINE
  5
3EC
100
AcDbEntity
  8
LAY-2
  6
CONTINUOUS
 62
     2
100
AcDbLine
 10
432.163687
 20
422.465236
 30
0.0
 11
433.519707
 21
422.465236
 31
0.0
  0
LINE
  5
3ED
100
AcDbEntity
  8
LAY-2
  6
CONTINUOUS
 62
     2
100
AcDbLine
 10
431.875407
 20
422.965378
 30
0.0
 11
432.164077
 21
422.465381
 31
0.0
  0
LINE
  5
3EE
100
AcDbEntity
  8
LAY-2
  6
CONTINUOUS
 62
     2
100
AcDbLine
 10
431.586567
 20
422.465171
 30
0.0
 11
431.875217
 21
422.965128
 31
0.0
  0
LINE
  5
3EF
100
AcDbEntity
  8
LAY-2
  6
CONTINUOUS
 62
     2
100
AcDbLine
 10
433.519907
 20
422.465246
 30
0.0
 11
433.808587
 21
422.965256
 31
0.0
  0
LINE
  5
3F0
100
AcDbEntity
  8
LAY-2
  6
CONTINUOUS
 62
     2
100
AcDbLine
 10
433.808727
 20
422.965373
 30
0.0
 11
434.097407
 21
422.465363
 31
0.0
  0
LINE
  5
3F1
100
AcDbEntity
  8
LAY-2
  6
CONTINUOUS
 62
     2
100
AcDbLine
 10
434.097037
 20
422.465236
 30
0.0
 11
435.452997
 21
422.465236
 31
0.0
  0
LINE
  5
3F2
100
AcDbEntity
  8
LAY-2
  6
CONTINUOUS
 62
     2
100
AcDbLine
 10
432.875047
 20
418.965354
 30
0.0
 11
432.586367
 21
419.465351
 31
0.0
  0
LINE
  5
3F3
100
AcDbEntity
  8
LAY-2
  6
CONTINUOUS
 62
     2
100
AcDbLine
 10
446.280167
 20
404.464729
 30
0.0
 11
447.148717
 21
404.200351
 31
0.0
  0
LINE
  5
3F4
100
AcDbEntity
  8
LAY-2
  6
CONTINUOUS
 62
     2
100
AcDbLine
 10
447.616187
 20
404.058057
 30
0.0
 11
449.178417
 21
403.582531
 31
0.0
  0
LINE
  5
3F5
100
AcDbEntity
  8
LAY-2
  6
CONTINUOUS
 62
     2
100
AcDbLine
 10
449.275337
 20
403.750035
 30
0.0
 11
449.412747
 21
403.512028
 31
0.0
  0
LINE
  5
3F6
100
AcDbEntity
  8
LAY-2
  6
CONTINUOUS
 62
     2
100
AcDbLine
 10
449.412147
 20
403.511384
 30
0.0
 11
451.208047
 21
402.964728
 31
0.0
  0
LINE
  5
3F7
100
AcDbEntity
  8
LAY-2
  6
CONTINUOUS
 62
     2
100
AcDbLine
 10
449.412437
 20
403.511872
 30
0.0
 11
449.743237
 21
402.51923
 31
0.0
  0
LINE
  5
3F8
100
AcDbEntity
  8
LAY-2
  6
CONTINUOUS
 62
     2
100
AcDbLine
 10
449.631337
 20
402.325101
 30
0.0
 11
449.275197
 21
403.749876
 31
0.0
  0
LINE
  5
3F9
100
AcDbEntity
  8
LAY-2
  6
CONTINUOUS
 62
     2
100
AcDbLine
 10
449.553527
 20
402.461595
 30
0.0
 11
449.179667
 21
403.58341
 31
0.0
  0
LINE
  5
3FA
100
AcDbEntity
  8
LAY-2
  6
CONTINUOUS
 62
     2
100
AcDbLine
 10
448.278147
 20
402.073193
 30
0.0
 11
449.552607
 21
402.461123
 31
0.0
  0
LINE
  5
3FB
100
AcDbEntity
  8
LAY-2
  6
CONTINUOUS
 62
     2
100
AcDbLine
 10
447.615537
 20
404.058332
 30
0.0
 11
448.277177
 21
402.073069
 31
0.0
  0
LINE
  5
3FC
100
AcDbEntity
  8
LAY-2
  6
CONTINUOUS
 62
     2
100
AcDbLine
 10
448.053807
 20
401.685025
 30
0.0
 11
447.341517
 21
404.534554
 31
0.0
  0
LINE
  5
3FD
100
AcDbEntity
  8
LAY-2
  6
CONTINUOUS
 62
     2
100
AcDbLine
 10
448.278447
 20
402.073166
 30
0.0
 11
448.054247
 21
401.684845
 31
0.0
  0
LINE
  5
3FE
100
AcDbEntity
  8
LAY-2
  6
CONTINUOUS
 62
     2
100
AcDbLine
 10
447.149277
 20
404.200958
 30
0.0
 11
447.897017
 21
401.957344
 31
0.0
  0
LINE
  5
3FF
100
AcDbEntity
  8
LAY-2
  6
CONTINUOUS
 62
     2
100
AcDbLine
 10
446.696497
 20
401.465165
 30
0.0
 11
445.696627
 21
404.46516
 31
0.0
  0
LINE
  5
400
100
AcDbEntity
  8
LAY-2
  6
CONTINUOUS
 62
     2
100
AcDbLine
 10
446.658187
 20
401.580092
 30
0.0
 11
447.896807
 21
401.957115
 31
0.0
  0
LINE
  5
401
100
AcDbEntity
  8
LAY-2
  6
CONTINUOUS
 62
     2
100
AcDbLine
 10
446.697227
 20
401.464999
 30
0.0
 11
446.408567
 21
400.965015
 31
0.0
  0
LINE
  5
402
100
AcDbEntity
  8
LAY-2
  6
CONTINUOUS
 62
     2
100
AcDbLine
 10
446.408337
 20
400.965368
 30
0.0
 11
446.119667
 21
401.465365
 31
0.0
  0
LINE
  5
403
100
AcDbEntity
  8
LAY-2
  6
CONTINUOUS
 62
     2
100
AcDbLine
 10
446.408137
 20
400.965217
 30
0.0
 11
445.408267
 21
404.965237
 31
0.0
  0
LINE
  5
404
100
AcDbEntity
  8
LAY-2
  6
CONTINUOUS
 62
     2
100
AcDbLine
 10
444.763577
 20
401.465236
 30
0.0
 11
446.119537
 21
401.465236
 31
0.0
  0
LINE
  5
405
100
AcDbEntity
  8
LAY-2
  6
CONTINUOUS
 62
     2
100
AcDbLine
 10
444.474927
 20
400.965344
 30
0.0
 11
444.186247
 21
401.465354
 31
0.0
  0
LINE
  5
406
100
AcDbEntity
  8
LAY-2
  6
CONTINUOUS
 62
     2
100
AcDbLine
 10
442.541617
 20
400.965434
 30
0.0
 11
442.252937
 21
401.465431
 31
0.0
  0
LINE
  5
407
100
AcDbEntity
  8
LAY-2
  6
CONTINUOUS
 62
     2
100
AcDbLine
 10
440.608147
 20
400.965252
 30
0.0
 11
439.608287
 21
404.965257
 31
0.0
  0
LINE
  5
408
100
AcDbEntity
  8
LAY-2
  6
CONTINUOUS
 62
     2
100
AcDbLine
 10
438.963527
 20
401.465236
 30
0.0
 11
440.319487
 21
401.465236
 31
0.0
  0
LINE
  5
409
100
AcDbEntity
  8
LAY-2
  6
CONTINUOUS
 62
     2
100
AcDbLine
 10
438.674897
 20
400.965289
 30
0.0
 11
437.675037
 21
404.965295
 31
0.0
  0
LINE
  5
40A
100
AcDbEntity
  8
LAY-2
  6
CONTINUOUS
 62
     2
100
AcDbLine
 10
436.741527
 20
400.965247
 30
0.0
 11
435.741667
 21
404.965253
 31
0.0
  0
LINE
  5
40B
100
AcDbEntity
  8
LAY-2
  6
CONTINUOUS
 62
     2
100
AcDbLine
 10
435.096887
 20
401.465236
 30
0.0
 11
436.452847
 21
401.465236
 31
0.0
  0
LINE
  5
40C
100
AcDbEntity
  8
LAY-2
  6
CONTINUOUS
 62
     2
100
AcDbLine
 10
433.163537
 20
401.465236
 30
0.0
 11
434.519497
 21
401.465236
 31
0.0
  0
LINE
  5
40D
100
AcDbEntity
  8
LAY-2
  6
CONTINUOUS
 62
     2
100
AcDbLine
 10
433.163847
 20
401.465085
 30
0.0
 11
432.875167
 21
400.965075
 31
0.0
  0
LINE
  5
40E
100
AcDbEntity
  8
LAY-2
  6
CONTINUOUS
 62
     2
100
AcDbLine
 10
432.874817
 20
400.965232
 30
0.0
 11
431.874957
 21
404.965224
 31
0.0
  0
LINE
  5
40F
100
AcDbEntity
  8
LAY-2
  6
CONTINUOUS
 62
     2
100
AcDbLine
 10
431.230187
 20
401.465236
 30
0.0
 11
432.586147
 21
401.465236
 31
0.0
  0
LINE
  5
410
100
AcDbEntity
  8
LAY-2
  6
CONTINUOUS
 62
     2
100
AcDbLine
 10
430.941337
 20
400.965234
 30
0.0
 11
429.941477
 21
404.96524
 31
0.0
  0
LINE
  5
411
100
AcDbEntity
  8
LAY-2
  6
CONTINUOUS
 62
     2
100
AcDbLine
 10
429.296897
 20
401.465236
 30
0.0
 11
430.652857
 21
401.465236
 31
0.0
  0
LINE
  5
412
100
AcDbEntity
  8
LAY-2
  6
CONTINUOUS
 62
     2
100
AcDbLine
 10
449.180137
 20
403.582006
 30
0.0
 11
449.275017
 21
403.750574
 31
0.0
  0
ARC
  5
413
100
AcDbEntity
  8
LAY-2
  6
CONTINUOUS
 62
     2
100
AcDbCircle
 10
373.509146
 20
436.465241
 30
0.0
 40
10.0
100
AcDbArc
 50
14.477515
 51
345.52247
  0
CIRCLE
  5
414
100
AcDbEntity
  8
LAY-2
  6
CONTINUOUS
 62
     2
100
AcDbCircle
 10
373.509146
 20
436.465241
 30
0.0
 40
5.1
  0
ARC
  5
415
100
AcDbEntity
  8
LAY-2
  6
CONTINUOUS
 62
     2
100
AcDbCircle
 10
413.509127
 20
428.965241
 30
0.0
 40
5.0
100
AcDbArc
 50
0.0
 51
89.999982
  0
ARC
  5
416
100
AcDbEntity
  8
LAY-2
  6
CONTINUOUS
 62
     2
100
AcDbCircle
 10
421.509127
 20
396.96524
 30
0.0
 40
3.0
100
AcDbArc
 50
179.99998
 51
270.00002
  0
LINE
  5
417
100
AcDbEntity
  8
LAY-2
  6
EXLTYPE1
 62
     2
100
AcDbLine
 10
421.209097
 20
423.21524
 30
0.0
 11
423.509107
 21
423.21524
 31
0.0
  0
LINE
  5
418
100
AcDbEntity
  8
LAY-2
  6
EXLTYPE1
 62
     2
100
AcDbLine
 10
421.209097
 20
418.71524
 30
0.0
 11
423.509107
 21
418.71524
 31
0.0
  0
LINE
  5
419
100
AcDbEntity
  8
LAY-2
  6
EXLTYPE1
 62
     2
100
AcDbLine
 10
421.209097
 20
400.71524
 30
0.0
 11
423.509107
 21
400.71524
 31
0.0
  0
LINE
  5
41A
100
AcDbEntity
  8
LAY-2
  6
EXLTYPE1
 62
     2
100
AcDbLine
 10
421.209097
 20
405.21524
 30
0.0
 11
423.509107
 21
405.21524
 31
0.0
  0
LINE
  5
41B
100
AcDbEntity
  8
LAY-2
  6
CONTINUOUS
 62
     2
100
AcDbLine
 10
418.506877
 20
424.948464
 30
0.0
 11
418.511347
 21
416.948467
 31
0.0
  0
LINE
  5
41C
100
AcDbEntity
  8
LAY-2
  6
CONTINUOUS
 62
     2
100
AcDbLine
 10
418.506877
 20
406.948463
 30
0.0
 11
418.511347
 21
398.948464
 31
0.0
  0
LINE
  5
41D
100
AcDbEntity
  8
LAY-2
  6
EXLTYPE1
 62
     2
100
AcDbLine
 10
421.209097
 20
407.315238
 30
0.0
 11
421.209097
 21
398.615241
 31
0.0
  0
LINE
  5
41E
100
AcDbEntity
  8
LAY-2
  6
EXLTYPE1
 62
     2
100
AcDbLine
 10
421.209097
 20
425.315238
 30
0.0
 11
421.209097
 21
416.615241
 31
0.0
  0
LINE
  5
41F
100
AcDbEntity
  8
LAY-2
  6
EXLTYPE1
 62
     2
100
AcDbLine
 10
418.509107
 20
416.615241
 30
0.0
 11
421.209097
 21
416.615241
 31
0.0
  0
LINE
  5
420
100
AcDbEntity
  8
LAY-2
  6
EXLTYPE1
 62
     2
100
AcDbLine
 10
418.509107
 20
425.315238
 30
0.0
 11
421.209097
 21
425.315238
 31
0.0
  0
LINE
  5
421
100
AcDbEntity
  8
LAY-2
  6
EXLTYPE1
 62
     2
100
AcDbLine
 10
418.509107
 20
407.315238
 30
0.0
 11
421.209097
 21
407.315238
 31
0.0
  0
LINE
  5
422
100
AcDbEntity
  8
LAY-2
  6
EXLTYPE1
 62
     2
100
AcDbLine
 10
418.509107
 20
398.615241
 30
0.0
 11
421.209097
 21
398.615241
 31
0.0
  0
LINE
  5
423
100
AcDbEntity
  8
LAY-2
  6
CONTINUOUS
 62
     2
100
AcDbLine
 10
418.709067
 20
423.764822
 30
0.0
 11
418.709067
 21
421.564825
 31
0.0
  0
LINE
  5
424
100
AcDbEntity
  8
LAY-2
  6
CONTINUOUS
 62
     2
100
AcDbLine
 10
418.709067
 20
420.364813
 30
0.0
 11
418.709067
 21
418.164816
 31
0.0
  0
LINE
  5
425
100
AcDbEntity
  8
LAY-2
  6
EXLTYPE1
 62
     2
100
AcDbLine
 10
422.403647
 20
404.192395
 30
0.0
 11
423.023237
 21
402.856964
 31
0.0
  0
LINE
  5
426
100
AcDbEntity
  8
LAY-2
  6
CONTINUOUS
 62
     2
100
AcDbLine
 10
424.142377
 20
404.965241
 30
0.0
 11
424.431047
 21
404.465244
 31
0.0
  0
LINE
  5
427
100
AcDbEntity
  8
LAY-2
  6
EXLTYPE1
 62
     2
100
AcDbLine
 10
418.709067
 20
403.565246
 30
0.0
 11
419.909087
 21
403.565246
 31
0.0
  0
LINE
  5
428
100
AcDbEntity
  8
LAY-2
  6
EXLTYPE1
 62
     2
100
AcDbLine
 10
422.492837
 20
402.747579
 30
0.0
 11
422.920217
 21
401.465241
 31
0.0
  0
LINE
  5
429
100
AcDbEntity
  8
LAY-2
  6
CONTINUOUS
 62
     2
100
AcDbLine
 10
423.853697
 20
404.465237
 30
0.0
 11
424.142377
 21
404.965234
 31
0.0
  0
LINE
  5
42A
100
AcDbEntity
  8
LAY-2
  6
EXLTYPE1
 62
     2
100
AcDbLine
 10
422.493877
 20
402.730637
 30
0.0
 11
422.403637
 21
404.192393
 31
0.0
  0
LINE
  5
42B
100
AcDbEntity
  8
LAY-2
  6
CONTINUOUS
 62
     2
100
AcDbLine
 10
425.142227
 20
400.96524
 30
0.0
 11
424.142367
 21
404.96524
 31
0.0
  0
LINE
  5
42C
100
AcDbEntity
  8
LAY-2
  6
EXLTYPE1
 62
     2
100
AcDbLine
 10
423.497587
 20
401.465229
 30
0.0
 11
423.208917
 21
400.965232
 31
0.0
  0
LINE
  5
42D
100
AcDbEntity
  8
LAY-2
  6
EXLTYPE1
 62
     2
100
AcDbLine
 10
423.208887
 20
400.965238
 30
0.0
 11
422.920217
 21
401.465238
 31
0.0
  0
LINE
  5
42E
100
AcDbEntity
  8
LAY-2
  6
EXLTYPE1
 62
     2
100
AcDbLine
 10
423.208897
 20
400.965238
 30
0.0
 11
422.400567
 21
404.199021
 31
0.0
  0
LINE
  5
42F
100
AcDbEntity
  8
LAY-2
  6
EXLTYPE1
 62
     2
100
AcDbLine
 10
421.209037
 20
405.465236
 30
0.0
 11
422.209037
 21
404.465235
 31
0.0
  0
LINE
  5
430
100
AcDbEntity
  8
LAY-2
  6
CONTINUOUS
 62
     2
100
AcDbLine
 10
424.431047
 20
404.465242
 30
0.0
 11
425.430927
 21
401.465241
 31
0.0
  0
LINE
  5
431
100
AcDbEntity
  8
LAY-2
  6
EXLTYPE1
 62
     2
100
AcDbLine
 10
422.209037
 20
404.46524
 30
0.0
 11
422.209037
 21
401.465239
 31
0.0
  0
LINE
  5
432
100
AcDbEntity
  8
LAY-2
  6
EXLTYPE1
 62
     2
100
AcDbLine
 10
419.909057
 20
398.965239
 30
0.0
 11
419.909057
 21
406.96524
 31
0.0
  0
LINE
  5
433
100
AcDbEntity
  8
LAY-2
  6
CONTINUOUS
 62
     2
100
AcDbLine
 10
423.853687
 20
404.465238
 30
0.0
 11
424.853547
 21
401.465238
 31
0.0
  0
LINE
  5
434
100
AcDbEntity
  8
LAY-2
  6
CONTINUOUS
 62
     2
100
AcDbLine
 10
425.430917
 20
401.465233
 30
0.0
 11
425.142247
 21
400.965236
 31
0.0
  0
LINE
  5
435
100
AcDbEntity
  8
LAY-2
  6
CONTINUOUS
 62
     2
100
AcDbLine
 10
423.709037
 20
404.46524
 30
0.0
 11
423.853697
 21
404.46524
 31
0.0
  0
LINE
  5
436
100
AcDbEntity
  8
LAY-2
  6
CONTINUOUS
 62
     2
100
AcDbLine
 10
425.142217
 20
400.965234
 30
0.0
 11
424.853547
 21
401.465234
 31
0.0
  0
LINE
  5
437
100
AcDbEntity
  8
LAY-2
  6
EXLTYPE1
 62
     2
100
AcDbLine
 10
422.209037
 20
401.465239
 30
0.0
 11
422.920207
 21
401.465239
 31
0.0
  0
LINE
  5
438
100
AcDbEntity
  8
LAY-2
  6
EXLTYPE1
 62
     2
100
AcDbLine
 10
421.209037
 20
400.46524
 30
0.0
 11
422.209037
 21
401.465241
 31
0.0
  0
LINE
  5
439
100
AcDbEntity
  8
LAY-2
  6
EXLTYPE1
 62
     2
100
AcDbLine
 10
422.209037
 20
404.46524
 30
0.0
 11
423.709037
 21
404.46524
 31
0.0
  0
LINE
  5
43A
100
AcDbEntity
  8
LAY-2
  6
EXLTYPE1
 62
     2
100
AcDbLine
 10
423.032697
 20
402.860114
 30
0.0
 11
423.497597
 21
401.465242
 31
0.0
  0
LINE
  5
43B
100
AcDbEntity
  8
LAY-2
  6
EXLTYPE1
 62
     2
100
AcDbLine
 10
421.209067
 20
400.71524
 30
0.0
 11
423.709037
 21
400.71524
 31
0.0
  0
LINE
  5
43C
100
AcDbEntity
  8
LAY-2
  6
CONTINUOUS
 62
     2
100
AcDbLine
 10
427.075657
 20
400.965304
 30
0.0
 11
426.786977
 21
401.465301
 31
0.0
  0
LINE
  5
43D
100
AcDbEntity
  8
LAY-2
  6
CONTINUOUS
 62
     2
100
AcDbLine
 10
427.364537
 20
401.465136
 30
0.0
 11
427.075857
 21
400.965126
 31
0.0
  0
LINE
  5
43E
100
AcDbEntity
  8
LAY-2
  6
CONTINUOUS
 62
     2
100
AcDbLine
 10
427.364007
 20
401.465184
 30
0.0
 11
426.364137
 21
404.465179
 31
0.0
  0
LINE
  5
43F
100
AcDbEntity
  8
LAY-2
  6
CONTINUOUS
 62
     2
100
AcDbLine
 10
425.787307
 20
404.465214
 30
0.0
 11
426.075967
 21
404.965198
 31
0.0
  0
LINE
  5
440
100
AcDbEntity
  8
LAY-2
  6
CONTINUOUS
 62
     2
100
AcDbLine
 10
426.076017
 20
404.965361
 30
0.0
 11
426.364687
 21
404.465358
 31
0.0
  0
LINE
  5
441
100
AcDbEntity
  8
LAY-2
  6
CONTINUOUS
 62
     2
100
AcDbLine
 10
425.787837
 20
404.465528
 30
0.0
 11
426.787687
 21
401.465512
 31
0.0
  0
LINE
  5
442
100
AcDbEntity
  8
LAY-2
  6
CONTINUOUS
 62
     2
100
AcDbLine
 10
424.431057
 20
404.465236
 30
0.0
 11
425.787017
 21
404.465236
 31
0.0
  0
LINE
  5
443
100
AcDbEntity
  8
LAY-2
  6
CONTINUOUS
 62
     2
100
AcDbLine
 10
423.709037
 20
401.465239
 30
0.0
 11
424.853537
 21
401.465239
 31
0.0
  0
LINE
  5
444
100
AcDbEntity
  8
LAY-2
  6
CONTINUOUS
 62
     2
100
AcDbLine
 10
425.430937
 20
401.465236
 30
0.0
 11
426.786887
 21
401.465236
 31
0.0
  0
LINE
  5
445
100
AcDbEntity
  8
LAY-2
  6
CONTINUOUS
 62
     2
100
AcDbLine
 10
428.008687
 20
404.965373
 30
0.0
 11
428.297357
 21
404.465376
 31
0.0
  0
LINE
  5
446
100
AcDbEntity
  8
LAY-2
  6
CONTINUOUS
 62
     2
100
AcDbLine
 10
427.719847
 20
404.465241
 30
0.0
 11
428.008537
 21
404.965278
 31
0.0
  0
LINE
  5
447
100
AcDbEntity
  8
LAY-2
  6
CONTINUOUS
 62
     2
100
AcDbLine
 10
426.363677
 20
404.465236
 30
0.0
 11
427.719627
 21
404.465236
 31
0.0
  0
LINE
  5
448
100
AcDbEntity
  8
LAY-2
  6
CONTINUOUS
 62
     2
100
AcDbLine
 10
429.296547
 20
401.46522
 30
0.0
 11
428.296677
 21
404.465215
 31
0.0
  0
LINE
  5
449
100
AcDbEntity
  8
LAY-2
  6
CONTINUOUS
 62
     2
100
AcDbLine
 10
429.297157
 20
401.465011
 30
0.0
 11
429.008487
 21
400.965028
 31
0.0
  0
LINE
  5
44A
100
AcDbEntity
  8
LAY-2
  6
CONTINUOUS
 62
     2
100
AcDbLine
 10
429.008257
 20
400.965315
 30
0.0
 11
428.719577
 21
401.465319
 31
0.0
  0
LINE
  5
44B
100
AcDbEntity
  8
LAY-2
  6
CONTINUOUS
 62
     2
100
AcDbLine
 10
427.720557
 20
404.465532
 30
0.0
 11
428.720407
 21
401.465537
 31
0.0
  0
LINE
  5
44C
100
AcDbEntity
  8
LAY-2
  6
CONTINUOUS
 62
     2
100
AcDbLine
 10
427.075377
 20
400.965236
 30
0.0
 11
426.075517
 21
404.965241
 31
0.0
  0
LINE
  5
44D
100
AcDbEntity
  8
LAY-2
  6
EXLTYPE1
 62
     2
100
AcDbLine
 10
418.709097
 20
421.565246
 30
0.0
 11
419.909117
 21
421.565246
 31
0.0
  0
LINE
  5
44E
100
AcDbEntity
  8
LAY-2
  6
EXLTYPE1
 62
     2
100
AcDbLine
 10
419.909087
 20
416.96524
 30
0.0
 11
419.909087
 21
424.96524
 31
0.0
  0
LINE
  5
44F
100
AcDbEntity
  8
LAY-2
  6
EXLTYPE1
 62
     2
100
AcDbLine
 10
419.909087
 20
424.96524
 30
0.0
 11
421.209097
 21
424.96524
 31
0.0
  0
LINE
  5
450
100
AcDbEntity
  8
LAY-2
  6
EXLTYPE1
 62
     2
100
AcDbLine
 10
418.709147
 20
423.765056
 30
0.0
 11
419.909157
 21
424.965064
 31
0.0
  0
LINE
  5
451
100
AcDbEntity
  8
LAY-2
  6
EXLTYPE1
 62
     2
100
AcDbLine
 10
418.709097
 20
420.365233
 30
0.0
 11
419.909117
 21
420.365233
 31
0.0
  0
LINE
  5
452
100
AcDbEntity
  8
LAY-2
  6
EXLTYPE1
 62
     2
100
AcDbLine
 10
418.709647
 20
418.16584
 30
0.0
 11
419.909647
 21
416.965833
 31
0.0
  0
LINE
  5
453
100
AcDbEntity
  8
LAY-2
  6
EXLTYPE1
 62
     2
100
AcDbLine
 10
419.909087
 20
416.96524
 30
0.0
 11
421.209097
 21
416.96524
 31
0.0
  0
LINE
  5
454
100
AcDbEntity
  8
LAY-2
  6
CONTINUOUS
 62
     2
100
AcDbLine
 10
427.363577
 20
419.465236
 30
0.0
 11
428.719537
 21
419.465236
 31
0.0
  0
LINE
  5
455
100
AcDbEntity
  8
LAY-2
  6
CONTINUOUS
 62
     2
100
AcDbLine
 10
429.008167
 20
418.965222
 30
0.0
 11
428.008307
 21
422.965213
 31
0.0
  0
LINE
  5
456
100
AcDbEntity
  8
LAY-2
  6
CONTINUOUS
 62
     2
100
AcDbLine
 10
427.075407
 20
418.965236
 30
0.0
 11
426.075547
 21
422.965241
 31
0.0
  0
LINE
  5
457
100
AcDbEntity
  8
LAY-2
  6
CONTINUOUS
 62
     2
100
AcDbLine
 10
427.720597
 20
422.465537
 30
0.0
 11
428.720447
 21
419.465542
 31
0.0
  0
LINE
  5
458
100
AcDbEntity
  8
LAY-2
  6
CONTINUOUS
 62
     2
100
AcDbLine
 10
429.008277
 20
418.965311
 30
0.0
 11
428.719597
 21
419.465315
 31
0.0
  0
LINE
  5
459
100
AcDbEntity
  8
LAY-2
  6
CONTINUOUS
 62
     2
100
AcDbLine
 10
429.297187
 20
419.465012
 30
0.0
 11
429.008517
 21
418.965028
 31
0.0
  0
LINE
  5
45A
100
AcDbEntity
  8
LAY-2
  6
CONTINUOUS
 62
     2
100
AcDbLine
 10
429.296587
 20
419.465221
 30
0.0
 11
428.296717
 21
422.465216
 31
0.0
  0
LINE
  5
45B
100
AcDbEntity
  8
LAY-2
  6
CONTINUOUS
 62
     2
100
AcDbLine
 10
426.363707
 20
422.465236
 30
0.0
 11
427.719657
 21
422.465236
 31
0.0
  0
LINE
  5
45C
100
AcDbEntity
  8
LAY-2
  6
CONTINUOUS
 62
     2
100
AcDbLine
 10
427.719867
 20
422.465241
 30
0.0
 11
428.008567
 21
422.965278
 31
0.0
  0
LINE
  5
45D
100
AcDbEntity
  8
LAY-2
  6
CONTINUOUS
 62
     2
100
AcDbLine
 10
428.008707
 20
422.965366
 30
0.0
 11
428.297387
 21
422.465369
 31
0.0
  0
LINE
  5
45E
100
AcDbEntity
  8
LAY-2
  6
EXLTYPE1
 62
     2
100
AcDbLine
 10
423.497617
 20
419.46524
 30
0.0
 11
423.709067
 21
419.46524
 31
0.0
  0
LINE
  5
45F
100
AcDbEntity
  8
LAY-2
  6
CONTINUOUS
 62
     2
100
AcDbLine
 10
425.430967
 20
419.465236
 30
0.0
 11
426.786917
 21
419.465236
 31
0.0
  0
LINE
  5
460
100
AcDbEntity
  8
LAY-2
  6
CONTINUOUS
 62
     2
100
AcDbLine
 10
423.709067
 20
419.46524
 30
0.0
 11
424.853567
 21
419.46524
 31
0.0
  0
LINE
  5
461
100
AcDbEntity
  8
LAY-2
  6
CONTINUOUS
 62
     2
100
AcDbLine
 10
424.431087
 20
422.465236
 30
0.0
 11
425.787047
 21
422.465236
 31
0.0
  0
LINE
  5
462
100
AcDbEntity
  8
LAY-2
  6
CONTINUOUS
 62
     2
100
AcDbLine
 10
425.787877
 20
422.465534
 30
0.0
 11
426.787727
 21
419.465517
 31
0.0
  0
LINE
  5
463
100
AcDbEntity
  8
LAY-2
  6
CONTINUOUS
 62
     2
100
AcDbLine
 10
426.076027
 20
422.965357
 30
0.0
 11
426.364707
 21
422.465354
 31
0.0
  0
LINE
  5
464
100
AcDbEntity
  8
LAY-2
  6
CONTINUOUS
 62
     2
100
AcDbLine
 10
425.787327
 20
422.465214
 30
0.0
 11
426.075997
 21
422.965198
 31
0.0
  0
LINE
  5
465
100
AcDbEntity
  8
LAY-2
  6
CONTINUOUS
 62
     2
100
AcDbLine
 10
427.364047
 20
419.465185
 30
0.0
 11
426.364177
 21
422.46518
 31
0.0
  0
LINE
  5
466
100
AcDbEntity
  8
LAY-2
  6
CONTINUOUS
 62
     2
100
AcDbLine
 10
427.364567
 20
419.465136
 30
0.0
 11
427.075887
 21
418.965126
 31
0.0
  0
LINE
  5
467
100
AcDbEntity
  8
LAY-2
  6
CONTINUOUS
 62
     2
100
AcDbLine
 10
427.075677
 20
418.9653
 30
0.0
 11
426.786997
 21
419.465297
 31
0.0
  0
LINE
  5
468
100
AcDbEntity
  8
LAY-2
  6
CONTINUOUS
 62
     2
100
AcDbLine
 10
425.142257
 20
418.965237
 30
0.0
 11
424.853577
 21
419.465238
 31
0.0
  0
LINE
  5
469
100
AcDbEntity
  8
LAY-2
  6
CONTINUOUS
 62
     2
100
AcDbLine
 10
423.709067
 20
422.46524
 30
0.0
 11
423.853727
 21
422.46524
 31
0.0
  0
LINE
  5
46A
100
AcDbEntity
  8
LAY-2
  6
CONTINUOUS
 62
     2
100
AcDbLine
 10
425.430947
 20
419.465232
 30
0.0
 11
425.142277
 21
418.965236
 31
0.0
  0
LINE
  5
46B
100
AcDbEntity
  8
LAY-2
  6
CONTINUOUS
 62
     2
100
AcDbLine
 10
423.853727
 20
422.46524
 30
0.0
 11
424.853587
 21
419.465241
 31
0.0
  0
LINE
  5
46C
100
AcDbEntity
  8
LAY-2
  6
EXLTYPE1
 62
     2
100
AcDbLine
 10
423.032727
 20
420.860114
 30
0.0
 11
423.497627
 21
419.465242
 31
0.0
  0
LINE
  5
46D
100
AcDbEntity
  8
LAY-2
  6
EXLTYPE1
 62
     2
100
AcDbLine
 10
422.209067
 20
422.46524
 30
0.0
 11
423.709067
 21
422.46524
 31
0.0
  0
LINE
  5
46E
100
AcDbEntity
  8
LAY-2
  6
CONTINUOUS
 62
     2
100
AcDbLine
 10
424.431077
 20
422.465241
 30
0.0
 11
425.430957
 21
419.46524
 31
0.0
  0
LINE
  5
46F
100
AcDbEntity
  8
LAY-2
  6
EXLTYPE1
 62
     2
100
AcDbLine
 10
421.209067
 20
418.46524
 30
0.0
 11
422.209077
 21
419.465241
 31
0.0
  0
LINE
  5
470
100
AcDbEntity
  8
LAY-2
  6
EXLTYPE1
 62
     2
100
AcDbLine
 10
422.209067
 20
419.46524
 30
0.0
 11
422.920237
 21
419.46524
 31
0.0
  0
LINE
  5
471
100
AcDbEntity
  8
LAY-2
  6
EXLTYPE1
 62
     2
100
AcDbLine
 10
422.209067
 20
422.46524
 30
0.0
 11
422.209067
 21
419.46524
 31
0.0
  0
LINE
  5
472
100
AcDbEntity
  8
LAY-2
  6
EXLTYPE1
 62
     2
100
AcDbLine
 10
421.209067
 20
423.465236
 30
0.0
 11
422.209067
 21
422.465235
 31
0.0
  0
LINE
  5
473
100
AcDbEntity
  8
LAY-2
  6
CONTINUOUS
 62
     2
100
AcDbLine
 10
425.142267
 20
418.96524
 30
0.0
 11
424.142397
 21
422.96524
 31
0.0
  0
LINE
  5
474
100
AcDbEntity
  8
LAY-2
  6
EXLTYPE1
 62
     2
100
AcDbLine
 10
423.208927
 20
418.965238
 30
0.0
 11
422.400597
 21
422.199021
 31
0.0
  0
LINE
  5
475
100
AcDbEntity
  8
LAY-2
  6
CONTINUOUS
 62
     2
100
AcDbLine
 10
423.853727
 20
422.465237
 30
0.0
 11
424.142407
 21
422.96524
 31
0.0
  0
LINE
  5
476
100
AcDbEntity
  8
LAY-2
  6
EXLTYPE1
 62
     2
100
AcDbLine
 10
423.208917
 20
418.965238
 30
0.0
 11
422.920247
 21
419.465238
 31
0.0
  0
LINE
  5
477
100
AcDbEntity
  8
LAY-2
  6
EXLTYPE1
 62
     2
100
AcDbLine
 10
423.497617
 20
419.465229
 30
0.0
 11
423.208947
 21
418.965232
 31
0.0
  0
LINE
  5
478
100
AcDbEntity
  8
LAY-2
  6
CONTINUOUS
 62
     2
100
AcDbLine
 10
424.142397
 20
422.965237
 30
0.0
 11
424.431077
 21
422.465236
 31
0.0
  0
LINE
  5
479
100
AcDbEntity
  8
LAY-2
  6
EXLTYPE1
 62
     2
100
AcDbLine
 10
422.493907
 20
420.730637
 30
0.0
 11
422.403667
 21
422.192393
 31
0.0
  0
LINE
  5
47A
100
AcDbEntity
  8
LAY-2
  6
EXLTYPE1
 62
     2
100
AcDbLine
 10
422.492867
 20
420.747579
 30
0.0
 11
422.920247
 21
419.465241
 31
0.0
  0
LINE
  5
47B
100
AcDbEntity
  8
LAY-2
  6
EXLTYPE1
 62
     2
100
AcDbLine
 10
422.403677
 20
422.192395
 30
0.0
 11
423.023267
 21
420.856964
 31
0.0
  0
LINE
  5
47C
100
AcDbEntity
  8
LAY-2
  6
CONTINUOUS
 62
     2
100
AcDbLine
 10
429.008137
 20
400.965222
 30
0.0
 11
428.008277
 21
404.965213
 31
0.0
  0
LINE
  5
47D
100
AcDbEntity
  8
LAY-2
  6
CONTINUOUS
 62
     2
100
AcDbLine
 10
427.363547
 20
401.465236
 30
0.0
 11
428.719507
 21
401.465236
 31
0.0
  0
LINE
  5
47E
100
AcDbEntity
  8
LAY-2
  6
EXLTYPE1
 62
     2
100
AcDbLine
 10
419.909057
 20
398.965239
 30
0.0
 11
421.209067
 21
398.965239
 31
0.0
  0
LINE
  5
47F
100
AcDbEntity
  8
LAY-2
  6
EXLTYPE1
 62
     2
100
AcDbLine
 10
418.709617
 20
400.16584
 30
0.0
 11
419.909617
 21
398.965833
 31
0.0
  0
LINE
  5
480
100
AcDbEntity
  8
LAY-2
  6
EXLTYPE1
 62
     2
100
AcDbLine
 10
418.709067
 20
402.365233
 30
0.0
 11
419.909087
 21
402.365233
 31
0.0
  0
LINE
  5
481
100
AcDbEntity
  8
LAY-2
  6
EXLTYPE1
 62
     2
100
AcDbLine
 10
418.709117
 20
405.765056
 30
0.0
 11
419.909127
 21
406.965064
 31
0.0
  0
LINE
  5
482
100
AcDbEntity
  8
LAY-2
  6
EXLTYPE1
 62
     2
100
AcDbLine
 10
419.909057
 20
406.96524
 30
0.0
 11
421.209067
 21
406.96524
 31
0.0
  0
LINE
  5
483
100
AcDbEntity
  8
LAY-2
  6
EXLTYPE1
 62
     2
100
AcDbLine
 10
423.497587
 20
401.465239
 30
0.0
 11
423.709037
 21
401.465239
 31
0.0
  0
DIMENSION
  5
490
100
AcDbEntity
  8
LAY-3
  6
CONTINUOUS
 62
     3
100
AcDbDimension
  2
*D14
 10
451.00762
 20
373.96524
 30
0.0
 11
434.758373
 21
379.84024
 31
0.0
 70
   160
  3
STANDARD
100
AcDbAlignedDimension
 13
418.509127
 23
396.96524
 33
0.0
 14
451.00762
 24
402.964877
 34
0.0
100
AcDbRotatedDimension
1001
ACAD
1000
DSTYLE
1002
{
1070
     6
1000
_EX_NORM
1070
     7
1000
_EX_NORM
1070
    41
1040
7.5
1070
    42
1040
1.75
1070
    44
1040
2.5
1070
    73
1070
     0
1070
    74
1070
     0
1070
    75
1070
     0
1070
    76
1070
     0
1070
    77
1070
     1
1070
    78
1070
     8
1070
   140
1040
10.0
1070
   147
1040
0.875
1070
   173
1070
     1
1070
   176
1070
     3
1070
   177
1070
     3
1070
   178
1070
     2
1070
   271
1070
     2
1070
   279
1070
     2
1070
   280
1070
     0
1070
   287
1070
     5
1070
   340
1005
48F
1002
}
  0
DIMENSION
  5
49C
100
AcDbEntity
  8
LAY-3
  6
CONTINUOUS
 62
     3
100
AcDbDimension
  2
*D15
 10
423.509127
 20
468.965241
 30
0.0
 11
393.509136
 21
474.715241
 31
0.0
 70
   160
  3
STANDARD
100
AcDbAlignedDimension
 13
363.509146
 23
436.465241
 33
0.0
 14
423.509127
 24
438.965241
 34
0.0
100
AcDbRotatedDimension
1001
ACAD
1000
DSTYLE
1002
{
1070
     6
1000
_EX_NORM
1070
     7
1000
_EX_NORM
1070
    41
1040
7.5
1070
    42
1040
1.25
1070
    44
1040
2.5
1070
    73
1070
     0
1070
    74
1070
     0
1070
    75
1070
     0
1070
    76
1070
     0
1070
    77
1070
     1
1070
    78
1070
     8
1070
   140
1040
10.0
1070
   147
1040
0.75
1070
   173
1070
     1
1070
   176
1070
     3
1070
   177
1070
     3
1070
   178
1070
     2
1070
   271
1070
     2
1070
   279
1070
     2
1070
   280
1070
     0
1070
   287
1070
     5
1070
   340
1005
48F
1002
}
  0
DIMENSION
  5
4A8
100
AcDbEntity
  8
LAY-3
  6
CONTINUOUS
 62
     3
100
AcDbDimension
  2
*D16
 10
348.509146
 20
393.96524
 30
0.0
 11
342.759146
 21
420.21524
 31
0.0
 70
   160
  1
53
  3
STANDARD
100
AcDbAlignedDimension
 13
373.509146
 23
446.465241
 33
0.0
 14
421.509147
 24
393.96524
 34
0.0
 50
90.0
100
AcDbRotatedDimension
1001
ACAD
1000
DSTYLE
1002
{
1070
     6
1000
_EX_NORM
1070
     7
1000
_EX_NORM
1070
    41
1040
7.5
1070
    42
1040
1.25
1070
    44
1040
2.5
1070
    73
1070
     0
1070
    74
1070
     0
1070
    75
1070
     0
1070
    76
1070
     0
1070
    77
1070
     1
1070
    78
1070
     8
1070
   140
1040
10.0
1070
   147
1040
0.75
1070
   173
1070
     1
1070
   176
1070
     3
1070
   177
1070
     3
1070
   178
1070
     2
1070
   271
1070
     2
1070
   279
1070
     2
1070
   280
1070
     0
1070
   287
1070
     5
1070
   340
1005
48F
1002
}
  0
DIMENSION
  5
4B4
100
AcDbEntity
  8
LAY-3
  6
CONTINUOUS
 62
     3
100
AcDbDimension
  2
*D17
 10
298.0
 20
402.96524
 30
0.0
 11
292.125
 21
411.96524
 31
0.0
 70
   160
  3
STANDARD
100
AcDbAlignedDimension
 13
274.644668
 23
420.96524
 33
0.0
 14
274.91835
 24
402.96524
 34
0.0
 50
90.0
100
AcDbRotatedDimension
1001
ACAD
1000
DSTYLE
1002
{
1070
     6
1000
_EX_NORM
1070
     7
1000
_EX_NORM
1070
    41
1040
7.5
1070
    42
1040
1.75
1070
    44
1040
2.5
1070
    73
1070
     0
1070
    74
1070
     0
1070
    75
1070
     0
1070
    76
1070
     0
1070
    77
1070
     1
1070
    78
1070
     8
1070
   140
1040
10.0
1070
   147
1040
0.875
1070
   173
1070
     1
1070
   176
1070
     3
1070
   177
1070
     3
1070
   178
1070
     2
1070
   271
1070
     2
1070
   279
1070
     2
1070
   280
1070
     0
1070
   287
1070
     5
1070
   340
1005
48F
1002
}
  0
DIMENSION
  5
4BD
100
AcDbEntity
  8
LAY-3
  6
CONTINUOUS
 62
     3
100
AcDbDimension
  2
*D18
 10
298.0
 20
393.96524
 30
0.0
 11
292.125
 21
381.46524
 31
0.0
 70
   160
  3
STANDARD
100
AcDbAlignedDimension
 13
298.0
 23
402.96524
 33
0.0
 14
283.000015
 24
393.96524
 34
0.0
 50
90.0
100
AcDbRotatedDimension
1001
ACAD
1000
DSTYLE
1002
{
1070
     6
1000
_EX_NONE
1070
     7
1000
_EX_NORM
1070
    41
1040
7.5
1070
    42
1040
1.75
1070
    44
1040
2.5
1070
    73
1070
     0
1070
    74
1070
     0
1070
    75
1070
     1
1070
    76
1070
     0
1070
    77
1070
     1
1070
    78
1070
     8
1070
   140
1040
10.0
1070
   147
1040
0.875
1070
   173
1070
     1
1070
   176
1070
     3
1070
   177
1070
     3
1070
   178
1070
     2
1070
   271
1070
     2
1070
   279
1070
     2
1070
   280
1070
     2
1070
   287
1070
     5
1070
   340
1005
48F
1002
}
  0
DIMENSION
  5
4C9
100
AcDbEntity
  8
LAY-3
  6
CONTINUOUS
 62
     3
100
AcDbDimension
  2
*D19
 10
268.0
 20
373.965239
 30
0.0
 11
182.999999
 21
379.840239
 31
0.0
 70
   160
  1
430
  3
STANDARD
100
AcDbAlignedDimension
 13
97.999997
 23
389.846549
 33
0.0
 14
268.0
 24
390.813346
 34
0.0
100
AcDbRotatedDimension
1001
ACAD
1000
DSTYLE
1002
{
1070
     6
1000
_EX_NORM
1070
     7
1000
_EX_NORM
1070
    41
1040
7.5
1070
    42
1040
1.75
1070
    44
1040
2.5
1070
    73
1070
     0
1070
    74
1070
     0
1070
    75
1070
     0
1070
    76
1070
     0
1070
    77
1070
     1
1070
    78
1070
     8
1070
   140
1040
10.0
1070
   147
1040
0.875
1070
   173
1070
     1
1070
   176
1070
     3
1070
   177
1070
     3
1070
   178
1070
     2
1070
   271
1070
     2
1070
   279
1070
     2
1070
   280
1070
     0
1070
   287
1070
     5
1070
   340
1005
48F
1002
}
  0
DIMENSION
  5
4D5
100
AcDbEntity
  8
LAY-3
  6
CONTINUOUS
 62
     3
100
AcDbDimension
  2
*D20
 10
283.0
 20
358.965239
 30
0.0
 11
182.999984
 21
364.840239
 31
0.0
 70
   160
  1
460
  3
STANDARD
100
AcDbAlignedDimension
 13
82.999967
 23
393.96524
 33
0.0
 14
283.0
 24
393.965247
 34
0.0
100
AcDbRotatedDimension
1001
ACAD
1000
DSTYLE
1002
{
1070
     6
1000
_EX_NORM
1070
     7
1000
_EX_NORM
1070
    41
1040
7.5
1070
    42
1040
1.75
1070
    44
1040
2.5
1070
    73
1070
     0
1070
    74
1070
     0
1070
    75
1070
     0
1070
    76
1070
     0
1070
    77
1070
     1
1070
    78
1070
     8
1070
   140
1040
10.0
1070
   147
1040
0.875
1070
   173
1070
     1
1070
   176
1070
     3
1070
   177
1070
     3
1070
   178
1070
     2
1070
   271
1070
     2
1070
   279
1070
     2
1070
   280
1070
     0
1070
   287
1070
     5
1070
   340
1005
48F
1002
}
  0
DIMENSION
  5
4E1
100
AcDbEntity
  8
LAY-3
  6
CONTINUOUS
 62
     3
100
AcDbDimension
  2
*D21
 10
283.0
 20
466.465241
 30
0.0
 11
268.0
 21
472.340241
 31
0.0
 70
   160
  3
STANDARD
100
AcDbAlignedDimension
 13
253.0
 23
446.465241
 33
0.0
 14
283.0
 24
446.465241
 34
0.0
100
AcDbRotatedDimension
1001
ACAD
1000
DSTYLE
1002
{
1070
     6
1000
_EX_NORM
1070
     7
1000
_EX_NORM
1070
    41
1040
7.5
1070
    42
1040
1.75
1070
    44
1040
2.5
1070
    73
1070
     0
1070
    74
1070
     0
1070
    75
1070
     0
1070
    76
1070
     0
1070
    77
1070
     1
1070
    78
1070
     8
1070
   140
1040
10.0
1070
   147
1040
0.875
1070
   173
1070
     1
1070
   176
1070
     3
1070
   177
1070
     3
1070
   178
1070
     2
1070
   271
1070
     2
1070
   279
1070
     2
1070
   280
1070
     0
1070
   287
1070
     5
1070
   340
1005
48F
1002
}
  0
CIRCLE
  5
4E2
100
AcDbEntity
  8
LAY-3
  6
CONTINUOUS
 62
     3
100
AcDbCircle
 10
204.872365
 20
468.331853
 30
0.0
 40
6.5
  0
TEXT
  5
4E3
100
AcDbEntity
  8
LAY-3
  6
CONTINUOUS
 62
     2
100
AcDbText
 10
199.151248
 20
462.081853
 30
0.0
 40
12.5
  1
２
 41
0.84
  7
EXCADSTD
 72
     5
 11
209.151248
 21
462.081853
 31
0.0
100
AcDbText
  0
LEADER
  5
4E4
100
AcDbEntity
  8
LAY-3
  6
CONTINUOUS
 62
     3
100
AcDbLeader
  3
STANDARD
 73
     3
 74
     1
 75
     0
 40
0.0
 76
     2
 10
217.218128
 20
441.465241
 30
0.0
 10
207.586415
 20
462.425591
 30
0.0
 77
     3
1001
ACAD
1000
DSTYLE
1002
{
1070
    41
1040
8.75
1070
     5
1000
_EX_NORM
1070
     6
1000
_EX_NORM
1070
     7
1000
_EX_NORM
1070
   341
1005
28
1002
}
  0
CIRCLE
  5
4E5
100
AcDbEntity
  8
LAY-3
  6
CONTINUOUS
 62
     3
100
AcDbCircle
 10
459.6
 20
415.7
 30
0.0
 40
6.5
  0
TEXT
  5
4E6
100
AcDbEntity
  8
LAY-3
  6
CONTINUOUS
 62
     2
100
AcDbText
 10
453.878883
 20
409.45
 30
0.0
 40
12.5
  1
４
 41
0.84
  7
EXCADSTD
 72
     5
 11
463.878883
 21
409.45
 31
0.0
100
AcDbText
  0
POLYLINE
  5
4E7
100
AcDbEntity
  8
LAY-3
  6
CONTINUOUS
 62
     3
100
AcDb2dPolyline
 66
     1
 10
0.0
 20
0.0
 30
0.0
 70
   128
  0
VERTEX
  5
4E8
100
AcDbEntity
  8
LAY-3
  6
CONTINUOUS
 62
     3
100
AcDbVertex
100
AcDb2dVertex
 10
445.697337
 20
404.465367
 30
0.0
  0
VERTEX
  5
4E9
100
AcDbEntity
  8
LAY-3
  6
CONTINUOUS
 62
     3
100
AcDbVertex
100
AcDb2dVertex
 10
454.544371
 20
411.614586
 30
0.0
  0
SEQEND
  5
4EA
100
AcDbEntity
  8
LAY-3
  6
CONTINUOUS
 62
     3
  0
LINE
  5
4EB
100
AcDbEntity
  8
LAY-3
  6
CONTINUOUS
 62
     3
100
AcDbLine
 10
451.586393
 20
411.099239
 30
0.0
 11
445.697337
 21
404.465367
 31
0.0
  0
LINE
  5
4EC
100
AcDbEntity
  8
LAY-3
  6
CONTINUOUS
 62
     3
100
AcDbLine
 10
445.697337
 20
404.465367
 30
0.0
 11
453.419591
 21
408.830688
 31
0.0
  0
CIRCLE
  5
4ED
100
AcDbEntity
  8
LAY-3
  6
CONTINUOUS
 62
     3
100
AcDbCircle
 10
407.1
 20
461.0
 30
0.0
 40
6.5
  0
TEXT
  5
4EE
100
AcDbEntity
  8
LAY-3
  6
CONTINUOUS
 62
     2
100
AcDbText
 10
401.378883
 20
454.75
 30
0.0
 40
12.5
  1
３
 41
0.84
  7
EXCADSTD
 72
     5
 11
411.378883
 21
454.75
 31
0.0
100
AcDbText
  0
LEADER
  5
4EF
100
AcDbEntity
  8
LAY-3
  6
CONTINUOUS
 62
     3
100
AcDbLeader
  3
STANDARD
 73
     3
 74
     1
 75
     0
 40
0.0
 76
     2
 10
388.0
 20
438.965241
 30
0.0
 10
402.842543
 20
456.088375
 30
0.0
 77
     3
1001
ACAD
1000
DSTYLE
1002
{
1070
    41
1040
8.75
1070
     5
1000
_EX_NORM
1070
     6
1000
_EX_NORM
1070
     7
1000
_EX_NORM
1070
   341
1005
28
1002
}
  0
CIRCLE
  5
4F0
100
AcDbEntity
  8
LAY-3
  6
CONTINUOUS
 62
     3
100
AcDbCircle
 10
380.801129
 20
408.35461
 30
0.0
 40
6.5
  0
TEXT
  5
4F1
100
AcDbEntity
  8
LAY-3
  6
CONTINUOUS
 62
     2
100
AcDbText
 10
375.080012
 20
402.10461
 30
0.0
 40
12.5
  1
１
 41
0.84
  7
EXCADSTD
 72
     5
 11
385.080012
 21
402.10461
 31
0.0
100
AcDbText
  0
LEADER
  5
4F2
100
AcDbEntity
  8
LAY-3
  6
CONTINUOUS
 62
     3
100
AcDbLeader
  3
STANDARD
 73
     3
 74
     1
 75
     0
 40
0.0
 76
     2
 10
375.460674
 20
431.753391
 30
0.0
 10
379.354785
 20
414.691651
 30
0.0
 77
     3
1001
ACAD
1000
DSTYLE
1002
{
1070
    41
1040
8.75
1070
     5
1000
_EX_NORM
1070
     6
1000
_EX_NORM
1070
     7
1000
_EX_NORM
1070
   341
1005
28
1002
}
  0
ENDSEC
  0
SECTION
  2
OBJECTS
  0
DICTIONARY
  5
19
100
AcDbDictionary
  3
ACAD_GROUP
350
1A
  3
ACAD_MLINESTYLE
350
1B
  0
DICTIONARY
  5
1A
102
{ACAD_REACTORS
330
19
102
}
100
AcDbDictionary
  0
DICTIONARY
  5
1B
102
{ACAD_REACTORS
330
19
102
}
100
AcDbDictionary
  3
STANDARD
350
1C
  0
MLINESTYLE
  5
1C
102
{ACAD_REACTORS
330
1B
102
}
100
AcDbMlineStyle
  2
Standard
 70
     0
  3

 62
     0
 51
90.0
 52
90.0
 71
     2
 49
0.5
 62
   256
  6
ByLayer
 49
-0.5
 62
   256
  6
ByLayer
  0
ENDSEC
  0
EOF
