  0
SECTION
  2
HEADER
  9
$ACADVER
  1
AC1014
  9
$ACADMAINTVER
 70
     0
  9
$DWGCODEPAGE
  3
ANSI_932
  9
$INSBASE
 10
0.0
 20
0.0
 30
0.0
  9
$EXTMIN
 10
-0.1
 20
11.5
 30
0.0
  9
$EXTMAX
 10
199.9
 20
291.5
 30
0.0
  9
$LIMMIN
 10
0.0
 20
0.0
  9
$LIMMAX
 10
210.0
 20
297.0
  9
$ORTHOMODE
 70
     0
  9
$REGENMODE
 70
     1
  9
$FILLMODE
 70
     1
  9
$QTEXTMODE
 70
     0
  9
$MIRRTEXT
 70
     1
  9
$DRAGMODE
 70
     2
  9
$LTSCALE
 40
1.0
  9
$OSMODE
 70
     0
  9
$ATTMODE
 70
     1
  9
$TEXTSIZE
 40
0.2
  9
$TRACEWID
 40
0.05
  9
$TEXTSTYLE
  7
STANDARD
  9
$CLAYER
  8
LAY-2
  9
$CELTYPE
  6
CONTINUOUS
  9
$CECOLOR
 62
   256
  9
$CELTSCALE
 40
1.0
  9
$DELOBJ
 70
     1
  9
$DISPSILH
 70
     0
  9
$DIMSCALE
 40
1.0
  9
$DIMASZ
 40
0.18
  9
$DIMEXO
 40
0.0625
  9
$DIMDLI
 40
0.38
  9
$DIMRND
 40
0.0
  9
$DIMDLE
 40
0.0
  9
$DIMEXE
 40
0.18
  9
$DIMTP
 40
0.0
  9
$DIMTM
 40
0.0
  9
$DIMTXT
 40
0.18
  9
$DIMCEN
 40
0.09
  9
$DIMTSZ
 40
0.0
  9
$DIMTOL
 70
     0
  9
$DIMLIM
 70
     0
  9
$DIMTIH
 70
     1
  9
$DIMTOH
 70
     1
  9
$DIMSE1
 70
     0
  9
$DIMSE2
 70
     0
  9
$DIMTAD
 70
     0
  9
$DIMZIN
 70
     0
  9
$DIMBLK
  1

  9
$DIMASO
 70
     1
  9
$DIMSHO
 70
     1
  9
$DIMPOST
  1

  9
$DIMAPOST
  1

  9
$DIMALT
 70
     0
  9
$DIMALTD
 70
     2
  9
$DIMALTF
 40
25.4
  9
$DIMLFAC
 40
1.0
  9
$DIMTOFL
 70
     0
  9
$DIMTVP
 40
0.0
  9
$DIMTIX
 70
     0
  9
$DIMSOXD
 70
     0
  9
$DIMSAH
 70
     0
  9
$DIMBLK1
  1

  9
$DIMBLK2
  1

  9
$DIMSTYLE
  2
STANDARD
  9
$DIMCLRD
 70
     0
  9
$DIMCLRE
 70
     0
  9
$DIMCLRT
 70
     0
  9
$DIMTFAC
 40
1.0
  9
$DIMGAP
 40
0.09
  9
$DIMJUST
 70
     0
  9
$DIMSD1
 70
     0
  9
$DIMSD2
 70
     0
  9
$DIMTOLJ
 70
     1
  9
$DIMTZIN
 70
     0
  9
$DIMALTZ
 70
     0
  9
$DIMALTTZ
 70
     0
  9
$DIMFIT
 70
     3
  9
$DIMUPT
 70
     0
  9
$DIMUNIT
 70
     2
  9
$DIMDEC
 70
     4
  9
$DIMTDEC
 70
     4
  9
$DIMALTU
 70
     2
  9
$DIMALTTD
 70
     2
  9
$DIMTXSTY
  7
STANDARD
  9
$DIMAUNIT
 70
     0
  9
$LUNITS
 70
     2
  9
$LUPREC
 70
     4
  9
$SKETCHINC
 40
0.1
  9
$FILLETRAD
 40
0.0
  9
$AUNITS
 70
     0
  9
$AUPREC
 70
     0
  9
$MENU
  1
acad
  9
$ELEVATION
 40
0.0
  9
$PELEVATION
 40
0.0
  9
$THICKNESS
 40
0.0
  9
$LIMCHECK
 70
     0
  9
$BLIPMODE
 70
     1
  9
$CHAMFERA
 40
0.0
  9
$CHAMFERB
 40
0.0
  9
$CHAMFERC
 40
0.0
  9
$CHAMFERD
 40
0.0
  9
$SKPOLY
 70
     0
  9
$TDCREATE
 40
2454512.030906273
  9
$TDUPDATE
 40
2454512.030906273
  9
$TDINDWG
 40
0.0000000000
  9
$TDUSRTIMER
 40
0.0000000000
  9
$USRTIMER
 70
     1
  9
$ANGBASE
 50
0.0
  9
$ANGDIR
 70
     0
  9
$PDMODE
 70
     0
  9
$PDSIZE
 40
0.0
  9
$PLINEWID
 40
0.0
  9
$COORDS
 70
     1
  9
$SPLFRAME
 70
     0
  9
$SPLINETYPE
 70
     6
  9
$SPLINESEGS
 70
     8
  9
$ATTDIA
 70
     0
  9
$ATTREQ
 70
     1
  9
$HANDLING
 70
     1
  9
$HANDSEED
  5
3EB
  9
$SURFTAB1
 70
     6
  9
$SURFTAB2
 70
     6
  9
$SURFTYPE
 70
     6
  9
$SURFU
 70
     6
  9
$SURFV
 70
     6
  9
$UCSNAME
  2

  9
$UCSORG
 10
0.0
 20
0.0
 30
0.0
  9
$UCSXDIR
 10
1.0
 20
0.0
 30
0.0
  9
$UCSYDIR
 10
0.0
 20
1.0
 30
0.0
  9
$PUCSNAME
  2

  9
$PUCSORG
 10
0.0
 20
0.0
 30
0.0
  9
$PUCSXDIR
 10
1.0
 20
0.0
 30
0.0
  9
$PUCSYDIR
 10
0.0
 20
1.0
 30
0.0
  9
$USERI1
 70
     0
  9
$USERI2
 70
     0
  9
$USERI3
 70
     0
  9
$USERI4
 70
     0
  9
$USERI5
 70
     0
  9
$USERR1
 40
0.0
  9
$USERR2
 40
0.0
  9
$USERR3
 40
0.0
  9
$USERR4
 40
0.0
  9
$USERR5
 40
0.0
  9
$WORLDVIEW
 70
     1
  9
$SHADEDGE
 70
     3
  9
$SHADEDIF
 70
    70
  9
$TILEMODE
 70
     1
  9
$MAXACTVP
 70
    16
  9
$PINSBASE
 10
0.0
 20
0.0
 30
0.0
  9
$PLIMCHECK
 70
     0
  9
$PEXTMIN
 10
1.000000E+20
 20
1.000000E+20
 30
1.000000E+20
  9
$PEXTMAX
 10
-1.000000E+20
 20
-1.000000E+20
 30
-1.000000E+20
  9
$PLIMMIN
 10
0.0
 20
0.0
  9
$PLIMMAX
 10
12.0
 20
9.0
  9
$UNITMODE
 70
     0
  9
$VISRETAIN
 70
     0
  9
$PLINEGEN
 70
     1
  9
$PSLTSCALE
 70
     0
  9
$TREEDEPTH
 70
  3020
  9
$PICKSTYLE
 70
     1
  9
$CMLSTYLE
  2
Standard
  9
$CMLJUST
 70
     0
  9
$CMLSCALE
 40
1.0
  9
$PROXYGRAPHICS
 70
     0
  9
$MEASUREMENT
 70
     0
  0
ENDSEC
  0
SECTION
  2
CLASSES
  0
CLASS
  1
LWPOLYLINE
  2
AcDbPolyline
  3
"AutoCAD"
 90
        0
280
     0
281
     1
  0
CLASS
  1
IMAGE
  2
AcDbRasterImage
  3
ISM
 90
      127
280
     0
281
     1
  0
CLASS
  1
OLE2FRAME
  2
AcDbOle2Frame
  3
""
 90
        0
280
     0
281
     1
  0
CLASS
  1
HATCH
  2
AcDbHatch
  3
"ACAD_SEDONA"
 90
        0
280
     0
281
     1
  0
CLASS
  1
DICTIONARYVAR
  2
AcDbDictionaryVar
  3
"AutoCAD"
 90
        0
280
     0
281
     0
  0
CLASS
  1
RASTERVARIABLES
  2
AcDbRasterVariables
  3
ISM
 90
        0
280
     0
281
     0
  0
CLASS
  1
IMAGEDEF
  2
AcDbRasterImageDef
  3
ISM
 90
        0
280
     0
281
     0
  0
CLASS
  1
IMAGEDEF_REACTOR
  2
AcDbRasterImageDefReactor
  3
ISM
 90
        1
280
     0
281
     0
  0
CLASS
  1
IDBUFFER
  2
AcDbIdBuffer
  3
"Acad"
 90
        0
280
     0
281
     0
  0
CLASS
  1
SPATIAL_FILTER
  2
AcDbSpatialFilter
  3
"Acad"
 90
        0
280
     0
281
     0
  0
CLASS
  1
XRECORD
  2
AcDbXrecord
  3
"<Built In>"
 90
        0
280
     0
281
     0
  0
CLASS
  1
SORTENTSTABLE
  2
AcDbSortentsTable
  3
"AutoCAD"
 90
        0
280
     0
281
     0
  0
CLASS
  1
LAYER_INDEX
  2
AcDbLayerIndex
  3
"Acad"
 90
        0
280
     0
281
     0
  0
CLASS
  1
SPATIAL_INDEX
  2
AcDbSpatialIndex
  3
"Acad"
 90
        0
280
     0
281
     0
  0
CLASS
  1
OBJECT_PTR
  2
CAseDLPNTableRecord
  3
"ASE-LPNTableRecord"
 90
        1
280
     0
281
     0
  0
CLASS
  1
LAYOUT
  2
AcDbLayout
  3
"AutoCAD 2000"
 90
        1
280
     0
281
     0
  0
CLASS
  1
PLOTSETTINGS
  2
AcDbPlotSettings
  3
"AutoCAD 2000"
 90
        1
280
     0
281
     0
  0
CLASS
  1
ACDBDICTIONARYWDFLT
  2
AcDbDictionaryWithDefault
  3
"AutoCAD 2000"
 90
        1
280
     0
281
     0
  0
CLASS
  1
ACDBPLACEHOLDER
  2
AcDbPlaceHolder
  3
"AutoCAD 2000"
 90
        1
280
     0
281
     0
  0
CLASS
  1
VBA_PROJECT
  2
AcDbVbaProject
  3
"acadvba"
 90
        1
280
     0
281
     0
  0
CLASS
  1
WIPEOUT
  2
AcDbWipeout
  3
WipeOut|AutoCAD Express Tool|expresstools@autodesk.com
 90
      127
280
     0
281
     1
  0
CLASS
  1
WIPEOUTVARIABLES
  2
AcDbWipeoutVariables
  3
WipeOut|AutoCAD Express Tool|expresstools@autodesk.com
 90
        0
280
     0
281
     0
  0
CLASS
  1
RTEXT
  2
RText
  3
RText|AutoCAD Express Tool|expresstools@autodesk.com
 90
        0
280
     0
281
     1
  0
CLASS
  1
ARCALIGNEDTEXT
  2
AcDbArcAlignedText
  3
ATEXT|AutoCAD Express Tool|expresstools@autodesk.com
 90
        0
280
     0
281
     1
  0
ENDSEC
  0
SECTION
  2
TABLES
  0
TABLE
  2
VPORT
  5
7
100
AcDbSymbolTable
 70
     1
  0
VPORT
  5
15
100
AcDbSymbolTableRecord
100
AcDbViewportTableRecord
  2
*ACTIVE
 70
     0
 10
0.0
 20
0.0
 11
1.0
 21
1.0
 12
499.5
 22
757.5
 13
0.0
 23
0.0
 14
1.0
 24
1.0
 15
0.0
 25
0.0
 16
0.0
 26
0.0
 36
1.0
 17
0.0
 27
0.0
 37
0.0
 40
1400.0
 41
1.722533
 42
50.0
 43
0.0
 44
0.0
 50
0.0
 51
0.0
 71
     0
 72
   100
 73
     1
 74
     1
 75
     0
 76
     0
 77
     0
 78
     0
  0
ENDTAB
  0
TABLE
  2
LTYPE
  5
4
100
AcDbSymbolTable
 70
     9
  0
LTYPE
  5
11
100
AcDbSymbolTableRecord
100
AcDbLinetypeTableRecord
  2
BYBLOCK
 70
    64
  3

 72
    65
 73
     0
 40
0.0
  0
LTYPE
  5
12
100
AcDbSymbolTableRecord
100
AcDbLinetypeTableRecord
  2
BYLAYER
 70
    64
  3

 72
    65
 73
     0
 40
0.0
  0
LTYPE
  5
13
100
AcDbSymbolTableRecord
100
AcDbLinetypeTableRecord
  2
CONTINUOUS
 70
    64
  3
実線
 72
    65
 73
     0
 40
0.0
  0
LTYPE
  5
1D
100
AcDbSymbolTableRecord
100
AcDbLinetypeTableRecord
  2
EXLTYPE1
 70
    64
  3
破線
 72
    65
 73
     2
 40
3.0
 49
2.0
 74
     0
 49
-1.0
 74
     0
  0
LTYPE
  5
1E
100
AcDbSymbolTableRecord
100
AcDbLinetypeTableRecord
  2
EXLTYPE2
 70
    64
  3
点線
 72
    65
 73
     2
 40
2.0
 49
1.0
 74
     0
 49
-1.0
 74
     0
  0
LTYPE
  5
1F
100
AcDbSymbolTableRecord
100
AcDbLinetypeTableRecord
  2
EXLTYPE3
 70
    64
  3
一点鎖線
 72
    65
 73
     4
 40
10.0
 49
7.0
 74
     0
 49
-1.0
 74
     0
 49
1.0
 74
     0
 49
-1.0
 74
     0
  0
LTYPE
  5
20
100
AcDbSymbolTableRecord
100
AcDbLinetypeTableRecord
  2
EXLTYPE4
 70
    64
  3
二点鎖線
 72
    65
 73
     6
 40
12.0
 49
7.0
 74
     0
 49
-1.0
 74
     0
 49
1.0
 74
     0
 49
-1.0
 74
     0
 49
1.0
 74
     0
 49
-1.0
 74
     0
  0
LTYPE
  5
21
100
AcDbSymbolTableRecord
100
AcDbLinetypeTableRecord
  2
EXLTYPE5
 70
    64
  3
三点鎖線
 72
    65
 73
     8
 40
37.0
 49
30.0
 74
     0
 49
-1.0
 74
     0
 49
1.0
 74
     0
 49
-1.0
 74
     0
 49
1.0
 74
     0
 49
-1.0
 74
     0
 49
1.0
 74
     0
 49
-1.0
 74
     0
  0
LTYPE
  5
22
100
AcDbSymbolTableRecord
100
AcDbLinetypeTableRecord
  2
EXLTYPE6
 70
    64
  3
四点鎖線
 72
    65
 73
    10
 40
39.0
 49
30.0
 74
     0
 49
-1.0
 74
     0
 49
1.0
 74
     0
 49
-1.0
 74
     0
 49
1.0
 74
     0
 49
-1.0
 74
     0
 49
1.0
 74
     0
 49
-1.0
 74
     0
 49
1.0
 74
     0
 49
-1.0
 74
     0
  0
ENDTAB
  0
TABLE
  2
LAYER
  5
2
100
AcDbSymbolTable
 70
     4
  0
LAYER
  5
14
100
AcDbSymbolTableRecord
100
AcDbLayerTableRecord
  2
0
 70
     0
 62
     7
  6
CONTINUOUS
  0
LAYER
  5
25
100
AcDbSymbolTableRecord
100
AcDbLayerTableRecord
  2
LAY-1
 70
    64
 62
     7
  6
CONTINUOUS
  0
LAYER
  5
26
100
AcDbSymbolTableRecord
100
AcDbLayerTableRecord
  2
LAY-2
 70
    64
 62
     7
  6
CONTINUOUS
  0
LAYER
  5
27
100
AcDbSymbolTableRecord
100
AcDbLayerTableRecord
  2
LAY-3
 70
    64
 62
     7
  6
CONTINUOUS
  0
ENDTAB
  0
TABLE
  2
STYLE
  5
3
100
AcDbSymbolTable
 70
     4
  0
STYLE
  5
17
100
AcDbSymbolTableRecord
100
AcDbTextStyleTableRecord
  2
STANDARD
 70
     0
 40
0.0
 41
1.0
 50
0.0
 71
     0
 42
0.0
  3
monotxt
  4
extfont
  0
STYLE
  5
23
100
AcDbSymbolTableRecord
100
AcDbTextStyleTableRecord
  2
EXCADSTD
 70
    64
 40
0.0
 41
1.0
 50
0.0
 71
     0
 42
0.2
  3
monotxt
  4
extfont
  0
STYLE
  5
24
100
AcDbSymbolTableRecord
100
AcDbTextStyleTableRecord
  2
EXCADVERT
 70
    68
 40
0.0
 41
1.0
 50
0.0
 71
     0
 42
0.286885
  3
monotxt
  4
extfont
  0
STYLE
  5
36F
100
AcDbSymbolTableRecord
100
AcDbTextStyleTableRecord
  2
EXCADDIM1
 70
    64
 40
0.0
 41
0.84
 50
0.0
 71
     0
 42
0.2
  3
monotxt
  4
extfont
  0
ENDTAB
  0
TABLE
  2
VIEW
  5
5
100
AcDbSymbolTable
 70
     0
  0
ENDTAB
  0
TABLE
  2
UCS
  5
6
100
AcDbSymbolTable
 70
     0
  0
ENDTAB
  0
TABLE
  2
APPID
  5
8
100
AcDbSymbolTable
 70
     1
  0
APPID
  5
16
100
AcDbSymbolTableRecord
100
AcDbRegAppTableRecord
  2
ACAD
 70
     0
  0
ENDTAB
  0
TABLE
  2
DIMSTYLE
  5
9
100
AcDbSymbolTable
 70
     1
  0
DIMSTYLE
105
18
100
AcDbSymbolTableRecord
100
AcDbDimStyleTableRecord
  2
STANDARD
 70
     0
  3

  4

  5

  6

  7

 40
1.0
 41
0.18
 42
0.0625
 43
0.38
 44
0.18
 45
0.0
 46
0.0
 47
0.0
 48
0.0
 71
     0
 72
     0
 73
     1
 74
     1
 75
     0
 76
     0
 77
     0
 78
     0
140
0.18
141
0.09
142
0.0
143
25.4
144
1.0
145
0.0
146
1.0
147
0.09
170
     0
171
     2
172
     1
173
     0
174
     0
175
     0
176
     0
177
     0
178
     0
270
     2
271
     4
272
     4
273
     2
274
     2
275
     0
280
     0
281
     0
282
     0
283
     1
284
     0
285
     0
286
     0
287
     0
288
     0
340
17
  0
ENDTAB
  0
TABLE
  2
BLOCK_RECORD
  5
1
100
AcDbSymbolTable
 70
    25
  0
BLOCK_RECORD
  5
A
100
AcDbSymbolTableRecord
100
AcDbBlockTableRecord
  2
*MODEL_SPACE
  0
BLOCK_RECORD
  5
B
100
AcDbSymbolTableRecord
100
AcDbBlockTableRecord
  2
*PAPER_SPACE
  0
BLOCK_RECORD
  5
28
100
AcDbSymbolTableRecord
100
AcDbBlockTableRecord
  2
_EX_NORM
  0
BLOCK_RECORD
  5
29
100
AcDbSymbolTableRecord
100
AcDbBlockTableRecord
  2
_EX_BNORM
  0
BLOCK_RECORD
  5
2A
100
AcDbSymbolTableRecord
100
AcDbBlockTableRecord
  2
_EX_BCIR
  0
BLOCK_RECORD
  5
2B
100
AcDbSymbolTableRecord
100
AcDbBlockTableRecord
  2
_EX_RCIVIL
  0
BLOCK_RECORD
  5
2C
100
AcDbSymbolTableRecord
100
AcDbBlockTableRecord
  2
_EX_SLANT
  0
BLOCK_RECORD
  5
2D
100
AcDbSymbolTableRecord
100
AcDbBlockTableRecord
  2
_EX_NONE
  0
BLOCK_RECORD
  5
2E
100
AcDbSymbolTableRecord
100
AcDbBlockTableRecord
  2
_EX_CIVIL
  0
BLOCK_RECORD
  5
2F
100
AcDbSymbolTableRecord
100
AcDbBlockTableRecord
  2
_EX_WCIR
  0
BLOCK_RECORD
  5
30
100
AcDbSymbolTableRecord
100
AcDbBlockTableRecord
  2
_EX_WCIR2
  0
BLOCK_RECORD
  5
31
100
AcDbSymbolTableRecord
100
AcDbBlockTableRecord
  2
_EX_WNORM
  0
BLOCK_RECORD
  5
32
100
AcDbSymbolTableRecord
100
AcDbBlockTableRecord
  2
_EX_NNORM
  0
BLOCK_RECORD
  5
33
100
AcDbSymbolTableRecord
100
AcDbBlockTableRecord
  2
_EX_BBOX
  0
BLOCK_RECORD
  5
34
100
AcDbSymbolTableRecord
100
AcDbBlockTableRecord
  2
_EX_WBOX
  0
BLOCK_RECORD
  5
35
100
AcDbSymbolTableRecord
100
AcDbBlockTableRecord
  2
_EX_INTEGRAL
  0
BLOCK_RECORD
  5
365
100
AcDbSymbolTableRecord
100
AcDbBlockTableRecord
  2
*D14
  0
BLOCK_RECORD
  5
371
100
AcDbSymbolTableRecord
100
AcDbBlockTableRecord
  2
*D15
  0
BLOCK_RECORD
  5
37D
100
AcDbSymbolTableRecord
100
AcDbBlockTableRecord
  2
*D16
  0
BLOCK_RECORD
  5
389
100
AcDbSymbolTableRecord
100
AcDbBlockTableRecord
  2
*D17
  0
BLOCK_RECORD
  5
395
100
AcDbSymbolTableRecord
100
AcDbBlockTableRecord
  2
*D18
  0
BLOCK_RECORD
  5
3A1
100
AcDbSymbolTableRecord
100
AcDbBlockTableRecord
  2
*D19
  0
BLOCK_RECORD
  5
3AD
100
AcDbSymbolTableRecord
100
AcDbBlockTableRecord
  2
*D20
  0
BLOCK_RECORD
  5
3B9
100
AcDbSymbolTableRecord
100
AcDbBlockTableRecord
  2
*D21
  0
BLOCK_RECORD
  5
3C4
100
AcDbSymbolTableRecord
100
AcDbBlockTableRecord
  2
*D22
  0
BLOCK_RECORD
  5
3D0
100
AcDbSymbolTableRecord
100
AcDbBlockTableRecord
  2
*D23
  0
BLOCK_RECORD
  5
3DC
100
AcDbSymbolTableRecord
100
AcDbBlockTableRecord
  2
*D24
  0
ENDTAB
  0
ENDSEC
  0
SECTION
  2
BLOCKS
  0
BLOCK
  5
D
100
AcDbEntity
  8
0
100
AcDbBlockBegin
  2
*MODEL_SPACE
 70
     0
 10
0.0
 20
0.0
 30
0.0
  3
*MODEL_SPACE
  1

  0
ENDBLK
  5
E
100
AcDbEntity
  8
0
100
AcDbBlockEnd
  0
BLOCK
  5
F
100
AcDbEntity
 67
     1
  8
0
100
AcDbBlockBegin
  2
*PAPER_SPACE
 70
     0
 10
0.0
 20
0.0
 30
0.0
  3
*PAPER_SPACE
  1

  0
ENDBLK
  5
10
100
AcDbEntity
 67
     1
  8
0
100
AcDbBlockEnd
  0
BLOCK
  5
36
100
AcDbEntity
  8
0
100
AcDbBlockBegin
  2
_EX_NORM
 70
     0
 10
0.0
 20
0.0
 30
0.0
  3
_EX_NORM
  1

  0
LINE
  5
37
100
AcDbEntity
  8
0
  6
CONTINUOUS
 62
     0
100
AcDbLine
 10
0.0
 20
0.0
 30
0.0
 11
-1.0
 21
0.0
 31
0.0
  0
LINE
  5
38
100
AcDbEntity
  8
0
  6
CONTINUOUS
 62
     0
100
AcDbLine
 10
0.0
 20
0.0
 30
0.0
 11
-1.0
 21
0.166667
 31
0.0
  0
LINE
  5
39
100
AcDbEntity
  8
0
  6
CONTINUOUS
 62
     0
100
AcDbLine
 10
0.0
 20
0.0
 30
0.0
 11
-1.0
 21
-0.166667
 31
0.0
  0
ENDBLK
  5
3A
100
AcDbEntity
  8
0
100
AcDbBlockEnd
  0
BLOCK
  5
3B
100
AcDbEntity
  8
0
100
AcDbBlockBegin
  2
_EX_BNORM
 70
     0
 10
0.0
 20
0.0
 30
0.0
  3
_EX_BNORM
  1

  0
LINE
  5
3C
100
AcDbEntity
  8
0
  6
CONTINUOUS
 62
     0
100
AcDbLine
 10
0.0
 20
0.0
 30
0.0
 11
-1.0
 21
0.0
 31
0.0
  0
LINE
  5
3D
100
AcDbEntity
  8
0
  6
CONTINUOUS
 62
     0
100
AcDbLine
 10
0.0
 20
0.0
 30
0.0
 11
-1.0
 21
0.166667
 31
0.0
  0
LINE
  5
3E
100
AcDbEntity
  8
0
  6
CONTINUOUS
 62
     0
100
AcDbLine
 10
0.0
 20
0.0
 30
0.0
 11
-1.0
 21
-0.166667
 31
0.0
  0
LINE
  5
3F
100
AcDbEntity
  8
0
  6
CONTINUOUS
 62
     0
100
AcDbLine
 10
0.0
 20
0.0
 30
0.0
 11
-1.0
 21
0.083333
 31
0.0
  0
LINE
  5
40
100
AcDbEntity
  8
0
  6
CONTINUOUS
 62
     0
100
AcDbLine
 10
0.0
 20
0.0
 30
0.0
 11
-1.0
 21
-0.083333
 31
0.0
  0
LINE
  5
41
100
AcDbEntity
  8
0
  6
CONTINUOUS
 62
     0
100
AcDbLine
 10
-1.0
 20
0.166667
 30
0.0
 11
-1.0
 21
-0.166667
 31
0.0
  0
ENDBLK
  5
42
100
AcDbEntity
  8
0
100
AcDbBlockEnd
  0
BLOCK
  5
43
100
AcDbEntity
  8
0
100
AcDbBlockBegin
  2
_EX_BCIR
 70
     0
 10
0.0
 20
0.0
 30
0.0
  3
_EX_BCIR
  1

  0
LINE
  5
44
100
AcDbEntity
  8
0
  6
CONTINUOUS
 62
     0
100
AcDbLine
 10
0.0
 20
0.0
 30
0.0
 11
-1.0
 21
0.0
 31
0.0
  0
CIRCLE
  5
45
100
AcDbEntity
  8
0
  6
CONTINUOUS
 62
     0
100
AcDbCircle
 10
0.0
 20
0.0
 30
0.0
 40
0.5
  0
CIRCLE
  5
46
100
AcDbEntity
  8
0
  6
CONTINUOUS
 62
     0
100
AcDbCircle
 10
0.0
 20
0.0
 30
0.0
 40
0.25
  0
ENDBLK
  5
47
100
AcDbEntity
  8
0
100
AcDbBlockEnd
  0
BLOCK
  5
48
100
AcDbEntity
  8
0
100
AcDbBlockBegin
  2
_EX_RCIVIL
 70
     0
 10
0.0
 20
0.0
 30
0.0
  3
_EX_RCIVIL
  1

  0
LINE
  5
49
100
AcDbEntity
  8
0
  6
CONTINUOUS
 62
     0
100
AcDbLine
 10
0.0
 20
0.0
 30
0.0
 11
-1.0
 21
0.0
 31
0.0
  0
LINE
  5
4A
100
AcDbEntity
  8
0
  6
CONTINUOUS
 62
     0
100
AcDbLine
 10
-1.0
 20
-0.25
 30
0.0
 11
0.0
 21
-0.25
 31
0.0
  0
LINE
  5
4B
100
AcDbEntity
  8
0
  6
CONTINUOUS
 62
     0
100
AcDbLine
 10
-1.0
 20
-0.125
 30
0.0
 11
0.0
 21
-0.125
 31
0.0
  0
ENDBLK
  5
4C
100
AcDbEntity
  8
0
100
AcDbBlockEnd
  0
BLOCK
  5
4D
100
AcDbEntity
  8
0
100
AcDbBlockBegin
  2
_EX_SLANT
 70
     0
 10
0.0
 20
0.0
 30
0.0
  3
_EX_SLANT
  1

  0
LINE
  5
4E
100
AcDbEntity
  8
0
  6
CONTINUOUS
 62
     0
100
AcDbLine
 10
0.0
 20
0.0
 30
0.0
 11
-1.0
 21
0.0
 31
0.0
  0
LINE
  5
4F
100
AcDbEntity
  8
0
  6
CONTINUOUS
 62
     0
100
AcDbLine
 10
0.707107
 20
0.707107
 30
0.0
 11
-0.707107
 21
-0.707107
 31
0.0
  0
ENDBLK
  5
50
100
AcDbEntity
  8
0
100
AcDbBlockEnd
  0
BLOCK
  5
51
100
AcDbEntity
  8
0
100
AcDbBlockBegin
  2
_EX_NONE
 70
     0
 10
0.0
 20
0.0
 30
0.0
  3
_EX_NONE
  1

  0
LINE
  5
52
100
AcDbEntity
  8
0
  6
CONTINUOUS
 62
     0
100
AcDbLine
 10
0.0
 20
0.0
 30
0.0
 11
-1.0
 21
0.0
 31
0.0
  0
ENDBLK
  5
53
100
AcDbEntity
  8
0
100
AcDbBlockEnd
  0
BLOCK
  5
54
100
AcDbEntity
  8
0
100
AcDbBlockBegin
  2
_EX_CIVIL
 70
     0
 10
0.0
 20
0.0
 30
0.0
  3
_EX_CIVIL
  1

  0
LINE
  5
55
100
AcDbEntity
  8
0
  6
CONTINUOUS
 62
     0
100
AcDbLine
 10
0.0
 20
0.0
 30
0.0
 11
-1.0
 21
0.0
 31
0.0
  0
LINE
  5
56
100
AcDbEntity
  8
0
  6
CONTINUOUS
 62
     0
100
AcDbLine
 10
-1.0
 20
0.25
 30
0.0
 11
0.0
 21
0.25
 31
0.0
  0
LINE
  5
57
100
AcDbEntity
  8
0
  6
CONTINUOUS
 62
     0
100
AcDbLine
 10
-1.0
 20
0.125
 30
0.0
 11
0.0
 21
0.125
 31
0.0
  0
ENDBLK
  5
58
100
AcDbEntity
  8
0
100
AcDbBlockEnd
  0
BLOCK
  5
59
100
AcDbEntity
  8
0
100
AcDbBlockBegin
  2
_EX_WCIR
 70
     0
 10
0.0
 20
0.0
 30
0.0
  3
_EX_WCIR
  1

  0
LINE
  5
5A
100
AcDbEntity
  8
0
  6
CONTINUOUS
 62
     0
100
AcDbLine
 10
0.0
 20
0.0
 30
0.0
 11
-1.0
 21
0.0
 31
0.0
  0
CIRCLE
  5
5B
100
AcDbEntity
  8
0
  6
CONTINUOUS
 62
     0
100
AcDbCircle
 10
0.0
 20
0.0
 30
0.0
 40
0.5
  0
ENDBLK
  5
5C
100
AcDbEntity
  8
0
100
AcDbBlockEnd
  0
BLOCK
  5
5D
100
AcDbEntity
  8
0
100
AcDbBlockBegin
  2
_EX_WCIR2
 70
     0
 10
0.0
 20
0.0
 30
0.0
  3
_EX_WCIR2
  1

  0
LINE
  5
5E
100
AcDbEntity
  8
0
  6
CONTINUOUS
 62
     0
100
AcDbLine
 10
-0.5
 20
0.0
 30
0.0
 11
-1.0
 21
0.0
 31
0.0
  0
CIRCLE
  5
5F
100
AcDbEntity
  8
0
  6
CONTINUOUS
 62
     0
100
AcDbCircle
 10
0.0
 20
0.0
 30
0.0
 40
0.5
  0
ENDBLK
  5
60
100
AcDbEntity
  8
0
100
AcDbBlockEnd
  0
BLOCK
  5
61
100
AcDbEntity
  8
0
100
AcDbBlockBegin
  2
_EX_WNORM
 70
     0
 10
0.0
 20
0.0
 30
0.0
  3
_EX_WNORM
  1

  0
LINE
  5
62
100
AcDbEntity
  8
0
  6
CONTINUOUS
 62
     0
100
AcDbLine
 10
-1.0
 20
0.0
 30
0.0
 11
-1.0
 21
0.0
 31
0.0
  0
LINE
  5
63
100
AcDbEntity
  8
0
  6
CONTINUOUS
 62
     0
100
AcDbLine
 10
0.0
 20
0.0
 30
0.0
 11
-1.0
 21
0.166667
 31
0.0
  0
LINE
  5
64
100
AcDbEntity
  8
0
  6
CONTINUOUS
 62
     0
100
AcDbLine
 10
0.0
 20
0.0
 30
0.0
 11
-1.0
 21
-0.166667
 31
0.0
  0
LINE
  5
65
100
AcDbEntity
  8
0
  6
CONTINUOUS
 62
     0
100
AcDbLine
 10
-1.0
 20
0.166667
 30
0.0
 11
-1.0
 21
-0.166667
 31
0.0
  0
ENDBLK
  5
66
100
AcDbEntity
  8
0
100
AcDbBlockEnd
  0
BLOCK
  5
67
100
AcDbEntity
  8
0
100
AcDbBlockBegin
  2
_EX_NNORM
 70
     0
 10
0.0
 20
0.0
 30
0.0
  3
_EX_NNORM
  1

  0
LINE
  5
68
100
AcDbEntity
  8
0
  6
CONTINUOUS
 62
     0
100
AcDbLine
 10
0.0
 20
0.0
 30
0.0
 11
-1.0
 21
0.0
 31
0.0
  0
LINE
  5
69
100
AcDbEntity
  8
0
  6
CONTINUOUS
 62
     0
100
AcDbLine
 10
0.0
 20
0.0
 30
0.0
 11
-1.0
 21
0.166667
 31
0.0
  0
LINE
  5
6A
100
AcDbEntity
  8
0
  6
CONTINUOUS
 62
     0
100
AcDbLine
 10
0.0
 20
0.0
 30
0.0
 11
-1.0
 21
-0.166667
 31
0.0
  0
LINE
  5
6B
100
AcDbEntity
  8
0
  6
CONTINUOUS
 62
     0
100
AcDbLine
 10
-1.0
 20
0.166667
 30
0.0
 11
-1.0
 21
-0.166667
 31
0.0
  0
ENDBLK
  5
6C
100
AcDbEntity
  8
0
100
AcDbBlockEnd
  0
BLOCK
  5
6D
100
AcDbEntity
  8
0
100
AcDbBlockBegin
  2
_EX_BBOX
 70
     0
 10
0.0
 20
0.0
 30
0.0
  3
_EX_BBOX
  1

  0
LINE
  5
6E
100
AcDbEntity
  8
0
  6
CONTINUOUS
 62
     0
100
AcDbLine
 10
0.0
 20
0.0
 30
0.0
 11
-1.0
 21
0.0
 31
0.0
  0
LINE
  5
6F
100
AcDbEntity
  8
0
  6
CONTINUOUS
 62
     0
100
AcDbLine
 10
-0.5
 20
0.5
 30
0.0
 11
0.5
 21
0.5
 31
0.0
  0
LINE
  5
70
100
AcDbEntity
  8
0
  6
CONTINUOUS
 62
     0
100
AcDbLine
 10
0.5
 20
0.5
 30
0.0
 11
0.5
 21
-0.5
 31
0.0
  0
LINE
  5
71
100
AcDbEntity
  8
0
  6
CONTINUOUS
 62
     0
100
AcDbLine
 10
0.5
 20
-0.5
 30
0.0
 11
-0.5
 21
-0.5
 31
0.0
  0
LINE
  5
72
100
AcDbEntity
  8
0
  6
CONTINUOUS
 62
     0
100
AcDbLine
 10
-0.5
 20
-0.5
 30
0.0
 11
-0.5
 21
0.5
 31
0.0
  0
LINE
  5
73
100
AcDbEntity
  8
0
  6
CONTINUOUS
 62
     0
100
AcDbLine
 10
-0.25
 20
0.25
 30
0.0
 11
0.25
 21
0.25
 31
0.0
  0
LINE
  5
74
100
AcDbEntity
  8
0
  6
CONTINUOUS
 62
     0
100
AcDbLine
 10
0.25
 20
0.25
 30
0.0
 11
0.25
 21
-0.25
 31
0.0
  0
LINE
  5
75
100
AcDbEntity
  8
0
  6
CONTINUOUS
 62
     0
100
AcDbLine
 10
0.25
 20
-0.25
 30
0.0
 11
-0.25
 21
-0.25
 31
0.0
  0
LINE
  5
76
100
AcDbEntity
  8
0
  6
CONTINUOUS
 62
     0
100
AcDbLine
 10
-0.25
 20
-0.25
 30
0.0
 11
-0.25
 21
0.25
 31
0.0
  0
ENDBLK
  5
77
100
AcDbEntity
  8
0
100
AcDbBlockEnd
  0
BLOCK
  5
78
100
AcDbEntity
  8
0
100
AcDbBlockBegin
  2
_EX_WBOX
 70
     0
 10
0.0
 20
0.0
 30
0.0
  3
_EX_WBOX
  1

  0
LINE
  5
79
100
AcDbEntity
  8
0
  6
CONTINUOUS
 62
     0
100
AcDbLine
 10
-0.5
 20
0.0
 30
0.0
 11
-1.0
 21
0.0
 31
0.0
  0
LINE
  5
7A
100
AcDbEntity
  8
0
  6
CONTINUOUS
 62
     0
100
AcDbLine
 10
-0.5
 20
0.5
 30
0.0
 11
0.5
 21
0.5
 31
0.0
  0
LINE
  5
7B
100
AcDbEntity
  8
0
  6
CONTINUOUS
 62
     0
100
AcDbLine
 10
0.5
 20
0.5
 30
0.0
 11
0.5
 21
-0.5
 31
0.0
  0
LINE
  5
7C
100
AcDbEntity
  8
0
  6
CONTINUOUS
 62
     0
100
AcDbLine
 10
0.5
 20
-0.5
 30
0.0
 11
-0.5
 21
-0.5
 31
0.0
  0
LINE
  5
7D
100
AcDbEntity
  8
0
  6
CONTINUOUS
 62
     0
100
AcDbLine
 10
-0.5
 20
-0.5
 30
0.0
 11
-0.5
 21
0.5
 31
0.0
  0
ENDBLK
  5
7E
100
AcDbEntity
  8
0
100
AcDbBlockEnd
  0
BLOCK
  5
7F
100
AcDbEntity
  8
0
100
AcDbBlockBegin
  2
_EX_INTEGRAL
 70
     0
 10
0.0
 20
0.0
 30
0.0
  3
_EX_INTEGRAL
  1

  0
LINE
  5
80
100
AcDbEntity
  8
0
  6
CONTINUOUS
 62
     0
100
AcDbLine
 10
0.0
 20
0.0
 30
0.0
 11
-1.0
 21
0.0
 31
0.0
  0
ARC
  5
81
100
AcDbEntity
  8
0
  6
CONTINUOUS
 62
     0
100
AcDbCircle
 10
0.542115
 20
0.164992
 30
0.0
 40
0.56667
100
AcDbArc
 50
73.07249
 51
196.927513
  0
ARC
  5
82
100
AcDbEntity
  8
0
  6
CONTINUOUS
 62
     0
100
AcDbCircle
 10
-0.542115
 20
-0.164992
 30
0.0
 40
0.56667
100
AcDbArc
 50
253.072487
 51
16.927513
  0
ENDBLK
  5
83
100
AcDbEntity
  8
0
100
AcDbBlockEnd
  0
BLOCK
  5
366
100
AcDbEntity
  8
0
100
AcDbBlockBegin
  2
*D14
 70
    65
 10
0.0
 20
0.0
 30
0.0
  3
*D14
  1

  0
LINE
  5
367
100
AcDbEntity
  8
LAY-3
  6
CONTINUOUS
 62
     3
100
AcDbLine
 10
526.0
 20
995.638096
 30
0.0
 11
559.0
 21
995.638096
 31
0.0
  0
TEXT
  5
368
100
AcDbEntity
  8
LAY-3
  6
CONTINUOUS
 62
     2
100
AcDbText
 10
552.25
 20
1029.638096
 30
0.0
 40
20.0
  1
110
 50
90.0
 41
0.84
  7
EXCADSTD
 72
     1
 11
552.25
 21
1050.638096
 31
0.0
100
AcDbText
  0
LINE
  5
369
100
AcDbEntity
  8
LAY-3
  6
CONTINUOUS
 62
     3
100
AcDbLine
 10
554.0
 20
995.638096
 30
0.0
 11
554.0
 21
1105.638096
 31
0.0
  0
LINE
  5
36A
100
AcDbEntity
  8
LAY-3
  6
CONTINUOUS
 62
     3
100
AcDbLine
 10
551.5
 20
1010.638096
 30
0.0
 11
554.0
 21
995.638096
 31
0.0
  0
LINE
  5
36B
100
AcDbEntity
  8
LAY-3
  6
CONTINUOUS
 62
     3
100
AcDbLine
 10
554.0
 20
995.638096
 30
0.0
 11
556.5
 21
1010.638096
 31
0.0
  0
LINE
  5
36C
100
AcDbEntity
  8
LAY-3
  6
CONTINUOUS
 62
     3
100
AcDbLine
 10
556.5
 20
1090.638096
 30
0.0
 11
554.0
 21
1105.638096
 31
0.0
  0
LINE
  5
36D
100
AcDbEntity
  8
LAY-3
  6
CONTINUOUS
 62
     3
100
AcDbLine
 10
554.0
 20
1105.638096
 30
0.0
 11
551.5
 21
1090.638096
 31
0.0
  0
ENDBLK
  5
36E
100
AcDbEntity
  8
0
100
AcDbBlockEnd
  0
BLOCK
  5
372
100
AcDbEntity
  8
0
100
AcDbBlockBegin
  2
*D15
 70
    65
 10
0.0
 20
0.0
 30
0.0
  3
*D15
  1

  0
LINE
  5
373
100
AcDbEntity
  8
LAY-3
  6
CONTINUOUS
 62
     3
100
AcDbLine
 10
260.0
 20
1139.080163
 30
0.0
 11
260.0
 21
1170.580163
 31
0.0
  0
LINE
  5
374
100
AcDbEntity
  8
LAY-3
  6
CONTINUOUS
 62
     3
100
AcDbLine
 10
460.0
 20
1139.080163
 30
0.0
 11
460.0
 21
1170.580163
 31
0.0
  0
TEXT
  5
375
100
AcDbEntity
  8
LAY-3
  6
CONTINUOUS
 62
     2
100
AcDbText
 10
339.0
 20
1167.330163
 30
0.0
 40
20.0
  1
200
 41
0.84
  7
EXCADSTD
 72
     1
 11
360.0
 21
1167.330163
 31
0.0
100
AcDbText
  0
LINE
  5
376
100
AcDbEntity
  8
LAY-3
  6
CONTINUOUS
 62
     3
100
AcDbLine
 10
260.0
 20
1165.580163
 30
0.0
 11
460.0
 21
1165.580163
 31
0.0
  0
LINE
  5
377
100
AcDbEntity
  8
LAY-3
  6
CONTINUOUS
 62
     3
100
AcDbLine
 10
275.0
 20
1168.080163
 30
0.0
 11
260.0
 21
1165.580163
 31
0.0
  0
LINE
  5
378
100
AcDbEntity
  8
LAY-3
  6
CONTINUOUS
 62
     3
100
AcDbLine
 10
260.0
 20
1165.580163
 30
0.0
 11
275.0
 21
1163.080163
 31
0.0
  0
LINE
  5
379
100
AcDbEntity
  8
LAY-3
  6
CONTINUOUS
 62
     3
100
AcDbLine
 10
445.0
 20
1163.080163
 30
0.0
 11
460.0
 21
1165.580163
 31
0.0
  0
LINE
  5
37A
100
AcDbEntity
  8
LAY-3
  6
CONTINUOUS
 62
     3
100
AcDbLine
 10
460.0
 20
1165.580163
 30
0.0
 11
445.0
 21
1168.080163
 31
0.0
  0
ENDBLK
  5
37B
100
AcDbEntity
  8
0
100
AcDbBlockEnd
  0
BLOCK
  5
37E
100
AcDbEntity
  8
0
100
AcDbBlockBegin
  2
*D16
 70
    65
 10
0.0
 20
0.0
 30
0.0
  3
*D16
  1

  0
LINE
  5
37F
100
AcDbEntity
  8
LAY-3
  6
CONTINUOUS
 62
     3
100
AcDbLine
 10
196.0
 20
1109.138096
 30
0.0
 11
196.0
 21
1200.580163
 31
0.0
  0
LINE
  5
380
100
AcDbEntity
  8
LAY-3
  6
CONTINUOUS
 62
     3
100
AcDbLine
 10
524.0
 20
1109.138096
 30
0.0
 11
524.0
 21
1200.580163
 31
0.0
  0
TEXT
  5
381
100
AcDbEntity
  8
LAY-3
  6
CONTINUOUS
 62
     2
100
AcDbText
 10
339.0
 20
1197.330163
 30
0.0
 40
20.0
  1
328
 41
0.84
  7
EXCADSTD
 72
     1
 11
360.0
 21
1197.330163
 31
0.0
100
AcDbText
  0
LINE
  5
382
100
AcDbEntity
  8
LAY-3
  6
CONTINUOUS
 62
     3
100
AcDbLine
 10
196.0
 20
1195.580163
 30
0.0
 11
524.0
 21
1195.580163
 31
0.0
  0
LINE
  5
383
100
AcDbEntity
  8
LAY-3
  6
CONTINUOUS
 62
     3
100
AcDbLine
 10
211.0
 20
1198.080163
 30
0.0
 11
196.0
 21
1195.580163
 31
0.0
  0
LINE
  5
384
100
AcDbEntity
  8
LAY-3
  6
CONTINUOUS
 62
     3
100
AcDbLine
 10
196.0
 20
1195.580163
 30
0.0
 11
211.0
 21
1193.080163
 31
0.0
  0
LINE
  5
385
100
AcDbEntity
  8
LAY-3
  6
CONTINUOUS
 62
     3
100
AcDbLine
 10
509.0
 20
1193.080163
 30
0.0
 11
524.0
 21
1195.580163
 31
0.0
  0
LINE
  5
386
100
AcDbEntity
  8
LAY-3
  6
CONTINUOUS
 62
     3
100
AcDbLine
 10
524.0
 20
1195.580163
 30
0.0
 11
509.0
 21
1198.080163
 31
0.0
  0
ENDBLK
  5
387
100
AcDbEntity
  8
0
100
AcDbBlockEnd
  0
BLOCK
  5
38A
100
AcDbEntity
  8
0
100
AcDbBlockBegin
  2
*D17
 70
    65
 10
0.0
 20
0.0
 30
0.0
  3
*D17
  1

  0
LINE
  5
38B
100
AcDbEntity
  8
LAY-3
  6
CONTINUOUS
 62
     3
100
AcDbLine
 10
200.453489
 20
547.0
 30
0.0
 11
161.0
 21
547.0
 31
0.0
  0
LINE
  5
38C
100
AcDbEntity
  8
LAY-3
  6
CONTINUOUS
 62
     3
100
AcDbLine
 10
195.5
 20
695.0
 30
0.0
 11
161.0
 21
695.0
 31
0.0
  0
TEXT
  5
38D
100
AcDbEntity
  8
LAY-3
  6
CONTINUOUS
 62
     2
100
AcDbText
 10
164.25
 20
600.0
 30
0.0
 40
20.0
  1
148
 50
90.0
 41
0.84
  7
EXCADSTD
 72
     1
 11
164.25
 21
621.0
 31
0.0
100
AcDbText
  0
LINE
  5
38E
100
AcDbEntity
  8
LAY-3
  6
CONTINUOUS
 62
     3
100
AcDbLine
 10
166.0
 20
547.0
 30
0.0
 11
166.0
 21
695.0
 31
0.0
  0
LINE
  5
38F
100
AcDbEntity
  8
LAY-3
  6
CONTINUOUS
 62
     3
100
AcDbLine
 10
163.5
 20
562.0
 30
0.0
 11
166.0
 21
547.0
 31
0.0
  0
LINE
  5
390
100
AcDbEntity
  8
LAY-3
  6
CONTINUOUS
 62
     3
100
AcDbLine
 10
166.0
 20
547.0
 30
0.0
 11
168.5
 21
562.0
 31
0.0
  0
LINE
  5
391
100
AcDbEntity
  8
LAY-3
  6
CONTINUOUS
 62
     3
100
AcDbLine
 10
168.5
 20
680.0
 30
0.0
 11
166.0
 21
695.0
 31
0.0
  0
LINE
  5
392
100
AcDbEntity
  8
LAY-3
  6
CONTINUOUS
 62
     3
100
AcDbLine
 10
166.0
 20
695.0
 30
0.0
 11
163.5
 21
680.0
 31
0.0
  0
ENDBLK
  5
393
100
AcDbEntity
  8
0
100
AcDbBlockEnd
  0
BLOCK
  5
396
100
AcDbEntity
  8
0
100
AcDbBlockBegin
  2
*D18
 70
    65
 10
0.0
 20
0.0
 30
0.0
  3
*D18
  1

  0
LINE
  5
397
100
AcDbEntity
  8
LAY-3
  6
CONTINUOUS
 62
     3
100
AcDbLine
 10
198.0
 20
670.5
 30
0.0
 11
198.0
 21
453.425759
 31
0.0
  0
LINE
  5
398
100
AcDbEntity
  8
LAY-3
  6
CONTINUOUS
 62
     3
100
AcDbLine
 10
522.0
 20
670.5
 30
0.0
 11
522.0
 21
453.425759
 31
0.0
  0
TEXT
  5
399
100
AcDbEntity
  8
LAY-3
  6
CONTINUOUS
 62
     2
100
AcDbText
 10
339.0
 20
460.175759
 30
0.0
 40
20.0
  1
324
 41
0.84
  7
EXCADSTD
 72
     1
 11
360.0
 21
460.175759
 31
0.0
100
AcDbText
  0
LINE
  5
39A
100
AcDbEntity
  8
LAY-3
  6
CONTINUOUS
 62
     3
100
AcDbLine
 10
198.0
 20
458.425759
 30
0.0
 11
522.0
 21
458.425759
 31
0.0
  0
LINE
  5
39B
100
AcDbEntity
  8
LAY-3
  6
CONTINUOUS
 62
     3
100
AcDbLine
 10
213.0
 20
460.925759
 30
0.0
 11
198.0
 21
458.425759
 31
0.0
  0
LINE
  5
39C
100
AcDbEntity
  8
LAY-3
  6
CONTINUOUS
 62
     3
100
AcDbLine
 10
198.0
 20
458.425759
 30
0.0
 11
213.0
 21
455.925759
 31
0.0
  0
LINE
  5
39D
100
AcDbEntity
  8
LAY-3
  6
CONTINUOUS
 62
     3
100
AcDbLine
 10
507.0
 20
455.925759
 30
0.0
 11
522.0
 21
458.425759
 31
0.0
  0
LINE
  5
39E
100
AcDbEntity
  8
LAY-3
  6
CONTINUOUS
 62
     3
100
AcDbLine
 10
522.0
 20
458.425759
 30
0.0
 11
507.0
 21
460.925759
 31
0.0
  0
ENDBLK
  5
39F
100
AcDbEntity
  8
0
100
AcDbBlockEnd
  0
BLOCK
  5
3A2
100
AcDbEntity
  8
0
100
AcDbBlockBegin
  2
*D19
 70
    65
 10
0.0
 20
0.0
 30
0.0
  3
*D19
  1

  0
LINE
  5
3A3
100
AcDbEntity
  8
LAY-3
  6
CONTINUOUS
 62
     3
100
AcDbLine
 10
521.102871
 20
543.5
 30
0.0
 11
521.102871
 21
483.425759
 31
0.0
  0
LINE
  5
3A4
100
AcDbEntity
  8
LAY-3
  6
CONTINUOUS
 62
     3
100
AcDbLine
 10
198.850185
 20
543.5
 30
0.0
 11
198.850185
 21
483.425759
 31
0.0
  0
TEXT
  5
3A5
100
AcDbEntity
  8
LAY-3
  6
CONTINUOUS
 62
     2
100
AcDbText
 10
338.976528
 20
490.175759
 30
0.0
 40
20.0
  1
322
 41
0.84
  7
EXCADSTD
 72
     1
 11
359.976528
 21
490.175759
 31
0.0
100
AcDbText
  0
LINE
  5
3A6
100
AcDbEntity
  8
LAY-3
  6
CONTINUOUS
 62
     3
100
AcDbLine
 10
521.102871
 20
488.425759
 30
0.0
 11
198.850185
 21
488.425759
 31
0.0
  0
LINE
  5
3A7
100
AcDbEntity
  8
LAY-3
  6
CONTINUOUS
 62
     3
100
AcDbLine
 10
506.102871
 20
485.925759
 30
0.0
 11
521.102871
 21
488.425759
 31
0.0
  0
LINE
  5
3A8
100
AcDbEntity
  8
LAY-3
  6
CONTINUOUS
 62
     3
100
AcDbLine
 10
521.102871
 20
488.425759
 30
0.0
 11
506.102871
 21
490.925759
 31
0.0
  0
LINE
  5
3A9
100
AcDbEntity
  8
LAY-3
  6
CONTINUOUS
 62
     3
100
AcDbLine
 10
213.850185
 20
490.925759
 30
0.0
 11
198.850185
 21
488.425759
 31
0.0
  0
LINE
  5
3AA
100
AcDbEntity
  8
LAY-3
  6
CONTINUOUS
 62
     3
100
AcDbLine
 10
198.850185
 20
488.425759
 30
0.0
 11
213.850185
 21
485.925759
 31
0.0
  0
ENDBLK
  5
3AB
100
AcDbEntity
  8
0
100
AcDbBlockEnd
  0
BLOCK
  5
3AE
100
AcDbEntity
  8
0
100
AcDbBlockBegin
  2
*D20
 70
    65
 10
0.0
 20
0.0
 30
0.0
  3
*D20
  1

  0
LINE
  5
3AF
100
AcDbEntity
  8
LAY-3
  6
CONTINUOUS
 62
     3
100
AcDbLine
 10
524.5
 20
695.0
 30
0.0
 11
589.0
 21
695.0
 31
0.0
  0
LINE
  5
3B0
100
AcDbEntity
  8
LAY-3
  6
CONTINUOUS
 62
     3
100
AcDbLine
 10
476.0
 20
656.7
 30
0.0
 11
589.0
 21
656.7
 31
0.0
  0
TEXT
  5
3B1
100
AcDbEntity
  8
LAY-3
  6
CONTINUOUS
 62
     2
100
AcDbText
 10
582.25
 20
714.4
 30
0.0
 40
20.0
  1
38.3
 50
90.0
 41
0.84
  7
EXCADSTD
 72
     1
 11
582.25
 21
737.5
 31
0.0
100
AcDbText
  0
LINE
  5
3B2
100
AcDbEntity
  8
LAY-3
  6
CONTINUOUS
 62
     3
100
AcDbLine
 10
584.0
 20
766.750002
 30
0.0
 11
584.0
 21
641.7
 31
0.0
  0
LINE
  5
3B3
100
AcDbEntity
  8
LAY-3
  6
CONTINUOUS
 62
     3
100
AcDbLine
 10
581.5
 20
710.0
 30
0.0
 11
584.0
 21
695.0
 31
0.0
  0
LINE
  5
3B4
100
AcDbEntity
  8
LAY-3
  6
CONTINUOUS
 62
     3
100
AcDbLine
 10
584.0
 20
695.0
 30
0.0
 11
586.5
 21
710.0
 31
0.0
  0
LINE
  5
3B5
100
AcDbEntity
  8
LAY-3
  6
CONTINUOUS
 62
     3
100
AcDbLine
 10
586.5
 20
641.7
 30
0.0
 11
584.0
 21
656.7
 31
0.0
  0
LINE
  5
3B6
100
AcDbEntity
  8
LAY-3
  6
CONTINUOUS
 62
     3
100
AcDbLine
 10
584.0
 20
656.7
 30
0.0
 11
581.5
 21
641.7
 31
0.0
  0
ENDBLK
  5
3B7
100
AcDbEntity
  8
0
100
AcDbBlockEnd
  0
BLOCK
  5
3BA
100
AcDbEntity
  8
0
100
AcDbBlockBegin
  2
*D21
 70
    65
 10
0.0
 20
0.0
 30
0.0
  3
*D21
  1

  0
LINE
  5
3BB
100
AcDbEntity
  8
LAY-3
  6
CONTINUOUS
 62
     3
100
AcDbLine
 10
526.5
 20
674.0
 30
0.0
 11
559.0
 21
674.0
 31
0.0
  0
TEXT
  5
3BC
100
AcDbEntity
  8
LAY-3
  6
CONTINUOUS
 62
     2
100
AcDbText
 10
552.25
 20
712.8
 30
0.0
 40
20.0
  1
21
 50
90.0
 41
0.84
  7
EXCADSTD
 72
     1
 11
552.25
 21
727.5
 31
0.0
100
AcDbText
  0
LINE
  5
3BD
100
AcDbEntity
  8
LAY-3
  6
CONTINUOUS
 62
     3
100
AcDbLine
 10
554.0
 20
746.750002
 30
0.0
 11
554.0
 21
659.0
 31
0.0
  0
LINE
  5
3BE
100
AcDbEntity
  8
LAY-3
  6
CONTINUOUS
 62
     3
100
AcDbLine
 10
551.5
 20
710.0
 30
0.0
 11
554.0
 21
695.0
 31
0.0
  0
LINE
  5
3BF
100
AcDbEntity
  8
LAY-3
  6
CONTINUOUS
 62
     3
100
AcDbLine
 10
554.0
 20
695.0
 30
0.0
 11
556.5
 21
710.0
 31
0.0
  0
LINE
  5
3C0
100
AcDbEntity
  8
LAY-3
  6
CONTINUOUS
 62
     3
100
AcDbLine
 10
556.5
 20
659.0
 30
0.0
 11
554.0
 21
674.0
 31
0.0
  0
LINE
  5
3C1
100
AcDbEntity
  8
LAY-3
  6
CONTINUOUS
 62
     3
100
AcDbLine
 10
554.0
 20
674.0
 30
0.0
 11
551.5
 21
659.0
 31
0.0
  0
ENDBLK
  5
3C2
100
AcDbEntity
  8
0
100
AcDbBlockEnd
  0
BLOCK
  5
3C5
100
AcDbEntity
  8
0
100
AcDbBlockBegin
  2
*D22
 70
    65
 10
0.0
 20
0.0
 30
0.0
  3
*D22
  1

  0
LINE
  5
3C6
100
AcDbEntity
  8
LAY-3
  6
CONTINUOUS
 62
     3
100
AcDbLine
 10
769.535261
 20
547.0
 30
0.0
 11
921.402141
 21
547.0
 31
0.0
  0
LINE
  5
3C7
100
AcDbEntity
  8
LAY-3
  6
CONTINUOUS
 62
     3
100
AcDbLine
 10
823.759
 20
674.0
 30
0.0
 11
921.402141
 21
674.0
 31
0.0
  0
TEXT
  5
3C8
100
AcDbEntity
  8
LAY-3
  6
CONTINUOUS
 62
     2
100
AcDbText
 10
914.652141
 20
589.5
 30
0.0
 40
20.0
  1
127
 50
90.0
 41
0.84
  7
EXCADSTD
 72
     1
 11
914.652141
 21
610.5
 31
0.0
100
AcDbText
  0
LINE
  5
3C9
100
AcDbEntity
  8
LAY-3
  6
CONTINUOUS
 62
     3
100
AcDbLine
 10
916.402141
 20
547.0
 30
0.0
 11
916.402141
 21
674.0
 31
0.0
  0
LINE
  5
3CA
100
AcDbEntity
  8
LAY-3
  6
CONTINUOUS
 62
     3
100
AcDbLine
 10
913.902141
 20
562.0
 30
0.0
 11
916.402141
 21
547.0
 31
0.0
  0
LINE
  5
3CB
100
AcDbEntity
  8
LAY-3
  6
CONTINUOUS
 62
     3
100
AcDbLine
 10
916.402141
 20
547.0
 30
0.0
 11
918.902141
 21
562.0
 31
0.0
  0
LINE
  5
3CC
100
AcDbEntity
  8
LAY-3
  6
CONTINUOUS
 62
     3
100
AcDbLine
 10
918.902141
 20
659.0
 30
0.0
 11
916.402141
 21
674.0
 31
0.0
  0
LINE
  5
3CD
100
AcDbEntity
  8
LAY-3
  6
CONTINUOUS
 62
     3
100
AcDbLine
 10
916.402141
 20
674.0
 30
0.0
 11
913.902141
 21
659.0
 31
0.0
  0
ENDBLK
  5
3CE
100
AcDbEntity
  8
0
100
AcDbBlockEnd
  0
BLOCK
  5
3D1
100
AcDbEntity
  8
0
100
AcDbBlockBegin
  2
*D23
 70
    65
 10
0.0
 20
0.0
 30
0.0
  3
*D23
  1

  0
LINE
  5
3D2
100
AcDbEntity
  8
LAY-3
  6
CONTINUOUS
 62
     3
100
AcDbLine
 10
859.902141
 20
656.7
 30
0.0
 11
891.402141
 21
656.7
 31
0.0
  0
LINE
  5
3D3
100
AcDbEntity
  8
LAY-3
  6
CONTINUOUS
 62
     3
100
AcDbLine
 10
859.902141
 20
629.0
 30
0.0
 11
891.402141
 21
629.0
 31
0.0
  0
TEXT
  5
3D4
100
AcDbEntity
  8
LAY-3
  6
CONTINUOUS
 62
     2
100
AcDbText
 10
884.652141
 20
581.8
 30
0.0
 40
20.0
  1
28
 50
90.0
 41
0.84
  7
EXCADSTD
 72
     1
 11
884.652141
 21
596.5
 31
0.0
100
AcDbText
  0
LINE
  5
3D5
100
AcDbEntity
  8
LAY-3
  6
CONTINUOUS
 62
     3
100
AcDbLine
 10
886.402141
 20
671.7
 30
0.0
 11
886.402141
 21
577.249998
 31
0.0
  0
LINE
  5
3D6
100
AcDbEntity
  8
LAY-3
  6
CONTINUOUS
 62
     3
100
AcDbLine
 10
883.902141
 20
671.7
 30
0.0
 11
886.402141
 21
656.7
 31
0.0
  0
LINE
  5
3D7
100
AcDbEntity
  8
LAY-3
  6
CONTINUOUS
 62
     3
100
AcDbLine
 10
886.402141
 20
656.7
 30
0.0
 11
888.902141
 21
671.7
 31
0.0
  0
LINE
  5
3D8
100
AcDbEntity
  8
LAY-3
  6
CONTINUOUS
 62
     3
100
AcDbLine
 10
888.902141
 20
614.0
 30
0.0
 11
886.402141
 21
629.0
 31
0.0
  0
LINE
  5
3D9
100
AcDbEntity
  8
LAY-3
  6
CONTINUOUS
 62
     3
100
AcDbLine
 10
886.402141
 20
629.0
 30
0.0
 11
883.902141
 21
614.0
 31
0.0
  0
ENDBLK
  5
3DA
100
AcDbEntity
  8
0
100
AcDbBlockEnd
  0
BLOCK
  5
3DD
100
AcDbEntity
  8
0
100
AcDbBlockBegin
  2
*D24
 70
    65
 10
0.0
 20
0.0
 30
0.0
  3
*D24
  1

  0
LINE
  5
3DE
100
AcDbEntity
  8
LAY-3
  6
CONTINUOUS
 62
     3
100
AcDbLine
 10
752.259
 20
559.139405
 30
0.0
 11
752.259
 21
483.425759
 31
0.0
  0
LINE
  5
3DF
100
AcDbEntity
  8
LAY-3
  6
CONTINUOUS
 62
     3
100
AcDbLine
 10
823.259
 20
527.243554
 30
0.0
 11
823.259
 21
483.425759
 31
0.0
  0
TEXT
  5
3E0
100
AcDbEntity
  8
LAY-3
  6
CONTINUOUS
 62
     2
100
AcDbText
 10
773.059
 20
490.175759
 30
0.0
 40
20.0
  1
71
 41
0.84
  7
EXCADSTD
 72
     1
 11
787.759
 21
490.175759
 31
0.0
100
AcDbText
  0
LINE
  5
3E1
100
AcDbEntity
  8
LAY-3
  6
CONTINUOUS
 62
     3
100
AcDbLine
 10
752.259
 20
488.425759
 30
0.0
 11
823.259
 21
488.425759
 31
0.0
  0
LINE
  5
3E2
100
AcDbEntity
  8
LAY-3
  6
CONTINUOUS
 62
     3
100
AcDbLine
 10
767.259
 20
490.925759
 30
0.0
 11
752.259
 21
488.425759
 31
0.0
  0
LINE
  5
3E3
100
AcDbEntity
  8
LAY-3
  6
CONTINUOUS
 62
     3
100
AcDbLine
 10
752.259
 20
488.425759
 30
0.0
 11
767.259
 21
485.925759
 31
0.0
  0
LINE
  5
3E4
100
AcDbEntity
  8
LAY-3
  6
CONTINUOUS
 62
     3
100
AcDbLine
 10
808.259
 20
485.925759
 30
0.0
 11
823.259
 21
488.425759
 31
0.0
  0
LINE
  5
3E5
100
AcDbEntity
  8
LAY-3
  6
CONTINUOUS
 62
     3
100
AcDbLine
 10
823.259
 20
488.425759
 30
0.0
 11
808.259
 21
490.925759
 31
0.0
  0
ENDBLK
  5
3E6
100
AcDbEntity
  8
0
100
AcDbBlockEnd
  0
ENDSEC
  0
SECTION
  2
ENTITIES
  0
LINE
  5
84
100
AcDbEntity
  8
LAY-1
  6
CONTINUOUS
 62
     7
100
AcDbLine
 10
89.5
 20
57.5
 30
0.0
 11
999.5
 21
57.5
 31
0.0
  0
LINE
  5
85
100
AcDbEntity
  8
LAY-1
  6
CONTINUOUS
 62
     7
100
AcDbLine
 10
999.5
 20
57.5
 30
0.0
 11
999.5
 21
1457.5
 31
0.0
  0
LINE
  5
86
100
AcDbEntity
  8
LAY-1
  6
CONTINUOUS
 62
     7
100
AcDbLine
 10
89.5
 20
57.5
 30
0.0
 11
89.5
 21
1457.5
 31
0.0
  0
LINE
  5
87
100
AcDbEntity
  8
LAY-1
  6
CONTINUOUS
 62
     7
100
AcDbLine
 10
89.5
 20
1457.5
 30
0.0
 11
999.5
 21
1457.5
 31
0.0
  0
LINE
  5
88
100
AcDbEntity
  8
LAY-1
  6
CONTINUOUS
 62
     7
100
AcDbLine
 10
89.5
 20
167.5
 30
0.0
 11
999.5
 21
167.5
 31
0.0
  0
LINE
  5
89
100
AcDbEntity
  8
LAY-1
  6
CONTINUOUS
 62
     6
100
AcDbLine
 10
999.5
 20
107.5
 30
0.0
 11
374.5
 21
107.5
 31
0.0
  0
LINE
  5
8A
100
AcDbEntity
  8
LAY-1
  6
CONTINUOUS
 62
     6
100
AcDbLine
 10
929.5
 20
167.5
 30
0.0
 11
929.5
 21
107.5
 31
0.0
  0
LINE
  5
8B
100
AcDbEntity
  8
LAY-1
  6
CONTINUOUS
 62
     6
100
AcDbLine
 10
904.5
 20
167.5
 30
0.0
 11
904.5
 21
107.5
 31
0.0
  0
LINE
  5
8C
100
AcDbEntity
  8
LAY-1
  6
CONTINUOUS
 62
     6
100
AcDbLine
 10
719.5
 20
167.5
 30
0.0
 11
719.5
 21
57.5
 31
0.0
  0
LINE
  5
8D
100
AcDbEntity
  8
LAY-1
  6
CONTINUOUS
 62
     6
100
AcDbLine
 10
694.5
 20
167.5
 30
0.0
 11
694.5
 21
57.5
 31
0.0
  0
LINE
  5
8E
100
AcDbEntity
  8
LAY-1
  6
CONTINUOUS
 62
     6
100
AcDbLine
 10
399.5
 20
167.5
 30
0.0
 11
399.5
 21
107.5
 31
0.0
  0
LINE
  5
8F
100
AcDbEntity
  8
LAY-1
  6
CONTINUOUS
 62
     6
100
AcDbLine
 10
374.5
 20
167.5
 30
0.0
 11
374.5
 21
57.5
 31
0.0
  0
LINE
  5
90
100
AcDbEntity
  8
LAY-1
  6
CONTINUOUS
 62
     6
100
AcDbLine
 10
309.5
 20
167.5
 30
0.0
 11
309.5
 21
57.5
 31
0.0
  0
LINE
  5
91
100
AcDbEntity
  8
LAY-1
  6
CONTINUOUS
 62
     6
100
AcDbLine
 10
244.5
 20
167.5
 30
0.0
 11
244.5
 21
57.5
 31
0.0
  0
LINE
  5
92
100
AcDbEntity
  8
LAY-1
  6
CONTINUOUS
 62
     6
100
AcDbLine
 10
167.0
 20
167.5
 30
0.0
 11
167.0
 21
57.5
 31
0.0
  0
LINE
  5
93
100
AcDbEntity
  8
LAY-1
  6
CONTINUOUS
 62
     6
100
AcDbLine
 10
89.5
 20
142.5
 30
0.0
 11
374.5
 21
142.5
 31
0.0
  0
LINE
  5
94
100
AcDbEntity
  8
LAY-1
  6
EXLTYPE2
 62
     6
100
AcDbLine
 10
89.5
 20
82.5
 30
0.0
 11
244.5
 21
82.5
 31
0.0
  0
CIRCLE
  5
95
100
AcDbEntity
  8
LAY-1
  6
CONTINUOUS
 62
     6
100
AcDbCircle
 10
192.0
 20
70.0
 30
0.0
 40
0.5
  0
CIRCLE
  5
96
100
AcDbEntity
  8
LAY-1
  6
CONTINUOUS
 62
     6
100
AcDbCircle
 10
217.0
 20
70.0
 30
0.0
 40
0.5
  0
TEXT
  5
97
100
AcDbEntity
  8
LAY-1
  6
CONTINUOUS
 62
     2
100
AcDbText
 10
100.75
 20
144.375
 30
0.0
 40
21.25
  1
製図
 41
1.087059
  7
EXCADSTD
 72
     5
 11
151.163
 21
144.375
 31
0.0
100
AcDbText
  0
TEXT
  5
98
100
AcDbEntity
  8
LAY-1
  6
CONTINUOUS
 62
     2
100
AcDbText
 10
178.25
 20
144.375
 30
0.0
 40
21.25
  1
写図
 41
1.087059
  7
EXCADSTD
 72
     5
 11
228.663
 21
144.375
 31
0.0
100
AcDbText
  0
TEXT
  5
99
100
AcDbEntity
  8
LAY-1
  6
CONTINUOUS
 62
     2
100
AcDbText
 10
253.25
 20
144.375
 30
0.0
 40
21.25
  1
検図
 41
0.938824
  7
EXCADSTD
 72
     5
 11
296.7885
 21
144.375
 31
0.0
100
AcDbText
  0
TEXT
  5
9A
100
AcDbEntity
  8
LAY-1
  6
CONTINUOUS
 62
     2
100
AcDbText
 10
318.25
 20
144.375
 30
0.0
 40
21.25
  1
承認
 41
0.938824
  7
EXCADSTD
 72
     5
 11
361.7885
 21
144.375
 31
0.0
100
AcDbText
  0
TEXT
  5
9B
100
AcDbEntity
  8
LAY-1
  6
CONTINUOUS
 62
     2
100
AcDbText
 10
377.375
 20
139.375
 30
0.0
 40
21.25
  1
品
 41
0.84
  7
EXCADSTD
 72
     5
 11
394.375
 21
139.375
 31
0.0
100
AcDbText
  0
TEXT
  5
9C
100
AcDbEntity
  8
LAY-1
  6
CONTINUOUS
 62
     2
100
AcDbText
 10
377.375
 20
114.375
 30
0.0
 40
21.25
  1
名
 41
0.84
  7
EXCADSTD
 72
     5
 11
394.375
 21
114.375
 31
0.0
100
AcDbText
  0
TEXT
  5
9D
100
AcDbEntity
  8
LAY-1
  6
CONTINUOUS
 62
     2
100
AcDbText
 10
697.375
 20
139.375
 30
0.0
 40
21.25
  1
品
 41
0.84
  7
EXCADSTD
 72
     5
 11
714.375
 21
139.375
 31
0.0
100
AcDbText
  0
TEXT
  5
9E
100
AcDbEntity
  8
LAY-1
  6
CONTINUOUS
 62
     2
100
AcDbText
 10
697.375
 20
114.375
 30
0.0
 40
21.25
  1
番
 41
0.84
  7
EXCADSTD
 72
     5
 11
714.375
 21
114.375
 31
0.0
100
AcDbText
  0
TEXT
  5
9F
100
AcDbEntity
  8
LAY-1
  6
CONTINUOUS
 62
     2
100
AcDbText
 10
907.875
 20
139.375
 30
0.0
 40
21.25
  1
尺
 41
0.84
  7
EXCADSTD
 72
     5
 11
924.875
 21
139.375
 31
0.0
100
AcDbText
  0
TEXT
  5
A0
100
AcDbEntity
  8
LAY-1
  6
CONTINUOUS
 62
     2
100
AcDbText
 10
907.875
 20
114.375
 30
0.0
 40
21.25
  1
度
 41
0.84
  7
EXCADSTD
 72
     5
 11
924.875
 21
114.375
 31
0.0
100
AcDbText
  0
TEXT
  5
A1
100
AcDbEntity
  8
LAY-1
  6
CONTINUOUS
 62
     2
100
AcDbText
 10
697.375
 20
82.875
 30
0.0
 40
21.25
  1
図
 41
0.84
  7
EXCADSTD
 72
     5
 11
714.375
 21
82.875
 31
0.0
100
AcDbText
  0
TEXT
  5
A2
100
AcDbEntity
  8
LAY-1
  6
CONTINUOUS
 62
     2
100
AcDbText
 10
697.375
 20
61.375
 30
0.0
 40
21.25
  1
番
 41
0.84
  7
EXCADSTD
 72
     5
 11
714.375
 21
61.375
 31
0.0
100
AcDbText
  0
LINE
  5
A3
100
AcDbEntity
  8
LAY-1
  6
CONTINUOUS
 62
     3
100
AcDbLine
 10
413.223877
 20
90.143997
 30
0.0
 11
409.192047
 21
90.143997
 31
0.0
  0
LINE
  5
A4
100
AcDbEntity
  8
LAY-1
  6
CONTINUOUS
 62
     3
100
AcDbLine
 10
413.223877
 20
94.17598
 30
0.0
 11
413.223877
 21
90.143997
 31
0.0
  0
LINE
  5
A5
100
AcDbEntity
  8
LAY-1
  6
CONTINUOUS
 62
     3
100
AcDbLine
 10
409.192047
 20
94.17598
 30
0.0
 11
413.223877
 21
94.17598
 31
0.0
  0
LINE
  5
A6
100
AcDbEntity
  8
LAY-1
  6
CONTINUOUS
 62
     3
100
AcDbLine
 10
409.192047
 20
94.17598
 30
0.0
 11
409.192047
 21
90.143997
 31
0.0
  0
LINE
  5
A7
100
AcDbEntity
  8
LAY-1
  6
CONTINUOUS
 62
     3
100
AcDbLine
 10
407.679596
 20
90.143997
 30
0.0
 11
403.647766
 21
90.143997
 31
0.0
  0
LINE
  5
A8
100
AcDbEntity
  8
LAY-1
  6
CONTINUOUS
 62
     3
100
AcDbLine
 10
407.679596
 20
94.17598
 30
0.0
 11
407.679596
 21
90.143997
 31
0.0
  0
LINE
  5
A9
100
AcDbEntity
  8
LAY-1
  6
CONTINUOUS
 62
     3
100
AcDbLine
 10
403.647766
 20
94.17598
 30
0.0
 11
407.679596
 21
94.17598
 31
0.0
  0
LINE
  5
AA
100
AcDbEntity
  8
LAY-1
  6
CONTINUOUS
 62
     3
100
AcDbLine
 10
403.647766
 20
94.17598
 30
0.0
 11
403.647766
 21
90.143997
 31
0.0
  0
LINE
  5
AB
100
AcDbEntity
  8
LAY-1
  6
CONTINUOUS
 62
     3
100
AcDbLine
 10
399.443665
 20
72.0
 30
0.0
 11
385.0
 21
72.0
 31
0.0
  0
ARC
  5
AC
100
AcDbEntity
  8
LAY-1
  6
CONTINUOUS
 62
     3
100
AcDbCircle
 10
399.443665
 20
81.072037
 30
0.0
 40
9.071999
100
AcDbArc
 50
270.000031
 51
334.000137
  0
LINE
  5
AD
100
AcDbEntity
  8
LAY-1
  6
CONTINUOUS
 62
     3
100
AcDbLine
 10
413.223877
 20
88.632004
 30
0.0
 11
407.596512
 21
77.095062
 31
0.0
  0
LINE
  5
AE
100
AcDbEntity
  8
LAY-1
  6
CONTINUOUS
 62
     3
100
AcDbLine
 10
407.056122
 20
88.632004
 30
0.0
 11
413.223877
 21
88.632004
 31
0.0
  0
LINE
  5
AF
100
AcDbEntity
  8
LAY-1
  6
CONTINUOUS
 62
     3
100
AcDbLine
 10
402.506485
 20
79.304535
 30
0.0
 11
407.056122
 21
88.632004
 31
0.0
  0
ARC
  5
B0
100
AcDbEntity
  8
LAY-1
  6
CONTINUOUS
 62
     3
100
AcDbCircle
 10
398.882751
 20
81.072037
 30
0.0
 40
4.032
100
AcDbArc
 50
270.000031
 51
333.99855
  0
LINE
  5
B1
100
AcDbEntity
  8
LAY-1
  6
CONTINUOUS
 62
     3
100
AcDbLine
 10
385.0
 20
77.039978
 30
0.0
 11
398.882751
 21
77.039978
 31
0.0
  0
LINE
  5
B2
100
AcDbEntity
  8
LAY-1
  6
CONTINUOUS
 62
     3
100
AcDbLine
 10
385.0
 20
77.039978
 30
0.0
 11
385.0
 21
72.0
 31
0.0
  0
LINE
  5
B3
100
AcDbEntity
  8
LAY-1
  6
CONTINUOUS
 62
     3
100
AcDbLine
 10
399.112473
 20
83.591949
 30
0.0
 11
385.0
 21
83.591949
 31
0.0
  0
LINE
  5
B4
100
AcDbEntity
  8
LAY-1
  6
CONTINUOUS
 62
     3
100
AcDbLine
 10
399.112473
 20
88.128006
 30
0.0
 11
399.112473
 21
83.591949
 31
0.0
  0
LINE
  5
B5
100
AcDbEntity
  8
LAY-1
  6
CONTINUOUS
 62
     3
100
AcDbLine
 10
385.0
 20
88.128006
 30
0.0
 11
399.112473
 21
88.128006
 31
0.0
  0
LINE
  5
B6
100
AcDbEntity
  8
LAY-1
  6
CONTINUOUS
 62
     3
100
AcDbLine
 10
385.0
 20
88.128006
 30
0.0
 11
385.0
 21
83.591949
 31
0.0
  0
LINE
  5
B7
100
AcDbEntity
  8
LAY-1
  6
CONTINUOUS
 62
     3
100
AcDbLine
 10
399.112473
 20
89.639999
 30
0.0
 11
385.0
 21
89.639999
 31
0.0
  0
LINE
  5
B8
100
AcDbEntity
  8
LAY-1
  6
CONTINUOUS
 62
     3
100
AcDbLine
 10
399.112473
 20
94.17598
 30
0.0
 11
399.112473
 21
89.639999
 31
0.0
  0
LINE
  5
B9
100
AcDbEntity
  8
LAY-1
  6
CONTINUOUS
 62
     3
100
AcDbLine
 10
385.0
 20
94.17598
 30
0.0
 11
399.112473
 21
94.17598
 31
0.0
  0
LINE
  5
BA
100
AcDbEntity
  8
LAY-1
  6
CONTINUOUS
 62
     3
100
AcDbLine
 10
385.0
 20
94.17598
 30
0.0
 11
385.0
 21
89.639999
 31
0.0
  0
LINE
  5
BB
100
AcDbEntity
  8
LAY-1
  6
CONTINUOUS
 62
     3
100
AcDbLine
 10
414.736328
 20
88.632004
 30
0.0
 11
414.736328
 21
85.103943
 31
0.0
  0
LINE
  5
BC
100
AcDbEntity
  8
LAY-1
  6
CONTINUOUS
 62
     3
100
AcDbLine
 10
414.736328
 20
88.632004
 30
0.0
 11
419.327011
 21
88.632004
 31
0.0
  0
LINE
  5
BD
100
AcDbEntity
  8
LAY-1
  6
CONTINUOUS
 62
     3
100
AcDbLine
 10
418.768158
 20
92.159988
 30
0.0
 11
419.327011
 21
88.632004
 31
0.0
  0
LINE
  5
BE
100
AcDbEntity
  8
LAY-1
  6
CONTINUOUS
 62
     3
100
AcDbLine
 10
418.768158
 20
92.159988
 30
0.0
 11
424.38118
 21
92.159988
 31
0.0
  0
LINE
  5
BF
100
AcDbEntity
  8
LAY-1
  6
CONTINUOUS
 62
     3
100
AcDbLine
 10
424.38118
 20
92.159988
 30
0.0
 11
424.939957
 21
88.632004
 31
0.0
  0
LINE
  5
C0
100
AcDbEntity
  8
LAY-1
  6
CONTINUOUS
 62
     3
100
AcDbLine
 10
424.939957
 20
88.632004
 30
0.0
 11
438.928375
 21
88.632004
 31
0.0
  0
LINE
  5
C1
100
AcDbEntity
  8
LAY-1
  6
CONTINUOUS
 62
     3
100
AcDbLine
 10
438.928375
 20
88.632004
 30
0.0
 11
435.986557
 21
82.025253
 31
0.0
  0
ARC
  5
C2
100
AcDbEntity
  8
LAY-1
  6
CONTINUOUS
 62
     3
100
AcDbCircle
 10
429.080505
 20
85.100204
 30
0.0
 40
7.560053
100
AcDbArc
 50
263.465775
 51
335.998779
  0
LINE
  5
C3
100
AcDbEntity
  8
LAY-1
  6
CONTINUOUS
 62
     3
100
AcDbLine
 10
428.219223
 20
77.589294
 30
0.0
 11
427.668533
 21
81.072037
 31
0.0
  0
ARC
  5
C4
100
AcDbEntity
  8
LAY-1
  6
CONTINUOUS
 62
     3
100
AcDbCircle
 10
427.529068
 20
84.096024
 30
0.0
 40
3.024003
100
AcDbArc
 50
272.623749
 51
336.006531
  0
LINE
  5
C5
100
AcDbEntity
  8
LAY-1
  6
CONTINUOUS
 62
     3
100
AcDbLine
 10
430.292511
 20
82.866013
 30
0.0
 11
431.288147
 21
85.103943
 31
0.0
  0
LINE
  5
C6
100
AcDbEntity
  8
LAY-1
  6
CONTINUOUS
 62
     3
100
AcDbLine
 10
431.288147
 20
85.103943
 30
0.0
 11
425.49881
 21
85.103943
 31
0.0
  0
LINE
  5
C7
100
AcDbEntity
  8
LAY-1
  6
CONTINUOUS
 62
     3
100
AcDbLine
 10
425.49881
 20
85.103943
 30
0.0
 11
427.574234
 21
72.0
 31
0.0
  0
LINE
  5
C8
100
AcDbEntity
  8
LAY-1
  6
CONTINUOUS
 62
     3
100
AcDbLine
 10
427.574234
 20
72.0
 30
0.0
 11
421.961212
 21
72.0
 31
0.0
  0
LINE
  5
C9
100
AcDbEntity
  8
LAY-1
  6
CONTINUOUS
 62
     2
100
AcDbLine
 10
421.961212
 20
72.0
 30
0.0
 11
419.885864
 21
85.103943
 31
0.0
  0
LINE
  5
CA
100
AcDbEntity
  8
LAY-1
  6
CONTINUOUS
 62
     2
100
AcDbLine
 10
419.885864
 20
85.103943
 30
0.0
 11
414.736328
 21
85.103943
 31
0.0
  0
LINE
  5
CB
100
AcDbEntity
  8
LAY-1
  6
CONTINUOUS
 62
     3
100
AcDbLine
 10
438.423843
 20
72.0
 30
0.0
 11
438.423843
 21
77.039978
 31
0.0
  0
LINE
  5
CC
100
AcDbEntity
  8
LAY-1
  6
CONTINUOUS
 62
     3
100
AcDbLine
 10
438.423843
 20
77.039978
 30
0.0
 11
466.64772
 21
77.039978
 31
0.0
  0
LINE
  5
CD
100
AcDbEntity
  8
LAY-1
  6
CONTINUOUS
 62
     3
100
AcDbLine
 10
466.64772
 20
77.039978
 30
0.0
 11
466.64772
 21
72.0
 31
0.0
  0
LINE
  5
CE
100
AcDbEntity
  8
LAY-1
  6
CONTINUOUS
 62
     3
100
AcDbLine
 10
466.64772
 20
72.0
 30
0.0
 11
438.423843
 21
72.0
 31
0.0
  0
LINE
  5
CF
100
AcDbEntity
  8
LAY-1
  6
CONTINUOUS
 62
     3
100
AcDbLine
 10
440.439758
 20
94.17598
 30
0.0
 11
440.439758
 21
89.136002
 31
0.0
  0
LINE
  5
D0
100
AcDbEntity
  8
LAY-1
  6
CONTINUOUS
 62
     3
100
AcDbLine
 10
440.439758
 20
94.17598
 30
0.0
 11
464.631805
 21
94.17598
 31
0.0
  0
LINE
  5
D1
100
AcDbEntity
  8
LAY-1
  6
CONTINUOUS
 62
     3
100
AcDbLine
 10
464.631805
 20
94.17598
 30
0.0
 11
464.631805
 21
89.136002
 31
0.0
  0
LINE
  5
D2
100
AcDbEntity
  8
LAY-1
  6
CONTINUOUS
 62
     3
100
AcDbLine
 10
464.631805
 20
89.136002
 30
0.0
 11
440.439758
 21
89.136002
 31
0.0
  0
LINE
  5
D3
100
AcDbEntity
  8
LAY-1
  6
CONTINUOUS
 62
     3
100
AcDbLine
 10
470.176086
 20
94.17598
 30
0.0
 11
470.176086
 21
89.136002
 31
0.0
  0
LINE
  5
D4
100
AcDbEntity
  8
LAY-1
  6
CONTINUOUS
 62
     3
100
AcDbLine
 10
470.176086
 20
94.17598
 30
0.0
 11
496.384049
 21
94.17598
 31
0.0
  0
LINE
  5
D5
100
AcDbEntity
  8
LAY-1
  6
CONTINUOUS
 62
     3
100
AcDbLine
 10
496.384049
 20
94.17598
 30
0.0
 11
488.525467
 21
83.359482
 31
0.0
  0
LINE
  5
D6
100
AcDbEntity
  8
LAY-1
  6
CONTINUOUS
 62
     3
100
AcDbLine
 10
488.525467
 20
83.359482
 30
0.0
 11
498.399963
 21
72.0
 31
0.0
  0
LINE
  5
D7
100
AcDbEntity
  8
LAY-1
  6
CONTINUOUS
 62
     3
100
AcDbLine
 10
498.399963
 20
72.0
 30
0.0
 11
491.054077
 21
72.0
 31
0.0
  0
LINE
  5
D8
100
AcDbEntity
  8
LAY-1
  6
CONTINUOUS
 62
     3
100
AcDbLine
 10
491.054077
 20
72.0
 30
0.0
 11
485.180664
 21
78.756363
 31
0.0
  0
LINE
  5
D9
100
AcDbEntity
  8
LAY-1
  6
CONTINUOUS
 62
     3
100
AcDbLine
 10
485.180664
 20
78.756363
 30
0.0
 11
482.989426
 21
75.739624
 31
0.0
  0
ARC
  5
DA
100
AcDbEntity
  8
LAY-1
  6
CONTINUOUS
 62
     3
100
AcDbCircle
 10
475.649643
 20
81.072037
 30
0.0
 40
9.071999
100
AcDbArc
 50
270.000031
 51
324.00116
  0
LINE
  5
DB
100
AcDbEntity
  8
LAY-1
  6
CONTINUOUS
 62
     3
100
AcDbLine
 10
475.649643
 20
72.0
 30
0.0
 11
468.160172
 21
72.0
 31
0.0
  0
LINE
  5
DC
100
AcDbEntity
  8
LAY-1
  6
CONTINUOUS
 62
     3
100
AcDbLine
 10
468.160172
 20
72.0
 30
0.0
 11
468.160172
 21
77.039978
 31
0.0
  0
LINE
  5
DD
100
AcDbEntity
  8
LAY-1
  6
CONTINUOUS
 62
     3
100
AcDbLine
 10
468.160172
 20
77.039978
 30
0.0
 11
474.51355
 21
77.039978
 31
0.0
  0
ARC
  5
DE
100
AcDbEntity
  8
LAY-1
  6
CONTINUOUS
 62
     3
100
AcDbCircle
 10
474.51355
 20
82.079956
 30
0.0
 40
5.039997
100
AcDbArc
 50
270.000031
 51
323.996597
  0
LINE
  5
DF
100
AcDbEntity
  8
LAY-1
  6
CONTINUOUS
 62
     3
100
AcDbLine
 10
478.590469
 20
79.117538
 30
0.0
 11
485.869751
 21
89.136002
 31
0.0
  0
LINE
  5
E0
100
AcDbEntity
  8
LAY-1
  6
CONTINUOUS
 62
     3
100
AcDbLine
 10
485.869751
 20
89.136002
 30
0.0
 11
470.176086
 21
89.136002
 31
0.0
  0
LINE
  5
E1
100
AcDbEntity
  8
LAY-1
  6
CONTINUOUS
 62
     3
100
AcDbLine
 10
504.447784
 20
94.17598
 30
0.0
 11
504.447784
 21
90.647995
 31
0.0
  0
LINE
  5
E2
100
AcDbEntity
  8
LAY-1
  6
CONTINUOUS
 62
     3
100
AcDbLine
 10
504.447784
 20
94.17598
 30
0.0
 11
530.65567
 21
94.17598
 31
0.0
  0
LINE
  5
E3
100
AcDbEntity
  8
LAY-1
  6
CONTINUOUS
 62
     3
100
AcDbLine
 10
530.65567
 20
94.17598
 30
0.0
 11
530.65567
 21
90.647995
 31
0.0
  0
LINE
  5
E4
100
AcDbEntity
  8
LAY-1
  6
CONTINUOUS
 62
     3
100
AcDbLine
 10
530.65567
 20
90.647995
 30
0.0
 11
520.323868
 21
90.647995
 31
0.0
  0
LINE
  5
E5
100
AcDbEntity
  8
LAY-1
  6
CONTINUOUS
 62
     3
100
AcDbLine
 10
520.323868
 20
90.647995
 30
0.0
 11
520.323868
 21
76.032059
 31
0.0
  0
LINE
  5
E6
100
AcDbEntity
  8
LAY-1
  6
CONTINUOUS
 62
     3
100
AcDbLine
 10
520.323868
 20
76.032059
 30
0.0
 11
531.663666
 21
76.032059
 31
0.0
  0
LINE
  5
E7
100
AcDbEntity
  8
LAY-1
  6
CONTINUOUS
 62
     3
100
AcDbLine
 10
531.663666
 20
76.032059
 30
0.0
 11
531.663666
 21
72.0
 31
0.0
  0
LINE
  5
E8
100
AcDbEntity
  8
LAY-1
  6
CONTINUOUS
 62
     3
100
AcDbLine
 10
531.663666
 20
72.0
 30
0.0
 11
503.439789
 21
72.0
 31
0.0
  0
LINE
  5
E9
100
AcDbEntity
  8
LAY-1
  6
CONTINUOUS
 62
     3
100
AcDbLine
 10
503.439789
 20
72.0
 30
0.0
 11
503.439789
 21
76.032059
 31
0.0
  0
LINE
  5
EA
100
AcDbEntity
  8
LAY-1
  6
CONTINUOUS
 62
     3
100
AcDbLine
 10
503.439789
 20
76.032059
 30
0.0
 11
514.779587
 21
76.032059
 31
0.0
  0
LINE
  5
EB
100
AcDbEntity
  8
LAY-1
  6
CONTINUOUS
 62
     3
100
AcDbLine
 10
514.779587
 20
76.032059
 30
0.0
 11
514.779587
 21
90.647995
 31
0.0
  0
LINE
  5
EC
100
AcDbEntity
  8
LAY-1
  6
CONTINUOUS
 62
     3
100
AcDbLine
 10
514.779587
 20
90.647995
 30
0.0
 11
504.447784
 21
90.647995
 31
0.0
  0
LINE
  5
ED
100
AcDbEntity
  8
LAY-1
  6
CONTINUOUS
 62
     3
100
AcDbLine
 10
532.168121
 20
91.151993
 30
0.0
 11
532.168121
 21
88.833572
 31
0.0
  0
LINE
  5
EE
100
AcDbEntity
  8
LAY-1
  6
CONTINUOUS
 62
     3
100
AcDbLine
 10
532.168121
 20
91.151993
 30
0.0
 11
536.546555
 21
91.151993
 31
0.0
  0
LINE
  5
EF
100
AcDbEntity
  8
LAY-1
  6
CONTINUOUS
 62
     3
100
AcDbLine
 10
536.546555
 20
91.151993
 30
0.0
 11
534.184113
 21
94.17598
 31
0.0
  0
LINE
  5
F0
100
AcDbEntity
  8
LAY-1
  6
CONTINUOUS
 62
     3
100
AcDbLine
 10
534.184113
 20
94.17598
 30
0.0
 11
538.660965
 21
94.17598
 31
0.0
  0
LINE
  5
F1
100
AcDbEntity
  8
LAY-1
  6
CONTINUOUS
 62
     3
100
AcDbLine
 10
538.660965
 20
94.17598
 30
0.0
 11
541.023407
 21
91.151993
 31
0.0
  0
LINE
  5
F2
100
AcDbEntity
  8
LAY-1
  6
CONTINUOUS
 62
     3
100
AcDbLine
 10
541.023407
 20
91.151993
 30
0.0
 11
541.996536
 21
91.151993
 31
0.0
  0
LINE
  5
F3
100
AcDbEntity
  8
LAY-1
  6
CONTINUOUS
 62
     3
100
AcDbLine
 10
541.996536
 20
91.151993
 30
0.0
 11
541.996536
 21
94.17598
 31
0.0
  0
LINE
  5
F4
100
AcDbEntity
  8
LAY-1
  6
CONTINUOUS
 62
     3
100
AcDbLine
 10
541.996536
 20
94.17598
 30
0.0
 11
545.523834
 21
94.17598
 31
0.0
  0
LINE
  5
F5
100
AcDbEntity
  8
LAY-1
  6
CONTINUOUS
 62
     3
100
AcDbLine
 10
545.523834
 20
94.17598
 30
0.0
 11
545.523834
 21
91.151993
 31
0.0
  0
LINE
  5
F6
100
AcDbEntity
  8
LAY-1
  6
CONTINUOUS
 62
     3
100
AcDbLine
 10
545.523834
 20
91.151993
 30
0.0
 11
547.036285
 21
91.151993
 31
0.0
  0
LINE
  5
F7
100
AcDbEntity
  8
LAY-1
  6
CONTINUOUS
 62
     3
100
AcDbLine
 10
547.036285
 20
91.151993
 30
0.0
 11
547.036285
 21
94.17598
 31
0.0
  0
LINE
  5
F8
100
AcDbEntity
  8
LAY-1
  6
CONTINUOUS
 62
     3
100
AcDbLine
 10
547.036285
 20
94.17598
 30
0.0
 11
550.56366
 21
94.17598
 31
0.0
  0
LINE
  5
F9
100
AcDbEntity
  8
LAY-1
  6
CONTINUOUS
 62
     3
100
AcDbLine
 10
550.56366
 20
94.17598
 30
0.0
 11
550.56366
 21
91.151993
 31
0.0
  0
LINE
  5
FA
100
AcDbEntity
  8
LAY-1
  6
CONTINUOUS
 62
     3
100
AcDbLine
 10
550.56366
 20
91.151993
 30
0.0
 11
551.536789
 21
91.151993
 31
0.0
  0
LINE
  5
FB
100
AcDbEntity
  8
LAY-1
  6
CONTINUOUS
 62
     3
100
AcDbLine
 10
551.536789
 20
91.151993
 30
0.0
 11
553.899231
 21
94.17598
 31
0.0
  0
LINE
  5
FC
100
AcDbEntity
  8
LAY-1
  6
CONTINUOUS
 62
     3
100
AcDbLine
 10
553.899231
 20
94.17598
 30
0.0
 11
558.376083
 21
94.17598
 31
0.0
  0
LINE
  5
FD
100
AcDbEntity
  8
LAY-1
  6
CONTINUOUS
 62
     3
100
AcDbLine
 10
558.376083
 20
94.17598
 30
0.0
 11
556.013641
 21
91.151993
 31
0.0
  0
LINE
  5
FE
100
AcDbEntity
  8
LAY-1
  6
CONTINUOUS
 62
     3
100
AcDbLine
 10
556.013641
 20
91.151993
 30
0.0
 11
560.391998
 21
91.151993
 31
0.0
  0
LINE
  5
FF
100
AcDbEntity
  8
LAY-1
  6
CONTINUOUS
 62
     3
100
AcDbLine
 10
560.391998
 20
91.151993
 30
0.0
 11
560.391998
 21
88.833572
 31
0.0
  0
LINE
  5
100
100
AcDbEntity
  8
LAY-1
  6
CONTINUOUS
 62
     3
100
AcDbLine
 10
560.391998
 20
88.833572
 30
0.0
 11
555.08049
 21
88.833572
 31
0.0
  0
LINE
  5
101
100
AcDbEntity
  8
LAY-1
  6
CONTINUOUS
 62
     3
100
AcDbLine
 10
555.08049
 20
88.833572
 30
0.0
 11
554.163818
 21
86.31366
 31
0.0
  0
LINE
  5
102
100
AcDbEntity
  8
LAY-1
  6
CONTINUOUS
 62
     3
100
AcDbLine
 10
554.163818
 20
86.31366
 30
0.0
 11
560.391998
 21
86.31366
 31
0.0
  0
LINE
  5
103
100
AcDbEntity
  8
LAY-1
  6
CONTINUOUS
 62
     3
100
AcDbLine
 10
560.391998
 20
86.31366
 30
0.0
 11
560.391998
 21
83.995239
 31
0.0
  0
LINE
  5
104
100
AcDbEntity
  8
LAY-1
  6
CONTINUOUS
 62
     3
100
AcDbLine
 10
560.391998
 20
83.995239
 30
0.0
 11
548.799973
 21
83.995239
 31
0.0
  0
LINE
  5
105
100
AcDbEntity
  8
LAY-1
  6
CONTINUOUS
 62
     3
100
AcDbLine
 10
548.799973
 20
83.995239
 30
0.0
 11
548.799973
 21
82.836029
 31
0.0
  0
LINE
  5
106
100
AcDbEntity
  8
LAY-1
  6
CONTINUOUS
 62
     3
100
AcDbLine
 10
548.799973
 20
82.836029
 30
0.0
 11
560.391998
 21
82.836029
 31
0.0
  0
LINE
  5
107
100
AcDbEntity
  8
LAY-1
  6
CONTINUOUS
 62
     3
100
AcDbLine
 10
560.391998
 20
82.836029
 30
0.0
 11
560.391998
 21
80.517609
 31
0.0
  0
LINE
  5
108
100
AcDbEntity
  8
LAY-1
  6
CONTINUOUS
 62
     3
100
AcDbLine
 10
560.391998
 20
80.517609
 30
0.0
 11
548.799973
 21
80.517609
 31
0.0
  0
LINE
  5
109
100
AcDbEntity
  8
LAY-1
  6
CONTINUOUS
 62
     3
100
AcDbLine
 10
548.799973
 20
80.517609
 30
0.0
 11
548.799973
 21
79.358398
 31
0.0
  0
LINE
  5
10A
100
AcDbEntity
  8
LAY-1
  6
CONTINUOUS
 62
     3
100
AcDbLine
 10
548.799973
 20
79.358398
 30
0.0
 11
560.391998
 21
79.358398
 31
0.0
  0
LINE
  5
10B
100
AcDbEntity
  8
LAY-1
  6
CONTINUOUS
 62
     3
100
AcDbLine
 10
560.391998
 20
79.358398
 30
0.0
 11
560.391998
 21
77.039978
 31
0.0
  0
LINE
  5
10C
100
AcDbEntity
  8
LAY-1
  6
CONTINUOUS
 62
     3
100
AcDbLine
 10
560.391998
 20
77.039978
 30
0.0
 11
554.813919
 21
77.039978
 31
0.0
  0
LINE
  5
10D
100
AcDbEntity
  8
LAY-1
  6
CONTINUOUS
 62
     3
100
AcDbLine
 10
554.813919
 20
77.039978
 30
0.0
 11
560.391998
 21
72.0
 31
0.0
  0
LINE
  5
10E
100
AcDbEntity
  8
LAY-1
  6
CONTINUOUS
 62
     3
100
AcDbLine
 10
560.391998
 20
72.0
 30
0.0
 11
554.378128
 21
72.0
 31
0.0
  0
LINE
  5
10F
100
AcDbEntity
  8
LAY-1
  6
CONTINUOUS
 62
     3
100
AcDbLine
 10
554.378128
 20
72.0
 30
0.0
 11
548.799973
 21
77.039978
 31
0.0
  0
LINE
  5
110
100
AcDbEntity
  8
LAY-1
  6
CONTINUOUS
 62
     3
100
AcDbLine
 10
548.799973
 20
77.039978
 30
0.0
 11
548.799973
 21
72.0
 31
0.0
  0
LINE
  5
111
100
AcDbEntity
  8
LAY-1
  6
CONTINUOUS
 62
     3
100
AcDbLine
 10
548.799973
 20
72.0
 30
0.0
 11
543.760223
 21
72.0
 31
0.0
  0
LINE
  5
112
100
AcDbEntity
  8
LAY-1
  6
CONTINUOUS
 62
     3
100
AcDbLine
 10
543.760223
 20
72.0
 30
0.0
 11
543.760223
 21
77.039978
 31
0.0
  0
LINE
  5
113
100
AcDbEntity
  8
LAY-1
  6
CONTINUOUS
 62
     3
100
AcDbLine
 10
543.760223
 20
77.039978
 30
0.0
 11
538.182068
 21
72.0
 31
0.0
  0
LINE
  5
114
100
AcDbEntity
  8
LAY-1
  6
CONTINUOUS
 62
     3
100
AcDbLine
 10
538.182068
 20
72.0
 30
0.0
 11
532.168121
 21
72.0
 31
0.0
  0
LINE
  5
115
100
AcDbEntity
  8
LAY-1
  6
CONTINUOUS
 62
     3
100
AcDbLine
 10
532.168121
 20
72.0
 30
0.0
 11
537.746277
 21
77.039978
 31
0.0
  0
LINE
  5
116
100
AcDbEntity
  8
LAY-1
  6
CONTINUOUS
 62
     3
100
AcDbLine
 10
537.746277
 20
77.039978
 30
0.0
 11
532.168121
 21
77.039978
 31
0.0
  0
LINE
  5
117
100
AcDbEntity
  8
LAY-1
  6
CONTINUOUS
 62
     3
100
AcDbLine
 10
532.168121
 20
77.039978
 30
0.0
 11
532.168121
 21
79.358398
 31
0.0
  0
LINE
  5
118
100
AcDbEntity
  8
LAY-1
  6
CONTINUOUS
 62
     3
100
AcDbLine
 10
532.168121
 20
79.358398
 30
0.0
 11
543.760223
 21
79.358398
 31
0.0
  0
LINE
  5
119
100
AcDbEntity
  8
LAY-1
  6
CONTINUOUS
 62
     3
100
AcDbLine
 10
543.760223
 20
79.358398
 30
0.0
 11
543.760223
 21
80.517609
 31
0.0
  0
LINE
  5
11A
100
AcDbEntity
  8
LAY-1
  6
CONTINUOUS
 62
     3
100
AcDbLine
 10
543.760223
 20
80.517609
 30
0.0
 11
532.168121
 21
80.517609
 31
0.0
  0
LINE
  5
11B
100
AcDbEntity
  8
LAY-1
  6
CONTINUOUS
 62
     3
100
AcDbLine
 10
532.168121
 20
80.517609
 30
0.0
 11
532.168121
 21
82.836029
 31
0.0
  0
LINE
  5
11C
100
AcDbEntity
  8
LAY-1
  6
CONTINUOUS
 62
     3
100
AcDbLine
 10
532.168121
 20
82.836029
 30
0.0
 11
543.760223
 21
82.836029
 31
0.0
  0
LINE
  5
11D
100
AcDbEntity
  8
LAY-1
  6
CONTINUOUS
 62
     3
100
AcDbLine
 10
543.760223
 20
82.836029
 30
0.0
 11
543.760223
 21
83.995239
 31
0.0
  0
LINE
  5
11E
100
AcDbEntity
  8
LAY-1
  6
CONTINUOUS
 62
     3
100
AcDbLine
 10
543.760223
 20
83.995239
 30
0.0
 11
532.168121
 21
83.995239
 31
0.0
  0
LINE
  5
11F
100
AcDbEntity
  8
LAY-1
  6
CONTINUOUS
 62
     3
100
AcDbLine
 10
532.168121
 20
83.995239
 30
0.0
 11
532.168121
 21
86.31366
 31
0.0
  0
LINE
  5
120
100
AcDbEntity
  8
LAY-1
  6
CONTINUOUS
 62
     3
100
AcDbLine
 10
532.168121
 20
86.31366
 30
0.0
 11
538.396378
 21
86.31366
 31
0.0
  0
LINE
  5
121
100
AcDbEntity
  8
LAY-1
  6
CONTINUOUS
 62
     3
100
AcDbLine
 10
538.396378
 20
86.31366
 30
0.0
 11
537.479706
 21
88.833572
 31
0.0
  0
LINE
  5
122
100
AcDbEntity
  8
LAY-1
  6
CONTINUOUS
 62
     3
100
AcDbLine
 10
537.479706
 20
88.833572
 30
0.0
 11
532.168121
 21
88.833572
 31
0.0
  0
LINE
  5
123
100
AcDbEntity
  8
LAY-1
  6
CONTINUOUS
 62
     3
100
AcDbLine
 10
542.842484
 20
88.833572
 30
0.0
 11
549.717712
 21
88.833572
 31
0.0
  0
LINE
  5
124
100
AcDbEntity
  8
LAY-1
  6
CONTINUOUS
 62
     3
100
AcDbLine
 10
549.717712
 20
88.833572
 30
0.0
 11
548.799973
 21
86.31366
 31
0.0
  0
LINE
  5
125
100
AcDbEntity
  8
LAY-1
  6
CONTINUOUS
 62
     3
100
AcDbLine
 10
548.799973
 20
86.31366
 30
0.0
 11
543.760223
 21
86.31366
 31
0.0
  0
LINE
  5
126
100
AcDbEntity
  8
LAY-1
  6
CONTINUOUS
 62
     3
100
AcDbLine
 10
543.760223
 20
86.31366
 30
0.0
 11
542.842484
 21
88.833572
 31
0.0
  0
LINE
  5
127
100
AcDbEntity
  8
LAY-1
  6
CONTINUOUS
 62
     3
100
AcDbLine
 10
574.128189
 20
94.17598
 30
0.0
 11
572.494736
 21
87.624008
 31
0.0
  0
LINE
  5
128
100
AcDbEntity
  8
LAY-1
  6
CONTINUOUS
 62
     3
100
AcDbLine
 10
574.128189
 20
94.17598
 30
0.0
 11
578.284073
 21
94.17598
 31
0.0
  0
LINE
  5
129
100
AcDbEntity
  8
LAY-1
  6
CONTINUOUS
 62
     3
100
AcDbLine
 10
578.284073
 20
94.17598
 30
0.0
 11
577.655487
 21
91.655991
 31
0.0
  0
LINE
  5
12A
100
AcDbEntity
  8
LAY-1
  6
CONTINUOUS
 62
     3
100
AcDbLine
 10
577.655487
 20
91.655991
 30
0.0
 11
579.292069
 21
91.655991
 31
0.0
  0
LINE
  5
12B
100
AcDbEntity
  8
LAY-1
  6
CONTINUOUS
 62
     3
100
AcDbLine
 10
579.292069
 20
91.655991
 30
0.0
 11
579.292069
 21
94.17598
 31
0.0
  0
LINE
  5
12C
100
AcDbEntity
  8
LAY-1
  6
CONTINUOUS
 62
     3
100
AcDbLine
 10
579.292069
 20
94.17598
 30
0.0
 11
583.828354
 21
94.17598
 31
0.0
  0
LINE
  5
12D
100
AcDbEntity
  8
LAY-1
  6
CONTINUOUS
 62
     3
100
AcDbLine
 10
583.828354
 20
94.17598
 30
0.0
 11
583.828354
 21
91.655991
 31
0.0
  0
LINE
  5
12E
100
AcDbEntity
  8
LAY-1
  6
CONTINUOUS
 62
     3
100
AcDbLine
 10
583.828354
 20
91.655991
 30
0.0
 11
589.623871
 21
91.655991
 31
0.0
  0
LINE
  5
12F
100
AcDbEntity
  8
LAY-1
  6
CONTINUOUS
 62
     3
100
AcDbLine
 10
589.623871
 20
91.655991
 30
0.0
 11
589.623871
 21
89.136002
 31
0.0
  0
LINE
  5
130
100
AcDbEntity
  8
LAY-1
  6
CONTINUOUS
 62
     3
100
AcDbLine
 10
583.828354
 20
89.136002
 30
0.0
 11
589.623871
 21
89.136002
 31
0.0
  0
LINE
  5
131
100
AcDbEntity
  8
LAY-1
  6
CONTINUOUS
 62
     3
100
AcDbLine
 10
583.828354
 20
89.136002
 30
0.0
 11
583.828354
 21
86.616013
 31
0.0
  0
LINE
  5
132
100
AcDbEntity
  8
LAY-1
  6
CONTINUOUS
 62
     3
100
AcDbLine
 10
583.828354
 20
86.616013
 30
0.0
 11
590.128326
 21
86.616013
 31
0.0
  0
LINE
  5
133
100
AcDbEntity
  8
LAY-1
  6
CONTINUOUS
 62
     3
100
AcDbLine
 10
590.128326
 20
86.616013
 30
0.0
 11
590.128326
 21
84.096024
 31
0.0
  0
LINE
  5
134
100
AcDbEntity
  8
LAY-1
  6
CONTINUOUS
 62
     3
100
AcDbLine
 10
590.128326
 20
84.096024
 30
0.0
 11
587.925797
 21
84.096024
 31
0.0
  0
LINE
  5
135
100
AcDbEntity
  8
LAY-1
  6
CONTINUOUS
 62
     3
100
AcDbLine
 10
587.925797
 20
84.096024
 30
0.0
 11
590.128326
 21
72.0
 31
0.0
  0
LINE
  5
136
100
AcDbEntity
  8
LAY-1
  6
CONTINUOUS
 62
     3
100
AcDbLine
 10
590.128326
 20
72.0
 30
0.0
 11
586.029892
 21
72.0
 31
0.0
  0
LINE
  5
137
100
AcDbEntity
  8
LAY-1
  6
CONTINUOUS
 62
     3
100
AcDbLine
 10
586.029892
 20
72.0
 30
0.0
 11
583.828354
 21
84.095871
 31
0.0
  0
LINE
  5
138
100
AcDbEntity
  8
LAY-1
  6
CONTINUOUS
 62
     3
100
AcDbLine
 10
583.828354
 20
84.095871
 30
0.0
 11
583.828354
 21
72.0
 31
0.0
  0
LINE
  5
139
100
AcDbEntity
  8
LAY-1
  6
CONTINUOUS
 62
     3
100
AcDbLine
 10
583.828354
 20
72.0
 30
0.0
 11
579.292069
 21
72.0
 31
0.0
  0
LINE
  5
13A
100
AcDbEntity
  8
LAY-1
  6
CONTINUOUS
 62
     3
100
AcDbLine
 10
579.292069
 20
72.0
 30
0.0
 11
579.292069
 21
84.096024
 31
0.0
  0
LINE
  5
13B
100
AcDbEntity
  8
LAY-1
  6
CONTINUOUS
 62
     3
100
AcDbLine
 10
579.292069
 20
84.096024
 30
0.0
 11
577.09053
 21
72.0
 31
0.0
  0
LINE
  5
13C
100
AcDbEntity
  8
LAY-1
  6
CONTINUOUS
 62
     3
100
AcDbLine
 10
577.09053
 20
72.0
 30
0.0
 11
572.99202
 21
72.0
 31
0.0
  0
LINE
  5
13D
100
AcDbEntity
  8
LAY-1
  6
CONTINUOUS
 62
     3
100
AcDbLine
 10
572.99202
 20
72.0
 30
0.0
 11
575.193558
 21
84.096024
 31
0.0
  0
LINE
  5
13E
100
AcDbEntity
  8
LAY-1
  6
CONTINUOUS
 62
     3
100
AcDbLine
 10
575.193558
 20
84.096024
 30
0.0
 11
572.99202
 21
84.096024
 31
0.0
  0
LINE
  5
13F
100
AcDbEntity
  8
LAY-1
  6
CONTINUOUS
 62
     3
100
AcDbLine
 10
572.99202
 20
84.096024
 30
0.0
 11
572.99202
 21
86.616013
 31
0.0
  0
LINE
  5
140
100
AcDbEntity
  8
LAY-1
  6
CONTINUOUS
 62
     3
100
AcDbLine
 10
572.99202
 20
86.616013
 30
0.0
 11
579.292069
 21
86.616013
 31
0.0
  0
LINE
  5
141
100
AcDbEntity
  8
LAY-1
  6
CONTINUOUS
 62
     3
100
AcDbLine
 10
579.292069
 20
86.616013
 30
0.0
 11
579.292069
 21
89.136002
 31
0.0
  0
LINE
  5
142
100
AcDbEntity
  8
LAY-1
  6
CONTINUOUS
 62
     3
100
AcDbLine
 10
579.292069
 20
89.136002
 30
0.0
 11
577.026978
 21
89.136002
 31
0.0
  0
LINE
  5
143
100
AcDbEntity
  8
LAY-1
  6
CONTINUOUS
 62
     3
100
AcDbLine
 10
577.026978
 20
89.136002
 30
0.0
 11
576.65062
 21
87.624008
 31
0.0
  0
LINE
  5
144
100
AcDbEntity
  8
LAY-1
  6
CONTINUOUS
 62
     3
100
AcDbLine
 10
576.65062
 20
87.624008
 30
0.0
 11
572.494736
 21
87.624008
 31
0.0
  0
LINE
  5
145
100
AcDbEntity
  8
LAY-1
  6
CONTINUOUS
 62
     3
100
AcDbLine
 10
561.399994
 20
91.655991
 30
0.0
 11
561.399994
 21
89.136002
 31
0.0
  0
LINE
  5
146
100
AcDbEntity
  8
LAY-1
  6
CONTINUOUS
 62
     3
100
AcDbLine
 10
561.399994
 20
91.655991
 30
0.0
 11
566.439819
 21
91.655991
 31
0.0
  0
LINE
  5
147
100
AcDbEntity
  8
LAY-1
  6
CONTINUOUS
 62
     3
100
AcDbLine
 10
566.439819
 20
91.655991
 30
0.0
 11
566.439819
 21
94.17598
 31
0.0
  0
LINE
  5
148
100
AcDbEntity
  8
LAY-1
  6
CONTINUOUS
 62
     3
100
AcDbLine
 10
566.439819
 20
94.17598
 30
0.0
 11
570.976105
 21
94.17598
 31
0.0
  0
LINE
  5
149
100
AcDbEntity
  8
LAY-1
  6
CONTINUOUS
 62
     3
100
AcDbLine
 10
570.976105
 20
94.17598
 30
0.0
 11
570.976105
 21
91.655991
 31
0.0
  0
LINE
  5
14A
100
AcDbEntity
  8
LAY-1
  6
CONTINUOUS
 62
     3
100
AcDbLine
 10
570.976105
 20
91.655991
 30
0.0
 11
572.487564
 21
91.655991
 31
0.0
  0
LINE
  5
14B
100
AcDbEntity
  8
LAY-1
  6
CONTINUOUS
 62
     3
100
AcDbLine
 10
572.487564
 20
91.655991
 30
0.0
 11
572.487564
 21
89.136002
 31
0.0
  0
LINE
  5
14C
100
AcDbEntity
  8
LAY-1
  6
CONTINUOUS
 62
     3
100
AcDbLine
 10
572.487564
 20
89.136002
 30
0.0
 11
570.976105
 21
89.136002
 31
0.0
  0
LINE
  5
14D
100
AcDbEntity
  8
LAY-1
  6
CONTINUOUS
 62
     3
100
AcDbLine
 10
570.976105
 20
89.136002
 30
0.0
 11
572.487564
 21
87.055008
 31
0.0
  0
LINE
  5
14E
100
AcDbEntity
  8
LAY-1
  6
CONTINUOUS
 62
     3
100
AcDbLine
 10
572.487564
 20
87.055008
 30
0.0
 11
572.487564
 21
81.910355
 31
0.0
  0
LINE
  5
14F
100
AcDbEntity
  8
LAY-1
  6
CONTINUOUS
 62
     3
100
AcDbLine
 10
572.487564
 20
81.910355
 30
0.0
 11
570.976105
 21
83.991425
 31
0.0
  0
LINE
  5
150
100
AcDbEntity
  8
LAY-1
  6
CONTINUOUS
 62
     3
100
AcDbLine
 10
570.976105
 20
83.991425
 30
0.0
 11
570.976105
 21
72.0
 31
0.0
  0
LINE
  5
151
100
AcDbEntity
  8
LAY-1
  6
CONTINUOUS
 62
     3
100
AcDbLine
 10
570.976105
 20
72.0
 30
0.0
 11
566.439819
 21
72.0
 31
0.0
  0
LINE
  5
152
100
AcDbEntity
  8
LAY-1
  6
CONTINUOUS
 62
     3
100
AcDbLine
 10
566.439819
 20
72.0
 30
0.0
 11
566.439819
 21
89.136002
 31
0.0
  0
LINE
  5
153
100
AcDbEntity
  8
LAY-1
  6
CONTINUOUS
 62
     3
100
AcDbLine
 10
566.241913
 20
89.136002
 30
0.0
 11
564.440308
 21
72.0
 31
0.0
  0
LINE
  5
154
100
AcDbEntity
  8
LAY-1
  6
CONTINUOUS
 62
     3
100
AcDbLine
 10
564.440308
 20
72.0
 30
0.0
 11
561.399994
 21
72.0
 31
0.0
  0
LINE
  5
155
100
AcDbEntity
  8
LAY-1
  6
CONTINUOUS
 62
     3
100
AcDbLine
 10
561.399994
 20
72.0
 30
0.0
 11
563.201599
 21
89.136002
 31
0.0
  0
LINE
  5
156
100
AcDbEntity
  8
LAY-1
  6
CONTINUOUS
 62
     3
100
AcDbLine
 10
563.201599
 20
89.136002
 30
0.0
 11
561.399994
 21
89.136002
 31
0.0
  0
LINE
  5
157
100
AcDbEntity
  8
LAY-1
  6
CONTINUOUS
 62
     3
100
AcDbLine
 10
592.647781
 20
86.112015
 30
0.0
 11
592.647781
 21
83.088028
 31
0.0
  0
LINE
  5
158
100
AcDbEntity
  8
LAY-1
  6
CONTINUOUS
 62
     3
100
AcDbLine
 10
592.647781
 20
86.112015
 30
0.0
 11
607.768173
 21
86.112015
 31
0.0
  0
LINE
  5
159
100
AcDbEntity
  8
LAY-1
  6
CONTINUOUS
 62
     3
100
AcDbLine
 10
607.768173
 20
86.112015
 30
0.0
 11
607.768173
 21
83.088028
 31
0.0
  0
LINE
  5
15A
100
AcDbEntity
  8
LAY-1
  6
CONTINUOUS
 62
     3
100
AcDbLine
 10
607.768173
 20
83.088028
 30
0.0
 11
602.979584
 21
83.088028
 31
0.0
  0
LINE
  5
15B
100
AcDbEntity
  8
LAY-1
  6
CONTINUOUS
 62
     3
100
AcDbLine
 10
602.979584
 20
83.088028
 30
0.0
 11
602.979584
 21
78.887054
 31
0.0
  0
LINE
  5
15C
100
AcDbEntity
  8
LAY-1
  6
CONTINUOUS
 62
     3
100
AcDbLine
 10
602.979584
 20
78.887054
 30
0.0
 11
608.020401
 21
79.958298
 31
0.0
  0
LINE
  5
15D
100
AcDbEntity
  8
LAY-1
  6
CONTINUOUS
 62
     3
100
AcDbLine
 10
608.020401
 20
79.958298
 30
0.0
 11
608.020401
 21
75.320999
 31
0.0
  0
LINE
  5
15E
100
AcDbEntity
  8
LAY-1
  6
CONTINUOUS
 62
     3
100
AcDbLine
 10
608.020401
 20
75.320999
 30
0.0
 11
592.395477
 21
72.0
 31
0.0
  0
LINE
  5
15F
100
AcDbEntity
  8
LAY-1
  6
CONTINUOUS
 62
     3
100
AcDbLine
 10
592.395477
 20
72.0
 30
0.0
 11
592.395477
 21
76.637299
 31
0.0
  0
LINE
  5
160
100
AcDbEntity
  8
LAY-1
  6
CONTINUOUS
 62
     3
100
AcDbLine
 10
592.395477
 20
76.637299
 30
0.0
 11
597.436295
 21
77.708618
 31
0.0
  0
LINE
  5
161
100
AcDbEntity
  8
LAY-1
  6
CONTINUOUS
 62
     3
100
AcDbLine
 10
597.436295
 20
77.708618
 30
0.0
 11
597.436295
 21
83.088028
 31
0.0
  0
LINE
  5
162
100
AcDbEntity
  8
LAY-1
  6
CONTINUOUS
 62
     3
100
AcDbLine
 10
597.436295
 20
83.088028
 30
0.0
 11
592.647781
 21
83.088028
 31
0.0
  0
LINE
  5
163
100
AcDbEntity
  8
LAY-1
  6
CONTINUOUS
 62
     3
100
AcDbLine
 10
591.136322
 20
92.159988
 30
0.0
 11
591.136322
 21
89.136002
 31
0.0
  0
LINE
  5
164
100
AcDbEntity
  8
LAY-1
  6
CONTINUOUS
 62
     3
100
AcDbLine
 10
591.136322
 20
92.159988
 30
0.0
 11
606.122437
 21
92.159988
 31
0.0
  0
LINE
  5
165
100
AcDbEntity
  8
LAY-1
  6
CONTINUOUS
 62
     3
100
AcDbLine
 10
606.122437
 20
92.159988
 30
0.0
 11
605.389252
 21
94.17598
 31
0.0
  0
LINE
  5
166
100
AcDbEntity
  8
LAY-1
  6
CONTINUOUS
 62
     3
100
AcDbLine
 10
605.389252
 20
94.17598
 30
0.0
 11
611.2883
 21
94.17598
 31
0.0
  0
LINE
  5
167
100
AcDbEntity
  8
LAY-1
  6
CONTINUOUS
 62
     3
100
AcDbLine
 10
611.2883
 20
94.17598
 30
0.0
 11
612.022476
 21
92.159988
 31
0.0
  0
LINE
  5
168
100
AcDbEntity
  8
LAY-1
  6
CONTINUOUS
 62
     3
100
AcDbLine
 10
612.022476
 20
92.159988
 30
0.0
 11
613.312454
 21
92.159988
 31
0.0
  0
LINE
  5
169
100
AcDbEntity
  8
LAY-1
  6
CONTINUOUS
 62
     3
100
AcDbLine
 10
613.312454
 20
92.159988
 30
0.0
 11
613.312454
 21
94.17598
 31
0.0
  0
LINE
  5
16A
100
AcDbEntity
  8
LAY-1
  6
CONTINUOUS
 62
     3
100
AcDbLine
 10
613.312454
 20
94.17598
 30
0.0
 11
617.847748
 21
94.17598
 31
0.0
  0
LINE
  5
16B
100
AcDbEntity
  8
LAY-1
  6
CONTINUOUS
 62
     3
100
AcDbLine
 10
617.847748
 20
94.17598
 30
0.0
 11
617.847748
 21
92.159988
 31
0.0
  0
LINE
  5
16C
100
AcDbEntity
  8
LAY-1
  6
CONTINUOUS
 62
     3
100
AcDbLine
 10
617.847748
 20
92.159988
 30
0.0
 11
619.360199
 21
92.159988
 31
0.0
  0
LINE
  5
16D
100
AcDbEntity
  8
LAY-1
  6
CONTINUOUS
 62
     3
100
AcDbLine
 10
619.360199
 20
92.159988
 30
0.0
 11
619.360199
 21
89.136002
 31
0.0
  0
LINE
  5
16E
100
AcDbEntity
  8
LAY-1
  6
CONTINUOUS
 62
     3
100
AcDbLine
 10
619.360199
 20
89.136002
 30
0.0
 11
613.122711
 21
89.136002
 31
0.0
  0
LINE
  5
16F
100
AcDbEntity
  8
LAY-1
  6
CONTINUOUS
 62
     3
100
AcDbLine
 10
613.122711
 20
89.136002
 30
0.0
 11
619.360199
 21
72.0
 31
0.0
  0
LINE
  5
170
100
AcDbEntity
  8
LAY-1
  6
CONTINUOUS
 62
     3
100
AcDbLine
 10
619.360199
 20
72.0
 30
0.0
 11
613.460083
 21
72.0
 31
0.0
  0
LINE
  5
171
100
AcDbEntity
  8
LAY-1
  6
CONTINUOUS
 62
     3
100
AcDbLine
 10
613.460083
 20
72.0
 30
0.0
 11
607.223663
 21
89.136002
 31
0.0
  0
LINE
  5
172
100
AcDbEntity
  8
LAY-1
  6
CONTINUOUS
 62
     3
100
AcDbLine
 10
607.223663
 20
89.136002
 30
0.0
 11
591.136322
 21
89.136002
 31
0.0
  0
LINE
  5
173
100
AcDbEntity
  8
LAY-1
  6
CONTINUOUS
 62
     3
100
AcDbLine
 10
620.368195
 20
89.873917
 30
0.0
 11
620.368195
 21
86.684982
 31
0.0
  0
LINE
  5
174
100
AcDbEntity
  8
LAY-1
  6
CONTINUOUS
 62
     3
100
AcDbLine
 10
620.368195
 20
89.873917
 30
0.0
 11
634.731827
 21
94.679977
 31
0.0
  0
LINE
  5
175
100
AcDbEntity
  8
LAY-1
  6
CONTINUOUS
 62
     3
100
AcDbLine
 10
634.731827
 20
94.679977
 30
0.0
 11
649.095535
 21
89.873764
 31
0.0
  0
LINE
  5
176
100
AcDbEntity
  8
LAY-1
  6
CONTINUOUS
 62
     3
100
AcDbLine
 10
649.095535
 20
89.873764
 30
0.0
 11
649.095535
 21
86.684982
 31
0.0
  0
LINE
  5
177
100
AcDbEntity
  8
LAY-1
  6
CONTINUOUS
 62
     3
100
AcDbLine
 10
649.095535
 20
86.684982
 30
0.0
 11
644.81247
 21
88.118393
 31
0.0
  0
LINE
  5
178
100
AcDbEntity
  8
LAY-1
  6
CONTINUOUS
 62
     3
100
AcDbLine
 10
644.81247
 20
88.118393
 30
0.0
 11
644.81247
 21
85.608017
 31
0.0
  0
LINE
  5
179
100
AcDbEntity
  8
LAY-1
  6
CONTINUOUS
 62
     3
100
AcDbLine
 10
644.81247
 20
85.608017
 30
0.0
 11
624.652252
 21
85.608017
 31
0.0
  0
LINE
  5
17A
100
AcDbEntity
  8
LAY-1
  6
CONTINUOUS
 62
     3
100
AcDbLine
 10
624.652252
 20
85.608017
 30
0.0
 11
624.652252
 21
88.118393
 31
0.0
  0
LINE
  5
17B
100
AcDbEntity
  8
LAY-1
  6
CONTINUOUS
 62
     3
100
AcDbLine
 10
624.652252
 20
88.118393
 30
0.0
 11
620.368195
 21
86.684982
 31
0.0
  0
LINE
  5
17C
100
AcDbEntity
  8
LAY-1
  6
CONTINUOUS
 62
     3
100
AcDbLine
 10
626.187286
 20
88.632004
 30
0.0
 11
634.731827
 21
91.491119
 31
0.0
  0
LINE
  5
17D
100
AcDbEntity
  8
LAY-1
  6
CONTINUOUS
 62
     3
100
AcDbLine
 10
634.731827
 20
91.491119
 30
0.0
 11
643.277435
 21
88.632004
 31
0.0
  0
LINE
  5
17E
100
AcDbEntity
  8
LAY-1
  6
CONTINUOUS
 62
     3
100
AcDbLine
 10
643.277435
 20
88.632004
 30
0.0
 11
626.187286
 21
88.632004
 31
0.0
  0
LINE
  5
17F
100
AcDbEntity
  8
LAY-1
  6
CONTINUOUS
 62
     3
100
AcDbLine
 10
620.368195
 20
83.591949
 30
0.0
 11
620.368195
 21
80.567963
 31
0.0
  0
LINE
  5
180
100
AcDbEntity
  8
LAY-1
  6
CONTINUOUS
 62
     3
100
AcDbLine
 10
620.368195
 20
83.591949
 30
0.0
 11
649.095535
 21
83.591949
 31
0.0
  0
LINE
  5
181
100
AcDbEntity
  8
LAY-1
  6
CONTINUOUS
 62
     3
100
AcDbLine
 10
649.095535
 20
83.591949
 30
0.0
 11
649.095535
 21
80.567963
 31
0.0
  0
LINE
  5
182
100
AcDbEntity
  8
LAY-1
  6
CONTINUOUS
 62
     3
100
AcDbLine
 10
649.095535
 20
80.567963
 30
0.0
 11
645.100555
 21
80.567963
 31
0.0
  0
LINE
  5
183
100
AcDbEntity
  8
LAY-1
  6
CONTINUOUS
 62
     3
100
AcDbLine
 10
645.100555
 20
80.567963
 30
0.0
 11
649.095535
 21
72.0
 31
0.0
  0
LINE
  5
184
100
AcDbEntity
  8
LAY-1
  6
CONTINUOUS
 62
     3
100
AcDbLine
 10
649.095535
 20
72.0
 30
0.0
 11
620.368195
 21
72.0
 31
0.0
  0
LINE
  5
185
100
AcDbEntity
  8
LAY-1
  6
CONTINUOUS
 62
     3
100
AcDbLine
 10
620.368195
 20
72.0
 30
0.0
 11
624.363098
 21
80.567963
 31
0.0
  0
LINE
  5
186
100
AcDbEntity
  8
LAY-1
  6
CONTINUOUS
 62
     3
100
AcDbLine
 10
624.363098
 20
80.567963
 30
0.0
 11
620.368195
 21
80.567963
 31
0.0
  0
LINE
  5
187
100
AcDbEntity
  8
LAY-1
  6
CONTINUOUS
 62
     3
100
AcDbLine
 10
629.923782
 20
80.567963
 30
0.0
 11
639.539871
 21
80.567963
 31
0.0
  0
LINE
  5
188
100
AcDbEntity
  8
LAY-1
  6
CONTINUOUS
 62
     3
100
AcDbLine
 10
639.539871
 20
80.567963
 30
0.0
 11
642.124863
 21
75.023987
 31
0.0
  0
LINE
  5
189
100
AcDbEntity
  8
LAY-1
  6
CONTINUOUS
 62
     3
100
AcDbLine
 10
642.124863
 20
75.023987
 30
0.0
 11
627.338791
 21
75.023987
 31
0.0
  0
LINE
  5
18A
100
AcDbEntity
  8
LAY-1
  6
CONTINUOUS
 62
     3
100
AcDbLine
 10
629.923782
 20
80.567963
 30
0.0
 11
627.338791
 21
75.023987
 31
0.0
  0
LINE
  5
18B
100
AcDbEntity
  8
LAY-1
  6
CONTINUOUS
 62
     3
100
AcDbLine
 10
663.712463
 20
88.632004
 30
0.0
 11
663.712463
 21
85.608017
 31
0.0
  0
LINE
  5
18C
100
AcDbEntity
  8
LAY-1
  6
CONTINUOUS
 62
     3
100
AcDbLine
 10
663.712463
 20
88.632004
 30
0.0
 11
668.247757
 21
88.632004
 31
0.0
  0
LINE
  5
18D
100
AcDbEntity
  8
LAY-1
  6
CONTINUOUS
 62
     3
100
AcDbLine
 10
668.247757
 20
88.632004
 30
0.0
 11
668.247757
 21
94.17598
 31
0.0
  0
LINE
  5
18E
100
AcDbEntity
  8
LAY-1
  6
CONTINUOUS
 62
     3
100
AcDbLine
 10
668.247757
 20
94.17598
 30
0.0
 11
673.287506
 21
94.17598
 31
0.0
  0
LINE
  5
18F
100
AcDbEntity
  8
LAY-1
  6
CONTINUOUS
 62
     3
100
AcDbLine
 10
673.287506
 20
94.17598
 30
0.0
 11
673.287506
 21
88.632004
 31
0.0
  0
LINE
  5
190
100
AcDbEntity
  8
LAY-1
  6
CONTINUOUS
 62
     3
100
AcDbLine
 10
673.287506
 20
88.632004
 30
0.0
 11
677.823868
 21
88.632004
 31
0.0
  0
LINE
  5
191
100
AcDbEntity
  8
LAY-1
  6
CONTINUOUS
 62
     3
100
AcDbLine
 10
677.823868
 20
88.632004
 30
0.0
 11
677.823868
 21
85.608017
 31
0.0
  0
LINE
  5
192
100
AcDbEntity
  8
LAY-1
  6
CONTINUOUS
 62
     3
100
AcDbLine
 10
677.823868
 20
85.608017
 30
0.0
 11
673.287506
 21
85.608017
 31
0.0
  0
LINE
  5
193
100
AcDbEntity
  8
LAY-1
  6
CONTINUOUS
 62
     3
100
AcDbLine
 10
673.287506
 20
85.608017
 30
0.0
 11
673.287506
 21
75.023987
 31
0.0
  0
LINE
  5
194
100
AcDbEntity
  8
LAY-1
  6
CONTINUOUS
 62
     3
100
AcDbLine
 10
673.287506
 20
75.023987
 30
0.0
 11
678.328323
 21
75.023987
 31
0.0
  0
LINE
  5
195
100
AcDbEntity
  8
LAY-1
  6
CONTINUOUS
 62
     3
100
AcDbLine
 10
678.328323
 20
75.023987
 30
0.0
 11
678.328323
 21
72.0
 31
0.0
  0
LINE
  5
196
100
AcDbEntity
  8
LAY-1
  6
CONTINUOUS
 62
     3
100
AcDbLine
 10
678.328323
 20
72.0
 30
0.0
 11
661.69548
 21
72.0
 31
0.0
  0
LINE
  5
197
100
AcDbEntity
  8
LAY-1
  6
CONTINUOUS
 62
     3
100
AcDbLine
 10
661.69548
 20
72.0
 30
0.0
 11
661.69548
 21
75.023987
 31
0.0
  0
LINE
  5
198
100
AcDbEntity
  8
LAY-1
  6
CONTINUOUS
 62
     3
100
AcDbLine
 10
661.69548
 20
75.023987
 30
0.0
 11
668.247757
 21
75.023987
 31
0.0
  0
LINE
  5
199
100
AcDbEntity
  8
LAY-1
  6
CONTINUOUS
 62
     3
100
AcDbLine
 10
668.247757
 20
75.023987
 30
0.0
 11
668.247757
 21
85.608017
 31
0.0
  0
LINE
  5
19A
100
AcDbEntity
  8
LAY-1
  6
CONTINUOUS
 62
     3
100
AcDbLine
 10
668.247757
 20
85.608017
 30
0.0
 11
663.712463
 21
85.608017
 31
0.0
  0
LINE
  5
19B
100
AcDbEntity
  8
LAY-1
  6
CONTINUOUS
 62
     3
100
AcDbLine
 10
650.103455
 20
92.159988
 30
0.0
 11
650.103455
 21
89.136002
 31
0.0
  0
LINE
  5
19C
100
AcDbEntity
  8
LAY-1
  6
CONTINUOUS
 62
     3
100
AcDbLine
 10
650.103455
 20
92.159988
 30
0.0
 11
654.639816
 21
92.159988
 31
0.0
  0
LINE
  5
19D
100
AcDbEntity
  8
LAY-1
  6
CONTINUOUS
 62
     3
100
AcDbLine
 10
654.639816
 20
92.159988
 30
0.0
 11
654.639816
 21
94.17598
 31
0.0
  0
LINE
  5
19E
100
AcDbEntity
  8
LAY-1
  6
CONTINUOUS
 62
     3
100
AcDbLine
 10
654.639816
 20
94.17598
 30
0.0
 11
659.679565
 21
94.17598
 31
0.0
  0
LINE
  5
19F
100
AcDbEntity
  8
LAY-1
  6
CONTINUOUS
 62
     3
100
AcDbLine
 10
659.679565
 20
94.17598
 30
0.0
 11
659.679565
 21
92.159988
 31
0.0
  0
LINE
  5
1A0
100
AcDbEntity
  8
LAY-1
  6
CONTINUOUS
 62
     3
100
AcDbLine
 10
659.679565
 20
92.159988
 30
0.0
 11
664.215927
 21
92.159988
 31
0.0
  0
LINE
  5
1A1
100
AcDbEntity
  8
LAY-1
  6
CONTINUOUS
 62
     3
100
AcDbLine
 10
664.215927
 20
92.159988
 30
0.0
 11
659.013062
 21
84.72789
 31
0.0
  0
LINE
  5
1A2
100
AcDbEntity
  8
LAY-1
  6
CONTINUOUS
 62
     3
100
AcDbLine
 10
659.013062
 20
84.72789
 30
0.0
 11
663.712463
 21
81.437942
 31
0.0
  0
LINE
  5
1A3
100
AcDbEntity
  8
LAY-1
  6
CONTINUOUS
 62
     3
100
AcDbLine
 10
663.712463
 20
81.437942
 30
0.0
 11
663.712463
 21
75.900604
 31
0.0
  0
LINE
  5
1A4
100
AcDbEntity
  8
LAY-1
  6
CONTINUOUS
 62
     3
100
AcDbLine
 10
663.712463
 20
75.900604
 30
0.0
 11
659.679565
 21
78.723862
 31
0.0
  0
LINE
  5
1A5
100
AcDbEntity
  8
LAY-1
  6
CONTINUOUS
 62
     3
100
AcDbLine
 10
659.679565
 20
78.723862
 30
0.0
 11
659.679565
 21
72.0
 31
0.0
  0
LINE
  5
1A6
100
AcDbEntity
  8
LAY-1
  6
CONTINUOUS
 62
     3
100
AcDbLine
 10
659.679565
 20
72.0
 30
0.0
 11
654.639816
 21
72.0
 31
0.0
  0
LINE
  5
1A7
100
AcDbEntity
  8
LAY-1
  6
CONTINUOUS
 62
     3
100
AcDbLine
 10
654.639816
 20
72.0
 30
0.0
 11
654.639816
 21
78.47995
 31
0.0
  0
LINE
  5
1A8
100
AcDbEntity
  8
LAY-1
  6
CONTINUOUS
 62
     3
100
AcDbLine
 10
654.639816
 20
78.47995
 30
0.0
 11
650.103455
 21
72.0
 31
0.0
  0
LINE
  5
1A9
100
AcDbEntity
  8
LAY-1
  6
CONTINUOUS
 62
     3
100
AcDbLine
 10
650.103455
 20
72.0
 30
0.0
 11
650.103455
 21
79.909699
 31
0.0
  0
LINE
  5
1AA
100
AcDbEntity
  8
LAY-1
  6
CONTINUOUS
 62
     3
100
AcDbLine
 10
650.103455
 20
79.909699
 30
0.0
 11
656.562424
 21
89.136002
 31
0.0
  0
LINE
  5
1AB
100
AcDbEntity
  8
LAY-1
  6
CONTINUOUS
 62
     3
100
AcDbLine
 10
656.562424
 20
89.136002
 30
0.0
 11
650.103455
 21
89.136002
 31
0.0
  0
ARC
  5
1AC
100
AcDbEntity
  8
LAY-1
  6
CONTINUOUS
 62
     2
100
AcDbCircle
 10
429.080505
 20
85.100204
 30
0.0
 40
3.150061
100
AcDbArc
 50
310.768311
 51
335.998779
  0
LINE
  5
1AD
100
AcDbEntity
  8
LAY-1
  6
CONTINUOUS
 62
     2
100
AcDbLine
 10
432.700119
 20
85.482056
 30
0.0
 11
431.959839
 21
83.819534
 31
0.0
  0
LINE
  5
1AE
100
AcDbEntity
  8
LAY-1
  6
CONTINUOUS
 62
     2
100
AcDbLine
 10
423.992538
 20
87.372009
 30
0.0
 11
435.609207
 21
87.372009
 31
0.0
  0
ARC
  5
1AF
100
AcDbEntity
  8
LAY-1
  6
CONTINUOUS
 62
     2
100
AcDbCircle
 10
475.649643
 20
81.072037
 30
0.0
 40
7.812004
100
AcDbArc
 50
270.000031
 51
324.00116
  0
ARC
  5
1B0
100
AcDbEntity
  8
LAY-1
  6
CONTINUOUS
 62
     2
100
AcDbCircle
 10
475.649643
 20
81.072037
 30
0.0
 40
6.552005
100
AcDbArc
 50
270.000031
 51
324.00116
  0
ARC
  5
1B1
100
AcDbEntity
  8
LAY-1
  6
CONTINUOUS
 62
     2
100
AcDbCircle
 10
399.282837
 20
81.072037
 30
0.0
 40
7.81199
100
AcDbArc
 50
270.000031
 51
333.99855
  0
ARC
  5
1B2
100
AcDbEntity
  8
LAY-1
  6
CONTINUOUS
 62
     2
100
AcDbCircle
 10
398.882751
 20
81.072037
 30
0.0
 40
5.291996
100
AcDbArc
 50
270.000031
 51
333.99855
  0
ARC
  5
1B3
100
AcDbEntity
  8
LAY-1
  6
CONTINUOUS
 62
     2
100
AcDbCircle
 10
399.082794
 20
81.072037
 30
0.0
 40
6.551995
100
AcDbArc
 50
270.000031
 51
333.99855
  0
LINE
  5
1B4
100
AcDbEntity
  8
LAY-1
  6
CONTINUOUS
 62
     2
100
AcDbLine
 10
385.92041
 20
93.016064
 30
0.0
 11
398.191986
 21
93.016064
 31
0.0
  0
LINE
  5
1B5
100
AcDbEntity
  8
LAY-1
  6
CONTINUOUS
 62
     2
100
AcDbLine
 10
385.92041
 20
91.856071
 30
0.0
 11
398.191986
 21
91.856071
 31
0.0
  0
LINE
  5
1B6
100
AcDbEntity
  8
LAY-1
  6
CONTINUOUS
 62
     2
100
AcDbLine
 10
385.92041
 20
90.696156
 30
0.0
 11
398.191986
 21
90.696156
 31
0.0
  0
LINE
  5
1B7
100
AcDbEntity
  8
LAY-1
  6
CONTINUOUS
 62
     2
100
AcDbLine
 10
385.92041
 20
87.068016
 30
0.0
 11
398.191986
 21
87.068016
 31
0.0
  0
LINE
  5
1B8
100
AcDbEntity
  8
LAY-1
  6
CONTINUOUS
 62
     2
100
AcDbLine
 10
385.92041
 20
85.807945
 30
0.0
 11
398.191986
 21
85.807945
 31
0.0
  0
LINE
  5
1B9
100
AcDbEntity
  8
LAY-1
  6
CONTINUOUS
 62
     2
100
AcDbLine
 10
385.92041
 20
84.648029
 30
0.0
 11
398.191986
 21
84.648029
 31
0.0
  0
LINE
  5
1BA
100
AcDbEntity
  8
LAY-1
  6
CONTINUOUS
 62
     2
100
AcDbLine
 10
385.92041
 20
75.779984
 30
0.0
 11
398.882751
 21
75.779984
 31
0.0
  0
LINE
  5
1BB
100
AcDbEntity
  8
LAY-1
  6
CONTINUOUS
 62
     2
100
AcDbLine
 10
385.92041
 20
74.519989
 30
0.0
 11
398.882751
 21
74.519989
 31
0.0
  0
LINE
  5
1BC
100
AcDbEntity
  8
LAY-1
  6
CONTINUOUS
 62
     2
100
AcDbLine
 10
385.92041
 20
73.259995
 30
0.0
 11
398.882751
 21
73.259995
 31
0.0
  0
LINE
  5
1BD
100
AcDbEntity
  8
LAY-1
  6
CONTINUOUS
 62
     2
100
AcDbLine
 10
403.638535
 20
78.752014
 30
0.0
 11
408.054123
 21
87.805182
 31
0.0
  0
LINE
  5
1BE
100
AcDbEntity
  8
LAY-1
  6
CONTINUOUS
 62
     2
100
AcDbLine
 10
404.970627
 20
78.199799
 30
0.0
 11
409.655838
 21
87.805187
 31
0.0
  0
LINE
  5
1BF
100
AcDbEntity
  8
LAY-1
  6
CONTINUOUS
 62
     2
100
AcDbLine
 10
406.302643
 20
77.647125
 30
0.0
 11
411.256561
 21
87.805173
 31
0.0
  0
LINE
  5
1C0
100
AcDbEntity
  8
LAY-1
  6
CONTINUOUS
 62
     2
100
AcDbLine
 10
404.568176
 20
92.847988
 30
0.0
 11
406.759186
 21
92.847988
 31
0.0
  0
LINE
  5
1C1
100
AcDbEntity
  8
LAY-1
  6
CONTINUOUS
 62
     2
100
AcDbLine
 10
404.568176
 20
91.419994
 30
0.0
 11
406.759186
 21
91.419994
 31
0.0
  0
LINE
  5
1C2
100
AcDbEntity
  8
LAY-1
  6
CONTINUOUS
 62
     2
100
AcDbLine
 10
410.112457
 20
92.847988
 30
0.0
 11
412.303467
 21
92.847988
 31
0.0
  0
LINE
  5
1C3
100
AcDbEntity
  8
LAY-1
  6
CONTINUOUS
 62
     2
100
AcDbLine
 10
410.112457
 20
91.419994
 30
0.0
 11
412.303467
 21
91.419994
 31
0.0
  0
LINE
  5
1C4
100
AcDbEntity
  8
LAY-1
  6
CONTINUOUS
 62
     2
100
AcDbLine
 10
415.656738
 20
86.112091
 30
0.0
 11
421.64032
 21
86.112091
 31
0.0
  0
LINE
  5
1C5
100
AcDbEntity
  8
LAY-1
  6
CONTINUOUS
 62
     2
100
AcDbLine
 10
420.187683
 20
91.251342
 30
0.0
 11
420.802536
 21
87.372009
 31
0.0
  0
LINE
  5
1C6
100
AcDbEntity
  8
LAY-1
  6
CONTINUOUS
 62
     2
100
AcDbLine
 10
423.094025
 20
72.908651
 30
0.0
 11
421.224518
 21
84.709522
 31
0.0
  0
ARC
  5
1C7
100
AcDbEntity
  8
LAY-1
  6
CONTINUOUS
 62
     2
100
AcDbCircle
 10
428.980484
 20
85.100204
 30
0.0
 40
4.410061
100
AcDbArc
 50
272.671387
 51
335.998779
  0
ARC
  5
1C8
100
AcDbEntity
  8
LAY-1
  6
CONTINUOUS
 62
     2
100
AcDbCircle
 10
428.880463
 20
85.100204
 30
0.0
 40
5.670056
100
AcDbArc
 50
267.367432
 51
335.998779
  0
LINE
  5
1C9
100
AcDbEntity
  8
LAY-1
  6
CONTINUOUS
 62
     2
100
AcDbLine
 10
436.175842
 20
87.545263
 30
0.0
 11
434.060745
 21
82.794296
 31
0.0
  0
LINE
  5
1CA
100
AcDbEntity
  8
LAY-1
  6
CONTINUOUS
 62
     2
100
AcDbLine
 10
426.045303
 20
72.908651
 30
0.0
 11
424.110184
 21
85.124409
 31
0.0
  0
LINE
  5
1CB
100
AcDbEntity
  8
LAY-1
  6
CONTINUOUS
 62
     2
100
AcDbLine
 10
424.669647
 20
72.908651
 30
0.0
 11
421.764221
 21
91.251337
 31
0.0
  0
LINE
  5
1CC
100
AcDbEntity
  8
LAY-1
  6
CONTINUOUS
 62
     2
100
AcDbLine
 10
423.139877
 20
91.251337
 30
0.0
 11
423.697815
 21
87.729732
 31
0.0
  0
LINE
  5
1CD
100
AcDbEntity
  8
LAY-1
  6
CONTINUOUS
 62
     2
100
AcDbLine
 10
415.656738
 20
87.372009
 30
0.0
 11
419.802551
 21
87.372009
 31
0.0
  0
LINE
  5
1CE
100
AcDbEntity
  8
LAY-1
  6
CONTINUOUS
 62
     2
100
AcDbLine
 10
434.334946
 20
86.285197
 30
0.0
 11
433.010254
 21
83.306763
 31
0.0
  0
LINE
  5
1CF
100
AcDbEntity
  8
LAY-1
  6
CONTINUOUS
 62
     2
100
AcDbLine
 10
423.553696
 20
86.112091
 30
0.0
 11
433.169098
 21
86.112091
 31
0.0
  0
ARC
  5
1D0
100
AcDbEntity
  8
LAY-1
  6
CONTINUOUS
 62
     2
100
AcDbCircle
 10
428.780441
 20
85.100204
 30
0.0
 40
6.930056
100
AcDbArc
 50
269.611328
 51
335.998779
  0
LINE
  5
1D1
100
AcDbEntity
  8
LAY-1
  6
CONTINUOUS
 62
     2
100
AcDbLine
 10
437.45491
 20
87.545278
 30
0.0
 11
435.111237
 21
82.281677
 31
0.0
  0
LINE
  5
1D2
100
AcDbEntity
  8
LAY-1
  6
CONTINUOUS
 62
     2
100
AcDbLine
 10
491.156311
 20
91.656067
 30
0.0
 11
480.940323
 21
77.591354
 31
0.0
  0
LINE
  5
1D3
100
AcDbEntity
  8
LAY-1
  6
CONTINUOUS
 62
     2
100
AcDbLine
 10
488.434067
 20
90.396149
 30
0.0
 11
479.671021
 21
78.332016
 31
0.0
  0
ARC
  5
1D4
100
AcDbEntity
  8
LAY-1
  6
CONTINUOUS
 62
     2
100
AcDbCircle
 10
475.99968
 20
80.872032
 30
0.0
 40
4.66201
100
AcDbArc
 50
270.000031
 51
324.00116
  0
LINE
  5
1D5
100
AcDbEntity
  8
LAY-1
  6
CONTINUOUS
 62
     2
100
AcDbLine
 10
441.439743
 20
93.007795
 30
0.0
 11
463.631821
 21
93.007795
 31
0.0
  0
LINE
  5
1D6
100
AcDbEntity
  8
LAY-1
  6
CONTINUOUS
 62
     2
100
AcDbLine
 10
441.439743
 20
91.697876
 30
0.0
 11
463.631821
 21
91.697876
 31
0.0
  0
LINE
  5
1D7
100
AcDbEntity
  8
LAY-1
  6
CONTINUOUS
 62
     2
100
AcDbLine
 10
441.439743
 20
90.337956
 30
0.0
 11
463.631821
 21
90.337956
 31
0.0
  0
LINE
  5
1D8
100
AcDbEntity
  8
LAY-1
  6
CONTINUOUS
 62
     2
100
AcDbLine
 10
439.423828
 20
75.822021
 30
0.0
 11
465.647736
 21
75.822021
 31
0.0
  0
LINE
  5
1D9
100
AcDbEntity
  8
LAY-1
  6
CONTINUOUS
 62
     2
100
AcDbLine
 10
439.423828
 20
74.562027
 30
0.0
 11
465.647736
 21
74.562027
 31
0.0
  0
LINE
  5
1DA
100
AcDbEntity
  8
LAY-1
  6
CONTINUOUS
 62
     2
100
AcDbLine
 10
439.423828
 20
73.201954
 30
0.0
 11
465.647736
 21
73.201954
 31
0.0
  0
LINE
  5
1DB
100
AcDbEntity
  8
LAY-1
  6
CONTINUOUS
 62
     2
100
AcDbLine
 10
471.176071
 20
92.966063
 30
0.0
 11
492.628403
 21
92.966063
 31
0.0
  0
LINE
  5
1DC
100
AcDbEntity
  8
LAY-1
  6
CONTINUOUS
 62
     2
100
AcDbLine
 10
493.928452
 20
92.916061
 30
0.0
 11
482.259522
 21
76.850311
 31
0.0
  0
LINE
  5
1DD
100
AcDbEntity
  8
LAY-1
  6
CONTINUOUS
 62
     2
100
AcDbLine
 10
471.176071
 20
91.656067
 30
0.0
 11
490.15625
 21
91.656067
 31
0.0
  0
LINE
  5
1DE
100
AcDbEntity
  8
LAY-1
  6
CONTINUOUS
 62
     2
100
AcDbLine
 10
475.649643
 20
75.829985
 30
0.0
 11
469.160156
 21
75.829985
 31
0.0
  0
LINE
  5
1DF
100
AcDbEntity
  8
LAY-1
  6
CONTINUOUS
 62
     2
100
AcDbLine
 10
475.649643
 20
74.519989
 30
0.0
 11
469.160156
 21
74.519989
 31
0.0
  0
LINE
  5
1E0
100
AcDbEntity
  8
LAY-1
  6
CONTINUOUS
 62
     2
100
AcDbLine
 10
475.649643
 20
73.209993
 30
0.0
 11
469.160156
 21
73.209993
 31
0.0
  0
LINE
  5
1E1
100
AcDbEntity
  8
LAY-1
  6
CONTINUOUS
 62
     2
100
AcDbLine
 10
485.715942
 20
79.868576
 30
0.0
 11
491.685791
 21
72.999999
 31
0.0
  0
LINE
  5
1E2
100
AcDbEntity
  8
LAY-1
  6
CONTINUOUS
 62
     2
100
AcDbLine
 10
486.476746
 20
80.765254
 30
0.0
 11
493.225861
 21
72.999999
 31
0.0
  0
LINE
  5
1E3
100
AcDbEntity
  8
LAY-1
  6
CONTINUOUS
 62
     2
100
AcDbLine
 10
487.236557
 20
81.661474
 30
0.0
 11
494.764709
 21
72.999999
 31
0.0
  0
LINE
  5
1E4
100
AcDbEntity
  8
LAY-1
  6
CONTINUOUS
 62
     2
100
AcDbLine
 10
487.996368
 20
82.557923
 30
0.0
 11
496.304626
 21
72.999999
 31
0.0
  0
LINE
  5
1E5
100
AcDbEntity
  8
LAY-1
  6
CONTINUOUS
 62
     2
100
AcDbLine
 10
471.176071
 20
90.296146
 30
0.0
 11
487.183991
 21
90.296146
 31
0.0
  0
LINE
  5
1E6
100
AcDbEntity
  8
LAY-1
  6
CONTINUOUS
 62
     2
100
AcDbLine
 10
505.447769
 20
93.016064
 30
0.0
 11
529.655685
 21
93.016064
 31
0.0
  0
LINE
  5
1E7
100
AcDbEntity
  8
LAY-1
  6
CONTINUOUS
 62
     2
100
AcDbLine
 10
505.447769
 20
91.756069
 30
0.0
 11
529.655685
 21
91.756069
 31
0.0
  0
LINE
  5
1E8
100
AcDbEntity
  8
LAY-1
  6
CONTINUOUS
 62
     2
100
AcDbLine
 10
515.838699
 20
75.739958
 30
0.0
 11
515.838699
 21
90.60611
 31
0.0
  0
LINE
  5
1E9
100
AcDbEntity
  8
LAY-1
  6
CONTINUOUS
 62
     2
100
AcDbLine
 10
517.097931
 20
75.739958
 30
0.0
 11
517.097931
 21
90.60611
 31
0.0
  0
LINE
  5
1EA
100
AcDbEntity
  8
LAY-1
  6
CONTINUOUS
 62
     2
100
AcDbLine
 10
518.357086
 20
75.739958
 30
0.0
 11
518.357086
 21
90.60611
 31
0.0
  0
LINE
  5
1EB
100
AcDbEntity
  8
LAY-1
  6
CONTINUOUS
 62
     2
100
AcDbLine
 10
519.51622
 20
75.739958
 30
0.0
 11
519.51622
 21
90.60611
 31
0.0
  0
LINE
  5
1EC
100
AcDbEntity
  8
LAY-1
  6
CONTINUOUS
 62
     2
100
AcDbLine
 10
504.439774
 20
74.739959
 30
0.0
 11
530.663681
 21
74.739959
 31
0.0
  0
LINE
  5
1ED
100
AcDbEntity
  8
LAY-1
  6
CONTINUOUS
 62
     2
100
AcDbLine
 10
504.439774
 20
73.229963
 30
0.0
 11
530.663681
 21
73.229963
 31
0.0
  0
LINE
  5
1EE
100
AcDbEntity
  8
LAY-1
  6
CONTINUOUS
 62
     2
100
AcDbLine
 10
536.563797
 20
93.175981
 30
0.0
 11
538.43544
 21
90.780751
 31
0.0
  0
LINE
  5
1EF
100
AcDbEntity
  8
LAY-1
  6
CONTINUOUS
 62
     2
100
AcDbLine
 10
538.162384
 20
93.175981
 30
0.0
 11
540.034027
 21
90.780751
 31
0.0
  0
LINE
  5
1F0
100
AcDbEntity
  8
LAY-1
  6
CONTINUOUS
 62
     2
100
AcDbLine
 10
543.15567
 20
93.175981
 30
0.0
 11
543.15567
 21
90.992782
 31
0.0
  0
LINE
  5
1F1
100
AcDbEntity
  8
LAY-1
  6
CONTINUOUS
 62
     2
100
AcDbLine
 10
544.514923
 20
93.175981
 30
0.0
 11
544.514923
 21
90.992782
 31
0.0
  0
LINE
  5
1F2
100
AcDbEntity
  8
LAY-1
  6
CONTINUOUS
 62
     2
100
AcDbLine
 10
548.195496
 20
93.175981
 30
0.0
 11
548.195496
 21
90.992782
 31
0.0
  0
LINE
  5
1F3
100
AcDbEntity
  8
LAY-1
  6
CONTINUOUS
 62
     2
100
AcDbLine
 10
549.654694
 20
93.175981
 30
0.0
 11
549.654694
 21
90.992782
 31
0.0
  0
LINE
  5
1F4
100
AcDbEntity
  8
LAY-1
  6
CONTINUOUS
 62
     2
100
AcDbLine
 10
554.497833
 20
93.175981
 30
0.0
 11
552.62619
 21
90.780751
 31
0.0
  0
LINE
  5
1F5
100
AcDbEntity
  8
LAY-1
  6
CONTINUOUS
 62
     2
100
AcDbLine
 10
556.196442
 20
93.175981
 30
0.0
 11
554.324799
 21
90.780751
 31
0.0
  0
LINE
  5
1F6
100
AcDbEntity
  8
LAY-1
  6
CONTINUOUS
 62
     2
100
AcDbLine
 10
533.168106
 20
89.992783
 30
0.0
 11
559.392014
 21
89.992783
 31
0.0
  0
LINE
  5
1F7
100
AcDbEntity
  8
LAY-1
  6
CONTINUOUS
 62
     2
100
AcDbLine
 10
539.715881
 20
86.094143
 30
0.0
 11
538.638916
 21
89.053089
 31
0.0
  0
LINE
  5
1F8
100
AcDbEntity
  8
LAY-1
  6
CONTINUOUS
 62
     2
100
AcDbLine
 10
541.256104
 20
86.094143
 30
0.0
 11
540.179138
 21
89.053089
 31
0.0
  0
LINE
  5
1F9
100
AcDbEntity
  8
LAY-1
  6
CONTINUOUS
 62
     2
100
AcDbLine
 10
542.696304
 20
86.094257
 30
0.0
 11
541.62056
 21
89.052975
 31
0.0
  0
LINE
  5
1FA
100
AcDbEntity
  8
LAY-1
  6
CONTINUOUS
 62
     2
100
AcDbLine
 10
549.959717
 20
86.094033
 30
0.0
 11
551.037827
 21
89.053199
 31
0.0
  0
LINE
  5
1FB
100
AcDbEntity
  8
LAY-1
  6
CONTINUOUS
 62
     2
100
AcDbLine
 10
551.501007
 20
86.094033
 30
0.0
 11
552.579117
 21
89.053199
 31
0.0
  0
LINE
  5
1FC
100
AcDbEntity
  8
LAY-1
  6
CONTINUOUS
 62
     2
100
AcDbLine
 10
552.941208
 20
86.094033
 30
0.0
 11
554.019318
 21
89.053199
 31
0.0
  0
LINE
  5
1FD
100
AcDbEntity
  8
LAY-1
  6
CONTINUOUS
 62
     2
100
AcDbLine
 10
533.168106
 20
85.154449
 30
0.0
 11
559.392014
 21
85.154449
 31
0.0
  0
LINE
  5
1FE
100
AcDbEntity
  8
LAY-1
  6
CONTINUOUS
 62
     2
100
AcDbLine
 10
533.168106
 20
81.676819
 30
0.0
 11
543.919373
 21
81.676819
 31
0.0
  0
LINE
  5
1FF
100
AcDbEntity
  8
LAY-1
  6
CONTINUOUS
 62
     2
100
AcDbLine
 10
533.168106
 20
78.199188
 30
0.0
 11
543.919373
 21
78.199188
 31
0.0
  0
LINE
  5
200
100
AcDbEntity
  8
LAY-1
  6
CONTINUOUS
 62
     2
100
AcDbLine
 10
548.737793
 20
78.199188
 30
0.0
 11
559.392014
 21
78.199188
 31
0.0
  0
LINE
  5
201
100
AcDbEntity
  8
LAY-1
  6
CONTINUOUS
 62
     2
100
AcDbLine
 10
534.75441
 20
72.999999
 30
0.0
 11
539.766617
 21
77.528769
 31
0.0
  0
LINE
  5
202
100
AcDbEntity
  8
LAY-1
  6
CONTINUOUS
 62
     2
100
AcDbLine
 10
536.433868
 20
72.999999
 30
0.0
 11
541.446228
 21
77.528779
 31
0.0
  0
LINE
  5
203
100
AcDbEntity
  8
LAY-1
  6
CONTINUOUS
 62
     2
100
AcDbLine
 10
538.014374
 20
72.999999
 30
0.0
 11
543.026733
 21
77.528779
 31
0.0
  0
LINE
  5
204
100
AcDbEntity
  8
LAY-1
  6
CONTINUOUS
 62
     2
100
AcDbLine
 10
544.919357
 20
72.999999
 30
0.0
 11
544.919357
 21
84.15445
 31
0.0
  0
LINE
  5
205
100
AcDbEntity
  8
LAY-1
  6
CONTINUOUS
 62
     2
100
AcDbLine
 10
546.378555
 20
72.999999
 30
0.0
 11
546.378555
 21
84.15445
 31
0.0
  0
LINE
  5
206
100
AcDbEntity
  8
LAY-1
  6
CONTINUOUS
 62
     2
100
AcDbLine
 10
547.737808
 20
72.999999
 30
0.0
 11
547.737808
 21
84.15445
 31
0.0
  0
LINE
  5
207
100
AcDbEntity
  8
LAY-1
  6
CONTINUOUS
 62
     2
100
AcDbLine
 10
554.585877
 20
72.999999
 30
0.0
 11
549.573669
 21
77.528769
 31
0.0
  0
LINE
  5
208
100
AcDbEntity
  8
LAY-1
  6
CONTINUOUS
 62
     2
100
AcDbLine
 10
556.265411
 20
72.999999
 30
0.0
 11
551.253052
 21
77.528779
 31
0.0
  0
LINE
  5
209
100
AcDbEntity
  8
LAY-1
  6
CONTINUOUS
 62
     2
100
AcDbLine
 10
557.945938
 20
72.999999
 30
0.0
 11
552.933578
 21
77.528779
 31
0.0
  0
LINE
  5
20A
100
AcDbEntity
  8
LAY-1
  6
CONTINUOUS
 62
     2
100
AcDbLine
 10
567.498932
 20
93.175981
 30
0.0
 11
567.498932
 21
91.395995
 31
0.0
  0
LINE
  5
20B
100
AcDbEntity
  8
LAY-1
  6
CONTINUOUS
 62
     2
100
AcDbLine
 10
568.758087
 20
93.175981
 30
0.0
 11
568.758087
 21
91.395995
 31
0.0
  0
LINE
  5
20C
100
AcDbEntity
  8
LAY-1
  6
CONTINUOUS
 62
     2
100
AcDbLine
 10
570.017319
 20
93.175981
 30
0.0
 11
570.017319
 21
91.395995
 31
0.0
  0
LINE
  5
20D
100
AcDbEntity
  8
LAY-1
  6
CONTINUOUS
 62
     2
100
AcDbLine
 10
562.399979
 20
90.395996
 30
0.0
 11
571.487579
 21
90.395996
 31
0.0
  0
LINE
  5
20E
100
AcDbEntity
  8
LAY-1
  6
CONTINUOUS
 62
     2
100
AcDbLine
 10
562.472076
 20
72.994525
 30
0.0
 11
564.196014
 21
89.401471
 31
0.0
  0
LINE
  5
20F
100
AcDbEntity
  8
LAY-1
  6
CONTINUOUS
 62
     2
100
AcDbLine
 10
563.638382
 20
72.994525
 30
0.0
 11
565.362396
 21
89.401471
 31
0.0
  0
LINE
  5
210
100
AcDbEntity
  8
LAY-1
  6
CONTINUOUS
 62
     2
100
AcDbLine
 10
567.498932
 20
72.999999
 30
0.0
 11
567.498932
 21
89.395997
 31
0.0
  0
LINE
  5
211
100
AcDbEntity
  8
LAY-1
  6
CONTINUOUS
 62
     2
100
AcDbLine
 10
568.758087
 20
72.999999
 30
0.0
 11
568.758087
 21
89.395997
 31
0.0
  0
LINE
  5
212
100
AcDbEntity
  8
LAY-1
  6
CONTINUOUS
 62
     2
100
AcDbLine
 10
570.017319
 20
72.999999
 30
0.0
 11
570.017319
 21
89.395997
 31
0.0
  0
LINE
  5
213
100
AcDbEntity
  8
LAY-1
  6
CONTINUOUS
 62
     2
100
AcDbLine
 10
570.60463
 20
88.077123
 30
0.0
 11
571.900177
 21
86.291921
 31
0.0
  0
LINE
  5
214
100
AcDbEntity
  8
LAY-1
  6
CONTINUOUS
 62
     2
100
AcDbLine
 10
570.60463
 20
86.132123
 30
0.0
 11
571.900177
 21
84.346921
 31
0.0
  0
LINE
  5
215
100
AcDbEntity
  8
LAY-1
  6
CONTINUOUS
 62
     2
100
AcDbLine
 10
573.734589
 20
88.5943
 30
0.0
 11
574.884415
 21
93.205688
 31
0.0
  0
LINE
  5
216
100
AcDbEntity
  8
LAY-1
  6
CONTINUOUS
 62
     2
100
AcDbLine
 10
574.933701
 20
88.594343
 30
0.0
 11
576.082611
 21
93.205645
 31
0.0
  0
LINE
  5
217
100
AcDbEntity
  8
LAY-1
  6
CONTINUOUS
 62
     2
100
AcDbLine
 10
575.981903
 20
88.5943
 30
0.0
 11
577.131729
 21
93.205688
 31
0.0
  0
LINE
  5
218
100
AcDbEntity
  8
LAY-1
  6
CONTINUOUS
 62
     2
100
AcDbLine
 10
580.351181
 20
91.395995
 30
0.0
 11
580.351181
 21
93.175981
 31
0.0
  0
LINE
  5
219
100
AcDbEntity
  8
LAY-1
  6
CONTINUOUS
 62
     2
100
AcDbLine
 10
581.710358
 20
91.395995
 30
0.0
 11
581.710358
 21
93.175981
 31
0.0
  0
LINE
  5
21A
100
AcDbEntity
  8
LAY-1
  6
CONTINUOUS
 62
     2
100
AcDbLine
 10
582.969589
 20
91.395995
 30
0.0
 11
582.969589
 21
93.175981
 31
0.0
  0
LINE
  5
21B
100
AcDbEntity
  8
LAY-1
  6
CONTINUOUS
 62
     2
100
AcDbLine
 10
577.431107
 20
90.395996
 30
0.0
 11
588.623886
 21
90.395996
 31
0.0
  0
LINE
  5
21C
100
AcDbEntity
  8
LAY-1
  6
CONTINUOUS
 62
     2
100
AcDbLine
 10
580.351181
 20
89.395997
 30
0.0
 11
580.351181
 21
86.356017
 31
0.0
  0
LINE
  5
21D
100
AcDbEntity
  8
LAY-1
  6
CONTINUOUS
 62
     2
100
AcDbLine
 10
581.710358
 20
89.395997
 30
0.0
 11
581.710358
 21
86.356017
 31
0.0
  0
LINE
  5
21E
100
AcDbEntity
  8
LAY-1
  6
CONTINUOUS
 62
     2
100
AcDbLine
 10
582.969589
 20
89.395997
 30
0.0
 11
582.969589
 21
86.356017
 31
0.0
  0
LINE
  5
21F
100
AcDbEntity
  8
LAY-1
  6
CONTINUOUS
 62
     2
100
AcDbLine
 10
573.992004
 20
85.356018
 30
0.0
 11
589.128342
 21
85.356018
 31
0.0
  0
LINE
  5
220
100
AcDbEntity
  8
LAY-1
  6
CONTINUOUS
 62
     2
100
AcDbLine
 10
576.223984
 20
84.372193
 30
0.0
 11
574.150391
 21
72.983825
 31
0.0
  0
LINE
  5
221
100
AcDbEntity
  8
LAY-1
  6
CONTINUOUS
 62
     2
100
AcDbLine
 10
577.403641
 20
84.372193
 30
0.0
 11
575.330124
 21
72.983825
 31
0.0
  0
LINE
  5
222
100
AcDbEntity
  8
LAY-1
  6
CONTINUOUS
 62
     2
100
AcDbLine
 10
578.444595
 20
84.372208
 30
0.0
 11
576.37001
 21
72.98381
 31
0.0
  0
LINE
  5
223
100
AcDbEntity
  8
LAY-1
  6
CONTINUOUS
 62
     2
100
AcDbLine
 10
580.351181
 20
84.356019
 30
0.0
 11
580.351181
 21
72.999999
 31
0.0
  0
LINE
  5
224
100
AcDbEntity
  8
LAY-1
  6
CONTINUOUS
 62
     2
100
AcDbLine
 10
581.610336
 20
84.356019
 30
0.0
 11
581.610336
 21
72.999999
 31
0.0
  0
LINE
  5
225
100
AcDbEntity
  8
LAY-1
  6
CONTINUOUS
 62
     3
100
AcDbLine
 10
582.969589
 20
84.356019
 30
0.0
 11
582.969589
 21
72.999999
 31
0.0
  0
LINE
  5
226
100
AcDbEntity
  8
LAY-1
  6
CONTINUOUS
 62
     2
100
AcDbLine
 10
584.674759
 20
84.372208
 30
0.0
 11
586.749344
 21
72.98381
 31
0.0
  0
LINE
  5
227
100
AcDbEntity
  8
LAY-1
  6
CONTINUOUS
 62
     2
100
AcDbLine
 10
585.755463
 20
84.372208
 30
0.0
 11
587.830048
 21
72.98381
 31
0.0
  0
LINE
  5
228
100
AcDbEntity
  8
LAY-1
  6
CONTINUOUS
 62
     2
100
AcDbLine
 10
587.035141
 20
84.372208
 30
0.0
 11
589.109726
 21
72.98381
 31
0.0
  0
LINE
  5
229
100
AcDbEntity
  8
LAY-1
  6
CONTINUOUS
 62
     2
100
AcDbLine
 10
592.136307
 20
91.200077
 30
0.0
 11
606.412048
 21
91.200077
 31
0.0
  0
LINE
  5
22A
100
AcDbEntity
  8
LAY-1
  6
CONTINUOUS
 62
     2
100
AcDbLine
 10
592.136307
 20
89.940083
 30
0.0
 11
606.870651
 21
89.940083
 31
0.0
  0
LINE
  5
22B
100
AcDbEntity
  8
LAY-1
  6
CONTINUOUS
 62
     2
100
AcDbLine
 10
614.058304
 20
72.939693
 30
0.0
 11
606.67099
 21
93.236286
 31
0.0
  0
LINE
  5
22C
100
AcDbEntity
  8
LAY-1
  6
CONTINUOUS
 62
     2
100
AcDbLine
 10
615.398483
 20
72.939698
 30
0.0
 11
608.011475
 21
93.236281
 31
0.0
  0
LINE
  5
22D
100
AcDbEntity
  8
LAY-1
  6
CONTINUOUS
 62
     2
100
AcDbLine
 10
616.738663
 20
72.939698
 30
0.0
 11
609.351654
 21
93.236281
 31
0.0
  0
LINE
  5
22E
100
AcDbEntity
  8
LAY-1
  6
CONTINUOUS
 62
     2
100
AcDbLine
 10
618.078842
 20
72.939679
 30
0.0
 11
610.690689
 21
93.236296
 31
0.0
  0
LINE
  5
22F
100
AcDbEntity
  8
LAY-1
  6
CONTINUOUS
 62
     2
100
AcDbLine
 10
614.271545
 20
92.200076
 30
0.0
 11
614.271545
 21
93.175981
 31
0.0
  0
LINE
  5
230
100
AcDbEntity
  8
LAY-1
  6
CONTINUOUS
 62
     2
100
AcDbLine
 10
615.630798
 20
92.200076
 30
0.0
 11
615.630798
 21
93.175981
 31
0.0
  0
LINE
  5
231
100
AcDbEntity
  8
LAY-1
  6
CONTINUOUS
 62
     2
100
AcDbLine
 10
616.989975
 20
92.200076
 30
0.0
 11
616.989975
 21
93.175981
 31
0.0
  0
LINE
  5
232
100
AcDbEntity
  8
LAY-1
  6
CONTINUOUS
 62
     2
100
AcDbLine
 10
612.43187
 20
91.200077
 30
0.0
 11
618.360214
 21
91.200077
 31
0.0
  0
LINE
  5
233
100
AcDbEntity
  8
LAY-1
  6
CONTINUOUS
 62
     2
100
AcDbLine
 10
612.890549
 20
89.940083
 30
0.0
 11
618.360214
 21
89.940083
 31
0.0
  0
LINE
  5
234
100
AcDbEntity
  8
LAY-1
  6
CONTINUOUS
 62
     2
100
AcDbLine
 10
593.647766
 20
85.182049
 30
0.0
 11
606.768189
 21
85.182049
 31
0.0
  0
LINE
  5
235
100
AcDbEntity
  8
LAY-1
  6
CONTINUOUS
 62
     2
100
AcDbLine
 10
593.647766
 20
83.921978
 30
0.0
 11
606.768189
 21
83.921978
 31
0.0
  0
LINE
  5
236
100
AcDbEntity
  8
LAY-1
  6
CONTINUOUS
 62
     2
100
AcDbLine
 10
598.395462
 20
82.921979
 30
0.0
 11
598.395462
 21
77.895577
 31
0.0
  0
LINE
  5
237
100
AcDbEntity
  8
LAY-1
  6
CONTINUOUS
 62
     2
100
AcDbLine
 10
599.654617
 20
82.921979
 30
0.0
 11
599.654617
 21
78.163216
 31
0.0
  0
LINE
  5
238
100
AcDbEntity
  8
LAY-1
  6
CONTINUOUS
 62
     2
100
AcDbLine
 10
600.913773
 20
82.921979
 30
0.0
 11
600.913773
 21
78.43086
 31
0.0
  0
LINE
  5
239
100
AcDbEntity
  8
LAY-1
  6
CONTINUOUS
 62
     2
100
AcDbLine
 10
602.173004
 20
82.921979
 30
0.0
 11
602.173004
 21
78.698513
 31
0.0
  0
LINE
  5
23A
100
AcDbEntity
  8
LAY-1
  6
CONTINUOUS
 62
     2
100
AcDbLine
 10
593.373642
 20
75.828158
 30
0.0
 11
607.042236
 21
78.733499
 31
0.0
  0
LINE
  5
23B
100
AcDbEntity
  8
LAY-1
  6
CONTINUOUS
 62
     2
100
AcDbLine
 10
593.373642
 20
74.440014
 30
0.0
 11
607.042236
 21
77.345426
 31
0.0
  0
LINE
  5
23C
100
AcDbEntity
  8
LAY-1
  6
CONTINUOUS
 62
     2
100
AcDbLine
 10
593.373642
 20
73.251864
 30
0.0
 11
607.042236
 21
76.157205
 31
0.0
  0
LINE
  5
23D
100
AcDbEntity
  8
LAY-1
  6
CONTINUOUS
 62
     2
100
AcDbLine
 10
621.316528
 20
89.162971
 30
0.0
 11
634.25766
 21
93.492701
 31
0.0
  0
LINE
  5
23E
100
AcDbEntity
  8
LAY-1
  6
CONTINUOUS
 62
     2
100
AcDbLine
 10
621.316528
 20
87.834312
 30
0.0
 11
634.25766
 21
92.164118
 31
0.0
  0
LINE
  5
23F
100
AcDbEntity
  8
LAY-1
  6
CONTINUOUS
 62
     2
100
AcDbLine
 10
635.205994
 20
93.492696
 30
0.0
 11
648.147202
 21
89.162652
 31
0.0
  0
LINE
  5
240
100
AcDbEntity
  8
LAY-1
  6
CONTINUOUS
 62
     2
100
AcDbLine
 10
635.205994
 20
92.264115
 30
0.0
 11
648.147202
 21
87.934072
 31
0.0
  0
LINE
  5
241
100
AcDbEntity
  8
LAY-1
  6
CONTINUOUS
 62
     2
100
AcDbLine
 10
643.812485
 20
87.798054
 30
0.0
 11
625.652237
 21
87.798054
 31
0.0
  0
LINE
  5
242
100
AcDbEntity
  8
LAY-1
  6
CONTINUOUS
 62
     2
100
AcDbLine
 10
643.812485
 20
86.437981
 30
0.0
 11
625.652237
 21
86.437981
 31
0.0
  0
LINE
  5
243
100
AcDbEntity
  8
LAY-1
  6
CONTINUOUS
 62
     2
100
AcDbLine
 10
621.368179
 20
82.53196
 30
0.0
 11
648.095551
 21
82.53196
 31
0.0
  0
LINE
  5
244
100
AcDbEntity
  8
LAY-1
  6
CONTINUOUS
 62
     2
100
AcDbLine
 10
621.368179
 20
81.372044
 30
0.0
 11
648.095551
 21
81.372044
 31
0.0
  0
LINE
  5
245
100
AcDbEntity
  8
LAY-1
  6
CONTINUOUS
 62
     2
100
AcDbLine
 10
625.506668
 20
80.465767
 30
0.0
 11
622.955627
 21
74.99623
 31
0.0
  0
LINE
  5
246
100
AcDbEntity
  8
LAY-1
  6
CONTINUOUS
 62
     2
100
AcDbLine
 10
627.097168
 20
80.465772
 30
0.0
 11
624.546051
 21
74.99623
 31
0.0
  0
LINE
  5
247
100
AcDbEntity
  8
LAY-1
  6
CONTINUOUS
 62
     2
100
AcDbLine
 10
628.687668
 20
80.465772
 30
0.0
 11
626.136551
 21
74.99623
 31
0.0
  0
LINE
  5
248
100
AcDbEntity
  8
LAY-1
  6
CONTINUOUS
 62
     2
100
AcDbLine
 10
640.777054
 20
80.465834
 30
0.0
 11
643.329163
 21
74.996168
 31
0.0
  0
LINE
  5
249
100
AcDbEntity
  8
LAY-1
  6
CONTINUOUS
 62
     2
100
AcDbLine
 10
642.368546
 20
80.46571
 30
0.0
 11
644.918518
 21
74.996292
 31
0.0
  0
LINE
  5
24A
100
AcDbEntity
  8
LAY-1
  6
CONTINUOUS
 62
     2
100
AcDbLine
 10
643.959961
 20
80.465657
 30
0.0
 11
646.509094
 21
74.996345
 31
0.0
  0
LINE
  5
24B
100
AcDbEntity
  8
LAY-1
  6
CONTINUOUS
 62
     2
100
AcDbLine
 10
622.342682
 20
74.089958
 30
0.0
 11
647.121048
 21
74.089958
 31
0.0
  0
LINE
  5
24C
100
AcDbEntity
  8
LAY-1
  6
CONTINUOUS
 62
     2
100
AcDbLine
 10
621.755142
 20
72.829964
 30
0.0
 11
647.708588
 21
72.829964
 31
0.0
  0
LINE
  5
24D
100
AcDbEntity
  8
LAY-1
  6
CONTINUOUS
 62
     2
100
AcDbLine
 10
655.698929
 20
92.200076
 30
0.0
 11
655.698929
 21
93.175981
 31
0.0
  0
LINE
  5
24E
100
AcDbEntity
  8
LAY-1
  6
CONTINUOUS
 62
     2
100
AcDbLine
 10
657.158127
 20
92.200076
 30
0.0
 11
657.158127
 21
93.175981
 31
0.0
  0
LINE
  5
24F
100
AcDbEntity
  8
LAY-1
  6
CONTINUOUS
 62
     2
100
AcDbLine
 10
658.617401
 20
92.200076
 30
0.0
 11
658.617401
 21
93.175981
 31
0.0
  0
LINE
  5
250
100
AcDbEntity
  8
LAY-1
  6
CONTINUOUS
 62
     2
100
AcDbLine
 10
651.103439
 20
91.200077
 30
0.0
 11
662.543945
 21
91.200077
 31
0.0
  0
LINE
  5
251
100
AcDbEntity
  8
LAY-1
  6
CONTINUOUS
 62
     2
100
AcDbLine
 10
651.103439
 20
89.940083
 30
0.0
 11
661.661911
 21
89.940083
 31
0.0
  0
LINE
  5
252
100
AcDbEntity
  8
LAY-1
  6
CONTINUOUS
 62
     2
100
AcDbLine
 10
657.689591
 20
89.120838
 30
0.0
 11
650.67688
 21
79.102361
 31
0.0
  0
LINE
  5
253
100
AcDbEntity
  8
LAY-1
  6
CONTINUOUS
 62
     2
100
AcDbLine
 10
659.328308
 20
89.1209
 30
0.0
 11
650.676956
 21
76.764257
 31
0.0
  0
LINE
  5
254
100
AcDbEntity
  8
LAY-1
  6
CONTINUOUS
 62
     2
100
AcDbLine
 10
660.868988
 20
89.120886
 30
0.0
 11
650.676956
 21
74.562866
 31
0.0
  0
LINE
  5
255
100
AcDbEntity
  8
LAY-1
  6
CONTINUOUS
 62
     2
100
AcDbLine
 10
658.464966
 20
83.943455
 30
0.0
 11
662.893372
 21
80.84232
 31
0.0
  0
LINE
  5
256
100
AcDbEntity
  8
LAY-1
  6
CONTINUOUS
 62
     2
100
AcDbLine
 10
657.742233
 20
82.910997
 30
0.0
 11
662.893295
 21
79.303996
 31
0.0
  0
LINE
  5
257
100
AcDbEntity
  8
LAY-1
  6
CONTINUOUS
 62
     2
100
AcDbLine
 10
656.972504
 20
81.811564
 30
0.0
 11
662.893295
 21
77.665751
 31
0.0
  0
LINE
  5
258
100
AcDbEntity
  8
LAY-1
  6
CONTINUOUS
 62
     2
100
AcDbLine
 10
655.698929
 20
80.736114
 30
0.0
 11
655.698929
 21
72.999999
 31
0.0
  0
LINE
  5
259
100
AcDbEntity
  8
LAY-1
  6
CONTINUOUS
 62
     2
100
AcDbLine
 10
657.158127
 20
80.681579
 30
0.0
 11
657.158127
 21
72.999999
 31
0.0
  0
LINE
  5
25A
100
AcDbEntity
  8
LAY-1
  6
CONTINUOUS
 62
     2
100
AcDbLine
 10
658.617401
 20
79.659783
 30
0.0
 11
658.617401
 21
72.999999
 31
0.0
  0
LINE
  5
25B
100
AcDbEntity
  8
LAY-1
  6
CONTINUOUS
 62
     2
100
AcDbLine
 10
669.30687
 20
75.089957
 30
0.0
 11
669.30687
 21
93.175981
 31
0.0
  0
LINE
  5
25C
100
AcDbEntity
  8
LAY-1
  6
CONTINUOUS
 62
     2
100
AcDbLine
 10
670.766068
 20
75.089957
 30
0.0
 11
670.766068
 21
93.175981
 31
0.0
  0
LINE
  5
25D
100
AcDbEntity
  8
LAY-1
  6
CONTINUOUS
 62
     2
100
AcDbLine
 10
672.225342
 20
75.089957
 30
0.0
 11
672.225342
 21
93.175981
 31
0.0
  0
LINE
  5
25E
100
AcDbEntity
  8
LAY-1
  6
CONTINUOUS
 62
     2
100
AcDbLine
 10
664.712448
 20
87.672016
 30
0.0
 11
668.306885
 21
87.672016
 31
0.0
  0
LINE
  5
25F
100
AcDbEntity
  8
LAY-1
  6
CONTINUOUS
 62
     2
100
AcDbLine
 10
664.712448
 20
86.412098
 30
0.0
 11
668.306885
 21
86.412098
 31
0.0
  0
LINE
  5
260
100
AcDbEntity
  8
LAY-1
  6
CONTINUOUS
 62
     2
100
AcDbLine
 10
673.225327
 20
87.672016
 30
0.0
 11
676.823883
 21
87.672016
 31
0.0
  0
LINE
  5
261
100
AcDbEntity
  8
LAY-1
  6
CONTINUOUS
 62
     2
100
AcDbLine
 10
673.225327
 20
86.312096
 30
0.0
 11
676.823883
 21
86.312096
 31
0.0
  0
LINE
  5
262
100
AcDbEntity
  8
LAY-1
  6
CONTINUOUS
 62
     2
100
AcDbLine
 10
662.695465
 20
74.089958
 30
0.0
 11
677.328339
 21
74.089958
 31
0.0
  0
LINE
  5
263
100
AcDbEntity
  8
LAY-1
  6
CONTINUOUS
 62
     2
100
AcDbLine
 10
662.695465
 20
72.829964
 30
0.0
 11
677.328339
 21
72.829964
 31
0.0
  0
LINE
  5
264
100
AcDbEntity
  8
LAY-1
  6
CONTINUOUS
 62
     2
100
AcDbLine
 10
548.737793
 20
81.676819
 30
0.0
 11
559.392014
 21
81.676819
 31
0.0
  0
LINE
  5
265
100
AcDbEntity
  8
LAY-1
  6
EXLTYPE2
 62
     6
100
AcDbLine
 10
-0.5
 20
757.5
 30
0.0
 11
89.5
 21
757.5
 31
0.0
  0
CIRCLE
  5
266
100
AcDbEntity
  8
LAY-1
  6
CONTINUOUS
 62
     6
100
AcDbCircle
 10
114.5
 20
70.0
 30
0.0
 40
0.5
  0
CIRCLE
  5
267
100
AcDbEntity
  8
LAY-1
  6
CONTINUOUS
 62
     6
100
AcDbCircle
 10
139.5
 20
70.0
 30
0.0
 40
0.5
  0
TEXT
  5
268
100
AcDbEntity
  8
LAY-1
  6
CONTINUOUS
 62
     7
100
AcDbText
 10
758.250001
 20
65.75
 30
0.0
 40
35.0
  1
９５１７００
 41
0.81
  7
EXCADSTD
 72
     5
 11
960.749999
 21
65.75
 31
0.0
100
AcDbText
  0
TEXT
  5
269
100
AcDbEntity
  8
LAY-1
  6
CONTINUOUS
 62
     6
100
AcDbText
 10
316.75
 20
100.0
 30
0.0
 40
25.0
  1
又場
 41
0.8568
  7
EXCADSTD
 72
     5
 11
363.4966
 21
100.0
 31
0.0
100
AcDbText
  0
TEXT
  5
26A
100
AcDbEntity
  8
LAY-1
  6
CONTINUOUS
 62
     6
100
AcDbText
 10
102.75
 20
100.0
 30
0.0
 40
25.0
  1
風穴
 41
0.8568
  7
EXCADSTD
 72
     5
 11
149.4966
 21
100.0
 31
0.0
100
AcDbText
  0
TEXT
  5
26B
100
AcDbEntity
  8
LAY-1
  6
CONTINUOUS
 62
     6
100
AcDbText
 10
90.522058
 20
63.475037
 30
0.0
 40
12.5
  1
１７
 41
0.75768
  7
EXCADSTD
 72
     5
 11
111.191388
 21
63.475037
 31
0.0
100
AcDbText
  0
TEXT
  5
26C
100
AcDbEntity
  8
LAY-1
  6
CONTINUOUS
 62
     6
100
AcDbText
 10
120.159558
 20
63.475037
 30
0.0
 40
12.5
  1
９
 41
0.89208
  7
EXCADSTD
 72
     5
 11
130.779558
 21
63.475037
 31
0.0
100
AcDbText
  0
TEXT
  5
26D
100
AcDbEntity
  8
LAY-1
  6
CONTINUOUS
 62
     6
100
AcDbText
 10
146.659558
 20
63.475037
 30
0.0
 40
12.5
  1
７
 41
0.89208
  7
EXCADSTD
 72
     5
 11
157.279558
 21
63.475037
 31
0.0
100
AcDbText
  0
TEXT
  5
26E
100
AcDbEntity
  8
LAY-1
  6
CONTINUOUS
 62
     2
100
AcDbText
 10
449.625
 20
121.875
 30
0.0
 40
31.25
  1
棚付二連紙巻器
 41
0.74784
  7
EXCADSTD
 72
     5
 11
644.375
 21
121.875
 31
0.0
100
AcDbText
  0
TEXT
  5
26F
100
AcDbEntity
  8
LAY-1
  6
CONTINUOUS
 62
     2
100
AcDbText
 10
747.0
 20
121.875
 30
0.0
 40
31.25
  1
ＡＵ４２Ａ
 41
0.69888
  7
EXCADSTD
 72
     5
 11
877.0
 21
121.875
 31
0.0
100
AcDbText
  0
TEXT
  5
270
100
AcDbEntity
  8
LAY-1
  6
CONTINUOUS
 62
     2
100
AcDbText
 10
945.846296
 20
142.45
 30
0.0
 40
20.0
  1
１
 41
1.05
  7
EXCADSTD
 72
     5
 11
965.846296
 21
142.45
 31
0.0
100
AcDbText
  0
LINE
  5
271
100
AcDbEntity
  8
LAY-1
  6
CONTINUOUS
 62
     6
100
AcDbLine
 10
994.0
 20
156.5625
 30
0.0
 11
950.0
 21
119.4375
 31
0.0
  0
TEXT
  5
272
100
AcDbEntity
  8
LAY-1
  6
CONTINUOUS
 62
     2
100
AcDbText
 10
968.896296
 20
111.85
 30
0.0
 40
20.0
  1
５
 41
0.84
  7
EXCADSTD
 72
     5
 11
984.896296
 21
111.85
 31
0.0
100
AcDbText
  0
TEXT
  5
273
100
AcDbEntity
  8
LAY-1
  6
CONTINUOUS
 62
     2
100
AcDbText
 10
721.0
 20
185.0
 30
0.0
 40
25.0
  1
※カラーハシルクウッド
 41
0.748364
  7
EXCADSTD
 72
     5
 11
965.999999
 21
185.0
 31
0.0
100
AcDbText
  0
LINE
  5
274
100
AcDbEntity
  8
LAY-2
  6
EXLTYPE3
 62
     6
100
AcDbLine
 10
360.0
 20
1113.74951
 30
0.0
 11
360.0
 21
985.57047
 31
0.0
  0
LINE
  5
275
100
AcDbEntity
  8
LAY-2
  6
EXLTYPE4
 62
     6
100
AcDbLine
 10
197.5
 20
1105.638096
 30
0.0
 11
143.578558
 21
1105.638096
 31
0.0
  0
LINE
  5
276
100
AcDbEntity
  8
LAY-2
  6
EXLTYPE4
 62
     6
100
AcDbLine
 10
522.5
 20
1105.638096
 30
0.0
 11
620.299699
 21
1105.638096
 31
0.0
  0
LINE
  5
277
100
AcDbEntity
  8
LAY-2
  6
CONTINUOUS
 62
     6
100
AcDbLine
 10
260.0
 20
1102.437022
 30
0.0
 11
260.0
 21
1135.580163
 31
0.0
  0
LINE
  5
278
100
AcDbEntity
  8
LAY-2
  6
CONTINUOUS
 62
     6
100
AcDbLine
 10
258.0
 20
1105.638096
 30
0.0
 11
258.0
 21
1127.938096
 31
0.0
  0
LINE
  5
279
100
AcDbEntity
  8
LAY-2
  6
CONTINUOUS
 62
     6
100
AcDbLine
 10
258.0
 20
1127.938096
 30
0.0
 11
260.0
 21
1131.638096
 31
0.0
  0
LINE
  5
27A
100
AcDbEntity
  8
LAY-2
  6
CONTINUOUS
 62
     6
100
AcDbLine
 10
262.0
 20
1105.638096
 30
0.0
 11
262.0
 21
1127.938096
 31
0.0
  0
LINE
  5
27B
100
AcDbEntity
  8
LAY-2
  6
CONTINUOUS
 62
     6
100
AcDbLine
 10
262.0
 20
1127.938096
 30
0.0
 11
260.0
 21
1131.638096
 31
0.0
  0
LINE
  5
27C
100
AcDbEntity
  8
LAY-2
  6
CONTINUOUS
 62
     6
100
AcDbLine
 10
460.0
 20
1102.437022
 30
0.0
 11
460.0
 21
1135.580163
 31
0.0
  0
LINE
  5
27D
100
AcDbEntity
  8
LAY-2
  6
CONTINUOUS
 62
     6
100
AcDbLine
 10
458.0
 20
1105.638096
 30
0.0
 11
458.0
 21
1127.938096
 31
0.0
  0
LINE
  5
27E
100
AcDbEntity
  8
LAY-2
  6
CONTINUOUS
 62
     6
100
AcDbLine
 10
458.0
 20
1127.938096
 30
0.0
 11
460.0
 21
1131.638096
 31
0.0
  0
LINE
  5
27F
100
AcDbEntity
  8
LAY-2
  6
CONTINUOUS
 62
     6
100
AcDbLine
 10
462.0
 20
1105.638096
 30
0.0
 11
462.0
 21
1127.938096
 31
0.0
  0
LINE
  5
280
100
AcDbEntity
  8
LAY-2
  6
CONTINUOUS
 62
     6
100
AcDbLine
 10
462.0
 20
1127.938096
 30
0.0
 11
460.0
 21
1131.638096
 31
0.0
  0
LINE
  5
281
100
AcDbEntity
  8
LAY-2
  6
EXLTYPE4
 62
     6
100
AcDbLine
 10
223.0
 20
981.638096
 30
0.0
 11
337.0
 21
981.638096
 31
0.0
  0
LINE
  5
282
100
AcDbEntity
  8
LAY-2
  6
EXLTYPE1
 62
     6
100
AcDbLine
 10
223.0
 20
981.638096
 30
0.0
 11
223.0
 21
991.638096
 31
0.0
  0
LINE
  5
283
100
AcDbEntity
  8
LAY-2
  6
EXLTYPE1
 62
     6
100
AcDbLine
 10
337.0
 20
981.638096
 30
0.0
 11
337.0
 21
991.638096
 31
0.0
  0
LINE
  5
284
100
AcDbEntity
  8
LAY-2
  6
EXLTYPE1
 62
     6
100
AcDbLine
 10
383.0
 20
981.638096
 30
0.0
 11
383.0
 21
991.638096
 31
0.0
  0
LINE
  5
285
100
AcDbEntity
  8
LAY-2
  6
EXLTYPE4
 62
     6
100
AcDbLine
 10
497.0
 20
981.638096
 30
0.0
 11
383.0
 21
981.638096
 31
0.0
  0
LINE
  5
286
100
AcDbEntity
  8
LAY-2
  6
EXLTYPE1
 62
     6
100
AcDbLine
 10
497.0
 20
981.638096
 30
0.0
 11
497.0
 21
991.638096
 31
0.0
  0
LINE
  5
287
100
AcDbEntity
  8
LAY-2
  6
CONTINUOUS
 62
     2
100
AcDbLine
 10
378.25
 20
993.410425
 30
0.0
 11
501.75
 21
993.410425
 31
0.0
  0
LINE
  5
288
100
AcDbEntity
  8
LAY-2
  6
CONTINUOUS
 62
     2
100
AcDbLine
 10
197.5
 20
995.638096
 30
0.0
 11
522.5
 21
995.638096
 31
0.0
  0
ARC
  5
289
100
AcDbEntity
  8
LAY-2
  6
CONTINUOUS
 62
     2
100
AcDbCircle
 10
197.5
 20
997.138096
 30
0.0
 40
1.5
100
AcDbArc
 50
180.0
 51
270.0
  0
LINE
  5
28A
100
AcDbEntity
  8
LAY-2
  6
CONTINUOUS
 62
     2
100
AcDbLine
 10
377.25
 20
995.638096
 30
0.0
 11
377.25
 21
994.410425
 31
0.0
  0
ARC
  5
28B
100
AcDbEntity
  8
LAY-2
  6
CONTINUOUS
 62
     2
100
AcDbCircle
 10
378.25
 20
994.410425
 30
0.0
 40
1.0
100
AcDbArc
 50
180.0
 51
270.0
  0
LINE
  5
28C
100
AcDbEntity
  8
LAY-2
  6
CONTINUOUS
 62
     2
100
AcDbLine
 10
379.7
 20
993.410425
 30
0.0
 11
379.7
 21
992.338096
 31
0.0
  0
ARC
  5
28D
100
AcDbEntity
  8
LAY-2
  6
CONTINUOUS
 62
     2
100
AcDbCircle
 10
380.4
 20
992.338096
 30
0.0
 40
0.7
100
AcDbArc
 50
180.0
 51
270.0
  0
ARC
  5
28E
100
AcDbEntity
  8
LAY-2
  6
CONTINUOUS
 62
     2
100
AcDbCircle
 10
499.6
 20
992.338096
 30
0.0
 40
0.7
100
AcDbArc
 50
270.0
 51
0.0
  0
LINE
  5
28F
100
AcDbEntity
  8
LAY-2
  6
CONTINUOUS
 62
     2
100
AcDbLine
 10
500.3
 20
993.410425
 30
0.0
 11
500.3
 21
992.338096
 31
0.0
  0
LINE
  5
290
100
AcDbEntity
  8
LAY-2
  6
CONTINUOUS
 62
     2
100
AcDbLine
 10
502.75
 20
994.410425
 30
0.0
 11
502.75
 21
995.638096
 31
0.0
  0
ARC
  5
291
100
AcDbEntity
  8
LAY-2
  6
CONTINUOUS
 62
     2
100
AcDbCircle
 10
501.75
 20
994.410425
 30
0.0
 40
1.0
100
AcDbArc
 50
270.0
 51
0.0
  0
ARC
  5
292
100
AcDbEntity
  8
LAY-2
  6
CONTINUOUS
 62
     2
100
AcDbCircle
 10
522.5
 20
997.138096
 30
0.0
 40
1.5
100
AcDbArc
 50
270.0
 51
0.0
  0
LINE
  5
293
100
AcDbEntity
  8
LAY-2
  6
CONTINUOUS
 62
     2
100
AcDbLine
 10
591.823047
 20
1091.781681
 30
0.0
 11
607.823047
 21
1091.781681
 31
0.0
  0
LINE
  5
294
100
AcDbEntity
  8
LAY-2
  6
CONTINUOUS
 62
     2
100
AcDbLine
 10
599.823047
 20
1105.638088
 30
0.0
 11
591.823047
 21
1091.781681
 31
0.0
  0
LINE
  5
295
100
AcDbEntity
  8
LAY-2
  6
CONTINUOUS
 62
     2
100
AcDbLine
 10
607.823047
 20
1091.781681
 30
0.0
 11
599.823047
 21
1105.638088
 31
0.0
  0
LINE
  5
296
100
AcDbEntity
  8
LAY-2
  6
CONTINUOUS
 62
     2
100
AcDbLine
 10
380.4
 20
991.638096
 30
0.0
 11
499.4
 21
991.638096
 31
0.0
  0
LINE
  5
297
100
AcDbEntity
  8
LAY-2
  6
CONTINUOUS
 62
     2
100
AcDbLine
 10
339.6
 20
991.638096
 30
0.0
 11
220.6
 21
991.638096
 31
0.0
  0
LINE
  5
298
100
AcDbEntity
  8
LAY-2
  6
CONTINUOUS
 62
     2
100
AcDbLine
 10
341.75
 20
993.410425
 30
0.0
 11
218.25
 21
993.410425
 31
0.0
  0
LINE
  5
299
100
AcDbEntity
  8
LAY-2
  6
CONTINUOUS
 62
     2
100
AcDbLine
 10
342.75
 20
995.638096
 30
0.0
 11
342.75
 21
994.410425
 31
0.0
  0
ARC
  5
29A
100
AcDbEntity
  8
LAY-2
  6
CONTINUOUS
 62
     2
100
AcDbCircle
 10
341.75
 20
994.410425
 30
0.0
 40
1.0
100
AcDbArc
 50
270.0
 51
0.0
  0
LINE
  5
29B
100
AcDbEntity
  8
LAY-2
  6
CONTINUOUS
 62
     2
100
AcDbLine
 10
340.3
 20
993.410425
 30
0.0
 11
340.3
 21
992.338096
 31
0.0
  0
ARC
  5
29C
100
AcDbEntity
  8
LAY-2
  6
CONTINUOUS
 62
     2
100
AcDbCircle
 10
339.6
 20
992.338096
 30
0.0
 40
0.7
100
AcDbArc
 50
270.0
 51
0.0
  0
ARC
  5
29D
100
AcDbEntity
  8
LAY-2
  6
CONTINUOUS
 62
     2
100
AcDbCircle
 10
220.4
 20
992.338096
 30
0.0
 40
0.7
100
AcDbArc
 50
180.0
 51
270.0
  0
LINE
  5
29E
100
AcDbEntity
  8
LAY-2
  6
CONTINUOUS
 62
     2
100
AcDbLine
 10
219.7
 20
993.410425
 30
0.0
 11
219.7
 21
992.338096
 31
0.0
  0
LINE
  5
29F
100
AcDbEntity
  8
LAY-2
  6
CONTINUOUS
 62
     2
100
AcDbLine
 10
217.25
 20
994.410425
 30
0.0
 11
217.25
 21
995.638096
 31
0.0
  0
ARC
  5
2A0
100
AcDbEntity
  8
LAY-2
  6
CONTINUOUS
 62
     2
100
AcDbCircle
 10
218.25
 20
994.410425
 30
0.0
 40
1.0
100
AcDbArc
 50
180.0
 51
270.0
  0
LINE
  5
2A1
100
AcDbEntity
  8
LAY-2
  6
EXLTYPE3
 62
     6
100
AcDbLine
 10
360.0
 20
541.432885
 30
0.0
 11
360.0
 21
710.007656
 31
0.0
  0
LINE
  5
2A2
100
AcDbEntity
  8
LAY-2
  6
EXLTYPE4
 62
     6
100
AcDbLine
 10
223.0
 20
623.425759
 30
0.0
 11
223.0
 21
518.425759
 31
0.0
  0
LINE
  5
2A3
100
AcDbEntity
  8
LAY-2
  6
EXLTYPE4
 62
     6
100
AcDbLine
 10
223.0
 20
518.425759
 30
0.0
 11
337.0
 21
518.425759
 31
0.0
  0
LINE
  5
2A4
100
AcDbEntity
  8
LAY-2
  6
EXLTYPE4
 62
     6
100
AcDbLine
 10
337.0
 20
623.425759
 30
0.0
 11
337.0
 21
518.425759
 31
0.0
  0
LINE
  5
2A5
100
AcDbEntity
  8
LAY-2
  6
EXLTYPE4
 62
     6
100
AcDbLine
 10
223.0
 20
623.425759
 30
0.0
 11
337.0
 21
623.425759
 31
0.0
  0
LINE
  5
2A6
100
AcDbEntity
  8
LAY-2
  6
EXLTYPE3
 62
     6
100
AcDbLine
 10
260.0
 20
651.2
 30
0.0
 11
260.0
 21
662.2
 31
0.0
  0
ARC
  5
2A7
100
AcDbEntity
  8
LAY-2
  6
CONTINUOUS
 62
     6
100
AcDbCircle
 10
260.0
 20
656.7
 30
0.0
 40
2.5
100
AcDbArc
 50
0.0
 51
180.0
  0
LINE
  5
2A8
100
AcDbEntity
  8
LAY-2
  6
EXLTYPE3
 62
     6
100
AcDbLine
 10
254.5
 20
656.7
 30
0.0
 11
265.5
 21
656.7
 31
0.0
  0
ARC
  5
2A9
100
AcDbEntity
  8
LAY-2
  6
CONTINUOUS
 62
     6
100
AcDbCircle
 10
260.0
 20
656.7
 30
0.0
 40
2.5
100
AcDbArc
 50
180.0
 51
0.0
  0
ARC
  5
2AA
100
AcDbEntity
  8
LAY-2
  6
CONTINUOUS
 62
     6
100
AcDbCircle
 10
260.0
 20
629.0
 30
0.0
 40
2.5
100
AcDbArc
 50
180.0
 51
0.0
  0
LINE
  5
2AB
100
AcDbEntity
  8
LAY-2
  6
EXLTYPE3
 62
     6
100
AcDbLine
 10
254.5
 20
629.0
 30
0.0
 11
265.5
 21
629.0
 31
0.0
  0
ARC
  5
2AC
100
AcDbEntity
  8
LAY-2
  6
CONTINUOUS
 62
     6
100
AcDbCircle
 10
260.0
 20
629.0
 30
0.0
 40
2.5
100
AcDbArc
 50
0.0
 51
180.0
  0
LINE
  5
2AD
100
AcDbEntity
  8
LAY-2
  6
EXLTYPE3
 62
     6
100
AcDbLine
 10
260.0
 20
623.5
 30
0.0
 11
260.0
 21
634.5
 31
0.0
  0
LINE
  5
2AE
100
AcDbEntity
  8
LAY-2
  6
EXLTYPE4
 62
     6
100
AcDbLine
 10
383.0
 20
623.425759
 30
0.0
 11
383.0
 21
518.425759
 31
0.0
  0
LINE
  5
2AF
100
AcDbEntity
  8
LAY-2
  6
EXLTYPE4
 62
     6
100
AcDbLine
 10
497.0
 20
518.425759
 30
0.0
 11
383.0
 21
518.425759
 31
0.0
  0
LINE
  5
2B0
100
AcDbEntity
  8
LAY-2
  6
EXLTYPE4
 62
     6
100
AcDbLine
 10
497.0
 20
623.425759
 30
0.0
 11
497.0
 21
518.425759
 31
0.0
  0
LINE
  5
2B1
100
AcDbEntity
  8
LAY-2
  6
EXLTYPE4
 62
     6
100
AcDbLine
 10
497.0
 20
623.425759
 30
0.0
 11
383.0
 21
623.425759
 31
0.0
  0
LINE
  5
2B2
100
AcDbEntity
  8
LAY-2
  6
EXLTYPE1
 62
     6
100
AcDbLine
 10
470.0
 20
626.5
 30
0.0
 11
450.0
 21
626.5
 31
0.0
  0
LINE
  5
2B3
100
AcDbEntity
  8
LAY-2
  6
EXLTYPE1
 62
     6
100
AcDbLine
 10
450.0
 20
631.5
 30
0.0
 11
470.0
 21
631.5
 31
0.0
  0
ARC
  5
2B4
100
AcDbEntity
  8
LAY-2
  6
EXLTYPE1
 62
     6
100
AcDbCircle
 10
450.0
 20
629.0
 30
0.0
 40
2.5
100
AcDbArc
 50
90.0
 51
270.0
  0
ARC
  5
2B5
100
AcDbEntity
  8
LAY-2
  6
EXLTYPE1
 62
     6
100
AcDbCircle
 10
470.0
 20
629.0
 30
0.0
 40
2.5
100
AcDbArc
 50
270.0
 51
90.0
  0
LINE
  5
2B6
100
AcDbEntity
  8
LAY-2
  6
EXLTYPE3
 62
     6
100
AcDbLine
 10
446.529435
 20
629.0
 30
0.0
 11
473.227625
 21
629.0
 31
0.0
  0
LINE
  5
2B7
100
AcDbEntity
  8
LAY-2
  6
EXLTYPE3
 62
     6
100
AcDbLine
 10
460.0
 20
623.5
 30
0.0
 11
460.0
 21
634.5
 31
0.0
  0
LINE
  5
2B8
100
AcDbEntity
  8
LAY-2
  6
EXLTYPE3
 62
     6
100
AcDbLine
 10
446.529435
 20
656.7
 30
0.0
 11
473.227625
 21
656.7
 31
0.0
  0
LINE
  5
2B9
100
AcDbEntity
  8
LAY-2
  6
EXLTYPE1
 62
     6
100
AcDbLine
 10
470.0
 20
654.2
 30
0.0
 11
450.0
 21
654.2
 31
0.0
  0
LINE
  5
2BA
100
AcDbEntity
  8
LAY-2
  6
EXLTYPE1
 62
     6
100
AcDbLine
 10
450.0
 20
659.2
 30
0.0
 11
470.0
 21
659.2
 31
0.0
  0
LINE
  5
2BB
100
AcDbEntity
  8
LAY-2
  6
EXLTYPE3
 62
     6
100
AcDbLine
 10
460.0
 20
651.2
 30
0.0
 11
460.0
 21
662.2
 31
0.0
  0
ARC
  5
2BC
100
AcDbEntity
  8
LAY-2
  6
EXLTYPE1
 62
     6
100
AcDbCircle
 10
470.0
 20
656.7
 30
0.0
 40
2.5
100
AcDbArc
 50
270.0
 51
90.0
  0
ARC
  5
2BD
100
AcDbEntity
  8
LAY-2
  6
EXLTYPE1
 62
     6
100
AcDbCircle
 10
450.0
 20
656.7
 30
0.0
 40
2.5
100
AcDbArc
 50
90.0
 51
270.0
  0
LINE
  5
2BE
100
AcDbEntity
  8
LAY-2
  6
CONTINUOUS
 62
     2
100
AcDbLine
 10
378.25
 20
611.513539
 30
0.0
 11
501.75
 21
611.513539
 31
0.0
  0
LINE
  5
2BF
100
AcDbEntity
  8
LAY-2
  6
CONTINUOUS
 62
     2
100
AcDbLine
 10
378.25
 20
614.190032
 30
0.0
 11
501.75
 21
614.190032
 31
0.0
  0
LINE
  5
2C0
100
AcDbEntity
  8
LAY-2
  6
CONTINUOUS
 62
     2
100
AcDbLine
 10
501.75
 20
651.747556
 30
0.0
 11
378.25
 21
651.747556
 31
0.0
  0
LINE
  5
2C1
100
AcDbEntity
  8
LAY-2
  6
CONTINUOUS
 62
     2
100
AcDbLine
 10
375.975321
 20
665.8
 30
0.0
 11
504.024679
 21
665.8
 31
0.0
  0
LINE
  5
2C2
100
AcDbEntity
  8
LAY-2
  6
CONTINUOUS
 62
     2
100
AcDbLine
 10
375.369077
 20
591.3
 30
0.0
 11
504.630923
 21
591.3
 31
0.0
  0
LINE
  5
2C3
100
AcDbEntity
  8
LAY-2
  6
CONTINUOUS
 62
     2
100
AcDbLine
 10
521.0
 20
695.0
 30
0.0
 11
199.0
 21
695.0
 31
0.0
  0
LINE
  5
2C4
100
AcDbEntity
  8
LAY-2
  6
CONTINUOUS
 62
     2
100
AcDbLine
 10
197.0
 20
674.0
 30
0.0
 11
523.0
 21
674.0
 31
0.0
  0
LINE
  5
2C5
100
AcDbEntity
  8
LAY-2
  6
CONTINUOUS
 62
     2
100
AcDbLine
 10
198.0
 20
674.0
 30
0.0
 11
522.0
 21
674.0
 31
0.0
  0
ARC
  5
2C6
100
AcDbEntity
  8
LAY-2
  6
CONTINUOUS
 62
     2
100
AcDbCircle
 10
199.0
 20
692.0
 30
0.0
 40
3.0
100
AcDbArc
 50
90.0
 51
180.0
  0
LINE
  5
2C7
100
AcDbEntity
  8
LAY-2
  6
CONTINUOUS
 62
     2
100
AcDbLine
 10
344.024679
 20
665.8
 30
0.0
 11
215.975321
 21
665.8
 31
0.0
  0
LINE
  5
2C8
100
AcDbEntity
  8
LAY-2
  6
CONTINUOUS
 62
     2
100
AcDbLine
 10
344.630923
 20
591.3
 30
0.0
 11
215.369077
 21
591.3
 31
0.0
  0
LINE
  5
2C9
100
AcDbEntity
  8
LAY-2
  6
CONTINUOUS
 62
     2
100
AcDbLine
 10
198.953708
 20
551.953273
 30
0.0
 11
198.0
 21
674.0
 31
0.0
  0
LINE
  5
2CA
100
AcDbEntity
  8
LAY-2
  6
CONTINUOUS
 62
     2
100
AcDbLine
 10
215.048871
 20
551.950644
 30
0.0
 11
215.975321
 21
665.8
 31
0.0
  0
LINE
  5
2CB
100
AcDbEntity
  8
LAY-2
  6
CONTINUOUS
 62
     2
100
AcDbLine
 10
215.332458
 20
586.8
 30
0.0
 11
243.0
 21
586.8
 31
0.0
  0
LINE
  5
2CC
100
AcDbEntity
  8
LAY-2
  6
CONTINUOUS
 62
     2
100
AcDbLine
 10
243.351581
 20
579.50564
 30
0.0
 11
215.174411
 21
574.831145
 31
0.0
  0
LINE
  5
2CD
100
AcDbEntity
  8
LAY-2
  6
CONTINUOUS
 62
     2
100
AcDbLine
 10
203.953489
 20
547.0
 30
0.0
 11
210.049115
 21
547.0
 31
0.0
  0
ARC
  5
2CE
100
AcDbEntity
  8
LAY-2
  6
CONTINUOUS
 62
     2
100
AcDbCircle
 10
203.953489
 20
552.0
 30
0.0
 40
5.0
100
AcDbArc
 50
180.535459
 51
270.0
  0
ARC
  5
2CF
100
AcDbEntity
  8
LAY-2
  6
CONTINUOUS
 62
     2
100
AcDbCircle
 10
210.049115
 20
552.0
 30
0.0
 40
5.0
100
AcDbArc
 50
270.0
 51
359.434413
  0
LINE
  5
2D0
100
AcDbEntity
  8
LAY-2
  6
CONTINUOUS
 62
     2
100
AcDbLine
 10
245.0
 20
584.8
 30
0.0
 11
245.0
 21
581.474495
 31
0.0
  0
ARC
  5
2D1
100
AcDbEntity
  8
LAY-2
  6
CONTINUOUS
 62
     2
100
AcDbCircle
 10
243.0
 20
584.8
 30
0.0
 40
2.0
100
AcDbArc
 50
0.0
 51
90.0
  0
ARC
  5
2D2
100
AcDbEntity
  8
LAY-2
  6
CONTINUOUS
 62
     2
100
AcDbCircle
 10
243.0
 20
581.474495
 30
0.0
 40
2.0
100
AcDbArc
 50
280.124672
 51
0.0
  0
LINE
  5
2D3
100
AcDbEntity
  8
LAY-2
  6
CONTINUOUS
 62
     2
100
AcDbLine
 10
196.0
 20
692.0
 30
0.0
 11
196.0
 21
675.0
 31
0.0
  0
ARC
  5
2D4
100
AcDbEntity
  8
LAY-2
  6
CONTINUOUS
 62
     2
100
AcDbCircle
 10
197.0
 20
675.0
 30
0.0
 40
1.0
100
AcDbArc
 50
180.0
 51
270.0
  0
LINE
  5
2D5
100
AcDbEntity
  8
LAY-2
  6
CONTINUOUS
 62
     2
100
AcDbLine
 10
375.048871
 20
551.950644
 30
0.0
 11
375.975321
 21
665.8
 31
0.0
  0
LINE
  5
2D6
100
AcDbEntity
  8
LAY-2
  6
CONTINUOUS
 62
     2
100
AcDbLine
 10
344.951129
 20
551.950644
 30
0.0
 11
344.024679
 21
665.8
 31
0.0
  0
LINE
  5
2D7
100
AcDbEntity
  8
LAY-2
  6
CONTINUOUS
 62
     2
100
AcDbLine
 10
360.0
 20
547.0
 30
0.0
 11
370.049115
 21
547.0
 31
0.0
  0
LINE
  5
2D8
100
AcDbEntity
  8
LAY-2
  6
CONTINUOUS
 62
     2
100
AcDbLine
 10
360.0
 20
547.0
 30
0.0
 11
370.05025
 21
547.0
 31
0.0
  0
LINE
  5
2D9
100
AcDbEntity
  8
LAY-2
  6
CONTINUOUS
 62
     2
100
AcDbLine
 10
360.0
 20
547.0
 30
0.0
 11
349.950885
 21
547.0
 31
0.0
  0
LINE
  5
2DA
100
AcDbEntity
  8
LAY-2
  6
CONTINUOUS
 62
     2
100
AcDbLine
 10
360.0
 20
547.0
 30
0.0
 11
349.94975
 21
547.0
 31
0.0
  0
ARC
  5
2DB
100
AcDbEntity
  8
LAY-2
  6
CONTINUOUS
 62
     2
100
AcDbCircle
 10
349.950885
 20
552.0
 30
0.0
 40
5.0
100
AcDbArc
 50
180.565587
 51
270.0
  0
LINE
  5
2DC
100
AcDbEntity
  8
LAY-2
  6
CONTINUOUS
 62
     2
100
AcDbLine
 10
344.667542
 20
586.8
 30
0.0
 11
317.0
 21
586.8
 31
0.0
  0
LINE
  5
2DD
100
AcDbEntity
  8
LAY-2
  6
CONTINUOUS
 62
     2
100
AcDbLine
 10
316.648419
 20
579.50564
 30
0.0
 11
344.825589
 21
574.831145
 31
0.0
  0
LINE
  5
2DE
100
AcDbEntity
  8
LAY-2
  6
CONTINUOUS
 62
     2
100
AcDbLine
 10
315.0
 20
584.8
 30
0.0
 11
315.0
 21
581.474495
 31
0.0
  0
ARC
  5
2DF
100
AcDbEntity
  8
LAY-2
  6
CONTINUOUS
 62
     2
100
AcDbCircle
 10
317.0
 20
584.8
 30
0.0
 40
2.0
100
AcDbArc
 50
90.0
 51
180.0
  0
ARC
  5
2E0
100
AcDbEntity
  8
LAY-2
  6
CONTINUOUS
 62
     2
100
AcDbCircle
 10
317.0
 20
581.474495
 30
0.0
 40
2.0
100
AcDbArc
 50
180.0
 51
259.875328
  0
ARC
  5
2E1
100
AcDbEntity
  8
LAY-2
  6
CONTINUOUS
 62
     2
100
AcDbCircle
 10
370.049115
 20
552.0
 30
0.0
 40
5.0
100
AcDbArc
 50
270.0
 51
359.434413
  0
LINE
  5
2E2
100
AcDbEntity
  8
LAY-2
  6
CONTINUOUS
 62
     2
100
AcDbLine
 10
375.332458
 20
586.8
 30
0.0
 11
403.0
 21
586.8
 31
0.0
  0
LINE
  5
2E3
100
AcDbEntity
  8
LAY-2
  6
CONTINUOUS
 62
     2
100
AcDbLine
 10
403.351581
 20
579.50564
 30
0.0
 11
375.174411
 21
574.831145
 31
0.0
  0
LINE
  5
2E4
100
AcDbEntity
  8
LAY-2
  6
CONTINUOUS
 62
     2
100
AcDbLine
 10
405.0
 20
584.8
 30
0.0
 11
405.0
 21
581.474495
 31
0.0
  0
ARC
  5
2E5
100
AcDbEntity
  8
LAY-2
  6
CONTINUOUS
 62
     2
100
AcDbCircle
 10
403.0
 20
584.8
 30
0.0
 40
2.0
100
AcDbArc
 50
0.0
 51
90.0
  0
ARC
  5
2E6
100
AcDbEntity
  8
LAY-2
  6
CONTINUOUS
 62
     2
100
AcDbCircle
 10
403.0
 20
581.474495
 30
0.0
 40
2.0
100
AcDbArc
 50
280.124672
 51
0.0
  0
LINE
  5
2E7
100
AcDbEntity
  8
LAY-2
  6
CONTINUOUS
 62
     2
100
AcDbLine
 10
377.25
 20
650.747556
 30
0.0
 11
377.25
 21
612.513539
 31
0.0
  0
ARC
  5
2E8
100
AcDbEntity
  8
LAY-2
  6
CONTINUOUS
 62
     2
100
AcDbCircle
 10
378.25
 20
612.513539
 30
0.0
 40
1.0
100
AcDbArc
 50
180.0
 51
270.0
  0
ARC
  5
2E9
100
AcDbEntity
  8
LAY-2
  6
CONTINUOUS
 62
     2
100
AcDbCircle
 10
378.25
 20
615.190032
 30
0.0
 40
1.0
100
AcDbArc
 50
180.0
 51
270.0
  0
ARC
  5
2EA
100
AcDbEntity
  8
LAY-2
  6
CONTINUOUS
 62
     2
100
AcDbCircle
 10
378.25
 20
650.747556
 30
0.0
 40
1.0
100
AcDbArc
 50
90.0
 51
180.0
  0
ARC
  5
2EB
100
AcDbEntity
  8
LAY-2
  6
CONTINUOUS
 62
     2
100
AcDbCircle
 10
521.0
 20
692.0
 30
0.0
 40
3.0
100
AcDbArc
 50
0.0
 51
90.0
  0
LINE
  5
2EC
100
AcDbEntity
  8
LAY-2
  6
CONTINUOUS
 62
     2
100
AcDbLine
 10
521.046292
 20
551.953273
 30
0.0
 11
522.0
 21
674.0
 31
0.0
  0
LINE
  5
2ED
100
AcDbEntity
  8
LAY-2
  6
CONTINUOUS
 62
     2
100
AcDbLine
 10
504.951129
 20
551.950644
 30
0.0
 11
504.024679
 21
665.8
 31
0.0
  0
LINE
  5
2EE
100
AcDbEntity
  8
LAY-2
  6
CONTINUOUS
 62
     2
100
AcDbLine
 10
504.667542
 20
586.8
 30
0.0
 11
477.0
 21
586.8
 31
0.0
  0
LINE
  5
2EF
100
AcDbEntity
  8
LAY-2
  6
CONTINUOUS
 62
     2
100
AcDbLine
 10
476.648419
 20
579.50564
 30
0.0
 11
504.825589
 21
574.831145
 31
0.0
  0
ARC
  5
2F0
100
AcDbEntity
  8
LAY-2
  6
CONTINUOUS
 62
     2
100
AcDbCircle
 10
477.0
 20
584.8
 30
0.0
 40
2.0
100
AcDbArc
 50
90.0
 51
180.0
  0
ARC
  5
2F1
100
AcDbEntity
  8
LAY-2
  6
CONTINUOUS
 62
     2
100
AcDbCircle
 10
477.0
 20
581.474495
 30
0.0
 40
2.0
100
AcDbArc
 50
180.0
 51
259.875328
  0
LINE
  5
2F2
100
AcDbEntity
  8
LAY-2
  6
CONTINUOUS
 62
     2
100
AcDbLine
 10
475.0
 20
584.8
 30
0.0
 11
475.0
 21
581.474495
 31
0.0
  0
ARC
  5
2F3
100
AcDbEntity
  8
LAY-2
  6
CONTINUOUS
 62
     2
100
AcDbCircle
 10
516.046511
 20
552.0
 30
0.0
 40
5.0
100
AcDbArc
 50
270.0
 51
359.464541
  0
ARC
  5
2F4
100
AcDbEntity
  8
LAY-2
  6
CONTINUOUS
 62
     2
100
AcDbCircle
 10
509.950885
 20
552.0
 30
0.0
 40
5.0
100
AcDbArc
 50
180.565587
 51
270.0
  0
LINE
  5
2F5
100
AcDbEntity
  8
LAY-2
  6
CONTINUOUS
 62
     2
100
AcDbLine
 10
516.046511
 20
547.0
 30
0.0
 11
509.950885
 21
547.0
 31
0.0
  0
LINE
  5
2F6
100
AcDbEntity
  8
LAY-2
  6
CONTINUOUS
 62
     2
100
AcDbLine
 10
502.75
 20
612.513539
 30
0.0
 11
502.75
 21
650.747556
 31
0.0
  0
ARC
  5
2F7
100
AcDbEntity
  8
LAY-2
  6
CONTINUOUS
 62
     2
100
AcDbCircle
 10
501.75
 20
612.513539
 30
0.0
 40
1.0
100
AcDbArc
 50
270.0
 51
0.0
  0
ARC
  5
2F8
100
AcDbEntity
  8
LAY-2
  6
CONTINUOUS
 62
     2
100
AcDbCircle
 10
501.75
 20
615.190032
 30
0.0
 40
1.0
100
AcDbArc
 50
270.0
 51
0.0
  0
ARC
  5
2F9
100
AcDbEntity
  8
LAY-2
  6
CONTINUOUS
 62
     2
100
AcDbCircle
 10
501.75
 20
650.747556
 30
0.0
 40
1.0
100
AcDbArc
 50
0.0
 51
90.0
  0
LINE
  5
2FA
100
AcDbEntity
  8
LAY-2
  6
CONTINUOUS
 62
     2
100
AcDbLine
 10
524.0
 20
675.0
 30
0.0
 11
524.0
 21
692.0
 31
0.0
  0
ARC
  5
2FB
100
AcDbEntity
  8
LAY-2
  6
CONTINUOUS
 62
     2
100
AcDbCircle
 10
523.0
 20
675.0
 30
0.0
 40
1.0
100
AcDbArc
 50
270.0
 51
0.0
  0
LINE
  5
2FC
100
AcDbEntity
  8
LAY-2
  6
CONTINUOUS
 62
     2
100
AcDbLine
 10
499.4
 20
608.309453
 30
0.0
 11
499.6
 21
608.309453
 31
0.0
  0
ARC
  5
2FD
100
AcDbEntity
  8
LAY-2
  6
CONTINUOUS
 62
     2
100
AcDbCircle
 10
499.6
 20
609.009453
 30
0.0
 40
0.7
100
AcDbArc
 50
270.0
 51
0.0
  0
ARC
  5
2FE
100
AcDbEntity
  8
LAY-2
  6
CONTINUOUS
 62
     2
100
AcDbCircle
 10
499.6
 20
607.850283
 30
0.0
 40
0.7
100
AcDbArc
 50
270.0
 51
0.0
  0
LINE
  5
2FF
100
AcDbEntity
  8
LAY-2
  6
CONTINUOUS
 62
     2
100
AcDbLine
 10
499.4
 20
607.150283
 30
0.0
 11
499.6
 21
607.150283
 31
0.0
  0
LINE
  5
300
100
AcDbEntity
  8
LAY-2
  6
CONTINUOUS
 62
     2
100
AcDbLine
 10
380.6
 20
608.309453
 30
0.0
 11
380.4
 21
608.309453
 31
0.0
  0
ARC
  5
301
100
AcDbEntity
  8
LAY-2
  6
CONTINUOUS
 62
     2
100
AcDbCircle
 10
380.4
 20
609.009453
 30
0.0
 40
0.7
100
AcDbArc
 50
180.0
 51
270.0
  0
LINE
  5
302
100
AcDbEntity
  8
LAY-2
  6
CONTINUOUS
 62
     2
100
AcDbLine
 10
380.6
 20
607.150283
 30
0.0
 11
380.4
 21
607.150283
 31
0.0
  0
ARC
  5
303
100
AcDbEntity
  8
LAY-2
  6
CONTINUOUS
 62
     2
100
AcDbCircle
 10
380.4
 20
607.850283
 30
0.0
 40
0.7
100
AcDbArc
 50
180.0
 51
270.0
  0
LINE
  5
304
100
AcDbEntity
  8
LAY-2
  6
CONTINUOUS
 62
     2
100
AcDbLine
 10
500.3
 20
611.513539
 30
0.0
 11
500.3
 21
607.850283
 31
0.0
  0
LINE
  5
305
100
AcDbEntity
  8
LAY-2
  6
CONTINUOUS
 62
     2
100
AcDbLine
 10
379.7
 20
611.513539
 30
0.0
 11
379.7
 21
607.850283
 31
0.0
  0
LINE
  5
306
100
AcDbEntity
  8
LAY-2
  6
CONTINUOUS
 62
     2
100
AcDbLine
 10
380.6
 20
608.309453
 30
0.0
 11
499.4
 21
608.309453
 31
0.0
  0
LINE
  5
307
100
AcDbEntity
  8
LAY-2
  6
CONTINUOUS
 62
     2
100
AcDbLine
 10
380.6
 20
607.150283
 30
0.0
 11
499.4
 21
607.150283
 31
0.0
  0
LINE
  5
308
100
AcDbEntity
  8
LAY-2
  6
CONTINUOUS
 62
     2
100
AcDbLine
 10
342.75
 20
650.747556
 30
0.0
 11
342.75
 21
612.513539
 31
0.0
  0
LINE
  5
309
100
AcDbEntity
  8
LAY-2
  6
CONTINUOUS
 62
     2
100
AcDbLine
 10
217.25
 20
612.513539
 30
0.0
 11
217.25
 21
650.747556
 31
0.0
  0
LINE
  5
30A
100
AcDbEntity
  8
LAY-2
  6
CONTINUOUS
 62
     2
100
AcDbLine
 10
341.75
 20
611.513539
 30
0.0
 11
218.25
 21
611.513539
 31
0.0
  0
LINE
  5
30B
100
AcDbEntity
  8
LAY-2
  6
CONTINUOUS
 62
     2
100
AcDbLine
 10
341.75
 20
614.190032
 30
0.0
 11
218.25
 21
614.190032
 31
0.0
  0
ARC
  5
30C
100
AcDbEntity
  8
LAY-2
  6
CONTINUOUS
 62
     2
100
AcDbCircle
 10
341.75
 20
612.513539
 30
0.0
 40
1.0
100
AcDbArc
 50
270.0
 51
0.0
  0
ARC
  5
30D
100
AcDbEntity
  8
LAY-2
  6
CONTINUOUS
 62
     2
100
AcDbCircle
 10
341.75
 20
615.190032
 30
0.0
 40
1.0
100
AcDbArc
 50
270.0
 51
0.0
  0
ARC
  5
30E
100
AcDbEntity
  8
LAY-2
  6
CONTINUOUS
 62
     2
100
AcDbCircle
 10
218.25
 20
612.513539
 30
0.0
 40
1.0
100
AcDbArc
 50
180.0
 51
270.0
  0
ARC
  5
30F
100
AcDbEntity
  8
LAY-2
  6
CONTINUOUS
 62
     2
100
AcDbCircle
 10
218.25
 20
615.190032
 30
0.0
 40
1.0
100
AcDbArc
 50
180.0
 51
270.0
  0
LINE
  5
310
100
AcDbEntity
  8
LAY-2
  6
CONTINUOUS
 62
     2
100
AcDbLine
 10
220.6
 20
608.309453
 30
0.0
 11
220.4
 21
608.309453
 31
0.0
  0
ARC
  5
311
100
AcDbEntity
  8
LAY-2
  6
CONTINUOUS
 62
     2
100
AcDbCircle
 10
220.4
 20
609.009453
 30
0.0
 40
0.7
100
AcDbArc
 50
180.0
 51
270.0
  0
ARC
  5
312
100
AcDbEntity
  8
LAY-2
  6
CONTINUOUS
 62
     2
100
AcDbCircle
 10
220.4
 20
607.850283
 30
0.0
 40
0.7
100
AcDbArc
 50
180.0
 51
270.0
  0
LINE
  5
313
100
AcDbEntity
  8
LAY-2
  6
CONTINUOUS
 62
     2
100
AcDbLine
 10
220.6
 20
607.150283
 30
0.0
 11
220.4
 21
607.150283
 31
0.0
  0
LINE
  5
314
100
AcDbEntity
  8
LAY-2
  6
CONTINUOUS
 62
     2
100
AcDbLine
 10
339.4
 20
608.309453
 30
0.0
 11
339.6
 21
608.309453
 31
0.0
  0
ARC
  5
315
100
AcDbEntity
  8
LAY-2
  6
CONTINUOUS
 62
     2
100
AcDbCircle
 10
339.6
 20
609.009453
 30
0.0
 40
0.7
100
AcDbArc
 50
270.0
 51
0.0
  0
LINE
  5
316
100
AcDbEntity
  8
LAY-2
  6
CONTINUOUS
 62
     2
100
AcDbLine
 10
339.4
 20
607.150283
 30
0.0
 11
339.6
 21
607.150283
 31
0.0
  0
ARC
  5
317
100
AcDbEntity
  8
LAY-2
  6
CONTINUOUS
 62
     2
100
AcDbCircle
 10
339.6
 20
607.850283
 30
0.0
 40
0.7
100
AcDbArc
 50
270.0
 51
0.0
  0
LINE
  5
318
100
AcDbEntity
  8
LAY-2
  6
CONTINUOUS
 62
     2
100
AcDbLine
 10
219.7
 20
611.513539
 30
0.0
 11
219.7
 21
607.850283
 31
0.0
  0
LINE
  5
319
100
AcDbEntity
  8
LAY-2
  6
CONTINUOUS
 62
     2
100
AcDbLine
 10
340.3
 20
611.513539
 30
0.0
 11
340.3
 21
607.850283
 31
0.0
  0
LINE
  5
31A
100
AcDbEntity
  8
LAY-2
  6
CONTINUOUS
 62
     2
100
AcDbLine
 10
339.4
 20
608.309453
 30
0.0
 11
220.6
 21
608.309453
 31
0.0
  0
LINE
  5
31B
100
AcDbEntity
  8
LAY-2
  6
CONTINUOUS
 62
     2
100
AcDbLine
 10
339.4
 20
607.150283
 30
0.0
 11
220.6
 21
607.150283
 31
0.0
  0
ARC
  5
31C
100
AcDbEntity
  8
LAY-2
  6
CONTINUOUS
 62
     2
100
AcDbCircle
 10
218.25
 20
650.747556
 30
0.0
 40
1.0
100
AcDbArc
 50
90.0
 51
180.0
  0
ARC
  5
31D
100
AcDbEntity
  8
LAY-2
  6
CONTINUOUS
 62
     2
100
AcDbCircle
 10
341.75
 20
650.747556
 30
0.0
 40
1.0
100
AcDbArc
 50
0.0
 51
90.0
  0
LINE
  5
31E
100
AcDbEntity
  8
LAY-2
  6
CONTINUOUS
 62
     2
100
AcDbLine
 10
218.25
 20
651.747556
 30
0.0
 11
341.75
 21
651.747556
 31
0.0
  0
TEXT
  5
31F
100
AcDbEntity
  8
LAY-2
  6
CONTINUOUS
 62
     2
100
AcDbText
 10
577.858174
 20
1065.34524
 30
0.0
 40
20.0
  1
ＷＬ
 41
0.945
  7
EXCADSTD
 72
     5
 11
619.105174
 21
1065.34524
 31
0.0
100
AcDbText
  0
LINE
  5
320
100
AcDbEntity
  8
LAY-2
  6
CONTINUOUS
 62
     2
100
AcDbLine
 10
524.0
 20
997.138096
 30
0.0
 11
524.0
 21
1105.638096
 31
0.0
  0
LINE
  5
321
100
AcDbEntity
  8
LAY-2
  6
CONTINUOUS
 62
     2
100
AcDbLine
 10
524.0
 20
1105.638096
 30
0.0
 11
196.0
 21
1105.638096
 31
0.0
  0
LINE
  5
322
100
AcDbEntity
  8
LAY-2
  6
CONTINUOUS
 62
     2
100
AcDbLine
 10
196.0
 20
1105.638096
 30
0.0
 11
196.0
 21
997.138096
 31
0.0
  0
LINE
  5
323
100
AcDbEntity
  8
LAY-2
  6
EXLTYPE4
 62
     6
100
AcDbLine
 10
823.259
 20
754.0
 30
0.0
 11
823.259
 21
530.743554
 31
0.0
  0
LINE
  5
324
100
AcDbEntity
  8
LAY-2
  6
CONTINUOUS
 62
     6
100
AcDbLine
 10
823.259
 20
656.7
 30
0.0
 11
856.402141
 21
656.7
 31
0.0
  0
LINE
  5
325
100
AcDbEntity
  8
LAY-2
  6
CONTINUOUS
 62
     6
100
AcDbLine
 10
823.259
 20
629.0
 30
0.0
 11
856.402141
 21
629.0
 31
0.0
  0
LINE
  5
326
100
AcDbEntity
  8
LAY-2
  6
CONTINUOUS
 62
     6
100
AcDbLine
 10
823.259
 20
654.7
 30
0.0
 11
845.053052
 21
654.7
 31
0.0
  0
LINE
  5
327
100
AcDbEntity
  8
LAY-2
  6
CONTINUOUS
 62
     6
100
AcDbLine
 10
846.004086
 20
654.940587
 30
0.0
 11
849.259
 21
656.7
 31
0.0
  0
LINE
  5
328
100
AcDbEntity
  8
LAY-2
  6
CONTINUOUS
 62
     6
100
AcDbLine
 10
823.259
 20
658.7
 30
0.0
 11
845.053052
 21
658.7
 31
0.0
  0
LINE
  5
329
100
AcDbEntity
  8
LAY-2
  6
CONTINUOUS
 62
     6
100
AcDbLine
 10
846.004086
 20
658.459413
 30
0.0
 11
849.259
 21
656.7
 31
0.0
  0
LINE
  5
32A
100
AcDbEntity
  8
LAY-2
  6
CONTINUOUS
 62
     6
100
AcDbLine
 10
823.259
 20
631.0
 30
0.0
 11
845.053052
 21
631.0
 31
0.0
  0
LINE
  5
32B
100
AcDbEntity
  8
LAY-2
  6
CONTINUOUS
 62
     6
100
AcDbLine
 10
846.004086
 20
630.759413
 30
0.0
 11
849.259
 21
629.0
 31
0.0
  0
LINE
  5
32C
100
AcDbEntity
  8
LAY-2
  6
CONTINUOUS
 62
     6
100
AcDbLine
 10
823.259
 20
627.0
 30
0.0
 11
845.053052
 21
627.0
 31
0.0
  0
LINE
  5
32D
100
AcDbEntity
  8
LAY-2
  6
CONTINUOUS
 62
     6
100
AcDbLine
 10
846.004086
 20
627.240587
 30
0.0
 11
849.259
 21
629.0
 31
0.0
  0
ARC
  5
32E
100
AcDbEntity
  8
LAY-2
  6
CONTINUOUS
 62
     6
100
AcDbCircle
 10
845.053052
 20
656.7
 30
0.0
 40
2.0
100
AcDbArc
 50
270.0
 51
298.393019
  0
ARC
  5
32F
100
AcDbEntity
  8
LAY-2
  6
CONTINUOUS
 62
     6
100
AcDbCircle
 10
845.053052
 20
656.7
 30
0.0
 40
2.0
100
AcDbArc
 50
61.606981
 51
90.0
  0
ARC
  5
330
100
AcDbEntity
  8
LAY-2
  6
CONTINUOUS
 62
     6
100
AcDbCircle
 10
845.053052
 20
629.0
 30
0.0
 40
2.0
100
AcDbArc
 50
61.606981
 51
90.0
  0
ARC
  5
331
100
AcDbEntity
  8
LAY-2
  6
CONTINUOUS
 62
     6
100
AcDbCircle
 10
845.053052
 20
629.0
 30
0.0
 40
2.0
100
AcDbArc
 50
270.0
 51
298.393019
  0
ARC
  5
332
100
AcDbEntity
  8
LAY-2
  6
EXLTYPE4
 62
     6
100
AcDbCircle
 10
752.259
 20
570.925759
 30
0.0
 40
52.5
100
AcDbArc
 50
180.0
 51
0.0
  0
ARC
  5
333
100
AcDbEntity
  8
LAY-2
  6
EXLTYPE4
 62
     6
100
AcDbCircle
 10
752.259
 20
570.925759
 30
0.0
 40
52.5
100
AcDbArc
 50
0.0
 51
180.0
  0
POLYLINE
  5
334
100
AcDbEntity
  8
LAY-2
  6
CONTINUOUS
 62
     2
100
AcDb2dPolyline
 66
     1
 10
0.0
 20
0.0
 30
0.0
 70
   128
  0
VERTEX
  5
335
100
AcDbEntity
  8
LAY-2
  6
CONTINUOUS
 62
     2
100
AcDbVertex
100
AcDb2dVertex
 10
714.259
 20
674.0
 30
0.0
  0
VERTEX
  5
336
100
AcDbEntity
  8
LAY-2
  6
CONTINUOUS
 62
     2
100
AcDbVertex
100
AcDb2dVertex
 10
823.259
 20
674.0
 30
0.0
  0
VERTEX
  5
337
100
AcDbEntity
  8
LAY-2
  6
CONTINUOUS
 62
     2
100
AcDbVertex
100
AcDb2dVertex
 10
823.259
 20
695.0
 30
0.0
  0
SEQEND
  5
338
100
AcDbEntity
  8
LAY-2
  6
CONTINUOUS
 62
     2
  0
LINE
  5
339
100
AcDbEntity
  8
LAY-2
  6
CONTINUOUS
 62
     2
100
AcDbLine
 10
820.259
 20
674.0
 30
0.0
 11
820.259
 21
591.0
 31
0.0
  0
LINE
  5
33A
100
AcDbEntity
  8
LAY-2
  6
CONTINUOUS
 62
     2
100
AcDbLine
 10
823.259
 20
670.3
 30
0.0
 11
823.259
 21
592.5
 31
0.0
  0
LINE
  5
33B
100
AcDbEntity
  8
LAY-2
  6
CONTINUOUS
 62
     2
100
AcDbLine
 10
820.259
 20
591.0
 30
0.0
 11
776.846855
 21
551.205534
 31
0.0
  0
LINE
  5
33C
100
AcDbEntity
  8
LAY-2
  6
CONTINUOUS
 62
     2
100
AcDbLine
 10
823.259
 20
592.5
 30
0.0
 11
820.259
 21
592.5
 31
0.0
  0
LINE
  5
33D
100
AcDbEntity
  8
LAY-2
  6
CONTINUOUS
 62
     2
100
AcDbLine
 10
823.259
 20
674.0
 30
0.0
 11
724.259
 21
674.0
 31
0.0
  0
LINE
  5
33E
100
AcDbEntity
  8
LAY-2
  6
CONTINUOUS
 62
     2
100
AcDbLine
 10
820.259
 20
670.3
 30
0.0
 11
823.259
 21
670.3
 31
0.0
  0
LINE
  5
33F
100
AcDbEntity
  8
LAY-2
  6
CONTINUOUS
 62
     2
100
AcDbLine
 10
823.259
 20
695.0
 30
0.0
 11
716.259
 21
695.0
 31
0.0
  0
LINE
  5
340
100
AcDbEntity
  8
LAY-2
  6
CONTINUOUS
 62
     2
100
AcDbLine
 10
823.259
 20
742.337697
 30
0.0
 11
809.402594
 21
750.337697
 31
0.0
  0
LINE
  5
341
100
AcDbEntity
  8
LAY-2
  6
CONTINUOUS
 62
     2
100
AcDbLine
 10
809.402594
 20
750.337697
 30
0.0
 11
809.402594
 21
734.337697
 31
0.0
  0
LINE
  5
342
100
AcDbEntity
  8
LAY-2
  6
CONTINUOUS
 62
     2
100
AcDbLine
 10
809.402594
 20
734.337697
 30
0.0
 11
823.259
 21
742.337697
 31
0.0
  0
LINE
  5
343
100
AcDbEntity
  8
LAY-2
  6
EXLTYPE3
 62
     2
100
AcDbLine
 10
734.598405
 20
580.3
 30
0.0
 11
769.919595
 21
580.3
 31
0.0
  0
LINE
  5
344
100
AcDbEntity
  8
LAY-2
  6
EXLTYPE3
 62
     2
100
AcDbLine
 10
752.259
 20
597.960595
 30
0.0
 11
752.259
 21
562.639405
 31
0.0
  0
LINE
  5
345
100
AcDbEntity
  8
LAY-2
  6
EXLTYPE1
 62
     2
100
AcDbLine
 10
752.259
 20
574.8
 30
0.0
 11
744.259
 21
574.8
 31
0.0
  0
ARC
  5
346
100
AcDbEntity
  8
LAY-2
  6
EXLTYPE1
 62
     2
100
AcDbCircle
 10
752.259
 20
572.3
 30
0.0
 40
14.5
100
AcDbArc
 50
49.3427
 51
129.791
  0
ARC
  5
347
100
AcDbEntity
  8
LAY-2
  6
EXLTYPE1
 62
     2
100
AcDbCircle
 10
744.259
 20
576.8
 30
0.0
 40
2.0
100
AcDbArc
 50
180.0
 51
270.0
  0
LINE
  5
348
100
AcDbEntity
  8
LAY-2
  6
EXLTYPE1
 62
     2
100
AcDbLine
 10
742.259
 20
581.904
 30
0.0
 11
742.259
 21
576.8
 31
0.0
  0
ARC
  5
349
100
AcDbEntity
  8
LAY-2
  6
EXLTYPE1
 62
     2
100
AcDbCircle
 10
744.259
 20
581.904
 30
0.0
 40
2.0
100
AcDbArc
 50
129.791
 51
180.0
  0
ARC
  5
34A
100
AcDbEntity
  8
LAY-2
  6
EXLTYPE1
 62
     2
100
AcDbCircle
 10
760.259
 20
581.904
 30
0.0
 40
2.0
100
AcDbArc
 50
0.0
 51
50.2081
  0
ARC
  5
34B
100
AcDbEntity
  8
LAY-2
  6
EXLTYPE1
 62
     2
100
AcDbCircle
 10
760.259
 20
576.8
 30
0.0
 40
2.0
100
AcDbArc
 50
270.0
 51
0.0
  0
LINE
  5
34C
100
AcDbEntity
  8
LAY-2
  6
EXLTYPE1
 62
     2
100
AcDbLine
 10
752.259
 20
574.8
 30
0.0
 11
760.259
 21
574.8
 31
0.0
  0
LINE
  5
34D
100
AcDbEntity
  8
LAY-2
  6
EXLTYPE1
 62
     2
100
AcDbLine
 10
762.259
 20
581.904
 30
0.0
 11
762.259
 21
576.8
 31
0.0
  0
ARC
  5
34E
100
AcDbEntity
  8
LAY-2
  6
EXLTYPE4
 62
     2
100
AcDbCircle
 10
752.259
 20
570.925759
 30
0.0
 40
19.0
100
AcDbArc
 50
0.0
 51
180.0
  0
ARC
  5
34F
100
AcDbEntity
  8
LAY-2
  6
EXLTYPE4
 62
     2
100
AcDbCircle
 10
752.259
 20
570.925759
 30
0.0
 40
19.0
100
AcDbArc
 50
180.0
 51
0.0
  0
ARC
  5
350
100
AcDbEntity
  8
LAY-2
  6
CONTINUOUS
 62
     2
100
AcDbCircle
 10
794.247601
 20
530.204487
 30
0.0
 40
120.0
100
AcDbArc
 50
127.234023
 51
127.508586
  0
ARC
  5
351
100
AcDbEntity
  8
LAY-2
  6
CONTINUOUS
 62
     2
100
AcDbCircle
 10
714.259
 20
675.0
 30
0.0
 40
1.0
100
AcDbArc
 50
180.0
 51
270.0
  0
ARC
  5
352
100
AcDbEntity
  8
LAY-2
  6
CONTINUOUS
 62
     2
100
AcDbCircle
 10
766.035261
 20
563.0
 30
0.0
 40
16.0
100
AcDbArc
 50
270.0
 51
312.510447
  0
LINE
  5
353
100
AcDbEntity
  8
LAY-2
  6
CONTINUOUS
 62
     2
100
AcDbLine
 10
766.035261
 20
547.0
 30
0.0
 11
734.164884
 21
547.0
 31
0.0
  0
ARC
  5
354
100
AcDbEntity
  8
LAY-2
  6
CONTINUOUS
 62
     2
100
AcDbCircle
 10
734.164884
 20
559.0
 30
0.0
 40
12.0
100
AcDbArc
 50
180.451139
 51
270.0
  0
LINE
  5
355
100
AcDbEntity
  8
LAY-2
  6
CONTINUOUS
 62
     2
100
AcDbLine
 10
722.165256
 20
558.905515
 30
0.0
 11
721.259
 21
674.0
 31
0.0
  0
ARC
  5
356
100
AcDbEntity
  8
LAY-2
  6
CONTINUOUS
 62
     2
100
AcDbCircle
 10
716.259
 20
692.0
 30
0.0
 40
3.0
100
AcDbArc
 50
90.0
 51
180.0
  0
LINE
  5
357
100
AcDbEntity
  8
LAY-2
  6
CONTINUOUS
 62
     2
100
AcDbLine
 10
713.259
 20
675.0
 30
0.0
 11
713.259
 21
692.0
 31
0.0
  0
ARC
  5
358
100
AcDbEntity
  8
LAY-2
  6
CONTINUOUS
 62
     2
100
AcDbCircle
 10
751.625979
 20
585.732834
 30
0.0
 40
50.0
100
AcDbArc
 50
127.508586
 51
144.883804
  0
LINE
  5
359
100
AcDbEntity
  8
LAY-2
  6
CONTINUOUS
 62
     2
100
AcDbLine
 10
710.535404
 20
607.039894
 30
0.0
 11
708.990018
 21
608.309453
 31
0.0
  0
ARC
  5
35A
100
AcDbEntity
  8
LAY-2
  6
CONTINUOUS
 62
     2
100
AcDbCircle
 10
711.544609
 20
613.919422
 30
0.0
 40
1.0
100
AcDbArc
 50
144.883804
 51
198.596347
  0
ARC
  5
35B
100
AcDbEntity
  8
LAY-2
  6
CONTINUOUS
 62
     2
100
AcDbCircle
 10
711.501025
 20
611.853902
 30
0.0
 40
0.3
100
AcDbArc
 50
198.596347
 51
321.642064
  0
LINE
  5
35C
100
AcDbEntity
  8
LAY-2
  6
CONTINUOUS
 62
     2
100
AcDbLine
 10
710.59682
 20
613.600524
 30
0.0
 11
711.233609
 21
611.707946
 31
0.0
  0
LINE
  5
35D
100
AcDbEntity
  8
LAY-2
  6
CONTINUOUS
 62
     2
100
AcDbLine
 10
713.666361
 20
610.749225
 30
0.0
 11
713.735451
 21
610.543885
 31
0.0
  0
ARC
  5
35E
100
AcDbEntity
  8
LAY-2
  6
CONTINUOUS
 62
     2
100
AcDbCircle
 10
714.019787
 20
610.639554
 30
0.0
 40
0.3
100
AcDbArc
 50
198.596347
 51
272.434564
  0
LINE
  5
35F
100
AcDbEntity
  8
LAY-2
  6
CONTINUOUS
 62
     2
100
AcDbLine
 10
710.535404
 20
607.039894
 30
0.0
 11
713.074523
 21
610.130666
 31
0.0
  0
LINE
  5
360
100
AcDbEntity
  8
LAY-2
  6
CONTINUOUS
 62
     2
100
AcDbLine
 10
711.449546
 20
611.558352
 30
0.0
 11
713.735451
 21
610.543885
 31
0.0
  0
LINE
  5
361
100
AcDbEntity
  8
LAY-2
  6
CONTINUOUS
 62
     2
100
AcDbLine
 10
711.603069
 20
611.49022
 30
0.0
 11
708.990018
 21
608.309453
 31
0.0
  0
LINE
  5
362
100
AcDbEntity
  8
LAY-2
  6
CONTINUOUS
 62
     2
100
AcDbLine
 10
713.074523
 20
610.130666
 30
0.0
 11
713.46436
 21
610.664193
 31
0.0
  0
ARC
  5
363
100
AcDbEntity
  8
LAY-2
  6
CONTINUOUS
 62
     2
100
AcDbCircle
 10
713.607747
 20
620.330799
 30
0.0
 40
10.0
100
AcDbArc
 50
272.434564
 51
324.28988
  0
TEXT
  5
364
100
AcDbEntity
  8
LAY-2
  6
CONTINUOUS
 62
     2
100
AcDbText
 10
762.213526
 20
732.507439
 30
0.0
 40
20.0
  1
ＷＬ
 41
0.945
  7
EXCADSTD
 72
     5
 11
803.460526
 21
732.507439
 31
0.0
100
AcDbText
  0
DIMENSION
  5
370
100
AcDbEntity
  8
LAY-3
  6
CONTINUOUS
 62
     3
100
AcDbDimension
  2
*D14
 10
554.0
 20
1105.638096
 30
0.0
 11
542.25
 21
1050.638096
 31
0.0
 70
   160
  3
STANDARD
100
AcDbAlignedDimension
 13
522.5
 23
995.638096
 33
0.0
 14
554.0
 24
1105.638096
 34
0.0
 50
90.0
100
AcDbRotatedDimension
1001
ACAD
1000
DSTYLE
1002
{
1070
     6
1000
_EX_NORM
1070
     7
1000
_EX_NORM
1070
    41
1040
15.0
1070
    42
1040
3.5
1070
    44
1040
5.0
1070
    73
1070
     0
1070
    74
1070
     0
1070
    75
1070
     0
1070
    76
1070
     1
1070
    77
1070
     1
1070
    78
1070
     8
1070
   140
1040
20.0
1070
   147
1040
1.75
1070
   173
1070
     1
1070
   176
1070
     3
1070
   177
1070
     3
1070
   178
1070
     2
1070
   271
1070
     2
1070
   279
1070
     2
1070
   280
1070
     0
1070
   287
1070
     5
1070
   340
1005
36F
1002
}
  0
DIMENSION
  5
37C
100
AcDbEntity
  8
LAY-3
  6
CONTINUOUS
 62
     3
100
AcDbDimension
  2
*D15
 10
460.0
 20
1165.580163
 30
0.0
 11
360.0
 21
1177.330163
 31
0.0
 70
   160
  3
STANDARD
100
AcDbAlignedDimension
 13
260.0
 23
1135.580163
 33
0.0
 14
460.0
 24
1135.580163
 34
0.0
100
AcDbRotatedDimension
1001
ACAD
1000
DSTYLE
1002
{
1070
     6
1000
_EX_NORM
1070
     7
1000
_EX_NORM
1070
    41
1040
15.0
1070
    42
1040
3.5
1070
    44
1040
5.0
1070
    73
1070
     0
1070
    74
1070
     0
1070
    75
1070
     0
1070
    76
1070
     0
1070
    77
1070
     1
1070
    78
1070
     8
1070
   140
1040
20.0
1070
   147
1040
1.75
1070
   173
1070
     1
1070
   176
1070
     3
1070
   177
1070
     3
1070
   178
1070
     2
1070
   271
1070
     2
1070
   279
1070
     2
1070
   280
1070
     0
1070
   287
1070
     5
1070
   340
1005
36F
1002
}
  0
DIMENSION
  5
388
100
AcDbEntity
  8
LAY-3
  6
CONTINUOUS
 62
     3
100
AcDbDimension
  2
*D16
 10
524.0
 20
1195.580163
 30
0.0
 11
360.0
 21
1207.330163
 31
0.0
 70
   160
  3
STANDARD
100
AcDbAlignedDimension
 13
196.0
 23
1105.638096
 33
0.0
 14
524.0
 24
1105.638096
 34
0.0
100
AcDbRotatedDimension
1001
ACAD
1000
DSTYLE
1002
{
1070
     6
1000
_EX_NORM
1070
     7
1000
_EX_NORM
1070
    41
1040
15.0
1070
    42
1040
3.5
1070
    44
1040
5.0
1070
    73
1070
     0
1070
    74
1070
     0
1070
    75
1070
     0
1070
    76
1070
     0
1070
    77
1070
     1
1070
    78
1070
     8
1070
   140
1040
20.0
1070
   147
1040
1.75
1070
   173
1070
     1
1070
   176
1070
     3
1070
   177
1070
     3
1070
   178
1070
     2
1070
   271
1070
     2
1070
   279
1070
     2
1070
   280
1070
     0
1070
   287
1070
     5
1070
   340
1005
36F
1002
}
  0
DIMENSION
  5
394
100
AcDbEntity
  8
LAY-3
  6
CONTINUOUS
 62
     3
100
AcDbDimension
  2
*D17
 10
166.0
 20
695.0
 30
0.0
 11
154.25
 21
621.0
 31
0.0
 70
   160
  3
STANDARD
100
AcDbAlignedDimension
 13
203.953489
 23
547.0
 33
0.0
 14
199.0
 24
695.0
 34
0.0
 50
90.0
100
AcDbRotatedDimension
1001
ACAD
1000
DSTYLE
1002
{
1070
     6
1000
_EX_NORM
1070
     7
1000
_EX_NORM
1070
    41
1040
15.0
1070
    42
1040
3.5
1070
    44
1040
5.0
1070
    73
1070
     0
1070
    74
1070
     0
1070
    75
1070
     0
1070
    76
1070
     0
1070
    77
1070
     1
1070
    78
1070
     8
1070
   140
1040
20.0
1070
   147
1040
1.75
1070
   173
1070
     1
1070
   176
1070
     3
1070
   177
1070
     3
1070
   178
1070
     2
1070
   271
1070
     2
1070
   279
1070
     2
1070
   280
1070
     0
1070
   287
1070
     5
1070
   340
1005
36F
1002
}
  0
DIMENSION
  5
3A0
100
AcDbEntity
  8
LAY-3
  6
CONTINUOUS
 62
     3
100
AcDbDimension
  2
*D18
 10
522.0
 20
458.425759
 30
0.0
 11
360.0
 21
470.175759
 31
0.0
 70
   160
  3
STANDARD
100
AcDbAlignedDimension
 13
198.0
 23
674.0
 33
0.0
 14
522.0
 24
674.0
 34
0.0
100
AcDbRotatedDimension
1001
ACAD
1000
DSTYLE
1002
{
1070
     6
1000
_EX_NORM
1070
     7
1000
_EX_NORM
1070
    41
1040
15.0
1070
    42
1040
3.5
1070
    44
1040
5.0
1070
    73
1070
     0
1070
    74
1070
     0
1070
    75
1070
     0
1070
    76
1070
     0
1070
    77
1070
     1
1070
    78
1070
     8
1070
   140
1040
20.0
1070
   147
1040
1.75
1070
   173
1070
     1
1070
   176
1070
     3
1070
   177
1070
     3
1070
   178
1070
     2
1070
   271
1070
     2
1070
   279
1070
     2
1070
   280
1070
     0
1070
   287
1070
     5
1070
   340
1005
36F
1002
}
  0
DIMENSION
  5
3AC
100
AcDbEntity
  8
LAY-3
  6
CONTINUOUS
 62
     3
100
AcDbDimension
  2
*D19
 10
198.850185
 20
488.425759
 30
0.0
 11
359.976528
 21
500.175759
 31
0.0
 70
   160
  1
322
  3
STANDARD
100
AcDbAlignedDimension
 13
521.102871
 23
547.0
 33
0.0
 14
198.850185
 24
547.0
 34
0.0
100
AcDbRotatedDimension
1001
ACAD
1000
DSTYLE
1002
{
1070
     6
1000
_EX_NORM
1070
     7
1000
_EX_NORM
1070
    41
1040
15.0
1070
    42
1040
3.5
1070
    44
1040
5.0
1070
    73
1070
     0
1070
    74
1070
     0
1070
    75
1070
     0
1070
    76
1070
     0
1070
    77
1070
     1
1070
    78
1070
     8
1070
   140
1040
20.0
1070
   147
1040
1.75
1070
   173
1070
     1
1070
   176
1070
     3
1070
   177
1070
     3
1070
   178
1070
     2
1070
   271
1070
     2
1070
   279
1070
     2
1070
   280
1070
     0
1070
   287
1070
     5
1070
   340
1005
36F
1002
}
  0
DIMENSION
  5
3B8
100
AcDbEntity
  8
LAY-3
  6
CONTINUOUS
 62
     3
100
AcDbDimension
  2
*D20
 10
584.0
 20
656.7
 30
0.0
 11
572.25
 21
737.5
 31
0.0
 70
   160
  3
STANDARD
100
AcDbAlignedDimension
 13
521.0
 23
695.0
 33
0.0
 14
472.5
 24
656.7
 34
0.0
 50
90.0
100
AcDbRotatedDimension
1001
ACAD
1000
DSTYLE
1002
{
1070
     6
1000
_EX_NORM
1070
     7
1000
_EX_NORM
1070
    41
1040
15.0
1070
    42
1040
3.5
1070
    44
1040
5.0
1070
    73
1070
     0
1070
    74
1070
     0
1070
    75
1070
     0
1070
    76
1070
     0
1070
    77
1070
     1
1070
    78
1070
     8
1070
   140
1040
20.0
1070
   147
1040
1.75
1070
   173
1070
     1
1070
   176
1070
     3
1070
   177
1070
     3
1070
   178
1070
     2
1070
   271
1070
     2
1070
   279
1070
     2
1070
   280
1070
     1
1070
   287
1070
     5
1070
   340
1005
36F
1002
}
  0
DIMENSION
  5
3C3
100
AcDbEntity
  8
LAY-3
  6
CONTINUOUS
 62
     3
100
AcDbDimension
  2
*D21
 10
554.0
 20
674.0
 30
0.0
 11
542.25
 21
727.5
 31
0.0
 70
   160
  3
STANDARD
100
AcDbAlignedDimension
 13
554.0
 23
695.0
 33
0.0
 14
523.0
 24
674.0
 34
0.0
 50
90.0
100
AcDbRotatedDimension
1001
ACAD
1000
DSTYLE
1002
{
1070
     6
1000
_EX_NORM
1070
     7
1000
_EX_NORM
1070
    41
1040
15.0
1070
    42
1040
3.5
1070
    44
1040
5.0
1070
    73
1070
     0
1070
    74
1070
     0
1070
    75
1070
     1
1070
    76
1070
     0
1070
    77
1070
     1
1070
    78
1070
     8
1070
   140
1040
20.0
1070
   147
1040
1.75
1070
   173
1070
     1
1070
   176
1070
     3
1070
   177
1070
     3
1070
   178
1070
     2
1070
   271
1070
     2
1070
   279
1070
     2
1070
   280
1070
     1
1070
   287
1070
     5
1070
   340
1005
36F
1002
}
  0
DIMENSION
  5
3CF
100
AcDbEntity
  8
LAY-3
  6
CONTINUOUS
 62
     3
100
AcDbDimension
  2
*D22
 10
916.402141
 20
674.0
 30
0.0
 11
904.652141
 21
610.5
 31
0.0
 70
   160
  3
STANDARD
100
AcDbAlignedDimension
 13
766.035261
 23
547.0
 33
0.0
 14
820.259
 24
674.0
 34
0.0
 50
90.0
100
AcDbRotatedDimension
1001
ACAD
1000
DSTYLE
1002
{
1070
     6
1000
_EX_NORM
1070
     7
1000
_EX_NORM
1070
    41
1040
15.0
1070
    42
1040
3.5
1070
    44
1040
5.0
1070
    73
1070
     0
1070
    74
1070
     0
1070
    75
1070
     0
1070
    76
1070
     0
1070
    77
1070
     1
1070
    78
1070
     8
1070
   140
1040
20.0
1070
   147
1040
1.75
1070
   173
1070
     1
1070
   176
1070
     3
1070
   177
1070
     3
1070
   178
1070
     2
1070
   271
1070
     2
1070
   279
1070
     2
1070
   280
1070
     0
1070
   287
1070
     5
1070
   340
1005
36F
1002
}
  0
DIMENSION
  5
3DB
100
AcDbEntity
  8
LAY-3
  6
CONTINUOUS
 62
     3
100
AcDbDimension
  2
*D23
 10
886.402141
 20
629.0
 30
0.0
 11
874.652141
 21
596.5
 31
0.0
 70
   160
  1
28
  3
STANDARD
100
AcDbAlignedDimension
 13
856.402141
 23
656.7
 33
0.0
 14
856.402141
 24
629.0
 34
0.0
 50
90.0
100
AcDbRotatedDimension
1001
ACAD
1000
DSTYLE
1002
{
1070
     6
1000
_EX_NORM
1070
     7
1000
_EX_NORM
1070
    41
1040
15.0
1070
    42
1040
3.5
1070
    44
1040
5.0
1070
    73
1070
     0
1070
    74
1070
     0
1070
    75
1070
     0
1070
    76
1070
     0
1070
    77
1070
     1
1070
    78
1070
     8
1070
   140
1040
20.0
1070
   147
1040
1.75
1070
   173
1070
     1
1070
   176
1070
     3
1070
   177
1070
     3
1070
   178
1070
     2
1070
   271
1070
     2
1070
   279
1070
     2
1070
   280
1070
     2
1070
   287
1070
     5
1070
   340
1005
36F
1002
}
  0
DIMENSION
  5
3E7
100
AcDbEntity
  8
LAY-3
  6
CONTINUOUS
 62
     3
100
AcDbDimension
  2
*D24
 10
823.259
 20
488.425759
 30
0.0
 11
787.759
 21
500.175759
 31
0.0
 70
   160
  3
STANDARD
100
AcDbAlignedDimension
 13
752.259
 23
562.639405
 33
0.0
 14
823.259
 24
530.743554
 34
0.0
100
AcDbRotatedDimension
1001
ACAD
1000
DSTYLE
1002
{
1070
     6
1000
_EX_NORM
1070
     7
1000
_EX_NORM
1070
    41
1040
15.0
1070
    42
1040
3.5
1070
    44
1040
5.0
1070
    73
1070
     0
1070
    74
1070
     0
1070
    75
1070
     0
1070
    76
1070
     0
1070
    77
1070
     1
1070
    78
1070
     8
1070
   140
1040
20.0
1070
   147
1040
1.75
1070
   173
1070
     1
1070
   176
1070
     3
1070
   177
1070
     3
1070
   178
1070
     2
1070
   271
1070
     2
1070
   279
1070
     2
1070
   280
1070
     0
1070
   287
1070
     5
1070
   340
1005
36F
1002
}
  0
TEXT
  5
3E8
100
AcDbEntity
  8
LAY-3
  6
CONTINUOUS
 62
     2
100
AcDbText
 10
829.9
 20
718.4
 30
0.0
 40
20.0
  1
４－φ４×３５
 41
0.582
  7
EXCADSTD
 72
     5
 11
926.899997
 21
718.4
 31
0.0
100
AcDbText
  0
LEADER
  5
3E9
100
AcDbEntity
  8
LAY-3
  6
CONTINUOUS
 62
     6
100
AcDbLeader
  3
STANDARD
 73
     3
 74
     1
 75
     0
 40
0.0
 76
     2
 10
827.8
 20
658.7
 30
0.0
 10
831.2
 20
718.4
 30
0.0
 77
     6
1001
ACAD
1000
DSTYLE
1002
{
1070
    41
1040
17.5
1070
     5
1000
_EX_NORM
1070
     6
1000
_EX_NORM
1070
     7
1000
_EX_NORM
1070
   341
1005
28
1002
}
  0
LINE
  5
3EA
100
AcDbEntity
  8
LAY-3
  6
CONTINUOUS
 62
     6
100
AcDbLine
 10
831.2
 20
718.4
 30
0.0
 11
920.041
 21
718.4
 31
0.0
  0
ENDSEC
  0
SECTION
  2
OBJECTS
  0
DICTIONARY
  5
19
100
AcDbDictionary
  3
ACAD_GROUP
350
1A
  3
ACAD_MLINESTYLE
350
1B
  0
DICTIONARY
  5
1A
102
{ACAD_REACTORS
330
19
102
}
100
AcDbDictionary
  0
DICTIONARY
  5
1B
102
{ACAD_REACTORS
330
19
102
}
100
AcDbDictionary
  3
STANDARD
350
1C
  0
MLINESTYLE
  5
1C
102
{ACAD_REACTORS
330
1B
102
}
100
AcDbMlineStyle
  2
Standard
 70
     0
  3

 62
     0
 51
90.0
 52
90.0
 71
     2
 49
0.5
 62
   256
  6
ByLayer
 49
-0.5
 62
   256
  6
ByLayer
  0
ENDSEC
  0
EOF
