  0
SECTION
  2
HEADER
  9
$ACADVER
  1
AC1014
  9
$ACADMAINTVER
 70
     0
  9
$DWGCODEPAGE
  3
ANSI_932
  9
$INSBASE
 10
0.0
 20
0.0
 30
0.0
  9
$EXTMIN
 10
-0.1
 20
11.5
 30
0.0
  9
$EXTMAX
 10
199.9
 20
291.5
 30
0.0
  9
$LIMMIN
 10
0.0
 20
0.0
  9
$LIMMAX
 10
210.0
 20
297.0
  9
$ORTHOMODE
 70
     0
  9
$REGENMODE
 70
     1
  9
$FILLMODE
 70
     1
  9
$QTEXTMODE
 70
     0
  9
$MIRRTEXT
 70
     1
  9
$DRAGMODE
 70
     2
  9
$LTSCALE
 40
1.0
  9
$OSMODE
 70
     0
  9
$ATTMODE
 70
     1
  9
$TEXTSIZE
 40
0.2
  9
$TRACEWID
 40
0.05
  9
$TEXTSTYLE
  7
STANDARD
  9
$CLAYER
  8
LAY-2
  9
$CELTYPE
  6
CONTINUOUS
  9
$CECOLOR
 62
   256
  9
$CELTSCALE
 40
1.0
  9
$DELOBJ
 70
     1
  9
$DISPSILH
 70
     0
  9
$DIMSCALE
 40
1.0
  9
$DIMASZ
 40
0.18
  9
$DIMEXO
 40
0.0625
  9
$DIMDLI
 40
0.38
  9
$DIMRND
 40
0.0
  9
$DIMDLE
 40
0.0
  9
$DIMEXE
 40
0.18
  9
$DIMTP
 40
0.0
  9
$DIMTM
 40
0.0
  9
$DIMTXT
 40
0.18
  9
$DIMCEN
 40
0.09
  9
$DIMTSZ
 40
0.0
  9
$DIMTOL
 70
     0
  9
$DIMLIM
 70
     0
  9
$DIMTIH
 70
     1
  9
$DIMTOH
 70
     1
  9
$DIMSE1
 70
     0
  9
$DIMSE2
 70
     0
  9
$DIMTAD
 70
     0
  9
$DIMZIN
 70
     0
  9
$DIMBLK
  1

  9
$DIMASO
 70
     1
  9
$DIMSHO
 70
     1
  9
$DIMPOST
  1

  9
$DIMAPOST
  1

  9
$DIMALT
 70
     0
  9
$DIMALTD
 70
     2
  9
$DIMALTF
 40
25.4
  9
$DIMLFAC
 40
1.0
  9
$DIMTOFL
 70
     0
  9
$DIMTVP
 40
0.0
  9
$DIMTIX
 70
     0
  9
$DIMSOXD
 70
     0
  9
$DIMSAH
 70
     0
  9
$DIMBLK1
  1

  9
$DIMBLK2
  1

  9
$DIMSTYLE
  2
STANDARD
  9
$DIMCLRD
 70
     0
  9
$DIMCLRE
 70
     0
  9
$DIMCLRT
 70
     0
  9
$DIMTFAC
 40
1.0
  9
$DIMGAP
 40
0.09
  9
$DIMJUST
 70
     0
  9
$DIMSD1
 70
     0
  9
$DIMSD2
 70
     0
  9
$DIMTOLJ
 70
     1
  9
$DIMTZIN
 70
     0
  9
$DIMALTZ
 70
     0
  9
$DIMALTTZ
 70
     0
  9
$DIMFIT
 70
     3
  9
$DIMUPT
 70
     0
  9
$DIMUNIT
 70
     2
  9
$DIMDEC
 70
     4
  9
$DIMTDEC
 70
     4
  9
$DIMALTU
 70
     2
  9
$DIMALTTD
 70
     2
  9
$DIMTXSTY
  7
STANDARD
  9
$DIMAUNIT
 70
     0
  9
$LUNITS
 70
     2
  9
$LUPREC
 70
     4
  9
$SKETCHINC
 40
0.1
  9
$FILLETRAD
 40
0.0
  9
$AUNITS
 70
     0
  9
$AUPREC
 70
     0
  9
$MENU
  1
acad
  9
$ELEVATION
 40
0.0
  9
$PELEVATION
 40
0.0
  9
$THICKNESS
 40
0.0
  9
$LIMCHECK
 70
     0
  9
$BLIPMODE
 70
     1
  9
$CHAMFERA
 40
0.0
  9
$CHAMFERB
 40
0.0
  9
$CHAMFERC
 40
0.0
  9
$CHAMFERD
 40
0.0
  9
$SKPOLY
 70
     0
  9
$TDCREATE
 40
2455891.081780486
  9
$TDUPDATE
 40
2455891.081780486
  9
$TDINDWG
 40
0.0000000000
  9
$TDUSRTIMER
 40
0.0000000000
  9
$USRTIMER
 70
     1
  9
$ANGBASE
 50
0.0
  9
$ANGDIR
 70
     0
  9
$PDMODE
 70
     0
  9
$PDSIZE
 40
0.0
  9
$PLINEWID
 40
0.0
  9
$COORDS
 70
     1
  9
$SPLFRAME
 70
     0
  9
$SPLINETYPE
 70
     6
  9
$SPLINESEGS
 70
     8
  9
$ATTDIA
 70
     0
  9
$ATTREQ
 70
     1
  9
$HANDLING
 70
     1
  9
$HANDSEED
  5
318
  9
$SURFTAB1
 70
     6
  9
$SURFTAB2
 70
     6
  9
$SURFTYPE
 70
     6
  9
$SURFU
 70
     6
  9
$SURFV
 70
     6
  9
$UCSNAME
  2

  9
$UCSORG
 10
0.0
 20
0.0
 30
0.0
  9
$UCSXDIR
 10
1.0
 20
0.0
 30
0.0
  9
$UCSYDIR
 10
0.0
 20
1.0
 30
0.0
  9
$PUCSNAME
  2

  9
$PUCSORG
 10
0.0
 20
0.0
 30
0.0
  9
$PUCSXDIR
 10
1.0
 20
0.0
 30
0.0
  9
$PUCSYDIR
 10
0.0
 20
1.0
 30
0.0
  9
$USERI1
 70
     0
  9
$USERI2
 70
     0
  9
$USERI3
 70
     0
  9
$USERI4
 70
     0
  9
$USERI5
 70
     0
  9
$USERR1
 40
0.0
  9
$USERR2
 40
0.0
  9
$USERR3
 40
0.0
  9
$USERR4
 40
0.0
  9
$USERR5
 40
0.0
  9
$WORLDVIEW
 70
     1
  9
$SHADEDGE
 70
     3
  9
$SHADEDIF
 70
    70
  9
$TILEMODE
 70
     1
  9
$MAXACTVP
 70
    16
  9
$PINSBASE
 10
0.0
 20
0.0
 30
0.0
  9
$PLIMCHECK
 70
     0
  9
$PEXTMIN
 10
1.000000E+20
 20
1.000000E+20
 30
1.000000E+20
  9
$PEXTMAX
 10
-1.000000E+20
 20
-1.000000E+20
 30
-1.000000E+20
  9
$PLIMMIN
 10
0.0
 20
0.0
  9
$PLIMMAX
 10
12.0
 20
9.0
  9
$UNITMODE
 70
     0
  9
$VISRETAIN
 70
     0
  9
$PLINEGEN
 70
     1
  9
$PSLTSCALE
 70
     0
  9
$TREEDEPTH
 70
  3020
  9
$PICKSTYLE
 70
     1
  9
$CMLSTYLE
  2
Standard
  9
$CMLJUST
 70
     0
  9
$CMLSCALE
 40
1.0
  9
$PROXYGRAPHICS
 70
     0
  9
$MEASUREMENT
 70
     0
  0
ENDSEC
  0
SECTION
  2
CLASSES
  0
CLASS
  1
LWPOLYLINE
  2
AcDbPolyline
  3
"AutoCAD"
 90
        0
280
     0
281
     1
  0
CLASS
  1
IMAGE
  2
AcDbRasterImage
  3
ISM
 90
      127
280
     0
281
     1
  0
CLASS
  1
OLE2FRAME
  2
AcDbOle2Frame
  3
""
 90
        0
280
     0
281
     1
  0
CLASS
  1
HATCH
  2
AcDbHatch
  3
"ACAD_SEDONA"
 90
        0
280
     0
281
     1
  0
CLASS
  1
DICTIONARYVAR
  2
AcDbDictionaryVar
  3
"AutoCAD"
 90
        0
280
     0
281
     0
  0
CLASS
  1
RASTERVARIABLES
  2
AcDbRasterVariables
  3
ISM
 90
        0
280
     0
281
     0
  0
CLASS
  1
IMAGEDEF
  2
AcDbRasterImageDef
  3
ISM
 90
        0
280
     0
281
     0
  0
CLASS
  1
IMAGEDEF_REACTOR
  2
AcDbRasterImageDefReactor
  3
ISM
 90
        1
280
     0
281
     0
  0
CLASS
  1
IDBUFFER
  2
AcDbIdBuffer
  3
"Acad"
 90
        0
280
     0
281
     0
  0
CLASS
  1
SPATIAL_FILTER
  2
AcDbSpatialFilter
  3
"Acad"
 90
        0
280
     0
281
     0
  0
CLASS
  1
XRECORD
  2
AcDbXrecord
  3
"<Built In>"
 90
        0
280
     0
281
     0
  0
CLASS
  1
SORTENTSTABLE
  2
AcDbSortentsTable
  3
"AutoCAD"
 90
        0
280
     0
281
     0
  0
CLASS
  1
LAYER_INDEX
  2
AcDbLayerIndex
  3
"Acad"
 90
        0
280
     0
281
     0
  0
CLASS
  1
SPATIAL_INDEX
  2
AcDbSpatialIndex
  3
"Acad"
 90
        0
280
     0
281
     0
  0
CLASS
  1
OBJECT_PTR
  2
CAseDLPNTableRecord
  3
"ASE-LPNTableRecord"
 90
        1
280
     0
281
     0
  0
CLASS
  1
LAYOUT
  2
AcDbLayout
  3
"AutoCAD 2000"
 90
        1
280
     0
281
     0
  0
CLASS
  1
PLOTSETTINGS
  2
AcDbPlotSettings
  3
"AutoCAD 2000"
 90
        1
280
     0
281
     0
  0
CLASS
  1
ACDBDICTIONARYWDFLT
  2
AcDbDictionaryWithDefault
  3
"AutoCAD 2000"
 90
        1
280
     0
281
     0
  0
CLASS
  1
ACDBPLACEHOLDER
  2
AcDbPlaceHolder
  3
"AutoCAD 2000"
 90
        1
280
     0
281
     0
  0
CLASS
  1
VBA_PROJECT
  2
AcDbVbaProject
  3
"acadvba"
 90
        1
280
     0
281
     0
  0
CLASS
  1
WIPEOUT
  2
AcDbWipeout
  3
WipeOut|AutoCAD Express Tool|expresstools@autodesk.com
 90
      127
280
     0
281
     1
  0
CLASS
  1
WIPEOUTVARIABLES
  2
AcDbWipeoutVariables
  3
WipeOut|AutoCAD Express Tool|expresstools@autodesk.com
 90
        0
280
     0
281
     0
  0
CLASS
  1
RTEXT
  2
RText
  3
RText|AutoCAD Express Tool|expresstools@autodesk.com
 90
        0
280
     0
281
     1
  0
CLASS
  1
ARCALIGNEDTEXT
  2
AcDbArcAlignedText
  3
ATEXT|AutoCAD Express Tool|expresstools@autodesk.com
 90
        0
280
     0
281
     1
  0
ENDSEC
  0
SECTION
  2
TABLES
  0
TABLE
  2
VPORT
  5
7
100
AcDbSymbolTable
 70
     1
  0
VPORT
  5
15
100
AcDbSymbolTableRecord
100
AcDbViewportTableRecord
  2
*ACTIVE
 70
     0
 10
0.0
 20
0.0
 11
1.0
 21
1.0
 12
999.0
 22
1515.0
 13
0.0
 23
0.0
 14
1.0
 24
1.0
 15
0.0
 25
0.0
 16
0.0
 26
0.0
 36
1.0
 17
0.0
 27
0.0
 37
0.0
 40
2800.0
 41
1.722533
 42
50.0
 43
0.0
 44
0.0
 50
0.0
 51
0.0
 71
     0
 72
   100
 73
     1
 74
     1
 75
     0
 76
     0
 77
     0
 78
     0
  0
ENDTAB
  0
TABLE
  2
LTYPE
  5
4
100
AcDbSymbolTable
 70
    13
  0
LTYPE
  5
11
100
AcDbSymbolTableRecord
100
AcDbLinetypeTableRecord
  2
BYBLOCK
 70
    64
  3

 72
    65
 73
     0
 40
0.0
  0
LTYPE
  5
12
100
AcDbSymbolTableRecord
100
AcDbLinetypeTableRecord
  2
BYLAYER
 70
    64
  3

 72
    65
 73
     0
 40
0.0
  0
LTYPE
  5
13
100
AcDbSymbolTableRecord
100
AcDbLinetypeTableRecord
  2
CONTINUOUS
 70
    64
  3
実線
 72
    65
 73
     0
 40
0.0
  0
LTYPE
  5
1D
100
AcDbSymbolTableRecord
100
AcDbLinetypeTableRecord
  2
EXLTYPE1
 70
    64
  3
破線
 72
    65
 73
     2
 40
3.0
 49
2.0
 74
     0
 49
-1.0
 74
     0
  0
LTYPE
  5
1E
100
AcDbSymbolTableRecord
100
AcDbLinetypeTableRecord
  2
EXLTYPE2
 70
    64
  3
点線
 72
    65
 73
     2
 40
2.0
 49
1.0
 74
     0
 49
-1.0
 74
     0
  0
LTYPE
  5
1F
100
AcDbSymbolTableRecord
100
AcDbLinetypeTableRecord
  2
EXLTYPE3
 70
    64
  3
一点鎖線
 72
    65
 73
     4
 40
10.0
 49
7.0
 74
     0
 49
-1.0
 74
     0
 49
1.0
 74
     0
 49
-1.0
 74
     0
  0
LTYPE
  5
20
100
AcDbSymbolTableRecord
100
AcDbLinetypeTableRecord
  2
EXLTYPE4
 70
    64
  3
二点鎖線
 72
    65
 73
     6
 40
12.0
 49
7.0
 74
     0
 49
-1.0
 74
     0
 49
1.0
 74
     0
 49
-1.0
 74
     0
 49
1.0
 74
     0
 49
-1.0
 74
     0
  0
LTYPE
  5
21
100
AcDbSymbolTableRecord
100
AcDbLinetypeTableRecord
  2
EXLTYPE5
 70
    64
  3
三点鎖線
 72
    65
 73
     8
 40
37.0
 49
30.0
 74
     0
 49
-1.0
 74
     0
 49
1.0
 74
     0
 49
-1.0
 74
     0
 49
1.0
 74
     0
 49
-1.0
 74
     0
 49
1.0
 74
     0
 49
-1.0
 74
     0
  0
LTYPE
  5
22
100
AcDbSymbolTableRecord
100
AcDbLinetypeTableRecord
  2
EXLTYPE6
 70
    64
  3
四点鎖線
 72
    65
 73
    10
 40
39.0
 49
30.0
 74
     0
 49
-1.0
 74
     0
 49
1.0
 74
     0
 49
-1.0
 74
     0
 49
1.0
 74
     0
 49
-1.0
 74
     0
 49
1.0
 74
     0
 49
-1.0
 74
     0
 49
1.0
 74
     0
 49
-1.0
 74
     0
  0
LTYPE
  5
23
100
AcDbSymbolTableRecord
100
AcDbLinetypeTableRecord
  2
EXLTYPE7
 70
    64
  3
一点鎖線2
 72
    65
 73
     4
 40
7.0
 49
5.0
 74
     0
 49
-0.8
 74
     0
 49
0.4
 74
     0
 49
-0.8
 74
     0
  0
LTYPE
  5
24
100
AcDbSymbolTableRecord
100
AcDbLinetypeTableRecord
  2
EXLTYPE8
 70
    64
  3
破線3
 72
    65
 73
     2
 40
1.27
 49
0.635
 74
     0
 49
-0.635
 74
     0
  0
LTYPE
  5
25
100
AcDbSymbolTableRecord
100
AcDbLinetypeTableRecord
  2
EXLTYPE9
 70
    64
  3
破線2
 72
    65
 73
     2
 40
2.38125
 49
1.5875
 74
     0
 49
-0.79375
 74
     0
  0
LTYPE
  5
26
100
AcDbSymbolTableRecord
100
AcDbLinetypeTableRecord
  2
EXLTYPE10
 70
    64
  3
破線4
 72
    65
 73
     2
 40
2.38125
 49
1.5875
 74
     0
 49
-0.79375
 74
     0
  0
ENDTAB
  0
TABLE
  2
LAYER
  5
2
100
AcDbSymbolTable
 70
     4
  0
LAYER
  5
14
100
AcDbSymbolTableRecord
100
AcDbLayerTableRecord
  2
0
 70
     0
 62
     7
  6
CONTINUOUS
  0
LAYER
  5
29
100
AcDbSymbolTableRecord
100
AcDbLayerTableRecord
  2
LAY-1
 70
    64
 62
     7
  6
CONTINUOUS
  0
LAYER
  5
2A
100
AcDbSymbolTableRecord
100
AcDbLayerTableRecord
  2
LAY-2
 70
    64
 62
     7
  6
CONTINUOUS
  0
LAYER
  5
2B
100
AcDbSymbolTableRecord
100
AcDbLayerTableRecord
  2
LAY-3
 70
    64
 62
     7
  6
CONTINUOUS
  0
ENDTAB
  0
TABLE
  2
STYLE
  5
3
100
AcDbSymbolTable
 70
     5
  0
STYLE
  5
17
100
AcDbSymbolTableRecord
100
AcDbTextStyleTableRecord
  2
STANDARD
 70
     0
 40
0.0
 41
1.0
 50
0.0
 71
     0
 42
0.0
  3
monotxt
  4
extfont
  0
STYLE
  5
27
100
AcDbSymbolTableRecord
100
AcDbTextStyleTableRecord
  2
EXCADSTD
 70
    64
 40
0.0
 41
1.0
 50
0.0
 71
     0
 42
0.2
  3
monotxt
  4
extfont
  0
STYLE
  5
28
100
AcDbSymbolTableRecord
100
AcDbTextStyleTableRecord
  2
EXCADVERT
 70
    68
 40
0.0
 41
1.0
 50
0.0
 71
     0
 42
0.286885
  3
monotxt
  4
extfont
  0
STYLE
  5
AD
100
AcDbSymbolTableRecord
100
AcDbTextStyleTableRecord
  2
EXCADTTF1
 70
    64
 40
0.0
 41
1.0
 50
0.0
 71
     0
 42
0.2
  3
MS Gothic.ttf
  4

1001
ACAD
1000
MS Gothic
1071
    32817
  0
STYLE
  5
17C
100
AcDbSymbolTableRecord
100
AcDbTextStyleTableRecord
  2
EXCADDIM1
 70
    64
 40
0.0
 41
0.84
 50
0.0
 71
     0
 42
0.2
  3
monotxt
  4
extfont
  0
ENDTAB
  0
TABLE
  2
VIEW
  5
5
100
AcDbSymbolTable
 70
     0
  0
ENDTAB
  0
TABLE
  2
UCS
  5
6
100
AcDbSymbolTable
 70
     0
  0
ENDTAB
  0
TABLE
  2
APPID
  5
8
100
AcDbSymbolTable
 70
     1
  0
APPID
  5
16
100
AcDbSymbolTableRecord
100
AcDbRegAppTableRecord
  2
ACAD
 70
     0
  0
ENDTAB
  0
TABLE
  2
DIMSTYLE
  5
9
100
AcDbSymbolTable
 70
     1
  0
DIMSTYLE
105
18
100
AcDbSymbolTableRecord
100
AcDbDimStyleTableRecord
  2
STANDARD
 70
     0
  3

  4

  5

  6

  7

 40
1.0
 41
0.18
 42
0.0625
 43
0.38
 44
0.18
 45
0.0
 46
0.0
 47
0.0
 48
0.0
 71
     0
 72
     0
 73
     1
 74
     1
 75
     0
 76
     0
 77
     0
 78
     0
140
0.18
141
0.09
142
0.0
143
25.4
144
1.0
145
0.0
146
1.0
147
0.09
170
     0
171
     2
172
     1
173
     0
174
     0
175
     0
176
     0
177
     0
178
     0
270
     2
271
     4
272
     4
273
     2
274
     2
275
     0
280
     0
281
     0
282
     0
283
     1
284
     0
285
     0
286
     0
287
     0
288
     0
340
17
  0
ENDTAB
  0
TABLE
  2
BLOCK_RECORD
  5
1
100
AcDbSymbolTable
 70
    26
  0
BLOCK_RECORD
  5
A
100
AcDbSymbolTableRecord
100
AcDbBlockTableRecord
  2
*MODEL_SPACE
  0
BLOCK_RECORD
  5
B
100
AcDbSymbolTableRecord
100
AcDbBlockTableRecord
  2
*PAPER_SPACE
  0
BLOCK_RECORD
  5
2C
100
AcDbSymbolTableRecord
100
AcDbBlockTableRecord
  2
_EX_NORM
  0
BLOCK_RECORD
  5
2D
100
AcDbSymbolTableRecord
100
AcDbBlockTableRecord
  2
_EX_BNORM
  0
BLOCK_RECORD
  5
2E
100
AcDbSymbolTableRecord
100
AcDbBlockTableRecord
  2
_EX_BCIR
  0
BLOCK_RECORD
  5
2F
100
AcDbSymbolTableRecord
100
AcDbBlockTableRecord
  2
_EX_RCIVIL
  0
BLOCK_RECORD
  5
30
100
AcDbSymbolTableRecord
100
AcDbBlockTableRecord
  2
_EX_SLANT
  0
BLOCK_RECORD
  5
31
100
AcDbSymbolTableRecord
100
AcDbBlockTableRecord
  2
_EX_NONE
  0
BLOCK_RECORD
  5
32
100
AcDbSymbolTableRecord
100
AcDbBlockTableRecord
  2
_EX_CIVIL
  0
BLOCK_RECORD
  5
33
100
AcDbSymbolTableRecord
100
AcDbBlockTableRecord
  2
_EX_WCIR
  0
BLOCK_RECORD
  5
34
100
AcDbSymbolTableRecord
100
AcDbBlockTableRecord
  2
_EX_WCIR2
  0
BLOCK_RECORD
  5
35
100
AcDbSymbolTableRecord
100
AcDbBlockTableRecord
  2
_EX_WNORM
  0
BLOCK_RECORD
  5
36
100
AcDbSymbolTableRecord
100
AcDbBlockTableRecord
  2
_EX_NNORM
  0
BLOCK_RECORD
  5
37
100
AcDbSymbolTableRecord
100
AcDbBlockTableRecord
  2
_EX_BBOX
  0
BLOCK_RECORD
  5
38
100
AcDbSymbolTableRecord
100
AcDbBlockTableRecord
  2
_EX_WBOX
  0
BLOCK_RECORD
  5
39
100
AcDbSymbolTableRecord
100
AcDbBlockTableRecord
  2
_EX_INTEGRAL
  0
BLOCK_RECORD
  5
172
100
AcDbSymbolTableRecord
100
AcDbBlockTableRecord
  2
*D14
  0
BLOCK_RECORD
  5
28F
100
AcDbSymbolTableRecord
100
AcDbBlockTableRecord
  2
*D15
  0
BLOCK_RECORD
  5
29B
100
AcDbSymbolTableRecord
100
AcDbBlockTableRecord
  2
*D16
  0
BLOCK_RECORD
  5
2A5
100
AcDbSymbolTableRecord
100
AcDbBlockTableRecord
  2
*D17
  0
BLOCK_RECORD
  5
2B1
100
AcDbSymbolTableRecord
100
AcDbBlockTableRecord
  2
*D18
  0
BLOCK_RECORD
  5
2BD
100
AcDbSymbolTableRecord
100
AcDbBlockTableRecord
  2
*D19
  0
BLOCK_RECORD
  5
2C9
100
AcDbSymbolTableRecord
100
AcDbBlockTableRecord
  2
*D20
  0
BLOCK_RECORD
  5
2D5
100
AcDbSymbolTableRecord
100
AcDbBlockTableRecord
  2
*D21
  0
BLOCK_RECORD
  5
2E1
100
AcDbSymbolTableRecord
100
AcDbBlockTableRecord
  2
*D22
  0
BLOCK_RECORD
  5
2ED
100
AcDbSymbolTableRecord
100
AcDbBlockTableRecord
  2
*D23
  0
BLOCK_RECORD
  5
2F9
100
AcDbSymbolTableRecord
100
AcDbBlockTableRecord
  2
*D24
  0
BLOCK_RECORD
  5
305
100
AcDbSymbolTableRecord
100
AcDbBlockTableRecord
  2
*D25
  0
ENDTAB
  0
ENDSEC
  0
SECTION
  2
BLOCKS
  0
BLOCK
  5
D
100
AcDbEntity
  8
0
100
AcDbBlockBegin
  2
*MODEL_SPACE
 70
     0
 10
0.0
 20
0.0
 30
0.0
  3
*MODEL_SPACE
  1

  0
ENDBLK
  5
E
100
AcDbEntity
  8
0
100
AcDbBlockEnd
  0
BLOCK
  5
F
100
AcDbEntity
 67
     1
  8
0
100
AcDbBlockBegin
  2
*PAPER_SPACE
 70
     0
 10
0.0
 20
0.0
 30
0.0
  3
*PAPER_SPACE
  1

  0
ENDBLK
  5
10
100
AcDbEntity
 67
     1
  8
0
100
AcDbBlockEnd
  0
BLOCK
  5
3A
100
AcDbEntity
  8
0
100
AcDbBlockBegin
  2
_EX_NORM
 70
     0
 10
0.0
 20
0.0
 30
0.0
  3
_EX_NORM
  1

  0
LINE
  5
3B
100
AcDbEntity
  8
0
  6
CONTINUOUS
 62
     0
100
AcDbLine
 10
0.0
 20
0.0
 30
0.0
 11
-1.0
 21
0.0
 31
0.0
  0
LINE
  5
3C
100
AcDbEntity
  8
0
  6
CONTINUOUS
 62
     0
100
AcDbLine
 10
0.0
 20
0.0
 30
0.0
 11
-1.0
 21
0.166667
 31
0.0
  0
LINE
  5
3D
100
AcDbEntity
  8
0
  6
CONTINUOUS
 62
     0
100
AcDbLine
 10
0.0
 20
0.0
 30
0.0
 11
-1.0
 21
-0.166667
 31
0.0
  0
ENDBLK
  5
3E
100
AcDbEntity
  8
0
100
AcDbBlockEnd
  0
BLOCK
  5
3F
100
AcDbEntity
  8
0
100
AcDbBlockBegin
  2
_EX_BNORM
 70
     0
 10
0.0
 20
0.0
 30
0.0
  3
_EX_BNORM
  1

  0
LINE
  5
40
100
AcDbEntity
  8
0
  6
CONTINUOUS
 62
     0
100
AcDbLine
 10
0.0
 20
0.0
 30
0.0
 11
-1.0
 21
0.0
 31
0.0
  0
LINE
  5
41
100
AcDbEntity
  8
0
  6
CONTINUOUS
 62
     0
100
AcDbLine
 10
0.0
 20
0.0
 30
0.0
 11
-1.0
 21
0.166667
 31
0.0
  0
LINE
  5
42
100
AcDbEntity
  8
0
  6
CONTINUOUS
 62
     0
100
AcDbLine
 10
0.0
 20
0.0
 30
0.0
 11
-1.0
 21
-0.166667
 31
0.0
  0
LINE
  5
43
100
AcDbEntity
  8
0
  6
CONTINUOUS
 62
     0
100
AcDbLine
 10
0.0
 20
0.0
 30
0.0
 11
-1.0
 21
0.083333
 31
0.0
  0
LINE
  5
44
100
AcDbEntity
  8
0
  6
CONTINUOUS
 62
     0
100
AcDbLine
 10
0.0
 20
0.0
 30
0.0
 11
-1.0
 21
-0.083333
 31
0.0
  0
LINE
  5
45
100
AcDbEntity
  8
0
  6
CONTINUOUS
 62
     0
100
AcDbLine
 10
-1.0
 20
0.166667
 30
0.0
 11
-1.0
 21
-0.166667
 31
0.0
  0
ENDBLK
  5
46
100
AcDbEntity
  8
0
100
AcDbBlockEnd
  0
BLOCK
  5
47
100
AcDbEntity
  8
0
100
AcDbBlockBegin
  2
_EX_BCIR
 70
     0
 10
0.0
 20
0.0
 30
0.0
  3
_EX_BCIR
  1

  0
LINE
  5
48
100
AcDbEntity
  8
0
  6
CONTINUOUS
 62
     0
100
AcDbLine
 10
0.0
 20
0.0
 30
0.0
 11
-1.0
 21
0.0
 31
0.0
  0
CIRCLE
  5
49
100
AcDbEntity
  8
0
  6
CONTINUOUS
 62
     0
100
AcDbCircle
 10
0.0
 20
0.0
 30
0.0
 40
0.5
  0
CIRCLE
  5
4A
100
AcDbEntity
  8
0
  6
CONTINUOUS
 62
     0
100
AcDbCircle
 10
0.0
 20
0.0
 30
0.0
 40
0.25
  0
ENDBLK
  5
4B
100
AcDbEntity
  8
0
100
AcDbBlockEnd
  0
BLOCK
  5
4C
100
AcDbEntity
  8
0
100
AcDbBlockBegin
  2
_EX_RCIVIL
 70
     0
 10
0.0
 20
0.0
 30
0.0
  3
_EX_RCIVIL
  1

  0
LINE
  5
4D
100
AcDbEntity
  8
0
  6
CONTINUOUS
 62
     0
100
AcDbLine
 10
0.0
 20
0.0
 30
0.0
 11
-1.0
 21
0.0
 31
0.0
  0
LINE
  5
4E
100
AcDbEntity
  8
0
  6
CONTINUOUS
 62
     0
100
AcDbLine
 10
-1.0
 20
-0.25
 30
0.0
 11
0.0
 21
-0.25
 31
0.0
  0
LINE
  5
4F
100
AcDbEntity
  8
0
  6
CONTINUOUS
 62
     0
100
AcDbLine
 10
-1.0
 20
-0.125
 30
0.0
 11
0.0
 21
-0.125
 31
0.0
  0
ENDBLK
  5
50
100
AcDbEntity
  8
0
100
AcDbBlockEnd
  0
BLOCK
  5
51
100
AcDbEntity
  8
0
100
AcDbBlockBegin
  2
_EX_SLANT
 70
     0
 10
0.0
 20
0.0
 30
0.0
  3
_EX_SLANT
  1

  0
LINE
  5
52
100
AcDbEntity
  8
0
  6
CONTINUOUS
 62
     0
100
AcDbLine
 10
0.0
 20
0.0
 30
0.0
 11
-1.0
 21
0.0
 31
0.0
  0
LINE
  5
53
100
AcDbEntity
  8
0
  6
CONTINUOUS
 62
     0
100
AcDbLine
 10
0.707107
 20
0.707107
 30
0.0
 11
-0.707107
 21
-0.707107
 31
0.0
  0
ENDBLK
  5
54
100
AcDbEntity
  8
0
100
AcDbBlockEnd
  0
BLOCK
  5
55
100
AcDbEntity
  8
0
100
AcDbBlockBegin
  2
_EX_NONE
 70
     0
 10
0.0
 20
0.0
 30
0.0
  3
_EX_NONE
  1

  0
LINE
  5
56
100
AcDbEntity
  8
0
  6
CONTINUOUS
 62
     0
100
AcDbLine
 10
0.0
 20
0.0
 30
0.0
 11
-1.0
 21
0.0
 31
0.0
  0
ENDBLK
  5
57
100
AcDbEntity
  8
0
100
AcDbBlockEnd
  0
BLOCK
  5
58
100
AcDbEntity
  8
0
100
AcDbBlockBegin
  2
_EX_CIVIL
 70
     0
 10
0.0
 20
0.0
 30
0.0
  3
_EX_CIVIL
  1

  0
LINE
  5
59
100
AcDbEntity
  8
0
  6
CONTINUOUS
 62
     0
100
AcDbLine
 10
0.0
 20
0.0
 30
0.0
 11
-1.0
 21
0.0
 31
0.0
  0
LINE
  5
5A
100
AcDbEntity
  8
0
  6
CONTINUOUS
 62
     0
100
AcDbLine
 10
-1.0
 20
0.25
 30
0.0
 11
0.0
 21
0.25
 31
0.0
  0
LINE
  5
5B
100
AcDbEntity
  8
0
  6
CONTINUOUS
 62
     0
100
AcDbLine
 10
-1.0
 20
0.125
 30
0.0
 11
0.0
 21
0.125
 31
0.0
  0
ENDBLK
  5
5C
100
AcDbEntity
  8
0
100
AcDbBlockEnd
  0
BLOCK
  5
5D
100
AcDbEntity
  8
0
100
AcDbBlockBegin
  2
_EX_WCIR
 70
     0
 10
0.0
 20
0.0
 30
0.0
  3
_EX_WCIR
  1

  0
LINE
  5
5E
100
AcDbEntity
  8
0
  6
CONTINUOUS
 62
     0
100
AcDbLine
 10
0.0
 20
0.0
 30
0.0
 11
-1.0
 21
0.0
 31
0.0
  0
CIRCLE
  5
5F
100
AcDbEntity
  8
0
  6
CONTINUOUS
 62
     0
100
AcDbCircle
 10
0.0
 20
0.0
 30
0.0
 40
0.5
  0
ENDBLK
  5
60
100
AcDbEntity
  8
0
100
AcDbBlockEnd
  0
BLOCK
  5
61
100
AcDbEntity
  8
0
100
AcDbBlockBegin
  2
_EX_WCIR2
 70
     0
 10
0.0
 20
0.0
 30
0.0
  3
_EX_WCIR2
  1

  0
LINE
  5
62
100
AcDbEntity
  8
0
  6
CONTINUOUS
 62
     0
100
AcDbLine
 10
-0.5
 20
0.0
 30
0.0
 11
-1.0
 21
0.0
 31
0.0
  0
CIRCLE
  5
63
100
AcDbEntity
  8
0
  6
CONTINUOUS
 62
     0
100
AcDbCircle
 10
0.0
 20
0.0
 30
0.0
 40
0.5
  0
ENDBLK
  5
64
100
AcDbEntity
  8
0
100
AcDbBlockEnd
  0
BLOCK
  5
65
100
AcDbEntity
  8
0
100
AcDbBlockBegin
  2
_EX_WNORM
 70
     0
 10
0.0
 20
0.0
 30
0.0
  3
_EX_WNORM
  1

  0
LINE
  5
66
100
AcDbEntity
  8
0
  6
CONTINUOUS
 62
     0
100
AcDbLine
 10
-1.0
 20
0.0
 30
0.0
 11
-1.0
 21
0.0
 31
0.0
  0
LINE
  5
67
100
AcDbEntity
  8
0
  6
CONTINUOUS
 62
     0
100
AcDbLine
 10
0.0
 20
0.0
 30
0.0
 11
-1.0
 21
0.166667
 31
0.0
  0
LINE
  5
68
100
AcDbEntity
  8
0
  6
CONTINUOUS
 62
     0
100
AcDbLine
 10
0.0
 20
0.0
 30
0.0
 11
-1.0
 21
-0.166667
 31
0.0
  0
LINE
  5
69
100
AcDbEntity
  8
0
  6
CONTINUOUS
 62
     0
100
AcDbLine
 10
-1.0
 20
0.166667
 30
0.0
 11
-1.0
 21
-0.166667
 31
0.0
  0
ENDBLK
  5
6A
100
AcDbEntity
  8
0
100
AcDbBlockEnd
  0
BLOCK
  5
6B
100
AcDbEntity
  8
0
100
AcDbBlockBegin
  2
_EX_NNORM
 70
     0
 10
0.0
 20
0.0
 30
0.0
  3
_EX_NNORM
  1

  0
LINE
  5
6C
100
AcDbEntity
  8
0
  6
CONTINUOUS
 62
     0
100
AcDbLine
 10
0.0
 20
0.0
 30
0.0
 11
-1.0
 21
0.0
 31
0.0
  0
LINE
  5
6D
100
AcDbEntity
  8
0
  6
CONTINUOUS
 62
     0
100
AcDbLine
 10
0.0
 20
0.0
 30
0.0
 11
-1.0
 21
0.166667
 31
0.0
  0
LINE
  5
6E
100
AcDbEntity
  8
0
  6
CONTINUOUS
 62
     0
100
AcDbLine
 10
0.0
 20
0.0
 30
0.0
 11
-1.0
 21
-0.166667
 31
0.0
  0
LINE
  5
6F
100
AcDbEntity
  8
0
  6
CONTINUOUS
 62
     0
100
AcDbLine
 10
-1.0
 20
0.166667
 30
0.0
 11
-1.0
 21
-0.166667
 31
0.0
  0
ENDBLK
  5
70
100
AcDbEntity
  8
0
100
AcDbBlockEnd
  0
BLOCK
  5
71
100
AcDbEntity
  8
0
100
AcDbBlockBegin
  2
_EX_BBOX
 70
     0
 10
0.0
 20
0.0
 30
0.0
  3
_EX_BBOX
  1

  0
LINE
  5
72
100
AcDbEntity
  8
0
  6
CONTINUOUS
 62
     0
100
AcDbLine
 10
0.0
 20
0.0
 30
0.0
 11
-1.0
 21
0.0
 31
0.0
  0
LINE
  5
73
100
AcDbEntity
  8
0
  6
CONTINUOUS
 62
     0
100
AcDbLine
 10
-0.5
 20
0.5
 30
0.0
 11
0.5
 21
0.5
 31
0.0
  0
LINE
  5
74
100
AcDbEntity
  8
0
  6
CONTINUOUS
 62
     0
100
AcDbLine
 10
0.5
 20
0.5
 30
0.0
 11
0.5
 21
-0.5
 31
0.0
  0
LINE
  5
75
100
AcDbEntity
  8
0
  6
CONTINUOUS
 62
     0
100
AcDbLine
 10
0.5
 20
-0.5
 30
0.0
 11
-0.5
 21
-0.5
 31
0.0
  0
LINE
  5
76
100
AcDbEntity
  8
0
  6
CONTINUOUS
 62
     0
100
AcDbLine
 10
-0.5
 20
-0.5
 30
0.0
 11
-0.5
 21
0.5
 31
0.0
  0
LINE
  5
77
100
AcDbEntity
  8
0
  6
CONTINUOUS
 62
     0
100
AcDbLine
 10
-0.25
 20
0.25
 30
0.0
 11
0.25
 21
0.25
 31
0.0
  0
LINE
  5
78
100
AcDbEntity
  8
0
  6
CONTINUOUS
 62
     0
100
AcDbLine
 10
0.25
 20
0.25
 30
0.0
 11
0.25
 21
-0.25
 31
0.0
  0
LINE
  5
79
100
AcDbEntity
  8
0
  6
CONTINUOUS
 62
     0
100
AcDbLine
 10
0.25
 20
-0.25
 30
0.0
 11
-0.25
 21
-0.25
 31
0.0
  0
LINE
  5
7A
100
AcDbEntity
  8
0
  6
CONTINUOUS
 62
     0
100
AcDbLine
 10
-0.25
 20
-0.25
 30
0.0
 11
-0.25
 21
0.25
 31
0.0
  0
ENDBLK
  5
7B
100
AcDbEntity
  8
0
100
AcDbBlockEnd
  0
BLOCK
  5
7C
100
AcDbEntity
  8
0
100
AcDbBlockBegin
  2
_EX_WBOX
 70
     0
 10
0.0
 20
0.0
 30
0.0
  3
_EX_WBOX
  1

  0
LINE
  5
7D
100
AcDbEntity
  8
0
  6
CONTINUOUS
 62
     0
100
AcDbLine
 10
-0.5
 20
0.0
 30
0.0
 11
-1.0
 21
0.0
 31
0.0
  0
LINE
  5
7E
100
AcDbEntity
  8
0
  6
CONTINUOUS
 62
     0
100
AcDbLine
 10
-0.5
 20
0.5
 30
0.0
 11
0.5
 21
0.5
 31
0.0
  0
LINE
  5
7F
100
AcDbEntity
  8
0
  6
CONTINUOUS
 62
     0
100
AcDbLine
 10
0.5
 20
0.5
 30
0.0
 11
0.5
 21
-0.5
 31
0.0
  0
LINE
  5
80
100
AcDbEntity
  8
0
  6
CONTINUOUS
 62
     0
100
AcDbLine
 10
0.5
 20
-0.5
 30
0.0
 11
-0.5
 21
-0.5
 31
0.0
  0
LINE
  5
81
100
AcDbEntity
  8
0
  6
CONTINUOUS
 62
     0
100
AcDbLine
 10
-0.5
 20
-0.5
 30
0.0
 11
-0.5
 21
0.5
 31
0.0
  0
ENDBLK
  5
82
100
AcDbEntity
  8
0
100
AcDbBlockEnd
  0
BLOCK
  5
83
100
AcDbEntity
  8
0
100
AcDbBlockBegin
  2
_EX_INTEGRAL
 70
     0
 10
0.0
 20
0.0
 30
0.0
  3
_EX_INTEGRAL
  1

  0
LINE
  5
84
100
AcDbEntity
  8
0
  6
CONTINUOUS
 62
     0
100
AcDbLine
 10
0.0
 20
0.0
 30
0.0
 11
-1.0
 21
0.0
 31
0.0
  0
ARC
  5
85
100
AcDbEntity
  8
0
  6
CONTINUOUS
 62
     0
100
AcDbCircle
 10
0.542115
 20
0.164992
 30
0.0
 40
0.56667
100
AcDbArc
 50
73.07249
 51
196.927513
  0
ARC
  5
86
100
AcDbEntity
  8
0
  6
CONTINUOUS
 62
     0
100
AcDbCircle
 10
-0.542115
 20
-0.164992
 30
0.0
 40
0.56667
100
AcDbArc
 50
253.072487
 51
16.927513
  0
ENDBLK
  5
87
100
AcDbEntity
  8
0
100
AcDbBlockEnd
  0
BLOCK
  5
173
100
AcDbEntity
  8
0
100
AcDbBlockBegin
  2
*D14
 70
    65
 10
0.0
 20
0.0
 30
0.0
  3
*D14
  1

  0
TEXT
  5
174
100
AcDbEntity
  8
LAY-2
  6
CONTINUOUS
 62
     2
100
AcDbText
 10
1618.879351
 20
1770.4
 30
0.0
 40
40.0
  1
57
 41
0.84
  7
EXCADSTD
 72
     1
 11
1648.279351
 21
1770.4
 31
0.0
100
AcDbText
  0
LINE
  5
175
100
AcDbEntity
  8
LAY-2
  6
CONTINUOUS
 62
     3
100
AcDbLine
 10
1526.279351
 20
1662.0
 30
0.0
 11
1526.279351
 21
1776.9
 31
0.0
  0
LINE
  5
176
100
AcDbEntity
  8
LAY-2
  6
CONTINUOUS
 62
     3
100
AcDbLine
 10
1496.279351
 20
1766.9
 30
0.0
 11
1686.779355
 21
1766.9
 31
0.0
  0
LINE
  5
177
100
AcDbEntity
  8
LAY-2
  6
CONTINUOUS
 62
     3
100
AcDbLine
 10
1496.279351
 20
1761.9
 30
0.0
 11
1526.279351
 21
1766.9
 31
0.0
  0
LINE
  5
178
100
AcDbEntity
  8
LAY-2
  6
CONTINUOUS
 62
     3
100
AcDbLine
 10
1526.279351
 20
1766.9
 30
0.0
 11
1496.279351
 21
1771.9
 31
0.0
  0
LINE
  5
179
100
AcDbEntity
  8
LAY-2
  6
CONTINUOUS
 62
     3
100
AcDbLine
 10
1613.279351
 20
1771.9
 30
0.0
 11
1583.279351
 21
1766.9
 31
0.0
  0
LINE
  5
17A
100
AcDbEntity
  8
LAY-2
  6
CONTINUOUS
 62
     3
100
AcDbLine
 10
1583.279351
 20
1766.9
 30
0.0
 11
1613.279351
 21
1761.9
 31
0.0
  0
ENDBLK
  5
17B
100
AcDbEntity
  8
0
100
AcDbBlockEnd
  0
BLOCK
  5
290
100
AcDbEntity
  8
0
100
AcDbBlockBegin
  2
*D15
 70
    65
 10
0.0
 20
0.0
 30
0.0
  3
*D15
  1

  0
LINE
  5
291
100
AcDbEntity
  8
LAY-3
  6
CONTINUOUS
 62
     3
100
AcDbLine
 10
608.101044
 20
2257.765787
 30
0.0
 11
608.101044
 21
2329.0
 31
0.0
  0
LINE
  5
292
100
AcDbEntity
  8
LAY-3
  6
CONTINUOUS
 62
     3
100
AcDbLine
 10
1108.101044
 20
2257.765787
 30
0.0
 11
1108.101044
 21
2329.0
 31
0.0
  0
LINE
  5
293
100
AcDbEntity
  8
LAY-3
  6
CONTINUOUS
 62
     3
100
AcDbLine
 10
608.101044
 20
2319.0
 30
0.0
 11
1108.101044
 21
2319.0
 31
0.0
  0
LINE
  5
294
100
AcDbEntity
  8
LAY-3
  6
CONTINUOUS
 62
     3
100
AcDbLine
 10
638.101044
 20
2324.0
 30
0.0
 11
608.101044
 21
2319.0
 31
0.0
  0
LINE
  5
295
100
AcDbEntity
  8
LAY-3
  6
CONTINUOUS
 62
     3
100
AcDbLine
 10
608.101044
 20
2319.0
 30
0.0
 11
638.101044
 21
2314.0
 31
0.0
  0
LINE
  5
296
100
AcDbEntity
  8
LAY-3
  6
CONTINUOUS
 62
     3
100
AcDbLine
 10
1078.101044
 20
2314.0
 30
0.0
 11
1108.101044
 21
2319.0
 31
0.0
  0
LINE
  5
297
100
AcDbEntity
  8
LAY-3
  6
CONTINUOUS
 62
     3
100
AcDbLine
 10
1108.101044
 20
2319.0
 30
0.0
 11
1078.101044
 21
2324.0
 31
0.0
  0
TEXT
  5
298
100
AcDbEntity
  8
LAY-3
  6
CONTINUOUS
 62
     2
100
AcDbText
 10
816.101044
 20
2322.5
 30
0.0
 40
40.0
  1
500
 41
0.84
  7
EXCADSTD
 72
     1
 11
858.101044
 21
2322.5
 31
0.0
100
AcDbText
  0
ENDBLK
  5
299
100
AcDbEntity
  8
0
100
AcDbBlockEnd
  0
BLOCK
  5
29C
100
AcDbEntity
  8
0
100
AcDbBlockBegin
  2
*D16
 70
    65
 10
0.0
 20
0.0
 30
0.0
  3
*D16
  1

  0
TEXT
  5
29D
100
AcDbEntity
  8
LAY-3
  6
CONTINUOUS
 62
     2
100
AcDbText
 10
661.101044
 20
1514.5
 30
0.0
 40
40.0
  1
%%c30
 41
0.84
  7
EXCADSTD
 72
     1
 11
703.101044
 21
1514.5
 31
0.0
100
AcDbText
  0
LINE
  5
29E
100
AcDbEntity
  8
LAY-3
  6
CONTINUOUS
 62
     3
100
AcDbLine
 10
563.101044
 20
1511.0
 30
0.0
 11
756.601047
 21
1511.0
 31
0.0
  0
LINE
  5
29F
100
AcDbEntity
  8
LAY-3
  6
CONTINUOUS
 62
     3
100
AcDbLine
 10
563.101044
 20
1506.0
 30
0.0
 11
593.101044
 21
1511.0
 31
0.0
  0
LINE
  5
2A0
100
AcDbEntity
  8
LAY-3
  6
CONTINUOUS
 62
     3
100
AcDbLine
 10
593.101044
 20
1511.0
 30
0.0
 11
563.101044
 21
1516.0
 31
0.0
  0
LINE
  5
2A1
100
AcDbEntity
  8
LAY-3
  6
CONTINUOUS
 62
     3
100
AcDbLine
 10
653.101044
 20
1516.0
 30
0.0
 11
623.101044
 21
1511.0
 31
0.0
  0
LINE
  5
2A2
100
AcDbEntity
  8
LAY-3
  6
CONTINUOUS
 62
     3
100
AcDbLine
 10
623.101044
 20
1511.0
 30
0.0
 11
653.101044
 21
1506.0
 31
0.0
  0
ENDBLK
  5
2A3
100
AcDbEntity
  8
0
100
AcDbBlockEnd
  0
BLOCK
  5
2A6
100
AcDbEntity
  8
0
100
AcDbBlockBegin
  2
*D17
 70
    65
 10
0.0
 20
0.0
 30
0.0
  3
*D17
  1

  0
LINE
  5
2A7
100
AcDbEntity
  8
LAY-3
  6
CONTINUOUS
 62
     3
100
AcDbLine
 10
1068.601044
 20
2214.472054
 30
0.0
 11
1068.601044
 21
2285.3
 31
0.0
  0
LINE
  5
2A8
100
AcDbEntity
  8
LAY-3
  6
CONTINUOUS
 62
     3
100
AcDbLine
 10
1130.101044
 20
2214.472054
 30
0.0
 11
1130.101044
 21
2285.3
 31
0.0
  0
LINE
  5
2A9
100
AcDbEntity
  8
LAY-3
  6
CONTINUOUS
 62
     3
100
AcDbLine
 10
1038.601044
 20
2275.3
 30
0.0
 11
1273.601047
 21
2275.3
 31
0.0
  0
LINE
  5
2AA
100
AcDbEntity
  8
LAY-3
  6
CONTINUOUS
 62
     3
100
AcDbLine
 10
1038.601044
 20
2270.3
 30
0.0
 11
1068.601044
 21
2275.3
 31
0.0
  0
LINE
  5
2AB
100
AcDbEntity
  8
LAY-3
  6
CONTINUOUS
 62
     3
100
AcDbLine
 10
1068.601044
 20
2275.3
 30
0.0
 11
1038.601044
 21
2280.3
 31
0.0
  0
LINE
  5
2AC
100
AcDbEntity
  8
LAY-3
  6
CONTINUOUS
 62
     3
100
AcDbLine
 10
1160.101044
 20
2280.3
 30
0.0
 11
1130.101044
 21
2275.3
 31
0.0
  0
LINE
  5
2AD
100
AcDbEntity
  8
LAY-3
  6
CONTINUOUS
 62
     3
100
AcDbLine
 10
1130.101044
 20
2275.3
 30
0.0
 11
1160.101044
 21
2270.3
 31
0.0
  0
TEXT
  5
2AE
100
AcDbEntity
  8
LAY-3
  6
CONTINUOUS
 62
     2
100
AcDbText
 10
1168.901044
 20
2278.8
 30
0.0
 40
40.0
  1
61.5
 41
0.84
  7
EXCADSTD
 72
     1
 11
1215.101044
 21
2278.8
 31
0.0
100
AcDbText
  0
ENDBLK
  5
2AF
100
AcDbEntity
  8
0
100
AcDbBlockEnd
  0
BLOCK
  5
2B2
100
AcDbEntity
  8
0
100
AcDbBlockBegin
  2
*D18
 70
    65
 10
0.0
 20
0.0
 30
0.0
  3
*D18
  1

  0
LINE
  5
2B3
100
AcDbEntity
  8
LAY-3
  6
CONTINUOUS
 62
     3
100
AcDbLine
 10
585.101044
 20
1103.0
 30
0.0
 11
585.101044
 21
1034.0
 31
0.0
  0
LINE
  5
2B4
100
AcDbEntity
  8
LAY-3
  6
CONTINUOUS
 62
     3
100
AcDbLine
 10
1130.101044
 20
1162.310149
 30
0.0
 11
1130.101044
 21
1034.0
 31
0.0
  0
TEXT
  5
2B5
100
AcDbEntity
  8
LAY-3
  6
CONTINUOUS
 62
     2
100
AcDbText
 10
815.601044
 20
1047.5
 30
0.0
 40
40.0
  1
545
 41
0.84
  7
EXCADSTD
 72
     1
 11
857.601044
 21
1047.5
 31
0.0
100
AcDbText
  0
LINE
  5
2B6
100
AcDbEntity
  8
LAY-3
  6
CONTINUOUS
 62
     3
100
AcDbLine
 10
585.101044
 20
1044.0
 30
0.0
 11
1130.101044
 21
1044.0
 31
0.0
  0
LINE
  5
2B7
100
AcDbEntity
  8
LAY-3
  6
CONTINUOUS
 62
     3
100
AcDbLine
 10
615.101044
 20
1049.0
 30
0.0
 11
585.101044
 21
1044.0
 31
0.0
  0
LINE
  5
2B8
100
AcDbEntity
  8
LAY-3
  6
CONTINUOUS
 62
     3
100
AcDbLine
 10
585.101044
 20
1044.0
 30
0.0
 11
615.101044
 21
1039.0
 31
0.0
  0
LINE
  5
2B9
100
AcDbEntity
  8
LAY-3
  6
CONTINUOUS
 62
     3
100
AcDbLine
 10
1100.101044
 20
1039.0
 30
0.0
 11
1130.101044
 21
1044.0
 31
0.0
  0
LINE
  5
2BA
100
AcDbEntity
  8
LAY-3
  6
CONTINUOUS
 62
     3
100
AcDbLine
 10
1130.101044
 20
1044.0
 30
0.0
 11
1100.101044
 21
1049.0
 31
0.0
  0
ENDBLK
  5
2BB
100
AcDbEntity
  8
0
100
AcDbBlockEnd
  0
BLOCK
  5
2BE
100
AcDbEntity
  8
0
100
AcDbBlockBegin
  2
*D19
 70
    65
 10
0.0
 20
0.0
 30
0.0
  3
*D19
  1

  0
LINE
  5
2BF
100
AcDbEntity
  8
LAY-3
  6
CONTINUOUS
 62
     3
100
AcDbLine
 10
644.837081
 20
1163.273893
 30
0.0
 11
510.101044
 21
1163.273893
 31
0.0
  0
LINE
  5
2C0
100
AcDbEntity
  8
LAY-3
  6
CONTINUOUS
 62
     3
100
AcDbLine
 10
580.101044
 20
1186.273893
 30
0.0
 11
510.101044
 21
1186.273893
 31
0.0
  0
TEXT
  5
2C1
100
AcDbEntity
  8
LAY-3
  6
CONTINUOUS
 62
     2
100
AcDbText
 10
516.601044
 20
1068.873893
 30
0.0
 40
40.0
  1
23
 50
90.0
 41
0.84
  7
EXCADSTD
 72
     1
 11
516.601044
 21
1098.273893
 31
0.0
100
AcDbText
  0
LINE
  5
2C2
100
AcDbEntity
  8
LAY-3
  6
CONTINUOUS
 62
     3
100
AcDbLine
 10
520.101044
 20
1059.773889
 30
0.0
 11
520.101044
 21
1216.273893
 31
0.0
  0
LINE
  5
2C3
100
AcDbEntity
  8
LAY-3
  6
CONTINUOUS
 62
     3
100
AcDbLine
 10
525.101044
 20
1133.273893
 30
0.0
 11
520.101044
 21
1163.273893
 31
0.0
  0
LINE
  5
2C4
100
AcDbEntity
  8
LAY-3
  6
CONTINUOUS
 62
     3
100
AcDbLine
 10
520.101044
 20
1163.273893
 30
0.0
 11
515.101044
 21
1133.273893
 31
0.0
  0
LINE
  5
2C5
100
AcDbEntity
  8
LAY-3
  6
CONTINUOUS
 62
     3
100
AcDbLine
 10
515.101044
 20
1216.273893
 30
0.0
 11
520.101044
 21
1186.273893
 31
0.0
  0
LINE
  5
2C6
100
AcDbEntity
  8
LAY-3
  6
CONTINUOUS
 62
     3
100
AcDbLine
 10
520.101044
 20
1186.273893
 30
0.0
 11
525.101044
 21
1216.273893
 31
0.0
  0
ENDBLK
  5
2C7
100
AcDbEntity
  8
0
100
AcDbBlockEnd
  0
BLOCK
  5
2CA
100
AcDbEntity
  8
0
100
AcDbBlockBegin
  2
*D20
 70
    65
 10
0.0
 20
0.0
 30
0.0
  3
*D20
  1

  0
LINE
  5
2CB
100
AcDbEntity
  8
LAY-3
  6
CONTINUOUS
 62
     3
100
AcDbLine
 10
1631.573084
 20
1186.273893
 30
0.0
 11
1691.0
 21
1186.273893
 31
0.0
  0
LINE
  5
2CC
100
AcDbEntity
  8
LAY-3
  6
CONTINUOUS
 62
     3
100
AcDbLine
 10
1625.279351
 20
1686.271076
 30
0.0
 11
1691.0
 21
1686.271076
 31
0.0
  0
TEXT
  5
2CD
100
AcDbEntity
  8
LAY-3
  6
CONTINUOUS
 62
     2
100
AcDbText
 10
1677.5
 20
1394.272485
 30
0.0
 40
40.0
  1
500
 50
90.0
 41
0.84
  7
EXCADSTD
 72
     1
 11
1677.5
 21
1436.272485
 31
0.0
100
AcDbText
  0
LINE
  5
2CE
100
AcDbEntity
  8
LAY-3
  6
CONTINUOUS
 62
     3
100
AcDbLine
 10
1681.0
 20
1186.273893
 30
0.0
 11
1681.0
 21
1686.271076
 31
0.0
  0
LINE
  5
2CF
100
AcDbEntity
  8
LAY-3
  6
CONTINUOUS
 62
     3
100
AcDbLine
 10
1676.0
 20
1216.273893
 30
0.0
 11
1681.0
 21
1186.273893
 31
0.0
  0
LINE
  5
2D0
100
AcDbEntity
  8
LAY-3
  6
CONTINUOUS
 62
     3
100
AcDbLine
 10
1681.0
 20
1186.273893
 30
0.0
 11
1686.0
 21
1216.273893
 31
0.0
  0
LINE
  5
2D1
100
AcDbEntity
  8
LAY-3
  6
CONTINUOUS
 62
     3
100
AcDbLine
 10
1686.0
 20
1656.271076
 30
0.0
 11
1681.0
 21
1686.271076
 31
0.0
  0
LINE
  5
2D2
100
AcDbEntity
  8
LAY-3
  6
CONTINUOUS
 62
     3
100
AcDbLine
 10
1681.0
 20
1686.271076
 30
0.0
 11
1676.0
 21
1656.271076
 31
0.0
  0
ENDBLK
  5
2D3
100
AcDbEntity
  8
0
100
AcDbBlockEnd
  0
BLOCK
  5
2D6
100
AcDbEntity
  8
0
100
AcDbBlockBegin
  2
*D21
 70
    65
 10
0.0
 20
0.0
 30
0.0
  3
*D21
  1

  0
LINE
  5
2D7
100
AcDbEntity
  8
LAY-3
  6
CONTINUOUS
 62
     3
100
AcDbLine
 10
579.101044
 20
1686.271076
 30
0.0
 11
510.101044
 21
1686.271076
 31
0.0
  0
LINE
  5
2D8
100
AcDbEntity
  8
LAY-3
  6
CONTINUOUS
 62
     3
100
AcDbLine
 10
584.1373
 20
1708.271076
 30
0.0
 11
510.101044
 21
1708.271076
 31
0.0
  0
TEXT
  5
2D9
100
AcDbEntity
  8
LAY-3
  6
CONTINUOUS
 62
     2
100
AcDbText
 10
516.601044
 20
1743.871076
 30
0.0
 40
40.0
  1
22
 50
90.0
 41
0.84
  7
EXCADSTD
 72
     1
 11
516.601044
 21
1773.271076
 31
0.0
100
AcDbText
  0
LINE
  5
2DA
100
AcDbEntity
  8
LAY-3
  6
CONTINUOUS
 62
     3
100
AcDbLine
 10
520.101044
 20
1656.271076
 30
0.0
 11
520.101044
 21
1811.77108
 31
0.0
  0
LINE
  5
2DB
100
AcDbEntity
  8
LAY-3
  6
CONTINUOUS
 62
     3
100
AcDbLine
 10
525.101044
 20
1656.271076
 30
0.0
 11
520.101044
 21
1686.271076
 31
0.0
  0
LINE
  5
2DC
100
AcDbEntity
  8
LAY-3
  6
CONTINUOUS
 62
     3
100
AcDbLine
 10
520.101044
 20
1686.271076
 30
0.0
 11
515.101044
 21
1656.271076
 31
0.0
  0
LINE
  5
2DD
100
AcDbEntity
  8
LAY-3
  6
CONTINUOUS
 62
     3
100
AcDbLine
 10
515.101044
 20
1738.271076
 30
0.0
 11
520.101044
 21
1708.271076
 31
0.0
  0
LINE
  5
2DE
100
AcDbEntity
  8
LAY-3
  6
CONTINUOUS
 62
     3
100
AcDbLine
 10
520.101044
 20
1708.271076
 30
0.0
 11
525.101044
 21
1738.271076
 31
0.0
  0
ENDBLK
  5
2DF
100
AcDbEntity
  8
0
100
AcDbBlockEnd
  0
BLOCK
  5
2E2
100
AcDbEntity
  8
0
100
AcDbBlockBegin
  2
*D22
 70
    65
 10
0.0
 20
0.0
 30
0.0
  3
*D22
  1

  0
LINE
  5
2E3
100
AcDbEntity
  8
LAY-3
  6
CONTINUOUS
 62
     3
100
AcDbLine
 10
515.101044
 20
1708.271076
 30
0.0
 11
458.0
 21
1708.271076
 31
0.0
  0
LINE
  5
2E4
100
AcDbEntity
  8
LAY-3
  6
CONTINUOUS
 62
     3
100
AcDbLine
 10
515.101044
 20
1163.273893
 30
0.0
 11
458.0
 21
1163.273893
 31
0.0
  0
TEXT
  5
2E5
100
AcDbEntity
  8
LAY-3
  6
CONTINUOUS
 62
     2
100
AcDbText
 10
464.5
 20
1393.772485
 30
0.0
 40
40.0
  1
545
 50
90.0
 41
0.84
  7
EXCADSTD
 72
     1
 11
464.5
 21
1435.772485
 31
0.0
100
AcDbText
  0
LINE
  5
2E6
100
AcDbEntity
  8
LAY-3
  6
CONTINUOUS
 62
     3
100
AcDbLine
 10
468.0
 20
1708.271076
 30
0.0
 11
468.0
 21
1163.273893
 31
0.0
  0
LINE
  5
2E7
100
AcDbEntity
  8
LAY-3
  6
CONTINUOUS
 62
     3
100
AcDbLine
 10
473.0
 20
1678.271076
 30
0.0
 11
468.0
 21
1708.271076
 31
0.0
  0
LINE
  5
2E8
100
AcDbEntity
  8
LAY-3
  6
CONTINUOUS
 62
     3
100
AcDbLine
 10
468.0
 20
1708.271076
 30
0.0
 11
463.0
 21
1678.271076
 31
0.0
  0
LINE
  5
2E9
100
AcDbEntity
  8
LAY-3
  6
CONTINUOUS
 62
     3
100
AcDbLine
 10
463.0
 20
1193.273893
 30
0.0
 11
468.0
 21
1163.273893
 31
0.0
  0
LINE
  5
2EA
100
AcDbEntity
  8
LAY-3
  6
CONTINUOUS
 62
     3
100
AcDbLine
 10
468.0
 20
1163.273893
 30
0.0
 11
473.0
 21
1193.273893
 31
0.0
  0
ENDBLK
  5
2EB
100
AcDbEntity
  8
0
100
AcDbBlockEnd
  0
BLOCK
  5
2EE
100
AcDbEntity
  8
0
100
AcDbBlockBegin
  2
*D23
 70
    65
 10
0.0
 20
0.0
 30
0.0
  3
*D23
  1

  0
LINE
  5
2EF
100
AcDbEntity
  8
LAY-3
  6
CONTINUOUS
 62
     3
100
AcDbLine
 10
1131.101044
 20
1162.273893
 30
0.0
 11
1198.2
 21
1162.273893
 31
0.0
  0
LINE
  5
2F0
100
AcDbEntity
  8
LAY-3
  6
CONTINUOUS
 62
     3
100
AcDbLine
 10
1131.101044
 20
1210.273893
 30
0.0
 11
1198.2
 21
1210.273893
 31
0.0
  0
TEXT
  5
2F1
100
AcDbEntity
  8
LAY-3
  6
CONTINUOUS
 62
     2
100
AcDbText
 10
1184.7
 20
1067.873893
 30
0.0
 40
40.0
  1
48
 50
90.0
 41
0.84
  7
EXCADSTD
 72
     1
 11
1184.7
 21
1097.273893
 31
0.0
100
AcDbText
  0
LINE
  5
2F2
100
AcDbEntity
  8
LAY-3
  6
CONTINUOUS
 62
     3
100
AcDbLine
 10
1188.2
 20
1058.773889
 30
0.0
 11
1188.2
 21
1240.273893
 31
0.0
  0
LINE
  5
2F3
100
AcDbEntity
  8
LAY-3
  6
CONTINUOUS
 62
     3
100
AcDbLine
 10
1193.2
 20
1132.273893
 30
0.0
 11
1188.2
 21
1162.273893
 31
0.0
  0
LINE
  5
2F4
100
AcDbEntity
  8
LAY-3
  6
CONTINUOUS
 62
     3
100
AcDbLine
 10
1188.2
 20
1162.273893
 30
0.0
 11
1183.2
 21
1132.273893
 31
0.0
  0
LINE
  5
2F5
100
AcDbEntity
  8
LAY-3
  6
CONTINUOUS
 62
     3
100
AcDbLine
 10
1183.2
 20
1240.273893
 30
0.0
 11
1188.2
 21
1210.273893
 31
0.0
  0
LINE
  5
2F6
100
AcDbEntity
  8
LAY-3
  6
CONTINUOUS
 62
     3
100
AcDbLine
 10
1188.2
 20
1210.273893
 30
0.0
 11
1193.2
 21
1240.273893
 31
0.0
  0
ENDBLK
  5
2F7
100
AcDbEntity
  8
0
100
AcDbBlockEnd
  0
BLOCK
  5
2FA
100
AcDbEntity
  8
0
100
AcDbBlockBegin
  2
*D24
 70
    65
 10
0.0
 20
0.0
 30
0.0
  3
*D24
  1

  0
LINE
  5
2FB
100
AcDbEntity
  8
LAY-3
  6
CONTINUOUS
 62
     3
100
AcDbLine
 10
584.101044
 20
1709.271076
 30
0.0
 11
584.101044
 21
1794.0
 31
0.0
  0
LINE
  5
2FC
100
AcDbEntity
  8
LAY-3
  6
CONTINUOUS
 62
     3
100
AcDbLine
 10
632.101044
 20
1709.271076
 30
0.0
 11
632.101044
 21
1794.0
 31
0.0
  0
TEXT
  5
2FD
100
AcDbEntity
  8
LAY-3
  6
CONTINUOUS
 62
     2
100
AcDbText
 10
667.701044
 20
1787.5
 30
0.0
 40
40.0
  1
48
 41
0.84
  7
EXCADSTD
 72
     1
 11
697.101044
 21
1787.5
 31
0.0
100
AcDbText
  0
LINE
  5
2FE
100
AcDbEntity
  8
LAY-3
  6
CONTINUOUS
 62
     3
100
AcDbLine
 10
554.101044
 20
1784.0
 30
0.0
 11
735.601047
 21
1784.0
 31
0.0
  0
LINE
  5
2FF
100
AcDbEntity
  8
LAY-3
  6
CONTINUOUS
 62
     3
100
AcDbLine
 10
554.101044
 20
1779.0
 30
0.0
 11
584.101044
 21
1784.0
 31
0.0
  0
LINE
  5
300
100
AcDbEntity
  8
LAY-3
  6
CONTINUOUS
 62
     3
100
AcDbLine
 10
584.101044
 20
1784.0
 30
0.0
 11
554.101044
 21
1789.0
 31
0.0
  0
LINE
  5
301
100
AcDbEntity
  8
LAY-3
  6
CONTINUOUS
 62
     3
100
AcDbLine
 10
662.101044
 20
1789.0
 30
0.0
 11
632.101044
 21
1784.0
 31
0.0
  0
LINE
  5
302
100
AcDbEntity
  8
LAY-3
  6
CONTINUOUS
 62
     3
100
AcDbLine
 10
632.101044
 20
1784.0
 30
0.0
 11
662.101044
 21
1779.0
 31
0.0
  0
ENDBLK
  5
303
100
AcDbEntity
  8
0
100
AcDbBlockEnd
  0
BLOCK
  5
306
100
AcDbEntity
  8
0
100
AcDbBlockBegin
  2
*D25
 70
    65
 10
0.0
 20
0.0
 30
0.0
  3
*D25
  1

  0
LINE
  5
307
100
AcDbEntity
  8
LAY-3
  6
CONTINUOUS
 62
     3
100
AcDbLine
 10
585.101044
 20
1202.773893
 30
0.0
 11
585.101044
 21
1096.7
 31
0.0
  0
LINE
  5
308
100
AcDbEntity
  8
LAY-3
  6
CONTINUOUS
 62
     3
100
AcDbLine
 10
651.601044
 20
1166.273893
 30
0.0
 11
651.601044
 21
1096.7
 31
0.0
  0
TEXT
  5
309
100
AcDbEntity
  8
LAY-3
  6
CONTINUOUS
 62
     2
100
AcDbText
 10
690.401044
 20
1110.2
 30
0.0
 40
40.0
  1
66.5
 41
0.84
  7
EXCADSTD
 72
     1
 11
736.601044
 21
1110.2
 31
0.0
100
AcDbText
  0
LINE
  5
30A
100
AcDbEntity
  8
LAY-3
  6
CONTINUOUS
 62
     3
100
AcDbLine
 10
555.101044
 20
1106.7
 30
0.0
 11
795.101047
 21
1106.7
 31
0.0
  0
LINE
  5
30B
100
AcDbEntity
  8
LAY-3
  6
CONTINUOUS
 62
     3
100
AcDbLine
 10
555.101044
 20
1101.7
 30
0.0
 11
585.101044
 21
1106.7
 31
0.0
  0
LINE
  5
30C
100
AcDbEntity
  8
LAY-3
  6
CONTINUOUS
 62
     3
100
AcDbLine
 10
585.101044
 20
1106.7
 30
0.0
 11
555.101044
 21
1111.7
 31
0.0
  0
LINE
  5
30D
100
AcDbEntity
  8
LAY-3
  6
CONTINUOUS
 62
     3
100
AcDbLine
 10
681.601044
 20
1111.7
 30
0.0
 11
651.601044
 21
1106.7
 31
0.0
  0
LINE
  5
30E
100
AcDbEntity
  8
LAY-3
  6
CONTINUOUS
 62
     3
100
AcDbLine
 10
651.601044
 20
1106.7
 30
0.0
 11
681.601044
 21
1101.7
 31
0.0
  0
ENDBLK
  5
30F
100
AcDbEntity
  8
0
100
AcDbBlockEnd
  0
ENDSEC
  0
SECTION
  2
ENTITIES
  0
LINE
  5
88
100
AcDbEntity
  8
LAY-1
  6
CONTINUOUS
 62
     7
100
AcDbLine
 10
179.0
 20
115.0
 30
0.0
 11
1999.0
 21
115.0
 31
0.0
  0
LINE
  5
89
100
AcDbEntity
  8
LAY-1
  6
CONTINUOUS
 62
     7
100
AcDbLine
 10
1999.0
 20
115.0
 30
0.0
 11
1999.0
 21
2915.0
 31
0.0
  0
LINE
  5
8A
100
AcDbEntity
  8
LAY-1
  6
CONTINUOUS
 62
     7
100
AcDbLine
 10
179.0
 20
115.0
 30
0.0
 11
179.0
 21
2915.0
 31
0.0
  0
LINE
  5
8B
100
AcDbEntity
  8
LAY-1
  6
CONTINUOUS
 62
     7
100
AcDbLine
 10
179.0
 20
2915.0
 30
0.0
 11
1999.0
 21
2915.0
 31
0.0
  0
LINE
  5
8C
100
AcDbEntity
  8
LAY-1
  6
CONTINUOUS
 62
     7
100
AcDbLine
 10
179.0
 20
335.0
 30
0.0
 11
1999.0
 21
335.0
 31
0.0
  0
LINE
  5
8D
100
AcDbEntity
  8
LAY-1
  6
CONTINUOUS
 62
     6
100
AcDbLine
 10
1999.0
 20
215.0
 30
0.0
 11
749.0
 21
215.0
 31
0.0
  0
LINE
  5
8E
100
AcDbEntity
  8
LAY-1
  6
CONTINUOUS
 62
     6
100
AcDbLine
 10
1859.0
 20
335.0
 30
0.0
 11
1859.0
 21
215.0
 31
0.0
  0
LINE
  5
8F
100
AcDbEntity
  8
LAY-1
  6
CONTINUOUS
 62
     6
100
AcDbLine
 10
1809.0
 20
335.0
 30
0.0
 11
1809.0
 21
215.0
 31
0.0
  0
LINE
  5
90
100
AcDbEntity
  8
LAY-1
  6
CONTINUOUS
 62
     6
100
AcDbLine
 10
1439.0
 20
335.0
 30
0.0
 11
1439.0
 21
115.0
 31
0.0
  0
LINE
  5
91
100
AcDbEntity
  8
LAY-1
  6
CONTINUOUS
 62
     6
100
AcDbLine
 10
1389.0
 20
335.0
 30
0.0
 11
1389.0
 21
115.0
 31
0.0
  0
LINE
  5
92
100
AcDbEntity
  8
LAY-1
  6
CONTINUOUS
 62
     6
100
AcDbLine
 10
799.0
 20
335.0
 30
0.0
 11
799.0
 21
215.0
 31
0.0
  0
LINE
  5
93
100
AcDbEntity
  8
LAY-1
  6
CONTINUOUS
 62
     6
100
AcDbLine
 10
749.0
 20
335.0
 30
0.0
 11
749.0
 21
115.0
 31
0.0
  0
LINE
  5
94
100
AcDbEntity
  8
LAY-1
  6
CONTINUOUS
 62
     6
100
AcDbLine
 10
619.0
 20
335.0
 30
0.0
 11
619.0
 21
115.0
 31
0.0
  0
LINE
  5
95
100
AcDbEntity
  8
LAY-1
  6
CONTINUOUS
 62
     6
100
AcDbLine
 10
489.0
 20
335.0
 30
0.0
 11
489.0
 21
115.0
 31
0.0
  0
LINE
  5
96
100
AcDbEntity
  8
LAY-1
  6
CONTINUOUS
 62
     6
100
AcDbLine
 10
334.0
 20
335.0
 30
0.0
 11
334.0
 21
115.0
 31
0.0
  0
LINE
  5
97
100
AcDbEntity
  8
LAY-1
  6
CONTINUOUS
 62
     6
100
AcDbLine
 10
179.0
 20
285.0
 30
0.0
 11
749.0
 21
285.0
 31
0.0
  0
LINE
  5
98
100
AcDbEntity
  8
LAY-1
  6
EXLTYPE2
 62
     6
100
AcDbLine
 10
179.0
 20
165.0
 30
0.0
 11
489.0
 21
165.0
 31
0.0
  0
CIRCLE
  5
99
100
AcDbEntity
  8
LAY-1
  6
CONTINUOUS
 62
     6
100
AcDbCircle
 10
384.0
 20
140.0
 30
0.0
 40
1.0
  0
CIRCLE
  5
9A
100
AcDbEntity
  8
LAY-1
  6
CONTINUOUS
 62
     6
100
AcDbCircle
 10
434.0
 20
140.0
 30
0.0
 40
1.0
  0
TEXT
  5
9B
100
AcDbEntity
  8
LAY-1
  6
CONTINUOUS
 62
     2
100
AcDbText
 10
201.5
 20
288.75
 30
0.0
 40
42.5
  1
製図
 41
1.087059
  7
EXCADSTD
 72
     5
 11
302.326
 21
288.75
 31
0.0
100
AcDbText
  0
TEXT
  5
9C
100
AcDbEntity
  8
LAY-1
  6
CONTINUOUS
 62
     2
100
AcDbText
 10
356.5
 20
288.75
 30
0.0
 40
42.5
  1
写図
 41
1.087059
  7
EXCADSTD
 72
     5
 11
457.326
 21
288.75
 31
0.0
100
AcDbText
  0
TEXT
  5
9D
100
AcDbEntity
  8
LAY-1
  6
CONTINUOUS
 62
     2
100
AcDbText
 10
506.5
 20
288.75
 30
0.0
 40
42.5
  1
検図
 41
0.938824
  7
EXCADSTD
 72
     5
 11
593.577
 21
288.75
 31
0.0
100
AcDbText
  0
TEXT
  5
9E
100
AcDbEntity
  8
LAY-1
  6
CONTINUOUS
 62
     2
100
AcDbText
 10
636.5
 20
288.75
 30
0.0
 40
42.5
  1
承認
 41
0.938824
  7
EXCADSTD
 72
     5
 11
723.577
 21
288.75
 31
0.0
100
AcDbText
  0
TEXT
  5
9F
100
AcDbEntity
  8
LAY-1
  6
CONTINUOUS
 62
     2
100
AcDbText
 10
754.75
 20
278.75
 30
0.0
 40
42.5
  1
品
 41
0.84
  7
EXCADSTD
 72
     5
 11
788.75
 21
278.75
 31
0.0
100
AcDbText
  0
TEXT
  5
A0
100
AcDbEntity
  8
LAY-1
  6
CONTINUOUS
 62
     2
100
AcDbText
 10
754.75
 20
228.75
 30
0.0
 40
42.5
  1
名
 41
0.84
  7
EXCADSTD
 72
     5
 11
788.75
 21
228.75
 31
0.0
100
AcDbText
  0
TEXT
  5
A1
100
AcDbEntity
  8
LAY-1
  6
CONTINUOUS
 62
     2
100
AcDbText
 10
1394.75
 20
278.75
 30
0.0
 40
42.5
  1
品
 41
0.84
  7
EXCADSTD
 72
     5
 11
1428.75
 21
278.75
 31
0.0
100
AcDbText
  0
TEXT
  5
A2
100
AcDbEntity
  8
LAY-1
  6
CONTINUOUS
 62
     2
100
AcDbText
 10
1394.75
 20
228.75
 30
0.0
 40
42.5
  1
番
 41
0.84
  7
EXCADSTD
 72
     5
 11
1428.75
 21
228.75
 31
0.0
100
AcDbText
  0
TEXT
  5
A3
100
AcDbEntity
  8
LAY-1
  6
CONTINUOUS
 62
     2
100
AcDbText
 10
1815.75
 20
278.75
 30
0.0
 40
42.5
  1
尺
 41
0.84
  7
EXCADSTD
 72
     5
 11
1849.75
 21
278.75
 31
0.0
100
AcDbText
  0
TEXT
  5
A4
100
AcDbEntity
  8
LAY-1
  6
CONTINUOUS
 62
     2
100
AcDbText
 10
1815.75
 20
228.75
 30
0.0
 40
42.5
  1
度
 41
0.84
  7
EXCADSTD
 72
     5
 11
1849.75
 21
228.75
 31
0.0
100
AcDbText
  0
TEXT
  5
A5
100
AcDbEntity
  8
LAY-1
  6
CONTINUOUS
 62
     2
100
AcDbText
 10
1394.75
 20
165.75
 30
0.0
 40
42.5
  1
図
 41
0.84
  7
EXCADSTD
 72
     5
 11
1428.75
 21
165.75
 31
0.0
100
AcDbText
  0
TEXT
  5
A6
100
AcDbEntity
  8
LAY-1
  6
CONTINUOUS
 62
     2
100
AcDbText
 10
1394.75
 20
122.75
 30
0.0
 40
42.5
  1
番
 41
0.84
  7
EXCADSTD
 72
     5
 11
1428.75
 21
122.75
 31
0.0
100
AcDbText
  0
CIRCLE
  5
A7
100
AcDbEntity
  8
LAY-1
  6
CONTINUOUS
 62
     6
100
AcDbCircle
 10
229.0
 20
140.0
 30
0.0
 40
1.0
  0
CIRCLE
  5
A8
100
AcDbEntity
  8
LAY-1
  6
CONTINUOUS
 62
     6
100
AcDbCircle
 10
279.0
 20
140.0
 30
0.0
 40
1.0
  0
TEXT
  5
A9
100
AcDbEntity
  8
LAY-1
  6
CONTINUOUS
 62
     2
100
AcDbText
 10
1891.692593
 20
284.9
 30
0.0
 40
40.0
  1
１
 41
1.05
  7
EXCADSTD
 72
     5
 11
1931.692593
 21
284.9
 31
0.0
100
AcDbText
  0
LINE
  5
AA
100
AcDbEntity
  8
LAY-1
  6
CONTINUOUS
 62
     6
100
AcDbLine
 10
1988.0
 20
313.125
 30
0.0
 11
1900.0
 21
238.875
 31
0.0
  0
LINE
  5
AB
100
AcDbEntity
  8
LAY-1
  6
EXLTYPE2
 62
     6
100
AcDbLine
 10
-1.0
 20
1515.0
 30
0.0
 11
179.0
 21
1515.0
 31
0.0
  0
TEXT
  5
AC
100
AcDbEntity
  8
LAY-1
  6
CONTINUOUS
 62
     2
100
AcDbText
 10
1925.292593
 20
223.7
 30
0.0
 40
40.0
  1
１０
 41
0.6825
  7
EXCADSTD
 72
     5
 11
1984.871593
 21
223.7
 31
0.0
100
AcDbText
  0
TEXT
  5
AE
100
AcDbEntity
  8
LAY-1
  6
CONTINUOUS
 62
     2
100
AcDbText
 10
769.0
 20
135.0
 30
0.0
 40
45.0
  1
ジャニス工業株式会社
  7
EXCADTTF1
 72
     5
 11
1369.0
 21
135.0
 31
0.0
100
AcDbText
  0
TEXT
  5
AF
100
AcDbEntity
  8
LAY-1
  6
CONTINUOUS
 62
     6
100
AcDbText
 10
205.5
 20
200.0
 30
0.0
 40
50.0
  1
間瀬
 41
0.8568
  7
EXCADSTD
 72
     5
 11
298.9932
 21
200.0
 31
0.0
100
AcDbText
  0
TEXT
  5
B0
100
AcDbEntity
  8
LAY-1
  6
CONTINUOUS
 62
     6
100
AcDbText
 10
181.044116
 20
126.950073
 30
0.0
 40
25.0
  1
２１
 41
0.75768
  7
EXCADSTD
 72
     5
 11
222.382775
 21
126.950073
 31
0.0
100
AcDbText
  0
TEXT
  5
B1
100
AcDbEntity
  8
LAY-1
  6
CONTINUOUS
 62
     6
100
AcDbText
 10
240.319116
 20
126.950073
 30
0.0
 40
25.0
  1
７
 41
0.89208
  7
EXCADSTD
 72
     5
 11
261.559116
 21
126.950073
 31
0.0
100
AcDbText
  0
TEXT
  5
B2
100
AcDbEntity
  8
LAY-1
  6
CONTINUOUS
 62
     6
100
AcDbText
 10
284.044116
 20
126.950073
 30
0.0
 40
25.0
  1
３０
 41
0.75768
  7
EXCADSTD
 72
     5
 11
325.382775
 21
126.950073
 31
0.0
100
AcDbText
  0
TEXT
  5
B3
100
AcDbEntity
  8
LAY-1
  6
CONTINUOUS
 62
     6
100
AcDbText
 10
633.5
 20
200.0
 30
0.0
 40
50.0
  1
古林
 41
0.8568
  7
EXCADSTD
 72
     5
 11
726.9932
 21
200.0
 31
0.0
100
AcDbText
  0
TEXT
  5
B4
100
AcDbEntity
  8
LAY-1
  6
CONTINUOUS
 62
     6
100
AcDbText
 10
490.499997
 20
200.0
 30
0.0
 40
50.0
  1
地名坊
 41
0.7168
  7
EXCADSTD
 72
     5
 11
618.500003
 21
200.0
 31
0.0
100
AcDbText
  0
TEXT
  5
B5
100
AcDbEntity
  8
LAY-1
  6
CONTINUOUS
 62
     7
100
AcDbText
 10
1516.500001
 20
131.5
 30
0.0
 40
70.0
  1
９６６６００
 41
0.81
  7
EXCADSTD
 72
     5
 11
1921.499999
 21
131.5
 31
0.0
100
AcDbText
  0
TEXT
  5
B6
100
AcDbEntity
  8
LAY-1
  6
CONTINUOUS
 62
     2
100
AcDbText
 10
830.000001
 20
247.5
 30
0.0
 40
55.0
  1
アクセサリーバーＬ型 
 41
0.8064
  7
EXCADSTD
 72
     5
 11
1357.999999
 21
247.5
 31
0.0
100
AcDbText
  0
TEXT
  5
B7
100
AcDbEntity
  8
LAY-1
  6
CONTINUOUS
 62
     2
100
AcDbText
 10
1506.5
 20
250.0
 30
0.0
 40
50.0
  1
ＮＡ１１Ｃ
 41
0.7896
  7
EXCADSTD
 72
     5
 11
1741.5
 21
250.0
 31
0.0
100
AcDbText
  0
LINE
  5
B8
100
AcDbEntity
  8
LAY-2
  6
CONTINUOUS
 62
     2
100
AcDbLine
 10
653.101044
 20
2209.472054
 30
0.0
 11
651.604738
 21
2170.568102
 31
0.0
  0
LINE
  5
B9
100
AcDbEntity
  8
LAY-2
  6
CONTINUOUS
 62
     2
100
AcDbLine
 10
651.601044
 20
2135.472054
 30
0.0
 11
651.601044
 21
2209.472054
 31
0.0
  0
LINE
  5
BA
100
AcDbEntity
  8
LAY-2
  6
CONTINUOUS
 62
     2
100
AcDbLine
 10
585.101044
 20
2209.472054
 30
0.0
 11
653.101044
 21
2209.472054
 31
0.0
  0
ARC
  5
BB
100
AcDbEntity
  8
LAY-2
  6
CONTINUOUS
 62
   230
100
AcDbCircle
 10
651.101044
 20
2135.472054
 30
0.0
 40
0.5
100
AcDbArc
 50
270.0
 51
0.0
  0
LINE
  5
BC
100
AcDbEntity
  8
LAY-2
  6
CONTINUOUS
 62
     2
100
AcDbLine
 10
651.601044
 20
2137.472054
 30
0.0
 11
1070.101044
 21
2137.472054
 31
0.0
  0
ARC
  5
BD
100
AcDbEntity
  8
LAY-2
  6
CONTINUOUS
 62
     2
100
AcDbCircle
 10
846.651044
 20
2166.772054
 30
0.0
 40
0.7
100
AcDbArc
 50
0.0
 51
90.0
  0
ARC
  5
BE
100
AcDbEntity
  8
LAY-2
  6
CONTINUOUS
 62
     2
100
AcDbCircle
 10
841.051044
 20
2166.772054
 30
0.0
 40
0.7
100
AcDbArc
 50
90.0
 51
180.0
  0
LINE
  5
BF
100
AcDbEntity
  8
LAY-2
  6
CONTINUOUS
 62
     2
100
AcDbLine
 10
835.351044
 20
2166.772054
 30
0.0
 11
840.351044
 21
2166.772054
 31
0.0
  0
LINE
  5
C0
100
AcDbEntity
  8
LAY-2
  6
CONTINUOUS
 62
     2
100
AcDbLine
 10
841.051044
 20
2167.472054
 30
0.0
 11
846.651044
 21
2167.472054
 31
0.0
  0
LINE
  5
C1
100
AcDbEntity
  8
LAY-2
  6
CONTINUOUS
 62
     2
100
AcDbLine
 10
835.351044
 20
2166.772054
 30
0.0
 11
830.351044
 21
2166.772054
 31
0.0
  0
ELLIPSE
  5
C2
100
AcDbEntity
  8
LAY-2
  6
CONTINUOUS
 62
     2
100
AcDbEllipse
 10
835.351044
 20
2166.772054
 30
0.0
 11
5.0
 21
0.0
 31
0.0
210
0.0
220
0.0
230
1.0
 40
0.305723
 41
3.1415926535897931
 42
0.0
  0
ELLIPSE
  5
C3
100
AcDbEntity
  8
LAY-2
  6
CONTINUOUS
 62
     2
100
AcDbEllipse
 10
852.351044
 20
2166.772054
 30
0.0
 11
5.0
 21
0.0
 31
0.0
210
0.0
220
0.0
230
1.0
 40
0.305723
 41
3.1415926535897931
 42
0.0
  0
LINE
  5
C4
100
AcDbEntity
  8
LAY-2
  6
CONTINUOUS
 62
     2
100
AcDbLine
 10
852.351044
 20
2166.772054
 30
0.0
 11
847.351044
 21
2166.772054
 31
0.0
  0
LINE
  5
C5
100
AcDbEntity
  8
LAY-2
  6
CONTINUOUS
 62
     2
100
AcDbLine
 10
705.051044
 20
2167.472054
 30
0.0
 11
710.651044
 21
2167.472054
 31
0.0
  0
ARC
  5
C6
100
AcDbEntity
  8
LAY-2
  6
CONTINUOUS
 62
     2
100
AcDbCircle
 10
829.651044
 20
2166.772054
 30
0.0
 40
0.7
100
AcDbArc
 50
0.0
 51
90.0
  0
LINE
  5
C7
100
AcDbEntity
  8
LAY-2
  6
CONTINUOUS
 62
     2
100
AcDbLine
 10
818.351044
 20
2166.772054
 30
0.0
 11
823.351044
 21
2166.772054
 31
0.0
  0
ARC
  5
C8
100
AcDbEntity
  8
LAY-2
  6
CONTINUOUS
 62
     2
100
AcDbCircle
 10
824.051044
 20
2166.772054
 30
0.0
 40
0.7
100
AcDbArc
 50
90.0
 51
180.0
  0
LINE
  5
C9
100
AcDbEntity
  8
LAY-2
  6
CONTINUOUS
 62
     2
100
AcDbLine
 10
824.051044
 20
2167.472054
 30
0.0
 11
829.651044
 21
2167.472054
 31
0.0
  0
ARC
  5
CA
100
AcDbEntity
  8
LAY-2
  6
CONTINUOUS
 62
     2
100
AcDbCircle
 10
812.651044
 20
2166.772054
 30
0.0
 40
0.7
100
AcDbArc
 50
0.0
 51
90.0
  0
ARC
  5
CB
100
AcDbEntity
  8
LAY-2
  6
CONTINUOUS
 62
     2
100
AcDbCircle
 10
807.051044
 20
2166.772054
 30
0.0
 40
0.7
100
AcDbArc
 50
90.0
 51
180.0
  0
LINE
  5
CC
100
AcDbEntity
  8
LAY-2
  6
CONTINUOUS
 62
     2
100
AcDbLine
 10
807.051044
 20
2167.472054
 30
0.0
 11
812.651044
 21
2167.472054
 31
0.0
  0
LINE
  5
CD
100
AcDbEntity
  8
LAY-2
  6
CONTINUOUS
 62
     2
100
AcDbLine
 10
801.351044
 20
2166.772054
 30
0.0
 11
796.351044
 21
2166.772054
 31
0.0
  0
ARC
  5
CE
100
AcDbEntity
  8
LAY-2
  6
CONTINUOUS
 62
     2
100
AcDbCircle
 10
795.651044
 20
2166.772054
 30
0.0
 40
0.7
100
AcDbArc
 50
0.0
 51
90.0
  0
ARC
  5
CF
100
AcDbEntity
  8
LAY-2
  6
CONTINUOUS
 62
     2
100
AcDbCircle
 10
790.051044
 20
2166.772054
 30
0.0
 40
0.7
100
AcDbArc
 50
90.0
 51
180.0
  0
LINE
  5
D0
100
AcDbEntity
  8
LAY-2
  6
CONTINUOUS
 62
     2
100
AcDbLine
 10
790.051044
 20
2167.472054
 30
0.0
 11
795.651044
 21
2167.472054
 31
0.0
  0
LINE
  5
D1
100
AcDbEntity
  8
LAY-2
  6
CONTINUOUS
 62
     2
100
AcDbLine
 10
801.351044
 20
2166.772054
 30
0.0
 11
806.351044
 21
2166.772054
 31
0.0
  0
ELLIPSE
  5
D2
100
AcDbEntity
  8
LAY-2
  6
CONTINUOUS
 62
     2
100
AcDbEllipse
 10
801.351044
 20
2166.772054
 30
0.0
 11
5.0
 21
0.0
 31
0.0
210
0.0
220
0.0
230
1.0
 40
0.305723
 41
3.1415926535897931
 42
0.0
  0
LINE
  5
D3
100
AcDbEntity
  8
LAY-2
  6
CONTINUOUS
 62
     2
100
AcDbLine
 10
784.351044
 20
2166.772054
 30
0.0
 11
779.351044
 21
2166.772054
 31
0.0
  0
ARC
  5
D4
100
AcDbEntity
  8
LAY-2
  6
CONTINUOUS
 62
     2
100
AcDbCircle
 10
778.651044
 20
2166.772054
 30
0.0
 40
0.7
100
AcDbArc
 50
0.0
 51
90.0
  0
ARC
  5
D5
100
AcDbEntity
  8
LAY-2
  6
CONTINUOUS
 62
     2
100
AcDbCircle
 10
773.051044
 20
2166.772054
 30
0.0
 40
0.7
100
AcDbArc
 50
90.0
 51
180.0
  0
LINE
  5
D6
100
AcDbEntity
  8
LAY-2
  6
CONTINUOUS
 62
     2
100
AcDbLine
 10
773.051044
 20
2167.472054
 30
0.0
 11
778.651044
 21
2167.472054
 31
0.0
  0
LINE
  5
D7
100
AcDbEntity
  8
LAY-2
  6
CONTINUOUS
 62
     2
100
AcDbLine
 10
767.351044
 20
2166.772054
 30
0.0
 11
762.351044
 21
2166.772054
 31
0.0
  0
ARC
  5
D8
100
AcDbEntity
  8
LAY-2
  6
CONTINUOUS
 62
     2
100
AcDbCircle
 10
756.051044
 20
2166.772054
 30
0.0
 40
0.7
100
AcDbArc
 50
90.0
 51
180.0
  0
LINE
  5
D9
100
AcDbEntity
  8
LAY-2
  6
CONTINUOUS
 62
     2
100
AcDbLine
 10
756.051044
 20
2167.472054
 30
0.0
 11
761.651044
 21
2167.472054
 31
0.0
  0
ARC
  5
DA
100
AcDbEntity
  8
LAY-2
  6
CONTINUOUS
 62
     2
100
AcDbCircle
 10
761.651044
 20
2166.772054
 30
0.0
 40
0.7
100
AcDbArc
 50
0.0
 51
90.0
  0
ELLIPSE
  5
DB
100
AcDbEntity
  8
LAY-2
  6
CONTINUOUS
 62
     2
100
AcDbEllipse
 10
767.351044
 20
2166.772054
 30
0.0
 11
5.0
 21
0.0
 31
0.0
210
0.0
220
0.0
230
1.0
 40
0.305723
 41
3.1415926535897931
 42
0.0
  0
LINE
  5
DC
100
AcDbEntity
  8
LAY-2
  6
CONTINUOUS
 62
     2
100
AcDbLine
 10
767.351044
 20
2166.772054
 30
0.0
 11
772.351044
 21
2166.772054
 31
0.0
  0
ELLIPSE
  5
DD
100
AcDbEntity
  8
LAY-2
  6
CONTINUOUS
 62
     2
100
AcDbEllipse
 10
784.351044
 20
2166.772054
 30
0.0
 11
5.0
 21
0.0
 31
0.0
210
0.0
220
0.0
230
1.0
 40
0.305723
 41
3.1415926535897931
 42
0.0
  0
LINE
  5
DE
100
AcDbEntity
  8
LAY-2
  6
CONTINUOUS
 62
     2
100
AcDbLine
 10
784.351044
 20
2166.772054
 30
0.0
 11
789.351044
 21
2166.772054
 31
0.0
  0
LINE
  5
DF
100
AcDbEntity
  8
LAY-2
  6
CONTINUOUS
 62
     2
100
AcDbLine
 10
739.051044
 20
2167.472054
 30
0.0
 11
744.651044
 21
2167.472054
 31
0.0
  0
ARC
  5
E0
100
AcDbEntity
  8
LAY-2
  6
CONTINUOUS
 62
     2
100
AcDbCircle
 10
739.051044
 20
2166.772054
 30
0.0
 40
0.7
100
AcDbArc
 50
90.0
 51
180.0
  0
ARC
  5
E1
100
AcDbEntity
  8
LAY-2
  6
CONTINUOUS
 62
     2
100
AcDbCircle
 10
744.651044
 20
2166.772054
 30
0.0
 40
0.7
100
AcDbArc
 50
0.0
 51
90.0
  0
LINE
  5
E2
100
AcDbEntity
  8
LAY-2
  6
CONTINUOUS
 62
     2
100
AcDbLine
 10
750.351044
 20
2166.772054
 30
0.0
 11
745.351044
 21
2166.772054
 31
0.0
  0
ARC
  5
E3
100
AcDbEntity
  8
LAY-2
  6
CONTINUOUS
 62
     2
100
AcDbCircle
 10
727.651044
 20
2166.772054
 30
0.0
 40
0.7
100
AcDbArc
 50
0.0
 51
90.0
  0
LINE
  5
E4
100
AcDbEntity
  8
LAY-2
  6
CONTINUOUS
 62
     2
100
AcDbLine
 10
722.051044
 20
2167.472054
 30
0.0
 11
727.651044
 21
2167.472054
 31
0.0
  0
LINE
  5
E5
100
AcDbEntity
  8
LAY-2
  6
CONTINUOUS
 62
     2
100
AcDbLine
 10
733.351044
 20
2166.772054
 30
0.0
 11
728.351044
 21
2166.772054
 31
0.0
  0
ELLIPSE
  5
E6
100
AcDbEntity
  8
LAY-2
  6
CONTINUOUS
 62
     2
100
AcDbEllipse
 10
733.351044
 20
2166.772054
 30
0.0
 11
5.0
 21
0.0
 31
0.0
210
0.0
220
0.0
230
1.0
 40
0.305723
 41
3.1415926535897931
 42
0.0
  0
LINE
  5
E7
100
AcDbEntity
  8
LAY-2
  6
CONTINUOUS
 62
     2
100
AcDbLine
 10
733.351044
 20
2166.772054
 30
0.0
 11
738.351044
 21
2166.772054
 31
0.0
  0
LINE
  5
E8
100
AcDbEntity
  8
LAY-2
  6
CONTINUOUS
 62
     2
100
AcDbLine
 10
716.351044
 20
2166.772054
 30
0.0
 11
721.351044
 21
2166.772054
 31
0.0
  0
ARC
  5
E9
100
AcDbEntity
  8
LAY-2
  6
CONTINUOUS
 62
     2
100
AcDbCircle
 10
710.651044
 20
2166.772054
 30
0.0
 40
0.7
100
AcDbArc
 50
0.0
 51
90.0
  0
ELLIPSE
  5
EA
100
AcDbEntity
  8
LAY-2
  6
CONTINUOUS
 62
     2
100
AcDbEllipse
 10
716.351044
 20
2166.772054
 30
0.0
 11
5.0
 21
0.0
 31
0.0
210
0.0
220
0.0
230
1.0
 40
0.305723
 41
3.1415926535897931
 42
0.0
  0
LINE
  5
EB
100
AcDbEntity
  8
LAY-2
  6
CONTINUOUS
 62
     2
100
AcDbLine
 10
716.351044
 20
2166.772054
 30
0.0
 11
711.351044
 21
2166.772054
 31
0.0
  0
ARC
  5
EC
100
AcDbEntity
  8
LAY-2
  6
CONTINUOUS
 62
     2
100
AcDbCircle
 10
722.051044
 20
2166.772054
 30
0.0
 40
0.7
100
AcDbArc
 50
90.0
 51
180.0
  0
ELLIPSE
  5
ED
100
AcDbEntity
  8
LAY-2
  6
CONTINUOUS
 62
     2
100
AcDbEllipse
 10
750.351044
 20
2166.772054
 30
0.0
 11
5.0
 21
0.0
 31
0.0
210
0.0
220
0.0
230
1.0
 40
0.305723
 41
3.1415926535897931
 42
0.0
  0
LINE
  5
EE
100
AcDbEntity
  8
LAY-2
  6
CONTINUOUS
 62
     2
100
AcDbLine
 10
750.351044
 20
2166.772054
 30
0.0
 11
755.351044
 21
2166.772054
 31
0.0
  0
ELLIPSE
  5
EF
100
AcDbEntity
  8
LAY-2
  6
CONTINUOUS
 62
     2
100
AcDbEllipse
 10
818.351044
 20
2166.772054
 30
0.0
 11
5.0
 21
0.0
 31
0.0
210
0.0
220
0.0
230
1.0
 40
0.305723
 41
3.1415926535897931
 42
0.0
  0
LINE
  5
F0
100
AcDbEntity
  8
LAY-2
  6
CONTINUOUS
 62
     2
100
AcDbLine
 10
818.351044
 20
2166.772054
 30
0.0
 11
813.351044
 21
2166.772054
 31
0.0
  0
ELLIPSE
  5
F1
100
AcDbEntity
  8
LAY-2
  6
CONTINUOUS
 62
     2
100
AcDbEllipse
 10
699.351044
 20
2166.772054
 30
0.0
 11
-5.0
 21
0.0000000000000006
 31
0.0
210
0.0
220
0.0
230
1.0
 40
0.305723
 41
0.0
 42
3.1415926535897931
  0
ARC
  5
F2
100
AcDbEntity
  8
LAY-2
  6
CONTINUOUS
 62
     2
100
AcDbCircle
 10
705.051044
 20
2166.772054
 30
0.0
 40
0.7
100
AcDbArc
 50
90.0
 51
180.0
  0
LINE
  5
F3
100
AcDbEntity
  8
LAY-2
  6
CONTINUOUS
 62
     2
100
AcDbLine
 10
699.351044
 20
2166.772054
 30
0.0
 11
704.351044
 21
2166.772054
 31
0.0
  0
ELLIPSE
  5
F4
100
AcDbEntity
  8
LAY-2
  6
CONTINUOUS
 62
     2
100
AcDbEllipse
 10
699.351044
 20
2166.772054
 30
0.0
 11
5.0
 21
0.0
 31
0.0
210
0.0
220
0.0
230
1.0
 40
0.305723
 41
3.1415926535897931
 42
0.0
  0
LINE
  5
F5
100
AcDbEntity
  8
LAY-2
  6
CONTINUOUS
 62
     2
100
AcDbLine
 10
699.351044
 20
2166.772054
 30
0.0
 11
694.351044
 21
2166.772054
 31
0.0
  0
ARC
  5
F6
100
AcDbEntity
  8
LAY-2
  6
CONTINUOUS
 62
     2
100
AcDbCircle
 10
654.051044
 20
2166.772054
 30
0.0
 40
0.7
100
AcDbArc
 50
90.0
 51
180.0
  0
LINE
  5
F7
100
AcDbEntity
  8
LAY-2
  6
CONTINUOUS
 62
     2
100
AcDbLine
 10
651.601044
 20
2166.772054
 30
0.0
 11
653.351044
 21
2166.772054
 31
0.0
  0
ELLIPSE
  5
F8
100
AcDbEntity
  8
LAY-2
  6
CONTINUOUS
 62
     2
100
AcDbEllipse
 10
648.351044
 20
2166.772054
 30
0.0
 11
5.0
 21
0.0
 31
0.0
210
0.0
220
0.0
230
1.0
 40
0.305723
 41
5.4199734171120806
 42
0.0
  0
ARC
  5
F9
100
AcDbEntity
  8
LAY-2
  6
CONTINUOUS
 62
     2
100
AcDbCircle
 10
688.051044
 20
2166.772054
 30
0.0
 40
0.7
100
AcDbArc
 50
90.0
 51
180.0
  0
LINE
  5
FA
100
AcDbEntity
  8
LAY-2
  6
CONTINUOUS
 62
     2
100
AcDbLine
 10
682.351044
 20
2166.772054
 30
0.0
 11
687.351044
 21
2166.772054
 31
0.0
  0
ARC
  5
FB
100
AcDbEntity
  8
LAY-2
  6
CONTINUOUS
 62
     2
100
AcDbCircle
 10
676.651044
 20
2166.772054
 30
0.0
 40
0.7
100
AcDbArc
 50
0.0
 51
90.0
  0
ARC
  5
FC
100
AcDbEntity
  8
LAY-2
  6
CONTINUOUS
 62
     2
100
AcDbCircle
 10
671.051044
 20
2166.772054
 30
0.0
 40
0.7
100
AcDbArc
 50
90.0
 51
180.0
  0
LINE
  5
FD
100
AcDbEntity
  8
LAY-2
  6
CONTINUOUS
 62
     2
100
AcDbLine
 10
665.351044
 20
2166.772054
 30
0.0
 11
670.351044
 21
2166.772054
 31
0.0
  0
LINE
  5
FE
100
AcDbEntity
  8
LAY-2
  6
CONTINUOUS
 62
     2
100
AcDbLine
 10
671.051044
 20
2167.472054
 30
0.0
 11
676.651044
 21
2167.472054
 31
0.0
  0
ARC
  5
FF
100
AcDbEntity
  8
LAY-2
  6
CONTINUOUS
 62
     2
100
AcDbCircle
 10
659.651044
 20
2166.772054
 30
0.0
 40
0.7
100
AcDbArc
 50
0.0
 51
90.0
  0
LINE
  5
100
100
AcDbEntity
  8
LAY-2
  6
CONTINUOUS
 62
     2
100
AcDbLine
 10
652.851044
 20
2166.772054
 30
0.0
 11
653.351044
 21
2166.772054
 31
0.0
  0
ARC
  5
101
100
AcDbEntity
  8
LAY-2
  6
CONTINUOUS
 62
     2
100
AcDbCircle
 10
654.051044
 20
2166.772054
 30
0.0
 40
0.7
100
AcDbArc
 50
90.0
 51
180.0
  0
LINE
  5
102
100
AcDbEntity
  8
LAY-2
  6
CONTINUOUS
 62
     2
100
AcDbLine
 10
654.051044
 20
2167.472054
 30
0.0
 11
659.651044
 21
2167.472054
 31
0.0
  0
LINE
  5
103
100
AcDbEntity
  8
LAY-2
  6
CONTINUOUS
 62
     2
100
AcDbLine
 10
665.351044
 20
2166.772054
 30
0.0
 11
660.351044
 21
2166.772054
 31
0.0
  0
ELLIPSE
  5
104
100
AcDbEntity
  8
LAY-2
  6
CONTINUOUS
 62
     2
100
AcDbEllipse
 10
665.351044
 20
2166.772054
 30
0.0
 11
5.0
 21
0.0
 31
0.0
210
0.0
220
0.0
230
1.0
 40
0.305723
 41
3.1415926535897931
 42
0.0
  0
ELLIPSE
  5
105
100
AcDbEntity
  8
LAY-2
  6
CONTINUOUS
 62
     2
100
AcDbEllipse
 10
682.351044
 20
2166.772054
 30
0.0
 11
5.0
 21
0.0
 31
0.0
210
0.0
220
0.0
230
1.0
 40
0.305723
 41
3.1415926535897931
 42
0.0
  0
LINE
  5
106
100
AcDbEntity
  8
LAY-2
  6
CONTINUOUS
 62
     2
100
AcDbLine
 10
682.351044
 20
2166.772054
 30
0.0
 11
677.351044
 21
2166.772054
 31
0.0
  0
ELLIPSE
  5
107
100
AcDbEntity
  8
LAY-2
  6
CONTINUOUS
 62
     2
100
AcDbEllipse
 10
648.351044
 20
2166.772054
 30
0.0
 11
5.0
 21
0.0
 31
0.0
210
0.0
220
0.0
230
1.0
 40
0.305723
 41
5.8321584953866124
 42
0.0
  0
LINE
  5
108
100
AcDbEntity
  8
LAY-2
  6
CONTINUOUS
 62
     2
100
AcDbLine
 10
688.051044
 20
2167.472054
 30
0.0
 11
693.651044
 21
2167.472054
 31
0.0
  0
ARC
  5
109
100
AcDbEntity
  8
LAY-2
  6
CONTINUOUS
 62
     2
100
AcDbCircle
 10
693.651044
 20
2166.772054
 30
0.0
 40
0.7
100
AcDbArc
 50
0.0
 51
90.0
  0
ARC
  5
10A
100
AcDbEntity
  8
LAY-2
  6
CONTINUOUS
 62
     2
100
AcDbCircle
 10
1062.051044
 20
2166.772054
 30
0.0
 40
0.7
100
AcDbArc
 50
90.0
 51
180.0
  0
LINE
  5
10B
100
AcDbEntity
  8
LAY-2
  6
CONTINUOUS
 62
     2
100
AcDbLine
 10
1056.351044
 20
2166.772054
 30
0.0
 11
1061.351044
 21
2166.772054
 31
0.0
  0
ARC
  5
10C
100
AcDbEntity
  8
LAY-2
  6
CONTINUOUS
 62
     2
100
AcDbCircle
 10
1050.651044
 20
2166.772054
 30
0.0
 40
0.7
100
AcDbArc
 50
0.0
 51
90.0
  0
ELLIPSE
  5
10D
100
AcDbEntity
  8
LAY-2
  6
CONTINUOUS
 62
     2
100
AcDbEllipse
 10
1056.351044
 20
2166.772054
 30
0.0
 11
5.0
 21
0.0
 31
0.0
210
0.0
220
0.0
230
1.0
 40
0.305723
 41
3.1415926535897931
 42
0.0
  0
LINE
  5
10E
100
AcDbEntity
  8
LAY-2
  6
CONTINUOUS
 62
     2
100
AcDbLine
 10
1056.351044
 20
2166.772054
 30
0.0
 11
1051.351044
 21
2166.772054
 31
0.0
  0
LINE
  5
10F
100
AcDbEntity
  8
LAY-2
  6
CONTINUOUS
 62
     2
100
AcDbLine
 10
1062.051044
 20
2167.472054
 30
0.0
 11
1067.651044
 21
2167.472054
 31
0.0
  0
ARC
  5
110
100
AcDbEntity
  8
LAY-2
  6
CONTINUOUS
 62
     2
100
AcDbCircle
 10
1067.651044
 20
2166.772054
 30
0.0
 40
0.7
100
AcDbArc
 50
0.0
 51
90.0
  0
ELLIPSE
  5
111
100
AcDbEntity
  8
LAY-2
  6
CONTINUOUS
 62
     2
100
AcDbEllipse
 10
1073.351044
 20
2166.772054
 30
0.0
 11
-5.0
 21
0.0000000000000006
 31
0.0
210
0.0
220
0.0
230
1.0
 40
0.305723
 41
0.0
 42
0.86321189006932
  0
ELLIPSE
  5
112
100
AcDbEntity
  8
LAY-2
  6
CONTINUOUS
 62
     2
100
AcDbEllipse
 10
1073.351044
 20
2166.772054
 30
0.0
 11
5.0
 21
0.0
 31
0.0
210
0.0
220
0.0
230
1.0
 40
0.305723
 41
3.1415926535897931
 42
4.004804543659116
  0
LINE
  5
113
100
AcDbEntity
  8
LAY-2
  6
CONTINUOUS
 62
     2
100
AcDbLine
 10
1070.101044
 20
2166.772054
 30
0.0
 11
1068.351044
 21
2166.772054
 31
0.0
  0
ARC
  5
114
100
AcDbEntity
  8
LAY-2
  6
CONTINUOUS
 62
     2
100
AcDbCircle
 10
1028.051044
 20
2166.772054
 30
0.0
 40
0.7
100
AcDbArc
 50
90.0
 51
180.0
  0
LINE
  5
115
100
AcDbEntity
  8
LAY-2
  6
CONTINUOUS
 62
     2
100
AcDbLine
 10
1022.351044
 20
2166.772054
 30
0.0
 11
1027.351044
 21
2166.772054
 31
0.0
  0
ARC
  5
116
100
AcDbEntity
  8
LAY-2
  6
CONTINUOUS
 62
     2
100
AcDbCircle
 10
1016.651044
 20
2166.772054
 30
0.0
 40
0.7
100
AcDbArc
 50
0.0
 51
90.0
  0
ARC
  5
117
100
AcDbEntity
  8
LAY-2
  6
CONTINUOUS
 62
     2
100
AcDbCircle
 10
1011.051044
 20
2166.772054
 30
0.0
 40
0.7
100
AcDbArc
 50
90.0
 51
180.0
  0
LINE
  5
118
100
AcDbEntity
  8
LAY-2
  6
CONTINUOUS
 62
     2
100
AcDbLine
 10
1005.351044
 20
2166.772054
 30
0.0
 11
1010.351044
 21
2166.772054
 31
0.0
  0
LINE
  5
119
100
AcDbEntity
  8
LAY-2
  6
CONTINUOUS
 62
     2
100
AcDbLine
 10
1011.051044
 20
2167.472054
 30
0.0
 11
1016.651044
 21
2167.472054
 31
0.0
  0
ARC
  5
11A
100
AcDbEntity
  8
LAY-2
  6
CONTINUOUS
 62
     2
100
AcDbCircle
 10
999.651044
 20
2166.772054
 30
0.0
 40
0.7
100
AcDbArc
 50
0.0
 51
90.0
  0
LINE
  5
11B
100
AcDbEntity
  8
LAY-2
  6
CONTINUOUS
 62
     2
100
AcDbLine
 10
988.351044
 20
2166.772054
 30
0.0
 11
993.351044
 21
2166.772054
 31
0.0
  0
ARC
  5
11C
100
AcDbEntity
  8
LAY-2
  6
CONTINUOUS
 62
     2
100
AcDbCircle
 10
994.051044
 20
2166.772054
 30
0.0
 40
0.7
100
AcDbArc
 50
90.0
 51
180.0
  0
LINE
  5
11D
100
AcDbEntity
  8
LAY-2
  6
CONTINUOUS
 62
     2
100
AcDbLine
 10
994.051044
 20
2167.472054
 30
0.0
 11
999.651044
 21
2167.472054
 31
0.0
  0
LINE
  5
11E
100
AcDbEntity
  8
LAY-2
  6
CONTINUOUS
 62
     2
100
AcDbLine
 10
1005.351044
 20
2166.772054
 30
0.0
 11
1000.351044
 21
2166.772054
 31
0.0
  0
ELLIPSE
  5
11F
100
AcDbEntity
  8
LAY-2
  6
CONTINUOUS
 62
     2
100
AcDbEllipse
 10
1005.351044
 20
2166.772054
 30
0.0
 11
5.0
 21
0.0
 31
0.0
210
0.0
220
0.0
230
1.0
 40
0.305723
 41
3.1415926535897931
 42
0.0
  0
ELLIPSE
  5
120
100
AcDbEntity
  8
LAY-2
  6
CONTINUOUS
 62
     2
100
AcDbEllipse
 10
1022.351044
 20
2166.772054
 30
0.0
 11
5.0
 21
0.0
 31
0.0
210
0.0
220
0.0
230
1.0
 40
0.305723
 41
3.1415926535897931
 42
0.0
  0
LINE
  5
121
100
AcDbEntity
  8
LAY-2
  6
CONTINUOUS
 62
     2
100
AcDbLine
 10
1022.351044
 20
2166.772054
 30
0.0
 11
1017.351044
 21
2166.772054
 31
0.0
  0
ARC
  5
122
100
AcDbEntity
  8
LAY-2
  6
CONTINUOUS
 62
     2
100
AcDbCircle
 10
982.651044
 20
2166.772054
 30
0.0
 40
0.7
100
AcDbArc
 50
0.0
 51
90.0
  0
ARC
  5
123
100
AcDbEntity
  8
LAY-2
  6
CONTINUOUS
 62
     2
100
AcDbCircle
 10
977.051044
 20
2166.772054
 30
0.0
 40
0.7
100
AcDbArc
 50
90.0
 51
180.0
  0
LINE
  5
124
100
AcDbEntity
  8
LAY-2
  6
CONTINUOUS
 62
     2
100
AcDbLine
 10
977.051044
 20
2167.472054
 30
0.0
 11
982.651044
 21
2167.472054
 31
0.0
  0
LINE
  5
125
100
AcDbEntity
  8
LAY-2
  6
CONTINUOUS
 62
     2
100
AcDbLine
 10
971.351044
 20
2166.772054
 30
0.0
 11
966.351044
 21
2166.772054
 31
0.0
  0
ARC
  5
126
100
AcDbEntity
  8
LAY-2
  6
CONTINUOUS
 62
     2
100
AcDbCircle
 10
965.651044
 20
2166.772054
 30
0.0
 40
0.7
100
AcDbArc
 50
0.0
 51
90.0
  0
ARC
  5
127
100
AcDbEntity
  8
LAY-2
  6
CONTINUOUS
 62
     2
100
AcDbCircle
 10
960.051044
 20
2166.772054
 30
0.0
 40
0.7
100
AcDbArc
 50
90.0
 51
180.0
  0
LINE
  5
128
100
AcDbEntity
  8
LAY-2
  6
CONTINUOUS
 62
     2
100
AcDbLine
 10
960.051044
 20
2167.472054
 30
0.0
 11
965.651044
 21
2167.472054
 31
0.0
  0
LINE
  5
129
100
AcDbEntity
  8
LAY-2
  6
CONTINUOUS
 62
     2
100
AcDbLine
 10
971.351044
 20
2166.772054
 30
0.0
 11
976.351044
 21
2166.772054
 31
0.0
  0
ELLIPSE
  5
12A
100
AcDbEntity
  8
LAY-2
  6
CONTINUOUS
 62
     2
100
AcDbEllipse
 10
971.351044
 20
2166.772054
 30
0.0
 11
5.0
 21
0.0
 31
0.0
210
0.0
220
0.0
230
1.0
 40
0.305723
 41
3.1415926535897931
 42
0.0
  0
LINE
  5
12B
100
AcDbEntity
  8
LAY-2
  6
CONTINUOUS
 62
     2
100
AcDbLine
 10
954.351044
 20
2166.772054
 30
0.0
 11
949.351044
 21
2166.772054
 31
0.0
  0
ARC
  5
12C
100
AcDbEntity
  8
LAY-2
  6
CONTINUOUS
 62
     2
100
AcDbCircle
 10
948.651044
 20
2166.772054
 30
0.0
 40
0.7
100
AcDbArc
 50
0.0
 51
90.0
  0
ARC
  5
12D
100
AcDbEntity
  8
LAY-2
  6
CONTINUOUS
 62
     2
100
AcDbCircle
 10
943.051044
 20
2166.772054
 30
0.0
 40
0.7
100
AcDbArc
 50
90.0
 51
180.0
  0
LINE
  5
12E
100
AcDbEntity
  8
LAY-2
  6
CONTINUOUS
 62
     2
100
AcDbLine
 10
943.051044
 20
2167.472054
 30
0.0
 11
948.651044
 21
2167.472054
 31
0.0
  0
LINE
  5
12F
100
AcDbEntity
  8
LAY-2
  6
CONTINUOUS
 62
     2
100
AcDbLine
 10
937.351044
 20
2166.772054
 30
0.0
 11
932.351044
 21
2166.772054
 31
0.0
  0
ARC
  5
130
100
AcDbEntity
  8
LAY-2
  6
CONTINUOUS
 62
     2
100
AcDbCircle
 10
926.051044
 20
2166.772054
 30
0.0
 40
0.7
100
AcDbArc
 50
90.0
 51
180.0
  0
LINE
  5
131
100
AcDbEntity
  8
LAY-2
  6
CONTINUOUS
 62
     2
100
AcDbLine
 10
926.051044
 20
2167.472054
 30
0.0
 11
931.651044
 21
2167.472054
 31
0.0
  0
ARC
  5
132
100
AcDbEntity
  8
LAY-2
  6
CONTINUOUS
 62
     2
100
AcDbCircle
 10
931.651044
 20
2166.772054
 30
0.0
 40
0.7
100
AcDbArc
 50
0.0
 51
90.0
  0
ELLIPSE
  5
133
100
AcDbEntity
  8
LAY-2
  6
CONTINUOUS
 62
     2
100
AcDbEllipse
 10
937.351044
 20
2166.772054
 30
0.0
 11
5.0
 21
0.0
 31
0.0
210
0.0
220
0.0
230
1.0
 40
0.305723
 41
3.1415926535897931
 42
0.0
  0
LINE
  5
134
100
AcDbEntity
  8
LAY-2
  6
CONTINUOUS
 62
     2
100
AcDbLine
 10
937.351044
 20
2166.772054
 30
0.0
 11
942.351044
 21
2166.772054
 31
0.0
  0
ELLIPSE
  5
135
100
AcDbEntity
  8
LAY-2
  6
CONTINUOUS
 62
     2
100
AcDbEllipse
 10
954.351044
 20
2166.772054
 30
0.0
 11
5.0
 21
0.0
 31
0.0
210
0.0
220
0.0
230
1.0
 40
0.305723
 41
3.1415926535897931
 42
0.0
  0
LINE
  5
136
100
AcDbEntity
  8
LAY-2
  6
CONTINUOUS
 62
     2
100
AcDbLine
 10
954.351044
 20
2166.772054
 30
0.0
 11
959.351044
 21
2166.772054
 31
0.0
  0
LINE
  5
137
100
AcDbEntity
  8
LAY-2
  6
CONTINUOUS
 62
     2
100
AcDbLine
 10
920.351044
 20
2166.772054
 30
0.0
 11
915.351044
 21
2166.772054
 31
0.0
  0
ELLIPSE
  5
138
100
AcDbEntity
  8
LAY-2
  6
CONTINUOUS
 62
     2
100
AcDbEllipse
 10
920.351044
 20
2166.772054
 30
0.0
 11
5.0
 21
0.0
 31
0.0
210
0.0
220
0.0
230
1.0
 40
0.305723
 41
3.1415926535897931
 42
0.0
  0
LINE
  5
139
100
AcDbEntity
  8
LAY-2
  6
CONTINUOUS
 62
     2
100
AcDbLine
 10
920.351044
 20
2166.772054
 30
0.0
 11
925.351044
 21
2166.772054
 31
0.0
  0
ELLIPSE
  5
13A
100
AcDbEntity
  8
LAY-2
  6
CONTINUOUS
 62
     2
100
AcDbEllipse
 10
988.351044
 20
2166.772054
 30
0.0
 11
5.0
 21
0.0
 31
0.0
210
0.0
220
0.0
230
1.0
 40
0.305723
 41
3.1415926535897931
 42
0.0
  0
LINE
  5
13B
100
AcDbEntity
  8
LAY-2
  6
CONTINUOUS
 62
     2
100
AcDbLine
 10
988.351044
 20
2166.772054
 30
0.0
 11
983.351044
 21
2166.772054
 31
0.0
  0
LINE
  5
13C
100
AcDbEntity
  8
LAY-2
  6
CONTINUOUS
 62
     2
100
AcDbLine
 10
1028.051044
 20
2167.472054
 30
0.0
 11
1033.651044
 21
2167.472054
 31
0.0
  0
ARC
  5
13D
100
AcDbEntity
  8
LAY-2
  6
CONTINUOUS
 62
     2
100
AcDbCircle
 10
1033.651044
 20
2166.772054
 30
0.0
 40
0.7
100
AcDbArc
 50
0.0
 51
90.0
  0
LINE
  5
13E
100
AcDbEntity
  8
LAY-2
  6
CONTINUOUS
 62
     2
100
AcDbLine
 10
1045.051044
 20
2167.472054
 30
0.0
 11
1050.651044
 21
2167.472054
 31
0.0
  0
ELLIPSE
  5
13F
100
AcDbEntity
  8
LAY-2
  6
CONTINUOUS
 62
     2
100
AcDbEllipse
 10
1039.351044
 20
2166.772054
 30
0.0
 11
-5.0
 21
0.0000000000000006
 31
0.0
210
0.0
220
0.0
230
1.0
 40
0.305723
 41
0.0
 42
3.1415926535897931
  0
ARC
  5
140
100
AcDbEntity
  8
LAY-2
  6
CONTINUOUS
 62
     2
100
AcDbCircle
 10
1045.051044
 20
2166.772054
 30
0.0
 40
0.7
100
AcDbArc
 50
90.0
 51
180.0
  0
LINE
  5
141
100
AcDbEntity
  8
LAY-2
  6
CONTINUOUS
 62
     2
100
AcDbLine
 10
1039.351044
 20
2166.772054
 30
0.0
 11
1044.351044
 21
2166.772054
 31
0.0
  0
ELLIPSE
  5
142
100
AcDbEntity
  8
LAY-2
  6
CONTINUOUS
 62
     2
100
AcDbEllipse
 10
1039.351044
 20
2166.772054
 30
0.0
 11
5.0
 21
0.0
 31
0.0
210
0.0
220
0.0
230
1.0
 40
0.305723
 41
3.1415926535897931
 42
0.0
  0
LINE
  5
143
100
AcDbEntity
  8
LAY-2
  6
CONTINUOUS
 62
     2
100
AcDbLine
 10
1039.351044
 20
2166.772054
 30
0.0
 11
1034.351044
 21
2166.772054
 31
0.0
  0
LINE
  5
144
100
AcDbEntity
  8
LAY-2
  6
CONTINUOUS
 62
     2
100
AcDbLine
 10
1087.874709
 20
2134.972054
 30
0.0
 11
1070.601044
 21
2134.972054
 31
0.0
  0
ARC
  5
145
100
AcDbEntity
  8
LAY-2
  6
CONTINUOUS
 62
     2
100
AcDbCircle
 10
1070.601044
 20
2135.472054
 30
0.0
 40
0.5
100
AcDbArc
 50
180.0
 51
270.0
  0
LINE
  5
146
100
AcDbEntity
  8
LAY-2
  6
CONTINUOUS
 62
     2
100
AcDbLine
 10
1068.601044
 20
2209.472054
 30
0.0
 11
1070.09735
 21
2170.568102
 31
0.0
  0
LINE
  5
147
100
AcDbEntity
  8
LAY-2
  6
CONTINUOUS
 62
     2
100
AcDbLine
 10
1070.101044
 20
2135.472054
 30
0.0
 11
1070.101044
 21
2209.472054
 31
0.0
  0
LINE
  5
148
100
AcDbEntity
  8
LAY-2
  6
CONTINUOUS
 62
     2
100
AcDbLine
 10
1130.101044
 20
2209.472054
 30
0.0
 11
1068.601044
 21
2209.472054
 31
0.0
  0
ARC
  5
149
100
AcDbEntity
  8
LAY-2
  6
CONTINUOUS
 62
     2
100
AcDbCircle
 10
848.625997
 20
2313.259328
 30
0.0
 40
300.0
100
AcDbArc
 50
323.927509
 51
339.759739
  0
ARC
  5
14A
100
AcDbEntity
  8
LAY-2
  6
CONTINUOUS
 62
     2
100
AcDbCircle
 10
1087.874709
 20
2138.972054
 30
0.0
 40
4.0
100
AcDbArc
 50
270.0
 51
323.927509
  0
ARC
  5
14B
100
AcDbEntity
  8
LAY-2
  6
CONTINUOUS
 62
     2
100
AcDbCircle
 10
858.051044
 20
2166.772054
 30
0.0
 40
0.7
100
AcDbArc
 50
90.0
 51
180.0
  0
LINE
  5
14C
100
AcDbEntity
  8
LAY-2
  6
CONTINUOUS
 62
     2
100
AcDbLine
 10
852.351044
 20
2166.772054
 30
0.0
 11
857.351044
 21
2166.772054
 31
0.0
  0
LINE
  5
14D
100
AcDbEntity
  8
LAY-2
  6
CONTINUOUS
 62
     2
100
AcDbLine
 10
858.051044
 20
2167.472054
 30
0.0
 11
863.651044
 21
2167.472054
 31
0.0
  0
ARC
  5
14E
100
AcDbEntity
  8
LAY-2
  6
CONTINUOUS
 62
     2
100
AcDbCircle
 10
863.651044
 20
2166.772054
 30
0.0
 40
0.7
100
AcDbArc
 50
0.0
 51
90.0
  0
LINE
  5
14F
100
AcDbEntity
  8
LAY-2
  6
CONTINUOUS
 62
     2
100
AcDbLine
 10
875.051044
 20
2167.472054
 30
0.0
 11
880.651044
 21
2167.472054
 31
0.0
  0
LINE
  5
150
100
AcDbEntity
  8
LAY-2
  6
CONTINUOUS
 62
     2
100
AcDbLine
 10
909.051044
 20
2167.472054
 30
0.0
 11
914.651044
 21
2167.472054
 31
0.0
  0
ARC
  5
151
100
AcDbEntity
  8
LAY-2
  6
CONTINUOUS
 62
     2
100
AcDbCircle
 10
909.051044
 20
2166.772054
 30
0.0
 40
0.7
100
AcDbArc
 50
90.0
 51
180.0
  0
ARC
  5
152
100
AcDbEntity
  8
LAY-2
  6
CONTINUOUS
 62
     2
100
AcDbCircle
 10
914.651044
 20
2166.772054
 30
0.0
 40
0.7
100
AcDbArc
 50
0.0
 51
90.0
  0
ARC
  5
153
100
AcDbEntity
  8
LAY-2
  6
CONTINUOUS
 62
     2
100
AcDbCircle
 10
897.651044
 20
2166.772054
 30
0.0
 40
0.7
100
AcDbArc
 50
0.0
 51
90.0
  0
LINE
  5
154
100
AcDbEntity
  8
LAY-2
  6
CONTINUOUS
 62
     2
100
AcDbLine
 10
892.051044
 20
2167.472054
 30
0.0
 11
897.651044
 21
2167.472054
 31
0.0
  0
LINE
  5
155
100
AcDbEntity
  8
LAY-2
  6
CONTINUOUS
 62
     2
100
AcDbLine
 10
903.351044
 20
2166.772054
 30
0.0
 11
898.351044
 21
2166.772054
 31
0.0
  0
ELLIPSE
  5
156
100
AcDbEntity
  8
LAY-2
  6
CONTINUOUS
 62
     2
100
AcDbEllipse
 10
903.351044
 20
2166.772054
 30
0.0
 11
5.0
 21
0.0
 31
0.0
210
0.0
220
0.0
230
1.0
 40
0.305723
 41
3.1415926535897931
 42
0.0
  0
LINE
  5
157
100
AcDbEntity
  8
LAY-2
  6
CONTINUOUS
 62
     2
100
AcDbLine
 10
903.351044
 20
2166.772054
 30
0.0
 11
908.351044
 21
2166.772054
 31
0.0
  0
LINE
  5
158
100
AcDbEntity
  8
LAY-2
  6
CONTINUOUS
 62
     2
100
AcDbLine
 10
886.351044
 20
2166.772054
 30
0.0
 11
891.351044
 21
2166.772054
 31
0.0
  0
ARC
  5
159
100
AcDbEntity
  8
LAY-2
  6
CONTINUOUS
 62
     2
100
AcDbCircle
 10
880.651044
 20
2166.772054
 30
0.0
 40
0.7
100
AcDbArc
 50
0.0
 51
90.0
  0
ELLIPSE
  5
15A
100
AcDbEntity
  8
LAY-2
  6
CONTINUOUS
 62
     2
100
AcDbEllipse
 10
886.351044
 20
2166.772054
 30
0.0
 11
5.0
 21
0.0
 31
0.0
210
0.0
220
0.0
230
1.0
 40
0.305723
 41
3.1415926535897931
 42
0.0
  0
LINE
  5
15B
100
AcDbEntity
  8
LAY-2
  6
CONTINUOUS
 62
     2
100
AcDbLine
 10
886.351044
 20
2166.772054
 30
0.0
 11
881.351044
 21
2166.772054
 31
0.0
  0
ARC
  5
15C
100
AcDbEntity
  8
LAY-2
  6
CONTINUOUS
 62
     2
100
AcDbCircle
 10
892.051044
 20
2166.772054
 30
0.0
 40
0.7
100
AcDbArc
 50
90.0
 51
180.0
  0
ELLIPSE
  5
15D
100
AcDbEntity
  8
LAY-2
  6
CONTINUOUS
 62
     2
100
AcDbEllipse
 10
869.351044
 20
2166.772054
 30
0.0
 11
-5.0
 21
0.0000000000000006
 31
0.0
210
0.0
220
0.0
230
1.0
 40
0.305723
 41
0.0
 42
3.1415926535897931
  0
ARC
  5
15E
100
AcDbEntity
  8
LAY-2
  6
CONTINUOUS
 62
     2
100
AcDbCircle
 10
875.051044
 20
2166.772054
 30
0.0
 40
0.7
100
AcDbArc
 50
90.0
 51
180.0
  0
LINE
  5
15F
100
AcDbEntity
  8
LAY-2
  6
CONTINUOUS
 62
     2
100
AcDbLine
 10
869.351044
 20
2166.772054
 30
0.0
 11
874.351044
 21
2166.772054
 31
0.0
  0
ELLIPSE
  5
160
100
AcDbEntity
  8
LAY-2
  6
CONTINUOUS
 62
     2
100
AcDbEllipse
 10
869.351044
 20
2166.772054
 30
0.0
 11
5.0
 21
0.0
 31
0.0
210
0.0
220
0.0
230
1.0
 40
0.305723
 41
3.1415926535897931
 42
0.0
  0
LINE
  5
161
100
AcDbEntity
  8
LAY-2
  6
CONTINUOUS
 62
     2
100
AcDbLine
 10
869.351044
 20
2166.772054
 30
0.0
 11
864.351044
 21
2166.772054
 31
0.0
  0
LINE
  5
162
100
AcDbEntity
  8
LAY-2
  6
CONTINUOUS
 62
     6
100
AcDbLine
 10
610.601044
 20
2237.141927
 30
0.0
 11
608.101044
 21
2246.472054
 31
0.0
  0
LINE
  5
163
100
AcDbEntity
  8
LAY-2
  6
CONTINUOUS
 62
     6
100
AcDbLine
 10
605.601044
 20
2237.141927
 30
0.0
 11
608.101044
 21
2246.472054
 31
0.0
  0
LINE
  5
164
100
AcDbEntity
  8
LAY-2
  6
CONTINUOUS
 62
     6
100
AcDbLine
 10
605.601044
 20
2237.141927
 30
0.0
 11
605.601044
 21
2209.472054
 31
0.0
  0
LINE
  5
165
100
AcDbEntity
  8
LAY-2
  6
CONTINUOUS
 62
     6
100
AcDbLine
 10
610.601044
 20
2209.472054
 30
0.0
 11
610.601044
 21
2237.141927
 31
0.0
  0
LINE
  5
166
100
AcDbEntity
  8
LAY-2
  6
EXLTYPE3
 62
   230
100
AcDbLine
 10
608.101044
 20
2206.465787
 30
0.0
 11
608.101044
 21
2252.765787
 31
0.0
  0
LINE
  5
167
100
AcDbEntity
  8
LAY-2
  6
CONTINUOUS
 62
     6
100
AcDbLine
 10
1110.601044
 20
2237.141927
 30
0.0
 11
1108.101044
 21
2246.472054
 31
0.0
  0
LINE
  5
168
100
AcDbEntity
  8
LAY-2
  6
CONTINUOUS
 62
     6
100
AcDbLine
 10
1105.601044
 20
2237.141927
 30
0.0
 11
1108.101044
 21
2246.472054
 31
0.0
  0
LINE
  5
169
100
AcDbEntity
  8
LAY-2
  6
CONTINUOUS
 62
     6
100
AcDbLine
 10
1105.601044
 20
2237.141927
 30
0.0
 11
1105.601044
 21
2209.472054
 31
0.0
  0
LINE
  5
16A
100
AcDbEntity
  8
LAY-2
  6
CONTINUOUS
 62
     6
100
AcDbLine
 10
1110.601044
 20
2209.472054
 30
0.0
 11
1110.601044
 21
2237.141927
 31
0.0
  0
LINE
  5
16B
100
AcDbEntity
  8
LAY-2
  6
EXLTYPE3
 62
   230
100
AcDbLine
 10
1108.101044
 20
2206.465787
 30
0.0
 11
1108.101044
 21
2252.765787
 31
0.0
  0
LINE
  5
16C
100
AcDbEntity
  8
LAY-2
  6
EXLTYPE4
 62
     1
100
AcDbLine
 10
1311.0
 20
2209.472054
 30
0.0
 11
502.0
 21
2209.472054
 31
0.0
  0
LINE
  5
16D
100
AcDbEntity
  8
LAY-2
  6
CONTINUOUS
 62
     2
100
AcDbLine
 10
1228.0
 20
2181.759241
 30
0.0
 11
1260.0
 21
2181.759241
 31
0.0
  0
LINE
  5
16E
100
AcDbEntity
  8
LAY-2
  6
CONTINUOUS
 62
     2
100
AcDbLine
 10
1244.0
 20
2209.472054
 30
0.0
 11
1228.0
 21
2181.759241
 31
0.0
  0
LINE
  5
16F
100
AcDbEntity
  8
LAY-2
  6
CONTINUOUS
 62
     2
100
AcDbLine
 10
1260.0
 20
2181.759241
 30
0.0
 11
1244.0
 21
2209.472054
 31
0.0
  0
TEXT
  5
170
100
AcDbEntity
  8
LAY-2
  6
CONTINUOUS
 62
     2
100
AcDbText
 10
1200.070255
 20
2128.886359
 30
0.0
 40
40.0
  1
ＷＬ
 41
0.945
  7
EXCADSTD
 72
     5
 11
1282.564255
 21
2128.886359
 31
0.0
100
AcDbText
  0
LINE
  5
171
100
AcDbEntity
  8
LAY-2
  6
EXLTYPE3
 62
     1
100
AcDbLine
 10
1090.171073
 20
2152.472054
 30
0.0
 11
642.0
 21
2152.472054
 31
0.0
  0
DIMENSION
  5
17D
100
AcDbEntity
  8
LAY-2
  6
CONTINUOUS
 62
     3
100
AcDbDimension
  2
*D14
 10
1583.279351
 20
1766.9
 30
0.0
 11
1648.279351
 21
1790.4
 31
0.0
 70
   160
  3
STANDARD
100
AcDbAlignedDimension
 13
1526.279351
 23
1657.0
 33
0.0
 14
1583.279351
 24
1711.2
 34
0.0
100
AcDbRotatedDimension
1001
ACAD
1000
DSTYLE
1002
{
1070
     6
1000
_EX_NORM
1070
     7
1000
_EX_NORM
1070
    41
1040
30.0
1070
    42
1040
5.0
1070
    44
1040
10.0
1070
    73
1070
     0
1070
    74
1070
     0
1070
    75
1070
     0
1070
    76
1070
     1
1070
    77
1070
     1
1070
    78
1070
     8
1070
   140
1040
40.0
1070
   147
1040
3.5
1070
   173
1070
     1
1070
   176
1070
     3
1070
   177
1070
     3
1070
   178
1070
     2
1070
   271
1070
     2
1070
   279
1070
     2
1070
   280
1070
     2
1070
   287
1070
     5
1070
   340
1005
17C
1002
}
  0
LINE
  5
17E
100
AcDbEntity
  8
LAY-2
  6
CONTINUOUS
 62
     7
100
AcDbLine
 10
1070.101044
 20
1171.273893
 30
0.0
 11
1070.101044
 21
1201.273893
 31
0.0
  0
LINE
  5
17F
100
AcDbEntity
  8
LAY-2
  6
CONTINUOUS
 62
     2
100
AcDbLine
 10
584.101044
 20
1704.271076
 30
0.0
 11
584.101044
 21
1650.044
 31
0.0
  0
LINE
  5
180
100
AcDbEntity
  8
LAY-2
  6
CONTINUOUS
 62
     2
100
AcDbLine
 10
632.101044
 20
1704.271076
 30
0.0
 11
632.101044
 21
1650.044
 31
0.0
  0
LINE
  5
181
100
AcDbEntity
  8
LAY-2
  6
CONTINUOUS
 62
     2
100
AcDbLine
 10
627.064787
 20
1708.271076
 30
0.0
 11
628.101044
 21
1708.271076
 31
0.0
  0
ARC
  5
182
100
AcDbEntity
  8
LAY-2
  6
CONTINUOUS
 62
     2
100
AcDbCircle
 10
628.101044
 20
1704.271076
 30
0.0
 40
4.0
100
AcDbArc
 50
0.0
 51
90.0
  0
LINE
  5
183
100
AcDbEntity
  8
LAY-2
  6
CONTINUOUS
 62
     2
100
AcDbLine
 10
589.1373
 20
1708.271076
 30
0.0
 11
588.101044
 21
1708.271076
 31
0.0
  0
ARC
  5
184
100
AcDbEntity
  8
LAY-2
  6
CONTINUOUS
 62
     2
100
AcDbCircle
 10
588.101044
 20
1704.271076
 30
0.0
 40
4.0
100
AcDbArc
 50
90.0
 51
180.0
  0
ARC
  5
185
100
AcDbEntity
  8
LAY-2
  6
CONTINUOUS
 62
     2
100
AcDbCircle
 10
608.101044
 20
1839.521076
 30
0.0
 40
192.75
100
AcDbArc
 50
263.377098
 51
265.536672
  0
ARC
  5
186
100
AcDbEntity
  8
LAY-2
  6
CONTINUOUS
 62
     2
100
AcDbCircle
 10
586.101044
 20
1650.044
 30
0.0
 40
2.0
100
AcDbArc
 50
180.0
 51
263.377098
  0
ARC
  5
187
100
AcDbEntity
  8
LAY-2
  6
CONTINUOUS
 62
     2
100
AcDbCircle
 10
630.101044
 20
1650.044
 30
0.0
 40
2.0
100
AcDbArc
 50
276.622902
 51
0.0
  0
LINE
  5
188
100
AcDbEntity
  8
LAY-2
  6
CONTINUOUS
 62
     2
100
AcDbLine
 10
631.026647
 20
1648.271076
 30
0.0
 11
585.17544
 21
1648.271076
 31
0.0
  0
ARC
  5
189
100
AcDbEntity
  8
LAY-2
  6
CONTINUOUS
 62
     2
100
AcDbCircle
 10
608.101044
 20
1839.521076
 30
0.0
 40
192.75
100
AcDbArc
 50
274.463328
 51
276.622902
  0
LINE
  5
18A
100
AcDbEntity
  8
LAY-2
  6
CONTINUOUS
 62
     2
100
AcDbLine
 10
589.1373
 20
1708.271076
 30
0.0
 11
604.501044
 21
1708.271076
 31
0.0
  0
LINE
  5
18B
100
AcDbEntity
  8
LAY-2
  6
CONTINUOUS
 62
     2
100
AcDbLine
 10
611.701044
 20
1707.646994
 30
0.0
 11
604.501044
 21
1707.646994
 31
0.0
  0
LINE
  5
18C
100
AcDbEntity
  8
LAY-2
  6
CONTINUOUS
 62
     2
100
AcDbLine
 10
604.501044
 20
1708.271076
 30
0.0
 11
604.501044
 21
1707.646994
 31
0.0
  0
LINE
  5
18D
100
AcDbEntity
  8
LAY-2
  6
CONTINUOUS
 62
     2
100
AcDbLine
 10
611.701044
 20
1708.271076
 30
0.0
 11
611.701044
 21
1707.646994
 31
0.0
  0
LINE
  5
18E
100
AcDbEntity
  8
LAY-2
  6
CONTINUOUS
 62
     2
100
AcDbLine
 10
611.701044
 20
1708.271076
 30
0.0
 11
627.064787
 21
1708.271076
 31
0.0
  0
LINE
  5
18F
100
AcDbEntity
  8
LAY-2
  6
CONTINUOUS
 62
     2
100
AcDbLine
 10
623.101044
 20
1648.271076
 30
0.0
 11
593.101044
 21
1648.271076
 31
0.0
  0
LINE
  5
190
100
AcDbEntity
  8
LAY-2
  6
CONTINUOUS
 62
     6
100
AcDbLine
 10
589.1373
 20
1708.271076
 30
0.0
 11
595.269575
 21
1678.550005
 31
0.0
  0
LINE
  5
191
100
AcDbEntity
  8
LAY-2
  6
CONTINUOUS
 62
     6
100
AcDbLine
 10
584.98417
 20
1703.951897
 30
0.0
 11
590.338601
 21
1677.76455
 31
0.0
  0
ELLIPSE
  5
192
100
AcDbEntity
  8
LAY-2
  6
CONTINUOUS
 62
     6
100
AcDbEllipse
 10
608.101044
 20
1679.156905
 30
0.0
 11
17.904222022997541
 21
0.0
 31
0.0
210
0.0
220
0.0
230
1.0
 40
0.619174
 41
3.2675229495590128
 42
4.7123889803844561
  0
ELLIPSE
  5
193
100
AcDbEntity
  8
LAY-2
  6
CONTINUOUS
 62
     6
100
AcDbEllipse
 10
608.101044
 20
1679.516844
 30
0.0
 11
12.930827016604322
 21
0.0
 31
0.0
210
0.0
220
0.0
230
1.0
 40
0.604311
 41
3.2656384542437538
 42
4.7123889803841923
  0
ELLIPSE
  5
194
100
AcDbEntity
  8
LAY-2
  6
CONTINUOUS
 62
     6
100
AcDbEllipse
 10
608.101044
 20
1679.156905
 30
0.0
 11
-17.904222022997541
 21
0.0000000000000022
 31
0.0
210
0.0
220
0.0
230
1.0
 40
0.619174
 41
1.5707963267951301
 42
3.0156623576205774
  0
ELLIPSE
  5
195
100
AcDbEntity
  8
LAY-2
  6
CONTINUOUS
 62
     6
100
AcDbEllipse
 10
608.101044
 20
1679.516844
 30
0.0
 11
-12.930827016604322
 21
0.0000000000000016
 31
0.0
210
0.0
220
0.0
230
1.0
 40
0.604311
 41
1.570796326795399
 42
3.0175468529358387
  0
LINE
  5
196
100
AcDbEntity
  8
LAY-2
  6
CONTINUOUS
 62
     6
100
AcDbLine
 10
627.064787
 20
1708.271076
 30
0.0
 11
620.932513
 21
1678.550005
 31
0.0
  0
LINE
  5
197
100
AcDbEntity
  8
LAY-2
  6
CONTINUOUS
 62
     6
100
AcDbLine
 10
631.217917
 20
1703.951897
 30
0.0
 11
625.863487
 21
1677.76455
 31
0.0
  0
LINE
  5
198
100
AcDbEntity
  8
LAY-2
  6
CONTINUOUS
 62
     2
100
AcDbLine
 10
593.101044
 20
1229.773893
 30
0.0
 11
593.101044
 21
1648.271076
 31
0.0
  0
LINE
  5
199
100
AcDbEntity
  8
LAY-2
  6
CONTINUOUS
 62
     2
100
AcDbLine
 10
623.101044
 20
1229.773893
 30
0.0
 11
623.101044
 21
1648.271076
 31
0.0
  0
LINE
  5
19A
100
AcDbEntity
  8
LAY-2
  6
EXLTYPE3
 62
     1
100
AcDbLine
 10
636.218668
 20
1686.271076
 30
0.0
 11
580.286444
 21
1686.271076
 31
0.0
  0
LINE
  5
19B
100
AcDbEntity
  8
LAY-2
  6
CONTINUOUS
 62
     2
100
AcDbLine
 10
627.100705
 20
1229.773893
 30
0.0
 11
586.158475
 21
1229.773893
 31
0.0
  0
ARC
  5
19C
100
AcDbEntity
  8
LAY-2
  6
CONTINUOUS
 62
     2
100
AcDbCircle
 10
608.101044
 20
1054.19056
 30
0.0
 40
177.083333
100
AcDbArc
 50
94.859112
 51
96.888806
  0
ARC
  5
19D
100
AcDbEntity
  8
LAY-2
  6
CONTINUOUS
 62
     2
100
AcDbCircle
 10
587.101044
 20
1228.00993
 30
0.0
 40
2.0
100
AcDbArc
 50
96.888806
 51
180.0
  0
ARC
  5
19E
100
AcDbEntity
  8
LAY-2
  6
CONTINUOUS
 62
     2
100
AcDbCircle
 10
608.101044
 20
1097.19056
 30
0.0
 40
134.083333
100
AcDbArc
 50
82.167496
 51
83.576834
  0
LINE
  5
19F
100
AcDbEntity
  8
LAY-2
  6
CONTINUOUS
 62
     2
100
AcDbLine
 10
585.101044
 20
1207.773893
 30
0.0
 11
585.101044
 21
1228.00993
 31
0.0
  0
ARC
  5
1A0
100
AcDbEntity
  8
LAY-2
  6
CONTINUOUS
 62
     2
100
AcDbCircle
 10
629.601044
 20
1207.773893
 30
0.0
 40
44.5
100
AcDbArc
 50
180.0
 51
270.0
  0
LINE
  5
1A1
100
AcDbEntity
  8
LAY-2
  6
CONTINUOUS
 62
     2
100
AcDbLine
 10
629.601044
 20
1163.273893
 30
0.0
 11
649.837081
 21
1163.273893
 31
0.0
  0
LINE
  5
1A2
100
AcDbEntity
  8
LAY-2
  6
CONTINUOUS
 62
     2
100
AcDbLine
 10
628.101044
 20
1208.973689
 30
0.0
 11
628.101044
 21
1228.041646
 31
0.0
  0
LINE
  5
1A3
100
AcDbEntity
  8
LAY-2
  6
CONTINUOUS
 62
     2
100
AcDbLine
 10
630.800839
 20
1206.273893
 30
0.0
 11
649.868797
 21
1206.273893
 31
0.0
  0
LINE
  5
1A4
100
AcDbEntity
  8
LAY-2
  6
CONTINUOUS
 62
     2
100
AcDbLine
 10
628.101044
 20
1210.573893
 30
0.0
 11
628.101044
 21
1207.773893
 31
0.0
  0
LINE
  5
1A5
100
AcDbEntity
  8
LAY-2
  6
CONTINUOUS
 62
     2
100
AcDbLine
 10
630.800839
 20
1206.273893
 30
0.0
 11
629.601044
 21
1206.273893
 31
0.0
  0
ARC
  5
1A6
100
AcDbEntity
  8
LAY-2
  6
CONTINUOUS
 62
     2
100
AcDbCircle
 10
629.601044
 20
1207.773893
 30
0.0
 40
1.5
100
AcDbArc
 50
180.0
 51
270.0
  0
ARC
  5
1A7
100
AcDbEntity
  8
LAY-2
  6
CONTINUOUS
 62
     2
100
AcDbCircle
 10
626.101044
 20
1228.041646
 30
0.0
 40
2.0
100
AcDbArc
 50
0.0
 51
82.167496
  0
ARC
  5
1A8
100
AcDbEntity
  8
LAY-2
  6
CONTINUOUS
 62
     2
100
AcDbCircle
 10
476.01771
 20
1186.273893
 30
0.0
 40
177.083333
100
AcDbArc
 50
353.111194
 51
355.140888
  0
LINE
  5
1A9
100
AcDbEntity
  8
LAY-2
  6
CONTINUOUS
 62
     2
100
AcDbLine
 10
651.601044
 20
1205.273554
 30
0.0
 11
651.601044
 21
1164.331324
 31
0.0
  0
ARC
  5
1AA
100
AcDbEntity
  8
LAY-2
  6
CONTINUOUS
 62
     2
100
AcDbCircle
 10
649.837081
 20
1165.273893
 30
0.0
 40
2.0
100
AcDbArc
 50
270.0
 51
353.111194
  0
ARC
  5
1AB
100
AcDbEntity
  8
LAY-2
  6
CONTINUOUS
 62
     2
100
AcDbCircle
 10
649.868797
 20
1204.273893
 30
0.0
 40
2.0
100
AcDbArc
 50
7.832504
 51
90.0
  0
ARC
  5
1AC
100
AcDbEntity
  8
LAY-2
  6
CONTINUOUS
 62
     2
100
AcDbCircle
 10
519.01771
 20
1186.273893
 30
0.0
 40
134.083333
100
AcDbArc
 50
6.423166
 51
7.832504
  0
LINE
  5
1AD
100
AcDbEntity
  8
LAY-2
  6
CONTINUOUS
 62
     2
100
AcDbLine
 10
651.601044
 20
1171.273893
 30
0.0
 11
1070.101044
 21
1171.273893
 31
0.0
  0
LINE
  5
1AE
100
AcDbEntity
  8
LAY-2
  6
CONTINUOUS
 62
     2
100
AcDbLine
 10
651.601044
 20
1201.273893
 30
0.0
 11
1070.101044
 21
1201.273893
 31
0.0
  0
LINE
  5
1AF
100
AcDbEntity
  8
LAY-2
  6
EXLTYPE3
 62
     1
100
AcDbLine
 10
1108.101044
 20
1180.189954
 30
0.0
 11
1108.101044
 21
1192.445378
 31
0.0
  0
LINE
  5
1B0
100
AcDbEntity
  8
LAY-2
  6
CONTINUOUS
 62
     2
100
AcDbLine
 10
1126.101044
 20
1210.273893
 30
0.0
 11
1071.873967
 21
1210.273893
 31
0.0
  0
ARC
  5
1B1
100
AcDbEntity
  8
LAY-2
  6
CONTINUOUS
 62
     2
100
AcDbCircle
 10
1071.873967
 20
1208.273893
 30
0.0
 40
2.0
100
AcDbArc
 50
90.0
 51
173.377098
  0
ARC
  5
1B2
100
AcDbEntity
  8
LAY-2
  6
CONTINUOUS
 62
     2
100
AcDbCircle
 10
1261.351044
 20
1186.273893
 30
0.0
 40
192.75
100
AcDbArc
 50
173.377098
 51
175.536672
  0
ARC
  5
1B3
100
AcDbEntity
  8
LAY-2
  6
CONTINUOUS
 62
     2
100
AcDbCircle
 10
1126.101044
 20
1206.273893
 30
0.0
 40
4.0
100
AcDbArc
 50
0.0
 51
90.0
  0
LINE
  5
1B4
100
AcDbEntity
  8
LAY-2
  6
CONTINUOUS
 62
     2
100
AcDbLine
 10
1070.101044
 20
1163.348289
 30
0.0
 11
1070.101044
 21
1209.199496
 31
0.0
  0
ARC
  5
1B5
100
AcDbEntity
  8
LAY-2
  6
CONTINUOUS
 62
     2
100
AcDbCircle
 10
1071.873967
 20
1164.273893
 30
0.0
 40
2.0
100
AcDbArc
 50
186.622902
 51
270.0
  0
ARC
  5
1B6
100
AcDbEntity
  8
LAY-2
  6
CONTINUOUS
 62
     2
100
AcDbCircle
 10
1261.351044
 20
1186.273893
 30
0.0
 40
192.75
100
AcDbArc
 50
184.463328
 51
186.622902
  0
ARC
  5
1B7
100
AcDbEntity
  8
LAY-2
  6
CONTINUOUS
 62
     2
100
AcDbCircle
 10
1126.101044
 20
1166.273893
 30
0.0
 40
4.0
100
AcDbArc
 50
270.0
 51
0.0
  0
LINE
  5
1B8
100
AcDbEntity
  8
LAY-2
  6
CONTINUOUS
 62
     2
100
AcDbLine
 10
1126.101044
 20
1162.273893
 30
0.0
 11
1071.873967
 21
1162.273893
 31
0.0
  0
LINE
  5
1B9
100
AcDbEntity
  8
LAY-2
  6
CONTINUOUS
 62
     2
100
AcDbLine
 10
1130.101044
 20
1182.673893
 30
0.0
 11
1130.101044
 21
1167.310149
 31
0.0
  0
LINE
  5
1BA
100
AcDbEntity
  8
LAY-2
  6
CONTINUOUS
 62
     2
100
AcDbLine
 10
1130.101044
 20
1205.237637
 30
0.0
 11
1130.101044
 21
1189.873893
 31
0.0
  0
LINE
  5
1BB
100
AcDbEntity
  8
LAY-2
  6
CONTINUOUS
 62
     2
100
AcDbLine
 10
1129.476962
 20
1182.673893
 30
0.0
 11
1129.476962
 21
1189.873893
 31
0.0
  0
LINE
  5
1BC
100
AcDbEntity
  8
LAY-2
  6
CONTINUOUS
 62
     2
100
AcDbLine
 10
1130.101044
 20
1182.673893
 30
0.0
 11
1129.476962
 21
1182.673893
 31
0.0
  0
LINE
  5
1BD
100
AcDbEntity
  8
LAY-2
  6
CONTINUOUS
 62
     2
100
AcDbLine
 10
1130.101044
 20
1189.873893
 30
0.0
 11
1129.476962
 21
1189.873893
 31
0.0
  0
LINE
  5
1BE
100
AcDbEntity
  8
LAY-2
  6
CONTINUOUS
 62
     2
100
AcDbLine
 10
1130.101044
 20
1205.237637
 30
0.0
 11
1130.101044
 21
1206.273893
 31
0.0
  0
LINE
  5
1BF
100
AcDbEntity
  8
LAY-2
  6
CONTINUOUS
 62
     2
100
AcDbLine
 10
1130.101044
 20
1167.310149
 30
0.0
 11
1130.101044
 21
1166.273893
 31
0.0
  0
LINE
  5
1C0
100
AcDbEntity
  8
LAY-2
  6
CONTINUOUS
 62
     6
100
AcDbLine
 10
1125.781865
 20
1209.390766
 30
0.0
 11
1099.594518
 21
1204.036336
 31
0.0
  0
ELLIPSE
  5
1C1
100
AcDbEntity
  8
LAY-2
  6
CONTINUOUS
 62
     6
100
AcDbEllipse
 10
1100.986873
 20
1186.273893
 30
0.0
 11
-0.0000000000000108
 21
17.904222022997221
 31
0.0
210
0.0
220
0.0
230
1.0
 40
0.619174
 41
0.1259302959701981
 42
1.5707963267949772
  0
ELLIPSE
  5
1C2
100
AcDbEntity
  8
LAY-2
  6
CONTINUOUS
 62
     6
100
AcDbEllipse
 10
1101.346812
 20
1186.273893
 30
0.0
 11
-0.0000000000000078
 21
12.93082701660823
 31
0.0
210
0.0
220
0.0
230
1.0
 40
0.604311
 41
0.1240458006543082
 42
1.570796326794597
  0
LINE
  5
1C3
100
AcDbEntity
  8
LAY-2
  6
CONTINUOUS
 62
     6
100
AcDbLine
 10
1130.101044
 20
1205.237637
 30
0.0
 11
1100.379972
 21
1199.105362
 31
0.0
  0
ELLIPSE
  5
1C4
100
AcDbEntity
  8
LAY-2
  6
CONTINUOUS
 62
     6
100
AcDbEllipse
 10
1101.346812
 20
1186.273893
 30
0.0
 11
-0.0000000000000078
 21
12.93082701660823
 31
0.0
210
0.0
220
0.0
230
1.0
 40
0.604311
 41
1.5707963267951952
 42
3.0175468529354852
  0
ELLIPSE
  5
1C5
100
AcDbEntity
  8
LAY-2
  6
CONTINUOUS
 62
     6
100
AcDbEllipse
 10
1100.986873
 20
1186.273893
 30
0.0
 11
-0.0000000000000108
 21
17.904222022997221
 31
0.0
210
0.0
220
0.0
230
1.0
 40
0.619174
 41
1.5707963267948171
 42
3.0156623576195951
  0
LINE
  5
1C6
100
AcDbEntity
  8
LAY-2
  6
CONTINUOUS
 62
     6
100
AcDbLine
 10
1125.781865
 20
1163.157019
 30
0.0
 11
1099.594518
 21
1168.51145
 31
0.0
  0
LINE
  5
1C7
100
AcDbEntity
  8
LAY-2
  6
CONTINUOUS
 62
     6
100
AcDbLine
 10
1130.101044
 20
1167.310149
 30
0.0
 11
1100.379972
 21
1173.442424
 31
0.0
  0
LINE
  5
1C8
100
AcDbEntity
  8
LAY-2
  6
CONTINUOUS
 62
     2
100
AcDbLine
 10
1509.279351
 20
1648.273893
 30
0.0
 11
1583.279351
 21
1648.273893
 31
0.0
  0
LINE
  5
1C9
100
AcDbEntity
  8
LAY-2
  6
CONTINUOUS
 62
     2
100
AcDbLine
 10
1583.279351
 20
1646.773893
 30
0.0
 11
1544.375398
 21
1648.270199
 31
0.0
  0
ARC
  5
1CA
100
AcDbEntity
  8
LAY-2
  6
CONTINUOUS
 62
     2
100
AcDbCircle
 10
1509.279351
 20
1648.773893
 30
0.0
 40
0.5
100
AcDbArc
 50
180.0
 51
270.0
  0
ARC
  5
1CB
100
AcDbEntity
  8
LAY-2
  6
CONTINUOUS
 62
     2
100
AcDbCircle
 10
1512.779351
 20
1666.047558
 30
0.0
 40
4.0
100
AcDbArc
 50
126.072491
 51
180.0
  0
LINE
  5
1CC
100
AcDbEntity
  8
LAY-2
  6
CONTINUOUS
 62
     2
100
AcDbLine
 10
1508.779351
 20
1666.047558
 30
0.0
 11
1508.779351
 21
1648.773893
 31
0.0
  0
ARC
  5
1CD
100
AcDbEntity
  8
LAY-2
  6
CONTINUOUS
 62
     2
100
AcDbCircle
 10
1687.066624
 20
1426.798846
 30
0.0
 40
300.0
100
AcDbArc
 50
110.240261
 51
126.072491
  0
LINE
  5
1CE
100
AcDbEntity
  8
LAY-2
  6
CONTINUOUS
 62
     2
100
AcDbLine
 10
1583.279351
 20
1708.273893
 30
0.0
 11
1583.279351
 21
1646.773893
 31
0.0
  0
LINE
  5
1CF
100
AcDbEntity
  8
LAY-2
  6
CONTINUOUS
 62
     2
100
AcDbLine
 10
1540.579351
 20
1617.523893
 30
0.0
 11
1540.579351
 21
1612.523893
 31
0.0
  0
ELLIPSE
  5
1D0
100
AcDbEntity
  8
LAY-2
  6
CONTINUOUS
 62
     2
100
AcDbEllipse
 10
1540.579351
 20
1617.523893
 30
0.0
 11
0.0000000000000035
 21
-5.0000000000000044
 31
0.0
210
0.0
220
0.0
230
1.0
 40
0.305723
 41
3.1415926535897931
 42
0.0
  0
LINE
  5
1D1
100
AcDbEntity
  8
LAY-2
  6
CONTINUOUS
 62
     2
100
AcDbLine
 10
1540.579351
 20
1617.523893
 30
0.0
 11
1540.579351
 21
1622.523893
 31
0.0
  0
ARC
  5
1D2
100
AcDbEntity
  8
LAY-2
  6
CONTINUOUS
 62
     2
100
AcDbCircle
 10
1540.579351
 20
1623.223893
 30
0.0
 40
0.7
100
AcDbArc
 50
270.0
 51
0.0
  0
ELLIPSE
  5
1D3
100
AcDbEntity
  8
LAY-2
  6
CONTINUOUS
 62
     2
100
AcDbEllipse
 10
1540.579351
 20
1617.523893
 30
0.0
 11
-0.000000000000003
 21
5.0000000000000044
 31
0.0
210
0.0
220
0.0
230
1.0
 40
0.305723
 41
0.0
 42
3.1415926535897931
  0
ARC
  5
1D4
100
AcDbEntity
  8
LAY-2
  6
CONTINUOUS
 62
     2
100
AcDbCircle
 10
1540.579351
 20
1611.823893
 30
0.0
 40
0.7
100
AcDbArc
 50
0.0
 51
90.0
  0
LINE
  5
1D5
100
AcDbEntity
  8
LAY-2
  6
CONTINUOUS
 62
     2
100
AcDbLine
 10
1541.279351
 20
1606.223893
 30
0.0
 11
1541.279351
 21
1611.823893
 31
0.0
  0
LINE
  5
1D6
100
AcDbEntity
  8
LAY-2
  6
CONTINUOUS
 62
     2
100
AcDbLine
 10
1540.579351
 20
1447.523893
 30
0.0
 11
1540.579351
 21
1442.523893
 31
0.0
  0
ELLIPSE
  5
1D7
100
AcDbEntity
  8
LAY-2
  6
CONTINUOUS
 62
     2
100
AcDbEllipse
 10
1540.579351
 20
1447.523893
 30
0.0
 11
0.0000000000000035
 21
-5.0000000000000044
 31
0.0
210
0.0
220
0.0
230
1.0
 40
0.305723
 41
3.1415926535897931
 42
0.0
  0
LINE
  5
1D8
100
AcDbEntity
  8
LAY-2
  6
CONTINUOUS
 62
     2
100
AcDbLine
 10
1540.579351
 20
1447.523893
 30
0.0
 11
1540.579351
 21
1452.523893
 31
0.0
  0
ARC
  5
1D9
100
AcDbEntity
  8
LAY-2
  6
CONTINUOUS
 62
     2
100
AcDbCircle
 10
1540.579351
 20
1453.223893
 30
0.0
 40
0.7
100
AcDbArc
 50
270.0
 51
0.0
  0
ELLIPSE
  5
1DA
100
AcDbEntity
  8
LAY-2
  6
CONTINUOUS
 62
     2
100
AcDbEllipse
 10
1540.579351
 20
1447.523893
 30
0.0
 11
-0.000000000000003
 21
5.0000000000000044
 31
0.0
210
0.0
220
0.0
230
1.0
 40
0.305723
 41
0.0
 42
3.1415926535897931
  0
LINE
  5
1DB
100
AcDbEntity
  8
LAY-2
  6
CONTINUOUS
 62
     2
100
AcDbLine
 10
1540.579351
 20
1566.523893
 30
0.0
 11
1540.579351
 21
1561.523893
 31
0.0
  0
ELLIPSE
  5
1DC
100
AcDbEntity
  8
LAY-2
  6
CONTINUOUS
 62
     2
100
AcDbEllipse
 10
1540.579351
 20
1566.523893
 30
0.0
 11
0.0000000000000035
 21
-5.0000000000000044
 31
0.0
210
0.0
220
0.0
230
1.0
 40
0.305723
 41
3.1415926535897931
 42
0.0
  0
LINE
  5
1DD
100
AcDbEntity
  8
LAY-2
  6
CONTINUOUS
 62
     2
100
AcDbLine
 10
1540.579351
 20
1498.523893
 30
0.0
 11
1540.579351
 21
1503.523893
 31
0.0
  0
ELLIPSE
  5
1DE
100
AcDbEntity
  8
LAY-2
  6
CONTINUOUS
 62
     2
100
AcDbEllipse
 10
1540.579351
 20
1498.523893
 30
0.0
 11
0.0000000000000035
 21
-5.0000000000000044
 31
0.0
210
0.0
220
0.0
230
1.0
 40
0.305723
 41
3.1415926535897931
 42
0.0
  0
ARC
  5
1DF
100
AcDbEntity
  8
LAY-2
  6
CONTINUOUS
 62
     2
100
AcDbCircle
 10
1540.579351
 20
1470.223893
 30
0.0
 40
0.7
100
AcDbArc
 50
270.0
 51
0.0
  0
LINE
  5
1E0
100
AcDbEntity
  8
LAY-2
  6
CONTINUOUS
 62
     2
100
AcDbLine
 10
1540.579351
 20
1464.523893
 30
0.0
 11
1540.579351
 21
1459.523893
 31
0.0
  0
ELLIPSE
  5
1E1
100
AcDbEntity
  8
LAY-2
  6
CONTINUOUS
 62
     2
100
AcDbEllipse
 10
1540.579351
 20
1464.523893
 30
0.0
 11
0.0000000000000035
 21
-5.0000000000000044
 31
0.0
210
0.0
220
0.0
230
1.0
 40
0.305723
 41
3.1415926535897931
 42
0.0
  0
ARC
  5
1E2
100
AcDbEntity
  8
LAY-2
  6
CONTINUOUS
 62
     2
100
AcDbCircle
 10
1540.579351
 20
1458.823893
 30
0.0
 40
0.7
100
AcDbArc
 50
0.0
 51
90.0
  0
LINE
  5
1E3
100
AcDbEntity
  8
LAY-2
  6
CONTINUOUS
 62
     2
100
AcDbLine
 10
1540.579351
 20
1464.523893
 30
0.0
 11
1540.579351
 21
1469.523893
 31
0.0
  0
LINE
  5
1E4
100
AcDbEntity
  8
LAY-2
  6
CONTINUOUS
 62
     2
100
AcDbLine
 10
1540.579351
 20
1481.523893
 30
0.0
 11
1540.579351
 21
1486.523893
 31
0.0
  0
ELLIPSE
  5
1E5
100
AcDbEntity
  8
LAY-2
  6
CONTINUOUS
 62
     2
100
AcDbEllipse
 10
1540.579351
 20
1481.523893
 30
0.0
 11
0.0000000000000035
 21
-5.0000000000000044
 31
0.0
210
0.0
220
0.0
230
1.0
 40
0.305723
 41
3.1415926535897931
 42
0.0
  0
LINE
  5
1E6
100
AcDbEntity
  8
LAY-2
  6
CONTINUOUS
 62
     2
100
AcDbLine
 10
1540.579351
 20
1481.523893
 30
0.0
 11
1540.579351
 21
1476.523893
 31
0.0
  0
LINE
  5
1E7
100
AcDbEntity
  8
LAY-2
  6
CONTINUOUS
 62
     2
100
AcDbLine
 10
1541.279351
 20
1470.223893
 30
0.0
 11
1541.279351
 21
1475.823893
 31
0.0
  0
ARC
  5
1E8
100
AcDbEntity
  8
LAY-2
  6
CONTINUOUS
 62
     2
100
AcDbCircle
 10
1540.579351
 20
1475.823893
 30
0.0
 40
0.7
100
AcDbArc
 50
0.0
 51
90.0
  0
LINE
  5
1E9
100
AcDbEntity
  8
LAY-2
  6
CONTINUOUS
 62
     2
100
AcDbLine
 10
1540.579351
 20
1498.523893
 30
0.0
 11
1540.579351
 21
1493.523893
 31
0.0
  0
ARC
  5
1EA
100
AcDbEntity
  8
LAY-2
  6
CONTINUOUS
 62
     2
100
AcDbCircle
 10
1540.579351
 20
1492.823893
 30
0.0
 40
0.7
100
AcDbArc
 50
0.0
 51
90.0
  0
ARC
  5
1EB
100
AcDbEntity
  8
LAY-2
  6
CONTINUOUS
 62
     2
100
AcDbCircle
 10
1540.579351
 20
1487.223893
 30
0.0
 40
0.7
100
AcDbArc
 50
270.0
 51
0.0
  0
LINE
  5
1EC
100
AcDbEntity
  8
LAY-2
  6
CONTINUOUS
 62
     2
100
AcDbLine
 10
1541.279351
 20
1487.223893
 30
0.0
 11
1541.279351
 21
1492.823893
 31
0.0
  0
LINE
  5
1ED
100
AcDbEntity
  8
LAY-2
  6
CONTINUOUS
 62
     2
100
AcDbLine
 10
1540.579351
 20
1532.523893
 30
0.0
 11
1540.579351
 21
1537.523893
 31
0.0
  0
ELLIPSE
  5
1EE
100
AcDbEntity
  8
LAY-2
  6
CONTINUOUS
 62
     2
100
AcDbEllipse
 10
1540.579351
 20
1532.523893
 30
0.0
 11
0.0000000000000035
 21
-5.0000000000000044
 31
0.0
210
0.0
220
0.0
230
1.0
 40
0.305723
 41
3.1415926535897931
 42
0.0
  0
LINE
  5
1EF
100
AcDbEntity
  8
LAY-2
  6
CONTINUOUS
 62
     2
100
AcDbLine
 10
1540.579351
 20
1515.523893
 30
0.0
 11
1540.579351
 21
1520.523893
 31
0.0
  0
ELLIPSE
  5
1F0
100
AcDbEntity
  8
LAY-2
  6
CONTINUOUS
 62
     2
100
AcDbEllipse
 10
1540.579351
 20
1515.523893
 30
0.0
 11
0.0000000000000035
 21
-5.0000000000000044
 31
0.0
210
0.0
220
0.0
230
1.0
 40
0.305723
 41
3.1415926535897931
 42
0.0
  0
ARC
  5
1F1
100
AcDbEntity
  8
LAY-2
  6
CONTINUOUS
 62
     2
100
AcDbCircle
 10
1540.579351
 20
1509.823893
 30
0.0
 40
0.7
100
AcDbArc
 50
0.0
 51
90.0
  0
LINE
  5
1F2
100
AcDbEntity
  8
LAY-2
  6
CONTINUOUS
 62
     2
100
AcDbLine
 10
1541.279351
 20
1504.223893
 30
0.0
 11
1541.279351
 21
1509.823893
 31
0.0
  0
ARC
  5
1F3
100
AcDbEntity
  8
LAY-2
  6
CONTINUOUS
 62
     2
100
AcDbCircle
 10
1540.579351
 20
1504.223893
 30
0.0
 40
0.7
100
AcDbArc
 50
270.0
 51
0.0
  0
LINE
  5
1F4
100
AcDbEntity
  8
LAY-2
  6
CONTINUOUS
 62
     2
100
AcDbLine
 10
1540.579351
 20
1515.523893
 30
0.0
 11
1540.579351
 21
1510.523893
 31
0.0
  0
LINE
  5
1F5
100
AcDbEntity
  8
LAY-2
  6
CONTINUOUS
 62
     2
100
AcDbLine
 10
1541.279351
 20
1521.223893
 30
0.0
 11
1541.279351
 21
1526.823893
 31
0.0
  0
ARC
  5
1F6
100
AcDbEntity
  8
LAY-2
  6
CONTINUOUS
 62
     2
100
AcDbCircle
 10
1540.579351
 20
1521.223893
 30
0.0
 40
0.7
100
AcDbArc
 50
270.0
 51
0.0
  0
ARC
  5
1F7
100
AcDbEntity
  8
LAY-2
  6
CONTINUOUS
 62
     2
100
AcDbCircle
 10
1540.579351
 20
1526.823893
 30
0.0
 40
0.7
100
AcDbArc
 50
0.0
 51
90.0
  0
LINE
  5
1F8
100
AcDbEntity
  8
LAY-2
  6
CONTINUOUS
 62
     2
100
AcDbLine
 10
1540.579351
 20
1532.523893
 30
0.0
 11
1540.579351
 21
1527.523893
 31
0.0
  0
ELLIPSE
  5
1F9
100
AcDbEntity
  8
LAY-2
  6
CONTINUOUS
 62
     2
100
AcDbEllipse
 10
1540.579351
 20
1549.523893
 30
0.0
 11
0.0000000000000035
 21
-5.0000000000000044
 31
0.0
210
0.0
220
0.0
230
1.0
 40
0.305723
 41
3.1415926535897931
 42
0.0
  0
LINE
  5
1FA
100
AcDbEntity
  8
LAY-2
  6
CONTINUOUS
 62
     2
100
AcDbLine
 10
1540.579351
 20
1549.523893
 30
0.0
 11
1540.579351
 21
1554.523893
 31
0.0
  0
LINE
  5
1FB
100
AcDbEntity
  8
LAY-2
  6
CONTINUOUS
 62
     2
100
AcDbLine
 10
1541.279351
 20
1538.223893
 30
0.0
 11
1541.279351
 21
1543.823893
 31
0.0
  0
ARC
  5
1FC
100
AcDbEntity
  8
LAY-2
  6
CONTINUOUS
 62
     2
100
AcDbCircle
 10
1540.579351
 20
1538.223893
 30
0.0
 40
0.7
100
AcDbArc
 50
270.0
 51
0.0
  0
ARC
  5
1FD
100
AcDbEntity
  8
LAY-2
  6
CONTINUOUS
 62
     2
100
AcDbCircle
 10
1540.579351
 20
1543.823893
 30
0.0
 40
0.7
100
AcDbArc
 50
0.0
 51
90.0
  0
LINE
  5
1FE
100
AcDbEntity
  8
LAY-2
  6
CONTINUOUS
 62
     2
100
AcDbLine
 10
1540.579351
 20
1549.523893
 30
0.0
 11
1540.579351
 21
1544.523893
 31
0.0
  0
LINE
  5
1FF
100
AcDbEntity
  8
LAY-2
  6
CONTINUOUS
 62
     2
100
AcDbLine
 10
1541.279351
 20
1555.223893
 30
0.0
 11
1541.279351
 21
1560.823893
 31
0.0
  0
ARC
  5
200
100
AcDbEntity
  8
LAY-2
  6
CONTINUOUS
 62
     2
100
AcDbCircle
 10
1540.579351
 20
1555.223893
 30
0.0
 40
0.7
100
AcDbArc
 50
270.0
 51
0.0
  0
ARC
  5
201
100
AcDbEntity
  8
LAY-2
  6
CONTINUOUS
 62
     2
100
AcDbCircle
 10
1540.579351
 20
1560.823893
 30
0.0
 40
0.7
100
AcDbArc
 50
0.0
 51
90.0
  0
LINE
  5
202
100
AcDbEntity
  8
LAY-2
  6
CONTINUOUS
 62
     2
100
AcDbLine
 10
1540.579351
 20
1600.523893
 30
0.0
 11
1540.579351
 21
1595.523893
 31
0.0
  0
ELLIPSE
  5
203
100
AcDbEntity
  8
LAY-2
  6
CONTINUOUS
 62
     2
100
AcDbEllipse
 10
1540.579351
 20
1600.523893
 30
0.0
 11
0.0000000000000035
 21
-5.0000000000000044
 31
0.0
210
0.0
220
0.0
230
1.0
 40
0.305723
 41
3.1415926535897931
 42
0.0
  0
ELLIPSE
  5
204
100
AcDbEntity
  8
LAY-2
  6
CONTINUOUS
 62
     2
100
AcDbEllipse
 10
1540.579351
 20
1583.523893
 30
0.0
 11
0.0000000000000035
 21
-5.0000000000000044
 31
0.0
210
0.0
220
0.0
230
1.0
 40
0.305723
 41
3.1415926535897931
 42
0.0
  0
LINE
  5
205
100
AcDbEntity
  8
LAY-2
  6
CONTINUOUS
 62
     2
100
AcDbLine
 10
1540.579351
 20
1583.523893
 30
0.0
 11
1540.579351
 21
1578.523893
 31
0.0
  0
LINE
  5
206
100
AcDbEntity
  8
LAY-2
  6
CONTINUOUS
 62
     2
100
AcDbLine
 10
1541.279351
 20
1572.223893
 30
0.0
 11
1541.279351
 21
1577.823893
 31
0.0
  0
ARC
  5
207
100
AcDbEntity
  8
LAY-2
  6
CONTINUOUS
 62
     2
100
AcDbCircle
 10
1540.579351
 20
1572.223893
 30
0.0
 40
0.7
100
AcDbArc
 50
270.0
 51
0.0
  0
LINE
  5
208
100
AcDbEntity
  8
LAY-2
  6
CONTINUOUS
 62
     2
100
AcDbLine
 10
1540.579351
 20
1566.523893
 30
0.0
 11
1540.579351
 21
1571.523893
 31
0.0
  0
ARC
  5
209
100
AcDbEntity
  8
LAY-2
  6
CONTINUOUS
 62
     2
100
AcDbCircle
 10
1540.579351
 20
1577.823893
 30
0.0
 40
0.7
100
AcDbArc
 50
0.0
 51
90.0
  0
LINE
  5
20A
100
AcDbEntity
  8
LAY-2
  6
CONTINUOUS
 62
     2
100
AcDbLine
 10
1541.279351
 20
1589.223893
 30
0.0
 11
1541.279351
 21
1594.823893
 31
0.0
  0
LINE
  5
20B
100
AcDbEntity
  8
LAY-2
  6
CONTINUOUS
 62
     2
100
AcDbLine
 10
1540.579351
 20
1583.523893
 30
0.0
 11
1540.579351
 21
1588.523893
 31
0.0
  0
ARC
  5
20C
100
AcDbEntity
  8
LAY-2
  6
CONTINUOUS
 62
     2
100
AcDbCircle
 10
1540.579351
 20
1589.223893
 30
0.0
 40
0.7
100
AcDbArc
 50
270.0
 51
0.0
  0
ARC
  5
20D
100
AcDbEntity
  8
LAY-2
  6
CONTINUOUS
 62
     2
100
AcDbCircle
 10
1540.579351
 20
1594.823893
 30
0.0
 40
0.7
100
AcDbArc
 50
0.0
 51
90.0
  0
LINE
  5
20E
100
AcDbEntity
  8
LAY-2
  6
CONTINUOUS
 62
     2
100
AcDbLine
 10
1540.579351
 20
1600.523893
 30
0.0
 11
1540.579351
 21
1605.523893
 31
0.0
  0
ARC
  5
20F
100
AcDbEntity
  8
LAY-2
  6
CONTINUOUS
 62
     2
100
AcDbCircle
 10
1540.579351
 20
1606.223893
 30
0.0
 40
0.7
100
AcDbArc
 50
270.0
 51
0.0
  0
LINE
  5
210
100
AcDbEntity
  8
LAY-2
  6
CONTINUOUS
 62
     2
100
AcDbLine
 10
1541.279351
 20
1453.223893
 30
0.0
 11
1541.279351
 21
1458.823893
 31
0.0
  0
ARC
  5
211
100
AcDbEntity
  8
LAY-2
  6
CONTINUOUS
 62
     2
100
AcDbCircle
 10
1540.579351
 20
1441.823893
 30
0.0
 40
0.7
100
AcDbArc
 50
0.0
 51
90.0
  0
LINE
  5
212
100
AcDbEntity
  8
LAY-2
  6
CONTINUOUS
 62
     2
100
AcDbLine
 10
1541.279351
 20
1436.223893
 30
0.0
 11
1541.279351
 21
1441.823893
 31
0.0
  0
LINE
  5
213
100
AcDbEntity
  8
LAY-2
  6
CONTINUOUS
 62
     2
100
AcDbLine
 10
1540.579351
 20
1277.523893
 30
0.0
 11
1540.579351
 21
1272.523893
 31
0.0
  0
ELLIPSE
  5
214
100
AcDbEntity
  8
LAY-2
  6
CONTINUOUS
 62
     2
100
AcDbEllipse
 10
1540.579351
 20
1277.523893
 30
0.0
 11
0.0000000000000035
 21
-5.0000000000000044
 31
0.0
210
0.0
220
0.0
230
1.0
 40
0.305723
 41
3.1415926535897931
 42
0.0
  0
LINE
  5
215
100
AcDbEntity
  8
LAY-2
  6
CONTINUOUS
 62
     2
100
AcDbLine
 10
1540.579351
 20
1277.523893
 30
0.0
 11
1540.579351
 21
1282.523893
 31
0.0
  0
ARC
  5
216
100
AcDbEntity
  8
LAY-2
  6
CONTINUOUS
 62
     2
100
AcDbCircle
 10
1540.579351
 20
1283.223893
 30
0.0
 40
0.7
100
AcDbArc
 50
270.0
 51
0.0
  0
ELLIPSE
  5
217
100
AcDbEntity
  8
LAY-2
  6
CONTINUOUS
 62
     2
100
AcDbEllipse
 10
1540.579351
 20
1277.523893
 30
0.0
 11
-0.000000000000003
 21
5.0000000000000044
 31
0.0
210
0.0
220
0.0
230
1.0
 40
0.305723
 41
0.0
 42
3.1415926535897931
  0
LINE
  5
218
100
AcDbEntity
  8
LAY-2
  6
CONTINUOUS
 62
     2
100
AcDbLine
 10
1540.579351
 20
1396.523893
 30
0.0
 11
1540.579351
 21
1391.523893
 31
0.0
  0
ELLIPSE
  5
219
100
AcDbEntity
  8
LAY-2
  6
CONTINUOUS
 62
     2
100
AcDbEllipse
 10
1540.579351
 20
1396.523893
 30
0.0
 11
0.0000000000000035
 21
-5.0000000000000044
 31
0.0
210
0.0
220
0.0
230
1.0
 40
0.305723
 41
3.1415926535897931
 42
0.0
  0
ARC
  5
21A
100
AcDbEntity
  8
LAY-2
  6
CONTINUOUS
 62
     2
100
AcDbCircle
 10
1540.579351
 20
1300.223893
 30
0.0
 40
0.7
100
AcDbArc
 50
270.0
 51
0.0
  0
LINE
  5
21B
100
AcDbEntity
  8
LAY-2
  6
CONTINUOUS
 62
     2
100
AcDbLine
 10
1540.579351
 20
1294.523893
 30
0.0
 11
1540.579351
 21
1289.523893
 31
0.0
  0
ELLIPSE
  5
21C
100
AcDbEntity
  8
LAY-2
  6
CONTINUOUS
 62
     2
100
AcDbEllipse
 10
1540.579351
 20
1294.523893
 30
0.0
 11
0.0000000000000035
 21
-5.0000000000000044
 31
0.0
210
0.0
220
0.0
230
1.0
 40
0.305723
 41
3.1415926535897931
 42
0.0
  0
ARC
  5
21D
100
AcDbEntity
  8
LAY-2
  6
CONTINUOUS
 62
     2
100
AcDbCircle
 10
1540.579351
 20
1288.823893
 30
0.0
 40
0.7
100
AcDbArc
 50
0.0
 51
90.0
  0
LINE
  5
21E
100
AcDbEntity
  8
LAY-2
  6
CONTINUOUS
 62
     2
100
AcDbLine
 10
1540.579351
 20
1294.523893
 30
0.0
 11
1540.579351
 21
1299.523893
 31
0.0
  0
ELLIPSE
  5
21F
100
AcDbEntity
  8
LAY-2
  6
CONTINUOUS
 62
     2
100
AcDbEllipse
 10
1540.579351
 20
1311.523893
 30
0.0
 11
0.0000000000000035
 21
-5.0000000000000044
 31
0.0
210
0.0
220
0.0
230
1.0
 40
0.305723
 41
3.1415926535897931
 42
0.0
  0
LINE
  5
220
100
AcDbEntity
  8
LAY-2
  6
CONTINUOUS
 62
     2
100
AcDbLine
 10
1540.579351
 20
1311.523893
 30
0.0
 11
1540.579351
 21
1306.523893
 31
0.0
  0
LINE
  5
221
100
AcDbEntity
  8
LAY-2
  6
CONTINUOUS
 62
     2
100
AcDbLine
 10
1541.279351
 20
1300.223893
 30
0.0
 11
1541.279351
 21
1305.823893
 31
0.0
  0
ARC
  5
222
100
AcDbEntity
  8
LAY-2
  6
CONTINUOUS
 62
     2
100
AcDbCircle
 10
1540.579351
 20
1305.823893
 30
0.0
 40
0.7
100
AcDbArc
 50
0.0
 51
90.0
  0
ELLIPSE
  5
223
100
AcDbEntity
  8
LAY-2
  6
CONTINUOUS
 62
     2
100
AcDbEllipse
 10
1540.579351
 20
1379.523893
 30
0.0
 11
0.0000000000000035
 21
-5.0000000000000044
 31
0.0
210
0.0
220
0.0
230
1.0
 40
0.305723
 41
3.1415926535897931
 42
0.0
  0
LINE
  5
224
100
AcDbEntity
  8
LAY-2
  6
CONTINUOUS
 62
     2
100
AcDbLine
 10
1540.579351
 20
1379.523893
 30
0.0
 11
1540.579351
 21
1384.523893
 31
0.0
  0
LINE
  5
225
100
AcDbEntity
  8
LAY-2
  6
CONTINUOUS
 62
     2
100
AcDbLine
 10
1541.279351
 20
1368.223893
 30
0.0
 11
1541.279351
 21
1373.823893
 31
0.0
  0
ARC
  5
226
100
AcDbEntity
  8
LAY-2
  6
CONTINUOUS
 62
     2
100
AcDbCircle
 10
1540.579351
 20
1368.223893
 30
0.0
 40
0.7
100
AcDbArc
 50
270.0
 51
0.0
  0
ARC
  5
227
100
AcDbEntity
  8
LAY-2
  6
CONTINUOUS
 62
     2
100
AcDbCircle
 10
1540.579351
 20
1373.823893
 30
0.0
 40
0.7
100
AcDbArc
 50
0.0
 51
90.0
  0
LINE
  5
228
100
AcDbEntity
  8
LAY-2
  6
CONTINUOUS
 62
     2
100
AcDbLine
 10
1540.579351
 20
1379.523893
 30
0.0
 11
1540.579351
 21
1374.523893
 31
0.0
  0
LINE
  5
229
100
AcDbEntity
  8
LAY-2
  6
CONTINUOUS
 62
     2
100
AcDbLine
 10
1541.279351
 20
1385.223893
 30
0.0
 11
1541.279351
 21
1390.823893
 31
0.0
  0
ARC
  5
22A
100
AcDbEntity
  8
LAY-2
  6
CONTINUOUS
 62
     2
100
AcDbCircle
 10
1540.579351
 20
1385.223893
 30
0.0
 40
0.7
100
AcDbArc
 50
270.0
 51
0.0
  0
ARC
  5
22B
100
AcDbEntity
  8
LAY-2
  6
CONTINUOUS
 62
     2
100
AcDbCircle
 10
1540.579351
 20
1390.823893
 30
0.0
 40
0.7
100
AcDbArc
 50
0.0
 51
90.0
  0
LINE
  5
22C
100
AcDbEntity
  8
LAY-2
  6
CONTINUOUS
 62
     2
100
AcDbLine
 10
1540.579351
 20
1430.523893
 30
0.0
 11
1540.579351
 21
1425.523893
 31
0.0
  0
ELLIPSE
  5
22D
100
AcDbEntity
  8
LAY-2
  6
CONTINUOUS
 62
     2
100
AcDbEllipse
 10
1540.579351
 20
1430.523893
 30
0.0
 11
0.0000000000000035
 21
-5.0000000000000044
 31
0.0
210
0.0
220
0.0
230
1.0
 40
0.305723
 41
3.1415926535897931
 42
0.0
  0
ELLIPSE
  5
22E
100
AcDbEntity
  8
LAY-2
  6
CONTINUOUS
 62
     2
100
AcDbEllipse
 10
1540.579351
 20
1413.523893
 30
0.0
 11
0.0000000000000035
 21
-5.0000000000000044
 31
0.0
210
0.0
220
0.0
230
1.0
 40
0.305723
 41
3.1415926535897931
 42
0.0
  0
LINE
  5
22F
100
AcDbEntity
  8
LAY-2
  6
CONTINUOUS
 62
     2
100
AcDbLine
 10
1540.579351
 20
1413.523893
 30
0.0
 11
1540.579351
 21
1408.523893
 31
0.0
  0
LINE
  5
230
100
AcDbEntity
  8
LAY-2
  6
CONTINUOUS
 62
     2
100
AcDbLine
 10
1541.279351
 20
1402.223893
 30
0.0
 11
1541.279351
 21
1407.823893
 31
0.0
  0
ARC
  5
231
100
AcDbEntity
  8
LAY-2
  6
CONTINUOUS
 62
     2
100
AcDbCircle
 10
1540.579351
 20
1402.223893
 30
0.0
 40
0.7
100
AcDbArc
 50
270.0
 51
0.0
  0
LINE
  5
232
100
AcDbEntity
  8
LAY-2
  6
CONTINUOUS
 62
     2
100
AcDbLine
 10
1540.579351
 20
1396.523893
 30
0.0
 11
1540.579351
 21
1401.523893
 31
0.0
  0
ARC
  5
233
100
AcDbEntity
  8
LAY-2
  6
CONTINUOUS
 62
     2
100
AcDbCircle
 10
1540.579351
 20
1407.823893
 30
0.0
 40
0.7
100
AcDbArc
 50
0.0
 51
90.0
  0
LINE
  5
234
100
AcDbEntity
  8
LAY-2
  6
CONTINUOUS
 62
     2
100
AcDbLine
 10
1541.279351
 20
1419.223893
 30
0.0
 11
1541.279351
 21
1424.823893
 31
0.0
  0
LINE
  5
235
100
AcDbEntity
  8
LAY-2
  6
CONTINUOUS
 62
     2
100
AcDbLine
 10
1540.579351
 20
1413.523893
 30
0.0
 11
1540.579351
 21
1418.523893
 31
0.0
  0
ARC
  5
236
100
AcDbEntity
  8
LAY-2
  6
CONTINUOUS
 62
     2
100
AcDbCircle
 10
1540.579351
 20
1419.223893
 30
0.0
 40
0.7
100
AcDbArc
 50
270.0
 51
0.0
  0
ARC
  5
237
100
AcDbEntity
  8
LAY-2
  6
CONTINUOUS
 62
     2
100
AcDbCircle
 10
1540.579351
 20
1424.823893
 30
0.0
 40
0.7
100
AcDbArc
 50
0.0
 51
90.0
  0
LINE
  5
238
100
AcDbEntity
  8
LAY-2
  6
CONTINUOUS
 62
     2
100
AcDbLine
 10
1540.579351
 20
1430.523893
 30
0.0
 11
1540.579351
 21
1435.523893
 31
0.0
  0
ARC
  5
239
100
AcDbEntity
  8
LAY-2
  6
CONTINUOUS
 62
     2
100
AcDbCircle
 10
1540.579351
 20
1436.223893
 30
0.0
 40
0.7
100
AcDbArc
 50
270.0
 51
0.0
  0
LINE
  5
23A
100
AcDbEntity
  8
LAY-2
  6
CONTINUOUS
 62
     2
100
AcDbLine
 10
1541.279351
 20
1283.223893
 30
0.0
 11
1541.279351
 21
1288.823893
 31
0.0
  0
ARC
  5
23B
100
AcDbEntity
  8
LAY-2
  6
CONTINUOUS
 62
     2
100
AcDbCircle
 10
1540.579351
 20
1271.823893
 30
0.0
 40
0.7
100
AcDbArc
 50
0.0
 51
90.0
  0
LINE
  5
23C
100
AcDbEntity
  8
LAY-2
  6
CONTINUOUS
 62
     2
100
AcDbLine
 10
1541.279351
 20
1266.223893
 30
0.0
 11
1541.279351
 21
1271.823893
 31
0.0
  0
LINE
  5
23D
100
AcDbEntity
  8
LAY-2
  6
CONTINUOUS
 62
     2
100
AcDbLine
 10
1540.579351
 20
1260.523893
 30
0.0
 11
1540.579351
 21
1255.523893
 31
0.0
  0
ELLIPSE
  5
23E
100
AcDbEntity
  8
LAY-2
  6
CONTINUOUS
 62
     2
100
AcDbEllipse
 10
1540.579351
 20
1260.523893
 30
0.0
 11
0.0000000000000035
 21
-5.0000000000000044
 31
0.0
210
0.0
220
0.0
230
1.0
 40
0.305723
 41
3.1415926535897931
 42
0.0
  0
ELLIPSE
  5
23F
100
AcDbEntity
  8
LAY-2
  6
CONTINUOUS
 62
     2
100
AcDbEllipse
 10
1540.579351
 20
1243.523893
 30
0.0
 11
0.0000000000000035
 21
-5.0000000000000044
 31
0.0
210
0.0
220
0.0
230
1.0
 40
0.305723
 41
3.1415926535897931
 42
0.0
  0
LINE
  5
240
100
AcDbEntity
  8
LAY-2
  6
CONTINUOUS
 62
     2
100
AcDbLine
 10
1540.579351
 20
1243.523893
 30
0.0
 11
1540.579351
 21
1238.523893
 31
0.0
  0
LINE
  5
241
100
AcDbEntity
  8
LAY-2
  6
CONTINUOUS
 62
     2
100
AcDbLine
 10
1541.279351
 20
1249.223893
 30
0.0
 11
1541.279351
 21
1254.823893
 31
0.0
  0
LINE
  5
242
100
AcDbEntity
  8
LAY-2
  6
CONTINUOUS
 62
     2
100
AcDbLine
 10
1540.579351
 20
1243.523893
 30
0.0
 11
1540.579351
 21
1248.523893
 31
0.0
  0
ARC
  5
243
100
AcDbEntity
  8
LAY-2
  6
CONTINUOUS
 62
     2
100
AcDbCircle
 10
1540.579351
 20
1249.223893
 30
0.0
 40
0.7
100
AcDbArc
 50
270.0
 51
0.0
  0
ARC
  5
244
100
AcDbEntity
  8
LAY-2
  6
CONTINUOUS
 62
     2
100
AcDbCircle
 10
1540.579351
 20
1254.823893
 30
0.0
 40
0.7
100
AcDbArc
 50
0.0
 51
90.0
  0
LINE
  5
245
100
AcDbEntity
  8
LAY-2
  6
CONTINUOUS
 62
     2
100
AcDbLine
 10
1540.579351
 20
1260.523893
 30
0.0
 11
1540.579351
 21
1265.523893
 31
0.0
  0
ARC
  5
246
100
AcDbEntity
  8
LAY-2
  6
CONTINUOUS
 62
     2
100
AcDbCircle
 10
1540.579351
 20
1266.223893
 30
0.0
 40
0.7
100
AcDbArc
 50
270.0
 51
0.0
  0
LINE
  5
247
100
AcDbEntity
  8
LAY-2
  6
CONTINUOUS
 62
     2
100
AcDbLine
 10
1540.579351
 20
1634.523893
 30
0.0
 11
1540.579351
 21
1629.523893
 31
0.0
  0
ELLIPSE
  5
248
100
AcDbEntity
  8
LAY-2
  6
CONTINUOUS
 62
     2
100
AcDbEllipse
 10
1540.579351
 20
1634.523893
 30
0.0
 11
0.0000000000000035
 21
-5.0000000000000044
 31
0.0
210
0.0
220
0.0
230
1.0
 40
0.305723
 41
3.1415926535897931
 42
0.0
  0
LINE
  5
249
100
AcDbEntity
  8
LAY-2
  6
CONTINUOUS
 62
     2
100
AcDbLine
 10
1541.279351
 20
1623.223893
 30
0.0
 11
1541.279351
 21
1628.823893
 31
0.0
  0
ARC
  5
24A
100
AcDbEntity
  8
LAY-2
  6
CONTINUOUS
 62
     2
100
AcDbCircle
 10
1540.579351
 20
1628.823893
 30
0.0
 40
0.7
100
AcDbArc
 50
0.0
 51
90.0
  0
LINE
  5
24B
100
AcDbEntity
  8
LAY-2
  6
CONTINUOUS
 62
     2
100
AcDbLine
 10
1540.579351
 20
1634.523893
 30
0.0
 11
1540.579351
 21
1639.523893
 31
0.0
  0
ARC
  5
24C
100
AcDbEntity
  8
LAY-2
  6
CONTINUOUS
 62
     2
100
AcDbCircle
 10
1544.183233
 20
1643.273893
 30
0.0
 40
5.0
100
AcDbArc
 50
87.797402
 51
90.0
  0
LINE
  5
24D
100
AcDbEntity
  8
LAY-2
  6
CONTINUOUS
 62
     2
100
AcDbLine
 10
1540.579351
 20
1648.273893
 30
0.0
 11
1540.579351
 21
1646.523893
 31
0.0
  0
ELLIPSE
  5
24E
100
AcDbEntity
  8
LAY-2
  6
CONTINUOUS
 62
     2
100
AcDbEllipse
 10
1540.579351
 20
1651.523893
 30
0.0
 11
0.0000000000000035
 21
-5.0000000000000044
 31
0.0
210
0.0
220
0.0
230
1.0
 40
0.305723
 41
5.4199734171088005
 42
0.0
  0
ELLIPSE
  5
24F
100
AcDbEntity
  8
LAY-2
  6
CONTINUOUS
 62
     2
100
AcDbEllipse
 10
1540.579351
 20
1651.523893
 30
0.0
 11
-0.000000000000003
 21
5.0000000000000044
 31
0.0
210
0.0
220
0.0
230
1.0
 40
0.305723
 41
2.2783807635190065
 42
3.1415926535897931
  0
ARC
  5
250
100
AcDbEntity
  8
LAY-2
  6
CONTINUOUS
 62
     2
100
AcDbCircle
 10
1540.579351
 20
1645.823893
 30
0.0
 40
0.7
100
AcDbArc
 50
0.0
 51
90.0
  0
LINE
  5
251
100
AcDbEntity
  8
LAY-2
  6
CONTINUOUS
 62
     2
100
AcDbLine
 10
1541.279351
 20
1640.223893
 30
0.0
 11
1541.279351
 21
1645.823893
 31
0.0
  0
ARC
  5
252
100
AcDbEntity
  8
LAY-2
  6
CONTINUOUS
 62
     2
100
AcDbCircle
 10
1540.579351
 20
1640.223893
 30
0.0
 40
0.7
100
AcDbArc
 50
270.0
 51
0.0
  0
LINE
  5
253
100
AcDbEntity
  8
LAY-2
  6
CONTINUOUS
 62
     2
100
AcDbLine
 10
1540.579351
 20
1362.523893
 30
0.0
 11
1540.579351
 21
1357.523893
 31
0.0
  0
ARC
  5
254
100
AcDbEntity
  8
LAY-2
  6
CONTINUOUS
 62
     2
100
AcDbCircle
 10
1540.579351
 20
1356.823893
 30
0.0
 40
0.7
100
AcDbArc
 50
0.0
 51
90.0
  0
ARC
  5
255
100
AcDbEntity
  8
LAY-2
  6
CONTINUOUS
 62
     2
100
AcDbCircle
 10
1540.579351
 20
1351.223893
 30
0.0
 40
0.7
100
AcDbArc
 50
270.0
 51
0.0
  0
LINE
  5
256
100
AcDbEntity
  8
LAY-2
  6
CONTINUOUS
 62
     2
100
AcDbLine
 10
1541.279351
 20
1351.223893
 30
0.0
 11
1541.279351
 21
1356.823893
 31
0.0
  0
LINE
  5
257
100
AcDbEntity
  8
LAY-2
  6
CONTINUOUS
 62
     2
100
AcDbLine
 10
1540.579351
 20
1345.523893
 30
0.0
 11
1540.579351
 21
1340.523893
 31
0.0
  0
ARC
  5
258
100
AcDbEntity
  8
LAY-2
  6
CONTINUOUS
 62
     2
100
AcDbCircle
 10
1540.579351
 20
1334.223893
 30
0.0
 40
0.7
100
AcDbArc
 50
270.0
 51
0.0
  0
LINE
  5
259
100
AcDbEntity
  8
LAY-2
  6
CONTINUOUS
 62
     2
100
AcDbLine
 10
1541.279351
 20
1334.223893
 30
0.0
 11
1541.279351
 21
1339.823893
 31
0.0
  0
ARC
  5
25A
100
AcDbEntity
  8
LAY-2
  6
CONTINUOUS
 62
     2
100
AcDbCircle
 10
1540.579351
 20
1339.823893
 30
0.0
 40
0.7
100
AcDbArc
 50
0.0
 51
90.0
  0
ELLIPSE
  5
25B
100
AcDbEntity
  8
LAY-2
  6
CONTINUOUS
 62
     2
100
AcDbEllipse
 10
1540.579351
 20
1345.523893
 30
0.0
 11
0.0000000000000035
 21
-5.0000000000000044
 31
0.0
210
0.0
220
0.0
230
1.0
 40
0.305723
 41
3.1415926535897931
 42
0.0
  0
LINE
  5
25C
100
AcDbEntity
  8
LAY-2
  6
CONTINUOUS
 62
     2
100
AcDbLine
 10
1540.579351
 20
1345.523893
 30
0.0
 11
1540.579351
 21
1350.523893
 31
0.0
  0
ELLIPSE
  5
25D
100
AcDbEntity
  8
LAY-2
  6
CONTINUOUS
 62
     2
100
AcDbEllipse
 10
1540.579351
 20
1362.523893
 30
0.0
 11
0.0000000000000035
 21
-5.0000000000000044
 31
0.0
210
0.0
220
0.0
230
1.0
 40
0.305723
 41
3.1415926535897931
 42
0.0
  0
LINE
  5
25E
100
AcDbEntity
  8
LAY-2
  6
CONTINUOUS
 62
     2
100
AcDbLine
 10
1540.579351
 20
1362.523893
 30
0.0
 11
1540.579351
 21
1367.523893
 31
0.0
  0
LINE
  5
25F
100
AcDbEntity
  8
LAY-2
  6
CONTINUOUS
 62
     2
100
AcDbLine
 10
1541.279351
 20
1317.223893
 30
0.0
 11
1541.279351
 21
1322.823893
 31
0.0
  0
ARC
  5
260
100
AcDbEntity
  8
LAY-2
  6
CONTINUOUS
 62
     2
100
AcDbCircle
 10
1540.579351
 20
1317.223893
 30
0.0
 40
0.7
100
AcDbArc
 50
270.0
 51
0.0
  0
ARC
  5
261
100
AcDbEntity
  8
LAY-2
  6
CONTINUOUS
 62
     2
100
AcDbCircle
 10
1540.579351
 20
1322.823893
 30
0.0
 40
0.7
100
AcDbArc
 50
0.0
 51
90.0
  0
LINE
  5
262
100
AcDbEntity
  8
LAY-2
  6
CONTINUOUS
 62
     2
100
AcDbLine
 10
1540.579351
 20
1328.523893
 30
0.0
 11
1540.579351
 21
1323.523893
 31
0.0
  0
LINE
  5
263
100
AcDbEntity
  8
LAY-2
  6
CONTINUOUS
 62
     2
100
AcDbLine
 10
1540.579351
 20
1311.523893
 30
0.0
 11
1540.579351
 21
1316.523893
 31
0.0
  0
ELLIPSE
  5
264
100
AcDbEntity
  8
LAY-2
  6
CONTINUOUS
 62
     2
100
AcDbEllipse
 10
1540.579351
 20
1328.523893
 30
0.0
 11
0.0000000000000035
 21
-5.0000000000000044
 31
0.0
210
0.0
220
0.0
230
1.0
 40
0.305723
 41
3.1415926535897931
 42
0.0
  0
LINE
  5
265
100
AcDbEntity
  8
LAY-2
  6
CONTINUOUS
 62
     2
100
AcDbLine
 10
1540.579351
 20
1328.523893
 30
0.0
 11
1540.579351
 21
1333.523893
 31
0.0
  0
LINE
  5
266
100
AcDbEntity
  8
LAY-2
  6
CONTINUOUS
 62
     2
100
AcDbLine
 10
1583.279351
 20
1163.273893
 30
0.0
 11
1583.279351
 21
1231.273893
 31
0.0
  0
LINE
  5
267
100
AcDbEntity
  8
LAY-2
  6
CONTINUOUS
 62
     2
100
AcDbLine
 10
1509.279351
 20
1229.773893
 30
0.0
 11
1583.279351
 21
1229.773893
 31
0.0
  0
LINE
  5
268
100
AcDbEntity
  8
LAY-2
  6
CONTINUOUS
 62
     2
100
AcDbLine
 10
1583.279351
 20
1231.273893
 30
0.0
 11
1544.375398
 21
1229.777587
 31
0.0
  0
ARC
  5
269
100
AcDbEntity
  8
LAY-2
  6
CONTINUOUS
 62
     2
100
AcDbCircle
 10
1509.279351
 20
1229.273893
 30
0.0
 40
0.5
100
AcDbArc
 50
90.0
 51
180.0
  0
ELLIPSE
  5
26A
100
AcDbEntity
  8
LAY-2
  6
CONTINUOUS
 62
     2
100
AcDbEllipse
 10
1540.579351
 20
1226.523893
 30
0.0
 11
0.0000000000000035
 21
-5.0000000000000044
 31
0.0
210
0.0
220
0.0
230
1.0
 40
0.305723
 41
3.1415926535897931
 42
3.5926194653827834
  0
LINE
  5
26B
100
AcDbEntity
  8
LAY-2
  6
CONTINUOUS
 62
     2
100
AcDbLine
 10
1541.279351
 20
1232.223893
 30
0.0
 11
1541.279351
 21
1237.823893
 31
0.0
  0
ARC
  5
26C
100
AcDbEntity
  8
LAY-2
  6
CONTINUOUS
 62
     2
100
AcDbCircle
 10
1540.579351
 20
1232.223893
 30
0.0
 40
0.7
100
AcDbArc
 50
270.0
 51
0.0
  0
LINE
  5
26D
100
AcDbEntity
  8
LAY-2
  6
CONTINUOUS
 62
     2
100
AcDbLine
 10
1540.579351
 20
1231.023893
 30
0.0
 11
1540.579351
 21
1231.523893
 31
0.0
  0
ARC
  5
26E
100
AcDbEntity
  8
LAY-2
  6
CONTINUOUS
 62
     2
100
AcDbCircle
 10
1540.579351
 20
1237.823893
 30
0.0
 40
0.7
100
AcDbArc
 50
0.0
 51
90.0
  0
ELLIPSE
  5
26F
100
AcDbEntity
  8
LAY-2
  6
CONTINUOUS
 62
     2
100
AcDbEllipse
 10
1540.579351
 20
1226.523893
 30
0.0
 11
0.0000000000000035
 21
-5.0000000000000044
 31
0.0
210
0.0
220
0.0
230
1.0
 40
0.305723
 41
3.1415926535897931
 42
4.0048045436562951
  0
LINE
  5
270
100
AcDbEntity
  8
LAY-2
  6
CONTINUOUS
 62
     2
100
AcDbLine
 10
1540.579351
 20
1229.773893
 30
0.0
 11
1540.579351
 21
1231.523893
 31
0.0
  0
ARC
  5
271
100
AcDbEntity
  8
LAY-2
  6
CONTINUOUS
 62
     2
100
AcDbCircle
 10
1540.579351
 20
1232.223893
 30
0.0
 40
0.7
100
AcDbArc
 50
270.0
 51
0.0
  0
LINE
  5
272
100
AcDbEntity
  8
LAY-2
  6
EXLTYPE3
 62
     1
100
AcDbLine
 10
1526.279351
 20
1657.0
 30
0.0
 11
1526.279351
 21
1224.0
 31
0.0
  0
LINE
  5
273
100
AcDbEntity
  8
LAY-2
  6
CONTINUOUS
 62
     6
100
AcDbLine
 10
1610.949224
 20
1683.771076
 30
0.0
 11
1620.279351
 21
1686.271076
 31
0.0
  0
LINE
  5
274
100
AcDbEntity
  8
LAY-2
  6
CONTINUOUS
 62
     6
100
AcDbLine
 10
1610.949224
 20
1688.771076
 30
0.0
 11
1620.279351
 21
1686.271076
 31
0.0
  0
LINE
  5
275
100
AcDbEntity
  8
LAY-2
  6
CONTINUOUS
 62
     6
100
AcDbLine
 10
1610.949224
 20
1688.771076
 30
0.0
 11
1583.279351
 21
1688.771076
 31
0.0
  0
LINE
  5
276
100
AcDbEntity
  8
LAY-2
  6
CONTINUOUS
 62
     6
100
AcDbLine
 10
1583.279351
 20
1683.771076
 30
0.0
 11
1610.949224
 21
1683.771076
 31
0.0
  0
LINE
  5
277
100
AcDbEntity
  8
LAY-2
  6
EXLTYPE3
 62
   230
100
AcDbLine
 10
1580.273084
 20
1686.271076
 30
0.0
 11
1626.573084
 21
1686.271076
 31
0.0
  0
LINE
  5
278
100
AcDbEntity
  8
LAY-2
  6
CONTINUOUS
 62
     6
100
AcDbLine
 10
1610.949224
 20
1183.773893
 30
0.0
 11
1620.279351
 21
1186.273893
 31
0.0
  0
LINE
  5
279
100
AcDbEntity
  8
LAY-2
  6
CONTINUOUS
 62
     6
100
AcDbLine
 10
1610.949224
 20
1188.773893
 30
0.0
 11
1620.279351
 21
1186.273893
 31
0.0
  0
LINE
  5
27A
100
AcDbEntity
  8
LAY-2
  6
CONTINUOUS
 62
     6
100
AcDbLine
 10
1610.949224
 20
1188.773893
 30
0.0
 11
1583.279351
 21
1188.773893
 31
0.0
  0
LINE
  5
27B
100
AcDbEntity
  8
LAY-2
  6
CONTINUOUS
 62
     6
100
AcDbLine
 10
1583.279351
 20
1183.773893
 30
0.0
 11
1610.949224
 21
1183.773893
 31
0.0
  0
LINE
  5
27C
100
AcDbEntity
  8
LAY-2
  6
EXLTYPE3
 62
   230
100
AcDbLine
 10
1580.273084
 20
1186.273893
 30
0.0
 11
1626.573084
 21
1186.273893
 31
0.0
  0
LINE
  5
27D
100
AcDbEntity
  8
LAY-2
  6
EXLTYPE3
 62
     1
100
AcDbLine
 10
608.101044
 20
1160.0
 30
0.0
 11
608.101044
 21
1715.0
 31
0.0
  0
LINE
  5
27E
100
AcDbEntity
  8
LAY-2
  6
EXLTYPE3
 62
     1
100
AcDbLine
 10
1139.493976
 20
1186.273893
 30
0.0
 11
582.0
 21
1186.273893
 31
0.0
  0
LINE
  5
27F
100
AcDbEntity
  8
LAY-2
  6
CONTINUOUS
 62
     2
100
AcDbLine
 10
1511.279351
 20
1229.773893
 30
0.0
 11
1511.279351
 21
1648.273893
 31
0.0
  0
LINE
  5
280
100
AcDbEntity
  8
LAY-2
  6
EXLTYPE4
 62
     1
100
AcDbLine
 10
1583.279351
 20
1948.0
 30
0.0
 11
1583.279351
 21
1064.0
 31
0.0
  0
LINE
  5
281
100
AcDbEntity
  8
LAY-2
  6
CONTINUOUS
 62
     2
100
AcDbLine
 10
1508.779351
 20
1186.273893
 30
0.0
 11
1508.779351
 21
1229.273893
 31
0.0
  0
LINE
  5
282
100
AcDbEntity
  8
LAY-2
  6
CONTINUOUS
 62
     2
100
AcDbLine
 10
1583.279351
 20
1163.273893
 30
0.0
 11
1524.622475
 21
1168.852505
 31
0.0
  0
LINE
  5
283
100
AcDbEntity
  8
LAY-2
  6
CONTINUOUS
 62
     2
100
AcDbLine
 10
1583.279351
 20
1163.273893
 30
0.0
 11
1583.279351
 21
1165.282918
 31
0.0
  0
LINE
  5
284
100
AcDbEntity
  8
LAY-2
  6
CONTINUOUS
 62
     2
100
AcDbLine
 10
1583.279351
 20
1209.273893
 30
0.0
 11
1524.622475
 21
1203.695281
 31
0.0
  0
LINE
  5
285
100
AcDbEntity
  8
LAY-2
  6
CONTINUOUS
 62
     2
100
AcDbLine
 10
1583.279351
 20
1163.273893
 30
0.0
 11
1524.622475
 21
1168.852505
 31
0.0
  0
ARC
  5
286
100
AcDbEntity
  8
LAY-2
  6
CONTINUOUS
 62
     2
100
AcDbCircle
 10
1526.279351
 20
1186.273893
 30
0.0
 40
17.5
100
AcDbArc
 50
95.432823
 51
264.567177
  0
LINE
  5
287
100
AcDbEntity
  8
LAY-2
  6
CONTINUOUS
 62
     2
100
AcDbLine
 10
608.101044
 20
2134.972054
 30
0.0
 11
651.101044
 21
2134.972054
 31
0.0
  0
LINE
  5
288
100
AcDbEntity
  8
LAY-2
  6
CONTINUOUS
 62
     2
100
AcDbLine
 10
585.101044
 20
2209.472054
 30
0.0
 11
587.110068
 21
2209.472054
 31
0.0
  0
LINE
  5
289
100
AcDbEntity
  8
LAY-2
  6
CONTINUOUS
 62
     2
100
AcDbLine
 10
585.101044
 20
2209.472054
 30
0.0
 11
590.679656
 21
2150.815178
 31
0.0
  0
LINE
  5
28A
100
AcDbEntity
  8
LAY-2
  6
CONTINUOUS
 62
     2
100
AcDbLine
 10
631.101044
 20
2209.472054
 30
0.0
 11
629.092019
 21
2209.472054
 31
0.0
  0
LINE
  5
28B
100
AcDbEntity
  8
LAY-2
  6
CONTINUOUS
 62
     2
100
AcDbLine
 10
631.101044
 20
2209.472054
 30
0.0
 11
625.522432
 21
2150.815178
 31
0.0
  0
LINE
  5
28C
100
AcDbEntity
  8
LAY-2
  6
CONTINUOUS
 62
     2
100
AcDbLine
 10
585.101044
 20
2209.472054
 30
0.0
 11
590.679656
 21
2150.815178
 31
0.0
  0
ARC
  5
28D
100
AcDbEntity
  8
LAY-2
  6
CONTINUOUS
 62
     2
100
AcDbCircle
 10
608.101044
 20
2152.472054
 30
0.0
 40
17.5
100
AcDbArc
 50
185.432823
 51
354.567177
  0
LINE
  5
28E
100
AcDbEntity
  8
LAY-2
  6
CONTINUOUS
 62
     2
100
AcDbLine
 10
631.101044
 20
2209.472054
 30
0.0
 11
625.522432
 21
2150.815178
 31
0.0
  0
DIMENSION
  5
29A
100
AcDbEntity
  8
LAY-3
  6
CONTINUOUS
 62
     2
100
AcDbDimension
  2
*D15
 10
1108.101044
 20
2319.0
 30
0.0
 11
858.101044
 21
2342.5
 31
0.0
 70
   160
  3
STANDARD
100
AcDbAlignedDimension
 13
608.101044
 23
2252.765787
 33
0.0
 14
1108.101044
 24
2252.765787
 34
0.0
100
AcDbRotatedDimension
1001
ACAD
1000
DSTYLE
1002
{
1070
     6
1000
_EX_NORM
1070
     7
1000
_EX_NORM
1070
    41
1040
30.0
1070
    42
1040
5.0
1070
    44
1040
10.0
1070
    73
1070
     0
1070
    74
1070
     0
1070
    75
1070
     0
1070
    76
1070
     0
1070
    77
1070
     1
1070
    78
1070
     8
1070
   140
1040
40.0
1070
   147
1040
3.5
1070
   173
1070
     1
1070
   176
1070
     3
1070
   177
1070
     3
1070
   178
1070
     2
1070
   271
1070
     2
1070
   279
1070
     2
1070
   280
1070
     0
1070
   287
1070
     5
1070
   340
1005
17C
1002
}
  0
DIMENSION
  5
2A4
100
AcDbEntity
  8
LAY-3
  6
CONTINUOUS
 62
     3
100
AcDbDimension
  2
*D16
 10
623.101044
 20
1511.0
 30
0.0
 11
703.101044
 21
1534.5
 31
0.0
 70
   160
  1
%%c30
  3
STANDARD
100
AcDbAlignedDimension
 13
593.101044
 23
1647.35562
 33
0.0
 14
623.101044
 24
1635.0
 34
0.0
100
AcDbRotatedDimension
1001
ACAD
1000
DSTYLE
1002
{
1070
     6
1000
_EX_NORM
1070
     7
1000
_EX_NORM
1070
    41
1040
30.0
1070
    42
1040
0.0
1070
    44
1040
0.0
1070
    73
1070
     0
1070
    74
1070
     0
1070
    75
1070
     1
1070
    76
1070
     1
1070
    77
1070
     1
1070
    78
1070
     8
1070
   140
1040
40.0
1070
   147
1040
3.5
1070
   173
1070
     1
1070
   176
1070
     3
1070
   177
1070
     3
1070
   178
1070
     2
1070
   271
1070
     2
1070
   279
1070
     2
1070
   280
1070
     2
1070
   287
1070
     5
1070
   340
1005
17C
1002
}
  0
DIMENSION
  5
2B0
100
AcDbEntity
  8
LAY-3
  6
CONTINUOUS
 62
     2
100
AcDbDimension
  2
*D17
 10
1130.101044
 20
2275.3
 30
0.0
 11
1215.101044
 21
2298.8
 31
0.0
 70
   160
  3
STANDARD
100
AcDbAlignedDimension
 13
1068.601044
 23
2209.472054
 33
0.0
 14
1130.101044
 24
2209.472054
 34
0.0
100
AcDbRotatedDimension
1001
ACAD
1000
DSTYLE
1002
{
1070
     6
1000
_EX_NORM
1070
     7
1000
_EX_NORM
1070
    41
1040
30.0
1070
    42
1040
5.0
1070
    44
1040
10.0
1070
    73
1070
     0
1070
    74
1070
     0
1070
    75
1070
     0
1070
    76
1070
     0
1070
    77
1070
     1
1070
    78
1070
     8
1070
   140
1040
40.0
1070
   147
1040
3.5
1070
   173
1070
     1
1070
   176
1070
     3
1070
   177
1070
     3
1070
   178
1070
     2
1070
   271
1070
     2
1070
   279
1070
     2
1070
   280
1070
     2
1070
   287
1070
     5
1070
   340
1005
17C
1002
}
  0
DIMENSION
  5
2BC
100
AcDbEntity
  8
LAY-3
  6
CONTINUOUS
 62
     3
100
AcDbDimension
  2
*D18
 10
1130.101044
 20
1044.0
 30
0.0
 11
857.601044
 21
1067.5
 31
0.0
 70
   160
  3
STANDARD
100
AcDbAlignedDimension
 13
585.101044
 23
1108.0
 33
0.0
 14
1130.101044
 24
1167.310149
 34
0.0
100
AcDbRotatedDimension
1001
ACAD
1000
DSTYLE
1002
{
1070
     6
1000
_EX_NORM
1070
     7
1000
_EX_NORM
1070
    41
1040
30.0
1070
    42
1040
5.0
1070
    44
1040
10.0
1070
    73
1070
     0
1070
    74
1070
     0
1070
    75
1070
     0
1070
    76
1070
     0
1070
    77
1070
     1
1070
    78
1070
     8
1070
   140
1040
40.0
1070
   147
1040
3.5
1070
   173
1070
     1
1070
   176
1070
     3
1070
   177
1070
     3
1070
   178
1070
     2
1070
   271
1070
     2
1070
   279
1070
     2
1070
   280
1070
     0
1070
   287
1070
     5
1070
   340
1005
17C
1002
}
  0
DIMENSION
  5
2C8
100
AcDbEntity
  8
LAY-3
  6
CONTINUOUS
 62
     3
100
AcDbDimension
  2
*D19
 10
520.101044
 20
1186.273893
 30
0.0
 11
496.601044
 21
1098.273893
 31
0.0
 70
   160
  3
STANDARD
100
AcDbAlignedDimension
 13
649.837081
 23
1163.273893
 33
0.0
 14
585.101044
 24
1186.273893
 34
0.0
 50
90.0
100
AcDbRotatedDimension
1001
ACAD
1000
DSTYLE
1002
{
1070
     6
1000
_EX_NORM
1070
     7
1000
_EX_NORM
1070
    41
1040
30.0
1070
    42
1040
5.0
1070
    44
1040
10.0
1070
    73
1070
     0
1070
    74
1070
     0
1070
    75
1070
     0
1070
    76
1070
     0
1070
    77
1070
     1
1070
    78
1070
     8
1070
   140
1040
40.0
1070
   147
1040
3.5
1070
   173
1070
     1
1070
   176
1070
     3
1070
   177
1070
     3
1070
   178
1070
     2
1070
   271
1070
     2
1070
   279
1070
     2
1070
   280
1070
     1
1070
   287
1070
     5
1070
   340
1005
17C
1002
}
  0
DIMENSION
  5
2D4
100
AcDbEntity
  8
LAY-3
  6
CONTINUOUS
 62
     3
100
AcDbDimension
  2
*D20
 10
1681.0
 20
1686.271076
 30
0.0
 11
1657.5
 21
1436.272485
 31
0.0
 70
   160
  3
STANDARD
100
AcDbAlignedDimension
 13
1626.573084
 23
1186.273893
 33
0.0
 14
1620.279351
 24
1686.271076
 34
0.0
 50
90.0
100
AcDbRotatedDimension
1001
ACAD
1000
DSTYLE
1002
{
1070
     6
1000
_EX_NORM
1070
     7
1000
_EX_NORM
1070
    41
1040
30.0
1070
    42
1040
5.0
1070
    44
1040
10.0
1070
    73
1070
     0
1070
    74
1070
     0
1070
    75
1070
     0
1070
    76
1070
     0
1070
    77
1070
     1
1070
    78
1070
     8
1070
   140
1040
40.0
1070
   147
1040
3.5
1070
   173
1070
     1
1070
   176
1070
     3
1070
   177
1070
     3
1070
   178
1070
     2
1070
   271
1070
     2
1070
   279
1070
     2
1070
   280
1070
     0
1070
   287
1070
     5
1070
   340
1005
17C
1002
}
  0
DIMENSION
  5
2E0
100
AcDbEntity
  8
LAY-3
  6
CONTINUOUS
 62
     3
100
AcDbDimension
  2
*D21
 10
520.101044
 20
1708.271076
 30
0.0
 11
496.601044
 21
1773.271076
 31
0.0
 70
   160
  3
STANDARD
100
AcDbAlignedDimension
 13
584.101044
 23
1686.271076
 33
0.0
 14
589.1373
 24
1708.271076
 34
0.0
 50
90.0
100
AcDbRotatedDimension
1001
ACAD
1000
DSTYLE
1002
{
1070
     6
1000
_EX_NORM
1070
     7
1000
_EX_NORM
1070
    41
1040
30.0
1070
    42
1040
5.0
1070
    44
1040
10.0
1070
    73
1070
     0
1070
    74
1070
     0
1070
    75
1070
     0
1070
    76
1070
     0
1070
    77
1070
     1
1070
    78
1070
     8
1070
   140
1040
40.0
1070
   147
1040
3.5
1070
   173
1070
     1
1070
   176
1070
     3
1070
   177
1070
     3
1070
   178
1070
     2
1070
   271
1070
     2
1070
   279
1070
     2
1070
   280
1070
     2
1070
   287
1070
     5
1070
   340
1005
17C
1002
}
  0
DIMENSION
  5
2EC
100
AcDbEntity
  8
LAY-3
  6
CONTINUOUS
 62
     3
100
AcDbDimension
  2
*D22
 10
468.0
 20
1163.273893
 30
0.0
 11
444.5
 21
1435.772485
 31
0.0
 70
   160
  3
STANDARD
100
AcDbAlignedDimension
 13
520.101044
 23
1708.271076
 33
0.0
 14
520.101044
 24
1163.273893
 34
0.0
 50
90.0
100
AcDbRotatedDimension
1001
ACAD
1000
DSTYLE
1002
{
1070
     6
1000
_EX_NORM
1070
     7
1000
_EX_NORM
1070
    41
1040
30.0
1070
    42
1040
5.0
1070
    44
1040
10.0
1070
    73
1070
     0
1070
    74
1070
     0
1070
    75
1070
     0
1070
    76
1070
     0
1070
    77
1070
     1
1070
    78
1070
     8
1070
   140
1040
40.0
1070
   147
1040
3.5
1070
   173
1070
     1
1070
   176
1070
     3
1070
   177
1070
     3
1070
   178
1070
     2
1070
   271
1070
     2
1070
   279
1070
     2
1070
   280
1070
     0
1070
   287
1070
     5
1070
   340
1005
17C
1002
}
  0
DIMENSION
  5
2F8
100
AcDbEntity
  8
LAY-3
  6
CONTINUOUS
 62
     3
100
AcDbDimension
  2
*D23
 10
1188.2
 20
1210.273893
 30
0.0
 11
1164.7
 21
1097.273893
 31
0.0
 70
   160
  3
STANDARD
100
AcDbAlignedDimension
 13
1126.101044
 23
1162.273893
 33
0.0
 14
1126.101044
 24
1210.273893
 34
0.0
 50
90.0
100
AcDbRotatedDimension
1001
ACAD
1000
DSTYLE
1002
{
1070
     6
1000
_EX_NORM
1070
     7
1000
_EX_NORM
1070
    41
1040
30.0
1070
    42
1040
5.0
1070
    44
1040
10.0
1070
    73
1070
     0
1070
    74
1070
     0
1070
    75
1070
     0
1070
    76
1070
     0
1070
    77
1070
     1
1070
    78
1070
     8
1070
   140
1040
40.0
1070
   147
1040
3.5
1070
   173
1070
     1
1070
   176
1070
     3
1070
   177
1070
     3
1070
   178
1070
     2
1070
   271
1070
     2
1070
   279
1070
     2
1070
   280
1070
     1
1070
   287
1070
     5
1070
   340
1005
17C
1002
}
  0
DIMENSION
  5
304
100
AcDbEntity
  8
LAY-3
  6
CONTINUOUS
 62
     3
100
AcDbDimension
  2
*D24
 10
632.101044
 20
1784.0
 30
0.0
 11
697.101044
 21
1807.5
 31
0.0
 70
   160
  3
STANDARD
100
AcDbAlignedDimension
 13
584.101044
 23
1704.271076
 33
0.0
 14
632.101044
 24
1704.271076
 34
0.0
100
AcDbRotatedDimension
1001
ACAD
1000
DSTYLE
1002
{
1070
     6
1000
_EX_NORM
1070
     7
1000
_EX_NORM
1070
    41
1040
30.0
1070
    42
1040
5.0
1070
    44
1040
10.0
1070
    73
1070
     0
1070
    74
1070
     0
1070
    75
1070
     0
1070
    76
1070
     0
1070
    77
1070
     1
1070
    78
1070
     8
1070
   140
1040
40.0
1070
   147
1040
3.5
1070
   173
1070
     1
1070
   176
1070
     3
1070
   177
1070
     3
1070
   178
1070
     2
1070
   271
1070
     2
1070
   279
1070
     2
1070
   280
1070
     2
1070
   287
1070
     5
1070
   340
1005
17C
1002
}
  0
DIMENSION
  5
310
100
AcDbEntity
  8
LAY-3
  6
CONTINUOUS
 62
     3
100
AcDbDimension
  2
*D25
 10
651.601044
 20
1106.7
 30
0.0
 11
736.601044
 21
1130.2
 31
0.0
 70
   160
  3
STANDARD
100
AcDbAlignedDimension
 13
585.101044
 23
1207.773893
 33
0.0
 14
651.601044
 24
1171.273893
 34
0.0
100
AcDbRotatedDimension
1001
ACAD
1000
DSTYLE
1002
{
1070
     6
1000
_EX_NORM
1070
     7
1000
_EX_NORM
1070
    41
1040
30.0
1070
    42
1040
5.0
1070
    44
1040
10.0
1070
    73
1070
     0
1070
    74
1070
     0
1070
    75
1070
     0
1070
    76
1070
     0
1070
    77
1070
     1
1070
    78
1070
     8
1070
   140
1040
40.0
1070
   147
1040
3.5
1070
   173
1070
     1
1070
   176
1070
     3
1070
   177
1070
     3
1070
   178
1070
     2
1070
   271
1070
     2
1070
   279
1070
     2
1070
   280
1070
     2
1070
   287
1070
     5
1070
   340
1005
17C
1002
}
  0
LINE
  5
311
100
AcDbEntity
  8
LAY-3
  6
CONTINUOUS
 62
     2
100
AcDbLine
 10
1583.279351
 20
1909.0
 30
0.0
 11
1555.566538
 21
1925.0
 31
0.0
  0
LINE
  5
312
100
AcDbEntity
  8
LAY-3
  6
CONTINUOUS
 62
     2
100
AcDbLine
 10
1555.566538
 20
1925.0
 30
0.0
 11
1555.566538
 21
1893.0
 31
0.0
  0
LINE
  5
313
100
AcDbEntity
  8
LAY-3
  6
CONTINUOUS
 62
     2
100
AcDbLine
 10
1555.566538
 20
1893.0
 30
0.0
 11
1583.279351
 21
1909.0
 31
0.0
  0
TEXT
  5
314
100
AcDbEntity
  8
LAY-3
  6
CONTINUOUS
 62
     2
100
AcDbText
 10
1461.188402
 20
1889.339483
 30
0.0
 40
40.0
  1
ＷＬ
 41
0.945
  7
EXCADSTD
 72
     5
 11
1543.682402
 21
1889.339483
 31
0.0
100
AcDbText
  0
TEXT
  5
315
100
AcDbEntity
  8
LAY-3
  6
CONTINUOUS
 62
     2
100
AcDbText
 10
1654.949318
 20
1070.216433
 30
0.0
 40
40.0
  1
φ５×５０
 41
0.672
  7
EXCADSTD
 72
     5
 11
1814.949318
 21
1070.216433
 31
0.0
100
AcDbText
  0
LINE
  5
316
100
AcDbEntity
  8
LAY-3
  6
CONTINUOUS
 62
     6
100
AcDbLine
 10
1656.249318
 20
1070.216433
 30
0.0
 11
1811.249318
 21
1070.216433
 31
0.0
  0
LEADER
  5
317
100
AcDbEntity
  8
LAY-3
  6
CONTINUOUS
 62
     6
100
AcDbLeader
  3
STANDARD
 73
     3
 74
     1
 75
     0
 40
0.0
 76
     2
 10
1599.8
 20
1183.773893
 30
0.0
 10
1656.249318
 20
1070.216433
 30
0.0
 77
     6
1001
ACAD
1000
DSTYLE
1002
{
1070
    41
1040
35.0
1070
     5
1000
_EX_NORM
1070
     6
1000
_EX_NORM
1070
     7
1000
_EX_NORM
1070
   341
1005
2C
1002
}
  0
ENDSEC
  0
SECTION
  2
OBJECTS
  0
DICTIONARY
  5
19
100
AcDbDictionary
  3
ACAD_GROUP
350
1A
  3
ACAD_MLINESTYLE
350
1B
  0
DICTIONARY
  5
1A
102
{ACAD_REACTORS
330
19
102
}
100
AcDbDictionary
  0
DICTIONARY
  5
1B
102
{ACAD_REACTORS
330
19
102
}
100
AcDbDictionary
  3
STANDARD
350
1C
  0
MLINESTYLE
  5
1C
102
{ACAD_REACTORS
330
1B
102
}
100
AcDbMlineStyle
  2
Standard
 70
     0
  3

 62
     0
 51
90.0
 52
90.0
 71
     2
 49
0.5
 62
   256
  6
ByLayer
 49
-0.5
 62
   256
  6
ByLayer
  0
ENDSEC
  0
EOF
