  0
SECTION
  2
HEADER
  9
$ACADVER
  1
AC1014
  9
$ACADMAINTVER
 70
     0
  9
$DWGCODEPAGE
  3
ANSI_932
  9
$INSBASE
 10
0.0
 20
0.0
 30
0.0
  9
$EXTMIN
 10
0.7
 20
8.5
 30
0.0
  9
$EXTMAX
 10
357.0
 20
288.5
 30
0.0
  9
$LIMMIN
 10
0.0
 20
0.0
  9
$LIMMAX
 10
210.0
 20
297.0
  9
$ORTHOMODE
 70
     0
  9
$REGENMODE
 70
     1
  9
$FILLMODE
 70
     1
  9
$QTEXTMODE
 70
     0
  9
$MIRRTEXT
 70
     1
  9
$DRAGMODE
 70
     2
  9
$LTSCALE
 40
1.0
  9
$OSMODE
 70
     0
  9
$ATTMODE
 70
     1
  9
$TEXTSIZE
 40
0.2
  9
$TRACEWID
 40
0.05
  9
$TEXTSTYLE
  7
STANDARD
  9
$CLAYER
  8
0
  9
$CELTYPE
  6
CONTINUOUS
  9
$CECOLOR
 62
   256
  9
$CELTSCALE
 40
1.0
  9
$DELOBJ
 70
     1
  9
$DISPSILH
 70
     0
  9
$DIMSCALE
 40
1.0
  9
$DIMASZ
 40
0.18
  9
$DIMEXO
 40
0.0625
  9
$DIMDLI
 40
0.38
  9
$DIMRND
 40
0.0
  9
$DIMDLE
 40
0.0
  9
$DIMEXE
 40
0.18
  9
$DIMTP
 40
0.0
  9
$DIMTM
 40
0.0
  9
$DIMTXT
 40
0.18
  9
$DIMCEN
 40
0.09
  9
$DIMTSZ
 40
0.0
  9
$DIMTOL
 70
     0
  9
$DIMLIM
 70
     0
  9
$DIMTIH
 70
     1
  9
$DIMTOH
 70
     1
  9
$DIMSE1
 70
     0
  9
$DIMSE2
 70
     0
  9
$DIMTAD
 70
     0
  9
$DIMZIN
 70
     0
  9
$DIMBLK
  1

  9
$DIMASO
 70
     1
  9
$DIMSHO
 70
     1
  9
$DIMPOST
  1

  9
$DIMAPOST
  1

  9
$DIMALT
 70
     0
  9
$DIMALTD
 70
     2
  9
$DIMALTF
 40
25.4
  9
$DIMLFAC
 40
1.0
  9
$DIMTOFL
 70
     0
  9
$DIMTVP
 40
0.0
  9
$DIMTIX
 70
     0
  9
$DIMSOXD
 70
     0
  9
$DIMSAH
 70
     0
  9
$DIMBLK1
  1

  9
$DIMBLK2
  1

  9
$DIMSTYLE
  2
STANDARD
  9
$DIMCLRD
 70
     0
  9
$DIMCLRE
 70
     0
  9
$DIMCLRT
 70
     0
  9
$DIMTFAC
 40
1.0
  9
$DIMGAP
 40
0.09
  9
$DIMJUST
 70
     0
  9
$DIMSD1
 70
     0
  9
$DIMSD2
 70
     0
  9
$DIMTOLJ
 70
     1
  9
$DIMTZIN
 70
     0
  9
$DIMALTZ
 70
     0
  9
$DIMALTTZ
 70
     0
  9
$DIMFIT
 70
     3
  9
$DIMUPT
 70
     0
  9
$DIMUNIT
 70
     2
  9
$DIMDEC
 70
     4
  9
$DIMTDEC
 70
     4
  9
$DIMALTU
 70
     2
  9
$DIMALTTD
 70
     2
  9
$DIMTXSTY
  7
STANDARD
  9
$DIMAUNIT
 70
     0
  9
$LUNITS
 70
     2
  9
$LUPREC
 70
     4
  9
$SKETCHINC
 40
0.1
  9
$FILLETRAD
 40
0.0
  9
$AUNITS
 70
     0
  9
$AUPREC
 70
     0
  9
$MENU
  1
acad
  9
$ELEVATION
 40
0.0
  9
$PELEVATION
 40
0.0
  9
$THICKNESS
 40
0.0
  9
$LIMCHECK
 70
     0
  9
$BLIPMODE
 70
     1
  9
$CHAMFERA
 40
0.0
  9
$CHAMFERB
 40
0.0
  9
$CHAMFERC
 40
0.0
  9
$CHAMFERD
 40
0.0
  9
$SKPOLY
 70
     0
  9
$TDCREATE
 40
2455888.651755324
  9
$TDUPDATE
 40
2455888.651755324
  9
$TDINDWG
 40
0.0000000000
  9
$TDUSRTIMER
 40
0.0000000000
  9
$USRTIMER
 70
     1
  9
$ANGBASE
 50
0.0
  9
$ANGDIR
 70
     0
  9
$PDMODE
 70
     0
  9
$PDSIZE
 40
0.0
  9
$PLINEWID
 40
0.0
  9
$COORDS
 70
     1
  9
$SPLFRAME
 70
     0
  9
$SPLINETYPE
 70
     6
  9
$SPLINESEGS
 70
     8
  9
$ATTDIA
 70
     0
  9
$ATTREQ
 70
     1
  9
$HANDLING
 70
     1
  9
$HANDSEED
  5
595
  9
$SURFTAB1
 70
     6
  9
$SURFTAB2
 70
     6
  9
$SURFTYPE
 70
     6
  9
$SURFU
 70
     6
  9
$SURFV
 70
     6
  9
$UCSNAME
  2

  9
$UCSORG
 10
0.0
 20
0.0
 30
0.0
  9
$UCSXDIR
 10
1.0
 20
0.0
 30
0.0
  9
$UCSYDIR
 10
0.0
 20
1.0
 30
0.0
  9
$PUCSNAME
  2

  9
$PUCSORG
 10
0.0
 20
0.0
 30
0.0
  9
$PUCSXDIR
 10
1.0
 20
0.0
 30
0.0
  9
$PUCSYDIR
 10
0.0
 20
1.0
 30
0.0
  9
$USERI1
 70
     0
  9
$USERI2
 70
     0
  9
$USERI3
 70
     0
  9
$USERI4
 70
     0
  9
$USERI5
 70
     0
  9
$USERR1
 40
0.0
  9
$USERR2
 40
0.0
  9
$USERR3
 40
0.0
  9
$USERR4
 40
0.0
  9
$USERR5
 40
0.0
  9
$WORLDVIEW
 70
     1
  9
$SHADEDGE
 70
     3
  9
$SHADEDIF
 70
    70
  9
$TILEMODE
 70
     1
  9
$MAXACTVP
 70
    16
  9
$PINSBASE
 10
0.0
 20
0.0
 30
0.0
  9
$PLIMCHECK
 70
     0
  9
$PEXTMIN
 10
1.000000E+20
 20
1.000000E+20
 30
1.000000E+20
  9
$PEXTMAX
 10
-1.000000E+20
 20
-1.000000E+20
 30
-1.000000E+20
  9
$PLIMMIN
 10
0.0
 20
0.0
  9
$PLIMMAX
 10
12.0
 20
9.0
  9
$UNITMODE
 70
     0
  9
$VISRETAIN
 70
     0
  9
$PLINEGEN
 70
     1
  9
$PSLTSCALE
 70
     0
  9
$TREEDEPTH
 70
  3020
  9
$PICKSTYLE
 70
     1
  9
$CMLSTYLE
  2
Standard
  9
$CMLJUST
 70
     0
  9
$CMLSCALE
 40
1.0
  9
$PROXYGRAPHICS
 70
     0
  9
$MEASUREMENT
 70
     0
  0
ENDSEC
  0
SECTION
  2
CLASSES
  0
CLASS
  1
LWPOLYLINE
  2
AcDbPolyline
  3
"AutoCAD"
 90
        0
280
     0
281
     1
  0
CLASS
  1
IMAGE
  2
AcDbRasterImage
  3
ISM
 90
      127
280
     0
281
     1
  0
CLASS
  1
OLE2FRAME
  2
AcDbOle2Frame
  3
""
 90
        0
280
     0
281
     1
  0
CLASS
  1
HATCH
  2
AcDbHatch
  3
"ACAD_SEDONA"
 90
        0
280
     0
281
     1
  0
CLASS
  1
DICTIONARYVAR
  2
AcDbDictionaryVar
  3
"AutoCAD"
 90
        0
280
     0
281
     0
  0
CLASS
  1
RASTERVARIABLES
  2
AcDbRasterVariables
  3
ISM
 90
        0
280
     0
281
     0
  0
CLASS
  1
IMAGEDEF
  2
AcDbRasterImageDef
  3
ISM
 90
        0
280
     0
281
     0
  0
CLASS
  1
IMAGEDEF_REACTOR
  2
AcDbRasterImageDefReactor
  3
ISM
 90
        1
280
     0
281
     0
  0
CLASS
  1
IDBUFFER
  2
AcDbIdBuffer
  3
"Acad"
 90
        0
280
     0
281
     0
  0
CLASS
  1
SPATIAL_FILTER
  2
AcDbSpatialFilter
  3
"Acad"
 90
        0
280
     0
281
     0
  0
CLASS
  1
XRECORD
  2
AcDbXrecord
  3
"<Built In>"
 90
        0
280
     0
281
     0
  0
CLASS
  1
SORTENTSTABLE
  2
AcDbSortentsTable
  3
"AutoCAD"
 90
        0
280
     0
281
     0
  0
CLASS
  1
LAYER_INDEX
  2
AcDbLayerIndex
  3
"Acad"
 90
        0
280
     0
281
     0
  0
CLASS
  1
SPATIAL_INDEX
  2
AcDbSpatialIndex
  3
"Acad"
 90
        0
280
     0
281
     0
  0
CLASS
  1
OBJECT_PTR
  2
CAseDLPNTableRecord
  3
"ASE-LPNTableRecord"
 90
        1
280
     0
281
     0
  0
CLASS
  1
LAYOUT
  2
AcDbLayout
  3
"AutoCAD 2000"
 90
        1
280
     0
281
     0
  0
CLASS
  1
PLOTSETTINGS
  2
AcDbPlotSettings
  3
"AutoCAD 2000"
 90
        1
280
     0
281
     0
  0
CLASS
  1
ACDBDICTIONARYWDFLT
  2
AcDbDictionaryWithDefault
  3
"AutoCAD 2000"
 90
        1
280
     0
281
     0
  0
CLASS
  1
ACDBPLACEHOLDER
  2
AcDbPlaceHolder
  3
"AutoCAD 2000"
 90
        1
280
     0
281
     0
  0
CLASS
  1
VBA_PROJECT
  2
AcDbVbaProject
  3
"acadvba"
 90
        1
280
     0
281
     0
  0
CLASS
  1
WIPEOUT
  2
AcDbWipeout
  3
WipeOut|AutoCAD Express Tool|expresstools@autodesk.com
 90
      127
280
     0
281
     1
  0
CLASS
  1
WIPEOUTVARIABLES
  2
AcDbWipeoutVariables
  3
WipeOut|AutoCAD Express Tool|expresstools@autodesk.com
 90
        0
280
     0
281
     0
  0
CLASS
  1
RTEXT
  2
RText
  3
RText|AutoCAD Express Tool|expresstools@autodesk.com
 90
        0
280
     0
281
     1
  0
CLASS
  1
ARCALIGNEDTEXT
  2
AcDbArcAlignedText
  3
ATEXT|AutoCAD Express Tool|expresstools@autodesk.com
 90
        0
280
     0
281
     1
  0
ENDSEC
  0
SECTION
  2
TABLES
  0
TABLE
  2
VPORT
  5
7
100
AcDbSymbolTable
 70
     1
  0
VPORT
  5
15
100
AcDbSymbolTableRecord
100
AcDbViewportTableRecord
  2
*ACTIVE
 70
     0
 10
0.0
 20
0.0
 11
1.0
 21
1.0
 12
357.7
 22
297.0
 13
0.0
 23
0.0
 14
1.0
 24
1.0
 15
0.0
 25
0.0
 16
0.0
 26
0.0
 36
1.0
 17
0.0
 27
0.0
 37
0.0
 40
560.0
 41
1.722533
 42
50.0
 43
0.0
 44
0.0
 50
0.0
 51
0.0
 71
     0
 72
   100
 73
     1
 74
     1
 75
     0
 76
     0
 77
     0
 78
     0
  0
ENDTAB
  0
TABLE
  2
LTYPE
  5
4
100
AcDbSymbolTable
 70
     9
  0
LTYPE
  5
11
100
AcDbSymbolTableRecord
100
AcDbLinetypeTableRecord
  2
BYBLOCK
 70
    64
  3

 72
    65
 73
     0
 40
0.0
  0
LTYPE
  5
12
100
AcDbSymbolTableRecord
100
AcDbLinetypeTableRecord
  2
BYLAYER
 70
    64
  3

 72
    65
 73
     0
 40
0.0
  0
LTYPE
  5
13
100
AcDbSymbolTableRecord
100
AcDbLinetypeTableRecord
  2
CONTINUOUS
 70
    64
  3
実線
 72
    65
 73
     0
 40
0.0
  0
LTYPE
  5
1D
100
AcDbSymbolTableRecord
100
AcDbLinetypeTableRecord
  2
EXLTYPE1
 70
    64
  3
破線
 72
    65
 73
     2
 40
3.0
 49
2.0
 74
     0
 49
-1.0
 74
     0
  0
LTYPE
  5
1E
100
AcDbSymbolTableRecord
100
AcDbLinetypeTableRecord
  2
EXLTYPE2
 70
    64
  3
点線
 72
    65
 73
     2
 40
2.0
 49
1.0
 74
     0
 49
-1.0
 74
     0
  0
LTYPE
  5
1F
100
AcDbSymbolTableRecord
100
AcDbLinetypeTableRecord
  2
EXLTYPE3
 70
    64
  3
一点鎖線
 72
    65
 73
     4
 40
10.0
 49
7.0
 74
     0
 49
-1.0
 74
     0
 49
1.0
 74
     0
 49
-1.0
 74
     0
  0
LTYPE
  5
20
100
AcDbSymbolTableRecord
100
AcDbLinetypeTableRecord
  2
EXLTYPE4
 70
    64
  3
二点鎖線
 72
    65
 73
     6
 40
12.0
 49
7.0
 74
     0
 49
-1.0
 74
     0
 49
1.0
 74
     0
 49
-1.0
 74
     0
 49
1.0
 74
     0
 49
-1.0
 74
     0
  0
LTYPE
  5
21
100
AcDbSymbolTableRecord
100
AcDbLinetypeTableRecord
  2
EXLTYPE5
 70
    64
  3
三点鎖線
 72
    65
 73
     8
 40
37.0
 49
30.0
 74
     0
 49
-1.0
 74
     0
 49
1.0
 74
     0
 49
-1.0
 74
     0
 49
1.0
 74
     0
 49
-1.0
 74
     0
 49
1.0
 74
     0
 49
-1.0
 74
     0
  0
LTYPE
  5
22
100
AcDbSymbolTableRecord
100
AcDbLinetypeTableRecord
  2
EXLTYPE6
 70
    64
  3
四点鎖線
 72
    65
 73
    10
 40
39.0
 49
30.0
 74
     0
 49
-1.0
 74
     0
 49
1.0
 74
     0
 49
-1.0
 74
     0
 49
1.0
 74
     0
 49
-1.0
 74
     0
 49
1.0
 74
     0
 49
-1.0
 74
     0
 49
1.0
 74
     0
 49
-1.0
 74
     0
  0
ENDTAB
  0
TABLE
  2
LAYER
  5
2
100
AcDbSymbolTable
 70
     5
  0
LAYER
  5
14
100
AcDbSymbolTableRecord
100
AcDbLayerTableRecord
  2
0
 70
     0
 62
     7
  6
CONTINUOUS
  0
LAYER
  5
25
100
AcDbSymbolTableRecord
100
AcDbLayerTableRecord
  2
1
 70
    64
 62
     7
  6
CONTINUOUS
  0
LAYER
  5
26
100
AcDbSymbolTableRecord
100
AcDbLayerTableRecord
  2
2
 70
    64
 62
     7
  6
CONTINUOUS
  0
LAYER
  5
27
100
AcDbSymbolTableRecord
100
AcDbLayerTableRecord
  2
LAY-4
 70
    64
 62
     7
  6
CONTINUOUS
  0
LAYER
  5
28
100
AcDbSymbolTableRecord
100
AcDbLayerTableRecord
  2
LAY-5
 70
    64
 62
     7
  6
CONTINUOUS
  0
ENDTAB
  0
TABLE
  2
STYLE
  5
3
100
AcDbSymbolTable
 70
     5
  0
STYLE
  5
17
100
AcDbSymbolTableRecord
100
AcDbTextStyleTableRecord
  2
STANDARD
 70
     0
 40
0.0
 41
1.0
 50
0.0
 71
     0
 42
0.0
  3
monotxt
  4
extfont
  0
STYLE
  5
23
100
AcDbSymbolTableRecord
100
AcDbTextStyleTableRecord
  2
EXCADSTD
 70
    64
 40
0.0
 41
1.0
 50
0.0
 71
     0
 42
0.2
  3
monotxt
  4
extfont
  0
STYLE
  5
24
100
AcDbSymbolTableRecord
100
AcDbTextStyleTableRecord
  2
EXCADVERT
 70
    68
 40
0.0
 41
1.0
 50
0.0
 71
     0
 42
0.286885
  3
monotxt
  4
extfont
  0
STYLE
  5
D0
100
AcDbSymbolTableRecord
100
AcDbTextStyleTableRecord
  2
EXCADTTF1
 70
    64
 40
0.0
 41
1.0
 50
0.0
 71
     0
 42
0.2
  3
MS Gothic.ttf
  4

1001
ACAD
1000
MS Gothic
1071
    32817
  0
STYLE
  5
E3
100
AcDbSymbolTableRecord
100
AcDbTextStyleTableRecord
  2
EXCADDIM1
 70
    64
 40
0.0
 41
0.84
 50
0.0
 71
     0
 42
0.2
  3
monotxt
  4
extfont
  0
ENDTAB
  0
TABLE
  2
VIEW
  5
5
100
AcDbSymbolTable
 70
     0
  0
ENDTAB
  0
TABLE
  2
UCS
  5
6
100
AcDbSymbolTable
 70
     0
  0
ENDTAB
  0
TABLE
  2
APPID
  5
8
100
AcDbSymbolTable
 70
     1
  0
APPID
  5
16
100
AcDbSymbolTableRecord
100
AcDbRegAppTableRecord
  2
ACAD
 70
     0
  0
ENDTAB
  0
TABLE
  2
DIMSTYLE
  5
9
100
AcDbSymbolTable
 70
     1
  0
DIMSTYLE
105
18
100
AcDbSymbolTableRecord
100
AcDbDimStyleTableRecord
  2
STANDARD
 70
     0
  3

  4

  5

  6

  7

 40
1.0
 41
0.18
 42
0.0625
 43
0.38
 44
0.18
 45
0.0
 46
0.0
 47
0.0
 48
0.0
 71
     0
 72
     0
 73
     1
 74
     1
 75
     0
 76
     0
 77
     0
 78
     0
140
0.18
141
0.09
142
0.0
143
25.4
144
1.0
145
0.0
146
1.0
147
0.09
170
     0
171
     2
172
     1
173
     0
174
     0
175
     0
176
     0
177
     0
178
     0
270
     2
271
     4
272
     4
273
     2
274
     2
275
     0
280
     0
281
     0
282
     0
283
     1
284
     0
285
     0
286
     0
287
     0
288
     0
340
17
  0
ENDTAB
  0
TABLE
  2
BLOCK_RECORD
  5
1
100
AcDbSymbolTable
 70
    23
  0
BLOCK_RECORD
  5
A
100
AcDbSymbolTableRecord
100
AcDbBlockTableRecord
  2
*MODEL_SPACE
  0
BLOCK_RECORD
  5
B
100
AcDbSymbolTableRecord
100
AcDbBlockTableRecord
  2
*PAPER_SPACE
  0
BLOCK_RECORD
  5
29
100
AcDbSymbolTableRecord
100
AcDbBlockTableRecord
  2
_EX_NORM
  0
BLOCK_RECORD
  5
2A
100
AcDbSymbolTableRecord
100
AcDbBlockTableRecord
  2
_EX_BNORM
  0
BLOCK_RECORD
  5
2B
100
AcDbSymbolTableRecord
100
AcDbBlockTableRecord
  2
_EX_BCIR
  0
BLOCK_RECORD
  5
2C
100
AcDbSymbolTableRecord
100
AcDbBlockTableRecord
  2
_EX_RCIVIL
  0
BLOCK_RECORD
  5
2D
100
AcDbSymbolTableRecord
100
AcDbBlockTableRecord
  2
_EX_SLANT
  0
BLOCK_RECORD
  5
2E
100
AcDbSymbolTableRecord
100
AcDbBlockTableRecord
  2
_EX_NONE
  0
BLOCK_RECORD
  5
2F
100
AcDbSymbolTableRecord
100
AcDbBlockTableRecord
  2
_EX_CIVIL
  0
BLOCK_RECORD
  5
30
100
AcDbSymbolTableRecord
100
AcDbBlockTableRecord
  2
_EX_WCIR
  0
BLOCK_RECORD
  5
31
100
AcDbSymbolTableRecord
100
AcDbBlockTableRecord
  2
_EX_WCIR2
  0
BLOCK_RECORD
  5
32
100
AcDbSymbolTableRecord
100
AcDbBlockTableRecord
  2
_EX_WNORM
  0
BLOCK_RECORD
  5
33
100
AcDbSymbolTableRecord
100
AcDbBlockTableRecord
  2
_EX_NNORM
  0
BLOCK_RECORD
  5
34
100
AcDbSymbolTableRecord
100
AcDbBlockTableRecord
  2
_EX_BBOX
  0
BLOCK_RECORD
  5
35
100
AcDbSymbolTableRecord
100
AcDbBlockTableRecord
  2
_EX_WBOX
  0
BLOCK_RECORD
  5
36
100
AcDbSymbolTableRecord
100
AcDbBlockTableRecord
  2
_EX_INTEGRAL
  0
BLOCK_RECORD
  5
D8
100
AcDbSymbolTableRecord
100
AcDbBlockTableRecord
  2
*D14
  0
BLOCK_RECORD
  5
EF
100
AcDbSymbolTableRecord
100
AcDbBlockTableRecord
  2
*D15
  0
BLOCK_RECORD
  5
FB
100
AcDbSymbolTableRecord
100
AcDbBlockTableRecord
  2
*D16
  0
BLOCK_RECORD
  5
107
100
AcDbSymbolTableRecord
100
AcDbBlockTableRecord
  2
*D17
  0
BLOCK_RECORD
  5
112
100
AcDbSymbolTableRecord
100
AcDbBlockTableRecord
  2
*D18
  0
BLOCK_RECORD
  5
11E
100
AcDbSymbolTableRecord
100
AcDbBlockTableRecord
  2
*D19
  0
BLOCK_RECORD
  5
12A
100
AcDbSymbolTableRecord
100
AcDbBlockTableRecord
  2
*D20
  0
BLOCK_RECORD
  5
136
100
AcDbSymbolTableRecord
100
AcDbBlockTableRecord
  2
*D21
  0
BLOCK_RECORD
  5
142
100
AcDbSymbolTableRecord
100
AcDbBlockTableRecord
  2
*D22
  0
ENDTAB
  0
ENDSEC
  0
SECTION
  2
BLOCKS
  0
BLOCK
  5
D
100
AcDbEntity
  8
0
100
AcDbBlockBegin
  2
*MODEL_SPACE
 70
     0
 10
0.0
 20
0.0
 30
0.0
  3
*MODEL_SPACE
  1

  0
ENDBLK
  5
E
100
AcDbEntity
  8
0
100
AcDbBlockEnd
  0
BLOCK
  5
F
100
AcDbEntity
 67
     1
  8
0
100
AcDbBlockBegin
  2
*PAPER_SPACE
 70
     0
 10
0.0
 20
0.0
 30
0.0
  3
*PAPER_SPACE
  1

  0
ENDBLK
  5
10
100
AcDbEntity
 67
     1
  8
0
100
AcDbBlockEnd
  0
BLOCK
  5
37
100
AcDbEntity
  8
0
100
AcDbBlockBegin
  2
_EX_NORM
 70
     0
 10
0.0
 20
0.0
 30
0.0
  3
_EX_NORM
  1

  0
LINE
  5
38
100
AcDbEntity
  8
0
  6
CONTINUOUS
 62
     0
100
AcDbLine
 10
0.0
 20
0.0
 30
0.0
 11
-1.0
 21
0.0
 31
0.0
  0
LINE
  5
39
100
AcDbEntity
  8
0
  6
CONTINUOUS
 62
     0
100
AcDbLine
 10
0.0
 20
0.0
 30
0.0
 11
-1.0
 21
0.166667
 31
0.0
  0
LINE
  5
3A
100
AcDbEntity
  8
0
  6
CONTINUOUS
 62
     0
100
AcDbLine
 10
0.0
 20
0.0
 30
0.0
 11
-1.0
 21
-0.166667
 31
0.0
  0
ENDBLK
  5
3B
100
AcDbEntity
  8
0
100
AcDbBlockEnd
  0
BLOCK
  5
3C
100
AcDbEntity
  8
0
100
AcDbBlockBegin
  2
_EX_BNORM
 70
     0
 10
0.0
 20
0.0
 30
0.0
  3
_EX_BNORM
  1

  0
LINE
  5
3D
100
AcDbEntity
  8
0
  6
CONTINUOUS
 62
     0
100
AcDbLine
 10
0.0
 20
0.0
 30
0.0
 11
-1.0
 21
0.0
 31
0.0
  0
LINE
  5
3E
100
AcDbEntity
  8
0
  6
CONTINUOUS
 62
     0
100
AcDbLine
 10
0.0
 20
0.0
 30
0.0
 11
-1.0
 21
0.166667
 31
0.0
  0
LINE
  5
3F
100
AcDbEntity
  8
0
  6
CONTINUOUS
 62
     0
100
AcDbLine
 10
0.0
 20
0.0
 30
0.0
 11
-1.0
 21
-0.166667
 31
0.0
  0
LINE
  5
40
100
AcDbEntity
  8
0
  6
CONTINUOUS
 62
     0
100
AcDbLine
 10
0.0
 20
0.0
 30
0.0
 11
-1.0
 21
0.083333
 31
0.0
  0
LINE
  5
41
100
AcDbEntity
  8
0
  6
CONTINUOUS
 62
     0
100
AcDbLine
 10
0.0
 20
0.0
 30
0.0
 11
-1.0
 21
-0.083333
 31
0.0
  0
LINE
  5
42
100
AcDbEntity
  8
0
  6
CONTINUOUS
 62
     0
100
AcDbLine
 10
-1.0
 20
0.166667
 30
0.0
 11
-1.0
 21
-0.166667
 31
0.0
  0
ENDBLK
  5
43
100
AcDbEntity
  8
0
100
AcDbBlockEnd
  0
BLOCK
  5
44
100
AcDbEntity
  8
0
100
AcDbBlockBegin
  2
_EX_BCIR
 70
     0
 10
0.0
 20
0.0
 30
0.0
  3
_EX_BCIR
  1

  0
LINE
  5
45
100
AcDbEntity
  8
0
  6
CONTINUOUS
 62
     0
100
AcDbLine
 10
0.0
 20
0.0
 30
0.0
 11
-1.0
 21
0.0
 31
0.0
  0
CIRCLE
  5
46
100
AcDbEntity
  8
0
  6
CONTINUOUS
 62
     0
100
AcDbCircle
 10
0.0
 20
0.0
 30
0.0
 40
0.5
  0
CIRCLE
  5
47
100
AcDbEntity
  8
0
  6
CONTINUOUS
 62
     0
100
AcDbCircle
 10
0.0
 20
0.0
 30
0.0
 40
0.25
  0
ENDBLK
  5
48
100
AcDbEntity
  8
0
100
AcDbBlockEnd
  0
BLOCK
  5
49
100
AcDbEntity
  8
0
100
AcDbBlockBegin
  2
_EX_RCIVIL
 70
     0
 10
0.0
 20
0.0
 30
0.0
  3
_EX_RCIVIL
  1

  0
LINE
  5
4A
100
AcDbEntity
  8
0
  6
CONTINUOUS
 62
     0
100
AcDbLine
 10
0.0
 20
0.0
 30
0.0
 11
-1.0
 21
0.0
 31
0.0
  0
LINE
  5
4B
100
AcDbEntity
  8
0
  6
CONTINUOUS
 62
     0
100
AcDbLine
 10
-1.0
 20
-0.25
 30
0.0
 11
0.0
 21
-0.25
 31
0.0
  0
LINE
  5
4C
100
AcDbEntity
  8
0
  6
CONTINUOUS
 62
     0
100
AcDbLine
 10
-1.0
 20
-0.125
 30
0.0
 11
0.0
 21
-0.125
 31
0.0
  0
ENDBLK
  5
4D
100
AcDbEntity
  8
0
100
AcDbBlockEnd
  0
BLOCK
  5
4E
100
AcDbEntity
  8
0
100
AcDbBlockBegin
  2
_EX_SLANT
 70
     0
 10
0.0
 20
0.0
 30
0.0
  3
_EX_SLANT
  1

  0
LINE
  5
4F
100
AcDbEntity
  8
0
  6
CONTINUOUS
 62
     0
100
AcDbLine
 10
0.0
 20
0.0
 30
0.0
 11
-1.0
 21
0.0
 31
0.0
  0
LINE
  5
50
100
AcDbEntity
  8
0
  6
CONTINUOUS
 62
     0
100
AcDbLine
 10
0.707107
 20
0.707107
 30
0.0
 11
-0.707107
 21
-0.707107
 31
0.0
  0
ENDBLK
  5
51
100
AcDbEntity
  8
0
100
AcDbBlockEnd
  0
BLOCK
  5
52
100
AcDbEntity
  8
0
100
AcDbBlockBegin
  2
_EX_NONE
 70
     0
 10
0.0
 20
0.0
 30
0.0
  3
_EX_NONE
  1

  0
LINE
  5
53
100
AcDbEntity
  8
0
  6
CONTINUOUS
 62
     0
100
AcDbLine
 10
0.0
 20
0.0
 30
0.0
 11
-1.0
 21
0.0
 31
0.0
  0
ENDBLK
  5
54
100
AcDbEntity
  8
0
100
AcDbBlockEnd
  0
BLOCK
  5
55
100
AcDbEntity
  8
0
100
AcDbBlockBegin
  2
_EX_CIVIL
 70
     0
 10
0.0
 20
0.0
 30
0.0
  3
_EX_CIVIL
  1

  0
LINE
  5
56
100
AcDbEntity
  8
0
  6
CONTINUOUS
 62
     0
100
AcDbLine
 10
0.0
 20
0.0
 30
0.0
 11
-1.0
 21
0.0
 31
0.0
  0
LINE
  5
57
100
AcDbEntity
  8
0
  6
CONTINUOUS
 62
     0
100
AcDbLine
 10
-1.0
 20
0.25
 30
0.0
 11
0.0
 21
0.25
 31
0.0
  0
LINE
  5
58
100
AcDbEntity
  8
0
  6
CONTINUOUS
 62
     0
100
AcDbLine
 10
-1.0
 20
0.125
 30
0.0
 11
0.0
 21
0.125
 31
0.0
  0
ENDBLK
  5
59
100
AcDbEntity
  8
0
100
AcDbBlockEnd
  0
BLOCK
  5
5A
100
AcDbEntity
  8
0
100
AcDbBlockBegin
  2
_EX_WCIR
 70
     0
 10
0.0
 20
0.0
 30
0.0
  3
_EX_WCIR
  1

  0
LINE
  5
5B
100
AcDbEntity
  8
0
  6
CONTINUOUS
 62
     0
100
AcDbLine
 10
0.0
 20
0.0
 30
0.0
 11
-1.0
 21
0.0
 31
0.0
  0
CIRCLE
  5
5C
100
AcDbEntity
  8
0
  6
CONTINUOUS
 62
     0
100
AcDbCircle
 10
0.0
 20
0.0
 30
0.0
 40
0.5
  0
ENDBLK
  5
5D
100
AcDbEntity
  8
0
100
AcDbBlockEnd
  0
BLOCK
  5
5E
100
AcDbEntity
  8
0
100
AcDbBlockBegin
  2
_EX_WCIR2
 70
     0
 10
0.0
 20
0.0
 30
0.0
  3
_EX_WCIR2
  1

  0
LINE
  5
5F
100
AcDbEntity
  8
0
  6
CONTINUOUS
 62
     0
100
AcDbLine
 10
-0.5
 20
0.0
 30
0.0
 11
-1.0
 21
0.0
 31
0.0
  0
CIRCLE
  5
60
100
AcDbEntity
  8
0
  6
CONTINUOUS
 62
     0
100
AcDbCircle
 10
0.0
 20
0.0
 30
0.0
 40
0.5
  0
ENDBLK
  5
61
100
AcDbEntity
  8
0
100
AcDbBlockEnd
  0
BLOCK
  5
62
100
AcDbEntity
  8
0
100
AcDbBlockBegin
  2
_EX_WNORM
 70
     0
 10
0.0
 20
0.0
 30
0.0
  3
_EX_WNORM
  1

  0
LINE
  5
63
100
AcDbEntity
  8
0
  6
CONTINUOUS
 62
     0
100
AcDbLine
 10
-1.0
 20
0.0
 30
0.0
 11
-1.0
 21
0.0
 31
0.0
  0
LINE
  5
64
100
AcDbEntity
  8
0
  6
CONTINUOUS
 62
     0
100
AcDbLine
 10
0.0
 20
0.0
 30
0.0
 11
-1.0
 21
0.166667
 31
0.0
  0
LINE
  5
65
100
AcDbEntity
  8
0
  6
CONTINUOUS
 62
     0
100
AcDbLine
 10
0.0
 20
0.0
 30
0.0
 11
-1.0
 21
-0.166667
 31
0.0
  0
LINE
  5
66
100
AcDbEntity
  8
0
  6
CONTINUOUS
 62
     0
100
AcDbLine
 10
-1.0
 20
0.166667
 30
0.0
 11
-1.0
 21
-0.166667
 31
0.0
  0
ENDBLK
  5
67
100
AcDbEntity
  8
0
100
AcDbBlockEnd
  0
BLOCK
  5
68
100
AcDbEntity
  8
0
100
AcDbBlockBegin
  2
_EX_NNORM
 70
     0
 10
0.0
 20
0.0
 30
0.0
  3
_EX_NNORM
  1

  0
LINE
  5
69
100
AcDbEntity
  8
0
  6
CONTINUOUS
 62
     0
100
AcDbLine
 10
0.0
 20
0.0
 30
0.0
 11
-1.0
 21
0.0
 31
0.0
  0
LINE
  5
6A
100
AcDbEntity
  8
0
  6
CONTINUOUS
 62
     0
100
AcDbLine
 10
0.0
 20
0.0
 30
0.0
 11
-1.0
 21
0.166667
 31
0.0
  0
LINE
  5
6B
100
AcDbEntity
  8
0
  6
CONTINUOUS
 62
     0
100
AcDbLine
 10
0.0
 20
0.0
 30
0.0
 11
-1.0
 21
-0.166667
 31
0.0
  0
LINE
  5
6C
100
AcDbEntity
  8
0
  6
CONTINUOUS
 62
     0
100
AcDbLine
 10
-1.0
 20
0.166667
 30
0.0
 11
-1.0
 21
-0.166667
 31
0.0
  0
ENDBLK
  5
6D
100
AcDbEntity
  8
0
100
AcDbBlockEnd
  0
BLOCK
  5
6E
100
AcDbEntity
  8
0
100
AcDbBlockBegin
  2
_EX_BBOX
 70
     0
 10
0.0
 20
0.0
 30
0.0
  3
_EX_BBOX
  1

  0
LINE
  5
6F
100
AcDbEntity
  8
0
  6
CONTINUOUS
 62
     0
100
AcDbLine
 10
0.0
 20
0.0
 30
0.0
 11
-1.0
 21
0.0
 31
0.0
  0
LINE
  5
70
100
AcDbEntity
  8
0
  6
CONTINUOUS
 62
     0
100
AcDbLine
 10
-0.5
 20
0.5
 30
0.0
 11
0.5
 21
0.5
 31
0.0
  0
LINE
  5
71
100
AcDbEntity
  8
0
  6
CONTINUOUS
 62
     0
100
AcDbLine
 10
0.5
 20
0.5
 30
0.0
 11
0.5
 21
-0.5
 31
0.0
  0
LINE
  5
72
100
AcDbEntity
  8
0
  6
CONTINUOUS
 62
     0
100
AcDbLine
 10
0.5
 20
-0.5
 30
0.0
 11
-0.5
 21
-0.5
 31
0.0
  0
LINE
  5
73
100
AcDbEntity
  8
0
  6
CONTINUOUS
 62
     0
100
AcDbLine
 10
-0.5
 20
-0.5
 30
0.0
 11
-0.5
 21
0.5
 31
0.0
  0
LINE
  5
74
100
AcDbEntity
  8
0
  6
CONTINUOUS
 62
     0
100
AcDbLine
 10
-0.25
 20
0.25
 30
0.0
 11
0.25
 21
0.25
 31
0.0
  0
LINE
  5
75
100
AcDbEntity
  8
0
  6
CONTINUOUS
 62
     0
100
AcDbLine
 10
0.25
 20
0.25
 30
0.0
 11
0.25
 21
-0.25
 31
0.0
  0
LINE
  5
76
100
AcDbEntity
  8
0
  6
CONTINUOUS
 62
     0
100
AcDbLine
 10
0.25
 20
-0.25
 30
0.0
 11
-0.25
 21
-0.25
 31
0.0
  0
LINE
  5
77
100
AcDbEntity
  8
0
  6
CONTINUOUS
 62
     0
100
AcDbLine
 10
-0.25
 20
-0.25
 30
0.0
 11
-0.25
 21
0.25
 31
0.0
  0
ENDBLK
  5
78
100
AcDbEntity
  8
0
100
AcDbBlockEnd
  0
BLOCK
  5
79
100
AcDbEntity
  8
0
100
AcDbBlockBegin
  2
_EX_WBOX
 70
     0
 10
0.0
 20
0.0
 30
0.0
  3
_EX_WBOX
  1

  0
LINE
  5
7A
100
AcDbEntity
  8
0
  6
CONTINUOUS
 62
     0
100
AcDbLine
 10
-0.5
 20
0.0
 30
0.0
 11
-1.0
 21
0.0
 31
0.0
  0
LINE
  5
7B
100
AcDbEntity
  8
0
  6
CONTINUOUS
 62
     0
100
AcDbLine
 10
-0.5
 20
0.5
 30
0.0
 11
0.5
 21
0.5
 31
0.0
  0
LINE
  5
7C
100
AcDbEntity
  8
0
  6
CONTINUOUS
 62
     0
100
AcDbLine
 10
0.5
 20
0.5
 30
0.0
 11
0.5
 21
-0.5
 31
0.0
  0
LINE
  5
7D
100
AcDbEntity
  8
0
  6
CONTINUOUS
 62
     0
100
AcDbLine
 10
0.5
 20
-0.5
 30
0.0
 11
-0.5
 21
-0.5
 31
0.0
  0
LINE
  5
7E
100
AcDbEntity
  8
0
  6
CONTINUOUS
 62
     0
100
AcDbLine
 10
-0.5
 20
-0.5
 30
0.0
 11
-0.5
 21
0.5
 31
0.0
  0
ENDBLK
  5
7F
100
AcDbEntity
  8
0
100
AcDbBlockEnd
  0
BLOCK
  5
80
100
AcDbEntity
  8
0
100
AcDbBlockBegin
  2
_EX_INTEGRAL
 70
     0
 10
0.0
 20
0.0
 30
0.0
  3
_EX_INTEGRAL
  1

  0
LINE
  5
81
100
AcDbEntity
  8
0
  6
CONTINUOUS
 62
     0
100
AcDbLine
 10
0.0
 20
0.0
 30
0.0
 11
-1.0
 21
0.0
 31
0.0
  0
ARC
  5
82
100
AcDbEntity
  8
0
  6
CONTINUOUS
 62
     0
100
AcDbCircle
 10
0.542115
 20
0.164992
 30
0.0
 40
0.56667
100
AcDbArc
 50
73.07249
 51
196.927513
  0
ARC
  5
83
100
AcDbEntity
  8
0
  6
CONTINUOUS
 62
     0
100
AcDbCircle
 10
-0.542115
 20
-0.164992
 30
0.0
 40
0.56667
100
AcDbArc
 50
253.072487
 51
16.927513
  0
ENDBLK
  5
84
100
AcDbEntity
  8
0
100
AcDbBlockEnd
  0
BLOCK
  5
D9
100
AcDbEntity
  8
0
100
AcDbBlockBegin
  2
*D14
 70
    65
 10
0.0
 20
0.0
 30
0.0
  3
*D14
  1

  0
LINE
  5
DA
100
AcDbEntity
  8
0
  6
CONTINUOUS
 62
     3
100
AcDbLine
 10
74.7
 20
229.615582
 30
0.0
 11
74.7
 21
132.4
 31
0.0
  0
LINE
  5
DB
100
AcDbEntity
  8
0
  6
CONTINUOUS
 62
     3
100
AcDbLine
 10
219.7
 20
229.615582
 30
0.0
 11
219.7
 21
132.4
 31
0.0
  0
LINE
  5
DC
100
AcDbEntity
  8
0
  6
CONTINUOUS
 62
     3
100
AcDbLine
 10
74.7
 20
134.4
 30
0.0
 11
219.7
 21
134.4
 31
0.0
  0
LINE
  5
DD
100
AcDbEntity
  8
0
  6
CONTINUOUS
 62
     3
100
AcDbLine
 10
80.7
 20
135.4
 30
0.0
 11
74.7
 21
134.4
 31
0.0
  0
LINE
  5
DE
100
AcDbEntity
  8
0
  6
CONTINUOUS
 62
     3
100
AcDbLine
 10
74.7
 20
134.4
 30
0.0
 11
80.7
 21
133.4
 31
0.0
  0
LINE
  5
DF
100
AcDbEntity
  8
0
  6
CONTINUOUS
 62
     3
100
AcDbLine
 10
213.7
 20
133.4
 30
0.0
 11
219.7
 21
134.4
 31
0.0
  0
LINE
  5
E0
100
AcDbEntity
  8
0
  6
CONTINUOUS
 62
     3
100
AcDbLine
 10
219.7
 20
134.4
 30
0.0
 11
213.7
 21
135.4
 31
0.0
  0
TEXT
  5
E1
100
AcDbEntity
  8
0
  6
CONTINUOUS
 62
     2
100
AcDbText
 10
135.776
 20
135.4
 30
0.0
 40
8.0
  1
%%c145
 41
0.84
  7
EXCADSTD
 72
     1
 11
147.2
 21
135.4
 31
0.0
100
AcDbText
  0
ENDBLK
  5
E2
100
AcDbEntity
  8
0
100
AcDbBlockEnd
  0
BLOCK
  5
F0
100
AcDbEntity
  8
0
100
AcDbBlockBegin
  2
*D15
 70
    65
 10
0.0
 20
0.0
 30
0.0
  3
*D15
  1

  0
TEXT
  5
F1
100
AcDbEntity
  8
1
  6
CONTINUOUS
 62
     2
100
AcDbText
 10
302.382497
 20
135.0
 30
0.0
 40
8.0
  1
%%c10
 41
0.84
  7
EXCADSTD
 72
     1
 11
310.782497
 21
135.0
 31
0.0
100
AcDbText
  0
LINE
  5
F2
100
AcDbEntity
  8
1
  6
CONTINUOUS
 62
     3
100
AcDbLine
 10
278.782497
 20
134.4
 30
0.0
 11
321.382497
 21
134.4
 31
0.0
  0
LINE
  5
F3
100
AcDbEntity
  8
1
  6
CONTINUOUS
 62
     3
100
AcDbLine
 10
278.782497
 20
133.4
 30
0.0
 11
284.782497
 21
134.4
 31
0.0
  0
LINE
  5
F4
100
AcDbEntity
  8
1
  6
CONTINUOUS
 62
     3
100
AcDbLine
 10
284.782497
 20
134.4
 30
0.0
 11
278.782497
 21
135.4
 31
0.0
  0
LINE
  5
F5
100
AcDbEntity
  8
1
  6
CONTINUOUS
 62
     3
100
AcDbLine
 10
300.782497
 20
135.4
 30
0.0
 11
294.782497
 21
134.4
 31
0.0
  0
LINE
  5
F6
100
AcDbEntity
  8
1
  6
CONTINUOUS
 62
     3
100
AcDbLine
 10
294.782497
 20
134.4
 30
0.0
 11
300.782497
 21
133.4
 31
0.0
  0
LINE
  5
F7
100
AcDbEntity
  8
1
  6
CONTINUOUS
 62
     3
100
AcDbLine
 10
284.782497
 20
156.36
 30
0.0
 11
284.782497
 21
132.4
 31
0.0
  0
LINE
  5
F8
100
AcDbEntity
  8
1
  6
CONTINUOUS
 62
     3
100
AcDbLine
 10
294.782497
 20
156.36
 30
0.0
 11
294.782497
 21
132.4
 31
0.0
  0
ENDBLK
  5
F9
100
AcDbEntity
  8
0
100
AcDbBlockEnd
  0
BLOCK
  5
FC
100
AcDbEntity
  8
0
100
AcDbBlockBegin
  2
*D16
 70
    65
 10
0.0
 20
0.0
 30
0.0
  3
*D16
  1

  0
LINE
  5
FD
100
AcDbEntity
  8
1
  6
CONTINUOUS
 62
     3
100
AcDbLine
 10
132.2
 20
334.305045
 30
0.0
 11
132.2
 21
354.0
 31
0.0
  0
LINE
  5
FE
100
AcDbEntity
  8
1
  6
CONTINUOUS
 62
     3
100
AcDbLine
 10
162.2
 20
334.305045
 30
0.0
 11
162.2
 21
354.0
 31
0.0
  0
TEXT
  5
FF
100
AcDbEntity
  8
1
  6
CONTINUOUS
 62
     2
100
AcDbText
 10
141.32
 20
352.6
 30
0.0
 40
8.0
  1
30
 41
0.84
  7
EXCADSTD
 72
     1
 11
147.2
 21
352.6
 31
0.0
100
AcDbText
  0
LINE
  5
100
100
AcDbEntity
  8
1
  6
CONTINUOUS
 62
     3
100
AcDbLine
 10
132.2
 20
352.0
 30
0.0
 11
162.2
 21
352.0
 31
0.0
  0
LINE
  5
101
100
AcDbEntity
  8
1
  6
CONTINUOUS
 62
     3
100
AcDbLine
 10
138.2
 20
353.0
 30
0.0
 11
132.2
 21
352.0
 31
0.0
  0
LINE
  5
102
100
AcDbEntity
  8
1
  6
CONTINUOUS
 62
     3
100
AcDbLine
 10
132.2
 20
352.0
 30
0.0
 11
138.2
 21
351.0
 31
0.0
  0
LINE
  5
103
100
AcDbEntity
  8
1
  6
CONTINUOUS
 62
     3
100
AcDbLine
 10
156.2
 20
351.0
 30
0.0
 11
162.2
 21
352.0
 31
0.0
  0
LINE
  5
104
100
AcDbEntity
  8
1
  6
CONTINUOUS
 62
     3
100
AcDbLine
 10
162.2
 20
352.0
 30
0.0
 11
156.2
 21
353.0
 31
0.0
  0
ENDBLK
  5
105
100
AcDbEntity
  8
0
100
AcDbBlockEnd
  0
BLOCK
  5
108
100
AcDbEntity
  8
0
100
AcDbBlockBegin
  2
*D17
 70
    65
 10
0.0
 20
0.0
 30
0.0
  3
*D17
  1

  0
TEXT
  5
109
100
AcDbEntity
  8
1
  6
CONTINUOUS
 62
     2
100
AcDbText
 10
303.902497
 20
346.905045
 30
0.0
 40
8.0
  1
40
 41
0.84
  7
EXCADSTD
 72
     1
 11
309.782497
 21
346.905045
 31
0.0
100
AcDbText
  0
LINE
  5
10A
100
AcDbEntity
  8
1
  6
CONTINUOUS
 62
     3
100
AcDbLine
 10
329.782497
 20
346.305045
 30
0.0
 11
289.782497
 21
346.305045
 31
0.0
  0
LINE
  5
10B
100
AcDbEntity
  8
1
  6
CONTINUOUS
 62
     3
100
AcDbLine
 10
323.782497
 20
345.305045
 30
0.0
 11
329.782497
 21
346.305045
 31
0.0
  0
LINE
  5
10C
100
AcDbEntity
  8
1
  6
CONTINUOUS
 62
     3
100
AcDbLine
 10
329.782497
 20
346.305045
 30
0.0
 11
323.782497
 21
347.305045
 31
0.0
  0
LINE
  5
10D
100
AcDbEntity
  8
1
  6
CONTINUOUS
 62
     3
100
AcDbLine
 10
295.782497
 20
347.305045
 30
0.0
 11
289.782497
 21
346.305045
 31
0.0
  0
LINE
  5
10E
100
AcDbEntity
  8
1
  6
CONTINUOUS
 62
     3
100
AcDbLine
 10
289.782497
 20
346.305045
 30
0.0
 11
295.782497
 21
345.305045
 31
0.0
  0
LINE
  5
10F
100
AcDbEntity
  8
1
  6
CONTINUOUS
 62
     3
100
AcDbLine
 10
289.782497
 20
319.0
 30
0.0
 11
289.782497
 21
348.305045
 31
0.0
  0
ENDBLK
  5
110
100
AcDbEntity
  8
0
100
AcDbBlockEnd
  0
BLOCK
  5
113
100
AcDbEntity
  8
0
100
AcDbBlockBegin
  2
*D18
 70
    65
 10
0.0
 20
0.0
 30
0.0
  3
*D18
  1

  0
LINE
  5
114
100
AcDbEntity
  8
1
  6
CONTINUOUS
 62
     3
100
AcDbLine
 10
278.782497
 20
304.515582
 30
0.0
 11
278.782497
 21
363.305045
 31
0.0
  0
TEXT
  5
115
100
AcDbEntity
  8
1
  6
CONTINUOUS
 62
     2
100
AcDbText
 10
298.402497
 20
361.905045
 30
0.0
 40
8.0
  1
51
 41
0.84
  7
EXCADSTD
 72
     1
 11
304.282497
 21
361.905045
 31
0.0
100
AcDbText
  0
LINE
  5
116
100
AcDbEntity
  8
1
  6
CONTINUOUS
 62
     3
100
AcDbLine
 10
329.782497
 20
361.305045
 30
0.0
 11
278.782497
 21
361.305045
 31
0.0
  0
LINE
  5
117
100
AcDbEntity
  8
1
  6
CONTINUOUS
 62
     3
100
AcDbLine
 10
323.782497
 20
360.305045
 30
0.0
 11
329.782497
 21
361.305045
 31
0.0
  0
LINE
  5
118
100
AcDbEntity
  8
1
  6
CONTINUOUS
 62
     3
100
AcDbLine
 10
329.782497
 20
361.305045
 30
0.0
 11
323.782497
 21
362.305045
 31
0.0
  0
LINE
  5
119
100
AcDbEntity
  8
1
  6
CONTINUOUS
 62
     3
100
AcDbLine
 10
284.782497
 20
362.305045
 30
0.0
 11
278.782497
 21
361.305045
 31
0.0
  0
LINE
  5
11A
100
AcDbEntity
  8
1
  6
CONTINUOUS
 62
     3
100
AcDbLine
 10
278.782497
 20
361.305045
 30
0.0
 11
284.782497
 21
360.305045
 31
0.0
  0
LINE
  5
11B
100
AcDbEntity
  8
1
  6
CONTINUOUS
 62
     3
100
AcDbLine
 10
329.782497
 20
335.305045
 30
0.0
 11
329.782497
 21
363.305045
 31
0.0
  0
ENDBLK
  5
11C
100
AcDbEntity
  8
0
100
AcDbBlockEnd
  0
BLOCK
  5
11F
100
AcDbEntity
  8
0
100
AcDbBlockBegin
  2
*D19
 70
    65
 10
0.0
 20
0.0
 30
0.0
  3
*D19
  1

  0
LINE
  5
120
100
AcDbEntity
  8
1
  6
CONTINUOUS
 62
     3
100
AcDbLine
 10
279.02
 20
303.515582
 30
0.0
 11
264.782497
 21
303.515582
 31
0.0
  0
LINE
  5
121
100
AcDbEntity
  8
1
  6
CONTINUOUS
 62
     3
100
AcDbLine
 10
328.782497
 20
334.305045
 30
0.0
 11
264.782497
 21
334.305045
 31
0.0
  0
TEXT
  5
122
100
AcDbEntity
  8
1
  6
CONTINUOUS
 62
     2
100
AcDbText
 10
266.182497
 20
313.030313
 30
0.0
 40
8.0
  1
31
 50
90.0
 41
0.84
  7
EXCADSTD
 72
     1
 11
266.182497
 21
318.910313
 31
0.0
100
AcDbText
  0
LINE
  5
123
100
AcDbEntity
  8
1
  6
CONTINUOUS
 62
     3
100
AcDbLine
 10
266.782497
 20
303.515582
 30
0.0
 11
266.782497
 21
334.305045
 31
0.0
  0
LINE
  5
124
100
AcDbEntity
  8
1
  6
CONTINUOUS
 62
     3
100
AcDbLine
 10
265.782497
 20
309.515582
 30
0.0
 11
266.782497
 21
303.515582
 31
0.0
  0
LINE
  5
125
100
AcDbEntity
  8
1
  6
CONTINUOUS
 62
     3
100
AcDbLine
 10
266.782497
 20
303.515582
 30
0.0
 11
267.782497
 21
309.515582
 31
0.0
  0
LINE
  5
126
100
AcDbEntity
  8
1
  6
CONTINUOUS
 62
     3
100
AcDbLine
 10
267.782497
 20
328.305045
 30
0.0
 11
266.782497
 21
334.305045
 31
0.0
  0
LINE
  5
127
100
AcDbEntity
  8
1
  6
CONTINUOUS
 62
     3
100
AcDbLine
 10
266.782497
 20
334.305045
 30
0.0
 11
265.782497
 21
328.305045
 31
0.0
  0
ENDBLK
  5
128
100
AcDbEntity
  8
0
100
AcDbBlockEnd
  0
BLOCK
  5
12B
100
AcDbEntity
  8
0
100
AcDbBlockBegin
  2
*D20
 70
    65
 10
0.0
 20
0.0
 30
0.0
  3
*D20
  1

  0
LINE
  5
12C
100
AcDbEntity
  8
1
  6
CONTINUOUS
 62
     3
100
AcDbLine
 10
372.6
 20
315.805045
 30
0.0
 11
372.6
 21
286.805045
 31
0.0
  0
LINE
  5
12D
100
AcDbEntity
  8
1
  6
CONTINUOUS
 62
     3
100
AcDbLine
 10
373.6
 20
309.805045
 30
0.0
 11
372.6
 21
315.805045
 31
0.0
  0
LINE
  5
12E
100
AcDbEntity
  8
1
  6
CONTINUOUS
 62
     3
100
AcDbLine
 10
372.6
 20
315.805045
 30
0.0
 11
371.6
 21
309.805045
 31
0.0
  0
LINE
  5
12F
100
AcDbEntity
  8
1
  6
CONTINUOUS
 62
     3
100
AcDbLine
 10
371.6
 20
292.805045
 30
0.0
 11
372.6
 21
286.805045
 31
0.0
  0
LINE
  5
130
100
AcDbEntity
  8
1
  6
CONTINUOUS
 62
     3
100
AcDbLine
 10
372.6
 20
286.805045
 30
0.0
 11
373.6
 21
292.805045
 31
0.0
  0
TEXT
  5
131
100
AcDbEntity
  8
1
  6
CONTINUOUS
 62
     2
100
AcDbText
 10
372.0
 20
295.425045
 30
0.0
 40
8.0
  1
29
 50
90.0
 41
0.84
  7
EXCADSTD
 72
     1
 11
372.0
 21
301.305045
 31
0.0
100
AcDbText
  0
LINE
  5
132
100
AcDbEntity
  8
1
  6
CONTINUOUS
 62
     3
100
AcDbLine
 10
356.0
 20
315.805045
 30
0.0
 11
374.6
 21
315.805045
 31
0.0
  0
LINE
  5
133
100
AcDbEntity
  8
1
  6
CONTINUOUS
 62
     3
100
AcDbLine
 10
356.0
 20
286.805045
 30
0.0
 11
374.6
 21
286.805045
 31
0.0
  0
ENDBLK
  5
134
100
AcDbEntity
  8
0
100
AcDbBlockEnd
  0
BLOCK
  5
137
100
AcDbEntity
  8
0
100
AcDbBlockBegin
  2
*D21
 70
    65
 10
0.0
 20
0.0
 30
0.0
  3
*D21
  1

  0
LINE
  5
138
100
AcDbEntity
  8
1
  6
CONTINUOUS
 62
     3
100
AcDbLine
 10
386.2
 20
334.305045
 30
0.0
 11
386.2
 21
268.305045
 31
0.0
  0
LINE
  5
139
100
AcDbEntity
  8
1
  6
CONTINUOUS
 62
     3
100
AcDbLine
 10
387.2
 20
328.305045
 30
0.0
 11
386.2
 21
334.305045
 31
0.0
  0
LINE
  5
13A
100
AcDbEntity
  8
1
  6
CONTINUOUS
 62
     3
100
AcDbLine
 10
386.2
 20
334.305045
 30
0.0
 11
385.2
 21
328.305045
 31
0.0
  0
LINE
  5
13B
100
AcDbEntity
  8
1
  6
CONTINUOUS
 62
     3
100
AcDbLine
 10
385.2
 20
274.305045
 30
0.0
 11
386.2
 21
268.305045
 31
0.0
  0
LINE
  5
13C
100
AcDbEntity
  8
1
  6
CONTINUOUS
 62
     3
100
AcDbLine
 10
386.2
 20
268.305045
 30
0.0
 11
387.2
 21
274.305045
 31
0.0
  0
TEXT
  5
13D
100
AcDbEntity
  8
1
  6
CONTINUOUS
 62
     2
100
AcDbText
 10
385.6
 20
295.425045
 30
0.0
 40
8.0
  1
66
 50
90.0
 41
0.84
  7
EXCADSTD
 72
     1
 11
385.6
 21
301.305045
 31
0.0
100
AcDbText
  0
LINE
  5
13E
100
AcDbEntity
  8
1
  6
CONTINUOUS
 62
     3
100
AcDbLine
 10
330.782497
 20
334.305045
 30
0.0
 11
388.2
 21
334.305045
 31
0.0
  0
LINE
  5
13F
100
AcDbEntity
  8
1
  6
CONTINUOUS
 62
     3
100
AcDbLine
 10
330.782497
 20
268.305045
 30
0.0
 11
388.2
 21
268.305045
 31
0.0
  0
ENDBLK
  5
140
100
AcDbEntity
  8
0
100
AcDbBlockEnd
  0
BLOCK
  5
143
100
AcDbEntity
  8
0
100
AcDbBlockBegin
  2
*D22
 70
    65
 10
0.0
 20
0.0
 30
0.0
  3
*D22
  1

  0
LINE
  5
144
100
AcDbEntity
  8
1
  6
CONTINUOUS
 62
     3
100
AcDbLine
 10
372.6
 20
315.805045
 30
0.0
 11
372.6
 21
334.305045
 31
0.0
  0
LINE
  5
145
100
AcDbEntity
  8
1
  6
CONTINUOUS
 62
     3
100
AcDbLine
 10
371.6
 20
321.805045
 30
0.0
 11
372.6
 21
315.805045
 31
0.0
  0
LINE
  5
146
100
AcDbEntity
  8
1
  6
CONTINUOUS
 62
     3
100
AcDbLine
 10
372.6
 20
315.805045
 30
0.0
 11
373.6
 21
321.805045
 31
0.0
  0
LINE
  5
147
100
AcDbEntity
  8
1
  6
CONTINUOUS
 62
     3
100
AcDbLine
 10
373.6
 20
328.305045
 30
0.0
 11
372.6
 21
334.305045
 31
0.0
  0
LINE
  5
148
100
AcDbEntity
  8
1
  6
CONTINUOUS
 62
     3
100
AcDbLine
 10
372.6
 20
334.305045
 30
0.0
 11
371.6
 21
328.305045
 31
0.0
  0
TEXT
  5
149
100
AcDbEntity
  8
1
  6
CONTINUOUS
 62
     2
100
AcDbText
 10
372.0
 20
315.815045
 30
0.0
 40
8.0
  1
18.5
 50
90.0
 41
0.84
  7
EXCADSTD
 72
     1
 11
372.0
 21
325.055045
 31
0.0
100
AcDbText
  0
ENDBLK
  5
14A
100
AcDbEntity
  8
0
100
AcDbBlockEnd
  0
ENDSEC
  0
SECTION
  2
ENTITIES
  0
LINE
  5
85
100
AcDbEntity
  8
0
  6
CONTINUOUS
 62
     7
100
AcDbLine
 10
36.0
 20
17.0
 30
0.0
 11
400.0
 21
17.0
 31
0.0
  0
LINE
  5
86
100
AcDbEntity
  8
0
  6
CONTINUOUS
 62
     7
100
AcDbLine
 10
400.0
 20
17.0
 30
0.0
 11
400.0
 21
577.0
 31
0.0
  0
LINE
  5
87
100
AcDbEntity
  8
0
  6
CONTINUOUS
 62
     7
100
AcDbLine
 10
36.0
 20
17.0
 30
0.0
 11
36.0
 21
577.0
 31
0.0
  0
LINE
  5
88
100
AcDbEntity
  8
0
  6
CONTINUOUS
 62
     7
100
AcDbLine
 10
36.0
 20
577.0
 30
0.0
 11
400.0
 21
577.0
 31
0.0
  0
LINE
  5
89
100
AcDbEntity
  8
0
  6
CONTINUOUS
 62
     7
100
AcDbLine
 10
36.0
 20
61.0
 30
0.0
 11
400.0
 21
61.0
 31
0.0
  0
LINE
  5
8A
100
AcDbEntity
  8
0
  6
CONTINUOUS
 62
     6
100
AcDbLine
 10
176.0
 20
565.0
 30
0.0
 11
400.0
 21
565.0
 31
0.0
  0
LINE
  5
8B
100
AcDbEntity
  8
0
  6
CONTINUOUS
 62
     6
100
AcDbLine
 10
400.0
 20
37.0
 30
0.0
 11
150.0
 21
37.0
 31
0.0
  0
LINE
  5
8C
100
AcDbEntity
  8
0
  6
CONTINUOUS
 62
     6
100
AcDbLine
 10
372.0
 20
61.0
 30
0.0
 11
372.0
 21
37.0
 31
0.0
  0
LINE
  5
8D
100
AcDbEntity
  8
0
  6
CONTINUOUS
 62
     6
100
AcDbLine
 10
362.0
 20
61.0
 30
0.0
 11
362.0
 21
37.0
 31
0.0
  0
LINE
  5
8E
100
AcDbEntity
  8
0
  6
CONTINUOUS
 62
     6
100
AcDbLine
 10
288.0
 20
61.0
 30
0.0
 11
288.0
 21
17.0
 31
0.0
  0
LINE
  5
8F
100
AcDbEntity
  8
0
  6
CONTINUOUS
 62
     6
100
AcDbLine
 10
278.0
 20
61.0
 30
0.0
 11
278.0
 21
17.0
 31
0.0
  0
LINE
  5
90
100
AcDbEntity
  8
0
  6
CONTINUOUS
 62
     6
100
AcDbLine
 10
160.0
 20
61.0
 30
0.0
 11
160.0
 21
37.0
 31
0.0
  0
LINE
  5
91
100
AcDbEntity
  8
0
  6
CONTINUOUS
 62
     6
100
AcDbLine
 10
150.0
 20
61.0
 30
0.0
 11
150.0
 21
17.0
 31
0.0
  0
LINE
  5
92
100
AcDbEntity
  8
0
  6
CONTINUOUS
 62
     6
100
AcDbLine
 10
124.0
 20
61.0
 30
0.0
 11
124.0
 21
17.0
 31
0.0
  0
LINE
  5
93
100
AcDbEntity
  8
0
  6
CONTINUOUS
 62
     6
100
AcDbLine
 10
98.0
 20
61.0
 30
0.0
 11
98.0
 21
17.0
 31
0.0
  0
LINE
  5
94
100
AcDbEntity
  8
0
  6
CONTINUOUS
 62
     6
100
AcDbLine
 10
67.0
 20
61.0
 30
0.0
 11
67.0
 21
17.0
 31
0.0
  0
LINE
  5
95
100
AcDbEntity
  8
0
  6
CONTINUOUS
 62
     6
100
AcDbLine
 10
36.0
 20
51.0
 30
0.0
 11
150.0
 21
51.0
 31
0.0
  0
LINE
  5
96
100
AcDbEntity
  8
0
  6
CONTINUOUS
 62
     6
100
AcDbLine
 10
378.530823
 20
41.600586
 30
0.0
 11
393.998779
 21
57.339966
 31
0.0
  0
LINE
  5
97
100
AcDbEntity
  8
0
  6
EXLTYPE2
 62
     6
100
AcDbLine
 10
36.0
 20
27.0
 30
0.0
 11
98.0
 21
27.0
 31
0.0
  0
CIRCLE
  5
98
100
AcDbEntity
  8
0
  6
CONTINUOUS
 62
     6
100
AcDbCircle
 10
46.0
 20
22.0
 30
0.0
 40
0.2
  0
CIRCLE
  5
99
100
AcDbEntity
  8
0
  6
CONTINUOUS
 62
     6
100
AcDbCircle
 10
56.0
 20
22.0
 30
0.0
 40
0.2
  0
CIRCLE
  5
9A
100
AcDbEntity
  8
0
  6
CONTINUOUS
 62
     6
100
AcDbCircle
 10
77.0
 20
22.0
 30
0.0
 40
0.2
  0
CIRCLE
  5
9B
100
AcDbEntity
  8
0
  6
CONTINUOUS
 62
     6
100
AcDbCircle
 10
87.0
 20
22.0
 30
0.0
 40
0.2
  0
LINE
  5
9C
100
AcDbEntity
  8
0
  6
CONTINUOUS
 62
     6
100
AcDbLine
 10
176.0
 20
540.0
 30
0.0
 11
400.0
 21
540.0
 31
0.0
  0
LINE
  5
9D
100
AcDbEntity
  8
0
  6
CONTINUOUS
 62
     6
100
AcDbLine
 10
176.0
 20
527.5
 30
0.0
 11
400.0
 21
527.5
 31
0.0
  0
LINE
  5
9E
100
AcDbEntity
  8
0
  6
CONTINUOUS
 62
     6
100
AcDbLine
 10
176.0
 20
552.5
 30
0.0
 11
400.0
 21
552.5
 31
0.0
  0
LINE
  5
9F
100
AcDbEntity
  8
0
  6
CONTINUOUS
 62
     6
100
AcDbLine
 10
176.0
 20
577.0
 30
0.0
 11
176.0
 21
515.0
 31
0.0
  0
LINE
  5
A0
100
AcDbEntity
  8
0
  6
CONTINUOUS
 62
     6
100
AcDbLine
 10
198.0
 20
577.0
 30
0.0
 11
198.0
 21
515.0
 31
0.0
  0
LINE
  5
A1
100
AcDbEntity
  8
0
  6
CONTINUOUS
 62
     6
100
AcDbLine
 10
258.0
 20
577.0
 30
0.0
 11
258.0
 21
515.0
 31
0.0
  0
LINE
  5
A2
100
AcDbEntity
  8
0
  6
CONTINUOUS
 62
     6
100
AcDbLine
 10
318.0
 20
577.0
 30
0.0
 11
318.0
 21
515.0
 31
0.0
  0
LINE
  5
A3
100
AcDbEntity
  8
0
  6
CONTINUOUS
 62
     6
100
AcDbLine
 10
340.0
 20
577.0
 30
0.0
 11
340.0
 21
515.0
 31
0.0
  0
TEXT
  5
A4
100
AcDbEntity
  8
0
  6
CONTINUOUS
 62
     2
100
AcDbText
 10
177.3
 20
565.75
 30
0.0
 40
10.5
  1
番号
 41
0.776
  7
EXCADSTD
 72
     5
 11
195.08204
 21
565.75
 31
0.0
100
AcDbText
  0
TEXT
  5
A5
100
AcDbEntity
  8
0
  6
CONTINUOUS
 62
     2
100
AcDbText
 10
319.3
 20
565.75
 30
0.0
 40
10.5
  1
個数
 41
0.776
  7
EXCADSTD
 72
     5
 11
337.08204
 21
565.75
 31
0.0
100
AcDbText
  0
TEXT
  5
A6
100
AcDbEntity
  8
0
  6
CONTINUOUS
 62
     2
100
AcDbText
 10
210.0
 20
565.75
 30
0.0
 40
10.5
  1
品名
 41
1.44
  7
EXCADSTD
 72
     5
 11
242.9976
 21
565.75
 31
0.0
100
AcDbText
  0
TEXT
  5
A7
100
AcDbEntity
  8
0
  6
CONTINUOUS
 62
     2
100
AcDbText
 10
270.0
 20
565.75
 30
0.0
 40
10.5
  1
材質
 41
1.44
  7
EXCADSTD
 72
     5
 11
302.9976
 21
565.75
 31
0.0
100
AcDbText
  0
TEXT
  5
A8
100
AcDbEntity
  8
0
  6
CONTINUOUS
 62
     2
100
AcDbText
 10
352.0
 20
565.75
 30
0.0
 40
10.5
  1
備考
 41
1.44
  7
EXCADSTD
 72
     5
 11
384.9976
 21
565.75
 31
0.0
100
AcDbText
  0
TEXT
  5
A9
100
AcDbEntity
  8
0
  6
CONTINUOUS
 62
     2
100
AcDbText
 10
182.0
 20
553.75
 30
0.0
 40
10.0
  1
１
 41
0.84
  7
EXCADSTD
 72
     5
 11
190.0
 21
553.75
 31
0.0
100
AcDbText
  0
TEXT
  5
AA
100
AcDbEntity
  8
0
  6
CONTINUOUS
 62
     2
100
AcDbText
 10
182.0
 20
541.25
 30
0.0
 40
10.0
  1
２
 41
0.84
  7
EXCADSTD
 72
     5
 11
190.0
 21
541.25
 31
0.0
100
AcDbText
  0
TEXT
  5
AB
100
AcDbEntity
  8
0
  6
CONTINUOUS
 62
     2
100
AcDbText
 10
182.0
 20
528.75
 30
0.0
 40
10.0
  1
３
 41
0.84
  7
EXCADSTD
 72
     5
 11
190.0
 21
528.75
 31
0.0
100
AcDbText
  0
TEXT
  5
AC
100
AcDbEntity
  8
0
  6
CONTINUOUS
 62
     2
100
AcDbText
 10
198.0
 20
541.0
 30
0.0
 40
10.5
  1
リング
 41
0.714667
  7
EXCADSTD
 72
     5
 11
224.8
 21
541.0
 31
0.0
100
AcDbText
  0
TEXT
  5
AD
100
AcDbEntity
  8
0
  6
CONTINUOUS
 62
     2
100
AcDbText
 10
258.0
 20
541.0
 30
0.0
 40
10.5
  1
ステンレス
 41
0.6976
  7
EXCADSTD
 72
     5
 11
301.6
 21
541.0
 31
0.0
100
AcDbText
  0
TEXT
  5
AE
100
AcDbEntity
  8
0
  6
CONTINUOUS
 62
     2
100
AcDbText
 10
324.25
 20
553.9
 30
0.0
 40
9.7
  1
１
 41
0.82268
  7
EXCADSTD
 72
     5
 11
331.85
 21
553.9
 31
0.0
100
AcDbText
  0
TEXT
  5
AF
100
AcDbEntity
  8
0
  6
CONTINUOUS
 62
     2
100
AcDbText
 10
324.25
 20
541.4
 30
0.0
 40
9.7
  1
１
 41
0.82268
  7
EXCADSTD
 72
     5
 11
331.85
 21
541.4
 31
0.0
100
AcDbText
  0
TEXT
  5
B0
100
AcDbEntity
  8
0
  6
CONTINUOUS
 62
     2
100
AcDbText
 10
40.5
 20
51.5
 30
0.0
 40
9.0
  1
製図
 41
1.026667
  7
EXCADSTD
 72
     5
 11
60.6652
 21
51.5
 31
0.0
100
AcDbText
  0
TEXT
  5
B1
100
AcDbEntity
  8
0
  6
CONTINUOUS
 62
     2
100
AcDbText
 10
71.5
 20
51.5
 30
0.0
 40
9.0
  1
写図
 41
1.026667
  7
EXCADSTD
 72
     5
 11
91.6652
 21
51.5
 31
0.0
100
AcDbText
  0
TEXT
  5
B2
100
AcDbEntity
  8
0
  6
CONTINUOUS
 62
     2
100
AcDbText
 10
101.0
 20
51.5
 30
0.0
 40
9.0
  1
検図
 41
0.933333
  7
EXCADSTD
 72
     5
 11
119.332
 21
51.5
 31
0.0
100
AcDbText
  0
TEXT
  5
B3
100
AcDbEntity
  8
0
  6
CONTINUOUS
 62
     2
100
AcDbText
 10
127.0
 20
51.5
 30
0.0
 40
9.0
  1
承認
 41
0.933333
  7
EXCADSTD
 72
     5
 11
145.332
 21
51.5
 31
0.0
100
AcDbText
  0
TEXT
  5
B4
100
AcDbEntity
  8
0
  6
CONTINUOUS
 62
     2
100
AcDbText
 10
155.0
 20
59.0
 30
0.0
 40
9.0
  1
品名
  7
EXCADVERT
 72
     3
 11
155.0
 21
39.0
 31
0.0
100
AcDbText
  0
TEXT
  5
B5
100
AcDbEntity
  8
0
  6
CONTINUOUS
 62
     2
100
AcDbText
 10
283.0
 20
59.0
 30
0.0
 40
9.0
  1
品番
  7
EXCADVERT
 72
     3
 11
283.0
 21
39.0
 31
0.0
100
AcDbText
  0
TEXT
  5
B6
100
AcDbEntity
  8
0
  6
CONTINUOUS
 62
     2
100
AcDbText
 10
367.0
 20
59.0
 30
0.0
 40
9.0
  1
尺度
  7
EXCADVERT
 72
     3
 11
367.0
 21
39.0
 31
0.0
100
AcDbText
  0
TEXT
  5
B7
100
AcDbEntity
  8
0
  6
CONTINUOUS
 62
     2
100
AcDbText
 10
283.0
 20
36.0
 30
0.0
 40
9.0
  1
図番
  7
EXCADVERT
 72
     3
 11
283.0
 21
18.0
 31
0.0
100
AcDbText
  0
TEXT
  5
B8
100
AcDbEntity
  8
0
  6
CONTINUOUS
 62
     2
100
AcDbText
 10
392.6
 20
48.1
 30
0.0
 40
7.0
  1
２
 41
0.785714
  7
EXCADVERT
 72
     3
 11
392.6
 21
41.1
 31
0.0
100
AcDbText
  0
TEXT
  5
B9
100
AcDbEntity
  8
0
  6
CONTINUOUS
 62
     2
100
AcDbText
 10
379.4
 20
57.3
 30
0.0
 40
7.0
  1
１
 41
0.785714
  7
EXCADVERT
 72
     3
 11
379.4
 21
50.3
 31
0.0
100
AcDbText
  0
TEXT
  5
BA
100
AcDbEntity
  8
0
  6
CONTINUOUS
 62
     2
100
AcDbText
 10
169.0
 20
42.1
 30
0.0
 40
13.0
  1
タオルリング
 41
1.076923
  7
EXCADSTD
 72
     5
 11
269.0
 21
42.1
 31
0.0
100
AcDbText
  0
TEXT
  5
BB
100
AcDbEntity
  8
0
  6
CONTINUOUS
 62
     2
100
AcDbText
 10
289.6
 20
42.5
 30
0.0
 40
13.0
  1
ＮＡ１１５Ｓ
 41
0.784
  7
EXCADSTD
 72
     5
 11
362.400001
 21
42.5
 31
0.0
100
AcDbText
  0
LINE
  5
BC
100
AcDbEntity
  8
0
  6
CONTINUOUS
 62
     6
100
AcDbLine
 10
176.0
 20
515.0
 30
0.0
 11
400.0
 21
515.0
 31
0.0
  0
TEXT
  5
BD
100
AcDbEntity
  8
0
  6
CONTINUOUS
 62
     2
100
AcDbText
 10
182.0
 20
516.25
 30
0.0
 40
10.0
  1
４
 41
0.84
  7
EXCADSTD
 72
     5
 11
190.0
 21
516.25
 31
0.0
100
AcDbText
  0
TEXT
  5
BE
100
AcDbEntity
  8
0
  6
CONTINUOUS
 62
     2
100
AcDbText
 10
198.0
 20
528.5
 30
0.0
 40
10.5
  1
タッピンねじ
 41
0.693333
  7
EXCADSTD
 72
     5
 11
250.0
 21
528.5
 31
0.0
100
AcDbText
  0
TEXT
  5
BF
100
AcDbEntity
  8
0
  6
CONTINUOUS
 62
     2
100
AcDbText
 10
258.0
 20
528.5
 30
0.0
 40
10.5
  1
ステンレス
 41
0.6976
  7
EXCADSTD
 72
     5
 11
301.6
 21
528.5
 31
0.0
100
AcDbText
  0
TEXT
  5
C0
100
AcDbEntity
  8
0
  6
CONTINUOUS
 62
     2
100
AcDbText
 10
324.25
 20
528.9
 30
0.0
 40
9.7
  1
２
 41
0.82268
  7
EXCADSTD
 72
     5
 11
331.85
 21
528.9
 31
0.0
100
AcDbText
  0
TEXT
  5
C1
100
AcDbEntity
  8
0
  6
CONTINUOUS
 62
     2
100
AcDbText
 10
198.0
 20
516.0
 30
0.0
 40
10.5
  1
止めねじ
 41
0.704
  7
EXCADSTD
 72
     5
 11
233.2
 21
516.0
 31
0.0
100
AcDbText
  0
TEXT
  5
C2
100
AcDbEntity
  8
0
  6
CONTINUOUS
 62
     2
100
AcDbText
 10
324.25
 20
516.4
 30
0.0
 40
9.7
  1
１
 41
0.82268
  7
EXCADSTD
 72
     5
 11
331.85
 21
516.4
 31
0.0
100
AcDbText
  0
TEXT
  5
C3
100
AcDbEntity
  8
0
  6
CONTINUOUS
 62
     2
100
AcDbText
 10
340.0
 20
553.9
 30
0.0
 40
9.7
  1
クロムメッキ
 41
0.707217
  7
EXCADSTD
 72
     5
 11
389.0
 21
553.9
 31
0.0
100
AcDbText
  0
TEXT
  5
C4
100
AcDbEntity
  8
0
  6
CONTINUOUS
 62
     2
100
AcDbText
 10
41.5
 20
34.0
 30
0.0
 40
10.0
  1
間瀬
 41
0.84
  7
EXCADSTD
 72
     5
 11
59.832
 21
34.0
 31
0.0
100
AcDbText
  0
TEXT
  5
C5
100
AcDbEntity
  8
0
  6
CONTINUOUS
 62
     2
100
AcDbText
 10
127.28
 20
34.4
 30
0.0
 40
10.0
  1
古林
 41
0.84
  7
EXCADSTD
 72
     5
 11
145.612
 21
34.4
 31
0.0
100
AcDbText
  0
LINE
  5
C6
100
AcDbEntity
  8
0
  6
EXLTYPE2
 62
     6
100
AcDbLine
 10
1.4
 20
297.0
 30
0.0
 11
36.0
 21
297.0
 31
0.0
  0
CIRCLE
  5
C7
100
AcDbEntity
  8
0
  6
CONTINUOUS
 62
     6
100
AcDbCircle
 10
332.8
 20
247.515582
 30
0.0
 40
8.0
  0
TEXT
  5
C8
100
AcDbEntity
  8
0
  6
CONTINUOUS
 62
     2
100
AcDbText
 10
326.8
 20
242.515582
 30
0.0
 40
10.0
  1
４
 41
1.008
  7
EXCADSTD
 72
     5
 11
336.4
 21
242.515582
 31
0.0
100
AcDbText
  0
CIRCLE
  5
C9
100
AcDbEntity
  8
0
  6
CONTINUOUS
 62
     6
100
AcDbCircle
 10
357.8
 20
247.515582
 30
0.0
 40
8.0
  0
TEXT
  5
CA
100
AcDbEntity
  8
0
  6
CONTINUOUS
 62
     2
100
AcDbText
 10
351.8
 20
242.515582
 30
0.0
 40
10.0
  1
３
 41
1.008
  7
EXCADSTD
 72
     5
 11
361.4
 21
242.515582
 31
0.0
100
AcDbText
  0
CIRCLE
  5
CB
100
AcDbEntity
  8
0
  6
CONTINUOUS
 62
     6
100
AcDbCircle
 10
190.0
 20
336.6
 30
0.0
 40
8.0
  0
TEXT
  5
CC
100
AcDbEntity
  8
0
  6
CONTINUOUS
 62
     2
100
AcDbText
 10
184.0
 20
331.6
 30
0.0
 40
10.0
  1
１
 41
1.008
  7
EXCADSTD
 72
     5
 11
193.6
 21
331.6
 31
0.0
100
AcDbText
  0
CIRCLE
  5
CD
100
AcDbEntity
  8
0
  6
CONTINUOUS
 62
     6
100
AcDbCircle
 10
215.0
 20
336.6
 30
0.0
 40
8.0
  0
TEXT
  5
CE
100
AcDbEntity
  8
0
  6
CONTINUOUS
 62
     2
100
AcDbText
 10
209.0
 20
331.6
 30
0.0
 40
10.0
  1
２
 41
1.008
  7
EXCADSTD
 72
     5
 11
218.6
 21
331.6
 31
0.0
100
AcDbText
  0
TEXT
  5
CF
100
AcDbEntity
  8
0
  6
CONTINUOUS
 62
     7
100
AcDbText
 10
304.0
 20
20.0
 30
0.0
 40
14.0
  1
９６８５００
 41
0.8
  7
EXCADSTD
 72
     5
 11
384.0
 21
20.0
 31
0.0
100
AcDbText
  0
TEXT
  5
D1
100
AcDbEntity
  8
0
  6
CONTINUOUS
 62
     2
100
AcDbText
 10
154.0
 20
21.0
 30
0.0
 40
9.0
  1
ジャニス工業株式会社
  7
EXCADTTF1
 72
     5
 11
274.0
 21
21.0
 31
0.0
100
AcDbText
  0
TEXT
  5
D2
100
AcDbEntity
  8
0
  6
CONTINUOUS
 62
     6
100
AcDbText
 10
36.9
 20
19.3
 30
0.0
 40
5.0
  1
２３
 41
0.756
  7
EXCADSTD
 72
     5
 11
45.1494
 21
19.3
 31
0.0
100
AcDbText
  0
TEXT
  5
D3
100
AcDbEntity
  8
0
  6
CONTINUOUS
 62
     6
100
AcDbText
 10
48.9
 20
19.3
 30
0.0
 40
5.0
  1
７
 41
0.84
  7
EXCADSTD
 72
     5
 11
52.9
 21
19.3
 31
0.0
100
AcDbText
  0
TEXT
  5
D4
100
AcDbEntity
  8
0
  6
CONTINUOUS
 62
     6
100
AcDbText
 10
58.9
 20
19.3
 30
0.0
 40
5.0
  1
８
 41
0.84
  7
EXCADSTD
 72
     5
 11
62.9
 21
19.3
 31
0.0
100
AcDbText
  0
TEXT
  5
D5
100
AcDbEntity
  8
0
  6
CONTINUOUS
 62
     2
100
AcDbText
 10
98.28
 20
34.4
 30
0.0
 40
10.0
  1
地名坊
 41
0.728
  7
EXCADSTD
 72
     5
 11
124.28
 21
34.4
 31
0.0
100
AcDbText
  0
ARC
  5
D6
100
AcDbEntity
  8
0
  6
CONTINUOUS
 62
     2
100
AcDbCircle
 10
74.7
 20
396.531067
 30
0.0
 40
5.0
100
AcDbArc
 50
90.0
 51
270.0
  0
ARC
  5
D7
100
AcDbEntity
  8
0
  6
CONTINUOUS
 62
     2
100
AcDbCircle
 10
219.7
 20
396.531067
 30
0.0
 40
5.0
100
AcDbArc
 50
270.0
 51
90.0
  0
DIMENSION
  5
E4
100
AcDbEntity
  8
0
  6
CONTINUOUS
 62
     2
100
AcDbDimension
  2
*D14
 10
219.7
 20
134.4
 30
0.0
 11
147.2
 21
139.4
 31
0.0
 70
   160
  1
%%c145
  3
STANDARD
100
AcDbAlignedDimension
 13
74.7
 23
231.015582
 33
0.0
 14
219.7
 24
231.015582
 34
0.0
100
AcDbRotatedDimension
1001
ACAD
1000
DSTYLE
1002
{
1070
     6
1000
_EX_NORM
1070
     7
1000
_EX_NORM
1070
    41
1040
6.0
1070
    42
1040
1.4
1070
    44
1040
2.0
1070
    73
1070
     0
1070
    74
1070
     0
1070
    75
1070
     0
1070
    76
1070
     0
1070
    77
1070
     1
1070
    78
1070
     8
1070
   140
1040
8.0
1070
   147
1040
1.0
1070
   173
1070
     1
1070
   176
1070
     3
1070
   177
1070
     3
1070
   178
1070
     2
1070
   271
1070
     1
1070
   279
1070
     2
1070
   280
1070
     0
1070
   287
1070
     5
1070
   340
1005
E3
1002
}
  0
TEXT
  5
E5
100
AcDbEntity
  8
0
  6
CONTINUOUS
 62
     2
100
AcDbText
 10
258.0
 20
553.5
 30
0.0
 40
10.5
  1
亜鉛ダイキャスト
 41
0.576
  7
EXCADSTD
 72
     5
 11
315.600003
 21
553.5
 31
0.0
100
AcDbText
  0
TEXT
  5
E6
100
AcDbEntity
  8
0
  6
CONTINUOUS
 62
     2
100
AcDbText
 10
198.0
 20
553.5
 30
0.0
 40
10.5
  1
本体
 41
0.736
  7
EXCADSTD
 72
     5
 11
214.86544
 21
553.5
 31
0.0
100
AcDbText
  0
TEXT
  5
E7
100
AcDbEntity
  8
0
  6
CONTINUOUS
 62
     2
100
AcDbText
 10
340.0
 20
528.9
 30
0.0
 40
9.7
  1
トラス
 41
0.730309
  7
EXCADSTD
 72
     5
 11
365.3
 21
528.9
 31
0.0
100
AcDbText
  0
LINE
  5
E8
100
AcDbEntity
  8
0
  6
CONTINUOUS
 62
     2
100
AcDbLine
 10
328.549986
 20
267.832014
 30
0.0
 11
328.782497
 21
268.064526
 31
0.0
  0
LINE
  5
E9
100
AcDbEntity
  8
0
  6
CONTINUOUS
 62
     2
100
AcDbLine
 10
324.015008
 20
267.832014
 30
0.0
 11
323.782497
 21
268.064526
 31
0.0
  0
LINE
  5
EA
100
AcDbEntity
  8
0
  6
CONTINUOUS
 62
     2
100
AcDbLine
 10
328.549986
 20
267.832014
 30
0.0
 11
324.015008
 21
267.832014
 31
0.0
  0
LINE
  5
EB
100
AcDbEntity
  8
0
  6
CONTINUOUS
 62
     6
100
AcDbLine
 10
324.015008
 20
267.832014
 30
0.0
 11
324.015008
 21
268.305045
 31
0.0
  0
LINE
  5
EC
100
AcDbEntity
  8
0
  6
CONTINUOUS
 62
     6
100
AcDbLine
 10
328.549986
 20
267.832014
 30
0.0
 11
328.549986
 21
268.305045
 31
0.0
  0
ARC
  5
ED
100
AcDbEntity
  8
0
  6
CONTINUOUS
 62
     2
100
AcDbCircle
 10
289.782497
 20
158.515582
 30
0.0
 40
5.0
100
AcDbArc
 50
180.0
 51
0.0
  0
TEXT
  5
EE
100
AcDbEntity
  8
0
  6
CONTINUOUS
 62
     2
100
AcDbText
 10
258.0
 20
516.0
 30
0.0
 40
10.5
  1
黄銅
 41
0.736
  7
EXCADSTD
 72
     5
 11
274.86544
 21
516.0
 31
0.0
100
AcDbText
  0
DIMENSION
  5
FA
100
AcDbEntity
  8
1
  6
CONTINUOUS
 62
     3
100
AcDbDimension
  2
*D15
 10
294.782497
 20
134.4
 30
0.0
 11
310.782497
 21
139.0
 31
0.0
 70
   160
  1
%%c10
  3
STANDARD
100
AcDbAlignedDimension
 13
284.782497
 23
151.515582
 33
0.0
 14
294.782497
 24
151.515582
 34
0.0
100
AcDbRotatedDimension
1001
ACAD
1000
DSTYLE
1002
{
1070
     6
1000
_EX_NORM
1070
     7
1000
_EX_NORM
1070
    41
1040
6.0
1070
    42
1040
0.0
1070
    44
1040
0.0
1070
    73
1070
     0
1070
    74
1070
     0
1070
    75
1070
     0
1070
    76
1070
     0
1070
    77
1070
     1
1070
    78
1070
     8
1070
   140
1040
8.0
1070
   147
1040
0.6
1070
   173
1070
     1
1070
   176
1070
     3
1070
   177
1070
     3
1070
   178
1070
     2
1070
   271
1070
     2
1070
   279
1070
     2
1070
   280
1070
     2
1070
   287
1070
     5
1070
   340
1005
E3
1002
}
  0
DIMENSION
  5
106
100
AcDbEntity
  8
1
  6
CONTINUOUS
 62
     3
100
AcDbDimension
  2
*D16
 10
162.2
 20
352.0
 30
0.0
 11
147.2
 21
356.6
 31
0.0
 70
   160
  3
STANDARD
100
AcDbAlignedDimension
 13
132.2
 23
333.305045
 33
0.0
 14
162.2
 24
333.305045
 34
0.0
100
AcDbRotatedDimension
1001
ACAD
1000
DSTYLE
1002
{
1070
     6
1000
_EX_NORM
1070
     7
1000
_EX_NORM
1070
    41
1040
6.0
1070
    42
1040
1.0
1070
    44
1040
2.0
1070
    73
1070
     0
1070
    74
1070
     0
1070
    75
1070
     0
1070
    76
1070
     0
1070
    77
1070
     1
1070
    78
1070
     8
1070
   140
1040
8.0
1070
   147
1040
0.6
1070
   173
1070
     1
1070
   176
1070
     3
1070
   177
1070
     3
1070
   178
1070
     2
1070
   271
1070
     2
1070
   279
1070
     2
1070
   280
1070
     0
1070
   287
1070
     5
1070
   340
1005
E3
1002
}
  0
DIMENSION
  5
111
100
AcDbEntity
  8
1
  6
CONTINUOUS
 62
     3
100
AcDbDimension
  2
*D17
 10
289.782497
 20
346.305045
 30
0.0
 11
309.782497
 21
350.905045
 31
0.0
 70
   160
  3
STANDARD
100
AcDbAlignedDimension
 13
329.782497
 23
334.305045
 33
0.0
 14
289.782497
 24
322.050993
 34
0.0
100
AcDbRotatedDimension
1001
ACAD
1000
DSTYLE
1002
{
1070
     6
1000
_EX_NORM
1070
     7
1000
_EX_NORM
1070
    41
1040
6.0
1070
    42
1040
0.0
1070
    44
1040
0.0
1070
    73
1070
     0
1070
    74
1070
     0
1070
    75
1070
     1
1070
    76
1070
     0
1070
    77
1070
     1
1070
    78
1070
     8
1070
   140
1040
8.0
1070
   147
1040
0.6
1070
   173
1070
     1
1070
   176
1070
     3
1070
   177
1070
     3
1070
   178
1070
     2
1070
   271
1070
     2
1070
   279
1070
     2
1070
   280
1070
     0
1070
   287
1070
     5
1070
   340
1005
E3
1002
}
  0
DIMENSION
  5
11D
100
AcDbEntity
  8
1
  6
CONTINUOUS
 62
     3
100
AcDbDimension
  2
*D18
 10
278.782497
 20
361.305045
 30
0.0
 11
304.282497
 21
365.905045
 31
0.0
 70
   160
  3
STANDARD
100
AcDbAlignedDimension
 13
329.782497
 23
348.015582
 33
0.0
 14
278.782497
 24
303.515582
 34
0.0
100
AcDbRotatedDimension
1001
ACAD
1000
DSTYLE
1002
{
1070
     6
1000
_EX_NORM
1070
     7
1000
_EX_NORM
1070
    41
1040
6.0
1070
    42
1040
1.0
1070
    44
1040
2.0
1070
    73
1070
     0
1070
    74
1070
     0
1070
    75
1070
     0
1070
    76
1070
     0
1070
    77
1070
     1
1070
    78
1070
     8
1070
   140
1040
8.0
1070
   147
1040
0.6
1070
   173
1070
     1
1070
   176
1070
     3
1070
   177
1070
     3
1070
   178
1070
     2
1070
   271
1070
     2
1070
   279
1070
     2
1070
   280
1070
     0
1070
   287
1070
     5
1070
   340
1005
E3
1002
}
  0
DIMENSION
  5
129
100
AcDbEntity
  8
1
  6
CONTINUOUS
 62
     3
100
AcDbDimension
  2
*D19
 10
266.782497
 20
334.305045
 30
0.0
 11
262.182497
 21
318.910313
 31
0.0
 70
   160
  1
31
  3
STANDARD
100
AcDbAlignedDimension
 13
280.02
 23
303.515582
 33
0.0
 14
329.782497
 24
334.305045
 34
0.0
 50
90.0
100
AcDbRotatedDimension
1001
ACAD
1000
DSTYLE
1002
{
1070
     6
1000
_EX_NORM
1070
     7
1000
_EX_NORM
1070
    41
1040
6.0
1070
    42
1040
1.0
1070
    44
1040
2.0
1070
    73
1070
     0
1070
    74
1070
     0
1070
    75
1070
     0
1070
    76
1070
     0
1070
    77
1070
     1
1070
    78
1070
     8
1070
   140
1040
8.0
1070
   147
1040
0.6
1070
   173
1070
     1
1070
   176
1070
     3
1070
   177
1070
     3
1070
   178
1070
     2
1070
   271
1070
     2
1070
   279
1070
     2
1070
   280
1070
     0
1070
   287
1070
     5
1070
   340
1005
E3
1002
}
  0
DIMENSION
  5
135
100
AcDbEntity
  8
1
  6
CONTINUOUS
 62
     3
100
AcDbDimension
  2
*D20
 10
372.6
 20
286.805045
 30
0.0
 11
368.0
 21
301.305045
 31
0.0
 70
   160
  3
STANDARD
100
AcDbAlignedDimension
 13
351.982497
 23
315.805045
 33
0.0
 14
351.982497
 24
286.805045
 34
0.0
 50
90.0
100
AcDbRotatedDimension
1001
ACAD
1000
DSTYLE
1002
{
1070
     6
1000
_EX_NORM
1070
     7
1000
_EX_NORM
1070
    41
1040
6.0
1070
    42
1040
4.017503
1070
    44
1040
2.0
1070
    73
1070
     0
1070
    74
1070
     0
1070
    75
1070
     0
1070
    76
1070
     0
1070
    77
1070
     1
1070
    78
1070
     8
1070
   140
1040
8.0
1070
   147
1040
0.6
1070
   173
1070
     1
1070
   176
1070
     3
1070
   177
1070
     3
1070
   178
1070
     2
1070
   271
1070
     2
1070
   279
1070
     2
1070
   280
1070
     0
1070
   287
1070
     5
1070
   340
1005
E3
1002
}
  0
DIMENSION
  5
141
100
AcDbEntity
  8
1
  6
CONTINUOUS
 62
     3
100
AcDbDimension
  2
*D21
 10
386.2
 20
268.305045
 30
0.0
 11
381.6
 21
301.305045
 31
0.0
 70
   160
  3
STANDARD
100
AcDbAlignedDimension
 13
329.782497
 23
334.305045
 33
0.0
 14
329.782497
 24
268.305045
 34
0.0
 50
90.0
100
AcDbRotatedDimension
1001
ACAD
1000
DSTYLE
1002
{
1070
     6
1000
_EX_NORM
1070
     7
1000
_EX_NORM
1070
    41
1040
6.0
1070
    42
1040
1.0
1070
    44
1040
2.0
1070
    73
1070
     0
1070
    74
1070
     0
1070
    75
1070
     0
1070
    76
1070
     0
1070
    77
1070
     1
1070
    78
1070
     8
1070
   140
1040
8.0
1070
   147
1040
0.6
1070
   173
1070
     1
1070
   176
1070
     3
1070
   177
1070
     3
1070
   178
1070
     2
1070
   271
1070
     2
1070
   279
1070
     2
1070
   280
1070
     0
1070
   287
1070
     5
1070
   340
1005
E3
1002
}
  0
DIMENSION
  5
14B
100
AcDbEntity
  8
1
  6
CONTINUOUS
 62
     2
100
AcDbDimension
  2
*D22
 10
372.6
 20
334.305045
 30
0.0
 11
368.0
 21
325.055045
 31
0.0
 70
   160
  3
STANDARD
100
AcDbAlignedDimension
 13
363.982497
 23
315.805045
 33
0.0
 14
363.982497
 24
334.305045
 34
0.0
 50
90.0
100
AcDbRotatedDimension
1001
ACAD
1000
DSTYLE
1002
{
1070
     6
1000
_EX_NORM
1070
     7
1000
_EX_NORM
1070
    41
1040
6.0
1070
    42
1040
0.0
1070
    44
1040
0.0
1070
    73
1070
     0
1070
    74
1070
     0
1070
    75
1070
     1
1070
    76
1070
     1
1070
    77
1070
     1
1070
    78
1070
     8
1070
   140
1040
8.0
1070
   147
1040
0.6
1070
   173
1070
     1
1070
   176
1070
     3
1070
   177
1070
     3
1070
   178
1070
     2
1070
   271
1070
     2
1070
   279
1070
     2
1070
   280
1070
     0
1070
   287
1070
     5
1070
   340
1005
E3
1002
}
  0
LINE
  5
14C
100
AcDbEntity
  8
1
  6
CONTINUOUS
 62
     2
100
AcDbLine
 10
157.062745
 20
292.514859
 30
0.0
 11
135.347048
 21
292.514859
 31
0.0
  0
LINE
  5
14D
100
AcDbEntity
  8
1
  6
CONTINUOUS
 62
     2
100
AcDbLine
 10
161.494118
 20
280.885588
 30
0.0
 11
161.494118
 21
275.599163
 31
0.0
  0
LINE
  5
14E
100
AcDbEntity
  8
1
  6
CONTINUOUS
 62
     2
100
AcDbLine
 10
159.28604
 20
292.890398
 30
0.0
 11
160.013154
 21
295.374476
 31
0.0
  0
LINE
  5
14F
100
AcDbEntity
  8
1
  6
CONTINUOUS
 62
     2
100
AcDbLine
 10
154.2
 20
268.305045
 30
0.0
 11
147.2
 21
268.305045
 31
0.0
  0
LINE
  5
150
100
AcDbEntity
  8
1
  6
CONTINUOUS
 62
     2
100
AcDbLine
 10
147.2
 20
334.305045
 30
0.0
 11
161.2
 21
334.305045
 31
0.0
  0
LINE
  5
151
100
AcDbEntity
  8
1
  6
CONTINUOUS
 62
     2
100
AcDbLine
 10
132.905882
 20
275.599163
 30
0.0
 11
132.905882
 21
280.885588
 31
0.0
  0
LINE
  5
152
100
AcDbEntity
  8
1
  6
CONTINUOUS
 62
     2
100
AcDbLine
 10
134.386846
 20
295.374476
 30
0.0
 11
135.11396
 21
292.890398
 31
0.0
  0
LINE
  5
153
100
AcDbEntity
  8
1
  6
CONTINUOUS
 62
     2
100
AcDbLine
 10
135.701867
 20
313.484967
 30
0.0
 11
132.296212
 21
333.733025
 31
0.0
  0
LINE
  5
154
100
AcDbEntity
  8
1
  6
CONTINUOUS
 62
     2
100
AcDbLine
 10
147.2
 20
268.305045
 30
0.0
 11
140.2
 21
268.305045
 31
0.0
  0
LINE
  5
155
100
AcDbEntity
  8
1
  6
CONTINUOUS
 62
     2
100
AcDbLine
 10
133.2
 20
334.305045
 30
0.0
 11
147.2
 21
334.305045
 31
0.0
  0
LINE
  5
156
100
AcDbEntity
  8
1
  6
CONTINUOUS
 62
     2
100
AcDbLine
 10
159.062745
 20
292.514859
 30
0.0
 11
157.062745
 21
292.514859
 31
0.0
  0
ARC
  5
157
100
AcDbEntity
  8
1
  6
CONTINUOUS
 62
     2
100
AcDbCircle
 10
154.2
 20
275.599163
 30
0.0
 40
7.294118
100
AcDbArc
 50
270.0
 51
0.0
  0
ARC
  5
158
100
AcDbEntity
  8
1
  6
CONTINUOUS
 62
     2
100
AcDbCircle
 10
140.2
 20
275.599163
 30
0.0
 40
7.294118
100
AcDbArc
 50
180.0
 51
270.0
  0
ARC
  5
159
100
AcDbEntity
  8
1
  6
CONTINUOUS
 62
     2
100
AcDbCircle
 10
161.2
 20
333.305045
 30
0.0
 40
1.0
100
AcDbArc
 50
0.0
 51
25.339438
  0
ARC
  5
15A
100
AcDbEntity
  8
1
  6
CONTINUOUS
 62
     2
100
AcDbCircle
 10
154.2
 20
276.305045
 30
0.0
 40
8.0
100
AcDbArc
 50
270.0
 51
0.0
  0
ARC
  5
15B
100
AcDbEntity
  8
1
  6
CONTINUOUS
 62
     2
100
AcDbCircle
 10
161.2
 20
333.305045
 30
0.0
 40
1.0
100
AcDbArc
 50
25.339438
 51
90.0
  0
ARC
  5
15C
100
AcDbEntity
  8
1
  6
CONTINUOUS
 62
     2
100
AcDbCircle
 10
133.2
 20
333.305045
 30
0.0
 40
1.0
100
AcDbArc
 50
154.660562
 51
180.0
  0
ARC
  5
15D
100
AcDbEntity
  8
1
  6
CONTINUOUS
 62
     2
100
AcDbCircle
 10
140.2
 20
276.305045
 30
0.0
 40
8.0
100
AcDbArc
 50
180.0
 51
270.0
  0
ARC
  5
15E
100
AcDbEntity
  8
1
  6
CONTINUOUS
 62
     2
100
AcDbCircle
 10
133.2
 20
333.305045
 30
0.0
 40
1.0
100
AcDbArc
 50
90.0
 51
154.660562
  0
ARC
  5
15F
100
AcDbEntity
  8
1
  6
CONTINUOUS
 62
     2
100
AcDbCircle
 10
-93.898978
 20
281.732794
 30
0.0
 40
231.785997
100
AcDbArc
 50
7.810605
 51
7.87366
  0
ARC
  5
160
100
AcDbEntity
  8
1
  6
CONTINUOUS
 62
     2
100
AcDbCircle
 10
59.204876
 20
302.734279
 30
0.0
 40
77.248453
100
AcDbArc
 50
7.621421
 51
7.810609
  0
ARC
  5
161
100
AcDbEntity
  8
1
  6
CONTINUOUS
 62
     2
100
AcDbCircle
 10
89.8454
 20
306.834254
 30
0.0
 40
46.33484
100
AcDbArc
 50
7.306049
 51
7.621426
  0
ARC
  5
162
100
AcDbEntity
  8
1
  6
CONTINUOUS
 62
     2
100
AcDbCircle
 10
102.987984
 20
308.519265
 30
0.0
 40
33.084679
100
AcDbArc
 50
6.864421
 51
7.306053
  0
ARC
  5
163
100
AcDbEntity
  8
1
  6
CONTINUOUS
 62
     2
100
AcDbCircle
 10
110.294206
 20
309.398813
 30
0.0
 40
25.725705
100
AcDbArc
 50
6.296506
 51
6.864419
  0
ARC
  5
164
100
AcDbEntity
  8
1
  6
CONTINUOUS
 62
     2
100
AcDbCircle
 10
110.923537
 20
309.478312
 30
0.0
 40
25.091454
100
AcDbArc
 50
5.392473
 51
6.273676
  0
ARC
  5
165
100
AcDbEntity
  8
1
  6
CONTINUOUS
 62
     2
100
AcDbCircle
 10
105.890481
 20
309.003217
 30
0.0
 40
30.146883
100
AcDbArc
 50
4.658942
 51
5.392469
  0
ARC
  5
166
100
AcDbEntity
  8
1
  6
CONTINUOUS
 62
     2
100
AcDbCircle
 10
98.315909
 20
308.38593
 30
0.0
 40
37.746567
100
AcDbArc
 50
4.073009
 51
4.658955
  0
ARC
  5
167
100
AcDbEntity
  8
1
  6
CONTINUOUS
 62
     2
100
AcDbCircle
 10
85.657559
 20
307.484545
 30
0.0
 40
50.436968
100
AcDbArc
 50
3.634454
 51
4.073027
  0
ARC
  5
168
100
AcDbEntity
  8
1
  6
CONTINUOUS
 62
     2
100
AcDbCircle
 10
60.23665
 20
305.86983
 30
0.0
 40
75.909109
100
AcDbArc
 50
3.343059
 51
3.634468
  0
ARC
  5
169
100
AcDbEntity
  8
1
  6
CONTINUOUS
 62
     2
100
AcDbCircle
 10
33.754321
 20
304.301926
 30
0.0
 40
102.437806
100
AcDbArc
 50
0.843087
 51
3.35477
  0
ARC
  5
16A
100
AcDbEntity
  8
1
  6
CONTINUOUS
 62
     2
100
AcDbCircle
 10
14.571589
 20
303.962704
 30
0.0
 40
121.623465
100
AcDbArc
 50
0.653795
 51
0.869906
  0
ARC
  5
16B
100
AcDbEntity
  8
1
  6
CONTINUOUS
 62
     2
100
AcDbCircle
 10
-20.171414
 20
303.56624
 30
0.0
 40
156.368731
100
AcDbArc
 50
0.485705
 51
0.653794
  0
ARC
  5
16C
100
AcDbEntity
  8
1
  6
CONTINUOUS
 62
     2
100
AcDbCircle
 10
-82.716994
 20
303.03602
 30
0.0
 40
218.916558
100
AcDbArc
 50
0.365641
 51
0.485705
  0
ARC
  5
16D
100
AcDbEntity
  8
1
  6
CONTINUOUS
 62
     2
100
AcDbCircle
 10
-228.662611
 20
302.104635
 30
0.0
 40
364.865147
100
AcDbArc
 50
0.293603
 51
0.365641
  0
ARC
  5
16E
100
AcDbEntity
  8
1
  6
CONTINUOUS
 62
     2
100
AcDbCircle
 10
-958.39311
 20
298.365211
 30
0.0
 40
1094.605227
100
AcDbArc
 50
0.269591
 51
0.293603
  0
ARC
  5
16F
100
AcDbEntity
  8
1
  6
CONTINUOUS
 62
     2
100
AcDbCircle
 10
-1148.168698
 20
305.932088
 30
0.0
 40
1284.370971
100
AcDbArc
 50
359.884728
 51
359.8922
  0
ARC
  5
170
100
AcDbEntity
  8
1
  6
CONTINUOUS
 62
     2
100
AcDbCircle
 10
-291.923187
 20
304.209422
 30
0.0
 40
428.123727
100
AcDbArc
 50
359.862312
 51
359.884728
  0
ARC
  5
171
100
AcDbEntity
  8
1
  6
CONTINUOUS
 62
     2
100
AcDbCircle
 10
-120.674432
 20
303.797891
 30
0.0
 40
256.874477
100
AcDbArc
 50
359.824952
 51
359.862312
  0
ARC
  5
172
100
AcDbEntity
  8
1
  6
CONTINUOUS
 62
     2
100
AcDbCircle
 10
-47.282605
 20
303.573667
 30
0.0
 40
183.482309
100
AcDbArc
 50
359.772649
 51
359.824952
  0
ARC
  5
173
100
AcDbEntity
  8
1
  6
CONTINUOUS
 62
     2
100
AcDbCircle
 10
-6.510047
 20
303.41188
 30
0.0
 40
142.709429
100
AcDbArc
 50
359.705403
 51
359.772649
  0
ARC
  5
174
100
AcDbEntity
  8
1
  6
CONTINUOUS
 62
     2
100
AcDbCircle
 10
10.042499
 20
303.328454
 30
0.0
 40
126.156674
100
AcDbArc
 50
359.542274
 51
359.704638
  0
ARC
  5
175
100
AcDbEntity
  8
1
  6
CONTINUOUS
 62
     2
100
AcDbCircle
 10
14.374551
 20
303.293845
 30
0.0
 40
121.824483
100
AcDbArc
 50
359.374136
 51
359.542275
  0
ARC
  5
176
100
AcDbEntity
  8
1
  6
CONTINUOUS
 62
     2
100
AcDbCircle
 10
18.421658
 20
303.249635
 30
0.0
 40
117.777135
100
AcDbArc
 50
359.20022
 51
359.374136
  0
ARC
  5
177
100
AcDbEntity
  8
1
  6
CONTINUOUS
 62
     2
100
AcDbCircle
 10
22.210817
 20
303.196739
 30
0.0
 40
113.987606
100
AcDbArc
 50
359.020522
 51
359.20022
  0
ARC
  5
178
100
AcDbEntity
  8
1
  6
CONTINUOUS
 62
     2
100
AcDbCircle
 10
24.698851
 20
303.155064
 30
0.0
 40
111.499223
100
AcDbArc
 50
358.719443
 51
359.020079
  0
ARC
  5
179
100
AcDbEntity
  8
1
  6
CONTINUOUS
 62
     2
100
AcDbCircle
 10
-19.127243
 20
304.12062
 30
0.0
 40
155.335951
100
AcDbArc
 50
358.640719
 51
358.724649
  0
ARC
  5
17A
100
AcDbEntity
  8
1
  6
CONTINUOUS
 62
     2
100
AcDbCircle
 10
-81.245121
 20
305.594577
 30
0.0
 40
217.471314
100
AcDbArc
 50
358.580769
 51
358.640719
  0
ARC
  5
17B
100
AcDbEntity
  8
1
  6
CONTINUOUS
 62
     2
100
AcDbCircle
 10
-226.183564
 20
309.185474
 30
0.0
 40
362.454233
100
AcDbArc
 50
358.544799
 51
358.580769
  0
ARC
  5
17C
100
AcDbEntity
  8
1
  6
CONTINUOUS
 62
     2
100
AcDbCircle
 10
-950.862159
 20
327.594856
 30
0.0
 40
1087.366622
100
AcDbArc
 50
358.532809
 51
358.544799
  0
ARC
  5
17D
100
AcDbEntity
  8
1
  6
CONTINUOUS
 62
     2
100
AcDbCircle
 10
-552.163153
 20
321.6669
 30
0.0
 40
688.659862
100
AcDbArc
 50
358.150566
 51
358.176509
  0
ARC
  5
17E
100
AcDbEntity
  8
1
  6
CONTINUOUS
 62
     2
100
AcDbCircle
 10
-93.425494
 20
306.854316
 30
0.0
 40
229.683117
100
AcDbArc
 50
358.072764
 51
358.150561
  0
ARC
  5
17F
100
AcDbEntity
  8
1
  6
CONTINUOUS
 62
     2
100
AcDbCircle
 10
-1.761027
 20
303.769894
 30
0.0
 40
137.966771
100
AcDbArc
 50
357.94319
 51
358.072754
  0
ARC
  5
180
100
AcDbEntity
  8
1
  6
CONTINUOUS
 62
     2
100
AcDbCircle
 10
37.462682
 20
302.361258
 30
0.0
 40
98.717776
100
AcDbArc
 50
357.761993
 51
357.943175
  0
ARC
  5
181
100
AcDbEntity
  8
1
  6
CONTINUOUS
 62
     2
100
AcDbCircle
 10
59.204115
 20
301.51162
 30
0.0
 40
76.959747
100
AcDbArc
 50
357.529386
 51
357.761972
  0
ARC
  5
182
100
AcDbEntity
  8
1
  6
CONTINUOUS
 62
     2
100
AcDbCircle
 10
63.298769
 20
301.343509
 30
0.0
 40
72.861653
100
AcDbArc
 50
357.227413
 51
357.52266
  0
ARC
  5
183
100
AcDbEntity
  8
1
  6
CONTINUOUS
 62
     2
100
AcDbCircle
 10
55.411043
 20
301.725391
 30
0.0
 40
80.758619
100
AcDbArc
 50
356.961089
 51
357.227491
  0
ARC
  5
184
100
AcDbEntity
  8
1
  6
CONTINUOUS
 62
     2
100
AcDbCircle
 10
46.029662
 20
302.223338
 30
0.0
 40
90.153205
100
AcDbArc
 50
356.722751
 51
356.961152
  0
ARC
  5
185
100
AcDbEntity
  8
1
  6
CONTINUOUS
 62
     2
100
AcDbCircle
 10
34.587988
 20
302.878417
 30
0.0
 40
101.613616
100
AcDbArc
 50
356.511731
 51
356.722799
  0
ARC
  5
186
100
AcDbEntity
  8
1
  6
CONTINUOUS
 62
     2
100
AcDbCircle
 10
20.184706
 20
303.756331
 30
0.0
 40
116.04363
100
AcDbArc
 50
356.32754
 51
356.511765
  0
ARC
  5
187
100
AcDbEntity
  8
1
  6
CONTINUOUS
 62
     2
100
AcDbCircle
 10
59.82243
 20
301.188702
 30
0.0
 40
76.322841
100
AcDbArc
 50
356.106643
 51
356.345148
  0
ARC
  5
188
100
AcDbEntity
  8
1
  6
CONTINUOUS
 62
     2
100
AcDbCircle
 10
92.906298
 20
298.937356
 30
0.0
 40
43.16246
100
AcDbArc
 50
355.6846
 51
356.106335
  0
ARC
  5
189
100
AcDbEntity
  8
1
  6
CONTINUOUS
 62
     2
100
AcDbCircle
 10
105.540543
 20
297.984314
 30
0.0
 40
30.49232
100
AcDbArc
 50
355.084733
 51
355.683951
  0
ARC
  5
18A
100
AcDbEntity
  8
1
  6
CONTINUOUS
 62
     2
100
AcDbCircle
 10
112.004754
 20
297.428809
 30
0.0
 40
24.004284
100
AcDbArc
 50
354.316806
 51
355.083761
  0
ARC
  5
18B
100
AcDbEntity
  8
1
  6
CONTINUOUS
 62
     2
100
AcDbCircle
 10
115.812446
 20
297.050184
 30
0.0
 40
20.177814
100
AcDbArc
 50
352.668415
 51
354.315943
  0
ARC
  5
18C
100
AcDbEntity
  8
1
  6
CONTINUOUS
 62
     2
100
AcDbCircle
 10
106.585244
 20
298.223373
 30
0.0
 40
29.479292
100
AcDbArc
 50
352.199641
 51
352.69543
  0
ARC
  5
18D
100
AcDbEntity
  8
1
  6
CONTINUOUS
 62
     2
100
AcDbCircle
 10
92.935971
 20
300.09259
 30
0.0
 40
43.255961
100
AcDbArc
 50
351.866857
 51
352.200413
  0
ARC
  5
18E
100
AcDbEntity
  8
1
  6
CONTINUOUS
 62
     2
100
AcDbCircle
 10
56.07643
 20
305.360528
 30
0.0
 40
80.490044
100
AcDbArc
 50
351.691972
 51
351.86665
  0
ARC
  5
18F
100
AcDbEntity
  8
1
  6
CONTINUOUS
 62
     2
100
AcDbCircle
 10
-1929.658169
 20
595.382409
 30
0.0
 40
2087.292124
100
AcDbArc
 50
351.684131
 51
351.690604
  0
ARC
  5
190
100
AcDbEntity
  8
1
  6
CONTINUOUS
 62
     2
100
AcDbCircle
 10
122.601212
 20
295.378986
 30
0.0
 40
13.221133
100
AcDbArc
 50
351.180274
 51
351.815547
  0
ARC
  5
191
100
AcDbEntity
  8
1
  6
CONTINUOUS
 62
     2
100
AcDbCircle
 10
131.41434
 20
294.012673
 30
0.0
 40
4.302724
100
AcDbArc
 50
349.204279
 51
351.165301
  0
ARC
  5
192
100
AcDbEntity
  8
1
  6
CONTINUOUS
 62
     2
100
AcDbCircle
 10
132.713012
 20
293.767006
 30
0.0
 40
2.981022
100
AcDbArc
 50
346.204292
 51
349.167132
  0
ARC
  5
193
100
AcDbEntity
  8
1
  6
CONTINUOUS
 62
     2
100
AcDbCircle
 10
132.915385
 20
293.719433
 30
0.0
 40
2.773144
100
AcDbArc
 50
342.698787
 51
346.161782
  0
ARC
  5
194
100
AcDbEntity
  8
1
  6
CONTINUOUS
 62
     2
100
AcDbCircle
 10
132.612595
 20
293.815544
 30
0.0
 40
3.090817
100
AcDbArc
 50
339.182101
 51
342.66701
  0
ARC
  5
195
100
AcDbEntity
  8
1
  6
CONTINUOUS
 62
     2
100
AcDbCircle
 10
134.082554
 20
293.248522
 30
0.0
 40
1.515325
100
AcDbArc
 50
336.988327
 51
339.46877
  0
ARC
  5
196
100
AcDbEntity
  8
1
  6
CONTINUOUS
 62
     2
100
AcDbCircle
 10
134.910624
 20
292.895514
 30
0.0
 40
0.615152
100
AcDbArc
 50
331.210017
 51
337.101011
  0
ARC
  5
197
100
AcDbEntity
  8
1
  6
CONTINUOUS
 62
     2
100
AcDbCircle
 10
135.207113
 20
292.730867
 30
0.0
 40
0.276022
100
AcDbArc
 50
319.789845
 51
331.522624
  0
ARC
  5
198
100
AcDbEntity
  8
1
  6
CONTINUOUS
 62
     2
100
AcDbCircle
 10
135.324971
 20
292.629788
 30
0.0
 40
0.120765
100
AcDbArc
 50
297.513365
 51
320.31353
  0
ARC
  5
199
100
AcDbEntity
  8
1
  6
CONTINUOUS
 62
     2
100
AcDbCircle
 10
135.347604
 20
292.589012
 30
0.0
 40
0.074156
100
AcDbArc
 50
261.978029
 51
296.558055
  0
ARC
  5
19A
100
AcDbEntity
  8
1
  6
CONTINUOUS
 62
     2
100
AcDbCircle
 10
135.350263
 20
292.608057
 30
0.0
 40
0.093386
100
AcDbArc
 50
253.58964
 51
261.992937
  0
ARC
  5
19B
100
AcDbEntity
  8
1
  6
CONTINUOUS
 62
     2
100
AcDbCircle
 10
135.357717
 20
292.633769
 30
0.0
 40
0.120156
100
AcDbArc
 50
246.751374
 51
253.643703
  0
ARC
  5
19C
100
AcDbEntity
  8
1
  6
CONTINUOUS
 62
     2
100
AcDbCircle
 10
135.366972
 20
292.655578
 30
0.0
 40
0.143848
100
AcDbArc
 50
240.822289
 51
246.79344
  0
ARC
  5
19D
100
AcDbEntity
  8
1
  6
CONTINUOUS
 62
     2
100
AcDbCircle
 10
135.374424
 20
292.669076
 30
0.0
 40
0.159266
100
AcDbArc
 50
222.110728
 51
240.848719
  0
ARC
  5
19E
100
AcDbEntity
  8
1
  6
CONTINUOUS
 62
     2
100
AcDbCircle
 10
135.399922
 20
292.692369
 30
0.0
 40
0.1938
100
AcDbArc
 50
215.866065
 51
222.164639
  0
ARC
  5
19F
100
AcDbEntity
  8
1
  6
CONTINUOUS
 62
     2
100
AcDbCircle
 10
135.449652
 20
292.728267
 30
0.0
 40
0.255134
100
AcDbArc
 50
211.086591
 51
215.856012
  0
ARC
  5
1A0
100
AcDbEntity
  8
1
  6
CONTINUOUS
 62
     2
100
AcDbCircle
 10
135.557858
 20
292.793508
 30
0.0
 40
0.381486
100
AcDbArc
 50
207.89026
 51
211.086682
  0
ARC
  5
1A1
100
AcDbEntity
  8
1
  6
CONTINUOUS
 62
     2
100
AcDbCircle
 10
135.876231
 20
292.962044
 30
0.0
 40
0.741716
100
AcDbArc
 50
206.24602
 51
207.892745
  0
ARC
  5
1A2
100
AcDbEntity
  8
1
  6
CONTINUOUS
 62
     2
100
AcDbCircle
 10
136.423125
 20
293.235215
 30
0.0
 40
1.353035
100
AcDbArc
 50
203.840683
 51
206.379689
  0
ARC
  5
1A3
100
AcDbEntity
  8
1
  6
CONTINUOUS
 62
     2
100
AcDbCircle
 10
136.362254
 20
293.208016
 30
0.0
 40
1.286364
100
AcDbArc
 50
201.166847
 51
203.828456
  0
ARC
  5
1A4
100
AcDbEntity
  8
1
  6
CONTINUOUS
 62
     2
100
AcDbCircle
 10
136.322205
 20
293.192217
 30
0.0
 40
1.243312
100
AcDbArc
 50
199.778489
 51
201.154336
  0
ARC
  5
1A5
100
AcDbEntity
  8
1
  6
CONTINUOUS
 62
     2
100
AcDbCircle
 10
136.442082
 20
293.234779
 30
0.0
 40
1.37052
100
AcDbArc
 50
198.713685
 51
199.756997
  0
ARC
  5
1A6
100
AcDbEntity
  8
1
  6
CONTINUOUS
 62
     2
100
AcDbCircle
 10
136.816069
 20
293.361467
 30
0.0
 40
1.765382
100
AcDbArc
 50
197.903256
 51
198.713712
  0
ARC
  5
1A7
100
AcDbEntity
  8
1
  6
CONTINUOUS
 62
     2
100
AcDbCircle
 10
137.492524
 20
293.580001
 30
0.0
 40
2.47626
100
AcDbArc
 50
197.325152
 51
197.903311
  0
ARC
  5
1A8
100
AcDbEntity
  8
1
  6
CONTINUOUS
 62
     2
100
AcDbCircle
 10
139.074447
 20
294.073481
 30
0.0
 40
4.133367
100
AcDbArc
 50
196.97866
 51
197.325204
  0
ARC
  5
1A9
100
AcDbEntity
  8
1
  6
CONTINUOUS
 62
     2
100
AcDbCircle
 10
146.990727
 20
296.490514
 30
0.0
 40
12.410416
100
AcDbArc
 50
196.863241
 51
196.978692
  0
ARC
  5
1AA
100
AcDbEntity
  8
1
  6
CONTINUOUS
 62
     2
100
AcDbCircle
 10
118.162463
 20
290.420514
 30
0.0
 40
16.963854
100
AcDbArc
 50
16.979554
 51
17.109257
  0
ARC
  5
1AB
100
AcDbEntity
  8
1
  6
CONTINUOUS
 62
     2
100
AcDbCircle
 10
128.971684
 20
293.747776
 30
0.0
 40
5.654126
100
AcDbArc
 50
17.109257
 51
17.498385
  0
ARC
  5
1AC
100
AcDbEntity
  8
1
  6
CONTINUOUS
 62
     2
100
AcDbCircle
 10
131.128926
 20
294.427885
 30
0.0
 40
3.392216
100
AcDbArc
 50
17.498385
 51
18.146977
  0
ARC
  5
1AD
100
AcDbEntity
  8
1
  6
CONTINUOUS
 62
     2
100
AcDbCircle
 10
132.049053
 20
294.729464
 30
0.0
 40
2.423926
100
AcDbArc
 50
18.146977
 51
19.054794
  0
ARC
  5
1AE
100
AcDbEntity
  8
1
  6
CONTINUOUS
 62
     2
100
AcDbCircle
 10
132.555792
 20
294.904491
 30
0.0
 40
1.887812
100
AcDbArc
 50
19.054794
 51
20.220975
  0
ARC
  5
1AF
100
AcDbEntity
  8
1
  6
CONTINUOUS
 62
     2
100
AcDbCircle
 10
132.812873
 20
294.999185
 30
0.0
 40
1.613846
100
AcDbArc
 50
20.220975
 51
21.710838
  0
ARC
  5
1B0
100
AcDbEntity
  8
1
  6
CONTINUOUS
 62
     2
100
AcDbCircle
 10
132.866416
 20
295.020504
 30
0.0
 40
1.556214
100
AcDbArc
 50
21.710838
 51
23.256367
  0
ARC
  5
1B1
100
AcDbEntity
  8
1
  6
CONTINUOUS
 62
     2
100
AcDbCircle
 10
133.003054
 20
295.079226
 30
0.0
 40
1.407492
100
AcDbArc
 50
23.256367
 51
24.964613
  0
ARC
  5
1B2
100
AcDbEntity
  8
1
  6
CONTINUOUS
 62
     2
100
AcDbCircle
 10
133.050336
 20
295.101239
 30
0.0
 40
1.355337
100
AcDbArc
 50
24.964613
 51
26.737084
  0
ARC
  5
1B3
100
AcDbEntity
  8
1
  6
CONTINUOUS
 62
     2
100
AcDbCircle
 10
133.158022
 20
295.155486
 30
0.0
 40
1.23476
100
AcDbArc
 50
26.737084
 51
28.680369
  0
ARC
  5
1B4
100
AcDbEntity
  8
1
  6
CONTINUOUS
 62
     2
100
AcDbCircle
 10
133.458724
 20
295.319982
 30
0.0
 40
0.892005
100
AcDbArc
 50
28.680369
 51
30.179386
  0
ARC
  5
1B5
100
AcDbEntity
  8
1
  6
CONTINUOUS
 62
     2
100
AcDbCircle
 10
133.858844
 20
295.552665
 30
0.0
 40
0.429147
100
AcDbArc
 50
30.179386
 51
33.292799
  0
ARC
  5
1B6
100
AcDbEntity
  8
1
  6
CONTINUOUS
 62
     2
100
AcDbCircle
 10
133.930639
 20
295.599813
 30
0.0
 40
0.343255
100
AcDbArc
 50
33.292799
 51
37.191337
  0
ARC
  5
1B7
100
AcDbEntity
  8
1
  6
CONTINUOUS
 62
     2
100
AcDbCircle
 10
134.006407
 20
295.657306
 30
0.0
 40
0.248143
100
AcDbArc
 50
37.191337
 51
42.626318
  0
ARC
  5
1B8
100
AcDbEntity
  8
1
  6
CONTINUOUS
 62
     2
100
AcDbCircle
 10
134.02017
 20
295.669973
 30
0.0
 40
0.229438
100
AcDbArc
 50
42.626318
 51
48.613849
  0
ARC
  5
1B9
100
AcDbEntity
  8
1
  6
CONTINUOUS
 62
     2
100
AcDbCircle
 10
134.034245
 20
295.685946
 30
0.0
 40
0.208149
100
AcDbArc
 50
48.613849
 51
60.146462
  0
ARC
  5
1BA
100
AcDbEntity
  8
1
  6
CONTINUOUS
 62
     2
100
AcDbCircle
 10
134.048062
 20
295.71002
 30
0.0
 40
0.180392
100
AcDbArc
 50
60.146462
 51
66.686115
  0
ARC
  5
1BB
100
AcDbEntity
  8
1
  6
CONTINUOUS
 62
     2
100
AcDbCircle
 10
134.063337
 20
295.745464
 30
0.0
 40
0.141796
100
AcDbArc
 50
66.686115
 51
74.686137
  0
ARC
  5
1BC
100
AcDbEntity
  8
1
  6
CONTINUOUS
 62
     2
100
AcDbCircle
 10
134.072256
 20
295.778034
 30
0.0
 40
0.108027
100
AcDbArc
 50
74.686137
 51
84.636828
  0
ARC
  5
1BD
100
AcDbEntity
  8
1
  6
CONTINUOUS
 62
     2
100
AcDbCircle
 10
134.07405
 20
295.797145
 30
0.0
 40
0.088832
100
AcDbArc
 50
84.636828
 51
114.592723
  0
ARC
  5
1BE
100
AcDbEntity
  8
1
  6
CONTINUOUS
 62
     2
100
AcDbCircle
 10
134.097226
 20
295.746508
 30
0.0
 40
0.14452
100
AcDbArc
 50
114.592723
 51
134.210452
  0
ARC
  5
1BF
100
AcDbEntity
  8
1
  6
CONTINUOUS
 62
     2
100
AcDbCircle
 10
134.211565
 20
295.628973
 30
0.0
 40
0.308497
100
AcDbArc
 50
134.210452
 51
144.630894
  0
ARC
  5
1C0
100
AcDbEntity
  8
1
  6
CONTINUOUS
 62
     2
100
AcDbCircle
 10
134.419355
 20
295.481473
 30
0.0
 40
0.563316
100
AcDbArc
 50
144.630894
 51
150.87203
  0
ARC
  5
1C1
100
AcDbEntity
  8
1
  6
CONTINUOUS
 62
     2
100
AcDbCircle
 10
135.162454
 20
295.067394
 30
0.0
 40
1.413997
100
AcDbArc
 50
150.87203
 51
153.427973
  0
ARC
  5
1C2
100
AcDbEntity
  8
1
  6
CONTINUOUS
 62
     2
100
AcDbCircle
 10
135.751497
 20
294.772783
 30
0.0
 40
2.072606
100
AcDbArc
 50
153.427973
 51
157.825888
  0
ARC
  5
1C3
100
AcDbEntity
  8
1
  6
CONTINUOUS
 62
     2
100
AcDbCircle
 10
135.539414
 20
294.859221
 30
0.0
 40
1.843585
100
AcDbArc
 50
157.825888
 51
162.34618
  0
ARC
  5
1C4
100
AcDbEntity
  8
1
  6
CONTINUOUS
 62
     2
100
AcDbCircle
 10
135.920699
 20
294.737876
 30
0.0
 40
2.243714
100
AcDbArc
 50
162.34618
 51
165.833851
  0
ARC
  5
1C5
100
AcDbEntity
  8
1
  6
CONTINUOUS
 62
     2
100
AcDbCircle
 10
136.526599
 20
294.58494
 30
0.0
 40
2.868616
100
AcDbArc
 50
165.833851
 51
168.470801
  0
ARC
  5
1C6
100
AcDbEntity
  8
1
  6
CONTINUOUS
 62
     2
100
AcDbCircle
 10
142.370119
 20
293.392961
 30
0.0
 40
8.832469
100
AcDbArc
 50
168.470801
 51
169.322655
  0
ARC
  5
1C7
100
AcDbEntity
  8
1
  6
CONTINUOUS
 62
     2
100
AcDbCircle
 10
164.831633
 20
289.158012
 30
0.0
 40
31.689731
100
AcDbArc
 50
169.322655
 51
170.741332
  0
ARC
  5
1C8
100
AcDbEntity
  8
1
  6
CONTINUOUS
 62
     2
100
AcDbCircle
 10
156.040042
 20
290.591179
 30
0.0
 40
22.782092
100
AcDbArc
 50
170.741332
 51
171.422224
  0
ARC
  5
1C9
100
AcDbEntity
  8
1
  6
CONTINUOUS
 62
     2
100
AcDbCircle
 10
159.422241
 20
290.081011
 30
0.0
 40
26.202551
100
AcDbArc
 50
171.422224
 51
173.276024
  0
ARC
  5
1CA
100
AcDbEntity
  8
1
  6
CONTINUOUS
 62
     2
100
AcDbCircle
 10
160.839638
 20
289.913904
 30
0.0
 40
27.629765
100
AcDbArc
 50
173.276024
 51
174.458928
  0
ARC
  5
1CB
100
AcDbEntity
  8
1
  6
CONTINUOUS
 62
     2
100
AcDbCircle
 10
175.203024
 20
288.520474
 30
0.0
 40
42.060583
100
AcDbArc
 50
174.458928
 51
175.230707
  0
ARC
  5
1CC
100
AcDbEntity
  8
1
  6
CONTINUOUS
 62
     2
100
AcDbCircle
 10
179.201866
 20
288.18684
 30
0.0
 40
46.073319
100
AcDbArc
 50
175.230707
 51
175.933001
  0
ARC
  5
1CD
100
AcDbEntity
  8
1
  6
CONTINUOUS
 62
     2
100
AcDbCircle
 10
252.329959
 20
282.987288
 30
0.0
 40
119.386028
100
AcDbArc
 50
175.933001
 51
176.204089
  0
ARC
  5
1CE
100
AcDbEntity
  8
1
  6
CONTINUOUS
 62
     2
100
AcDbCircle
 10
258.503729
 20
282.57767
 30
0.0
 40
125.573372
100
AcDbArc
 50
176.204089
 51
176.716126
  0
ARC
  5
1CF
100
AcDbEntity
  8
1
  6
CONTINUOUS
 62
     2
100
AcDbCircle
 10
275.05167
 20
281.628194
 30
0.0
 40
142.14853
100
AcDbArc
 50
176.716126
 51
177.170064
  0
ARC
  5
1D0
100
AcDbEntity
  8
1
  6
CONTINUOUS
 62
     2
100
AcDbCircle
 10
251.50871
 20
282.791967
 30
0.0
 40
118.576823
100
AcDbArc
 50
177.170064
 51
178.15129
  0
ARC
  5
1D1
100
AcDbEntity
  8
1
  6
CONTINUOUS
 62
     2
100
AcDbCircle
 10
302.207686
 20
281.155542
 30
0.0
 40
169.302202
100
AcDbArc
 50
178.15129
 51
178.399347
  0
ARC
  5
1D2
100
AcDbEntity
  8
1
  6
CONTINUOUS
 62
     2
100
AcDbCircle
 10
248.373273
 20
282.659887
 30
0.0
 40
115.446774
100
AcDbArc
 50
178.399347
 51
178.763026
  0
ARC
  5
1D3
100
AcDbEntity
  8
1
  6
CONTINUOUS
 62
     2
100
AcDbCircle
 10
322.712356
 20
281.054711
 30
0.0
 40
189.803186
100
AcDbArc
 50
178.763026
 51
178.984229
  0
ARC
  5
1D4
100
AcDbEntity
  8
1
  6
CONTINUOUS
 62
     2
100
AcDbCircle
 10
262.259334
 20
282.126568
 30
0.0
 40
129.340662
100
AcDbArc
 50
178.984229
 51
179.297236
  0
ARC
  5
1D5
100
AcDbEntity
  8
1
  6
CONTINUOUS
 62
     2
100
AcDbCircle
 10
479.368379
 20
279.463473
 30
0.0
 40
346.466039
100
AcDbArc
 50
179.297236
 51
179.414109
  0
ARC
  5
1D6
100
AcDbEntity
  8
1
  6
CONTINUOUS
 62
     2
100
AcDbCircle
 10
330.065838
 20
280.990252
 30
0.0
 40
197.155692
100
AcDbArc
 50
179.414109
 51
179.619527
  0
ARC
  5
1D7
100
AcDbEntity
  8
1
  6
CONTINUOUS
 62
     2
100
AcDbCircle
 10
4449.198174
 20
253.636757
 30
0.0
 40
4316.378849
100
AcDbArc
 50
179.619527
 51
179.628911
  0
ARC
  5
1D8
100
AcDbEntity
  8
1
  6
CONTINUOUS
 62
     2
100
AcDbCircle
 10
546.235093
 20
278.915514
 30
0.0
 40
413.333906
100
AcDbArc
 50
179.628911
 51
179.72691
  0
ARC
  5
1D9
100
AcDbEntity
  8
1
  6
CONTINUOUS
 62
     2
100
AcDbCircle
 10
176.237537
 20
290.420514
 30
0.0
 40
16.963854
100
AcDbArc
 50
162.890743
 51
163.020446
  0
ARC
  5
1DA
100
AcDbEntity
  8
1
  6
CONTINUOUS
 62
     2
100
AcDbCircle
 10
165.428217
 20
293.747807
 30
0.0
 40
5.654022
100
AcDbArc
 50
162.501612
 51
162.890747
  0
ARC
  5
1DB
100
AcDbEntity
  8
1
  6
CONTINUOUS
 62
     2
100
AcDbCircle
 10
163.271178
 20
294.427852
 30
0.0
 40
3.392324
100
AcDbArc
 50
161.853033
 51
162.501605
  0
ARC
  5
1DC
100
AcDbEntity
  8
1
  6
CONTINUOUS
 62
     2
100
AcDbCircle
 10
162.351122
 20
294.729405
 30
0.0
 40
2.424111
100
AcDbArc
 50
160.945241
 51
161.852988
  0
ARC
  5
1DD
100
AcDbEntity
  8
1
  6
CONTINUOUS
 62
     2
100
AcDbCircle
 10
161.844483
 20
294.904393
 30
0.0
 40
1.888104
100
AcDbArc
 50
159.779115
 51
160.945116
  0
ARC
  5
1DE
100
AcDbEntity
  8
1
  6
CONTINUOUS
 62
     2
100
AcDbCircle
 10
161.613197
 20
294.989196
 30
0.0
 40
1.641761
100
AcDbArc
 50
158.301829
 51
159.766358
  0
ARC
  5
1DF
100
AcDbEntity
  8
1
  6
CONTINUOUS
 62
     2
100
AcDbCircle
 10
161.50978
 20
295.030356
 30
0.0
 40
1.530454
100
AcDbArc
 50
156.730626
 51
158.302169
  0
ARC
  5
1E0
100
AcDbEntity
  8
1
  6
CONTINUOUS
 62
     2
100
AcDbCircle
 10
161.416301
 20
295.070564
 30
0.0
 40
1.428695
100
AcDbArc
 50
155.048064
 51
156.730957
  0
ARC
  5
1E1
100
AcDbEntity
  8
1
  6
CONTINUOUS
 62
     2
100
AcDbCircle
 10
161.332053
 20
295.109771
 30
0.0
 40
1.335771
100
AcDbArc
 50
153.249933
 51
155.048369
  0
ARC
  5
1E2
100
AcDbEntity
  8
1
  6
CONTINUOUS
 62
     2
100
AcDbCircle
 10
161.25648
 20
295.14787
 30
0.0
 40
1.251138
100
AcDbArc
 50
151.332352
 51
153.250195
  0
ARC
  5
1E3
100
AcDbEntity
  8
1
  6
CONTINUOUS
 62
     2
100
AcDbCircle
 10
160.847708
 20
295.372769
 30
0.0
 40
0.784585
100
AcDbArc
 50
149.717989
 51
151.422256
  0
ARC
  5
1E4
100
AcDbEntity
  8
1
  6
CONTINUOUS
 62
     2
100
AcDbCircle
 10
160.566923
 20
295.536728
 30
0.0
 40
0.459434
100
AcDbArc
 50
146.809845
 51
149.717971
  0
ARC
  5
1E5
100
AcDbEntity
  8
1
  6
CONTINUOUS
 62
     2
100
AcDbCircle
 10
160.455749
 20
295.60943
 30
0.0
 40
0.326598
100
AcDbArc
 50
142.709205
 51
146.806658
  0
ARC
  5
1E6
100
AcDbEntity
  8
1
  6
CONTINUOUS
 62
     2
100
AcDbCircle
 10
160.401585
 20
295.650621
 30
0.0
 40
0.258551
100
AcDbArc
 50
137.483148
 51
142.699197
  0
ARC
  5
1E7
100
AcDbEntity
  8
1
  6
CONTINUOUS
 62
     2
100
AcDbCircle
 10
160.375172
 20
295.674733
 30
0.0
 40
0.222788
100
AcDbArc
 50
131.296702
 51
137.463132
  0
ARC
  5
1E8
100
AcDbEntity
  8
1
  6
CONTINUOUS
 62
     2
100
AcDbCircle
 10
160.368589
 20
295.68199
 30
0.0
 40
0.212992
100
AcDbArc
 50
119.985084
 51
131.254605
  0
ARC
  5
1E9
100
AcDbEntity
  8
1
  6
CONTINUOUS
 62
     2
100
AcDbCircle
 10
160.350706
 20
295.712482
 30
0.0
 40
0.177643
100
AcDbArc
 50
113.263237
 51
119.904186
  0
ARC
  5
1EA
100
AcDbEntity
  8
1
  6
CONTINUOUS
 62
     2
100
AcDbCircle
 10
160.33665
 20
295.745502
 30
0.0
 40
0.141756
100
AcDbArc
 50
105.312738
 51
113.315009
  0
ARC
  5
1EB
100
AcDbEntity
  8
1
  6
CONTINUOUS
 62
     2
100
AcDbCircle
 10
160.327517
 20
295.779277
 30
0.0
 40
0.106769
100
AcDbArc
 50
95.304367
 51
105.372668
  0
ARC
  5
1EC
100
AcDbEntity
  8
1
  6
CONTINUOUS
 62
     2
100
AcDbCircle
 10
160.325448
 20
295.794184
 30
0.0
 40
0.091736
100
AcDbArc
 50
65.891998
 51
94.878451
  0
ARC
  5
1ED
100
AcDbEntity
  8
1
  6
CONTINUOUS
 62
     2
100
AcDbCircle
 10
160.302776
 20
295.74651
 30
0.0
 40
0.144518
100
AcDbArc
 50
45.789391
 51
65.407434
  0
ARC
  5
1EE
100
AcDbEntity
  8
1
  6
CONTINUOUS
 62
     2
100
AcDbCircle
 10
160.20218
 20
295.640746
 30
0.0
 40
0.290478
100
AcDbArc
 50
35.044926
 51
46.113728
  0
ARC
  5
1EF
100
AcDbEntity
  8
1
  6
CONTINUOUS
 62
     2
100
AcDbCircle
 10
159.965703
 20
295.472046
 30
0.0
 40
0.580957
100
AcDbArc
 50
29.222819
 51
35.274257
  0
ARC
  5
1F0
100
AcDbEntity
  8
1
  6
CONTINUOUS
 62
     2
100
AcDbCircle
 10
159.400162
 20
295.153313
 30
0.0
 40
1.23013
100
AcDbArc
 50
26.380971
 51
29.319026
  0
ARC
  5
1F1
100
AcDbEntity
  8
1
  6
CONTINUOUS
 62
     2
100
AcDbCircle
 10
158.702583
 20
294.797284
 30
0.0
 40
2.01328
100
AcDbArc
 50
22.109281
 51
26.636858
  0
ARC
  5
1F2
100
AcDbEntity
  8
1
  6
CONTINUOUS
 62
     2
100
AcDbCircle
 10
158.778474
 20
294.829474
 30
0.0
 40
1.930855
100
AcDbArc
 50
17.756022
 51
22.071909
  0
ARC
  5
1F3
100
AcDbEntity
  8
1
  6
CONTINUOUS
 62
     2
100
AcDbCircle
 10
158.552298
 20
294.758683
 30
0.0
 40
2.167845
100
AcDbArc
 50
14.105099
 51
17.71487
  0
ARC
  5
1F4
100
AcDbEntity
  8
1
  6
CONTINUOUS
 62
     2
100
AcDbCircle
 10
157.660653
 20
294.536419
 30
0.0
 40
3.086775
100
AcDbArc
 50
11.622397
 51
14.072951
  0
ARC
  5
1F5
100
AcDbEntity
  8
1
  6
CONTINUOUS
 62
     2
100
AcDbCircle
 10
153.389897
 20
293.659866
 30
0.0
 40
7.446556
100
AcDbArc
 50
10.598072
 51
11.608472
  0
ARC
  5
1F6
100
AcDbEntity
  8
1
  6
CONTINUOUS
 62
     2
100
AcDbCircle
 10
131.479686
 20
289.493929
 30
0.0
 40
29.749276
100
AcDbArc
 50
9.212397
 51
10.723616
  0
ARC
  5
1F7
100
AcDbEntity
  8
1
  6
CONTINUOUS
 62
     2
100
AcDbCircle
 10
133.98954
 20
289.905365
 30
0.0
 40
27.205926
100
AcDbArc
 50
8.633135
 51
9.203309
  0
ARC
  5
1F8
100
AcDbEntity
  8
1
  6
CONTINUOUS
 62
     2
100
AcDbCircle
 10
136.512184
 20
290.287134
 30
0.0
 40
24.654559
100
AcDbArc
 50
6.665773
 51
8.635979
  0
ARC
  5
1F9
100
AcDbEntity
  8
1
  6
CONTINUOUS
 62
     2
100
AcDbCircle
 10
131.295861
 20
289.670598
 30
0.0
 40
29.907187
100
AcDbArc
 50
5.586112
 51
6.678936
  0
ARC
  5
1FA
100
AcDbEntity
  8
1
  6
CONTINUOUS
 62
     2
100
AcDbCircle
 10
123.463685
 20
288.90541
 30
0.0
 40
37.776653
100
AcDbArc
 50
4.725531
 51
5.584833
  0
ARC
  5
1FB
100
AcDbEntity
  8
1
  6
CONTINUOUS
 62
     2
100
AcDbCircle
 10
108.514691
 20
287.670448
 30
0.0
 40
52.776571
100
AcDbArc
 50
4.111599
 51
4.724692
  0
ARC
  5
1FC
100
AcDbEntity
  8
1
  6
CONTINUOUS
 62
     2
100
AcDbCircle
 10
71.36101
 20
285.000302
 30
0.0
 40
90.026077
100
AcDbArc
 50
3.751706
 51
4.111203
  0
ARC
  5
1FD
100
AcDbEntity
  8
1
  6
CONTINUOUS
 62
     2
100
AcDbCircle
 10
24.138801
 20
281.850335
 30
0.0
 40
137.35321
100
AcDbArc
 50
3.305831
 51
3.773954
  0
ARC
  5
1FE
100
AcDbEntity
  8
1
  6
CONTINUOUS
 62
     2
100
AcDbCircle
 10
30.992361
 20
282.250029
 30
0.0
 40
130.488005
100
AcDbArc
 50
2.809653
 51
3.304156
  0
ARC
  5
1FF
100
AcDbEntity
  8
1
  6
CONTINUOUS
 62
     2
100
AcDbCircle
 10
36.952628
 20
282.549364
 30
0.0
 40
124.520231
100
AcDbArc
 50
1.872128
 51
2.806518
  0
ARC
  5
200
100
AcDbEntity
  8
1
  6
CONTINUOUS
 62
     2
100
AcDbCircle
 10
27.090817
 20
282.206352
 30
0.0
 40
134.387986
100
AcDbArc
 50
1.56843
 51
1.880933
  0
ARC
  5
201
100
AcDbEntity
  8
1
  6
CONTINUOUS
 62
     2
100
AcDbCircle
 10
21.151602
 20
282.04378
 30
0.0
 40
140.329425
100
AcDbArc
 50
1.269217
 51
1.56841
  0
ARC
  5
202
100
AcDbEntity
  8
1
  6
CONTINUOUS
 62
     2
100
AcDbCircle
 10
14.503234
 20
281.896527
 30
0.0
 40
146.979424
100
AcDbArc
 50
0.983546
 51
1.269199
  0
ARC
  5
203
100
AcDbEntity
  8
1
  6
CONTINUOUS
 62
     2
100
AcDbCircle
 10
-5.905008
 20
281.555952
 30
0.0
 40
167.390505
100
AcDbArc
 50
0.738339
 51
0.980196
  0
ARC
  5
204
100
AcDbEntity
  8
1
  6
CONTINUOUS
 62
     2
100
AcDbCircle
 10
-53.858841
 20
280.937945
 30
0.0
 40
215.34832
100
AcDbArc
 50
0.55031
 51
0.738344
  0
ARC
  5
205
100
AcDbEntity
  8
1
  6
CONTINUOUS
 62
     2
100
AcDbCircle
 10
-140.141145
 20
280.109179
 30
0.0
 40
301.634605
100
AcDbArc
 50
0.416048
 51
0.550315
  0
ARC
  5
206
100
AcDbEntity
  8
1
  6
CONTINUOUS
 62
     2
100
AcDbCircle
 10
-341.395533
 20
278.647736
 30
0.0
 40
502.894298
100
AcDbArc
 50
0.33551
 51
0.416051
  0
ARC
  5
207
100
AcDbEntity
  8
1
  6
CONTINUOUS
 62
     2
100
AcDbCircle
 10
-1347.427823
 20
272.756552
 30
0.0
 40
1508.943838
100
AcDbArc
 50
0.308667
 51
0.335511
  0
ARC
  5
208
100
AcDbEntity
  8
1
  6
CONTINUOUS
 62
     2
100
AcDbCircle
 10
158.583595
 20
293.775959
 30
0.0
 40
1.349058
100
AcDbArc
 50
290.804109
 51
291.439786
  0
ARC
  5
209
100
AcDbEntity
  8
1
  6
CONTINUOUS
 62
     2
100
AcDbCircle
 10
158.914978
 20
292.932094
 30
0.0
 40
0.442459
100
AcDbArc
 50
291.439786
 51
293.364685
  0
ARC
  5
20A
100
AcDbEntity
  8
1
  6
CONTINUOUS
 62
     2
100
AcDbCircle
 10
158.98928
 20
292.7601
 30
0.0
 40
0.255102
100
AcDbArc
 50
293.364685
 51
296.662365
  0
ARC
  5
20B
100
AcDbEntity
  8
1
  6
CONTINUOUS
 62
     2
100
AcDbCircle
 10
159.025553
 20
292.687861
 30
0.0
 40
0.174267
100
AcDbArc
 50
296.662365
 51
301.419171
  0
ARC
  5
20C
100
AcDbEntity
  8
1
  6
CONTINUOUS
 62
     2
100
AcDbCircle
 10
159.048447
 20
292.650384
 30
0.0
 40
0.130351
100
AcDbArc
 50
301.419171
 51
307.703358
  0
ARC
  5
20D
100
AcDbEntity
  8
1
  6
CONTINUOUS
 62
     2
100
AcDbCircle
 10
159.053815
 20
292.64344
 30
0.0
 40
0.121573
100
AcDbArc
 50
307.703358
 51
317.478229
  0
ARC
  5
20E
100
AcDbEntity
  8
1
  6
CONTINUOUS
 62
     2
100
AcDbCircle
 10
159.005762
 20
292.687505
 30
0.0
 40
0.186772
100
AcDbArc
 50
317.478229
 51
323.936221
  0
ARC
  5
20F
100
AcDbEntity
  8
1
  6
CONTINUOUS
 62
     2
100
AcDbCircle
 10
158.977938
 20
292.707768
 30
0.0
 40
0.221193
100
AcDbArc
 50
323.936221
 51
329.501009
  0
ARC
  5
210
100
AcDbEntity
  8
1
  6
CONTINUOUS
 62
     2
100
AcDbCircle
 10
158.756774
 20
292.838039
 30
0.0
 40
0.477871
100
AcDbArc
 50
329.501009
 51
332.114299
  0
ARC
  5
211
100
AcDbEntity
  8
1
  6
CONTINUOUS
 62
     2
100
AcDbCircle
 10
158.658833
 20
292.889864
 30
0.0
 40
0.588679
100
AcDbArc
 50
332.114299
 51
334.241596
  0
ARC
  5
212
100
AcDbEntity
  8
1
  6
CONTINUOUS
 62
     2
100
AcDbCircle
 10
153.548748
 20
295.355601
 30
0.0
 40
6.262551
100
AcDbArc
 50
334.241596
 51
334.520305
  0
ARC
  5
213
100
AcDbEntity
  8
1
  6
CONTINUOUS
 62
     2
100
AcDbCircle
 10
158.450972
 20
293.019492
 30
0.0
 40
0.832154
100
AcDbArc
 50
334.520305
 51
336.589556
  0
ARC
  5
214
100
AcDbEntity
  8
1
  6
CONTINUOUS
 62
     2
100
AcDbCircle
 10
155.678982
 20
294.219639
 30
0.0
 40
3.852797
100
AcDbArc
 50
336.589556
 51
337.032353
  0
ARC
  5
215
100
AcDbEntity
  8
1
  6
CONTINUOUS
 62
     2
100
AcDbCircle
 10
158.517104
 20
293.016819
 30
0.0
 40
0.770313
100
AcDbArc
 50
337.032353
 51
339.23683
  0
ARC
  5
216
100
AcDbEntity
  8
1
  6
CONTINUOUS
 62
     2
100
AcDbCircle
 10
156.320073
 20
293.849777
 30
0.0
 40
3.119942
100
AcDbArc
 50
339.23683
 51
339.781086
  0
ARC
  5
217
100
AcDbEntity
  8
1
  6
CONTINUOUS
 62
     2
100
AcDbCircle
 10
158.562303
 20
293.023956
 30
0.0
 40
0.730471
100
AcDbArc
 50
339.781086
 51
341.730349
  0
ARC
  5
218
100
AcDbEntity
  8
1
  6
CONTINUOUS
 62
     2
100
AcDbCircle
 10
157.594613
 20
293.357856
 30
0.0
 40
1.754109
100
AcDbArc
 50
341.282597
 51
342.097111
  0
ARC
  5
219
100
AcDbEntity
  8
1
  6
CONTINUOUS
 62
     2
100
AcDbCircle
 10
156.905101
 20
293.580601
 30
0.0
 40
2.478707
100
AcDbArc
 50
342.097111
 51
342.675107
  0
ARC
  5
21A
100
AcDbEntity
  8
1
  6
CONTINUOUS
 62
     2
100
AcDbCircle
 10
155.31106
 20
294.077849
 30
0.0
 40
4.148504
100
AcDbArc
 50
342.675107
 51
343.021116
  0
ARC
  5
21B
100
AcDbEntity
  8
1
  6
CONTINUOUS
 62
     2
100
AcDbCircle
 10
147.293219
 20
296.525919
 30
0.0
 40
12.531751
100
AcDbArc
 50
343.021116
 51
343.135771
  0
ARC
  5
21C
100
AcDbEntity
  8
1
  6
CONTINUOUS
 62
     2
100
AcDbCircle
 10
98.315909
 20
308.381511
 30
0.0
 40
37.746567
100
AcDbArc
 50
4.073009
 51
4.658955
  0
ARC
  5
21D
100
AcDbEntity
  8
1
  6
CONTINUOUS
 62
     2
100
AcDbCircle
 10
135.093986
 20
297.262962
 30
0.0
 40
0.364754
100
AcDbArc
 50
325.172608
 51
330.150769
  0
ARC
  5
21E
100
AcDbEntity
  8
1
  6
CONTINUOUS
 62
     2
100
AcDbCircle
 10
135.235356
 20
297.163775
 30
0.0
 40
0.19206
100
AcDbArc
 50
316.781218
 51
325.376528
  0
ARC
  5
21F
100
AcDbEntity
  8
1
  6
CONTINUOUS
 62
     2
100
AcDbCircle
 10
135.31148
 20
297.091248
 30
0.0
 40
0.086924
100
AcDbArc
 50
301.175528
 51
317.259287
  0
ARC
  5
220
100
AcDbEntity
  8
1
  6
CONTINUOUS
 62
     2
100
AcDbCircle
 10
135.336244
 20
297.049753
 30
0.0
 40
0.038602
100
AcDbArc
 50
271.500216
 51
301.609063
  0
ARC
  5
221
100
AcDbEntity
  8
1
  6
CONTINUOUS
 62
     2
100
AcDbCircle
 10
135.338265
 20
297.049753
 30
0.0
 40
0.038602
100
AcDbArc
 50
238.392002
 51
268.500856
  0
ARC
  5
222
100
AcDbEntity
  8
1
  6
CONTINUOUS
 62
     2
100
AcDbCircle
 10
135.363028
 20
297.091247
 30
0.0
 40
0.086922
100
AcDbArc
 50
222.741461
 51
238.825542
  0
ARC
  5
223
100
AcDbEntity
  8
1
  6
CONTINUOUS
 62
     2
100
AcDbCircle
 10
135.439142
 20
297.163767
 30
0.0
 40
0.192048
100
AcDbArc
 50
214.623623
 51
223.219525
  0
ARC
  5
224
100
AcDbEntity
  8
1
  6
CONTINUOUS
 62
     2
100
AcDbCircle
 10
135.580471
 20
297.262927
 30
0.0
 40
0.364691
100
AcDbArc
 50
209.848515
 51
214.827549
  0
LEADER
  5
225
100
AcDbEntity
  8
1
  6
CONTINUOUS
 62
     6
100
AcDbLeader
  3
STANDARD
 73
     3
 74
     1
 75
     0
 40
0.0
 76
     2
 10
162.2
 20
324.8
 30
0.0
 10
182.635923
 20
333.474241
 30
0.0
 77
     6
1001
ACAD
1000
DSTYLE
1002
{
1070
    41
1040
6.0
1070
     5
1000
_EX_NORM
1070
     6
1000
_EX_NORM
1070
     7
1000
_EX_NORM
1070
   341
1005
29
1002
}
  0
LEADER
  5
226
100
AcDbEntity
  8
1
  6
CONTINUOUS
 62
     6
100
AcDbLeader
  3
STANDARD
 73
     3
 74
     1
 75
     0
 40
0.0
 76
     2
 10
188.313326
 20
294.910296
 30
0.0
 10
210.686967
 20
329.862215
 30
0.0
 77
     6
1001
ACAD
1000
DSTYLE
1002
{
1070
    41
1040
6.0
1070
     5
1000
_EX_NORM
1070
     6
1000
_EX_NORM
1070
     7
1000
_EX_NORM
1070
   341
1005
29
1002
}
  0
LINE
  5
227
100
AcDbEntity
  8
1
  6
CONTINUOUS
 62
     2
100
AcDbLine
 10
158.698133
 20
313.484967
 30
0.0
 11
162.103788
 21
333.733025
 31
0.0
  0
ARC
  5
228
100
AcDbEntity
  8
1
  6
CONTINUOUS
 62
     2
100
AcDbCircle
 10
234.16335
 20
305.86983
 30
0.0
 40
75.909109
100
AcDbArc
 50
176.365532
 51
176.656941
  0
ARC
  5
229
100
AcDbEntity
  8
1
  6
CONTINUOUS
 62
     2
100
AcDbCircle
 10
183.476463
 20
309.478312
 30
0.0
 40
25.091454
100
AcDbArc
 50
173.726324
 51
174.607527
  0
ARC
  5
22A
100
AcDbEntity
  8
1
  6
CONTINUOUS
 62
     2
100
AcDbCircle
 10
184.105794
 20
309.398813
 30
0.0
 40
25.725705
100
AcDbArc
 50
173.135581
 51
173.703494
  0
ARC
  5
22B
100
AcDbEntity
  8
1
  6
CONTINUOUS
 62
     2
100
AcDbCircle
 10
388.298978
 20
281.732794
 30
0.0
 40
231.785997
100
AcDbArc
 50
172.12634
 51
172.189395
  0
ARC
  5
22C
100
AcDbEntity
  8
1
  6
CONTINUOUS
 62
     2
100
AcDbCircle
 10
235.195124
 20
302.734279
 30
0.0
 40
77.248453
100
AcDbArc
 50
172.189391
 51
172.378579
  0
ARC
  5
22D
100
AcDbEntity
  8
1
  6
CONTINUOUS
 62
     2
100
AcDbCircle
 10
204.5546
 20
306.834254
 30
0.0
 40
46.33484
100
AcDbArc
 50
172.378574
 51
172.693951
  0
ARC
  5
22E
100
AcDbEntity
  8
1
  6
CONTINUOUS
 62
     2
100
AcDbCircle
 10
191.412016
 20
308.519265
 30
0.0
 40
33.084679
100
AcDbArc
 50
172.693947
 51
173.135579
  0
ARC
  5
22F
100
AcDbEntity
  8
1
  6
CONTINUOUS
 62
     2
100
AcDbCircle
 10
188.509519
 20
309.003217
 30
0.0
 40
30.146883
100
AcDbArc
 50
174.607531
 51
175.341058
  0
ARC
  5
230
100
AcDbEntity
  8
1
  6
CONTINUOUS
 62
     2
100
AcDbCircle
 10
196.084091
 20
308.38593
 30
0.0
 40
37.746567
100
AcDbArc
 50
175.341045
 51
175.926991
  0
ARC
  5
231
100
AcDbEntity
  8
1
  6
CONTINUOUS
 62
     2
100
AcDbCircle
 10
208.742441
 20
307.484545
 30
0.0
 40
50.436968
100
AcDbArc
 50
175.926973
 51
176.365546
  0
ARC
  5
232
100
AcDbEntity
  8
1
  6
CONTINUOUS
 62
     2
100
AcDbCircle
 10
260.645679
 20
304.301926
 30
0.0
 40
102.437806
100
AcDbArc
 50
176.64523
 51
179.156913
  0
ARC
  5
233
100
AcDbEntity
  8
1
  6
CONTINUOUS
 62
     2
100
AcDbCircle
 10
196.084091
 20
308.381511
 30
0.0
 40
37.746567
100
AcDbArc
 50
175.341045
 51
175.926991
  0
ARC
  5
234
100
AcDbEntity
  8
1
  6
CONTINUOUS
 62
     2
100
AcDbCircle
 10
279.828411
 20
303.962704
 30
0.0
 40
121.623465
100
AcDbArc
 50
179.130094
 51
179.346205
  0
ARC
  5
235
100
AcDbEntity
  8
1
  6
CONTINUOUS
 62
     2
100
AcDbCircle
 10
314.571414
 20
303.56624
 30
0.0
 40
156.368731
100
AcDbArc
 50
179.346206
 51
179.514295
  0
ARC
  5
236
100
AcDbEntity
  8
1
  6
CONTINUOUS
 62
     2
100
AcDbCircle
 10
377.116994
 20
303.03602
 30
0.0
 40
218.916558
100
AcDbArc
 50
179.514295
 51
179.634359
  0
ARC
  5
237
100
AcDbEntity
  8
1
  6
CONTINUOUS
 62
     2
100
AcDbCircle
 10
523.062611
 20
302.104635
 30
0.0
 40
364.865147
100
AcDbArc
 50
179.634359
 51
179.706397
  0
ARC
  5
238
100
AcDbEntity
  8
1
  6
CONTINUOUS
 62
     2
100
AcDbCircle
 10
1252.79311
 20
298.365211
 30
0.0
 40
1094.605227
100
AcDbArc
 50
179.706397
 51
179.730409
  0
ARC
  5
239
100
AcDbEntity
  8
1
  6
CONTINUOUS
 62
     2
100
AcDbCircle
 10
1442.568698
 20
305.932088
 30
0.0
 40
1284.370971
100
AcDbArc
 50
180.1078
 51
180.115272
  0
ARC
  5
23A
100
AcDbEntity
  8
1
  6
CONTINUOUS
 62
     2
100
AcDbCircle
 10
586.323187
 20
304.209422
 30
0.0
 40
428.123727
100
AcDbArc
 50
180.115272
 51
180.137688
  0
ARC
  5
23B
100
AcDbEntity
  8
1
  6
CONTINUOUS
 62
     2
100
AcDbCircle
 10
415.074432
 20
303.797891
 30
0.0
 40
256.874477
100
AcDbArc
 50
180.137688
 51
180.175048
  0
ARC
  5
23C
100
AcDbEntity
  8
1
  6
CONTINUOUS
 62
     2
100
AcDbCircle
 10
341.682605
 20
303.573667
 30
0.0
 40
183.482309
100
AcDbArc
 50
180.175048
 51
180.227351
  0
ARC
  5
23D
100
AcDbEntity
  8
1
  6
CONTINUOUS
 62
     2
100
AcDbCircle
 10
300.910047
 20
303.41188
 30
0.0
 40
142.709429
100
AcDbArc
 50
180.227351
 51
180.294597
  0
ARC
  5
23E
100
AcDbEntity
  8
1
  6
CONTINUOUS
 62
     2
100
AcDbCircle
 10
284.357501
 20
303.328454
 30
0.0
 40
126.156674
100
AcDbArc
 50
180.295362
 51
180.457726
  0
ARC
  5
23F
100
AcDbEntity
  8
1
  6
CONTINUOUS
 62
     2
100
AcDbCircle
 10
280.025449
 20
303.293845
 30
0.0
 40
121.824483
100
AcDbArc
 50
180.457725
 51
180.625864
  0
ARC
  5
240
100
AcDbEntity
  8
1
  6
CONTINUOUS
 62
     2
100
AcDbCircle
 10
275.978342
 20
303.249635
 30
0.0
 40
117.777135
100
AcDbArc
 50
180.625864
 51
180.79978
  0
ARC
  5
241
100
AcDbEntity
  8
1
  6
CONTINUOUS
 62
     2
100
AcDbCircle
 10
272.189183
 20
303.196739
 30
0.0
 40
113.987606
100
AcDbArc
 50
180.79978
 51
180.979478
  0
ARC
  5
242
100
AcDbEntity
  8
1
  6
CONTINUOUS
 62
     2
100
AcDbCircle
 10
269.701149
 20
303.155064
 30
0.0
 40
111.499223
100
AcDbArc
 50
180.979921
 51
181.280557
  0
ARC
  5
243
100
AcDbEntity
  8
1
  6
CONTINUOUS
 62
     2
100
AcDbCircle
 10
313.527243
 20
304.12062
 30
0.0
 40
155.335951
100
AcDbArc
 50
181.275351
 51
181.359281
  0
ARC
  5
244
100
AcDbEntity
  8
1
  6
CONTINUOUS
 62
     2
100
AcDbCircle
 10
375.645121
 20
305.594577
 30
0.0
 40
217.471314
100
AcDbArc
 50
181.359281
 51
181.419231
  0
ARC
  5
245
100
AcDbEntity
  8
1
  6
CONTINUOUS
 62
     2
100
AcDbCircle
 10
520.583564
 20
309.185474
 30
0.0
 40
362.454233
100
AcDbArc
 50
181.419231
 51
181.455201
  0
ARC
  5
246
100
AcDbEntity
  8
1
  6
CONTINUOUS
 62
     2
100
AcDbCircle
 10
1245.262159
 20
327.594856
 30
0.0
 40
1087.366622
100
AcDbArc
 50
181.455201
 51
181.467191
  0
ARC
  5
247
100
AcDbEntity
  8
1
  6
CONTINUOUS
 62
     2
100
AcDbCircle
 10
846.563153
 20
321.6669
 30
0.0
 40
688.659862
100
AcDbArc
 50
181.823491
 51
181.849434
  0
ARC
  5
248
100
AcDbEntity
  8
1
  6
CONTINUOUS
 62
     2
100
AcDbCircle
 10
387.825494
 20
306.854316
 30
0.0
 40
229.683117
100
AcDbArc
 50
181.849439
 51
181.927236
  0
ARC
  5
249
100
AcDbEntity
  8
1
  6
CONTINUOUS
 62
     2
100
AcDbCircle
 10
201.493702
 20
298.937356
 30
0.0
 40
43.16246
100
AcDbArc
 50
183.893665
 51
184.3154
  0
ARC
  5
24A
100
AcDbEntity
  8
1
  6
CONTINUOUS
 62
     2
100
AcDbCircle
 10
188.859457
 20
297.984314
 30
0.0
 40
30.49232
100
AcDbArc
 50
184.316049
 51
184.915267
  0
ARC
  5
24B
100
AcDbEntity
  8
1
  6
CONTINUOUS
 62
     2
100
AcDbCircle
 10
182.395246
 20
297.428809
 30
0.0
 40
24.004284
100
AcDbArc
 50
184.916239
 51
185.683194
  0
ARC
  5
24C
100
AcDbEntity
  8
1
  6
CONTINUOUS
 62
     2
100
AcDbCircle
 10
178.587554
 20
297.050184
 30
0.0
 40
20.177814
100
AcDbArc
 50
185.684057
 51
187.331585
  0
ARC
  5
24D
100
AcDbEntity
  8
1
  6
CONTINUOUS
 62
     2
100
AcDbCircle
 10
187.814756
 20
298.223373
 30
0.0
 40
29.479292
100
AcDbArc
 50
187.30457
 51
187.800359
  0
ARC
  5
24E
100
AcDbEntity
  8
1
  6
CONTINUOUS
 62
     2
100
AcDbCircle
 10
201.464029
 20
300.09259
 30
0.0
 40
43.255961
100
AcDbArc
 50
187.799587
 51
188.133143
  0
ARC
  5
24F
100
AcDbEntity
  8
1
  6
CONTINUOUS
 62
     2
100
AcDbCircle
 10
238.32357
 20
305.360528
 30
0.0
 40
80.490044
100
AcDbArc
 50
188.13335
 51
188.308028
  0
ARC
  5
250
100
AcDbEntity
  8
1
  6
CONTINUOUS
 62
     2
100
AcDbCircle
 10
2224.058169
 20
595.382409
 30
0.0
 40
2087.292124
100
AcDbArc
 50
188.309396
 51
188.315869
  0
ARC
  5
251
100
AcDbEntity
  8
1
  6
CONTINUOUS
 62
     2
100
AcDbCircle
 10
171.798788
 20
295.378986
 30
0.0
 40
13.221133
100
AcDbArc
 50
188.184453
 51
188.819726
  0
ARC
  5
252
100
AcDbEntity
  8
1
  6
CONTINUOUS
 62
     2
100
AcDbCircle
 10
162.98566
 20
294.012673
 30
0.0
 40
4.302724
100
AcDbArc
 50
188.834699
 51
190.795721
  0
ARC
  5
253
100
AcDbEntity
  8
1
  6
CONTINUOUS
 62
     2
100
AcDbCircle
 10
161.686988
 20
293.767006
 30
0.0
 40
2.981022
100
AcDbArc
 50
190.832868
 51
193.795708
  0
ARC
  5
254
100
AcDbEntity
  8
1
  6
CONTINUOUS
 62
     2
100
AcDbCircle
 10
161.484615
 20
293.719433
 30
0.0
 40
2.773144
100
AcDbArc
 50
193.838218
 51
197.301213
  0
ARC
  5
255
100
AcDbEntity
  8
1
  6
CONTINUOUS
 62
     2
100
AcDbCircle
 10
161.787405
 20
293.815544
 30
0.0
 40
3.090817
100
AcDbArc
 50
197.33299
 51
200.817899
  0
ARC
  5
256
100
AcDbEntity
  8
1
  6
CONTINUOUS
 62
     2
100
AcDbCircle
 10
160.317446
 20
293.248522
 30
0.0
 40
1.515325
100
AcDbArc
 50
200.53123
 51
203.011673
  0
ARC
  5
257
100
AcDbEntity
  8
1
  6
CONTINUOUS
 62
     2
100
AcDbCircle
 10
159.489376
 20
292.895514
 30
0.0
 40
0.615152
100
AcDbArc
 50
202.898989
 51
208.789983
  0
ARC
  5
258
100
AcDbEntity
  8
1
  6
CONTINUOUS
 62
     2
100
AcDbCircle
 10
159.192887
 20
292.730867
 30
0.0
 40
0.276022
100
AcDbArc
 50
208.477376
 51
220.210155
  0
ARC
  5
259
100
AcDbEntity
  8
1
  6
CONTINUOUS
 62
     2
100
AcDbCircle
 10
159.075029
 20
292.629788
 30
0.0
 40
0.120765
100
AcDbArc
 50
219.68647
 51
242.486635
  0
ARC
  5
25A
100
AcDbEntity
  8
1
  6
CONTINUOUS
 62
     2
100
AcDbCircle
 10
159.052396
 20
292.589012
 30
0.0
 40
0.074156
100
AcDbArc
 50
243.441945
 51
278.021971
  0
ARC
  5
25B
100
AcDbEntity
  8
1
  6
CONTINUOUS
 62
     2
100
AcDbCircle
 10
159.049737
 20
292.608057
 30
0.0
 40
0.093386
100
AcDbArc
 50
278.007063
 51
286.41036
  0
ARC
  5
25C
100
AcDbEntity
  8
1
  6
CONTINUOUS
 62
     2
100
AcDbCircle
 10
159.042283
 20
292.633769
 30
0.0
 40
0.120156
100
AcDbArc
 50
286.356297
 51
293.248626
  0
ARC
  5
25D
100
AcDbEntity
  8
1
  6
CONTINUOUS
 62
     2
100
AcDbCircle
 10
256.937318
 20
302.361258
 30
0.0
 40
98.717776
100
AcDbArc
 50
182.056825
 51
182.238007
  0
ARC
  5
25E
100
AcDbEntity
  8
1
  6
CONTINUOUS
 62
     2
100
AcDbCircle
 10
296.161027
 20
303.769894
 30
0.0
 40
137.966771
100
AcDbArc
 50
181.927246
 51
182.05681
  0
ARC
  5
25F
100
AcDbEntity
  8
1
  6
CONTINUOUS
 62
     2
100
AcDbCircle
 10
231.101231
 20
301.343509
 30
0.0
 40
72.861653
100
AcDbArc
 50
182.47734
 51
182.772587
  0
ARC
  5
260
100
AcDbEntity
  8
1
  6
CONTINUOUS
 62
     2
100
AcDbCircle
 10
238.988957
 20
301.725391
 30
0.0
 40
80.758619
100
AcDbArc
 50
182.772509
 51
183.038911
  0
ARC
  5
261
100
AcDbEntity
  8
1
  6
CONTINUOUS
 62
     2
100
AcDbCircle
 10
248.370338
 20
302.223338
 30
0.0
 40
90.153205
100
AcDbArc
 50
183.038848
 51
183.277249
  0
ARC
  5
262
100
AcDbEntity
  8
1
  6
CONTINUOUS
 62
     2
100
AcDbCircle
 10
259.812012
 20
302.878417
 30
0.0
 40
101.613616
100
AcDbArc
 50
183.277201
 51
183.488269
  0
ARC
  5
263
100
AcDbEntity
  8
1
  6
CONTINUOUS
 62
     2
100
AcDbCircle
 10
274.215294
 20
303.756331
 30
0.0
 40
116.04363
100
AcDbArc
 50
183.488235
 51
183.67246
  0
ARC
  5
264
100
AcDbEntity
  8
1
  6
CONTINUOUS
 62
     2
100
AcDbCircle
 10
234.57757
 20
301.188702
 30
0.0
 40
76.322841
100
AcDbArc
 50
183.654852
 51
183.893357
  0
ARC
  5
265
100
AcDbEntity
  8
1
  6
CONTINUOUS
 62
     2
100
AcDbCircle
 10
235.195885
 20
301.51162
 30
0.0
 40
76.959747
100
AcDbArc
 50
182.238028
 51
182.470614
  0
LINE
  5
266
100
AcDbEntity
  8
1
  6
EXLTYPE3
 62
     6
100
AcDbLine
 10
136.446945
 20
303.515582
 30
0.0
 11
157.953055
 21
303.515582
 31
0.0
  0
ARC
  5
267
100
AcDbEntity
  8
1
  6
CONTINUOUS
 62
     2
100
AcDbCircle
 10
101.814195
 20
291.822918
 30
0.0
 40
33.816774
100
AcDbArc
 50
9.331287
 51
9.464128
  0
ARC
  5
268
100
AcDbEntity
  8
1
  6
CONTINUOUS
 62
     2
100
AcDbCircle
 10
138.672909
 20
297.869551
 30
0.0
 40
3.534631
100
AcDbArc
 50
189.173215
 51
189.992819
  0
ARC
  5
269
100
AcDbEntity
  8
1
  6
CONTINUOUS
 62
     2
100
AcDbCircle
 10
136.289402
 20
297.449859
 30
0.0
 40
1.114457
100
AcDbArc
 50
190.006864
 51
192.616173
  0
ARC
  5
26A
100
AcDbEntity
  8
1
  6
CONTINUOUS
 62
     2
100
AcDbCircle
 10
135.921509
 20
297.368027
 30
0.0
 40
0.737572
100
AcDbArc
 50
192.654854
 51
196.733479
  0
ARC
  5
26B
100
AcDbEntity
  8
1
  6
CONTINUOUS
 62
     2
100
AcDbCircle
 10
135.832035
 20
297.341743
 30
0.0
 40
0.64432
100
AcDbArc
 50
196.786009
 51
201.770709
  0
ARC
  5
26C
100
AcDbEntity
  8
1
  6
CONTINUOUS
 62
     2
100
AcDbCircle
 10
135.858089
 20
297.352764
 30
0.0
 40
0.672604
100
AcDbArc
 50
201.819395
 51
207.072651
  0
ARC
  5
26D
100
AcDbEntity
  8
1
  6
CONTINUOUS
 62
     2
100
AcDbCircle
 10
135.752345
 20
297.296818
 30
0.0
 40
0.552987
100
AcDbArc
 50
206.897603
 51
209.866487
  0
ARC
  5
26E
100
AcDbEntity
  8
1
  6
CONTINUOUS
 62
     2
100
AcDbCircle
 10
135.553689
 20
297.182197
 30
0.0
 40
0.323635
100
AcDbArc
 50
209.783068
 51
214.742291
  0
ARC
  5
26F
100
AcDbEntity
  8
1
  6
CONTINUOUS
 62
     2
100
AcDbCircle
 10
135.427736
 20
297.094108
 30
0.0
 40
0.169937
100
AcDbArc
 50
214.537848
 51
223.120535
  0
ARC
  5
270
100
AcDbEntity
  8
1
  6
CONTINUOUS
 62
     2
100
AcDbCircle
 10
135.360108
 20
297.029895
 30
0.0
 40
0.076685
100
AcDbArc
 50
222.639384
 51
238.734458
  0
ARC
  5
271
100
AcDbEntity
  8
1
  6
CONTINUOUS
 62
     2
100
AcDbCircle
 10
135.338145
 20
296.993222
 30
0.0
 40
0.03394
100
AcDbArc
 50
238.295332
 51
268.497023
  0
ARC
  5
272
100
AcDbEntity
  8
1
  6
CONTINUOUS
 62
     2
100
AcDbCircle
 10
135.336355
 20
296.993242
 30
0.0
 40
0.033961
100
AcDbArc
 50
271.518997
 51
301.708085
  0
ARC
  5
273
100
AcDbEntity
  8
1
  6
CONTINUOUS
 62
     2
100
AcDbCircle
 10
135.314372
 20
297.029947
 30
0.0
 40
0.076743
100
AcDbArc
 50
301.267042
 51
317.354273
  0
ARC
  5
274
100
AcDbEntity
  8
1
  6
CONTINUOUS
 62
     2
100
AcDbCircle
 10
135.246802
 20
297.094119
 30
0.0
 40
0.169925
100
AcDbArc
 50
316.873445
 51
325.457799
  0
ARC
  5
275
100
AcDbEntity
  8
1
  6
CONTINUOUS
 62
     2
100
AcDbCircle
 10
135.121324
 20
297.181892
 30
0.0
 40
0.323053
100
AcDbArc
 50
325.253477
 51
330.221242
  0
ARC
  5
276
100
AcDbEntity
  8
1
  6
CONTINUOUS
 62
     2
100
AcDbCircle
 10
134.838601
 20
297.342124
 30
0.0
 40
0.648023
100
AcDbArc
 50
330.339974
 51
343.271879
  0
ARC
  5
277
100
AcDbEntity
  8
1
  6
CONTINUOUS
 62
     2
100
AcDbCircle
 10
134.744906
 20
297.369422
 30
0.0
 40
0.745611
100
AcDbArc
 50
343.335293
 51
347.367505
  0
ARC
  5
278
100
AcDbEntity
  8
1
  6
CONTINUOUS
 62
     2
100
AcDbCircle
 10
134.338426
 20
297.45972
 30
0.0
 40
1.161999
100
AcDbArc
 50
347.406118
 51
349.909627
  0
ARC
  5
279
100
AcDbEntity
  8
1
  6
CONTINUOUS
 62
     2
100
AcDbCircle
 10
131.174345
 20
298.021798
 30
0.0
 40
4.375617
100
AcDbArc
 50
349.922295
 51
350.585595
  0
ARC
  5
27A
100
AcDbEntity
  8
1
  6
CONTINUOUS
 62
     2
100
AcDbCircle
 10
151.61105
 20
294.580323
 30
0.0
 40
16.348846
100
AcDbArc
 50
170.126811
 51
170.402625
  0
ARC
  5
27B
100
AcDbEntity
  8
1
  6
CONTINUOUS
 62
     2
100
AcDbCircle
 10
284.7766
 20
271.40342
 30
0.0
 40
151.516271
100
AcDbArc
 50
170.096182
 51
170.126811
  0
ARC
  5
27C
100
AcDbEntity
  8
1
  6
CONTINUOUS
 62
     2
100
AcDbCircle
 10
112.319553
 20
301.513464
 30
0.0
 40
23.549568
100
AcDbArc
 50
350.097073
 51
350.297889
  0
ARC
  5
27D
100
AcDbEntity
  8
1
  6
CONTINUOUS
 62
     2
100
AcDbCircle
 10
124.538192
 20
299.424465
 30
0.0
 40
11.153639
100
AcDbArc
 50
350.297714
 51
350.725756
  0
ARC
  5
27E
100
AcDbEntity
  8
1
  6
CONTINUOUS
 62
     2
100
AcDbCircle
 10
129.146232
 20
298.676435
 30
0.0
 40
6.485283
100
AcDbArc
 50
350.687057
 51
352.493542
  0
ARC
  5
27F
100
AcDbEntity
  8
1
  6
CONTINUOUS
 62
     2
100
AcDbCircle
 10
127.985776
 20
298.829086
 30
0.0
 40
7.655736
100
AcDbArc
 50
352.495466
 51
353.393923
  0
ARC
  5
280
100
AcDbEntity
  8
1
  6
CONTINUOUS
 62
     2
100
AcDbCircle
 10
126.032696
 20
299.055116
 30
0.0
 40
9.621851
100
AcDbArc
 50
353.394862
 51
354.105953
  0
ARC
  5
281
100
AcDbEntity
  8
1
  6
CONTINUOUS
 62
     2
100
AcDbCircle
 10
122.399784
 20
299.430018
 30
0.0
 40
13.274057
100
AcDbArc
 50
354.106558
 51
354.621031
  0
ARC
  5
282
100
AcDbEntity
  8
1
  6
CONTINUOUS
 62
     2
100
AcDbCircle
 10
113.837178
 20
300.23615
 30
0.0
 40
21.874526
100
AcDbArc
 50
354.621296
 51
354.933943
  0
ARC
  5
283
100
AcDbEntity
  8
1
  6
CONTINUOUS
 62
     2
100
AcDbCircle
 10
101.247558
 20
301.359968
 30
0.0
 40
34.514204
100
AcDbArc
 50
354.921143
 51
355.363562
  0
ARC
  5
284
100
AcDbEntity
  8
1
  6
CONTINUOUS
 62
     2
100
AcDbCircle
 10
102.622361
 20
301.248467
 30
0.0
 40
33.134887
100
AcDbArc
 50
355.363573
 51
355.555735
  0
ARC
  5
285
100
AcDbEntity
  8
1
  6
CONTINUOUS
 62
     2
100
AcDbCircle
 10
103.875412
 20
301.151073
 30
0.0
 40
31.878056
100
AcDbArc
 50
355.55574
 51
355.755425
  0
ARC
  5
286
100
AcDbEntity
  8
1
  6
CONTINUOUS
 62
     2
100
AcDbCircle
 10
105.024141
 20
301.065814
 30
0.0
 40
30.726167
100
AcDbArc
 50
355.755431
 51
355.962573
  0
ARC
  5
287
100
AcDbEntity
  8
1
  6
CONTINUOUS
 62
     2
100
AcDbCircle
 10
106.079591
 20
300.991314
 30
0.0
 40
29.668091
100
AcDbArc
 50
355.962579
 51
356.177105
  0
ARC
  5
288
100
AcDbEntity
  8
1
  6
CONTINUOUS
 62
     2
100
AcDbCircle
 10
105.225595
 20
301.04678
 30
0.0
 40
30.523886
100
AcDbArc
 50
356.1801
 51
356.48874
  0
ARC
  5
289
100
AcDbEntity
  8
1
  6
CONTINUOUS
 62
     2
100
AcDbCircle
 10
102.11608
 20
301.237581
 30
0.0
 40
33.639249
100
AcDbArc
 50
356.488736
 51
356.768828
  0
ARC
  5
28A
100
AcDbEntity
  8
1
  6
CONTINUOUS
 62
     2
100
AcDbCircle
 10
98.308095
 20
301.452561
 30
0.0
 40
37.453298
100
AcDbArc
 50
356.768825
 51
357.020418
  0
ARC
  5
28B
100
AcDbEntity
  8
1
  6
CONTINUOUS
 62
     2
100
AcDbCircle
 10
93.536215
 20
301.700942
 30
0.0
 40
42.231637
100
AcDbArc
 50
357.020414
 51
357.243552
  0
ARC
  5
28C
100
AcDbEntity
  8
1
  6
CONTINUOUS
 62
     2
100
AcDbCircle
 10
87.380255
 20
301.997331
 30
0.0
 40
48.394728
100
AcDbArc
 50
357.243549
 51
357.438269
  0
ARC
  5
28D
100
AcDbEntity
  8
1
  6
CONTINUOUS
 62
     2
100
AcDbCircle
 10
82.85194
 20
302.201695
 30
0.0
 40
52.927652
100
AcDbArc
 50
357.436361
 51
357.633176
  0
ARC
  5
28E
100
AcDbEntity
  8
1
  6
CONTINUOUS
 62
     2
100
AcDbCircle
 10
80.266721
 20
302.306321
 30
0.0
 40
55.514986
100
AcDbArc
 50
357.635473
 51
358.010735
  0
ARC
  5
28F
100
AcDbEntity
  8
1
  6
CONTINUOUS
 62
     2
100
AcDbCircle
 10
78.002588
 20
302.385424
 30
0.0
 40
57.780501
100
AcDbArc
 50
358.010276
 51
358.190546
  0
ARC
  5
290
100
AcDbEntity
  8
1
  6
CONTINUOUS
 62
     2
100
AcDbCircle
 10
74.89639
 20
302.481088
 30
0.0
 40
60.888171
100
AcDbArc
 50
358.192864
 51
358.546175
  0
ARC
  5
291
100
AcDbEntity
  8
1
  6
CONTINUOUS
 62
     2
100
AcDbCircle
 10
72.337334
 20
302.546537
 30
0.0
 40
63.448063
100
AcDbArc
 50
358.545723
 51
358.720615
  0
ARC
  5
292
100
AcDbEntity
  8
1
  6
CONTINUOUS
 62
     2
100
AcDbCircle
 10
70.262084
 20
302.592884
 30
0.0
 40
65.523831
100
AcDbArc
 50
358.720615
 51
358.889967
  0
ARC
  5
293
100
AcDbEntity
  8
1
  6
CONTINUOUS
 62
     2
100
AcDbCircle
 10
68.048169
 20
302.635782
 30
0.0
 40
67.738162
100
AcDbArc
 50
358.889967
 51
359.053784
  0
ARC
  5
294
100
AcDbEntity
  8
1
  6
CONTINUOUS
 62
     2
100
AcDbCircle
 10
63.413553
 20
302.705438
 30
0.0
 40
72.373296
100
AcDbArc
 50
359.059237
 51
359.844954
  0
ARC
  5
295
100
AcDbEntity
  8
1
  6
CONTINUOUS
 62
     2
100
AcDbCircle
 10
63.057175
 20
302.710851
 30
0.0
 40
72.729688
100
AcDbArc
 50
359.841449
 51
0.628068
  0
ARC
  5
296
100
AcDbEntity
  8
1
  6
CONTINUOUS
 62
     2
100
AcDbCircle
 10
65.053806
 20
302.733959
 30
0.0
 40
70.732924
100
AcDbArc
 50
0.627079
 51
0.945716
  0
ARC
  5
297
100
AcDbEntity
  8
1
  6
CONTINUOUS
 62
     2
100
AcDbCircle
 10
68.068421
 20
302.783312
 30
0.0
 40
67.717904
100
AcDbArc
 50
0.946063
 51
1.109923
  0
ARC
  5
298
100
AcDbEntity
  8
1
  6
CONTINUOUS
 62
     2
100
AcDbCircle
 10
70.301467
 20
302.826575
 30
0.0
 40
65.484439
100
AcDbArc
 50
1.109923
 51
1.279374
  0
ARC
  5
299
100
AcDbEntity
  8
1
  6
CONTINUOUS
 62
     2
100
AcDbCircle
 10
72.387734
 20
302.873167
 30
0.0
 40
63.397652
100
AcDbArc
 50
1.279375
 51
1.454409
  0
ARC
  5
29A
100
AcDbEntity
  8
1
  6
CONTINUOUS
 62
     2
100
AcDbCircle
 10
74.340727
 20
302.922752
 30
0.0
 40
61.44403
100
AcDbArc
 50
1.45441
 51
1.635019
  0
ARC
  5
29B
100
AcDbEntity
  8
1
  6
CONTINUOUS
 62
     2
100
AcDbCircle
 10
76.190658
 20
302.975536
 30
0.0
 40
59.593346
100
AcDbArc
 50
1.635039
 51
1.80985
  0
ARC
  5
29C
100
AcDbEntity
  8
1
  6
CONTINUOUS
 62
     2
100
AcDbCircle
 10
79.089518
 20
303.069364
 30
0.0
 40
56.692968
100
AcDbArc
 50
1.807599
 51
2.175099
  0
ARC
  5
29D
100
AcDbEntity
  8
1
  6
CONTINUOUS
 62
     2
100
AcDbCircle
 10
82.265313
 20
303.191706
 30
0.0
 40
53.514818
100
AcDbArc
 50
2.173255
 51
2.562483
  0
ARC
  5
29E
100
AcDbEntity
  8
1
  6
CONTINUOUS
 62
     2
100
AcDbCircle
 10
87.381321
 20
303.421925
 30
0.0
 40
48.393633
100
AcDbArc
 50
2.560994
 51
2.755615
  0
ARC
  5
29F
100
AcDbEntity
  8
1
  6
CONTINUOUS
 62
     2
100
AcDbCircle
 10
93.613274
 20
303.721871
 30
0.0
 40
42.154466
100
AcDbArc
 50
2.755626
 51
2.979051
  0
ARC
  5
2A0
100
AcDbEntity
  8
1
  6
CONTINUOUS
 62
     2
100
AcDbCircle
 10
98.389559
 20
303.970425
 30
0.0
 40
37.371718
100
AcDbArc
 50
2.979066
 51
3.231139
  0
ARC
  5
2A1
100
AcDbEntity
  8
1
  6
CONTINUOUS
 62
     2
100
AcDbCircle
 10
102.158783
 20
304.183202
 30
0.0
 40
33.596493
100
AcDbArc
 50
3.231157
 51
3.511682
  0
ARC
  5
2A2
100
AcDbEntity
  8
1
  6
CONTINUOUS
 62
     2
100
AcDbCircle
 10
105.847084
 20
304.411274
 30
0.0
 40
29.901148
100
AcDbArc
 50
3.508369
 51
4.096656
  0
ARC
  5
2A3
100
AcDbEntity
  8
1
  6
CONTINUOUS
 62
     2
100
AcDbCircle
 10
104.492383
 20
304.314279
 30
0.0
 40
31.259316
100
AcDbArc
 50
4.0966
 51
4.357623
  0
ARC
  5
2A4
100
AcDbEntity
  8
1
  6
CONTINUOUS
 62
     2
100
AcDbCircle
 10
103.117642
 20
304.209549
 30
0.0
 40
32.638041
100
AcDbArc
 50
4.357574
 51
4.607371
  0
ARC
  5
2A5
100
AcDbEntity
  8
1
  6
CONTINUOUS
 62
     2
100
AcDbCircle
 10
101.722159
 20
304.097117
 30
0.0
 40
34.038046
100
AcDbArc
 50
4.607326
 51
4.846467
  0
ARC
  5
2A6
100
AcDbEntity
  8
1
  6
CONTINUOUS
 62
     2
100
AcDbCircle
 10
100.30623
 20
303.977088
 30
0.0
 40
35.459054
100
AcDbArc
 50
4.846425
 51
5.075429
  0
ARC
  5
2A7
100
AcDbEntity
  8
1
  6
CONTINUOUS
 62
     2
100
AcDbCircle
 10
112.540013
 20
305.070866
 30
0.0
 40
23.176475
100
AcDbArc
 50
5.057626
 51
5.342056
  0
ARC
  5
2A8
100
AcDbEntity
  8
1
  6
CONTINUOUS
 62
     2
100
AcDbCircle
 10
122.138761
 20
305.968359
 30
0.0
 40
13.535861
100
AcDbArc
 50
5.342319
 51
5.829351
  0
ARC
  5
2A9
100
AcDbEntity
  8
1
  6
CONTINUOUS
 62
     2
100
AcDbCircle
 10
126.00103
 20
306.362581
 30
0.0
 40
9.653525
100
AcDbArc
 50
5.829895
 51
6.514707
  0
ARC
  5
2AA
100
AcDbEntity
  8
1
  6
CONTINUOUS
 62
     2
100
AcDbCircle
 10
128.03837
 20
306.595127
 30
0.0
 40
7.602956
100
AcDbArc
 50
6.515529
 51
7.389941
  0
ARC
  5
2AB
100
AcDbEntity
  8
1
  6
CONTINUOUS
 62
     2
100
AcDbCircle
 10
129.260729
 20
306.753543
 30
0.0
 40
6.370374
100
AcDbArc
 50
7.391031
 51
8.443577
  0
ARC
  5
2AC
100
AcDbEntity
  8
1
  6
CONTINUOUS
 62
     2
100
AcDbCircle
 10
128.595817
 20
306.650466
 30
0.0
 40
7.043217
100
AcDbArc
 50
8.478779
 51
9.191324
  0
ARC
  5
2AD
100
AcDbEntity
  8
1
  6
CONTINUOUS
 62
     2
100
AcDbCircle
 10
124.882345
 20
306.049841
 30
0.0
 40
10.804948
100
AcDbArc
 50
9.190017
 51
9.654268
  0
ARC
  5
2AE
100
AcDbEntity
  8
1
  6
CONTINUOUS
 62
     2
100
AcDbCircle
 10
113.777035
 20
304.160784
 30
0.0
 40
22.06978
100
AcDbArc
 50
9.654049
 51
9.879152
  0
ARC
  5
2AF
100
AcDbEntity
  8
1
  6
CONTINUOUS
 62
     2
100
AcDbCircle
 10
488.632002
 20
369.434234
 30
0.0
 40
358.425778
100
AcDbArc
 50
189.864189
 51
189.877786
  0
ARC
  5
2B0
100
AcDbEntity
  8
1
  6
CONTINUOUS
 62
     2
100
AcDbCircle
 10
152.13455
 20
310.922726
 30
0.0
 40
16.879102
100
AcDbArc
 50
189.583797
 51
189.864189
  0
ARC
  5
2B1
100
AcDbEntity
  8
1
  6
CONTINUOUS
 62
     2
100
AcDbCircle
 10
131.230578
 20
307.407066
 30
0.0
 40
4.31846
100
AcDbArc
 50
9.401923
 51
10.073518
  0
ARC
  5
2B2
100
AcDbEntity
  8
1
  6
CONTINUOUS
 62
     2
100
AcDbCircle
 10
134.34089
 20
307.959349
 30
0.0
 40
1.159496
100
AcDbArc
 50
10.086417
 51
12.594969
  0
ARC
  5
2B3
100
AcDbEntity
  8
1
  6
CONTINUOUS
 62
     2
100
AcDbCircle
 10
134.744897
 20
308.049104
 30
0.0
 40
0.745639
100
AcDbArc
 50
12.633526
 51
16.666437
  0
ARC
  5
2B4
100
AcDbEntity
  8
1
  6
CONTINUOUS
 62
     2
100
AcDbCircle
 10
134.843069
 20
308.077867
 30
0.0
 40
0.643343
100
AcDbArc
 50
16.719955
 51
21.708714
  0
ARC
  5
2B5
100
AcDbEntity
  8
1
  6
CONTINUOUS
 62
     2
100
AcDbCircle
 10
134.820908
 20
308.068413
 30
0.0
 40
0.667429
100
AcDbArc
 50
21.759006
 51
27.049927
  0
ARC
  5
2B6
100
AcDbEntity
  8
1
  6
CONTINUOUS
 62
     2
100
AcDbCircle
 10
134.92484
 20
308.123348
 30
0.0
 40
0.549886
100
AcDbArc
 50
26.876898
 51
29.86179
  0
ARC
  5
2B7
100
AcDbEntity
  8
1
  6
CONTINUOUS
 62
     2
100
AcDbCircle
 10
135.121346
 20
308.236713
 30
0.0
 40
0.323025
100
AcDbArc
 50
29.778214
 51
34.746531
  0
ARC
  5
2B8
100
AcDbEntity
  8
1
  6
CONTINUOUS
 62
     2
100
AcDbCircle
 10
135.246821
 20
308.324485
 30
0.0
 40
0.1699
100
AcDbArc
 50
34.542182
 51
43.127538
  0
ARC
  5
2B9
100
AcDbEntity
  8
1
  6
CONTINUOUS
 62
     2
100
AcDbCircle
 10
135.314381
 20
308.38865
 30
0.0
 40
0.076731
100
AcDbArc
 50
42.646699
 51
58.735628
  0
ARC
  5
2BA
100
AcDbEntity
  8
1
  6
CONTINUOUS
 62
     2
100
AcDbCircle
 10
135.336357
 20
308.425347
 30
0.0
 40
0.033958
100
AcDbArc
 50
58.294927
 51
88.484962
  0
ARC
  5
2BB
100
AcDbEntity
  8
1
  6
CONTINUOUS
 62
     2
100
AcDbCircle
 10
135.338147
 20
308.425362
 30
0.0
 40
0.033943
100
AcDbArc
 50
91.506638
 51
121.706038
  0
ARC
  5
2BC
100
AcDbEntity
  8
1
  6
CONTINUOUS
 62
     2
100
AcDbCircle
 10
135.360113
 20
308.388686
 30
0.0
 40
0.076692
100
AcDbArc
 50
121.266781
 51
137.360493
  0
ARC
  5
2BD
100
AcDbEntity
  8
1
  6
CONTINUOUS
 62
     2
100
AcDbCircle
 10
135.427743
 20
308.324471
 30
0.0
 40
0.169947
100
AcDbArc
 50
136.879396
 51
145.461561
  0
ARC
  5
2BE
100
AcDbEntity
  8
1
  6
CONTINUOUS
 62
     2
100
AcDbCircle
 10
135.553693
 20
308.236382
 30
0.0
 40
0.323642
100
AcDbArc
 50
145.257141
 51
150.216221
  0
ARC
  5
2BF
100
AcDbEntity
  8
1
  6
CONTINUOUS
 62
     2
100
AcDbCircle
 10
135.752326
 20
308.121771
 30
0.0
 40
0.552968
100
AcDbArc
 50
150.132807
 51
153.101763
  0
ARC
  5
2C0
100
AcDbEntity
  8
1
  6
CONTINUOUS
 62
     2
100
AcDbCircle
 10
135.837381
 20
308.075106
 30
0.0
 40
0.64994
100
AcDbArc
 50
152.825205
 51
163.203381
  0
ARC
  5
2C1
100
AcDbEntity
  8
1
  6
CONTINUOUS
 62
     2
100
AcDbCircle
 10
135.921483
 20
308.050568
 30
0.0
 40
0.737546
100
AcDbArc
 50
163.266539
 51
167.345321
  0
ARC
  5
2C2
100
AcDbEntity
  8
1
  6
CONTINUOUS
 62
     2
100
AcDbCircle
 10
136.289388
 20
307.968734
 30
0.0
 40
1.114441
100
AcDbArc
 50
167.384001
 51
169.993359
  0
ARC
  5
2C3
100
AcDbEntity
  8
1
  6
CONTINUOUS
 62
     2
100
AcDbCircle
 10
138.673085
 20
307.549019
 30
0.0
 40
3.534807
100
AcDbArc
 50
170.007404
 51
170.826971
  0
ARC
  5
2C4
100
AcDbEntity
  8
1
  6
CONTINUOUS
 62
     2
100
AcDbCircle
 10
101.711773
 20
313.612543
 30
0.0
 40
33.920577
100
AcDbArc
 50
350.536202
 51
350.668638
  0
ARC
  5
2C5
100
AcDbEntity
  8
1
  6
CONTINUOUS
 62
     2
100
AcDbCircle
 10
88.315835
 20
315.845554
 30
0.0
 40
47.501354
100
AcDbArc
 50
350.438914
 51
350.536202
  0
ARC
  5
2C6
100
AcDbEntity
  8
1
  6
CONTINUOUS
 62
     2
100
AcDbCircle
 10
65.461592
 20
319.695096
 30
0.0
 40
70.677536
100
AcDbArc
 50
350.372158
 51
350.438914
  0
ARC
  5
2C7
100
AcDbEntity
  8
1
  6
CONTINUOUS
 62
     2
100
AcDbCircle
 10
143.686617
 20
298.316669
 30
0.0
 40
8.692906
100
AcDbArc
 50
186.495137
 51
187.333159
  0
ARC
  5
2C8
100
AcDbEntity
  8
1
  6
CONTINUOUS
 62
     2
100
AcDbCircle
 10
141.938581
 20
298.091833
 30
0.0
 40
6.930469
100
AcDbArc
 50
187.33415
 51
188.393989
  0
ARC
  5
2C9
100
AcDbEntity
  8
1
  6
CONTINUOUS
 62
     2
100
AcDbCircle
 10
142.501761
 20
298.180228
 30
0.0
 40
7.500522
100
AcDbArc
 50
188.433986
 51
189.190632
  0
ARC
  5
2CA
100
AcDbEntity
  8
1
  6
CONTINUOUS
 62
     2
100
AcDbCircle
 10
146.380113
 20
298.807461
 30
0.0
 40
11.429267
100
AcDbArc
 50
189.189282
 51
189.685459
  0
ARC
  5
2CB
100
AcDbEntity
  8
1
  6
CONTINUOUS
 62
     2
100
AcDbCircle
 10
157.69229
 20
300.738039
 30
0.0
 40
22.905002
100
AcDbArc
 50
189.685229
 51
189.930402
  0
ARC
  5
2CC
100
AcDbEntity
  8
1
  6
CONTINUOUS
 62
     2
100
AcDbCircle
 10
-880.253028
 20
119.045769
 30
0.0
 40
1030.822934
100
AcDbArc
 50
9.923647
 51
9.928991
  0
ARC
  5
2CD
100
AcDbEntity
  8
1
  6
CONTINUOUS
 62
     2
100
AcDbCircle
 10
116.642943
 20
293.45597
 30
0.0
 40
18.785142
100
AcDbArc
 50
9.638813
 51
9.923647
  0
ARC
  5
2CE
100
AcDbEntity
  8
1
  6
CONTINUOUS
 62
     2
100
AcDbCircle
 10
140.024167
 20
297.410924
 30
0.0
 40
4.928236
100
AcDbArc
 50
189.455677
 51
190.121242
  0
ARC
  5
2CF
100
AcDbEntity
  8
1
  6
CONTINUOUS
 62
     2
100
AcDbCircle
 10
136.46545
 20
296.775957
 30
0.0
 40
1.313315
100
AcDbArc
 50
190.134062
 51
192.638938
  0
ARC
  5
2D0
100
AcDbEntity
  8
1
  6
CONTINUOUS
 62
     2
100
AcDbCircle
 10
136.006586
 20
296.673641
 30
0.0
 40
0.843183
100
AcDbArc
 50
192.677341
 51
196.710422
  0
ARC
  5
2D1
100
AcDbEntity
  8
1
  6
CONTINUOUS
 62
     2
100
AcDbCircle
 10
135.894672
 20
296.64075
 30
0.0
 40
0.726538
100
AcDbArc
 50
196.763855
 51
201.758244
  0
ARC
  5
2D2
100
AcDbEntity
  8
1
  6
CONTINUOUS
 62
     2
100
AcDbCircle
 10
135.918778
 20
296.651084
 30
0.0
 40
0.752758
100
AcDbArc
 50
201.808622
 51
207.110816
  0
ARC
  5
2D3
100
AcDbEntity
  8
1
  6
CONTINUOUS
 62
     2
100
AcDbCircle
 10
135.801649
 20
296.589018
 30
0.0
 40
0.620217
100
AcDbArc
 50
206.938117
 51
209.932095
  0
ARC
  5
2D4
100
AcDbEntity
  8
1
  6
CONTINUOUS
 62
     2
100
AcDbCircle
 10
134.774763
 20
296.64246
 30
0.0
 40
0.731899
100
AcDbArc
 50
330.274165
 51
343.22235
  0
ARC
  5
2D5
100
AcDbEntity
  8
1
  6
CONTINUOUS
 62
     2
100
AcDbCircle
 10
134.668651
 20
296.673493
 30
0.0
 40
0.842453
100
AcDbArc
 50
343.284791
 51
347.321298
  0
ARC
  5
2D6
100
AcDbEntity
  8
1
  6
CONTINUOUS
 62
     2
100
AcDbCircle
 10
134.212454
 20
296.775223
 30
0.0
 40
1.309855
100
AcDbArc
 50
347.359724
 51
349.871257
  0
ARC
  5
2D7
100
AcDbEntity
  8
1
  6
CONTINUOUS
 62
     2
100
AcDbCircle
 10
130.718339
 20
297.39832
 30
0.0
 40
4.859092
100
AcDbArc
 50
349.884113
 51
350.559202
  0
ARC
  5
2D8
100
AcDbEntity
  8
1
  6
CONTINUOUS
 62
     2
100
AcDbCircle
 10
155.008732
 20
293.294943
 30
0.0
 40
19.775474
100
AcDbArc
 50
170.104651
 51
170.375264
  0
ARC
  5
2D9
100
AcDbEntity
  8
1
  6
CONTINUOUS
 62
     2
100
AcDbCircle
 10
519.635794
 20
229.687836
 30
0.0
 40
389.908908
100
AcDbArc
 50
170.09052
 51
170.104651
  0
ARC
  5
2DA
100
AcDbEntity
  8
1
  6
CONTINUOUS
 62
     2
100
AcDbCircle
 10
111.299354
 20
301.023181
 30
0.0
 40
24.611755
100
AcDbArc
 50
350.091423
 51
350.319617
  0
ARC
  5
2DB
100
AcDbEntity
  8
1
  6
CONTINUOUS
 62
     2
100
AcDbCircle
 10
123.579259
 20
298.928514
 30
0.0
 40
12.15448
100
AcDbArc
 50
350.319389
 51
350.785926
  0
ARC
  5
2DC
100
AcDbEntity
  8
1
  6
CONTINUOUS
 62
     2
100
AcDbCircle
 10
128.468329
 20
298.140345
 30
0.0
 40
7.202291
100
AcDbArc
 50
350.747288
 51
352.587367
  0
ARC
  5
2DD
100
AcDbEntity
  8
1
  6
CONTINUOUS
 62
     2
100
AcDbCircle
 10
127.099671
 20
298.318188
 30
0.0
 40
8.582455
100
AcDbArc
 50
352.588837
 51
353.464512
  0
ARC
  5
2DE
100
AcDbEntity
  8
1
  6
CONTINUOUS
 62
     2
100
AcDbCircle
 10
124.802846
 20
298.581162
 30
0.0
 40
10.894285
100
AcDbArc
 50
353.465331
 51
354.151335
  0
ARC
  5
2DF
100
AcDbEntity
  8
1
  6
CONTINUOUS
 62
     2
100
AcDbCircle
 10
120.453455
 20
299.026545
 30
0.0
 40
15.266421
100
AcDbArc
 50
354.151877
 51
354.640058
  0
ARC
  5
2E0
100
AcDbEntity
  8
1
  6
CONTINUOUS
 62
     2
100
AcDbCircle
 10
109.668693
 20
300.038278
 30
0.0
 40
26.098535
100
AcDbArc
 50
354.64032
 51
354.925869
  0
ARC
  5
2E1
100
AcDbEntity
  8
1
  6
CONTINUOUS
 62
     2
100
AcDbCircle
 10
95.960781
 20
301.267867
 30
0.0
 40
39.86148
100
AcDbArc
 50
354.908075
 51
355.138366
  0
ARC
  5
2E2
100
AcDbEntity
  8
1
  6
CONTINUOUS
 62
     2
100
AcDbCircle
 10
97.522889
 20
301.135029
 30
0.0
 40
38.293734
100
AcDbArc
 50
355.138324
 51
355.378619
  0
ARC
  5
2E3
100
AcDbEntity
  8
1
  6
CONTINUOUS
 62
     2
100
AcDbCircle
 10
99.066429
 20
301.010288
 30
0.0
 40
36.745161
100
AcDbArc
 50
355.378574
 51
355.629396
  0
ARC
  5
2E4
100
AcDbEntity
  8
1
  6
CONTINUOUS
 62
     2
100
AcDbCircle
 10
100.590533
 20
300.893831
 30
0.0
 40
35.216615
100
AcDbArc
 50
355.629346
 51
355.891262
  0
ARC
  5
2E5
100
AcDbEntity
  8
1
  6
CONTINUOUS
 62
     2
100
AcDbCircle
 10
102.094156
 20
300.785851
 30
0.0
 40
33.70912
100
AcDbArc
 50
355.891208
 51
356.164835
  0
ARC
  5
2E6
100
AcDbEntity
  8
1
  6
CONTINUOUS
 62
     2
100
AcDbCircle
 10
101.358903
 20
300.833127
 30
0.0
 40
34.445888
100
AcDbArc
 50
356.168176
 51
356.477685
  0
ARC
  5
2E7
100
AcDbEntity
  8
1
  6
CONTINUOUS
 62
     2
100
AcDbCircle
 10
97.929755
 20
301.044189
 30
0.0
 40
37.881525
100
AcDbArc
 50
356.477707
 51
356.758953
  0
ARC
  5
2E8
100
AcDbEntity
  8
1
  6
CONTINUOUS
 62
     2
100
AcDbCircle
 10
93.683472
 20
301.284631
 30
0.0
 40
42.13461
100
AcDbArc
 50
356.758971
 51
357.011715
  0
ARC
  5
2E9
100
AcDbEntity
  8
1
  6
CONTINUOUS
 62
     2
100
AcDbCircle
 10
88.304023
 20
301.565441
 30
0.0
 40
47.521383
100
AcDbArc
 50
357.01173
 51
357.235775
  0
ARC
  5
2EA
100
AcDbEntity
  8
1
  6
CONTINUOUS
 62
     2
100
AcDbCircle
 10
81.28726
 20
301.904215
 30
0.0
 40
54.54632
100
AcDbArc
 50
357.235787
 51
357.430978
  0
ARC
  5
2EB
100
AcDbEntity
  8
1
  6
CONTINUOUS
 62
     2
100
AcDbCircle
 10
76.09672
 20
302.139144
 30
0.0
 40
59.742173
100
AcDbArc
 50
357.429024
 51
357.626073
  0
ARC
  5
2EC
100
AcDbEntity
  8
1
  6
CONTINUOUS
 62
     2
100
AcDbCircle
 10
73.211458
 20
302.25629
 30
0.0
 40
62.629811
100
AcDbArc
 50
357.628328
 51
358.004349
  0
ARC
  5
2ED
100
AcDbEntity
  8
1
  6
CONTINUOUS
 62
     2
100
AcDbCircle
 10
69.425492
 20
302.386165
 30
0.0
 40
66.418004
100
AcDbArc
 50
358.006113
 51
358.360731
  0
ARC
  5
2EE
100
AcDbEntity
  8
1
  6
CONTINUOUS
 62
     2
100
AcDbCircle
 10
66.641452
 20
302.466325
 30
0.0
 40
69.203198
100
AcDbArc
 50
358.360329
 51
358.541606
  0
ARC
  5
2EF
100
AcDbEntity
  8
1
  6
CONTINUOUS
 62
     2
100
AcDbCircle
 10
64.354684
 20
302.524544
 30
0.0
 40
71.490707
100
AcDbArc
 50
358.541607
 51
358.717074
  0
ARC
  5
2F0
100
AcDbEntity
  8
1
  6
CONTINUOUS
 62
     2
100
AcDbCircle
 10
55.332297
 20
302.69966
 30
0.0
 40
80.514757
100
AcDbArc
 50
358.73624
 51
359.846197
  0
ARC
  5
2F1
100
AcDbEntity
  8
1
  6
CONTINUOUS
 62
     2
100
AcDbCircle
 10
53.435517
 20
302.702758
 30
0.0
 40
82.411538
100
AcDbArc
 50
359.847583
 51
0.318478
  0
ARC
  5
2F2
100
AcDbEntity
  8
1
  6
CONTINUOUS
 62
     2
100
AcDbCircle
 10
50.372316
 20
302.682948
 30
0.0
 40
85.474803
100
AcDbArc
 50
0.320343
 51
0.774286
  0
ARC
  5
2F3
100
AcDbEntity
  8
1
  6
CONTINUOUS
 62
     2
100
AcDbCircle
 10
54.754307
 20
302.747394
 30
0.0
 40
81.092341
100
AcDbArc
 50
0.770595
 51
1.070338
  0
ARC
  5
2F4
100
AcDbEntity
  8
1
  6
CONTINUOUS
 62
     2
100
AcDbCircle
 10
63.992533
 20
302.919962
 30
0.0
 40
71.852504
100
AcDbArc
 50
1.070363
 51
1.408622
  0
ARC
  5
2F5
100
AcDbEntity
  8
1
  6
CONTINUOUS
 62
     2
100
AcDbCircle
 10
71.262139
 20
303.098686
 30
0.0
 40
64.5807
100
AcDbArc
 50
1.408654
 51
1.785094
  0
ARC
  5
2F6
100
AcDbEntity
  8
1
  6
CONTINUOUS
 62
     2
100
AcDbCircle
 10
77.111894
 20
303.280958
 30
0.0
 40
58.728107
100
AcDbArc
 50
1.785133
 51
2.199332
  0
ARC
  5
2F7
100
AcDbEntity
  8
1
  6
CONTINUOUS
 62
     2
100
AcDbCircle
 10
81.902748
 20
303.464904
 30
0.0
 40
53.933723
100
AcDbArc
 50
2.199379
 51
2.650827
  0
ARC
  5
2F8
100
AcDbEntity
  8
1
  6
CONTINUOUS
 62
     2
100
AcDbCircle
 10
86.256839
 20
303.666423
 30
0.0
 40
49.57497
100
AcDbArc
 50
2.650908
 51
3.052375
  0
ARC
  5
2F9
100
AcDbEntity
  8
1
  6
CONTINUOUS
 62
     2
100
AcDbCircle
 10
90.379208
 20
303.886337
 30
0.0
 40
45.44674
100
AcDbArc
 50
3.052261
 51
3.490196
  0
ARC
  5
2FA
100
AcDbEntity
  8
1
  6
CONTINUOUS
 62
     2
100
AcDbCircle
 10
94.041873
 20
304.109823
 30
0.0
 40
41.777263
100
AcDbArc
 50
3.490063
 51
3.965954
  0
ARC
  5
2FB
100
AcDbEntity
  8
1
  6
CONTINUOUS
 62
     2
100
AcDbCircle
 10
97.331147
 20
304.337971
 30
0.0
 40
38.480086
100
AcDbArc
 50
3.9658
 51
4.481371
  0
ARC
  5
2FC
100
AcDbEntity
  8
1
  6
CONTINUOUS
 62
     2
100
AcDbCircle
 10
100.310998
 20
304.571623
 30
0.0
 40
35.491089
100
AcDbArc
 50
4.481197
 51
5.038418
  0
ARC
  5
2FD
100
AcDbEntity
  8
1
  6
CONTINUOUS
 62
     2
100
AcDbCircle
 10
112.189812
 20
305.62407
 30
0.0
 40
23.565745
100
AcDbArc
 50
5.025925
 51
5.341852
  0
ARC
  5
2FE
100
AcDbEntity
  8
1
  6
CONTINUOUS
 62
     2
100
AcDbCircle
 10
121.080518
 20
306.455312
 30
0.0
 40
14.636265
100
AcDbArc
 50
5.342141
 51
5.851226
  0
ARC
  5
2FF
100
AcDbEntity
  8
1
  6
CONTINUOUS
 62
     2
100
AcDbCircle
 10
124.976481
 20
306.85447
 30
0.0
 40
10.719907
100
AcDbArc
 50
5.851755
 51
6.549108
  0
ARC
  5
300
100
AcDbEntity
  8
1
  6
CONTINUOUS
 62
     2
100
AcDbCircle
 10
127.116942
 20
307.100088
 30
0.0
 40
8.5654
100
AcDbArc
 50
6.549876
 51
7.427732
  0
ARC
  5
301
100
AcDbEntity
  8
1
  6
CONTINUOUS
 62
     2
100
AcDbCircle
 10
128.433944
 20
307.271658
 30
0.0
 40
7.23727
100
AcDbArc
 50
7.428731
 51
8.476501
  0
ARC
  5
302
100
AcDbEntity
  8
1
  6
CONTINUOUS
 62
     2
100
AcDbCircle
 10
127.664671
 20
307.152156
 30
0.0
 40
8.015756
100
AcDbArc
 50
8.510829
 51
9.218743
  0
ARC
  5
303
100
AcDbEntity
  8
1
  6
CONTINUOUS
 62
     2
100
AcDbCircle
 10
123.473298
 20
306.472171
 30
0.0
 40
12.261929
100
AcDbArc
 50
9.217468
 51
9.679939
  0
ARC
  5
304
100
AcDbEntity
  8
1
  6
CONTINUOUS
 62
     2
100
AcDbCircle
 10
111.057975
 20
304.354548
 30
0.0
 40
24.856554
100
AcDbArc
 50
9.679727
 51
9.905658
  0
ARC
  5
305
100
AcDbEntity
  8
1
  6
CONTINUOUS
 62
     2
100
AcDbCircle
 10
667.420564
 20
401.499208
 30
0.0
 40
539.923417
100
AcDbArc
 50
189.894119
 51
189.904323
  0
ARC
  5
306
100
AcDbEntity
  8
1
  6
CONTINUOUS
 62
     2
100
AcDbCircle
 10
154.775859
 20
312.082605
 30
0.0
 40
19.539018
100
AcDbArc
 50
189.620259
 51
189.894119
  0
ARC
  5
307
100
AcDbEntity
  8
1
  6
CONTINUOUS
 62
     2
100
AcDbCircle
 10
130.727883
 20
308.022027
 30
0.0
 40
4.849389
100
AcDbArc
 50
9.438771
 51
10.115177
  0
ARC
  5
308
100
AcDbEntity
  8
1
  6
CONTINUOUS
 62
     2
100
AcDbCircle
 10
140.024197
 20
308.007659
 30
0.0
 40
4.928265
100
AcDbArc
 50
169.87878
 51
170.544343
  0
ARC
  5
309
100
AcDbEntity
  8
1
  6
CONTINUOUS
 62
     2
100
AcDbCircle
 10
116.332004
 20
312.016216
 30
0.0
 40
19.100665
100
AcDbArc
 50
350.078718
 51
350.358847
  0
ARC
  5
30A
100
AcDbEntity
  8
1
  6
CONTINUOUS
 62
     2
100
AcDbCircle
 10
-403.847474
 20
403.001183
 30
0.0
 40
547.17732
100
AcDbArc
 50
350.06865
 51
350.078718
  0
ARC
  5
30B
100
AcDbEntity
  8
1
  6
CONTINUOUS
 62
     2
100
AcDbCircle
 10
157.692703
 20
304.680475
 30
0.0
 40
22.90542
100
AcDbArc
 50
170.069598
 51
170.314766
  0
ARC
  5
30C
100
AcDbEntity
  8
1
  6
CONTINUOUS
 62
     2
100
AcDbCircle
 10
146.380148
 20
306.611119
 30
0.0
 40
11.429303
100
AcDbArc
 50
170.314536
 51
170.810711
  0
ARC
  5
30D
100
AcDbEntity
  8
1
  6
CONTINUOUS
 62
     2
100
AcDbCircle
 10
141.899403
 20
307.33198
 30
0.0
 40
6.890945
100
AcDbArc
 50
170.777865
 51
172.667363
  0
ARC
  5
30E
100
AcDbEntity
  8
1
  6
CONTINUOUS
 62
     2
100
AcDbCircle
 10
143.686594
 20
307.10192
 30
0.0
 40
8.692883
100
AcDbArc
 50
172.666839
 51
173.504863
  0
ARC
  5
30F
100
AcDbEntity
  8
1
  6
CONTINUOUS
 62
     2
100
AcDbCircle
 10
146.92415
 20
306.73348
 30
0.0
 40
11.951336
100
AcDbArc
 50
173.505597
 51
174.111464
  0
ARC
  5
310
100
AcDbEntity
  8
1
  6
CONTINUOUS
 62
     2
100
AcDbCircle
 10
154.615654
 20
305.940363
 30
0.0
 40
19.683623
100
AcDbArc
 50
174.111948
 51
174.478359
  0
ARC
  5
311
100
AcDbEntity
  8
1
  6
CONTINUOUS
 62
     2
100
AcDbCircle
 10
13.981377
 20
328.428056
 30
0.0
 40
122.893214
100
AcDbArc
 50
350.225173
 51
350.372158
  0
ARC
  5
312
100
AcDbEntity
  8
1
  6
CONTINUOUS
 62
     2
100
AcDbCircle
 10
-234.05946
 20
370.678362
 30
0.0
 40
374.506698
100
AcDbArc
 50
350.297786
 51
350.33324
  0
ARC
  5
313
100
AcDbEntity
  8
1
  6
CONTINUOUS
 62
     2
100
AcDbCircle
 10
193.45585
 20
302.185918
 30
0.0
 40
58.704857
100
AcDbArc
 50
174.478599
 51
174.758597
  0
ARC
  5
314
100
AcDbEntity
  8
1
  6
CONTINUOUS
 62
     2
100
AcDbCircle
 10
154.615702
 20
299.478229
 30
0.0
 40
19.683672
100
AcDbArc
 50
185.887305
 51
185.888053
  0
ARC
  5
315
100
AcDbEntity
  8
1
  6
CONTINUOUS
 62
     2
100
AcDbCircle
 10
146.92418
 20
298.68511
 30
0.0
 40
11.951366
100
AcDbArc
 50
186.117843
 51
186.494403
  0
ARC
  5
316
100
AcDbEntity
  8
1
  6
CONTINUOUS
 62
     2
100
AcDbCircle
 10
88.035649
 20
289.526048
 30
0.0
 40
47.785451
100
AcDbArc
 50
9.464128
 51
9.525053
  0
ARC
  5
317
100
AcDbEntity
  8
1
  6
CONTINUOUS
 62
     2
100
AcDbCircle
 10
134.668703
 20
308.745099
 30
0.0
 40
0.842402
100
AcDbArc
 50
12.678874
 51
16.715684
  0
ARC
  5
318
100
AcDbEntity
  8
1
  6
CONTINUOUS
 62
     2
100
AcDbCircle
 10
134.779869
 20
308.777777
 30
0.0
 40
0.726536
100
AcDbArc
 50
16.76908
 51
21.7635
  0
ARC
  5
319
100
AcDbEntity
  8
1
  6
CONTINUOUS
 62
     2
100
AcDbCircle
 10
134.755377
 20
308.767287
 30
0.0
 40
0.753171
100
AcDbArc
 50
21.813787
 51
27.113099
  0
ARC
  5
31A
100
AcDbEntity
  8
1
  6
CONTINUOUS
 62
     2
100
AcDbCircle
 10
134.872618
 20
308.82942
 30
0.0
 40
0.6205
100
AcDbArc
 50
26.940192
 51
29.93281
  0
ARC
  5
31B
100
AcDbEntity
  8
1
  6
CONTINUOUS
 62
     2
100
AcDbCircle
 10
135.093984
 20
308.957493
 30
0.0
 40
0.364756
100
AcDbArc
 50
29.849248
 51
34.827386
  0
ARC
  5
31C
100
AcDbEntity
  8
1
  6
CONTINUOUS
 62
     2
100
AcDbCircle
 10
135.235357
 20
309.056683
 30
0.0
 40
0.192059
100
AcDbArc
 50
34.623464
 51
43.218804
  0
ARC
  5
31D
100
AcDbEntity
  8
1
  6
CONTINUOUS
 62
     2
100
AcDbCircle
 10
135.31148
 20
309.12921
 30
0.0
 40
0.086923
100
AcDbArc
 50
42.740733
 51
58.824599
  0
ARC
  5
31E
100
AcDbEntity
  8
1
  6
CONTINUOUS
 62
     2
100
AcDbCircle
 10
135.336244
 20
309.170704
 30
0.0
 40
0.038602
100
AcDbArc
 50
58.391086
 51
88.500041
  0
ARC
  5
31F
100
AcDbEntity
  8
1
  6
CONTINUOUS
 62
     2
100
AcDbCircle
 10
135.899621
 20
308.77623
 30
0.0
 40
0.73174
100
AcDbArc
 50
150.276257
 51
163.227441
  0
ARC
  5
320
100
AcDbEntity
  8
1
  6
CONTINUOUS
 62
     2
100
AcDbCircle
 10
135.439143
 20
309.056689
 30
0.0
 40
0.192049
100
AcDbArc
 50
136.78047
 51
145.376327
  0
ARC
  5
321
100
AcDbEntity
  8
1
  6
CONTINUOUS
 62
     2
100
AcDbCircle
 10
135.580472
 20
308.957529
 30
0.0
 40
0.364692
100
AcDbArc
 50
145.172403
 51
150.151422
  0
ARC
  5
322
100
AcDbEntity
  8
1
  6
CONTINUOUS
 62
     2
100
AcDbCircle
 10
135.338265
 20
309.170704
 30
0.0
 40
0.038603
100
AcDbArc
 50
91.499391
 51
121.608108
  0
ARC
  5
323
100
AcDbEntity
  8
1
  6
CONTINUOUS
 62
     2
100
AcDbCircle
 10
135.363028
 20
309.129209
 30
0.0
 40
0.086923
100
AcDbArc
 50
121.174554
 51
137.258531
  0
ARC
  5
324
100
AcDbEntity
  8
1
  6
CONTINUOUS
 62
     2
100
AcDbCircle
 10
136.006583
 20
308.744947
 30
0.0
 40
0.84318
100
AcDbArc
 50
163.28958
 51
167.322676
  0
ARC
  5
325
100
AcDbEntity
  8
1
  6
CONTINUOUS
 62
     2
100
AcDbCircle
 10
136.465448
 20
308.64263
 30
0.0
 40
1.313312
100
AcDbArc
 50
167.36108
 51
169.865961
  0
ARC
  5
326
100
AcDbEntity
  8
1
  6
CONTINUOUS
 62
     2
100
AcDbCircle
 10
134.212909
 20
308.643458
 30
0.0
 40
1.309391
100
AcDbArc
 50
10.128054
 51
12.640451
  0
ARC
  5
327
100
AcDbEntity
  8
1
  6
CONTINUOUS
 62
     2
100
AcDbCircle
 10
157.934552
 20
308.64263
 30
0.0
 40
1.313312
100
AcDbArc
 50
10.134039
 51
12.63892
  0
ARC
  5
328
100
AcDbEntity
  8
1
  6
CONTINUOUS
 62
     2
100
AcDbCircle
 10
158.393417
 20
308.744947
 30
0.0
 40
0.84318
100
AcDbArc
 50
12.677324
 51
16.71042
  0
ARC
  5
329
100
AcDbEntity
  8
1
  6
CONTINUOUS
 62
     2
100
AcDbCircle
 10
158.500379
 20
308.77623
 30
0.0
 40
0.73174
100
AcDbArc
 50
16.772559
 51
29.723743
  0
ARC
  5
32A
100
AcDbEntity
  8
1
  6
CONTINUOUS
 62
     2
100
AcDbCircle
 10
158.819528
 20
308.957529
 30
0.0
 40
0.364692
100
AcDbArc
 50
29.848578
 51
34.827597
  0
ARC
  5
32B
100
AcDbEntity
  8
1
  6
CONTINUOUS
 62
     2
100
AcDbCircle
 10
158.960857
 20
309.056689
 30
0.0
 40
0.192049
100
AcDbArc
 50
34.623673
 51
43.21953
  0
ARC
  5
32C
100
AcDbEntity
  8
1
  6
CONTINUOUS
 62
     2
100
AcDbCircle
 10
159.036972
 20
309.129209
 30
0.0
 40
0.086923
100
AcDbArc
 50
42.741469
 51
58.825446
  0
ARC
  5
32D
100
AcDbEntity
  8
1
  6
CONTINUOUS
 62
     2
100
AcDbCircle
 10
159.061735
 20
309.170704
 30
0.0
 40
0.038603
100
AcDbArc
 50
58.391892
 51
88.500609
  0
ARC
  5
32E
100
AcDbEntity
  8
1
  6
CONTINUOUS
 62
     2
100
AcDbCircle
 10
159.063756
 20
309.170704
 30
0.0
 40
0.038602
100
AcDbArc
 50
91.499959
 51
121.608914
  0
ARC
  5
32F
100
AcDbEntity
  8
1
  6
CONTINUOUS
 62
     2
100
AcDbCircle
 10
159.08852
 20
309.12921
 30
0.0
 40
0.086923
100
AcDbArc
 50
121.175401
 51
137.259267
  0
ARC
  5
330
100
AcDbEntity
  8
1
  6
CONTINUOUS
 62
     2
100
AcDbCircle
 10
159.164643
 20
309.056683
 30
0.0
 40
0.192059
100
AcDbArc
 50
136.781196
 51
145.376536
  0
ARC
  5
331
100
AcDbEntity
  8
1
  6
CONTINUOUS
 62
     2
100
AcDbCircle
 10
159.306016
 20
308.957493
 30
0.0
 40
0.364756
100
AcDbArc
 50
145.172614
 51
150.150752
  0
ARC
  5
332
100
AcDbEntity
  8
1
  6
CONTINUOUS
 62
     2
100
AcDbCircle
 10
159.527382
 20
308.82942
 30
0.0
 40
0.6205
100
AcDbArc
 50
150.06719
 51
153.059808
  0
ARC
  5
333
100
AcDbEntity
  8
1
  6
CONTINUOUS
 62
     2
100
AcDbCircle
 10
159.644623
 20
308.767287
 30
0.0
 40
0.753171
100
AcDbArc
 50
152.886901
 51
158.186213
  0
ARC
  5
334
100
AcDbEntity
  8
1
  6
CONTINUOUS
 62
     2
100
AcDbCircle
 10
159.620131
 20
308.777777
 30
0.0
 40
0.726536
100
AcDbArc
 50
158.2365
 51
163.23092
  0
ARC
  5
335
100
AcDbEntity
  8
1
  6
CONTINUOUS
 62
     2
100
AcDbCircle
 10
159.731297
 20
308.745099
 30
0.0
 40
0.842402
100
AcDbArc
 50
163.284316
 51
167.321126
  0
ARC
  5
336
100
AcDbEntity
  8
1
  6
CONTINUOUS
 62
     2
100
AcDbCircle
 10
160.187091
 20
308.643458
 30
0.0
 40
1.309391
100
AcDbArc
 50
167.359549
 51
169.871946
  0
ARC
  5
337
100
AcDbEntity
  8
1
  6
CONTINUOUS
 62
     2
100
AcDbCircle
 10
163.672117
 20
308.022027
 30
0.0
 40
4.849389
100
AcDbArc
 50
169.884823
 51
170.561229
  0
ARC
  5
338
100
AcDbEntity
  8
1
  6
CONTINUOUS
 62
     2
100
AcDbCircle
 10
139.624141
 20
312.082605
 30
0.0
 40
19.539018
100
AcDbArc
 50
350.105881
 51
350.379741
  0
ARC
  5
339
100
AcDbEntity
  8
1
  6
CONTINUOUS
 62
     2
100
AcDbCircle
 10
-373.020564
 20
401.499208
 30
0.0
 40
539.923417
100
AcDbArc
 50
350.095677
 51
350.105881
  0
ARC
  5
33A
100
AcDbEntity
  8
1
  6
CONTINUOUS
 62
     2
100
AcDbCircle
 10
183.342025
 20
304.354548
 30
0.0
 40
24.856554
100
AcDbArc
 50
170.094342
 51
170.320273
  0
ARC
  5
33B
100
AcDbEntity
  8
1
  6
CONTINUOUS
 62
     2
100
AcDbCircle
 10
170.926702
 20
306.472171
 30
0.0
 40
12.261929
100
AcDbArc
 50
170.320061
 51
170.782532
  0
ARC
  5
33C
100
AcDbEntity
  8
1
  6
CONTINUOUS
 62
     2
100
AcDbCircle
 10
166.735329
 20
307.152156
 30
0.0
 40
8.015756
100
AcDbArc
 50
170.781257
 51
171.489171
  0
ARC
  5
33D
100
AcDbEntity
  8
1
  6
CONTINUOUS
 62
     2
100
AcDbCircle
 10
165.966056
 20
307.271658
 30
0.0
 40
7.23727
100
AcDbArc
 50
171.523499
 51
172.571269
  0
ARC
  5
33E
100
AcDbEntity
  8
1
  6
CONTINUOUS
 62
     2
100
AcDbCircle
 10
167.283058
 20
307.100088
 30
0.0
 40
8.5654
100
AcDbArc
 50
172.572268
 51
173.450124
  0
ARC
  5
33F
100
AcDbEntity
  8
1
  6
CONTINUOUS
 62
     2
100
AcDbCircle
 10
169.423519
 20
306.85447
 30
0.0
 40
10.719907
100
AcDbArc
 50
173.450892
 51
174.148245
  0
ARC
  5
340
100
AcDbEntity
  8
1
  6
CONTINUOUS
 62
     2
100
AcDbCircle
 10
173.319482
 20
306.455312
 30
0.0
 40
14.636265
100
AcDbArc
 50
174.148774
 51
174.657859
  0
ARC
  5
341
100
AcDbEntity
  8
1
  6
CONTINUOUS
 62
     2
100
AcDbCircle
 10
182.210188
 20
305.62407
 30
0.0
 40
23.565745
100
AcDbArc
 50
174.658148
 51
174.974075
  0
ARC
  5
342
100
AcDbEntity
  8
1
  6
CONTINUOUS
 62
     2
100
AcDbCircle
 10
194.089002
 20
304.571623
 30
0.0
 40
35.491089
100
AcDbArc
 50
174.961582
 51
175.518803
  0
ARC
  5
343
100
AcDbEntity
  8
1
  6
CONTINUOUS
 62
     2
100
AcDbCircle
 10
197.068853
 20
304.337971
 30
0.0
 40
38.480086
100
AcDbArc
 50
175.518629
 51
176.0342
  0
ARC
  5
344
100
AcDbEntity
  8
1
  6
CONTINUOUS
 62
     2
100
AcDbCircle
 10
200.358127
 20
304.109823
 30
0.0
 40
41.777263
100
AcDbArc
 50
176.034046
 51
176.509937
  0
ARC
  5
345
100
AcDbEntity
  8
1
  6
CONTINUOUS
 62
     2
100
AcDbCircle
 10
192.688227
 20
313.612543
 30
0.0
 40
33.920577
100
AcDbArc
 50
189.331362
 51
189.463798
  0
ARC
  5
346
100
AcDbEntity
  8
1
  6
CONTINUOUS
 62
     2
100
AcDbCircle
 10
155.726915
 20
307.549019
 30
0.0
 40
3.534807
100
AcDbArc
 50
9.173029
 51
9.992596
  0
ARC
  5
347
100
AcDbEntity
  8
1
  6
CONTINUOUS
 62
     2
100
AcDbCircle
 10
158.110612
 20
307.968734
 30
0.0
 40
1.114441
100
AcDbArc
 50
10.006641
 51
12.615999
  0
ARC
  5
348
100
AcDbEntity
  8
1
  6
CONTINUOUS
 62
     2
100
AcDbCircle
 10
158.478517
 20
308.050568
 30
0.0
 40
0.737546
100
AcDbArc
 50
12.654679
 51
16.733461
  0
ARC
  5
349
100
AcDbEntity
  8
1
  6
CONTINUOUS
 62
     2
100
AcDbCircle
 10
158.562619
 20
308.075106
 30
0.0
 40
0.64994
100
AcDbArc
 50
16.796619
 51
27.174795
  0
ARC
  5
34A
100
AcDbEntity
  8
1
  6
CONTINUOUS
 62
     2
100
AcDbCircle
 10
158.647674
 20
308.121771
 30
0.0
 40
0.552968
100
AcDbArc
 50
26.898237
 51
29.867193
  0
ARC
  5
34B
100
AcDbEntity
  8
1
  6
CONTINUOUS
 62
     2
100
AcDbCircle
 10
158.846307
 20
308.236382
 30
0.0
 40
0.323642
100
AcDbArc
 50
29.783779
 51
34.742859
  0
ARC
  5
34C
100
AcDbEntity
  8
1
  6
CONTINUOUS
 62
     2
100
AcDbCircle
 10
158.972257
 20
308.324471
 30
0.0
 40
0.169947
100
AcDbArc
 50
34.538439
 51
43.120604
  0
ARC
  5
34D
100
AcDbEntity
  8
1
  6
CONTINUOUS
 62
     2
100
AcDbCircle
 10
159.039887
 20
308.388686
 30
0.0
 40
0.076692
100
AcDbArc
 50
42.639507
 51
58.733219
  0
ARC
  5
34E
100
AcDbEntity
  8
1
  6
CONTINUOUS
 62
     2
100
AcDbCircle
 10
159.061853
 20
308.425362
 30
0.0
 40
0.033943
100
AcDbArc
 50
58.293962
 51
88.493362
  0
ARC
  5
34F
100
AcDbEntity
  8
1
  6
CONTINUOUS
 62
     2
100
AcDbCircle
 10
159.063643
 20
308.425347
 30
0.0
 40
0.033958
100
AcDbArc
 50
91.515038
 51
121.705073
  0
ARC
  5
350
100
AcDbEntity
  8
1
  6
CONTINUOUS
 62
     2
100
AcDbCircle
 10
159.085619
 20
308.38865
 30
0.0
 40
0.076731
100
AcDbArc
 50
121.264372
 51
137.353301
  0
ARC
  5
351
100
AcDbEntity
  8
1
  6
CONTINUOUS
 62
     2
100
AcDbCircle
 10
159.153179
 20
308.324485
 30
0.0
 40
0.1699
100
AcDbArc
 50
136.872462
 51
145.457818
  0
ARC
  5
352
100
AcDbEntity
  8
1
  6
CONTINUOUS
 62
     2
100
AcDbCircle
 10
159.278654
 20
308.236713
 30
0.0
 40
0.323025
100
AcDbArc
 50
145.253469
 51
150.221786
  0
ARC
  5
353
100
AcDbEntity
  8
1
  6
CONTINUOUS
 62
     2
100
AcDbCircle
 10
159.47516
 20
308.123348
 30
0.0
 40
0.549886
100
AcDbArc
 50
150.13821
 51
153.123102
  0
ARC
  5
354
100
AcDbEntity
  8
1
  6
CONTINUOUS
 62
     2
100
AcDbCircle
 10
159.579092
 20
308.068413
 30
0.0
 40
0.667429
100
AcDbArc
 50
152.950073
 51
158.240994
  0
ARC
  5
355
100
AcDbEntity
  8
1
  6
CONTINUOUS
 62
     2
100
AcDbCircle
 10
159.556931
 20
308.077867
 30
0.0
 40
0.643343
100
AcDbArc
 50
158.291286
 51
163.280045
  0
ARC
  5
356
100
AcDbEntity
  8
1
  6
CONTINUOUS
 62
     2
100
AcDbCircle
 10
159.655103
 20
308.049104
 30
0.0
 40
0.745639
100
AcDbArc
 50
163.333563
 51
167.366474
  0
ARC
  5
357
100
AcDbEntity
  8
1
  6
CONTINUOUS
 62
     2
100
AcDbCircle
 10
160.05911
 20
307.959349
 30
0.0
 40
1.159496
100
AcDbArc
 50
167.405031
 51
169.913583
  0
ARC
  5
358
100
AcDbEntity
  8
1
  6
CONTINUOUS
 62
     2
100
AcDbCircle
 10
163.169422
 20
307.407066
 30
0.0
 40
4.31846
100
AcDbArc
 50
169.926482
 51
170.598077
  0
ARC
  5
359
100
AcDbEntity
  8
1
  6
CONTINUOUS
 62
     2
100
AcDbCircle
 10
142.26545
 20
310.922726
 30
0.0
 40
16.879102
100
AcDbArc
 50
350.135811
 51
350.416203
  0
ARC
  5
35A
100
AcDbEntity
  8
1
  6
CONTINUOUS
 62
     2
100
AcDbCircle
 10
-194.232002
 20
369.434234
 30
0.0
 40
358.425778
100
AcDbArc
 50
350.122214
 51
350.135811
  0
ARC
  5
35B
100
AcDbEntity
  8
1
  6
CONTINUOUS
 62
     2
100
AcDbCircle
 10
180.622965
 20
304.160784
 30
0.0
 40
22.06978
100
AcDbArc
 50
170.120848
 51
170.345951
  0
ARC
  5
35C
100
AcDbEntity
  8
1
  6
CONTINUOUS
 62
     2
100
AcDbCircle
 10
169.517655
 20
306.049841
 30
0.0
 40
10.804948
100
AcDbArc
 50
170.345732
 51
170.809983
  0
ARC
  5
35D
100
AcDbEntity
  8
1
  6
CONTINUOUS
 62
     2
100
AcDbCircle
 10
165.804183
 20
306.650466
 30
0.0
 40
7.043217
100
AcDbArc
 50
170.808676
 51
171.521221
  0
ARC
  5
35E
100
AcDbEntity
  8
1
  6
CONTINUOUS
 62
     2
100
AcDbCircle
 10
165.139271
 20
306.753543
 30
0.0
 40
6.370374
100
AcDbArc
 50
171.556423
 51
172.608969
  0
ARC
  5
35F
100
AcDbEntity
  8
1
  6
CONTINUOUS
 62
     2
100
AcDbCircle
 10
166.36163
 20
306.595127
 30
0.0
 40
7.602956
100
AcDbArc
 50
172.610059
 51
173.484471
  0
ARC
  5
360
100
AcDbEntity
  8
1
  6
CONTINUOUS
 62
     2
100
AcDbCircle
 10
168.39897
 20
306.362581
 30
0.0
 40
9.653525
100
AcDbArc
 50
173.485293
 51
174.170105
  0
ARC
  5
361
100
AcDbEntity
  8
1
  6
CONTINUOUS
 62
     2
100
AcDbCircle
 10
172.261239
 20
305.968359
 30
0.0
 40
13.535861
100
AcDbArc
 50
174.170649
 51
174.657681
  0
ARC
  5
362
100
AcDbEntity
  8
1
  6
CONTINUOUS
 62
     2
100
AcDbCircle
 10
181.859987
 20
305.070866
 30
0.0
 40
23.176475
100
AcDbArc
 50
174.657944
 51
174.942374
  0
ARC
  5
363
100
AcDbEntity
  8
1
  6
CONTINUOUS
 62
     2
100
AcDbCircle
 10
194.09377
 20
303.977088
 30
0.0
 40
35.459054
100
AcDbArc
 50
174.924571
 51
175.153575
  0
ARC
  5
364
100
AcDbEntity
  8
1
  6
CONTINUOUS
 62
     2
100
AcDbCircle
 10
192.677841
 20
304.097117
 30
0.0
 40
34.038046
100
AcDbArc
 50
175.153533
 51
175.392674
  0
ARC
  5
365
100
AcDbEntity
  8
1
  6
CONTINUOUS
 62
     2
100
AcDbCircle
 10
191.282358
 20
304.209549
 30
0.0
 40
32.638041
100
AcDbArc
 50
175.392629
 51
175.642426
  0
ARC
  5
366
100
AcDbEntity
  8
1
  6
CONTINUOUS
 62
     2
100
AcDbCircle
 10
147.47585
 20
306.73348
 30
0.0
 40
11.951336
100
AcDbArc
 50
5.888536
 51
6.494403
  0
ARC
  5
367
100
AcDbEntity
  8
1
  6
CONTINUOUS
 62
     2
100
AcDbCircle
 10
150.713406
 20
307.10192
 30
0.0
 40
8.692883
100
AcDbArc
 50
6.495137
 51
7.333161
  0
ARC
  5
368
100
AcDbEntity
  8
1
  6
CONTINUOUS
 62
     2
100
AcDbCircle
 10
152.500597
 20
307.33198
 30
0.0
 40
6.890945
100
AcDbArc
 50
7.332637
 51
9.222135
  0
ARC
  5
369
100
AcDbEntity
  8
1
  6
CONTINUOUS
 62
     2
100
AcDbCircle
 10
148.019852
 20
306.611119
 30
0.0
 40
11.429303
100
AcDbArc
 50
9.189289
 51
9.685464
  0
ARC
  5
36A
100
AcDbEntity
  8
1
  6
CONTINUOUS
 62
     2
100
AcDbCircle
 10
136.707297
 20
304.680475
 30
0.0
 40
22.90542
100
AcDbArc
 50
9.685234
 51
9.930402
  0
ARC
  5
36B
100
AcDbEntity
  8
1
  6
CONTINUOUS
 62
     2
100
AcDbCircle
 10
698.247474
 20
403.001183
 30
0.0
 40
547.17732
100
AcDbArc
 50
189.921282
 51
189.93135
  0
ARC
  5
36C
100
AcDbEntity
  8
1
  6
CONTINUOUS
 62
     2
100
AcDbCircle
 10
178.067996
 20
312.016216
 30
0.0
 40
19.100665
100
AcDbArc
 50
189.641153
 51
189.921282
  0
ARC
  5
36D
100
AcDbEntity
  8
1
  6
CONTINUOUS
 62
     2
100
AcDbCircle
 10
154.375803
 20
308.007659
 30
0.0
 40
4.928265
100
AcDbArc
 50
9.455657
 51
10.12122
  0
ARC
  5
36E
100
AcDbEntity
  8
1
  6
CONTINUOUS
 62
     2
100
AcDbCircle
 10
228.938408
 20
319.695096
 30
0.0
 40
70.677536
100
AcDbArc
 50
189.561086
 51
189.627842
  0
ARC
  5
36F
100
AcDbEntity
  8
1
  6
CONTINUOUS
 62
     2
100
AcDbCircle
 10
206.084165
 20
315.845554
 30
0.0
 40
47.501354
100
AcDbArc
 50
189.463798
 51
189.561086
  0
ARC
  5
370
100
AcDbEntity
  8
1
  6
CONTINUOUS
 62
     2
100
AcDbCircle
 10
100.94415
 20
302.185918
 30
0.0
 40
58.704857
100
AcDbArc
 50
5.241403
 51
5.521401
  0
ARC
  5
371
100
AcDbEntity
  8
1
  6
CONTINUOUS
 62
     2
100
AcDbCircle
 10
139.784346
 20
305.940363
 30
0.0
 40
19.683623
100
AcDbArc
 50
4.687589
 51
5.888052
  0
ARC
  5
372
100
AcDbEntity
  8
1
  6
CONTINUOUS
 62
     2
100
AcDbCircle
 10
528.45946
 20
370.678362
 30
0.0
 40
374.506698
100
AcDbArc
 50
189.66676
 51
189.702214
  0
ARC
  5
373
100
AcDbEntity
  8
1
  6
CONTINUOUS
 62
     2
100
AcDbCircle
 10
280.418623
 20
328.428056
 30
0.0
 40
122.893214
100
AcDbArc
 50
189.627842
 51
189.774827
  0
ARC
  5
374
100
AcDbEntity
  8
1
  6
CONTINUOUS
 62
     2
100
AcDbCircle
 10
188.552916
 20
304.411274
 30
0.0
 40
29.901148
100
AcDbArc
 50
175.903344
 51
176.491631
  0
ARC
  5
375
100
AcDbEntity
  8
1
  6
CONTINUOUS
 62
     2
100
AcDbCircle
 10
189.907617
 20
304.314279
 30
0.0
 40
31.259316
100
AcDbArc
 50
175.642377
 51
175.9034
  0
ARC
  5
376
100
AcDbEntity
  8
1
  6
CONTINUOUS
 62
     2
100
AcDbCircle
 10
204.020792
 20
303.886337
 30
0.0
 40
45.44674
100
AcDbArc
 50
176.509804
 51
176.947739
  0
ARC
  5
377
100
AcDbEntity
  8
1
  6
CONTINUOUS
 62
     2
100
AcDbCircle
 10
192.241217
 20
304.183202
 30
0.0
 40
33.596493
100
AcDbArc
 50
176.488318
 51
176.768843
  0
ARC
  5
378
100
AcDbEntity
  8
1
  6
CONTINUOUS
 62
     2
100
AcDbCircle
 10
208.143161
 20
303.666423
 30
0.0
 40
49.57497
100
AcDbArc
 50
176.947625
 51
177.349092
  0
ARC
  5
379
100
AcDbEntity
  8
1
  6
CONTINUOUS
 62
     2
100
AcDbCircle
 10
212.497252
 20
303.464904
 30
0.0
 40
53.933723
100
AcDbArc
 50
177.349173
 51
177.800621
  0
ARC
  5
37A
100
AcDbEntity
  8
1
  6
CONTINUOUS
 62
     2
100
AcDbCircle
 10
217.288106
 20
303.280958
 30
0.0
 40
58.728107
100
AcDbArc
 50
177.800668
 51
178.214867
  0
ARC
  5
37B
100
AcDbEntity
  8
1
  6
CONTINUOUS
 62
     2
100
AcDbCircle
 10
212.134687
 20
303.191706
 30
0.0
 40
53.514818
100
AcDbArc
 50
177.437517
 51
177.826745
  0
ARC
  5
37C
100
AcDbEntity
  8
1
  6
CONTINUOUS
 62
     2
100
AcDbCircle
 10
215.310482
 20
303.069364
 30
0.0
 40
56.692968
100
AcDbArc
 50
177.824901
 51
178.192401
  0
ARC
  5
37D
100
AcDbEntity
  8
1
  6
CONTINUOUS
 62
     2
100
AcDbCircle
 10
223.137861
 20
303.098686
 30
0.0
 40
64.5807
100
AcDbArc
 50
178.214906
 51
178.591346
  0
ARC
  5
37E
100
AcDbEntity
  8
1
  6
CONTINUOUS
 62
     2
100
AcDbCircle
 10
230.407467
 20
302.919962
 30
0.0
 40
71.852504
100
AcDbArc
 50
178.591378
 51
178.929637
  0
ARC
  5
37F
100
AcDbEntity
  8
1
  6
CONTINUOUS
 62
     2
100
AcDbCircle
 10
239.645693
 20
302.747394
 30
0.0
 40
81.092341
100
AcDbArc
 50
178.929662
 51
179.229405
  0
ARC
  5
380
100
AcDbEntity
  8
1
  6
CONTINUOUS
 62
     2
100
AcDbCircle
 10
244.027684
 20
302.682948
 30
0.0
 40
85.474803
100
AcDbArc
 50
179.225714
 51
179.679657
  0
ARC
  5
381
100
AcDbEntity
  8
1
  6
CONTINUOUS
 62
     2
100
AcDbCircle
 10
240.964483
 20
302.702758
 30
0.0
 40
82.411538
100
AcDbArc
 50
179.681522
 51
180.152417
  0
ARC
  5
382
100
AcDbEntity
  8
1
  6
CONTINUOUS
 62
     2
100
AcDbCircle
 10
239.067703
 20
302.69966
 30
0.0
 40
80.514757
100
AcDbArc
 50
180.153803
 51
181.26376
  0
ARC
  5
383
100
AcDbEntity
  8
1
  6
CONTINUOUS
 62
     2
100
AcDbCircle
 10
230.045316
 20
302.524544
 30
0.0
 40
71.490707
100
AcDbArc
 50
181.282926
 51
181.458393
  0
ARC
  5
384
100
AcDbEntity
  8
1
  6
CONTINUOUS
 62
     2
100
AcDbCircle
 10
227.758548
 20
302.466325
 30
0.0
 40
69.203198
100
AcDbArc
 50
181.458394
 51
181.639671
  0
ARC
  5
385
100
AcDbEntity
  8
1
  6
CONTINUOUS
 62
     2
100
AcDbCircle
 10
224.974508
 20
302.386165
 30
0.0
 40
66.418004
100
AcDbArc
 50
181.639269
 51
181.993887
  0
ARC
  5
386
100
AcDbEntity
  8
1
  6
CONTINUOUS
 62
     2
100
AcDbCircle
 10
221.188542
 20
302.25629
 30
0.0
 40
62.629811
100
AcDbArc
 50
181.995651
 51
182.371672
  0
ARC
  5
387
100
AcDbEntity
  8
1
  6
CONTINUOUS
 62
     2
100
AcDbCircle
 10
218.30328
 20
302.139144
 30
0.0
 40
59.742173
100
AcDbArc
 50
182.373927
 51
182.570976
  0
ARC
  5
388
100
AcDbEntity
  8
1
  6
CONTINUOUS
 62
     2
100
AcDbCircle
 10
213.11274
 20
301.904215
 30
0.0
 40
54.54632
100
AcDbArc
 50
182.569022
 51
182.764213
  0
ARC
  5
389
100
AcDbEntity
  8
1
  6
CONTINUOUS
 62
     2
100
AcDbCircle
 10
206.095977
 20
301.565441
 30
0.0
 40
47.521383
100
AcDbArc
 50
182.764225
 51
182.98827
  0
ARC
  5
38A
100
AcDbEntity
  8
1
  6
CONTINUOUS
 62
     2
100
AcDbCircle
 10
200.716528
 20
301.284631
 30
0.0
 40
42.13461
100
AcDbArc
 50
182.988285
 51
183.241029
  0
ARC
  5
38B
100
AcDbEntity
  8
1
  6
CONTINUOUS
 62
     2
100
AcDbCircle
 10
196.470245
 20
301.044189
 30
0.0
 40
37.881525
100
AcDbArc
 50
183.241047
 51
183.522293
  0
ARC
  5
38C
100
AcDbEntity
  8
1
  6
CONTINUOUS
 62
     2
100
AcDbCircle
 10
193.041097
 20
300.833127
 30
0.0
 40
34.445888
100
AcDbArc
 50
183.522315
 51
183.831824
  0
ARC
  5
38D
100
AcDbEntity
  8
1
  6
CONTINUOUS
 62
     2
100
AcDbCircle
 10
192.305844
 20
300.785851
 30
0.0
 40
33.70912
100
AcDbArc
 50
183.835165
 51
184.108792
  0
ARC
  5
38E
100
AcDbEntity
  8
1
  6
CONTINUOUS
 62
     2
100
AcDbCircle
 10
193.809467
 20
300.893831
 30
0.0
 40
35.216615
100
AcDbArc
 50
184.108738
 51
184.370654
  0
ARC
  5
38F
100
AcDbEntity
  8
1
  6
CONTINUOUS
 62
     2
100
AcDbCircle
 10
218.209342
 20
302.975536
 30
0.0
 40
59.593346
100
AcDbArc
 50
178.19015
 51
178.364961
  0
ARC
  5
390
100
AcDbEntity
  8
1
  6
CONTINUOUS
 62
     2
100
AcDbCircle
 10
220.059273
 20
302.922752
 30
0.0
 40
61.44403
100
AcDbArc
 50
178.364981
 51
178.54559
  0
ARC
  5
391
100
AcDbEntity
  8
1
  6
CONTINUOUS
 62
     2
100
AcDbCircle
 10
222.012266
 20
302.873167
 30
0.0
 40
63.397652
100
AcDbArc
 50
178.545591
 51
178.720625
  0
ARC
  5
392
100
AcDbEntity
  8
1
  6
CONTINUOUS
 62
     2
100
AcDbCircle
 10
224.098533
 20
302.826575
 30
0.0
 40
65.484439
100
AcDbArc
 50
178.720626
 51
178.890077
  0
ARC
  5
393
100
AcDbEntity
  8
1
  6
CONTINUOUS
 62
     2
100
AcDbCircle
 10
226.331579
 20
302.783312
 30
0.0
 40
67.717904
100
AcDbArc
 50
178.890077
 51
179.053937
  0
ARC
  5
394
100
AcDbEntity
  8
1
  6
CONTINUOUS
 62
     2
100
AcDbCircle
 10
229.346194
 20
302.733959
 30
0.0
 40
70.732924
100
AcDbArc
 50
179.054284
 51
179.372921
  0
ARC
  5
395
100
AcDbEntity
  8
1
  6
CONTINUOUS
 62
     2
100
AcDbCircle
 10
231.342825
 20
302.710851
 30
0.0
 40
72.729688
100
AcDbArc
 50
179.371932
 51
180.158551
  0
ARC
  5
396
100
AcDbEntity
  8
1
  6
CONTINUOUS
 62
     2
100
AcDbCircle
 10
230.986447
 20
302.705438
 30
0.0
 40
72.373296
100
AcDbArc
 50
180.155046
 51
180.940763
  0
ARC
  5
397
100
AcDbEntity
  8
1
  6
CONTINUOUS
 62
     2
100
AcDbCircle
 10
226.351831
 20
302.635782
 30
0.0
 40
67.738162
100
AcDbArc
 50
180.946216
 51
181.110033
  0
ARC
  5
398
100
AcDbEntity
  8
1
  6
CONTINUOUS
 62
     2
100
AcDbCircle
 10
224.137916
 20
302.592884
 30
0.0
 40
65.523831
100
AcDbArc
 50
181.110033
 51
181.279385
  0
ARC
  5
399
100
AcDbEntity
  8
1
  6
CONTINUOUS
 62
     2
100
AcDbCircle
 10
222.062666
 20
302.546537
 30
0.0
 40
63.448063
100
AcDbArc
 50
181.279385
 51
181.454277
  0
ARC
  5
39A
100
AcDbEntity
  8
1
  6
CONTINUOUS
 62
     2
100
AcDbCircle
 10
219.50361
 20
302.481088
 30
0.0
 40
60.888171
100
AcDbArc
 50
181.453825
 51
181.807136
  0
ARC
  5
39B
100
AcDbEntity
  8
1
  6
CONTINUOUS
 62
     2
100
AcDbCircle
 10
216.397412
 20
302.385424
 30
0.0
 40
57.780501
100
AcDbArc
 50
181.809454
 51
181.989724
  0
ARC
  5
39C
100
AcDbEntity
  8
1
  6
CONTINUOUS
 62
     2
100
AcDbCircle
 10
214.133279
 20
302.306321
 30
0.0
 40
55.514986
100
AcDbArc
 50
181.989265
 51
182.364527
  0
ARC
  5
39D
100
AcDbEntity
  8
1
  6
CONTINUOUS
 62
     2
100
AcDbCircle
 10
211.54806
 20
302.201695
 30
0.0
 40
52.927652
100
AcDbArc
 50
182.366824
 51
182.563639
  0
ARC
  5
39E
100
AcDbEntity
  8
1
  6
CONTINUOUS
 62
     2
100
AcDbCircle
 10
207.019745
 20
301.997331
 30
0.0
 40
48.394728
100
AcDbArc
 50
182.561731
 51
182.756451
  0
ARC
  5
39F
100
AcDbEntity
  8
1
  6
CONTINUOUS
 62
     2
100
AcDbCircle
 10
200.863785
 20
301.700942
 30
0.0
 40
42.231637
100
AcDbArc
 50
182.756448
 51
182.979586
  0
ARC
  5
3A0
100
AcDbEntity
  8
1
  6
CONTINUOUS
 62
     2
100
AcDbCircle
 10
196.091905
 20
301.452561
 30
0.0
 40
37.453298
100
AcDbArc
 50
182.979582
 51
183.231175
  0
ARC
  5
3A1
100
AcDbEntity
  8
1
  6
CONTINUOUS
 62
     2
100
AcDbCircle
 10
192.28392
 20
301.237581
 30
0.0
 40
33.639249
100
AcDbArc
 50
183.231172
 51
183.511264
  0
ARC
  5
3A2
100
AcDbEntity
  8
1
  6
CONTINUOUS
 62
     2
100
AcDbCircle
 10
189.174405
 20
301.04678
 30
0.0
 40
30.523886
100
AcDbArc
 50
183.51126
 51
183.8199
  0
ARC
  5
3A3
100
AcDbEntity
  8
1
  6
CONTINUOUS
 62
     2
100
AcDbCircle
 10
188.320409
 20
300.991314
 30
0.0
 40
29.668091
100
AcDbArc
 50
183.822895
 51
184.037421
  0
ARC
  5
3A4
100
AcDbEntity
  8
1
  6
CONTINUOUS
 62
     2
100
AcDbCircle
 10
189.375859
 20
301.065814
 30
0.0
 40
30.726167
100
AcDbArc
 50
184.037427
 51
184.244569
  0
ARC
  5
3A5
100
AcDbEntity
  8
1
  6
CONTINUOUS
 62
     2
100
AcDbCircle
 10
190.524588
 20
301.151073
 30
0.0
 40
31.878056
100
AcDbArc
 50
184.244575
 51
184.44426
  0
ARC
  5
3A6
100
AcDbEntity
  8
1
  6
CONTINUOUS
 62
     2
100
AcDbCircle
 10
191.777639
 20
301.248467
 30
0.0
 40
33.134887
100
AcDbArc
 50
184.444265
 51
184.636427
  0
ARC
  5
3A7
100
AcDbEntity
  8
1
  6
CONTINUOUS
 62
     2
100
AcDbCircle
 10
193.152442
 20
301.359968
 30
0.0
 40
34.514204
100
AcDbArc
 50
184.636438
 51
185.078857
  0
ARC
  5
3A8
100
AcDbEntity
  8
1
  6
CONTINUOUS
 62
     2
100
AcDbCircle
 10
195.333571
 20
301.010288
 30
0.0
 40
36.745161
100
AcDbArc
 50
184.370604
 51
184.621426
  0
ARC
  5
3A9
100
AcDbEntity
  8
1
  6
CONTINUOUS
 62
     2
100
AcDbCircle
 10
196.877111
 20
301.135029
 30
0.0
 40
38.293734
100
AcDbArc
 50
184.621381
 51
184.861676
  0
ARC
  5
3AA
100
AcDbEntity
  8
1
  6
CONTINUOUS
 62
     2
100
AcDbCircle
 10
198.439219
 20
301.267867
 30
0.0
 40
39.86148
100
AcDbArc
 50
184.861634
 51
185.091925
  0
ARC
  5
3AB
100
AcDbEntity
  8
1
  6
CONTINUOUS
 62
     2
100
AcDbCircle
 10
184.731307
 20
300.038278
 30
0.0
 40
26.098535
100
AcDbArc
 50
185.074131
 51
185.35968
  0
ARC
  5
3AC
100
AcDbEntity
  8
1
  6
CONTINUOUS
 62
     2
100
AcDbCircle
 10
173.946545
 20
299.026545
 30
0.0
 40
15.266421
100
AcDbArc
 50
185.359942
 51
185.848123
  0
ARC
  5
3AD
100
AcDbEntity
  8
1
  6
CONTINUOUS
 62
     2
100
AcDbCircle
 10
169.597154
 20
298.581162
 30
0.0
 40
10.894285
100
AcDbArc
 50
185.848665
 51
186.534669
  0
ARC
  5
3AE
100
AcDbEntity
  8
1
  6
CONTINUOUS
 62
     2
100
AcDbCircle
 10
167.300329
 20
298.318188
 30
0.0
 40
8.582455
100
AcDbArc
 50
186.535488
 51
187.411163
  0
ARC
  5
3AF
100
AcDbEntity
  8
1
  6
CONTINUOUS
 62
     2
100
AcDbCircle
 10
165.931671
 20
298.140345
 30
0.0
 40
7.202291
100
AcDbArc
 50
187.412633
 51
189.252712
  0
ARC
  5
3B0
100
AcDbEntity
  8
1
  6
CONTINUOUS
 62
     2
100
AcDbCircle
 10
170.820741
 20
298.928514
 30
0.0
 40
12.15448
100
AcDbArc
 50
189.214074
 51
189.680611
  0
ARC
  5
3B1
100
AcDbEntity
  8
1
  6
CONTINUOUS
 62
     2
100
AcDbCircle
 10
183.100646
 20
301.023181
 30
0.0
 40
24.611755
100
AcDbArc
 50
189.680383
 51
189.908577
  0
ARC
  5
3B2
100
AcDbEntity
  8
1
  6
CONTINUOUS
 62
     2
100
AcDbCircle
 10
-225.235794
 20
229.687836
 30
0.0
 40
389.908908
100
AcDbArc
 50
9.895349
 51
9.90948
  0
ARC
  5
3B3
100
AcDbEntity
  8
1
  6
CONTINUOUS
 62
     2
100
AcDbCircle
 10
139.391268
 20
293.294943
 30
0.0
 40
19.775474
100
AcDbArc
 50
9.624736
 51
9.895349
  0
ARC
  5
3B4
100
AcDbEntity
  8
1
  6
CONTINUOUS
 62
     2
100
AcDbCircle
 10
163.681661
 20
297.39832
 30
0.0
 40
4.859092
100
AcDbArc
 50
189.440798
 51
190.115887
  0
ARC
  5
3B5
100
AcDbEntity
  8
1
  6
CONTINUOUS
 62
     2
100
AcDbCircle
 10
160.187546
 20
296.775223
 30
0.0
 40
1.309855
100
AcDbArc
 50
190.128743
 51
192.640276
  0
ARC
  5
3B6
100
AcDbEntity
  8
1
  6
CONTINUOUS
 62
     2
100
AcDbCircle
 10
159.731349
 20
296.673493
 30
0.0
 40
0.842453
100
AcDbArc
 50
192.678702
 51
196.715209
  0
ARC
  5
3B7
100
AcDbEntity
  8
1
  6
CONTINUOUS
 62
     2
100
AcDbCircle
 10
159.625237
 20
296.64246
 30
0.0
 40
0.731899
100
AcDbArc
 50
196.77765
 51
209.725835
  0
ARC
  5
3B8
100
AcDbEntity
  8
1
  6
CONTINUOUS
 62
     2
100
AcDbCircle
 10
159.306014
 20
296.461092
 30
0.0
 40
0.364754
100
AcDbArc
 50
209.849231
 51
214.827392
  0
ARC
  5
3B9
100
AcDbEntity
  8
1
  6
CONTINUOUS
 62
     2
100
AcDbCircle
 10
159.164644
 20
296.361904
 30
0.0
 40
0.19206
100
AcDbArc
 50
214.623472
 51
223.218782
  0
ARC
  5
3BA
100
AcDbEntity
  8
1
  6
CONTINUOUS
 62
     2
100
AcDbCircle
 10
159.08852
 20
296.289377
 30
0.0
 40
0.086924
100
AcDbArc
 50
222.740713
 51
238.824472
  0
ARC
  5
3BB
100
AcDbEntity
  8
1
  6
CONTINUOUS
 62
     2
100
AcDbCircle
 10
159.063756
 20
296.247882
 30
0.0
 40
0.038602
100
AcDbArc
 50
238.390937
 51
268.499784
  0
ARC
  5
3BC
100
AcDbEntity
  8
1
  6
CONTINUOUS
 62
     2
100
AcDbCircle
 10
159.061735
 20
296.247883
 30
0.0
 40
0.038602
100
AcDbArc
 50
271.499144
 51
301.607998
  0
ARC
  5
3BD
100
AcDbEntity
  8
1
  6
CONTINUOUS
 62
     2
100
AcDbCircle
 10
159.036972
 20
296.289377
 30
0.0
 40
0.086922
100
AcDbArc
 50
301.174458
 51
317.258539
  0
ARC
  5
3BE
100
AcDbEntity
  8
1
  6
CONTINUOUS
 62
     2
100
AcDbCircle
 10
158.960858
 20
296.361897
 30
0.0
 40
0.192048
100
AcDbArc
 50
316.780475
 51
325.376377
  0
ARC
  5
3BF
100
AcDbEntity
  8
1
  6
CONTINUOUS
 62
     2
100
AcDbCircle
 10
158.819529
 20
296.461057
 30
0.0
 40
0.364691
100
AcDbArc
 50
325.172451
 51
330.151485
  0
ARC
  5
3C0
100
AcDbEntity
  8
1
  6
CONTINUOUS
 62
     2
100
AcDbCircle
 10
158.598351
 20
296.589018
 30
0.0
 40
0.620217
100
AcDbArc
 50
330.067905
 51
333.061883
  0
ARC
  5
3C1
100
AcDbEntity
  8
1
  6
CONTINUOUS
 62
     2
100
AcDbCircle
 10
158.481222
 20
296.651084
 30
0.0
 40
0.752758
100
AcDbArc
 50
332.889184
 51
338.191378
  0
ARC
  5
3C2
100
AcDbEntity
  8
1
  6
CONTINUOUS
 62
     2
100
AcDbCircle
 10
158.505328
 20
296.64075
 30
0.0
 40
0.726538
100
AcDbArc
 50
338.241756
 51
343.236145
  0
ARC
  5
3C3
100
AcDbEntity
  8
1
  6
CONTINUOUS
 62
     2
100
AcDbCircle
 10
158.393414
 20
296.673641
 30
0.0
 40
0.843183
100
AcDbArc
 50
343.289578
 51
347.322659
  0
ARC
  5
3C4
100
AcDbEntity
  8
1
  6
CONTINUOUS
 62
     2
100
AcDbCircle
 10
157.93455
 20
296.775957
 30
0.0
 40
1.313315
100
AcDbArc
 50
347.361062
 51
349.865938
  0
ARC
  5
3C5
100
AcDbEntity
  8
1
  6
CONTINUOUS
 62
     2
100
AcDbCircle
 10
154.375833
 20
297.410924
 30
0.0
 40
4.928236
100
AcDbArc
 50
349.878758
 51
350.544323
  0
ARC
  5
3C6
100
AcDbEntity
  8
1
  6
CONTINUOUS
 62
     2
100
AcDbCircle
 10
177.757057
 20
293.45597
 30
0.0
 40
18.785142
100
AcDbArc
 50
170.076353
 51
170.361187
  0
ARC
  5
3C7
100
AcDbEntity
  8
1
  6
CONTINUOUS
 62
     2
100
AcDbCircle
 10
1174.653028
 20
119.045769
 30
0.0
 40
1030.822934
100
AcDbArc
 50
170.071009
 51
170.076353
  0
ARC
  5
3C8
100
AcDbEntity
  8
1
  6
CONTINUOUS
 62
     2
100
AcDbCircle
 10
136.70771
 20
300.738039
 30
0.0
 40
22.905002
100
AcDbArc
 50
350.069598
 51
350.314771
  0
ARC
  5
3C9
100
AcDbEntity
  8
1
  6
CONTINUOUS
 62
     2
100
AcDbCircle
 10
148.019887
 20
298.807461
 30
0.0
 40
11.429267
100
AcDbArc
 50
350.314541
 51
350.810718
  0
ARC
  5
3CA
100
AcDbEntity
  8
1
  6
CONTINUOUS
 62
     2
100
AcDbCircle
 10
151.898239
 20
298.180228
 30
0.0
 40
7.500522
100
AcDbArc
 50
350.809368
 51
351.566014
  0
ARC
  5
3CB
100
AcDbEntity
  8
1
  6
CONTINUOUS
 62
     2
100
AcDbCircle
 10
152.461419
 20
298.091833
 30
0.0
 40
6.930469
100
AcDbArc
 50
351.606011
 51
352.66585
  0
ARC
  5
3CC
100
AcDbEntity
  8
1
  6
CONTINUOUS
 62
     2
100
AcDbCircle
 10
150.713383
 20
298.316669
 30
0.0
 40
8.692906
100
AcDbArc
 50
352.666841
 51
353.504863
  0
ARC
  5
3CD
100
AcDbEntity
  8
1
  6
CONTINUOUS
 62
     2
100
AcDbCircle
 10
180.562822
 20
300.23615
 30
0.0
 40
21.874526
100
AcDbArc
 50
185.066057
 51
185.378704
  0
ARC
  5
3CE
100
AcDbEntity
  8
1
  6
CONTINUOUS
 62
     2
100
AcDbCircle
 10
172.000216
 20
299.430018
 30
0.0
 40
13.274057
100
AcDbArc
 50
185.378969
 51
185.893442
  0
ARC
  5
3CF
100
AcDbEntity
  8
1
  6
CONTINUOUS
 62
     2
100
AcDbCircle
 10
168.367304
 20
299.055116
 30
0.0
 40
9.621851
100
AcDbArc
 50
185.894047
 51
186.605138
  0
ARC
  5
3D0
100
AcDbEntity
  8
1
  6
CONTINUOUS
 62
     2
100
AcDbCircle
 10
166.414224
 20
298.829086
 30
0.0
 40
7.655736
100
AcDbArc
 50
186.606077
 51
187.504534
  0
ARC
  5
3D1
100
AcDbEntity
  8
1
  6
CONTINUOUS
 62
     2
100
AcDbCircle
 10
165.253768
 20
298.676435
 30
0.0
 40
6.485283
100
AcDbArc
 50
187.506458
 51
189.312943
  0
ARC
  5
3D2
100
AcDbEntity
  8
1
  6
CONTINUOUS
 62
     2
100
AcDbCircle
 10
169.861808
 20
299.424465
 30
0.0
 40
11.153639
100
AcDbArc
 50
189.274244
 51
189.702286
  0
ARC
  5
3D3
100
AcDbEntity
  8
1
  6
CONTINUOUS
 62
     2
100
AcDbCircle
 10
182.080447
 20
301.513464
 30
0.0
 40
23.549568
100
AcDbArc
 50
189.702111
 51
189.902927
  0
ARC
  5
3D4
100
AcDbEntity
  8
1
  6
CONTINUOUS
 62
     2
100
AcDbCircle
 10
9.6234
 20
271.40342
 30
0.0
 40
151.516271
100
AcDbArc
 50
9.873189
 51
9.903818
  0
ARC
  5
3D5
100
AcDbEntity
  8
1
  6
CONTINUOUS
 62
     2
100
AcDbCircle
 10
142.78895
 20
294.580323
 30
0.0
 40
16.348846
100
AcDbArc
 50
9.597375
 51
9.873189
  0
ARC
  5
3D6
100
AcDbEntity
  8
1
  6
CONTINUOUS
 62
     2
100
AcDbCircle
 10
163.225655
 20
298.021798
 30
0.0
 40
4.375617
100
AcDbArc
 50
189.414405
 51
190.077705
  0
ARC
  5
3D7
100
AcDbEntity
  8
1
  6
CONTINUOUS
 62
     2
100
AcDbCircle
 10
160.061574
 20
297.45972
 30
0.0
 40
1.161999
100
AcDbArc
 50
190.090373
 51
192.593882
  0
ARC
  5
3D8
100
AcDbEntity
  8
1
  6
CONTINUOUS
 62
     2
100
AcDbCircle
 10
159.655094
 20
297.369422
 30
0.0
 40
0.745611
100
AcDbArc
 50
192.632495
 51
196.664707
  0
ARC
  5
3D9
100
AcDbEntity
  8
1
  6
CONTINUOUS
 62
     2
100
AcDbCircle
 10
159.561399
 20
297.342124
 30
0.0
 40
0.648023
100
AcDbArc
 50
196.728121
 51
209.660026
  0
ARC
  5
3DA
100
AcDbEntity
  8
1
  6
CONTINUOUS
 62
     2
100
AcDbCircle
 10
159.278676
 20
297.181892
 30
0.0
 40
0.323053
100
AcDbArc
 50
209.778758
 51
214.746523
  0
ARC
  5
3DB
100
AcDbEntity
  8
1
  6
CONTINUOUS
 62
     2
100
AcDbCircle
 10
159.153198
 20
297.094119
 30
0.0
 40
0.169925
100
AcDbArc
 50
214.542201
 51
223.126555
  0
ARC
  5
3DC
100
AcDbEntity
  8
1
  6
CONTINUOUS
 62
     2
100
AcDbCircle
 10
159.085628
 20
297.029947
 30
0.0
 40
0.076743
100
AcDbArc
 50
222.645727
 51
238.732958
  0
ARC
  5
3DD
100
AcDbEntity
  8
1
  6
CONTINUOUS
 62
     2
100
AcDbCircle
 10
159.063645
 20
296.993242
 30
0.0
 40
0.033961
100
AcDbArc
 50
238.291915
 51
268.481003
  0
ARC
  5
3DE
100
AcDbEntity
  8
1
  6
CONTINUOUS
 62
     2
100
AcDbCircle
 10
159.061855
 20
296.993222
 30
0.0
 40
0.03394
100
AcDbArc
 50
271.502977
 51
301.704668
  0
ARC
  5
3DF
100
AcDbEntity
  8
1
  6
CONTINUOUS
 62
     2
100
AcDbCircle
 10
159.039892
 20
297.029895
 30
0.0
 40
0.076685
100
AcDbArc
 50
301.265542
 51
317.360616
  0
ARC
  5
3E0
100
AcDbEntity
  8
1
  6
CONTINUOUS
 62
     2
100
AcDbCircle
 10
158.972264
 20
297.094108
 30
0.0
 40
0.169937
100
AcDbArc
 50
316.879465
 51
325.462152
  0
ARC
  5
3E1
100
AcDbEntity
  8
1
  6
CONTINUOUS
 62
     2
100
AcDbCircle
 10
158.846311
 20
297.182197
 30
0.0
 40
0.323635
100
AcDbArc
 50
325.257709
 51
330.216932
  0
ARC
  5
3E2
100
AcDbEntity
  8
1
  6
CONTINUOUS
 62
     2
100
AcDbCircle
 10
158.647655
 20
297.296818
 30
0.0
 40
0.552987
100
AcDbArc
 50
330.133513
 51
333.102397
  0
ARC
  5
3E3
100
AcDbEntity
  8
1
  6
CONTINUOUS
 62
     2
100
AcDbCircle
 10
158.541911
 20
297.352764
 30
0.0
 40
0.672604
100
AcDbArc
 50
332.927349
 51
338.180605
  0
ARC
  5
3E4
100
AcDbEntity
  8
1
  6
CONTINUOUS
 62
     2
100
AcDbCircle
 10
158.567965
 20
297.341743
 30
0.0
 40
0.64432
100
AcDbArc
 50
338.229291
 51
343.213991
  0
ARC
  5
3E5
100
AcDbEntity
  8
1
  6
CONTINUOUS
 62
     2
100
AcDbCircle
 10
158.478491
 20
297.368027
 30
0.0
 40
0.737572
100
AcDbArc
 50
343.266521
 51
347.345146
  0
ARC
  5
3E6
100
AcDbEntity
  8
1
  6
CONTINUOUS
 62
     2
100
AcDbCircle
 10
158.110598
 20
297.449859
 30
0.0
 40
1.114457
100
AcDbArc
 50
347.383827
 51
349.993136
  0
ARC
  5
3E7
100
AcDbEntity
  8
1
  6
CONTINUOUS
 62
     2
100
AcDbCircle
 10
155.727091
 20
297.869551
 30
0.0
 40
3.534631
100
AcDbArc
 50
350.007181
 51
350.826785
  0
ARC
  5
3E8
100
AcDbEntity
  8
1
  6
CONTINUOUS
 62
     2
100
AcDbCircle
 10
192.585805
 20
291.822918
 30
0.0
 40
33.816774
100
AcDbArc
 50
170.535872
 51
170.668713
  0
ARC
  5
3E9
100
AcDbEntity
  8
1
  6
CONTINUOUS
 62
     2
100
AcDbCircle
 10
100.944008
 20
303.232685
 30
0.0
 40
58.705
100
AcDbArc
 50
354.478597
 51
354.478718
  0
ARC
  5
3EA
100
AcDbEntity
  8
1
  6
CONTINUOUS
 62
     2
100
AcDbCircle
 10
147.47582
 20
298.68511
 30
0.0
 40
11.951366
100
AcDbArc
 50
353.505597
 51
353.882157
  0
ARC
  5
3EB
100
AcDbEntity
  8
1
  6
CONTINUOUS
 62
     2
100
AcDbCircle
 10
206.364351
 20
289.526048
 30
0.0
 40
47.785451
100
AcDbArc
 50
170.474947
 51
170.535872
  0
ARC
  5
3EC
100
AcDbEntity
  8
1
  6
CONTINUOUS
 62
     2
100
AcDbCircle
 10
196.010441
 20
303.970425
 30
0.0
 40
37.371718
100
AcDbArc
 50
176.768861
 51
177.020934
  0
ARC
  5
3ED
100
AcDbEntity
  8
1
  6
CONTINUOUS
 62
     2
100
AcDbCircle
 10
200.786726
 20
303.721871
 30
0.0
 40
42.154466
100
AcDbArc
 50
177.020949
 51
177.244374
  0
ARC
  5
3EE
100
AcDbEntity
  8
1
  6
CONTINUOUS
 62
     2
100
AcDbCircle
 10
207.018679
 20
303.421925
 30
0.0
 40
48.393633
100
AcDbArc
 50
177.244385
 51
177.439006
  0
LINE
  5
3EF
100
AcDbEntity
  8
1
  6
CONTINUOUS
 62
     2
100
AcDbLine
 10
132.2
 20
307.050113
 30
0.0
 11
132.2
 21
333.305045
 31
0.0
  0
LINE
  5
3F0
100
AcDbEntity
  8
1
  6
CONTINUOUS
 62
     2
100
AcDbLine
 10
132.2
 20
276.305045
 30
0.0
 11
132.2
 21
296.827815
 31
0.0
  0
LINE
  5
3F1
100
AcDbEntity
  8
1
  6
CONTINUOUS
 62
     2
100
AcDbLine
 10
162.2
 20
296.827815
 30
0.0
 11
162.2
 21
276.305045
 31
0.0
  0
LINE
  5
3F2
100
AcDbEntity
  8
1
  6
CONTINUOUS
 62
     2
100
AcDbLine
 10
162.2
 20
333.305045
 30
0.0
 11
162.2
 21
307.050113
 31
0.0
  0
LINE
  5
3F3
100
AcDbEntity
  8
1
  6
EXLTYPE3
 62
     6
100
AcDbLine
 10
147.2
 20
337.305045
 30
0.0
 11
147.2
 21
263.6
 31
0.0
  0
LINE
  5
3F4
100
AcDbEntity
  8
1
  6
CONTINUOUS
 62
     2
100
AcDbLine
 10
137.12464
 20
385.531067
 30
0.0
 11
157.27536
 21
385.531067
 31
0.0
  0
LINE
  5
3F5
100
AcDbEntity
  8
1
  6
CONTINUOUS
 62
     2
100
AcDbLine
 10
162.2
 20
436.531067
 30
0.0
 11
158.272299
 21
386.452876
 31
0.0
  0
LINE
  5
3F6
100
AcDbEntity
  8
1
  6
CONTINUOUS
 62
     2
100
AcDbLine
 10
132.2
 20
436.531067
 30
0.0
 11
162.2
 21
436.531067
 31
0.0
  0
LINE
  5
3F7
100
AcDbEntity
  8
1
  6
CONTINUOUS
 62
     2
100
AcDbLine
 10
132.2
 20
436.531067
 30
0.0
 11
136.127701
 21
386.452876
 31
0.0
  0
ARC
  5
3F8
100
AcDbEntity
  8
1
  6
CONTINUOUS
 62
     2
100
AcDbCircle
 10
157.27536
 20
386.531067
 30
0.0
 40
1.0
100
AcDbArc
 50
337.61408
 51
355.515394
  0
ARC
  5
3F9
100
AcDbEntity
  8
1
  6
CONTINUOUS
 62
     2
100
AcDbCircle
 10
157.27536
 20
386.531067
 30
0.0
 40
1.0
100
AcDbArc
 50
270.0
 51
337.61408
  0
ARC
  5
3FA
100
AcDbEntity
  8
1
  6
CONTINUOUS
 62
     2
100
AcDbCircle
 10
137.12464
 20
386.531067
 30
0.0
 40
1.0
100
AcDbArc
 50
202.38592
 51
270.0
  0
ARC
  5
3FB
100
AcDbEntity
  8
1
  6
CONTINUOUS
 62
     2
100
AcDbCircle
 10
137.12464
 20
386.531067
 30
0.0
 40
1.0
100
AcDbArc
 50
184.484606
 51
202.38592
  0
LINE
  5
3FC
100
AcDbEntity
  8
1
  6
CONTINUOUS
 62
     2
100
AcDbLine
 10
134.945098
 20
401.531067
 30
0.0
 11
74.7
 21
401.531067
 31
0.0
  0
LINE
  5
3FD
100
AcDbEntity
  8
1
  6
CONTINUOUS
 62
     2
100
AcDbLine
 10
135.729412
 20
391.531067
 30
0.0
 11
74.7
 21
391.531067
 31
0.0
  0
LINE
  5
3FE
100
AcDbEntity
  8
1
  6
CONTINUOUS
 62
     2
100
AcDbLine
 10
219.7
 20
391.531067
 30
0.0
 11
158.670588
 21
391.531067
 31
0.0
  0
LINE
  5
3FF
100
AcDbEntity
  8
1
  6
CONTINUOUS
 62
     2
100
AcDbLine
 10
219.7
 20
401.531067
 30
0.0
 11
159.454902
 21
401.531067
 31
0.0
  0
POLYLINE
  5
400
100
AcDbEntity
  8
1
  6
EXLTYPE3
 62
     6
100
AcDb2dPolyline
 66
     1
 10
0.0
 20
0.0
 30
0.0
 70
   128
  0
VERTEX
  5
401
100
AcDbEntity
  8
1
  6
EXLTYPE3
 62
     6
100
AcDbVertex
100
AcDb2dVertex
 10
68.08
 20
396.531067
 30
0.0
  0
VERTEX
  5
402
100
AcDbEntity
  8
1
  6
EXLTYPE3
 62
     6
100
AcDbVertex
100
AcDb2dVertex
 10
159.062745
 20
396.531067
 30
0.0
  0
VERTEX
  5
403
100
AcDbEntity
  8
1
  6
EXLTYPE3
 62
     6
100
AcDbVertex
100
AcDb2dVertex
 10
227.2
 20
396.531067
 30
0.0
  0
SEQEND
  5
404
100
AcDbEntity
  8
1
  6
EXLTYPE3
 62
     6
  0
ARC
  5
405
100
AcDbEntity
  8
1
  6
CONTINUOUS
 62
     2
100
AcDbCircle
 10
289.782497
 20
303.515582
 30
0.0
 40
5.75
100
AcDbArc
 50
90.0
 51
209.591846
  0
ARC
  5
406
100
AcDbEntity
  8
1
  6
CONTINUOUS
 62
     2
100
AcDbCircle
 10
289.782497
 20
303.515582
 30
0.0
 40
5.75
100
AcDbArc
 50
330.408154
 51
90.0
  0
ARC
  5
407
100
AcDbEntity
  8
1
  6
CONTINUOUS
 62
     2
100
AcDbCircle
 10
289.782497
 20
303.515582
 30
0.0
 40
6.5
100
AcDbArc
 50
320.284863
 51
183.283989
  0
ARC
  5
408
100
AcDbEntity
  8
1
  6
CONTINUOUS
 62
     2
100
AcDbCircle
 10
289.782497
 20
303.515582
 30
0.0
 40
6.5
100
AcDbArc
 50
183.283989
 51
219.715137
  0
ARC
  5
409
100
AcDbEntity
  8
1
  6
CONTINUOUS
 62
     2
100
AcDbCircle
 10
289.782497
 20
303.515582
 30
0.0
 40
5.0
100
AcDbArc
 50
0.0
 51
180.0
  0
LINE
  5
40A
100
AcDbEntity
  8
1
  6
CONTINUOUS
 62
     2
100
AcDbLine
 10
312.885735
 20
326.425956
 30
0.0
 11
285.133696
 21
313.484967
 31
0.0
  0
LINE
  5
40B
100
AcDbEntity
  8
1
  6
CONTINUOUS
 62
     2
100
AcDbLine
 10
329.782497
 20
268.305045
 30
0.0
 11
328.782497
 21
268.305045
 31
0.0
  0
LINE
  5
40C
100
AcDbEntity
  8
1
  6
CONTINUOUS
 62
     2
100
AcDbLine
 10
320.782497
 20
280.885588
 30
0.0
 11
320.782497
 21
269.305045
 31
0.0
  0
LINE
  5
40D
100
AcDbEntity
  8
1
  6
CONTINUOUS
 62
     2
100
AcDbLine
 10
294.782497
 20
293.46729
 30
0.0
 11
301.900211
 21
295.374476
 31
0.0
  0
ARC
  5
40E
100
AcDbEntity
  8
1
  6
CONTINUOUS
 62
     2
100
AcDbCircle
 10
289.782497
 20
303.515582
 30
0.0
 40
11.0
100
AcDbArc
 50
180.0
 51
200.0
  0
ARC
  5
40F
100
AcDbEntity
  8
1
  6
CONTINUOUS
 62
     2
100
AcDbCircle
 10
289.782497
 20
303.515582
 30
0.0
 40
11.0
100
AcDbArc
 50
115.0
 51
180.0
  0
ARC
  5
410
100
AcDbEntity
  8
1
  6
CONTINUOUS
 62
     2
100
AcDbCircle
 10
289.782497
 20
303.515582
 30
0.0
 40
11.0
100
AcDbArc
 50
200.0
 51
242.964308
  0
ARC
  5
411
100
AcDbEntity
  8
1
  6
CONTINUOUS
 62
     2
100
AcDbCircle
 10
305.782497
 20
280.885588
 30
0.0
 40
15.0
100
AcDbArc
 50
0.0
 51
63.767885
  0
ARC
  5
412
100
AcDbEntity
  8
1
  6
CONTINUOUS
 62
     2
100
AcDbCircle
 10
321.782497
 20
269.305045
 30
0.0
 40
1.0
100
AcDbArc
 50
180.0
 51
270.0
  0
ARC
  5
413
100
AcDbEntity
  8
1
  6
CONTINUOUS
 62
     2
100
AcDbCircle
 10
305.782497
 20
280.885588
 30
0.0
 40
15.0
100
AcDbArc
 50
63.767885
 51
105.0
  0
LINE
  5
414
100
AcDbEntity
  8
1
  6
EXLTYPE3
 62
     6
100
AcDbLine
 10
280.02
 20
303.515582
 30
0.0
 11
299.9
 21
303.515582
 31
0.0
  0
LEADER
  5
415
100
AcDbEntity
  8
1
  6
CONTINUOUS
 62
     6
100
AcDbLeader
  3
STANDARD
 73
     3
 74
     1
 75
     0
 40
0.0
 76
     2
 10
341.024458
 20
285.105045
 30
0.0
 10
354.53968
 20
254.82108
 30
0.0
 77
     6
1001
ACAD
1000
DSTYLE
1002
{
1070
    41
1040
6.0
1070
     5
1000
_EX_NORM
1070
     6
1000
_EX_NORM
1070
     7
1000
_EX_NORM
1070
   341
1005
29
1002
}
  0
LINE
  5
416
100
AcDbEntity
  8
1
  6
CONTINUOUS
 62
     2
100
AcDbLine
 10
323.782497
 20
268.064526
 30
0.0
 11
323.782497
 21
268.305045
 31
0.0
  0
LINE
  5
417
100
AcDbEntity
  8
1
  6
CONTINUOUS
 62
     2
100
AcDbLine
 10
328.782497
 20
268.064526
 30
0.0
 11
328.782497
 21
268.305045
 31
0.0
  0
LINE
  5
418
100
AcDbEntity
  8
1
  6
CONTINUOUS
 62
     6
100
AcDbLine
 10
328.782497
 20
268.064526
 30
0.0
 11
323.788
 21
268.064526
 31
0.0
  0
LEADER
  5
419
100
AcDbEntity
  8
1
  6
CONTINUOUS
 62
     6
100
AcDbLeader
  3
STANDARD
 73
     3
 74
     1
 75
     0
 40
0.0
 76
     2
 10
326.36
 20
267.832014
 30
0.0
 10
330.382662
 20
255.141621
 30
0.0
 77
     6
1001
ACAD
1000
DSTYLE
1002
{
1070
    41
1040
6.0
1070
     5
1000
_EX_NORM
1070
     6
1000
_EX_NORM
1070
     7
1000
_EX_NORM
1070
   341
1005
29
1002
}
  0
LINE
  5
41A
100
AcDbEntity
  8
1
  6
CONTINUOUS
 62
     2
100
AcDbLine
 10
329.782497
 20
268.305045
 30
0.0
 11
321.782497
 21
268.305045
 31
0.0
  0
LINE
  5
41B
100
AcDbEntity
  8
1
  6
CONTINUOUS
 62
     2
100
AcDbLine
 10
329.782497
 20
334.305045
 30
0.0
 11
329.782497
 21
268.305045
 31
0.0
  0
LINE
  5
41C
100
AcDbEntity
  8
1
  6
CONTINUOUS
 62
     2
100
AcDbLine
 10
329.782497
 20
334.305045
 30
0.0
 11
312.885735
 21
326.425956
 31
0.0
  0
LINE
  5
41D
100
AcDbEntity
  8
1
  6
CONTINUOUS
 62
     2
100
AcDbLine
 10
284.782497
 20
158.515582
 30
0.0
 11
284.782497
 21
303.515582
 31
0.0
  0
LINE
  5
41E
100
AcDbEntity
  8
1
  6
CONTINUOUS
 62
     2
100
AcDbLine
 10
294.782497
 20
158.515582
 30
0.0
 11
294.782497
 21
303.515582
 31
0.0
  0
LINE
  5
41F
100
AcDbEntity
  8
1
  6
EXLTYPE3
 62
     6
100
AcDbLine
 10
289.782497
 20
319.0
 30
0.0
 11
289.782497
 21
150.4
 31
0.0
  0
TEXT
  5
420
100
AcDbEntity
  8
1
  6
CONTINUOUS
 62
     2
100
AcDbText
 10
347.6
 20
343.115582
 30
0.0
 40
8.0
  1
４.５×２５
 41
0.613889
  7
EXCADSTD
 72
     5
 11
381.6
 21
343.115582
 31
0.0
100
AcDbText
  0
LINE
  5
421
100
AcDbEntity
  8
1
  6
CONTINUOUS
 62
     6
100
AcDbLine
 10
347.6
 20
343.115582
 30
0.0
 11
380.2
 21
343.115582
 31
0.0
  0
LINE
  5
422
100
AcDbEntity
  8
1
  6
CONTINUOUS
 62
     2
100
AcDbLine
 10
335.80004
 20
313.555045
 30
0.0
 11
336.117582
 21
314.105045
 31
0.0
  0
LINE
  5
423
100
AcDbEntity
  8
1
  6
CONTINUOUS
 62
     2
100
AcDbLine
 10
335.482497
 20
314.105045
 30
0.0
 11
335.80004
 21
313.555045
 31
0.0
  0
LINE
  5
424
100
AcDbEntity
  8
1
  6
CONTINUOUS
 62
     2
100
AcDbLine
 10
337.70004
 20
313.555045
 30
0.0
 11
338.017582
 21
314.105045
 31
0.0
  0
LINE
  5
425
100
AcDbEntity
  8
1
  6
CONTINUOUS
 62
     2
100
AcDbLine
 10
337.382497
 20
314.105045
 30
0.0
 11
337.70004
 21
313.555045
 31
0.0
  0
LINE
  5
426
100
AcDbEntity
  8
1
  6
CONTINUOUS
 62
     2
100
AcDbLine
 10
339.60004
 20
313.555045
 30
0.0
 11
339.917582
 21
314.105045
 31
0.0
  0
LINE
  5
427
100
AcDbEntity
  8
1
  6
CONTINUOUS
 62
     2
100
AcDbLine
 10
339.282497
 20
314.105045
 30
0.0
 11
339.60004
 21
313.555045
 31
0.0
  0
LINE
  5
428
100
AcDbEntity
  8
1
  6
CONTINUOUS
 62
     2
100
AcDbLine
 10
341.50004
 20
313.555045
 30
0.0
 11
341.817582
 21
314.105045
 31
0.0
  0
LINE
  5
429
100
AcDbEntity
  8
1
  6
CONTINUOUS
 62
     2
100
AcDbLine
 10
341.182497
 20
314.105045
 30
0.0
 11
341.50004
 21
313.555045
 31
0.0
  0
LINE
  5
42A
100
AcDbEntity
  8
1
  6
CONTINUOUS
 62
     2
100
AcDbLine
 10
343.40004
 20
313.555045
 30
0.0
 11
343.717582
 21
314.105045
 31
0.0
  0
LINE
  5
42B
100
AcDbEntity
  8
1
  6
CONTINUOUS
 62
     2
100
AcDbLine
 10
343.082497
 20
314.105045
 30
0.0
 11
343.40004
 21
313.555045
 31
0.0
  0
LINE
  5
42C
100
AcDbEntity
  8
1
  6
CONTINUOUS
 62
     2
100
AcDbLine
 10
345.30004
 20
313.555045
 30
0.0
 11
345.617582
 21
314.105045
 31
0.0
  0
LINE
  5
42D
100
AcDbEntity
  8
1
  6
CONTINUOUS
 62
     2
100
AcDbLine
 10
344.982497
 20
314.105045
 30
0.0
 11
345.30004
 21
313.555045
 31
0.0
  0
LINE
  5
42E
100
AcDbEntity
  8
1
  6
CONTINUOUS
 62
     2
100
AcDbLine
 10
346.882497
 20
314.105045
 30
0.0
 11
347.20004
 21
313.555045
 31
0.0
  0
LINE
  5
42F
100
AcDbEntity
  8
1
  6
CONTINUOUS
 62
     2
100
AcDbLine
 10
347.20004
 20
313.555045
 30
0.0
 11
347.517582
 21
314.105045
 31
0.0
  0
LINE
  5
430
100
AcDbEntity
  8
1
  6
CONTINUOUS
 62
     2
100
AcDbLine
 10
348.782497
 20
314.105045
 30
0.0
 11
349.10004
 21
313.555045
 31
0.0
  0
LINE
  5
431
100
AcDbEntity
  8
1
  6
CONTINUOUS
 62
     2
100
AcDbLine
 10
349.10004
 20
313.555045
 30
0.0
 11
349.417582
 21
314.105045
 31
0.0
  0
LINE
  5
432
100
AcDbEntity
  8
1
  6
CONTINUOUS
 62
     2
100
AcDbLine
 10
350.367582
 20
317.505045
 30
0.0
 11
350.05004
 21
318.055045
 31
0.0
  0
LINE
  5
433
100
AcDbEntity
  8
1
  6
CONTINUOUS
 62
     2
100
AcDbLine
 10
350.05004
 20
318.055045
 30
0.0
 11
349.732497
 21
317.505045
 31
0.0
  0
LINE
  5
434
100
AcDbEntity
  8
1
  6
CONTINUOUS
 62
     2
100
AcDbLine
 10
348.467582
 20
317.505045
 30
0.0
 11
348.15004
 21
318.055045
 31
0.0
  0
LINE
  5
435
100
AcDbEntity
  8
1
  6
CONTINUOUS
 62
     2
100
AcDbLine
 10
348.15004
 20
318.055045
 30
0.0
 11
347.832497
 21
317.505045
 31
0.0
  0
LINE
  5
436
100
AcDbEntity
  8
1
  6
CONTINUOUS
 62
     2
100
AcDbLine
 10
346.567582
 20
317.505045
 30
0.0
 11
346.25004
 21
318.055045
 31
0.0
  0
LINE
  5
437
100
AcDbEntity
  8
1
  6
CONTINUOUS
 62
     2
100
AcDbLine
 10
346.25004
 20
318.055045
 30
0.0
 11
345.932497
 21
317.505045
 31
0.0
  0
LINE
  5
438
100
AcDbEntity
  8
1
  6
CONTINUOUS
 62
     2
100
AcDbLine
 10
344.35004
 20
318.055045
 30
0.0
 11
344.032497
 21
317.505045
 31
0.0
  0
LINE
  5
439
100
AcDbEntity
  8
1
  6
CONTINUOUS
 62
     2
100
AcDbLine
 10
344.667582
 20
317.505045
 30
0.0
 11
344.35004
 21
318.055045
 31
0.0
  0
LINE
  5
43A
100
AcDbEntity
  8
1
  6
CONTINUOUS
 62
     2
100
AcDbLine
 10
342.45004
 20
318.055045
 30
0.0
 11
342.132497
 21
317.505045
 31
0.0
  0
LINE
  5
43B
100
AcDbEntity
  8
1
  6
CONTINUOUS
 62
     2
100
AcDbLine
 10
342.767582
 20
317.505045
 30
0.0
 11
342.45004
 21
318.055045
 31
0.0
  0
LINE
  5
43C
100
AcDbEntity
  8
1
  6
CONTINUOUS
 62
     2
100
AcDbLine
 10
340.55004
 20
318.055045
 30
0.0
 11
340.232497
 21
317.505045
 31
0.0
  0
LINE
  5
43D
100
AcDbEntity
  8
1
  6
CONTINUOUS
 62
     2
100
AcDbLine
 10
340.867582
 20
317.505045
 30
0.0
 11
340.55004
 21
318.055045
 31
0.0
  0
LINE
  5
43E
100
AcDbEntity
  8
1
  6
CONTINUOUS
 62
     2
100
AcDbLine
 10
338.65004
 20
318.055045
 30
0.0
 11
338.332497
 21
317.505045
 31
0.0
  0
LINE
  5
43F
100
AcDbEntity
  8
1
  6
CONTINUOUS
 62
     2
100
AcDbLine
 10
338.967582
 20
317.505045
 30
0.0
 11
338.65004
 21
318.055045
 31
0.0
  0
LINE
  5
440
100
AcDbEntity
  8
1
  6
CONTINUOUS
 62
     2
100
AcDbLine
 10
336.75004
 20
318.055045
 30
0.0
 11
336.432497
 21
317.505045
 31
0.0
  0
LINE
  5
441
100
AcDbEntity
  8
1
  6
CONTINUOUS
 62
     2
100
AcDbLine
 10
337.067582
 20
317.505045
 30
0.0
 11
336.75004
 21
318.055045
 31
0.0
  0
LINE
  5
442
100
AcDbEntity
  8
1
  6
CONTINUOUS
 62
     2
100
AcDbLine
 10
335.167582
 20
317.505045
 30
0.0
 11
334.85004
 21
318.055045
 31
0.0
  0
LINE
  5
443
100
AcDbEntity
  8
1
  6
CONTINUOUS
 62
     2
100
AcDbLine
 10
336.117582
 20
314.105045
 30
0.0
 11
337.382497
 21
314.105045
 31
0.0
  0
LINE
  5
444
100
AcDbEntity
  8
1
  6
CONTINUOUS
 62
     2
100
AcDbLine
 10
338.017582
 20
314.105045
 30
0.0
 11
339.282497
 21
314.105045
 31
0.0
  0
LINE
  5
445
100
AcDbEntity
  8
1
  6
CONTINUOUS
 62
     2
100
AcDbLine
 10
339.917582
 20
314.105045
 30
0.0
 11
341.182497
 21
314.105045
 31
0.0
  0
LINE
  5
446
100
AcDbEntity
  8
1
  6
CONTINUOUS
 62
     2
100
AcDbLine
 10
341.817582
 20
314.105045
 30
0.0
 11
343.082497
 21
314.105045
 31
0.0
  0
LINE
  5
447
100
AcDbEntity
  8
1
  6
CONTINUOUS
 62
     2
100
AcDbLine
 10
343.717582
 20
314.105045
 30
0.0
 11
344.982497
 21
314.105045
 31
0.0
  0
LINE
  5
448
100
AcDbEntity
  8
1
  6
CONTINUOUS
 62
     2
100
AcDbLine
 10
345.617582
 20
314.105045
 30
0.0
 11
346.882497
 21
314.105045
 31
0.0
  0
LINE
  5
449
100
AcDbEntity
  8
1
  6
CONTINUOUS
 62
     2
100
AcDbLine
 10
347.517582
 20
314.105045
 30
0.0
 11
348.782497
 21
314.105045
 31
0.0
  0
LINE
  5
44A
100
AcDbEntity
  8
1
  6
CONTINUOUS
 62
     2
100
AcDbLine
 10
349.417582
 20
314.105045
 30
0.0
 11
350.682497
 21
314.105045
 31
0.0
  0
LINE
  5
44B
100
AcDbEntity
  8
1
  6
CONTINUOUS
 62
     2
100
AcDbLine
 10
335.167582
 20
317.505045
 30
0.0
 11
336.432497
 21
317.505045
 31
0.0
  0
LINE
  5
44C
100
AcDbEntity
  8
1
  6
CONTINUOUS
 62
     2
100
AcDbLine
 10
337.067582
 20
317.505045
 30
0.0
 11
338.332497
 21
317.505045
 31
0.0
  0
LINE
  5
44D
100
AcDbEntity
  8
1
  6
CONTINUOUS
 62
     2
100
AcDbLine
 10
338.967582
 20
317.505045
 30
0.0
 11
340.232497
 21
317.505045
 31
0.0
  0
LINE
  5
44E
100
AcDbEntity
  8
1
  6
CONTINUOUS
 62
     2
100
AcDbLine
 10
340.867582
 20
317.505045
 30
0.0
 11
342.132497
 21
317.505045
 31
0.0
  0
LINE
  5
44F
100
AcDbEntity
  8
1
  6
CONTINUOUS
 62
     2
100
AcDbLine
 10
342.767582
 20
317.505045
 30
0.0
 11
344.032497
 21
317.505045
 31
0.0
  0
LINE
  5
450
100
AcDbEntity
  8
1
  6
CONTINUOUS
 62
     2
100
AcDbLine
 10
344.667582
 20
317.505045
 30
0.0
 11
345.932497
 21
317.505045
 31
0.0
  0
LINE
  5
451
100
AcDbEntity
  8
1
  6
CONTINUOUS
 62
     2
100
AcDbLine
 10
346.567582
 20
317.505045
 30
0.0
 11
347.832497
 21
317.505045
 31
0.0
  0
LINE
  5
452
100
AcDbEntity
  8
1
  6
CONTINUOUS
 62
     2
100
AcDbLine
 10
348.467582
 20
317.505045
 30
0.0
 11
349.732497
 21
317.505045
 31
0.0
  0
LINE
  5
453
100
AcDbEntity
  8
1
  6
CONTINUOUS
 62
     2
100
AcDbLine
 10
335.80004
 20
313.555045
 30
0.0
 11
334.85004
 21
318.055045
 31
0.0
  0
LINE
  5
454
100
AcDbEntity
  8
1
  6
CONTINUOUS
 62
     2
100
AcDbLine
 10
336.117582
 20
314.105045
 30
0.0
 11
335.167582
 21
317.505045
 31
0.0
  0
LINE
  5
455
100
AcDbEntity
  8
1
  6
CONTINUOUS
 62
     2
100
AcDbLine
 10
337.382497
 20
314.105045
 30
0.0
 11
336.432497
 21
317.505045
 31
0.0
  0
LINE
  5
456
100
AcDbEntity
  8
1
  6
CONTINUOUS
 62
     2
100
AcDbLine
 10
337.70004
 20
313.555045
 30
0.0
 11
336.75004
 21
318.055045
 31
0.0
  0
LINE
  5
457
100
AcDbEntity
  8
1
  6
CONTINUOUS
 62
     2
100
AcDbLine
 10
338.017582
 20
314.105045
 30
0.0
 11
337.067582
 21
317.505045
 31
0.0
  0
LINE
  5
458
100
AcDbEntity
  8
1
  6
CONTINUOUS
 62
     2
100
AcDbLine
 10
339.282497
 20
314.105045
 30
0.0
 11
338.332497
 21
317.505045
 31
0.0
  0
LINE
  5
459
100
AcDbEntity
  8
1
  6
CONTINUOUS
 62
     2
100
AcDbLine
 10
339.60004
 20
313.555045
 30
0.0
 11
338.65004
 21
318.055045
 31
0.0
  0
LINE
  5
45A
100
AcDbEntity
  8
1
  6
CONTINUOUS
 62
     2
100
AcDbLine
 10
339.917582
 20
314.105045
 30
0.0
 11
338.967582
 21
317.505045
 31
0.0
  0
LINE
  5
45B
100
AcDbEntity
  8
1
  6
CONTINUOUS
 62
     2
100
AcDbLine
 10
341.182497
 20
314.105045
 30
0.0
 11
340.232497
 21
317.505045
 31
0.0
  0
LINE
  5
45C
100
AcDbEntity
  8
1
  6
CONTINUOUS
 62
     2
100
AcDbLine
 10
341.50004
 20
313.555045
 30
0.0
 11
340.55004
 21
318.055045
 31
0.0
  0
LINE
  5
45D
100
AcDbEntity
  8
1
  6
CONTINUOUS
 62
     2
100
AcDbLine
 10
341.817582
 20
314.105045
 30
0.0
 11
340.867582
 21
317.505045
 31
0.0
  0
LINE
  5
45E
100
AcDbEntity
  8
1
  6
CONTINUOUS
 62
     2
100
AcDbLine
 10
343.082497
 20
314.105045
 30
0.0
 11
342.132497
 21
317.505045
 31
0.0
  0
LINE
  5
45F
100
AcDbEntity
  8
1
  6
CONTINUOUS
 62
     2
100
AcDbLine
 10
343.40004
 20
313.555045
 30
0.0
 11
342.45004
 21
318.055045
 31
0.0
  0
LINE
  5
460
100
AcDbEntity
  8
1
  6
CONTINUOUS
 62
     2
100
AcDbLine
 10
343.717582
 20
314.105045
 30
0.0
 11
342.767582
 21
317.505045
 31
0.0
  0
LINE
  5
461
100
AcDbEntity
  8
1
  6
CONTINUOUS
 62
     2
100
AcDbLine
 10
344.982497
 20
314.105045
 30
0.0
 11
344.032497
 21
317.505045
 31
0.0
  0
LINE
  5
462
100
AcDbEntity
  8
1
  6
CONTINUOUS
 62
     2
100
AcDbLine
 10
345.30004
 20
313.555045
 30
0.0
 11
344.35004
 21
318.055045
 31
0.0
  0
LINE
  5
463
100
AcDbEntity
  8
1
  6
CONTINUOUS
 62
     2
100
AcDbLine
 10
345.617582
 20
314.105045
 30
0.0
 11
344.667582
 21
317.505045
 31
0.0
  0
LINE
  5
464
100
AcDbEntity
  8
1
  6
CONTINUOUS
 62
     2
100
AcDbLine
 10
346.882497
 20
314.105045
 30
0.0
 11
345.932497
 21
317.505045
 31
0.0
  0
LINE
  5
465
100
AcDbEntity
  8
1
  6
CONTINUOUS
 62
     2
100
AcDbLine
 10
347.20004
 20
313.555045
 30
0.0
 11
346.25004
 21
318.055045
 31
0.0
  0
LINE
  5
466
100
AcDbEntity
  8
1
  6
CONTINUOUS
 62
     2
100
AcDbLine
 10
347.517582
 20
314.105045
 30
0.0
 11
346.567582
 21
317.505045
 31
0.0
  0
LINE
  5
467
100
AcDbEntity
  8
1
  6
CONTINUOUS
 62
     2
100
AcDbLine
 10
348.782497
 20
314.105045
 30
0.0
 11
347.832497
 21
317.505045
 31
0.0
  0
LINE
  5
468
100
AcDbEntity
  8
1
  6
CONTINUOUS
 62
     2
100
AcDbLine
 10
349.10004
 20
313.555045
 30
0.0
 11
348.15004
 21
318.055045
 31
0.0
  0
LINE
  5
469
100
AcDbEntity
  8
1
  6
CONTINUOUS
 62
     2
100
AcDbLine
 10
349.417582
 20
314.105045
 30
0.0
 11
348.467582
 21
317.505045
 31
0.0
  0
LINE
  5
46A
100
AcDbEntity
  8
1
  6
CONTINUOUS
 62
     2
100
AcDbLine
 10
351.00004
 20
313.731412
 30
0.0
 11
350.763867
 21
314.140474
 31
0.0
  0
LINE
  5
46B
100
AcDbEntity
  8
1
  6
CONTINUOUS
 62
     2
100
AcDbLine
 10
351.00004
 20
313.731412
 30
0.0
 11
351.384676
 21
314.397622
 31
0.0
  0
LINE
  5
46C
100
AcDbEntity
  8
1
  6
CONTINUOUS
 62
     2
100
AcDbLine
 10
350.763867
 20
314.140474
 30
0.0
 11
350.682497
 21
314.105045
 31
0.0
  0
LINE
  5
46D
100
AcDbEntity
  8
1
  6
CONTINUOUS
 62
     2
100
AcDbLine
 10
352.90004
 20
314.773037
 30
0.0
 11
352.782501
 21
314.97662
 31
0.0
  0
LINE
  5
46E
100
AcDbEntity
  8
1
  6
CONTINUOUS
 62
     2
100
AcDbLine
 10
352.90004
 20
314.773037
 30
0.0
 11
353.091466
 21
315.104597
 31
0.0
  0
LINE
  5
46F
100
AcDbEntity
  8
1
  6
CONTINUOUS
 62
     2
100
AcDbLine
 10
351.95004
 20
317.357866
 30
0.0
 11
351.773184
 21
317.051543
 31
0.0
  0
LINE
  5
470
100
AcDbEntity
  8
1
  6
CONTINUOUS
 62
     2
100
AcDbLine
 10
351.95004
 20
317.357866
 30
0.0
 11
352.238071
 21
316.858981
 31
0.0
  0
LINE
  5
471
100
AcDbEntity
  8
1
  6
CONTINUOUS
 62
     2
100
AcDbLine
 10
353.85004
 20
316.316241
 30
0.0
 11
353.791818
 21
316.215398
 31
0.0
  0
LINE
  5
472
100
AcDbEntity
  8
1
  6
CONTINUOUS
 62
     2
100
AcDbLine
 10
353.85004
 20
316.316241
 30
0.0
 11
353.944861
 21
316.152005
 31
0.0
  0
LINE
  5
473
100
AcDbEntity
  8
1
  6
CONTINUOUS
 62
     2
100
AcDbLine
 10
354.782497
 20
315.805045
 30
0.0
 11
353.944861
 21
316.152005
 31
0.0
  0
LINE
  5
474
100
AcDbEntity
  8
1
  6
CONTINUOUS
 62
     2
100
AcDbLine
 10
353.791818
 20
316.215398
 30
0.0
 11
352.238071
 21
316.858981
 31
0.0
  0
LINE
  5
475
100
AcDbEntity
  8
1
  6
CONTINUOUS
 62
     2
100
AcDbLine
 10
351.773184
 20
317.051543
 30
0.0
 11
350.678334
 21
317.505045
 31
0.0
  0
LINE
  5
476
100
AcDbEntity
  8
1
  6
CONTINUOUS
 62
     2
100
AcDbLine
 10
350.678334
 20
317.505045
 30
0.0
 11
350.367582
 21
317.505045
 31
0.0
  0
LINE
  5
477
100
AcDbEntity
  8
1
  6
CONTINUOUS
 62
     2
100
AcDbLine
 10
354.782497
 20
315.805045
 30
0.0
 11
353.091466
 21
315.104597
 31
0.0
  0
LINE
  5
478
100
AcDbEntity
  8
1
  6
CONTINUOUS
 62
     2
100
AcDbLine
 10
352.782501
 20
314.97662
 30
0.0
 11
351.384676
 21
314.397622
 31
0.0
  0
LINE
  5
479
100
AcDbEntity
  8
1
  6
CONTINUOUS
 62
     2
100
AcDbLine
 10
350.763867
 20
314.140474
 30
0.0
 11
349.732497
 21
317.505045
 31
0.0
  0
LINE
  5
47A
100
AcDbEntity
  8
1
  6
CONTINUOUS
 62
     2
100
AcDbLine
 10
351.00004
 20
313.731412
 30
0.0
 11
350.05004
 21
318.055045
 31
0.0
  0
LINE
  5
47B
100
AcDbEntity
  8
1
  6
CONTINUOUS
 62
     2
100
AcDbLine
 10
351.384676
 20
314.397622
 30
0.0
 11
350.367582
 21
317.505045
 31
0.0
  0
LINE
  5
47C
100
AcDbEntity
  8
1
  6
CONTINUOUS
 62
     2
100
AcDbLine
 10
352.782501
 20
314.97662
 30
0.0
 11
351.773184
 21
317.051543
 31
0.0
  0
LINE
  5
47D
100
AcDbEntity
  8
1
  6
CONTINUOUS
 62
     2
100
AcDbLine
 10
352.90004
 20
314.773037
 30
0.0
 11
351.95004
 21
317.357866
 31
0.0
  0
LINE
  5
47E
100
AcDbEntity
  8
1
  6
CONTINUOUS
 62
     2
100
AcDbLine
 10
353.091466
 20
315.104597
 30
0.0
 11
352.238071
 21
316.858981
 31
0.0
  0
LINE
  5
47F
100
AcDbEntity
  8
1
  6
CONTINUOUS
 62
     2
100
AcDbLine
 10
354.037919
 20
315.805045
 30
0.0
 11
353.85004
 21
316.316241
 31
0.0
  0
LINE
  5
480
100
AcDbEntity
  8
1
  6
CONTINUOUS
 62
     2
100
AcDbLine
 10
353.944861
 20
316.152005
 30
0.0
 11
354.037919
 21
315.805045
 31
0.0
  0
LINE
  5
481
100
AcDbEntity
  8
1
  6
CONTINUOUS
 62
     2
100
AcDbLine
 10
353.791818
 20
316.215398
 30
0.0
 11
354.037919
 21
315.805045
 31
0.0
  0
LINE
  5
482
100
AcDbEntity
  8
1
  6
CONTINUOUS
 62
     2
100
AcDbLine
 10
331.367582
 20
317.505045
 30
0.0
 11
332.632497
 21
317.505045
 31
0.0
  0
LINE
  5
483
100
AcDbEntity
  8
1
  6
CONTINUOUS
 62
     2
100
AcDbLine
 10
332.317582
 20
314.105045
 30
0.0
 11
333.582497
 21
314.105045
 31
0.0
  0
LINE
  5
484
100
AcDbEntity
  8
1
  6
CONTINUOUS
 62
     2
100
AcDbLine
 10
333.582497
 20
314.105045
 30
0.0
 11
332.632497
 21
317.505045
 31
0.0
  0
LINE
  5
485
100
AcDbEntity
  8
1
  6
CONTINUOUS
 62
     2
100
AcDbLine
 10
333.90004
 20
313.555045
 30
0.0
 11
332.95004
 21
318.055045
 31
0.0
  0
LINE
  5
486
100
AcDbEntity
  8
1
  6
CONTINUOUS
 62
     2
100
AcDbLine
 10
332.95004
 20
318.055045
 30
0.0
 11
332.632497
 21
317.505045
 31
0.0
  0
LINE
  5
487
100
AcDbEntity
  8
1
  6
CONTINUOUS
 62
     2
100
AcDbLine
 10
334.217582
 20
314.105045
 30
0.0
 11
333.267582
 21
317.505045
 31
0.0
  0
LINE
  5
488
100
AcDbEntity
  8
1
  6
CONTINUOUS
 62
     2
100
AcDbLine
 10
333.267582
 20
317.505045
 30
0.0
 11
332.95004
 21
318.055045
 31
0.0
  0
LINE
  5
489
100
AcDbEntity
  8
1
  6
CONTINUOUS
 62
     2
100
AcDbLine
 10
333.90004
 20
313.555045
 30
0.0
 11
334.217582
 21
314.105045
 31
0.0
  0
LINE
  5
48A
100
AcDbEntity
  8
1
  6
CONTINUOUS
 62
     2
100
AcDbLine
 10
333.582497
 20
314.105045
 30
0.0
 11
333.90004
 21
313.555045
 31
0.0
  0
LINE
  5
48B
100
AcDbEntity
  8
1
  6
CONTINUOUS
 62
     2
100
AcDbLine
 10
330.417582
 20
314.105045
 30
0.0
 11
331.682497
 21
314.105045
 31
0.0
  0
LINE
  5
48C
100
AcDbEntity
  8
1
  6
CONTINUOUS
 62
     2
100
AcDbLine
 10
331.682497
 20
314.105045
 30
0.0
 11
330.732497
 21
317.505045
 31
0.0
  0
LINE
  5
48D
100
AcDbEntity
  8
1
  6
CONTINUOUS
 62
     2
100
AcDbLine
 10
332.00004
 20
313.555045
 30
0.0
 11
331.05004
 21
318.055045
 31
0.0
  0
LINE
  5
48E
100
AcDbEntity
  8
1
  6
CONTINUOUS
 62
     2
100
AcDbLine
 10
331.05004
 20
318.055045
 30
0.0
 11
330.732497
 21
317.505045
 31
0.0
  0
LINE
  5
48F
100
AcDbEntity
  8
1
  6
CONTINUOUS
 62
     2
100
AcDbLine
 10
332.317582
 20
314.105045
 30
0.0
 11
331.367582
 21
317.505045
 31
0.0
  0
LINE
  5
490
100
AcDbEntity
  8
1
  6
CONTINUOUS
 62
     2
100
AcDbLine
 10
331.367582
 20
317.505045
 30
0.0
 11
331.05004
 21
318.055045
 31
0.0
  0
LINE
  5
491
100
AcDbEntity
  8
1
  6
CONTINUOUS
 62
     2
100
AcDbLine
 10
332.00004
 20
313.555045
 30
0.0
 11
332.317582
 21
314.105045
 31
0.0
  0
LINE
  5
492
100
AcDbEntity
  8
1
  6
CONTINUOUS
 62
     2
100
AcDbLine
 10
331.682497
 20
314.105045
 30
0.0
 11
332.00004
 21
313.555045
 31
0.0
  0
LINE
  5
493
100
AcDbEntity
  8
1
  6
CONTINUOUS
 62
     2
100
AcDbLine
 10
330.10004
 20
313.555045
 30
0.0
 11
330.417582
 21
314.105045
 31
0.0
  0
LINE
  5
494
100
AcDbEntity
  8
1
  6
CONTINUOUS
 62
     2
100
AcDbLine
 10
329.782497
 20
314.105045
 30
0.0
 11
330.10004
 21
313.555045
 31
0.0
  0
LINE
  5
495
100
AcDbEntity
  8
1
  6
CONTINUOUS
 62
     2
100
AcDbLine
 10
334.217582
 20
314.105045
 30
0.0
 11
335.482497
 21
314.105045
 31
0.0
  0
LINE
  5
496
100
AcDbEntity
  8
1
  6
CONTINUOUS
 62
     2
100
AcDbLine
 10
335.482497
 20
314.105045
 30
0.0
 11
334.532497
 21
317.505045
 31
0.0
  0
LINE
  5
497
100
AcDbEntity
  8
1
  6
CONTINUOUS
 62
     2
100
AcDbLine
 10
334.85004
 20
318.055045
 30
0.0
 11
334.532497
 21
317.505045
 31
0.0
  0
LINE
  5
498
100
AcDbEntity
  8
1
  6
CONTINUOUS
 62
     2
100
AcDbLine
 10
333.267582
 20
317.505045
 30
0.0
 11
334.532497
 21
317.505045
 31
0.0
  0
LINE
  5
499
100
AcDbEntity
  8
1
  6
CONTINUOUS
 62
     2
100
AcDbLine
 10
330.10004
 20
313.555045
 30
0.0
 11
329.782497
 21
315.059195
 31
0.0
  0
LINE
  5
49A
100
AcDbEntity
  8
1
  6
CONTINUOUS
 62
     2
100
AcDbLine
 10
330.417582
 20
314.105045
 30
0.0
 11
329.782497
 21
316.377982
 31
0.0
  0
LINE
  5
49B
100
AcDbEntity
  8
1
  6
CONTINUOUS
 62
     2
100
AcDbLine
 10
329.782497
 20
317.505045
 30
0.0
 11
330.732497
 21
317.505045
 31
0.0
  0
LEADER
  5
49C
100
AcDbEntity
  8
1
  6
CONTINUOUS
 62
     6
100
AcDbLeader
  3
STANDARD
 73
     3
 74
     1
 75
     0
 40
0.0
 76
     2
 10
337.067582
 20
317.505045
 30
0.0
 10
347.6
 20
343.115582
 30
0.0
 77
     6
1001
ACAD
1000
DSTYLE
1002
{
1070
    41
1040
6.0
1070
     5
1000
_EX_NORM
1070
     6
1000
_EX_NORM
1070
     7
1000
_EX_NORM
1070
   341
1005
29
1002
}
  0
LINE
  5
49D
100
AcDbEntity
  8
1
  6
CONTINUOUS
 62
     2
100
AcDbLine
 10
335.80004
 20
284.555045
 30
0.0
 11
336.117582
 21
285.105045
 31
0.0
  0
LINE
  5
49E
100
AcDbEntity
  8
1
  6
CONTINUOUS
 62
     2
100
AcDbLine
 10
335.482497
 20
285.105045
 30
0.0
 11
335.80004
 21
284.555045
 31
0.0
  0
LINE
  5
49F
100
AcDbEntity
  8
1
  6
CONTINUOUS
 62
     2
100
AcDbLine
 10
337.70004
 20
284.555045
 30
0.0
 11
338.017582
 21
285.105045
 31
0.0
  0
LINE
  5
4A0
100
AcDbEntity
  8
1
  6
CONTINUOUS
 62
     2
100
AcDbLine
 10
337.382497
 20
285.105045
 30
0.0
 11
337.70004
 21
284.555045
 31
0.0
  0
LINE
  5
4A1
100
AcDbEntity
  8
1
  6
CONTINUOUS
 62
     2
100
AcDbLine
 10
339.60004
 20
284.555045
 30
0.0
 11
339.917582
 21
285.105045
 31
0.0
  0
LINE
  5
4A2
100
AcDbEntity
  8
1
  6
CONTINUOUS
 62
     2
100
AcDbLine
 10
339.282497
 20
285.105045
 30
0.0
 11
339.60004
 21
284.555045
 31
0.0
  0
LINE
  5
4A3
100
AcDbEntity
  8
1
  6
CONTINUOUS
 62
     2
100
AcDbLine
 10
341.50004
 20
284.555045
 30
0.0
 11
341.817582
 21
285.105045
 31
0.0
  0
LINE
  5
4A4
100
AcDbEntity
  8
1
  6
CONTINUOUS
 62
     2
100
AcDbLine
 10
341.182497
 20
285.105045
 30
0.0
 11
341.50004
 21
284.555045
 31
0.0
  0
LINE
  5
4A5
100
AcDbEntity
  8
1
  6
CONTINUOUS
 62
     2
100
AcDbLine
 10
343.40004
 20
284.555045
 30
0.0
 11
343.717582
 21
285.105045
 31
0.0
  0
LINE
  5
4A6
100
AcDbEntity
  8
1
  6
CONTINUOUS
 62
     2
100
AcDbLine
 10
343.082497
 20
285.105045
 30
0.0
 11
343.40004
 21
284.555045
 31
0.0
  0
LINE
  5
4A7
100
AcDbEntity
  8
1
  6
CONTINUOUS
 62
     2
100
AcDbLine
 10
345.30004
 20
284.555045
 30
0.0
 11
345.617582
 21
285.105045
 31
0.0
  0
LINE
  5
4A8
100
AcDbEntity
  8
1
  6
CONTINUOUS
 62
     2
100
AcDbLine
 10
344.982497
 20
285.105045
 30
0.0
 11
345.30004
 21
284.555045
 31
0.0
  0
LINE
  5
4A9
100
AcDbEntity
  8
1
  6
CONTINUOUS
 62
     2
100
AcDbLine
 10
346.882497
 20
285.105045
 30
0.0
 11
347.20004
 21
284.555045
 31
0.0
  0
LINE
  5
4AA
100
AcDbEntity
  8
1
  6
CONTINUOUS
 62
     2
100
AcDbLine
 10
347.20004
 20
284.555045
 30
0.0
 11
347.517582
 21
285.105045
 31
0.0
  0
LINE
  5
4AB
100
AcDbEntity
  8
1
  6
CONTINUOUS
 62
     2
100
AcDbLine
 10
348.782497
 20
285.105045
 30
0.0
 11
349.10004
 21
284.555045
 31
0.0
  0
LINE
  5
4AC
100
AcDbEntity
  8
1
  6
CONTINUOUS
 62
     2
100
AcDbLine
 10
349.10004
 20
284.555045
 30
0.0
 11
349.417582
 21
285.105045
 31
0.0
  0
LINE
  5
4AD
100
AcDbEntity
  8
1
  6
CONTINUOUS
 62
     2
100
AcDbLine
 10
350.367582
 20
288.505045
 30
0.0
 11
350.05004
 21
289.055045
 31
0.0
  0
LINE
  5
4AE
100
AcDbEntity
  8
1
  6
CONTINUOUS
 62
     2
100
AcDbLine
 10
350.05004
 20
289.055045
 30
0.0
 11
349.732497
 21
288.505045
 31
0.0
  0
LINE
  5
4AF
100
AcDbEntity
  8
1
  6
CONTINUOUS
 62
     2
100
AcDbLine
 10
348.467582
 20
288.505045
 30
0.0
 11
348.15004
 21
289.055045
 31
0.0
  0
LINE
  5
4B0
100
AcDbEntity
  8
1
  6
CONTINUOUS
 62
     2
100
AcDbLine
 10
348.15004
 20
289.055045
 30
0.0
 11
347.832497
 21
288.505045
 31
0.0
  0
LINE
  5
4B1
100
AcDbEntity
  8
1
  6
CONTINUOUS
 62
     2
100
AcDbLine
 10
346.567582
 20
288.505045
 30
0.0
 11
346.25004
 21
289.055045
 31
0.0
  0
LINE
  5
4B2
100
AcDbEntity
  8
1
  6
CONTINUOUS
 62
     2
100
AcDbLine
 10
346.25004
 20
289.055045
 30
0.0
 11
345.932497
 21
288.505045
 31
0.0
  0
LINE
  5
4B3
100
AcDbEntity
  8
1
  6
CONTINUOUS
 62
     2
100
AcDbLine
 10
344.35004
 20
289.055045
 30
0.0
 11
344.032497
 21
288.505045
 31
0.0
  0
LINE
  5
4B4
100
AcDbEntity
  8
1
  6
CONTINUOUS
 62
     2
100
AcDbLine
 10
344.667582
 20
288.505045
 30
0.0
 11
344.35004
 21
289.055045
 31
0.0
  0
LINE
  5
4B5
100
AcDbEntity
  8
1
  6
CONTINUOUS
 62
     2
100
AcDbLine
 10
342.45004
 20
289.055045
 30
0.0
 11
342.132497
 21
288.505045
 31
0.0
  0
LINE
  5
4B6
100
AcDbEntity
  8
1
  6
CONTINUOUS
 62
     2
100
AcDbLine
 10
342.767582
 20
288.505045
 30
0.0
 11
342.45004
 21
289.055045
 31
0.0
  0
LINE
  5
4B7
100
AcDbEntity
  8
1
  6
CONTINUOUS
 62
     2
100
AcDbLine
 10
340.55004
 20
289.055045
 30
0.0
 11
340.232497
 21
288.505045
 31
0.0
  0
LINE
  5
4B8
100
AcDbEntity
  8
1
  6
CONTINUOUS
 62
     2
100
AcDbLine
 10
340.867582
 20
288.505045
 30
0.0
 11
340.55004
 21
289.055045
 31
0.0
  0
LINE
  5
4B9
100
AcDbEntity
  8
1
  6
CONTINUOUS
 62
     2
100
AcDbLine
 10
338.65004
 20
289.055045
 30
0.0
 11
338.332497
 21
288.505045
 31
0.0
  0
LINE
  5
4BA
100
AcDbEntity
  8
1
  6
CONTINUOUS
 62
     2
100
AcDbLine
 10
338.967582
 20
288.505045
 30
0.0
 11
338.65004
 21
289.055045
 31
0.0
  0
LINE
  5
4BB
100
AcDbEntity
  8
1
  6
CONTINUOUS
 62
     2
100
AcDbLine
 10
336.75004
 20
289.055045
 30
0.0
 11
336.432497
 21
288.505045
 31
0.0
  0
LINE
  5
4BC
100
AcDbEntity
  8
1
  6
CONTINUOUS
 62
     2
100
AcDbLine
 10
337.067582
 20
288.505045
 30
0.0
 11
336.75004
 21
289.055045
 31
0.0
  0
LINE
  5
4BD
100
AcDbEntity
  8
1
  6
CONTINUOUS
 62
     2
100
AcDbLine
 10
335.167582
 20
288.505045
 30
0.0
 11
334.85004
 21
289.055045
 31
0.0
  0
LINE
  5
4BE
100
AcDbEntity
  8
1
  6
CONTINUOUS
 62
     2
100
AcDbLine
 10
336.117582
 20
285.105045
 30
0.0
 11
337.382497
 21
285.105045
 31
0.0
  0
LINE
  5
4BF
100
AcDbEntity
  8
1
  6
CONTINUOUS
 62
     2
100
AcDbLine
 10
338.017582
 20
285.105045
 30
0.0
 11
339.282497
 21
285.105045
 31
0.0
  0
LINE
  5
4C0
100
AcDbEntity
  8
1
  6
CONTINUOUS
 62
     2
100
AcDbLine
 10
339.917582
 20
285.105045
 30
0.0
 11
341.182497
 21
285.105045
 31
0.0
  0
LINE
  5
4C1
100
AcDbEntity
  8
1
  6
CONTINUOUS
 62
     2
100
AcDbLine
 10
341.817582
 20
285.105045
 30
0.0
 11
343.082497
 21
285.105045
 31
0.0
  0
LINE
  5
4C2
100
AcDbEntity
  8
1
  6
CONTINUOUS
 62
     2
100
AcDbLine
 10
343.717582
 20
285.105045
 30
0.0
 11
344.982497
 21
285.105045
 31
0.0
  0
LINE
  5
4C3
100
AcDbEntity
  8
1
  6
CONTINUOUS
 62
     2
100
AcDbLine
 10
345.617582
 20
285.105045
 30
0.0
 11
346.882497
 21
285.105045
 31
0.0
  0
LINE
  5
4C4
100
AcDbEntity
  8
1
  6
CONTINUOUS
 62
     2
100
AcDbLine
 10
347.517582
 20
285.105045
 30
0.0
 11
348.782497
 21
285.105045
 31
0.0
  0
LINE
  5
4C5
100
AcDbEntity
  8
1
  6
CONTINUOUS
 62
     2
100
AcDbLine
 10
349.417582
 20
285.105045
 30
0.0
 11
350.682497
 21
285.105045
 31
0.0
  0
LINE
  5
4C6
100
AcDbEntity
  8
1
  6
CONTINUOUS
 62
     2
100
AcDbLine
 10
335.167582
 20
288.505045
 30
0.0
 11
336.432497
 21
288.505045
 31
0.0
  0
LINE
  5
4C7
100
AcDbEntity
  8
1
  6
CONTINUOUS
 62
     2
100
AcDbLine
 10
337.067582
 20
288.505045
 30
0.0
 11
338.332497
 21
288.505045
 31
0.0
  0
LINE
  5
4C8
100
AcDbEntity
  8
1
  6
CONTINUOUS
 62
     2
100
AcDbLine
 10
338.967582
 20
288.505045
 30
0.0
 11
340.232497
 21
288.505045
 31
0.0
  0
LINE
  5
4C9
100
AcDbEntity
  8
1
  6
CONTINUOUS
 62
     2
100
AcDbLine
 10
340.867582
 20
288.505045
 30
0.0
 11
342.132497
 21
288.505045
 31
0.0
  0
LINE
  5
4CA
100
AcDbEntity
  8
1
  6
CONTINUOUS
 62
     2
100
AcDbLine
 10
342.767582
 20
288.505045
 30
0.0
 11
344.032497
 21
288.505045
 31
0.0
  0
LINE
  5
4CB
100
AcDbEntity
  8
1
  6
CONTINUOUS
 62
     2
100
AcDbLine
 10
344.667582
 20
288.505045
 30
0.0
 11
345.932497
 21
288.505045
 31
0.0
  0
LINE
  5
4CC
100
AcDbEntity
  8
1
  6
CONTINUOUS
 62
     2
100
AcDbLine
 10
346.567582
 20
288.505045
 30
0.0
 11
347.832497
 21
288.505045
 31
0.0
  0
LINE
  5
4CD
100
AcDbEntity
  8
1
  6
CONTINUOUS
 62
     2
100
AcDbLine
 10
348.467582
 20
288.505045
 30
0.0
 11
349.732497
 21
288.505045
 31
0.0
  0
LINE
  5
4CE
100
AcDbEntity
  8
1
  6
CONTINUOUS
 62
     2
100
AcDbLine
 10
335.80004
 20
284.555045
 30
0.0
 11
334.85004
 21
289.055045
 31
0.0
  0
LINE
  5
4CF
100
AcDbEntity
  8
1
  6
CONTINUOUS
 62
     2
100
AcDbLine
 10
336.117582
 20
285.105045
 30
0.0
 11
335.167582
 21
288.505045
 31
0.0
  0
LINE
  5
4D0
100
AcDbEntity
  8
1
  6
CONTINUOUS
 62
     2
100
AcDbLine
 10
337.382497
 20
285.105045
 30
0.0
 11
336.432497
 21
288.505045
 31
0.0
  0
LINE
  5
4D1
100
AcDbEntity
  8
1
  6
CONTINUOUS
 62
     2
100
AcDbLine
 10
337.70004
 20
284.555045
 30
0.0
 11
336.75004
 21
289.055045
 31
0.0
  0
LINE
  5
4D2
100
AcDbEntity
  8
1
  6
CONTINUOUS
 62
     2
100
AcDbLine
 10
338.017582
 20
285.105045
 30
0.0
 11
337.067582
 21
288.505045
 31
0.0
  0
LINE
  5
4D3
100
AcDbEntity
  8
1
  6
CONTINUOUS
 62
     2
100
AcDbLine
 10
339.282497
 20
285.105045
 30
0.0
 11
338.332497
 21
288.505045
 31
0.0
  0
LINE
  5
4D4
100
AcDbEntity
  8
1
  6
CONTINUOUS
 62
     2
100
AcDbLine
 10
339.60004
 20
284.555045
 30
0.0
 11
338.65004
 21
289.055045
 31
0.0
  0
LINE
  5
4D5
100
AcDbEntity
  8
1
  6
CONTINUOUS
 62
     2
100
AcDbLine
 10
339.917582
 20
285.105045
 30
0.0
 11
338.967582
 21
288.505045
 31
0.0
  0
LINE
  5
4D6
100
AcDbEntity
  8
1
  6
CONTINUOUS
 62
     2
100
AcDbLine
 10
341.182497
 20
285.105045
 30
0.0
 11
340.232497
 21
288.505045
 31
0.0
  0
LINE
  5
4D7
100
AcDbEntity
  8
1
  6
CONTINUOUS
 62
     2
100
AcDbLine
 10
341.50004
 20
284.555045
 30
0.0
 11
340.55004
 21
289.055045
 31
0.0
  0
LINE
  5
4D8
100
AcDbEntity
  8
1
  6
CONTINUOUS
 62
     2
100
AcDbLine
 10
341.817582
 20
285.105045
 30
0.0
 11
340.867582
 21
288.505045
 31
0.0
  0
LINE
  5
4D9
100
AcDbEntity
  8
1
  6
CONTINUOUS
 62
     2
100
AcDbLine
 10
343.082497
 20
285.105045
 30
0.0
 11
342.132497
 21
288.505045
 31
0.0
  0
LINE
  5
4DA
100
AcDbEntity
  8
1
  6
CONTINUOUS
 62
     2
100
AcDbLine
 10
343.40004
 20
284.555045
 30
0.0
 11
342.45004
 21
289.055045
 31
0.0
  0
LINE
  5
4DB
100
AcDbEntity
  8
1
  6
CONTINUOUS
 62
     2
100
AcDbLine
 10
343.717582
 20
285.105045
 30
0.0
 11
342.767582
 21
288.505045
 31
0.0
  0
LINE
  5
4DC
100
AcDbEntity
  8
1
  6
CONTINUOUS
 62
     2
100
AcDbLine
 10
344.982497
 20
285.105045
 30
0.0
 11
344.032497
 21
288.505045
 31
0.0
  0
LINE
  5
4DD
100
AcDbEntity
  8
1
  6
CONTINUOUS
 62
     2
100
AcDbLine
 10
345.30004
 20
284.555045
 30
0.0
 11
344.35004
 21
289.055045
 31
0.0
  0
LINE
  5
4DE
100
AcDbEntity
  8
1
  6
CONTINUOUS
 62
     2
100
AcDbLine
 10
345.617582
 20
285.105045
 30
0.0
 11
344.667582
 21
288.505045
 31
0.0
  0
LINE
  5
4DF
100
AcDbEntity
  8
1
  6
CONTINUOUS
 62
     2
100
AcDbLine
 10
346.882497
 20
285.105045
 30
0.0
 11
345.932497
 21
288.505045
 31
0.0
  0
LINE
  5
4E0
100
AcDbEntity
  8
1
  6
CONTINUOUS
 62
     2
100
AcDbLine
 10
347.20004
 20
284.555045
 30
0.0
 11
346.25004
 21
289.055045
 31
0.0
  0
LINE
  5
4E1
100
AcDbEntity
  8
1
  6
CONTINUOUS
 62
     2
100
AcDbLine
 10
347.517582
 20
285.105045
 30
0.0
 11
346.567582
 21
288.505045
 31
0.0
  0
LINE
  5
4E2
100
AcDbEntity
  8
1
  6
CONTINUOUS
 62
     2
100
AcDbLine
 10
348.782497
 20
285.105045
 30
0.0
 11
347.832497
 21
288.505045
 31
0.0
  0
LINE
  5
4E3
100
AcDbEntity
  8
1
  6
CONTINUOUS
 62
     2
100
AcDbLine
 10
349.10004
 20
284.555045
 30
0.0
 11
348.15004
 21
289.055045
 31
0.0
  0
LINE
  5
4E4
100
AcDbEntity
  8
1
  6
CONTINUOUS
 62
     2
100
AcDbLine
 10
349.417582
 20
285.105045
 30
0.0
 11
348.467582
 21
288.505045
 31
0.0
  0
LINE
  5
4E5
100
AcDbEntity
  8
1
  6
CONTINUOUS
 62
     2
100
AcDbLine
 10
351.00004
 20
284.731412
 30
0.0
 11
350.763867
 21
285.140474
 31
0.0
  0
LINE
  5
4E6
100
AcDbEntity
  8
1
  6
CONTINUOUS
 62
     2
100
AcDbLine
 10
351.00004
 20
284.731412
 30
0.0
 11
351.384676
 21
285.397622
 31
0.0
  0
LINE
  5
4E7
100
AcDbEntity
  8
1
  6
CONTINUOUS
 62
     2
100
AcDbLine
 10
350.763867
 20
285.140474
 30
0.0
 11
350.682497
 21
285.105045
 31
0.0
  0
LINE
  5
4E8
100
AcDbEntity
  8
1
  6
CONTINUOUS
 62
     2
100
AcDbLine
 10
352.90004
 20
285.773037
 30
0.0
 11
352.782501
 21
285.97662
 31
0.0
  0
LINE
  5
4E9
100
AcDbEntity
  8
1
  6
CONTINUOUS
 62
     2
100
AcDbLine
 10
352.90004
 20
285.773037
 30
0.0
 11
353.091466
 21
286.104597
 31
0.0
  0
LINE
  5
4EA
100
AcDbEntity
  8
1
  6
CONTINUOUS
 62
     2
100
AcDbLine
 10
351.95004
 20
288.357866
 30
0.0
 11
351.773184
 21
288.051543
 31
0.0
  0
LINE
  5
4EB
100
AcDbEntity
  8
1
  6
CONTINUOUS
 62
     2
100
AcDbLine
 10
351.95004
 20
288.357866
 30
0.0
 11
352.238071
 21
287.858981
 31
0.0
  0
LINE
  5
4EC
100
AcDbEntity
  8
1
  6
CONTINUOUS
 62
     2
100
AcDbLine
 10
353.85004
 20
287.316241
 30
0.0
 11
353.791818
 21
287.215398
 31
0.0
  0
LINE
  5
4ED
100
AcDbEntity
  8
1
  6
CONTINUOUS
 62
     2
100
AcDbLine
 10
353.85004
 20
287.316241
 30
0.0
 11
353.944861
 21
287.152005
 31
0.0
  0
LINE
  5
4EE
100
AcDbEntity
  8
1
  6
CONTINUOUS
 62
     2
100
AcDbLine
 10
354.782497
 20
286.805045
 30
0.0
 11
353.944861
 21
287.152005
 31
0.0
  0
LINE
  5
4EF
100
AcDbEntity
  8
1
  6
CONTINUOUS
 62
     2
100
AcDbLine
 10
353.791818
 20
287.215398
 30
0.0
 11
352.238071
 21
287.858981
 31
0.0
  0
LINE
  5
4F0
100
AcDbEntity
  8
1
  6
CONTINUOUS
 62
     2
100
AcDbLine
 10
351.773184
 20
288.051543
 30
0.0
 11
350.678334
 21
288.505045
 31
0.0
  0
LINE
  5
4F1
100
AcDbEntity
  8
1
  6
CONTINUOUS
 62
     2
100
AcDbLine
 10
350.678334
 20
288.505045
 30
0.0
 11
350.367582
 21
288.505045
 31
0.0
  0
LINE
  5
4F2
100
AcDbEntity
  8
1
  6
CONTINUOUS
 62
     2
100
AcDbLine
 10
354.782497
 20
286.805045
 30
0.0
 11
353.091466
 21
286.104597
 31
0.0
  0
LINE
  5
4F3
100
AcDbEntity
  8
1
  6
CONTINUOUS
 62
     2
100
AcDbLine
 10
352.782501
 20
285.97662
 30
0.0
 11
351.384676
 21
285.397622
 31
0.0
  0
LINE
  5
4F4
100
AcDbEntity
  8
1
  6
CONTINUOUS
 62
     2
100
AcDbLine
 10
350.763867
 20
285.140474
 30
0.0
 11
349.732497
 21
288.505045
 31
0.0
  0
LINE
  5
4F5
100
AcDbEntity
  8
1
  6
CONTINUOUS
 62
     2
100
AcDbLine
 10
351.00004
 20
284.731412
 30
0.0
 11
350.05004
 21
289.055045
 31
0.0
  0
LINE
  5
4F6
100
AcDbEntity
  8
1
  6
CONTINUOUS
 62
     2
100
AcDbLine
 10
351.384676
 20
285.397622
 30
0.0
 11
350.367582
 21
288.505045
 31
0.0
  0
LINE
  5
4F7
100
AcDbEntity
  8
1
  6
CONTINUOUS
 62
     2
100
AcDbLine
 10
352.782501
 20
285.97662
 30
0.0
 11
351.773184
 21
288.051543
 31
0.0
  0
LINE
  5
4F8
100
AcDbEntity
  8
1
  6
CONTINUOUS
 62
     2
100
AcDbLine
 10
352.90004
 20
285.773037
 30
0.0
 11
351.95004
 21
288.357866
 31
0.0
  0
LINE
  5
4F9
100
AcDbEntity
  8
1
  6
CONTINUOUS
 62
     2
100
AcDbLine
 10
353.091466
 20
286.104597
 30
0.0
 11
352.238071
 21
287.858981
 31
0.0
  0
LINE
  5
4FA
100
AcDbEntity
  8
1
  6
CONTINUOUS
 62
     2
100
AcDbLine
 10
354.037919
 20
286.805045
 30
0.0
 11
353.85004
 21
287.316241
 31
0.0
  0
LINE
  5
4FB
100
AcDbEntity
  8
1
  6
CONTINUOUS
 62
     2
100
AcDbLine
 10
353.944861
 20
287.152005
 30
0.0
 11
354.037919
 21
286.805045
 31
0.0
  0
LINE
  5
4FC
100
AcDbEntity
  8
1
  6
CONTINUOUS
 62
     2
100
AcDbLine
 10
353.791818
 20
287.215398
 30
0.0
 11
354.037919
 21
286.805045
 31
0.0
  0
LINE
  5
4FD
100
AcDbEntity
  8
1
  6
CONTINUOUS
 62
     2
100
AcDbLine
 10
331.367582
 20
288.505045
 30
0.0
 11
332.632497
 21
288.505045
 31
0.0
  0
LINE
  5
4FE
100
AcDbEntity
  8
1
  6
CONTINUOUS
 62
     2
100
AcDbLine
 10
332.317582
 20
285.105045
 30
0.0
 11
333.582497
 21
285.105045
 31
0.0
  0
LINE
  5
4FF
100
AcDbEntity
  8
1
  6
CONTINUOUS
 62
     2
100
AcDbLine
 10
333.582497
 20
285.105045
 30
0.0
 11
332.632497
 21
288.505045
 31
0.0
  0
LINE
  5
500
100
AcDbEntity
  8
1
  6
CONTINUOUS
 62
     2
100
AcDbLine
 10
333.90004
 20
284.555045
 30
0.0
 11
332.95004
 21
289.055045
 31
0.0
  0
LINE
  5
501
100
AcDbEntity
  8
1
  6
CONTINUOUS
 62
     2
100
AcDbLine
 10
332.95004
 20
289.055045
 30
0.0
 11
332.632497
 21
288.505045
 31
0.0
  0
LINE
  5
502
100
AcDbEntity
  8
1
  6
CONTINUOUS
 62
     2
100
AcDbLine
 10
334.217582
 20
285.105045
 30
0.0
 11
333.267582
 21
288.505045
 31
0.0
  0
LINE
  5
503
100
AcDbEntity
  8
1
  6
CONTINUOUS
 62
     2
100
AcDbLine
 10
333.267582
 20
288.505045
 30
0.0
 11
332.95004
 21
289.055045
 31
0.0
  0
LINE
  5
504
100
AcDbEntity
  8
1
  6
CONTINUOUS
 62
     2
100
AcDbLine
 10
333.90004
 20
284.555045
 30
0.0
 11
334.217582
 21
285.105045
 31
0.0
  0
LINE
  5
505
100
AcDbEntity
  8
1
  6
CONTINUOUS
 62
     2
100
AcDbLine
 10
333.582497
 20
285.105045
 30
0.0
 11
333.90004
 21
284.555045
 31
0.0
  0
LINE
  5
506
100
AcDbEntity
  8
1
  6
CONTINUOUS
 62
     2
100
AcDbLine
 10
330.417582
 20
285.105045
 30
0.0
 11
331.682497
 21
285.105045
 31
0.0
  0
LINE
  5
507
100
AcDbEntity
  8
1
  6
CONTINUOUS
 62
     2
100
AcDbLine
 10
331.682497
 20
285.105045
 30
0.0
 11
330.732497
 21
288.505045
 31
0.0
  0
LINE
  5
508
100
AcDbEntity
  8
1
  6
CONTINUOUS
 62
     2
100
AcDbLine
 10
332.00004
 20
284.555045
 30
0.0
 11
331.05004
 21
289.055045
 31
0.0
  0
LINE
  5
509
100
AcDbEntity
  8
1
  6
CONTINUOUS
 62
     2
100
AcDbLine
 10
331.05004
 20
289.055045
 30
0.0
 11
330.732497
 21
288.505045
 31
0.0
  0
LINE
  5
50A
100
AcDbEntity
  8
1
  6
CONTINUOUS
 62
     2
100
AcDbLine
 10
332.317582
 20
285.105045
 30
0.0
 11
331.367582
 21
288.505045
 31
0.0
  0
LINE
  5
50B
100
AcDbEntity
  8
1
  6
CONTINUOUS
 62
     2
100
AcDbLine
 10
331.367582
 20
288.505045
 30
0.0
 11
331.05004
 21
289.055045
 31
0.0
  0
LINE
  5
50C
100
AcDbEntity
  8
1
  6
CONTINUOUS
 62
     2
100
AcDbLine
 10
332.00004
 20
284.555045
 30
0.0
 11
332.317582
 21
285.105045
 31
0.0
  0
LINE
  5
50D
100
AcDbEntity
  8
1
  6
CONTINUOUS
 62
     2
100
AcDbLine
 10
331.682497
 20
285.105045
 30
0.0
 11
332.00004
 21
284.555045
 31
0.0
  0
LINE
  5
50E
100
AcDbEntity
  8
1
  6
CONTINUOUS
 62
     2
100
AcDbLine
 10
330.10004
 20
284.555045
 30
0.0
 11
330.417582
 21
285.105045
 31
0.0
  0
LINE
  5
50F
100
AcDbEntity
  8
1
  6
CONTINUOUS
 62
     2
100
AcDbLine
 10
329.782497
 20
285.105045
 30
0.0
 11
330.10004
 21
284.555045
 31
0.0
  0
LINE
  5
510
100
AcDbEntity
  8
1
  6
CONTINUOUS
 62
     2
100
AcDbLine
 10
334.217582
 20
285.105045
 30
0.0
 11
335.482497
 21
285.105045
 31
0.0
  0
LINE
  5
511
100
AcDbEntity
  8
1
  6
CONTINUOUS
 62
     2
100
AcDbLine
 10
335.482497
 20
285.105045
 30
0.0
 11
334.532497
 21
288.505045
 31
0.0
  0
LINE
  5
512
100
AcDbEntity
  8
1
  6
CONTINUOUS
 62
     2
100
AcDbLine
 10
334.85004
 20
289.055045
 30
0.0
 11
334.532497
 21
288.505045
 31
0.0
  0
LINE
  5
513
100
AcDbEntity
  8
1
  6
CONTINUOUS
 62
     2
100
AcDbLine
 10
333.267582
 20
288.505045
 30
0.0
 11
334.532497
 21
288.505045
 31
0.0
  0
LINE
  5
514
100
AcDbEntity
  8
1
  6
CONTINUOUS
 62
     2
100
AcDbLine
 10
330.10004
 20
284.555045
 30
0.0
 11
329.782497
 21
286.059195
 31
0.0
  0
LINE
  5
515
100
AcDbEntity
  8
1
  6
CONTINUOUS
 62
     2
100
AcDbLine
 10
330.417582
 20
285.105045
 30
0.0
 11
329.782497
 21
287.377982
 31
0.0
  0
LINE
  5
516
100
AcDbEntity
  8
1
  6
CONTINUOUS
 62
     2
100
AcDbLine
 10
329.782497
 20
288.505045
 30
0.0
 11
330.732497
 21
288.505045
 31
0.0
  0
LINE
  5
517
100
AcDbEntity
  8
1
  6
CONTINUOUS
 62
     2
100
AcDbLine
 10
149.45
 20
440.64861
 30
0.0
 11
148.9
 21
440.966152
 31
0.0
  0
LINE
  5
518
100
AcDbEntity
  8
1
  6
CONTINUOUS
 62
     2
100
AcDbLine
 10
148.9
 20
440.331067
 30
0.0
 11
149.45
 21
440.64861
 31
0.0
  0
LINE
  5
519
100
AcDbEntity
  8
1
  6
CONTINUOUS
 62
     2
100
AcDbLine
 10
149.45
 20
442.54861
 30
0.0
 11
148.9
 21
442.866152
 31
0.0
  0
LINE
  5
51A
100
AcDbEntity
  8
1
  6
CONTINUOUS
 62
     2
100
AcDbLine
 10
148.9
 20
442.231067
 30
0.0
 11
149.45
 21
442.54861
 31
0.0
  0
LINE
  5
51B
100
AcDbEntity
  8
1
  6
CONTINUOUS
 62
     2
100
AcDbLine
 10
149.45
 20
444.44861
 30
0.0
 11
148.9
 21
444.766152
 31
0.0
  0
LINE
  5
51C
100
AcDbEntity
  8
1
  6
CONTINUOUS
 62
     2
100
AcDbLine
 10
148.9
 20
444.131067
 30
0.0
 11
149.45
 21
444.44861
 31
0.0
  0
LINE
  5
51D
100
AcDbEntity
  8
1
  6
CONTINUOUS
 62
     2
100
AcDbLine
 10
149.45
 20
446.34861
 30
0.0
 11
148.9
 21
446.666152
 31
0.0
  0
LINE
  5
51E
100
AcDbEntity
  8
1
  6
CONTINUOUS
 62
     2
100
AcDbLine
 10
148.9
 20
446.031067
 30
0.0
 11
149.45
 21
446.34861
 31
0.0
  0
LINE
  5
51F
100
AcDbEntity
  8
1
  6
CONTINUOUS
 62
     2
100
AcDbLine
 10
149.45
 20
448.24861
 30
0.0
 11
148.9
 21
448.566152
 31
0.0
  0
LINE
  5
520
100
AcDbEntity
  8
1
  6
CONTINUOUS
 62
     2
100
AcDbLine
 10
148.9
 20
447.931067
 30
0.0
 11
149.45
 21
448.24861
 31
0.0
  0
LINE
  5
521
100
AcDbEntity
  8
1
  6
CONTINUOUS
 62
     2
100
AcDbLine
 10
149.45
 20
450.14861
 30
0.0
 11
148.9
 21
450.466152
 31
0.0
  0
LINE
  5
522
100
AcDbEntity
  8
1
  6
CONTINUOUS
 62
     2
100
AcDbLine
 10
148.9
 20
449.831067
 30
0.0
 11
149.45
 21
450.14861
 31
0.0
  0
LINE
  5
523
100
AcDbEntity
  8
1
  6
CONTINUOUS
 62
     2
100
AcDbLine
 10
149.45
 20
452.04861
 30
0.0
 11
148.9
 21
452.366152
 31
0.0
  0
LINE
  5
524
100
AcDbEntity
  8
1
  6
CONTINUOUS
 62
     2
100
AcDbLine
 10
148.9
 20
451.731067
 30
0.0
 11
149.45
 21
452.04861
 31
0.0
  0
LINE
  5
525
100
AcDbEntity
  8
1
  6
CONTINUOUS
 62
     2
100
AcDbLine
 10
148.9
 20
453.631067
 30
0.0
 11
149.45
 21
453.94861
 31
0.0
  0
LINE
  5
526
100
AcDbEntity
  8
1
  6
CONTINUOUS
 62
     2
100
AcDbLine
 10
149.45
 20
453.94861
 30
0.0
 11
148.9
 21
454.266152
 31
0.0
  0
LINE
  5
527
100
AcDbEntity
  8
1
  6
CONTINUOUS
 62
     2
100
AcDbLine
 10
148.9
 20
455.531067
 30
0.0
 11
149.45
 21
455.84861
 31
0.0
  0
LINE
  5
528
100
AcDbEntity
  8
1
  6
CONTINUOUS
 62
     2
100
AcDbLine
 10
149.45
 20
455.84861
 30
0.0
 11
148.9
 21
456.166152
 31
0.0
  0
LINE
  5
529
100
AcDbEntity
  8
1
  6
CONTINUOUS
 62
     2
100
AcDbLine
 10
145.5
 20
457.116152
 30
0.0
 11
144.95
 21
456.79861
 31
0.0
  0
LINE
  5
52A
100
AcDbEntity
  8
1
  6
CONTINUOUS
 62
     2
100
AcDbLine
 10
144.95
 20
456.79861
 30
0.0
 11
145.5
 21
456.481067
 31
0.0
  0
LINE
  5
52B
100
AcDbEntity
  8
1
  6
CONTINUOUS
 62
     2
100
AcDbLine
 10
145.5
 20
455.216152
 30
0.0
 11
144.95
 21
454.89861
 31
0.0
  0
LINE
  5
52C
100
AcDbEntity
  8
1
  6
CONTINUOUS
 62
     2
100
AcDbLine
 10
144.95
 20
454.89861
 30
0.0
 11
145.5
 21
454.581067
 31
0.0
  0
LINE
  5
52D
100
AcDbEntity
  8
1
  6
CONTINUOUS
 62
     2
100
AcDbLine
 10
145.5
 20
453.316152
 30
0.0
 11
144.95
 21
452.99861
 31
0.0
  0
LINE
  5
52E
100
AcDbEntity
  8
1
  6
CONTINUOUS
 62
     2
100
AcDbLine
 10
144.95
 20
452.99861
 30
0.0
 11
145.5
 21
452.681067
 31
0.0
  0
LINE
  5
52F
100
AcDbEntity
  8
1
  6
CONTINUOUS
 62
     2
100
AcDbLine
 10
144.95
 20
451.09861
 30
0.0
 11
145.5
 21
450.781067
 31
0.0
  0
LINE
  5
530
100
AcDbEntity
  8
1
  6
CONTINUOUS
 62
     2
100
AcDbLine
 10
145.5
 20
451.416152
 30
0.0
 11
144.95
 21
451.09861
 31
0.0
  0
LINE
  5
531
100
AcDbEntity
  8
1
  6
CONTINUOUS
 62
     2
100
AcDbLine
 10
144.95
 20
449.19861
 30
0.0
 11
145.5
 21
448.881067
 31
0.0
  0
LINE
  5
532
100
AcDbEntity
  8
1
  6
CONTINUOUS
 62
     2
100
AcDbLine
 10
145.5
 20
449.516152
 30
0.0
 11
144.95
 21
449.19861
 31
0.0
  0
LINE
  5
533
100
AcDbEntity
  8
1
  6
CONTINUOUS
 62
     2
100
AcDbLine
 10
144.95
 20
447.29861
 30
0.0
 11
145.5
 21
446.981067
 31
0.0
  0
LINE
  5
534
100
AcDbEntity
  8
1
  6
CONTINUOUS
 62
     2
100
AcDbLine
 10
145.5
 20
447.616152
 30
0.0
 11
144.95
 21
447.29861
 31
0.0
  0
LINE
  5
535
100
AcDbEntity
  8
1
  6
CONTINUOUS
 62
     2
100
AcDbLine
 10
144.95
 20
445.39861
 30
0.0
 11
145.5
 21
445.081067
 31
0.0
  0
LINE
  5
536
100
AcDbEntity
  8
1
  6
CONTINUOUS
 62
     2
100
AcDbLine
 10
145.5
 20
445.716152
 30
0.0
 11
144.95
 21
445.39861
 31
0.0
  0
LINE
  5
537
100
AcDbEntity
  8
1
  6
CONTINUOUS
 62
     2
100
AcDbLine
 10
144.95
 20
443.49861
 30
0.0
 11
145.5
 21
443.181067
 31
0.0
  0
LINE
  5
538
100
AcDbEntity
  8
1
  6
CONTINUOUS
 62
     2
100
AcDbLine
 10
145.5
 20
443.816152
 30
0.0
 11
144.95
 21
443.49861
 31
0.0
  0
LINE
  5
539
100
AcDbEntity
  8
1
  6
CONTINUOUS
 62
     2
100
AcDbLine
 10
144.95
 20
441.59861
 30
0.0
 11
145.5
 21
441.281067
 31
0.0
  0
LINE
  5
53A
100
AcDbEntity
  8
1
  6
CONTINUOUS
 62
     2
100
AcDbLine
 10
145.5
 20
441.916152
 30
0.0
 11
144.95
 21
441.59861
 31
0.0
  0
LINE
  5
53B
100
AcDbEntity
  8
1
  6
CONTINUOUS
 62
     2
100
AcDbLine
 10
144.95
 20
439.69861
 30
0.0
 11
145.5
 21
439.381067
 31
0.0
  0
LINE
  5
53C
100
AcDbEntity
  8
1
  6
CONTINUOUS
 62
     2
100
AcDbLine
 10
145.5
 20
440.016152
 30
0.0
 11
144.95
 21
439.69861
 31
0.0
  0
LINE
  5
53D
100
AcDbEntity
  8
1
  6
CONTINUOUS
 62
     2
100
AcDbLine
 10
145.5
 20
440.016152
 30
0.0
 11
145.5
 21
441.281067
 31
0.0
  0
LINE
  5
53E
100
AcDbEntity
  8
1
  6
CONTINUOUS
 62
     2
100
AcDbLine
 10
148.9
 20
440.966152
 30
0.0
 11
148.9
 21
442.231067
 31
0.0
  0
LINE
  5
53F
100
AcDbEntity
  8
1
  6
CONTINUOUS
 62
     2
100
AcDbLine
 10
148.9
 20
442.866152
 30
0.0
 11
148.9
 21
444.131067
 31
0.0
  0
LINE
  5
540
100
AcDbEntity
  8
1
  6
CONTINUOUS
 62
     2
100
AcDbLine
 10
148.9
 20
444.766152
 30
0.0
 11
148.9
 21
446.031067
 31
0.0
  0
LINE
  5
541
100
AcDbEntity
  8
1
  6
CONTINUOUS
 62
     2
100
AcDbLine
 10
148.9
 20
446.666152
 30
0.0
 11
148.9
 21
447.931067
 31
0.0
  0
LINE
  5
542
100
AcDbEntity
  8
1
  6
CONTINUOUS
 62
     2
100
AcDbLine
 10
148.9
 20
448.566152
 30
0.0
 11
148.9
 21
449.831067
 31
0.0
  0
LINE
  5
543
100
AcDbEntity
  8
1
  6
CONTINUOUS
 62
     2
100
AcDbLine
 10
148.9
 20
450.466152
 30
0.0
 11
148.9
 21
451.731067
 31
0.0
  0
LINE
  5
544
100
AcDbEntity
  8
1
  6
CONTINUOUS
 62
     2
100
AcDbLine
 10
148.9
 20
452.366152
 30
0.0
 11
148.9
 21
453.631067
 31
0.0
  0
LINE
  5
545
100
AcDbEntity
  8
1
  6
CONTINUOUS
 62
     2
100
AcDbLine
 10
148.9
 20
454.266152
 30
0.0
 11
148.9
 21
455.531067
 31
0.0
  0
LINE
  5
546
100
AcDbEntity
  8
1
  6
CONTINUOUS
 62
     2
100
AcDbLine
 10
148.9
 20
456.166152
 30
0.0
 11
148.9
 21
457.431067
 31
0.0
  0
LINE
  5
547
100
AcDbEntity
  8
1
  6
CONTINUOUS
 62
     2
100
AcDbLine
 10
145.5
 20
441.916152
 30
0.0
 11
145.5
 21
443.181067
 31
0.0
  0
LINE
  5
548
100
AcDbEntity
  8
1
  6
CONTINUOUS
 62
     2
100
AcDbLine
 10
145.5
 20
443.816152
 30
0.0
 11
145.5
 21
445.081067
 31
0.0
  0
LINE
  5
549
100
AcDbEntity
  8
1
  6
CONTINUOUS
 62
     2
100
AcDbLine
 10
145.5
 20
445.716152
 30
0.0
 11
145.5
 21
446.981067
 31
0.0
  0
LINE
  5
54A
100
AcDbEntity
  8
1
  6
CONTINUOUS
 62
     2
100
AcDbLine
 10
145.5
 20
447.616152
 30
0.0
 11
145.5
 21
448.881067
 31
0.0
  0
LINE
  5
54B
100
AcDbEntity
  8
1
  6
CONTINUOUS
 62
     2
100
AcDbLine
 10
145.5
 20
449.516152
 30
0.0
 11
145.5
 21
450.781067
 31
0.0
  0
LINE
  5
54C
100
AcDbEntity
  8
1
  6
CONTINUOUS
 62
     2
100
AcDbLine
 10
145.5
 20
451.416152
 30
0.0
 11
145.5
 21
452.681067
 31
0.0
  0
LINE
  5
54D
100
AcDbEntity
  8
1
  6
CONTINUOUS
 62
     2
100
AcDbLine
 10
145.5
 20
453.316152
 30
0.0
 11
145.5
 21
454.581067
 31
0.0
  0
LINE
  5
54E
100
AcDbEntity
  8
1
  6
CONTINUOUS
 62
     2
100
AcDbLine
 10
145.5
 20
455.216152
 30
0.0
 11
145.5
 21
456.481067
 31
0.0
  0
LINE
  5
54F
100
AcDbEntity
  8
1
  6
CONTINUOUS
 62
     2
100
AcDbLine
 10
148.9
 20
440.331067
 30
0.0
 11
145.5
 21
439.381067
 31
0.0
  0
LINE
  5
550
100
AcDbEntity
  8
1
  6
CONTINUOUS
 62
     2
100
AcDbLine
 10
149.45
 20
440.64861
 30
0.0
 11
144.95
 21
439.69861
 31
0.0
  0
LINE
  5
551
100
AcDbEntity
  8
1
  6
CONTINUOUS
 62
     2
100
AcDbLine
 10
148.9
 20
440.966152
 30
0.0
 11
145.5
 21
440.016152
 31
0.0
  0
LINE
  5
552
100
AcDbEntity
  8
1
  6
CONTINUOUS
 62
     2
100
AcDbLine
 10
148.9
 20
442.231067
 30
0.0
 11
145.5
 21
441.281067
 31
0.0
  0
LINE
  5
553
100
AcDbEntity
  8
1
  6
CONTINUOUS
 62
     2
100
AcDbLine
 10
149.45
 20
442.54861
 30
0.0
 11
144.95
 21
441.59861
 31
0.0
  0
LINE
  5
554
100
AcDbEntity
  8
1
  6
CONTINUOUS
 62
     2
100
AcDbLine
 10
148.9
 20
442.866152
 30
0.0
 11
145.5
 21
441.916152
 31
0.0
  0
LINE
  5
555
100
AcDbEntity
  8
1
  6
CONTINUOUS
 62
     2
100
AcDbLine
 10
148.9
 20
444.131067
 30
0.0
 11
145.5
 21
443.181067
 31
0.0
  0
LINE
  5
556
100
AcDbEntity
  8
1
  6
CONTINUOUS
 62
     2
100
AcDbLine
 10
149.45
 20
444.44861
 30
0.0
 11
144.95
 21
443.49861
 31
0.0
  0
LINE
  5
557
100
AcDbEntity
  8
1
  6
CONTINUOUS
 62
     2
100
AcDbLine
 10
148.9
 20
444.766152
 30
0.0
 11
145.5
 21
443.816152
 31
0.0
  0
LINE
  5
558
100
AcDbEntity
  8
1
  6
CONTINUOUS
 62
     2
100
AcDbLine
 10
148.9
 20
446.031067
 30
0.0
 11
145.5
 21
445.081067
 31
0.0
  0
LINE
  5
559
100
AcDbEntity
  8
1
  6
CONTINUOUS
 62
     2
100
AcDbLine
 10
149.45
 20
446.34861
 30
0.0
 11
144.95
 21
445.39861
 31
0.0
  0
LINE
  5
55A
100
AcDbEntity
  8
1
  6
CONTINUOUS
 62
     2
100
AcDbLine
 10
148.9
 20
446.666152
 30
0.0
 11
145.5
 21
445.716152
 31
0.0
  0
LINE
  5
55B
100
AcDbEntity
  8
1
  6
CONTINUOUS
 62
     2
100
AcDbLine
 10
148.9
 20
447.931067
 30
0.0
 11
145.5
 21
446.981067
 31
0.0
  0
LINE
  5
55C
100
AcDbEntity
  8
1
  6
CONTINUOUS
 62
     2
100
AcDbLine
 10
149.45
 20
448.24861
 30
0.0
 11
144.95
 21
447.29861
 31
0.0
  0
LINE
  5
55D
100
AcDbEntity
  8
1
  6
CONTINUOUS
 62
     2
100
AcDbLine
 10
148.9
 20
448.566152
 30
0.0
 11
145.5
 21
447.616152
 31
0.0
  0
LINE
  5
55E
100
AcDbEntity
  8
1
  6
CONTINUOUS
 62
     2
100
AcDbLine
 10
148.9
 20
449.831067
 30
0.0
 11
145.5
 21
448.881067
 31
0.0
  0
LINE
  5
55F
100
AcDbEntity
  8
1
  6
CONTINUOUS
 62
     2
100
AcDbLine
 10
149.45
 20
450.14861
 30
0.0
 11
144.95
 21
449.19861
 31
0.0
  0
LINE
  5
560
100
AcDbEntity
  8
1
  6
CONTINUOUS
 62
     2
100
AcDbLine
 10
148.9
 20
450.466152
 30
0.0
 11
145.5
 21
449.516152
 31
0.0
  0
LINE
  5
561
100
AcDbEntity
  8
1
  6
CONTINUOUS
 62
     2
100
AcDbLine
 10
148.9
 20
451.731067
 30
0.0
 11
145.5
 21
450.781067
 31
0.0
  0
LINE
  5
562
100
AcDbEntity
  8
1
  6
CONTINUOUS
 62
     2
100
AcDbLine
 10
149.45
 20
452.04861
 30
0.0
 11
144.95
 21
451.09861
 31
0.0
  0
LINE
  5
563
100
AcDbEntity
  8
1
  6
CONTINUOUS
 62
     2
100
AcDbLine
 10
148.9
 20
452.366152
 30
0.0
 11
145.5
 21
451.416152
 31
0.0
  0
LINE
  5
564
100
AcDbEntity
  8
1
  6
CONTINUOUS
 62
     2
100
AcDbLine
 10
148.9
 20
453.631067
 30
0.0
 11
145.5
 21
452.681067
 31
0.0
  0
LINE
  5
565
100
AcDbEntity
  8
1
  6
CONTINUOUS
 62
     2
100
AcDbLine
 10
149.45
 20
453.94861
 30
0.0
 11
144.95
 21
452.99861
 31
0.0
  0
LINE
  5
566
100
AcDbEntity
  8
1
  6
CONTINUOUS
 62
     2
100
AcDbLine
 10
148.9
 20
454.266152
 30
0.0
 11
145.5
 21
453.316152
 31
0.0
  0
LINE
  5
567
100
AcDbEntity
  8
1
  6
CONTINUOUS
 62
     2
100
AcDbLine
 10
148.9
 20
455.531067
 30
0.0
 11
145.5
 21
454.581067
 31
0.0
  0
LINE
  5
568
100
AcDbEntity
  8
1
  6
CONTINUOUS
 62
     2
100
AcDbLine
 10
149.45
 20
455.84861
 30
0.0
 11
144.95
 21
454.89861
 31
0.0
  0
LINE
  5
569
100
AcDbEntity
  8
1
  6
CONTINUOUS
 62
     2
100
AcDbLine
 10
148.9
 20
456.166152
 30
0.0
 11
145.5
 21
455.216152
 31
0.0
  0
LINE
  5
56A
100
AcDbEntity
  8
1
  6
CONTINUOUS
 62
     2
100
AcDbLine
 10
149.273633
 20
457.74861
 30
0.0
 11
148.864571
 21
457.512437
 31
0.0
  0
LINE
  5
56B
100
AcDbEntity
  8
1
  6
CONTINUOUS
 62
     2
100
AcDbLine
 10
149.273633
 20
457.74861
 30
0.0
 11
148.607424
 21
458.133246
 31
0.0
  0
LINE
  5
56C
100
AcDbEntity
  8
1
  6
CONTINUOUS
 62
     2
100
AcDbLine
 10
148.864571
 20
457.512437
 30
0.0
 11
148.9
 21
457.431067
 31
0.0
  0
LINE
  5
56D
100
AcDbEntity
  8
1
  6
CONTINUOUS
 62
     2
100
AcDbLine
 10
148.232008
 20
459.64861
 30
0.0
 11
148.028425
 21
459.531071
 31
0.0
  0
LINE
  5
56E
100
AcDbEntity
  8
1
  6
CONTINUOUS
 62
     2
100
AcDbLine
 10
148.232008
 20
459.64861
 30
0.0
 11
147.900448
 21
459.840036
 31
0.0
  0
LINE
  5
56F
100
AcDbEntity
  8
1
  6
CONTINUOUS
 62
     2
100
AcDbLine
 10
145.647179
 20
458.69861
 30
0.0
 11
145.953502
 21
458.521754
 31
0.0
  0
LINE
  5
570
100
AcDbEntity
  8
1
  6
CONTINUOUS
 62
     2
100
AcDbLine
 10
145.647179
 20
458.69861
 30
0.0
 11
146.146064
 21
458.986641
 31
0.0
  0
LINE
  5
571
100
AcDbEntity
  8
1
  6
CONTINUOUS
 62
     2
100
AcDbLine
 10
146.688805
 20
460.59861
 30
0.0
 11
146.789647
 21
460.540388
 31
0.0
  0
LINE
  5
572
100
AcDbEntity
  8
1
  6
CONTINUOUS
 62
     2
100
AcDbLine
 10
146.688805
 20
460.59861
 30
0.0
 11
146.85304
 21
460.693431
 31
0.0
  0
LINE
  5
573
100
AcDbEntity
  8
1
  6
CONTINUOUS
 62
     2
100
AcDbLine
 10
146.789647
 20
460.540388
 30
0.0
 11
146.146064
 21
458.986641
 31
0.0
  0
LINE
  5
574
100
AcDbEntity
  8
1
  6
CONTINUOUS
 62
     2
100
AcDbLine
 10
145.953502
 20
458.521754
 30
0.0
 11
145.5
 21
457.426904
 31
0.0
  0
LINE
  5
575
100
AcDbEntity
  8
1
  6
CONTINUOUS
 62
     2
100
AcDbLine
 10
145.5
 20
457.426904
 30
0.0
 11
145.5
 21
457.116152
 31
0.0
  0
LINE
  5
576
100
AcDbEntity
  8
1
  6
CONTINUOUS
 62
     2
100
AcDbLine
 10
148.028425
 20
459.531071
 30
0.0
 11
148.607424
 21
458.133246
 31
0.0
  0
LINE
  5
577
100
AcDbEntity
  8
1
  6
CONTINUOUS
 62
     2
100
AcDbLine
 10
148.864571
 20
457.512437
 30
0.0
 11
145.5
 21
456.481067
 31
0.0
  0
LINE
  5
578
100
AcDbEntity
  8
1
  6
CONTINUOUS
 62
     2
100
AcDbLine
 10
149.273633
 20
457.74861
 30
0.0
 11
144.95
 21
456.79861
 31
0.0
  0
LINE
  5
579
100
AcDbEntity
  8
1
  6
CONTINUOUS
 62
     2
100
AcDbLine
 10
148.607424
 20
458.133246
 30
0.0
 11
145.5
 21
457.116152
 31
0.0
  0
LINE
  5
57A
100
AcDbEntity
  8
1
  6
CONTINUOUS
 62
     2
100
AcDbLine
 10
148.028425
 20
459.531071
 30
0.0
 11
145.953502
 21
458.521754
 31
0.0
  0
LINE
  5
57B
100
AcDbEntity
  8
1
  6
CONTINUOUS
 62
     2
100
AcDbLine
 10
148.232008
 20
459.64861
 30
0.0
 11
145.647179
 21
458.69861
 31
0.0
  0
LINE
  5
57C
100
AcDbEntity
  8
1
  6
CONTINUOUS
 62
     2
100
AcDbLine
 10
147.900448
 20
459.840036
 30
0.0
 11
146.146064
 21
458.986641
 31
0.0
  0
LINE
  5
57D
100
AcDbEntity
  8
1
  6
CONTINUOUS
 62
     2
100
AcDbLine
 10
147.2
 20
460.786489
 30
0.0
 11
146.688805
 21
460.59861
 31
0.0
  0
LINE
  5
57E
100
AcDbEntity
  8
1
  6
CONTINUOUS
 62
     2
100
AcDbLine
 10
146.85304
 20
460.693431
 30
0.0
 11
147.2
 21
460.786489
 31
0.0
  0
LINE
  5
57F
100
AcDbEntity
  8
1
  6
CONTINUOUS
 62
     2
100
AcDbLine
 10
146.789647
 20
460.540388
 30
0.0
 11
147.2
 21
460.786489
 31
0.0
  0
LINE
  5
580
100
AcDbEntity
  8
1
  6
CONTINUOUS
 62
     2
100
AcDbLine
 10
147.2
 20
461.531067
 30
0.0
 11
147.900448
 21
459.840036
 31
0.0
  0
LINE
  5
581
100
AcDbEntity
  8
1
  6
CONTINUOUS
 62
     2
100
AcDbLine
 10
147.2
 20
461.531067
 30
0.0
 11
146.85304
 21
460.693431
 31
0.0
  0
LINE
  5
582
100
AcDbEntity
  8
1
  6
CONTINUOUS
 62
     2
100
AcDbLine
 10
145.5
 20
438.116152
 30
0.0
 11
145.5
 21
439.381067
 31
0.0
  0
LINE
  5
583
100
AcDbEntity
  8
1
  6
CONTINUOUS
 62
     2
100
AcDbLine
 10
149.45
 20
438.74861
 30
0.0
 11
148.9
 21
439.066152
 31
0.0
  0
LINE
  5
584
100
AcDbEntity
  8
1
  6
CONTINUOUS
 62
     2
100
AcDbLine
 10
148.9
 20
438.431067
 30
0.0
 11
149.45
 21
438.74861
 31
0.0
  0
LINE
  5
585
100
AcDbEntity
  8
1
  6
CONTINUOUS
 62
     2
100
AcDbLine
 10
144.95
 20
437.79861
 30
0.0
 11
145.5
 21
437.481067
 31
0.0
  0
LINE
  5
586
100
AcDbEntity
  8
1
  6
CONTINUOUS
 62
     2
100
AcDbLine
 10
145.5
 20
438.116152
 30
0.0
 11
144.95
 21
437.79861
 31
0.0
  0
LINE
  5
587
100
AcDbEntity
  8
1
  6
CONTINUOUS
 62
     2
100
AcDbLine
 10
148.9
 20
438.431067
 30
0.0
 11
145.5
 21
437.481067
 31
0.0
  0
LINE
  5
588
100
AcDbEntity
  8
1
  6
CONTINUOUS
 62
     2
100
AcDbLine
 10
149.45
 20
438.74861
 30
0.0
 11
144.95
 21
437.79861
 31
0.0
  0
LINE
  5
589
100
AcDbEntity
  8
1
  6
CONTINUOUS
 62
     2
100
AcDbLine
 10
148.9
 20
439.066152
 30
0.0
 11
145.5
 21
438.116152
 31
0.0
  0
LINE
  5
58A
100
AcDbEntity
  8
1
  6
CONTINUOUS
 62
     2
100
AcDbLine
 10
148.9
 20
439.066152
 30
0.0
 11
148.9
 21
440.331067
 31
0.0
  0
LINE
  5
58B
100
AcDbEntity
  8
1
  6
CONTINUOUS
 62
     2
100
AcDbLine
 10
149.45
 20
436.84861
 30
0.0
 11
148.9
 21
437.166152
 31
0.0
  0
LINE
  5
58C
100
AcDbEntity
  8
1
  6
CONTINUOUS
 62
     2
100
AcDbLine
 10
148.9
 20
436.531067
 30
0.0
 11
149.45
 21
436.84861
 31
0.0
  0
LINE
  5
58D
100
AcDbEntity
  8
1
  6
CONTINUOUS
 62
     2
100
AcDbLine
 10
148.9
 20
437.166152
 30
0.0
 11
148.9
 21
438.431067
 31
0.0
  0
LINE
  5
58E
100
AcDbEntity
  8
1
  6
CONTINUOUS
 62
     2
100
AcDbLine
 10
148.9
 20
437.166152
 30
0.0
 11
146.627063
 21
436.531067
 31
0.0
  0
LINE
  5
58F
100
AcDbEntity
  8
1
  6
CONTINUOUS
 62
     2
100
AcDbLine
 10
145.5
 20
436.531067
 30
0.0
 11
145.5
 21
437.481067
 31
0.0
  0
LINE
  5
590
100
AcDbEntity
  8
1
  6
CONTINUOUS
 62
     2
100
AcDbLine
 10
149.45
 20
436.84861
 30
0.0
 11
147.945851
 21
436.531067
 31
0.0
  0
LINE
  5
591
100
AcDbEntity
  8
1
  6
EXLTYPE3
 62
     6
100
AcDbLine
 10
147.2
 20
382.583046
 30
0.0
 11
147.2
 21
462.98
 31
0.0
  0
ARC
  5
592
100
AcDbEntity
  8
LAY-4
  6
EXLTYPE3
 62
     6
100
AcDbCircle
 10
147.2
 20
231.015582
 30
0.0
 40
72.5
100
AcDbArc
 50
98.529465
 51
81.470535
  0
ARC
  5
593
100
AcDbEntity
  8
LAY-4
  6
CONTINUOUS
 62
     2
100
AcDbCircle
 10
147.2
 20
231.015582
 30
0.0
 40
77.5
100
AcDbArc
 50
98.633206
 51
81.365582
  0
ARC
  5
594
100
AcDbEntity
  8
LAY-4
  6
CONTINUOUS
 62
     2
100
AcDbCircle
 10
147.2
 20
231.015582
 30
0.0
 40
67.5
100
AcDbArc
 50
99.960762
 51
80.039238
  0
ENDSEC
  0
SECTION
  2
OBJECTS
  0
DICTIONARY
  5
19
100
AcDbDictionary
  3
ACAD_GROUP
350
1A
  3
ACAD_MLINESTYLE
350
1B
  0
DICTIONARY
  5
1A
102
{ACAD_REACTORS
330
19
102
}
100
AcDbDictionary
  0
DICTIONARY
  5
1B
102
{ACAD_REACTORS
330
19
102
}
100
AcDbDictionary
  3
STANDARD
350
1C
  0
MLINESTYLE
  5
1C
102
{ACAD_REACTORS
330
1B
102
}
100
AcDbMlineStyle
  2
Standard
 70
     0
  3

 62
     0
 51
90.0
 52
90.0
 71
     2
 49
0.5
 62
   256
  6
ByLayer
 49
-0.5
 62
   256
  6
ByLayer
  0
ENDSEC
  0
EOF
