  0
SECTION
  2
HEADER
  9
$ACADVER
  1
AC1014
  9
$ACADMAINTVER
 70
     0
  9
$DWGCODEPAGE
  3
ANSI_932
  9
$INSBASE
 10
0.0
 20
0.0
 30
0.0
  9
$EXTMIN
 10
0.4
 20
13.5
 30
0.0
  9
$EXTMAX
 10
200.411522
 20
288.5
 30
0.0
  9
$LIMMIN
 10
0.0
 20
0.0
  9
$LIMMAX
 10
210.0
 20
297.0
  9
$ORTHOMODE
 70
     0
  9
$REGENMODE
 70
     1
  9
$FILLMODE
 70
     1
  9
$QTEXTMODE
 70
     0
  9
$MIRRTEXT
 70
     1
  9
$DRAGMODE
 70
     2
  9
$LTSCALE
 40
1.0
  9
$OSMODE
 70
     0
  9
$ATTMODE
 70
     1
  9
$TEXTSIZE
 40
0.2
  9
$TRACEWID
 40
0.05
  9
$TEXTSTYLE
  7
STANDARD
  9
$CLAYER
  8
図
  9
$CELTYPE
  6
CONTINUOUS
  9
$CECOLOR
 62
   256
  9
$CELTSCALE
 40
1.0
  9
$DELOBJ
 70
     1
  9
$DISPSILH
 70
     0
  9
$DIMSCALE
 40
1.0
  9
$DIMASZ
 40
0.18
  9
$DIMEXO
 40
0.0625
  9
$DIMDLI
 40
0.38
  9
$DIMRND
 40
0.0
  9
$DIMDLE
 40
0.0
  9
$DIMEXE
 40
0.18
  9
$DIMTP
 40
0.0
  9
$DIMTM
 40
0.0
  9
$DIMTXT
 40
0.18
  9
$DIMCEN
 40
0.09
  9
$DIMTSZ
 40
0.0
  9
$DIMTOL
 70
     0
  9
$DIMLIM
 70
     0
  9
$DIMTIH
 70
     1
  9
$DIMTOH
 70
     1
  9
$DIMSE1
 70
     0
  9
$DIMSE2
 70
     0
  9
$DIMTAD
 70
     0
  9
$DIMZIN
 70
     0
  9
$DIMBLK
  1

  9
$DIMASO
 70
     1
  9
$DIMSHO
 70
     1
  9
$DIMPOST
  1

  9
$DIMAPOST
  1

  9
$DIMALT
 70
     0
  9
$DIMALTD
 70
     2
  9
$DIMALTF
 40
25.4
  9
$DIMLFAC
 40
1.0
  9
$DIMTOFL
 70
     0
  9
$DIMTVP
 40
0.0
  9
$DIMTIX
 70
     0
  9
$DIMSOXD
 70
     0
  9
$DIMSAH
 70
     0
  9
$DIMBLK1
  1

  9
$DIMBLK2
  1

  9
$DIMSTYLE
  2
STANDARD
  9
$DIMCLRD
 70
     0
  9
$DIMCLRE
 70
     0
  9
$DIMCLRT
 70
     0
  9
$DIMTFAC
 40
1.0
  9
$DIMGAP
 40
0.09
  9
$DIMJUST
 70
     0
  9
$DIMSD1
 70
     0
  9
$DIMSD2
 70
     0
  9
$DIMTOLJ
 70
     1
  9
$DIMTZIN
 70
     0
  9
$DIMALTZ
 70
     0
  9
$DIMALTTZ
 70
     0
  9
$DIMFIT
 70
     3
  9
$DIMUPT
 70
     0
  9
$DIMUNIT
 70
     2
  9
$DIMDEC
 70
     4
  9
$DIMTDEC
 70
     4
  9
$DIMALTU
 70
     2
  9
$DIMALTTD
 70
     2
  9
$DIMTXSTY
  7
STANDARD
  9
$DIMAUNIT
 70
     0
  9
$LUNITS
 70
     2
  9
$LUPREC
 70
     4
  9
$SKETCHINC
 40
0.1
  9
$FILLETRAD
 40
0.0
  9
$AUNITS
 70
     0
  9
$AUPREC
 70
     0
  9
$MENU
  1
acad
  9
$ELEVATION
 40
0.0
  9
$PELEVATION
 40
0.0
  9
$THICKNESS
 40
0.0
  9
$LIMCHECK
 70
     0
  9
$BLIPMODE
 70
     1
  9
$CHAMFERA
 40
0.0
  9
$CHAMFERB
 40
0.0
  9
$CHAMFERC
 40
0.0
  9
$CHAMFERD
 40
0.0
  9
$SKPOLY
 70
     0
  9
$TDCREATE
 40
2455415.937740451
  9
$TDUPDATE
 40
2455415.937740451
  9
$TDINDWG
 40
0.0000000000
  9
$TDUSRTIMER
 40
0.0000000000
  9
$USRTIMER
 70
     1
  9
$ANGBASE
 50
0.0
  9
$ANGDIR
 70
     0
  9
$PDMODE
 70
     0
  9
$PDSIZE
 40
0.0
  9
$PLINEWID
 40
0.0
  9
$COORDS
 70
     1
  9
$SPLFRAME
 70
     0
  9
$SPLINETYPE
 70
     6
  9
$SPLINESEGS
 70
     8
  9
$ATTDIA
 70
     0
  9
$ATTREQ
 70
     1
  9
$HANDLING
 70
     1
  9
$HANDSEED
  5
8C7
  9
$SURFTAB1
 70
     6
  9
$SURFTAB2
 70
     6
  9
$SURFTYPE
 70
     6
  9
$SURFU
 70
     6
  9
$SURFV
 70
     6
  9
$UCSNAME
  2

  9
$UCSORG
 10
0.0
 20
0.0
 30
0.0
  9
$UCSXDIR
 10
1.0
 20
0.0
 30
0.0
  9
$UCSYDIR
 10
0.0
 20
1.0
 30
0.0
  9
$PUCSNAME
  2

  9
$PUCSORG
 10
0.0
 20
0.0
 30
0.0
  9
$PUCSXDIR
 10
1.0
 20
0.0
 30
0.0
  9
$PUCSYDIR
 10
0.0
 20
1.0
 30
0.0
  9
$USERI1
 70
     0
  9
$USERI2
 70
     0
  9
$USERI3
 70
     0
  9
$USERI4
 70
     0
  9
$USERI5
 70
     0
  9
$USERR1
 40
0.0
  9
$USERR2
 40
0.0
  9
$USERR3
 40
0.0
  9
$USERR4
 40
0.0
  9
$USERR5
 40
0.0
  9
$WORLDVIEW
 70
     1
  9
$SHADEDGE
 70
     3
  9
$SHADEDIF
 70
    70
  9
$TILEMODE
 70
     1
  9
$MAXACTVP
 70
    16
  9
$PINSBASE
 10
0.0
 20
0.0
 30
0.0
  9
$PLIMCHECK
 70
     0
  9
$PEXTMIN
 10
1.000000E+20
 20
1.000000E+20
 30
1.000000E+20
  9
$PEXTMAX
 10
-1.000000E+20
 20
-1.000000E+20
 30
-1.000000E+20
  9
$PLIMMIN
 10
0.0
 20
0.0
  9
$PLIMMAX
 10
12.0
 20
9.0
  9
$UNITMODE
 70
     0
  9
$VISRETAIN
 70
     0
  9
$PLINEGEN
 70
     1
  9
$PSLTSCALE
 70
     0
  9
$TREEDEPTH
 70
  3020
  9
$PICKSTYLE
 70
     1
  9
$CMLSTYLE
  2
Standard
  9
$CMLJUST
 70
     0
  9
$CMLSCALE
 40
1.0
  9
$PROXYGRAPHICS
 70
     0
  9
$MEASUREMENT
 70
     0
  0
ENDSEC
  0
SECTION
  2
CLASSES
  0
CLASS
  1
LWPOLYLINE
  2
AcDbPolyline
  3
"AutoCAD"
 90
        0
280
     0
281
     1
  0
CLASS
  1
IMAGE
  2
AcDbRasterImage
  3
ISM
 90
      127
280
     0
281
     1
  0
CLASS
  1
OLE2FRAME
  2
AcDbOle2Frame
  3
""
 90
        0
280
     0
281
     1
  0
CLASS
  1
HATCH
  2
AcDbHatch
  3
"ACAD_SEDONA"
 90
        0
280
     0
281
     1
  0
CLASS
  1
DICTIONARYVAR
  2
AcDbDictionaryVar
  3
"AutoCAD"
 90
        0
280
     0
281
     0
  0
CLASS
  1
RASTERVARIABLES
  2
AcDbRasterVariables
  3
ISM
 90
        0
280
     0
281
     0
  0
CLASS
  1
IMAGEDEF
  2
AcDbRasterImageDef
  3
ISM
 90
        0
280
     0
281
     0
  0
CLASS
  1
IMAGEDEF_REACTOR
  2
AcDbRasterImageDefReactor
  3
ISM
 90
        1
280
     0
281
     0
  0
CLASS
  1
IDBUFFER
  2
AcDbIdBuffer
  3
"Acad"
 90
        0
280
     0
281
     0
  0
CLASS
  1
SPATIAL_FILTER
  2
AcDbSpatialFilter
  3
"Acad"
 90
        0
280
     0
281
     0
  0
CLASS
  1
XRECORD
  2
AcDbXrecord
  3
"<Built In>"
 90
        0
280
     0
281
     0
  0
CLASS
  1
SORTENTSTABLE
  2
AcDbSortentsTable
  3
"AutoCAD"
 90
        0
280
     0
281
     0
  0
CLASS
  1
LAYER_INDEX
  2
AcDbLayerIndex
  3
"Acad"
 90
        0
280
     0
281
     0
  0
CLASS
  1
SPATIAL_INDEX
  2
AcDbSpatialIndex
  3
"Acad"
 90
        0
280
     0
281
     0
  0
CLASS
  1
OBJECT_PTR
  2
CAseDLPNTableRecord
  3
"ASE-LPNTableRecord"
 90
        1
280
     0
281
     0
  0
CLASS
  1
LAYOUT
  2
AcDbLayout
  3
"AutoCAD 2000"
 90
        1
280
     0
281
     0
  0
CLASS
  1
PLOTSETTINGS
  2
AcDbPlotSettings
  3
"AutoCAD 2000"
 90
        1
280
     0
281
     0
  0
CLASS
  1
ACDBDICTIONARYWDFLT
  2
AcDbDictionaryWithDefault
  3
"AutoCAD 2000"
 90
        1
280
     0
281
     0
  0
CLASS
  1
ACDBPLACEHOLDER
  2
AcDbPlaceHolder
  3
"AutoCAD 2000"
 90
        1
280
     0
281
     0
  0
CLASS
  1
VBA_PROJECT
  2
AcDbVbaProject
  3
"acadvba"
 90
        1
280
     0
281
     0
  0
CLASS
  1
WIPEOUT
  2
AcDbWipeout
  3
WipeOut|AutoCAD Express Tool|expresstools@autodesk.com
 90
      127
280
     0
281
     1
  0
CLASS
  1
WIPEOUTVARIABLES
  2
AcDbWipeoutVariables
  3
WipeOut|AutoCAD Express Tool|expresstools@autodesk.com
 90
        0
280
     0
281
     0
  0
CLASS
  1
RTEXT
  2
RText
  3
RText|AutoCAD Express Tool|expresstools@autodesk.com
 90
        0
280
     0
281
     1
  0
CLASS
  1
ARCALIGNEDTEXT
  2
AcDbArcAlignedText
  3
ATEXT|AutoCAD Express Tool|expresstools@autodesk.com
 90
        0
280
     0
281
     1
  0
ENDSEC
  0
SECTION
  2
TABLES
  0
TABLE
  2
VPORT
  5
7
100
AcDbSymbolTable
 70
     1
  0
VPORT
  5
15
100
AcDbSymbolTableRecord
100
AcDbViewportTableRecord
  2
*ACTIVE
 70
     0
 10
0.0
 20
0.0
 11
1.0
 21
1.0
 12
1004.057609
 22
1510.0
 13
0.0
 23
0.0
 14
1.0
 24
1.0
 15
0.0
 25
0.0
 16
0.0
 26
0.0
 36
1.0
 17
0.0
 27
0.0
 37
0.0
 40
2750.0
 41
1.722533
 42
50.0
 43
0.0
 44
0.0
 50
0.0
 51
0.0
 71
     0
 72
   100
 73
     1
 74
     1
 75
     0
 76
     0
 77
     0
 78
     0
  0
ENDTAB
  0
TABLE
  2
LTYPE
  5
4
100
AcDbSymbolTable
 70
     9
  0
LTYPE
  5
11
100
AcDbSymbolTableRecord
100
AcDbLinetypeTableRecord
  2
BYBLOCK
 70
    64
  3

 72
    65
 73
     0
 40
0.0
  0
LTYPE
  5
12
100
AcDbSymbolTableRecord
100
AcDbLinetypeTableRecord
  2
BYLAYER
 70
    64
  3

 72
    65
 73
     0
 40
0.0
  0
LTYPE
  5
13
100
AcDbSymbolTableRecord
100
AcDbLinetypeTableRecord
  2
CONTINUOUS
 70
    64
  3
実線
 72
    65
 73
     0
 40
0.0
  0
LTYPE
  5
1D
100
AcDbSymbolTableRecord
100
AcDbLinetypeTableRecord
  2
EXLTYPE1
 70
    64
  3
破線
 72
    65
 73
     2
 40
3.0
 49
2.0
 74
     0
 49
-1.0
 74
     0
  0
LTYPE
  5
1E
100
AcDbSymbolTableRecord
100
AcDbLinetypeTableRecord
  2
EXLTYPE2
 70
    64
  3
点線
 72
    65
 73
     2
 40
2.0
 49
1.0
 74
     0
 49
-1.0
 74
     0
  0
LTYPE
  5
1F
100
AcDbSymbolTableRecord
100
AcDbLinetypeTableRecord
  2
EXLTYPE3
 70
    64
  3
一点鎖線
 72
    65
 73
     4
 40
10.0
 49
7.0
 74
     0
 49
-1.0
 74
     0
 49
1.0
 74
     0
 49
-1.0
 74
     0
  0
LTYPE
  5
20
100
AcDbSymbolTableRecord
100
AcDbLinetypeTableRecord
  2
EXLTYPE4
 70
    64
  3
二点鎖線
 72
    65
 73
     6
 40
12.0
 49
7.0
 74
     0
 49
-1.0
 74
     0
 49
1.0
 74
     0
 49
-1.0
 74
     0
 49
1.0
 74
     0
 49
-1.0
 74
     0
  0
LTYPE
  5
21
100
AcDbSymbolTableRecord
100
AcDbLinetypeTableRecord
  2
EXLTYPE5
 70
    64
  3
三点鎖線
 72
    65
 73
     8
 40
37.0
 49
30.0
 74
     0
 49
-1.0
 74
     0
 49
1.0
 74
     0
 49
-1.0
 74
     0
 49
1.0
 74
     0
 49
-1.0
 74
     0
 49
1.0
 74
     0
 49
-1.0
 74
     0
  0
LTYPE
  5
22
100
AcDbSymbolTableRecord
100
AcDbLinetypeTableRecord
  2
EXLTYPE6
 70
    64
  3
四点鎖線
 72
    65
 73
    10
 40
39.0
 49
30.0
 74
     0
 49
-1.0
 74
     0
 49
1.0
 74
     0
 49
-1.0
 74
     0
 49
1.0
 74
     0
 49
-1.0
 74
     0
 49
1.0
 74
     0
 49
-1.0
 74
     0
 49
1.0
 74
     0
 49
-1.0
 74
     0
  0
ENDTAB
  0
TABLE
  2
LAYER
  5
2
100
AcDbSymbolTable
 70
     4
  0
LAYER
  5
14
100
AcDbSymbolTableRecord
100
AcDbLayerTableRecord
  2
0
 70
     0
 62
     7
  6
CONTINUOUS
  0
LAYER
  5
25
100
AcDbSymbolTableRecord
100
AcDbLayerTableRecord
  2
枠・表
 70
    64
 62
     7
  6
CONTINUOUS
  0
LAYER
  5
26
100
AcDbSymbolTableRecord
100
AcDbLayerTableRecord
  2
図
 70
    64
 62
     7
  6
CONTINUOUS
  0
LAYER
  5
27
100
AcDbSymbolTableRecord
100
AcDbLayerTableRecord
  2
寸法
 70
    64
 62
     7
  6
CONTINUOUS
  0
ENDTAB
  0
TABLE
  2
STYLE
  5
3
100
AcDbSymbolTable
 70
     6
  0
STYLE
  5
17
100
AcDbSymbolTableRecord
100
AcDbTextStyleTableRecord
  2
STANDARD
 70
     0
 40
0.0
 41
1.0
 50
0.0
 71
     0
 42
0.0
  3
monotxt
  4
extfont
  0
STYLE
  5
23
100
AcDbSymbolTableRecord
100
AcDbTextStyleTableRecord
  2
EXCADSTD
 70
    64
 40
0.0
 41
1.0
 50
0.0
 71
     0
 42
0.2
  3
monotxt
  4
extfont
  0
STYLE
  5
24
100
AcDbSymbolTableRecord
100
AcDbTextStyleTableRecord
  2
EXCADVERT
 70
    68
 40
0.0
 41
1.0
 50
0.0
 71
     0
 42
0.286885
  3
monotxt
  4
extfont
  0
STYLE
  5
AA
100
AcDbSymbolTableRecord
100
AcDbTextStyleTableRecord
  2
EXCADTTF1
 70
    64
 40
0.0
 41
1.0
 50
0.0
 71
     0
 42
0.2
  3
MS Gothic.ttf
  4

1001
ACAD
1000
MS Gothic
1071
    32817
  0
STYLE
  5
F7
100
AcDbSymbolTableRecord
100
AcDbTextStyleTableRecord
  2
EXCADDIM1
 70
    64
 40
0.0
 41
0.95
 50
0.0
 71
     0
 42
0.2
  3
monotxt
  4
extfont
  0
STYLE
  5
10F
100
AcDbSymbolTableRecord
100
AcDbTextStyleTableRecord
  2
EXCADDIM2
 70
    64
 40
0.0
 41
0.84
 50
0.0
 71
     0
 42
0.2
  3
monotxt
  4
extfont
  0
ENDTAB
  0
TABLE
  2
VIEW
  5
5
100
AcDbSymbolTable
 70
     0
  0
ENDTAB
  0
TABLE
  2
UCS
  5
6
100
AcDbSymbolTable
 70
     0
  0
ENDTAB
  0
TABLE
  2
APPID
  5
8
100
AcDbSymbolTable
 70
     1
  0
APPID
  5
16
100
AcDbSymbolTableRecord
100
AcDbRegAppTableRecord
  2
ACAD
 70
     0
  0
ENDTAB
  0
TABLE
  2
DIMSTYLE
  5
9
100
AcDbSymbolTable
 70
     1
  0
DIMSTYLE
105
18
100
AcDbSymbolTableRecord
100
AcDbDimStyleTableRecord
  2
STANDARD
 70
     0
  3

  4

  5

  6

  7

 40
1.0
 41
0.18
 42
0.0625
 43
0.38
 44
0.18
 45
0.0
 46
0.0
 47
0.0
 48
0.0
 71
     0
 72
     0
 73
     1
 74
     1
 75
     0
 76
     0
 77
     0
 78
     0
140
0.18
141
0.09
142
0.0
143
25.4
144
1.0
145
0.0
146
1.0
147
0.09
170
     0
171
     2
172
     1
173
     0
174
     0
175
     0
176
     0
177
     0
178
     0
270
     2
271
     4
272
     4
273
     2
274
     2
275
     0
280
     0
281
     0
282
     0
283
     1
284
     0
285
     0
286
     0
287
     0
288
     0
340
17
  0
ENDTAB
  0
TABLE
  2
BLOCK_RECORD
  5
1
100
AcDbSymbolTable
 70
    32
  0
BLOCK_RECORD
  5
A
100
AcDbSymbolTableRecord
100
AcDbBlockTableRecord
  2
*MODEL_SPACE
  0
BLOCK_RECORD
  5
B
100
AcDbSymbolTableRecord
100
AcDbBlockTableRecord
  2
*PAPER_SPACE
  0
BLOCK_RECORD
  5
28
100
AcDbSymbolTableRecord
100
AcDbBlockTableRecord
  2
_EX_NORM
  0
BLOCK_RECORD
  5
29
100
AcDbSymbolTableRecord
100
AcDbBlockTableRecord
  2
_EX_BNORM
  0
BLOCK_RECORD
  5
2A
100
AcDbSymbolTableRecord
100
AcDbBlockTableRecord
  2
_EX_BCIR
  0
BLOCK_RECORD
  5
2B
100
AcDbSymbolTableRecord
100
AcDbBlockTableRecord
  2
_EX_RCIVIL
  0
BLOCK_RECORD
  5
2C
100
AcDbSymbolTableRecord
100
AcDbBlockTableRecord
  2
_EX_SLANT
  0
BLOCK_RECORD
  5
2D
100
AcDbSymbolTableRecord
100
AcDbBlockTableRecord
  2
_EX_NONE
  0
BLOCK_RECORD
  5
2E
100
AcDbSymbolTableRecord
100
AcDbBlockTableRecord
  2
_EX_CIVIL
  0
BLOCK_RECORD
  5
2F
100
AcDbSymbolTableRecord
100
AcDbBlockTableRecord
  2
_EX_WCIR
  0
BLOCK_RECORD
  5
30
100
AcDbSymbolTableRecord
100
AcDbBlockTableRecord
  2
_EX_WCIR2
  0
BLOCK_RECORD
  5
31
100
AcDbSymbolTableRecord
100
AcDbBlockTableRecord
  2
_EX_WNORM
  0
BLOCK_RECORD
  5
32
100
AcDbSymbolTableRecord
100
AcDbBlockTableRecord
  2
_EX_NNORM
  0
BLOCK_RECORD
  5
33
100
AcDbSymbolTableRecord
100
AcDbBlockTableRecord
  2
_EX_BBOX
  0
BLOCK_RECORD
  5
34
100
AcDbSymbolTableRecord
100
AcDbBlockTableRecord
  2
_EX_WBOX
  0
BLOCK_RECORD
  5
35
100
AcDbSymbolTableRecord
100
AcDbBlockTableRecord
  2
_EX_INTEGRAL
  0
BLOCK_RECORD
  5
EC
100
AcDbSymbolTableRecord
100
AcDbBlockTableRecord
  2
*D14
  0
BLOCK_RECORD
  5
F9
100
AcDbSymbolTableRecord
100
AcDbBlockTableRecord
  2
*D15
  0
BLOCK_RECORD
  5
106
100
AcDbSymbolTableRecord
100
AcDbBlockTableRecord
  2
*D16
  0
BLOCK_RECORD
  5
111
100
AcDbSymbolTableRecord
100
AcDbBlockTableRecord
  2
*D17
  0
BLOCK_RECORD
  5
11D
100
AcDbSymbolTableRecord
100
AcDbBlockTableRecord
  2
*D18
  0
BLOCK_RECORD
  5
129
100
AcDbSymbolTableRecord
100
AcDbBlockTableRecord
  2
*D19
  0
BLOCK_RECORD
  5
146
100
AcDbSymbolTableRecord
100
AcDbBlockTableRecord
  2
*D20
  0
BLOCK_RECORD
  5
843
100
AcDbSymbolTableRecord
100
AcDbBlockTableRecord
  2
*D21
  0
BLOCK_RECORD
  5
84D
100
AcDbSymbolTableRecord
100
AcDbBlockTableRecord
  2
*D22
  0
BLOCK_RECORD
  5
858
100
AcDbSymbolTableRecord
100
AcDbBlockTableRecord
  2
*D23
  0
BLOCK_RECORD
  5
864
100
AcDbSymbolTableRecord
100
AcDbBlockTableRecord
  2
*D24
  0
BLOCK_RECORD
  5
870
100
AcDbSymbolTableRecord
100
AcDbBlockTableRecord
  2
*D25
  0
BLOCK_RECORD
  5
87B
100
AcDbSymbolTableRecord
100
AcDbBlockTableRecord
  2
*D26
  0
BLOCK_RECORD
  5
886
100
AcDbSymbolTableRecord
100
AcDbBlockTableRecord
  2
*D27
  0
BLOCK_RECORD
  5
89A
100
AcDbSymbolTableRecord
100
AcDbBlockTableRecord
  2
*D28
  0
BLOCK_RECORD
  5
8A2
100
AcDbSymbolTableRecord
100
AcDbBlockTableRecord
  2
*D29
  0
BLOCK_RECORD
  5
8AD
100
AcDbSymbolTableRecord
100
AcDbBlockTableRecord
  2
*D30
  0
BLOCK_RECORD
  5
8B9
100
AcDbSymbolTableRecord
100
AcDbBlockTableRecord
  2
*D31
  0
ENDTAB
  0
ENDSEC
  0
SECTION
  2
BLOCKS
  0
BLOCK
  5
D
100
AcDbEntity
  8
0
100
AcDbBlockBegin
  2
*MODEL_SPACE
 70
     0
 10
0.0
 20
0.0
 30
0.0
  3
*MODEL_SPACE
  1

  0
ENDBLK
  5
E
100
AcDbEntity
  8
0
100
AcDbBlockEnd
  0
BLOCK
  5
F
100
AcDbEntity
 67
     1
  8
0
100
AcDbBlockBegin
  2
*PAPER_SPACE
 70
     0
 10
0.0
 20
0.0
 30
0.0
  3
*PAPER_SPACE
  1

  0
ENDBLK
  5
10
100
AcDbEntity
 67
     1
  8
0
100
AcDbBlockEnd
  0
BLOCK
  5
36
100
AcDbEntity
  8
0
100
AcDbBlockBegin
  2
_EX_NORM
 70
     0
 10
0.0
 20
0.0
 30
0.0
  3
_EX_NORM
  1

  0
LINE
  5
37
100
AcDbEntity
  8
0
  6
CONTINUOUS
 62
     0
100
AcDbLine
 10
0.0
 20
0.0
 30
0.0
 11
-1.0
 21
0.0
 31
0.0
  0
LINE
  5
38
100
AcDbEntity
  8
0
  6
CONTINUOUS
 62
     0
100
AcDbLine
 10
0.0
 20
0.0
 30
0.0
 11
-1.0
 21
0.166667
 31
0.0
  0
LINE
  5
39
100
AcDbEntity
  8
0
  6
CONTINUOUS
 62
     0
100
AcDbLine
 10
0.0
 20
0.0
 30
0.0
 11
-1.0
 21
-0.166667
 31
0.0
  0
ENDBLK
  5
3A
100
AcDbEntity
  8
0
100
AcDbBlockEnd
  0
BLOCK
  5
3B
100
AcDbEntity
  8
0
100
AcDbBlockBegin
  2
_EX_BNORM
 70
     0
 10
0.0
 20
0.0
 30
0.0
  3
_EX_BNORM
  1

  0
LINE
  5
3C
100
AcDbEntity
  8
0
  6
CONTINUOUS
 62
     0
100
AcDbLine
 10
0.0
 20
0.0
 30
0.0
 11
-1.0
 21
0.0
 31
0.0
  0
LINE
  5
3D
100
AcDbEntity
  8
0
  6
CONTINUOUS
 62
     0
100
AcDbLine
 10
0.0
 20
0.0
 30
0.0
 11
-1.0
 21
0.166667
 31
0.0
  0
LINE
  5
3E
100
AcDbEntity
  8
0
  6
CONTINUOUS
 62
     0
100
AcDbLine
 10
0.0
 20
0.0
 30
0.0
 11
-1.0
 21
-0.166667
 31
0.0
  0
LINE
  5
3F
100
AcDbEntity
  8
0
  6
CONTINUOUS
 62
     0
100
AcDbLine
 10
0.0
 20
0.0
 30
0.0
 11
-1.0
 21
0.083333
 31
0.0
  0
LINE
  5
40
100
AcDbEntity
  8
0
  6
CONTINUOUS
 62
     0
100
AcDbLine
 10
0.0
 20
0.0
 30
0.0
 11
-1.0
 21
-0.083333
 31
0.0
  0
LINE
  5
41
100
AcDbEntity
  8
0
  6
CONTINUOUS
 62
     0
100
AcDbLine
 10
-1.0
 20
0.166667
 30
0.0
 11
-1.0
 21
-0.166667
 31
0.0
  0
ENDBLK
  5
42
100
AcDbEntity
  8
0
100
AcDbBlockEnd
  0
BLOCK
  5
43
100
AcDbEntity
  8
0
100
AcDbBlockBegin
  2
_EX_BCIR
 70
     0
 10
0.0
 20
0.0
 30
0.0
  3
_EX_BCIR
  1

  0
LINE
  5
44
100
AcDbEntity
  8
0
  6
CONTINUOUS
 62
     0
100
AcDbLine
 10
0.0
 20
0.0
 30
0.0
 11
-1.0
 21
0.0
 31
0.0
  0
CIRCLE
  5
45
100
AcDbEntity
  8
0
  6
CONTINUOUS
 62
     0
100
AcDbCircle
 10
0.0
 20
0.0
 30
0.0
 40
0.5
  0
CIRCLE
  5
46
100
AcDbEntity
  8
0
  6
CONTINUOUS
 62
     0
100
AcDbCircle
 10
0.0
 20
0.0
 30
0.0
 40
0.25
  0
ENDBLK
  5
47
100
AcDbEntity
  8
0
100
AcDbBlockEnd
  0
BLOCK
  5
48
100
AcDbEntity
  8
0
100
AcDbBlockBegin
  2
_EX_RCIVIL
 70
     0
 10
0.0
 20
0.0
 30
0.0
  3
_EX_RCIVIL
  1

  0
LINE
  5
49
100
AcDbEntity
  8
0
  6
CONTINUOUS
 62
     0
100
AcDbLine
 10
0.0
 20
0.0
 30
0.0
 11
-1.0
 21
0.0
 31
0.0
  0
LINE
  5
4A
100
AcDbEntity
  8
0
  6
CONTINUOUS
 62
     0
100
AcDbLine
 10
-1.0
 20
-0.25
 30
0.0
 11
0.0
 21
-0.25
 31
0.0
  0
LINE
  5
4B
100
AcDbEntity
  8
0
  6
CONTINUOUS
 62
     0
100
AcDbLine
 10
-1.0
 20
-0.125
 30
0.0
 11
0.0
 21
-0.125
 31
0.0
  0
ENDBLK
  5
4C
100
AcDbEntity
  8
0
100
AcDbBlockEnd
  0
BLOCK
  5
4D
100
AcDbEntity
  8
0
100
AcDbBlockBegin
  2
_EX_SLANT
 70
     0
 10
0.0
 20
0.0
 30
0.0
  3
_EX_SLANT
  1

  0
LINE
  5
4E
100
AcDbEntity
  8
0
  6
CONTINUOUS
 62
     0
100
AcDbLine
 10
0.0
 20
0.0
 30
0.0
 11
-1.0
 21
0.0
 31
0.0
  0
LINE
  5
4F
100
AcDbEntity
  8
0
  6
CONTINUOUS
 62
     0
100
AcDbLine
 10
0.707107
 20
0.707107
 30
0.0
 11
-0.707107
 21
-0.707107
 31
0.0
  0
ENDBLK
  5
50
100
AcDbEntity
  8
0
100
AcDbBlockEnd
  0
BLOCK
  5
51
100
AcDbEntity
  8
0
100
AcDbBlockBegin
  2
_EX_NONE
 70
     0
 10
0.0
 20
0.0
 30
0.0
  3
_EX_NONE
  1

  0
LINE
  5
52
100
AcDbEntity
  8
0
  6
CONTINUOUS
 62
     0
100
AcDbLine
 10
0.0
 20
0.0
 30
0.0
 11
-1.0
 21
0.0
 31
0.0
  0
ENDBLK
  5
53
100
AcDbEntity
  8
0
100
AcDbBlockEnd
  0
BLOCK
  5
54
100
AcDbEntity
  8
0
100
AcDbBlockBegin
  2
_EX_CIVIL
 70
     0
 10
0.0
 20
0.0
 30
0.0
  3
_EX_CIVIL
  1

  0
LINE
  5
55
100
AcDbEntity
  8
0
  6
CONTINUOUS
 62
     0
100
AcDbLine
 10
0.0
 20
0.0
 30
0.0
 11
-1.0
 21
0.0
 31
0.0
  0
LINE
  5
56
100
AcDbEntity
  8
0
  6
CONTINUOUS
 62
     0
100
AcDbLine
 10
-1.0
 20
0.25
 30
0.0
 11
0.0
 21
0.25
 31
0.0
  0
LINE
  5
57
100
AcDbEntity
  8
0
  6
CONTINUOUS
 62
     0
100
AcDbLine
 10
-1.0
 20
0.125
 30
0.0
 11
0.0
 21
0.125
 31
0.0
  0
ENDBLK
  5
58
100
AcDbEntity
  8
0
100
AcDbBlockEnd
  0
BLOCK
  5
59
100
AcDbEntity
  8
0
100
AcDbBlockBegin
  2
_EX_WCIR
 70
     0
 10
0.0
 20
0.0
 30
0.0
  3
_EX_WCIR
  1

  0
LINE
  5
5A
100
AcDbEntity
  8
0
  6
CONTINUOUS
 62
     0
100
AcDbLine
 10
0.0
 20
0.0
 30
0.0
 11
-1.0
 21
0.0
 31
0.0
  0
CIRCLE
  5
5B
100
AcDbEntity
  8
0
  6
CONTINUOUS
 62
     0
100
AcDbCircle
 10
0.0
 20
0.0
 30
0.0
 40
0.5
  0
ENDBLK
  5
5C
100
AcDbEntity
  8
0
100
AcDbBlockEnd
  0
BLOCK
  5
5D
100
AcDbEntity
  8
0
100
AcDbBlockBegin
  2
_EX_WCIR2
 70
     0
 10
0.0
 20
0.0
 30
0.0
  3
_EX_WCIR2
  1

  0
LINE
  5
5E
100
AcDbEntity
  8
0
  6
CONTINUOUS
 62
     0
100
AcDbLine
 10
-0.5
 20
0.0
 30
0.0
 11
-1.0
 21
0.0
 31
0.0
  0
CIRCLE
  5
5F
100
AcDbEntity
  8
0
  6
CONTINUOUS
 62
     0
100
AcDbCircle
 10
0.0
 20
0.0
 30
0.0
 40
0.5
  0
ENDBLK
  5
60
100
AcDbEntity
  8
0
100
AcDbBlockEnd
  0
BLOCK
  5
61
100
AcDbEntity
  8
0
100
AcDbBlockBegin
  2
_EX_WNORM
 70
     0
 10
0.0
 20
0.0
 30
0.0
  3
_EX_WNORM
  1

  0
LINE
  5
62
100
AcDbEntity
  8
0
  6
CONTINUOUS
 62
     0
100
AcDbLine
 10
-1.0
 20
0.0
 30
0.0
 11
-1.0
 21
0.0
 31
0.0
  0
LINE
  5
63
100
AcDbEntity
  8
0
  6
CONTINUOUS
 62
     0
100
AcDbLine
 10
0.0
 20
0.0
 30
0.0
 11
-1.0
 21
0.166667
 31
0.0
  0
LINE
  5
64
100
AcDbEntity
  8
0
  6
CONTINUOUS
 62
     0
100
AcDbLine
 10
0.0
 20
0.0
 30
0.0
 11
-1.0
 21
-0.166667
 31
0.0
  0
LINE
  5
65
100
AcDbEntity
  8
0
  6
CONTINUOUS
 62
     0
100
AcDbLine
 10
-1.0
 20
0.166667
 30
0.0
 11
-1.0
 21
-0.166667
 31
0.0
  0
ENDBLK
  5
66
100
AcDbEntity
  8
0
100
AcDbBlockEnd
  0
BLOCK
  5
67
100
AcDbEntity
  8
0
100
AcDbBlockBegin
  2
_EX_NNORM
 70
     0
 10
0.0
 20
0.0
 30
0.0
  3
_EX_NNORM
  1

  0
LINE
  5
68
100
AcDbEntity
  8
0
  6
CONTINUOUS
 62
     0
100
AcDbLine
 10
0.0
 20
0.0
 30
0.0
 11
-1.0
 21
0.0
 31
0.0
  0
LINE
  5
69
100
AcDbEntity
  8
0
  6
CONTINUOUS
 62
     0
100
AcDbLine
 10
0.0
 20
0.0
 30
0.0
 11
-1.0
 21
0.166667
 31
0.0
  0
LINE
  5
6A
100
AcDbEntity
  8
0
  6
CONTINUOUS
 62
     0
100
AcDbLine
 10
0.0
 20
0.0
 30
0.0
 11
-1.0
 21
-0.166667
 31
0.0
  0
LINE
  5
6B
100
AcDbEntity
  8
0
  6
CONTINUOUS
 62
     0
100
AcDbLine
 10
-1.0
 20
0.166667
 30
0.0
 11
-1.0
 21
-0.166667
 31
0.0
  0
ENDBLK
  5
6C
100
AcDbEntity
  8
0
100
AcDbBlockEnd
  0
BLOCK
  5
6D
100
AcDbEntity
  8
0
100
AcDbBlockBegin
  2
_EX_BBOX
 70
     0
 10
0.0
 20
0.0
 30
0.0
  3
_EX_BBOX
  1

  0
LINE
  5
6E
100
AcDbEntity
  8
0
  6
CONTINUOUS
 62
     0
100
AcDbLine
 10
0.0
 20
0.0
 30
0.0
 11
-1.0
 21
0.0
 31
0.0
  0
LINE
  5
6F
100
AcDbEntity
  8
0
  6
CONTINUOUS
 62
     0
100
AcDbLine
 10
-0.5
 20
0.5
 30
0.0
 11
0.5
 21
0.5
 31
0.0
  0
LINE
  5
70
100
AcDbEntity
  8
0
  6
CONTINUOUS
 62
     0
100
AcDbLine
 10
0.5
 20
0.5
 30
0.0
 11
0.5
 21
-0.5
 31
0.0
  0
LINE
  5
71
100
AcDbEntity
  8
0
  6
CONTINUOUS
 62
     0
100
AcDbLine
 10
0.5
 20
-0.5
 30
0.0
 11
-0.5
 21
-0.5
 31
0.0
  0
LINE
  5
72
100
AcDbEntity
  8
0
  6
CONTINUOUS
 62
     0
100
AcDbLine
 10
-0.5
 20
-0.5
 30
0.0
 11
-0.5
 21
0.5
 31
0.0
  0
LINE
  5
73
100
AcDbEntity
  8
0
  6
CONTINUOUS
 62
     0
100
AcDbLine
 10
-0.25
 20
0.25
 30
0.0
 11
0.25
 21
0.25
 31
0.0
  0
LINE
  5
74
100
AcDbEntity
  8
0
  6
CONTINUOUS
 62
     0
100
AcDbLine
 10
0.25
 20
0.25
 30
0.0
 11
0.25
 21
-0.25
 31
0.0
  0
LINE
  5
75
100
AcDbEntity
  8
0
  6
CONTINUOUS
 62
     0
100
AcDbLine
 10
0.25
 20
-0.25
 30
0.0
 11
-0.25
 21
-0.25
 31
0.0
  0
LINE
  5
76
100
AcDbEntity
  8
0
  6
CONTINUOUS
 62
     0
100
AcDbLine
 10
-0.25
 20
-0.25
 30
0.0
 11
-0.25
 21
0.25
 31
0.0
  0
ENDBLK
  5
77
100
AcDbEntity
  8
0
100
AcDbBlockEnd
  0
BLOCK
  5
78
100
AcDbEntity
  8
0
100
AcDbBlockBegin
  2
_EX_WBOX
 70
     0
 10
0.0
 20
0.0
 30
0.0
  3
_EX_WBOX
  1

  0
LINE
  5
79
100
AcDbEntity
  8
0
  6
CONTINUOUS
 62
     0
100
AcDbLine
 10
-0.5
 20
0.0
 30
0.0
 11
-1.0
 21
0.0
 31
0.0
  0
LINE
  5
7A
100
AcDbEntity
  8
0
  6
CONTINUOUS
 62
     0
100
AcDbLine
 10
-0.5
 20
0.5
 30
0.0
 11
0.5
 21
0.5
 31
0.0
  0
LINE
  5
7B
100
AcDbEntity
  8
0
  6
CONTINUOUS
 62
     0
100
AcDbLine
 10
0.5
 20
0.5
 30
0.0
 11
0.5
 21
-0.5
 31
0.0
  0
LINE
  5
7C
100
AcDbEntity
  8
0
  6
CONTINUOUS
 62
     0
100
AcDbLine
 10
0.5
 20
-0.5
 30
0.0
 11
-0.5
 21
-0.5
 31
0.0
  0
LINE
  5
7D
100
AcDbEntity
  8
0
  6
CONTINUOUS
 62
     0
100
AcDbLine
 10
-0.5
 20
-0.5
 30
0.0
 11
-0.5
 21
0.5
 31
0.0
  0
ENDBLK
  5
7E
100
AcDbEntity
  8
0
100
AcDbBlockEnd
  0
BLOCK
  5
7F
100
AcDbEntity
  8
0
100
AcDbBlockBegin
  2
_EX_INTEGRAL
 70
     0
 10
0.0
 20
0.0
 30
0.0
  3
_EX_INTEGRAL
  1

  0
LINE
  5
80
100
AcDbEntity
  8
0
  6
CONTINUOUS
 62
     0
100
AcDbLine
 10
0.0
 20
0.0
 30
0.0
 11
-1.0
 21
0.0
 31
0.0
  0
ARC
  5
81
100
AcDbEntity
  8
0
  6
CONTINUOUS
 62
     0
100
AcDbCircle
 10
0.542115
 20
0.164992
 30
0.0
 40
0.56667
100
AcDbArc
 50
73.07249
 51
196.927513
  0
ARC
  5
82
100
AcDbEntity
  8
0
  6
CONTINUOUS
 62
     0
100
AcDbCircle
 10
-0.542115
 20
-0.164992
 30
0.0
 40
0.56667
100
AcDbArc
 50
253.072487
 51
16.927513
  0
ENDBLK
  5
83
100
AcDbEntity
  8
0
100
AcDbBlockEnd
  0
BLOCK
  5
ED
100
AcDbEntity
  8
0
100
AcDbBlockBegin
  2
*D14
 70
    65
 10
0.0
 20
0.0
 30
0.0
  3
*D14
  1

  0
LINE
  5
EE
100
AcDbEntity
  8
図
  6
CONTINUOUS
 62
     3
100
AcDbLine
 10
489.184271
 20
1483.5
 30
0.0
 11
489.184271
 21
1524.0
 31
0.0
  0
TEXT
  5
EF
100
AcDbEntity
  8
図
  6
CONTINUOUS
 62
     2
100
AcDbText
 10
490.884271
 20
1517.5
 30
0.0
 40
40.0
  1
100
 41
0.945
  7
EXCADSTD
 72
     1
 11
539.184271
 21
1517.5
 31
0.0
100
AcDbText
  0
LINE
  5
F0
100
AcDbEntity
  8
図
  6
CONTINUOUS
 62
     3
100
AcDbLine
 10
489.184271
 20
1514.0
 30
0.0
 11
589.184271
 21
1514.0
 31
0.0
  0
LINE
  5
F1
100
AcDbEntity
  8
図
  6
CONTINUOUS
 62
     3
100
AcDbLine
 10
519.184271
 20
1519.0
 30
0.0
 11
489.184271
 21
1514.0
 31
0.0
  0
LINE
  5
F2
100
AcDbEntity
  8
図
  6
CONTINUOUS
 62
     3
100
AcDbLine
 10
489.184271
 20
1514.0
 30
0.0
 11
519.184271
 21
1509.0
 31
0.0
  0
LINE
  5
F3
100
AcDbEntity
  8
図
  6
CONTINUOUS
 62
     3
100
AcDbLine
 10
559.184271
 20
1509.0
 30
0.0
 11
589.184271
 21
1514.0
 31
0.0
  0
LINE
  5
F4
100
AcDbEntity
  8
図
  6
CONTINUOUS
 62
     3
100
AcDbLine
 10
589.184271
 20
1514.0
 30
0.0
 11
559.184271
 21
1519.0
 31
0.0
  0
LINE
  5
F5
100
AcDbEntity
  8
図
  6
CONTINUOUS
 62
     3
100
AcDbLine
 10
589.184271
 20
1481.0
 30
0.0
 11
589.184271
 21
1519.0
 31
0.0
  0
ENDBLK
  5
F6
100
AcDbEntity
  8
0
100
AcDbBlockEnd
  0
BLOCK
  5
FA
100
AcDbEntity
  8
0
100
AcDbBlockBegin
  2
*D15
 70
    65
 10
0.0
 20
0.0
 30
0.0
  3
*D15
  1

  0
LINE
  5
FB
100
AcDbEntity
  8
図
  6
CONTINUOUS
 62
     3
100
AcDbLine
 10
689.184271
 20
1483.5
 30
0.0
 11
689.184271
 21
1524.0
 31
0.0
  0
TEXT
  5
FC
100
AcDbEntity
  8
図
  6
CONTINUOUS
 62
     2
100
AcDbText
 10
590.884271
 20
1517.5
 30
0.0
 40
40.0
  1
100
 41
0.945
  7
EXCADSTD
 72
     1
 11
639.184271
 21
1517.5
 31
0.0
100
AcDbText
  0
LINE
  5
FD
100
AcDbEntity
  8
図
  6
CONTINUOUS
 62
     3
100
AcDbLine
 10
589.184271
 20
1514.0
 30
0.0
 11
689.184271
 21
1514.0
 31
0.0
  0
LINE
  5
FE
100
AcDbEntity
  8
図
  6
CONTINUOUS
 62
     3
100
AcDbLine
 10
619.184271
 20
1519.0
 30
0.0
 11
589.184271
 21
1514.0
 31
0.0
  0
LINE
  5
FF
100
AcDbEntity
  8
図
  6
CONTINUOUS
 62
     3
100
AcDbLine
 10
589.184271
 20
1514.0
 30
0.0
 11
619.184271
 21
1509.0
 31
0.0
  0
LINE
  5
100
100
AcDbEntity
  8
図
  6
CONTINUOUS
 62
     3
100
AcDbLine
 10
659.184271
 20
1509.0
 30
0.0
 11
689.184271
 21
1514.0
 31
0.0
  0
LINE
  5
101
100
AcDbEntity
  8
図
  6
CONTINUOUS
 62
     3
100
AcDbLine
 10
689.184271
 20
1514.0
 30
0.0
 11
659.184271
 21
1519.0
 31
0.0
  0
ENDBLK
  5
102
100
AcDbEntity
  8
0
100
AcDbBlockEnd
  0
BLOCK
  5
107
100
AcDbEntity
  8
0
100
AcDbBlockBegin
  2
*D16
 70
    65
 10
0.0
 20
0.0
 30
0.0
  3
*D16
  1

  0
TEXT
  5
108
100
AcDbEntity
  8
図
  6
CONTINUOUS
 62
     2
100
AcDbText
 10
499.310025
 20
2632.976135
 30
0.0
 40
40.0
  1
%%c180
 50
306.790099
 41
0.84
  7
EXCADSTD
 72
     1
 11
532.009158
 21
2589.250551
 31
0.0
100
AcDbText
  0
LINE
  5
109
100
AcDbEntity
  8
図
  6
CONTINUOUS
 62
     3
100
AcDbLine
 10
488.182596
 20
2642.011645
 30
0.0
 11
711.866226
 21
2342.899815
 31
0.0
  0
LINE
  5
10A
100
AcDbEntity
  8
図
  6
CONTINUOUS
 62
     3
100
AcDbLine
 10
564.1296
 20
2532.105759
 30
0.0
 11
586.100331
 21
2511.075139
 31
0.0
  0
LINE
  5
10B
100
AcDbEntity
  8
図
  6
CONTINUOUS
 62
     3
100
AcDbLine
 10
586.100331
 20
2511.075139
 30
0.0
 11
572.137949
 21
2538.094611
 31
0.0
  0
LINE
  5
10C
100
AcDbEntity
  8
図
  6
CONTINUOUS
 62
     3
100
AcDbLine
 10
715.8704
 20
2345.894241
 30
0.0
 11
693.899669
 21
2366.924861
 31
0.0
  0
LINE
  5
10D
100
AcDbEntity
  8
図
  6
CONTINUOUS
 62
     3
100
AcDbLine
 10
693.899669
 20
2366.924861
 30
0.0
 11
707.862051
 21
2339.905389
 31
0.0
  0
ENDBLK
  5
10E
100
AcDbEntity
  8
0
100
AcDbBlockEnd
  0
BLOCK
  5
112
100
AcDbEntity
  8
0
100
AcDbBlockBegin
  2
*D17
 70
    65
 10
0.0
 20
0.0
 30
0.0
  3
*D17
  1

  0
LINE
  5
113
100
AcDbEntity
  8
図
  6
CONTINUOUS
 62
     3
100
AcDbLine
 10
525.748566
 20
2504.963096
 30
0.0
 11
498.022849
 21
2520.970546
 31
0.0
  0
LINE
  5
114
100
AcDbEntity
  8
図
  6
CONTINUOUS
 62
     3
100
AcDbLine
 10
640.0
 20
2315.0
 30
0.0
 11
640.0
 21
2275.058907
 31
0.0
  0
TEXT
  5
115
100
AcDbEntity
  8
図
  6
CONTINUOUS
 62
     2
100
AcDbText
 10
486.614192
 20
2403.789827
 30
0.0
 40
40.0
  1
120%%d
 50
300.0
 41
0.84
  7
EXCADSTD
 72
     1
 11
509.714192
 21
2363.779454
 31
0.0
100
AcDbText
  0
ARC
  5
116
100
AcDbEntity
  8
図
  6
CONTINUOUS
 62
     3
100
AcDbCircle
 10
640.000093
 20
2439.000054
 30
0.0
 40
153.941146
100
AcDbArc
 50
150.000035
 51
269.999965
  0
LINE
  5
117
100
AcDbEntity
  8
図
  6
CONTINUOUS
 62
     3
100
AcDbLine
 10
496.01323
 20
2487.489784
 30
0.0
 11
506.683103
 21
2515.970546
 31
0.0
  0
LINE
  5
118
100
AcDbEntity
  8
図
  6
CONTINUOUS
 62
     3
100
AcDbLine
 10
506.683103
 20
2515.970546
 30
0.0
 11
487.352976
 21
2492.489784
 31
0.0
  0
LINE
  5
119
100
AcDbEntity
  8
図
  6
CONTINUOUS
 62
     3
100
AcDbLine
 10
610.0
 20
2280.058907
 30
0.0
 11
640.0
 21
2285.058907
 31
0.0
  0
LINE
  5
11A
100
AcDbEntity
  8
図
  6
CONTINUOUS
 62
     3
100
AcDbLine
 10
640.0
 20
2285.058907
 30
0.0
 11
610.0
 21
2290.058907
 31
0.0
  0
ENDBLK
  5
11B
100
AcDbEntity
  8
0
100
AcDbBlockEnd
  0
BLOCK
  5
11E
100
AcDbEntity
  8
0
100
AcDbBlockBegin
  2
*D18
 70
    65
 10
0.0
 20
0.0
 30
0.0
  3
*D18
  1

  0
LINE
  5
11F
100
AcDbEntity
  8
図
  6
CONTINUOUS
 62
     3
100
AcDbLine
 10
640.0
 20
2315.0
 30
0.0
 11
640.0
 21
2275.058907
 31
0.0
  0
LINE
  5
120
100
AcDbEntity
  8
図
  6
CONTINUOUS
 62
     3
100
AcDbLine
 10
754.251434
 20
2504.963096
 30
0.0
 11
781.977151
 21
2520.970546
 31
0.0
  0
TEXT
  5
121
100
AcDbEntity
  8
図
  6
CONTINUOUS
 62
     2
100
AcDbText
 10
747.185808
 20
2323.76908
 30
0.0
 40
40.0
  1
120%%d
 50
60.0
 41
0.84
  7
EXCADSTD
 72
     1
 11
770.285808
 21
2363.779454
 31
0.0
100
AcDbText
  0
ARC
  5
122
100
AcDbEntity
  8
図
  6
CONTINUOUS
 62
     3
100
AcDbCircle
 10
639.999907
 20
2439.000054
 30
0.0
 40
153.941146
100
AcDbArc
 50
270.000035
 51
29.999965
  0
LINE
  5
123
100
AcDbEntity
  8
図
  6
CONTINUOUS
 62
     3
100
AcDbLine
 10
670.0
 20
2290.058907
 30
0.0
 11
640.0
 21
2285.058907
 31
0.0
  0
LINE
  5
124
100
AcDbEntity
  8
図
  6
CONTINUOUS
 62
     3
100
AcDbLine
 10
640.0
 20
2285.058907
 30
0.0
 11
670.0
 21
2280.058907
 31
0.0
  0
LINE
  5
125
100
AcDbEntity
  8
図
  6
CONTINUOUS
 62
     3
100
AcDbLine
 10
792.647024
 20
2492.489784
 30
0.0
 11
773.316897
 21
2515.970546
 31
0.0
  0
LINE
  5
126
100
AcDbEntity
  8
図
  6
CONTINUOUS
 62
     3
100
AcDbLine
 10
773.316897
 20
2515.970546
 30
0.0
 11
783.98677
 21
2487.489784
 31
0.0
  0
ENDBLK
  5
127
100
AcDbEntity
  8
0
100
AcDbBlockEnd
  0
BLOCK
  5
12A
100
AcDbEntity
  8
0
100
AcDbBlockBegin
  2
*D19
 70
    65
 10
0.0
 20
0.0
 30
0.0
  3
*D19
  1

  0
TEXT
  5
12B
100
AcDbEntity
  8
図
  6
CONTINUOUS
 62
     2
100
AcDbText
 10
842.5
 20
2517.0
 30
0.0
 40
40.0
  1
240
 50
90.0
 41
0.84
  7
EXCADSTD
 72
     1
 11
842.5
 21
2559.0
 31
0.0
100
AcDbText
  0
LINE
  5
12C
100
AcDbEntity
  8
図
  6
CONTINUOUS
 62
     3
100
AcDbLine
 10
846.0
 20
2679.0
 30
0.0
 11
846.0
 21
2439.0
 31
0.0
  0
LINE
  5
12D
100
AcDbEntity
  8
図
  6
CONTINUOUS
 62
     3
100
AcDbLine
 10
851.0
 20
2649.0
 30
0.0
 11
846.0
 21
2679.0
 31
0.0
  0
LINE
  5
12E
100
AcDbEntity
  8
図
  6
CONTINUOUS
 62
     3
100
AcDbLine
 10
846.0
 20
2679.0
 30
0.0
 11
841.0
 21
2649.0
 31
0.0
  0
LINE
  5
12F
100
AcDbEntity
  8
図
  6
CONTINUOUS
 62
     3
100
AcDbLine
 10
841.0
 20
2469.0
 30
0.0
 11
846.0
 21
2439.0
 31
0.0
  0
LINE
  5
130
100
AcDbEntity
  8
図
  6
CONTINUOUS
 62
     3
100
AcDbLine
 10
846.0
 20
2439.0
 30
0.0
 11
851.0
 21
2469.0
 31
0.0
  0
ENDBLK
  5
131
100
AcDbEntity
  8
0
100
AcDbBlockEnd
  0
BLOCK
  5
147
100
AcDbEntity
  8
0
100
AcDbBlockBegin
  2
*D20
 70
    65
 10
0.0
 20
0.0
 30
0.0
  3
*D20
  1

  0
TEXT
  5
148
100
AcDbEntity
  8
図
  6
CONTINUOUS
 62
     2
100
AcDbText
 10
251.533882
 20
1756.366825
 30
0.0
 40
40.0
  1
%%c420
 50
22.371883
 41
0.84
  7
EXCADSTD
 72
     1
 11
302.0243
 21
1777.148493
 31
0.0
100
AcDbText
  0
LINE
  5
149
100
AcDbEntity
  8
図
  6
CONTINUOUS
 62
     3
100
AcDbLine
 10
240.012249
 20
1747.839687
 30
0.0
 11
807.335902
 21
1981.347991
 31
0.0
  0
LINE
  5
14A
100
AcDbEntity
  8
図
  6
CONTINUOUS
 62
     3
100
AcDbLine
 10
365.367181
 20
1794.028344
 30
0.0
 11
391.206086
 21
1810.070508
 31
0.0
  0
LINE
  5
14B
100
AcDbEntity
  8
図
  6
CONTINUOUS
 62
     3
100
AcDbLine
 10
391.206086
 20
1810.070508
 30
0.0
 11
361.561015
 21
1803.275674
 31
0.0
  0
LINE
  5
14C
100
AcDbEntity
  8
図
  6
CONTINUOUS
 62
     3
100
AcDbLine
 10
805.432819
 20
1985.971656
 30
0.0
 11
779.593914
 21
1969.929492
 31
0.0
  0
LINE
  5
14D
100
AcDbEntity
  8
図
  6
CONTINUOUS
 62
     3
100
AcDbLine
 10
779.593914
 20
1969.929492
 30
0.0
 11
809.238985
 21
1976.724326
 31
0.0
  0
ENDBLK
  5
14E
100
AcDbEntity
  8
0
100
AcDbBlockEnd
  0
BLOCK
  5
844
100
AcDbEntity
  8
0
100
AcDbBlockBegin
  2
*D21
 70
    65
 10
0.0
 20
0.0
 30
0.0
  3
*D21
  1

  0
TEXT
  5
845
100
AcDbEntity
  8
図
  6
CONTINUOUS
 62
     2
100
AcDbText
 10
694.891299
 20
2518.068884
 30
0.0
 40
40.0
  1
%%c90
 50
52.253195
 41
0.84
  7
EXCADSTD
 72
     1
 11
721.631024
 21
2552.607695
 31
0.0
100
AcDbText
  0
LINE
  5
846
100
AcDbEntity
  8
図
  6
CONTINUOUS
 62
     3
100
AcDbLine
 10
752.639865
 20
2584.493159
 30
0.0
 11
594.087011
 21
2379.695722
 31
0.0
  0
LINE
  5
847
100
AcDbEntity
  8
図
  6
CONTINUOUS
 62
     3
100
AcDbLine
 10
681.959371
 20
2501.365144
 30
0.0
 11
667.547794
 21
2474.582567
 31
0.0
  0
LINE
  5
848
100
AcDbEntity
  8
図
  6
CONTINUOUS
 62
     3
100
AcDbLine
 10
667.547794
 20
2474.582567
 30
0.0
 11
689.866608
 21
2495.243412
 31
0.0
  0
LINE
  5
849
100
AcDbEntity
  8
図
  6
CONTINUOUS
 62
     3
100
AcDbLine
 10
598.040629
 20
2376.634856
 30
0.0
 11
612.452206
 21
2403.417433
 31
0.0
  0
LINE
  5
84A
100
AcDbEntity
  8
図
  6
CONTINUOUS
 62
     3
100
AcDbLine
 10
612.452206
 20
2403.417433
 30
0.0
 11
590.133392
 21
2382.756588
 31
0.0
  0
ENDBLK
  5
84B
100
AcDbEntity
  8
0
100
AcDbBlockEnd
  0
BLOCK
  5
84E
100
AcDbEntity
  8
0
100
AcDbBlockBegin
  2
*D22
 70
    65
 10
0.0
 20
0.0
 30
0.0
  3
*D22
  1

  0
LINE
  5
84F
100
AcDbEntity
  8
寸法
  6
CONTINUOUS
 62
     3
100
AcDbLine
 10
828.0
 20
1890.0
 30
0.0
 11
894.0
 21
1890.0
 31
0.0
  0
TEXT
  5
850
100
AcDbEntity
  8
寸法
  6
CONTINUOUS
 62
     2
100
AcDbText
 10
880.5
 20
1968.0
 30
0.0
 40
40.0
  1
240
 50
90.0
 41
0.84
  7
EXCADSTD
 72
     1
 11
880.5
 21
2010.0
 31
0.0
100
AcDbText
  0
LINE
  5
851
100
AcDbEntity
  8
寸法
  6
CONTINUOUS
 62
     3
100
AcDbLine
 10
884.0
 20
1890.0
 30
0.0
 11
884.0
 21
2130.0
 31
0.0
  0
LINE
  5
852
100
AcDbEntity
  8
寸法
  6
CONTINUOUS
 62
     3
100
AcDbLine
 10
879.0
 20
1920.0
 30
0.0
 11
884.0
 21
1890.0
 31
0.0
  0
LINE
  5
853
100
AcDbEntity
  8
寸法
  6
CONTINUOUS
 62
     3
100
AcDbLine
 10
884.0
 20
1890.0
 30
0.0
 11
889.0
 21
1920.0
 31
0.0
  0
LINE
  5
854
100
AcDbEntity
  8
寸法
  6
CONTINUOUS
 62
     3
100
AcDbLine
 10
889.0
 20
2100.0
 30
0.0
 11
884.0
 21
2130.0
 31
0.0
  0
LINE
  5
855
100
AcDbEntity
  8
寸法
  6
CONTINUOUS
 62
     3
100
AcDbLine
 10
884.0
 20
2130.0
 30
0.0
 11
879.0
 21
2100.0
 31
0.0
  0
ENDBLK
  5
856
100
AcDbEntity
  8
0
100
AcDbBlockEnd
  0
BLOCK
  5
859
100
AcDbEntity
  8
0
100
AcDbBlockBegin
  2
*D23
 70
    65
 10
0.0
 20
0.0
 30
0.0
  3
*D23
  1

  0
LINE
  5
85A
100
AcDbEntity
  8
寸法
  6
CONTINUOUS
 62
     3
100
AcDbLine
 10
885.000003
 20
1117.0
 30
0.0
 11
970.0
 21
1117.0
 31
0.0
  0
TEXT
  5
85B
100
AcDbEntity
  8
寸法
  6
CONTINUOUS
 62
     2
100
AcDbText
 10
944.5
 20
884.6
 30
0.0
 40
40.0
  1
（10～25）
 50
90.0
 41
0.84
  7
EXCADSTD
 72
     1
 11
944.5
 21
977.0
 31
0.0
100
AcDbText
  0
LINE
  5
85C
100
AcDbEntity
  8
寸法
  6
CONTINUOUS
 62
     3
100
AcDbLine
 10
948.0
 20
863.499996
 30
0.0
 11
948.0
 21
1172.0
 31
0.0
  0
LINE
  5
85D
100
AcDbEntity
  8
寸法
  6
CONTINUOUS
 62
     3
100
AcDbLine
 10
953.0
 20
1087.0
 30
0.0
 11
948.0
 21
1117.0
 31
0.0
  0
LINE
  5
85E
100
AcDbEntity
  8
寸法
  6
CONTINUOUS
 62
     3
100
AcDbLine
 10
948.0
 20
1117.0
 30
0.0
 11
943.0
 21
1087.0
 31
0.0
  0
LINE
  5
85F
100
AcDbEntity
  8
寸法
  6
CONTINUOUS
 62
     3
100
AcDbLine
 10
943.0
 20
1172.0
 30
0.0
 11
948.0
 21
1142.0
 31
0.0
  0
LINE
  5
860
100
AcDbEntity
  8
寸法
  6
CONTINUOUS
 62
     3
100
AcDbLine
 10
948.0
 20
1142.0
 30
0.0
 11
953.0
 21
1172.0
 31
0.0
  0
LINE
  5
861
100
AcDbEntity
  8
寸法
  6
CONTINUOUS
 62
     3
100
AcDbLine
 10
885.0
 20
1142.0
 30
0.0
 11
1031.0
 21
1142.0
 31
0.0
  0
ENDBLK
  5
862
100
AcDbEntity
  8
0
100
AcDbBlockEnd
  0
BLOCK
  5
865
100
AcDbEntity
  8
0
100
AcDbBlockBegin
  2
*D24
 70
    65
 10
0.0
 20
0.0
 30
0.0
  3
*D24
  1

  0
LINE
  5
866
100
AcDbEntity
  8
寸法
  6
CONTINUOUS
 62
     3
100
AcDbLine
 10
796.184271
 20
1297.0
 30
0.0
 11
1066.000001
 21
1297.0
 31
0.0
  0
LINE
  5
867
100
AcDbEntity
  8
寸法
  6
CONTINUOUS
 62
     3
100
AcDbLine
 10
1010.384271
 20
1142.0
 30
0.0
 11
997.0
 21
1142.0
 31
0.0
  0
TEXT
  5
868
100
AcDbEntity
  8
寸法
  6
CONTINUOUS
 62
     2
100
AcDbText
 10
1003.5
 20
1177.5
 30
0.0
 40
40.0
  1
155
 50
90.0
 41
0.84
  7
EXCADSTD
 72
     1
 11
1003.5
 21
1219.5
 31
0.0
100
AcDbText
  0
LINE
  5
869
100
AcDbEntity
  8
寸法
  6
CONTINUOUS
 62
     3
100
AcDbLine
 10
1007.0
 20
1297.0
 30
0.0
 11
1007.0
 21
1142.0
 31
0.0
  0
LINE
  5
86A
100
AcDbEntity
  8
寸法
  6
CONTINUOUS
 62
     3
100
AcDbLine
 10
1012.0
 20
1267.0
 30
0.0
 11
1007.0
 21
1297.0
 31
0.0
  0
LINE
  5
86B
100
AcDbEntity
  8
寸法
  6
CONTINUOUS
 62
     3
100
AcDbLine
 10
1007.0
 20
1297.0
 30
0.0
 11
1002.0
 21
1267.0
 31
0.0
  0
LINE
  5
86C
100
AcDbEntity
  8
寸法
  6
CONTINUOUS
 62
     3
100
AcDbLine
 10
1002.0
 20
1172.0
 30
0.0
 11
1007.0
 21
1142.0
 31
0.0
  0
LINE
  5
86D
100
AcDbEntity
  8
寸法
  6
CONTINUOUS
 62
     3
100
AcDbLine
 10
1007.0
 20
1142.0
 30
0.0
 11
1012.0
 21
1172.0
 31
0.0
  0
ENDBLK
  5
86E
100
AcDbEntity
  8
0
100
AcDbBlockEnd
  0
BLOCK
  5
871
100
AcDbEntity
  8
0
100
AcDbBlockBegin
  2
*D25
 70
    65
 10
0.0
 20
0.0
 30
0.0
  3
*D25
  1

  0
LINE
  5
872
100
AcDbEntity
  8
寸法
  6
CONTINUOUS
 62
     3
100
AcDbLine
 10
1076.384271
 20
1297.0
 30
0.0
 11
1056.0
 21
1297.0
 31
0.0
  0
TEXT
  5
873
100
AcDbEntity
  8
寸法
  6
CONTINUOUS
 62
     2
100
AcDbText
 10
1062.5
 20
855.0
 30
0.0
 40
40.0
  1
800
 50
90.0
 41
0.84
  7
EXCADSTD
 72
     1
 11
1062.5
 21
897.0
 31
0.0
100
AcDbText
  0
LINE
  5
874
100
AcDbEntity
  8
寸法
  6
CONTINUOUS
 62
     3
100
AcDbLine
 10
1066.0
 20
1297.0
 30
0.0
 11
1066.0
 21
497.0
 31
0.0
  0
LINE
  5
875
100
AcDbEntity
  8
寸法
  6
CONTINUOUS
 62
     3
100
AcDbLine
 10
1071.0
 20
1267.0
 30
0.0
 11
1066.0
 21
1297.0
 31
0.0
  0
LINE
  5
876
100
AcDbEntity
  8
寸法
  6
CONTINUOUS
 62
     3
100
AcDbLine
 10
1066.0
 20
1297.0
 30
0.0
 11
1061.0
 21
1267.0
 31
0.0
  0
LINE
  5
877
100
AcDbEntity
  8
寸法
  6
CONTINUOUS
 62
     3
100
AcDbLine
 10
1061.0
 20
527.0
 30
0.0
 11
1066.0
 21
497.0
 31
0.0
  0
LINE
  5
878
100
AcDbEntity
  8
寸法
  6
CONTINUOUS
 62
     3
100
AcDbLine
 10
1066.0
 20
497.0
 30
0.0
 11
1071.0
 21
527.0
 31
0.0
  0
ENDBLK
  5
879
100
AcDbEntity
  8
0
100
AcDbBlockEnd
  0
BLOCK
  5
87C
100
AcDbEntity
  8
0
100
AcDbBlockBegin
  2
*D26
 70
    65
 10
0.0
 20
0.0
 30
0.0
  3
*D26
  1

  0
LINE
  5
87D
100
AcDbEntity
  8
寸法
  6
CONTINUOUS
 62
     3
100
AcDbLine
 10
1034.0
 20
1142.0
 30
0.0
 11
997.0
 21
1142.0
 31
0.0
  0
TEXT
  5
87E
100
AcDbEntity
  8
寸法
  6
CONTINUOUS
 62
     2
100
AcDbText
 10
1003.5
 20
777.5
 30
0.0
 40
40.0
  1
645
 50
90.0
 41
0.84
  7
EXCADSTD
 72
     1
 11
1003.5
 21
819.5
 31
0.0
100
AcDbText
  0
LINE
  5
87F
100
AcDbEntity
  8
寸法
  6
CONTINUOUS
 62
     3
100
AcDbLine
 10
1007.0
 20
1142.0
 30
0.0
 11
1007.0
 21
497.0
 31
0.0
  0
LINE
  5
880
100
AcDbEntity
  8
寸法
  6
CONTINUOUS
 62
     3
100
AcDbLine
 10
1012.0
 20
1112.0
 30
0.0
 11
1007.0
 21
1142.0
 31
0.0
  0
LINE
  5
881
100
AcDbEntity
  8
寸法
  6
CONTINUOUS
 62
     3
100
AcDbLine
 10
1007.0
 20
1142.0
 30
0.0
 11
1002.0
 21
1112.0
 31
0.0
  0
LINE
  5
882
100
AcDbEntity
  8
寸法
  6
CONTINUOUS
 62
     3
100
AcDbLine
 10
1002.0
 20
527.0
 30
0.0
 11
1007.0
 21
497.0
 31
0.0
  0
LINE
  5
883
100
AcDbEntity
  8
寸法
  6
CONTINUOUS
 62
     3
100
AcDbLine
 10
1007.0
 20
497.0
 30
0.0
 11
1012.0
 21
527.0
 31
0.0
  0
ENDBLK
  5
884
100
AcDbEntity
  8
0
100
AcDbBlockEnd
  0
BLOCK
  5
887
100
AcDbEntity
  8
0
100
AcDbBlockBegin
  2
*D27
 70
    65
 10
0.0
 20
0.0
 30
0.0
  3
*D27
  1

  0
LINE
  5
888
100
AcDbEntity
  8
寸法
  6
CONTINUOUS
 62
     3
100
AcDbLine
 10
450.784271
 20
1442.0
 30
0.0
 11
323.0
 21
1442.0
 31
0.0
  0
TEXT
  5
889
100
AcDbEntity
  8
寸法
  6
CONTINUOUS
 62
     2
100
AcDbText
 10
329.5
 20
1250.0
 30
0.0
 40
40.0
  1
300
 50
90.0
 41
0.84
  7
EXCADSTD
 72
     1
 11
329.5
 21
1292.0
 31
0.0
100
AcDbText
  0
LINE
  5
88A
100
AcDbEntity
  8
寸法
  6
CONTINUOUS
 62
     3
100
AcDbLine
 10
333.0
 20
1442.0
 30
0.0
 11
333.0
 21
1142.0
 31
0.0
  0
LINE
  5
88B
100
AcDbEntity
  8
寸法
  6
CONTINUOUS
 62
     3
100
AcDbLine
 10
338.0
 20
1412.0
 30
0.0
 11
333.0
 21
1442.0
 31
0.0
  0
LINE
  5
88C
100
AcDbEntity
  8
寸法
  6
CONTINUOUS
 62
     3
100
AcDbLine
 10
333.0
 20
1442.0
 30
0.0
 11
328.0
 21
1412.0
 31
0.0
  0
LINE
  5
88D
100
AcDbEntity
  8
寸法
  6
CONTINUOUS
 62
     3
100
AcDbLine
 10
328.0
 20
1172.0
 30
0.0
 11
333.0
 21
1142.0
 31
0.0
  0
LINE
  5
88E
100
AcDbEntity
  8
寸法
  6
CONTINUOUS
 62
     3
100
AcDbLine
 10
333.0
 20
1142.0
 30
0.0
 11
338.0
 21
1172.0
 31
0.0
  0
ENDBLK
  5
88F
100
AcDbEntity
  8
0
100
AcDbBlockEnd
  0
BLOCK
  5
89B
100
AcDbEntity
  8
0
100
AcDbBlockBegin
  2
*D28
 70
    65
 10
0.0
 20
0.0
 30
0.0
  3
*D28
  1

  0
TEXT
  5
89C
100
AcDbEntity
  8
寸法
  6
CONTINUOUS
 62
     2
100
AcDbText
 10
1405.184271
 20
1671.0
 30
0.0
 40
40.0
  1
（20～28）
 41
0.945
  7
EXCADSTD
 72
     1
 11
1512.284271
 21
1671.0
 31
0.0
100
AcDbText
  0
LINE
  5
89D
100
AcDbEntity
  8
寸法
  6
CONTINUOUS
 62
     3
100
AcDbLine
 10
1727.784271
 20
1667.5
 30
0.0
 11
1381.284267
 21
1667.5
 31
0.0
  0
LINE
  5
89E
100
AcDbEntity
  8
寸法
  6
CONTINUOUS
 62
     3
100
AcDbLine
 10
1639.784271
 20
1662.5
 30
0.0
 11
1669.784271
 21
1667.5
 31
0.0
  0
LINE
  5
89F
100
AcDbEntity
  8
寸法
  6
CONTINUOUS
 62
     3
100
AcDbLine
 10
1669.784271
 20
1667.5
 30
0.0
 11
1639.784271
 21
1672.5
 31
0.0
  0
ENDBLK
  5
8A0
100
AcDbEntity
  8
0
100
AcDbBlockEnd
  0
BLOCK
  5
8A3
100
AcDbEntity
  8
0
100
AcDbBlockBegin
  2
*D29
 70
    65
 10
0.0
 20
0.0
 30
0.0
  3
*D29
  1

  0
TEXT
  5
8A4
100
AcDbEntity
  8
寸法
  6
CONTINUOUS
 62
     2
100
AcDbText
 10
1789.784271
 20
1671.0
 30
0.0
 40
40.0
  1
50以上
 41
0.945
  7
EXCADSTD
 72
     1
 11
1852.784271
 21
1671.0
 31
0.0
100
AcDbText
  0
LINE
  5
8A5
100
AcDbEntity
  8
寸法
  6
CONTINUOUS
 62
     3
100
AcDbLine
 10
1690.784271
 20
1667.5
 30
0.0
 11
1931.284275
 21
1667.5
 31
0.0
  0
CIRCLE
  5
8A6
100
AcDbEntity
  8
寸法
  6
CONTINUOUS
 62
     3
100
AcDbCircle
 10
1697.784271
 20
1667.5
 30
0.0
 40
3.5
  0
CIRCLE
  5
8A7
100
AcDbEntity
  8
寸法
  6
CONTINUOUS
 62
     3
100
AcDbCircle
 10
1697.784271
 20
1667.5
 30
0.0
 40
1.75
  0
LINE
  5
8A8
100
AcDbEntity
  8
寸法
  6
CONTINUOUS
 62
     3
100
AcDbLine
 10
1777.784271
 20
1672.5
 30
0.0
 11
1747.784271
 21
1667.5
 31
0.0
  0
LINE
  5
8A9
100
AcDbEntity
  8
寸法
  6
CONTINUOUS
 62
     3
100
AcDbLine
 10
1747.784271
 20
1667.5
 30
0.0
 11
1777.784271
 21
1662.5
 31
0.0
  0
ENDBLK
  5
8AA
100
AcDbEntity
  8
0
100
AcDbBlockEnd
  0
BLOCK
  5
8AE
100
AcDbEntity
  8
0
100
AcDbBlockBegin
  2
*D30
 70
    65
 10
0.0
 20
0.0
 30
0.0
  3
*D30
  1

  0
TEXT
  5
8AF
100
AcDbEntity
  8
寸法
  6
CONTINUOUS
 62
     2
100
AcDbText
 10
1862.5
 20
1201.6
 30
0.0
 40
40.0
  1
100（ボトルトラップ）
 50
90.0
 41
0.84
  7
EXCADSTD
 72
     1
 11
1862.5
 21
1357.0
 31
0.0
100
AcDbText
  0
LINE
  5
8B0
100
AcDbEntity
  8
寸法
  6
CONTINUOUS
 62
     3
100
AcDbLine
 10
1714.784271
 20
1042.0
 30
0.0
 11
1876.0
 21
1042.0
 31
0.0
  0
LINE
  5
8B1
100
AcDbEntity
  8
寸法
  6
CONTINUOUS
 62
     3
100
AcDbLine
 10
1748.784271
 20
1142.0
 30
0.0
 11
1876.0
 21
1142.0
 31
0.0
  0
LINE
  5
8B2
100
AcDbEntity
  8
寸法
  6
CONTINUOUS
 62
     3
100
AcDbLine
 10
1866.0
 20
1012.0
 30
0.0
 11
1866.0
 21
1529.000008
 31
0.0
  0
LINE
  5
8B3
100
AcDbEntity
  8
寸法
  6
CONTINUOUS
 62
     3
100
AcDbLine
 10
1871.0
 20
1012.0
 30
0.0
 11
1866.0
 21
1042.0
 31
0.0
  0
LINE
  5
8B4
100
AcDbEntity
  8
寸法
  6
CONTINUOUS
 62
     3
100
AcDbLine
 10
1866.0
 20
1042.0
 30
0.0
 11
1861.0
 21
1012.0
 31
0.0
  0
LINE
  5
8B5
100
AcDbEntity
  8
寸法
  6
CONTINUOUS
 62
     3
100
AcDbLine
 10
1861.0
 20
1172.0
 30
0.0
 11
1866.0
 21
1142.0
 31
0.0
  0
LINE
  5
8B6
100
AcDbEntity
  8
寸法
  6
CONTINUOUS
 62
     3
100
AcDbLine
 10
1866.0
 20
1142.0
 30
0.0
 11
1871.0
 21
1172.0
 31
0.0
  0
ENDBLK
  5
8B7
100
AcDbEntity
  8
0
100
AcDbBlockEnd
  0
BLOCK
  5
8BA
100
AcDbEntity
  8
0
100
AcDbBlockBegin
  2
*D31
 70
    65
 10
0.0
 20
0.0
 30
0.0
  3
*D31
  1

  0
LINE
  5
8BB
100
AcDbEntity
  8
寸法
  6
CONTINUOUS
 62
     3
100
AcDbLine
 10
1933.0
 20
1485.499985
 30
0.0
 11
1933.0
 21
942.0
 31
0.0
  0
LINE
  5
8BC
100
AcDbEntity
  8
寸法
  6
CONTINUOUS
 62
     3
100
AcDbLine
 10
1928.0
 20
1172.0
 30
0.0
 11
1933.0
 21
1142.0
 31
0.0
  0
LINE
  5
8BD
100
AcDbEntity
  8
寸法
  6
CONTINUOUS
 62
     3
100
AcDbLine
 10
1933.0
 20
1142.0
 30
0.0
 11
1938.0
 21
1172.0
 31
0.0
  0
LINE
  5
8BE
100
AcDbEntity
  8
寸法
  6
CONTINUOUS
 62
     3
100
AcDbLine
 10
1938.0
 20
942.0
 30
0.0
 11
1933.0
 21
972.0
 31
0.0
  0
LINE
  5
8BF
100
AcDbEntity
  8
寸法
  6
CONTINUOUS
 62
     3
100
AcDbLine
 10
1933.0
 20
972.0
 30
0.0
 11
1928.0
 21
942.0
 31
0.0
  0
TEXT
  5
8C0
100
AcDbEntity
  8
寸法
  6
CONTINUOUS
 62
     2
100
AcDbText
 10
1929.5
 20
1196.8
 30
0.0
 40
40.0
  1
170（Ｐトラップ）
 50
90.0
 41
0.84
  7
EXCADSTD
 72
     1
 11
1929.5
 21
1327.0
 31
0.0
100
AcDbText
  0
LINE
  5
8C1
100
AcDbEntity
  8
寸法
  6
CONTINUOUS
 62
     3
100
AcDbLine
 10
1674.784271
 20
1142.0
 30
0.0
 11
1943.0
 21
1142.0
 31
0.0
  0
LINE
  5
8C2
100
AcDbEntity
  8
寸法
  6
CONTINUOUS
 62
     3
100
AcDbLine
 10
1707.684281
 20
972.0
 30
0.0
 11
1943.0
 21
972.0
 31
0.0
  0
ENDBLK
  5
8C3
100
AcDbEntity
  8
0
100
AcDbBlockEnd
  0
ENDSEC
  0
SECTION
  2
ENTITIES
  0
LINE
  5
84
100
AcDbEntity
  8
枠・表
  6
CONTINUOUS
 62
     7
100
AcDbLine
 10
180.0
 20
135.0
 30
0.0
 11
2000.0
 21
135.0
 31
0.0
  0
LINE
  5
85
100
AcDbEntity
  8
枠・表
  6
CONTINUOUS
 62
     7
100
AcDbLine
 10
2000.0
 20
135.0
 30
0.0
 11
2000.0
 21
2885.0
 31
0.0
  0
LINE
  5
86
100
AcDbEntity
  8
枠・表
  6
CONTINUOUS
 62
     7
100
AcDbLine
 10
180.0
 20
135.0
 30
0.0
 11
180.0
 21
2885.0
 31
0.0
  0
LINE
  5
87
100
AcDbEntity
  8
枠・表
  6
CONTINUOUS
 62
     7
100
AcDbLine
 10
180.0
 20
2885.0
 30
0.0
 11
2000.0
 21
2885.0
 31
0.0
  0
LINE
  5
88
100
AcDbEntity
  8
枠・表
  6
CONTINUOUS
 62
     7
100
AcDbLine
 10
180.0
 20
355.0
 30
0.0
 11
2000.0
 21
355.0
 31
0.0
  0
LINE
  5
89
100
AcDbEntity
  8
枠・表
  6
CONTINUOUS
 62
     6
100
AcDbLine
 10
2000.0
 20
235.0
 30
0.0
 11
750.0
 21
235.0
 31
0.0
  0
LINE
  5
8A
100
AcDbEntity
  8
枠・表
  6
CONTINUOUS
 62
     6
100
AcDbLine
 10
1860.0
 20
355.0
 30
0.0
 11
1860.0
 21
235.0
 31
0.0
  0
LINE
  5
8B
100
AcDbEntity
  8
枠・表
  6
CONTINUOUS
 62
     6
100
AcDbLine
 10
1810.0
 20
355.0
 30
0.0
 11
1810.0
 21
235.0
 31
0.0
  0
LINE
  5
8C
100
AcDbEntity
  8
枠・表
  6
CONTINUOUS
 62
     6
100
AcDbLine
 10
1440.0
 20
355.0
 30
0.0
 11
1440.0
 21
135.0
 31
0.0
  0
LINE
  5
8D
100
AcDbEntity
  8
枠・表
  6
CONTINUOUS
 62
     6
100
AcDbLine
 10
1390.0
 20
355.0
 30
0.0
 11
1390.0
 21
135.0
 31
0.0
  0
LINE
  5
8E
100
AcDbEntity
  8
枠・表
  6
CONTINUOUS
 62
     6
100
AcDbLine
 10
800.0
 20
355.0
 30
0.0
 11
800.0
 21
235.0
 31
0.0
  0
LINE
  5
8F
100
AcDbEntity
  8
枠・表
  6
CONTINUOUS
 62
     6
100
AcDbLine
 10
750.0
 20
355.0
 30
0.0
 11
750.0
 21
135.0
 31
0.0
  0
LINE
  5
90
100
AcDbEntity
  8
枠・表
  6
CONTINUOUS
 62
     6
100
AcDbLine
 10
620.0
 20
355.0
 30
0.0
 11
620.0
 21
135.0
 31
0.0
  0
LINE
  5
91
100
AcDbEntity
  8
枠・表
  6
CONTINUOUS
 62
     6
100
AcDbLine
 10
490.0
 20
355.0
 30
0.0
 11
490.0
 21
135.0
 31
0.0
  0
LINE
  5
92
100
AcDbEntity
  8
枠・表
  6
CONTINUOUS
 62
     6
100
AcDbLine
 10
335.0
 20
355.0
 30
0.0
 11
335.0
 21
135.0
 31
0.0
  0
LINE
  5
93
100
AcDbEntity
  8
枠・表
  6
CONTINUOUS
 62
     6
100
AcDbLine
 10
180.0
 20
305.0
 30
0.0
 11
750.0
 21
305.0
 31
0.0
  0
LINE
  5
94
100
AcDbEntity
  8
枠・表
  6
CONTINUOUS
 62
     6
100
AcDbLine
 10
1892.653809
 20
258.00293
 30
0.0
 11
1969.993897
 21
336.699829
 31
0.0
  0
LINE
  5
95
100
AcDbEntity
  8
枠・表
  6
EXLTYPE2
 62
     6
100
AcDbLine
 10
180.0
 20
185.0
 30
0.0
 11
490.0
 21
185.0
 31
0.0
  0
CIRCLE
  5
96
100
AcDbEntity
  8
枠・表
  6
CONTINUOUS
 62
     6
100
AcDbCircle
 10
230.0
 20
160.0
 30
0.0
 40
1.0
  0
CIRCLE
  5
97
100
AcDbEntity
  8
枠・表
  6
CONTINUOUS
 62
     6
100
AcDbCircle
 10
280.0
 20
160.0
 30
0.0
 40
1.0
  0
CIRCLE
  5
98
100
AcDbEntity
  8
枠・表
  6
CONTINUOUS
 62
     6
100
AcDbCircle
 10
385.0
 20
160.0
 30
0.0
 40
1.0
  0
CIRCLE
  5
99
100
AcDbEntity
  8
枠・表
  6
CONTINUOUS
 62
     6
100
AcDbCircle
 10
435.0
 20
160.0
 30
0.0
 40
1.0
  0
TEXT
  5
9A
100
AcDbEntity
  8
枠・表
  6
CONTINUOUS
 62
     2
100
AcDbText
 10
1890.537109
 20
302.722778
 30
0.0
 40
30.0
  1
１
 41
0.826
  7
EXCADSTD
 72
     5
 11
1914.13711
 21
302.722778
 31
0.0
100
AcDbText
  0
TEXT
  5
9B
100
AcDbEntity
  8
枠・表
  6
CONTINUOUS
 62
     2
100
AcDbText
 10
202.5
 20
308.75
 30
0.0
 40
42.5
  1
製図
 41
1.087059
  7
EXCADSTD
 72
     5
 11
303.326
 21
308.75
 31
0.0
100
AcDbText
  0
TEXT
  5
9C
100
AcDbEntity
  8
枠・表
  6
CONTINUOUS
 62
     2
100
AcDbText
 10
357.5
 20
308.75
 30
0.0
 40
42.5
  1
写図
 41
1.087059
  7
EXCADSTD
 72
     5
 11
458.326
 21
308.75
 31
0.0
100
AcDbText
  0
TEXT
  5
9D
100
AcDbEntity
  8
枠・表
  6
CONTINUOUS
 62
     2
100
AcDbText
 10
507.5
 20
308.75
 30
0.0
 40
42.5
  1
検図
 41
0.938824
  7
EXCADSTD
 72
     5
 11
594.577
 21
308.75
 31
0.0
100
AcDbText
  0
TEXT
  5
9E
100
AcDbEntity
  8
枠・表
  6
CONTINUOUS
 62
     2
100
AcDbText
 10
637.5
 20
308.75
 30
0.0
 40
42.5
  1
承認
 41
0.938824
  7
EXCADSTD
 72
     5
 11
724.577
 21
308.75
 31
0.0
100
AcDbText
  0
TEXT
  5
9F
100
AcDbEntity
  8
枠・表
  6
CONTINUOUS
 62
     2
100
AcDbText
 10
755.75
 20
298.75
 30
0.0
 40
42.5
  1
品
 41
0.84
  7
EXCADSTD
 72
     5
 11
789.75
 21
298.75
 31
0.0
100
AcDbText
  0
TEXT
  5
A0
100
AcDbEntity
  8
枠・表
  6
CONTINUOUS
 62
     2
100
AcDbText
 10
755.75
 20
248.75
 30
0.0
 40
42.5
  1
名
 41
0.84
  7
EXCADSTD
 72
     5
 11
789.75
 21
248.75
 31
0.0
100
AcDbText
  0
TEXT
  5
A1
100
AcDbEntity
  8
枠・表
  6
CONTINUOUS
 62
     2
100
AcDbText
 10
1395.75
 20
298.75
 30
0.0
 40
42.5
  1
品
 41
0.84
  7
EXCADSTD
 72
     5
 11
1429.75
 21
298.75
 31
0.0
100
AcDbText
  0
TEXT
  5
A2
100
AcDbEntity
  8
枠・表
  6
CONTINUOUS
 62
     2
100
AcDbText
 10
1395.75
 20
248.75
 30
0.0
 40
42.5
  1
番
 41
0.84
  7
EXCADSTD
 72
     5
 11
1429.75
 21
248.75
 31
0.0
100
AcDbText
  0
TEXT
  5
A3
100
AcDbEntity
  8
枠・表
  6
CONTINUOUS
 62
     2
100
AcDbText
 10
1816.75
 20
298.75
 30
0.0
 40
42.5
  1
尺
 41
0.84
  7
EXCADSTD
 72
     5
 11
1850.75
 21
298.75
 31
0.0
100
AcDbText
  0
TEXT
  5
A4
100
AcDbEntity
  8
枠・表
  6
CONTINUOUS
 62
     2
100
AcDbText
 10
1816.75
 20
248.75
 30
0.0
 40
42.5
  1
度
 41
0.84
  7
EXCADSTD
 72
     5
 11
1850.75
 21
248.75
 31
0.0
100
AcDbText
  0
TEXT
  5
A5
100
AcDbEntity
  8
枠・表
  6
CONTINUOUS
 62
     2
100
AcDbText
 10
1395.75
 20
185.75
 30
0.0
 40
42.5
  1
図
 41
0.84
  7
EXCADSTD
 72
     5
 11
1429.75
 21
185.75
 31
0.0
100
AcDbText
  0
TEXT
  5
A6
100
AcDbEntity
  8
枠・表
  6
CONTINUOUS
 62
     2
100
AcDbText
 10
1395.75
 20
142.75
 30
0.0
 40
42.5
  1
番
 41
0.84
  7
EXCADSTD
 72
     5
 11
1429.75
 21
142.75
 31
0.0
100
AcDbText
  0
TEXT
  5
A7
100
AcDbEntity
  8
枠・表
  6
CONTINUOUS
 62
     2
100
AcDbText
 10
1931.279297
 20
258.348846
 30
0.0
 40
30.0
  1
１０
 41
0.791
  7
EXCADSTD
 72
     5
 11
1983.067198
 21
258.348846
 31
0.0
100
AcDbText
  0
TEXT
  5
A8
100
AcDbEntity
  8
枠・表
  6
CONTINUOUS
 62
     2
100
AcDbText
 10
633.833333
 20
220.0
 30
0.0
 40
50.0
  1
古林
 41
0.882
  7
EXCADSTD
 72
     5
 11
730.076333
 21
220.0
 31
0.0
100
AcDbText
  0
TEXT
  5
A9
100
AcDbEntity
  8
枠・表
  6
CONTINUOUS
 62
     2
100
AcDbText
 10
207.5
 20
220.0
 30
0.0
 40
50.0
  1
間瀬
 41
0.882
  7
EXCADSTD
 72
     5
 11
303.743
 21
220.0
 31
0.0
100
AcDbText
  0
TEXT
  5
AB
100
AcDbEntity
  8
枠・表
  6
CONTINUOUS
 62
     2
100
AcDbText
 10
770.0
 20
155.0
 30
0.0
 40
45.0
  1
ジャニス工業株式会社
  7
EXCADTTF1
 72
     5
 11
1370.0
 21
155.0
 31
0.0
100
AcDbText
  0
TEXT
  5
AC
100
AcDbEntity
  8
枠・表
  6
CONTINUOUS
 62
     2
100
AcDbText
 10
1889.00293
 20
2535.249023
 30
0.0
 40
47.5
  1
１
 41
1.043368
  7
EXCADSTD
 72
     5
 11
1936.20293
 21
2535.249023
 31
0.0
100
AcDbText
  0
LINE
  5
AD
100
AcDbEntity
  8
枠・表
  6
CONTINUOUS
 62
     6
100
AcDbLine
 10
1124.00293
 20
2526.635742
 30
0.0
 11
1959.00293
 21
2526.635742
 31
0.0
  0
LINE
  5
AE
100
AcDbEntity
  8
枠・表
  6
CONTINUOUS
 62
     6
100
AcDbLine
 10
1124.00293
 20
2591.635742
 30
0.0
 11
1959.00293
 21
2591.635742
 31
0.0
  0
TEXT
  5
AF
100
AcDbEntity
  8
枠・表
  6
CONTINUOUS
 62
     2
100
AcDbText
 10
503.833333
 20
220.0
 30
0.0
 40
50.0
  1
中村
 41
0.882
  7
EXCADSTD
 72
     5
 11
600.076333
 21
220.0
 31
0.0
100
AcDbText
  0
TEXT
  5
B0
100
AcDbEntity
  8
枠・表
  6
CONTINUOUS
 62
     2
100
AcDbText
 10
1656.527405
 20
2531.635742
 30
0.0
 40
50.0
  1
水栓金具
 41
0.7056
  7
EXCADSTD
 72
     5
 11
1824.527412
 21
2531.635742
 31
0.0
100
AcDbText
  0
TEXT
  5
B1
100
AcDbEntity
  8
枠・表
  6
CONTINUOUS
 62
     2
100
AcDbText
 10
885.500001
 20
265.0
 30
0.0
 40
60.0
  1
サークルライン
 41
0.838
  7
EXCADSTD
 72
     5
 11
1304.499999
 21
265.0
 31
0.0
100
AcDbText
  0
TEXT
  5
B2
100
AcDbEntity
  8
枠・表
  6
CONTINUOUS
 62
     2
100
AcDbText
 10
1874.00293
 20
2726.635742
 30
0.0
 40
55.0
  1
個数
 41
0.664364
  7
EXCADSTD
 72
     5
 11
1953.74713
 21
2726.635742
 31
0.0
100
AcDbText
  0
TEXT
  5
B3
100
AcDbEntity
  8
枠・表
  6
CONTINUOUS
 62
     2
100
AcDbText
 10
1889.00293
 20
2666.396484
 30
0.0
 40
47.5
  1
１
 41
1.043368
  7
EXCADSTD
 72
     5
 11
1936.20293
 21
2666.396484
 31
0.0
100
AcDbText
  0
TEXT
  5
B4
100
AcDbEntity
  8
枠・表
  6
CONTINUOUS
 62
     2
100
AcDbText
 10
1174.40332
 20
2726.635742
 30
0.0
 40
55.0
  1
品　　番
 41
0.887727
  7
EXCADSTD
 72
     5
 11
1406.90332
 21
2726.635742
 31
0.0
100
AcDbText
  0
TEXT
  5
B5
100
AcDbEntity
  8
枠・表
  6
CONTINUOUS
 62
     2
100
AcDbText
 10
1141.053711
 20
2798.640137
 30
0.0
 40
60.0
  1
器　具　明　細
 41
0.91
  7
EXCADSTD
 72
     5
 11
1596.053711
 21
2798.640137
 31
0.0
100
AcDbText
  0
LINE
  5
B6
100
AcDbEntity
  8
枠・表
  6
CONTINUOUS
 62
     6
100
AcDbLine
 10
1124.00293
 20
2786.635742
 30
0.0
 11
1959.00293
 21
2786.635742
 31
0.0
  0
TEXT
  5
B7
100
AcDbEntity
  8
枠・表
  6
CONTINUOUS
 62
     2
100
AcDbText
 10
1671.02002
 20
2726.635742
 30
0.0
 40
55.0
  1
品　　名
 41
0.687273
  7
EXCADSTD
 72
     5
 11
1851.02002
 21
2726.635742
 31
0.0
100
AcDbText
  0
TEXT
  5
B8
100
AcDbEntity
  8
枠・表
  6
CONTINUOUS
 62
     2
100
AcDbText
 10
1656.527405
 20
2661.635742
 30
0.0
 40
50.0
  1
洗面器
 41
0.7168
  7
EXCADSTD
 72
     5
 11
1784.52741
 21
2661.635742
 31
0.0
100
AcDbText
  0
LINE
  5
B9
100
AcDbEntity
  8
枠・表
  6
CONTINUOUS
 62
     6
100
AcDbLine
 10
1124.00293
 20
2656.635742
 30
0.0
 11
1959.00293
 21
2656.635742
 31
0.0
  0
TEXT
  5
BA
100
AcDbEntity
  8
枠・表
  6
CONTINUOUS
 62
     2
100
AcDbText
 10
1889.00293
 20
2601.396484
 30
0.0
 40
47.5
  1
１
 41
1.043368
  7
EXCADSTD
 72
     5
 11
1936.20293
 21
2601.396484
 31
0.0
100
AcDbText
  0
LINE
  5
BB
100
AcDbEntity
  8
枠・表
  6
CONTINUOUS
 62
     6
100
AcDbLine
 10
1124.00293
 20
2721.635742
 30
0.0
 11
1959.00293
 21
2721.635742
 31
0.0
  0
TEXT
  5
BC
100
AcDbEntity
  8
枠・表
  6
CONTINUOUS
 62
     2
100
AcDbText
 10
1656.527405
 20
2596.635742
 30
0.0
 40
50.0
  1
固定金具
 41
0.7056
  7
EXCADSTD
 72
     5
 11
1824.527412
 21
2596.635742
 31
0.0
100
AcDbText
  0
TEXT
  5
BD
100
AcDbEntity
  8
枠・表
  6
CONTINUOUS
 62
     2
100
AcDbText
 10
1129.082581
 20
2664.816895
 30
0.0
 40
50.0
  1
Ｌ４２４
 41
0.6426
  7
EXCADSTD
 72
     5
 11
1282.08259
 21
2664.816895
 31
0.0
100
AcDbText
  0
TEXT
  5
BE
100
AcDbEntity
  8
枠・表
  6
CONTINUOUS
 62
     2
100
AcDbText
 10
1129.082581
 20
2599.816895
 30
0.0
 40
50.0
  1
Ｐ６９１３０
 41
0.6244
  7
EXCADSTD
 72
     5
 11
1352.082594
 21
2599.816895
 31
0.0
100
AcDbText
  0
TEXT
  5
BF
100
AcDbEntity
  8
枠・表
  6
CONTINUOUS
 62
     2
100
AcDbText
 10
1544.0
 20
270.0
 30
0.0
 40
50.0
  1
Ｌ４２４
 41
0.714
  7
EXCADSTD
 72
     5
 11
1714.0
 21
270.0
 31
0.0
100
AcDbText
  0
LINE
  5
C0
100
AcDbEntity
  8
枠・表
  6
EXLTYPE2
 62
     6
100
AcDbLine
 10
4.0
 20
1510.0
 30
0.0
 11
180.0
 21
1510.0
 31
0.0
  0
TEXT
  5
C1
100
AcDbEntity
  8
枠・表
  6
CONTINUOUS
 62
     2
100
AcDbText
 10
1128.115173
 20
2535.673828
 30
0.0
 40
50.0
  1
１２５－００１(カクダイ)
 41
0.558675
  7
EXCADSTD
 72
     5
 11
1548.115202
 21
2535.673828
 31
0.0
100
AcDbText
  0
TEXT
  5
C2
100
AcDbEntity
  8
枠・表
  6
CONTINUOUS
 62
     2
100
AcDbText
 10
1889.00293
 20
2470.016937
 30
0.0
 40
47.5
  1
１
 41
1.043368
  7
EXCADSTD
 72
     5
 11
1936.20293
 21
2470.016937
 31
0.0
100
AcDbText
  0
LINE
  5
C3
100
AcDbEntity
  8
枠・表
  6
CONTINUOUS
 62
     6
100
AcDbLine
 10
1124.00293
 20
2461.635742
 30
0.0
 11
1959.00293
 21
2461.635742
 31
0.0
  0
TEXT
  5
C4
100
AcDbEntity
  8
枠・表
  6
CONTINUOUS
 62
     2
100
AcDbText
 10
1656.527405
 20
2466.635742
 30
0.0
 40
50.0
  1
排水上部
 41
0.7056
  7
EXCADSTD
 72
     5
 11
1824.527412
 21
2466.635742
 31
0.0
100
AcDbText
  0
TEXT
  5
C5
100
AcDbEntity
  8
枠・表
  6
CONTINUOUS
 62
     2
100
AcDbText
 10
1130.049988
 20
2469.75708
 30
0.0
 40
50.0
  1
４９４－００６－３２(カクダイ)
 41
0.564375
  7
EXCADSTD
 72
     5
 11
1655.050024
 21
2469.75708
 31
0.0
100
AcDbText
  0
TEXT
  5
C6
100
AcDbEntity
  8
枠・表
  6
CONTINUOUS
 62
     2
100
AcDbText
 10
1120.115173
 20
1854.346619
 30
0.0
 40
50.0
  1
本図は上記器具を組み合わせた場合の一例を示す。
 41
0.645704
  7
EXCADSTD
 72
     5
 11
2004.115217
 21
1854.346619
 31
0.0
100
AcDbText
  0
TEXT
  5
C7
100
AcDbEntity
  8
枠・表
  6
CONTINUOUS
 62
     2
100
AcDbText
 10
1120.115173
 20
1804.346619
 30
0.0
 40
50.0
  1
止水栓、排水トラップは洗面器の取付位置に
 41
0.6468
  7
EXCADSTD
 72
     5
 11
1890.115212
 21
1804.346619
 31
0.0
100
AcDbText
  0
TEXT
  5
C8
100
AcDbEntity
  8
枠・表
  6
CONTINUOUS
 62
     2
100
AcDbText
 10
1120.115173
 20
1754.346619
 30
0.0
 40
50.0
  1
応じ、適当なものを選択してください。
 41
0.647733
  7
EXCADSTD
 72
     5
 11
1814.115208
 21
1754.346619
 31
0.0
100
AcDbText
  0
TEXT
  5
C9
100
AcDbEntity
  8
枠・表
  6
CONTINUOUS
 62
     7
100
AcDbText
 10
1452.000002
 20
151.5
 30
0.0
 40
70.0
  1
Ｌ０４２４００４
 41
0.804
  7
EXCADSTD
 72
     5
 11
1987.999998
 21
151.5
 31
0.0
100
AcDbText
  0
TEXT
  5
CA
100
AcDbEntity
  8
枠・表
  6
CONTINUOUS
 62
     2
100
AcDbText
 10
184.5
 20
140.0
 30
0.0
 40
40.0
  1
21
 41
0.5
  7
EXCADSTD
 72
     5
 11
216.5
 21
140.0
 31
0.0
100
AcDbText
  0
TEXT
  5
CB
100
AcDbEntity
  8
枠・表
  6
CONTINUOUS
 62
     2
100
AcDbText
 10
243.75
 20
140.0
 30
0.0
 40
40.0
  1
7
 41
0.5625
  7
EXCADSTD
 72
     5
 11
258.375
 21
140.0
 31
0.0
100
AcDbText
  0
TEXT
  5
CC
100
AcDbEntity
  8
枠・表
  6
CONTINUOUS
 62
     2
100
AcDbText
 10
296.75
 20
140.0
 30
0.0
 40
40.0
  1
2
 41
0.5625
  7
EXCADSTD
 72
     5
 11
311.375
 21
140.0
 31
0.0
100
AcDbText
  0
TEXT
  5
CD
100
AcDbEntity
  8
枠・表
  6
CONTINUOUS
 62
     2
100
AcDbText
 10
1889.00293
 20
2406.847992
 30
0.0
 40
47.5
  1
１
 41
1.043368
  7
EXCADSTD
 72
     5
 11
1936.20293
 21
2406.847992
 31
0.0
100
AcDbText
  0
LINE
  5
CE
100
AcDbEntity
  8
枠・表
  6
CONTINUOUS
 62
     6
100
AcDbLine
 10
1124.00293
 20
2396.635742
 30
0.0
 11
1959.00293
 21
2396.635742
 31
0.0
  0
TEXT
  5
CF
100
AcDbEntity
  8
枠・表
  6
CONTINUOUS
 62
     2
100
AcDbText
 10
1128.115173
 20
2404.346619
 30
0.0
 40
50.0
  1
４３３－１１４(カクダイ)
 41
0.558675
  7
EXCADSTD
 72
     5
 11
1548.115202
 21
2404.346619
 31
0.0
100
AcDbText
  0
TEXT
  5
D0
100
AcDbEntity
  8
枠・表
  6
CONTINUOUS
 62
     2
100
AcDbText
 10
1656.527405
 20
2401.635742
 30
0.0
 40
50.0
  1
化粧キャップ
 41
0.5964
  7
EXCADSTD
 72
     5
 11
1869.527417
 21
2401.635742
 31
0.0
100
AcDbText
  0
LINE
  5
D1
100
AcDbEntity
  8
枠・表
  6
CONTINUOUS
 62
     6
100
AcDbLine
 10
1124.00293
 20
2786.635742
 30
0.0
 11
1124.00293
 21
2396.635742
 31
0.0
  0
LINE
  5
D2
100
AcDbEntity
  8
枠・表
  6
CONTINUOUS
 62
     6
100
AcDbLine
 10
1653.00293
 20
2786.635742
 30
0.0
 11
1653.00293
 21
2396.635742
 31
0.0
  0
LINE
  5
D3
100
AcDbEntity
  8
枠・表
  6
CONTINUOUS
 62
     6
100
AcDbLine
 10
1869.00293
 20
2786.635742
 30
0.0
 11
1869.00293
 21
2396.635742
 31
0.0
  0
LINE
  5
D4
100
AcDbEntity
  8
枠・表
  6
CONTINUOUS
 62
     6
100
AcDbLine
 10
1959.00293
 20
2786.635742
 30
0.0
 11
1959.00293
 21
2396.635742
 31
0.0
  0
TEXT
  5
D5
100
AcDbEntity
  8
枠・表
  6
CONTINUOUS
 62
     2
100
AcDbText
 10
1128.115173
 20
2339.346619
 30
0.0
 40
50.0
  1
トラップ
 41
0.6426
  7
EXCADSTD
 72
     5
 11
1281.115182
 21
2339.346619
 31
0.0
100
AcDbText
  0
TEXT
  5
D6
100
AcDbEntity
  8
枠・表
  6
CONTINUOUS
 62
     2
100
AcDbText
 10
1889.00293
 20
2211.847992
 30
0.0
 40
47.5
  1
１
 41
1.043368
  7
EXCADSTD
 72
     5
 11
1936.20293
 21
2211.847992
 31
0.0
100
AcDbText
  0
TEXT
  5
D7
100
AcDbEntity
  8
枠・表
  6
CONTINUOUS
 62
     2
100
AcDbText
 10
1128.115173
 20
2209.346619
 30
0.0
 40
50.0
  1
Ｐ２２３３
 41
0.63168
  7
EXCADSTD
 72
     5
 11
1316.115185
 21
2209.346619
 31
0.0
100
AcDbText
  0
TEXT
  5
D8
100
AcDbEntity
  8
枠・表
  6
CONTINUOUS
 62
     2
100
AcDbText
 10
1569.527405
 20
2206.635742
 30
0.0
 40
50.0
  1
Ｓトラップ
 41
0.69888
  7
EXCADSTD
 72
     5
 11
1777.527414
 21
2206.635742
 31
0.0
100
AcDbText
  0
TEXT
  5
D9
100
AcDbEntity
  8
枠・表
  6
CONTINUOUS
 62
     2
100
AcDbText
 10
1889.00293
 20
2276.847992
 30
0.0
 40
47.5
  1
１
 41
1.043368
  7
EXCADSTD
 72
     5
 11
1936.20293
 21
2276.847992
 31
0.0
100
AcDbText
  0
TEXT
  5
DA
100
AcDbEntity
  8
枠・表
  6
CONTINUOUS
 62
     2
100
AcDbText
 10
1128.115173
 20
2274.346619
 30
0.0
 40
50.0
  1
Ｐ２２３４
 41
0.63168
  7
EXCADSTD
 72
     5
 11
1316.115185
 21
2274.346619
 31
0.0
100
AcDbText
  0
TEXT
  5
DB
100
AcDbEntity
  8
枠・表
  6
CONTINUOUS
 62
     2
100
AcDbText
 10
1569.527405
 20
2271.635742
 30
0.0
 40
50.0
  1
Ｐトラップ
 41
0.69888
  7
EXCADSTD
 72
     5
 11
1777.527414
 21
2271.635742
 31
0.0
100
AcDbText
  0
TEXT
  5
DC
100
AcDbEntity
  8
枠・表
  6
CONTINUOUS
 62
     2
100
AcDbText
 10
1889.00293
 20
2146.847992
 30
0.0
 40
47.5
  1
１
 41
1.043368
  7
EXCADSTD
 72
     5
 11
1936.20293
 21
2146.847992
 31
0.0
100
AcDbText
  0
TEXT
  5
DD
100
AcDbEntity
  8
枠・表
  6
CONTINUOUS
 62
     2
100
AcDbText
 10
1128.115173
 20
2144.346619
 30
0.0
 40
50.0
  1
Ｐ２２３２
 41
0.63168
  7
EXCADSTD
 72
     5
 11
1316.115185
 21
2144.346619
 31
0.0
100
AcDbText
  0
TEXT
  5
DE
100
AcDbEntity
  8
枠・表
  6
CONTINUOUS
 62
     2
100
AcDbText
 10
1564.527405
 20
2141.635742
 30
0.0
 40
50.0
  1
ボトルトラップ
 41
0.6912
  7
EXCADSTD
 72
     5
 11
1852.527417
 21
2141.635742
 31
0.0
100
AcDbText
  0
LINE
  5
DF
100
AcDbEntity
  8
枠・表
  6
CONTINUOUS
 62
     6
100
AcDbLine
 10
1124.00293
 20
2331.635742
 30
0.0
 11
1959.00293
 21
2331.635742
 31
0.0
  0
LINE
  5
E0
100
AcDbEntity
  8
枠・表
  6
CONTINUOUS
 62
     6
100
AcDbLine
 10
1124.00293
 20
2266.635742
 30
0.0
 11
1959.00293
 21
2266.635742
 31
0.0
  0
LINE
  5
E1
100
AcDbEntity
  8
枠・表
  6
CONTINUOUS
 62
     6
100
AcDbLine
 10
1124.00293
 20
2201.635742
 30
0.0
 11
1959.00293
 21
2201.635742
 31
0.0
  0
LINE
  5
E2
100
AcDbEntity
  8
枠・表
  6
CONTINUOUS
 62
     6
100
AcDbLine
 10
1124.00293
 20
2071.635742
 30
0.0
 11
1959.00293
 21
2071.635742
 31
0.0
  0
TEXT
  5
E3
100
AcDbEntity
  8
枠・表
  6
CONTINUOUS
 62
     2
100
AcDbText
 10
1889.00293
 20
2081.847992
 30
0.0
 40
47.5
  1
１
 41
1.043368
  7
EXCADSTD
 72
     5
 11
1936.20293
 21
2081.847992
 31
0.0
100
AcDbText
  0
TEXT
  5
E4
100
AcDbEntity
  8
枠・表
  6
CONTINUOUS
 62
     2
100
AcDbText
 10
1564.527405
 20
2076.635742
 30
0.0
 40
50.0
  1
配管アダプター
 41
0.6912
  7
EXCADSTD
 72
     5
 11
1852.527417
 21
2076.635742
 31
0.0
100
AcDbText
  0
LINE
  5
E5
100
AcDbEntity
  8
枠・表
  6
CONTINUOUS
 62
     6
100
AcDbLine
 10
1124.00293
 20
2136.635742
 30
0.0
 11
1959.00293
 21
2136.635742
 31
0.0
  0
LINE
  5
E6
100
AcDbEntity
  8
枠・表
  6
CONTINUOUS
 62
     6
100
AcDbLine
 10
1124.00293
 20
2331.635742
 30
0.0
 11
1124.00293
 21
2071.635742
 31
0.0
  0
LINE
  5
E7
100
AcDbEntity
  8
枠・表
  6
CONTINUOUS
 62
     6
100
AcDbLine
 10
1869.00293
 20
2331.635742
 30
0.0
 11
1869.00293
 21
2071.635742
 31
0.0
  0
LINE
  5
E8
100
AcDbEntity
  8
枠・表
  6
CONTINUOUS
 62
     6
100
AcDbLine
 10
1959.00293
 20
2331.635742
 30
0.0
 11
1959.00293
 21
2071.635742
 31
0.0
  0
LINE
  5
E9
100
AcDbEntity
  8
枠・表
  6
CONTINUOUS
 62
     6
100
AcDbLine
 10
1552.00293
 20
2331.635742
 30
0.0
 11
1552.00293
 21
2071.635742
 31
0.0
  0
TEXT
  5
EA
100
AcDbEntity
  8
枠・表
  6
CONTINUOUS
 62
     2
100
AcDbText
 10
1175.493896
 20
497.0
 30
0.0
 40
40.0
  1
F.L.
 41
0.4125
  7
EXCADSTD
 72
     5
 11
1235.989496
 21
497.0
 31
0.0
100
AcDbText
  0
TEXT
  5
EB
100
AcDbEntity
  8
枠・表
  6
CONTINUOUS
 62
     2
100
AcDbText
 10
1128.115173
 20
2079.346619
 30
0.0
 40
50.0
  1
ＬＵＭＥＨ７０－２０－３２Ｂ
 41
0.4524
  7
EXCADSTD
 72
     5
 11
1505.115193
 21
2079.346619
 31
0.0
100
AcDbText
  0
DIMENSION
  5
F8
100
AcDbEntity
  8
図
  6
CONTINUOUS
 62
     3
100
AcDbDimension
  2
*D14
 10
589.184271
 20
1514.0
 30
0.0
 11
539.184271
 21
1537.5
 31
0.0
 70
   160
  3
STANDARD
100
AcDbAlignedDimension
 13
489.184271
 23
1478.5
 33
0.0
 14
589.184271
 24
1512.5
 34
0.0
100
AcDbRotatedDimension
1001
ACAD
1000
DSTYLE
1002
{
1070
     6
1000
_EX_NORM
1070
     7
1000
_EX_NORM
1070
    41
1040
30.0
1070
    42
1040
5.0
1070
    44
1040
10.0
1070
    73
1070
     0
1070
    74
1070
     0
1070
    75
1070
     0
1070
    76
1070
     0
1070
    77
1070
     1
1070
    78
1070
     8
1070
   140
1040
40.0
1070
   147
1040
3.5
1070
   173
1070
     1
1070
   176
1070
     3
1070
   177
1070
     3
1070
   178
1070
     2
1070
   271
1070
     2
1070
   279
1070
     2
1070
   280
1070
     0
1070
   287
1070
     5
1070
   340
1005
F7
1002
}
  0
DIMENSION
  5
103
100
AcDbEntity
  8
図
  6
CONTINUOUS
 62
     3
100
AcDbDimension
  2
*D15
 10
689.184271
 20
1514.0
 30
0.0
 11
639.184271
 21
1537.5
 31
0.0
 70
   160
  3
STANDARD
100
AcDbAlignedDimension
 13
589.184271
 23
1537.5
 33
0.0
 14
689.184271
 24
1478.5
 34
0.0
100
AcDbRotatedDimension
1001
ACAD
1000
DSTYLE
1002
{
1070
     6
1000
_EX_NORM
1070
     7
1000
_EX_NORM
1070
    41
1040
30.0
1070
    42
1040
5.0
1070
    44
1040
10.0
1070
    73
1070
     0
1070
    74
1070
     0
1070
    75
1070
     1
1070
    76
1070
     0
1070
    77
1070
     1
1070
    78
1070
     8
1070
   140
1040
40.0
1070
   147
1040
3.5
1070
   173
1070
     1
1070
   176
1070
     3
1070
   177
1070
     3
1070
   178
1070
     2
1070
   271
1070
     2
1070
   279
1070
     2
1070
   280
1070
     0
1070
   287
1070
     5
1070
   340
1005
F7
1002
}
  0
TEXT
  5
104
100
AcDbEntity
  8
図
  6
CONTINUOUS
 62
     2
100
AcDbText
 10
354.6
 20
2548.75
 30
0.0
 40
40.0
  1
３－φ１５
 41
0.672
  7
EXCADSTD
 72
     5
 11
514.6
 21
2548.75
 31
0.0
100
AcDbText
  0
LEADER
  5
105
100
AcDbEntity
  8
図
  6
CONTINUOUS
 62
     3
100
AcDbLeader
  3
STANDARD
 73
     3
 74
     1
 75
     0
 40
0.0
 76
     3
 10
558.516721
 20
2490.611457
 30
0.0
 10
516.0
 20
2547.0
 30
0.0
 10
355.0
 20
2547.0
 30
0.0
 77
     3
1001
ACAD
1000
DSTYLE
1002
{
1070
    41
1040
30.0
1070
     5
1000
_EX_NORM
1070
     6
1000
_EX_NORM
1070
     7
1000
_EX_NORM
1070
   341
1005
28
1002
}
  0
DIMENSION
  5
110
100
AcDbEntity
  8
図
  6
CONTINUOUS
 62
     3
100
AcDbDimension
  2
*D16
 10
693.899669
 20
2366.924861
 30
0.0
 11
548.025855
 21
2601.228255
 31
0.0
 70
   163
  3
STANDARD
100
AcDbDiametricDimension
 15
586.100331
 25
2511.075139
 35
0.0
 40
0.0
1001
ACAD
1000
DSTYLE
1002
{
1070
     6
1000
_EX_NORM
1070
     7
1000
_EX_NORM
1070
    41
1040
30.0
1070
    73
1070
     0
1070
    74
1070
     0
1070
    77
1070
     1
1070
    78
1070
     8
1070
   140
1040
40.0
1070
   147
1040
3.5
1070
   173
1070
     1
1070
   176
1070
     3
1070
   177
1070
     3
1070
   178
1070
     2
1070
   271
1070
     2
1070
   279
1070
     2
1070
   280
1070
     1
1070
   287
1070
     5
1070
   340
1005
10F
1002
}
  0
DIMENSION
  5
11C
100
AcDbEntity
  8
図
  6
CONTINUOUS
 62
     3
100
AcDbDimension
  2
*D17
 10
506.683103
 20
2362.029454
 30
0.0
 11
527.0347
 21
2373.779454
 31
0.0
 70
   165
  3
STANDARD
100
AcDb3PointAngularDimension
 13
530.078693
 23
2502.463096
 33
0.0
 14
640.0
 24
2320.0
 34
0.0
 15
640.0
 25
2439.0
 35
0.0
1001
ACAD
1000
DSTYLE
1002
{
1070
     6
1000
_EX_NORM
1070
     7
1000
_EX_NORM
1070
    41
1040
30.0
1070
    42
1040
5.0
1070
    44
1040
10.0
1070
    73
1070
     0
1070
    74
1070
     0
1070
    75
1070
     0
1070
    76
1070
     0
1070
    77
1070
     1
1070
    78
1070
     8
1070
   140
1040
40.0
1070
   147
1040
3.5
1070
   173
1070
     1
1070
   176
1070
     3
1070
   177
1070
     3
1070
   178
1070
     2
1070
   271
1070
     2
1070
   279
1070
     2
1070
   280
1070
     0
1070
   287
1070
     5
1070
   340
1005
10F
1002
}
  0
DIMENSION
  5
128
100
AcDbEntity
  8
図
  6
CONTINUOUS
 62
     3
100
AcDbDimension
  2
*D18
 10
773.316897
 20
2362.029454
 30
0.0
 11
752.9653
 21
2373.779454
 31
0.0
 70
   165
  3
STANDARD
100
AcDb3PointAngularDimension
 13
640.0
 23
2320.0
 33
0.0
 14
749.921307
 24
2502.463096
 34
0.0
 15
640.0
 25
2439.0
 35
0.0
1001
ACAD
1000
DSTYLE
1002
{
1070
     6
1000
_EX_NORM
1070
     7
1000
_EX_NORM
1070
    41
1040
30.0
1070
    42
1040
5.0
1070
    44
1040
10.0
1070
    73
1070
     0
1070
    74
1070
     0
1070
    75
1070
     0
1070
    76
1070
     0
1070
    77
1070
     1
1070
    78
1070
     8
1070
   140
1040
40.0
1070
   147
1040
3.5
1070
   173
1070
     1
1070
   176
1070
     3
1070
   177
1070
     3
1070
   178
1070
     2
1070
   271
1070
     2
1070
   279
1070
     2
1070
   280
1070
     0
1070
   287
1070
     5
1070
   340
1005
10F
1002
}
  0
DIMENSION
  5
132
100
AcDbEntity
  8
図
  6
CONTINUOUS
 62
     3
100
AcDbDimension
  2
*D19
 10
846.0
 20
2439.0
 30
0.0
 11
822.5
 21
2559.0
 31
0.0
 70
   160
  3
STANDARD
100
AcDbAlignedDimension
 13
905.0
 23
2679.0
 33
0.0
 14
861.0
 24
2439.0
 34
0.0
 50
90.0
100
AcDbRotatedDimension
1001
ACAD
1000
DSTYLE
1002
{
1070
     6
1000
_EX_NORM
1070
     7
1000
_EX_NORM
1070
    41
1040
30.0
1070
    42
1040
0.0
1070
    44
1040
0.0
1070
    73
1070
     0
1070
    74
1070
     0
1070
    75
1070
     1
1070
    76
1070
     1
1070
    77
1070
     1
1070
    78
1070
     8
1070
   140
1040
40.0
1070
   147
1040
3.5
1070
   173
1070
     1
1070
   176
1070
     3
1070
   177
1070
     3
1070
   178
1070
     2
1070
   271
1070
     2
1070
   279
1070
     2
1070
   280
1070
     0
1070
   287
1070
     5
1070
   340
1005
10F
1002
}
  0
TEXT
  5
133
100
AcDbEntity
  8
図
  6
CONTINUOUS
 62
     2
100
AcDbText
 10
1154.50293
 20
1937.0
 30
0.0
 40
80.0
  1
参考図
 41
1.05
  7
EXCADSTD
 72
     5
 11
1454.50293
 21
1937.0
 31
0.0
100
AcDbText
  0
POLYLINE
  5
134
100
AcDbEntity
  8
図
  6
CONTINUOUS
 62
     2
100
AcDb2dPolyline
 66
     1
 10
0.0
 20
0.0
 30
0.0
 70
   128
  0
VERTEX
  5
135
100
AcDbEntity
  8
図
  6
CONTINUOUS
 62
     2
100
AcDbVertex
100
AcDb2dVertex
 10
1124.00293
 20
2027.0
 30
0.0
  0
VERTEX
  5
136
100
AcDbEntity
  8
図
  6
CONTINUOUS
 62
     2
100
AcDbVertex
100
AcDb2dVertex
 10
1471.00293
 20
2027.0
 30
0.0
  0
VERTEX
  5
137
100
AcDbEntity
  8
図
  6
CONTINUOUS
 62
     2
100
AcDbVertex
100
AcDb2dVertex
 10
1471.00293
 20
1925.0
 30
0.0
  0
VERTEX
  5
138
100
AcDbEntity
  8
図
  6
CONTINUOUS
 62
     2
100
AcDbVertex
100
AcDb2dVertex
 10
1124.00293
 20
1925.0
 30
0.0
  0
VERTEX
  5
139
100
AcDbEntity
  8
図
  6
CONTINUOUS
 62
     2
100
AcDbVertex
100
AcDb2dVertex
 10
1124.00293
 20
2027.0
 30
0.0
  0
SEQEND
  5
13A
100
AcDbEntity
  8
図
  6
CONTINUOUS
 62
     2
  0
TEXT
  5
13B
100
AcDbEntity
  8
図
  6
CONTINUOUS
 62
     2
100
AcDbText
 10
241.00293
 20
2781.0
 30
0.0
 40
50.0
  1
カウンター　穴加工寸法
 41
0.687273
  7
EXCADSTD
 72
     5
 11
691.00293
 21
2781.0
 31
0.0
100
AcDbText
  0
LINE
  5
13C
100
AcDbEntity
  8
図
  6
CONTINUOUS
 62
     6
100
AcDbLine
 10
236.00293
 20
2843.0
 30
0.0
 11
1071.00293
 21
2843.0
 31
0.0
  0
LINE
  5
13D
100
AcDbEntity
  8
図
  6
CONTINUOUS
 62
     6
100
AcDbLine
 10
236.00293
 20
2201.0
 30
0.0
 11
236.00293
 21
2843.0
 31
0.0
  0
LINE
  5
13E
100
AcDbEntity
  8
図
  6
CONTINUOUS
 62
     6
100
AcDbLine
 10
236.00293
 20
2201.0
 30
0.0
 11
1071.00293
 21
2201.0
 31
0.0
  0
LINE
  5
13F
100
AcDbEntity
  8
図
  6
CONTINUOUS
 62
     6
100
AcDbLine
 10
1071.00293
 20
2201.0
 30
0.0
 11
1071.00293
 21
2843.0
 31
0.0
  0
LINE
  5
140
100
AcDbEntity
  8
図
  6
CONTINUOUS
 62
     7
100
AcDbLine
 10
944.1
 20
2679.0
 30
0.0
 11
373.0
 21
2679.0
 31
0.0
  0
LINE
  5
141
100
AcDbEntity
  8
図
  6
EXLTYPE3
 62
     1
100
AcDbLine
 10
640.0
 20
2681.5
 30
0.0
 11
640.0
 21
2331.0
 31
0.0
  0
CIRCLE
  5
142
100
AcDbEntity
  8
図
  6
EXLTYPE3
 62
     6
100
AcDbCircle
 10
640.0
 20
2439.0
 30
0.0
 40
90.0
  0
LINE
  5
143
100
AcDbEntity
  8
図
  6
EXLTYPE3
 62
     6
100
AcDbLine
 10
530.078693
 20
2502.463096
 30
0.0
 11
649.781089
 21
2433.352886
 31
0.0
  0
LINE
  5
144
100
AcDbEntity
  8
図
  6
EXLTYPE3
 62
     6
100
AcDbLine
 10
750.495989
 20
2502.794889
 30
0.0
 11
630.218911
 21
2433.352886
 31
0.0
  0
LINE
  5
145
100
AcDbEntity
  8
図
  6
EXLTYPE3
 62
     1
100
AcDbLine
 10
527.1
 20
2439.0
 30
0.0
 11
877.6
 21
2439.0
 31
0.0
  0
DIMENSION
  5
14F
100
AcDbEntity
  8
図
  6
CONTINUOUS
 62
     3
100
AcDbDimension
  2
*D20
 10
779.593914
 20
1969.929492
 30
0.0
 11
294.411967
 21
1795.643152
 31
0.0
 70
   163
  3
STANDARD
100
AcDbDiametricDimension
 15
391.206086
 25
1810.070508
 35
0.0
 40
0.0
1001
ACAD
1000
DSTYLE
1002
{
1070
     6
1000
_EX_NORM
1070
     7
1000
_EX_NORM
1070
    41
1040
30.0
1070
    73
1070
     0
1070
    74
1070
     0
1070
    77
1070
     1
1070
    78
1070
     8
1070
   140
1040
40.0
1070
   147
1040
3.5
1070
   173
1070
     1
1070
   176
1070
     3
1070
   177
1070
     3
1070
   178
1070
     2
1070
   271
1070
     2
1070
   279
1070
     2
1070
   280
1070
     1
1070
   287
1070
     5
1070
   340
1005
10F
1002
}
  0
LINE
  5
150
100
AcDbEntity
  8
図
  6
CONTINUOUS
 62
     7
100
AcDbLine
 10
387.184271
 20
1297.0
 30
0.0
 11
791.184271
 21
1297.0
 31
0.0
  0
ARC
  5
151
100
AcDbEntity
  8
図
  6
CONTINUOUS
 62
     7
100
AcDbCircle
 10
2072.895444
 20
2350.339645
 30
0.0
 40
2000.0
100
AcDbArc
 50
212.194905
 51
217.097829
  0
ARC
  5
152
100
AcDbEntity
  8
図
  6
CONTINUOUS
 62
     7
100
AcDbCircle
 10
387.184271
 20
1289.0
 30
0.0
 40
8.0
100
AcDbArc
 50
90.0
 51
212.194905
  0
ARC
  5
153
100
AcDbEntity
  8
図
  6
CONTINUOUS
 62
     7
100
AcDbCircle
 10
-894.526901
 20
2350.339645
 30
0.0
 40
2000.0
100
AcDbArc
 50
322.902171
 51
327.805095
  0
ARC
  5
154
100
AcDbEntity
  8
図
  6
CONTINUOUS
 62
     7
100
AcDbCircle
 10
791.184271
 20
1289.0
 30
0.0
 40
8.0
100
AcDbArc
 50
327.805095
 51
90.0
  0
ARC
  5
155
100
AcDbEntity
  8
図
  6
CONTINUOUS
 62
     7
100
AcDbCircle
 10
481.66991
 20
1147.0
 30
0.0
 40
5.0
100
AcDbArc
 50
217.097829
 51
270.0
  0
ARC
  5
156
100
AcDbEntity
  8
図
  6
CONTINUOUS
 62
     7
100
AcDbCircle
 10
696.698632
 20
1147.0
 30
0.0
 40
5.0
100
AcDbArc
 50
270.0
 51
322.902171
  0
TEXT
  5
157
100
AcDbEntity
  8
図
  6
CONTINUOUS
 62
     2
100
AcDbText
 10
777.485869
 20
1508.097089
 30
0.0
 40
40.0
  1
水栓金具
 41
0.76125
  7
EXCADSTD
 72
     5
 11
922.485869
 21
1508.097089
 31
0.0
100
AcDbText
  0
LEADER
  5
158
100
AcDbEntity
  8
図
  6
CONTINUOUS
 62
     3
100
AcDbLeader
  3
STANDARD
 73
     3
 74
     1
 75
     0
 40
0.0
 76
     3
 10
709.680303
 20
1463.906911
 30
0.0
 10
772.544214
 20
1505.423378
 30
0.0
 10
920.412842
 20
1505.423378
 30
0.0
 77
     3
1001
ACAD
1000
DSTYLE
1002
{
1070
    41
1040
30.0
1070
     5
1000
_EX_NORM
1070
     6
1000
_EX_NORM
1070
     7
1000
_EX_NORM
1070
   341
1005
28
1002
}
  0
LINE
  5
159
100
AcDbEntity
  8
図
  6
EXLTYPE3
 62
     6
100
AcDbLine
 10
589.184271
 20
1481.0
 30
0.0
 11
589.184271
 21
926.0
 31
0.0
  0
LINE
  5
15A
100
AcDbEntity
  8
図
  6
CONTINUOUS
 62
     2
100
AcDbLine
 10
551.879797
 20
1117.0
 30
0.0
 11
576.879797
 21
1142.0
 31
0.0
  0
LINE
  5
15B
100
AcDbEntity
  8
図
  6
CONTINUOUS
 62
     2
100
AcDbLine
 10
523.595526
 20
1117.0
 30
0.0
 11
548.595526
 21
1142.0
 31
0.0
  0
LINE
  5
15C
100
AcDbEntity
  8
図
  6
CONTINUOUS
 62
     2
100
AcDbLine
 10
665.016882
 20
1117.0
 30
0.0
 11
690.016882
 21
1142.0
 31
0.0
  0
LINE
  5
15D
100
AcDbEntity
  8
図
  6
CONTINUOUS
 62
     2
100
AcDbLine
 10
636.732611
 20
1117.0
 30
0.0
 11
661.732611
 21
1142.0
 31
0.0
  0
LINE
  5
15E
100
AcDbEntity
  8
図
  6
CONTINUOUS
 62
     2
100
AcDbLine
 10
495.311255
 20
1117.0
 30
0.0
 11
520.311255
 21
1142.0
 31
0.0
  0
LINE
  5
15F
100
AcDbEntity
  8
図
  6
CONTINUOUS
 62
     2
100
AcDbLine
 10
467.026984
 20
1117.0
 30
0.0
 11
492.026984
 21
1142.0
 31
0.0
  0
ARC
  5
160
100
AcDbEntity
  8
図
  6
CONTINUOUS
 62
     7
100
AcDbCircle
 10
481.66991
 20
1147.0
 30
0.0
 40
5.0
100
AcDbArc
 50
217.097829
 51
270.0
  0
LINE
  5
161
100
AcDbEntity
  8
図
  6
CONTINUOUS
 62
     2
100
AcDbLine
 10
608.44834
 20
1117.0
 30
0.0
 11
633.44834
 21
1142.0
 31
0.0
  0
LINE
  5
162
100
AcDbEntity
  8
図
  6
CONTINUOUS
 62
     2
100
AcDbLine
 10
580.164069
 20
1117.0
 30
0.0
 11
605.164069
 21
1142.0
 31
0.0
  0
LINE
  5
163
100
AcDbEntity
  8
図
  6
CONTINUOUS
 62
     3
100
AcDbLine
 10
606.184271
 20
996.5
 30
0.0
 11
607.168271
 21
996.5
 31
0.0
  0
LINE
  5
164
100
AcDbEntity
  8
図
  6
CONTINUOUS
 62
     2
100
AcDbLine
 10
569.184271
 20
1110.1
 30
0.0
 11
609.184271
 21
1110.1
 31
0.0
  0
ARC
  5
165
100
AcDbEntity
  8
図
  6
CONTINUOUS
 62
     2
100
AcDbCircle
 10
603.234271
 20
1116.1
 30
0.0
 40
8.45
100
AcDbArc
 50
314.76027
 51
6.114106
  0
ARC
  5
166
100
AcDbEntity
  8
図
  6
CONTINUOUS
 62
     2
100
AcDbCircle
 10
575.134271
 20
1116.1
 30
0.0
 40
8.45
100
AcDbArc
 50
173.885894
 51
225.23973
  0
ELLIPSE
  5
167
100
AcDbEntity
  8
図
  6
CONTINUOUS
 62
     6
100
AcDbEllipse
 10
571.375915
 20
1116.1
 30
0.0
 11
0.0000000000000003
 21
5.4589376255800044
 31
0.0
210
0.0
220
0.0
230
1.0
 40
0.859443
 41
1.4051729151465739
 42
4.8780123920330132
  0
ELLIPSE
  5
168
100
AcDbEntity
  8
図
  6
CONTINUOUS
 62
     6
100
AcDbEllipse
 10
589.184271
 20
1116.1
 30
0.0
 11
9.2736184955000009
 21
0.0
 31
0.0
210
0.0
220
0.0
230
1.0
 40
0.588652
 41
2.9759692419414598
 42
0.1656234116483356
  0
ELLIPSE
  5
169
100
AcDbEntity
  8
図
  6
CONTINUOUS
 62
     6
100
AcDbEllipse
 10
606.992627
 20
1116.1
 30
0.0
 11
0.0000000000000003
 21
5.4589376255800044
 31
0.0
210
0.0
220
0.0
230
1.0
 40
0.859443
 41
1.4051729151465626
 42
4.8780123920330229
  0
LINE
  5
16A
100
AcDbEntity
  8
図
  6
CONTINUOUS
 62
     2
100
AcDbLine
 10
573.309271
 20
1110.1
 30
0.0
 11
573.309271
 21
1011.5
 31
0.0
  0
LINE
  5
16B
100
AcDbEntity
  8
図
  6
CONTINUOUS
 62
     2
100
AcDbLine
 10
605.059271
 20
1110.1
 30
0.0
 11
605.059271
 21
1011.5
 31
0.0
  0
POLYLINE
  5
16C
100
AcDbEntity
  8
図
  6
CONTINUOUS
 62
     6
100
AcDb2dPolyline
 66
     1
 10
0.0
 20
0.0
 30
0.0
 70
   128
  0
VERTEX
  5
16D
100
AcDbEntity
  8
図
  6
CONTINUOUS
 62
     6
100
AcDbVertex
100
AcDb2dVertex
 10
569.006713
 20
999.5
 30
0.0
  0
VERTEX
  5
16E
100
AcDbEntity
  8
図
  6
CONTINUOUS
 62
     6
100
AcDbVertex
100
AcDb2dVertex
 10
569.462175
 20
999.522832
 30
0.0
  0
VERTEX
  5
16F
100
AcDbEntity
  8
図
  6
CONTINUOUS
 62
     6
100
AcDbVertex
100
AcDb2dVertex
 10
569.914173
 20
999.591154
 30
0.0
  0
VERTEX
  5
170
100
AcDbEntity
  8
図
  6
CONTINUOUS
 62
     6
100
AcDbVertex
100
AcDb2dVertex
 10
570.359263
 20
999.704446
 30
0.0
  0
VERTEX
  5
171
100
AcDbEntity
  8
図
  6
CONTINUOUS
 62
     6
100
AcDbVertex
100
AcDb2dVertex
 10
570.794059
 20
999.861844
 30
0.0
  0
VERTEX
  5
172
100
AcDbEntity
  8
図
  6
CONTINUOUS
 62
     6
100
AcDbVertex
100
AcDb2dVertex
 10
571.215253
 20
1000.062154
 30
0.0
  0
VERTEX
  5
173
100
AcDbEntity
  8
図
  6
CONTINUOUS
 62
     6
100
AcDbVertex
100
AcDb2dVertex
 10
571.619639
 20
1000.303848
 30
0.0
  0
VERTEX
  5
174
100
AcDbEntity
  8
図
  6
CONTINUOUS
 62
     6
100
AcDbVertex
100
AcDb2dVertex
 10
572.004139
 20
1000.585088
 30
0.0
  0
VERTEX
  5
175
100
AcDbEntity
  8
図
  6
CONTINUOUS
 62
     6
100
AcDbVertex
100
AcDb2dVertex
 10
572.365825
 20
1000.903734
 30
0.0
  0
VERTEX
  5
176
100
AcDbEntity
  8
図
  6
CONTINUOUS
 62
     6
100
AcDbVertex
100
AcDb2dVertex
 10
572.701949
 20
1001.25736
 30
0.0
  0
VERTEX
  5
177
100
AcDbEntity
  8
図
  6
CONTINUOUS
 62
     6
100
AcDbVertex
100
AcDb2dVertex
 10
573.009949
 20
1001.643274
 30
0.0
  0
VERTEX
  5
178
100
AcDbEntity
  8
図
  6
CONTINUOUS
 62
     6
100
AcDbVertex
100
AcDb2dVertex
 10
573.287481
 20
1002.058542
 30
0.0
  0
VERTEX
  5
179
100
AcDbEntity
  8
図
  6
CONTINUOUS
 62
     6
100
AcDbVertex
100
AcDb2dVertex
 10
573.532433
 20
1002.5
 30
0.0
  0
VERTEX
  5
17A
100
AcDbEntity
  8
図
  6
CONTINUOUS
 62
     6
100
AcDbVertex
100
AcDb2dVertex
 10
573.742943
 20
1002.96429
 30
0.0
  0
VERTEX
  5
17B
100
AcDbEntity
  8
図
  6
CONTINUOUS
 62
     6
100
AcDbVertex
100
AcDb2dVertex
 10
573.917407
 20
1003.44788
 30
0.0
  0
VERTEX
  5
17C
100
AcDbEntity
  8
図
  6
CONTINUOUS
 62
     6
100
AcDbVertex
100
AcDb2dVertex
 10
574.054499
 20
1003.947086
 30
0.0
  0
VERTEX
  5
17D
100
AcDbEntity
  8
図
  6
CONTINUOUS
 62
     6
100
AcDbVertex
100
AcDb2dVertex
 10
574.153173
 20
1004.458112
 30
0.0
  0
VERTEX
  5
17E
100
AcDbEntity
  8
図
  6
CONTINUOUS
 62
     6
100
AcDbVertex
100
AcDb2dVertex
 10
574.212679
 20
1004.977066
 30
0.0
  0
VERTEX
  5
17F
100
AcDbEntity
  8
図
  6
CONTINUOUS
 62
     6
100
AcDbVertex
100
AcDb2dVertex
 10
574.232565
 20
1005.5
 30
0.0
  0
VERTEX
  5
180
100
AcDbEntity
  8
図
  6
CONTINUOUS
 62
     6
100
AcDbVertex
100
AcDb2dVertex
 10
574.212679
 20
1006.022934
 30
0.0
  0
VERTEX
  5
181
100
AcDbEntity
  8
図
  6
CONTINUOUS
 62
     6
100
AcDbVertex
100
AcDb2dVertex
 10
574.153173
 20
1006.54189
 30
0.0
  0
VERTEX
  5
182
100
AcDbEntity
  8
図
  6
CONTINUOUS
 62
     6
100
AcDbVertex
100
AcDb2dVertex
 10
574.054499
 20
1007.052914
 30
0.0
  0
VERTEX
  5
183
100
AcDbEntity
  8
図
  6
CONTINUOUS
 62
     6
100
AcDbVertex
100
AcDb2dVertex
 10
573.917407
 20
1007.552122
 30
0.0
  0
VERTEX
  5
184
100
AcDbEntity
  8
図
  6
CONTINUOUS
 62
     6
100
AcDbVertex
100
AcDb2dVertex
 10
573.742943
 20
1008.03571
 30
0.0
  0
VERTEX
  5
185
100
AcDbEntity
  8
図
  6
CONTINUOUS
 62
     6
100
AcDbVertex
100
AcDb2dVertex
 10
573.532433
 20
1008.5
 30
0.0
  0
VERTEX
  5
186
100
AcDbEntity
  8
図
  6
CONTINUOUS
 62
     6
100
AcDbVertex
100
AcDb2dVertex
 10
573.287481
 20
1008.941458
 30
0.0
  0
VERTEX
  5
187
100
AcDbEntity
  8
図
  6
CONTINUOUS
 62
     6
100
AcDbVertex
100
AcDb2dVertex
 10
573.009949
 20
1009.356726
 30
0.0
  0
VERTEX
  5
188
100
AcDbEntity
  8
図
  6
CONTINUOUS
 62
     6
100
AcDbVertex
100
AcDb2dVertex
 10
572.701949
 20
1009.74264
 30
0.0
  0
VERTEX
  5
189
100
AcDbEntity
  8
図
  6
CONTINUOUS
 62
     6
100
AcDbVertex
100
AcDb2dVertex
 10
572.365825
 20
1010.096266
 30
0.0
  0
VERTEX
  5
18A
100
AcDbEntity
  8
図
  6
CONTINUOUS
 62
     6
100
AcDbVertex
100
AcDb2dVertex
 10
572.004139
 20
1010.414912
 30
0.0
  0
VERTEX
  5
18B
100
AcDbEntity
  8
図
  6
CONTINUOUS
 62
     6
100
AcDbVertex
100
AcDb2dVertex
 10
571.619639
 20
1010.696152
 30
0.0
  0
VERTEX
  5
18C
100
AcDbEntity
  8
図
  6
CONTINUOUS
 62
     6
100
AcDbVertex
100
AcDb2dVertex
 10
571.215253
 20
1010.937846
 30
0.0
  0
VERTEX
  5
18D
100
AcDbEntity
  8
図
  6
CONTINUOUS
 62
     6
100
AcDbVertex
100
AcDb2dVertex
 10
570.794059
 20
1011.138156
 30
0.0
  0
VERTEX
  5
18E
100
AcDbEntity
  8
図
  6
CONTINUOUS
 62
     6
100
AcDbVertex
100
AcDb2dVertex
 10
570.359263
 20
1011.295556
 30
0.0
  0
VERTEX
  5
18F
100
AcDbEntity
  8
図
  6
CONTINUOUS
 62
     6
100
AcDbVertex
100
AcDb2dVertex
 10
569.914173
 20
1011.408846
 30
0.0
  0
VERTEX
  5
190
100
AcDbEntity
  8
図
  6
CONTINUOUS
 62
     6
100
AcDbVertex
100
AcDb2dVertex
 10
569.462175
 20
1011.477168
 30
0.0
  0
VERTEX
  5
191
100
AcDbEntity
  8
図
  6
CONTINUOUS
 62
     6
100
AcDbVertex
100
AcDb2dVertex
 10
569.006713
 20
1011.5
 30
0.0
  0
VERTEX
  5
192
100
AcDbEntity
  8
図
  6
CONTINUOUS
 62
     6
100
AcDbVertex
100
AcDb2dVertex
 10
568.551249
 20
1011.477168
 30
0.0
  0
VERTEX
  5
193
100
AcDbEntity
  8
図
  6
CONTINUOUS
 62
     6
100
AcDbVertex
100
AcDb2dVertex
 10
568.099253
 20
1011.408846
 30
0.0
  0
VERTEX
  5
194
100
AcDbEntity
  8
図
  6
CONTINUOUS
 62
     6
100
AcDbVertex
100
AcDb2dVertex
 10
567.654163
 20
1011.295556
 30
0.0
  0
VERTEX
  5
195
100
AcDbEntity
  8
図
  6
CONTINUOUS
 62
     6
100
AcDbVertex
100
AcDb2dVertex
 10
567.219365
 20
1011.138156
 30
0.0
  0
VERTEX
  5
196
100
AcDbEntity
  8
図
  6
CONTINUOUS
 62
     6
100
AcDbVertex
100
AcDb2dVertex
 10
566.798171
 20
1010.937846
 30
0.0
  0
VERTEX
  5
197
100
AcDbEntity
  8
図
  6
CONTINUOUS
 62
     6
100
AcDbVertex
100
AcDb2dVertex
 10
566.393785
 20
1010.696152
 30
0.0
  0
VERTEX
  5
198
100
AcDbEntity
  8
図
  6
CONTINUOUS
 62
     6
100
AcDbVertex
100
AcDb2dVertex
 10
566.009287
 20
1010.414912
 30
0.0
  0
VERTEX
  5
199
100
AcDbEntity
  8
図
  6
CONTINUOUS
 62
     6
100
AcDbVertex
100
AcDb2dVertex
 10
565.647599
 20
1010.096266
 30
0.0
  0
VERTEX
  5
19A
100
AcDbEntity
  8
図
  6
CONTINUOUS
 62
     6
100
AcDbVertex
100
AcDb2dVertex
 10
565.311477
 20
1009.74264
 30
0.0
  0
VERTEX
  5
19B
100
AcDbEntity
  8
図
  6
CONTINUOUS
 62
     6
100
AcDbVertex
100
AcDb2dVertex
 10
565.003477
 20
1009.356726
 30
0.0
  0
VERTEX
  5
19C
100
AcDbEntity
  8
図
  6
CONTINUOUS
 62
     6
100
AcDbVertex
100
AcDb2dVertex
 10
564.725945
 20
1008.941458
 30
0.0
  0
VERTEX
  5
19D
100
AcDbEntity
  8
図
  6
CONTINUOUS
 62
     6
100
AcDbVertex
100
AcDb2dVertex
 10
564.480991
 20
1008.5
 30
0.0
  0
VERTEX
  5
19E
100
AcDbEntity
  8
図
  6
CONTINUOUS
 62
     6
100
AcDbVertex
100
AcDb2dVertex
 10
564.270481
 20
1008.03571
 30
0.0
  0
VERTEX
  5
19F
100
AcDbEntity
  8
図
  6
CONTINUOUS
 62
     6
100
AcDbVertex
100
AcDb2dVertex
 10
564.096017
 20
1007.552122
 30
0.0
  0
VERTEX
  5
1A0
100
AcDbEntity
  8
図
  6
CONTINUOUS
 62
     6
100
AcDbVertex
100
AcDb2dVertex
 10
563.958927
 20
1007.052914
 30
0.0
  0
VERTEX
  5
1A1
100
AcDbEntity
  8
図
  6
CONTINUOUS
 62
     6
100
AcDbVertex
100
AcDb2dVertex
 10
563.860251
 20
1006.54189
 30
0.0
  0
VERTEX
  5
1A2
100
AcDbEntity
  8
図
  6
CONTINUOUS
 62
     6
100
AcDbVertex
100
AcDb2dVertex
 10
563.800745
 20
1006.022934
 30
0.0
  0
VERTEX
  5
1A3
100
AcDbEntity
  8
図
  6
CONTINUOUS
 62
     6
100
AcDbVertex
100
AcDb2dVertex
 10
563.780859
 20
1005.5
 30
0.0
  0
VERTEX
  5
1A4
100
AcDbEntity
  8
図
  6
CONTINUOUS
 62
     6
100
AcDbVertex
100
AcDb2dVertex
 10
563.800745
 20
1004.977066
 30
0.0
  0
VERTEX
  5
1A5
100
AcDbEntity
  8
図
  6
CONTINUOUS
 62
     6
100
AcDbVertex
100
AcDb2dVertex
 10
563.860251
 20
1004.458112
 30
0.0
  0
VERTEX
  5
1A6
100
AcDbEntity
  8
図
  6
CONTINUOUS
 62
     6
100
AcDbVertex
100
AcDb2dVertex
 10
563.958927
 20
1003.947086
 30
0.0
  0
VERTEX
  5
1A7
100
AcDbEntity
  8
図
  6
CONTINUOUS
 62
     6
100
AcDbVertex
100
AcDb2dVertex
 10
564.096017
 20
1003.44788
 30
0.0
  0
VERTEX
  5
1A8
100
AcDbEntity
  8
図
  6
CONTINUOUS
 62
     6
100
AcDbVertex
100
AcDb2dVertex
 10
564.270481
 20
1002.96429
 30
0.0
  0
VERTEX
  5
1A9
100
AcDbEntity
  8
図
  6
CONTINUOUS
 62
     6
100
AcDbVertex
100
AcDb2dVertex
 10
564.480991
 20
1002.5
 30
0.0
  0
VERTEX
  5
1AA
100
AcDbEntity
  8
図
  6
CONTINUOUS
 62
     6
100
AcDbVertex
100
AcDb2dVertex
 10
564.725945
 20
1002.058542
 30
0.0
  0
VERTEX
  5
1AB
100
AcDbEntity
  8
図
  6
CONTINUOUS
 62
     6
100
AcDbVertex
100
AcDb2dVertex
 10
565.003477
 20
1001.643274
 30
0.0
  0
VERTEX
  5
1AC
100
AcDbEntity
  8
図
  6
CONTINUOUS
 62
     6
100
AcDbVertex
100
AcDb2dVertex
 10
565.311477
 20
1001.25736
 30
0.0
  0
VERTEX
  5
1AD
100
AcDbEntity
  8
図
  6
CONTINUOUS
 62
     6
100
AcDbVertex
100
AcDb2dVertex
 10
565.647599
 20
1000.903734
 30
0.0
  0
VERTEX
  5
1AE
100
AcDbEntity
  8
図
  6
CONTINUOUS
 62
     6
100
AcDbVertex
100
AcDb2dVertex
 10
566.009287
 20
1000.585088
 30
0.0
  0
VERTEX
  5
1AF
100
AcDbEntity
  8
図
  6
CONTINUOUS
 62
     6
100
AcDbVertex
100
AcDb2dVertex
 10
566.393785
 20
1000.303848
 30
0.0
  0
VERTEX
  5
1B0
100
AcDbEntity
  8
図
  6
CONTINUOUS
 62
     6
100
AcDbVertex
100
AcDb2dVertex
 10
566.798171
 20
1000.062154
 30
0.0
  0
VERTEX
  5
1B1
100
AcDbEntity
  8
図
  6
CONTINUOUS
 62
     6
100
AcDbVertex
100
AcDb2dVertex
 10
567.219365
 20
999.861844
 30
0.0
  0
VERTEX
  5
1B2
100
AcDbEntity
  8
図
  6
CONTINUOUS
 62
     6
100
AcDbVertex
100
AcDb2dVertex
 10
567.654163
 20
999.704446
 30
0.0
  0
VERTEX
  5
1B3
100
AcDbEntity
  8
図
  6
CONTINUOUS
 62
     6
100
AcDbVertex
100
AcDb2dVertex
 10
568.099253
 20
999.591154
 30
0.0
  0
VERTEX
  5
1B4
100
AcDbEntity
  8
図
  6
CONTINUOUS
 62
     6
100
AcDbVertex
100
AcDb2dVertex
 10
568.551249
 20
999.522832
 30
0.0
  0
VERTEX
  5
1B5
100
AcDbEntity
  8
図
  6
CONTINUOUS
 62
     6
100
AcDbVertex
100
AcDb2dVertex
 10
569.006713
 20
999.5
 30
0.0
  0
SEQEND
  5
1B6
100
AcDbEntity
  8
図
  6
CONTINUOUS
 62
     6
  0
POLYLINE
  5
1B7
100
AcDbEntity
  8
図
  6
CONTINUOUS
 62
     6
100
AcDb2dPolyline
 66
     1
 10
0.0
 20
0.0
 30
0.0
 70
   128
  0
VERTEX
  5
1B8
100
AcDbEntity
  8
図
  6
CONTINUOUS
 62
     6
100
AcDbVertex
100
AcDb2dVertex
 10
599.635977
 20
1005.5
 30
0.0
  0
VERTEX
  5
1B9
100
AcDbEntity
  8
図
  6
CONTINUOUS
 62
     6
100
AcDbVertex
100
AcDb2dVertex
 10
599.596205
 20
1006.022934
 30
0.0
  0
VERTEX
  5
1BA
100
AcDbEntity
  8
図
  6
CONTINUOUS
 62
     6
100
AcDbVertex
100
AcDb2dVertex
 10
599.477193
 20
1006.54189
 30
0.0
  0
VERTEX
  5
1BB
100
AcDbEntity
  8
図
  6
CONTINUOUS
 62
     6
100
AcDbVertex
100
AcDb2dVertex
 10
599.279843
 20
1007.052914
 30
0.0
  0
VERTEX
  5
1BC
100
AcDbEntity
  8
図
  6
CONTINUOUS
 62
     6
100
AcDbVertex
100
AcDb2dVertex
 10
599.005663
 20
1007.552122
 30
0.0
  0
VERTEX
  5
1BD
100
AcDbEntity
  8
図
  6
CONTINUOUS
 62
     6
100
AcDbVertex
100
AcDb2dVertex
 10
598.656733
 20
1008.03571
 30
0.0
  0
VERTEX
  5
1BE
100
AcDbEntity
  8
図
  6
CONTINUOUS
 62
     6
100
AcDbVertex
100
AcDb2dVertex
 10
598.235715
 20
1008.5
 30
0.0
  0
VERTEX
  5
1BF
100
AcDbEntity
  8
図
  6
CONTINUOUS
 62
     6
100
AcDbVertex
100
AcDb2dVertex
 10
597.745807
 20
1008.941458
 30
0.0
  0
VERTEX
  5
1C0
100
AcDbEntity
  8
図
  6
CONTINUOUS
 62
     6
100
AcDbVertex
100
AcDb2dVertex
 10
597.190743
 20
1009.356726
 30
0.0
  0
VERTEX
  5
1C1
100
AcDbEntity
  8
図
  6
CONTINUOUS
 62
     6
100
AcDbVertex
100
AcDb2dVertex
 10
596.574743
 20
1009.74264
 30
0.0
  0
VERTEX
  5
1C2
100
AcDbEntity
  8
図
  6
CONTINUOUS
 62
     6
100
AcDbVertex
100
AcDb2dVertex
 10
595.902499
 20
1010.096266
 30
0.0
  0
VERTEX
  5
1C3
100
AcDbEntity
  8
図
  6
CONTINUOUS
 62
     6
100
AcDbVertex
100
AcDb2dVertex
 10
595.179123
 20
1010.414912
 30
0.0
  0
VERTEX
  5
1C4
100
AcDbEntity
  8
図
  6
CONTINUOUS
 62
     6
100
AcDbVertex
100
AcDb2dVertex
 10
594.410125
 20
1010.696152
 30
0.0
  0
VERTEX
  5
1C5
100
AcDbEntity
  8
図
  6
CONTINUOUS
 62
     6
100
AcDbVertex
100
AcDb2dVertex
 10
593.601353
 20
1010.937846
 30
0.0
  0
VERTEX
  5
1C6
100
AcDbEntity
  8
図
  6
CONTINUOUS
 62
     6
100
AcDbVertex
100
AcDb2dVertex
 10
592.758965
 20
1011.138156
 30
0.0
  0
VERTEX
  5
1C7
100
AcDbEntity
  8
図
  6
CONTINUOUS
 62
     6
100
AcDbVertex
100
AcDb2dVertex
 10
591.889371
 20
1011.295556
 30
0.0
  0
VERTEX
  5
1C8
100
AcDbEntity
  8
図
  6
CONTINUOUS
 62
     6
100
AcDbVertex
100
AcDb2dVertex
 10
590.999191
 20
1011.408846
 30
0.0
  0
VERTEX
  5
1C9
100
AcDbEntity
  8
図
  6
CONTINUOUS
 62
     6
100
AcDbVertex
100
AcDb2dVertex
 10
590.095197
 20
1011.477168
 30
0.0
  0
VERTEX
  5
1CA
100
AcDbEntity
  8
図
  6
CONTINUOUS
 62
     6
100
AcDbVertex
100
AcDb2dVertex
 10
589.184271
 20
1011.5
 30
0.0
  0
VERTEX
  5
1CB
100
AcDbEntity
  8
図
  6
CONTINUOUS
 62
     6
100
AcDbVertex
100
AcDb2dVertex
 10
588.273345
 20
1011.477168
 30
0.0
  0
VERTEX
  5
1CC
100
AcDbEntity
  8
図
  6
CONTINUOUS
 62
     6
100
AcDbVertex
100
AcDb2dVertex
 10
587.369351
 20
1011.408846
 30
0.0
  0
VERTEX
  5
1CD
100
AcDbEntity
  8
図
  6
CONTINUOUS
 62
     6
100
AcDbVertex
100
AcDb2dVertex
 10
586.479171
 20
1011.295556
 30
0.0
  0
VERTEX
  5
1CE
100
AcDbEntity
  8
図
  6
CONTINUOUS
 62
     6
100
AcDbVertex
100
AcDb2dVertex
 10
585.609577
 20
1011.138156
 30
0.0
  0
VERTEX
  5
1CF
100
AcDbEntity
  8
図
  6
CONTINUOUS
 62
     6
100
AcDbVertex
100
AcDb2dVertex
 10
584.767189
 20
1010.937846
 30
0.0
  0
VERTEX
  5
1D0
100
AcDbEntity
  8
図
  6
CONTINUOUS
 62
     6
100
AcDbVertex
100
AcDb2dVertex
 10
583.958419
 20
1010.696152
 30
0.0
  0
VERTEX
  5
1D1
100
AcDbEntity
  8
図
  6
CONTINUOUS
 62
     6
100
AcDbVertex
100
AcDb2dVertex
 10
583.189419
 20
1010.414912
 30
0.0
  0
VERTEX
  5
1D2
100
AcDbEntity
  8
図
  6
CONTINUOUS
 62
     6
100
AcDbVertex
100
AcDb2dVertex
 10
582.466045
 20
1010.096266
 30
0.0
  0
VERTEX
  5
1D3
100
AcDbEntity
  8
図
  6
CONTINUOUS
 62
     6
100
AcDbVertex
100
AcDb2dVertex
 10
581.793799
 20
1009.74264
 30
0.0
  0
VERTEX
  5
1D4
100
AcDbEntity
  8
図
  6
CONTINUOUS
 62
     6
100
AcDbVertex
100
AcDb2dVertex
 10
581.177801
 20
1009.356726
 30
0.0
  0
VERTEX
  5
1D5
100
AcDbEntity
  8
図
  6
CONTINUOUS
 62
     6
100
AcDbVertex
100
AcDb2dVertex
 10
580.622735
 20
1008.941458
 30
0.0
  0
VERTEX
  5
1D6
100
AcDbEntity
  8
図
  6
CONTINUOUS
 62
     6
100
AcDbVertex
100
AcDb2dVertex
 10
580.132829
 20
1008.5
 30
0.0
  0
VERTEX
  5
1D7
100
AcDbEntity
  8
図
  6
CONTINUOUS
 62
     6
100
AcDbVertex
100
AcDb2dVertex
 10
579.711809
 20
1008.03571
 30
0.0
  0
VERTEX
  5
1D8
100
AcDbEntity
  8
図
  6
CONTINUOUS
 62
     6
100
AcDbVertex
100
AcDb2dVertex
 10
579.362881
 20
1007.552122
 30
0.0
  0
VERTEX
  5
1D9
100
AcDbEntity
  8
図
  6
CONTINUOUS
 62
     6
100
AcDbVertex
100
AcDb2dVertex
 10
579.088699
 20
1007.052914
 30
0.0
  0
VERTEX
  5
1DA
100
AcDbEntity
  8
図
  6
CONTINUOUS
 62
     6
100
AcDbVertex
100
AcDb2dVertex
 10
578.891351
 20
1006.54189
 30
0.0
  0
VERTEX
  5
1DB
100
AcDbEntity
  8
図
  6
CONTINUOUS
 62
     6
100
AcDbVertex
100
AcDb2dVertex
 10
578.772337
 20
1006.022934
 30
0.0
  0
VERTEX
  5
1DC
100
AcDbEntity
  8
図
  6
CONTINUOUS
 62
     6
100
AcDbVertex
100
AcDb2dVertex
 10
578.732565
 20
1005.5
 30
0.0
  0
VERTEX
  5
1DD
100
AcDbEntity
  8
図
  6
CONTINUOUS
 62
     6
100
AcDbVertex
100
AcDb2dVertex
 10
578.772337
 20
1004.977066
 30
0.0
  0
VERTEX
  5
1DE
100
AcDbEntity
  8
図
  6
CONTINUOUS
 62
     6
100
AcDbVertex
100
AcDb2dVertex
 10
578.891351
 20
1004.458112
 30
0.0
  0
VERTEX
  5
1DF
100
AcDbEntity
  8
図
  6
CONTINUOUS
 62
     6
100
AcDbVertex
100
AcDb2dVertex
 10
579.088699
 20
1003.947086
 30
0.0
  0
VERTEX
  5
1E0
100
AcDbEntity
  8
図
  6
CONTINUOUS
 62
     6
100
AcDbVertex
100
AcDb2dVertex
 10
579.362881
 20
1003.44788
 30
0.0
  0
VERTEX
  5
1E1
100
AcDbEntity
  8
図
  6
CONTINUOUS
 62
     6
100
AcDbVertex
100
AcDb2dVertex
 10
579.711809
 20
1002.96429
 30
0.0
  0
VERTEX
  5
1E2
100
AcDbEntity
  8
図
  6
CONTINUOUS
 62
     6
100
AcDbVertex
100
AcDb2dVertex
 10
580.132829
 20
1002.5
 30
0.0
  0
VERTEX
  5
1E3
100
AcDbEntity
  8
図
  6
CONTINUOUS
 62
     6
100
AcDbVertex
100
AcDb2dVertex
 10
580.622735
 20
1002.058542
 30
0.0
  0
VERTEX
  5
1E4
100
AcDbEntity
  8
図
  6
CONTINUOUS
 62
     6
100
AcDbVertex
100
AcDb2dVertex
 10
581.177801
 20
1001.643274
 30
0.0
  0
VERTEX
  5
1E5
100
AcDbEntity
  8
図
  6
CONTINUOUS
 62
     6
100
AcDbVertex
100
AcDb2dVertex
 10
581.793799
 20
1001.25736
 30
0.0
  0
VERTEX
  5
1E6
100
AcDbEntity
  8
図
  6
CONTINUOUS
 62
     6
100
AcDbVertex
100
AcDb2dVertex
 10
582.466045
 20
1000.903734
 30
0.0
  0
VERTEX
  5
1E7
100
AcDbEntity
  8
図
  6
CONTINUOUS
 62
     6
100
AcDbVertex
100
AcDb2dVertex
 10
583.189419
 20
1000.585088
 30
0.0
  0
VERTEX
  5
1E8
100
AcDbEntity
  8
図
  6
CONTINUOUS
 62
     6
100
AcDbVertex
100
AcDb2dVertex
 10
583.958419
 20
1000.303848
 30
0.0
  0
VERTEX
  5
1E9
100
AcDbEntity
  8
図
  6
CONTINUOUS
 62
     6
100
AcDbVertex
100
AcDb2dVertex
 10
584.767189
 20
1000.062154
 30
0.0
  0
VERTEX
  5
1EA
100
AcDbEntity
  8
図
  6
CONTINUOUS
 62
     6
100
AcDbVertex
100
AcDb2dVertex
 10
585.609577
 20
999.861844
 30
0.0
  0
VERTEX
  5
1EB
100
AcDbEntity
  8
図
  6
CONTINUOUS
 62
     6
100
AcDbVertex
100
AcDb2dVertex
 10
586.479171
 20
999.704446
 30
0.0
  0
VERTEX
  5
1EC
100
AcDbEntity
  8
図
  6
CONTINUOUS
 62
     6
100
AcDbVertex
100
AcDb2dVertex
 10
587.369351
 20
999.591154
 30
0.0
  0
VERTEX
  5
1ED
100
AcDbEntity
  8
図
  6
CONTINUOUS
 62
     6
100
AcDbVertex
100
AcDb2dVertex
 10
588.273345
 20
999.522832
 30
0.0
  0
VERTEX
  5
1EE
100
AcDbEntity
  8
図
  6
CONTINUOUS
 62
     6
100
AcDbVertex
100
AcDb2dVertex
 10
589.184271
 20
999.5
 30
0.0
  0
VERTEX
  5
1EF
100
AcDbEntity
  8
図
  6
CONTINUOUS
 62
     6
100
AcDbVertex
100
AcDb2dVertex
 10
590.095197
 20
999.522832
 30
0.0
  0
VERTEX
  5
1F0
100
AcDbEntity
  8
図
  6
CONTINUOUS
 62
     6
100
AcDbVertex
100
AcDb2dVertex
 10
590.999191
 20
999.591154
 30
0.0
  0
VERTEX
  5
1F1
100
AcDbEntity
  8
図
  6
CONTINUOUS
 62
     6
100
AcDbVertex
100
AcDb2dVertex
 10
591.889371
 20
999.704446
 30
0.0
  0
VERTEX
  5
1F2
100
AcDbEntity
  8
図
  6
CONTINUOUS
 62
     6
100
AcDbVertex
100
AcDb2dVertex
 10
592.758965
 20
999.861844
 30
0.0
  0
VERTEX
  5
1F3
100
AcDbEntity
  8
図
  6
CONTINUOUS
 62
     6
100
AcDbVertex
100
AcDb2dVertex
 10
593.601353
 20
1000.062154
 30
0.0
  0
VERTEX
  5
1F4
100
AcDbEntity
  8
図
  6
CONTINUOUS
 62
     6
100
AcDbVertex
100
AcDb2dVertex
 10
594.410125
 20
1000.303848
 30
0.0
  0
VERTEX
  5
1F5
100
AcDbEntity
  8
図
  6
CONTINUOUS
 62
     6
100
AcDbVertex
100
AcDb2dVertex
 10
595.179123
 20
1000.585088
 30
0.0
  0
VERTEX
  5
1F6
100
AcDbEntity
  8
図
  6
CONTINUOUS
 62
     6
100
AcDbVertex
100
AcDb2dVertex
 10
595.902499
 20
1000.903734
 30
0.0
  0
VERTEX
  5
1F7
100
AcDbEntity
  8
図
  6
CONTINUOUS
 62
     6
100
AcDbVertex
100
AcDb2dVertex
 10
596.574743
 20
1001.25736
 30
0.0
  0
VERTEX
  5
1F8
100
AcDbEntity
  8
図
  6
CONTINUOUS
 62
     6
100
AcDbVertex
100
AcDb2dVertex
 10
597.190743
 20
1001.643274
 30
0.0
  0
VERTEX
  5
1F9
100
AcDbEntity
  8
図
  6
CONTINUOUS
 62
     6
100
AcDbVertex
100
AcDb2dVertex
 10
597.745807
 20
1002.058542
 30
0.0
  0
VERTEX
  5
1FA
100
AcDbEntity
  8
図
  6
CONTINUOUS
 62
     6
100
AcDbVertex
100
AcDb2dVertex
 10
598.235715
 20
1002.5
 30
0.0
  0
VERTEX
  5
1FB
100
AcDbEntity
  8
図
  6
CONTINUOUS
 62
     6
100
AcDbVertex
100
AcDb2dVertex
 10
598.656733
 20
1002.96429
 30
0.0
  0
VERTEX
  5
1FC
100
AcDbEntity
  8
図
  6
CONTINUOUS
 62
     6
100
AcDbVertex
100
AcDb2dVertex
 10
599.005663
 20
1003.44788
 30
0.0
  0
VERTEX
  5
1FD
100
AcDbEntity
  8
図
  6
CONTINUOUS
 62
     6
100
AcDbVertex
100
AcDb2dVertex
 10
599.279843
 20
1003.947086
 30
0.0
  0
VERTEX
  5
1FE
100
AcDbEntity
  8
図
  6
CONTINUOUS
 62
     6
100
AcDbVertex
100
AcDb2dVertex
 10
599.477193
 20
1004.458112
 30
0.0
  0
VERTEX
  5
1FF
100
AcDbEntity
  8
図
  6
CONTINUOUS
 62
     6
100
AcDbVertex
100
AcDb2dVertex
 10
599.596205
 20
1004.977066
 30
0.0
  0
VERTEX
  5
200
100
AcDbEntity
  8
図
  6
CONTINUOUS
 62
     6
100
AcDbVertex
100
AcDb2dVertex
 10
599.635977
 20
1005.5
 30
0.0
  0
SEQEND
  5
201
100
AcDbEntity
  8
図
  6
CONTINUOUS
 62
     6
  0
POLYLINE
  5
202
100
AcDbEntity
  8
図
  6
CONTINUOUS
 62
     6
100
AcDb2dPolyline
 66
     1
 10
0.0
 20
0.0
 30
0.0
 70
   128
  0
VERTEX
  5
203
100
AcDbEntity
  8
図
  6
CONTINUOUS
 62
     6
100
AcDbVertex
100
AcDb2dVertex
 10
609.361831
 20
999.5
 30
0.0
  0
VERTEX
  5
204
100
AcDbEntity
  8
図
  6
CONTINUOUS
 62
     6
100
AcDbVertex
100
AcDb2dVertex
 10
609.817293
 20
999.522832
 30
0.0
  0
VERTEX
  5
205
100
AcDbEntity
  8
図
  6
CONTINUOUS
 62
     6
100
AcDbVertex
100
AcDb2dVertex
 10
610.269291
 20
999.591154
 30
0.0
  0
VERTEX
  5
206
100
AcDbEntity
  8
図
  6
CONTINUOUS
 62
     6
100
AcDbVertex
100
AcDb2dVertex
 10
610.714381
 20
999.704446
 30
0.0
  0
VERTEX
  5
207
100
AcDbEntity
  8
図
  6
CONTINUOUS
 62
     6
100
AcDbVertex
100
AcDb2dVertex
 10
611.149177
 20
999.861844
 30
0.0
  0
VERTEX
  5
208
100
AcDbEntity
  8
図
  6
CONTINUOUS
 62
     6
100
AcDbVertex
100
AcDb2dVertex
 10
611.570371
 20
1000.062154
 30
0.0
  0
VERTEX
  5
209
100
AcDbEntity
  8
図
  6
CONTINUOUS
 62
     6
100
AcDbVertex
100
AcDb2dVertex
 10
611.974757
 20
1000.303848
 30
0.0
  0
VERTEX
  5
20A
100
AcDbEntity
  8
図
  6
CONTINUOUS
 62
     6
100
AcDbVertex
100
AcDb2dVertex
 10
612.359257
 20
1000.585088
 30
0.0
  0
VERTEX
  5
20B
100
AcDbEntity
  8
図
  6
CONTINUOUS
 62
     6
100
AcDbVertex
100
AcDb2dVertex
 10
612.720943
 20
1000.903734
 30
0.0
  0
VERTEX
  5
20C
100
AcDbEntity
  8
図
  6
CONTINUOUS
 62
     6
100
AcDbVertex
100
AcDb2dVertex
 10
613.057067
 20
1001.25736
 30
0.0
  0
VERTEX
  5
20D
100
AcDbEntity
  8
図
  6
CONTINUOUS
 62
     6
100
AcDbVertex
100
AcDb2dVertex
 10
613.365065
 20
1001.643274
 30
0.0
  0
VERTEX
  5
20E
100
AcDbEntity
  8
図
  6
CONTINUOUS
 62
     6
100
AcDbVertex
100
AcDb2dVertex
 10
613.642599
 20
1002.058542
 30
0.0
  0
VERTEX
  5
20F
100
AcDbEntity
  8
図
  6
CONTINUOUS
 62
     6
100
AcDbVertex
100
AcDb2dVertex
 10
613.887551
 20
1002.5
 30
0.0
  0
VERTEX
  5
210
100
AcDbEntity
  8
図
  6
CONTINUOUS
 62
     6
100
AcDbVertex
100
AcDb2dVertex
 10
614.098061
 20
1002.96429
 30
0.0
  0
VERTEX
  5
211
100
AcDbEntity
  8
図
  6
CONTINUOUS
 62
     6
100
AcDbVertex
100
AcDb2dVertex
 10
614.272525
 20
1003.44788
 30
0.0
  0
VERTEX
  5
212
100
AcDbEntity
  8
図
  6
CONTINUOUS
 62
     6
100
AcDbVertex
100
AcDb2dVertex
 10
614.409617
 20
1003.947086
 30
0.0
  0
VERTEX
  5
213
100
AcDbEntity
  8
図
  6
CONTINUOUS
 62
     6
100
AcDbVertex
100
AcDb2dVertex
 10
614.508291
 20
1004.458112
 30
0.0
  0
VERTEX
  5
214
100
AcDbEntity
  8
図
  6
CONTINUOUS
 62
     6
100
AcDbVertex
100
AcDb2dVertex
 10
614.567797
 20
1004.977066
 30
0.0
  0
VERTEX
  5
215
100
AcDbEntity
  8
図
  6
CONTINUOUS
 62
     6
100
AcDbVertex
100
AcDb2dVertex
 10
614.587683
 20
1005.5
 30
0.0
  0
VERTEX
  5
216
100
AcDbEntity
  8
図
  6
CONTINUOUS
 62
     6
100
AcDbVertex
100
AcDb2dVertex
 10
614.567797
 20
1006.022934
 30
0.0
  0
VERTEX
  5
217
100
AcDbEntity
  8
図
  6
CONTINUOUS
 62
     6
100
AcDbVertex
100
AcDb2dVertex
 10
614.508291
 20
1006.54189
 30
0.0
  0
VERTEX
  5
218
100
AcDbEntity
  8
図
  6
CONTINUOUS
 62
     6
100
AcDbVertex
100
AcDb2dVertex
 10
614.409617
 20
1007.052914
 30
0.0
  0
VERTEX
  5
219
100
AcDbEntity
  8
図
  6
CONTINUOUS
 62
     6
100
AcDbVertex
100
AcDb2dVertex
 10
614.272525
 20
1007.552122
 30
0.0
  0
VERTEX
  5
21A
100
AcDbEntity
  8
図
  6
CONTINUOUS
 62
     6
100
AcDbVertex
100
AcDb2dVertex
 10
614.098061
 20
1008.03571
 30
0.0
  0
VERTEX
  5
21B
100
AcDbEntity
  8
図
  6
CONTINUOUS
 62
     6
100
AcDbVertex
100
AcDb2dVertex
 10
613.887551
 20
1008.5
 30
0.0
  0
VERTEX
  5
21C
100
AcDbEntity
  8
図
  6
CONTINUOUS
 62
     6
100
AcDbVertex
100
AcDb2dVertex
 10
613.642599
 20
1008.941458
 30
0.0
  0
VERTEX
  5
21D
100
AcDbEntity
  8
図
  6
CONTINUOUS
 62
     6
100
AcDbVertex
100
AcDb2dVertex
 10
613.365065
 20
1009.356726
 30
0.0
  0
VERTEX
  5
21E
100
AcDbEntity
  8
図
  6
CONTINUOUS
 62
     6
100
AcDbVertex
100
AcDb2dVertex
 10
613.057067
 20
1009.74264
 30
0.0
  0
VERTEX
  5
21F
100
AcDbEntity
  8
図
  6
CONTINUOUS
 62
     6
100
AcDbVertex
100
AcDb2dVertex
 10
612.720943
 20
1010.096266
 30
0.0
  0
VERTEX
  5
220
100
AcDbEntity
  8
図
  6
CONTINUOUS
 62
     6
100
AcDbVertex
100
AcDb2dVertex
 10
612.359257
 20
1010.414912
 30
0.0
  0
VERTEX
  5
221
100
AcDbEntity
  8
図
  6
CONTINUOUS
 62
     6
100
AcDbVertex
100
AcDb2dVertex
 10
611.974757
 20
1010.696152
 30
0.0
  0
VERTEX
  5
222
100
AcDbEntity
  8
図
  6
CONTINUOUS
 62
     6
100
AcDbVertex
100
AcDb2dVertex
 10
611.570371
 20
1010.937846
 30
0.0
  0
VERTEX
  5
223
100
AcDbEntity
  8
図
  6
CONTINUOUS
 62
     6
100
AcDbVertex
100
AcDb2dVertex
 10
611.149177
 20
1011.138156
 30
0.0
  0
VERTEX
  5
224
100
AcDbEntity
  8
図
  6
CONTINUOUS
 62
     6
100
AcDbVertex
100
AcDb2dVertex
 10
610.714381
 20
1011.295556
 30
0.0
  0
VERTEX
  5
225
100
AcDbEntity
  8
図
  6
CONTINUOUS
 62
     6
100
AcDbVertex
100
AcDb2dVertex
 10
610.269291
 20
1011.408846
 30
0.0
  0
VERTEX
  5
226
100
AcDbEntity
  8
図
  6
CONTINUOUS
 62
     6
100
AcDbVertex
100
AcDb2dVertex
 10
609.817293
 20
1011.477168
 30
0.0
  0
VERTEX
  5
227
100
AcDbEntity
  8
図
  6
CONTINUOUS
 62
     6
100
AcDbVertex
100
AcDb2dVertex
 10
609.361831
 20
1011.5
 30
0.0
  0
VERTEX
  5
228
100
AcDbEntity
  8
図
  6
CONTINUOUS
 62
     6
100
AcDbVertex
100
AcDb2dVertex
 10
608.906367
 20
1011.477168
 30
0.0
  0
VERTEX
  5
229
100
AcDbEntity
  8
図
  6
CONTINUOUS
 62
     6
100
AcDbVertex
100
AcDb2dVertex
 10
608.454371
 20
1011.408846
 30
0.0
  0
VERTEX
  5
22A
100
AcDbEntity
  8
図
  6
CONTINUOUS
 62
     6
100
AcDbVertex
100
AcDb2dVertex
 10
608.009279
 20
1011.295556
 30
0.0
  0
VERTEX
  5
22B
100
AcDbEntity
  8
図
  6
CONTINUOUS
 62
     6
100
AcDbVertex
100
AcDb2dVertex
 10
607.574483
 20
1011.138156
 30
0.0
  0
VERTEX
  5
22C
100
AcDbEntity
  8
図
  6
CONTINUOUS
 62
     6
100
AcDbVertex
100
AcDb2dVertex
 10
607.153289
 20
1010.937846
 30
0.0
  0
VERTEX
  5
22D
100
AcDbEntity
  8
図
  6
CONTINUOUS
 62
     6
100
AcDbVertex
100
AcDb2dVertex
 10
606.748903
 20
1010.696152
 30
0.0
  0
VERTEX
  5
22E
100
AcDbEntity
  8
図
  6
CONTINUOUS
 62
     6
100
AcDbVertex
100
AcDb2dVertex
 10
606.364405
 20
1010.414912
 30
0.0
  0
VERTEX
  5
22F
100
AcDbEntity
  8
図
  6
CONTINUOUS
 62
     6
100
AcDbVertex
100
AcDb2dVertex
 10
606.002717
 20
1010.096266
 30
0.0
  0
VERTEX
  5
230
100
AcDbEntity
  8
図
  6
CONTINUOUS
 62
     6
100
AcDbVertex
100
AcDb2dVertex
 10
605.666595
 20
1009.74264
 30
0.0
  0
VERTEX
  5
231
100
AcDbEntity
  8
図
  6
CONTINUOUS
 62
     6
100
AcDbVertex
100
AcDb2dVertex
 10
605.358595
 20
1009.356726
 30
0.0
  0
VERTEX
  5
232
100
AcDbEntity
  8
図
  6
CONTINUOUS
 62
     6
100
AcDbVertex
100
AcDb2dVertex
 10
605.081063
 20
1008.941458
 30
0.0
  0
VERTEX
  5
233
100
AcDbEntity
  8
図
  6
CONTINUOUS
 62
     6
100
AcDbVertex
100
AcDb2dVertex
 10
604.836109
 20
1008.5
 30
0.0
  0
VERTEX
  5
234
100
AcDbEntity
  8
図
  6
CONTINUOUS
 62
     6
100
AcDbVertex
100
AcDb2dVertex
 10
604.625599
 20
1008.03571
 30
0.0
  0
VERTEX
  5
235
100
AcDbEntity
  8
図
  6
CONTINUOUS
 62
     6
100
AcDbVertex
100
AcDb2dVertex
 10
604.451135
 20
1007.552122
 30
0.0
  0
VERTEX
  5
236
100
AcDbEntity
  8
図
  6
CONTINUOUS
 62
     6
100
AcDbVertex
100
AcDb2dVertex
 10
604.314043
 20
1007.052914
 30
0.0
  0
VERTEX
  5
237
100
AcDbEntity
  8
図
  6
CONTINUOUS
 62
     6
100
AcDbVertex
100
AcDb2dVertex
 10
604.215369
 20
1006.54189
 30
0.0
  0
VERTEX
  5
238
100
AcDbEntity
  8
図
  6
CONTINUOUS
 62
     6
100
AcDbVertex
100
AcDb2dVertex
 10
604.155863
 20
1006.022934
 30
0.0
  0
VERTEX
  5
239
100
AcDbEntity
  8
図
  6
CONTINUOUS
 62
     6
100
AcDbVertex
100
AcDb2dVertex
 10
604.135977
 20
1005.5
 30
0.0
  0
VERTEX
  5
23A
100
AcDbEntity
  8
図
  6
CONTINUOUS
 62
     6
100
AcDbVertex
100
AcDb2dVertex
 10
604.155863
 20
1004.977066
 30
0.0
  0
VERTEX
  5
23B
100
AcDbEntity
  8
図
  6
CONTINUOUS
 62
     6
100
AcDbVertex
100
AcDb2dVertex
 10
604.215369
 20
1004.458112
 30
0.0
  0
VERTEX
  5
23C
100
AcDbEntity
  8
図
  6
CONTINUOUS
 62
     6
100
AcDbVertex
100
AcDb2dVertex
 10
604.314043
 20
1003.947086
 30
0.0
  0
VERTEX
  5
23D
100
AcDbEntity
  8
図
  6
CONTINUOUS
 62
     6
100
AcDbVertex
100
AcDb2dVertex
 10
604.451135
 20
1003.44788
 30
0.0
  0
VERTEX
  5
23E
100
AcDbEntity
  8
図
  6
CONTINUOUS
 62
     6
100
AcDbVertex
100
AcDb2dVertex
 10
604.625599
 20
1002.96429
 30
0.0
  0
VERTEX
  5
23F
100
AcDbEntity
  8
図
  6
CONTINUOUS
 62
     6
100
AcDbVertex
100
AcDb2dVertex
 10
604.836109
 20
1002.5
 30
0.0
  0
VERTEX
  5
240
100
AcDbEntity
  8
図
  6
CONTINUOUS
 62
     6
100
AcDbVertex
100
AcDb2dVertex
 10
605.081063
 20
1002.058542
 30
0.0
  0
VERTEX
  5
241
100
AcDbEntity
  8
図
  6
CONTINUOUS
 62
     6
100
AcDbVertex
100
AcDb2dVertex
 10
605.358595
 20
1001.643274
 30
0.0
  0
VERTEX
  5
242
100
AcDbEntity
  8
図
  6
CONTINUOUS
 62
     6
100
AcDbVertex
100
AcDb2dVertex
 10
605.666595
 20
1001.25736
 30
0.0
  0
VERTEX
  5
243
100
AcDbEntity
  8
図
  6
CONTINUOUS
 62
     6
100
AcDbVertex
100
AcDb2dVertex
 10
606.002717
 20
1000.903734
 30
0.0
  0
VERTEX
  5
244
100
AcDbEntity
  8
図
  6
CONTINUOUS
 62
     6
100
AcDbVertex
100
AcDb2dVertex
 10
606.364405
 20
1000.585088
 30
0.0
  0
VERTEX
  5
245
100
AcDbEntity
  8
図
  6
CONTINUOUS
 62
     6
100
AcDbVertex
100
AcDb2dVertex
 10
606.748903
 20
1000.303848
 30
0.0
  0
VERTEX
  5
246
100
AcDbEntity
  8
図
  6
CONTINUOUS
 62
     6
100
AcDbVertex
100
AcDb2dVertex
 10
607.153289
 20
1000.062154
 30
0.0
  0
VERTEX
  5
247
100
AcDbEntity
  8
図
  6
CONTINUOUS
 62
     6
100
AcDbVertex
100
AcDb2dVertex
 10
607.574483
 20
999.861844
 30
0.0
  0
VERTEX
  5
248
100
AcDbEntity
  8
図
  6
CONTINUOUS
 62
     6
100
AcDbVertex
100
AcDb2dVertex
 10
608.009279
 20
999.704446
 30
0.0
  0
VERTEX
  5
249
100
AcDbEntity
  8
図
  6
CONTINUOUS
 62
     6
100
AcDbVertex
100
AcDb2dVertex
 10
608.454371
 20
999.591154
 30
0.0
  0
VERTEX
  5
24A
100
AcDbEntity
  8
図
  6
CONTINUOUS
 62
     6
100
AcDbVertex
100
AcDb2dVertex
 10
608.906367
 20
999.522832
 30
0.0
  0
VERTEX
  5
24B
100
AcDbEntity
  8
図
  6
CONTINUOUS
 62
     6
100
AcDbVertex
100
AcDb2dVertex
 10
609.361831
 20
999.5
 30
0.0
  0
SEQEND
  5
24C
100
AcDbEntity
  8
図
  6
CONTINUOUS
 62
     6
  0
LINE
  5
24D
100
AcDbEntity
  8
図
  6
CONTINUOUS
 62
     2
100
AcDbLine
 10
565.780859
 20
1011.5
 30
0.0
 11
612.587683
 21
1011.5
 31
0.0
  0
ARC
  5
24E
100
AcDbEntity
  8
図
  6
CONTINUOUS
 62
     2
100
AcDbCircle
 10
573.780859
 20
1005.5
 30
0.0
 40
10.0
100
AcDbArc
 50
143.130102
 51
216.869898
  0
LINE
  5
24F
100
AcDbEntity
  8
図
  6
CONTINUOUS
 62
     2
100
AcDbLine
 10
565.780859
 20
999.5
 30
0.0
 11
612.587683
 21
999.5
 31
0.0
  0
ARC
  5
250
100
AcDbEntity
  8
図
  6
CONTINUOUS
 62
     2
100
AcDbCircle
 10
604.587683
 20
1005.5
 30
0.0
 40
10.0
100
AcDbArc
 50
323.130102
 51
36.869898
  0
LINE
  5
251
100
AcDbEntity
  8
図
  6
CONTINUOUS
 62
     6
100
AcDbLine
 10
570.200271
 20
999.5
 30
0.0
 11
570.200271
 21
996.5
 31
0.0
  0
LINE
  5
252
100
AcDbEntity
  8
図
  6
CONTINUOUS
 62
     6
100
AcDbLine
 10
608.168271
 20
996.5
 30
0.0
 11
608.168271
 21
999.5
 31
0.0
  0
LINE
  5
253
100
AcDbEntity
  8
図
  6
CONTINUOUS
 62
     2
100
AcDbLine
 10
609.184271
 20
997.516
 30
0.0
 11
569.184271
 21
997.516
 31
0.0
  0
LINE
  5
254
100
AcDbEntity
  8
図
  6
CONTINUOUS
 62
     2
100
AcDbLine
 10
570.200271
 20
996.5
 30
0.0
 11
569.184271
 21
997.516
 31
0.0
  0
LINE
  5
255
100
AcDbEntity
  8
図
  6
CONTINUOUS
 62
     2
100
AcDbLine
 10
570.200271
 20
996.5
 30
0.0
 11
608.168271
 21
996.5
 31
0.0
  0
LINE
  5
256
100
AcDbEntity
  8
図
  6
CONTINUOUS
 62
     2
100
AcDbLine
 10
569.184271
 20
999.5
 30
0.0
 11
569.184271
 21
997.516
 31
0.0
  0
LINE
  5
257
100
AcDbEntity
  8
図
  6
CONTINUOUS
 62
     2
100
AcDbLine
 10
608.168271
 20
996.5
 30
0.0
 11
609.184271
 21
997.516
 31
0.0
  0
LINE
  5
258
100
AcDbEntity
  8
図
  6
CONTINUOUS
 62
     2
100
AcDbLine
 10
609.184271
 20
999.5
 30
0.0
 11
609.184271
 21
997.516
 31
0.0
  0
LINE
  5
259
100
AcDbEntity
  8
図
  6
CONTINUOUS
 62
     2
100
AcDbLine
 10
572.434271
 20
996.5
 30
0.0
 11
572.434271
 21
956.43614
 31
0.0
  0
LINE
  5
25A
100
AcDbEntity
  8
図
  6
CONTINUOUS
 62
     2
100
AcDbLine
 10
605.934271
 20
996.5
 30
0.0
 11
605.934271
 21
956.43614
 31
0.0
  0
ARC
  5
25B
100
AcDbEntity
  8
図
  6
CONTINUOUS
 62
     2
100
AcDbCircle
 10
606.434271
 20
955.0
 30
0.0
 40
1.25
100
AcDbArc
 50
124.849905
 51
180.0
  0
ARC
  5
25C
100
AcDbEntity
  8
図
  6
CONTINUOUS
 62
     2
100
AcDbCircle
 10
605.434271
 20
956.43614
 30
0.0
 40
0.5
100
AcDbArc
 50
304.849905
 51
0.0
  0
ARC
  5
25D
100
AcDbEntity
  8
図
  6
CONTINUOUS
 62
     2
100
AcDbCircle
 10
572.934271
 20
956.43614
 30
0.0
 40
0.5
100
AcDbArc
 50
180.0
 51
235.150095
  0
ARC
  5
25E
100
AcDbEntity
  8
図
  6
CONTINUOUS
 62
     2
100
AcDbCircle
 10
571.934271
 20
955.0
 30
0.0
 40
1.25
100
AcDbArc
 50
0.0
 51
55.150095
  0
LINE
  5
25F
100
AcDbEntity
  8
図
  6
CONTINUOUS
 62
     6
100
AcDbLine
 10
602.766245
 20
956.161178
 30
0.0
 11
574.944389
 21
956.161178
 31
0.0
  0
ARC
  5
260
100
AcDbEntity
  8
図
  6
CONTINUOUS
 62
     2
100
AcDbCircle
 10
589.184271
 20
880.0
 30
0.0
 40
16.0
100
AcDbArc
 50
180.0
 51
0.0
  0
LINE
  5
261
100
AcDbEntity
  8
図
  6
CONTINUOUS
 62
     2
100
AcDbLine
 10
573.184271
 20
955.0
 30
0.0
 11
573.184271
 21
880.0
 31
0.0
  0
ARC
  5
262
100
AcDbEntity
  8
図
  6
CONTINUOUS
 62
     2
100
AcDbCircle
 10
589.184271
 20
972.0
 30
0.0
 40
33.0
100
AcDbArc
 50
127.305201
 51
240.997454
  0
ARC
  5
263
100
AcDbEntity
  8
図
  6
CONTINUOUS
 62
     2
100
AcDbCircle
 10
589.184271
 20
972.0
 30
0.0
 40
33.0
100
AcDbArc
 50
299.002546
 51
52.694799
  0
LINE
  5
264
100
AcDbEntity
  8
図
  6
CONTINUOUS
 62
     2
100
AcDbLine
 10
569.184271
 20
920.391
 30
0.0
 11
570.200271
 21
919.375
 31
0.0
  0
LINE
  5
265
100
AcDbEntity
  8
図
  6
CONTINUOUS
 62
     2
100
AcDbLine
 10
609.184271
 20
920.391
 30
0.0
 11
608.168271
 21
919.375
 31
0.0
  0
LINE
  5
266
100
AcDbEntity
  8
図
  6
CONTINUOUS
 62
     2
100
AcDbLine
 10
569.184271
 20
922.375
 30
0.0
 11
569.184271
 21
920.391
 31
0.0
  0
LINE
  5
267
100
AcDbEntity
  8
図
  6
CONTINUOUS
 62
     2
100
AcDbLine
 10
609.184271
 20
922.375
 30
0.0
 11
609.184271
 21
920.391
 31
0.0
  0
ARC
  5
268
100
AcDbEntity
  8
図
  6
CONTINUOUS
 62
     2
100
AcDbCircle
 10
604.587683
 20
928.375
 30
0.0
 40
10.0
100
AcDbArc
 50
323.130102
 51
36.869898
  0
ARC
  5
269
100
AcDbEntity
  8
図
  6
CONTINUOUS
 62
     2
100
AcDbCircle
 10
573.780859
 20
928.375
 30
0.0
 40
10.0
100
AcDbArc
 50
143.130102
 51
216.869898
  0
LINE
  5
26A
100
AcDbEntity
  8
図
  6
CONTINUOUS
 62
     2
100
AcDbLine
 10
608.168271
 20
919.375
 30
0.0
 11
605.184271
 21
919.375
 31
0.0
  0
LINE
  5
26B
100
AcDbEntity
  8
図
  6
CONTINUOUS
 62
     6
100
AcDbLine
 10
570.200271
 20
919.375
 30
0.0
 11
570.200271
 21
922.375
 31
0.0
  0
LINE
  5
26C
100
AcDbEntity
  8
図
  6
CONTINUOUS
 62
     6
100
AcDbLine
 10
608.168271
 20
919.375
 30
0.0
 11
608.168271
 21
922.375
 31
0.0
  0
LINE
  5
26D
100
AcDbEntity
  8
図
  6
CONTINUOUS
 62
     2
100
AcDbLine
 10
573.184271
 20
919.375
 30
0.0
 11
570.200271
 21
919.375
 31
0.0
  0
POLYLINE
  5
26E
100
AcDbEntity
  8
図
  6
CONTINUOUS
 62
     6
100
AcDb2dPolyline
 66
     1
 10
0.0
 20
0.0
 30
0.0
 70
   128
  0
VERTEX
  5
26F
100
AcDbEntity
  8
図
  6
CONTINUOUS
 62
     6
100
AcDbVertex
100
AcDb2dVertex
 10
573.184271
 20
931.97089
 30
0.0
  0
VERTEX
  5
270
100
AcDbEntity
  8
図
  6
CONTINUOUS
 62
     6
100
AcDbVertex
100
AcDb2dVertex
 10
573.009949
 20
932.231726
 30
0.0
  0
VERTEX
  5
271
100
AcDbEntity
  8
図
  6
CONTINUOUS
 62
     6
100
AcDbVertex
100
AcDb2dVertex
 10
572.701949
 20
932.61764
 30
0.0
  0
VERTEX
  5
272
100
AcDbEntity
  8
図
  6
CONTINUOUS
 62
     6
100
AcDbVertex
100
AcDb2dVertex
 10
572.365825
 20
932.971266
 30
0.0
  0
VERTEX
  5
273
100
AcDbEntity
  8
図
  6
CONTINUOUS
 62
     6
100
AcDbVertex
100
AcDb2dVertex
 10
572.004139
 20
933.289912
 30
0.0
  0
VERTEX
  5
274
100
AcDbEntity
  8
図
  6
CONTINUOUS
 62
     6
100
AcDbVertex
100
AcDb2dVertex
 10
571.619639
 20
933.571152
 30
0.0
  0
VERTEX
  5
275
100
AcDbEntity
  8
図
  6
CONTINUOUS
 62
     6
100
AcDbVertex
100
AcDb2dVertex
 10
571.215253
 20
933.812846
 30
0.0
  0
VERTEX
  5
276
100
AcDbEntity
  8
図
  6
CONTINUOUS
 62
     6
100
AcDbVertex
100
AcDb2dVertex
 10
570.794059
 20
934.013156
 30
0.0
  0
VERTEX
  5
277
100
AcDbEntity
  8
図
  6
CONTINUOUS
 62
     6
100
AcDbVertex
100
AcDb2dVertex
 10
570.359263
 20
934.170556
 30
0.0
  0
VERTEX
  5
278
100
AcDbEntity
  8
図
  6
CONTINUOUS
 62
     6
100
AcDbVertex
100
AcDb2dVertex
 10
569.914173
 20
934.283846
 30
0.0
  0
VERTEX
  5
279
100
AcDbEntity
  8
図
  6
CONTINUOUS
 62
     6
100
AcDbVertex
100
AcDb2dVertex
 10
569.462175
 20
934.352168
 30
0.0
  0
VERTEX
  5
27A
100
AcDbEntity
  8
図
  6
CONTINUOUS
 62
     6
100
AcDbVertex
100
AcDb2dVertex
 10
569.006713
 20
934.375
 30
0.0
  0
VERTEX
  5
27B
100
AcDbEntity
  8
図
  6
CONTINUOUS
 62
     6
100
AcDbVertex
100
AcDb2dVertex
 10
568.551249
 20
934.352168
 30
0.0
  0
VERTEX
  5
27C
100
AcDbEntity
  8
図
  6
CONTINUOUS
 62
     6
100
AcDbVertex
100
AcDb2dVertex
 10
568.099253
 20
934.283846
 30
0.0
  0
VERTEX
  5
27D
100
AcDbEntity
  8
図
  6
CONTINUOUS
 62
     6
100
AcDbVertex
100
AcDb2dVertex
 10
567.654163
 20
934.170556
 30
0.0
  0
VERTEX
  5
27E
100
AcDbEntity
  8
図
  6
CONTINUOUS
 62
     6
100
AcDbVertex
100
AcDb2dVertex
 10
567.219365
 20
934.013156
 30
0.0
  0
VERTEX
  5
27F
100
AcDbEntity
  8
図
  6
CONTINUOUS
 62
     6
100
AcDbVertex
100
AcDb2dVertex
 10
566.798171
 20
933.812846
 30
0.0
  0
VERTEX
  5
280
100
AcDbEntity
  8
図
  6
CONTINUOUS
 62
     6
100
AcDbVertex
100
AcDb2dVertex
 10
566.393785
 20
933.571152
 30
0.0
  0
VERTEX
  5
281
100
AcDbEntity
  8
図
  6
CONTINUOUS
 62
     6
100
AcDbVertex
100
AcDb2dVertex
 10
566.009287
 20
933.289912
 30
0.0
  0
VERTEX
  5
282
100
AcDbEntity
  8
図
  6
CONTINUOUS
 62
     6
100
AcDbVertex
100
AcDb2dVertex
 10
565.647599
 20
932.971266
 30
0.0
  0
VERTEX
  5
283
100
AcDbEntity
  8
図
  6
CONTINUOUS
 62
     6
100
AcDbVertex
100
AcDb2dVertex
 10
565.311477
 20
932.61764
 30
0.0
  0
VERTEX
  5
284
100
AcDbEntity
  8
図
  6
CONTINUOUS
 62
     6
100
AcDbVertex
100
AcDb2dVertex
 10
565.003477
 20
932.231726
 30
0.0
  0
VERTEX
  5
285
100
AcDbEntity
  8
図
  6
CONTINUOUS
 62
     6
100
AcDbVertex
100
AcDb2dVertex
 10
564.725945
 20
931.816458
 30
0.0
  0
VERTEX
  5
286
100
AcDbEntity
  8
図
  6
CONTINUOUS
 62
     6
100
AcDbVertex
100
AcDb2dVertex
 10
564.480991
 20
931.375
 30
0.0
  0
VERTEX
  5
287
100
AcDbEntity
  8
図
  6
CONTINUOUS
 62
     6
100
AcDbVertex
100
AcDb2dVertex
 10
564.270481
 20
930.91071
 30
0.0
  0
VERTEX
  5
288
100
AcDbEntity
  8
図
  6
CONTINUOUS
 62
     6
100
AcDbVertex
100
AcDb2dVertex
 10
564.096017
 20
930.427122
 30
0.0
  0
VERTEX
  5
289
100
AcDbEntity
  8
図
  6
CONTINUOUS
 62
     6
100
AcDbVertex
100
AcDb2dVertex
 10
563.958927
 20
929.927914
 30
0.0
  0
VERTEX
  5
28A
100
AcDbEntity
  8
図
  6
CONTINUOUS
 62
     6
100
AcDbVertex
100
AcDb2dVertex
 10
563.860251
 20
929.41689
 30
0.0
  0
VERTEX
  5
28B
100
AcDbEntity
  8
図
  6
CONTINUOUS
 62
     6
100
AcDbVertex
100
AcDb2dVertex
 10
563.800745
 20
928.897934
 30
0.0
  0
VERTEX
  5
28C
100
AcDbEntity
  8
図
  6
CONTINUOUS
 62
     6
100
AcDbVertex
100
AcDb2dVertex
 10
563.780859
 20
928.375
 30
0.0
  0
VERTEX
  5
28D
100
AcDbEntity
  8
図
  6
CONTINUOUS
 62
     6
100
AcDbVertex
100
AcDb2dVertex
 10
563.800745
 20
927.852066
 30
0.0
  0
VERTEX
  5
28E
100
AcDbEntity
  8
図
  6
CONTINUOUS
 62
     6
100
AcDbVertex
100
AcDb2dVertex
 10
563.860251
 20
927.333112
 30
0.0
  0
VERTEX
  5
28F
100
AcDbEntity
  8
図
  6
CONTINUOUS
 62
     6
100
AcDbVertex
100
AcDb2dVertex
 10
563.958927
 20
926.822086
 30
0.0
  0
VERTEX
  5
290
100
AcDbEntity
  8
図
  6
CONTINUOUS
 62
     6
100
AcDbVertex
100
AcDb2dVertex
 10
564.096017
 20
926.32288
 30
0.0
  0
VERTEX
  5
291
100
AcDbEntity
  8
図
  6
CONTINUOUS
 62
     6
100
AcDbVertex
100
AcDb2dVertex
 10
564.270481
 20
925.83929
 30
0.0
  0
VERTEX
  5
292
100
AcDbEntity
  8
図
  6
CONTINUOUS
 62
     6
100
AcDbVertex
100
AcDb2dVertex
 10
564.480991
 20
925.375
 30
0.0
  0
VERTEX
  5
293
100
AcDbEntity
  8
図
  6
CONTINUOUS
 62
     6
100
AcDbVertex
100
AcDb2dVertex
 10
564.725945
 20
924.933542
 30
0.0
  0
VERTEX
  5
294
100
AcDbEntity
  8
図
  6
CONTINUOUS
 62
     6
100
AcDbVertex
100
AcDb2dVertex
 10
565.003477
 20
924.518274
 30
0.0
  0
VERTEX
  5
295
100
AcDbEntity
  8
図
  6
CONTINUOUS
 62
     6
100
AcDbVertex
100
AcDb2dVertex
 10
565.311477
 20
924.13236
 30
0.0
  0
VERTEX
  5
296
100
AcDbEntity
  8
図
  6
CONTINUOUS
 62
     6
100
AcDbVertex
100
AcDb2dVertex
 10
565.647599
 20
923.778734
 30
0.0
  0
VERTEX
  5
297
100
AcDbEntity
  8
図
  6
CONTINUOUS
 62
     6
100
AcDbVertex
100
AcDb2dVertex
 10
566.009287
 20
923.460088
 30
0.0
  0
VERTEX
  5
298
100
AcDbEntity
  8
図
  6
CONTINUOUS
 62
     6
100
AcDbVertex
100
AcDb2dVertex
 10
566.393785
 20
923.178848
 30
0.0
  0
VERTEX
  5
299
100
AcDbEntity
  8
図
  6
CONTINUOUS
 62
     6
100
AcDbVertex
100
AcDb2dVertex
 10
566.798171
 20
922.937154
 30
0.0
  0
VERTEX
  5
29A
100
AcDbEntity
  8
図
  6
CONTINUOUS
 62
     6
100
AcDbVertex
100
AcDb2dVertex
 10
567.219365
 20
922.736844
 30
0.0
  0
VERTEX
  5
29B
100
AcDbEntity
  8
図
  6
CONTINUOUS
 62
     6
100
AcDbVertex
100
AcDb2dVertex
 10
567.654163
 20
922.579446
 30
0.0
  0
VERTEX
  5
29C
100
AcDbEntity
  8
図
  6
CONTINUOUS
 62
     6
100
AcDbVertex
100
AcDb2dVertex
 10
568.099253
 20
922.466154
 30
0.0
  0
VERTEX
  5
29D
100
AcDbEntity
  8
図
  6
CONTINUOUS
 62
     6
100
AcDbVertex
100
AcDb2dVertex
 10
568.551249
 20
922.397832
 30
0.0
  0
VERTEX
  5
29E
100
AcDbEntity
  8
図
  6
CONTINUOUS
 62
     6
100
AcDbVertex
100
AcDb2dVertex
 10
569.006713
 20
922.375
 30
0.0
  0
SEQEND
  5
29F
100
AcDbEntity
  8
図
  6
CONTINUOUS
 62
     6
  0
POLYLINE
  5
2A0
100
AcDbEntity
  8
図
  6
CONTINUOUS
 62
     6
100
AcDb2dPolyline
 66
     1
 10
0.0
 20
0.0
 30
0.0
 70
   128
  0
VERTEX
  5
2A1
100
AcDbEntity
  8
図
  6
CONTINUOUS
 62
     6
100
AcDbVertex
100
AcDb2dVertex
 10
569.006713
 20
922.375
 30
0.0
  0
VERTEX
  5
2A2
100
AcDbEntity
  8
図
  6
CONTINUOUS
 62
     6
100
AcDbVertex
100
AcDb2dVertex
 10
569.462175
 20
922.397832
 30
0.0
  0
VERTEX
  5
2A3
100
AcDbEntity
  8
図
  6
CONTINUOUS
 62
     6
100
AcDbVertex
100
AcDb2dVertex
 10
569.914173
 20
922.466154
 30
0.0
  0
VERTEX
  5
2A4
100
AcDbEntity
  8
図
  6
CONTINUOUS
 62
     6
100
AcDbVertex
100
AcDb2dVertex
 10
570.359263
 20
922.579446
 30
0.0
  0
VERTEX
  5
2A5
100
AcDbEntity
  8
図
  6
CONTINUOUS
 62
     6
100
AcDbVertex
100
AcDb2dVertex
 10
570.794059
 20
922.736844
 30
0.0
  0
VERTEX
  5
2A6
100
AcDbEntity
  8
図
  6
CONTINUOUS
 62
     6
100
AcDbVertex
100
AcDb2dVertex
 10
571.215253
 20
922.937154
 30
0.0
  0
VERTEX
  5
2A7
100
AcDbEntity
  8
図
  6
CONTINUOUS
 62
     6
100
AcDbVertex
100
AcDb2dVertex
 10
571.619639
 20
923.178848
 30
0.0
  0
VERTEX
  5
2A8
100
AcDbEntity
  8
図
  6
CONTINUOUS
 62
     6
100
AcDbVertex
100
AcDb2dVertex
 10
572.004139
 20
923.460088
 30
0.0
  0
VERTEX
  5
2A9
100
AcDbEntity
  8
図
  6
CONTINUOUS
 62
     6
100
AcDbVertex
100
AcDb2dVertex
 10
572.365825
 20
923.778734
 30
0.0
  0
VERTEX
  5
2AA
100
AcDbEntity
  8
図
  6
CONTINUOUS
 62
     6
100
AcDbVertex
100
AcDb2dVertex
 10
572.701949
 20
924.13236
 30
0.0
  0
VERTEX
  5
2AB
100
AcDbEntity
  8
図
  6
CONTINUOUS
 62
     6
100
AcDbVertex
100
AcDb2dVertex
 10
573.009949
 20
924.518274
 30
0.0
  0
VERTEX
  5
2AC
100
AcDbEntity
  8
図
  6
CONTINUOUS
 62
     6
100
AcDbVertex
100
AcDb2dVertex
 10
573.184271
 20
924.77911
 30
0.0
  0
SEQEND
  5
2AD
100
AcDbEntity
  8
図
  6
CONTINUOUS
 62
     6
  0
POLYLINE
  5
2AE
100
AcDbEntity
  8
図
  6
CONTINUOUS
 62
     6
100
AcDb2dPolyline
 66
     1
 10
0.0
 20
0.0
 30
0.0
 70
   128
  0
VERTEX
  5
2AF
100
AcDbEntity
  8
図
  6
CONTINUOUS
 62
     6
100
AcDbVertex
100
AcDb2dVertex
 10
605.184271
 20
924.779113
 30
0.0
  0
VERTEX
  5
2B0
100
AcDbEntity
  8
図
  6
CONTINUOUS
 62
     6
100
AcDbVertex
100
AcDb2dVertex
 10
605.358595
 20
924.518274
 30
0.0
  0
VERTEX
  5
2B1
100
AcDbEntity
  8
図
  6
CONTINUOUS
 62
     6
100
AcDbVertex
100
AcDb2dVertex
 10
605.666595
 20
924.13236
 30
0.0
  0
VERTEX
  5
2B2
100
AcDbEntity
  8
図
  6
CONTINUOUS
 62
     6
100
AcDbVertex
100
AcDb2dVertex
 10
606.002717
 20
923.778734
 30
0.0
  0
VERTEX
  5
2B3
100
AcDbEntity
  8
図
  6
CONTINUOUS
 62
     6
100
AcDbVertex
100
AcDb2dVertex
 10
606.364405
 20
923.460088
 30
0.0
  0
VERTEX
  5
2B4
100
AcDbEntity
  8
図
  6
CONTINUOUS
 62
     6
100
AcDbVertex
100
AcDb2dVertex
 10
606.748903
 20
923.178848
 30
0.0
  0
VERTEX
  5
2B5
100
AcDbEntity
  8
図
  6
CONTINUOUS
 62
     6
100
AcDbVertex
100
AcDb2dVertex
 10
607.153289
 20
922.937154
 30
0.0
  0
VERTEX
  5
2B6
100
AcDbEntity
  8
図
  6
CONTINUOUS
 62
     6
100
AcDbVertex
100
AcDb2dVertex
 10
607.574483
 20
922.736844
 30
0.0
  0
VERTEX
  5
2B7
100
AcDbEntity
  8
図
  6
CONTINUOUS
 62
     6
100
AcDbVertex
100
AcDb2dVertex
 10
608.009279
 20
922.579446
 30
0.0
  0
VERTEX
  5
2B8
100
AcDbEntity
  8
図
  6
CONTINUOUS
 62
     6
100
AcDbVertex
100
AcDb2dVertex
 10
608.454371
 20
922.466154
 30
0.0
  0
VERTEX
  5
2B9
100
AcDbEntity
  8
図
  6
CONTINUOUS
 62
     6
100
AcDbVertex
100
AcDb2dVertex
 10
608.906367
 20
922.397832
 30
0.0
  0
VERTEX
  5
2BA
100
AcDbEntity
  8
図
  6
CONTINUOUS
 62
     6
100
AcDbVertex
100
AcDb2dVertex
 10
609.361831
 20
922.375
 30
0.0
  0
SEQEND
  5
2BB
100
AcDbEntity
  8
図
  6
CONTINUOUS
 62
     6
  0
POLYLINE
  5
2BC
100
AcDbEntity
  8
図
  6
CONTINUOUS
 62
     6
100
AcDb2dPolyline
 66
     1
 10
0.0
 20
0.0
 30
0.0
 70
   128
  0
VERTEX
  5
2BD
100
AcDbEntity
  8
図
  6
CONTINUOUS
 62
     6
100
AcDbVertex
100
AcDb2dVertex
 10
609.361831
 20
922.375
 30
0.0
  0
VERTEX
  5
2BE
100
AcDbEntity
  8
図
  6
CONTINUOUS
 62
     6
100
AcDbVertex
100
AcDb2dVertex
 10
609.817293
 20
922.397832
 30
0.0
  0
VERTEX
  5
2BF
100
AcDbEntity
  8
図
  6
CONTINUOUS
 62
     6
100
AcDbVertex
100
AcDb2dVertex
 10
610.269291
 20
922.466154
 30
0.0
  0
VERTEX
  5
2C0
100
AcDbEntity
  8
図
  6
CONTINUOUS
 62
     6
100
AcDbVertex
100
AcDb2dVertex
 10
610.714381
 20
922.579446
 30
0.0
  0
VERTEX
  5
2C1
100
AcDbEntity
  8
図
  6
CONTINUOUS
 62
     6
100
AcDbVertex
100
AcDb2dVertex
 10
611.149177
 20
922.736844
 30
0.0
  0
VERTEX
  5
2C2
100
AcDbEntity
  8
図
  6
CONTINUOUS
 62
     6
100
AcDbVertex
100
AcDb2dVertex
 10
611.570371
 20
922.937154
 30
0.0
  0
VERTEX
  5
2C3
100
AcDbEntity
  8
図
  6
CONTINUOUS
 62
     6
100
AcDbVertex
100
AcDb2dVertex
 10
611.974757
 20
923.178848
 30
0.0
  0
VERTEX
  5
2C4
100
AcDbEntity
  8
図
  6
CONTINUOUS
 62
     6
100
AcDbVertex
100
AcDb2dVertex
 10
612.359257
 20
923.460088
 30
0.0
  0
VERTEX
  5
2C5
100
AcDbEntity
  8
図
  6
CONTINUOUS
 62
     6
100
AcDbVertex
100
AcDb2dVertex
 10
612.720943
 20
923.778734
 30
0.0
  0
VERTEX
  5
2C6
100
AcDbEntity
  8
図
  6
CONTINUOUS
 62
     6
100
AcDbVertex
100
AcDb2dVertex
 10
613.057067
 20
924.13236
 30
0.0
  0
VERTEX
  5
2C7
100
AcDbEntity
  8
図
  6
CONTINUOUS
 62
     6
100
AcDbVertex
100
AcDb2dVertex
 10
613.365065
 20
924.518274
 30
0.0
  0
VERTEX
  5
2C8
100
AcDbEntity
  8
図
  6
CONTINUOUS
 62
     6
100
AcDbVertex
100
AcDb2dVertex
 10
613.642599
 20
924.933542
 30
0.0
  0
VERTEX
  5
2C9
100
AcDbEntity
  8
図
  6
CONTINUOUS
 62
     6
100
AcDbVertex
100
AcDb2dVertex
 10
613.887551
 20
925.375
 30
0.0
  0
VERTEX
  5
2CA
100
AcDbEntity
  8
図
  6
CONTINUOUS
 62
     6
100
AcDbVertex
100
AcDb2dVertex
 10
614.098061
 20
925.83929
 30
0.0
  0
VERTEX
  5
2CB
100
AcDbEntity
  8
図
  6
CONTINUOUS
 62
     6
100
AcDbVertex
100
AcDb2dVertex
 10
614.272525
 20
926.32288
 30
0.0
  0
VERTEX
  5
2CC
100
AcDbEntity
  8
図
  6
CONTINUOUS
 62
     6
100
AcDbVertex
100
AcDb2dVertex
 10
614.409617
 20
926.822086
 30
0.0
  0
VERTEX
  5
2CD
100
AcDbEntity
  8
図
  6
CONTINUOUS
 62
     6
100
AcDbVertex
100
AcDb2dVertex
 10
614.508291
 20
927.333112
 30
0.0
  0
VERTEX
  5
2CE
100
AcDbEntity
  8
図
  6
CONTINUOUS
 62
     6
100
AcDbVertex
100
AcDb2dVertex
 10
614.567797
 20
927.852066
 30
0.0
  0
VERTEX
  5
2CF
100
AcDbEntity
  8
図
  6
CONTINUOUS
 62
     6
100
AcDbVertex
100
AcDb2dVertex
 10
614.587683
 20
928.375
 30
0.0
  0
VERTEX
  5
2D0
100
AcDbEntity
  8
図
  6
CONTINUOUS
 62
     6
100
AcDbVertex
100
AcDb2dVertex
 10
614.567797
 20
928.897934
 30
0.0
  0
VERTEX
  5
2D1
100
AcDbEntity
  8
図
  6
CONTINUOUS
 62
     6
100
AcDbVertex
100
AcDb2dVertex
 10
614.508291
 20
929.41689
 30
0.0
  0
VERTEX
  5
2D2
100
AcDbEntity
  8
図
  6
CONTINUOUS
 62
     6
100
AcDbVertex
100
AcDb2dVertex
 10
614.409617
 20
929.927914
 30
0.0
  0
VERTEX
  5
2D3
100
AcDbEntity
  8
図
  6
CONTINUOUS
 62
     6
100
AcDbVertex
100
AcDb2dVertex
 10
614.272525
 20
930.427122
 30
0.0
  0
VERTEX
  5
2D4
100
AcDbEntity
  8
図
  6
CONTINUOUS
 62
     6
100
AcDbVertex
100
AcDb2dVertex
 10
614.098061
 20
930.91071
 30
0.0
  0
VERTEX
  5
2D5
100
AcDbEntity
  8
図
  6
CONTINUOUS
 62
     6
100
AcDbVertex
100
AcDb2dVertex
 10
613.887551
 20
931.375
 30
0.0
  0
VERTEX
  5
2D6
100
AcDbEntity
  8
図
  6
CONTINUOUS
 62
     6
100
AcDbVertex
100
AcDb2dVertex
 10
613.642599
 20
931.816458
 30
0.0
  0
VERTEX
  5
2D7
100
AcDbEntity
  8
図
  6
CONTINUOUS
 62
     6
100
AcDbVertex
100
AcDb2dVertex
 10
613.365065
 20
932.231726
 30
0.0
  0
VERTEX
  5
2D8
100
AcDbEntity
  8
図
  6
CONTINUOUS
 62
     6
100
AcDbVertex
100
AcDb2dVertex
 10
613.057067
 20
932.61764
 30
0.0
  0
VERTEX
  5
2D9
100
AcDbEntity
  8
図
  6
CONTINUOUS
 62
     6
100
AcDbVertex
100
AcDb2dVertex
 10
612.720943
 20
932.971266
 30
0.0
  0
VERTEX
  5
2DA
100
AcDbEntity
  8
図
  6
CONTINUOUS
 62
     6
100
AcDbVertex
100
AcDb2dVertex
 10
612.359257
 20
933.289912
 30
0.0
  0
VERTEX
  5
2DB
100
AcDbEntity
  8
図
  6
CONTINUOUS
 62
     6
100
AcDbVertex
100
AcDb2dVertex
 10
611.974757
 20
933.571152
 30
0.0
  0
VERTEX
  5
2DC
100
AcDbEntity
  8
図
  6
CONTINUOUS
 62
     6
100
AcDbVertex
100
AcDb2dVertex
 10
611.570371
 20
933.812846
 30
0.0
  0
VERTEX
  5
2DD
100
AcDbEntity
  8
図
  6
CONTINUOUS
 62
     6
100
AcDbVertex
100
AcDb2dVertex
 10
611.149177
 20
934.013156
 30
0.0
  0
VERTEX
  5
2DE
100
AcDbEntity
  8
図
  6
CONTINUOUS
 62
     6
100
AcDbVertex
100
AcDb2dVertex
 10
610.714381
 20
934.170556
 30
0.0
  0
VERTEX
  5
2DF
100
AcDbEntity
  8
図
  6
CONTINUOUS
 62
     6
100
AcDbVertex
100
AcDb2dVertex
 10
610.269291
 20
934.283846
 30
0.0
  0
VERTEX
  5
2E0
100
AcDbEntity
  8
図
  6
CONTINUOUS
 62
     6
100
AcDbVertex
100
AcDb2dVertex
 10
609.817293
 20
934.352168
 30
0.0
  0
VERTEX
  5
2E1
100
AcDbEntity
  8
図
  6
CONTINUOUS
 62
     6
100
AcDbVertex
100
AcDb2dVertex
 10
609.361831
 20
934.375
 30
0.0
  0
VERTEX
  5
2E2
100
AcDbEntity
  8
図
  6
CONTINUOUS
 62
     6
100
AcDbVertex
100
AcDb2dVertex
 10
608.906367
 20
934.352168
 30
0.0
  0
VERTEX
  5
2E3
100
AcDbEntity
  8
図
  6
CONTINUOUS
 62
     6
100
AcDbVertex
100
AcDb2dVertex
 10
608.454371
 20
934.283846
 30
0.0
  0
VERTEX
  5
2E4
100
AcDbEntity
  8
図
  6
CONTINUOUS
 62
     6
100
AcDbVertex
100
AcDb2dVertex
 10
608.009279
 20
934.170556
 30
0.0
  0
VERTEX
  5
2E5
100
AcDbEntity
  8
図
  6
CONTINUOUS
 62
     6
100
AcDbVertex
100
AcDb2dVertex
 10
607.574483
 20
934.013156
 30
0.0
  0
VERTEX
  5
2E6
100
AcDbEntity
  8
図
  6
CONTINUOUS
 62
     6
100
AcDbVertex
100
AcDb2dVertex
 10
607.153289
 20
933.812846
 30
0.0
  0
VERTEX
  5
2E7
100
AcDbEntity
  8
図
  6
CONTINUOUS
 62
     6
100
AcDbVertex
100
AcDb2dVertex
 10
606.748903
 20
933.571152
 30
0.0
  0
VERTEX
  5
2E8
100
AcDbEntity
  8
図
  6
CONTINUOUS
 62
     6
100
AcDbVertex
100
AcDb2dVertex
 10
606.364405
 20
933.289912
 30
0.0
  0
VERTEX
  5
2E9
100
AcDbEntity
  8
図
  6
CONTINUOUS
 62
     6
100
AcDbVertex
100
AcDb2dVertex
 10
606.002717
 20
932.971266
 30
0.0
  0
VERTEX
  5
2EA
100
AcDbEntity
  8
図
  6
CONTINUOUS
 62
     6
100
AcDbVertex
100
AcDb2dVertex
 10
605.666595
 20
932.61764
 30
0.0
  0
VERTEX
  5
2EB
100
AcDbEntity
  8
図
  6
CONTINUOUS
 62
     6
100
AcDbVertex
100
AcDb2dVertex
 10
605.358595
 20
932.231726
 30
0.0
  0
VERTEX
  5
2EC
100
AcDbEntity
  8
図
  6
CONTINUOUS
 62
     6
100
AcDbVertex
100
AcDb2dVertex
 10
605.184271
 20
931.970887
 30
0.0
  0
SEQEND
  5
2ED
100
AcDbEntity
  8
図
  6
CONTINUOUS
 62
     6
  0
LINE
  5
2EE
100
AcDbEntity
  8
図
  6
CONTINUOUS
 62
     2
100
AcDbLine
 10
605.184271
 20
934.375
 30
0.0
 11
612.587683
 21
934.375
 31
0.0
  0
LINE
  5
2EF
100
AcDbEntity
  8
図
  6
CONTINUOUS
 62
     2
100
AcDbLine
 10
565.780859
 20
934.375
 30
0.0
 11
573.184271
 21
934.375
 31
0.0
  0
LINE
  5
2F0
100
AcDbEntity
  8
図
  6
CONTINUOUS
 62
     2
100
AcDbLine
 10
565.780859
 20
922.375
 30
0.0
 11
573.184271
 21
922.375
 31
0.0
  0
LINE
  5
2F1
100
AcDbEntity
  8
図
  6
CONTINUOUS
 62
     2
100
AcDbLine
 10
573.184271
 20
920.391
 30
0.0
 11
569.184271
 21
920.391
 31
0.0
  0
LINE
  5
2F2
100
AcDbEntity
  8
図
  6
CONTINUOUS
 62
     2
100
AcDbLine
 10
609.184271
 20
920.391
 30
0.0
 11
605.184271
 21
920.391
 31
0.0
  0
LINE
  5
2F3
100
AcDbEntity
  8
図
  6
CONTINUOUS
 62
     2
100
AcDbLine
 10
605.184271
 20
922.375
 30
0.0
 11
612.587683
 21
922.375
 31
0.0
  0
LINE
  5
2F4
100
AcDbEntity
  8
図
  6
CONTINUOUS
 62
     2
100
AcDbLine
 10
605.184271
 20
955.0
 30
0.0
 11
605.184271
 21
880.0
 31
0.0
  0
LINE
  5
2F5
100
AcDbEntity
  8
図
  6
EXLTYPE4
 62
     6
100
AcDbLine
 10
556.184271
 20
505.99701
 30
0.0
 11
556.184271
 21
497.0
 31
0.0
  0
ARC
  5
2F6
100
AcDbEntity
  8
図
  6
EXLTYPE4
 62
     6
100
AcDbCircle
 10
567.187263
 20
505.99701
 30
0.0
 40
11.002992
100
AcDbArc
 50
90.0
 51
180.0
  0
LINE
  5
2F7
100
AcDbEntity
  8
図
  6
EXLTYPE4
 62
     6
100
AcDbLine
 10
611.181279
 20
517.0
 30
0.0
 11
567.187263
 21
517.0
 31
0.0
  0
ARC
  5
2F8
100
AcDbEntity
  8
図
  6
EXLTYPE4
 62
     6
100
AcDbCircle
 10
611.181279
 20
505.99701
 30
0.0
 40
11.002992
100
AcDbArc
 50
0.0
 51
90.0
  0
LINE
  5
2F9
100
AcDbEntity
  8
図
  6
EXLTYPE4
 62
     6
100
AcDbLine
 10
622.184271
 20
505.99701
 30
0.0
 11
622.184271
 21
497.0
 31
0.0
  0
LINE
  5
2FA
100
AcDbEntity
  8
図
  6
EXLTYPE4
 62
     6
100
AcDbLine
 10
605.059271
 20
497.0
 30
0.0
 11
605.059271
 21
467.0
 31
0.0
  0
LINE
  5
2FB
100
AcDbEntity
  8
図
  6
EXLTYPE4
 62
     6
100
AcDbLine
 10
605.059271
 20
467.0
 30
0.0
 11
573.309271
 21
467.0
 31
0.0
  0
LINE
  5
2FC
100
AcDbEntity
  8
図
  6
EXLTYPE4
 62
     6
100
AcDbLine
 10
573.309271
 20
497.0
 30
0.0
 11
573.309271
 21
467.0
 31
0.0
  0
LINE
  5
2FD
100
AcDbEntity
  8
図
  6
EXLTYPE4
 62
     6
100
AcDbLine
 10
573.309271
 20
878.00391
 30
0.0
 11
573.309271
 21
517.0
 31
0.0
  0
LINE
  5
2FE
100
AcDbEntity
  8
図
  6
EXLTYPE4
 62
     6
100
AcDbLine
 10
605.059271
 20
878.00391
 30
0.0
 11
605.059271
 21
517.0
 31
0.0
  0
ARC
  5
2FF
100
AcDbEntity
  8
図
  6
CONTINUOUS
 62
     6
100
AcDbCircle
 10
651.235298
 20
928.375
 30
0.0
 40
10.0
100
AcDbArc
 50
323.130102
 51
36.869898
  0
POLYLINE
  5
300
100
AcDbEntity
  8
図
  6
CONTINUOUS
 62
     6
100
AcDb2dPolyline
 66
     1
 10
0.0
 20
0.0
 30
0.0
 70
   128
  0
VERTEX
  5
301
100
AcDbEntity
  8
図
  6
CONTINUOUS
 62
     6
100
AcDbVertex
100
AcDb2dVertex
 10
656.009446
 20
922.375
 30
0.0
  0
VERTEX
  5
302
100
AcDbEntity
  8
図
  6
CONTINUOUS
 62
     6
100
AcDbVertex
100
AcDb2dVertex
 10
656.464908
 20
922.397832
 30
0.0
  0
VERTEX
  5
303
100
AcDbEntity
  8
図
  6
CONTINUOUS
 62
     6
100
AcDbVertex
100
AcDb2dVertex
 10
656.916906
 20
922.466154
 30
0.0
  0
VERTEX
  5
304
100
AcDbEntity
  8
図
  6
CONTINUOUS
 62
     6
100
AcDbVertex
100
AcDb2dVertex
 10
657.361996
 20
922.579446
 30
0.0
  0
VERTEX
  5
305
100
AcDbEntity
  8
図
  6
CONTINUOUS
 62
     6
100
AcDbVertex
100
AcDb2dVertex
 10
657.796792
 20
922.736844
 30
0.0
  0
VERTEX
  5
306
100
AcDbEntity
  8
図
  6
CONTINUOUS
 62
     6
100
AcDbVertex
100
AcDb2dVertex
 10
658.217986
 20
922.937154
 30
0.0
  0
VERTEX
  5
307
100
AcDbEntity
  8
図
  6
CONTINUOUS
 62
     6
100
AcDbVertex
100
AcDb2dVertex
 10
658.622372
 20
923.178848
 30
0.0
  0
VERTEX
  5
308
100
AcDbEntity
  8
図
  6
CONTINUOUS
 62
     6
100
AcDbVertex
100
AcDb2dVertex
 10
659.006872
 20
923.460088
 30
0.0
  0
VERTEX
  5
309
100
AcDbEntity
  8
図
  6
CONTINUOUS
 62
     6
100
AcDbVertex
100
AcDb2dVertex
 10
659.368558
 20
923.778734
 30
0.0
  0
VERTEX
  5
30A
100
AcDbEntity
  8
図
  6
CONTINUOUS
 62
     6
100
AcDbVertex
100
AcDb2dVertex
 10
659.704682
 20
924.13236
 30
0.0
  0
VERTEX
  5
30B
100
AcDbEntity
  8
図
  6
CONTINUOUS
 62
     6
100
AcDbVertex
100
AcDb2dVertex
 10
660.01268
 20
924.518274
 30
0.0
  0
VERTEX
  5
30C
100
AcDbEntity
  8
図
  6
CONTINUOUS
 62
     6
100
AcDbVertex
100
AcDb2dVertex
 10
660.290214
 20
924.933542
 30
0.0
  0
VERTEX
  5
30D
100
AcDbEntity
  8
図
  6
CONTINUOUS
 62
     6
100
AcDbVertex
100
AcDb2dVertex
 10
660.535166
 20
925.375
 30
0.0
  0
VERTEX
  5
30E
100
AcDbEntity
  8
図
  6
CONTINUOUS
 62
     6
100
AcDbVertex
100
AcDb2dVertex
 10
660.745676
 20
925.83929
 30
0.0
  0
VERTEX
  5
30F
100
AcDbEntity
  8
図
  6
CONTINUOUS
 62
     6
100
AcDbVertex
100
AcDb2dVertex
 10
660.92014
 20
926.32288
 30
0.0
  0
VERTEX
  5
310
100
AcDbEntity
  8
図
  6
CONTINUOUS
 62
     6
100
AcDbVertex
100
AcDb2dVertex
 10
661.057232
 20
926.822086
 30
0.0
  0
VERTEX
  5
311
100
AcDbEntity
  8
図
  6
CONTINUOUS
 62
     6
100
AcDbVertex
100
AcDb2dVertex
 10
661.155906
 20
927.333112
 30
0.0
  0
VERTEX
  5
312
100
AcDbEntity
  8
図
  6
CONTINUOUS
 62
     6
100
AcDbVertex
100
AcDb2dVertex
 10
661.215412
 20
927.852066
 30
0.0
  0
VERTEX
  5
313
100
AcDbEntity
  8
図
  6
CONTINUOUS
 62
     6
100
AcDbVertex
100
AcDb2dVertex
 10
661.235298
 20
928.375
 30
0.0
  0
VERTEX
  5
314
100
AcDbEntity
  8
図
  6
CONTINUOUS
 62
     6
100
AcDbVertex
100
AcDb2dVertex
 10
661.215412
 20
928.897934
 30
0.0
  0
VERTEX
  5
315
100
AcDbEntity
  8
図
  6
CONTINUOUS
 62
     6
100
AcDbVertex
100
AcDb2dVertex
 10
661.155906
 20
929.41689
 30
0.0
  0
VERTEX
  5
316
100
AcDbEntity
  8
図
  6
CONTINUOUS
 62
     6
100
AcDbVertex
100
AcDb2dVertex
 10
661.057232
 20
929.927914
 30
0.0
  0
VERTEX
  5
317
100
AcDbEntity
  8
図
  6
CONTINUOUS
 62
     6
100
AcDbVertex
100
AcDb2dVertex
 10
660.92014
 20
930.427122
 30
0.0
  0
VERTEX
  5
318
100
AcDbEntity
  8
図
  6
CONTINUOUS
 62
     6
100
AcDbVertex
100
AcDb2dVertex
 10
660.745676
 20
930.91071
 30
0.0
  0
VERTEX
  5
319
100
AcDbEntity
  8
図
  6
CONTINUOUS
 62
     6
100
AcDbVertex
100
AcDb2dVertex
 10
660.535166
 20
931.375
 30
0.0
  0
VERTEX
  5
31A
100
AcDbEntity
  8
図
  6
CONTINUOUS
 62
     6
100
AcDbVertex
100
AcDb2dVertex
 10
660.290214
 20
931.816458
 30
0.0
  0
VERTEX
  5
31B
100
AcDbEntity
  8
図
  6
CONTINUOUS
 62
     6
100
AcDbVertex
100
AcDb2dVertex
 10
660.01268
 20
932.231726
 30
0.0
  0
VERTEX
  5
31C
100
AcDbEntity
  8
図
  6
CONTINUOUS
 62
     6
100
AcDbVertex
100
AcDb2dVertex
 10
659.704682
 20
932.61764
 30
0.0
  0
VERTEX
  5
31D
100
AcDbEntity
  8
図
  6
CONTINUOUS
 62
     6
100
AcDbVertex
100
AcDb2dVertex
 10
659.368558
 20
932.971266
 30
0.0
  0
VERTEX
  5
31E
100
AcDbEntity
  8
図
  6
CONTINUOUS
 62
     6
100
AcDbVertex
100
AcDb2dVertex
 10
659.006872
 20
933.289912
 30
0.0
  0
VERTEX
  5
31F
100
AcDbEntity
  8
図
  6
CONTINUOUS
 62
     6
100
AcDbVertex
100
AcDb2dVertex
 10
658.622372
 20
933.571152
 30
0.0
  0
VERTEX
  5
320
100
AcDbEntity
  8
図
  6
CONTINUOUS
 62
     6
100
AcDbVertex
100
AcDb2dVertex
 10
658.217986
 20
933.812846
 30
0.0
  0
VERTEX
  5
321
100
AcDbEntity
  8
図
  6
CONTINUOUS
 62
     6
100
AcDbVertex
100
AcDb2dVertex
 10
657.796792
 20
934.013156
 30
0.0
  0
VERTEX
  5
322
100
AcDbEntity
  8
図
  6
CONTINUOUS
 62
     6
100
AcDbVertex
100
AcDb2dVertex
 10
657.361996
 20
934.170556
 30
0.0
  0
VERTEX
  5
323
100
AcDbEntity
  8
図
  6
CONTINUOUS
 62
     6
100
AcDbVertex
100
AcDb2dVertex
 10
656.916906
 20
934.283846
 30
0.0
  0
VERTEX
  5
324
100
AcDbEntity
  8
図
  6
CONTINUOUS
 62
     6
100
AcDbVertex
100
AcDb2dVertex
 10
656.464908
 20
934.352168
 30
0.0
  0
VERTEX
  5
325
100
AcDbEntity
  8
図
  6
CONTINUOUS
 62
     6
100
AcDbVertex
100
AcDb2dVertex
 10
656.009446
 20
934.375
 30
0.0
  0
VERTEX
  5
326
100
AcDbEntity
  8
図
  6
CONTINUOUS
 62
     6
100
AcDbVertex
100
AcDb2dVertex
 10
655.553982
 20
934.352168
 30
0.0
  0
VERTEX
  5
327
100
AcDbEntity
  8
図
  6
CONTINUOUS
 62
     6
100
AcDbVertex
100
AcDb2dVertex
 10
655.101986
 20
934.283846
 30
0.0
  0
VERTEX
  5
328
100
AcDbEntity
  8
図
  6
CONTINUOUS
 62
     6
100
AcDbVertex
100
AcDb2dVertex
 10
654.656894
 20
934.170556
 30
0.0
  0
VERTEX
  5
329
100
AcDbEntity
  8
図
  6
CONTINUOUS
 62
     6
100
AcDbVertex
100
AcDb2dVertex
 10
654.222098
 20
934.013156
 30
0.0
  0
VERTEX
  5
32A
100
AcDbEntity
  8
図
  6
CONTINUOUS
 62
     6
100
AcDbVertex
100
AcDb2dVertex
 10
653.800904
 20
933.812846
 30
0.0
  0
VERTEX
  5
32B
100
AcDbEntity
  8
図
  6
CONTINUOUS
 62
     6
100
AcDbVertex
100
AcDb2dVertex
 10
653.396518
 20
933.571152
 30
0.0
  0
VERTEX
  5
32C
100
AcDbEntity
  8
図
  6
CONTINUOUS
 62
     6
100
AcDbVertex
100
AcDb2dVertex
 10
653.01202
 20
933.289912
 30
0.0
  0
VERTEX
  5
32D
100
AcDbEntity
  8
図
  6
CONTINUOUS
 62
     6
100
AcDbVertex
100
AcDb2dVertex
 10
652.650332
 20
932.971266
 30
0.0
  0
VERTEX
  5
32E
100
AcDbEntity
  8
図
  6
CONTINUOUS
 62
     6
100
AcDbVertex
100
AcDb2dVertex
 10
652.31421
 20
932.61764
 30
0.0
  0
VERTEX
  5
32F
100
AcDbEntity
  8
図
  6
CONTINUOUS
 62
     6
100
AcDbVertex
100
AcDb2dVertex
 10
652.00621
 20
932.231726
 30
0.0
  0
VERTEX
  5
330
100
AcDbEntity
  8
図
  6
CONTINUOUS
 62
     6
100
AcDbVertex
100
AcDb2dVertex
 10
651.728678
 20
931.816458
 30
0.0
  0
VERTEX
  5
331
100
AcDbEntity
  8
図
  6
CONTINUOUS
 62
     6
100
AcDbVertex
100
AcDb2dVertex
 10
651.483724
 20
931.375
 30
0.0
  0
VERTEX
  5
332
100
AcDbEntity
  8
図
  6
CONTINUOUS
 62
     6
100
AcDbVertex
100
AcDb2dVertex
 10
651.273214
 20
930.91071
 30
0.0
  0
VERTEX
  5
333
100
AcDbEntity
  8
図
  6
CONTINUOUS
 62
     6
100
AcDbVertex
100
AcDb2dVertex
 10
651.09875
 20
930.427122
 30
0.0
  0
VERTEX
  5
334
100
AcDbEntity
  8
図
  6
CONTINUOUS
 62
     6
100
AcDbVertex
100
AcDb2dVertex
 10
650.961658
 20
929.927914
 30
0.0
  0
VERTEX
  5
335
100
AcDbEntity
  8
図
  6
CONTINUOUS
 62
     6
100
AcDbVertex
100
AcDb2dVertex
 10
650.862984
 20
929.41689
 30
0.0
  0
VERTEX
  5
336
100
AcDbEntity
  8
図
  6
CONTINUOUS
 62
     6
100
AcDbVertex
100
AcDb2dVertex
 10
650.803478
 20
928.897934
 30
0.0
  0
VERTEX
  5
337
100
AcDbEntity
  8
図
  6
CONTINUOUS
 62
     6
100
AcDbVertex
100
AcDb2dVertex
 10
650.783592
 20
928.375
 30
0.0
  0
VERTEX
  5
338
100
AcDbEntity
  8
図
  6
CONTINUOUS
 62
     6
100
AcDbVertex
100
AcDb2dVertex
 10
650.803478
 20
927.852066
 30
0.0
  0
VERTEX
  5
339
100
AcDbEntity
  8
図
  6
CONTINUOUS
 62
     6
100
AcDbVertex
100
AcDb2dVertex
 10
650.862984
 20
927.333112
 30
0.0
  0
VERTEX
  5
33A
100
AcDbEntity
  8
図
  6
CONTINUOUS
 62
     6
100
AcDbVertex
100
AcDb2dVertex
 10
650.961658
 20
926.822086
 30
0.0
  0
VERTEX
  5
33B
100
AcDbEntity
  8
図
  6
CONTINUOUS
 62
     6
100
AcDbVertex
100
AcDb2dVertex
 10
651.09875
 20
926.32288
 30
0.0
  0
VERTEX
  5
33C
100
AcDbEntity
  8
図
  6
CONTINUOUS
 62
     6
100
AcDbVertex
100
AcDb2dVertex
 10
651.273214
 20
925.83929
 30
0.0
  0
VERTEX
  5
33D
100
AcDbEntity
  8
図
  6
CONTINUOUS
 62
     6
100
AcDbVertex
100
AcDb2dVertex
 10
651.483724
 20
925.375
 30
0.0
  0
VERTEX
  5
33E
100
AcDbEntity
  8
図
  6
CONTINUOUS
 62
     6
100
AcDbVertex
100
AcDb2dVertex
 10
651.728678
 20
924.933542
 30
0.0
  0
VERTEX
  5
33F
100
AcDbEntity
  8
図
  6
CONTINUOUS
 62
     6
100
AcDbVertex
100
AcDb2dVertex
 10
652.00621
 20
924.518274
 30
0.0
  0
VERTEX
  5
340
100
AcDbEntity
  8
図
  6
CONTINUOUS
 62
     6
100
AcDbVertex
100
AcDb2dVertex
 10
652.31421
 20
924.13236
 30
0.0
  0
VERTEX
  5
341
100
AcDbEntity
  8
図
  6
CONTINUOUS
 62
     6
100
AcDbVertex
100
AcDb2dVertex
 10
652.650332
 20
923.778734
 30
0.0
  0
VERTEX
  5
342
100
AcDbEntity
  8
図
  6
CONTINUOUS
 62
     6
100
AcDbVertex
100
AcDb2dVertex
 10
653.01202
 20
923.460088
 30
0.0
  0
VERTEX
  5
343
100
AcDbEntity
  8
図
  6
CONTINUOUS
 62
     6
100
AcDbVertex
100
AcDb2dVertex
 10
653.396518
 20
923.178848
 30
0.0
  0
VERTEX
  5
344
100
AcDbEntity
  8
図
  6
CONTINUOUS
 62
     6
100
AcDbVertex
100
AcDb2dVertex
 10
653.800904
 20
922.937154
 30
0.0
  0
VERTEX
  5
345
100
AcDbEntity
  8
図
  6
CONTINUOUS
 62
     6
100
AcDbVertex
100
AcDb2dVertex
 10
654.222098
 20
922.736844
 30
0.0
  0
VERTEX
  5
346
100
AcDbEntity
  8
図
  6
CONTINUOUS
 62
     6
100
AcDbVertex
100
AcDb2dVertex
 10
654.656894
 20
922.579446
 30
0.0
  0
VERTEX
  5
347
100
AcDbEntity
  8
図
  6
CONTINUOUS
 62
     6
100
AcDbVertex
100
AcDb2dVertex
 10
655.101986
 20
922.466154
 30
0.0
  0
VERTEX
  5
348
100
AcDbEntity
  8
図
  6
CONTINUOUS
 62
     6
100
AcDbVertex
100
AcDb2dVertex
 10
655.553982
 20
922.397832
 30
0.0
  0
VERTEX
  5
349
100
AcDbEntity
  8
図
  6
CONTINUOUS
 62
     6
100
AcDbVertex
100
AcDb2dVertex
 10
656.009446
 20
922.375
 30
0.0
  0
SEQEND
  5
34A
100
AcDbEntity
  8
図
  6
CONTINUOUS
 62
     6
  0
ARC
  5
34B
100
AcDbEntity
  8
図
  6
CONTINUOUS
 62
     6
100
AcDbCircle
 10
620.428474
 20
928.375
 30
0.0
 40
10.0
100
AcDbArc
 50
143.130102
 51
216.869898
  0
POLYLINE
  5
34C
100
AcDbEntity
  8
図
  6
CONTINUOUS
 62
     6
100
AcDb2dPolyline
 66
     1
 10
0.0
 20
0.0
 30
0.0
 70
   128
  0
VERTEX
  5
34D
100
AcDbEntity
  8
図
  6
CONTINUOUS
 62
     6
100
AcDbVertex
100
AcDb2dVertex
 10
615.654328
 20
922.375
 30
0.0
  0
VERTEX
  5
34E
100
AcDbEntity
  8
図
  6
CONTINUOUS
 62
     6
100
AcDbVertex
100
AcDb2dVertex
 10
616.10979
 20
922.397832
 30
0.0
  0
VERTEX
  5
34F
100
AcDbEntity
  8
図
  6
CONTINUOUS
 62
     6
100
AcDbVertex
100
AcDb2dVertex
 10
616.561788
 20
922.466154
 30
0.0
  0
VERTEX
  5
350
100
AcDbEntity
  8
図
  6
CONTINUOUS
 62
     6
100
AcDbVertex
100
AcDb2dVertex
 10
617.006878
 20
922.579446
 30
0.0
  0
VERTEX
  5
351
100
AcDbEntity
  8
図
  6
CONTINUOUS
 62
     6
100
AcDbVertex
100
AcDb2dVertex
 10
617.441674
 20
922.736844
 30
0.0
  0
VERTEX
  5
352
100
AcDbEntity
  8
図
  6
CONTINUOUS
 62
     6
100
AcDbVertex
100
AcDb2dVertex
 10
617.862868
 20
922.937154
 30
0.0
  0
VERTEX
  5
353
100
AcDbEntity
  8
図
  6
CONTINUOUS
 62
     6
100
AcDbVertex
100
AcDb2dVertex
 10
618.267254
 20
923.178848
 30
0.0
  0
VERTEX
  5
354
100
AcDbEntity
  8
図
  6
CONTINUOUS
 62
     6
100
AcDbVertex
100
AcDb2dVertex
 10
618.651754
 20
923.460088
 30
0.0
  0
VERTEX
  5
355
100
AcDbEntity
  8
図
  6
CONTINUOUS
 62
     6
100
AcDbVertex
100
AcDb2dVertex
 10
619.01344
 20
923.778734
 30
0.0
  0
VERTEX
  5
356
100
AcDbEntity
  8
図
  6
CONTINUOUS
 62
     6
100
AcDbVertex
100
AcDb2dVertex
 10
619.349564
 20
924.13236
 30
0.0
  0
VERTEX
  5
357
100
AcDbEntity
  8
図
  6
CONTINUOUS
 62
     6
100
AcDbVertex
100
AcDb2dVertex
 10
619.657564
 20
924.518274
 30
0.0
  0
VERTEX
  5
358
100
AcDbEntity
  8
図
  6
CONTINUOUS
 62
     6
100
AcDbVertex
100
AcDb2dVertex
 10
619.935096
 20
924.933542
 30
0.0
  0
VERTEX
  5
359
100
AcDbEntity
  8
図
  6
CONTINUOUS
 62
     6
100
AcDbVertex
100
AcDb2dVertex
 10
620.180048
 20
925.375
 30
0.0
  0
VERTEX
  5
35A
100
AcDbEntity
  8
図
  6
CONTINUOUS
 62
     6
100
AcDbVertex
100
AcDb2dVertex
 10
620.390558
 20
925.83929
 30
0.0
  0
VERTEX
  5
35B
100
AcDbEntity
  8
図
  6
CONTINUOUS
 62
     6
100
AcDbVertex
100
AcDb2dVertex
 10
620.565022
 20
926.32288
 30
0.0
  0
VERTEX
  5
35C
100
AcDbEntity
  8
図
  6
CONTINUOUS
 62
     6
100
AcDbVertex
100
AcDb2dVertex
 10
620.702114
 20
926.822086
 30
0.0
  0
VERTEX
  5
35D
100
AcDbEntity
  8
図
  6
CONTINUOUS
 62
     6
100
AcDbVertex
100
AcDb2dVertex
 10
620.800788
 20
927.333112
 30
0.0
  0
VERTEX
  5
35E
100
AcDbEntity
  8
図
  6
CONTINUOUS
 62
     6
100
AcDbVertex
100
AcDb2dVertex
 10
620.860294
 20
927.852066
 30
0.0
  0
VERTEX
  5
35F
100
AcDbEntity
  8
図
  6
CONTINUOUS
 62
     6
100
AcDbVertex
100
AcDb2dVertex
 10
620.88018
 20
928.375
 30
0.0
  0
VERTEX
  5
360
100
AcDbEntity
  8
図
  6
CONTINUOUS
 62
     6
100
AcDbVertex
100
AcDb2dVertex
 10
620.860294
 20
928.897934
 30
0.0
  0
VERTEX
  5
361
100
AcDbEntity
  8
図
  6
CONTINUOUS
 62
     6
100
AcDbVertex
100
AcDb2dVertex
 10
620.800788
 20
929.41689
 30
0.0
  0
VERTEX
  5
362
100
AcDbEntity
  8
図
  6
CONTINUOUS
 62
     6
100
AcDbVertex
100
AcDb2dVertex
 10
620.702114
 20
929.927914
 30
0.0
  0
VERTEX
  5
363
100
AcDbEntity
  8
図
  6
CONTINUOUS
 62
     6
100
AcDbVertex
100
AcDb2dVertex
 10
620.565022
 20
930.427122
 30
0.0
  0
VERTEX
  5
364
100
AcDbEntity
  8
図
  6
CONTINUOUS
 62
     6
100
AcDbVertex
100
AcDb2dVertex
 10
620.390558
 20
930.91071
 30
0.0
  0
VERTEX
  5
365
100
AcDbEntity
  8
図
  6
CONTINUOUS
 62
     6
100
AcDbVertex
100
AcDb2dVertex
 10
620.180048
 20
931.375
 30
0.0
  0
VERTEX
  5
366
100
AcDbEntity
  8
図
  6
CONTINUOUS
 62
     6
100
AcDbVertex
100
AcDb2dVertex
 10
619.935096
 20
931.816458
 30
0.0
  0
VERTEX
  5
367
100
AcDbEntity
  8
図
  6
CONTINUOUS
 62
     6
100
AcDbVertex
100
AcDb2dVertex
 10
619.657564
 20
932.231726
 30
0.0
  0
VERTEX
  5
368
100
AcDbEntity
  8
図
  6
CONTINUOUS
 62
     6
100
AcDbVertex
100
AcDb2dVertex
 10
619.349564
 20
932.61764
 30
0.0
  0
VERTEX
  5
369
100
AcDbEntity
  8
図
  6
CONTINUOUS
 62
     6
100
AcDbVertex
100
AcDb2dVertex
 10
619.01344
 20
932.971266
 30
0.0
  0
VERTEX
  5
36A
100
AcDbEntity
  8
図
  6
CONTINUOUS
 62
     6
100
AcDbVertex
100
AcDb2dVertex
 10
618.651754
 20
933.289912
 30
0.0
  0
VERTEX
  5
36B
100
AcDbEntity
  8
図
  6
CONTINUOUS
 62
     6
100
AcDbVertex
100
AcDb2dVertex
 10
618.267254
 20
933.571152
 30
0.0
  0
VERTEX
  5
36C
100
AcDbEntity
  8
図
  6
CONTINUOUS
 62
     6
100
AcDbVertex
100
AcDb2dVertex
 10
617.862868
 20
933.812846
 30
0.0
  0
VERTEX
  5
36D
100
AcDbEntity
  8
図
  6
CONTINUOUS
 62
     6
100
AcDbVertex
100
AcDb2dVertex
 10
617.441674
 20
934.013156
 30
0.0
  0
VERTEX
  5
36E
100
AcDbEntity
  8
図
  6
CONTINUOUS
 62
     6
100
AcDbVertex
100
AcDb2dVertex
 10
617.006878
 20
934.170556
 30
0.0
  0
VERTEX
  5
36F
100
AcDbEntity
  8
図
  6
CONTINUOUS
 62
     6
100
AcDbVertex
100
AcDb2dVertex
 10
616.561788
 20
934.283846
 30
0.0
  0
VERTEX
  5
370
100
AcDbEntity
  8
図
  6
CONTINUOUS
 62
     6
100
AcDbVertex
100
AcDb2dVertex
 10
616.10979
 20
934.352168
 30
0.0
  0
VERTEX
  5
371
100
AcDbEntity
  8
図
  6
CONTINUOUS
 62
     6
100
AcDbVertex
100
AcDb2dVertex
 10
615.654328
 20
934.375
 30
0.0
  0
VERTEX
  5
372
100
AcDbEntity
  8
図
  6
CONTINUOUS
 62
     6
100
AcDbVertex
100
AcDb2dVertex
 10
615.198864
 20
934.352168
 30
0.0
  0
VERTEX
  5
373
100
AcDbEntity
  8
図
  6
CONTINUOUS
 62
     6
100
AcDbVertex
100
AcDb2dVertex
 10
614.746868
 20
934.283846
 30
0.0
  0
VERTEX
  5
374
100
AcDbEntity
  8
図
  6
CONTINUOUS
 62
     6
100
AcDbVertex
100
AcDb2dVertex
 10
614.301778
 20
934.170556
 30
0.0
  0
VERTEX
  5
375
100
AcDbEntity
  8
図
  6
CONTINUOUS
 62
     6
100
AcDbVertex
100
AcDb2dVertex
 10
613.86698
 20
934.013156
 30
0.0
  0
VERTEX
  5
376
100
AcDbEntity
  8
図
  6
CONTINUOUS
 62
     6
100
AcDbVertex
100
AcDb2dVertex
 10
613.445786
 20
933.812846
 30
0.0
  0
VERTEX
  5
377
100
AcDbEntity
  8
図
  6
CONTINUOUS
 62
     6
100
AcDbVertex
100
AcDb2dVertex
 10
613.0414
 20
933.571152
 30
0.0
  0
VERTEX
  5
378
100
AcDbEntity
  8
図
  6
CONTINUOUS
 62
     6
100
AcDbVertex
100
AcDb2dVertex
 10
612.656902
 20
933.289912
 30
0.0
  0
VERTEX
  5
379
100
AcDbEntity
  8
図
  6
CONTINUOUS
 62
     6
100
AcDbVertex
100
AcDb2dVertex
 10
612.295214
 20
932.971266
 30
0.0
  0
VERTEX
  5
37A
100
AcDbEntity
  8
図
  6
CONTINUOUS
 62
     6
100
AcDbVertex
100
AcDb2dVertex
 10
611.959092
 20
932.61764
 30
0.0
  0
VERTEX
  5
37B
100
AcDbEntity
  8
図
  6
CONTINUOUS
 62
     6
100
AcDbVertex
100
AcDb2dVertex
 10
611.651092
 20
932.231726
 30
0.0
  0
VERTEX
  5
37C
100
AcDbEntity
  8
図
  6
CONTINUOUS
 62
     6
100
AcDbVertex
100
AcDb2dVertex
 10
611.37356
 20
931.816458
 30
0.0
  0
VERTEX
  5
37D
100
AcDbEntity
  8
図
  6
CONTINUOUS
 62
     6
100
AcDbVertex
100
AcDb2dVertex
 10
611.128606
 20
931.375
 30
0.0
  0
VERTEX
  5
37E
100
AcDbEntity
  8
図
  6
CONTINUOUS
 62
     6
100
AcDbVertex
100
AcDb2dVertex
 10
610.918096
 20
930.91071
 30
0.0
  0
VERTEX
  5
37F
100
AcDbEntity
  8
図
  6
CONTINUOUS
 62
     6
100
AcDbVertex
100
AcDb2dVertex
 10
610.743632
 20
930.427122
 30
0.0
  0
VERTEX
  5
380
100
AcDbEntity
  8
図
  6
CONTINUOUS
 62
     6
100
AcDbVertex
100
AcDb2dVertex
 10
610.606542
 20
929.927914
 30
0.0
  0
VERTEX
  5
381
100
AcDbEntity
  8
図
  6
CONTINUOUS
 62
     6
100
AcDbVertex
100
AcDb2dVertex
 10
610.507866
 20
929.41689
 30
0.0
  0
VERTEX
  5
382
100
AcDbEntity
  8
図
  6
CONTINUOUS
 62
     6
100
AcDbVertex
100
AcDb2dVertex
 10
610.44836
 20
928.897934
 30
0.0
  0
VERTEX
  5
383
100
AcDbEntity
  8
図
  6
CONTINUOUS
 62
     6
100
AcDbVertex
100
AcDb2dVertex
 10
610.428474
 20
928.375
 30
0.0
  0
VERTEX
  5
384
100
AcDbEntity
  8
図
  6
CONTINUOUS
 62
     6
100
AcDbVertex
100
AcDb2dVertex
 10
610.44836
 20
927.852066
 30
0.0
  0
VERTEX
  5
385
100
AcDbEntity
  8
図
  6
CONTINUOUS
 62
     6
100
AcDbVertex
100
AcDb2dVertex
 10
610.507866
 20
927.333112
 30
0.0
  0
VERTEX
  5
386
100
AcDbEntity
  8
図
  6
CONTINUOUS
 62
     6
100
AcDbVertex
100
AcDb2dVertex
 10
610.606542
 20
926.822086
 30
0.0
  0
VERTEX
  5
387
100
AcDbEntity
  8
図
  6
CONTINUOUS
 62
     6
100
AcDbVertex
100
AcDb2dVertex
 10
610.743632
 20
926.32288
 30
0.0
  0
VERTEX
  5
388
100
AcDbEntity
  8
図
  6
CONTINUOUS
 62
     6
100
AcDbVertex
100
AcDb2dVertex
 10
610.918096
 20
925.83929
 30
0.0
  0
VERTEX
  5
389
100
AcDbEntity
  8
図
  6
CONTINUOUS
 62
     6
100
AcDbVertex
100
AcDb2dVertex
 10
611.128606
 20
925.375
 30
0.0
  0
VERTEX
  5
38A
100
AcDbEntity
  8
図
  6
CONTINUOUS
 62
     6
100
AcDbVertex
100
AcDb2dVertex
 10
611.37356
 20
924.933542
 30
0.0
  0
VERTEX
  5
38B
100
AcDbEntity
  8
図
  6
CONTINUOUS
 62
     6
100
AcDbVertex
100
AcDb2dVertex
 10
611.651092
 20
924.518274
 30
0.0
  0
VERTEX
  5
38C
100
AcDbEntity
  8
図
  6
CONTINUOUS
 62
     6
100
AcDbVertex
100
AcDb2dVertex
 10
611.959092
 20
924.13236
 30
0.0
  0
VERTEX
  5
38D
100
AcDbEntity
  8
図
  6
CONTINUOUS
 62
     6
100
AcDbVertex
100
AcDb2dVertex
 10
612.295214
 20
923.778734
 30
0.0
  0
VERTEX
  5
38E
100
AcDbEntity
  8
図
  6
CONTINUOUS
 62
     6
100
AcDbVertex
100
AcDb2dVertex
 10
612.656902
 20
923.460088
 30
0.0
  0
VERTEX
  5
38F
100
AcDbEntity
  8
図
  6
CONTINUOUS
 62
     6
100
AcDbVertex
100
AcDb2dVertex
 10
613.0414
 20
923.178848
 30
0.0
  0
VERTEX
  5
390
100
AcDbEntity
  8
図
  6
CONTINUOUS
 62
     6
100
AcDbVertex
100
AcDb2dVertex
 10
613.445786
 20
922.937154
 30
0.0
  0
VERTEX
  5
391
100
AcDbEntity
  8
図
  6
CONTINUOUS
 62
     6
100
AcDbVertex
100
AcDb2dVertex
 10
613.86698
 20
922.736844
 30
0.0
  0
VERTEX
  5
392
100
AcDbEntity
  8
図
  6
CONTINUOUS
 62
     6
100
AcDbVertex
100
AcDb2dVertex
 10
614.301778
 20
922.579446
 30
0.0
  0
VERTEX
  5
393
100
AcDbEntity
  8
図
  6
CONTINUOUS
 62
     6
100
AcDbVertex
100
AcDb2dVertex
 10
614.746868
 20
922.466154
 30
0.0
  0
VERTEX
  5
394
100
AcDbEntity
  8
図
  6
CONTINUOUS
 62
     6
100
AcDbVertex
100
AcDb2dVertex
 10
615.198864
 20
922.397832
 30
0.0
  0
VERTEX
  5
395
100
AcDbEntity
  8
図
  6
CONTINUOUS
 62
     6
100
AcDbVertex
100
AcDb2dVertex
 10
615.654328
 20
922.375
 30
0.0
  0
SEQEND
  5
396
100
AcDbEntity
  8
図
  6
CONTINUOUS
 62
     6
  0
POLYLINE
  5
397
100
AcDbEntity
  8
図
  6
CONTINUOUS
 62
     6
100
AcDb2dPolyline
 66
     1
 10
0.0
 20
0.0
 30
0.0
 70
   128
  0
VERTEX
  5
398
100
AcDbEntity
  8
図
  6
CONTINUOUS
 62
     6
100
AcDbVertex
100
AcDb2dVertex
 10
646.283592
 20
928.375
 30
0.0
  0
VERTEX
  5
399
100
AcDbEntity
  8
図
  6
CONTINUOUS
 62
     6
100
AcDbVertex
100
AcDb2dVertex
 10
646.24382
 20
928.897934
 30
0.0
  0
VERTEX
  5
39A
100
AcDbEntity
  8
図
  6
CONTINUOUS
 62
     6
100
AcDbVertex
100
AcDb2dVertex
 10
646.124808
 20
929.41689
 30
0.0
  0
VERTEX
  5
39B
100
AcDbEntity
  8
図
  6
CONTINUOUS
 62
     6
100
AcDbVertex
100
AcDb2dVertex
 10
645.927458
 20
929.927914
 30
0.0
  0
VERTEX
  5
39C
100
AcDbEntity
  8
図
  6
CONTINUOUS
 62
     6
100
AcDbVertex
100
AcDb2dVertex
 10
645.653278
 20
930.427122
 30
0.0
  0
VERTEX
  5
39D
100
AcDbEntity
  8
図
  6
CONTINUOUS
 62
     6
100
AcDbVertex
100
AcDb2dVertex
 10
645.304348
 20
930.91071
 30
0.0
  0
VERTEX
  5
39E
100
AcDbEntity
  8
図
  6
CONTINUOUS
 62
     6
100
AcDbVertex
100
AcDb2dVertex
 10
644.88333
 20
931.375
 30
0.0
  0
VERTEX
  5
39F
100
AcDbEntity
  8
図
  6
CONTINUOUS
 62
     6
100
AcDbVertex
100
AcDb2dVertex
 10
644.393422
 20
931.816458
 30
0.0
  0
VERTEX
  5
3A0
100
AcDbEntity
  8
図
  6
CONTINUOUS
 62
     6
100
AcDbVertex
100
AcDb2dVertex
 10
643.838358
 20
932.231726
 30
0.0
  0
VERTEX
  5
3A1
100
AcDbEntity
  8
図
  6
CONTINUOUS
 62
     6
100
AcDbVertex
100
AcDb2dVertex
 10
643.222358
 20
932.61764
 30
0.0
  0
VERTEX
  5
3A2
100
AcDbEntity
  8
図
  6
CONTINUOUS
 62
     6
100
AcDbVertex
100
AcDb2dVertex
 10
642.550114
 20
932.971266
 30
0.0
  0
VERTEX
  5
3A3
100
AcDbEntity
  8
図
  6
CONTINUOUS
 62
     6
100
AcDbVertex
100
AcDb2dVertex
 10
641.826738
 20
933.289912
 30
0.0
  0
VERTEX
  5
3A4
100
AcDbEntity
  8
図
  6
CONTINUOUS
 62
     6
100
AcDbVertex
100
AcDb2dVertex
 10
641.05774
 20
933.571152
 30
0.0
  0
VERTEX
  5
3A5
100
AcDbEntity
  8
図
  6
CONTINUOUS
 62
     6
100
AcDbVertex
100
AcDb2dVertex
 10
640.248968
 20
933.812846
 30
0.0
  0
VERTEX
  5
3A6
100
AcDbEntity
  8
図
  6
CONTINUOUS
 62
     6
100
AcDbVertex
100
AcDb2dVertex
 10
639.40658
 20
934.013156
 30
0.0
  0
VERTEX
  5
3A7
100
AcDbEntity
  8
図
  6
CONTINUOUS
 62
     6
100
AcDbVertex
100
AcDb2dVertex
 10
638.536986
 20
934.170556
 30
0.0
  0
VERTEX
  5
3A8
100
AcDbEntity
  8
図
  6
CONTINUOUS
 62
     6
100
AcDbVertex
100
AcDb2dVertex
 10
637.646806
 20
934.283846
 30
0.0
  0
VERTEX
  5
3A9
100
AcDbEntity
  8
図
  6
CONTINUOUS
 62
     6
100
AcDbVertex
100
AcDb2dVertex
 10
636.742812
 20
934.352168
 30
0.0
  0
VERTEX
  5
3AA
100
AcDbEntity
  8
図
  6
CONTINUOUS
 62
     6
100
AcDbVertex
100
AcDb2dVertex
 10
635.831886
 20
934.375
 30
0.0
  0
VERTEX
  5
3AB
100
AcDbEntity
  8
図
  6
CONTINUOUS
 62
     6
100
AcDbVertex
100
AcDb2dVertex
 10
634.92096
 20
934.352168
 30
0.0
  0
VERTEX
  5
3AC
100
AcDbEntity
  8
図
  6
CONTINUOUS
 62
     6
100
AcDbVertex
100
AcDb2dVertex
 10
634.016966
 20
934.283846
 30
0.0
  0
VERTEX
  5
3AD
100
AcDbEntity
  8
図
  6
CONTINUOUS
 62
     6
100
AcDbVertex
100
AcDb2dVertex
 10
633.126786
 20
934.170556
 30
0.0
  0
VERTEX
  5
3AE
100
AcDbEntity
  8
図
  6
CONTINUOUS
 62
     6
100
AcDbVertex
100
AcDb2dVertex
 10
632.257192
 20
934.013156
 30
0.0
  0
VERTEX
  5
3AF
100
AcDbEntity
  8
図
  6
CONTINUOUS
 62
     6
100
AcDbVertex
100
AcDb2dVertex
 10
631.414804
 20
933.812846
 30
0.0
  0
VERTEX
  5
3B0
100
AcDbEntity
  8
図
  6
CONTINUOUS
 62
     6
100
AcDbVertex
100
AcDb2dVertex
 10
630.606034
 20
933.571152
 30
0.0
  0
VERTEX
  5
3B1
100
AcDbEntity
  8
図
  6
CONTINUOUS
 62
     6
100
AcDbVertex
100
AcDb2dVertex
 10
629.837034
 20
933.289912
 30
0.0
  0
VERTEX
  5
3B2
100
AcDbEntity
  8
図
  6
CONTINUOUS
 62
     6
100
AcDbVertex
100
AcDb2dVertex
 10
629.11366
 20
932.971266
 30
0.0
  0
VERTEX
  5
3B3
100
AcDbEntity
  8
図
  6
CONTINUOUS
 62
     6
100
AcDbVertex
100
AcDb2dVertex
 10
628.441414
 20
932.61764
 30
0.0
  0
VERTEX
  5
3B4
100
AcDbEntity
  8
図
  6
CONTINUOUS
 62
     6
100
AcDbVertex
100
AcDb2dVertex
 10
627.825416
 20
932.231726
 30
0.0
  0
VERTEX
  5
3B5
100
AcDbEntity
  8
図
  6
CONTINUOUS
 62
     6
100
AcDbVertex
100
AcDb2dVertex
 10
627.27035
 20
931.816458
 30
0.0
  0
VERTEX
  5
3B6
100
AcDbEntity
  8
図
  6
CONTINUOUS
 62
     6
100
AcDbVertex
100
AcDb2dVertex
 10
626.780444
 20
931.375
 30
0.0
  0
VERTEX
  5
3B7
100
AcDbEntity
  8
図
  6
CONTINUOUS
 62
     6
100
AcDbVertex
100
AcDb2dVertex
 10
626.359424
 20
930.91071
 30
0.0
  0
VERTEX
  5
3B8
100
AcDbEntity
  8
図
  6
CONTINUOUS
 62
     6
100
AcDbVertex
100
AcDb2dVertex
 10
626.010496
 20
930.427122
 30
0.0
  0
VERTEX
  5
3B9
100
AcDbEntity
  8
図
  6
CONTINUOUS
 62
     6
100
AcDbVertex
100
AcDb2dVertex
 10
625.736314
 20
929.927914
 30
0.0
  0
VERTEX
  5
3BA
100
AcDbEntity
  8
図
  6
CONTINUOUS
 62
     6
100
AcDbVertex
100
AcDb2dVertex
 10
625.538966
 20
929.41689
 30
0.0
  0
VERTEX
  5
3BB
100
AcDbEntity
  8
図
  6
CONTINUOUS
 62
     6
100
AcDbVertex
100
AcDb2dVertex
 10
625.419952
 20
928.897934
 30
0.0
  0
VERTEX
  5
3BC
100
AcDbEntity
  8
図
  6
CONTINUOUS
 62
     6
100
AcDbVertex
100
AcDb2dVertex
 10
625.38018
 20
928.375
 30
0.0
  0
VERTEX
  5
3BD
100
AcDbEntity
  8
図
  6
CONTINUOUS
 62
     6
100
AcDbVertex
100
AcDb2dVertex
 10
625.419952
 20
927.852066
 30
0.0
  0
VERTEX
  5
3BE
100
AcDbEntity
  8
図
  6
CONTINUOUS
 62
     6
100
AcDbVertex
100
AcDb2dVertex
 10
625.538966
 20
927.333112
 30
0.0
  0
VERTEX
  5
3BF
100
AcDbEntity
  8
図
  6
CONTINUOUS
 62
     6
100
AcDbVertex
100
AcDb2dVertex
 10
625.736314
 20
926.822086
 30
0.0
  0
VERTEX
  5
3C0
100
AcDbEntity
  8
図
  6
CONTINUOUS
 62
     6
100
AcDbVertex
100
AcDb2dVertex
 10
626.010496
 20
926.32288
 30
0.0
  0
VERTEX
  5
3C1
100
AcDbEntity
  8
図
  6
CONTINUOUS
 62
     6
100
AcDbVertex
100
AcDb2dVertex
 10
626.359424
 20
925.83929
 30
0.0
  0
VERTEX
  5
3C2
100
AcDbEntity
  8
図
  6
CONTINUOUS
 62
     6
100
AcDbVertex
100
AcDb2dVertex
 10
626.780444
 20
925.375
 30
0.0
  0
VERTEX
  5
3C3
100
AcDbEntity
  8
図
  6
CONTINUOUS
 62
     6
100
AcDbVertex
100
AcDb2dVertex
 10
627.27035
 20
924.933542
 30
0.0
  0
VERTEX
  5
3C4
100
AcDbEntity
  8
図
  6
CONTINUOUS
 62
     6
100
AcDbVertex
100
AcDb2dVertex
 10
627.825416
 20
924.518274
 30
0.0
  0
VERTEX
  5
3C5
100
AcDbEntity
  8
図
  6
CONTINUOUS
 62
     6
100
AcDbVertex
100
AcDb2dVertex
 10
628.441414
 20
924.13236
 30
0.0
  0
VERTEX
  5
3C6
100
AcDbEntity
  8
図
  6
CONTINUOUS
 62
     6
100
AcDbVertex
100
AcDb2dVertex
 10
629.11366
 20
923.778734
 30
0.0
  0
VERTEX
  5
3C7
100
AcDbEntity
  8
図
  6
CONTINUOUS
 62
     6
100
AcDbVertex
100
AcDb2dVertex
 10
629.837034
 20
923.460088
 30
0.0
  0
VERTEX
  5
3C8
100
AcDbEntity
  8
図
  6
CONTINUOUS
 62
     6
100
AcDbVertex
100
AcDb2dVertex
 10
630.606034
 20
923.178848
 30
0.0
  0
VERTEX
  5
3C9
100
AcDbEntity
  8
図
  6
CONTINUOUS
 62
     6
100
AcDbVertex
100
AcDb2dVertex
 10
631.414804
 20
922.937154
 30
0.0
  0
VERTEX
  5
3CA
100
AcDbEntity
  8
図
  6
CONTINUOUS
 62
     6
100
AcDbVertex
100
AcDb2dVertex
 10
632.257192
 20
922.736844
 30
0.0
  0
VERTEX
  5
3CB
100
AcDbEntity
  8
図
  6
CONTINUOUS
 62
     6
100
AcDbVertex
100
AcDb2dVertex
 10
633.126786
 20
922.579446
 30
0.0
  0
VERTEX
  5
3CC
100
AcDbEntity
  8
図
  6
CONTINUOUS
 62
     6
100
AcDbVertex
100
AcDb2dVertex
 10
634.016966
 20
922.466154
 30
0.0
  0
VERTEX
  5
3CD
100
AcDbEntity
  8
図
  6
CONTINUOUS
 62
     6
100
AcDbVertex
100
AcDb2dVertex
 10
634.92096
 20
922.397832
 30
0.0
  0
VERTEX
  5
3CE
100
AcDbEntity
  8
図
  6
CONTINUOUS
 62
     6
100
AcDbVertex
100
AcDb2dVertex
 10
635.831886
 20
922.375
 30
0.0
  0
VERTEX
  5
3CF
100
AcDbEntity
  8
図
  6
CONTINUOUS
 62
     6
100
AcDbVertex
100
AcDb2dVertex
 10
636.742812
 20
922.397832
 30
0.0
  0
VERTEX
  5
3D0
100
AcDbEntity
  8
図
  6
CONTINUOUS
 62
     6
100
AcDbVertex
100
AcDb2dVertex
 10
637.646806
 20
922.466154
 30
0.0
  0
VERTEX
  5
3D1
100
AcDbEntity
  8
図
  6
CONTINUOUS
 62
     6
100
AcDbVertex
100
AcDb2dVertex
 10
638.536986
 20
922.579446
 30
0.0
  0
VERTEX
  5
3D2
100
AcDbEntity
  8
図
  6
CONTINUOUS
 62
     6
100
AcDbVertex
100
AcDb2dVertex
 10
639.40658
 20
922.736844
 30
0.0
  0
VERTEX
  5
3D3
100
AcDbEntity
  8
図
  6
CONTINUOUS
 62
     6
100
AcDbVertex
100
AcDb2dVertex
 10
640.248968
 20
922.937154
 30
0.0
  0
VERTEX
  5
3D4
100
AcDbEntity
  8
図
  6
CONTINUOUS
 62
     6
100
AcDbVertex
100
AcDb2dVertex
 10
641.05774
 20
923.178848
 30
0.0
  0
VERTEX
  5
3D5
100
AcDbEntity
  8
図
  6
CONTINUOUS
 62
     6
100
AcDbVertex
100
AcDb2dVertex
 10
641.826738
 20
923.460088
 30
0.0
  0
VERTEX
  5
3D6
100
AcDbEntity
  8
図
  6
CONTINUOUS
 62
     6
100
AcDbVertex
100
AcDb2dVertex
 10
642.550114
 20
923.778734
 30
0.0
  0
VERTEX
  5
3D7
100
AcDbEntity
  8
図
  6
CONTINUOUS
 62
     6
100
AcDbVertex
100
AcDb2dVertex
 10
643.222358
 20
924.13236
 30
0.0
  0
VERTEX
  5
3D8
100
AcDbEntity
  8
図
  6
CONTINUOUS
 62
     6
100
AcDbVertex
100
AcDb2dVertex
 10
643.838358
 20
924.518274
 30
0.0
  0
VERTEX
  5
3D9
100
AcDbEntity
  8
図
  6
CONTINUOUS
 62
     6
100
AcDbVertex
100
AcDb2dVertex
 10
644.393422
 20
924.933542
 30
0.0
  0
VERTEX
  5
3DA
100
AcDbEntity
  8
図
  6
CONTINUOUS
 62
     6
100
AcDbVertex
100
AcDb2dVertex
 10
644.88333
 20
925.375
 30
0.0
  0
VERTEX
  5
3DB
100
AcDbEntity
  8
図
  6
CONTINUOUS
 62
     6
100
AcDbVertex
100
AcDb2dVertex
 10
645.304348
 20
925.83929
 30
0.0
  0
VERTEX
  5
3DC
100
AcDbEntity
  8
図
  6
CONTINUOUS
 62
     6
100
AcDbVertex
100
AcDb2dVertex
 10
645.653278
 20
926.32288
 30
0.0
  0
VERTEX
  5
3DD
100
AcDbEntity
  8
図
  6
CONTINUOUS
 62
     6
100
AcDbVertex
100
AcDb2dVertex
 10
645.927458
 20
926.822086
 30
0.0
  0
VERTEX
  5
3DE
100
AcDbEntity
  8
図
  6
CONTINUOUS
 62
     6
100
AcDbVertex
100
AcDb2dVertex
 10
646.124808
 20
927.333112
 30
0.0
  0
VERTEX
  5
3DF
100
AcDbEntity
  8
図
  6
CONTINUOUS
 62
     6
100
AcDbVertex
100
AcDb2dVertex
 10
646.24382
 20
927.852066
 30
0.0
  0
VERTEX
  5
3E0
100
AcDbEntity
  8
図
  6
CONTINUOUS
 62
     6
100
AcDbVertex
100
AcDb2dVertex
 10
646.283592
 20
928.375
 30
0.0
  0
SEQEND
  5
3E1
100
AcDbEntity
  8
図
  6
CONTINUOUS
 62
     6
  0
LINE
  5
3E2
100
AcDbEntity
  8
図
  6
CONTINUOUS
 62
     6
100
AcDbLine
 10
612.428474
 20
922.375
 30
0.0
 11
659.235298
 21
922.375
 31
0.0
  0
LINE
  5
3E3
100
AcDbEntity
  8
図
  6
CONTINUOUS
 62
     6
100
AcDbLine
 10
612.428474
 20
934.375
 30
0.0
 11
659.235298
 21
934.375
 31
0.0
  0
LINE
  5
3E4
100
AcDbEntity
  8
図
  6
CONTINUOUS
 62
     6
100
AcDbLine
 10
619.831886
 20
919.375
 30
0.0
 11
619.831886
 21
903.320857
 31
0.0
  0
LINE
  5
3E5
100
AcDbEntity
  8
図
  6
CONTINUOUS
 62
     6
100
AcDbLine
 10
654.815886
 20
919.375
 30
0.0
 11
654.815886
 21
922.375
 31
0.0
  0
LINE
  5
3E6
100
AcDbEntity
  8
図
  6
CONTINUOUS
 62
     6
100
AcDbLine
 10
655.831886
 20
922.375
 30
0.0
 11
655.831886
 21
920.391
 31
0.0
  0
LINE
  5
3E7
100
AcDbEntity
  8
図
  6
CONTINUOUS
 62
     6
100
AcDbLine
 10
655.831886
 20
920.391
 30
0.0
 11
654.815886
 21
919.375
 31
0.0
  0
LINE
  5
3E8
100
AcDbEntity
  8
図
  6
CONTINUOUS
 62
     6
100
AcDbLine
 10
654.815886
 20
919.375
 30
0.0
 11
616.847886
 21
919.375
 31
0.0
  0
LINE
  5
3E9
100
AcDbEntity
  8
図
  6
CONTINUOUS
 62
     6
100
AcDbLine
 10
655.831886
 20
920.391
 30
0.0
 11
615.831886
 21
920.391
 31
0.0
  0
LINE
  5
3EA
100
AcDbEntity
  8
図
  6
CONTINUOUS
 62
     6
100
AcDbLine
 10
616.847886
 20
919.375
 30
0.0
 11
616.847886
 21
922.375
 31
0.0
  0
LINE
  5
3EB
100
AcDbEntity
  8
図
  6
CONTINUOUS
 62
     6
100
AcDbLine
 10
615.831886
 20
922.375
 30
0.0
 11
615.831886
 21
920.391
 31
0.0
  0
LINE
  5
3EC
100
AcDbEntity
  8
図
  6
CONTINUOUS
 62
     6
100
AcDbLine
 10
615.831886
 20
920.391
 30
0.0
 11
616.847886
 21
919.375
 31
0.0
  0
ARC
  5
3ED
100
AcDbEntity
  8
図
  6
EXLTYPE4
 62
     6
100
AcDbCircle
 10
612.51103
 20
903.322825
 30
0.0
 40
39.320857
100
AcDbArc
 50
248.537886
 51
0.0
  0
ARC
  5
3EE
100
AcDbEntity
  8
図
  6
EXLTYPE4
 62
     6
100
AcDbCircle
 10
612.51103
 20
903.320857
 30
0.0
 40
7.320857
100
AcDbArc
 50
180.0
 51
0.0
  0
ARC
  5
3EF
100
AcDbEntity
  8
図
  6
EXLTYPE4
 62
     6
100
AcDbCircle
 10
612.51103
 20
948.556112
 30
0.0
 40
7.320857
100
AcDbArc
 50
0.0
 51
180.0
  0
LINE
  5
3F0
100
AcDbEntity
  8
図
  6
EXLTYPE4
 62
     6
100
AcDbLine
 10
619.831886
 20
948.556112
 30
0.0
 11
619.831886
 21
934.376969
 31
0.0
  0
LINE
  5
3F1
100
AcDbEntity
  8
図
  6
EXLTYPE4
 62
     6
100
AcDbLine
 10
651.831886
 20
948.554143
 30
0.0
 11
651.831886
 21
934.375
 31
0.0
  0
ARC
  5
3F2
100
AcDbEntity
  8
図
  6
EXLTYPE4
 62
     6
100
AcDbCircle
 10
612.51103
 20
948.554143
 30
0.0
 40
39.320857
100
AcDbArc
 50
0.0
 51
99.619754
  0
LINE
  5
3F3
100
AcDbEntity
  8
図
  6
CONTINUOUS
 62
     2
100
AcDbLine
 10
353.889899
 20
1117.0
 30
0.0
 11
378.889899
 21
1142.0
 31
0.0
  0
LINE
  5
3F4
100
AcDbEntity
  8
図
  6
CONTINUOUS
 62
     2
100
AcDbLine
 10
325.605627
 20
1117.0
 30
0.0
 11
350.605627
 21
1142.0
 31
0.0
  0
LINE
  5
3F5
100
AcDbEntity
  8
図
  6
CONTINUOUS
 62
     2
100
AcDbLine
 10
297.321356
 20
1117.0
 30
0.0
 11
322.321356
 21
1142.0
 31
0.0
  0
LINE
  5
3F6
100
AcDbEntity
  8
図
  6
CONTINUOUS
 62
     2
100
AcDbLine
 10
269.037085
 20
1117.0
 30
0.0
 11
294.037085
 21
1142.0
 31
0.0
  0
LINE
  5
3F7
100
AcDbEntity
  8
図
  6
CONTINUOUS
 62
     2
100
AcDbLine
 10
410.458441
 20
1117.0
 30
0.0
 11
435.458441
 21
1142.0
 31
0.0
  0
LINE
  5
3F8
100
AcDbEntity
  8
図
  6
CONTINUOUS
 62
     2
100
AcDbLine
 10
382.17417
 20
1117.0
 30
0.0
 11
407.17417
 21
1142.0
 31
0.0
  0
LINE
  5
3F9
100
AcDbEntity
  8
図
  6
CONTINUOUS
 62
     2
100
AcDbLine
 10
438.742712
 20
1117.0
 30
0.0
 11
463.742712
 21
1142.0
 31
0.0
  0
LINE
  5
3FA
100
AcDbEntity
  8
図
  6
CONTINUOUS
 62
     2
100
AcDbLine
 10
693.301154
 20
1117.0
 30
0.0
 11
718.301154
 21
1142.0
 31
0.0
  0
LINE
  5
3FB
100
AcDbEntity
  8
図
  6
CONTINUOUS
 62
     2
100
AcDbLine
 10
721.585425
 20
1117.0
 30
0.0
 11
746.585425
 21
1142.0
 31
0.0
  0
LINE
  5
3FC
100
AcDbEntity
  8
図
  6
CONTINUOUS
 62
     2
100
AcDbLine
 10
749.869696
 20
1117.0
 30
0.0
 11
774.869696
 21
1142.0
 31
0.0
  0
LINE
  5
3FD
100
AcDbEntity
  8
図
  6
CONTINUOUS
 62
     2
100
AcDbLine
 10
778.153967
 20
1117.0
 30
0.0
 11
803.153967
 21
1142.0
 31
0.0
  0
LINE
  5
3FE
100
AcDbEntity
  8
図
  6
CONTINUOUS
 62
     2
100
AcDbLine
 10
806.438239
 20
1117.0
 30
0.0
 11
831.438239
 21
1142.0
 31
0.0
  0
LINE
  5
3FF
100
AcDbEntity
  8
図
  6
CONTINUOUS
 62
     2
100
AcDbLine
 10
834.72251
 20
1117.0
 30
0.0
 11
859.72251
 21
1142.0
 31
0.0
  0
LINE
  5
400
100
AcDbEntity
  8
図
  6
EXLTYPE3
 62
     6
100
AcDbLine
 10
489.184271
 20
1478.5
 30
0.0
 11
489.184271
 21
1403.5
 31
0.0
  0
LINE
  5
401
100
AcDbEntity
  8
図
  6
EXLTYPE3
 62
     6
100
AcDbLine
 10
689.184271
 20
1478.5
 30
0.0
 11
689.184271
 21
1403.5
 31
0.0
  0
ARC
  5
402
100
AcDbEntity
  8
図
  6
CONTINUOUS
 62
     6
100
AcDbCircle
 10
689.148645
 20
1471.996346
 30
0.0
 40
6.999999
100
AcDbArc
 50
59.055376
 51
120.944624
  0
ARC
  5
403
100
AcDbEntity
  8
図
  6
CONTINUOUS
 62
     6
100
AcDbCircle
 10
689.184273
 20
1442.0
 30
0.0
 40
30.0
100
AcDbArc
 50
98.626927
 51
171.373073
  0
ARC
  5
404
100
AcDbEntity
  8
図
  6
CONTINUOUS
 62
     6
100
AcDbCircle
 10
689.184273
 20
1442.0
 30
0.0
 40
30.0
100
AcDbArc
 50
8.626927
 51
81.373073
  0
ARC
  5
405
100
AcDbEntity
  8
図
  6
CONTINUOUS
 62
     6
100
AcDbCircle
 10
689.184273
 20
1442.0
 30
0.0
 40
30.0
100
AcDbArc
 50
278.626927
 51
350.405932
  0
ARC
  5
406
100
AcDbEntity
  8
図
  6
CONTINUOUS
 62
     6
100
AcDbCircle
 10
689.184273
 20
1442.0
 30
0.0
 40
30.0
100
AcDbArc
 50
188.626927
 51
261.373073
  0
LINE
  5
407
100
AcDbEntity
  8
図
  6
CONTINUOUS
 62
     6
100
AcDbLine
 10
693.684273
 20
1478.0
 30
0.0
 11
693.684273
 21
1461.487175
 31
0.0
  0
LINE
  5
408
100
AcDbEntity
  8
図
  6
CONTINUOUS
 62
     6
100
AcDbLine
 10
684.684273
 20
1478.0
 30
0.0
 11
684.684273
 21
1461.487175
 31
0.0
  0
CIRCLE
  5
409
100
AcDbEntity
  8
図
  6
CONTINUOUS
 62
     6
100
AcDbCircle
 10
689.184273
 20
1442.0
 30
0.0
 40
20.000001
  0
LINE
  5
40A
100
AcDbEntity
  8
図
  6
CONTINUOUS
 62
     6
100
AcDbLine
 10
693.684273
 20
1478.0
 30
0.0
 11
684.684273
 21
1478.0
 31
0.0
  0
LINE
  5
40B
100
AcDbEntity
  8
図
  6
CONTINUOUS
 62
     6
100
AcDbLine
 10
725.184273
 20
1437.5
 30
0.0
 11
708.671448
 21
1437.5
 31
0.0
  0
LINE
  5
40C
100
AcDbEntity
  8
図
  6
CONTINUOUS
 62
     6
100
AcDbLine
 10
725.184273
 20
1437.5
 30
0.0
 11
725.184273
 21
1446.5
 31
0.0
  0
LINE
  5
40D
100
AcDbEntity
  8
図
  6
CONTINUOUS
 62
     6
100
AcDbLine
 10
725.184273
 20
1446.5
 30
0.0
 11
708.671448
 21
1446.5
 31
0.0
  0
LINE
  5
40E
100
AcDbEntity
  8
図
  6
CONTINUOUS
 62
     6
100
AcDbLine
 10
684.684273
 20
1406.0
 30
0.0
 11
684.684273
 21
1422.512825
 31
0.0
  0
LINE
  5
40F
100
AcDbEntity
  8
図
  6
CONTINUOUS
 62
     6
100
AcDbLine
 10
684.684273
 20
1406.0
 30
0.0
 11
693.684273
 21
1406.0
 31
0.0
  0
LINE
  5
410
100
AcDbEntity
  8
図
  6
CONTINUOUS
 62
     6
100
AcDbLine
 10
693.684273
 20
1406.0
 30
0.0
 11
693.684273
 21
1422.512825
 31
0.0
  0
LINE
  5
411
100
AcDbEntity
  8
図
  6
CONTINUOUS
 62
     6
100
AcDbLine
 10
653.184273
 20
1446.5
 30
0.0
 11
669.697098
 21
1446.5
 31
0.0
  0
LINE
  5
412
100
AcDbEntity
  8
図
  6
CONTINUOUS
 62
     6
100
AcDbLine
 10
653.184273
 20
1446.5
 30
0.0
 11
653.184273
 21
1437.5
 31
0.0
  0
LINE
  5
413
100
AcDbEntity
  8
図
  6
CONTINUOUS
 62
     6
100
AcDbLine
 10
653.184273
 20
1437.5
 30
0.0
 11
669.697098
 21
1437.5
 31
0.0
  0
ARC
  5
414
100
AcDbEntity
  8
図
  6
CONTINUOUS
 62
     6
100
AcDbCircle
 10
489.219897
 20
1471.996346
 30
0.0
 40
6.999999
100
AcDbArc
 50
59.055376
 51
120.944624
  0
ARC
  5
415
100
AcDbEntity
  8
図
  6
CONTINUOUS
 62
     6
100
AcDbCircle
 10
489.184269
 20
1442.0
 30
0.0
 40
30.0
100
AcDbArc
 50
8.626927
 51
81.373073
  0
ARC
  5
416
100
AcDbEntity
  8
図
  6
CONTINUOUS
 62
     6
100
AcDbCircle
 10
489.184269
 20
1442.0
 30
0.0
 40
30.0
100
AcDbArc
 50
98.626927
 51
171.373073
  0
ARC
  5
417
100
AcDbEntity
  8
図
  6
CONTINUOUS
 62
     6
100
AcDbCircle
 10
489.184269
 20
1442.0
 30
0.0
 40
30.0
100
AcDbArc
 50
189.594068
 51
261.373073
  0
ARC
  5
418
100
AcDbEntity
  8
図
  6
CONTINUOUS
 62
     6
100
AcDbCircle
 10
489.184269
 20
1442.0
 30
0.0
 40
30.0
100
AcDbArc
 50
278.626927
 51
351.373073
  0
LINE
  5
419
100
AcDbEntity
  8
図
  6
CONTINUOUS
 62
     6
100
AcDbLine
 10
484.684269
 20
1478.0
 30
0.0
 11
484.684269
 21
1461.487175
 31
0.0
  0
LINE
  5
41A
100
AcDbEntity
  8
図
  6
CONTINUOUS
 62
     6
100
AcDbLine
 10
493.684269
 20
1478.0
 30
0.0
 11
493.684269
 21
1461.487175
 31
0.0
  0
ARC
  5
41B
100
AcDbEntity
  8
図
  6
CONTINUOUS
 62
     6
100
AcDbCircle
 10
589.184271
 20
1442.0
 30
0.0
 40
30.0
100
AcDbArc
 50
287.457603
 51
252.542397
  0
CIRCLE
  5
41C
100
AcDbEntity
  8
図
  6
CONTINUOUS
 62
     6
100
AcDbCircle
 10
489.184269
 20
1442.0
 30
0.0
 40
20.000001
  0
LINE
  5
41D
100
AcDbEntity
  8
図
  6
CONTINUOUS
 62
     6
100
AcDbLine
 10
484.684269
 20
1478.0
 30
0.0
 11
493.684269
 21
1478.0
 31
0.0
  0
LINE
  5
41E
100
AcDbEntity
  8
図
  6
CONTINUOUS
 62
     6
100
AcDbLine
 10
453.184269
 20
1437.5
 30
0.0
 11
469.697094
 21
1437.5
 31
0.0
  0
LINE
  5
41F
100
AcDbEntity
  8
図
  6
CONTINUOUS
 62
     6
100
AcDbLine
 10
453.184269
 20
1437.5
 30
0.0
 11
453.184269
 21
1446.5
 31
0.0
  0
LINE
  5
420
100
AcDbEntity
  8
図
  6
CONTINUOUS
 62
     6
100
AcDbLine
 10
453.184269
 20
1446.5
 30
0.0
 11
469.697094
 21
1446.5
 31
0.0
  0
LINE
  5
421
100
AcDbEntity
  8
図
  6
CONTINUOUS
 62
     6
100
AcDbLine
 10
493.684269
 20
1406.0
 30
0.0
 11
493.684269
 21
1422.512825
 31
0.0
  0
LINE
  5
422
100
AcDbEntity
  8
図
  6
CONTINUOUS
 62
     6
100
AcDbLine
 10
493.684269
 20
1406.0
 30
0.0
 11
484.684269
 21
1406.0
 31
0.0
  0
LINE
  5
423
100
AcDbEntity
  8
図
  6
CONTINUOUS
 62
     6
100
AcDbLine
 10
484.684269
 20
1406.0
 30
0.0
 11
484.684269
 21
1422.512825
 31
0.0
  0
LINE
  5
424
100
AcDbEntity
  8
図
  6
CONTINUOUS
 62
     6
100
AcDbLine
 10
525.184269
 20
1446.5
 30
0.0
 11
508.671444
 21
1446.5
 31
0.0
  0
LINE
  5
425
100
AcDbEntity
  8
図
  6
CONTINUOUS
 62
     6
100
AcDbLine
 10
525.184269
 20
1446.5
 30
0.0
 11
525.184269
 21
1437.5
 31
0.0
  0
LINE
  5
426
100
AcDbEntity
  8
図
  6
CONTINUOUS
 62
     6
100
AcDbLine
 10
525.184269
 20
1437.5
 30
0.0
 11
508.671444
 21
1437.5
 31
0.0
  0
LINE
  5
427
100
AcDbEntity
  8
図
  6
CONTINUOUS
 62
     6
100
AcDbLine
 10
598.184271
 20
1442.0
 30
0.0
 11
598.184271
 21
1383.988685
 31
0.0
  0
LINE
  5
428
100
AcDbEntity
  8
図
  6
CONTINUOUS
 62
     6
100
AcDbLine
 10
580.184271
 20
1442.0
 30
0.0
 11
580.184271
 21
1383.988685
 31
0.0
  0
ARC
  5
429
100
AcDbEntity
  8
図
  6
CONTINUOUS
 62
     6
100
AcDbCircle
 10
589.184271
 20
1442.0
 30
0.0
 40
9.0
100
AcDbArc
 50
0.0
 51
180.0
  0
LINE
  5
42A
100
AcDbEntity
  8
図
  6
CONTINUOUS
 62
     6
100
AcDbLine
 10
580.984377
 20
1383.339947
 30
0.0
 11
581.889258
 21
1382.435066
 31
0.0
  0
POLYLINE
  5
42B
100
AcDbEntity
  8
図
  6
CONTINUOUS
 62
     6
100
AcDb2dPolyline
 66
     1
 10
0.0
 20
0.0
 30
0.0
 70
   128
  0
VERTEX
  5
42C
100
AcDbEntity
  8
図
  6
CONTINUOUS
 62
     6
100
AcDbVertex
100
AcDb2dVertex
 10
598.184271
 20
1401.911465
 30
0.0
  0
VERTEX
  5
42D
100
AcDbEntity
  8
図
  6
CONTINUOUS
 62
     6
100
AcDbVertex
100
AcDb2dVertex
 10
598.107273
 20
1402.354349
 30
0.0
  0
VERTEX
  5
42E
100
AcDbEntity
  8
図
  6
CONTINUOUS
 62
     6
100
AcDbVertex
100
AcDb2dVertex
 10
597.877602
 20
1402.789655
 30
0.0
  0
VERTEX
  5
42F
100
AcDbEntity
  8
図
  6
CONTINUOUS
 62
     6
100
AcDbVertex
100
AcDb2dVertex
 10
597.499185
 20
1403.209934
 30
0.0
  0
VERTEX
  5
430
100
AcDbEntity
  8
図
  6
CONTINUOUS
 62
     6
100
AcDbVertex
100
AcDb2dVertex
 10
596.978499
 20
1403.607995
 30
0.0
  0
VERTEX
  5
431
100
AcDbEntity
  8
図
  6
CONTINUOUS
 62
     6
100
AcDbVertex
100
AcDb2dVertex
 10
596.324451
 20
1403.977031
 30
0.0
  0
VERTEX
  5
432
100
AcDbEntity
  8
図
  6
CONTINUOUS
 62
     6
100
AcDbVertex
100
AcDb2dVertex
 10
595.548231
 20
1404.310721
 30
0.0
  0
VERTEX
  5
433
100
AcDbEntity
  8
図
  6
CONTINUOUS
 62
     6
100
AcDbVertex
100
AcDb2dVertex
 10
594.663123
 20
1404.603362
 30
0.0
  0
VERTEX
  5
434
100
AcDbEntity
  8
図
  6
CONTINUOUS
 62
     6
100
AcDbVertex
100
AcDb2dVertex
 10
593.684271
 20
1404.849944
 30
0.0
  0
VERTEX
  5
435
100
AcDbEntity
  8
図
  6
CONTINUOUS
 62
     6
100
AcDbVertex
100
AcDb2dVertex
 10
592.628421
 20
1405.046246
 30
0.0
  0
VERTEX
  5
436
100
AcDbEntity
  8
図
  6
CONTINUOUS
 62
     6
100
AcDbVertex
100
AcDb2dVertex
 10
591.513642
 20
1405.188911
 30
0.0
  0
VERTEX
  5
437
100
AcDbEntity
  8
図
  6
CONTINUOUS
 62
     6
100
AcDbVertex
100
AcDb2dVertex
 10
590.359005
 20
1405.2755
 30
0.0
  0
VERTEX
  5
438
100
AcDbEntity
  8
図
  6
CONTINUOUS
 62
     6
100
AcDbVertex
100
AcDb2dVertex
 10
589.184271
 20
1405.304528
 30
0.0
  0
VERTEX
  5
439
100
AcDbEntity
  8
図
  6
CONTINUOUS
 62
     6
100
AcDbVertex
100
AcDb2dVertex
 10
588.009534
 20
1405.2755
 30
0.0
  0
VERTEX
  5
43A
100
AcDbEntity
  8
図
  6
CONTINUOUS
 62
     6
100
AcDbVertex
100
AcDb2dVertex
 10
586.8549
 20
1405.188911
 30
0.0
  0
VERTEX
  5
43B
100
AcDbEntity
  8
図
  6
CONTINUOUS
 62
     6
100
AcDbVertex
100
AcDb2dVertex
 10
585.740118
 20
1405.046246
 30
0.0
  0
VERTEX
  5
43C
100
AcDbEntity
  8
図
  6
CONTINUOUS
 62
     6
100
AcDbVertex
100
AcDb2dVertex
 10
584.684271
 20
1404.849944
 30
0.0
  0
VERTEX
  5
43D
100
AcDbEntity
  8
図
  6
CONTINUOUS
 62
     6
100
AcDbVertex
100
AcDb2dVertex
 10
583.705416
 20
1404.603362
 30
0.0
  0
VERTEX
  5
43E
100
AcDbEntity
  8
図
  6
CONTINUOUS
 62
     6
100
AcDbVertex
100
AcDb2dVertex
 10
582.820308
 20
1404.310721
 30
0.0
  0
VERTEX
  5
43F
100
AcDbEntity
  8
図
  6
CONTINUOUS
 62
     6
100
AcDbVertex
100
AcDb2dVertex
 10
582.044091
 20
1403.977031
 30
0.0
  0
VERTEX
  5
440
100
AcDbEntity
  8
図
  6
CONTINUOUS
 62
     6
100
AcDbVertex
100
AcDb2dVertex
 10
581.39004
 20
1403.607995
 30
0.0
  0
VERTEX
  5
441
100
AcDbEntity
  8
図
  6
CONTINUOUS
 62
     6
100
AcDbVertex
100
AcDb2dVertex
 10
580.869354
 20
1403.209934
 30
0.0
  0
VERTEX
  5
442
100
AcDbEntity
  8
図
  6
CONTINUOUS
 62
     6
100
AcDbVertex
100
AcDb2dVertex
 10
580.490937
 20
1402.789655
 30
0.0
  0
VERTEX
  5
443
100
AcDbEntity
  8
図
  6
CONTINUOUS
 62
     6
100
AcDbVertex
100
AcDb2dVertex
 10
580.261266
 20
1402.354349
 30
0.0
  0
VERTEX
  5
444
100
AcDbEntity
  8
図
  6
CONTINUOUS
 62
     6
100
AcDbVertex
100
AcDb2dVertex
 10
580.184271
 20
1401.911465
 30
0.0
  0
SEQEND
  5
445
100
AcDbEntity
  8
図
  6
CONTINUOUS
 62
     6
  0
POLYLINE
  5
446
100
AcDbEntity
  8
図
  6
CONTINUOUS
 62
     6
100
AcDb2dPolyline
 66
     1
 10
0.0
 20
0.0
 30
0.0
 70
   128
  0
VERTEX
  5
447
100
AcDbEntity
  8
図
  6
CONTINUOUS
 62
     6
100
AcDbVertex
100
AcDb2dVertex
 10
598.184271
 20
1401.441617
 30
0.0
  0
VERTEX
  5
448
100
AcDbEntity
  8
図
  6
CONTINUOUS
 62
     6
100
AcDbVertex
100
AcDb2dVertex
 10
598.107273
 20
1401.884501
 30
0.0
  0
VERTEX
  5
449
100
AcDbEntity
  8
図
  6
CONTINUOUS
 62
     6
100
AcDbVertex
100
AcDb2dVertex
 10
597.877602
 20
1402.319807
 30
0.0
  0
VERTEX
  5
44A
100
AcDbEntity
  8
図
  6
CONTINUOUS
 62
     6
100
AcDbVertex
100
AcDb2dVertex
 10
597.499185
 20
1402.740086
 30
0.0
  0
VERTEX
  5
44B
100
AcDbEntity
  8
図
  6
CONTINUOUS
 62
     6
100
AcDbVertex
100
AcDb2dVertex
 10
596.978499
 20
1403.13815
 30
0.0
  0
VERTEX
  5
44C
100
AcDbEntity
  8
図
  6
CONTINUOUS
 62
     6
100
AcDbVertex
100
AcDb2dVertex
 10
596.324451
 20
1403.507183
 30
0.0
  0
VERTEX
  5
44D
100
AcDbEntity
  8
図
  6
CONTINUOUS
 62
     6
100
AcDbVertex
100
AcDb2dVertex
 10
595.548231
 20
1403.840876
 30
0.0
  0
VERTEX
  5
44E
100
AcDbEntity
  8
図
  6
CONTINUOUS
 62
     6
100
AcDbVertex
100
AcDb2dVertex
 10
594.663123
 20
1404.133517
 30
0.0
  0
VERTEX
  5
44F
100
AcDbEntity
  8
図
  6
CONTINUOUS
 62
     6
100
AcDbVertex
100
AcDb2dVertex
 10
593.684271
 20
1404.380096
 30
0.0
  0
VERTEX
  5
450
100
AcDbEntity
  8
図
  6
CONTINUOUS
 62
     6
100
AcDbVertex
100
AcDb2dVertex
 10
592.628421
 20
1404.576401
 30
0.0
  0
VERTEX
  5
451
100
AcDbEntity
  8
図
  6
CONTINUOUS
 62
     6
100
AcDbVertex
100
AcDb2dVertex
 10
591.513642
 20
1404.719066
 30
0.0
  0
VERTEX
  5
452
100
AcDbEntity
  8
図
  6
CONTINUOUS
 62
     6
100
AcDbVertex
100
AcDb2dVertex
 10
590.359005
 20
1404.805652
 30
0.0
  0
VERTEX
  5
453
100
AcDbEntity
  8
図
  6
CONTINUOUS
 62
     6
100
AcDbVertex
100
AcDb2dVertex
 10
589.184271
 20
1404.83468
 30
0.0
  0
VERTEX
  5
454
100
AcDbEntity
  8
図
  6
CONTINUOUS
 62
     6
100
AcDbVertex
100
AcDb2dVertex
 10
588.009534
 20
1404.805652
 30
0.0
  0
VERTEX
  5
455
100
AcDbEntity
  8
図
  6
CONTINUOUS
 62
     6
100
AcDbVertex
100
AcDb2dVertex
 10
586.8549
 20
1404.719066
 30
0.0
  0
VERTEX
  5
456
100
AcDbEntity
  8
図
  6
CONTINUOUS
 62
     6
100
AcDbVertex
100
AcDb2dVertex
 10
585.740118
 20
1404.576401
 30
0.0
  0
VERTEX
  5
457
100
AcDbEntity
  8
図
  6
CONTINUOUS
 62
     6
100
AcDbVertex
100
AcDb2dVertex
 10
584.684271
 20
1404.380096
 30
0.0
  0
VERTEX
  5
458
100
AcDbEntity
  8
図
  6
CONTINUOUS
 62
     6
100
AcDbVertex
100
AcDb2dVertex
 10
583.705416
 20
1404.133517
 30
0.0
  0
VERTEX
  5
459
100
AcDbEntity
  8
図
  6
CONTINUOUS
 62
     6
100
AcDbVertex
100
AcDb2dVertex
 10
582.820308
 20
1403.840876
 30
0.0
  0
VERTEX
  5
45A
100
AcDbEntity
  8
図
  6
CONTINUOUS
 62
     6
100
AcDbVertex
100
AcDb2dVertex
 10
582.044091
 20
1403.507183
 30
0.0
  0
VERTEX
  5
45B
100
AcDbEntity
  8
図
  6
CONTINUOUS
 62
     6
100
AcDbVertex
100
AcDb2dVertex
 10
581.39004
 20
1403.13815
 30
0.0
  0
VERTEX
  5
45C
100
AcDbEntity
  8
図
  6
CONTINUOUS
 62
     6
100
AcDbVertex
100
AcDb2dVertex
 10
580.869354
 20
1402.740086
 30
0.0
  0
VERTEX
  5
45D
100
AcDbEntity
  8
図
  6
CONTINUOUS
 62
     6
100
AcDbVertex
100
AcDb2dVertex
 10
580.490937
 20
1402.319807
 30
0.0
  0
VERTEX
  5
45E
100
AcDbEntity
  8
図
  6
CONTINUOUS
 62
     6
100
AcDbVertex
100
AcDb2dVertex
 10
580.261266
 20
1401.884501
 30
0.0
  0
VERTEX
  5
45F
100
AcDbEntity
  8
図
  6
CONTINUOUS
 62
     6
100
AcDbVertex
100
AcDb2dVertex
 10
580.184271
 20
1401.441617
 30
0.0
  0
SEQEND
  5
460
100
AcDbEntity
  8
図
  6
CONTINUOUS
 62
     6
  0
POLYLINE
  5
461
100
AcDbEntity
  8
図
  6
CONTINUOUS
 62
     6
100
AcDb2dPolyline
 66
     1
 10
0.0
 20
0.0
 30
0.0
 70
   128
  0
VERTEX
  5
462
100
AcDbEntity
  8
図
  6
CONTINUOUS
 62
     6
100
AcDbVertex
100
AcDb2dVertex
 10
597.56277
 20
1383.988685
 30
0.0
  0
VERTEX
  5
463
100
AcDbEntity
  8
図
  6
CONTINUOUS
 62
     6
100
AcDbVertex
100
AcDb2dVertex
 10
597.530886
 20
1384.263989
 30
0.0
  0
VERTEX
  5
464
100
AcDbEntity
  8
図
  6
CONTINUOUS
 62
     6
100
AcDbVertex
100
AcDb2dVertex
 10
597.43548
 20
1384.537196
 30
0.0
  0
VERTEX
  5
465
100
AcDbEntity
  8
図
  6
CONTINUOUS
 62
     6
100
AcDbVertex
100
AcDb2dVertex
 10
597.277278
 20
1384.80623
 30
0.0
  0
VERTEX
  5
466
100
AcDbEntity
  8
図
  6
CONTINUOUS
 62
     6
100
AcDbVertex
100
AcDb2dVertex
 10
597.057483
 20
1385.069042
 30
0.0
  0
VERTEX
  5
467
100
AcDbEntity
  8
図
  6
CONTINUOUS
 62
     6
100
AcDbVertex
100
AcDb2dVertex
 10
596.777769
 20
1385.323631
 30
0.0
  0
VERTEX
  5
468
100
AcDbEntity
  8
図
  6
CONTINUOUS
 62
     6
100
AcDbVertex
100
AcDb2dVertex
 10
596.440263
 20
1385.568062
 30
0.0
  0
VERTEX
  5
469
100
AcDbEntity
  8
図
  6
CONTINUOUS
 62
     6
100
AcDbVertex
100
AcDb2dVertex
 10
596.047536
 20
1385.800472
 30
0.0
  0
VERTEX
  5
46A
100
AcDbEntity
  8
図
  6
CONTINUOUS
 62
     6
100
AcDbVertex
100
AcDb2dVertex
 10
595.602573
 20
1386.019091
 30
0.0
  0
VERTEX
  5
46B
100
AcDbEntity
  8
図
  6
CONTINUOUS
 62
     6
100
AcDbVertex
100
AcDb2dVertex
 10
595.108764
 20
1386.22226
 30
0.0
  0
VERTEX
  5
46C
100
AcDbEntity
  8
図
  6
CONTINUOUS
 62
     6
100
AcDbVertex
100
AcDb2dVertex
 10
594.569865
 20
1386.408431
 30
0.0
  0
VERTEX
  5
46D
100
AcDbEntity
  8
図
  6
CONTINUOUS
 62
     6
100
AcDbVertex
100
AcDb2dVertex
 10
593.98998
 20
1386.576185
 30
0.0
  0
VERTEX
  5
46E
100
AcDbEntity
  8
図
  6
CONTINUOUS
 62
     6
100
AcDbVertex
100
AcDb2dVertex
 10
593.373519
 20
1386.724244
 30
0.0
  0
VERTEX
  5
46F
100
AcDbEntity
  8
図
  6
CONTINUOUS
 62
     6
100
AcDbVertex
100
AcDb2dVertex
 10
592.725177
 20
1386.851486
 30
0.0
  0
VERTEX
  5
470
100
AcDbEntity
  8
図
  6
CONTINUOUS
 62
     6
100
AcDbVertex
100
AcDb2dVertex
 10
592.049886
 20
1386.956942
 30
0.0
  0
VERTEX
  5
471
100
AcDbEntity
  8
図
  6
CONTINUOUS
 62
     6
100
AcDbVertex
100
AcDb2dVertex
 10
591.352785
 20
1387.039805
 30
0.0
  0
VERTEX
  5
472
100
AcDbEntity
  8
図
  6
CONTINUOUS
 62
     6
100
AcDbVertex
100
AcDb2dVertex
 10
590.639181
 20
1387.099448
 30
0.0
  0
VERTEX
  5
473
100
AcDbEntity
  8
図
  6
CONTINUOUS
 62
     6
100
AcDbVertex
100
AcDb2dVertex
 10
589.914504
 20
1387.135418
 30
0.0
  0
VERTEX
  5
474
100
AcDbEntity
  8
図
  6
CONTINUOUS
 62
     6
100
AcDbVertex
100
AcDb2dVertex
 10
589.184271
 20
1387.147439
 30
0.0
  0
VERTEX
  5
475
100
AcDbEntity
  8
図
  6
CONTINUOUS
 62
     6
100
AcDbVertex
100
AcDb2dVertex
 10
588.454035
 20
1387.135418
 30
0.0
  0
VERTEX
  5
476
100
AcDbEntity
  8
図
  6
CONTINUOUS
 62
     6
100
AcDbVertex
100
AcDb2dVertex
 10
587.729358
 20
1387.099448
 30
0.0
  0
VERTEX
  5
477
100
AcDbEntity
  8
図
  6
CONTINUOUS
 62
     6
100
AcDbVertex
100
AcDb2dVertex
 10
587.015754
 20
1387.039805
 30
0.0
  0
VERTEX
  5
478
100
AcDbEntity
  8
図
  6
CONTINUOUS
 62
     6
100
AcDbVertex
100
AcDb2dVertex
 10
586.318653
 20
1386.956942
 30
0.0
  0
VERTEX
  5
479
100
AcDbEntity
  8
図
  6
CONTINUOUS
 62
     6
100
AcDbVertex
100
AcDb2dVertex
 10
585.643362
 20
1386.851486
 30
0.0
  0
VERTEX
  5
47A
100
AcDbEntity
  8
図
  6
CONTINUOUS
 62
     6
100
AcDbVertex
100
AcDb2dVertex
 10
584.99502
 20
1386.724244
 30
0.0
  0
VERTEX
  5
47B
100
AcDbEntity
  8
図
  6
CONTINUOUS
 62
     6
100
AcDbVertex
100
AcDb2dVertex
 10
584.378559
 20
1386.576185
 30
0.0
  0
VERTEX
  5
47C
100
AcDbEntity
  8
図
  6
CONTINUOUS
 62
     6
100
AcDbVertex
100
AcDb2dVertex
 10
583.798674
 20
1386.408431
 30
0.0
  0
VERTEX
  5
47D
100
AcDbEntity
  8
図
  6
CONTINUOUS
 62
     6
100
AcDbVertex
100
AcDb2dVertex
 10
583.259775
 20
1386.22226
 30
0.0
  0
VERTEX
  5
47E
100
AcDbEntity
  8
図
  6
CONTINUOUS
 62
     6
100
AcDbVertex
100
AcDb2dVertex
 10
582.765966
 20
1386.019091
 30
0.0
  0
VERTEX
  5
47F
100
AcDbEntity
  8
図
  6
CONTINUOUS
 62
     6
100
AcDbVertex
100
AcDb2dVertex
 10
582.321006
 20
1385.800472
 30
0.0
  0
VERTEX
  5
480
100
AcDbEntity
  8
図
  6
CONTINUOUS
 62
     6
100
AcDbVertex
100
AcDb2dVertex
 10
581.928276
 20
1385.568062
 30
0.0
  0
VERTEX
  5
481
100
AcDbEntity
  8
図
  6
CONTINUOUS
 62
     6
100
AcDbVertex
100
AcDb2dVertex
 10
581.59077
 20
1385.323631
 30
0.0
  0
VERTEX
  5
482
100
AcDbEntity
  8
図
  6
CONTINUOUS
 62
     6
100
AcDbVertex
100
AcDb2dVertex
 10
581.311056
 20
1385.069042
 30
0.0
  0
VERTEX
  5
483
100
AcDbEntity
  8
図
  6
CONTINUOUS
 62
     6
100
AcDbVertex
100
AcDb2dVertex
 10
581.091261
 20
1384.80623
 30
0.0
  0
VERTEX
  5
484
100
AcDbEntity
  8
図
  6
CONTINUOUS
 62
     6
100
AcDbVertex
100
AcDb2dVertex
 10
580.933059
 20
1384.537196
 30
0.0
  0
VERTEX
  5
485
100
AcDbEntity
  8
図
  6
CONTINUOUS
 62
     6
100
AcDbVertex
100
AcDb2dVertex
 10
580.837653
 20
1384.263989
 30
0.0
  0
VERTEX
  5
486
100
AcDbEntity
  8
図
  6
CONTINUOUS
 62
     6
100
AcDbVertex
100
AcDb2dVertex
 10
580.805769
 20
1383.988685
 30
0.0
  0
VERTEX
  5
487
100
AcDbEntity
  8
図
  6
CONTINUOUS
 62
     6
100
AcDbVertex
100
AcDb2dVertex
 10
580.837653
 20
1383.713381
 30
0.0
  0
VERTEX
  5
488
100
AcDbEntity
  8
図
  6
CONTINUOUS
 62
     6
100
AcDbVertex
100
AcDb2dVertex
 10
580.933059
 20
1383.440174
 30
0.0
  0
VERTEX
  5
489
100
AcDbEntity
  8
図
  6
CONTINUOUS
 62
     6
100
AcDbVertex
100
AcDb2dVertex
 10
581.091261
 20
1383.17114
 30
0.0
  0
VERTEX
  5
48A
100
AcDbEntity
  8
図
  6
CONTINUOUS
 62
     6
100
AcDbVertex
100
AcDb2dVertex
 10
581.311056
 20
1382.908328
 30
0.0
  0
VERTEX
  5
48B
100
AcDbEntity
  8
図
  6
CONTINUOUS
 62
     6
100
AcDbVertex
100
AcDb2dVertex
 10
581.59077
 20
1382.653739
 30
0.0
  0
VERTEX
  5
48C
100
AcDbEntity
  8
図
  6
CONTINUOUS
 62
     6
100
AcDbVertex
100
AcDb2dVertex
 10
581.928276
 20
1382.409308
 30
0.0
  0
VERTEX
  5
48D
100
AcDbEntity
  8
図
  6
CONTINUOUS
 62
     6
100
AcDbVertex
100
AcDb2dVertex
 10
582.321006
 20
1382.176898
 30
0.0
  0
VERTEX
  5
48E
100
AcDbEntity
  8
図
  6
CONTINUOUS
 62
     6
100
AcDbVertex
100
AcDb2dVertex
 10
582.765966
 20
1381.958279
 30
0.0
  0
VERTEX
  5
48F
100
AcDbEntity
  8
図
  6
CONTINUOUS
 62
     6
100
AcDbVertex
100
AcDb2dVertex
 10
583.259775
 20
1381.75511
 30
0.0
  0
VERTEX
  5
490
100
AcDbEntity
  8
図
  6
CONTINUOUS
 62
     6
100
AcDbVertex
100
AcDb2dVertex
 10
583.798674
 20
1381.568939
 30
0.0
  0
VERTEX
  5
491
100
AcDbEntity
  8
図
  6
CONTINUOUS
 62
     6
100
AcDbVertex
100
AcDb2dVertex
 10
584.378559
 20
1381.401185
 30
0.0
  0
VERTEX
  5
492
100
AcDbEntity
  8
図
  6
CONTINUOUS
 62
     6
100
AcDbVertex
100
AcDb2dVertex
 10
584.99502
 20
1381.253126
 30
0.0
  0
VERTEX
  5
493
100
AcDbEntity
  8
図
  6
CONTINUOUS
 62
     6
100
AcDbVertex
100
AcDb2dVertex
 10
585.643362
 20
1381.125884
 30
0.0
  0
VERTEX
  5
494
100
AcDbEntity
  8
図
  6
CONTINUOUS
 62
     6
100
AcDbVertex
100
AcDb2dVertex
 10
586.318653
 20
1381.020428
 30
0.0
  0
VERTEX
  5
495
100
AcDbEntity
  8
図
  6
CONTINUOUS
 62
     6
100
AcDbVertex
100
AcDb2dVertex
 10
587.015754
 20
1380.937565
 30
0.0
  0
VERTEX
  5
496
100
AcDbEntity
  8
図
  6
CONTINUOUS
 62
     6
100
AcDbVertex
100
AcDb2dVertex
 10
587.729358
 20
1380.877922
 30
0.0
  0
VERTEX
  5
497
100
AcDbEntity
  8
図
  6
CONTINUOUS
 62
     6
100
AcDbVertex
100
AcDb2dVertex
 10
588.454035
 20
1380.841952
 30
0.0
  0
VERTEX
  5
498
100
AcDbEntity
  8
図
  6
CONTINUOUS
 62
     6
100
AcDbVertex
100
AcDb2dVertex
 10
589.184271
 20
1380.829931
 30
0.0
  0
VERTEX
  5
499
100
AcDbEntity
  8
図
  6
CONTINUOUS
 62
     6
100
AcDbVertex
100
AcDb2dVertex
 10
589.914504
 20
1380.841952
 30
0.0
  0
VERTEX
  5
49A
100
AcDbEntity
  8
図
  6
CONTINUOUS
 62
     6
100
AcDbVertex
100
AcDb2dVertex
 10
590.639181
 20
1380.877922
 30
0.0
  0
VERTEX
  5
49B
100
AcDbEntity
  8
図
  6
CONTINUOUS
 62
     6
100
AcDbVertex
100
AcDb2dVertex
 10
591.352785
 20
1380.937565
 30
0.0
  0
VERTEX
  5
49C
100
AcDbEntity
  8
図
  6
CONTINUOUS
 62
     6
100
AcDbVertex
100
AcDb2dVertex
 10
592.049886
 20
1381.020428
 30
0.0
  0
VERTEX
  5
49D
100
AcDbEntity
  8
図
  6
CONTINUOUS
 62
     6
100
AcDbVertex
100
AcDb2dVertex
 10
592.725177
 20
1381.125884
 30
0.0
  0
VERTEX
  5
49E
100
AcDbEntity
  8
図
  6
CONTINUOUS
 62
     6
100
AcDbVertex
100
AcDb2dVertex
 10
593.373519
 20
1381.253126
 30
0.0
  0
VERTEX
  5
49F
100
AcDbEntity
  8
図
  6
CONTINUOUS
 62
     6
100
AcDbVertex
100
AcDb2dVertex
 10
593.98998
 20
1381.401185
 30
0.0
  0
VERTEX
  5
4A0
100
AcDbEntity
  8
図
  6
CONTINUOUS
 62
     6
100
AcDbVertex
100
AcDb2dVertex
 10
594.569865
 20
1381.568939
 30
0.0
  0
VERTEX
  5
4A1
100
AcDbEntity
  8
図
  6
CONTINUOUS
 62
     6
100
AcDbVertex
100
AcDb2dVertex
 10
595.108764
 20
1381.75511
 30
0.0
  0
VERTEX
  5
4A2
100
AcDbEntity
  8
図
  6
CONTINUOUS
 62
     6
100
AcDbVertex
100
AcDb2dVertex
 10
595.602573
 20
1381.958279
 30
0.0
  0
VERTEX
  5
4A3
100
AcDbEntity
  8
図
  6
CONTINUOUS
 62
     6
100
AcDbVertex
100
AcDb2dVertex
 10
596.047536
 20
1382.176898
 30
0.0
  0
VERTEX
  5
4A4
100
AcDbEntity
  8
図
  6
CONTINUOUS
 62
     6
100
AcDbVertex
100
AcDb2dVertex
 10
596.440263
 20
1382.409308
 30
0.0
  0
VERTEX
  5
4A5
100
AcDbEntity
  8
図
  6
CONTINUOUS
 62
     6
100
AcDbVertex
100
AcDb2dVertex
 10
596.777769
 20
1382.653739
 30
0.0
  0
VERTEX
  5
4A6
100
AcDbEntity
  8
図
  6
CONTINUOUS
 62
     6
100
AcDbVertex
100
AcDb2dVertex
 10
597.057483
 20
1382.908328
 30
0.0
  0
VERTEX
  5
4A7
100
AcDbEntity
  8
図
  6
CONTINUOUS
 62
     6
100
AcDbVertex
100
AcDb2dVertex
 10
597.277278
 20
1383.17114
 30
0.0
  0
VERTEX
  5
4A8
100
AcDbEntity
  8
図
  6
CONTINUOUS
 62
     6
100
AcDbVertex
100
AcDb2dVertex
 10
597.43548
 20
1383.440174
 30
0.0
  0
VERTEX
  5
4A9
100
AcDbEntity
  8
図
  6
CONTINUOUS
 62
     6
100
AcDbVertex
100
AcDb2dVertex
 10
597.530886
 20
1383.713381
 30
0.0
  0
VERTEX
  5
4AA
100
AcDbEntity
  8
図
  6
CONTINUOUS
 62
     6
100
AcDbVertex
100
AcDb2dVertex
 10
597.56277
 20
1383.988685
 30
0.0
  0
SEQEND
  5
4AB
100
AcDbEntity
  8
図
  6
CONTINUOUS
 62
     6
  0
POLYLINE
  5
4AC
100
AcDbEntity
  8
図
  6
CONTINUOUS
 62
     6
100
AcDb2dPolyline
 66
     1
 10
0.0
 20
0.0
 30
0.0
 70
   128
  0
VERTEX
  5
4AD
100
AcDbEntity
  8
図
  6
CONTINUOUS
 62
     6
100
AcDbVertex
100
AcDb2dVertex
 10
598.184271
 20
1383.988685
 30
0.0
  0
VERTEX
  5
4AE
100
AcDbEntity
  8
図
  6
CONTINUOUS
 62
     6
100
AcDbVertex
100
AcDb2dVertex
 10
598.150023
 20
1384.28441
 30
0.0
  0
VERTEX
  5
4AF
100
AcDbEntity
  8
図
  6
CONTINUOUS
 62
     6
100
AcDbVertex
100
AcDb2dVertex
 10
598.04754
 20
1384.577885
 30
0.0
  0
VERTEX
  5
4B0
100
AcDbEntity
  8
図
  6
CONTINUOUS
 62
     6
100
AcDbVertex
100
AcDb2dVertex
 10
597.877602
 20
1384.866875
 30
0.0
  0
VERTEX
  5
4B1
100
AcDbEntity
  8
図
  6
CONTINUOUS
 62
     6
100
AcDbVertex
100
AcDb2dVertex
 10
597.641505
 20
1385.149181
 30
0.0
  0
VERTEX
  5
4B2
100
AcDbEntity
  8
図
  6
CONTINUOUS
 62
     6
100
AcDbVertex
100
AcDb2dVertex
 10
597.34104
 20
1385.422655
 30
0.0
  0
VERTEX
  5
4B3
100
AcDbEntity
  8
図
  6
CONTINUOUS
 62
     6
100
AcDbVertex
100
AcDb2dVertex
 10
596.978499
 20
1385.685218
 30
0.0
  0
VERTEX
  5
4B4
100
AcDbEntity
  8
図
  6
CONTINUOUS
 62
     6
100
AcDbVertex
100
AcDb2dVertex
 10
596.556639
 20
1385.934866
 30
0.0
  0
VERTEX
  5
4B5
100
AcDbEntity
  8
図
  6
CONTINUOUS
 62
     6
100
AcDbVertex
100
AcDb2dVertex
 10
596.07867
 20
1386.169703
 30
0.0
  0
VERTEX
  5
4B6
100
AcDbEntity
  8
図
  6
CONTINUOUS
 62
     6
100
AcDbVertex
100
AcDb2dVertex
 10
595.548231
 20
1386.387944
 30
0.0
  0
VERTEX
  5
4B7
100
AcDbEntity
  8
図
  6
CONTINUOUS
 62
     6
100
AcDbVertex
100
AcDb2dVertex
 10
594.969357
 20
1386.587921
 30
0.0
  0
VERTEX
  5
4B8
100
AcDbEntity
  8
図
  6
CONTINUOUS
 62
     6
100
AcDbVertex
100
AcDb2dVertex
 10
594.346458
 20
1386.768119
 30
0.0
  0
VERTEX
  5
4B9
100
AcDbEntity
  8
図
  6
CONTINUOUS
 62
     6
100
AcDbVertex
100
AcDb2dVertex
 10
593.684271
 20
1386.927164
 30
0.0
  0
VERTEX
  5
4BA
100
AcDbEntity
  8
図
  6
CONTINUOUS
 62
     6
100
AcDbVertex
100
AcDb2dVertex
 10
592.987833
 20
1387.063844
 30
0.0
  0
VERTEX
  5
4BB
100
AcDbEntity
  8
図
  6
CONTINUOUS
 62
     6
100
AcDbVertex
100
AcDb2dVertex
 10
592.262451
 20
1387.177121
 30
0.0
  0
VERTEX
  5
4BC
100
AcDbEntity
  8
図
  6
CONTINUOUS
 62
     6
100
AcDbVertex
100
AcDb2dVertex
 10
591.513642
 20
1387.266131
 30
0.0
  0
VERTEX
  5
4BD
100
AcDbEntity
  8
図
  6
CONTINUOUS
 62
     6
100
AcDbVertex
100
AcDb2dVertex
 10
590.747103
 20
1387.330199
 30
0.0
  0
VERTEX
  5
4BE
100
AcDbEntity
  8
図
  6
CONTINUOUS
 62
     6
100
AcDbVertex
100
AcDb2dVertex
 10
589.968672
 20
1387.368836
 30
0.0
  0
VERTEX
  5
4BF
100
AcDbEntity
  8
図
  6
CONTINUOUS
 62
     6
100
AcDbVertex
100
AcDb2dVertex
 10
589.184271
 20
1387.381748
 30
0.0
  0
VERTEX
  5
4C0
100
AcDbEntity
  8
図
  6
CONTINUOUS
 62
     6
100
AcDbVertex
100
AcDb2dVertex
 10
588.399867
 20
1387.368836
 30
0.0
  0
VERTEX
  5
4C1
100
AcDbEntity
  8
図
  6
CONTINUOUS
 62
     6
100
AcDbVertex
100
AcDb2dVertex
 10
587.621436
 20
1387.330199
 30
0.0
  0
VERTEX
  5
4C2
100
AcDbEntity
  8
図
  6
CONTINUOUS
 62
     6
100
AcDbVertex
100
AcDb2dVertex
 10
586.8549
 20
1387.266131
 30
0.0
  0
VERTEX
  5
4C3
100
AcDbEntity
  8
図
  6
CONTINUOUS
 62
     6
100
AcDbVertex
100
AcDb2dVertex
 10
586.106088
 20
1387.177121
 30
0.0
  0
VERTEX
  5
4C4
100
AcDbEntity
  8
図
  6
CONTINUOUS
 62
     6
100
AcDbVertex
100
AcDb2dVertex
 10
585.380706
 20
1387.063844
 30
0.0
  0
VERTEX
  5
4C5
100
AcDbEntity
  8
図
  6
CONTINUOUS
 62
     6
100
AcDbVertex
100
AcDb2dVertex
 10
584.684271
 20
1386.927164
 30
0.0
  0
VERTEX
  5
4C6
100
AcDbEntity
  8
図
  6
CONTINUOUS
 62
     6
100
AcDbVertex
100
AcDb2dVertex
 10
584.022081
 20
1386.768119
 30
0.0
  0
VERTEX
  5
4C7
100
AcDbEntity
  8
図
  6
CONTINUOUS
 62
     6
100
AcDbVertex
100
AcDb2dVertex
 10
583.399182
 20
1386.587921
 30
0.0
  0
VERTEX
  5
4C8
100
AcDbEntity
  8
図
  6
CONTINUOUS
 62
     6
100
AcDbVertex
100
AcDb2dVertex
 10
582.820308
 20
1386.387944
 30
0.0
  0
VERTEX
  5
4C9
100
AcDbEntity
  8
図
  6
CONTINUOUS
 62
     6
100
AcDbVertex
100
AcDb2dVertex
 10
582.289869
 20
1386.169703
 30
0.0
  0
VERTEX
  5
4CA
100
AcDbEntity
  8
図
  6
CONTINUOUS
 62
     6
100
AcDbVertex
100
AcDb2dVertex
 10
581.811903
 20
1385.934866
 30
0.0
  0
VERTEX
  5
4CB
100
AcDbEntity
  8
図
  6
CONTINUOUS
 62
     6
100
AcDbVertex
100
AcDb2dVertex
 10
581.39004
 20
1385.685218
 30
0.0
  0
VERTEX
  5
4CC
100
AcDbEntity
  8
図
  6
CONTINUOUS
 62
     6
100
AcDbVertex
100
AcDb2dVertex
 10
581.027499
 20
1385.422655
 30
0.0
  0
VERTEX
  5
4CD
100
AcDbEntity
  8
図
  6
CONTINUOUS
 62
     6
100
AcDbVertex
100
AcDb2dVertex
 10
580.727037
 20
1385.149181
 30
0.0
  0
VERTEX
  5
4CE
100
AcDbEntity
  8
図
  6
CONTINUOUS
 62
     6
100
AcDbVertex
100
AcDb2dVertex
 10
580.490937
 20
1384.866875
 30
0.0
  0
VERTEX
  5
4CF
100
AcDbEntity
  8
図
  6
CONTINUOUS
 62
     6
100
AcDbVertex
100
AcDb2dVertex
 10
580.320999
 20
1384.577885
 30
0.0
  0
VERTEX
  5
4D0
100
AcDbEntity
  8
図
  6
CONTINUOUS
 62
     6
100
AcDbVertex
100
AcDb2dVertex
 10
580.218519
 20
1384.28441
 30
0.0
  0
VERTEX
  5
4D1
100
AcDbEntity
  8
図
  6
CONTINUOUS
 62
     6
100
AcDbVertex
100
AcDb2dVertex
 10
580.184271
 20
1383.988685
 30
0.0
  0
VERTEX
  5
4D2
100
AcDbEntity
  8
図
  6
CONTINUOUS
 62
     6
100
AcDbVertex
100
AcDb2dVertex
 10
580.218519
 20
1383.69296
 30
0.0
  0
VERTEX
  5
4D3
100
AcDbEntity
  8
図
  6
CONTINUOUS
 62
     6
100
AcDbVertex
100
AcDb2dVertex
 10
580.320999
 20
1383.399485
 30
0.0
  0
VERTEX
  5
4D4
100
AcDbEntity
  8
図
  6
CONTINUOUS
 62
     6
100
AcDbVertex
100
AcDb2dVertex
 10
580.490937
 20
1383.110495
 30
0.0
  0
VERTEX
  5
4D5
100
AcDbEntity
  8
図
  6
CONTINUOUS
 62
     6
100
AcDbVertex
100
AcDb2dVertex
 10
580.727037
 20
1382.828189
 30
0.0
  0
VERTEX
  5
4D6
100
AcDbEntity
  8
図
  6
CONTINUOUS
 62
     6
100
AcDbVertex
100
AcDb2dVertex
 10
581.027499
 20
1382.554715
 30
0.0
  0
VERTEX
  5
4D7
100
AcDbEntity
  8
図
  6
CONTINUOUS
 62
     6
100
AcDbVertex
100
AcDb2dVertex
 10
581.39004
 20
1382.292155
 30
0.0
  0
VERTEX
  5
4D8
100
AcDbEntity
  8
図
  6
CONTINUOUS
 62
     6
100
AcDbVertex
100
AcDb2dVertex
 10
581.811903
 20
1382.042504
 30
0.0
  0
VERTEX
  5
4D9
100
AcDbEntity
  8
図
  6
CONTINUOUS
 62
     6
100
AcDbVertex
100
AcDb2dVertex
 10
582.289869
 20
1381.807667
 30
0.0
  0
VERTEX
  5
4DA
100
AcDbEntity
  8
図
  6
CONTINUOUS
 62
     6
100
AcDbVertex
100
AcDb2dVertex
 10
582.820308
 20
1381.589426
 30
0.0
  0
VERTEX
  5
4DB
100
AcDbEntity
  8
図
  6
CONTINUOUS
 62
     6
100
AcDbVertex
100
AcDb2dVertex
 10
583.399182
 20
1381.389449
 30
0.0
  0
VERTEX
  5
4DC
100
AcDbEntity
  8
図
  6
CONTINUOUS
 62
     6
100
AcDbVertex
100
AcDb2dVertex
 10
584.022081
 20
1381.209251
 30
0.0
  0
VERTEX
  5
4DD
100
AcDbEntity
  8
図
  6
CONTINUOUS
 62
     6
100
AcDbVertex
100
AcDb2dVertex
 10
584.684271
 20
1381.050206
 30
0.0
  0
VERTEX
  5
4DE
100
AcDbEntity
  8
図
  6
CONTINUOUS
 62
     6
100
AcDbVertex
100
AcDb2dVertex
 10
585.380706
 20
1380.913526
 30
0.0
  0
VERTEX
  5
4DF
100
AcDbEntity
  8
図
  6
CONTINUOUS
 62
     6
100
AcDbVertex
100
AcDb2dVertex
 10
586.106088
 20
1380.800249
 30
0.0
  0
VERTEX
  5
4E0
100
AcDbEntity
  8
図
  6
CONTINUOUS
 62
     6
100
AcDbVertex
100
AcDb2dVertex
 10
586.8549
 20
1380.711239
 30
0.0
  0
VERTEX
  5
4E1
100
AcDbEntity
  8
図
  6
CONTINUOUS
 62
     6
100
AcDbVertex
100
AcDb2dVertex
 10
587.621436
 20
1380.647171
 30
0.0
  0
VERTEX
  5
4E2
100
AcDbEntity
  8
図
  6
CONTINUOUS
 62
     6
100
AcDbVertex
100
AcDb2dVertex
 10
588.399867
 20
1380.608534
 30
0.0
  0
VERTEX
  5
4E3
100
AcDbEntity
  8
図
  6
CONTINUOUS
 62
     6
100
AcDbVertex
100
AcDb2dVertex
 10
589.184271
 20
1380.595622
 30
0.0
  0
VERTEX
  5
4E4
100
AcDbEntity
  8
図
  6
CONTINUOUS
 62
     6
100
AcDbVertex
100
AcDb2dVertex
 10
589.968672
 20
1380.608534
 30
0.0
  0
VERTEX
  5
4E5
100
AcDbEntity
  8
図
  6
CONTINUOUS
 62
     6
100
AcDbVertex
100
AcDb2dVertex
 10
590.747103
 20
1380.647171
 30
0.0
  0
VERTEX
  5
4E6
100
AcDbEntity
  8
図
  6
CONTINUOUS
 62
     6
100
AcDbVertex
100
AcDb2dVertex
 10
591.513642
 20
1380.711239
 30
0.0
  0
VERTEX
  5
4E7
100
AcDbEntity
  8
図
  6
CONTINUOUS
 62
     6
100
AcDbVertex
100
AcDb2dVertex
 10
592.262451
 20
1380.800249
 30
0.0
  0
VERTEX
  5
4E8
100
AcDbEntity
  8
図
  6
CONTINUOUS
 62
     6
100
AcDbVertex
100
AcDb2dVertex
 10
592.987833
 20
1380.913526
 30
0.0
  0
VERTEX
  5
4E9
100
AcDbEntity
  8
図
  6
CONTINUOUS
 62
     6
100
AcDbVertex
100
AcDb2dVertex
 10
593.684271
 20
1381.050206
 30
0.0
  0
VERTEX
  5
4EA
100
AcDbEntity
  8
図
  6
CONTINUOUS
 62
     6
100
AcDbVertex
100
AcDb2dVertex
 10
594.346458
 20
1381.209251
 30
0.0
  0
VERTEX
  5
4EB
100
AcDbEntity
  8
図
  6
CONTINUOUS
 62
     6
100
AcDbVertex
100
AcDb2dVertex
 10
594.969357
 20
1381.389449
 30
0.0
  0
VERTEX
  5
4EC
100
AcDbEntity
  8
図
  6
CONTINUOUS
 62
     6
100
AcDbVertex
100
AcDb2dVertex
 10
595.548231
 20
1381.589426
 30
0.0
  0
VERTEX
  5
4ED
100
AcDbEntity
  8
図
  6
CONTINUOUS
 62
     6
100
AcDbVertex
100
AcDb2dVertex
 10
596.07867
 20
1381.807667
 30
0.0
  0
VERTEX
  5
4EE
100
AcDbEntity
  8
図
  6
CONTINUOUS
 62
     6
100
AcDbVertex
100
AcDb2dVertex
 10
596.556639
 20
1382.042504
 30
0.0
  0
VERTEX
  5
4EF
100
AcDbEntity
  8
図
  6
CONTINUOUS
 62
     6
100
AcDbVertex
100
AcDb2dVertex
 10
596.978499
 20
1382.292155
 30
0.0
  0
VERTEX
  5
4F0
100
AcDbEntity
  8
図
  6
CONTINUOUS
 62
     6
100
AcDbVertex
100
AcDb2dVertex
 10
597.34104
 20
1382.554715
 30
0.0
  0
VERTEX
  5
4F1
100
AcDbEntity
  8
図
  6
CONTINUOUS
 62
     6
100
AcDbVertex
100
AcDb2dVertex
 10
597.641505
 20
1382.828189
 30
0.0
  0
VERTEX
  5
4F2
100
AcDbEntity
  8
図
  6
CONTINUOUS
 62
     6
100
AcDbVertex
100
AcDb2dVertex
 10
597.877602
 20
1383.110495
 30
0.0
  0
VERTEX
  5
4F3
100
AcDbEntity
  8
図
  6
CONTINUOUS
 62
     6
100
AcDbVertex
100
AcDb2dVertex
 10
598.04754
 20
1383.399485
 30
0.0
  0
VERTEX
  5
4F4
100
AcDbEntity
  8
図
  6
CONTINUOUS
 62
     6
100
AcDbVertex
100
AcDb2dVertex
 10
598.150023
 20
1383.69296
 30
0.0
  0
VERTEX
  5
4F5
100
AcDbEntity
  8
図
  6
CONTINUOUS
 62
     6
100
AcDbVertex
100
AcDb2dVertex
 10
598.184271
 20
1383.988685
 30
0.0
  0
SEQEND
  5
4F6
100
AcDbEntity
  8
図
  6
CONTINUOUS
 62
     6
  0
ARC
  5
4F7
100
AcDbEntity
  8
図
  6
CONTINUOUS
 62
     6
100
AcDbCircle
 10
589.184271
 20
1442.0
 30
0.0
 40
19.5
100
AcDbArc
 50
296.743684
 51
243.256316
  0
LINE
  5
4F8
100
AcDbEntity
  8
図
  6
EXLTYPE3
 62
     6
100
AcDbLine
 10
455.784271
 20
1442.0
 30
0.0
 11
733.0
 21
1442.0
 31
0.0
  0
LINE
  5
4F9
100
AcDbEntity
  8
図
  6
CONTINUOUS
 62
     2
100
AcDbLine
 10
863.006781
 20
1117.0
 30
0.0
 11
877.0
 21
1130.993219
 31
0.0
  0
LINE
  5
4FA
100
AcDbEntity
  8
図
  6
CONTINUOUS
 62
     2
100
AcDbLine
 10
251.784271
 20
1142.0
 30
0.0
 11
877.0
 21
1142.0
 31
0.0
  0
LINE
  5
4FB
100
AcDbEntity
  8
図
  6
CONTINUOUS
 62
     2
100
AcDbLine
 10
251.784271
 20
1117.0
 30
0.0
 11
877.0
 21
1117.0
 31
0.0
  0
LINE
  5
4FC
100
AcDbEntity
  8
図
  6
EXLTYPE3
 62
     1
100
AcDbLine
 10
585.4
 20
2132.5
 30
0.0
 11
585.4
 21
1664.0
 31
0.0
  0
LINE
  5
4FD
100
AcDbEntity
  8
図
  6
EXLTYPE3
 62
     1
100
AcDbLine
 10
353.0
 20
1890.0
 30
0.0
 11
823.0
 21
1890.0
 31
0.0
  0
ARC
  5
4FE
100
AcDbEntity
  8
図
  6
CONTINUOUS
 62
     7
100
AcDbCircle
 10
585.4
 20
1890.0
 30
0.0
 40
210.0
100
AcDbArc
 50
92.456286
 51
107.743841
  0
ARC
  5
4FF
100
AcDbEntity
  8
図
  6
CONTINUOUS
 62
     7
100
AcDbCircle
 10
585.4
 20
1890.0
 30
0.0
 40
210.0
100
AcDbArc
 50
72.25616
 51
87.543714
  0
ARC
  5
500
100
AcDbEntity
  8
図
  6
CONTINUOUS
 62
     7
100
AcDbCircle
 10
585.4
 20
1890.0
 30
0.0
 40
210.0
100
AcDbArc
 50
116.461009
 51
63.538991
  0
ARC
  5
501
100
AcDbEntity
  8
図
  6
CONTINUOUS
 62
     4
100
AcDbCircle
 10
585.4
 20
1890.0
 30
0.0
 40
197.625733
100
AcDbArc
 50
92.610189
 51
87.389811
  0
LEADER
  5
502
100
AcDbEntity
  8
図
  6
CONTINUOUS
 62
     3
100
AcDbLeader
  3
STANDARD
 73
     3
 74
     1
 75
     0
 40
0.0
 76
     3
 10
603.00506
 20
1869.529
 30
0.0
 10
792.405626
 20
1707.20137
 30
0.0
 10
1013.6
 20
1707.20137
 30
0.0
 77
     3
1001
ACAD
1000
DSTYLE
1002
{
1070
    41
1040
30.0
1070
     5
1000
_EX_NORM
1070
     6
1000
_EX_NORM
1070
     7
1000
_EX_NORM
1070
   341
1005
28
1002
}
  0
TEXT
  5
503
100
AcDbEntity
  8
図
  6
CONTINUOUS
 62
     2
100
AcDbText
 10
797.347281
 20
1709.875081
 30
0.0
 40
40.0
  1
化粧キャップ
 41
0.7525
  7
EXCADSTD
 72
     5
 11
1012.347281
 21
1709.875081
 31
0.0
100
AcDbText
  0
CIRCLE
  5
504
100
AcDbEntity
  8
図
  6
CONTINUOUS
 62
     6
100
AcDbCircle
 10
585.4
 20
1890.0
 30
0.0
 40
27.0
  0
CIRCLE
  5
505
100
AcDbEntity
  8
図
  6
CONTINUOUS
 62
     2
100
AcDbCircle
 10
585.4
 20
1890.0
 30
0.0
 40
30.5
  0
LINE
  5
506
100
AcDbEntity
  8
図
  6
CONTINUOUS
 62
     7
100
AcDbLine
 10
937.0
 20
2130.0
 30
0.0
 11
230.0
 21
2130.0
 31
0.0
  0
LINE
  5
507
100
AcDbEntity
  8
図
  6
CONTINUOUS
 62
     6
100
AcDbLine
 10
465.4
 20
2083.399938
 30
0.0
 11
505.399999
 21
2083.399938
 31
0.0
  0
CIRCLE
  5
508
100
AcDbEntity
  8
図
  6
CONTINUOUS
 62
     6
100
AcDbCircle
 10
485.399998
 20
2090.99994
 30
0.0
 40
4.5
  0
LINE
  5
509
100
AcDbEntity
  8
図
  6
CONTINUOUS
 62
     6
100
AcDbLine
 10
449.399998
 20
2095.49994
 30
0.0
 11
465.417457
 21
2095.49994
 31
0.0
  0
ARC
  5
50A
100
AcDbEntity
  8
図
  6
CONTINUOUS
 62
     6
100
AcDbCircle
 10
451.018267
 20
2091.499938
 30
0.0
 40
15.242595
100
AcDbArc
 50
340.651789
 51
358.1202
  0
LINE
  5
50B
100
AcDbEntity
  8
図
  6
CONTINUOUS
 62
     6
100
AcDbLine
 10
465.4
 20
2096.99994
 30
0.0
 11
465.4
 21
2095.549938
 31
0.0
  0
ARC
  5
50C
100
AcDbEntity
  8
図
  6
CONTINUOUS
 62
     6
100
AcDbCircle
 10
451.018267
 20
2090.499939
 30
0.0
 40
15.242595
100
AcDbArc
 50
1.8798
 51
19.348211
  0
LINE
  5
50D
100
AcDbEntity
  8
図
  6
CONTINUOUS
 62
     6
100
AcDbLine
 10
449.399998
 20
2086.49994
 30
0.0
 11
465.417457
 21
2086.49994
 31
0.0
  0
LINE
  5
50E
100
AcDbEntity
  8
図
  6
CONTINUOUS
 62
     6
100
AcDbLine
 10
449.399998
 20
2086.49994
 30
0.0
 11
449.399998
 21
2095.49994
 31
0.0
  0
LINE
  5
50F
100
AcDbEntity
  8
図
  6
CONTINUOUS
 62
     6
100
AcDbLine
 10
465.4
 20
2096.499939
 30
0.0
 11
465.4
 21
2121.499998
 31
0.0
  0
LINE
  5
510
100
AcDbEntity
  8
図
  6
CONTINUOUS
 62
     6
100
AcDbLine
 10
465.4
 20
2086.49994
 30
0.0
 11
465.4
 21
2084.99994
 31
0.0
  0
LINE
  5
511
100
AcDbEntity
  8
図
  6
CONTINUOUS
 62
     6
100
AcDbLine
 10
514.9
 20
2130.0
 30
0.0
 11
515.399998
 21
2129.499999
 31
0.0
  0
LINE
  5
512
100
AcDbEntity
  8
図
  6
CONTINUOUS
 62
     6
100
AcDbLine
 10
455.399998
 20
2129.499999
 30
0.0
 11
455.899999
 21
2130.0
 31
0.0
  0
LINE
  5
513
100
AcDbEntity
  8
図
  6
CONTINUOUS
 62
     6
100
AcDbLine
 10
455.899999
 20
2122.999998
 30
0.0
 11
455.399998
 21
2123.499999
 31
0.0
  0
LINE
  5
514
100
AcDbEntity
  8
図
  6
CONTINUOUS
 62
     6
100
AcDbLine
 10
514.9
 20
2122.999998
 30
0.0
 11
515.399998
 21
2123.499999
 31
0.0
  0
LINE
  5
515
100
AcDbEntity
  8
図
  6
CONTINUOUS
 62
     6
100
AcDbLine
 10
515.399998
 20
2129.499999
 30
0.0
 11
515.399998
 21
2123.499999
 31
0.0
  0
LINE
  5
516
100
AcDbEntity
  8
図
  6
CONTINUOUS
 62
     6
100
AcDbLine
 10
455.399998
 20
2129.499999
 30
0.0
 11
455.399998
 21
2123.499999
 31
0.0
  0
LINE
  5
517
100
AcDbEntity
  8
図
  6
CONTINUOUS
 62
     6
100
AcDbLine
 10
465.4
 20
2077.999938
 30
0.0
 11
465.4
 21
2084.99994
 31
0.0
  0
LINE
  5
518
100
AcDbEntity
  8
図
  6
CONTINUOUS
 62
     6
100
AcDbLine
 10
485.399998
 20
2077.999938
 30
0.0
 11
465.4
 21
2077.999938
 31
0.0
  0
LINE
  5
519
100
AcDbEntity
  8
図
  6
CONTINUOUS
 62
     6
100
AcDbLine
 10
502.649998
 20
2122.999998
 30
0.0
 11
502.649998
 21
2121.499998
 31
0.0
  0
LINE
  5
51A
100
AcDbEntity
  8
図
  6
CONTINUOUS
 62
     6
100
AcDbLine
 10
468.149998
 20
2122.999998
 30
0.0
 11
468.149998
 21
2121.499998
 31
0.0
  0
LINE
  5
51B
100
AcDbEntity
  8
図
  6
CONTINUOUS
 62
     6
100
AcDbLine
 10
485.399998
 20
2122.999998
 30
0.0
 11
514.9
 21
2122.999998
 31
0.0
  0
LINE
  5
51C
100
AcDbEntity
  8
図
  6
CONTINUOUS
 62
     6
100
AcDbLine
 10
485.399998
 20
2122.999998
 30
0.0
 11
455.899999
 21
2122.999998
 31
0.0
  0
LINE
  5
51D
100
AcDbEntity
  8
図
  6
CONTINUOUS
 62
     6
100
AcDbLine
 10
505.399999
 20
2096.499939
 30
0.0
 11
505.399999
 21
2121.499998
 31
0.0
  0
LINE
  5
51E
100
AcDbEntity
  8
図
  6
CONTINUOUS
 62
     6
100
AcDbLine
 10
485.399998
 20
2077.999938
 30
0.0
 11
505.399999
 21
2077.999938
 31
0.0
  0
LINE
  5
51F
100
AcDbEntity
  8
図
  6
CONTINUOUS
 62
     6
100
AcDbLine
 10
521.399998
 20
2086.49994
 30
0.0
 11
521.399998
 21
2095.49994
 31
0.0
  0
LINE
  5
520
100
AcDbEntity
  8
図
  6
CONTINUOUS
 62
     6
100
AcDbLine
 10
521.399998
 20
2086.49994
 30
0.0
 11
505.382539
 21
2086.49994
 31
0.0
  0
ARC
  5
521
100
AcDbEntity
  8
図
  6
CONTINUOUS
 62
     6
100
AcDbCircle
 10
519.781729
 20
2090.499939
 30
0.0
 40
15.242595
100
AcDbArc
 50
160.651789
 51
178.1202
  0
LINE
  5
522
100
AcDbEntity
  8
図
  6
CONTINUOUS
 62
     6
100
AcDbLine
 10
505.399999
 20
2077.999938
 30
0.0
 11
505.399999
 21
2084.99994
 31
0.0
  0
LINE
  5
523
100
AcDbEntity
  8
図
  6
CONTINUOUS
 62
     6
100
AcDbLine
 10
465.4
 20
2084.99994
 30
0.0
 11
505.399999
 21
2084.99994
 31
0.0
  0
LINE
  5
524
100
AcDbEntity
  8
図
  6
CONTINUOUS
 62
     6
100
AcDbLine
 10
505.399999
 20
2096.99994
 30
0.0
 11
505.399999
 21
2095.549938
 31
0.0
  0
ARC
  5
525
100
AcDbEntity
  8
図
  6
CONTINUOUS
 62
     6
100
AcDbCircle
 10
519.781729
 20
2091.499938
 30
0.0
 40
15.242595
100
AcDbArc
 50
181.8798
 51
199.348211
  0
LINE
  5
526
100
AcDbEntity
  8
図
  6
CONTINUOUS
 62
     6
100
AcDbLine
 10
505.399999
 20
2086.49994
 30
0.0
 11
505.399999
 21
2084.99994
 31
0.0
  0
LINE
  5
527
100
AcDbEntity
  8
図
  6
CONTINUOUS
 62
     6
100
AcDbLine
 10
521.399998
 20
2095.49994
 30
0.0
 11
505.382539
 21
2095.49994
 31
0.0
  0
LINE
  5
528
100
AcDbEntity
  8
図
  6
CONTINUOUS
 62
     6
100
AcDbLine
 10
465.4
 20
2121.499998
 30
0.0
 11
505.399999
 21
2121.499998
 31
0.0
  0
LINE
  5
529
100
AcDbEntity
  8
図
  6
CONTINUOUS
 62
     6
100
AcDbLine
 10
471.149998
 20
2121.499998
 30
0.0
 11
471.4
 21
2121.499998
 31
0.0
  0
LINE
  5
52A
100
AcDbEntity
  8
図
  6
CONTINUOUS
 62
     6
100
AcDbLine
 10
499.649998
 20
2121.499998
 30
0.0
 11
499.399999
 21
2121.499998
 31
0.0
  0
LINE
  5
52B
100
AcDbEntity
  8
図
  6
CONTINUOUS
 62
     6
100
AcDbLine
 10
705.4
 20
2083.399938
 30
0.0
 11
665.399998
 21
2083.399938
 31
0.0
  0
LINE
  5
52C
100
AcDbEntity
  8
図
  6
CONTINUOUS
 62
     6
100
AcDbLine
 10
671.149999
 20
2121.499998
 30
0.0
 11
671.399998
 21
2121.499998
 31
0.0
  0
LINE
  5
52D
100
AcDbEntity
  8
図
  6
CONTINUOUS
 62
     6
100
AcDbLine
 10
699.649999
 20
2121.499998
 30
0.0
 11
699.4
 21
2121.499998
 31
0.0
  0
LINE
  5
52E
100
AcDbEntity
  8
図
  6
CONTINUOUS
 62
     6
100
AcDbLine
 10
705.4
 20
2121.499998
 30
0.0
 11
665.399998
 21
2121.499998
 31
0.0
  0
LINE
  5
52F
100
AcDbEntity
  8
図
  6
CONTINUOUS
 62
     6
100
AcDbLine
 10
649.399999
 20
2095.49994
 30
0.0
 11
665.417458
 21
2095.49994
 31
0.0
  0
LINE
  5
530
100
AcDbEntity
  8
図
  6
CONTINUOUS
 62
     6
100
AcDbLine
 10
665.399998
 20
2086.49994
 30
0.0
 11
665.399998
 21
2084.99994
 31
0.0
  0
ARC
  5
531
100
AcDbEntity
  8
図
  6
CONTINUOUS
 62
     6
100
AcDbCircle
 10
651.018268
 20
2091.499938
 30
0.0
 40
15.242595
100
AcDbArc
 50
340.651789
 51
358.1202
  0
LINE
  5
532
100
AcDbEntity
  8
図
  6
CONTINUOUS
 62
     6
100
AcDbLine
 10
665.399998
 20
2096.99994
 30
0.0
 11
665.399998
 21
2095.549938
 31
0.0
  0
LINE
  5
533
100
AcDbEntity
  8
図
  6
CONTINUOUS
 62
     6
100
AcDbLine
 10
705.4
 20
2084.99994
 30
0.0
 11
665.399998
 21
2084.99994
 31
0.0
  0
LINE
  5
534
100
AcDbEntity
  8
図
  6
CONTINUOUS
 62
     6
100
AcDbLine
 10
665.399998
 20
2077.999938
 30
0.0
 11
665.399998
 21
2084.99994
 31
0.0
  0
ARC
  5
535
100
AcDbEntity
  8
図
  6
CONTINUOUS
 62
     6
100
AcDbCircle
 10
651.018268
 20
2090.499939
 30
0.0
 40
15.242595
100
AcDbArc
 50
1.8798
 51
19.348211
  0
LINE
  5
536
100
AcDbEntity
  8
図
  6
CONTINUOUS
 62
     6
100
AcDbLine
 10
649.399999
 20
2086.49994
 30
0.0
 11
665.417458
 21
2086.49994
 31
0.0
  0
LINE
  5
537
100
AcDbEntity
  8
図
  6
CONTINUOUS
 62
     6
100
AcDbLine
 10
649.399999
 20
2086.49994
 30
0.0
 11
649.399999
 21
2095.49994
 31
0.0
  0
LINE
  5
538
100
AcDbEntity
  8
図
  6
CONTINUOUS
 62
     6
100
AcDbLine
 10
685.399999
 20
2077.999938
 30
0.0
 11
665.399998
 21
2077.999938
 31
0.0
  0
LINE
  5
539
100
AcDbEntity
  8
図
  6
CONTINUOUS
 62
     6
100
AcDbLine
 10
665.399998
 20
2096.499939
 30
0.0
 11
665.399998
 21
2121.499998
 31
0.0
  0
LINE
  5
53A
100
AcDbEntity
  8
図
  6
CONTINUOUS
 62
     6
100
AcDbLine
 10
685.399999
 20
2122.999998
 30
0.0
 11
714.899998
 21
2122.999998
 31
0.0
  0
LINE
  5
53B
100
AcDbEntity
  8
図
  6
CONTINUOUS
 62
     6
100
AcDbLine
 10
685.399999
 20
2122.999998
 30
0.0
 11
655.9
 21
2122.999998
 31
0.0
  0
LINE
  5
53C
100
AcDbEntity
  8
図
  6
CONTINUOUS
 62
     6
100
AcDbLine
 10
702.649999
 20
2122.999998
 30
0.0
 11
702.649999
 21
2121.499998
 31
0.0
  0
LINE
  5
53D
100
AcDbEntity
  8
図
  6
CONTINUOUS
 62
     6
100
AcDbLine
 10
668.149999
 20
2122.999998
 30
0.0
 11
668.149999
 21
2121.499998
 31
0.0
  0
LINE
  5
53E
100
AcDbEntity
  8
図
  6
CONTINUOUS
 62
     6
100
AcDbLine
 10
685.399999
 20
2077.999938
 30
0.0
 11
705.4
 21
2077.999938
 31
0.0
  0
LINE
  5
53F
100
AcDbEntity
  8
図
  6
CONTINUOUS
 62
     6
100
AcDbLine
 10
705.4
 20
2077.999938
 30
0.0
 11
705.4
 21
2084.99994
 31
0.0
  0
LINE
  5
540
100
AcDbEntity
  8
図
  6
CONTINUOUS
 62
     6
100
AcDbLine
 10
715.399999
 20
2129.499999
 30
0.0
 11
715.399999
 21
2123.499999
 31
0.0
  0
LINE
  5
541
100
AcDbEntity
  8
図
  6
CONTINUOUS
 62
     6
100
AcDbLine
 10
655.399999
 20
2129.499999
 30
0.0
 11
655.399999
 21
2123.499999
 31
0.0
  0
LINE
  5
542
100
AcDbEntity
  8
図
  6
CONTINUOUS
 62
     6
100
AcDbLine
 10
655.9
 20
2122.999998
 30
0.0
 11
655.399999
 21
2123.499999
 31
0.0
  0
LINE
  5
543
100
AcDbEntity
  8
図
  6
CONTINUOUS
 62
     6
100
AcDbLine
 10
714.899998
 20
2122.999998
 30
0.0
 11
715.399999
 21
2123.499999
 31
0.0
  0
LINE
  5
544
100
AcDbEntity
  8
図
  6
CONTINUOUS
 62
     6
100
AcDbLine
 10
715.399999
 20
2129.499999
 30
0.0
 11
714.899998
 21
2130.0
 31
0.0
  0
LINE
  5
545
100
AcDbEntity
  8
図
  6
CONTINUOUS
 62
     6
100
AcDbLine
 10
655.9
 20
2130.0
 30
0.0
 11
655.399999
 21
2129.499999
 31
0.0
  0
LINE
  5
546
100
AcDbEntity
  8
図
  6
CONTINUOUS
 62
     6
100
AcDbLine
 10
705.4
 20
2086.49994
 30
0.0
 11
705.4
 21
2084.99994
 31
0.0
  0
LINE
  5
547
100
AcDbEntity
  8
図
  6
CONTINUOUS
 62
     6
100
AcDbLine
 10
721.399999
 20
2086.49994
 30
0.0
 11
721.399999
 21
2095.49994
 31
0.0
  0
LINE
  5
548
100
AcDbEntity
  8
図
  6
CONTINUOUS
 62
     6
100
AcDbLine
 10
721.399999
 20
2086.49994
 30
0.0
 11
705.38254
 21
2086.49994
 31
0.0
  0
ARC
  5
549
100
AcDbEntity
  8
図
  6
CONTINUOUS
 62
     6
100
AcDbCircle
 10
719.78173
 20
2090.499939
 30
0.0
 40
15.242595
100
AcDbArc
 50
160.651789
 51
178.1202
  0
LINE
  5
54A
100
AcDbEntity
  8
図
  6
CONTINUOUS
 62
     6
100
AcDbLine
 10
705.4
 20
2096.99994
 30
0.0
 11
705.4
 21
2095.549938
 31
0.0
  0
ARC
  5
54B
100
AcDbEntity
  8
図
  6
CONTINUOUS
 62
     6
100
AcDbCircle
 10
719.78173
 20
2091.499938
 30
0.0
 40
15.242595
100
AcDbArc
 50
181.8798
 51
199.348211
  0
LINE
  5
54C
100
AcDbEntity
  8
図
  6
CONTINUOUS
 62
     6
100
AcDbLine
 10
721.399999
 20
2095.49994
 30
0.0
 11
705.38254
 21
2095.49994
 31
0.0
  0
CIRCLE
  5
54D
100
AcDbEntity
  8
図
  6
CONTINUOUS
 62
     6
100
AcDbCircle
 10
685.399999
 20
2090.99994
 30
0.0
 40
4.5
  0
LINE
  5
54E
100
AcDbEntity
  8
図
  6
CONTINUOUS
 62
     6
100
AcDbLine
 10
594.4
 20
1930.173648
 30
0.0
 11
594.4
 21
2104.999998
 31
0.0
  0
LINE
  5
54F
100
AcDbEntity
  8
図
  6
CONTINUOUS
 62
     6
100
AcDbLine
 10
604.9
 20
2104.999998
 30
0.0
 11
585.4
 21
2104.999998
 31
0.0
  0
LINE
  5
550
100
AcDbEntity
  8
図
  6
CONTINUOUS
 62
     6
100
AcDbLine
 10
605.399998
 20
2122.999998
 30
0.0
 11
605.399998
 21
2105.499999
 31
0.0
  0
LINE
  5
551
100
AcDbEntity
  8
図
  6
CONTINUOUS
 62
     6
100
AcDbLine
 10
605.399998
 20
2105.499999
 30
0.0
 11
604.9
 21
2104.999998
 31
0.0
  0
LINE
  5
552
100
AcDbEntity
  8
図
  6
CONTINUOUS
 62
     6
100
AcDbLine
 10
605.399998
 20
2105.499999
 30
0.0
 11
585.4
 21
2105.499999
 31
0.0
  0
LINE
  5
553
100
AcDbEntity
  8
図
  6
CONTINUOUS
 62
     6
100
AcDbLine
 10
576.4
 20
1930.173648
 30
0.0
 11
576.4
 21
2104.999998
 31
0.0
  0
POLYLINE
  5
554
100
AcDbEntity
  8
図
  6
CONTINUOUS
 62
     6
100
AcDb2dPolyline
 66
     1
 10
0.0
 20
0.0
 30
0.0
 70
   128
  0
VERTEX
  5
555
100
AcDbEntity
  8
図
  6
CONTINUOUS
 62
     6
100
AcDbVertex
100
AcDb2dVertex
 10
576.4
 20
1930.173648
 30
0.0
  0
VERTEX
  5
556
100
AcDbEntity
  8
図
  6
CONTINUOUS
 62
     6
100
AcDbVertex
100
AcDb2dVertex
 10
576.511216
 20
1928.772747
 30
0.0
  0
VERTEX
  5
557
100
AcDbEntity
  8
図
  6
CONTINUOUS
 62
     6
100
AcDbVertex
100
AcDb2dVertex
 10
576.842086
 20
1927.406943
 30
0.0
  0
VERTEX
  5
558
100
AcDbEntity
  8
図
  6
CONTINUOUS
 62
     6
100
AcDbVertex
100
AcDb2dVertex
 10
577.384315
 20
1926.110454
 30
0.0
  0
VERTEX
  5
559
100
AcDbEntity
  8
図
  6
CONTINUOUS
 62
     6
100
AcDbVertex
100
AcDb2dVertex
 10
578.124319
 20
1924.915764
 30
0.0
  0
VERTEX
  5
55A
100
AcDbEntity
  8
図
  6
CONTINUOUS
 62
     6
100
AcDbVertex
100
AcDb2dVertex
 10
579.043558
 20
1923.852801
 30
0.0
  0
VERTEX
  5
55B
100
AcDbEntity
  8
図
  6
CONTINUOUS
 62
     6
100
AcDbVertex
100
AcDb2dVertex
 10
580.119004
 20
1922.948199
 30
0.0
  0
VERTEX
  5
55C
100
AcDbEntity
  8
図
  6
CONTINUOUS
 62
     6
100
AcDbVertex
100
AcDb2dVertex
 10
581.323714
 20
1922.224617
 30
0.0
  0
VERTEX
  5
55D
100
AcDbEntity
  8
図
  6
CONTINUOUS
 62
     6
100
AcDbVertex
100
AcDb2dVertex
 10
582.627502
 20
1921.700187
 30
0.0
  0
VERTEX
  5
55E
100
AcDbEntity
  8
図
  6
CONTINUOUS
 62
     6
100
AcDbVertex
100
AcDb2dVertex
 10
583.997707
 20
1921.388046
 30
0.0
  0
VERTEX
  5
55F
100
AcDbEntity
  8
図
  6
CONTINUOUS
 62
     6
100
AcDbVertex
100
AcDb2dVertex
 10
585.4
 20
1921.296018
 30
0.0
  0
SEQEND
  5
560
100
AcDbEntity
  8
図
  6
CONTINUOUS
 62
     6
  0
POLYLINE
  5
561
100
AcDbEntity
  8
図
  6
CONTINUOUS
 62
     6
100
AcDb2dPolyline
 66
     1
 10
0.0
 20
0.0
 30
0.0
 70
   128
  0
VERTEX
  5
562
100
AcDbEntity
  8
図
  6
CONTINUOUS
 62
     6
100
AcDbVertex
100
AcDb2dVertex
 10
585.4
 20
1924.888584
 30
0.0
  0
VERTEX
  5
563
100
AcDbEntity
  8
図
  6
CONTINUOUS
 62
     6
100
AcDbVertex
100
AcDb2dVertex
 10
586.801573
 20
1924.978245
 30
0.0
  0
VERTEX
  5
564
100
AcDbEntity
  8
図
  6
CONTINUOUS
 62
     6
100
AcDbVertex
100
AcDb2dVertex
 10
588.171391
 20
1925.288169
 30
0.0
  0
VERTEX
  5
565
100
AcDbEntity
  8
図
  6
CONTINUOUS
 62
     6
100
AcDbVertex
100
AcDb2dVertex
 10
589.475053
 20
1925.810577
 30
0.0
  0
VERTEX
  5
566
100
AcDbEntity
  8
図
  6
CONTINUOUS
 62
     6
100
AcDbVertex
100
AcDb2dVertex
 10
590.679832
 20
1926.532347
 30
0.0
  0
VERTEX
  5
567
100
AcDbEntity
  8
図
  6
CONTINUOUS
 62
     6
100
AcDbVertex
100
AcDb2dVertex
 10
591.755479
 20
1927.435365
 30
0.0
  0
VERTEX
  5
568
100
AcDbEntity
  8
図
  6
CONTINUOUS
 62
     6
100
AcDbVertex
100
AcDb2dVertex
 10
592.674979
 20
1928.496951
 30
0.0
  0
VERTEX
  5
569
100
AcDbEntity
  8
図
  6
CONTINUOUS
 62
     6
100
AcDbVertex
100
AcDb2dVertex
 10
593.415253
 20
1929.690453
 30
0.0
  0
VERTEX
  5
56A
100
AcDbEntity
  8
図
  6
CONTINUOUS
 62
     6
100
AcDbVertex
100
AcDb2dVertex
 10
593.95771
 20
1930.985904
 30
0.0
  0
VERTEX
  5
56B
100
AcDbEntity
  8
図
  6
CONTINUOUS
 62
     6
100
AcDbVertex
100
AcDb2dVertex
 10
594.288727
 20
1932.350775
 30
0.0
  0
VERTEX
  5
56C
100
AcDbEntity
  8
図
  6
CONTINUOUS
 62
     6
100
AcDbVertex
100
AcDb2dVertex
 10
594.4
 20
1933.7508
 30
0.0
  0
SEQEND
  5
56D
100
AcDbEntity
  8
図
  6
CONTINUOUS
 62
     6
  0
POLYLINE
  5
56E
100
AcDbEntity
  8
図
  6
CONTINUOUS
 62
     6
100
AcDb2dPolyline
 66
     1
 10
0.0
 20
0.0
 30
0.0
 70
   128
  0
VERTEX
  5
56F
100
AcDbEntity
  8
図
  6
CONTINUOUS
 62
     6
100
AcDbVertex
100
AcDb2dVertex
 10
585.4
 20
1924.888584
 30
0.0
  0
VERTEX
  5
570
100
AcDbEntity
  8
図
  6
CONTINUOUS
 62
     6
100
AcDbVertex
100
AcDb2dVertex
 10
583.998424
 20
1924.978245
 30
0.0
  0
VERTEX
  5
571
100
AcDbEntity
  8
図
  6
CONTINUOUS
 62
     6
100
AcDbVertex
100
AcDb2dVertex
 10
582.628609
 20
1925.288169
 30
0.0
  0
VERTEX
  5
572
100
AcDbEntity
  8
図
  6
CONTINUOUS
 62
     6
100
AcDbVertex
100
AcDb2dVertex
 10
581.324944
 20
1925.810577
 30
0.0
  0
VERTEX
  5
573
100
AcDbEntity
  8
図
  6
CONTINUOUS
 62
     6
100
AcDbVertex
100
AcDb2dVertex
 10
580.120165
 20
1926.532347
 30
0.0
  0
VERTEX
  5
574
100
AcDbEntity
  8
図
  6
CONTINUOUS
 62
     6
100
AcDbVertex
100
AcDb2dVertex
 10
579.044521
 20
1927.435365
 30
0.0
  0
VERTEX
  5
575
100
AcDbEntity
  8
図
  6
CONTINUOUS
 62
     6
100
AcDbVertex
100
AcDb2dVertex
 10
578.125018
 20
1928.496951
 30
0.0
  0
VERTEX
  5
576
100
AcDbEntity
  8
図
  6
CONTINUOUS
 62
     6
100
AcDbVertex
100
AcDb2dVertex
 10
577.384744
 20
1929.690453
 30
0.0
  0
VERTEX
  5
577
100
AcDbEntity
  8
図
  6
CONTINUOUS
 62
     6
100
AcDbVertex
100
AcDb2dVertex
 10
576.84229
 20
1930.985904
 30
0.0
  0
VERTEX
  5
578
100
AcDbEntity
  8
図
  6
CONTINUOUS
 62
     6
100
AcDbVertex
100
AcDb2dVertex
 10
576.51127
 20
1932.350775
 30
0.0
  0
VERTEX
  5
579
100
AcDbEntity
  8
図
  6
CONTINUOUS
 62
     6
100
AcDbVertex
100
AcDb2dVertex
 10
576.4
 20
1933.7508
 30
0.0
  0
SEQEND
  5
57A
100
AcDbEntity
  8
図
  6
CONTINUOUS
 62
     6
  0
POLYLINE
  5
57B
100
AcDbEntity
  8
図
  6
CONTINUOUS
 62
     6
100
AcDb2dPolyline
 66
     1
 10
0.0
 20
0.0
 30
0.0
 70
   128
  0
VERTEX
  5
57C
100
AcDbEntity
  8
図
  6
CONTINUOUS
 62
     6
100
AcDbVertex
100
AcDb2dVertex
 10
594.4
 20
1930.173648
 30
0.0
  0
VERTEX
  5
57D
100
AcDbEntity
  8
図
  6
CONTINUOUS
 62
     6
100
AcDbVertex
100
AcDb2dVertex
 10
594.288781
 20
1928.772747
 30
0.0
  0
VERTEX
  5
57E
100
AcDbEntity
  8
図
  6
CONTINUOUS
 62
     6
100
AcDbVertex
100
AcDb2dVertex
 10
593.957914
 20
1927.406943
 30
0.0
  0
VERTEX
  5
57F
100
AcDbEntity
  8
図
  6
CONTINUOUS
 62
     6
100
AcDbVertex
100
AcDb2dVertex
 10
593.415685
 20
1926.110454
 30
0.0
  0
VERTEX
  5
580
100
AcDbEntity
  8
図
  6
CONTINUOUS
 62
     6
100
AcDbVertex
100
AcDb2dVertex
 10
592.675681
 20
1924.915764
 30
0.0
  0
VERTEX
  5
581
100
AcDbEntity
  8
図
  6
CONTINUOUS
 62
     6
100
AcDbVertex
100
AcDb2dVertex
 10
591.756439
 20
1923.852801
 30
0.0
  0
VERTEX
  5
582
100
AcDbEntity
  8
図
  6
CONTINUOUS
 62
     6
100
AcDbVertex
100
AcDb2dVertex
 10
590.680993
 20
1922.948199
 30
0.0
  0
VERTEX
  5
583
100
AcDbEntity
  8
図
  6
CONTINUOUS
 62
     6
100
AcDbVertex
100
AcDb2dVertex
 10
589.476283
 20
1922.224617
 30
0.0
  0
VERTEX
  5
584
100
AcDbEntity
  8
図
  6
CONTINUOUS
 62
     6
100
AcDbVertex
100
AcDb2dVertex
 10
588.172495
 20
1921.700187
 30
0.0
  0
VERTEX
  5
585
100
AcDbEntity
  8
図
  6
CONTINUOUS
 62
     6
100
AcDbVertex
100
AcDb2dVertex
 10
586.80229
 20
1921.388046
 30
0.0
  0
VERTEX
  5
586
100
AcDbEntity
  8
図
  6
CONTINUOUS
 62
     6
100
AcDbVertex
100
AcDb2dVertex
 10
585.4
 20
1921.296018
 30
0.0
  0
SEQEND
  5
587
100
AcDbEntity
  8
図
  6
CONTINUOUS
 62
     6
  0
LINE
  5
588
100
AcDbEntity
  8
図
  6
CONTINUOUS
 62
     6
100
AcDbLine
 10
565.399999
 20
2105.499999
 30
0.0
 11
585.4
 21
2105.499999
 31
0.0
  0
LINE
  5
589
100
AcDbEntity
  8
図
  6
CONTINUOUS
 62
     6
100
AcDbLine
 10
565.399999
 20
2105.499999
 30
0.0
 11
565.9
 21
2104.999998
 31
0.0
  0
LINE
  5
58A
100
AcDbEntity
  8
図
  6
CONTINUOUS
 62
     6
100
AcDbLine
 10
565.399999
 20
2122.999998
 30
0.0
 11
565.399999
 21
2105.499999
 31
0.0
  0
LINE
  5
58B
100
AcDbEntity
  8
図
  6
CONTINUOUS
 62
     6
100
AcDbLine
 10
565.9
 20
2104.999998
 30
0.0
 11
585.4
 21
2104.999998
 31
0.0
  0
ARC
  5
58C
100
AcDbEntity
  8
図
  6
CONTINUOUS
 62
     6
100
AcDbCircle
 10
556.399999
 20
2124.0
 30
0.0
 40
0.999999
100
AcDbArc
 50
180.0
 51
270.0
  0
LINE
  5
58D
100
AcDbEntity
  8
図
  6
CONTINUOUS
 62
     6
100
AcDbLine
 10
555.4
 20
2129.499999
 30
0.0
 11
555.899998
 21
2130.0
 31
0.0
  0
LINE
  5
58E
100
AcDbEntity
  8
図
  6
CONTINUOUS
 62
     6
100
AcDbLine
 10
556.399999
 20
2122.999998
 30
0.0
 11
585.4
 21
2122.999998
 31
0.0
  0
LINE
  5
58F
100
AcDbEntity
  8
図
  6
CONTINUOUS
 62
     6
100
AcDbLine
 10
555.4
 20
2124.0
 30
0.0
 11
555.4
 21
2129.499999
 31
0.0
  0
LINE
  5
590
100
AcDbEntity
  8
図
  6
CONTINUOUS
 62
     6
100
AcDbLine
 10
615.4
 20
2124.0
 30
0.0
 11
615.4
 21
2129.499999
 31
0.0
  0
LINE
  5
591
100
AcDbEntity
  8
図
  6
CONTINUOUS
 62
     6
100
AcDbLine
 10
614.399998
 20
2122.999998
 30
0.0
 11
585.4
 21
2122.999998
 31
0.0
  0
LINE
  5
592
100
AcDbEntity
  8
図
  6
CONTINUOUS
 62
     6
100
AcDbLine
 10
615.4
 20
2129.499999
 30
0.0
 11
614.899999
 21
2130.0
 31
0.0
  0
ARC
  5
593
100
AcDbEntity
  8
図
  6
CONTINUOUS
 62
     6
100
AcDbCircle
 10
614.399998
 20
2124.0
 30
0.0
 40
0.999999
100
AcDbArc
 50
270.0
 51
0.0
  0
LINE
  5
594
100
AcDbEntity
  8
図
  6
CONTINUOUS
 62
     6
100
AcDbLine
 10
705.4
 20
2096.499939
 30
0.0
 11
705.4
 21
2121.499998
 31
0.0
  0
LINE
  5
595
100
AcDbEntity
  8
図
  6
EXLTYPE4
 62
     6
100
AcDbLine
 10
264.0
 20
497.0
 30
0.0
 11
1093.0
 21
497.0
 31
0.0
  0
LINE
  5
596
100
AcDbEntity
  8
図
  6
EXLTYPE3
 62
     6
100
AcDbLine
 10
1599.784271
 20
1442.0
 30
0.0
 11
1681.784271
 21
1442.0
 31
0.0
  0
LINE
  5
597
100
AcDbEntity
  8
図
  6
CONTINUOUS
 62
     2
100
AcDbLine
 10
1669.784271
 20
1626.5
 30
0.0
 11
1697.784271
 21
1654.5
 31
0.0
  0
LINE
  5
598
100
AcDbEntity
  8
図
  6
CONTINUOUS
 62
     2
100
AcDbLine
 10
1669.784271
 20
1582.5
 30
0.0
 11
1697.784271
 21
1610.5
 31
0.0
  0
LINE
  5
599
100
AcDbEntity
  8
図
  6
CONTINUOUS
 62
     2
100
AcDbLine
 10
1669.784271
 20
1538.5
 30
0.0
 11
1697.784271
 21
1566.5
 31
0.0
  0
LINE
  5
59A
100
AcDbEntity
  8
図
  6
CONTINUOUS
 62
     2
100
AcDbLine
 10
1669.784271
 20
1488.5
 30
0.0
 11
1697.784271
 21
1516.5
 31
0.0
  0
LINE
  5
59B
100
AcDbEntity
  8
図
  6
CONTINUOUS
 62
     2
100
AcDbLine
 10
1669.784271
 20
1444.5
 30
0.0
 11
1697.784271
 21
1472.5
 31
0.0
  0
LINE
  5
59C
100
AcDbEntity
  8
図
  6
CONTINUOUS
 62
     2
100
AcDbLine
 10
1669.784271
 20
1400.5
 30
0.0
 11
1697.784271
 21
1428.5
 31
0.0
  0
LINE
  5
59D
100
AcDbEntity
  8
図
  6
CONTINUOUS
 62
     2
100
AcDbLine
 10
1669.784271
 20
1356.5
 30
0.0
 11
1697.784271
 21
1384.5
 31
0.0
  0
LINE
  5
59E
100
AcDbEntity
  8
図
  6
CONTINUOUS
 62
     2
100
AcDbLine
 10
1669.784271
 20
1312.5
 30
0.0
 11
1697.784271
 21
1340.5
 31
0.0
  0
LINE
  5
59F
100
AcDbEntity
  8
図
  6
CONTINUOUS
 62
     2
100
AcDbLine
 10
1669.784271
 20
1268.5
 30
0.0
 11
1697.784271
 21
1296.5
 31
0.0
  0
LINE
  5
5A0
100
AcDbEntity
  8
図
  6
CONTINUOUS
 62
     2
100
AcDbLine
 10
1669.784271
 20
1224.5
 30
0.0
 11
1697.784271
 21
1252.5
 31
0.0
  0
LINE
  5
5A1
100
AcDbEntity
  8
図
  6
CONTINUOUS
 62
     2
100
AcDbLine
 10
1669.784271
 20
1180.5
 30
0.0
 11
1697.784271
 21
1208.5
 31
0.0
  0
LINE
  5
5A2
100
AcDbEntity
  8
図
  6
CONTINUOUS
 62
     2
100
AcDbLine
 10
1669.784271
 20
1092.5
 30
0.0
 11
1697.784271
 21
1120.5
 31
0.0
  0
LINE
  5
5A3
100
AcDbEntity
  8
図
  6
CONTINUOUS
 62
     2
100
AcDbLine
 10
1669.784271
 20
1048.5
 30
0.0
 11
1697.784271
 21
1076.5
 31
0.0
  0
LINE
  5
5A4
100
AcDbEntity
  8
図
  6
CONTINUOUS
 62
     2
100
AcDbLine
 10
1669.784271
 20
1000.5
 30
0.0
 11
1697.784271
 21
1028.5
 31
0.0
  0
LINE
  5
5A5
100
AcDbEntity
  8
図
  6
CONTINUOUS
 62
     2
100
AcDbLine
 10
1669.784271
 20
856.5
 30
0.0
 11
1697.784271
 21
884.5
 31
0.0
  0
LINE
  5
5A6
100
AcDbEntity
  8
図
  6
CONTINUOUS
 62
     2
100
AcDbLine
 10
1669.784271
 20
808.5
 30
0.0
 11
1697.784271
 21
836.5
 31
0.0
  0
LINE
  5
5A7
100
AcDbEntity
  8
図
  6
CONTINUOUS
 62
     2
100
AcDbLine
 10
1669.784271
 20
760.5
 30
0.0
 11
1697.784271
 21
788.5
 31
0.0
  0
LINE
  5
5A8
100
AcDbEntity
  8
図
  6
CONTINUOUS
 62
     2
100
AcDbLine
 10
1669.784271
 20
712.5
 30
0.0
 11
1697.784271
 21
740.5
 31
0.0
  0
LINE
  5
5A9
100
AcDbEntity
  8
図
  6
CONTINUOUS
 62
     2
100
AcDbLine
 10
1669.784271
 20
664.5
 30
0.0
 11
1697.784271
 21
692.5
 31
0.0
  0
LINE
  5
5AA
100
AcDbEntity
  8
図
  6
CONTINUOUS
 62
     2
100
AcDbLine
 10
1669.784271
 20
616.5
 30
0.0
 11
1697.784271
 21
644.5
 31
0.0
  0
LINE
  5
5AB
100
AcDbEntity
  8
図
  6
CONTINUOUS
 62
     2
100
AcDbLine
 10
1669.784271
 20
568.5
 30
0.0
 11
1697.784271
 21
596.5
 31
0.0
  0
LINE
  5
5AC
100
AcDbEntity
  8
図
  6
CONTINUOUS
 62
     2
100
AcDbLine
 10
1669.784271
 20
520.5
 30
0.0
 11
1697.784271
 21
548.5
 31
0.0
  0
LINE
  5
5AD
100
AcDbEntity
  8
図
  6
CONTINUOUS
 62
     2
100
AcDbLine
 10
1669.784271
 20
1136.5
 30
0.0
 11
1697.784271
 21
1164.5
 31
0.0
  0
LINE
  5
5AE
100
AcDbEntity
  8
図
  6
CONTINUOUS
 62
     2
100
AcDbLine
 10
1669.784271
 20
904.5
 30
0.0
 11
1697.784271
 21
932.5
 31
0.0
  0
LINE
  5
5AF
100
AcDbEntity
  8
図
  6
CONTINUOUS
 62
     2
100
AcDbLine
 10
1655.038239
 20
1117.0
 30
0.0
 11
1669.784271
 21
1131.746033
 31
0.0
  0
LINE
  5
5B0
100
AcDbEntity
  8
図
  6
CONTINUOUS
 62
     2
100
AcDbLine
 10
1487.332611
 20
1117.0
 30
0.0
 11
1512.332611
 21
1142.0
 31
0.0
  0
LINE
  5
5B1
100
AcDbEntity
  8
図
  6
CONTINUOUS
 62
     2
100
AcDbLine
 10
1628.753967
 20
1117.0
 30
0.0
 11
1653.753967
 21
1142.0
 31
0.0
  0
LINE
  5
5B2
100
AcDbEntity
  8
図
  6
CONTINUOUS
 62
     2
100
AcDbLine
 10
1600.469696
 20
1117.0
 30
0.0
 11
1625.469696
 21
1142.0
 31
0.0
  0
LINE
  5
5B3
100
AcDbEntity
  8
図
  6
CONTINUOUS
 62
     2
100
AcDbLine
 10
1543.901154
 20
1117.0
 30
0.0
 11
1568.901154
 21
1142.0
 31
0.0
  0
LINE
  5
5B4
100
AcDbEntity
  8
図
  6
CONTINUOUS
 62
     2
100
AcDbLine
 10
1515.616882
 20
1117.0
 30
0.0
 11
1540.616882
 21
1142.0
 31
0.0
  0
LINE
  5
5B5
100
AcDbEntity
  8
図
  6
CONTINUOUS
 62
     2
100
AcDbLine
 10
1572.185425
 20
1117.0
 30
0.0
 11
1597.185425
 21
1142.0
 31
0.0
  0
LINE
  5
5B6
100
AcDbEntity
  8
図
  6
CONTINUOUS
 62
     2
100
AcDbLine
 10
1459.032128
 20
1117.0
 30
0.0
 11
1484.032128
 21
1142.0
 31
0.0
  0
LINE
  5
5B7
100
AcDbEntity
  8
図
  6
CONTINUOUS
 62
     2
100
AcDbLine
 10
1402.479797
 20
1117.0
 30
0.0
 11
1427.479797
 21
1142.0
 31
0.0
  0
LINE
  5
5B8
100
AcDbEntity
  8
図
  6
CONTINUOUS
 62
     2
100
AcDbLine
 10
1374.195526
 20
1117.0
 30
0.0
 11
1399.195526
 21
1142.0
 31
0.0
  0
LINE
  5
5B9
100
AcDbEntity
  8
図
  6
CONTINUOUS
 62
     2
100
AcDbLine
 10
1204.489899
 20
1117.0
 30
0.0
 11
1229.489899
 21
1142.0
 31
0.0
  0
LINE
  5
5BA
100
AcDbEntity
  8
図
  6
CONTINUOUS
 62
     2
100
AcDbLine
 10
1232.77417
 20
1117.0
 30
0.0
 11
1257.77417
 21
1142.0
 31
0.0
  0
LINE
  5
5BB
100
AcDbEntity
  8
図
  6
CONTINUOUS
 62
     2
100
AcDbLine
 10
1261.058441
 20
1117.0
 30
0.0
 11
1286.058441
 21
1142.0
 31
0.0
  0
LINE
  5
5BC
100
AcDbEntity
  8
図
  6
CONTINUOUS
 62
     2
100
AcDbLine
 10
1289.342712
 20
1117.0
 30
0.0
 11
1314.342712
 21
1142.0
 31
0.0
  0
LINE
  5
5BD
100
AcDbEntity
  8
図
  6
CONTINUOUS
 62
     2
100
AcDbLine
 10
1317.626984
 20
1117.0
 30
0.0
 11
1342.626984
 21
1142.0
 31
0.0
  0
LINE
  5
5BE
100
AcDbEntity
  8
図
  6
CONTINUOUS
 62
     2
100
AcDbLine
 10
1345.911255
 20
1117.0
 30
0.0
 11
1370.911255
 21
1142.0
 31
0.0
  0
LINE
  5
5BF
100
AcDbEntity
  8
図
  6
CONTINUOUS
 62
     2
100
AcDbLine
 10
1147.921356
 20
1117.0
 30
0.0
 11
1172.921356
 21
1142.0
 31
0.0
  0
LINE
  5
5C0
100
AcDbEntity
  8
図
  6
CONTINUOUS
 62
     2
100
AcDbLine
 10
1176.205627
 20
1117.0
 30
0.0
 11
1201.205627
 21
1142.0
 31
0.0
  0
ARC
  5
5C1
100
AcDbEntity
  8
図
  6
CONTINUOUS
 62
     7
100
AcDbCircle
 10
1631.784271
 20
1289.0
 30
0.0
 40
8.0
100
AcDbArc
 50
327.805095
 51
90.0
  0
ARC
  5
5C2
100
AcDbEntity
  8
図
  6
CONTINUOUS
 62
     7
100
AcDbCircle
 10
-53.926901
 20
2350.339645
 30
0.0
 40
2000.0
100
AcDbArc
 50
322.902171
 51
327.805095
  0
ARC
  5
5C3
100
AcDbEntity
  8
図
  6
CONTINUOUS
 62
     7
100
AcDbCircle
 10
1227.784271
 20
1289.0
 30
0.0
 40
8.0
100
AcDbArc
 50
90.0
 51
212.194905
  0
ARC
  5
5C4
100
AcDbEntity
  8
図
  6
CONTINUOUS
 62
     7
100
AcDbCircle
 10
2913.495444
 20
2350.339645
 30
0.0
 40
2000.0
100
AcDbArc
 50
212.194905
 51
217.097829
  0
LINE
  5
5C5
100
AcDbEntity
  8
図
  6
CONTINUOUS
 62
     7
100
AcDbLine
 10
1227.784271
 20
1297.0
 30
0.0
 11
1631.784271
 21
1297.0
 31
0.0
  0
ARC
  5
5C6
100
AcDbEntity
  8
図
  6
CONTINUOUS
 62
     7
100
AcDbCircle
 10
1322.26991
 20
1147.0
 30
0.0
 40
5.0
100
AcDbArc
 50
217.097829
 51
270.0
  0
ARC
  5
5C7
100
AcDbEntity
  8
図
  6
CONTINUOUS
 62
     7
100
AcDbCircle
 10
1537.298632
 20
1147.0
 30
0.0
 40
5.0
100
AcDbArc
 50
270.0
 51
322.902171
  0
ARC
  5
5C8
100
AcDbEntity
  8
図
  6
CONTINUOUS
 62
     7
100
AcDbCircle
 10
1322.26991
 20
1147.0
 30
0.0
 40
5.0
100
AcDbArc
 50
217.097829
 51
270.0
  0
LINE
  5
5C9
100
AcDbEntity
  8
図
  6
CONTINUOUS
 62
     2
100
AcDbLine
 10
1430.764069
 20
1117.0
 30
0.0
 11
1455.764069
 21
1142.0
 31
0.0
  0
LINE
  5
5CA
100
AcDbEntity
  8
図
  6
EXLTYPE4
 62
     6
100
AcDbLine
 10
1533.909271
 20
950.0
 30
0.0
 11
1533.909271
 21
517.0
 31
0.0
  0
LINE
  5
5CB
100
AcDbEntity
  8
図
  6
EXLTYPE4
 62
     6
100
AcDbLine
 10
1565.659271
 20
950.0
 30
0.0
 11
1565.659271
 21
517.0
 31
0.0
  0
LINE
  5
5CC
100
AcDbEntity
  8
図
  6
EXLTYPE4
 62
     6
100
AcDbLine
 10
1516.784271
 20
505.99701
 30
0.0
 11
1516.784271
 21
497.0
 31
0.0
  0
ARC
  5
5CD
100
AcDbEntity
  8
図
  6
EXLTYPE4
 62
     6
100
AcDbCircle
 10
1527.787263
 20
505.99701
 30
0.0
 40
11.002992
100
AcDbArc
 50
90.0
 51
180.0
  0
LINE
  5
5CE
100
AcDbEntity
  8
図
  6
EXLTYPE4
 62
     6
100
AcDbLine
 10
1571.781279
 20
517.0
 30
0.0
 11
1527.787263
 21
517.0
 31
0.0
  0
ARC
  5
5CF
100
AcDbEntity
  8
図
  6
EXLTYPE4
 62
     6
100
AcDbCircle
 10
1571.781279
 20
505.99701
 30
0.0
 40
11.002992
100
AcDbArc
 50
0.0
 51
90.0
  0
LINE
  5
5D0
100
AcDbEntity
  8
図
  6
EXLTYPE4
 62
     6
100
AcDbLine
 10
1582.784271
 20
505.99701
 30
0.0
 11
1582.784271
 21
497.0
 31
0.0
  0
LINE
  5
5D1
100
AcDbEntity
  8
図
  6
EXLTYPE4
 62
     6
100
AcDbLine
 10
1565.659271
 20
497.0
 30
0.0
 11
1565.659271
 21
467.0
 31
0.0
  0
LINE
  5
5D2
100
AcDbEntity
  8
図
  6
EXLTYPE4
 62
     6
100
AcDbLine
 10
1565.659271
 20
467.0
 30
0.0
 11
1533.909271
 21
467.0
 31
0.0
  0
LINE
  5
5D3
100
AcDbEntity
  8
図
  6
EXLTYPE4
 62
     6
100
AcDbLine
 10
1533.909271
 20
497.0
 30
0.0
 11
1533.909271
 21
467.0
 31
0.0
  0
LINE
  5
5D4
100
AcDbEntity
  8
図
  6
EXLTYPE3
 62
     6
100
AcDbLine
 10
1549.784271
 20
553.0
 30
0.0
 11
1549.784271
 21
448.0
 31
0.0
  0
ARC
  5
5D5
100
AcDbEntity
  8
図
  6
EXLTYPE4
 62
     6
100
AcDbCircle
 10
1527.784271
 20
950.0
 30
0.0
 40
37.875
100
AcDbArc
 50
0.0
 51
180.0
  0
ARC
  5
5D6
100
AcDbEntity
  8
図
  6
CONTINUOUS
 62
     2
100
AcDbCircle
 10
1539.909271
 20
937.875
 30
0.0
 40
50.0
100
AcDbArc
 50
90.0
 51
180.0
  0
ARC
  5
5D7
100
AcDbEntity
  8
図
  6
CONTINUOUS
 62
     2
100
AcDbCircle
 10
1541.659271
 20
936.125
 30
0.0
 40
20.0
100
AcDbArc
 50
90.0
 51
180.0
  0
ARC
  5
5D8
100
AcDbEntity
  8
図
  6
EXLTYPE4
 62
     6
100
AcDbCircle
 10
1527.784271
 20
950.0
 30
0.0
 40
6.125
100
AcDbArc
 50
0.0
 51
180.0
  0
LINE
  5
5D9
100
AcDbEntity
  8
図
  6
EXLTYPE4
 62
     6
100
AcDbLine
 10
1521.659271
 20
950.0
 30
0.0
 11
1521.659271
 21
936.125
 31
0.0
  0
LINE
  5
5DA
100
AcDbEntity
  8
図
  6
EXLTYPE4
 62
     6
100
AcDbLine
 10
1489.909271
 20
950.0
 30
0.0
 11
1489.909271
 21
937.875
 31
0.0
  0
LINE
  5
5DB
100
AcDbEntity
  8
図
  6
CONTINUOUS
 62
     2
100
AcDbLine
 10
1489.909271
 20
937.875
 30
0.0
 11
1489.909271
 21
934.375
 31
0.0
  0
LINE
  5
5DC
100
AcDbEntity
  8
図
  6
CONTINUOUS
 62
     2
100
AcDbLine
 10
1521.659271
 20
936.125
 30
0.0
 11
1521.659271
 21
934.375
 31
0.0
  0
LINE
  5
5DD
100
AcDbEntity
  8
図
  6
CONTINUOUS
 62
     2
100
AcDbLine
 10
1485.784271
 20
920.391
 30
0.0
 11
1486.800271
 21
919.375
 31
0.0
  0
LINE
  5
5DE
100
AcDbEntity
  8
図
  6
CONTINUOUS
 62
     2
100
AcDbLine
 10
1525.784271
 20
920.391
 30
0.0
 11
1524.768271
 21
919.375
 31
0.0
  0
LINE
  5
5DF
100
AcDbEntity
  8
図
  6
CONTINUOUS
 62
     2
100
AcDbLine
 10
1485.784271
 20
922.375
 30
0.0
 11
1485.784271
 21
920.391
 31
0.0
  0
LINE
  5
5E0
100
AcDbEntity
  8
図
  6
CONTINUOUS
 62
     2
100
AcDbLine
 10
1525.784271
 20
922.375
 30
0.0
 11
1525.784271
 21
920.391
 31
0.0
  0
LINE
  5
5E1
100
AcDbEntity
  8
図
  6
CONTINUOUS
 62
     2
100
AcDbLine
 10
1482.380859
 20
922.375
 30
0.0
 11
1529.187683
 21
922.375
 31
0.0
  0
LINE
  5
5E2
100
AcDbEntity
  8
図
  6
CONTINUOUS
 62
     2
100
AcDbLine
 10
1482.380859
 20
934.375
 30
0.0
 11
1529.187683
 21
934.375
 31
0.0
  0
ARC
  5
5E3
100
AcDbEntity
  8
図
  6
CONTINUOUS
 62
     2
100
AcDbCircle
 10
1521.187683
 20
928.375
 30
0.0
 40
10.0
100
AcDbArc
 50
323.130102
 51
36.869898
  0
ARC
  5
5E4
100
AcDbEntity
  8
図
  6
CONTINUOUS
 62
     2
100
AcDbCircle
 10
1490.380859
 20
928.375
 30
0.0
 40
10.0
100
AcDbArc
 50
143.130102
 51
216.869898
  0
LINE
  5
5E5
100
AcDbEntity
  8
図
  6
CONTINUOUS
 62
     2
100
AcDbLine
 10
1521.784271
 20
919.375
 30
0.0
 11
1489.784271
 21
919.375
 31
0.0
  0
LINE
  5
5E6
100
AcDbEntity
  8
図
  6
CONTINUOUS
 62
     2
100
AcDbLine
 10
1525.784271
 20
920.391
 30
0.0
 11
1485.784271
 21
920.391
 31
0.0
  0
LINE
  5
5E7
100
AcDbEntity
  8
図
  6
CONTINUOUS
 62
     2
100
AcDbLine
 10
1489.784271
 20
919.375
 30
0.0
 11
1486.800271
 21
919.375
 31
0.0
  0
LINE
  5
5E8
100
AcDbEntity
  8
図
  6
CONTINUOUS
 62
     2
100
AcDbLine
 10
1524.768271
 20
919.375
 30
0.0
 11
1521.784271
 21
919.375
 31
0.0
  0
LINE
  5
5E9
100
AcDbEntity
  8
図
  6
CONTINUOUS
 62
     2
100
AcDbLine
 10
1489.784271
 20
919.375
 30
0.0
 11
1489.784271
 21
918.0
 31
0.0
  0
LINE
  5
5EA
100
AcDbEntity
  8
図
  6
CONTINUOUS
 62
     2
100
AcDbLine
 10
1521.784271
 20
918.0
 30
0.0
 11
1521.784271
 21
919.375
 31
0.0
  0
POLYLINE
  5
5EB
100
AcDbEntity
  8
図
  6
CONTINUOUS
 62
     6
100
AcDb2dPolyline
 66
     1
 10
0.0
 20
0.0
 30
0.0
 70
   128
  0
VERTEX
  5
5EC
100
AcDbEntity
  8
図
  6
CONTINUOUS
 62
     6
100
AcDbVertex
100
AcDb2dVertex
 10
1485.606713
 20
922.375
 30
0.0
  0
VERTEX
  5
5ED
100
AcDbEntity
  8
図
  6
CONTINUOUS
 62
     6
100
AcDbVertex
100
AcDb2dVertex
 10
1486.062175
 20
922.397832
 30
0.0
  0
VERTEX
  5
5EE
100
AcDbEntity
  8
図
  6
CONTINUOUS
 62
     6
100
AcDbVertex
100
AcDb2dVertex
 10
1486.514173
 20
922.466154
 30
0.0
  0
VERTEX
  5
5EF
100
AcDbEntity
  8
図
  6
CONTINUOUS
 62
     6
100
AcDbVertex
100
AcDb2dVertex
 10
1486.959263
 20
922.579446
 30
0.0
  0
VERTEX
  5
5F0
100
AcDbEntity
  8
図
  6
CONTINUOUS
 62
     6
100
AcDbVertex
100
AcDb2dVertex
 10
1487.394059
 20
922.736844
 30
0.0
  0
VERTEX
  5
5F1
100
AcDbEntity
  8
図
  6
CONTINUOUS
 62
     6
100
AcDbVertex
100
AcDb2dVertex
 10
1487.815253
 20
922.937154
 30
0.0
  0
VERTEX
  5
5F2
100
AcDbEntity
  8
図
  6
CONTINUOUS
 62
     6
100
AcDbVertex
100
AcDb2dVertex
 10
1488.219639
 20
923.178848
 30
0.0
  0
VERTEX
  5
5F3
100
AcDbEntity
  8
図
  6
CONTINUOUS
 62
     6
100
AcDbVertex
100
AcDb2dVertex
 10
1488.604139
 20
923.460088
 30
0.0
  0
VERTEX
  5
5F4
100
AcDbEntity
  8
図
  6
CONTINUOUS
 62
     6
100
AcDbVertex
100
AcDb2dVertex
 10
1488.965825
 20
923.778734
 30
0.0
  0
VERTEX
  5
5F5
100
AcDbEntity
  8
図
  6
CONTINUOUS
 62
     6
100
AcDbVertex
100
AcDb2dVertex
 10
1489.301949
 20
924.13236
 30
0.0
  0
VERTEX
  5
5F6
100
AcDbEntity
  8
図
  6
CONTINUOUS
 62
     6
100
AcDbVertex
100
AcDb2dVertex
 10
1489.609949
 20
924.518274
 30
0.0
  0
VERTEX
  5
5F7
100
AcDbEntity
  8
図
  6
CONTINUOUS
 62
     6
100
AcDbVertex
100
AcDb2dVertex
 10
1489.887481
 20
924.933542
 30
0.0
  0
VERTEX
  5
5F8
100
AcDbEntity
  8
図
  6
CONTINUOUS
 62
     6
100
AcDbVertex
100
AcDb2dVertex
 10
1490.132433
 20
925.375
 30
0.0
  0
VERTEX
  5
5F9
100
AcDbEntity
  8
図
  6
CONTINUOUS
 62
     6
100
AcDbVertex
100
AcDb2dVertex
 10
1490.342943
 20
925.83929
 30
0.0
  0
VERTEX
  5
5FA
100
AcDbEntity
  8
図
  6
CONTINUOUS
 62
     6
100
AcDbVertex
100
AcDb2dVertex
 10
1490.517407
 20
926.32288
 30
0.0
  0
VERTEX
  5
5FB
100
AcDbEntity
  8
図
  6
CONTINUOUS
 62
     6
100
AcDbVertex
100
AcDb2dVertex
 10
1490.654499
 20
926.822086
 30
0.0
  0
VERTEX
  5
5FC
100
AcDbEntity
  8
図
  6
CONTINUOUS
 62
     6
100
AcDbVertex
100
AcDb2dVertex
 10
1490.753173
 20
927.333112
 30
0.0
  0
VERTEX
  5
5FD
100
AcDbEntity
  8
図
  6
CONTINUOUS
 62
     6
100
AcDbVertex
100
AcDb2dVertex
 10
1490.812679
 20
927.852066
 30
0.0
  0
VERTEX
  5
5FE
100
AcDbEntity
  8
図
  6
CONTINUOUS
 62
     6
100
AcDbVertex
100
AcDb2dVertex
 10
1490.832565
 20
928.375
 30
0.0
  0
VERTEX
  5
5FF
100
AcDbEntity
  8
図
  6
CONTINUOUS
 62
     6
100
AcDbVertex
100
AcDb2dVertex
 10
1490.812679
 20
928.897934
 30
0.0
  0
VERTEX
  5
600
100
AcDbEntity
  8
図
  6
CONTINUOUS
 62
     6
100
AcDbVertex
100
AcDb2dVertex
 10
1490.753173
 20
929.41689
 30
0.0
  0
VERTEX
  5
601
100
AcDbEntity
  8
図
  6
CONTINUOUS
 62
     6
100
AcDbVertex
100
AcDb2dVertex
 10
1490.654499
 20
929.927914
 30
0.0
  0
VERTEX
  5
602
100
AcDbEntity
  8
図
  6
CONTINUOUS
 62
     6
100
AcDbVertex
100
AcDb2dVertex
 10
1490.517407
 20
930.427122
 30
0.0
  0
VERTEX
  5
603
100
AcDbEntity
  8
図
  6
CONTINUOUS
 62
     6
100
AcDbVertex
100
AcDb2dVertex
 10
1490.342943
 20
930.91071
 30
0.0
  0
VERTEX
  5
604
100
AcDbEntity
  8
図
  6
CONTINUOUS
 62
     6
100
AcDbVertex
100
AcDb2dVertex
 10
1490.132433
 20
931.375
 30
0.0
  0
VERTEX
  5
605
100
AcDbEntity
  8
図
  6
CONTINUOUS
 62
     6
100
AcDbVertex
100
AcDb2dVertex
 10
1489.887481
 20
931.816458
 30
0.0
  0
VERTEX
  5
606
100
AcDbEntity
  8
図
  6
CONTINUOUS
 62
     6
100
AcDbVertex
100
AcDb2dVertex
 10
1489.609949
 20
932.231726
 30
0.0
  0
VERTEX
  5
607
100
AcDbEntity
  8
図
  6
CONTINUOUS
 62
     6
100
AcDbVertex
100
AcDb2dVertex
 10
1489.301949
 20
932.61764
 30
0.0
  0
VERTEX
  5
608
100
AcDbEntity
  8
図
  6
CONTINUOUS
 62
     6
100
AcDbVertex
100
AcDb2dVertex
 10
1488.965825
 20
932.971266
 30
0.0
  0
VERTEX
  5
609
100
AcDbEntity
  8
図
  6
CONTINUOUS
 62
     6
100
AcDbVertex
100
AcDb2dVertex
 10
1488.604139
 20
933.289912
 30
0.0
  0
VERTEX
  5
60A
100
AcDbEntity
  8
図
  6
CONTINUOUS
 62
     6
100
AcDbVertex
100
AcDb2dVertex
 10
1488.219639
 20
933.571152
 30
0.0
  0
VERTEX
  5
60B
100
AcDbEntity
  8
図
  6
CONTINUOUS
 62
     6
100
AcDbVertex
100
AcDb2dVertex
 10
1487.815253
 20
933.812846
 30
0.0
  0
VERTEX
  5
60C
100
AcDbEntity
  8
図
  6
CONTINUOUS
 62
     6
100
AcDbVertex
100
AcDb2dVertex
 10
1487.394059
 20
934.013156
 30
0.0
  0
VERTEX
  5
60D
100
AcDbEntity
  8
図
  6
CONTINUOUS
 62
     6
100
AcDbVertex
100
AcDb2dVertex
 10
1486.959263
 20
934.170556
 30
0.0
  0
VERTEX
  5
60E
100
AcDbEntity
  8
図
  6
CONTINUOUS
 62
     6
100
AcDbVertex
100
AcDb2dVertex
 10
1486.514173
 20
934.283846
 30
0.0
  0
VERTEX
  5
60F
100
AcDbEntity
  8
図
  6
CONTINUOUS
 62
     6
100
AcDbVertex
100
AcDb2dVertex
 10
1486.062175
 20
934.352168
 30
0.0
  0
VERTEX
  5
610
100
AcDbEntity
  8
図
  6
CONTINUOUS
 62
     6
100
AcDbVertex
100
AcDb2dVertex
 10
1485.606713
 20
934.375
 30
0.0
  0
VERTEX
  5
611
100
AcDbEntity
  8
図
  6
CONTINUOUS
 62
     6
100
AcDbVertex
100
AcDb2dVertex
 10
1485.151249
 20
934.352168
 30
0.0
  0
VERTEX
  5
612
100
AcDbEntity
  8
図
  6
CONTINUOUS
 62
     6
100
AcDbVertex
100
AcDb2dVertex
 10
1484.699253
 20
934.283846
 30
0.0
  0
VERTEX
  5
613
100
AcDbEntity
  8
図
  6
CONTINUOUS
 62
     6
100
AcDbVertex
100
AcDb2dVertex
 10
1484.254163
 20
934.170556
 30
0.0
  0
VERTEX
  5
614
100
AcDbEntity
  8
図
  6
CONTINUOUS
 62
     6
100
AcDbVertex
100
AcDb2dVertex
 10
1483.819365
 20
934.013156
 30
0.0
  0
VERTEX
  5
615
100
AcDbEntity
  8
図
  6
CONTINUOUS
 62
     6
100
AcDbVertex
100
AcDb2dVertex
 10
1483.398171
 20
933.812846
 30
0.0
  0
VERTEX
  5
616
100
AcDbEntity
  8
図
  6
CONTINUOUS
 62
     6
100
AcDbVertex
100
AcDb2dVertex
 10
1482.993785
 20
933.571152
 30
0.0
  0
VERTEX
  5
617
100
AcDbEntity
  8
図
  6
CONTINUOUS
 62
     6
100
AcDbVertex
100
AcDb2dVertex
 10
1482.609287
 20
933.289912
 30
0.0
  0
VERTEX
  5
618
100
AcDbEntity
  8
図
  6
CONTINUOUS
 62
     6
100
AcDbVertex
100
AcDb2dVertex
 10
1482.247599
 20
932.971266
 30
0.0
  0
VERTEX
  5
619
100
AcDbEntity
  8
図
  6
CONTINUOUS
 62
     6
100
AcDbVertex
100
AcDb2dVertex
 10
1481.911477
 20
932.61764
 30
0.0
  0
VERTEX
  5
61A
100
AcDbEntity
  8
図
  6
CONTINUOUS
 62
     6
100
AcDbVertex
100
AcDb2dVertex
 10
1481.603477
 20
932.231726
 30
0.0
  0
VERTEX
  5
61B
100
AcDbEntity
  8
図
  6
CONTINUOUS
 62
     6
100
AcDbVertex
100
AcDb2dVertex
 10
1481.325945
 20
931.816458
 30
0.0
  0
VERTEX
  5
61C
100
AcDbEntity
  8
図
  6
CONTINUOUS
 62
     6
100
AcDbVertex
100
AcDb2dVertex
 10
1481.080991
 20
931.375
 30
0.0
  0
VERTEX
  5
61D
100
AcDbEntity
  8
図
  6
CONTINUOUS
 62
     6
100
AcDbVertex
100
AcDb2dVertex
 10
1480.870481
 20
930.91071
 30
0.0
  0
VERTEX
  5
61E
100
AcDbEntity
  8
図
  6
CONTINUOUS
 62
     6
100
AcDbVertex
100
AcDb2dVertex
 10
1480.696017
 20
930.427122
 30
0.0
  0
VERTEX
  5
61F
100
AcDbEntity
  8
図
  6
CONTINUOUS
 62
     6
100
AcDbVertex
100
AcDb2dVertex
 10
1480.558927
 20
929.927914
 30
0.0
  0
VERTEX
  5
620
100
AcDbEntity
  8
図
  6
CONTINUOUS
 62
     6
100
AcDbVertex
100
AcDb2dVertex
 10
1480.460251
 20
929.41689
 30
0.0
  0
VERTEX
  5
621
100
AcDbEntity
  8
図
  6
CONTINUOUS
 62
     6
100
AcDbVertex
100
AcDb2dVertex
 10
1480.400745
 20
928.897934
 30
0.0
  0
VERTEX
  5
622
100
AcDbEntity
  8
図
  6
CONTINUOUS
 62
     6
100
AcDbVertex
100
AcDb2dVertex
 10
1480.380859
 20
928.375
 30
0.0
  0
VERTEX
  5
623
100
AcDbEntity
  8
図
  6
CONTINUOUS
 62
     6
100
AcDbVertex
100
AcDb2dVertex
 10
1480.400745
 20
927.852066
 30
0.0
  0
VERTEX
  5
624
100
AcDbEntity
  8
図
  6
CONTINUOUS
 62
     6
100
AcDbVertex
100
AcDb2dVertex
 10
1480.460251
 20
927.333112
 30
0.0
  0
VERTEX
  5
625
100
AcDbEntity
  8
図
  6
CONTINUOUS
 62
     6
100
AcDbVertex
100
AcDb2dVertex
 10
1480.558927
 20
926.822086
 30
0.0
  0
VERTEX
  5
626
100
AcDbEntity
  8
図
  6
CONTINUOUS
 62
     6
100
AcDbVertex
100
AcDb2dVertex
 10
1480.696017
 20
926.32288
 30
0.0
  0
VERTEX
  5
627
100
AcDbEntity
  8
図
  6
CONTINUOUS
 62
     6
100
AcDbVertex
100
AcDb2dVertex
 10
1480.870481
 20
925.83929
 30
0.0
  0
VERTEX
  5
628
100
AcDbEntity
  8
図
  6
CONTINUOUS
 62
     6
100
AcDbVertex
100
AcDb2dVertex
 10
1481.080991
 20
925.375
 30
0.0
  0
VERTEX
  5
629
100
AcDbEntity
  8
図
  6
CONTINUOUS
 62
     6
100
AcDbVertex
100
AcDb2dVertex
 10
1481.325945
 20
924.933542
 30
0.0
  0
VERTEX
  5
62A
100
AcDbEntity
  8
図
  6
CONTINUOUS
 62
     6
100
AcDbVertex
100
AcDb2dVertex
 10
1481.603477
 20
924.518274
 30
0.0
  0
VERTEX
  5
62B
100
AcDbEntity
  8
図
  6
CONTINUOUS
 62
     6
100
AcDbVertex
100
AcDb2dVertex
 10
1481.911477
 20
924.13236
 30
0.0
  0
VERTEX
  5
62C
100
AcDbEntity
  8
図
  6
CONTINUOUS
 62
     6
100
AcDbVertex
100
AcDb2dVertex
 10
1482.247599
 20
923.778734
 30
0.0
  0
VERTEX
  5
62D
100
AcDbEntity
  8
図
  6
CONTINUOUS
 62
     6
100
AcDbVertex
100
AcDb2dVertex
 10
1482.609287
 20
923.460088
 30
0.0
  0
VERTEX
  5
62E
100
AcDbEntity
  8
図
  6
CONTINUOUS
 62
     6
100
AcDbVertex
100
AcDb2dVertex
 10
1482.993785
 20
923.178848
 30
0.0
  0
VERTEX
  5
62F
100
AcDbEntity
  8
図
  6
CONTINUOUS
 62
     6
100
AcDbVertex
100
AcDb2dVertex
 10
1483.398171
 20
922.937154
 30
0.0
  0
VERTEX
  5
630
100
AcDbEntity
  8
図
  6
CONTINUOUS
 62
     6
100
AcDbVertex
100
AcDb2dVertex
 10
1483.819365
 20
922.736844
 30
0.0
  0
VERTEX
  5
631
100
AcDbEntity
  8
図
  6
CONTINUOUS
 62
     6
100
AcDbVertex
100
AcDb2dVertex
 10
1484.254163
 20
922.579446
 30
0.0
  0
VERTEX
  5
632
100
AcDbEntity
  8
図
  6
CONTINUOUS
 62
     6
100
AcDbVertex
100
AcDb2dVertex
 10
1484.699253
 20
922.466154
 30
0.0
  0
VERTEX
  5
633
100
AcDbEntity
  8
図
  6
CONTINUOUS
 62
     6
100
AcDbVertex
100
AcDb2dVertex
 10
1485.151249
 20
922.397832
 30
0.0
  0
VERTEX
  5
634
100
AcDbEntity
  8
図
  6
CONTINUOUS
 62
     6
100
AcDbVertex
100
AcDb2dVertex
 10
1485.606713
 20
922.375
 30
0.0
  0
SEQEND
  5
635
100
AcDbEntity
  8
図
  6
CONTINUOUS
 62
     6
  0
POLYLINE
  5
636
100
AcDbEntity
  8
図
  6
CONTINUOUS
 62
     6
100
AcDb2dPolyline
 66
     1
 10
0.0
 20
0.0
 30
0.0
 70
   128
  0
VERTEX
  5
637
100
AcDbEntity
  8
図
  6
CONTINUOUS
 62
     6
100
AcDbVertex
100
AcDb2dVertex
 10
1516.235977
 20
928.375
 30
0.0
  0
VERTEX
  5
638
100
AcDbEntity
  8
図
  6
CONTINUOUS
 62
     6
100
AcDbVertex
100
AcDb2dVertex
 10
1516.196205
 20
928.897934
 30
0.0
  0
VERTEX
  5
639
100
AcDbEntity
  8
図
  6
CONTINUOUS
 62
     6
100
AcDbVertex
100
AcDb2dVertex
 10
1516.077193
 20
929.41689
 30
0.0
  0
VERTEX
  5
63A
100
AcDbEntity
  8
図
  6
CONTINUOUS
 62
     6
100
AcDbVertex
100
AcDb2dVertex
 10
1515.879843
 20
929.927914
 30
0.0
  0
VERTEX
  5
63B
100
AcDbEntity
  8
図
  6
CONTINUOUS
 62
     6
100
AcDbVertex
100
AcDb2dVertex
 10
1515.605663
 20
930.427122
 30
0.0
  0
VERTEX
  5
63C
100
AcDbEntity
  8
図
  6
CONTINUOUS
 62
     6
100
AcDbVertex
100
AcDb2dVertex
 10
1515.256733
 20
930.91071
 30
0.0
  0
VERTEX
  5
63D
100
AcDbEntity
  8
図
  6
CONTINUOUS
 62
     6
100
AcDbVertex
100
AcDb2dVertex
 10
1514.835715
 20
931.375
 30
0.0
  0
VERTEX
  5
63E
100
AcDbEntity
  8
図
  6
CONTINUOUS
 62
     6
100
AcDbVertex
100
AcDb2dVertex
 10
1514.345807
 20
931.816458
 30
0.0
  0
VERTEX
  5
63F
100
AcDbEntity
  8
図
  6
CONTINUOUS
 62
     6
100
AcDbVertex
100
AcDb2dVertex
 10
1513.790743
 20
932.231726
 30
0.0
  0
VERTEX
  5
640
100
AcDbEntity
  8
図
  6
CONTINUOUS
 62
     6
100
AcDbVertex
100
AcDb2dVertex
 10
1513.174743
 20
932.61764
 30
0.0
  0
VERTEX
  5
641
100
AcDbEntity
  8
図
  6
CONTINUOUS
 62
     6
100
AcDbVertex
100
AcDb2dVertex
 10
1512.502499
 20
932.971266
 30
0.0
  0
VERTEX
  5
642
100
AcDbEntity
  8
図
  6
CONTINUOUS
 62
     6
100
AcDbVertex
100
AcDb2dVertex
 10
1511.779123
 20
933.289912
 30
0.0
  0
VERTEX
  5
643
100
AcDbEntity
  8
図
  6
CONTINUOUS
 62
     6
100
AcDbVertex
100
AcDb2dVertex
 10
1511.010125
 20
933.571152
 30
0.0
  0
VERTEX
  5
644
100
AcDbEntity
  8
図
  6
CONTINUOUS
 62
     6
100
AcDbVertex
100
AcDb2dVertex
 10
1510.201353
 20
933.812846
 30
0.0
  0
VERTEX
  5
645
100
AcDbEntity
  8
図
  6
CONTINUOUS
 62
     6
100
AcDbVertex
100
AcDb2dVertex
 10
1509.358965
 20
934.013156
 30
0.0
  0
VERTEX
  5
646
100
AcDbEntity
  8
図
  6
CONTINUOUS
 62
     6
100
AcDbVertex
100
AcDb2dVertex
 10
1508.489371
 20
934.170556
 30
0.0
  0
VERTEX
  5
647
100
AcDbEntity
  8
図
  6
CONTINUOUS
 62
     6
100
AcDbVertex
100
AcDb2dVertex
 10
1507.599191
 20
934.283846
 30
0.0
  0
VERTEX
  5
648
100
AcDbEntity
  8
図
  6
CONTINUOUS
 62
     6
100
AcDbVertex
100
AcDb2dVertex
 10
1506.695197
 20
934.352168
 30
0.0
  0
VERTEX
  5
649
100
AcDbEntity
  8
図
  6
CONTINUOUS
 62
     6
100
AcDbVertex
100
AcDb2dVertex
 10
1505.784271
 20
934.375
 30
0.0
  0
VERTEX
  5
64A
100
AcDbEntity
  8
図
  6
CONTINUOUS
 62
     6
100
AcDbVertex
100
AcDb2dVertex
 10
1504.873345
 20
934.352168
 30
0.0
  0
VERTEX
  5
64B
100
AcDbEntity
  8
図
  6
CONTINUOUS
 62
     6
100
AcDbVertex
100
AcDb2dVertex
 10
1503.969351
 20
934.283846
 30
0.0
  0
VERTEX
  5
64C
100
AcDbEntity
  8
図
  6
CONTINUOUS
 62
     6
100
AcDbVertex
100
AcDb2dVertex
 10
1503.079171
 20
934.170556
 30
0.0
  0
VERTEX
  5
64D
100
AcDbEntity
  8
図
  6
CONTINUOUS
 62
     6
100
AcDbVertex
100
AcDb2dVertex
 10
1502.209577
 20
934.013156
 30
0.0
  0
VERTEX
  5
64E
100
AcDbEntity
  8
図
  6
CONTINUOUS
 62
     6
100
AcDbVertex
100
AcDb2dVertex
 10
1501.367189
 20
933.812846
 30
0.0
  0
VERTEX
  5
64F
100
AcDbEntity
  8
図
  6
CONTINUOUS
 62
     6
100
AcDbVertex
100
AcDb2dVertex
 10
1500.558419
 20
933.571152
 30
0.0
  0
VERTEX
  5
650
100
AcDbEntity
  8
図
  6
CONTINUOUS
 62
     6
100
AcDbVertex
100
AcDb2dVertex
 10
1499.789419
 20
933.289912
 30
0.0
  0
VERTEX
  5
651
100
AcDbEntity
  8
図
  6
CONTINUOUS
 62
     6
100
AcDbVertex
100
AcDb2dVertex
 10
1499.066045
 20
932.971266
 30
0.0
  0
VERTEX
  5
652
100
AcDbEntity
  8
図
  6
CONTINUOUS
 62
     6
100
AcDbVertex
100
AcDb2dVertex
 10
1498.393799
 20
932.61764
 30
0.0
  0
VERTEX
  5
653
100
AcDbEntity
  8
図
  6
CONTINUOUS
 62
     6
100
AcDbVertex
100
AcDb2dVertex
 10
1497.777801
 20
932.231726
 30
0.0
  0
VERTEX
  5
654
100
AcDbEntity
  8
図
  6
CONTINUOUS
 62
     6
100
AcDbVertex
100
AcDb2dVertex
 10
1497.222735
 20
931.816458
 30
0.0
  0
VERTEX
  5
655
100
AcDbEntity
  8
図
  6
CONTINUOUS
 62
     6
100
AcDbVertex
100
AcDb2dVertex
 10
1496.732829
 20
931.375
 30
0.0
  0
VERTEX
  5
656
100
AcDbEntity
  8
図
  6
CONTINUOUS
 62
     6
100
AcDbVertex
100
AcDb2dVertex
 10
1496.311809
 20
930.91071
 30
0.0
  0
VERTEX
  5
657
100
AcDbEntity
  8
図
  6
CONTINUOUS
 62
     6
100
AcDbVertex
100
AcDb2dVertex
 10
1495.962881
 20
930.427122
 30
0.0
  0
VERTEX
  5
658
100
AcDbEntity
  8
図
  6
CONTINUOUS
 62
     6
100
AcDbVertex
100
AcDb2dVertex
 10
1495.688699
 20
929.927914
 30
0.0
  0
VERTEX
  5
659
100
AcDbEntity
  8
図
  6
CONTINUOUS
 62
     6
100
AcDbVertex
100
AcDb2dVertex
 10
1495.491351
 20
929.41689
 30
0.0
  0
VERTEX
  5
65A
100
AcDbEntity
  8
図
  6
CONTINUOUS
 62
     6
100
AcDbVertex
100
AcDb2dVertex
 10
1495.372337
 20
928.897934
 30
0.0
  0
VERTEX
  5
65B
100
AcDbEntity
  8
図
  6
CONTINUOUS
 62
     6
100
AcDbVertex
100
AcDb2dVertex
 10
1495.332565
 20
928.375
 30
0.0
  0
VERTEX
  5
65C
100
AcDbEntity
  8
図
  6
CONTINUOUS
 62
     6
100
AcDbVertex
100
AcDb2dVertex
 10
1495.372337
 20
927.852066
 30
0.0
  0
VERTEX
  5
65D
100
AcDbEntity
  8
図
  6
CONTINUOUS
 62
     6
100
AcDbVertex
100
AcDb2dVertex
 10
1495.491351
 20
927.333112
 30
0.0
  0
VERTEX
  5
65E
100
AcDbEntity
  8
図
  6
CONTINUOUS
 62
     6
100
AcDbVertex
100
AcDb2dVertex
 10
1495.688699
 20
926.822086
 30
0.0
  0
VERTEX
  5
65F
100
AcDbEntity
  8
図
  6
CONTINUOUS
 62
     6
100
AcDbVertex
100
AcDb2dVertex
 10
1495.962881
 20
926.32288
 30
0.0
  0
VERTEX
  5
660
100
AcDbEntity
  8
図
  6
CONTINUOUS
 62
     6
100
AcDbVertex
100
AcDb2dVertex
 10
1496.311809
 20
925.83929
 30
0.0
  0
VERTEX
  5
661
100
AcDbEntity
  8
図
  6
CONTINUOUS
 62
     6
100
AcDbVertex
100
AcDb2dVertex
 10
1496.732829
 20
925.375
 30
0.0
  0
VERTEX
  5
662
100
AcDbEntity
  8
図
  6
CONTINUOUS
 62
     6
100
AcDbVertex
100
AcDb2dVertex
 10
1497.222735
 20
924.933542
 30
0.0
  0
VERTEX
  5
663
100
AcDbEntity
  8
図
  6
CONTINUOUS
 62
     6
100
AcDbVertex
100
AcDb2dVertex
 10
1497.777801
 20
924.518274
 30
0.0
  0
VERTEX
  5
664
100
AcDbEntity
  8
図
  6
CONTINUOUS
 62
     6
100
AcDbVertex
100
AcDb2dVertex
 10
1498.393799
 20
924.13236
 30
0.0
  0
VERTEX
  5
665
100
AcDbEntity
  8
図
  6
CONTINUOUS
 62
     6
100
AcDbVertex
100
AcDb2dVertex
 10
1499.066045
 20
923.778734
 30
0.0
  0
VERTEX
  5
666
100
AcDbEntity
  8
図
  6
CONTINUOUS
 62
     6
100
AcDbVertex
100
AcDb2dVertex
 10
1499.789419
 20
923.460088
 30
0.0
  0
VERTEX
  5
667
100
AcDbEntity
  8
図
  6
CONTINUOUS
 62
     6
100
AcDbVertex
100
AcDb2dVertex
 10
1500.558419
 20
923.178848
 30
0.0
  0
VERTEX
  5
668
100
AcDbEntity
  8
図
  6
CONTINUOUS
 62
     6
100
AcDbVertex
100
AcDb2dVertex
 10
1501.367189
 20
922.937154
 30
0.0
  0
VERTEX
  5
669
100
AcDbEntity
  8
図
  6
CONTINUOUS
 62
     6
100
AcDbVertex
100
AcDb2dVertex
 10
1502.209577
 20
922.736844
 30
0.0
  0
VERTEX
  5
66A
100
AcDbEntity
  8
図
  6
CONTINUOUS
 62
     6
100
AcDbVertex
100
AcDb2dVertex
 10
1503.079171
 20
922.579446
 30
0.0
  0
VERTEX
  5
66B
100
AcDbEntity
  8
図
  6
CONTINUOUS
 62
     6
100
AcDbVertex
100
AcDb2dVertex
 10
1503.969351
 20
922.466154
 30
0.0
  0
VERTEX
  5
66C
100
AcDbEntity
  8
図
  6
CONTINUOUS
 62
     6
100
AcDbVertex
100
AcDb2dVertex
 10
1504.873345
 20
922.397832
 30
0.0
  0
VERTEX
  5
66D
100
AcDbEntity
  8
図
  6
CONTINUOUS
 62
     6
100
AcDbVertex
100
AcDb2dVertex
 10
1505.784271
 20
922.375
 30
0.0
  0
VERTEX
  5
66E
100
AcDbEntity
  8
図
  6
CONTINUOUS
 62
     6
100
AcDbVertex
100
AcDb2dVertex
 10
1506.695197
 20
922.397832
 30
0.0
  0
VERTEX
  5
66F
100
AcDbEntity
  8
図
  6
CONTINUOUS
 62
     6
100
AcDbVertex
100
AcDb2dVertex
 10
1507.599191
 20
922.466154
 30
0.0
  0
VERTEX
  5
670
100
AcDbEntity
  8
図
  6
CONTINUOUS
 62
     6
100
AcDbVertex
100
AcDb2dVertex
 10
1508.489371
 20
922.579446
 30
0.0
  0
VERTEX
  5
671
100
AcDbEntity
  8
図
  6
CONTINUOUS
 62
     6
100
AcDbVertex
100
AcDb2dVertex
 10
1509.358965
 20
922.736844
 30
0.0
  0
VERTEX
  5
672
100
AcDbEntity
  8
図
  6
CONTINUOUS
 62
     6
100
AcDbVertex
100
AcDb2dVertex
 10
1510.201353
 20
922.937154
 30
0.0
  0
VERTEX
  5
673
100
AcDbEntity
  8
図
  6
CONTINUOUS
 62
     6
100
AcDbVertex
100
AcDb2dVertex
 10
1511.010125
 20
923.178848
 30
0.0
  0
VERTEX
  5
674
100
AcDbEntity
  8
図
  6
CONTINUOUS
 62
     6
100
AcDbVertex
100
AcDb2dVertex
 10
1511.779123
 20
923.460088
 30
0.0
  0
VERTEX
  5
675
100
AcDbEntity
  8
図
  6
CONTINUOUS
 62
     6
100
AcDbVertex
100
AcDb2dVertex
 10
1512.502499
 20
923.778734
 30
0.0
  0
VERTEX
  5
676
100
AcDbEntity
  8
図
  6
CONTINUOUS
 62
     6
100
AcDbVertex
100
AcDb2dVertex
 10
1513.174743
 20
924.13236
 30
0.0
  0
VERTEX
  5
677
100
AcDbEntity
  8
図
  6
CONTINUOUS
 62
     6
100
AcDbVertex
100
AcDb2dVertex
 10
1513.790743
 20
924.518274
 30
0.0
  0
VERTEX
  5
678
100
AcDbEntity
  8
図
  6
CONTINUOUS
 62
     6
100
AcDbVertex
100
AcDb2dVertex
 10
1514.345807
 20
924.933542
 30
0.0
  0
VERTEX
  5
679
100
AcDbEntity
  8
図
  6
CONTINUOUS
 62
     6
100
AcDbVertex
100
AcDb2dVertex
 10
1514.835715
 20
925.375
 30
0.0
  0
VERTEX
  5
67A
100
AcDbEntity
  8
図
  6
CONTINUOUS
 62
     6
100
AcDbVertex
100
AcDb2dVertex
 10
1515.256733
 20
925.83929
 30
0.0
  0
VERTEX
  5
67B
100
AcDbEntity
  8
図
  6
CONTINUOUS
 62
     6
100
AcDbVertex
100
AcDb2dVertex
 10
1515.605663
 20
926.32288
 30
0.0
  0
VERTEX
  5
67C
100
AcDbEntity
  8
図
  6
CONTINUOUS
 62
     6
100
AcDbVertex
100
AcDb2dVertex
 10
1515.879843
 20
926.822086
 30
0.0
  0
VERTEX
  5
67D
100
AcDbEntity
  8
図
  6
CONTINUOUS
 62
     6
100
AcDbVertex
100
AcDb2dVertex
 10
1516.077193
 20
927.333112
 30
0.0
  0
VERTEX
  5
67E
100
AcDbEntity
  8
図
  6
CONTINUOUS
 62
     6
100
AcDbVertex
100
AcDb2dVertex
 10
1516.196205
 20
927.852066
 30
0.0
  0
VERTEX
  5
67F
100
AcDbEntity
  8
図
  6
CONTINUOUS
 62
     6
100
AcDbVertex
100
AcDb2dVertex
 10
1516.235977
 20
928.375
 30
0.0
  0
SEQEND
  5
680
100
AcDbEntity
  8
図
  6
CONTINUOUS
 62
     6
  0
POLYLINE
  5
681
100
AcDbEntity
  8
図
  6
CONTINUOUS
 62
     6
100
AcDb2dPolyline
 66
     1
 10
0.0
 20
0.0
 30
0.0
 70
   128
  0
VERTEX
  5
682
100
AcDbEntity
  8
図
  6
CONTINUOUS
 62
     6
100
AcDbVertex
100
AcDb2dVertex
 10
1525.961831
 20
922.375
 30
0.0
  0
VERTEX
  5
683
100
AcDbEntity
  8
図
  6
CONTINUOUS
 62
     6
100
AcDbVertex
100
AcDb2dVertex
 10
1526.417293
 20
922.397832
 30
0.0
  0
VERTEX
  5
684
100
AcDbEntity
  8
図
  6
CONTINUOUS
 62
     6
100
AcDbVertex
100
AcDb2dVertex
 10
1526.869291
 20
922.466154
 30
0.0
  0
VERTEX
  5
685
100
AcDbEntity
  8
図
  6
CONTINUOUS
 62
     6
100
AcDbVertex
100
AcDb2dVertex
 10
1527.314381
 20
922.579446
 30
0.0
  0
VERTEX
  5
686
100
AcDbEntity
  8
図
  6
CONTINUOUS
 62
     6
100
AcDbVertex
100
AcDb2dVertex
 10
1527.749177
 20
922.736844
 30
0.0
  0
VERTEX
  5
687
100
AcDbEntity
  8
図
  6
CONTINUOUS
 62
     6
100
AcDbVertex
100
AcDb2dVertex
 10
1528.170371
 20
922.937154
 30
0.0
  0
VERTEX
  5
688
100
AcDbEntity
  8
図
  6
CONTINUOUS
 62
     6
100
AcDbVertex
100
AcDb2dVertex
 10
1528.574757
 20
923.178848
 30
0.0
  0
VERTEX
  5
689
100
AcDbEntity
  8
図
  6
CONTINUOUS
 62
     6
100
AcDbVertex
100
AcDb2dVertex
 10
1528.959257
 20
923.460088
 30
0.0
  0
VERTEX
  5
68A
100
AcDbEntity
  8
図
  6
CONTINUOUS
 62
     6
100
AcDbVertex
100
AcDb2dVertex
 10
1529.320943
 20
923.778734
 30
0.0
  0
VERTEX
  5
68B
100
AcDbEntity
  8
図
  6
CONTINUOUS
 62
     6
100
AcDbVertex
100
AcDb2dVertex
 10
1529.657067
 20
924.13236
 30
0.0
  0
VERTEX
  5
68C
100
AcDbEntity
  8
図
  6
CONTINUOUS
 62
     6
100
AcDbVertex
100
AcDb2dVertex
 10
1529.965065
 20
924.518274
 30
0.0
  0
VERTEX
  5
68D
100
AcDbEntity
  8
図
  6
CONTINUOUS
 62
     6
100
AcDbVertex
100
AcDb2dVertex
 10
1530.242599
 20
924.933542
 30
0.0
  0
VERTEX
  5
68E
100
AcDbEntity
  8
図
  6
CONTINUOUS
 62
     6
100
AcDbVertex
100
AcDb2dVertex
 10
1530.487551
 20
925.375
 30
0.0
  0
VERTEX
  5
68F
100
AcDbEntity
  8
図
  6
CONTINUOUS
 62
     6
100
AcDbVertex
100
AcDb2dVertex
 10
1530.698061
 20
925.83929
 30
0.0
  0
VERTEX
  5
690
100
AcDbEntity
  8
図
  6
CONTINUOUS
 62
     6
100
AcDbVertex
100
AcDb2dVertex
 10
1530.872525
 20
926.32288
 30
0.0
  0
VERTEX
  5
691
100
AcDbEntity
  8
図
  6
CONTINUOUS
 62
     6
100
AcDbVertex
100
AcDb2dVertex
 10
1531.009617
 20
926.822086
 30
0.0
  0
VERTEX
  5
692
100
AcDbEntity
  8
図
  6
CONTINUOUS
 62
     6
100
AcDbVertex
100
AcDb2dVertex
 10
1531.108291
 20
927.333112
 30
0.0
  0
VERTEX
  5
693
100
AcDbEntity
  8
図
  6
CONTINUOUS
 62
     6
100
AcDbVertex
100
AcDb2dVertex
 10
1531.167797
 20
927.852066
 30
0.0
  0
VERTEX
  5
694
100
AcDbEntity
  8
図
  6
CONTINUOUS
 62
     6
100
AcDbVertex
100
AcDb2dVertex
 10
1531.187683
 20
928.375
 30
0.0
  0
VERTEX
  5
695
100
AcDbEntity
  8
図
  6
CONTINUOUS
 62
     6
100
AcDbVertex
100
AcDb2dVertex
 10
1531.167797
 20
928.897934
 30
0.0
  0
VERTEX
  5
696
100
AcDbEntity
  8
図
  6
CONTINUOUS
 62
     6
100
AcDbVertex
100
AcDb2dVertex
 10
1531.108291
 20
929.41689
 30
0.0
  0
VERTEX
  5
697
100
AcDbEntity
  8
図
  6
CONTINUOUS
 62
     6
100
AcDbVertex
100
AcDb2dVertex
 10
1531.009617
 20
929.927914
 30
0.0
  0
VERTEX
  5
698
100
AcDbEntity
  8
図
  6
CONTINUOUS
 62
     6
100
AcDbVertex
100
AcDb2dVertex
 10
1530.872525
 20
930.427122
 30
0.0
  0
VERTEX
  5
699
100
AcDbEntity
  8
図
  6
CONTINUOUS
 62
     6
100
AcDbVertex
100
AcDb2dVertex
 10
1530.698061
 20
930.91071
 30
0.0
  0
VERTEX
  5
69A
100
AcDbEntity
  8
図
  6
CONTINUOUS
 62
     6
100
AcDbVertex
100
AcDb2dVertex
 10
1530.487551
 20
931.375
 30
0.0
  0
VERTEX
  5
69B
100
AcDbEntity
  8
図
  6
CONTINUOUS
 62
     6
100
AcDbVertex
100
AcDb2dVertex
 10
1530.242599
 20
931.816458
 30
0.0
  0
VERTEX
  5
69C
100
AcDbEntity
  8
図
  6
CONTINUOUS
 62
     6
100
AcDbVertex
100
AcDb2dVertex
 10
1529.965065
 20
932.231726
 30
0.0
  0
VERTEX
  5
69D
100
AcDbEntity
  8
図
  6
CONTINUOUS
 62
     6
100
AcDbVertex
100
AcDb2dVertex
 10
1529.657067
 20
932.61764
 30
0.0
  0
VERTEX
  5
69E
100
AcDbEntity
  8
図
  6
CONTINUOUS
 62
     6
100
AcDbVertex
100
AcDb2dVertex
 10
1529.320943
 20
932.971266
 30
0.0
  0
VERTEX
  5
69F
100
AcDbEntity
  8
図
  6
CONTINUOUS
 62
     6
100
AcDbVertex
100
AcDb2dVertex
 10
1528.959257
 20
933.289912
 30
0.0
  0
VERTEX
  5
6A0
100
AcDbEntity
  8
図
  6
CONTINUOUS
 62
     6
100
AcDbVertex
100
AcDb2dVertex
 10
1528.574757
 20
933.571152
 30
0.0
  0
VERTEX
  5
6A1
100
AcDbEntity
  8
図
  6
CONTINUOUS
 62
     6
100
AcDbVertex
100
AcDb2dVertex
 10
1528.170371
 20
933.812846
 30
0.0
  0
VERTEX
  5
6A2
100
AcDbEntity
  8
図
  6
CONTINUOUS
 62
     6
100
AcDbVertex
100
AcDb2dVertex
 10
1527.749177
 20
934.013156
 30
0.0
  0
VERTEX
  5
6A3
100
AcDbEntity
  8
図
  6
CONTINUOUS
 62
     6
100
AcDbVertex
100
AcDb2dVertex
 10
1527.314381
 20
934.170556
 30
0.0
  0
VERTEX
  5
6A4
100
AcDbEntity
  8
図
  6
CONTINUOUS
 62
     6
100
AcDbVertex
100
AcDb2dVertex
 10
1526.869291
 20
934.283846
 30
0.0
  0
VERTEX
  5
6A5
100
AcDbEntity
  8
図
  6
CONTINUOUS
 62
     6
100
AcDbVertex
100
AcDb2dVertex
 10
1526.417293
 20
934.352168
 30
0.0
  0
VERTEX
  5
6A6
100
AcDbEntity
  8
図
  6
CONTINUOUS
 62
     6
100
AcDbVertex
100
AcDb2dVertex
 10
1525.961831
 20
934.375
 30
0.0
  0
VERTEX
  5
6A7
100
AcDbEntity
  8
図
  6
CONTINUOUS
 62
     6
100
AcDbVertex
100
AcDb2dVertex
 10
1525.506367
 20
934.352168
 30
0.0
  0
VERTEX
  5
6A8
100
AcDbEntity
  8
図
  6
CONTINUOUS
 62
     6
100
AcDbVertex
100
AcDb2dVertex
 10
1525.054371
 20
934.283846
 30
0.0
  0
VERTEX
  5
6A9
100
AcDbEntity
  8
図
  6
CONTINUOUS
 62
     6
100
AcDbVertex
100
AcDb2dVertex
 10
1524.609279
 20
934.170556
 30
0.0
  0
VERTEX
  5
6AA
100
AcDbEntity
  8
図
  6
CONTINUOUS
 62
     6
100
AcDbVertex
100
AcDb2dVertex
 10
1524.174483
 20
934.013156
 30
0.0
  0
VERTEX
  5
6AB
100
AcDbEntity
  8
図
  6
CONTINUOUS
 62
     6
100
AcDbVertex
100
AcDb2dVertex
 10
1523.753289
 20
933.812846
 30
0.0
  0
VERTEX
  5
6AC
100
AcDbEntity
  8
図
  6
CONTINUOUS
 62
     6
100
AcDbVertex
100
AcDb2dVertex
 10
1523.348903
 20
933.571152
 30
0.0
  0
VERTEX
  5
6AD
100
AcDbEntity
  8
図
  6
CONTINUOUS
 62
     6
100
AcDbVertex
100
AcDb2dVertex
 10
1522.964405
 20
933.289912
 30
0.0
  0
VERTEX
  5
6AE
100
AcDbEntity
  8
図
  6
CONTINUOUS
 62
     6
100
AcDbVertex
100
AcDb2dVertex
 10
1522.602717
 20
932.971266
 30
0.0
  0
VERTEX
  5
6AF
100
AcDbEntity
  8
図
  6
CONTINUOUS
 62
     6
100
AcDbVertex
100
AcDb2dVertex
 10
1522.266595
 20
932.61764
 30
0.0
  0
VERTEX
  5
6B0
100
AcDbEntity
  8
図
  6
CONTINUOUS
 62
     6
100
AcDbVertex
100
AcDb2dVertex
 10
1521.958595
 20
932.231726
 30
0.0
  0
VERTEX
  5
6B1
100
AcDbEntity
  8
図
  6
CONTINUOUS
 62
     6
100
AcDbVertex
100
AcDb2dVertex
 10
1521.681063
 20
931.816458
 30
0.0
  0
VERTEX
  5
6B2
100
AcDbEntity
  8
図
  6
CONTINUOUS
 62
     6
100
AcDbVertex
100
AcDb2dVertex
 10
1521.436109
 20
931.375
 30
0.0
  0
VERTEX
  5
6B3
100
AcDbEntity
  8
図
  6
CONTINUOUS
 62
     6
100
AcDbVertex
100
AcDb2dVertex
 10
1521.225599
 20
930.91071
 30
0.0
  0
VERTEX
  5
6B4
100
AcDbEntity
  8
図
  6
CONTINUOUS
 62
     6
100
AcDbVertex
100
AcDb2dVertex
 10
1521.051135
 20
930.427122
 30
0.0
  0
VERTEX
  5
6B5
100
AcDbEntity
  8
図
  6
CONTINUOUS
 62
     6
100
AcDbVertex
100
AcDb2dVertex
 10
1520.914043
 20
929.927914
 30
0.0
  0
VERTEX
  5
6B6
100
AcDbEntity
  8
図
  6
CONTINUOUS
 62
     6
100
AcDbVertex
100
AcDb2dVertex
 10
1520.815369
 20
929.41689
 30
0.0
  0
VERTEX
  5
6B7
100
AcDbEntity
  8
図
  6
CONTINUOUS
 62
     6
100
AcDbVertex
100
AcDb2dVertex
 10
1520.755863
 20
928.897934
 30
0.0
  0
VERTEX
  5
6B8
100
AcDbEntity
  8
図
  6
CONTINUOUS
 62
     6
100
AcDbVertex
100
AcDb2dVertex
 10
1520.735977
 20
928.375
 30
0.0
  0
VERTEX
  5
6B9
100
AcDbEntity
  8
図
  6
CONTINUOUS
 62
     6
100
AcDbVertex
100
AcDb2dVertex
 10
1520.755863
 20
927.852066
 30
0.0
  0
VERTEX
  5
6BA
100
AcDbEntity
  8
図
  6
CONTINUOUS
 62
     6
100
AcDbVertex
100
AcDb2dVertex
 10
1520.815369
 20
927.333112
 30
0.0
  0
VERTEX
  5
6BB
100
AcDbEntity
  8
図
  6
CONTINUOUS
 62
     6
100
AcDbVertex
100
AcDb2dVertex
 10
1520.914043
 20
926.822086
 30
0.0
  0
VERTEX
  5
6BC
100
AcDbEntity
  8
図
  6
CONTINUOUS
 62
     6
100
AcDbVertex
100
AcDb2dVertex
 10
1521.051135
 20
926.32288
 30
0.0
  0
VERTEX
  5
6BD
100
AcDbEntity
  8
図
  6
CONTINUOUS
 62
     6
100
AcDbVertex
100
AcDb2dVertex
 10
1521.225599
 20
925.83929
 30
0.0
  0
VERTEX
  5
6BE
100
AcDbEntity
  8
図
  6
CONTINUOUS
 62
     6
100
AcDbVertex
100
AcDb2dVertex
 10
1521.436109
 20
925.375
 30
0.0
  0
VERTEX
  5
6BF
100
AcDbEntity
  8
図
  6
CONTINUOUS
 62
     6
100
AcDbVertex
100
AcDb2dVertex
 10
1521.681063
 20
924.933542
 30
0.0
  0
VERTEX
  5
6C0
100
AcDbEntity
  8
図
  6
CONTINUOUS
 62
     6
100
AcDbVertex
100
AcDb2dVertex
 10
1521.958595
 20
924.518274
 30
0.0
  0
VERTEX
  5
6C1
100
AcDbEntity
  8
図
  6
CONTINUOUS
 62
     6
100
AcDbVertex
100
AcDb2dVertex
 10
1522.266595
 20
924.13236
 30
0.0
  0
VERTEX
  5
6C2
100
AcDbEntity
  8
図
  6
CONTINUOUS
 62
     6
100
AcDbVertex
100
AcDb2dVertex
 10
1522.602717
 20
923.778734
 30
0.0
  0
VERTEX
  5
6C3
100
AcDbEntity
  8
図
  6
CONTINUOUS
 62
     6
100
AcDbVertex
100
AcDb2dVertex
 10
1522.964405
 20
923.460088
 30
0.0
  0
VERTEX
  5
6C4
100
AcDbEntity
  8
図
  6
CONTINUOUS
 62
     6
100
AcDbVertex
100
AcDb2dVertex
 10
1523.348903
 20
923.178848
 30
0.0
  0
VERTEX
  5
6C5
100
AcDbEntity
  8
図
  6
CONTINUOUS
 62
     6
100
AcDbVertex
100
AcDb2dVertex
 10
1523.753289
 20
922.937154
 30
0.0
  0
VERTEX
  5
6C6
100
AcDbEntity
  8
図
  6
CONTINUOUS
 62
     6
100
AcDbVertex
100
AcDb2dVertex
 10
1524.174483
 20
922.736844
 30
0.0
  0
VERTEX
  5
6C7
100
AcDbEntity
  8
図
  6
CONTINUOUS
 62
     6
100
AcDbVertex
100
AcDb2dVertex
 10
1524.609279
 20
922.579446
 30
0.0
  0
VERTEX
  5
6C8
100
AcDbEntity
  8
図
  6
CONTINUOUS
 62
     6
100
AcDbVertex
100
AcDb2dVertex
 10
1525.054371
 20
922.466154
 30
0.0
  0
VERTEX
  5
6C9
100
AcDbEntity
  8
図
  6
CONTINUOUS
 62
     6
100
AcDbVertex
100
AcDb2dVertex
 10
1525.506367
 20
922.397832
 30
0.0
  0
VERTEX
  5
6CA
100
AcDbEntity
  8
図
  6
CONTINUOUS
 62
     6
100
AcDbVertex
100
AcDb2dVertex
 10
1525.961831
 20
922.375
 30
0.0
  0
SEQEND
  5
6CB
100
AcDbEntity
  8
図
  6
CONTINUOUS
 62
     6
  0
LINE
  5
6CC
100
AcDbEntity
  8
図
  6
CONTINUOUS
 62
     6
100
AcDbLine
 10
1486.800271
 20
919.375
 30
0.0
 11
1486.800271
 21
922.375
 31
0.0
  0
LINE
  5
6CD
100
AcDbEntity
  8
図
  6
CONTINUOUS
 62
     6
100
AcDbLine
 10
1524.768271
 20
919.375
 30
0.0
 11
1524.768271
 21
922.375
 31
0.0
  0
LINE
  5
6CE
100
AcDbEntity
  8
図
  6
EXLTYPE3
 62
     6
100
AcDbLine
 10
1505.784271
 20
918.0
 30
0.0
 11
1505.784271
 21
936.3
 31
0.0
  0
ARC
  5
6CF
100
AcDbEntity
  8
図
  6
CONTINUOUS
 62
     2
100
AcDbCircle
 10
1467.784271
 20
918.0
 30
0.0
 40
54.0
100
AcDbArc
 50
180.0
 51
0.0
  0
ARC
  5
6D0
100
AcDbEntity
  8
図
  6
EXLTYPE3
 62
     6
100
AcDbCircle
 10
1467.784271
 20
918.0
 30
0.0
 40
38.0
100
AcDbArc
 50
180.0
 51
0.0
  0
ARC
  5
6D1
100
AcDbEntity
  8
図
  6
CONTINUOUS
 62
     2
100
AcDbCircle
 10
1467.784271
 20
918.0
 30
0.0
 40
22.0
100
AcDbArc
 50
180.0
 51
0.0
  0
LINE
  5
6D2
100
AcDbEntity
  8
図
  6
CONTINUOUS
 62
     3
100
AcDbLine
 10
1446.784271
 20
996.5
 30
0.0
 11
1447.768271
 21
996.5
 31
0.0
  0
LINE
  5
6D3
100
AcDbEntity
  8
図
  6
CONTINUOUS
 62
     2
100
AcDbLine
 10
1409.784271
 20
1110.1
 30
0.0
 11
1449.784271
 21
1110.1
 31
0.0
  0
ARC
  5
6D4
100
AcDbEntity
  8
図
  6
CONTINUOUS
 62
     2
100
AcDbCircle
 10
1443.834271
 20
1116.1
 30
0.0
 40
8.45
100
AcDbArc
 50
314.76027
 51
6.114106
  0
ARC
  5
6D5
100
AcDbEntity
  8
図
  6
CONTINUOUS
 62
     2
100
AcDbCircle
 10
1415.734271
 20
1116.1
 30
0.0
 40
8.45
100
AcDbArc
 50
173.885894
 51
225.23973
  0
ELLIPSE
  5
6D6
100
AcDbEntity
  8
図
  6
CONTINUOUS
 62
     6
100
AcDbEllipse
 10
1411.975915
 20
1116.1
 30
0.0
 11
0.0000000000000003
 21
5.4589376255800044
 31
0.0
210
0.0
220
0.0
230
1.0
 40
0.859443
 41
1.4051729151465739
 42
4.8780123920330132
  0
ELLIPSE
  5
6D7
100
AcDbEntity
  8
図
  6
CONTINUOUS
 62
     6
100
AcDbEllipse
 10
1429.784271
 20
1116.1
 30
0.0
 11
9.2736184955000009
 21
0.0
 31
0.0
210
0.0
220
0.0
230
1.0
 40
0.588652
 41
2.9759692419414598
 42
0.1656234116483356
  0
ELLIPSE
  5
6D8
100
AcDbEntity
  8
図
  6
CONTINUOUS
 62
     6
100
AcDbEllipse
 10
1447.592627
 20
1116.1
 30
0.0
 11
0.0000000000000003
 21
5.4589376255800044
 31
0.0
210
0.0
220
0.0
230
1.0
 40
0.859443
 41
1.4051729151465626
 42
4.8780123920330229
  0
LINE
  5
6D9
100
AcDbEntity
  8
図
  6
CONTINUOUS
 62
     2
100
AcDbLine
 10
1413.909271
 20
1110.1
 30
0.0
 11
1413.909271
 21
1011.5
 31
0.0
  0
LINE
  5
6DA
100
AcDbEntity
  8
図
  6
CONTINUOUS
 62
     2
100
AcDbLine
 10
1445.659271
 20
1110.1
 30
0.0
 11
1445.659271
 21
1011.5
 31
0.0
  0
POLYLINE
  5
6DB
100
AcDbEntity
  8
図
  6
CONTINUOUS
 62
     6
100
AcDb2dPolyline
 66
     1
 10
0.0
 20
0.0
 30
0.0
 70
   128
  0
VERTEX
  5
6DC
100
AcDbEntity
  8
図
  6
CONTINUOUS
 62
     6
100
AcDbVertex
100
AcDb2dVertex
 10
1409.606713
 20
999.5
 30
0.0
  0
VERTEX
  5
6DD
100
AcDbEntity
  8
図
  6
CONTINUOUS
 62
     6
100
AcDbVertex
100
AcDb2dVertex
 10
1410.062175
 20
999.522832
 30
0.0
  0
VERTEX
  5
6DE
100
AcDbEntity
  8
図
  6
CONTINUOUS
 62
     6
100
AcDbVertex
100
AcDb2dVertex
 10
1410.514173
 20
999.591154
 30
0.0
  0
VERTEX
  5
6DF
100
AcDbEntity
  8
図
  6
CONTINUOUS
 62
     6
100
AcDbVertex
100
AcDb2dVertex
 10
1410.959263
 20
999.704446
 30
0.0
  0
VERTEX
  5
6E0
100
AcDbEntity
  8
図
  6
CONTINUOUS
 62
     6
100
AcDbVertex
100
AcDb2dVertex
 10
1411.394059
 20
999.861844
 30
0.0
  0
VERTEX
  5
6E1
100
AcDbEntity
  8
図
  6
CONTINUOUS
 62
     6
100
AcDbVertex
100
AcDb2dVertex
 10
1411.815253
 20
1000.062154
 30
0.0
  0
VERTEX
  5
6E2
100
AcDbEntity
  8
図
  6
CONTINUOUS
 62
     6
100
AcDbVertex
100
AcDb2dVertex
 10
1412.219639
 20
1000.303848
 30
0.0
  0
VERTEX
  5
6E3
100
AcDbEntity
  8
図
  6
CONTINUOUS
 62
     6
100
AcDbVertex
100
AcDb2dVertex
 10
1412.604139
 20
1000.585088
 30
0.0
  0
VERTEX
  5
6E4
100
AcDbEntity
  8
図
  6
CONTINUOUS
 62
     6
100
AcDbVertex
100
AcDb2dVertex
 10
1412.965825
 20
1000.903734
 30
0.0
  0
VERTEX
  5
6E5
100
AcDbEntity
  8
図
  6
CONTINUOUS
 62
     6
100
AcDbVertex
100
AcDb2dVertex
 10
1413.301949
 20
1001.25736
 30
0.0
  0
VERTEX
  5
6E6
100
AcDbEntity
  8
図
  6
CONTINUOUS
 62
     6
100
AcDbVertex
100
AcDb2dVertex
 10
1413.609949
 20
1001.643274
 30
0.0
  0
VERTEX
  5
6E7
100
AcDbEntity
  8
図
  6
CONTINUOUS
 62
     6
100
AcDbVertex
100
AcDb2dVertex
 10
1413.887481
 20
1002.058542
 30
0.0
  0
VERTEX
  5
6E8
100
AcDbEntity
  8
図
  6
CONTINUOUS
 62
     6
100
AcDbVertex
100
AcDb2dVertex
 10
1414.132433
 20
1002.5
 30
0.0
  0
VERTEX
  5
6E9
100
AcDbEntity
  8
図
  6
CONTINUOUS
 62
     6
100
AcDbVertex
100
AcDb2dVertex
 10
1414.342943
 20
1002.96429
 30
0.0
  0
VERTEX
  5
6EA
100
AcDbEntity
  8
図
  6
CONTINUOUS
 62
     6
100
AcDbVertex
100
AcDb2dVertex
 10
1414.517407
 20
1003.44788
 30
0.0
  0
VERTEX
  5
6EB
100
AcDbEntity
  8
図
  6
CONTINUOUS
 62
     6
100
AcDbVertex
100
AcDb2dVertex
 10
1414.654499
 20
1003.947086
 30
0.0
  0
VERTEX
  5
6EC
100
AcDbEntity
  8
図
  6
CONTINUOUS
 62
     6
100
AcDbVertex
100
AcDb2dVertex
 10
1414.753173
 20
1004.458112
 30
0.0
  0
VERTEX
  5
6ED
100
AcDbEntity
  8
図
  6
CONTINUOUS
 62
     6
100
AcDbVertex
100
AcDb2dVertex
 10
1414.812679
 20
1004.977066
 30
0.0
  0
VERTEX
  5
6EE
100
AcDbEntity
  8
図
  6
CONTINUOUS
 62
     6
100
AcDbVertex
100
AcDb2dVertex
 10
1414.832565
 20
1005.5
 30
0.0
  0
VERTEX
  5
6EF
100
AcDbEntity
  8
図
  6
CONTINUOUS
 62
     6
100
AcDbVertex
100
AcDb2dVertex
 10
1414.812679
 20
1006.022934
 30
0.0
  0
VERTEX
  5
6F0
100
AcDbEntity
  8
図
  6
CONTINUOUS
 62
     6
100
AcDbVertex
100
AcDb2dVertex
 10
1414.753173
 20
1006.54189
 30
0.0
  0
VERTEX
  5
6F1
100
AcDbEntity
  8
図
  6
CONTINUOUS
 62
     6
100
AcDbVertex
100
AcDb2dVertex
 10
1414.654499
 20
1007.052914
 30
0.0
  0
VERTEX
  5
6F2
100
AcDbEntity
  8
図
  6
CONTINUOUS
 62
     6
100
AcDbVertex
100
AcDb2dVertex
 10
1414.517407
 20
1007.552122
 30
0.0
  0
VERTEX
  5
6F3
100
AcDbEntity
  8
図
  6
CONTINUOUS
 62
     6
100
AcDbVertex
100
AcDb2dVertex
 10
1414.342943
 20
1008.03571
 30
0.0
  0
VERTEX
  5
6F4
100
AcDbEntity
  8
図
  6
CONTINUOUS
 62
     6
100
AcDbVertex
100
AcDb2dVertex
 10
1414.132433
 20
1008.5
 30
0.0
  0
VERTEX
  5
6F5
100
AcDbEntity
  8
図
  6
CONTINUOUS
 62
     6
100
AcDbVertex
100
AcDb2dVertex
 10
1413.887481
 20
1008.941458
 30
0.0
  0
VERTEX
  5
6F6
100
AcDbEntity
  8
図
  6
CONTINUOUS
 62
     6
100
AcDbVertex
100
AcDb2dVertex
 10
1413.609949
 20
1009.356726
 30
0.0
  0
VERTEX
  5
6F7
100
AcDbEntity
  8
図
  6
CONTINUOUS
 62
     6
100
AcDbVertex
100
AcDb2dVertex
 10
1413.301949
 20
1009.74264
 30
0.0
  0
VERTEX
  5
6F8
100
AcDbEntity
  8
図
  6
CONTINUOUS
 62
     6
100
AcDbVertex
100
AcDb2dVertex
 10
1412.965825
 20
1010.096266
 30
0.0
  0
VERTEX
  5
6F9
100
AcDbEntity
  8
図
  6
CONTINUOUS
 62
     6
100
AcDbVertex
100
AcDb2dVertex
 10
1412.604139
 20
1010.414912
 30
0.0
  0
VERTEX
  5
6FA
100
AcDbEntity
  8
図
  6
CONTINUOUS
 62
     6
100
AcDbVertex
100
AcDb2dVertex
 10
1412.219639
 20
1010.696152
 30
0.0
  0
VERTEX
  5
6FB
100
AcDbEntity
  8
図
  6
CONTINUOUS
 62
     6
100
AcDbVertex
100
AcDb2dVertex
 10
1411.815253
 20
1010.937846
 30
0.0
  0
VERTEX
  5
6FC
100
AcDbEntity
  8
図
  6
CONTINUOUS
 62
     6
100
AcDbVertex
100
AcDb2dVertex
 10
1411.394059
 20
1011.138156
 30
0.0
  0
VERTEX
  5
6FD
100
AcDbEntity
  8
図
  6
CONTINUOUS
 62
     6
100
AcDbVertex
100
AcDb2dVertex
 10
1410.959263
 20
1011.295556
 30
0.0
  0
VERTEX
  5
6FE
100
AcDbEntity
  8
図
  6
CONTINUOUS
 62
     6
100
AcDbVertex
100
AcDb2dVertex
 10
1410.514173
 20
1011.408846
 30
0.0
  0
VERTEX
  5
6FF
100
AcDbEntity
  8
図
  6
CONTINUOUS
 62
     6
100
AcDbVertex
100
AcDb2dVertex
 10
1410.062175
 20
1011.477168
 30
0.0
  0
VERTEX
  5
700
100
AcDbEntity
  8
図
  6
CONTINUOUS
 62
     6
100
AcDbVertex
100
AcDb2dVertex
 10
1409.606713
 20
1011.5
 30
0.0
  0
VERTEX
  5
701
100
AcDbEntity
  8
図
  6
CONTINUOUS
 62
     6
100
AcDbVertex
100
AcDb2dVertex
 10
1409.151249
 20
1011.477168
 30
0.0
  0
VERTEX
  5
702
100
AcDbEntity
  8
図
  6
CONTINUOUS
 62
     6
100
AcDbVertex
100
AcDb2dVertex
 10
1408.699253
 20
1011.408846
 30
0.0
  0
VERTEX
  5
703
100
AcDbEntity
  8
図
  6
CONTINUOUS
 62
     6
100
AcDbVertex
100
AcDb2dVertex
 10
1408.254163
 20
1011.295556
 30
0.0
  0
VERTEX
  5
704
100
AcDbEntity
  8
図
  6
CONTINUOUS
 62
     6
100
AcDbVertex
100
AcDb2dVertex
 10
1407.819365
 20
1011.138156
 30
0.0
  0
VERTEX
  5
705
100
AcDbEntity
  8
図
  6
CONTINUOUS
 62
     6
100
AcDbVertex
100
AcDb2dVertex
 10
1407.398171
 20
1010.937846
 30
0.0
  0
VERTEX
  5
706
100
AcDbEntity
  8
図
  6
CONTINUOUS
 62
     6
100
AcDbVertex
100
AcDb2dVertex
 10
1406.993785
 20
1010.696152
 30
0.0
  0
VERTEX
  5
707
100
AcDbEntity
  8
図
  6
CONTINUOUS
 62
     6
100
AcDbVertex
100
AcDb2dVertex
 10
1406.609287
 20
1010.414912
 30
0.0
  0
VERTEX
  5
708
100
AcDbEntity
  8
図
  6
CONTINUOUS
 62
     6
100
AcDbVertex
100
AcDb2dVertex
 10
1406.247599
 20
1010.096266
 30
0.0
  0
VERTEX
  5
709
100
AcDbEntity
  8
図
  6
CONTINUOUS
 62
     6
100
AcDbVertex
100
AcDb2dVertex
 10
1405.911477
 20
1009.74264
 30
0.0
  0
VERTEX
  5
70A
100
AcDbEntity
  8
図
  6
CONTINUOUS
 62
     6
100
AcDbVertex
100
AcDb2dVertex
 10
1405.603477
 20
1009.356726
 30
0.0
  0
VERTEX
  5
70B
100
AcDbEntity
  8
図
  6
CONTINUOUS
 62
     6
100
AcDbVertex
100
AcDb2dVertex
 10
1405.325945
 20
1008.941458
 30
0.0
  0
VERTEX
  5
70C
100
AcDbEntity
  8
図
  6
CONTINUOUS
 62
     6
100
AcDbVertex
100
AcDb2dVertex
 10
1405.080991
 20
1008.5
 30
0.0
  0
VERTEX
  5
70D
100
AcDbEntity
  8
図
  6
CONTINUOUS
 62
     6
100
AcDbVertex
100
AcDb2dVertex
 10
1404.870481
 20
1008.03571
 30
0.0
  0
VERTEX
  5
70E
100
AcDbEntity
  8
図
  6
CONTINUOUS
 62
     6
100
AcDbVertex
100
AcDb2dVertex
 10
1404.696017
 20
1007.552122
 30
0.0
  0
VERTEX
  5
70F
100
AcDbEntity
  8
図
  6
CONTINUOUS
 62
     6
100
AcDbVertex
100
AcDb2dVertex
 10
1404.558927
 20
1007.052914
 30
0.0
  0
VERTEX
  5
710
100
AcDbEntity
  8
図
  6
CONTINUOUS
 62
     6
100
AcDbVertex
100
AcDb2dVertex
 10
1404.460251
 20
1006.54189
 30
0.0
  0
VERTEX
  5
711
100
AcDbEntity
  8
図
  6
CONTINUOUS
 62
     6
100
AcDbVertex
100
AcDb2dVertex
 10
1404.400745
 20
1006.022934
 30
0.0
  0
VERTEX
  5
712
100
AcDbEntity
  8
図
  6
CONTINUOUS
 62
     6
100
AcDbVertex
100
AcDb2dVertex
 10
1404.380859
 20
1005.5
 30
0.0
  0
VERTEX
  5
713
100
AcDbEntity
  8
図
  6
CONTINUOUS
 62
     6
100
AcDbVertex
100
AcDb2dVertex
 10
1404.400745
 20
1004.977066
 30
0.0
  0
VERTEX
  5
714
100
AcDbEntity
  8
図
  6
CONTINUOUS
 62
     6
100
AcDbVertex
100
AcDb2dVertex
 10
1404.460251
 20
1004.458112
 30
0.0
  0
VERTEX
  5
715
100
AcDbEntity
  8
図
  6
CONTINUOUS
 62
     6
100
AcDbVertex
100
AcDb2dVertex
 10
1404.558927
 20
1003.947086
 30
0.0
  0
VERTEX
  5
716
100
AcDbEntity
  8
図
  6
CONTINUOUS
 62
     6
100
AcDbVertex
100
AcDb2dVertex
 10
1404.696017
 20
1003.44788
 30
0.0
  0
VERTEX
  5
717
100
AcDbEntity
  8
図
  6
CONTINUOUS
 62
     6
100
AcDbVertex
100
AcDb2dVertex
 10
1404.870481
 20
1002.96429
 30
0.0
  0
VERTEX
  5
718
100
AcDbEntity
  8
図
  6
CONTINUOUS
 62
     6
100
AcDbVertex
100
AcDb2dVertex
 10
1405.080991
 20
1002.5
 30
0.0
  0
VERTEX
  5
719
100
AcDbEntity
  8
図
  6
CONTINUOUS
 62
     6
100
AcDbVertex
100
AcDb2dVertex
 10
1405.325945
 20
1002.058542
 30
0.0
  0
VERTEX
  5
71A
100
AcDbEntity
  8
図
  6
CONTINUOUS
 62
     6
100
AcDbVertex
100
AcDb2dVertex
 10
1405.603477
 20
1001.643274
 30
0.0
  0
VERTEX
  5
71B
100
AcDbEntity
  8
図
  6
CONTINUOUS
 62
     6
100
AcDbVertex
100
AcDb2dVertex
 10
1405.911477
 20
1001.25736
 30
0.0
  0
VERTEX
  5
71C
100
AcDbEntity
  8
図
  6
CONTINUOUS
 62
     6
100
AcDbVertex
100
AcDb2dVertex
 10
1406.247599
 20
1000.903734
 30
0.0
  0
VERTEX
  5
71D
100
AcDbEntity
  8
図
  6
CONTINUOUS
 62
     6
100
AcDbVertex
100
AcDb2dVertex
 10
1406.609287
 20
1000.585088
 30
0.0
  0
VERTEX
  5
71E
100
AcDbEntity
  8
図
  6
CONTINUOUS
 62
     6
100
AcDbVertex
100
AcDb2dVertex
 10
1406.993785
 20
1000.303848
 30
0.0
  0
VERTEX
  5
71F
100
AcDbEntity
  8
図
  6
CONTINUOUS
 62
     6
100
AcDbVertex
100
AcDb2dVertex
 10
1407.398171
 20
1000.062154
 30
0.0
  0
VERTEX
  5
720
100
AcDbEntity
  8
図
  6
CONTINUOUS
 62
     6
100
AcDbVertex
100
AcDb2dVertex
 10
1407.819365
 20
999.861844
 30
0.0
  0
VERTEX
  5
721
100
AcDbEntity
  8
図
  6
CONTINUOUS
 62
     6
100
AcDbVertex
100
AcDb2dVertex
 10
1408.254163
 20
999.704446
 30
0.0
  0
VERTEX
  5
722
100
AcDbEntity
  8
図
  6
CONTINUOUS
 62
     6
100
AcDbVertex
100
AcDb2dVertex
 10
1408.699253
 20
999.591154
 30
0.0
  0
VERTEX
  5
723
100
AcDbEntity
  8
図
  6
CONTINUOUS
 62
     6
100
AcDbVertex
100
AcDb2dVertex
 10
1409.151249
 20
999.522832
 30
0.0
  0
VERTEX
  5
724
100
AcDbEntity
  8
図
  6
CONTINUOUS
 62
     6
100
AcDbVertex
100
AcDb2dVertex
 10
1409.606713
 20
999.5
 30
0.0
  0
SEQEND
  5
725
100
AcDbEntity
  8
図
  6
CONTINUOUS
 62
     6
  0
POLYLINE
  5
726
100
AcDbEntity
  8
図
  6
CONTINUOUS
 62
     6
100
AcDb2dPolyline
 66
     1
 10
0.0
 20
0.0
 30
0.0
 70
   128
  0
VERTEX
  5
727
100
AcDbEntity
  8
図
  6
CONTINUOUS
 62
     6
100
AcDbVertex
100
AcDb2dVertex
 10
1440.235977
 20
1005.5
 30
0.0
  0
VERTEX
  5
728
100
AcDbEntity
  8
図
  6
CONTINUOUS
 62
     6
100
AcDbVertex
100
AcDb2dVertex
 10
1440.196205
 20
1006.022934
 30
0.0
  0
VERTEX
  5
729
100
AcDbEntity
  8
図
  6
CONTINUOUS
 62
     6
100
AcDbVertex
100
AcDb2dVertex
 10
1440.077193
 20
1006.54189
 30
0.0
  0
VERTEX
  5
72A
100
AcDbEntity
  8
図
  6
CONTINUOUS
 62
     6
100
AcDbVertex
100
AcDb2dVertex
 10
1439.879843
 20
1007.052914
 30
0.0
  0
VERTEX
  5
72B
100
AcDbEntity
  8
図
  6
CONTINUOUS
 62
     6
100
AcDbVertex
100
AcDb2dVertex
 10
1439.605663
 20
1007.552122
 30
0.0
  0
VERTEX
  5
72C
100
AcDbEntity
  8
図
  6
CONTINUOUS
 62
     6
100
AcDbVertex
100
AcDb2dVertex
 10
1439.256733
 20
1008.03571
 30
0.0
  0
VERTEX
  5
72D
100
AcDbEntity
  8
図
  6
CONTINUOUS
 62
     6
100
AcDbVertex
100
AcDb2dVertex
 10
1438.835715
 20
1008.5
 30
0.0
  0
VERTEX
  5
72E
100
AcDbEntity
  8
図
  6
CONTINUOUS
 62
     6
100
AcDbVertex
100
AcDb2dVertex
 10
1438.345807
 20
1008.941458
 30
0.0
  0
VERTEX
  5
72F
100
AcDbEntity
  8
図
  6
CONTINUOUS
 62
     6
100
AcDbVertex
100
AcDb2dVertex
 10
1437.790743
 20
1009.356726
 30
0.0
  0
VERTEX
  5
730
100
AcDbEntity
  8
図
  6
CONTINUOUS
 62
     6
100
AcDbVertex
100
AcDb2dVertex
 10
1437.174743
 20
1009.74264
 30
0.0
  0
VERTEX
  5
731
100
AcDbEntity
  8
図
  6
CONTINUOUS
 62
     6
100
AcDbVertex
100
AcDb2dVertex
 10
1436.502499
 20
1010.096266
 30
0.0
  0
VERTEX
  5
732
100
AcDbEntity
  8
図
  6
CONTINUOUS
 62
     6
100
AcDbVertex
100
AcDb2dVertex
 10
1435.779123
 20
1010.414912
 30
0.0
  0
VERTEX
  5
733
100
AcDbEntity
  8
図
  6
CONTINUOUS
 62
     6
100
AcDbVertex
100
AcDb2dVertex
 10
1435.010125
 20
1010.696152
 30
0.0
  0
VERTEX
  5
734
100
AcDbEntity
  8
図
  6
CONTINUOUS
 62
     6
100
AcDbVertex
100
AcDb2dVertex
 10
1434.201353
 20
1010.937846
 30
0.0
  0
VERTEX
  5
735
100
AcDbEntity
  8
図
  6
CONTINUOUS
 62
     6
100
AcDbVertex
100
AcDb2dVertex
 10
1433.358965
 20
1011.138156
 30
0.0
  0
VERTEX
  5
736
100
AcDbEntity
  8
図
  6
CONTINUOUS
 62
     6
100
AcDbVertex
100
AcDb2dVertex
 10
1432.489371
 20
1011.295556
 30
0.0
  0
VERTEX
  5
737
100
AcDbEntity
  8
図
  6
CONTINUOUS
 62
     6
100
AcDbVertex
100
AcDb2dVertex
 10
1431.599191
 20
1011.408846
 30
0.0
  0
VERTEX
  5
738
100
AcDbEntity
  8
図
  6
CONTINUOUS
 62
     6
100
AcDbVertex
100
AcDb2dVertex
 10
1430.695197
 20
1011.477168
 30
0.0
  0
VERTEX
  5
739
100
AcDbEntity
  8
図
  6
CONTINUOUS
 62
     6
100
AcDbVertex
100
AcDb2dVertex
 10
1429.784271
 20
1011.5
 30
0.0
  0
VERTEX
  5
73A
100
AcDbEntity
  8
図
  6
CONTINUOUS
 62
     6
100
AcDbVertex
100
AcDb2dVertex
 10
1428.873345
 20
1011.477168
 30
0.0
  0
VERTEX
  5
73B
100
AcDbEntity
  8
図
  6
CONTINUOUS
 62
     6
100
AcDbVertex
100
AcDb2dVertex
 10
1427.969351
 20
1011.408846
 30
0.0
  0
VERTEX
  5
73C
100
AcDbEntity
  8
図
  6
CONTINUOUS
 62
     6
100
AcDbVertex
100
AcDb2dVertex
 10
1427.079171
 20
1011.295556
 30
0.0
  0
VERTEX
  5
73D
100
AcDbEntity
  8
図
  6
CONTINUOUS
 62
     6
100
AcDbVertex
100
AcDb2dVertex
 10
1426.209577
 20
1011.138156
 30
0.0
  0
VERTEX
  5
73E
100
AcDbEntity
  8
図
  6
CONTINUOUS
 62
     6
100
AcDbVertex
100
AcDb2dVertex
 10
1425.367189
 20
1010.937846
 30
0.0
  0
VERTEX
  5
73F
100
AcDbEntity
  8
図
  6
CONTINUOUS
 62
     6
100
AcDbVertex
100
AcDb2dVertex
 10
1424.558419
 20
1010.696152
 30
0.0
  0
VERTEX
  5
740
100
AcDbEntity
  8
図
  6
CONTINUOUS
 62
     6
100
AcDbVertex
100
AcDb2dVertex
 10
1423.789419
 20
1010.414912
 30
0.0
  0
VERTEX
  5
741
100
AcDbEntity
  8
図
  6
CONTINUOUS
 62
     6
100
AcDbVertex
100
AcDb2dVertex
 10
1423.066045
 20
1010.096266
 30
0.0
  0
VERTEX
  5
742
100
AcDbEntity
  8
図
  6
CONTINUOUS
 62
     6
100
AcDbVertex
100
AcDb2dVertex
 10
1422.393799
 20
1009.74264
 30
0.0
  0
VERTEX
  5
743
100
AcDbEntity
  8
図
  6
CONTINUOUS
 62
     6
100
AcDbVertex
100
AcDb2dVertex
 10
1421.777801
 20
1009.356726
 30
0.0
  0
VERTEX
  5
744
100
AcDbEntity
  8
図
  6
CONTINUOUS
 62
     6
100
AcDbVertex
100
AcDb2dVertex
 10
1421.222735
 20
1008.941458
 30
0.0
  0
VERTEX
  5
745
100
AcDbEntity
  8
図
  6
CONTINUOUS
 62
     6
100
AcDbVertex
100
AcDb2dVertex
 10
1420.732829
 20
1008.5
 30
0.0
  0
VERTEX
  5
746
100
AcDbEntity
  8
図
  6
CONTINUOUS
 62
     6
100
AcDbVertex
100
AcDb2dVertex
 10
1420.311809
 20
1008.03571
 30
0.0
  0
VERTEX
  5
747
100
AcDbEntity
  8
図
  6
CONTINUOUS
 62
     6
100
AcDbVertex
100
AcDb2dVertex
 10
1419.962881
 20
1007.552122
 30
0.0
  0
VERTEX
  5
748
100
AcDbEntity
  8
図
  6
CONTINUOUS
 62
     6
100
AcDbVertex
100
AcDb2dVertex
 10
1419.688699
 20
1007.052914
 30
0.0
  0
VERTEX
  5
749
100
AcDbEntity
  8
図
  6
CONTINUOUS
 62
     6
100
AcDbVertex
100
AcDb2dVertex
 10
1419.491351
 20
1006.54189
 30
0.0
  0
VERTEX
  5
74A
100
AcDbEntity
  8
図
  6
CONTINUOUS
 62
     6
100
AcDbVertex
100
AcDb2dVertex
 10
1419.372337
 20
1006.022934
 30
0.0
  0
VERTEX
  5
74B
100
AcDbEntity
  8
図
  6
CONTINUOUS
 62
     6
100
AcDbVertex
100
AcDb2dVertex
 10
1419.332565
 20
1005.5
 30
0.0
  0
VERTEX
  5
74C
100
AcDbEntity
  8
図
  6
CONTINUOUS
 62
     6
100
AcDbVertex
100
AcDb2dVertex
 10
1419.372337
 20
1004.977066
 30
0.0
  0
VERTEX
  5
74D
100
AcDbEntity
  8
図
  6
CONTINUOUS
 62
     6
100
AcDbVertex
100
AcDb2dVertex
 10
1419.491351
 20
1004.458112
 30
0.0
  0
VERTEX
  5
74E
100
AcDbEntity
  8
図
  6
CONTINUOUS
 62
     6
100
AcDbVertex
100
AcDb2dVertex
 10
1419.688699
 20
1003.947086
 30
0.0
  0
VERTEX
  5
74F
100
AcDbEntity
  8
図
  6
CONTINUOUS
 62
     6
100
AcDbVertex
100
AcDb2dVertex
 10
1419.962881
 20
1003.44788
 30
0.0
  0
VERTEX
  5
750
100
AcDbEntity
  8
図
  6
CONTINUOUS
 62
     6
100
AcDbVertex
100
AcDb2dVertex
 10
1420.311809
 20
1002.96429
 30
0.0
  0
VERTEX
  5
751
100
AcDbEntity
  8
図
  6
CONTINUOUS
 62
     6
100
AcDbVertex
100
AcDb2dVertex
 10
1420.732829
 20
1002.5
 30
0.0
  0
VERTEX
  5
752
100
AcDbEntity
  8
図
  6
CONTINUOUS
 62
     6
100
AcDbVertex
100
AcDb2dVertex
 10
1421.222735
 20
1002.058542
 30
0.0
  0
VERTEX
  5
753
100
AcDbEntity
  8
図
  6
CONTINUOUS
 62
     6
100
AcDbVertex
100
AcDb2dVertex
 10
1421.777801
 20
1001.643274
 30
0.0
  0
VERTEX
  5
754
100
AcDbEntity
  8
図
  6
CONTINUOUS
 62
     6
100
AcDbVertex
100
AcDb2dVertex
 10
1422.393799
 20
1001.25736
 30
0.0
  0
VERTEX
  5
755
100
AcDbEntity
  8
図
  6
CONTINUOUS
 62
     6
100
AcDbVertex
100
AcDb2dVertex
 10
1423.066045
 20
1000.903734
 30
0.0
  0
VERTEX
  5
756
100
AcDbEntity
  8
図
  6
CONTINUOUS
 62
     6
100
AcDbVertex
100
AcDb2dVertex
 10
1423.789419
 20
1000.585088
 30
0.0
  0
VERTEX
  5
757
100
AcDbEntity
  8
図
  6
CONTINUOUS
 62
     6
100
AcDbVertex
100
AcDb2dVertex
 10
1424.558419
 20
1000.303848
 30
0.0
  0
VERTEX
  5
758
100
AcDbEntity
  8
図
  6
CONTINUOUS
 62
     6
100
AcDbVertex
100
AcDb2dVertex
 10
1425.367189
 20
1000.062154
 30
0.0
  0
VERTEX
  5
759
100
AcDbEntity
  8
図
  6
CONTINUOUS
 62
     6
100
AcDbVertex
100
AcDb2dVertex
 10
1426.209577
 20
999.861844
 30
0.0
  0
VERTEX
  5
75A
100
AcDbEntity
  8
図
  6
CONTINUOUS
 62
     6
100
AcDbVertex
100
AcDb2dVertex
 10
1427.079171
 20
999.704446
 30
0.0
  0
VERTEX
  5
75B
100
AcDbEntity
  8
図
  6
CONTINUOUS
 62
     6
100
AcDbVertex
100
AcDb2dVertex
 10
1427.969351
 20
999.591154
 30
0.0
  0
VERTEX
  5
75C
100
AcDbEntity
  8
図
  6
CONTINUOUS
 62
     6
100
AcDbVertex
100
AcDb2dVertex
 10
1428.873345
 20
999.522832
 30
0.0
  0
VERTEX
  5
75D
100
AcDbEntity
  8
図
  6
CONTINUOUS
 62
     6
100
AcDbVertex
100
AcDb2dVertex
 10
1429.784271
 20
999.5
 30
0.0
  0
VERTEX
  5
75E
100
AcDbEntity
  8
図
  6
CONTINUOUS
 62
     6
100
AcDbVertex
100
AcDb2dVertex
 10
1430.695197
 20
999.522832
 30
0.0
  0
VERTEX
  5
75F
100
AcDbEntity
  8
図
  6
CONTINUOUS
 62
     6
100
AcDbVertex
100
AcDb2dVertex
 10
1431.599191
 20
999.591154
 30
0.0
  0
VERTEX
  5
760
100
AcDbEntity
  8
図
  6
CONTINUOUS
 62
     6
100
AcDbVertex
100
AcDb2dVertex
 10
1432.489371
 20
999.704446
 30
0.0
  0
VERTEX
  5
761
100
AcDbEntity
  8
図
  6
CONTINUOUS
 62
     6
100
AcDbVertex
100
AcDb2dVertex
 10
1433.358965
 20
999.861844
 30
0.0
  0
VERTEX
  5
762
100
AcDbEntity
  8
図
  6
CONTINUOUS
 62
     6
100
AcDbVertex
100
AcDb2dVertex
 10
1434.201353
 20
1000.062154
 30
0.0
  0
VERTEX
  5
763
100
AcDbEntity
  8
図
  6
CONTINUOUS
 62
     6
100
AcDbVertex
100
AcDb2dVertex
 10
1435.010125
 20
1000.303848
 30
0.0
  0
VERTEX
  5
764
100
AcDbEntity
  8
図
  6
CONTINUOUS
 62
     6
100
AcDbVertex
100
AcDb2dVertex
 10
1435.779123
 20
1000.585088
 30
0.0
  0
VERTEX
  5
765
100
AcDbEntity
  8
図
  6
CONTINUOUS
 62
     6
100
AcDbVertex
100
AcDb2dVertex
 10
1436.502499
 20
1000.903734
 30
0.0
  0
VERTEX
  5
766
100
AcDbEntity
  8
図
  6
CONTINUOUS
 62
     6
100
AcDbVertex
100
AcDb2dVertex
 10
1437.174743
 20
1001.25736
 30
0.0
  0
VERTEX
  5
767
100
AcDbEntity
  8
図
  6
CONTINUOUS
 62
     6
100
AcDbVertex
100
AcDb2dVertex
 10
1437.790743
 20
1001.643274
 30
0.0
  0
VERTEX
  5
768
100
AcDbEntity
  8
図
  6
CONTINUOUS
 62
     6
100
AcDbVertex
100
AcDb2dVertex
 10
1438.345807
 20
1002.058542
 30
0.0
  0
VERTEX
  5
769
100
AcDbEntity
  8
図
  6
CONTINUOUS
 62
     6
100
AcDbVertex
100
AcDb2dVertex
 10
1438.835715
 20
1002.5
 30
0.0
  0
VERTEX
  5
76A
100
AcDbEntity
  8
図
  6
CONTINUOUS
 62
     6
100
AcDbVertex
100
AcDb2dVertex
 10
1439.256733
 20
1002.96429
 30
0.0
  0
VERTEX
  5
76B
100
AcDbEntity
  8
図
  6
CONTINUOUS
 62
     6
100
AcDbVertex
100
AcDb2dVertex
 10
1439.605663
 20
1003.44788
 30
0.0
  0
VERTEX
  5
76C
100
AcDbEntity
  8
図
  6
CONTINUOUS
 62
     6
100
AcDbVertex
100
AcDb2dVertex
 10
1439.879843
 20
1003.947086
 30
0.0
  0
VERTEX
  5
76D
100
AcDbEntity
  8
図
  6
CONTINUOUS
 62
     6
100
AcDbVertex
100
AcDb2dVertex
 10
1440.077193
 20
1004.458112
 30
0.0
  0
VERTEX
  5
76E
100
AcDbEntity
  8
図
  6
CONTINUOUS
 62
     6
100
AcDbVertex
100
AcDb2dVertex
 10
1440.196205
 20
1004.977066
 30
0.0
  0
VERTEX
  5
76F
100
AcDbEntity
  8
図
  6
CONTINUOUS
 62
     6
100
AcDbVertex
100
AcDb2dVertex
 10
1440.235977
 20
1005.5
 30
0.0
  0
SEQEND
  5
770
100
AcDbEntity
  8
図
  6
CONTINUOUS
 62
     6
  0
POLYLINE
  5
771
100
AcDbEntity
  8
図
  6
CONTINUOUS
 62
     6
100
AcDb2dPolyline
 66
     1
 10
0.0
 20
0.0
 30
0.0
 70
   128
  0
VERTEX
  5
772
100
AcDbEntity
  8
図
  6
CONTINUOUS
 62
     6
100
AcDbVertex
100
AcDb2dVertex
 10
1449.961831
 20
999.5
 30
0.0
  0
VERTEX
  5
773
100
AcDbEntity
  8
図
  6
CONTINUOUS
 62
     6
100
AcDbVertex
100
AcDb2dVertex
 10
1450.417293
 20
999.522832
 30
0.0
  0
VERTEX
  5
774
100
AcDbEntity
  8
図
  6
CONTINUOUS
 62
     6
100
AcDbVertex
100
AcDb2dVertex
 10
1450.869291
 20
999.591154
 30
0.0
  0
VERTEX
  5
775
100
AcDbEntity
  8
図
  6
CONTINUOUS
 62
     6
100
AcDbVertex
100
AcDb2dVertex
 10
1451.314381
 20
999.704446
 30
0.0
  0
VERTEX
  5
776
100
AcDbEntity
  8
図
  6
CONTINUOUS
 62
     6
100
AcDbVertex
100
AcDb2dVertex
 10
1451.749177
 20
999.861844
 30
0.0
  0
VERTEX
  5
777
100
AcDbEntity
  8
図
  6
CONTINUOUS
 62
     6
100
AcDbVertex
100
AcDb2dVertex
 10
1452.170371
 20
1000.062154
 30
0.0
  0
VERTEX
  5
778
100
AcDbEntity
  8
図
  6
CONTINUOUS
 62
     6
100
AcDbVertex
100
AcDb2dVertex
 10
1452.574757
 20
1000.303848
 30
0.0
  0
VERTEX
  5
779
100
AcDbEntity
  8
図
  6
CONTINUOUS
 62
     6
100
AcDbVertex
100
AcDb2dVertex
 10
1452.959257
 20
1000.585088
 30
0.0
  0
VERTEX
  5
77A
100
AcDbEntity
  8
図
  6
CONTINUOUS
 62
     6
100
AcDbVertex
100
AcDb2dVertex
 10
1453.320943
 20
1000.903734
 30
0.0
  0
VERTEX
  5
77B
100
AcDbEntity
  8
図
  6
CONTINUOUS
 62
     6
100
AcDbVertex
100
AcDb2dVertex
 10
1453.657067
 20
1001.25736
 30
0.0
  0
VERTEX
  5
77C
100
AcDbEntity
  8
図
  6
CONTINUOUS
 62
     6
100
AcDbVertex
100
AcDb2dVertex
 10
1453.965065
 20
1001.643274
 30
0.0
  0
VERTEX
  5
77D
100
AcDbEntity
  8
図
  6
CONTINUOUS
 62
     6
100
AcDbVertex
100
AcDb2dVertex
 10
1454.242599
 20
1002.058542
 30
0.0
  0
VERTEX
  5
77E
100
AcDbEntity
  8
図
  6
CONTINUOUS
 62
     6
100
AcDbVertex
100
AcDb2dVertex
 10
1454.487551
 20
1002.5
 30
0.0
  0
VERTEX
  5
77F
100
AcDbEntity
  8
図
  6
CONTINUOUS
 62
     6
100
AcDbVertex
100
AcDb2dVertex
 10
1454.698061
 20
1002.96429
 30
0.0
  0
VERTEX
  5
780
100
AcDbEntity
  8
図
  6
CONTINUOUS
 62
     6
100
AcDbVertex
100
AcDb2dVertex
 10
1454.872525
 20
1003.44788
 30
0.0
  0
VERTEX
  5
781
100
AcDbEntity
  8
図
  6
CONTINUOUS
 62
     6
100
AcDbVertex
100
AcDb2dVertex
 10
1455.009617
 20
1003.947086
 30
0.0
  0
VERTEX
  5
782
100
AcDbEntity
  8
図
  6
CONTINUOUS
 62
     6
100
AcDbVertex
100
AcDb2dVertex
 10
1455.108291
 20
1004.458112
 30
0.0
  0
VERTEX
  5
783
100
AcDbEntity
  8
図
  6
CONTINUOUS
 62
     6
100
AcDbVertex
100
AcDb2dVertex
 10
1455.167797
 20
1004.977066
 30
0.0
  0
VERTEX
  5
784
100
AcDbEntity
  8
図
  6
CONTINUOUS
 62
     6
100
AcDbVertex
100
AcDb2dVertex
 10
1455.187683
 20
1005.5
 30
0.0
  0
VERTEX
  5
785
100
AcDbEntity
  8
図
  6
CONTINUOUS
 62
     6
100
AcDbVertex
100
AcDb2dVertex
 10
1455.167797
 20
1006.022934
 30
0.0
  0
VERTEX
  5
786
100
AcDbEntity
  8
図
  6
CONTINUOUS
 62
     6
100
AcDbVertex
100
AcDb2dVertex
 10
1455.108291
 20
1006.54189
 30
0.0
  0
VERTEX
  5
787
100
AcDbEntity
  8
図
  6
CONTINUOUS
 62
     6
100
AcDbVertex
100
AcDb2dVertex
 10
1455.009617
 20
1007.052914
 30
0.0
  0
VERTEX
  5
788
100
AcDbEntity
  8
図
  6
CONTINUOUS
 62
     6
100
AcDbVertex
100
AcDb2dVertex
 10
1454.872525
 20
1007.552122
 30
0.0
  0
VERTEX
  5
789
100
AcDbEntity
  8
図
  6
CONTINUOUS
 62
     6
100
AcDbVertex
100
AcDb2dVertex
 10
1454.698061
 20
1008.03571
 30
0.0
  0
VERTEX
  5
78A
100
AcDbEntity
  8
図
  6
CONTINUOUS
 62
     6
100
AcDbVertex
100
AcDb2dVertex
 10
1454.487551
 20
1008.5
 30
0.0
  0
VERTEX
  5
78B
100
AcDbEntity
  8
図
  6
CONTINUOUS
 62
     6
100
AcDbVertex
100
AcDb2dVertex
 10
1454.242599
 20
1008.941458
 30
0.0
  0
VERTEX
  5
78C
100
AcDbEntity
  8
図
  6
CONTINUOUS
 62
     6
100
AcDbVertex
100
AcDb2dVertex
 10
1453.965065
 20
1009.356726
 30
0.0
  0
VERTEX
  5
78D
100
AcDbEntity
  8
図
  6
CONTINUOUS
 62
     6
100
AcDbVertex
100
AcDb2dVertex
 10
1453.657067
 20
1009.74264
 30
0.0
  0
VERTEX
  5
78E
100
AcDbEntity
  8
図
  6
CONTINUOUS
 62
     6
100
AcDbVertex
100
AcDb2dVertex
 10
1453.320943
 20
1010.096266
 30
0.0
  0
VERTEX
  5
78F
100
AcDbEntity
  8
図
  6
CONTINUOUS
 62
     6
100
AcDbVertex
100
AcDb2dVertex
 10
1452.959257
 20
1010.414912
 30
0.0
  0
VERTEX
  5
790
100
AcDbEntity
  8
図
  6
CONTINUOUS
 62
     6
100
AcDbVertex
100
AcDb2dVertex
 10
1452.574757
 20
1010.696152
 30
0.0
  0
VERTEX
  5
791
100
AcDbEntity
  8
図
  6
CONTINUOUS
 62
     6
100
AcDbVertex
100
AcDb2dVertex
 10
1452.170371
 20
1010.937846
 30
0.0
  0
VERTEX
  5
792
100
AcDbEntity
  8
図
  6
CONTINUOUS
 62
     6
100
AcDbVertex
100
AcDb2dVertex
 10
1451.749177
 20
1011.138156
 30
0.0
  0
VERTEX
  5
793
100
AcDbEntity
  8
図
  6
CONTINUOUS
 62
     6
100
AcDbVertex
100
AcDb2dVertex
 10
1451.314381
 20
1011.295556
 30
0.0
  0
VERTEX
  5
794
100
AcDbEntity
  8
図
  6
CONTINUOUS
 62
     6
100
AcDbVertex
100
AcDb2dVertex
 10
1450.869291
 20
1011.408846
 30
0.0
  0
VERTEX
  5
795
100
AcDbEntity
  8
図
  6
CONTINUOUS
 62
     6
100
AcDbVertex
100
AcDb2dVertex
 10
1450.417293
 20
1011.477168
 30
0.0
  0
VERTEX
  5
796
100
AcDbEntity
  8
図
  6
CONTINUOUS
 62
     6
100
AcDbVertex
100
AcDb2dVertex
 10
1449.961831
 20
1011.5
 30
0.0
  0
VERTEX
  5
797
100
AcDbEntity
  8
図
  6
CONTINUOUS
 62
     6
100
AcDbVertex
100
AcDb2dVertex
 10
1449.506367
 20
1011.477168
 30
0.0
  0
VERTEX
  5
798
100
AcDbEntity
  8
図
  6
CONTINUOUS
 62
     6
100
AcDbVertex
100
AcDb2dVertex
 10
1449.054371
 20
1011.408846
 30
0.0
  0
VERTEX
  5
799
100
AcDbEntity
  8
図
  6
CONTINUOUS
 62
     6
100
AcDbVertex
100
AcDb2dVertex
 10
1448.609279
 20
1011.295556
 30
0.0
  0
VERTEX
  5
79A
100
AcDbEntity
  8
図
  6
CONTINUOUS
 62
     6
100
AcDbVertex
100
AcDb2dVertex
 10
1448.174483
 20
1011.138156
 30
0.0
  0
VERTEX
  5
79B
100
AcDbEntity
  8
図
  6
CONTINUOUS
 62
     6
100
AcDbVertex
100
AcDb2dVertex
 10
1447.753289
 20
1010.937846
 30
0.0
  0
VERTEX
  5
79C
100
AcDbEntity
  8
図
  6
CONTINUOUS
 62
     6
100
AcDbVertex
100
AcDb2dVertex
 10
1447.348903
 20
1010.696152
 30
0.0
  0
VERTEX
  5
79D
100
AcDbEntity
  8
図
  6
CONTINUOUS
 62
     6
100
AcDbVertex
100
AcDb2dVertex
 10
1446.964405
 20
1010.414912
 30
0.0
  0
VERTEX
  5
79E
100
AcDbEntity
  8
図
  6
CONTINUOUS
 62
     6
100
AcDbVertex
100
AcDb2dVertex
 10
1446.602717
 20
1010.096266
 30
0.0
  0
VERTEX
  5
79F
100
AcDbEntity
  8
図
  6
CONTINUOUS
 62
     6
100
AcDbVertex
100
AcDb2dVertex
 10
1446.266595
 20
1009.74264
 30
0.0
  0
VERTEX
  5
7A0
100
AcDbEntity
  8
図
  6
CONTINUOUS
 62
     6
100
AcDbVertex
100
AcDb2dVertex
 10
1445.958595
 20
1009.356726
 30
0.0
  0
VERTEX
  5
7A1
100
AcDbEntity
  8
図
  6
CONTINUOUS
 62
     6
100
AcDbVertex
100
AcDb2dVertex
 10
1445.681063
 20
1008.941458
 30
0.0
  0
VERTEX
  5
7A2
100
AcDbEntity
  8
図
  6
CONTINUOUS
 62
     6
100
AcDbVertex
100
AcDb2dVertex
 10
1445.436109
 20
1008.5
 30
0.0
  0
VERTEX
  5
7A3
100
AcDbEntity
  8
図
  6
CONTINUOUS
 62
     6
100
AcDbVertex
100
AcDb2dVertex
 10
1445.225599
 20
1008.03571
 30
0.0
  0
VERTEX
  5
7A4
100
AcDbEntity
  8
図
  6
CONTINUOUS
 62
     6
100
AcDbVertex
100
AcDb2dVertex
 10
1445.051135
 20
1007.552122
 30
0.0
  0
VERTEX
  5
7A5
100
AcDbEntity
  8
図
  6
CONTINUOUS
 62
     6
100
AcDbVertex
100
AcDb2dVertex
 10
1444.914043
 20
1007.052914
 30
0.0
  0
VERTEX
  5
7A6
100
AcDbEntity
  8
図
  6
CONTINUOUS
 62
     6
100
AcDbVertex
100
AcDb2dVertex
 10
1444.815369
 20
1006.54189
 30
0.0
  0
VERTEX
  5
7A7
100
AcDbEntity
  8
図
  6
CONTINUOUS
 62
     6
100
AcDbVertex
100
AcDb2dVertex
 10
1444.755863
 20
1006.022934
 30
0.0
  0
VERTEX
  5
7A8
100
AcDbEntity
  8
図
  6
CONTINUOUS
 62
     6
100
AcDbVertex
100
AcDb2dVertex
 10
1444.735977
 20
1005.5
 30
0.0
  0
VERTEX
  5
7A9
100
AcDbEntity
  8
図
  6
CONTINUOUS
 62
     6
100
AcDbVertex
100
AcDb2dVertex
 10
1444.755863
 20
1004.977066
 30
0.0
  0
VERTEX
  5
7AA
100
AcDbEntity
  8
図
  6
CONTINUOUS
 62
     6
100
AcDbVertex
100
AcDb2dVertex
 10
1444.815369
 20
1004.458112
 30
0.0
  0
VERTEX
  5
7AB
100
AcDbEntity
  8
図
  6
CONTINUOUS
 62
     6
100
AcDbVertex
100
AcDb2dVertex
 10
1444.914043
 20
1003.947086
 30
0.0
  0
VERTEX
  5
7AC
100
AcDbEntity
  8
図
  6
CONTINUOUS
 62
     6
100
AcDbVertex
100
AcDb2dVertex
 10
1445.051135
 20
1003.44788
 30
0.0
  0
VERTEX
  5
7AD
100
AcDbEntity
  8
図
  6
CONTINUOUS
 62
     6
100
AcDbVertex
100
AcDb2dVertex
 10
1445.225599
 20
1002.96429
 30
0.0
  0
VERTEX
  5
7AE
100
AcDbEntity
  8
図
  6
CONTINUOUS
 62
     6
100
AcDbVertex
100
AcDb2dVertex
 10
1445.436109
 20
1002.5
 30
0.0
  0
VERTEX
  5
7AF
100
AcDbEntity
  8
図
  6
CONTINUOUS
 62
     6
100
AcDbVertex
100
AcDb2dVertex
 10
1445.681063
 20
1002.058542
 30
0.0
  0
VERTEX
  5
7B0
100
AcDbEntity
  8
図
  6
CONTINUOUS
 62
     6
100
AcDbVertex
100
AcDb2dVertex
 10
1445.958595
 20
1001.643274
 30
0.0
  0
VERTEX
  5
7B1
100
AcDbEntity
  8
図
  6
CONTINUOUS
 62
     6
100
AcDbVertex
100
AcDb2dVertex
 10
1446.266595
 20
1001.25736
 30
0.0
  0
VERTEX
  5
7B2
100
AcDbEntity
  8
図
  6
CONTINUOUS
 62
     6
100
AcDbVertex
100
AcDb2dVertex
 10
1446.602717
 20
1000.903734
 30
0.0
  0
VERTEX
  5
7B3
100
AcDbEntity
  8
図
  6
CONTINUOUS
 62
     6
100
AcDbVertex
100
AcDb2dVertex
 10
1446.964405
 20
1000.585088
 30
0.0
  0
VERTEX
  5
7B4
100
AcDbEntity
  8
図
  6
CONTINUOUS
 62
     6
100
AcDbVertex
100
AcDb2dVertex
 10
1447.348903
 20
1000.303848
 30
0.0
  0
VERTEX
  5
7B5
100
AcDbEntity
  8
図
  6
CONTINUOUS
 62
     6
100
AcDbVertex
100
AcDb2dVertex
 10
1447.753289
 20
1000.062154
 30
0.0
  0
VERTEX
  5
7B6
100
AcDbEntity
  8
図
  6
CONTINUOUS
 62
     6
100
AcDbVertex
100
AcDb2dVertex
 10
1448.174483
 20
999.861844
 30
0.0
  0
VERTEX
  5
7B7
100
AcDbEntity
  8
図
  6
CONTINUOUS
 62
     6
100
AcDbVertex
100
AcDb2dVertex
 10
1448.609279
 20
999.704446
 30
0.0
  0
VERTEX
  5
7B8
100
AcDbEntity
  8
図
  6
CONTINUOUS
 62
     6
100
AcDbVertex
100
AcDb2dVertex
 10
1449.054371
 20
999.591154
 30
0.0
  0
VERTEX
  5
7B9
100
AcDbEntity
  8
図
  6
CONTINUOUS
 62
     6
100
AcDbVertex
100
AcDb2dVertex
 10
1449.506367
 20
999.522832
 30
0.0
  0
VERTEX
  5
7BA
100
AcDbEntity
  8
図
  6
CONTINUOUS
 62
     6
100
AcDbVertex
100
AcDb2dVertex
 10
1449.961831
 20
999.5
 30
0.0
  0
SEQEND
  5
7BB
100
AcDbEntity
  8
図
  6
CONTINUOUS
 62
     6
  0
LINE
  5
7BC
100
AcDbEntity
  8
図
  6
CONTINUOUS
 62
     2
100
AcDbLine
 10
1406.380859
 20
1011.5
 30
0.0
 11
1453.187683
 21
1011.5
 31
0.0
  0
ARC
  5
7BD
100
AcDbEntity
  8
図
  6
CONTINUOUS
 62
     2
100
AcDbCircle
 10
1414.380859
 20
1005.5
 30
0.0
 40
10.0
100
AcDbArc
 50
143.130102
 51
216.869898
  0
LINE
  5
7BE
100
AcDbEntity
  8
図
  6
CONTINUOUS
 62
     2
100
AcDbLine
 10
1406.380859
 20
999.5
 30
0.0
 11
1453.187683
 21
999.5
 31
0.0
  0
ARC
  5
7BF
100
AcDbEntity
  8
図
  6
CONTINUOUS
 62
     2
100
AcDbCircle
 10
1445.187683
 20
1005.5
 30
0.0
 40
10.0
100
AcDbArc
 50
323.130102
 51
36.869898
  0
LINE
  5
7C0
100
AcDbEntity
  8
図
  6
CONTINUOUS
 62
     6
100
AcDbLine
 10
1410.800271
 20
999.5
 30
0.0
 11
1410.800271
 21
996.5
 31
0.0
  0
LINE
  5
7C1
100
AcDbEntity
  8
図
  6
CONTINUOUS
 62
     6
100
AcDbLine
 10
1448.768271
 20
996.5
 30
0.0
 11
1448.768271
 21
999.5
 31
0.0
  0
LINE
  5
7C2
100
AcDbEntity
  8
図
  6
CONTINUOUS
 62
     2
100
AcDbLine
 10
1449.784271
 20
997.516
 30
0.0
 11
1409.784271
 21
997.516
 31
0.0
  0
LINE
  5
7C3
100
AcDbEntity
  8
図
  6
CONTINUOUS
 62
     2
100
AcDbLine
 10
1410.800271
 20
996.5
 30
0.0
 11
1409.784271
 21
997.516
 31
0.0
  0
LINE
  5
7C4
100
AcDbEntity
  8
図
  6
CONTINUOUS
 62
     2
100
AcDbLine
 10
1410.800271
 20
996.5
 30
0.0
 11
1448.768271
 21
996.5
 31
0.0
  0
LINE
  5
7C5
100
AcDbEntity
  8
図
  6
CONTINUOUS
 62
     2
100
AcDbLine
 10
1409.784271
 20
999.5
 30
0.0
 11
1409.784271
 21
997.516
 31
0.0
  0
LINE
  5
7C6
100
AcDbEntity
  8
図
  6
CONTINUOUS
 62
     2
100
AcDbLine
 10
1448.768271
 20
996.5
 30
0.0
 11
1449.784271
 21
997.516
 31
0.0
  0
LINE
  5
7C7
100
AcDbEntity
  8
図
  6
CONTINUOUS
 62
     2
100
AcDbLine
 10
1449.784271
 20
999.5
 30
0.0
 11
1449.784271
 21
997.516
 31
0.0
  0
LINE
  5
7C8
100
AcDbEntity
  8
図
  6
CONTINUOUS
 62
     2
100
AcDbLine
 10
1413.034271
 20
996.5
 30
0.0
 11
1413.034271
 21
956.43614
 31
0.0
  0
LINE
  5
7C9
100
AcDbEntity
  8
図
  6
CONTINUOUS
 62
     2
100
AcDbLine
 10
1446.534271
 20
996.5
 30
0.0
 11
1446.534271
 21
956.43614
 31
0.0
  0
ARC
  5
7CA
100
AcDbEntity
  8
図
  6
CONTINUOUS
 62
     2
100
AcDbCircle
 10
1447.034271
 20
955.0
 30
0.0
 40
1.25
100
AcDbArc
 50
124.849905
 51
180.0
  0
ARC
  5
7CB
100
AcDbEntity
  8
図
  6
CONTINUOUS
 62
     2
100
AcDbCircle
 10
1446.034271
 20
956.43614
 30
0.0
 40
0.5
100
AcDbArc
 50
304.849905
 51
0.0
  0
ARC
  5
7CC
100
AcDbEntity
  8
図
  6
CONTINUOUS
 62
     2
100
AcDbCircle
 10
1413.534271
 20
956.43614
 30
0.0
 40
0.5
100
AcDbArc
 50
180.0
 51
235.150095
  0
ARC
  5
7CD
100
AcDbEntity
  8
図
  6
CONTINUOUS
 62
     2
100
AcDbCircle
 10
1412.534271
 20
955.0
 30
0.0
 40
1.25
100
AcDbArc
 50
0.0
 51
55.150095
  0
LINE
  5
7CE
100
AcDbEntity
  8
図
  6
CONTINUOUS
 62
     6
100
AcDbLine
 10
1443.366245
 20
956.161178
 30
0.0
 11
1415.544389
 21
956.161178
 31
0.0
  0
LINE
  5
7CF
100
AcDbEntity
  8
図
  6
CONTINUOUS
 62
     2
100
AcDbLine
 10
1413.784271
 20
955.0
 30
0.0
 11
1413.784271
 21
918.0
 31
0.0
  0
LINE
  5
7D0
100
AcDbEntity
  8
図
  6
CONTINUOUS
 62
     2
100
AcDbLine
 10
1445.784271
 20
955.0
 30
0.0
 11
1445.784271
 21
918.0
 31
0.0
  0
LINE
  5
7D1
100
AcDbEntity
  8
図
  6
EXLTYPE3
 62
     6
100
AcDbLine
 10
1429.784271
 20
1305.0
 30
0.0
 11
1429.784271
 21
926.0
 31
0.0
  0
LINE
  5
7D2
100
AcDbEntity
  8
図
  6
CONTINUOUS
 62
     6
100
AcDbLine
 10
1662.784272
 20
1412.500001
 30
0.0
 11
1662.784272
 21
1471.499999
 31
0.0
  0
LINE
  5
7D3
100
AcDbEntity
  8
図
  6
CONTINUOUS
 62
     6
100
AcDbLine
 10
1623.184212
 20
1421.999999
 30
0.0
 11
1623.184212
 21
1462.000001
 31
0.0
  0
ARC
  5
7D4
100
AcDbEntity
  8
図
  6
CONTINUOUS
 62
     6
100
AcDbCircle
 10
1513.088775
 20
1403.0
 30
0.0
 40
48.0
100
AcDbArc
 50
90.0
 51
170.0
  0
ARC
  5
7D5
100
AcDbEntity
  8
図
  6
CONTINUOUS
 62
     6
100
AcDbCircle
 10
1513.088775
 20
1403.0
 30
0.0
 40
30.0
100
AcDbArc
 50
90.0
 51
170.0
  0
LINE
  5
7D6
100
AcDbEntity
  8
図
  6
CONTINUOUS
 62
     6
100
AcDbLine
 10
1469.78427
 20
1382.0
 30
0.0
 11
1461.905808
 21
1383.389186
 31
0.0
  0
ARC
  5
7D7
100
AcDbEntity
  8
図
  6
CONTINUOUS
 62
     6
100
AcDbCircle
 10
1477.836381
 20
1381.595621
 30
0.0
 40
0.999999
100
AcDbArc
 50
260.0
 51
350.0
  0
LINE
  5
7D8
100
AcDbEntity
  8
図
  6
CONTINUOUS
 62
     6
100
AcDbLine
 10
1482.39834
 20
1401.709013
 30
0.0
 11
1478.821188
 21
1381.421975
 31
0.0
  0
LINE
  5
7D9
100
AcDbEntity
  8
図
  6
CONTINUOUS
 62
     6
100
AcDbLine
 10
1469.78427
 20
1382.0
 30
0.0
 11
1477.662732
 21
1380.610814
 31
0.0
  0
LINE
  5
7DA
100
AcDbEntity
  8
図
  6
CONTINUOUS
 62
     6
100
AcDbLine
 10
1473.535071
 20
1403.271848
 30
0.0
 11
1482.39834
 21
1401.709013
 31
0.0
  0
LINE
  5
7DB
100
AcDbEntity
  8
図
  6
CONTINUOUS
 62
     6
100
AcDbLine
 10
1473.535071
 20
1403.271848
 30
0.0
 11
1464.671802
 21
1404.83468
 31
0.0
  0
ARC
  5
7DC
100
AcDbEntity
  8
図
  6
CONTINUOUS
 62
     6
100
AcDbCircle
 10
1462.079457
 20
1384.373993
 30
0.0
 40
0.999999
100
AcDbArc
 50
170.0
 51
260.0
  0
LINE
  5
7DD
100
AcDbEntity
  8
図
  6
CONTINUOUS
 62
     6
100
AcDbLine
 10
1464.671802
 20
1404.83468
 30
0.0
 11
1461.09465
 21
1384.547642
 31
0.0
  0
LINE
  5
7DE
100
AcDbEntity
  8
図
  6
CONTINUOUS
 62
     6
100
AcDbLine
 10
1473.795543
 20
1404.74906
 30
0.0
 11
1482.658815
 21
1403.186225
 31
0.0
  0
LINE
  5
7DF
100
AcDbEntity
  8
図
  6
CONTINUOUS
 62
     6
100
AcDbLine
 10
1465.656609
 20
1404.661034
 30
0.0
 11
1465.743435
 21
1405.153436
 31
0.0
  0
LINE
  5
7E0
100
AcDbEntity
  8
図
  6
CONTINUOUS
 62
     6
100
AcDbLine
 10
1473.621897
 20
1403.76425
 30
0.0
 11
1464.758625
 21
1405.327085
 31
0.0
  0
LINE
  5
7E1
100
AcDbEntity
  8
図
  6
CONTINUOUS
 62
     6
100
AcDbLine
 10
1465.743435
 20
1405.153436
 30
0.0
 11
1465.940898
 21
1404.610904
 31
0.0
  0
LINE
  5
7E2
100
AcDbEntity
  8
図
  6
CONTINUOUS
 62
     6
100
AcDbLine
 10
1464.758625
 20
1405.327085
 30
0.0
 11
1465.818003
 21
1411.335113
 31
0.0
  0
LINE
  5
7E3
100
AcDbEntity
  8
図
  6
CONTINUOUS
 62
     6
100
AcDbLine
 10
1473.621897
 20
1403.76425
 30
0.0
 11
1482.485166
 21
1402.201418
 31
0.0
  0
LINE
  5
7E4
100
AcDbEntity
  8
図
  6
CONTINUOUS
 62
     6
100
AcDbLine
 10
1482.485166
 20
1402.201418
 30
0.0
 11
1483.544544
 21
1408.209446
 31
0.0
  0
LINE
  5
7E5
100
AcDbEntity
  8
図
  6
CONTINUOUS
 62
     6
100
AcDbLine
 10
1481.500359
 20
1402.375067
 30
0.0
 11
1481.129244
 21
1401.932789
 31
0.0
  0
LINE
  5
7E6
100
AcDbEntity
  8
図
  6
CONTINUOUS
 62
     6
100
AcDbLine
 10
1481.413533
 20
1401.882662
 30
0.0
 11
1481.500359
 21
1402.375067
 31
0.0
  0
LINE
  5
7E7
100
AcDbEntity
  8
図
  6
CONTINUOUS
 62
     6
100
AcDbLine
 10
1473.795543
 20
1404.74906
 30
0.0
 11
1464.932274
 21
1406.311892
 31
0.0
  0
LINE
  5
7E8
100
AcDbEntity
  8
図
  6
CONTINUOUS
 62
     6
100
AcDbLine
 10
1513.088775
 20
1451.0
 30
0.0
 11
1617.784212
 21
1451.0
 31
0.0
  0
LINE
  5
7E9
100
AcDbEntity
  8
図
  6
CONTINUOUS
 62
     6
100
AcDbLine
 10
1513.088775
 20
1433.0
 30
0.0
 11
1617.784212
 21
1433.0
 31
0.0
  0
CIRCLE
  5
7EA
100
AcDbEntity
  8
図
  6
CONTINUOUS
 62
     6
100
AcDbCircle
 10
1630.784211
 20
1442.0
 30
0.0
 40
4.5
  0
LINE
  5
7EB
100
AcDbEntity
  8
図
  6
CONTINUOUS
 62
     6
100
AcDbLine
 10
1635.284211
 20
1406.0
 30
0.0
 11
1635.284211
 21
1422.017459
 31
0.0
  0
ARC
  5
7EC
100
AcDbEntity
  8
図
  6
CONTINUOUS
 62
     6
100
AcDbCircle
 10
1631.284212
 20
1407.618269
 30
0.0
 40
15.242595
100
AcDbArc
 50
91.8798
 51
109.348211
  0
LINE
  5
7ED
100
AcDbEntity
  8
図
  6
CONTINUOUS
 62
     6
100
AcDbLine
 10
1636.784211
 20
1421.999999
 30
0.0
 11
1635.334212
 21
1421.999999
 31
0.0
  0
ARC
  5
7EE
100
AcDbEntity
  8
図
  6
CONTINUOUS
 62
     6
100
AcDbCircle
 10
1630.28421
 20
1407.618269
 30
0.0
 40
15.242595
100
AcDbArc
 50
70.651789
 51
88.1202
  0
LINE
  5
7EF
100
AcDbEntity
  8
図
  6
CONTINUOUS
 62
     6
100
AcDbLine
 10
1626.284211
 20
1406.0
 30
0.0
 11
1626.284211
 21
1422.017459
 31
0.0
  0
LINE
  5
7F0
100
AcDbEntity
  8
図
  6
CONTINUOUS
 62
     6
100
AcDbLine
 10
1626.284211
 20
1406.0
 30
0.0
 11
1635.284211
 21
1406.0
 31
0.0
  0
LINE
  5
7F1
100
AcDbEntity
  8
図
  6
CONTINUOUS
 62
     6
100
AcDbLine
 10
1636.28421
 20
1421.999999
 30
0.0
 11
1661.284272
 21
1421.999999
 31
0.0
  0
LINE
  5
7F2
100
AcDbEntity
  8
図
  6
CONTINUOUS
 62
     6
100
AcDbLine
 10
1626.284211
 20
1421.999999
 30
0.0
 11
1624.784211
 21
1421.999999
 31
0.0
  0
LINE
  5
7F3
100
AcDbEntity
  8
図
  6
CONTINUOUS
 62
     6
100
AcDbLine
 10
1669.784271
 20
1471.499999
 30
0.0
 11
1669.28427
 21
1472.0
 31
0.0
  0
LINE
  5
7F4
100
AcDbEntity
  8
図
  6
CONTINUOUS
 62
     6
100
AcDbLine
 10
1669.28427
 20
1412.0
 30
0.0
 11
1669.784271
 21
1412.500001
 31
0.0
  0
LINE
  5
7F5
100
AcDbEntity
  8
図
  6
CONTINUOUS
 62
     6
100
AcDbLine
 10
1662.784272
 20
1412.500001
 30
0.0
 11
1663.28427
 21
1412.0
 31
0.0
  0
LINE
  5
7F6
100
AcDbEntity
  8
図
  6
CONTINUOUS
 62
     6
100
AcDbLine
 10
1662.784272
 20
1471.499999
 30
0.0
 11
1663.28427
 21
1472.0
 31
0.0
  0
LINE
  5
7F7
100
AcDbEntity
  8
図
  6
CONTINUOUS
 62
     6
100
AcDbLine
 10
1669.28427
 20
1472.0
 30
0.0
 11
1663.28427
 21
1472.0
 31
0.0
  0
LINE
  5
7F8
100
AcDbEntity
  8
図
  6
CONTINUOUS
 62
     6
100
AcDbLine
 10
1669.28427
 20
1412.0
 30
0.0
 11
1663.28427
 21
1412.0
 31
0.0
  0
LINE
  5
7F9
100
AcDbEntity
  8
図
  6
CONTINUOUS
 62
     6
100
AcDbLine
 10
1617.784212
 20
1421.999999
 30
0.0
 11
1624.784211
 21
1421.999999
 31
0.0
  0
LINE
  5
7FA
100
AcDbEntity
  8
図
  6
CONTINUOUS
 62
     6
100
AcDbLine
 10
1617.784212
 20
1442.0
 30
0.0
 11
1617.784212
 21
1421.999999
 31
0.0
  0
LINE
  5
7FB
100
AcDbEntity
  8
図
  6
CONTINUOUS
 62
     6
100
AcDbLine
 10
1662.784272
 20
1459.25
 30
0.0
 11
1661.284272
 21
1459.25
 31
0.0
  0
LINE
  5
7FC
100
AcDbEntity
  8
図
  6
CONTINUOUS
 62
     6
100
AcDbLine
 10
1662.784272
 20
1424.75
 30
0.0
 11
1661.284272
 21
1424.75
 31
0.0
  0
LINE
  5
7FD
100
AcDbEntity
  8
図
  6
CONTINUOUS
 62
     6
100
AcDbLine
 10
1636.28421
 20
1462.000001
 30
0.0
 11
1661.284272
 21
1462.000001
 31
0.0
  0
LINE
  5
7FE
100
AcDbEntity
  8
図
  6
CONTINUOUS
 62
     6
100
AcDbLine
 10
1617.784212
 20
1442.0
 30
0.0
 11
1617.784212
 21
1462.000001
 31
0.0
  0
LINE
  5
7FF
100
AcDbEntity
  8
図
  6
CONTINUOUS
 62
     6
100
AcDbLine
 10
1626.284211
 20
1478.0
 30
0.0
 11
1635.284211
 21
1478.0
 31
0.0
  0
LINE
  5
800
100
AcDbEntity
  8
図
  6
CONTINUOUS
 62
     6
100
AcDbLine
 10
1626.284211
 20
1478.0
 30
0.0
 11
1626.284211
 21
1461.982541
 31
0.0
  0
ARC
  5
801
100
AcDbEntity
  8
図
  6
CONTINUOUS
 62
     6
100
AcDbCircle
 10
1630.28421
 20
1476.381731
 30
0.0
 40
15.242595
100
AcDbArc
 50
271.8798
 51
289.348211
  0
LINE
  5
802
100
AcDbEntity
  8
図
  6
CONTINUOUS
 62
     6
100
AcDbLine
 10
1617.784212
 20
1462.000001
 30
0.0
 11
1624.784211
 21
1462.000001
 31
0.0
  0
LINE
  5
803
100
AcDbEntity
  8
図
  6
CONTINUOUS
 62
     6
100
AcDbLine
 10
1624.784211
 20
1421.999999
 30
0.0
 11
1624.784211
 21
1462.000001
 31
0.0
  0
LINE
  5
804
100
AcDbEntity
  8
図
  6
CONTINUOUS
 62
     6
100
AcDbLine
 10
1636.784211
 20
1462.000001
 30
0.0
 11
1635.334212
 21
1462.000001
 31
0.0
  0
ARC
  5
805
100
AcDbEntity
  8
図
  6
CONTINUOUS
 62
     6
100
AcDbCircle
 10
1631.284212
 20
1476.381731
 30
0.0
 40
15.242595
100
AcDbArc
 50
250.651789
 51
268.1202
  0
LINE
  5
806
100
AcDbEntity
  8
図
  6
CONTINUOUS
 62
     6
100
AcDbLine
 10
1626.284211
 20
1462.000001
 30
0.0
 11
1624.784211
 21
1462.000001
 31
0.0
  0
LINE
  5
807
100
AcDbEntity
  8
図
  6
CONTINUOUS
 62
     6
100
AcDbLine
 10
1635.284211
 20
1478.0
 30
0.0
 11
1635.284211
 21
1461.982541
 31
0.0
  0
LINE
  5
808
100
AcDbEntity
  8
図
  6
CONTINUOUS
 62
     6
100
AcDbLine
 10
1661.284272
 20
1421.999999
 30
0.0
 11
1661.284272
 21
1462.000001
 31
0.0
  0
LINE
  5
809
100
AcDbEntity
  8
図
  6
CONTINUOUS
 62
     6
100
AcDbLine
 10
1661.284272
 20
1427.75
 30
0.0
 11
1661.284272
 21
1427.999999
 31
0.0
  0
LINE
  5
80A
100
AcDbEntity
  8
図
  6
CONTINUOUS
 62
     6
100
AcDbLine
 10
1661.284272
 20
1456.25
 30
0.0
 11
1661.284272
 21
1456.000001
 31
0.0
  0
LINE
  5
80B
100
AcDbEntity
  8
図
  6
CONTINUOUS
 62
     6
100
AcDbLine
 10
1737.711771
 20
1408.512644
 30
0.0
 11
1737.711771
 21
1392.662
 31
0.0
  0
LINE
  5
80C
100
AcDbEntity
  8
図
  6
CONTINUOUS
 62
     6
100
AcDbLine
 10
1717.91877
 20
1391.500001
 30
0.0
 11
1716.734271
 21
1392.6845
 31
0.0
  0
LINE
  5
80D
100
AcDbEntity
  8
図
  6
CONTINUOUS
 62
     6
100
AcDbLine
 10
1716.756771
 20
1408.512644
 30
0.0
 11
1716.756771
 21
1392.662
 31
0.0
  0
LINE
  5
80E
100
AcDbEntity
  8
図
  6
CONTINUOUS
 62
     6
100
AcDbLine
 10
1736.549772
 20
1391.500001
 30
0.0
 11
1737.734271
 21
1392.6845
 31
0.0
  0
LINE
  5
80F
100
AcDbEntity
  8
図
  6
CONTINUOUS
 62
     6
100
AcDbLine
 10
1716.734271
 20
1392.6845
 30
0.0
 11
1737.711771
 21
1392.6845
 31
0.0
  0
LINE
  5
810
100
AcDbEntity
  8
図
  6
CONTINUOUS
 62
     6
100
AcDbLine
 10
1736.549772
 20
1391.500001
 30
0.0
 11
1717.91877
 21
1391.500001
 31
0.0
  0
LINE
  5
811
100
AcDbEntity
  8
図
  6
CONTINUOUS
 62
     6
100
AcDbLine
 10
1717.91877
 20
1391.500001
 30
0.0
 11
1717.91877
 21
1406.500001
 31
0.0
  0
LINE
  5
812
100
AcDbEntity
  8
図
  6
CONTINUOUS
 62
     6
100
AcDbLine
 10
1736.549772
 20
1391.500001
 30
0.0
 11
1736.549772
 21
1406.500001
 31
0.0
  0
LINE
  5
813
100
AcDbEntity
  8
図
  6
CONTINUOUS
 62
     6
100
AcDbLine
 10
1706.734272
 20
1418.0
 30
0.0
 11
1697.78427
 21
1418.0
 31
0.0
  0
LINE
  5
814
100
AcDbEntity
  8
図
  6
CONTINUOUS
 62
     6
100
AcDbLine
 10
1697.78427
 20
1418.0
 30
0.0
 11
1702.484271
 21
1418.0
 31
0.0
  0
LINE
  5
815
100
AcDbEntity
  8
図
  6
CONTINUOUS
 62
     6
100
AcDbLine
 10
1700.111385
 20
1478.999999
 30
0.0
 11
1697.78427
 21
1478.999999
 31
0.0
  0
LINE
  5
816
100
AcDbEntity
  8
図
  6
CONTINUOUS
 62
     6
100
AcDbLine
 10
1737.734271
 20
1440.905696
 30
0.0
 11
1737.734271
 21
1408.512644
 31
0.0
  0
ARC
  5
817
100
AcDbEntity
  8
図
  6
CONTINUOUS
 62
     6
100
AcDbCircle
 10
1706.734272
 20
1408.000001
 30
0.0
 40
9.999999
100
AcDbArc
 50
2.938516
 51
90.0
  0
ARC
  5
818
100
AcDbEntity
  8
図
  6
CONTINUOUS
 62
     6
100
AcDbCircle
 10
1699.28427
 20
1420.000001
 30
0.0
 40
2.000001
100
AcDbArc
 50
270.0
 51
270.404921
  0
ARC
  5
819
100
AcDbEntity
  8
図
  6
CONTINUOUS
 62
     6
100
AcDbCircle
 10
1725.784272
 20
1442.0
 30
0.0
 40
12.0
100
AcDbArc
 50
294.877322
 51
60.898147
  0
LINE
  5
81A
100
AcDbEntity
  8
図
  6
CONTINUOUS
 62
     6
100
AcDbLine
 10
1702.952739
 20
1418.18558
 30
0.0
 11
1730.832393
 21
1431.113474
 31
0.0
  0
ARC
  5
81B
100
AcDbEntity
  8
図
  6
CONTINUOUS
 62
     6
100
AcDbCircle
 10
1702.111386
 20
1420.000001
 30
0.0
 40
2.000001
100
AcDbArc
 50
270.0
 51
294.877322
  0
LINE
  5
81C
100
AcDbEntity
  8
図
  6
CONTINUOUS
 62
     6
100
AcDbLine
 10
1702.111386
 20
1469.397443
 30
0.0
 11
1702.111386
 21
1477.000001
 31
0.0
  0
LINE
  5
81D
100
AcDbEntity
  8
図
  6
CONTINUOUS
 62
     6
100
AcDbLine
 10
1705.008
 20
1464.861389
 30
0.0
 11
1731.63435
 21
1452.514655
 31
0.0
  0
ARC
  5
81E
100
AcDbEntity
  8
図
  6
CONTINUOUS
 62
     6
100
AcDbCircle
 10
1707.111384
 20
1469.397443
 30
0.0
 40
5.000001
100
AcDbArc
 50
180.0
 51
223.115316
  0
ARC
  5
81F
100
AcDbEntity
  8
図
  6
CONTINUOUS
 62
     6
100
AcDbCircle
 10
1707.111384
 20
1469.397443
 30
0.0
 40
5.000001
100
AcDbArc
 50
223.115316
 51
245.122678
  0
ARC
  5
820
100
AcDbEntity
  8
図
  6
CONTINUOUS
 62
     6
100
AcDbCircle
 10
1702.484271
 20
1442.0
 30
0.0
 40
24.0
100
AcDbArc
 50
40.408812
 51
87.666424
  0
LINE
  5
821
100
AcDbEntity
  8
図
  6
CONTINUOUS
 62
     6
100
AcDbLine
 10
1702.111386
 20
1469.500001
 30
0.0
 11
1702.111386
 21
1418.0
 31
0.0
  0
ARC
  5
822
100
AcDbEntity
  8
図
  6
CONTINUOUS
 62
     6
100
AcDbCircle
 10
1700.111385
 20
1477.000001
 30
0.0
 40
2.000001
100
AcDbArc
 50
0.0
 51
90.0
  0
LINE
  5
823
100
AcDbEntity
  8
図
  6
CONTINUOUS
 62
     6
100
AcDbLine
 10
1716.721122
 20
1408.512644
 30
0.0
 11
1737.734271
 21
1408.512644
 31
0.0
  0
LINE
  5
824
100
AcDbEntity
  8
図
  6
CONTINUOUS
 62
     6
100
AcDbLine
 10
1716.756771
 20
1406.500001
 30
0.0
 11
1737.734271
 21
1406.500001
 31
0.0
  0
LINE
  5
825
100
AcDbEntity
  8
図
  6
CONTINUOUS
 62
     6
100
AcDbLine
 10
1716.756771
 20
1408.512644
 30
0.0
 11
1717.91877
 21
1406.500001
 31
0.0
  0
LINE
  5
826
100
AcDbEntity
  8
図
  6
CONTINUOUS
 62
     6
100
AcDbLine
 10
1737.711771
 20
1408.512644
 30
0.0
 11
1736.549772
 21
1406.500001
 31
0.0
  0
LINE
  5
827
100
AcDbEntity
  8
図
  6
CONTINUOUS
 62
     6
100
AcDbLine
 10
1747.784271
 20
497.0
 30
0.0
 11
1747.784271
 21
1717.5
 31
0.0
  0
LINE
  5
828
100
AcDbEntity
  8
図
  6
CONTINUOUS
 62
     2
100
AcDbLine
 10
1697.784271
 20
497.0
 30
0.0
 11
1697.784271
 21
1717.5
 31
0.0
  0
LINE
  5
829
100
AcDbEntity
  8
図
  6
CONTINUOUS
 62
     2
100
AcDbLine
 10
1669.784271
 20
497.0
 30
0.0
 11
1669.784271
 21
1717.5
 31
0.0
  0
LINE
  5
82A
100
AcDbEntity
  8
図
  6
EXLTYPE4
 62
     6
100
AcDbLine
 10
1146.0
 20
497.0
 30
0.0
 11
1747.784271
 21
497.0
 31
0.0
  0
LINE
  5
82B
100
AcDbEntity
  8
図
  6
CONTINUOUS
 62
     2
100
AcDbLine
 10
1146.0
 20
1142.0
 30
0.0
 11
1669.784271
 21
1142.0
 31
0.0
  0
LINE
  5
82C
100
AcDbEntity
  8
図
  6
CONTINUOUS
 62
     2
100
AcDbLine
 10
1146.0
 20
1117.0
 30
0.0
 11
1669.784271
 21
1117.0
 31
0.0
  0
LINE
  5
82D
100
AcDbEntity
  8
図
  6
CONTINUOUS
 62
     2
100
AcDbLine
 10
1146.0
 20
1142.0
 30
0.0
 11
1669.784271
 21
1142.0
 31
0.0
  0
LINE
  5
82E
100
AcDbEntity
  8
図
  6
EXLTYPE3
 62
     6
100
AcDbLine
 10
1702.684281
 20
972.0
 30
0.0
 11
1609.584281
 21
972.0
 31
0.0
  0
LINE
  5
82F
100
AcDbEntity
  8
図
  6
CONTINUOUS
 62
     6
100
AcDbLine
 10
1669.784271
 20
997.5
 30
0.0
 11
1694.784271
 21
997.5
 31
0.0
  0
LINE
  5
830
100
AcDbEntity
  8
図
  6
CONTINUOUS
 62
     6
100
AcDbLine
 10
1694.784271
 20
946.5
 30
0.0
 11
1694.784271
 21
997.5
 31
0.0
  0
LINE
  5
831
100
AcDbEntity
  8
図
  6
CONTINUOUS
 62
     6
100
AcDbLine
 10
1669.784271
 20
946.5
 30
0.0
 11
1694.784271
 21
946.5
 31
0.0
  0
ARC
  5
832
100
AcDbEntity
  8
図
  6
CONTINUOUS
 62
     2
100
AcDbCircle
 10
1640.787261
 20
993.997008
 30
0.0
 40
11.002992
100
AcDbArc
 50
90.0
 51
180.0
  0
LINE
  5
833
100
AcDbEntity
  8
図
  6
CONTINUOUS
 62
     2
100
AcDbLine
 10
1640.787261
 20
1005.0
 30
0.0
 11
1669.784271
 21
1005.0
 31
0.0
  0
ARC
  5
834
100
AcDbEntity
  8
図
  6
CONTINUOUS
 62
     2
100
AcDbCircle
 10
1640.787261
 20
950.002992
 30
0.0
 40
11.002992
100
AcDbArc
 50
180.0
 51
270.0
  0
LINE
  5
835
100
AcDbEntity
  8
図
  6
CONTINUOUS
 62
     2
100
AcDbLine
 10
1640.787261
 20
939.0
 30
0.0
 11
1669.784271
 21
939.0
 31
0.0
  0
LINE
  5
836
100
AcDbEntity
  8
図
  6
CONTINUOUS
 62
     2
100
AcDbLine
 10
1629.784271
 20
993.997008
 30
0.0
 11
1629.784271
 21
949.996358
 31
0.0
  0
LINE
  5
837
100
AcDbEntity
  8
図
  6
CONTINUOUS
 62
     6
100
AcDbLine
 10
1699.784271
 20
1026.0
 30
0.0
 11
1699.784271
 21
1058.0
 31
0.0
  0
LINE
  5
838
100
AcDbEntity
  8
図
  6
EXLTYPE4
 62
     6
100
AcDbLine
 10
1631.284271
 20
1026.0
 30
0.0
 11
1699.784271
 21
1026.0
 31
0.0
  0
LINE
  5
839
100
AcDbEntity
  8
図
  6
EXLTYPE3
 62
     6
100
AcDbLine
 10
1631.284271
 20
1042.0
 30
0.0
 11
1709.784271
 21
1042.0
 31
0.0
  0
LINE
  5
83A
100
AcDbEntity
  8
図
  6
EXLTYPE4
 62
     6
100
AcDbLine
 10
1631.284271
 20
1058.0
 30
0.0
 11
1699.784271
 21
1058.0
 31
0.0
  0
LINE
  5
83B
100
AcDbEntity
  8
図
  6
CONTINUOUS
 62
     2
100
AcDbLine
 10
1539.909271
 20
987.875
 30
0.0
 11
1629.784271
 21
987.875
 31
0.0
  0
LINE
  5
83C
100
AcDbEntity
  8
図
  6
CONTINUOUS
 62
     2
100
AcDbLine
 10
1541.659271
 20
956.125
 30
0.0
 11
1629.784271
 21
956.125
 31
0.0
  0
LEADER
  5
83D
100
AcDbEntity
  8
図
  6
CONTINUOUS
 62
     3
100
AcDbLeader
  3
STANDARD
 73
     3
 74
     1
 75
     0
 40
0.0
 76
     3
 10
1737.711771
 20
1401.3
 30
0.0
 10
1827.0
 20
1573.0
 30
0.0
 10
1916.0
 20
1573.0
 30
0.0
 77
     3
1001
ACAD
1000
DSTYLE
1002
{
1070
    41
1040
30.0
1070
     5
1000
_EX_NORM
1070
     6
1000
_EX_NORM
1070
     7
1000
_EX_NORM
1070
   341
1005
28
1002
}
  0
TEXT
  5
83E
100
AcDbEntity
  8
図
  6
CONTINUOUS
 62
     2
100
AcDbText
 10
1824.537502
 20
1576.373026
 30
0.0
 40
30.0
  1
Ｇ１／２
 41
0.672
  7
EXCADSTD
 72
     5
 11
1920.5375
 21
1576.373026
 31
0.0
100
AcDbText
  0
CIRCLE
  5
83F
100
AcDbEntity
  8
図
  6
CONTINUOUS
 62
     7
100
AcDbCircle
 10
562.057714
 20
2484.0
 30
0.0
 40
7.5
  0
CIRCLE
  5
840
100
AcDbEntity
  8
図
  6
CONTINUOUS
 62
     7
100
AcDbCircle
 10
640.0
 20
2349.0
 30
0.0
 40
7.5
  0
CIRCLE
  5
841
100
AcDbEntity
  8
図
  6
CONTINUOUS
 62
     7
100
AcDbCircle
 10
717.942286
 20
2484.0
 30
0.0
 40
7.5
  0
CIRCLE
  5
842
100
AcDbEntity
  8
図
  6
CONTINUOUS
 62
     7
100
AcDbCircle
 10
640.0
 20
2439.0
 30
0.0
 40
45.0
  0
DIMENSION
  5
84C
100
AcDbEntity
  8
図
  6
CONTINUOUS
 62
     3
100
AcDbDimension
  2
*D21
 10
612.452206
 20
2403.417433
 30
0.0
 11
705.816549
 21
2564.851159
 31
0.0
 70
   163
  3
STANDARD
100
AcDbDiametricDimension
 15
667.547794
 25
2474.582567
 35
0.0
 40
0.0
1001
ACAD
1000
DSTYLE
1002
{
1070
     6
1000
_EX_NORM
1070
     7
1000
_EX_NORM
1070
    41
1040
30.0
1070
    73
1070
     0
1070
    74
1070
     0
1070
    77
1070
     1
1070
    78
1070
     8
1070
   140
1040
40.0
1070
   147
1040
5.0
1070
   173
1070
     1
1070
   176
1070
     3
1070
   177
1070
     3
1070
   178
1070
     2
1070
   271
1070
     1
1070
   279
1070
     2
1070
   280
1070
     0
1070
   287
1070
     5
1070
   340
1005
10F
1002
}
  0
DIMENSION
  5
857
100
AcDbEntity
  8
寸法
  6
CONTINUOUS
 62
     3
100
AcDbDimension
  2
*D22
 10
884.0
 20
2130.0
 30
0.0
 11
860.5
 21
2010.0
 31
0.0
 70
   160
  3
STANDARD
100
AcDbAlignedDimension
 13
823.0
 23
1890.0
 33
0.0
 14
930.6
 24
2130.0
 34
0.0
 50
90.0
100
AcDbRotatedDimension
1001
ACAD
1000
DSTYLE
1002
{
1070
     6
1000
_EX_NORM
1070
     7
1000
_EX_NORM
1070
    41
1040
30.0
1070
    42
1040
5.0
1070
    44
1040
10.0
1070
    73
1070
     0
1070
    74
1070
     0
1070
    75
1070
     0
1070
    76
1070
     1
1070
    77
1070
     1
1070
    78
1070
     8
1070
   140
1040
40.0
1070
   147
1040
3.5
1070
   173
1070
     1
1070
   176
1070
     3
1070
   177
1070
     3
1070
   178
1070
     2
1070
   271
1070
     2
1070
   279
1070
     2
1070
   280
1070
     0
1070
   287
1070
     5
1070
   340
1005
10F
1002
}
  0
DIMENSION
  5
863
100
AcDbEntity
  8
寸法
  6
CONTINUOUS
 62
     3
100
AcDbDimension
  2
*D23
 10
948.0
 20
1142.0
 30
0.0
 11
924.5
 21
977.0
 31
0.0
 70
   160
  1
（10～25）
  3
STANDARD
100
AcDbAlignedDimension
 13
981.384271
 23
1117.0
 33
0.0
 14
981.384271
 24
1142.0
 34
0.0
 50
90.0
100
AcDbRotatedDimension
1001
ACAD
1000
DSTYLE
1002
{
1070
     6
1000
_EX_NORM
1070
     7
1000
_EX_NORM
1070
    41
1040
30.0
1070
    42
1040
0.0
1070
    44
1040
0.0
1070
    73
1070
     0
1070
    74
1070
     0
1070
    75
1070
     0
1070
    76
1070
     0
1070
    77
1070
     1
1070
    78
1070
     8
1070
   140
1040
40.0
1070
   147
1040
3.5
1070
   173
1070
     1
1070
   176
1070
     3
1070
   177
1070
     3
1070
   178
1070
     2
1070
   271
1070
     2
1070
   279
1070
     2
1070
   280
1070
     1
1070
   287
1070
     5
1070
   340
1005
10F
1002
}
  0
DIMENSION
  5
86F
100
AcDbEntity
  8
寸法
  6
CONTINUOUS
 62
     3
100
AcDbDimension
  2
*D24
 10
1007.0
 20
1142.0
 30
0.0
 11
983.5
 21
1219.5
 31
0.0
 70
   160
  3
STANDARD
100
AcDbAlignedDimension
 13
791.184271
 23
1297.0
 33
0.0
 14
1015.384271
 24
1142.0
 34
0.0
 50
90.0
100
AcDbRotatedDimension
1001
ACAD
1000
DSTYLE
1002
{
1070
     6
1000
_EX_NORM
1070
     7
1000
_EX_NORM
1070
    41
1040
30.0
1070
    42
1040
5.0
1070
    44
1040
59.000001
1070
    73
1070
     0
1070
    74
1070
     0
1070
    75
1070
     0
1070
    76
1070
     0
1070
    77
1070
     1
1070
    78
1070
     8
1070
   140
1040
40.0
1070
   147
1040
3.5
1070
   173
1070
     1
1070
   176
1070
     3
1070
   177
1070
     3
1070
   178
1070
     2
1070
   271
1070
     2
1070
   279
1070
     2
1070
   280
1070
     0
1070
   287
1070
     5
1070
   340
1005
10F
1002
}
  0
DIMENSION
  5
87A
100
AcDbEntity
  8
寸法
  6
CONTINUOUS
 62
     3
100
AcDbDimension
  2
*D25
 10
1066.0
 20
497.0
 30
0.0
 11
1042.5
 21
897.0
 31
0.0
 70
   160
  3
STANDARD
100
AcDbAlignedDimension
 13
1081.384271
 23
1297.0
 33
0.0
 14
1081.384271
 24
497.0
 34
0.0
 50
90.0
100
AcDbRotatedDimension
1001
ACAD
1000
DSTYLE
1002
{
1070
     6
1000
_EX_NORM
1070
     7
1000
_EX_NORM
1070
    41
1040
30.0
1070
    42
1040
5.0
1070
    44
1040
10.0
1070
    73
1070
     0
1070
    74
1070
     0
1070
    75
1070
     0
1070
    76
1070
     1
1070
    77
1070
     1
1070
    78
1070
     8
1070
   140
1040
40.0
1070
   147
1040
3.5
1070
   173
1070
     1
1070
   176
1070
     3
1070
   177
1070
     3
1070
   178
1070
     2
1070
   271
1070
     2
1070
   279
1070
     2
1070
   280
1070
     0
1070
   287
1070
     5
1070
   340
1005
10F
1002
}
  0
DIMENSION
  5
885
100
AcDbEntity
  8
寸法
  6
CONTINUOUS
 62
     3
100
AcDbDimension
  2
*D26
 10
1007.0
 20
497.0
 30
0.0
 11
983.5
 21
819.5
 31
0.0
 70
   160
  3
STANDARD
100
AcDbAlignedDimension
 13
1091.384271
 23
1142.0
 33
0.0
 14
1066.384271
 24
497.0
 34
0.0
 50
90.0
100
AcDbRotatedDimension
1001
ACAD
1000
DSTYLE
1002
{
1070
     6
1000
_EX_NORM
1070
     7
1000
_EX_NORM
1070
    41
1040
30.0
1070
    42
1040
57.384272
1070
    44
1040
10.0
1070
    73
1070
     0
1070
    74
1070
     0
1070
    75
1070
     0
1070
    76
1070
     1
1070
    77
1070
     1
1070
    78
1070
     8
1070
   140
1040
40.0
1070
   147
1040
3.5
1070
   173
1070
     1
1070
   176
1070
     3
1070
   177
1070
     3
1070
   178
1070
     2
1070
   271
1070
     2
1070
   279
1070
     2
1070
   280
1070
     0
1070
   287
1070
     5
1070
   340
1005
10F
1002
}
  0
DIMENSION
  5
890
100
AcDbEntity
  8
寸法
  6
CONTINUOUS
 62
     3
100
AcDbDimension
  2
*D27
 10
333.0
 20
1142.0
 30
0.0
 11
309.5
 21
1292.0
 31
0.0
 70
   160
  3
STANDARD
100
AcDbAlignedDimension
 13
455.784271
 23
1442.0
 33
0.0
 14
355.0
 24
1142.0
 34
0.0
 50
90.0
100
AcDbRotatedDimension
1001
ACAD
1000
DSTYLE
1002
{
1070
     6
1000
_EX_NORM
1070
     7
1000
_EX_NORM
1070
    41
1040
30.0
1070
    42
1040
5.0
1070
    44
1040
10.0
1070
    73
1070
     0
1070
    74
1070
     0
1070
    75
1070
     0
1070
    76
1070
     1
1070
    77
1070
     1
1070
    78
1070
     8
1070
   140
1040
40.0
1070
   147
1040
3.5
1070
   173
1070
     1
1070
   176
1070
     3
1070
   177
1070
     3
1070
   178
1070
     2
1070
   271
1070
     2
1070
   279
1070
     2
1070
   280
1070
     0
1070
   287
1070
     5
1070
   340
1005
10F
1002
}
  0
LINE
  5
891
100
AcDbEntity
  8
寸法
  6
CONTINUOUS
 62
     3
100
AcDbLine
 10
1519.784271
 20
401.0
 30
0.0
 11
1925.284264
 21
401.0
 31
0.0
  0
LINE
  5
892
100
AcDbEntity
  8
寸法
  6
CONTINUOUS
 62
     3
100
AcDbLine
 10
1519.784271
 20
396.0
 30
0.0
 11
1549.784271
 21
401.0
 31
0.0
  0
LINE
  5
893
100
AcDbEntity
  8
寸法
  6
CONTINUOUS
 62
     3
100
AcDbLine
 10
1549.784271
 20
401.0
 30
0.0
 11
1519.784271
 21
406.0
 31
0.0
  0
LINE
  5
894
100
AcDbEntity
  8
寸法
  6
CONTINUOUS
 62
     3
100
AcDbLine
 10
1699.784271
 20
406.0
 30
0.0
 11
1669.784271
 21
401.0
 31
0.0
  0
LINE
  5
895
100
AcDbEntity
  8
寸法
  6
CONTINUOUS
 62
     3
100
AcDbLine
 10
1669.784271
 20
401.0
 30
0.0
 11
1699.784271
 21
396.0
 31
0.0
  0
TEXT
  5
896
100
AcDbEntity
  8
寸法
  6
CONTINUOUS
 62
     2
100
AcDbText
 10
1699.784271
 20
404.5
 30
0.0
 40
40.0
  1
１２０
 41
0.7
  7
EXCADSTD
 72
     5
 11
1799.784271
 21
404.5
 31
0.0
100
AcDbText
  0
TEXT
  5
897
100
AcDbEntity
  8
寸法
  6
CONTINUOUS
 62
     2
100
AcDbText
 10
1794.784271
 20
404.5
 30
0.0
 40
23.999998
  1
（Ｓトラップ）
 41
0.66
  7
EXCADSTD
 72
     5
 11
1926.784263
 21
404.5
 31
0.0
100
AcDbText
  0
LINE
  5
898
100
AcDbEntity
  8
寸法
  6
CONTINUOUS
 62
     3
100
AcDbLine
 10
1549.784271
 20
443.0
 30
0.0
 11
1549.784271
 21
391.0
 31
0.0
  0
LINE
  5
899
100
AcDbEntity
  8
寸法
  6
CONTINUOUS
 62
     3
100
AcDbLine
 10
1669.784271
 20
492.0
 30
0.0
 11
1669.784271
 21
391.0
 31
0.0
  0
DIMENSION
  5
8A1
100
AcDbEntity
  8
寸法
  6
CONTINUOUS
 62
     3
100
AcDbDimension
  2
*D28
 10
1669.784271
 20
1667.5
 30
0.0
 11
1512.284271
 21
1691.0
 31
0.0
 70
   160
  1
（20～28）
  3
STANDARD
100
AcDbAlignedDimension
 13
1697.784271
 23
1717.5
 33
0.0
 14
1669.784271
 24
1717.5
 34
0.0
100
AcDbRotatedDimension
1001
ACAD
1000
DSTYLE
1002
{
1070
     6
1000
_EX_NONE
1070
     7
1000
_EX_NORM
1070
    41
1040
30.0
1070
    42
1040
0.0
1070
    44
1040
0.0
1070
    73
1070
     0
1070
    74
1070
     0
1070
    75
1070
     1
1070
    76
1070
     1
1070
    77
1070
     1
1070
    78
1070
     8
1070
   140
1040
40.0
1070
   147
1040
3.5
1070
   173
1070
     1
1070
   176
1070
     3
1070
   177
1070
     3
1070
   178
1070
     2
1070
   271
1070
     2
1070
   279
1070
     2
1070
   280
1070
     2
1070
   287
1070
     5
1070
   340
1005
F7
1002
}
  0
DIMENSION
  5
8AB
100
AcDbEntity
  8
寸法
  6
CONTINUOUS
 62
     3
100
AcDbDimension
  2
*D29
 10
1747.784271
 20
1667.5
 30
0.0
 11
1852.784271
 21
1691.0
 31
0.0
 70
   160
  1
50以上
  3
STANDARD
100
AcDbAlignedDimension
 13
1697.784271
 23
1767.5
 33
0.0
 14
1747.784271
 24
1767.5
 34
0.0
100
AcDbRotatedDimension
1001
ACAD
1000
DSTYLE
1002
{
1070
     6
1000
_EX_BCIR
1070
     7
1000
_EX_NORM
1070
    41
1040
7.0
1070
    42
1040
0.0
1070
    44
1040
0.0
1070
    73
1070
     0
1070
    74
1070
     0
1070
    75
1070
     1
1070
    76
1070
     1
1070
    77
1070
     1
1070
    78
1070
     8
1070
   140
1040
40.0
1070
   147
1040
3.5
1070
   173
1070
     1
1070
   176
1070
     3
1070
   177
1070
     3
1070
   178
1070
     2
1070
   271
1070
     2
1070
   279
1070
     2
1070
   280
1070
     2
1070
   287
1070
     5
1070
   340
1005
F7
1002
}
  0
LINE
  5
8AC
100
AcDbEntity
  8
寸法
  6
CONTINUOUS
 62
     2
100
AcDbLine
 10
1669.784271
 20
1670.5
 30
0.0
 11
1697.784271
 21
1698.5
 31
0.0
  0
DIMENSION
  5
8B8
100
AcDbEntity
  8
寸法
  6
CONTINUOUS
 62
     3
100
AcDbDimension
  2
*D30
 10
1866.0
 20
1142.0
 30
0.0
 11
1842.5
 21
1357.0
 31
0.0
 70
   160
  1
100（ボトルトラップ）
  3
STANDARD
100
AcDbAlignedDimension
 13
1709.784271
 23
1042.0
 33
0.0
 14
1743.784271
 24
1142.0
 34
0.0
 50
90.0
100
AcDbRotatedDimension
1001
ACAD
1000
DSTYLE
1002
{
1070
     6
1000
_EX_NORM
1070
     7
1000
_EX_NORM
1070
    41
1040
30.0
1070
    42
1040
5.0
1070
    44
1040
10.0
1070
    73
1070
     0
1070
    74
1070
     0
1070
    75
1070
     0
1070
    76
1070
     0
1070
    77
1070
     1
1070
    78
1070
     8
1070
   140
1040
40.0
1070
   147
1040
3.5
1070
   173
1070
     1
1070
   176
1070
     3
1070
   177
1070
     3
1070
   178
1070
     2
1070
   271
1070
     2
1070
   279
1070
     2
1070
   280
1070
     0
1070
   287
1070
     5
1070
   340
1005
10F
1002
}
  0
DIMENSION
  5
8C4
100
AcDbEntity
  8
寸法
  6
CONTINUOUS
 62
     3
100
AcDbDimension
  2
*D31
 10
1933.0
 20
972.0
 30
0.0
 11
1909.5
 21
1327.0
 31
0.0
 70
   160
  1
170（Ｐトラップ）
  3
STANDARD
100
AcDbAlignedDimension
 13
1669.784271
 23
1142.0
 33
0.0
 14
1702.684281
 24
972.0
 34
0.0
 50
90.0
100
AcDbRotatedDimension
1001
ACAD
1000
DSTYLE
1002
{
1070
     6
1000
_EX_NORM
1070
     7
1000
_EX_NORM
1070
    41
1040
30.0
1070
    42
1040
5.0
1070
    44
1040
10.0
1070
    73
1070
     0
1070
    74
1070
     0
1070
    75
1070
     0
1070
    76
1070
     0
1070
    77
1070
     1
1070
    78
1070
     8
1070
   140
1040
40.0
1070
   147
1040
3.5
1070
   173
1070
     1
1070
   176
1070
     3
1070
   177
1070
     3
1070
   178
1070
     2
1070
   271
1070
     2
1070
   279
1070
     2
1070
   280
1070
     1
1070
   287
1070
     5
1070
   340
1005
10F
1002
}
  0
TEXT
  5
8C5
100
AcDbEntity
  8
寸法
  6
CONTINUOUS
 62
     2
100
AcDbText
 10
1776.431467
 20
834.5
 30
0.0
 40
40.0
  1
ＶＰ･ＶＵ５０
 41
0.653306
  7
EXCADSTD
 72
     5
 11
1988.431466
 21
834.5
 31
0.0
100
AcDbText
  0
LEADER
  5
8C6
100
AcDbEntity
  8
寸法
  6
CONTINUOUS
 62
     3
100
AcDbLeader
  3
STANDARD
 73
     3
 74
     1
 75
     0
 40
0.0
 76
     3
 10
1685.3
 20
946.5
 30
0.0
 10
1779.0
 20
831.0
 30
0.0
 10
1979.0
 20
831.0
 30
0.0
 77
     3
1001
ACAD
1000
DSTYLE
1002
{
1070
    41
1040
30.0
1070
     5
1000
_EX_NORM
1070
     6
1000
_EX_NORM
1070
     7
1000
_EX_NORM
1070
   341
1005
28
1002
}
  0
ENDSEC
  0
SECTION
  2
OBJECTS
  0
DICTIONARY
  5
19
100
AcDbDictionary
  3
ACAD_GROUP
350
1A
  3
ACAD_MLINESTYLE
350
1B
  0
DICTIONARY
  5
1A
102
{ACAD_REACTORS
330
19
102
}
100
AcDbDictionary
  0
DICTIONARY
  5
1B
102
{ACAD_REACTORS
330
19
102
}
100
AcDbDictionary
  3
STANDARD
350
1C
  0
MLINESTYLE
  5
1C
102
{ACAD_REACTORS
330
1B
102
}
100
AcDbMlineStyle
  2
Standard
 70
     0
  3

 62
     0
 51
90.0
 52
90.0
 71
     2
 49
0.5
 62
   256
  6
ByLayer
 49
-0.5
 62
   256
  6
ByLayer
  0
ENDSEC
  0
EOF
