  0
SECTION
  2
HEADER
  9
$ACADVER
  1
AC1014
  9
$ACADMAINTVER
 70
     0
  9
$DWGCODEPAGE
  3
ANSI_932
  9
$INSBASE
 10
0.0
 20
0.0
 30
0.0
  9
$EXTMIN
 10
-434.630971
 20
11.0
 30
0.0
  9
$EXTMAX
 10
497.9
 20
403.7
 30
0.0
  9
$LIMMIN
 10
0.0
 20
0.0
  9
$LIMMAX
 10
420.0
 20
297.0
  9
$ORTHOMODE
 70
     0
  9
$REGENMODE
 70
     1
  9
$FILLMODE
 70
     1
  9
$QTEXTMODE
 70
     0
  9
$MIRRTEXT
 70
     1
  9
$DRAGMODE
 70
     2
  9
$LTSCALE
 40
1.0
  9
$OSMODE
 70
     0
  9
$ATTMODE
 70
     1
  9
$TEXTSIZE
 40
0.2
  9
$TRACEWID
 40
0.05
  9
$TEXTSTYLE
  7
STANDARD
  9
$CLAYER
  8
図
  9
$CELTYPE
  6
CONTINUOUS
  9
$CECOLOR
 62
   256
  9
$CELTSCALE
 40
1.0
  9
$DELOBJ
 70
     1
  9
$DISPSILH
 70
     0
  9
$DIMSCALE
 40
1.0
  9
$DIMASZ
 40
0.18
  9
$DIMEXO
 40
0.0625
  9
$DIMDLI
 40
0.38
  9
$DIMRND
 40
0.0
  9
$DIMDLE
 40
0.0
  9
$DIMEXE
 40
0.18
  9
$DIMTP
 40
0.0
  9
$DIMTM
 40
0.0
  9
$DIMTXT
 40
0.18
  9
$DIMCEN
 40
0.09
  9
$DIMTSZ
 40
0.0
  9
$DIMTOL
 70
     0
  9
$DIMLIM
 70
     0
  9
$DIMTIH
 70
     1
  9
$DIMTOH
 70
     1
  9
$DIMSE1
 70
     0
  9
$DIMSE2
 70
     0
  9
$DIMTAD
 70
     0
  9
$DIMZIN
 70
     0
  9
$DIMBLK
  1

  9
$DIMASO
 70
     1
  9
$DIMSHO
 70
     1
  9
$DIMPOST
  1

  9
$DIMAPOST
  1

  9
$DIMALT
 70
     0
  9
$DIMALTD
 70
     2
  9
$DIMALTF
 40
25.4
  9
$DIMLFAC
 40
1.0
  9
$DIMTOFL
 70
     0
  9
$DIMTVP
 40
0.0
  9
$DIMTIX
 70
     0
  9
$DIMSOXD
 70
     0
  9
$DIMSAH
 70
     0
  9
$DIMBLK1
  1

  9
$DIMBLK2
  1

  9
$DIMSTYLE
  2
STANDARD
  9
$DIMCLRD
 70
     0
  9
$DIMCLRE
 70
     0
  9
$DIMCLRT
 70
     0
  9
$DIMTFAC
 40
1.0
  9
$DIMGAP
 40
0.09
  9
$DIMJUST
 70
     0
  9
$DIMSD1
 70
     0
  9
$DIMSD2
 70
     0
  9
$DIMTOLJ
 70
     1
  9
$DIMTZIN
 70
     0
  9
$DIMALTZ
 70
     0
  9
$DIMALTTZ
 70
     0
  9
$DIMFIT
 70
     3
  9
$DIMUPT
 70
     0
  9
$DIMUNIT
 70
     2
  9
$DIMDEC
 70
     4
  9
$DIMTDEC
 70
     4
  9
$DIMALTU
 70
     2
  9
$DIMALTTD
 70
     2
  9
$DIMTXSTY
  7
STANDARD
  9
$DIMAUNIT
 70
     0
  9
$LUNITS
 70
     2
  9
$LUPREC
 70
     4
  9
$SKETCHINC
 40
0.1
  9
$FILLETRAD
 40
0.0
  9
$AUNITS
 70
     0
  9
$AUPREC
 70
     0
  9
$MENU
  1
acad
  9
$ELEVATION
 40
0.0
  9
$PELEVATION
 40
0.0
  9
$THICKNESS
 40
0.0
  9
$LIMCHECK
 70
     0
  9
$BLIPMODE
 70
     1
  9
$CHAMFERA
 40
0.0
  9
$CHAMFERB
 40
0.0
  9
$CHAMFERC
 40
0.0
  9
$CHAMFERD
 40
0.0
  9
$SKPOLY
 70
     0
  9
$TDCREATE
 40
2454836.317670764
  9
$TDUPDATE
 40
2454836.317670764
  9
$TDINDWG
 40
0.0000000000
  9
$TDUSRTIMER
 40
0.0000000000
  9
$USRTIMER
 70
     1
  9
$ANGBASE
 50
0.0
  9
$ANGDIR
 70
     0
  9
$PDMODE
 70
     0
  9
$PDSIZE
 40
0.0
  9
$PLINEWID
 40
0.0
  9
$COORDS
 70
     1
  9
$SPLFRAME
 70
     0
  9
$SPLINETYPE
 70
     6
  9
$SPLINESEGS
 70
     8
  9
$ATTDIA
 70
     0
  9
$ATTREQ
 70
     1
  9
$HANDLING
 70
     1
  9
$HANDSEED
  5
4BE
  9
$SURFTAB1
 70
     6
  9
$SURFTAB2
 70
     6
  9
$SURFTYPE
 70
     6
  9
$SURFU
 70
     6
  9
$SURFV
 70
     6
  9
$UCSNAME
  2

  9
$UCSORG
 10
0.0
 20
0.0
 30
0.0
  9
$UCSXDIR
 10
1.0
 20
0.0
 30
0.0
  9
$UCSYDIR
 10
0.0
 20
1.0
 30
0.0
  9
$PUCSNAME
  2

  9
$PUCSORG
 10
0.0
 20
0.0
 30
0.0
  9
$PUCSXDIR
 10
1.0
 20
0.0
 30
0.0
  9
$PUCSYDIR
 10
0.0
 20
1.0
 30
0.0
  9
$USERI1
 70
     0
  9
$USERI2
 70
     0
  9
$USERI3
 70
     0
  9
$USERI4
 70
     0
  9
$USERI5
 70
     0
  9
$USERR1
 40
0.0
  9
$USERR2
 40
0.0
  9
$USERR3
 40
0.0
  9
$USERR4
 40
0.0
  9
$USERR5
 40
0.0
  9
$WORLDVIEW
 70
     1
  9
$SHADEDGE
 70
     3
  9
$SHADEDIF
 70
    70
  9
$TILEMODE
 70
     1
  9
$MAXACTVP
 70
    16
  9
$PINSBASE
 10
0.0
 20
0.0
 30
0.0
  9
$PLIMCHECK
 70
     0
  9
$PEXTMIN
 10
1.000000E+20
 20
1.000000E+20
 30
1.000000E+20
  9
$PEXTMAX
 10
-1.000000E+20
 20
-1.000000E+20
 30
-1.000000E+20
  9
$PLIMMIN
 10
0.0
 20
0.0
  9
$PLIMMAX
 10
12.0
 20
9.0
  9
$UNITMODE
 70
     0
  9
$VISRETAIN
 70
     0
  9
$PLINEGEN
 70
     1
  9
$PSLTSCALE
 70
     0
  9
$TREEDEPTH
 70
  3020
  9
$PICKSTYLE
 70
     1
  9
$CMLSTYLE
  2
Standard
  9
$CMLJUST
 70
     0
  9
$CMLSCALE
 40
1.0
  9
$PROXYGRAPHICS
 70
     0
  9
$MEASUREMENT
 70
     0
  0
ENDSEC
  0
SECTION
  2
CLASSES
  0
CLASS
  1
LWPOLYLINE
  2
AcDbPolyline
  3
"AutoCAD"
 90
        0
280
     0
281
     1
  0
CLASS
  1
IMAGE
  2
AcDbRasterImage
  3
ISM
 90
      127
280
     0
281
     1
  0
CLASS
  1
OLE2FRAME
  2
AcDbOle2Frame
  3
""
 90
        0
280
     0
281
     1
  0
CLASS
  1
HATCH
  2
AcDbHatch
  3
"ACAD_SEDONA"
 90
        0
280
     0
281
     1
  0
CLASS
  1
DICTIONARYVAR
  2
AcDbDictionaryVar
  3
"AutoCAD"
 90
        0
280
     0
281
     0
  0
CLASS
  1
RASTERVARIABLES
  2
AcDbRasterVariables
  3
ISM
 90
        0
280
     0
281
     0
  0
CLASS
  1
IMAGEDEF
  2
AcDbRasterImageDef
  3
ISM
 90
        0
280
     0
281
     0
  0
CLASS
  1
IMAGEDEF_REACTOR
  2
AcDbRasterImageDefReactor
  3
ISM
 90
        1
280
     0
281
     0
  0
CLASS
  1
IDBUFFER
  2
AcDbIdBuffer
  3
"Acad"
 90
        0
280
     0
281
     0
  0
CLASS
  1
SPATIAL_FILTER
  2
AcDbSpatialFilter
  3
"Acad"
 90
        0
280
     0
281
     0
  0
CLASS
  1
XRECORD
  2
AcDbXrecord
  3
"<Built In>"
 90
        0
280
     0
281
     0
  0
CLASS
  1
SORTENTSTABLE
  2
AcDbSortentsTable
  3
"AutoCAD"
 90
        0
280
     0
281
     0
  0
CLASS
  1
LAYER_INDEX
  2
AcDbLayerIndex
  3
"Acad"
 90
        0
280
     0
281
     0
  0
CLASS
  1
SPATIAL_INDEX
  2
AcDbSpatialIndex
  3
"Acad"
 90
        0
280
     0
281
     0
  0
CLASS
  1
OBJECT_PTR
  2
CAseDLPNTableRecord
  3
"ASE-LPNTableRecord"
 90
        1
280
     0
281
     0
  0
CLASS
  1
LAYOUT
  2
AcDbLayout
  3
"AutoCAD 2000"
 90
        1
280
     0
281
     0
  0
CLASS
  1
PLOTSETTINGS
  2
AcDbPlotSettings
  3
"AutoCAD 2000"
 90
        1
280
     0
281
     0
  0
CLASS
  1
ACDBDICTIONARYWDFLT
  2
AcDbDictionaryWithDefault
  3
"AutoCAD 2000"
 90
        1
280
     0
281
     0
  0
CLASS
  1
ACDBPLACEHOLDER
  2
AcDbPlaceHolder
  3
"AutoCAD 2000"
 90
        1
280
     0
281
     0
  0
CLASS
  1
VBA_PROJECT
  2
AcDbVbaProject
  3
"acadvba"
 90
        1
280
     0
281
     0
  0
CLASS
  1
WIPEOUT
  2
AcDbWipeout
  3
WipeOut|AutoCAD Express Tool|expresstools@autodesk.com
 90
      127
280
     0
281
     1
  0
CLASS
  1
WIPEOUTVARIABLES
  2
AcDbWipeoutVariables
  3
WipeOut|AutoCAD Express Tool|expresstools@autodesk.com
 90
        0
280
     0
281
     0
  0
CLASS
  1
RTEXT
  2
RText
  3
RText|AutoCAD Express Tool|expresstools@autodesk.com
 90
        0
280
     0
281
     1
  0
CLASS
  1
ARCALIGNEDTEXT
  2
AcDbArcAlignedText
  3
ATEXT|AutoCAD Express Tool|expresstools@autodesk.com
 90
        0
280
     0
281
     1
  0
ENDSEC
  0
SECTION
  2
TABLES
  0
TABLE
  2
VPORT
  5
7
100
AcDbSymbolTable
 70
     1
  0
VPORT
  5
15
100
AcDbSymbolTableRecord
100
AcDbViewportTableRecord
  2
*ACTIVE
 70
     0
 10
0.0
 20
0.0
 11
1.0
 21
1.0
 12
158.172572
 22
1036.75
 13
0.0
 23
0.0
 14
1.0
 24
1.0
 15
0.0
 25
0.0
 16
0.0
 26
0.0
 36
1.0
 17
0.0
 27
0.0
 37
0.0
 40
1963.5
 41
1.722533
 42
50.0
 43
0.0
 44
0.0
 50
0.0
 51
0.0
 71
     0
 72
   100
 73
     1
 74
     1
 75
     0
 76
     0
 77
     0
 78
     0
  0
ENDTAB
  0
TABLE
  2
LTYPE
  5
4
100
AcDbSymbolTable
 70
     9
  0
LTYPE
  5
11
100
AcDbSymbolTableRecord
100
AcDbLinetypeTableRecord
  2
BYBLOCK
 70
    64
  3

 72
    65
 73
     0
 40
0.0
  0
LTYPE
  5
12
100
AcDbSymbolTableRecord
100
AcDbLinetypeTableRecord
  2
BYLAYER
 70
    64
  3

 72
    65
 73
     0
 40
0.0
  0
LTYPE
  5
13
100
AcDbSymbolTableRecord
100
AcDbLinetypeTableRecord
  2
CONTINUOUS
 70
    64
  3
実線
 72
    65
 73
     0
 40
0.0
  0
LTYPE
  5
1D
100
AcDbSymbolTableRecord
100
AcDbLinetypeTableRecord
  2
EXLTYPE1
 70
    64
  3
破線
 72
    65
 73
     2
 40
3.0
 49
2.0
 74
     0
 49
-1.0
 74
     0
  0
LTYPE
  5
1E
100
AcDbSymbolTableRecord
100
AcDbLinetypeTableRecord
  2
EXLTYPE2
 70
    64
  3
点線
 72
    65
 73
     2
 40
2.0
 49
1.0
 74
     0
 49
-1.0
 74
     0
  0
LTYPE
  5
1F
100
AcDbSymbolTableRecord
100
AcDbLinetypeTableRecord
  2
EXLTYPE3
 70
    64
  3
一点鎖線
 72
    65
 73
     4
 40
10.0
 49
7.0
 74
     0
 49
-1.0
 74
     0
 49
1.0
 74
     0
 49
-1.0
 74
     0
  0
LTYPE
  5
20
100
AcDbSymbolTableRecord
100
AcDbLinetypeTableRecord
  2
EXLTYPE4
 70
    64
  3
二点鎖線
 72
    65
 73
     6
 40
12.0
 49
7.0
 74
     0
 49
-1.0
 74
     0
 49
1.0
 74
     0
 49
-1.0
 74
     0
 49
1.0
 74
     0
 49
-1.0
 74
     0
  0
LTYPE
  5
21
100
AcDbSymbolTableRecord
100
AcDbLinetypeTableRecord
  2
EXLTYPE5
 70
    64
  3
三点鎖線
 72
    65
 73
     8
 40
37.0
 49
30.0
 74
     0
 49
-1.0
 74
     0
 49
1.0
 74
     0
 49
-1.0
 74
     0
 49
1.0
 74
     0
 49
-1.0
 74
     0
 49
1.0
 74
     0
 49
-1.0
 74
     0
  0
LTYPE
  5
22
100
AcDbSymbolTableRecord
100
AcDbLinetypeTableRecord
  2
EXLTYPE6
 70
    64
  3
四点鎖線
 72
    65
 73
    10
 40
39.0
 49
30.0
 74
     0
 49
-1.0
 74
     0
 49
1.0
 74
     0
 49
-1.0
 74
     0
 49
1.0
 74
     0
 49
-1.0
 74
     0
 49
1.0
 74
     0
 49
-1.0
 74
     0
 49
1.0
 74
     0
 49
-1.0
 74
     0
  0
ENDTAB
  0
TABLE
  2
LAYER
  5
2
100
AcDbSymbolTable
 70
     4
  0
LAYER
  5
14
100
AcDbSymbolTableRecord
100
AcDbLayerTableRecord
  2
0
 70
     0
 62
     7
  6
CONTINUOUS
  0
LAYER
  5
25
100
AcDbSymbolTableRecord
100
AcDbLayerTableRecord
  2
図枠
 70
    64
 62
     7
  6
CONTINUOUS
  0
LAYER
  5
26
100
AcDbSymbolTableRecord
100
AcDbLayerTableRecord
  2
図
 70
    64
 62
     7
  6
CONTINUOUS
  0
LAYER
  5
27
100
AcDbSymbolTableRecord
100
AcDbLayerTableRecord
  2
寸法
 70
    64
 62
     7
  6
CONTINUOUS
  0
ENDTAB
  0
TABLE
  2
STYLE
  5
3
100
AcDbSymbolTable
 70
     6
  0
STYLE
  5
17
100
AcDbSymbolTableRecord
100
AcDbTextStyleTableRecord
  2
STANDARD
 70
     0
 40
0.0
 41
1.0
 50
0.0
 71
     0
 42
0.0
  3
monotxt
  4
extfont
  0
STYLE
  5
23
100
AcDbSymbolTableRecord
100
AcDbTextStyleTableRecord
  2
EXCADSTD
 70
    64
 40
0.0
 41
1.0
 50
0.0
 71
     0
 42
0.2
  3
monotxt
  4
extfont
  0
STYLE
  5
24
100
AcDbSymbolTableRecord
100
AcDbTextStyleTableRecord
  2
EXCADVERT
 70
    68
 40
0.0
 41
1.0
 50
0.0
 71
     0
 42
0.286885
  3
monotxt
  4
extfont
  0
STYLE
  5
F3
100
AcDbSymbolTableRecord
100
AcDbTextStyleTableRecord
  2
EXCADDIM1
 70
    64
 40
0.0
 41
0.95
 50
0.0
 71
     0
 42
0.2
  3
monotxt
  4
extfont
  0
STYLE
  5
105
100
AcDbSymbolTableRecord
100
AcDbTextStyleTableRecord
  2
EXCADTTF1
 70
    64
 40
0.0
 41
1.0
 50
0.0
 71
     0
 42
0.2
  3
MS Gothic.ttf
  4

1001
ACAD
1000
MS Gothic
1071
    32817
  0
STYLE
  5
116
100
AcDbSymbolTableRecord
100
AcDbTextStyleTableRecord
  2
EXCADDIM2
 70
    64
 40
0.0
 41
0.84
 50
0.0
 71
     0
 42
0.2
  3
monotxt
  4
extfont
  0
ENDTAB
  0
TABLE
  2
VIEW
  5
5
100
AcDbSymbolTable
 70
     0
  0
ENDTAB
  0
TABLE
  2
UCS
  5
6
100
AcDbSymbolTable
 70
     0
  0
ENDTAB
  0
TABLE
  2
APPID
  5
8
100
AcDbSymbolTable
 70
     1
  0
APPID
  5
16
100
AcDbSymbolTableRecord
100
AcDbRegAppTableRecord
  2
ACAD
 70
     0
  0
ENDTAB
  0
TABLE
  2
DIMSTYLE
  5
9
100
AcDbSymbolTable
 70
     1
  0
DIMSTYLE
105
18
100
AcDbSymbolTableRecord
100
AcDbDimStyleTableRecord
  2
STANDARD
 70
     0
  3

  4

  5

  6

  7

 40
1.0
 41
0.18
 42
0.0625
 43
0.38
 44
0.18
 45
0.0
 46
0.0
 47
0.0
 48
0.0
 71
     0
 72
     0
 73
     1
 74
     1
 75
     0
 76
     0
 77
     0
 78
     0
140
0.18
141
0.09
142
0.0
143
25.4
144
1.0
145
0.0
146
1.0
147
0.09
170
     0
171
     2
172
     1
173
     0
174
     0
175
     0
176
     0
177
     0
178
     0
270
     2
271
     4
272
     4
273
     2
274
     2
275
     0
280
     0
281
     0
282
     0
283
     1
284
     0
285
     0
286
     0
287
     0
288
     0
340
17
  0
ENDTAB
  0
TABLE
  2
BLOCK_RECORD
  5
1
100
AcDbSymbolTable
 70
    44
  0
BLOCK_RECORD
  5
A
100
AcDbSymbolTableRecord
100
AcDbBlockTableRecord
  2
*MODEL_SPACE
  0
BLOCK_RECORD
  5
B
100
AcDbSymbolTableRecord
100
AcDbBlockTableRecord
  2
*PAPER_SPACE
  0
BLOCK_RECORD
  5
28
100
AcDbSymbolTableRecord
100
AcDbBlockTableRecord
  2
_EX_NORM
  0
BLOCK_RECORD
  5
29
100
AcDbSymbolTableRecord
100
AcDbBlockTableRecord
  2
_EX_BNORM
  0
BLOCK_RECORD
  5
2A
100
AcDbSymbolTableRecord
100
AcDbBlockTableRecord
  2
_EX_BCIR
  0
BLOCK_RECORD
  5
2B
100
AcDbSymbolTableRecord
100
AcDbBlockTableRecord
  2
_EX_RCIVIL
  0
BLOCK_RECORD
  5
2C
100
AcDbSymbolTableRecord
100
AcDbBlockTableRecord
  2
_EX_SLANT
  0
BLOCK_RECORD
  5
2D
100
AcDbSymbolTableRecord
100
AcDbBlockTableRecord
  2
_EX_NONE
  0
BLOCK_RECORD
  5
2E
100
AcDbSymbolTableRecord
100
AcDbBlockTableRecord
  2
_EX_CIVIL
  0
BLOCK_RECORD
  5
2F
100
AcDbSymbolTableRecord
100
AcDbBlockTableRecord
  2
_EX_WCIR
  0
BLOCK_RECORD
  5
30
100
AcDbSymbolTableRecord
100
AcDbBlockTableRecord
  2
_EX_WCIR2
  0
BLOCK_RECORD
  5
31
100
AcDbSymbolTableRecord
100
AcDbBlockTableRecord
  2
_EX_WNORM
  0
BLOCK_RECORD
  5
32
100
AcDbSymbolTableRecord
100
AcDbBlockTableRecord
  2
_EX_NNORM
  0
BLOCK_RECORD
  5
33
100
AcDbSymbolTableRecord
100
AcDbBlockTableRecord
  2
_EX_BBOX
  0
BLOCK_RECORD
  5
34
100
AcDbSymbolTableRecord
100
AcDbBlockTableRecord
  2
_EX_WBOX
  0
BLOCK_RECORD
  5
35
100
AcDbSymbolTableRecord
100
AcDbBlockTableRecord
  2
_EX_INTEGRAL
  0
BLOCK_RECORD
  5
EA
100
AcDbSymbolTableRecord
100
AcDbBlockTableRecord
  2
*D14
  0
BLOCK_RECORD
  5
10F
100
AcDbSymbolTableRecord
100
AcDbBlockTableRecord
  2
*D15
  0
BLOCK_RECORD
  5
118
100
AcDbSymbolTableRecord
100
AcDbBlockTableRecord
  2
*D16
  0
BLOCK_RECORD
  5
120
100
AcDbSymbolTableRecord
100
AcDbBlockTableRecord
  2
*D17
  0
BLOCK_RECORD
  5
128
100
AcDbSymbolTableRecord
100
AcDbBlockTableRecord
  2
*D18
  0
BLOCK_RECORD
  5
134
100
AcDbSymbolTableRecord
100
AcDbBlockTableRecord
  2
*D19
  0
BLOCK_RECORD
  5
140
100
AcDbSymbolTableRecord
100
AcDbBlockTableRecord
  2
*D20
  0
BLOCK_RECORD
  5
32E
100
AcDbSymbolTableRecord
100
AcDbBlockTableRecord
  2
*D21
  0
BLOCK_RECORD
  5
33A
100
AcDbSymbolTableRecord
100
AcDbBlockTableRecord
  2
*D22
  0
BLOCK_RECORD
  5
3C6
100
AcDbSymbolTableRecord
100
AcDbBlockTableRecord
  2
*D23
  0
BLOCK_RECORD
  5
3D2
100
AcDbSymbolTableRecord
100
AcDbBlockTableRecord
  2
*D24
  0
BLOCK_RECORD
  5
3DE
100
AcDbSymbolTableRecord
100
AcDbBlockTableRecord
  2
*D25
  0
BLOCK_RECORD
  5
3EA
100
AcDbSymbolTableRecord
100
AcDbBlockTableRecord
  2
*D26
  0
BLOCK_RECORD
  5
3F6
100
AcDbSymbolTableRecord
100
AcDbBlockTableRecord
  2
*D27
  0
BLOCK_RECORD
  5
402
100
AcDbSymbolTableRecord
100
AcDbBlockTableRecord
  2
*D28
  0
BLOCK_RECORD
  5
40E
100
AcDbSymbolTableRecord
100
AcDbBlockTableRecord
  2
*D29
  0
BLOCK_RECORD
  5
418
100
AcDbSymbolTableRecord
100
AcDbBlockTableRecord
  2
*D30
  0
BLOCK_RECORD
  5
423
100
AcDbSymbolTableRecord
100
AcDbBlockTableRecord
  2
*D31
  0
BLOCK_RECORD
  5
42E
100
AcDbSymbolTableRecord
100
AcDbBlockTableRecord
  2
*D32
  0
BLOCK_RECORD
  5
43A
100
AcDbSymbolTableRecord
100
AcDbBlockTableRecord
  2
*D33
  0
BLOCK_RECORD
  5
445
100
AcDbSymbolTableRecord
100
AcDbBlockTableRecord
  2
*D34
  0
BLOCK_RECORD
  5
451
100
AcDbSymbolTableRecord
100
AcDbBlockTableRecord
  2
*D35
  0
BLOCK_RECORD
  5
45D
100
AcDbSymbolTableRecord
100
AcDbBlockTableRecord
  2
*D36
  0
BLOCK_RECORD
  5
468
100
AcDbSymbolTableRecord
100
AcDbBlockTableRecord
  2
*D37
  0
BLOCK_RECORD
  5
474
100
AcDbSymbolTableRecord
100
AcDbBlockTableRecord
  2
*D38
  0
BLOCK_RECORD
  5
480
100
AcDbSymbolTableRecord
100
AcDbBlockTableRecord
  2
*D39
  0
BLOCK_RECORD
  5
48C
100
AcDbSymbolTableRecord
100
AcDbBlockTableRecord
  2
*D40
  0
BLOCK_RECORD
  5
49B
100
AcDbSymbolTableRecord
100
AcDbBlockTableRecord
  2
*D41
  0
BLOCK_RECORD
  5
4A6
100
AcDbSymbolTableRecord
100
AcDbBlockTableRecord
  2
*D42
  0
BLOCK_RECORD
  5
4B2
100
AcDbSymbolTableRecord
100
AcDbBlockTableRecord
  2
*D43
  0
ENDTAB
  0
ENDSEC
  0
SECTION
  2
BLOCKS
  0
BLOCK
  5
D
100
AcDbEntity
  8
0
100
AcDbBlockBegin
  2
*MODEL_SPACE
 70
     0
 10
0.0
 20
0.0
 30
0.0
  3
*MODEL_SPACE
  1

  0
ENDBLK
  5
E
100
AcDbEntity
  8
0
100
AcDbBlockEnd
  0
BLOCK
  5
F
100
AcDbEntity
 67
     1
  8
0
100
AcDbBlockBegin
  2
*PAPER_SPACE
 70
     0
 10
0.0
 20
0.0
 30
0.0
  3
*PAPER_SPACE
  1

  0
ENDBLK
  5
10
100
AcDbEntity
 67
     1
  8
0
100
AcDbBlockEnd
  0
BLOCK
  5
36
100
AcDbEntity
  8
0
100
AcDbBlockBegin
  2
_EX_NORM
 70
     0
 10
0.0
 20
0.0
 30
0.0
  3
_EX_NORM
  1

  0
LINE
  5
37
100
AcDbEntity
  8
0
  6
CONTINUOUS
 62
     0
100
AcDbLine
 10
0.0
 20
0.0
 30
0.0
 11
-1.0
 21
0.0
 31
0.0
  0
LINE
  5
38
100
AcDbEntity
  8
0
  6
CONTINUOUS
 62
     0
100
AcDbLine
 10
0.0
 20
0.0
 30
0.0
 11
-1.0
 21
0.166667
 31
0.0
  0
LINE
  5
39
100
AcDbEntity
  8
0
  6
CONTINUOUS
 62
     0
100
AcDbLine
 10
0.0
 20
0.0
 30
0.0
 11
-1.0
 21
-0.166667
 31
0.0
  0
ENDBLK
  5
3A
100
AcDbEntity
  8
0
100
AcDbBlockEnd
  0
BLOCK
  5
3B
100
AcDbEntity
  8
0
100
AcDbBlockBegin
  2
_EX_BNORM
 70
     0
 10
0.0
 20
0.0
 30
0.0
  3
_EX_BNORM
  1

  0
LINE
  5
3C
100
AcDbEntity
  8
0
  6
CONTINUOUS
 62
     0
100
AcDbLine
 10
0.0
 20
0.0
 30
0.0
 11
-1.0
 21
0.0
 31
0.0
  0
LINE
  5
3D
100
AcDbEntity
  8
0
  6
CONTINUOUS
 62
     0
100
AcDbLine
 10
0.0
 20
0.0
 30
0.0
 11
-1.0
 21
0.166667
 31
0.0
  0
LINE
  5
3E
100
AcDbEntity
  8
0
  6
CONTINUOUS
 62
     0
100
AcDbLine
 10
0.0
 20
0.0
 30
0.0
 11
-1.0
 21
-0.166667
 31
0.0
  0
LINE
  5
3F
100
AcDbEntity
  8
0
  6
CONTINUOUS
 62
     0
100
AcDbLine
 10
0.0
 20
0.0
 30
0.0
 11
-1.0
 21
0.083333
 31
0.0
  0
LINE
  5
40
100
AcDbEntity
  8
0
  6
CONTINUOUS
 62
     0
100
AcDbLine
 10
0.0
 20
0.0
 30
0.0
 11
-1.0
 21
-0.083333
 31
0.0
  0
LINE
  5
41
100
AcDbEntity
  8
0
  6
CONTINUOUS
 62
     0
100
AcDbLine
 10
-1.0
 20
0.166667
 30
0.0
 11
-1.0
 21
-0.166667
 31
0.0
  0
ENDBLK
  5
42
100
AcDbEntity
  8
0
100
AcDbBlockEnd
  0
BLOCK
  5
43
100
AcDbEntity
  8
0
100
AcDbBlockBegin
  2
_EX_BCIR
 70
     0
 10
0.0
 20
0.0
 30
0.0
  3
_EX_BCIR
  1

  0
LINE
  5
44
100
AcDbEntity
  8
0
  6
CONTINUOUS
 62
     0
100
AcDbLine
 10
0.0
 20
0.0
 30
0.0
 11
-1.0
 21
0.0
 31
0.0
  0
CIRCLE
  5
45
100
AcDbEntity
  8
0
  6
CONTINUOUS
 62
     0
100
AcDbCircle
 10
0.0
 20
0.0
 30
0.0
 40
0.5
  0
CIRCLE
  5
46
100
AcDbEntity
  8
0
  6
CONTINUOUS
 62
     0
100
AcDbCircle
 10
0.0
 20
0.0
 30
0.0
 40
0.25
  0
ENDBLK
  5
47
100
AcDbEntity
  8
0
100
AcDbBlockEnd
  0
BLOCK
  5
48
100
AcDbEntity
  8
0
100
AcDbBlockBegin
  2
_EX_RCIVIL
 70
     0
 10
0.0
 20
0.0
 30
0.0
  3
_EX_RCIVIL
  1

  0
LINE
  5
49
100
AcDbEntity
  8
0
  6
CONTINUOUS
 62
     0
100
AcDbLine
 10
0.0
 20
0.0
 30
0.0
 11
-1.0
 21
0.0
 31
0.0
  0
LINE
  5
4A
100
AcDbEntity
  8
0
  6
CONTINUOUS
 62
     0
100
AcDbLine
 10
-1.0
 20
-0.25
 30
0.0
 11
0.0
 21
-0.25
 31
0.0
  0
LINE
  5
4B
100
AcDbEntity
  8
0
  6
CONTINUOUS
 62
     0
100
AcDbLine
 10
-1.0
 20
-0.125
 30
0.0
 11
0.0
 21
-0.125
 31
0.0
  0
ENDBLK
  5
4C
100
AcDbEntity
  8
0
100
AcDbBlockEnd
  0
BLOCK
  5
4D
100
AcDbEntity
  8
0
100
AcDbBlockBegin
  2
_EX_SLANT
 70
     0
 10
0.0
 20
0.0
 30
0.0
  3
_EX_SLANT
  1

  0
LINE
  5
4E
100
AcDbEntity
  8
0
  6
CONTINUOUS
 62
     0
100
AcDbLine
 10
0.0
 20
0.0
 30
0.0
 11
-1.0
 21
0.0
 31
0.0
  0
LINE
  5
4F
100
AcDbEntity
  8
0
  6
CONTINUOUS
 62
     0
100
AcDbLine
 10
0.707107
 20
0.707107
 30
0.0
 11
-0.707107
 21
-0.707107
 31
0.0
  0
ENDBLK
  5
50
100
AcDbEntity
  8
0
100
AcDbBlockEnd
  0
BLOCK
  5
51
100
AcDbEntity
  8
0
100
AcDbBlockBegin
  2
_EX_NONE
 70
     0
 10
0.0
 20
0.0
 30
0.0
  3
_EX_NONE
  1

  0
LINE
  5
52
100
AcDbEntity
  8
0
  6
CONTINUOUS
 62
     0
100
AcDbLine
 10
0.0
 20
0.0
 30
0.0
 11
-1.0
 21
0.0
 31
0.0
  0
ENDBLK
  5
53
100
AcDbEntity
  8
0
100
AcDbBlockEnd
  0
BLOCK
  5
54
100
AcDbEntity
  8
0
100
AcDbBlockBegin
  2
_EX_CIVIL
 70
     0
 10
0.0
 20
0.0
 30
0.0
  3
_EX_CIVIL
  1

  0
LINE
  5
55
100
AcDbEntity
  8
0
  6
CONTINUOUS
 62
     0
100
AcDbLine
 10
0.0
 20
0.0
 30
0.0
 11
-1.0
 21
0.0
 31
0.0
  0
LINE
  5
56
100
AcDbEntity
  8
0
  6
CONTINUOUS
 62
     0
100
AcDbLine
 10
-1.0
 20
0.25
 30
0.0
 11
0.0
 21
0.25
 31
0.0
  0
LINE
  5
57
100
AcDbEntity
  8
0
  6
CONTINUOUS
 62
     0
100
AcDbLine
 10
-1.0
 20
0.125
 30
0.0
 11
0.0
 21
0.125
 31
0.0
  0
ENDBLK
  5
58
100
AcDbEntity
  8
0
100
AcDbBlockEnd
  0
BLOCK
  5
59
100
AcDbEntity
  8
0
100
AcDbBlockBegin
  2
_EX_WCIR
 70
     0
 10
0.0
 20
0.0
 30
0.0
  3
_EX_WCIR
  1

  0
LINE
  5
5A
100
AcDbEntity
  8
0
  6
CONTINUOUS
 62
     0
100
AcDbLine
 10
0.0
 20
0.0
 30
0.0
 11
-1.0
 21
0.0
 31
0.0
  0
CIRCLE
  5
5B
100
AcDbEntity
  8
0
  6
CONTINUOUS
 62
     0
100
AcDbCircle
 10
0.0
 20
0.0
 30
0.0
 40
0.5
  0
ENDBLK
  5
5C
100
AcDbEntity
  8
0
100
AcDbBlockEnd
  0
BLOCK
  5
5D
100
AcDbEntity
  8
0
100
AcDbBlockBegin
  2
_EX_WCIR2
 70
     0
 10
0.0
 20
0.0
 30
0.0
  3
_EX_WCIR2
  1

  0
LINE
  5
5E
100
AcDbEntity
  8
0
  6
CONTINUOUS
 62
     0
100
AcDbLine
 10
-0.5
 20
0.0
 30
0.0
 11
-1.0
 21
0.0
 31
0.0
  0
CIRCLE
  5
5F
100
AcDbEntity
  8
0
  6
CONTINUOUS
 62
     0
100
AcDbCircle
 10
0.0
 20
0.0
 30
0.0
 40
0.5
  0
ENDBLK
  5
60
100
AcDbEntity
  8
0
100
AcDbBlockEnd
  0
BLOCK
  5
61
100
AcDbEntity
  8
0
100
AcDbBlockBegin
  2
_EX_WNORM
 70
     0
 10
0.0
 20
0.0
 30
0.0
  3
_EX_WNORM
  1

  0
LINE
  5
62
100
AcDbEntity
  8
0
  6
CONTINUOUS
 62
     0
100
AcDbLine
 10
-1.0
 20
0.0
 30
0.0
 11
-1.0
 21
0.0
 31
0.0
  0
LINE
  5
63
100
AcDbEntity
  8
0
  6
CONTINUOUS
 62
     0
100
AcDbLine
 10
0.0
 20
0.0
 30
0.0
 11
-1.0
 21
0.166667
 31
0.0
  0
LINE
  5
64
100
AcDbEntity
  8
0
  6
CONTINUOUS
 62
     0
100
AcDbLine
 10
0.0
 20
0.0
 30
0.0
 11
-1.0
 21
-0.166667
 31
0.0
  0
LINE
  5
65
100
AcDbEntity
  8
0
  6
CONTINUOUS
 62
     0
100
AcDbLine
 10
-1.0
 20
0.166667
 30
0.0
 11
-1.0
 21
-0.166667
 31
0.0
  0
ENDBLK
  5
66
100
AcDbEntity
  8
0
100
AcDbBlockEnd
  0
BLOCK
  5
67
100
AcDbEntity
  8
0
100
AcDbBlockBegin
  2
_EX_NNORM
 70
     0
 10
0.0
 20
0.0
 30
0.0
  3
_EX_NNORM
  1

  0
LINE
  5
68
100
AcDbEntity
  8
0
  6
CONTINUOUS
 62
     0
100
AcDbLine
 10
0.0
 20
0.0
 30
0.0
 11
-1.0
 21
0.0
 31
0.0
  0
LINE
  5
69
100
AcDbEntity
  8
0
  6
CONTINUOUS
 62
     0
100
AcDbLine
 10
0.0
 20
0.0
 30
0.0
 11
-1.0
 21
0.166667
 31
0.0
  0
LINE
  5
6A
100
AcDbEntity
  8
0
  6
CONTINUOUS
 62
     0
100
AcDbLine
 10
0.0
 20
0.0
 30
0.0
 11
-1.0
 21
-0.166667
 31
0.0
  0
LINE
  5
6B
100
AcDbEntity
  8
0
  6
CONTINUOUS
 62
     0
100
AcDbLine
 10
-1.0
 20
0.166667
 30
0.0
 11
-1.0
 21
-0.166667
 31
0.0
  0
ENDBLK
  5
6C
100
AcDbEntity
  8
0
100
AcDbBlockEnd
  0
BLOCK
  5
6D
100
AcDbEntity
  8
0
100
AcDbBlockBegin
  2
_EX_BBOX
 70
     0
 10
0.0
 20
0.0
 30
0.0
  3
_EX_BBOX
  1

  0
LINE
  5
6E
100
AcDbEntity
  8
0
  6
CONTINUOUS
 62
     0
100
AcDbLine
 10
0.0
 20
0.0
 30
0.0
 11
-1.0
 21
0.0
 31
0.0
  0
LINE
  5
6F
100
AcDbEntity
  8
0
  6
CONTINUOUS
 62
     0
100
AcDbLine
 10
-0.5
 20
0.5
 30
0.0
 11
0.5
 21
0.5
 31
0.0
  0
LINE
  5
70
100
AcDbEntity
  8
0
  6
CONTINUOUS
 62
     0
100
AcDbLine
 10
0.5
 20
0.5
 30
0.0
 11
0.5
 21
-0.5
 31
0.0
  0
LINE
  5
71
100
AcDbEntity
  8
0
  6
CONTINUOUS
 62
     0
100
AcDbLine
 10
0.5
 20
-0.5
 30
0.0
 11
-0.5
 21
-0.5
 31
0.0
  0
LINE
  5
72
100
AcDbEntity
  8
0
  6
CONTINUOUS
 62
     0
100
AcDbLine
 10
-0.5
 20
-0.5
 30
0.0
 11
-0.5
 21
0.5
 31
0.0
  0
LINE
  5
73
100
AcDbEntity
  8
0
  6
CONTINUOUS
 62
     0
100
AcDbLine
 10
-0.25
 20
0.25
 30
0.0
 11
0.25
 21
0.25
 31
0.0
  0
LINE
  5
74
100
AcDbEntity
  8
0
  6
CONTINUOUS
 62
     0
100
AcDbLine
 10
0.25
 20
0.25
 30
0.0
 11
0.25
 21
-0.25
 31
0.0
  0
LINE
  5
75
100
AcDbEntity
  8
0
  6
CONTINUOUS
 62
     0
100
AcDbLine
 10
0.25
 20
-0.25
 30
0.0
 11
-0.25
 21
-0.25
 31
0.0
  0
LINE
  5
76
100
AcDbEntity
  8
0
  6
CONTINUOUS
 62
     0
100
AcDbLine
 10
-0.25
 20
-0.25
 30
0.0
 11
-0.25
 21
0.25
 31
0.0
  0
ENDBLK
  5
77
100
AcDbEntity
  8
0
100
AcDbBlockEnd
  0
BLOCK
  5
78
100
AcDbEntity
  8
0
100
AcDbBlockBegin
  2
_EX_WBOX
 70
     0
 10
0.0
 20
0.0
 30
0.0
  3
_EX_WBOX
  1

  0
LINE
  5
79
100
AcDbEntity
  8
0
  6
CONTINUOUS
 62
     0
100
AcDbLine
 10
-0.5
 20
0.0
 30
0.0
 11
-1.0
 21
0.0
 31
0.0
  0
LINE
  5
7A
100
AcDbEntity
  8
0
  6
CONTINUOUS
 62
     0
100
AcDbLine
 10
-0.5
 20
0.5
 30
0.0
 11
0.5
 21
0.5
 31
0.0
  0
LINE
  5
7B
100
AcDbEntity
  8
0
  6
CONTINUOUS
 62
     0
100
AcDbLine
 10
0.5
 20
0.5
 30
0.0
 11
0.5
 21
-0.5
 31
0.0
  0
LINE
  5
7C
100
AcDbEntity
  8
0
  6
CONTINUOUS
 62
     0
100
AcDbLine
 10
0.5
 20
-0.5
 30
0.0
 11
-0.5
 21
-0.5
 31
0.0
  0
LINE
  5
7D
100
AcDbEntity
  8
0
  6
CONTINUOUS
 62
     0
100
AcDbLine
 10
-0.5
 20
-0.5
 30
0.0
 11
-0.5
 21
0.5
 31
0.0
  0
ENDBLK
  5
7E
100
AcDbEntity
  8
0
100
AcDbBlockEnd
  0
BLOCK
  5
7F
100
AcDbEntity
  8
0
100
AcDbBlockBegin
  2
_EX_INTEGRAL
 70
     0
 10
0.0
 20
0.0
 30
0.0
  3
_EX_INTEGRAL
  1

  0
LINE
  5
80
100
AcDbEntity
  8
0
  6
CONTINUOUS
 62
     0
100
AcDbLine
 10
0.0
 20
0.0
 30
0.0
 11
-1.0
 21
0.0
 31
0.0
  0
ARC
  5
81
100
AcDbEntity
  8
0
  6
CONTINUOUS
 62
     0
100
AcDbCircle
 10
0.542115
 20
0.164992
 30
0.0
 40
0.56667
100
AcDbArc
 50
73.07249
 51
196.927513
  0
ARC
  5
82
100
AcDbEntity
  8
0
  6
CONTINUOUS
 62
     0
100
AcDbCircle
 10
-0.542115
 20
-0.164992
 30
0.0
 40
0.56667
100
AcDbArc
 50
253.072487
 51
16.927513
  0
ENDBLK
  5
83
100
AcDbEntity
  8
0
100
AcDbBlockEnd
  0
BLOCK
  5
EB
100
AcDbEntity
  8
0
100
AcDbBlockBegin
  2
*D14
 70
    65
 10
0.0
 20
0.0
 30
0.0
  3
*D14
  1

  0
TEXT
  5
EC
100
AcDbEntity
  8
図枠
  6
CONTINUOUS
 62
     2
100
AcDbText
 10
308.559273
 20
864.49632
 30
0.0
 40
20.0
  1
%%c450
 50
30.753887
 41
0.945
  7
EXCADSTD
 72
     1
 11
335.629483
 21
880.603889
 31
0.0
100
AcDbText
  0
LINE
  5
ED
100
AcDbEntity
  8
図枠
  6
CONTINUOUS
 62
     3
100
AcDbLine
 10
302.794006
 20
859.029446
 30
0.0
 11
781.249213
 21
1143.724334
 31
0.0
  0
LINE
  5
EE
100
AcDbEntity
  8
図枠
  6
CONTINUOUS
 62
     3
100
AcDbLine
 10
370.029166
 20
896.127237
 30
0.0
 11
381.641363
 21
905.945937
 31
0.0
  0
LINE
  5
EF
100
AcDbEntity
  8
図枠
  6
CONTINUOUS
 62
     3
100
AcDbLine
 10
381.641363
 20
905.945937
 30
0.0
 11
367.472409
 21
900.424095
 31
0.0
  0
LINE
  5
F0
100
AcDbEntity
  8
図枠
  6
CONTINUOUS
 62
     3
100
AcDbLine
 10
779.970834
 20
1145.872763
 30
0.0
 11
768.358637
 21
1136.054063
 31
0.0
  0
LINE
  5
F1
100
AcDbEntity
  8
図枠
  6
CONTINUOUS
 62
     3
100
AcDbLine
 10
768.358637
 20
1136.054063
 30
0.0
 11
782.527591
 21
1141.575905
 31
0.0
  0
ENDBLK
  5
F2
100
AcDbEntity
  8
0
100
AcDbBlockEnd
  0
BLOCK
  5
110
100
AcDbEntity
  8
0
100
AcDbBlockBegin
  2
*D15
 70
    65
 10
0.0
 20
0.0
 30
0.0
  3
*D15
  1

  0
TEXT
  5
111
100
AcDbEntity
  8
図
  6
CONTINUOUS
 62
     2
100
AcDbText
 10
1612.035328
 20
1756.130741
 30
0.0
 40
20.0
  1
R39.48
 50
47.564943
 41
0.84
  7
EXCADSTD
 72
     1
 11
1636.124049
 21
1782.478862
 31
0.0
100
AcDbText
  0
LINE
  5
112
100
AcDbEntity
  8
図
  6
CONTINUOUS
 62
     3
100
AcDbLine
 10
1667.273495
 20
1813.956432
 30
0.0
 11
1580.916878
 21
1719.5
 31
0.0
  0
LINE
  5
113
100
AcDbEntity
  8
図
  6
CONTINUOUS
 62
     3
100
AcDbLine
 10
1599.28155
 20
1735.882132
 30
0.0
 11
1607.557755
 21
1748.639657
 31
0.0
  0
LINE
  5
114
100
AcDbEntity
  8
図
  6
CONTINUOUS
 62
     3
100
AcDbLine
 10
1607.557755
 20
1748.639657
 30
0.0
 11
1595.591337
 21
1739.255903
 31
0.0
  0
ENDBLK
  5
115
100
AcDbEntity
  8
0
100
AcDbBlockEnd
  0
BLOCK
  5
119
100
AcDbEntity
  8
0
100
AcDbBlockBegin
  2
*D16
 70
    65
 10
0.0
 20
0.0
 30
0.0
  3
*D16
  1

  0
TEXT
  5
11A
100
AcDbEntity
  8
図
  6
CONTINUOUS
 62
     2
100
AcDbText
 10
1350.890779
 20
1754.35875
 30
0.0
 40
20.0
  1
R34.87
 50
51.025391
 41
0.84
  7
EXCADSTD
 72
     1
 11
1373.34522
 21
1782.112815
 31
0.0
100
AcDbText
  0
LINE
  5
11B
100
AcDbEntity
  8
図
  6
CONTINUOUS
 62
     3
100
AcDbLine
 10
1402.537901
 20
1815.413156
 30
0.0
 11
1324.93931
 21
1719.5
 31
0.0
  0
LINE
  5
11C
100
AcDbEntity
  8
図
  6
CONTINUOUS
 62
     3
100
AcDbLine
 10
1339.382451
 20
1733.377249
 30
0.0
 11
1346.873529
 21
1746.611061
 31
0.0
  0
LINE
  5
11D
100
AcDbEntity
  8
図
  6
CONTINUOUS
 62
     3
100
AcDbLine
 10
1346.873529
 20
1746.611061
 30
0.0
 11
1335.495328
 21
1736.522129
 31
0.0
  0
ENDBLK
  5
11E
100
AcDbEntity
  8
0
100
AcDbBlockEnd
  0
BLOCK
  5
121
100
AcDbEntity
  8
0
100
AcDbBlockBegin
  2
*D17
 70
    65
 10
0.0
 20
0.0
 30
0.0
  3
*D17
  1

  0
TEXT
  5
122
100
AcDbEntity
  8
図
  6
CONTINUOUS
 62
     2
100
AcDbText
 10
1943.486541
 20
1759.113118
 30
0.0
 40
20.0
  1
R40.13
 50
52.349965
 41
0.84
  7
EXCADSTD
 72
     1
 11
1965.293415
 21
1787.378825
 31
0.0
100
AcDbText
  0
LINE
  5
123
100
AcDbEntity
  8
図
  6
CONTINUOUS
 62
     3
100
AcDbLine
 10
1993.708521
 20
1821.34509
 30
0.0
 11
1915.135463
 21
1719.5
 31
0.0
  0
LINE
  5
124
100
AcDbEntity
  8
図
  6
CONTINUOUS
 62
     3
100
AcDbLine
 10
1932.466299
 20
1737.871195
 30
0.0
 11
1939.64946
 21
1751.274635
 31
0.0
  0
LINE
  5
125
100
AcDbEntity
  8
図
  6
CONTINUOUS
 62
     3
100
AcDbLine
 10
1939.64946
 20
1751.274635
 30
0.0
 11
1928.507516
 21
1740.92538
 31
0.0
  0
ENDBLK
  5
126
100
AcDbEntity
  8
0
100
AcDbBlockEnd
  0
BLOCK
  5
129
100
AcDbEntity
  8
0
100
AcDbBlockBegin
  2
*D18
 70
    65
 10
0.0
 20
0.0
 30
0.0
  3
*D18
  1

  0
LINE
  5
12A
100
AcDbEntity
  8
図
  6
CONTINUOUS
 62
     3
100
AcDbLine
 10
1327.104374
 20
1923.25
 30
0.0
 11
1376.309029
 21
1894.841679
 31
0.0
  0
LINE
  5
12B
100
AcDbEntity
  8
図
  6
CONTINUOUS
 62
     3
100
AcDbLine
 10
1340.983539
 20
1947.289419
 30
0.0
 11
1390.188194
 21
1918.881098
 31
0.0
  0
TEXT
  5
12C
100
AcDbEntity
  8
図
  6
CONTINUOUS
 62
     2
100
AcDbText
 10
1394.642523
 20
1940.096221
 30
0.0
 40
20.0
  1
27.76
 50
60.0
 41
0.84
  7
EXCADSTD
 72
     1
 11
1409.342523
 21
1965.557368
 31
0.0
100
AcDbText
  0
LINE
  5
12D
100
AcDbEntity
  8
図
  6
CONTINUOUS
 62
     3
100
AcDbLine
 10
1364.478902
 20
1884.351298
 30
0.0
 11
1429.233068
 21
1996.508804
 31
0.0
  0
LINE
  5
12E
100
AcDbEntity
  8
図
  6
CONTINUOUS
 62
     3
100
AcDbLine
 10
1366.643966
 20
1883.101298
 30
0.0
 11
1371.978902
 21
1897.341679
 31
0.0
  0
LINE
  5
12F
100
AcDbEntity
  8
図
  6
CONTINUOUS
 62
     3
100
AcDbLine
 10
1371.978902
 20
1897.341679
 30
0.0
 11
1362.313839
 21
1885.601298
 31
0.0
  0
LINE
  5
130
100
AcDbEntity
  8
図
  6
CONTINUOUS
 62
     3
100
AcDbLine
 10
1391.193004
 20
1935.621479
 30
0.0
 11
1385.858067
 21
1921.381098
 31
0.0
  0
LINE
  5
131
100
AcDbEntity
  8
図
  6
CONTINUOUS
 62
     3
100
AcDbLine
 10
1385.858067
 20
1921.381098
 30
0.0
 11
1395.523131
 21
1933.121479
 31
0.0
  0
ENDBLK
  5
132
100
AcDbEntity
  8
0
100
AcDbBlockEnd
  0
BLOCK
  5
135
100
AcDbEntity
  8
0
100
AcDbBlockBegin
  2
*D19
 70
    65
 10
0.0
 20
0.0
 30
0.0
  3
*D19
  1

  0
LINE
  5
136
100
AcDbEntity
  8
図
  6
CONTINUOUS
 62
     3
100
AcDbLine
 10
1583.081942
 20
1923.25
 30
0.0
 11
1645.435635
 21
1887.250078
 31
0.0
  0
LINE
  5
137
100
AcDbEntity
  8
図
  6
CONTINUOUS
 62
     3
100
AcDbLine
 10
1593.12506
 20
1940.645191
 30
0.0
 11
1655.478753
 21
1904.645269
 31
0.0
  0
TEXT
  5
138
100
AcDbEntity
  8
図
  6
CONTINUOUS
 62
     2
100
AcDbText
 10
1659.933082
 20
1925.860392
 30
0.0
 40
20.0
  1
20.09
 50
60.0
 41
0.84
  7
EXCADSTD
 72
     1
 11
1674.633082
 21
1951.321539
 31
0.0
100
AcDbText
  0
LINE
  5
139
100
AcDbEntity
  8
図
  6
CONTINUOUS
 62
     3
100
AcDbLine
 10
1633.605508
 20
1876.759697
 30
0.0
 11
1694.523627
 21
1982.272974
 31
0.0
  0
LINE
  5
13A
100
AcDbEntity
  8
図
  6
CONTINUOUS
 62
     3
100
AcDbLine
 10
1635.770572
 20
1875.509697
 30
0.0
 11
1641.105508
 21
1889.750078
 31
0.0
  0
LINE
  5
13B
100
AcDbEntity
  8
図
  6
CONTINUOUS
 62
     3
100
AcDbLine
 10
1641.105508
 20
1889.750078
 30
0.0
 11
1631.440445
 21
1878.009697
 31
0.0
  0
LINE
  5
13C
100
AcDbEntity
  8
図
  6
CONTINUOUS
 62
     3
100
AcDbLine
 10
1656.483563
 20
1921.38565
 30
0.0
 11
1651.148626
 21
1907.145269
 31
0.0
  0
LINE
  5
13D
100
AcDbEntity
  8
図
  6
CONTINUOUS
 62
     3
100
AcDbLine
 10
1651.148626
 20
1907.145269
 30
0.0
 11
1660.81369
 21
1918.88565
 31
0.0
  0
ENDBLK
  5
13E
100
AcDbEntity
  8
0
100
AcDbBlockEnd
  0
BLOCK
  5
141
100
AcDbEntity
  8
0
100
AcDbBlockBegin
  2
*D20
 70
    65
 10
0.0
 20
0.0
 30
0.0
  3
*D20
  1

  0
LINE
  5
142
100
AcDbEntity
  8
図
  6
CONTINUOUS
 62
     3
100
AcDbLine
 10
1917.300526
 20
1923.25
 30
0.0
 11
1972.477142
 21
1891.393766
 31
0.0
  0
LINE
  5
143
100
AcDbEntity
  8
図
  6
CONTINUOUS
 62
     3
100
AcDbLine
 10
1931.751116
 20
1948.279156
 30
0.0
 11
1986.927732
 21
1916.422922
 31
0.0
  0
TEXT
  5
144
100
AcDbEntity
  8
図
  6
CONTINUOUS
 62
     2
100
AcDbText
 10
1990.78206
 20
1936.598815
 30
0.0
 40
20.0
  1
28.9
 50
60.0
 41
0.84
  7
EXCADSTD
 72
     1
 11
2002.33206
 21
1956.604002
 31
0.0
100
AcDbText
  0
LINE
  5
145
100
AcDbEntity
  8
図
  6
CONTINUOUS
 62
     3
100
AcDbLine
 10
1960.647015
 20
1880.903385
 30
0.0
 11
2018.472605
 21
1981.060246
 31
0.0
  0
LINE
  5
146
100
AcDbEntity
  8
図
  6
CONTINUOUS
 62
     3
100
AcDbLine
 10
1962.812078
 20
1879.653385
 30
0.0
 11
1968.147015
 21
1893.893766
 31
0.0
  0
LINE
  5
147
100
AcDbEntity
  8
図
  6
CONTINUOUS
 62
     3
100
AcDbLine
 10
1968.147015
 20
1893.893766
 30
0.0
 11
1958.481951
 21
1882.153385
 31
0.0
  0
LINE
  5
148
100
AcDbEntity
  8
図
  6
CONTINUOUS
 62
     3
100
AcDbLine
 10
1987.932541
 20
1933.163303
 30
0.0
 11
1982.597605
 21
1918.922922
 31
0.0
  0
LINE
  5
149
100
AcDbEntity
  8
図
  6
CONTINUOUS
 62
     3
100
AcDbLine
 10
1982.597605
 20
1918.922922
 30
0.0
 11
1992.262668
 21
1930.663303
 31
0.0
  0
ENDBLK
  5
14A
100
AcDbEntity
  8
0
100
AcDbBlockEnd
  0
BLOCK
  5
32F
100
AcDbEntity
  8
0
100
AcDbBlockBegin
  2
*D21
 70
    65
 10
0.0
 20
0.0
 30
0.0
  3
*D21
  1

  0
TEXT
  5
330
100
AcDbEntity
  8
図
  6
CONTINUOUS
 62
     2
100
AcDbText
 10
1133.2
 20
1153.75
 30
0.0
 40
20.0
  1
45
 41
0.945
  7
EXCADSTD
 72
     1
 11
1150.0
 21
1153.75
 31
0.0
100
AcDbText
  0
LINE
  5
331
100
AcDbEntity
  8
図
  6
CONTINUOUS
 62
     3
100
AcDbLine
 10
1127.5
 20
1054.0
 30
0.0
 11
1127.5
 21
1157.0
 31
0.0
  0
LINE
  5
332
100
AcDbEntity
  8
図
  6
CONTINUOUS
 62
     3
100
AcDbLine
 10
1172.5
 20
1060.885583
 30
0.0
 11
1172.5
 21
1157.0
 31
0.0
  0
LINE
  5
333
100
AcDbEntity
  8
図
  6
CONTINUOUS
 62
     3
100
AcDbLine
 10
1112.5
 20
1152.0
 30
0.0
 11
1187.5
 21
1152.0
 31
0.0
  0
LINE
  5
334
100
AcDbEntity
  8
図
  6
CONTINUOUS
 62
     3
100
AcDbLine
 10
1112.5
 20
1149.5
 30
0.0
 11
1127.5
 21
1152.0
 31
0.0
  0
LINE
  5
335
100
AcDbEntity
  8
図
  6
CONTINUOUS
 62
     3
100
AcDbLine
 10
1127.5
 20
1152.0
 30
0.0
 11
1112.5
 21
1154.5
 31
0.0
  0
CIRCLE
  5
336
100
AcDbEntity
  8
図
  6
CONTINUOUS
 62
     3
100
AcDbCircle
 10
1172.5
 20
1152.0
 30
0.0
 40
1.25
  0
CIRCLE
  5
337
100
AcDbEntity
  8
図
  6
CONTINUOUS
 62
     3
100
AcDbCircle
 10
1172.5
 20
1152.0
 30
0.0
 40
0.625
  0
ENDBLK
  5
338
100
AcDbEntity
  8
0
100
AcDbBlockEnd
  0
BLOCK
  5
33B
100
AcDbEntity
  8
0
100
AcDbBlockBegin
  2
*D22
 70
    65
 10
0.0
 20
0.0
 30
0.0
  3
*D22
  1

  0
TEXT
  5
33C
100
AcDbEntity
  8
図
  6
CONTINUOUS
 62
     2
100
AcDbText
 10
1194.3
 20
1153.75
 30
0.0
 40
20.0
  1
5
 41
0.945
  7
EXCADSTD
 72
     1
 11
1203.75
 21
1153.75
 31
0.0
100
AcDbText
  0
LINE
  5
33D
100
AcDbEntity
  8
図
  6
CONTINUOUS
 62
     3
100
AcDbLine
 10
1177.5
 20
1062.0
 30
0.0
 11
1177.5
 21
1157.0
 31
0.0
  0
LINE
  5
33E
100
AcDbEntity
  8
図
  6
CONTINUOUS
 62
     3
100
AcDbLine
 10
1172.5
 20
1152.0
 30
0.0
 11
1216.75
 21
1152.0
 31
0.0
  0
LINE
  5
33F
100
AcDbEntity
  8
図
  6
CONTINUOUS
 62
     3
100
AcDbLine
 10
1192.5
 20
1154.5
 30
0.0
 11
1177.5
 21
1152.0
 31
0.0
  0
LINE
  5
340
100
AcDbEntity
  8
図
  6
CONTINUOUS
 62
     3
100
AcDbLine
 10
1177.5
 20
1152.0
 30
0.0
 11
1192.5
 21
1149.5
 31
0.0
  0
ENDBLK
  5
341
100
AcDbEntity
  8
0
100
AcDbBlockEnd
  0
BLOCK
  5
3C7
100
AcDbEntity
  8
0
100
AcDbBlockBegin
  2
*D23
 70
    65
 10
0.0
 20
0.0
 30
0.0
  3
*D23
  1

  0
TEXT
  5
3C8
100
AcDbEntity
  8
寸法
  6
CONTINUOUS
 62
     2
100
AcDbText
 10
612.811314
 20
1153.092104
 30
0.0
 40
20.0
  1
%%c37.5
 50
337.315731
 41
0.945
  7
EXCADSTD
 72
     1
 11
644.29654
 21
1139.931705
 31
0.0
100
AcDbText
  0
LINE
  5
3C9
100
AcDbEntity
  8
寸法
  6
CONTINUOUS
 62
     3
100
AcDbLine
 10
682.71869
 20
1121.975042
 30
0.0
 11
543.860765
 21
1180.01578
 31
0.0
  0
LINE
  5
3CA
100
AcDbEntity
  8
寸法
  6
CONTINUOUS
 62
     3
100
AcDbLine
 10
607.103367
 20
1156.29083
 30
0.0
 11
592.299575
 21
1159.769011
 31
0.0
  0
LINE
  5
3CB
100
AcDbEntity
  8
寸法
  6
CONTINUOUS
 62
     3
100
AcDbLine
 10
592.299575
 20
1159.769011
 30
0.0
 11
605.175103
 21
1151.67761
 31
0.0
  0
LINE
  5
3CC
100
AcDbEntity
  8
寸法
  6
CONTINUOUS
 62
     3
100
AcDbLine
 10
542.896633
 20
1177.70917
 30
0.0
 11
557.700425
 21
1174.230989
 31
0.0
  0
LINE
  5
3CD
100
AcDbEntity
  8
寸法
  6
CONTINUOUS
 62
     3
100
AcDbLine
 10
557.700425
 20
1174.230989
 30
0.0
 11
544.824897
 21
1182.32239
 31
0.0
  0
ENDBLK
  5
3CE
100
AcDbEntity
  8
0
100
AcDbBlockEnd
  0
BLOCK
  5
3D3
100
AcDbEntity
  8
0
100
AcDbBlockBegin
  2
*D24
 70
    65
 10
0.0
 20
0.0
 30
0.0
  3
*D24
  1

  0
LINE
  5
3D4
100
AcDbEntity
  8
寸法
  6
CONTINUOUS
 62
     3
100
AcDbLine
 10
1135.0
 20
1041.5
 30
0.0
 11
1114.5
 21
1041.5
 31
0.0
  0
LINE
  5
3D5
100
AcDbEntity
  8
寸法
  6
CONTINUOUS
 62
     3
100
AcDbLine
 10
1135.0
 20
1000.5
 30
0.0
 11
1114.5
 21
1000.5
 31
0.0
  0
TEXT
  5
3D6
100
AcDbEntity
  8
寸法
  6
CONTINUOUS
 62
     2
100
AcDbText
 10
1117.75
 20
996.85
 30
0.0
 40
20.0
  1
%%c41
 50
90.0
 41
0.945
  7
EXCADSTD
 72
     1
 11
1117.75
 21
1021.0
 31
0.0
100
AcDbText
  0
LINE
  5
3D7
100
AcDbEntity
  8
寸法
  6
CONTINUOUS
 62
     3
100
AcDbLine
 10
1119.5
 20
1041.5
 30
0.0
 11
1119.5
 21
1000.5
 31
0.0
  0
LINE
  5
3D8
100
AcDbEntity
  8
寸法
  6
CONTINUOUS
 62
     3
100
AcDbLine
 10
1122.0
 20
1026.5
 30
0.0
 11
1119.5
 21
1041.5
 31
0.0
  0
LINE
  5
3D9
100
AcDbEntity
  8
寸法
  6
CONTINUOUS
 62
     3
100
AcDbLine
 10
1119.5
 20
1041.5
 30
0.0
 11
1117.0
 21
1026.5
 31
0.0
  0
LINE
  5
3DA
100
AcDbEntity
  8
寸法
  6
CONTINUOUS
 62
     3
100
AcDbLine
 10
1117.0
 20
1015.5
 30
0.0
 11
1119.5
 21
1000.5
 31
0.0
  0
LINE
  5
3DB
100
AcDbEntity
  8
寸法
  6
CONTINUOUS
 62
     3
100
AcDbLine
 10
1119.5
 20
1000.5
 30
0.0
 11
1122.0
 21
1015.5
 31
0.0
  0
ENDBLK
  5
3DC
100
AcDbEntity
  8
0
100
AcDbBlockEnd
  0
BLOCK
  5
3DF
100
AcDbEntity
  8
0
100
AcDbBlockBegin
  2
*D25
 70
    65
 10
0.0
 20
0.0
 30
0.0
  3
*D25
  1

  0
LINE
  5
3E0
100
AcDbEntity
  8
寸法
  6
CONTINUOUS
 62
     3
100
AcDbLine
 10
1125.0
 20
1051.5
 30
0.0
 11
1089.0
 21
1051.5
 31
0.0
  0
LINE
  5
3E1
100
AcDbEntity
  8
寸法
  6
CONTINUOUS
 62
     3
100
AcDbLine
 10
1125.0
 20
990.5
 30
0.0
 11
1089.0
 21
990.5
 31
0.0
  0
TEXT
  5
3E2
100
AcDbEntity
  8
寸法
  6
CONTINUOUS
 62
     2
100
AcDbText
 10
1092.25
 20
996.85
 30
0.0
 40
20.0
  1
%%c61
 50
90.0
 41
0.945
  7
EXCADSTD
 72
     1
 11
1092.25
 21
1021.0
 31
0.0
100
AcDbText
  0
LINE
  5
3E3
100
AcDbEntity
  8
寸法
  6
CONTINUOUS
 62
     3
100
AcDbLine
 10
1094.0
 20
1051.5
 30
0.0
 11
1094.0
 21
990.5
 31
0.0
  0
LINE
  5
3E4
100
AcDbEntity
  8
寸法
  6
CONTINUOUS
 62
     3
100
AcDbLine
 10
1096.5
 20
1036.5
 30
0.0
 11
1094.0
 21
1051.5
 31
0.0
  0
LINE
  5
3E5
100
AcDbEntity
  8
寸法
  6
CONTINUOUS
 62
     3
100
AcDbLine
 10
1094.0
 20
1051.5
 30
0.0
 11
1091.5
 21
1036.5
 31
0.0
  0
LINE
  5
3E6
100
AcDbEntity
  8
寸法
  6
CONTINUOUS
 62
     3
100
AcDbLine
 10
1091.5
 20
1005.5
 30
0.0
 11
1094.0
 21
990.5
 31
0.0
  0
LINE
  5
3E7
100
AcDbEntity
  8
寸法
  6
CONTINUOUS
 62
     3
100
AcDbLine
 10
1094.0
 20
990.5
 30
0.0
 11
1096.5
 21
1005.5
 31
0.0
  0
ENDBLK
  5
3E8
100
AcDbEntity
  8
0
100
AcDbBlockEnd
  0
BLOCK
  5
3EB
100
AcDbEntity
  8
0
100
AcDbBlockBegin
  2
*D26
 70
    65
 10
0.0
 20
0.0
 30
0.0
  3
*D26
  1

  0
LINE
  5
3EC
100
AcDbEntity
  8
寸法
  6
CONTINUOUS
 62
     3
100
AcDbLine
 10
1125.732233
 20
1053.267767
 30
0.0
 11
1089.594404
 21
1089.405596
 31
0.0
  0
LINE
  5
3ED
100
AcDbEntity
  8
寸法
  6
CONTINUOUS
 62
     3
100
AcDbLine
 10
1125.732233
 20
988.732233
 30
0.0
 11
1089.594404
 21
952.594404
 31
0.0
  0
TEXT
  5
3EE
100
AcDbEntity
  8
寸法
  6
CONTINUOUS
 62
     2
100
AcDbText
 10
1064.509878
 20
1001.575
 30
0.0
 40
20.0
  1
90%%d
 50
90.0
 41
0.945
  7
EXCADSTD
 72
     1
 11
1064.509878
 21
1021.0
 31
0.0
100
AcDbText
  0
ARC
  5
3EF
100
AcDbEntity
  8
寸法
  6
CONTINUOUS
 62
     3
100
AcDbCircle
 10
1157.999975
 20
1021.0
 30
0.0
 40
91.740104
100
AcDbArc
 50
134.999989
 51
225.000011
  0
LINE
  5
3F0
100
AcDbEntity
  8
寸法
  6
CONTINUOUS
 62
     3
100
AcDbLine
 10
1084.291103
 20
1073.495694
 30
0.0
 11
1093.129938
 21
1085.870062
 31
0.0
  0
LINE
  5
3F1
100
AcDbEntity
  8
寸法
  6
CONTINUOUS
 62
     3
100
AcDbLine
 10
1093.129938
 20
1085.870062
 30
0.0
 11
1080.755569
 21
1077.031228
 31
0.0
  0
LINE
  5
3F2
100
AcDbEntity
  8
寸法
  6
CONTINUOUS
 62
     3
100
AcDbLine
 10
1080.755569
 20
964.968772
 30
0.0
 11
1093.129938
 21
956.129938
 31
0.0
  0
LINE
  5
3F3
100
AcDbEntity
  8
寸法
  6
CONTINUOUS
 62
     3
100
AcDbLine
 10
1093.129938
 20
956.129938
 30
0.0
 11
1084.291103
 21
968.504306
 31
0.0
  0
ENDBLK
  5
3F4
100
AcDbEntity
  8
0
100
AcDbBlockEnd
  0
BLOCK
  5
3F7
100
AcDbEntity
  8
0
100
AcDbBlockBegin
  2
*D27
 70
    65
 10
0.0
 20
0.0
 30
0.0
  3
*D27
  1

  0
LINE
  5
3F8
100
AcDbEntity
  8
寸法
  6
CONTINUOUS
 62
     3
100
AcDbLine
 10
1175.0
 20
1042.5
 30
0.0
 11
1213.8
 21
1042.5
 31
0.0
  0
LINE
  5
3F9
100
AcDbEntity
  8
寸法
  6
CONTINUOUS
 62
     3
100
AcDbLine
 10
1175.0
 20
999.5
 30
0.0
 11
1213.8
 21
999.5
 31
0.0
  0
TEXT
  5
3FA
100
AcDbEntity
  8
寸法
  6
CONTINUOUS
 62
     2
100
AcDbText
 10
1207.05
 20
1000.0
 30
0.0
 40
20.0
  1
%%c43
 50
90.0
 41
0.84
  7
EXCADSTD
 72
     1
 11
1207.05
 21
1021.0
 31
0.0
100
AcDbText
  0
LINE
  5
3FB
100
AcDbEntity
  8
寸法
  6
CONTINUOUS
 62
     3
100
AcDbLine
 10
1208.8
 20
1042.5
 30
0.0
 11
1208.8
 21
999.5
 31
0.0
  0
LINE
  5
3FC
100
AcDbEntity
  8
寸法
  6
CONTINUOUS
 62
     3
100
AcDbLine
 10
1211.3
 20
1027.5
 30
0.0
 11
1208.8
 21
1042.5
 31
0.0
  0
LINE
  5
3FD
100
AcDbEntity
  8
寸法
  6
CONTINUOUS
 62
     3
100
AcDbLine
 10
1208.8
 20
1042.5
 30
0.0
 11
1206.3
 21
1027.5
 31
0.0
  0
LINE
  5
3FE
100
AcDbEntity
  8
寸法
  6
CONTINUOUS
 62
     3
100
AcDbLine
 10
1206.3
 20
1014.5
 30
0.0
 11
1208.8
 21
999.5
 31
0.0
  0
LINE
  5
3FF
100
AcDbEntity
  8
寸法
  6
CONTINUOUS
 62
     3
100
AcDbLine
 10
1208.8
 20
999.5
 30
0.0
 11
1211.3
 21
1014.5
 31
0.0
  0
ENDBLK
  5
400
100
AcDbEntity
  8
0
100
AcDbBlockEnd
  0
BLOCK
  5
403
100
AcDbEntity
  8
0
100
AcDbBlockBegin
  2
*D28
 70
    65
 10
0.0
 20
0.0
 30
0.0
  3
*D28
  1

  0
LINE
  5
404
100
AcDbEntity
  8
寸法
  6
CONTINUOUS
 62
     3
100
AcDbLine
 10
575.0
 20
687.5
 30
0.0
 11
862.0
 21
687.5
 31
0.0
  0
LINE
  5
405
100
AcDbEntity
  8
寸法
  6
CONTINUOUS
 62
     3
100
AcDbLine
 10
739.240533
 20
522.5
 30
0.0
 11
862.0
 21
522.5
 31
0.0
  0
TEXT
  5
406
100
AcDbEntity
  8
寸法
  6
CONTINUOUS
 62
     2
100
AcDbText
 10
855.25
 20
580.85
 30
0.0
 40
20.0
  1
170
 50
90.0
 41
0.945
  7
EXCADSTD
 72
     1
 11
855.25
 21
605.0
 31
0.0
100
AcDbText
  0
LINE
  5
407
100
AcDbEntity
  8
寸法
  6
CONTINUOUS
 62
     3
100
AcDbLine
 10
857.0
 20
687.5
 30
0.0
 11
857.0
 21
522.5
 31
0.0
  0
LINE
  5
408
100
AcDbEntity
  8
寸法
  6
CONTINUOUS
 62
     3
100
AcDbLine
 10
859.5
 20
672.5
 30
0.0
 11
857.0
 21
687.5
 31
0.0
  0
LINE
  5
409
100
AcDbEntity
  8
寸法
  6
CONTINUOUS
 62
     3
100
AcDbLine
 10
857.0
 20
687.5
 30
0.0
 11
854.5
 21
672.5
 31
0.0
  0
LINE
  5
40A
100
AcDbEntity
  8
寸法
  6
CONTINUOUS
 62
     3
100
AcDbLine
 10
854.5
 20
537.5
 30
0.0
 11
857.0
 21
522.5
 31
0.0
  0
LINE
  5
40B
100
AcDbEntity
  8
寸法
  6
CONTINUOUS
 62
     3
100
AcDbLine
 10
857.0
 20
522.5
 30
0.0
 11
859.5
 21
537.5
 31
0.0
  0
ENDBLK
  5
40C
100
AcDbEntity
  8
0
100
AcDbBlockEnd
  0
BLOCK
  5
40F
100
AcDbEntity
  8
0
100
AcDbBlockBegin
  2
*D29
 70
    65
 10
0.0
 20
0.0
 30
0.0
  3
*D29
  1

  0
TEXT
  5
410
100
AcDbEntity
  8
寸法
  6
CONTINUOUS
 62
     2
100
AcDbText
 10
604.483377
 20
632.192016
 30
0.0
 40
20.0
  1
%%c24
 50
335.514377
 41
0.945
  7
EXCADSTD
 72
     1
 11
626.461454
 21
622.182689
 31
0.0
100
AcDbText
  0
LINE
  5
411
100
AcDbEntity
  8
寸法
  6
CONTINUOUS
 62
     3
100
AcDbLine
 10
653.493134
 20
607.948894
 30
0.0
 11
550.428237
 21
654.887044
 31
0.0
  0
LINE
  5
412
100
AcDbEntity
  8
寸法
  6
CONTINUOUS
 62
     3
100
AcDbLine
 10
600.607925
 20
634.781103
 30
0.0
 11
585.920784
 21
638.722913
 31
0.0
  0
LINE
  5
413
100
AcDbEntity
  8
寸法
  6
CONTINUOUS
 62
     3
100
AcDbLine
 10
585.920784
 20
638.722913
 30
0.0
 11
598.535601
 21
630.230777
 31
0.0
  0
LINE
  5
414
100
AcDbEntity
  8
寸法
  6
CONTINUOUS
 62
     3
100
AcDbLine
 10
549.392075
 20
652.611881
 30
0.0
 11
564.079216
 21
648.670071
 31
0.0
  0
LINE
  5
415
100
AcDbEntity
  8
寸法
  6
CONTINUOUS
 62
     3
100
AcDbLine
 10
564.079216
 20
648.670071
 30
0.0
 11
551.464399
 21
657.162207
 31
0.0
  0
ENDBLK
  5
416
100
AcDbEntity
  8
0
100
AcDbBlockEnd
  0
BLOCK
  5
419
100
AcDbEntity
  8
0
100
AcDbBlockBegin
  2
*D30
 70
    65
 10
0.0
 20
0.0
 30
0.0
  3
*D30
  1

  0
TEXT
  5
41A
100
AcDbEntity
  8
寸法
  6
CONTINUOUS
 62
     2
100
AcDbText
 10
814.75
 20
1189.7
 30
0.0
 40
20.0
  1
79
 50
90.0
 41
0.945
  7
EXCADSTD
 72
     1
 11
814.75
 21
1206.5
 31
0.0
100
AcDbText
  0
LINE
  5
41B
100
AcDbEntity
  8
寸法
  6
CONTINUOUS
 62
     3
100
AcDbLine
 10
816.5
 20
1167.0
 30
0.0
 11
816.5
 21
1246.0
 31
0.0
  0
LINE
  5
41C
100
AcDbEntity
  8
寸法
  6
CONTINUOUS
 62
     3
100
AcDbLine
 10
814.0
 20
1182.0
 30
0.0
 11
816.5
 21
1167.0
 31
0.0
  0
LINE
  5
41D
100
AcDbEntity
  8
寸法
  6
CONTINUOUS
 62
     3
100
AcDbLine
 10
816.5
 20
1167.0
 30
0.0
 11
819.0
 21
1182.0
 31
0.0
  0
LINE
  5
41E
100
AcDbEntity
  8
寸法
  6
CONTINUOUS
 62
     3
100
AcDbLine
 10
819.0
 20
1231.0
 30
0.0
 11
816.5
 21
1246.0
 31
0.0
  0
LINE
  5
41F
100
AcDbEntity
  8
寸法
  6
CONTINUOUS
 62
     3
100
AcDbLine
 10
816.5
 20
1246.0
 30
0.0
 11
814.0
 21
1231.0
 31
0.0
  0
LINE
  5
420
100
AcDbEntity
  8
寸法
  6
CONTINUOUS
 62
     3
100
AcDbLine
 10
602.5
 20
1167.0
 30
0.0
 11
821.5
 21
1167.0
 31
0.0
  0
ENDBLK
  5
421
100
AcDbEntity
  8
0
100
AcDbBlockEnd
  0
BLOCK
  5
424
100
AcDbEntity
  8
0
100
AcDbBlockBegin
  2
*D31
 70
    65
 10
0.0
 20
0.0
 30
0.0
  3
*D31
  1

  0
TEXT
  5
425
100
AcDbEntity
  8
寸法
  6
CONTINUOUS
 62
     2
100
AcDbText
 10
855.25
 20
1151.85
 30
0.0
 40
20.0
  1
140
 50
90.0
 41
0.945
  7
EXCADSTD
 72
     1
 11
855.25
 21
1176.0
 31
0.0
100
AcDbText
  0
LINE
  5
426
100
AcDbEntity
  8
寸法
  6
CONTINUOUS
 62
     3
100
AcDbLine
 10
737.715179
 20
1106.0
 30
0.0
 11
862.0
 21
1106.0
 31
0.0
  0
LINE
  5
427
100
AcDbEntity
  8
寸法
  6
CONTINUOUS
 62
     3
100
AcDbLine
 10
857.0
 20
1106.0
 30
0.0
 11
857.0
 21
1246.0
 31
0.0
  0
LINE
  5
428
100
AcDbEntity
  8
寸法
  6
CONTINUOUS
 62
     3
100
AcDbLine
 10
854.5
 20
1121.0
 30
0.0
 11
857.0
 21
1106.0
 31
0.0
  0
LINE
  5
429
100
AcDbEntity
  8
寸法
  6
CONTINUOUS
 62
     3
100
AcDbLine
 10
857.0
 20
1106.0
 30
0.0
 11
859.5
 21
1121.0
 31
0.0
  0
LINE
  5
42A
100
AcDbEntity
  8
寸法
  6
CONTINUOUS
 62
     3
100
AcDbLine
 10
859.5
 20
1231.0
 30
0.0
 11
857.0
 21
1246.0
 31
0.0
  0
LINE
  5
42B
100
AcDbEntity
  8
寸法
  6
CONTINUOUS
 62
     3
100
AcDbLine
 10
857.0
 20
1246.0
 30
0.0
 11
854.5
 21
1231.0
 31
0.0
  0
ENDBLK
  5
42C
100
AcDbEntity
  8
0
100
AcDbBlockEnd
  0
BLOCK
  5
42F
100
AcDbEntity
  8
0
100
AcDbBlockBegin
  2
*D32
 70
    65
 10
0.0
 20
0.0
 30
0.0
  3
*D32
  1

  0
LINE
  5
430
100
AcDbEntity
  8
寸法
  6
CONTINUOUS
 62
     3
100
AcDbLine
 10
1520.5
 20
1129.0
 30
0.0
 11
1520.5
 21
1280.0
 31
0.0
  0
LINE
  5
431
100
AcDbEntity
  8
寸法
  6
CONTINUOUS
 62
     3
100
AcDbLine
 10
1653.5
 20
1147.0
 30
0.0
 11
1653.5
 21
1280.0
 31
0.0
  0
TEXT
  5
432
100
AcDbEntity
  8
寸法
  6
CONTINUOUS
 62
     2
100
AcDbText
 10
1562.85
 20
1276.75
 30
0.0
 40
20.0
  1
133
 41
0.945
  7
EXCADSTD
 72
     1
 11
1587.0
 21
1276.75
 31
0.0
100
AcDbText
  0
LINE
  5
433
100
AcDbEntity
  8
寸法
  6
CONTINUOUS
 62
     3
100
AcDbLine
 10
1520.5
 20
1275.0
 30
0.0
 11
1653.5
 21
1275.0
 31
0.0
  0
LINE
  5
434
100
AcDbEntity
  8
寸法
  6
CONTINUOUS
 62
     3
100
AcDbLine
 10
1535.5
 20
1277.5
 30
0.0
 11
1520.5
 21
1275.0
 31
0.0
  0
LINE
  5
435
100
AcDbEntity
  8
寸法
  6
CONTINUOUS
 62
     3
100
AcDbLine
 10
1520.5
 20
1275.0
 30
0.0
 11
1535.5
 21
1272.5
 31
0.0
  0
LINE
  5
436
100
AcDbEntity
  8
寸法
  6
CONTINUOUS
 62
     3
100
AcDbLine
 10
1638.5
 20
1272.5
 30
0.0
 11
1653.5
 21
1275.0
 31
0.0
  0
LINE
  5
437
100
AcDbEntity
  8
寸法
  6
CONTINUOUS
 62
     3
100
AcDbLine
 10
1653.5
 20
1275.0
 30
0.0
 11
1638.5
 21
1277.5
 31
0.0
  0
ENDBLK
  5
438
100
AcDbEntity
  8
0
100
AcDbBlockEnd
  0
BLOCK
  5
43B
100
AcDbEntity
  8
0
100
AcDbBlockBegin
  2
*D33
 70
    65
 10
0.0
 20
0.0
 30
0.0
  3
*D33
  1

  0
LINE
  5
43C
100
AcDbEntity
  8
寸法
  6
CONTINUOUS
 62
     3
100
AcDbLine
 10
1786.5
 20
1136.0
 30
0.0
 11
1786.5
 21
1280.0
 31
0.0
  0
TEXT
  5
43D
100
AcDbEntity
  8
寸法
  6
CONTINUOUS
 62
     2
100
AcDbText
 10
1695.85
 20
1276.75
 30
0.0
 40
20.0
  1
133
 41
0.945
  7
EXCADSTD
 72
     1
 11
1720.0
 21
1276.75
 31
0.0
100
AcDbText
  0
LINE
  5
43E
100
AcDbEntity
  8
寸法
  6
CONTINUOUS
 62
     3
100
AcDbLine
 10
1786.5
 20
1275.0
 30
0.0
 11
1653.5
 21
1275.0
 31
0.0
  0
LINE
  5
43F
100
AcDbEntity
  8
寸法
  6
CONTINUOUS
 62
     3
100
AcDbLine
 10
1771.5
 20
1272.5
 30
0.0
 11
1786.5
 21
1275.0
 31
0.0
  0
LINE
  5
440
100
AcDbEntity
  8
寸法
  6
CONTINUOUS
 62
     3
100
AcDbLine
 10
1786.5
 20
1275.0
 30
0.0
 11
1771.5
 21
1277.5
 31
0.0
  0
LINE
  5
441
100
AcDbEntity
  8
寸法
  6
CONTINUOUS
 62
     3
100
AcDbLine
 10
1668.5
 20
1277.5
 30
0.0
 11
1653.5
 21
1275.0
 31
0.0
  0
LINE
  5
442
100
AcDbEntity
  8
寸法
  6
CONTINUOUS
 62
     3
100
AcDbLine
 10
1653.5
 20
1275.0
 30
0.0
 11
1668.5
 21
1272.5
 31
0.0
  0
ENDBLK
  5
443
100
AcDbEntity
  8
0
100
AcDbBlockEnd
  0
BLOCK
  5
446
100
AcDbEntity
  8
0
100
AcDbBlockBegin
  2
*D34
 70
    65
 10
0.0
 20
0.0
 30
0.0
  3
*D34
  1

  0
LINE
  5
447
100
AcDbEntity
  8
寸法
  6
CONTINUOUS
 62
     3
100
AcDbLine
 10
1177.5
 20
899.554886
 30
0.0
 11
1177.5
 21
753.5
 31
0.0
  0
LINE
  5
448
100
AcDbEntity
  8
寸法
  6
CONTINUOUS
 62
     3
100
AcDbLine
 10
1017.5
 20
798.5
 30
0.0
 11
1017.5
 21
753.5
 31
0.0
  0
LINE
  5
449
100
AcDbEntity
  8
寸法
  6
CONTINUOUS
 62
     3
100
AcDbLine
 10
1177.5
 20
758.5
 30
0.0
 11
1017.5
 21
758.5
 31
0.0
  0
LINE
  5
44A
100
AcDbEntity
  8
寸法
  6
CONTINUOUS
 62
     3
100
AcDbLine
 10
1162.5
 20
756.0
 30
0.0
 11
1177.5
 21
758.5
 31
0.0
  0
LINE
  5
44B
100
AcDbEntity
  8
寸法
  6
CONTINUOUS
 62
     3
100
AcDbLine
 10
1177.5
 20
758.5
 30
0.0
 11
1162.5
 21
761.0
 31
0.0
  0
LINE
  5
44C
100
AcDbEntity
  8
寸法
  6
CONTINUOUS
 62
     3
100
AcDbLine
 10
1032.5
 20
761.0
 30
0.0
 11
1017.5
 21
758.5
 31
0.0
  0
LINE
  5
44D
100
AcDbEntity
  8
寸法
  6
CONTINUOUS
 62
     3
100
AcDbLine
 10
1017.5
 20
758.5
 30
0.0
 11
1032.5
 21
756.0
 31
0.0
  0
TEXT
  5
44E
100
AcDbEntity
  8
寸法
  6
CONTINUOUS
 62
     2
100
AcDbText
 10
1073.35
 20
760.25
 30
0.0
 40
20.0
  1
160
 41
0.945
  7
EXCADSTD
 72
     1
 11
1097.5
 21
760.25
 31
0.0
100
AcDbText
  0
ENDBLK
  5
44F
100
AcDbEntity
  8
0
100
AcDbBlockEnd
  0
BLOCK
  5
452
100
AcDbEntity
  8
0
100
AcDbBlockBegin
  2
*D35
 70
    65
 10
0.0
 20
0.0
 30
0.0
  3
*D35
  1

  0
LINE
  5
453
100
AcDbEntity
  8
寸法
  6
CONTINUOUS
 62
     3
100
AcDbLine
 10
1247.0
 20
1239.0
 30
0.0
 11
1247.0
 21
901.0
 31
0.0
  0
LINE
  5
454
100
AcDbEntity
  8
寸法
  6
CONTINUOUS
 62
     3
100
AcDbLine
 10
1249.5
 20
1224.0
 30
0.0
 11
1247.0
 21
1239.0
 31
0.0
  0
LINE
  5
455
100
AcDbEntity
  8
寸法
  6
CONTINUOUS
 62
     3
100
AcDbLine
 10
1247.0
 20
1239.0
 30
0.0
 11
1244.5
 21
1224.0
 31
0.0
  0
LINE
  5
456
100
AcDbEntity
  8
寸法
  6
CONTINUOUS
 62
     3
100
AcDbLine
 10
1244.5
 20
916.0
 30
0.0
 11
1247.0
 21
901.0
 31
0.0
  0
LINE
  5
457
100
AcDbEntity
  8
寸法
  6
CONTINUOUS
 62
     3
100
AcDbLine
 10
1247.0
 20
901.0
 30
0.0
 11
1249.5
 21
916.0
 31
0.0
  0
TEXT
  5
458
100
AcDbEntity
  8
寸法
  6
CONTINUOUS
 62
     2
100
AcDbText
 10
1245.25
 20
1038.5
 30
0.0
 40
20.0
  1
%%c338
 50
90.0
 41
0.945
  7
EXCADSTD
 72
     1
 11
1245.25
 21
1070.0
 31
0.0
100
AcDbText
  0
LINE
  5
459
100
AcDbEntity
  8
寸法
  6
CONTINUOUS
 62
     3
100
AcDbLine
 10
1180.0
 20
1239.0
 30
0.0
 11
1252.0
 21
1239.0
 31
0.0
  0
LINE
  5
45A
100
AcDbEntity
  8
寸法
  6
CONTINUOUS
 62
     3
100
AcDbLine
 10
1180.0
 20
901.0
 30
0.0
 11
1252.0
 21
901.0
 31
0.0
  0
ENDBLK
  5
45B
100
AcDbEntity
  8
0
100
AcDbBlockEnd
  0
BLOCK
  5
45E
100
AcDbEntity
  8
0
100
AcDbBlockBegin
  2
*D36
 70
    65
 10
0.0
 20
0.0
 30
0.0
  3
*D36
  1

  0
LINE
  5
45F
100
AcDbEntity
  8
寸法
  6
CONTINUOUS
 62
     3
100
AcDbLine
 10
1247.0
 20
901.0
 30
0.0
 11
1247.0
 21
796.0
 31
0.0
  0
LINE
  5
460
100
AcDbEntity
  8
寸法
  6
CONTINUOUS
 62
     3
100
AcDbLine
 10
1249.5
 20
886.0
 30
0.0
 11
1247.0
 21
901.0
 31
0.0
  0
LINE
  5
461
100
AcDbEntity
  8
寸法
  6
CONTINUOUS
 62
     3
100
AcDbLine
 10
1247.0
 20
901.0
 30
0.0
 11
1244.5
 21
886.0
 31
0.0
  0
LINE
  5
462
100
AcDbEntity
  8
寸法
  6
CONTINUOUS
 62
     3
100
AcDbLine
 10
1244.5
 20
811.0
 30
0.0
 11
1247.0
 21
796.0
 31
0.0
  0
LINE
  5
463
100
AcDbEntity
  8
寸法
  6
CONTINUOUS
 62
     3
100
AcDbLine
 10
1247.0
 20
796.0
 30
0.0
 11
1249.5
 21
811.0
 31
0.0
  0
TEXT
  5
464
100
AcDbEntity
  8
寸法
  6
CONTINUOUS
 62
     2
100
AcDbText
 10
1245.25
 20
824.35
 30
0.0
 40
20.0
  1
105
 50
90.0
 41
0.945
  7
EXCADSTD
 72
     1
 11
1245.25
 21
848.5
 31
0.0
100
AcDbText
  0
LINE
  5
465
100
AcDbEntity
  8
寸法
  6
CONTINUOUS
 62
     3
100
AcDbLine
 10
1025.0
 20
796.0
 30
0.0
 11
1252.0
 21
796.0
 31
0.0
  0
ENDBLK
  5
466
100
AcDbEntity
  8
0
100
AcDbBlockEnd
  0
BLOCK
  5
469
100
AcDbEntity
  8
0
100
AcDbBlockBegin
  2
*D37
 70
    65
 10
0.0
 20
0.0
 30
0.0
  3
*D37
  1

  0
LINE
  5
46A
100
AcDbEntity
  8
寸法
  6
CONTINUOUS
 62
     3
100
AcDbLine
 10
1688.5
 20
744.0
 30
0.0
 11
1653.5
 21
744.0
 31
0.0
  0
LINE
  5
46B
100
AcDbEntity
  8
寸法
  6
CONTINUOUS
 62
     3
100
AcDbLine
 10
1673.5
 20
741.5
 30
0.0
 11
1688.5
 21
744.0
 31
0.0
  0
LINE
  5
46C
100
AcDbEntity
  8
寸法
  6
CONTINUOUS
 62
     3
100
AcDbLine
 10
1688.5
 20
744.0
 30
0.0
 11
1673.5
 21
746.5
 31
0.0
  0
LINE
  5
46D
100
AcDbEntity
  8
寸法
  6
CONTINUOUS
 62
     3
100
AcDbLine
 10
1668.5
 20
746.5
 30
0.0
 11
1653.5
 21
744.0
 31
0.0
  0
LINE
  5
46E
100
AcDbEntity
  8
寸法
  6
CONTINUOUS
 62
     3
100
AcDbLine
 10
1653.5
 20
744.0
 30
0.0
 11
1668.5
 21
741.5
 31
0.0
  0
TEXT
  5
46F
100
AcDbEntity
  8
寸法
  6
CONTINUOUS
 62
     2
100
AcDbText
 10
1654.2
 20
745.75
 30
0.0
 40
20.0
  1
35
 41
0.945
  7
EXCADSTD
 72
     1
 11
1671.0
 21
745.75
 31
0.0
100
AcDbText
  0
LINE
  5
470
100
AcDbEntity
  8
寸法
  6
CONTINUOUS
 62
     3
100
AcDbLine
 10
1653.5
 20
784.0
 30
0.0
 11
1653.5
 21
739.0
 31
0.0
  0
LINE
  5
471
100
AcDbEntity
  8
寸法
  6
CONTINUOUS
 62
     3
100
AcDbLine
 10
1688.5
 20
927.0
 30
0.0
 11
1688.5
 21
739.0
 31
0.0
  0
ENDBLK
  5
472
100
AcDbEntity
  8
0
100
AcDbBlockEnd
  0
BLOCK
  5
475
100
AcDbEntity
  8
0
100
AcDbBlockBegin
  2
*D38
 70
    65
 10
0.0
 20
0.0
 30
0.0
  3
*D38
  1

  0
LINE
  5
476
100
AcDbEntity
  8
寸法
  6
CONTINUOUS
 62
     3
100
AcDbLine
 10
813.0
 20
1018.0
 30
0.0
 11
902.5
 21
1018.0
 31
0.0
  0
LINE
  5
477
100
AcDbEntity
  8
寸法
  6
CONTINUOUS
 62
     3
100
AcDbLine
 10
577.5
 20
1246.0
 30
0.0
 11
902.5
 21
1246.0
 31
0.0
  0
LINE
  5
478
100
AcDbEntity
  8
寸法
  6
CONTINUOUS
 62
     3
100
AcDbLine
 10
897.5
 20
1018.0
 30
0.0
 11
897.5
 21
1246.0
 31
0.0
  0
LINE
  5
479
100
AcDbEntity
  8
寸法
  6
CONTINUOUS
 62
     3
100
AcDbLine
 10
895.0
 20
1033.0
 30
0.0
 11
897.5
 21
1018.0
 31
0.0
  0
LINE
  5
47A
100
AcDbEntity
  8
寸法
  6
CONTINUOUS
 62
     3
100
AcDbLine
 10
897.5
 20
1018.0
 30
0.0
 11
900.0
 21
1033.0
 31
0.0
  0
LINE
  5
47B
100
AcDbEntity
  8
寸法
  6
CONTINUOUS
 62
     3
100
AcDbLine
 10
900.0
 20
1231.0
 30
0.0
 11
897.5
 21
1246.0
 31
0.0
  0
LINE
  5
47C
100
AcDbEntity
  8
寸法
  6
CONTINUOUS
 62
     3
100
AcDbLine
 10
897.5
 20
1246.0
 30
0.0
 11
895.0
 21
1231.0
 31
0.0
  0
TEXT
  5
47D
100
AcDbEntity
  8
寸法
  6
CONTINUOUS
 62
     2
100
AcDbText
 10
895.75
 20
1107.85
 30
0.0
 40
20.0
  1
228
 50
90.0
 41
0.945
  7
EXCADSTD
 72
     1
 11
895.75
 21
1132.0
 31
0.0
100
AcDbText
  0
ENDBLK
  5
47E
100
AcDbEntity
  8
0
100
AcDbBlockEnd
  0
BLOCK
  5
481
100
AcDbEntity
  8
0
100
AcDbBlockBegin
  2
*D39
 70
    65
 10
0.0
 20
0.0
 30
0.0
  3
*D39
  1

  0
LINE
  5
482
100
AcDbEntity
  8
寸法
  6
CONTINUOUS
 62
     3
100
AcDbLine
 10
1511.0
 20
1111.0
 30
0.0
 11
1396.5
 21
1111.0
 31
0.0
  0
LINE
  5
483
100
AcDbEntity
  8
寸法
  6
CONTINUOUS
 62
     3
100
AcDbLine
 10
1414.5
 20
1018.0
 30
0.0
 11
1396.5
 21
1018.0
 31
0.0
  0
LINE
  5
484
100
AcDbEntity
  8
寸法
  6
CONTINUOUS
 62
     3
100
AcDbLine
 10
1401.5
 20
1111.0
 30
0.0
 11
1401.5
 21
1018.0
 31
0.0
  0
LINE
  5
485
100
AcDbEntity
  8
寸法
  6
CONTINUOUS
 62
     3
100
AcDbLine
 10
1404.0
 20
1096.0
 30
0.0
 11
1401.5
 21
1111.0
 31
0.0
  0
LINE
  5
486
100
AcDbEntity
  8
寸法
  6
CONTINUOUS
 62
     3
100
AcDbLine
 10
1401.5
 20
1111.0
 30
0.0
 11
1399.0
 21
1096.0
 31
0.0
  0
LINE
  5
487
100
AcDbEntity
  8
寸法
  6
CONTINUOUS
 62
     3
100
AcDbLine
 10
1399.0
 20
1033.0
 30
0.0
 11
1401.5
 21
1018.0
 31
0.0
  0
LINE
  5
488
100
AcDbEntity
  8
寸法
  6
CONTINUOUS
 62
     3
100
AcDbLine
 10
1401.5
 20
1018.0
 30
0.0
 11
1404.0
 21
1033.0
 31
0.0
  0
TEXT
  5
489
100
AcDbEntity
  8
寸法
  6
CONTINUOUS
 62
     2
100
AcDbText
 10
1399.75
 20
1047.7
 30
0.0
 40
20.0
  1
93
 50
90.0
 41
0.945
  7
EXCADSTD
 72
     1
 11
1399.75
 21
1064.5
 31
0.0
100
AcDbText
  0
ENDBLK
  5
48A
100
AcDbEntity
  8
0
100
AcDbBlockEnd
  0
BLOCK
  5
48D
100
AcDbEntity
  8
0
100
AcDbBlockBegin
  2
*D40
 70
    65
 10
0.0
 20
0.0
 30
0.0
  3
*D40
  1

  0
LINE
  5
48E
100
AcDbEntity
  8
寸法
  6
CONTINUOUS
 62
     3
100
AcDbLine
 10
1699.5
 20
938.0
 30
0.0
 11
1927.5
 21
938.0
 31
0.0
  0
LINE
  5
48F
100
AcDbEntity
  8
寸法
  6
CONTINUOUS
 62
     3
100
AcDbLine
 10
1904.5
 20
1018.0
 30
0.0
 11
1927.5
 21
1018.0
 31
0.0
  0
LINE
  5
490
100
AcDbEntity
  8
寸法
  6
CONTINUOUS
 62
     3
100
AcDbLine
 10
1922.5
 20
938.0
 30
0.0
 11
1922.5
 21
1018.0
 31
0.0
  0
LINE
  5
491
100
AcDbEntity
  8
寸法
  6
CONTINUOUS
 62
     3
100
AcDbLine
 10
1920.0
 20
953.0
 30
0.0
 11
1922.5
 21
938.0
 31
0.0
  0
LINE
  5
492
100
AcDbEntity
  8
寸法
  6
CONTINUOUS
 62
     3
100
AcDbLine
 10
1922.5
 20
938.0
 30
0.0
 11
1925.0
 21
953.0
 31
0.0
  0
LINE
  5
493
100
AcDbEntity
  8
寸法
  6
CONTINUOUS
 62
     3
100
AcDbLine
 10
1925.0
 20
1003.0
 30
0.0
 11
1922.5
 21
1018.0
 31
0.0
  0
LINE
  5
494
100
AcDbEntity
  8
寸法
  6
CONTINUOUS
 62
     3
100
AcDbLine
 10
1922.5
 20
1018.0
 30
0.0
 11
1920.0
 21
1003.0
 31
0.0
  0
TEXT
  5
495
100
AcDbEntity
  8
寸法
  6
CONTINUOUS
 62
     2
100
AcDbText
 10
1920.75
 20
961.2
 30
0.0
 40
20.0
  1
80
 50
90.0
 41
0.945
  7
EXCADSTD
 72
     1
 11
1920.75
 21
978.0
 31
0.0
100
AcDbText
  0
ENDBLK
  5
496
100
AcDbEntity
  8
0
100
AcDbBlockEnd
  0
BLOCK
  5
49C
100
AcDbEntity
  8
0
100
AcDbBlockBegin
  2
*D41
 70
    65
 10
0.0
 20
0.0
 30
0.0
  3
*D41
  1

  0
LINE
  5
49D
100
AcDbEntity
  8
寸法
  6
CONTINUOUS
 62
     3
100
AcDbLine
 10
592.505589
 20
293.5
 30
0.0
 11
625.0
 21
293.5
 31
0.0
  0
LINE
  5
49E
100
AcDbEntity
  8
寸法
  6
CONTINUOUS
 62
     3
100
AcDbLine
 10
620.0
 20
308.5
 30
0.0
 11
620.0
 21
231.749998
 31
0.0
  0
LINE
  5
49F
100
AcDbEntity
  8
寸法
  6
CONTINUOUS
 62
     3
100
AcDbLine
 10
617.5
 20
308.5
 30
0.0
 11
620.0
 21
293.5
 31
0.0
  0
LINE
  5
4A0
100
AcDbEntity
  8
寸法
  6
CONTINUOUS
 62
     3
100
AcDbLine
 10
620.0
 20
293.5
 30
0.0
 11
622.5
 21
308.5
 31
0.0
  0
LINE
  5
4A1
100
AcDbEntity
  8
寸法
  6
CONTINUOUS
 62
     3
100
AcDbLine
 10
622.5
 20
268.5
 30
0.0
 11
620.0
 21
283.5
 31
0.0
  0
LINE
  5
4A2
100
AcDbEntity
  8
寸法
  6
CONTINUOUS
 62
     3
100
AcDbLine
 10
620.0
 20
283.5
 30
0.0
 11
617.5
 21
268.5
 31
0.0
  0
TEXT
  5
4A3
100
AcDbEntity
  8
寸法
  6
CONTINUOUS
 62
     2
100
AcDbText
 10
618.25
 20
236.3
 30
0.0
 40
20.0
  1
10
 50
90.0
 41
0.84
  7
EXCADSTD
 72
     1
 11
618.25
 21
251.0
 31
0.0
100
AcDbText
  0
ENDBLK
  5
4A4
100
AcDbEntity
  8
0
100
AcDbBlockEnd
  0
BLOCK
  5
4A7
100
AcDbEntity
  8
0
100
AcDbBlockBegin
  2
*D42
 70
    65
 10
0.0
 20
0.0
 30
0.0
  3
*D42
  1

  0
LINE
  5
4A8
100
AcDbEntity
  8
寸法
  6
CONTINUOUS
 62
     3
100
AcDbLine
 10
412.284821
 20
1106.0
 30
0.0
 11
332.7
 21
1106.0
 31
0.0
  0
LINE
  5
4A9
100
AcDbEntity
  8
寸法
  6
CONTINUOUS
 62
     3
100
AcDbLine
 10
429.5
 20
1121.0
 30
0.0
 11
332.7
 21
1121.0
 31
0.0
  0
LINE
  5
4AA
100
AcDbEntity
  8
寸法
  6
CONTINUOUS
 62
     3
100
AcDbLine
 10
337.7
 20
1091.0
 30
0.0
 11
337.7
 21
1172.750002
 31
0.0
  0
LINE
  5
4AB
100
AcDbEntity
  8
寸法
  6
CONTINUOUS
 62
     3
100
AcDbLine
 10
340.2
 20
1091.0
 30
0.0
 11
337.7
 21
1106.0
 31
0.0
  0
LINE
  5
4AC
100
AcDbEntity
  8
寸法
  6
CONTINUOUS
 62
     3
100
AcDbLine
 10
337.7
 20
1106.0
 30
0.0
 11
335.2
 21
1091.0
 31
0.0
  0
LINE
  5
4AD
100
AcDbEntity
  8
寸法
  6
CONTINUOUS
 62
     3
100
AcDbLine
 10
335.2
 20
1136.0
 30
0.0
 11
337.7
 21
1121.0
 31
0.0
  0
LINE
  5
4AE
100
AcDbEntity
  8
寸法
  6
CONTINUOUS
 62
     3
100
AcDbLine
 10
337.7
 20
1121.0
 30
0.0
 11
340.2
 21
1136.0
 31
0.0
  0
TEXT
  5
4AF
100
AcDbEntity
  8
寸法
  6
CONTINUOUS
 62
     2
100
AcDbText
 10
335.95
 20
1138.8
 30
0.0
 40
20.0
  1
15
 50
90.0
 41
0.84
  7
EXCADSTD
 72
     1
 11
335.95
 21
1153.5
 31
0.0
100
AcDbText
  0
ENDBLK
  5
4B0
100
AcDbEntity
  8
0
100
AcDbBlockEnd
  0
BLOCK
  5
4B3
100
AcDbEntity
  8
0
100
AcDbBlockBegin
  2
*D43
 70
    65
 10
0.0
 20
0.0
 30
0.0
  3
*D43
  1

  0
LINE
  5
4B4
100
AcDbEntity
  8
寸法
  6
CONTINUOUS
 62
     3
100
AcDbLine
 10
485.0
 20
1143.5
 30
0.0
 11
485.0
 21
1283.0
 31
0.0
  0
LINE
  5
4B5
100
AcDbEntity
  8
寸法
  6
CONTINUOUS
 62
     3
100
AcDbLine
 10
575.0
 20
1261.0
 30
0.0
 11
575.0
 21
1283.0
 31
0.0
  0
LINE
  5
4B6
100
AcDbEntity
  8
寸法
  6
CONTINUOUS
 62
     3
100
AcDbLine
 10
485.0
 20
1278.0
 30
0.0
 11
575.0
 21
1278.0
 31
0.0
  0
LINE
  5
4B7
100
AcDbEntity
  8
寸法
  6
CONTINUOUS
 62
     3
100
AcDbLine
 10
500.0
 20
1280.5
 30
0.0
 11
485.0
 21
1278.0
 31
0.0
  0
LINE
  5
4B8
100
AcDbEntity
  8
寸法
  6
CONTINUOUS
 62
     3
100
AcDbLine
 10
485.0
 20
1278.0
 30
0.0
 11
500.0
 21
1275.5
 31
0.0
  0
LINE
  5
4B9
100
AcDbEntity
  8
寸法
  6
CONTINUOUS
 62
     3
100
AcDbLine
 10
560.0
 20
1275.5
 30
0.0
 11
575.0
 21
1278.0
 31
0.0
  0
LINE
  5
4BA
100
AcDbEntity
  8
寸法
  6
CONTINUOUS
 62
     3
100
AcDbLine
 10
575.0
 20
1278.0
 30
0.0
 11
560.0
 21
1280.5
 31
0.0
  0
TEXT
  5
4BB
100
AcDbEntity
  8
寸法
  6
CONTINUOUS
 62
     2
100
AcDbText
 10
515.3
 20
1279.75
 30
0.0
 40
20.0
  1
90
 41
0.84
  7
EXCADSTD
 72
     1
 11
530.0
 21
1279.75
 31
0.0
100
AcDbText
  0
ENDBLK
  5
4BC
100
AcDbEntity
  8
0
100
AcDbBlockEnd
  0
ENDSEC
  0
SECTION
  2
ENTITIES
  0
LINE
  5
84
100
AcDbEntity
  8
図枠
  6
CONTINUOUS
 62
     7
100
AcDbLine
 10
60.5
 20
747.5
 30
0.0
 11
130.0
 21
747.5
 31
0.0
  0
LINE
  5
85
100
AcDbEntity
  8
図枠
  6
CONTINUOUS
 62
     7
100
AcDbLine
 10
2055.0
 20
55.0
 30
0.0
 11
2055.0
 21
1440.0
 31
0.0
  0
LINE
  5
86
100
AcDbEntity
  8
図枠
  6
CONTINUOUS
 62
     7
100
AcDbLine
 10
130.0
 20
55.0
 30
0.0
 11
130.0
 21
1440.0
 31
0.0
  0
LINE
  5
87
100
AcDbEntity
  8
図枠
  6
CONTINUOUS
 62
     7
100
AcDbLine
 10
2085.0
 20
747.5
 30
0.0
 11
2055.0
 21
747.5
 31
0.0
  0
LINE
  5
88
100
AcDbEntity
  8
図枠
  6
CONTINUOUS
 62
     7
100
AcDbLine
 10
130.0
 20
1440.0
 30
0.0
 11
2055.0
 21
1440.0
 31
0.0
  0
TEXT
  5
89
100
AcDbEntity
  8
図枠
  6
CONTINUOUS
 62
     6
100
AcDbText
 10
154.929482
 20
152.957437
 30
0.0
 40
20.0
  1
△
 41
1.18
  7
EXCADVERT
 72
     3
 11
154.929482
 21
132.957437
 31
0.0
100
AcDbText
  0
TEXT
  5
8A
100
AcDbEntity
  8
図枠
  6
CONTINUOUS
 62
     6
100
AcDbText
 10
154.929482
 20
127.957437
 30
0.0
 40
20.0
  1
△
 41
1.18
  7
EXCADVERT
 72
     3
 11
154.929482
 21
107.957437
 31
0.0
100
AcDbText
  0
TEXT
  5
8B
100
AcDbEntity
  8
図枠
  6
CONTINUOUS
 62
     6
100
AcDbText
 10
154.929482
 20
102.957437
 30
0.0
 40
20.0
  1
△
 41
1.18
  7
EXCADVERT
 72
     3
 11
154.929482
 21
82.957437
 31
0.0
100
AcDbText
  0
LINE
  5
8C
100
AcDbEntity
  8
図枠
  6
CONTINUOUS
 62
     7
100
AcDbLine
 10
130.0
 20
55.0
 30
0.0
 11
2055.0
 21
55.0
 31
0.0
  0
LINE
  5
8D
100
AcDbEntity
  8
図枠
  6
CONTINUOUS
 62
     7
100
AcDbLine
 10
1375.0
 20
237.5
 30
0.0
 11
2055.0
 21
237.5
 31
0.0
  0
LINE
  5
8E
100
AcDbEntity
  8
図枠
  6
CONTINUOUS
 62
     7
100
AcDbLine
 10
1375.0
 20
237.5
 30
0.0
 11
1375.0
 21
55.0
 31
0.0
  0
LINE
  5
8F
100
AcDbEntity
  8
図枠
  6
CONTINUOUS
 62
     6
100
AcDbLine
 10
1375.0
 20
105.0
 30
0.0
 11
2055.0
 21
105.0
 31
0.0
  0
LINE
  5
90
100
AcDbEntity
  8
図枠
  6
CONTINUOUS
 62
     6
100
AcDbLine
 10
2055.0
 20
155.0
 30
0.0
 11
1375.0
 21
155.0
 31
0.0
  0
LINE
  5
91
100
AcDbEntity
  8
図枠
  6
CONTINUOUS
 62
     6
100
AcDbLine
 10
1890.0
 20
237.5
 30
0.0
 11
1890.0
 21
155.0
 31
0.0
  0
LINE
  5
92
100
AcDbEntity
  8
図枠
  6
CONTINUOUS
 62
     6
100
AcDbLine
 10
1953.75
 20
237.5
 30
0.0
 11
1953.75
 21
155.0
 31
0.0
  0
LINE
  5
93
100
AcDbEntity
  8
図枠
  6
CONTINUOUS
 62
     6
100
AcDbLine
 10
2055.0
 20
212.5
 30
0.0
 11
1890.0
 21
212.5
 31
0.0
  0
LINE
  5
94
100
AcDbEntity
  8
図枠
  6
CONTINUOUS
 62
     6
100
AcDbLine
 10
1755.0
 20
155.0
 30
0.0
 11
1755.0
 21
55.0
 31
0.0
  0
LINE
  5
95
100
AcDbEntity
  8
図枠
  6
CONTINUOUS
 62
     6
100
AcDbLine
 10
1780.0
 20
55.0
 30
0.0
 11
1780.0
 21
155.0
 31
0.0
  0
LINE
  5
96
100
AcDbEntity
  8
図枠
  6
CONTINUOUS
 62
     6
100
AcDbLine
 10
1400.0
 20
237.5
 30
0.0
 11
1400.0
 21
105.0
 31
0.0
  0
LINE
  5
97
100
AcDbEntity
  8
図枠
  6
CONTINUOUS
 62
     6
100
AcDbLine
 10
1755.0
 20
237.5
 30
0.0
 11
1755.0
 21
155.0
 31
0.0
  0
LINE
  5
98
100
AcDbEntity
  8
図枠
  6
CONTINUOUS
 62
     6
100
AcDbLine
 10
1730.0
 20
237.5
 30
0.0
 11
1730.0
 21
155.0
 31
0.0
  0
LINE
  5
99
100
AcDbEntity
  8
図枠
  6
CONTINUOUS
 62
     6
100
AcDbLine
 10
1552.5
 20
237.5
 30
0.0
 11
1552.5
 21
155.0
 31
0.0
  0
LINE
  5
9A
100
AcDbEntity
  8
図枠
  6
CONTINUOUS
 62
     6
100
AcDbLine
 10
1577.5
 20
237.5
 30
0.0
 11
1577.5
 21
155.0
 31
0.0
  0
LINE
  5
9B
100
AcDbEntity
  8
図枠
  6
CONTINUOUS
 62
     6
100
AcDbLine
 10
1463.75
 20
237.5
 30
0.0
 11
1463.75
 21
155.0
 31
0.0
  0
LINE
  5
9C
100
AcDbEntity
  8
図枠
  6
CONTINUOUS
 62
     6
100
AcDbLine
 10
1488.75
 20
237.5
 30
0.0
 11
1488.75
 21
155.0
 31
0.0
  0
LINE
  5
9D
100
AcDbEntity
  8
図枠
  6
CONTINUOUS
 62
     6
100
AcDbLine
 10
530.0
 20
205.0
 30
0.0
 11
530.0
 21
55.0
 31
0.0
  0
LINE
  5
9E
100
AcDbEntity
  8
図枠
  6
CONTINUOUS
 62
     6
100
AcDbLine
 10
455.0
 20
205.0
 30
0.0
 11
455.0
 21
55.0
 31
0.0
  0
LINE
  5
9F
100
AcDbEntity
  8
図枠
  6
CONTINUOUS
 62
     6
100
AcDbLine
 10
180.0
 20
205.0
 30
0.0
 11
180.0
 21
55.0
 31
0.0
  0
LINE
  5
A0
100
AcDbEntity
  8
図枠
  6
CONTINUOUS
 62
     6
100
AcDbLine
 10
355.0
 20
205.0
 30
0.0
 11
355.0
 21
55.0
 31
0.0
  0
LINE
  5
A1
100
AcDbEntity
  8
図枠
  6
CONTINUOUS
 62
     6
100
AcDbLine
 10
130.0
 20
155.0
 30
0.0
 11
580.0
 21
155.0
 31
0.0
  0
LINE
  5
A2
100
AcDbEntity
  8
図枠
  6
CONTINUOUS
 62
     6
100
AcDbLine
 10
130.0
 20
130.0
 30
0.0
 11
580.0
 21
130.0
 31
0.0
  0
LINE
  5
A3
100
AcDbEntity
  8
図枠
  6
CONTINUOUS
 62
     6
100
AcDbLine
 10
130.0
 20
105.0
 30
0.0
 11
580.0
 21
105.0
 31
0.0
  0
LINE
  5
A4
100
AcDbEntity
  8
図枠
  6
CONTINUOUS
 62
     6
100
AcDbLine
 10
130.0
 20
80.0
 30
0.0
 11
580.0
 21
80.0
 31
0.0
  0
LINE
  5
A5
100
AcDbEntity
  8
図枠
  6
CONTINUOUS
 62
     7
100
AcDbLine
 10
580.0
 20
205.0
 30
0.0
 11
580.0
 21
55.0
 31
0.0
  0
TEXT
  5
A6
100
AcDbEntity
  8
図枠
  6
CONTINUOUS
 62
     2
100
AcDbText
 10
1898.125
 20
215.0
 30
0.0
 40
20.0
  1
尺度
 41
0.9975
  7
EXCADSTD
 72
     5
 11
1941.6635
 21
215.0
 31
0.0
100
AcDbText
  0
TEXT
  5
A7
100
AcDbEntity
  8
図枠
  6
CONTINUOUS
 62
     2
100
AcDbText
 10
1968.125
 20
215.0
 30
0.0
 40
20.0
  1
投影法
 41
1.015
  7
EXCADSTD
 72
     5
 11
2040.625
 21
215.0
 31
0.0
100
AcDbText
  0
TEXT
  5
A8
100
AcDbEntity
  8
図枠
  6
CONTINUOUS
 62
     2
100
AcDbText
 10
1959.625
 20
172.5
 30
0.0
 40
22.5
  1
第３角法
 41
0.835333
  7
EXCADSTD
 72
     5
 11
2049.125
 21
172.5
 31
0.0
100
AcDbText
  0
TEXT
  5
A9
100
AcDbEntity
  8
図枠
  6
CONTINUOUS
 62
     2
100
AcDbText
 10
1387.5
 20
150.0
 30
0.0
 40
20.0
  1
品名
 41
1.125
  7
EXCADVERT
 72
     3
 11
1387.5
 21
110.0
 31
0.0
100
AcDbText
  0
TEXT
  5
AA
100
AcDbEntity
  8
図枠
  6
CONTINUOUS
 62
     2
100
AcDbText
 10
1767.5
 20
151.25
 30
0.0
 40
20.0
  1
品番
 41
1.125
  7
EXCADVERT
 72
     3
 11
1767.5
 21
108.75
 31
0.0
100
AcDbText
  0
TEXT
  5
AB
100
AcDbEntity
  8
図枠
  6
CONTINUOUS
 62
     2
100
AcDbText
 10
1767.5
 20
100.0
 30
0.0
 40
20.0
  1
図番
 41
1.125
  7
EXCADVERT
 72
     3
 11
1767.5
 21
60.0
 31
0.0
100
AcDbText
  0
TEXT
  5
AC
100
AcDbEntity
  8
図枠
  6
CONTINUOUS
 62
     2
100
AcDbText
 10
1387.5
 20
226.25
 30
0.0
 40
23.75
  1
設計
  7
EXCADVERT
 72
     3
 11
1387.5
 21
166.25
 31
0.0
100
AcDbText
  0
TEXT
  5
AD
100
AcDbEntity
  8
図枠
  6
CONTINUOUS
 62
     2
100
AcDbText
 10
1476.25
 20
226.25
 30
0.0
 40
23.75
  1
製図
  7
EXCADVERT
 72
     3
 11
1476.25
 21
166.25
 31
0.0
100
AcDbText
  0
TEXT
  5
AE
100
AcDbEntity
  8
図枠
  6
CONTINUOUS
 62
     2
100
AcDbText
 10
1565.0
 20
226.25
 30
0.0
 40
23.75
  1
写図
  7
EXCADVERT
 72
     3
 11
1565.0
 21
166.25
 31
0.0
100
AcDbText
  0
TEXT
  5
AF
100
AcDbEntity
  8
図枠
  6
CONTINUOUS
 62
     2
100
AcDbText
 10
1742.5
 20
226.25
 30
0.0
 40
23.75
  1
承認
  7
EXCADVERT
 72
     3
 11
1742.5
 21
166.25
 31
0.0
100
AcDbText
  0
TEXT
  5
B0
100
AcDbEntity
  8
図枠
  6
CONTINUOUS
 62
     2
100
AcDbText
 10
135.5
 20
57.0
 30
0.0
 40
20.0
  1
符号
 41
0.84
  7
EXCADSTD
 72
     5
 11
172.164
 21
57.0
 31
0.0
100
AcDbText
  0
TEXT
  5
B1
100
AcDbEntity
  8
図枠
  6
CONTINUOUS
 62
     2
100
AcDbText
 10
363.0
 20
57.0
 30
0.0
 40
20.0
  1
制改ＮＯ
 41
0.84
  7
EXCADSTD
 72
     5
 11
443.0
 21
57.0
 31
0.0
100
AcDbText
  0
TEXT
  5
B2
100
AcDbEntity
  8
図枠
  6
CONTINUOUS
 62
     2
100
AcDbText
 10
474.0
 20
57.0
 30
0.0
 40
20.0
  1
日付
 41
0.84
  7
EXCADSTD
 72
     5
 11
510.664
 21
57.0
 31
0.0
100
AcDbText
  0
TEXT
  5
B3
100
AcDbEntity
  8
図枠
  6
CONTINUOUS
 62
     2
100
AcDbText
 10
535.5
 20
58.0
 30
0.0
 40
20.0
  1
担当
 41
0.84
  7
EXCADSTD
 72
     5
 11
572.164
 21
58.0
 31
0.0
100
AcDbText
  0
LINE
  5
B4
100
AcDbEntity
  8
図枠
  6
CONTINUOUS
 62
     6
100
AcDbLine
 10
1907.22549
 20
168.36088
 30
0.0
 11
1938.787142
 21
200.47641
 31
0.0
  0
TEXT
  5
B5
100
AcDbEntity
  8
図枠
  6
CONTINUOUS
 62
     2
100
AcDbText
 10
1906.65
 20
180.8
 30
0.0
 40
20.0
  1
1
 41
0.5
  7
EXCADSTD
 72
     5
 11
1913.15
 21
180.8
 31
0.0
100
AcDbText
  0
TEXT
  5
B6
100
AcDbEntity
  8
図枠
  6
CONTINUOUS
 62
     2
100
AcDbText
 10
211.498006
 20
57.500067
 30
0.0
 40
20.0
  1
変更事項
 41
1.165512
  7
EXCADSTD
 72
     5
 11
322.499131
 21
57.500067
 31
0.0
100
AcDbText
  0
TEXT
  5
B7
100
AcDbEntity
  8
図枠
  6
CONTINUOUS
 62
     2
100
AcDbText
 10
621.25
 20
182.5
 30
0.0
 40
20.0
  1
寸法許容差
 41
2.037
  7
EXCADSTD
 72
     5
 11
863.75
 21
182.5
 31
0.0
100
AcDbText
  0
TEXT
  5
B8
100
AcDbEntity
  8
図枠
  6
CONTINUOUS
 62
     2
100
AcDbText
 10
832.375
 20
159.0
 30
0.0
 40
17.5
  1
^J
 41
0.0
  7
EXCADSTD
 72
     5
 11
832.375
 21
159.0
 31
0.0
100
AcDbText
  0
TEXT
  5
B9
100
AcDbEntity
  8
図枠
  6
CONTINUOUS
 62
     2
100
AcDbText
 10
825.125
 20
168.625
 30
0.0
 40
7.875
  1
＋
 41
0.84
  7
EXCADSTD
 72
     5
 11
831.425
 21
168.625
 31
0.0
100
AcDbText
  0
TEXT
  5
BA
100
AcDbEntity
  8
図枠
  6
CONTINUOUS
 62
     2
100
AcDbText
 10
830.375
 20
159.0
 30
0.0
 40
7.875
  1
－
 41
0.84
  7
EXCADSTD
 72
     5
 11
836.675
 21
159.0
 31
0.0
100
AcDbText
  0
TEXT
  5
BB
100
AcDbEntity
  8
図枠
  6
CONTINUOUS
 62
     2
100
AcDbText
 10
836.25
 20
159.0
 30
0.0
 40
17.5
  1
２ｍｍ
 41
0.712
  7
EXCADSTD
 72
     5
 11
880.75
 21
159.0
 31
0.0
100
AcDbText
  0
TEXT
  5
BC
100
AcDbEntity
  8
図枠
  6
CONTINUOUS
 62
     2
100
AcDbText
 10
595.0
 20
160.0
 30
0.0
 40
15.0
  1
４０ｍｍ以下
 41
0.84
  7
EXCADSTD
 72
     5
 11
685.0
 21
160.0
 31
0.0
100
AcDbText
  0
TEXT
  5
BD
100
AcDbEntity
  8
図枠
  6
CONTINUOUS
 62
     2
100
AcDbText
 10
595.0
 20
85.0
 30
0.0
 40
15.0
  1
１５１ｍｍ以上
 41
0.84
  7
EXCADSTD
 72
     5
 11
700.0
 21
85.0
 31
0.0
100
AcDbText
  0
TEXT
  5
BE
100
AcDbEntity
  8
図枠
  6
CONTINUOUS
 62
     2
100
AcDbText
 10
827.875
 20
143.625
 30
0.0
 40
7.875
  1
＋
 41
0.84
  7
EXCADSTD
 72
     5
 11
834.175
 21
143.625
 31
0.0
100
AcDbText
  0
TEXT
  5
BF
100
AcDbEntity
  8
図枠
  6
CONTINUOUS
 62
     2
100
AcDbText
 10
833.125
 20
134.0
 30
0.0
 40
7.875
  1
－
 41
0.84
  7
EXCADSTD
 72
     5
 11
839.425
 21
134.0
 31
0.0
100
AcDbText
  0
TEXT
  5
C0
100
AcDbEntity
  8
図枠
  6
CONTINUOUS
 62
     2
100
AcDbText
 10
839.0
 20
134.0
 30
0.0
 40
17.5
  1
５％
 41
0.744
  7
EXCADSTD
 72
     5
 11
867.4146
 21
134.0
 31
0.0
100
AcDbText
  0
TEXT
  5
C1
100
AcDbEntity
  8
図枠
  6
CONTINUOUS
 62
     2
100
AcDbText
 10
827.375
 20
117.625
 30
0.0
 40
7.875
  1
＋
 41
0.84
  7
EXCADSTD
 72
     5
 11
833.675
 21
117.625
 31
0.0
100
AcDbText
  0
TEXT
  5
C2
100
AcDbEntity
  8
図枠
  6
CONTINUOUS
 62
     2
100
AcDbText
 10
832.625
 20
108.0
 30
0.0
 40
7.875
  1
－
 41
0.84
  7
EXCADSTD
 72
     5
 11
838.925
 21
108.0
 31
0.0
100
AcDbText
  0
TEXT
  5
C3
100
AcDbEntity
  8
図枠
  6
CONTINUOUS
 62
     2
100
AcDbText
 10
838.5
 20
108.0
 30
0.0
 40
17.5
  1
４％
 41
0.744
  7
EXCADSTD
 72
     5
 11
866.9146
 21
108.0
 31
0.0
100
AcDbText
  0
TEXT
  5
C4
100
AcDbEntity
  8
図枠
  6
CONTINUOUS
 62
     2
100
AcDbText
 10
827.375
 20
92.625
 30
0.0
 40
7.875
  1
＋
 41
0.84
  7
EXCADSTD
 72
     5
 11
833.675
 21
92.625
 31
0.0
100
AcDbText
  0
TEXT
  5
C5
100
AcDbEntity
  8
図枠
  6
CONTINUOUS
 62
     2
100
AcDbText
 10
832.625
 20
83.0
 30
0.0
 40
7.875
  1
－
 41
0.84
  7
EXCADSTD
 72
     5
 11
838.925
 21
83.0
 31
0.0
100
AcDbText
  0
TEXT
  5
C6
100
AcDbEntity
  8
図枠
  6
CONTINUOUS
 62
     2
100
AcDbText
 10
838.5
 20
83.0
 30
0.0
 40
17.5
  1
３％
 41
0.744
  7
EXCADSTD
 72
     5
 11
866.9146
 21
83.0
 31
0.0
100
AcDbText
  0
LINE
  5
C7
100
AcDbEntity
  8
図枠
  6
CONTINUOUS
 62
     7
100
AcDbLine
 10
905.0
 20
205.0
 30
0.0
 11
905.0
 21
55.0
 31
0.0
  0
LINE
  5
C8
100
AcDbEntity
  8
図枠
  6
CONTINUOUS
 62
     6
100
AcDbLine
 10
130.0
 20
180.0
 30
0.0
 11
905.0
 21
180.0
 31
0.0
  0
LINE
  5
C9
100
AcDbEntity
  8
図枠
  6
CONTINUOUS
 62
     7
100
AcDbLine
 10
130.0
 20
205.0
 30
0.0
 11
905.0
 21
205.0
 31
0.0
  0
TEXT
  5
CA
100
AcDbEntity
  8
図枠
  6
CONTINUOUS
 62
     6
100
AcDbText
 10
154.929482
 20
177.957437
 30
0.0
 40
20.0
  1
△
 41
1.18
  7
EXCADVERT
 72
     3
 11
154.929482
 21
157.957437
 31
0.0
100
AcDbText
  0
TEXT
  5
CB
100
AcDbEntity
  8
図枠
  6
CONTINUOUS
 62
     6
100
AcDbText
 10
154.929482
 20
202.957437
 30
0.0
 40
20.0
  1
△
 41
1.18
  7
EXCADVERT
 72
     3
 11
154.929482
 21
182.957437
 31
0.0
100
AcDbText
  0
TEXT
  5
CC
100
AcDbEntity
  8
図枠
  6
CONTINUOUS
 62
     2
100
AcDbText
 10
1927.65
 20
165.8
 30
0.0
 40
20.0
  1
５
 41
0.84
  7
EXCADSTD
 72
     5
 11
1943.65
 21
165.8
 31
0.0
100
AcDbText
  0
LINE
  5
CD
100
AcDbEntity
  8
図枠
  6
CONTINUOUS
 62
     6
100
AcDbLine
 10
1641.25
 20
237.5
 30
0.0
 11
1641.25
 21
155.0
 31
0.0
  0
LINE
  5
CE
100
AcDbEntity
  8
図枠
  6
CONTINUOUS
 62
     6
100
AcDbLine
 10
1666.25
 20
237.5
 30
0.0
 11
1666.25
 21
155.0
 31
0.0
  0
TEXT
  5
CF
100
AcDbEntity
  8
図枠
  6
CONTINUOUS
 62
     2
100
AcDbText
 10
1653.75
 20
226.25
 30
0.0
 40
23.75
  1
検図
  7
EXCADVERT
 72
     3
 11
1653.75
 21
166.25
 31
0.0
100
AcDbText
  0
TEXT
  5
D0
100
AcDbEntity
  8
図枠
  6
CONTINUOUS
 62
     2
100
AcDbText
 10
595.0
 20
135.0
 30
0.0
 40
15.0
  1
４１ｍｍ以上５０ｍｍまで
 41
0.84
  7
EXCADSTD
 72
     5
 11
775.0
 21
135.0
 31
0.0
100
AcDbText
  0
TEXT
  5
D1
100
AcDbEntity
  8
図枠
  6
CONTINUOUS
 62
     2
100
AcDbText
 10
595.0
 20
110.0
 30
0.0
 40
15.0
  1
５１ｍｍ以上１５０ｍｍまで
 41
0.84
  7
EXCADSTD
 72
     5
 11
790.0
 21
110.0
 31
0.0
100
AcDbText
  0
TEXT
  5
D2
100
AcDbEntity
  8
図枠
  6
CONTINUOUS
 62
     2
100
AcDbText
 10
589.0
 20
60.0
 30
0.0
 40
15.0
  1
１ｍｍ未満は切上げ、最大は２５ｍｍとする。
 41
0.8
  7
EXCADSTD
 72
     5
 11
888.999999
 21
60.0
 31
0.0
100
AcDbText
  0
CIRCLE
  5
D3
100
AcDbEntity
  8
図枠
  6
CONTINUOUS
 62
     6
100
AcDbCircle
 10
505.0
 20
92.5
 30
0.0
 40
0.5
  0
CIRCLE
  5
D4
100
AcDbEntity
  8
図枠
  6
CONTINUOUS
 62
     6
100
AcDbCircle
 10
480.0
 20
92.5
 30
0.0
 40
0.5
  0
CIRCLE
  5
D5
100
AcDbEntity
  8
図枠
  6
CONTINUOUS
 62
     6
100
AcDbCircle
 10
505.0
 20
117.5
 30
0.0
 40
0.5
  0
CIRCLE
  5
D6
100
AcDbEntity
  8
図枠
  6
CONTINUOUS
 62
     6
100
AcDbCircle
 10
480.0
 20
117.5
 30
0.0
 40
0.5
  0
CIRCLE
  5
D7
100
AcDbEntity
  8
図枠
  6
CONTINUOUS
 62
     6
100
AcDbCircle
 10
505.0
 20
142.5
 30
0.0
 40
0.5
  0
CIRCLE
  5
D8
100
AcDbEntity
  8
図枠
  6
CONTINUOUS
 62
     6
100
AcDbCircle
 10
480.0
 20
142.5
 30
0.0
 40
0.5
  0
CIRCLE
  5
D9
100
AcDbEntity
  8
図枠
  6
CONTINUOUS
 62
     6
100
AcDbCircle
 10
505.0
 20
167.5
 30
0.0
 40
0.5
  0
CIRCLE
  5
DA
100
AcDbEntity
  8
図枠
  6
CONTINUOUS
 62
     6
100
AcDbCircle
 10
480.0
 20
167.5
 30
0.0
 40
0.5
  0
CIRCLE
  5
DB
100
AcDbEntity
  8
図枠
  6
CONTINUOUS
 62
     6
100
AcDbCircle
 10
505.0
 20
192.5
 30
0.0
 40
0.5
  0
CIRCLE
  5
DC
100
AcDbEntity
  8
図枠
  6
CONTINUOUS
 62
     6
100
AcDbCircle
 10
480.0
 20
192.5
 30
0.0
 40
0.5
  0
CIRCLE
  5
DD
100
AcDbEntity
  8
図枠
  6
CONTINUOUS
 62
     6
100
AcDbCircle
 10
505.0
 20
92.5
 30
0.0
 40
0.5
  0
CIRCLE
  5
DE
100
AcDbEntity
  8
図枠
  6
CONTINUOUS
 62
     6
100
AcDbCircle
 10
480.0
 20
92.5
 30
0.0
 40
0.5
  0
LINE
  5
DF
100
AcDbEntity
  8
図枠
  6
CONTINUOUS
 62
     6
100
AcDbLine
 10
914.0
 20
79.0
 30
0.0
 11
1365.0
 21
79.0
 31
0.0
  0
TEXT
  5
E0
100
AcDbEntity
  8
図枠
  6
CONTINUOUS
 62
     2
100
AcDbText
 10
916.5
 20
82.35
 30
0.0
 40
20.0
  1
注１．外観・寸法・性能及び品質は、別途定める製品規格による。
 41
0.6356
  7
EXCADSTD
 72
     5
 11
1370.499991
 21
82.35
 31
0.0
100
AcDbText
  0
TEXT
  5
E1
100
AcDbEntity
  8
図枠
  6
CONTINUOUS
 62
     2
100
AcDbText
 10
916.5
 20
110.7
 30
0.0
 40
20.0
  1
注２．(　)内寸法は参考寸法を表わす。
 41
0.608809
  7
EXCADSTD
 72
     5
 11
1186.499995
 21
110.7
 31
0.0
100
AcDbText
  0
TEXT
  5
E2
100
AcDbEntity
  8
図枠
  6
CONTINUOUS
 62
     2
100
AcDbText
 10
1424.25
 20
113.5
 30
0.0
 40
30.0
  1
丸形洗面器
 41
0.91
  7
EXCADSTD
 72
     5
 11
1586.75
 21
113.5
 31
0.0
100
AcDbText
  0
LINE
  5
E3
100
AcDbEntity
  8
図枠
  6
CONTINUOUS
 62
     6
100
AcDbLine
 10
914.0
 20
107.35
 30
0.0
 11
1365.0
 21
107.35
 31
0.0
  0
LINE
  5
E4
100
AcDbEntity
  8
図枠
  6
CONTINUOUS
 62
     6
100
AcDbLine
 10
914.0
 20
135.7
 30
0.0
 11
1365.0
 21
135.7
 31
0.0
  0
CIRCLE
  5
E5
100
AcDbEntity
  8
図枠
  6
CONTINUOUS
 62
     6
100
AcDbCircle
 10
1511.4
 20
164.65
 30
0.0
 40
0.5
  0
CIRCLE
  5
E6
100
AcDbEntity
  8
図枠
  6
CONTINUOUS
 62
     6
100
AcDbCircle
 10
1530.35
 20
164.65
 30
0.0
 40
0.5
  0
TEXT
  5
E7
100
AcDbEntity
  8
図枠
  6
CONTINUOUS
 62
     2
100
AcDbText
 10
1500.125
 20
194.75
 30
0.0
 40
20.0
  1
間瀬
 41
0.861
  7
EXCADSTD
 72
     5
 11
1537.7056
 21
194.75
 31
0.0
100
AcDbText
  0
LINE
  5
E8
100
AcDbEntity
  8
図枠
  6
CONTINUOUS
 62
     6
100
AcDbLine
 10
-2173.154856
 20
1175.0
 30
0.0
 11
-1595.654856
 21
1175.0
 31
0.0
  0
TEXT
  5
E9
100
AcDbEntity
  8
図枠
  6
CONTINUOUS
 62
     2
100
AcDbText
 10
1770.625
 20
194.75
 30
0.0
 40
20.0
  1
古林
 41
0.861
  7
EXCADSTD
 72
     5
 11
1808.2056
 21
194.75
 31
0.0
100
AcDbText
  0
DIMENSION
  5
F4
100
AcDbEntity
  8
図枠
  6
CONTINUOUS
 62
     3
100
AcDbDimension
  2
*D14
 10
768.358637
 20
1136.054063
 30
0.0
 11
330.515969
 21
889.197607
 31
0.0
 70
   163
  3
STANDARD
100
AcDbDiametricDimension
 15
381.641363
 25
905.945937
 35
0.0
 40
0.0
1001
ACAD
1000
DSTYLE
1002
{
1070
     6
1000
_EX_NORM
1070
     7
1000
_EX_NORM
1070
    41
1040
15.0
1070
    73
1070
     0
1070
    74
1070
     0
1070
    77
1070
     1
1070
    78
1070
     8
1070
   140
1040
20.0
1070
   147
1040
1.75
1070
   173
1070
     1
1070
   176
1070
     3
1070
   177
1070
     3
1070
   178
1070
     2
1070
   271
1070
     2
1070
   279
1070
     2
1070
   280
1070
     1
1070
   287
1070
     3
1070
   340
1005
F3
1002
}
  0
TEXT
  5
F5
100
AcDbEntity
  8
図枠
  6
CONTINUOUS
 62
     2
100
AcDbText
 10
1839.55231
 20
280.430584
 30
0.0
 40
25.0
  1
容量２.５Ｌ
 41
0.801667
  7
EXCADSTD
 72
     5
 11
1978.30231
 21
280.430584
 31
0.0
100
AcDbText
  0
LINE
  5
F6
100
AcDbEntity
  8
図枠
  6
CONTINUOUS
 62
     6
100
AcDbLine
 10
1838.5
 20
272.5
 30
0.0
 11
1974.0
 21
272.5
 31
0.0
  0
LINE
  5
F7
100
AcDbEntity
  8
図枠
  6
CONTINUOUS
 62
     6
100
AcDbLine
 10
1838.5
 20
277.5
 30
0.0
 11
1974.0
 21
277.5
 31
0.0
  0
TEXT
  5
F8
100
AcDbEntity
  8
図枠
  6
CONTINUOUS
 62
     6
100
AcDbText
 10
1489.672058
 20
158.125037
 30
0.0
 40
12.5
  1
２０
 41
0.7392
  7
EXCADSTD
 72
     5
 11
1509.837257
 21
158.125037
 31
0.0
100
AcDbText
  0
TEXT
  5
F9
100
AcDbEntity
  8
図枠
  6
CONTINUOUS
 62
     2
100
AcDbText
 10
1677.625
 20
194.75
 30
0.0
 40
20.0
  1
井澤
 41
0.861
  7
EXCADSTD
 72
     5
 11
1715.2056
 21
194.75
 31
0.0
100
AcDbText
  0
TEXT
  5
FA
100
AcDbEntity
  8
図枠
  6
CONTINUOUS
 62
     2
100
AcDbText
 10
1836.7
 20
114.2
 30
0.0
 40
30.0
  1
Ｌ４５５ＣＦ
 41
0.816667
  7
EXCADSTD
 72
     5
 11
2011.7
 21
114.2
 31
0.0
100
AcDbText
  0
TEXT
  5
FB
100
AcDbEntity
  8
図枠
  6
CONTINUOUS
 62
     6
100
AcDbText
 10
1514.222058
 20
158.325037
 30
0.0
 40
12.5
  1
３
 41
0.8736
  7
EXCADSTD
 72
     5
 11
1524.622058
 21
158.325037
 31
0.0
100
AcDbText
  0
TEXT
  5
FC
100
AcDbEntity
  8
図枠
  6
CONTINUOUS
 62
     6
100
AcDbText
 10
1534.622058
 20
158.075037
 30
0.0
 40
12.5
  1
７
 41
0.8736
  7
EXCADSTD
 72
     5
 11
1545.022058
 21
158.075037
 31
0.0
100
AcDbText
  0
TEXT
  5
FD
100
AcDbEntity
  8
図枠
  6
CONTINUOUS
 62
     2
100
AcDbText
 10
357.5
 20
82.5
 30
0.0
 40
20.0
  1
０７－１２９
 41
0.665
  7
EXCADSTD
 72
     5
 11
452.5
 21
82.5
 31
0.0
100
AcDbText
  0
TEXT
  5
FE
100
AcDbEntity
  8
図枠
  6
CONTINUOUS
 62
     2
100
AcDbText
 10
916.5
 20
139.05
 30
0.0
 40
20.0
  1
注３．ロゴマーク・品番及び色番の表示は無しとする。
 41
0.63672
  7
EXCADSTD
 72
     5
 11
1295.499993
 21
139.05
 31
0.0
100
AcDbText
  0
TEXT
  5
FF
100
AcDbEntity
  8
図枠
  6
CONTINUOUS
 62
     6
100
AcDbText
 10
965.929482
 20
179.257437
 30
0.0
 40
20.0
  1
△
 41
1.18
  7
EXCADVERT
 72
     3
 11
965.929482
 21
159.257437
 31
0.0
100
AcDbText
  0
TEXT
  5
100
100
AcDbEntity
  8
図枠
  6
CONTINUOUS
 62
     2
100
AcDbText
 10
959.5
 20
162.05
 30
0.0
 40
12.5
  1
１
 41
0.672
  7
EXCADSTD
 72
     5
 11
967.5
 21
162.05
 31
0.0
100
AcDbText
  0
TEXT
  5
101
100
AcDbEntity
  8
図枠
  6
CONTINUOUS
 62
     2
100
AcDbText
 10
148.6
 20
110.8
 30
0.0
 40
12.5
  1
１
 41
0.672
  7
EXCADSTD
 72
     5
 11
156.6
 21
110.8
 31
0.0
100
AcDbText
  0
TEXT
  5
102
100
AcDbEntity
  8
図枠
  6
CONTINUOUS
 62
     6
100
AcDbText
 10
200.644661
 20
412.757437
 30
0.0
 40
20.0
  1
△
 41
1.18
  7
EXCADVERT
 72
     3
 11
200.644661
 21
392.757437
 31
0.0
100
AcDbText
  0
TEXT
  5
103
100
AcDbEntity
  8
図枠
  6
CONTINUOUS
 62
     2
100
AcDbText
 10
194.215179
 20
395.55
 30
0.0
 40
12.5
  1
１
 41
0.672
  7
EXCADSTD
 72
     5
 11
202.215179
 21
395.55
 31
0.0
100
AcDbText
  0
TEXT
  5
104
100
AcDbEntity
  8
図枠
  6
CONTINUOUS
 62
     2
100
AcDbText
 10
180.498006
 20
107.500067
 30
0.0
 40
20.0
  1
ジャニスシール・陶器注意シール貼付
 41
0.429882
  7
EXCADSTD
 72
     5
 11
354.498001
 21
107.500067
 31
0.0
100
AcDbText
  0
TEXT
  5
106
100
AcDbEntity
  8
図枠
  6
CONTINUOUS
 62
     2
100
AcDbText
 10
1415.0
 20
65.0
 30
0.0
 40
22.5
  1
ジャニス工業株式会社
  7
EXCADTTF1
 72
     5
 11
1715.0
 21
65.0
 31
0.0
100
AcDbText
  0
TEXT
  5
107
100
AcDbEntity
  8
図枠
  6
CONTINUOUS
 62
     6
100
AcDbText
 10
262.429482
 20
1270.257437
 30
0.0
 40
20.0
  1
△
 41
1.18
  7
EXCADVERT
 72
     3
 11
262.429482
 21
1250.257437
 31
0.0
100
AcDbText
  0
TEXT
  5
108
100
AcDbEntity
  8
図枠
  6
CONTINUOUS
 62
     2
100
AcDbText
 10
256.0
 20
1253.05
 30
0.0
 40
12.5
  1
１
 41
0.672
  7
EXCADSTD
 72
     5
 11
264.0
 21
1253.05
 31
0.0
100
AcDbText
  0
TEXT
  5
109
100
AcDbEntity
  8
図枠
  6
CONTINUOUS
 62
     2
100
AcDbText
 10
357.5
 20
107.5
 30
0.0
 40
20.0
  1
０７－１２９
 41
0.665
  7
EXCADSTD
 72
     5
 11
452.5
 21
107.5
 31
0.0
100
AcDbText
  0
TEXT
  5
10A
100
AcDbEntity
  8
図枠
  6
CONTINUOUS
 62
     2
100
AcDbText
 10
458.45
 20
107.15
 30
0.0
 40
20.0
  1
20
 41
0.5
  7
EXCADSTD
 72
     5
 11
474.45
 21
107.15
 31
0.0
100
AcDbText
  0
TEXT
  5
10B
100
AcDbEntity
  8
図枠
  6
CONTINUOUS
 62
     2
100
AcDbText
 10
488.0
 20
107.15
 30
0.0
 40
20.0
  1
5
 41
0.5
  7
EXCADSTD
 72
     5
 11
494.5
 21
107.15
 31
0.0
100
AcDbText
  0
TEXT
  5
10C
100
AcDbEntity
  8
図枠
  6
CONTINUOUS
 62
     2
100
AcDbText
 10
506.9
 20
107.15
 30
0.0
 40
20.0
  1
23
 41
0.5
  7
EXCADSTD
 72
     5
 11
522.9
 21
107.15
 31
0.0
100
AcDbText
  0
TEXT
  5
10D
100
AcDbEntity
  8
図枠
  6
CONTINUOUS
 62
     2
100
AcDbText
 10
535.5
 20
108.0
 30
0.0
 40
20.0
  1
間瀬
 41
0.84
  7
EXCADSTD
 72
     5
 11
572.164
 21
108.0
 31
0.0
100
AcDbText
  0
TEXT
  5
10E
100
AcDbEntity
  8
図枠
  6
CONTINUOUS
 62
     7
100
AcDbText
 10
1804.5
 20
64.5
 30
0.0
 40
30.0
  1
１３５２９４０
 41
0.91
  7
EXCADSTD
 72
     5
 11
2032.0
 21
64.5
 31
0.0
100
AcDbText
  0
DIMENSION
  5
117
100
AcDbEntity
  8
図
  6
CONTINUOUS
 62
     3
100
AcDbDimension
  2
*D15
 10
1580.916878
 20
1719.5
 30
0.0
 11
1628.743623
 21
1789.226403
 31
0.0
 70
   164
  3
STANDARD
100
AcDbRadialDimension
 15
1607.557755
 25
1748.639657
 35
0.0
 40
0.0
1001
ACAD
1000
DSTYLE
1002
{
1070
     6
1000
_EX_NORM
1070
     7
1000
_EX_NORM
1070
    41
1040
15.0
1070
    73
1070
     0
1070
    74
1070
     0
1070
    77
1070
     1
1070
    78
1070
     8
1070
   140
1040
20.0
1070
   147
1040
1.75
1070
   173
1070
     1
1070
   176
1070
     3
1070
   177
1070
     3
1070
   178
1070
     2
1070
   271
1070
     2
1070
   279
1070
     2
1070
   280
1070
     1
1070
   287
1070
     3
1070
   340
1005
116
1002
}
  0
DIMENSION
  5
11F
100
AcDbEntity
  8
図
  6
CONTINUOUS
 62
     3
100
AcDbDimension
  2
*D16
 10
1324.93931
 20
1719.5
 30
0.0
 11
1365.570973
 21
1788.402574
 31
0.0
 70
   164
  3
STANDARD
100
AcDbRadialDimension
 15
1346.873529
 25
1746.611061
 35
0.0
 40
0.0
1001
ACAD
1000
DSTYLE
1002
{
1070
     6
1000
_EX_NORM
1070
     7
1000
_EX_NORM
1070
    41
1040
15.0
1070
    73
1070
     0
1070
    74
1070
     0
1070
    77
1070
     1
1070
    78
1070
     8
1070
   140
1040
20.0
1070
   147
1040
1.75
1070
   173
1070
     1
1070
   176
1070
     3
1070
   177
1070
     3
1070
   178
1070
     2
1070
   271
1070
     2
1070
   279
1070
     2
1070
   280
1070
     1
1070
   287
1070
     3
1070
   340
1005
116
1002
}
  0
DIMENSION
  5
127
100
AcDbEntity
  8
図
  6
CONTINUOUS
 62
     3
100
AcDbDimension
  2
*D17
 10
1915.135463
 20
1719.5
 30
0.0
 11
1957.37585
 21
1793.487194
 31
0.0
 70
   164
  3
STANDARD
100
AcDbRadialDimension
 15
1939.64946
 25
1751.274635
 35
0.0
 40
0.0
1001
ACAD
1000
DSTYLE
1002
{
1070
     6
1000
_EX_NORM
1070
     7
1000
_EX_NORM
1070
    41
1040
15.0
1070
    73
1070
     0
1070
    74
1070
     0
1070
    77
1070
     1
1070
    78
1070
     8
1070
   140
1040
20.0
1070
   147
1040
1.75
1070
   173
1070
     1
1070
   176
1070
     3
1070
   177
1070
     3
1070
   178
1070
     2
1070
   271
1070
     2
1070
   279
1070
     2
1070
   280
1070
     1
1070
   287
1070
     3
1070
   340
1005
116
1002
}
  0
DIMENSION
  5
133
100
AcDbEntity
  8
図
  6
CONTINUOUS
 62
     3
100
AcDbDimension
  2
*D18
 10
1385.858067
 20
1921.381098
 30
0.0
 11
1400.682269
 21
1970.557368
 31
0.0
 70
   161
  3
STANDARD
100
AcDbAlignedDimension
 13
1324.93931
 23
1924.5
 33
0.0
 14
1338.818475
 24
1948.539419
 34
0.0
1001
ACAD
1000
DSTYLE
1002
{
1070
     6
1000
_EX_NORM
1070
     7
1000
_EX_NORM
1070
    41
1040
15.0
1070
    42
1040
2.5
1070
    44
1040
5.0
1070
    73
1070
     0
1070
    74
1070
     0
1070
    75
1070
     0
1070
    76
1070
     0
1070
    77
1070
     1
1070
    78
1070
     8
1070
   140
1040
20.0
1070
   147
1040
1.75
1070
   173
1070
     1
1070
   176
1070
     3
1070
   177
1070
     3
1070
   178
1070
     2
1070
   271
1070
     2
1070
   279
1070
     2
1070
   280
1070
     2
1070
   287
1070
     5
1070
   340
1005
116
1002
}
  0
DIMENSION
  5
13F
100
AcDbEntity
  8
図
  6
CONTINUOUS
 62
     3
100
AcDbDimension
  2
*D19
 10
1651.148626
 20
1907.145269
 30
0.0
 11
1665.972828
 21
1956.321539
 31
0.0
 70
   161
  3
STANDARD
100
AcDbAlignedDimension
 13
1580.916878
 23
1924.5
 33
0.0
 14
1590.959996
 24
1941.895191
 34
0.0
1001
ACAD
1000
DSTYLE
1002
{
1070
     6
1000
_EX_NORM
1070
     7
1000
_EX_NORM
1070
    41
1040
15.0
1070
    42
1040
2.5
1070
    44
1040
5.0
1070
    73
1070
     0
1070
    74
1070
     0
1070
    75
1070
     0
1070
    76
1070
     0
1070
    77
1070
     1
1070
    78
1070
     8
1070
   140
1040
20.0
1070
   147
1040
1.75
1070
   173
1070
     1
1070
   176
1070
     3
1070
   177
1070
     3
1070
   178
1070
     2
1070
   271
1070
     2
1070
   279
1070
     2
1070
   280
1070
     2
1070
   287
1070
     5
1070
   340
1005
116
1002
}
  0
DIMENSION
  5
14B
100
AcDbEntity
  8
図
  6
CONTINUOUS
 62
     3
100
AcDbDimension
  2
*D20
 10
1982.597605
 20
1918.922922
 30
0.0
 11
1993.671806
 21
1961.604002
 31
0.0
 70
   161
  3
STANDARD
100
AcDbAlignedDimension
 13
1915.135463
 23
1924.5
 33
0.0
 14
1929.586053
 24
1949.529156
 34
0.0
1001
ACAD
1000
DSTYLE
1002
{
1070
     6
1000
_EX_NORM
1070
     7
1000
_EX_NORM
1070
    41
1040
15.0
1070
    42
1040
2.5
1070
    44
1040
5.0
1070
    73
1070
     0
1070
    74
1070
     0
1070
    75
1070
     0
1070
    76
1070
     0
1070
    77
1070
     1
1070
    78
1070
     8
1070
   140
1040
20.0
1070
   147
1040
1.75
1070
   173
1070
     1
1070
   176
1070
     3
1070
   177
1070
     3
1070
   178
1070
     2
1070
   271
1070
     2
1070
   279
1070
     2
1070
   280
1070
     2
1070
   287
1070
     5
1070
   340
1005
116
1002
}
  0
LINE
  5
14C
100
AcDbEntity
  8
図
  6
CONTINUOUS
 62
     7
100
AcDbLine
 10
1303.0
 20
1719.5
 30
0.0
 11
1313.969655
 21
1738.5
 31
0.0
  0
LINE
  5
14D
100
AcDbEntity
  8
図
  6
CONTINUOUS
 62
     7
100
AcDbLine
 10
1308.196152
 20
1748.5
 30
0.0
 11
1293.0
 21
1733.5
 31
0.0
  0
LINE
  5
14E
100
AcDbEntity
  8
図
  6
CONTINUOUS
 62
     7
100
AcDbLine
 10
1336.0
 20
1738.5
 30
0.0
 11
1330.226497
 21
1748.5
 31
0.0
  0
LINE
  5
14F
100
AcDbEntity
  8
図
  6
CONTINUOUS
 62
     7
100
AcDbLine
 10
1308.196152
 20
1748.5
 30
0.0
 11
1330.226497
 21
1748.5
 31
0.0
  0
LINE
  5
150
100
AcDbEntity
  8
図
  6
CONTINUOUS
 62
     7
100
AcDbLine
 10
1303.0
 20
1719.5
 30
0.0
 11
1313.969655
 21
1700.5
 31
0.0
  0
LINE
  5
151
100
AcDbEntity
  8
図
  6
CONTINUOUS
 62
     7
100
AcDbLine
 10
1308.196152
 20
1690.5
 30
0.0
 11
1293.0
 21
1705.5
 31
0.0
  0
LINE
  5
152
100
AcDbEntity
  8
図
  6
CONTINUOUS
 62
     7
100
AcDbLine
 10
1336.0
 20
1700.5
 30
0.0
 11
1330.226497
 21
1690.5
 31
0.0
  0
LINE
  5
153
100
AcDbEntity
  8
図
  6
CONTINUOUS
 62
     7
100
AcDbLine
 10
1308.196152
 20
1690.5
 30
0.0
 11
1330.226497
 21
1690.5
 31
0.0
  0
LINE
  5
154
100
AcDbEntity
  8
図
  6
CONTINUOUS
 62
     7
100
AcDbLine
 10
1293.0
 20
1733.5
 30
0.0
 11
1293.0
 21
1705.5
 31
0.0
  0
LINE
  5
155
100
AcDbEntity
  8
図
  6
CONTINUOUS
 62
     7
100
AcDbLine
 10
1313.969655
 20
1738.5
 30
0.0
 11
1336.0
 21
1738.5
 31
0.0
  0
LINE
  5
156
100
AcDbEntity
  8
図
  6
CONTINUOUS
 62
     7
100
AcDbLine
 10
1313.969655
 20
1700.5
 30
0.0
 11
1336.0
 21
1700.5
 31
0.0
  0
CIRCLE
  5
157
100
AcDbEntity
  8
図
  6
CONTINUOUS
 62
     7
100
AcDbCircle
 10
1324.93931
 20
1719.5
 30
0.0
 40
19.0
  0
CIRCLE
  5
158
100
AcDbEntity
  8
図
  6
CONTINUOUS
 62
     7
100
AcDbCircle
 10
1324.93931
 20
1719.5
 30
0.0
 40
34.872905
  0
LINE
  5
159
100
AcDbEntity
  8
図
  6
CONTINUOUS
 62
     7
100
AcDbLine
 10
1346.87862
 20
1719.5
 30
0.0
 11
1335.908965
 21
1738.5
 31
0.0
  0
LINE
  5
15A
100
AcDbEntity
  8
図
  6
CONTINUOUS
 62
     7
100
AcDbLine
 10
1346.87862
 20
1719.5
 30
0.0
 11
1335.908965
 21
1700.5
 31
0.0
  0
LINE
  5
15B
100
AcDbEntity
  8
図
  6
CONTINUOUS
 62
     7
100
AcDbLine
 10
1501.7
 20
1731.5
 30
0.0
 11
1501.7
 21
1731.0
 31
0.0
  0
LINE
  5
15C
100
AcDbEntity
  8
図
  6
CONTINUOUS
 62
     7
100
AcDbLine
 10
1501.7
 20
1731.5
 30
0.0
 11
1516.7
 21
1731.5
 31
0.0
  0
LINE
  5
15D
100
AcDbEntity
  8
図
  6
CONTINUOUS
 62
     7
100
AcDbLine
 10
1472.0
 20
1733.5
 30
0.0
 11
1476.64767
 21
1741.55
 31
0.0
  0
LINE
  5
15E
100
AcDbEntity
  8
図
  6
CONTINUOUS
 62
     7
100
AcDbLine
 10
1482.0
 20
1719.5
 30
0.0
 11
1488.639528
 21
1731.0
 31
0.0
  0
LINE
  5
15F
100
AcDbEntity
  8
図
  6
CONTINUOUS
 62
     7
100
AcDbLine
 10
1501.7
 20
1707.5
 30
0.0
 11
1501.7
 21
1708.0
 31
0.0
  0
LINE
  5
160
100
AcDbEntity
  8
図
  6
CONTINUOUS
 62
     7
100
AcDbLine
 10
1501.7
 20
1707.5
 30
0.0
 11
1516.7
 21
1707.5
 31
0.0
  0
LINE
  5
161
100
AcDbEntity
  8
図
  6
CONTINUOUS
 62
     7
100
AcDbLine
 10
1472.0
 20
1705.5
 30
0.0
 11
1476.64767
 21
1697.45
 31
0.0
  0
LINE
  5
162
100
AcDbEntity
  8
図
  6
CONTINUOUS
 62
     7
100
AcDbLine
 10
1482.0
 20
1719.5
 30
0.0
 11
1488.639528
 21
1708.0
 31
0.0
  0
LINE
  5
163
100
AcDbEntity
  8
図
  6
CONTINUOUS
 62
     7
100
AcDbLine
 10
1488.639528
 20
1708.0
 30
0.0
 11
1501.7
 21
1708.0
 31
0.0
  0
LINE
  5
164
100
AcDbEntity
  8
図
  6
CONTINUOUS
 62
     7
100
AcDbLine
 10
1472.0
 20
1705.5
 30
0.0
 11
1472.0
 21
1733.5
 31
0.0
  0
LINE
  5
165
100
AcDbEntity
  8
図
  6
CONTINUOUS
 62
     7
100
AcDbLine
 10
1516.7
 20
1731.5
 30
0.0
 11
1510.89763
 21
1741.55
 31
0.0
  0
LINE
  5
166
100
AcDbEntity
  8
図
  6
CONTINUOUS
 62
     7
100
AcDbLine
 10
1516.7
 20
1707.5
 30
0.0
 11
1510.89763
 21
1697.45
 31
0.0
  0
LINE
  5
167
100
AcDbEntity
  8
図
  6
CONTINUOUS
 62
     7
100
AcDbLine
 10
1476.64767
 20
1741.55
 30
0.0
 11
1510.89763
 21
1741.55
 31
0.0
  0
LINE
  5
168
100
AcDbEntity
  8
図
  6
CONTINUOUS
 62
     7
100
AcDbLine
 10
1476.64767
 20
1697.45
 30
0.0
 11
1510.89763
 21
1697.45
 31
0.0
  0
LINE
  5
169
100
AcDbEntity
  8
図
  6
CONTINUOUS
 62
     7
100
AcDbLine
 10
1515.845082
 20
1731.5
 30
0.0
 11
1501.988675
 21
1731.5
 31
0.0
  0
LINE
  5
16A
100
AcDbEntity
  8
図
  6
CONTINUOUS
 62
     7
100
AcDbLine
 10
1515.845082
 20
1707.5
 30
0.0
 11
1501.988675
 21
1707.5
 31
0.0
  0
LINE
  5
16B
100
AcDbEntity
  8
図
  6
CONTINUOUS
 62
     7
100
AcDbLine
 10
1488.639528
 20
1731.0
 30
0.0
 11
1501.7
 21
1731.0
 31
0.0
  0
LINE
  5
16C
100
AcDbEntity
  8
図
  6
CONTINUOUS
 62
     7
100
AcDbLine
 10
1573.7
 20
1731.5
 30
0.0
 11
1573.7
 21
1731.0
 31
0.0
  0
LINE
  5
16D
100
AcDbEntity
  8
図
  6
CONTINUOUS
 62
     7
100
AcDbLine
 10
1573.7
 20
1731.5
 30
0.0
 11
1588.7
 21
1731.5
 31
0.0
  0
LINE
  5
16E
100
AcDbEntity
  8
図
  6
CONTINUOUS
 62
     7
100
AcDbLine
 10
1544.0
 20
1733.5
 30
0.0
 11
1548.64767
 21
1741.55
 31
0.0
  0
LINE
  5
16F
100
AcDbEntity
  8
図
  6
CONTINUOUS
 62
     7
100
AcDbLine
 10
1554.0
 20
1719.5
 30
0.0
 11
1560.639528
 21
1731.0
 31
0.0
  0
LINE
  5
170
100
AcDbEntity
  8
図
  6
CONTINUOUS
 62
     7
100
AcDbLine
 10
1573.7
 20
1707.5
 30
0.0
 11
1573.7
 21
1708.0
 31
0.0
  0
LINE
  5
171
100
AcDbEntity
  8
図
  6
CONTINUOUS
 62
     7
100
AcDbLine
 10
1573.7
 20
1707.5
 30
0.0
 11
1588.7
 21
1707.5
 31
0.0
  0
LINE
  5
172
100
AcDbEntity
  8
図
  6
CONTINUOUS
 62
     7
100
AcDbLine
 10
1544.0
 20
1705.5
 30
0.0
 11
1548.64767
 21
1697.45
 31
0.0
  0
LINE
  5
173
100
AcDbEntity
  8
図
  6
CONTINUOUS
 62
     7
100
AcDbLine
 10
1554.0
 20
1719.5
 30
0.0
 11
1560.639528
 21
1708.0
 31
0.0
  0
LINE
  5
174
100
AcDbEntity
  8
図
  6
CONTINUOUS
 62
     7
100
AcDbLine
 10
1560.639528
 20
1708.0
 30
0.0
 11
1573.7
 21
1708.0
 31
0.0
  0
LINE
  5
175
100
AcDbEntity
  8
図
  6
CONTINUOUS
 62
     7
100
AcDbLine
 10
1544.0
 20
1705.5
 30
0.0
 11
1544.0
 21
1733.5
 31
0.0
  0
LINE
  5
176
100
AcDbEntity
  8
図
  6
CONTINUOUS
 62
     7
100
AcDbLine
 10
1588.7
 20
1731.5
 30
0.0
 11
1582.89763
 21
1741.55
 31
0.0
  0
LINE
  5
177
100
AcDbEntity
  8
図
  6
CONTINUOUS
 62
     7
100
AcDbLine
 10
1588.7
 20
1707.5
 30
0.0
 11
1582.89763
 21
1697.45
 31
0.0
  0
LINE
  5
178
100
AcDbEntity
  8
図
  6
CONTINUOUS
 62
     7
100
AcDbLine
 10
1548.64767
 20
1741.55
 30
0.0
 11
1582.89763
 21
1741.55
 31
0.0
  0
LINE
  5
179
100
AcDbEntity
  8
図
  6
CONTINUOUS
 62
     7
100
AcDbLine
 10
1548.64767
 20
1697.45
 30
0.0
 11
1582.89763
 21
1697.45
 31
0.0
  0
LINE
  5
17A
100
AcDbEntity
  8
図
  6
CONTINUOUS
 62
     7
100
AcDbLine
 10
1567.060472
 20
1719.5
 30
0.0
 11
1573.988675
 21
1731.5
 31
0.0
  0
LINE
  5
17B
100
AcDbEntity
  8
図
  6
CONTINUOUS
 62
     7
100
AcDbLine
 10
1567.060472
 20
1719.5
 30
0.0
 11
1573.988675
 21
1707.5
 31
0.0
  0
CIRCLE
  5
17C
100
AcDbEntity
  8
図
  6
CONTINUOUS
 62
     7
100
AcDbCircle
 10
1580.916878
 20
1719.5
 30
0.0
 40
12.0
  0
LINE
  5
17D
100
AcDbEntity
  8
図
  6
CONTINUOUS
 62
     7
100
AcDbLine
 10
1594.773285
 20
1719.5
 30
0.0
 11
1587.845082
 21
1731.5
 31
0.0
  0
LINE
  5
17E
100
AcDbEntity
  8
図
  6
CONTINUOUS
 62
     7
100
AcDbLine
 10
1594.773285
 20
1719.5
 30
0.0
 11
1587.845082
 21
1707.5
 31
0.0
  0
LINE
  5
17F
100
AcDbEntity
  8
図
  6
CONTINUOUS
 62
     7
100
AcDbLine
 10
1587.845082
 20
1731.5
 30
0.0
 11
1573.988675
 21
1731.5
 31
0.0
  0
LINE
  5
180
100
AcDbEntity
  8
図
  6
CONTINUOUS
 62
     7
100
AcDbLine
 10
1587.845082
 20
1707.5
 30
0.0
 11
1573.988675
 21
1707.5
 31
0.0
  0
CIRCLE
  5
181
100
AcDbEntity
  8
図
  6
CONTINUOUS
 62
     7
100
AcDbCircle
 10
1580.916878
 20
1719.5
 30
0.0
 40
39.482349
  0
LINE
  5
182
100
AcDbEntity
  8
図
  6
CONTINUOUS
 62
     7
100
AcDbLine
 10
1560.639528
 20
1731.0
 30
0.0
 11
1573.7
 21
1731.0
 31
0.0
  0
LINE
  5
183
100
AcDbEntity
  8
図
  6
CONTINUOUS
 62
     7
100
AcDbLine
 10
1640.143594
 20
1719.5
 30
0.0
 11
1647.071797
 21
1731.5
 31
0.0
  0
LINE
  5
184
100
AcDbEntity
  8
図
  6
CONTINUOUS
 62
     7
100
AcDbLine
 10
1640.143594
 20
1719.5
 30
0.0
 11
1647.071797
 21
1707.5
 31
0.0
  0
CIRCLE
  5
185
100
AcDbEntity
  8
図
  6
CONTINUOUS
 62
     7
100
AcDbCircle
 10
1654.0
 20
1719.5
 30
0.0
 40
12.0
  0
LINE
  5
186
100
AcDbEntity
  8
図
  6
CONTINUOUS
 62
     7
100
AcDbLine
 10
1667.856406
 20
1719.5
 30
0.0
 11
1660.928203
 21
1731.5
 31
0.0
  0
LINE
  5
187
100
AcDbEntity
  8
図
  6
CONTINUOUS
 62
     7
100
AcDbLine
 10
1667.856406
 20
1719.5
 30
0.0
 11
1660.928203
 21
1707.5
 31
0.0
  0
LINE
  5
188
100
AcDbEntity
  8
図
  6
CONTINUOUS
 62
     7
100
AcDbLine
 10
1660.928203
 20
1731.5
 30
0.0
 11
1647.071797
 21
1731.5
 31
0.0
  0
LINE
  5
189
100
AcDbEntity
  8
図
  6
CONTINUOUS
 62
     7
100
AcDbLine
 10
1660.928203
 20
1707.5
 30
0.0
 11
1647.071797
 21
1707.5
 31
0.0
  0
LINE
  5
18A
100
AcDbEntity
  8
図
  6
CONTINUOUS
 62
     7
100
AcDbLine
 10
1221.5
 20
1719.5
 30
0.0
 11
1232.469655
 21
1738.5
 31
0.0
  0
LINE
  5
18B
100
AcDbEntity
  8
図
  6
CONTINUOUS
 62
     7
100
AcDbLine
 10
1226.696152
 20
1748.5
 30
0.0
 11
1211.5
 21
1733.5
 31
0.0
  0
LINE
  5
18C
100
AcDbEntity
  8
図
  6
CONTINUOUS
 62
     7
100
AcDbLine
 10
1254.5
 20
1738.5
 30
0.0
 11
1248.726497
 21
1748.5
 31
0.0
  0
LINE
  5
18D
100
AcDbEntity
  8
図
  6
CONTINUOUS
 62
     7
100
AcDbLine
 10
1226.696152
 20
1748.5
 30
0.0
 11
1248.726497
 21
1748.5
 31
0.0
  0
LINE
  5
18E
100
AcDbEntity
  8
図
  6
CONTINUOUS
 62
     7
100
AcDbLine
 10
1221.5
 20
1719.5
 30
0.0
 11
1232.469655
 21
1700.5
 31
0.0
  0
LINE
  5
18F
100
AcDbEntity
  8
図
  6
CONTINUOUS
 62
     7
100
AcDbLine
 10
1226.696152
 20
1690.5
 30
0.0
 11
1211.5
 21
1705.5
 31
0.0
  0
LINE
  5
190
100
AcDbEntity
  8
図
  6
CONTINUOUS
 62
     7
100
AcDbLine
 10
1254.5
 20
1700.5
 30
0.0
 11
1248.726497
 21
1690.5
 31
0.0
  0
LINE
  5
191
100
AcDbEntity
  8
図
  6
CONTINUOUS
 62
     7
100
AcDbLine
 10
1226.696152
 20
1690.5
 30
0.0
 11
1248.726497
 21
1690.5
 31
0.0
  0
LINE
  5
192
100
AcDbEntity
  8
図
  6
CONTINUOUS
 62
     7
100
AcDbLine
 10
1211.5
 20
1733.5
 30
0.0
 11
1211.5
 21
1705.5
 31
0.0
  0
LINE
  5
193
100
AcDbEntity
  8
図
  6
CONTINUOUS
 62
     7
100
AcDbLine
 10
1232.469655
 20
1738.5
 30
0.0
 11
1254.5
 21
1738.5
 31
0.0
  0
LINE
  5
194
100
AcDbEntity
  8
図
  6
CONTINUOUS
 62
     7
100
AcDbLine
 10
1232.469655
 20
1700.5
 30
0.0
 11
1254.5
 21
1700.5
 31
0.0
  0
LINE
  5
195
100
AcDbEntity
  8
図
  6
EXLTYPE3
 62
     6
100
AcDbLine
 10
1324.93931
 20
1679.8
 30
0.0
 11
1324.93931
 21
1759.55
 31
0.0
  0
LINE
  5
196
100
AcDbEntity
  8
図
  6
EXLTYPE3
 62
     6
100
AcDbLine
 10
1580.916878
 20
1672.0
 30
0.0
 11
1580.916878
 21
1764.5
 31
0.0
  0
LINE
  5
197
100
AcDbEntity
  8
図
  6
EXLTYPE3
 62
     6
100
AcDbLine
 10
1195.5
 20
1719.5
 30
0.0
 11
1374.0
 21
1719.5
 31
0.0
  0
LINE
  5
198
100
AcDbEntity
  8
図
  6
EXLTYPE3
 62
     6
100
AcDbLine
 10
1459.0
 20
1719.5
 30
0.0
 11
1686.0
 21
1719.5
 31
0.0
  0
LINE
  5
199
100
AcDbEntity
  8
図
  6
CONTINUOUS
 62
     7
100
AcDbLine
 10
1790.0
 20
1732.0
 30
0.0
 11
1796.0
 21
1732.0
 31
0.0
  0
LINE
  5
19A
100
AcDbEntity
  8
図
  6
CONTINUOUS
 62
     7
100
AcDbLine
 10
1801.0
 20
1719.5
 30
0.0
 11
1814.567731
 21
1743.0
 31
0.0
  0
LINE
  5
19B
100
AcDbEntity
  8
図
  6
CONTINUOUS
 62
     7
100
AcDbLine
 10
1803.309401
 20
1719.5
 30
0.0
 11
1815.722432
 21
1741.0
 31
0.0
  0
LINE
  5
19C
100
AcDbEntity
  8
図
  6
CONTINUOUS
 62
     7
100
AcDbLine
 10
1815.722432
 20
1741.0
 30
0.0
 11
1842.0
 21
1741.0
 31
0.0
  0
LINE
  5
19D
100
AcDbEntity
  8
図
  6
CONTINUOUS
 62
     7
100
AcDbLine
 10
1814.567731
 20
1743.0
 30
0.0
 11
1840.714777
 21
1743.0
 31
0.0
  0
ARC
  5
19E
100
AcDbEntity
  8
図
  6
CONTINUOUS
 62
     7
100
AcDbCircle
 10
1819.855406
 20
1729.369485
 30
0.0
 40
24.0
100
AcDbArc
 50
119.601128
 51
173.707466
  0
ARC
  5
19F
100
AcDbEntity
  8
図
  6
CONTINUOUS
 62
     7
100
AcDbCircle
 10
1820.349365
 20
1728.5
 30
0.0
 40
25.0
100
AcDbArc
 50
30.0
 51
119.601128
  0
LINE
  5
1A0
100
AcDbEntity
  8
図
  6
CONTINUOUS
 62
     7
100
AcDbLine
 10
1790.0
 20
1732.0
 30
0.0
 11
1790.0
 21
1719.5
 31
0.0
  0
LINE
  5
1A1
100
AcDbEntity
  8
図
  6
CONTINUOUS
 62
     7
100
AcDbLine
 10
1790.0
 20
1707.0
 30
0.0
 11
1796.0
 21
1707.0
 31
0.0
  0
LINE
  5
1A2
100
AcDbEntity
  8
図
  6
CONTINUOUS
 62
     7
100
AcDbLine
 10
1801.0
 20
1719.5
 30
0.0
 11
1814.567731
 21
1696.0
 31
0.0
  0
LINE
  5
1A3
100
AcDbEntity
  8
図
  6
CONTINUOUS
 62
     7
100
AcDbLine
 10
1803.309401
 20
1719.5
 30
0.0
 11
1815.722432
 21
1698.0
 31
0.0
  0
LINE
  5
1A4
100
AcDbEntity
  8
図
  6
CONTINUOUS
 62
     7
100
AcDbLine
 10
1815.722432
 20
1698.0
 30
0.0
 11
1842.0
 21
1698.0
 31
0.0
  0
LINE
  5
1A5
100
AcDbEntity
  8
図
  6
CONTINUOUS
 62
     7
100
AcDbLine
 10
1814.567731
 20
1696.0
 30
0.0
 11
1840.714777
 21
1696.0
 31
0.0
  0
ARC
  5
1A6
100
AcDbEntity
  8
図
  6
CONTINUOUS
 62
     7
100
AcDbCircle
 10
1819.855406
 20
1709.630515
 30
0.0
 40
24.0
100
AcDbArc
 50
186.292534
 51
240.398872
  0
ARC
  5
1A7
100
AcDbEntity
  8
図
  6
CONTINUOUS
 62
     7
100
AcDbCircle
 10
1820.349365
 20
1710.5
 30
0.0
 40
25.0
100
AcDbArc
 50
240.398872
 51
330.0
  0
LINE
  5
1A8
100
AcDbEntity
  8
図
  6
CONTINUOUS
 62
     7
100
AcDbLine
 10
1790.0
 20
1707.0
 30
0.0
 11
1790.0
 21
1719.5
 31
0.0
  0
LINE
  5
1A9
100
AcDbEntity
  8
図
  6
CONTINUOUS
 62
     7
100
AcDbLine
 10
1877.0
 20
1732.0
 30
0.0
 11
1883.0
 21
1732.0
 31
0.0
  0
LINE
  5
1AA
100
AcDbEntity
  8
図
  6
CONTINUOUS
 62
     7
100
AcDbLine
 10
1888.0
 20
1719.5
 30
0.0
 11
1901.567731
 21
1743.0
 31
0.0
  0
LINE
  5
1AB
100
AcDbEntity
  8
図
  6
CONTINUOUS
 62
     7
100
AcDbLine
 10
1890.309401
 20
1719.5
 30
0.0
 11
1902.722432
 21
1741.0
 31
0.0
  0
LINE
  5
1AC
100
AcDbEntity
  8
図
  6
CONTINUOUS
 62
     7
100
AcDbLine
 10
1902.722432
 20
1741.0
 30
0.0
 11
1929.0
 21
1741.0
 31
0.0
  0
LINE
  5
1AD
100
AcDbEntity
  8
図
  6
CONTINUOUS
 62
     7
100
AcDbLine
 10
1901.567731
 20
1743.0
 30
0.0
 11
1927.714777
 21
1743.0
 31
0.0
  0
ARC
  5
1AE
100
AcDbEntity
  8
図
  6
CONTINUOUS
 62
     7
100
AcDbCircle
 10
1906.855406
 20
1729.369485
 30
0.0
 40
24.0
100
AcDbArc
 50
119.601128
 51
173.707466
  0
ARC
  5
1AF
100
AcDbEntity
  8
図
  6
CONTINUOUS
 62
     7
100
AcDbCircle
 10
1907.349365
 20
1728.5
 30
0.0
 40
25.0
100
AcDbArc
 50
30.0
 51
119.601128
  0
LINE
  5
1B0
100
AcDbEntity
  8
図
  6
CONTINUOUS
 62
     7
100
AcDbLine
 10
1877.0
 20
1732.0
 30
0.0
 11
1877.0
 21
1719.5
 31
0.0
  0
LINE
  5
1B1
100
AcDbEntity
  8
図
  6
CONTINUOUS
 62
     7
100
AcDbLine
 10
1877.0
 20
1707.0
 30
0.0
 11
1883.0
 21
1707.0
 31
0.0
  0
LINE
  5
1B2
100
AcDbEntity
  8
図
  6
CONTINUOUS
 62
     7
100
AcDbLine
 10
1888.0
 20
1719.5
 30
0.0
 11
1901.567731
 21
1696.0
 31
0.0
  0
LINE
  5
1B3
100
AcDbEntity
  8
図
  6
CONTINUOUS
 62
     7
100
AcDbLine
 10
1890.309401
 20
1719.5
 30
0.0
 11
1902.722432
 21
1698.0
 31
0.0
  0
LINE
  5
1B4
100
AcDbEntity
  8
図
  6
CONTINUOUS
 62
     7
100
AcDbLine
 10
1902.722432
 20
1698.0
 30
0.0
 11
1929.0
 21
1698.0
 31
0.0
  0
LINE
  5
1B5
100
AcDbEntity
  8
図
  6
CONTINUOUS
 62
     7
100
AcDbLine
 10
1901.567731
 20
1696.0
 30
0.0
 11
1927.714777
 21
1696.0
 31
0.0
  0
ARC
  5
1B6
100
AcDbEntity
  8
図
  6
CONTINUOUS
 62
     7
100
AcDbCircle
 10
1906.855406
 20
1709.630515
 30
0.0
 40
24.0
100
AcDbArc
 50
186.292534
 51
240.398872
  0
ARC
  5
1B7
100
AcDbEntity
  8
図
  6
CONTINUOUS
 62
     7
100
AcDbCircle
 10
1907.349365
 20
1710.5
 30
0.0
 40
25.0
100
AcDbArc
 50
240.398872
 51
330.0
  0
LINE
  5
1B8
100
AcDbEntity
  8
図
  6
CONTINUOUS
 62
     7
100
AcDbLine
 10
1877.0
 20
1707.0
 30
0.0
 11
1877.0
 21
1719.5
 31
0.0
  0
LINE
  5
1B9
100
AcDbEntity
  8
図
  6
EXLTYPE3
 62
     6
100
AcDbLine
 10
1915.135463
 20
1676.5
 30
0.0
 11
1915.135463
 21
1758.4
 31
0.0
  0
CIRCLE
  5
1BA
100
AcDbEntity
  8
図
  6
CONTINUOUS
 62
     7
100
AcDbCircle
 10
1915.135463
 20
1719.5
 30
0.0
 40
23.5
  0
CIRCLE
  5
1BB
100
AcDbEntity
  8
図
  6
CONTINUOUS
 62
     7
100
AcDbCircle
 10
1915.135463
 20
1719.5
 30
0.0
 40
40.131827
  0
TEXT
  5
1BC
100
AcDbEntity
  8
図
  6
CONTINUOUS
 62
     2
100
AcDbText
 10
1239.0
 20
1625.0
 30
0.0
 40
30.0
  1
ＭＹＭ製
 41
0.756
  7
EXCADSTD
 72
     5
 11
1346.999999
 21
1625.0
 31
0.0
100
AcDbText
  0
TEXT
  5
1BD
100
AcDbEntity
  8
図
  6
CONTINUOUS
 62
     2
100
AcDbText
 10
1517.5
 20
1625.0
 30
0.0
 40
30.0
  1
ＭＹＭ製
 41
0.756
  7
EXCADSTD
 72
     5
 11
1625.499999
 21
1625.0
 31
0.0
100
AcDbText
  0
TEXT
  5
1BE
100
AcDbEntity
  8
図
  6
CONTINUOUS
 62
     2
100
AcDbText
 10
1786.0
 20
1617.5
 30
0.0
 40
30.0
  1
ＫＶＫ(カクダイ)製
 41
0.68016
  7
EXCADSTD
 72
     5
 11
2019.999997
 21
1617.5
 31
0.0
100
AcDbText
  0
LINE
  5
1BF
100
AcDbEntity
  8
図
  6
EXLTYPE3
 62
     6
100
AcDbLine
 10
1759.0
 20
1719.5
 30
0.0
 11
1985.5
 21
1719.5
 31
0.0
  0
LINE
  5
1C0
100
AcDbEntity
  8
図
  6
EXLTYPE3
 62
     6
100
AcDbLine
 10
1759.0
 20
1924.5
 30
0.0
 11
1985.5
 21
1924.5
 31
0.0
  0
LINE
  5
1C1
100
AcDbEntity
  8
図
  6
EXLTYPE3
 62
     6
100
AcDbLine
 10
1915.135463
 20
1881.5
 30
0.0
 11
1915.135463
 21
1963.4
 31
0.0
  0
LINE
  5
1C2
100
AcDbEntity
  8
図
  6
CONTINUOUS
 62
     7
100
AcDbLine
 10
1877.0
 20
1912.0
 30
0.0
 11
1877.0
 21
1924.5
 31
0.0
  0
ARC
  5
1C3
100
AcDbEntity
  8
図
  6
CONTINUOUS
 62
     7
100
AcDbCircle
 10
1907.349365
 20
1915.5
 30
0.0
 40
25.0
100
AcDbArc
 50
240.398872
 51
330.0
  0
ARC
  5
1C4
100
AcDbEntity
  8
図
  6
CONTINUOUS
 62
     7
100
AcDbCircle
 10
1906.855406
 20
1914.630515
 30
0.0
 40
24.0
100
AcDbArc
 50
186.292534
 51
240.398872
  0
LINE
  5
1C5
100
AcDbEntity
  8
図
  6
CONTINUOUS
 62
     7
100
AcDbLine
 10
1901.567731
 20
1901.0
 30
0.0
 11
1927.714777
 21
1901.0
 31
0.0
  0
LINE
  5
1C6
100
AcDbEntity
  8
図
  6
CONTINUOUS
 62
     7
100
AcDbLine
 10
1902.722432
 20
1903.0
 30
0.0
 11
1929.0
 21
1903.0
 31
0.0
  0
LINE
  5
1C7
100
AcDbEntity
  8
図
  6
CONTINUOUS
 62
     7
100
AcDbLine
 10
1890.309401
 20
1924.5
 30
0.0
 11
1902.722432
 21
1903.0
 31
0.0
  0
LINE
  5
1C8
100
AcDbEntity
  8
図
  6
CONTINUOUS
 62
     7
100
AcDbLine
 10
1888.0
 20
1924.5
 30
0.0
 11
1901.567731
 21
1901.0
 31
0.0
  0
LINE
  5
1C9
100
AcDbEntity
  8
図
  6
CONTINUOUS
 62
     7
100
AcDbLine
 10
1877.0
 20
1912.0
 30
0.0
 11
1883.0
 21
1912.0
 31
0.0
  0
LINE
  5
1CA
100
AcDbEntity
  8
図
  6
CONTINUOUS
 62
     7
100
AcDbLine
 10
1877.0
 20
1937.0
 30
0.0
 11
1877.0
 21
1924.5
 31
0.0
  0
ARC
  5
1CB
100
AcDbEntity
  8
図
  6
CONTINUOUS
 62
     7
100
AcDbCircle
 10
1907.349365
 20
1933.5
 30
0.0
 40
25.0
100
AcDbArc
 50
30.0
 51
119.601128
  0
ARC
  5
1CC
100
AcDbEntity
  8
図
  6
CONTINUOUS
 62
     7
100
AcDbCircle
 10
1906.855406
 20
1934.369485
 30
0.0
 40
24.0
100
AcDbArc
 50
119.601128
 51
173.707466
  0
LINE
  5
1CD
100
AcDbEntity
  8
図
  6
CONTINUOUS
 62
     7
100
AcDbLine
 10
1901.567731
 20
1948.0
 30
0.0
 11
1927.714777
 21
1948.0
 31
0.0
  0
LINE
  5
1CE
100
AcDbEntity
  8
図
  6
CONTINUOUS
 62
     7
100
AcDbLine
 10
1902.722432
 20
1946.0
 30
0.0
 11
1929.0
 21
1946.0
 31
0.0
  0
LINE
  5
1CF
100
AcDbEntity
  8
図
  6
CONTINUOUS
 62
     7
100
AcDbLine
 10
1890.309401
 20
1924.5
 30
0.0
 11
1902.722432
 21
1946.0
 31
0.0
  0
LINE
  5
1D0
100
AcDbEntity
  8
図
  6
CONTINUOUS
 62
     7
100
AcDbLine
 10
1888.0
 20
1924.5
 30
0.0
 11
1901.567731
 21
1948.0
 31
0.0
  0
LINE
  5
1D1
100
AcDbEntity
  8
図
  6
CONTINUOUS
 62
     7
100
AcDbLine
 10
1877.0
 20
1937.0
 30
0.0
 11
1883.0
 21
1937.0
 31
0.0
  0
LINE
  5
1D2
100
AcDbEntity
  8
図
  6
CONTINUOUS
 62
     7
100
AcDbLine
 10
1790.0
 20
1912.0
 30
0.0
 11
1790.0
 21
1924.5
 31
0.0
  0
ARC
  5
1D3
100
AcDbEntity
  8
図
  6
CONTINUOUS
 62
     7
100
AcDbCircle
 10
1820.349365
 20
1915.5
 30
0.0
 40
25.0
100
AcDbArc
 50
240.398872
 51
330.0
  0
ARC
  5
1D4
100
AcDbEntity
  8
図
  6
CONTINUOUS
 62
     7
100
AcDbCircle
 10
1819.855406
 20
1914.630515
 30
0.0
 40
24.0
100
AcDbArc
 50
186.292534
 51
240.398872
  0
LINE
  5
1D5
100
AcDbEntity
  8
図
  6
CONTINUOUS
 62
     7
100
AcDbLine
 10
1814.567731
 20
1901.0
 30
0.0
 11
1840.714777
 21
1901.0
 31
0.0
  0
LINE
  5
1D6
100
AcDbEntity
  8
図
  6
CONTINUOUS
 62
     7
100
AcDbLine
 10
1815.722432
 20
1903.0
 30
0.0
 11
1842.0
 21
1903.0
 31
0.0
  0
LINE
  5
1D7
100
AcDbEntity
  8
図
  6
CONTINUOUS
 62
     7
100
AcDbLine
 10
1803.309401
 20
1924.5
 30
0.0
 11
1815.722432
 21
1903.0
 31
0.0
  0
LINE
  5
1D8
100
AcDbEntity
  8
図
  6
CONTINUOUS
 62
     7
100
AcDbLine
 10
1801.0
 20
1924.5
 30
0.0
 11
1814.567731
 21
1901.0
 31
0.0
  0
LINE
  5
1D9
100
AcDbEntity
  8
図
  6
CONTINUOUS
 62
     7
100
AcDbLine
 10
1790.0
 20
1912.0
 30
0.0
 11
1796.0
 21
1912.0
 31
0.0
  0
LINE
  5
1DA
100
AcDbEntity
  8
図
  6
CONTINUOUS
 62
     7
100
AcDbLine
 10
1790.0
 20
1937.0
 30
0.0
 11
1790.0
 21
1924.5
 31
0.0
  0
ARC
  5
1DB
100
AcDbEntity
  8
図
  6
CONTINUOUS
 62
     7
100
AcDbCircle
 10
1820.349365
 20
1933.5
 30
0.0
 40
25.0
100
AcDbArc
 50
30.0
 51
119.601128
  0
ARC
  5
1DC
100
AcDbEntity
  8
図
  6
CONTINUOUS
 62
     7
100
AcDbCircle
 10
1819.855406
 20
1934.369485
 30
0.0
 40
24.0
100
AcDbArc
 50
119.601128
 51
173.707466
  0
LINE
  5
1DD
100
AcDbEntity
  8
図
  6
CONTINUOUS
 62
     7
100
AcDbLine
 10
1814.567731
 20
1948.0
 30
0.0
 11
1840.714777
 21
1948.0
 31
0.0
  0
LINE
  5
1DE
100
AcDbEntity
  8
図
  6
CONTINUOUS
 62
     7
100
AcDbLine
 10
1815.722432
 20
1946.0
 30
0.0
 11
1842.0
 21
1946.0
 31
0.0
  0
LINE
  5
1DF
100
AcDbEntity
  8
図
  6
CONTINUOUS
 62
     7
100
AcDbLine
 10
1803.309401
 20
1924.5
 30
0.0
 11
1815.722432
 21
1946.0
 31
0.0
  0
LINE
  5
1E0
100
AcDbEntity
  8
図
  6
CONTINUOUS
 62
     7
100
AcDbLine
 10
1801.0
 20
1924.5
 30
0.0
 11
1814.567731
 21
1948.0
 31
0.0
  0
LINE
  5
1E1
100
AcDbEntity
  8
図
  6
CONTINUOUS
 62
     7
100
AcDbLine
 10
1790.0
 20
1937.0
 30
0.0
 11
1796.0
 21
1937.0
 31
0.0
  0
LINE
  5
1E2
100
AcDbEntity
  8
図
  6
EXLTYPE3
 62
     6
100
AcDbLine
 10
1459.0
 20
1924.5
 30
0.0
 11
1686.0
 21
1924.5
 31
0.0
  0
LINE
  5
1E3
100
AcDbEntity
  8
図
  6
EXLTYPE3
 62
     6
100
AcDbLine
 10
1195.5
 20
1924.5
 30
0.0
 11
1374.0
 21
1924.5
 31
0.0
  0
LINE
  5
1E4
100
AcDbEntity
  8
図
  6
EXLTYPE3
 62
     6
100
AcDbLine
 10
1580.916878
 20
1877.0
 30
0.0
 11
1580.916878
 21
1969.5
 31
0.0
  0
LINE
  5
1E5
100
AcDbEntity
  8
図
  6
EXLTYPE3
 62
     6
100
AcDbLine
 10
1324.93931
 20
1884.8
 30
0.0
 11
1324.93931
 21
1964.55
 31
0.0
  0
LINE
  5
1E6
100
AcDbEntity
  8
図
  6
CONTINUOUS
 62
     7
100
AcDbLine
 10
1232.469655
 20
1905.5
 30
0.0
 11
1254.5
 21
1905.5
 31
0.0
  0
LINE
  5
1E7
100
AcDbEntity
  8
図
  6
CONTINUOUS
 62
     7
100
AcDbLine
 10
1232.469655
 20
1943.5
 30
0.0
 11
1254.5
 21
1943.5
 31
0.0
  0
LINE
  5
1E8
100
AcDbEntity
  8
図
  6
CONTINUOUS
 62
     7
100
AcDbLine
 10
1211.5
 20
1938.5
 30
0.0
 11
1211.5
 21
1910.5
 31
0.0
  0
LINE
  5
1E9
100
AcDbEntity
  8
図
  6
CONTINUOUS
 62
     7
100
AcDbLine
 10
1226.696152
 20
1895.5
 30
0.0
 11
1248.726497
 21
1895.5
 31
0.0
  0
LINE
  5
1EA
100
AcDbEntity
  8
図
  6
CONTINUOUS
 62
     7
100
AcDbLine
 10
1254.5
 20
1905.5
 30
0.0
 11
1248.726497
 21
1895.5
 31
0.0
  0
LINE
  5
1EB
100
AcDbEntity
  8
図
  6
CONTINUOUS
 62
     7
100
AcDbLine
 10
1226.696152
 20
1895.5
 30
0.0
 11
1211.5
 21
1910.5
 31
0.0
  0
LINE
  5
1EC
100
AcDbEntity
  8
図
  6
CONTINUOUS
 62
     7
100
AcDbLine
 10
1221.5
 20
1924.5
 30
0.0
 11
1232.469655
 21
1905.5
 31
0.0
  0
LINE
  5
1ED
100
AcDbEntity
  8
図
  6
CONTINUOUS
 62
     7
100
AcDbLine
 10
1226.696152
 20
1953.5
 30
0.0
 11
1248.726497
 21
1953.5
 31
0.0
  0
LINE
  5
1EE
100
AcDbEntity
  8
図
  6
CONTINUOUS
 62
     7
100
AcDbLine
 10
1254.5
 20
1943.5
 30
0.0
 11
1248.726497
 21
1953.5
 31
0.0
  0
LINE
  5
1EF
100
AcDbEntity
  8
図
  6
CONTINUOUS
 62
     7
100
AcDbLine
 10
1226.696152
 20
1953.5
 30
0.0
 11
1211.5
 21
1938.5
 31
0.0
  0
LINE
  5
1F0
100
AcDbEntity
  8
図
  6
CONTINUOUS
 62
     7
100
AcDbLine
 10
1221.5
 20
1924.5
 30
0.0
 11
1232.469655
 21
1943.5
 31
0.0
  0
LINE
  5
1F1
100
AcDbEntity
  8
図
  6
CONTINUOUS
 62
     7
100
AcDbLine
 10
1560.639528
 20
1936.0
 30
0.0
 11
1573.7
 21
1936.0
 31
0.0
  0
LINE
  5
1F2
100
AcDbEntity
  8
図
  6
CONTINUOUS
 62
     7
100
AcDbLine
 10
1587.845082
 20
1912.5
 30
0.0
 11
1573.988675
 21
1912.5
 31
0.0
  0
LINE
  5
1F3
100
AcDbEntity
  8
図
  6
CONTINUOUS
 62
     7
100
AcDbLine
 10
1587.845082
 20
1936.5
 30
0.0
 11
1573.988675
 21
1936.5
 31
0.0
  0
LINE
  5
1F4
100
AcDbEntity
  8
図
  6
CONTINUOUS
 62
     7
100
AcDbLine
 10
1594.773285
 20
1924.5
 30
0.0
 11
1587.845082
 21
1912.5
 31
0.0
  0
LINE
  5
1F5
100
AcDbEntity
  8
図
  6
CONTINUOUS
 62
     7
100
AcDbLine
 10
1594.773285
 20
1924.5
 30
0.0
 11
1587.845082
 21
1936.5
 31
0.0
  0
LINE
  5
1F6
100
AcDbEntity
  8
図
  6
CONTINUOUS
 62
     7
100
AcDbLine
 10
1567.060472
 20
1924.5
 30
0.0
 11
1573.988675
 21
1912.5
 31
0.0
  0
LINE
  5
1F7
100
AcDbEntity
  8
図
  6
CONTINUOUS
 62
     7
100
AcDbLine
 10
1567.060472
 20
1924.5
 30
0.0
 11
1573.988675
 21
1936.5
 31
0.0
  0
LINE
  5
1F8
100
AcDbEntity
  8
図
  6
CONTINUOUS
 62
     7
100
AcDbLine
 10
1548.64767
 20
1902.45
 30
0.0
 11
1582.89763
 21
1902.45
 31
0.0
  0
LINE
  5
1F9
100
AcDbEntity
  8
図
  6
CONTINUOUS
 62
     7
100
AcDbLine
 10
1548.64767
 20
1946.55
 30
0.0
 11
1582.89763
 21
1946.55
 31
0.0
  0
LINE
  5
1FA
100
AcDbEntity
  8
図
  6
CONTINUOUS
 62
     7
100
AcDbLine
 10
1588.7
 20
1912.5
 30
0.0
 11
1582.89763
 21
1902.45
 31
0.0
  0
LINE
  5
1FB
100
AcDbEntity
  8
図
  6
CONTINUOUS
 62
     7
100
AcDbLine
 10
1588.7
 20
1936.5
 30
0.0
 11
1582.89763
 21
1946.55
 31
0.0
  0
LINE
  5
1FC
100
AcDbEntity
  8
図
  6
CONTINUOUS
 62
     7
100
AcDbLine
 10
1544.0
 20
1910.5
 30
0.0
 11
1544.0
 21
1938.5
 31
0.0
  0
LINE
  5
1FD
100
AcDbEntity
  8
図
  6
CONTINUOUS
 62
     7
100
AcDbLine
 10
1560.639528
 20
1913.0
 30
0.0
 11
1573.7
 21
1913.0
 31
0.0
  0
LINE
  5
1FE
100
AcDbEntity
  8
図
  6
CONTINUOUS
 62
     7
100
AcDbLine
 10
1554.0
 20
1924.5
 30
0.0
 11
1560.639528
 21
1913.0
 31
0.0
  0
LINE
  5
1FF
100
AcDbEntity
  8
図
  6
CONTINUOUS
 62
     7
100
AcDbLine
 10
1544.0
 20
1910.5
 30
0.0
 11
1548.64767
 21
1902.45
 31
0.0
  0
LINE
  5
200
100
AcDbEntity
  8
図
  6
CONTINUOUS
 62
     7
100
AcDbLine
 10
1573.7
 20
1912.5
 30
0.0
 11
1588.7
 21
1912.5
 31
0.0
  0
LINE
  5
201
100
AcDbEntity
  8
図
  6
CONTINUOUS
 62
     7
100
AcDbLine
 10
1573.7
 20
1912.5
 30
0.0
 11
1573.7
 21
1913.0
 31
0.0
  0
LINE
  5
202
100
AcDbEntity
  8
図
  6
CONTINUOUS
 62
     7
100
AcDbLine
 10
1554.0
 20
1924.5
 30
0.0
 11
1560.639528
 21
1936.0
 31
0.0
  0
LINE
  5
203
100
AcDbEntity
  8
図
  6
CONTINUOUS
 62
     7
100
AcDbLine
 10
1544.0
 20
1938.5
 30
0.0
 11
1548.64767
 21
1946.55
 31
0.0
  0
LINE
  5
204
100
AcDbEntity
  8
図
  6
CONTINUOUS
 62
     7
100
AcDbLine
 10
1573.7
 20
1936.5
 30
0.0
 11
1588.7
 21
1936.5
 31
0.0
  0
LINE
  5
205
100
AcDbEntity
  8
図
  6
CONTINUOUS
 62
     7
100
AcDbLine
 10
1573.7
 20
1936.5
 30
0.0
 11
1573.7
 21
1936.0
 31
0.0
  0
LINE
  5
206
100
AcDbEntity
  8
図
  6
CONTINUOUS
 62
     7
100
AcDbLine
 10
1488.639528
 20
1936.0
 30
0.0
 11
1501.7
 21
1936.0
 31
0.0
  0
LINE
  5
207
100
AcDbEntity
  8
図
  6
CONTINUOUS
 62
     7
100
AcDbLine
 10
1515.845082
 20
1912.5
 30
0.0
 11
1501.988675
 21
1912.5
 31
0.0
  0
LINE
  5
208
100
AcDbEntity
  8
図
  6
CONTINUOUS
 62
     7
100
AcDbLine
 10
1515.845082
 20
1936.5
 30
0.0
 11
1501.988675
 21
1936.5
 31
0.0
  0
LINE
  5
209
100
AcDbEntity
  8
図
  6
CONTINUOUS
 62
     7
100
AcDbLine
 10
1476.64767
 20
1902.45
 30
0.0
 11
1510.89763
 21
1902.45
 31
0.0
  0
LINE
  5
20A
100
AcDbEntity
  8
図
  6
CONTINUOUS
 62
     7
100
AcDbLine
 10
1476.64767
 20
1946.55
 30
0.0
 11
1510.89763
 21
1946.55
 31
0.0
  0
LINE
  5
20B
100
AcDbEntity
  8
図
  6
CONTINUOUS
 62
     7
100
AcDbLine
 10
1516.7
 20
1912.5
 30
0.0
 11
1510.89763
 21
1902.45
 31
0.0
  0
LINE
  5
20C
100
AcDbEntity
  8
図
  6
CONTINUOUS
 62
     7
100
AcDbLine
 10
1516.7
 20
1936.5
 30
0.0
 11
1510.89763
 21
1946.55
 31
0.0
  0
LINE
  5
20D
100
AcDbEntity
  8
図
  6
CONTINUOUS
 62
     7
100
AcDbLine
 10
1472.0
 20
1910.5
 30
0.0
 11
1472.0
 21
1938.5
 31
0.0
  0
LINE
  5
20E
100
AcDbEntity
  8
図
  6
CONTINUOUS
 62
     7
100
AcDbLine
 10
1488.639528
 20
1913.0
 30
0.0
 11
1501.7
 21
1913.0
 31
0.0
  0
LINE
  5
20F
100
AcDbEntity
  8
図
  6
CONTINUOUS
 62
     7
100
AcDbLine
 10
1482.0
 20
1924.5
 30
0.0
 11
1488.639528
 21
1913.0
 31
0.0
  0
LINE
  5
210
100
AcDbEntity
  8
図
  6
CONTINUOUS
 62
     7
100
AcDbLine
 10
1472.0
 20
1910.5
 30
0.0
 11
1476.64767
 21
1902.45
 31
0.0
  0
LINE
  5
211
100
AcDbEntity
  8
図
  6
CONTINUOUS
 62
     7
100
AcDbLine
 10
1501.7
 20
1912.5
 30
0.0
 11
1516.7
 21
1912.5
 31
0.0
  0
LINE
  5
212
100
AcDbEntity
  8
図
  6
CONTINUOUS
 62
     7
100
AcDbLine
 10
1501.7
 20
1912.5
 30
0.0
 11
1501.7
 21
1913.0
 31
0.0
  0
LINE
  5
213
100
AcDbEntity
  8
図
  6
CONTINUOUS
 62
     7
100
AcDbLine
 10
1482.0
 20
1924.5
 30
0.0
 11
1488.639528
 21
1936.0
 31
0.0
  0
LINE
  5
214
100
AcDbEntity
  8
図
  6
CONTINUOUS
 62
     7
100
AcDbLine
 10
1472.0
 20
1938.5
 30
0.0
 11
1476.64767
 21
1946.55
 31
0.0
  0
LINE
  5
215
100
AcDbEntity
  8
図
  6
CONTINUOUS
 62
     7
100
AcDbLine
 10
1501.7
 20
1936.5
 30
0.0
 11
1516.7
 21
1936.5
 31
0.0
  0
LINE
  5
216
100
AcDbEntity
  8
図
  6
CONTINUOUS
 62
     7
100
AcDbLine
 10
1501.7
 20
1936.5
 30
0.0
 11
1501.7
 21
1936.0
 31
0.0
  0
LINE
  5
217
100
AcDbEntity
  8
図
  6
CONTINUOUS
 62
     7
100
AcDbLine
 10
1346.87862
 20
1924.5
 30
0.0
 11
1335.908965
 21
1905.5
 31
0.0
  0
LINE
  5
218
100
AcDbEntity
  8
図
  6
CONTINUOUS
 62
     7
100
AcDbLine
 10
1346.87862
 20
1924.5
 30
0.0
 11
1335.908965
 21
1943.5
 31
0.0
  0
LINE
  5
219
100
AcDbEntity
  8
図
  6
CONTINUOUS
 62
     7
100
AcDbLine
 10
1313.969655
 20
1905.5
 30
0.0
 11
1336.0
 21
1905.5
 31
0.0
  0
LINE
  5
21A
100
AcDbEntity
  8
図
  6
CONTINUOUS
 62
     7
100
AcDbLine
 10
1313.969655
 20
1943.5
 30
0.0
 11
1336.0
 21
1943.5
 31
0.0
  0
LINE
  5
21B
100
AcDbEntity
  8
図
  6
CONTINUOUS
 62
     7
100
AcDbLine
 10
1293.0
 20
1938.5
 30
0.0
 11
1293.0
 21
1910.5
 31
0.0
  0
LINE
  5
21C
100
AcDbEntity
  8
図
  6
CONTINUOUS
 62
     7
100
AcDbLine
 10
1308.196152
 20
1895.5
 30
0.0
 11
1330.226497
 21
1895.5
 31
0.0
  0
LINE
  5
21D
100
AcDbEntity
  8
図
  6
CONTINUOUS
 62
     7
100
AcDbLine
 10
1336.0
 20
1905.5
 30
0.0
 11
1330.226497
 21
1895.5
 31
0.0
  0
LINE
  5
21E
100
AcDbEntity
  8
図
  6
CONTINUOUS
 62
     7
100
AcDbLine
 10
1308.196152
 20
1895.5
 30
0.0
 11
1293.0
 21
1910.5
 31
0.0
  0
LINE
  5
21F
100
AcDbEntity
  8
図
  6
CONTINUOUS
 62
     7
100
AcDbLine
 10
1303.0
 20
1924.5
 30
0.0
 11
1313.969655
 21
1905.5
 31
0.0
  0
LINE
  5
220
100
AcDbEntity
  8
図
  6
CONTINUOUS
 62
     7
100
AcDbLine
 10
1308.196152
 20
1953.5
 30
0.0
 11
1330.226497
 21
1953.5
 31
0.0
  0
LINE
  5
221
100
AcDbEntity
  8
図
  6
CONTINUOUS
 62
     7
100
AcDbLine
 10
1336.0
 20
1943.5
 30
0.0
 11
1330.226497
 21
1953.5
 31
0.0
  0
LINE
  5
222
100
AcDbEntity
  8
図
  6
CONTINUOUS
 62
     7
100
AcDbLine
 10
1308.196152
 20
1953.5
 30
0.0
 11
1293.0
 21
1938.5
 31
0.0
  0
LINE
  5
223
100
AcDbEntity
  8
図
  6
CONTINUOUS
 62
     7
100
AcDbLine
 10
1303.0
 20
1924.5
 30
0.0
 11
1313.969655
 21
1943.5
 31
0.0
  0
LINE
  5
224
100
AcDbEntity
  8
図
  6
CONTINUOUS
 62
     7
100
AcDbLine
 10
1313.969655
 20
1943.5
 30
0.0
 11
1335.908965
 21
1943.5
 31
0.0
  0
LINE
  5
225
100
AcDbEntity
  8
図
  6
CONTINUOUS
 62
     7
100
AcDbLine
 10
1313.969655
 20
1943.5
 30
0.0
 11
1303.0
 21
1924.5
 31
0.0
  0
LINE
  5
226
100
AcDbEntity
  8
図
  6
CONTINUOUS
 62
     7
100
AcDbLine
 10
1346.87862
 20
1924.5
 30
0.0
 11
1335.863448
 21
1943.578838
 31
0.0
  0
LINE
  5
227
100
AcDbEntity
  8
図
  6
CONTINUOUS
 62
     7
100
AcDbLine
 10
1313.969655
 20
1905.5
 30
0.0
 11
1302.954483
 21
1924.578838
 31
0.0
  0
LINE
  5
228
100
AcDbEntity
  8
図
  6
CONTINUOUS
 62
     7
100
AcDbLine
 10
1328.78461
 20
1889.839746
 30
0.0
 11
1353.033321
 21
1903.839746
 31
0.0
  0
LINE
  5
229
100
AcDbEntity
  8
図
  6
CONTINUOUS
 62
     7
100
AcDbLine
 10
1358.425626
 20
1924.5
 30
0.0
 11
1347.410453
 21
1943.578838
 31
0.0
  0
LINE
  5
22A
100
AcDbEntity
  8
図
  6
CONTINUOUS
 62
     7
100
AcDbLine
 10
1335.863448
 20
1943.578838
 30
0.0
 11
1347.410453
 21
1943.578838
 31
0.0
  0
LINE
  5
22B
100
AcDbEntity
  8
図
  6
CONTINUOUS
 62
     7
100
AcDbLine
 10
1358.425626
 20
1924.5
 30
0.0
 11
1353.033321
 21
1903.839746
 31
0.0
  0
LINE
  5
22C
100
AcDbEntity
  8
図
  6
CONTINUOUS
 62
     7
100
AcDbLine
 10
1335.908965
 20
1905.5
 30
0.0
 11
1346.87862
 21
1924.5
 31
0.0
  0
LINE
  5
22D
100
AcDbEntity
  8
図
  6
CONTINUOUS
 62
     7
100
AcDbLine
 10
1308.196152
 20
1895.5
 30
0.0
 11
1297.18098
 21
1914.578838
 31
0.0
  0
LINE
  5
22E
100
AcDbEntity
  8
図
  6
CONTINUOUS
 62
     7
100
AcDbLine
 10
1302.954483
 20
1924.578838
 30
0.0
 11
1297.18098
 21
1914.578838
 31
0.0
  0
LINE
  5
22F
100
AcDbEntity
  8
図
  6
CONTINUOUS
 62
     7
100
AcDbLine
 10
1308.196152
 20
1895.5
 30
0.0
 11
1328.78461
 21
1889.839746
 31
0.0
  0
LINE
  5
230
100
AcDbEntity
  8
図
  6
CONTINUOUS
 62
     7
100
AcDbLine
 10
1335.908965
 20
1905.5
 30
0.0
 11
1313.969655
 21
1905.5
 31
0.0
  0
LINE
  5
231
100
AcDbEntity
  8
図
  6
CONTINUOUS
 62
     3
100
AcDbLine
 10
1320.537447
 20
1959.093976
 30
0.0
 11
1357.099503
 21
1937.984863
 31
0.0
  0
ARC
  5
232
100
AcDbEntity
  8
図
  6
CONTINUOUS
 62
     7
100
AcDbCircle
 10
1324.93931
 20
1924.5
 30
0.0
 40
34.872905
100
AcDbArc
 50
97.251554
 51
22.748446
  0
TEXT
  5
233
100
AcDbEntity
  8
図
  6
CONTINUOUS
 62
     2
100
AcDbText
 10
1212.5
 20
1988.5
 30
0.0
 40
30.0
  1
１２０°回転
 41
0.746667
  7
EXCADSTD
 72
     5
 11
1372.499998
 21
1988.5
 31
0.0
100
AcDbText
  0
LINE
  5
234
100
AcDbEntity
  8
図
  6
CONTINUOUS
 62
     7
100
AcDbLine
 10
1581.096261
 20
1901.1893
 30
0.0
 11
1574.566025
 21
1912.5
 31
0.0
  0
LINE
  5
235
100
AcDbEntity
  8
図
  6
CONTINUOUS
 62
     7
100
AcDbLine
 10
1587.845082
 20
1936.5
 30
0.0
 11
1594.773285
 21
1924.5
 31
0.0
  0
LINE
  5
236
100
AcDbEntity
  8
図
  6
CONTINUOUS
 62
     7
100
AcDbLine
 10
1567.060472
 20
1924.5
 30
0.0
 11
1573.988675
 21
1912.5
 31
0.0
  0
LINE
  5
237
100
AcDbEntity
  8
図
  6
CONTINUOUS
 62
     7
100
AcDbLine
 10
1573.988675
 20
1936.5
 30
0.0
 11
1587.845082
 21
1936.5
 31
0.0
  0
LINE
  5
238
100
AcDbEntity
  8
図
  6
CONTINUOUS
 62
     7
100
AcDbLine
 10
1573.988675
 20
1936.5
 30
0.0
 11
1567.060472
 21
1924.5
 31
0.0
  0
LINE
  5
239
100
AcDbEntity
  8
図
  6
CONTINUOUS
 62
     7
100
AcDbLine
 10
1587.845082
 20
1912.5
 30
0.0
 11
1594.773285
 21
1924.5
 31
0.0
  0
LINE
  5
23A
100
AcDbEntity
  8
図
  6
CONTINUOUS
 62
     7
100
AcDbLine
 10
1587.845082
 20
1912.5
 30
0.0
 11
1573.988675
 21
1912.5
 31
0.0
  0
LINE
  5
23B
100
AcDbEntity
  8
図
  6
CONTINUOUS
 62
     7
100
AcDbLine
 10
1616.147343
 20
1907.579046
 30
0.0
 11
1599.022363
 21
1937.240381
 31
0.0
  0
LINE
  5
23C
100
AcDbEntity
  8
図
  6
CONTINUOUS
 62
     7
100
AcDbLine
 10
1577.955623
 20
1885.529046
 30
0.0
 11
1560.830642
 21
1915.190381
 31
0.0
  0
LINE
  5
23D
100
AcDbEntity
  8
図
  6
CONTINUOUS
 62
     7
100
AcDbLine
 10
1587.417622
 20
1937.240381
 30
0.0
 11
1599.022363
 21
1937.240381
 31
0.0
  0
LINE
  5
23E
100
AcDbEntity
  8
図
  6
CONTINUOUS
 62
     7
100
AcDbLine
 10
1566.633013
 20
1925.240381
 30
0.0
 11
1560.830642
 21
1915.190381
 31
0.0
  0
LINE
  5
23F
100
AcDbEntity
  8
図
  6
CONTINUOUS
 62
     7
100
AcDbLine
 10
1611.499673
 20
1899.529046
 30
0.0
 11
1587.250962
 21
1885.529046
 31
0.0
  0
LINE
  5
240
100
AcDbEntity
  8
図
  6
CONTINUOUS
 62
     7
100
AcDbLine
 10
1601.014846
 20
1912.6893
 30
0.0
 11
1594.48461
 21
1924.0
 31
0.0
  0
LINE
  5
241
100
AcDbEntity
  8
図
  6
CONTINUOUS
 62
     7
100
AcDbLine
 10
1594.375318
 20
1901.1893
 30
0.0
 11
1601.014846
 21
1912.6893
 31
0.0
  0
LINE
  5
242
100
AcDbEntity
  8
図
  6
CONTINUOUS
 62
     7
100
AcDbLine
 10
1611.499673
 20
1899.529046
 30
0.0
 11
1616.147343
 21
1907.579046
 31
0.0
  0
LINE
  5
243
100
AcDbEntity
  8
図
  6
CONTINUOUS
 62
     7
100
AcDbLine
 10
1594.917622
 20
1924.25
 30
0.0
 11
1587.417622
 21
1937.240381
 31
0.0
  0
LINE
  5
244
100
AcDbEntity
  8
図
  6
CONTINUOUS
 62
     7
100
AcDbLine
 10
1594.917622
 20
1924.25
 30
0.0
 11
1594.48461
 21
1924.0
 31
0.0
  0
LINE
  5
245
100
AcDbEntity
  8
図
  6
CONTINUOUS
 62
     7
100
AcDbLine
 10
1594.375318
 20
1901.1893
 30
0.0
 11
1581.096261
 21
1901.1893
 31
0.0
  0
LINE
  5
246
100
AcDbEntity
  8
図
  6
CONTINUOUS
 62
     7
100
AcDbLine
 10
1587.250962
 20
1885.529046
 30
0.0
 11
1577.955623
 21
1885.529046
 31
0.0
  0
LINE
  5
247
100
AcDbEntity
  8
図
  6
CONTINUOUS
 62
     7
100
AcDbLine
 10
1574.133013
 20
1912.25
 30
0.0
 11
1566.633013
 21
1925.240381
 31
0.0
  0
LINE
  5
248
100
AcDbEntity
  8
図
  6
CONTINUOUS
 62
     7
100
AcDbLine
 10
1574.133013
 20
1912.25
 30
0.0
 11
1574.566025
 21
1912.5
 31
0.0
  0
LINE
  5
249
100
AcDbEntity
  8
図
  6
CONTINUOUS
 62
     3
100
AcDbLine
 10
1561.522787
 20
1958.890771
 30
0.0
 11
1620.397205
 21
1924.89961
 31
0.0
  0
ARC
  5
24A
100
AcDbEntity
  8
図
  6
CONTINUOUS
 62
     7
100
AcDbCircle
 10
1580.916878
 20
1924.5
 30
0.0
 40
39.482349
100
AcDbArc
 50
119.420086
 51
0.579914
  0
LINE
  5
24B
100
AcDbEntity
  8
図
  6
CONTINUOUS
 62
     7
100
AcDbLine
 10
1945.028512
 20
1897.723721
 30
0.0
 11
1934.203194
 21
1891.473721
 31
0.0
  0
ARC
  5
24C
100
AcDbEntity
  8
図
  6
CONTINUOUS
 62
     7
100
AcDbCircle
 10
1926.82274
 20
1922.257042
 30
0.0
 40
25.0
100
AcDbArc
 50
0.398872
 51
90.0
  0
ARC
  5
24D
100
AcDbEntity
  8
図
  6
CONTINUOUS
 62
     7
100
AcDbCircle
 10
1927.822716
 20
1922.264003
 30
0.0
 40
24.0
100
AcDbArc
 50
306.292534
 51
0.398872
  0
LINE
  5
24E
100
AcDbEntity
  8
図
  6
CONTINUOUS
 62
     7
100
AcDbLine
 10
1942.270925
 20
1924.5
 30
0.0
 11
1929.197403
 21
1947.144006
 31
0.0
  0
LINE
  5
24F
100
AcDbEntity
  8
図
  6
CONTINUOUS
 62
     7
100
AcDbLine
 10
1939.961524
 20
1924.5
 30
0.0
 11
1926.82274
 21
1947.257042
 31
0.0
  0
LINE
  5
250
100
AcDbEntity
  8
図
  6
CONTINUOUS
 62
     7
100
AcDbLine
 10
1927.548493
 20
1903.0
 30
0.0
 11
1939.961524
 21
1924.5
 31
0.0
  0
LINE
  5
251
100
AcDbEntity
  8
図
  6
CONTINUOUS
 62
     7
100
AcDbLine
 10
1928.703194
 20
1901.0
 30
0.0
 11
1942.270925
 21
1924.5
 31
0.0
  0
LINE
  5
252
100
AcDbEntity
  8
図
  6
CONTINUOUS
 62
     7
100
AcDbLine
 10
1945.028512
 20
1897.723721
 30
0.0
 11
1942.028512
 21
1902.919873
 31
0.0
  0
LINE
  5
253
100
AcDbEntity
  8
図
  6
CONTINUOUS
 62
     7
100
AcDbLine
 10
1923.377876
 20
1885.223721
 30
0.0
 11
1934.203194
 21
1891.473721
 31
0.0
  0
ARC
  5
254
100
AcDbEntity
  8
図
  6
CONTINUOUS
 62
     7
100
AcDbCircle
 10
1911.234283
 20
1913.257042
 30
0.0
 40
25.0
100
AcDbArc
 50
150.0
 51
239.601128
  0
ARC
  5
255
100
AcDbEntity
  8
図
  6
CONTINUOUS
 62
     7
100
AcDbCircle
 10
1910.728266
 20
1912.394518
 30
0.0
 40
24.0
100
AcDbArc
 50
239.601128
 51
293.707466
  0
LINE
  5
256
100
AcDbEntity
  8
図
  6
CONTINUOUS
 62
     7
100
AcDbLine
 10
1901.567731
 20
1901.0
 30
0.0
 11
1888.494209
 21
1923.644006
 31
0.0
  0
LINE
  5
257
100
AcDbEntity
  8
図
  6
CONTINUOUS
 62
     7
100
AcDbLine
 10
1902.722432
 20
1903.0
 30
0.0
 11
1889.583648
 21
1925.757042
 31
0.0
  0
LINE
  5
258
100
AcDbEntity
  8
図
  6
CONTINUOUS
 62
     7
100
AcDbLine
 10
1927.548493
 20
1903.0
 30
0.0
 11
1902.722432
 21
1903.0
 31
0.0
  0
LINE
  5
259
100
AcDbEntity
  8
図
  6
CONTINUOUS
 62
     7
100
AcDbLine
 10
1928.703194
 20
1901.0
 30
0.0
 11
1901.567731
 21
1901.0
 31
0.0
  0
LINE
  5
25A
100
AcDbEntity
  8
図
  6
CONTINUOUS
 62
     7
100
AcDbLine
 10
1923.377876
 20
1885.223721
 30
0.0
 11
1920.377876
 21
1890.419873
 31
0.0
  0
LINE
  5
25B
100
AcDbEntity
  8
図
  6
CONTINUOUS
 62
     3
100
AcDbLine
 10
1905.472488
 20
1963.451129
 30
0.0
 11
1953.699617
 21
1935.607183
 31
0.0
  0
ARC
  5
25C
100
AcDbEntity
  8
図
  6
CONTINUOUS
 62
     7
100
AcDbCircle
 10
1915.135463
 20
1924.5
 30
0.0
 40
40.131827
100
AcDbArc
 50
103.93263
 51
16.06737
  0
CIRCLE
  5
25D
100
AcDbEntity
  8
図
  6
CONTINUOUS
 62
     7
100
AcDbCircle
 10
1324.93931
 20
1924.5
 30
0.0
 40
26.5
  0
CIRCLE
  5
25E
100
AcDbEntity
  8
図
  6
CONTINUOUS
 62
     7
100
AcDbCircle
 10
1580.916878
 20
1924.5
 30
0.0
 40
20.0
  0
CIRCLE
  5
25F
100
AcDbEntity
  8
図
  6
CONTINUOUS
 62
     7
100
AcDbCircle
 10
1915.135463
 20
1924.5
 30
0.0
 40
26.5
  0
LINE
  5
260
100
AcDbEntity
  8
図
  6
CONTINUOUS
 62
     3
100
AcDbLine
 10
2416.635463
 20
976.59882
 30
0.0
 11
2352.922995
 21
976.59882
 31
0.0
  0
LINE
  5
261
100
AcDbEntity
  8
図
  6
EXLTYPE3
 62
     6
100
AcDbLine
 10
2263.0
 20
1005.5
 30
0.0
 11
2489.5
 21
1005.5
 31
0.0
  0
LINE
  5
262
100
AcDbEntity
  8
図
  6
CONTINUOUS
 62
     7
100
AcDbLine
 10
2294.0
 20
993.0
 30
0.0
 11
2294.0
 21
1005.5
 31
0.0
  0
ARC
  5
263
100
AcDbEntity
  8
図
  6
CONTINUOUS
 62
     7
100
AcDbCircle
 10
2324.349365
 20
996.5
 30
0.0
 40
25.0
100
AcDbArc
 50
240.398872
 51
330.0
  0
ARC
  5
264
100
AcDbEntity
  8
図
  6
CONTINUOUS
 62
     7
100
AcDbCircle
 10
2323.855406
 20
995.630515
 30
0.0
 40
24.0
100
AcDbArc
 50
186.292534
 51
240.398872
  0
LINE
  5
265
100
AcDbEntity
  8
図
  6
CONTINUOUS
 62
     7
100
AcDbLine
 10
2318.567731
 20
982.0
 30
0.0
 11
2344.714777
 21
982.0
 31
0.0
  0
LINE
  5
266
100
AcDbEntity
  8
図
  6
CONTINUOUS
 62
     7
100
AcDbLine
 10
2319.722432
 20
984.0
 30
0.0
 11
2346.0
 21
984.0
 31
0.0
  0
LINE
  5
267
100
AcDbEntity
  8
図
  6
CONTINUOUS
 62
     7
100
AcDbLine
 10
2307.309401
 20
1005.5
 30
0.0
 11
2319.722432
 21
984.0
 31
0.0
  0
LINE
  5
268
100
AcDbEntity
  8
図
  6
CONTINUOUS
 62
     7
100
AcDbLine
 10
2305.0
 20
1005.5
 30
0.0
 11
2318.567731
 21
982.0
 31
0.0
  0
LINE
  5
269
100
AcDbEntity
  8
図
  6
CONTINUOUS
 62
     7
100
AcDbLine
 10
2294.0
 20
993.0
 30
0.0
 11
2300.0
 21
993.0
 31
0.0
  0
LINE
  5
26A
100
AcDbEntity
  8
図
  6
CONTINUOUS
 62
     7
100
AcDbLine
 10
2294.0
 20
1018.0
 30
0.0
 11
2294.0
 21
1005.5
 31
0.0
  0
ARC
  5
26B
100
AcDbEntity
  8
図
  6
CONTINUOUS
 62
     7
100
AcDbCircle
 10
2324.349365
 20
1014.5
 30
0.0
 40
25.0
100
AcDbArc
 50
30.0
 51
119.601128
  0
ARC
  5
26C
100
AcDbEntity
  8
図
  6
CONTINUOUS
 62
     7
100
AcDbCircle
 10
2323.855406
 20
1015.369485
 30
0.0
 40
24.0
100
AcDbArc
 50
119.601128
 51
173.707466
  0
LINE
  5
26D
100
AcDbEntity
  8
図
  6
CONTINUOUS
 62
     7
100
AcDbLine
 10
2318.567731
 20
1029.0
 30
0.0
 11
2344.714777
 21
1029.0
 31
0.0
  0
LINE
  5
26E
100
AcDbEntity
  8
図
  6
CONTINUOUS
 62
     7
100
AcDbLine
 10
2319.722432
 20
1027.0
 30
0.0
 11
2346.0
 21
1027.0
 31
0.0
  0
LINE
  5
26F
100
AcDbEntity
  8
図
  6
CONTINUOUS
 62
     7
100
AcDbLine
 10
2307.309401
 20
1005.5
 30
0.0
 11
2319.722432
 21
1027.0
 31
0.0
  0
LINE
  5
270
100
AcDbEntity
  8
図
  6
CONTINUOUS
 62
     7
100
AcDbLine
 10
2305.0
 20
1005.5
 30
0.0
 11
2318.567731
 21
1029.0
 31
0.0
  0
LINE
  5
271
100
AcDbEntity
  8
図
  6
CONTINUOUS
 62
     7
100
AcDbLine
 10
2294.0
 20
1018.0
 30
0.0
 11
2300.0
 21
1018.0
 31
0.0
  0
LINE
  5
272
100
AcDbEntity
  8
図
  6
EXLTYPE3
 62
     6
100
AcDbLine
 10
2397.635463
 20
1042.739092
 30
0.0
 11
2438.585463
 21
971.811612
 31
0.0
  0
LINE
  5
273
100
AcDbEntity
  8
図
  6
CONTINUOUS
 62
     7
100
AcDbLine
 10
2445.911742
 20
1035.393049
 30
0.0
 11
2452.161742
 21
1024.567731
 31
0.0
  0
LINE
  5
274
100
AcDbEntity
  8
図
  6
CONTINUOUS
 62
     7
100
AcDbLine
 10
2445.911742
 20
1035.393049
 30
0.0
 11
2440.71559
 21
1032.393049
 31
0.0
  0
LINE
  5
275
100
AcDbEntity
  8
図
  6
CONTINUOUS
 62
     7
100
AcDbLine
 10
2458.411742
 20
1013.742414
 30
0.0
 11
2452.161742
 21
1024.567731
 31
0.0
  0
ARC
  5
276
100
AcDbEntity
  8
図
  6
CONTINUOUS
 62
     7
100
AcDbCircle
 10
2430.378421
 20
1001.59882
 30
0.0
 40
25.0
100
AcDbArc
 50
240.0
 51
329.601128
  0
ARC
  5
277
100
AcDbEntity
  8
図
  6
CONTINUOUS
 62
     7
100
AcDbCircle
 10
2431.240945
 20
1001.092803
 30
0.0
 40
24.0
100
AcDbArc
 50
329.601128
 51
23.707466
  0
LINE
  5
278
100
AcDbEntity
  8
図
  6
CONTINUOUS
 62
     7
100
AcDbLine
 10
2458.411742
 20
1013.742414
 30
0.0
 11
2453.21559
 21
1010.742414
 31
0.0
  0
LINE
  5
279
100
AcDbEntity
  8
図
  6
CONTINUOUS
 62
     3
100
AcDbLine
 10
2446.979408
 20
976.59882
 30
0.0
 11
2391.291517
 21
976.59882
 31
0.0
  0
ARC
  5
27A
100
AcDbEntity
  8
図
  6
EXLTYPE4
 62
     6
100
AcDbCircle
 10
2419.135463
 20
1005.5
 30
0.0
 40
40.131827
100
AcDbArc
 50
313.93263
 51
226.06737
  0
CIRCLE
  5
27B
100
AcDbEntity
  8
図
  6
CONTINUOUS
 62
     7
100
AcDbCircle
 10
575.0
 20
1021.0
 30
0.0
 40
220.0
  0
CIRCLE
  5
27C
100
AcDbEntity
  8
図
  6
CONTINUOUS
 62
     7
100
AcDbCircle
 10
575.0
 20
1021.0
 30
0.0
 40
225.0
  0
LINE
  5
27D
100
AcDbEntity
  8
図
  6
CONTINUOUS
 62
     7
100
AcDbLine
 10
1024.368242
 20
1238.697393
 30
0.0
 11
1169.5
 21
1232.343534
 31
0.0
  0
LINE
  5
27E
100
AcDbEntity
  8
図
  6
CONTINUOUS
 62
     7
100
AcDbLine
 10
1024.368242
 20
1238.697393
 30
0.0
 11
1025.450795
 21
1218.041045
 31
0.0
  0
LINE
  5
27F
100
AcDbEntity
  8
図
  6
CONTINUOUS
 62
     7
100
AcDbLine
 10
1169.5
 20
1225.590344
 30
0.0
 11
1025.450795
 21
1218.041045
 31
0.0
  0
LINE
  5
280
100
AcDbEntity
  8
図
  6
CONTINUOUS
 62
     7
100
AcDbLine
 10
1169.5
 20
1232.343534
 30
0.0
 11
1169.5
 21
1225.590344
 31
0.0
  0
ARC
  5
281
100
AcDbEntity
  8
図
  6
CONTINUOUS
 62
     7
100
AcDbCircle
 10
1080.399481
 20
1043.159131
 30
0.0
 40
83.0
100
AcDbArc
 50
13.741957
 51
87.0
  0
LINE
  5
282
100
AcDbEntity
  8
図
  6
CONTINUOUS
 62
     7
100
AcDbLine
 10
1165.5
 20
987.100305
 30
0.0
 11
1165.5
 21
1056.111479
 31
0.0
  0
ARC
  5
283
100
AcDbEntity
  8
図
  6
CONTINUOUS
 62
     7
100
AcDbCircle
 10
1172.680146
 20
1065.726338
 30
0.0
 40
12.0
100
AcDbArc
 50
193.741957
 51
233.248507
  0
ARC
  5
284
100
AcDbEntity
  8
図
  6
CONTINUOUS
 62
     7
100
AcDbCircle
 10
1080.399481
 20
1043.159131
 30
0.0
 40
90.0
100
AcDbArc
 50
13.741957
 51
87.0
  0
ARC
  5
285
100
AcDbEntity
  8
図
  6
CONTINUOUS
 62
     7
100
AcDbCircle
 10
1169.5
 20
1058.385583
 30
0.0
 40
3.0
100
AcDbArc
 50
0.0
 51
66.576878
  0
ARC
  5
286
100
AcDbEntity
  8
図
  6
CONTINUOUS
 62
     7
100
AcDbCircle
 10
1172.680146
 20
1065.726338
 30
0.0
 40
5.0
100
AcDbArc
 50
193.741957
 51
246.576878
  0
ARC
  5
287
100
AcDbEntity
  8
図
  6
CONTINUOUS
 62
     7
100
AcDbCircle
 10
1012.690586
 20
1232.232473
 30
0.0
 40
5.0
100
AcDbArc
 50
3.0
 51
61.253096
  0
LINE
  5
288
100
AcDbEntity
  8
図
  6
CONTINUOUS
 62
     7
100
AcDbLine
 10
1172.5
 20
1058.385583
 30
0.0
 11
1172.5
 21
983.614417
 31
0.0
  0
LINE
  5
289
100
AcDbEntity
  8
図
  6
CONTINUOUS
 62
     7
100
AcDbLine
 10
1140.399495
 20
1048.5
 30
0.0
 11
1142.5
 21
1048.5
 31
0.0
  0
LINE
  5
28A
100
AcDbEntity
  8
図
  6
CONTINUOUS
 62
     7
100
AcDbLine
 10
1137.5
 20
1041.5
 30
0.0
 11
1142.5
 21
1041.5
 31
0.0
  0
LINE
  5
28B
100
AcDbEntity
  8
図
  6
CONTINUOUS
 62
     7
100
AcDbLine
 10
1137.5
 20
1000.5
 30
0.0
 11
1142.5
 21
1000.5
 31
0.0
  0
LINE
  5
28C
100
AcDbEntity
  8
図
  6
CONTINUOUS
 62
     7
100
AcDbLine
 10
1140.399495
 20
993.5
 30
0.0
 11
1142.5
 21
993.5
 31
0.0
  0
LINE
  5
28D
100
AcDbEntity
  8
図
  6
CONTINUOUS
 62
     7
100
AcDbLine
 10
1142.5
 20
993.5
 30
0.0
 11
1142.5
 21
1048.5
 31
0.0
  0
ARC
  5
28E
100
AcDbEntity
  8
図
  6
CONTINUOUS
 62
     7
100
AcDbCircle
 10
1169.5
 20
983.614417
 30
0.0
 40
3.0
100
AcDbArc
 50
277.857511
 51
0.0
  0
LINE
  5
28F
100
AcDbEntity
  8
図
  6
CONTINUOUS
 62
     7
100
AcDbLine
 10
1165.5
 20
999.5
 30
0.0
 11
1172.5
 21
999.5
 31
0.0
  0
LINE
  5
290
100
AcDbEntity
  8
図
  6
CONTINUOUS
 62
     7
100
AcDbLine
 10
1165.5
 20
1042.5
 30
0.0
 11
1172.5
 21
1042.5
 31
0.0
  0
LINE
  5
291
100
AcDbEntity
  8
図
  6
CONTINUOUS
 62
     7
100
AcDbLine
 10
1127.5
 20
1051.5
 30
0.0
 11
1137.5
 21
1041.5
 31
0.0
  0
LINE
  5
292
100
AcDbEntity
  8
図
  6
CONTINUOUS
 62
     7
100
AcDbLine
 10
1137.5
 20
1041.5
 30
0.0
 11
1137.5
 21
1000.5
 31
0.0
  0
LINE
  5
293
100
AcDbEntity
  8
図
  6
CONTINUOUS
 62
     7
100
AcDbLine
 10
1127.5
 20
990.5
 30
0.0
 11
1137.5
 21
1000.5
 31
0.0
  0
LINE
  5
294
100
AcDbEntity
  8
図
  6
CONTINUOUS
 62
     7
100
AcDbLine
 10
1134.251308
 20
987.351813
 30
0.0
 11
1140.399495
 21
993.5
 31
0.0
  0
ARC
  5
295
100
AcDbEntity
  8
図
  6
CONTINUOUS
 62
     7
100
AcDbCircle
 10
1035.620601
 20
1138.633521
 30
0.0
 40
3.0
100
AcDbArc
 50
183.0
 51
267.0
  0
ARC
  5
296
100
AcDbEntity
  8
図
  6
CONTINUOUS
 62
     7
100
AcDbCircle
 10
1030.914967
 20
1209.315059
 30
0.0
 40
2.0
100
AcDbArc
 50
93.0
 51
183.0
  0
ARC
  5
297
100
AcDbEntity
  8
図
  6
CONTINUOUS
 62
     7
100
AcDbCircle
 10
1177.5
 20
1233.267949
 30
0.0
 40
1.0
100
AcDbArc
 50
120.0
 51
180.0
  0
ARC
  5
298
100
AcDbEntity
  8
図
  6
CONTINUOUS
 62
     7
100
AcDbCircle
 10
1177.5
 20
1224.732051
 30
0.0
 40
1.0
100
AcDbArc
 50
180.0
 51
240.0
  0
ARC
  5
299
100
AcDbEntity
  8
図
  6
CONTINUOUS
 62
     7
100
AcDbCircle
 10
1175.5
 20
1237.085644
 30
0.0
 40
2.0
100
AcDbArc
 50
0.0
 51
87.493195
  0
ARC
  5
29A
100
AcDbEntity
  8
図
  6
CONTINUOUS
 62
     7
100
AcDbCircle
 10
1175.5
 20
1220.897929
 30
0.0
 40
2.0
100
AcDbArc
 50
273.0
 51
0.0
  0
ARC
  5
29B
100
AcDbEntity
  8
図
  6
CONTINUOUS
 62
     7
100
AcDbCircle
 10
1035.620601
 20
1138.633521
 30
0.0
 40
10.0
100
AcDbArc
 50
236.130102
 51
267.0
  0
LINE
  5
29C
100
AcDbEntity
  8
図
  6
CONTINUOUS
 62
     7
100
AcDbLine
 10
1035.097242
 20
1128.647226
 30
0.0
 11
1084.743365
 21
1126.045382
 31
0.0
  0
LINE
  5
29D
100
AcDbEntity
  8
図
  6
CONTINUOUS
 62
     7
100
AcDbLine
 10
1085.109717
 20
1133.035789
 30
0.0
 11
1035.463594
 21
1135.637632
 31
0.0
  0
LINE
  5
29E
100
AcDbEntity
  8
図
  6
CONTINUOUS
 62
     7
100
AcDbLine
 10
1028.917708
 20
1209.210387
 30
0.0
 11
1032.624713
 21
1138.476513
 31
0.0
  0
LINE
  5
29F
100
AcDbEntity
  8
図
  6
CONTINUOUS
 62
     7
100
AcDbLine
 10
1175.604672
 20
1218.90067
 30
0.0
 11
1030.810295
 21
1211.312318
 31
0.0
  0
LINE
  5
2A0
100
AcDbEntity
  8
図
  6
CONTINUOUS
 62
     7
100
AcDbLine
 10
1017.71869
 20
1245.995215
 30
0.0
 11
1175.587476
 21
1239.08373
 31
0.0
  0
ARC
  5
2A1
100
AcDbEntity
  8
図
  6
CONTINUOUS
 62
     7
100
AcDbCircle
 10
1176.5
 20
1235.0
 30
0.0
 40
1.0
100
AcDbArc
 50
300.0
 51
0.0
  0
LINE
  5
2A2
100
AcDbEntity
  8
図
  6
CONTINUOUS
 62
     7
100
AcDbLine
 10
1176.5
 20
1233.267949
 30
0.0
 11
1176.5
 21
1224.732051
 31
0.0
  0
ARC
  5
2A3
100
AcDbEntity
  8
図
  6
CONTINUOUS
 62
     7
100
AcDbCircle
 10
1176.5
 20
1223.0
 30
0.0
 40
1.0
100
AcDbArc
 50
0.0
 51
60.0
  0
LINE
  5
2A4
100
AcDbEntity
  8
図
  6
CONTINUOUS
 62
     6
100
AcDbLine
 10
1175.587476
 20
1239.08373
 30
0.0
 11
1177.5
 21
1239.0
 31
0.0
  0
LINE
  5
2A5
100
AcDbEntity
  8
図
  6
CONTINUOUS
 62
     6
100
AcDbLine
 10
1177.5
 20
1234.0
 30
0.0
 11
1176.5
 21
1234.0
 31
0.0
  0
ARC
  5
2A6
100
AcDbEntity
  8
図
  6
CONTINUOUS
 62
     6
100
AcDbCircle
 10
1176.5
 20
1235.0
 30
0.0
 40
1.0
100
AcDbArc
 50
270.0
 51
300.0
  0
LINE
  5
2A7
100
AcDbEntity
  8
図
  6
CONTINUOUS
 62
     6
100
AcDbLine
 10
1176.5
 20
1234.0
 30
0.0
 11
1176.5
 21
1233.267949
 31
0.0
  0
LINE
  5
2A8
100
AcDbEntity
  8
図
  6
CONTINUOUS
 62
     6
100
AcDbLine
 10
1176.5
 20
1224.732051
 30
0.0
 11
1176.5
 21
1224.0
 31
0.0
  0
LINE
  5
2A9
100
AcDbEntity
  8
図
  6
CONTINUOUS
 62
     6
100
AcDbLine
 10
1177.5
 20
1224.0
 30
0.0
 11
1176.5
 21
1224.0
 31
0.0
  0
ARC
  5
2AA
100
AcDbEntity
  8
図
  6
CONTINUOUS
 62
     6
100
AcDbCircle
 10
1176.5
 20
1223.0
 30
0.0
 40
1.0
100
AcDbArc
 50
60.0
 51
90.0
  0
LINE
  5
2AB
100
AcDbEntity
  8
図
  6
CONTINUOUS
 62
     6
100
AcDbLine
 10
1177.5
 20
1219.0
 30
0.0
 11
1175.604672
 21
1218.90067
 31
0.0
  0
LINE
  5
2AC
100
AcDbEntity
  8
図
  6
CONTINUOUS
 62
     6
100
AcDbLine
 10
1177.5
 20
1239.0
 30
0.0
 11
1177.5
 21
1237.085644
 31
0.0
  0
LINE
  5
2AD
100
AcDbEntity
  8
図
  6
CONTINUOUS
 62
     7
100
AcDbLine
 10
1171.5
 20
924.0
 30
0.0
 11
1164.5
 21
924.0
 31
0.0
  0
LINE
  5
2AE
100
AcDbEntity
  8
図
  6
CONTINUOUS
 62
     7
100
AcDbLine
 10
1171.5
 20
938.0
 30
0.0
 11
1164.5
 21
938.0
 31
0.0
  0
ARC
  5
2AF
100
AcDbEntity
  8
図
  6
CONTINUOUS
 62
     7
100
AcDbCircle
 10
1175.5
 20
947.694254
 30
0.0
 40
2.0
100
AcDbArc
 50
279.462322
 51
0.0
  0
ARC
  5
2B0
100
AcDbEntity
  8
図
  6
CONTINUOUS
 62
     7
100
AcDbCircle
 10
1173.5
 20
943.305746
 30
0.0
 40
2.0
100
AcDbArc
 50
99.462322
 51
180.0
  0
LINE
  5
2B1
100
AcDbEntity
  8
図
  6
CONTINUOUS
 62
     7
100
AcDbLine
 10
1173.171202
 20
945.278534
 30
0.0
 11
1175.828798
 21
945.721466
 31
0.0
  0
ARC
  5
2B2
100
AcDbEntity
  8
図
  6
CONTINUOUS
 62
     7
100
AcDbCircle
 10
1174.5
 20
914.360392
 30
0.0
 40
2.0
100
AcDbArc
 50
0.0
 51
78.690068
  0
ARC
  5
2B3
100
AcDbEntity
  8
図
  6
CONTINUOUS
 62
     7
100
AcDbCircle
 10
1173.5
 20
918.639608
 30
0.0
 40
2.0
100
AcDbArc
 50
180.0
 51
258.690068
  0
LINE
  5
2B4
100
AcDbEntity
  8
図
  6
CONTINUOUS
 62
     7
100
AcDbLine
 10
1171.5
 20
943.305746
 30
0.0
 11
1171.5
 21
918.639608
 31
0.0
  0
LINE
  5
2B5
100
AcDbEntity
  8
図
  6
CONTINUOUS
 62
     7
100
AcDbLine
 10
1173.107768
 20
916.678446
 30
0.0
 11
1174.892232
 21
916.321554
 31
0.0
  0
ARC
  5
2B6
100
AcDbEntity
  8
図
  6
CONTINUOUS
 62
     7
100
AcDbCircle
 10
1177.5
 20
906.732051
 30
0.0
 40
1.0
100
AcDbArc
 50
180.0
 51
240.0
  0
LINE
  5
2B7
100
AcDbEntity
  8
図
  6
CONTINUOUS
 62
     7
100
AcDbLine
 10
1176.5
 20
906.732051
 30
0.0
 11
1176.5
 21
914.360392
 31
0.0
  0
ARC
  5
2B8
100
AcDbEntity
  8
図
  6
CONTINUOUS
 62
     7
100
AcDbCircle
 10
1176.5
 20
905.0
 30
0.0
 40
1.0
100
AcDbArc
 50
0.0
 51
60.0
  0
ARC
  5
2B9
100
AcDbEntity
  8
図
  6
CONTINUOUS
 62
     7
100
AcDbCircle
 10
1173.5
 20
918.639608
 30
0.0
 40
9.0
100
AcDbArc
 50
180.0
 51
243.6122
  0
LINE
  5
2BA
100
AcDbEntity
  8
図
  6
EXLTYPE3
 62
     6
100
AcDbLine
 10
1177.5
 20
931.0
 30
0.0
 11
1160.85
 21
931.0
 31
0.0
  0
LINE
  5
2BB
100
AcDbEntity
  8
図
  6
CONTINUOUS
 62
     7
100
AcDbLine
 10
1127.5
 20
1051.5
 30
0.0
 11
1127.5
 21
990.5
 31
0.0
  0
LINE
  5
2BC
100
AcDbEntity
  8
図
  6
CONTINUOUS
 62
     7
100
AcDbLine
 10
1137.832416
 20
976.215676
 30
0.0
 11
1169.91013
 21
980.642583
 31
0.0
  0
LINE
  5
2BD
100
AcDbEntity
  8
図
  6
CONTINUOUS
 62
     7
100
AcDbLine
 10
1164.5
 20
945.423216
 30
0.0
 11
1164.5
 21
918.639608
 31
0.0
  0
ARC
  5
2BE
100
AcDbEntity
  8
図
  6
CONTINUOUS
 62
     7
100
AcDbCircle
 10
966.987226
 20
991.624713
 30
0.0
 40
170.0
100
AcDbArc
 50
348.99944
 51
354.197128
  0
ARC
  5
2BF
100
AcDbEntity
  8
図
  6
CONTINUOUS
 62
     7
100
AcDbCircle
 10
1138.105836
 20
974.234454
 30
0.0
 40
2.0
100
AcDbArc
 50
97.857511
 51
174.197128
  0
ARC
  5
2C0
100
AcDbEntity
  8
図
  6
CONTINUOUS
 62
     7
100
AcDbCircle
 10
1136.808406
 20
958.613098
 30
0.0
 40
3.0
100
AcDbArc
 50
168.99944
 51
263.558641
  0
LINE
  5
2C1
100
AcDbEntity
  8
図
  6
CONTINUOUS
 62
     7
100
AcDbLine
 10
1136.471847
 20
955.632036
 30
0.0
 11
1175.724373
 21
951.200467
 31
0.0
  0
ARC
  5
2C2
100
AcDbEntity
  8
図
  6
CONTINUOUS
 62
     7
100
AcDbCircle
 10
1175.5
 20
949.213092
 30
0.0
 40
2.0
100
AcDbArc
 50
0.0
 51
83.558641
  0
LINE
  5
2C3
100
AcDbEntity
  8
図
  6
CONTINUOUS
 62
     7
100
AcDbLine
 10
1127.5
 20
990.5
 30
0.0
 11
1126.219851
 21
975.867825
 31
0.0
  0
ARC
  5
2C4
100
AcDbEntity
  8
図
  6
CONTINUOUS
 62
     7
100
AcDbCircle
 10
966.828699
 20
989.812744
 30
0.0
 40
160.0
100
AcDbArc
 50
327.654628
 51
355.0
  0
ARC
  5
2C5
100
AcDbEntity
  8
図
  6
CONTINUOUS
 62
     7
100
AcDbCircle
 10
679.583636
 20
1171.720066
 30
0.0
 40
500.0
100
AcDbArc
 50
312.768851
 51
327.654628
  0
LINE
  5
2C6
100
AcDbEntity
  8
図
  6
CONTINUOUS
 62
     7
100
AcDbLine
 10
1136.875446
 20
983.149954
 30
0.0
 11
1165.5
 21
987.100305
 31
0.0
  0
ARC
  5
2C7
100
AcDbEntity
  8
図
  6
CONTINUOUS
 62
     7
100
AcDbCircle
 10
1138.105836
 20
974.234454
 30
0.0
 40
9.0
100
AcDbArc
 50
97.857511
 51
118.619795
  0
LINE
  5
2C8
100
AcDbEntity
  8
図
  6
CONTINUOUS
 62
     7
100
AcDbLine
 10
1133.79488
 20
982.134811
 30
0.0
 11
1134.251308
 21
987.351813
 31
0.0
  0
ARC
  5
2C9
100
AcDbEntity
  8
図
  6
CONTINUOUS
 62
     7
100
AcDbCircle
 10
966.828699
 20
989.812744
 30
0.0
 40
167.0
100
AcDbArc
 50
327.654628
 51
346.856167
  0
ARC
  5
2CA
100
AcDbEntity
  8
図
  6
CONTINUOUS
 62
     7
100
AcDbCircle
 10
1136.808406
 20
958.613098
 30
0.0
 40
10.0
100
AcDbArc
 50
222.652844
 51
263.558641
  0
LINE
  5
2CB
100
AcDbEntity
  8
図
  6
CONTINUOUS
 62
     7
100
AcDbLine
 10
1135.686543
 20
948.676226
 30
0.0
 11
1164.5
 21
945.423216
 31
0.0
  0
ARC
  5
2CC
100
AcDbEntity
  8
図
  6
CONTINUOUS
 62
     7
100
AcDbCircle
 10
679.583636
 20
1171.720066
 30
0.0
 40
507.0
100
AcDbArc
 50
315.4325
 51
327.654628
  0
LINE
  5
2CD
100
AcDbEntity
  8
図
  6
CONTINUOUS
 62
     7
100
AcDbLine
 10
1040.782712
 20
815.933293
 30
0.0
 11
1169.5
 21
904.007853
 31
0.0
  0
LINE
  5
2CE
100
AcDbEntity
  8
図
  6
CONTINUOUS
 62
     7
100
AcDbLine
 10
1169.5
 20
910.57735
 30
0.0
 11
1169.5
 21
904.007853
 31
0.0
  0
ARC
  5
2CF
100
AcDbEntity
  8
図
  6
CONTINUOUS
 62
     7
100
AcDbCircle
 10
1022.5
 20
801.0
 30
0.0
 40
5.0
100
AcDbArc
 50
132.768851
 51
304.381811
  0
LINE
  5
2D0
100
AcDbEntity
  8
図
  6
CONTINUOUS
 62
     7
100
AcDbLine
 10
1012.500323
 20
1240.943185
 30
0.0
 11
1017.500323
 21
800.943185
 31
0.0
  0
ARC
  5
2D1
100
AcDbEntity
  8
図
  6
CONTINUOUS
 62
     7
100
AcDbCircle
 10
1017.5
 20
1241.0
 30
0.0
 40
5.0
100
AcDbArc
 50
87.493195
 51
241.253096
  0
LINE
  5
2D2
100
AcDbEntity
  8
図
  6
CONTINUOUS
 62
     7
100
AcDbLine
 10
1025.323525
 20
796.873536
 30
0.0
 11
1176.62941
 21
900.4043
 31
0.0
  0
LINE
  5
2D3
100
AcDbEntity
  8
図
  6
CONTINUOUS
 62
     7
100
AcDbLine
 10
1177.5
 20
1237.085644
 30
0.0
 11
1177.5
 21
902.054886
 31
0.0
  0
ARC
  5
2D4
100
AcDbEntity
  8
図
  6
CONTINUOUS
 62
     7
100
AcDbCircle
 10
1175.5
 20
902.054886
 30
0.0
 40
2.0
100
AcDbArc
 50
304.381811
 51
0.0
  0
ARC
  5
2D5
100
AcDbEntity
  8
図
  6
CONTINUOUS
 62
     6
100
AcDbCircle
 10
523.038476
 20
1051.0
 30
0.0
 40
50.0
100
AcDbArc
 50
90.0
 51
171.786789
  0
ARC
  5
2D6
100
AcDbEntity
  8
図
  6
CONTINUOUS
 62
     6
100
AcDbCircle
 10
626.961524
 20
1051.0
 30
0.0
 40
50.0
100
AcDbArc
 50
8.213211
 51
90.0
  0
LINE
  5
2D7
100
AcDbEntity
  8
図
  6
CONTINUOUS
 62
     6
100
AcDbLine
 10
626.961524
 20
1101.0
 30
0.0
 11
523.038476
 21
1101.0
 31
0.0
  0
ARC
  5
2D8
100
AcDbEntity
  8
図
  6
CONTINUOUS
 62
     6
100
AcDbCircle
 10
575.0
 20
1043.5
 30
0.0
 40
102.5
100
AcDbArc
 50
171.786789
 51
8.213211
  0
CIRCLE
  5
2D9
100
AcDbEntity
  8
図
  6
CONTINUOUS
 62
     7
100
AcDbCircle
 10
575.0
 20
1167.0
 30
0.0
 40
18.75
  0
LINE
  5
2DA
100
AcDbEntity
  8
図
  6
CONTINUOUS
 62
     7
100
AcDbLine
 10
1020.134838
 20
1185.724304
 30
0.0
 11
1030.121133
 21
1186.247663
 31
0.0
  0
LINE
  5
2DB
100
AcDbEntity
  8
図
  6
CONTINUOUS
 62
     7
100
AcDbLine
 10
1022.097436
 20
1148.275696
 30
0.0
 11
1032.083731
 21
1148.799056
 31
0.0
  0
ARC
  5
2DC
100
AcDbEntity
  8
図
  6
CONTINUOUS
 62
     7
100
AcDbCircle
 10
575.0
 20
1028.429987
 30
0.0
 40
212.570013
100
AcDbArc
 50
9.763897
 51
170.236103
  0
LINE
  5
2DD
100
AcDbEntity
  8
図
  6
CONTINUOUS
 62
     7
100
AcDbLine
 10
1017.683734
 20
1232.494152
 30
0.0
 11
1024.076961
 21
1110.504105
 31
0.0
  0
LINE
  5
2DE
100
AcDbEntity
  8
図
  6
CONTINUOUS
 62
     7
100
AcDbLine
 10
1127.5
 20
1051.5
 30
0.0
 11
1127.343978
 21
1053.283343
 31
0.0
  0
ARC
  5
2DF
100
AcDbEntity
  8
図
  6
CONTINUOUS
 62
     7
100
AcDbCircle
 10
1029.070109
 20
1110.765785
 30
0.0
 40
5.0
100
AcDbArc
 50
183.0
 51
267.104535
  0
LINE
  5
2E0
100
AcDbEntity
  8
図
  6
CONTINUOUS
 62
     7
100
AcDbLine
 10
1028.817539
 20
1105.772168
 30
0.0
 11
1075.331534
 21
1103.419561
 31
0.0
  0
ARC
  5
2E1
100
AcDbEntity
  8
図
  6
CONTINUOUS
 62
     7
100
AcDbCircle
 10
1072.553269
 20
1048.489777
 30
0.0
 40
55.0
100
AcDbArc
 50
5.0
 51
87.104535
  0
LINE
  5
2E2
100
AcDbEntity
  8
図
  6
CONTINUOUS
 62
     7
100
AcDbLine
 10
1030.972948
 20
1112.672099
 30
0.0
 11
1075.685131
 21
1110.410625
 31
0.0
  0
LINE
  5
2E3
100
AcDbEntity
  8
図
  6
CONTINUOUS
 62
     7
100
AcDbLine
 10
1030.047512
 20
1130.330469
 30
0.0
 11
1030.972948
 21
1112.672099
 31
0.0
  0
LINE
  5
2E4
100
AcDbEntity
  8
図
  6
CONTINUOUS
 62
     7
100
AcDbLine
 10
1044.303508
 20
1111.997859
 30
0.0
 11
1044.303508
 21
1105.133182
 31
0.0
  0
LINE
  5
2E5
100
AcDbEntity
  8
図
  6
CONTINUOUS
 62
     7
100
AcDbLine
 10
1068.303508
 20
1110.783976
 30
0.0
 11
1068.303508
 21
1103.875395
 31
0.0
  0
ARC
  5
2E6
100
AcDbEntity
  8
図
  6
CONTINUOUS
 62
     7
100
AcDbCircle
 10
1072.553269
 20
1048.489777
 30
0.0
 40
62.0
100
AcDbArc
 50
5.705344
 51
87.104535
  0
LINE
  5
2E7
100
AcDbEntity
  8
図
  6
CONTINUOUS
 62
     7
100
AcDbLine
 10
1134.24614
 20
1054.653355
 30
0.0
 11
1140.399495
 21
1048.5
 31
0.0
  0
ARC
  5
2E8
100
AcDbEntity
  8
図
  6
CONTINUOUS
 62
     7
100
AcDbCircle
 10
414.784821
 20
1056.0
 30
0.0
 40
50.0
100
AcDbArc
 50
90.0
 51
170.236103
  0
LINE
  5
2E9
100
AcDbEntity
  8
図
  6
CONTINUOUS
 62
     7
100
AcDbLine
 10
414.784821
 20
1106.0
 30
0.0
 11
735.215179
 21
1106.0
 31
0.0
  0
ARC
  5
2EA
100
AcDbEntity
  8
図
  6
CONTINUOUS
 62
     7
100
AcDbCircle
 10
735.215179
 20
1056.0
 30
0.0
 40
50.0
100
AcDbArc
 50
9.763897
 51
90.0
  0
LINE
  5
2EB
100
AcDbEntity
  8
図
  6
EXLTYPE3
 62
     6
100
AcDbLine
 10
575.0
 20
785.5
 30
0.0
 11
575.0
 21
1258.5
 31
0.0
  0
LINE
  5
2EC
100
AcDbEntity
  8
図
  6
EXLTYPE3
 62
     6
100
AcDbLine
 10
1056.303508
 20
1114.8
 30
0.0
 11
1056.303508
 21
1101.0
 31
0.0
  0
LINE
  5
2ED
100
AcDbEntity
  8
図
  6
EXLTYPE3
 62
     6
100
AcDbLine
 10
1034.779047
 20
1167.716043
 30
0.0
 11
1016.303587
 21
1166.747785
 31
0.0
  0
CIRCLE
  5
2EE
100
AcDbEntity
  8
図
  6
CONTINUOUS
 62
     7
100
AcDbCircle
 10
1653.5
 20
1021.0
 30
0.0
 40
225.0
  0
CIRCLE
  5
2EF
100
AcDbEntity
  8
図
  6
CONTINUOUS
 62
     7
100
AcDbCircle
 10
1653.5
 20
1168.266576
 30
0.0
 40
18.75
  0
CIRCLE
  5
2F0
100
AcDbEntity
  8
図
  6
CONTINUOUS
 62
     7
100
AcDbCircle
 10
1653.5
 20
1070.0
 30
0.0
 40
169.0
  0
CIRCLE
  5
2F1
100
AcDbEntity
  8
図
  6
CONTINUOUS
 62
     6
100
AcDbCircle
 10
1653.5
 20
1070.0
 30
0.0
 40
164.0
  0
ARC
  5
2F2
100
AcDbEntity
  8
図
  6
CONTINUOUS
 62
     6
100
AcDbCircle
 10
1653.5
 20
1070.0
 30
0.0
 40
124.0
100
AcDbArc
 50
158.036048
 51
21.963952
  0
ARC
  5
2F3
100
AcDbEntity
  8
図
  6
CONTINUOUS
 62
     6
100
AcDbCircle
 10
1653.5
 20
1070.0
 30
0.0
 40
154.0
100
AcDbArc
 50
41.690089
 51
138.309911
  0
ARC
  5
2F4
100
AcDbEntity
  8
図
  6
EXLTYPE2
 62
     6
100
AcDbCircle
 10
1653.5
 20
1070.0
 30
0.0
 40
154.0
100
AcDbArc
 50
138.309911
 51
41.690089
  0
LINE
  5
2F5
100
AcDbEntity
  8
図
  6
CONTINUOUS
 62
     6
100
AcDbLine
 10
1538.5
 20
1116.378875
 30
0.0
 11
1538.5
 21
1172.425583
 31
0.0
  0
ARC
  5
2F6
100
AcDbEntity
  8
図
  6
CONTINUOUS
 62
     7
100
AcDbCircle
 10
1554.465175
 20
1115.531346
 30
0.0
 40
5.0
100
AcDbArc
 50
155.309353
 51
270.0
  0
ARC
  5
2F7
100
AcDbEntity
  8
図
  6
CONTINUOUS
 62
     7
100
AcDbCircle
 10
1533.5
 20
1117.339202
 30
0.0
 40
10.0
100
AcDbArc
 50
338.471096
 51
0.0
  0
ARC
  5
2F8
100
AcDbEntity
  8
図
  6
CONTINUOUS
 62
     7
100
AcDbCircle
 10
1553.5
 20
1166.545326
 30
0.0
 40
10.0
100
AcDbArc
 50
136.006983
 51
180.0
  0
ARC
  5
2F9
100
AcDbEntity
  8
図
  6
CONTINUOUS
 62
     7
100
AcDbCircle
 10
1563.5
 20
1165.474847
 30
0.0
 40
10.0
100
AcDbArc
 50
133.309234
 51
180.0
  0
ARC
  5
2FA
100
AcDbEntity
  8
図
  6
CONTINUOUS
 62
     6
100
AcDbCircle
 10
1533.5
 20
1117.339202
 30
0.0
 40
5.0
100
AcDbArc
 50
338.471096
 51
0.0
  0
LINE
  5
2FB
100
AcDbEntity
  8
図
  6
CONTINUOUS
 62
     7
100
AcDbLine
 10
1554.465175
 20
1110.531346
 30
0.0
 11
1618.5
 21
1110.531346
 31
0.0
  0
LINE
  5
2FC
100
AcDbEntity
  8
図
  6
CONTINUOUS
 62
     7
100
AcDbLine
 10
1553.5
 20
1120.696397
 30
0.0
 11
1553.5
 21
1165.474847
 31
0.0
  0
LINE
  5
2FD
100
AcDbEntity
  8
図
  6
CONTINUOUS
 62
     7
100
AcDbLine
 10
1543.5
 20
1117.339202
 30
0.0
 11
1543.5
 21
1166.545326
 31
0.0
  0
ARC
  5
2FE
100
AcDbEntity
  8
図
  6
CONTINUOUS
 62
     6
100
AcDbCircle
 10
1553.5
 20
1166.545326
 30
0.0
 40
15.0
100
AcDbArc
 50
136.006983
 51
180.0
  0
LINE
  5
2FF
100
AcDbEntity
  8
図
  6
CONTINUOUS
 62
     6
100
AcDbLine
 10
1546.948557
 20
1110.531346
 30
0.0
 11
1554.465175
 21
1110.531346
 31
0.0
  0
LINE
  5
300
100
AcDbEntity
  8
図
  6
CONTINUOUS
 62
     6
100
AcDbLine
 10
1543.5
 20
1115.398238
 30
0.0
 11
1543.5
 21
1117.339202
 31
0.0
  0
ARC
  5
301
100
AcDbEntity
  8
図
  6
CONTINUOUS
 62
     6
100
AcDbCircle
 10
1653.5
 20
1070.0
 30
0.0
 40
119.0
100
AcDbArc
 50
157.573509
 51
158.471096
  0
LINE
  5
302
100
AcDbEntity
  8
図
  6
CONTINUOUS
 62
     6
100
AcDbLine
 10
1543.5
 20
1166.545326
 30
0.0
 11
1543.5
 21
1170.503731
 31
0.0
  0
ARC
  5
303
100
AcDbEntity
  8
図
  6
CONTINUOUS
 62
     6
100
AcDbCircle
 10
1653.5
 20
1070.0
 30
0.0
 40
149.0
100
AcDbArc
 50
136.006983
 51
137.582983
  0
ARC
  5
304
100
AcDbEntity
  8
図
  6
CONTINUOUS
 62
     6
100
AcDbCircle
 10
1653.5
 20
1070.0
 30
0.0
 40
141.207646
100
AcDbArc
 50
133.309234
 51
135.08678
  0
LINE
  5
305
100
AcDbEntity
  8
図
  6
CONTINUOUS
 62
     6
100
AcDbLine
 10
1553.5
 20
1165.474847
 30
0.0
 11
1553.5
 21
1169.69754
 31
0.0
  0
ARC
  5
306
100
AcDbEntity
  8
図
  6
CONTINUOUS
 62
     6
100
AcDbCircle
 10
1773.5
 20
1117.339202
 30
0.0
 40
5.0
100
AcDbArc
 50
180.0
 51
201.528904
  0
LINE
  5
307
100
AcDbEntity
  8
図
  6
CONTINUOUS
 62
     6
100
AcDbLine
 10
1763.5
 20
1115.398238
 30
0.0
 11
1763.5
 21
1117.339202
 31
0.0
  0
ARC
  5
308
100
AcDbEntity
  8
図
  6
CONTINUOUS
 62
     6
100
AcDbCircle
 10
1653.5
 20
1070.0
 30
0.0
 40
119.0
100
AcDbArc
 50
21.528904
 51
22.426491
  0
LINE
  5
309
100
AcDbEntity
  8
図
  6
CONTINUOUS
 62
     6
100
AcDbLine
 10
1760.051443
 20
1110.531346
 30
0.0
 11
1752.534825
 21
1110.531346
 31
0.0
  0
ARC
  5
30A
100
AcDbEntity
  8
図
  6
CONTINUOUS
 62
     6
100
AcDbCircle
 10
1653.5
 20
1070.0
 30
0.0
 40
149.0
100
AcDbArc
 50
42.417017
 51
43.993017
  0
LINE
  5
30B
100
AcDbEntity
  8
図
  6
CONTINUOUS
 62
     6
100
AcDbLine
 10
1763.5
 20
1166.545326
 30
0.0
 11
1763.5
 21
1170.503731
 31
0.0
  0
LINE
  5
30C
100
AcDbEntity
  8
図
  6
CONTINUOUS
 62
     6
100
AcDbLine
 10
1753.5
 20
1165.474847
 30
0.0
 11
1753.5
 21
1169.69754
 31
0.0
  0
ARC
  5
30D
100
AcDbEntity
  8
図
  6
CONTINUOUS
 62
     6
100
AcDbCircle
 10
1653.5
 20
1070.0
 30
0.0
 40
141.207646
100
AcDbArc
 50
44.91322
 51
46.690766
  0
LINE
  5
30E
100
AcDbEntity
  8
図
  6
CONTINUOUS
 62
     7
100
AcDbLine
 10
1688.5
 20
1110.531346
 30
0.0
 11
1752.534825
 21
1110.531346
 31
0.0
  0
ARC
  5
30F
100
AcDbEntity
  8
図
  6
CONTINUOUS
 62
     7
100
AcDbCircle
 10
1653.5
 20
1070.0
 30
0.0
 40
119.0
100
AcDbArc
 50
158.471096
 51
21.528904
  0
ARC
  5
310
100
AcDbEntity
  8
図
  6
CONTINUOUS
 62
     7
100
AcDbCircle
 10
1773.5
 20
1117.339202
 30
0.0
 40
10.0
100
AcDbArc
 50
180.0
 51
201.528904
  0
LINE
  5
311
100
AcDbEntity
  8
図
  6
CONTINUOUS
 62
     7
100
AcDbLine
 10
1763.5
 20
1117.339202
 30
0.0
 11
1763.5
 21
1166.545326
 31
0.0
  0
ARC
  5
312
100
AcDbEntity
  8
図
  6
CONTINUOUS
 62
     7
100
AcDbCircle
 10
1653.5
 20
1070.0
 30
0.0
 40
149.0
100
AcDbArc
 50
43.993017
 51
136.006983
  0
ARC
  5
313
100
AcDbEntity
  8
図
  6
CONTINUOUS
 62
     7
100
AcDbCircle
 10
1753.5
 20
1166.545326
 30
0.0
 40
10.0
100
AcDbArc
 50
0.0
 51
43.993017
  0
ARC
  5
314
100
AcDbEntity
  8
図
  6
CONTINUOUS
 62
     7
100
AcDbCircle
 10
1653.5
 20
1070.0
 30
0.0
 40
141.207646
100
AcDbArc
 50
46.690766
 51
133.309234
  0
ARC
  5
315
100
AcDbEntity
  8
図
  6
CONTINUOUS
 62
     7
100
AcDbCircle
 10
1743.5
 20
1165.474847
 30
0.0
 40
10.0
100
AcDbArc
 50
0.0
 51
46.690766
  0
ARC
  5
316
100
AcDbEntity
  8
図
  6
CONTINUOUS
 62
     6
100
AcDbCircle
 10
1753.5
 20
1166.545326
 30
0.0
 40
15.0
100
AcDbArc
 50
0.0
 51
43.993017
  0
LINE
  5
317
100
AcDbEntity
  8
図
  6
CONTINUOUS
 62
     6
100
AcDbLine
 10
1768.5
 20
1116.378875
 30
0.0
 11
1768.5
 21
1172.425583
 31
0.0
  0
LINE
  5
318
100
AcDbEntity
  8
図
  6
EXLTYPE3
 62
     6
100
AcDbLine
 10
1621.8
 20
1168.266576
 30
0.0
 11
1690.0
 21
1168.266576
 31
0.0
  0
LINE
  5
319
100
AcDbEntity
  8
図
  6
CONTINUOUS
 62
     7
100
AcDbLine
 10
1753.5
 20
1120.696397
 30
0.0
 11
1753.5
 21
1165.474847
 31
0.0
  0
ARC
  5
31A
100
AcDbEntity
  8
図
  6
CONTINUOUS
 62
     7
100
AcDbCircle
 10
1752.534825
 20
1115.531346
 30
0.0
 40
5.0
100
AcDbArc
 50
270.0
 51
24.690647
  0
ARC
  5
31B
100
AcDbEntity
  8
図
  6
CONTINUOUS
 62
     7
100
AcDbCircle
 10
1653.5
 20
1070.0
 30
0.0
 40
114.0
100
AcDbArc
 50
155.35052
 51
24.690647
  0
ARC
  5
31C
100
AcDbEntity
  8
図
  6
EXLTYPE4
 62
     6
100
AcDbCircle
 10
1653.5
 20
1168.266576
 30
0.0
 40
40.131827
100
AcDbArc
 50
313.93263
 51
226.06737
  0
LINE
  5
31D
100
AcDbEntity
  8
図
  6
EXLTYPE4
 62
     6
100
AcDbLine
 10
1625.656054
 20
1139.365397
 30
0.0
 11
1681.343946
 21
1139.365397
 31
0.0
  0
ARC
  5
31E
100
AcDbEntity
  8
図
  6
CONTINUOUS
 62
     7
100
AcDbCircle
 10
1558.5
 20
1121.0
 30
0.0
 40
5.0
100
AcDbArc
 50
180.0
 51
270.0
  0
LINE
  5
31F
100
AcDbEntity
  8
図
  6
CONTINUOUS
 62
     7
100
AcDbLine
 10
1558.5
 20
1116.0
 30
0.0
 11
1618.5
 21
1116.0
 31
0.0
  0
LINE
  5
320
100
AcDbEntity
  8
図
  6
CONTINUOUS
 62
     6
100
AcDbLine
 10
1553.5
 20
1116.0
 30
0.0
 11
1558.5
 21
1116.0
 31
0.0
  0
LINE
  5
321
100
AcDbEntity
  8
図
  6
CONTINUOUS
 62
     6
100
AcDbLine
 10
1553.5
 20
1116.0
 30
0.0
 11
1553.5
 21
1121.0
 31
0.0
  0
LINE
  5
322
100
AcDbEntity
  8
図
  6
CONTINUOUS
 62
     7
100
AcDbLine
 10
1688.5
 20
1116.0
 30
0.0
 11
1748.5
 21
1116.0
 31
0.0
  0
LINE
  5
323
100
AcDbEntity
  8
図
  6
CONTINUOUS
 62
     6
100
AcDbLine
 10
1753.5
 20
1116.0
 30
0.0
 11
1748.5
 21
1116.0
 31
0.0
  0
ARC
  5
324
100
AcDbEntity
  8
図
  6
CONTINUOUS
 62
     7
100
AcDbCircle
 10
1748.5
 20
1121.0
 30
0.0
 40
5.0
100
AcDbArc
 50
270.0
 51
0.0
  0
LINE
  5
325
100
AcDbEntity
  8
図
  6
CONTINUOUS
 62
     6
100
AcDbLine
 10
1753.5
 20
1116.0
 30
0.0
 11
1753.5
 21
1121.0
 31
0.0
  0
ARC
  5
326
100
AcDbEntity
  8
図
  6
CONTINUOUS
 62
     7
100
AcDbCircle
 10
1653.5
 20
1094.922318
 30
0.0
 40
40.856684
100
AcDbArc
 50
31.05717
 51
148.94283
  0
LINE
  5
327
100
AcDbEntity
  8
図
  6
EXLTYPE3
 62
     6
100
AcDbLine
 10
1520.5
 20
1126.5
 30
0.0
 11
1520.5
 21
1090.5
 31
0.0
  0
LINE
  5
328
100
AcDbEntity
  8
図
  6
EXLTYPE3
 62
     6
100
AcDbLine
 10
1786.5
 20
1133.5
 30
0.0
 11
1786.5
 21
1090.0
 31
0.0
  0
LINE
  5
329
100
AcDbEntity
  8
図
  6
EXLTYPE3
 62
     6
100
AcDbLine
 10
1511.65
 20
1111.0
 30
0.0
 11
1531.2
 21
1111.0
 31
0.0
  0
LINE
  5
32A
100
AcDbEntity
  8
図
  6
EXLTYPE3
 62
     6
100
AcDbLine
 10
1774.5
 20
1111.0
 30
0.0
 11
1799.0
 21
1111.0
 31
0.0
  0
CIRCLE
  5
32B
100
AcDbEntity
  8
図
  6
CONTINUOUS
 62
     7
100
AcDbCircle
 10
1520.5
 20
1111.0
 30
0.0
 40
7.0
  0
CIRCLE
  5
32C
100
AcDbEntity
  8
図
  6
CONTINUOUS
 62
     7
100
AcDbCircle
 10
1786.5
 20
1111.0
 30
0.0
 40
7.0
  0
LINE
  5
32D
100
AcDbEntity
  8
図
  6
EXLTYPE3
 62
     6
100
AcDbLine
 10
1010.5
 20
1021.0
 30
0.0
 11
1181.95
 21
1021.0
 31
0.0
  0
DIMENSION
  5
339
100
AcDbEntity
  8
図
  6
CONTINUOUS
 62
     3
100
AcDbDimension
  2
*D21
 10
1172.5
 20
1152.0
 30
0.0
 11
1150.0
 21
1163.75
 31
0.0
 70
   160
  3
STANDARD
100
AcDbAlignedDimension
 13
1127.5
 23
1051.5
 33
0.0
 14
1172.5
 24
1058.385583
 34
0.0
100
AcDbRotatedDimension
1001
ACAD
1000
DSTYLE
1002
{
1070
     6
1000
_EX_NORM
1070
     7
1000
_EX_BCIR
1070
    41
1040
15.0
1070
    42
1040
2.5
1070
    44
1040
5.0
1070
    73
1070
     0
1070
    74
1070
     0
1070
    75
1070
     0
1070
    76
1070
     0
1070
    77
1070
     1
1070
    78
1070
     8
1070
   140
1040
20.0
1070
   147
1040
1.75
1070
   173
1070
     1
1070
   176
1070
     3
1070
   177
1070
     3
1070
   178
1070
     2
1070
   271
1070
     2
1070
   279
1070
     2
1070
   280
1070
     0
1070
   287
1070
     5
1070
   340
1005
F3
1002
}
  0
DIMENSION
  5
342
100
AcDbEntity
  8
図
  6
CONTINUOUS
 62
     3
100
AcDbDimension
  2
*D22
 10
1177.5
 20
1152.0
 30
0.0
 11
1203.75
 21
1163.75
 31
0.0
 70
   160
  3
STANDARD
100
AcDbAlignedDimension
 13
1172.5
 23
1058.385583
 33
0.0
 14
1177.5
 24
1059.5
 34
0.0
100
AcDbRotatedDimension
1001
ACAD
1000
DSTYLE
1002
{
1070
     6
1000
_EX_NONE
1070
     7
1000
_EX_NORM
1070
    41
1040
15.0
1070
    42
1040
2.5
1070
    44
1040
5.0
1070
    73
1070
     0
1070
    74
1070
     0
1070
    75
1070
     1
1070
    76
1070
     0
1070
    77
1070
     1
1070
    78
1070
     8
1070
   140
1040
20.0
1070
   147
1040
1.75
1070
   173
1070
     1
1070
   176
1070
     3
1070
   177
1070
     3
1070
   178
1070
     2
1070
   271
1070
     2
1070
   279
1070
     2
1070
   280
1070
     2
1070
   287
1070
     5
1070
   340
1005
F3
1002
}
  0
LINE
  5
343
100
AcDbEntity
  8
図
  6
EXLTYPE3
 62
     6
100
AcDbLine
 10
1653.5
 20
784.0
 30
0.0
 11
1653.5
 21
1256.0
 31
0.0
  0
CIRCLE
  5
344
100
AcDbEntity
  8
図
  6
EXLTYPE2
 62
     6
100
AcDbCircle
 10
575.0
 20
1018.0
 30
0.0
 40
21.5
  0
CIRCLE
  5
345
100
AcDbEntity
  8
図
  6
CONTINUOUS
 62
     7
100
AcDbCircle
 10
575.0
 20
1018.0
 30
0.0
 40
20.5
  0
CIRCLE
  5
346
100
AcDbEntity
  8
図
  6
CONTINUOUS
 62
     7
100
AcDbCircle
 10
575.0
 20
1018.0
 30
0.0
 40
30.5
  0
LINE
  5
347
100
AcDbEntity
  8
図
  6
EXLTYPE3
 62
     6
100
AcDbLine
 10
336.0
 20
1018.0
 30
0.0
 11
810.5
 21
1018.0
 31
0.0
  0
ARC
  5
348
100
AcDbEntity
  8
図
  6
CONTINUOUS
 62
     7
100
AcDbCircle
 10
1653.5
 20
1018.0
 30
0.0
 40
45.0
100
AcDbArc
 50
141.057559
 51
38.942441
  0
CIRCLE
  5
349
100
AcDbEntity
  8
図
  6
CONTINUOUS
 62
     7
100
AcDbCircle
 10
1653.5
 20
1018.0
 30
0.0
 40
40.0
  0
CIRCLE
  5
34A
100
AcDbEntity
  8
図
  6
CONTINUOUS
 62
     7
100
AcDbCircle
 10
1653.5
 20
1018.0
 30
0.0
 40
21.5
  0
LINE
  5
34B
100
AcDbEntity
  8
図
  6
EXLTYPE3
 62
     6
100
AcDbLine
 10
1417.0
 20
1018.0
 30
0.0
 11
1902.0
 21
1018.0
 31
0.0
  0
LINE
  5
34C
100
AcDbEntity
  8
図
  6
CONTINUOUS
 62
     7
100
AcDbLine
 10
1618.5
 20
1046.284271
 30
0.0
 11
1618.5
 21
1116.0
 31
0.0
  0
LINE
  5
34D
100
AcDbEntity
  8
図
  6
CONTINUOUS
 62
     7
100
AcDbLine
 10
1688.5
 20
1046.284271
 30
0.0
 11
1688.5
 21
1116.0
 31
0.0
  0
CIRCLE
  5
34E
100
AcDbEntity
  8
図
  6
CONTINUOUS
 62
     7
100
AcDbCircle
 10
1688.5
 20
938.0
 30
0.0
 40
7.0
  0
LINE
  5
34F
100
AcDbEntity
  8
図
  6
EXLTYPE3
 62
     6
100
AcDbLine
 10
1679.8
 20
938.0
 30
0.0
 11
1697.0
 21
938.0
 31
0.0
  0
LINE
  5
350
100
AcDbEntity
  8
図
  6
EXLTYPE3
 62
     6
100
AcDbLine
 10
1688.5
 20
929.45
 30
0.0
 11
1688.5
 21
946.3
 31
0.0
  0
LINE
  5
351
100
AcDbEntity
  8
図
  6
CONTINUOUS
 62
     6
100
AcDbLine
 10
961.0
 20
152.0
 30
0.0
 11
1039.0
 21
152.0
 31
0.0
  0
LINE
  5
352
100
AcDbEntity
  8
図
  6
CONTINUOUS
 62
     6
100
AcDbLine
 10
961.0
 20
147.0
 30
0.0
 11
1039.0
 21
147.0
 31
0.0
  0
LINE
  5
353
100
AcDbEntity
  8
図
  6
CONTINUOUS
 62
     7
100
AcDbLine
 10
544.5
 20
572.5
 30
0.0
 11
554.5
 21
562.5
 31
0.0
  0
LINE
  5
354
100
AcDbEntity
  8
図
  6
CONTINUOUS
 62
     7
100
AcDbLine
 10
554.5
 20
562.5
 30
0.0
 11
554.5
 21
557.5
 31
0.0
  0
LINE
  5
355
100
AcDbEntity
  8
図
  6
CONTINUOUS
 62
     7
100
AcDbLine
 10
547.5
 20
559.600505
 30
0.0
 11
547.5
 21
557.5
 31
0.0
  0
LINE
  5
356
100
AcDbEntity
  8
図
  6
CONTINUOUS
 62
     7
100
AcDbLine
 10
553.5
 20
534.5
 30
0.0
 11
553.5
 21
527.5
 31
0.0
  0
LINE
  5
357
100
AcDbEntity
  8
図
  6
CONTINUOUS
 62
     7
100
AcDbLine
 10
575.0
 20
562.5
 30
0.0
 11
554.5
 21
562.5
 31
0.0
  0
LINE
  5
358
100
AcDbEntity
  8
図
  6
CONTINUOUS
 62
     7
100
AcDbLine
 10
547.5
 20
557.5
 30
0.0
 11
575.0
 21
557.5
 31
0.0
  0
LINE
  5
359
100
AcDbEntity
  8
図
  6
CONTINUOUS
 62
     7
100
AcDbLine
 10
541.100305
 20
534.5
 30
0.0
 11
575.0
 21
534.5
 31
0.0
  0
ARC
  5
35A
100
AcDbEntity
  8
図
  6
CONTINUOUS
 62
     7
100
AcDbCircle
 10
419.223265
 20
522.5
 30
0.0
 40
1.0
100
AcDbArc
 50
90.0
 51
150.0
  0
ARC
  5
35B
100
AcDbEntity
  8
図
  6
CONTINUOUS
 62
     7
100
AcDbCircle
 10
431.003425
 20
526.5
 30
0.0
 40
9.0
100
AcDbArc
 50
90.0
 51
153.6122
  0
ARC
  5
35C
100
AcDbEntity
  8
図
  6
CONTINUOUS
 62
     7
100
AcDbCircle
 10
417.491214
 20
523.5
 30
0.0
 40
1.0
100
AcDbArc
 50
270.0
 51
330.0
  0
ARC
  5
35D
100
AcDbEntity
  8
図
  6
CONTINUOUS
 62
     7
100
AcDbCircle
 10
458.397888
 20
526.5
 30
0.0
 40
2.0
100
AcDbArc
 50
9.462322
 51
90.0
  0
ARC
  5
35E
100
AcDbEntity
  8
図
  6
CONTINUOUS
 62
     7
100
AcDbCircle
 10
462.786397
 20
524.5
 30
0.0
 40
2.0
100
AcDbArc
 50
189.462322
 51
270.0
  0
ARC
  5
35F
100
AcDbEntity
  8
図
  6
CONTINUOUS
 62
     7
100
AcDbCircle
 10
427.363817
 20
525.5
 30
0.0
 40
2.0
100
AcDbArc
 50
270.0
 51
348.690068
  0
ARC
  5
360
100
AcDbEntity
  8
図
  6
CONTINUOUS
 62
     7
100
AcDbCircle
 10
431.643033
 20
526.5
 30
0.0
 40
2.0
100
AcDbArc
 50
90.0
 51
168.690068
  0
LINE
  5
361
100
AcDbEntity
  8
図
  6
CONTINUOUS
 62
     7
100
AcDbLine
 10
419.223265
 20
523.5
 30
0.0
 11
427.363817
 21
523.5
 31
0.0
  0
LINE
  5
362
100
AcDbEntity
  8
図
  6
CONTINUOUS
 62
     7
100
AcDbLine
 10
429.324978
 20
525.107768
 30
0.0
 11
429.681871
 21
526.892232
 31
0.0
  0
LINE
  5
363
100
AcDbEntity
  8
図
  6
CONTINUOUS
 62
     7
100
AcDbLine
 10
431.643033
 20
528.5
 30
0.0
 11
458.397888
 21
528.5
 31
0.0
  0
LINE
  5
364
100
AcDbEntity
  8
図
  6
CONTINUOUS
 62
     7
100
AcDbLine
 10
460.370676
 20
526.828798
 30
0.0
 11
460.813609
 21
524.171202
 31
0.0
  0
ARC
  5
365
100
AcDbEntity
  8
図
  6
CONTINUOUS
 62
     6
100
AcDbCircle
 10
417.491214
 20
523.5
 30
0.0
 40
1.0
100
AcDbArc
 50
330.0
 51
0.0
  0
LINE
  5
366
100
AcDbEntity
  8
図
  6
CONTINUOUS
 62
     6
100
AcDbLine
 10
418.491214
 20
522.5
 30
0.0
 11
418.491214
 21
523.5
 31
0.0
  0
LINE
  5
367
100
AcDbEntity
  8
図
  6
CONTINUOUS
 62
     6
100
AcDbLine
 10
418.491214
 20
523.5
 30
0.0
 11
419.223265
 21
523.5
 31
0.0
  0
LINE
  5
368
100
AcDbEntity
  8
図
  6
CONTINUOUS
 62
     6
100
AcDbLine
 10
427.363817
 20
523.5
 30
0.0
 11
429.003425
 21
523.5
 31
0.0
  0
LINE
  5
369
100
AcDbEntity
  8
図
  6
CONTINUOUS
 62
     6
100
AcDbLine
 10
429.003425
 20
523.5
 30
0.0
 11
429.324978
 21
525.107768
 31
0.0
  0
LINE
  5
36A
100
AcDbEntity
  8
図
  6
CONTINUOUS
 62
     6
100
AcDbLine
 10
429.681871
 20
526.892232
 30
0.0
 11
430.003425
 21
528.5
 31
0.0
  0
LINE
  5
36B
100
AcDbEntity
  8
図
  6
CONTINUOUS
 62
     6
100
AcDbLine
 10
430.003425
 20
528.5
 30
0.0
 11
431.643033
 21
528.5
 31
0.0
  0
LINE
  5
36C
100
AcDbEntity
  8
図
  6
CONTINUOUS
 62
     6
100
AcDbLine
 10
458.397888
 20
528.5
 30
0.0
 11
460.092143
 21
528.5
 31
0.0
  0
LINE
  5
36D
100
AcDbEntity
  8
図
  6
CONTINUOUS
 62
     6
100
AcDbLine
 10
460.092143
 20
528.5
 30
0.0
 11
460.370676
 21
526.828798
 31
0.0
  0
LINE
  5
36E
100
AcDbEntity
  8
図
  6
CONTINUOUS
 62
     6
100
AcDbLine
 10
460.813609
 20
524.171202
 30
0.0
 11
461.092143
 21
522.5
 31
0.0
  0
LINE
  5
36F
100
AcDbEntity
  8
図
  6
CONTINUOUS
 62
     7
100
AcDbLine
 10
361.466784
 20
682.5
 30
0.0
 11
575.0
 21
682.5
 31
0.0
  0
LINE
  5
370
100
AcDbEntity
  8
図
  6
EXLTYPE3
 62
     6
100
AcDbLine
 10
591.65
 20
643.696492
 30
0.0
 11
559.4
 21
643.696492
 31
0.0
  0
LINE
  5
371
100
AcDbEntity
  8
図
  6
CONTINUOUS
 62
     7
100
AcDbLine
 10
575.0
 20
675.696492
 30
0.0
 11
372.159817
 21
675.696492
 31
0.0
  0
ARC
  5
372
100
AcDbEntity
  8
図
  6
CONTINUOUS
 62
     7
100
AcDbCircle
 10
575.0
 20
643.696492
 30
0.0
 40
12.0
100
AcDbArc
 50
90.0
 51
270.0
  0
ARC
  5
373
100
AcDbEntity
  8
図
  6
EXLTYPE2
 62
     6
100
AcDbCircle
 10
575.0
 20
643.696492
 30
0.0
 40
12.0
100
AcDbArc
 50
270.0
 51
90.0
  0
LINE
  5
374
100
AcDbEntity
  8
図
  6
CONTINUOUS
 62
     6
100
AcDbLine
 10
537.614436
 20
527.5
 30
0.0
 11
535.0
 21
527.5
 31
0.0
  0
LINE
  5
375
100
AcDbEntity
  8
図
  6
CONTINUOUS
 62
     7
100
AcDbLine
 10
575.0
 20
527.5
 30
0.0
 11
537.614436
 21
527.5
 31
0.0
  0
LINE
  5
376
100
AcDbEntity
  8
図
  6
CONTINUOUS
 62
     7
100
AcDbLine
 10
431.003425
 20
535.5
 30
0.0
 11
460.775622
 21
535.5
 31
0.0
  0
ARC
  5
377
100
AcDbEntity
  8
図
  6
CONTINUOUS
 62
     7
100
AcDbCircle
 10
464.739761
 20
524.5
 30
0.0
 40
2.0
100
AcDbArc
 50
270.0
 51
354.501044
  0
ARC
  5
378
100
AcDbEntity
  8
図
  6
CONTINUOUS
 62
     7
100
AcDbCircle
 10
537.614436
 20
530.5
 30
0.0
 40
3.0
100
AcDbArc
 50
187.857095
 51
270.0
  0
LINE
  5
379
100
AcDbEntity
  8
図
  6
CONTINUOUS
 62
     7
100
AcDbLine
 10
530.215938
 20
562.167543
 30
0.0
 11
535.0
 21
527.5
 31
0.0
  0
LINE
  5
37A
100
AcDbEntity
  8
図
  6
CONTINUOUS
 62
     6
100
AcDbLine
 10
737.245953
 20
523.750604
 30
0.0
 11
736.740533
 21
522.5
 31
0.0
  0
ARC
  5
37B
100
AcDbEntity
  8
図
  6
CONTINUOUS
 62
     7
100
AcDbCircle
 10
795.0
 20
680.000323
 30
0.0
 40
5.0
100
AcDbArc
 50
337.994341
 51
89.081495
  0
LINE
  5
37C
100
AcDbEntity
  8
図
  6
CONTINUOUS
 62
     6
100
AcDbLine
 10
412.754047
 20
523.750604
 30
0.0
 11
413.259467
 21
522.5
 31
0.0
  0
LINE
  5
37D
100
AcDbEntity
  8
図
  6
CONTINUOUS
 62
     6
100
AcDbLine
 10
414.60834
 20
522.5
 30
0.0
 11
413.259467
 21
522.5
 31
0.0
  0
LINE
  5
37E
100
AcDbEntity
  8
図
  6
CONTINUOUS
 62
     7
100
AcDbLine
 10
735.380482
 20
522.5
 30
0.0
 11
414.60834
 21
522.5
 31
0.0
  0
LINE
  5
37F
100
AcDbEntity
  8
図
  6
CONTINUOUS
 62
     7
100
AcDbLine
 10
417.576383
 20
530.5
 30
0.0
 11
422.941167
 21
530.5
 31
0.0
  0
ARC
  5
380
100
AcDbEntity
  8
図
  6
CONTINUOUS
 62
     7
100
AcDbCircle
 10
355.0
 20
680.000323
 30
0.0
 40
5.0
100
AcDbArc
 50
42.029106
 51
202.005659
  0
LINE
  5
381
100
AcDbEntity
  8
図
  6
CONTINUOUS
 62
     6
100
AcDbLine
 10
735.380482
 20
522.5
 30
0.0
 11
736.740533
 21
522.5
 31
0.0
  0
LINE
  5
382
100
AcDbEntity
  8
図
  6
CONTINUOUS
 62
     7
100
AcDbLine
 10
795.080151
 20
684.99968
 30
0.0
 11
703.24202
 21
686.472058
 31
0.0
  0
ARC
  5
383
100
AcDbEntity
  8
図
  6
CONTINUOUS
 62
     7
100
AcDbCircle
 10
735.39166
 20
524.5
 30
0.0
 40
2.0
100
AcDbArc
 50
270.0
 51
337.994341
  0
LINE
  5
384
100
AcDbEntity
  8
図
  6
CONTINUOUS
 62
     7
100
AcDbLine
 10
799.635734
 20
678.126832
 30
0.0
 11
737.245953
 21
523.750604
 31
0.0
  0
LINE
  5
385
100
AcDbEntity
  8
図
  6
CONTINUOUS
 62
     7
100
AcDbLine
 10
703.18637
 20
683.52705
 30
0.0
 11
795.080151
 21
684.99968
 31
0.0
  0
ARC
  5
386
100
AcDbEntity
  8
図
  6
CONTINUOUS
 62
     7
100
AcDbCircle
 10
575.0
 20
8682.5
 30
0.0
 40
8000.0
100
AcDbArc
 50
270.0
 51
270.918107
  0
ARC
  5
387
100
AcDbEntity
  8
図
  6
CONTINUOUS
 62
     7
100
AcDbCircle
 10
414.60834
 20
524.5
 30
0.0
 40
2.0
100
AcDbArc
 50
202.005659
 51
270.0
  0
LINE
  5
388
100
AcDbEntity
  8
図
  6
CONTINUOUS
 62
     7
100
AcDbLine
 10
350.364266
 20
678.126832
 30
0.0
 11
412.754047
 21
523.750604
 31
0.0
  0
LINE
  5
389
100
AcDbEntity
  8
図
  6
CONTINUOUS
 62
     7
100
AcDbLine
 10
354.919849
 20
684.99968
 30
0.0
 11
446.75798
 21
686.472058
 31
0.0
  0
ARC
  5
38A
100
AcDbEntity
  8
図
  6
CONTINUOUS
 62
     7
100
AcDbCircle
 10
575.0
 20
-7312.5
 30
0.0
 40
8000.0
100
AcDbArc
 50
89.081495
 51
90.918505
  0
LINE
  5
38B
100
AcDbEntity
  8
図
  6
CONTINUOUS
 62
     7
100
AcDbLine
 10
575.0
 20
572.5
 30
0.0
 11
544.5
 21
572.5
 31
0.0
  0
LINE
  5
38C
100
AcDbEntity
  8
図
  6
CONTINUOUS
 62
     6
100
AcDbLine
 10
530.048468
 20
563.38111
 30
0.0
 11
530.215938
 21
562.167543
 31
0.0
  0
LINE
  5
38D
100
AcDbEntity
  8
図
  6
CONTINUOUS
 62
     7
100
AcDbLine
 10
541.422304
 20
565.678201
 30
0.0
 11
547.5
 21
559.600505
 31
0.0
  0
LINE
  5
38E
100
AcDbEntity
  8
図
  6
CONTINUOUS
 62
     7
100
AcDbLine
 10
465.113436
 20
580.558535
 30
0.0
 11
460.775622
 21
535.5
 31
0.0
  0
LINE
  5
38F
100
AcDbEntity
  8
図
  6
CONTINUOUS
 62
     7
100
AcDbLine
 10
361.805733
 20
668.497961
 30
0.0
 11
417.576383
 21
530.5
 31
0.0
  0
LINE
  5
390
100
AcDbEntity
  8
図
  6
CONTINUOUS
 62
     6
100
AcDbLine
 10
528.415316
 20
563.482875
 30
0.0
 11
530.048468
 21
563.38111
 31
0.0
  0
LINE
  5
391
100
AcDbEntity
  8
図
  6
CONTINUOUS
 62
     7
100
AcDbLine
 10
537.196989
 20
562.78373
 30
0.0
 11
541.100305
 21
534.5
 31
0.0
  0
LINE
  5
392
100
AcDbEntity
  8
図
  6
CONTINUOUS
 62
     7
100
AcDbLine
 10
471.207496
 20
570.812019
 30
0.0
 11
466.556466
 21
522.5
 31
0.0
  0
ARC
  5
393
100
AcDbEntity
  8
図
  6
CONTINUOUS
 62
     7
100
AcDbCircle
 10
531.972061
 20
733.590964
 30
0.0
 40
160.0
100
AcDbArc
 50
230.029722
 51
266.434391
  0
ARC
  5
394
100
AcDbEntity
  8
図
  6
CONTINUOUS
 62
     7
100
AcDbCircle
 10
750.384707
 20
994.159412
 30
0.0
 40
500.0
100
AcDbArc
 50
218.469446
 51
230.029722
  0
LINE
  5
395
100
AcDbEntity
  8
図
  6
CONTINUOUS
 62
     7
100
AcDbLine
 10
522.021429
 20
573.900686
 30
0.0
 11
544.5
 21
572.5
 31
0.0
  0
ARC
  5
396
100
AcDbEntity
  8
図
  6
CONTINUOUS
 62
     7
100
AcDbCircle
 10
531.972061
 20
733.590964
 30
0.0
 40
167.0
100
AcDbArc
 50
230.029722
 51
246.399874
  0
ARC
  5
397
100
AcDbEntity
  8
図
  6
CONTINUOUS
 62
     7
100
AcDbCircle
 10
750.384707
 20
994.159412
 30
0.0
 40
507.0
100
AcDbArc
 50
219.965803
 51
230.029722
  0
LINE
  5
398
100
AcDbEntity
  8
図
  6
CONTINUOUS
 62
     7
100
AcDbLine
 10
521.399514
 20
563.920044
 30
0.0
 11
528.415316
 21
563.482875
 31
0.0
  0
LINE
  5
399
100
AcDbEntity
  8
図
  6
CONTINUOUS
 62
     7
100
AcDbLine
 10
536.070719
 20
566.011669
 30
0.0
 11
541.422304
 21
565.678201
 31
0.0
  0
ARC
  5
39A
100
AcDbEntity
  8
図
  6
CONTINUOUS
 62
     7
100
AcDbCircle
 10
531.972061
 20
733.590964
 30
0.0
 40
170.0
100
AcDbArc
 50
250.489535
 51
266.434391
  0
LINE
  5
39B
100
AcDbEntity
  8
図
  6
EXLTYPE3
 62
     6
100
AcDbLine
 10
575.0
 20
511.0
 30
0.0
 11
575.0
 21
703.0
 31
0.0
  0
LINE
  5
39C
100
AcDbEntity
  8
図
  6
EXLTYPE3
 62
     6
100
AcDbLine
 10
599.0
 20
1167.0
 30
0.0
 11
552.0
 21
1167.0
 31
0.0
  0
LINE
  5
39D
100
AcDbEntity
  8
図
  6
CONTINUOUS
 62
     6
100
AcDbLine
 10
737.251542
 20
284.750604
 30
0.0
 11
736.746122
 21
283.5
 31
0.0
  0
ARC
  5
39E
100
AcDbEntity
  8
図
  6
CONTINUOUS
 62
     7
100
AcDbCircle
 10
795.005589
 20
441.000323
 30
0.0
 40
5.0
100
AcDbArc
 50
337.994341
 51
89.081495
  0
LINE
  5
39F
100
AcDbEntity
  8
図
  6
CONTINUOUS
 62
     6
100
AcDbLine
 10
412.759636
 20
284.750604
 30
0.0
 11
413.265056
 21
283.5
 31
0.0
  0
LINE
  5
3A0
100
AcDbEntity
  8
図
  6
CONTINUOUS
 62
     6
100
AcDbLine
 10
414.613929
 20
283.5
 30
0.0
 11
413.265056
 21
283.5
 31
0.0
  0
LINE
  5
3A1
100
AcDbEntity
  8
図
  6
CONTINUOUS
 62
     7
100
AcDbLine
 10
735.386071
 20
283.5
 30
0.0
 11
414.613929
 21
283.5
 31
0.0
  0
LINE
  5
3A2
100
AcDbEntity
  8
図
  6
CONTINUOUS
 62
     6
100
AcDbLine
 10
735.386071
 20
283.5
 30
0.0
 11
736.746122
 21
283.5
 31
0.0
  0
LINE
  5
3A3
100
AcDbEntity
  8
図
  6
CONTINUOUS
 62
     7
100
AcDbLine
 10
795.08574
 20
445.99968
 30
0.0
 11
703.247609
 21
447.472058
 31
0.0
  0
ARC
  5
3A4
100
AcDbEntity
  8
図
  6
CONTINUOUS
 62
     7
100
AcDbCircle
 10
735.397248
 20
285.5
 30
0.0
 40
2.0
100
AcDbArc
 50
270.0
 51
337.994341
  0
LINE
  5
3A5
100
AcDbEntity
  8
図
  6
CONTINUOUS
 62
     7
100
AcDbLine
 10
799.641323
 20
439.126832
 30
0.0
 11
737.251542
 21
284.750604
 31
0.0
  0
LINE
  5
3A6
100
AcDbEntity
  8
図
  6
CONTINUOUS
 62
     7
100
AcDbLine
 10
703.191959
 20
444.52705
 30
0.0
 11
795.08574
 21
445.99968
 31
0.0
  0
ARC
  5
3A7
100
AcDbEntity
  8
図
  6
CONTINUOUS
 62
     7
100
AcDbCircle
 10
575.005589
 20
8443.5
 30
0.0
 40
8000.0
100
AcDbArc
 50
270.0
 51
270.918107
  0
ARC
  5
3A8
100
AcDbEntity
  8
図
  6
CONTINUOUS
 62
     7
100
AcDbCircle
 10
414.613929
 20
285.5
 30
0.0
 40
2.0
100
AcDbArc
 50
202.005659
 51
270.0
  0
LINE
  5
3A9
100
AcDbEntity
  8
図
  6
CONTINUOUS
 62
     7
100
AcDbLine
 10
350.369855
 20
439.126832
 30
0.0
 11
412.759636
 21
284.750604
 31
0.0
  0
LINE
  5
3AA
100
AcDbEntity
  8
図
  6
CONTINUOUS
 62
     7
100
AcDbLine
 10
354.925438
 20
445.99968
 30
0.0
 11
446.763569
 21
447.472058
 31
0.0
  0
ARC
  5
3AB
100
AcDbEntity
  8
図
  6
CONTINUOUS
 62
     7
100
AcDbCircle
 10
575.005589
 20
-7551.5
 30
0.0
 40
8000.0
100
AcDbArc
 50
89.081495
 51
90.918505
  0
ARC
  5
3AC
100
AcDbEntity
  8
図
  6
CONTINUOUS
 62
     7
100
AcDbCircle
 10
355.005589
 20
441.000323
 30
0.0
 40
5.0
100
AcDbArc
 50
90.918505
 51
202.005659
  0
LINE
  5
3AD
100
AcDbEntity
  8
図
  6
CONTINUOUS
 62
     7
100
AcDbLine
 10
510.908289
 20
443.5
 30
0.0
 11
354.925438
 21
445.99968
 31
0.0
  0
LINE
  5
3AE
100
AcDbEntity
  8
図
  6
CONTINUOUS
 62
     7
100
AcDbLine
 10
510.908289
 20
443.5
 30
0.0
 11
575.005589
 21
443.5
 31
0.0
  0
LINE
  5
3AF
100
AcDbEntity
  8
図
  6
EXLTYPE3
 62
     6
100
AcDbLine
 10
575.005589
 20
279.0
 30
0.0
 11
575.005589
 21
456.0
 31
0.0
  0
TEXT
  5
3B0
100
AcDbEntity
  8
図
  6
CONTINUOUS
 62
     2
100
AcDbText
 10
166.715179
 20
373.5
 30
0.0
 40
20.0
  1
　　　ＦＲ１１０
 41
0.693
  7
EXCADSTD
 72
     5
 11
298.715178
 21
373.5
 31
0.0
100
AcDbText
  0
TEXT
  5
3B1
100
AcDbEntity
  8
図
  6
CONTINUOUS
 62
     2
100
AcDbText
 10
166.715179
 20
353.5
 30
0.0
 40
20.0
  1
（ジャニスロゴシール）
 41
0.687273
  7
EXCADSTD
 72
     5
 11
346.715178
 21
353.5
 31
0.0
100
AcDbText
  0
ARC
  5
3B2
100
AcDbEntity
  8
図
  6
CONTINUOUS
 62
     6
100
AcDbCircle
 10
560.005589
 20
304.5
 30
0.0
 40
1.0
100
AcDbArc
 50
90.0
 51
180.0
  0
LINE
  5
3B3
100
AcDbEntity
  8
図
  6
CONTINUOUS
 62
     6
100
AcDbLine
 10
559.005589
 20
294.5
 30
0.0
 11
559.005589
 21
304.5
 31
0.0
  0
ARC
  5
3B4
100
AcDbEntity
  8
図
  6
CONTINUOUS
 62
     6
100
AcDbCircle
 10
560.005589
 20
294.5
 30
0.0
 40
1.0
100
AcDbArc
 50
180.0
 51
270.0
  0
LINE
  5
3B5
100
AcDbEntity
  8
図
  6
CONTINUOUS
 62
     6
100
AcDbLine
 10
560.005589
 20
305.5
 30
0.0
 11
590.005589
 21
305.5
 31
0.0
  0
ARC
  5
3B6
100
AcDbEntity
  8
図
  6
CONTINUOUS
 62
     6
100
AcDbCircle
 10
590.005589
 20
304.5
 30
0.0
 40
1.0
100
AcDbArc
 50
0.0
 51
90.0
  0
LINE
  5
3B7
100
AcDbEntity
  8
図
  6
CONTINUOUS
 62
     6
100
AcDbLine
 10
560.005589
 20
293.5
 30
0.0
 11
590.005589
 21
293.5
 31
0.0
  0
LINE
  5
3B8
100
AcDbEntity
  8
図
  6
CONTINUOUS
 62
     6
100
AcDbLine
 10
591.005589
 20
294.5
 30
0.0
 11
591.005589
 21
304.5
 31
0.0
  0
ARC
  5
3B9
100
AcDbEntity
  8
図
  6
CONTINUOUS
 62
     6
100
AcDbCircle
 10
590.005589
 20
294.5
 30
0.0
 40
1.0
100
AcDbArc
 50
270.0
 51
0.0
  0
LEADER
  5
3BA
100
AcDbEntity
  8
図
  6
CONTINUOUS
 62
     3
100
AcDbLeader
  3
STANDARD
 73
     3
 74
     1
 75
     0
 40
0.0
 76
     3
 10
559.005589
 20
300.5
 30
0.0
 10
342.0
 20
372.5
 30
0.0
 10
170.5
 20
372.5
 30
0.0
 77
     3
1001
ACAD
1000
DSTYLE
1002
{
1070
    41
1040
15.0
1070
     5
1000
_EX_NORM
1070
     6
1000
_EX_NORM
1070
     7
1000
_EX_NORM
1070
   341
1005
28
1002
}
  0
TEXT
  5
3BB
100
AcDbEntity
  8
図
  6
CONTINUOUS
 62
     2
100
AcDbText
 10
247.5
 20
1229.5
 30
0.0
 40
20.0
  1
　　ＦＲ１１３
 41
0.696
  7
EXCADSTD
 72
     5
 11
363.5
 21
1229.5
 31
0.0
100
AcDbText
  0
TEXT
  5
3BC
100
AcDbEntity
  8
図
  6
CONTINUOUS
 62
     2
100
AcDbText
 10
247.5
 20
1209.5
 30
0.0
 40
20.0
  1
（陶器注意シール）
 41
0.690667
  7
EXCADSTD
 72
     5
 11
395.5
 21
1209.5
 31
0.0
100
AcDbText
  0
LEADER
  5
3BD
100
AcDbEntity
  8
図
  6
CONTINUOUS
 62
     3
100
AcDbLeader
  3
STANDARD
 73
     3
 74
     1
 75
     0
 40
0.0
 76
     3
 10
434.0
 20
1142.0
 30
0.0
 10
389.0
 20
1230.0
 30
0.0
 10
253.5
 20
1230.0
 30
0.0
 77
     3
1001
ACAD
1000
DSTYLE
1002
{
1070
    41
1040
15.0
1070
     5
1000
_EX_NORM
1070
     6
1000
_EX_NORM
1070
     7
1000
_EX_NORM
1070
   341
1005
28
1002
}
  0
ARC
  5
3BE
100
AcDbEntity
  8
図
  6
CONTINUOUS
 62
     6
100
AcDbCircle
 10
432.0
 20
1141.0
 30
0.0
 40
1.0
100
AcDbArc
 50
90.0
 51
180.0
  0
LINE
  5
3BF
100
AcDbEntity
  8
図
  6
CONTINUOUS
 62
     6
100
AcDbLine
 10
431.0
 20
1141.0
 30
0.0
 11
431.0
 21
1122.0
 31
0.0
  0
ARC
  5
3C0
100
AcDbEntity
  8
図
  6
CONTINUOUS
 62
     6
100
AcDbCircle
 10
432.0
 20
1122.0
 30
0.0
 40
1.0
100
AcDbArc
 50
180.0
 51
270.0
  0
LINE
  5
3C1
100
AcDbEntity
  8
図
  6
CONTINUOUS
 62
     6
100
AcDbLine
 10
432.0
 20
1121.0
 30
0.0
 11
484.0
 21
1121.0
 31
0.0
  0
ARC
  5
3C2
100
AcDbEntity
  8
図
  6
CONTINUOUS
 62
     6
100
AcDbCircle
 10
484.0
 20
1122.0
 30
0.0
 40
1.0
100
AcDbArc
 50
270.0
 51
0.0
  0
LINE
  5
3C3
100
AcDbEntity
  8
図
  6
CONTINUOUS
 62
     6
100
AcDbLine
 10
432.0
 20
1142.0
 30
0.0
 11
484.0
 21
1142.0
 31
0.0
  0
LINE
  5
3C4
100
AcDbEntity
  8
図
  6
CONTINUOUS
 62
     6
100
AcDbLine
 10
485.0
 20
1141.0
 30
0.0
 11
485.0
 21
1122.0
 31
0.0
  0
ARC
  5
3C5
100
AcDbEntity
  8
図
  6
CONTINUOUS
 62
     6
100
AcDbCircle
 10
484.0
 20
1141.0
 30
0.0
 40
1.0
100
AcDbArc
 50
0.0
 51
90.0
  0
DIMENSION
  5
3CF
100
AcDbEntity
  8
寸法
  6
CONTINUOUS
 62
     3
100
AcDbDimension
  2
*D23
 10
557.700425
 20
1174.230989
 30
0.0
 11
648.153068
 21
1149.158145
 31
0.0
 70
   163
  3
STANDARD
100
AcDbDiametricDimension
 15
592.299575
 25
1159.769011
 35
0.0
 40
0.0
1001
ACAD
1000
DSTYLE
1002
{
1070
     6
1000
_EX_NORM
1070
     7
1000
_EX_NORM
1070
    41
1040
15.0
1070
    73
1070
     0
1070
    74
1070
     0
1070
    77
1070
     1
1070
    78
1070
     8
1070
   140
1040
20.0
1070
   147
1040
1.75
1070
   173
1070
     1
1070
   176
1070
     3
1070
   177
1070
     3
1070
   178
1070
     2
1070
   271
1070
     2
1070
   279
1070
     2
1070
   280
1070
     1
1070
   287
1070
     5
1070
   340
1005
F3
1002
}
  0
TEXT
  5
3D0
100
AcDbEntity
  8
寸法
  6
CONTINUOUS
 62
     2
100
AcDbText
 10
1390.0
 20
1196.75
 30
0.0
 40
20.0
  1
３－φ１４
 41
0.7056
  7
EXCADSTD
 72
     5
 11
1474.0
 21
1196.75
 31
0.0
100
AcDbText
  0
LEADER
  5
3D1
100
AcDbEntity
  8
寸法
  6
CONTINUOUS
 62
     3
100
AcDbLeader
  3
STANDARD
 73
     3
 74
     1
 75
     0
 40
0.0
 76
     3
 10
1517.451173
 20
1117.290678
 30
0.0
 10
1476.5
 20
1195.0
 30
0.0
 10
1387.0
 20
1195.0
 30
0.0
 77
     3
1001
ACAD
1000
DSTYLE
1002
{
1070
    41
1040
15.0
1070
     5
1000
_EX_NORM
1070
     6
1000
_EX_NORM
1070
     7
1000
_EX_NORM
1070
   341
1005
28
1002
}
  0
DIMENSION
  5
3DD
100
AcDbEntity
  8
寸法
  6
CONTINUOUS
 62
     3
100
AcDbDimension
  2
*D24
 10
1119.5
 20
1000.5
 30
0.0
 11
1107.75
 21
1021.0
 31
0.0
 70
   160
  1
%%c41
  3
STANDARD
100
AcDbAlignedDimension
 13
1137.5
 23
1041.5
 33
0.0
 14
1137.5
 24
1000.5
 34
0.0
 50
90.0
100
AcDbRotatedDimension
1001
ACAD
1000
DSTYLE
1002
{
1070
     6
1000
_EX_NORM
1070
     7
1000
_EX_NORM
1070
    41
1040
15.0
1070
    42
1040
2.5
1070
    44
1040
5.0
1070
    73
1070
     0
1070
    74
1070
     0
1070
    75
1070
     0
1070
    76
1070
     0
1070
    77
1070
     1
1070
    78
1070
     8
1070
   140
1040
20.0
1070
   147
1040
1.75
1070
   173
1070
     1
1070
   176
1070
     3
1070
   177
1070
     3
1070
   178
1070
     2
1070
   271
1070
     2
1070
   279
1070
     2
1070
   280
1070
     0
1070
   287
1070
     5
1070
   340
1005
F3
1002
}
  0
DIMENSION
  5
3E9
100
AcDbEntity
  8
寸法
  6
CONTINUOUS
 62
     3
100
AcDbDimension
  2
*D25
 10
1094.0
 20
990.5
 30
0.0
 11
1082.25
 21
1021.0
 31
0.0
 70
   160
  1
%%c61
  3
STANDARD
100
AcDbAlignedDimension
 13
1127.5
 23
1051.5
 33
0.0
 14
1127.5
 24
990.5
 34
0.0
 50
90.0
100
AcDbRotatedDimension
1001
ACAD
1000
DSTYLE
1002
{
1070
     6
1000
_EX_NORM
1070
     7
1000
_EX_NORM
1070
    41
1040
15.0
1070
    42
1040
2.5
1070
    44
1040
5.0
1070
    73
1070
     0
1070
    74
1070
     0
1070
    75
1070
     0
1070
    76
1070
     0
1070
    77
1070
     1
1070
    78
1070
     8
1070
   140
1040
20.0
1070
   147
1040
1.75
1070
   173
1070
     1
1070
   176
1070
     3
1070
   177
1070
     3
1070
   178
1070
     2
1070
   271
1070
     2
1070
   279
1070
     2
1070
   280
1070
     0
1070
   287
1070
     5
1070
   340
1005
F3
1002
}
  0
DIMENSION
  5
3F5
100
AcDbEntity
  8
寸法
  6
CONTINUOUS
 62
     3
100
AcDbDimension
  2
*D26
 10
1066.259878
 20
1021.0
 30
0.0
 11
1054.509878
 21
1021.0
 31
0.0
 70
   165
  3
STANDARD
100
AcDb3PointAngularDimension
 13
1127.5
 23
1051.5
 33
0.0
 14
1127.5
 24
990.5
 34
0.0
 15
1158.0
 25
1021.0
 35
0.0
1001
ACAD
1000
DSTYLE
1002
{
1070
     6
1000
_EX_NORM
1070
     7
1000
_EX_NORM
1070
    41
1040
15.0
1070
    42
1040
2.5
1070
    44
1040
5.0
1070
    73
1070
     0
1070
    74
1070
     0
1070
    75
1070
     0
1070
    76
1070
     0
1070
    77
1070
     1
1070
    78
1070
     8
1070
   140
1040
20.0
1070
   147
1040
1.75
1070
   173
1070
     1
1070
   176
1070
     3
1070
   177
1070
     3
1070
   178
1070
     2
1070
   271
1070
     2
1070
   279
1070
     2
1070
   280
1070
     0
1070
   287
1070
     5
1070
   340
1005
F3
1002
}
  0
DIMENSION
  5
401
100
AcDbEntity
  8
寸法
  6
CONTINUOUS
 62
     3
100
AcDbDimension
  2
*D27
 10
1208.8
 20
999.5
 30
0.0
 11
1197.05
 21
1021.0
 31
0.0
 70
   160
  1
%%c43
  3
STANDARD
100
AcDbAlignedDimension
 13
1172.5
 23
1042.5
 33
0.0
 14
1172.5
 24
999.5
 34
0.0
 50
90.0
100
AcDbRotatedDimension
1001
ACAD
1000
DSTYLE
1002
{
1070
     6
1000
_EX_NORM
1070
     7
1000
_EX_NORM
1070
    41
1040
15.0
1070
    42
1040
2.5
1070
    44
1040
5.0
1070
    73
1070
     0
1070
    74
1070
     0
1070
    75
1070
     0
1070
    76
1070
     0
1070
    77
1070
     1
1070
    78
1070
     8
1070
   140
1040
20.0
1070
   147
1040
1.75
1070
   173
1070
     1
1070
   176
1070
     3
1070
   177
1070
     3
1070
   178
1070
     2
1070
   271
1070
     2
1070
   279
1070
     2
1070
   280
1070
     0
1070
   287
1070
     5
1070
   340
1005
116
1002
}
  0
DIMENSION
  5
40D
100
AcDbEntity
  8
寸法
  6
CONTINUOUS
 62
     3
100
AcDbDimension
  2
*D28
 10
857.0
 20
522.5
 30
0.0
 11
845.25
 21
605.0
 31
0.0
 70
   160
  1
170
  3
STANDARD
100
AcDbAlignedDimension
 13
800.0
 23
687.5
 33
0.0
 14
736.740533
 24
522.5
 34
0.0
 50
90.0
100
AcDbRotatedDimension
1001
ACAD
1000
DSTYLE
1002
{
1070
     6
1000
_EX_NORM
1070
     7
1000
_EX_NORM
1070
    41
1040
15.0
1070
    42
1040
2.5
1070
    44
1040
5.0
1070
    73
1070
     0
1070
    74
1070
     0
1070
    75
1070
     0
1070
    76
1070
     0
1070
    77
1070
     1
1070
    78
1070
     8
1070
   140
1040
20.0
1070
   147
1040
1.75
1070
   173
1070
     1
1070
   176
1070
     3
1070
   177
1070
     3
1070
   178
1070
     2
1070
   271
1070
     2
1070
   279
1070
     2
1070
   280
1070
     0
1070
   287
1070
     5
1070
   340
1005
F3
1002
}
  0
DIMENSION
  5
417
100
AcDbEntity
  8
寸法
  6
CONTINUOUS
 62
     3
100
AcDbDimension
  2
*D29
 10
564.079216
 20
648.670071
 30
0.0
 11
630.606103
 21
631.283342
 31
0.0
 70
   163
  3
STANDARD
100
AcDbDiametricDimension
 15
585.920784
 25
638.722913
 35
0.0
 40
0.0
1001
ACAD
1000
DSTYLE
1002
{
1070
     6
1000
_EX_NORM
1070
     7
1000
_EX_NORM
1070
    41
1040
15.0
1070
    73
1070
     0
1070
    74
1070
     0
1070
    77
1070
     1
1070
    78
1070
     8
1070
   140
1040
20.0
1070
   147
1040
1.75
1070
   173
1070
     1
1070
   176
1070
     3
1070
   177
1070
     3
1070
   178
1070
     2
1070
   271
1070
     2
1070
   279
1070
     2
1070
   280
1070
     1
1070
   287
1070
     5
1070
   340
1005
F3
1002
}
  0
DIMENSION
  5
422
100
AcDbEntity
  8
寸法
  6
CONTINUOUS
 62
     3
100
AcDbDimension
  2
*D30
 10
816.5
 20
1246.0
 30
0.0
 11
804.75
 21
1206.5
 31
0.0
 70
   160
  3
STANDARD
100
AcDbAlignedDimension
 13
649.5
 23
1167.0
 33
0.0
 14
575.0
 24
1246.0
 34
0.0
 50
90.0
100
AcDbRotatedDimension
1001
ACAD
1000
DSTYLE
1002
{
1070
     6
1000
_EX_NORM
1070
     7
1000
_EX_NORM
1070
    41
1040
15.0
1070
    42
1040
0.0
1070
    44
1040
0.0
1070
    73
1070
     0
1070
    74
1070
     0
1070
    75
1070
     0
1070
    76
1070
     1
1070
    77
1070
     1
1070
    78
1070
     8
1070
   140
1040
20.0
1070
   147
1040
1.75
1070
   173
1070
     1
1070
   176
1070
     3
1070
   177
1070
     3
1070
   178
1070
     2
1070
   271
1070
     2
1070
   279
1070
     2
1070
   280
1070
     0
1070
   287
1070
     5
1070
   340
1005
F3
1002
}
  0
DIMENSION
  5
42D
100
AcDbEntity
  8
寸法
  6
CONTINUOUS
 62
     3
100
AcDbDimension
  2
*D31
 10
857.0
 20
1246.0
 30
0.0
 11
845.25
 21
1176.0
 31
0.0
 70
   160
  3
STANDARD
100
AcDbAlignedDimension
 13
735.215179
 23
1106.0
 33
0.0
 14
575.0
 24
1246.0
 34
0.0
 50
90.0
100
AcDbRotatedDimension
1001
ACAD
1000
DSTYLE
1002
{
1070
     6
1000
_EX_NORM
1070
     7
1000
_EX_NORM
1070
    41
1040
15.0
1070
    42
1040
2.5
1070
    44
1040
5.0
1070
    73
1070
     0
1070
    74
1070
     0
1070
    75
1070
     0
1070
    76
1070
     1
1070
    77
1070
     1
1070
    78
1070
     8
1070
   140
1040
20.0
1070
   147
1040
1.75
1070
   173
1070
     1
1070
   176
1070
     3
1070
   177
1070
     3
1070
   178
1070
     2
1070
   271
1070
     2
1070
   279
1070
     2
1070
   280
1070
     0
1070
   287
1070
     5
1070
   340
1005
F3
1002
}
  0
DIMENSION
  5
439
100
AcDbEntity
  8
寸法
  6
CONTINUOUS
 62
     3
100
AcDbDimension
  2
*D32
 10
1653.5
 20
1275.0
 30
0.0
 11
1587.0
 21
1286.75
 31
0.0
 70
   160
  3
STANDARD
100
AcDbAlignedDimension
 13
1520.5
 23
1126.5
 33
0.0
 14
1653.5
 24
1144.5
 34
0.0
100
AcDbRotatedDimension
1001
ACAD
1000
DSTYLE
1002
{
1070
     6
1000
_EX_NORM
1070
     7
1000
_EX_NORM
1070
    41
1040
15.0
1070
    42
1040
2.5
1070
    44
1040
5.0
1070
    73
1070
     0
1070
    74
1070
     0
1070
    75
1070
     0
1070
    76
1070
     0
1070
    77
1070
     1
1070
    78
1070
     8
1070
   140
1040
20.0
1070
   147
1040
1.75
1070
   173
1070
     1
1070
   176
1070
     3
1070
   177
1070
     3
1070
   178
1070
     2
1070
   271
1070
     2
1070
   279
1070
     2
1070
   280
1070
     0
1070
   287
1070
     5
1070
   340
1005
F3
1002
}
  0
DIMENSION
  5
444
100
AcDbEntity
  8
寸法
  6
CONTINUOUS
 62
     3
100
AcDbDimension
  2
*D33
 10
1653.5
 20
1275.0
 30
0.0
 11
1720.0
 21
1286.75
 31
0.0
 70
   160
  3
STANDARD
100
AcDbAlignedDimension
 13
1786.5
 23
1133.5
 33
0.0
 14
1653.5
 24
1146.5
 34
0.0
100
AcDbRotatedDimension
1001
ACAD
1000
DSTYLE
1002
{
1070
     6
1000
_EX_NORM
1070
     7
1000
_EX_NORM
1070
    41
1040
15.0
1070
    42
1040
2.5
1070
    44
1040
5.0
1070
    73
1070
     0
1070
    74
1070
     0
1070
    75
1070
     0
1070
    76
1070
     1
1070
    77
1070
     1
1070
    78
1070
     8
1070
   140
1040
20.0
1070
   147
1040
1.75
1070
   173
1070
     1
1070
   176
1070
     3
1070
   177
1070
     3
1070
   178
1070
     2
1070
   271
1070
     2
1070
   279
1070
     2
1070
   280
1070
     0
1070
   287
1070
     5
1070
   340
1005
F3
1002
}
  0
DIMENSION
  5
450
100
AcDbEntity
  8
寸法
  6
CONTINUOUS
 62
     2
100
AcDbDimension
  2
*D34
 10
1017.5
 20
758.5
 30
0.0
 11
1097.5
 21
770.25
 31
0.0
 70
   160
  3
STANDARD
100
AcDbAlignedDimension
 13
1177.5
 23
902.054886
 33
0.0
 14
1017.5
 24
801.0
 34
0.0
100
AcDbRotatedDimension
1001
ACAD
1000
DSTYLE
1002
{
1070
     6
1000
_EX_NORM
1070
     7
1000
_EX_NORM
1070
    41
1040
15.0
1070
    42
1040
2.5
1070
    44
1040
5.0
1070
    73
1070
     0
1070
    74
1070
     0
1070
    75
1070
     0
1070
    76
1070
     0
1070
    77
1070
     1
1070
    78
1070
     8
1070
   140
1040
20.0
1070
   147
1040
1.75
1070
   173
1070
     1
1070
   176
1070
     3
1070
   177
1070
     3
1070
   178
1070
     2
1070
   271
1070
     2
1070
   279
1070
     2
1070
   280
1070
     0
1070
   287
1070
     5
1070
   340
1005
F3
1002
}
  0
DIMENSION
  5
45C
100
AcDbEntity
  8
寸法
  6
CONTINUOUS
 62
     3
100
AcDbDimension
  2
*D35
 10
1247.0
 20
901.0
 30
0.0
 11
1235.25
 21
1070.0
 31
0.0
 70
   160
  1
%%c338
  3
STANDARD
100
AcDbAlignedDimension
 13
1177.5
 23
1239.0
 33
0.0
 14
1177.5
 24
901.0
 34
0.0
 50
90.0
100
AcDbRotatedDimension
1001
ACAD
1000
DSTYLE
1002
{
1070
     6
1000
_EX_NORM
1070
     7
1000
_EX_NORM
1070
    41
1040
15.0
1070
    42
1040
2.5
1070
    44
1040
5.0
1070
    73
1070
     0
1070
    74
1070
     0
1070
    75
1070
     0
1070
    76
1070
     0
1070
    77
1070
     1
1070
    78
1070
     8
1070
   140
1040
20.0
1070
   147
1040
1.75
1070
   173
1070
     1
1070
   176
1070
     3
1070
   177
1070
     3
1070
   178
1070
     2
1070
   271
1070
     2
1070
   279
1070
     2
1070
   280
1070
     0
1070
   287
1070
     5
1070
   340
1005
F3
1002
}
  0
DIMENSION
  5
467
100
AcDbEntity
  8
寸法
  6
CONTINUOUS
 62
     3
100
AcDbDimension
  2
*D36
 10
1247.0
 20
796.0
 30
0.0
 11
1235.25
 21
848.5
 31
0.0
 70
   160
  3
STANDARD
100
AcDbAlignedDimension
 13
1259.5
 23
901.0
 33
0.0
 14
1022.5
 24
796.0
 34
0.0
 50
90.0
100
AcDbRotatedDimension
1001
ACAD
1000
DSTYLE
1002
{
1070
     6
1000
_EX_NORM
1070
     7
1000
_EX_NORM
1070
    41
1040
15.0
1070
    42
1040
2.5
1070
    44
1040
5.0
1070
    73
1070
     0
1070
    74
1070
     0
1070
    75
1070
     1
1070
    76
1070
     0
1070
    77
1070
     1
1070
    78
1070
     8
1070
   140
1040
20.0
1070
   147
1040
1.75
1070
   173
1070
     1
1070
   176
1070
     3
1070
   177
1070
     3
1070
   178
1070
     2
1070
   271
1070
     2
1070
   279
1070
     2
1070
   280
1070
     0
1070
   287
1070
     5
1070
   340
1005
F3
1002
}
  0
DIMENSION
  5
473
100
AcDbEntity
  8
寸法
  6
CONTINUOUS
 62
     3
100
AcDbDimension
  2
*D37
 10
1653.5
 20
744.0
 30
0.0
 11
1671.0
 21
755.75
 31
0.0
 70
   160
  3
STANDARD
100
AcDbAlignedDimension
 13
1688.5
 23
928.392514
 33
0.0
 14
1653.5
 24
912.0
 34
0.0
100
AcDbRotatedDimension
1001
ACAD
1000
DSTYLE
1002
{
1070
     6
1000
_EX_NORM
1070
     7
1000
_EX_NORM
1070
    41
1040
15.0
1070
    42
1040
1.392514
1070
    44
1040
5.0
1070
    73
1070
     0
1070
    74
1070
     0
1070
    75
1070
     0
1070
    76
1070
     0
1070
    77
1070
     1
1070
    78
1070
     8
1070
   140
1040
20.0
1070
   147
1040
1.75
1070
   173
1070
     1
1070
   176
1070
     3
1070
   177
1070
     3
1070
   178
1070
     2
1070
   271
1070
     2
1070
   279
1070
     2
1070
   280
1070
     0
1070
   287
1070
     5
1070
   340
1005
F3
1002
}
  0
DIMENSION
  5
47F
100
AcDbEntity
  8
寸法
  6
CONTINUOUS
 62
     2
100
AcDbDimension
  2
*D38
 10
897.5
 20
1246.0
 30
0.0
 11
885.75
 21
1132.0
 31
0.0
 70
   160
  3
STANDARD
100
AcDbAlignedDimension
 13
810.5
 23
1018.0
 33
0.0
 14
575.0
 24
1246.0
 34
0.0
 50
90.0
100
AcDbRotatedDimension
1001
ACAD
1000
DSTYLE
1002
{
1070
     6
1000
_EX_NORM
1070
     7
1000
_EX_NORM
1070
    41
1040
15.0
1070
    42
1040
2.5
1070
    44
1040
5.0
1070
    73
1070
     0
1070
    74
1070
     0
1070
    75
1070
     0
1070
    76
1070
     0
1070
    77
1070
     1
1070
    78
1070
     8
1070
   140
1040
20.0
1070
   147
1040
1.75
1070
   173
1070
     1
1070
   176
1070
     3
1070
   177
1070
     3
1070
   178
1070
     2
1070
   271
1070
     2
1070
   279
1070
     2
1070
   280
1070
     0
1070
   287
1070
     5
1070
   340
1005
F3
1002
}
  0
DIMENSION
  5
48B
100
AcDbEntity
  8
寸法
  6
CONTINUOUS
 62
     2
100
AcDbDimension
  2
*D39
 10
1401.5
 20
1018.0
 30
0.0
 11
1389.75
 21
1064.5
 31
0.0
 70
   160
  3
STANDARD
100
AcDbAlignedDimension
 13
1513.5
 23
1111.0
 33
0.0
 14
1417.0
 24
1018.0
 34
0.0
 50
90.0
100
AcDbRotatedDimension
1001
ACAD
1000
DSTYLE
1002
{
1070
     6
1000
_EX_NORM
1070
     7
1000
_EX_NORM
1070
    41
1040
15.0
1070
    42
1040
2.5
1070
    44
1040
5.0
1070
    73
1070
     0
1070
    74
1070
     0
1070
    75
1070
     0
1070
    76
1070
     0
1070
    77
1070
     1
1070
    78
1070
     8
1070
   140
1040
20.0
1070
   147
1040
1.75
1070
   173
1070
     1
1070
   176
1070
     3
1070
   177
1070
     3
1070
   178
1070
     2
1070
   271
1070
     2
1070
   279
1070
     2
1070
   280
1070
     0
1070
   287
1070
     5
1070
   340
1005
F3
1002
}
  0
DIMENSION
  5
497
100
AcDbEntity
  8
寸法
  6
CONTINUOUS
 62
     2
100
AcDbDimension
  2
*D40
 10
1922.5
 20
1018.0
 30
0.0
 11
1910.75
 21
978.0
 31
0.0
 70
   160
  3
STANDARD
100
AcDbAlignedDimension
 13
1697.0
 23
938.0
 33
0.0
 14
1902.0
 24
1018.0
 34
0.0
 50
90.0
100
AcDbRotatedDimension
1001
ACAD
1000
DSTYLE
1002
{
1070
     6
1000
_EX_NORM
1070
     7
1000
_EX_NORM
1070
    41
1040
15.0
1070
    42
1040
2.5
1070
    44
1040
5.0
1070
    73
1070
     0
1070
    74
1070
     0
1070
    75
1070
     0
1070
    76
1070
     0
1070
    77
1070
     1
1070
    78
1070
     8
1070
   140
1040
20.0
1070
   147
1040
1.75
1070
   173
1070
     1
1070
   176
1070
     3
1070
   177
1070
     3
1070
   178
1070
     2
1070
   271
1070
     2
1070
   279
1070
     2
1070
   280
1070
     0
1070
   287
1070
     5
1070
   340
1005
F3
1002
}
  0
ARC
  5
498
100
AcDbEntity
  8
寸法
  6
CONTINUOUS
 62
     7
100
AcDbCircle
 10
528.290933
 20
561.486746
 30
0.0
 40
2.0
100
AcDbArc
 50
7.857095
 51
86.434391
  0
ARC
  5
499
100
AcDbEntity
  8
寸法
  6
CONTINUOUS
 62
     7
100
AcDbCircle
 10
528.290933
 20
561.486746
 30
0.0
 40
9.0
100
AcDbArc
 50
8.285704
 51
30.18338
  0
ARC
  5
49A
100
AcDbEntity
  8
寸法
  6
CONTINUOUS
 62
     7
100
AcDbCircle
 10
474.19369
 20
570.524537
 30
0.0
 40
3.0
100
AcDbArc
 50
70.489535
 51
174.501044
  0
DIMENSION
  5
4A5
100
AcDbEntity
  8
寸法
  6
CONTINUOUS
 62
     2
100
AcDbDimension
  2
*D41
 10
620.0
 20
283.5
 30
0.0
 11
608.25
 21
251.0
 31
0.0
 70
   160
  3
STANDARD
100
AcDbAlignedDimension
 13
590.005589
 23
293.5
 33
0.0
 14
598.5
 24
283.5
 34
0.0
 50
90.0
100
AcDbRotatedDimension
1001
ACAD
1000
DSTYLE
1002
{
1070
     6
1000
_EX_NORM
1070
     7
1000
_EX_NORM
1070
    41
1040
15.0
1070
    42
1040
2.5
1070
    44
1040
5.0
1070
    73
1070
     0
1070
    74
1070
     0
1070
    75
1070
     0
1070
    76
1070
     1
1070
    77
1070
     1
1070
    78
1070
     8
1070
   140
1040
20.0
1070
   147
1040
1.75
1070
   173
1070
     1
1070
   176
1070
     3
1070
   177
1070
     3
1070
   178
1070
     2
1070
   271
1070
     2
1070
   279
1070
     2
1070
   280
1070
     2
1070
   287
1070
     5
1070
   340
1005
116
1002
}
  0
DIMENSION
  5
4B1
100
AcDbEntity
  8
寸法
  6
CONTINUOUS
 62
     2
100
AcDbDimension
  2
*D42
 10
337.7
 20
1121.0
 30
0.0
 11
325.95
 21
1153.5
 31
0.0
 70
   160
  3
STANDARD
100
AcDbAlignedDimension
 13
414.784821
 23
1106.0
 33
0.0
 14
432.0
 24
1121.0
 34
0.0
 50
90.0
100
AcDbRotatedDimension
1001
ACAD
1000
DSTYLE
1002
{
1070
     6
1000
_EX_NORM
1070
     7
1000
_EX_NORM
1070
    41
1040
15.0
1070
    42
1040
2.5
1070
    44
1040
5.0
1070
    73
1070
     0
1070
    74
1070
     0
1070
    75
1070
     0
1070
    76
1070
     0
1070
    77
1070
     1
1070
    78
1070
     8
1070
   140
1040
20.0
1070
   147
1040
1.75
1070
   173
1070
     1
1070
   176
1070
     3
1070
   177
1070
     3
1070
   178
1070
     2
1070
   271
1070
     2
1070
   279
1070
     2
1070
   280
1070
     2
1070
   287
1070
     5
1070
   340
1005
116
1002
}
  0
DIMENSION
  5
4BD
100
AcDbEntity
  8
寸法
  6
CONTINUOUS
 62
     2
100
AcDbDimension
  2
*D43
 10
575.0
 20
1278.0
 30
0.0
 11
530.0
 21
1289.75
 31
0.0
 70
   160
  3
STANDARD
100
AcDbAlignedDimension
 13
485.0
 23
1141.0
 33
0.0
 14
575.0
 24
1258.5
 34
0.0
100
AcDbRotatedDimension
1001
ACAD
1000
DSTYLE
1002
{
1070
     6
1000
_EX_NORM
1070
     7
1000
_EX_NORM
1070
    41
1040
15.0
1070
    42
1040
2.5
1070
    44
1040
5.0
1070
    73
1070
     0
1070
    74
1070
     0
1070
    75
1070
     0
1070
    76
1070
     0
1070
    77
1070
     1
1070
    78
1070
     8
1070
   140
1040
20.0
1070
   147
1040
1.75
1070
   173
1070
     1
1070
   176
1070
     3
1070
   177
1070
     3
1070
   178
1070
     2
1070
   271
1070
     2
1070
   279
1070
     2
1070
   280
1070
     0
1070
   287
1070
     5
1070
   340
1005
116
1002
}
  0
ENDSEC
  0
SECTION
  2
OBJECTS
  0
DICTIONARY
  5
19
100
AcDbDictionary
  3
ACAD_GROUP
350
1A
  3
ACAD_MLINESTYLE
350
1B
  0
DICTIONARY
  5
1A
102
{ACAD_REACTORS
330
19
102
}
100
AcDbDictionary
  0
DICTIONARY
  5
1B
102
{ACAD_REACTORS
330
19
102
}
100
AcDbDictionary
  3
STANDARD
350
1C
  0
MLINESTYLE
  5
1C
102
{ACAD_REACTORS
330
1B
102
}
100
AcDbMlineStyle
  2
Standard
 70
     0
  3

 62
     0
 51
90.0
 52
90.0
 71
     2
 49
0.5
 62
   256
  6
ByLayer
 49
-0.5
 62
   256
  6
ByLayer
  0
ENDSEC
  0
EOF
