  0
SECTION
  2
HEADER
  9
$ACADVER
  1
AC1014
  9
$ACADMAINTVER
 70
     0
  9
$DWGCODEPAGE
  3
ANSI_932
  9
$INSBASE
 10
0.0
 20
0.0
 30
0.0
  9
$EXTMIN
 10
0.0
 20
13.5
 30
0.0
  9
$EXTMAX
 10
200.0
 20
288.5
 30
0.0
  9
$LIMMIN
 10
0.0
 20
0.0
  9
$LIMMAX
 10
210.0
 20
297.0
  9
$ORTHOMODE
 70
     0
  9
$REGENMODE
 70
     1
  9
$FILLMODE
 70
     1
  9
$QTEXTMODE
 70
     0
  9
$MIRRTEXT
 70
     1
  9
$DRAGMODE
 70
     2
  9
$LTSCALE
 40
1.0
  9
$OSMODE
 70
     0
  9
$ATTMODE
 70
     1
  9
$TEXTSIZE
 40
0.2
  9
$TRACEWID
 40
0.05
  9
$TEXTSTYLE
  7
STANDARD
  9
$CLAYER
  8
化粧台
  9
$CELTYPE
  6
CONTINUOUS
  9
$CECOLOR
 62
   256
  9
$CELTSCALE
 40
1.0
  9
$DELOBJ
 70
     1
  9
$DISPSILH
 70
     0
  9
$DIMSCALE
 40
1.0
  9
$DIMASZ
 40
0.18
  9
$DIMEXO
 40
0.0625
  9
$DIMDLI
 40
0.38
  9
$DIMRND
 40
0.0
  9
$DIMDLE
 40
0.0
  9
$DIMEXE
 40
0.18
  9
$DIMTP
 40
0.0
  9
$DIMTM
 40
0.0
  9
$DIMTXT
 40
0.18
  9
$DIMCEN
 40
0.09
  9
$DIMTSZ
 40
0.0
  9
$DIMTOL
 70
     0
  9
$DIMLIM
 70
     0
  9
$DIMTIH
 70
     1
  9
$DIMTOH
 70
     1
  9
$DIMSE1
 70
     0
  9
$DIMSE2
 70
     0
  9
$DIMTAD
 70
     0
  9
$DIMZIN
 70
     0
  9
$DIMBLK
  1

  9
$DIMASO
 70
     1
  9
$DIMSHO
 70
     1
  9
$DIMPOST
  1

  9
$DIMAPOST
  1

  9
$DIMALT
 70
     0
  9
$DIMALTD
 70
     2
  9
$DIMALTF
 40
25.4
  9
$DIMLFAC
 40
1.0
  9
$DIMTOFL
 70
     0
  9
$DIMTVP
 40
0.0
  9
$DIMTIX
 70
     0
  9
$DIMSOXD
 70
     0
  9
$DIMSAH
 70
     0
  9
$DIMBLK1
  1

  9
$DIMBLK2
  1

  9
$DIMSTYLE
  2
STANDARD
  9
$DIMCLRD
 70
     0
  9
$DIMCLRE
 70
     0
  9
$DIMCLRT
 70
     0
  9
$DIMTFAC
 40
1.0
  9
$DIMGAP
 40
0.09
  9
$DIMJUST
 70
     0
  9
$DIMSD1
 70
     0
  9
$DIMSD2
 70
     0
  9
$DIMTOLJ
 70
     1
  9
$DIMTZIN
 70
     0
  9
$DIMALTZ
 70
     0
  9
$DIMALTTZ
 70
     0
  9
$DIMFIT
 70
     3
  9
$DIMUPT
 70
     0
  9
$DIMUNIT
 70
     2
  9
$DIMDEC
 70
     4
  9
$DIMTDEC
 70
     4
  9
$DIMALTU
 70
     2
  9
$DIMALTTD
 70
     2
  9
$DIMTXSTY
  7
STANDARD
  9
$DIMAUNIT
 70
     0
  9
$LUNITS
 70
     2
  9
$LUPREC
 70
     4
  9
$SKETCHINC
 40
0.1
  9
$FILLETRAD
 40
0.0
  9
$AUNITS
 70
     0
  9
$AUPREC
 70
     0
  9
$MENU
  1
acad
  9
$ELEVATION
 40
0.0
  9
$PELEVATION
 40
0.0
  9
$THICKNESS
 40
0.0
  9
$LIMCHECK
 70
     0
  9
$BLIPMODE
 70
     1
  9
$CHAMFERA
 40
0.0
  9
$CHAMFERB
 40
0.0
  9
$CHAMFERC
 40
0.0
  9
$CHAMFERD
 40
0.0
  9
$SKPOLY
 70
     0
  9
$TDCREATE
 40
2456191.313667176
  9
$TDUPDATE
 40
2456191.313667176
  9
$TDINDWG
 40
0.0000000000
  9
$TDUSRTIMER
 40
0.0000000000
  9
$USRTIMER
 70
     1
  9
$ANGBASE
 50
0.0
  9
$ANGDIR
 70
     0
  9
$PDMODE
 70
     0
  9
$PDSIZE
 40
0.0
  9
$PLINEWID
 40
0.0
  9
$COORDS
 70
     1
  9
$SPLFRAME
 70
     0
  9
$SPLINETYPE
 70
     6
  9
$SPLINESEGS
 70
     8
  9
$ATTDIA
 70
     0
  9
$ATTREQ
 70
     1
  9
$HANDLING
 70
     1
  9
$HANDSEED
  5
8C3
  9
$SURFTAB1
 70
     6
  9
$SURFTAB2
 70
     6
  9
$SURFTYPE
 70
     6
  9
$SURFU
 70
     6
  9
$SURFV
 70
     6
  9
$UCSNAME
  2

  9
$UCSORG
 10
0.0
 20
0.0
 30
0.0
  9
$UCSXDIR
 10
1.0
 20
0.0
 30
0.0
  9
$UCSYDIR
 10
0.0
 20
1.0
 30
0.0
  9
$PUCSNAME
  2

  9
$PUCSORG
 10
0.0
 20
0.0
 30
0.0
  9
$PUCSXDIR
 10
1.0
 20
0.0
 30
0.0
  9
$PUCSYDIR
 10
0.0
 20
1.0
 30
0.0
  9
$USERI1
 70
     0
  9
$USERI2
 70
     0
  9
$USERI3
 70
     0
  9
$USERI4
 70
     0
  9
$USERI5
 70
     0
  9
$USERR1
 40
0.0
  9
$USERR2
 40
0.0
  9
$USERR3
 40
0.0
  9
$USERR4
 40
0.0
  9
$USERR5
 40
0.0
  9
$WORLDVIEW
 70
     1
  9
$SHADEDGE
 70
     3
  9
$SHADEDIF
 70
    70
  9
$TILEMODE
 70
     1
  9
$MAXACTVP
 70
    16
  9
$PINSBASE
 10
0.0
 20
0.0
 30
0.0
  9
$PLIMCHECK
 70
     0
  9
$PEXTMIN
 10
1.000000E+20
 20
1.000000E+20
 30
1.000000E+20
  9
$PEXTMAX
 10
-1.000000E+20
 20
-1.000000E+20
 30
-1.000000E+20
  9
$PLIMMIN
 10
0.0
 20
0.0
  9
$PLIMMAX
 10
12.0
 20
9.0
  9
$UNITMODE
 70
     0
  9
$VISRETAIN
 70
     0
  9
$PLINEGEN
 70
     1
  9
$PSLTSCALE
 70
     0
  9
$TREEDEPTH
 70
  3020
  9
$PICKSTYLE
 70
     1
  9
$CMLSTYLE
  2
Standard
  9
$CMLJUST
 70
     0
  9
$CMLSCALE
 40
1.0
  9
$PROXYGRAPHICS
 70
     0
  9
$MEASUREMENT
 70
     0
  0
ENDSEC
  0
SECTION
  2
CLASSES
  0
CLASS
  1
LWPOLYLINE
  2
AcDbPolyline
  3
"AutoCAD"
 90
        0
280
     0
281
     1
  0
CLASS
  1
IMAGE
  2
AcDbRasterImage
  3
ISM
 90
      127
280
     0
281
     1
  0
CLASS
  1
OLE2FRAME
  2
AcDbOle2Frame
  3
""
 90
        0
280
     0
281
     1
  0
CLASS
  1
HATCH
  2
AcDbHatch
  3
"ACAD_SEDONA"
 90
        0
280
     0
281
     1
  0
CLASS
  1
DICTIONARYVAR
  2
AcDbDictionaryVar
  3
"AutoCAD"
 90
        0
280
     0
281
     0
  0
CLASS
  1
RASTERVARIABLES
  2
AcDbRasterVariables
  3
ISM
 90
        0
280
     0
281
     0
  0
CLASS
  1
IMAGEDEF
  2
AcDbRasterImageDef
  3
ISM
 90
        0
280
     0
281
     0
  0
CLASS
  1
IMAGEDEF_REACTOR
  2
AcDbRasterImageDefReactor
  3
ISM
 90
        1
280
     0
281
     0
  0
CLASS
  1
IDBUFFER
  2
AcDbIdBuffer
  3
"Acad"
 90
        0
280
     0
281
     0
  0
CLASS
  1
SPATIAL_FILTER
  2
AcDbSpatialFilter
  3
"Acad"
 90
        0
280
     0
281
     0
  0
CLASS
  1
XRECORD
  2
AcDbXrecord
  3
"<Built In>"
 90
        0
280
     0
281
     0
  0
CLASS
  1
SORTENTSTABLE
  2
AcDbSortentsTable
  3
"AutoCAD"
 90
        0
280
     0
281
     0
  0
CLASS
  1
LAYER_INDEX
  2
AcDbLayerIndex
  3
"Acad"
 90
        0
280
     0
281
     0
  0
CLASS
  1
SPATIAL_INDEX
  2
AcDbSpatialIndex
  3
"Acad"
 90
        0
280
     0
281
     0
  0
CLASS
  1
OBJECT_PTR
  2
CAseDLPNTableRecord
  3
"ASE-LPNTableRecord"
 90
        1
280
     0
281
     0
  0
CLASS
  1
LAYOUT
  2
AcDbLayout
  3
"AutoCAD 2000"
 90
        1
280
     0
281
     0
  0
CLASS
  1
PLOTSETTINGS
  2
AcDbPlotSettings
  3
"AutoCAD 2000"
 90
        1
280
     0
281
     0
  0
CLASS
  1
ACDBDICTIONARYWDFLT
  2
AcDbDictionaryWithDefault
  3
"AutoCAD 2000"
 90
        1
280
     0
281
     0
  0
CLASS
  1
ACDBPLACEHOLDER
  2
AcDbPlaceHolder
  3
"AutoCAD 2000"
 90
        1
280
     0
281
     0
  0
CLASS
  1
VBA_PROJECT
  2
AcDbVbaProject
  3
"acadvba"
 90
        1
280
     0
281
     0
  0
CLASS
  1
WIPEOUT
  2
AcDbWipeout
  3
WipeOut|AutoCAD Express Tool|expresstools@autodesk.com
 90
      127
280
     0
281
     1
  0
CLASS
  1
WIPEOUTVARIABLES
  2
AcDbWipeoutVariables
  3
WipeOut|AutoCAD Express Tool|expresstools@autodesk.com
 90
        0
280
     0
281
     0
  0
CLASS
  1
RTEXT
  2
RText
  3
RText|AutoCAD Express Tool|expresstools@autodesk.com
 90
        0
280
     0
281
     1
  0
CLASS
  1
ARCALIGNEDTEXT
  2
AcDbArcAlignedText
  3
ATEXT|AutoCAD Express Tool|expresstools@autodesk.com
 90
        0
280
     0
281
     1
  0
ENDSEC
  0
SECTION
  2
TABLES
  0
TABLE
  2
VPORT
  5
7
100
AcDbSymbolTable
 70
     1
  0
VPORT
  5
15
100
AcDbSymbolTableRecord
100
AcDbViewportTableRecord
  2
*ACTIVE
 70
     0
 10
0.0
 20
0.0
 11
1.0
 21
1.0
 12
1500.0
 22
2265.0
 13
0.0
 23
0.0
 14
1.0
 24
1.0
 15
0.0
 25
0.0
 16
0.0
 26
0.0
 36
1.0
 17
0.0
 27
0.0
 37
0.0
 40
4125.0
 41
1.722533
 42
50.0
 43
0.0
 44
0.0
 50
0.0
 51
0.0
 71
     0
 72
   100
 73
     1
 74
     1
 75
     0
 76
     0
 77
     0
 78
     0
  0
ENDTAB
  0
TABLE
  2
LTYPE
  5
4
100
AcDbSymbolTable
 70
     9
  0
LTYPE
  5
11
100
AcDbSymbolTableRecord
100
AcDbLinetypeTableRecord
  2
BYBLOCK
 70
    64
  3

 72
    65
 73
     0
 40
0.0
  0
LTYPE
  5
12
100
AcDbSymbolTableRecord
100
AcDbLinetypeTableRecord
  2
BYLAYER
 70
    64
  3

 72
    65
 73
     0
 40
0.0
  0
LTYPE
  5
13
100
AcDbSymbolTableRecord
100
AcDbLinetypeTableRecord
  2
CONTINUOUS
 70
    64
  3
実線
 72
    65
 73
     0
 40
0.0
  0
LTYPE
  5
1D
100
AcDbSymbolTableRecord
100
AcDbLinetypeTableRecord
  2
EXLTYPE1
 70
    64
  3
破線
 72
    65
 73
     2
 40
3.0
 49
2.0
 74
     0
 49
-1.0
 74
     0
  0
LTYPE
  5
1E
100
AcDbSymbolTableRecord
100
AcDbLinetypeTableRecord
  2
EXLTYPE2
 70
    64
  3
点線
 72
    65
 73
     2
 40
2.0
 49
1.0
 74
     0
 49
-1.0
 74
     0
  0
LTYPE
  5
1F
100
AcDbSymbolTableRecord
100
AcDbLinetypeTableRecord
  2
EXLTYPE3
 70
    64
  3
一点鎖線
 72
    65
 73
     4
 40
10.0
 49
7.0
 74
     0
 49
-1.0
 74
     0
 49
1.0
 74
     0
 49
-1.0
 74
     0
  0
LTYPE
  5
20
100
AcDbSymbolTableRecord
100
AcDbLinetypeTableRecord
  2
EXLTYPE4
 70
    64
  3
二点鎖線
 72
    65
 73
     6
 40
12.0
 49
7.0
 74
     0
 49
-1.0
 74
     0
 49
1.0
 74
     0
 49
-1.0
 74
     0
 49
1.0
 74
     0
 49
-1.0
 74
     0
  0
LTYPE
  5
21
100
AcDbSymbolTableRecord
100
AcDbLinetypeTableRecord
  2
EXLTYPE5
 70
    64
  3
三点鎖線
 72
    65
 73
     8
 40
37.0
 49
30.0
 74
     0
 49
-1.0
 74
     0
 49
1.0
 74
     0
 49
-1.0
 74
     0
 49
1.0
 74
     0
 49
-1.0
 74
     0
 49
1.0
 74
     0
 49
-1.0
 74
     0
  0
LTYPE
  5
22
100
AcDbSymbolTableRecord
100
AcDbLinetypeTableRecord
  2
EXLTYPE6
 70
    64
  3
四点鎖線
 72
    65
 73
    10
 40
39.0
 49
30.0
 74
     0
 49
-1.0
 74
     0
 49
1.0
 74
     0
 49
-1.0
 74
     0
 49
1.0
 74
     0
 49
-1.0
 74
     0
 49
1.0
 74
     0
 49
-1.0
 74
     0
 49
1.0
 74
     0
 49
-1.0
 74
     0
  0
ENDTAB
  0
TABLE
  2
LAYER
  5
2
100
AcDbSymbolTable
 70
     6
  0
LAYER
  5
14
100
AcDbSymbolTableRecord
100
AcDbLayerTableRecord
  2
0
 70
     0
 62
     7
  6
CONTINUOUS
  0
LAYER
  5
25
100
AcDbSymbolTableRecord
100
AcDbLayerTableRecord
  2
枠・表
 70
    64
 62
     7
  6
CONTINUOUS
  0
LAYER
  5
26
100
AcDbSymbolTableRecord
100
AcDbLayerTableRecord
  2
化粧台
 70
    64
 62
     7
  6
CONTINUOUS
  0
LAYER
  5
27
100
AcDbSymbolTableRecord
100
AcDbLayerTableRecord
  2
鏡台
 70
    64
 62
     7
  6
CONTINUOUS
  0
LAYER
  5
28
100
AcDbSymbolTableRecord
100
AcDbLayerTableRecord
  2
付属金具
 70
    64
 62
     7
  6
CONTINUOUS
  0
LAYER
  5
29
100
AcDbSymbolTableRecord
100
AcDbLayerTableRecord
  2
寸法
 70
    64
 62
     7
  6
CONTINUOUS
  0
ENDTAB
  0
TABLE
  2
STYLE
  5
3
100
AcDbSymbolTable
 70
     5
  0
STYLE
  5
17
100
AcDbSymbolTableRecord
100
AcDbTextStyleTableRecord
  2
STANDARD
 70
     0
 40
0.0
 41
1.0
 50
0.0
 71
     0
 42
0.0
  3
monotxt
  4
extfont
  0
STYLE
  5
23
100
AcDbSymbolTableRecord
100
AcDbTextStyleTableRecord
  2
EXCADSTD
 70
    64
 40
0.0
 41
1.0
 50
0.0
 71
     0
 42
0.2
  3
monotxt
  4
extfont
  0
STYLE
  5
24
100
AcDbSymbolTableRecord
100
AcDbTextStyleTableRecord
  2
EXCADVERT
 70
    68
 40
0.0
 41
1.0
 50
0.0
 71
     0
 42
0.286885
  3
monotxt
  4
extfont
  0
STYLE
  5
B9
100
AcDbSymbolTableRecord
100
AcDbTextStyleTableRecord
  2
EXCADTTF1
 70
    64
 40
0.0
 41
1.0
 50
0.0
 71
     0
 42
0.2
  3
MS Gothic.ttf
  4

1001
ACAD
1000
MS Gothic
1071
    32817
  0
STYLE
  5
7D0
100
AcDbSymbolTableRecord
100
AcDbTextStyleTableRecord
  2
EXCADDIM1
 70
    64
 40
0.0
 41
0.84
 50
0.0
 71
     0
 42
0.2
  3
monotxt
  4
extfont
  0
ENDTAB
  0
TABLE
  2
VIEW
  5
5
100
AcDbSymbolTable
 70
     0
  0
ENDTAB
  0
TABLE
  2
UCS
  5
6
100
AcDbSymbolTable
 70
     0
  0
ENDTAB
  0
TABLE
  2
APPID
  5
8
100
AcDbSymbolTable
 70
     1
  0
APPID
  5
16
100
AcDbSymbolTableRecord
100
AcDbRegAppTableRecord
  2
ACAD
 70
     0
  0
ENDTAB
  0
TABLE
  2
DIMSTYLE
  5
9
100
AcDbSymbolTable
 70
     1
  0
DIMSTYLE
105
18
100
AcDbSymbolTableRecord
100
AcDbDimStyleTableRecord
  2
STANDARD
 70
     0
  3

  4

  5

  6

  7

 40
1.0
 41
0.18
 42
0.0625
 43
0.38
 44
0.18
 45
0.0
 46
0.0
 47
0.0
 48
0.0
 71
     0
 72
     0
 73
     1
 74
     1
 75
     0
 76
     0
 77
     0
 78
     0
140
0.18
141
0.09
142
0.0
143
25.4
144
1.0
145
0.0
146
1.0
147
0.09
170
     0
171
     2
172
     1
173
     0
174
     0
175
     0
176
     0
177
     0
178
     0
270
     2
271
     4
272
     4
273
     2
274
     2
275
     0
280
     0
281
     0
282
     0
283
     1
284
     0
285
     0
286
     0
287
     0
288
     0
340
17
  0
ENDTAB
  0
TABLE
  2
BLOCK_RECORD
  5
1
100
AcDbSymbolTable
 70
    35
  0
BLOCK_RECORD
  5
A
100
AcDbSymbolTableRecord
100
AcDbBlockTableRecord
  2
*MODEL_SPACE
  0
BLOCK_RECORD
  5
B
100
AcDbSymbolTableRecord
100
AcDbBlockTableRecord
  2
*PAPER_SPACE
  0
BLOCK_RECORD
  5
2A
100
AcDbSymbolTableRecord
100
AcDbBlockTableRecord
  2
_EX_NORM
  0
BLOCK_RECORD
  5
2B
100
AcDbSymbolTableRecord
100
AcDbBlockTableRecord
  2
_EX_BNORM
  0
BLOCK_RECORD
  5
2C
100
AcDbSymbolTableRecord
100
AcDbBlockTableRecord
  2
_EX_BCIR
  0
BLOCK_RECORD
  5
2D
100
AcDbSymbolTableRecord
100
AcDbBlockTableRecord
  2
_EX_RCIVIL
  0
BLOCK_RECORD
  5
2E
100
AcDbSymbolTableRecord
100
AcDbBlockTableRecord
  2
_EX_SLANT
  0
BLOCK_RECORD
  5
2F
100
AcDbSymbolTableRecord
100
AcDbBlockTableRecord
  2
_EX_NONE
  0
BLOCK_RECORD
  5
30
100
AcDbSymbolTableRecord
100
AcDbBlockTableRecord
  2
_EX_CIVIL
  0
BLOCK_RECORD
  5
31
100
AcDbSymbolTableRecord
100
AcDbBlockTableRecord
  2
_EX_WCIR
  0
BLOCK_RECORD
  5
32
100
AcDbSymbolTableRecord
100
AcDbBlockTableRecord
  2
_EX_WCIR2
  0
BLOCK_RECORD
  5
33
100
AcDbSymbolTableRecord
100
AcDbBlockTableRecord
  2
_EX_WNORM
  0
BLOCK_RECORD
  5
34
100
AcDbSymbolTableRecord
100
AcDbBlockTableRecord
  2
_EX_NNORM
  0
BLOCK_RECORD
  5
35
100
AcDbSymbolTableRecord
100
AcDbBlockTableRecord
  2
_EX_BBOX
  0
BLOCK_RECORD
  5
36
100
AcDbSymbolTableRecord
100
AcDbBlockTableRecord
  2
_EX_WBOX
  0
BLOCK_RECORD
  5
37
100
AcDbSymbolTableRecord
100
AcDbBlockTableRecord
  2
_EX_INTEGRAL
  0
BLOCK_RECORD
  5
7C5
100
AcDbSymbolTableRecord
100
AcDbBlockTableRecord
  2
*D14
  0
BLOCK_RECORD
  5
7D2
100
AcDbSymbolTableRecord
100
AcDbBlockTableRecord
  2
*D15
  0
BLOCK_RECORD
  5
7DE
100
AcDbSymbolTableRecord
100
AcDbBlockTableRecord
  2
*D16
  0
BLOCK_RECORD
  5
7E9
100
AcDbSymbolTableRecord
100
AcDbBlockTableRecord
  2
*D17
  0
BLOCK_RECORD
  5
7F5
100
AcDbSymbolTableRecord
100
AcDbBlockTableRecord
  2
*D18
  0
BLOCK_RECORD
  5
800
100
AcDbSymbolTableRecord
100
AcDbBlockTableRecord
  2
*D19
  0
BLOCK_RECORD
  5
80B
100
AcDbSymbolTableRecord
100
AcDbBlockTableRecord
  2
*D20
  0
BLOCK_RECORD
  5
816
100
AcDbSymbolTableRecord
100
AcDbBlockTableRecord
  2
*D21
  0
BLOCK_RECORD
  5
821
100
AcDbSymbolTableRecord
100
AcDbBlockTableRecord
  2
*D22
  0
BLOCK_RECORD
  5
82D
100
AcDbSymbolTableRecord
100
AcDbBlockTableRecord
  2
*D23
  0
BLOCK_RECORD
  5
839
100
AcDbSymbolTableRecord
100
AcDbBlockTableRecord
  2
*D24
  0
BLOCK_RECORD
  5
845
100
AcDbSymbolTableRecord
100
AcDbBlockTableRecord
  2
*D25
  0
BLOCK_RECORD
  5
851
100
AcDbSymbolTableRecord
100
AcDbBlockTableRecord
  2
*D26
  0
BLOCK_RECORD
  5
85D
100
AcDbSymbolTableRecord
100
AcDbBlockTableRecord
  2
*D27
  0
BLOCK_RECORD
  5
869
100
AcDbSymbolTableRecord
100
AcDbBlockTableRecord
  2
*D28
  0
BLOCK_RECORD
  5
874
100
AcDbSymbolTableRecord
100
AcDbBlockTableRecord
  2
*D29
  0
BLOCK_RECORD
  5
881
100
AcDbSymbolTableRecord
100
AcDbBlockTableRecord
  2
*D30
  0
BLOCK_RECORD
  5
88D
100
AcDbSymbolTableRecord
100
AcDbBlockTableRecord
  2
*D31
  0
BLOCK_RECORD
  5
899
100
AcDbSymbolTableRecord
100
AcDbBlockTableRecord
  2
*D32
  0
BLOCK_RECORD
  5
8A5
100
AcDbSymbolTableRecord
100
AcDbBlockTableRecord
  2
*D33
  0
BLOCK_RECORD
  5
8B7
100
AcDbSymbolTableRecord
100
AcDbBlockTableRecord
  2
*D34
  0
ENDTAB
  0
ENDSEC
  0
SECTION
  2
BLOCKS
  0
BLOCK
  5
D
100
AcDbEntity
  8
0
100
AcDbBlockBegin
  2
*MODEL_SPACE
 70
     0
 10
0.0
 20
0.0
 30
0.0
  3
*MODEL_SPACE
  1

  0
ENDBLK
  5
E
100
AcDbEntity
  8
0
100
AcDbBlockEnd
  0
BLOCK
  5
F
100
AcDbEntity
 67
     1
  8
0
100
AcDbBlockBegin
  2
*PAPER_SPACE
 70
     0
 10
0.0
 20
0.0
 30
0.0
  3
*PAPER_SPACE
  1

  0
ENDBLK
  5
10
100
AcDbEntity
 67
     1
  8
0
100
AcDbBlockEnd
  0
BLOCK
  5
38
100
AcDbEntity
  8
0
100
AcDbBlockBegin
  2
_EX_NORM
 70
     0
 10
0.0
 20
0.0
 30
0.0
  3
_EX_NORM
  1

  0
LINE
  5
39
100
AcDbEntity
  8
0
  6
CONTINUOUS
 62
     0
100
AcDbLine
 10
0.0
 20
0.0
 30
0.0
 11
-1.0
 21
0.0
 31
0.0
  0
LINE
  5
3A
100
AcDbEntity
  8
0
  6
CONTINUOUS
 62
     0
100
AcDbLine
 10
0.0
 20
0.0
 30
0.0
 11
-1.0
 21
0.166667
 31
0.0
  0
LINE
  5
3B
100
AcDbEntity
  8
0
  6
CONTINUOUS
 62
     0
100
AcDbLine
 10
0.0
 20
0.0
 30
0.0
 11
-1.0
 21
-0.166667
 31
0.0
  0
ENDBLK
  5
3C
100
AcDbEntity
  8
0
100
AcDbBlockEnd
  0
BLOCK
  5
3D
100
AcDbEntity
  8
0
100
AcDbBlockBegin
  2
_EX_BNORM
 70
     0
 10
0.0
 20
0.0
 30
0.0
  3
_EX_BNORM
  1

  0
LINE
  5
3E
100
AcDbEntity
  8
0
  6
CONTINUOUS
 62
     0
100
AcDbLine
 10
0.0
 20
0.0
 30
0.0
 11
-1.0
 21
0.0
 31
0.0
  0
LINE
  5
3F
100
AcDbEntity
  8
0
  6
CONTINUOUS
 62
     0
100
AcDbLine
 10
0.0
 20
0.0
 30
0.0
 11
-1.0
 21
0.166667
 31
0.0
  0
LINE
  5
40
100
AcDbEntity
  8
0
  6
CONTINUOUS
 62
     0
100
AcDbLine
 10
0.0
 20
0.0
 30
0.0
 11
-1.0
 21
-0.166667
 31
0.0
  0
LINE
  5
41
100
AcDbEntity
  8
0
  6
CONTINUOUS
 62
     0
100
AcDbLine
 10
0.0
 20
0.0
 30
0.0
 11
-1.0
 21
0.083333
 31
0.0
  0
LINE
  5
42
100
AcDbEntity
  8
0
  6
CONTINUOUS
 62
     0
100
AcDbLine
 10
0.0
 20
0.0
 30
0.0
 11
-1.0
 21
-0.083333
 31
0.0
  0
LINE
  5
43
100
AcDbEntity
  8
0
  6
CONTINUOUS
 62
     0
100
AcDbLine
 10
-1.0
 20
0.166667
 30
0.0
 11
-1.0
 21
-0.166667
 31
0.0
  0
ENDBLK
  5
44
100
AcDbEntity
  8
0
100
AcDbBlockEnd
  0
BLOCK
  5
45
100
AcDbEntity
  8
0
100
AcDbBlockBegin
  2
_EX_BCIR
 70
     0
 10
0.0
 20
0.0
 30
0.0
  3
_EX_BCIR
  1

  0
LINE
  5
46
100
AcDbEntity
  8
0
  6
CONTINUOUS
 62
     0
100
AcDbLine
 10
0.0
 20
0.0
 30
0.0
 11
-1.0
 21
0.0
 31
0.0
  0
CIRCLE
  5
47
100
AcDbEntity
  8
0
  6
CONTINUOUS
 62
     0
100
AcDbCircle
 10
0.0
 20
0.0
 30
0.0
 40
0.5
  0
CIRCLE
  5
48
100
AcDbEntity
  8
0
  6
CONTINUOUS
 62
     0
100
AcDbCircle
 10
0.0
 20
0.0
 30
0.0
 40
0.25
  0
ENDBLK
  5
49
100
AcDbEntity
  8
0
100
AcDbBlockEnd
  0
BLOCK
  5
4A
100
AcDbEntity
  8
0
100
AcDbBlockBegin
  2
_EX_RCIVIL
 70
     0
 10
0.0
 20
0.0
 30
0.0
  3
_EX_RCIVIL
  1

  0
LINE
  5
4B
100
AcDbEntity
  8
0
  6
CONTINUOUS
 62
     0
100
AcDbLine
 10
0.0
 20
0.0
 30
0.0
 11
-1.0
 21
0.0
 31
0.0
  0
LINE
  5
4C
100
AcDbEntity
  8
0
  6
CONTINUOUS
 62
     0
100
AcDbLine
 10
-1.0
 20
-0.25
 30
0.0
 11
0.0
 21
-0.25
 31
0.0
  0
LINE
  5
4D
100
AcDbEntity
  8
0
  6
CONTINUOUS
 62
     0
100
AcDbLine
 10
-1.0
 20
-0.125
 30
0.0
 11
0.0
 21
-0.125
 31
0.0
  0
ENDBLK
  5
4E
100
AcDbEntity
  8
0
100
AcDbBlockEnd
  0
BLOCK
  5
4F
100
AcDbEntity
  8
0
100
AcDbBlockBegin
  2
_EX_SLANT
 70
     0
 10
0.0
 20
0.0
 30
0.0
  3
_EX_SLANT
  1

  0
LINE
  5
50
100
AcDbEntity
  8
0
  6
CONTINUOUS
 62
     0
100
AcDbLine
 10
0.0
 20
0.0
 30
0.0
 11
-1.0
 21
0.0
 31
0.0
  0
LINE
  5
51
100
AcDbEntity
  8
0
  6
CONTINUOUS
 62
     0
100
AcDbLine
 10
0.707107
 20
0.707107
 30
0.0
 11
-0.707107
 21
-0.707107
 31
0.0
  0
ENDBLK
  5
52
100
AcDbEntity
  8
0
100
AcDbBlockEnd
  0
BLOCK
  5
53
100
AcDbEntity
  8
0
100
AcDbBlockBegin
  2
_EX_NONE
 70
     0
 10
0.0
 20
0.0
 30
0.0
  3
_EX_NONE
  1

  0
LINE
  5
54
100
AcDbEntity
  8
0
  6
CONTINUOUS
 62
     0
100
AcDbLine
 10
0.0
 20
0.0
 30
0.0
 11
-1.0
 21
0.0
 31
0.0
  0
ENDBLK
  5
55
100
AcDbEntity
  8
0
100
AcDbBlockEnd
  0
BLOCK
  5
56
100
AcDbEntity
  8
0
100
AcDbBlockBegin
  2
_EX_CIVIL
 70
     0
 10
0.0
 20
0.0
 30
0.0
  3
_EX_CIVIL
  1

  0
LINE
  5
57
100
AcDbEntity
  8
0
  6
CONTINUOUS
 62
     0
100
AcDbLine
 10
0.0
 20
0.0
 30
0.0
 11
-1.0
 21
0.0
 31
0.0
  0
LINE
  5
58
100
AcDbEntity
  8
0
  6
CONTINUOUS
 62
     0
100
AcDbLine
 10
-1.0
 20
0.25
 30
0.0
 11
0.0
 21
0.25
 31
0.0
  0
LINE
  5
59
100
AcDbEntity
  8
0
  6
CONTINUOUS
 62
     0
100
AcDbLine
 10
-1.0
 20
0.125
 30
0.0
 11
0.0
 21
0.125
 31
0.0
  0
ENDBLK
  5
5A
100
AcDbEntity
  8
0
100
AcDbBlockEnd
  0
BLOCK
  5
5B
100
AcDbEntity
  8
0
100
AcDbBlockBegin
  2
_EX_WCIR
 70
     0
 10
0.0
 20
0.0
 30
0.0
  3
_EX_WCIR
  1

  0
LINE
  5
5C
100
AcDbEntity
  8
0
  6
CONTINUOUS
 62
     0
100
AcDbLine
 10
0.0
 20
0.0
 30
0.0
 11
-1.0
 21
0.0
 31
0.0
  0
CIRCLE
  5
5D
100
AcDbEntity
  8
0
  6
CONTINUOUS
 62
     0
100
AcDbCircle
 10
0.0
 20
0.0
 30
0.0
 40
0.5
  0
ENDBLK
  5
5E
100
AcDbEntity
  8
0
100
AcDbBlockEnd
  0
BLOCK
  5
5F
100
AcDbEntity
  8
0
100
AcDbBlockBegin
  2
_EX_WCIR2
 70
     0
 10
0.0
 20
0.0
 30
0.0
  3
_EX_WCIR2
  1

  0
LINE
  5
60
100
AcDbEntity
  8
0
  6
CONTINUOUS
 62
     0
100
AcDbLine
 10
-0.5
 20
0.0
 30
0.0
 11
-1.0
 21
0.0
 31
0.0
  0
CIRCLE
  5
61
100
AcDbEntity
  8
0
  6
CONTINUOUS
 62
     0
100
AcDbCircle
 10
0.0
 20
0.0
 30
0.0
 40
0.5
  0
ENDBLK
  5
62
100
AcDbEntity
  8
0
100
AcDbBlockEnd
  0
BLOCK
  5
63
100
AcDbEntity
  8
0
100
AcDbBlockBegin
  2
_EX_WNORM
 70
     0
 10
0.0
 20
0.0
 30
0.0
  3
_EX_WNORM
  1

  0
LINE
  5
64
100
AcDbEntity
  8
0
  6
CONTINUOUS
 62
     0
100
AcDbLine
 10
-1.0
 20
0.0
 30
0.0
 11
-1.0
 21
0.0
 31
0.0
  0
LINE
  5
65
100
AcDbEntity
  8
0
  6
CONTINUOUS
 62
     0
100
AcDbLine
 10
0.0
 20
0.0
 30
0.0
 11
-1.0
 21
0.166667
 31
0.0
  0
LINE
  5
66
100
AcDbEntity
  8
0
  6
CONTINUOUS
 62
     0
100
AcDbLine
 10
0.0
 20
0.0
 30
0.0
 11
-1.0
 21
-0.166667
 31
0.0
  0
LINE
  5
67
100
AcDbEntity
  8
0
  6
CONTINUOUS
 62
     0
100
AcDbLine
 10
-1.0
 20
0.166667
 30
0.0
 11
-1.0
 21
-0.166667
 31
0.0
  0
ENDBLK
  5
68
100
AcDbEntity
  8
0
100
AcDbBlockEnd
  0
BLOCK
  5
69
100
AcDbEntity
  8
0
100
AcDbBlockBegin
  2
_EX_NNORM
 70
     0
 10
0.0
 20
0.0
 30
0.0
  3
_EX_NNORM
  1

  0
LINE
  5
6A
100
AcDbEntity
  8
0
  6
CONTINUOUS
 62
     0
100
AcDbLine
 10
0.0
 20
0.0
 30
0.0
 11
-1.0
 21
0.0
 31
0.0
  0
LINE
  5
6B
100
AcDbEntity
  8
0
  6
CONTINUOUS
 62
     0
100
AcDbLine
 10
0.0
 20
0.0
 30
0.0
 11
-1.0
 21
0.166667
 31
0.0
  0
LINE
  5
6C
100
AcDbEntity
  8
0
  6
CONTINUOUS
 62
     0
100
AcDbLine
 10
0.0
 20
0.0
 30
0.0
 11
-1.0
 21
-0.166667
 31
0.0
  0
LINE
  5
6D
100
AcDbEntity
  8
0
  6
CONTINUOUS
 62
     0
100
AcDbLine
 10
-1.0
 20
0.166667
 30
0.0
 11
-1.0
 21
-0.166667
 31
0.0
  0
ENDBLK
  5
6E
100
AcDbEntity
  8
0
100
AcDbBlockEnd
  0
BLOCK
  5
6F
100
AcDbEntity
  8
0
100
AcDbBlockBegin
  2
_EX_BBOX
 70
     0
 10
0.0
 20
0.0
 30
0.0
  3
_EX_BBOX
  1

  0
LINE
  5
70
100
AcDbEntity
  8
0
  6
CONTINUOUS
 62
     0
100
AcDbLine
 10
0.0
 20
0.0
 30
0.0
 11
-1.0
 21
0.0
 31
0.0
  0
LINE
  5
71
100
AcDbEntity
  8
0
  6
CONTINUOUS
 62
     0
100
AcDbLine
 10
-0.5
 20
0.5
 30
0.0
 11
0.5
 21
0.5
 31
0.0
  0
LINE
  5
72
100
AcDbEntity
  8
0
  6
CONTINUOUS
 62
     0
100
AcDbLine
 10
0.5
 20
0.5
 30
0.0
 11
0.5
 21
-0.5
 31
0.0
  0
LINE
  5
73
100
AcDbEntity
  8
0
  6
CONTINUOUS
 62
     0
100
AcDbLine
 10
0.5
 20
-0.5
 30
0.0
 11
-0.5
 21
-0.5
 31
0.0
  0
LINE
  5
74
100
AcDbEntity
  8
0
  6
CONTINUOUS
 62
     0
100
AcDbLine
 10
-0.5
 20
-0.5
 30
0.0
 11
-0.5
 21
0.5
 31
0.0
  0
LINE
  5
75
100
AcDbEntity
  8
0
  6
CONTINUOUS
 62
     0
100
AcDbLine
 10
-0.25
 20
0.25
 30
0.0
 11
0.25
 21
0.25
 31
0.0
  0
LINE
  5
76
100
AcDbEntity
  8
0
  6
CONTINUOUS
 62
     0
100
AcDbLine
 10
0.25
 20
0.25
 30
0.0
 11
0.25
 21
-0.25
 31
0.0
  0
LINE
  5
77
100
AcDbEntity
  8
0
  6
CONTINUOUS
 62
     0
100
AcDbLine
 10
0.25
 20
-0.25
 30
0.0
 11
-0.25
 21
-0.25
 31
0.0
  0
LINE
  5
78
100
AcDbEntity
  8
0
  6
CONTINUOUS
 62
     0
100
AcDbLine
 10
-0.25
 20
-0.25
 30
0.0
 11
-0.25
 21
0.25
 31
0.0
  0
ENDBLK
  5
79
100
AcDbEntity
  8
0
100
AcDbBlockEnd
  0
BLOCK
  5
7A
100
AcDbEntity
  8
0
100
AcDbBlockBegin
  2
_EX_WBOX
 70
     0
 10
0.0
 20
0.0
 30
0.0
  3
_EX_WBOX
  1

  0
LINE
  5
7B
100
AcDbEntity
  8
0
  6
CONTINUOUS
 62
     0
100
AcDbLine
 10
-0.5
 20
0.0
 30
0.0
 11
-1.0
 21
0.0
 31
0.0
  0
LINE
  5
7C
100
AcDbEntity
  8
0
  6
CONTINUOUS
 62
     0
100
AcDbLine
 10
-0.5
 20
0.5
 30
0.0
 11
0.5
 21
0.5
 31
0.0
  0
LINE
  5
7D
100
AcDbEntity
  8
0
  6
CONTINUOUS
 62
     0
100
AcDbLine
 10
0.5
 20
0.5
 30
0.0
 11
0.5
 21
-0.5
 31
0.0
  0
LINE
  5
7E
100
AcDbEntity
  8
0
  6
CONTINUOUS
 62
     0
100
AcDbLine
 10
0.5
 20
-0.5
 30
0.0
 11
-0.5
 21
-0.5
 31
0.0
  0
LINE
  5
7F
100
AcDbEntity
  8
0
  6
CONTINUOUS
 62
     0
100
AcDbLine
 10
-0.5
 20
-0.5
 30
0.0
 11
-0.5
 21
0.5
 31
0.0
  0
ENDBLK
  5
80
100
AcDbEntity
  8
0
100
AcDbBlockEnd
  0
BLOCK
  5
81
100
AcDbEntity
  8
0
100
AcDbBlockBegin
  2
_EX_INTEGRAL
 70
     0
 10
0.0
 20
0.0
 30
0.0
  3
_EX_INTEGRAL
  1

  0
LINE
  5
82
100
AcDbEntity
  8
0
  6
CONTINUOUS
 62
     0
100
AcDbLine
 10
0.0
 20
0.0
 30
0.0
 11
-1.0
 21
0.0
 31
0.0
  0
ARC
  5
83
100
AcDbEntity
  8
0
  6
CONTINUOUS
 62
     0
100
AcDbCircle
 10
0.542115
 20
0.164992
 30
0.0
 40
0.56667
100
AcDbArc
 50
73.07249
 51
196.927513
  0
ARC
  5
84
100
AcDbEntity
  8
0
  6
CONTINUOUS
 62
     0
100
AcDbCircle
 10
-0.542115
 20
-0.164992
 30
0.0
 40
0.56667
100
AcDbArc
 50
253.072487
 51
16.927513
  0
ENDBLK
  5
85
100
AcDbEntity
  8
0
100
AcDbBlockEnd
  0
BLOCK
  5
7C6
100
AcDbEntity
  8
0
100
AcDbBlockBegin
  2
*D14
 70
    65
 10
0.0
 20
0.0
 30
0.0
  3
*D14
  1

  0
LINE
  5
7C7
100
AcDbEntity
  8
寸法
  6
CONTINUOUS
 62
     3
100
AcDbLine
 10
770.0
 20
3960.5
 30
0.0
 11
770.0
 21
4022.5
 31
0.0
  0
LINE
  5
7C8
100
AcDbEntity
  8
寸法
  6
CONTINUOUS
 62
     3
100
AcDbLine
 10
1070.0
 20
3960.5
 30
0.0
 11
1070.0
 21
4022.5
 31
0.0
  0
TEXT
  5
7C9
100
AcDbEntity
  8
寸法
  6
CONTINUOUS
 62
     2
100
AcDbText
 10
857.0
 20
4012.75
 30
0.0
 40
60.0
  1
300
 41
0.84
  7
EXCADSTD
 72
     1
 11
920.0
 21
4012.75
 31
0.0
100
AcDbText
  0
LINE
  5
7CA
100
AcDbEntity
  8
寸法
  6
CONTINUOUS
 62
     3
100
AcDbLine
 10
770.0
 20
4007.5
 30
0.0
 11
1070.0
 21
4007.5
 31
0.0
  0
LINE
  5
7CB
100
AcDbEntity
  8
寸法
  6
CONTINUOUS
 62
     3
100
AcDbLine
 10
815.0
 20
4015.0
 30
0.0
 11
770.0
 21
4007.5
 31
0.0
  0
LINE
  5
7CC
100
AcDbEntity
  8
寸法
  6
CONTINUOUS
 62
     3
100
AcDbLine
 10
770.0
 20
4007.5
 30
0.0
 11
815.0
 21
4000.0
 31
0.0
  0
LINE
  5
7CD
100
AcDbEntity
  8
寸法
  6
CONTINUOUS
 62
     3
100
AcDbLine
 10
1025.0
 20
4000.0
 30
0.0
 11
1070.0
 21
4007.5
 31
0.0
  0
LINE
  5
7CE
100
AcDbEntity
  8
寸法
  6
CONTINUOUS
 62
     3
100
AcDbLine
 10
1070.0
 20
4007.5
 30
0.0
 11
1025.0
 21
4015.0
 31
0.0
  0
ENDBLK
  5
7CF
100
AcDbEntity
  8
0
100
AcDbBlockEnd
  0
BLOCK
  5
7D3
100
AcDbEntity
  8
0
100
AcDbBlockBegin
  2
*D15
 70
    65
 10
0.0
 20
0.0
 30
0.0
  3
*D15
  1

  0
LINE
  5
7D4
100
AcDbEntity
  8
寸法
  6
CONTINUOUS
 62
     3
100
AcDbLine
 10
670.0
 20
3543.809311
 30
0.0
 11
670.0
 21
3362.5
 31
0.0
  0
LINE
  5
7D5
100
AcDbEntity
  8
寸法
  6
CONTINUOUS
 62
     3
100
AcDbLine
 10
1170.0
 20
3543.809311
 30
0.0
 11
1170.0
 21
3362.5
 31
0.0
  0
TEXT
  5
7D6
100
AcDbEntity
  8
寸法
  6
CONTINUOUS
 62
     2
100
AcDbText
 10
857.0
 20
3382.75
 30
0.0
 40
60.0
  1
500
 41
0.84
  7
EXCADSTD
 72
     1
 11
920.0
 21
3382.75
 31
0.0
100
AcDbText
  0
LINE
  5
7D7
100
AcDbEntity
  8
寸法
  6
CONTINUOUS
 62
     3
100
AcDbLine
 10
670.0
 20
3377.5
 30
0.0
 11
1170.0
 21
3377.5
 31
0.0
  0
LINE
  5
7D8
100
AcDbEntity
  8
寸法
  6
CONTINUOUS
 62
     3
100
AcDbLine
 10
715.0
 20
3385.0
 30
0.0
 11
670.0
 21
3377.5
 31
0.0
  0
LINE
  5
7D9
100
AcDbEntity
  8
寸法
  6
CONTINUOUS
 62
     3
100
AcDbLine
 10
670.0
 20
3377.5
 30
0.0
 11
715.0
 21
3370.0
 31
0.0
  0
LINE
  5
7DA
100
AcDbEntity
  8
寸法
  6
CONTINUOUS
 62
     3
100
AcDbLine
 10
1125.0
 20
3370.0
 30
0.0
 11
1170.0
 21
3377.5
 31
0.0
  0
LINE
  5
7DB
100
AcDbEntity
  8
寸法
  6
CONTINUOUS
 62
     3
100
AcDbLine
 10
1170.0
 20
3377.5
 30
0.0
 11
1125.0
 21
3385.0
 31
0.0
  0
ENDBLK
  5
7DC
100
AcDbEntity
  8
0
100
AcDbBlockEnd
  0
BLOCK
  5
7DF
100
AcDbEntity
  8
0
100
AcDbBlockBegin
  2
*D16
 70
    65
 10
0.0
 20
0.0
 30
0.0
  3
*D16
  1

  0
LINE
  5
7E0
100
AcDbEntity
  8
寸法
  6
CONTINUOUS
 62
     3
100
AcDbLine
 10
930.5
 20
3467.5
 30
0.0
 11
1305.0
 21
3467.5
 31
0.0
  0
TEXT
  5
7E1
100
AcDbEntity
  8
寸法
  6
CONTINUOUS
 62
     2
100
AcDbText
 10
1284.75
 20
3629.5
 30
0.0
 40
60.0
  1
450
 50
90.0
 41
0.84
  7
EXCADSTD
 72
     1
 11
1284.75
 21
3692.5
 31
0.0
100
AcDbText
  0
LINE
  5
7E2
100
AcDbEntity
  8
寸法
  6
CONTINUOUS
 62
     3
100
AcDbLine
 10
1290.0
 20
3467.5
 30
0.0
 11
1290.0
 21
3917.5
 31
0.0
  0
LINE
  5
7E3
100
AcDbEntity
  8
寸法
  6
CONTINUOUS
 62
     3
100
AcDbLine
 10
1282.5
 20
3512.5
 30
0.0
 11
1290.0
 21
3467.5
 31
0.0
  0
LINE
  5
7E4
100
AcDbEntity
  8
寸法
  6
CONTINUOUS
 62
     3
100
AcDbLine
 10
1290.0
 20
3467.5
 30
0.0
 11
1297.5
 21
3512.5
 31
0.0
  0
LINE
  5
7E5
100
AcDbEntity
  8
寸法
  6
CONTINUOUS
 62
     3
100
AcDbLine
 10
1297.5
 20
3872.5
 30
0.0
 11
1290.0
 21
3917.5
 31
0.0
  0
LINE
  5
7E6
100
AcDbEntity
  8
寸法
  6
CONTINUOUS
 62
     3
100
AcDbLine
 10
1290.0
 20
3917.5
 30
0.0
 11
1282.5
 21
3872.5
 31
0.0
  0
ENDBLK
  5
7E7
100
AcDbEntity
  8
0
100
AcDbBlockEnd
  0
BLOCK
  5
7EA
100
AcDbEntity
  8
0
100
AcDbBlockBegin
  2
*D17
 70
    65
 10
0.0
 20
0.0
 30
0.0
  3
*D17
  1

  0
LINE
  5
7EB
100
AcDbEntity
  8
寸法
  6
CONTINUOUS
 62
     3
100
AcDbLine
 10
715.0
 20
2652.5
 30
0.0
 11
715.0
 21
2793.5
 31
0.0
  0
LINE
  5
7EC
100
AcDbEntity
  8
寸法
  6
CONTINUOUS
 62
     3
100
AcDbLine
 10
1125.0
 20
2652.5
 30
0.0
 11
1125.0
 21
2793.5
 31
0.0
  0
TEXT
  5
7ED
100
AcDbEntity
  8
寸法
  6
CONTINUOUS
 62
     2
100
AcDbText
 10
857.0
 20
2783.75
 30
0.0
 40
60.0
  1
410
 41
0.84
  7
EXCADSTD
 72
     1
 11
920.0
 21
2783.75
 31
0.0
100
AcDbText
  0
LINE
  5
7EE
100
AcDbEntity
  8
寸法
  6
CONTINUOUS
 62
     3
100
AcDbLine
 10
715.0
 20
2778.5
 30
0.0
 11
1125.0
 21
2778.5
 31
0.0
  0
LINE
  5
7EF
100
AcDbEntity
  8
寸法
  6
CONTINUOUS
 62
     3
100
AcDbLine
 10
760.0
 20
2786.0
 30
0.0
 11
715.0
 21
2778.5
 31
0.0
  0
LINE
  5
7F0
100
AcDbEntity
  8
寸法
  6
CONTINUOUS
 62
     3
100
AcDbLine
 10
715.0
 20
2778.5
 30
0.0
 11
760.0
 21
2771.0
 31
0.0
  0
LINE
  5
7F1
100
AcDbEntity
  8
寸法
  6
CONTINUOUS
 62
     3
100
AcDbLine
 10
1080.0
 20
2771.0
 30
0.0
 11
1125.0
 21
2778.5
 31
0.0
  0
LINE
  5
7F2
100
AcDbEntity
  8
寸法
  6
CONTINUOUS
 62
     3
100
AcDbLine
 10
1125.0
 20
2778.5
 30
0.0
 11
1080.0
 21
2786.0
 31
0.0
  0
ENDBLK
  5
7F3
100
AcDbEntity
  8
0
100
AcDbBlockEnd
  0
BLOCK
  5
7F6
100
AcDbEntity
  8
0
100
AcDbBlockBegin
  2
*D18
 70
    65
 10
0.0
 20
0.0
 30
0.0
  3
*D18
  1

  0
LINE
  5
7F7
100
AcDbEntity
  8
寸法
  6
CONTINUOUS
 62
     3
100
AcDbLine
 10
930.5
 20
1638.5
 30
0.0
 11
1335.0
 21
1638.5
 31
0.0
  0
TEXT
  5
7F8
100
AcDbEntity
  8
寸法
  6
CONTINUOUS
 62
     2
100
AcDbText
 10
1314.75
 20
1200.5
 30
0.0
 40
60.0
  1
750
 50
90.0
 41
0.84
  7
EXCADSTD
 72
     1
 11
1314.75
 21
1263.5
 31
0.0
100
AcDbText
  0
LINE
  5
7F9
100
AcDbEntity
  8
寸法
  6
CONTINUOUS
 62
     3
100
AcDbLine
 10
1320.0
 20
888.5
 30
0.0
 11
1320.0
 21
1638.5
 31
0.0
  0
LINE
  5
7FA
100
AcDbEntity
  8
寸法
  6
CONTINUOUS
 62
     3
100
AcDbLine
 10
1312.5
 20
933.5
 30
0.0
 11
1320.0
 21
888.5
 31
0.0
  0
LINE
  5
7FB
100
AcDbEntity
  8
寸法
  6
CONTINUOUS
 62
     3
100
AcDbLine
 10
1320.0
 20
888.5
 30
0.0
 11
1327.5
 21
933.5
 31
0.0
  0
LINE
  5
7FC
100
AcDbEntity
  8
寸法
  6
CONTINUOUS
 62
     3
100
AcDbLine
 10
1327.5
 20
1593.5
 30
0.0
 11
1320.0
 21
1638.5
 31
0.0
  0
LINE
  5
7FD
100
AcDbEntity
  8
寸法
  6
CONTINUOUS
 62
     3
100
AcDbLine
 10
1320.0
 20
1638.5
 30
0.0
 11
1312.5
 21
1593.5
 31
0.0
  0
ENDBLK
  5
7FE
100
AcDbEntity
  8
0
100
AcDbBlockEnd
  0
BLOCK
  5
801
100
AcDbEntity
  8
0
100
AcDbBlockBegin
  2
*D19
 70
    65
 10
0.0
 20
0.0
 30
0.0
  3
*D19
  1

  0
LINE
  5
802
100
AcDbEntity
  8
寸法
  6
CONTINUOUS
 62
     3
100
AcDbLine
 10
1170.0
 20
1688.5
 30
0.0
 11
1425.0
 21
1688.5
 31
0.0
  0
TEXT
  5
803
100
AcDbEntity
  8
寸法
  6
CONTINUOUS
 62
     2
100
AcDbText
 10
1404.75
 20
1225.5
 30
0.0
 40
60.0
  1
800
 50
90.0
 41
0.84
  7
EXCADSTD
 72
     1
 11
1404.75
 21
1288.5
 31
0.0
100
AcDbText
  0
LINE
  5
804
100
AcDbEntity
  8
寸法
  6
CONTINUOUS
 62
     3
100
AcDbLine
 10
1410.0
 20
888.5
 30
0.0
 11
1410.0
 21
1688.5
 31
0.0
  0
LINE
  5
805
100
AcDbEntity
  8
寸法
  6
CONTINUOUS
 62
     3
100
AcDbLine
 10
1402.5
 20
933.5
 30
0.0
 11
1410.0
 21
888.5
 31
0.0
  0
LINE
  5
806
100
AcDbEntity
  8
寸法
  6
CONTINUOUS
 62
     3
100
AcDbLine
 10
1410.0
 20
888.5
 30
0.0
 11
1417.5
 21
933.5
 31
0.0
  0
LINE
  5
807
100
AcDbEntity
  8
寸法
  6
CONTINUOUS
 62
     3
100
AcDbLine
 10
1417.5
 20
1643.5
 30
0.0
 11
1410.0
 21
1688.5
 31
0.0
  0
LINE
  5
808
100
AcDbEntity
  8
寸法
  6
CONTINUOUS
 62
     3
100
AcDbLine
 10
1410.0
 20
1688.5
 30
0.0
 11
1402.5
 21
1643.5
 31
0.0
  0
ENDBLK
  5
809
100
AcDbEntity
  8
0
100
AcDbBlockEnd
  0
BLOCK
  5
80C
100
AcDbEntity
  8
0
100
AcDbBlockBegin
  2
*D20
 70
    65
 10
0.0
 20
0.0
 30
0.0
  3
*D20
  1

  0
LINE
  5
80D
100
AcDbEntity
  8
寸法
  6
CONTINUOUS
 62
     3
100
AcDbLine
 10
1175.5
 20
2688.5
 30
0.0
 11
1515.0
 21
2688.5
 31
0.0
  0
TEXT
  5
80E
100
AcDbEntity
  8
寸法
  6
CONTINUOUS
 62
     2
100
AcDbText
 10
1494.75
 20
1706.6
 30
0.0
 40
60.0
  1
1800
 50
90.0
 41
0.84
  7
EXCADSTD
 72
     1
 11
1494.75
 21
1788.5
 31
0.0
100
AcDbText
  0
LINE
  5
80F
100
AcDbEntity
  8
寸法
  6
CONTINUOUS
 62
     3
100
AcDbLine
 10
1500.0
 20
888.5
 30
0.0
 11
1500.0
 21
2688.5
 31
0.0
  0
LINE
  5
810
100
AcDbEntity
  8
寸法
  6
CONTINUOUS
 62
     3
100
AcDbLine
 10
1492.5
 20
933.5
 30
0.0
 11
1500.0
 21
888.5
 31
0.0
  0
LINE
  5
811
100
AcDbEntity
  8
寸法
  6
CONTINUOUS
 62
     3
100
AcDbLine
 10
1500.0
 20
888.5
 30
0.0
 11
1507.5
 21
933.5
 31
0.0
  0
LINE
  5
812
100
AcDbEntity
  8
寸法
  6
CONTINUOUS
 62
     3
100
AcDbLine
 10
1507.5
 20
2643.5
 30
0.0
 11
1500.0
 21
2688.5
 31
0.0
  0
LINE
  5
813
100
AcDbEntity
  8
寸法
  6
CONTINUOUS
 62
     3
100
AcDbLine
 10
1500.0
 20
2688.5
 30
0.0
 11
1492.5
 21
2643.5
 31
0.0
  0
ENDBLK
  5
814
100
AcDbEntity
  8
0
100
AcDbBlockEnd
  0
BLOCK
  5
817
100
AcDbEntity
  8
0
100
AcDbBlockBegin
  2
*D21
 70
    65
 10
0.0
 20
0.0
 30
0.0
  3
*D21
  1

  0
LINE
  5
818
100
AcDbEntity
  8
寸法
  6
CONTINUOUS
 62
     3
100
AcDbLine
 10
1193.576697
 20
1818.5
 30
0.0
 11
1335.0
 21
1818.5
 31
0.0
  0
TEXT
  5
819
100
AcDbEntity
  8
寸法
  6
CONTINUOUS
 62
     2
100
AcDbText
 10
1314.75
 20
1690.5
 30
0.0
 40
60.0
  1
130
 50
90.0
 41
0.84
  7
EXCADSTD
 72
     1
 11
1314.75
 21
1753.5
 31
0.0
100
AcDbText
  0
LINE
  5
81A
100
AcDbEntity
  8
寸法
  6
CONTINUOUS
 62
     3
100
AcDbLine
 10
1320.0
 20
1643.5
 30
0.0
 11
1320.0
 21
1863.5
 31
0.0
  0
LINE
  5
81B
100
AcDbEntity
  8
寸法
  6
CONTINUOUS
 62
     3
100
AcDbLine
 10
1327.5
 20
1643.5
 30
0.0
 11
1320.0
 21
1688.5
 31
0.0
  0
LINE
  5
81C
100
AcDbEntity
  8
寸法
  6
CONTINUOUS
 62
     3
100
AcDbLine
 10
1320.0
 20
1688.5
 30
0.0
 11
1312.5
 21
1643.5
 31
0.0
  0
LINE
  5
81D
100
AcDbEntity
  8
寸法
  6
CONTINUOUS
 62
     3
100
AcDbLine
 10
1312.5
 20
1863.5
 30
0.0
 11
1320.0
 21
1818.5
 31
0.0
  0
LINE
  5
81E
100
AcDbEntity
  8
寸法
  6
CONTINUOUS
 62
     3
100
AcDbLine
 10
1320.0
 20
1818.5
 30
0.0
 11
1327.5
 21
1863.5
 31
0.0
  0
ENDBLK
  5
81F
100
AcDbEntity
  8
0
100
AcDbBlockEnd
  0
BLOCK
  5
822
100
AcDbEntity
  8
0
100
AcDbBlockBegin
  2
*D22
 70
    65
 10
0.0
 20
0.0
 30
0.0
  3
*D22
  1

  0
LINE
  5
823
100
AcDbEntity
  8
寸法
  6
CONTINUOUS
 62
     3
100
AcDbLine
 10
687.5
 20
603.0
 30
0.0
 11
1152.5
 21
603.0
 31
0.0
  0
LINE
  5
824
100
AcDbEntity
  8
寸法
  6
CONTINUOUS
 62
     3
100
AcDbLine
 10
732.5
 20
610.5
 30
0.0
 11
687.5
 21
603.0
 31
0.0
  0
LINE
  5
825
100
AcDbEntity
  8
寸法
  6
CONTINUOUS
 62
     3
100
AcDbLine
 10
687.5
 20
603.0
 30
0.0
 11
732.5
 21
595.5
 31
0.0
  0
LINE
  5
826
100
AcDbEntity
  8
寸法
  6
CONTINUOUS
 62
     3
100
AcDbLine
 10
1107.5
 20
595.5
 30
0.0
 11
1152.5
 21
603.0
 31
0.0
  0
LINE
  5
827
100
AcDbEntity
  8
寸法
  6
CONTINUOUS
 62
     3
100
AcDbLine
 10
1152.5
 20
603.0
 30
0.0
 11
1107.5
 21
610.5
 31
0.0
  0
TEXT
  5
828
100
AcDbEntity
  8
寸法
  6
CONTINUOUS
 62
     2
100
AcDbText
 10
857.0
 20
608.25
 30
0.0
 40
60.0
  1
465
 41
0.84
  7
EXCADSTD
 72
     1
 11
920.0
 21
608.25
 31
0.0
100
AcDbText
  0
LINE
  5
829
100
AcDbEntity
  8
寸法
  6
CONTINUOUS
 62
     3
100
AcDbLine
 10
687.5
 20
878.0
 30
0.0
 11
687.5
 21
588.0
 31
0.0
  0
LINE
  5
82A
100
AcDbEntity
  8
寸法
  6
CONTINUOUS
 62
     3
100
AcDbLine
 10
1152.5
 20
878.0
 30
0.0
 11
1152.5
 21
588.0
 31
0.0
  0
ENDBLK
  5
82B
100
AcDbEntity
  8
0
100
AcDbBlockEnd
  0
BLOCK
  5
82E
100
AcDbEntity
  8
0
100
AcDbBlockBegin
  2
*D23
 70
    65
 10
0.0
 20
0.0
 30
0.0
  3
*D23
  1

  0
LINE
  5
82F
100
AcDbEntity
  8
寸法
  6
CONTINUOUS
 62
     3
100
AcDbLine
 10
2330.0
 20
754.5
 30
0.0
 11
2830.250006
 21
754.5
 31
0.0
  0
LINE
  5
830
100
AcDbEntity
  8
寸法
  6
CONTINUOUS
 62
     3
100
AcDbLine
 10
2330.0
 20
747.0
 30
0.0
 11
2375.0
 21
754.5
 31
0.0
  0
LINE
  5
831
100
AcDbEntity
  8
寸法
  6
CONTINUOUS
 62
     3
100
AcDbLine
 10
2375.0
 20
754.5
 30
0.0
 11
2330.0
 21
762.0
 31
0.0
  0
LINE
  5
832
100
AcDbEntity
  8
寸法
  6
CONTINUOUS
 62
     3
100
AcDbLine
 10
2495.0
 20
762.0
 30
0.0
 11
2450.0
 21
754.5
 31
0.0
  0
LINE
  5
833
100
AcDbEntity
  8
寸法
  6
CONTINUOUS
 62
     3
100
AcDbLine
 10
2450.0
 20
754.5
 30
0.0
 11
2495.0
 21
747.0
 31
0.0
  0
TEXT
  5
834
100
AcDbEntity
  8
寸法
  6
CONTINUOUS
 62
     2
100
AcDbText
 10
2521.4
 20
759.75
 30
0.0
 40
60.0
  1
75（床給水）
 41
0.84
  7
EXCADSTD
 72
     1
 11
2660.0
 21
759.75
 31
0.0
100
AcDbText
  0
LINE
  5
835
100
AcDbEntity
  8
寸法
  6
CONTINUOUS
 62
     3
100
AcDbLine
 10
2375.0
 20
869.99997
 30
0.0
 11
2375.0
 21
739.5
 31
0.0
  0
LINE
  5
836
100
AcDbEntity
  8
寸法
  6
CONTINUOUS
 62
     3
100
AcDbLine
 10
2450.0
 20
878.0
 30
0.0
 11
2450.0
 21
739.5
 31
0.0
  0
ENDBLK
  5
837
100
AcDbEntity
  8
0
100
AcDbBlockEnd
  0
BLOCK
  5
83A
100
AcDbEntity
  8
0
100
AcDbBlockBegin
  2
*D24
 70
    65
 10
0.0
 20
0.0
 30
0.0
  3
*D24
  1

  0
LINE
  5
83B
100
AcDbEntity
  8
寸法
  6
CONTINUOUS
 62
     3
100
AcDbLine
 10
2117.0
 20
583.5
 30
0.0
 11
2450.0
 21
583.5
 31
0.0
  0
LINE
  5
83C
100
AcDbEntity
  8
寸法
  6
CONTINUOUS
 62
     3
100
AcDbLine
 10
2162.0
 20
591.0
 30
0.0
 11
2117.0
 21
583.5
 31
0.0
  0
LINE
  5
83D
100
AcDbEntity
  8
寸法
  6
CONTINUOUS
 62
     3
100
AcDbLine
 10
2117.0
 20
583.5
 30
0.0
 11
2162.0
 21
576.0
 31
0.0
  0
LINE
  5
83E
100
AcDbEntity
  8
寸法
  6
CONTINUOUS
 62
     3
100
AcDbLine
 10
2405.0
 20
576.0
 30
0.0
 11
2450.0
 21
583.5
 31
0.0
  0
LINE
  5
83F
100
AcDbEntity
  8
寸法
  6
CONTINUOUS
 62
     3
100
AcDbLine
 10
2450.0
 20
583.5
 30
0.0
 11
2405.0
 21
591.0
 31
0.0
  0
TEXT
  5
840
100
AcDbEntity
  8
寸法
  6
CONTINUOUS
 62
     2
100
AcDbText
 10
2220.5
 20
588.75
 30
0.0
 40
60.0
  1
333
 41
0.84
  7
EXCADSTD
 72
     1
 11
2283.5
 21
588.75
 31
0.0
100
AcDbText
  0
LINE
  5
841
100
AcDbEntity
  8
寸法
  6
CONTINUOUS
 62
     3
100
AcDbLine
 10
2117.0
 20
878.0
 30
0.0
 11
2117.0
 21
568.5
 31
0.0
  0
LINE
  5
842
100
AcDbEntity
  8
寸法
  6
CONTINUOUS
 62
     3
100
AcDbLine
 10
2450.0
 20
878.0
 30
0.0
 11
2450.0
 21
568.5
 31
0.0
  0
ENDBLK
  5
843
100
AcDbEntity
  8
0
100
AcDbBlockEnd
  0
BLOCK
  5
846
100
AcDbEntity
  8
0
100
AcDbBlockBegin
  2
*D25
 70
    65
 10
0.0
 20
0.0
 30
0.0
  3
*D25
  1

  0
LINE
  5
847
100
AcDbEntity
  8
寸法
  6
CONTINUOUS
 62
     3
100
AcDbLine
 10
2665.5
 20
888.5
 30
0.0
 11
2665.5
 21
1413.5
 31
0.0
  0
LINE
  5
848
100
AcDbEntity
  8
寸法
  6
CONTINUOUS
 62
     3
100
AcDbLine
 10
2658.0
 20
933.5
 30
0.0
 11
2665.5
 21
888.5
 31
0.0
  0
LINE
  5
849
100
AcDbEntity
  8
寸法
  6
CONTINUOUS
 62
     3
100
AcDbLine
 10
2665.5
 20
888.5
 30
0.0
 11
2673.0
 21
933.5
 31
0.0
  0
LINE
  5
84A
100
AcDbEntity
  8
寸法
  6
CONTINUOUS
 62
     3
100
AcDbLine
 10
2673.0
 20
1368.5
 30
0.0
 11
2665.5
 21
1413.5
 31
0.0
  0
LINE
  5
84B
100
AcDbEntity
  8
寸法
  6
CONTINUOUS
 62
     3
100
AcDbLine
 10
2665.5
 20
1413.5
 30
0.0
 11
2658.0
 21
1368.5
 31
0.0
  0
TEXT
  5
84C
100
AcDbEntity
  8
寸法
  6
CONTINUOUS
 62
     2
100
AcDbText
 10
2660.25
 20
1088.0
 30
0.0
 40
60.0
  1
525
 50
90.0
 41
0.84
  7
EXCADSTD
 72
     1
 11
2660.25
 21
1151.0
 31
0.0
100
AcDbText
  0
LINE
  5
84D
100
AcDbEntity
  8
寸法
  6
CONTINUOUS
 62
     3
100
AcDbLine
 10
2460.5
 20
888.5
 30
0.0
 11
2680.5
 21
888.5
 31
0.0
  0
LINE
  5
84E
100
AcDbEntity
  8
寸法
  6
CONTINUOUS
 62
     3
100
AcDbLine
 10
2493.0
 20
1413.5
 30
0.0
 11
2680.5
 21
1413.5
 31
0.0
  0
ENDBLK
  5
84F
100
AcDbEntity
  8
0
100
AcDbBlockEnd
  0
BLOCK
  5
852
100
AcDbEntity
  8
0
100
AcDbBlockBegin
  2
*D26
 70
    65
 10
0.0
 20
0.0
 30
0.0
  3
*D26
  1

  0
LINE
  5
853
100
AcDbEntity
  8
寸法
  6
CONTINUOUS
 62
     3
100
AcDbLine
 10
2460.5
 20
888.5
 30
0.0
 11
2765.0
 21
888.5
 31
0.0
  0
LINE
  5
854
100
AcDbEntity
  8
寸法
  6
CONTINUOUS
 62
     3
100
AcDbLine
 10
2493.0
 20
1753.5
 30
0.0
 11
2765.0
 21
1753.5
 31
0.0
  0
TEXT
  5
855
100
AcDbEntity
  8
寸法
  6
CONTINUOUS
 62
     2
100
AcDbText
 10
2744.75
 20
1258.0
 30
0.0
 40
60.0
  1
865
 50
90.0
 41
0.84
  7
EXCADSTD
 72
     1
 11
2744.75
 21
1321.0
 31
0.0
100
AcDbText
  0
LINE
  5
856
100
AcDbEntity
  8
寸法
  6
CONTINUOUS
 62
     3
100
AcDbLine
 10
2750.0
 20
888.5
 30
0.0
 11
2750.0
 21
1753.5
 31
0.0
  0
LINE
  5
857
100
AcDbEntity
  8
寸法
  6
CONTINUOUS
 62
     3
100
AcDbLine
 10
2742.5
 20
933.5
 30
0.0
 11
2750.0
 21
888.5
 31
0.0
  0
LINE
  5
858
100
AcDbEntity
  8
寸法
  6
CONTINUOUS
 62
     3
100
AcDbLine
 10
2750.0
 20
888.5
 30
0.0
 11
2757.5
 21
933.5
 31
0.0
  0
LINE
  5
859
100
AcDbEntity
  8
寸法
  6
CONTINUOUS
 62
     3
100
AcDbLine
 10
2757.5
 20
1708.5
 30
0.0
 11
2750.0
 21
1753.5
 31
0.0
  0
LINE
  5
85A
100
AcDbEntity
  8
寸法
  6
CONTINUOUS
 62
     3
100
AcDbLine
 10
2750.0
 20
1753.5
 30
0.0
 11
2742.5
 21
1708.5
 31
0.0
  0
ENDBLK
  5
85B
100
AcDbEntity
  8
0
100
AcDbBlockEnd
  0
BLOCK
  5
85E
100
AcDbEntity
  8
0
100
AcDbBlockBegin
  2
*D27
 70
    65
 10
0.0
 20
0.0
 30
0.0
  3
*D27
  1

  0
LINE
  5
85F
100
AcDbEntity
  8
寸法
  6
CONTINUOUS
 62
     3
100
AcDbLine
 10
2493.0
 20
1753.5
 30
0.0
 11
2765.0
 21
1753.5
 31
0.0
  0
LINE
  5
860
100
AcDbEntity
  8
寸法
  6
CONTINUOUS
 62
     3
100
AcDbLine
 10
2493.0
 20
2633.5
 30
0.0
 11
2765.0
 21
2633.5
 31
0.0
  0
TEXT
  5
861
100
AcDbEntity
  8
寸法
  6
CONTINUOUS
 62
     2
100
AcDbText
 10
2744.75
 20
2130.5
 30
0.0
 40
60.0
  1
880
 50
90.0
 41
0.84
  7
EXCADSTD
 72
     1
 11
2744.75
 21
2193.5
 31
0.0
100
AcDbText
  0
LINE
  5
862
100
AcDbEntity
  8
寸法
  6
CONTINUOUS
 62
     3
100
AcDbLine
 10
2750.0
 20
1753.5
 30
0.0
 11
2750.0
 21
2633.5
 31
0.0
  0
LINE
  5
863
100
AcDbEntity
  8
寸法
  6
CONTINUOUS
 62
     3
100
AcDbLine
 10
2742.5
 20
1798.5
 30
0.0
 11
2750.0
 21
1753.5
 31
0.0
  0
LINE
  5
864
100
AcDbEntity
  8
寸法
  6
CONTINUOUS
 62
     3
100
AcDbLine
 10
2750.0
 20
1753.5
 30
0.0
 11
2757.5
 21
1798.5
 31
0.0
  0
LINE
  5
865
100
AcDbEntity
  8
寸法
  6
CONTINUOUS
 62
     3
100
AcDbLine
 10
2757.5
 20
2588.5
 30
0.0
 11
2750.0
 21
2633.5
 31
0.0
  0
LINE
  5
866
100
AcDbEntity
  8
寸法
  6
CONTINUOUS
 62
     3
100
AcDbLine
 10
2750.0
 20
2633.5
 30
0.0
 11
2742.5
 21
2588.5
 31
0.0
  0
ENDBLK
  5
867
100
AcDbEntity
  8
0
100
AcDbBlockEnd
  0
BLOCK
  5
86A
100
AcDbEntity
  8
0
100
AcDbBlockBegin
  2
*D28
 70
    65
 10
0.0
 20
0.0
 30
0.0
  3
*D28
  1

  0
LINE
  5
86B
100
AcDbEntity
  8
寸法
  6
CONTINUOUS
 62
     3
100
AcDbLine
 10
2298.74118
 20
2670.702357
 30
0.0
 11
2298.74118
 21
2793.5
 31
0.0
  0
TEXT
  5
86C
100
AcDbEntity
  8
寸法
  6
CONTINUOUS
 62
     2
100
AcDbText
 10
2311.37059
 20
2783.75
 30
0.0
 40
60.0
  1
151
 41
0.84
  7
EXCADSTD
 72
     1
 11
2374.37059
 21
2783.75
 31
0.0
100
AcDbText
  0
LINE
  5
86D
100
AcDbEntity
  8
寸法
  6
CONTINUOUS
 62
     3
100
AcDbLine
 10
2253.74118
 20
2778.5
 30
0.0
 11
2495.0
 21
2778.5
 31
0.0
  0
LINE
  5
86E
100
AcDbEntity
  8
寸法
  6
CONTINUOUS
 62
     3
100
AcDbLine
 10
2253.74118
 20
2771.0
 30
0.0
 11
2298.74118
 21
2778.5
 31
0.0
  0
LINE
  5
86F
100
AcDbEntity
  8
寸法
  6
CONTINUOUS
 62
     3
100
AcDbLine
 10
2298.74118
 20
2778.5
 30
0.0
 11
2253.74118
 21
2786.0
 31
0.0
  0
LINE
  5
870
100
AcDbEntity
  8
寸法
  6
CONTINUOUS
 62
     3
100
AcDbLine
 10
2495.0
 20
2786.0
 30
0.0
 11
2450.0
 21
2778.5
 31
0.0
  0
LINE
  5
871
100
AcDbEntity
  8
寸法
  6
CONTINUOUS
 62
     3
100
AcDbLine
 10
2450.0
 20
2778.5
 30
0.0
 11
2495.0
 21
2771.0
 31
0.0
  0
ENDBLK
  5
872
100
AcDbEntity
  8
0
100
AcDbBlockEnd
  0
BLOCK
  5
875
100
AcDbEntity
  8
0
100
AcDbBlockBegin
  2
*D29
 70
    65
 10
0.0
 20
0.0
 30
0.0
  3
*D29
  1

  0
LINE
  5
876
100
AcDbEntity
  8
寸法
  6
CONTINUOUS
 62
     3
100
AcDbLine
 10
2370.0
 20
1681.040766
 30
0.0
 11
2370.0
 21
1858.0
 31
0.0
  0
TEXT
  5
877
100
AcDbEntity
  8
寸法
  6
CONTINUOUS
 62
     2
100
AcDbText
 10
2228.4
 20
1848.25
 30
0.0
 40
60.0
  1
80
 41
0.84
  7
EXCADSTD
 72
     1
 11
2272.5
 21
1848.25
 31
0.0
100
AcDbText
  0
LINE
  5
878
100
AcDbEntity
  8
寸法
  6
CONTINUOUS
 62
     3
100
AcDbLine
 10
2214.749994
 20
1843.0
 30
0.0
 11
2495.0
 21
1843.0
 31
0.0
  0
LINE
  5
879
100
AcDbEntity
  8
寸法
  6
CONTINUOUS
 62
     3
100
AcDbLine
 10
2325.0
 20
1835.5
 30
0.0
 11
2370.0
 21
1843.0
 31
0.0
  0
LINE
  5
87A
100
AcDbEntity
  8
寸法
  6
CONTINUOUS
 62
     3
100
AcDbLine
 10
2370.0
 20
1843.0
 30
0.0
 11
2325.0
 21
1850.5
 31
0.0
  0
LINE
  5
87B
100
AcDbEntity
  8
寸法
  6
CONTINUOUS
 62
     3
100
AcDbLine
 10
2495.0
 20
1850.5
 30
0.0
 11
2450.0
 21
1843.0
 31
0.0
  0
LINE
  5
87C
100
AcDbEntity
  8
寸法
  6
CONTINUOUS
 62
     3
100
AcDbLine
 10
2450.0
 20
1843.0
 30
0.0
 11
2495.0
 21
1835.5
 31
0.0
  0
ENDBLK
  5
87D
100
AcDbEntity
  8
0
100
AcDbBlockEnd
  0
BLOCK
  5
882
100
AcDbEntity
  8
0
100
AcDbBlockBegin
  2
*D30
 70
    65
 10
0.0
 20
0.0
 30
0.0
  3
*D30
  1

  0
LINE
  5
883
100
AcDbEntity
  8
寸法
  6
CONTINUOUS
 62
     3
100
AcDbLine
 10
1170.0
 20
1688.5
 30
0.0
 11
1425.0
 21
1688.5
 31
0.0
  0
LINE
  5
884
100
AcDbEntity
  8
寸法
  6
CONTINUOUS
 62
     3
100
AcDbLine
 10
1175.5
 20
2688.5
 30
0.0
 11
1425.0
 21
2688.5
 31
0.0
  0
TEXT
  5
885
100
AcDbEntity
  8
寸法
  6
CONTINUOUS
 62
     2
100
AcDbText
 10
1404.75
 20
2106.6
 30
0.0
 40
60.0
  1
1000
 50
90.0
 41
0.84
  7
EXCADSTD
 72
     1
 11
1404.75
 21
2188.5
 31
0.0
100
AcDbText
  0
LINE
  5
886
100
AcDbEntity
  8
寸法
  6
CONTINUOUS
 62
     3
100
AcDbLine
 10
1410.0
 20
1688.5
 30
0.0
 11
1410.0
 21
2688.5
 31
0.0
  0
LINE
  5
887
100
AcDbEntity
  8
寸法
  6
CONTINUOUS
 62
     3
100
AcDbLine
 10
1402.5
 20
1733.5
 30
0.0
 11
1410.0
 21
1688.5
 31
0.0
  0
LINE
  5
888
100
AcDbEntity
  8
寸法
  6
CONTINUOUS
 62
     3
100
AcDbLine
 10
1410.0
 20
1688.5
 30
0.0
 11
1417.5
 21
1733.5
 31
0.0
  0
LINE
  5
889
100
AcDbEntity
  8
寸法
  6
CONTINUOUS
 62
     3
100
AcDbLine
 10
1417.5
 20
2643.5
 30
0.0
 11
1410.0
 21
2688.5
 31
0.0
  0
LINE
  5
88A
100
AcDbEntity
  8
寸法
  6
CONTINUOUS
 62
     3
100
AcDbLine
 10
1410.0
 20
2688.5
 30
0.0
 11
1402.5
 21
2643.5
 31
0.0
  0
ENDBLK
  5
88B
100
AcDbEntity
  8
0
100
AcDbBlockEnd
  0
BLOCK
  5
88E
100
AcDbEntity
  8
0
100
AcDbBlockBegin
  2
*D31
 70
    65
 10
0.0
 20
0.0
 30
0.0
  3
*D31
  1

  0
LINE
  5
88F
100
AcDbEntity
  8
寸法
  6
CONTINUOUS
 62
     3
100
AcDbLine
 10
2583.0
 20
888.5
 30
0.0
 11
2583.0
 21
1343.5
 31
0.0
  0
LINE
  5
890
100
AcDbEntity
  8
寸法
  6
CONTINUOUS
 62
     3
100
AcDbLine
 10
2575.5
 20
933.5
 30
0.0
 11
2583.0
 21
888.5
 31
0.0
  0
LINE
  5
891
100
AcDbEntity
  8
寸法
  6
CONTINUOUS
 62
     3
100
AcDbLine
 10
2583.0
 20
888.5
 30
0.0
 11
2590.5
 21
933.5
 31
0.0
  0
LINE
  5
892
100
AcDbEntity
  8
寸法
  6
CONTINUOUS
 62
     3
100
AcDbLine
 10
2590.5
 20
1298.5
 30
0.0
 11
2583.0
 21
1343.5
 31
0.0
  0
LINE
  5
893
100
AcDbEntity
  8
寸法
  6
CONTINUOUS
 62
     3
100
AcDbLine
 10
2583.0
 20
1343.5
 30
0.0
 11
2575.5
 21
1298.5
 31
0.0
  0
TEXT
  5
894
100
AcDbEntity
  8
寸法
  6
CONTINUOUS
 62
     2
100
AcDbText
 10
2577.75
 20
958.5
 30
0.0
 40
60.0
  1
455（壁給水）
 50
90.0
 41
0.84
  7
EXCADSTD
 72
     1
 11
2577.75
 21
1116.0
 31
0.0
100
AcDbText
  0
LINE
  5
895
100
AcDbEntity
  8
寸法
  6
CONTINUOUS
 62
     3
100
AcDbLine
 10
2468.5
 20
1343.5
 30
0.0
 11
2598.0
 21
1343.5
 31
0.0
  0
ENDBLK
  5
896
100
AcDbEntity
  8
0
100
AcDbBlockEnd
  0
BLOCK
  5
89A
100
AcDbEntity
  8
0
100
AcDbBlockBegin
  2
*D32
 70
    65
 10
0.0
 20
0.0
 30
0.0
  3
*D32
  1

  0
LINE
  5
89B
100
AcDbEntity
  8
寸法
  6
CONTINUOUS
 62
     3
100
AcDbLine
 10
920.0
 20
1699.0
 30
0.0
 11
920.0
 21
1858.0
 31
0.0
  0
LINE
  5
89C
100
AcDbEntity
  8
寸法
  6
CONTINUOUS
 62
     3
100
AcDbLine
 10
971.0
 20
1699.0
 30
0.0
 11
971.0
 21
1858.0
 31
0.0
  0
TEXT
  5
89D
100
AcDbEntity
  8
寸法
  6
CONTINUOUS
 62
     2
100
AcDbText
 10
901.4
 20
1848.25
 30
0.0
 40
60.0
  1
51
 41
0.84
  7
EXCADSTD
 72
     1
 11
945.5
 21
1848.25
 31
0.0
100
AcDbText
  0
LINE
  5
89E
100
AcDbEntity
  8
寸法
  6
CONTINUOUS
 62
     3
100
AcDbLine
 10
875.0
 20
1843.0
 30
0.0
 11
1016.0
 21
1843.0
 31
0.0
  0
LINE
  5
89F
100
AcDbEntity
  8
寸法
  6
CONTINUOUS
 62
     3
100
AcDbLine
 10
875.0
 20
1835.5
 30
0.0
 11
920.0
 21
1843.0
 31
0.0
  0
LINE
  5
8A0
100
AcDbEntity
  8
寸法
  6
CONTINUOUS
 62
     3
100
AcDbLine
 10
920.0
 20
1843.0
 30
0.0
 11
875.0
 21
1850.5
 31
0.0
  0
LINE
  5
8A1
100
AcDbEntity
  8
寸法
  6
CONTINUOUS
 62
     3
100
AcDbLine
 10
1016.0
 20
1850.5
 30
0.0
 11
971.0
 21
1843.0
 31
0.0
  0
LINE
  5
8A2
100
AcDbEntity
  8
寸法
  6
CONTINUOUS
 62
     3
100
AcDbLine
 10
971.0
 20
1843.0
 30
0.0
 11
1016.0
 21
1835.5
 31
0.0
  0
ENDBLK
  5
8A3
100
AcDbEntity
  8
0
100
AcDbBlockEnd
  0
BLOCK
  5
8A6
100
AcDbEntity
  8
0
100
AcDbBlockBegin
  2
*D33
 70
    65
 10
0.0
 20
0.0
 30
0.0
  3
*D33
  1

  0
LINE
  5
8A7
100
AcDbEntity
  8
寸法
  6
CONTINUOUS
 62
     3
100
AcDbLine
 10
875.0
 20
721.5
 30
0.0
 11
1133.999996
 21
721.5
 31
0.0
  0
LINE
  5
8A8
100
AcDbEntity
  8
寸法
  6
CONTINUOUS
 62
     3
100
AcDbLine
 10
875.0
 20
714.0
 30
0.0
 11
920.0
 21
721.5
 31
0.0
  0
LINE
  5
8A9
100
AcDbEntity
  8
寸法
  6
CONTINUOUS
 62
     3
100
AcDbLine
 10
920.0
 20
721.5
 30
0.0
 11
875.0
 21
729.0
 31
0.0
  0
LINE
  5
8AA
100
AcDbEntity
  8
寸法
  6
CONTINUOUS
 62
     3
100
AcDbLine
 10
1040.0
 20
729.0
 30
0.0
 11
995.0
 21
721.5
 31
0.0
  0
LINE
  5
8AB
100
AcDbEntity
  8
寸法
  6
CONTINUOUS
 62
     3
100
AcDbLine
 10
995.0
 20
721.5
 30
0.0
 11
1040.0
 21
714.0
 31
0.0
  0
TEXT
  5
8AC
100
AcDbEntity
  8
寸法
  6
CONTINUOUS
 62
     2
100
AcDbText
 10
1043.4
 20
726.75
 30
0.0
 40
60.0
  1
75
 41
0.84
  7
EXCADSTD
 72
     1
 11
1087.5
 21
726.75
 31
0.0
100
AcDbText
  0
LINE
  5
8AD
100
AcDbEntity
  8
寸法
  6
CONTINUOUS
 62
     3
100
AcDbLine
 10
995.0
 20
869.99997
 30
0.0
 11
995.0
 21
706.5
 31
0.0
  0
LINE
  5
8AE
100
AcDbEntity
  8
寸法
  6
CONTINUOUS
 62
     3
100
AcDbLine
 10
920.0
 20
706.5
 30
0.0
 11
920.0
 21
787.5
 31
0.0
  0
ENDBLK
  5
8AF
100
AcDbEntity
  8
0
100
AcDbBlockEnd
  0
BLOCK
  5
8B8
100
AcDbEntity
  8
0
100
AcDbBlockBegin
  2
*D34
 70
    65
 10
0.0
 20
0.0
 30
0.0
  3
*D34
  1

  0
LINE
  5
8B9
100
AcDbEntity
  8
寸法
  6
CONTINUOUS
 62
     3
100
AcDbLine
 10
2330.0
 20
773.5
 30
0.0
 11
2330.0
 21
655.5
 31
0.0
  0
LINE
  5
8BA
100
AcDbEntity
  8
寸法
  6
CONTINUOUS
 62
     3
100
AcDbLine
 10
2450.0
 20
878.0
 30
0.0
 11
2450.0
 21
655.5
 31
0.0
  0
LINE
  5
8BB
100
AcDbEntity
  8
寸法
  6
CONTINUOUS
 62
     3
100
AcDbLine
 10
2285.0
 20
670.5
 30
0.0
 11
2658.499994
 21
670.5
 31
0.0
  0
LINE
  5
8BC
100
AcDbEntity
  8
寸法
  6
CONTINUOUS
 62
     3
100
AcDbLine
 10
2285.0
 20
663.0
 30
0.0
 11
2330.0
 21
670.5
 31
0.0
  0
LINE
  5
8BD
100
AcDbEntity
  8
寸法
  6
CONTINUOUS
 62
     3
100
AcDbLine
 10
2330.0
 20
670.5
 30
0.0
 11
2285.0
 21
678.0
 31
0.0
  0
LINE
  5
8BE
100
AcDbEntity
  8
寸法
  6
CONTINUOUS
 62
     3
100
AcDbLine
 10
2495.0
 20
678.0
 30
0.0
 11
2450.0
 21
670.5
 31
0.0
  0
LINE
  5
8BF
100
AcDbEntity
  8
寸法
  6
CONTINUOUS
 62
     3
100
AcDbLine
 10
2450.0
 20
670.5
 30
0.0
 11
2495.0
 21
663.0
 31
0.0
  0
TEXT
  5
8C0
100
AcDbEntity
  8
寸法
  6
CONTINUOUS
 62
     2
100
AcDbText
 10
2507.48
 20
678.0
 30
0.0
 40
60.0
  1
120
 41
0.84
  7
EXCADSTD
 72
     1
 11
2573.0
 21
678.0
 31
0.0
100
AcDbText
  0
ENDBLK
  5
8C1
100
AcDbEntity
  8
0
100
AcDbBlockEnd
  0
ENDSEC
  0
SECTION
  2
ENTITIES
  0
LINE
  5
86
100
AcDbEntity
  8
枠・表
  6
CONTINUOUS
 62
     7
100
AcDbLine
 10
270.0
 20
202.5
 30
0.0
 11
3000.0
 21
202.5
 31
0.0
  0
LINE
  5
87
100
AcDbEntity
  8
枠・表
  6
CONTINUOUS
 62
     7
100
AcDbLine
 10
3000.0
 20
202.5
 30
0.0
 11
3000.0
 21
4327.5
 31
0.0
  0
LINE
  5
88
100
AcDbEntity
  8
枠・表
  6
CONTINUOUS
 62
     7
100
AcDbLine
 10
270.0
 20
202.5
 30
0.0
 11
270.0
 21
4327.5
 31
0.0
  0
LINE
  5
89
100
AcDbEntity
  8
枠・表
  6
CONTINUOUS
 62
     7
100
AcDbLine
 10
270.0
 20
4327.5
 30
0.0
 11
3000.0
 21
4327.5
 31
0.0
  0
LINE
  5
8A
100
AcDbEntity
  8
枠・表
  6
CONTINUOUS
 62
     7
100
AcDbLine
 10
270.0
 20
532.5
 30
0.0
 11
3000.0
 21
532.5
 31
0.0
  0
LINE
  5
8B
100
AcDbEntity
  8
枠・表
  6
CONTINUOUS
 62
     6
100
AcDbLine
 10
3000.0
 20
352.5
 30
0.0
 11
1125.0
 21
352.5
 31
0.0
  0
LINE
  5
8C
100
AcDbEntity
  8
枠・表
  6
CONTINUOUS
 62
     6
100
AcDbLine
 10
2790.0
 20
532.5
 30
0.0
 11
2790.0
 21
352.5
 31
0.0
  0
LINE
  5
8D
100
AcDbEntity
  8
枠・表
  6
CONTINUOUS
 62
     6
100
AcDbLine
 10
2715.0
 20
532.5
 30
0.0
 11
2715.0
 21
352.5
 31
0.0
  0
LINE
  5
8E
100
AcDbEntity
  8
枠・表
  6
CONTINUOUS
 62
     6
100
AcDbLine
 10
2160.0
 20
532.5
 30
0.0
 11
2160.0
 21
202.5
 31
0.0
  0
LINE
  5
8F
100
AcDbEntity
  8
枠・表
  6
CONTINUOUS
 62
     6
100
AcDbLine
 10
2085.0
 20
532.5
 30
0.0
 11
2085.0
 21
202.5
 31
0.0
  0
LINE
  5
90
100
AcDbEntity
  8
枠・表
  6
CONTINUOUS
 62
     6
100
AcDbLine
 10
1200.0
 20
532.5
 30
0.0
 11
1200.0
 21
352.5
 31
0.0
  0
LINE
  5
91
100
AcDbEntity
  8
枠・表
  6
CONTINUOUS
 62
     6
100
AcDbLine
 10
1125.0
 20
532.5
 30
0.0
 11
1125.0
 21
202.5
 31
0.0
  0
LINE
  5
92
100
AcDbEntity
  8
枠・表
  6
CONTINUOUS
 62
     6
100
AcDbLine
 10
930.0
 20
532.5
 30
0.0
 11
930.0
 21
202.5
 31
0.0
  0
LINE
  5
93
100
AcDbEntity
  8
枠・表
  6
CONTINUOUS
 62
     6
100
AcDbLine
 10
735.0
 20
532.5
 30
0.0
 11
735.0
 21
202.5
 31
0.0
  0
LINE
  5
94
100
AcDbEntity
  8
枠・表
  6
CONTINUOUS
 62
     6
100
AcDbLine
 10
502.5
 20
532.5
 30
0.0
 11
502.5
 21
202.5
 31
0.0
  0
LINE
  5
95
100
AcDbEntity
  8
枠・表
  6
CONTINUOUS
 62
     6
100
AcDbLine
 10
270.0
 20
457.5
 30
0.0
 11
1125.0
 21
457.5
 31
0.0
  0
LINE
  5
96
100
AcDbEntity
  8
枠・表
  6
CONTINUOUS
 62
     6
100
AcDbLine
 10
2838.980713
 20
387.004395
 30
0.0
 11
2954.990845
 21
505.049744
 31
0.0
  0
TEXT
  5
97
100
AcDbEntity
  8
枠・表
  6
CONTINUOUS
 62
     2
100
AcDbText
 10
2835.805664
 20
454.084167
 30
0.0
 40
45.0
  1
１
 41
0.826
  7
EXCADSTD
 72
     5
 11
2871.205665
 21
454.084167
 31
0.0
100
AcDbText
  0
TEXT
  5
98
100
AcDbEntity
  8
枠・表
  6
CONTINUOUS
 62
     2
100
AcDbText
 10
2896.918945
 20
387.52327
 30
0.0
 40
45.0
  1
１５
 41
0.791
  7
EXCADSTD
 72
     5
 11
2974.600797
 21
387.52327
 31
0.0
100
AcDbText
  0
TEXT
  5
99
100
AcDbEntity
  8
枠・表
  6
CONTINUOUS
 62
     2
100
AcDbText
 10
303.75
 20
463.125
 30
0.0
 40
63.75
  1
製図
 41
1.087059
  7
EXCADSTD
 72
     5
 11
454.989
 21
463.125
 31
0.0
100
AcDbText
  0
TEXT
  5
9A
100
AcDbEntity
  8
枠・表
  6
CONTINUOUS
 62
     2
100
AcDbText
 10
536.25
 20
463.125
 30
0.0
 40
63.75
  1
写図
 41
1.087059
  7
EXCADSTD
 72
     5
 11
687.489
 21
463.125
 31
0.0
100
AcDbText
  0
TEXT
  5
9B
100
AcDbEntity
  8
枠・表
  6
CONTINUOUS
 62
     2
100
AcDbText
 10
761.25
 20
463.125
 30
0.0
 40
63.75
  1
検図
 41
0.938824
  7
EXCADSTD
 72
     5
 11
891.8655
 21
463.125
 31
0.0
100
AcDbText
  0
TEXT
  5
9C
100
AcDbEntity
  8
枠・表
  6
CONTINUOUS
 62
     2
100
AcDbText
 10
956.25
 20
463.125
 30
0.0
 40
63.75
  1
承認
 41
0.938824
  7
EXCADSTD
 72
     5
 11
1086.8655
 21
463.125
 31
0.0
100
AcDbText
  0
TEXT
  5
9D
100
AcDbEntity
  8
枠・表
  6
CONTINUOUS
 62
     2
100
AcDbText
 10
1133.625
 20
448.125
 30
0.0
 40
63.75
  1
品
 41
0.84
  7
EXCADSTD
 72
     5
 11
1184.625
 21
448.125
 31
0.0
100
AcDbText
  0
TEXT
  5
9E
100
AcDbEntity
  8
枠・表
  6
CONTINUOUS
 62
     2
100
AcDbText
 10
1133.625
 20
373.125
 30
0.0
 40
63.75
  1
名
 41
0.84
  7
EXCADSTD
 72
     5
 11
1184.625
 21
373.125
 31
0.0
100
AcDbText
  0
TEXT
  5
9F
100
AcDbEntity
  8
枠・表
  6
CONTINUOUS
 62
     2
100
AcDbText
 10
2093.625
 20
448.125
 30
0.0
 40
63.75
  1
品
 41
0.84
  7
EXCADSTD
 72
     5
 11
2144.625
 21
448.125
 31
0.0
100
AcDbText
  0
TEXT
  5
A0
100
AcDbEntity
  8
枠・表
  6
CONTINUOUS
 62
     2
100
AcDbText
 10
2093.625
 20
373.125
 30
0.0
 40
63.75
  1
番
 41
0.84
  7
EXCADSTD
 72
     5
 11
2144.625
 21
373.125
 31
0.0
100
AcDbText
  0
TEXT
  5
A1
100
AcDbEntity
  8
枠・表
  6
CONTINUOUS
 62
     2
100
AcDbText
 10
2725.125
 20
448.125
 30
0.0
 40
63.75
  1
尺
 41
0.84
  7
EXCADSTD
 72
     5
 11
2776.125
 21
448.125
 31
0.0
100
AcDbText
  0
TEXT
  5
A2
100
AcDbEntity
  8
枠・表
  6
CONTINUOUS
 62
     2
100
AcDbText
 10
2725.125
 20
373.125
 30
0.0
 40
63.75
  1
度
 41
0.84
  7
EXCADSTD
 72
     5
 11
2776.125
 21
373.125
 31
0.0
100
AcDbText
  0
TEXT
  5
A3
100
AcDbEntity
  8
枠・表
  6
CONTINUOUS
 62
     2
100
AcDbText
 10
2093.625
 20
278.625
 30
0.0
 40
63.75
  1
図
 41
0.84
  7
EXCADSTD
 72
     5
 11
2144.625
 21
278.625
 31
0.0
100
AcDbText
  0
TEXT
  5
A4
100
AcDbEntity
  8
枠・表
  6
CONTINUOUS
 62
     2
100
AcDbText
 10
2093.625
 20
214.125
 30
0.0
 40
63.75
  1
番
 41
0.84
  7
EXCADSTD
 72
     5
 11
2144.625
 21
214.125
 31
0.0
100
AcDbText
  0
LINE
  5
A5
100
AcDbEntity
  8
枠・表
  6
EXLTYPE2
 62
     6
100
AcDbLine
 10
0.0
 20
2227.5
 30
0.0
 11
270.0
 21
2227.5
 31
0.0
  0
TEXT
  5
A6
100
AcDbEntity
  8
枠・表
  6
CONTINUOUS
 62
     2
100
AcDbText
 10
1215.0
 20
442.5
 30
0.0
 40
75.0
  1
500㎜幅
 41
0.72072
  7
EXCADSTD
 72
     5
 11
1503.75
 21
442.5
 31
0.0
100
AcDbText
  0
TEXT
  5
A7
100
AcDbEntity
  8
枠・表
  6
CONTINUOUS
 62
     2
100
AcDbText
 10
1215.0
 20
367.5
 30
0.0
 40
75.0
  1
　洗面化粧ユニット
 41
0.924
  7
EXCADSTD
 72
     5
 11
1957.5
 21
367.5
 31
0.0
100
AcDbText
  0
LINE
  5
A8
100
AcDbEntity
  8
枠・表
  6
EXLTYPE2
 62
     6
100
AcDbLine
 10
270.0
 20
277.5
 30
0.0
 11
735.0
 21
277.5
 31
0.0
  0
CIRCLE
  5
A9
100
AcDbEntity
  8
枠・表
  6
CONTINUOUS
 62
     6
100
AcDbCircle
 10
345.0
 20
240.0
 30
0.0
 40
1.5
  0
CIRCLE
  5
AA
100
AcDbEntity
  8
枠・表
  6
CONTINUOUS
 62
     6
100
AcDbCircle
 10
420.0
 20
240.0
 30
0.0
 40
1.5
  0
CIRCLE
  5
AB
100
AcDbEntity
  8
枠・表
  6
CONTINUOUS
 62
     6
100
AcDbCircle
 10
577.5
 20
240.0
 30
0.0
 40
1.5
  0
CIRCLE
  5
AC
100
AcDbEntity
  8
枠・表
  6
CONTINUOUS
 62
     6
100
AcDbCircle
 10
652.5
 20
240.0
 30
0.0
 40
1.5
  0
TEXT
  5
AD
100
AcDbEntity
  8
枠・表
  6
CONTINUOUS
 62
     6
100
AcDbText
 10
953.25
 20
330.0
 30
0.0
 40
75.0
  1
古林
 41
0.8568
  7
EXCADSTD
 72
     5
 11
1093.4898
 21
330.0
 31
0.0
100
AcDbText
  0
LINE
  5
AE
100
AcDbEntity
  8
枠・表
  6
CONTINUOUS
 62
     6
100
AcDbLine
 10
1875.0
 20
4282.5
 30
0.0
 11
2925.0
 21
4282.5
 31
0.0
  0
LINE
  5
AF
100
AcDbEntity
  8
枠・表
  6
CONTINUOUS
 62
     6
100
AcDbLine
 10
1875.0
 20
4200.0
 30
0.0
 11
2925.0
 21
4200.0
 31
0.0
  0
LINE
  5
B0
100
AcDbEntity
  8
枠・表
  6
CONTINUOUS
 62
     6
100
AcDbLine
 10
1875.0
 20
4117.5
 30
0.0
 11
2925.0
 21
4117.5
 31
0.0
  0
TEXT
  5
B1
100
AcDbEntity
  8
枠・表
  6
CONTINUOUS
 62
     2
100
AcDbText
 10
1995.0
 20
4211.25
 30
0.0
 40
60.0
  1
品番
 41
1.47
  7
EXCADSTD
 72
     5
 11
2187.486
 21
4211.25
 31
0.0
100
AcDbText
  0
TEXT
  5
B2
100
AcDbEntity
  8
枠・表
  6
CONTINUOUS
 62
     2
100
AcDbText
 10
2445.0
 20
4211.25
 30
0.0
 40
60.0
  1
品名
 41
1.47
  7
EXCADSTD
 72
     5
 11
2637.486
 21
4211.25
 31
0.0
100
AcDbText
  0
TEXT
  5
B3
100
AcDbEntity
  8
枠・表
  6
CONTINUOUS
 62
     2
100
AcDbText
 10
2788.5
 20
4211.25
 30
0.0
 40
60.0
  1
個数
 41
0.861
  7
EXCADSTD
 72
     5
 11
2901.2418
 21
4211.25
 31
0.0
100
AcDbText
  0
TEXT
  5
B4
100
AcDbEntity
  8
枠・表
  6
CONTINUOUS
 62
     2
100
AcDbText
 10
2340.0
 20
4128.75
 30
0.0
 40
60.0
  1
洗面化粧台
 41
0.8106
  7
EXCADSTD
 72
     5
 11
2629.499999
 21
4128.75
 31
0.0
100
AcDbText
  0
TEXT
  5
B5
100
AcDbEntity
  8
枠・表
  6
CONTINUOUS
 62
     2
100
AcDbText
 10
2816.25
 20
4128.75
 30
0.0
 40
60.0
  1
１
 41
0.945
  7
EXCADSTD
 72
     5
 11
2870.25
 21
4128.75
 31
0.0
100
AcDbText
  0
TEXT
  5
B6
100
AcDbEntity
  8
枠・表
  6
CONTINUOUS
 62
     2
100
AcDbText
 10
2340.0
 20
4046.25
 30
0.0
 40
60.0
  1
化粧鏡台
 41
0.819
  7
EXCADSTD
 72
     5
 11
2573.999999
 21
4046.25
 31
0.0
100
AcDbText
  0
TEXT
  5
B7
100
AcDbEntity
  8
枠・表
  6
CONTINUOUS
 62
     2
100
AcDbText
 10
2816.25
 20
4046.25
 30
0.0
 40
60.0
  1
１
 41
0.945
  7
EXCADSTD
 72
     5
 11
2870.25
 21
4046.25
 31
0.0
100
AcDbText
  0
TEXT
  5
B8
100
AcDbEntity
  8
枠・表
  6
CONTINUOUS
 62
     2
100
AcDbText
 10
1890.0
 20
4046.25
 30
0.0
 40
60.0
  1
ＬＵＭ５０１Ｋ
 41
0.57
  7
EXCADSTD
 72
     5
 11
2175.000009
 21
4046.25
 31
0.0
100
AcDbText
  0
TEXT
  5
BA
100
AcDbEntity
  8
枠・表
  6
CONTINUOUS
 62
     2
100
AcDbText
 10
1155.0
 20
232.5
 30
0.0
 40
67.5
  1
ジャニス工業株式会社
 41
1.0
  7
EXCADTTF1
 72
     5
 11
2055.0
 21
232.5
 31
0.0
100
AcDbText
  0
TEXT
  5
BB
100
AcDbEntity
  8
枠・表
  6
CONTINUOUS
 62
     6
100
AcDbText
 10
311.25
 20
330.0
 30
0.0
 40
75.0
  1
間瀬
 41
0.8736
  7
EXCADSTD
 72
     5
 11
454.2396
 21
330.0
 31
0.0
100
AcDbText
  0
TEXT
  5
BC
100
AcDbEntity
  8
枠・表
  6
CONTINUOUS
 62
     6
100
AcDbText
 10
273.066174
 20
220.42511
 30
0.0
 40
37.5
  1
２１
 41
0.75768
  7
EXCADSTD
 72
     5
 11
335.074163
 21
220.42511
 31
0.0
100
AcDbText
  0
LINE
  5
BD
100
AcDbEntity
  8
枠・表
  6
CONTINUOUS
 62
     6
100
AcDbLine
 10
1875.0
 20
4035.0
 30
0.0
 11
2925.0
 21
4035.0
 31
0.0
  0
TEXT
  5
BE
100
AcDbEntity
  8
枠・表
  6
CONTINUOUS
 62
     6
100
AcDbText
 10
366.816174
 20
220.42511
 30
0.0
 40
37.5
  1
９
 41
0.89208
  7
EXCADSTD
 72
     5
 11
398.676174
 21
220.42511
 31
0.0
100
AcDbText
  0
TEXT
  5
BF
100
AcDbEntity
  8
枠・表
  6
CONTINUOUS
 62
     6
100
AcDbText
 10
444.178674
 20
220.42511
 30
0.0
 40
37.5
  1
９
 41
0.89208
  7
EXCADSTD
 72
     5
 11
476.038674
 21
220.42511
 31
0.0
100
AcDbText
  0
TEXT
  5
C0
100
AcDbEntity
  8
枠・表
  6
CONTINUOUS
 62
     7
100
AcDbText
 10
2178.000003
 20
227.25
 30
0.0
 40
105.0
  1
ＬＵ１１０９６０
 41
0.804
  7
EXCADSTD
 72
     5
 11
2981.999997
 21
227.25
 31
0.0
100
AcDbText
  0
TEXT
  5
C1
100
AcDbEntity
  8
枠・表
  6
CONTINUOUS
 62
     2
100
AcDbText
 10
2175.0
 20
442.5
 30
0.0
 40
75.0
  1
ＬＵ５０２ＦＥＡ（Ｙ）
 41
0.569673
  7
EXCADSTD
 72
     5
 11
2734.500031
 21
442.5
 31
0.0
100
AcDbText
  0
TEXT
  5
C2
100
AcDbEntity
  8
枠・表
  6
CONTINUOUS
 62
     2
100
AcDbText
 10
2175.0
 20
367.5
 30
0.0
 40
75.0
  1
ＬＵＭ５０１Ｋ
 41
0.5784
  7
EXCADSTD
 72
     5
 11
2536.50002
 21
367.5
 31
0.0
100
AcDbText
  0
TEXT
  5
C3
100
AcDbEntity
  8
枠・表
  6
CONTINUOUS
 62
     2
100
AcDbText
 10
1890.0
 20
4128.75
 30
0.0
 40
60.0
  1
ＬＵ５０２ＦＥＡ（Ｙ）
 41
0.561273
  7
EXCADSTD
 72
     5
 11
2331.000014
 21
4128.75
 31
0.0
100
AcDbText
  0
LINE
  5
C4
100
AcDbEntity
  8
枠・表
  6
CONTINUOUS
 62
     6
100
AcDbLine
 10
1875.0
 20
4035.0
 30
0.0
 11
1875.0
 21
4282.5
 31
0.0
  0
LINE
  5
C5
100
AcDbEntity
  8
枠・表
  6
CONTINUOUS
 62
     6
100
AcDbLine
 10
2325.0
 20
4035.0
 30
0.0
 11
2325.0
 21
4282.5
 31
0.0
  0
LINE
  5
C6
100
AcDbEntity
  8
枠・表
  6
CONTINUOUS
 62
     6
100
AcDbLine
 10
2775.0
 20
4035.0
 30
0.0
 11
2775.0
 21
4282.5
 31
0.0
  0
LINE
  5
C7
100
AcDbEntity
  8
枠・表
  6
CONTINUOUS
 62
     6
100
AcDbLine
 10
2925.0
 20
4035.0
 30
0.0
 11
2925.0
 21
4282.5
 31
0.0
  0
LINE
  5
C8
100
AcDbEntity
  8
枠・表
  6
CONTINUOUS
 62
     6
100
AcDbLine
 10
1875.0
 20
3952.5
 30
0.0
 11
2925.0
 21
3952.5
 31
0.0
  0
TEXT
  5
C9
100
AcDbEntity
  8
枠・表
  6
CONTINUOUS
 62
     2
100
AcDbText
 10
1890.0
 20
3881.25
 30
0.0
 40
60.0
  1
ＮＬ３０Ｓ４０
 41
0.528
  7
EXCADSTD
 72
     5
 11
2154.000004
 21
3881.25
 31
0.0
100
AcDbText
  0
TEXT
  5
CA
100
AcDbEntity
  8
枠・表
  6
CONTINUOUS
 62
     2
100
AcDbText
 10
2340.0
 20
3881.25
 30
0.0
 40
60.0
  1
フレキシブルパイプ
 41
0.648667
  7
EXCADSTD
 72
     5
 11
2756.999992
 21
3881.25
 31
0.0
100
AcDbText
  0
LINE
  5
CB
100
AcDbEntity
  8
枠・表
  6
CONTINUOUS
 62
     6
100
AcDbLine
 10
1875.0
 20
3787.5
 30
0.0
 11
2925.0
 21
3787.5
 31
0.0
  0
TEXT
  5
CC
100
AcDbEntity
  8
枠・表
  6
CONTINUOUS
 62
     2
100
AcDbText
 10
1890.0
 20
3798.75
 30
0.0
 40
60.0
  1
ＮＬ２２１-７５ＷＭＹ
 41
0.49719
  7
EXCADSTD
 72
     5
 11
2274.000006
 21
3798.75
 31
0.0
100
AcDbText
  0
TEXT
  5
CD
100
AcDbEntity
  8
枠・表
  6
CONTINUOUS
 62
     2
100
AcDbText
 10
2340.0
 20
3798.75
 30
0.0
 40
60.0
  1
アングル形止水栓（共用形）
 41
0.474923
  7
EXCADSTD
 72
     5
 11
2781.000023
 21
3798.75
 31
0.0
100
AcDbText
  0
LINE
  5
CE
100
AcDbEntity
  8
枠・表
  6
CONTINUOUS
 62
     6
100
AcDbLine
 10
1875.0
 20
3870.0
 30
0.0
 11
2925.0
 21
3870.0
 31
0.0
  0
LINE
  5
CF
100
AcDbEntity
  8
枠・表
  6
CONTINUOUS
 62
     6
100
AcDbLine
 10
1875.0
 20
3787.5
 30
0.0
 11
1875.0
 21
3952.5
 31
0.0
  0
LINE
  5
D0
100
AcDbEntity
  8
枠・表
  6
CONTINUOUS
 62
     6
100
AcDbLine
 10
2325.0
 20
3787.5
 30
0.0
 11
2325.0
 21
3952.5
 31
0.0
  0
LINE
  5
D1
100
AcDbEntity
  8
枠・表
  6
CONTINUOUS
 62
     6
100
AcDbLine
 10
2775.0
 20
3787.5
 30
0.0
 11
2775.0
 21
3952.5
 31
0.0
  0
LINE
  5
D2
100
AcDbEntity
  8
枠・表
  6
CONTINUOUS
 62
     6
100
AcDbLine
 10
2925.0
 20
3787.5
 30
0.0
 11
2925.0
 21
3952.5
 31
0.0
  0
TEXT
  5
D3
100
AcDbEntity
  8
枠・表
  6
CONTINUOUS
 62
     2
100
AcDbText
 10
1890.0
 20
3963.75
 30
0.0
 40
60.0
  1
止水栓手配品番（アングル形の場合）
 41
0.681882
  7
EXCADSTD
 72
     5
 11
2717.999997
 21
3963.75
 31
0.0
100
AcDbText
  0
LINE
  5
D4
100
AcDbEntity
  8
枠・表
  6
CONTINUOUS
 62
     6
100
AcDbLine
 10
1875.0
 20
3705.0
 30
0.0
 11
2925.0
 21
3705.0
 31
0.0
  0
TEXT
  5
D5
100
AcDbEntity
  8
枠・表
  6
CONTINUOUS
 62
     2
100
AcDbText
 10
1890.0
 20
3633.75
 30
0.0
 40
60.0
  1
ＮＬ３０Ｓ４０
 41
0.528
  7
EXCADSTD
 72
     5
 11
2154.000004
 21
3633.75
 31
0.0
100
AcDbText
  0
LINE
  5
D6
100
AcDbEntity
  8
枠・表
  6
CONTINUOUS
 62
     6
100
AcDbLine
 10
1875.0
 20
3540.0
 30
0.0
 11
2925.0
 21
3540.0
 31
0.0
  0
LINE
  5
D7
100
AcDbEntity
  8
枠・表
  6
CONTINUOUS
 62
     6
100
AcDbLine
 10
1875.0
 20
3622.5
 30
0.0
 11
2925.0
 21
3622.5
 31
0.0
  0
LINE
  5
D8
100
AcDbEntity
  8
枠・表
  6
CONTINUOUS
 62
     6
100
AcDbLine
 10
1875.0
 20
3540.0
 30
0.0
 11
1875.0
 21
3705.0
 31
0.0
  0
LINE
  5
D9
100
AcDbEntity
  8
枠・表
  6
CONTINUOUS
 62
     6
100
AcDbLine
 10
2325.0
 20
3540.0
 30
0.0
 11
2325.0
 21
3705.0
 31
0.0
  0
LINE
  5
DA
100
AcDbEntity
  8
枠・表
  6
CONTINUOUS
 62
     6
100
AcDbLine
 10
2775.0
 20
3540.0
 30
0.0
 11
2775.0
 21
3705.0
 31
0.0
  0
LINE
  5
DB
100
AcDbEntity
  8
枠・表
  6
CONTINUOUS
 62
     6
100
AcDbLine
 10
2925.0
 20
3540.0
 30
0.0
 11
2925.0
 21
3705.0
 31
0.0
  0
TEXT
  5
DC
100
AcDbEntity
  8
枠・表
  6
CONTINUOUS
 62
     2
100
AcDbText
 10
1890.0
 20
3716.25
 30
0.0
 40
60.0
  1
止水栓手配品番（ストレート形の場合）
 41
0.681333
  7
EXCADSTD
 72
     5
 11
2765.999997
 21
3716.25
 31
0.0
100
AcDbText
  0
TEXT
  5
DD
100
AcDbEntity
  8
枠・表
  6
CONTINUOUS
 62
     2
100
AcDbText
 10
1890.0
 20
3551.25
 30
0.0
 40
60.0
  1
ＮＬ２１１-３３０ＷＭＹ
 41
0.518222
  7
EXCADSTD
 72
     5
 11
2327.24999
 21
3551.25
 31
0.0
100
AcDbText
  0
TEXT
  5
DE
100
AcDbEntity
  8
枠・表
  6
CONTINUOUS
 62
     2
100
AcDbText
 10
2340.0
 20
3551.25
 30
0.0
 40
60.0
  1
ストレート形止水栓（共用形）
 41
0.435
  7
EXCADSTD
 72
     5
 11
2775.00005
 21
3551.25
 31
0.0
100
AcDbText
  0
TEXT
  5
DF
100
AcDbEntity
  8
枠・表
  6
CONTINUOUS
 62
     2
100
AcDbText
 10
2340.0
 20
3633.75
 30
0.0
 40
60.0
  1
フレキシブルパイプ
 41
0.648667
  7
EXCADSTD
 72
     5
 11
2756.999992
 21
3633.75
 31
0.0
100
AcDbText
  0
TEXT
  5
E0
100
AcDbEntity
  8
枠・表
  6
CONTINUOUS
 62
     2
100
AcDbText
 10
2816.25
 20
3881.25
 30
0.0
 40
60.0
  1
１
 41
0.945
  7
EXCADSTD
 72
     5
 11
2870.25
 21
3881.25
 31
0.0
100
AcDbText
  0
TEXT
  5
E1
100
AcDbEntity
  8
枠・表
  6
CONTINUOUS
 62
     2
100
AcDbText
 10
2816.25
 20
3798.75
 30
0.0
 40
60.0
  1
１
 41
0.945
  7
EXCADSTD
 72
     5
 11
2870.25
 21
3798.75
 31
0.0
100
AcDbText
  0
TEXT
  5
E2
100
AcDbEntity
  8
枠・表
  6
CONTINUOUS
 62
     2
100
AcDbText
 10
2816.25
 20
3633.75
 30
0.0
 40
60.0
  1
１
 41
0.945
  7
EXCADSTD
 72
     5
 11
2870.25
 21
3633.75
 31
0.0
100
AcDbText
  0
TEXT
  5
E3
100
AcDbEntity
  8
枠・表
  6
CONTINUOUS
 62
     2
100
AcDbText
 10
2816.25
 20
3551.25
 30
0.0
 40
60.0
  1
１
 41
0.945
  7
EXCADSTD
 72
     5
 11
2870.25
 21
3551.25
 31
0.0
100
AcDbText
  0
TEXT
  5
E4
100
AcDbEntity
  8
枠・表
  6
CONTINUOUS
 62
     2
100
AcDbText
 10
1899.0
 20
3463.5
 30
0.0
 40
52.5
  1
※止水栓・フレキシブルパイプは別途
 41
0.779294
  7
EXCADSTD
 72
     5
 11
2726.999997
 21
3463.5
 31
0.0
100
AcDbText
  0
TEXT
  5
E5
100
AcDbEntity
  8
枠・表
  6
CONTINUOUS
 62
     2
100
AcDbText
 10
1899.0
 20
3411.0
 30
0.0
 40
52.5
  1
※洗面化粧台
 41
0.8
  7
EXCADSTD
 72
     5
 11
2198.999999
 21
3411.0
 31
0.0
100
AcDbText
  0
TEXT
  5
E6
100
AcDbEntity
  8
枠・表
  6
CONTINUOUS
 62
     2
100
AcDbText
 10
1899.0
 20
3358.5
 30
0.0
 40
52.5
  1
　品番にＹの付く場合は、寒冷地仕様
 41
0.779294
  7
EXCADSTD
 72
     5
 11
2726.999997
 21
3358.5
 31
0.0
100
AcDbText
  0
TEXT
  5
E7
100
AcDbEntity
  8
枠・表
  6
CONTINUOUS
 62
     2
100
AcDbText
 10
1899.0
 20
3306.0
 30
0.0
 40
52.5
  1
※化粧鏡台
 41
0.8064
  7
EXCADSTD
 72
     5
 11
2150.999999
 21
3306.0
 31
0.0
100
AcDbText
  0
TEXT
  5
E8
100
AcDbEntity
  8
枠・表
  6
CONTINUOUS
 62
     2
100
AcDbText
 10
1899.0
 20
3253.5
 30
0.0
 40
52.5
  1
　電源：１００Ｖ，５０/６０Ｈｚ
 41
0.758929
  7
EXCADSTD
 72
     5
 11
2648.999997
 21
3253.5
 31
0.0
100
AcDbText
  0
TEXT
  5
E9
100
AcDbEntity
  8
枠・表
  6
CONTINUOUS
 62
     2
100
AcDbText
 10
1899.0
 20
3201.0
 30
0.0
 40
52.5
  1
　コンセント容量：１２００Ｗ
 41
0.781714
  7
EXCADSTD
 72
     5
 11
2582.999998
 21
3201.0
 31
0.0
100
AcDbText
  0
TEXT
  5
EA
100
AcDbEntity
  8
枠・表
  6
CONTINUOUS
 62
     2
100
AcDbText
 10
1899.0
 20
3148.5
 30
0.0
 40
52.5
  1
　電源コードの取出しは、左右及び上側
 41
0.778667
  7
EXCADSTD
 72
     5
 11
2774.999997
 21
3148.5
 31
0.0
100
AcDbText
  0
POLYLINE
  5
EB
100
AcDbEntity
  8
化粧台
  6
CONTINUOUS
 62
     3
100
AcDb2dPolyline
 66
     1
 10
0.0
 20
0.0
 30
0.0
 70
   128
  0
VERTEX
  5
EC
100
AcDbEntity
  8
化粧台
  6
CONTINUOUS
 62
     3
100
AcDbVertex
100
AcDb2dVertex
 10
1452.0
 20
3917.5
 30
0.0
  0
VERTEX
  5
ED
100
AcDbEntity
  8
化粧台
  6
CONTINUOUS
 62
     3
100
AcDbVertex
100
AcDb2dVertex
 10
1475.0
 20
3868.0
 30
0.0
  0
SEQEND
  5
EE
100
AcDbEntity
  8
化粧台
  6
CONTINUOUS
 62
     3
  0
LINE
  5
EF
100
AcDbEntity
  8
化粧台
  6
CONTINUOUS
 62
     3
100
AcDbLine
 10
1477.763749
 20
3879.850575
 30
0.0
 11
1452.0
 21
3917.5
 31
0.0
  0
LINE
  5
F0
100
AcDbEntity
  8
化粧台
  6
CONTINUOUS
 62
     3
100
AcDbLine
 10
1452.0
 20
3917.5
 30
0.0
 11
1464.16049
 21
3873.529868
 31
0.0
  0
POLYLINE
  5
F1
100
AcDbEntity
  8
化粧台
  6
CONTINUOUS
 62
     3
100
AcDb2dPolyline
 66
     1
 10
0.0
 20
0.0
 30
0.0
 70
   128
  0
VERTEX
  5
F2
100
AcDbEntity
  8
化粧台
  6
CONTINUOUS
 62
     3
100
AcDbVertex
100
AcDb2dVertex
 10
2450.0
 20
2857.5
 30
0.0
  0
VERTEX
  5
F3
100
AcDbEntity
  8
化粧台
  6
CONTINUOUS
 62
     3
100
AcDbVertex
100
AcDb2dVertex
 10
2404.0
 20
2877.5
 30
0.0
  0
SEQEND
  5
F4
100
AcDbEntity
  8
化粧台
  6
CONTINUOUS
 62
     3
  0
LINE
  5
F5
100
AcDbEntity
  8
化粧台
  6
CONTINUOUS
 62
     3
100
AcDbLine
 10
2405.741402
 20
2868.56465
 30
0.0
 11
2450.0
 21
2857.5
 31
0.0
  0
LINE
  5
F6
100
AcDbEntity
  8
化粧台
  6
CONTINUOUS
 62
     3
100
AcDbLine
 10
2450.0
 20
2857.5
 30
0.0
 11
2411.722293
 21
2882.3207
 31
0.0
  0
POLYLINE
  5
F7
100
AcDbEntity
  8
化粧台
  6
CONTINUOUS
 62
     3
100
AcDb2dPolyline
 66
     1
 10
0.0
 20
0.0
 30
0.0
 70
   128
  0
VERTEX
  5
F8
100
AcDbEntity
  8
化粧台
  6
CONTINUOUS
 62
     3
100
AcDbVertex
100
AcDb2dVertex
 10
1948.0
 20
888.5
 30
0.0
  0
VERTEX
  5
F9
100
AcDbEntity
  8
化粧台
  6
CONTINUOUS
 62
     3
100
AcDbVertex
100
AcDb2dVertex
 10
1929.0
 20
937.5
 30
0.0
  0
SEQEND
  5
FA
100
AcDbEntity
  8
化粧台
  6
CONTINUOUS
 62
     3
  0
LINE
  5
FB
100
AcDbEntity
  8
化粧台
  6
CONTINUOUS
 62
     3
100
AcDbLine
 10
1924.738537
 20
927.7448
 30
0.0
 11
1948.0
 21
888.5
 31
0.0
  0
LINE
  5
FC
100
AcDbEntity
  8
化粧台
  6
CONTINUOUS
 62
     3
100
AcDbLine
 10
1948.0
 20
888.5
 30
0.0
 11
1938.723956
 21
933.167718
 31
0.0
  0
TEXT
  5
FD
100
AcDbEntity
  8
化粧台
  6
CONTINUOUS
 62
     2
100
AcDbText
 10
1494.000001
 20
3857.5
 30
0.0
 40
60.0
  1
W.L.
 41
0.4125
  7
EXCADSTD
 72
     5
 11
1584.7434
 21
3857.5
 31
0.0
100
AcDbText
  0
ARC
  5
FE
100
AcDbEntity
  8
化粧台
  6
CONTINUOUS
 62
     2
100
AcDbCircle
 10
763.539596
 20
3571.004592
 30
0.0
 40
45.0
100
AcDbArc
 50
181.173696
 51
242.905609
  0
ARC
  5
FF
100
AcDbEntity
  8
化粧台
  6
CONTINUOUS
 62
     2
100
AcDbCircle
 10
960.318676
 20
3798.020229
 30
0.0
 40
300.0
100
AcDbArc
 50
285.592347
 51
297.094391
  0
ARC
  5
100
100
AcDbEntity
  8
化粧台
  6
CONTINUOUS
 62
     2
100
AcDbCircle
 10
1076.460404
 20
3571.004592
 30
0.0
 40
45.0
100
AcDbArc
 50
297.094391
 51
358.826304
  0
ARC
  5
101
100
AcDbEntity
  8
化粧台
  6
CONTINUOUS
 62
     2
100
AcDbCircle
 10
920.0
 20
4067.5
 30
0.0
 40
600.0
100
AcDbArc
 50
255.226949
 51
284.773051
  0
ARC
  5
102
100
AcDbEntity
  8
化粧台
  6
CONTINUOUS
 62
     2
100
AcDbCircle
 10
879.681324
 20
3798.020229
 30
0.0
 40
300.0
100
AcDbArc
 50
242.905609
 51
254.407653
  0
ARC
  5
103
100
AcDbEntity
  8
化粧台
  6
CONTINUOUS
 62
     2
100
AcDbCircle
 10
920.0
 20
3942.5
 30
0.0
 40
450.0
100
AcDbArc
 50
254.407653
 51
285.592347
  0
LINE
  5
104
100
AcDbEntity
  8
化粧台
  6
CONTINUOUS
 62
     2
100
AcDbLine
 10
670.0
 20
3917.5
 30
0.0
 11
1170.0
 21
3917.5
 31
0.0
  0
ARC
  5
105
100
AcDbEntity
  8
化粧台
  6
CONTINUOUS
 62
     2
100
AcDbCircle
 10
843.502705
 20
3777.416971
 30
0.0
 40
300.0
100
AcDbArc
 50
239.104628
 51
255.226949
  0
ARC
  5
106
100
AcDbEntity
  8
化粧台
  6
CONTINUOUS
 62
     2
100
AcDbCircle
 10
996.497295
 20
3777.416971
 30
0.0
 40
300.0
100
AcDbArc
 50
284.773051
 51
300.895372
  0
ARC
  5
107
100
AcDbEntity
  8
化粧台
  6
CONTINUOUS
 62
     2
100
AcDbCircle
 10
5717.5
 20
3672.5
 30
0.0
 40
5000.0
100
AcDbArc
 50
179.413503
 51
181.173696
  0
LINE
  5
108
100
AcDbEntity
  8
化粧台
  6
CONTINUOUS
 62
     2
100
AcDbLine
 10
670.0
 20
3917.5
 30
0.0
 11
670.0
 21
3554.309311
 31
0.0
  0
ARC
  5
109
100
AcDbEntity
  8
化粧台
  6
CONTINUOUS
 62
     2
100
AcDbCircle
 10
710.0
 20
3554.309311
 30
0.0
 40
40.0
100
AcDbArc
 50
180.0
 51
239.104628
  0
ARC
  5
10A
100
AcDbEntity
  8
化粧台
  6
CONTINUOUS
 62
     2
100
AcDbCircle
 10
-3877.5
 20
3672.5
 30
0.0
 40
5000.0
100
AcDbArc
 50
358.826304
 51
0.586497
  0
LINE
  5
10B
100
AcDbEntity
  8
化粧台
  6
CONTINUOUS
 62
     2
100
AcDbLine
 10
1170.0
 20
3917.5
 30
0.0
 11
1170.0
 21
3554.309311
 31
0.0
  0
ARC
  5
10C
100
AcDbEntity
  8
化粧台
  6
CONTINUOUS
 62
     2
100
AcDbCircle
 10
1130.0
 20
3554.309311
 30
0.0
 40
40.0
100
AcDbArc
 50
300.895372
 51
0.0
  0
LINE
  5
10D
100
AcDbEntity
  8
化粧台
  6
CONTINUOUS
 62
     6
100
AcDbLine
 10
1068.0
 20
3917.5
 30
0.0
 11
1070.0
 21
3950.0
 31
0.0
  0
LINE
  5
10E
100
AcDbEntity
  8
化粧台
  6
CONTINUOUS
 62
     6
100
AcDbLine
 10
1070.0
 20
3950.0
 30
0.0
 11
1072.0
 21
3917.5
 31
0.0
  0
LINE
  5
10F
100
AcDbEntity
  8
化粧台
  6
CONTINUOUS
 62
     6
100
AcDbLine
 10
768.0
 20
3917.5
 30
0.0
 11
770.0
 21
3950.0
 31
0.0
  0
LINE
  5
110
100
AcDbEntity
  8
化粧台
  6
CONTINUOUS
 62
     6
100
AcDbLine
 10
770.0
 20
3950.0
 30
0.0
 11
772.0
 21
3917.5
 31
0.0
  0
LINE
  5
111
100
AcDbEntity
  8
化粧台
  6
CONTINUOUS
 62
     6
100
AcDbLine
 10
1070.0
 20
3907.5
 30
0.0
 11
1070.0
 21
3965.0
 31
0.0
  0
LINE
  5
112
100
AcDbEntity
  8
化粧台
  6
CONTINUOUS
 62
     6
100
AcDbLine
 10
770.0
 20
3907.5
 30
0.0
 11
770.0
 21
3965.0
 31
0.0
  0
LINE
  5
113
100
AcDbEntity
  8
化粧台
  6
CONTINUOUS
 62
     6
100
AcDbLine
 10
971.0
 20
3792.5
 30
0.0
 11
971.0
 21
3882.5
 31
0.0
  0
LINE
  5
114
100
AcDbEntity
  8
化粧台
  6
EXLTYPE3
 62
     6
100
AcDbLine
 10
920.0
 20
3932.5
 30
0.0
 11
920.0
 21
3452.5
 31
0.0
  0
LINE
  5
115
100
AcDbEntity
  8
化粧台
  6
CONTINUOUS
 62
     6
100
AcDbLine
 10
962.0
 20
3717.5
 30
0.0
 11
878.0
 21
3717.5
 31
0.0
  0
LINE
  5
116
100
AcDbEntity
  8
化粧台
  6
EXLTYPE4
 62
     6
100
AcDbLine
 10
1170.0
 20
3917.5
 30
0.0
 11
1593.0
 21
3917.5
 31
0.0
  0
ARC
  5
117
100
AcDbEntity
  8
化粧台
  6
CONTINUOUS
 62
     2
100
AcDbCircle
 10
1052.241714
 20
3722.964133
 30
0.0
 40
70.0
100
AcDbArc
 50
0.586497
 51
60.589662
  0
ARC
  5
118
100
AcDbEntity
  8
化粧台
  6
CONTINUOUS
 62
     2
100
AcDbCircle
 10
787.758286
 20
3722.964133
 30
0.0
 40
70.0
100
AcDbArc
 50
119.410338
 51
179.413503
  0
ARC
  5
119
100
AcDbEntity
  8
化粧台
  6
CONTINUOUS
 62
     6
100
AcDbCircle
 10
679.0
 20
3901.5
 30
0.0
 40
9.0
100
AcDbArc
 50
180.0
 51
270.0
  0
ARC
  5
11A
100
AcDbEntity
  8
化粧台
  6
CONTINUOUS
 62
     6
100
AcDbCircle
 10
1161.0
 20
3901.5
 30
0.0
 40
9.0
100
AcDbArc
 50
270.0
 51
0.0
  0
LINE
  5
11B
100
AcDbEntity
  8
化粧台
  6
EXLTYPE2
 62
     6
100
AcDbLine
 10
679.0
 20
3892.5
 30
0.0
 11
1161.0
 21
3892.5
 31
0.0
  0
LINE
  5
11C
100
AcDbEntity
  8
化粧台
  6
EXLTYPE2
 62
     6
100
AcDbLine
 10
717.5
 20
3867.5
 30
0.0
 11
717.5
 21
3791.179097
 31
0.0
  0
ARC
  5
11D
100
AcDbEntity
  8
化粧台
  6
EXLTYPE2
 62
     6
100
AcDbCircle
 10
737.5
 20
3867.5
 30
0.0
 40
20.0
100
AcDbArc
 50
90.0
 51
180.0
  0
LINE
  5
11E
100
AcDbEntity
  8
化粧台
  6
EXLTYPE2
 62
     6
100
AcDbLine
 10
737.5
 20
3887.5
 30
0.0
 11
1102.5
 21
3887.5
 31
0.0
  0
ARC
  5
11F
100
AcDbEntity
  8
化粧台
  6
EXLTYPE2
 62
     6
100
AcDbCircle
 10
1102.5
 20
3867.5
 30
0.0
 40
20.0
100
AcDbArc
 50
0.0
 51
90.0
  0
LINE
  5
120
100
AcDbEntity
  8
化粧台
  6
EXLTYPE2
 62
     6
100
AcDbLine
 10
1122.5
 20
3867.5
 30
0.0
 11
1122.5
 21
3791.177634
 31
0.0
  0
ARC
  5
121
100
AcDbEntity
  8
化粧台
  6
EXLTYPE2
 62
     6
100
AcDbCircle
 10
1052.241714
 20
3722.964133
 30
0.0
 40
70.0
100
AcDbArc
 50
60.589662
 51
86.071071
  0
ARC
  5
122
100
AcDbEntity
  8
化粧台
  6
EXLTYPE2
 62
     6
100
AcDbCircle
 10
920.0
 20
1797.5
 30
0.0
 40
2000.0
100
AcDbArc
 50
86.071071
 51
93.928929
  0
ARC
  5
123
100
AcDbEntity
  8
化粧台
  6
EXLTYPE2
 62
     6
100
AcDbCircle
 10
787.758286
 20
3722.964133
 30
0.0
 40
70.0
100
AcDbArc
 50
93.928929
 51
119.410338
  0
LINE
  5
124
100
AcDbEntity
  8
化粧台
  6
CONTINUOUS
 62
     6
100
AcDbLine
 10
717.5
 20
3791.179097
 30
0.0
 11
717.5
 21
3762.5
 31
0.0
  0
LINE
  5
125
100
AcDbEntity
  8
化粧台
  6
CONTINUOUS
 62
     6
100
AcDbLine
 10
1122.5
 20
3791.177634
 30
0.0
 11
1122.5
 21
3762.5
 31
0.0
  0
LINE
  5
126
100
AcDbEntity
  8
化粧台
  6
EXLTYPE4
 62
     6
100
AcDbLine
 10
447.0
 20
3917.5
 30
0.0
 11
670.0
 21
3917.5
 31
0.0
  0
CIRCLE
  5
127
100
AcDbEntity
  8
化粧台
  6
CONTINUOUS
 62
     2
100
AcDbCircle
 10
920.0
 20
3717.25
 30
0.0
 40
3.0
  0
TEXT
  5
128
100
AcDbEntity
  8
化粧台
  6
CONTINUOUS
 62
     2
100
AcDbText
 10
1821.5
 20
888.5
 30
0.0
 40
60.0
  1
F.L.
 41
0.4125
  7
EXCADSTD
 72
     5
 11
1912.2434
 21
888.5
 31
0.0
100
AcDbText
  0
ARC
  5
129
100
AcDbEntity
  8
化粧台
  6
CONTINUOUS
 62
     2
100
AcDbCircle
 10
680.5
 20
1680.5
 30
0.0
 40
8.0
100
AcDbArc
 50
90.0
 51
180.0
  0
ARC
  5
12A
100
AcDbEntity
  8
化粧台
  6
CONTINUOUS
 62
     2
100
AcDbCircle
 10
681.5
 20
1644.5
 30
0.0
 40
9.0
100
AcDbArc
 50
82.802464
 51
181.539891
  0
ARC
  5
12B
100
AcDbEntity
  8
化粧台
  6
CONTINUOUS
 62
     2
100
AcDbCircle
 10
714.761542
 20
1600.261814
 30
0.0
 40
40.0
100
AcDbArc
 50
184.233549
 51
236.712724
  0
ARC
  5
12C
100
AcDbEntity
  8
化粧台
  6
CONTINUOUS
 62
     2
100
AcDbCircle
 10
1672.142108
 20
1671.131077
 30
0.0
 40
1000.0
100
AcDbArc
 50
181.539891
 51
184.233549
  0
ARC
  5
12D
100
AcDbEntity
  8
化粧台
  6
CONTINUOUS
 62
     2
100
AcDbCircle
 10
835.505724
 20
1784.166252
 30
0.0
 40
260.0
100
AcDbArc
 50
236.712724
 51
255.610488
  0
ARC
  5
12E
100
AcDbEntity
  8
化粧台
  6
CONTINUOUS
 62
     2
100
AcDbCircle
 10
681.5
 20
1664.5
 30
0.0
 40
9.0
100
AcDbArc
 50
71.491849
 51
180.0
  0
LINE
  5
12F
100
AcDbEntity
  8
化粧台
  6
CONTINUOUS
 62
     2
100
AcDbLine
 10
672.5
 20
1644.5
 30
0.0
 11
672.5
 21
1680.5
 31
0.0
  0
ARC
  5
130
100
AcDbEntity
  8
化粧台
  6
CONTINUOUS
 62
     2
100
AcDbCircle
 10
1159.5
 20
1680.5
 30
0.0
 40
8.0
100
AcDbArc
 50
0.0
 51
90.0
  0
ARC
  5
131
100
AcDbEntity
  8
化粧台
  6
CONTINUOUS
 62
     2
100
AcDbCircle
 10
1125.238458
 20
1600.261814
 30
0.0
 40
40.0
100
AcDbArc
 50
303.287276
 51
355.766451
  0
ARC
  5
132
100
AcDbEntity
  8
化粧台
  6
CONTINUOUS
 62
     2
100
AcDbCircle
 10
167.857892
 20
1671.131077
 30
0.0
 40
1000.0
100
AcDbArc
 50
355.766451
 51
358.460109
  0
ARC
  5
133
100
AcDbEntity
  8
化粧台
  6
CONTINUOUS
 62
     2
100
AcDbCircle
 10
1158.5
 20
1664.5
 30
0.0
 40
9.0
100
AcDbArc
 50
0.0
 51
108.508151
  0
LINE
  5
134
100
AcDbEntity
  8
化粧台
  6
CONTINUOUS
 62
     2
100
AcDbLine
 10
1167.5
 20
1644.5
 30
0.0
 11
1167.5
 21
1680.5
 31
0.0
  0
ARC
  5
135
100
AcDbEntity
  8
化粧台
  6
CONTINUOUS
 62
     2
100
AcDbCircle
 10
1004.494276
 20
1784.166252
 30
0.0
 40
260.0
100
AcDbArc
 50
284.389512
 51
303.287276
  0
ARC
  5
136
100
AcDbEntity
  8
化粧台
  6
CONTINUOUS
 62
     2
100
AcDbCircle
 10
920.0
 20
3533.075
 30
0.0
 40
1894.575
100
AcDbArc
 50
262.802464
 51
277.197536
  0
ARC
  5
137
100
AcDbEntity
  8
化粧台
  6
CONTINUOUS
 62
     2
100
AcDbCircle
 10
1158.5
 20
1644.5
 30
0.0
 40
9.0
100
AcDbArc
 50
358.460109
 51
97.197536
  0
ARC
  5
138
100
AcDbEntity
  8
化粧台
  6
CONTINUOUS
 62
     2
100
AcDbCircle
 10
658.961791
 20
1597.172226
 30
0.0
 40
80.0
100
AcDbArc
 50
40.479094
 51
71.491849
  0
ARC
  5
139
100
AcDbEntity
  8
化粧台
  6
CONTINUOUS
 62
     2
100
AcDbCircle
 10
1181.038209
 20
1597.172226
 30
0.0
 40
80.0
100
AcDbArc
 50
108.508151
 51
139.520906
  0
LINE
  5
13A
100
AcDbEntity
  8
化粧台
  6
CONTINUOUS
 62
     2
100
AcDbLine
 10
725.59964
 20
1648.5
 30
0.0
 11
1114.40036
 21
1648.5
 31
0.0
  0
LINE
  5
13B
100
AcDbEntity
  8
化粧台
  6
CONTINUOUS
 62
     2
100
AcDbLine
 10
1152.5
 20
1441.5
 30
0.0
 11
687.5
 21
1441.5
 31
0.0
  0
LINE
  5
13C
100
AcDbEntity
  8
化粧台
  6
CONTINUOUS
 62
     2
100
AcDbLine
 10
1152.5
 20
1434.5
 30
0.0
 11
687.5
 21
1434.5
 31
0.0
  0
LINE
  5
13D
100
AcDbEntity
  8
化粧台
  6
CONTINUOUS
 62
     2
100
AcDbLine
 10
687.5
 20
988.5
 30
0.0
 11
1152.5
 21
988.5
 31
0.0
  0
LINE
  5
13E
100
AcDbEntity
  8
化粧台
  6
CONTINUOUS
 62
     2
100
AcDbLine
 10
687.5
 20
888.5
 30
0.0
 11
1152.5
 21
888.5
 31
0.0
  0
LINE
  5
13F
100
AcDbEntity
  8
化粧台
  6
CONTINUOUS
 62
     2
100
AcDbLine
 10
687.5
 20
1570.990525
 30
0.0
 11
687.5
 21
888.5
 31
0.0
  0
LINE
  5
140
100
AcDbEntity
  8
化粧台
  6
CONTINUOUS
 62
     2
100
AcDbLine
 10
1152.5
 20
1570.990525
 30
0.0
 11
1152.5
 21
888.5
 31
0.0
  0
ARC
  5
141
100
AcDbEntity
  8
化粧台
  6
EXLTYPE2
 62
     2
100
AcDbCircle
 10
770.142291
 20
1504.5
 30
0.0
 40
6.0
100
AcDbArc
 50
270.0
 51
347.988522
  0
ARC
  5
142
100
AcDbEntity
  8
化粧台
  6
EXLTYPE2
 62
     2
100
AcDbCircle
 10
740.237346
 20
1504.5
 30
0.0
 40
6.0
100
AcDbArc
 50
187.765166
 51
270.0
  0
ARC
  5
143
100
AcDbEntity
  8
化粧台
  6
EXLTYPE2
 62
     2
100
AcDbCircle
 10
765.246951
 20
1504.5
 30
0.0
 40
6.0
100
AcDbArc
 50
217.979872
 51
270.0
  0
LINE
  5
144
100
AcDbEntity
  8
化粧台
  6
EXLTYPE2
 62
     2
100
AcDbLine
 10
765.246951
 20
1498.5
 30
0.0
 11
770.142291
 21
1498.5
 31
0.0
  0
ARC
  5
145
100
AcDbEntity
  8
化粧台
  6
EXLTYPE2
 62
     2
100
AcDbCircle
 10
744.753049
 20
1504.5
 30
0.0
 40
6.0
100
AcDbArc
 50
270.0
 51
322.020128
  0
LINE
  5
146
100
AcDbEntity
  8
化粧台
  6
EXLTYPE2
 62
     2
100
AcDbLine
 10
740.237346
 20
1498.5
 30
0.0
 11
744.753049
 21
1498.5
 31
0.0
  0
ARC
  5
147
100
AcDbEntity
  8
化粧台
  6
EXLTYPE2
 62
     2
100
AcDbCircle
 10
755.0
 20
1496.5
 30
0.0
 40
7.0
100
AcDbArc
 50
37.979872
 51
142.020128
  0
LINE
  5
148
100
AcDbEntity
  8
化粧台
  6
EXLTYPE2
 62
     2
100
AcDbLine
 10
728.348846
 20
1547.275131
 30
0.0
 11
734.292365
 21
1503.689321
 31
0.0
  0
ARC
  5
149
100
AcDbEntity
  8
化粧台
  6
EXLTYPE2
 62
     2
100
AcDbCircle
 10
870.993071
 20
1486.023494
 30
0.0
 40
8.0
100
AcDbArc
 50
10.243427
 51
81.292168
  0
ARC
  5
14A
100
AcDbEntity
  8
化粧台
  6
EXLTYPE2
 62
     2
100
AcDbCircle
 10
1024.659956
 20
2489.323792
 30
0.0
 40
1007.0
100
AcDbArc
 50
256.591773
 51
261.292168
  0
LINE
  5
14B
100
AcDbEntity
  8
化粧台
  6
EXLTYPE2
 62
     2
100
AcDbLine
 10
878.86556
 20
1487.446139
 30
0.0
 11
884.257125
 21
1457.610847
 31
0.0
  0
ARC
  5
14C
100
AcDbEntity
  8
化粧台
  6
EXLTYPE2
 62
     2
100
AcDbCircle
 10
811.323386
 20
1594.400606
 30
0.0
 40
87.0
100
AcDbArc
 50
247.669349
 51
256.591773
  0
ARC
  5
14D
100
AcDbEntity
  8
化粧台
  6
EXLTYPE2
 62
     2
100
AcDbCircle
 10
776.367888
 20
1509.3
 30
0.0
 40
5.0
100
AcDbArc
 50
67.669349
 51
141.493511
  0
LINE
  5
14E
100
AcDbEntity
  8
化粧台
  6
EXLTYPE2
 62
     2
100
AcDbLine
 10
778.280775
 20
1513.919641
 30
0.0
 11
776.010926
 21
1503.251354
 31
0.0
  0
ARC
  5
14F
100
AcDbEntity
  8
化粧台
  6
EXLTYPE2
 62
     2
100
AcDbCircle
 10
1069.857709
 20
1504.5
 30
0.0
 40
6.0
100
AcDbArc
 50
192.011478
 51
270.0
  0
ARC
  5
150
100
AcDbEntity
  8
化粧台
  6
EXLTYPE2
 62
     2
100
AcDbCircle
 10
1099.762654
 20
1504.5
 30
0.0
 40
6.0
100
AcDbArc
 50
270.0
 51
352.234834
  0
ARC
  5
151
100
AcDbEntity
  8
化粧台
  6
EXLTYPE2
 62
     2
100
AcDbCircle
 10
1074.753049
 20
1504.5
 30
0.0
 40
6.0
100
AcDbArc
 50
270.0
 51
322.020128
  0
LINE
  5
152
100
AcDbEntity
  8
化粧台
  6
EXLTYPE2
 62
     2
100
AcDbLine
 10
1074.753049
 20
1498.5
 30
0.0
 11
1069.857709
 21
1498.5
 31
0.0
  0
ARC
  5
153
100
AcDbEntity
  8
化粧台
  6
EXLTYPE2
 62
     2
100
AcDbCircle
 10
1095.246951
 20
1504.5
 30
0.0
 40
6.0
100
AcDbArc
 50
217.979872
 51
270.0
  0
LINE
  5
154
100
AcDbEntity
  8
化粧台
  6
EXLTYPE2
 62
     2
100
AcDbLine
 10
1099.762654
 20
1498.5
 30
0.0
 11
1095.246951
 21
1498.5
 31
0.0
  0
ARC
  5
155
100
AcDbEntity
  8
化粧台
  6
EXLTYPE2
 62
     2
100
AcDbCircle
 10
1085.0
 20
1496.5
 30
0.0
 40
7.0
100
AcDbArc
 50
37.979872
 51
142.020128
  0
LINE
  5
156
100
AcDbEntity
  8
化粧台
  6
EXLTYPE2
 62
     2
100
AcDbLine
 10
1111.651154
 20
1547.275131
 30
0.0
 11
1105.707635
 21
1503.689321
 31
0.0
  0
ARC
  5
157
100
AcDbEntity
  8
化粧台
  6
EXLTYPE2
 62
     2
100
AcDbCircle
 10
969.006929
 20
1486.023494
 30
0.0
 40
8.0
100
AcDbArc
 50
98.707832
 51
169.756573
  0
ARC
  5
158
100
AcDbEntity
  8
化粧台
  6
EXLTYPE2
 62
     2
100
AcDbCircle
 10
815.340044
 20
2489.323792
 30
0.0
 40
1007.0
100
AcDbArc
 50
278.707832
 51
283.408227
  0
LINE
  5
159
100
AcDbEntity
  8
化粧台
  6
EXLTYPE2
 62
     2
100
AcDbLine
 10
961.13444
 20
1487.446139
 30
0.0
 11
955.742875
 21
1457.610847
 31
0.0
  0
ARC
  5
15A
100
AcDbEntity
  8
化粧台
  6
EXLTYPE2
 62
     2
100
AcDbCircle
 10
1028.676614
 20
1594.400606
 30
0.0
 40
87.0
100
AcDbArc
 50
283.408227
 51
292.330651
  0
ARC
  5
15B
100
AcDbEntity
  8
化粧台
  6
EXLTYPE2
 62
     2
100
AcDbCircle
 10
1063.632112
 20
1509.3
 30
0.0
 40
5.0
100
AcDbArc
 50
38.506489
 51
112.330651
  0
LINE
  5
15C
100
AcDbEntity
  8
化粧台
  6
EXLTYPE2
 62
     2
100
AcDbLine
 10
1061.719225
 20
1513.919641
 30
0.0
 11
1063.989074
 21
1503.251354
 31
0.0
  0
LINE
  5
15D
100
AcDbEntity
  8
化粧台
  6
EXLTYPE2
 62
     2
100
AcDbLine
 10
877.846844
 20
1493.083404
 30
0.0
 11
962.153156
 21
1493.083404
 31
0.0
  0
ARC
  5
15E
100
AcDbEntity
  8
化粧台
  6
EXLTYPE2
 62
     2
100
AcDbCircle
 10
889.17743
 20
1458.5
 30
0.0
 40
5.0
100
AcDbArc
 50
190.243427
 51
270.0
  0
LINE
  5
15F
100
AcDbEntity
  8
化粧台
  6
EXLTYPE2
 62
     2
100
AcDbLine
 10
889.17743
 20
1453.5
 30
0.0
 11
950.82257
 21
1453.5
 31
0.0
  0
ARC
  5
160
100
AcDbEntity
  8
化粧台
  6
EXLTYPE2
 62
     2
100
AcDbCircle
 10
950.82257
 20
1458.5
 30
0.0
 40
5.0
100
AcDbArc
 50
270.0
 51
349.756573
  0
ARC
  5
161
100
AcDbEntity
  8
化粧台
  6
CONTINUOUS
 62
     2
100
AcDbCircle
 10
920.0
 20
2113.5
 30
0.0
 40
600.0
100
AcDbArc
 50
255.610488
 51
284.389512
  0
LINE
  5
162
100
AcDbEntity
  8
化粧台
  6
CONTINUOUS
 62
     2
100
AcDbLine
 10
798.0
 20
1399.5
 30
0.0
 11
719.0
 21
1399.5
 31
0.0
  0
LINE
  5
163
100
AcDbEntity
  8
化粧台
  6
CONTINUOUS
 62
     2
100
AcDbLine
 10
798.0
 20
1409.5
 30
0.0
 11
719.0
 21
1409.5
 31
0.0
  0
ELLIPSE
  5
164
100
AcDbEntity
  8
化粧台
  6
CONTINUOUS
 62
     2
100
AcDbEllipse
 10
798.0
 20
1404.5
 30
0.0
 11
5.9999999999999485
 21
0.0
 31
0.0
210
0.0
220
0.0
230
1.0
 40
0.833333
 41
4.7123889803846923
 42
1.5707963267948972
  0
ELLIPSE
  5
165
100
AcDbEntity
  8
化粧台
  6
CONTINUOUS
 62
     2
100
AcDbEllipse
 10
719.0
 20
1404.5
 30
0.0
 11
5.9999999999999485
 21
0.0
 31
0.0
210
0.0
220
0.0
230
1.0
 40
0.833333
 41
1.5707963267948972
 42
4.7123889803846923
  0
LINE
  5
166
100
AcDbEntity
  8
化粧台
  6
CONTINUOUS
 62
     6
100
AcDbLine
 10
770.0
 20
1443.5
 30
0.0
 11
770.0
 21
1383.5
 31
0.0
  0
LINE
  5
167
100
AcDbEntity
  8
化粧台
  6
CONTINUOUS
 62
     6
100
AcDbLine
 10
800.0
 20
1413.5
 30
0.0
 11
740.0
 21
1413.5
 31
0.0
  0
CIRCLE
  5
168
100
AcDbEntity
  8
化粧台
  6
EXLTYPE2
 62
     6
100
AcDbCircle
 10
770.0
 20
1413.5
 30
0.0
 40
7.5
  0
LINE
  5
169
100
AcDbEntity
  8
化粧台
  6
CONTINUOUS
 62
     6
100
AcDbLine
 10
1070.0
 20
1443.5
 30
0.0
 11
1070.0
 21
1383.5
 31
0.0
  0
LINE
  5
16A
100
AcDbEntity
  8
化粧台
  6
CONTINUOUS
 62
     6
100
AcDbLine
 10
1100.0
 20
1413.5
 30
0.0
 11
1040.0
 21
1413.5
 31
0.0
  0
CIRCLE
  5
16B
100
AcDbEntity
  8
化粧台
  6
EXLTYPE2
 62
     6
100
AcDbCircle
 10
1070.0
 20
1413.5
 30
0.0
 40
7.5
  0
LINE
  5
16C
100
AcDbEntity
  8
化粧台
  6
CONTINUOUS
 62
     2
100
AcDbLine
 10
2085.080853
 20
1532.668531
 30
0.0
 11
2082.949467
 21
1517.790932
 31
0.0
  0
ARC
  5
16D
100
AcDbEntity
  8
化粧台
  6
CONTINUOUS
 62
     2
100
AcDbCircle
 10
2158.464689
 20
1650.97805
 30
0.0
 40
160.0
100
AcDbArc
 50
188.177413
 51
238.726288
  0
ARC
  5
16E
100
AcDbEntity
  8
化粧台
  6
CONTINUOUS
 62
     2
100
AcDbCircle
 10
2114.207891
 20
1572.5
 30
0.0
 40
30.0
100
AcDbArc
 50
90.0
 51
178.727754
  0
LINE
  5
16F
100
AcDbEntity
  8
化粧台
  6
CONTINUOUS
 62
     2
100
AcDbLine
 10
2084.215286
 20
1573.166091
 30
0.0
 11
2082.998767
 21
1518.388985
 31
0.0
  0
ARC
  5
170
100
AcDbEntity
  8
化粧台
  6
CONTINUOUS
 62
     2
100
AcDbCircle
 10
2414.191436
 20
1683.025398
 30
0.0
 40
10.0
100
AcDbArc
 50
273.197869
 51
349.306958
  0
ARC
  5
171
100
AcDbEntity
  8
化粧台
  6
CONTINUOUS
 62
     2
100
AcDbCircle
 10
2084.595144
 20
1554.438849
 30
0.0
 40
100.0
100
AcDbArc
 50
93.197869
 51
108.102737
  0
ARC
  5
172
100
AcDbEntity
  8
化粧台
  6
CONTINUOUS
 62
     2
100
AcDbCircle
 10
1960.306412
 20
1934.639205
 30
0.0
 40
300.0
100
AcDbArc
 50
279.066715
 51
288.102737
  0
LINE
  5
173
100
AcDbEntity
  8
化粧台
  6
CONTINUOUS
 62
     2
100
AcDbLine
 10
2079.016708
 20
1654.283133
 30
0.0
 11
2414.749279
 21
1673.04097
 31
0.0
  0
ARC
  5
174
100
AcDbEntity
  8
化粧台
  6
CONTINUOUS
 62
     2
100
AcDbCircle
 10
2093.0
 20
1531.534023
 30
0.0
 40
8.0
100
AcDbArc
 50
65.094706
 51
171.847199
  0
LINE
  5
175
100
AcDbEntity
  8
化粧台
  6
CONTINUOUS
 62
     2
100
AcDbLine
 10
2432.861507
 20
1688.5
 30
0.0
 11
2450.0
 21
1688.5
 31
0.0
  0
ARC
  5
176
100
AcDbEntity
  8
化粧台
  6
CONTINUOUS
 62
     2
100
AcDbCircle
 10
2009.0
 20
1629.5
 30
0.0
 40
9.0
100
AcDbArc
 50
99.066715
 51
188.177413
  0
ARC
  5
177
100
AcDbEntity
  8
化粧台
  6
CONTINUOUS
 62
     2
100
AcDbCircle
 10
2432.861507
 20
1679.5
 30
0.0
 40
9.0
100
AcDbArc
 50
90.0
 51
169.306958
  0
ARC
  5
178
100
AcDbEntity
  8
化粧台
  6
CONTINUOUS
 62
     2
100
AcDbCircle
 10
2078.0
 20
1518.5
 30
0.0
 40
5.0
100
AcDbArc
 50
238.726288
 51
0.0
  0
LINE
  5
179
100
AcDbEntity
  8
化粧台
  6
CONTINUOUS
 62
     2
100
AcDbLine
 10
2114.207891
 20
1602.5
 30
0.0
 11
2450.0
 21
1602.5
 31
0.0
  0
ARC
  5
17A
100
AcDbEntity
  8
化粧台
  6
EXLTYPE2
 62
     2
100
AcDbCircle
 10
2440.0
 20
1508.5
 30
0.0
 40
10.0
100
AcDbArc
 50
265.677841
 51
0.0
  0
ARC
  5
17B
100
AcDbEntity
  8
化粧台
  6
EXLTYPE2
 62
     2
100
AcDbCircle
 10
2180.84212
 20
1528.086977
 30
0.0
 40
10.0
100
AcDbArc
 50
211.607502
 51
265.677841
  0
ARC
  5
17C
100
AcDbEntity
  8
化粧台
  6
EXLTYPE2
 62
     2
100
AcDbCircle
 10
2219.17743
 20
1458.5
 30
0.0
 40
5.0
100
AcDbArc
 50
190.243427
 51
270.0
  0
LINE
  5
17D
100
AcDbEntity
  8
化粧台
  6
EXLTYPE2
 62
     2
100
AcDbLine
 10
2219.17743
 20
1453.5
 30
0.0
 11
2280.82257
 21
1453.5
 31
0.0
  0
ARC
  5
17E
100
AcDbEntity
  8
化粧台
  6
EXLTYPE2
 62
     2
100
AcDbCircle
 10
2290.145485
 20
1454.882923
 30
0.0
 40
5.0
100
AcDbArc
 50
97.129169
 51
158.794892
  0
ARC
  5
17F
100
AcDbEntity
  8
化粧台
  6
EXLTYPE2
 62
     2
100
AcDbCircle
 10
2280.82257
 20
1458.5
 30
0.0
 40
5.0
100
AcDbArc
 50
270.0
 51
338.794892
  0
LINE
  5
180
100
AcDbEntity
  8
化粧台
  6
EXLTYPE2
 62
     2
100
AcDbLine
 10
2208.346659
 20
1490.31758
 30
0.0
 11
2214.257125
 21
1457.610847
 31
0.0
  0
ARC
  5
181
100
AcDbEntity
  8
化粧台
  6
EXLTYPE2
 62
     2
100
AcDbCircle
 10
2280.837487
 20
1529.30309
 30
0.0
 40
70.0
100
AcDbArc
 50
277.129169
 51
340.142115
  0
LINE
  5
182
100
AcDbEntity
  8
化粧台
  6
EXLTYPE2
 62
     2
100
AcDbLine
 10
2135.0
 20
1583.5
 30
0.0
 11
2172.325537
 21
1522.846003
 31
0.0
  0
LINE
  5
183
100
AcDbEntity
  8
化粧台
  6
EXLTYPE2
 62
     2
100
AcDbLine
 10
2180.088476
 20
1518.115416
 30
0.0
 11
2439.246356
 21
1498.528439
 31
0.0
  0
ARC
  5
184
100
AcDbEntity
  8
化粧台
  6
EXLTYPE2
 62
     2
100
AcDbCircle
 10
2200.47417
 20
1488.894934
 30
0.0
 40
8.0
100
AcDbArc
 50
10.243427
 51
71.625075
  0
ARC
  5
185
100
AcDbEntity
  8
化粧台
  6
EXLTYPE2
 62
     2
100
AcDbCircle
 10
2267.134457
 20
1546.680517
 30
0.0
 40
57.0
100
AcDbArc
 50
294.956582
 51
317.739904
  0
LINE
  5
186
100
AcDbEntity
  8
化粧台
  6
EXLTYPE2
 62
     2
100
AcDbLine
 10
2207.5
 20
1495.002734
 30
0.0
 11
2291.184544
 21
1495.002734
 31
0.0
  0
ARC
  5
187
100
AcDbEntity
  8
化粧台
  6
EXLTYPE2
 62
     2
100
AcDbCircle
 10
2520.436415
 20
2452.144207
 30
0.0
 40
1007.0
100
AcDbArc
 50
245.094706
 51
251.625075
  0
LINE
  5
188
100
AcDbEntity
  8
化粧台
  6
CONTINUOUS
 62
     2
100
AcDbLine
 10
2114.0
 20
1602.5
 30
0.0
 11
2114.0
 21
988.5
 31
0.0
  0
LINE
  5
189
100
AcDbEntity
  8
化粧台
  6
CONTINUOUS
 62
     2
100
AcDbLine
 10
2117.0
 20
988.5
 30
0.0
 11
2117.0
 21
888.5
 31
0.0
  0
LINE
  5
18A
100
AcDbEntity
  8
化粧台
  6
CONTINUOUS
 62
     2
100
AcDbLine
 10
2091.5
 20
1441.5
 30
0.0
 11
2114.0
 21
1441.5
 31
0.0
  0
LINE
  5
18B
100
AcDbEntity
  8
化粧台
  6
CONTINUOUS
 62
     2
100
AcDbLine
 10
2091.5
 20
1592.10489
 30
0.0
 11
2091.5
 21
1441.5
 31
0.0
  0
LINE
  5
18C
100
AcDbEntity
  8
化粧台
  6
CONTINUOUS
 62
     2
100
AcDbLine
 10
2450.0
 20
1688.5
 30
0.0
 11
2450.0
 21
888.5
 31
0.0
  0
LINE
  5
18D
100
AcDbEntity
  8
化粧台
  6
CONTINUOUS
 62
     2
100
AcDbLine
 10
2093.0
 20
1434.5
 30
0.0
 11
2110.0
 21
1434.5
 31
0.0
  0
LINE
  5
18E
100
AcDbEntity
  8
化粧台
  6
CONTINUOUS
 62
     2
100
AcDbLine
 10
2093.0
 20
988.5
 30
0.0
 11
2110.0
 21
988.5
 31
0.0
  0
LINE
  5
18F
100
AcDbEntity
  8
化粧台
  6
CONTINUOUS
 62
     2
100
AcDbLine
 10
2110.0
 20
1434.5
 30
0.0
 11
2110.0
 21
988.5
 31
0.0
  0
LINE
  5
190
100
AcDbEntity
  8
化粧台
  6
CONTINUOUS
 62
     2
100
AcDbLine
 10
2093.0
 20
1434.5
 30
0.0
 11
2093.0
 21
988.5
 31
0.0
  0
LINE
  5
191
100
AcDbEntity
  8
化粧台
  6
EXLTYPE2
 62
     6
100
AcDbLine
 10
2432.5
 20
1425.5
 30
0.0
 11
2450.0
 21
1425.5
 31
0.0
  0
LINE
  5
192
100
AcDbEntity
  8
化粧台
  6
EXLTYPE2
 62
     6
100
AcDbLine
 10
2432.5
 20
988.5
 30
0.0
 11
2432.5
 21
1425.5
 31
0.0
  0
LINE
  5
193
100
AcDbEntity
  8
化粧台
  6
EXLTYPE2
 62
     6
100
AcDbLine
 10
2436.5
 20
1400.5
 30
0.0
 11
2450.0
 21
1400.5
 31
0.0
  0
LINE
  5
194
100
AcDbEntity
  8
化粧台
  6
EXLTYPE2
 62
     6
100
AcDbLine
 10
2436.5
 20
988.5
 30
0.0
 11
2436.5
 21
1400.5
 31
0.0
  0
LINE
  5
195
100
AcDbEntity
  8
化粧台
  6
EXLTYPE2
 62
     6
100
AcDbLine
 10
2144.0
 20
1002.0
 30
0.0
 11
2144.0
 21
988.5
 31
0.0
  0
LINE
  5
196
100
AcDbEntity
  8
化粧台
  6
EXLTYPE2
 62
     6
100
AcDbLine
 10
2144.0
 20
1002.0
 30
0.0
 11
2402.5
 21
1002.0
 31
0.0
  0
LINE
  5
197
100
AcDbEntity
  8
化粧台
  6
EXLTYPE2
 62
     6
100
AcDbLine
 10
2402.5
 20
1002.0
 30
0.0
 11
2402.5
 21
988.5
 31
0.0
  0
LINE
  5
198
100
AcDbEntity
  8
化粧台
  6
EXLTYPE2
 62
     6
100
AcDbLine
 10
2402.5
 20
988.5
 30
0.0
 11
2436.5
 21
988.5
 31
0.0
  0
LINE
  5
199
100
AcDbEntity
  8
化粧台
  6
EXLTYPE2
 62
     6
100
AcDbLine
 10
2114.0
 20
1006.0
 30
0.0
 11
2432.5
 21
1006.0
 31
0.0
  0
LINE
  5
19A
100
AcDbEntity
  8
化粧台
  6
CONTINUOUS
 62
     2
100
AcDbLine
 10
2128.5
 20
988.5
 30
0.0
 11
2128.5
 21
888.5
 31
0.0
  0
LINE
  5
19B
100
AcDbEntity
  8
化粧台
  6
CONTINUOUS
 62
     2
100
AcDbLine
 10
2117.0
 20
888.5
 30
0.0
 11
2450.0
 21
888.5
 31
0.0
  0
ARC
  5
19C
100
AcDbEntity
  8
化粧台
  6
CONTINUOUS
 62
     2
100
AcDbCircle
 10
2073.0
 20
1404.5
 30
0.0
 40
5.0
100
AcDbArc
 50
90.0
 51
270.0
  0
LINE
  5
19D
100
AcDbEntity
  8
化粧台
  6
CONTINUOUS
 62
     2
100
AcDbLine
 10
2073.0
 20
1409.5
 30
0.0
 11
2093.0
 21
1409.5
 31
0.0
  0
LINE
  5
19E
100
AcDbEntity
  8
化粧台
  6
CONTINUOUS
 62
     2
100
AcDbLine
 10
2073.0
 20
1399.5
 30
0.0
 11
2093.0
 21
1399.5
 31
0.0
  0
LINE
  5
19F
100
AcDbEntity
  8
化粧台
  6
CONTINUOUS
 62
     6
100
AcDbLine
 10
2417.5
 20
1413.5
 30
0.0
 11
2497.5
 21
1413.5
 31
0.0
  0
LINE
  5
1A0
100
AcDbEntity
  8
化粧台
  6
CONTINUOUS
 62
     6
100
AcDbLine
 10
2450.0
 20
1415.5
 30
0.0
 11
2482.5
 21
1413.5
 31
0.0
  0
LINE
  5
1A1
100
AcDbEntity
  8
化粧台
  6
CONTINUOUS
 62
     6
100
AcDbLine
 10
2482.5
 20
1413.5
 30
0.0
 11
2450.0
 21
1411.5
 31
0.0
  0
LINE
  5
1A2
100
AcDbEntity
  8
化粧台
  6
EXLTYPE2
 62
     6
100
AcDbLine
 10
2128.5
 20
988.5
 30
0.0
 11
2144.0
 21
988.5
 31
0.0
  0
LINE
  5
1A3
100
AcDbEntity
  8
化粧台
  6
CONTINUOUS
 62
     2
100
AcDbLine
 10
2128.5
 20
988.5
 30
0.0
 11
2114.0
 21
988.5
 31
0.0
  0
LINE
  5
1A4
100
AcDbEntity
  8
化粧台
  6
EXLTYPE4
 62
     6
100
AcDbLine
 10
2117.0
 20
888.5
 30
0.0
 11
1821.5
 21
888.5
 31
0.0
  0
LINE
  5
1A5
100
AcDbEntity
  8
化粧台
  6
EXLTYPE3
 62
     6
100
AcDbLine
 10
2250.0
 20
1468.5
 30
0.0
 11
2250.0
 21
1300.093255
 31
0.0
  0
LINE
  5
1A6
100
AcDbEntity
  8
化粧台
  6
EXLTYPE4
 62
     6
100
AcDbLine
 10
687.5
 20
888.5
 30
0.0
 11
447.0
 21
888.5
 31
0.0
  0
LINE
  5
1A7
100
AcDbEntity
  8
化粧台
  6
EXLTYPE4
 62
     6
100
AcDbLine
 10
1572.0
 20
888.5
 30
0.0
 11
1152.5
 21
888.5
 31
0.0
  0
LINE
  5
1A8
100
AcDbEntity
  8
化粧台
  6
CONTINUOUS
 62
     6
100
AcDbLine
 10
1005.0
 20
888.49301
 30
0.0
 11
1004.852295
 21
881.727081
 31
0.0
  0
LINE
  5
1A9
100
AcDbEntity
  8
化粧台
  6
CONTINUOUS
 62
     6
100
AcDbLine
 10
1004.852295
 20
881.727081
 30
0.0
 11
1003.625183
 21
880.499969
 31
0.0
  0
LINE
  5
1AA
100
AcDbEntity
  8
化粧台
  6
CONTINUOUS
 62
     6
100
AcDbLine
 10
1003.625183
 20
880.499969
 30
0.0
 11
986.374817
 21
880.499969
 31
0.0
  0
LINE
  5
1AB
100
AcDbEntity
  8
化粧台
  6
CONTINUOUS
 62
     6
100
AcDbLine
 10
986.374817
 20
880.499969
 30
0.0
 11
985.147858
 21
881.727081
 31
0.0
  0
LINE
  5
1AC
100
AcDbEntity
  8
化粧台
  6
CONTINUOUS
 62
     6
100
AcDbLine
 10
985.147858
 20
881.727081
 30
0.0
 11
985.0
 21
888.5
 31
0.0
  0
LINE
  5
1AD
100
AcDbEntity
  8
化粧台
  6
EXLTYPE4
 62
     6
100
AcDbLine
 10
985.0
 20
888.5
 30
0.0
 11
985.0
 21
1088.5
 31
0.0
  0
LINE
  5
1AE
100
AcDbEntity
  8
化粧台
  6
EXLTYPE4
 62
     6
100
AcDbLine
 10
1005.0
 20
1088.5
 30
0.0
 11
1005.0
 21
888.49301
 31
0.0
  0
LINE
  5
1AF
100
AcDbEntity
  8
化粧台
  6
EXLTYPE2
 62
     6
100
AcDbLine
 10
977.35
 20
1476.558333
 30
0.0
 11
1001.35
 21
1406.558333
 31
0.0
  0
LINE
  5
1B0
100
AcDbEntity
  8
化粧台
  6
EXLTYPE2
 62
     6
100
AcDbLine
 10
964.65
 20
1474.441667
 30
0.0
 11
988.65
 21
1404.441667
 31
0.0
  0
LINE
  5
1B1
100
AcDbEntity
  8
化粧台
  6
CONTINUOUS
 62
     6
100
AcDbLine
 10
2370.0
 20
1741.500275
 30
0.0
 11
2370.0
 21
1642.144467
 31
0.0
  0
TEXT
  5
1B2
100
AcDbEntity
  8
化粧台
  6
CONTINUOUS
 62
     2
100
AcDbText
 10
2450.0
 20
2893.500001
 30
0.0
 40
60.0
  1
W.L.
 50
90.0
 41
0.4125
  7
EXCADSTD
 72
     5
 11
2450.0
 21
2984.2434
 31
0.0
100
AcDbText
  0
LINE
  5
1B3
100
AcDbEntity
  8
化粧台
  6
EXLTYPE4
 62
     6
100
AcDbLine
 10
2450.0
 20
2688.5
 30
0.0
 11
2450.0
 21
3000.0
 31
0.0
  0
ELLIPSE
  5
1B4
100
AcDbEntity
  8
化粧台
  6
CONTINUOUS
 62
     2
100
AcDbEllipse
 10
798.0
 20
1404.5
 30
0.0
 11
5.9999999999999485
 21
0.0
 31
0.0
210
0.0
220
0.0
230
1.0
 40
0.833333
 41
4.7123889803846923
 42
1.5707963267948972
  0
LINE
  5
1B5
100
AcDbEntity
  8
化粧台
  6
EXLTYPE3
 62
     6
100
AcDbLine
 10
995.0
 20
1367.107113
 30
0.0
 11
995.0
 21
865.499969
 31
0.0
  0
CIRCLE
  5
1B6
100
AcDbEntity
  8
化粧台
  6
CONTINUOUS
 62
     2
100
AcDbCircle
 10
920.0
 20
3717.5
 30
0.0
 40
17.0
  0
CIRCLE
  5
1B7
100
AcDbEntity
  8
化粧台
  6
CONTINUOUS
 62
     2
100
AcDbCircle
 10
920.0
 20
3717.5
 30
0.0
 40
27.0
  0
CIRCLE
  5
1B8
100
AcDbEntity
  8
化粧台
  6
CONTINUOUS
 62
     6
100
AcDbCircle
 10
879.4
 20
3760.6
 30
0.0
 40
3.0
  0
CIRCLE
  5
1B9
100
AcDbEntity
  8
化粧台
  6
CONTINUOUS
 62
     6
100
AcDbCircle
 10
913.0
 20
3717.5
 30
0.0
 40
7.0
  0
CIRCLE
  5
1BA
100
AcDbEntity
  8
化粧台
  6
CONTINUOUS
 62
     6
100
AcDbCircle
 10
902.0
 20
3719.856585
 30
0.0
 40
3.0
  0
CIRCLE
  5
1BB
100
AcDbEntity
  8
化粧台
  6
CONTINUOUS
 62
     6
100
AcDbCircle
 10
894.8
 20
3723.756585
 30
0.0
 40
3.0
  0
CIRCLE
  5
1BC
100
AcDbEntity
  8
化粧台
  6
CONTINUOUS
 62
     6
100
AcDbCircle
 10
888.6
 20
3729.0
 30
0.0
 40
3.0
  0
CIRCLE
  5
1BD
100
AcDbEntity
  8
化粧台
  6
CONTINUOUS
 62
     6
100
AcDbCircle
 10
883.1
 20
3736.3
 30
0.0
 40
3.0
  0
CIRCLE
  5
1BE
100
AcDbEntity
  8
化粧台
  6
CONTINUOUS
 62
     6
100
AcDbCircle
 10
879.8
 20
3743.6
 30
0.0
 40
3.0
  0
CIRCLE
  5
1BF
100
AcDbEntity
  8
化粧台
  6
CONTINUOUS
 62
     6
100
AcDbCircle
 10
878.5
 20
3751.0
 30
0.0
 40
3.0
  0
CIRCLE
  5
1C0
100
AcDbEntity
  8
化粧台
  6
EXLTYPE2
 62
     6
100
AcDbCircle
 10
883.1
 20
3768.8
 30
0.0
 40
3.0
  0
CIRCLE
  5
1C1
100
AcDbEntity
  8
化粧台
  6
EXLTYPE2
 62
     6
100
AcDbCircle
 10
885.6
 20
3776.1
 30
0.0
 40
3.0
  0
CIRCLE
  5
1C2
100
AcDbEntity
  8
化粧台
  6
EXLTYPE2
 62
     6
100
AcDbCircle
 10
884.1
 20
3784.5
 30
0.0
 40
3.0
  0
CIRCLE
  5
1C3
100
AcDbEntity
  8
化粧台
  6
EXLTYPE2
 62
     6
100
AcDbCircle
 10
880.4
 20
3792.5
 30
0.0
 40
3.0
  0
CIRCLE
  5
1C4
100
AcDbEntity
  8
化粧台
  6
EXLTYPE2
 62
     6
100
AcDbCircle
 10
877.4
 20
3800.9
 30
0.0
 40
3.0
  0
CIRCLE
  5
1C5
100
AcDbEntity
  8
化粧台
  6
EXLTYPE2
 62
     6
100
AcDbCircle
 10
873.0
 20
3807.3
 30
0.0
 40
3.0
  0
CIRCLE
  5
1C6
100
AcDbEntity
  8
化粧台
  6
EXLTYPE2
 62
     6
100
AcDbCircle
 10
868.5
 20
3814.5
 30
0.0
 40
3.0
  0
CIRCLE
  5
1C7
100
AcDbEntity
  8
化粧台
  6
EXLTYPE2
 62
     6
100
AcDbCircle
 10
866.3
 20
3823.5
 30
0.0
 40
3.0
  0
LINE
  5
1C8
100
AcDbEntity
  8
化粧台
  6
CONTINUOUS
 62
     6
100
AcDbLine
 10
1016.0
 20
3837.5
 30
0.0
 11
926.0
 21
3837.5
 31
0.0
  0
LINE
  5
1C9
100
AcDbEntity
  8
化粧台
  6
CONTINUOUS
 62
     6
100
AcDbLine
 10
971.0
 20
1703.5
 30
0.0
 11
971.0
 21
1618.5
 31
0.0
  0
LINE
  5
1CA
100
AcDbEntity
  8
化粧台
  6
CONTINUOUS
 62
     2
100
AcDbLine
 10
680.5
 20
1688.5
 30
0.0
 11
952.25
 21
1688.5
 31
0.0
  0
LINE
  5
1CB
100
AcDbEntity
  8
化粧台
  6
CONTINUOUS
 62
     2
100
AcDbLine
 10
989.75
 20
1688.5
 30
0.0
 11
1159.5
 21
1688.5
 31
0.0
  0
LINE
  5
1CC
100
AcDbEntity
  8
化粧台
  6
EXLTYPE3
 62
     6
100
AcDbLine
 10
2330.0
 20
1036.0
 30
0.0
 11
2330.0
 21
779.5
 31
0.0
  0
LINE
  5
1CD
100
AcDbEntity
  8
化粧台
  6
EXLTYPE3
 62
     6
100
AcDbLine
 10
920.0
 20
1713.607318
 30
0.0
 11
920.0
 21
787.5
 31
0.0
  0
ARC
  5
1CE
100
AcDbEntity
  8
鏡台
  6
CONTINUOUS
 62
     2
100
AcDbCircle
 10
1165.919631
 20
3885.5
 30
0.0
 40
3.0
100
AcDbArc
 50
270.0
 51
358.040266
  0
LINE
  5
1CF
100
AcDbEntity
  8
鏡台
  6
CONTINUOUS
 62
     2
100
AcDbLine
 10
1170.016335
 20
3917.5
 30
0.0
 11
1168.464862
 21
3872.158029
 31
0.0
  0
ARC
  5
1D0
100
AcDbEntity
  8
鏡台
  6
CONTINUOUS
 62
     2
100
AcDbCircle
 10
1158.470711
 20
3872.5
 30
0.0
 40
10.0
100
AcDbArc
 50
270.0
 51
358.040266
  0
LINE
  5
1D1
100
AcDbEntity
  8
鏡台
  6
CONTINUOUS
 62
     2
100
AcDbLine
 10
1158.470711
 20
3862.5
 30
0.0
 11
1155.569756
 21
3862.5
 31
0.0
  0
LINE
  5
1D2
100
AcDbEntity
  8
鏡台
  6
CONTINUOUS
 62
     2
100
AcDbLine
 10
1152.50852
 20
3804.088352
 30
0.0
 11
1156.617908
 21
3882.5
 31
0.0
  0
ARC
  5
1D3
100
AcDbEntity
  8
鏡台
  6
CONTINUOUS
 62
     2
100
AcDbCircle
 10
1095.266335
 20
3986.307328
 30
0.0
 40
183.807328
100
AcDbArc
 50
288.277286
 51
293.224803
  0
LINE
  5
1D4
100
AcDbEntity
  8
鏡台
  6
CONTINUOUS
 62
     2
100
AcDbLine
 10
1167.748874
 20
3868.769626
 30
0.0
 11
1167.748874
 21
3817.394879
 31
0.0
  0
ARC
  5
1D5
100
AcDbEntity
  8
鏡台
  6
CONTINUOUS
 62
     6
100
AcDbCircle
 10
1095.266335
 20
3986.307328
 30
0.0
 40
181.807328
100
AcDbArc
 50
288.522944
 51
292.810039
  0
LINE
  5
1D6
100
AcDbEntity
  8
鏡台
  6
CONTINUOUS
 62
     6
100
AcDbLine
 10
1165.748874
 20
3865.642279
 30
0.0
 11
1165.748874
 21
3818.718199
 31
0.0
  0
LINE
  5
1D7
100
AcDbEntity
  8
鏡台
  6
CONTINUOUS
 62
     6
100
AcDbLine
 10
1238.612793
 20
3768.252808
 30
0.0
 11
1228.276246
 21
3764.490601
 31
0.0
  0
LINE
  5
1D8
100
AcDbEntity
  8
鏡台
  6
CONTINUOUS
 62
     6
100
AcDbLine
 10
1233.653443
 20
3781.878296
 30
0.0
 11
1220.233643
 21
3776.354126
 31
0.0
  0
LINE
  5
1D9
100
AcDbEntity
  8
鏡台
  6
CONTINUOUS
 62
     6
100
AcDbLine
 10
1227.602662
 20
3784.464966
 30
0.0
 11
1218.79358
 21
3781.258667
 31
0.0
  0
LINE
  5
1DA
100
AcDbEntity
  8
鏡台
  6
CONTINUOUS
 62
     6
100
AcDbLine
 10
1220.233643
 20
3776.354126
 30
0.0
 11
1213.83545
 21
3798.144531
 31
0.0
  0
LINE
  5
1DB
100
AcDbEntity
  8
鏡台
  6
CONTINUOUS
 62
     6
100
AcDbLine
 10
1220.525757
 20
3800.580933
 30
0.0
 11
1228.307251
 21
3782.860229
 31
0.0
  0
LINE
  5
1DC
100
AcDbEntity
  8
鏡台
  6
CONTINUOUS
 62
     6
100
AcDbLine
 10
1253.134888
 20
3775.134644
 30
0.0
 11
1238.099732
 21
3769.662476
 31
0.0
  0
LINE
  5
1DD
100
AcDbEntity
  8
鏡台
  6
CONTINUOUS
 62
     6
100
AcDbLine
 10
1250.056641
 20
3783.591919
 30
0.0
 11
1235.021607
 21
3778.119751
 31
0.0
  0
LINE
  5
1DE
100
AcDbEntity
  8
鏡台
  6
CONTINUOUS
 62
     6
100
AcDbLine
 10
1228.276124
 20
3764.490601
 30
0.0
 11
1224.171998
 21
3775.766968
 31
0.0
  0
LINE
  5
1DF
100
AcDbEntity
  8
鏡台
  6
CONTINUOUS
 62
     6
100
AcDbLine
 10
1234.508545
 20
3779.529175
 30
0.0
 11
1224.171998
 21
3775.766968
 31
0.0
  0
LINE
  5
1E0
100
AcDbEntity
  8
鏡台
  6
CONTINUOUS
 62
     6
100
AcDbLine
 10
1233.653443
 20
3781.878296
 30
0.0
 11
1232.173462
 21
3781.283081
 31
0.0
  0
LINE
  5
1E1
100
AcDbEntity
  8
鏡台
  6
CONTINUOUS
 62
     6
100
AcDbLine
 10
1239.638794
 20
3765.433716
 30
0.0
 11
1226.099976
 21
3761.504028
 31
0.0
  0
LINE
  5
1E2
100
AcDbEntity
  8
鏡台
  6
CONTINUOUS
 62
     6
100
AcDbLine
 10
1233.653443
 20
3781.878296
 30
0.0
 11
1239.638794
 21
3765.433716
 31
0.0
  0
LINE
  5
1E3
100
AcDbEntity
  8
鏡台
  6
CONTINUOUS
 62
     6
100
AcDbLine
 10
1220.059937
 20
3775.369263
 30
0.0
 11
1224.88147
 21
3762.122192
 31
0.0
  0
LINE
  5
1E4
100
AcDbEntity
  8
鏡台
  6
CONTINUOUS
 62
     6
100
AcDbLine
 10
1219.268067
 20
3801.11853
 30
0.0
 11
1214.452881
 21
3799.365967
 31
0.0
  0
ARC
  5
1E5
100
AcDbEntity
  8
鏡台
  6
CONTINUOUS
 62
     6
100
AcDbCircle
 10
1231.054078
 20
3784.066528
 30
0.0
 40
3.0
100
AcDbArc
 50
203.707275
 51
291.909241
  0
ARC
  5
1E6
100
AcDbEntity
  8
鏡台
  6
CONTINUOUS
 62
     6
100
AcDbCircle
 10
1214.794922
 20
3798.42627
 30
0.0
 40
1.0
100
AcDbArc
 50
110.000061
 51
196.363464
  0
ARC
  5
1E7
100
AcDbEntity
  8
鏡台
  6
CONTINUOUS
 62
     6
100
AcDbCircle
 10
1219.610108
 20
3800.178833
 30
0.0
 40
1.0
100
AcDbArc
 50
23.707275
 51
110.0
  0
ARC
  5
1E8
100
AcDbEntity
  8
鏡台
  6
CONTINUOUS
 62
     6
100
AcDbCircle
 10
1243.20398
 20
3776.30896
 30
0.0
 40
10.0
100
AcDbArc
 50
353.256348
 51
46.743622
  0
ARC
  5
1E9
100
AcDbEntity
  8
鏡台
  6
CONTINUOUS
 62
     6
100
AcDbCircle
 10
1225.821167
 20
3762.464233
 30
0.0
 40
1.0
100
AcDbArc
 50
200.0
 51
286.186218
  0
ARC
  5
1EA
100
AcDbEntity
  8
鏡台
  6
CONTINUOUS
 62
     6
100
AcDbCircle
 10
1220.999634
 20
3775.711304
 30
0.0
 40
1.0
100
AcDbArc
 50
111.909119
 51
200.0
  0
ARC
  5
1EB
100
AcDbEntity
  8
鏡台
  6
CONTINUOUS
 62
     6
100
AcDbCircle
 10
1351.656739
 20
3859.665039
 30
0.0
 40
150.0
100
AcDbArc
 50
184.388733
 51
203.721497
  0
ARC
  5
1EC
100
AcDbEntity
  8
鏡台
  6
CONTINUOUS
 62
     6
100
AcDbCircle
 10
1357.149537
 20
3859.383301
 30
0.0
 40
150.0
100
AcDbArc
 50
184.77002
 51
202.901428
  0
ARC
  5
1ED
100
AcDbEntity
  8
鏡台
  6
CONTINUOUS
 62
     6
100
AcDbCircle
 10
1081.748658
 20
3847.689941
 30
0.0
 40
120.0
100
AcDbArc
 50
4.115021
 51
27.576874
  0
ARC
  5
1EE
100
AcDbEntity
  8
鏡台
  6
CONTINUOUS
 62
     6
100
AcDbCircle
 10
1087.644654
 20
3848.916992
 30
0.0
 40
120.0
100
AcDbArc
 50
2.871643
 51
29.221863
  0
ARC
  5
1EF
100
AcDbEntity
  8
鏡台
  6
CONTINUOUS
 62
     6
100
AcDbCircle
 10
1231.054078
 20
3784.066528
 30
0.0
 40
3.0
100
AcDbArc
 50
203.707275
 51
291.909241
  0
ARC
  5
1F0
100
AcDbEntity
  8
鏡台
  6
CONTINUOUS
 62
     6
100
AcDbCircle
 10
1214.794922
 20
3798.42627
 30
0.0
 40
1.0
100
AcDbArc
 50
110.000061
 51
196.363464
  0
ARC
  5
1F1
100
AcDbEntity
  8
鏡台
  6
CONTINUOUS
 62
     6
100
AcDbCircle
 10
1219.610108
 20
3800.178833
 30
0.0
 40
1.0
100
AcDbArc
 50
23.707275
 51
110.0
  0
ARC
  5
1F2
100
AcDbEntity
  8
鏡台
  6
CONTINUOUS
 62
     6
100
AcDbCircle
 10
1243.20398
 20
3776.30896
 30
0.0
 40
10.0
100
AcDbArc
 50
353.256348
 51
46.743622
  0
ARC
  5
1F3
100
AcDbEntity
  8
鏡台
  6
CONTINUOUS
 62
     6
100
AcDbCircle
 10
1225.821167
 20
3762.464233
 30
0.0
 40
1.0
100
AcDbArc
 50
200.0
 51
286.186218
  0
ARC
  5
1F4
100
AcDbEntity
  8
鏡台
  6
CONTINUOUS
 62
     6
100
AcDbCircle
 10
1220.999634
 20
3775.711304
 30
0.0
 40
1.0
100
AcDbArc
 50
111.909119
 51
200.0
  0
ARC
  5
1F5
100
AcDbEntity
  8
鏡台
  6
CONTINUOUS
 62
     6
100
AcDbCircle
 10
1198.858277
 20
3839.498779
 30
0.0
 40
16.999516
100
AcDbArc
 50
71.927826
 51
128.074554
  0
ARC
  5
1F6
100
AcDbEntity
  8
鏡台
  6
CONTINUOUS
 62
     6
100
AcDbCircle
 10
1209.404542
 20
3871.818604
 30
0.0
 40
16.997519
100
AcDbArc
 50
251.927856
 51
280.004395
  0
ARC
  5
1F7
100
AcDbEntity
  8
鏡台
  6
CONTINUOUS
 62
     6
100
AcDbCircle
 10
1209.403321
 20
3871.825928
 30
0.0
 40
17.004932
100
AcDbArc
 50
280.004395
 51
308.068359
  0
ARC
  5
1F8
100
AcDbEntity
  8
鏡台
  6
CONTINUOUS
 62
     6
100
AcDbCircle
 10
1198.858277
 20
3831.498779
 30
0.0
 40
16.999516
100
AcDbArc
 50
71.927826
 51
128.074554
  0
ARC
  5
1F9
100
AcDbEntity
  8
鏡台
  6
CONTINUOUS
 62
     6
100
AcDbCircle
 10
1209.404542
 20
3863.818604
 30
0.0
 40
16.997519
100
AcDbArc
 50
251.927856
 51
280.004395
  0
ARC
  5
1FA
100
AcDbEntity
  8
鏡台
  6
CONTINUOUS
 62
     6
100
AcDbCircle
 10
1209.403321
 20
3863.825928
 30
0.0
 40
17.004932
100
AcDbArc
 50
280.004395
 51
308.068359
  0
ARC
  5
1FB
100
AcDbEntity
  8
鏡台
  6
CONTINUOUS
 62
     6
100
AcDbCircle
 10
1170.0
 20
3887.5
 30
0.0
 40
30.0
100
AcDbArc
 50
41.793671
 51
90.0
  0
ARC
  5
1FC
100
AcDbEntity
  8
鏡台
  6
CONTINUOUS
 62
     6
100
AcDbCircle
 10
1170.0
 20
3887.5
 30
0.0
 40
24.0
100
AcDbArc
 50
40.990967
 51
90.500301
  0
ARC
  5
1FD
100
AcDbEntity
  8
鏡台
  6
CONTINUOUS
 62
     2
100
AcDbCircle
 10
674.096704
 20
3885.5
 30
0.0
 40
3.0
100
AcDbArc
 50
181.959734
 51
270.0
  0
LINE
  5
1FE
100
AcDbEntity
  8
鏡台
  6
CONTINUOUS
 62
     2
100
AcDbLine
 10
670.0
 20
3917.5
 30
0.0
 11
671.551473
 21
3872.158029
 31
0.0
  0
ARC
  5
1FF
100
AcDbEntity
  8
鏡台
  6
CONTINUOUS
 62
     2
100
AcDbCircle
 10
681.545624
 20
3872.5
 30
0.0
 40
10.0
100
AcDbArc
 50
181.959734
 51
270.0
  0
LINE
  5
200
100
AcDbEntity
  8
鏡台
  6
CONTINUOUS
 62
     2
100
AcDbLine
 10
681.545624
 20
3862.5
 30
0.0
 11
684.446579
 21
3862.5
 31
0.0
  0
LINE
  5
201
100
AcDbEntity
  8
鏡台
  6
CONTINUOUS
 62
     2
100
AcDbLine
 10
687.507815
 20
3804.088352
 30
0.0
 11
683.398427
 21
3882.5
 31
0.0
  0
ARC
  5
202
100
AcDbEntity
  8
鏡台
  6
CONTINUOUS
 62
     2
100
AcDbCircle
 10
744.75
 20
3986.307328
 30
0.0
 40
183.807328
100
AcDbArc
 50
246.775197
 51
251.722714
  0
LINE
  5
203
100
AcDbEntity
  8
鏡台
  6
CONTINUOUS
 62
     2
100
AcDbLine
 10
672.267461
 20
3868.769626
 30
0.0
 11
672.267461
 21
3817.394879
 31
0.0
  0
LINE
  5
204
100
AcDbEntity
  8
鏡台
  6
CONTINUOUS
 62
     6
100
AcDbLine
 10
674.267461
 20
3865.642279
 30
0.0
 11
674.267461
 21
3818.718199
 31
0.0
  0
ARC
  5
205
100
AcDbEntity
  8
鏡台
  6
CONTINUOUS
 62
     6
100
AcDbCircle
 10
744.75
 20
3986.307328
 30
0.0
 40
181.807328
100
AcDbArc
 50
247.189961
 51
251.477056
  0
LINE
  5
206
100
AcDbEntity
  8
鏡台
  6
CONTINUOUS
 62
     2
100
AcDbLine
 10
674.096704
 20
3882.5
 30
0.0
 11
1168.786109
 21
3882.5
 31
0.0
  0
ARC
  5
207
100
AcDbEntity
  8
鏡台
  6
CONTINUOUS
 62
     2
100
AcDbCircle
 10
697.494111
 20
3804.611712
 30
0.0
 40
10.0
100
AcDbArc
 50
183.000006
 51
261.417655
  0
ARC
  5
208
100
AcDbEntity
  8
鏡台
  6
CONTINUOUS
 62
     2
100
AcDbCircle
 10
1142.522225
 20
3804.611712
 30
0.0
 40
10.0
100
AcDbArc
 50
278.578615
 51
356.999994
  0
ARC
  5
209
100
AcDbEntity
  8
鏡台
  6
CONTINUOUS
 62
     2
100
AcDbCircle
 10
576.617268
 20
3003.68176
 30
0.0
 40
800.0
100
AcDbArc
 50
77.607105
 51
81.417655
  0
ARC
  5
20A
100
AcDbEntity
  8
鏡台
  6
CONTINUOUS
 62
     2
100
AcDbCircle
 10
1263.346925
 20
3003.673892
 30
0.0
 40
800.0
100
AcDbArc
 50
98.578615
 51
102.391582
  0
ARC
  5
20B
100
AcDbEntity
  8
鏡台
  6
CONTINUOUS
 62
     2
100
AcDbCircle
 10
920.0
 20
4566.4
 30
0.0
 40
800.0
100
AcDbArc
 50
257.607105
 51
282.391582
  0
LINE
  5
20C
100
AcDbEntity
  8
鏡台
  6
CONTINUOUS
 62
     6
100
AcDbLine
 10
713.0
 20
3917.5
 30
0.0
 11
715.0
 21
3950.0
 31
0.0
  0
LINE
  5
20D
100
AcDbEntity
  8
鏡台
  6
CONTINUOUS
 62
     6
100
AcDbLine
 10
715.0
 20
3950.0
 30
0.0
 11
717.0
 21
3917.5
 31
0.0
  0
LINE
  5
20E
100
AcDbEntity
  8
鏡台
  6
CONTINUOUS
 62
     6
100
AcDbLine
 10
1123.0
 20
3917.5
 30
0.0
 11
1125.0
 21
3950.0
 31
0.0
  0
LINE
  5
20F
100
AcDbEntity
  8
鏡台
  6
CONTINUOUS
 62
     6
100
AcDbLine
 10
1125.0
 20
3950.0
 30
0.0
 11
1127.0
 21
3917.5
 31
0.0
  0
LINE
  5
210
100
AcDbEntity
  8
鏡台
  6
CONTINUOUS
 62
     6
100
AcDbLine
 10
715.0
 20
3907.5
 30
0.0
 11
715.0
 21
3965.0
 31
0.0
  0
LINE
  5
211
100
AcDbEntity
  8
鏡台
  6
CONTINUOUS
 62
     6
100
AcDbLine
 10
1125.0
 20
3907.5
 30
0.0
 11
1125.0
 21
3965.0
 31
0.0
  0
LINE
  5
212
100
AcDbEntity
  8
鏡台
  6
CONTINUOUS
 62
     6
100
AcDbLine
 10
2435.0
 20
1753.5
 30
0.0
 11
2497.5
 21
1753.5
 31
0.0
  0
ARC
  5
213
100
AcDbEntity
  8
鏡台
  6
CONTINUOUS
 62
     2
100
AcDbCircle
 10
2401.85604
 20
1958.344209
 30
0.0
 40
15.0
100
AcDbArc
 50
28.805081
 51
82.0
  0
LINE
  5
214
100
AcDbEntity
  8
鏡台
  6
CONTINUOUS
 62
     2
100
AcDbLine
 10
2362.0
 20
1788.5
 30
0.0
 11
2362.0
 21
1803.5
 31
0.0
  0
LINE
  5
215
100
AcDbEntity
  8
鏡台
  6
CONTINUOUS
 62
     2
100
AcDbLine
 10
2335.0
 20
2023.0
 30
0.0
 11
2335.0
 21
1973.0
 31
0.0
  0
LINE
  5
216
100
AcDbEntity
  8
鏡台
  6
CONTINUOUS
 62
     2
100
AcDbLine
 10
2335.0
 20
2023.0
 30
0.0
 11
2415.0
 21
2023.0
 31
0.0
  0
LINE
  5
217
100
AcDbEntity
  8
鏡台
  6
CONTINUOUS
 62
     2
100
AcDbLine
 10
2335.0
 20
1973.0
 30
0.0
 11
2415.0
 21
1973.0
 31
0.0
  0
LINE
  5
218
100
AcDbEntity
  8
鏡台
  6
CONTINUOUS
 62
     2
100
AcDbLine
 10
2384.0
 20
2268.5
 30
0.0
 11
2384.0
 21
2223.5
 31
0.0
  0
LINE
  5
219
100
AcDbEntity
  8
鏡台
  6
CONTINUOUS
 62
     2
100
AcDbLine
 10
2384.0
 20
2258.5
 30
0.0
 11
2377.0
 21
2258.5
 31
0.0
  0
LINE
  5
21A
100
AcDbEntity
  8
鏡台
  6
CONTINUOUS
 62
     2
100
AcDbLine
 10
2377.0
 20
2258.5
 30
0.0
 11
2377.0
 21
2223.500299
 31
0.0
  0
LINE
  5
21B
100
AcDbEntity
  8
鏡台
  6
CONTINUOUS
 62
     2
100
AcDbLine
 10
2384.0
 20
2223.500299
 30
0.0
 11
2377.0
 21
2223.500299
 31
0.0
  0
LINE
  5
21C
100
AcDbEntity
  8
鏡台
  6
CONTINUOUS
 62
     2
100
AcDbLine
 10
2335.0
 20
2268.5
 30
0.0
 11
2415.0
 21
2268.5
 31
0.0
  0
LINE
  5
21D
100
AcDbEntity
  8
鏡台
  6
CONTINUOUS
 62
     2
100
AcDbLine
 10
2335.0
 20
2318.5
 30
0.0
 11
2335.0
 21
2268.5
 31
0.0
  0
LINE
  5
21E
100
AcDbEntity
  8
鏡台
  6
CONTINUOUS
 62
     2
100
AcDbLine
 10
2335.0
 20
2318.5
 30
0.0
 11
2415.0
 21
2318.5
 31
0.0
  0
ARC
  5
21F
100
AcDbEntity
  8
鏡台
  6
CONTINUOUS
 62
     2
100
AcDbCircle
 10
2423.0
 20
1691.5
 30
0.0
 40
3.0
100
AcDbArc
 50
180.0
 51
270.0
  0
LINE
  5
220
100
AcDbEntity
  8
鏡台
  6
CONTINUOUS
 62
     2
100
AcDbLine
 10
2362.0
 20
1788.5
 30
0.0
 11
2415.26168
 21
1785.708674
 31
0.0
  0
LINE
  5
221
100
AcDbEntity
  8
鏡台
  6
CONTINUOUS
 62
     2
100
AcDbLine
 10
2420.0
 20
1691.5
 30
0.0
 11
2420.0
 21
1780.715526
 31
0.0
  0
ARC
  5
222
100
AcDbEntity
  8
鏡台
  6
CONTINUOUS
 62
     2
100
AcDbCircle
 10
2415.0
 20
1780.715526
 30
0.0
 40
5.0
100
AcDbArc
 50
0.0
 51
87.000001
  0
LINE
  5
223
100
AcDbEntity
  8
鏡台
  6
CONTINUOUS
 62
     2
100
AcDbLine
 10
2362.0
 20
1803.5
 30
0.0
 11
2410.0
 21
1803.5
 31
0.0
  0
ARC
  5
224
100
AcDbEntity
  8
鏡台
  6
CONTINUOUS
 62
     2
100
AcDbCircle
 10
2410.0
 20
1808.5
 30
0.0
 40
5.0
100
AcDbArc
 50
270.0
 51
0.0
  0
LINE
  5
225
100
AcDbEntity
  8
鏡台
  6
CONTINUOUS
 62
     2
100
AcDbLine
 10
2384.0
 20
2223.5
 30
0.0
 11
2410.087262
 21
2223.044645
 31
0.0
  0
ARC
  5
226
100
AcDbEntity
  8
鏡台
  6
CONTINUOUS
 62
     2
100
AcDbCircle
 10
2410.0
 20
2218.045407
 30
0.0
 40
5.0
100
AcDbArc
 50
0.0
 51
88.999999
  0
LINE
  5
227
100
AcDbEntity
  8
鏡台
  6
CONTINUOUS
 62
     6
100
AcDbLine
 10
2377.0
 20
2229.5
 30
0.0
 11
2375.0
 21
2229.5
 31
0.0
  0
LINE
  5
228
100
AcDbEntity
  8
鏡台
  6
CONTINUOUS
 62
     6
100
AcDbLine
 10
2375.0
 20
2252.5
 30
0.0
 11
2375.0
 21
2229.5
 31
0.0
  0
LINE
  5
229
100
AcDbEntity
  8
鏡台
  6
CONTINUOUS
 62
     6
100
AcDbLine
 10
2377.0
 20
2252.5
 30
0.0
 11
2375.0
 21
2252.5
 31
0.0
  0
LINE
  5
22A
100
AcDbEntity
  8
鏡台
  6
CONTINUOUS
 62
     6
100
AcDbLine
 10
2375.0
 20
2232.5
 30
0.0
 11
2372.0
 21
2232.5
 31
0.0
  0
LINE
  5
22B
100
AcDbEntity
  8
鏡台
  6
CONTINUOUS
 62
     6
100
AcDbLine
 10
2372.0
 20
2249.5
 30
0.0
 11
2372.0
 21
2232.5
 31
0.0
  0
LINE
  5
22C
100
AcDbEntity
  8
鏡台
  6
CONTINUOUS
 62
     6
100
AcDbLine
 10
2375.0
 20
2249.5
 30
0.0
 11
2372.0
 21
2249.5
 31
0.0
  0
LINE
  5
22D
100
AcDbEntity
  8
鏡台
  6
CONTINUOUS
 62
     2
100
AcDbLine
 10
2401.878458
 20
2592.118024
 30
0.0
 11
2333.869412
 21
2592.118045
 31
0.0
  0
ARC
  5
22E
100
AcDbEntity
  8
鏡台
  6
CONTINUOUS
 62
     2
100
AcDbCircle
 10
2333.86942
 20
2612.118023
 30
0.0
 40
20.0
100
AcDbArc
 50
203.031494
 51
270.0
  0
ARC
  5
22F
100
AcDbEntity
  8
鏡台
  6
CONTINUOUS
 62
     2
100
AcDbCircle
 10
2563.941904
 20
2709.927355
 30
0.0
 40
270.0
100
AcDbArc
 50
191.025757
 51
203.031494
  0
ARC
  5
230
100
AcDbEntity
  8
鏡台
  6
CONTINUOUS
 62
     2
100
AcDbCircle
 10
2308.74118
 20
2660.202357
 30
0.0
 40
10.0
100
AcDbArc
 50
94.000031
 51
191.025757
  0
LINE
  5
231
100
AcDbEntity
  8
鏡台
  6
CONTINUOUS
 62
     2
100
AcDbLine
 10
2308.043613
 20
2670.177985
 30
0.0
 11
2415.0
 21
2677.65711
 31
0.0
  0
LINE
  5
232
100
AcDbEntity
  8
鏡台
  6
CONTINUOUS
 62
     2
100
AcDbLine
 10
2415.0
 20
2606.578095
 30
0.0
 11
2415.0
 21
2687.312682
 31
0.0
  0
LINE
  5
233
100
AcDbEntity
  8
鏡台
  6
CONTINUOUS
 62
     2
100
AcDbLine
 10
2450.0
 20
2688.5
 30
0.0
 11
2415.0
 21
2687.312682
 31
0.0
  0
LINE
  5
234
100
AcDbEntity
  8
鏡台
  6
CONTINUOUS
 62
     2
100
AcDbLine
 10
2400.0
 20
2591.999939
 30
0.0
 11
2395.0
 21
2591.999939
 31
0.0
  0
ARC
  5
235
100
AcDbEntity
  8
鏡台
  6
CONTINUOUS
 62
     2
100
AcDbCircle
 10
2400.0
 20
2606.999939
 30
0.0
 40
15.0
100
AcDbArc
 50
270.0
 51
0.0
  0
LINE
  5
236
100
AcDbEntity
  8
鏡台
  6
CONTINUOUS
 62
     2
100
AcDbLine
 10
2395.0
 20
2581.999939
 30
0.0
 11
2395.0
 21
2591.999939
 31
0.0
  0
LINE
  5
237
100
AcDbEntity
  8
鏡台
  6
CONTINUOUS
 62
     2
100
AcDbLine
 10
2415.0
 20
2578.999939
 30
0.0
 11
2415.0
 21
1808.5
 31
0.0
  0
LINE
  5
238
100
AcDbEntity
  8
鏡台
  6
CONTINUOUS
 62
     2
100
AcDbLine
 10
2395.0
 20
2581.999939
 30
0.0
 11
2415.0
 21
2578.999939
 31
0.0
  0
LINE
  5
239
100
AcDbEntity
  8
鏡台
  6
CONTINUOUS
 62
     6
100
AcDbLine
 10
2435.0
 20
2633.5
 30
0.0
 11
2497.5
 21
2633.5
 31
0.0
  0
ARC
  5
23A
100
AcDbEntity
  8
鏡台
  6
CONTINUOUS
 62
     6
100
AcDbCircle
 10
2337.007777
 20
2662.178943
 30
0.0
 40
10.0
100
AcDbArc
 50
94.000061
 51
187.019409
  0
ARC
  5
23B
100
AcDbEntity
  8
鏡台
  6
CONTINUOUS
 62
     6
100
AcDbCircle
 10
2595.058895
 20
2693.952687
 30
0.0
 40
270.0
100
AcDbArc
 50
187.01947
 51
199.909058
  0
ARC
  5
23C
100
AcDbEntity
  8
鏡台
  6
CONTINUOUS
 62
     6
100
AcDbCircle
 10
2355.299159
 20
2607.118052
 30
0.0
 40
15.0
100
AcDbArc
 50
199.909058
 51
270.0
  0
LINE
  5
23D
100
AcDbEntity
  8
鏡台
  6
CONTINUOUS
 62
     6
100
AcDbLine
 10
2450.0
 20
1755.5
 30
0.0
 11
2482.5
 21
1753.5
 31
0.0
  0
LINE
  5
23E
100
AcDbEntity
  8
鏡台
  6
CONTINUOUS
 62
     6
100
AcDbLine
 10
2482.5
 20
1753.5
 30
0.0
 11
2450.0
 21
1751.5
 31
0.0
  0
LINE
  5
23F
100
AcDbEntity
  8
鏡台
  6
CONTINUOUS
 62
     6
100
AcDbLine
 10
2450.0
 20
2635.5
 30
0.0
 11
2482.5
 21
2633.5
 31
0.0
  0
LINE
  5
240
100
AcDbEntity
  8
鏡台
  6
CONTINUOUS
 62
     6
100
AcDbLine
 10
2482.5
 20
2633.5
 30
0.0
 11
2450.0
 21
2631.5
 31
0.0
  0
LINE
  5
241
100
AcDbEntity
  8
鏡台
  6
CONTINUOUS
 62
     2
100
AcDbLine
 10
2450.0
 20
1688.5
 30
0.0
 11
2450.0
 21
2688.5
 31
0.0
  0
ARC
  5
242
100
AcDbEntity
  8
鏡台
  6
CONTINUOUS
 62
     2
100
AcDbCircle
 10
1165.0
 20
2683.5
 30
0.0
 40
5.0
100
AcDbArc
 50
0.0
 51
90.0
  0
LINE
  5
243
100
AcDbEntity
  8
鏡台
  6
CONTINUOUS
 62
     2
100
AcDbLine
 10
1170.0
 20
1693.5
 30
0.0
 11
1170.0
 21
2683.5
 31
0.0
  0
ARC
  5
244
100
AcDbEntity
  8
鏡台
  6
CONTINUOUS
 62
     2
100
AcDbCircle
 10
1165.0
 20
1693.5
 30
0.0
 40
5.0
100
AcDbArc
 50
270.0
 51
0.0
  0
CIRCLE
  5
245
100
AcDbEntity
  8
鏡台
  6
CONTINUOUS
 62
     2
100
AcDbCircle
 10
1125.0
 20
1753.5
 30
0.0
 40
8.5
  0
LINE
  5
246
100
AcDbEntity
  8
鏡台
  6
CONTINUOUS
 62
     2
100
AcDbLine
 10
1020.0
 20
1803.5
 30
0.0
 11
1020.0
 21
1785.460349
 31
0.0
  0
LINE
  5
247
100
AcDbEntity
  8
鏡台
  6
CONTINUOUS
 62
     2
100
AcDbLine
 10
1020.0
 20
1788.5
 30
0.0
 11
1170.0
 21
1788.5
 31
0.0
  0
LINE
  5
248
100
AcDbEntity
  8
鏡台
  6
CONTINUOUS
 62
     2
100
AcDbLine
 10
1161.8
 20
1803.5
 30
0.0
 11
1161.8
 21
1973.0
 31
0.0
  0
LINE
  5
249
100
AcDbEntity
  8
鏡台
  6
CONTINUOUS
 62
     2
100
AcDbLine
 10
1022.767461
 20
2023.0
 30
0.0
 11
1022.767461
 21
1973.0
 31
0.0
  0
LINE
  5
24A
100
AcDbEntity
  8
鏡台
  6
CONTINUOUS
 62
     2
100
AcDbLine
 10
1022.767461
 20
2023.0
 30
0.0
 11
1167.732539
 21
2023.0
 31
0.0
  0
LINE
  5
24B
100
AcDbEntity
  8
鏡台
  6
CONTINUOUS
 62
     2
100
AcDbLine
 10
1167.732539
 20
2023.0
 30
0.0
 11
1167.732539
 21
1973.0
 31
0.0
  0
LINE
  5
24C
100
AcDbEntity
  8
鏡台
  6
CONTINUOUS
 62
     2
100
AcDbLine
 10
1167.732539
 20
1973.0
 30
0.0
 11
1022.767461
 21
1973.0
 31
0.0
  0
LINE
  5
24D
100
AcDbEntity
  8
鏡台
  6
CONTINUOUS
 62
     2
100
AcDbLine
 10
1022.767461
 20
2318.5
 30
0.0
 11
1022.767461
 21
2268.5
 31
0.0
  0
LINE
  5
24E
100
AcDbEntity
  8
鏡台
  6
CONTINUOUS
 62
     2
100
AcDbLine
 10
1022.767461
 20
2318.5
 30
0.0
 11
1167.732539
 21
2318.5
 31
0.0
  0
LINE
  5
24F
100
AcDbEntity
  8
鏡台
  6
CONTINUOUS
 62
     2
100
AcDbLine
 10
1167.732539
 20
2268.5
 30
0.0
 11
1167.732539
 21
2318.5
 31
0.0
  0
LINE
  5
250
100
AcDbEntity
  8
鏡台
  6
CONTINUOUS
 62
     2
100
AcDbLine
 10
1027.0
 20
2318.5
 30
0.0
 11
1027.0
 21
2579.029253
 31
0.0
  0
LINE
  5
251
100
AcDbEntity
  8
鏡台
  6
CONTINUOUS
 62
     2
100
AcDbLine
 10
1161.8
 20
2318.5
 30
0.0
 11
1161.8
 21
2579.029253
 31
0.0
  0
LINE
  5
252
100
AcDbEntity
  8
鏡台
  6
EXLTYPE1
 62
     2
100
AcDbLine
 10
980.5
 20
2020.5
 30
0.0
 11
980.5
 21
2010.5
 31
0.0
  0
LINE
  5
253
100
AcDbEntity
  8
鏡台
  6
CONTINUOUS
 62
     2
100
AcDbLine
 10
1000.5
 20
2010.5
 30
0.0
 11
980.5
 21
2010.5
 31
0.0
  0
LINE
  5
254
100
AcDbEntity
  8
鏡台
  6
CONTINUOUS
 62
     2
100
AcDbLine
 10
1000.5
 20
2020.5
 30
0.0
 11
980.5
 21
2020.5
 31
0.0
  0
LINE
  5
255
100
AcDbEntity
  8
鏡台
  6
EXLTYPE1
 62
     2
100
AcDbLine
 10
1000.5
 20
2020.5
 30
0.0
 11
1000.5
 21
2010.5
 31
0.0
  0
LINE
  5
256
100
AcDbEntity
  8
鏡台
  6
CONTINUOUS
 62
     2
100
AcDbLine
 10
1000.5
 20
2013.5
 30
0.0
 11
1020.0
 21
2013.5
 31
0.0
  0
LINE
  5
257
100
AcDbEntity
  8
鏡台
  6
CONTINUOUS
 62
     2
100
AcDbLine
 10
1027.0
 20
2023.0
 30
0.0
 11
1027.0
 21
2223.5
 31
0.0
  0
LINE
  5
258
100
AcDbEntity
  8
鏡台
  6
CONTINUOUS
 62
     2
100
AcDbLine
 10
1161.8
 20
2023.0
 30
0.0
 11
1161.8
 21
2223.5
 31
0.0
  0
LINE
  5
259
100
AcDbEntity
  8
鏡台
  6
CONTINUOUS
 62
     6
100
AcDbLine
 10
1140.0
 20
1818.5
 30
0.0
 11
1213.076697
 21
1818.5
 31
0.0
  0
LINE
  5
25A
100
AcDbEntity
  8
鏡台
  6
CONTINUOUS
 62
     6
100
AcDbLine
 10
1155.0
 20
1753.5
 30
0.0
 11
1095.0
 21
1753.5
 31
0.0
  0
LINE
  5
25B
100
AcDbEntity
  8
鏡台
  6
CONTINUOUS
 62
     6
100
AcDbLine
 10
1125.0
 20
1783.5
 30
0.0
 11
1125.0
 21
1723.5
 31
0.0
  0
LINE
  5
25C
100
AcDbEntity
  8
鏡台
  6
CONTINUOUS
 62
     2
100
AcDbLine
 10
1027.0
 20
2538.5
 30
0.0
 11
1161.8
 21
2538.5
 31
0.0
  0
LINE
  5
25D
100
AcDbEntity
  8
鏡台
  6
CONTINUOUS
 62
     2
100
AcDbLine
 10
1027.0
 20
1803.5
 30
0.0
 11
1027.0
 21
1973.0
 31
0.0
  0
ARC
  5
25E
100
AcDbEntity
  8
鏡台
  6
CONTINUOUS
 62
     6
100
AcDbCircle
 10
1024.8
 20
2265.5
 30
0.0
 40
3.0
100
AcDbArc
 50
90.0
 51
180.0
  0
LINE
  5
25F
100
AcDbEntity
  8
鏡台
  6
CONTINUOUS
 62
     6
100
AcDbLine
 10
1021.8
 20
2226.5
 30
0.0
 11
1021.8
 21
2265.5
 31
0.0
  0
ARC
  5
260
100
AcDbEntity
  8
鏡台
  6
CONTINUOUS
 62
     6
100
AcDbCircle
 10
1024.8
 20
2226.5
 30
0.0
 40
3.0
100
AcDbArc
 50
180.0
 51
270.0
  0
ARC
  5
261
100
AcDbEntity
  8
鏡台
  6
CONTINUOUS
 62
     6
100
AcDbCircle
 10
1164.7
 20
2226.5
 30
0.0
 40
3.0
100
AcDbArc
 50
270.0
 51
0.0
  0
LINE
  5
262
100
AcDbEntity
  8
鏡台
  6
CONTINUOUS
 62
     6
100
AcDbLine
 10
1167.7
 20
2226.5
 30
0.0
 11
1167.7
 21
2265.5
 31
0.0
  0
ARC
  5
263
100
AcDbEntity
  8
鏡台
  6
CONTINUOUS
 62
     6
100
AcDbCircle
 10
1164.7
 20
2265.5
 30
0.0
 40
3.0
100
AcDbArc
 50
0.0
 51
90.0
  0
LINE
  5
264
100
AcDbEntity
  8
鏡台
  6
CONTINUOUS
 62
     6
100
AcDbLine
 10
1103.75
 20
2252.5
 30
0.0
 11
1131.75
 21
2252.5
 31
0.0
  0
LINE
  5
265
100
AcDbEntity
  8
鏡台
  6
CONTINUOUS
 62
     6
100
AcDbLine
 10
1103.75
 20
2252.5
 30
0.0
 11
1103.75
 21
2229.5
 31
0.0
  0
LINE
  5
266
100
AcDbEntity
  8
鏡台
  6
CONTINUOUS
 62
     6
100
AcDbLine
 10
1103.75
 20
2229.5
 30
0.0
 11
1131.75
 21
2229.5
 31
0.0
  0
LINE
  5
267
100
AcDbEntity
  8
鏡台
  6
CONTINUOUS
 62
     6
100
AcDbLine
 10
1131.75
 20
2252.5
 30
0.0
 11
1131.75
 21
2229.5
 31
0.0
  0
LINE
  5
268
100
AcDbEntity
  8
鏡台
  6
CONTINUOUS
 62
     6
100
AcDbLine
 10
1057.75
 20
2252.5
 30
0.0
 11
1085.75
 21
2252.5
 31
0.0
  0
LINE
  5
269
100
AcDbEntity
  8
鏡台
  6
CONTINUOUS
 62
     6
100
AcDbLine
 10
1057.75
 20
2252.5
 30
0.0
 11
1057.75
 21
2229.5
 31
0.0
  0
LINE
  5
26A
100
AcDbEntity
  8
鏡台
  6
CONTINUOUS
 62
     6
100
AcDbLine
 10
1057.75
 20
2229.5
 30
0.0
 11
1085.75
 21
2229.5
 31
0.0
  0
LINE
  5
26B
100
AcDbEntity
  8
鏡台
  6
CONTINUOUS
 62
     6
100
AcDbLine
 10
1085.75
 20
2252.5
 30
0.0
 11
1085.75
 21
2229.5
 31
0.0
  0
LINE
  5
26C
100
AcDbEntity
  8
鏡台
  6
CONTINUOUS
 62
     6
100
AcDbLine
 10
1080.25
 20
2245.359087
 30
0.0
 11
1080.25
 21
2236.359087
 31
0.0
  0
LINE
  5
26D
100
AcDbEntity
  8
鏡台
  6
CONTINUOUS
 62
     6
100
AcDbLine
 10
1110.75
 20
2244.859087
 30
0.0
 11
1110.75
 21
2236.859087
 31
0.0
  0
LINE
  5
26E
100
AcDbEntity
  8
鏡台
  6
CONTINUOUS
 62
     6
100
AcDbLine
 10
1124.75
 20
2245.359087
 30
0.0
 11
1124.75
 21
2236.359087
 31
0.0
  0
LINE
  5
26F
100
AcDbEntity
  8
鏡台
  6
CONTINUOUS
 62
     2
100
AcDbLine
 10
1020.5
 20
2223.5
 30
0.0
 11
1170.0
 21
2223.5
 31
0.0
  0
LINE
  5
270
100
AcDbEntity
  8
鏡台
  6
CONTINUOUS
 62
     2
100
AcDbLine
 10
1170.0
 20
2268.5
 30
0.0
 11
1020.5
 21
2268.5
 31
0.0
  0
LINE
  5
271
100
AcDbEntity
  8
鏡台
  6
CONTINUOUS
 62
     2
100
AcDbLine
 10
1027.0
 20
2579.029253
 30
0.0
 11
1161.8
 21
2579.029253
 31
0.0
  0
LINE
  5
272
100
AcDbEntity
  8
鏡台
  6
CONTINUOUS
 62
     2
100
AcDbLine
 10
1020.5
 20
1967.318897
 30
0.0
 11
1020.5
 21
2579.029253
 31
0.0
  0
ARC
  5
273
100
AcDbEntity
  8
鏡台
  6
CONTINUOUS
 62
     2
100
AcDbCircle
 10
1147.483882
 20
2668.684234
 30
0.0
 40
10.0
100
AcDbArc
 50
0.0
 51
90.0
  0
LINE
  5
274
100
AcDbEntity
  8
鏡台
  6
CONTINUOUS
 62
     2
100
AcDbLine
 10
1157.483882
 20
2602.0
 30
0.0
 11
1157.483882
 21
2668.684234
 31
0.0
  0
ARC
  5
275
100
AcDbEntity
  8
鏡台
  6
CONTINUOUS
 62
     2
100
AcDbCircle
 10
1147.483882
 20
2602.0
 30
0.0
 40
10.0
100
AcDbArc
 50
270.0
 51
0.0
  0
LINE
  5
276
100
AcDbEntity
  8
鏡台
  6
CONTINUOUS
 62
     6
100
AcDbLine
 10
1125.0
 20
2663.5
 30
0.0
 11
1125.0
 21
2603.5
 31
0.0
  0
LINE
  5
277
100
AcDbEntity
  8
鏡台
  6
CONTINUOUS
 62
     6
100
AcDbLine
 10
1095.0
 20
2633.5
 30
0.0
 11
1155.0
 21
2633.5
 31
0.0
  0
CIRCLE
  5
278
100
AcDbEntity
  8
鏡台
  6
EXLTYPE2
 62
     6
100
AcDbCircle
 10
1125.0
 20
2633.5
 30
0.0
 40
8.5
  0
LINE
  5
279
100
AcDbEntity
  8
鏡台
  6
CONTINUOUS
 62
     6
100
AcDbLine
 10
1029.75
 20
2258.5
 30
0.0
 11
1029.75
 21
2223.5
 31
0.0
  0
LINE
  5
27A
100
AcDbEntity
  8
鏡台
  6
CONTINUOUS
 62
     6
100
AcDbLine
 10
1159.75
 20
2258.5
 30
0.0
 11
1159.75
 21
2223.5
 31
0.0
  0
LINE
  5
27B
100
AcDbEntity
  8
鏡台
  6
CONTINUOUS
 62
     6
100
AcDbLine
 10
1029.75
 20
2258.5
 30
0.0
 11
1159.75
 21
2258.5
 31
0.0
  0
ARC
  5
27C
100
AcDbEntity
  8
鏡台
  6
CONTINUOUS
 62
     6
100
AcDbCircle
 10
1971.0852
 20
2635.440216
 30
0.0
 40
819.051758
100
AcDbArc
 50
177.962425
 51
182.04829
  0
LINE
  5
27D
100
AcDbEntity
  8
鏡台
  6
CONTINUOUS
 62
     6
100
AcDbLine
 10
1225.607802
 20
1703.912733
 30
0.0
 11
1214.982689
 21
1701.065732
 31
0.0
  0
LINE
  5
27E
100
AcDbEntity
  8
鏡台
  6
CONTINUOUS
 62
     6
100
AcDbLine
 10
1221.854862
 20
1717.918608
 30
0.0
 11
1208.004666
 21
1713.585072
 31
0.0
  0
LINE
  5
27F
100
AcDbEntity
  8
鏡台
  6
CONTINUOUS
 62
     6
100
AcDbLine
 10
1216.052539
 20
1721.022674
 30
0.0
 11
1206.99753
 21
1718.596338
 31
0.0
  0
LINE
  5
280
100
AcDbEntity
  8
鏡台
  6
CONTINUOUS
 62
     6
100
AcDbLine
 10
1208.004666
 20
1713.585072
 30
0.0
 11
1203.529978
 21
1735.850197
 31
0.0
  0
LINE
  5
281
100
AcDbEntity
  8
鏡台
  6
CONTINUOUS
 62
     6
100
AcDbLine
 10
1210.407174
 20
1737.694229
 30
0.0
 11
1216.614596
 21
1719.362756
 31
0.0
  0
LINE
  5
282
100
AcDbEntity
  8
鏡台
  6
CONTINUOUS
 62
     6
100
AcDbLine
 10
1240.674427
 20
1709.502698
 30
0.0
 11
1225.219542
 21
1705.361631
 31
0.0
  0
LINE
  5
283
100
AcDbEntity
  8
鏡台
  6
CONTINUOUS
 62
     6
100
AcDbLine
 10
1238.344994
 20
1718.196077
 30
0.0
 11
1222.89023
 21
1714.055
 31
0.0
  0
LINE
  5
284
100
AcDbEntity
  8
鏡台
  6
CONTINUOUS
 62
     6
100
AcDbLine
 10
1214.982568
 20
1701.065743
 30
0.0
 11
1211.876849
 21
1712.656776
 31
0.0
  0
LINE
  5
285
100
AcDbEntity
  8
鏡台
  6
CONTINUOUS
 62
     6
100
AcDbLine
 10
1222.501972
 20
1715.503899
 30
0.0
 11
1211.876849
 21
1712.656776
 31
0.0
  0
LINE
  5
286
100
AcDbEntity
  8
鏡台
  6
CONTINUOUS
 62
     6
100
AcDbLine
 10
1221.854862
 20
1717.918608
 30
0.0
 11
1220.328637
 21
1717.454647
 31
0.0
  0
LINE
  5
287
100
AcDbEntity
  8
鏡台
  6
CONTINUOUS
 62
     6
100
AcDbLine
 10
1226.384198
 20
1701.014947
 30
0.0
 11
1212.554394
 21
1698.280077
 31
0.0
  0
LINE
  5
288
100
AcDbEntity
  8
鏡台
  6
CONTINUOUS
 62
     6
100
AcDbLine
 10
1221.854862
 20
1717.918608
 30
0.0
 11
1226.384198
 21
1701.014947
 31
0.0
  0
LINE
  5
289
100
AcDbEntity
  8
鏡台
  6
CONTINUOUS
 62
     6
100
AcDbLine
 10
1207.745785
 20
1712.619096
 30
0.0
 11
1211.394412
 21
1699.00221
 31
0.0
  0
LINE
  5
28A
100
AcDbEntity
  8
鏡台
  6
CONTINUOUS
 62
     6
100
AcDbLine
 10
1209.201124
 20
1738.339395
 30
0.0
 11
1204.251516
 21
1737.013172
 31
0.0
  0
ARC
  5
28B
100
AcDbEntity
  8
鏡台
  6
CONTINUOUS
 62
     6
100
AcDbCircle
 10
1351.656677
 20
1763.665039
 30
0.0
 40
150.0
100
AcDbArc
 50
184.010986
 51
190.263581
  0
ARC
  5
28C
100
AcDbEntity
  8
鏡台
  6
CONTINUOUS
 62
     6
100
AcDbCircle
 10
1357.149475
 20
1763.383301
 30
0.0
 40
150.0
100
AcDbArc
 50
184.385864
 51
189.606282
  0
ARC
  5
28D
100
AcDbEntity
  8
鏡台
  6
CONTINUOUS
 62
     6
100
AcDbCircle
 10
1219.456095
 20
1720.324941
 30
0.0
 40
3.0
100
AcDbArc
 50
198.707275
 51
286.909241
  0
ARC
  5
28E
100
AcDbEntity
  8
鏡台
  6
CONTINUOUS
 62
     6
100
AcDbCircle
 10
1204.510355
 20
1736.047239
 30
0.0
 40
1.0
100
AcDbArc
 50
105.000061
 51
191.363464
  0
ARC
  5
28F
100
AcDbEntity
  8
鏡台
  6
CONTINUOUS
 62
     6
100
AcDbCircle
 10
1209.459963
 20
1737.373463
 30
0.0
 40
1.0
100
AcDbArc
 50
18.707275
 51
105.0
  0
ARC
  5
290
100
AcDbEntity
  8
鏡台
  6
CONTINUOUS
 62
     6
100
AcDbCircle
 10
1230.883657
 20
1711.538081
 30
0.0
 40
10.0
100
AcDbArc
 50
348.256348
 51
41.743622
  0
ARC
  5
291
100
AcDbEntity
  8
鏡台
  6
CONTINUOUS
 62
     6
100
AcDbCircle
 10
1212.360344
 20
1699.261049
 30
0.0
 40
1.0
100
AcDbArc
 50
195.0
 51
281.186218
  0
ARC
  5
292
100
AcDbEntity
  8
鏡台
  6
CONTINUOUS
 62
     6
100
AcDbCircle
 10
1208.711717
 20
1712.877935
 30
0.0
 40
1.0
100
AcDbArc
 50
106.909119
 51
195.0
  0
ARC
  5
293
100
AcDbEntity
  8
鏡台
  6
CONTINUOUS
 62
     6
100
AcDbCircle
 10
1081.748657
 20
1751.689941
 30
0.0
 40
120.0
100
AcDbArc
 50
4.590393
 51
27.576874
  0
ARC
  5
294
100
AcDbEntity
  8
鏡台
  6
CONTINUOUS
 62
     6
100
AcDbCircle
 10
1087.644653
 20
1752.916992
 30
0.0
 40
120.0
100
AcDbArc
 50
3.349121
 51
29.221863
  0
ARC
  5
295
100
AcDbEntity
  8
鏡台
  6
CONTINUOUS
 62
     6
100
AcDbCircle
 10
1170.0
 20
1791.5
 30
0.0
 40
30.0
100
AcDbArc
 50
41.793671
 51
90.0
  0
ARC
  5
296
100
AcDbEntity
  8
鏡台
  6
CONTINUOUS
 62
     6
100
AcDbCircle
 10
1219.456095
 20
1720.324941
 30
0.0
 40
3.0
100
AcDbArc
 50
198.707275
 51
286.909241
  0
ARC
  5
297
100
AcDbEntity
  8
鏡台
  6
CONTINUOUS
 62
     6
100
AcDbCircle
 10
1204.510355
 20
1736.047239
 30
0.0
 40
1.0
100
AcDbArc
 50
105.000061
 51
191.363464
  0
ARC
  5
298
100
AcDbEntity
  8
鏡台
  6
CONTINUOUS
 62
     6
100
AcDbCircle
 10
1209.459963
 20
1737.373463
 30
0.0
 40
1.0
100
AcDbArc
 50
18.707275
 51
105.0
  0
ARC
  5
299
100
AcDbEntity
  8
鏡台
  6
CONTINUOUS
 62
     6
100
AcDbCircle
 10
1230.883657
 20
1711.538081
 30
0.0
 40
10.0
100
AcDbArc
 50
348.256348
 51
41.743622
  0
ARC
  5
29A
100
AcDbEntity
  8
鏡台
  6
CONTINUOUS
 62
     6
100
AcDbCircle
 10
1212.360344
 20
1699.261049
 30
0.0
 40
1.0
100
AcDbArc
 50
195.0
 51
281.186218
  0
ARC
  5
29B
100
AcDbEntity
  8
鏡台
  6
CONTINUOUS
 62
     6
100
AcDbCircle
 10
1208.711717
 20
1712.877935
 30
0.0
 40
1.0
100
AcDbArc
 50
106.909119
 51
195.0
  0
ARC
  5
29C
100
AcDbEntity
  8
鏡台
  6
CONTINUOUS
 62
     6
100
AcDbCircle
 10
1170.0
 20
1791.5
 30
0.0
 40
24.0
100
AcDbArc
 50
40.990967
 51
90.0
  0
ARC
  5
29D
100
AcDbEntity
  8
鏡台
  6
CONTINUOUS
 62
     6
100
AcDbCircle
 10
1198.627808
 20
1744.515259
 30
0.0
 40
17.00025
100
AcDbArc
 50
71.928894
 51
128.072876
  0
ARC
  5
29E
100
AcDbEntity
  8
鏡台
  6
CONTINUOUS
 62
     6
100
AcDbCircle
 10
1209.174561
 20
1776.838562
 30
0.0
 40
17.000208
100
AcDbArc
 50
251.928955
 51
280.001038
  0
ARC
  5
29F
100
AcDbEntity
  8
鏡台
  6
CONTINUOUS
 62
     6
100
AcDbCircle
 10
1209.174683
 20
1776.838379
 30
0.0
 40
17.000029
100
AcDbArc
 50
280.001038
 51
308.073608
  0
ARC
  5
2A0
100
AcDbEntity
  8
鏡台
  6
CONTINUOUS
 62
     6
100
AcDbCircle
 10
1198.627808
 20
1736.515259
 30
0.0
 40
17.00025
100
AcDbArc
 50
71.928894
 51
128.072876
  0
ARC
  5
2A1
100
AcDbEntity
  8
鏡台
  6
CONTINUOUS
 62
     6
100
AcDbCircle
 10
1209.174561
 20
1768.838562
 30
0.0
 40
17.000208
100
AcDbArc
 50
251.928955
 51
280.001038
  0
ARC
  5
2A2
100
AcDbEntity
  8
鏡台
  6
CONTINUOUS
 62
     6
100
AcDbCircle
 10
1209.174683
 20
1768.838379
 30
0.0
 40
17.000029
100
AcDbArc
 50
280.001038
 51
308.073608
  0
ARC
  5
2A3
100
AcDbEntity
  8
鏡台
  6
CONTINUOUS
 62
     2
100
AcDbCircle
 10
675.0
 20
2683.5
 30
0.0
 40
5.0
100
AcDbArc
 50
90.0
 51
180.0
  0
LINE
  5
2A4
100
AcDbEntity
  8
鏡台
  6
CONTINUOUS
 62
     2
100
AcDbLine
 10
670.0
 20
2683.5
 30
0.0
 11
670.0
 21
1693.5
 31
0.0
  0
ARC
  5
2A5
100
AcDbEntity
  8
鏡台
  6
CONTINUOUS
 62
     2
100
AcDbCircle
 10
675.0
 20
1693.5
 30
0.0
 40
5.0
100
AcDbArc
 50
180.0
 51
270.0
  0
CIRCLE
  5
2A6
100
AcDbEntity
  8
鏡台
  6
CONTINUOUS
 62
     2
100
AcDbCircle
 10
715.0
 20
1753.5
 30
0.0
 40
8.5
  0
LINE
  5
2A7
100
AcDbEntity
  8
鏡台
  6
CONTINUOUS
 62
     2
100
AcDbLine
 10
670.0
 20
1788.5
 30
0.0
 11
819.9
 21
1788.5
 31
0.0
  0
LINE
  5
2A8
100
AcDbEntity
  8
鏡台
  6
CONTINUOUS
 62
     2
100
AcDbLine
 10
819.9
 20
1803.5
 30
0.0
 11
819.9
 21
1785.460349
 31
0.0
  0
LINE
  5
2A9
100
AcDbEntity
  8
鏡台
  6
CONTINUOUS
 62
     6
100
AcDbLine
 10
745.0
 20
1753.5
 30
0.0
 11
685.0
 21
1753.5
 31
0.0
  0
LINE
  5
2AA
100
AcDbEntity
  8
鏡台
  6
CONTINUOUS
 62
     6
100
AcDbLine
 10
715.0
 20
1783.5
 30
0.0
 11
715.0
 21
1723.5
 31
0.0
  0
ARC
  5
2AB
100
AcDbEntity
  8
鏡台
  6
CONTINUOUS
 62
     2
100
AcDbCircle
 10
691.965233
 20
2668.684234
 30
0.0
 40
10.0
100
AcDbArc
 50
90.0
 51
180.0
  0
LINE
  5
2AC
100
AcDbEntity
  8
鏡台
  6
CONTINUOUS
 62
     2
100
AcDbLine
 10
681.965233
 20
2668.684234
 30
0.0
 11
681.965233
 21
2602.0
 31
0.0
  0
ARC
  5
2AD
100
AcDbEntity
  8
鏡台
  6
CONTINUOUS
 62
     2
100
AcDbCircle
 10
691.965233
 20
2602.0
 30
0.0
 40
10.0
100
AcDbArc
 50
180.0
 51
270.0
  0
LINE
  5
2AE
100
AcDbEntity
  8
鏡台
  6
CONTINUOUS
 62
     6
100
AcDbLine
 10
715.0
 20
2663.5
 30
0.0
 11
715.0
 21
2603.5
 31
0.0
  0
LINE
  5
2AF
100
AcDbEntity
  8
鏡台
  6
CONTINUOUS
 62
     6
100
AcDbLine
 10
745.0
 20
2633.5
 30
0.0
 11
685.0
 21
2633.5
 31
0.0
  0
CIRCLE
  5
2B0
100
AcDbEntity
  8
鏡台
  6
EXLTYPE2
 62
     6
100
AcDbCircle
 10
715.0
 20
2633.5
 30
0.0
 40
8.5
  0
ARC
  5
2B1
100
AcDbEntity
  8
鏡台
  6
CONTINUOUS
 62
     6
100
AcDbCircle
 10
-131.117436
 20
2635.440216
 30
0.0
 40
819.051758
100
AcDbArc
 50
357.95171
 51
2.037575
  0
LINE
  5
2B2
100
AcDbEntity
  8
鏡台
  6
CONTINUOUS
 62
     2
100
AcDbLine
 10
819.9
 20
1785.460349
 30
0.0
 11
1020.0
 21
1785.460349
 31
0.0
  0
LINE
  5
2B3
100
AcDbEntity
  8
鏡台
  6
CONTINUOUS
 62
     2
100
AcDbLine
 10
1170.0
 20
2592.0
 30
0.0
 11
670.0
 21
2592.0
 31
0.0
  0
LINE
  5
2B4
100
AcDbEntity
  8
鏡台
  6
CONTINUOUS
 62
     2
100
AcDbLine
 10
1170.0
 20
2582.0
 30
0.0
 11
670.0
 21
2582.0
 31
0.0
  0
LINE
  5
2B5
100
AcDbEntity
  8
鏡台
  6
CONTINUOUS
 62
     2
100
AcDbLine
 10
1165.0
 20
2688.5
 30
0.0
 11
675.0
 21
2688.5
 31
0.0
  0
LINE
  5
2B6
100
AcDbEntity
  8
鏡台
  6
CONTINUOUS
 62
     2
100
AcDbLine
 10
1147.483882
 20
2678.684234
 30
0.0
 11
691.965233
 21
2678.684234
 31
0.0
  0
ARC
  5
2B7
100
AcDbEntity
  8
鏡台
  6
CONTINUOUS
 62
     6
100
AcDbCircle
 10
697.410133
 20
2664.91706
 30
0.0
 40
10.0
100
AcDbArc
 50
89.515523
 51
182.037575
  0
ARC
  5
2B8
100
AcDbEntity
  8
鏡台
  6
CONTINUOUS
 62
     6
100
AcDbCircle
 10
697.404606
 20
2605.808426
 30
0.0
 40
10.0
100
AcDbArc
 50
177.95171
 51
270.484485
  0
ARC
  5
2B9
100
AcDbEntity
  8
鏡台
  6
CONTINUOUS
 62
     6
100
AcDbCircle
 10
1142.563158
 20
2605.808426
 30
0.0
 40
10.0
100
AcDbArc
 50
269.515515
 51
2.04829
  0
ARC
  5
2BA
100
AcDbEntity
  8
鏡台
  6
CONTINUOUS
 62
     6
100
AcDbCircle
 10
1142.557631
 20
2664.91706
 30
0.0
 40
10.0
100
AcDbArc
 50
357.962425
 51
90.484477
  0
LINE
  5
2BB
100
AcDbEntity
  8
鏡台
  6
CONTINUOUS
 62
     2
100
AcDbLine
 10
1170.0
 20
1803.5
 30
0.0
 11
670.0
 21
1803.5
 31
0.0
  0
ARC
  5
2BC
100
AcDbEntity
  8
鏡台
  6
CONTINUOUS
 62
     6
100
AcDbCircle
 10
919.983882
 20
28986.540013
 30
0.0
 40
26312.56397
100
AcDbArc
 50
269.515523
 51
270.484477
  0
ARC
  5
2BD
100
AcDbEntity
  8
鏡台
  6
CONTINUOUS
 62
     6
100
AcDbCircle
 10
919.983882
 20
-23716.054293
 30
0.0
 40
26312.803775
100
AcDbArc
 50
89.515515
 51
90.484485
  0
LINE
  5
2BE
100
AcDbEntity
  8
鏡台
  6
CONTINUOUS
 62
     2
100
AcDbLine
 10
670.0
 20
1998.0
 30
0.0
 11
1021.0
 21
1998.0
 31
0.0
  0
ARC
  5
2BF
100
AcDbEntity
  8
鏡台
  6
CONTINUOUS
 62
     2
100
AcDbCircle
 10
870.0
 20
-67034.5735
 30
0.0
 40
69012.5735
100
AcDbArc
 50
89.875051
 51
90.166045
  0
LINE
  5
2C0
100
AcDbEntity
  8
鏡台
  6
CONTINUOUS
 62
     2
100
AcDbLine
 10
670.0
 20
1967.318897
 30
0.0
 11
1027.0
 21
1967.318897
 31
0.0
  0
LINE
  5
2C1
100
AcDbEntity
  8
鏡台
  6
CONTINUOUS
 62
     2
100
AcDbLine
 10
728.0
 20
2020.5
 30
0.0
 11
708.0
 21
2020.5
 31
0.0
  0
LINE
  5
2C2
100
AcDbEntity
  8
鏡台
  6
EXLTYPE1
 62
     2
100
AcDbLine
 10
728.0
 20
2020.5
 30
0.0
 11
728.0
 21
2010.5
 31
0.0
  0
LINE
  5
2C3
100
AcDbEntity
  8
鏡台
  6
EXLTYPE1
 62
     2
100
AcDbLine
 10
708.0
 20
2020.5
 30
0.0
 11
708.0
 21
2010.5
 31
0.0
  0
LINE
  5
2C4
100
AcDbEntity
  8
鏡台
  6
CONTINUOUS
 62
     2
100
AcDbLine
 10
728.0
 20
2010.5
 30
0.0
 11
708.0
 21
2010.5
 31
0.0
  0
LINE
  5
2C5
100
AcDbEntity
  8
鏡台
  6
CONTINUOUS
 62
     2
100
AcDbLine
 10
688.5
 20
2013.5
 30
0.0
 11
708.0
 21
2013.5
 31
0.0
  0
LINE
  5
2C6
100
AcDbEntity
  8
鏡台
  6
CONTINUOUS
 62
     2
100
AcDbLine
 10
688.0
 20
2013.5
 30
0.0
 11
688.0
 21
2579.029253
 31
0.0
  0
LINE
  5
2C7
100
AcDbEntity
  8
鏡台
  6
CONTINUOUS
 62
     2
100
AcDbLine
 10
688.0
 20
2579.029253
 30
0.0
 11
1020.5
 21
2579.029253
 31
0.0
  0
LINE
  5
2C8
100
AcDbEntity
  8
鏡台
  6
CONTINUOUS
 62
     2
100
AcDbLine
 10
728.0
 20
2013.5
 30
0.0
 11
980.5
 21
2013.5
 31
0.0
  0
LINE
  5
2C9
100
AcDbEntity
  8
鏡台
  6
CONTINUOUS
 62
     6
100
AcDbLine
 10
788.833009
 20
2505.333009
 30
0.0
 11
735.8
 21
2452.3
 31
0.0
  0
LINE
  5
2CA
100
AcDbEntity
  8
鏡台
  6
CONTINUOUS
 62
     6
100
AcDbLine
 10
766.193146
 20
2494.006854
 30
0.0
 11
747.243146
 21
2475.056854
 31
0.0
  0
LINE
  5
2CB
100
AcDbEntity
  8
鏡台
  6
CONTINUOUS
 62
     6
100
AcDbLine
 10
782.706854
 20
2487.893146
 30
0.0
 11
753.006854
 21
2458.193146
 31
0.0
  0
LINE
  5
2CC
100
AcDbEntity
  8
鏡台
  6
CONTINUOUS
 62
     6
100
AcDbLine
 10
849.833009
 20
2182.333009
 30
0.0
 11
796.8
 21
2129.3
 31
0.0
  0
LINE
  5
2CD
100
AcDbEntity
  8
鏡台
  6
CONTINUOUS
 62
     6
100
AcDbLine
 10
827.193146
 20
2171.006854
 30
0.0
 11
808.243146
 21
2152.056854
 31
0.0
  0
LINE
  5
2CE
100
AcDbEntity
  8
鏡台
  6
CONTINUOUS
 62
     6
100
AcDbLine
 10
843.706854
 20
2164.893146
 30
0.0
 11
814.006854
 21
2135.193146
 31
0.0
  0
LINE
  5
2CF
100
AcDbEntity
  8
鏡台
  6
CONTINUOUS
 62
     6
100
AcDbLine
 10
992.833009
 20
2378.333009
 30
0.0
 11
939.8
 21
2325.3
 31
0.0
  0
LINE
  5
2D0
100
AcDbEntity
  8
鏡台
  6
CONTINUOUS
 62
     6
100
AcDbLine
 10
970.193146
 20
2367.006854
 30
0.0
 11
951.243146
 21
2348.056854
 31
0.0
  0
LINE
  5
2D1
100
AcDbEntity
  8
鏡台
  6
CONTINUOUS
 62
     6
100
AcDbLine
 10
986.706854
 20
2360.893146
 30
0.0
 11
957.006854
 21
2331.193146
 31
0.0
  0
LINE
  5
2D2
100
AcDbEntity
  8
付属金具
  6
EXLTYPE2
 62
     6
100
AcDbLine
 10
904.25
 20
1418.0
 30
0.0
 11
935.75
 21
1418.0
 31
0.0
  0
LINE
  5
2D3
100
AcDbEntity
  8
付属金具
  6
EXLTYPE2
 62
     6
100
AcDbLine
 10
901.5
 20
1428.0
 30
0.0
 11
901.5
 21
1420.75
 31
0.0
  0
LINE
  5
2D4
100
AcDbEntity
  8
付属金具
  6
EXLTYPE2
 62
     6
100
AcDbLine
 10
904.25
 20
1418.0
 30
0.0
 11
901.5
 21
1420.75
 31
0.0
  0
LINE
  5
2D5
100
AcDbEntity
  8
付属金具
  6
EXLTYPE2
 62
     6
100
AcDbLine
 10
935.75
 20
1418.0
 30
0.0
 11
938.5
 21
1420.75
 31
0.0
  0
LINE
  5
2D6
100
AcDbEntity
  8
付属金具
  6
EXLTYPE2
 62
     6
100
AcDbLine
 10
938.5
 20
1428.0
 30
0.0
 11
938.5
 21
1420.75
 31
0.0
  0
LINE
  5
2D7
100
AcDbEntity
  8
付属金具
  6
EXLTYPE2
 62
     6
100
AcDbLine
 10
891.5
 20
1448.0
 30
0.0
 11
948.5
 21
1448.0
 31
0.0
  0
LINE
  5
2D8
100
AcDbEntity
  8
付属金具
  6
EXLTYPE2
 62
     6
100
AcDbLine
 10
893.5
 20
1445.0
 30
0.0
 11
946.5
 21
1445.0
 31
0.0
  0
LINE
  5
2D9
100
AcDbEntity
  8
付属金具
  6
EXLTYPE2
 62
     6
100
AcDbLine
 10
941.0
 20
1428.0
 30
0.0
 11
899.0
 21
1428.0
 31
0.0
  0
LINE
  5
2DA
100
AcDbEntity
  8
付属金具
  6
EXLTYPE2
 62
     6
100
AcDbLine
 10
893.5
 20
1448.0
 30
0.0
 11
893.5
 21
1445.0
 31
0.0
  0
LINE
  5
2DB
100
AcDbEntity
  8
付属金具
  6
EXLTYPE2
 62
     6
100
AcDbLine
 10
897.5
 20
1429.5
 30
0.0
 11
897.5
 21
1445.0
 31
0.0
  0
LINE
  5
2DC
100
AcDbEntity
  8
付属金具
  6
EXLTYPE2
 62
     6
100
AcDbLine
 10
906.883288
 20
1445.0
 30
0.0
 11
906.883288
 21
1429.5
 31
0.0
  0
LINE
  5
2DD
100
AcDbEntity
  8
付属金具
  6
EXLTYPE2
 62
     6
100
AcDbLine
 10
910.726382
 20
1445.0
 30
0.0
 11
910.726382
 21
1429.5
 31
0.0
  0
LINE
  5
2DE
100
AcDbEntity
  8
付属金具
  6
EXLTYPE2
 62
     6
100
AcDbLine
 10
929.273618
 20
1445.0
 30
0.0
 11
929.273618
 21
1429.5
 31
0.0
  0
LINE
  5
2DF
100
AcDbEntity
  8
付属金具
  6
EXLTYPE2
 62
     6
100
AcDbLine
 10
933.116712
 20
1445.0
 30
0.0
 11
933.116712
 21
1429.5
 31
0.0
  0
LINE
  5
2E0
100
AcDbEntity
  8
付属金具
  6
EXLTYPE2
 62
     6
100
AcDbLine
 10
942.5
 20
1429.5
 30
0.0
 11
942.5
 21
1445.0
 31
0.0
  0
LINE
  5
2E1
100
AcDbEntity
  8
付属金具
  6
EXLTYPE2
 62
     6
100
AcDbLine
 10
946.5
 20
1448.0
 30
0.0
 11
946.5
 21
1445.0
 31
0.0
  0
LINE
  5
2E2
100
AcDbEntity
  8
付属金具
  6
EXLTYPE2
 62
     6
100
AcDbLine
 10
899.0
 20
1428.0
 30
0.0
 11
897.5
 21
1429.5
 31
0.0
  0
LINE
  5
2E3
100
AcDbEntity
  8
付属金具
  6
EXLTYPE2
 62
     6
100
AcDbLine
 10
942.5
 20
1429.5
 30
0.0
 11
941.0
 21
1428.0
 31
0.0
  0
LINE
  5
2E4
100
AcDbEntity
  8
付属金具
  6
EXLTYPE2
 62
     6
100
AcDbLine
 10
906.883288
 20
1429.5
 30
0.0
 11
910.726382
 21
1429.5
 31
0.0
  0
LINE
  5
2E5
100
AcDbEntity
  8
付属金具
  6
EXLTYPE2
 62
     6
100
AcDbLine
 10
929.273618
 20
1429.5
 30
0.0
 11
933.116712
 21
1429.5
 31
0.0
  0
ARC
  5
2E6
100
AcDbEntity
  8
付属金具
  6
EXLTYPE2
 62
     6
100
AcDbCircle
 10
902.191644
 20
1436.087175
 30
0.0
 40
8.087175
100
AcDbArc
 50
234.540041
 51
305.459959
  0
ARC
  5
2E7
100
AcDbEntity
  8
付属金具
  6
EXLTYPE2
 62
     6
100
AcDbCircle
 10
920.0
 20
1457.416667
 30
0.0
 40
29.416667
100
AcDbArc
 50
251.624064
 51
288.375936
  0
ARC
  5
2E8
100
AcDbEntity
  8
付属金具
  6
EXLTYPE2
 62
     6
100
AcDbCircle
 10
937.808356
 20
1436.087175
 30
0.0
 40
8.087175
100
AcDbArc
 50
234.540041
 51
305.459959
  0
LINE
  5
2E9
100
AcDbEntity
  8
付属金具
  6
EXLTYPE2
 62
     6
100
AcDbLine
 10
891.5
 20
1451.0
 30
0.0
 11
891.5
 21
1448.0
 31
0.0
  0
LINE
  5
2EA
100
AcDbEntity
  8
付属金具
  6
EXLTYPE2
 62
     6
100
AcDbLine
 10
891.5
 20
1451.0
 30
0.0
 11
948.5
 21
1451.0
 31
0.0
  0
LINE
  5
2EB
100
AcDbEntity
  8
付属金具
  6
EXLTYPE2
 62
     6
100
AcDbLine
 10
948.5
 20
1451.0
 30
0.0
 11
948.5
 21
1448.0
 31
0.0
  0
LINE
  5
2EC
100
AcDbEntity
  8
付属金具
  6
EXLTYPE2
 62
     6
100
AcDbLine
 10
891.5
 20
1451.0
 30
0.0
 11
896.5
 21
1453.5
 31
0.0
  0
LINE
  5
2ED
100
AcDbEntity
  8
付属金具
  6
EXLTYPE2
 62
     6
100
AcDbLine
 10
948.5
 20
1451.0
 30
0.0
 11
943.5
 21
1453.5
 31
0.0
  0
LINE
  5
2EE
100
AcDbEntity
  8
付属金具
  6
EXLTYPE2
 62
     6
100
AcDbLine
 10
2223.5
 20
1445.0
 30
0.0
 11
2276.5
 21
1445.0
 31
0.0
  0
LINE
  5
2EF
100
AcDbEntity
  8
付属金具
  6
EXLTYPE2
 62
     6
100
AcDbLine
 10
2270.5
 20
1428.0
 30
0.0
 11
2229.5
 21
1428.0
 31
0.0
  0
LINE
  5
2F0
100
AcDbEntity
  8
付属金具
  6
EXLTYPE2
 62
     6
100
AcDbLine
 10
2223.5
 20
1448.0
 30
0.0
 11
2223.5
 21
1445.0
 31
0.0
  0
LINE
  5
2F1
100
AcDbEntity
  8
付属金具
  6
EXLTYPE2
 62
     6
100
AcDbLine
 10
2276.5
 20
1448.0
 30
0.0
 11
2276.5
 21
1445.0
 31
0.0
  0
LINE
  5
2F2
100
AcDbEntity
  8
付属金具
  6
EXLTYPE2
 62
     6
100
AcDbLine
 10
2270.5
 20
1445.0
 30
0.0
 11
2270.5
 21
1428.0
 31
0.0
  0
LINE
  5
2F3
100
AcDbEntity
  8
付属金具
  6
EXLTYPE2
 62
     6
100
AcDbLine
 10
2252.218811
 20
1445.0
 30
0.0
 11
2252.218811
 21
1429.5
 31
0.0
  0
LINE
  5
2F4
100
AcDbEntity
  8
付属金具
  6
EXLTYPE2
 62
     6
100
AcDbLine
 10
2247.781189
 20
1445.0
 30
0.0
 11
2247.781189
 21
1429.5
 31
0.0
  0
LINE
  5
2F5
100
AcDbEntity
  8
付属金具
  6
EXLTYPE2
 62
     6
100
AcDbLine
 10
2231.718811
 20
1445.0
 30
0.0
 11
2231.718811
 21
1429.5
 31
0.0
  0
LINE
  5
2F6
100
AcDbEntity
  8
付属金具
  6
EXLTYPE2
 62
     6
100
AcDbLine
 10
2229.5
 20
1445.0
 30
0.0
 11
2229.5
 21
1428.0
 31
0.0
  0
LINE
  5
2F7
100
AcDbEntity
  8
付属金具
  6
EXLTYPE2
 62
     6
100
AcDbLine
 10
2268.281189
 20
1445.0
 30
0.0
 11
2268.281189
 21
1429.5
 31
0.0
  0
LINE
  5
2F8
100
AcDbEntity
  8
付属金具
  6
EXLTYPE2
 62
     6
100
AcDbLine
 10
2229.5
 20
1429.5
 30
0.0
 11
2231.718811
 21
1429.5
 31
0.0
  0
LINE
  5
2F9
100
AcDbEntity
  8
付属金具
  6
EXLTYPE2
 62
     6
100
AcDbLine
 10
2247.781189
 20
1429.5
 30
0.0
 11
2252.218811
 21
1429.5
 31
0.0
  0
LINE
  5
2FA
100
AcDbEntity
  8
付属金具
  6
EXLTYPE2
 62
     6
100
AcDbLine
 10
2268.281189
 20
1429.5
 30
0.0
 11
2270.5
 21
1429.5
 31
0.0
  0
ARC
  5
2FB
100
AcDbEntity
  8
付属金具
  6
EXLTYPE2
 62
     6
100
AcDbCircle
 10
2239.75
 20
1450.25
 30
0.0
 40
22.25
100
AcDbArc
 50
248.841307
 51
291.158693
  0
ARC
  5
2FC
100
AcDbEntity
  8
付属金具
  6
EXLTYPE2
 62
     6
100
AcDbCircle
 10
2260.25
 20
1450.25
 30
0.0
 40
22.25
100
AcDbArc
 50
248.841307
 51
291.158693
  0
LINE
  5
2FD
100
AcDbEntity
  8
付属金具
  6
EXLTYPE2
 62
     6
100
AcDbLine
 10
2221.5
 20
1448.0
 30
0.0
 11
2278.5
 21
1448.0
 31
0.0
  0
LINE
  5
2FE
100
AcDbEntity
  8
付属金具
  6
EXLTYPE2
 62
     6
100
AcDbLine
 10
2221.5
 20
1451.0
 30
0.0
 11
2221.5
 21
1448.0
 31
0.0
  0
LINE
  5
2FF
100
AcDbEntity
  8
付属金具
  6
EXLTYPE2
 62
     6
100
AcDbLine
 10
2221.5
 20
1451.0
 30
0.0
 11
2278.5
 21
1451.0
 31
0.0
  0
LINE
  5
300
100
AcDbEntity
  8
付属金具
  6
EXLTYPE2
 62
     6
100
AcDbLine
 10
2278.5
 20
1451.0
 30
0.0
 11
2278.5
 21
1448.0
 31
0.0
  0
LINE
  5
301
100
AcDbEntity
  8
付属金具
  6
EXLTYPE2
 62
     6
100
AcDbLine
 10
2221.5
 20
1451.0
 30
0.0
 11
2226.5
 21
1453.5
 31
0.0
  0
LINE
  5
302
100
AcDbEntity
  8
付属金具
  6
EXLTYPE2
 62
     6
100
AcDbLine
 10
2278.5
 20
1451.0
 30
0.0
 11
2273.5
 21
1453.5
 31
0.0
  0
LINE
  5
303
100
AcDbEntity
  8
付属金具
  6
EXLTYPE2
 62
     6
100
AcDbLine
 10
2234.25
 20
1418.0
 30
0.0
 11
2265.75
 21
1418.0
 31
0.0
  0
LINE
  5
304
100
AcDbEntity
  8
付属金具
  6
EXLTYPE2
 62
     6
100
AcDbLine
 10
2231.5
 20
1428.0
 30
0.0
 11
2231.5
 21
1420.75
 31
0.0
  0
LINE
  5
305
100
AcDbEntity
  8
付属金具
  6
EXLTYPE2
 62
     6
100
AcDbLine
 10
2234.25
 20
1418.0
 30
0.0
 11
2231.5
 21
1420.75
 31
0.0
  0
LINE
  5
306
100
AcDbEntity
  8
付属金具
  6
EXLTYPE2
 62
     6
100
AcDbLine
 10
2265.75
 20
1418.0
 30
0.0
 11
2268.5
 21
1420.75
 31
0.0
  0
LINE
  5
307
100
AcDbEntity
  8
付属金具
  6
EXLTYPE2
 62
     6
100
AcDbLine
 10
2268.5
 20
1428.0
 30
0.0
 11
2268.5
 21
1420.75
 31
0.0
  0
LINE
  5
308
100
AcDbEntity
  8
付属金具
  6
EXLTYPE2
 62
     6
100
AcDbLine
 10
2234.25
 20
1418.0
 30
0.0
 11
2234.25
 21
1393.5
 31
0.0
  0
LINE
  5
309
100
AcDbEntity
  8
付属金具
  6
EXLTYPE2
 62
     6
100
AcDbLine
 10
2265.75
 20
1418.0
 30
0.0
 11
2265.75
 21
1393.5
 31
0.0
  0
LINE
  5
30A
100
AcDbEntity
  8
付属金具
  6
EXLTYPE2
 62
     6
100
AcDbLine
 10
2376.35
 20
1503.282103
 30
0.0
 11
2376.35
 21
1475.273503
 31
0.0
  0
LINE
  5
30B
100
AcDbEntity
  8
付属金具
  6
EXLTYPE2
 62
     6
100
AcDbLine
 10
2363.65
 20
1504.241961
 30
0.0
 11
2363.65
 21
1475.726497
 31
0.0
  0
LINE
  5
30C
100
AcDbEntity
  8
付属金具
  6
EXLTYPE2
 62
     6
100
AcDbLine
 10
977.35
 20
1495.441619
 30
0.0
 11
977.35
 21
1476.558333
 31
0.0
  0
LINE
  5
30D
100
AcDbEntity
  8
付属金具
  6
EXLTYPE2
 62
     6
100
AcDbLine
 10
964.65
 20
1492.732977
 30
0.0
 11
964.65
 21
1474.441667
 31
0.0
  0
LINE
  5
30E
100
AcDbEntity
  8
付属金具
  6
EXLTYPE3
 62
     6
100
AcDbLine
 10
2375.0
 20
1103.5
 30
0.0
 11
2375.0
 21
865.499969
 31
0.0
  0
LINE
  5
30F
100
AcDbEntity
  8
付属金具
  6
CONTINUOUS
 62
     6
100
AcDbLine
 10
2385.0
 20
888.49301
 30
0.0
 11
2384.852295
 21
881.727081
 31
0.0
  0
LINE
  5
310
100
AcDbEntity
  8
付属金具
  6
CONTINUOUS
 62
     6
100
AcDbLine
 10
2384.852295
 20
881.727081
 30
0.0
 11
2383.625183
 21
880.499969
 31
0.0
  0
LINE
  5
311
100
AcDbEntity
  8
付属金具
  6
CONTINUOUS
 62
     6
100
AcDbLine
 10
2383.625183
 20
880.499969
 30
0.0
 11
2366.374817
 21
880.499969
 31
0.0
  0
LINE
  5
312
100
AcDbEntity
  8
付属金具
  6
CONTINUOUS
 62
     6
100
AcDbLine
 10
2366.374817
 20
880.499969
 30
0.0
 11
2365.147858
 21
881.727081
 31
0.0
  0
LINE
  5
313
100
AcDbEntity
  8
付属金具
  6
CONTINUOUS
 62
     6
100
AcDbLine
 10
2365.147858
 20
881.727081
 30
0.0
 11
2365.0
 21
888.5
 31
0.0
  0
LINE
  5
314
100
AcDbEntity
  8
付属金具
  6
EXLTYPE4
 62
     6
100
AcDbLine
 10
2365.0
 20
888.5
 30
0.0
 11
2365.0
 21
1088.5
 31
0.0
  0
LINE
  5
315
100
AcDbEntity
  8
付属金具
  6
EXLTYPE4
 62
     6
100
AcDbLine
 10
2385.0
 20
1088.5
 30
0.0
 11
2385.0
 21
888.49301
 31
0.0
  0
LINE
  5
316
100
AcDbEntity
  8
付属金具
  6
EXLTYPE2
 62
     6
100
AcDbLine
 10
2231.5
 20
1375.5
 30
0.0
 11
2231.5
 21
1340.5
 31
0.0
  0
LINE
  5
317
100
AcDbEntity
  8
付属金具
  6
EXLTYPE2
 62
     6
100
AcDbLine
 10
2268.5
 20
1375.5
 30
0.0
 11
2268.5
 21
1340.5
 31
0.0
  0
LINE
  5
318
100
AcDbEntity
  8
付属金具
  6
EXLTYPE2
 62
     6
100
AcDbLine
 10
2265.85
 20
1337.85
 30
0.0
 11
2265.85
 21
1297.5
 31
0.0
  0
LINE
  5
319
100
AcDbEntity
  8
付属金具
  6
EXLTYPE2
 62
     6
100
AcDbLine
 10
2268.5
 20
1340.5
 30
0.0
 11
2265.85
 21
1337.85
 31
0.0
  0
LINE
  5
31A
100
AcDbEntity
  8
付属金具
  6
EXLTYPE2
 62
     6
100
AcDbLine
 10
2231.5
 20
1340.5
 30
0.0
 11
2234.15
 21
1337.85
 31
0.0
  0
LINE
  5
31B
100
AcDbEntity
  8
付属金具
  6
EXLTYPE2
 62
     6
100
AcDbLine
 10
2226.6
 20
1375.5
 30
0.0
 11
2273.4
 21
1375.5
 31
0.0
  0
LINE
  5
31C
100
AcDbEntity
  8
付属金具
  6
EXLTYPE2
 62
     6
100
AcDbLine
 10
2228.6
 20
1393.5
 30
0.0
 11
2271.4
 21
1393.5
 31
0.0
  0
LINE
  5
31D
100
AcDbEntity
  8
付属金具
  6
EXLTYPE2
 62
     6
100
AcDbLine
 10
2226.6
 20
1391.5
 30
0.0
 11
2226.6
 21
1375.5
 31
0.0
  0
LINE
  5
31E
100
AcDbEntity
  8
付属金具
  6
EXLTYPE2
 62
     6
100
AcDbLine
 10
2232.870011
 20
1391.5
 30
0.0
 11
2232.870011
 21
1375.5
 31
0.0
  0
LINE
  5
31F
100
AcDbEntity
  8
付属金具
  6
EXLTYPE2
 62
     6
100
AcDbLine
 10
2243.729989
 20
1391.5
 30
0.0
 11
2243.729989
 21
1375.5
 31
0.0
  0
LINE
  5
320
100
AcDbEntity
  8
付属金具
  6
EXLTYPE2
 62
     6
100
AcDbLine
 10
2256.270011
 20
1391.5
 30
0.0
 11
2256.270011
 21
1375.5
 31
0.0
  0
LINE
  5
321
100
AcDbEntity
  8
付属金具
  6
EXLTYPE2
 62
     6
100
AcDbLine
 10
2267.129989
 20
1391.5
 30
0.0
 11
2267.129989
 21
1375.5
 31
0.0
  0
LINE
  5
322
100
AcDbEntity
  8
付属金具
  6
EXLTYPE2
 62
     6
100
AcDbLine
 10
2273.4
 20
1391.5
 30
0.0
 11
2273.4
 21
1375.5
 31
0.0
  0
ARC
  5
323
100
AcDbEntity
  8
付属金具
  6
EXLTYPE2
 62
     6
100
AcDbCircle
 10
2228.6
 20
1391.5
 30
0.0
 40
2.0
100
AcDbArc
 50
90.0
 51
180.0
  0
ARC
  5
324
100
AcDbEntity
  8
付属金具
  6
EXLTYPE2
 62
     6
100
AcDbCircle
 10
2271.4
 20
1391.5
 30
0.0
 40
2.0
100
AcDbArc
 50
0.0
 51
90.0
  0
LINE
  5
325
100
AcDbEntity
  8
付属金具
  6
EXLTYPE2
 62
     6
100
AcDbLine
 10
2234.15
 20
1337.85
 30
0.0
 11
2265.85
 21
1337.85
 31
0.0
  0
LINE
  5
326
100
AcDbEntity
  8
付属金具
  6
EXLTYPE2
 62
     6
100
AcDbLine
 10
2234.15
 20
1337.85
 30
0.0
 11
2234.15
 21
1286.141074
 31
0.0
  0
LINE
  5
327
100
AcDbEntity
  8
付属金具
  6
EXLTYPE2
 62
     6
100
AcDbLine
 10
2393.0
 20
1332.625
 30
0.0
 11
2450.0
 21
1332.625
 31
0.0
  0
LINE
  5
328
100
AcDbEntity
  8
付属金具
  6
EXLTYPE2
 62
     6
100
AcDbLine
 10
2393.0
 20
1354.0
 30
0.0
 11
2450.0
 21
1354.0
 31
0.0
  0
LINE
  5
329
100
AcDbEntity
  8
付属金具
  6
CONTINUOUS
 62
     6
100
AcDbLine
 10
2458.0
 20
1354.0
 30
0.0
 11
2458.0
 21
1333.0
 31
0.0
  0
LINE
  5
32A
100
AcDbEntity
  8
付属金具
  6
CONTINUOUS
 62
     6
100
AcDbLine
 10
2450.0
 20
1354.0
 30
0.0
 11
2458.0
 21
1354.0
 31
0.0
  0
LINE
  5
32B
100
AcDbEntity
  8
付属金具
  6
CONTINUOUS
 62
     6
100
AcDbLine
 10
2450.0
 20
1333.0
 30
0.0
 11
2458.0
 21
1333.0
 31
0.0
  0
LINE
  5
32C
100
AcDbEntity
  8
付属金具
  6
EXLTYPE2
 62
     6
100
AcDbLine
 10
2393.0
 20
1333.0
 30
0.0
 11
2450.0
 21
1333.0
 31
0.0
  0
ARC
  5
32D
100
AcDbEntity
  8
付属金具
  6
EXLTYPE2
 62
     6
100
AcDbCircle
 10
2381.10588
 20
1362.5
 30
0.0
 40
6.5
100
AcDbArc
 50
270.0
 51
318.84583
  0
ARC
  5
32E
100
AcDbEntity
  8
付属金具
  6
EXLTYPE2
 62
     6
100
AcDbCircle
 10
2381.10588
 20
1324.5
 30
0.0
 40
6.5
100
AcDbArc
 50
41.15417
 51
90.0
  0
LINE
  5
32F
100
AcDbEntity
  8
付属金具
  6
EXLTYPE2
 62
     6
100
AcDbLine
 10
2393.0
 20
1355.75
 30
0.0
 11
2391.572541
 21
1358.222432
 31
0.0
  0
LINE
  5
330
100
AcDbEntity
  8
付属金具
  6
EXLTYPE2
 62
     6
100
AcDbLine
 10
2393.0
 20
1331.25
 30
0.0
 11
2391.572541
 21
1328.777568
 31
0.0
  0
LINE
  5
331
100
AcDbEntity
  8
付属金具
  6
EXLTYPE2
 62
     6
100
AcDbLine
 10
2393.0
 20
1355.75
 30
0.0
 11
2393.0
 21
1331.25
 31
0.0
  0
LINE
  5
332
100
AcDbEntity
  8
付属金具
  6
EXLTYPE2
 62
     6
100
AcDbLine
 10
2391.572541
 20
1358.222432
 30
0.0
 11
2386.0
 21
1358.222432
 31
0.0
  0
LINE
  5
333
100
AcDbEntity
  8
付属金具
  6
EXLTYPE2
 62
     6
100
AcDbLine
 10
2391.572541
 20
1328.777568
 30
0.0
 11
2386.0
 21
1328.777568
 31
0.0
  0
ARC
  5
334
100
AcDbEntity
  8
付属金具
  6
EXLTYPE2
 62
     6
100
AcDbCircle
 10
2351.0
 20
1359.5
 30
0.0
 40
3.5
100
AcDbArc
 50
270.0
 51
0.0
  0
ARC
  5
335
100
AcDbEntity
  8
付属金具
  6
EXLTYPE2
 62
     6
100
AcDbCircle
 10
2379.0
 20
1359.5
 30
0.0
 40
3.5
100
AcDbArc
 50
180.0
 51
270.0
  0
LINE
  5
336
100
AcDbEntity
  8
付属金具
  6
EXLTYPE2
 62
     6
100
AcDbLine
 10
2379.0
 20
1356.0
 30
0.0
 11
2381.10588
 21
1356.0
 31
0.0
  0
LINE
  5
337
100
AcDbEntity
  8
付属金具
  6
EXLTYPE2
 62
     6
100
AcDbLine
 10
2350.5
 20
1330.75
 30
0.0
 11
2350.5
 21
1356.25
 31
0.0
  0
ARC
  5
338
100
AcDbEntity
  8
付属金具
  6
EXLTYPE2
 62
     6
100
AcDbCircle
 10
2346.725083
 20
1334.75
 30
0.0
 40
5.5
100
AcDbArc
 50
217.187626
 51
313.341758
  0
LINE
  5
339
100
AcDbEntity
  8
付属金具
  6
EXLTYPE2
 62
     6
100
AcDbLine
 10
2337.6
 20
1338.2
 30
0.0
 11
2342.34345
 21
1331.425651
 31
0.0
  0
ARC
  5
33A
100
AcDbEntity
  8
付属金具
  6
EXLTYPE2
 62
     6
100
AcDbCircle
 10
2346.725083
 20
1352.25
 30
0.0
 40
5.5
100
AcDbArc
 50
46.658242
 51
142.812374
  0
LINE
  5
33B
100
AcDbEntity
  8
付属金具
  6
EXLTYPE2
 62
     6
100
AcDbLine
 10
2337.6
 20
1348.8
 30
0.0
 11
2342.34345
 21
1355.574349
 31
0.0
  0
LINE
  5
33C
100
AcDbEntity
  8
付属金具
  6
EXLTYPE2
 62
     6
100
AcDbLine
 10
2350.5
 20
1356.0
 30
0.0
 11
2351.0
 21
1356.0
 31
0.0
  0
LINE
  5
33D
100
AcDbEntity
  8
付属金具
  6
EXLTYPE2
 62
     6
100
AcDbLine
 10
2350.5
 20
1331.0
 30
0.0
 11
2381.10588
 21
1331.0
 31
0.0
  0
ARC
  5
33E
100
AcDbEntity
  8
付属金具
  6
EXLTYPE2
 62
     6
100
AcDbCircle
 10
2363.25
 20
1372.2
 30
0.0
 40
11.0
100
AcDbArc
 50
146.944269
 51
213.055731
  0
LINE
  5
33F
100
AcDbEntity
  8
付属金具
  6
EXLTYPE2
 62
     6
100
AcDbLine
 10
2354.030456
 20
1378.2
 30
0.0
 11
2375.969544
 21
1378.2
 31
0.0
  0
ARC
  5
340
100
AcDbEntity
  8
付属金具
  6
EXLTYPE2
 62
     6
100
AcDbCircle
 10
2366.75
 20
1372.2
 30
0.0
 40
11.0
100
AcDbArc
 50
326.944269
 51
33.055731
  0
LINE
  5
341
100
AcDbEntity
  8
付属金具
  6
EXLTYPE2
 62
     6
100
AcDbLine
 10
2354.5
 20
1359.5
 30
0.0
 11
2354.5
 21
1366.2
 31
0.0
  0
LINE
  5
342
100
AcDbEntity
  8
付属金具
  6
EXLTYPE2
 62
     6
100
AcDbLine
 10
2375.5
 20
1359.5
 30
0.0
 11
2375.5
 21
1366.2
 31
0.0
  0
LINE
  5
343
100
AcDbEntity
  8
付属金具
  6
EXLTYPE2
 62
     6
100
AcDbLine
 10
2342.34345
 20
1355.574349
 30
0.0
 11
2342.34345
 21
1331.425651
 31
0.0
  0
LINE
  5
344
100
AcDbEntity
  8
付属金具
  6
EXLTYPE2
 62
     6
100
AcDbLine
 10
2375.969544
 20
1366.2
 30
0.0
 11
2354.030456
 21
1366.2
 31
0.0
  0
LINE
  5
345
100
AcDbEntity
  8
付属金具
  6
CONTINUOUS
 62
     6
100
AcDbLine
 10
2332.0
 20
1348.25
 30
0.0
 11
2332.0
 21
1338.75
 31
0.0
  0
LINE
  5
346
100
AcDbEntity
  8
付属金具
  6
CONTINUOUS
 62
     6
100
AcDbLine
 10
2332.0
 20
1348.25
 30
0.0
 11
2337.6
 21
1348.25
 31
0.0
  0
LINE
  5
347
100
AcDbEntity
  8
付属金具
  6
CONTINUOUS
 62
     6
100
AcDbLine
 10
2332.0
 20
1338.75
 30
0.0
 11
2337.6
 21
1338.75
 31
0.0
  0
LINE
  5
348
100
AcDbEntity
  8
付属金具
  6
EXLTYPE2
 62
     6
100
AcDbLine
 10
2337.6
 20
1338.2
 30
0.0
 11
2337.6
 21
1348.8
 31
0.0
  0
LINE
  5
349
100
AcDbEntity
  8
付属金具
  6
CONTINUOUS
 62
     6
100
AcDbLine
 10
2326.9
 20
1343.5
 30
0.0
 11
2473.0
 21
1343.5
 31
0.0
  0
LINE
  5
34A
100
AcDbEntity
  8
付属金具
  6
EXLTYPE2
 62
     6
100
AcDbLine
 10
2358.65
 20
1378.2
 30
0.0
 11
2358.65
 21
1405.726497
 31
0.0
  0
LINE
  5
34B
100
AcDbEntity
  8
付属金具
  6
EXLTYPE2
 62
     6
100
AcDbLine
 10
2371.35
 20
1378.2
 30
0.0
 11
2371.35
 21
1405.273503
 31
0.0
  0
LINE
  5
34C
100
AcDbEntity
  8
付属金具
  6
EXLTYPE2
 62
     6
100
AcDbLine
 10
2376.35
 20
1475.273503
 30
0.0
 11
2371.35
 21
1405.273503
 31
0.0
  0
LINE
  5
34D
100
AcDbEntity
  8
付属金具
  6
EXLTYPE2
 62
     6
100
AcDbLine
 10
2363.65
 20
1475.726497
 30
0.0
 11
2358.65
 21
1405.726497
 31
0.0
  0
LINE
  5
34E
100
AcDbEntity
  8
付属金具
  6
EXLTYPE2
 62
     6
100
AcDbLine
 10
2363.65
 20
1504.241961
 30
0.0
 11
2363.65
 21
1475.726497
 31
0.0
  0
LINE
  5
34F
100
AcDbEntity
  8
付属金具
  6
EXLTYPE2
 62
     6
100
AcDbLine
 10
2376.35
 20
1503.282103
 30
0.0
 11
2376.35
 21
1475.273503
 31
0.0
  0
LINE
  5
350
100
AcDbEntity
  8
付属金具
  6
EXLTYPE2
 62
     6
100
AcDbLine
 10
1001.35
 20
1378.2
 30
0.0
 11
1001.35
 21
1406.558333
 31
0.0
  0
LINE
  5
351
100
AcDbEntity
  8
付属金具
  6
EXLTYPE2
 62
     6
100
AcDbLine
 10
988.65
 20
1378.2
 30
0.0
 11
988.65
 21
1404.441667
 31
0.0
  0
LINE
  5
352
100
AcDbEntity
  8
付属金具
  6
CONTINUOUS
 62
     6
100
AcDbLine
 10
1008.0
 20
1337.663691
 30
0.0
 11
1008.0
 21
1349.336309
 31
0.0
  0
LINE
  5
353
100
AcDbEntity
  8
付属金具
  6
CONTINUOUS
 62
     6
100
AcDbLine
 10
993.554392
 20
1357.676485
 30
0.0
 11
983.445608
 21
1351.840176
 31
0.0
  0
LINE
  5
354
100
AcDbEntity
  8
付属金具
  6
CONTINUOUS
 62
     6
100
AcDbLine
 10
983.445608
 20
1335.159824
 30
0.0
 11
993.554392
 21
1329.323515
 31
0.0
  0
ARC
  5
355
100
AcDbEntity
  8
付属金具
  6
CONTINUOUS
 62
     6
100
AcDbCircle
 10
995.0
 20
1343.5
 30
0.0
 40
14.25
100
AcDbArc
 50
264.177545
 51
275.822455
  0
ARC
  5
356
100
AcDbEntity
  8
付属金具
  6
CONTINUOUS
 62
     6
100
AcDbCircle
 10
995.0
 20
1343.5
 30
0.0
 40
14.25
100
AcDbArc
 50
324.177545
 51
335.822455
  0
ARC
  5
357
100
AcDbEntity
  8
付属金具
  6
CONTINUOUS
 62
     6
100
AcDbCircle
 10
995.0
 20
1343.5
 30
0.0
 40
14.25
100
AcDbArc
 50
24.177545
 51
35.822455
  0
ARC
  5
358
100
AcDbEntity
  8
付属金具
  6
CONTINUOUS
 62
     6
100
AcDbCircle
 10
995.0
 20
1343.5
 30
0.0
 40
14.25
100
AcDbArc
 50
84.177545
 51
95.822455
  0
ARC
  5
359
100
AcDbEntity
  8
付属金具
  6
CONTINUOUS
 62
     6
100
AcDbCircle
 10
995.0
 20
1343.5
 30
0.0
 40
14.25
100
AcDbArc
 50
144.177545
 51
155.822455
  0
ARC
  5
35A
100
AcDbEntity
  8
付属金具
  6
CONTINUOUS
 62
     6
100
AcDbCircle
 10
995.0
 20
1343.5
 30
0.0
 40
14.25
100
AcDbArc
 50
204.177545
 51
215.822455
  0
LINE
  5
35B
100
AcDbEntity
  8
付属金具
  6
CONTINUOUS
 62
     6
100
AcDbLine
 10
983.5
 20
1377.292887
 30
0.0
 11
983.5
 21
1367.107113
 31
0.0
  0
LINE
  5
35C
100
AcDbEntity
  8
付属金具
  6
CONTINUOUS
 62
     6
100
AcDbLine
 10
1006.5
 20
1377.292887
 30
0.0
 11
1006.5
 21
1367.107113
 31
0.0
  0
ARC
  5
35D
100
AcDbEntity
  8
付属金具
  6
CONTINUOUS
 62
     6
100
AcDbCircle
 10
993.25
 20
1372.2
 30
0.0
 40
11.0
100
AcDbArc
 50
207.580199
 51
213.055731
  0
ARC
  5
35E
100
AcDbEntity
  8
付属金具
  6
CONTINUOUS
 62
     6
100
AcDbCircle
 10
996.75
 20
1372.2
 30
0.0
 40
11.0
100
AcDbArc
 50
326.944269
 51
332.419801
  0
CIRCLE
  5
35F
100
AcDbEntity
  8
付属金具
  6
EXLTYPE2
 62
     6
100
AcDbCircle
 10
995.0
 20
1343.5
 30
0.0
 40
12.074349
  0
LINE
  5
360
100
AcDbEntity
  8
付属金具
  6
CONTINUOUS
 62
     6
100
AcDbLine
 10
984.5
 20
1366.2
 30
0.0
 11
984.5
 21
1358.358333
 31
0.0
  0
LINE
  5
361
100
AcDbEntity
  8
付属金具
  6
CONTINUOUS
 62
     6
100
AcDbLine
 10
1005.5
 20
1358.858333
 30
0.0
 11
1005.5
 21
1352.448929
 31
0.0
  0
LINE
  5
362
100
AcDbEntity
  8
付属金具
  6
EXLTYPE2
 62
     6
100
AcDbLine
 10
984.030456
 20
1366.2
 30
0.0
 11
1005.969544
 21
1366.2
 31
0.0
  0
CIRCLE
  5
363
100
AcDbEntity
  8
付属金具
  6
EXLTYPE2
 62
     6
100
AcDbCircle
 10
995.0
 20
1343.5
 30
0.0
 40
4.75
  0
ARC
  5
364
100
AcDbEntity
  8
付属金具
  6
EXLTYPE2
 62
     6
100
AcDbCircle
 10
993.25
 20
1372.2
 30
0.0
 40
11.0
100
AcDbArc
 50
146.944269
 51
152.419801
  0
ARC
  5
365
100
AcDbEntity
  8
付属金具
  6
EXLTYPE2
 62
     6
100
AcDbCircle
 10
996.75
 20
1372.2
 30
0.0
 40
11.0
100
AcDbArc
 50
27.580199
 51
33.055731
  0
LINE
  5
366
100
AcDbEntity
  8
付属金具
  6
EXLTYPE2
 62
     6
100
AcDbLine
 10
984.030456
 20
1378.2
 30
0.0
 11
1005.969544
 21
1378.2
 31
0.0
  0
LINE
  5
367
100
AcDbEntity
  8
付属金具
  6
CONTINUOUS
 62
     6
100
AcDbLine
 10
952.5
 20
1343.5
 30
0.0
 11
1037.5
 21
1343.5
 31
0.0
  0
CIRCLE
  5
368
100
AcDbEntity
  8
付属金具
  6
EXLTYPE2
 62
     6
100
AcDbCircle
 10
869.0
 20
3837.5
 30
0.0
 40
19.0
  0
CIRCLE
  5
369
100
AcDbEntity
  8
付属金具
  6
EXLTYPE2
 62
     6
100
AcDbCircle
 10
869.0
 20
3837.5
 30
0.0
 40
7.0
  0
CIRCLE
  5
36A
100
AcDbEntity
  8
付属金具
  6
EXLTYPE2
 62
     6
100
AcDbCircle
 10
869.0
 20
3837.5
 30
0.0
 40
5.0
  0
ELLIPSE
  5
36B
100
AcDbEntity
  8
付属金具
  6
EXLTYPE2
 62
     6
100
AcDbEllipse
 10
869.0
 20
3833.5
 30
0.0
 11
7.9999999999999805
 21
0.0
 31
0.0
210
0.0
220
0.0
230
1.0
 40
0.5
 41
2.2343604347081509
 42
0.9072322188816739
  0
LINE
  5
36C
100
AcDbEntity
  8
付属金具
  6
CONTINUOUS
 62
     6
100
AcDbLine
 10
979.500042
 20
3757.706017
 30
0.0
 11
979.500061
 21
3786.23282
 31
0.0
  0
LINE
  5
36D
100
AcDbEntity
  8
付属金具
  6
CONTINUOUS
 62
     6
100
AcDbLine
 10
961.749831
 20
3759.690486
 30
0.0
 11
961.749897
 21
3780.781627
 31
0.0
  0
ARC
  5
36E
100
AcDbEntity
  8
付属金具
  6
CONTINUOUS
 62
     6
100
AcDbCircle
 10
964.749827
 20
3759.690574
 30
0.0
 40
2.999996
100
AcDbArc
 50
180.001727
 51
248.427264
  0
ARC
  5
36F
100
AcDbEntity
  8
付属金具
  6
CONTINUOUS
 62
     6
100
AcDbCircle
 10
971.0
 20
3775.499871
 30
0.0
 40
20.000029
100
AcDbArc
 50
248.428515
 51
291.571368
  0
ARC
  5
370
100
AcDbEntity
  8
付属金具
  6
CONTINUOUS
 62
     6
100
AcDbCircle
 10
977.250195
 20
3759.690574
 30
0.0
 40
3.000056
100
AcDbArc
 50
291.5712
 51
359.998888
  0
LINE
  5
371
100
AcDbEntity
  8
付属金具
  6
CONTINUOUS
 62
     6
100
AcDbLine
 10
980.25023
 20
3759.690516
 30
0.0
 11
980.250237
 21
3768.672033
 31
0.0
  0
ARC
  5
372
100
AcDbEntity
  8
付属金具
  6
EXLTYPE2
 62
     6
100
AcDbCircle
 10
727.50013
 20
3786.23191
 30
0.0
 40
235.0
100
AcDbArc
 50
359.999958
 51
6.813351
  0
ARC
  5
373
100
AcDbEntity
  8
付属金具
  6
EXLTYPE2
 62
     6
100
AcDbCircle
 10
826.74997
 20
3780.781702
 30
0.0
 40
134.999924
100
AcDbArc
 50
359.999976
 51
15.195638
  0
ARC
  5
374
100
AcDbEntity
  8
付属金具
  6
EXLTYPE2
 62
     6
100
AcDbCircle
 10
1115.250173
 20
3780.782359
 30
0.0
 40
135.000095
100
AcDbArc
 50
164.804746
 51
179.999987
  0
ARC
  5
375
100
AcDbEntity
  8
付属金具
  6
EXLTYPE2
 62
     6
100
AcDbCircle
 10
1214.49987
 20
3786.23191
 30
0.0
 40
235.0
100
AcDbArc
 50
173.186649
 51
180.000042
  0
ARC
  5
376
100
AcDbEntity
  8
付属金具
  6
EXLTYPE2
 62
     6
100
AcDbCircle
 10
1003.7268
 20
3856.394827
 30
0.0
 40
15.0
100
AcDbArc
 50
192.375141
 51
227.624859
  0
ARC
  5
377
100
AcDbEntity
  8
付属金具
  6
EXLTYPE2
 62
     6
100
AcDbCircle
 10
994.935912
 20
3854.466023
 30
0.0
 40
6.0
100
AcDbArc
 50
169.773881
 51
192.375141
  0
ARC
  5
378
100
AcDbEntity
  8
付属金具
  6
EXLTYPE2
 62
     6
100
AcDbCircle
 10
997.660962
 20
3849.746096
 30
0.0
 40
6.0
100
AcDbArc
 50
227.624859
 51
250.226119
  0
ARC
  5
379
100
AcDbEntity
  8
付属金具
  6
EXLTYPE2
 62
     6
100
AcDbCircle
 10
971.0
 20
3872.479499
 30
0.0
 40
15.0
100
AcDbArc
 50
265.150257
 51
274.849743
  0
ARC
  5
37A
100
AcDbEntity
  8
付属金具
  6
EXLTYPE2
 62
     6
100
AcDbCircle
 10
971.0
 20
3875.289653
 30
0.0
 40
15.0
100
AcDbArc
 50
252.375141
 51
287.624859
  0
ARC
  5
37B
100
AcDbEntity
  8
付属金具
  6
EXLTYPE2
 62
     6
100
AcDbCircle
 10
968.274949
 20
3866.712119
 30
0.0
 40
6.0
100
AcDbArc
 50
229.773881
 51
252.375141
  0
ARC
  5
37C
100
AcDbEntity
  8
付属金具
  6
EXLTYPE2
 62
     6
100
AcDbCircle
 10
973.725051
 20
3866.712119
 30
0.0
 40
6.0
100
AcDbArc
 50
287.624859
 51
310.226119
  0
ARC
  5
37D
100
AcDbEntity
  8
付属金具
  6
EXLTYPE2
 62
     6
100
AcDbCircle
 10
971.760886
 20
3863.51172
 30
0.0
 40
6.0
100
AcDbArc
 50
274.849743
 51
346.696926
  0
ARC
  5
37E
100
AcDbEntity
  8
付属金具
  6
EXLTYPE2
 62
     6
100
AcDbCircle
 10
970.239114
 20
3863.51172
 30
0.0
 40
6.0
100
AcDbArc
 50
193.303074
 51
265.150257
  0
ARC
  5
37F
100
AcDbEntity
  8
付属金具
  6
EXLTYPE2
 62
     6
100
AcDbCircle
 10
940.706865
 20
3854.989749
 30
0.0
 40
15.0
100
AcDbArc
 50
325.150257
 51
334.849743
  0
ARC
  5
380
100
AcDbEntity
  8
付属金具
  6
EXLTYPE2
 62
     6
100
AcDbCircle
 10
938.2732
 20
3856.394827
 30
0.0
 40
15.0
100
AcDbArc
 50
312.375141
 51
347.624859
  0
ARC
  5
381
100
AcDbEntity
  8
付属金具
  6
EXLTYPE2
 62
     6
100
AcDbCircle
 10
944.339038
 20
3849.746096
 30
0.0
 40
6.0
100
AcDbArc
 50
289.773881
 51
312.375141
  0
ARC
  5
382
100
AcDbEntity
  8
付属金具
  6
EXLTYPE2
 62
     6
100
AcDbCircle
 10
947.064088
 20
3854.466023
 30
0.0
 40
6.0
100
AcDbArc
 50
347.624859
 51
10.226119
  0
ARC
  5
383
100
AcDbEntity
  8
付属金具
  6
EXLTYPE2
 62
     6
100
AcDbCircle
 10
948.853633
 20
3851.164807
 30
0.0
 40
6.0
100
AcDbArc
 50
334.849743
 51
46.696926
  0
ARC
  5
384
100
AcDbEntity
  8
付属金具
  6
EXLTYPE2
 62
     6
100
AcDbCircle
 10
948.092746
 20
3849.846913
 30
0.0
 40
6.0
100
AcDbArc
 50
253.303074
 51
325.150257
  0
ARC
  5
385
100
AcDbEntity
  8
付属金具
  6
EXLTYPE2
 62
     6
100
AcDbCircle
 10
940.706865
 20
3820.010251
 30
0.0
 40
15.0
100
AcDbArc
 50
25.150257
 51
34.849743
  0
ARC
  5
386
100
AcDbEntity
  8
付属金具
  6
EXLTYPE2
 62
     6
100
AcDbCircle
 10
938.2732
 20
3818.605173
 30
0.0
 40
15.0
100
AcDbArc
 50
12.375141
 51
47.624859
  0
ARC
  5
387
100
AcDbEntity
  8
付属金具
  6
EXLTYPE2
 62
     6
100
AcDbCircle
 10
947.064088
 20
3820.533977
 30
0.0
 40
6.0
100
AcDbArc
 50
349.773881
 51
12.375141
  0
ARC
  5
388
100
AcDbEntity
  8
付属金具
  6
EXLTYPE2
 62
     6
100
AcDbCircle
 10
944.339038
 20
3825.253904
 30
0.0
 40
6.0
100
AcDbArc
 50
47.624859
 51
70.226119
  0
ARC
  5
389
100
AcDbEntity
  8
付属金具
  6
EXLTYPE2
 62
     6
100
AcDbCircle
 10
948.092746
 20
3825.153087
 30
0.0
 40
6.0
100
AcDbArc
 50
34.849743
 51
106.696926
  0
ARC
  5
38A
100
AcDbEntity
  8
付属金具
  6
EXLTYPE2
 62
     6
100
AcDbCircle
 10
948.853633
 20
3823.835193
 30
0.0
 40
6.0
100
AcDbArc
 50
313.303074
 51
25.150257
  0
ARC
  5
38B
100
AcDbEntity
  8
付属金具
  6
EXLTYPE2
 62
     6
100
AcDbCircle
 10
971.0
 20
3802.520501
 30
0.0
 40
15.0
100
AcDbArc
 50
85.150257
 51
94.849743
  0
ARC
  5
38C
100
AcDbEntity
  8
付属金具
  6
EXLTYPE2
 62
     6
100
AcDbCircle
 10
971.0
 20
3799.710347
 30
0.0
 40
15.0
100
AcDbArc
 50
72.375141
 51
107.624859
  0
ARC
  5
38D
100
AcDbEntity
  8
付属金具
  6
EXLTYPE2
 62
     6
100
AcDbCircle
 10
973.725051
 20
3808.287881
 30
0.0
 40
6.0
100
AcDbArc
 50
49.773881
 51
72.375141
  0
ARC
  5
38E
100
AcDbEntity
  8
付属金具
  6
EXLTYPE2
 62
     6
100
AcDbCircle
 10
968.274949
 20
3808.287881
 30
0.0
 40
6.0
100
AcDbArc
 50
107.624859
 51
130.226119
  0
ARC
  5
38F
100
AcDbEntity
  8
付属金具
  6
EXLTYPE2
 62
     6
100
AcDbCircle
 10
970.239114
 20
3811.48828
 30
0.0
 40
6.0
100
AcDbArc
 50
94.849743
 51
166.696926
  0
ARC
  5
390
100
AcDbEntity
  8
付属金具
  6
EXLTYPE2
 62
     6
100
AcDbCircle
 10
971.760886
 20
3811.48828
 30
0.0
 40
6.0
100
AcDbArc
 50
13.303074
 51
85.150257
  0
ARC
  5
391
100
AcDbEntity
  8
付属金具
  6
EXLTYPE2
 62
     6
100
AcDbCircle
 10
1001.293135
 20
3820.010251
 30
0.0
 40
15.0
100
AcDbArc
 50
145.150257
 51
154.849743
  0
ARC
  5
392
100
AcDbEntity
  8
付属金具
  6
EXLTYPE2
 62
     6
100
AcDbCircle
 10
1003.7268
 20
3818.605173
 30
0.0
 40
15.0
100
AcDbArc
 50
132.375141
 51
167.624859
  0
ARC
  5
393
100
AcDbEntity
  8
付属金具
  6
EXLTYPE2
 62
     6
100
AcDbCircle
 10
997.660962
 20
3825.253904
 30
0.0
 40
6.0
100
AcDbArc
 50
109.773881
 51
132.375141
  0
ARC
  5
394
100
AcDbEntity
  8
付属金具
  6
EXLTYPE2
 62
     6
100
AcDbCircle
 10
994.935912
 20
3820.533977
 30
0.0
 40
6.0
100
AcDbArc
 50
167.624859
 51
190.226119
  0
ARC
  5
395
100
AcDbEntity
  8
付属金具
  6
EXLTYPE2
 62
     6
100
AcDbCircle
 10
993.146367
 20
3823.835193
 30
0.0
 40
6.0
100
AcDbArc
 50
154.849743
 51
226.696926
  0
ARC
  5
396
100
AcDbEntity
  8
付属金具
  6
EXLTYPE2
 62
     6
100
AcDbCircle
 10
993.907254
 20
3825.153087
 30
0.0
 40
6.0
100
AcDbArc
 50
73.303074
 51
145.150257
  0
ARC
  5
397
100
AcDbEntity
  8
付属金具
  6
EXLTYPE2
 62
     6
100
AcDbCircle
 10
1001.293135
 20
3854.989749
 30
0.0
 40
15.0
100
AcDbArc
 50
205.150257
 51
214.849743
  0
ARC
  5
398
100
AcDbEntity
  8
付属金具
  6
EXLTYPE2
 62
     6
100
AcDbCircle
 10
1003.7268
 20
3856.394827
 30
0.0
 40
15.0
100
AcDbArc
 50
192.375141
 51
227.624859
  0
ARC
  5
399
100
AcDbEntity
  8
付属金具
  6
EXLTYPE2
 62
     6
100
AcDbCircle
 10
994.935912
 20
3854.466023
 30
0.0
 40
6.0
100
AcDbArc
 50
169.773881
 51
192.375141
  0
ARC
  5
39A
100
AcDbEntity
  8
付属金具
  6
EXLTYPE2
 62
     6
100
AcDbCircle
 10
997.660962
 20
3849.746096
 30
0.0
 40
6.0
100
AcDbArc
 50
227.624859
 51
250.226119
  0
ARC
  5
39B
100
AcDbEntity
  8
付属金具
  6
EXLTYPE2
 62
     6
100
AcDbCircle
 10
993.907254
 20
3849.846913
 30
0.0
 40
6.0
100
AcDbArc
 50
214.849743
 51
286.696926
  0
ARC
  5
39C
100
AcDbEntity
  8
付属金具
  6
EXLTYPE2
 62
     6
100
AcDbCircle
 10
993.146367
 20
3851.164807
 30
0.0
 40
6.0
100
AcDbArc
 50
133.303074
 51
205.150257
  0
ARC
  5
39D
100
AcDbEntity
  8
付属金具
  6
EXLTYPE2
 62
     6
100
AcDbCircle
 10
971.0
 20
3837.5
 30
0.0
 40
25.5
100
AcDbArc
 50
105.0
 51
135.0
  0
ARC
  5
39E
100
AcDbEntity
  8
付属金具
  6
EXLTYPE2
 62
     6
100
AcDbCircle
 10
971.0
 20
3837.5
 30
0.0
 40
25.5
100
AcDbArc
 50
165.0
 51
195.0
  0
ARC
  5
39F
100
AcDbEntity
  8
付属金具
  6
EXLTYPE2
 62
     6
100
AcDbCircle
 10
971.0
 20
3837.5
 30
0.0
 40
25.5
100
AcDbArc
 50
225.0
 51
255.0
  0
ARC
  5
3A0
100
AcDbEntity
  8
付属金具
  6
EXLTYPE2
 62
     6
100
AcDbCircle
 10
971.0
 20
3837.5
 30
0.0
 40
25.5
100
AcDbArc
 50
285.0
 51
315.0
  0
ARC
  5
3A1
100
AcDbEntity
  8
付属金具
  6
EXLTYPE2
 62
     6
100
AcDbCircle
 10
971.0
 20
3837.5
 30
0.0
 40
25.5
100
AcDbArc
 50
345.0
 51
15.0
  0
ARC
  5
3A2
100
AcDbEntity
  8
付属金具
  6
EXLTYPE2
 62
     6
100
AcDbCircle
 10
971.0
 20
3837.5
 30
0.0
 40
25.5
100
AcDbArc
 50
45.0
 51
75.0
  0
CIRCLE
  5
3A3
100
AcDbEntity
  8
付属金具
  6
EXLTYPE2
 62
     6
100
AcDbCircle
 10
971.0
 20
3837.5
 30
0.0
 40
13.0
  0
ARC
  5
3A4
100
AcDbEntity
  8
付属金具
  6
EXLTYPE2
 62
     6
100
AcDbCircle
 10
993.146367
 20
3851.164807
 30
0.0
 40
6.0
100
AcDbArc
 50
133.303074
 51
205.150257
  0
ARC
  5
3A5
100
AcDbEntity
  8
付属金具
  6
EXLTYPE2
 62
     6
100
AcDbCircle
 10
1001.293135
 20
3854.989749
 30
0.0
 40
15.0
100
AcDbArc
 50
205.150257
 51
214.849743
  0
ARC
  5
3A6
100
AcDbEntity
  8
付属金具
  6
EXLTYPE2
 62
     6
100
AcDbCircle
 10
993.907254
 20
3849.846913
 30
0.0
 40
6.0
100
AcDbArc
 50
214.849743
 51
286.696926
  0
LINE
  5
3A7
100
AcDbEntity
  8
付属金具
  6
EXLTYPE2
 62
     6
100
AcDbLine
 10
980.250237
 20
3768.672033
 30
0.0
 11
980.250246
 21
3780.782434
 31
0.0
  0
LINE
  5
3A8
100
AcDbEntity
  8
付属金具
  6
EXLTYPE2
 62
     6
100
AcDbLine
 10
962.500009
 20
3757.706129
 30
0.0
 11
962.500049
 21
3786.231675
 31
0.0
  0
ARC
  5
3A9
100
AcDbEntity
  8
付属金具
  6
CONTINUOUS
 62
     6
100
AcDbCircle
 10
869.0
 20
1151.5
 30
0.0
 40
500.0
100
AcDbArc
 50
87.93277
 51
92.06723
  0
ARC
  5
3AA
100
AcDbEntity
  8
付属金具
  6
CONTINUOUS
 62
     6
100
AcDbCircle
 10
851.0
 20
1650.175245
 30
0.0
 40
1.0
100
AcDbArc
 50
92.06723
 51
180.0
  0
ARC
  5
3AB
100
AcDbEntity
  8
付属金具
  6
CONTINUOUS
 62
     6
100
AcDbCircle
 10
887.0
 20
1650.175245
 30
0.0
 40
1.0
100
AcDbArc
 50
0.0
 51
87.93277
  0
LINE
  5
3AC
100
AcDbEntity
  8
付属金具
  6
CONTINUOUS
 62
     6
100
AcDbLine
 10
850.0
 20
1650.175245
 30
0.0
 11
850.0
 21
1648.5
 31
0.0
  0
LINE
  5
3AD
100
AcDbEntity
  8
付属金具
  6
CONTINUOUS
 62
     6
100
AcDbLine
 10
888.0
 20
1650.175245
 30
0.0
 11
888.0
 21
1648.5
 31
0.0
  0
LINE
  5
3AE
100
AcDbEntity
  8
付属金具
  6
CONTINUOUS
 62
     6
100
AcDbLine
 10
862.0
 20
1652.5
 30
0.0
 11
876.0
 21
1652.5
 31
0.0
  0
ARC
  5
3AF
100
AcDbEntity
  8
付属金具
  6
CONTINUOUS
 62
     6
100
AcDbCircle
 10
860.727386
 20
1658.363485
 30
0.0
 40
6.0
100
AcDbArc
 50
282.245579
 51
331.494216
  0
ARC
  5
3B0
100
AcDbEntity
  8
付属金具
  6
CONTINUOUS
 62
     6
100
AcDbCircle
 10
877.272614
 20
1658.363485
 30
0.0
 40
6.0
100
AcDbArc
 50
208.505784
 51
257.754421
  0
LINE
  5
3B1
100
AcDbEntity
  8
付属金具
  6
CONTINUOUS
 62
     6
100
AcDbLine
 10
866.0
 20
1655.5
 30
0.0
 11
872.0
 21
1655.5
 31
0.0
  0
ARC
  5
3B2
100
AcDbEntity
  8
付属金具
  6
CONTINUOUS
 62
     6
100
AcDbCircle
 10
869.0
 20
1659.5
 30
0.0
 40
5.0
100
AcDbArc
 50
306.869898
 51
233.130102
  0
ELLIPSE
  5
3B3
100
AcDbEntity
  8
付属金具
  6
CONTINUOUS
 62
     6
100
AcDbEllipse
 10
869.0
 20
1655.5
 30
0.0
 11
7.9999999999999805
 21
0.0
 31
0.0
210
0.0
220
0.0
230
1.0
 40
0.5
 41
2.2343604347081172
 42
0.9072322188817101
  0
LINE
  5
3B4
100
AcDbEntity
  8
付属金具
  6
CONTINUOUS
 62
     6
100
AcDbLine
 10
862.0
 20
1652.5
 30
0.0
 11
862.0
 21
1651.450998
 31
0.0
  0
LINE
  5
3B5
100
AcDbEntity
  8
付属金具
  6
CONTINUOUS
 62
     6
100
AcDbLine
 10
876.0
 20
1652.5
 30
0.0
 11
876.0
 21
1651.450998
 31
0.0
  0
LINE
  5
3B6
100
AcDbEntity
  8
付属金具
  6
CONTINUOUS
 62
     6
100
AcDbLine
 10
959.0
 20
1687.8
 30
0.0
 11
959.0
 21
1686.0
 31
0.0
  0
LINE
  5
3B7
100
AcDbEntity
  8
付属金具
  6
CONTINUOUS
 62
     6
100
AcDbLine
 10
983.0
 20
1687.8
 30
0.0
 11
983.0
 21
1686.0
 31
0.0
  0
LINE
  5
3B8
100
AcDbEntity
  8
付属金具
  6
CONTINUOUS
 62
     6
100
AcDbLine
 10
951.0
 20
1648.5
 30
0.0
 11
959.0
 21
1686.0
 31
0.0
  0
LINE
  5
3B9
100
AcDbEntity
  8
付属金具
  6
CONTINUOUS
 62
     6
100
AcDbLine
 10
983.0
 20
1686.0
 30
0.0
 11
991.0
 21
1648.5
 31
0.0
  0
LINE
  5
3BA
100
AcDbEntity
  8
付属金具
  6
CONTINUOUS
 62
     6
100
AcDbLine
 10
980.0
 20
1688.28129
 30
0.0
 11
980.0
 21
1672.598711
 31
0.0
  0
LINE
  5
3BB
100
AcDbEntity
  8
付属金具
  6
CONTINUOUS
 62
     6
100
AcDbLine
 10
962.0
 20
1688.28129
 30
0.0
 11
962.0
 21
1672.598711
 31
0.0
  0
ELLIPSE
  5
3BC
100
AcDbEntity
  8
付属金具
  6
CONTINUOUS
 62
     6
100
AcDbEllipse
 10
971.0
 20
1674.401289
 30
0.0
 11
8.9999999999999876
 21
0.0
 31
0.0
210
0.0
220
0.0
230
1.0
 40
0.108262
 41
0.0
 42
3.1415926535897931
  0
ELLIPSE
  5
3BD
100
AcDbEntity
  8
付属金具
  6
CONTINUOUS
 62
     6
100
AcDbEllipse
 10
971.0
 20
1672.598711
 30
0.0
 11
8.9999999999999876
 21
0.0
 31
0.0
210
0.0
220
0.0
230
1.0
 40
0.108262
 41
3.1415926535897931
 42
0.0
  0
ARC
  5
3BE
100
AcDbEntity
  8
付属金具
  6
CONTINUOUS
 62
     6
100
AcDbCircle
 10
971.0
 20
1672.375316
 30
0.0
 40
20.0
100
AcDbArc
 50
69.332684
 51
110.667316
  0
ARC
  5
3BF
100
AcDbEntity
  8
付属金具
  6
CONTINUOUS
 62
     6
100
AcDbCircle
 10
965.0
 20
1688.28129
 30
0.0
 40
3.0
100
AcDbArc
 50
110.667316
 51
180.0
  0
ARC
  5
3C0
100
AcDbEntity
  8
付属金具
  6
CONTINUOUS
 62
     6
100
AcDbCircle
 10
977.0
 20
1688.28129
 30
0.0
 40
3.0
100
AcDbArc
 50
0.0
 51
69.332684
  0
LINE
  5
3C1
100
AcDbEntity
  8
付属金具
  6
CONTINUOUS
 62
     6
100
AcDbLine
 10
959.429247
 20
1679.293172
 30
0.0
 11
962.106452
 21
1689.073362
 31
0.0
  0
LINE
  5
3C2
100
AcDbEntity
  8
付属金具
  6
CONTINUOUS
 62
     6
100
AcDbLine
 10
982.570753
 20
1679.293172
 30
0.0
 11
979.893548
 21
1689.073362
 31
0.0
  0
ARC
  5
3C3
100
AcDbEntity
  8
付属金具
  6
CONTINUOUS
 62
     6
100
AcDbCircle
 10
865.372259
 20
1700.15162
 30
0.0
 40
100.0
100
AcDbArc
 50
332.191608
 51
345.078031
  0
ARC
  5
3C4
100
AcDbEntity
  8
付属金具
  6
CONTINUOUS
 62
     6
100
AcDbCircle
 10
1076.627741
 20
1700.15162
 30
0.0
 40
100.0
100
AcDbArc
 50
194.921969
 51
207.808392
  0
LINE
  5
3C5
100
AcDbEntity
  8
付属金具
  6
CONTINUOUS
 62
     6
100
AcDbLine
 10
958.5
 20
1733.8
 30
0.0
 11
983.5
 21
1733.8
 31
0.0
  0
LINE
  5
3C6
100
AcDbEntity
  8
付属金具
  6
CONTINUOUS
 62
     6
100
AcDbLine
 10
952.25
 20
1690.368401
 30
0.0
 11
952.25
 21
1687.8
 31
0.0
  0
LINE
  5
3C7
100
AcDbEntity
  8
付属金具
  6
CONTINUOUS
 62
     6
100
AcDbLine
 10
989.75
 20
1690.368401
 30
0.0
 11
989.75
 21
1687.8
 31
0.0
  0
ARC
  5
3C8
100
AcDbEntity
  8
付属金具
  6
CONTINUOUS
 62
     6
100
AcDbCircle
 10
957.0
 20
1723.619982
 30
0.0
 40
10.0
100
AcDbArc
 50
95.73917
 51
171.542582
  0
ARC
  5
3C9
100
AcDbEntity
  8
付属金具
  6
CONTINUOUS
 62
     6
100
AcDbCircle
 10
954.5
 20
1700.514213
 30
0.0
 40
9.0
100
AcDbArc
 50
181.022179
 51
247.271577
  0
ARC
  5
3CA
100
AcDbEntity
  8
付属金具
  6
CONTINUOUS
 62
     6
100
AcDbCircle
 10
1095.477562
 20
1703.029575
 30
0.0
 40
150.0
100
AcDbArc
 50
171.542582
 51
181.022179
  0
ARC
  5
3CB
100
AcDbEntity
  8
付属金具
  6
CONTINUOUS
 62
     6
100
AcDbCircle
 10
846.522438
 20
1703.029575
 30
0.0
 40
150.0
100
AcDbArc
 50
358.977821
 51
8.457418
  0
ARC
  5
3CC
100
AcDbEntity
  8
付属金具
  6
CONTINUOUS
 62
     6
100
AcDbCircle
 10
985.0
 20
1723.619982
 30
0.0
 40
10.0
100
AcDbArc
 50
8.457418
 51
84.26083
  0
ARC
  5
3CD
100
AcDbEntity
  8
付属金具
  6
CONTINUOUS
 62
     6
100
AcDbCircle
 10
987.5
 20
1700.514213
 30
0.0
 40
9.0
100
AcDbArc
 50
292.728423
 51
358.977821
  0
ARC
  5
3CE
100
AcDbEntity
  8
付属金具
  6
CONTINUOUS
 62
     6
100
AcDbCircle
 10
971.0
 20
1584.321741
 30
0.0
 40
150.0
100
AcDbArc
 50
84.26083
 51
85.219808
  0
ARC
  5
3CF
100
AcDbEntity
  8
付属金具
  6
CONTINUOUS
 62
     6
100
AcDbCircle
 10
971.0
 20
1584.321741
 30
0.0
 40
150.0
100
AcDbArc
 50
94.780192
 51
95.73917
  0
ARC
  5
3D0
100
AcDbEntity
  8
付属金具
  6
CONTINUOUS
 62
     6
100
AcDbCircle
 10
950.25
 20
1690.368401
 30
0.0
 40
2.0
100
AcDbArc
 50
0.0
 51
67.271577
  0
ARC
  5
3D1
100
AcDbEntity
  8
付属金具
  6
CONTINUOUS
 62
     6
100
AcDbCircle
 10
991.75
 20
1690.368401
 30
0.0
 40
2.0
100
AcDbArc
 50
112.728423
 51
180.0
  0
ARC
  5
3D2
100
AcDbEntity
  8
付属金具
  6
CONTINUOUS
 62
     6
100
AcDbCircle
 10
971.0
 20
1725.035431
 30
0.0
 40
6.599886
100
AcDbArc
 50
0.0
 51
180.0
  0
ARC
  5
3D3
100
AcDbEntity
  8
付属金具
  6
CONTINUOUS
 62
     6
100
AcDbCircle
 10
971.0
 20
1700.405894
 30
0.0
 40
6.599886
100
AcDbArc
 50
180.0
 51
0.0
  0
ARC
  5
3D4
100
AcDbEntity
  8
付属金具
  6
CONTINUOUS
 62
     6
100
AcDbCircle
 10
1095.477562
 20
1703.029575
 30
0.0
 40
149.131109
100
AcDbArc
 50
171.542582
 51
181.022179
  0
ARC
  5
3D5
100
AcDbEntity
  8
付属金具
  6
CONTINUOUS
 62
     6
100
AcDbCircle
 10
957.0
 20
1723.619982
 30
0.0
 40
9.131109
100
AcDbArc
 50
119.730222
 51
171.542582
  0
ARC
  5
3D6
100
AcDbEntity
  8
付属金具
  6
CONTINUOUS
 62
     6
100
AcDbCircle
 10
954.5
 20
1700.514213
 30
0.0
 40
8.131109
100
AcDbArc
 50
181.022179
 51
229.418177
  0
ARC
  5
3D7
100
AcDbEntity
  8
付属金具
  6
CONTINUOUS
 62
     6
100
AcDbCircle
 10
-46.548839
 20
1730.167066
 30
0.0
 40
1000.0
100
AcDbArc
 50
358.038861
 51
0.046654
  0
ARC
  5
3D8
100
AcDbEntity
  8
付属金具
  6
CONTINUOUS
 62
     6
100
AcDbCircle
 10
950.651513
 20
1696.021222
 30
0.0
 40
2.215213
100
AcDbArc
 50
229.418177
 51
358.038861
  0
ARC
  5
3D9
100
AcDbEntity
  8
付属金具
  6
CONTINUOUS
 62
     6
100
AcDbCircle
 10
952.796315
 20
1730.980802
 30
0.0
 40
0.654515
100
AcDbArc
 50
0.046654
 51
119.730222
  0
LINE
  5
3DA
100
AcDbEntity
  8
付属金具
  6
CONTINUOUS
 62
     6
100
AcDbLine
 10
964.400114
 20
1725.035431
 30
0.0
 11
964.400114
 21
1700.405894
 31
0.0
  0
LINE
  5
3DB
100
AcDbEntity
  8
付属金具
  6
CONTINUOUS
 62
     6
100
AcDbLine
 10
977.599886
 20
1725.035431
 30
0.0
 11
977.599886
 21
1700.405894
 31
0.0
  0
ARC
  5
3DC
100
AcDbEntity
  8
付属金具
  6
CONTINUOUS
 62
     6
100
AcDbCircle
 10
846.522438
 20
1703.029575
 30
0.0
 40
149.131109
100
AcDbArc
 50
358.977821
 51
8.457418
  0
ARC
  5
3DD
100
AcDbEntity
  8
付属金具
  6
CONTINUOUS
 62
     6
100
AcDbCircle
 10
991.348487
 20
1696.021222
 30
0.0
 40
2.215213
100
AcDbArc
 50
181.961139
 51
310.581823
  0
ARC
  5
3DE
100
AcDbEntity
  8
付属金具
  6
CONTINUOUS
 62
     6
100
AcDbCircle
 10
989.203685
 20
1730.980802
 30
0.0
 40
0.654515
100
AcDbArc
 50
60.269778
 51
179.953346
  0
ARC
  5
3DF
100
AcDbEntity
  8
付属金具
  6
CONTINUOUS
 62
     6
100
AcDbCircle
 10
985.0
 20
1723.619982
 30
0.0
 40
9.131109
100
AcDbArc
 50
8.457418
 51
60.269778
  0
ARC
  5
3E0
100
AcDbEntity
  8
付属金具
  6
CONTINUOUS
 62
     6
100
AcDbCircle
 10
987.5
 20
1700.514213
 30
0.0
 40
8.131109
100
AcDbArc
 50
310.581823
 51
358.977821
  0
ARC
  5
3E1
100
AcDbEntity
  8
付属金具
  6
CONTINUOUS
 62
     6
100
AcDbCircle
 10
1988.548839
 20
1730.167066
 30
0.0
 40
1000.0
100
AcDbArc
 50
179.953346
 51
181.961139
  0
LINE
  5
3E2
100
AcDbEntity
  8
付属金具
  6
CONTINUOUS
 62
     6
100
AcDbLine
 10
958.0
 20
1735.235605
 30
0.0
 11
958.0
 21
1733.757346
 31
0.0
  0
LINE
  5
3E3
100
AcDbEntity
  8
付属金具
  6
CONTINUOUS
 62
     6
100
AcDbLine
 10
984.0
 20
1735.235605
 30
0.0
 11
984.0
 21
1733.757346
 31
0.0
  0
ARC
  5
3E4
100
AcDbEntity
  8
付属金具
  6
CONTINUOUS
 62
     6
100
AcDbCircle
 10
971.0
 20
1585.8
 30
0.0
 40
150.0
100
AcDbArc
 50
85.028128
 51
94.971872
  0
LINE
  5
3E5
100
AcDbEntity
  8
付属金具
  6
CONTINUOUS
 62
     6
100
AcDbLine
 10
952.25
 20
1687.8
 30
0.0
 11
961.757885
 21
1687.8
 31
0.0
  0
LINE
  5
3E6
100
AcDbEntity
  8
付属金具
  6
CONTINUOUS
 62
     6
100
AcDbLine
 10
980.242115
 20
1687.8
 30
0.0
 11
989.75
 21
1687.8
 31
0.0
  0
LINE
  5
3E7
100
AcDbEntity
  8
付属金具
  6
CONTINUOUS
 62
     6
100
AcDbLine
 10
952.25
 20
1691.8
 30
0.0
 11
966.237474
 21
1691.8
 31
0.0
  0
LINE
  5
3E8
100
AcDbEntity
  8
付属金具
  6
CONTINUOUS
 62
     6
100
AcDbLine
 10
975.762526
 20
1691.8
 30
0.0
 11
989.75
 21
1691.8
 31
0.0
  0
LINE
  5
3E9
100
AcDbEntity
  8
付属金具
  6
CONTINUOUS
 62
     6
100
AcDbLine
 10
2358.0
 20
1687.8
 30
0.0
 11
2358.0
 21
1686.0
 31
0.0
  0
LINE
  5
3EA
100
AcDbEntity
  8
付属金具
  6
CONTINUOUS
 62
     6
100
AcDbLine
 10
2382.0
 20
1687.8
 30
0.0
 11
2382.0
 21
1686.0
 31
0.0
  0
LINE
  5
3EB
100
AcDbEntity
  8
付属金具
  6
CONTINUOUS
 62
     6
100
AcDbLine
 10
2288.0
 20
1675.375644
 30
0.0
 11
2302.0
 21
1671.624356
 31
0.0
  0
LINE
  5
3EC
100
AcDbEntity
  8
付属金具
  6
CONTINUOUS
 62
     6
100
AcDbLine
 10
2288.0
 20
1675.375644
 30
0.0
 11
2291.752587
 21
1681.875316
 31
0.0
  0
LINE
  5
3ED
100
AcDbEntity
  8
付属金具
  6
CONTINUOUS
 62
     6
100
AcDbLine
 10
2302.0
 20
1671.624356
 30
0.0
 11
2303.914789
 21
1674.940867
 31
0.0
  0
LINE
  5
3EE
100
AcDbEntity
  8
付属金具
  6
CONTINUOUS
 62
     6
100
AcDbLine
 10
2317.121544
 20
1691.108861
 30
0.0
 11
2349.584882
 21
1679.293172
 31
0.0
  0
ARC
  5
3EF
100
AcDbEntity
  8
付属金具
  6
CONTINUOUS
 62
     6
100
AcDbCircle
 10
2309.939121
 20
1671.375316
 30
0.0
 40
21.0
100
AcDbArc
 50
70.0
 51
150.0
  0
ARC
  5
3F0
100
AcDbEntity
  8
付属金具
  6
CONTINUOUS
 62
     6
100
AcDbCircle
 10
2351.637002
 20
1684.931328
 30
0.0
 40
6.0
100
AcDbArc
 50
250.0
 51
347.957425
  0
ARC
  5
3F1
100
AcDbEntity
  8
付属金具
  6
CONTINUOUS
 62
     6
100
AcDbCircle
 10
2310.409979
 20
1671.190867
 30
0.0
 40
7.5
100
AcDbArc
 50
68.479495
 51
150.0
  0
LINE
  5
3F2
100
AcDbEntity
  8
付属金具
  6
CONTINUOUS
 62
     6
100
AcDbLine
 10
2357.504959
 20
1683.679497
 30
0.0
 11
2358.0
 21
1686.0
 31
0.0
  0
LINE
  5
3F3
100
AcDbEntity
  8
付属金具
  6
CONTINUOUS
 62
     6
100
AcDbLine
 10
2351.25
 20
1687.8
 30
0.0
 11
2388.75
 21
1687.8
 31
0.0
  0
LINE
  5
3F4
100
AcDbEntity
  8
付属金具
  6
CONTINUOUS
 62
     6
100
AcDbLine
 10
2357.5
 20
1733.8
 30
0.0
 11
2382.5
 21
1733.8
 31
0.0
  0
LINE
  5
3F5
100
AcDbEntity
  8
付属金具
  6
CONTINUOUS
 62
     6
100
AcDbLine
 10
2351.25
 20
1690.368401
 30
0.0
 11
2351.25
 21
1687.8
 31
0.0
  0
LINE
  5
3F6
100
AcDbEntity
  8
付属金具
  6
CONTINUOUS
 62
     6
100
AcDbLine
 10
2351.25
 20
1691.8
 30
0.0
 11
2388.75
 21
1691.8
 31
0.0
  0
LINE
  5
3F7
100
AcDbEntity
  8
付属金具
  6
CONTINUOUS
 62
     6
100
AcDbLine
 10
2388.75
 20
1690.368401
 30
0.0
 11
2388.75
 21
1687.8
 31
0.0
  0
ARC
  5
3F8
100
AcDbEntity
  8
付属金具
  6
CONTINUOUS
 62
     6
100
AcDbCircle
 10
2356.0
 20
1723.619982
 30
0.0
 40
10.0
100
AcDbArc
 50
95.73917
 51
148.365339
  0
ARC
  5
3F9
100
AcDbEntity
  8
付属金具
  6
CONTINUOUS
 62
     6
100
AcDbCircle
 10
2353.5
 20
1700.514213
 30
0.0
 40
9.0
100
AcDbArc
 50
205.383804
 51
247.271577
  0
ARC
  5
3FA
100
AcDbEntity
  8
付属金具
  6
CONTINUOUS
 62
     6
100
AcDbCircle
 10
2384.0
 20
1723.619982
 30
0.0
 40
10.0
100
AcDbArc
 50
31.634661
 51
84.26083
  0
ARC
  5
3FB
100
AcDbEntity
  8
付属金具
  6
CONTINUOUS
 62
     6
100
AcDbCircle
 10
2386.5
 20
1700.514213
 30
0.0
 40
9.0
100
AcDbArc
 50
292.728423
 51
334.616196
  0
ARC
  5
3FC
100
AcDbEntity
  8
付属金具
  6
CONTINUOUS
 62
     6
100
AcDbCircle
 10
2370.0
 20
1584.321741
 30
0.0
 40
150.0
100
AcDbArc
 50
84.26083
 51
85.219808
  0
ARC
  5
3FD
100
AcDbEntity
  8
付属金具
  6
CONTINUOUS
 62
     6
100
AcDbCircle
 10
2370.0
 20
1584.321741
 30
0.0
 40
150.0
100
AcDbArc
 50
94.780192
 51
95.73917
  0
ARC
  5
3FE
100
AcDbEntity
  8
付属金具
  6
CONTINUOUS
 62
     6
100
AcDbCircle
 10
2349.25
 20
1690.368401
 30
0.0
 40
2.0
100
AcDbArc
 50
0.0
 51
67.271577
  0
ARC
  5
3FF
100
AcDbEntity
  8
付属金具
  6
CONTINUOUS
 62
     6
100
AcDbCircle
 10
2390.75
 20
1690.368401
 30
0.0
 40
2.0
100
AcDbArc
 50
112.728423
 51
180.0
  0
ARC
  5
400
100
AcDbEntity
  8
付属金具
  6
CONTINUOUS
 62
     6
100
AcDbCircle
 10
2245.522438
 20
1703.029575
 30
0.0
 40
149.244822
100
AcDbArc
 50
357.552447
 51
9.968553
  0
ARC
  5
401
100
AcDbEntity
  8
付属金具
  6
CONTINUOUS
 62
     6
100
AcDbCircle
 10
3376.344616
 20
1722.947331
 30
0.0
 40
1000.0
100
AcDbArc
 50
179.816596
 51
181.350642
  0
ARC
  5
402
100
AcDbEntity
  8
付属金具
  6
CONTINUOUS
 62
     6
100
AcDbCircle
 10
1888.031223
 20
1700.353657
 30
0.0
 40
500.0
100
AcDbArc
 50
359.902304
 51
2.988069
  0
ARC
  5
403
100
AcDbEntity
  8
付属金具
  6
CONTINUOUS
 62
     6
100
AcDbCircle
 10
2381.854312
 20
1726.130716
 30
0.0
 40
5.504601
100
AcDbArc
 50
2.988069
 51
179.816596
  0
ARC
  5
404
100
AcDbEntity
  8
付属金具
  6
CONTINUOUS
 62
     6
100
AcDbCircle
 10
2382.325685
 20
1699.510828
 30
0.0
 40
5.70482
100
AcDbArc
 50
181.350642
 51
359.902304
  0
ARC
  5
405
100
AcDbEntity
  8
付属金具
  6
CONTINUOUS
 62
     6
100
AcDbCircle
 10
2494.477562
 20
1703.029575
 30
0.0
 40
149.244822
100
AcDbArc
 50
170.031447
 51
182.447553
  0
ARC
  5
406
100
AcDbEntity
  8
付属金具
  6
CONTINUOUS
 62
     6
100
AcDbCircle
 10
2358.145688
 20
1726.130716
 30
0.0
 40
5.504601
100
AcDbArc
 50
0.183404
 51
177.011931
  0
ARC
  5
407
100
AcDbEntity
  8
付属金具
  6
CONTINUOUS
 62
     6
100
AcDbCircle
 10
2357.674315
 20
1699.510828
 30
0.0
 40
5.70482
100
AcDbArc
 50
180.097696
 51
358.649358
  0
ARC
  5
408
100
AcDbEntity
  8
付属金具
  6
CONTINUOUS
 62
     6
100
AcDbCircle
 10
1363.655384
 20
1722.947331
 30
0.0
 40
1000.0
100
AcDbArc
 50
358.649358
 51
0.183404
  0
ARC
  5
409
100
AcDbEntity
  8
付属金具
  6
CONTINUOUS
 62
     6
100
AcDbCircle
 10
2851.968777
 20
1700.353657
 30
0.0
 40
500.0
100
AcDbArc
 50
177.011931
 51
180.097696
  0
LINE
  5
40A
100
AcDbEntity
  8
付属金具
  6
CONTINUOUS
 62
     6
100
AcDbLine
 10
2357.0
 20
1735.235605
 30
0.0
 11
2357.0
 21
1733.757346
 31
0.0
  0
LINE
  5
40B
100
AcDbEntity
  8
付属金具
  6
CONTINUOUS
 62
     6
100
AcDbLine
 10
2383.0
 20
1735.235605
 30
0.0
 11
2383.0
 21
1733.757346
 31
0.0
  0
ARC
  5
40C
100
AcDbEntity
  8
付属金具
  6
CONTINUOUS
 62
     6
100
AcDbCircle
 10
2370.0
 20
1585.8
 30
0.0
 40
150.0
100
AcDbArc
 50
85.028128
 51
94.971872
  0
ARC
  5
40D
100
AcDbEntity
  8
付属金具
  6
CONTINUOUS
 62
     6
100
AcDbCircle
 10
2269.141133
 20
1566.533653
 30
0.0
 40
120.0
100
AcDbArc
 50
58.131798
 51
68.737044
  0
LINE
  5
40E
100
AcDbEntity
  8
付属金具
  6
CONTINUOUS
 62
     6
100
AcDbLine
 10
2382.0
 20
1686.0
 30
0.0
 11
2385.117778
 21
1671.385418
 31
0.0
  0
LINE
  5
40F
100
AcDbEntity
  8
付属金具
  6
CONTINUOUS
 62
     2
100
AcDbLine
 10
2345.85
 20
794.5
 30
0.0
 11
2345.85
 21
894.5
 31
0.0
  0
LINE
  5
410
100
AcDbEntity
  8
付属金具
  6
CONTINUOUS
 62
     2
100
AcDbLine
 10
2314.15
 20
794.5
 30
0.0
 11
2345.85
 21
794.5
 31
0.0
  0
LINE
  5
411
100
AcDbEntity
  8
付属金具
  6
CONTINUOUS
 62
     2
100
AcDbLine
 10
2314.15
 20
894.5
 30
0.0
 11
2314.15
 21
794.5
 31
0.0
  0
LINE
  5
412
100
AcDbEntity
  8
付属金具
  6
CONTINUOUS
 62
     6
100
AcDbLine
 10
2330.0
 20
934.5
 30
0.0
 11
2344.0
 21
934.5
 31
0.0
  0
LINE
  5
413
100
AcDbEntity
  8
付属金具
  6
CONTINUOUS
 62
     6
100
AcDbLine
 10
2316.0
 20
929.5
 30
0.0
 11
2330.0
 21
929.5
 31
0.0
  0
LINE
  5
414
100
AcDbEntity
  8
付属金具
  6
CONTINUOUS
 62
     6
100
AcDbLine
 10
2330.0
 20
924.5
 30
0.0
 11
2344.0
 21
924.5
 31
0.0
  0
LINE
  5
415
100
AcDbEntity
  8
付属金具
  6
EXLTYPE2
 62
     6
100
AcDbLine
 10
2314.15
 20
894.5
 30
0.0
 11
2345.85
 21
894.5
 31
0.0
  0
LINE
  5
416
100
AcDbEntity
  8
付属金具
  6
CONTINUOUS
 62
     6
100
AcDbLine
 10
2316.0
 20
919.5
 30
0.0
 11
2330.0
 21
919.5
 31
0.0
  0
LINE
  5
417
100
AcDbEntity
  8
付属金具
  6
CONTINUOUS
 62
     6
100
AcDbLine
 10
2330.0
 20
914.5
 30
0.0
 11
2344.0
 21
914.5
 31
0.0
  0
LINE
  5
418
100
AcDbEntity
  8
付属金具
  6
CONTINUOUS
 62
     6
100
AcDbLine
 10
2316.0
 20
909.5
 30
0.0
 11
2330.0
 21
909.5
 31
0.0
  0
LINE
  5
419
100
AcDbEntity
  8
付属金具
  6
CONTINUOUS
 62
     6
100
AcDbLine
 10
2330.0
 20
904.5
 30
0.0
 11
2344.0
 21
904.5
 31
0.0
  0
LINE
  5
41A
100
AcDbEntity
  8
付属金具
  6
CONTINUOUS
 62
     6
100
AcDbLine
 10
2316.0
 20
899.5
 30
0.0
 11
2330.0
 21
899.5
 31
0.0
  0
LINE
  5
41B
100
AcDbEntity
  8
付属金具
  6
EXLTYPE2
 62
     6
100
AcDbLine
 10
2297.0
 20
898.5
 30
0.0
 11
2363.0
 21
898.5
 31
0.0
  0
LINE
  5
41C
100
AcDbEntity
  8
付属金具
  6
EXLTYPE2
 62
     6
100
AcDbLine
 10
2297.0
 20
914.0
 30
0.0
 11
2297.0
 21
898.5
 31
0.0
  0
ARC
  5
41D
100
AcDbEntity
  8
付属金具
  6
EXLTYPE2
 62
     6
100
AcDbCircle
 10
2299.5
 20
914.0
 30
0.0
 40
2.5
100
AcDbArc
 50
90.0
 51
180.0
  0
ARC
  5
41E
100
AcDbEntity
  8
付属金具
  6
EXLTYPE2
 62
     6
100
AcDbCircle
 10
2305.5
 20
926.0
 30
0.0
 40
2.5
100
AcDbArc
 50
90.0
 51
180.0
  0
LINE
  5
41F
100
AcDbEntity
  8
付属金具
  6
EXLTYPE2
 62
     6
100
AcDbLine
 10
2305.5
 20
928.5
 30
0.0
 11
2354.5
 21
928.5
 31
0.0
  0
ARC
  5
420
100
AcDbEntity
  8
付属金具
  6
EXLTYPE2
 62
     6
100
AcDbCircle
 10
2354.5
 20
926.0
 30
0.0
 40
2.5
100
AcDbArc
 50
0.0
 51
90.0
  0
LINE
  5
421
100
AcDbEntity
  8
付属金具
  6
EXLTYPE2
 62
     6
100
AcDbLine
 10
2363.0
 20
914.0
 30
0.0
 11
2363.0
 21
898.5
 31
0.0
  0
LINE
  5
422
100
AcDbEntity
  8
付属金具
  6
EXLTYPE2
 62
     6
100
AcDbLine
 10
2299.5
 20
916.5
 30
0.0
 11
2360.5
 21
916.5
 31
0.0
  0
ARC
  5
423
100
AcDbEntity
  8
付属金具
  6
EXLTYPE2
 62
     6
100
AcDbCircle
 10
2360.5
 20
914.0
 30
0.0
 40
2.5
100
AcDbArc
 50
0.0
 51
90.0
  0
LINE
  5
424
100
AcDbEntity
  8
付属金具
  6
EXLTYPE2
 62
     6
100
AcDbLine
 10
2303.0
 20
926.0
 30
0.0
 11
2303.0
 21
919.0
 31
0.0
  0
ARC
  5
425
100
AcDbEntity
  8
付属金具
  6
EXLTYPE2
 62
     6
100
AcDbCircle
 10
2300.5
 20
919.0
 30
0.0
 40
2.5
100
AcDbArc
 50
270.0
 51
0.0
  0
LINE
  5
426
100
AcDbEntity
  8
付属金具
  6
EXLTYPE2
 62
     6
100
AcDbLine
 10
2357.0
 20
926.0
 30
0.0
 11
2357.0
 21
919.0
 31
0.0
  0
ARC
  5
427
100
AcDbEntity
  8
付属金具
  6
EXLTYPE2
 62
     6
100
AcDbCircle
 10
2359.5
 20
919.0
 30
0.0
 40
2.5
100
AcDbArc
 50
180.0
 51
270.0
  0
POLYLINE
  5
428
100
AcDbEntity
  8
付属金具
  6
EXLTYPE2
 62
     6
100
AcDb2dPolyline
 66
     1
 10
0.0
 20
0.0
 30
0.0
 70
   128
  0
VERTEX
  5
429
100
AcDbEntity
  8
付属金具
  6
EXLTYPE2
 62
     6
100
AcDbVertex
100
AcDb2dVertex
 10
2345.85
 20
894.5
 30
0.0
  0
VERTEX
  5
42A
100
AcDbEntity
  8
付属金具
  6
EXLTYPE2
 62
     6
100
AcDbVertex
100
AcDb2dVertex
 10
2347.5
 20
897.0
 30
0.0
  0
VERTEX
  5
42B
100
AcDbEntity
  8
付属金具
  6
EXLTYPE2
 62
     6
100
AcDbVertex
100
AcDb2dVertex
 10
2344.0
 20
899.5
 30
0.0
  0
VERTEX
  5
42C
100
AcDbEntity
  8
付属金具
  6
EXLTYPE2
 62
     6
100
AcDbVertex
100
AcDb2dVertex
 10
2347.5
 20
902.0
 30
0.0
  0
VERTEX
  5
42D
100
AcDbEntity
  8
付属金具
  6
EXLTYPE2
 62
     6
100
AcDbVertex
100
AcDb2dVertex
 10
2344.0
 20
904.5
 30
0.0
  0
VERTEX
  5
42E
100
AcDbEntity
  8
付属金具
  6
EXLTYPE2
 62
     6
100
AcDbVertex
100
AcDb2dVertex
 10
2347.5
 20
907.0
 30
0.0
  0
VERTEX
  5
42F
100
AcDbEntity
  8
付属金具
  6
EXLTYPE2
 62
     6
100
AcDbVertex
100
AcDb2dVertex
 10
2344.0
 20
909.5
 30
0.0
  0
VERTEX
  5
430
100
AcDbEntity
  8
付属金具
  6
EXLTYPE2
 62
     6
100
AcDbVertex
100
AcDb2dVertex
 10
2347.5
 20
912.0
 30
0.0
  0
VERTEX
  5
431
100
AcDbEntity
  8
付属金具
  6
EXLTYPE2
 62
     6
100
AcDbVertex
100
AcDb2dVertex
 10
2344.0
 20
914.5
 30
0.0
  0
VERTEX
  5
432
100
AcDbEntity
  8
付属金具
  6
EXLTYPE2
 62
     6
100
AcDbVertex
100
AcDb2dVertex
 10
2347.5
 20
917.0
 30
0.0
  0
VERTEX
  5
433
100
AcDbEntity
  8
付属金具
  6
EXLTYPE2
 62
     6
100
AcDbVertex
100
AcDb2dVertex
 10
2344.0
 20
919.5
 30
0.0
  0
VERTEX
  5
434
100
AcDbEntity
  8
付属金具
  6
EXLTYPE2
 62
     6
100
AcDbVertex
100
AcDb2dVertex
 10
2347.5
 20
922.0
 30
0.0
  0
VERTEX
  5
435
100
AcDbEntity
  8
付属金具
  6
EXLTYPE2
 62
     6
100
AcDbVertex
100
AcDb2dVertex
 10
2344.0
 20
924.5
 30
0.0
  0
VERTEX
  5
436
100
AcDbEntity
  8
付属金具
  6
EXLTYPE2
 62
     6
100
AcDbVertex
100
AcDb2dVertex
 10
2347.5
 20
927.0
 30
0.0
  0
VERTEX
  5
437
100
AcDbEntity
  8
付属金具
  6
EXLTYPE2
 62
     6
100
AcDbVertex
100
AcDb2dVertex
 10
2344.0
 20
929.5
 30
0.0
  0
VERTEX
  5
438
100
AcDbEntity
  8
付属金具
  6
EXLTYPE2
 62
     6
100
AcDbVertex
100
AcDb2dVertex
 10
2347.5
 20
932.0
 30
0.0
  0
VERTEX
  5
439
100
AcDbEntity
  8
付属金具
  6
EXLTYPE2
 62
     6
100
AcDbVertex
100
AcDb2dVertex
 10
2344.0
 20
934.5
 30
0.0
  0
VERTEX
  5
43A
100
AcDbEntity
  8
付属金具
  6
EXLTYPE2
 62
     6
100
AcDbVertex
100
AcDb2dVertex
 10
2347.5
 20
937.0
 30
0.0
  0
VERTEX
  5
43B
100
AcDbEntity
  8
付属金具
  6
EXLTYPE2
 62
     6
100
AcDbVertex
100
AcDb2dVertex
 10
2344.0
 20
939.5
 30
0.0
  0
VERTEX
  5
43C
100
AcDbEntity
  8
付属金具
  6
EXLTYPE2
 62
     6
100
AcDbVertex
100
AcDb2dVertex
 10
2347.5
 20
942.0
 30
0.0
  0
VERTEX
  5
43D
100
AcDbEntity
  8
付属金具
  6
EXLTYPE2
 62
     6
100
AcDbVertex
100
AcDb2dVertex
 10
2344.0
 20
944.5
 30
0.0
  0
VERTEX
  5
43E
100
AcDbEntity
  8
付属金具
  6
EXLTYPE2
 62
     6
100
AcDbVertex
100
AcDb2dVertex
 10
2347.5
 20
947.0
 30
0.0
  0
VERTEX
  5
43F
100
AcDbEntity
  8
付属金具
  6
EXLTYPE2
 62
     6
100
AcDbVertex
100
AcDb2dVertex
 10
2344.0
 20
949.5
 30
0.0
  0
VERTEX
  5
440
100
AcDbEntity
  8
付属金具
  6
EXLTYPE2
 62
     6
100
AcDbVertex
100
AcDb2dVertex
 10
2347.5
 20
952.0
 30
0.0
  0
VERTEX
  5
441
100
AcDbEntity
  8
付属金具
  6
EXLTYPE2
 62
     6
100
AcDbVertex
100
AcDb2dVertex
 10
2344.0
 20
954.5
 30
0.0
  0
VERTEX
  5
442
100
AcDbEntity
  8
付属金具
  6
EXLTYPE2
 62
     6
100
AcDbVertex
100
AcDb2dVertex
 10
2347.5
 20
957.0
 30
0.0
  0
VERTEX
  5
443
100
AcDbEntity
  8
付属金具
  6
EXLTYPE2
 62
     6
100
AcDbVertex
100
AcDb2dVertex
 10
2344.0
 20
959.5
 30
0.0
  0
VERTEX
  5
444
100
AcDbEntity
  8
付属金具
  6
EXLTYPE2
 62
     6
100
AcDbVertex
100
AcDb2dVertex
 10
2347.5
 20
962.0
 30
0.0
  0
VERTEX
  5
445
100
AcDbEntity
  8
付属金具
  6
EXLTYPE2
 62
     6
100
AcDbVertex
100
AcDb2dVertex
 10
2344.0
 20
964.5
 30
0.0
  0
VERTEX
  5
446
100
AcDbEntity
  8
付属金具
  6
EXLTYPE2
 62
     6
100
AcDbVertex
100
AcDb2dVertex
 10
2347.5
 20
967.0
 30
0.0
  0
VERTEX
  5
447
100
AcDbEntity
  8
付属金具
  6
EXLTYPE2
 62
     6
100
AcDbVertex
100
AcDb2dVertex
 10
2344.0
 20
969.5
 30
0.0
  0
VERTEX
  5
448
100
AcDbEntity
  8
付属金具
  6
EXLTYPE2
 62
     6
100
AcDbVertex
100
AcDb2dVertex
 10
2347.5
 20
972.0
 30
0.0
  0
VERTEX
  5
449
100
AcDbEntity
  8
付属金具
  6
EXLTYPE2
 62
     6
100
AcDbVertex
100
AcDb2dVertex
 10
2344.0
 20
974.5
 30
0.0
  0
VERTEX
  5
44A
100
AcDbEntity
  8
付属金具
  6
EXLTYPE2
 62
     6
100
AcDbVertex
100
AcDb2dVertex
 10
2347.5
 20
977.0
 30
0.0
  0
VERTEX
  5
44B
100
AcDbEntity
  8
付属金具
  6
EXLTYPE2
 62
     6
100
AcDbVertex
100
AcDb2dVertex
 10
2344.0
 20
979.5
 30
0.0
  0
VERTEX
  5
44C
100
AcDbEntity
  8
付属金具
  6
EXLTYPE2
 62
     6
100
AcDbVertex
100
AcDb2dVertex
 10
2347.5
 20
982.0
 30
0.0
  0
VERTEX
  5
44D
100
AcDbEntity
  8
付属金具
  6
EXLTYPE2
 62
     6
100
AcDbVertex
100
AcDb2dVertex
 10
2344.0
 20
984.5
 30
0.0
  0
VERTEX
  5
44E
100
AcDbEntity
  8
付属金具
  6
EXLTYPE2
 62
     6
100
AcDbVertex
100
AcDb2dVertex
 10
2347.5
 20
987.0
 30
0.0
  0
VERTEX
  5
44F
100
AcDbEntity
  8
付属金具
  6
EXLTYPE2
 62
     6
100
AcDbVertex
100
AcDb2dVertex
 10
2344.0
 20
989.5
 30
0.0
  0
VERTEX
  5
450
100
AcDbEntity
  8
付属金具
  6
EXLTYPE2
 62
     6
100
AcDbVertex
100
AcDb2dVertex
 10
2347.5
 20
992.0
 30
0.0
  0
VERTEX
  5
451
100
AcDbEntity
  8
付属金具
  6
EXLTYPE2
 62
     6
100
AcDbVertex
100
AcDb2dVertex
 10
2344.0
 20
994.5
 30
0.0
  0
VERTEX
  5
452
100
AcDbEntity
  8
付属金具
  6
EXLTYPE2
 62
     6
100
AcDbVertex
100
AcDb2dVertex
 10
2347.5
 20
997.0
 30
0.0
  0
VERTEX
  5
453
100
AcDbEntity
  8
付属金具
  6
EXLTYPE2
 62
     6
100
AcDbVertex
100
AcDb2dVertex
 10
2344.0
 20
999.5
 30
0.0
  0
VERTEX
  5
454
100
AcDbEntity
  8
付属金具
  6
EXLTYPE2
 62
     6
100
AcDbVertex
100
AcDb2dVertex
 10
2347.5
 20
1002.0
 30
0.0
  0
VERTEX
  5
455
100
AcDbEntity
  8
付属金具
  6
EXLTYPE2
 62
     6
100
AcDbVertex
100
AcDb2dVertex
 10
2344.0
 20
1004.5
 30
0.0
  0
VERTEX
  5
456
100
AcDbEntity
  8
付属金具
  6
EXLTYPE2
 62
     6
100
AcDbVertex
100
AcDb2dVertex
 10
2347.5
 20
1007.0
 30
0.0
  0
VERTEX
  5
457
100
AcDbEntity
  8
付属金具
  6
EXLTYPE2
 62
     6
100
AcDbVertex
100
AcDb2dVertex
 10
2344.0
 20
1009.5
 30
0.0
  0
VERTEX
  5
458
100
AcDbEntity
  8
付属金具
  6
EXLTYPE2
 62
     6
100
AcDbVertex
100
AcDb2dVertex
 10
2347.5
 20
1012.0
 30
0.0
  0
VERTEX
  5
459
100
AcDbEntity
  8
付属金具
  6
EXLTYPE2
 62
     6
100
AcDbVertex
100
AcDb2dVertex
 10
2344.0
 20
1014.5
 30
0.0
  0
VERTEX
  5
45A
100
AcDbEntity
  8
付属金具
  6
EXLTYPE2
 62
     6
100
AcDbVertex
100
AcDb2dVertex
 10
2347.5
 20
1017.0
 30
0.0
  0
VERTEX
  5
45B
100
AcDbEntity
  8
付属金具
  6
EXLTYPE2
 62
     6
100
AcDbVertex
100
AcDb2dVertex
 10
2344.0
 20
1019.5
 30
0.0
  0
VERTEX
  5
45C
100
AcDbEntity
  8
付属金具
  6
EXLTYPE2
 62
     6
100
AcDbVertex
100
AcDb2dVertex
 10
2347.5
 20
1022.0
 30
0.0
  0
VERTEX
  5
45D
100
AcDbEntity
  8
付属金具
  6
EXLTYPE2
 62
     6
100
AcDbVertex
100
AcDb2dVertex
 10
2344.0
 20
1024.5
 30
0.0
  0
VERTEX
  5
45E
100
AcDbEntity
  8
付属金具
  6
EXLTYPE2
 62
     6
100
AcDbVertex
100
AcDb2dVertex
 10
2347.5
 20
1027.0
 30
0.0
  0
VERTEX
  5
45F
100
AcDbEntity
  8
付属金具
  6
EXLTYPE2
 62
     6
100
AcDbVertex
100
AcDb2dVertex
 10
2344.0
 20
1029.5
 30
0.0
  0
VERTEX
  5
460
100
AcDbEntity
  8
付属金具
  6
EXLTYPE2
 62
     6
100
AcDbVertex
100
AcDb2dVertex
 10
2347.5
 20
1032.0
 30
0.0
  0
VERTEX
  5
461
100
AcDbEntity
  8
付属金具
  6
EXLTYPE2
 62
     6
100
AcDbVertex
100
AcDb2dVertex
 10
2344.0
 20
1034.5
 30
0.0
  0
VERTEX
  5
462
100
AcDbEntity
  8
付属金具
  6
EXLTYPE2
 62
     6
100
AcDbVertex
100
AcDb2dVertex
 10
2347.5
 20
1037.0
 30
0.0
  0
VERTEX
  5
463
100
AcDbEntity
  8
付属金具
  6
EXLTYPE2
 62
     6
100
AcDbVertex
100
AcDb2dVertex
 10
2344.0
 20
1039.5
 30
0.0
  0
VERTEX
  5
464
100
AcDbEntity
  8
付属金具
  6
EXLTYPE2
 62
     6
100
AcDbVertex
100
AcDb2dVertex
 10
2347.5
 20
1042.0
 30
0.0
  0
VERTEX
  5
465
100
AcDbEntity
  8
付属金具
  6
EXLTYPE2
 62
     6
100
AcDbVertex
100
AcDb2dVertex
 10
2344.0
 20
1044.5
 30
0.0
  0
VERTEX
  5
466
100
AcDbEntity
  8
付属金具
  6
EXLTYPE2
 62
     6
100
AcDbVertex
100
AcDb2dVertex
 10
2347.5
 20
1047.0
 30
0.0
  0
VERTEX
  5
467
100
AcDbEntity
  8
付属金具
  6
EXLTYPE2
 62
     6
100
AcDbVertex
100
AcDb2dVertex
 10
2344.0
 20
1049.5
 30
0.0
  0
VERTEX
  5
468
100
AcDbEntity
  8
付属金具
  6
EXLTYPE2
 62
     6
100
AcDbVertex
100
AcDb2dVertex
 10
2347.5
 20
1052.0
 30
0.0
  0
VERTEX
  5
469
100
AcDbEntity
  8
付属金具
  6
EXLTYPE2
 62
     6
100
AcDbVertex
100
AcDb2dVertex
 10
2344.0
 20
1054.5
 30
0.0
  0
VERTEX
  5
46A
100
AcDbEntity
  8
付属金具
  6
EXLTYPE2
 62
     6
100
AcDbVertex
100
AcDb2dVertex
 10
2347.5
 20
1057.0
 30
0.0
  0
VERTEX
  5
46B
100
AcDbEntity
  8
付属金具
  6
EXLTYPE2
 62
     6
100
AcDbVertex
100
AcDb2dVertex
 10
2344.0
 20
1059.5
 30
0.0
  0
VERTEX
  5
46C
100
AcDbEntity
  8
付属金具
  6
EXLTYPE2
 62
     6
100
AcDbVertex
100
AcDb2dVertex
 10
2347.5
 20
1062.0
 30
0.0
  0
VERTEX
  5
46D
100
AcDbEntity
  8
付属金具
  6
EXLTYPE2
 62
     6
100
AcDbVertex
100
AcDb2dVertex
 10
2344.0
 20
1064.5
 30
0.0
  0
VERTEX
  5
46E
100
AcDbEntity
  8
付属金具
  6
EXLTYPE2
 62
     6
100
AcDbVertex
100
AcDb2dVertex
 10
2347.5
 20
1067.0
 30
0.0
  0
VERTEX
  5
46F
100
AcDbEntity
  8
付属金具
  6
EXLTYPE2
 62
     6
100
AcDbVertex
100
AcDb2dVertex
 10
2344.0
 20
1069.5
 30
0.0
  0
VERTEX
  5
470
100
AcDbEntity
  8
付属金具
  6
EXLTYPE2
 62
     6
100
AcDbVertex
100
AcDb2dVertex
 10
2347.5
 20
1072.0
 30
0.0
  0
VERTEX
  5
471
100
AcDbEntity
  8
付属金具
  6
EXLTYPE2
 62
     6
100
AcDbVertex
100
AcDb2dVertex
 10
2344.0
 20
1074.5
 30
0.0
  0
VERTEX
  5
472
100
AcDbEntity
  8
付属金具
  6
EXLTYPE2
 62
     6
100
AcDbVertex
100
AcDb2dVertex
 10
2347.5
 20
1077.0
 30
0.0
  0
VERTEX
  5
473
100
AcDbEntity
  8
付属金具
  6
EXLTYPE2
 62
     6
100
AcDbVertex
100
AcDb2dVertex
 10
2344.0
 20
1079.5
 30
0.0
  0
VERTEX
  5
474
100
AcDbEntity
  8
付属金具
  6
EXLTYPE2
 62
     6
100
AcDbVertex
100
AcDb2dVertex
 10
2347.5
 20
1082.0
 30
0.0
  0
VERTEX
  5
475
100
AcDbEntity
  8
付属金具
  6
EXLTYPE2
 62
     6
100
AcDbVertex
100
AcDb2dVertex
 10
2344.0
 20
1084.5
 30
0.0
  0
VERTEX
  5
476
100
AcDbEntity
  8
付属金具
  6
EXLTYPE2
 62
     6
100
AcDbVertex
100
AcDb2dVertex
 10
2347.5
 20
1087.0
 30
0.0
  0
VERTEX
  5
477
100
AcDbEntity
  8
付属金具
  6
EXLTYPE2
 62
     6
100
AcDbVertex
100
AcDb2dVertex
 10
2344.0
 20
1089.5
 30
0.0
  0
VERTEX
  5
478
100
AcDbEntity
  8
付属金具
  6
EXLTYPE2
 62
     6
100
AcDbVertex
100
AcDb2dVertex
 10
2347.5
 20
1092.0
 30
0.0
  0
VERTEX
  5
479
100
AcDbEntity
  8
付属金具
  6
EXLTYPE2
 62
     6
100
AcDbVertex
100
AcDb2dVertex
 10
2344.0
 20
1094.5
 30
0.0
  0
VERTEX
  5
47A
100
AcDbEntity
  8
付属金具
  6
EXLTYPE2
 62
     6
100
AcDbVertex
100
AcDb2dVertex
 10
2347.5
 20
1097.0
 30
0.0
  0
VERTEX
  5
47B
100
AcDbEntity
  8
付属金具
  6
EXLTYPE2
 62
     6
100
AcDbVertex
100
AcDb2dVertex
 10
2344.0
 20
1099.5
 30
0.0
  0
VERTEX
  5
47C
100
AcDbEntity
  8
付属金具
  6
EXLTYPE2
 62
     6
100
AcDbVertex
100
AcDb2dVertex
 10
2347.5
 20
1102.0
 30
0.0
  0
VERTEX
  5
47D
100
AcDbEntity
  8
付属金具
  6
EXLTYPE2
 62
     6
100
AcDbVertex
100
AcDb2dVertex
 10
2344.0
 20
1104.5
 30
0.0
  0
VERTEX
  5
47E
100
AcDbEntity
  8
付属金具
  6
EXLTYPE2
 62
     6
100
AcDbVertex
100
AcDb2dVertex
 10
2347.5
 20
1107.0
 30
0.0
  0
VERTEX
  5
47F
100
AcDbEntity
  8
付属金具
  6
EXLTYPE2
 62
     6
100
AcDbVertex
100
AcDb2dVertex
 10
2344.0
 20
1109.5
 30
0.0
  0
VERTEX
  5
480
100
AcDbEntity
  8
付属金具
  6
EXLTYPE2
 62
     6
100
AcDbVertex
100
AcDb2dVertex
 10
2347.5
 20
1112.0
 30
0.0
  0
VERTEX
  5
481
100
AcDbEntity
  8
付属金具
  6
EXLTYPE2
 62
     6
100
AcDbVertex
100
AcDb2dVertex
 10
2344.0
 20
1114.5
 30
0.0
  0
VERTEX
  5
482
100
AcDbEntity
  8
付属金具
  6
EXLTYPE2
 62
     6
100
AcDbVertex
100
AcDb2dVertex
 10
2347.5
 20
1117.0
 30
0.0
  0
VERTEX
  5
483
100
AcDbEntity
  8
付属金具
  6
EXLTYPE2
 62
     6
100
AcDbVertex
100
AcDb2dVertex
 10
2344.0
 20
1119.5
 30
0.0
  0
VERTEX
  5
484
100
AcDbEntity
  8
付属金具
  6
EXLTYPE2
 62
     6
100
AcDbVertex
100
AcDb2dVertex
 10
2347.5
 20
1122.0
 30
0.0
  0
VERTEX
  5
485
100
AcDbEntity
  8
付属金具
  6
EXLTYPE2
 62
     6
100
AcDbVertex
100
AcDb2dVertex
 10
2344.0
 20
1124.5
 30
0.0
  0
VERTEX
  5
486
100
AcDbEntity
  8
付属金具
  6
EXLTYPE2
 62
     6
100
AcDbVertex
100
AcDb2dVertex
 10
2347.5
 20
1127.0
 30
0.0
  0
VERTEX
  5
487
100
AcDbEntity
  8
付属金具
  6
EXLTYPE2
 62
     6
100
AcDbVertex
100
AcDb2dVertex
 10
2344.0
 20
1129.5
 30
0.0
  0
VERTEX
  5
488
100
AcDbEntity
  8
付属金具
  6
EXLTYPE2
 62
     6
100
AcDbVertex
100
AcDb2dVertex
 10
2347.5
 20
1132.0
 30
0.0
  0
VERTEX
  5
489
100
AcDbEntity
  8
付属金具
  6
EXLTYPE2
 62
     6
100
AcDbVertex
100
AcDb2dVertex
 10
2344.0
 20
1134.5
 30
0.0
  0
VERTEX
  5
48A
100
AcDbEntity
  8
付属金具
  6
EXLTYPE2
 62
     6
100
AcDbVertex
100
AcDb2dVertex
 10
2347.5
 20
1137.0
 30
0.0
  0
VERTEX
  5
48B
100
AcDbEntity
  8
付属金具
  6
EXLTYPE2
 62
     6
100
AcDbVertex
100
AcDb2dVertex
 10
2344.0
 20
1139.5
 30
0.0
  0
VERTEX
  5
48C
100
AcDbEntity
  8
付属金具
  6
EXLTYPE2
 62
     6
100
AcDbVertex
100
AcDb2dVertex
 10
2347.5
 20
1142.0
 30
0.0
  0
VERTEX
  5
48D
100
AcDbEntity
  8
付属金具
  6
EXLTYPE2
 62
     6
100
AcDbVertex
100
AcDb2dVertex
 10
2344.0
 20
1144.5
 30
0.0
  0
VERTEX
  5
48E
100
AcDbEntity
  8
付属金具
  6
EXLTYPE2
 62
     6
100
AcDbVertex
100
AcDb2dVertex
 10
2347.5
 20
1147.0
 30
0.0
  0
VERTEX
  5
48F
100
AcDbEntity
  8
付属金具
  6
EXLTYPE2
 62
     6
100
AcDbVertex
100
AcDb2dVertex
 10
2344.0
 20
1149.5
 30
0.0
  0
VERTEX
  5
490
100
AcDbEntity
  8
付属金具
  6
EXLTYPE2
 62
     6
100
AcDbVertex
100
AcDb2dVertex
 10
2347.5
 20
1152.0
 30
0.0
  0
VERTEX
  5
491
100
AcDbEntity
  8
付属金具
  6
EXLTYPE2
 62
     6
100
AcDbVertex
100
AcDb2dVertex
 10
2344.0
 20
1154.5
 30
0.0
  0
VERTEX
  5
492
100
AcDbEntity
  8
付属金具
  6
EXLTYPE2
 62
     6
100
AcDbVertex
100
AcDb2dVertex
 10
2347.5
 20
1157.0
 30
0.0
  0
VERTEX
  5
493
100
AcDbEntity
  8
付属金具
  6
EXLTYPE2
 62
     6
100
AcDbVertex
100
AcDb2dVertex
 10
2344.0
 20
1159.5
 30
0.0
  0
VERTEX
  5
494
100
AcDbEntity
  8
付属金具
  6
EXLTYPE2
 62
     6
100
AcDbVertex
100
AcDb2dVertex
 10
2347.5
 20
1162.0
 30
0.0
  0
VERTEX
  5
495
100
AcDbEntity
  8
付属金具
  6
EXLTYPE2
 62
     6
100
AcDbVertex
100
AcDb2dVertex
 10
2344.0
 20
1164.5
 30
0.0
  0
VERTEX
  5
496
100
AcDbEntity
  8
付属金具
  6
EXLTYPE2
 62
     6
100
AcDbVertex
100
AcDb2dVertex
 10
2347.5
 20
1167.0
 30
0.0
  0
VERTEX
  5
497
100
AcDbEntity
  8
付属金具
  6
EXLTYPE2
 62
     6
100
AcDbVertex
100
AcDb2dVertex
 10
2344.0
 20
1169.5
 30
0.0
  0
VERTEX
  5
498
100
AcDbEntity
  8
付属金具
  6
EXLTYPE2
 62
     6
100
AcDbVertex
100
AcDb2dVertex
 10
2347.5
 20
1172.0
 30
0.0
  0
VERTEX
  5
499
100
AcDbEntity
  8
付属金具
  6
EXLTYPE2
 62
     6
100
AcDbVertex
100
AcDb2dVertex
 10
2344.0
 20
1174.5
 30
0.0
  0
VERTEX
  5
49A
100
AcDbEntity
  8
付属金具
  6
EXLTYPE2
 62
     6
100
AcDbVertex
100
AcDb2dVertex
 10
2347.5
 20
1177.0
 30
0.0
  0
VERTEX
  5
49B
100
AcDbEntity
  8
付属金具
  6
EXLTYPE2
 62
     6
100
AcDbVertex
100
AcDb2dVertex
 10
2344.0
 20
1179.5
 30
0.0
  0
VERTEX
  5
49C
100
AcDbEntity
  8
付属金具
  6
EXLTYPE2
 62
     6
100
AcDbVertex
100
AcDb2dVertex
 10
2347.5
 20
1182.0
 30
0.0
  0
VERTEX
  5
49D
100
AcDbEntity
  8
付属金具
  6
EXLTYPE2
 62
     6
100
AcDbVertex
100
AcDb2dVertex
 10
2344.0
 20
1184.5
 30
0.0
  0
VERTEX
  5
49E
100
AcDbEntity
  8
付属金具
  6
EXLTYPE2
 62
     6
100
AcDbVertex
100
AcDb2dVertex
 10
2347.5
 20
1187.0
 30
0.0
  0
VERTEX
  5
49F
100
AcDbEntity
  8
付属金具
  6
EXLTYPE2
 62
     6
100
AcDbVertex
100
AcDb2dVertex
 10
2344.0
 20
1189.5
 30
0.0
  0
VERTEX
  5
4A0
100
AcDbEntity
  8
付属金具
  6
EXLTYPE2
 62
     6
100
AcDbVertex
100
AcDb2dVertex
 10
2347.5
 20
1192.0
 30
0.0
  0
VERTEX
  5
4A1
100
AcDbEntity
  8
付属金具
  6
EXLTYPE2
 62
     6
100
AcDbVertex
100
AcDb2dVertex
 10
2344.0
 20
1194.5
 30
0.0
  0
VERTEX
  5
4A2
100
AcDbEntity
  8
付属金具
  6
EXLTYPE2
 62
     6
100
AcDbVertex
100
AcDb2dVertex
 10
2347.5
 20
1197.0
 30
0.0
  0
VERTEX
  5
4A3
100
AcDbEntity
  8
付属金具
  6
EXLTYPE2
 62
     6
100
AcDbVertex
100
AcDb2dVertex
 10
2344.0
 20
1199.5
 30
0.0
  0
VERTEX
  5
4A4
100
AcDbEntity
  8
付属金具
  6
EXLTYPE2
 62
     6
100
AcDbVertex
100
AcDb2dVertex
 10
2347.5
 20
1202.0
 30
0.0
  0
VERTEX
  5
4A5
100
AcDbEntity
  8
付属金具
  6
EXLTYPE2
 62
     6
100
AcDbVertex
100
AcDb2dVertex
 10
2344.0
 20
1204.5
 30
0.0
  0
VERTEX
  5
4A6
100
AcDbEntity
  8
付属金具
  6
EXLTYPE2
 62
     6
100
AcDbVertex
100
AcDb2dVertex
 10
2347.5
 20
1207.0
 30
0.0
  0
VERTEX
  5
4A7
100
AcDbEntity
  8
付属金具
  6
EXLTYPE2
 62
     6
100
AcDbVertex
100
AcDb2dVertex
 10
2344.0
 20
1209.5
 30
0.0
  0
VERTEX
  5
4A8
100
AcDbEntity
  8
付属金具
  6
EXLTYPE2
 62
     6
100
AcDbVertex
100
AcDb2dVertex
 10
2347.5
 20
1212.0
 30
0.0
  0
VERTEX
  5
4A9
100
AcDbEntity
  8
付属金具
  6
EXLTYPE2
 62
     6
100
AcDbVertex
100
AcDb2dVertex
 10
2344.0
 20
1214.5
 30
0.0
  0
VERTEX
  5
4AA
100
AcDbEntity
  8
付属金具
  6
EXLTYPE2
 62
     6
100
AcDbVertex
100
AcDb2dVertex
 10
2347.5
 20
1217.0
 30
0.0
  0
VERTEX
  5
4AB
100
AcDbEntity
  8
付属金具
  6
EXLTYPE2
 62
     6
100
AcDbVertex
100
AcDb2dVertex
 10
2344.0
 20
1219.5
 30
0.0
  0
VERTEX
  5
4AC
100
AcDbEntity
  8
付属金具
  6
EXLTYPE2
 62
     6
100
AcDbVertex
100
AcDb2dVertex
 10
2347.5
 20
1222.0
 30
0.0
  0
VERTEX
  5
4AD
100
AcDbEntity
  8
付属金具
  6
EXLTYPE2
 62
     6
100
AcDbVertex
100
AcDb2dVertex
 10
2344.0
 20
1224.5
 30
0.0
  0
VERTEX
  5
4AE
100
AcDbEntity
  8
付属金具
  6
EXLTYPE2
 62
     6
100
AcDbVertex
100
AcDb2dVertex
 10
2347.5
 20
1227.0
 30
0.0
  0
VERTEX
  5
4AF
100
AcDbEntity
  8
付属金具
  6
EXLTYPE2
 62
     6
100
AcDbVertex
100
AcDb2dVertex
 10
2344.0
 20
1229.5
 30
0.0
  0
VERTEX
  5
4B0
100
AcDbEntity
  8
付属金具
  6
EXLTYPE2
 62
     6
100
AcDbVertex
100
AcDb2dVertex
 10
2347.5
 20
1232.0
 30
0.0
  0
VERTEX
  5
4B1
100
AcDbEntity
  8
付属金具
  6
EXLTYPE2
 62
     6
100
AcDbVertex
100
AcDb2dVertex
 10
2344.0
 20
1234.5
 30
0.0
  0
VERTEX
  5
4B2
100
AcDbEntity
  8
付属金具
  6
EXLTYPE2
 62
     6
100
AcDbVertex
100
AcDb2dVertex
 10
2347.5
 20
1237.0
 30
0.0
  0
VERTEX
  5
4B3
100
AcDbEntity
  8
付属金具
  6
EXLTYPE2
 62
     6
100
AcDbVertex
100
AcDb2dVertex
 10
2344.0
 20
1239.5
 30
0.0
  0
VERTEX
  5
4B4
100
AcDbEntity
  8
付属金具
  6
EXLTYPE2
 62
     6
100
AcDbVertex
100
AcDb2dVertex
 10
2347.5
 20
1242.0
 30
0.0
  0
VERTEX
  5
4B5
100
AcDbEntity
  8
付属金具
  6
EXLTYPE2
 62
     6
100
AcDbVertex
100
AcDb2dVertex
 10
2344.0
 20
1244.5
 30
0.0
  0
VERTEX
  5
4B6
100
AcDbEntity
  8
付属金具
  6
EXLTYPE2
 62
     6
100
AcDbVertex
100
AcDb2dVertex
 10
2347.5
 20
1247.0
 30
0.0
  0
VERTEX
  5
4B7
100
AcDbEntity
  8
付属金具
  6
EXLTYPE2
 62
     6
100
AcDbVertex
100
AcDb2dVertex
 10
2344.0
 20
1249.5
 30
0.0
  0
VERTEX
  5
4B8
100
AcDbEntity
  8
付属金具
  6
EXLTYPE2
 62
     6
100
AcDbVertex
100
AcDb2dVertex
 10
2347.5
 20
1252.0
 30
0.0
  0
VERTEX
  5
4B9
100
AcDbEntity
  8
付属金具
  6
EXLTYPE2
 62
     6
100
AcDbVertex
100
AcDb2dVertex
 10
2344.0
 20
1254.5
 30
0.0
  0
VERTEX
  5
4BA
100
AcDbEntity
  8
付属金具
  6
EXLTYPE2
 62
     6
100
AcDbVertex
100
AcDb2dVertex
 10
2347.5
 20
1257.0
 30
0.0
  0
VERTEX
  5
4BB
100
AcDbEntity
  8
付属金具
  6
EXLTYPE2
 62
     6
100
AcDbVertex
100
AcDb2dVertex
 10
2344.0
 20
1259.5
 30
0.0
  0
VERTEX
  5
4BC
100
AcDbEntity
  8
付属金具
  6
EXLTYPE2
 62
     6
100
AcDbVertex
100
AcDb2dVertex
 10
2347.5
 20
1262.0
 30
0.0
  0
VERTEX
  5
4BD
100
AcDbEntity
  8
付属金具
  6
EXLTYPE2
 62
     6
100
AcDbVertex
100
AcDb2dVertex
 10
2344.0
 20
1264.5
 30
0.0
  0
VERTEX
  5
4BE
100
AcDbEntity
  8
付属金具
  6
EXLTYPE2
 62
     6
100
AcDbVertex
100
AcDb2dVertex
 10
2347.5
 20
1267.0
 30
0.0
  0
VERTEX
  5
4BF
100
AcDbEntity
  8
付属金具
  6
EXLTYPE2
 62
     6
100
AcDbVertex
100
AcDb2dVertex
 10
2344.0
 20
1269.5
 30
0.0
  0
VERTEX
  5
4C0
100
AcDbEntity
  8
付属金具
  6
EXLTYPE2
 62
     6
100
AcDbVertex
100
AcDb2dVertex
 10
2347.5
 20
1272.0
 30
0.0
  0
VERTEX
  5
4C1
100
AcDbEntity
  8
付属金具
  6
EXLTYPE2
 62
     6
100
AcDbVertex
100
AcDb2dVertex
 10
2344.0
 20
1274.5
 30
0.0
  0
VERTEX
  5
4C2
100
AcDbEntity
  8
付属金具
  6
EXLTYPE2
 62
     6
100
AcDbVertex
100
AcDb2dVertex
 10
2347.5
 20
1277.0
 30
0.0
  0
VERTEX
  5
4C3
100
AcDbEntity
  8
付属金具
  6
EXLTYPE2
 62
     6
100
AcDbVertex
100
AcDb2dVertex
 10
2344.0
 20
1279.5
 30
0.0
  0
VERTEX
  5
4C4
100
AcDbEntity
  8
付属金具
  6
EXLTYPE2
 62
     6
100
AcDbVertex
100
AcDb2dVertex
 10
2347.5
 20
1282.0
 30
0.0
  0
VERTEX
  5
4C5
100
AcDbEntity
  8
付属金具
  6
EXLTYPE2
 62
     6
100
AcDbVertex
100
AcDb2dVertex
 10
2344.0
 20
1284.5
 30
0.0
  0
VERTEX
  5
4C6
100
AcDbEntity
  8
付属金具
  6
EXLTYPE2
 62
     6
100
AcDbVertex
100
AcDb2dVertex
 10
2347.5
 20
1287.0
 30
0.0
  0
VERTEX
  5
4C7
100
AcDbEntity
  8
付属金具
  6
EXLTYPE2
 62
     6
100
AcDbVertex
100
AcDb2dVertex
 10
2344.0
 20
1289.5
 30
0.0
  0
VERTEX
  5
4C8
100
AcDbEntity
  8
付属金具
  6
EXLTYPE2
 62
     6
100
AcDbVertex
100
AcDb2dVertex
 10
2347.5
 20
1292.0
 30
0.0
  0
VERTEX
  5
4C9
100
AcDbEntity
  8
付属金具
  6
EXLTYPE2
 62
     6
100
AcDbVertex
100
AcDb2dVertex
 10
2344.0
 20
1294.5
 30
0.0
  0
VERTEX
  5
4CA
100
AcDbEntity
  8
付属金具
  6
EXLTYPE2
 62
     6
100
AcDbVertex
100
AcDb2dVertex
 10
2347.5
 20
1297.0
 30
0.0
  0
VERTEX
  5
4CB
100
AcDbEntity
  8
付属金具
  6
EXLTYPE2
 62
     6
100
AcDbVertex
100
AcDb2dVertex
 10
2344.0
 20
1299.5
 30
0.0
  0
VERTEX
  5
4CC
100
AcDbEntity
  8
付属金具
  6
EXLTYPE2
 62
     6
100
AcDbVertex
100
AcDb2dVertex
 10
2347.5
 20
1302.0
 30
0.0
  0
VERTEX
  5
4CD
100
AcDbEntity
  8
付属金具
  6
EXLTYPE2
 62
     6
100
AcDbVertex
100
AcDb2dVertex
 10
2344.0
 20
1304.5
 30
0.0
  0
VERTEX
  5
4CE
100
AcDbEntity
  8
付属金具
  6
EXLTYPE2
 62
     6
100
AcDbVertex
100
AcDb2dVertex
 10
2347.5
 20
1307.0
 30
0.0
  0
VERTEX
  5
4CF
100
AcDbEntity
  8
付属金具
  6
EXLTYPE2
 62
     6
100
AcDbVertex
100
AcDb2dVertex
 10
2344.0
 20
1309.5
 30
0.0
  0
VERTEX
  5
4D0
100
AcDbEntity
  8
付属金具
  6
EXLTYPE2
 62
     6
100
AcDbVertex
100
AcDb2dVertex
 10
2347.5
 20
1312.0
 30
0.0
  0
VERTEX
  5
4D1
100
AcDbEntity
  8
付属金具
  6
EXLTYPE2
 62
     6
100
AcDbVertex
100
AcDb2dVertex
 10
2344.0
 20
1314.5
 30
0.0
  0
VERTEX
  5
4D2
100
AcDbEntity
  8
付属金具
  6
EXLTYPE2
 62
     6
100
AcDbVertex
100
AcDb2dVertex
 10
2347.5
 20
1317.0
 30
0.0
  0
VERTEX
  5
4D3
100
AcDbEntity
  8
付属金具
  6
EXLTYPE2
 62
     6
100
AcDbVertex
100
AcDb2dVertex
 10
2344.0
 20
1319.5
 30
0.0
  0
VERTEX
  5
4D4
100
AcDbEntity
  8
付属金具
  6
EXLTYPE2
 62
     6
100
AcDbVertex
100
AcDb2dVertex
 10
2347.5
 20
1322.0
 30
0.0
  0
VERTEX
  5
4D5
100
AcDbEntity
  8
付属金具
  6
EXLTYPE2
 62
     6
100
AcDbVertex
100
AcDb2dVertex
 10
2345.85
 20
1324.5
 30
0.0
  0
SEQEND
  5
4D6
100
AcDbEntity
  8
付属金具
  6
EXLTYPE2
 62
     6
  0
POLYLINE
  5
4D7
100
AcDbEntity
  8
付属金具
  6
EXLTYPE2
 62
     6
100
AcDb2dPolyline
 66
     1
 10
0.0
 20
0.0
 30
0.0
 70
   128
  0
VERTEX
  5
4D8
100
AcDbEntity
  8
付属金具
  6
EXLTYPE2
 62
     6
100
AcDbVertex
100
AcDb2dVertex
 10
2314.15
 20
1324.5
 30
0.0
  0
VERTEX
  5
4D9
100
AcDbEntity
  8
付属金具
  6
EXLTYPE2
 62
     6
100
AcDbVertex
100
AcDb2dVertex
 10
2312.5
 20
1322.0
 30
0.0
  0
VERTEX
  5
4DA
100
AcDbEntity
  8
付属金具
  6
EXLTYPE2
 62
     6
100
AcDbVertex
100
AcDb2dVertex
 10
2316.0
 20
1319.5
 30
0.0
  0
VERTEX
  5
4DB
100
AcDbEntity
  8
付属金具
  6
EXLTYPE2
 62
     6
100
AcDbVertex
100
AcDb2dVertex
 10
2312.5
 20
1317.0
 30
0.0
  0
VERTEX
  5
4DC
100
AcDbEntity
  8
付属金具
  6
EXLTYPE2
 62
     6
100
AcDbVertex
100
AcDb2dVertex
 10
2316.0
 20
1314.5
 30
0.0
  0
VERTEX
  5
4DD
100
AcDbEntity
  8
付属金具
  6
EXLTYPE2
 62
     6
100
AcDbVertex
100
AcDb2dVertex
 10
2312.5
 20
1312.0
 30
0.0
  0
VERTEX
  5
4DE
100
AcDbEntity
  8
付属金具
  6
EXLTYPE2
 62
     6
100
AcDbVertex
100
AcDb2dVertex
 10
2316.0
 20
1309.5
 30
0.0
  0
VERTEX
  5
4DF
100
AcDbEntity
  8
付属金具
  6
EXLTYPE2
 62
     6
100
AcDbVertex
100
AcDb2dVertex
 10
2312.5
 20
1307.0
 30
0.0
  0
VERTEX
  5
4E0
100
AcDbEntity
  8
付属金具
  6
EXLTYPE2
 62
     6
100
AcDbVertex
100
AcDb2dVertex
 10
2316.0
 20
1304.5
 30
0.0
  0
VERTEX
  5
4E1
100
AcDbEntity
  8
付属金具
  6
EXLTYPE2
 62
     6
100
AcDbVertex
100
AcDb2dVertex
 10
2312.5
 20
1302.0
 30
0.0
  0
VERTEX
  5
4E2
100
AcDbEntity
  8
付属金具
  6
EXLTYPE2
 62
     6
100
AcDbVertex
100
AcDb2dVertex
 10
2316.0
 20
1299.5
 30
0.0
  0
VERTEX
  5
4E3
100
AcDbEntity
  8
付属金具
  6
EXLTYPE2
 62
     6
100
AcDbVertex
100
AcDb2dVertex
 10
2312.5
 20
1297.0
 30
0.0
  0
VERTEX
  5
4E4
100
AcDbEntity
  8
付属金具
  6
EXLTYPE2
 62
     6
100
AcDbVertex
100
AcDb2dVertex
 10
2316.0
 20
1294.5
 30
0.0
  0
VERTEX
  5
4E5
100
AcDbEntity
  8
付属金具
  6
EXLTYPE2
 62
     6
100
AcDbVertex
100
AcDb2dVertex
 10
2312.5
 20
1292.0
 30
0.0
  0
VERTEX
  5
4E6
100
AcDbEntity
  8
付属金具
  6
EXLTYPE2
 62
     6
100
AcDbVertex
100
AcDb2dVertex
 10
2316.0
 20
1289.5
 30
0.0
  0
VERTEX
  5
4E7
100
AcDbEntity
  8
付属金具
  6
EXLTYPE2
 62
     6
100
AcDbVertex
100
AcDb2dVertex
 10
2312.5
 20
1287.0
 30
0.0
  0
VERTEX
  5
4E8
100
AcDbEntity
  8
付属金具
  6
EXLTYPE2
 62
     6
100
AcDbVertex
100
AcDb2dVertex
 10
2316.0
 20
1284.5
 30
0.0
  0
VERTEX
  5
4E9
100
AcDbEntity
  8
付属金具
  6
EXLTYPE2
 62
     6
100
AcDbVertex
100
AcDb2dVertex
 10
2312.5
 20
1282.0
 30
0.0
  0
VERTEX
  5
4EA
100
AcDbEntity
  8
付属金具
  6
EXLTYPE2
 62
     6
100
AcDbVertex
100
AcDb2dVertex
 10
2316.0
 20
1279.5
 30
0.0
  0
VERTEX
  5
4EB
100
AcDbEntity
  8
付属金具
  6
EXLTYPE2
 62
     6
100
AcDbVertex
100
AcDb2dVertex
 10
2312.5
 20
1277.0
 30
0.0
  0
VERTEX
  5
4EC
100
AcDbEntity
  8
付属金具
  6
EXLTYPE2
 62
     6
100
AcDbVertex
100
AcDb2dVertex
 10
2316.0
 20
1274.5
 30
0.0
  0
VERTEX
  5
4ED
100
AcDbEntity
  8
付属金具
  6
EXLTYPE2
 62
     6
100
AcDbVertex
100
AcDb2dVertex
 10
2312.5
 20
1272.0
 30
0.0
  0
VERTEX
  5
4EE
100
AcDbEntity
  8
付属金具
  6
EXLTYPE2
 62
     6
100
AcDbVertex
100
AcDb2dVertex
 10
2316.0
 20
1269.5
 30
0.0
  0
VERTEX
  5
4EF
100
AcDbEntity
  8
付属金具
  6
EXLTYPE2
 62
     6
100
AcDbVertex
100
AcDb2dVertex
 10
2312.5
 20
1267.0
 30
0.0
  0
VERTEX
  5
4F0
100
AcDbEntity
  8
付属金具
  6
EXLTYPE2
 62
     6
100
AcDbVertex
100
AcDb2dVertex
 10
2316.0
 20
1264.5
 30
0.0
  0
VERTEX
  5
4F1
100
AcDbEntity
  8
付属金具
  6
EXLTYPE2
 62
     6
100
AcDbVertex
100
AcDb2dVertex
 10
2312.5
 20
1262.0
 30
0.0
  0
VERTEX
  5
4F2
100
AcDbEntity
  8
付属金具
  6
EXLTYPE2
 62
     6
100
AcDbVertex
100
AcDb2dVertex
 10
2316.0
 20
1259.5
 30
0.0
  0
VERTEX
  5
4F3
100
AcDbEntity
  8
付属金具
  6
EXLTYPE2
 62
     6
100
AcDbVertex
100
AcDb2dVertex
 10
2312.5
 20
1257.0
 30
0.0
  0
VERTEX
  5
4F4
100
AcDbEntity
  8
付属金具
  6
EXLTYPE2
 62
     6
100
AcDbVertex
100
AcDb2dVertex
 10
2316.0
 20
1254.5
 30
0.0
  0
VERTEX
  5
4F5
100
AcDbEntity
  8
付属金具
  6
EXLTYPE2
 62
     6
100
AcDbVertex
100
AcDb2dVertex
 10
2312.5
 20
1252.0
 30
0.0
  0
VERTEX
  5
4F6
100
AcDbEntity
  8
付属金具
  6
EXLTYPE2
 62
     6
100
AcDbVertex
100
AcDb2dVertex
 10
2316.0
 20
1249.5
 30
0.0
  0
VERTEX
  5
4F7
100
AcDbEntity
  8
付属金具
  6
EXLTYPE2
 62
     6
100
AcDbVertex
100
AcDb2dVertex
 10
2312.5
 20
1247.0
 30
0.0
  0
VERTEX
  5
4F8
100
AcDbEntity
  8
付属金具
  6
EXLTYPE2
 62
     6
100
AcDbVertex
100
AcDb2dVertex
 10
2316.0
 20
1244.5
 30
0.0
  0
VERTEX
  5
4F9
100
AcDbEntity
  8
付属金具
  6
EXLTYPE2
 62
     6
100
AcDbVertex
100
AcDb2dVertex
 10
2312.5
 20
1242.0
 30
0.0
  0
VERTEX
  5
4FA
100
AcDbEntity
  8
付属金具
  6
EXLTYPE2
 62
     6
100
AcDbVertex
100
AcDb2dVertex
 10
2316.0
 20
1239.5
 30
0.0
  0
VERTEX
  5
4FB
100
AcDbEntity
  8
付属金具
  6
EXLTYPE2
 62
     6
100
AcDbVertex
100
AcDb2dVertex
 10
2312.5
 20
1237.0
 30
0.0
  0
VERTEX
  5
4FC
100
AcDbEntity
  8
付属金具
  6
EXLTYPE2
 62
     6
100
AcDbVertex
100
AcDb2dVertex
 10
2316.0
 20
1234.5
 30
0.0
  0
VERTEX
  5
4FD
100
AcDbEntity
  8
付属金具
  6
EXLTYPE2
 62
     6
100
AcDbVertex
100
AcDb2dVertex
 10
2312.5
 20
1232.0
 30
0.0
  0
VERTEX
  5
4FE
100
AcDbEntity
  8
付属金具
  6
EXLTYPE2
 62
     6
100
AcDbVertex
100
AcDb2dVertex
 10
2316.0
 20
1229.5
 30
0.0
  0
VERTEX
  5
4FF
100
AcDbEntity
  8
付属金具
  6
EXLTYPE2
 62
     6
100
AcDbVertex
100
AcDb2dVertex
 10
2312.5
 20
1227.0
 30
0.0
  0
VERTEX
  5
500
100
AcDbEntity
  8
付属金具
  6
EXLTYPE2
 62
     6
100
AcDbVertex
100
AcDb2dVertex
 10
2316.0
 20
1224.5
 30
0.0
  0
VERTEX
  5
501
100
AcDbEntity
  8
付属金具
  6
EXLTYPE2
 62
     6
100
AcDbVertex
100
AcDb2dVertex
 10
2312.5
 20
1222.0
 30
0.0
  0
VERTEX
  5
502
100
AcDbEntity
  8
付属金具
  6
EXLTYPE2
 62
     6
100
AcDbVertex
100
AcDb2dVertex
 10
2316.0
 20
1219.5
 30
0.0
  0
VERTEX
  5
503
100
AcDbEntity
  8
付属金具
  6
EXLTYPE2
 62
     6
100
AcDbVertex
100
AcDb2dVertex
 10
2312.5
 20
1217.0
 30
0.0
  0
VERTEX
  5
504
100
AcDbEntity
  8
付属金具
  6
EXLTYPE2
 62
     6
100
AcDbVertex
100
AcDb2dVertex
 10
2316.0
 20
1214.5
 30
0.0
  0
VERTEX
  5
505
100
AcDbEntity
  8
付属金具
  6
EXLTYPE2
 62
     6
100
AcDbVertex
100
AcDb2dVertex
 10
2312.5
 20
1212.0
 30
0.0
  0
VERTEX
  5
506
100
AcDbEntity
  8
付属金具
  6
EXLTYPE2
 62
     6
100
AcDbVertex
100
AcDb2dVertex
 10
2316.0
 20
1209.5
 30
0.0
  0
VERTEX
  5
507
100
AcDbEntity
  8
付属金具
  6
EXLTYPE2
 62
     6
100
AcDbVertex
100
AcDb2dVertex
 10
2312.5
 20
1207.0
 30
0.0
  0
VERTEX
  5
508
100
AcDbEntity
  8
付属金具
  6
EXLTYPE2
 62
     6
100
AcDbVertex
100
AcDb2dVertex
 10
2316.0
 20
1204.5
 30
0.0
  0
VERTEX
  5
509
100
AcDbEntity
  8
付属金具
  6
EXLTYPE2
 62
     6
100
AcDbVertex
100
AcDb2dVertex
 10
2312.5
 20
1202.0
 30
0.0
  0
VERTEX
  5
50A
100
AcDbEntity
  8
付属金具
  6
EXLTYPE2
 62
     6
100
AcDbVertex
100
AcDb2dVertex
 10
2316.0
 20
1199.5
 30
0.0
  0
VERTEX
  5
50B
100
AcDbEntity
  8
付属金具
  6
EXLTYPE2
 62
     6
100
AcDbVertex
100
AcDb2dVertex
 10
2312.5
 20
1197.0
 30
0.0
  0
VERTEX
  5
50C
100
AcDbEntity
  8
付属金具
  6
EXLTYPE2
 62
     6
100
AcDbVertex
100
AcDb2dVertex
 10
2316.0
 20
1194.5
 30
0.0
  0
VERTEX
  5
50D
100
AcDbEntity
  8
付属金具
  6
EXLTYPE2
 62
     6
100
AcDbVertex
100
AcDb2dVertex
 10
2312.5
 20
1192.0
 30
0.0
  0
VERTEX
  5
50E
100
AcDbEntity
  8
付属金具
  6
EXLTYPE2
 62
     6
100
AcDbVertex
100
AcDb2dVertex
 10
2316.0
 20
1189.5
 30
0.0
  0
VERTEX
  5
50F
100
AcDbEntity
  8
付属金具
  6
EXLTYPE2
 62
     6
100
AcDbVertex
100
AcDb2dVertex
 10
2312.5
 20
1187.0
 30
0.0
  0
VERTEX
  5
510
100
AcDbEntity
  8
付属金具
  6
EXLTYPE2
 62
     6
100
AcDbVertex
100
AcDb2dVertex
 10
2316.0
 20
1184.5
 30
0.0
  0
VERTEX
  5
511
100
AcDbEntity
  8
付属金具
  6
EXLTYPE2
 62
     6
100
AcDbVertex
100
AcDb2dVertex
 10
2312.5
 20
1182.0
 30
0.0
  0
VERTEX
  5
512
100
AcDbEntity
  8
付属金具
  6
EXLTYPE2
 62
     6
100
AcDbVertex
100
AcDb2dVertex
 10
2316.0
 20
1179.5
 30
0.0
  0
VERTEX
  5
513
100
AcDbEntity
  8
付属金具
  6
EXLTYPE2
 62
     6
100
AcDbVertex
100
AcDb2dVertex
 10
2312.5
 20
1177.0
 30
0.0
  0
VERTEX
  5
514
100
AcDbEntity
  8
付属金具
  6
EXLTYPE2
 62
     6
100
AcDbVertex
100
AcDb2dVertex
 10
2316.0
 20
1174.5
 30
0.0
  0
VERTEX
  5
515
100
AcDbEntity
  8
付属金具
  6
EXLTYPE2
 62
     6
100
AcDbVertex
100
AcDb2dVertex
 10
2312.5
 20
1172.0
 30
0.0
  0
VERTEX
  5
516
100
AcDbEntity
  8
付属金具
  6
EXLTYPE2
 62
     6
100
AcDbVertex
100
AcDb2dVertex
 10
2316.0
 20
1169.5
 30
0.0
  0
VERTEX
  5
517
100
AcDbEntity
  8
付属金具
  6
EXLTYPE2
 62
     6
100
AcDbVertex
100
AcDb2dVertex
 10
2312.5
 20
1167.0
 30
0.0
  0
VERTEX
  5
518
100
AcDbEntity
  8
付属金具
  6
EXLTYPE2
 62
     6
100
AcDbVertex
100
AcDb2dVertex
 10
2316.0
 20
1164.5
 30
0.0
  0
VERTEX
  5
519
100
AcDbEntity
  8
付属金具
  6
EXLTYPE2
 62
     6
100
AcDbVertex
100
AcDb2dVertex
 10
2312.5
 20
1162.0
 30
0.0
  0
VERTEX
  5
51A
100
AcDbEntity
  8
付属金具
  6
EXLTYPE2
 62
     6
100
AcDbVertex
100
AcDb2dVertex
 10
2316.0
 20
1159.5
 30
0.0
  0
VERTEX
  5
51B
100
AcDbEntity
  8
付属金具
  6
EXLTYPE2
 62
     6
100
AcDbVertex
100
AcDb2dVertex
 10
2312.5
 20
1157.0
 30
0.0
  0
VERTEX
  5
51C
100
AcDbEntity
  8
付属金具
  6
EXLTYPE2
 62
     6
100
AcDbVertex
100
AcDb2dVertex
 10
2316.0
 20
1154.5
 30
0.0
  0
VERTEX
  5
51D
100
AcDbEntity
  8
付属金具
  6
EXLTYPE2
 62
     6
100
AcDbVertex
100
AcDb2dVertex
 10
2312.5
 20
1152.0
 30
0.0
  0
VERTEX
  5
51E
100
AcDbEntity
  8
付属金具
  6
EXLTYPE2
 62
     6
100
AcDbVertex
100
AcDb2dVertex
 10
2316.0
 20
1149.5
 30
0.0
  0
VERTEX
  5
51F
100
AcDbEntity
  8
付属金具
  6
EXLTYPE2
 62
     6
100
AcDbVertex
100
AcDb2dVertex
 10
2312.5
 20
1147.0
 30
0.0
  0
VERTEX
  5
520
100
AcDbEntity
  8
付属金具
  6
EXLTYPE2
 62
     6
100
AcDbVertex
100
AcDb2dVertex
 10
2316.0
 20
1144.5
 30
0.0
  0
VERTEX
  5
521
100
AcDbEntity
  8
付属金具
  6
EXLTYPE2
 62
     6
100
AcDbVertex
100
AcDb2dVertex
 10
2312.5
 20
1142.0
 30
0.0
  0
VERTEX
  5
522
100
AcDbEntity
  8
付属金具
  6
EXLTYPE2
 62
     6
100
AcDbVertex
100
AcDb2dVertex
 10
2316.0
 20
1139.5
 30
0.0
  0
VERTEX
  5
523
100
AcDbEntity
  8
付属金具
  6
EXLTYPE2
 62
     6
100
AcDbVertex
100
AcDb2dVertex
 10
2312.5
 20
1137.0
 30
0.0
  0
VERTEX
  5
524
100
AcDbEntity
  8
付属金具
  6
EXLTYPE2
 62
     6
100
AcDbVertex
100
AcDb2dVertex
 10
2316.0
 20
1134.5
 30
0.0
  0
VERTEX
  5
525
100
AcDbEntity
  8
付属金具
  6
EXLTYPE2
 62
     6
100
AcDbVertex
100
AcDb2dVertex
 10
2312.5
 20
1132.0
 30
0.0
  0
VERTEX
  5
526
100
AcDbEntity
  8
付属金具
  6
EXLTYPE2
 62
     6
100
AcDbVertex
100
AcDb2dVertex
 10
2316.0
 20
1129.5
 30
0.0
  0
VERTEX
  5
527
100
AcDbEntity
  8
付属金具
  6
EXLTYPE2
 62
     6
100
AcDbVertex
100
AcDb2dVertex
 10
2312.5
 20
1127.0
 30
0.0
  0
VERTEX
  5
528
100
AcDbEntity
  8
付属金具
  6
EXLTYPE2
 62
     6
100
AcDbVertex
100
AcDb2dVertex
 10
2316.0
 20
1124.5
 30
0.0
  0
VERTEX
  5
529
100
AcDbEntity
  8
付属金具
  6
EXLTYPE2
 62
     6
100
AcDbVertex
100
AcDb2dVertex
 10
2312.5
 20
1122.0
 30
0.0
  0
VERTEX
  5
52A
100
AcDbEntity
  8
付属金具
  6
EXLTYPE2
 62
     6
100
AcDbVertex
100
AcDb2dVertex
 10
2316.0
 20
1119.5
 30
0.0
  0
VERTEX
  5
52B
100
AcDbEntity
  8
付属金具
  6
EXLTYPE2
 62
     6
100
AcDbVertex
100
AcDb2dVertex
 10
2312.5
 20
1117.0
 30
0.0
  0
VERTEX
  5
52C
100
AcDbEntity
  8
付属金具
  6
EXLTYPE2
 62
     6
100
AcDbVertex
100
AcDb2dVertex
 10
2316.0
 20
1114.5
 30
0.0
  0
VERTEX
  5
52D
100
AcDbEntity
  8
付属金具
  6
EXLTYPE2
 62
     6
100
AcDbVertex
100
AcDb2dVertex
 10
2312.5
 20
1112.0
 30
0.0
  0
VERTEX
  5
52E
100
AcDbEntity
  8
付属金具
  6
EXLTYPE2
 62
     6
100
AcDbVertex
100
AcDb2dVertex
 10
2316.0
 20
1109.5
 30
0.0
  0
VERTEX
  5
52F
100
AcDbEntity
  8
付属金具
  6
EXLTYPE2
 62
     6
100
AcDbVertex
100
AcDb2dVertex
 10
2312.5
 20
1107.0
 30
0.0
  0
VERTEX
  5
530
100
AcDbEntity
  8
付属金具
  6
EXLTYPE2
 62
     6
100
AcDbVertex
100
AcDb2dVertex
 10
2316.0
 20
1104.5
 30
0.0
  0
VERTEX
  5
531
100
AcDbEntity
  8
付属金具
  6
EXLTYPE2
 62
     6
100
AcDbVertex
100
AcDb2dVertex
 10
2312.5
 20
1102.0
 30
0.0
  0
VERTEX
  5
532
100
AcDbEntity
  8
付属金具
  6
EXLTYPE2
 62
     6
100
AcDbVertex
100
AcDb2dVertex
 10
2316.0
 20
1099.5
 30
0.0
  0
VERTEX
  5
533
100
AcDbEntity
  8
付属金具
  6
EXLTYPE2
 62
     6
100
AcDbVertex
100
AcDb2dVertex
 10
2312.5
 20
1097.0
 30
0.0
  0
VERTEX
  5
534
100
AcDbEntity
  8
付属金具
  6
EXLTYPE2
 62
     6
100
AcDbVertex
100
AcDb2dVertex
 10
2316.0
 20
1094.5
 30
0.0
  0
VERTEX
  5
535
100
AcDbEntity
  8
付属金具
  6
EXLTYPE2
 62
     6
100
AcDbVertex
100
AcDb2dVertex
 10
2312.5
 20
1092.0
 30
0.0
  0
VERTEX
  5
536
100
AcDbEntity
  8
付属金具
  6
EXLTYPE2
 62
     6
100
AcDbVertex
100
AcDb2dVertex
 10
2316.0
 20
1089.5
 30
0.0
  0
VERTEX
  5
537
100
AcDbEntity
  8
付属金具
  6
EXLTYPE2
 62
     6
100
AcDbVertex
100
AcDb2dVertex
 10
2312.5
 20
1087.0
 30
0.0
  0
VERTEX
  5
538
100
AcDbEntity
  8
付属金具
  6
EXLTYPE2
 62
     6
100
AcDbVertex
100
AcDb2dVertex
 10
2316.0
 20
1084.5
 30
0.0
  0
VERTEX
  5
539
100
AcDbEntity
  8
付属金具
  6
EXLTYPE2
 62
     6
100
AcDbVertex
100
AcDb2dVertex
 10
2312.5
 20
1082.0
 30
0.0
  0
VERTEX
  5
53A
100
AcDbEntity
  8
付属金具
  6
EXLTYPE2
 62
     6
100
AcDbVertex
100
AcDb2dVertex
 10
2316.0
 20
1079.5
 30
0.0
  0
VERTEX
  5
53B
100
AcDbEntity
  8
付属金具
  6
EXLTYPE2
 62
     6
100
AcDbVertex
100
AcDb2dVertex
 10
2312.5
 20
1077.0
 30
0.0
  0
VERTEX
  5
53C
100
AcDbEntity
  8
付属金具
  6
EXLTYPE2
 62
     6
100
AcDbVertex
100
AcDb2dVertex
 10
2316.0
 20
1074.5
 30
0.0
  0
VERTEX
  5
53D
100
AcDbEntity
  8
付属金具
  6
EXLTYPE2
 62
     6
100
AcDbVertex
100
AcDb2dVertex
 10
2312.5
 20
1072.0
 30
0.0
  0
VERTEX
  5
53E
100
AcDbEntity
  8
付属金具
  6
EXLTYPE2
 62
     6
100
AcDbVertex
100
AcDb2dVertex
 10
2316.0
 20
1069.5
 30
0.0
  0
VERTEX
  5
53F
100
AcDbEntity
  8
付属金具
  6
EXLTYPE2
 62
     6
100
AcDbVertex
100
AcDb2dVertex
 10
2312.5
 20
1067.0
 30
0.0
  0
VERTEX
  5
540
100
AcDbEntity
  8
付属金具
  6
EXLTYPE2
 62
     6
100
AcDbVertex
100
AcDb2dVertex
 10
2316.0
 20
1064.5
 30
0.0
  0
VERTEX
  5
541
100
AcDbEntity
  8
付属金具
  6
EXLTYPE2
 62
     6
100
AcDbVertex
100
AcDb2dVertex
 10
2312.5
 20
1062.0
 30
0.0
  0
VERTEX
  5
542
100
AcDbEntity
  8
付属金具
  6
EXLTYPE2
 62
     6
100
AcDbVertex
100
AcDb2dVertex
 10
2316.0
 20
1059.5
 30
0.0
  0
VERTEX
  5
543
100
AcDbEntity
  8
付属金具
  6
EXLTYPE2
 62
     6
100
AcDbVertex
100
AcDb2dVertex
 10
2312.5
 20
1057.0
 30
0.0
  0
VERTEX
  5
544
100
AcDbEntity
  8
付属金具
  6
EXLTYPE2
 62
     6
100
AcDbVertex
100
AcDb2dVertex
 10
2316.0
 20
1054.5
 30
0.0
  0
VERTEX
  5
545
100
AcDbEntity
  8
付属金具
  6
EXLTYPE2
 62
     6
100
AcDbVertex
100
AcDb2dVertex
 10
2312.5
 20
1052.0
 30
0.0
  0
VERTEX
  5
546
100
AcDbEntity
  8
付属金具
  6
EXLTYPE2
 62
     6
100
AcDbVertex
100
AcDb2dVertex
 10
2316.0
 20
1049.5
 30
0.0
  0
VERTEX
  5
547
100
AcDbEntity
  8
付属金具
  6
EXLTYPE2
 62
     6
100
AcDbVertex
100
AcDb2dVertex
 10
2312.5
 20
1047.0
 30
0.0
  0
VERTEX
  5
548
100
AcDbEntity
  8
付属金具
  6
EXLTYPE2
 62
     6
100
AcDbVertex
100
AcDb2dVertex
 10
2316.0
 20
1044.5
 30
0.0
  0
VERTEX
  5
549
100
AcDbEntity
  8
付属金具
  6
EXLTYPE2
 62
     6
100
AcDbVertex
100
AcDb2dVertex
 10
2312.5
 20
1042.0
 30
0.0
  0
VERTEX
  5
54A
100
AcDbEntity
  8
付属金具
  6
EXLTYPE2
 62
     6
100
AcDbVertex
100
AcDb2dVertex
 10
2316.0
 20
1039.5
 30
0.0
  0
VERTEX
  5
54B
100
AcDbEntity
  8
付属金具
  6
EXLTYPE2
 62
     6
100
AcDbVertex
100
AcDb2dVertex
 10
2312.5
 20
1037.0
 30
0.0
  0
VERTEX
  5
54C
100
AcDbEntity
  8
付属金具
  6
EXLTYPE2
 62
     6
100
AcDbVertex
100
AcDb2dVertex
 10
2316.0
 20
1034.5
 30
0.0
  0
VERTEX
  5
54D
100
AcDbEntity
  8
付属金具
  6
EXLTYPE2
 62
     6
100
AcDbVertex
100
AcDb2dVertex
 10
2312.5
 20
1032.0
 30
0.0
  0
VERTEX
  5
54E
100
AcDbEntity
  8
付属金具
  6
EXLTYPE2
 62
     6
100
AcDbVertex
100
AcDb2dVertex
 10
2316.0
 20
1029.5
 30
0.0
  0
VERTEX
  5
54F
100
AcDbEntity
  8
付属金具
  6
EXLTYPE2
 62
     6
100
AcDbVertex
100
AcDb2dVertex
 10
2312.5
 20
1027.0
 30
0.0
  0
VERTEX
  5
550
100
AcDbEntity
  8
付属金具
  6
EXLTYPE2
 62
     6
100
AcDbVertex
100
AcDb2dVertex
 10
2316.0
 20
1024.5
 30
0.0
  0
VERTEX
  5
551
100
AcDbEntity
  8
付属金具
  6
EXLTYPE2
 62
     6
100
AcDbVertex
100
AcDb2dVertex
 10
2312.5
 20
1022.0
 30
0.0
  0
VERTEX
  5
552
100
AcDbEntity
  8
付属金具
  6
EXLTYPE2
 62
     6
100
AcDbVertex
100
AcDb2dVertex
 10
2316.0
 20
1019.5
 30
0.0
  0
VERTEX
  5
553
100
AcDbEntity
  8
付属金具
  6
EXLTYPE2
 62
     6
100
AcDbVertex
100
AcDb2dVertex
 10
2312.5
 20
1017.0
 30
0.0
  0
VERTEX
  5
554
100
AcDbEntity
  8
付属金具
  6
EXLTYPE2
 62
     6
100
AcDbVertex
100
AcDb2dVertex
 10
2316.0
 20
1014.5
 30
0.0
  0
VERTEX
  5
555
100
AcDbEntity
  8
付属金具
  6
EXLTYPE2
 62
     6
100
AcDbVertex
100
AcDb2dVertex
 10
2312.5
 20
1012.0
 30
0.0
  0
VERTEX
  5
556
100
AcDbEntity
  8
付属金具
  6
EXLTYPE2
 62
     6
100
AcDbVertex
100
AcDb2dVertex
 10
2316.0
 20
1009.5
 30
0.0
  0
VERTEX
  5
557
100
AcDbEntity
  8
付属金具
  6
EXLTYPE2
 62
     6
100
AcDbVertex
100
AcDb2dVertex
 10
2312.5
 20
1007.0
 30
0.0
  0
VERTEX
  5
558
100
AcDbEntity
  8
付属金具
  6
EXLTYPE2
 62
     6
100
AcDbVertex
100
AcDb2dVertex
 10
2316.0
 20
1004.5
 30
0.0
  0
VERTEX
  5
559
100
AcDbEntity
  8
付属金具
  6
EXLTYPE2
 62
     6
100
AcDbVertex
100
AcDb2dVertex
 10
2312.5
 20
1002.0
 30
0.0
  0
VERTEX
  5
55A
100
AcDbEntity
  8
付属金具
  6
EXLTYPE2
 62
     6
100
AcDbVertex
100
AcDb2dVertex
 10
2316.0
 20
999.5
 30
0.0
  0
VERTEX
  5
55B
100
AcDbEntity
  8
付属金具
  6
EXLTYPE2
 62
     6
100
AcDbVertex
100
AcDb2dVertex
 10
2312.5
 20
997.0
 30
0.0
  0
VERTEX
  5
55C
100
AcDbEntity
  8
付属金具
  6
EXLTYPE2
 62
     6
100
AcDbVertex
100
AcDb2dVertex
 10
2316.0
 20
994.5
 30
0.0
  0
VERTEX
  5
55D
100
AcDbEntity
  8
付属金具
  6
EXLTYPE2
 62
     6
100
AcDbVertex
100
AcDb2dVertex
 10
2312.5
 20
992.0
 30
0.0
  0
VERTEX
  5
55E
100
AcDbEntity
  8
付属金具
  6
EXLTYPE2
 62
     6
100
AcDbVertex
100
AcDb2dVertex
 10
2316.0
 20
989.5
 30
0.0
  0
VERTEX
  5
55F
100
AcDbEntity
  8
付属金具
  6
EXLTYPE2
 62
     6
100
AcDbVertex
100
AcDb2dVertex
 10
2312.5
 20
987.0
 30
0.0
  0
VERTEX
  5
560
100
AcDbEntity
  8
付属金具
  6
EXLTYPE2
 62
     6
100
AcDbVertex
100
AcDb2dVertex
 10
2316.0
 20
984.5
 30
0.0
  0
VERTEX
  5
561
100
AcDbEntity
  8
付属金具
  6
EXLTYPE2
 62
     6
100
AcDbVertex
100
AcDb2dVertex
 10
2312.5
 20
982.0
 30
0.0
  0
VERTEX
  5
562
100
AcDbEntity
  8
付属金具
  6
EXLTYPE2
 62
     6
100
AcDbVertex
100
AcDb2dVertex
 10
2316.0
 20
979.5
 30
0.0
  0
VERTEX
  5
563
100
AcDbEntity
  8
付属金具
  6
EXLTYPE2
 62
     6
100
AcDbVertex
100
AcDb2dVertex
 10
2312.5
 20
977.0
 30
0.0
  0
VERTEX
  5
564
100
AcDbEntity
  8
付属金具
  6
EXLTYPE2
 62
     6
100
AcDbVertex
100
AcDb2dVertex
 10
2316.0
 20
974.5
 30
0.0
  0
VERTEX
  5
565
100
AcDbEntity
  8
付属金具
  6
EXLTYPE2
 62
     6
100
AcDbVertex
100
AcDb2dVertex
 10
2312.5
 20
972.0
 30
0.0
  0
VERTEX
  5
566
100
AcDbEntity
  8
付属金具
  6
EXLTYPE2
 62
     6
100
AcDbVertex
100
AcDb2dVertex
 10
2316.0
 20
969.5
 30
0.0
  0
VERTEX
  5
567
100
AcDbEntity
  8
付属金具
  6
EXLTYPE2
 62
     6
100
AcDbVertex
100
AcDb2dVertex
 10
2312.5
 20
967.0
 30
0.0
  0
VERTEX
  5
568
100
AcDbEntity
  8
付属金具
  6
EXLTYPE2
 62
     6
100
AcDbVertex
100
AcDb2dVertex
 10
2316.0
 20
964.5
 30
0.0
  0
VERTEX
  5
569
100
AcDbEntity
  8
付属金具
  6
EXLTYPE2
 62
     6
100
AcDbVertex
100
AcDb2dVertex
 10
2312.5
 20
962.0
 30
0.0
  0
VERTEX
  5
56A
100
AcDbEntity
  8
付属金具
  6
EXLTYPE2
 62
     6
100
AcDbVertex
100
AcDb2dVertex
 10
2316.0
 20
959.5
 30
0.0
  0
VERTEX
  5
56B
100
AcDbEntity
  8
付属金具
  6
EXLTYPE2
 62
     6
100
AcDbVertex
100
AcDb2dVertex
 10
2312.5
 20
957.0
 30
0.0
  0
VERTEX
  5
56C
100
AcDbEntity
  8
付属金具
  6
EXLTYPE2
 62
     6
100
AcDbVertex
100
AcDb2dVertex
 10
2316.0
 20
954.5
 30
0.0
  0
VERTEX
  5
56D
100
AcDbEntity
  8
付属金具
  6
EXLTYPE2
 62
     6
100
AcDbVertex
100
AcDb2dVertex
 10
2312.5
 20
952.0
 30
0.0
  0
VERTEX
  5
56E
100
AcDbEntity
  8
付属金具
  6
EXLTYPE2
 62
     6
100
AcDbVertex
100
AcDb2dVertex
 10
2316.0
 20
949.5
 30
0.0
  0
VERTEX
  5
56F
100
AcDbEntity
  8
付属金具
  6
EXLTYPE2
 62
     6
100
AcDbVertex
100
AcDb2dVertex
 10
2312.5
 20
947.0
 30
0.0
  0
VERTEX
  5
570
100
AcDbEntity
  8
付属金具
  6
EXLTYPE2
 62
     6
100
AcDbVertex
100
AcDb2dVertex
 10
2316.0
 20
944.5
 30
0.0
  0
VERTEX
  5
571
100
AcDbEntity
  8
付属金具
  6
EXLTYPE2
 62
     6
100
AcDbVertex
100
AcDb2dVertex
 10
2312.5
 20
942.0
 30
0.0
  0
VERTEX
  5
572
100
AcDbEntity
  8
付属金具
  6
EXLTYPE2
 62
     6
100
AcDbVertex
100
AcDb2dVertex
 10
2316.0
 20
939.5
 30
0.0
  0
VERTEX
  5
573
100
AcDbEntity
  8
付属金具
  6
EXLTYPE2
 62
     6
100
AcDbVertex
100
AcDb2dVertex
 10
2312.5
 20
937.0
 30
0.0
  0
VERTEX
  5
574
100
AcDbEntity
  8
付属金具
  6
EXLTYPE2
 62
     6
100
AcDbVertex
100
AcDb2dVertex
 10
2316.0
 20
934.5
 30
0.0
  0
VERTEX
  5
575
100
AcDbEntity
  8
付属金具
  6
EXLTYPE2
 62
     6
100
AcDbVertex
100
AcDb2dVertex
 10
2312.5
 20
932.0
 30
0.0
  0
VERTEX
  5
576
100
AcDbEntity
  8
付属金具
  6
EXLTYPE2
 62
     6
100
AcDbVertex
100
AcDb2dVertex
 10
2316.0
 20
929.5
 30
0.0
  0
VERTEX
  5
577
100
AcDbEntity
  8
付属金具
  6
EXLTYPE2
 62
     6
100
AcDbVertex
100
AcDb2dVertex
 10
2312.5
 20
927.0
 30
0.0
  0
VERTEX
  5
578
100
AcDbEntity
  8
付属金具
  6
EXLTYPE2
 62
     6
100
AcDbVertex
100
AcDb2dVertex
 10
2316.0
 20
924.5
 30
0.0
  0
VERTEX
  5
579
100
AcDbEntity
  8
付属金具
  6
EXLTYPE2
 62
     6
100
AcDbVertex
100
AcDb2dVertex
 10
2312.5
 20
922.0
 30
0.0
  0
VERTEX
  5
57A
100
AcDbEntity
  8
付属金具
  6
EXLTYPE2
 62
     6
100
AcDbVertex
100
AcDb2dVertex
 10
2316.0
 20
919.5
 30
0.0
  0
VERTEX
  5
57B
100
AcDbEntity
  8
付属金具
  6
EXLTYPE2
 62
     6
100
AcDbVertex
100
AcDb2dVertex
 10
2312.5
 20
917.0
 30
0.0
  0
VERTEX
  5
57C
100
AcDbEntity
  8
付属金具
  6
EXLTYPE2
 62
     6
100
AcDbVertex
100
AcDb2dVertex
 10
2316.0
 20
914.5
 30
0.0
  0
VERTEX
  5
57D
100
AcDbEntity
  8
付属金具
  6
EXLTYPE2
 62
     6
100
AcDbVertex
100
AcDb2dVertex
 10
2312.5
 20
912.0
 30
0.0
  0
VERTEX
  5
57E
100
AcDbEntity
  8
付属金具
  6
EXLTYPE2
 62
     6
100
AcDbVertex
100
AcDb2dVertex
 10
2316.0
 20
909.5
 30
0.0
  0
VERTEX
  5
57F
100
AcDbEntity
  8
付属金具
  6
EXLTYPE2
 62
     6
100
AcDbVertex
100
AcDb2dVertex
 10
2312.5
 20
907.0
 30
0.0
  0
VERTEX
  5
580
100
AcDbEntity
  8
付属金具
  6
EXLTYPE2
 62
     6
100
AcDbVertex
100
AcDb2dVertex
 10
2316.0
 20
904.5
 30
0.0
  0
VERTEX
  5
581
100
AcDbEntity
  8
付属金具
  6
EXLTYPE2
 62
     6
100
AcDbVertex
100
AcDb2dVertex
 10
2312.5
 20
902.0
 30
0.0
  0
VERTEX
  5
582
100
AcDbEntity
  8
付属金具
  6
EXLTYPE2
 62
     6
100
AcDbVertex
100
AcDb2dVertex
 10
2316.0
 20
899.5
 30
0.0
  0
VERTEX
  5
583
100
AcDbEntity
  8
付属金具
  6
EXLTYPE2
 62
     6
100
AcDbVertex
100
AcDb2dVertex
 10
2312.5
 20
897.0
 30
0.0
  0
VERTEX
  5
584
100
AcDbEntity
  8
付属金具
  6
EXLTYPE2
 62
     6
100
AcDbVertex
100
AcDb2dVertex
 10
2314.15
 20
894.5
 30
0.0
  0
SEQEND
  5
585
100
AcDbEntity
  8
付属金具
  6
EXLTYPE2
 62
     6
  0
LINE
  5
586
100
AcDbEntity
  8
付属金具
  6
CONTINUOUS
 62
     6
100
AcDbLine
 10
2330.0
 20
1014.5
 30
0.0
 11
2344.0
 21
1014.5
 31
0.0
  0
LINE
  5
587
100
AcDbEntity
  8
付属金具
  6
CONTINUOUS
 62
     6
100
AcDbLine
 10
2316.0
 20
1009.5
 30
0.0
 11
2330.0
 21
1009.5
 31
0.0
  0
LINE
  5
588
100
AcDbEntity
  8
付属金具
  6
CONTINUOUS
 62
     6
100
AcDbLine
 10
2330.0
 20
1004.5
 30
0.0
 11
2344.0
 21
1004.5
 31
0.0
  0
LINE
  5
589
100
AcDbEntity
  8
付属金具
  6
CONTINUOUS
 62
     6
100
AcDbLine
 10
2316.0
 20
999.5
 30
0.0
 11
2330.0
 21
999.5
 31
0.0
  0
LINE
  5
58A
100
AcDbEntity
  8
付属金具
  6
CONTINUOUS
 62
     6
100
AcDbLine
 10
2330.0
 20
994.5
 30
0.0
 11
2344.0
 21
994.5
 31
0.0
  0
LINE
  5
58B
100
AcDbEntity
  8
付属金具
  6
CONTINUOUS
 62
     6
100
AcDbLine
 10
2316.0
 20
989.5
 30
0.0
 11
2330.0
 21
989.5
 31
0.0
  0
LINE
  5
58C
100
AcDbEntity
  8
付属金具
  6
CONTINUOUS
 62
     6
100
AcDbLine
 10
2330.0
 20
984.5
 30
0.0
 11
2344.0
 21
984.5
 31
0.0
  0
LINE
  5
58D
100
AcDbEntity
  8
付属金具
  6
CONTINUOUS
 62
     6
100
AcDbLine
 10
2316.0
 20
979.5
 30
0.0
 11
2330.0
 21
979.5
 31
0.0
  0
LINE
  5
58E
100
AcDbEntity
  8
付属金具
  6
CONTINUOUS
 62
     6
100
AcDbLine
 10
2330.0
 20
974.5
 30
0.0
 11
2344.0
 21
974.5
 31
0.0
  0
LINE
  5
58F
100
AcDbEntity
  8
付属金具
  6
CONTINUOUS
 62
     6
100
AcDbLine
 10
2316.0
 20
969.5
 30
0.0
 11
2330.0
 21
969.5
 31
0.0
  0
LINE
  5
590
100
AcDbEntity
  8
付属金具
  6
CONTINUOUS
 62
     6
100
AcDbLine
 10
2330.0
 20
964.5
 30
0.0
 11
2344.0
 21
964.5
 31
0.0
  0
LINE
  5
591
100
AcDbEntity
  8
付属金具
  6
CONTINUOUS
 62
     6
100
AcDbLine
 10
2316.0
 20
959.5
 30
0.0
 11
2330.0
 21
959.5
 31
0.0
  0
LINE
  5
592
100
AcDbEntity
  8
付属金具
  6
CONTINUOUS
 62
     6
100
AcDbLine
 10
2330.0
 20
954.5
 30
0.0
 11
2344.0
 21
954.5
 31
0.0
  0
LINE
  5
593
100
AcDbEntity
  8
付属金具
  6
CONTINUOUS
 62
     6
100
AcDbLine
 10
2316.0
 20
949.5
 30
0.0
 11
2330.0
 21
949.5
 31
0.0
  0
LINE
  5
594
100
AcDbEntity
  8
付属金具
  6
CONTINUOUS
 62
     6
100
AcDbLine
 10
2330.0
 20
944.5
 30
0.0
 11
2344.0
 21
944.5
 31
0.0
  0
LINE
  5
595
100
AcDbEntity
  8
付属金具
  6
CONTINUOUS
 62
     6
100
AcDbLine
 10
2316.0
 20
939.5
 30
0.0
 11
2330.0
 21
939.5
 31
0.0
  0
LINE
  5
596
100
AcDbEntity
  8
付属金具
  6
CONTINUOUS
 62
     6
100
AcDbLine
 10
2330.0
 20
1284.5
 30
0.0
 11
2344.0
 21
1284.5
 31
0.0
  0
LINE
  5
597
100
AcDbEntity
  8
付属金具
  6
CONTINUOUS
 62
     6
100
AcDbLine
 10
2316.0
 20
1279.5
 30
0.0
 11
2330.0
 21
1279.5
 31
0.0
  0
LINE
  5
598
100
AcDbEntity
  8
付属金具
  6
CONTINUOUS
 62
     6
100
AcDbLine
 10
2330.0
 20
1274.5
 30
0.0
 11
2344.0
 21
1274.5
 31
0.0
  0
LINE
  5
599
100
AcDbEntity
  8
付属金具
  6
CONTINUOUS
 62
     6
100
AcDbLine
 10
2316.0
 20
1269.5
 30
0.0
 11
2330.0
 21
1269.5
 31
0.0
  0
LINE
  5
59A
100
AcDbEntity
  8
付属金具
  6
CONTINUOUS
 62
     6
100
AcDbLine
 10
2330.0
 20
1264.5
 30
0.0
 11
2344.0
 21
1264.5
 31
0.0
  0
LINE
  5
59B
100
AcDbEntity
  8
付属金具
  6
CONTINUOUS
 62
     6
100
AcDbLine
 10
2316.0
 20
1259.5
 30
0.0
 11
2330.0
 21
1259.5
 31
0.0
  0
LINE
  5
59C
100
AcDbEntity
  8
付属金具
  6
CONTINUOUS
 62
     6
100
AcDbLine
 10
2330.0
 20
1254.5
 30
0.0
 11
2344.0
 21
1254.5
 31
0.0
  0
LINE
  5
59D
100
AcDbEntity
  8
付属金具
  6
CONTINUOUS
 62
     6
100
AcDbLine
 10
2316.0
 20
1249.5
 30
0.0
 11
2330.0
 21
1249.5
 31
0.0
  0
LINE
  5
59E
100
AcDbEntity
  8
付属金具
  6
CONTINUOUS
 62
     6
100
AcDbLine
 10
2330.0
 20
1244.5
 30
0.0
 11
2344.0
 21
1244.5
 31
0.0
  0
LINE
  5
59F
100
AcDbEntity
  8
付属金具
  6
CONTINUOUS
 62
     6
100
AcDbLine
 10
2316.0
 20
1239.5
 30
0.0
 11
2330.0
 21
1239.5
 31
0.0
  0
LINE
  5
5A0
100
AcDbEntity
  8
付属金具
  6
CONTINUOUS
 62
     6
100
AcDbLine
 10
2330.0
 20
1234.5
 30
0.0
 11
2344.0
 21
1234.5
 31
0.0
  0
LINE
  5
5A1
100
AcDbEntity
  8
付属金具
  6
CONTINUOUS
 62
     6
100
AcDbLine
 10
2316.0
 20
1229.5
 30
0.0
 11
2330.0
 21
1229.5
 31
0.0
  0
LINE
  5
5A2
100
AcDbEntity
  8
付属金具
  6
CONTINUOUS
 62
     6
100
AcDbLine
 10
2330.0
 20
1224.5
 30
0.0
 11
2344.0
 21
1224.5
 31
0.0
  0
LINE
  5
5A3
100
AcDbEntity
  8
付属金具
  6
CONTINUOUS
 62
     6
100
AcDbLine
 10
2316.0
 20
1219.5
 30
0.0
 11
2330.0
 21
1219.5
 31
0.0
  0
LINE
  5
5A4
100
AcDbEntity
  8
付属金具
  6
CONTINUOUS
 62
     6
100
AcDbLine
 10
2330.0
 20
1214.5
 30
0.0
 11
2344.0
 21
1214.5
 31
0.0
  0
LINE
  5
5A5
100
AcDbEntity
  8
付属金具
  6
CONTINUOUS
 62
     6
100
AcDbLine
 10
2316.0
 20
1209.5
 30
0.0
 11
2330.0
 21
1209.5
 31
0.0
  0
LINE
  5
5A6
100
AcDbEntity
  8
付属金具
  6
CONTINUOUS
 62
     6
100
AcDbLine
 10
2330.0
 20
1204.5
 30
0.0
 11
2344.0
 21
1204.5
 31
0.0
  0
LINE
  5
5A7
100
AcDbEntity
  8
付属金具
  6
CONTINUOUS
 62
     6
100
AcDbLine
 10
2316.0
 20
1199.5
 30
0.0
 11
2330.0
 21
1199.5
 31
0.0
  0
LINE
  5
5A8
100
AcDbEntity
  8
付属金具
  6
CONTINUOUS
 62
     6
100
AcDbLine
 10
2330.0
 20
1194.5
 30
0.0
 11
2344.0
 21
1194.5
 31
0.0
  0
LINE
  5
5A9
100
AcDbEntity
  8
付属金具
  6
CONTINUOUS
 62
     6
100
AcDbLine
 10
2316.0
 20
1189.5
 30
0.0
 11
2330.0
 21
1189.5
 31
0.0
  0
LINE
  5
5AA
100
AcDbEntity
  8
付属金具
  6
CONTINUOUS
 62
     6
100
AcDbLine
 10
2330.0
 20
1184.5
 30
0.0
 11
2344.0
 21
1184.5
 31
0.0
  0
LINE
  5
5AB
100
AcDbEntity
  8
付属金具
  6
CONTINUOUS
 62
     6
100
AcDbLine
 10
2316.0
 20
1179.5
 30
0.0
 11
2330.0
 21
1179.5
 31
0.0
  0
LINE
  5
5AC
100
AcDbEntity
  8
付属金具
  6
CONTINUOUS
 62
     6
100
AcDbLine
 10
2330.0
 20
1174.5
 30
0.0
 11
2344.0
 21
1174.5
 31
0.0
  0
LINE
  5
5AD
100
AcDbEntity
  8
付属金具
  6
CONTINUOUS
 62
     6
100
AcDbLine
 10
2316.0
 20
1169.5
 30
0.0
 11
2330.0
 21
1169.5
 31
0.0
  0
LINE
  5
5AE
100
AcDbEntity
  8
付属金具
  6
CONTINUOUS
 62
     6
100
AcDbLine
 10
2330.0
 20
1164.5
 30
0.0
 11
2344.0
 21
1164.5
 31
0.0
  0
LINE
  5
5AF
100
AcDbEntity
  8
付属金具
  6
CONTINUOUS
 62
     6
100
AcDbLine
 10
2316.0
 20
1159.5
 30
0.0
 11
2330.0
 21
1159.5
 31
0.0
  0
LINE
  5
5B0
100
AcDbEntity
  8
付属金具
  6
CONTINUOUS
 62
     6
100
AcDbLine
 10
2330.0
 20
1154.5
 30
0.0
 11
2344.0
 21
1154.5
 31
0.0
  0
LINE
  5
5B1
100
AcDbEntity
  8
付属金具
  6
CONTINUOUS
 62
     6
100
AcDbLine
 10
2316.0
 20
1149.5
 30
0.0
 11
2330.0
 21
1149.5
 31
0.0
  0
LINE
  5
5B2
100
AcDbEntity
  8
付属金具
  6
CONTINUOUS
 62
     6
100
AcDbLine
 10
2330.0
 20
1144.5
 30
0.0
 11
2344.0
 21
1144.5
 31
0.0
  0
LINE
  5
5B3
100
AcDbEntity
  8
付属金具
  6
CONTINUOUS
 62
     6
100
AcDbLine
 10
2316.0
 20
1139.5
 30
0.0
 11
2330.0
 21
1139.5
 31
0.0
  0
LINE
  5
5B4
100
AcDbEntity
  8
付属金具
  6
CONTINUOUS
 62
     6
100
AcDbLine
 10
2330.0
 20
1134.5
 30
0.0
 11
2344.0
 21
1134.5
 31
0.0
  0
LINE
  5
5B5
100
AcDbEntity
  8
付属金具
  6
CONTINUOUS
 62
     6
100
AcDbLine
 10
2316.0
 20
1129.5
 30
0.0
 11
2330.0
 21
1129.5
 31
0.0
  0
LINE
  5
5B6
100
AcDbEntity
  8
付属金具
  6
CONTINUOUS
 62
     6
100
AcDbLine
 10
2330.0
 20
1124.5
 30
0.0
 11
2344.0
 21
1124.5
 31
0.0
  0
LINE
  5
5B7
100
AcDbEntity
  8
付属金具
  6
CONTINUOUS
 62
     6
100
AcDbLine
 10
2316.0
 20
1119.5
 30
0.0
 11
2330.0
 21
1119.5
 31
0.0
  0
LINE
  5
5B8
100
AcDbEntity
  8
付属金具
  6
CONTINUOUS
 62
     6
100
AcDbLine
 10
2330.0
 20
1114.5
 30
0.0
 11
2344.0
 21
1114.5
 31
0.0
  0
LINE
  5
5B9
100
AcDbEntity
  8
付属金具
  6
CONTINUOUS
 62
     6
100
AcDbLine
 10
2316.0
 20
1109.5
 30
0.0
 11
2330.0
 21
1109.5
 31
0.0
  0
LINE
  5
5BA
100
AcDbEntity
  8
付属金具
  6
CONTINUOUS
 62
     6
100
AcDbLine
 10
2330.0
 20
1104.5
 30
0.0
 11
2344.0
 21
1104.5
 31
0.0
  0
LINE
  5
5BB
100
AcDbEntity
  8
付属金具
  6
CONTINUOUS
 62
     6
100
AcDbLine
 10
2316.0
 20
1099.5
 30
0.0
 11
2330.0
 21
1099.5
 31
0.0
  0
LINE
  5
5BC
100
AcDbEntity
  8
付属金具
  6
CONTINUOUS
 62
     6
100
AcDbLine
 10
2330.0
 20
1094.5
 30
0.0
 11
2344.0
 21
1094.5
 31
0.0
  0
LINE
  5
5BD
100
AcDbEntity
  8
付属金具
  6
CONTINUOUS
 62
     6
100
AcDbLine
 10
2316.0
 20
1089.5
 30
0.0
 11
2330.0
 21
1089.5
 31
0.0
  0
LINE
  5
5BE
100
AcDbEntity
  8
付属金具
  6
CONTINUOUS
 62
     6
100
AcDbLine
 10
2330.0
 20
1084.5
 30
0.0
 11
2344.0
 21
1084.5
 31
0.0
  0
LINE
  5
5BF
100
AcDbEntity
  8
付属金具
  6
CONTINUOUS
 62
     6
100
AcDbLine
 10
2316.0
 20
1079.5
 30
0.0
 11
2330.0
 21
1079.5
 31
0.0
  0
LINE
  5
5C0
100
AcDbEntity
  8
付属金具
  6
CONTINUOUS
 62
     6
100
AcDbLine
 10
2330.0
 20
1074.5
 30
0.0
 11
2344.0
 21
1074.5
 31
0.0
  0
LINE
  5
5C1
100
AcDbEntity
  8
付属金具
  6
CONTINUOUS
 62
     6
100
AcDbLine
 10
2316.0
 20
1069.5
 30
0.0
 11
2330.0
 21
1069.5
 31
0.0
  0
LINE
  5
5C2
100
AcDbEntity
  8
付属金具
  6
CONTINUOUS
 62
     6
100
AcDbLine
 10
2330.0
 20
1064.5
 30
0.0
 11
2344.0
 21
1064.5
 31
0.0
  0
LINE
  5
5C3
100
AcDbEntity
  8
付属金具
  6
CONTINUOUS
 62
     6
100
AcDbLine
 10
2316.0
 20
1059.5
 30
0.0
 11
2330.0
 21
1059.5
 31
0.0
  0
LINE
  5
5C4
100
AcDbEntity
  8
付属金具
  6
CONTINUOUS
 62
     6
100
AcDbLine
 10
2330.0
 20
1054.5
 30
0.0
 11
2344.0
 21
1054.5
 31
0.0
  0
LINE
  5
5C5
100
AcDbEntity
  8
付属金具
  6
CONTINUOUS
 62
     6
100
AcDbLine
 10
2316.0
 20
1049.5
 30
0.0
 11
2330.0
 21
1049.5
 31
0.0
  0
LINE
  5
5C6
100
AcDbEntity
  8
付属金具
  6
CONTINUOUS
 62
     6
100
AcDbLine
 10
2330.0
 20
1044.5
 30
0.0
 11
2344.0
 21
1044.5
 31
0.0
  0
LINE
  5
5C7
100
AcDbEntity
  8
付属金具
  6
CONTINUOUS
 62
     6
100
AcDbLine
 10
2316.0
 20
1039.5
 30
0.0
 11
2330.0
 21
1039.5
 31
0.0
  0
LINE
  5
5C8
100
AcDbEntity
  8
付属金具
  6
CONTINUOUS
 62
     6
100
AcDbLine
 10
2330.0
 20
1034.5
 30
0.0
 11
2344.0
 21
1034.5
 31
0.0
  0
LINE
  5
5C9
100
AcDbEntity
  8
付属金具
  6
CONTINUOUS
 62
     6
100
AcDbLine
 10
2316.0
 20
1029.5
 30
0.0
 11
2330.0
 21
1029.5
 31
0.0
  0
LINE
  5
5CA
100
AcDbEntity
  8
付属金具
  6
CONTINUOUS
 62
     6
100
AcDbLine
 10
2330.0
 20
1024.5
 30
0.0
 11
2344.0
 21
1024.5
 31
0.0
  0
LINE
  5
5CB
100
AcDbEntity
  8
付属金具
  6
CONTINUOUS
 62
     6
100
AcDbLine
 10
2316.0
 20
1019.5
 30
0.0
 11
2330.0
 21
1019.5
 31
0.0
  0
LINE
  5
5CC
100
AcDbEntity
  8
付属金具
  6
EXLTYPE2
 62
     6
100
AcDbLine
 10
2314.15
 20
1324.5
 30
0.0
 11
2345.85
 21
1324.5
 31
0.0
  0
LINE
  5
5CD
100
AcDbEntity
  8
付属金具
  6
CONTINUOUS
 62
     6
100
AcDbLine
 10
2316.0
 20
1319.5
 30
0.0
 11
2330.0
 21
1319.5
 31
0.0
  0
LINE
  5
5CE
100
AcDbEntity
  8
付属金具
  6
CONTINUOUS
 62
     6
100
AcDbLine
 10
2330.0
 20
1314.5
 30
0.0
 11
2344.0
 21
1314.5
 31
0.0
  0
LINE
  5
5CF
100
AcDbEntity
  8
付属金具
  6
CONTINUOUS
 62
     6
100
AcDbLine
 10
2316.0
 20
1309.5
 30
0.0
 11
2330.0
 21
1309.5
 31
0.0
  0
LINE
  5
5D0
100
AcDbEntity
  8
付属金具
  6
CONTINUOUS
 62
     6
100
AcDbLine
 10
2330.0
 20
1304.5
 30
0.0
 11
2344.0
 21
1304.5
 31
0.0
  0
LINE
  5
5D1
100
AcDbEntity
  8
付属金具
  6
CONTINUOUS
 62
     6
100
AcDbLine
 10
2316.0
 20
1299.5
 30
0.0
 11
2330.0
 21
1299.5
 31
0.0
  0
LINE
  5
5D2
100
AcDbEntity
  8
付属金具
  6
CONTINUOUS
 62
     6
100
AcDbLine
 10
2330.0
 20
1294.5
 30
0.0
 11
2344.0
 21
1294.5
 31
0.0
  0
LINE
  5
5D3
100
AcDbEntity
  8
付属金具
  6
CONTINUOUS
 62
     6
100
AcDbLine
 10
2316.0
 20
1289.5
 30
0.0
 11
2330.0
 21
1289.5
 31
0.0
  0
LINE
  5
5D4
100
AcDbEntity
  8
付属金具
  6
EXLTYPE2
 62
     6
100
AcDbLine
 10
2345.85
 20
1324.5
 30
0.0
 11
2345.85
 21
1353.0
 31
0.0
  0
LINE
  5
5D5
100
AcDbEntity
  8
付属金具
  6
EXLTYPE2
 62
     6
100
AcDbLine
 10
2314.15
 20
1352.328125
 30
0.0
 11
2314.15
 21
1324.5
 31
0.0
  0
ARC
  5
5D6
100
AcDbEntity
  8
付属金具
  6
EXLTYPE2
 62
     6
100
AcDbCircle
 10
2303.678125
 20
1352.328125
 30
0.0
 40
10.471875
100
AcDbArc
 50
0.0
 51
180.0
  0
ARC
  5
5D7
100
AcDbEntity
  8
付属金具
  6
EXLTYPE2
 62
     6
100
AcDbCircle
 10
2303.678125
 20
1352.328125
 30
0.0
 40
42.171875
100
AcDbArc
 50
0.0
 51
135.887102
  0
LINE
  5
5D8
100
AcDbEntity
  8
付属金具
  6
EXLTYPE2
 62
     6
100
AcDbLine
 10
2234.15
 20
1337.85
 30
0.0
 11
2234.15
 21
1300.093255
 31
0.0
  0
LINE
  5
5D9
100
AcDbEntity
  8
付属金具
  6
EXLTYPE2
 62
     6
100
AcDbLine
 10
2265.85
 20
1337.85
 30
0.0
 11
2265.85
 21
1297.5
 31
0.0
  0
LINE
  5
5DA
100
AcDbEntity
  8
付属金具
  6
EXLTYPE2
 62
     6
100
AcDbLine
 10
2265.85
 20
1302.5
 30
0.0
 11
2281.178125
 21
1302.5
 31
0.0
  0
LINE
  5
5DB
100
AcDbEntity
  8
付属金具
  6
EXLTYPE2
 62
     6
100
AcDbLine
 10
2295.85625
 20
1327.5
 30
0.0
 11
2295.85625
 21
1297.5
 31
0.0
  0
LINE
  5
5DC
100
AcDbEntity
  8
付属金具
  6
EXLTYPE2
 62
     6
100
AcDbLine
 10
2246.178125
 20
1272.525322
 30
0.0
 11
2246.178125
 21
1268.0
 31
0.0
  0
LINE
  5
5DD
100
AcDbEntity
  8
付属金具
  6
EXLTYPE2
 62
     6
100
AcDbLine
 10
2281.178125
 20
1302.5
 30
0.0
 11
2281.178125
 21
1268.0
 31
0.0
  0
LINE
  5
5DE
100
AcDbEntity
  8
付属金具
  6
EXLTYPE2
 62
     6
100
AcDbLine
 10
2268.5
 20
1340.5
 30
0.0
 11
2265.85
 21
1337.85
 31
0.0
  0
LINE
  5
5DF
100
AcDbEntity
  8
付属金具
  6
EXLTYPE2
 62
     6
100
AcDbLine
 10
2231.5
 20
1340.5
 30
0.0
 11
2234.15
 21
1337.85
 31
0.0
  0
LINE
  5
5E0
100
AcDbEntity
  8
付属金具
  6
EXLTYPE2
 62
     6
100
AcDbLine
 10
2281.75625
 20
1297.5
 30
0.0
 11
2295.85625
 21
1297.5
 31
0.0
  0
LINE
  5
5E1
100
AcDbEntity
  8
付属金具
  6
EXLTYPE2
 62
     6
100
AcDbLine
 10
2265.85
 20
1327.5
 30
0.0
 11
2300.75625
 21
1327.5
 31
0.0
  0
LINE
  5
5E2
100
AcDbEntity
  8
付属金具
  6
EXLTYPE2
 62
     6
100
AcDbLine
 10
2268.5
 20
1345.5
 30
0.0
 11
2298.75625
 21
1345.5
 31
0.0
  0
LINE
  5
5E3
100
AcDbEntity
  8
付属金具
  6
EXLTYPE2
 62
     6
100
AcDbLine
 10
2271.086239
 20
1343.5
 30
0.0
 11
2271.086239
 21
1327.5
 31
0.0
  0
LINE
  5
5E4
100
AcDbEntity
  8
付属金具
  6
EXLTYPE2
 62
     6
100
AcDbLine
 10
2283.626261
 20
1343.5
 30
0.0
 11
2283.626261
 21
1327.5
 31
0.0
  0
LINE
  5
5E5
100
AcDbEntity
  8
付属金具
  6
EXLTYPE2
 62
     6
100
AcDbLine
 10
2294.486239
 20
1343.5
 30
0.0
 11
2294.486239
 21
1327.5
 31
0.0
  0
LINE
  5
5E6
100
AcDbEntity
  8
付属金具
  6
EXLTYPE2
 62
     6
100
AcDbLine
 10
2300.75625
 20
1343.5
 30
0.0
 11
2300.75625
 21
1327.5
 31
0.0
  0
ARC
  5
5E7
100
AcDbEntity
  8
付属金具
  6
EXLTYPE2
 62
     6
100
AcDbCircle
 10
2298.75625
 20
1343.5
 30
0.0
 40
2.0
100
AcDbArc
 50
0.0
 51
90.0
  0
LINE
  5
5E8
100
AcDbEntity
  8
付属金具
  6
EXLTYPE2
 62
     6
100
AcDbLine
 10
2240.678125
 20
1268.0
 30
0.0
 11
2286.678125
 21
1268.0
 31
0.0
  0
LINE
  5
5E9
100
AcDbEntity
  8
付属金具
  6
EXLTYPE2
 62
     6
100
AcDbLine
 10
2242.178125
 20
1251.5
 30
0.0
 11
2285.178125
 21
1251.5
 31
0.0
  0
LINE
  5
5EA
100
AcDbEntity
  8
付属金具
  6
EXLTYPE2
 62
     6
100
AcDbLine
 10
2242.824466
 20
1251.5
 30
0.0
 11
2242.824466
 21
1268.0
 31
0.0
  0
LINE
  5
5EB
100
AcDbEntity
  8
付属金具
  6
EXLTYPE2
 62
     6
100
AcDbLine
 10
2284.531784
 20
1251.5
 30
0.0
 11
2284.531784
 21
1268.0
 31
0.0
  0
LINE
  5
5EC
100
AcDbEntity
  8
付属金具
  6
EXLTYPE2
 62
     6
100
AcDbLine
 10
2286.678125
 20
1253.0
 30
0.0
 11
2286.678125
 21
1268.0
 31
0.0
  0
LINE
  5
5ED
100
AcDbEntity
  8
付属金具
  6
EXLTYPE2
 62
     6
100
AcDbLine
 10
2240.678125
 20
1253.0
 30
0.0
 11
2240.678125
 21
1268.0
 31
0.0
  0
LINE
  5
5EE
100
AcDbEntity
  8
付属金具
  6
EXLTYPE2
 62
     6
100
AcDbLine
 10
2255.394586
 20
1253.0
 30
0.0
 11
2255.394586
 21
1268.0
 31
0.0
  0
LINE
  5
5EF
100
AcDbEntity
  8
付属金具
  6
EXLTYPE2
 62
     6
100
AcDbLine
 10
2271.961664
 20
1253.0
 30
0.0
 11
2271.961664
 21
1268.0
 31
0.0
  0
LINE
  5
5F0
100
AcDbEntity
  8
付属金具
  6
EXLTYPE2
 62
     6
100
AcDbLine
 10
2250.928125
 20
1268.0
 30
0.0
 11
2250.928125
 21
1253.0
 31
0.0
  0
LINE
  5
5F1
100
AcDbEntity
  8
付属金具
  6
EXLTYPE2
 62
     6
100
AcDbLine
 10
2276.428125
 20
1268.0
 30
0.0
 11
2276.428125
 21
1253.0
 31
0.0
  0
ARC
  5
5F2
100
AcDbEntity
  8
付属金具
  6
EXLTYPE2
 62
     6
100
AcDbCircle
 10
2242.178125
 20
1253.0
 30
0.0
 40
1.5
100
AcDbArc
 50
180.0
 51
270.0
  0
ARC
  5
5F3
100
AcDbEntity
  8
付属金具
  6
EXLTYPE2
 62
     6
100
AcDbCircle
 10
2285.178125
 20
1253.0
 30
0.0
 40
1.5
100
AcDbArc
 50
270.0
 51
0.0
  0
LINE
  5
5F4
100
AcDbEntity
  8
付属金具
  6
EXLTYPE2
 62
     6
100
AcDbLine
 10
2234.15
 20
1337.85
 30
0.0
 11
2265.85
 21
1337.85
 31
0.0
  0
ARC
  5
5F5
100
AcDbEntity
  8
付属金具
  6
EXLTYPE2
 62
     6
100
AcDbCircle
 10
2274.15
 20
1300.093255
 30
0.0
 40
40.0
100
AcDbArc
 50
180.0
 51
216.143789
  0
ARC
  5
5F6
100
AcDbEntity
  8
付属金具
  6
EXLTYPE2
 62
     6
100
AcDbCircle
 10
2253.961516
 20
1285.347912
 30
0.0
 40
15.0
100
AcDbArc
 50
216.143789
 51
310.373975
  0
ARC
  5
5F7
100
AcDbEntity
  8
付属金具
  6
EXLTYPE2
 62
     6
100
AcDbCircle
 10
2251.595911
 20
1298.423829
 30
0.0
 40
40.0
100
AcDbArc
 50
317.693553
 51
358.676594
  0
LINE
  5
5F8
100
AcDbEntity
  8
付属金具
  6
EXLTYPE2
 62
     6
100
AcDbLine
 10
2293.20625
 20
1352.328125
 30
0.0
 11
2293.20625
 21
1345.5
 31
0.0
  0
LINE
  5
5F9
100
AcDbEntity
  8
付属金具
  6
CONTINUOUS
 62
     6
100
AcDbLine
 10
906.0
 20
1059.5
 30
0.0
 11
920.0
 21
1059.5
 31
0.0
  0
LINE
  5
5FA
100
AcDbEntity
  8
付属金具
  6
CONTINUOUS
 62
     6
100
AcDbLine
 10
920.0
 20
1054.5
 30
0.0
 11
934.0
 21
1054.5
 31
0.0
  0
LINE
  5
5FB
100
AcDbEntity
  8
付属金具
  6
CONTINUOUS
 62
     6
100
AcDbLine
 10
906.0
 20
1049.5
 30
0.0
 11
920.0
 21
1049.5
 31
0.0
  0
LINE
  5
5FC
100
AcDbEntity
  8
付属金具
  6
CONTINUOUS
 62
     6
100
AcDbLine
 10
920.0
 20
1044.5
 30
0.0
 11
934.0
 21
1044.5
 31
0.0
  0
LINE
  5
5FD
100
AcDbEntity
  8
付属金具
  6
CONTINUOUS
 62
     6
100
AcDbLine
 10
906.0
 20
1039.5
 30
0.0
 11
920.0
 21
1039.5
 31
0.0
  0
LINE
  5
5FE
100
AcDbEntity
  8
付属金具
  6
CONTINUOUS
 62
     6
100
AcDbLine
 10
920.0
 20
1034.5
 30
0.0
 11
934.0
 21
1034.5
 31
0.0
  0
LINE
  5
5FF
100
AcDbEntity
  8
付属金具
  6
CONTINUOUS
 62
     6
100
AcDbLine
 10
906.0
 20
1029.5
 30
0.0
 11
920.0
 21
1029.5
 31
0.0
  0
LINE
  5
600
100
AcDbEntity
  8
付属金具
  6
CONTINUOUS
 62
     6
100
AcDbLine
 10
920.0
 20
1024.5
 30
0.0
 11
934.0
 21
1024.5
 31
0.0
  0
LINE
  5
601
100
AcDbEntity
  8
付属金具
  6
CONTINUOUS
 62
     6
100
AcDbLine
 10
906.0
 20
1019.5
 30
0.0
 11
920.0
 21
1019.5
 31
0.0
  0
LINE
  5
602
100
AcDbEntity
  8
付属金具
  6
CONTINUOUS
 62
     6
100
AcDbLine
 10
920.0
 20
1014.5
 30
0.0
 11
934.0
 21
1014.5
 31
0.0
  0
LINE
  5
603
100
AcDbEntity
  8
付属金具
  6
CONTINUOUS
 62
     6
100
AcDbLine
 10
906.0
 20
1009.5
 30
0.0
 11
920.0
 21
1009.5
 31
0.0
  0
LINE
  5
604
100
AcDbEntity
  8
付属金具
  6
CONTINUOUS
 62
     6
100
AcDbLine
 10
920.0
 20
1004.5
 30
0.0
 11
934.0
 21
1004.5
 31
0.0
  0
LINE
  5
605
100
AcDbEntity
  8
付属金具
  6
CONTINUOUS
 62
     6
100
AcDbLine
 10
906.0
 20
999.5
 30
0.0
 11
920.0
 21
999.5
 31
0.0
  0
LINE
  5
606
100
AcDbEntity
  8
付属金具
  6
CONTINUOUS
 62
     6
100
AcDbLine
 10
920.0
 20
994.5
 30
0.0
 11
934.0
 21
994.5
 31
0.0
  0
LINE
  5
607
100
AcDbEntity
  8
付属金具
  6
CONTINUOUS
 62
     6
100
AcDbLine
 10
906.0
 20
989.5
 30
0.0
 11
920.0
 21
989.5
 31
0.0
  0
LINE
  5
608
100
AcDbEntity
  8
付属金具
  6
CONTINUOUS
 62
     6
100
AcDbLine
 10
920.0
 20
984.5
 30
0.0
 11
934.0
 21
984.5
 31
0.0
  0
LINE
  5
609
100
AcDbEntity
  8
付属金具
  6
CONTINUOUS
 62
     6
100
AcDbLine
 10
906.0
 20
979.5
 30
0.0
 11
920.0
 21
979.5
 31
0.0
  0
LINE
  5
60A
100
AcDbEntity
  8
付属金具
  6
CONTINUOUS
 62
     6
100
AcDbLine
 10
920.0
 20
974.5
 30
0.0
 11
934.0
 21
974.5
 31
0.0
  0
LINE
  5
60B
100
AcDbEntity
  8
付属金具
  6
CONTINUOUS
 62
     6
100
AcDbLine
 10
906.0
 20
969.5
 30
0.0
 11
920.0
 21
969.5
 31
0.0
  0
LINE
  5
60C
100
AcDbEntity
  8
付属金具
  6
CONTINUOUS
 62
     6
100
AcDbLine
 10
920.0
 20
964.5
 30
0.0
 11
934.0
 21
964.5
 31
0.0
  0
LINE
  5
60D
100
AcDbEntity
  8
付属金具
  6
CONTINUOUS
 62
     6
100
AcDbLine
 10
906.0
 20
959.5
 30
0.0
 11
920.0
 21
959.5
 31
0.0
  0
LINE
  5
60E
100
AcDbEntity
  8
付属金具
  6
CONTINUOUS
 62
     6
100
AcDbLine
 10
920.0
 20
954.5
 30
0.0
 11
934.0
 21
954.5
 31
0.0
  0
LINE
  5
60F
100
AcDbEntity
  8
付属金具
  6
CONTINUOUS
 62
     6
100
AcDbLine
 10
906.0
 20
949.5
 30
0.0
 11
920.0
 21
949.5
 31
0.0
  0
LINE
  5
610
100
AcDbEntity
  8
付属金具
  6
CONTINUOUS
 62
     6
100
AcDbLine
 10
920.0
 20
944.5
 30
0.0
 11
934.0
 21
944.5
 31
0.0
  0
LINE
  5
611
100
AcDbEntity
  8
付属金具
  6
CONTINUOUS
 62
     6
100
AcDbLine
 10
906.0
 20
939.5
 30
0.0
 11
920.0
 21
939.5
 31
0.0
  0
LINE
  5
612
100
AcDbEntity
  8
付属金具
  6
CONTINUOUS
 62
     6
100
AcDbLine
 10
920.0
 20
934.5
 30
0.0
 11
934.0
 21
934.5
 31
0.0
  0
LINE
  5
613
100
AcDbEntity
  8
付属金具
  6
CONTINUOUS
 62
     6
100
AcDbLine
 10
906.0
 20
929.5
 30
0.0
 11
920.0
 21
929.5
 31
0.0
  0
LINE
  5
614
100
AcDbEntity
  8
付属金具
  6
CONTINUOUS
 62
     6
100
AcDbLine
 10
920.0
 20
924.5
 30
0.0
 11
934.0
 21
924.5
 31
0.0
  0
LINE
  5
615
100
AcDbEntity
  8
付属金具
  6
CONTINUOUS
 62
     6
100
AcDbLine
 10
906.0
 20
919.5
 30
0.0
 11
920.0
 21
919.5
 31
0.0
  0
LINE
  5
616
100
AcDbEntity
  8
付属金具
  6
CONTINUOUS
 62
     6
100
AcDbLine
 10
920.0
 20
914.5
 30
0.0
 11
934.0
 21
914.5
 31
0.0
  0
LINE
  5
617
100
AcDbEntity
  8
付属金具
  6
CONTINUOUS
 62
     6
100
AcDbLine
 10
906.0
 20
909.5
 30
0.0
 11
920.0
 21
909.5
 31
0.0
  0
LINE
  5
618
100
AcDbEntity
  8
付属金具
  6
CONTINUOUS
 62
     6
100
AcDbLine
 10
920.0
 20
904.5
 30
0.0
 11
934.0
 21
904.5
 31
0.0
  0
LINE
  5
619
100
AcDbEntity
  8
付属金具
  6
CONTINUOUS
 62
     6
100
AcDbLine
 10
906.0
 20
899.5
 30
0.0
 11
920.0
 21
899.5
 31
0.0
  0
LINE
  5
61A
100
AcDbEntity
  8
付属金具
  6
EXLTYPE2
 62
     6
100
AcDbLine
 10
920.0
 20
894.5
 30
0.0
 11
935.85
 21
894.5
 31
0.0
  0
LINE
  5
61B
100
AcDbEntity
  8
付属金具
  6
EXLTYPE2
 62
     6
100
AcDbLine
 10
887.0
 20
898.5
 30
0.0
 11
953.0
 21
898.5
 31
0.0
  0
LINE
  5
61C
100
AcDbEntity
  8
付属金具
  6
EXLTYPE2
 62
     6
100
AcDbLine
 10
887.0
 20
914.0
 30
0.0
 11
887.0
 21
898.5
 31
0.0
  0
ARC
  5
61D
100
AcDbEntity
  8
付属金具
  6
EXLTYPE2
 62
     6
100
AcDbCircle
 10
889.5
 20
914.0
 30
0.0
 40
2.5
100
AcDbArc
 50
90.0
 51
180.0
  0
ARC
  5
61E
100
AcDbEntity
  8
付属金具
  6
EXLTYPE2
 62
     6
100
AcDbCircle
 10
895.5
 20
926.0
 30
0.0
 40
2.5
100
AcDbArc
 50
90.0
 51
180.0
  0
LINE
  5
61F
100
AcDbEntity
  8
付属金具
  6
EXLTYPE2
 62
     6
100
AcDbLine
 10
895.5
 20
928.5
 30
0.0
 11
944.5
 21
928.5
 31
0.0
  0
ARC
  5
620
100
AcDbEntity
  8
付属金具
  6
EXLTYPE2
 62
     6
100
AcDbCircle
 10
944.5
 20
926.0
 30
0.0
 40
2.5
100
AcDbArc
 50
0.0
 51
90.0
  0
LINE
  5
621
100
AcDbEntity
  8
付属金具
  6
EXLTYPE2
 62
     6
100
AcDbLine
 10
953.0
 20
914.0
 30
0.0
 11
953.0
 21
898.5
 31
0.0
  0
LINE
  5
622
100
AcDbEntity
  8
付属金具
  6
EXLTYPE2
 62
     6
100
AcDbLine
 10
889.5
 20
916.5
 30
0.0
 11
950.5
 21
916.5
 31
0.0
  0
ARC
  5
623
100
AcDbEntity
  8
付属金具
  6
EXLTYPE2
 62
     6
100
AcDbCircle
 10
950.5
 20
914.0
 30
0.0
 40
2.5
100
AcDbArc
 50
0.0
 51
90.0
  0
LINE
  5
624
100
AcDbEntity
  8
付属金具
  6
EXLTYPE2
 62
     6
100
AcDbLine
 10
893.0
 20
926.0
 30
0.0
 11
893.0
 21
919.0
 31
0.0
  0
ARC
  5
625
100
AcDbEntity
  8
付属金具
  6
EXLTYPE2
 62
     6
100
AcDbCircle
 10
890.5
 20
919.0
 30
0.0
 40
2.5
100
AcDbArc
 50
270.0
 51
0.0
  0
LINE
  5
626
100
AcDbEntity
  8
付属金具
  6
EXLTYPE2
 62
     6
100
AcDbLine
 10
947.0
 20
926.0
 30
0.0
 11
947.0
 21
919.0
 31
0.0
  0
ARC
  5
627
100
AcDbEntity
  8
付属金具
  6
EXLTYPE2
 62
     6
100
AcDbCircle
 10
949.5
 20
919.0
 30
0.0
 40
2.5
100
AcDbArc
 50
180.0
 51
270.0
  0
LINE
  5
628
100
AcDbEntity
  8
付属金具
  6
CONTINUOUS
 62
     2
100
AcDbLine
 10
904.15
 20
894.5
 30
0.0
 11
904.15
 21
794.5
 31
0.0
  0
LINE
  5
629
100
AcDbEntity
  8
付属金具
  6
CONTINUOUS
 62
     2
100
AcDbLine
 10
904.15
 20
794.5
 30
0.0
 11
935.85
 21
794.5
 31
0.0
  0
LINE
  5
62A
100
AcDbEntity
  8
付属金具
  6
CONTINUOUS
 62
     2
100
AcDbLine
 10
935.85
 20
794.5
 30
0.0
 11
935.85
 21
894.5
 31
0.0
  0
POLYLINE
  5
62B
100
AcDbEntity
  8
付属金具
  6
EXLTYPE2
 62
     6
100
AcDb2dPolyline
 66
     1
 10
0.0
 20
0.0
 30
0.0
 70
   128
  0
VERTEX
  5
62C
100
AcDbEntity
  8
付属金具
  6
EXLTYPE2
 62
     6
100
AcDbVertex
100
AcDb2dVertex
 10
935.843666
 20
1308.183096
 30
0.0
  0
VERTEX
  5
62D
100
AcDbEntity
  8
付属金具
  6
EXLTYPE2
 62
     6
100
AcDbVertex
100
AcDb2dVertex
 10
937.5
 20
1307.0
 30
0.0
  0
VERTEX
  5
62E
100
AcDbEntity
  8
付属金具
  6
EXLTYPE2
 62
     6
100
AcDbVertex
100
AcDb2dVertex
 10
934.0
 20
1304.5
 30
0.0
  0
VERTEX
  5
62F
100
AcDbEntity
  8
付属金具
  6
EXLTYPE2
 62
     6
100
AcDbVertex
100
AcDb2dVertex
 10
937.5
 20
1302.0
 30
0.0
  0
VERTEX
  5
630
100
AcDbEntity
  8
付属金具
  6
EXLTYPE2
 62
     6
100
AcDbVertex
100
AcDb2dVertex
 10
934.0
 20
1299.5
 30
0.0
  0
VERTEX
  5
631
100
AcDbEntity
  8
付属金具
  6
EXLTYPE2
 62
     6
100
AcDbVertex
100
AcDb2dVertex
 10
937.5
 20
1297.0
 30
0.0
  0
VERTEX
  5
632
100
AcDbEntity
  8
付属金具
  6
EXLTYPE2
 62
     6
100
AcDbVertex
100
AcDb2dVertex
 10
934.0
 20
1294.5
 30
0.0
  0
VERTEX
  5
633
100
AcDbEntity
  8
付属金具
  6
EXLTYPE2
 62
     6
100
AcDbVertex
100
AcDb2dVertex
 10
937.5
 20
1292.0
 30
0.0
  0
VERTEX
  5
634
100
AcDbEntity
  8
付属金具
  6
EXLTYPE2
 62
     6
100
AcDbVertex
100
AcDb2dVertex
 10
934.0
 20
1289.5
 30
0.0
  0
VERTEX
  5
635
100
AcDbEntity
  8
付属金具
  6
EXLTYPE2
 62
     6
100
AcDbVertex
100
AcDb2dVertex
 10
937.5
 20
1287.0
 30
0.0
  0
VERTEX
  5
636
100
AcDbEntity
  8
付属金具
  6
EXLTYPE2
 62
     6
100
AcDbVertex
100
AcDb2dVertex
 10
934.0
 20
1284.5
 30
0.0
  0
VERTEX
  5
637
100
AcDbEntity
  8
付属金具
  6
EXLTYPE2
 62
     6
100
AcDbVertex
100
AcDb2dVertex
 10
937.5
 20
1282.0
 30
0.0
  0
VERTEX
  5
638
100
AcDbEntity
  8
付属金具
  6
EXLTYPE2
 62
     6
100
AcDbVertex
100
AcDb2dVertex
 10
934.0
 20
1279.5
 30
0.0
  0
VERTEX
  5
639
100
AcDbEntity
  8
付属金具
  6
EXLTYPE2
 62
     6
100
AcDbVertex
100
AcDb2dVertex
 10
937.5
 20
1277.0
 30
0.0
  0
VERTEX
  5
63A
100
AcDbEntity
  8
付属金具
  6
EXLTYPE2
 62
     6
100
AcDbVertex
100
AcDb2dVertex
 10
934.0
 20
1274.5
 30
0.0
  0
VERTEX
  5
63B
100
AcDbEntity
  8
付属金具
  6
EXLTYPE2
 62
     6
100
AcDbVertex
100
AcDb2dVertex
 10
937.5
 20
1272.0
 30
0.0
  0
VERTEX
  5
63C
100
AcDbEntity
  8
付属金具
  6
EXLTYPE2
 62
     6
100
AcDbVertex
100
AcDb2dVertex
 10
934.0
 20
1269.5
 30
0.0
  0
VERTEX
  5
63D
100
AcDbEntity
  8
付属金具
  6
EXLTYPE2
 62
     6
100
AcDbVertex
100
AcDb2dVertex
 10
937.5
 20
1267.0
 30
0.0
  0
VERTEX
  5
63E
100
AcDbEntity
  8
付属金具
  6
EXLTYPE2
 62
     6
100
AcDbVertex
100
AcDb2dVertex
 10
934.0
 20
1264.5
 30
0.0
  0
VERTEX
  5
63F
100
AcDbEntity
  8
付属金具
  6
EXLTYPE2
 62
     6
100
AcDbVertex
100
AcDb2dVertex
 10
937.5
 20
1262.0
 30
0.0
  0
VERTEX
  5
640
100
AcDbEntity
  8
付属金具
  6
EXLTYPE2
 62
     6
100
AcDbVertex
100
AcDb2dVertex
 10
934.0
 20
1259.5
 30
0.0
  0
VERTEX
  5
641
100
AcDbEntity
  8
付属金具
  6
EXLTYPE2
 62
     6
100
AcDbVertex
100
AcDb2dVertex
 10
937.5
 20
1257.0
 30
0.0
  0
VERTEX
  5
642
100
AcDbEntity
  8
付属金具
  6
EXLTYPE2
 62
     6
100
AcDbVertex
100
AcDb2dVertex
 10
934.0
 20
1254.5
 30
0.0
  0
VERTEX
  5
643
100
AcDbEntity
  8
付属金具
  6
EXLTYPE2
 62
     6
100
AcDbVertex
100
AcDb2dVertex
 10
937.5
 20
1252.0
 30
0.0
  0
VERTEX
  5
644
100
AcDbEntity
  8
付属金具
  6
EXLTYPE2
 62
     6
100
AcDbVertex
100
AcDb2dVertex
 10
934.0
 20
1249.5
 30
0.0
  0
VERTEX
  5
645
100
AcDbEntity
  8
付属金具
  6
EXLTYPE2
 62
     6
100
AcDbVertex
100
AcDb2dVertex
 10
937.5
 20
1247.0
 30
0.0
  0
VERTEX
  5
646
100
AcDbEntity
  8
付属金具
  6
EXLTYPE2
 62
     6
100
AcDbVertex
100
AcDb2dVertex
 10
934.0
 20
1244.5
 30
0.0
  0
VERTEX
  5
647
100
AcDbEntity
  8
付属金具
  6
EXLTYPE2
 62
     6
100
AcDbVertex
100
AcDb2dVertex
 10
937.5
 20
1242.0
 30
0.0
  0
VERTEX
  5
648
100
AcDbEntity
  8
付属金具
  6
EXLTYPE2
 62
     6
100
AcDbVertex
100
AcDb2dVertex
 10
934.0
 20
1239.5
 30
0.0
  0
VERTEX
  5
649
100
AcDbEntity
  8
付属金具
  6
EXLTYPE2
 62
     6
100
AcDbVertex
100
AcDb2dVertex
 10
937.5
 20
1237.0
 30
0.0
  0
VERTEX
  5
64A
100
AcDbEntity
  8
付属金具
  6
EXLTYPE2
 62
     6
100
AcDbVertex
100
AcDb2dVertex
 10
934.0
 20
1234.5
 30
0.0
  0
VERTEX
  5
64B
100
AcDbEntity
  8
付属金具
  6
EXLTYPE2
 62
     6
100
AcDbVertex
100
AcDb2dVertex
 10
937.5
 20
1232.0
 30
0.0
  0
VERTEX
  5
64C
100
AcDbEntity
  8
付属金具
  6
EXLTYPE2
 62
     6
100
AcDbVertex
100
AcDb2dVertex
 10
934.0
 20
1229.5
 30
0.0
  0
VERTEX
  5
64D
100
AcDbEntity
  8
付属金具
  6
EXLTYPE2
 62
     6
100
AcDbVertex
100
AcDb2dVertex
 10
937.5
 20
1227.0
 30
0.0
  0
VERTEX
  5
64E
100
AcDbEntity
  8
付属金具
  6
EXLTYPE2
 62
     6
100
AcDbVertex
100
AcDb2dVertex
 10
934.0
 20
1224.5
 30
0.0
  0
VERTEX
  5
64F
100
AcDbEntity
  8
付属金具
  6
EXLTYPE2
 62
     6
100
AcDbVertex
100
AcDb2dVertex
 10
937.5
 20
1222.0
 30
0.0
  0
VERTEX
  5
650
100
AcDbEntity
  8
付属金具
  6
EXLTYPE2
 62
     6
100
AcDbVertex
100
AcDb2dVertex
 10
934.0
 20
1219.5
 30
0.0
  0
VERTEX
  5
651
100
AcDbEntity
  8
付属金具
  6
EXLTYPE2
 62
     6
100
AcDbVertex
100
AcDb2dVertex
 10
937.5
 20
1217.0
 30
0.0
  0
VERTEX
  5
652
100
AcDbEntity
  8
付属金具
  6
EXLTYPE2
 62
     6
100
AcDbVertex
100
AcDb2dVertex
 10
934.0
 20
1214.5
 30
0.0
  0
VERTEX
  5
653
100
AcDbEntity
  8
付属金具
  6
EXLTYPE2
 62
     6
100
AcDbVertex
100
AcDb2dVertex
 10
937.5
 20
1212.0
 30
0.0
  0
VERTEX
  5
654
100
AcDbEntity
  8
付属金具
  6
EXLTYPE2
 62
     6
100
AcDbVertex
100
AcDb2dVertex
 10
934.0
 20
1209.5
 30
0.0
  0
VERTEX
  5
655
100
AcDbEntity
  8
付属金具
  6
EXLTYPE2
 62
     6
100
AcDbVertex
100
AcDb2dVertex
 10
937.5
 20
1207.0
 30
0.0
  0
VERTEX
  5
656
100
AcDbEntity
  8
付属金具
  6
EXLTYPE2
 62
     6
100
AcDbVertex
100
AcDb2dVertex
 10
934.0
 20
1204.5
 30
0.0
  0
VERTEX
  5
657
100
AcDbEntity
  8
付属金具
  6
EXLTYPE2
 62
     6
100
AcDbVertex
100
AcDb2dVertex
 10
937.5
 20
1202.0
 30
0.0
  0
VERTEX
  5
658
100
AcDbEntity
  8
付属金具
  6
EXLTYPE2
 62
     6
100
AcDbVertex
100
AcDb2dVertex
 10
934.0
 20
1199.5
 30
0.0
  0
VERTEX
  5
659
100
AcDbEntity
  8
付属金具
  6
EXLTYPE2
 62
     6
100
AcDbVertex
100
AcDb2dVertex
 10
937.5
 20
1197.0
 30
0.0
  0
VERTEX
  5
65A
100
AcDbEntity
  8
付属金具
  6
EXLTYPE2
 62
     6
100
AcDbVertex
100
AcDb2dVertex
 10
934.0
 20
1194.5
 30
0.0
  0
VERTEX
  5
65B
100
AcDbEntity
  8
付属金具
  6
EXLTYPE2
 62
     6
100
AcDbVertex
100
AcDb2dVertex
 10
937.5
 20
1192.0
 30
0.0
  0
VERTEX
  5
65C
100
AcDbEntity
  8
付属金具
  6
EXLTYPE2
 62
     6
100
AcDbVertex
100
AcDb2dVertex
 10
934.0
 20
1189.5
 30
0.0
  0
VERTEX
  5
65D
100
AcDbEntity
  8
付属金具
  6
EXLTYPE2
 62
     6
100
AcDbVertex
100
AcDb2dVertex
 10
937.5
 20
1187.0
 30
0.0
  0
VERTEX
  5
65E
100
AcDbEntity
  8
付属金具
  6
EXLTYPE2
 62
     6
100
AcDbVertex
100
AcDb2dVertex
 10
934.0
 20
1184.5
 30
0.0
  0
VERTEX
  5
65F
100
AcDbEntity
  8
付属金具
  6
EXLTYPE2
 62
     6
100
AcDbVertex
100
AcDb2dVertex
 10
937.5
 20
1182.0
 30
0.0
  0
VERTEX
  5
660
100
AcDbEntity
  8
付属金具
  6
EXLTYPE2
 62
     6
100
AcDbVertex
100
AcDb2dVertex
 10
934.0
 20
1179.5
 30
0.0
  0
VERTEX
  5
661
100
AcDbEntity
  8
付属金具
  6
EXLTYPE2
 62
     6
100
AcDbVertex
100
AcDb2dVertex
 10
937.5
 20
1177.0
 30
0.0
  0
VERTEX
  5
662
100
AcDbEntity
  8
付属金具
  6
EXLTYPE2
 62
     6
100
AcDbVertex
100
AcDb2dVertex
 10
934.0
 20
1174.5
 30
0.0
  0
VERTEX
  5
663
100
AcDbEntity
  8
付属金具
  6
EXLTYPE2
 62
     6
100
AcDbVertex
100
AcDb2dVertex
 10
937.5
 20
1172.0
 30
0.0
  0
VERTEX
  5
664
100
AcDbEntity
  8
付属金具
  6
EXLTYPE2
 62
     6
100
AcDbVertex
100
AcDb2dVertex
 10
934.0
 20
1169.5
 30
0.0
  0
VERTEX
  5
665
100
AcDbEntity
  8
付属金具
  6
EXLTYPE2
 62
     6
100
AcDbVertex
100
AcDb2dVertex
 10
937.5
 20
1167.0
 30
0.0
  0
VERTEX
  5
666
100
AcDbEntity
  8
付属金具
  6
EXLTYPE2
 62
     6
100
AcDbVertex
100
AcDb2dVertex
 10
934.0
 20
1164.5
 30
0.0
  0
VERTEX
  5
667
100
AcDbEntity
  8
付属金具
  6
EXLTYPE2
 62
     6
100
AcDbVertex
100
AcDb2dVertex
 10
937.5
 20
1162.0
 30
0.0
  0
VERTEX
  5
668
100
AcDbEntity
  8
付属金具
  6
EXLTYPE2
 62
     6
100
AcDbVertex
100
AcDb2dVertex
 10
934.0
 20
1159.5
 30
0.0
  0
VERTEX
  5
669
100
AcDbEntity
  8
付属金具
  6
EXLTYPE2
 62
     6
100
AcDbVertex
100
AcDb2dVertex
 10
937.5
 20
1157.0
 30
0.0
  0
VERTEX
  5
66A
100
AcDbEntity
  8
付属金具
  6
EXLTYPE2
 62
     6
100
AcDbVertex
100
AcDb2dVertex
 10
934.0
 20
1154.5
 30
0.0
  0
VERTEX
  5
66B
100
AcDbEntity
  8
付属金具
  6
EXLTYPE2
 62
     6
100
AcDbVertex
100
AcDb2dVertex
 10
937.5
 20
1152.0
 30
0.0
  0
VERTEX
  5
66C
100
AcDbEntity
  8
付属金具
  6
EXLTYPE2
 62
     6
100
AcDbVertex
100
AcDb2dVertex
 10
934.0
 20
1149.5
 30
0.0
  0
VERTEX
  5
66D
100
AcDbEntity
  8
付属金具
  6
EXLTYPE2
 62
     6
100
AcDbVertex
100
AcDb2dVertex
 10
937.5
 20
1147.0
 30
0.0
  0
VERTEX
  5
66E
100
AcDbEntity
  8
付属金具
  6
EXLTYPE2
 62
     6
100
AcDbVertex
100
AcDb2dVertex
 10
934.0
 20
1144.5
 30
0.0
  0
VERTEX
  5
66F
100
AcDbEntity
  8
付属金具
  6
EXLTYPE2
 62
     6
100
AcDbVertex
100
AcDb2dVertex
 10
937.5
 20
1142.0
 30
0.0
  0
VERTEX
  5
670
100
AcDbEntity
  8
付属金具
  6
EXLTYPE2
 62
     6
100
AcDbVertex
100
AcDb2dVertex
 10
934.0
 20
1139.5
 30
0.0
  0
VERTEX
  5
671
100
AcDbEntity
  8
付属金具
  6
EXLTYPE2
 62
     6
100
AcDbVertex
100
AcDb2dVertex
 10
937.5
 20
1137.0
 30
0.0
  0
VERTEX
  5
672
100
AcDbEntity
  8
付属金具
  6
EXLTYPE2
 62
     6
100
AcDbVertex
100
AcDb2dVertex
 10
934.0
 20
1134.5
 30
0.0
  0
VERTEX
  5
673
100
AcDbEntity
  8
付属金具
  6
EXLTYPE2
 62
     6
100
AcDbVertex
100
AcDb2dVertex
 10
937.5
 20
1132.0
 30
0.0
  0
VERTEX
  5
674
100
AcDbEntity
  8
付属金具
  6
EXLTYPE2
 62
     6
100
AcDbVertex
100
AcDb2dVertex
 10
934.0
 20
1129.5
 30
0.0
  0
VERTEX
  5
675
100
AcDbEntity
  8
付属金具
  6
EXLTYPE2
 62
     6
100
AcDbVertex
100
AcDb2dVertex
 10
937.5
 20
1127.0
 30
0.0
  0
VERTEX
  5
676
100
AcDbEntity
  8
付属金具
  6
EXLTYPE2
 62
     6
100
AcDbVertex
100
AcDb2dVertex
 10
934.0
 20
1124.5
 30
0.0
  0
VERTEX
  5
677
100
AcDbEntity
  8
付属金具
  6
EXLTYPE2
 62
     6
100
AcDbVertex
100
AcDb2dVertex
 10
937.5
 20
1122.0
 30
0.0
  0
VERTEX
  5
678
100
AcDbEntity
  8
付属金具
  6
EXLTYPE2
 62
     6
100
AcDbVertex
100
AcDb2dVertex
 10
934.0
 20
1119.5
 30
0.0
  0
VERTEX
  5
679
100
AcDbEntity
  8
付属金具
  6
EXLTYPE2
 62
     6
100
AcDbVertex
100
AcDb2dVertex
 10
937.5
 20
1117.0
 30
0.0
  0
VERTEX
  5
67A
100
AcDbEntity
  8
付属金具
  6
EXLTYPE2
 62
     6
100
AcDbVertex
100
AcDb2dVertex
 10
934.0
 20
1114.5
 30
0.0
  0
VERTEX
  5
67B
100
AcDbEntity
  8
付属金具
  6
EXLTYPE2
 62
     6
100
AcDbVertex
100
AcDb2dVertex
 10
937.5
 20
1112.0
 30
0.0
  0
VERTEX
  5
67C
100
AcDbEntity
  8
付属金具
  6
EXLTYPE2
 62
     6
100
AcDbVertex
100
AcDb2dVertex
 10
934.0
 20
1109.5
 30
0.0
  0
VERTEX
  5
67D
100
AcDbEntity
  8
付属金具
  6
EXLTYPE2
 62
     6
100
AcDbVertex
100
AcDb2dVertex
 10
937.5
 20
1107.0
 30
0.0
  0
VERTEX
  5
67E
100
AcDbEntity
  8
付属金具
  6
EXLTYPE2
 62
     6
100
AcDbVertex
100
AcDb2dVertex
 10
934.0
 20
1104.5
 30
0.0
  0
VERTEX
  5
67F
100
AcDbEntity
  8
付属金具
  6
EXLTYPE2
 62
     6
100
AcDbVertex
100
AcDb2dVertex
 10
937.5
 20
1102.0
 30
0.0
  0
VERTEX
  5
680
100
AcDbEntity
  8
付属金具
  6
EXLTYPE2
 62
     6
100
AcDbVertex
100
AcDb2dVertex
 10
934.0
 20
1099.5
 30
0.0
  0
VERTEX
  5
681
100
AcDbEntity
  8
付属金具
  6
EXLTYPE2
 62
     6
100
AcDbVertex
100
AcDb2dVertex
 10
937.5
 20
1097.0
 30
0.0
  0
VERTEX
  5
682
100
AcDbEntity
  8
付属金具
  6
EXLTYPE2
 62
     6
100
AcDbVertex
100
AcDb2dVertex
 10
934.0
 20
1094.5
 30
0.0
  0
VERTEX
  5
683
100
AcDbEntity
  8
付属金具
  6
EXLTYPE2
 62
     6
100
AcDbVertex
100
AcDb2dVertex
 10
937.5
 20
1092.0
 30
0.0
  0
VERTEX
  5
684
100
AcDbEntity
  8
付属金具
  6
EXLTYPE2
 62
     6
100
AcDbVertex
100
AcDb2dVertex
 10
934.0
 20
1089.5
 30
0.0
  0
VERTEX
  5
685
100
AcDbEntity
  8
付属金具
  6
EXLTYPE2
 62
     6
100
AcDbVertex
100
AcDb2dVertex
 10
937.5
 20
1087.0
 30
0.0
  0
VERTEX
  5
686
100
AcDbEntity
  8
付属金具
  6
EXLTYPE2
 62
     6
100
AcDbVertex
100
AcDb2dVertex
 10
934.0
 20
1084.5
 30
0.0
  0
VERTEX
  5
687
100
AcDbEntity
  8
付属金具
  6
EXLTYPE2
 62
     6
100
AcDbVertex
100
AcDb2dVertex
 10
937.5
 20
1082.0
 30
0.0
  0
VERTEX
  5
688
100
AcDbEntity
  8
付属金具
  6
EXLTYPE2
 62
     6
100
AcDbVertex
100
AcDb2dVertex
 10
934.0
 20
1079.5
 30
0.0
  0
VERTEX
  5
689
100
AcDbEntity
  8
付属金具
  6
EXLTYPE2
 62
     6
100
AcDbVertex
100
AcDb2dVertex
 10
937.5
 20
1077.0
 30
0.0
  0
VERTEX
  5
68A
100
AcDbEntity
  8
付属金具
  6
EXLTYPE2
 62
     6
100
AcDbVertex
100
AcDb2dVertex
 10
934.0
 20
1074.5
 30
0.0
  0
VERTEX
  5
68B
100
AcDbEntity
  8
付属金具
  6
EXLTYPE2
 62
     6
100
AcDbVertex
100
AcDb2dVertex
 10
937.5
 20
1072.0
 30
0.0
  0
VERTEX
  5
68C
100
AcDbEntity
  8
付属金具
  6
EXLTYPE2
 62
     6
100
AcDbVertex
100
AcDb2dVertex
 10
934.0
 20
1069.5
 30
0.0
  0
VERTEX
  5
68D
100
AcDbEntity
  8
付属金具
  6
EXLTYPE2
 62
     6
100
AcDbVertex
100
AcDb2dVertex
 10
937.5
 20
1067.0
 30
0.0
  0
VERTEX
  5
68E
100
AcDbEntity
  8
付属金具
  6
EXLTYPE2
 62
     6
100
AcDbVertex
100
AcDb2dVertex
 10
934.0
 20
1064.5
 30
0.0
  0
VERTEX
  5
68F
100
AcDbEntity
  8
付属金具
  6
EXLTYPE2
 62
     6
100
AcDbVertex
100
AcDb2dVertex
 10
937.5
 20
1062.0
 30
0.0
  0
VERTEX
  5
690
100
AcDbEntity
  8
付属金具
  6
EXLTYPE2
 62
     6
100
AcDbVertex
100
AcDb2dVertex
 10
934.0
 20
1059.5
 30
0.0
  0
VERTEX
  5
691
100
AcDbEntity
  8
付属金具
  6
EXLTYPE2
 62
     6
100
AcDbVertex
100
AcDb2dVertex
 10
937.5
 20
1057.0
 30
0.0
  0
VERTEX
  5
692
100
AcDbEntity
  8
付属金具
  6
EXLTYPE2
 62
     6
100
AcDbVertex
100
AcDb2dVertex
 10
934.0
 20
1054.5
 30
0.0
  0
VERTEX
  5
693
100
AcDbEntity
  8
付属金具
  6
EXLTYPE2
 62
     6
100
AcDbVertex
100
AcDb2dVertex
 10
937.5
 20
1052.0
 30
0.0
  0
VERTEX
  5
694
100
AcDbEntity
  8
付属金具
  6
EXLTYPE2
 62
     6
100
AcDbVertex
100
AcDb2dVertex
 10
934.0
 20
1049.5
 30
0.0
  0
VERTEX
  5
695
100
AcDbEntity
  8
付属金具
  6
EXLTYPE2
 62
     6
100
AcDbVertex
100
AcDb2dVertex
 10
937.5
 20
1047.0
 30
0.0
  0
VERTEX
  5
696
100
AcDbEntity
  8
付属金具
  6
EXLTYPE2
 62
     6
100
AcDbVertex
100
AcDb2dVertex
 10
934.0
 20
1044.5
 30
0.0
  0
VERTEX
  5
697
100
AcDbEntity
  8
付属金具
  6
EXLTYPE2
 62
     6
100
AcDbVertex
100
AcDb2dVertex
 10
937.5
 20
1042.0
 30
0.0
  0
VERTEX
  5
698
100
AcDbEntity
  8
付属金具
  6
EXLTYPE2
 62
     6
100
AcDbVertex
100
AcDb2dVertex
 10
934.0
 20
1039.5
 30
0.0
  0
VERTEX
  5
699
100
AcDbEntity
  8
付属金具
  6
EXLTYPE2
 62
     6
100
AcDbVertex
100
AcDb2dVertex
 10
937.5
 20
1037.0
 30
0.0
  0
VERTEX
  5
69A
100
AcDbEntity
  8
付属金具
  6
EXLTYPE2
 62
     6
100
AcDbVertex
100
AcDb2dVertex
 10
934.0
 20
1034.5
 30
0.0
  0
VERTEX
  5
69B
100
AcDbEntity
  8
付属金具
  6
EXLTYPE2
 62
     6
100
AcDbVertex
100
AcDb2dVertex
 10
937.5
 20
1032.0
 30
0.0
  0
VERTEX
  5
69C
100
AcDbEntity
  8
付属金具
  6
EXLTYPE2
 62
     6
100
AcDbVertex
100
AcDb2dVertex
 10
934.0
 20
1029.5
 30
0.0
  0
VERTEX
  5
69D
100
AcDbEntity
  8
付属金具
  6
EXLTYPE2
 62
     6
100
AcDbVertex
100
AcDb2dVertex
 10
937.5
 20
1027.0
 30
0.0
  0
VERTEX
  5
69E
100
AcDbEntity
  8
付属金具
  6
EXLTYPE2
 62
     6
100
AcDbVertex
100
AcDb2dVertex
 10
934.0
 20
1024.5
 30
0.0
  0
VERTEX
  5
69F
100
AcDbEntity
  8
付属金具
  6
EXLTYPE2
 62
     6
100
AcDbVertex
100
AcDb2dVertex
 10
937.5
 20
1022.0
 30
0.0
  0
VERTEX
  5
6A0
100
AcDbEntity
  8
付属金具
  6
EXLTYPE2
 62
     6
100
AcDbVertex
100
AcDb2dVertex
 10
934.0
 20
1019.5
 30
0.0
  0
VERTEX
  5
6A1
100
AcDbEntity
  8
付属金具
  6
EXLTYPE2
 62
     6
100
AcDbVertex
100
AcDb2dVertex
 10
937.5
 20
1017.0
 30
0.0
  0
VERTEX
  5
6A2
100
AcDbEntity
  8
付属金具
  6
EXLTYPE2
 62
     6
100
AcDbVertex
100
AcDb2dVertex
 10
934.0
 20
1014.5
 30
0.0
  0
VERTEX
  5
6A3
100
AcDbEntity
  8
付属金具
  6
EXLTYPE2
 62
     6
100
AcDbVertex
100
AcDb2dVertex
 10
937.5
 20
1012.0
 30
0.0
  0
VERTEX
  5
6A4
100
AcDbEntity
  8
付属金具
  6
EXLTYPE2
 62
     6
100
AcDbVertex
100
AcDb2dVertex
 10
934.0
 20
1009.5
 30
0.0
  0
VERTEX
  5
6A5
100
AcDbEntity
  8
付属金具
  6
EXLTYPE2
 62
     6
100
AcDbVertex
100
AcDb2dVertex
 10
937.5
 20
1007.0
 30
0.0
  0
VERTEX
  5
6A6
100
AcDbEntity
  8
付属金具
  6
EXLTYPE2
 62
     6
100
AcDbVertex
100
AcDb2dVertex
 10
934.0
 20
1004.5
 30
0.0
  0
VERTEX
  5
6A7
100
AcDbEntity
  8
付属金具
  6
EXLTYPE2
 62
     6
100
AcDbVertex
100
AcDb2dVertex
 10
937.5
 20
1002.0
 30
0.0
  0
VERTEX
  5
6A8
100
AcDbEntity
  8
付属金具
  6
EXLTYPE2
 62
     6
100
AcDbVertex
100
AcDb2dVertex
 10
934.0
 20
999.5
 30
0.0
  0
VERTEX
  5
6A9
100
AcDbEntity
  8
付属金具
  6
EXLTYPE2
 62
     6
100
AcDbVertex
100
AcDb2dVertex
 10
937.5
 20
997.0
 30
0.0
  0
VERTEX
  5
6AA
100
AcDbEntity
  8
付属金具
  6
EXLTYPE2
 62
     6
100
AcDbVertex
100
AcDb2dVertex
 10
934.0
 20
994.5
 30
0.0
  0
VERTEX
  5
6AB
100
AcDbEntity
  8
付属金具
  6
EXLTYPE2
 62
     6
100
AcDbVertex
100
AcDb2dVertex
 10
937.5
 20
992.0
 30
0.0
  0
VERTEX
  5
6AC
100
AcDbEntity
  8
付属金具
  6
EXLTYPE2
 62
     6
100
AcDbVertex
100
AcDb2dVertex
 10
934.0
 20
989.5
 30
0.0
  0
VERTEX
  5
6AD
100
AcDbEntity
  8
付属金具
  6
EXLTYPE2
 62
     6
100
AcDbVertex
100
AcDb2dVertex
 10
937.5
 20
987.0
 30
0.0
  0
VERTEX
  5
6AE
100
AcDbEntity
  8
付属金具
  6
EXLTYPE2
 62
     6
100
AcDbVertex
100
AcDb2dVertex
 10
934.0
 20
984.5
 30
0.0
  0
VERTEX
  5
6AF
100
AcDbEntity
  8
付属金具
  6
EXLTYPE2
 62
     6
100
AcDbVertex
100
AcDb2dVertex
 10
937.5
 20
982.0
 30
0.0
  0
VERTEX
  5
6B0
100
AcDbEntity
  8
付属金具
  6
EXLTYPE2
 62
     6
100
AcDbVertex
100
AcDb2dVertex
 10
934.0
 20
979.5
 30
0.0
  0
VERTEX
  5
6B1
100
AcDbEntity
  8
付属金具
  6
EXLTYPE2
 62
     6
100
AcDbVertex
100
AcDb2dVertex
 10
937.5
 20
977.0
 30
0.0
  0
VERTEX
  5
6B2
100
AcDbEntity
  8
付属金具
  6
EXLTYPE2
 62
     6
100
AcDbVertex
100
AcDb2dVertex
 10
934.0
 20
974.5
 30
0.0
  0
VERTEX
  5
6B3
100
AcDbEntity
  8
付属金具
  6
EXLTYPE2
 62
     6
100
AcDbVertex
100
AcDb2dVertex
 10
937.5
 20
972.0
 30
0.0
  0
VERTEX
  5
6B4
100
AcDbEntity
  8
付属金具
  6
EXLTYPE2
 62
     6
100
AcDbVertex
100
AcDb2dVertex
 10
934.0
 20
969.5
 30
0.0
  0
VERTEX
  5
6B5
100
AcDbEntity
  8
付属金具
  6
EXLTYPE2
 62
     6
100
AcDbVertex
100
AcDb2dVertex
 10
937.5
 20
967.0
 30
0.0
  0
VERTEX
  5
6B6
100
AcDbEntity
  8
付属金具
  6
EXLTYPE2
 62
     6
100
AcDbVertex
100
AcDb2dVertex
 10
934.0
 20
964.5
 30
0.0
  0
VERTEX
  5
6B7
100
AcDbEntity
  8
付属金具
  6
EXLTYPE2
 62
     6
100
AcDbVertex
100
AcDb2dVertex
 10
937.5
 20
962.0
 30
0.0
  0
VERTEX
  5
6B8
100
AcDbEntity
  8
付属金具
  6
EXLTYPE2
 62
     6
100
AcDbVertex
100
AcDb2dVertex
 10
934.0
 20
959.5
 30
0.0
  0
VERTEX
  5
6B9
100
AcDbEntity
  8
付属金具
  6
EXLTYPE2
 62
     6
100
AcDbVertex
100
AcDb2dVertex
 10
937.5
 20
957.0
 30
0.0
  0
VERTEX
  5
6BA
100
AcDbEntity
  8
付属金具
  6
EXLTYPE2
 62
     6
100
AcDbVertex
100
AcDb2dVertex
 10
934.0
 20
954.5
 30
0.0
  0
VERTEX
  5
6BB
100
AcDbEntity
  8
付属金具
  6
EXLTYPE2
 62
     6
100
AcDbVertex
100
AcDb2dVertex
 10
937.5
 20
952.0
 30
0.0
  0
VERTEX
  5
6BC
100
AcDbEntity
  8
付属金具
  6
EXLTYPE2
 62
     6
100
AcDbVertex
100
AcDb2dVertex
 10
934.0
 20
949.5
 30
0.0
  0
VERTEX
  5
6BD
100
AcDbEntity
  8
付属金具
  6
EXLTYPE2
 62
     6
100
AcDbVertex
100
AcDb2dVertex
 10
937.5
 20
947.0
 30
0.0
  0
VERTEX
  5
6BE
100
AcDbEntity
  8
付属金具
  6
EXLTYPE2
 62
     6
100
AcDbVertex
100
AcDb2dVertex
 10
934.0
 20
944.5
 30
0.0
  0
VERTEX
  5
6BF
100
AcDbEntity
  8
付属金具
  6
EXLTYPE2
 62
     6
100
AcDbVertex
100
AcDb2dVertex
 10
937.5
 20
942.0
 30
0.0
  0
VERTEX
  5
6C0
100
AcDbEntity
  8
付属金具
  6
EXLTYPE2
 62
     6
100
AcDbVertex
100
AcDb2dVertex
 10
934.0
 20
939.5
 30
0.0
  0
VERTEX
  5
6C1
100
AcDbEntity
  8
付属金具
  6
EXLTYPE2
 62
     6
100
AcDbVertex
100
AcDb2dVertex
 10
937.5
 20
937.0
 30
0.0
  0
VERTEX
  5
6C2
100
AcDbEntity
  8
付属金具
  6
EXLTYPE2
 62
     6
100
AcDbVertex
100
AcDb2dVertex
 10
934.0
 20
934.5
 30
0.0
  0
VERTEX
  5
6C3
100
AcDbEntity
  8
付属金具
  6
EXLTYPE2
 62
     6
100
AcDbVertex
100
AcDb2dVertex
 10
937.5
 20
932.0
 30
0.0
  0
VERTEX
  5
6C4
100
AcDbEntity
  8
付属金具
  6
EXLTYPE2
 62
     6
100
AcDbVertex
100
AcDb2dVertex
 10
934.0
 20
929.5
 30
0.0
  0
VERTEX
  5
6C5
100
AcDbEntity
  8
付属金具
  6
EXLTYPE2
 62
     6
100
AcDbVertex
100
AcDb2dVertex
 10
937.5
 20
927.0
 30
0.0
  0
VERTEX
  5
6C6
100
AcDbEntity
  8
付属金具
  6
EXLTYPE2
 62
     6
100
AcDbVertex
100
AcDb2dVertex
 10
934.0
 20
924.5
 30
0.0
  0
VERTEX
  5
6C7
100
AcDbEntity
  8
付属金具
  6
EXLTYPE2
 62
     6
100
AcDbVertex
100
AcDb2dVertex
 10
937.5
 20
922.0
 30
0.0
  0
VERTEX
  5
6C8
100
AcDbEntity
  8
付属金具
  6
EXLTYPE2
 62
     6
100
AcDbVertex
100
AcDb2dVertex
 10
934.0
 20
919.5
 30
0.0
  0
VERTEX
  5
6C9
100
AcDbEntity
  8
付属金具
  6
EXLTYPE2
 62
     6
100
AcDbVertex
100
AcDb2dVertex
 10
937.5
 20
917.0
 30
0.0
  0
VERTEX
  5
6CA
100
AcDbEntity
  8
付属金具
  6
EXLTYPE2
 62
     6
100
AcDbVertex
100
AcDb2dVertex
 10
934.0
 20
914.5
 30
0.0
  0
VERTEX
  5
6CB
100
AcDbEntity
  8
付属金具
  6
EXLTYPE2
 62
     6
100
AcDbVertex
100
AcDb2dVertex
 10
937.5
 20
912.0
 30
0.0
  0
VERTEX
  5
6CC
100
AcDbEntity
  8
付属金具
  6
EXLTYPE2
 62
     6
100
AcDbVertex
100
AcDb2dVertex
 10
934.0
 20
909.5
 30
0.0
  0
VERTEX
  5
6CD
100
AcDbEntity
  8
付属金具
  6
EXLTYPE2
 62
     6
100
AcDbVertex
100
AcDb2dVertex
 10
937.5
 20
907.0
 30
0.0
  0
VERTEX
  5
6CE
100
AcDbEntity
  8
付属金具
  6
EXLTYPE2
 62
     6
100
AcDbVertex
100
AcDb2dVertex
 10
934.0
 20
904.5
 30
0.0
  0
VERTEX
  5
6CF
100
AcDbEntity
  8
付属金具
  6
EXLTYPE2
 62
     6
100
AcDbVertex
100
AcDb2dVertex
 10
937.5
 20
902.0
 30
0.0
  0
VERTEX
  5
6D0
100
AcDbEntity
  8
付属金具
  6
EXLTYPE2
 62
     6
100
AcDbVertex
100
AcDb2dVertex
 10
934.0
 20
899.5
 30
0.0
  0
VERTEX
  5
6D1
100
AcDbEntity
  8
付属金具
  6
EXLTYPE2
 62
     6
100
AcDbVertex
100
AcDb2dVertex
 10
937.5
 20
897.0
 30
0.0
  0
VERTEX
  5
6D2
100
AcDbEntity
  8
付属金具
  6
EXLTYPE2
 62
     6
100
AcDbVertex
100
AcDb2dVertex
 10
935.85
 20
894.5
 30
0.0
  0
SEQEND
  5
6D3
100
AcDbEntity
  8
付属金具
  6
EXLTYPE2
 62
     6
  0
POLYLINE
  5
6D4
100
AcDbEntity
  8
付属金具
  6
EXLTYPE2
 62
     6
100
AcDb2dPolyline
 66
     1
 10
0.0
 20
0.0
 30
0.0
 70
   128
  0
VERTEX
  5
6D5
100
AcDbEntity
  8
付属金具
  6
EXLTYPE2
 62
     6
100
AcDbVertex
100
AcDb2dVertex
 10
903.2
 20
1251.5
 30
0.0
  0
VERTEX
  5
6D6
100
AcDbEntity
  8
付属金具
  6
EXLTYPE2
 62
     6
100
AcDbVertex
100
AcDb2dVertex
 10
906.0
 20
1249.5
 30
0.0
  0
VERTEX
  5
6D7
100
AcDbEntity
  8
付属金具
  6
EXLTYPE2
 62
     6
100
AcDbVertex
100
AcDb2dVertex
 10
902.5
 20
1247.0
 30
0.0
  0
VERTEX
  5
6D8
100
AcDbEntity
  8
付属金具
  6
EXLTYPE2
 62
     6
100
AcDbVertex
100
AcDb2dVertex
 10
906.0
 20
1244.5
 30
0.0
  0
VERTEX
  5
6D9
100
AcDbEntity
  8
付属金具
  6
EXLTYPE2
 62
     6
100
AcDbVertex
100
AcDb2dVertex
 10
902.5
 20
1242.0
 30
0.0
  0
VERTEX
  5
6DA
100
AcDbEntity
  8
付属金具
  6
EXLTYPE2
 62
     6
100
AcDbVertex
100
AcDb2dVertex
 10
906.0
 20
1239.5
 30
0.0
  0
VERTEX
  5
6DB
100
AcDbEntity
  8
付属金具
  6
EXLTYPE2
 62
     6
100
AcDbVertex
100
AcDb2dVertex
 10
902.5
 20
1237.0
 30
0.0
  0
VERTEX
  5
6DC
100
AcDbEntity
  8
付属金具
  6
EXLTYPE2
 62
     6
100
AcDbVertex
100
AcDb2dVertex
 10
906.0
 20
1234.5
 30
0.0
  0
VERTEX
  5
6DD
100
AcDbEntity
  8
付属金具
  6
EXLTYPE2
 62
     6
100
AcDbVertex
100
AcDb2dVertex
 10
902.5
 20
1232.0
 30
0.0
  0
VERTEX
  5
6DE
100
AcDbEntity
  8
付属金具
  6
EXLTYPE2
 62
     6
100
AcDbVertex
100
AcDb2dVertex
 10
906.0
 20
1229.5
 30
0.0
  0
VERTEX
  5
6DF
100
AcDbEntity
  8
付属金具
  6
EXLTYPE2
 62
     6
100
AcDbVertex
100
AcDb2dVertex
 10
902.5
 20
1227.0
 30
0.0
  0
VERTEX
  5
6E0
100
AcDbEntity
  8
付属金具
  6
EXLTYPE2
 62
     6
100
AcDbVertex
100
AcDb2dVertex
 10
906.0
 20
1224.5
 30
0.0
  0
VERTEX
  5
6E1
100
AcDbEntity
  8
付属金具
  6
EXLTYPE2
 62
     6
100
AcDbVertex
100
AcDb2dVertex
 10
902.5
 20
1222.0
 30
0.0
  0
VERTEX
  5
6E2
100
AcDbEntity
  8
付属金具
  6
EXLTYPE2
 62
     6
100
AcDbVertex
100
AcDb2dVertex
 10
906.0
 20
1219.5
 30
0.0
  0
VERTEX
  5
6E3
100
AcDbEntity
  8
付属金具
  6
EXLTYPE2
 62
     6
100
AcDbVertex
100
AcDb2dVertex
 10
902.5
 20
1217.0
 30
0.0
  0
VERTEX
  5
6E4
100
AcDbEntity
  8
付属金具
  6
EXLTYPE2
 62
     6
100
AcDbVertex
100
AcDb2dVertex
 10
906.0
 20
1214.5
 30
0.0
  0
VERTEX
  5
6E5
100
AcDbEntity
  8
付属金具
  6
EXLTYPE2
 62
     6
100
AcDbVertex
100
AcDb2dVertex
 10
902.5
 20
1212.0
 30
0.0
  0
VERTEX
  5
6E6
100
AcDbEntity
  8
付属金具
  6
EXLTYPE2
 62
     6
100
AcDbVertex
100
AcDb2dVertex
 10
906.0
 20
1209.5
 30
0.0
  0
VERTEX
  5
6E7
100
AcDbEntity
  8
付属金具
  6
EXLTYPE2
 62
     6
100
AcDbVertex
100
AcDb2dVertex
 10
902.5
 20
1207.0
 30
0.0
  0
VERTEX
  5
6E8
100
AcDbEntity
  8
付属金具
  6
EXLTYPE2
 62
     6
100
AcDbVertex
100
AcDb2dVertex
 10
906.0
 20
1204.5
 30
0.0
  0
VERTEX
  5
6E9
100
AcDbEntity
  8
付属金具
  6
EXLTYPE2
 62
     6
100
AcDbVertex
100
AcDb2dVertex
 10
902.5
 20
1202.0
 30
0.0
  0
VERTEX
  5
6EA
100
AcDbEntity
  8
付属金具
  6
EXLTYPE2
 62
     6
100
AcDbVertex
100
AcDb2dVertex
 10
906.0
 20
1199.5
 30
0.0
  0
VERTEX
  5
6EB
100
AcDbEntity
  8
付属金具
  6
EXLTYPE2
 62
     6
100
AcDbVertex
100
AcDb2dVertex
 10
902.5
 20
1197.0
 30
0.0
  0
VERTEX
  5
6EC
100
AcDbEntity
  8
付属金具
  6
EXLTYPE2
 62
     6
100
AcDbVertex
100
AcDb2dVertex
 10
906.0
 20
1194.5
 30
0.0
  0
VERTEX
  5
6ED
100
AcDbEntity
  8
付属金具
  6
EXLTYPE2
 62
     6
100
AcDbVertex
100
AcDb2dVertex
 10
902.5
 20
1192.0
 30
0.0
  0
VERTEX
  5
6EE
100
AcDbEntity
  8
付属金具
  6
EXLTYPE2
 62
     6
100
AcDbVertex
100
AcDb2dVertex
 10
906.0
 20
1189.5
 30
0.0
  0
VERTEX
  5
6EF
100
AcDbEntity
  8
付属金具
  6
EXLTYPE2
 62
     6
100
AcDbVertex
100
AcDb2dVertex
 10
902.5
 20
1187.0
 30
0.0
  0
VERTEX
  5
6F0
100
AcDbEntity
  8
付属金具
  6
EXLTYPE2
 62
     6
100
AcDbVertex
100
AcDb2dVertex
 10
906.0
 20
1184.5
 30
0.0
  0
VERTEX
  5
6F1
100
AcDbEntity
  8
付属金具
  6
EXLTYPE2
 62
     6
100
AcDbVertex
100
AcDb2dVertex
 10
902.5
 20
1182.0
 30
0.0
  0
VERTEX
  5
6F2
100
AcDbEntity
  8
付属金具
  6
EXLTYPE2
 62
     6
100
AcDbVertex
100
AcDb2dVertex
 10
906.0
 20
1179.5
 30
0.0
  0
VERTEX
  5
6F3
100
AcDbEntity
  8
付属金具
  6
EXLTYPE2
 62
     6
100
AcDbVertex
100
AcDb2dVertex
 10
902.5
 20
1177.0
 30
0.0
  0
VERTEX
  5
6F4
100
AcDbEntity
  8
付属金具
  6
EXLTYPE2
 62
     6
100
AcDbVertex
100
AcDb2dVertex
 10
906.0
 20
1174.5
 30
0.0
  0
VERTEX
  5
6F5
100
AcDbEntity
  8
付属金具
  6
EXLTYPE2
 62
     6
100
AcDbVertex
100
AcDb2dVertex
 10
902.5
 20
1172.0
 30
0.0
  0
VERTEX
  5
6F6
100
AcDbEntity
  8
付属金具
  6
EXLTYPE2
 62
     6
100
AcDbVertex
100
AcDb2dVertex
 10
906.0
 20
1169.5
 30
0.0
  0
VERTEX
  5
6F7
100
AcDbEntity
  8
付属金具
  6
EXLTYPE2
 62
     6
100
AcDbVertex
100
AcDb2dVertex
 10
902.5
 20
1167.0
 30
0.0
  0
VERTEX
  5
6F8
100
AcDbEntity
  8
付属金具
  6
EXLTYPE2
 62
     6
100
AcDbVertex
100
AcDb2dVertex
 10
906.0
 20
1164.5
 30
0.0
  0
VERTEX
  5
6F9
100
AcDbEntity
  8
付属金具
  6
EXLTYPE2
 62
     6
100
AcDbVertex
100
AcDb2dVertex
 10
902.5
 20
1162.0
 30
0.0
  0
VERTEX
  5
6FA
100
AcDbEntity
  8
付属金具
  6
EXLTYPE2
 62
     6
100
AcDbVertex
100
AcDb2dVertex
 10
906.0
 20
1159.5
 30
0.0
  0
VERTEX
  5
6FB
100
AcDbEntity
  8
付属金具
  6
EXLTYPE2
 62
     6
100
AcDbVertex
100
AcDb2dVertex
 10
902.5
 20
1157.0
 30
0.0
  0
VERTEX
  5
6FC
100
AcDbEntity
  8
付属金具
  6
EXLTYPE2
 62
     6
100
AcDbVertex
100
AcDb2dVertex
 10
906.0
 20
1154.5
 30
0.0
  0
VERTEX
  5
6FD
100
AcDbEntity
  8
付属金具
  6
EXLTYPE2
 62
     6
100
AcDbVertex
100
AcDb2dVertex
 10
902.5
 20
1152.0
 30
0.0
  0
VERTEX
  5
6FE
100
AcDbEntity
  8
付属金具
  6
EXLTYPE2
 62
     6
100
AcDbVertex
100
AcDb2dVertex
 10
906.0
 20
1149.5
 30
0.0
  0
VERTEX
  5
6FF
100
AcDbEntity
  8
付属金具
  6
EXLTYPE2
 62
     6
100
AcDbVertex
100
AcDb2dVertex
 10
902.5
 20
1147.0
 30
0.0
  0
VERTEX
  5
700
100
AcDbEntity
  8
付属金具
  6
EXLTYPE2
 62
     6
100
AcDbVertex
100
AcDb2dVertex
 10
906.0
 20
1144.5
 30
0.0
  0
VERTEX
  5
701
100
AcDbEntity
  8
付属金具
  6
EXLTYPE2
 62
     6
100
AcDbVertex
100
AcDb2dVertex
 10
902.5
 20
1142.0
 30
0.0
  0
VERTEX
  5
702
100
AcDbEntity
  8
付属金具
  6
EXLTYPE2
 62
     6
100
AcDbVertex
100
AcDb2dVertex
 10
906.0
 20
1139.5
 30
0.0
  0
VERTEX
  5
703
100
AcDbEntity
  8
付属金具
  6
EXLTYPE2
 62
     6
100
AcDbVertex
100
AcDb2dVertex
 10
902.5
 20
1137.0
 30
0.0
  0
VERTEX
  5
704
100
AcDbEntity
  8
付属金具
  6
EXLTYPE2
 62
     6
100
AcDbVertex
100
AcDb2dVertex
 10
906.0
 20
1134.5
 30
0.0
  0
VERTEX
  5
705
100
AcDbEntity
  8
付属金具
  6
EXLTYPE2
 62
     6
100
AcDbVertex
100
AcDb2dVertex
 10
902.5
 20
1132.0
 30
0.0
  0
VERTEX
  5
706
100
AcDbEntity
  8
付属金具
  6
EXLTYPE2
 62
     6
100
AcDbVertex
100
AcDb2dVertex
 10
906.0
 20
1129.5
 30
0.0
  0
VERTEX
  5
707
100
AcDbEntity
  8
付属金具
  6
EXLTYPE2
 62
     6
100
AcDbVertex
100
AcDb2dVertex
 10
902.5
 20
1127.0
 30
0.0
  0
VERTEX
  5
708
100
AcDbEntity
  8
付属金具
  6
EXLTYPE2
 62
     6
100
AcDbVertex
100
AcDb2dVertex
 10
906.0
 20
1124.5
 30
0.0
  0
VERTEX
  5
709
100
AcDbEntity
  8
付属金具
  6
EXLTYPE2
 62
     6
100
AcDbVertex
100
AcDb2dVertex
 10
902.5
 20
1122.0
 30
0.0
  0
VERTEX
  5
70A
100
AcDbEntity
  8
付属金具
  6
EXLTYPE2
 62
     6
100
AcDbVertex
100
AcDb2dVertex
 10
906.0
 20
1119.5
 30
0.0
  0
VERTEX
  5
70B
100
AcDbEntity
  8
付属金具
  6
EXLTYPE2
 62
     6
100
AcDbVertex
100
AcDb2dVertex
 10
902.5
 20
1117.0
 30
0.0
  0
VERTEX
  5
70C
100
AcDbEntity
  8
付属金具
  6
EXLTYPE2
 62
     6
100
AcDbVertex
100
AcDb2dVertex
 10
906.0
 20
1114.5
 30
0.0
  0
VERTEX
  5
70D
100
AcDbEntity
  8
付属金具
  6
EXLTYPE2
 62
     6
100
AcDbVertex
100
AcDb2dVertex
 10
902.5
 20
1112.0
 30
0.0
  0
VERTEX
  5
70E
100
AcDbEntity
  8
付属金具
  6
EXLTYPE2
 62
     6
100
AcDbVertex
100
AcDb2dVertex
 10
906.0
 20
1109.5
 30
0.0
  0
VERTEX
  5
70F
100
AcDbEntity
  8
付属金具
  6
EXLTYPE2
 62
     6
100
AcDbVertex
100
AcDb2dVertex
 10
902.5
 20
1107.0
 30
0.0
  0
VERTEX
  5
710
100
AcDbEntity
  8
付属金具
  6
EXLTYPE2
 62
     6
100
AcDbVertex
100
AcDb2dVertex
 10
906.0
 20
1104.5
 30
0.0
  0
VERTEX
  5
711
100
AcDbEntity
  8
付属金具
  6
EXLTYPE2
 62
     6
100
AcDbVertex
100
AcDb2dVertex
 10
902.5
 20
1102.0
 30
0.0
  0
VERTEX
  5
712
100
AcDbEntity
  8
付属金具
  6
EXLTYPE2
 62
     6
100
AcDbVertex
100
AcDb2dVertex
 10
906.0
 20
1099.5
 30
0.0
  0
VERTEX
  5
713
100
AcDbEntity
  8
付属金具
  6
EXLTYPE2
 62
     6
100
AcDbVertex
100
AcDb2dVertex
 10
902.5
 20
1097.0
 30
0.0
  0
VERTEX
  5
714
100
AcDbEntity
  8
付属金具
  6
EXLTYPE2
 62
     6
100
AcDbVertex
100
AcDb2dVertex
 10
906.0
 20
1094.5
 30
0.0
  0
VERTEX
  5
715
100
AcDbEntity
  8
付属金具
  6
EXLTYPE2
 62
     6
100
AcDbVertex
100
AcDb2dVertex
 10
902.5
 20
1092.0
 30
0.0
  0
VERTEX
  5
716
100
AcDbEntity
  8
付属金具
  6
EXLTYPE2
 62
     6
100
AcDbVertex
100
AcDb2dVertex
 10
906.0
 20
1089.5
 30
0.0
  0
VERTEX
  5
717
100
AcDbEntity
  8
付属金具
  6
EXLTYPE2
 62
     6
100
AcDbVertex
100
AcDb2dVertex
 10
902.5
 20
1087.0
 30
0.0
  0
VERTEX
  5
718
100
AcDbEntity
  8
付属金具
  6
EXLTYPE2
 62
     6
100
AcDbVertex
100
AcDb2dVertex
 10
906.0
 20
1084.5
 30
0.0
  0
VERTEX
  5
719
100
AcDbEntity
  8
付属金具
  6
EXLTYPE2
 62
     6
100
AcDbVertex
100
AcDb2dVertex
 10
902.5
 20
1082.0
 30
0.0
  0
VERTEX
  5
71A
100
AcDbEntity
  8
付属金具
  6
EXLTYPE2
 62
     6
100
AcDbVertex
100
AcDb2dVertex
 10
906.0
 20
1079.5
 30
0.0
  0
VERTEX
  5
71B
100
AcDbEntity
  8
付属金具
  6
EXLTYPE2
 62
     6
100
AcDbVertex
100
AcDb2dVertex
 10
902.5
 20
1077.0
 30
0.0
  0
VERTEX
  5
71C
100
AcDbEntity
  8
付属金具
  6
EXLTYPE2
 62
     6
100
AcDbVertex
100
AcDb2dVertex
 10
906.0
 20
1074.5
 30
0.0
  0
VERTEX
  5
71D
100
AcDbEntity
  8
付属金具
  6
EXLTYPE2
 62
     6
100
AcDbVertex
100
AcDb2dVertex
 10
902.5
 20
1072.0
 30
0.0
  0
VERTEX
  5
71E
100
AcDbEntity
  8
付属金具
  6
EXLTYPE2
 62
     6
100
AcDbVertex
100
AcDb2dVertex
 10
906.0
 20
1069.5
 30
0.0
  0
VERTEX
  5
71F
100
AcDbEntity
  8
付属金具
  6
EXLTYPE2
 62
     6
100
AcDbVertex
100
AcDb2dVertex
 10
902.5
 20
1067.0
 30
0.0
  0
VERTEX
  5
720
100
AcDbEntity
  8
付属金具
  6
EXLTYPE2
 62
     6
100
AcDbVertex
100
AcDb2dVertex
 10
906.0
 20
1064.5
 30
0.0
  0
VERTEX
  5
721
100
AcDbEntity
  8
付属金具
  6
EXLTYPE2
 62
     6
100
AcDbVertex
100
AcDb2dVertex
 10
902.5
 20
1062.0
 30
0.0
  0
VERTEX
  5
722
100
AcDbEntity
  8
付属金具
  6
EXLTYPE2
 62
     6
100
AcDbVertex
100
AcDb2dVertex
 10
906.0
 20
1059.5
 30
0.0
  0
VERTEX
  5
723
100
AcDbEntity
  8
付属金具
  6
EXLTYPE2
 62
     6
100
AcDbVertex
100
AcDb2dVertex
 10
902.5
 20
1057.0
 30
0.0
  0
VERTEX
  5
724
100
AcDbEntity
  8
付属金具
  6
EXLTYPE2
 62
     6
100
AcDbVertex
100
AcDb2dVertex
 10
906.0
 20
1054.5
 30
0.0
  0
VERTEX
  5
725
100
AcDbEntity
  8
付属金具
  6
EXLTYPE2
 62
     6
100
AcDbVertex
100
AcDb2dVertex
 10
902.5
 20
1052.0
 30
0.0
  0
VERTEX
  5
726
100
AcDbEntity
  8
付属金具
  6
EXLTYPE2
 62
     6
100
AcDbVertex
100
AcDb2dVertex
 10
906.0
 20
1049.5
 30
0.0
  0
VERTEX
  5
727
100
AcDbEntity
  8
付属金具
  6
EXLTYPE2
 62
     6
100
AcDbVertex
100
AcDb2dVertex
 10
902.5
 20
1047.0
 30
0.0
  0
VERTEX
  5
728
100
AcDbEntity
  8
付属金具
  6
EXLTYPE2
 62
     6
100
AcDbVertex
100
AcDb2dVertex
 10
906.0
 20
1044.5
 30
0.0
  0
VERTEX
  5
729
100
AcDbEntity
  8
付属金具
  6
EXLTYPE2
 62
     6
100
AcDbVertex
100
AcDb2dVertex
 10
902.5
 20
1042.0
 30
0.0
  0
VERTEX
  5
72A
100
AcDbEntity
  8
付属金具
  6
EXLTYPE2
 62
     6
100
AcDbVertex
100
AcDb2dVertex
 10
906.0
 20
1039.5
 30
0.0
  0
VERTEX
  5
72B
100
AcDbEntity
  8
付属金具
  6
EXLTYPE2
 62
     6
100
AcDbVertex
100
AcDb2dVertex
 10
902.5
 20
1037.0
 30
0.0
  0
VERTEX
  5
72C
100
AcDbEntity
  8
付属金具
  6
EXLTYPE2
 62
     6
100
AcDbVertex
100
AcDb2dVertex
 10
906.0
 20
1034.5
 30
0.0
  0
VERTEX
  5
72D
100
AcDbEntity
  8
付属金具
  6
EXLTYPE2
 62
     6
100
AcDbVertex
100
AcDb2dVertex
 10
902.5
 20
1032.0
 30
0.0
  0
VERTEX
  5
72E
100
AcDbEntity
  8
付属金具
  6
EXLTYPE2
 62
     6
100
AcDbVertex
100
AcDb2dVertex
 10
906.0
 20
1029.5
 30
0.0
  0
VERTEX
  5
72F
100
AcDbEntity
  8
付属金具
  6
EXLTYPE2
 62
     6
100
AcDbVertex
100
AcDb2dVertex
 10
902.5
 20
1027.0
 30
0.0
  0
VERTEX
  5
730
100
AcDbEntity
  8
付属金具
  6
EXLTYPE2
 62
     6
100
AcDbVertex
100
AcDb2dVertex
 10
906.0
 20
1024.5
 30
0.0
  0
VERTEX
  5
731
100
AcDbEntity
  8
付属金具
  6
EXLTYPE2
 62
     6
100
AcDbVertex
100
AcDb2dVertex
 10
902.5
 20
1022.0
 30
0.0
  0
VERTEX
  5
732
100
AcDbEntity
  8
付属金具
  6
EXLTYPE2
 62
     6
100
AcDbVertex
100
AcDb2dVertex
 10
906.0
 20
1019.5
 30
0.0
  0
VERTEX
  5
733
100
AcDbEntity
  8
付属金具
  6
EXLTYPE2
 62
     6
100
AcDbVertex
100
AcDb2dVertex
 10
902.5
 20
1017.0
 30
0.0
  0
VERTEX
  5
734
100
AcDbEntity
  8
付属金具
  6
EXLTYPE2
 62
     6
100
AcDbVertex
100
AcDb2dVertex
 10
906.0
 20
1014.5
 30
0.0
  0
VERTEX
  5
735
100
AcDbEntity
  8
付属金具
  6
EXLTYPE2
 62
     6
100
AcDbVertex
100
AcDb2dVertex
 10
902.5
 20
1012.0
 30
0.0
  0
VERTEX
  5
736
100
AcDbEntity
  8
付属金具
  6
EXLTYPE2
 62
     6
100
AcDbVertex
100
AcDb2dVertex
 10
906.0
 20
1009.5
 30
0.0
  0
VERTEX
  5
737
100
AcDbEntity
  8
付属金具
  6
EXLTYPE2
 62
     6
100
AcDbVertex
100
AcDb2dVertex
 10
902.5
 20
1007.0
 30
0.0
  0
VERTEX
  5
738
100
AcDbEntity
  8
付属金具
  6
EXLTYPE2
 62
     6
100
AcDbVertex
100
AcDb2dVertex
 10
906.0
 20
1004.5
 30
0.0
  0
VERTEX
  5
739
100
AcDbEntity
  8
付属金具
  6
EXLTYPE2
 62
     6
100
AcDbVertex
100
AcDb2dVertex
 10
902.5
 20
1002.0
 30
0.0
  0
VERTEX
  5
73A
100
AcDbEntity
  8
付属金具
  6
EXLTYPE2
 62
     6
100
AcDbVertex
100
AcDb2dVertex
 10
906.0
 20
999.5
 30
0.0
  0
VERTEX
  5
73B
100
AcDbEntity
  8
付属金具
  6
EXLTYPE2
 62
     6
100
AcDbVertex
100
AcDb2dVertex
 10
902.5
 20
997.0
 30
0.0
  0
VERTEX
  5
73C
100
AcDbEntity
  8
付属金具
  6
EXLTYPE2
 62
     6
100
AcDbVertex
100
AcDb2dVertex
 10
906.0
 20
994.5
 30
0.0
  0
VERTEX
  5
73D
100
AcDbEntity
  8
付属金具
  6
EXLTYPE2
 62
     6
100
AcDbVertex
100
AcDb2dVertex
 10
902.5
 20
992.0
 30
0.0
  0
VERTEX
  5
73E
100
AcDbEntity
  8
付属金具
  6
EXLTYPE2
 62
     6
100
AcDbVertex
100
AcDb2dVertex
 10
906.0
 20
989.5
 30
0.0
  0
VERTEX
  5
73F
100
AcDbEntity
  8
付属金具
  6
EXLTYPE2
 62
     6
100
AcDbVertex
100
AcDb2dVertex
 10
902.5
 20
987.0
 30
0.0
  0
VERTEX
  5
740
100
AcDbEntity
  8
付属金具
  6
EXLTYPE2
 62
     6
100
AcDbVertex
100
AcDb2dVertex
 10
906.0
 20
984.5
 30
0.0
  0
VERTEX
  5
741
100
AcDbEntity
  8
付属金具
  6
EXLTYPE2
 62
     6
100
AcDbVertex
100
AcDb2dVertex
 10
902.5
 20
982.0
 30
0.0
  0
VERTEX
  5
742
100
AcDbEntity
  8
付属金具
  6
EXLTYPE2
 62
     6
100
AcDbVertex
100
AcDb2dVertex
 10
906.0
 20
979.5
 30
0.0
  0
VERTEX
  5
743
100
AcDbEntity
  8
付属金具
  6
EXLTYPE2
 62
     6
100
AcDbVertex
100
AcDb2dVertex
 10
902.5
 20
977.0
 30
0.0
  0
VERTEX
  5
744
100
AcDbEntity
  8
付属金具
  6
EXLTYPE2
 62
     6
100
AcDbVertex
100
AcDb2dVertex
 10
906.0
 20
974.5
 30
0.0
  0
VERTEX
  5
745
100
AcDbEntity
  8
付属金具
  6
EXLTYPE2
 62
     6
100
AcDbVertex
100
AcDb2dVertex
 10
902.5
 20
972.0
 30
0.0
  0
VERTEX
  5
746
100
AcDbEntity
  8
付属金具
  6
EXLTYPE2
 62
     6
100
AcDbVertex
100
AcDb2dVertex
 10
906.0
 20
969.5
 30
0.0
  0
VERTEX
  5
747
100
AcDbEntity
  8
付属金具
  6
EXLTYPE2
 62
     6
100
AcDbVertex
100
AcDb2dVertex
 10
902.5
 20
967.0
 30
0.0
  0
VERTEX
  5
748
100
AcDbEntity
  8
付属金具
  6
EXLTYPE2
 62
     6
100
AcDbVertex
100
AcDb2dVertex
 10
906.0
 20
964.5
 30
0.0
  0
VERTEX
  5
749
100
AcDbEntity
  8
付属金具
  6
EXLTYPE2
 62
     6
100
AcDbVertex
100
AcDb2dVertex
 10
902.5
 20
962.0
 30
0.0
  0
VERTEX
  5
74A
100
AcDbEntity
  8
付属金具
  6
EXLTYPE2
 62
     6
100
AcDbVertex
100
AcDb2dVertex
 10
906.0
 20
959.5
 30
0.0
  0
VERTEX
  5
74B
100
AcDbEntity
  8
付属金具
  6
EXLTYPE2
 62
     6
100
AcDbVertex
100
AcDb2dVertex
 10
902.5
 20
957.0
 30
0.0
  0
VERTEX
  5
74C
100
AcDbEntity
  8
付属金具
  6
EXLTYPE2
 62
     6
100
AcDbVertex
100
AcDb2dVertex
 10
906.0
 20
954.5
 30
0.0
  0
VERTEX
  5
74D
100
AcDbEntity
  8
付属金具
  6
EXLTYPE2
 62
     6
100
AcDbVertex
100
AcDb2dVertex
 10
902.5
 20
952.0
 30
0.0
  0
VERTEX
  5
74E
100
AcDbEntity
  8
付属金具
  6
EXLTYPE2
 62
     6
100
AcDbVertex
100
AcDb2dVertex
 10
906.0
 20
949.5
 30
0.0
  0
VERTEX
  5
74F
100
AcDbEntity
  8
付属金具
  6
EXLTYPE2
 62
     6
100
AcDbVertex
100
AcDb2dVertex
 10
902.5
 20
947.0
 30
0.0
  0
VERTEX
  5
750
100
AcDbEntity
  8
付属金具
  6
EXLTYPE2
 62
     6
100
AcDbVertex
100
AcDb2dVertex
 10
906.0
 20
944.5
 30
0.0
  0
VERTEX
  5
751
100
AcDbEntity
  8
付属金具
  6
EXLTYPE2
 62
     6
100
AcDbVertex
100
AcDb2dVertex
 10
902.5
 20
942.0
 30
0.0
  0
VERTEX
  5
752
100
AcDbEntity
  8
付属金具
  6
EXLTYPE2
 62
     6
100
AcDbVertex
100
AcDb2dVertex
 10
906.0
 20
939.5
 30
0.0
  0
VERTEX
  5
753
100
AcDbEntity
  8
付属金具
  6
EXLTYPE2
 62
     6
100
AcDbVertex
100
AcDb2dVertex
 10
902.5
 20
937.0
 30
0.0
  0
VERTEX
  5
754
100
AcDbEntity
  8
付属金具
  6
EXLTYPE2
 62
     6
100
AcDbVertex
100
AcDb2dVertex
 10
906.0
 20
934.5
 30
0.0
  0
VERTEX
  5
755
100
AcDbEntity
  8
付属金具
  6
EXLTYPE2
 62
     6
100
AcDbVertex
100
AcDb2dVertex
 10
902.5
 20
932.0
 30
0.0
  0
VERTEX
  5
756
100
AcDbEntity
  8
付属金具
  6
EXLTYPE2
 62
     6
100
AcDbVertex
100
AcDb2dVertex
 10
906.0
 20
929.5
 30
0.0
  0
VERTEX
  5
757
100
AcDbEntity
  8
付属金具
  6
EXLTYPE2
 62
     6
100
AcDbVertex
100
AcDb2dVertex
 10
902.5
 20
927.0
 30
0.0
  0
VERTEX
  5
758
100
AcDbEntity
  8
付属金具
  6
EXLTYPE2
 62
     6
100
AcDbVertex
100
AcDb2dVertex
 10
906.0
 20
924.5
 30
0.0
  0
VERTEX
  5
759
100
AcDbEntity
  8
付属金具
  6
EXLTYPE2
 62
     6
100
AcDbVertex
100
AcDb2dVertex
 10
902.5
 20
922.0
 30
0.0
  0
VERTEX
  5
75A
100
AcDbEntity
  8
付属金具
  6
EXLTYPE2
 62
     6
100
AcDbVertex
100
AcDb2dVertex
 10
906.0
 20
919.5
 30
0.0
  0
VERTEX
  5
75B
100
AcDbEntity
  8
付属金具
  6
EXLTYPE2
 62
     6
100
AcDbVertex
100
AcDb2dVertex
 10
902.5
 20
917.0
 30
0.0
  0
VERTEX
  5
75C
100
AcDbEntity
  8
付属金具
  6
EXLTYPE2
 62
     6
100
AcDbVertex
100
AcDb2dVertex
 10
906.0
 20
914.5
 30
0.0
  0
VERTEX
  5
75D
100
AcDbEntity
  8
付属金具
  6
EXLTYPE2
 62
     6
100
AcDbVertex
100
AcDb2dVertex
 10
902.5
 20
912.0
 30
0.0
  0
VERTEX
  5
75E
100
AcDbEntity
  8
付属金具
  6
EXLTYPE2
 62
     6
100
AcDbVertex
100
AcDb2dVertex
 10
906.0
 20
909.5
 30
0.0
  0
VERTEX
  5
75F
100
AcDbEntity
  8
付属金具
  6
EXLTYPE2
 62
     6
100
AcDbVertex
100
AcDb2dVertex
 10
902.5
 20
907.0
 30
0.0
  0
VERTEX
  5
760
100
AcDbEntity
  8
付属金具
  6
EXLTYPE2
 62
     6
100
AcDbVertex
100
AcDb2dVertex
 10
906.0
 20
904.5
 30
0.0
  0
VERTEX
  5
761
100
AcDbEntity
  8
付属金具
  6
EXLTYPE2
 62
     6
100
AcDbVertex
100
AcDb2dVertex
 10
902.5
 20
902.0
 30
0.0
  0
VERTEX
  5
762
100
AcDbEntity
  8
付属金具
  6
EXLTYPE2
 62
     6
100
AcDbVertex
100
AcDb2dVertex
 10
906.0
 20
899.5
 30
0.0
  0
VERTEX
  5
763
100
AcDbEntity
  8
付属金具
  6
EXLTYPE2
 62
     6
100
AcDbVertex
100
AcDb2dVertex
 10
902.5
 20
897.0
 30
0.0
  0
VERTEX
  5
764
100
AcDbEntity
  8
付属金具
  6
EXLTYPE2
 62
     6
100
AcDbVertex
100
AcDb2dVertex
 10
904.15
 20
894.5
 30
0.0
  0
SEQEND
  5
765
100
AcDbEntity
  8
付属金具
  6
EXLTYPE2
 62
     6
  0
LINE
  5
766
100
AcDbEntity
  8
付属金具
  6
CONTINUOUS
 62
     6
100
AcDbLine
 10
920.0
 20
1244.5
 30
0.0
 11
934.0
 21
1244.5
 31
0.0
  0
LINE
  5
767
100
AcDbEntity
  8
付属金具
  6
CONTINUOUS
 62
     6
100
AcDbLine
 10
906.0
 20
1239.5
 30
0.0
 11
920.0
 21
1239.5
 31
0.0
  0
LINE
  5
768
100
AcDbEntity
  8
付属金具
  6
CONTINUOUS
 62
     6
100
AcDbLine
 10
920.0
 20
1234.5
 30
0.0
 11
934.0
 21
1234.5
 31
0.0
  0
LINE
  5
769
100
AcDbEntity
  8
付属金具
  6
CONTINUOUS
 62
     6
100
AcDbLine
 10
906.0
 20
1229.5
 30
0.0
 11
920.0
 21
1229.5
 31
0.0
  0
LINE
  5
76A
100
AcDbEntity
  8
付属金具
  6
CONTINUOUS
 62
     6
100
AcDbLine
 10
920.0
 20
1224.5
 30
0.0
 11
934.0
 21
1224.5
 31
0.0
  0
LINE
  5
76B
100
AcDbEntity
  8
付属金具
  6
CONTINUOUS
 62
     6
100
AcDbLine
 10
906.0
 20
1219.5
 30
0.0
 11
920.0
 21
1219.5
 31
0.0
  0
LINE
  5
76C
100
AcDbEntity
  8
付属金具
  6
CONTINUOUS
 62
     6
100
AcDbLine
 10
920.0
 20
1214.5
 30
0.0
 11
934.0
 21
1214.5
 31
0.0
  0
LINE
  5
76D
100
AcDbEntity
  8
付属金具
  6
CONTINUOUS
 62
     6
100
AcDbLine
 10
906.0
 20
1209.5
 30
0.0
 11
920.0
 21
1209.5
 31
0.0
  0
LINE
  5
76E
100
AcDbEntity
  8
付属金具
  6
CONTINUOUS
 62
     6
100
AcDbLine
 10
920.0
 20
1204.5
 30
0.0
 11
934.0
 21
1204.5
 31
0.0
  0
LINE
  5
76F
100
AcDbEntity
  8
付属金具
  6
CONTINUOUS
 62
     6
100
AcDbLine
 10
906.0
 20
1199.5
 30
0.0
 11
920.0
 21
1199.5
 31
0.0
  0
LINE
  5
770
100
AcDbEntity
  8
付属金具
  6
CONTINUOUS
 62
     6
100
AcDbLine
 10
920.0
 20
1194.5
 30
0.0
 11
934.0
 21
1194.5
 31
0.0
  0
LINE
  5
771
100
AcDbEntity
  8
付属金具
  6
CONTINUOUS
 62
     6
100
AcDbLine
 10
906.0
 20
1189.5
 30
0.0
 11
920.0
 21
1189.5
 31
0.0
  0
LINE
  5
772
100
AcDbEntity
  8
付属金具
  6
CONTINUOUS
 62
     6
100
AcDbLine
 10
920.0
 20
1184.5
 30
0.0
 11
934.0
 21
1184.5
 31
0.0
  0
LINE
  5
773
100
AcDbEntity
  8
付属金具
  6
CONTINUOUS
 62
     6
100
AcDbLine
 10
906.0
 20
1179.5
 30
0.0
 11
920.0
 21
1179.5
 31
0.0
  0
LINE
  5
774
100
AcDbEntity
  8
付属金具
  6
CONTINUOUS
 62
     6
100
AcDbLine
 10
920.0
 20
1174.5
 30
0.0
 11
934.0
 21
1174.5
 31
0.0
  0
LINE
  5
775
100
AcDbEntity
  8
付属金具
  6
CONTINUOUS
 62
     6
100
AcDbLine
 10
906.0
 20
1169.5
 30
0.0
 11
920.0
 21
1169.5
 31
0.0
  0
LINE
  5
776
100
AcDbEntity
  8
付属金具
  6
CONTINUOUS
 62
     6
100
AcDbLine
 10
920.0
 20
1164.5
 30
0.0
 11
934.0
 21
1164.5
 31
0.0
  0
LINE
  5
777
100
AcDbEntity
  8
付属金具
  6
CONTINUOUS
 62
     6
100
AcDbLine
 10
906.0
 20
1159.5
 30
0.0
 11
920.0
 21
1159.5
 31
0.0
  0
LINE
  5
778
100
AcDbEntity
  8
付属金具
  6
CONTINUOUS
 62
     6
100
AcDbLine
 10
920.0
 20
1154.5
 30
0.0
 11
934.0
 21
1154.5
 31
0.0
  0
LINE
  5
779
100
AcDbEntity
  8
付属金具
  6
CONTINUOUS
 62
     6
100
AcDbLine
 10
906.0
 20
1149.5
 30
0.0
 11
920.0
 21
1149.5
 31
0.0
  0
LINE
  5
77A
100
AcDbEntity
  8
付属金具
  6
CONTINUOUS
 62
     6
100
AcDbLine
 10
920.0
 20
1144.5
 30
0.0
 11
934.0
 21
1144.5
 31
0.0
  0
LINE
  5
77B
100
AcDbEntity
  8
付属金具
  6
CONTINUOUS
 62
     6
100
AcDbLine
 10
906.0
 20
1139.5
 30
0.0
 11
920.0
 21
1139.5
 31
0.0
  0
LINE
  5
77C
100
AcDbEntity
  8
付属金具
  6
CONTINUOUS
 62
     6
100
AcDbLine
 10
920.0
 20
1134.5
 30
0.0
 11
934.0
 21
1134.5
 31
0.0
  0
LINE
  5
77D
100
AcDbEntity
  8
付属金具
  6
CONTINUOUS
 62
     6
100
AcDbLine
 10
906.0
 20
1129.5
 30
0.0
 11
920.0
 21
1129.5
 31
0.0
  0
LINE
  5
77E
100
AcDbEntity
  8
付属金具
  6
CONTINUOUS
 62
     6
100
AcDbLine
 10
920.0
 20
1124.5
 30
0.0
 11
934.0
 21
1124.5
 31
0.0
  0
LINE
  5
77F
100
AcDbEntity
  8
付属金具
  6
CONTINUOUS
 62
     6
100
AcDbLine
 10
906.0
 20
1119.5
 30
0.0
 11
920.0
 21
1119.5
 31
0.0
  0
LINE
  5
780
100
AcDbEntity
  8
付属金具
  6
CONTINUOUS
 62
     6
100
AcDbLine
 10
920.0
 20
1114.5
 30
0.0
 11
934.0
 21
1114.5
 31
0.0
  0
LINE
  5
781
100
AcDbEntity
  8
付属金具
  6
CONTINUOUS
 62
     6
100
AcDbLine
 10
906.0
 20
1109.5
 30
0.0
 11
920.0
 21
1109.5
 31
0.0
  0
LINE
  5
782
100
AcDbEntity
  8
付属金具
  6
CONTINUOUS
 62
     6
100
AcDbLine
 10
920.0
 20
1104.5
 30
0.0
 11
934.0
 21
1104.5
 31
0.0
  0
LINE
  5
783
100
AcDbEntity
  8
付属金具
  6
CONTINUOUS
 62
     6
100
AcDbLine
 10
906.0
 20
1099.5
 30
0.0
 11
920.0
 21
1099.5
 31
0.0
  0
LINE
  5
784
100
AcDbEntity
  8
付属金具
  6
CONTINUOUS
 62
     6
100
AcDbLine
 10
920.0
 20
1094.5
 30
0.0
 11
934.0
 21
1094.5
 31
0.0
  0
LINE
  5
785
100
AcDbEntity
  8
付属金具
  6
CONTINUOUS
 62
     6
100
AcDbLine
 10
906.0
 20
1089.5
 30
0.0
 11
920.0
 21
1089.5
 31
0.0
  0
LINE
  5
786
100
AcDbEntity
  8
付属金具
  6
CONTINUOUS
 62
     6
100
AcDbLine
 10
920.0
 20
1084.5
 30
0.0
 11
934.0
 21
1084.5
 31
0.0
  0
LINE
  5
787
100
AcDbEntity
  8
付属金具
  6
CONTINUOUS
 62
     6
100
AcDbLine
 10
906.0
 20
1079.5
 30
0.0
 11
920.0
 21
1079.5
 31
0.0
  0
LINE
  5
788
100
AcDbEntity
  8
付属金具
  6
CONTINUOUS
 62
     6
100
AcDbLine
 10
920.0
 20
1074.5
 30
0.0
 11
934.0
 21
1074.5
 31
0.0
  0
LINE
  5
789
100
AcDbEntity
  8
付属金具
  6
CONTINUOUS
 62
     6
100
AcDbLine
 10
906.0
 20
1069.5
 30
0.0
 11
920.0
 21
1069.5
 31
0.0
  0
LINE
  5
78A
100
AcDbEntity
  8
付属金具
  6
CONTINUOUS
 62
     6
100
AcDbLine
 10
920.0
 20
1064.5
 30
0.0
 11
934.0
 21
1064.5
 31
0.0
  0
LINE
  5
78B
100
AcDbEntity
  8
付属金具
  6
EXLTYPE2
 62
     6
100
AcDbLine
 10
901.5
 20
1375.5
 30
0.0
 11
901.5
 21
1340.5
 31
0.0
  0
LINE
  5
78C
100
AcDbEntity
  8
付属金具
  6
EXLTYPE2
 62
     6
100
AcDbLine
 10
938.5
 20
1375.5
 30
0.0
 11
938.5
 21
1340.5
 31
0.0
  0
LINE
  5
78D
100
AcDbEntity
  8
付属金具
  6
EXLTYPE2
 62
     6
100
AcDbLine
 10
904.15
 20
1337.85
 30
0.0
 11
904.15
 21
1312.834963
 31
0.0
  0
LINE
  5
78E
100
AcDbEntity
  8
付属金具
  6
EXLTYPE2
 62
     6
100
AcDbLine
 10
935.85
 20
1337.85
 30
0.0
 11
935.85
 21
1308.871127
 31
0.0
  0
LINE
  5
78F
100
AcDbEntity
  8
付属金具
  6
EXLTYPE2
 62
     6
100
AcDbLine
 10
880.978873
 20
1302.5
 30
0.0
 11
880.978873
 21
1268.0
 31
0.0
  0
LINE
  5
790
100
AcDbEntity
  8
付属金具
  6
EXLTYPE2
 62
     6
100
AcDbLine
 10
915.978873
 20
1275.850662
 30
0.0
 11
915.978873
 21
1268.0
 31
0.0
  0
LINE
  5
791
100
AcDbEntity
  8
付属金具
  6
EXLTYPE2
 62
     6
100
AcDbLine
 10
938.5
 20
1340.5
 30
0.0
 11
935.85
 21
1337.85
 31
0.0
  0
LINE
  5
792
100
AcDbEntity
  8
付属金具
  6
EXLTYPE2
 62
     6
100
AcDbLine
 10
901.5
 20
1340.5
 30
0.0
 11
904.15
 21
1337.85
 31
0.0
  0
LINE
  5
793
100
AcDbEntity
  8
付属金具
  6
EXLTYPE2
 62
     6
100
AcDbLine
 10
877.478873
 20
1268.0
 30
0.0
 11
919.478873
 21
1268.0
 31
0.0
  0
LINE
  5
794
100
AcDbEntity
  8
付属金具
  6
EXLTYPE2
 62
     6
100
AcDbLine
 10
878.978873
 20
1251.5
 30
0.0
 11
917.978873
 21
1251.5
 31
0.0
  0
LINE
  5
795
100
AcDbEntity
  8
付属金具
  6
EXLTYPE2
 62
     6
100
AcDbLine
 10
877.478873
 20
1253.0
 30
0.0
 11
877.478873
 21
1268.0
 31
0.0
  0
LINE
  5
796
100
AcDbEntity
  8
付属金具
  6
EXLTYPE2
 62
     6
100
AcDbLine
 10
919.478873
 20
1253.0
 30
0.0
 11
919.478873
 21
1268.0
 31
0.0
  0
LINE
  5
797
100
AcDbEntity
  8
付属金具
  6
EXLTYPE2
 62
     6
100
AcDbLine
 10
881.656505
 20
1253.0
 30
0.0
 11
881.656505
 21
1268.0
 31
0.0
  0
LINE
  5
798
100
AcDbEntity
  8
付属金具
  6
EXLTYPE2
 62
     6
100
AcDbLine
 10
896.004015
 20
1253.0
 30
0.0
 11
896.004015
 21
1268.0
 31
0.0
  0
LINE
  5
799
100
AcDbEntity
  8
付属金具
  6
EXLTYPE2
 62
     6
100
AcDbLine
 10
900.953732
 20
1253.0
 30
0.0
 11
900.953732
 21
1268.0
 31
0.0
  0
ARC
  5
79A
100
AcDbEntity
  8
付属金具
  6
EXLTYPE2
 62
     6
100
AcDbCircle
 10
917.978873
 20
1253.0
 30
0.0
 40
1.5
100
AcDbArc
 50
270.0
 51
0.0
  0
ARC
  5
79B
100
AcDbEntity
  8
付属金具
  6
EXLTYPE2
 62
     6
100
AcDbCircle
 10
878.978873
 20
1253.0
 30
0.0
 40
1.5
100
AcDbArc
 50
180.0
 51
270.0
  0
LINE
  5
79C
100
AcDbEntity
  8
付属金具
  6
EXLTYPE2
 62
     6
100
AcDbLine
 10
904.15
 20
1337.85
 30
0.0
 11
935.85
 21
1337.85
 31
0.0
  0
ARC
  5
79D
100
AcDbEntity
  8
付属金具
  6
EXLTYPE2
 62
     6
100
AcDbCircle
 10
898.478873
 20
1287.35
 30
0.0
 40
15.85
100
AcDbArc
 50
99.640243
 51
270.0
  0
LINE
  5
79E
100
AcDbEntity
  8
付属金具
  6
EXLTYPE2
 62
     6
100
AcDbLine
 10
880.978873
 20
1302.5
 30
0.0
 11
893.820547
 21
1302.5
 31
0.0
  0
LINE
  5
79F
100
AcDbEntity
  8
付属金具
  6
EXLTYPE2
 62
     6
100
AcDbLine
 10
853.557747
 20
1327.5
 30
0.0
 11
900.357747
 21
1327.5
 31
0.0
  0
LINE
  5
7A0
100
AcDbEntity
  8
付属金具
  6
EXLTYPE2
 62
     6
100
AcDbLine
 10
855.557747
 20
1345.5
 30
0.0
 11
898.357747
 21
1345.5
 31
0.0
  0
LINE
  5
7A1
100
AcDbEntity
  8
付属金具
  6
EXLTYPE2
 62
     6
100
AcDbLine
 10
853.557747
 20
1343.5
 30
0.0
 11
853.557747
 21
1327.5
 31
0.0
  0
LINE
  5
7A2
100
AcDbEntity
  8
付属金具
  6
EXLTYPE2
 62
     6
100
AcDbLine
 10
859.827758
 20
1343.5
 30
0.0
 11
859.827758
 21
1327.5
 31
0.0
  0
LINE
  5
7A3
100
AcDbEntity
  8
付属金具
  6
EXLTYPE2
 62
     6
100
AcDbLine
 10
870.687735
 20
1343.5
 30
0.0
 11
870.687735
 21
1327.5
 31
0.0
  0
LINE
  5
7A4
100
AcDbEntity
  8
付属金具
  6
EXLTYPE2
 62
     6
100
AcDbLine
 10
883.227758
 20
1343.5
 30
0.0
 11
883.227758
 21
1327.5
 31
0.0
  0
LINE
  5
7A5
100
AcDbEntity
  8
付属金具
  6
EXLTYPE2
 62
     6
100
AcDbLine
 10
894.087735
 20
1343.5
 30
0.0
 11
894.087735
 21
1327.5
 31
0.0
  0
LINE
  5
7A6
100
AcDbEntity
  8
付属金具
  6
EXLTYPE2
 62
     6
100
AcDbLine
 10
900.357747
 20
1343.5
 30
0.0
 11
900.357747
 21
1327.5
 31
0.0
  0
ARC
  5
7A7
100
AcDbEntity
  8
付属金具
  6
EXLTYPE2
 62
     6
100
AcDbCircle
 10
855.557747
 20
1343.5
 30
0.0
 40
2.0
100
AcDbArc
 50
90.0
 51
180.0
  0
ARC
  5
7A8
100
AcDbEntity
  8
付属金具
  6
EXLTYPE2
 62
     6
100
AcDbCircle
 10
898.357747
 20
1343.5
 30
0.0
 40
2.0
100
AcDbArc
 50
0.0
 51
90.0
  0
LINE
  5
7A9
100
AcDbEntity
  8
付属金具
  6
EXLTYPE2
 62
     6
100
AcDbLine
 10
858.457747
 20
1327.5
 30
0.0
 11
858.457747
 21
1297.5
 31
0.0
  0
LINE
  5
7AA
100
AcDbEntity
  8
付属金具
  6
EXLTYPE2
 62
     6
100
AcDbLine
 10
895.457747
 20
1327.5
 30
0.0
 11
895.457747
 21
1302.5
 31
0.0
  0
LINE
  5
7AB
100
AcDbEntity
  8
付属金具
  6
EXLTYPE2
 62
     6
100
AcDbLine
 10
858.457747
 20
1297.5
 30
0.0
 11
880.978873
 21
1297.5
 31
0.0
  0
ARC
  5
7AC
100
AcDbEntity
  8
付属金具
  6
EXLTYPE2
 62
     6
100
AcDbCircle
 10
898.478873
 20
1308.871127
 30
0.0
 40
37.371127
100
AcDbArc
 50
197.714595
 51
242.077557
  0
ARC
  5
7AD
100
AcDbEntity
  8
付属金具
  6
EXLTYPE2
 62
     6
100
AcDbCircle
 10
898.478873
 20
1308.871127
 30
0.0
 40
37.371127
100
AcDbArc
 50
270.0
 51
0.0
  0
LINE
  5
7AE
100
AcDbEntity
  8
付属金具
  6
EXLTYPE2
 62
     6
100
AcDbLine
 10
861.107747
 20
1357.128873
 30
0.0
 11
861.107747
 21
1345.5
 31
0.0
  0
LINE
  5
7AF
100
AcDbEntity
  8
付属金具
  6
EXLTYPE2
 62
     6
100
AcDbLine
 10
892.807747
 20
1357.128873
 30
0.0
 11
892.807747
 21
1345.5
 31
0.0
  0
ARC
  5
7B0
100
AcDbEntity
  8
付属金具
  6
EXLTYPE2
 62
     6
100
AcDbCircle
 10
898.478873
 20
1357.128873
 30
0.0
 40
5.671127
100
AcDbArc
 50
57.810532
 51
180.0
  0
ARC
  5
7B1
100
AcDbEntity
  8
付属金具
  6
EXLTYPE2
 62
     6
100
AcDbCircle
 10
894.15
 20
1312.834963
 30
0.0
 40
10.0
100
AcDbArc
 50
279.640243
 51
0.0
  0
ARC
  5
7B2
100
AcDbEntity
  8
付属金具
  6
EXLTYPE2
 62
     6
100
AcDbCircle
 10
898.478873
 20
1357.128873
 30
0.0
 40
37.371127
100
AcDbArc
 50
81.11641
 51
180.0
  0
LINE
  5
7B3
100
AcDbEntity
  8
付属金具
  6
CONTINUOUS
 62
     6
100
AcDbLine
 10
920.0
 20
1254.5
 30
0.0
 11
934.0
 21
1254.5
 31
0.0
  0
LINE
  5
7B4
100
AcDbEntity
  8
付属金具
  6
CONTINUOUS
 62
     6
100
AcDbLine
 10
920.0
 20
1264.5
 30
0.0
 11
934.0
 21
1264.5
 31
0.0
  0
LINE
  5
7B5
100
AcDbEntity
  8
付属金具
  6
CONTINUOUS
 62
     6
100
AcDbLine
 10
920.0
 20
1274.5
 30
0.0
 11
934.0
 21
1274.5
 31
0.0
  0
LINE
  5
7B6
100
AcDbEntity
  8
付属金具
  6
CONTINUOUS
 62
     6
100
AcDbLine
 10
926.809939
 20
1284.5
 30
0.0
 11
934.0
 21
1284.5
 31
0.0
  0
LINE
  5
7B7
100
AcDbEntity
  8
付属金具
  6
EXLTYPE2
 62
     6
100
AcDbLine
 10
915.301242
 20
1253.0
 30
0.0
 11
915.301242
 21
1268.0
 31
0.0
  0
LINE
  5
7B8
100
AcDbEntity
  8
付属金具
  6
CONTINUOUS
 62
     6
100
AcDbLine
 10
906.0
 20
1249.5
 30
0.0
 11
920.0
 21
1249.5
 31
0.0
  0
LINE
  5
7B9
100
AcDbEntity
  8
付属金具
  6
EXLTYPE2
 62
     6
100
AcDbLine
 10
896.6
 20
1375.5
 30
0.0
 11
943.4
 21
1375.5
 31
0.0
  0
LINE
  5
7BA
100
AcDbEntity
  8
付属金具
  6
EXLTYPE2
 62
     6
100
AcDbLine
 10
898.6
 20
1393.5
 30
0.0
 11
941.4
 21
1393.5
 31
0.0
  0
LINE
  5
7BB
100
AcDbEntity
  8
付属金具
  6
EXLTYPE2
 62
     6
100
AcDbLine
 10
896.6
 20
1391.5
 30
0.0
 11
896.6
 21
1375.5
 31
0.0
  0
LINE
  5
7BC
100
AcDbEntity
  8
付属金具
  6
EXLTYPE2
 62
     6
100
AcDbLine
 10
902.870011
 20
1391.5
 30
0.0
 11
902.870011
 21
1375.5
 31
0.0
  0
LINE
  5
7BD
100
AcDbEntity
  8
付属金具
  6
EXLTYPE2
 62
     6
100
AcDbLine
 10
913.729989
 20
1391.5
 30
0.0
 11
913.729989
 21
1375.5
 31
0.0
  0
LINE
  5
7BE
100
AcDbEntity
  8
付属金具
  6
EXLTYPE2
 62
     6
100
AcDbLine
 10
926.270011
 20
1391.5
 30
0.0
 11
926.270011
 21
1375.5
 31
0.0
  0
LINE
  5
7BF
100
AcDbEntity
  8
付属金具
  6
EXLTYPE2
 62
     6
100
AcDbLine
 10
937.129989
 20
1391.5
 30
0.0
 11
937.129989
 21
1375.5
 31
0.0
  0
LINE
  5
7C0
100
AcDbEntity
  8
付属金具
  6
EXLTYPE2
 62
     6
100
AcDbLine
 10
943.4
 20
1391.5
 30
0.0
 11
943.4
 21
1375.5
 31
0.0
  0
ARC
  5
7C1
100
AcDbEntity
  8
付属金具
  6
EXLTYPE2
 62
     6
100
AcDbCircle
 10
898.6
 20
1391.5
 30
0.0
 40
2.0
100
AcDbArc
 50
90.0
 51
180.0
  0
ARC
  5
7C2
100
AcDbEntity
  8
付属金具
  6
EXLTYPE2
 62
     6
100
AcDbCircle
 10
941.4
 20
1391.5
 30
0.0
 40
2.0
100
AcDbArc
 50
0.0
 51
90.0
  0
LINE
  5
7C3
100
AcDbEntity
  8
付属金具
  6
EXLTYPE2
 62
     6
100
AcDbLine
 10
904.25
 20
1418.0
 30
0.0
 11
904.25
 21
1393.5
 31
0.0
  0
LINE
  5
7C4
100
AcDbEntity
  8
付属金具
  6
EXLTYPE2
 62
     6
100
AcDbLine
 10
935.75
 20
1418.0
 30
0.0
 11
935.75
 21
1393.5
 31
0.0
  0
DIMENSION
  5
7D1
100
AcDbEntity
  8
寸法
  6
CONTINUOUS
 62
     3
100
AcDbDimension
  2
*D14
 10
1070.0
 20
4007.5
 30
0.0
 11
920.0
 21
4042.75
 31
0.0
 70
   160
  3
STANDARD
100
AcDbAlignedDimension
 13
770.0
 23
3950.0
 33
0.0
 14
1070.0
 24
3950.0
 34
0.0
100
AcDbRotatedDimension
1001
ACAD
1000
DSTYLE
1002
{
1070
     6
1000
_EX_NORM
1070
     7
1000
_EX_NORM
1070
    41
1040
45.0
1070
    42
1040
10.5
1070
    44
1040
15.0
1070
    73
1070
     0
1070
    74
1070
     0
1070
    75
1070
     0
1070
    76
1070
     0
1070
    77
1070
     1
1070
    78
1070
     0
1070
   140
1040
60.0
1070
   147
1040
5.25
1070
   173
1070
     1
1070
   176
1070
     3
1070
   177
1070
     3
1070
   178
1070
     2
1070
   271
1070
     0
1070
   279
1070
     2
1070
   280
1070
     0
1070
   287
1070
     5
1070
   340
1005
7D0
1002
}
  0
DIMENSION
  5
7DD
100
AcDbEntity
  8
寸法
  6
CONTINUOUS
 62
     3
100
AcDbDimension
  2
*D15
 10
1170.0
 20
3377.5
 30
0.0
 11
920.0
 21
3412.75
 31
0.0
 70
   160
  3
STANDARD
100
AcDbAlignedDimension
 13
670.0
 23
3554.309311
 33
0.0
 14
1170.0
 24
3554.309311
 34
0.0
100
AcDbRotatedDimension
1001
ACAD
1000
DSTYLE
1002
{
1070
     6
1000
_EX_NORM
1070
     7
1000
_EX_NORM
1070
    41
1040
45.0
1070
    42
1040
10.5
1070
    44
1040
15.0
1070
    73
1070
     0
1070
    74
1070
     0
1070
    75
1070
     0
1070
    76
1070
     0
1070
    77
1070
     1
1070
    78
1070
     0
1070
   140
1040
60.0
1070
   147
1040
5.25
1070
   173
1070
     1
1070
   176
1070
     3
1070
   177
1070
     3
1070
   178
1070
     2
1070
   271
1070
     0
1070
   279
1070
     2
1070
   280
1070
     0
1070
   287
1070
     5
1070
   340
1005
7D0
1002
}
  0
DIMENSION
  5
7E8
100
AcDbEntity
  8
寸法
  6
CONTINUOUS
 62
     3
100
AcDbDimension
  2
*D16
 10
1290.0
 20
3917.5
 30
0.0
 11
1254.75
 21
3692.5
 31
0.0
 70
   160
  3
STANDARD
100
AcDbAlignedDimension
 13
920.0
 23
3467.5
 33
0.0
 14
1170.016335
 24
3917.5
 34
0.0
 50
90.0
100
AcDbRotatedDimension
1001
ACAD
1000
DSTYLE
1002
{
1070
     6
1000
_EX_NORM
1070
     7
1000
_EX_NORM
1070
    41
1040
45.0
1070
    42
1040
10.5
1070
    44
1040
15.0
1070
    73
1070
     0
1070
    74
1070
     0
1070
    75
1070
     0
1070
    76
1070
     1
1070
    77
1070
     1
1070
    78
1070
     0
1070
   140
1040
60.0
1070
   147
1040
5.25
1070
   173
1070
     1
1070
   176
1070
     3
1070
   177
1070
     3
1070
   178
1070
     2
1070
   271
1070
     0
1070
   279
1070
     2
1070
   280
1070
     0
1070
   287
1070
     5
1070
   340
1005
7D0
1002
}
  0
DIMENSION
  5
7F4
100
AcDbEntity
  8
寸法
  6
CONTINUOUS
 62
     3
100
AcDbDimension
  2
*D17
 10
1125.0
 20
2778.5
 30
0.0
 11
920.0
 21
2813.75
 31
0.0
 70
   160
  3
STANDARD
100
AcDbAlignedDimension
 13
715.0
 23
2642.0
 33
0.0
 14
1125.0
 24
2642.0
 34
0.0
100
AcDbRotatedDimension
1001
ACAD
1000
DSTYLE
1002
{
1070
     6
1000
_EX_NORM
1070
     7
1000
_EX_NORM
1070
    41
1040
45.0
1070
    42
1040
10.5
1070
    44
1040
15.0
1070
    73
1070
     0
1070
    74
1070
     0
1070
    75
1070
     0
1070
    76
1070
     0
1070
    77
1070
     1
1070
    78
1070
     0
1070
   140
1040
60.0
1070
   147
1040
5.25
1070
   173
1070
     1
1070
   176
1070
     3
1070
   177
1070
     3
1070
   178
1070
     2
1070
   271
1070
     0
1070
   279
1070
     2
1070
   280
1070
     0
1070
   287
1070
     5
1070
   340
1005
7D0
1002
}
  0
DIMENSION
  5
7FF
100
AcDbEntity
  8
寸法
  6
CONTINUOUS
 62
     3
100
AcDbDimension
  2
*D18
 10
1320.0
 20
1638.5
 30
0.0
 11
1284.75
 21
1263.5
 31
0.0
 70
   160
  3
STANDARD
100
AcDbAlignedDimension
 13
1152.5
 23
888.5
 33
0.0
 14
920.0
 24
1638.5
 34
0.0
 50
90.0
100
AcDbRotatedDimension
1001
ACAD
1000
DSTYLE
1002
{
1070
     6
1000
_EX_NORM
1070
     7
1000
_EX_NORM
1070
    41
1040
45.0
1070
    42
1040
10.5
1070
    44
1040
15.0
1070
    73
1070
     0
1070
    74
1070
     0
1070
    75
1070
     1
1070
    76
1070
     0
1070
    77
1070
     1
1070
    78
1070
     0
1070
   140
1040
60.0
1070
   147
1040
5.25
1070
   173
1070
     1
1070
   176
1070
     3
1070
   177
1070
     3
1070
   178
1070
     2
1070
   271
1070
     0
1070
   279
1070
     2
1070
   280
1070
     0
1070
   287
1070
     5
1070
   340
1005
7D0
1002
}
  0
DIMENSION
  5
80A
100
AcDbEntity
  8
寸法
  6
CONTINUOUS
 62
     3
100
AcDbDimension
  2
*D19
 10
1410.0
 20
1688.5
 30
0.0
 11
1374.75
 21
1288.5
 31
0.0
 70
   160
  3
STANDARD
100
AcDbAlignedDimension
 13
1152.5
 23
888.5
 33
0.0
 14
1159.5
 24
1688.5
 34
0.0
 50
90.0
100
AcDbRotatedDimension
1001
ACAD
1000
DSTYLE
1002
{
1070
     6
1000
_EX_NORM
1070
     7
1000
_EX_NORM
1070
    41
1040
45.0
1070
    42
1040
10.5
1070
    44
1040
15.0
1070
    73
1070
     0
1070
    74
1070
     0
1070
    75
1070
     1
1070
    76
1070
     0
1070
    77
1070
     1
1070
    78
1070
     0
1070
   140
1040
60.0
1070
   147
1040
5.25
1070
   173
1070
     1
1070
   176
1070
     3
1070
   177
1070
     3
1070
   178
1070
     2
1070
   271
1070
     0
1070
   279
1070
     2
1070
   280
1070
     0
1070
   287
1070
     5
1070
   340
1005
7D0
1002
}
  0
DIMENSION
  5
815
100
AcDbEntity
  8
寸法
  6
CONTINUOUS
 62
     3
100
AcDbDimension
  2
*D20
 10
1500.0
 20
2688.5
 30
0.0
 11
1464.75
 21
1788.5
 31
0.0
 70
   160
  3
STANDARD
100
AcDbAlignedDimension
 13
1152.5
 23
888.5
 33
0.0
 14
1165.0
 24
2688.5
 34
0.0
 50
90.0
100
AcDbRotatedDimension
1001
ACAD
1000
DSTYLE
1002
{
1070
     6
1000
_EX_NORM
1070
     7
1000
_EX_NORM
1070
    41
1040
45.0
1070
    42
1040
10.5
1070
    44
1040
15.0
1070
    73
1070
     0
1070
    74
1070
     0
1070
    75
1070
     1
1070
    76
1070
     0
1070
    77
1070
     1
1070
    78
1070
     0
1070
   140
1040
60.0
1070
   147
1040
5.25
1070
   173
1070
     1
1070
   176
1070
     3
1070
   177
1070
     3
1070
   178
1070
     2
1070
   271
1070
     0
1070
   279
1070
     2
1070
   280
1070
     0
1070
   287
1070
     5
1070
   340
1005
7D0
1002
}
  0
DIMENSION
  5
820
100
AcDbEntity
  8
寸法
  6
CONTINUOUS
 62
     3
100
AcDbDimension
  2
*D21
 10
1320.0
 20
1818.5
 30
0.0
 11
1284.75
 21
1753.5
 31
0.0
 70
   160
  3
STANDARD
100
AcDbAlignedDimension
 13
1159.5
 23
1688.5
 33
0.0
 14
1183.076697
 24
1818.5
 34
0.0
 50
90.0
100
AcDbRotatedDimension
1001
ACAD
1000
DSTYLE
1002
{
1070
     6
1000
_EX_NORM
1070
     7
1000
_EX_NORM
1070
    41
1040
45.0
1070
    42
1040
10.5
1070
    44
1040
15.0
1070
    73
1070
     0
1070
    74
1070
     0
1070
    75
1070
     1
1070
    76
1070
     0
1070
    77
1070
     1
1070
    78
1070
     0
1070
   140
1040
60.0
1070
   147
1040
5.25
1070
   173
1070
     1
1070
   176
1070
     3
1070
   177
1070
     3
1070
   178
1070
     2
1070
   271
1070
     0
1070
   279
1070
     2
1070
   280
1070
     0
1070
   287
1070
     5
1070
   340
1005
7D0
1002
}
  0
DIMENSION
  5
82C
100
AcDbEntity
  8
寸法
  6
CONTINUOUS
 62
     3
100
AcDbDimension
  2
*D22
 10
1152.5
 20
603.0
 30
0.0
 11
920.0
 21
638.25
 31
0.0
 70
   160
  3
STANDARD
100
AcDbAlignedDimension
 13
687.5
 23
888.5
 33
0.0
 14
1152.5
 24
888.5
 34
0.0
100
AcDbRotatedDimension
1001
ACAD
1000
DSTYLE
1002
{
1070
     6
1000
_EX_NORM
1070
     7
1000
_EX_NORM
1070
    41
1040
45.0
1070
    42
1040
10.5
1070
    44
1040
15.0
1070
    73
1070
     0
1070
    74
1070
     0
1070
    75
1070
     0
1070
    76
1070
     0
1070
    77
1070
     1
1070
    78
1070
     0
1070
   140
1040
60.0
1070
   147
1040
5.25
1070
   173
1070
     1
1070
   176
1070
     3
1070
   177
1070
     3
1070
   178
1070
     2
1070
   271
1070
     0
1070
   279
1070
     2
1070
   280
1070
     0
1070
   287
1070
     5
1070
   340
1005
7D0
1002
}
  0
DIMENSION
  5
838
100
AcDbEntity
  8
寸法
  6
CONTINUOUS
 62
     3
100
AcDbDimension
  2
*D23
 10
2450.0
 20
754.5
 30
0.0
 11
2660.0
 21
789.75
 31
0.0
 70
   160
  1
75（床給水）
  3
STANDARD
100
AcDbAlignedDimension
 13
2375.0
 23
880.499969
 33
0.0
 14
2450.0
 24
888.5
 34
0.0
100
AcDbRotatedDimension
1001
ACAD
1000
DSTYLE
1002
{
1070
     6
1000
_EX_NORM
1070
     7
1000
_EX_NORM
1070
    41
1040
45.0
1070
    42
1040
10.5
1070
    44
1040
15.0
1070
    73
1070
     0
1070
    74
1070
     0
1070
    75
1070
     0
1070
    76
1070
     0
1070
    77
1070
     1
1070
    78
1070
     0
1070
   140
1040
60.0
1070
   147
1040
5.25
1070
   173
1070
     1
1070
   176
1070
     3
1070
   177
1070
     3
1070
   178
1070
     2
1070
   271
1070
     0
1070
   279
1070
     2
1070
   280
1070
     2
1070
   287
1070
     5
1070
   340
1005
7D0
1002
}
  0
DIMENSION
  5
844
100
AcDbEntity
  8
寸法
  6
CONTINUOUS
 62
     3
100
AcDbDimension
  2
*D24
 10
2450.0
 20
583.5
 30
0.0
 11
2283.5
 21
618.75
 31
0.0
 70
   160
  3
STANDARD
100
AcDbAlignedDimension
 13
2117.0
 23
888.5
 33
0.0
 14
2450.0
 24
888.5
 34
0.0
100
AcDbRotatedDimension
1001
ACAD
1000
DSTYLE
1002
{
1070
     6
1000
_EX_NORM
1070
     7
1000
_EX_NORM
1070
    41
1040
45.0
1070
    42
1040
10.5
1070
    44
1040
15.0
1070
    73
1070
     0
1070
    74
1070
     0
1070
    75
1070
     0
1070
    76
1070
     0
1070
    77
1070
     1
1070
    78
1070
     0
1070
   140
1040
60.0
1070
   147
1040
5.25
1070
   173
1070
     1
1070
   176
1070
     3
1070
   177
1070
     3
1070
   178
1070
     2
1070
   271
1070
     0
1070
   279
1070
     2
1070
   280
1070
     0
1070
   287
1070
     5
1070
   340
1005
7D0
1002
}
  0
DIMENSION
  5
850
100
AcDbEntity
  8
寸法
  6
CONTINUOUS
 62
     3
100
AcDbDimension
  2
*D25
 10
2665.5
 20
1413.5
 30
0.0
 11
2630.25
 21
1151.0
 31
0.0
 70
   160
  3
STANDARD
100
AcDbAlignedDimension
 13
2450.0
 23
888.5
 33
0.0
 14
2482.5
 24
1413.5
 34
0.0
 50
90.0
100
AcDbRotatedDimension
1001
ACAD
1000
DSTYLE
1002
{
1070
     6
1000
_EX_NORM
1070
     7
1000
_EX_NORM
1070
    41
1040
45.0
1070
    42
1040
10.5
1070
    44
1040
15.0
1070
    73
1070
     0
1070
    74
1070
     0
1070
    75
1070
     0
1070
    76
1070
     0
1070
    77
1070
     1
1070
    78
1070
     0
1070
   140
1040
60.0
1070
   147
1040
5.25
1070
   173
1070
     1
1070
   176
1070
     3
1070
   177
1070
     3
1070
   178
1070
     2
1070
   271
1070
     0
1070
   279
1070
     2
1070
   280
1070
     0
1070
   287
1070
     5
1070
   340
1005
7D0
1002
}
  0
DIMENSION
  5
85C
100
AcDbEntity
  8
寸法
  6
CONTINUOUS
 62
     3
100
AcDbDimension
  2
*D26
 10
2750.0
 20
1753.5
 30
0.0
 11
2714.75
 21
1321.0
 31
0.0
 70
   160
  3
STANDARD
100
AcDbAlignedDimension
 13
2450.0
 23
888.5
 33
0.0
 14
2482.5
 24
1753.5
 34
0.0
 50
90.0
100
AcDbRotatedDimension
1001
ACAD
1000
DSTYLE
1002
{
1070
     6
1000
_EX_NORM
1070
     7
1000
_EX_NORM
1070
    41
1040
45.0
1070
    42
1040
10.5
1070
    44
1040
15.0
1070
    73
1070
     0
1070
    74
1070
     0
1070
    75
1070
     0
1070
    76
1070
     0
1070
    77
1070
     1
1070
    78
1070
     0
1070
   140
1040
60.0
1070
   147
1040
5.25
1070
   173
1070
     1
1070
   176
1070
     3
1070
   177
1070
     3
1070
   178
1070
     2
1070
   271
1070
     0
1070
   279
1070
     2
1070
   280
1070
     0
1070
   287
1070
     5
1070
   340
1005
7D0
1002
}
  0
DIMENSION
  5
868
100
AcDbEntity
  8
寸法
  6
CONTINUOUS
 62
     3
100
AcDbDimension
  2
*D27
 10
2750.0
 20
2633.5
 30
0.0
 11
2714.75
 21
2193.5
 31
0.0
 70
   160
  3
STANDARD
100
AcDbAlignedDimension
 13
2482.5
 23
1753.5
 33
0.0
 14
2482.5
 24
2633.5
 34
0.0
 50
90.0
100
AcDbRotatedDimension
1001
ACAD
1000
DSTYLE
1002
{
1070
     6
1000
_EX_NORM
1070
     7
1000
_EX_NORM
1070
    41
1040
45.0
1070
    42
1040
10.5
1070
    44
1040
15.0
1070
    73
1070
     0
1070
    74
1070
     0
1070
    75
1070
     0
1070
    76
1070
     0
1070
    77
1070
     1
1070
    78
1070
     0
1070
   140
1040
60.0
1070
   147
1040
5.25
1070
   173
1070
     1
1070
   176
1070
     3
1070
   177
1070
     3
1070
   178
1070
     2
1070
   271
1070
     0
1070
   279
1070
     2
1070
   280
1070
     0
1070
   287
1070
     5
1070
   340
1005
7D0
1002
}
  0
DIMENSION
  5
873
100
AcDbEntity
  8
寸法
  6
CONTINUOUS
 62
     3
100
AcDbDimension
  2
*D28
 10
2450.0
 20
2778.5
 30
0.0
 11
2374.37059
 21
2813.75
 31
0.0
 70
   160
  3
STANDARD
100
AcDbAlignedDimension
 13
2298.74118
 23
2660.202357
 33
0.0
 14
2450.0
 24
2688.5
 34
0.0
100
AcDbRotatedDimension
1001
ACAD
1000
DSTYLE
1002
{
1070
     6
1000
_EX_NORM
1070
     7
1000
_EX_NORM
1070
    41
1040
45.0
1070
    42
1040
10.5
1070
    44
1040
15.0
1070
    73
1070
     0
1070
    74
1070
     0
1070
    75
1070
     0
1070
    76
1070
     1
1070
    77
1070
     1
1070
    78
1070
     0
1070
   140
1040
60.0
1070
   147
1040
5.25
1070
   173
1070
     1
1070
   176
1070
     3
1070
   177
1070
     3
1070
   178
1070
     2
1070
   271
1070
     0
1070
   279
1070
     2
1070
   280
1070
     0
1070
   287
1070
     5
1070
   340
1005
7D0
1002
}
  0
DIMENSION
  5
87E
100
AcDbEntity
  8
寸法
  6
CONTINUOUS
 62
     3
100
AcDbDimension
  2
*D29
 10
2450.0
 20
1843.0
 30
0.0
 11
2272.5
 21
1878.25
 31
0.0
 70
   160
  3
STANDARD
100
AcDbAlignedDimension
 13
2370.0
 23
1670.540767
 33
0.0
 14
2450.0
 24
1688.5
 34
0.0
100
AcDbRotatedDimension
1001
ACAD
1000
DSTYLE
1002
{
1070
     6
1000
_EX_NORM
1070
     7
1000
_EX_NORM
1070
    41
1040
45.0
1070
    42
1040
10.5
1070
    44
1040
15.0
1070
    73
1070
     0
1070
    74
1070
     0
1070
    75
1070
     0
1070
    76
1070
     1
1070
    77
1070
     1
1070
    78
1070
     0
1070
   140
1040
60.0
1070
   147
1040
5.25
1070
   173
1070
     1
1070
   176
1070
     3
1070
   177
1070
     3
1070
   178
1070
     2
1070
   271
1070
     0
1070
   279
1070
     2
1070
   280
1070
     1
1070
   287
1070
     5
1070
   340
1005
7D0
1002
}
  0
TEXT
  5
87F
100
AcDbEntity
  8
寸法
  6
CONTINUOUS
 62
     2
100
AcDbText
 10
1247.5
 20
4007.25
 30
0.0
 40
60.0
  1
コード長さ；１ｍ
 41
0.693
  7
EXCADSTD
 72
     5
 11
1643.499999
 21
4007.25
 31
0.0
100
AcDbText
  0
LEADER
  5
880
100
AcDbEntity
  8
寸法
  6
CONTINUOUS
 62
     3
100
AcDbLeader
  3
STANDARD
 73
     3
 74
     1
 75
     0
 40
0.0
 76
     3
 10
1192.372957
 20
3907.500118
 30
0.0
 10
1240.0
 20
4002.0
 30
0.0
 10
1638.0
 20
4002.0
 30
0.0
 77
     3
1001
ACAD
1000
DSTYLE
1002
{
1070
    41
1040
45.0
1070
     5
1000
_EX_NORM
1070
     6
1000
_EX_NORM
1070
     7
1000
_EX_NORM
1070
   341
1005
2A
1002
}
  0
DIMENSION
  5
88C
100
AcDbEntity
  8
寸法
  6
CONTINUOUS
 62
     3
100
AcDbDimension
  2
*D30
 10
1410.0
 20
2688.5
 30
0.0
 11
1374.75
 21
2188.5
 31
0.0
 70
   160
  3
STANDARD
100
AcDbAlignedDimension
 13
1159.5
 23
1688.5
 33
0.0
 14
1165.0
 24
2688.5
 34
0.0
 50
90.0
100
AcDbRotatedDimension
1001
ACAD
1000
DSTYLE
1002
{
1070
     6
1000
_EX_NORM
1070
     7
1000
_EX_NORM
1070
    41
1040
45.0
1070
    42
1040
10.5
1070
    44
1040
15.0
1070
    73
1070
     0
1070
    74
1070
     0
1070
    75
1070
     0
1070
    76
1070
     0
1070
    77
1070
     1
1070
    78
1070
     0
1070
   140
1040
60.0
1070
   147
1040
5.25
1070
   173
1070
     1
1070
   176
1070
     3
1070
   177
1070
     3
1070
   178
1070
     2
1070
   271
1070
     0
1070
   279
1070
     2
1070
   280
1070
     0
1070
   287
1070
     5
1070
   340
1005
7D0
1002
}
  0
DIMENSION
  5
897
100
AcDbEntity
  8
寸法
  6
CONTINUOUS
 62
     3
100
AcDbDimension
  2
*D31
 10
2583.0
 20
1343.5
 30
0.0
 11
2547.75
 21
1116.0
 31
0.0
 70
   160
  1
455（壁給水）
  3
STANDARD
100
AcDbAlignedDimension
 13
2450.0
 23
888.5
 33
0.0
 14
2458.0
 24
1343.5
 34
0.0
 50
90.0
100
AcDbRotatedDimension
1001
ACAD
1000
DSTYLE
1002
{
1070
     6
1000
_EX_NORM
1070
     7
1000
_EX_NORM
1070
    41
1040
45.0
1070
    42
1040
10.5
1070
    44
1040
15.0
1070
    73
1070
     0
1070
    74
1070
     0
1070
    75
1070
     1
1070
    76
1070
     0
1070
    77
1070
     1
1070
    78
1070
     0
1070
   140
1040
60.0
1070
   147
1040
5.25
1070
   173
1070
     1
1070
   176
1070
     3
1070
   177
1070
     3
1070
   178
1070
     2
1070
   271
1070
     0
1070
   279
1070
     2
1070
   280
1070
     0
1070
   287
1070
     5
1070
   340
1005
7D0
1002
}
  0
LINE
  5
898
100
AcDbEntity
  8
寸法
  6
CONTINUOUS
 62
     3
100
AcDbLine
 10
2457.5
 20
888.5
 30
0.0
 11
2620.95
 21
888.5
 31
0.0
  0
DIMENSION
  5
8A4
100
AcDbEntity
  8
寸法
  6
CONTINUOUS
 62
     3
100
AcDbDimension
  2
*D32
 10
971.0
 20
1843.0
 30
0.0
 11
945.5
 21
1878.25
 31
0.0
 70
   160
  3
STANDARD
100
AcDbAlignedDimension
 13
920.0
 23
1688.5
 33
0.0
 14
971.0
 24
1688.5
 34
0.0
100
AcDbRotatedDimension
1001
ACAD
1000
DSTYLE
1002
{
1070
     6
1000
_EX_NORM
1070
     7
1000
_EX_NORM
1070
    41
1040
45.0
1070
    42
1040
10.5
1070
    44
1040
15.0
1070
    73
1070
     0
1070
    74
1070
     0
1070
    75
1070
     0
1070
    76
1070
     0
1070
    77
1070
     1
1070
    78
1070
     0
1070
   140
1040
60.0
1070
   147
1040
5.25
1070
   173
1070
     1
1070
   176
1070
     3
1070
   177
1070
     3
1070
   178
1070
     2
1070
   271
1070
     0
1070
   279
1070
     2
1070
   280
1070
     0
1070
   287
1070
     5
1070
   340
1005
7D0
1002
}
  0
DIMENSION
  5
8B0
100
AcDbEntity
  8
寸法
  6
CONTINUOUS
 62
     3
100
AcDbDimension
  2
*D33
 10
995.0
 20
721.5
 30
0.0
 11
1087.5
 21
756.75
 31
0.0
 70
   160
  3
STANDARD
100
AcDbAlignedDimension
 13
920.0
 23
794.5
 33
0.0
 14
995.0
 24
880.499969
 34
0.0
100
AcDbRotatedDimension
1001
ACAD
1000
DSTYLE
1002
{
1070
     6
1000
_EX_NORM
1070
     7
1000
_EX_NORM
1070
    41
1040
45.0
1070
    42
1040
10.5
1070
    44
1040
15.0
1070
    73
1070
     0
1070
    74
1070
     0
1070
    75
1070
     0
1070
    76
1070
     0
1070
    77
1070
     1
1070
    78
1070
     0
1070
   140
1040
60.0
1070
   147
1040
5.25
1070
   173
1070
     1
1070
   176
1070
     3
1070
   177
1070
     3
1070
   178
1070
     2
1070
   271
1070
     0
1070
   279
1070
     2
1070
   280
1070
     0
1070
   287
1070
     5
1070
   340
1005
7D0
1002
}
  0
TEXT
  5
8B1
100
AcDbEntity
  8
寸法
  6
CONTINUOUS
 62
     2
100
AcDbText
 10
2539.5
 20
1463.25
 30
0.0
 40
60.0
  1
Ｒ１/２
 41
0.638
  7
EXCADSTD
 72
     5
 11
2713.499999
 21
1463.25
 31
0.0
100
AcDbText
  0
LEADER
  5
8B2
100
AcDbEntity
  8
寸法
  6
CONTINUOUS
 62
     3
100
AcDbLeader
  3
STANDARD
 73
     3
 74
     1
 75
     0
 40
0.0
 76
     3
 10
2458.0
 20
1354.0
 30
0.0
 10
2532.0
 20
1458.0
 30
0.0
 10
2704.0
 20
1458.0
 30
0.0
 77
     3
1001
ACAD
1000
DSTYLE
1002
{
1070
    41
1040
45.0
1070
     5
1000
_EX_NORM
1070
     6
1000
_EX_NORM
1070
     7
1000
_EX_NORM
1070
   341
1005
2A
1002
}
  0
TEXT
  5
8B3
100
AcDbEntity
  8
寸法
  6
CONTINUOUS
 62
     2
100
AcDbText
 10
1621.500002
 20
740.25
 30
0.0
 40
60.0
  1
ＶＰ･ＶＵ４０･５０
 41
0.62784
  7
EXCADSTD
 72
     5
 11
2053.5
 21
740.25
 31
0.0
100
AcDbText
  0
LEADER
  5
8B4
100
AcDbEntity
  8
寸法
  6
CONTINUOUS
 62
     3
100
AcDbLeader
  3
STANDARD
 73
     3
 74
     1
 75
     0
 40
0.0
 76
     3
 10
2297.0
 20
898.5
 30
0.0
 10
2061.0
 20
735.0
 30
0.0
 10
1618.0
 20
735.0
 30
0.0
 77
     3
1001
ACAD
1000
DSTYLE
1002
{
1070
    41
1040
45.0
1070
     5
1000
_EX_NORM
1070
     6
1000
_EX_NORM
1070
     7
1000
_EX_NORM
1070
   341
1005
2A
1002
}
  0
TEXT
  5
8B5
100
AcDbEntity
  8
寸法
  6
CONTINUOUS
 62
     2
100
AcDbText
 10
1878.500001
 20
641.25
 30
0.0
 40
60.0
  1
外径３５
 41
0.714
  7
EXCADSTD
 72
     5
 11
2082.5
 21
641.25
 31
0.0
100
AcDbText
  0
LEADER
  5
8B6
100
AcDbEntity
  8
寸法
  6
CONTINUOUS
 62
     3
100
AcDbLeader
  3
STANDARD
 73
     3
 74
     1
 75
     0
 40
0.0
 76
     3
 10
2314.15
 20
878.0
 30
0.0
 10
2090.0
 20
636.0
 30
0.0
 10
1871.0
 20
636.0
 30
0.0
 77
     3
1001
ACAD
1000
DSTYLE
1002
{
1070
    41
1040
45.0
1070
     5
1000
_EX_NORM
1070
     6
1000
_EX_NORM
1070
     7
1000
_EX_NORM
1070
   341
1005
2A
1002
}
  0
DIMENSION
  5
8C2
100
AcDbEntity
  8
寸法
  6
CONTINUOUS
 62
     2
100
AcDbDimension
  2
*D34
 10
2450.0
 20
670.5
 30
0.0
 11
2573.0
 21
708.0
 31
0.0
 70
   160
  3
STANDARD
100
AcDbAlignedDimension
 13
2330.0
 23
784.0
 33
0.0
 14
2450.0
 24
888.5
 34
0.0
100
AcDbRotatedDimension
1001
ACAD
1000
DSTYLE
1002
{
1070
     6
1000
_EX_NORM
1070
     7
1000
_EX_NORM
1070
    41
1040
45.0
1070
    42
1040
10.5
1070
    44
1040
15.0
1070
    73
1070
     0
1070
    74
1070
     0
1070
    75
1070
     0
1070
    76
1070
     0
1070
    77
1070
     1
1070
    78
1070
     8
1070
   140
1040
60.0
1070
   147
1040
7.5
1070
   173
1070
     1
1070
   176
1070
     3
1070
   177
1070
     3
1070
   178
1070
     2
1070
   271
1070
     1
1070
   279
1070
     2
1070
   280
1070
     2
1070
   287
1070
     5
1070
   340
1005
7D0
1002
}
  0
ENDSEC
  0
SECTION
  2
OBJECTS
  0
DICTIONARY
  5
19
100
AcDbDictionary
  3
ACAD_GROUP
350
1A
  3
ACAD_MLINESTYLE
350
1B
  0
DICTIONARY
  5
1A
102
{ACAD_REACTORS
330
19
102
}
100
AcDbDictionary
  0
DICTIONARY
  5
1B
102
{ACAD_REACTORS
330
19
102
}
100
AcDbDictionary
  3
STANDARD
350
1C
  0
MLINESTYLE
  5
1C
102
{ACAD_REACTORS
330
1B
102
}
100
AcDbMlineStyle
  2
Standard
 70
     0
  3

 62
     0
 51
90.0
 52
90.0
 71
     2
 49
0.5
 62
   256
  6
ByLayer
 49
-0.5
 62
   256
  6
ByLayer
  0
ENDSEC
  0
EOF
