  0
SECTION
  2
HEADER
  9
$ACADVER
  1
AC1014
  9
$ACADMAINTVER
 70
     0
  9
$DWGCODEPAGE
  3
ANSI_932
  9
$INSBASE
 10
0.0
 20
0.0
 30
0.0
  9
$EXTMIN
 10
0.7
 20
12.5
 30
0.0
  9
$EXTMAX
 10
200.0
 20
287.5
 30
0.0
  9
$LIMMIN
 10
0.0
 20
0.0
  9
$LIMMAX
 10
210.0
 20
297.0
  9
$ORTHOMODE
 70
     0
  9
$REGENMODE
 70
     1
  9
$FILLMODE
 70
     1
  9
$QTEXTMODE
 70
     0
  9
$MIRRTEXT
 70
     1
  9
$DRAGMODE
 70
     2
  9
$LTSCALE
 40
1.0
  9
$OSMODE
 70
     0
  9
$ATTMODE
 70
     1
  9
$TEXTSIZE
 40
0.2
  9
$TRACEWID
 40
0.05
  9
$TEXTSTYLE
  7
STANDARD
  9
$CLAYER
  8
化粧台
  9
$CELTYPE
  6
CONTINUOUS
  9
$CECOLOR
 62
   256
  9
$CELTSCALE
 40
1.0
  9
$DELOBJ
 70
     1
  9
$DISPSILH
 70
     0
  9
$DIMSCALE
 40
1.0
  9
$DIMASZ
 40
0.18
  9
$DIMEXO
 40
0.0625
  9
$DIMDLI
 40
0.38
  9
$DIMRND
 40
0.0
  9
$DIMDLE
 40
0.0
  9
$DIMEXE
 40
0.18
  9
$DIMTP
 40
0.0
  9
$DIMTM
 40
0.0
  9
$DIMTXT
 40
0.18
  9
$DIMCEN
 40
0.09
  9
$DIMTSZ
 40
0.0
  9
$DIMTOL
 70
     0
  9
$DIMLIM
 70
     0
  9
$DIMTIH
 70
     1
  9
$DIMTOH
 70
     1
  9
$DIMSE1
 70
     0
  9
$DIMSE2
 70
     0
  9
$DIMTAD
 70
     0
  9
$DIMZIN
 70
     0
  9
$DIMBLK
  1

  9
$DIMASO
 70
     1
  9
$DIMSHO
 70
     1
  9
$DIMPOST
  1

  9
$DIMAPOST
  1

  9
$DIMALT
 70
     0
  9
$DIMALTD
 70
     2
  9
$DIMALTF
 40
25.4
  9
$DIMLFAC
 40
1.0
  9
$DIMTOFL
 70
     0
  9
$DIMTVP
 40
0.0
  9
$DIMTIX
 70
     0
  9
$DIMSOXD
 70
     0
  9
$DIMSAH
 70
     0
  9
$DIMBLK1
  1

  9
$DIMBLK2
  1

  9
$DIMSTYLE
  2
STANDARD
  9
$DIMCLRD
 70
     0
  9
$DIMCLRE
 70
     0
  9
$DIMCLRT
 70
     0
  9
$DIMTFAC
 40
1.0
  9
$DIMGAP
 40
0.09
  9
$DIMJUST
 70
     0
  9
$DIMSD1
 70
     0
  9
$DIMSD2
 70
     0
  9
$DIMTOLJ
 70
     1
  9
$DIMTZIN
 70
     0
  9
$DIMALTZ
 70
     0
  9
$DIMALTTZ
 70
     0
  9
$DIMFIT
 70
     3
  9
$DIMUPT
 70
     0
  9
$DIMUNIT
 70
     2
  9
$DIMDEC
 70
     4
  9
$DIMTDEC
 70
     4
  9
$DIMALTU
 70
     2
  9
$DIMALTTD
 70
     2
  9
$DIMTXSTY
  7
STANDARD
  9
$DIMAUNIT
 70
     0
  9
$LUNITS
 70
     2
  9
$LUPREC
 70
     4
  9
$SKETCHINC
 40
0.1
  9
$FILLETRAD
 40
0.0
  9
$AUNITS
 70
     0
  9
$AUPREC
 70
     0
  9
$MENU
  1
acad
  9
$ELEVATION
 40
0.0
  9
$PELEVATION
 40
0.0
  9
$THICKNESS
 40
0.0
  9
$LIMCHECK
 70
     0
  9
$BLIPMODE
 70
     1
  9
$CHAMFERA
 40
0.0
  9
$CHAMFERB
 40
0.0
  9
$CHAMFERC
 40
0.0
  9
$CHAMFERD
 40
0.0
  9
$SKPOLY
 70
     0
  9
$TDCREATE
 40
2455188.951181991
  9
$TDUPDATE
 40
2455188.951181991
  9
$TDINDWG
 40
0.0000000000
  9
$TDUSRTIMER
 40
0.0000000000
  9
$USRTIMER
 70
     1
  9
$ANGBASE
 50
0.0
  9
$ANGDIR
 70
     0
  9
$PDMODE
 70
     0
  9
$PDSIZE
 40
0.0
  9
$PLINEWID
 40
0.0
  9
$COORDS
 70
     1
  9
$SPLFRAME
 70
     0
  9
$SPLINETYPE
 70
     6
  9
$SPLINESEGS
 70
     8
  9
$ATTDIA
 70
     0
  9
$ATTREQ
 70
     1
  9
$HANDLING
 70
     1
  9
$HANDSEED
  5
552
  9
$SURFTAB1
 70
     6
  9
$SURFTAB2
 70
     6
  9
$SURFTYPE
 70
     6
  9
$SURFU
 70
     6
  9
$SURFV
 70
     6
  9
$UCSNAME
  2

  9
$UCSORG
 10
0.0
 20
0.0
 30
0.0
  9
$UCSXDIR
 10
1.0
 20
0.0
 30
0.0
  9
$UCSYDIR
 10
0.0
 20
1.0
 30
0.0
  9
$PUCSNAME
  2

  9
$PUCSORG
 10
0.0
 20
0.0
 30
0.0
  9
$PUCSXDIR
 10
1.0
 20
0.0
 30
0.0
  9
$PUCSYDIR
 10
0.0
 20
1.0
 30
0.0
  9
$USERI1
 70
     0
  9
$USERI2
 70
     0
  9
$USERI3
 70
     0
  9
$USERI4
 70
     0
  9
$USERI5
 70
     0
  9
$USERR1
 40
0.0
  9
$USERR2
 40
0.0
  9
$USERR3
 40
0.0
  9
$USERR4
 40
0.0
  9
$USERR5
 40
0.0
  9
$WORLDVIEW
 70
     1
  9
$SHADEDGE
 70
     3
  9
$SHADEDIF
 70
    70
  9
$TILEMODE
 70
     1
  9
$MAXACTVP
 70
    16
  9
$PINSBASE
 10
0.0
 20
0.0
 30
0.0
  9
$PLIMCHECK
 70
     0
  9
$PEXTMIN
 10
1.000000E+20
 20
1.000000E+20
 30
1.000000E+20
  9
$PEXTMAX
 10
-1.000000E+20
 20
-1.000000E+20
 30
-1.000000E+20
  9
$PLIMMIN
 10
0.0
 20
0.0
  9
$PLIMMAX
 10
12.0
 20
9.0
  9
$UNITMODE
 70
     0
  9
$VISRETAIN
 70
     0
  9
$PLINEGEN
 70
     1
  9
$PSLTSCALE
 70
     0
  9
$TREEDEPTH
 70
  3020
  9
$PICKSTYLE
 70
     1
  9
$CMLSTYLE
  2
Standard
  9
$CMLJUST
 70
     0
  9
$CMLSCALE
 40
1.0
  9
$PROXYGRAPHICS
 70
     0
  9
$MEASUREMENT
 70
     0
  0
ENDSEC
  0
SECTION
  2
CLASSES
  0
CLASS
  1
LWPOLYLINE
  2
AcDbPolyline
  3
"AutoCAD"
 90
        0
280
     0
281
     1
  0
CLASS
  1
IMAGE
  2
AcDbRasterImage
  3
ISM
 90
      127
280
     0
281
     1
  0
CLASS
  1
OLE2FRAME
  2
AcDbOle2Frame
  3
""
 90
        0
280
     0
281
     1
  0
CLASS
  1
HATCH
  2
AcDbHatch
  3
"ACAD_SEDONA"
 90
        0
280
     0
281
     1
  0
CLASS
  1
DICTIONARYVAR
  2
AcDbDictionaryVar
  3
"AutoCAD"
 90
        0
280
     0
281
     0
  0
CLASS
  1
RASTERVARIABLES
  2
AcDbRasterVariables
  3
ISM
 90
        0
280
     0
281
     0
  0
CLASS
  1
IMAGEDEF
  2
AcDbRasterImageDef
  3
ISM
 90
        0
280
     0
281
     0
  0
CLASS
  1
IMAGEDEF_REACTOR
  2
AcDbRasterImageDefReactor
  3
ISM
 90
        1
280
     0
281
     0
  0
CLASS
  1
IDBUFFER
  2
AcDbIdBuffer
  3
"Acad"
 90
        0
280
     0
281
     0
  0
CLASS
  1
SPATIAL_FILTER
  2
AcDbSpatialFilter
  3
"Acad"
 90
        0
280
     0
281
     0
  0
CLASS
  1
XRECORD
  2
AcDbXrecord
  3
"<Built In>"
 90
        0
280
     0
281
     0
  0
CLASS
  1
SORTENTSTABLE
  2
AcDbSortentsTable
  3
"AutoCAD"
 90
        0
280
     0
281
     0
  0
CLASS
  1
LAYER_INDEX
  2
AcDbLayerIndex
  3
"Acad"
 90
        0
280
     0
281
     0
  0
CLASS
  1
SPATIAL_INDEX
  2
AcDbSpatialIndex
  3
"Acad"
 90
        0
280
     0
281
     0
  0
CLASS
  1
OBJECT_PTR
  2
CAseDLPNTableRecord
  3
"ASE-LPNTableRecord"
 90
        1
280
     0
281
     0
  0
CLASS
  1
LAYOUT
  2
AcDbLayout
  3
"AutoCAD 2000"
 90
        1
280
     0
281
     0
  0
CLASS
  1
PLOTSETTINGS
  2
AcDbPlotSettings
  3
"AutoCAD 2000"
 90
        1
280
     0
281
     0
  0
CLASS
  1
ACDBDICTIONARYWDFLT
  2
AcDbDictionaryWithDefault
  3
"AutoCAD 2000"
 90
        1
280
     0
281
     0
  0
CLASS
  1
ACDBPLACEHOLDER
  2
AcDbPlaceHolder
  3
"AutoCAD 2000"
 90
        1
280
     0
281
     0
  0
CLASS
  1
VBA_PROJECT
  2
AcDbVbaProject
  3
"acadvba"
 90
        1
280
     0
281
     0
  0
CLASS
  1
WIPEOUT
  2
AcDbWipeout
  3
WipeOut|AutoCAD Express Tool|expresstools@autodesk.com
 90
      127
280
     0
281
     1
  0
CLASS
  1
WIPEOUTVARIABLES
  2
AcDbWipeoutVariables
  3
WipeOut|AutoCAD Express Tool|expresstools@autodesk.com
 90
        0
280
     0
281
     0
  0
CLASS
  1
RTEXT
  2
RText
  3
RText|AutoCAD Express Tool|expresstools@autodesk.com
 90
        0
280
     0
281
     1
  0
CLASS
  1
ARCALIGNEDTEXT
  2
AcDbArcAlignedText
  3
ATEXT|AutoCAD Express Tool|expresstools@autodesk.com
 90
        0
280
     0
281
     1
  0
ENDSEC
  0
SECTION
  2
TABLES
  0
TABLE
  2
VPORT
  5
7
100
AcDbSymbolTable
 70
     1
  0
VPORT
  5
15
100
AcDbSymbolTableRecord
100
AcDbViewportTableRecord
  2
*ACTIVE
 70
     0
 10
0.0
 20
0.0
 11
1.0
 21
1.0
 12
1505.25
 22
2250.0
 13
0.0
 23
0.0
 14
1.0
 24
1.0
 15
0.0
 25
0.0
 16
0.0
 26
0.0
 36
1.0
 17
0.0
 27
0.0
 37
0.0
 40
4125.0
 41
1.722533
 42
50.0
 43
0.0
 44
0.0
 50
0.0
 51
0.0
 71
     0
 72
   100
 73
     1
 74
     1
 75
     0
 76
     0
 77
     0
 78
     0
  0
ENDTAB
  0
TABLE
  2
LTYPE
  5
4
100
AcDbSymbolTable
 70
     9
  0
LTYPE
  5
11
100
AcDbSymbolTableRecord
100
AcDbLinetypeTableRecord
  2
BYBLOCK
 70
    64
  3

 72
    65
 73
     0
 40
0.0
  0
LTYPE
  5
12
100
AcDbSymbolTableRecord
100
AcDbLinetypeTableRecord
  2
BYLAYER
 70
    64
  3

 72
    65
 73
     0
 40
0.0
  0
LTYPE
  5
13
100
AcDbSymbolTableRecord
100
AcDbLinetypeTableRecord
  2
CONTINUOUS
 70
    64
  3
実線
 72
    65
 73
     0
 40
0.0
  0
LTYPE
  5
1D
100
AcDbSymbolTableRecord
100
AcDbLinetypeTableRecord
  2
EXLTYPE1
 70
    64
  3
破線
 72
    65
 73
     2
 40
3.0
 49
2.0
 74
     0
 49
-1.0
 74
     0
  0
LTYPE
  5
1E
100
AcDbSymbolTableRecord
100
AcDbLinetypeTableRecord
  2
EXLTYPE2
 70
    64
  3
点線
 72
    65
 73
     2
 40
2.0
 49
1.0
 74
     0
 49
-1.0
 74
     0
  0
LTYPE
  5
1F
100
AcDbSymbolTableRecord
100
AcDbLinetypeTableRecord
  2
EXLTYPE3
 70
    64
  3
一点鎖線
 72
    65
 73
     4
 40
10.0
 49
7.0
 74
     0
 49
-1.0
 74
     0
 49
1.0
 74
     0
 49
-1.0
 74
     0
  0
LTYPE
  5
20
100
AcDbSymbolTableRecord
100
AcDbLinetypeTableRecord
  2
EXLTYPE4
 70
    64
  3
二点鎖線
 72
    65
 73
     6
 40
12.0
 49
7.0
 74
     0
 49
-1.0
 74
     0
 49
1.0
 74
     0
 49
-1.0
 74
     0
 49
1.0
 74
     0
 49
-1.0
 74
     0
  0
LTYPE
  5
21
100
AcDbSymbolTableRecord
100
AcDbLinetypeTableRecord
  2
EXLTYPE5
 70
    64
  3
三点鎖線
 72
    65
 73
     8
 40
37.0
 49
30.0
 74
     0
 49
-1.0
 74
     0
 49
1.0
 74
     0
 49
-1.0
 74
     0
 49
1.0
 74
     0
 49
-1.0
 74
     0
 49
1.0
 74
     0
 49
-1.0
 74
     0
  0
LTYPE
  5
22
100
AcDbSymbolTableRecord
100
AcDbLinetypeTableRecord
  2
EXLTYPE6
 70
    64
  3
四点鎖線
 72
    65
 73
    10
 40
39.0
 49
30.0
 74
     0
 49
-1.0
 74
     0
 49
1.0
 74
     0
 49
-1.0
 74
     0
 49
1.0
 74
     0
 49
-1.0
 74
     0
 49
1.0
 74
     0
 49
-1.0
 74
     0
 49
1.0
 74
     0
 49
-1.0
 74
     0
  0
ENDTAB
  0
TABLE
  2
LAYER
  5
2
100
AcDbSymbolTable
 70
     6
  0
LAYER
  5
14
100
AcDbSymbolTableRecord
100
AcDbLayerTableRecord
  2
0
 70
     0
 62
     7
  6
CONTINUOUS
  0
LAYER
  5
25
100
AcDbSymbolTableRecord
100
AcDbLayerTableRecord
  2
枠・表
 70
    64
 62
     7
  6
CONTINUOUS
  0
LAYER
  5
26
100
AcDbSymbolTableRecord
100
AcDbLayerTableRecord
  2
化粧台
 70
    64
 62
     7
  6
CONTINUOUS
  0
LAYER
  5
27
100
AcDbSymbolTableRecord
100
AcDbLayerTableRecord
  2
鏡台
 70
    64
 62
     7
  6
CONTINUOUS
  0
LAYER
  5
28
100
AcDbSymbolTableRecord
100
AcDbLayerTableRecord
  2
付属金具
 70
    64
 62
     7
  6
CONTINUOUS
  0
LAYER
  5
29
100
AcDbSymbolTableRecord
100
AcDbLayerTableRecord
  2
寸法
 70
    64
 62
     7
  6
CONTINUOUS
  0
ENDTAB
  0
TABLE
  2
STYLE
  5
3
100
AcDbSymbolTable
 70
     5
  0
STYLE
  5
17
100
AcDbSymbolTableRecord
100
AcDbTextStyleTableRecord
  2
STANDARD
 70
     0
 40
0.0
 41
1.0
 50
0.0
 71
     0
 42
0.0
  3
monotxt
  4
extfont
  0
STYLE
  5
23
100
AcDbSymbolTableRecord
100
AcDbTextStyleTableRecord
  2
EXCADSTD
 70
    64
 40
0.0
 41
1.0
 50
0.0
 71
     0
 42
0.2
  3
monotxt
  4
extfont
  0
STYLE
  5
24
100
AcDbSymbolTableRecord
100
AcDbTextStyleTableRecord
  2
EXCADVERT
 70
    68
 40
0.0
 41
1.0
 50
0.0
 71
     0
 42
0.286885
  3
monotxt
  4
extfont
  0
STYLE
  5
AF
100
AcDbSymbolTableRecord
100
AcDbTextStyleTableRecord
  2
EXCADTTF1
 70
    64
 40
0.0
 41
1.0
 50
0.0
 71
     0
 42
0.2
  3
MS Gothic.ttf
  4

1001
ACAD
1000
MS Gothic
1071
    32817
  0
STYLE
  5
49B
100
AcDbSymbolTableRecord
100
AcDbTextStyleTableRecord
  2
EXCADDIM1
 70
    64
 40
0.0
 41
0.84
 50
0.0
 71
     0
 42
0.2
  3
monotxt
  4
extfont
  0
ENDTAB
  0
TABLE
  2
VIEW
  5
5
100
AcDbSymbolTable
 70
     0
  0
ENDTAB
  0
TABLE
  2
UCS
  5
6
100
AcDbSymbolTable
 70
     0
  0
ENDTAB
  0
TABLE
  2
APPID
  5
8
100
AcDbSymbolTable
 70
     1
  0
APPID
  5
16
100
AcDbSymbolTableRecord
100
AcDbRegAppTableRecord
  2
ACAD
 70
     0
  0
ENDTAB
  0
TABLE
  2
DIMSTYLE
  5
9
100
AcDbSymbolTable
 70
     1
  0
DIMSTYLE
105
18
100
AcDbSymbolTableRecord
100
AcDbDimStyleTableRecord
  2
STANDARD
 70
     0
  3

  4

  5

  6

  7

 40
1.0
 41
0.18
 42
0.0625
 43
0.38
 44
0.18
 45
0.0
 46
0.0
 47
0.0
 48
0.0
 71
     0
 72
     0
 73
     1
 74
     1
 75
     0
 76
     0
 77
     0
 78
     0
140
0.18
141
0.09
142
0.0
143
25.4
144
1.0
145
0.0
146
1.0
147
0.09
170
     0
171
     2
172
     1
173
     0
174
     0
175
     0
176
     0
177
     0
178
     0
270
     2
271
     4
272
     4
273
     2
274
     2
275
     0
280
     0
281
     0
282
     0
283
     1
284
     0
285
     0
286
     0
287
     0
288
     0
340
17
  0
ENDTAB
  0
TABLE
  2
BLOCK_RECORD
  5
1
100
AcDbSymbolTable
 70
    28
  0
BLOCK_RECORD
  5
A
100
AcDbSymbolTableRecord
100
AcDbBlockTableRecord
  2
*MODEL_SPACE
  0
BLOCK_RECORD
  5
B
100
AcDbSymbolTableRecord
100
AcDbBlockTableRecord
  2
*PAPER_SPACE
  0
BLOCK_RECORD
  5
2A
100
AcDbSymbolTableRecord
100
AcDbBlockTableRecord
  2
_EX_NORM
  0
BLOCK_RECORD
  5
2B
100
AcDbSymbolTableRecord
100
AcDbBlockTableRecord
  2
_EX_BNORM
  0
BLOCK_RECORD
  5
2C
100
AcDbSymbolTableRecord
100
AcDbBlockTableRecord
  2
_EX_BCIR
  0
BLOCK_RECORD
  5
2D
100
AcDbSymbolTableRecord
100
AcDbBlockTableRecord
  2
_EX_RCIVIL
  0
BLOCK_RECORD
  5
2E
100
AcDbSymbolTableRecord
100
AcDbBlockTableRecord
  2
_EX_SLANT
  0
BLOCK_RECORD
  5
2F
100
AcDbSymbolTableRecord
100
AcDbBlockTableRecord
  2
_EX_NONE
  0
BLOCK_RECORD
  5
30
100
AcDbSymbolTableRecord
100
AcDbBlockTableRecord
  2
_EX_CIVIL
  0
BLOCK_RECORD
  5
31
100
AcDbSymbolTableRecord
100
AcDbBlockTableRecord
  2
_EX_WCIR
  0
BLOCK_RECORD
  5
32
100
AcDbSymbolTableRecord
100
AcDbBlockTableRecord
  2
_EX_WCIR2
  0
BLOCK_RECORD
  5
33
100
AcDbSymbolTableRecord
100
AcDbBlockTableRecord
  2
_EX_WNORM
  0
BLOCK_RECORD
  5
34
100
AcDbSymbolTableRecord
100
AcDbBlockTableRecord
  2
_EX_NNORM
  0
BLOCK_RECORD
  5
35
100
AcDbSymbolTableRecord
100
AcDbBlockTableRecord
  2
_EX_BBOX
  0
BLOCK_RECORD
  5
36
100
AcDbSymbolTableRecord
100
AcDbBlockTableRecord
  2
_EX_WBOX
  0
BLOCK_RECORD
  5
37
100
AcDbSymbolTableRecord
100
AcDbBlockTableRecord
  2
_EX_INTEGRAL
  0
BLOCK_RECORD
  5
490
100
AcDbSymbolTableRecord
100
AcDbBlockTableRecord
  2
*D14
  0
BLOCK_RECORD
  5
49D
100
AcDbSymbolTableRecord
100
AcDbBlockTableRecord
  2
*D15
  0
BLOCK_RECORD
  5
4A9
100
AcDbSymbolTableRecord
100
AcDbBlockTableRecord
  2
*D16
  0
BLOCK_RECORD
  5
4BD
100
AcDbSymbolTableRecord
100
AcDbBlockTableRecord
  2
*D17
  0
BLOCK_RECORD
  5
4C8
100
AcDbSymbolTableRecord
100
AcDbBlockTableRecord
  2
*D18
  0
BLOCK_RECORD
  5
4D3
100
AcDbSymbolTableRecord
100
AcDbBlockTableRecord
  2
*D19
  0
BLOCK_RECORD
  5
4E2
100
AcDbSymbolTableRecord
100
AcDbBlockTableRecord
  2
*D20
  0
BLOCK_RECORD
  5
4ED
100
AcDbSymbolTableRecord
100
AcDbBlockTableRecord
  2
*D21
  0
BLOCK_RECORD
  5
503
100
AcDbSymbolTableRecord
100
AcDbBlockTableRecord
  2
*D22
  0
BLOCK_RECORD
  5
50F
100
AcDbSymbolTableRecord
100
AcDbBlockTableRecord
  2
*D23
  0
BLOCK_RECORD
  5
51B
100
AcDbSymbolTableRecord
100
AcDbBlockTableRecord
  2
*D24
  0
BLOCK_RECORD
  5
52F
100
AcDbSymbolTableRecord
100
AcDbBlockTableRecord
  2
*D25
  0
BLOCK_RECORD
  5
53B
100
AcDbSymbolTableRecord
100
AcDbBlockTableRecord
  2
*D26
  0
BLOCK_RECORD
  5
546
100
AcDbSymbolTableRecord
100
AcDbBlockTableRecord
  2
*D27
  0
ENDTAB
  0
ENDSEC
  0
SECTION
  2
BLOCKS
  0
BLOCK
  5
D
100
AcDbEntity
  8
0
100
AcDbBlockBegin
  2
*MODEL_SPACE
 70
     0
 10
0.0
 20
0.0
 30
0.0
  3
*MODEL_SPACE
  1

  0
ENDBLK
  5
E
100
AcDbEntity
  8
0
100
AcDbBlockEnd
  0
BLOCK
  5
F
100
AcDbEntity
 67
     1
  8
0
100
AcDbBlockBegin
  2
*PAPER_SPACE
 70
     0
 10
0.0
 20
0.0
 30
0.0
  3
*PAPER_SPACE
  1

  0
ENDBLK
  5
10
100
AcDbEntity
 67
     1
  8
0
100
AcDbBlockEnd
  0
BLOCK
  5
38
100
AcDbEntity
  8
0
100
AcDbBlockBegin
  2
_EX_NORM
 70
     0
 10
0.0
 20
0.0
 30
0.0
  3
_EX_NORM
  1

  0
LINE
  5
39
100
AcDbEntity
  8
0
  6
CONTINUOUS
 62
     0
100
AcDbLine
 10
0.0
 20
0.0
 30
0.0
 11
-1.0
 21
0.0
 31
0.0
  0
LINE
  5
3A
100
AcDbEntity
  8
0
  6
CONTINUOUS
 62
     0
100
AcDbLine
 10
0.0
 20
0.0
 30
0.0
 11
-1.0
 21
0.166667
 31
0.0
  0
LINE
  5
3B
100
AcDbEntity
  8
0
  6
CONTINUOUS
 62
     0
100
AcDbLine
 10
0.0
 20
0.0
 30
0.0
 11
-1.0
 21
-0.166667
 31
0.0
  0
ENDBLK
  5
3C
100
AcDbEntity
  8
0
100
AcDbBlockEnd
  0
BLOCK
  5
3D
100
AcDbEntity
  8
0
100
AcDbBlockBegin
  2
_EX_BNORM
 70
     0
 10
0.0
 20
0.0
 30
0.0
  3
_EX_BNORM
  1

  0
LINE
  5
3E
100
AcDbEntity
  8
0
  6
CONTINUOUS
 62
     0
100
AcDbLine
 10
0.0
 20
0.0
 30
0.0
 11
-1.0
 21
0.0
 31
0.0
  0
LINE
  5
3F
100
AcDbEntity
  8
0
  6
CONTINUOUS
 62
     0
100
AcDbLine
 10
0.0
 20
0.0
 30
0.0
 11
-1.0
 21
0.166667
 31
0.0
  0
LINE
  5
40
100
AcDbEntity
  8
0
  6
CONTINUOUS
 62
     0
100
AcDbLine
 10
0.0
 20
0.0
 30
0.0
 11
-1.0
 21
-0.166667
 31
0.0
  0
LINE
  5
41
100
AcDbEntity
  8
0
  6
CONTINUOUS
 62
     0
100
AcDbLine
 10
0.0
 20
0.0
 30
0.0
 11
-1.0
 21
0.083333
 31
0.0
  0
LINE
  5
42
100
AcDbEntity
  8
0
  6
CONTINUOUS
 62
     0
100
AcDbLine
 10
0.0
 20
0.0
 30
0.0
 11
-1.0
 21
-0.083333
 31
0.0
  0
LINE
  5
43
100
AcDbEntity
  8
0
  6
CONTINUOUS
 62
     0
100
AcDbLine
 10
-1.0
 20
0.166667
 30
0.0
 11
-1.0
 21
-0.166667
 31
0.0
  0
ENDBLK
  5
44
100
AcDbEntity
  8
0
100
AcDbBlockEnd
  0
BLOCK
  5
45
100
AcDbEntity
  8
0
100
AcDbBlockBegin
  2
_EX_BCIR
 70
     0
 10
0.0
 20
0.0
 30
0.0
  3
_EX_BCIR
  1

  0
LINE
  5
46
100
AcDbEntity
  8
0
  6
CONTINUOUS
 62
     0
100
AcDbLine
 10
0.0
 20
0.0
 30
0.0
 11
-1.0
 21
0.0
 31
0.0
  0
CIRCLE
  5
47
100
AcDbEntity
  8
0
  6
CONTINUOUS
 62
     0
100
AcDbCircle
 10
0.0
 20
0.0
 30
0.0
 40
0.5
  0
CIRCLE
  5
48
100
AcDbEntity
  8
0
  6
CONTINUOUS
 62
     0
100
AcDbCircle
 10
0.0
 20
0.0
 30
0.0
 40
0.25
  0
ENDBLK
  5
49
100
AcDbEntity
  8
0
100
AcDbBlockEnd
  0
BLOCK
  5
4A
100
AcDbEntity
  8
0
100
AcDbBlockBegin
  2
_EX_RCIVIL
 70
     0
 10
0.0
 20
0.0
 30
0.0
  3
_EX_RCIVIL
  1

  0
LINE
  5
4B
100
AcDbEntity
  8
0
  6
CONTINUOUS
 62
     0
100
AcDbLine
 10
0.0
 20
0.0
 30
0.0
 11
-1.0
 21
0.0
 31
0.0
  0
LINE
  5
4C
100
AcDbEntity
  8
0
  6
CONTINUOUS
 62
     0
100
AcDbLine
 10
-1.0
 20
-0.25
 30
0.0
 11
0.0
 21
-0.25
 31
0.0
  0
LINE
  5
4D
100
AcDbEntity
  8
0
  6
CONTINUOUS
 62
     0
100
AcDbLine
 10
-1.0
 20
-0.125
 30
0.0
 11
0.0
 21
-0.125
 31
0.0
  0
ENDBLK
  5
4E
100
AcDbEntity
  8
0
100
AcDbBlockEnd
  0
BLOCK
  5
4F
100
AcDbEntity
  8
0
100
AcDbBlockBegin
  2
_EX_SLANT
 70
     0
 10
0.0
 20
0.0
 30
0.0
  3
_EX_SLANT
  1

  0
LINE
  5
50
100
AcDbEntity
  8
0
  6
CONTINUOUS
 62
     0
100
AcDbLine
 10
0.0
 20
0.0
 30
0.0
 11
-1.0
 21
0.0
 31
0.0
  0
LINE
  5
51
100
AcDbEntity
  8
0
  6
CONTINUOUS
 62
     0
100
AcDbLine
 10
0.707107
 20
0.707107
 30
0.0
 11
-0.707107
 21
-0.707107
 31
0.0
  0
ENDBLK
  5
52
100
AcDbEntity
  8
0
100
AcDbBlockEnd
  0
BLOCK
  5
53
100
AcDbEntity
  8
0
100
AcDbBlockBegin
  2
_EX_NONE
 70
     0
 10
0.0
 20
0.0
 30
0.0
  3
_EX_NONE
  1

  0
LINE
  5
54
100
AcDbEntity
  8
0
  6
CONTINUOUS
 62
     0
100
AcDbLine
 10
0.0
 20
0.0
 30
0.0
 11
-1.0
 21
0.0
 31
0.0
  0
ENDBLK
  5
55
100
AcDbEntity
  8
0
100
AcDbBlockEnd
  0
BLOCK
  5
56
100
AcDbEntity
  8
0
100
AcDbBlockBegin
  2
_EX_CIVIL
 70
     0
 10
0.0
 20
0.0
 30
0.0
  3
_EX_CIVIL
  1

  0
LINE
  5
57
100
AcDbEntity
  8
0
  6
CONTINUOUS
 62
     0
100
AcDbLine
 10
0.0
 20
0.0
 30
0.0
 11
-1.0
 21
0.0
 31
0.0
  0
LINE
  5
58
100
AcDbEntity
  8
0
  6
CONTINUOUS
 62
     0
100
AcDbLine
 10
-1.0
 20
0.25
 30
0.0
 11
0.0
 21
0.25
 31
0.0
  0
LINE
  5
59
100
AcDbEntity
  8
0
  6
CONTINUOUS
 62
     0
100
AcDbLine
 10
-1.0
 20
0.125
 30
0.0
 11
0.0
 21
0.125
 31
0.0
  0
ENDBLK
  5
5A
100
AcDbEntity
  8
0
100
AcDbBlockEnd
  0
BLOCK
  5
5B
100
AcDbEntity
  8
0
100
AcDbBlockBegin
  2
_EX_WCIR
 70
     0
 10
0.0
 20
0.0
 30
0.0
  3
_EX_WCIR
  1

  0
LINE
  5
5C
100
AcDbEntity
  8
0
  6
CONTINUOUS
 62
     0
100
AcDbLine
 10
0.0
 20
0.0
 30
0.0
 11
-1.0
 21
0.0
 31
0.0
  0
CIRCLE
  5
5D
100
AcDbEntity
  8
0
  6
CONTINUOUS
 62
     0
100
AcDbCircle
 10
0.0
 20
0.0
 30
0.0
 40
0.5
  0
ENDBLK
  5
5E
100
AcDbEntity
  8
0
100
AcDbBlockEnd
  0
BLOCK
  5
5F
100
AcDbEntity
  8
0
100
AcDbBlockBegin
  2
_EX_WCIR2
 70
     0
 10
0.0
 20
0.0
 30
0.0
  3
_EX_WCIR2
  1

  0
LINE
  5
60
100
AcDbEntity
  8
0
  6
CONTINUOUS
 62
     0
100
AcDbLine
 10
-0.5
 20
0.0
 30
0.0
 11
-1.0
 21
0.0
 31
0.0
  0
CIRCLE
  5
61
100
AcDbEntity
  8
0
  6
CONTINUOUS
 62
     0
100
AcDbCircle
 10
0.0
 20
0.0
 30
0.0
 40
0.5
  0
ENDBLK
  5
62
100
AcDbEntity
  8
0
100
AcDbBlockEnd
  0
BLOCK
  5
63
100
AcDbEntity
  8
0
100
AcDbBlockBegin
  2
_EX_WNORM
 70
     0
 10
0.0
 20
0.0
 30
0.0
  3
_EX_WNORM
  1

  0
LINE
  5
64
100
AcDbEntity
  8
0
  6
CONTINUOUS
 62
     0
100
AcDbLine
 10
-1.0
 20
0.0
 30
0.0
 11
-1.0
 21
0.0
 31
0.0
  0
LINE
  5
65
100
AcDbEntity
  8
0
  6
CONTINUOUS
 62
     0
100
AcDbLine
 10
0.0
 20
0.0
 30
0.0
 11
-1.0
 21
0.166667
 31
0.0
  0
LINE
  5
66
100
AcDbEntity
  8
0
  6
CONTINUOUS
 62
     0
100
AcDbLine
 10
0.0
 20
0.0
 30
0.0
 11
-1.0
 21
-0.166667
 31
0.0
  0
LINE
  5
67
100
AcDbEntity
  8
0
  6
CONTINUOUS
 62
     0
100
AcDbLine
 10
-1.0
 20
0.166667
 30
0.0
 11
-1.0
 21
-0.166667
 31
0.0
  0
ENDBLK
  5
68
100
AcDbEntity
  8
0
100
AcDbBlockEnd
  0
BLOCK
  5
69
100
AcDbEntity
  8
0
100
AcDbBlockBegin
  2
_EX_NNORM
 70
     0
 10
0.0
 20
0.0
 30
0.0
  3
_EX_NNORM
  1

  0
LINE
  5
6A
100
AcDbEntity
  8
0
  6
CONTINUOUS
 62
     0
100
AcDbLine
 10
0.0
 20
0.0
 30
0.0
 11
-1.0
 21
0.0
 31
0.0
  0
LINE
  5
6B
100
AcDbEntity
  8
0
  6
CONTINUOUS
 62
     0
100
AcDbLine
 10
0.0
 20
0.0
 30
0.0
 11
-1.0
 21
0.166667
 31
0.0
  0
LINE
  5
6C
100
AcDbEntity
  8
0
  6
CONTINUOUS
 62
     0
100
AcDbLine
 10
0.0
 20
0.0
 30
0.0
 11
-1.0
 21
-0.166667
 31
0.0
  0
LINE
  5
6D
100
AcDbEntity
  8
0
  6
CONTINUOUS
 62
     0
100
AcDbLine
 10
-1.0
 20
0.166667
 30
0.0
 11
-1.0
 21
-0.166667
 31
0.0
  0
ENDBLK
  5
6E
100
AcDbEntity
  8
0
100
AcDbBlockEnd
  0
BLOCK
  5
6F
100
AcDbEntity
  8
0
100
AcDbBlockBegin
  2
_EX_BBOX
 70
     0
 10
0.0
 20
0.0
 30
0.0
  3
_EX_BBOX
  1

  0
LINE
  5
70
100
AcDbEntity
  8
0
  6
CONTINUOUS
 62
     0
100
AcDbLine
 10
0.0
 20
0.0
 30
0.0
 11
-1.0
 21
0.0
 31
0.0
  0
LINE
  5
71
100
AcDbEntity
  8
0
  6
CONTINUOUS
 62
     0
100
AcDbLine
 10
-0.5
 20
0.5
 30
0.0
 11
0.5
 21
0.5
 31
0.0
  0
LINE
  5
72
100
AcDbEntity
  8
0
  6
CONTINUOUS
 62
     0
100
AcDbLine
 10
0.5
 20
0.5
 30
0.0
 11
0.5
 21
-0.5
 31
0.0
  0
LINE
  5
73
100
AcDbEntity
  8
0
  6
CONTINUOUS
 62
     0
100
AcDbLine
 10
0.5
 20
-0.5
 30
0.0
 11
-0.5
 21
-0.5
 31
0.0
  0
LINE
  5
74
100
AcDbEntity
  8
0
  6
CONTINUOUS
 62
     0
100
AcDbLine
 10
-0.5
 20
-0.5
 30
0.0
 11
-0.5
 21
0.5
 31
0.0
  0
LINE
  5
75
100
AcDbEntity
  8
0
  6
CONTINUOUS
 62
     0
100
AcDbLine
 10
-0.25
 20
0.25
 30
0.0
 11
0.25
 21
0.25
 31
0.0
  0
LINE
  5
76
100
AcDbEntity
  8
0
  6
CONTINUOUS
 62
     0
100
AcDbLine
 10
0.25
 20
0.25
 30
0.0
 11
0.25
 21
-0.25
 31
0.0
  0
LINE
  5
77
100
AcDbEntity
  8
0
  6
CONTINUOUS
 62
     0
100
AcDbLine
 10
0.25
 20
-0.25
 30
0.0
 11
-0.25
 21
-0.25
 31
0.0
  0
LINE
  5
78
100
AcDbEntity
  8
0
  6
CONTINUOUS
 62
     0
100
AcDbLine
 10
-0.25
 20
-0.25
 30
0.0
 11
-0.25
 21
0.25
 31
0.0
  0
ENDBLK
  5
79
100
AcDbEntity
  8
0
100
AcDbBlockEnd
  0
BLOCK
  5
7A
100
AcDbEntity
  8
0
100
AcDbBlockBegin
  2
_EX_WBOX
 70
     0
 10
0.0
 20
0.0
 30
0.0
  3
_EX_WBOX
  1

  0
LINE
  5
7B
100
AcDbEntity
  8
0
  6
CONTINUOUS
 62
     0
100
AcDbLine
 10
-0.5
 20
0.0
 30
0.0
 11
-1.0
 21
0.0
 31
0.0
  0
LINE
  5
7C
100
AcDbEntity
  8
0
  6
CONTINUOUS
 62
     0
100
AcDbLine
 10
-0.5
 20
0.5
 30
0.0
 11
0.5
 21
0.5
 31
0.0
  0
LINE
  5
7D
100
AcDbEntity
  8
0
  6
CONTINUOUS
 62
     0
100
AcDbLine
 10
0.5
 20
0.5
 30
0.0
 11
0.5
 21
-0.5
 31
0.0
  0
LINE
  5
7E
100
AcDbEntity
  8
0
  6
CONTINUOUS
 62
     0
100
AcDbLine
 10
0.5
 20
-0.5
 30
0.0
 11
-0.5
 21
-0.5
 31
0.0
  0
LINE
  5
7F
100
AcDbEntity
  8
0
  6
CONTINUOUS
 62
     0
100
AcDbLine
 10
-0.5
 20
-0.5
 30
0.0
 11
-0.5
 21
0.5
 31
0.0
  0
ENDBLK
  5
80
100
AcDbEntity
  8
0
100
AcDbBlockEnd
  0
BLOCK
  5
81
100
AcDbEntity
  8
0
100
AcDbBlockBegin
  2
_EX_INTEGRAL
 70
     0
 10
0.0
 20
0.0
 30
0.0
  3
_EX_INTEGRAL
  1

  0
LINE
  5
82
100
AcDbEntity
  8
0
  6
CONTINUOUS
 62
     0
100
AcDbLine
 10
0.0
 20
0.0
 30
0.0
 11
-1.0
 21
0.0
 31
0.0
  0
ARC
  5
83
100
AcDbEntity
  8
0
  6
CONTINUOUS
 62
     0
100
AcDbCircle
 10
0.542115
 20
0.164992
 30
0.0
 40
0.56667
100
AcDbArc
 50
73.07249
 51
196.927513
  0
ARC
  5
84
100
AcDbEntity
  8
0
  6
CONTINUOUS
 62
     0
100
AcDbCircle
 10
-0.542115
 20
-0.164992
 30
0.0
 40
0.56667
100
AcDbArc
 50
253.072487
 51
16.927513
  0
ENDBLK
  5
85
100
AcDbEntity
  8
0
100
AcDbBlockEnd
  0
BLOCK
  5
491
100
AcDbEntity
  8
0
100
AcDbBlockBegin
  2
*D14
 70
    65
 10
0.0
 20
0.0
 30
0.0
  3
*D14
  1

  0
LINE
  5
492
100
AcDbEntity
  8
寸法
  6
CONTINUOUS
 62
     3
100
AcDbLine
 10
695.0
 20
3653.5
 30
0.0
 11
695.0
 21
3299.0
 31
0.0
  0
LINE
  5
493
100
AcDbEntity
  8
寸法
  6
CONTINUOUS
 62
     3
100
AcDbLine
 10
1145.0
 20
3653.5
 30
0.0
 11
1145.0
 21
3299.0
 31
0.0
  0
TEXT
  5
494
100
AcDbEntity
  8
寸法
  6
CONTINUOUS
 62
     2
100
AcDbText
 10
838.1
 20
3319.25
 30
0.0
 40
60.0
  1
%%c450
 41
0.84
  7
EXCADSTD
 72
     1
 11
920.0
 21
3319.25
 31
0.0
100
AcDbText
  0
LINE
  5
495
100
AcDbEntity
  8
寸法
  6
CONTINUOUS
 62
     3
100
AcDbLine
 10
695.0
 20
3314.0
 30
0.0
 11
1145.0
 21
3314.0
 31
0.0
  0
LINE
  5
496
100
AcDbEntity
  8
寸法
  6
CONTINUOUS
 62
     3
100
AcDbLine
 10
740.0
 20
3321.5
 30
0.0
 11
695.0
 21
3314.0
 31
0.0
  0
LINE
  5
497
100
AcDbEntity
  8
寸法
  6
CONTINUOUS
 62
     3
100
AcDbLine
 10
695.0
 20
3314.0
 30
0.0
 11
740.0
 21
3306.5
 31
0.0
  0
LINE
  5
498
100
AcDbEntity
  8
寸法
  6
CONTINUOUS
 62
     3
100
AcDbLine
 10
1100.0
 20
3306.5
 30
0.0
 11
1145.0
 21
3314.0
 31
0.0
  0
LINE
  5
499
100
AcDbEntity
  8
寸法
  6
CONTINUOUS
 62
     3
100
AcDbLine
 10
1145.0
 20
3314.0
 30
0.0
 11
1100.0
 21
3321.5
 31
0.0
  0
ENDBLK
  5
49A
100
AcDbEntity
  8
0
100
AcDbBlockEnd
  0
BLOCK
  5
49E
100
AcDbEntity
  8
0
100
AcDbBlockBegin
  2
*D15
 70
    65
 10
0.0
 20
0.0
 30
0.0
  3
*D15
  1

  0
LINE
  5
49F
100
AcDbEntity
  8
寸法
  6
CONTINUOUS
 62
     3
100
AcDbLine
 10
620.0
 20
3478.500008
 30
0.0
 11
620.0
 21
3209.0
 31
0.0
  0
LINE
  5
4A0
100
AcDbEntity
  8
寸法
  6
CONTINUOUS
 62
     3
100
AcDbLine
 10
1220.0
 20
3478.500008
 30
0.0
 11
1220.0
 21
3209.0
 31
0.0
  0
TEXT
  5
4A1
100
AcDbEntity
  8
寸法
  6
CONTINUOUS
 62
     2
100
AcDbText
 10
857.0
 20
3229.25
 30
0.0
 40
60.0
  1
600
 41
0.84
  7
EXCADSTD
 72
     1
 11
920.0
 21
3229.25
 31
0.0
100
AcDbText
  0
LINE
  5
4A2
100
AcDbEntity
  8
寸法
  6
CONTINUOUS
 62
     3
100
AcDbLine
 10
620.0
 20
3224.0
 30
0.0
 11
1220.0
 21
3224.0
 31
0.0
  0
LINE
  5
4A3
100
AcDbEntity
  8
寸法
  6
CONTINUOUS
 62
     3
100
AcDbLine
 10
665.0
 20
3231.5
 30
0.0
 11
620.0
 21
3224.0
 31
0.0
  0
LINE
  5
4A4
100
AcDbEntity
  8
寸法
  6
CONTINUOUS
 62
     3
100
AcDbLine
 10
620.0
 20
3224.0
 30
0.0
 11
665.0
 21
3216.5
 31
0.0
  0
LINE
  5
4A5
100
AcDbEntity
  8
寸法
  6
CONTINUOUS
 62
     3
100
AcDbLine
 10
1175.0
 20
3216.5
 30
0.0
 11
1220.0
 21
3224.0
 31
0.0
  0
LINE
  5
4A6
100
AcDbEntity
  8
寸法
  6
CONTINUOUS
 62
     3
100
AcDbLine
 10
1220.0
 20
3224.0
 30
0.0
 11
1175.0
 21
3231.5
 31
0.0
  0
ENDBLK
  5
4A7
100
AcDbEntity
  8
0
100
AcDbBlockEnd
  0
BLOCK
  5
4AA
100
AcDbEntity
  8
0
100
AcDbBlockBegin
  2
*D16
 70
    65
 10
0.0
 20
0.0
 30
0.0
  3
*D16
  1

  0
LINE
  5
4AB
100
AcDbEntity
  8
寸法
  6
CONTINUOUS
 62
     3
100
AcDbLine
 10
930.5
 20
3439.0
 30
0.0
 11
1430.0
 21
3439.0
 31
0.0
  0
TEXT
  5
4AC
100
AcDbEntity
  8
寸法
  6
CONTINUOUS
 62
     2
100
AcDbText
 10
1409.75
 20
3616.0
 30
0.0
 40
60.0
  1
480
 50
90.0
 41
0.84
  7
EXCADSTD
 72
     1
 11
1409.75
 21
3679.0
 31
0.0
100
AcDbText
  0
LINE
  5
4AD
100
AcDbEntity
  8
寸法
  6
CONTINUOUS
 62
     3
100
AcDbLine
 10
1415.0
 20
3439.0
 30
0.0
 11
1415.0
 21
3919.0
 31
0.0
  0
LINE
  5
4AE
100
AcDbEntity
  8
寸法
  6
CONTINUOUS
 62
     3
100
AcDbLine
 10
1407.5
 20
3484.0
 30
0.0
 11
1415.0
 21
3439.0
 31
0.0
  0
LINE
  5
4AF
100
AcDbEntity
  8
寸法
  6
CONTINUOUS
 62
     3
100
AcDbLine
 10
1415.0
 20
3439.0
 30
0.0
 11
1422.5
 21
3484.0
 31
0.0
  0
LINE
  5
4B0
100
AcDbEntity
  8
寸法
  6
CONTINUOUS
 62
     3
100
AcDbLine
 10
1422.5
 20
3874.0
 30
0.0
 11
1415.0
 21
3919.0
 31
0.0
  0
LINE
  5
4B1
100
AcDbEntity
  8
寸法
  6
CONTINUOUS
 62
     3
100
AcDbLine
 10
1415.0
 20
3919.0
 30
0.0
 11
1407.5
 21
3874.0
 31
0.0
  0
ENDBLK
  5
4B2
100
AcDbEntity
  8
0
100
AcDbBlockEnd
  0
BLOCK
  5
4BE
100
AcDbEntity
  8
0
100
AcDbBlockBegin
  2
*D17
 70
    65
 10
0.0
 20
0.0
 30
0.0
  3
*D17
  1

  0
LINE
  5
4BF
100
AcDbEntity
  8
寸法
  6
CONTINUOUS
 62
     3
100
AcDbLine
 10
1230.5
 20
1575.0
 30
0.0
 11
1340.0
 21
1575.0
 31
0.0
  0
TEXT
  5
4C0
100
AcDbEntity
  8
寸法
  6
CONTINUOUS
 62
     2
100
AcDbText
 10
1319.75
 20
1162.0
 30
0.0
 40
60.0
  1
700
 50
90.0
 41
0.84
  7
EXCADSTD
 72
     1
 11
1319.75
 21
1225.0
 31
0.0
100
AcDbText
  0
LINE
  5
4C1
100
AcDbEntity
  8
寸法
  6
CONTINUOUS
 62
     3
100
AcDbLine
 10
1325.0
 20
875.0
 30
0.0
 11
1325.0
 21
1575.0
 31
0.0
  0
LINE
  5
4C2
100
AcDbEntity
  8
寸法
  6
CONTINUOUS
 62
     3
100
AcDbLine
 10
1317.5
 20
920.0
 30
0.0
 11
1325.0
 21
875.0
 31
0.0
  0
LINE
  5
4C3
100
AcDbEntity
  8
寸法
  6
CONTINUOUS
 62
     3
100
AcDbLine
 10
1325.0
 20
875.0
 30
0.0
 11
1332.5
 21
920.0
 31
0.0
  0
LINE
  5
4C4
100
AcDbEntity
  8
寸法
  6
CONTINUOUS
 62
     3
100
AcDbLine
 10
1332.5
 20
1530.0
 30
0.0
 11
1325.0
 21
1575.0
 31
0.0
  0
LINE
  5
4C5
100
AcDbEntity
  8
寸法
  6
CONTINUOUS
 62
     3
100
AcDbLine
 10
1325.0
 20
1575.0
 30
0.0
 11
1317.5
 21
1530.0
 31
0.0
  0
ENDBLK
  5
4C6
100
AcDbEntity
  8
0
100
AcDbBlockEnd
  0
BLOCK
  5
4C9
100
AcDbEntity
  8
0
100
AcDbBlockBegin
  2
*D18
 70
    65
 10
0.0
 20
0.0
 30
0.0
  3
*D18
  1

  0
LINE
  5
4CA
100
AcDbEntity
  8
寸法
  6
CONTINUOUS
 62
     3
100
AcDbLine
 10
1230.5
 20
1575.0
 30
0.0
 11
1340.0
 21
1575.0
 31
0.0
  0
TEXT
  5
4CB
100
AcDbEntity
  8
寸法
  6
CONTINUOUS
 62
     2
100
AcDbText
 10
1319.75
 20
1597.0
 30
0.0
 40
60.0
  1
170
 50
90.0
 41
0.84
  7
EXCADSTD
 72
     1
 11
1319.75
 21
1660.0
 31
0.0
100
AcDbText
  0
LINE
  5
4CC
100
AcDbEntity
  8
寸法
  6
CONTINUOUS
 62
     3
100
AcDbLine
 10
1325.0
 20
1575.0
 30
0.0
 11
1325.0
 21
1745.0
 31
0.0
  0
LINE
  5
4CD
100
AcDbEntity
  8
寸法
  6
CONTINUOUS
 62
     3
100
AcDbLine
 10
1317.5
 20
1620.0
 30
0.0
 11
1325.0
 21
1575.0
 31
0.0
  0
LINE
  5
4CE
100
AcDbEntity
  8
寸法
  6
CONTINUOUS
 62
     3
100
AcDbLine
 10
1325.0
 20
1575.0
 30
0.0
 11
1332.5
 21
1620.0
 31
0.0
  0
LINE
  5
4CF
100
AcDbEntity
  8
寸法
  6
CONTINUOUS
 62
     3
100
AcDbLine
 10
1332.5
 20
1700.0
 30
0.0
 11
1325.0
 21
1745.0
 31
0.0
  0
LINE
  5
4D0
100
AcDbEntity
  8
寸法
  6
CONTINUOUS
 62
     3
100
AcDbLine
 10
1325.0
 20
1745.0
 30
0.0
 11
1317.5
 21
1700.0
 31
0.0
  0
ENDBLK
  5
4D1
100
AcDbEntity
  8
0
100
AcDbBlockEnd
  0
BLOCK
  5
4D4
100
AcDbEntity
  8
0
100
AcDbBlockBegin
  2
*D19
 70
    65
 10
0.0
 20
0.0
 30
0.0
  3
*D19
  1

  0
LINE
  5
4D5
100
AcDbEntity
  8
寸法
  6
CONTINUOUS
 62
     3
100
AcDbLine
 10
1228.5
 20
875.0
 30
0.0
 11
1430.0
 21
875.0
 31
0.0
  0
TEXT
  5
4D6
100
AcDbEntity
  8
寸法
  6
CONTINUOUS
 62
     2
100
AcDbText
 10
1409.75
 20
1247.0
 30
0.0
 40
60.0
  1
870
 50
90.0
 41
0.84
  7
EXCADSTD
 72
     1
 11
1409.75
 21
1310.0
 31
0.0
100
AcDbText
  0
LINE
  5
4D7
100
AcDbEntity
  8
寸法
  6
CONTINUOUS
 62
     3
100
AcDbLine
 10
1415.0
 20
875.0
 30
0.0
 11
1415.0
 21
1745.0
 31
0.0
  0
LINE
  5
4D8
100
AcDbEntity
  8
寸法
  6
CONTINUOUS
 62
     3
100
AcDbLine
 10
1407.5
 20
920.0
 30
0.0
 11
1415.0
 21
875.0
 31
0.0
  0
LINE
  5
4D9
100
AcDbEntity
  8
寸法
  6
CONTINUOUS
 62
     3
100
AcDbLine
 10
1415.0
 20
875.0
 30
0.0
 11
1422.5
 21
920.0
 31
0.0
  0
LINE
  5
4DA
100
AcDbEntity
  8
寸法
  6
CONTINUOUS
 62
     3
100
AcDbLine
 10
1422.5
 20
1700.0
 30
0.0
 11
1415.0
 21
1745.0
 31
0.0
  0
LINE
  5
4DB
100
AcDbEntity
  8
寸法
  6
CONTINUOUS
 62
     3
100
AcDbLine
 10
1415.0
 20
1745.0
 30
0.0
 11
1407.5
 21
1700.0
 31
0.0
  0
ENDBLK
  5
4DC
100
AcDbEntity
  8
0
100
AcDbBlockEnd
  0
BLOCK
  5
4E3
100
AcDbEntity
  8
0
100
AcDbBlockBegin
  2
*D20
 70
    65
 10
0.0
 20
0.0
 30
0.0
  3
*D20
  1

  0
LINE
  5
4E4
100
AcDbEntity
  8
寸法
  6
CONTINUOUS
 62
     3
100
AcDbLine
 10
1230.5
 20
3489.0
 30
0.0
 11
1340.0
 21
3489.0
 31
0.0
  0
TEXT
  5
4E5
100
AcDbEntity
  8
寸法
  6
CONTINUOUS
 62
     2
100
AcDbText
 10
1319.75
 20
3641.0
 30
0.0
 40
60.0
  1
430
 50
90.0
 41
0.84
  7
EXCADSTD
 72
     1
 11
1319.75
 21
3704.0
 31
0.0
100
AcDbText
  0
LINE
  5
4E6
100
AcDbEntity
  8
寸法
  6
CONTINUOUS
 62
     3
100
AcDbLine
 10
1325.0
 20
3489.0
 30
0.0
 11
1325.0
 21
3919.0
 31
0.0
  0
LINE
  5
4E7
100
AcDbEntity
  8
寸法
  6
CONTINUOUS
 62
     3
100
AcDbLine
 10
1317.5
 20
3534.0
 30
0.0
 11
1325.0
 21
3489.0
 31
0.0
  0
LINE
  5
4E8
100
AcDbEntity
  8
寸法
  6
CONTINUOUS
 62
     3
100
AcDbLine
 10
1325.0
 20
3489.0
 30
0.0
 11
1332.5
 21
3534.0
 31
0.0
  0
LINE
  5
4E9
100
AcDbEntity
  8
寸法
  6
CONTINUOUS
 62
     3
100
AcDbLine
 10
1332.5
 20
3874.0
 30
0.0
 11
1325.0
 21
3919.0
 31
0.0
  0
LINE
  5
4EA
100
AcDbEntity
  8
寸法
  6
CONTINUOUS
 62
     3
100
AcDbLine
 10
1325.0
 20
3919.0
 30
0.0
 11
1317.5
 21
3874.0
 31
0.0
  0
ENDBLK
  5
4EB
100
AcDbEntity
  8
0
100
AcDbBlockEnd
  0
BLOCK
  5
4EE
100
AcDbEntity
  8
0
100
AcDbBlockBegin
  2
*D21
 70
    65
 10
0.0
 20
0.0
 30
0.0
  3
*D21
  1

  0
LINE
  5
4EF
100
AcDbEntity
  8
寸法
  6
CONTINUOUS
 62
     3
100
AcDbLine
 10
2465.5
 20
1315.0
 30
0.0
 11
2570.0
 21
1315.0
 31
0.0
  0
TEXT
  5
4F0
100
AcDbEntity
  8
寸法
  6
CONTINUOUS
 62
     2
100
AcDbText
 10
2549.75
 20
937.5
 30
0.0
 40
60.0
  1
440（壁給水）
 50
90.0
 41
0.84
  7
EXCADSTD
 72
     1
 11
2549.75
 21
1095.0
 31
0.0
100
AcDbText
  0
LINE
  5
4F1
100
AcDbEntity
  8
寸法
  6
CONTINUOUS
 62
     3
100
AcDbLine
 10
2555.0
 20
1315.0
 30
0.0
 11
2555.0
 21
875.0
 31
0.0
  0
LINE
  5
4F2
100
AcDbEntity
  8
寸法
  6
CONTINUOUS
 62
     3
100
AcDbLine
 10
2562.5
 20
1270.0
 30
0.0
 11
2555.0
 21
1315.0
 31
0.0
  0
LINE
  5
4F3
100
AcDbEntity
  8
寸法
  6
CONTINUOUS
 62
     3
100
AcDbLine
 10
2555.0
 20
1315.0
 30
0.0
 11
2547.5
 21
1270.0
 31
0.0
  0
LINE
  5
4F4
100
AcDbEntity
  8
寸法
  6
CONTINUOUS
 62
     3
100
AcDbLine
 10
2547.5
 20
920.0
 30
0.0
 11
2555.0
 21
875.0
 31
0.0
  0
LINE
  5
4F5
100
AcDbEntity
  8
寸法
  6
CONTINUOUS
 62
     3
100
AcDbLine
 10
2555.0
 20
875.0
 30
0.0
 11
2562.5
 21
920.0
 31
0.0
  0
ENDBLK
  5
4F6
100
AcDbEntity
  8
0
100
AcDbBlockEnd
  0
BLOCK
  5
504
100
AcDbEntity
  8
0
100
AcDbBlockBegin
  2
*D22
 70
    65
 10
0.0
 20
0.0
 30
0.0
  3
*D22
  1

  0
LINE
  5
505
100
AcDbEntity
  8
寸法
  6
CONTINUOUS
 62
     3
100
AcDbLine
 10
620.0
 20
2635.5
 30
0.0
 11
620.0
 21
2787.0
 31
0.0
  0
LINE
  5
506
100
AcDbEntity
  8
寸法
  6
CONTINUOUS
 62
     3
100
AcDbLine
 10
1220.0
 20
2635.5
 30
0.0
 11
1220.0
 21
2787.0
 31
0.0
  0
TEXT
  5
507
100
AcDbEntity
  8
寸法
  6
CONTINUOUS
 62
     2
100
AcDbText
 10
857.0
 20
2777.25
 30
0.0
 40
60.0
  1
600
 41
0.84
  7
EXCADSTD
 72
     1
 11
920.0
 21
2777.25
 31
0.0
100
AcDbText
  0
LINE
  5
508
100
AcDbEntity
  8
寸法
  6
CONTINUOUS
 62
     3
100
AcDbLine
 10
620.0
 20
2772.0
 30
0.0
 11
1220.0
 21
2772.0
 31
0.0
  0
LINE
  5
509
100
AcDbEntity
  8
寸法
  6
CONTINUOUS
 62
     3
100
AcDbLine
 10
665.0
 20
2779.5
 30
0.0
 11
620.0
 21
2772.0
 31
0.0
  0
LINE
  5
50A
100
AcDbEntity
  8
寸法
  6
CONTINUOUS
 62
     3
100
AcDbLine
 10
620.0
 20
2772.0
 30
0.0
 11
665.0
 21
2764.5
 31
0.0
  0
LINE
  5
50B
100
AcDbEntity
  8
寸法
  6
CONTINUOUS
 62
     3
100
AcDbLine
 10
1175.0
 20
2764.5
 30
0.0
 11
1220.0
 21
2772.0
 31
0.0
  0
LINE
  5
50C
100
AcDbEntity
  8
寸法
  6
CONTINUOUS
 62
     3
100
AcDbLine
 10
1220.0
 20
2772.0
 30
0.0
 11
1175.0
 21
2779.5
 31
0.0
  0
ENDBLK
  5
50D
100
AcDbEntity
  8
0
100
AcDbBlockEnd
  0
BLOCK
  5
510
100
AcDbEntity
  8
0
100
AcDbBlockBegin
  2
*D23
 70
    65
 10
0.0
 20
0.0
 30
0.0
  3
*D23
  1

  0
LINE
  5
511
100
AcDbEntity
  8
寸法
  6
CONTINUOUS
 62
     3
100
AcDbLine
 10
1230.5
 20
2625.0
 30
0.0
 11
1348.5
 21
2625.0
 31
0.0
  0
LINE
  5
512
100
AcDbEntity
  8
寸法
  6
CONTINUOUS
 62
     3
100
AcDbLine
 10
1230.5
 20
2105.0
 30
0.0
 11
1348.5
 21
2105.0
 31
0.0
  0
TEXT
  5
513
100
AcDbEntity
  8
寸法
  6
CONTINUOUS
 62
     2
100
AcDbText
 10
1328.25
 20
2302.0
 30
0.0
 40
60.0
  1
520
 50
90.0
 41
0.84
  7
EXCADSTD
 72
     1
 11
1328.25
 21
2365.0
 31
0.0
100
AcDbText
  0
LINE
  5
514
100
AcDbEntity
  8
寸法
  6
CONTINUOUS
 62
     3
100
AcDbLine
 10
1333.5
 20
2625.0
 30
0.0
 11
1333.5
 21
2105.0
 31
0.0
  0
LINE
  5
515
100
AcDbEntity
  8
寸法
  6
CONTINUOUS
 62
     3
100
AcDbLine
 10
1341.0
 20
2580.0
 30
0.0
 11
1333.5
 21
2625.0
 31
0.0
  0
LINE
  5
516
100
AcDbEntity
  8
寸法
  6
CONTINUOUS
 62
     3
100
AcDbLine
 10
1333.5
 20
2625.0
 30
0.0
 11
1326.0
 21
2580.0
 31
0.0
  0
LINE
  5
517
100
AcDbEntity
  8
寸法
  6
CONTINUOUS
 62
     3
100
AcDbLine
 10
1326.0
 20
2150.0
 30
0.0
 11
1333.5
 21
2105.0
 31
0.0
  0
LINE
  5
518
100
AcDbEntity
  8
寸法
  6
CONTINUOUS
 62
     3
100
AcDbLine
 10
1333.5
 20
2105.0
 30
0.0
 11
1341.0
 21
2150.0
 31
0.0
  0
ENDBLK
  5
519
100
AcDbEntity
  8
0
100
AcDbBlockEnd
  0
BLOCK
  5
51C
100
AcDbEntity
  8
0
100
AcDbBlockBegin
  2
*D24
 70
    65
 10
0.0
 20
0.0
 30
0.0
  3
*D24
  1

  0
LINE
  5
51D
100
AcDbEntity
  8
寸法
  6
CONTINUOUS
 62
     3
100
AcDbLine
 10
1515.0
 20
875.0
 30
0.0
 11
1515.0
 21
2625.0
 31
0.0
  0
LINE
  5
51E
100
AcDbEntity
  8
寸法
  6
CONTINUOUS
 62
     3
100
AcDbLine
 10
1507.5
 20
920.0
 30
0.0
 11
1515.0
 21
875.0
 31
0.0
  0
LINE
  5
51F
100
AcDbEntity
  8
寸法
  6
CONTINUOUS
 62
     3
100
AcDbLine
 10
1515.0
 20
875.0
 30
0.0
 11
1522.5
 21
920.0
 31
0.0
  0
LINE
  5
520
100
AcDbEntity
  8
寸法
  6
CONTINUOUS
 62
     3
100
AcDbLine
 10
1522.5
 20
2580.0
 30
0.0
 11
1515.0
 21
2625.0
 31
0.0
  0
LINE
  5
521
100
AcDbEntity
  8
寸法
  6
CONTINUOUS
 62
     3
100
AcDbLine
 10
1515.0
 20
2625.0
 30
0.0
 11
1507.5
 21
2580.0
 31
0.0
  0
TEXT
  5
522
100
AcDbEntity
  8
寸法
  6
CONTINUOUS
 62
     2
100
AcDbText
 10
1509.75
 20
1630.3
 30
0.0
 40
60.0
  1
（1750）
 50
90.0
 41
0.84
  7
EXCADSTD
 72
     1
 11
1509.75
 21
1750.0
 31
0.0
100
AcDbText
  0
LINE
  5
523
100
AcDbEntity
  8
寸法
  6
CONTINUOUS
 62
     3
100
AcDbLine
 10
1230.5
 20
2625.0
 30
0.0
 11
1530.0
 21
2625.0
 31
0.0
  0
ENDBLK
  5
524
100
AcDbEntity
  8
0
100
AcDbBlockEnd
  0
BLOCK
  5
530
100
AcDbEntity
  8
0
100
AcDbBlockBegin
  2
*D25
 70
    65
 10
0.0
 20
0.0
 30
0.0
  3
*D25
  1

  0
LINE
  5
531
100
AcDbEntity
  8
寸法
  6
CONTINUOUS
 62
     3
100
AcDbLine
 10
2448.0
 20
2625.0
 30
0.0
 11
2585.0
 21
2625.0
 31
0.0
  0
LINE
  5
532
100
AcDbEntity
  8
寸法
  6
CONTINUOUS
 62
     3
100
AcDbLine
 10
2493.0
 20
2564.980762
 30
0.0
 11
2585.0
 21
2564.980762
 31
0.0
  0
TEXT
  5
533
100
AcDbEntity
  8
寸法
  6
CONTINUOUS
 62
     2
100
AcDbText
 10
2564.75
 20
2678.4
 30
0.0
 40
60.0
  1
60
 50
90.0
 41
0.84
  7
EXCADSTD
 72
     1
 11
2564.75
 21
2722.5
 31
0.0
100
AcDbText
  0
LINE
  5
534
100
AcDbEntity
  8
寸法
  6
CONTINUOUS
 62
     3
100
AcDbLine
 10
2570.0
 20
2780.250006
 30
0.0
 11
2570.0
 21
2519.980762
 31
0.0
  0
LINE
  5
535
100
AcDbEntity
  8
寸法
  6
CONTINUOUS
 62
     3
100
AcDbLine
 10
2562.5
 20
2670.0
 30
0.0
 11
2570.0
 21
2625.0
 31
0.0
  0
LINE
  5
536
100
AcDbEntity
  8
寸法
  6
CONTINUOUS
 62
     3
100
AcDbLine
 10
2570.0
 20
2625.0
 30
0.0
 11
2577.5
 21
2670.0
 31
0.0
  0
LINE
  5
537
100
AcDbEntity
  8
寸法
  6
CONTINUOUS
 62
     3
100
AcDbLine
 10
2577.5
 20
2519.980762
 30
0.0
 11
2570.0
 21
2564.980762
 31
0.0
  0
LINE
  5
538
100
AcDbEntity
  8
寸法
  6
CONTINUOUS
 62
     3
100
AcDbLine
 10
2570.0
 20
2564.980762
 30
0.0
 11
2562.5
 21
2519.980762
 31
0.0
  0
ENDBLK
  5
539
100
AcDbEntity
  8
0
100
AcDbBlockEnd
  0
BLOCK
  5
53C
100
AcDbEntity
  8
0
100
AcDbBlockBegin
  2
*D26
 70
    65
 10
0.0
 20
0.0
 30
0.0
  3
*D26
  1

  0
LINE
  5
53D
100
AcDbEntity
  8
寸法
  6
CONTINUOUS
 62
     3
100
AcDbLine
 10
2412.8
 20
2636.7
 30
0.0
 11
2412.8
 21
2700.0
 31
0.0
  0
TEXT
  5
53E
100
AcDbEntity
  8
寸法
  6
CONTINUOUS
 62
     2
100
AcDbText
 10
2271.2
 20
2690.25
 30
0.0
 40
60.0
  1
38
 41
0.84
  7
EXCADSTD
 72
     1
 11
2315.3
 21
2690.25
 31
0.0
100
AcDbText
  0
LINE
  5
53F
100
AcDbEntity
  8
寸法
  6
CONTINUOUS
 62
     3
100
AcDbLine
 10
2257.549994
 20
2685.0
 30
0.0
 11
2495.0
 21
2685.0
 31
0.0
  0
LINE
  5
540
100
AcDbEntity
  8
寸法
  6
CONTINUOUS
 62
     3
100
AcDbLine
 10
2367.8
 20
2677.5
 30
0.0
 11
2412.8
 21
2685.0
 31
0.0
  0
LINE
  5
541
100
AcDbEntity
  8
寸法
  6
CONTINUOUS
 62
     3
100
AcDbLine
 10
2412.8
 20
2685.0
 30
0.0
 11
2367.8
 21
2692.5
 31
0.0
  0
LINE
  5
542
100
AcDbEntity
  8
寸法
  6
CONTINUOUS
 62
     3
100
AcDbLine
 10
2495.0
 20
2692.5
 30
0.0
 11
2450.0
 21
2685.0
 31
0.0
  0
LINE
  5
543
100
AcDbEntity
  8
寸法
  6
CONTINUOUS
 62
     3
100
AcDbLine
 10
2450.0
 20
2685.0
 30
0.0
 11
2495.0
 21
2677.5
 31
0.0
  0
ENDBLK
  5
544
100
AcDbEntity
  8
0
100
AcDbBlockEnd
  0
BLOCK
  5
547
100
AcDbEntity
  8
0
100
AcDbBlockBegin
  2
*D27
 70
    65
 10
0.0
 20
0.0
 30
0.0
  3
*D27
  1

  0
LINE
  5
548
100
AcDbEntity
  8
寸法
  6
CONTINUOUS
 62
     3
100
AcDbLine
 10
2460.5
 20
875.0
 30
0.0
 11
2930.0
 21
875.0
 31
0.0
  0
LINE
  5
549
100
AcDbEntity
  8
寸法
  6
CONTINUOUS
 62
     3
100
AcDbLine
 10
2493.0
 20
2125.0
 30
0.0
 11
2930.0
 21
2125.0
 31
0.0
  0
TEXT
  5
54A
100
AcDbEntity
  8
寸法
  6
CONTINUOUS
 62
     2
100
AcDbText
 10
2909.75
 20
1380.3
 30
0.0
 40
60.0
  1
（1250）
 50
90.0
 41
0.84
  7
EXCADSTD
 72
     1
 11
2909.75
 21
1500.0
 31
0.0
100
AcDbText
  0
LINE
  5
54B
100
AcDbEntity
  8
寸法
  6
CONTINUOUS
 62
     3
100
AcDbLine
 10
2915.0
 20
875.0
 30
0.0
 11
2915.0
 21
2125.0
 31
0.0
  0
LINE
  5
54C
100
AcDbEntity
  8
寸法
  6
CONTINUOUS
 62
     3
100
AcDbLine
 10
2907.5
 20
920.0
 30
0.0
 11
2915.0
 21
875.0
 31
0.0
  0
LINE
  5
54D
100
AcDbEntity
  8
寸法
  6
CONTINUOUS
 62
     3
100
AcDbLine
 10
2915.0
 20
875.0
 30
0.0
 11
2922.5
 21
920.0
 31
0.0
  0
LINE
  5
54E
100
AcDbEntity
  8
寸法
  6
CONTINUOUS
 62
     3
100
AcDbLine
 10
2922.5
 20
2080.0
 30
0.0
 11
2915.0
 21
2125.0
 31
0.0
  0
LINE
  5
54F
100
AcDbEntity
  8
寸法
  6
CONTINUOUS
 62
     3
100
AcDbLine
 10
2915.0
 20
2125.0
 30
0.0
 11
2907.5
 21
2080.0
 31
0.0
  0
ENDBLK
  5
550
100
AcDbEntity
  8
0
100
AcDbBlockEnd
  0
ENDSEC
  0
SECTION
  2
ENTITIES
  0
LINE
  5
86
100
AcDbEntity
  8
枠・表
  6
CONTINUOUS
 62
     7
100
AcDbLine
 10
18.0
 20
12.5
 30
0.0
 11
200.0
 21
12.5
 31
0.0
  0
LINE
  5
87
100
AcDbEntity
  8
枠・表
  6
CONTINUOUS
 62
     7
100
AcDbLine
 10
200.0
 20
12.5
 30
0.0
 11
200.0
 21
287.5
 31
0.0
  0
LINE
  5
88
100
AcDbEntity
  8
枠・表
  6
CONTINUOUS
 62
     7
100
AcDbLine
 10
18.0
 20
12.5
 30
0.0
 11
18.0
 21
287.5
 31
0.0
  0
LINE
  5
89
100
AcDbEntity
  8
枠・表
  6
CONTINUOUS
 62
     7
100
AcDbLine
 10
18.0
 20
287.5
 30
0.0
 11
200.0
 21
287.5
 31
0.0
  0
LINE
  5
8A
100
AcDbEntity
  8
枠・表
  6
CONTINUOUS
 62
     7
100
AcDbLine
 10
18.0
 20
34.5
 30
0.0
 11
200.0
 21
34.5
 31
0.0
  0
LINE
  5
8B
100
AcDbEntity
  8
枠・表
  6
CONTINUOUS
 62
     6
100
AcDbLine
 10
200.0
 20
22.5
 30
0.0
 11
75.0
 21
22.5
 31
0.0
  0
LINE
  5
8C
100
AcDbEntity
  8
枠・表
  6
CONTINUOUS
 62
     6
100
AcDbLine
 10
186.0
 20
34.5
 30
0.0
 11
186.0
 21
22.5
 31
0.0
  0
LINE
  5
8D
100
AcDbEntity
  8
枠・表
  6
CONTINUOUS
 62
     6
100
AcDbLine
 10
181.0
 20
34.5
 30
0.0
 11
181.0
 21
22.5
 31
0.0
  0
LINE
  5
8E
100
AcDbEntity
  8
枠・表
  6
CONTINUOUS
 62
     6
100
AcDbLine
 10
144.0
 20
34.5
 30
0.0
 11
144.0
 21
12.5
 31
0.0
  0
LINE
  5
8F
100
AcDbEntity
  8
枠・表
  6
CONTINUOUS
 62
     6
100
AcDbLine
 10
139.0
 20
34.5
 30
0.0
 11
139.0
 21
12.5
 31
0.0
  0
LINE
  5
90
100
AcDbEntity
  8
枠・表
  6
CONTINUOUS
 62
     6
100
AcDbLine
 10
80.0
 20
34.5
 30
0.0
 11
80.0
 21
22.5
 31
0.0
  0
LINE
  5
91
100
AcDbEntity
  8
枠・表
  6
CONTINUOUS
 62
     6
100
AcDbLine
 10
75.0
 20
34.5
 30
0.0
 11
75.0
 21
12.5
 31
0.0
  0
LINE
  5
92
100
AcDbEntity
  8
枠・表
  6
CONTINUOUS
 62
     6
100
AcDbLine
 10
62.0
 20
34.5
 30
0.0
 11
62.0
 21
12.5
 31
0.0
  0
LINE
  5
93
100
AcDbEntity
  8
枠・表
  6
CONTINUOUS
 62
     6
100
AcDbLine
 10
49.0
 20
34.5
 30
0.0
 11
49.0
 21
12.5
 31
0.0
  0
LINE
  5
94
100
AcDbEntity
  8
枠・表
  6
CONTINUOUS
 62
     6
100
AcDbLine
 10
33.5
 20
34.5
 30
0.0
 11
33.5
 21
12.5
 31
0.0
  0
LINE
  5
95
100
AcDbEntity
  8
枠・表
  6
CONTINUOUS
 62
     6
100
AcDbLine
 10
18.0
 20
29.5
 30
0.0
 11
75.0
 21
29.5
 31
0.0
  0
LINE
  5
96
100
AcDbEntity
  8
枠・表
  6
CONTINUOUS
 62
     6
100
AcDbLine
 10
189.265381
 20
24.800293
 30
0.0
 11
196.99939
 21
32.669983
 31
0.0
  0
CIRCLE
  5
97
100
AcDbEntity
  8
枠・表
  6
CONTINUOUS
 62
     6
100
AcDbCircle
 10
23.0
 20
15.0
 30
0.0
 40
0.1
  0
CIRCLE
  5
98
100
AcDbEntity
  8
枠・表
  6
CONTINUOUS
 62
     6
100
AcDbCircle
 10
28.0
 20
15.0
 30
0.0
 40
0.1
  0
CIRCLE
  5
99
100
AcDbEntity
  8
枠・表
  6
CONTINUOUS
 62
     6
100
AcDbCircle
 10
38.5
 20
15.0
 30
0.0
 40
0.1
  0
CIRCLE
  5
9A
100
AcDbEntity
  8
枠・表
  6
CONTINUOUS
 62
     6
100
AcDbCircle
 10
43.5
 20
15.0
 30
0.0
 40
0.1
  0
LINE
  5
9B
100
AcDbEntity
  8
枠・表
  6
EXLTYPE2
 62
     6
100
AcDbLine
 10
18.0
 20
17.5
 30
0.0
 11
49.0
 21
17.5
 31
0.0
  0
TEXT
  5
9C
100
AcDbEntity
  8
枠・表
  6
CONTINUOUS
 62
     2
100
AcDbText
 10
189.053711
 20
29.272278
 30
0.0
 40
3.0
  1
１
 41
0.826
  7
EXCADSTD
 72
     5
 11
191.413711
 21
29.272278
 31
0.0
100
AcDbText
  0
TEXT
  5
9D
100
AcDbEntity
  8
枠・表
  6
CONTINUOUS
 62
     2
100
AcDbText
 10
193.12793
 20
24.834885
 30
0.0
 40
3.0
  1
１５
 41
0.791
  7
EXCADSTD
 72
     5
 11
198.30672
 21
24.834885
 31
0.0
100
AcDbText
  0
TEXT
  5
9E
100
AcDbEntity
  8
枠・表
  6
CONTINUOUS
 62
     2
100
AcDbText
 10
20.25
 20
29.875
 30
0.0
 40
4.25
  1
製図
 41
1.087059
  7
EXCADSTD
 72
     5
 11
30.3326
 21
29.875
 31
0.0
100
AcDbText
  0
TEXT
  5
9F
100
AcDbEntity
  8
枠・表
  6
CONTINUOUS
 62
     2
100
AcDbText
 10
35.75
 20
29.875
 30
0.0
 40
4.25
  1
写図
 41
1.087059
  7
EXCADSTD
 72
     5
 11
45.8326
 21
29.875
 31
0.0
100
AcDbText
  0
TEXT
  5
A0
100
AcDbEntity
  8
枠・表
  6
CONTINUOUS
 62
     2
100
AcDbText
 10
50.75
 20
29.875
 30
0.0
 40
4.25
  1
検図
 41
0.938824
  7
EXCADSTD
 72
     5
 11
59.4577
 21
29.875
 31
0.0
100
AcDbText
  0
TEXT
  5
A1
100
AcDbEntity
  8
枠・表
  6
CONTINUOUS
 62
     2
100
AcDbText
 10
63.75
 20
29.875
 30
0.0
 40
4.25
  1
承認
 41
0.938824
  7
EXCADSTD
 72
     5
 11
72.4577
 21
29.875
 31
0.0
100
AcDbText
  0
TEXT
  5
A2
100
AcDbEntity
  8
枠・表
  6
CONTINUOUS
 62
     2
100
AcDbText
 10
75.575
 20
28.875
 30
0.0
 40
4.25
  1
品
 41
0.84
  7
EXCADSTD
 72
     5
 11
78.975
 21
28.875
 31
0.0
100
AcDbText
  0
TEXT
  5
A3
100
AcDbEntity
  8
枠・表
  6
CONTINUOUS
 62
     2
100
AcDbText
 10
75.575
 20
23.875
 30
0.0
 40
4.25
  1
名
 41
0.84
  7
EXCADSTD
 72
     5
 11
78.975
 21
23.875
 31
0.0
100
AcDbText
  0
TEXT
  5
A4
100
AcDbEntity
  8
枠・表
  6
CONTINUOUS
 62
     2
100
AcDbText
 10
139.575
 20
28.875
 30
0.0
 40
4.25
  1
品
 41
0.84
  7
EXCADSTD
 72
     5
 11
142.975
 21
28.875
 31
0.0
100
AcDbText
  0
TEXT
  5
A5
100
AcDbEntity
  8
枠・表
  6
CONTINUOUS
 62
     2
100
AcDbText
 10
139.575
 20
23.875
 30
0.0
 40
4.25
  1
番
 41
0.84
  7
EXCADSTD
 72
     5
 11
142.975
 21
23.875
 31
0.0
100
AcDbText
  0
TEXT
  5
A6
100
AcDbEntity
  8
枠・表
  6
CONTINUOUS
 62
     2
100
AcDbText
 10
181.675
 20
28.875
 30
0.0
 40
4.25
  1
尺
 41
0.84
  7
EXCADSTD
 72
     5
 11
185.075
 21
28.875
 31
0.0
100
AcDbText
  0
TEXT
  5
A7
100
AcDbEntity
  8
枠・表
  6
CONTINUOUS
 62
     2
100
AcDbText
 10
181.675
 20
23.875
 30
0.0
 40
4.25
  1
度
 41
0.84
  7
EXCADSTD
 72
     5
 11
185.075
 21
23.875
 31
0.0
100
AcDbText
  0
TEXT
  5
A8
100
AcDbEntity
  8
枠・表
  6
CONTINUOUS
 62
     2
100
AcDbText
 10
139.575
 20
17.575
 30
0.0
 40
4.25
  1
図
 41
0.84
  7
EXCADSTD
 72
     5
 11
142.975
 21
17.575
 31
0.0
100
AcDbText
  0
TEXT
  5
A9
100
AcDbEntity
  8
枠・表
  6
CONTINUOUS
 62
     2
100
AcDbText
 10
139.575
 20
13.275
 30
0.0
 40
4.25
  1
番
 41
0.84
  7
EXCADSTD
 72
     5
 11
142.975
 21
13.275
 31
0.0
100
AcDbText
  0
LINE
  5
AA
100
AcDbEntity
  8
枠・表
  6
CONTINUOUS
 62
     6
100
AcDbLine
 10
125.0
 20
282.5
 30
0.0
 11
195.0
 21
282.5
 31
0.0
  0
LINE
  5
AB
100
AcDbEntity
  8
枠・表
  6
CONTINUOUS
 62
     6
100
AcDbLine
 10
125.0
 20
277.0
 30
0.0
 11
195.0
 21
277.0
 31
0.0
  0
TEXT
  5
AC
100
AcDbEntity
  8
枠・表
  6
CONTINUOUS
 62
     2
100
AcDbText
 10
133.0
 20
277.75
 30
0.0
 40
4.0
  1
品番
 41
1.47
  7
EXCADSTD
 72
     5
 11
145.8324
 21
277.75
 31
0.0
100
AcDbText
  0
TEXT
  5
AD
100
AcDbEntity
  8
枠・表
  6
CONTINUOUS
 62
     2
100
AcDbText
 10
168.0
 20
277.75
 30
0.0
 40
4.0
  1
品名
 41
1.47
  7
EXCADSTD
 72
     5
 11
180.8324
 21
277.75
 31
0.0
100
AcDbText
  0
TEXT
  5
AE
100
AcDbEntity
  8
枠・表
  6
CONTINUOUS
 62
     2
100
AcDbText
 10
156.0
 20
272.25
 30
0.0
 40
4.0
  1
洗面化粧台
 41
0.756
  7
EXCADSTD
 72
     5
 11
174.0
 21
272.25
 31
0.0
100
AcDbText
  0
TEXT
  5
B0
100
AcDbEntity
  8
枠・表
  6
CONTINUOUS
 62
     2
100
AcDbText
 10
77.0
 20
14.5
 30
0.0
 40
4.5
  1
ジャニス工業株式会社
  7
EXCADTTF1
 72
     5
 11
137.0
 21
14.5
 31
0.0
100
AcDbText
  0
TEXT
  5
B1
100
AcDbEntity
  8
枠・表
  6
CONTINUOUS
 62
     2
100
AcDbText
 10
63.5
 20
21.0
 30
0.0
 40
5.0
  1
古林
 41
0.882
  7
EXCADSTD
 72
     5
 11
73.1243
 21
21.0
 31
0.0
100
AcDbText
  0
LINE
  5
B2
100
AcDbEntity
  8
枠・表
  6
EXLTYPE2
 62
     6
100
AcDbLine
 10
18.0
 20
150.0
 30
0.0
 11
0.7
 21
150.0
 31
0.0
  0
TEXT
  5
B3
100
AcDbEntity
  8
枠・表
  6
CONTINUOUS
 62
     2
100
AcDbText
 10
18.45
 20
13.0
 30
0.0
 40
4.0
  1
21
 41
0.5
  7
EXCADSTD
 72
     5
 11
21.65
 21
13.0
 31
0.0
100
AcDbText
  0
TEXT
  5
B4
100
AcDbEntity
  8
枠・表
  6
CONTINUOUS
 62
     2
100
AcDbText
 10
20.75
 20
21.0
 30
0.0
 40
5.0
  1
間瀬
 41
0.882
  7
EXCADSTD
 72
     5
 11
30.3743
 21
21.0
 31
0.0
100
AcDbText
  0
TEXT
  5
B5
100
AcDbEntity
  8
枠・表
  6
CONTINUOUS
 62
     2
100
AcDbText
 10
50.5
 20
21.0
 30
0.0
 40
5.0
  1
中村
 41
0.882
  7
EXCADSTD
 72
     5
 11
60.1243
 21
21.0
 31
0.0
100
AcDbText
  0
TEXT
  5
B6
100
AcDbEntity
  8
枠・表
  6
CONTINUOUS
 62
     2
100
AcDbText
 10
126.0
 20
272.25
 30
0.0
 40
4.0
  1
ＬＵ６０２ＴＳＤＲ
 41
0.585667
  7
EXCADSTD
 72
     5
 11
151.1
 21
272.25
 31
0.0
100
AcDbText
  0
TEXT
  5
B7
100
AcDbEntity
  8
枠・表
  6
CONTINUOUS
 62
     2
100
AcDbText
 10
125.4
 20
256.0
 30
0.0
 40
4.0
  1
※選択部材（別途手配）
 41
0.687273
  7
EXCADSTD
 72
     5
 11
161.4
 21
256.0
 31
0.0
100
AcDbText
  0
TEXT
  5
B8
100
AcDbEntity
  8
枠・表
  6
CONTINUOUS
 62
     2
100
AcDbText
 10
170.5
 20
250.25
 30
0.0
 40
4.0
  1
品名
 41
1.47
  7
EXCADSTD
 72
     5
 11
183.3324
 21
250.25
 31
0.0
100
AcDbText
  0
TEXT
  5
B9
100
AcDbEntity
  8
枠・表
  6
CONTINUOUS
 62
     2
100
AcDbText
 10
135.5
 20
250.25
 30
0.0
 40
4.0
  1
品番
 41
1.47
  7
EXCADSTD
 72
     5
 11
148.3324
 21
250.25
 31
0.0
100
AcDbText
  0
TEXT
  5
BA
100
AcDbEntity
  8
枠・表
  6
CONTINUOUS
 62
     2
100
AcDbText
 10
161.0
 20
217.25
 30
0.0
 40
4.0
  1
ストレート形止水栓
 41
0.746667
  7
EXCADSTD
 72
     5
 11
193.0
 21
217.25
 31
0.0
100
AcDbText
  0
TEXT
  5
BB
100
AcDbEntity
  8
枠・表
  6
CONTINUOUS
 62
     2
100
AcDbText
 10
161.0
 20
222.75
 30
0.0
 40
4.0
  1
アングル形止水栓
 41
0.748125
  7
EXCADSTD
 72
     5
 11
189.5
 21
222.75
 31
0.0
100
AcDbText
  0
TEXT
  5
BC
100
AcDbEntity
  8
枠・表
  6
CONTINUOUS
 62
     2
100
AcDbText
 10
161.0
 20
228.25
 30
0.0
 40
4.0
  1
配管アダプター
 41
0.75
  7
EXCADSTD
 72
     5
 11
186.0
 21
228.25
 31
0.0
100
AcDbText
  0
TEXT
  5
BD
100
AcDbEntity
  8
枠・表
  6
CONTINUOUS
 62
     2
100
AcDbText
 10
161.0
 20
233.75
 30
0.0
 40
4.0
  1
ボトルトラップ
 41
0.75
  7
EXCADSTD
 72
     5
 11
186.0
 21
233.75
 31
0.0
100
AcDbText
  0
TEXT
  5
BE
100
AcDbEntity
  8
枠・表
  6
CONTINUOUS
 62
     2
100
AcDbText
 10
161.0
 20
239.25
 30
0.0
 40
4.0
  1
Ｓトラップ
 41
0.756
  7
EXCADSTD
 72
     5
 11
179.0
 21
239.25
 31
0.0
100
AcDbText
  0
TEXT
  5
BF
100
AcDbEntity
  8
枠・表
  6
CONTINUOUS
 62
     2
100
AcDbText
 10
161.0
 20
244.75
 30
0.0
 40
4.0
  1
Ｐトラップ
 41
0.756
  7
EXCADSTD
 72
     5
 11
179.0
 21
244.75
 31
0.0
100
AcDbText
  0
LINE
  5
C0
100
AcDbEntity
  8
枠・表
  6
CONTINUOUS
 62
     6
100
AcDbLine
 10
160.0
 20
216.5
 30
0.0
 11
160.0
 21
255.0
 31
0.0
  0
TEXT
  5
C1
100
AcDbEntity
  8
枠・表
  6
CONTINUOUS
 62
     2
100
AcDbText
 10
126.0
 20
222.75
 30
0.0
 40
4.0
  1
ＮＬ２２１－７５ＷＭＹ
 41
0.582273
  7
EXCADSTD
 72
     5
 11
156.5
 21
222.75
 31
0.0
100
AcDbText
  0
TEXT
  5
C2
100
AcDbEntity
  8
枠・表
  6
CONTINUOUS
 62
     2
100
AcDbText
 10
126.0
 20
233.75
 30
0.0
 40
4.0
  1
Ｐ２２３２
 41
0.6006
  7
EXCADSTD
 72
     5
 11
140.3
 21
233.75
 31
0.0
100
AcDbText
  0
TEXT
  5
C3
100
AcDbEntity
  8
枠・表
  6
CONTINUOUS
 62
     2
100
AcDbText
 10
126.0
 20
239.25
 30
0.0
 40
4.0
  1
Ｐ２２３３
 41
0.6006
  7
EXCADSTD
 72
     5
 11
140.3
 21
239.25
 31
0.0
100
AcDbText
  0
TEXT
  5
C4
100
AcDbEntity
  8
枠・表
  6
CONTINUOUS
 62
     2
100
AcDbText
 10
126.0
 20
244.75
 30
0.0
 40
4.0
  1
Ｐ２２３４
 41
0.6006
  7
EXCADSTD
 72
     5
 11
140.3
 21
244.75
 31
0.0
100
AcDbText
  0
LINE
  5
C5
100
AcDbEntity
  8
枠・表
  6
CONTINUOUS
 62
     6
100
AcDbLine
 10
195.0
 20
216.5
 30
0.0
 11
195.0
 21
255.0
 31
0.0
  0
LINE
  5
C6
100
AcDbEntity
  8
枠・表
  6
CONTINUOUS
 62
     6
100
AcDbLine
 10
125.0
 20
216.5
 30
0.0
 11
125.0
 21
255.0
 31
0.0
  0
LINE
  5
C7
100
AcDbEntity
  8
枠・表
  6
CONTINUOUS
 62
     6
100
AcDbLine
 10
125.0
 20
216.5
 30
0.0
 11
195.0
 21
216.5
 31
0.0
  0
LINE
  5
C8
100
AcDbEntity
  8
枠・表
  6
CONTINUOUS
 62
     6
100
AcDbLine
 10
125.0
 20
222.0
 30
0.0
 11
195.0
 21
222.0
 31
0.0
  0
LINE
  5
C9
100
AcDbEntity
  8
枠・表
  6
CONTINUOUS
 62
     6
100
AcDbLine
 10
125.0
 20
227.5
 30
0.0
 11
195.0
 21
227.5
 31
0.0
  0
LINE
  5
CA
100
AcDbEntity
  8
枠・表
  6
CONTINUOUS
 62
     6
100
AcDbLine
 10
125.0
 20
233.0
 30
0.0
 11
195.0
 21
233.0
 31
0.0
  0
LINE
  5
CB
100
AcDbEntity
  8
枠・表
  6
CONTINUOUS
 62
     6
100
AcDbLine
 10
125.0
 20
238.5
 30
0.0
 11
195.0
 21
238.5
 31
0.0
  0
LINE
  5
CC
100
AcDbEntity
  8
枠・表
  6
CONTINUOUS
 62
     6
100
AcDbLine
 10
125.0
 20
244.0
 30
0.0
 11
195.0
 21
244.0
 31
0.0
  0
LINE
  5
CD
100
AcDbEntity
  8
枠・表
  6
CONTINUOUS
 62
     6
100
AcDbLine
 10
125.0
 20
249.5
 30
0.0
 11
195.0
 21
249.5
 31
0.0
  0
LINE
  5
CE
100
AcDbEntity
  8
枠・表
  6
CONTINUOUS
 62
     6
100
AcDbLine
 10
125.0
 20
255.0
 30
0.0
 11
195.0
 21
255.0
 31
0.0
  0
TEXT
  5
CF
100
AcDbEntity
  8
枠・表
  6
CONTINUOUS
 62
     2
100
AcDbText
 10
126.0
 20
217.25
 30
0.0
 40
4.0
  1
ＮＬ２１１－４２０ＷＹ
 41
0.582273
  7
EXCADSTD
 72
     5
 11
156.5
 21
217.25
 31
0.0
100
AcDbText
  0
LINE
  5
D0
100
AcDbEntity
  8
枠・表
  6
CONTINUOUS
 62
     6
100
AcDbLine
 10
125.0
 20
266.0
 30
0.0
 11
195.0
 21
266.0
 31
0.0
  0
TEXT
  5
D1
100
AcDbEntity
  8
枠・表
  6
CONTINUOUS
 62
     2
100
AcDbText
 10
126.0
 20
266.75
 30
0.0
 40
4.0
  1
ＬＵＭ６０２ＣＳ
 41
0.588
  7
EXCADSTD
 72
     5
 11
148.4
 21
266.75
 31
0.0
100
AcDbText
  0
TEXT
  5
D2
100
AcDbEntity
  8
枠・表
  6
CONTINUOUS
 62
     2
100
AcDbText
 10
156.0
 20
266.75
 30
0.0
 40
4.0
  1
化粧鏡
 41
0.77
  7
EXCADSTD
 72
     5
 11
167.0
 21
266.75
 31
0.0
100
AcDbText
  0
LINE
  5
D3
100
AcDbEntity
  8
枠・表
  6
CONTINUOUS
 62
     6
100
AcDbLine
 10
125.0
 20
271.5
 30
0.0
 11
195.0
 21
271.5
 31
0.0
  0
LINE
  5
D4
100
AcDbEntity
  8
枠・表
  6
CONTINUOUS
 62
     6
100
AcDbLine
 10
125.0
 20
266.0
 30
0.0
 11
125.0
 21
282.5
 31
0.0
  0
LINE
  5
D5
100
AcDbEntity
  8
枠・表
  6
CONTINUOUS
 62
     6
100
AcDbLine
 10
155.0
 20
266.0
 30
0.0
 11
155.0
 21
282.5
 31
0.0
  0
LINE
  5
D6
100
AcDbEntity
  8
枠・表
  6
CONTINUOUS
 62
     6
100
AcDbLine
 10
195.0
 20
266.0
 30
0.0
 11
195.0
 21
282.5
 31
0.0
  0
TEXT
  5
D7
100
AcDbEntity
  8
枠・表
  6
CONTINUOUS
 62
     2
100
AcDbText
 10
84.1
 20
28.5
 30
0.0
 40
5.0
  1
600㎜幅
 41
0.72072
  7
EXCADSTD
 72
     5
 11
103.35
 21
28.5
 31
0.0
100
AcDbText
  0
TEXT
  5
D8
100
AcDbEntity
  8
枠・表
  6
CONTINUOUS
 62
     2
100
AcDbText
 10
84.1
 20
23.5
 30
0.0
 40
5.0
  1
　洗面化粧ユニット
 41
0.924
  7
EXCADSTD
 72
     5
 11
133.6
 21
23.5
 31
0.0
100
AcDbText
  0
TEXT
  5
D9
100
AcDbEntity
  8
枠・表
  6
CONTINUOUS
 62
     2
100
AcDbText
 10
145.0
 20
28.5
 30
0.0
 40
5.0
  1
ＬＵ６０２ＴＳＤＲ型 
 41
0.6048
  7
EXCADSTD
 72
     5
 11
181.0
 21
28.5
 31
0.0
100
AcDbText
  0
TEXT
  5
DA
100
AcDbEntity
  8
枠・表
  6
CONTINUOUS
 62
     2
100
AcDbText
 10
145.0
 20
23.5
 30
0.0
 40
5.0
  1
ＬＵＭ６０２ＣＳ
 41
0.609
  7
EXCADSTD
 72
     5
 11
174.0
 21
23.5
 31
0.0
100
AcDbText
  0
TEXT
  5
DB
100
AcDbEntity
  8
枠・表
  6
CONTINUOUS
 62
     2
100
AcDbText
 10
29.675
 20
13.0
 30
0.0
 40
4.0
  1
5
 41
0.5625
  7
EXCADSTD
 72
     5
 11
31.1375
 21
13.0
 31
0.0
100
AcDbText
  0
TEXT
  5
DC
100
AcDbEntity
  8
枠・表
  6
CONTINUOUS
 62
     2
100
AcDbText
 10
23.5
 20
13.0
 30
0.0
 40
4.0
  1
11
 41
0.5
  7
EXCADSTD
 72
     5
 11
26.7
 21
13.0
 31
0.0
100
AcDbText
  0
TEXT
  5
DD
100
AcDbEntity
  8
枠・表
  6
CONTINUOUS
 62
     2
100
AcDbText
 10
126.0
 20
228.25
 30
0.0
 40
4.0
  1
ＬＵＭＥＨ７０－２０－３２Ｂ
 41
0.474
  7
EXCADSTD
 72
     5
 11
157.6
 21
228.25
 31
0.0
100
AcDbText
  0
TEXT
  5
DE
100
AcDbEntity
  8
枠・表
  6
CONTINUOUS
 62
     7
100
AcDbText
 10
145.2
 20
14.15
 30
0.0
 40
7.0
  1
ＬＵ２１６４７１
 41
0.804
  7
EXCADSTD
 72
     5
 11
198.8
 21
14.15
 31
0.0
100
AcDbText
  0
POLYLINE
  5
DF
100
AcDbEntity
  8
化粧台
  6
CONTINUOUS
 62
     3
100
AcDb2dPolyline
 66
     1
 10
0.0
 20
0.0
 30
0.0
 70
   128
  0
VERTEX
  5
E0
100
AcDbEntity
  8
化粧台
  6
CONTINUOUS
 62
     3
100
AcDbVertex
100
AcDb2dVertex
 10
1602.0
 20
3919.0
 30
0.0
  0
VERTEX
  5
E1
100
AcDbEntity
  8
化粧台
  6
CONTINUOUS
 62
     3
100
AcDbVertex
100
AcDb2dVertex
 10
1625.0
 20
3869.5
 30
0.0
  0
SEQEND
  5
E2
100
AcDbEntity
  8
化粧台
  6
CONTINUOUS
 62
     3
  0
LINE
  5
E3
100
AcDbEntity
  8
化粧台
  6
CONTINUOUS
 62
     3
100
AcDbLine
 10
1627.763749
 20
3881.350575
 30
0.0
 11
1602.0
 21
3919.0
 31
0.0
  0
LINE
  5
E4
100
AcDbEntity
  8
化粧台
  6
CONTINUOUS
 62
     3
100
AcDbLine
 10
1602.0
 20
3919.0
 30
0.0
 11
1614.16049
 21
3875.029868
 31
0.0
  0
POLYLINE
  5
E5
100
AcDbEntity
  8
化粧台
  6
CONTINUOUS
 62
     3
100
AcDb2dPolyline
 66
     1
 10
0.0
 20
0.0
 30
0.0
 70
   128
  0
VERTEX
  5
E6
100
AcDbEntity
  8
化粧台
  6
CONTINUOUS
 62
     3
100
AcDbVertex
100
AcDb2dVertex
 10
2450.0
 20
2854.0
 30
0.0
  0
VERTEX
  5
E7
100
AcDbEntity
  8
化粧台
  6
CONTINUOUS
 62
     3
100
AcDbVertex
100
AcDb2dVertex
 10
2404.0
 20
2874.0
 30
0.0
  0
SEQEND
  5
E8
100
AcDbEntity
  8
化粧台
  6
CONTINUOUS
 62
     3
  0
LINE
  5
E9
100
AcDbEntity
  8
化粧台
  6
CONTINUOUS
 62
     3
100
AcDbLine
 10
2405.741402
 20
2865.06465
 30
0.0
 11
2450.0
 21
2854.0
 31
0.0
  0
LINE
  5
EA
100
AcDbEntity
  8
化粧台
  6
CONTINUOUS
 62
     3
100
AcDbLine
 10
2450.0
 20
2854.0
 30
0.0
 11
2411.722293
 21
2878.8207
 31
0.0
  0
POLYLINE
  5
EB
100
AcDbEntity
  8
化粧台
  6
CONTINUOUS
 62
     3
100
AcDb2dPolyline
 66
     1
 10
0.0
 20
0.0
 30
0.0
 70
   128
  0
VERTEX
  5
EC
100
AcDbEntity
  8
化粧台
  6
CONTINUOUS
 62
     3
100
AcDbVertex
100
AcDb2dVertex
 10
1948.0
 20
875.0
 30
0.0
  0
VERTEX
  5
ED
100
AcDbEntity
  8
化粧台
  6
CONTINUOUS
 62
     3
100
AcDbVertex
100
AcDb2dVertex
 10
1929.0
 20
924.0
 30
0.0
  0
SEQEND
  5
EE
100
AcDbEntity
  8
化粧台
  6
CONTINUOUS
 62
     3
  0
LINE
  5
EF
100
AcDbEntity
  8
化粧台
  6
CONTINUOUS
 62
     3
100
AcDbLine
 10
1924.738537
 20
914.2448
 30
0.0
 11
1948.0
 21
875.0
 31
0.0
  0
LINE
  5
F0
100
AcDbEntity
  8
化粧台
  6
CONTINUOUS
 62
     3
100
AcDbLine
 10
1948.0
 20
875.0
 30
0.0
 11
1938.723956
 21
919.667718
 31
0.0
  0
LINE
  5
F1
100
AcDbEntity
  8
化粧台
  6
CONTINUOUS
 62
     2
100
AcDbLine
 10
672.0
 20
1125.0
 30
0.0
 11
1168.0
 21
1125.0
 31
0.0
  0
LINE
  5
F2
100
AcDbEntity
  8
化粧台
  6
CONTINUOUS
 62
     2
100
AcDbLine
 10
672.0
 20
1525.0
 30
0.0
 11
1168.0
 21
1525.0
 31
0.0
  0
LINE
  5
F3
100
AcDbEntity
  8
化粧台
  6
CONTINUOUS
 62
     2
100
AcDbLine
 10
620.0
 20
1575.0
 30
0.0
 11
1220.0
 21
1575.0
 31
0.0
  0
CIRCLE
  5
F4
100
AcDbEntity
  8
化粧台
  6
CONTINUOUS
 62
     2
100
AcDbCircle
 10
1088.0
 20
1495.0
 30
0.0
 40
5.0
  0
LINE
  5
F5
100
AcDbEntity
  8
化粧台
  6
CONTINUOUS
 62
     6
100
AcDbLine
 10
1075.0
 20
1495.0
 30
0.0
 11
1101.0
 21
1495.0
 31
0.0
  0
LINE
  5
F6
100
AcDbEntity
  8
化粧台
  6
CONTINUOUS
 62
     6
100
AcDbLine
 10
1088.0
 20
1508.0
 30
0.0
 11
1088.0
 21
1482.0
 31
0.0
  0
LINE
  5
F7
100
AcDbEntity
  8
化粧台
  6
CONTINUOUS
 62
     6
100
AcDbLine
 10
1209.414214
 20
1565.0
 30
0.0
 11
1168.0
 21
1523.585786
 31
0.0
  0
LINE
  5
F8
100
AcDbEntity
  8
化粧台
  6
CONTINUOUS
 62
     6
100
AcDbLine
 10
1218.0
 20
1565.0
 30
0.0
 11
1209.414214
 21
1565.0
 31
0.0
  0
LINE
  5
F9
100
AcDbEntity
  8
化粧台
  6
CONTINUOUS
 62
     2
100
AcDbLine
 10
1168.0
 20
1525.0
 30
0.0
 11
1209.0
 21
1566.0
 31
0.0
  0
LINE
  5
FA
100
AcDbEntity
  8
化粧台
  6
CONTINUOUS
 62
     2
100
AcDbLine
 10
1209.0
 20
1566.0
 30
0.0
 11
1220.0
 21
1566.0
 31
0.0
  0
LINE
  5
FB
100
AcDbEntity
  8
化粧台
  6
CONTINUOUS
 62
     2
100
AcDbLine
 10
1168.0
 20
1525.0
 30
0.0
 11
1168.0
 21
875.0
 31
0.0
  0
LINE
  5
FC
100
AcDbEntity
  8
化粧台
  6
CONTINUOUS
 62
     2
100
AcDbLine
 10
1218.0
 20
1566.0
 30
0.0
 11
1218.0
 21
875.0
 31
0.0
  0
LINE
  5
FD
100
AcDbEntity
  8
化粧台
  6
CONTINUOUS
 62
     2
100
AcDbLine
 10
1168.0
 20
875.0
 30
0.0
 11
1218.0
 21
875.0
 31
0.0
  0
LINE
  5
FE
100
AcDbEntity
  8
化粧台
  6
CONTINUOUS
 62
     2
100
AcDbLine
 10
1220.0
 20
1575.0
 30
0.0
 11
1220.0
 21
1566.0
 31
0.0
  0
CIRCLE
  5
FF
100
AcDbEntity
  8
化粧台
  6
CONTINUOUS
 62
     2
100
AcDbCircle
 10
752.0
 20
1495.0
 30
0.0
 40
5.0
  0
LINE
  5
100
100
AcDbEntity
  8
化粧台
  6
CONTINUOUS
 62
     6
100
AcDbLine
 10
765.0
 20
1495.0
 30
0.0
 11
739.0
 21
1495.0
 31
0.0
  0
LINE
  5
101
100
AcDbEntity
  8
化粧台
  6
CONTINUOUS
 62
     6
100
AcDbLine
 10
752.0
 20
1508.0
 30
0.0
 11
752.0
 21
1482.0
 31
0.0
  0
LINE
  5
102
100
AcDbEntity
  8
化粧台
  6
CONTINUOUS
 62
     6
100
AcDbLine
 10
630.585786
 20
1565.0
 30
0.0
 11
622.0
 21
1565.0
 31
0.0
  0
LINE
  5
103
100
AcDbEntity
  8
化粧台
  6
CONTINUOUS
 62
     6
100
AcDbLine
 10
672.0
 20
1523.585786
 30
0.0
 11
630.585786
 21
1565.0
 31
0.0
  0
LINE
  5
104
100
AcDbEntity
  8
化粧台
  6
CONTINUOUS
 62
     2
100
AcDbLine
 10
672.0
 20
1525.0
 30
0.0
 11
631.0
 21
1566.0
 31
0.0
  0
LINE
  5
105
100
AcDbEntity
  8
化粧台
  6
CONTINUOUS
 62
     2
100
AcDbLine
 10
631.0
 20
1566.0
 30
0.0
 11
620.0
 21
1566.0
 31
0.0
  0
LINE
  5
106
100
AcDbEntity
  8
化粧台
  6
CONTINUOUS
 62
     2
100
AcDbLine
 10
672.0
 20
1525.0
 30
0.0
 11
672.0
 21
875.0
 31
0.0
  0
LINE
  5
107
100
AcDbEntity
  8
化粧台
  6
CONTINUOUS
 62
     2
100
AcDbLine
 10
622.0
 20
1566.0
 30
0.0
 11
622.0
 21
875.0
 31
0.0
  0
LINE
  5
108
100
AcDbEntity
  8
化粧台
  6
CONTINUOUS
 62
     2
100
AcDbLine
 10
672.0
 20
875.0
 30
0.0
 11
622.0
 21
875.0
 31
0.0
  0
LINE
  5
109
100
AcDbEntity
  8
化粧台
  6
CONTINUOUS
 62
     2
100
AcDbLine
 10
620.0
 20
1575.0
 30
0.0
 11
620.0
 21
1566.0
 31
0.0
  0
LINE
  5
10A
100
AcDbEntity
  8
化粧台
  6
EXLTYPE3
 62
     6
100
AcDbLine
 10
2192.0
 20
1585.0
 30
0.0
 11
2192.0
 21
1332.0
 31
0.0
  0
LINE
  5
10B
100
AcDbEntity
  8
化粧台
  6
EXLTYPE2
 62
     6
100
AcDbLine
 10
2020.0
 20
1525.0
 30
0.0
 11
2450.0
 21
1525.0
 31
0.0
  0
LINE
  5
10C
100
AcDbEntity
  8
化粧台
  6
CONTINUOUS
 62
     2
100
AcDbLine
 10
2450.0
 20
1575.0
 30
0.0
 11
2020.0
 21
1575.0
 31
0.0
  0
LINE
  5
10D
100
AcDbEntity
  8
化粧台
  6
CONTINUOUS
 62
     2
100
AcDbLine
 10
2020.0
 20
875.0
 30
0.0
 11
2450.0
 21
875.0
 31
0.0
  0
LINE
  5
10E
100
AcDbEntity
  8
化粧台
  6
CONTINUOUS
 62
     2
100
AcDbLine
 10
2020.0
 20
1575.0
 30
0.0
 11
2020.0
 21
875.0
 31
0.0
  0
LINE
  5
10F
100
AcDbEntity
  8
化粧台
  6
CONTINUOUS
 62
     6
100
AcDbLine
 10
2448.5
 20
1375.5
 30
0.0
 11
2473.5
 21
1375.5
 31
0.0
  0
LINE
  5
110
100
AcDbEntity
  8
化粧台
  6
CONTINUOUS
 62
     6
100
AcDbLine
 10
2473.5
 20
1324.5
 30
0.0
 11
2473.5
 21
1375.5
 31
0.0
  0
LINE
  5
111
100
AcDbEntity
  8
化粧台
  6
CONTINUOUS
 62
     6
100
AcDbLine
 10
2448.5
 20
1324.5
 30
0.0
 11
2473.5
 21
1324.5
 31
0.0
  0
LINE
  5
112
100
AcDbEntity
  8
化粧台
  6
EXLTYPE2
 62
     6
100
AcDbLine
 10
2431.4
 20
1125.0
 30
0.0
 11
2448.9
 21
1125.0
 31
0.0
  0
LINE
  5
113
100
AcDbEntity
  8
化粧台
  6
EXLTYPE2
 62
     6
100
AcDbLine
 10
2431.4
 20
1525.0
 30
0.0
 11
2431.4
 21
1125.0
 31
0.0
  0
LINE
  5
114
100
AcDbEntity
  8
化粧台
  6
EXLTYPE3
 62
     6
100
AcDbLine
 10
2483.5
 20
1350.0
 30
0.0
 11
2306.0
 21
1350.0
 31
0.0
  0
ARC
  5
115
100
AcDbEntity
  8
化粧台
  6
EXLTYPE2
 62
     6
100
AcDbCircle
 10
2254.0
 20
1305.0
 30
0.0
 40
10.0
100
AcDbArc
 50
143.130102
 51
216.869898
  0
ARC
  5
116
100
AcDbEntity
  8
化粧台
  6
EXLTYPE2
 62
     6
100
AcDbCircle
 10
2282.0
 20
1305.0
 30
0.0
 40
10.0
100
AcDbArc
 50
323.130102
 51
36.869898
  0
LINE
  5
117
100
AcDbEntity
  8
化粧台
  6
EXLTYPE2
 62
     6
100
AcDbLine
 10
2246.0
 20
1299.0
 30
0.0
 11
2290.0
 21
1299.0
 31
0.0
  0
LINE
  5
118
100
AcDbEntity
  8
化粧台
  6
EXLTYPE2
 62
     6
100
AcDbLine
 10
2246.0
 20
1311.0
 30
0.0
 11
2290.0
 21
1311.0
 31
0.0
  0
ELLIPSE
  5
119
100
AcDbEntity
  8
化粧台
  6
EXLTYPE2
 62
     6
100
AcDbEllipse
 10
2286.643432
 20
1305.0
 30
0.0
 11
0.0000000000000004
 21
6.0000475440321521
 31
0.0
210
0.0
220
0.0
230
1.0
 40
0.892754
 41
0.0
 42
6.2831853071796004
  0
ELLIPSE
  5
11A
100
AcDbEntity
  8
化粧台
  6
EXLTYPE2
 62
     6
100
AcDbEllipse
 10
2268.0
 20
1305.0
 30
0.0
 11
10.665364503850013
 21
0.0
 31
0.0
210
0.0
220
0.0
230
1.0
 40
0.562569
 41
0.0
 42
6.2831853071796004
  0
ELLIPSE
  5
11B
100
AcDbEntity
  8
化粧台
  6
EXLTYPE2
 62
     6
100
AcDbEllipse
 10
2249.356568
 20
1305.0
 30
0.0
 11
0.0000000000000004
 21
6.0000475440321903
 31
0.0
210
0.0
220
0.0
230
1.0
 40
0.892754
 41
0.0
 42
6.2831853071796004
  0
LINE
  5
11C
100
AcDbEntity
  8
化粧台
  6
EXLTYPE2
 62
     6
100
AcDbLine
 10
2252.0
 20
1299.0
 30
0.0
 11
2252.0
 21
1296.0
 31
0.0
  0
LINE
  5
11D
100
AcDbEntity
  8
化粧台
  6
EXLTYPE2
 62
     6
100
AcDbLine
 10
2284.0
 20
1299.0
 30
0.0
 11
2284.0
 21
1296.0
 31
0.0
  0
LINE
  5
11E
100
AcDbEntity
  8
化粧台
  6
EXLTYPE2
 62
     6
100
AcDbLine
 10
2306.0
 20
1334.0
 30
0.0
 11
2389.9
 21
1334.0
 31
0.0
  0
LINE
  5
11F
100
AcDbEntity
  8
化粧台
  6
EXLTYPE2
 62
     6
100
AcDbLine
 10
2306.0
 20
1366.0
 30
0.0
 11
2389.9
 21
1366.0
 31
0.0
  0
LINE
  5
120
100
AcDbEntity
  8
化粧台
  6
EXLTYPE2
 62
     6
100
AcDbLine
 10
2443.5
 20
1330.0
 30
0.0
 11
2446.5
 21
1330.0
 31
0.0
  0
LINE
  5
121
100
AcDbEntity
  8
化粧台
  6
EXLTYPE2
 62
     6
100
AcDbLine
 10
2443.5
 20
1370.0
 30
0.0
 11
2446.5
 21
1370.0
 31
0.0
  0
LINE
  5
122
100
AcDbEntity
  8
化粧台
  6
EXLTYPE2
 62
     6
100
AcDbLine
 10
2446.5
 20
1380.0
 30
0.0
 11
2448.5
 21
1380.0
 31
0.0
  0
LINE
  5
123
100
AcDbEntity
  8
化粧台
  6
EXLTYPE2
 62
     6
100
AcDbLine
 10
2446.5
 20
1320.0
 30
0.0
 11
2448.5
 21
1320.0
 31
0.0
  0
LINE
  5
124
100
AcDbEntity
  8
化粧台
  6
EXLTYPE2
 62
     6
100
AcDbLine
 10
2446.5
 20
1320.0
 30
0.0
 11
2446.5
 21
1380.0
 31
0.0
  0
LINE
  5
125
100
AcDbEntity
  8
化粧台
  6
EXLTYPE2
 62
     6
100
AcDbLine
 10
2448.5
 20
1320.0
 30
0.0
 11
2448.5
 21
1380.0
 31
0.0
  0
LINE
  5
126
100
AcDbEntity
  8
化粧台
  6
EXLTYPE2
 62
     6
100
AcDbLine
 10
2443.5
 20
1328.0
 30
0.0
 11
2443.5
 21
1372.0
 31
0.0
  0
LINE
  5
127
100
AcDbEntity
  8
化粧台
  6
EXLTYPE2
 62
     6
100
AcDbLine
 10
2431.5
 20
1328.0
 30
0.0
 11
2431.5
 21
1372.0
 31
0.0
  0
ELLIPSE
  5
128
100
AcDbEntity
  8
化粧台
  6
EXLTYPE2
 62
     6
100
AcDbEllipse
 10
2437.5
 20
1331.356568
 30
0.0
 11
-6.0000475440321903
 21
-0.0000000000000046
 31
0.0
210
0.0
220
0.0
230
1.0
 40
0.892754
 41
0.0
 42
6.2831853071796004
  0
ELLIPSE
  5
129
100
AcDbEntity
  8
化粧台
  6
EXLTYPE2
 62
     6
100
AcDbEllipse
 10
2437.5
 20
1350.0
 30
0.0
 11
-0.0000000000000065
 21
10.665364503850013
 31
0.0
210
0.0
220
0.0
230
1.0
 40
0.562569
 41
0.0
 42
6.2831853071796004
  0
ELLIPSE
  5
12A
100
AcDbEntity
  8
化粧台
  6
EXLTYPE2
 62
     6
100
AcDbEllipse
 10
2437.5
 20
1368.643432
 30
0.0
 11
-6.0000475440321521
 21
-0.0000000000000046
 31
0.0
210
0.0
220
0.0
230
1.0
 40
0.892754
 41
0.0
 42
6.2831853071796004
  0
ARC
  5
12B
100
AcDbEntity
  8
化粧台
  6
EXLTYPE2
 62
     6
100
AcDbCircle
 10
2437.5
 20
1364.0
 30
0.0
 40
10.0
100
AcDbArc
 50
53.130102
 51
126.869898
  0
ARC
  5
12C
100
AcDbEntity
  8
化粧台
  6
EXLTYPE2
 62
     6
100
AcDbCircle
 10
2437.5
 20
1336.0
 30
0.0
 40
10.0
100
AcDbArc
 50
233.130102
 51
306.869898
  0
LINE
  5
12D
100
AcDbEntity
  8
化粧台
  6
EXLTYPE2
 62
     6
100
AcDbLine
 10
2400.90299
 20
1317.0
 30
0.0
 11
2429.9
 21
1317.0
 31
0.0
  0
LINE
  5
12E
100
AcDbEntity
  8
化粧台
  6
EXLTYPE2
 62
     6
100
AcDbLine
 10
2400.90299
 20
1383.0
 30
0.0
 11
2429.9
 21
1383.0
 31
0.0
  0
LINE
  5
12F
100
AcDbEntity
  8
化粧台
  6
EXLTYPE2
 62
     6
100
AcDbLine
 10
2429.9
 20
1383.0
 30
0.0
 11
2429.9
 21
1317.0
 31
0.0
  0
ARC
  5
130
100
AcDbEntity
  8
化粧台
  6
EXLTYPE2
 62
     6
100
AcDbCircle
 10
2400.90299
 20
1328.002992
 30
0.0
 40
11.002992
100
AcDbArc
 50
180.0
 51
270.0
  0
ARC
  5
131
100
AcDbEntity
  8
化粧台
  6
EXLTYPE2
 62
     6
100
AcDbCircle
 10
2400.90299
 20
1371.997008
 30
0.0
 40
11.002992
100
AcDbArc
 50
90.0
 51
180.0
  0
LINE
  5
132
100
AcDbEntity
  8
化粧台
  6
EXLTYPE2
 62
     6
100
AcDbLine
 10
2389.9
 20
1371.997008
 30
0.0
 11
2389.9
 21
1328.002992
 31
0.0
  0
ARC
  5
133
100
AcDbEntity
  8
化粧台
  6
EXLTYPE2
 62
     6
100
AcDbCircle
 10
2306.0
 20
1312.0
 30
0.0
 40
22.0
100
AcDbArc
 50
90.0
 51
182.605251
  0
ARC
  5
134
100
AcDbEntity
  8
化粧台
  6
EXLTYPE2
 62
     6
100
AcDbCircle
 10
2306.0
 20
1312.0
 30
0.0
 40
54.0
100
AcDbArc
 50
90.0
 51
181.061094
  0
ARC
  5
135
100
AcDbEntity
  8
化粧台
  6
EXLTYPE2
 62
     6
100
AcDbCircle
 10
2178.0
 20
1388.0
 30
0.0
 40
10.0
100
AcDbArc
 50
143.130102
 51
216.869898
  0
ARC
  5
136
100
AcDbEntity
  8
化粧台
  6
EXLTYPE2
 62
     6
100
AcDbCircle
 10
2206.0
 20
1388.0
 30
0.0
 40
10.0
100
AcDbArc
 50
323.130102
 51
36.869898
  0
LINE
  5
137
100
AcDbEntity
  8
化粧台
  6
EXLTYPE2
 62
     6
100
AcDbLine
 10
2170.0
 20
1382.0
 30
0.0
 11
2214.0
 21
1382.0
 31
0.0
  0
ELLIPSE
  5
138
100
AcDbEntity
  8
化粧台
  6
EXLTYPE2
 62
     6
100
AcDbEllipse
 10
2210.643432
 20
1388.0
 30
0.0
 11
0.0000000000000004
 21
6.0000475440321521
 31
0.0
210
0.0
220
0.0
230
1.0
 40
0.892754
 41
0.0
 42
6.2831853071796004
  0
ELLIPSE
  5
139
100
AcDbEntity
  8
化粧台
  6
EXLTYPE2
 62
     6
100
AcDbEllipse
 10
2192.0
 20
1388.0
 30
0.0
 11
10.665364503850013
 21
0.0
 31
0.0
210
0.0
220
0.0
230
1.0
 40
0.562569
 41
0.0
 42
6.2831853071796004
  0
ELLIPSE
  5
13A
100
AcDbEntity
  8
化粧台
  6
EXLTYPE2
 62
     6
100
AcDbEllipse
 10
2173.356568
 20
1388.0
 30
0.0
 11
0.0000000000000004
 21
6.0000475440321903
 31
0.0
210
0.0
220
0.0
230
1.0
 40
0.892754
 41
0.0
 42
6.2831853071796004
  0
LINE
  5
13B
100
AcDbEntity
  8
化粧台
  6
EXLTYPE2
 62
     6
100
AcDbLine
 10
2175.25
 20
1382.0
 30
0.0
 11
2175.25
 21
1332.774886
 31
0.0
  0
LINE
  5
13C
100
AcDbEntity
  8
化粧台
  6
EXLTYPE2
 62
     6
100
AcDbLine
 10
2208.75
 20
1382.0
 30
0.0
 11
2208.75
 21
1332.774886
 31
0.0
  0
LINE
  5
13D
100
AcDbEntity
  8
化粧台
  6
EXLTYPE2
 62
     6
100
AcDbLine
 10
2208.75
 20
1332.774886
 30
0.0
 11
2208.0
 21
1332.024886
 31
0.0
  0
LINE
  5
13E
100
AcDbEntity
  8
化粧台
  6
EXLTYPE2
 62
     6
100
AcDbLine
 10
2175.25
 20
1332.774886
 30
0.0
 11
2176.0
 21
1332.024886
 31
0.0
  0
LINE
  5
13F
100
AcDbEntity
  8
化粧台
  6
EXLTYPE2
 62
     6
100
AcDbLine
 10
2176.0
 20
1332.399886
 30
0.0
 11
2208.0
 21
1332.399886
 31
0.0
  0
ARC
  5
140
100
AcDbEntity
  8
化粧台
  6
EXLTYPE2
 62
     6
100
AcDbCircle
 10
2230.0
 20
1296.0
 30
0.0
 40
54.0
100
AcDbArc
 50
180.0
 51
0.0
  0
ARC
  5
141
100
AcDbEntity
  8
化粧台
  6
EXLTYPE2
 62
     6
100
AcDbCircle
 10
2230.0
 20
1296.0
 30
0.0
 40
22.0
100
AcDbArc
 50
180.0
 51
0.0
  0
LINE
  5
142
100
AcDbEntity
  8
化粧台
  6
EXLTYPE2
 62
     6
100
AcDbLine
 10
2208.0
 20
1332.024886
 30
0.0
 11
2208.0
 21
1296.0
 31
0.0
  0
LINE
  5
143
100
AcDbEntity
  8
化粧台
  6
EXLTYPE2
 62
     6
100
AcDbLine
 10
2176.0
 20
1332.024886
 30
0.0
 11
2176.0
 21
1296.0
 31
0.0
  0
LINE
  5
144
100
AcDbEntity
  8
化粧台
  6
EXLTYPE2
 62
     6
100
AcDbLine
 10
2170.0
 20
1394.0
 30
0.0
 11
2214.0
 21
1394.0
 31
0.0
  0
LINE
  5
145
100
AcDbEntity
  8
化粧台
  6
EXLTYPE4
 62
     6
100
AcDbLine
 10
2380.5
 20
1075.0
 30
0.0
 11
2380.5
 21
867.0
 31
0.0
  0
LINE
  5
146
100
AcDbEntity
  8
化粧台
  6
EXLTYPE4
 62
     6
100
AcDbLine
 10
2359.5
 20
1075.0
 30
0.0
 11
2359.5
 21
867.0
 31
0.0
  0
LINE
  5
147
100
AcDbEntity
  8
化粧台
  6
EXLTYPE3
 62
     6
100
AcDbLine
 10
2370.0
 20
1085.0
 30
0.0
 11
2370.0
 21
857.0
 31
0.0
  0
LINE
  5
148
100
AcDbEntity
  8
化粧台
  6
EXLTYPE3
 62
     6
100
AcDbLine
 10
2320.0
 20
1085.0
 30
0.0
 11
2320.0
 21
835.0
 31
0.0
  0
LINE
  5
149
100
AcDbEntity
  8
化粧台
  6
EXLTYPE4
 62
     6
100
AcDbLine
 10
2304.0
 20
1075.0
 30
0.0
 11
2304.0
 21
845.0
 31
0.0
  0
LINE
  5
14A
100
AcDbEntity
  8
化粧台
  6
EXLTYPE4
 62
     6
100
AcDbLine
 10
2336.0
 20
1075.0
 30
0.0
 11
2336.0
 21
845.0
 31
0.0
  0
LINE
  5
14B
100
AcDbEntity
  8
化粧台
  6
CONTINUOUS
 62
     6
100
AcDbLine
 10
2304.0
 20
845.0
 30
0.0
 11
2336.0
 21
845.0
 31
0.0
  0
LINE
  5
14C
100
AcDbEntity
  8
化粧台
  6
CONTINUOUS
 62
     6
100
AcDbLine
 10
2380.5
 20
867.0
 30
0.0
 11
2359.5
 21
867.0
 31
0.0
  0
LINE
  5
14D
100
AcDbEntity
  8
化粧台
  6
EXLTYPE3
 62
     6
100
AcDbLine
 10
2317.5
 20
1420.0
 30
0.0
 11
2488.5
 21
1420.0
 31
0.0
  0
LINE
  5
14E
100
AcDbEntity
  8
化粧台
  6
EXLTYPE4
 62
     6
100
AcDbLine
 10
2327.5
 20
1404.0
 30
0.0
 11
2478.5
 21
1404.0
 31
0.0
  0
LINE
  5
14F
100
AcDbEntity
  8
化粧台
  6
EXLTYPE4
 62
     6
100
AcDbLine
 10
2327.5
 20
1436.0
 30
0.0
 11
2478.5
 21
1436.0
 31
0.0
  0
LINE
  5
150
100
AcDbEntity
  8
化粧台
  6
CONTINUOUS
 62
     6
100
AcDbLine
 10
2478.5
 20
1404.0
 30
0.0
 11
2478.5
 21
1436.0
 31
0.0
  0
LINE
  5
151
100
AcDbEntity
  8
化粧台
  6
EXLTYPE2
 62
     6
100
AcDbLine
 10
2247.5
 20
1525.5
 30
0.0
 11
2242.5
 21
1525.5
 31
0.0
  0
LINE
  5
152
100
AcDbEntity
  8
化粧台
  6
EXLTYPE2
 62
     6
100
AcDbLine
 10
2176.0
 20
1518.0
 30
0.0
 11
2172.0
 21
1520.0
 31
0.0
  0
LINE
  5
153
100
AcDbEntity
  8
化粧台
  6
EXLTYPE2
 62
     6
100
AcDbLine
 10
2208.0
 20
1518.0
 30
0.0
 11
2212.0
 21
1520.0
 31
0.0
  0
LINE
  5
154
100
AcDbEntity
  8
化粧台
  6
EXLTYPE2
 62
     6
100
AcDbLine
 10
2208.0
 20
1518.0
 30
0.0
 11
2176.0
 21
1518.0
 31
0.0
  0
LINE
  5
155
100
AcDbEntity
  8
化粧台
  6
EXLTYPE2
 62
     6
100
AcDbLine
 10
2212.0
 20
1520.0
 30
0.0
 11
2172.0
 21
1520.0
 31
0.0
  0
LINE
  5
156
100
AcDbEntity
  8
化粧台
  6
EXLTYPE2
 62
     6
100
AcDbLine
 10
2212.0
 20
1523.821608
 30
0.0
 11
2212.0
 21
1520.0
 31
0.0
  0
ARC
  5
157
100
AcDbEntity
  8
化粧台
  6
EXLTYPE2
 62
     6
100
AcDbCircle
 10
2215.0
 20
1523.821608
 30
0.0
 40
3.0
100
AcDbArc
 50
96.483074
 51
180.0
  0
LINE
  5
158
100
AcDbEntity
  8
化粧台
  6
EXLTYPE2
 62
     6
100
AcDbLine
 10
2214.661264
 20
1526.802424
 30
0.0
 11
2234.0
 21
1529.0
 31
0.0
  0
LINE
  5
159
100
AcDbEntity
  8
化粧台
  6
EXLTYPE2
 62
     6
100
AcDbLine
 10
2263.0
 20
1526.0
 30
0.0
 11
2254.0
 21
1526.0
 31
0.0
  0
ARC
  5
15A
100
AcDbEntity
  8
化粧台
  6
EXLTYPE2
 62
     6
100
AcDbCircle
 10
2263.0
 20
1529.0
 30
0.0
 40
3.0
100
AcDbArc
 50
270.0
 51
0.0
  0
LINE
  5
15B
100
AcDbEntity
  8
化粧台
  6
EXLTYPE2
 62
     6
100
AcDbLine
 10
2254.0
 20
1525.0
 30
0.0
 11
2247.5
 21
1525.0
 31
0.0
  0
LINE
  5
15C
100
AcDbEntity
  8
化粧台
  6
EXLTYPE2
 62
     6
100
AcDbLine
 10
2242.5
 20
1526.5
 30
0.0
 11
2234.0
 21
1526.5
 31
0.0
  0
LINE
  5
15D
100
AcDbEntity
  8
化粧台
  6
EXLTYPE2
 62
     6
100
AcDbLine
 10
2207.875
 20
1518.0
 30
0.0
 11
2207.875
 21
1394.0
 31
0.0
  0
LINE
  5
15E
100
AcDbEntity
  8
化粧台
  6
EXLTYPE2
 62
     6
100
AcDbLine
 10
2176.125
 20
1518.0
 30
0.0
 11
2176.125
 21
1394.0
 31
0.0
  0
LINE
  5
15F
100
AcDbEntity
  8
化粧台
  6
EXLTYPE2
 62
     6
100
AcDbLine
 10
2219.5
 20
1575.0
 30
0.0
 11
2219.5
 21
1573.333333
 31
0.0
  0
LINE
  5
160
100
AcDbEntity
  8
化粧台
  6
EXLTYPE2
 62
     6
100
AcDbLine
 10
2164.5
 20
1575.0
 30
0.0
 11
2164.5
 21
1573.333333
 31
0.0
  0
LINE
  5
161
100
AcDbEntity
  8
化粧台
  6
EXLTYPE2
 62
     6
100
AcDbLine
 10
2371.5
 20
1444.651716
 30
0.0
 11
2347.71466
 21
1575.0
 31
0.0
  0
LINE
  5
162
100
AcDbEntity
  8
化粧台
  6
EXLTYPE2
 62
     6
100
AcDbLine
 10
2334.5
 20
1575.0
 30
0.0
 11
2358.5
 21
1443.475339
 31
0.0
  0
LINE
  5
163
100
AcDbEntity
  8
化粧台
  6
EXLTYPE2
 62
     6
100
AcDbLine
 10
2327.630271
 20
1575.0
 30
0.0
 11
2308.325036
 21
1437.636114
 31
0.0
  0
LINE
  5
164
100
AcDbEntity
  8
化粧台
  6
EXLTYPE2
 62
     6
100
AcDbLine
 10
2314.266644
 20
1436.801075
 30
0.0
 11
2333.689237
 21
1575.0
 31
0.0
  0
LINE
  5
165
100
AcDbEntity
  8
化粧台
  6
EXLTYPE2
 62
     6
100
AcDbLine
 10
2341.981487
 20
1534.0
 30
0.0
 11
2266.0
 21
1534.0
 31
0.0
  0
LINE
  5
166
100
AcDbEntity
  8
化粧台
  6
EXLTYPE2
 62
     6
100
AcDbLine
 10
2387.0
 20
1534.0
 30
0.0
 11
2355.196146
 21
1534.0
 31
0.0
  0
LINE
  5
167
100
AcDbEntity
  8
化粧台
  6
EXLTYPE2
 62
     6
100
AcDbLine
 10
2340.886635
 20
1540.0
 30
0.0
 11
2266.0
 21
1540.0
 31
0.0
  0
LINE
  5
168
100
AcDbEntity
  8
化粧台
  6
EXLTYPE2
 62
     6
100
AcDbLine
 10
2387.0
 20
1540.0
 30
0.0
 11
2354.101295
 21
1540.0
 31
0.0
  0
POLYLINE
  5
169
100
AcDbEntity
  8
化粧台
  6
EXLTYPE2
 62
     6
100
AcDb2dPolyline
 66
     1
 10
0.0
 20
0.0
 30
0.0
 70
   128
  0
VERTEX
  5
16A
100
AcDbEntity
  8
化粧台
  6
EXLTYPE2
 62
     6
100
AcDbVertex
100
AcDb2dVertex
 10
2170.584808
 20
1561.000204
 30
0.0
  0
VERTEX
  5
16B
100
AcDbEntity
  8
化粧台
  6
EXLTYPE2
 62
     6
100
AcDbVertex
100
AcDb2dVertex
 10
2170.596946
 20
1560.7344
 30
0.0
  0
VERTEX
  5
16C
100
AcDbEntity
  8
化粧台
  6
EXLTYPE2
 62
     6
100
AcDbVertex
100
AcDb2dVertex
 10
2170.63174
 20
1560.476546
 30
0.0
  0
VERTEX
  5
16D
100
AcDbEntity
  8
化粧台
  6
EXLTYPE2
 62
     6
100
AcDbVertex
100
AcDb2dVertex
 10
2170.686292
 20
1560.23489
 30
0.0
  0
VERTEX
  5
16E
100
AcDbEntity
  8
化粧台
  6
EXLTYPE2
 62
     6
100
AcDbVertex
100
AcDb2dVertex
 10
2170.757064
 20
1560.0104
 30
0.0
  0
VERTEX
  5
16F
100
AcDbEntity
  8
化粧台
  6
EXLTYPE2
 62
     6
100
AcDbVertex
100
AcDb2dVertex
 10
2170.852764
 20
1559.77821
 30
0.0
  0
VERTEX
  5
170
100
AcDbEntity
  8
化粧台
  6
EXLTYPE2
 62
     6
100
AcDbVertex
100
AcDb2dVertex
 10
2170.961394
 20
1559.568298
 30
0.0
  0
VERTEX
  5
171
100
AcDbEntity
  8
化粧台
  6
EXLTYPE2
 62
     6
100
AcDbVertex
100
AcDb2dVertex
 10
2171.079238
 20
1559.380126
 30
0.0
  0
VERTEX
  5
172
100
AcDbEntity
  8
化粧台
  6
EXLTYPE2
 62
     6
100
AcDbVertex
100
AcDb2dVertex
 10
2171.30821
 20
1559.087612
 30
0.0
  0
VERTEX
  5
173
100
AcDbEntity
  8
化粧台
  6
EXLTYPE2
 62
     6
100
AcDbVertex
100
AcDb2dVertex
 10
2171.552738
 20
1558.84589
 30
0.0
  0
VERTEX
  5
174
100
AcDbEntity
  8
化粧台
  6
EXLTYPE2
 62
     6
100
AcDbVertex
100
AcDb2dVertex
 10
2171.806316
 20
1558.646556
 30
0.0
  0
VERTEX
  5
175
100
AcDbEntity
  8
化粧台
  6
EXLTYPE2
 62
     6
100
AcDbVertex
100
AcDb2dVertex
 10
2172.197242
 20
1558.40519
 30
0.0
  0
VERTEX
  5
176
100
AcDbEntity
  8
化粧台
  6
EXLTYPE2
 62
     6
100
AcDbVertex
100
AcDb2dVertex
 10
2172.59657
 20
1558.220906
 30
0.0
  0
VERTEX
  5
177
100
AcDbEntity
  8
化粧台
  6
EXLTYPE2
 62
     6
100
AcDbVertex
100
AcDb2dVertex
 10
2173.002012
 20
1558.084806
 30
0.0
  0
VERTEX
  5
178
100
AcDbEntity
  8
化粧台
  6
EXLTYPE2
 62
     6
100
AcDbVertex
100
AcDb2dVertex
 10
2173.411284
 20
1557.987986
 30
0.0
  0
VERTEX
  5
179
100
AcDbEntity
  8
化粧台
  6
EXLTYPE2
 62
     6
100
AcDbVertex
100
AcDb2dVertex
 10
2173.822104
 20
1557.921546
 30
0.0
  0
VERTEX
  5
17A
100
AcDbEntity
  8
化粧台
  6
EXLTYPE2
 62
     6
100
AcDbVertex
100
AcDb2dVertex
 10
2174.232184
 20
1557.876586
 30
0.0
  0
VERTEX
  5
17B
100
AcDbEntity
  8
化粧台
  6
EXLTYPE2
 62
     6
100
AcDbVertex
100
AcDb2dVertex
 10
2174.821524
 20
1557.840952
 30
0.0
  0
VERTEX
  5
17C
100
AcDbEntity
  8
化粧台
  6
EXLTYPE2
 62
     6
100
AcDbVertex
100
AcDb2dVertex
 10
2175.411268
 20
1557.841178
 30
0.0
  0
VERTEX
  5
17D
100
AcDbEntity
  8
化粧台
  6
EXLTYPE2
 62
     6
100
AcDbVertex
100
AcDb2dVertex
 10
2176.0006
 20
1557.877296
 30
0.0
  0
VERTEX
  5
17E
100
AcDbEntity
  8
化粧台
  6
EXLTYPE2
 62
     6
100
AcDbVertex
100
AcDb2dVertex
 10
2176.614344
 20
1557.95707
 30
0.0
  0
VERTEX
  5
17F
100
AcDbEntity
  8
化粧台
  6
EXLTYPE2
 62
     6
100
AcDbVertex
100
AcDb2dVertex
 10
2177.22534
 20
1558.095294
 30
0.0
  0
VERTEX
  5
180
100
AcDbEntity
  8
化粧台
  6
EXLTYPE2
 62
     6
100
AcDbVertex
100
AcDb2dVertex
 10
2177.562402
 20
1558.203774
 30
0.0
  0
VERTEX
  5
181
100
AcDbEntity
  8
化粧台
  6
EXLTYPE2
 62
     6
100
AcDbVertex
100
AcDb2dVertex
 10
2177.897218
 20
1558.342582
 30
0.0
  0
VERTEX
  5
182
100
AcDbEntity
  8
化粧台
  6
EXLTYPE2
 62
     6
100
AcDbVertex
100
AcDb2dVertex
 10
2178.226952
 20
1558.519844
 30
0.0
  0
VERTEX
  5
183
100
AcDbEntity
  8
化粧台
  6
EXLTYPE2
 62
     6
100
AcDbVertex
100
AcDb2dVertex
 10
2178.548766
 20
1558.743678
 30
0.0
  0
VERTEX
  5
184
100
AcDbEntity
  8
化粧台
  6
EXLTYPE2
 62
     6
100
AcDbVertex
100
AcDb2dVertex
 10
2178.782716
 20
1558.948528
 30
0.0
  0
VERTEX
  5
185
100
AcDbEntity
  8
化粧台
  6
EXLTYPE2
 62
     6
100
AcDbVertex
100
AcDb2dVertex
 10
2179.006626
 20
1559.193542
 30
0.0
  0
VERTEX
  5
186
100
AcDbEntity
  8
化粧台
  6
EXLTYPE2
 62
     6
100
AcDbVertex
100
AcDb2dVertex
 10
2179.149188
 20
1559.385028
 30
0.0
  0
VERTEX
  5
187
100
AcDbEntity
  8
化粧台
  6
EXLTYPE2
 62
     6
100
AcDbVertex
100
AcDb2dVertex
 10
2179.28265
 20
1559.601986
 30
0.0
  0
VERTEX
  5
188
100
AcDbEntity
  8
化粧台
  6
EXLTYPE2
 62
     6
100
AcDbVertex
100
AcDb2dVertex
 10
2179.40279
 20
1559.846264
 30
0.0
  0
VERTEX
  5
189
100
AcDbEntity
  8
化粧台
  6
EXLTYPE2
 62
     6
100
AcDbVertex
100
AcDb2dVertex
 10
2179.494372
 20
1560.087092
 30
0.0
  0
VERTEX
  5
18A
100
AcDbEntity
  8
化粧台
  6
EXLTYPE2
 62
     6
100
AcDbVertex
100
AcDb2dVertex
 10
2179.567722
 20
1560.351294
 30
0.0
  0
VERTEX
  5
18B
100
AcDbEntity
  8
化粧台
  6
EXLTYPE2
 62
     6
100
AcDbVertex
100
AcDb2dVertex
 10
2179.612842
 20
1560.600428
 30
0.0
  0
VERTEX
  5
18C
100
AcDbEntity
  8
化粧台
  6
EXLTYPE2
 62
     6
100
AcDbVertex
100
AcDb2dVertex
 10
2179.636902
 20
1560.860774
 30
0.0
  0
VERTEX
  5
18D
100
AcDbEntity
  8
化粧台
  6
EXLTYPE2
 62
     6
100
AcDbVertex
100
AcDb2dVertex
 10
2179.640192
 20
1561.000204
 30
0.0
  0
VERTEX
  5
18E
100
AcDbEntity
  8
化粧台
  6
EXLTYPE2
 62
     6
100
AcDbVertex
100
AcDb2dVertex
 10
2179.628038
 20
1561.265804
 30
0.0
  0
VERTEX
  5
18F
100
AcDbEntity
  8
化粧台
  6
EXLTYPE2
 62
     6
100
AcDbVertex
100
AcDb2dVertex
 10
2179.59326
 20
1561.52346
 30
0.0
  0
VERTEX
  5
190
100
AcDbEntity
  8
化粧台
  6
EXLTYPE2
 62
     6
100
AcDbVertex
100
AcDb2dVertex
 10
2179.538708
 20
1561.765118
 30
0.0
  0
VERTEX
  5
191
100
AcDbEntity
  8
化粧台
  6
EXLTYPE2
 62
     6
100
AcDbVertex
100
AcDb2dVertex
 10
2179.467936
 20
1561.989608
 30
0.0
  0
VERTEX
  5
192
100
AcDbEntity
  8
化粧台
  6
EXLTYPE2
 62
     6
100
AcDbVertex
100
AcDb2dVertex
 10
2179.372236
 20
1562.221798
 30
0.0
  0
VERTEX
  5
193
100
AcDbEntity
  8
化粧台
  6
EXLTYPE2
 62
     6
100
AcDbVertex
100
AcDb2dVertex
 10
2179.263606
 20
1562.431708
 30
0.0
  0
VERTEX
  5
194
100
AcDbEntity
  8
化粧台
  6
EXLTYPE2
 62
     6
100
AcDbVertex
100
AcDb2dVertex
 10
2179.145762
 20
1562.619882
 30
0.0
  0
VERTEX
  5
195
100
AcDbEntity
  8
化粧台
  6
EXLTYPE2
 62
     6
100
AcDbVertex
100
AcDb2dVertex
 10
2178.91679
 20
1562.912396
 30
0.0
  0
VERTEX
  5
196
100
AcDbEntity
  8
化粧台
  6
EXLTYPE2
 62
     6
100
AcDbVertex
100
AcDb2dVertex
 10
2178.672262
 20
1563.154116
 30
0.0
  0
VERTEX
  5
197
100
AcDbEntity
  8
化粧台
  6
EXLTYPE2
 62
     6
100
AcDbVertex
100
AcDb2dVertex
 10
2178.418686
 20
1563.35345
 30
0.0
  0
VERTEX
  5
198
100
AcDbEntity
  8
化粧台
  6
EXLTYPE2
 62
     6
100
AcDbVertex
100
AcDb2dVertex
 10
2178.027758
 20
1563.594818
 30
0.0
  0
VERTEX
  5
199
100
AcDbEntity
  8
化粧台
  6
EXLTYPE2
 62
     6
100
AcDbVertex
100
AcDb2dVertex
 10
2177.62843
 20
1563.7791
 30
0.0
  0
VERTEX
  5
19A
100
AcDbEntity
  8
化粧台
  6
EXLTYPE2
 62
     6
100
AcDbVertex
100
AcDb2dVertex
 10
2177.222988
 20
1563.915202
 30
0.0
  0
VERTEX
  5
19B
100
AcDbEntity
  8
化粧台
  6
EXLTYPE2
 62
     6
100
AcDbVertex
100
AcDb2dVertex
 10
2176.813716
 20
1564.012022
 30
0.0
  0
VERTEX
  5
19C
100
AcDbEntity
  8
化粧台
  6
EXLTYPE2
 62
     6
100
AcDbVertex
100
AcDb2dVertex
 10
2176.402896
 20
1564.078462
 30
0.0
  0
VERTEX
  5
19D
100
AcDbEntity
  8
化粧台
  6
EXLTYPE2
 62
     6
100
AcDbVertex
100
AcDb2dVertex
 10
2175.992818
 20
1564.123422
 30
0.0
  0
VERTEX
  5
19E
100
AcDbEntity
  8
化粧台
  6
EXLTYPE2
 62
     6
100
AcDbVertex
100
AcDb2dVertex
 10
2175.403478
 20
1564.159056
 30
0.0
  0
VERTEX
  5
19F
100
AcDbEntity
  8
化粧台
  6
EXLTYPE2
 62
     6
100
AcDbVertex
100
AcDb2dVertex
 10
2174.813732
 20
1564.15883
 30
0.0
  0
VERTEX
  5
1A0
100
AcDbEntity
  8
化粧台
  6
EXLTYPE2
 62
     6
100
AcDbVertex
100
AcDb2dVertex
 10
2174.2244
 20
1564.12271
 30
0.0
  0
VERTEX
  5
1A1
100
AcDbEntity
  8
化粧台
  6
EXLTYPE2
 62
     6
100
AcDbVertex
100
AcDb2dVertex
 10
2173.610658
 20
1564.042938
 30
0.0
  0
VERTEX
  5
1A2
100
AcDbEntity
  8
化粧台
  6
EXLTYPE2
 62
     6
100
AcDbVertex
100
AcDb2dVertex
 10
2172.99966
 20
1563.904714
 30
0.0
  0
VERTEX
  5
1A3
100
AcDbEntity
  8
化粧台
  6
EXLTYPE2
 62
     6
100
AcDbVertex
100
AcDb2dVertex
 10
2172.662598
 20
1563.796234
 30
0.0
  0
VERTEX
  5
1A4
100
AcDbEntity
  8
化粧台
  6
EXLTYPE2
 62
     6
100
AcDbVertex
100
AcDb2dVertex
 10
2172.327782
 20
1563.657426
 30
0.0
  0
VERTEX
  5
1A5
100
AcDbEntity
  8
化粧台
  6
EXLTYPE2
 62
     6
100
AcDbVertex
100
AcDb2dVertex
 10
2171.998048
 20
1563.480164
 30
0.0
  0
VERTEX
  5
1A6
100
AcDbEntity
  8
化粧台
  6
EXLTYPE2
 62
     6
100
AcDbVertex
100
AcDb2dVertex
 10
2171.676234
 20
1563.256328
 30
0.0
  0
VERTEX
  5
1A7
100
AcDbEntity
  8
化粧台
  6
EXLTYPE2
 62
     6
100
AcDbVertex
100
AcDb2dVertex
 10
2171.442284
 20
1563.05148
 30
0.0
  0
VERTEX
  5
1A8
100
AcDbEntity
  8
化粧台
  6
EXLTYPE2
 62
     6
100
AcDbVertex
100
AcDb2dVertex
 10
2171.218374
 20
1562.806464
 30
0.0
  0
VERTEX
  5
1A9
100
AcDbEntity
  8
化粧台
  6
EXLTYPE2
 62
     6
100
AcDbVertex
100
AcDb2dVertex
 10
2171.075812
 20
1562.61498
 30
0.0
  0
VERTEX
  5
1AA
100
AcDbEntity
  8
化粧台
  6
EXLTYPE2
 62
     6
100
AcDbVertex
100
AcDb2dVertex
 10
2170.94235
 20
1562.398022
 30
0.0
  0
VERTEX
  5
1AB
100
AcDbEntity
  8
化粧台
  6
EXLTYPE2
 62
     6
100
AcDbVertex
100
AcDb2dVertex
 10
2170.82221
 20
1562.153742
 30
0.0
  0
VERTEX
  5
1AC
100
AcDbEntity
  8
化粧台
  6
EXLTYPE2
 62
     6
100
AcDbVertex
100
AcDb2dVertex
 10
2170.73063
 20
1561.912916
 30
0.0
  0
VERTEX
  5
1AD
100
AcDbEntity
  8
化粧台
  6
EXLTYPE2
 62
     6
100
AcDbVertex
100
AcDb2dVertex
 10
2170.657278
 20
1561.648714
 30
0.0
  0
VERTEX
  5
1AE
100
AcDbEntity
  8
化粧台
  6
EXLTYPE2
 62
     6
100
AcDbVertex
100
AcDb2dVertex
 10
2170.612158
 20
1561.39958
 30
0.0
  0
VERTEX
  5
1AF
100
AcDbEntity
  8
化粧台
  6
EXLTYPE2
 62
     6
100
AcDbVertex
100
AcDb2dVertex
 10
2170.588098
 20
1561.139234
 30
0.0
  0
VERTEX
  5
1B0
100
AcDbEntity
  8
化粧台
  6
EXLTYPE2
 62
     6
100
AcDbVertex
100
AcDb2dVertex
 10
2170.584808
 20
1561.000204
 30
0.0
  0
SEQEND
  5
1B1
100
AcDbEntity
  8
化粧台
  6
EXLTYPE2
 62
     6
  0
POLYLINE
  5
1B2
100
AcDbEntity
  8
化粧台
  6
EXLTYPE2
 62
     6
100
AcDb2dPolyline
 66
     1
 10
0.0
 20
0.0
 30
0.0
 70
   128
  0
VERTEX
  5
1B3
100
AcDbEntity
  8
化粧台
  6
EXLTYPE2
 62
     6
100
AcDbVertex
100
AcDb2dVertex
 10
2191.999996
 20
1557.837726
 30
0.0
  0
VERTEX
  5
1B4
100
AcDbEntity
  8
化粧台
  6
EXLTYPE2
 62
     6
100
AcDbVertex
100
AcDb2dVertex
 10
2192.584264
 20
1557.84151
 30
0.0
  0
VERTEX
  5
1B5
100
AcDbEntity
  8
化粧台
  6
EXLTYPE2
 62
     6
100
AcDbVertex
100
AcDb2dVertex
 10
2193.168428
 20
1557.853598
 30
0.0
  0
VERTEX
  5
1B6
100
AcDbEntity
  8
化粧台
  6
EXLTYPE2
 62
     6
100
AcDbVertex
100
AcDb2dVertex
 10
2193.752438
 20
1557.874954
 30
0.0
  0
VERTEX
  5
1B7
100
AcDbEntity
  8
化粧台
  6
EXLTYPE2
 62
     6
100
AcDbVertex
100
AcDb2dVertex
 10
2194.335972
 20
1557.906714
 30
0.0
  0
VERTEX
  5
1B8
100
AcDbEntity
  8
化粧台
  6
EXLTYPE2
 62
     6
100
AcDbVertex
100
AcDb2dVertex
 10
2194.918502
 20
1557.94994
 30
0.0
  0
VERTEX
  5
1B9
100
AcDbEntity
  8
化粧台
  6
EXLTYPE2
 62
     6
100
AcDbVertex
100
AcDb2dVertex
 10
2195.499996
 20
1558.005332
 30
0.0
  0
VERTEX
  5
1BA
100
AcDbEntity
  8
化粧台
  6
EXLTYPE2
 62
     6
100
AcDbVertex
100
AcDb2dVertex
 10
2196.214676
 20
1558.092144
 30
0.0
  0
VERTEX
  5
1BB
100
AcDbEntity
  8
化粧台
  6
EXLTYPE2
 62
     6
100
AcDbVertex
100
AcDb2dVertex
 10
2196.927784
 20
1558.205858
 30
0.0
  0
VERTEX
  5
1BC
100
AcDbEntity
  8
化粧台
  6
EXLTYPE2
 62
     6
100
AcDbVertex
100
AcDb2dVertex
 10
2197.63355
 20
1558.355166
 30
0.0
  0
VERTEX
  5
1BD
100
AcDbEntity
  8
化粧台
  6
EXLTYPE2
 62
     6
100
AcDbVertex
100
AcDb2dVertex
 10
2198.326208
 20
1558.54876
 30
0.0
  0
VERTEX
  5
1BE
100
AcDbEntity
  8
化粧台
  6
EXLTYPE2
 62
     6
100
AcDbVertex
100
AcDb2dVertex
 10
2198.999996
 20
1558.795332
 30
0.0
  0
VERTEX
  5
1BF
100
AcDbEntity
  8
化粧台
  6
EXLTYPE2
 62
     6
100
AcDbVertex
100
AcDb2dVertex
 10
2199.44134
 20
1558.998572
 30
0.0
  0
VERTEX
  5
1C0
100
AcDbEntity
  8
化粧台
  6
EXLTYPE2
 62
     6
100
AcDbVertex
100
AcDb2dVertex
 10
2199.863524
 20
1559.240342
 30
0.0
  0
VERTEX
  5
1C1
100
AcDbEntity
  8
化粧台
  6
EXLTYPE2
 62
     6
100
AcDbVertex
100
AcDb2dVertex
 10
2200.254054
 20
1559.527066
 30
0.0
  0
VERTEX
  5
1C2
100
AcDbEntity
  8
化粧台
  6
EXLTYPE2
 62
     6
100
AcDbVertex
100
AcDb2dVertex
 10
2200.510384
 20
1559.768546
 30
0.0
  0
VERTEX
  5
1C3
100
AcDbEntity
  8
化粧台
  6
EXLTYPE2
 62
     6
100
AcDbVertex
100
AcDb2dVertex
 10
2200.732678
 20
1560.041124
 30
0.0
  0
VERTEX
  5
1C4
100
AcDbEntity
  8
化粧台
  6
EXLTYPE2
 62
     6
100
AcDbVertex
100
AcDb2dVertex
 10
2200.85699
 20
1560.243904
 30
0.0
  0
VERTEX
  5
1C5
100
AcDbEntity
  8
化粧台
  6
EXLTYPE2
 62
     6
100
AcDbVertex
100
AcDb2dVertex
 10
2200.955522
 20
1560.46126
 30
0.0
  0
VERTEX
  5
1C6
100
AcDbEntity
  8
化粧台
  6
EXLTYPE2
 62
     6
100
AcDbVertex
100
AcDb2dVertex
 10
2201.022442
 20
1560.688918
 30
0.0
  0
VERTEX
  5
1C7
100
AcDbEntity
  8
化粧台
  6
EXLTYPE2
 62
     6
100
AcDbVertex
100
AcDb2dVertex
 10
2201.053858
 20
1560.938924
 30
0.0
  0
VERTEX
  5
1C8
100
AcDbEntity
  8
化粧台
  6
EXLTYPE2
 62
     6
100
AcDbVertex
100
AcDb2dVertex
 10
2201.04304
 20
1561.190628
 30
0.0
  0
VERTEX
  5
1C9
100
AcDbEntity
  8
化粧台
  6
EXLTYPE2
 62
     6
100
AcDbVertex
100
AcDb2dVertex
 10
2200.990162
 20
1561.436392
 30
0.0
  0
VERTEX
  5
1CA
100
AcDbEntity
  8
化粧台
  6
EXLTYPE2
 62
     6
100
AcDbVertex
100
AcDb2dVertex
 10
2200.900018
 20
1561.671262
 30
0.0
  0
VERTEX
  5
1CB
100
AcDbEntity
  8
化粧台
  6
EXLTYPE2
 62
     6
100
AcDbVertex
100
AcDb2dVertex
 10
2200.721402
 20
1561.9747
 30
0.0
  0
VERTEX
  5
1CC
100
AcDbEntity
  8
化粧台
  6
EXLTYPE2
 62
     6
100
AcDbVertex
100
AcDb2dVertex
 10
2200.496342
 20
1562.246302
 30
0.0
  0
VERTEX
  5
1CD
100
AcDbEntity
  8
化粧台
  6
EXLTYPE2
 62
     6
100
AcDbVertex
100
AcDb2dVertex
 10
2200.219596
 20
1562.501758
 30
0.0
  0
VERTEX
  5
1CE
100
AcDbEntity
  8
化粧台
  6
EXLTYPE2
 62
     6
100
AcDbVertex
100
AcDb2dVertex
 10
2199.914938
 20
1562.725702
 30
0.0
  0
VERTEX
  5
1CF
100
AcDbEntity
  8
化粧台
  6
EXLTYPE2
 62
     6
100
AcDbVertex
100
AcDb2dVertex
 10
2199.591798
 20
1562.920994
 30
0.0
  0
VERTEX
  5
1D0
100
AcDbEntity
  8
化粧台
  6
EXLTYPE2
 62
     6
100
AcDbVertex
100
AcDb2dVertex
 10
2199.087092
 20
1563.168718
 30
0.0
  0
VERTEX
  5
1D1
100
AcDbEntity
  8
化粧台
  6
EXLTYPE2
 62
     6
100
AcDbVertex
100
AcDb2dVertex
 10
2198.561414
 20
1563.37284
 30
0.0
  0
VERTEX
  5
1D2
100
AcDbEntity
  8
化粧台
  6
EXLTYPE2
 62
     6
100
AcDbVertex
100
AcDb2dVertex
 10
2198.021714
 20
1563.540186
 30
0.0
  0
VERTEX
  5
1D3
100
AcDbEntity
  8
化粧台
  6
EXLTYPE2
 62
     6
100
AcDbVertex
100
AcDb2dVertex
 10
2197.47494
 20
1563.677582
 30
0.0
  0
VERTEX
  5
1D4
100
AcDbEntity
  8
化粧台
  6
EXLTYPE2
 62
     6
100
AcDbVertex
100
AcDb2dVertex
 10
2196.98048
 20
1563.781046
 30
0.0
  0
VERTEX
  5
1D5
100
AcDbEntity
  8
化粧台
  6
EXLTYPE2
 62
     6
100
AcDbVertex
100
AcDb2dVertex
 10
2196.482862
 20
1563.86825
 30
0.0
  0
VERTEX
  5
1D6
100
AcDbEntity
  8
化粧台
  6
EXLTYPE2
 62
     6
100
AcDbVertex
100
AcDb2dVertex
 10
2195.98222
 20
1563.94079
 30
0.0
  0
VERTEX
  5
1D7
100
AcDbEntity
  8
化粧台
  6
EXLTYPE2
 62
     6
100
AcDbVertex
100
AcDb2dVertex
 10
2195.479844
 20
1564.000076
 30
0.0
  0
VERTEX
  5
1D8
100
AcDbEntity
  8
化粧台
  6
EXLTYPE2
 62
     6
100
AcDbVertex
100
AcDb2dVertex
 10
2194.975704
 20
1564.047712
 30
0.0
  0
VERTEX
  5
1D9
100
AcDbEntity
  8
化粧台
  6
EXLTYPE2
 62
     6
100
AcDbVertex
100
AcDb2dVertex
 10
2194.470706
 20
1564.085208
 30
0.0
  0
VERTEX
  5
1DA
100
AcDbEntity
  8
化粧台
  6
EXLTYPE2
 62
     6
100
AcDbVertex
100
AcDb2dVertex
 10
2193.965666
 20
1564.11409
 30
0.0
  0
VERTEX
  5
1DB
100
AcDbEntity
  8
化粧台
  6
EXLTYPE2
 62
     6
100
AcDbVertex
100
AcDb2dVertex
 10
2193.46026
 20
1564.1358
 30
0.0
  0
VERTEX
  5
1DC
100
AcDbEntity
  8
化粧台
  6
EXLTYPE2
 62
     6
100
AcDbVertex
100
AcDb2dVertex
 10
2192.771122
 20
1564.155608
 30
0.0
  0
VERTEX
  5
1DD
100
AcDbEntity
  8
化粧台
  6
EXLTYPE2
 62
     6
100
AcDbVertex
100
AcDb2dVertex
 10
2192.081752
 20
1564.163914
 30
0.0
  0
VERTEX
  5
1DE
100
AcDbEntity
  8
化粧台
  6
EXLTYPE2
 62
     6
100
AcDbVertex
100
AcDb2dVertex
 10
2191.392146
 20
1564.160004
 30
0.0
  0
VERTEX
  5
1DF
100
AcDbEntity
  8
化粧台
  6
EXLTYPE2
 62
     6
100
AcDbVertex
100
AcDb2dVertex
 10
2190.702734
 20
1564.14321
 30
0.0
  0
VERTEX
  5
1E0
100
AcDbEntity
  8
化粧台
  6
EXLTYPE2
 62
     6
100
AcDbVertex
100
AcDb2dVertex
 10
2190.014062
 20
1564.11298
 30
0.0
  0
VERTEX
  5
1E1
100
AcDbEntity
  8
化粧台
  6
EXLTYPE2
 62
     6
100
AcDbVertex
100
AcDb2dVertex
 10
2189.326132
 20
1564.069092
 30
0.0
  0
VERTEX
  5
1E2
100
AcDbEntity
  8
化粧台
  6
EXLTYPE2
 62
     6
100
AcDbVertex
100
AcDb2dVertex
 10
2188.518988
 20
1563.99861
 30
0.0
  0
VERTEX
  5
1E3
100
AcDbEntity
  8
化粧台
  6
EXLTYPE2
 62
     6
100
AcDbVertex
100
AcDb2dVertex
 10
2187.712534
 20
1563.900526
 30
0.0
  0
VERTEX
  5
1E4
100
AcDbEntity
  8
化粧台
  6
EXLTYPE2
 62
     6
100
AcDbVertex
100
AcDb2dVertex
 10
2186.912332
 20
1563.764884
 30
0.0
  0
VERTEX
  5
1E5
100
AcDbEntity
  8
化粧台
  6
EXLTYPE2
 62
     6
100
AcDbVertex
100
AcDb2dVertex
 10
2186.123948
 20
1563.581728
 30
0.0
  0
VERTEX
  5
1E6
100
AcDbEntity
  8
化粧台
  6
EXLTYPE2
 62
     6
100
AcDbVertex
100
AcDb2dVertex
 10
2185.352946
 20
1563.341104
 30
0.0
  0
VERTEX
  5
1E7
100
AcDbEntity
  8
化粧台
  6
EXLTYPE2
 62
     6
100
AcDbVertex
100
AcDb2dVertex
 10
2184.847228
 20
1563.13941
 30
0.0
  0
VERTEX
  5
1E8
100
AcDbEntity
  8
化粧台
  6
EXLTYPE2
 62
     6
100
AcDbVertex
100
AcDb2dVertex
 10
2184.360106
 20
1562.894814
 30
0.0
  0
VERTEX
  5
1E9
100
AcDbEntity
  8
化粧台
  6
EXLTYPE2
 62
     6
100
AcDbVertex
100
AcDb2dVertex
 10
2183.905016
 20
1562.598844
 30
0.0
  0
VERTEX
  5
1EA
100
AcDbEntity
  8
化粧台
  6
EXLTYPE2
 62
     6
100
AcDbVertex
100
AcDb2dVertex
 10
2183.61955
 20
1562.361
 30
0.0
  0
VERTEX
  5
1EB
100
AcDbEntity
  8
化粧台
  6
EXLTYPE2
 62
     6
100
AcDbVertex
100
AcDb2dVertex
 10
2183.365984
 20
1562.089982
 30
0.0
  0
VERTEX
  5
1EC
100
AcDbEntity
  8
化粧台
  6
EXLTYPE2
 62
     6
100
AcDbVertex
100
AcDb2dVertex
 10
2183.219268
 20
1561.886364
 30
0.0
  0
VERTEX
  5
1ED
100
AcDbEntity
  8
化粧台
  6
EXLTYPE2
 62
     6
100
AcDbVertex
100
AcDb2dVertex
 10
2183.097776
 20
1561.665886
 30
0.0
  0
VERTEX
  5
1EE
100
AcDbEntity
  8
化粧台
  6
EXLTYPE2
 62
     6
100
AcDbVertex
100
AcDb2dVertex
 10
2183.008364
 20
1561.432094
 30
0.0
  0
VERTEX
  5
1EF
100
AcDbEntity
  8
化粧台
  6
EXLTYPE2
 62
     6
100
AcDbVertex
100
AcDb2dVertex
 10
2182.95631
 20
1561.183616
 30
0.0
  0
VERTEX
  5
1F0
100
AcDbEntity
  8
化粧台
  6
EXLTYPE2
 62
     6
100
AcDbVertex
100
AcDb2dVertex
 10
2182.94627
 20
1560.930044
 30
0.0
  0
VERTEX
  5
1F1
100
AcDbEntity
  8
化粧台
  6
EXLTYPE2
 62
     6
100
AcDbVertex
100
AcDb2dVertex
 10
2182.980008
 20
1560.678558
 30
0.0
  0
VERTEX
  5
1F2
100
AcDbEntity
  8
化粧台
  6
EXLTYPE2
 62
     6
100
AcDbVertex
100
AcDb2dVertex
 10
2183.053894
 20
1560.435648
 30
0.0
  0
VERTEX
  5
1F3
100
AcDbEntity
  8
化粧台
  6
EXLTYPE2
 62
     6
100
AcDbVertex
100
AcDb2dVertex
 10
2183.20104
 20
1560.142524
 30
0.0
  0
VERTEX
  5
1F4
100
AcDbEntity
  8
化粧台
  6
EXLTYPE2
 62
     6
100
AcDbVertex
100
AcDb2dVertex
 10
2183.393688
 20
1559.87642
 30
0.0
  0
VERTEX
  5
1F5
100
AcDbEntity
  8
化粧台
  6
EXLTYPE2
 62
     6
100
AcDbVertex
100
AcDb2dVertex
 10
2183.626104
 20
1559.63278
 30
0.0
  0
VERTEX
  5
1F6
100
AcDbEntity
  8
化粧台
  6
EXLTYPE2
 62
     6
100
AcDbVertex
100
AcDb2dVertex
 10
2183.88535
 20
1559.415838
 30
0.0
  0
VERTEX
  5
1F7
100
AcDbEntity
  8
化粧台
  6
EXLTYPE2
 62
     6
100
AcDbVertex
100
AcDb2dVertex
 10
2184.163024
 20
1559.223958
 30
0.0
  0
VERTEX
  5
1F8
100
AcDbEntity
  8
化粧台
  6
EXLTYPE2
 62
     6
100
AcDbVertex
100
AcDb2dVertex
 10
2184.580552
 20
1558.987118
 30
0.0
  0
VERTEX
  5
1F9
100
AcDbEntity
  8
化粧台
  6
EXLTYPE2
 62
     6
100
AcDbVertex
100
AcDb2dVertex
 10
2185.018312
 20
1558.786588
 30
0.0
  0
VERTEX
  5
1FA
100
AcDbEntity
  8
化粧台
  6
EXLTYPE2
 62
     6
100
AcDbVertex
100
AcDb2dVertex
 10
2185.470082
 20
1558.617334
 30
0.0
  0
VERTEX
  5
1FB
100
AcDbEntity
  8
化粧台
  6
EXLTYPE2
 62
     6
100
AcDbVertex
100
AcDb2dVertex
 10
2185.929642
 20
1558.474328
 30
0.0
  0
VERTEX
  5
1FC
100
AcDbEntity
  8
化粧台
  6
EXLTYPE2
 62
     6
100
AcDbVertex
100
AcDb2dVertex
 10
2186.663138
 20
1558.290832
 30
0.0
  0
VERTEX
  5
1FD
100
AcDbEntity
  8
化粧台
  6
EXLTYPE2
 62
     6
100
AcDbVertex
100
AcDb2dVertex
 10
2187.407028
 20
1558.149866
 30
0.0
  0
VERTEX
  5
1FE
100
AcDbEntity
  8
化粧台
  6
EXLTYPE2
 62
     6
100
AcDbVertex
100
AcDb2dVertex
 10
2188.157402
 20
1558.043806
 30
0.0
  0
VERTEX
  5
1FF
100
AcDbEntity
  8
化粧台
  6
EXLTYPE2
 62
     6
100
AcDbVertex
100
AcDb2dVertex
 10
2188.910356
 20
1557.965028
 30
0.0
  0
VERTEX
  5
200
100
AcDbEntity
  8
化粧台
  6
EXLTYPE2
 62
     6
100
AcDbVertex
100
AcDb2dVertex
 10
2189.424154
 20
1557.923596
 30
0.0
  0
VERTEX
  5
201
100
AcDbEntity
  8
化粧台
  6
EXLTYPE2
 62
     6
100
AcDbVertex
100
AcDb2dVertex
 10
2189.93859
 20
1557.89101
 30
0.0
  0
VERTEX
  5
202
100
AcDbEntity
  8
化粧台
  6
EXLTYPE2
 62
     6
100
AcDbVertex
100
AcDb2dVertex
 10
2190.453642
 20
1557.866756
 30
0.0
  0
VERTEX
  5
203
100
AcDbEntity
  8
化粧台
  6
EXLTYPE2
 62
     6
100
AcDbVertex
100
AcDb2dVertex
 10
2190.969002
 20
1557.850224
 30
0.0
  0
VERTEX
  5
204
100
AcDbEntity
  8
化粧台
  6
EXLTYPE2
 62
     6
100
AcDbVertex
100
AcDb2dVertex
 10
2191.484464
 20
1557.840768
 30
0.0
  0
VERTEX
  5
205
100
AcDbEntity
  8
化粧台
  6
EXLTYPE2
 62
     6
100
AcDbVertex
100
AcDb2dVertex
 10
2191.999996
 20
1557.837726
 30
0.0
  0
SEQEND
  5
206
100
AcDbEntity
  8
化粧台
  6
EXLTYPE2
 62
     6
  0
POLYLINE
  5
207
100
AcDbEntity
  8
化粧台
  6
EXLTYPE2
 62
     6
100
AcDb2dPolyline
 66
     1
 10
0.0
 20
0.0
 30
0.0
 70
   128
  0
VERTEX
  5
208
100
AcDbEntity
  8
化粧台
  6
EXLTYPE2
 62
     6
100
AcDbVertex
100
AcDb2dVertex
 10
2204.359798
 20
1561.000204
 30
0.0
  0
VERTEX
  5
209
100
AcDbEntity
  8
化粧台
  6
EXLTYPE2
 62
     6
100
AcDbVertex
100
AcDb2dVertex
 10
2204.371936
 20
1560.7344
 30
0.0
  0
VERTEX
  5
20A
100
AcDbEntity
  8
化粧台
  6
EXLTYPE2
 62
     6
100
AcDbVertex
100
AcDb2dVertex
 10
2204.40673
 20
1560.476546
 30
0.0
  0
VERTEX
  5
20B
100
AcDbEntity
  8
化粧台
  6
EXLTYPE2
 62
     6
100
AcDbVertex
100
AcDb2dVertex
 10
2204.461282
 20
1560.23489
 30
0.0
  0
VERTEX
  5
20C
100
AcDbEntity
  8
化粧台
  6
EXLTYPE2
 62
     6
100
AcDbVertex
100
AcDb2dVertex
 10
2204.532054
 20
1560.0104
 30
0.0
  0
VERTEX
  5
20D
100
AcDbEntity
  8
化粧台
  6
EXLTYPE2
 62
     6
100
AcDbVertex
100
AcDb2dVertex
 10
2204.627754
 20
1559.77821
 30
0.0
  0
VERTEX
  5
20E
100
AcDbEntity
  8
化粧台
  6
EXLTYPE2
 62
     6
100
AcDbVertex
100
AcDb2dVertex
 10
2204.736384
 20
1559.568298
 30
0.0
  0
VERTEX
  5
20F
100
AcDbEntity
  8
化粧台
  6
EXLTYPE2
 62
     6
100
AcDbVertex
100
AcDb2dVertex
 10
2204.854228
 20
1559.380126
 30
0.0
  0
VERTEX
  5
210
100
AcDbEntity
  8
化粧台
  6
EXLTYPE2
 62
     6
100
AcDbVertex
100
AcDb2dVertex
 10
2205.0832
 20
1559.087612
 30
0.0
  0
VERTEX
  5
211
100
AcDbEntity
  8
化粧台
  6
EXLTYPE2
 62
     6
100
AcDbVertex
100
AcDb2dVertex
 10
2205.32773
 20
1558.84589
 30
0.0
  0
VERTEX
  5
212
100
AcDbEntity
  8
化粧台
  6
EXLTYPE2
 62
     6
100
AcDbVertex
100
AcDb2dVertex
 10
2205.581306
 20
1558.646556
 30
0.0
  0
VERTEX
  5
213
100
AcDbEntity
  8
化粧台
  6
EXLTYPE2
 62
     6
100
AcDbVertex
100
AcDb2dVertex
 10
2205.972234
 20
1558.40519
 30
0.0
  0
VERTEX
  5
214
100
AcDbEntity
  8
化粧台
  6
EXLTYPE2
 62
     6
100
AcDbVertex
100
AcDb2dVertex
 10
2206.37156
 20
1558.220906
 30
0.0
  0
VERTEX
  5
215
100
AcDbEntity
  8
化粧台
  6
EXLTYPE2
 62
     6
100
AcDbVertex
100
AcDb2dVertex
 10
2206.777002
 20
1558.084806
 30
0.0
  0
VERTEX
  5
216
100
AcDbEntity
  8
化粧台
  6
EXLTYPE2
 62
     6
100
AcDbVertex
100
AcDb2dVertex
 10
2207.186276
 20
1557.987986
 30
0.0
  0
VERTEX
  5
217
100
AcDbEntity
  8
化粧台
  6
EXLTYPE2
 62
     6
100
AcDbVertex
100
AcDb2dVertex
 10
2207.597094
 20
1557.921546
 30
0.0
  0
VERTEX
  5
218
100
AcDbEntity
  8
化粧台
  6
EXLTYPE2
 62
     6
100
AcDbVertex
100
AcDb2dVertex
 10
2208.007174
 20
1557.876586
 30
0.0
  0
VERTEX
  5
219
100
AcDbEntity
  8
化粧台
  6
EXLTYPE2
 62
     6
100
AcDbVertex
100
AcDb2dVertex
 10
2208.596514
 20
1557.840952
 30
0.0
  0
VERTEX
  5
21A
100
AcDbEntity
  8
化粧台
  6
EXLTYPE2
 62
     6
100
AcDbVertex
100
AcDb2dVertex
 10
2209.18626
 20
1557.841178
 30
0.0
  0
VERTEX
  5
21B
100
AcDbEntity
  8
化粧台
  6
EXLTYPE2
 62
     6
100
AcDbVertex
100
AcDb2dVertex
 10
2209.775592
 20
1557.877296
 30
0.0
  0
VERTEX
  5
21C
100
AcDbEntity
  8
化粧台
  6
EXLTYPE2
 62
     6
100
AcDbVertex
100
AcDb2dVertex
 10
2210.389334
 20
1557.95707
 30
0.0
  0
VERTEX
  5
21D
100
AcDbEntity
  8
化粧台
  6
EXLTYPE2
 62
     6
100
AcDbVertex
100
AcDb2dVertex
 10
2211.000332
 20
1558.095294
 30
0.0
  0
VERTEX
  5
21E
100
AcDbEntity
  8
化粧台
  6
EXLTYPE2
 62
     6
100
AcDbVertex
100
AcDb2dVertex
 10
2211.337392
 20
1558.203774
 30
0.0
  0
VERTEX
  5
21F
100
AcDbEntity
  8
化粧台
  6
EXLTYPE2
 62
     6
100
AcDbVertex
100
AcDb2dVertex
 10
2211.672208
 20
1558.342582
 30
0.0
  0
VERTEX
  5
220
100
AcDbEntity
  8
化粧台
  6
EXLTYPE2
 62
     6
100
AcDbVertex
100
AcDb2dVertex
 10
2212.001942
 20
1558.519844
 30
0.0
  0
VERTEX
  5
221
100
AcDbEntity
  8
化粧台
  6
EXLTYPE2
 62
     6
100
AcDbVertex
100
AcDb2dVertex
 10
2212.323756
 20
1558.743678
 30
0.0
  0
VERTEX
  5
222
100
AcDbEntity
  8
化粧台
  6
EXLTYPE2
 62
     6
100
AcDbVertex
100
AcDb2dVertex
 10
2212.557706
 20
1558.948528
 30
0.0
  0
VERTEX
  5
223
100
AcDbEntity
  8
化粧台
  6
EXLTYPE2
 62
     6
100
AcDbVertex
100
AcDb2dVertex
 10
2212.781616
 20
1559.193542
 30
0.0
  0
VERTEX
  5
224
100
AcDbEntity
  8
化粧台
  6
EXLTYPE2
 62
     6
100
AcDbVertex
100
AcDb2dVertex
 10
2212.924178
 20
1559.385028
 30
0.0
  0
VERTEX
  5
225
100
AcDbEntity
  8
化粧台
  6
EXLTYPE2
 62
     6
100
AcDbVertex
100
AcDb2dVertex
 10
2213.05764
 20
1559.601986
 30
0.0
  0
VERTEX
  5
226
100
AcDbEntity
  8
化粧台
  6
EXLTYPE2
 62
     6
100
AcDbVertex
100
AcDb2dVertex
 10
2213.17778
 20
1559.846264
 30
0.0
  0
VERTEX
  5
227
100
AcDbEntity
  8
化粧台
  6
EXLTYPE2
 62
     6
100
AcDbVertex
100
AcDb2dVertex
 10
2213.269362
 20
1560.087092
 30
0.0
  0
VERTEX
  5
228
100
AcDbEntity
  8
化粧台
  6
EXLTYPE2
 62
     6
100
AcDbVertex
100
AcDb2dVertex
 10
2213.342714
 20
1560.351294
 30
0.0
  0
VERTEX
  5
229
100
AcDbEntity
  8
化粧台
  6
EXLTYPE2
 62
     6
100
AcDbVertex
100
AcDb2dVertex
 10
2213.387832
 20
1560.600428
 30
0.0
  0
VERTEX
  5
22A
100
AcDbEntity
  8
化粧台
  6
EXLTYPE2
 62
     6
100
AcDbVertex
100
AcDb2dVertex
 10
2213.411894
 20
1560.860774
 30
0.0
  0
VERTEX
  5
22B
100
AcDbEntity
  8
化粧台
  6
EXLTYPE2
 62
     6
100
AcDbVertex
100
AcDb2dVertex
 10
2213.415184
 20
1561.000204
 30
0.0
  0
VERTEX
  5
22C
100
AcDbEntity
  8
化粧台
  6
EXLTYPE2
 62
     6
100
AcDbVertex
100
AcDb2dVertex
 10
2213.403028
 20
1561.265804
 30
0.0
  0
VERTEX
  5
22D
100
AcDbEntity
  8
化粧台
  6
EXLTYPE2
 62
     6
100
AcDbVertex
100
AcDb2dVertex
 10
2213.36825
 20
1561.52346
 30
0.0
  0
VERTEX
  5
22E
100
AcDbEntity
  8
化粧台
  6
EXLTYPE2
 62
     6
100
AcDbVertex
100
AcDb2dVertex
 10
2213.3137
 20
1561.765118
 30
0.0
  0
VERTEX
  5
22F
100
AcDbEntity
  8
化粧台
  6
EXLTYPE2
 62
     6
100
AcDbVertex
100
AcDb2dVertex
 10
2213.242928
 20
1561.989608
 30
0.0
  0
VERTEX
  5
230
100
AcDbEntity
  8
化粧台
  6
EXLTYPE2
 62
     6
100
AcDbVertex
100
AcDb2dVertex
 10
2213.147228
 20
1562.221798
 30
0.0
  0
VERTEX
  5
231
100
AcDbEntity
  8
化粧台
  6
EXLTYPE2
 62
     6
100
AcDbVertex
100
AcDb2dVertex
 10
2213.038598
 20
1562.431708
 30
0.0
  0
VERTEX
  5
232
100
AcDbEntity
  8
化粧台
  6
EXLTYPE2
 62
     6
100
AcDbVertex
100
AcDb2dVertex
 10
2212.920754
 20
1562.619882
 30
0.0
  0
VERTEX
  5
233
100
AcDbEntity
  8
化粧台
  6
EXLTYPE2
 62
     6
100
AcDbVertex
100
AcDb2dVertex
 10
2212.691782
 20
1562.912396
 30
0.0
  0
VERTEX
  5
234
100
AcDbEntity
  8
化粧台
  6
EXLTYPE2
 62
     6
100
AcDbVertex
100
AcDb2dVertex
 10
2212.447252
 20
1563.154116
 30
0.0
  0
VERTEX
  5
235
100
AcDbEntity
  8
化粧台
  6
EXLTYPE2
 62
     6
100
AcDbVertex
100
AcDb2dVertex
 10
2212.193676
 20
1563.35345
 30
0.0
  0
VERTEX
  5
236
100
AcDbEntity
  8
化粧台
  6
EXLTYPE2
 62
     6
100
AcDbVertex
100
AcDb2dVertex
 10
2211.802748
 20
1563.594818
 30
0.0
  0
VERTEX
  5
237
100
AcDbEntity
  8
化粧台
  6
EXLTYPE2
 62
     6
100
AcDbVertex
100
AcDb2dVertex
 10
2211.403422
 20
1563.7791
 30
0.0
  0
VERTEX
  5
238
100
AcDbEntity
  8
化粧台
  6
EXLTYPE2
 62
     6
100
AcDbVertex
100
AcDb2dVertex
 10
2210.99798
 20
1563.915202
 30
0.0
  0
VERTEX
  5
239
100
AcDbEntity
  8
化粧台
  6
EXLTYPE2
 62
     6
100
AcDbVertex
100
AcDb2dVertex
 10
2210.588706
 20
1564.012022
 30
0.0
  0
VERTEX
  5
23A
100
AcDbEntity
  8
化粧台
  6
EXLTYPE2
 62
     6
100
AcDbVertex
100
AcDb2dVertex
 10
2210.177888
 20
1564.078462
 30
0.0
  0
VERTEX
  5
23B
100
AcDbEntity
  8
化粧台
  6
EXLTYPE2
 62
     6
100
AcDbVertex
100
AcDb2dVertex
 10
2209.767808
 20
1564.123422
 30
0.0
  0
VERTEX
  5
23C
100
AcDbEntity
  8
化粧台
  6
EXLTYPE2
 62
     6
100
AcDbVertex
100
AcDb2dVertex
 10
2209.178468
 20
1564.159056
 30
0.0
  0
VERTEX
  5
23D
100
AcDbEntity
  8
化粧台
  6
EXLTYPE2
 62
     6
100
AcDbVertex
100
AcDb2dVertex
 10
2208.588722
 20
1564.15883
 30
0.0
  0
VERTEX
  5
23E
100
AcDbEntity
  8
化粧台
  6
EXLTYPE2
 62
     6
100
AcDbVertex
100
AcDb2dVertex
 10
2207.99939
 20
1564.12271
 30
0.0
  0
VERTEX
  5
23F
100
AcDbEntity
  8
化粧台
  6
EXLTYPE2
 62
     6
100
AcDbVertex
100
AcDb2dVertex
 10
2207.385648
 20
1564.042938
 30
0.0
  0
VERTEX
  5
240
100
AcDbEntity
  8
化粧台
  6
EXLTYPE2
 62
     6
100
AcDbVertex
100
AcDb2dVertex
 10
2206.77465
 20
1563.904714
 30
0.0
  0
VERTEX
  5
241
100
AcDbEntity
  8
化粧台
  6
EXLTYPE2
 62
     6
100
AcDbVertex
100
AcDb2dVertex
 10
2206.43759
 20
1563.796234
 30
0.0
  0
VERTEX
  5
242
100
AcDbEntity
  8
化粧台
  6
EXLTYPE2
 62
     6
100
AcDbVertex
100
AcDb2dVertex
 10
2206.102772
 20
1563.657426
 30
0.0
  0
VERTEX
  5
243
100
AcDbEntity
  8
化粧台
  6
EXLTYPE2
 62
     6
100
AcDbVertex
100
AcDb2dVertex
 10
2205.77304
 20
1563.480164
 30
0.0
  0
VERTEX
  5
244
100
AcDbEntity
  8
化粧台
  6
EXLTYPE2
 62
     6
100
AcDbVertex
100
AcDb2dVertex
 10
2205.451226
 20
1563.256328
 30
0.0
  0
VERTEX
  5
245
100
AcDbEntity
  8
化粧台
  6
EXLTYPE2
 62
     6
100
AcDbVertex
100
AcDb2dVertex
 10
2205.217276
 20
1563.05148
 30
0.0
  0
VERTEX
  5
246
100
AcDbEntity
  8
化粧台
  6
EXLTYPE2
 62
     6
100
AcDbVertex
100
AcDb2dVertex
 10
2204.993366
 20
1562.806464
 30
0.0
  0
VERTEX
  5
247
100
AcDbEntity
  8
化粧台
  6
EXLTYPE2
 62
     6
100
AcDbVertex
100
AcDb2dVertex
 10
2204.850804
 20
1562.61498
 30
0.0
  0
VERTEX
  5
248
100
AcDbEntity
  8
化粧台
  6
EXLTYPE2
 62
     6
100
AcDbVertex
100
AcDb2dVertex
 10
2204.717342
 20
1562.398022
 30
0.0
  0
VERTEX
  5
249
100
AcDbEntity
  8
化粧台
  6
EXLTYPE2
 62
     6
100
AcDbVertex
100
AcDb2dVertex
 10
2204.597202
 20
1562.153742
 30
0.0
  0
VERTEX
  5
24A
100
AcDbEntity
  8
化粧台
  6
EXLTYPE2
 62
     6
100
AcDbVertex
100
AcDb2dVertex
 10
2204.50562
 20
1561.912916
 30
0.0
  0
VERTEX
  5
24B
100
AcDbEntity
  8
化粧台
  6
EXLTYPE2
 62
     6
100
AcDbVertex
100
AcDb2dVertex
 10
2204.432268
 20
1561.648714
 30
0.0
  0
VERTEX
  5
24C
100
AcDbEntity
  8
化粧台
  6
EXLTYPE2
 62
     6
100
AcDbVertex
100
AcDb2dVertex
 10
2204.38715
 20
1561.39958
 30
0.0
  0
VERTEX
  5
24D
100
AcDbEntity
  8
化粧台
  6
EXLTYPE2
 62
     6
100
AcDbVertex
100
AcDb2dVertex
 10
2204.363088
 20
1561.139234
 30
0.0
  0
VERTEX
  5
24E
100
AcDbEntity
  8
化粧台
  6
EXLTYPE2
 62
     6
100
AcDbVertex
100
AcDb2dVertex
 10
2204.359798
 20
1561.000204
 30
0.0
  0
SEQEND
  5
24F
100
AcDbEntity
  8
化粧台
  6
EXLTYPE2
 62
     6
  0
LINE
  5
250
100
AcDbEntity
  8
化粧台
  6
EXLTYPE2
 62
     6
100
AcDbLine
 10
2203.322576
 20
1564.833333
 30
0.0
 11
2203.322576
 21
1571.833333
 31
0.0
  0
LINE
  5
251
100
AcDbEntity
  8
化粧台
  6
EXLTYPE2
 62
     6
100
AcDbLine
 10
2202.064512
 20
1564.833333
 30
0.0
 11
2202.064512
 21
1571.833333
 31
0.0
  0
LINE
  5
252
100
AcDbEntity
  8
化粧台
  6
EXLTYPE2
 62
     6
100
AcDbLine
 10
2180.677416
 20
1564.833333
 30
0.0
 11
2180.677416
 21
1571.833333
 31
0.0
  0
LINE
  5
253
100
AcDbEntity
  8
化粧台
  6
EXLTYPE2
 62
     6
100
AcDbLine
 10
2181.93548
 20
1564.833333
 30
0.0
 11
2181.93548
 21
1571.833333
 31
0.0
  0
LINE
  5
254
100
AcDbEntity
  8
化粧台
  6
EXLTYPE2
 62
     6
100
AcDbLine
 10
2164.5
 20
1574.333333
 30
0.0
 11
2219.5
 21
1574.333333
 31
0.0
  0
LINE
  5
255
100
AcDbEntity
  8
化粧台
  6
EXLTYPE2
 62
     6
100
AcDbLine
 10
2212.967736
 20
1564.833333
 30
0.0
 11
2212.967736
 21
1571.833333
 31
0.0
  0
LINE
  5
256
100
AcDbEntity
  8
化粧台
  6
EXLTYPE2
 62
     6
100
AcDbLine
 10
2171.032256
 20
1564.833333
 30
0.0
 11
2212.967736
 21
1564.833333
 31
0.0
  0
LINE
  5
257
100
AcDbEntity
  8
化粧台
  6
EXLTYPE2
 62
     6
100
AcDbLine
 10
2171.032256
 20
1564.833333
 30
0.0
 11
2171.032256
 21
1571.833333
 31
0.0
  0
LINE
  5
258
100
AcDbEntity
  8
化粧台
  6
EXLTYPE2
 62
     6
100
AcDbLine
 10
2166.0
 20
1571.833333
 30
0.0
 11
2218.0
 21
1571.833333
 31
0.0
  0
LINE
  5
259
100
AcDbEntity
  8
化粧台
  6
EXLTYPE2
 62
     6
100
AcDbLine
 10
2166.0
 20
1571.833333
 30
0.0
 11
2166.0
 21
1573.333333
 31
0.0
  0
LINE
  5
25A
100
AcDbEntity
  8
化粧台
  6
EXLTYPE2
 62
     6
100
AcDbLine
 10
2218.0
 20
1571.833333
 30
0.0
 11
2218.0
 21
1573.333333
 31
0.0
  0
LINE
  5
25B
100
AcDbEntity
  8
化粧台
  6
EXLTYPE2
 62
     6
100
AcDbLine
 10
2212.0
 20
1557.5
 30
0.0
 11
2172.0
 21
1557.5
 31
0.0
  0
LINE
  5
25C
100
AcDbEntity
  8
化粧台
  6
EXLTYPE2
 62
     6
100
AcDbLine
 10
2247.5
 20
1548.5
 30
0.0
 11
2242.5
 21
1548.5
 31
0.0
  0
LINE
  5
25D
100
AcDbEntity
  8
化粧台
  6
EXLTYPE2
 62
     6
100
AcDbLine
 10
2174.5
 20
1564.833333
 30
0.0
 11
2174.5
 21
1564.5
 31
0.0
  0
LINE
  5
25E
100
AcDbEntity
  8
化粧台
  6
EXLTYPE2
 62
     6
100
AcDbLine
 10
2209.5
 20
1564.833333
 30
0.0
 11
2209.5
 21
1564.5
 31
0.0
  0
LINE
  5
25F
100
AcDbEntity
  8
化粧台
  6
EXLTYPE2
 62
     6
100
AcDbLine
 10
2166.0
 20
1573.333333
 30
0.0
 11
2218.0
 21
1573.333333
 31
0.0
  0
LINE
  5
260
100
AcDbEntity
  8
化粧台
  6
EXLTYPE2
 62
     6
100
AcDbLine
 10
2164.5
 20
1573.333333
 30
0.0
 11
2219.5
 21
1573.333333
 31
0.0
  0
LINE
  5
261
100
AcDbEntity
  8
化粧台
  6
EXLTYPE2
 62
     6
100
AcDbLine
 10
2210.0
 20
1564.5
 30
0.0
 11
2174.0
 21
1564.5
 31
0.0
  0
ARC
  5
262
100
AcDbEntity
  8
化粧台
  6
EXLTYPE2
 62
     6
100
AcDbCircle
 10
2210.0
 20
1561.0
 30
0.0
 40
3.5
100
AcDbArc
 50
270.0
 51
90.0
  0
ARC
  5
263
100
AcDbEntity
  8
化粧台
  6
EXLTYPE2
 62
     6
100
AcDbCircle
 10
2174.0
 20
1561.0
 30
0.0
 40
3.5
100
AcDbArc
 50
90.0
 51
270.0
  0
LINE
  5
264
100
AcDbEntity
  8
化粧台
  6
EXLTYPE2
 62
     6
100
AcDbLine
 10
2172.0
 20
1557.5
 30
0.0
 11
2172.0
 21
1520.0
 31
0.0
  0
ARC
  5
265
100
AcDbEntity
  8
化粧台
  6
EXLTYPE2
 62
     6
100
AcDbCircle
 10
2215.0
 20
1550.1784
 30
0.0
 40
3.0
100
AcDbArc
 50
180.0
 51
263.516926
  0
LINE
  5
266
100
AcDbEntity
  8
化粧台
  6
EXLTYPE2
 62
     6
100
AcDbLine
 10
2214.661264
 20
1547.197584
 30
0.0
 11
2234.0
 21
1545.0
 31
0.0
  0
LINE
  5
267
100
AcDbEntity
  8
化粧台
  6
EXLTYPE2
 62
     6
100
AcDbLine
 10
2212.0
 20
1557.5
 30
0.0
 11
2212.0
 21
1550.1784
 31
0.0
  0
LINE
  5
268
100
AcDbEntity
  8
化粧台
  6
EXLTYPE2
 62
     6
100
AcDbLine
 10
2234.0
 20
1547.5
 30
0.0
 11
2234.0
 21
1526.5
 31
0.0
  0
LINE
  5
269
100
AcDbEntity
  8
化粧台
  6
EXLTYPE2
 62
     6
100
AcDbLine
 10
2263.0
 20
1548.0
 30
0.0
 11
2254.0
 21
1548.0
 31
0.0
  0
ARC
  5
26A
100
AcDbEntity
  8
化粧台
  6
EXLTYPE2
 62
     6
100
AcDbCircle
 10
2263.0
 20
1545.0
 30
0.0
 40
3.0
100
AcDbArc
 50
0.0
 51
90.0
  0
LINE
  5
26B
100
AcDbEntity
  8
化粧台
  6
EXLTYPE2
 62
     6
100
AcDbLine
 10
2254.0
 20
1549.0
 30
0.0
 11
2247.5
 21
1549.0
 31
0.0
  0
LINE
  5
26C
100
AcDbEntity
  8
化粧台
  6
EXLTYPE2
 62
     6
100
AcDbLine
 10
2242.5
 20
1548.5
 30
0.0
 11
2242.5
 21
1525.5
 31
0.0
  0
LINE
  5
26D
100
AcDbEntity
  8
化粧台
  6
EXLTYPE2
 62
     6
100
AcDbLine
 10
2266.0
 20
1545.0
 30
0.0
 11
2266.0
 21
1529.0
 31
0.0
  0
LINE
  5
26E
100
AcDbEntity
  8
化粧台
  6
EXLTYPE2
 62
     6
100
AcDbLine
 10
2242.5
 20
1547.5
 30
0.0
 11
2234.0
 21
1547.5
 31
0.0
  0
LINE
  5
26F
100
AcDbEntity
  8
化粧台
  6
EXLTYPE2
 62
     6
100
AcDbLine
 10
2254.0
 20
1549.0
 30
0.0
 11
2254.0
 21
1525.0
 31
0.0
  0
LINE
  5
270
100
AcDbEntity
  8
化粧台
  6
EXLTYPE2
 62
     6
100
AcDbLine
 10
2247.5
 20
1549.0
 30
0.0
 11
2247.5
 21
1525.0
 31
0.0
  0
LINE
  5
271
100
AcDbEntity
  8
化粧台
  6
EXLTYPE2
 62
     6
100
AcDbLine
 10
2387.0
 20
1540.0
 30
0.0
 11
2387.0
 21
1534.0
 31
0.0
  0
LINE
  5
272
100
AcDbEntity
  8
化粧台
  6
EXLTYPE2
 62
     6
100
AcDbLine
 10
2308.325036
 20
1437.636114
 30
0.0
 11
2314.266644
 21
1436.801075
 31
0.0
  0
LINE
  5
273
100
AcDbEntity
  8
化粧台
  6
CONTINUOUS
 62
     2
100
AcDbLine
 10
1970.873536
 20
1727.176475
 30
0.0
 11
2075.0
 21
1575.0
 31
0.0
  0
LINE
  5
274
100
AcDbEntity
  8
化粧台
  6
CONTINUOUS
 62
     2
100
AcDbLine
 10
2419.995215
 20
1739.78131
 30
0.0
 11
2413.00257
 21
1575.0
 31
0.0
  0
ARC
  5
275
100
AcDbEntity
  8
化粧台
  6
CONTINUOUS
 62
     2
100
AcDbCircle
 10
2415.0
 20
1740.0
 30
0.0
 40
5.0
100
AcDbArc
 50
357.493195
 51
91.301953
  0
ARC
  5
276
100
AcDbEntity
  8
化粧台
  6
CONTINUOUS
 62
     2
100
AcDbCircle
 10
1975.0
 20
1730.0
 30
0.0
 40
5.0
100
AcDbArc
 50
91.301953
 51
214.381811
  0
LINE
  5
277
100
AcDbEntity
  8
化粧台
  6
CONTINUOUS
 62
     2
100
AcDbLine
 10
1974.886393
 20
1734.998709
 30
0.0
 11
2414.886393
 21
1744.998709
 31
0.0
  0
LINE
  5
278
100
AcDbEntity
  8
化粧台
  6
CONTINUOUS
 62
     6
100
AcDbLine
 10
2417.5
 20
1495.0
 30
0.0
 11
2491.9
 21
1495.0
 31
0.0
  0
LINE
  5
279
100
AcDbEntity
  8
化粧台
  6
CONTINUOUS
 62
     6
100
AcDbLine
 10
2481.9
 20
1495.0
 30
0.0
 11
2449.4
 21
1493.0
 31
0.0
  0
LINE
  5
27A
100
AcDbEntity
  8
化粧台
  6
CONTINUOUS
 62
     6
100
AcDbLine
 10
2449.4
 20
1497.0
 30
0.0
 11
2481.9
 21
1495.0
 31
0.0
  0
LINE
  5
27B
100
AcDbEntity
  8
化粧台
  6
CONTINUOUS
 62
     2
100
AcDbLine
 10
2450.0
 20
1575.0
 30
0.0
 11
2450.0
 21
875.0
 31
0.0
  0
TEXT
  5
27C
100
AcDbEntity
  8
化粧台
  6
CONTINUOUS
 62
     2
100
AcDbText
 10
1821.5
 20
875.0
 30
0.0
 40
60.0
  1
F.L.
 41
0.4125
  7
EXCADSTD
 72
     5
 11
1912.2434
 21
875.0
 31
0.0
100
AcDbText
  0
LINE
  5
27D
100
AcDbEntity
  8
化粧台
  6
EXLTYPE4
 62
     6
100
AcDbLine
 10
2450.0
 20
875.0
 30
0.0
 11
1821.5
 21
875.0
 31
0.0
  0
LINE
  5
27E
100
AcDbEntity
  8
化粧台
  6
CONTINUOUS
 62
     2
100
AcDbLine
 10
935.875
 20
1518.0
 30
0.0
 11
935.875
 21
1394.0
 31
0.0
  0
LINE
  5
27F
100
AcDbEntity
  8
化粧台
  6
CONTINUOUS
 62
     2
100
AcDbLine
 10
904.125
 20
1518.0
 30
0.0
 11
904.125
 21
1394.0
 31
0.0
  0
LINE
  5
280
100
AcDbEntity
  8
化粧台
  6
EXLTYPE4
 62
     6
100
AcDbLine
 10
834.5
 20
1075.0
 30
0.0
 11
834.5
 21
867.0
 31
0.0
  0
LINE
  5
281
100
AcDbEntity
  8
化粧台
  6
EXLTYPE4
 62
     6
100
AcDbLine
 10
855.5
 20
1075.0
 30
0.0
 11
855.5
 21
867.0
 31
0.0
  0
LINE
  5
282
100
AcDbEntity
  8
化粧台
  6
EXLTYPE3
 62
     6
100
AcDbLine
 10
845.0
 20
1085.0
 30
0.0
 11
845.0
 21
857.0
 31
0.0
  0
LINE
  5
283
100
AcDbEntity
  8
化粧台
  6
CONTINUOUS
 62
     6
100
AcDbLine
 10
834.5
 20
867.0
 30
0.0
 11
855.5
 21
867.0
 31
0.0
  0
LINE
  5
284
100
AcDbEntity
  8
化粧台
  6
EXLTYPE4
 62
     6
100
AcDbLine
 10
1005.5
 20
1075.0
 30
0.0
 11
1005.5
 21
867.0
 31
0.0
  0
LINE
  5
285
100
AcDbEntity
  8
化粧台
  6
EXLTYPE4
 62
     6
100
AcDbLine
 10
984.5
 20
1075.0
 30
0.0
 11
984.5
 21
867.0
 31
0.0
  0
LINE
  5
286
100
AcDbEntity
  8
化粧台
  6
EXLTYPE3
 62
     6
100
AcDbLine
 10
995.0
 20
1085.0
 30
0.0
 11
995.0
 21
857.0
 31
0.0
  0
LINE
  5
287
100
AcDbEntity
  8
化粧台
  6
CONTINUOUS
 62
     6
100
AcDbLine
 10
1005.5
 20
867.0
 30
0.0
 11
984.5
 21
867.0
 31
0.0
  0
LINE
  5
288
100
AcDbEntity
  8
化粧台
  6
EXLTYPE4
 62
     6
100
AcDbLine
 10
904.0
 20
1075.0
 30
0.0
 11
904.0
 21
845.0
 31
0.0
  0
LINE
  5
289
100
AcDbEntity
  8
化粧台
  6
EXLTYPE4
 62
     6
100
AcDbLine
 10
936.0
 20
1075.0
 30
0.0
 11
936.0
 21
845.0
 31
0.0
  0
LINE
  5
28A
100
AcDbEntity
  8
化粧台
  6
CONTINUOUS
 62
     6
100
AcDbLine
 10
904.0
 20
845.0
 30
0.0
 11
936.0
 21
845.0
 31
0.0
  0
LINE
  5
28B
100
AcDbEntity
  8
化粧台
  6
CONTINUOUS
 62
     6
100
AcDbLine
 10
963.0
 20
1350.0
 30
0.0
 11
877.0
 21
1350.0
 31
0.0
  0
ARC
  5
28C
100
AcDbEntity
  8
化粧台
  6
CONTINUOUS
 62
     6
100
AcDbCircle
 10
920.0
 20
1258.0
 30
0.0
 40
16.0
100
AcDbArc
 50
180.0
 51
0.0
  0
LINE
  5
28D
100
AcDbEntity
  8
化粧台
  6
CONTINUOUS
 62
     6
100
AcDbLine
 10
936.0
 20
1332.399886
 30
0.0
 11
936.0
 21
1258.0
 31
0.0
  0
LINE
  5
28E
100
AcDbEntity
  8
化粧台
  6
CONTINUOUS
 62
     6
100
AcDbLine
 10
904.0
 20
1332.399886
 30
0.0
 11
904.0
 21
1258.0
 31
0.0
  0
ARC
  5
28F
100
AcDbEntity
  8
化粧台
  6
CONTINUOUS
 62
     6
100
AcDbCircle
 10
920.0
 20
1350.0
 30
0.0
 40
33.0
100
AcDbArc
 50
299.002546
 51
59.497513
  0
ARC
  5
290
100
AcDbEntity
  8
化粧台
  6
CONTINUOUS
 62
     6
100
AcDbCircle
 10
920.0
 20
1350.0
 30
0.0
 40
33.0
100
AcDbArc
 50
120.502487
 51
240.997454
  0
LINE
  5
291
100
AcDbEntity
  8
化粧台
  6
CONTINUOUS
 62
     6
100
AcDbLine
 10
936.0
 20
1311.0
 30
0.0
 11
941.5
 21
1311.0
 31
0.0
  0
LINE
  5
292
100
AcDbEntity
  8
化粧台
  6
CONTINUOUS
 62
     6
100
AcDbLine
 10
936.0
 20
1299.0
 30
0.0
 11
941.5
 21
1299.0
 31
0.0
  0
LINE
  5
293
100
AcDbEntity
  8
化粧台
  6
CONTINUOUS
 62
     6
100
AcDbLine
 10
898.5
 20
1299.0
 30
0.0
 11
904.0
 21
1299.0
 31
0.0
  0
LINE
  5
294
100
AcDbEntity
  8
化粧台
  6
CONTINUOUS
 62
     6
100
AcDbLine
 10
898.5
 20
1311.0
 30
0.0
 11
904.0
 21
1311.0
 31
0.0
  0
ELLIPSE
  5
295
100
AcDbEntity
  8
化粧台
  6
CONTINUOUS
 62
     6
100
AcDbEllipse
 10
930.75
 20
1305.0
 30
0.0
 11
9.236476601000053
 21
0.0
 31
0.0
210
0.0
220
0.0
230
1.0
 40
0.649598
 41
5.3169470840248341
 42
0.9662382231547565
  0
ELLIPSE
  5
296
100
AcDbEntity
  8
化粧台
  6
CONTINUOUS
 62
     6
100
AcDbEllipse
 10
909.25
 20
1305.0
 30
0.0
 11
9.236476601000053
 21
0.0
 31
0.0
210
0.0
220
0.0
230
1.0
 40
0.649598
 41
2.1753544304349859
 42
4.107830876744603
  0
LINE
  5
297
100
AcDbEntity
  8
化粧台
  6
CONTINUOUS
 62
     6
100
AcDbLine
 10
898.5
 20
1311.0
 30
0.0
 11
898.5
 21
1299.0
 31
0.0
  0
LINE
  5
298
100
AcDbEntity
  8
化粧台
  6
CONTINUOUS
 62
     6
100
AcDbLine
 10
941.5
 20
1311.0
 30
0.0
 11
941.5
 21
1299.0
 31
0.0
  0
LINE
  5
299
100
AcDbEntity
  8
化粧台
  6
CONTINUOUS
 62
     6
100
AcDbLine
 10
898.5
 20
1394.0
 30
0.0
 11
941.5
 21
1394.0
 31
0.0
  0
LINE
  5
29A
100
AcDbEntity
  8
化粧台
  6
CONTINUOUS
 62
     6
100
AcDbLine
 10
898.5
 20
1382.0
 30
0.0
 11
941.5
 21
1382.0
 31
0.0
  0
LINE
  5
29B
100
AcDbEntity
  8
化粧台
  6
CONTINUOUS
 62
     6
100
AcDbLine
 10
898.5
 20
1394.0
 30
0.0
 11
898.5
 21
1382.0
 31
0.0
  0
ELLIPSE
  5
29C
100
AcDbEntity
  8
化粧台
  6
CONTINUOUS
 62
     6
100
AcDbEllipse
 10
909.25
 20
1388.0
 30
0.0
 11
9.236476601000053
 21
0.0
 31
0.0
210
0.0
220
0.0
230
1.0
 40
0.649598
 41
0.0
 42
6.2831853071796004
  0
LINE
  5
29D
100
AcDbEntity
  8
化粧台
  6
CONTINUOUS
 62
     6
100
AcDbLine
 10
941.5
 20
1394.0
 30
0.0
 11
941.5
 21
1382.0
 31
0.0
  0
ELLIPSE
  5
29E
100
AcDbEntity
  8
化粧台
  6
CONTINUOUS
 62
     6
100
AcDbEllipse
 10
930.75
 20
1388.0
 30
0.0
 11
9.236476601000053
 21
0.0
 31
0.0
210
0.0
220
0.0
230
1.0
 40
0.649598
 41
0.0
 42
6.2831853071796004
  0
LINE
  5
29F
100
AcDbEntity
  8
化粧台
  6
CONTINUOUS
 62
     6
100
AcDbLine
 10
904.0
 20
1332.399886
 30
0.0
 11
936.0
 21
1332.399886
 31
0.0
  0
LINE
  5
2A0
100
AcDbEntity
  8
化粧台
  6
CONTINUOUS
 62
     6
100
AcDbLine
 10
903.25
 20
1332.774886
 30
0.0
 11
904.0
 21
1332.024886
 31
0.0
  0
LINE
  5
2A1
100
AcDbEntity
  8
化粧台
  6
CONTINUOUS
 62
     6
100
AcDbLine
 10
936.75
 20
1332.774886
 30
0.0
 11
936.0
 21
1332.024886
 31
0.0
  0
LINE
  5
2A2
100
AcDbEntity
  8
化粧台
  6
CONTINUOUS
 62
     6
100
AcDbLine
 10
936.75
 20
1382.0
 30
0.0
 11
936.75
 21
1332.774886
 31
0.0
  0
LINE
  5
2A3
100
AcDbEntity
  8
化粧台
  6
CONTINUOUS
 62
     6
100
AcDbLine
 10
903.25
 20
1382.0
 30
0.0
 11
903.25
 21
1332.774886
 31
0.0
  0
ARC
  5
2A4
100
AcDbEntity
  8
化粧台
  6
CONTINUOUS
 62
     2
100
AcDbCircle
 10
1138.5
 20
1443.475339
 30
0.0
 40
300.0
100
AcDbArc
 50
164.231639
 51
180.0
  0
ARC
  5
2A5
100
AcDbEntity
  8
化粧台
  6
CONTINUOUS
 62
     2
100
AcDbCircle
 10
1138.5
 20
1443.475339
 30
0.0
 40
287.0
100
AcDbArc
 50
163.497448
 51
180.0
  0
ARC
  5
2A6
100
AcDbEntity
  8
化粧台
  6
CONTINUOUS
 62
     2
100
AcDbCircle
 10
701.5
 20
1443.475339
 30
0.0
 40
287.0
100
AcDbArc
 50
0.0
 51
16.502552
  0
ARC
  5
2A7
100
AcDbEntity
  8
化粧台
  6
CONTINUOUS
 62
     2
100
AcDbCircle
 10
701.5
 20
1443.475339
 30
0.0
 40
300.0
100
AcDbArc
 50
0.0
 51
15.768361
  0
LINE
  5
2A8
100
AcDbEntity
  8
化粧台
  6
CONTINUOUS
 62
     2
100
AcDbLine
 10
940.0
 20
1525.0
 30
0.0
 11
940.0
 21
1520.0
 31
0.0
  0
LINE
  5
2A9
100
AcDbEntity
  8
化粧台
  6
CONTINUOUS
 62
     2
100
AcDbLine
 10
900.0
 20
1525.0
 30
0.0
 11
900.0
 21
1520.0
 31
0.0
  0
LINE
  5
2AA
100
AcDbEntity
  8
化粧台
  6
CONTINUOUS
 62
     2
100
AcDbLine
 10
940.0
 20
1520.0
 30
0.0
 11
900.0
 21
1520.0
 31
0.0
  0
LINE
  5
2AB
100
AcDbEntity
  8
化粧台
  6
CONTINUOUS
 62
     2
100
AcDbLine
 10
936.0
 20
1518.0
 30
0.0
 11
904.0
 21
1518.0
 31
0.0
  0
LINE
  5
2AC
100
AcDbEntity
  8
化粧台
  6
CONTINUOUS
 62
     2
100
AcDbLine
 10
904.0
 20
1518.0
 30
0.0
 11
900.0
 21
1520.0
 31
0.0
  0
LINE
  5
2AD
100
AcDbEntity
  8
化粧台
  6
CONTINUOUS
 62
     2
100
AcDbLine
 10
936.0
 20
1518.0
 30
0.0
 11
940.0
 21
1520.0
 31
0.0
  0
LINE
  5
2AE
100
AcDbEntity
  8
化粧台
  6
CONTINUOUS
 62
     6
100
AcDbLine
 10
821.643506
 20
1736.0
 30
0.0
 11
1018.356494
 21
1736.0
 31
0.0
  0
ARC
  5
2AF
100
AcDbEntity
  8
化粧台
  6
CONTINUOUS
 62
     2
100
AcDbCircle
 10
920.0
 20
6572.5
 30
0.0
 40
4837.5
100
AcDbArc
 50
267.455315
 51
272.544685
  0
ARC
  5
2B0
100
AcDbEntity
  8
化粧台
  6
CONTINUOUS
 62
     2
100
AcDbCircle
 10
1140.0
 20
1735.0
 30
0.0
 40
5.0
100
AcDbArc
 50
340.61414
 51
87.396095
  0
ARC
  5
2B1
100
AcDbEntity
  8
化粧台
  6
CONTINUOUS
 62
     2
100
AcDbCircle
 10
700.0
 20
1735.0
 30
0.0
 40
5.0
100
AcDbArc
 50
92.603905
 51
199.38586
  0
LINE
  5
2B2
100
AcDbEntity
  8
化粧台
  6
CONTINUOUS
 62
     2
100
AcDbLine
 10
751.0
 20
1575.0
 30
0.0
 11
1089.0
 21
1575.0
 31
0.0
  0
LINE
  5
2B3
100
AcDbEntity
  8
化粧台
  6
CONTINUOUS
 62
     2
100
AcDbLine
 10
1089.0
 20
1575.0
 30
0.0
 11
1144.716523
 21
1733.340358
 31
0.0
  0
LINE
  5
2B4
100
AcDbEntity
  8
化粧台
  6
CONTINUOUS
 62
     2
100
AcDbLine
 10
695.283477
 20
1733.340358
 30
0.0
 11
751.0
 21
1575.0
 31
0.0
  0
ARC
  5
2B5
100
AcDbEntity
  8
化粧台
  6
CONTINUOUS
 62
     6
100
AcDbCircle
 10
845.0
 20
1315.0
 30
0.0
 40
27.5
100
AcDbArc
 50
114.719851
 51
65.280149
  0
LINE
  5
2B6
100
AcDbEntity
  8
化粧台
  6
CONTINUOUS
 62
     6
100
AcDbLine
 10
845.0
 20
1345.0
 30
0.0
 11
845.0
 21
1285.0
 31
0.0
  0
LINE
  5
2B7
100
AcDbEntity
  8
化粧台
  6
CONTINUOUS
 62
     6
100
AcDbLine
 10
815.0
 20
1315.0
 30
0.0
 11
875.0
 21
1315.0
 31
0.0
  0
LINE
  5
2B8
100
AcDbEntity
  8
化粧台
  6
CONTINUOUS
 62
     6
100
AcDbLine
 10
834.5
 20
1337.7
 30
0.0
 11
834.5
 21
1323.948929
 31
0.0
  0
LINE
  5
2B9
100
AcDbEntity
  8
化粧台
  6
CONTINUOUS
 62
     6
100
AcDbLine
 10
855.5
 20
1337.7
 30
0.0
 11
855.5
 21
1323.948929
 31
0.0
  0
CIRCLE
  5
2BA
100
AcDbEntity
  8
化粧台
  6
CONTINUOUS
 62
     6
100
AcDbCircle
 10
845.0
 20
1315.0
 30
0.0
 40
12.074349
  0
CIRCLE
  5
2BB
100
AcDbEntity
  8
化粧台
  6
CONTINUOUS
 62
     6
100
AcDbCircle
 10
845.0
 20
1315.0
 30
0.0
 40
4.75
  0
ARC
  5
2BC
100
AcDbEntity
  8
化粧台
  6
CONTINUOUS
 62
     6
100
AcDbCircle
 10
845.0
 20
1315.0
 30
0.0
 40
14.25
100
AcDbArc
 50
204.177545
 51
215.822455
  0
ARC
  5
2BD
100
AcDbEntity
  8
化粧台
  6
CONTINUOUS
 62
     6
100
AcDbCircle
 10
845.0
 20
1315.0
 30
0.0
 40
14.25
100
AcDbArc
 50
144.177545
 51
155.822455
  0
ARC
  5
2BE
100
AcDbEntity
  8
化粧台
  6
CONTINUOUS
 62
     6
100
AcDbCircle
 10
845.0
 20
1315.0
 30
0.0
 40
14.25
100
AcDbArc
 50
84.177545
 51
95.822455
  0
ARC
  5
2BF
100
AcDbEntity
  8
化粧台
  6
CONTINUOUS
 62
     6
100
AcDbCircle
 10
845.0
 20
1315.0
 30
0.0
 40
14.25
100
AcDbArc
 50
24.177545
 51
35.822455
  0
ARC
  5
2C0
100
AcDbEntity
  8
化粧台
  6
CONTINUOUS
 62
     6
100
AcDbCircle
 10
845.0
 20
1315.0
 30
0.0
 40
14.25
100
AcDbArc
 50
324.177545
 51
335.822455
  0
ARC
  5
2C1
100
AcDbEntity
  8
化粧台
  6
CONTINUOUS
 62
     6
100
AcDbCircle
 10
845.0
 20
1315.0
 30
0.0
 40
14.25
100
AcDbArc
 50
264.177545
 51
275.822455
  0
LINE
  5
2C2
100
AcDbEntity
  8
化粧台
  6
CONTINUOUS
 62
     6
100
AcDbLine
 10
846.445608
 20
1300.823515
 30
0.0
 11
856.554392
 21
1306.659824
 31
0.0
  0
LINE
  5
2C3
100
AcDbEntity
  8
化粧台
  6
CONTINUOUS
 62
     6
100
AcDbLine
 10
833.445608
 20
1306.659824
 30
0.0
 11
843.554392
 21
1300.823515
 31
0.0
  0
LINE
  5
2C4
100
AcDbEntity
  8
化粧台
  6
CONTINUOUS
 62
     6
100
AcDbLine
 10
832.0
 20
1320.836309
 30
0.0
 11
832.0
 21
1309.163691
 31
0.0
  0
LINE
  5
2C5
100
AcDbEntity
  8
化粧台
  6
CONTINUOUS
 62
     6
100
AcDbLine
 10
843.554392
 20
1329.176485
 30
0.0
 11
833.445608
 21
1323.340176
 31
0.0
  0
LINE
  5
2C6
100
AcDbEntity
  8
化粧台
  6
CONTINUOUS
 62
     6
100
AcDbLine
 10
856.554392
 20
1323.340176
 30
0.0
 11
846.445608
 21
1329.176485
 31
0.0
  0
LINE
  5
2C7
100
AcDbEntity
  8
化粧台
  6
CONTINUOUS
 62
     6
100
AcDbLine
 10
858.0
 20
1309.163691
 30
0.0
 11
858.0
 21
1320.836309
 31
0.0
  0
ELLIPSE
  5
2C8
100
AcDbEntity
  8
化粧台
  6
CONTINUOUS
 62
     6
100
AcDbEllipse
 10
850.750971
 20
1343.7
 30
0.0
 11
0.0000000000000003
 21
5.0928871968700005
 31
0.0
210
0.0
220
0.0
230
1.0
 40
0.93641
 41
0.0
 42
6.2831853071796004
  0
ELLIPSE
  5
2C9
100
AcDbEntity
  8
化粧台
  6
CONTINUOUS
 62
     6
100
AcDbEllipse
 10
839.249029
 20
1343.7
 30
0.0
 11
-0.0000000000000009
 21
-5.0928871968700005
 31
0.0
210
0.0
220
0.0
230
1.0
 40
0.93641
 41
0.0
 42
6.2831853071796004
  0
LINE
  5
2CA
100
AcDbEntity
  8
化粧台
  6
CONTINUOUS
 62
     2
100
AcDbLine
 10
855.969544
 20
1337.7
 30
0.0
 11
834.030456
 21
1337.7
 31
0.0
  0
LINE
  5
2CB
100
AcDbEntity
  8
化粧台
  6
CONTINUOUS
 62
     2
100
AcDbLine
 10
855.969544
 20
1349.7
 30
0.0
 11
834.030456
 21
1349.7
 31
0.0
  0
LINE
  5
2CC
100
AcDbEntity
  8
化粧台
  6
CONTINUOUS
 62
     2
100
AcDbLine
 10
856.5
 20
1348.792887
 30
0.0
 11
856.5
 21
1338.607113
 31
0.0
  0
LINE
  5
2CD
100
AcDbEntity
  8
化粧台
  6
CONTINUOUS
 62
     2
100
AcDbLine
 10
833.5
 20
1348.792887
 30
0.0
 11
833.5
 21
1338.607113
 31
0.0
  0
ARC
  5
2CE
100
AcDbEntity
  8
化粧台
  6
CONTINUOUS
 62
     2
100
AcDbCircle
 10
846.75
 20
1343.7
 30
0.0
 40
11.0
100
AcDbArc
 50
27.580199
 51
33.055731
  0
ARC
  5
2CF
100
AcDbEntity
  8
化粧台
  6
CONTINUOUS
 62
     2
100
AcDbCircle
 10
846.75
 20
1343.7
 30
0.0
 40
11.0
100
AcDbArc
 50
326.944269
 51
332.419801
  0
ARC
  5
2D0
100
AcDbEntity
  8
化粧台
  6
CONTINUOUS
 62
     2
100
AcDbCircle
 10
843.25
 20
1343.7
 30
0.0
 40
11.0
100
AcDbArc
 50
207.580199
 51
213.055731
  0
ARC
  5
2D1
100
AcDbEntity
  8
化粧台
  6
CONTINUOUS
 62
     2
100
AcDbCircle
 10
843.25
 20
1343.7
 30
0.0
 40
11.0
100
AcDbArc
 50
146.944269
 51
152.419801
  0
LINE
  5
2D2
100
AcDbEntity
  8
化粧台
  6
CONTINUOUS
 62
     2
100
AcDbLine
 10
838.5
 20
1349.7
 30
0.0
 11
838.5
 21
1443.475339
 31
0.0
  0
LINE
  5
2D3
100
AcDbEntity
  8
化粧台
  6
CONTINUOUS
 62
     2
100
AcDbLine
 10
851.5
 20
1443.475339
 30
0.0
 11
851.5
 21
1349.7
 31
0.0
  0
LINE
  5
2D4
100
AcDbEntity
  8
化粧台
  6
CONTINUOUS
 62
     2
100
AcDbLine
 10
1001.5
 20
1349.7
 30
0.0
 11
1001.5
 21
1443.475339
 31
0.0
  0
LINE
  5
2D5
100
AcDbEntity
  8
化粧台
  6
CONTINUOUS
 62
     2
100
AcDbLine
 10
988.5
 20
1443.475339
 30
0.0
 11
988.5
 21
1349.7
 31
0.0
  0
ARC
  5
2D6
100
AcDbEntity
  8
化粧台
  6
CONTINUOUS
 62
     6
100
AcDbCircle
 10
995.0
 20
1315.0
 30
0.0
 40
27.5
100
AcDbArc
 50
114.719851
 51
65.280149
  0
LINE
  5
2D7
100
AcDbEntity
  8
化粧台
  6
CONTINUOUS
 62
     6
100
AcDbLine
 10
995.0
 20
1345.0
 30
0.0
 11
995.0
 21
1285.0
 31
0.0
  0
LINE
  5
2D8
100
AcDbEntity
  8
化粧台
  6
CONTINUOUS
 62
     6
100
AcDbLine
 10
1025.0
 20
1315.0
 30
0.0
 11
965.0
 21
1315.0
 31
0.0
  0
LINE
  5
2D9
100
AcDbEntity
  8
化粧台
  6
CONTINUOUS
 62
     6
100
AcDbLine
 10
1005.5
 20
1337.7
 30
0.0
 11
1005.5
 21
1323.948929
 31
0.0
  0
LINE
  5
2DA
100
AcDbEntity
  8
化粧台
  6
CONTINUOUS
 62
     6
100
AcDbLine
 10
984.5
 20
1337.7
 30
0.0
 11
984.5
 21
1323.948929
 31
0.0
  0
CIRCLE
  5
2DB
100
AcDbEntity
  8
化粧台
  6
CONTINUOUS
 62
     6
100
AcDbCircle
 10
995.0
 20
1315.0
 30
0.0
 40
12.074349
  0
CIRCLE
  5
2DC
100
AcDbEntity
  8
化粧台
  6
CONTINUOUS
 62
     6
100
AcDbCircle
 10
995.0
 20
1315.0
 30
0.0
 40
4.75
  0
ARC
  5
2DD
100
AcDbEntity
  8
化粧台
  6
CONTINUOUS
 62
     6
100
AcDbCircle
 10
995.0
 20
1315.0
 30
0.0
 40
14.25
100
AcDbArc
 50
324.177545
 51
335.822455
  0
ARC
  5
2DE
100
AcDbEntity
  8
化粧台
  6
CONTINUOUS
 62
     6
100
AcDbCircle
 10
995.0
 20
1315.0
 30
0.0
 40
14.25
100
AcDbArc
 50
24.177545
 51
35.822455
  0
ARC
  5
2DF
100
AcDbEntity
  8
化粧台
  6
CONTINUOUS
 62
     6
100
AcDbCircle
 10
995.0
 20
1315.0
 30
0.0
 40
14.25
100
AcDbArc
 50
84.177545
 51
95.822455
  0
ARC
  5
2E0
100
AcDbEntity
  8
化粧台
  6
CONTINUOUS
 62
     6
100
AcDbCircle
 10
995.0
 20
1315.0
 30
0.0
 40
14.25
100
AcDbArc
 50
144.177545
 51
155.822455
  0
ARC
  5
2E1
100
AcDbEntity
  8
化粧台
  6
CONTINUOUS
 62
     6
100
AcDbCircle
 10
995.0
 20
1315.0
 30
0.0
 40
14.25
100
AcDbArc
 50
204.177545
 51
215.822455
  0
ARC
  5
2E2
100
AcDbEntity
  8
化粧台
  6
CONTINUOUS
 62
     6
100
AcDbCircle
 10
995.0
 20
1315.0
 30
0.0
 40
14.25
100
AcDbArc
 50
264.177545
 51
275.822455
  0
LINE
  5
2E3
100
AcDbEntity
  8
化粧台
  6
CONTINUOUS
 62
     6
100
AcDbLine
 10
993.554392
 20
1300.823515
 30
0.0
 11
983.445608
 21
1306.659824
 31
0.0
  0
LINE
  5
2E4
100
AcDbEntity
  8
化粧台
  6
CONTINUOUS
 62
     6
100
AcDbLine
 10
1006.554392
 20
1306.659824
 30
0.0
 11
996.445608
 21
1300.823515
 31
0.0
  0
LINE
  5
2E5
100
AcDbEntity
  8
化粧台
  6
CONTINUOUS
 62
     6
100
AcDbLine
 10
1008.0
 20
1320.836309
 30
0.0
 11
1008.0
 21
1309.163691
 31
0.0
  0
LINE
  5
2E6
100
AcDbEntity
  8
化粧台
  6
CONTINUOUS
 62
     6
100
AcDbLine
 10
996.445608
 20
1329.176485
 30
0.0
 11
1006.554392
 21
1323.340176
 31
0.0
  0
LINE
  5
2E7
100
AcDbEntity
  8
化粧台
  6
CONTINUOUS
 62
     6
100
AcDbLine
 10
983.445608
 20
1323.340176
 30
0.0
 11
993.554392
 21
1329.176485
 31
0.0
  0
LINE
  5
2E8
100
AcDbEntity
  8
化粧台
  6
CONTINUOUS
 62
     6
100
AcDbLine
 10
982.0
 20
1309.163691
 30
0.0
 11
982.0
 21
1320.836309
 31
0.0
  0
ELLIPSE
  5
2E9
100
AcDbEntity
  8
化粧台
  6
CONTINUOUS
 62
     6
100
AcDbEllipse
 10
989.249029
 20
1343.7
 30
0.0
 11
0.0000000000000003
 21
5.0928871968700005
 31
0.0
210
0.0
220
0.0
230
1.0
 40
0.93641
 41
0.0
 42
6.2831853071796004
  0
ELLIPSE
  5
2EA
100
AcDbEntity
  8
化粧台
  6
CONTINUOUS
 62
     6
100
AcDbEllipse
 10
1000.750971
 20
1343.7
 30
0.0
 11
-0.0000000000000009
 21
-5.0928871968700005
 31
0.0
210
0.0
220
0.0
230
1.0
 40
0.93641
 41
0.0
 42
6.2831853071796004
  0
LINE
  5
2EB
100
AcDbEntity
  8
化粧台
  6
CONTINUOUS
 62
     2
100
AcDbLine
 10
984.030456
 20
1337.7
 30
0.0
 11
1005.969544
 21
1337.7
 31
0.0
  0
LINE
  5
2EC
100
AcDbEntity
  8
化粧台
  6
CONTINUOUS
 62
     2
100
AcDbLine
 10
984.030456
 20
1349.7
 30
0.0
 11
1005.969544
 21
1349.7
 31
0.0
  0
LINE
  5
2ED
100
AcDbEntity
  8
化粧台
  6
CONTINUOUS
 62
     2
100
AcDbLine
 10
983.5
 20
1348.792887
 30
0.0
 11
983.5
 21
1338.607113
 31
0.0
  0
LINE
  5
2EE
100
AcDbEntity
  8
化粧台
  6
CONTINUOUS
 62
     2
100
AcDbLine
 10
1006.5
 20
1348.792887
 30
0.0
 11
1006.5
 21
1338.607113
 31
0.0
  0
ARC
  5
2EF
100
AcDbEntity
  8
化粧台
  6
CONTINUOUS
 62
     2
100
AcDbCircle
 10
993.25
 20
1343.7
 30
0.0
 40
11.0
100
AcDbArc
 50
146.944269
 51
152.419801
  0
ARC
  5
2F0
100
AcDbEntity
  8
化粧台
  6
CONTINUOUS
 62
     2
100
AcDbCircle
 10
993.25
 20
1343.7
 30
0.0
 40
11.0
100
AcDbArc
 50
207.580199
 51
213.055731
  0
ARC
  5
2F1
100
AcDbEntity
  8
化粧台
  6
CONTINUOUS
 62
     2
100
AcDbCircle
 10
996.75
 20
1343.7
 30
0.0
 40
11.0
100
AcDbArc
 50
326.944269
 51
332.419801
  0
ARC
  5
2F2
100
AcDbEntity
  8
化粧台
  6
CONTINUOUS
 62
     2
100
AcDbCircle
 10
996.75
 20
1343.7
 30
0.0
 40
11.0
100
AcDbArc
 50
27.580199
 51
33.055731
  0
LINE
  5
2F3
100
AcDbEntity
  8
化粧台
  6
CONTINUOUS
 62
     6
100
AcDbLine
 10
2458.0
 20
1325.5
 30
0.0
 11
2458.0
 21
1304.5
 31
0.0
  0
LINE
  5
2F4
100
AcDbEntity
  8
化粧台
  6
CONTINUOUS
 62
     6
100
AcDbLine
 10
2365.0
 20
1345.0
 30
0.0
 11
2365.0
 21
1285.0
 31
0.0
  0
LINE
  5
2F5
100
AcDbEntity
  8
化粧台
  6
EXLTYPE3
 62
     6
100
AcDbLine
 10
2322.0
 20
1315.0
 30
0.0
 11
2468.0
 21
1315.0
 31
0.0
  0
LINE
  5
2F6
100
AcDbEntity
  8
化粧台
  6
EXLTYPE2
 62
     6
100
AcDbLine
 10
2393.0
 20
1304.5
 30
0.0
 11
2415.4
 21
1304.5
 31
0.0
  0
LINE
  5
2F7
100
AcDbEntity
  8
化粧台
  6
EXLTYPE2
 62
     6
100
AcDbLine
 10
2393.0
 20
1325.5
 30
0.0
 11
2415.4
 21
1325.5
 31
0.0
  0
LINE
  5
2F8
100
AcDbEntity
  8
化粧台
  6
EXLTYPE2
 62
     6
100
AcDbLine
 10
2431.4
 20
1304.5
 30
0.0
 11
2458.0
 21
1304.5
 31
0.0
  0
LINE
  5
2F9
100
AcDbEntity
  8
化粧台
  6
EXLTYPE2
 62
     6
100
AcDbLine
 10
2431.4
 20
1325.5
 30
0.0
 11
2458.0
 21
1325.5
 31
0.0
  0
LINE
  5
2FA
100
AcDbEntity
  8
化粧台
  6
EXLTYPE2
 62
     6
100
AcDbLine
 10
2415.4
 20
1304.25
 30
0.0
 11
2415.4
 21
1325.75
 31
0.0
  0
LINE
  5
2FB
100
AcDbEntity
  8
化粧台
  6
EXLTYPE2
 62
     6
100
AcDbLine
 10
2429.4
 20
1287.5
 30
0.0
 11
2431.4
 21
1287.5
 31
0.0
  0
ARC
  5
2FC
100
AcDbEntity
  8
化粧台
  6
EXLTYPE2
 62
     6
100
AcDbCircle
 10
2429.4
 20
1300.5
 30
0.0
 40
13.0
100
AcDbArc
 50
203.580837
 51
270.0
  0
ARC
  5
2FD
100
AcDbEntity
  8
化粧台
  6
EXLTYPE2
 62
     6
100
AcDbCircle
 10
2440.672908
 20
1305.420523
 30
0.0
 40
25.3
100
AcDbArc
 50
182.651778
 51
203.580837
  0
LINE
  5
2FE
100
AcDbEntity
  8
化粧台
  6
EXLTYPE2
 62
     6
100
AcDbLine
 10
2429.4
 20
1342.5
 30
0.0
 11
2431.4
 21
1342.5
 31
0.0
  0
ARC
  5
2FF
100
AcDbEntity
  8
化粧台
  6
EXLTYPE2
 62
     6
100
AcDbCircle
 10
2429.4
 20
1329.5
 30
0.0
 40
13.0
100
AcDbArc
 50
90.0
 51
156.419163
  0
ARC
  5
300
100
AcDbEntity
  8
化粧台
  6
EXLTYPE2
 62
     6
100
AcDbCircle
 10
2440.672908
 20
1324.579477
 30
0.0
 40
25.3
100
AcDbArc
 50
156.419163
 51
177.348222
  0
LINE
  5
301
100
AcDbEntity
  8
化粧台
  6
EXLTYPE2
 62
     6
100
AcDbLine
 10
2431.4
 20
1287.5
 30
0.0
 11
2431.4
 21
1342.5
 31
0.0
  0
ARC
  5
302
100
AcDbEntity
  8
化粧台
  6
EXLTYPE2
 62
     6
100
AcDbCircle
 10
2386.233493
 20
1303.958176
 30
0.0
 40
6.484775
100
AcDbArc
 50
334.581421
 51
34.581421
  0
ARC
  5
303
100
AcDbEntity
  8
化粧台
  6
EXLTYPE2
 62
     6
100
AcDbCircle
 10
2386.233493
 20
1326.041824
 30
0.0
 40
6.484775
100
AcDbArc
 50
325.418579
 51
25.418579
  0
LINE
  5
304
100
AcDbEntity
  8
化粧台
  6
EXLTYPE2
 62
     6
100
AcDbLine
 10
2332.0
 20
1319.75
 30
0.0
 11
2332.0
 21
1310.25
 31
0.0
  0
LINE
  5
305
100
AcDbEntity
  8
化粧台
  6
EXLTYPE2
 62
     6
100
AcDbLine
 10
2332.0
 20
1310.25
 30
0.0
 11
2337.6
 21
1310.25
 31
0.0
  0
LINE
  5
306
100
AcDbEntity
  8
化粧台
  6
EXLTYPE2
 62
     6
100
AcDbLine
 10
2332.0
 20
1319.75
 30
0.0
 11
2337.6
 21
1319.75
 31
0.0
  0
LINE
  5
307
100
AcDbEntity
  8
化粧台
  6
EXLTYPE2
 62
     6
100
AcDbLine
 10
2375.5
 20
1331.0
 30
0.0
 11
2375.5
 21
1337.7
 31
0.0
  0
LINE
  5
308
100
AcDbEntity
  8
化粧台
  6
EXLTYPE2
 62
     6
100
AcDbLine
 10
2354.5
 20
1331.0
 30
0.0
 11
2354.5
 21
1337.7
 31
0.0
  0
LINE
  5
309
100
AcDbEntity
  8
化粧台
  6
EXLTYPE2
 62
     6
100
AcDbLine
 10
2391.572541
 20
1322.361216
 30
0.0
 11
2386.0
 21
1322.361216
 31
0.0
  0
ARC
  5
30A
100
AcDbEntity
  8
化粧台
  6
EXLTYPE2
 62
     6
100
AcDbCircle
 10
2368.350109
 20
1315.0
 30
0.0
 40
24.361216
100
AcDbArc
 50
342.412046
 51
17.587954
  0
LINE
  5
30B
100
AcDbEntity
  8
化粧台
  6
EXLTYPE2
 62
     6
100
AcDbLine
 10
2391.572541
 20
1307.638784
 30
0.0
 11
2386.0
 21
1307.638784
 31
0.0
  0
ARC
  5
30C
100
AcDbEntity
  8
化粧台
  6
EXLTYPE2
 62
     6
100
AcDbCircle
 10
2386.609964
 20
1303.958176
 30
0.0
 40
3.730808
100
AcDbArc
 50
99.40975
 51
210.07224
  0
ARC
  5
30D
100
AcDbEntity
  8
化粧台
  6
EXLTYPE2
 62
     6
100
AcDbCircle
 10
2393.160902
 20
1315.0
 30
0.0
 40
10.269665
100
AcDbArc
 50
134.209728
 51
225.790272
  0
ARC
  5
30E
100
AcDbEntity
  8
化粧台
  6
EXLTYPE2
 62
     6
100
AcDbCircle
 10
2386.609964
 20
1326.041824
 30
0.0
 40
3.730808
100
AcDbArc
 50
149.92776
 51
260.59025
  0
LINE
  5
30F
100
AcDbEntity
  8
化粧台
  6
EXLTYPE2
 62
     6
100
AcDbLine
 10
2350.5
 20
1302.5
 30
0.0
 11
2381.10588
 21
1302.5
 31
0.0
  0
LINE
  5
310
100
AcDbEntity
  8
化粧台
  6
EXLTYPE2
 62
     6
100
AcDbLine
 10
2350.5
 20
1327.5
 30
0.0
 11
2351.0
 21
1327.5
 31
0.0
  0
ELLIPSE
  5
311
100
AcDbEntity
  8
化粧台
  6
EXLTYPE2
 62
     6
100
AcDbEllipse
 10
2346.725083
 20
1326.295088
 30
0.0
 11
-3.4910600109400001
 21
-0.0000000000000027
 31
0.0
210
0.0
220
0.0
230
1.0
 40
0.846423
 41
0.0
 42
6.2831853071796004
  0
ELLIPSE
  5
312
100
AcDbEntity
  8
化粧台
  6
EXLTYPE2
 62
     6
100
AcDbEllipse
 10
2346.725083
 20
1315.0
 30
0.0
 11
-0.0000000000000035
 21
5.8363087649600001
 31
0.0
210
0.0
220
0.0
230
1.0
 40
0.598162
 41
0.0
 42
6.2831853071796004
  0
ELLIPSE
  5
313
100
AcDbEntity
  8
化粧台
  6
EXLTYPE2
 62
     6
100
AcDbEllipse
 10
2346.725083
 20
1303.704912
 30
0.0
 11
-3.4910600109400001
 21
-0.0000000000000027
 31
0.0
210
0.0
220
0.0
230
1.0
 40
0.846423
 41
0.0
 42
6.2831853071796004
  0
LINE
  5
314
100
AcDbEntity
  8
化粧台
  6
EXLTYPE2
 62
     6
100
AcDbLine
 10
2342.34345
 20
1302.925651
 30
0.0
 11
2342.34345
 21
1327.074349
 31
0.0
  0
LINE
  5
315
100
AcDbEntity
  8
化粧台
  6
EXLTYPE2
 62
     6
100
AcDbLine
 10
2337.6
 20
1320.3
 30
0.0
 11
2342.34345
 21
1327.074349
 31
0.0
  0
ARC
  5
316
100
AcDbEntity
  8
化粧台
  6
EXLTYPE2
 62
     6
100
AcDbCircle
 10
2346.725083
 20
1323.75
 30
0.0
 40
5.5
100
AcDbArc
 50
46.658242
 51
142.812374
  0
LINE
  5
317
100
AcDbEntity
  8
化粧台
  6
EXLTYPE2
 62
     6
100
AcDbLine
 10
2337.6
 20
1309.7
 30
0.0
 11
2342.34345
 21
1302.925651
 31
0.0
  0
ARC
  5
318
100
AcDbEntity
  8
化粧台
  6
EXLTYPE2
 62
     6
100
AcDbCircle
 10
2346.725083
 20
1306.25
 30
0.0
 40
5.5
100
AcDbArc
 50
217.187626
 51
313.341758
  0
LINE
  5
319
100
AcDbEntity
  8
化粧台
  6
EXLTYPE2
 62
     6
100
AcDbLine
 10
2350.5
 20
1302.25
 30
0.0
 11
2350.5
 21
1327.75
 31
0.0
  0
LINE
  5
31A
100
AcDbEntity
  8
化粧台
  6
EXLTYPE2
 62
     6
100
AcDbLine
 10
2337.6
 20
1309.7
 30
0.0
 11
2337.6
 21
1320.3
 31
0.0
  0
LINE
  5
31B
100
AcDbEntity
  8
化粧台
  6
EXLTYPE2
 62
     6
100
AcDbLine
 10
2379.0
 20
1327.5
 30
0.0
 11
2381.10588
 21
1327.5
 31
0.0
  0
ARC
  5
31C
100
AcDbEntity
  8
化粧台
  6
EXLTYPE2
 62
     6
100
AcDbCircle
 10
2379.0
 20
1331.0
 30
0.0
 40
3.5
100
AcDbArc
 50
180.0
 51
270.0
  0
ARC
  5
31D
100
AcDbEntity
  8
化粧台
  6
EXLTYPE2
 62
     6
100
AcDbCircle
 10
2351.0
 20
1331.0
 30
0.0
 40
3.5
100
AcDbArc
 50
270.0
 51
0.0
  0
LINE
  5
31E
100
AcDbEntity
  8
化粧台
  6
EXLTYPE2
 62
     6
100
AcDbLine
 10
2391.572541
 20
1300.277568
 30
0.0
 11
2386.0
 21
1300.277568
 31
0.0
  0
LINE
  5
31F
100
AcDbEntity
  8
化粧台
  6
EXLTYPE2
 62
     6
100
AcDbLine
 10
2391.572541
 20
1329.722432
 30
0.0
 11
2386.0
 21
1329.722432
 31
0.0
  0
LINE
  5
320
100
AcDbEntity
  8
化粧台
  6
EXLTYPE2
 62
     6
100
AcDbLine
 10
2393.0
 20
1327.25
 30
0.0
 11
2393.0
 21
1302.75
 31
0.0
  0
LINE
  5
321
100
AcDbEntity
  8
化粧台
  6
EXLTYPE2
 62
     6
100
AcDbLine
 10
2393.0
 20
1302.75
 30
0.0
 11
2391.572541
 21
1300.277568
 31
0.0
  0
LINE
  5
322
100
AcDbEntity
  8
化粧台
  6
EXLTYPE2
 62
     6
100
AcDbLine
 10
2393.0
 20
1327.25
 30
0.0
 11
2391.572541
 21
1329.722432
 31
0.0
  0
ARC
  5
323
100
AcDbEntity
  8
化粧台
  6
EXLTYPE2
 62
     6
100
AcDbCircle
 10
2381.10588
 20
1296.0
 30
0.0
 40
6.5
100
AcDbArc
 50
41.15417
 51
90.0
  0
ARC
  5
324
100
AcDbEntity
  8
化粧台
  6
EXLTYPE2
 62
     6
100
AcDbCircle
 10
2381.10588
 20
1334.0
 30
0.0
 40
6.5
100
AcDbArc
 50
270.0
 51
318.84583
  0
ARC
  5
325
100
AcDbEntity
  8
化粧台
  6
EXLTYPE2
 62
     6
100
AcDbCircle
 10
2363.25
 20
1343.7
 30
0.0
 40
11.0
100
AcDbArc
 50
146.944269
 51
213.055731
  0
LINE
  5
326
100
AcDbEntity
  8
化粧台
  6
EXLTYPE2
 62
     6
100
AcDbLine
 10
2375.969544
 20
1337.7
 30
0.0
 11
2354.030456
 21
1337.7
 31
0.0
  0
ARC
  5
327
100
AcDbEntity
  8
化粧台
  6
EXLTYPE2
 62
     6
100
AcDbCircle
 10
2366.75
 20
1343.7
 30
0.0
 40
11.0
100
AcDbArc
 50
326.944269
 51
33.055731
  0
LINE
  5
328
100
AcDbEntity
  8
化粧台
  6
EXLTYPE2
 62
     6
100
AcDbLine
 10
2375.969544
 20
1349.7
 30
0.0
 11
2354.030456
 21
1349.7
 31
0.0
  0
ELLIPSE
  5
329
100
AcDbEntity
  8
化粧台
  6
EXLTYPE2
 62
     6
100
AcDbEllipse
 10
2355.021774
 20
1343.7
 30
0.0
 11
-0.0000000000000009
 21
-5.0928871968700005
 31
0.0
210
0.0
220
0.0
230
1.0
 40
0.544244
 41
0.0
 42
6.2831853071796004
  0
ELLIPSE
  5
32A
100
AcDbEntity
  8
化粧台
  6
EXLTYPE2
 62
     6
100
AcDbEllipse
 10
2365.0
 20
1343.7
 30
0.0
 11
5.5056788863900001
 21
0.0
 31
0.0
210
0.0
220
0.0
230
1.0
 40
0.925024
 41
0.0
 42
6.2831853071796004
  0
ELLIPSE
  5
32B
100
AcDbEntity
  8
化粧台
  6
EXLTYPE2
 62
     6
100
AcDbEllipse
 10
2374.978226
 20
1343.7
 30
0.0
 11
0.0000000000000003
 21
5.0928871968700005
 31
0.0
210
0.0
220
0.0
230
1.0
 40
0.544244
 41
0.0
 42
6.2831853071796004
  0
LINE
  5
32C
100
AcDbEntity
  8
化粧台
  6
EXLTYPE2
 62
     6
100
AcDbLine
 10
2371.5
 20
1444.651716
 30
0.0
 11
2371.5
 21
1349.7
 31
0.0
  0
LINE
  5
32D
100
AcDbEntity
  8
化粧台
  6
EXLTYPE2
 62
     6
100
AcDbLine
 10
2358.5
 20
1443.475339
 30
0.0
 11
2358.5
 21
1349.7
 31
0.0
  0
POLYLINE
  5
32E
100
AcDbEntity
  8
化粧台
  6
CONTINUOUS
 62
     2
100
AcDb2dPolyline
 66
     1
 10
0.0
 20
0.0
 30
0.0
 70
   128
  0
VERTEX
  5
32F
100
AcDbEntity
  8
化粧台
  6
CONTINUOUS
 62
     2
100
AcDbVertex
100
AcDb2dVertex
 10
2316.017563
 20
1855.981902
 30
0.0
  0
VERTEX
  5
330
100
AcDbEntity
  8
化粧台
  6
CONTINUOUS
 62
     2
100
AcDbVertex
100
AcDb2dVertex
 10
2316.017566
 20
1855.978089
 30
0.0
  0
VERTEX
  5
331
100
AcDbEntity
  8
化粧台
  6
CONTINUOUS
 62
     2
100
AcDbVertex
100
AcDb2dVertex
 10
2316.017571
 20
1855.967261
 30
0.0
  0
VERTEX
  5
332
100
AcDbEntity
  8
化粧台
  6
CONTINUOUS
 62
     2
100
AcDbVertex
100
AcDb2dVertex
 10
2316.017575
 20
1855.950335
 30
0.0
  0
VERTEX
  5
333
100
AcDbEntity
  8
化粧台
  6
CONTINUOUS
 62
     2
100
AcDbVertex
100
AcDb2dVertex
 10
2316.017574
 20
1855.928228
 30
0.0
  0
VERTEX
  5
334
100
AcDbEntity
  8
化粧台
  6
CONTINUOUS
 62
     2
100
AcDbVertex
100
AcDb2dVertex
 10
2316.017565
 20
1855.901858
 30
0.0
  0
VERTEX
  5
335
100
AcDbEntity
  8
化粧台
  6
CONTINUOUS
 62
     2
100
AcDbVertex
100
AcDb2dVertex
 10
2316.017543
 20
1855.87214
 30
0.0
  0
VERTEX
  5
336
100
AcDbEntity
  8
化粧台
  6
CONTINUOUS
 62
     2
100
AcDbVertex
100
AcDb2dVertex
 10
2316.017505
 20
1855.839993
 30
0.0
  0
VERTEX
  5
337
100
AcDbEntity
  8
化粧台
  6
CONTINUOUS
 62
     2
100
AcDbVertex
100
AcDb2dVertex
 10
2316.017448
 20
1855.806333
 30
0.0
  0
VERTEX
  5
338
100
AcDbEntity
  8
化粧台
  6
CONTINUOUS
 62
     2
100
AcDbVertex
100
AcDb2dVertex
 10
2316.017367
 20
1855.772077
 30
0.0
  0
VERTEX
  5
339
100
AcDbEntity
  8
化粧台
  6
CONTINUOUS
 62
     2
100
AcDbVertex
100
AcDb2dVertex
 10
2316.017258
 20
1855.738143
 30
0.0
  0
VERTEX
  5
33A
100
AcDbEntity
  8
化粧台
  6
CONTINUOUS
 62
     2
100
AcDbVertex
100
AcDb2dVertex
 10
2316.017118
 20
1855.705446
 30
0.0
  0
VERTEX
  5
33B
100
AcDbEntity
  8
化粧台
  6
CONTINUOUS
 62
     2
100
AcDbVertex
100
AcDb2dVertex
 10
2316.016952
 20
1855.675887
 30
0.0
  0
VERTEX
  5
33C
100
AcDbEntity
  8
化粧台
  6
CONTINUOUS
 62
     2
100
AcDbVertex
100
AcDb2dVertex
 10
2316.016755
 20
1855.648091
 30
0.0
  0
VERTEX
  5
33D
100
AcDbEntity
  8
化粧台
  6
CONTINUOUS
 62
     2
100
AcDbVertex
100
AcDb2dVertex
 10
2316.016529
 20
1855.62183
 30
0.0
  0
VERTEX
  5
33E
100
AcDbEntity
  8
化粧台
  6
CONTINUOUS
 62
     2
100
AcDbVertex
100
AcDb2dVertex
 10
2316.016274
 20
1855.59688
 30
0.0
  0
VERTEX
  5
33F
100
AcDbEntity
  8
化粧台
  6
CONTINUOUS
 62
     2
100
AcDbVertex
100
AcDb2dVertex
 10
2316.015992
 20
1855.573015
 30
0.0
  0
VERTEX
  5
340
100
AcDbEntity
  8
化粧台
  6
CONTINUOUS
 62
     2
100
AcDbVertex
100
AcDb2dVertex
 10
2316.015685
 20
1855.550008
 30
0.0
  0
VERTEX
  5
341
100
AcDbEntity
  8
化粧台
  6
CONTINUOUS
 62
     2
100
AcDbVertex
100
AcDb2dVertex
 10
2316.015353
 20
1855.527633
 30
0.0
  0
VERTEX
  5
342
100
AcDbEntity
  8
化粧台
  6
CONTINUOUS
 62
     2
100
AcDbVertex
100
AcDb2dVertex
 10
2316.014999
 20
1855.505665
 30
0.0
  0
VERTEX
  5
343
100
AcDbEntity
  8
化粧台
  6
CONTINUOUS
 62
     2
100
AcDbVertex
100
AcDb2dVertex
 10
2316.014623
 20
1855.483877
 30
0.0
  0
VERTEX
  5
344
100
AcDbEntity
  8
化粧台
  6
CONTINUOUS
 62
     2
100
AcDbVertex
100
AcDb2dVertex
 10
2316.014227
 20
1855.462043
 30
0.0
  0
VERTEX
  5
345
100
AcDbEntity
  8
化粧台
  6
CONTINUOUS
 62
     2
100
AcDbVertex
100
AcDb2dVertex
 10
2316.013811
 20
1855.439939
 30
0.0
  0
VERTEX
  5
346
100
AcDbEntity
  8
化粧台
  6
CONTINUOUS
 62
     2
100
AcDbVertex
100
AcDb2dVertex
 10
2316.013439
 20
1855.420544
 30
0.0
  0
VERTEX
  5
347
100
AcDbEntity
  8
化粧台
  6
CONTINUOUS
 62
     2
100
AcDbVertex
100
AcDb2dVertex
 10
2316.013052
 20
1855.400804
 30
0.0
  0
VERTEX
  5
348
100
AcDbEntity
  8
化粧台
  6
CONTINUOUS
 62
     2
100
AcDbVertex
100
AcDb2dVertex
 10
2316.01265
 20
1855.380741
 30
0.0
  0
VERTEX
  5
349
100
AcDbEntity
  8
化粧台
  6
CONTINUOUS
 62
     2
100
AcDbVertex
100
AcDb2dVertex
 10
2316.01223
 20
1855.360378
 30
0.0
  0
VERTEX
  5
34A
100
AcDbEntity
  8
化粧台
  6
CONTINUOUS
 62
     2
100
AcDbVertex
100
AcDb2dVertex
 10
2316.011793
 20
1855.339738
 30
0.0
  0
VERTEX
  5
34B
100
AcDbEntity
  8
化粧台
  6
CONTINUOUS
 62
     2
100
AcDbVertex
100
AcDb2dVertex
 10
2316.011335
 20
1855.318845
 30
0.0
  0
VERTEX
  5
34C
100
AcDbEntity
  8
化粧台
  6
CONTINUOUS
 62
     2
100
AcDbVertex
100
AcDb2dVertex
 10
2316.010856
 20
1855.29772
 30
0.0
  0
VERTEX
  5
34D
100
AcDbEntity
  8
化粧台
  6
CONTINUOUS
 62
     2
100
AcDbVertex
100
AcDb2dVertex
 10
2316.010355
 20
1855.276388
 30
0.0
  0
VERTEX
  5
34E
100
AcDbEntity
  8
化粧台
  6
CONTINUOUS
 62
     2
100
AcDbVertex
100
AcDb2dVertex
 10
2316.009831
 20
1855.254871
 30
0.0
  0
VERTEX
  5
34F
100
AcDbEntity
  8
化粧台
  6
CONTINUOUS
 62
     2
100
AcDbVertex
100
AcDb2dVertex
 10
2316.009281
 20
1855.233193
 30
0.0
  0
VERTEX
  5
350
100
AcDbEntity
  8
化粧台
  6
CONTINUOUS
 62
     2
100
AcDbVertex
100
AcDb2dVertex
 10
2316.008705
 20
1855.211376
 30
0.0
  0
VERTEX
  5
351
100
AcDbEntity
  8
化粧台
  6
CONTINUOUS
 62
     2
100
AcDbVertex
100
AcDb2dVertex
 10
2316.008237
 20
1855.194272
 30
0.0
  0
VERTEX
  5
352
100
AcDbEntity
  8
化粧台
  6
CONTINUOUS
 62
     2
100
AcDbVertex
100
AcDb2dVertex
 10
2316.007755
 20
1855.177159
 30
0.0
  0
VERTEX
  5
353
100
AcDbEntity
  8
化粧台
  6
CONTINUOUS
 62
     2
100
AcDbVertex
100
AcDb2dVertex
 10
2316.007262
 20
1855.1601
 30
0.0
  0
VERTEX
  5
354
100
AcDbEntity
  8
化粧台
  6
CONTINUOUS
 62
     2
100
AcDbVertex
100
AcDb2dVertex
 10
2316.00676
 20
1855.143157
 30
0.0
  0
VERTEX
  5
355
100
AcDbEntity
  8
化粧台
  6
CONTINUOUS
 62
     2
100
AcDbVertex
100
AcDb2dVertex
 10
2316.006254
 20
1855.126391
 30
0.0
  0
VERTEX
  5
356
100
AcDbEntity
  8
化粧台
  6
CONTINUOUS
 62
     2
100
AcDbVertex
100
AcDb2dVertex
 10
2316.005745
 20
1855.109865
 30
0.0
  0
VERTEX
  5
357
100
AcDbEntity
  8
化粧台
  6
CONTINUOUS
 62
     2
100
AcDbVertex
100
AcDb2dVertex
 10
2316.005237
 20
1855.09364
 30
0.0
  0
VERTEX
  5
358
100
AcDbEntity
  8
化粧台
  6
CONTINUOUS
 62
     2
100
AcDbVertex
100
AcDb2dVertex
 10
2316.004732
 20
1855.077779
 30
0.0
  0
VERTEX
  5
359
100
AcDbEntity
  8
化粧台
  6
CONTINUOUS
 62
     2
100
AcDbVertex
100
AcDb2dVertex
 10
2316.004234
 20
1855.062343
 30
0.0
  0
VERTEX
  5
35A
100
AcDbEntity
  8
化粧台
  6
CONTINUOUS
 62
     2
100
AcDbVertex
100
AcDb2dVertex
 10
2316.003745
 20
1855.047395
 30
0.0
  0
VERTEX
  5
35B
100
AcDbEntity
  8
化粧台
  6
CONTINUOUS
 62
     2
100
AcDbVertex
100
AcDb2dVertex
 10
2316.003269
 20
1855.032996
 30
0.0
  0
VERTEX
  5
35C
100
AcDbEntity
  8
化粧台
  6
CONTINUOUS
 62
     2
100
AcDbVertex
100
AcDb2dVertex
 10
2316.002977
 20
1855.024282
 30
0.0
  0
VERTEX
  5
35D
100
AcDbEntity
  8
化粧台
  6
CONTINUOUS
 62
     2
100
AcDbVertex
100
AcDb2dVertex
 10
2316.002686
 20
1855.015675
 30
0.0
  0
VERTEX
  5
35E
100
AcDbEntity
  8
化粧台
  6
CONTINUOUS
 62
     2
100
AcDbVertex
100
AcDb2dVertex
 10
2316.002391
 20
1855.007047
 30
0.0
  0
VERTEX
  5
35F
100
AcDbEntity
  8
化粧台
  6
CONTINUOUS
 62
     2
100
AcDbVertex
100
AcDb2dVertex
 10
2316.002086
 20
1854.998266
 30
0.0
  0
VERTEX
  5
360
100
AcDbEntity
  8
化粧台
  6
CONTINUOUS
 62
     2
100
AcDbVertex
100
AcDb2dVertex
 10
2316.001765
 20
1854.989201
 30
0.0
  0
VERTEX
  5
361
100
AcDbEntity
  8
化粧台
  6
CONTINUOUS
 62
     2
100
AcDbVertex
100
AcDb2dVertex
 10
2316.001424
 20
1854.979723
 30
0.0
  0
VERTEX
  5
362
100
AcDbEntity
  8
化粧台
  6
CONTINUOUS
 62
     2
100
AcDbVertex
100
AcDb2dVertex
 10
2316.001057
 20
1854.969701
 30
0.0
  0
VERTEX
  5
363
100
AcDbEntity
  8
化粧台
  6
CONTINUOUS
 62
     2
100
AcDbVertex
100
AcDb2dVertex
 10
2316.000659
 20
1854.959004
 30
0.0
  0
VERTEX
  5
364
100
AcDbEntity
  8
化粧台
  6
CONTINUOUS
 62
     2
100
AcDbVertex
100
AcDb2dVertex
 10
2316.000225
 20
1854.947502
 30
0.0
  0
VERTEX
  5
365
100
AcDbEntity
  8
化粧台
  6
CONTINUOUS
 62
     2
100
AcDbVertex
100
AcDb2dVertex
 10
2315.99975
 20
1854.935064
 30
0.0
  0
VERTEX
  5
366
100
AcDbEntity
  8
化粧台
  6
CONTINUOUS
 62
     2
100
AcDbVertex
100
AcDb2dVertex
 10
2315.999227
 20
1854.921559
 30
0.0
  0
VERTEX
  5
367
100
AcDbEntity
  8
化粧台
  6
CONTINUOUS
 62
     2
100
AcDbVertex
100
AcDb2dVertex
 10
2315.999039
 20
1854.916744
 30
0.0
  0
VERTEX
  5
368
100
AcDbEntity
  8
化粧台
  6
CONTINUOUS
 62
     2
100
AcDbVertex
100
AcDb2dVertex
 10
2315.99885
 20
1854.911896
 30
0.0
  0
VERTEX
  5
369
100
AcDbEntity
  8
化粧台
  6
CONTINUOUS
 62
     2
100
AcDbVertex
100
AcDb2dVertex
 10
2315.998663
 20
1854.907118
 30
0.0
  0
VERTEX
  5
36A
100
AcDbEntity
  8
化粧台
  6
CONTINUOUS
 62
     2
100
AcDbVertex
100
AcDb2dVertex
 10
2315.998482
 20
1854.902514
 30
0.0
  0
VERTEX
  5
36B
100
AcDbEntity
  8
化粧台
  6
CONTINUOUS
 62
     2
100
AcDbVertex
100
AcDb2dVertex
 10
2315.998312
 20
1854.898188
 30
0.0
  0
VERTEX
  5
36C
100
AcDbEntity
  8
化粧台
  6
CONTINUOUS
 62
     2
100
AcDbVertex
100
AcDb2dVertex
 10
2315.998157
 20
1854.894243
 30
0.0
  0
VERTEX
  5
36D
100
AcDbEntity
  8
化粧台
  6
CONTINUOUS
 62
     2
100
AcDbVertex
100
AcDb2dVertex
 10
2315.99802
 20
1854.890782
 30
0.0
  0
VERTEX
  5
36E
100
AcDbEntity
  8
化粧台
  6
CONTINUOUS
 62
     2
100
AcDbVertex
100
AcDb2dVertex
 10
2315.997907
 20
1854.887911
 30
0.0
  0
VERTEX
  5
36F
100
AcDbEntity
  8
化粧台
  6
CONTINUOUS
 62
     2
100
AcDbVertex
100
AcDb2dVertex
 10
2315.997821
 20
1854.885731
 30
0.0
  0
VERTEX
  5
370
100
AcDbEntity
  8
化粧台
  6
CONTINUOUS
 62
     2
100
AcDbVertex
100
AcDb2dVertex
 10
2315.997767
 20
1854.884348
 30
0.0
  0
VERTEX
  5
371
100
AcDbEntity
  8
化粧台
  6
CONTINUOUS
 62
     2
100
AcDbVertex
100
AcDb2dVertex
 10
2315.997747
 20
1854.883863
 30
0.0
  0
SEQEND
  5
372
100
AcDbEntity
  8
化粧台
  6
CONTINUOUS
 62
     2
  0
ARC
  5
373
100
AcDbEntity
  8
化粧台
  6
CONTINUOUS
 62
     2
100
AcDbCircle
 10
2373.107635
 20
1774.377355
 30
0.0
 40
4.0
100
AcDbArc
 50
90.0
 51
152.0
  0
LINE
  5
374
100
AcDbEntity
  8
化粧台
  6
CONTINUOUS
 62
     2
100
AcDbLine
 10
2388.168598
 20
1787.21844
 30
0.0
 11
2388.168598
 21
1775.536271
 31
0.0
  0
ARC
  5
375
100
AcDbEntity
  8
化粧台
  6
CONTINUOUS
 62
     2
100
AcDbCircle
 10
2370.617513
 20
1781.377355
 30
0.0
 40
18.551084
100
AcDbArc
 50
342.298207
 51
17.701793
  0
ARC
  5
376
100
AcDbEntity
  8
化粧台
  6
CONTINUOUS
 62
     2
100
AcDbCircle
 10
2373.668598
 20
1776.651131
 30
0.0
 40
0.5
100
AcDbArc
 50
180.0
 51
266.914712
  0
ARC
  5
377
100
AcDbEntity
  8
化粧台
  6
CONTINUOUS
 62
     2
100
AcDbCircle
 10
2387.813914
 20
1775.888691
 30
0.0
 40
0.5
100
AcDbArc
 50
266.914712
 51
342.298207
  0
LINE
  5
378
100
AcDbEntity
  8
化粧台
  6
CONTINUOUS
 62
     2
100
AcDbLine
 10
2373.641687
 20
1776.151855
 30
0.0
 11
2387.787003
 21
1775.389415
 31
0.0
  0
LINE
  5
379
100
AcDbEntity
  8
化粧台
  6
CONTINUOUS
 62
     2
100
AcDbLine
 10
2309.925576
 20
1869.998321
 30
0.0
 11
2245.030887
 21
1881.441006
 31
0.0
  0
LINE
  5
37A
100
AcDbEntity
  8
化粧台
  6
CONTINUOUS
 62
     2
100
AcDbLine
 10
2223.196642
 20
1825.978998
 30
0.0
 11
2316.0
 21
1809.615262
 31
0.0
  0
LINE
  5
37B
100
AcDbEntity
  8
化粧台
  6
CONTINUOUS
 62
     2
100
AcDbLine
 10
2252.847711
 20
1790.287917
 30
0.0
 11
2316.0
 21
1779.152464
 31
0.0
  0
ARC
  5
37C
100
AcDbEntity
  8
化粧台
  6
CONTINUOUS
 62
     2
100
AcDbCircle
 10
2373.668598
 20
1786.10358
 30
0.0
 40
0.5
100
AcDbArc
 50
93.085288
 51
180.0
  0
ARC
  5
37D
100
AcDbEntity
  8
化粧台
  6
CONTINUOUS
 62
     2
100
AcDbCircle
 10
2387.813914
 20
1786.86602
 30
0.0
 40
0.5
100
AcDbArc
 50
17.701793
 51
93.085288
  0
LINE
  5
37E
100
AcDbEntity
  8
化粧台
  6
CONTINUOUS
 62
     2
100
AcDbLine
 10
2373.641687
 20
1786.602855
 30
0.0
 11
2387.787003
 21
1787.365295
 31
0.0
  0
ARC
  5
37F
100
AcDbEntity
  8
化粧台
  6
CONTINUOUS
 62
     2
100
AcDbCircle
 10
2364.0
 20
1841.383863
 30
0.0
 40
2.0
100
AcDbArc
 50
0.0
 51
91.599643
  0
LINE
  5
380
100
AcDbEntity
  8
化粧台
  6
CONTINUOUS
 62
     2
100
AcDbLine
 10
2365.5
 20
1837.383863
 30
0.0
 11
2366.0
 21
1836.883863
 31
0.0
  0
LINE
  5
381
100
AcDbEntity
  8
化粧台
  6
CONTINUOUS
 62
     2
100
AcDbLine
 10
2366.0
 20
1841.383863
 30
0.0
 11
2366.0
 21
1837.383863
 31
0.0
  0
ARC
  5
382
100
AcDbEntity
  8
化粧台
  6
CONTINUOUS
 62
     2
100
AcDbCircle
 10
2363.916254
 20
1844.382694
 30
0.0
 40
1.0
100
AcDbArc
 50
192.574283
 51
271.599643
  0
LINE
  5
383
100
AcDbEntity
  8
化粧台
  6
CONTINUOUS
 62
     2
100
AcDbLine
 10
2316.5
 20
1837.383863
 30
0.0
 11
2316.0
 21
1836.883863
 31
0.0
  0
LINE
  5
384
100
AcDbEntity
  8
化粧台
  6
CONTINUOUS
 62
     2
100
AcDbLine
 10
2318.084007
 20
1843.383863
 30
0.0
 11
2318.0
 21
1843.383863
 31
0.0
  0
ARC
  5
385
100
AcDbEntity
  8
化粧台
  6
CONTINUOUS
 62
     2
100
AcDbCircle
 10
2318.084007
 20
1844.383863
 30
0.0
 40
1.0
100
AcDbArc
 50
270.0
 51
347.422797
  0
LINE
  5
386
100
AcDbEntity
  8
化粧台
  6
CONTINUOUS
 62
     2
100
AcDbLine
 10
2316.0
 20
1841.383863
 30
0.0
 11
2316.0
 21
1837.383863
 31
0.0
  0
ARC
  5
387
100
AcDbEntity
  8
化粧台
  6
CONTINUOUS
 62
     2
100
AcDbCircle
 10
2318.0
 20
1841.383863
 30
0.0
 40
2.0
100
AcDbArc
 50
90.0
 51
180.0
  0
ARC
  5
388
100
AcDbEntity
  8
化粧台
  6
CONTINUOUS
 62
     2
100
AcDbCircle
 10
2341.0
 20
1706.899864
 30
0.0
 40
179.083333
100
AcDbArc
 50
82.537206
 51
97.462794
  0
ARC
  5
389
100
AcDbEntity
  8
化粧台
  6
CONTINUOUS
 62
     2
100
AcDbCircle
 10
2341.0
 20
1706.899864
 30
0.0
 40
179.083333
100
AcDbArc
 50
82.537206
 51
97.462794
  0
ARC
  5
38A
100
AcDbEntity
  8
化粧台
  6
CONTINUOUS
 62
     2
100
AcDbCircle
 10
2364.0
 20
1882.483197
 30
0.0
 40
2.0
100
AcDbArc
 50
0.0
 51
90.0
  0
ARC
  5
38B
100
AcDbEntity
  8
化粧台
  6
CONTINUOUS
 62
     2
100
AcDbCircle
 10
2364.0
 20
1882.483197
 30
0.0
 40
2.0
100
AcDbArc
 50
0.0
 51
90.0
  0
LINE
  5
38C
100
AcDbEntity
  8
化粧台
  6
CONTINUOUS
 62
     2
100
AcDbLine
 10
2366.0
 20
1853.618668
 30
0.0
 11
2366.0
 21
1882.483197
 31
0.0
  0
LINE
  5
38D
100
AcDbEntity
  8
化粧台
  6
CONTINUOUS
 62
     2
100
AcDbLine
 10
2366.0
 20
1853.618668
 30
0.0
 11
2366.0
 21
1882.483197
 31
0.0
  0
LINE
  5
38E
100
AcDbEntity
  8
化粧台
  6
CONTINUOUS
 62
     2
100
AcDbLine
 10
2311.720341
 20
1877.297555
 30
0.0
 11
2312.935879
 21
1884.19121
 31
0.0
  0
ARC
  5
38F
100
AcDbEntity
  8
化粧台
  6
CONTINUOUS
 62
     2
100
AcDbCircle
 10
2312.443475
 20
1884.278034
 30
0.0
 40
0.5
100
AcDbArc
 50
350.0
 51
80.0
  0
ARC
  5
390
100
AcDbEntity
  8
化粧台
  6
CONTINUOUS
 62
     2
100
AcDbCircle
 10
2312.994162
 20
1881.642366
 30
0.0
 40
0.5
100
AcDbArc
 50
170.0
 51
260.0
  0
ARC
  5
391
100
AcDbEntity
  8
化粧台
  6
CONTINUOUS
 62
     2
100
AcDbCircle
 10
2310.0124
 20
1870.490725
 30
0.0
 40
0.5
100
AcDbArc
 50
260.0
 51
350.0
  0
ARC
  5
392
100
AcDbEntity
  8
化粧台
  6
CONTINUOUS
 62
     2
100
AcDbCircle
 10
2311.431328
 20
1872.779096
 30
0.0
 40
0.5
100
AcDbArc
 50
80.0
 51
170.0
  0
LINE
  5
393
100
AcDbEntity
  8
化粧台
  6
CONTINUOUS
 62
     2
100
AcDbLine
 10
2310.504804
 20
1870.403901
 30
0.0
 11
2311.720341
 21
1877.297555
 31
0.0
  0
ARC
  5
394
100
AcDbEntity
  8
化粧台
  6
CONTINUOUS
 62
     2
100
AcDbCircle
 10
2321.06944
 20
1860.983863
 30
0.0
 40
7.550071
100
AcDbArc
 50
137.507763
 51
222.492237
  0
ARC
  5
395
100
AcDbEntity
  8
化粧台
  6
CONTINUOUS
 62
     2
100
AcDbCircle
 10
2318.0
 20
1882.483197
 30
0.0
 40
2.0
100
AcDbArc
 50
90.0
 51
180.0
  0
ARC
  5
396
100
AcDbEntity
  8
化粧台
  6
CONTINUOUS
 62
     2
100
AcDbCircle
 10
2318.0
 20
1882.483197
 30
0.0
 40
2.0
100
AcDbArc
 50
90.0
 51
180.0
  0
LINE
  5
397
100
AcDbEntity
  8
化粧台
  6
CONTINUOUS
 62
     2
100
AcDbLine
 10
2316.0
 20
1866.083863
 30
0.0
 11
2315.502253
 21
1866.083863
 31
0.0
  0
ARC
  5
398
100
AcDbEntity
  8
化粧台
  6
CONTINUOUS
 62
     2
100
AcDbCircle
 10
2294.334229
 20
1798.204123
 30
0.0
 40
78.0
100
AcDbArc
 50
160.150973
 51
174.754975
  0
LINE
  5
399
100
AcDbEntity
  8
化粧台
  6
CONTINUOUS
 62
     2
100
AcDbLine
 10
2243.070285
 20
1790.667248
 30
0.0
 11
2221.404514
 21
1794.487508
 31
0.0
  0
LINE
  5
39A
100
AcDbEntity
  8
化粧台
  6
CONTINUOUS
 62
     2
100
AcDbLine
 10
2221.404514
 20
1794.487508
 30
0.0
 11
2243.070285
 21
1790.667248
 31
0.0
  0
LINE
  5
39B
100
AcDbEntity
  8
化粧台
  6
CONTINUOUS
 62
     2
100
AcDbLine
 10
2243.070285
 20
1790.667248
 30
0.0
 11
2244.155348
 21
1791.062178
 31
0.0
  0
LINE
  5
39C
100
AcDbEntity
  8
化粧台
  6
CONTINUOUS
 62
     2
100
AcDbLine
 10
2243.070285
 20
1790.667248
 30
0.0
 11
2244.155348
 21
1791.062178
 31
0.0
  0
LINE
  5
39D
100
AcDbEntity
  8
化粧台
  6
CONTINUOUS
 62
     2
100
AcDbLine
 10
2248.402914
 20
1797.875012
 30
0.0
 11
2252.847711
 21
1790.287917
 31
0.0
  0
LINE
  5
39E
100
AcDbEntity
  8
化粧台
  6
CONTINUOUS
 62
     2
100
AcDbLine
 10
2221.404514
 20
1794.487508
 30
0.0
 11
2220.519962
 21
1795.229735
 31
0.0
  0
LINE
  5
39F
100
AcDbEntity
  8
化粧台
  6
CONTINUOUS
 62
     2
100
AcDbLine
 10
2221.404514
 20
1794.487508
 30
0.0
 11
2220.519962
 21
1795.229735
 31
0.0
  0
ARC
  5
3A0
100
AcDbEntity
  8
化粧台
  6
CONTINUOUS
 62
     2
100
AcDbCircle
 10
2218.652451
 20
1805.151675
 30
0.0
 40
2.0
100
AcDbArc
 50
174.754975
 51
260.0
  0
ARC
  5
3A1
100
AcDbEntity
  8
化粧台
  6
CONTINUOUS
 62
     2
100
AcDbCircle
 10
2222.849346
 20
1824.009383
 30
0.0
 40
2.0
100
AcDbArc
 50
80.0
 51
160.150973
  0
LINE
  5
3A2
100
AcDbEntity
  8
化粧台
  6
CONTINUOUS
 62
     2
100
AcDbLine
 10
2244.146757
 20
1882.612328
 30
0.0
 11
2246.404184
 21
1895.414829
 31
0.0
  0
ARC
  5
3A3
100
AcDbEntity
  8
化粧台
  6
CONTINUOUS
 62
     2
100
AcDbCircle
 10
2245.131565
 20
1882.43868
 30
0.0
 40
1.0
100
AcDbArc
 50
170.0
 51
260.0
  0
ARC
  5
3A4
100
AcDbEntity
  8
化粧台
  6
CONTINUOUS
 62
     2
100
AcDbCircle
 10
2247.388992
 20
1895.241181
 30
0.0
 40
1.0
100
AcDbArc
 50
80.0
 51
170.0
  0
LINE
  5
3A5
100
AcDbEntity
  8
化粧台
  6
CONTINUOUS
 62
     2
100
AcDbLine
 10
2316.0
 20
1846.919938
 30
0.0
 11
2316.0
 21
1854.883863
 31
0.0
  0
LINE
  5
3A6
100
AcDbEntity
  8
化粧台
  6
CONTINUOUS
 62
     2
100
AcDbLine
 10
2316.0
 20
1846.919938
 30
0.0
 11
2316.0
 21
1860.983863
 31
0.0
  0
LINE
  5
3A7
100
AcDbEntity
  8
化粧台
  6
CONTINUOUS
 62
     2
100
AcDbLine
 10
2312.907338
 20
1881.149962
 30
0.0
 11
2316.0
 21
1880.604642
 31
0.0
  0
LINE
  5
3A8
100
AcDbEntity
  8
化粧台
  6
CONTINUOUS
 62
     2
100
AcDbLine
 10
2311.518152
 20
1873.2715
 30
0.0
 11
2316.0
 21
1872.48123
 31
0.0
  0
LINE
  5
3A9
100
AcDbEntity
  8
化粧台
  6
CONTINUOUS
 62
     2
100
AcDbLine
 10
2341.0
 20
1846.919938
 30
0.0
 11
2366.0
 21
1853.618668
 31
0.0
  0
LINE
  5
3AA
100
AcDbEntity
  8
化粧台
  6
CONTINUOUS
 62
     2
100
AcDbLine
 10
2316.0
 20
1846.919938
 30
0.0
 11
2341.0
 21
1846.919938
 31
0.0
  0
ARC
  5
3AB
100
AcDbEntity
  8
化粧台
  6
CONTINUOUS
 62
     2
100
AcDbCircle
 10
2341.020089
 20
1839.266622
 30
0.0
 40
22.5
100
AcDbArc
 50
160.114148
 51
167.422797
  0
ARC
  5
3AC
100
AcDbEntity
  8
化粧台
  6
CONTINUOUS
 62
     2
100
AcDbCircle
 10
2340.979911
 20
1839.266622
 30
0.0
 40
22.5
100
AcDbArc
 50
12.574283
 51
34.167204
  0
LINE
  5
3AD
100
AcDbEntity
  8
化粧台
  6
CONTINUOUS
 62
     2
100
AcDbLine
 10
2373.168598
 20
1786.10358
 30
0.0
 11
2373.168598
 21
1781.377355
 31
0.0
  0
LINE
  5
3AE
100
AcDbEntity
  8
化粧台
  6
CONTINUOUS
 62
     2
100
AcDbLine
 10
2373.168598
 20
1781.377355
 30
0.0
 11
2373.168598
 21
1776.651131
 31
0.0
  0
LINE
  5
3AF
100
AcDbEntity
  8
化粧台
  6
CONTINUOUS
 62
     2
100
AcDbLine
 10
2366.0
 20
1836.883863
 30
0.0
 11
2366.0
 21
1775.92022
 31
0.0
  0
LINE
  5
3B0
100
AcDbEntity
  8
化粧台
  6
CONTINUOUS
 62
     2
100
AcDbLine
 10
2233.630798
 20
1800.479735
 30
0.0
 11
2248.402914
 21
1797.875012
 31
0.0
  0
LINE
  5
3B1
100
AcDbEntity
  8
化粧台
  6
CONTINUOUS
 62
     2
100
AcDbLine
 10
2218.305155
 20
1803.182059
 30
0.0
 11
2233.630798
 21
1800.479735
 31
0.0
  0
LINE
  5
3B2
100
AcDbEntity
  8
化粧台
  6
CONTINUOUS
 62
     2
100
AcDbLine
 10
2221.813105
 20
1802.563513
 30
0.0
 11
2220.519962
 21
1795.229735
 31
0.0
  0
LINE
  5
3B3
100
AcDbEntity
  8
化粧台
  6
CONTINUOUS
 62
     2
100
AcDbLine
 10
2245.448491
 20
1798.395957
 30
0.0
 11
2244.155348
 21
1791.062178
 31
0.0
  0
LINE
  5
3B4
100
AcDbEntity
  8
化粧台
  6
CONTINUOUS
 62
     2
100
AcDbLine
 10
2316.0
 20
1836.883863
 30
0.0
 11
2316.0
 21
1809.615262
 31
0.0
  0
LINE
  5
3B5
100
AcDbEntity
  8
化粧台
  6
CONTINUOUS
 62
     2
100
AcDbLine
 10
2316.0
 20
1880.604642
 30
0.0
 11
2316.0
 21
1882.483197
 31
0.0
  0
LINE
  5
3B6
100
AcDbEntity
  8
化粧台
  6
CONTINUOUS
 62
     2
100
AcDbLine
 10
2316.0
 20
1860.983863
 30
0.0
 11
2316.0
 21
1872.48123
 31
0.0
  0
ARC
  5
3B7
100
AcDbEntity
  8
化粧台
  6
CONTINUOUS
 62
     2
100
AcDbCircle
 10
2298.583227
 20
1794.383863
 30
0.0
 40
23.137405
100
AcDbArc
 50
318.8295
 51
41.1705
  0
ARC
  5
3B8
100
AcDbEntity
  8
化粧台
  6
CONTINUOUS
 62
     2
100
AcDbCircle
 10
2311.184406
 20
1876.542936
 30
0.0
 40
6.299794
100
AcDbArc
 50
319.854088
 51
40.145912
  0
LINE
  5
3B9
100
AcDbEntity
  8
化粧台
  6
CONTINUOUS
 62
     2
100
AcDbLine
 10
2341.0
 20
1837.383863
 30
0.0
 11
2366.0
 21
1837.383863
 31
0.0
  0
LINE
  5
3BA
100
AcDbEntity
  8
化粧台
  6
CONTINUOUS
 62
     2
100
AcDbLine
 10
2316.0
 20
1837.383863
 30
0.0
 11
2341.0
 21
1837.383863
 31
0.0
  0
LINE
  5
3BB
100
AcDbEntity
  8
化粧台
  6
CONTINUOUS
 62
     2
100
AcDbLine
 10
2312.34451
 20
1884.803197
 30
0.0
 11
2247.56264
 21
1896.225989
 31
0.0
  0
ARC
  5
3BC
100
AcDbEntity
  8
化粧台
  6
CONTINUOUS
 62
     2
100
AcDbCircle
 10
2373.107635
 20
1774.377355
 30
0.0
 40
10.0
100
AcDbArc
 50
90.0
 51
135.297068
  0
LINE
  5
3BD
100
AcDbEntity
  8
化粧台
  6
CONTINUOUS
 62
     2
100
AcDbLine
 10
2366.0
 20
1769.530056
 30
0.0
 11
2369.575844
 21
1776.255241
 31
0.0
  0
LINE
  5
3BE
100
AcDbEntity
  8
化粧台
  6
CONTINUOUS
 62
     2
100
AcDbLine
 10
2316.0
 20
1779.152464
 30
0.0
 11
2316.0
 21
1742.751291
 31
0.0
  0
LINE
  5
3BF
100
AcDbEntity
  8
化粧台
  6
CONTINUOUS
 62
     2
100
AcDbLine
 10
2366.0
 20
1775.92022
 30
0.0
 11
2366.0
 21
1743.887655
 31
0.0
  0
LINE
  5
3C0
100
AcDbEntity
  8
化粧台
  6
CONTINUOUS
 62
     2
100
AcDbLine
 10
895.0
 20
1836.883863
 30
0.0
 11
895.0
 21
1735.383863
 31
0.0
  0
LINE
  5
3C1
100
AcDbEntity
  8
化粧台
  6
CONTINUOUS
 62
     2
100
AcDbLine
 10
945.0
 20
1836.883863
 30
0.0
 11
945.0
 21
1735.383863
 31
0.0
  0
LINE
  5
3C2
100
AcDbEntity
  8
化粧台
  6
CONTINUOUS
 62
     2
100
AcDbLine
 10
945.0
 20
1882.483197
 30
0.0
 11
945.0
 21
1846.919938
 31
0.0
  0
LINE
  5
3C3
100
AcDbEntity
  8
化粧台
  6
CONTINUOUS
 62
     2
100
AcDbLine
 10
895.0
 20
1882.483197
 30
0.0
 11
895.0
 21
1846.919938
 31
0.0
  0
ARC
  5
3C4
100
AcDbEntity
  8
化粧台
  6
CONTINUOUS
 62
     2
100
AcDbCircle
 10
920.0
 20
1808.682012
 30
0.0
 40
15.0
100
AcDbArc
 50
322.90405
 51
217.09595
  0
ELLIPSE
  5
3C5
100
AcDbEntity
  8
化粧台
  6
CONTINUOUS
 62
     2
100
AcDbEllipse
 10
920.0
 20
1799.211821
 30
0.0
 11
-11.999999999999998
 21
0.0000000000000015
 31
0.0
210
0.0
220
0.0
230
1.0
 40
0.22103
 41
3.1415926535897931
 42
0.0
  0
ELLIPSE
  5
3C6
100
AcDbEntity
  8
化粧台
  6
CONTINUOUS
 62
     2
100
AcDbEllipse
 10
920.0
 20
1789.991406
 30
0.0
 11
-11.999999999999998
 21
0.0000000000000015
 31
0.0
210
0.0
220
0.0
230
1.0
 40
0.173648
 41
0.0
 42
6.2831853071796004
  0
LINE
  5
3C7
100
AcDbEntity
  8
化粧台
  6
CONTINUOUS
 62
     2
100
AcDbLine
 10
908.0
 20
1789.991406
 30
0.0
 11
908.0
 21
1799.423411
 31
0.0
  0
LINE
  5
3C8
100
AcDbEntity
  8
化粧台
  6
CONTINUOUS
 62
     2
100
AcDbLine
 10
932.0
 20
1789.991406
 30
0.0
 11
932.0
 21
1799.423411
 31
0.0
  0
LINE
  5
3C9
100
AcDbEntity
  8
化粧台
  6
CONTINUOUS
 62
     2
100
AcDbLine
 10
943.0
 20
1843.383863
 30
0.0
 11
897.055831
 21
1843.383084
 31
0.0
  0
LINE
  5
3CA
100
AcDbEntity
  8
化粧台
  6
CONTINUOUS
 62
     2
100
AcDbLine
 10
945.0
 20
1846.919938
 30
0.0
 11
895.0
 21
1846.919938
 31
0.0
  0
ARC
  5
3CB
100
AcDbEntity
  8
化粧台
  6
CONTINUOUS
 62
     2
100
AcDbCircle
 10
897.0
 20
1841.383863
 30
0.0
 40
2.0
100
AcDbArc
 50
88.400357
 51
180.0
  0
LINE
  5
3CC
100
AcDbEntity
  8
化粧台
  6
CONTINUOUS
 62
     2
100
AcDbLine
 10
895.5
 20
1837.383863
 30
0.0
 11
895.0
 21
1836.883863
 31
0.0
  0
LINE
  5
3CD
100
AcDbEntity
  8
化粧台
  6
CONTINUOUS
 62
     2
100
AcDbLine
 10
895.0
 20
1841.383863
 30
0.0
 11
895.0
 21
1837.383863
 31
0.0
  0
ARC
  5
3CE
100
AcDbEntity
  8
化粧台
  6
CONTINUOUS
 62
     2
100
AcDbCircle
 10
920.020089
 20
1839.266622
 30
0.0
 40
22.5
100
AcDbArc
 50
160.114148
 51
167.425717
  0
ARC
  5
3CF
100
AcDbEntity
  8
化粧台
  6
CONTINUOUS
 62
     2
100
AcDbCircle
 10
897.083746
 20
1844.382694
 30
0.0
 40
1.0
100
AcDbArc
 50
268.400357
 51
347.425717
  0
ARC
  5
3D0
100
AcDbEntity
  8
化粧台
  6
CONTINUOUS
 62
     2
100
AcDbCircle
 10
943.0
 20
1841.383863
 30
0.0
 40
2.0
100
AcDbArc
 50
0.0
 51
90.0
  0
LINE
  5
3D1
100
AcDbEntity
  8
化粧台
  6
CONTINUOUS
 62
     2
100
AcDbLine
 10
944.5
 20
1837.383863
 30
0.0
 11
945.0
 21
1836.883863
 31
0.0
  0
LINE
  5
3D2
100
AcDbEntity
  8
化粧台
  6
CONTINUOUS
 62
     2
100
AcDbLine
 10
945.0
 20
1841.383863
 30
0.0
 11
945.0
 21
1837.383863
 31
0.0
  0
ARC
  5
3D3
100
AcDbEntity
  8
化粧台
  6
CONTINUOUS
 62
     2
100
AcDbCircle
 10
942.915993
 20
1844.383863
 30
0.0
 40
1.0
100
AcDbArc
 50
192.577203
 51
270.0
  0
LINE
  5
3D4
100
AcDbEntity
  8
化粧台
  6
CONTINUOUS
 62
     2
100
AcDbLine
 10
942.915993
 20
1843.383863
 30
0.0
 11
943.0
 21
1843.383863
 31
0.0
  0
ARC
  5
3D5
100
AcDbEntity
  8
化粧台
  6
CONTINUOUS
 62
     2
100
AcDbCircle
 10
919.979911
 20
1839.266622
 30
0.0
 40
22.5
100
AcDbArc
 50
12.577203
 51
19.885852
  0
ELLIPSE
  5
3D6
100
AcDbEntity
  8
化粧台
  6
CONTINUOUS
 62
     2
100
AcDbEllipse
 10
920.0
 20
1889.013579
 30
0.0
 11
-7.5000000000000044
 21
0.0000000000000009
 31
0.0
210
0.0
220
0.0
230
1.0
 40
0.96368
 41
0.0
 42
6.2831853071796004
  0
LINE
  5
3D7
100
AcDbEntity
  8
化粧台
  6
CONTINUOUS
 62
     2
100
AcDbLine
 10
927.5
 20
1877.225923
 30
0.0
 11
927.5
 21
1889.013579
 31
0.0
  0
LINE
  5
3D8
100
AcDbEntity
  8
化粧台
  6
CONTINUOUS
 62
     2
100
AcDbLine
 10
912.5
 20
1877.225923
 30
0.0
 11
912.5
 21
1889.013579
 31
0.0
  0
ARC
  5
3D9
100
AcDbEntity
  8
化粧台
  6
CONTINUOUS
 62
     2
100
AcDbCircle
 10
897.0
 20
1882.483197
 30
0.0
 40
2.0
100
AcDbArc
 50
97.462794
 51
180.0
  0
ARC
  5
3DA
100
AcDbEntity
  8
化粧台
  6
CONTINUOUS
 62
     2
100
AcDbCircle
 10
943.0
 20
1882.483197
 30
0.0
 40
2.0
100
AcDbArc
 50
0.0
 51
82.537206
  0
ELLIPSE
  5
3DB
100
AcDbEntity
  8
化粧台
  6
CONTINUOUS
 62
     2
100
AcDbEllipse
 10
920.0
 20
1877.225923
 30
0.0
 11
-7.5000000000000044
 21
0.0000000000000009
 31
0.0
210
0.0
220
0.0
230
1.0
 40
0.96368
 41
0.0
 42
3.1415926535897931
  0
ARC
  5
3DC
100
AcDbEntity
  8
化粧台
  6
CONTINUOUS
 62
     2
100
AcDbCircle
 10
920.0
 20
1956.580525
 30
0.0
 40
154.622782
100
AcDbArc
 50
264.918147
 51
275.081853
  0
ARC
  5
3DD
100
AcDbEntity
  8
化粧台
  6
CONTINUOUS
 62
     2
100
AcDbCircle
 10
920.0
 20
1706.899864
 30
0.0
 40
179.083333
100
AcDbArc
 50
92.400246
 51
97.462794
  0
ARC
  5
3DE
100
AcDbEntity
  8
化粧台
  6
CONTINUOUS
 62
     2
100
AcDbCircle
 10
920.0
 20
1706.899864
 30
0.0
 40
179.083333
100
AcDbArc
 50
82.537206
 51
87.599754
  0
CIRCLE
  5
3DF
100
AcDbEntity
  8
化粧台
  6
CONTINUOUS
 62
     2
100
AcDbCircle
 10
920.0
 20
1860.983863
 30
0.0
 40
5.1
  0
LINE
  5
3E0
100
AcDbEntity
  8
化粧台
  6
CONTINUOUS
 62
     2
100
AcDbLine
 10
920.0
 20
1837.383863
 30
0.0
 11
895.0
 21
1837.383863
 31
0.0
  0
LINE
  5
3E1
100
AcDbEntity
  8
化粧台
  6
CONTINUOUS
 62
     2
100
AcDbLine
 10
945.0
 20
1837.383863
 30
0.0
 11
920.0
 21
1837.383863
 31
0.0
  0
LINE
  5
3E2
100
AcDbEntity
  8
化粧台
  6
EXLTYPE3
 62
     6
100
AcDbLine
 10
920.0
 20
1902.15
 30
0.0
 11
920.0
 21
835.0
 31
0.0
  0
ARC
  5
3E3
100
AcDbEntity
  8
化粧台
  6
CONTINUOUS
 62
     2
100
AcDbCircle
 10
920.0
 20
-3102.5
 30
0.0
 40
4847.5
100
AcDbArc
 50
90.295493
 51
92.603905
  0
ARC
  5
3E4
100
AcDbEntity
  8
化粧台
  6
CONTINUOUS
 62
     2
100
AcDbCircle
 10
920.0
 20
-3102.5
 30
0.0
 40
4847.5
100
AcDbArc
 50
87.396095
 51
89.704507
  0
LINE
  5
3E5
100
AcDbEntity
  8
化粧台
  6
EXLTYPE4
 62
     6
100
AcDbLine
 10
1729.0
 20
875.0
 30
0.0
 11
342.0
 21
875.0
 31
0.0
  0
LINE
  5
3E6
100
AcDbEntity
  8
化粧台
  6
CONTINUOUS
 62
     2
100
AcDbLine
 10
620.0
 20
3489.0
 30
0.0
 11
778.578644
 21
3489.0
 31
0.0
  0
LINE
  5
3E7
100
AcDbEntity
  8
化粧台
  6
CONTINUOUS
 62
     2
100
AcDbLine
 10
620.0
 20
3489.0
 30
0.0
 11
620.0
 21
3919.0
 31
0.0
  0
LINE
  5
3E8
100
AcDbEntity
  8
化粧台
  6
CONTINUOUS
 62
     2
100
AcDbLine
 10
1061.421356
 20
3489.0
 30
0.0
 11
1220.0
 21
3489.0
 31
0.0
  0
LINE
  5
3E9
100
AcDbEntity
  8
化粧台
  6
CONTINUOUS
 62
     2
100
AcDbLine
 10
1220.0
 20
3489.0
 30
0.0
 11
1220.0
 21
3919.0
 31
0.0
  0
LINE
  5
3EA
100
AcDbEntity
  8
化粧台
  6
CONTINUOUS
 62
     2
100
AcDbLine
 10
620.0
 20
3919.0
 30
0.0
 11
1220.0
 21
3919.0
 31
0.0
  0
LINE
  5
3EB
100
AcDbEntity
  8
化粧台
  6
CONTINUOUS
 62
     6
100
AcDbLine
 10
1086.0
 20
3919.0
 30
0.0
 11
1088.0
 21
3951.5
 31
0.0
  0
LINE
  5
3EC
100
AcDbEntity
  8
化粧台
  6
CONTINUOUS
 62
     6
100
AcDbLine
 10
1088.0
 20
3951.5
 30
0.0
 11
1090.0
 21
3919.0
 31
0.0
  0
LINE
  5
3ED
100
AcDbEntity
  8
化粧台
  6
CONTINUOUS
 62
     6
100
AcDbLine
 10
1088.0
 20
3904.0
 30
0.0
 11
1088.0
 21
3961.5
 31
0.0
  0
LINE
  5
3EE
100
AcDbEntity
  8
化粧台
  6
CONTINUOUS
 62
     6
100
AcDbLine
 10
750.0
 20
3919.0
 30
0.0
 11
752.0
 21
3951.5
 31
0.0
  0
LINE
  5
3EF
100
AcDbEntity
  8
化粧台
  6
CONTINUOUS
 62
     6
100
AcDbLine
 10
752.0
 20
3951.5
 30
0.0
 11
754.0
 21
3919.0
 31
0.0
  0
LINE
  5
3F0
100
AcDbEntity
  8
化粧台
  6
CONTINUOUS
 62
     6
100
AcDbLine
 10
752.0
 20
3904.0
 30
0.0
 11
752.0
 21
3961.5
 31
0.0
  0
CIRCLE
  5
3F1
100
AcDbEntity
  8
化粧台
  6
CONTINUOUS
 62
     2
100
AcDbCircle
 10
920.0
 20
3661.0
 30
0.0
 40
18.0
  0
LINE
  5
3F2
100
AcDbEntity
  8
化粧台
  6
EXLTYPE3
 62
     6
100
AcDbLine
 10
920.0
 20
3929.0
 30
0.0
 11
920.0
 21
3429.0
 31
0.0
  0
CIRCLE
  5
3F3
100
AcDbEntity
  8
化粧台
  6
CONTINUOUS
 62
     2
100
AcDbCircle
 10
920.0
 20
3664.0
 30
0.0
 40
220.0
  0
CIRCLE
  5
3F4
100
AcDbEntity
  8
化粧台
  6
CONTINUOUS
 62
     2
100
AcDbCircle
 10
920.0
 20
3664.0
 30
0.0
 40
225.0
  0
ARC
  5
3F5
100
AcDbEntity
  8
化粧台
  6
CONTINUOUS
 62
     2
100
AcDbCircle
 10
920.0
 20
3671.429987
 30
0.0
 40
212.570013
100
AcDbArc
 50
9.763897
 51
170.236103
  0
ARC
  5
3F6
100
AcDbEntity
  8
化粧台
  6
CONTINUOUS
 62
     2
100
AcDbCircle
 10
759.784821
 20
3699.0
 30
0.0
 40
50.0
100
AcDbArc
 50
90.0
 51
170.236103
  0
ARC
  5
3F7
100
AcDbEntity
  8
化粧台
  6
CONTINUOUS
 62
     2
100
AcDbCircle
 10
1080.215179
 20
3699.0
 30
0.0
 40
50.0
100
AcDbArc
 50
9.763897
 51
90.0
  0
LINE
  5
3F8
100
AcDbEntity
  8
化粧台
  6
CONTINUOUS
 62
     6
100
AcDbLine
 10
953.75
 20
3810.0
 30
0.0
 11
886.25
 21
3810.0
 31
0.0
  0
ARC
  5
3F9
100
AcDbEntity
  8
化粧台
  6
CONTINUOUS
 62
     6
100
AcDbCircle
 10
868.038476
 20
3691.0
 30
0.0
 40
50.0
100
AcDbArc
 50
90.0
 51
171.786789
  0
ARC
  5
3FA
100
AcDbEntity
  8
化粧台
  6
CONTINUOUS
 62
     6
100
AcDbCircle
 10
971.961524
 20
3691.0
 30
0.0
 40
50.0
100
AcDbArc
 50
8.213211
 51
90.0
  0
ARC
  5
3FB
100
AcDbEntity
  8
化粧台
  6
CONTINUOUS
 62
     6
100
AcDbCircle
 10
920.0
 20
3683.5
 30
0.0
 40
102.5
100
AcDbArc
 50
171.786789
 51
8.213211
  0
LINE
  5
3FC
100
AcDbEntity
  8
化粧台
  6
CONTINUOUS
 62
     6
100
AcDbLine
 10
883.1
 20
3661.0
 30
0.0
 11
956.9
 21
3661.0
 31
0.0
  0
TEXT
  5
3FD
100
AcDbEntity
  8
化粧台
  6
CONTINUOUS
 62
     2
100
AcDbText
 10
1644.000001
 20
3859.0
 30
0.0
 40
60.0
  1
W.L.
 41
0.4125
  7
EXCADSTD
 72
     5
 11
1734.7434
 21
3859.0
 31
0.0
100
AcDbText
  0
CIRCLE
  5
3FE
100
AcDbEntity
  8
化粧台
  6
CONTINUOUS
 62
     2
100
AcDbCircle
 10
920.0
 20
3810.0
 30
0.0
 40
25.0
  0
ELLIPSE
  5
3FF
100
AcDbEntity
  8
化粧台
  6
CONTINUOUS
 62
     2
100
AcDbEllipse
 10
920.0
 20
3716.440536
 30
0.0
 11
-7.5000000000000062
 21
0.0000000000000009
 31
0.0
210
0.0
220
0.0
230
1.0
 40
0.438812
 41
0.0
 42
6.2831853071796004
  0
ELLIPSE
  5
400
100
AcDbEntity
  8
化粧台
  6
CONTINUOUS
 62
     2
100
AcDbEllipse
 10
920.0
 20
3692.214523
 30
0.0
 11
-15.000000000000011
 21
0.0000000000000018
 31
0.0
210
0.0
220
0.0
230
1.0
 40
0.436279
 41
0.0
 42
6.2831853071796004
  0
LINE
  5
401
100
AcDbEntity
  8
化粧台
  6
CONTINUOUS
 62
     2
100
AcDbLine
 10
905.0
 20
3692.214523
 30
0.0
 11
905.0
 21
3790.0
 31
0.0
  0
LINE
  5
402
100
AcDbEntity
  8
化粧台
  6
CONTINUOUS
 62
     2
100
AcDbLine
 10
935.0
 20
3692.214523
 30
0.0
 11
935.0
 21
3790.0
 31
0.0
  0
LINE
  5
403
100
AcDbEntity
  8
化粧台
  6
CONTINUOUS
 62
     2
100
AcDbLine
 10
912.5
 20
3716.440536
 30
0.0
 11
912.5
 21
3786.15152
 31
0.0
  0
LINE
  5
404
100
AcDbEntity
  8
化粧台
  6
CONTINUOUS
 62
     2
100
AcDbLine
 10
927.5
 20
3716.440536
 30
0.0
 11
927.5
 21
3786.15152
 31
0.0
  0
LINE
  5
405
100
AcDbEntity
  8
化粧台
  6
CONTINUOUS
 62
     6
100
AcDbLine
 10
905.0
 20
3741.0
 30
0.0
 11
868.038476
 21
3741.0
 31
0.0
  0
LINE
  5
406
100
AcDbEntity
  8
化粧台
  6
CONTINUOUS
 62
     2
100
AcDbLine
 10
759.784821
 20
3749.0
 30
0.0
 11
905.0
 21
3749.0
 31
0.0
  0
LINE
  5
407
100
AcDbEntity
  8
化粧台
  6
CONTINUOUS
 62
     2
100
AcDbLine
 10
935.0
 20
3749.0
 30
0.0
 11
1080.215179
 21
3749.0
 31
0.0
  0
LINE
  5
408
100
AcDbEntity
  8
化粧台
  6
CONTINUOUS
 62
     6
100
AcDbLine
 10
971.961524
 20
3741.0
 30
0.0
 11
935.0
 21
3741.0
 31
0.0
  0
ARC
  5
409
100
AcDbEntity
  8
化粧台
  6
CONTINUOUS
 62
     2
100
AcDbCircle
 10
920.0
 20
3661.0
 30
0.0
 40
27.0
100
AcDbArc
 50
107.643077
 51
72.356923
  0
LINE
  5
40A
100
AcDbEntity
  8
化粧台
  6
CONTINUOUS
 62
     2
100
AcDbLine
 10
914.158916
 20
3857.168598
 30
0.0
 11
925.841084
 21
3857.168598
 31
0.0
  0
ARC
  5
40B
100
AcDbEntity
  8
化粧台
  6
CONTINUOUS
 62
     2
100
AcDbCircle
 10
920.0
 20
3839.617513
 30
0.0
 40
18.551084
100
AcDbArc
 50
72.298207
 51
107.701793
  0
ARC
  5
40C
100
AcDbEntity
  8
化粧台
  6
CONTINUOUS
 62
     2
100
AcDbCircle
 10
924.726224
 20
3842.668598
 30
0.0
 40
0.5
100
AcDbArc
 50
270.0
 51
356.914712
  0
ARC
  5
40D
100
AcDbEntity
  8
化粧台
  6
CONTINUOUS
 62
     2
100
AcDbCircle
 10
925.488665
 20
3856.813914
 30
0.0
 40
0.5
100
AcDbArc
 50
356.914712
 51
72.298207
  0
LINE
  5
40E
100
AcDbEntity
  8
化粧台
  6
CONTINUOUS
 62
     2
100
AcDbLine
 10
925.2255
 20
3842.641687
 30
0.0
 11
925.98794
 21
3856.787003
 31
0.0
  0
ARC
  5
40F
100
AcDbEntity
  8
化粧台
  6
CONTINUOUS
 62
     2
100
AcDbCircle
 10
915.273776
 20
3842.668598
 30
0.0
 40
0.5
100
AcDbArc
 50
183.085288
 51
270.0
  0
ARC
  5
410
100
AcDbEntity
  8
化粧台
  6
CONTINUOUS
 62
     2
100
AcDbCircle
 10
914.511335
 20
3856.813914
 30
0.0
 40
0.5
100
AcDbArc
 50
107.701793
 51
183.085288
  0
LINE
  5
411
100
AcDbEntity
  8
化粧台
  6
CONTINUOUS
 62
     2
100
AcDbLine
 10
914.7745
 20
3842.641687
 30
0.0
 11
914.01206
 21
3856.787003
 31
0.0
  0
LINE
  5
412
100
AcDbEntity
  8
化粧台
  6
CONTINUOUS
 62
     2
100
AcDbLine
 10
915.273776
 20
3842.168598
 30
0.0
 11
920.0
 21
3842.168598
 31
0.0
  0
LINE
  5
413
100
AcDbEntity
  8
化粧台
  6
CONTINUOUS
 62
     2
100
AcDbLine
 10
920.0
 20
3842.168598
 30
0.0
 11
924.726224
 21
3842.168598
 31
0.0
  0
LINE
  5
414
100
AcDbEntity
  8
化粧台
  6
CONTINUOUS
 62
     2
100
AcDbLine
 10
917.0
 20
3842.168598
 30
0.0
 11
917.0
 21
3834.819347
 31
0.0
  0
LINE
  5
415
100
AcDbEntity
  8
化粧台
  6
CONTINUOUS
 62
     2
100
AcDbLine
 10
923.0
 20
3842.168598
 30
0.0
 11
923.0
 21
3834.819347
 31
0.0
  0
LINE
  5
416
100
AcDbEntity
  8
化粧台
  6
EXLTYPE4
 62
     6
100
AcDbLine
 10
342.0
 20
3919.0
 30
0.0
 11
1743.0
 21
3919.0
 31
0.0
  0
LINE
  5
417
100
AcDbEntity
  8
化粧台
  6
CONTINUOUS
 62
     2
100
AcDbLine
 10
620.0
 20
2625.0
 30
0.0
 11
620.0
 21
2105.0
 31
0.0
  0
LINE
  5
418
100
AcDbEntity
  8
化粧台
  6
CONTINUOUS
 62
     2
100
AcDbLine
 10
1220.0
 20
2625.0
 30
0.0
 11
1220.0
 21
2105.0
 31
0.0
  0
LINE
  5
419
100
AcDbEntity
  8
化粧台
  6
CONTINUOUS
 62
     4
100
AcDbLine
 10
662.5
 20
2113.8
 30
0.0
 11
662.5
 21
2103.8
 31
0.0
  0
LINE
  5
41A
100
AcDbEntity
  8
化粧台
  6
CONTINUOUS
 62
     4
100
AcDbLine
 10
662.5
 20
2113.8
 30
0.0
 11
1177.5
 21
2113.8
 31
0.0
  0
LINE
  5
41B
100
AcDbEntity
  8
化粧台
  6
CONTINUOUS
 62
     4
100
AcDbLine
 10
662.5
 20
2103.8
 30
0.0
 11
1177.5
 21
2103.8
 31
0.0
  0
LINE
  5
41C
100
AcDbEntity
  8
化粧台
  6
CONTINUOUS
 62
     4
100
AcDbLine
 10
1177.5
 20
2113.8
 30
0.0
 11
1177.5
 21
2103.8
 31
0.0
  0
LINE
  5
41D
100
AcDbEntity
  8
化粧台
  6
CONTINUOUS
 62
     2
100
AcDbLine
 10
660.5
 20
2625.0
 30
0.0
 11
660.5
 21
2105.0
 31
0.0
  0
LINE
  5
41E
100
AcDbEntity
  8
化粧台
  6
CONTINUOUS
 62
     4
100
AcDbLine
 10
662.5
 20
2626.2
 30
0.0
 11
662.5
 21
2616.2
 31
0.0
  0
LINE
  5
41F
100
AcDbEntity
  8
化粧台
  6
CONTINUOUS
 62
     4
100
AcDbLine
 10
1177.5
 20
2626.2
 30
0.0
 11
1177.5
 21
2616.2
 31
0.0
  0
LINE
  5
420
100
AcDbEntity
  8
化粧台
  6
CONTINUOUS
 62
     4
100
AcDbLine
 10
662.5
 20
2626.2
 30
0.0
 11
1177.5
 21
2626.2
 31
0.0
  0
LINE
  5
421
100
AcDbEntity
  8
化粧台
  6
CONTINUOUS
 62
     4
100
AcDbLine
 10
662.5
 20
2616.2
 30
0.0
 11
1177.5
 21
2616.2
 31
0.0
  0
LINE
  5
422
100
AcDbEntity
  8
化粧台
  6
CONTINUOUS
 62
     2
100
AcDbLine
 10
1179.5
 20
2625.0
 30
0.0
 11
1179.5
 21
2105.0
 31
0.0
  0
LINE
  5
423
100
AcDbEntity
  8
化粧台
  6
CONTINUOUS
 62
     2
100
AcDbLine
 10
620.0
 20
2625.0
 30
0.0
 11
662.5
 21
2625.0
 31
0.0
  0
LINE
  5
424
100
AcDbEntity
  8
化粧台
  6
CONTINUOUS
 62
     2
100
AcDbLine
 10
1177.5
 20
2625.0
 30
0.0
 11
1220.0
 21
2625.0
 31
0.0
  0
LINE
  5
425
100
AcDbEntity
  8
化粧台
  6
CONTINUOUS
 62
     2
100
AcDbLine
 10
1177.5
 20
2105.0
 30
0.0
 11
1220.0
 21
2105.0
 31
0.0
  0
LINE
  5
426
100
AcDbEntity
  8
化粧台
  6
CONTINUOUS
 62
     2
100
AcDbLine
 10
620.0
 20
2105.0
 30
0.0
 11
662.5
 21
2105.0
 31
0.0
  0
LINE
  5
427
100
AcDbEntity
  8
化粧台
  6
CONTINUOUS
 62
     6
100
AcDbLine
 10
976.535534
 20
2449.464466
 30
0.0
 11
991.535534
 21
2464.464466
 31
0.0
  0
LINE
  5
428
100
AcDbEntity
  8
化粧台
  6
CONTINUOUS
 62
     6
100
AcDbLine
 10
966.0
 20
2446.0
 30
0.0
 11
998.5
 21
2478.5
 31
0.0
  0
LINE
  5
429
100
AcDbEntity
  8
化粧台
  6
CONTINUOUS
 62
     6
100
AcDbLine
 10
986.714466
 20
2473.785534
 30
0.0
 11
973.964466
 21
2461.035534
 31
0.0
  0
LINE
  5
42A
100
AcDbEntity
  8
化粧台
  6
CONTINUOUS
 62
     6
100
AcDbLine
 10
811.535534
 20
2422.464466
 30
0.0
 11
826.535534
 21
2437.464466
 31
0.0
  0
LINE
  5
42B
100
AcDbEntity
  8
化粧台
  6
CONTINUOUS
 62
     6
100
AcDbLine
 10
801.0
 20
2419.0
 30
0.0
 11
833.5
 21
2451.5
 31
0.0
  0
LINE
  5
42C
100
AcDbEntity
  8
化粧台
  6
CONTINUOUS
 62
     6
100
AcDbLine
 10
821.714466
 20
2446.785534
 30
0.0
 11
808.964466
 21
2434.035534
 31
0.0
  0
LINE
  5
42D
100
AcDbEntity
  8
化粧台
  6
CONTINUOUS
 62
     6
100
AcDbLine
 10
955.535534
 20
2259.464466
 30
0.0
 11
970.535534
 21
2274.464466
 31
0.0
  0
LINE
  5
42E
100
AcDbEntity
  8
化粧台
  6
CONTINUOUS
 62
     6
100
AcDbLine
 10
945.0
 20
2256.0
 30
0.0
 11
977.5
 21
2288.5
 31
0.0
  0
LINE
  5
42F
100
AcDbEntity
  8
化粧台
  6
CONTINUOUS
 62
     6
100
AcDbLine
 10
965.714466
 20
2283.785534
 30
0.0
 11
952.964466
 21
2271.035534
 31
0.0
  0
LINE
  5
430
100
AcDbEntity
  8
化粧台
  6
CONTINUOUS
 62
     6
100
AcDbLine
 10
1070.0
 20
2551.980762
 30
0.0
 11
1070.0
 21
2577.980762
 31
0.0
  0
LINE
  5
431
100
AcDbEntity
  8
化粧台
  6
CONTINUOUS
 62
     6
100
AcDbLine
 10
1083.0
 20
2564.980762
 30
0.0
 11
1057.0
 21
2564.980762
 31
0.0
  0
LINE
  5
432
100
AcDbEntity
  8
化粧台
  6
CONTINUOUS
 62
     6
100
AcDbLine
 10
783.0
 20
2564.980762
 30
0.0
 11
757.0
 21
2564.980762
 31
0.0
  0
LINE
  5
433
100
AcDbEntity
  8
化粧台
  6
CONTINUOUS
 62
     6
100
AcDbLine
 10
770.0
 20
2551.980762
 30
0.0
 11
770.0
 21
2577.980762
 31
0.0
  0
LINE
  5
434
100
AcDbEntity
  8
化粧台
  6
CONTINUOUS
 62
     6
100
AcDbLine
 10
783.0
 20
2125.0
 30
0.0
 11
757.0
 21
2125.0
 31
0.0
  0
LINE
  5
435
100
AcDbEntity
  8
化粧台
  6
CONTINUOUS
 62
     6
100
AcDbLine
 10
770.0
 20
2112.0
 30
0.0
 11
770.0
 21
2138.0
 31
0.0
  0
LINE
  5
436
100
AcDbEntity
  8
化粧台
  6
CONTINUOUS
 62
     6
100
AcDbLine
 10
1083.0
 20
2125.0
 30
0.0
 11
1057.0
 21
2125.0
 31
0.0
  0
LINE
  5
437
100
AcDbEntity
  8
化粧台
  6
CONTINUOUS
 62
     6
100
AcDbLine
 10
1070.0
 20
2112.0
 30
0.0
 11
1070.0
 21
2138.0
 31
0.0
  0
LINE
  5
438
100
AcDbEntity
  8
化粧台
  6
EXLTYPE3
 62
     6
100
AcDbLine
 10
920.0
 20
2641.2
 30
0.0
 11
920.0
 21
2088.8
 31
0.0
  0
TEXT
  5
439
100
AcDbEntity
  8
化粧台
  6
CONTINUOUS
 62
     2
100
AcDbText
 10
2450.0
 20
2890.000001
 30
0.0
 40
60.0
  1
W.L.
 50
90.0
 41
0.4125
  7
EXCADSTD
 72
     5
 11
2450.0
 21
2980.7434
 31
0.0
100
AcDbText
  0
LINE
  5
43A
100
AcDbEntity
  8
化粧台
  6
EXLTYPE4
 62
     6
100
AcDbLine
 10
2450.0
 20
875.0
 30
0.0
 11
2450.0
 21
2983.5
 31
0.0
  0
LINE
  5
43B
100
AcDbEntity
  8
化粧台
  6
CONTINUOUS
 62
     2
100
AcDbLine
 10
2420.0
 20
2625.0
 30
0.0
 11
2420.0
 21
2105.0
 31
0.0
  0
LINE
  5
43C
100
AcDbEntity
  8
化粧台
  6
CONTINUOUS
 62
     2
100
AcDbLine
 10
2450.0
 20
2170.0
 30
0.0
 11
2450.0
 21
2110.0
 31
0.0
  0
LINE
  5
43D
100
AcDbEntity
  8
化粧台
  6
CONTINUOUS
 62
     2
100
AcDbLine
 10
2419.0
 20
2624.0
 30
0.0
 11
2419.0
 21
2105.0
 31
0.0
  0
LINE
  5
43E
100
AcDbEntity
  8
化粧台
  6
CONTINUOUS
 62
     2
100
AcDbLine
 10
2414.0
 20
2624.0
 30
0.0
 11
2419.0
 21
2624.0
 31
0.0
  0
LINE
  5
43F
100
AcDbEntity
  8
化粧台
  6
CONTINUOUS
 62
     2
100
AcDbLine
 10
2432.8
 20
2626.2
 30
0.0
 11
2432.8
 21
2625.0
 31
0.0
  0
LINE
  5
440
100
AcDbEntity
  8
化粧台
  6
CONTINUOUS
 62
     2
100
AcDbLine
 10
2412.8
 20
2616.2
 30
0.0
 11
2414.0
 21
2616.2
 31
0.0
  0
LINE
  5
441
100
AcDbEntity
  8
化粧台
  6
CONTINUOUS
 62
     2
100
AcDbLine
 10
2412.8
 20
2626.2
 30
0.0
 11
2432.8
 21
2626.2
 31
0.0
  0
LINE
  5
442
100
AcDbEntity
  8
化粧台
  6
CONTINUOUS
 62
     2
100
AcDbLine
 10
2412.8
 20
2616.2
 30
0.0
 11
2412.8
 21
2626.2
 31
0.0
  0
LINE
  5
443
100
AcDbEntity
  8
化粧台
  6
CONTINUOUS
 62
     2
100
AcDbLine
 10
2414.0
 20
2625.0
 30
0.0
 11
2414.0
 21
2105.0
 31
0.0
  0
LINE
  5
444
100
AcDbEntity
  8
化粧台
  6
CONTINUOUS
 62
     2
100
AcDbLine
 10
2414.0
 20
2625.0
 30
0.0
 11
2437.5
 21
2625.0
 31
0.0
  0
LINE
  5
445
100
AcDbEntity
  8
化粧台
  6
CONTINUOUS
 62
     2
100
AcDbLine
 10
2412.8
 20
2113.8
 30
0.0
 11
2414.0
 21
2113.8
 31
0.0
  0
LINE
  5
446
100
AcDbEntity
  8
化粧台
  6
CONTINUOUS
 62
     2
100
AcDbLine
 10
2432.8
 20
2105.0
 30
0.0
 11
2432.8
 21
2103.8
 31
0.0
  0
LINE
  5
447
100
AcDbEntity
  8
化粧台
  6
CONTINUOUS
 62
     2
100
AcDbLine
 10
2412.8
 20
2103.8
 30
0.0
 11
2432.8
 21
2103.8
 31
0.0
  0
LINE
  5
448
100
AcDbEntity
  8
化粧台
  6
CONTINUOUS
 62
     2
100
AcDbLine
 10
2412.8
 20
2113.8
 30
0.0
 11
2412.8
 21
2103.8
 31
0.0
  0
LINE
  5
449
100
AcDbEntity
  8
化粧台
  6
CONTINUOUS
 62
     2
100
AcDbLine
 10
2414.0
 20
2105.0
 30
0.0
 11
2437.5
 21
2105.0
 31
0.0
  0
LINE
  5
44A
100
AcDbEntity
  8
化粧台
  6
CONTINUOUS
 62
     2
100
AcDbLine
 10
2450.0
 20
2624.0
 30
0.0
 11
2450.0
 21
2549.980762
 31
0.0
  0
LINE
  5
44B
100
AcDbEntity
  8
化粧台
  6
CONTINUOUS
 62
     2
100
AcDbLine
 10
2450.0
 20
2624.0
 30
0.0
 11
2437.5
 21
2624.0
 31
0.0
  0
LINE
  5
44C
100
AcDbEntity
  8
化粧台
  6
CONTINUOUS
 62
     2
100
AcDbLine
 10
2450.0
 20
2574.0
 30
0.0
 11
2437.5
 21
2595.650635
 31
0.0
  0
LINE
  5
44D
100
AcDbEntity
  8
化粧台
  6
CONTINUOUS
 62
     2
100
AcDbLine
 10
2437.5
 20
2549.980762
 30
0.0
 11
2450.0
 21
2549.980762
 31
0.0
  0
LINE
  5
44E
100
AcDbEntity
  8
化粧台
  6
CONTINUOUS
 62
     2
100
AcDbLine
 10
2437.5
 20
2625.0
 30
0.0
 11
2437.5
 21
2105.0
 31
0.0
  0
LINE
  5
44F
100
AcDbEntity
  8
化粧台
  6
CONTINUOUS
 62
     2
100
AcDbLine
 10
2450.0
 20
2170.0
 30
0.0
 11
2437.5
 21
2170.0
 31
0.0
  0
LINE
  5
450
100
AcDbEntity
  8
化粧台
  6
CONTINUOUS
 62
     2
100
AcDbLine
 10
2450.0
 20
2140.0
 30
0.0
 11
2437.5
 21
2140.0
 31
0.0
  0
LINE
  5
451
100
AcDbEntity
  8
化粧台
  6
CONTINUOUS
 62
     2
100
AcDbLine
 10
2450.0
 20
2110.0
 30
0.0
 11
2437.5
 21
2110.0
 31
0.0
  0
LINE
  5
452
100
AcDbEntity
  8
化粧台
  6
CONTINUOUS
 62
     6
100
AcDbLine
 10
2437.8
 20
2110.0
 30
0.0
 11
2447.2
 21
2110.0
 31
0.0
  0
ARC
  5
453
100
AcDbEntity
  8
化粧台
  6
CONTINUOUS
 62
     6
100
AcDbCircle
 10
2442.5
 20
2113.168
 30
0.0
 40
5.668
100
AcDbArc
 50
213.981647
 51
326.018353
  0
LINE
  5
454
100
AcDbEntity
  8
化粧台
  6
CONTINUOUS
 62
     6
100
AcDbLine
 10
2450.0
 20
2566.980762
 30
0.0
 11
2482.5
 21
2564.980762
 31
0.0
  0
LINE
  5
455
100
AcDbEntity
  8
化粧台
  6
CONTINUOUS
 62
     6
100
AcDbLine
 10
2482.5
 20
2564.980762
 30
0.0
 11
2450.0
 21
2562.980762
 31
0.0
  0
LINE
  5
456
100
AcDbEntity
  8
化粧台
  6
CONTINUOUS
 62
     6
100
AcDbLine
 10
2435.0
 20
2564.980762
 30
0.0
 11
2492.5
 21
2564.980762
 31
0.0
  0
LINE
  5
457
100
AcDbEntity
  8
化粧台
  6
CONTINUOUS
 62
     6
100
AcDbLine
 10
2450.0
 20
2127.0
 30
0.0
 11
2482.5
 21
2125.0
 31
0.0
  0
LINE
  5
458
100
AcDbEntity
  8
化粧台
  6
CONTINUOUS
 62
     6
100
AcDbLine
 10
2482.5
 20
2125.0
 30
0.0
 11
2450.0
 21
2123.0
 31
0.0
  0
LINE
  5
459
100
AcDbEntity
  8
化粧台
  6
CONTINUOUS
 62
     6
100
AcDbLine
 10
2435.0
 20
2125.0
 30
0.0
 11
2492.5
 21
2125.0
 31
0.0
  0
LINE
  5
45A
100
AcDbEntity
  8
寸法
  6
CONTINUOUS
 62
     3
100
AcDbLine
 10
2370.0
 20
856.5
 30
0.0
 11
2370.0
 21
740.0
 31
0.0
  0
LINE
  5
45B
100
AcDbEntity
  8
寸法
  6
CONTINUOUS
 62
     3
100
AcDbLine
 10
2450.0
 20
864.5
 30
0.0
 11
2450.0
 21
740.0
 31
0.0
  0
TEXT
  5
45C
100
AcDbEntity
  8
寸法
  6
CONTINUOUS
 62
     2
100
AcDbText
 10
2495.0
 20
760.25
 30
0.0
 40
60.0
  1
８０
 41
0.735
  7
EXCADSTD
 72
     5
 11
2591.243
 21
760.25
 31
0.0
100
AcDbText
  0
TEXT
  5
45D
100
AcDbEntity
  8
寸法
  6
CONTINUOUS
 62
     2
100
AcDbText
 10
2592.5
 20
760.25
 30
0.0
 40
47.999996
  1
（床給水）
 41
0.672
  7
EXCADSTD
 72
     5
 11
2784.499989
 21
760.25
 31
0.0
100
AcDbText
  0
LINE
  5
45E
100
AcDbEntity
  8
寸法
  6
CONTINUOUS
 62
     3
100
AcDbLine
 10
2325.0
 20
755.0
 30
0.0
 11
2782.249994
 21
755.0
 31
0.0
  0
LINE
  5
45F
100
AcDbEntity
  8
寸法
  6
CONTINUOUS
 62
     3
100
AcDbLine
 10
2325.0
 20
747.5
 30
0.0
 11
2370.0
 21
755.0
 31
0.0
  0
LINE
  5
460
100
AcDbEntity
  8
寸法
  6
CONTINUOUS
 62
     3
100
AcDbLine
 10
2370.0
 20
755.0
 30
0.0
 11
2325.0
 21
762.5
 31
0.0
  0
LINE
  5
461
100
AcDbEntity
  8
寸法
  6
CONTINUOUS
 62
     3
100
AcDbLine
 10
2495.0
 20
762.5
 30
0.0
 11
2450.0
 21
755.0
 31
0.0
  0
LINE
  5
462
100
AcDbEntity
  8
寸法
  6
CONTINUOUS
 62
     3
100
AcDbLine
 10
2450.0
 20
755.0
 30
0.0
 11
2495.0
 21
747.5
 31
0.0
  0
LINE
  5
463
100
AcDbEntity
  8
寸法
  6
CONTINUOUS
 62
     3
100
AcDbLine
 10
2320.0
 20
834.5
 30
0.0
 11
2320.0
 21
650.0
 31
0.0
  0
LINE
  5
464
100
AcDbEntity
  8
寸法
  6
CONTINUOUS
 62
     3
100
AcDbLine
 10
2450.0
 20
864.5
 30
0.0
 11
2450.0
 21
650.0
 31
0.0
  0
TEXT
  5
465
100
AcDbEntity
  8
寸法
  6
CONTINUOUS
 62
     2
100
AcDbText
 10
2495.0
 20
670.25
 30
0.0
 40
60.0
  1
１３０
 41
0.7
  7
EXCADSTD
 72
     5
 11
2645.0
 21
670.25
 31
0.0
100
AcDbText
  0
TEXT
  5
466
100
AcDbEntity
  8
寸法
  6
CONTINUOUS
 62
     2
100
AcDbText
 10
2637.5
 20
670.25
 30
0.0
 40
47.999996
  1
（Ｓトラップ）
 41
0.66
  7
EXCADSTD
 72
     5
 11
2901.499984
 21
670.25
 31
0.0
100
AcDbText
  0
LINE
  5
467
100
AcDbEntity
  8
寸法
  6
CONTINUOUS
 62
     3
100
AcDbLine
 10
2275.0
 20
665.0
 30
0.0
 11
2899.250011
 21
665.0
 31
0.0
  0
LINE
  5
468
100
AcDbEntity
  8
寸法
  6
CONTINUOUS
 62
     3
100
AcDbLine
 10
2275.0
 20
657.5
 30
0.0
 11
2320.0
 21
665.0
 31
0.0
  0
LINE
  5
469
100
AcDbEntity
  8
寸法
  6
CONTINUOUS
 62
     3
100
AcDbLine
 10
2320.0
 20
665.0
 30
0.0
 11
2275.0
 21
672.5
 31
0.0
  0
LINE
  5
46A
100
AcDbEntity
  8
寸法
  6
CONTINUOUS
 62
     3
100
AcDbLine
 10
2495.0
 20
672.5
 30
0.0
 11
2450.0
 21
665.0
 31
0.0
  0
LINE
  5
46B
100
AcDbEntity
  8
寸法
  6
CONTINUOUS
 62
     3
100
AcDbLine
 10
2450.0
 20
665.0
 30
0.0
 11
2495.0
 21
657.5
 31
0.0
  0
LINE
  5
46C
100
AcDbEntity
  8
寸法
  6
CONTINUOUS
 62
     3
100
AcDbLine
 10
2460.5
 20
875.0
 30
0.0
 11
2840.0
 21
875.0
 31
0.0
  0
LINE
  5
46D
100
AcDbEntity
  8
寸法
  6
CONTINUOUS
 62
     3
100
AcDbLine
 10
2492.4
 20
1495.0
 30
0.0
 11
2840.0
 21
1495.0
 31
0.0
  0
TEXT
  5
46E
100
AcDbEntity
  8
寸法
  6
CONTINUOUS
 62
     2
100
AcDbText
 10
2819.75
 20
1021.5
 30
0.0
 40
60.0
  1
６２０
 50
90.0
 41
0.7
  7
EXCADSTD
 72
     5
 11
2819.75
 21
1171.5
 31
0.0
100
AcDbText
  0
TEXT
  5
46F
100
AcDbEntity
  8
寸法
  6
CONTINUOUS
 62
     2
100
AcDbText
 10
2819.75
 20
1164.0
 30
0.0
 40
47.999996
  1
（壁固定）
 50
90.0
 41
0.672
  7
EXCADSTD
 72
     5
 11
2819.75
 21
1355.999989
 31
0.0
100
AcDbText
  0
LINE
  5
470
100
AcDbEntity
  8
寸法
  6
CONTINUOUS
 62
     3
100
AcDbLine
 10
2825.0
 20
875.0
 30
0.0
 11
2825.0
 21
1495.0
 31
0.0
  0
LINE
  5
471
100
AcDbEntity
  8
寸法
  6
CONTINUOUS
 62
     3
100
AcDbLine
 10
2817.5
 20
920.0
 30
0.0
 11
2825.0
 21
875.0
 31
0.0
  0
LINE
  5
472
100
AcDbEntity
  8
寸法
  6
CONTINUOUS
 62
     3
100
AcDbLine
 10
2825.0
 20
875.0
 30
0.0
 11
2832.5
 21
920.0
 31
0.0
  0
LINE
  5
473
100
AcDbEntity
  8
寸法
  6
CONTINUOUS
 62
     3
100
AcDbLine
 10
2832.5
 20
1450.0
 30
0.0
 11
2825.0
 21
1495.0
 31
0.0
  0
LINE
  5
474
100
AcDbEntity
  8
寸法
  6
CONTINUOUS
 62
     3
100
AcDbLine
 10
2825.0
 20
1495.0
 30
0.0
 11
2817.5
 21
1450.0
 31
0.0
  0
LINE
  5
475
100
AcDbEntity
  8
寸法
  6
CONTINUOUS
 62
     3
100
AcDbLine
 10
2460.5
 20
875.0
 30
0.0
 11
2660.0
 21
875.0
 31
0.0
  0
LINE
  5
476
100
AcDbEntity
  8
寸法
  6
CONTINUOUS
 62
     3
100
AcDbLine
 10
2484.0
 20
1350.0
 30
0.0
 11
2660.0
 21
1350.0
 31
0.0
  0
TEXT
  5
477
100
AcDbEntity
  8
寸法
  6
CONTINUOUS
 62
     2
100
AcDbText
 10
2639.75
 20
913.0
 30
0.0
 40
60.0
  1
４７５
 50
90.0
 41
0.7
  7
EXCADSTD
 72
     5
 11
2639.75
 21
1063.0
 31
0.0
100
AcDbText
  0
TEXT
  5
478
100
AcDbEntity
  8
寸法
  6
CONTINUOUS
 62
     2
100
AcDbText
 10
2639.75
 20
1055.5
 30
0.0
 40
47.999996
  1
（Ｐトラップ）
 50
90.0
 41
0.66
  7
EXCADSTD
 72
     5
 11
2639.75
 21
1319.499984
 31
0.0
100
AcDbText
  0
LINE
  5
479
100
AcDbEntity
  8
寸法
  6
CONTINUOUS
 62
     3
100
AcDbLine
 10
2645.0
 20
875.0
 30
0.0
 11
2645.0
 21
1350.0
 31
0.0
  0
LINE
  5
47A
100
AcDbEntity
  8
寸法
  6
CONTINUOUS
 62
     3
100
AcDbLine
 10
2637.5
 20
920.0
 30
0.0
 11
2645.0
 21
875.0
 31
0.0
  0
LINE
  5
47B
100
AcDbEntity
  8
寸法
  6
CONTINUOUS
 62
     3
100
AcDbLine
 10
2645.0
 20
875.0
 30
0.0
 11
2652.5
 21
920.0
 31
0.0
  0
LINE
  5
47C
100
AcDbEntity
  8
寸法
  6
CONTINUOUS
 62
     3
100
AcDbLine
 10
2652.5
 20
1305.0
 30
0.0
 11
2645.0
 21
1350.0
 31
0.0
  0
LINE
  5
47D
100
AcDbEntity
  8
寸法
  6
CONTINUOUS
 62
     3
100
AcDbLine
 10
2645.0
 20
1350.0
 30
0.0
 11
2637.5
 21
1305.0
 31
0.0
  0
LINE
  5
47E
100
AcDbEntity
  8
寸法
  6
CONTINUOUS
 62
     3
100
AcDbLine
 10
2460.5
 20
875.0
 30
0.0
 11
2750.0
 21
875.0
 31
0.0
  0
LINE
  5
47F
100
AcDbEntity
  8
寸法
  6
CONTINUOUS
 62
     3
100
AcDbLine
 10
2489.0
 20
1420.0
 30
0.0
 11
2750.0
 21
1420.0
 31
0.0
  0
TEXT
  5
480
100
AcDbEntity
  8
寸法
  6
CONTINUOUS
 62
     2
100
AcDbText
 10
2729.75
 20
912.0
 30
0.0
 40
60.0
  1
５４５
 50
90.0
 41
0.7
  7
EXCADSTD
 72
     5
 11
2729.75
 21
1062.0
 31
0.0
100
AcDbText
  0
TEXT
  5
481
100
AcDbEntity
  8
寸法
  6
CONTINUOUS
 62
     2
100
AcDbText
 10
2729.75
 20
1054.5
 30
0.0
 40
47.999996
  1
（ボトルトラップ）
 50
90.0
 41
0.653333
  7
EXCADSTD
 72
     5
 11
2729.75
 21
1390.49998
 31
0.0
100
AcDbText
  0
LINE
  5
482
100
AcDbEntity
  8
寸法
  6
CONTINUOUS
 62
     3
100
AcDbLine
 10
2735.0
 20
875.0
 30
0.0
 11
2735.0
 21
1420.0
 31
0.0
  0
LINE
  5
483
100
AcDbEntity
  8
寸法
  6
CONTINUOUS
 62
     3
100
AcDbLine
 10
2727.5
 20
920.0
 30
0.0
 11
2735.0
 21
875.0
 31
0.0
  0
LINE
  5
484
100
AcDbEntity
  8
寸法
  6
CONTINUOUS
 62
     3
100
AcDbLine
 10
2735.0
 20
875.0
 30
0.0
 11
2742.5
 21
920.0
 31
0.0
  0
LINE
  5
485
100
AcDbEntity
  8
寸法
  6
CONTINUOUS
 62
     3
100
AcDbLine
 10
2742.5
 20
1375.0
 30
0.0
 11
2735.0
 21
1420.0
 31
0.0
  0
LINE
  5
486
100
AcDbEntity
  8
寸法
  6
CONTINUOUS
 62
     3
100
AcDbLine
 10
2735.0
 20
1420.0
 30
0.0
 11
2727.5
 21
1375.0
 31
0.0
  0
LINE
  5
487
100
AcDbEntity
  8
寸法
  6
CONTINUOUS
 62
     3
100
AcDbLine
 10
752.0
 20
3962.0
 30
0.0
 11
752.0
 21
4024.0
 31
0.0
  0
LINE
  5
488
100
AcDbEntity
  8
寸法
  6
CONTINUOUS
 62
     3
100
AcDbLine
 10
1088.0
 20
3962.0
 30
0.0
 11
1088.0
 21
4024.0
 31
0.0
  0
TEXT
  5
489
100
AcDbEntity
  8
寸法
  6
CONTINUOUS
 62
     2
100
AcDbText
 10
756.5
 20
4014.25
 30
0.0
 40
60.0
  1
３３６
 41
0.7
  7
EXCADSTD
 72
     5
 11
906.5
 21
4014.25
 31
0.0
100
AcDbText
  0
TEXT
  5
48A
100
AcDbEntity
  8
寸法
  6
CONTINUOUS
 62
     2
100
AcDbText
 10
899.0
 20
4014.25
 30
0.0
 40
47.999996
  1
（壁固定）
 41
0.672
  7
EXCADSTD
 72
     5
 11
1090.999989
 21
4014.25
 31
0.0
100
AcDbText
  0
LINE
  5
48B
100
AcDbEntity
  8
寸法
  6
CONTINUOUS
 62
     3
100
AcDbLine
 10
752.0
 20
4009.0
 30
0.0
 11
1088.0
 21
4009.0
 31
0.0
  0
LINE
  5
48C
100
AcDbEntity
  8
寸法
  6
CONTINUOUS
 62
     3
100
AcDbLine
 10
797.0
 20
4016.5
 30
0.0
 11
752.0
 21
4009.0
 31
0.0
  0
LINE
  5
48D
100
AcDbEntity
  8
寸法
  6
CONTINUOUS
 62
     3
100
AcDbLine
 10
752.0
 20
4009.0
 30
0.0
 11
797.0
 21
4001.5
 31
0.0
  0
LINE
  5
48E
100
AcDbEntity
  8
寸法
  6
CONTINUOUS
 62
     3
100
AcDbLine
 10
1043.0
 20
4001.5
 30
0.0
 11
1088.0
 21
4009.0
 31
0.0
  0
LINE
  5
48F
100
AcDbEntity
  8
寸法
  6
CONTINUOUS
 62
     3
100
AcDbLine
 10
1088.0
 20
4009.0
 30
0.0
 11
1043.0
 21
4016.5
 31
0.0
  0
DIMENSION
  5
49C
100
AcDbEntity
  8
寸法
  6
CONTINUOUS
 62
     3
100
AcDbDimension
  2
*D14
 10
1145.0
 20
3314.0
 30
0.0
 11
920.0
 21
3349.25
 31
0.0
 70
   160
  1
%%c450
  3
STANDARD
100
AcDbAlignedDimension
 13
695.0
 23
3664.0
 33
0.0
 14
1145.0
 24
3664.0
 34
0.0
100
AcDbRotatedDimension
1001
ACAD
1000
DSTYLE
1002
{
1070
     6
1000
_EX_NORM
1070
     7
1000
_EX_NORM
1070
    41
1040
45.0
1070
    42
1040
10.5
1070
    44
1040
15.0
1070
    73
1070
     0
1070
    74
1070
     0
1070
    75
1070
     0
1070
    76
1070
     0
1070
    77
1070
     1
1070
    78
1070
     0
1070
   140
1040
60.0
1070
   147
1040
5.25
1070
   173
1070
     1
1070
   176
1070
     3
1070
   177
1070
     3
1070
   178
1070
     2
1070
   271
1070
     0
1070
   279
1070
     2
1070
   280
1070
     0
1070
   287
1070
     5
1070
   340
1005
49B
1002
}
  0
DIMENSION
  5
4A8
100
AcDbEntity
  8
寸法
  6
CONTINUOUS
 62
     3
100
AcDbDimension
  2
*D15
 10
1220.0
 20
3224.0
 30
0.0
 11
920.0
 21
3259.25
 31
0.0
 70
   160
  3
STANDARD
100
AcDbAlignedDimension
 13
620.0
 23
3469.0
 33
0.0
 14
1220.0
 24
3469.0
 34
0.0
100
AcDbRotatedDimension
1001
ACAD
1000
DSTYLE
1002
{
1070
     6
1000
_EX_NORM
1070
     7
1000
_EX_NORM
1070
    41
1040
45.0
1070
    42
1040
0.0
1070
    44
1040
0.0
1070
    73
1070
     0
1070
    74
1070
     0
1070
    75
1070
     0
1070
    76
1070
     0
1070
    77
1070
     1
1070
    78
1070
     0
1070
   140
1040
60.0
1070
   147
1040
5.25
1070
   173
1070
     1
1070
   176
1070
     3
1070
   177
1070
     3
1070
   178
1070
     2
1070
   271
1070
     0
1070
   279
1070
     2
1070
   280
1070
     0
1070
   287
1070
     5
1070
   340
1005
49B
1002
}
  0
DIMENSION
  5
4B3
100
AcDbEntity
  8
寸法
  6
CONTINUOUS
 62
     3
100
AcDbDimension
  2
*D16
 10
1415.0
 20
3919.0
 30
0.0
 11
1379.75
 21
3679.0
 31
0.0
 70
   160
  3
STANDARD
100
AcDbAlignedDimension
 13
920.0
 23
3439.0
 33
0.0
 14
1220.0
 24
3919.0
 34
0.0
 50
90.0
100
AcDbRotatedDimension
1001
ACAD
1000
DSTYLE
1002
{
1070
     6
1000
_EX_NORM
1070
     7
1000
_EX_NORM
1070
    41
1040
45.0
1070
    42
1040
10.5
1070
    44
1040
15.0
1070
    73
1070
     0
1070
    74
1070
     0
1070
    75
1070
     0
1070
    76
1070
     1
1070
    77
1070
     1
1070
    78
1070
     0
1070
   140
1040
60.0
1070
   147
1040
5.25
1070
   173
1070
     1
1070
   176
1070
     3
1070
   177
1070
     3
1070
   178
1070
     2
1070
   271
1070
     0
1070
   279
1070
     2
1070
   280
1070
     0
1070
   287
1070
     5
1070
   340
1005
49B
1002
}
  0
LINE
  5
4B4
100
AcDbEntity
  8
寸法
  6
CONTINUOUS
 62
     3
100
AcDbLine
 10
845.0
 20
856.5
 30
0.0
 11
845.0
 21
740.0
 31
0.0
  0
LINE
  5
4B5
100
AcDbEntity
  8
寸法
  6
CONTINUOUS
 62
     3
100
AcDbLine
 10
995.0
 20
856.5
 30
0.0
 11
995.0
 21
740.0
 31
0.0
  0
TEXT
  5
4B6
100
AcDbEntity
  8
寸法
  6
CONTINUOUS
 62
     2
100
AcDbText
 10
1040.0
 20
760.25
 30
0.0
 40
60.0
  1
１５０
 41
0.7
  7
EXCADSTD
 72
     5
 11
1190.0
 21
760.25
 31
0.0
100
AcDbText
  0
TEXT
  5
4B7
100
AcDbEntity
  8
寸法
  6
CONTINUOUS
 62
     2
100
AcDbText
 10
1182.5
 20
760.25
 30
0.0
 40
47.999996
  1
（壁･床給水）
 41
0.616327
  7
EXCADSTD
 72
     5
 11
1422.499986
 21
760.25
 31
0.0
100
AcDbText
  0
LINE
  5
4B8
100
AcDbEntity
  8
寸法
  6
CONTINUOUS
 62
     3
100
AcDbLine
 10
800.0
 20
755.0
 30
0.0
 11
1420.250006
 21
755.0
 31
0.0
  0
LINE
  5
4B9
100
AcDbEntity
  8
寸法
  6
CONTINUOUS
 62
     3
100
AcDbLine
 10
800.0
 20
747.5
 30
0.0
 11
845.0
 21
755.0
 31
0.0
  0
LINE
  5
4BA
100
AcDbEntity
  8
寸法
  6
CONTINUOUS
 62
     3
100
AcDbLine
 10
845.0
 20
755.0
 30
0.0
 11
800.0
 21
762.5
 31
0.0
  0
LINE
  5
4BB
100
AcDbEntity
  8
寸法
  6
CONTINUOUS
 62
     3
100
AcDbLine
 10
1040.0
 20
762.5
 30
0.0
 11
995.0
 21
755.0
 31
0.0
  0
LINE
  5
4BC
100
AcDbEntity
  8
寸法
  6
CONTINUOUS
 62
     3
100
AcDbLine
 10
995.0
 20
755.0
 30
0.0
 11
1040.0
 21
747.5
 31
0.0
  0
DIMENSION
  5
4C7
100
AcDbEntity
  8
寸法
  6
CONTINUOUS
 62
     3
100
AcDbDimension
  2
*D17
 10
1325.0
 20
1575.0
 30
0.0
 11
1289.75
 21
1225.0
 31
0.0
 70
   160
  3
STANDARD
100
AcDbAlignedDimension
 13
1218.0
 23
875.0
 33
0.0
 14
1220.0
 24
1575.0
 34
0.0
 50
90.0
100
AcDbRotatedDimension
1001
ACAD
1000
DSTYLE
1002
{
1070
     6
1000
_EX_NORM
1070
     7
1000
_EX_NORM
1070
    41
1040
45.0
1070
    42
1040
10.5
1070
    44
1040
15.0
1070
    73
1070
     0
1070
    74
1070
     0
1070
    75
1070
     1
1070
    76
1070
     0
1070
    77
1070
     1
1070
    78
1070
     0
1070
   140
1040
60.0
1070
   147
1040
5.25
1070
   173
1070
     1
1070
   176
1070
     3
1070
   177
1070
     3
1070
   178
1070
     2
1070
   271
1070
     0
1070
   279
1070
     2
1070
   280
1070
     0
1070
   287
1070
     5
1070
   340
1005
49B
1002
}
  0
DIMENSION
  5
4D2
100
AcDbEntity
  8
寸法
  6
CONTINUOUS
 62
     3
100
AcDbDimension
  2
*D18
 10
1325.0
 20
1745.0
 30
0.0
 11
1289.75
 21
1660.0
 31
0.0
 70
   160
  3
STANDARD
100
AcDbAlignedDimension
 13
1220.0
 23
1575.0
 33
0.0
 14
920.0
 24
1745.0
 34
0.0
 50
90.0
100
AcDbRotatedDimension
1001
ACAD
1000
DSTYLE
1002
{
1070
     6
1000
_EX_NORM
1070
     7
1000
_EX_NORM
1070
    41
1040
45.0
1070
    42
1040
10.5
1070
    44
1040
15.0
1070
    73
1070
     0
1070
    74
1070
     0
1070
    75
1070
     0
1070
    76
1070
     1
1070
    77
1070
     1
1070
    78
1070
     0
1070
   140
1040
60.0
1070
   147
1040
5.25
1070
   173
1070
     1
1070
   176
1070
     3
1070
   177
1070
     3
1070
   178
1070
     2
1070
   271
1070
     0
1070
   279
1070
     2
1070
   280
1070
     0
1070
   287
1070
     5
1070
   340
1005
49B
1002
}
  0
DIMENSION
  5
4DD
100
AcDbEntity
  8
寸法
  6
CONTINUOUS
 62
     3
100
AcDbDimension
  2
*D19
 10
1415.0
 20
1745.0
 30
0.0
 11
1379.75
 21
1310.0
 31
0.0
 70
   160
  3
STANDARD
100
AcDbAlignedDimension
 13
1218.0
 23
875.0
 33
0.0
 14
930.5
 24
1745.0
 34
0.0
 50
90.0
100
AcDbRotatedDimension
1001
ACAD
1000
DSTYLE
1002
{
1070
     6
1000
_EX_NORM
1070
     7
1000
_EX_NORM
1070
    41
1040
45.0
1070
    42
1040
10.5
1070
    44
1040
15.0
1070
    73
1070
     0
1070
    74
1070
     0
1070
    75
1070
     0
1070
    76
1070
     1
1070
    77
1070
     1
1070
    78
1070
     0
1070
   140
1040
60.0
1070
   147
1040
5.25
1070
   173
1070
     1
1070
   176
1070
     3
1070
   177
1070
     3
1070
   178
1070
     2
1070
   271
1070
     0
1070
   279
1070
     2
1070
   280
1070
     0
1070
   287
1070
     5
1070
   340
1005
49B
1002
}
  0
TEXT
  5
4DE
100
AcDbEntity
  8
寸法
  6
CONTINUOUS
 62
     2
100
AcDbText
 10
2670.0
 20
1524.75
 30
0.0
 40
60.0
  1
Ｒ１/２
 41
0.638
  7
EXCADSTD
 72
     5
 11
2843.999999
 21
1524.75
 31
0.0
100
AcDbText
  0
LEADER
  5
4DF
100
AcDbEntity
  8
寸法
  6
CONTINUOUS
 62
     3
100
AcDbLeader
  3
STANDARD
 73
     3
 74
     1
 75
     0
 40
0.0
 76
     3
 10
2458.0
 20
1325.5
 30
0.0
 10
2662.5
 20
1519.5
 30
0.0
 10
2827.5
 20
1519.5
 30
0.0
 77
     3
1001
ACAD
1000
DSTYLE
1002
{
1070
    41
1040
45.0
1070
     5
1000
_EX_NORM
1070
     6
1000
_EX_NORM
1070
     7
1000
_EX_NORM
1070
   341
1005
2A
1002
}
  0
TEXT
  5
4E0
100
AcDbEntity
  8
寸法
  6
CONTINUOUS
 62
     2
100
AcDbText
 10
2574.717185
 20
1642.993702
 30
0.0
 40
60.0
  1
ＶＰ･ＶＵ５０
 41
0.653306
  7
EXCADSTD
 72
     5
 11
2892.717184
 21
1642.993702
 31
0.0
100
AcDbText
  0
LEADER
  5
4E1
100
AcDbEntity
  8
寸法
  6
CONTINUOUS
 62
     3
100
AcDbLeader
  3
STANDARD
 73
     3
 74
     1
 75
     0
 40
0.0
 76
     3
 10
2473.5
 20
1375.5
 30
0.0
 10
2567.217185
 20
1637.743702
 30
0.0
 10
2871.717185
 20
1637.743702
 30
0.0
 77
     3
1001
ACAD
1000
DSTYLE
1002
{
1070
    41
1040
45.0
1070
     5
1000
_EX_NORM
1070
     6
1000
_EX_NORM
1070
     7
1000
_EX_NORM
1070
   341
1005
2A
1002
}
  0
DIMENSION
  5
4EC
100
AcDbEntity
  8
寸法
  6
CONTINUOUS
 62
     3
100
AcDbDimension
  2
*D20
 10
1325.0
 20
3919.0
 30
0.0
 11
1289.75
 21
3704.0
 31
0.0
 70
   160
  3
STANDARD
100
AcDbAlignedDimension
 13
1220.0
 23
3489.0
 33
0.0
 14
1220.0
 24
3919.0
 34
0.0
 50
90.0
100
AcDbRotatedDimension
1001
ACAD
1000
DSTYLE
1002
{
1070
     6
1000
_EX_NORM
1070
     7
1000
_EX_NORM
1070
    41
1040
45.0
1070
    42
1040
10.5
1070
    44
1040
15.0
1070
    73
1070
     0
1070
    74
1070
     0
1070
    75
1070
     0
1070
    76
1070
     1
1070
    77
1070
     1
1070
    78
1070
     0
1070
   140
1040
60.0
1070
   147
1040
5.25
1070
   173
1070
     1
1070
   176
1070
     3
1070
   177
1070
     3
1070
   178
1070
     2
1070
   271
1070
     0
1070
   279
1070
     2
1070
   280
1070
     0
1070
   287
1070
     5
1070
   340
1005
49B
1002
}
  0
DIMENSION
  5
4F7
100
AcDbEntity
  8
寸法
  6
CONTINUOUS
 62
     3
100
AcDbDimension
  2
*D21
 10
2555.0
 20
875.0
 30
0.0
 11
2519.75
 21
1095.0
 31
0.0
 70
   160
  1
440（壁給水）
  3
STANDARD
100
AcDbAlignedDimension
 13
2458.0
 23
1315.0
 33
0.0
 14
2555.0
 24
875.0
 34
0.0
 50
90.0
100
AcDbRotatedDimension
1001
ACAD
1000
DSTYLE
1002
{
1070
     6
1000
_EX_NORM
1070
     7
1000
_EX_NORM
1070
    41
1040
45.0
1070
    42
1040
7.5
1070
    44
1040
15.0
1070
    73
1070
     0
1070
    74
1070
     0
1070
    75
1070
     0
1070
    76
1070
     1
1070
    77
1070
     1
1070
    78
1070
     8
1070
   140
1040
60.0
1070
   147
1040
5.25
1070
   173
1070
     1
1070
   176
1070
     3
1070
   177
1070
     3
1070
   178
1070
     2
1070
   271
1070
     2
1070
   279
1070
     2
1070
   280
1070
     0
1070
   287
1070
     5
1070
   340
1005
49B
1002
}
  0
LINE
  5
4F8
100
AcDbEntity
  8
寸法
  6
CONTINUOUS
 62
     3
100
AcDbLine
 10
945.0
 20
1745.0
 30
0.0
 11
1340.0
 21
1745.0
 31
0.0
  0
LINE
  5
4F9
100
AcDbEntity
  8
寸法
  6
CONTINUOUS
 62
     3
100
AcDbLine
 10
945.0
 20
1745.0
 30
0.0
 11
1430.0
 21
1745.0
 31
0.0
  0
LINE
  5
4FA
100
AcDbEntity
  8
寸法
  6
CONTINUOUS
 62
     3
100
AcDbLine
 10
770.0
 20
2575.480762
 30
0.0
 11
770.0
 21
2700.0
 31
0.0
  0
LINE
  5
4FB
100
AcDbEntity
  8
寸法
  6
CONTINUOUS
 62
     3
100
AcDbLine
 10
1070.0
 20
2575.480762
 30
0.0
 11
1070.0
 21
2700.0
 31
0.0
  0
TEXT
  5
4FC
100
AcDbEntity
  8
寸法
  6
CONTINUOUS
 62
     2
100
AcDbText
 10
756.5
 20
2690.25
 30
0.0
 40
60.0
  1
３００
 41
0.7
  7
EXCADSTD
 72
     5
 11
906.5
 21
2690.25
 31
0.0
100
AcDbText
  0
TEXT
  5
4FD
100
AcDbEntity
  8
寸法
  6
CONTINUOUS
 62
     2
100
AcDbText
 10
899.0
 20
2690.25
 30
0.0
 40
47.999996
  1
（壁固定）
 41
0.672
  7
EXCADSTD
 72
     5
 11
1090.999989
 21
2690.25
 31
0.0
100
AcDbText
  0
LINE
  5
4FE
100
AcDbEntity
  8
寸法
  6
CONTINUOUS
 62
     3
100
AcDbLine
 10
725.0
 20
2685.0
 30
0.0
 11
1115.0
 21
2685.0
 31
0.0
  0
LINE
  5
4FF
100
AcDbEntity
  8
寸法
  6
CONTINUOUS
 62
     3
100
AcDbLine
 10
725.0
 20
2677.5
 30
0.0
 11
770.0
 21
2685.0
 31
0.0
  0
LINE
  5
500
100
AcDbEntity
  8
寸法
  6
CONTINUOUS
 62
     3
100
AcDbLine
 10
770.0
 20
2685.0
 30
0.0
 11
725.0
 21
2692.5
 31
0.0
  0
LINE
  5
501
100
AcDbEntity
  8
寸法
  6
CONTINUOUS
 62
     3
100
AcDbLine
 10
1115.0
 20
2692.5
 30
0.0
 11
1070.0
 21
2685.0
 31
0.0
  0
LINE
  5
502
100
AcDbEntity
  8
寸法
  6
CONTINUOUS
 62
     3
100
AcDbLine
 10
1070.0
 20
2685.0
 30
0.0
 11
1115.0
 21
2677.5
 31
0.0
  0
DIMENSION
  5
50E
100
AcDbEntity
  8
寸法
  6
CONTINUOUS
 62
     3
100
AcDbDimension
  2
*D22
 10
1220.0
 20
2772.0
 30
0.0
 11
920.0
 21
2807.25
 31
0.0
 70
   160
  3
STANDARD
100
AcDbAlignedDimension
 13
620.0
 23
2625.0
 33
0.0
 14
1220.0
 24
2625.0
 34
0.0
100
AcDbRotatedDimension
1001
ACAD
1000
DSTYLE
1002
{
1070
     6
1000
_EX_NORM
1070
     7
1000
_EX_NORM
1070
    41
1040
45.0
1070
    42
1040
10.5
1070
    44
1040
15.0
1070
    73
1070
     0
1070
    74
1070
     0
1070
    75
1070
     0
1070
    76
1070
     0
1070
    77
1070
     1
1070
    78
1070
     8
1070
   140
1040
60.0
1070
   147
1040
5.25
1070
   173
1070
     1
1070
   176
1070
     3
1070
   177
1070
     3
1070
   178
1070
     2
1070
   271
1070
     2
1070
   279
1070
     2
1070
   280
1070
     0
1070
   287
1070
     5
1070
   340
1005
49B
1002
}
  0
DIMENSION
  5
51A
100
AcDbEntity
  8
寸法
  6
CONTINUOUS
 62
     3
100
AcDbDimension
  2
*D23
 10
1333.5
 20
2105.0
 30
0.0
 11
1298.25
 21
2365.0
 31
0.0
 70
   160
  3
STANDARD
100
AcDbAlignedDimension
 13
1220.0
 23
2625.0
 33
0.0
 14
1220.0
 24
2105.0
 34
0.0
 50
90.0
100
AcDbRotatedDimension
1001
ACAD
1000
DSTYLE
1002
{
1070
     6
1000
_EX_NORM
1070
     7
1000
_EX_NORM
1070
    41
1040
45.0
1070
    42
1040
10.5
1070
    44
1040
15.0
1070
    73
1070
     0
1070
    74
1070
     0
1070
    75
1070
     0
1070
    76
1070
     0
1070
    77
1070
     1
1070
    78
1070
     8
1070
   140
1040
60.0
1070
   147
1040
5.25
1070
   173
1070
     1
1070
   176
1070
     3
1070
   177
1070
     3
1070
   178
1070
     2
1070
   271
1070
     2
1070
   279
1070
     2
1070
   280
1070
     0
1070
   287
1070
     5
1070
   340
1005
49B
1002
}
  0
DIMENSION
  5
525
100
AcDbEntity
  8
寸法
  6
CONTINUOUS
 62
     3
100
AcDbDimension
  2
*D24
 10
1515.0
 20
2625.0
 30
0.0
 11
1479.75
 21
1750.0
 31
0.0
 70
   160
  1
（1750）
  3
STANDARD
100
AcDbAlignedDimension
 13
1368.0
 23
875.0
 33
0.0
 14
1220.0
 24
2625.0
 34
0.0
 50
90.0
100
AcDbRotatedDimension
1001
ACAD
1000
DSTYLE
1002
{
1070
     6
1000
_EX_NORM
1070
     7
1000
_EX_NORM
1070
    41
1040
45.0
1070
    42
1040
10.5
1070
    44
1040
15.0
1070
    73
1070
     0
1070
    74
1070
     0
1070
    75
1070
     1
1070
    76
1070
     0
1070
    77
1070
     1
1070
    78
1070
     8
1070
   140
1040
60.0
1070
   147
1040
5.25
1070
   173
1070
     1
1070
   176
1070
     3
1070
   177
1070
     3
1070
   178
1070
     2
1070
   271
1070
     2
1070
   279
1070
     2
1070
   280
1070
     0
1070
   287
1070
     5
1070
   340
1005
49B
1002
}
  0
LINE
  5
526
100
AcDbEntity
  8
寸法
  6
CONTINUOUS
 62
     3
100
AcDbLine
 10
2493.0
 20
2125.0
 30
0.0
 11
2585.0
 21
2125.0
 31
0.0
  0
LINE
  5
527
100
AcDbEntity
  8
寸法
  6
CONTINUOUS
 62
     3
100
AcDbLine
 10
2493.0
 20
2564.980762
 30
0.0
 11
2585.0
 21
2564.980762
 31
0.0
  0
TEXT
  5
528
100
AcDbEntity
  8
寸法
  6
CONTINUOUS
 62
     2
100
AcDbText
 10
2564.75
 20
2181.490381
 30
0.0
 40
60.0
  1
４４０
 50
90.0
 41
0.7
  7
EXCADSTD
 72
     5
 11
2564.75
 21
2331.490381
 31
0.0
100
AcDbText
  0
TEXT
  5
529
100
AcDbEntity
  8
寸法
  6
CONTINUOUS
 62
     2
100
AcDbText
 10
2564.75
 20
2323.990381
 30
0.0
 40
47.999996
  1
（壁固定）
 50
90.0
 41
0.672
  7
EXCADSTD
 72
     5
 11
2564.75
 21
2515.99037
 31
0.0
100
AcDbText
  0
LINE
  5
52A
100
AcDbEntity
  8
寸法
  6
CONTINUOUS
 62
     3
100
AcDbLine
 10
2570.0
 20
2125.0
 30
0.0
 11
2570.0
 21
2564.980762
 31
0.0
  0
LINE
  5
52B
100
AcDbEntity
  8
寸法
  6
CONTINUOUS
 62
     3
100
AcDbLine
 10
2562.5
 20
2170.0
 30
0.0
 11
2570.0
 21
2125.0
 31
0.0
  0
LINE
  5
52C
100
AcDbEntity
  8
寸法
  6
CONTINUOUS
 62
     3
100
AcDbLine
 10
2570.0
 20
2125.0
 30
0.0
 11
2577.5
 21
2170.0
 31
0.0
  0
LINE
  5
52D
100
AcDbEntity
  8
寸法
  6
CONTINUOUS
 62
     3
100
AcDbLine
 10
2577.5
 20
2519.980762
 30
0.0
 11
2570.0
 21
2564.980762
 31
0.0
  0
LINE
  5
52E
100
AcDbEntity
  8
寸法
  6
CONTINUOUS
 62
     3
100
AcDbLine
 10
2570.0
 20
2564.980762
 30
0.0
 11
2562.5
 21
2519.980762
 31
0.0
  0
DIMENSION
  5
53A
100
AcDbEntity
  8
寸法
  6
CONTINUOUS
 62
     3
100
AcDbDimension
  2
*D25
 10
2570.0
 20
2564.980762
 30
0.0
 11
2534.75
 21
2722.5
 31
0.0
 70
   160
  1
60
  3
STANDARD
100
AcDbAlignedDimension
 13
2437.5
 23
2625.0
 33
0.0
 14
2482.5
 24
2564.980762
 34
0.0
 50
90.0
100
AcDbRotatedDimension
1001
ACAD
1000
DSTYLE
1002
{
1070
     6
1000
_EX_NORM
1070
     7
1000
_EX_NORM
1070
    41
1040
45.0
1070
    42
1040
10.5
1070
    44
1040
15.0
1070
    73
1070
     0
1070
    74
1070
     0
1070
    75
1070
     0
1070
    76
1070
     0
1070
    77
1070
     1
1070
    78
1070
     8
1070
   140
1040
60.0
1070
   147
1040
5.25
1070
   173
1070
     1
1070
   176
1070
     3
1070
   177
1070
     3
1070
   178
1070
     2
1070
   271
1070
     2
1070
   279
1070
     2
1070
   280
1070
     1
1070
   287
1070
     5
1070
   340
1005
49B
1002
}
  0
DIMENSION
  5
545
100
AcDbEntity
  8
寸法
  6
CONTINUOUS
 62
     3
100
AcDbDimension
  2
*D26
 10
2450.0
 20
2685.0
 30
0.0
 11
2315.3
 21
2720.25
 31
0.0
 70
   160
  1
38
  3
STANDARD
100
AcDbAlignedDimension
 13
2412.8
 23
2626.2
 33
0.0
 14
2450.0
 24
2624.0
 34
0.0
100
AcDbRotatedDimension
1001
ACAD
1000
DSTYLE
1002
{
1070
     6
1000
_EX_NORM
1070
     7
1000
_EX_NORM
1070
    41
1040
45.0
1070
    42
1040
10.5
1070
    44
1040
15.0
1070
    73
1070
     0
1070
    74
1070
     0
1070
    75
1070
     0
1070
    76
1070
     1
1070
    77
1070
     1
1070
    78
1070
     8
1070
   140
1040
60.0
1070
   147
1040
5.25
1070
   173
1070
     1
1070
   176
1070
     3
1070
   177
1070
     3
1070
   178
1070
     2
1070
   271
1070
     2
1070
   279
1070
     2
1070
   280
1070
     1
1070
   287
1070
     5
1070
   340
1005
49B
1002
}
  0
DIMENSION
  5
551
100
AcDbEntity
  8
寸法
  6
CONTINUOUS
 62
     3
100
AcDbDimension
  2
*D27
 10
2915.0
 20
2125.0
 30
0.0
 11
2879.75
 21
1500.0
 31
0.0
 70
   160
  1
（<>）
  3
STANDARD
100
AcDbAlignedDimension
 13
2450.0
 23
875.0
 33
0.0
 14
2482.5
 24
2125.0
 34
0.0
 50
90.0
100
AcDbRotatedDimension
1001
ACAD
1000
DSTYLE
1002
{
1070
     6
1000
_EX_NORM
1070
     7
1000
_EX_NORM
1070
    41
1040
45.0
1070
    42
1040
10.5
1070
    44
1040
15.0
1070
    73
1070
     0
1070
    74
1070
     0
1070
    75
1070
     0
1070
    76
1070
     0
1070
    77
1070
     1
1070
    78
1070
     0
1070
   140
1040
60.0
1070
   147
1040
5.25
1070
   173
1070
     1
1070
   176
1070
     3
1070
   177
1070
     3
1070
   178
1070
     2
1070
   271
1070
     0
1070
   279
1070
     2
1070
   280
1070
     0
1070
   287
1070
     5
1070
   340
1005
49B
1002
}
  0
ENDSEC
  0
SECTION
  2
OBJECTS
  0
DICTIONARY
  5
19
100
AcDbDictionary
  3
ACAD_GROUP
350
1A
  3
ACAD_MLINESTYLE
350
1B
  0
DICTIONARY
  5
1A
102
{ACAD_REACTORS
330
19
102
}
100
AcDbDictionary
  0
DICTIONARY
  5
1B
102
{ACAD_REACTORS
330
19
102
}
100
AcDbDictionary
  3
STANDARD
350
1C
  0
MLINESTYLE
  5
1C
102
{ACAD_REACTORS
330
1B
102
}
100
AcDbMlineStyle
  2
Standard
 70
     0
  3

 62
     0
 51
90.0
 52
90.0
 71
     2
 49
0.5
 62
   256
  6
ByLayer
 49
-0.5
 62
   256
  6
ByLayer
  0
ENDSEC
  0
EOF
