  0
SECTION
  2
HEADER
  9
$ACADVER
  1
AC1014
  9
$ACADMAINTVER
 70
     0
  9
$DWGCODEPAGE
  3
ANSI_932
  9
$INSBASE
 10
0.0
 20
0.0
 30
0.0
  9
$EXTMIN
 10
0.0
 20
13.5
 30
0.0
  9
$EXTMAX
 10
200.0
 20
288.5
 30
0.0
  9
$LIMMIN
 10
0.0
 20
0.0
  9
$LIMMAX
 10
210.0
 20
297.0
  9
$ORTHOMODE
 70
     0
  9
$REGENMODE
 70
     1
  9
$FILLMODE
 70
     1
  9
$QTEXTMODE
 70
     0
  9
$MIRRTEXT
 70
     1
  9
$DRAGMODE
 70
     2
  9
$LTSCALE
 40
1.0
  9
$OSMODE
 70
     0
  9
$ATTMODE
 70
     1
  9
$TEXTSIZE
 40
0.2
  9
$TRACEWID
 40
0.05
  9
$TEXTSTYLE
  7
STANDARD
  9
$CLAYER
  8
化粧台
  9
$CELTYPE
  6
CONTINUOUS
  9
$CECOLOR
 62
   256
  9
$CELTSCALE
 40
1.0
  9
$DELOBJ
 70
     1
  9
$DISPSILH
 70
     0
  9
$DIMSCALE
 40
1.0
  9
$DIMASZ
 40
0.18
  9
$DIMEXO
 40
0.0625
  9
$DIMDLI
 40
0.38
  9
$DIMRND
 40
0.0
  9
$DIMDLE
 40
0.0
  9
$DIMEXE
 40
0.18
  9
$DIMTP
 40
0.0
  9
$DIMTM
 40
0.0
  9
$DIMTXT
 40
0.18
  9
$DIMCEN
 40
0.09
  9
$DIMTSZ
 40
0.0
  9
$DIMTOL
 70
     0
  9
$DIMLIM
 70
     0
  9
$DIMTIH
 70
     1
  9
$DIMTOH
 70
     1
  9
$DIMSE1
 70
     0
  9
$DIMSE2
 70
     0
  9
$DIMTAD
 70
     0
  9
$DIMZIN
 70
     0
  9
$DIMBLK
  1

  9
$DIMASO
 70
     1
  9
$DIMSHO
 70
     1
  9
$DIMPOST
  1

  9
$DIMAPOST
  1

  9
$DIMALT
 70
     0
  9
$DIMALTD
 70
     2
  9
$DIMALTF
 40
25.4
  9
$DIMLFAC
 40
1.0
  9
$DIMTOFL
 70
     0
  9
$DIMTVP
 40
0.0
  9
$DIMTIX
 70
     0
  9
$DIMSOXD
 70
     0
  9
$DIMSAH
 70
     0
  9
$DIMBLK1
  1

  9
$DIMBLK2
  1

  9
$DIMSTYLE
  2
STANDARD
  9
$DIMCLRD
 70
     0
  9
$DIMCLRE
 70
     0
  9
$DIMCLRT
 70
     0
  9
$DIMTFAC
 40
1.0
  9
$DIMGAP
 40
0.09
  9
$DIMJUST
 70
     0
  9
$DIMSD1
 70
     0
  9
$DIMSD2
 70
     0
  9
$DIMTOLJ
 70
     1
  9
$DIMTZIN
 70
     0
  9
$DIMALTZ
 70
     0
  9
$DIMALTTZ
 70
     0
  9
$DIMFIT
 70
     3
  9
$DIMUPT
 70
     0
  9
$DIMUNIT
 70
     2
  9
$DIMDEC
 70
     4
  9
$DIMTDEC
 70
     4
  9
$DIMALTU
 70
     2
  9
$DIMALTTD
 70
     2
  9
$DIMTXSTY
  7
STANDARD
  9
$DIMAUNIT
 70
     0
  9
$LUNITS
 70
     2
  9
$LUPREC
 70
     4
  9
$SKETCHINC
 40
0.1
  9
$FILLETRAD
 40
0.0
  9
$AUNITS
 70
     0
  9
$AUPREC
 70
     0
  9
$MENU
  1
acad
  9
$ELEVATION
 40
0.0
  9
$PELEVATION
 40
0.0
  9
$THICKNESS
 40
0.0
  9
$LIMCHECK
 70
     0
  9
$BLIPMODE
 70
     1
  9
$CHAMFERA
 40
0.0
  9
$CHAMFERB
 40
0.0
  9
$CHAMFERC
 40
0.0
  9
$CHAMFERD
 40
0.0
  9
$SKPOLY
 70
     0
  9
$TDCREATE
 40
2455308.975487847
  9
$TDUPDATE
 40
2455308.975487847
  9
$TDINDWG
 40
0.0000000000
  9
$TDUSRTIMER
 40
0.0000000000
  9
$USRTIMER
 70
     1
  9
$ANGBASE
 50
0.0
  9
$ANGDIR
 70
     0
  9
$PDMODE
 70
     0
  9
$PDSIZE
 40
0.0
  9
$PLINEWID
 40
0.0
  9
$COORDS
 70
     1
  9
$SPLFRAME
 70
     0
  9
$SPLINETYPE
 70
     6
  9
$SPLINESEGS
 70
     8
  9
$ATTDIA
 70
     0
  9
$ATTREQ
 70
     1
  9
$HANDLING
 70
     1
  9
$HANDSEED
  5
8F1
  9
$SURFTAB1
 70
     6
  9
$SURFTAB2
 70
     6
  9
$SURFTYPE
 70
     6
  9
$SURFU
 70
     6
  9
$SURFV
 70
     6
  9
$UCSNAME
  2

  9
$UCSORG
 10
0.0
 20
0.0
 30
0.0
  9
$UCSXDIR
 10
1.0
 20
0.0
 30
0.0
  9
$UCSYDIR
 10
0.0
 20
1.0
 30
0.0
  9
$PUCSNAME
  2

  9
$PUCSORG
 10
0.0
 20
0.0
 30
0.0
  9
$PUCSXDIR
 10
1.0
 20
0.0
 30
0.0
  9
$PUCSYDIR
 10
0.0
 20
1.0
 30
0.0
  9
$USERI1
 70
     0
  9
$USERI2
 70
     0
  9
$USERI3
 70
     0
  9
$USERI4
 70
     0
  9
$USERI5
 70
     0
  9
$USERR1
 40
0.0
  9
$USERR2
 40
0.0
  9
$USERR3
 40
0.0
  9
$USERR4
 40
0.0
  9
$USERR5
 40
0.0
  9
$WORLDVIEW
 70
     1
  9
$SHADEDGE
 70
     3
  9
$SHADEDIF
 70
    70
  9
$TILEMODE
 70
     1
  9
$MAXACTVP
 70
    16
  9
$PINSBASE
 10
0.0
 20
0.0
 30
0.0
  9
$PLIMCHECK
 70
     0
  9
$PEXTMIN
 10
1.000000E+20
 20
1.000000E+20
 30
1.000000E+20
  9
$PEXTMAX
 10
-1.000000E+20
 20
-1.000000E+20
 30
-1.000000E+20
  9
$PLIMMIN
 10
0.0
 20
0.0
  9
$PLIMMAX
 10
12.0
 20
9.0
  9
$UNITMODE
 70
     0
  9
$VISRETAIN
 70
     0
  9
$PLINEGEN
 70
     1
  9
$PSLTSCALE
 70
     0
  9
$TREEDEPTH
 70
  3020
  9
$PICKSTYLE
 70
     1
  9
$CMLSTYLE
  2
Standard
  9
$CMLJUST
 70
     0
  9
$CMLSCALE
 40
1.0
  9
$PROXYGRAPHICS
 70
     0
  9
$MEASUREMENT
 70
     0
  0
ENDSEC
  0
SECTION
  2
CLASSES
  0
CLASS
  1
LWPOLYLINE
  2
AcDbPolyline
  3
"AutoCAD"
 90
        0
280
     0
281
     1
  0
CLASS
  1
IMAGE
  2
AcDbRasterImage
  3
ISM
 90
      127
280
     0
281
     1
  0
CLASS
  1
OLE2FRAME
  2
AcDbOle2Frame
  3
""
 90
        0
280
     0
281
     1
  0
CLASS
  1
HATCH
  2
AcDbHatch
  3
"ACAD_SEDONA"
 90
        0
280
     0
281
     1
  0
CLASS
  1
DICTIONARYVAR
  2
AcDbDictionaryVar
  3
"AutoCAD"
 90
        0
280
     0
281
     0
  0
CLASS
  1
RASTERVARIABLES
  2
AcDbRasterVariables
  3
ISM
 90
        0
280
     0
281
     0
  0
CLASS
  1
IMAGEDEF
  2
AcDbRasterImageDef
  3
ISM
 90
        0
280
     0
281
     0
  0
CLASS
  1
IMAGEDEF_REACTOR
  2
AcDbRasterImageDefReactor
  3
ISM
 90
        1
280
     0
281
     0
  0
CLASS
  1
IDBUFFER
  2
AcDbIdBuffer
  3
"Acad"
 90
        0
280
     0
281
     0
  0
CLASS
  1
SPATIAL_FILTER
  2
AcDbSpatialFilter
  3
"Acad"
 90
        0
280
     0
281
     0
  0
CLASS
  1
XRECORD
  2
AcDbXrecord
  3
"<Built In>"
 90
        0
280
     0
281
     0
  0
CLASS
  1
SORTENTSTABLE
  2
AcDbSortentsTable
  3
"AutoCAD"
 90
        0
280
     0
281
     0
  0
CLASS
  1
LAYER_INDEX
  2
AcDbLayerIndex
  3
"Acad"
 90
        0
280
     0
281
     0
  0
CLASS
  1
SPATIAL_INDEX
  2
AcDbSpatialIndex
  3
"Acad"
 90
        0
280
     0
281
     0
  0
CLASS
  1
OBJECT_PTR
  2
CAseDLPNTableRecord
  3
"ASE-LPNTableRecord"
 90
        1
280
     0
281
     0
  0
CLASS
  1
LAYOUT
  2
AcDbLayout
  3
"AutoCAD 2000"
 90
        1
280
     0
281
     0
  0
CLASS
  1
PLOTSETTINGS
  2
AcDbPlotSettings
  3
"AutoCAD 2000"
 90
        1
280
     0
281
     0
  0
CLASS
  1
ACDBDICTIONARYWDFLT
  2
AcDbDictionaryWithDefault
  3
"AutoCAD 2000"
 90
        1
280
     0
281
     0
  0
CLASS
  1
ACDBPLACEHOLDER
  2
AcDbPlaceHolder
  3
"AutoCAD 2000"
 90
        1
280
     0
281
     0
  0
CLASS
  1
VBA_PROJECT
  2
AcDbVbaProject
  3
"acadvba"
 90
        1
280
     0
281
     0
  0
CLASS
  1
WIPEOUT
  2
AcDbWipeout
  3
WipeOut|AutoCAD Express Tool|expresstools@autodesk.com
 90
      127
280
     0
281
     1
  0
CLASS
  1
WIPEOUTVARIABLES
  2
AcDbWipeoutVariables
  3
WipeOut|AutoCAD Express Tool|expresstools@autodesk.com
 90
        0
280
     0
281
     0
  0
CLASS
  1
RTEXT
  2
RText
  3
RText|AutoCAD Express Tool|expresstools@autodesk.com
 90
        0
280
     0
281
     1
  0
CLASS
  1
ARCALIGNEDTEXT
  2
AcDbArcAlignedText
  3
ATEXT|AutoCAD Express Tool|expresstools@autodesk.com
 90
        0
280
     0
281
     1
  0
ENDSEC
  0
SECTION
  2
TABLES
  0
TABLE
  2
VPORT
  5
7
100
AcDbSymbolTable
 70
     1
  0
VPORT
  5
15
100
AcDbSymbolTableRecord
100
AcDbViewportTableRecord
  2
*ACTIVE
 70
     0
 10
0.0
 20
0.0
 11
1.0
 21
1.0
 12
1500.0
 22
2265.0
 13
0.0
 23
0.0
 14
1.0
 24
1.0
 15
0.0
 25
0.0
 16
0.0
 26
0.0
 36
1.0
 17
0.0
 27
0.0
 37
0.0
 40
4125.0
 41
1.722533
 42
50.0
 43
0.0
 44
0.0
 50
0.0
 51
0.0
 71
     0
 72
   100
 73
     1
 74
     1
 75
     0
 76
     0
 77
     0
 78
     0
  0
ENDTAB
  0
TABLE
  2
LTYPE
  5
4
100
AcDbSymbolTable
 70
    10
  0
LTYPE
  5
11
100
AcDbSymbolTableRecord
100
AcDbLinetypeTableRecord
  2
BYBLOCK
 70
    64
  3

 72
    65
 73
     0
 40
0.0
  0
LTYPE
  5
12
100
AcDbSymbolTableRecord
100
AcDbLinetypeTableRecord
  2
BYLAYER
 70
    64
  3

 72
    65
 73
     0
 40
0.0
  0
LTYPE
  5
13
100
AcDbSymbolTableRecord
100
AcDbLinetypeTableRecord
  2
CONTINUOUS
 70
    64
  3
実線
 72
    65
 73
     0
 40
0.0
  0
LTYPE
  5
1D
100
AcDbSymbolTableRecord
100
AcDbLinetypeTableRecord
  2
EXLTYPE1
 70
    64
  3
破線
 72
    65
 73
     2
 40
3.0
 49
2.0
 74
     0
 49
-1.0
 74
     0
  0
LTYPE
  5
1E
100
AcDbSymbolTableRecord
100
AcDbLinetypeTableRecord
  2
EXLTYPE2
 70
    64
  3
点線
 72
    65
 73
     2
 40
2.0
 49
1.0
 74
     0
 49
-1.0
 74
     0
  0
LTYPE
  5
1F
100
AcDbSymbolTableRecord
100
AcDbLinetypeTableRecord
  2
EXLTYPE3
 70
    64
  3
一点鎖線
 72
    65
 73
     4
 40
10.0
 49
7.0
 74
     0
 49
-1.0
 74
     0
 49
1.0
 74
     0
 49
-1.0
 74
     0
  0
LTYPE
  5
20
100
AcDbSymbolTableRecord
100
AcDbLinetypeTableRecord
  2
EXLTYPE4
 70
    64
  3
二点鎖線
 72
    65
 73
     6
 40
12.0
 49
7.0
 74
     0
 49
-1.0
 74
     0
 49
1.0
 74
     0
 49
-1.0
 74
     0
 49
1.0
 74
     0
 49
-1.0
 74
     0
  0
LTYPE
  5
21
100
AcDbSymbolTableRecord
100
AcDbLinetypeTableRecord
  2
EXLTYPE5
 70
    64
  3
三点鎖線
 72
    65
 73
     8
 40
37.0
 49
30.0
 74
     0
 49
-1.0
 74
     0
 49
1.0
 74
     0
 49
-1.0
 74
     0
 49
1.0
 74
     0
 49
-1.0
 74
     0
 49
1.0
 74
     0
 49
-1.0
 74
     0
  0
LTYPE
  5
22
100
AcDbSymbolTableRecord
100
AcDbLinetypeTableRecord
  2
EXLTYPE6
 70
    64
  3
四点鎖線
 72
    65
 73
    10
 40
39.0
 49
30.0
 74
     0
 49
-1.0
 74
     0
 49
1.0
 74
     0
 49
-1.0
 74
     0
 49
1.0
 74
     0
 49
-1.0
 74
     0
 49
1.0
 74
     0
 49
-1.0
 74
     0
 49
1.0
 74
     0
 49
-1.0
 74
     0
  0
LTYPE
  5
23
100
AcDbSymbolTableRecord
100
AcDbLinetypeTableRecord
  2
EXLTYPE7
 70
    64
  3
一点鎖線2
 72
    65
 73
     4
 40
10.0
 49
6.25
 74
     0
 49
-1.25
 74
     0
 49
1.25
 74
     0
 49
-1.25
 74
     0
  0
ENDTAB
  0
TABLE
  2
LAYER
  5
2
100
AcDbSymbolTable
 70
     6
  0
LAYER
  5
14
100
AcDbSymbolTableRecord
100
AcDbLayerTableRecord
  2
0
 70
     0
 62
     7
  6
CONTINUOUS
  0
LAYER
  5
26
100
AcDbSymbolTableRecord
100
AcDbLayerTableRecord
  2
枠・表
 70
    64
 62
     7
  6
CONTINUOUS
  0
LAYER
  5
27
100
AcDbSymbolTableRecord
100
AcDbLayerTableRecord
  2
化粧台
 70
    64
 62
     7
  6
CONTINUOUS
  0
LAYER
  5
28
100
AcDbSymbolTableRecord
100
AcDbLayerTableRecord
  2
鏡台
 70
    64
 62
     7
  6
CONTINUOUS
  0
LAYER
  5
29
100
AcDbSymbolTableRecord
100
AcDbLayerTableRecord
  2
付属金具
 70
    64
 62
     7
  6
CONTINUOUS
  0
LAYER
  5
2A
100
AcDbSymbolTableRecord
100
AcDbLayerTableRecord
  2
寸法
 70
    64
 62
     7
  6
CONTINUOUS
  0
ENDTAB
  0
TABLE
  2
STYLE
  5
3
100
AcDbSymbolTable
 70
     5
  0
STYLE
  5
17
100
AcDbSymbolTableRecord
100
AcDbTextStyleTableRecord
  2
STANDARD
 70
     0
 40
0.0
 41
1.0
 50
0.0
 71
     0
 42
0.0
  3
monotxt
  4
extfont
  0
STYLE
  5
24
100
AcDbSymbolTableRecord
100
AcDbTextStyleTableRecord
  2
EXCADSTD
 70
    64
 40
0.0
 41
1.0
 50
0.0
 71
     0
 42
0.2
  3
monotxt
  4
extfont
  0
STYLE
  5
25
100
AcDbSymbolTableRecord
100
AcDbTextStyleTableRecord
  2
EXCADVERT
 70
    68
 40
0.0
 41
1.0
 50
0.0
 71
     0
 42
0.286885
  3
monotxt
  4
extfont
  0
STYLE
  5
DD
100
AcDbSymbolTableRecord
100
AcDbTextStyleTableRecord
  2
EXCADTTF1
 70
    64
 40
0.0
 41
1.0
 50
0.0
 71
     0
 42
0.2
  3
MS Gothic.ttf
  4

1001
ACAD
1000
MS Gothic
1071
    32817
  0
STYLE
  5
6A6
100
AcDbSymbolTableRecord
100
AcDbTextStyleTableRecord
  2
EXCADDIM1
 70
    64
 40
0.0
 41
0.84
 50
0.0
 71
     0
 42
0.2
  3
monotxt
  4
extfont
  0
ENDTAB
  0
TABLE
  2
VIEW
  5
5
100
AcDbSymbolTable
 70
     0
  0
ENDTAB
  0
TABLE
  2
UCS
  5
6
100
AcDbSymbolTable
 70
     0
  0
ENDTAB
  0
TABLE
  2
APPID
  5
8
100
AcDbSymbolTable
 70
     1
  0
APPID
  5
16
100
AcDbSymbolTableRecord
100
AcDbRegAppTableRecord
  2
ACAD
 70
     0
  0
ENDTAB
  0
TABLE
  2
DIMSTYLE
  5
9
100
AcDbSymbolTable
 70
     1
  0
DIMSTYLE
105
18
100
AcDbSymbolTableRecord
100
AcDbDimStyleTableRecord
  2
STANDARD
 70
     0
  3

  4

  5

  6

  7

 40
1.0
 41
0.18
 42
0.0625
 43
0.38
 44
0.18
 45
0.0
 46
0.0
 47
0.0
 48
0.0
 71
     0
 72
     0
 73
     1
 74
     1
 75
     0
 76
     0
 77
     0
 78
     0
140
0.18
141
0.09
142
0.0
143
25.4
144
1.0
145
0.0
146
1.0
147
0.09
170
     0
171
     2
172
     1
173
     0
174
     0
175
     0
176
     0
177
     0
178
     0
270
     2
271
     4
272
     4
273
     2
274
     2
275
     0
280
     0
281
     0
282
     0
283
     1
284
     0
285
     0
286
     0
287
     0
288
     0
340
17
  0
ENDTAB
  0
TABLE
  2
BLOCK_RECORD
  5
1
100
AcDbSymbolTable
 70
    35
  0
BLOCK_RECORD
  5
A
100
AcDbSymbolTableRecord
100
AcDbBlockTableRecord
  2
*MODEL_SPACE
  0
BLOCK_RECORD
  5
B
100
AcDbSymbolTableRecord
100
AcDbBlockTableRecord
  2
*PAPER_SPACE
  0
BLOCK_RECORD
  5
2B
100
AcDbSymbolTableRecord
100
AcDbBlockTableRecord
  2
_EX_NORM
  0
BLOCK_RECORD
  5
2C
100
AcDbSymbolTableRecord
100
AcDbBlockTableRecord
  2
_EX_BNORM
  0
BLOCK_RECORD
  5
2D
100
AcDbSymbolTableRecord
100
AcDbBlockTableRecord
  2
_EX_BCIR
  0
BLOCK_RECORD
  5
2E
100
AcDbSymbolTableRecord
100
AcDbBlockTableRecord
  2
_EX_RCIVIL
  0
BLOCK_RECORD
  5
2F
100
AcDbSymbolTableRecord
100
AcDbBlockTableRecord
  2
_EX_SLANT
  0
BLOCK_RECORD
  5
30
100
AcDbSymbolTableRecord
100
AcDbBlockTableRecord
  2
_EX_NONE
  0
BLOCK_RECORD
  5
31
100
AcDbSymbolTableRecord
100
AcDbBlockTableRecord
  2
_EX_CIVIL
  0
BLOCK_RECORD
  5
32
100
AcDbSymbolTableRecord
100
AcDbBlockTableRecord
  2
_EX_WCIR
  0
BLOCK_RECORD
  5
33
100
AcDbSymbolTableRecord
100
AcDbBlockTableRecord
  2
_EX_WCIR2
  0
BLOCK_RECORD
  5
34
100
AcDbSymbolTableRecord
100
AcDbBlockTableRecord
  2
_EX_WNORM
  0
BLOCK_RECORD
  5
35
100
AcDbSymbolTableRecord
100
AcDbBlockTableRecord
  2
_EX_NNORM
  0
BLOCK_RECORD
  5
36
100
AcDbSymbolTableRecord
100
AcDbBlockTableRecord
  2
_EX_BBOX
  0
BLOCK_RECORD
  5
37
100
AcDbSymbolTableRecord
100
AcDbBlockTableRecord
  2
_EX_WBOX
  0
BLOCK_RECORD
  5
38
100
AcDbSymbolTableRecord
100
AcDbBlockTableRecord
  2
_EX_INTEGRAL
  0
BLOCK_RECORD
  5
69B
100
AcDbSymbolTableRecord
100
AcDbBlockTableRecord
  2
*D14
  0
BLOCK_RECORD
  5
6A8
100
AcDbSymbolTableRecord
100
AcDbBlockTableRecord
  2
*D15
  0
BLOCK_RECORD
  5
6B4
100
AcDbSymbolTableRecord
100
AcDbBlockTableRecord
  2
*D16
  0
BLOCK_RECORD
  5
75D
100
AcDbSymbolTableRecord
100
AcDbBlockTableRecord
  2
*D17
  0
BLOCK_RECORD
  5
7A7
100
AcDbSymbolTableRecord
100
AcDbBlockTableRecord
  2
*D18
  0
BLOCK_RECORD
  5
832
100
AcDbSymbolTableRecord
100
AcDbBlockTableRecord
  2
*D19
  0
BLOCK_RECORD
  5
83E
100
AcDbSymbolTableRecord
100
AcDbBlockTableRecord
  2
*D20
  0
BLOCK_RECORD
  5
849
100
AcDbSymbolTableRecord
100
AcDbBlockTableRecord
  2
*D21
  0
BLOCK_RECORD
  5
856
100
AcDbSymbolTableRecord
100
AcDbBlockTableRecord
  2
*D22
  0
BLOCK_RECORD
  5
866
100
AcDbSymbolTableRecord
100
AcDbBlockTableRecord
  2
*D23
  0
BLOCK_RECORD
  5
871
100
AcDbSymbolTableRecord
100
AcDbBlockTableRecord
  2
*D24
  0
BLOCK_RECORD
  5
87D
100
AcDbSymbolTableRecord
100
AcDbBlockTableRecord
  2
*D25
  0
BLOCK_RECORD
  5
888
100
AcDbSymbolTableRecord
100
AcDbBlockTableRecord
  2
*D26
  0
BLOCK_RECORD
  5
894
100
AcDbSymbolTableRecord
100
AcDbBlockTableRecord
  2
*D27
  0
BLOCK_RECORD
  5
8A0
100
AcDbSymbolTableRecord
100
AcDbBlockTableRecord
  2
*D28
  0
BLOCK_RECORD
  5
8AB
100
AcDbSymbolTableRecord
100
AcDbBlockTableRecord
  2
*D29
  0
BLOCK_RECORD
  5
8B7
100
AcDbSymbolTableRecord
100
AcDbBlockTableRecord
  2
*D30
  0
BLOCK_RECORD
  5
8C2
100
AcDbSymbolTableRecord
100
AcDbBlockTableRecord
  2
*D31
  0
BLOCK_RECORD
  5
8CE
100
AcDbSymbolTableRecord
100
AcDbBlockTableRecord
  2
*D32
  0
BLOCK_RECORD
  5
8DA
100
AcDbSymbolTableRecord
100
AcDbBlockTableRecord
  2
*D33
  0
BLOCK_RECORD
  5
8E6
100
AcDbSymbolTableRecord
100
AcDbBlockTableRecord
  2
*D34
  0
ENDTAB
  0
ENDSEC
  0
SECTION
  2
BLOCKS
  0
BLOCK
  5
D
100
AcDbEntity
  8
0
100
AcDbBlockBegin
  2
*MODEL_SPACE
 70
     0
 10
0.0
 20
0.0
 30
0.0
  3
*MODEL_SPACE
  1

  0
ENDBLK
  5
E
100
AcDbEntity
  8
0
100
AcDbBlockEnd
  0
BLOCK
  5
F
100
AcDbEntity
 67
     1
  8
0
100
AcDbBlockBegin
  2
*PAPER_SPACE
 70
     0
 10
0.0
 20
0.0
 30
0.0
  3
*PAPER_SPACE
  1

  0
ENDBLK
  5
10
100
AcDbEntity
 67
     1
  8
0
100
AcDbBlockEnd
  0
BLOCK
  5
39
100
AcDbEntity
  8
0
100
AcDbBlockBegin
  2
_EX_NORM
 70
     0
 10
0.0
 20
0.0
 30
0.0
  3
_EX_NORM
  1

  0
LINE
  5
3A
100
AcDbEntity
  8
0
  6
CONTINUOUS
 62
     0
100
AcDbLine
 10
0.0
 20
0.0
 30
0.0
 11
-1.0
 21
0.0
 31
0.0
  0
LINE
  5
3B
100
AcDbEntity
  8
0
  6
CONTINUOUS
 62
     0
100
AcDbLine
 10
0.0
 20
0.0
 30
0.0
 11
-1.0
 21
0.166667
 31
0.0
  0
LINE
  5
3C
100
AcDbEntity
  8
0
  6
CONTINUOUS
 62
     0
100
AcDbLine
 10
0.0
 20
0.0
 30
0.0
 11
-1.0
 21
-0.166667
 31
0.0
  0
ENDBLK
  5
3D
100
AcDbEntity
  8
0
100
AcDbBlockEnd
  0
BLOCK
  5
3E
100
AcDbEntity
  8
0
100
AcDbBlockBegin
  2
_EX_BNORM
 70
     0
 10
0.0
 20
0.0
 30
0.0
  3
_EX_BNORM
  1

  0
LINE
  5
3F
100
AcDbEntity
  8
0
  6
CONTINUOUS
 62
     0
100
AcDbLine
 10
0.0
 20
0.0
 30
0.0
 11
-1.0
 21
0.0
 31
0.0
  0
LINE
  5
40
100
AcDbEntity
  8
0
  6
CONTINUOUS
 62
     0
100
AcDbLine
 10
0.0
 20
0.0
 30
0.0
 11
-1.0
 21
0.166667
 31
0.0
  0
LINE
  5
41
100
AcDbEntity
  8
0
  6
CONTINUOUS
 62
     0
100
AcDbLine
 10
0.0
 20
0.0
 30
0.0
 11
-1.0
 21
-0.166667
 31
0.0
  0
LINE
  5
42
100
AcDbEntity
  8
0
  6
CONTINUOUS
 62
     0
100
AcDbLine
 10
0.0
 20
0.0
 30
0.0
 11
-1.0
 21
0.083333
 31
0.0
  0
LINE
  5
43
100
AcDbEntity
  8
0
  6
CONTINUOUS
 62
     0
100
AcDbLine
 10
0.0
 20
0.0
 30
0.0
 11
-1.0
 21
-0.083333
 31
0.0
  0
LINE
  5
44
100
AcDbEntity
  8
0
  6
CONTINUOUS
 62
     0
100
AcDbLine
 10
-1.0
 20
0.166667
 30
0.0
 11
-1.0
 21
-0.166667
 31
0.0
  0
ENDBLK
  5
45
100
AcDbEntity
  8
0
100
AcDbBlockEnd
  0
BLOCK
  5
46
100
AcDbEntity
  8
0
100
AcDbBlockBegin
  2
_EX_BCIR
 70
     0
 10
0.0
 20
0.0
 30
0.0
  3
_EX_BCIR
  1

  0
LINE
  5
47
100
AcDbEntity
  8
0
  6
CONTINUOUS
 62
     0
100
AcDbLine
 10
0.0
 20
0.0
 30
0.0
 11
-1.0
 21
0.0
 31
0.0
  0
CIRCLE
  5
48
100
AcDbEntity
  8
0
  6
CONTINUOUS
 62
     0
100
AcDbCircle
 10
0.0
 20
0.0
 30
0.0
 40
0.5
  0
CIRCLE
  5
49
100
AcDbEntity
  8
0
  6
CONTINUOUS
 62
     0
100
AcDbCircle
 10
0.0
 20
0.0
 30
0.0
 40
0.25
  0
ENDBLK
  5
4A
100
AcDbEntity
  8
0
100
AcDbBlockEnd
  0
BLOCK
  5
4B
100
AcDbEntity
  8
0
100
AcDbBlockBegin
  2
_EX_RCIVIL
 70
     0
 10
0.0
 20
0.0
 30
0.0
  3
_EX_RCIVIL
  1

  0
LINE
  5
4C
100
AcDbEntity
  8
0
  6
CONTINUOUS
 62
     0
100
AcDbLine
 10
0.0
 20
0.0
 30
0.0
 11
-1.0
 21
0.0
 31
0.0
  0
LINE
  5
4D
100
AcDbEntity
  8
0
  6
CONTINUOUS
 62
     0
100
AcDbLine
 10
-1.0
 20
-0.25
 30
0.0
 11
0.0
 21
-0.25
 31
0.0
  0
LINE
  5
4E
100
AcDbEntity
  8
0
  6
CONTINUOUS
 62
     0
100
AcDbLine
 10
-1.0
 20
-0.125
 30
0.0
 11
0.0
 21
-0.125
 31
0.0
  0
ENDBLK
  5
4F
100
AcDbEntity
  8
0
100
AcDbBlockEnd
  0
BLOCK
  5
50
100
AcDbEntity
  8
0
100
AcDbBlockBegin
  2
_EX_SLANT
 70
     0
 10
0.0
 20
0.0
 30
0.0
  3
_EX_SLANT
  1

  0
LINE
  5
51
100
AcDbEntity
  8
0
  6
CONTINUOUS
 62
     0
100
AcDbLine
 10
0.0
 20
0.0
 30
0.0
 11
-1.0
 21
0.0
 31
0.0
  0
LINE
  5
52
100
AcDbEntity
  8
0
  6
CONTINUOUS
 62
     0
100
AcDbLine
 10
0.707107
 20
0.707107
 30
0.0
 11
-0.707107
 21
-0.707107
 31
0.0
  0
ENDBLK
  5
53
100
AcDbEntity
  8
0
100
AcDbBlockEnd
  0
BLOCK
  5
54
100
AcDbEntity
  8
0
100
AcDbBlockBegin
  2
_EX_NONE
 70
     0
 10
0.0
 20
0.0
 30
0.0
  3
_EX_NONE
  1

  0
LINE
  5
55
100
AcDbEntity
  8
0
  6
CONTINUOUS
 62
     0
100
AcDbLine
 10
0.0
 20
0.0
 30
0.0
 11
-1.0
 21
0.0
 31
0.0
  0
ENDBLK
  5
56
100
AcDbEntity
  8
0
100
AcDbBlockEnd
  0
BLOCK
  5
57
100
AcDbEntity
  8
0
100
AcDbBlockBegin
  2
_EX_CIVIL
 70
     0
 10
0.0
 20
0.0
 30
0.0
  3
_EX_CIVIL
  1

  0
LINE
  5
58
100
AcDbEntity
  8
0
  6
CONTINUOUS
 62
     0
100
AcDbLine
 10
0.0
 20
0.0
 30
0.0
 11
-1.0
 21
0.0
 31
0.0
  0
LINE
  5
59
100
AcDbEntity
  8
0
  6
CONTINUOUS
 62
     0
100
AcDbLine
 10
-1.0
 20
0.25
 30
0.0
 11
0.0
 21
0.25
 31
0.0
  0
LINE
  5
5A
100
AcDbEntity
  8
0
  6
CONTINUOUS
 62
     0
100
AcDbLine
 10
-1.0
 20
0.125
 30
0.0
 11
0.0
 21
0.125
 31
0.0
  0
ENDBLK
  5
5B
100
AcDbEntity
  8
0
100
AcDbBlockEnd
  0
BLOCK
  5
5C
100
AcDbEntity
  8
0
100
AcDbBlockBegin
  2
_EX_WCIR
 70
     0
 10
0.0
 20
0.0
 30
0.0
  3
_EX_WCIR
  1

  0
LINE
  5
5D
100
AcDbEntity
  8
0
  6
CONTINUOUS
 62
     0
100
AcDbLine
 10
0.0
 20
0.0
 30
0.0
 11
-1.0
 21
0.0
 31
0.0
  0
CIRCLE
  5
5E
100
AcDbEntity
  8
0
  6
CONTINUOUS
 62
     0
100
AcDbCircle
 10
0.0
 20
0.0
 30
0.0
 40
0.5
  0
ENDBLK
  5
5F
100
AcDbEntity
  8
0
100
AcDbBlockEnd
  0
BLOCK
  5
60
100
AcDbEntity
  8
0
100
AcDbBlockBegin
  2
_EX_WCIR2
 70
     0
 10
0.0
 20
0.0
 30
0.0
  3
_EX_WCIR2
  1

  0
LINE
  5
61
100
AcDbEntity
  8
0
  6
CONTINUOUS
 62
     0
100
AcDbLine
 10
-0.5
 20
0.0
 30
0.0
 11
-1.0
 21
0.0
 31
0.0
  0
CIRCLE
  5
62
100
AcDbEntity
  8
0
  6
CONTINUOUS
 62
     0
100
AcDbCircle
 10
0.0
 20
0.0
 30
0.0
 40
0.5
  0
ENDBLK
  5
63
100
AcDbEntity
  8
0
100
AcDbBlockEnd
  0
BLOCK
  5
64
100
AcDbEntity
  8
0
100
AcDbBlockBegin
  2
_EX_WNORM
 70
     0
 10
0.0
 20
0.0
 30
0.0
  3
_EX_WNORM
  1

  0
LINE
  5
65
100
AcDbEntity
  8
0
  6
CONTINUOUS
 62
     0
100
AcDbLine
 10
-1.0
 20
0.0
 30
0.0
 11
-1.0
 21
0.0
 31
0.0
  0
LINE
  5
66
100
AcDbEntity
  8
0
  6
CONTINUOUS
 62
     0
100
AcDbLine
 10
0.0
 20
0.0
 30
0.0
 11
-1.0
 21
0.166667
 31
0.0
  0
LINE
  5
67
100
AcDbEntity
  8
0
  6
CONTINUOUS
 62
     0
100
AcDbLine
 10
0.0
 20
0.0
 30
0.0
 11
-1.0
 21
-0.166667
 31
0.0
  0
LINE
  5
68
100
AcDbEntity
  8
0
  6
CONTINUOUS
 62
     0
100
AcDbLine
 10
-1.0
 20
0.166667
 30
0.0
 11
-1.0
 21
-0.166667
 31
0.0
  0
ENDBLK
  5
69
100
AcDbEntity
  8
0
100
AcDbBlockEnd
  0
BLOCK
  5
6A
100
AcDbEntity
  8
0
100
AcDbBlockBegin
  2
_EX_NNORM
 70
     0
 10
0.0
 20
0.0
 30
0.0
  3
_EX_NNORM
  1

  0
LINE
  5
6B
100
AcDbEntity
  8
0
  6
CONTINUOUS
 62
     0
100
AcDbLine
 10
0.0
 20
0.0
 30
0.0
 11
-1.0
 21
0.0
 31
0.0
  0
LINE
  5
6C
100
AcDbEntity
  8
0
  6
CONTINUOUS
 62
     0
100
AcDbLine
 10
0.0
 20
0.0
 30
0.0
 11
-1.0
 21
0.166667
 31
0.0
  0
LINE
  5
6D
100
AcDbEntity
  8
0
  6
CONTINUOUS
 62
     0
100
AcDbLine
 10
0.0
 20
0.0
 30
0.0
 11
-1.0
 21
-0.166667
 31
0.0
  0
LINE
  5
6E
100
AcDbEntity
  8
0
  6
CONTINUOUS
 62
     0
100
AcDbLine
 10
-1.0
 20
0.166667
 30
0.0
 11
-1.0
 21
-0.166667
 31
0.0
  0
ENDBLK
  5
6F
100
AcDbEntity
  8
0
100
AcDbBlockEnd
  0
BLOCK
  5
70
100
AcDbEntity
  8
0
100
AcDbBlockBegin
  2
_EX_BBOX
 70
     0
 10
0.0
 20
0.0
 30
0.0
  3
_EX_BBOX
  1

  0
LINE
  5
71
100
AcDbEntity
  8
0
  6
CONTINUOUS
 62
     0
100
AcDbLine
 10
0.0
 20
0.0
 30
0.0
 11
-1.0
 21
0.0
 31
0.0
  0
LINE
  5
72
100
AcDbEntity
  8
0
  6
CONTINUOUS
 62
     0
100
AcDbLine
 10
-0.5
 20
0.5
 30
0.0
 11
0.5
 21
0.5
 31
0.0
  0
LINE
  5
73
100
AcDbEntity
  8
0
  6
CONTINUOUS
 62
     0
100
AcDbLine
 10
0.5
 20
0.5
 30
0.0
 11
0.5
 21
-0.5
 31
0.0
  0
LINE
  5
74
100
AcDbEntity
  8
0
  6
CONTINUOUS
 62
     0
100
AcDbLine
 10
0.5
 20
-0.5
 30
0.0
 11
-0.5
 21
-0.5
 31
0.0
  0
LINE
  5
75
100
AcDbEntity
  8
0
  6
CONTINUOUS
 62
     0
100
AcDbLine
 10
-0.5
 20
-0.5
 30
0.0
 11
-0.5
 21
0.5
 31
0.0
  0
LINE
  5
76
100
AcDbEntity
  8
0
  6
CONTINUOUS
 62
     0
100
AcDbLine
 10
-0.25
 20
0.25
 30
0.0
 11
0.25
 21
0.25
 31
0.0
  0
LINE
  5
77
100
AcDbEntity
  8
0
  6
CONTINUOUS
 62
     0
100
AcDbLine
 10
0.25
 20
0.25
 30
0.0
 11
0.25
 21
-0.25
 31
0.0
  0
LINE
  5
78
100
AcDbEntity
  8
0
  6
CONTINUOUS
 62
     0
100
AcDbLine
 10
0.25
 20
-0.25
 30
0.0
 11
-0.25
 21
-0.25
 31
0.0
  0
LINE
  5
79
100
AcDbEntity
  8
0
  6
CONTINUOUS
 62
     0
100
AcDbLine
 10
-0.25
 20
-0.25
 30
0.0
 11
-0.25
 21
0.25
 31
0.0
  0
ENDBLK
  5
7A
100
AcDbEntity
  8
0
100
AcDbBlockEnd
  0
BLOCK
  5
7B
100
AcDbEntity
  8
0
100
AcDbBlockBegin
  2
_EX_WBOX
 70
     0
 10
0.0
 20
0.0
 30
0.0
  3
_EX_WBOX
  1

  0
LINE
  5
7C
100
AcDbEntity
  8
0
  6
CONTINUOUS
 62
     0
100
AcDbLine
 10
-0.5
 20
0.0
 30
0.0
 11
-1.0
 21
0.0
 31
0.0
  0
LINE
  5
7D
100
AcDbEntity
  8
0
  6
CONTINUOUS
 62
     0
100
AcDbLine
 10
-0.5
 20
0.5
 30
0.0
 11
0.5
 21
0.5
 31
0.0
  0
LINE
  5
7E
100
AcDbEntity
  8
0
  6
CONTINUOUS
 62
     0
100
AcDbLine
 10
0.5
 20
0.5
 30
0.0
 11
0.5
 21
-0.5
 31
0.0
  0
LINE
  5
7F
100
AcDbEntity
  8
0
  6
CONTINUOUS
 62
     0
100
AcDbLine
 10
0.5
 20
-0.5
 30
0.0
 11
-0.5
 21
-0.5
 31
0.0
  0
LINE
  5
80
100
AcDbEntity
  8
0
  6
CONTINUOUS
 62
     0
100
AcDbLine
 10
-0.5
 20
-0.5
 30
0.0
 11
-0.5
 21
0.5
 31
0.0
  0
ENDBLK
  5
81
100
AcDbEntity
  8
0
100
AcDbBlockEnd
  0
BLOCK
  5
82
100
AcDbEntity
  8
0
100
AcDbBlockBegin
  2
_EX_INTEGRAL
 70
     0
 10
0.0
 20
0.0
 30
0.0
  3
_EX_INTEGRAL
  1

  0
LINE
  5
83
100
AcDbEntity
  8
0
  6
CONTINUOUS
 62
     0
100
AcDbLine
 10
0.0
 20
0.0
 30
0.0
 11
-1.0
 21
0.0
 31
0.0
  0
ARC
  5
84
100
AcDbEntity
  8
0
  6
CONTINUOUS
 62
     0
100
AcDbCircle
 10
0.542115
 20
0.164992
 30
0.0
 40
0.56667
100
AcDbArc
 50
73.07249
 51
196.927513
  0
ARC
  5
85
100
AcDbEntity
  8
0
  6
CONTINUOUS
 62
     0
100
AcDbCircle
 10
-0.542115
 20
-0.164992
 30
0.0
 40
0.56667
100
AcDbArc
 50
253.072487
 51
16.927513
  0
ENDBLK
  5
86
100
AcDbEntity
  8
0
100
AcDbBlockEnd
  0
BLOCK
  5
69C
100
AcDbEntity
  8
0
100
AcDbBlockBegin
  2
*D14
 70
    65
 10
0.0
 20
0.0
 30
0.0
  3
*D14
  1

  0
LINE
  5
69D
100
AcDbEntity
  8
鏡台
  6
CONTINUOUS
 62
     3
100
AcDbLine
 10
1227.0
 20
1710.5
 30
0.0
 11
1386.5
 21
1710.5
 31
0.0
  0
LINE
  5
69E
100
AcDbEntity
  8
鏡台
  6
CONTINUOUS
 62
     3
100
AcDbLine
 10
1245.076697
 20
1840.5
 30
0.0
 11
1386.5
 21
1840.5
 31
0.0
  0
TEXT
  5
69F
100
AcDbEntity
  8
鏡台
  6
CONTINUOUS
 62
     2
100
AcDbText
 10
1366.25
 20
1712.5
 30
0.0
 40
60.0
  1
130
 50
90.0
 41
0.84
  7
EXCADSTD
 72
     1
 11
1366.25
 21
1775.5
 31
0.0
100
AcDbText
  0
LINE
  5
6A0
100
AcDbEntity
  8
鏡台
  6
CONTINUOUS
 62
     3
100
AcDbLine
 10
1371.5
 20
1665.5
 30
0.0
 11
1371.5
 21
1885.5
 31
0.0
  0
LINE
  5
6A1
100
AcDbEntity
  8
鏡台
  6
CONTINUOUS
 62
     3
100
AcDbLine
 10
1379.0
 20
1665.5
 30
0.0
 11
1371.5
 21
1710.5
 31
0.0
  0
LINE
  5
6A2
100
AcDbEntity
  8
鏡台
  6
CONTINUOUS
 62
     3
100
AcDbLine
 10
1371.5
 20
1710.5
 30
0.0
 11
1364.0
 21
1665.5
 31
0.0
  0
LINE
  5
6A3
100
AcDbEntity
  8
鏡台
  6
CONTINUOUS
 62
     3
100
AcDbLine
 10
1364.0
 20
1885.5
 30
0.0
 11
1371.5
 21
1840.5
 31
0.0
  0
LINE
  5
6A4
100
AcDbEntity
  8
鏡台
  6
CONTINUOUS
 62
     3
100
AcDbLine
 10
1371.5
 20
1840.5
 30
0.0
 11
1379.0
 21
1885.5
 31
0.0
  0
ENDBLK
  5
6A5
100
AcDbEntity
  8
0
100
AcDbBlockEnd
  0
BLOCK
  5
6A9
100
AcDbEntity
  8
0
100
AcDbBlockBegin
  2
*D15
 70
    65
 10
0.0
 20
0.0
 30
0.0
  3
*D15
  1

  0
LINE
  5
6AA
100
AcDbEntity
  8
鏡台
  6
CONTINUOUS
 62
     3
100
AcDbLine
 10
1227.0
 20
1710.5
 30
0.0
 11
1446.5
 21
1710.5
 31
0.0
  0
LINE
  5
6AB
100
AcDbEntity
  8
鏡台
  6
CONTINUOUS
 62
     3
100
AcDbLine
 10
1226.999985
 20
2710.5
 30
0.0
 11
1446.5
 21
2710.5
 31
0.0
  0
TEXT
  5
6AC
100
AcDbEntity
  8
鏡台
  6
CONTINUOUS
 62
     2
100
AcDbText
 10
1426.25
 20
2128.6
 30
0.0
 40
60.0
  1
1000
 50
90.0
 41
0.84
  7
EXCADSTD
 72
     1
 11
1426.25
 21
2210.5
 31
0.0
100
AcDbText
  0
LINE
  5
6AD
100
AcDbEntity
  8
鏡台
  6
CONTINUOUS
 62
     3
100
AcDbLine
 10
1431.5
 20
1710.5
 30
0.0
 11
1431.5
 21
2710.5
 31
0.0
  0
LINE
  5
6AE
100
AcDbEntity
  8
鏡台
  6
CONTINUOUS
 62
     3
100
AcDbLine
 10
1424.0
 20
1755.5
 30
0.0
 11
1431.5
 21
1710.5
 31
0.0
  0
LINE
  5
6AF
100
AcDbEntity
  8
鏡台
  6
CONTINUOUS
 62
     3
100
AcDbLine
 10
1431.5
 20
1710.5
 30
0.0
 11
1439.0
 21
1755.5
 31
0.0
  0
LINE
  5
6B0
100
AcDbEntity
  8
鏡台
  6
CONTINUOUS
 62
     3
100
AcDbLine
 10
1439.0
 20
2665.5
 30
0.0
 11
1431.5
 21
2710.5
 31
0.0
  0
LINE
  5
6B1
100
AcDbEntity
  8
鏡台
  6
CONTINUOUS
 62
     3
100
AcDbLine
 10
1431.5
 20
2710.5
 30
0.0
 11
1424.0
 21
2665.5
 31
0.0
  0
ENDBLK
  5
6B2
100
AcDbEntity
  8
0
100
AcDbBlockEnd
  0
BLOCK
  5
6B5
100
AcDbEntity
  8
0
100
AcDbBlockBegin
  2
*D16
 70
    65
 10
0.0
 20
0.0
 30
0.0
  3
*D16
  1

  0
LINE
  5
6B6
100
AcDbEntity
  8
鏡台
  6
CONTINUOUS
 62
     3
100
AcDbLine
 10
666.5
 20
2674.5
 30
0.0
 11
666.5
 21
2800.5
 31
0.0
  0
LINE
  5
6B7
100
AcDbEntity
  8
鏡台
  6
CONTINUOUS
 62
     3
100
AcDbLine
 10
1176.5
 20
2674.5
 30
0.0
 11
1176.5
 21
2800.5
 31
0.0
  0
TEXT
  5
6B8
100
AcDbEntity
  8
鏡台
  6
CONTINUOUS
 62
     2
100
AcDbText
 10
858.5
 20
2790.75
 30
0.0
 40
60.0
  1
510
 41
0.84
  7
EXCADSTD
 72
     1
 11
921.5
 21
2790.75
 31
0.0
100
AcDbText
  0
LINE
  5
6B9
100
AcDbEntity
  8
鏡台
  6
CONTINUOUS
 62
     3
100
AcDbLine
 10
666.5
 20
2785.5
 30
0.0
 11
1176.5
 21
2785.5
 31
0.0
  0
LINE
  5
6BA
100
AcDbEntity
  8
鏡台
  6
CONTINUOUS
 62
     3
100
AcDbLine
 10
711.5
 20
2793.0
 30
0.0
 11
666.5
 21
2785.5
 31
0.0
  0
LINE
  5
6BB
100
AcDbEntity
  8
鏡台
  6
CONTINUOUS
 62
     3
100
AcDbLine
 10
666.5
 20
2785.5
 30
0.0
 11
711.5
 21
2778.0
 31
0.0
  0
LINE
  5
6BC
100
AcDbEntity
  8
鏡台
  6
CONTINUOUS
 62
     3
100
AcDbLine
 10
1131.5
 20
2778.0
 30
0.0
 11
1176.5
 21
2785.5
 31
0.0
  0
LINE
  5
6BD
100
AcDbEntity
  8
鏡台
  6
CONTINUOUS
 62
     3
100
AcDbLine
 10
1176.5
 20
2785.5
 30
0.0
 11
1131.5
 21
2793.0
 31
0.0
  0
ENDBLK
  5
6BE
100
AcDbEntity
  8
0
100
AcDbBlockEnd
  0
BLOCK
  5
75E
100
AcDbEntity
  8
0
100
AcDbBlockBegin
  2
*D17
 70
    65
 10
0.0
 20
0.0
 30
0.0
  3
*D17
  1

  0
LINE
  5
75F
100
AcDbEntity
  8
鏡台
  6
CONTINUOUS
 62
     3
100
AcDbLine
 10
2298.74118
 20
2692.702357
 30
0.0
 11
2298.74118
 21
2800.5
 31
0.0
  0
TEXT
  5
760
100
AcDbEntity
  8
鏡台
  6
CONTINUOUS
 62
     2
100
AcDbText
 10
2311.37059
 20
2790.75
 30
0.0
 40
60.0
  1
151
 41
0.84
  7
EXCADSTD
 72
     1
 11
2374.37059
 21
2790.75
 31
0.0
100
AcDbText
  0
LINE
  5
761
100
AcDbEntity
  8
鏡台
  6
CONTINUOUS
 62
     3
100
AcDbLine
 10
2253.74118
 20
2785.5
 30
0.0
 11
2495.0
 21
2785.5
 31
0.0
  0
LINE
  5
762
100
AcDbEntity
  8
鏡台
  6
CONTINUOUS
 62
     3
100
AcDbLine
 10
2253.74118
 20
2778.0
 30
0.0
 11
2298.74118
 21
2785.5
 31
0.0
  0
LINE
  5
763
100
AcDbEntity
  8
鏡台
  6
CONTINUOUS
 62
     3
100
AcDbLine
 10
2298.74118
 20
2785.5
 30
0.0
 11
2253.74118
 21
2793.0
 31
0.0
  0
LINE
  5
764
100
AcDbEntity
  8
鏡台
  6
CONTINUOUS
 62
     3
100
AcDbLine
 10
2495.0
 20
2793.0
 30
0.0
 11
2450.0
 21
2785.5
 31
0.0
  0
LINE
  5
765
100
AcDbEntity
  8
鏡台
  6
CONTINUOUS
 62
     3
100
AcDbLine
 10
2450.0
 20
2785.5
 30
0.0
 11
2495.0
 21
2778.0
 31
0.0
  0
ENDBLK
  5
766
100
AcDbEntity
  8
0
100
AcDbBlockEnd
  0
BLOCK
  5
7A8
100
AcDbEntity
  8
0
100
AcDbBlockBegin
  2
*D18
 70
    65
 10
0.0
 20
0.0
 30
0.0
  3
*D18
  1

  0
TEXT
  5
7A9
100
AcDbEntity
  8
付属金具
  6
CONTINUOUS
 62
     2
100
AcDbText
 10
2744.75
 20
1282.5
 30
0.0
 40
60.0
  1
860
 50
90.0
 41
0.84
  7
EXCADSTD
 72
     1
 11
2744.75
 21
1345.5
 31
0.0
100
AcDbText
  0
LINE
  5
7AA
100
AcDbEntity
  8
付属金具
  6
CONTINUOUS
 62
     3
100
AcDbLine
 10
2670.5
 20
915.5
 30
0.0
 11
2765.0
 21
915.5
 31
0.0
  0
LINE
  5
7AB
100
AcDbEntity
  8
付属金具
  6
CONTINUOUS
 62
     3
100
AcDbLine
 10
2750.0
 20
1775.5
 30
0.0
 11
2750.0
 21
915.5
 31
0.0
  0
LINE
  5
7AC
100
AcDbEntity
  8
付属金具
  6
CONTINUOUS
 62
     3
100
AcDbLine
 10
2757.5
 20
1730.5
 30
0.0
 11
2750.0
 21
1775.5
 31
0.0
  0
LINE
  5
7AD
100
AcDbEntity
  8
付属金具
  6
CONTINUOUS
 62
     3
100
AcDbLine
 10
2750.0
 20
1775.5
 30
0.0
 11
2742.5
 21
1730.5
 31
0.0
  0
LINE
  5
7AE
100
AcDbEntity
  8
付属金具
  6
CONTINUOUS
 62
     3
100
AcDbLine
 10
2742.5
 20
960.5
 30
0.0
 11
2750.0
 21
915.5
 31
0.0
  0
LINE
  5
7AF
100
AcDbEntity
  8
付属金具
  6
CONTINUOUS
 62
     3
100
AcDbLine
 10
2750.0
 20
915.5
 30
0.0
 11
2757.5
 21
960.5
 31
0.0
  0
ENDBLK
  5
7B0
100
AcDbEntity
  8
0
100
AcDbBlockEnd
  0
BLOCK
  5
833
100
AcDbEntity
  8
0
100
AcDbBlockBegin
  2
*D19
 70
    65
 10
0.0
 20
0.0
 30
0.0
  3
*D19
  1

  0
LINE
  5
834
100
AcDbEntity
  8
寸法
  6
CONTINUOUS
 62
     3
100
AcDbLine
 10
2265.0
 20
669.0
 30
0.0
 11
2650.250006
 21
669.0
 31
0.0
  0
LINE
  5
835
100
AcDbEntity
  8
寸法
  6
CONTINUOUS
 62
     3
100
AcDbLine
 10
2265.0
 20
661.5
 30
0.0
 11
2310.0
 21
669.0
 31
0.0
  0
LINE
  5
836
100
AcDbEntity
  8
寸法
  6
CONTINUOUS
 62
     3
100
AcDbLine
 10
2310.0
 20
669.0
 30
0.0
 11
2265.0
 21
676.5
 31
0.0
  0
LINE
  5
837
100
AcDbEntity
  8
寸法
  6
CONTINUOUS
 62
     3
100
AcDbLine
 10
2495.0
 20
676.5
 30
0.0
 11
2450.0
 21
669.0
 31
0.0
  0
LINE
  5
838
100
AcDbEntity
  8
寸法
  6
CONTINUOUS
 62
     3
100
AcDbLine
 10
2450.0
 20
669.0
 30
0.0
 11
2495.0
 21
661.5
 31
0.0
  0
TEXT
  5
839
100
AcDbEntity
  8
寸法
  6
CONTINUOUS
 62
     2
100
AcDbText
 10
2507.0
 20
674.25
 30
0.0
 40
60.0
  1
140
 41
0.84
  7
EXCADSTD
 72
     1
 11
2570.0
 21
674.25
 31
0.0
100
AcDbText
  0
LINE
  5
83A
100
AcDbEntity
  8
寸法
  6
CONTINUOUS
 62
     3
100
AcDbLine
 10
2310.0
 20
765.5
 30
0.0
 11
2310.0
 21
654.0
 31
0.0
  0
LINE
  5
83B
100
AcDbEntity
  8
寸法
  6
CONTINUOUS
 62
     3
100
AcDbLine
 10
2450.0
 20
908.5
 30
0.0
 11
2450.0
 21
654.0
 31
0.0
  0
ENDBLK
  5
83C
100
AcDbEntity
  8
0
100
AcDbBlockEnd
  0
BLOCK
  5
83F
100
AcDbEntity
  8
0
100
AcDbBlockBegin
  2
*D20
 70
    65
 10
0.0
 20
0.0
 30
0.0
  3
*D20
  1

  0
LINE
  5
840
100
AcDbEntity
  8
寸法
  6
CONTINUOUS
 62
     3
100
AcDbLine
 10
2365.0
 20
881.99997
 30
0.0
 11
2365.0
 21
744.0
 31
0.0
  0
TEXT
  5
841
100
AcDbEntity
  8
寸法
  6
CONTINUOUS
 62
     2
100
AcDbText
 10
2521.4
 20
764.25
 30
0.0
 40
60.0
  1
85（床給水）
 41
0.84
  7
EXCADSTD
 72
     1
 11
2660.0
 21
764.25
 31
0.0
100
AcDbText
  0
LINE
  5
842
100
AcDbEntity
  8
寸法
  6
CONTINUOUS
 62
     3
100
AcDbLine
 10
2320.0
 20
759.0
 30
0.0
 11
2830.250006
 21
759.0
 31
0.0
  0
LINE
  5
843
100
AcDbEntity
  8
寸法
  6
CONTINUOUS
 62
     3
100
AcDbLine
 10
2320.0
 20
751.5
 30
0.0
 11
2365.0
 21
759.0
 31
0.0
  0
LINE
  5
844
100
AcDbEntity
  8
寸法
  6
CONTINUOUS
 62
     3
100
AcDbLine
 10
2365.0
 20
759.0
 30
0.0
 11
2320.0
 21
766.5
 31
0.0
  0
LINE
  5
845
100
AcDbEntity
  8
寸法
  6
CONTINUOUS
 62
     3
100
AcDbLine
 10
2495.0
 20
766.5
 30
0.0
 11
2450.0
 21
759.0
 31
0.0
  0
LINE
  5
846
100
AcDbEntity
  8
寸法
  6
CONTINUOUS
 62
     3
100
AcDbLine
 10
2450.0
 20
759.0
 30
0.0
 11
2495.0
 21
751.5
 31
0.0
  0
ENDBLK
  5
847
100
AcDbEntity
  8
0
100
AcDbBlockEnd
  0
BLOCK
  5
84A
100
AcDbEntity
  8
0
100
AcDbBlockBegin
  2
*D21
 70
    65
 10
0.0
 20
0.0
 30
0.0
  3
*D21
  1

  0
LINE
  5
84B
100
AcDbEntity
  8
寸法
  6
CONTINUOUS
 62
     3
100
AcDbLine
 10
2035.0
 20
579.0
 30
0.0
 11
2450.0
 21
579.0
 31
0.0
  0
LINE
  5
84C
100
AcDbEntity
  8
寸法
  6
CONTINUOUS
 62
     3
100
AcDbLine
 10
2080.0
 20
586.5
 30
0.0
 11
2035.0
 21
579.0
 31
0.0
  0
LINE
  5
84D
100
AcDbEntity
  8
寸法
  6
CONTINUOUS
 62
     3
100
AcDbLine
 10
2035.0
 20
579.0
 30
0.0
 11
2080.0
 21
571.5
 31
0.0
  0
LINE
  5
84E
100
AcDbEntity
  8
寸法
  6
CONTINUOUS
 62
     3
100
AcDbLine
 10
2405.0
 20
571.5
 30
0.0
 11
2450.0
 21
579.0
 31
0.0
  0
LINE
  5
84F
100
AcDbEntity
  8
寸法
  6
CONTINUOUS
 62
     3
100
AcDbLine
 10
2450.0
 20
579.0
 30
0.0
 11
2405.0
 21
586.5
 31
0.0
  0
TEXT
  5
850
100
AcDbEntity
  8
寸法
  6
CONTINUOUS
 62
     2
100
AcDbText
 10
2179.5
 20
584.25
 30
0.0
 40
60.0
  1
415
 41
0.84
  7
EXCADSTD
 72
     1
 11
2242.5
 21
584.25
 31
0.0
100
AcDbText
  0
LINE
  5
851
100
AcDbEntity
  8
寸法
  6
CONTINUOUS
 62
     3
100
AcDbLine
 10
2035.0
 20
908.5
 30
0.0
 11
2035.0
 21
564.0
 31
0.0
  0
LINE
  5
852
100
AcDbEntity
  8
寸法
  6
CONTINUOUS
 62
     3
100
AcDbLine
 10
2450.0
 20
916.9
 30
0.0
 11
2450.0
 21
564.0
 31
0.0
  0
ENDBLK
  5
853
100
AcDbEntity
  8
0
100
AcDbBlockEnd
  0
BLOCK
  5
857
100
AcDbEntity
  8
0
100
AcDbBlockBegin
  2
*D22
 70
    65
 10
0.0
 20
0.0
 30
0.0
  3
*D22
  1

  0
LINE
  5
858
100
AcDbEntity
  8
寸法
  6
CONTINUOUS
 62
     3
100
AcDbLine
 10
2460.5
 20
915.5
 30
0.0
 11
2675.0
 21
915.5
 31
0.0
  0
LINE
  5
859
100
AcDbEntity
  8
寸法
  6
CONTINUOUS
 62
     3
100
AcDbLine
 10
2493.0
 20
1425.5
 30
0.0
 11
2675.0
 21
1425.5
 31
0.0
  0
TEXT
  5
85A
100
AcDbEntity
  8
寸法
  6
CONTINUOUS
 62
     2
100
AcDbText
 10
2654.75
 20
1107.5
 30
0.0
 40
60.0
  1
510
 50
90.0
 41
0.84
  7
EXCADSTD
 72
     1
 11
2654.75
 21
1170.5
 31
0.0
100
AcDbText
  0
LINE
  5
85B
100
AcDbEntity
  8
寸法
  6
CONTINUOUS
 62
     3
100
AcDbLine
 10
2660.0
 20
915.5
 30
0.0
 11
2660.0
 21
1425.5
 31
0.0
  0
LINE
  5
85C
100
AcDbEntity
  8
寸法
  6
CONTINUOUS
 62
     3
100
AcDbLine
 10
2652.5
 20
960.5
 30
0.0
 11
2660.0
 21
915.5
 31
0.0
  0
LINE
  5
85D
100
AcDbEntity
  8
寸法
  6
CONTINUOUS
 62
     3
100
AcDbLine
 10
2660.0
 20
915.5
 30
0.0
 11
2667.5
 21
960.5
 31
0.0
  0
LINE
  5
85E
100
AcDbEntity
  8
寸法
  6
CONTINUOUS
 62
     3
100
AcDbLine
 10
2667.5
 20
1380.5
 30
0.0
 11
2660.0
 21
1425.5
 31
0.0
  0
LINE
  5
85F
100
AcDbEntity
  8
寸法
  6
CONTINUOUS
 62
     3
100
AcDbLine
 10
2660.0
 20
1425.5
 30
0.0
 11
2652.5
 21
1380.5
 31
0.0
  0
ENDBLK
  5
860
100
AcDbEntity
  8
0
100
AcDbBlockEnd
  0
BLOCK
  5
867
100
AcDbEntity
  8
0
100
AcDbBlockBegin
  2
*D23
 70
    65
 10
0.0
 20
0.0
 30
0.0
  3
*D23
  1

  0
LINE
  5
868
100
AcDbEntity
  8
寸法
  6
CONTINUOUS
 62
     3
100
AcDbLine
 10
1219.0
 20
1710.5
 30
0.0
 11
1446.5
 21
1710.5
 31
0.0
  0
TEXT
  5
869
100
AcDbEntity
  8
寸法
  6
CONTINUOUS
 62
     2
100
AcDbText
 10
1426.25
 20
1250.0
 30
0.0
 40
60.0
  1
795
 50
90.0
 41
0.84
  7
EXCADSTD
 72
     1
 11
1426.25
 21
1313.0
 31
0.0
100
AcDbText
  0
LINE
  5
86A
100
AcDbEntity
  8
寸法
  6
CONTINUOUS
 62
     3
100
AcDbLine
 10
1431.5
 20
915.5
 30
0.0
 11
1431.5
 21
1710.5
 31
0.0
  0
LINE
  5
86B
100
AcDbEntity
  8
寸法
  6
CONTINUOUS
 62
     3
100
AcDbLine
 10
1424.0
 20
960.5
 30
0.0
 11
1431.5
 21
915.5
 31
0.0
  0
LINE
  5
86C
100
AcDbEntity
  8
寸法
  6
CONTINUOUS
 62
     3
100
AcDbLine
 10
1431.5
 20
915.5
 30
0.0
 11
1439.0
 21
960.5
 31
0.0
  0
LINE
  5
86D
100
AcDbEntity
  8
寸法
  6
CONTINUOUS
 62
     3
100
AcDbLine
 10
1439.0
 20
1665.5
 30
0.0
 11
1431.5
 21
1710.5
 31
0.0
  0
LINE
  5
86E
100
AcDbEntity
  8
寸法
  6
CONTINUOUS
 62
     3
100
AcDbLine
 10
1431.5
 20
1710.5
 30
0.0
 11
1424.0
 21
1665.5
 31
0.0
  0
ENDBLK
  5
86F
100
AcDbEntity
  8
0
100
AcDbBlockEnd
  0
BLOCK
  5
872
100
AcDbEntity
  8
0
100
AcDbBlockBegin
  2
*D24
 70
    65
 10
0.0
 20
0.0
 30
0.0
  3
*D24
  1

  0
LINE
  5
873
100
AcDbEntity
  8
寸法
  6
CONTINUOUS
 62
     3
100
AcDbLine
 10
638.0
 20
579.0
 30
0.0
 11
1205.0
 21
579.0
 31
0.0
  0
LINE
  5
874
100
AcDbEntity
  8
寸法
  6
CONTINUOUS
 62
     3
100
AcDbLine
 10
683.0
 20
586.5
 30
0.0
 11
638.0
 21
579.0
 31
0.0
  0
LINE
  5
875
100
AcDbEntity
  8
寸法
  6
CONTINUOUS
 62
     3
100
AcDbLine
 10
638.0
 20
579.0
 30
0.0
 11
683.0
 21
571.5
 31
0.0
  0
LINE
  5
876
100
AcDbEntity
  8
寸法
  6
CONTINUOUS
 62
     3
100
AcDbLine
 10
1160.0
 20
571.5
 30
0.0
 11
1205.0
 21
579.0
 31
0.0
  0
LINE
  5
877
100
AcDbEntity
  8
寸法
  6
CONTINUOUS
 62
     3
100
AcDbLine
 10
1205.0
 20
579.0
 30
0.0
 11
1160.0
 21
586.5
 31
0.0
  0
TEXT
  5
878
100
AcDbEntity
  8
寸法
  6
CONTINUOUS
 62
     2
100
AcDbText
 10
858.5
 20
584.25
 30
0.0
 40
60.0
  1
567
 41
0.84
  7
EXCADSTD
 72
     1
 11
921.5
 21
584.25
 31
0.0
100
AcDbText
  0
LINE
  5
879
100
AcDbEntity
  8
寸法
  6
CONTINUOUS
 62
     3
100
AcDbLine
 10
638.0
 20
905.0
 30
0.0
 11
638.0
 21
564.0
 31
0.0
  0
LINE
  5
87A
100
AcDbEntity
  8
寸法
  6
CONTINUOUS
 62
     3
100
AcDbLine
 10
1205.0
 20
905.0
 30
0.0
 11
1205.0
 21
564.0
 31
0.0
  0
ENDBLK
  5
87B
100
AcDbEntity
  8
0
100
AcDbBlockEnd
  0
BLOCK
  5
87E
100
AcDbEntity
  8
0
100
AcDbBlockBegin
  2
*D25
 70
    65
 10
0.0
 20
0.0
 30
0.0
  3
*D25
  1

  0
TEXT
  5
87F
100
AcDbEntity
  8
寸法
  6
CONTINUOUS
 62
     2
100
AcDbText
 10
1336.25
 20
1236.0
 30
0.0
 40
60.0
  1
767
 50
90.0
 41
0.84
  7
EXCADSTD
 72
     1
 11
1336.25
 21
1299.0
 31
0.0
100
AcDbText
  0
LINE
  5
880
100
AcDbEntity
  8
寸法
  6
CONTINUOUS
 62
     3
100
AcDbLine
 10
929.0
 20
1682.5
 30
0.0
 11
1356.5
 21
1682.5
 31
0.0
  0
LINE
  5
881
100
AcDbEntity
  8
寸法
  6
CONTINUOUS
 62
     3
100
AcDbLine
 10
1341.5
 20
1682.5
 30
0.0
 11
1341.5
 21
915.5
 31
0.0
  0
LINE
  5
882
100
AcDbEntity
  8
寸法
  6
CONTINUOUS
 62
     3
100
AcDbLine
 10
1349.0
 20
1637.5
 30
0.0
 11
1341.5
 21
1682.5
 31
0.0
  0
LINE
  5
883
100
AcDbEntity
  8
寸法
  6
CONTINUOUS
 62
     3
100
AcDbLine
 10
1341.5
 20
1682.5
 30
0.0
 11
1334.0
 21
1637.5
 31
0.0
  0
LINE
  5
884
100
AcDbEntity
  8
寸法
  6
CONTINUOUS
 62
     3
100
AcDbLine
 10
1334.0
 20
960.5
 30
0.0
 11
1341.5
 21
915.5
 31
0.0
  0
LINE
  5
885
100
AcDbEntity
  8
寸法
  6
CONTINUOUS
 62
     3
100
AcDbLine
 10
1341.5
 20
915.5
 30
0.0
 11
1349.0
 21
960.5
 31
0.0
  0
ENDBLK
  5
886
100
AcDbEntity
  8
0
100
AcDbBlockEnd
  0
BLOCK
  5
889
100
AcDbEntity
  8
0
100
AcDbBlockBegin
  2
*D26
 70
    65
 10
0.0
 20
0.0
 30
0.0
  3
*D26
  1

  0
LINE
  5
88A
100
AcDbEntity
  8
寸法
  6
CONTINUOUS
 62
     3
100
AcDbLine
 10
621.5
 20
3489.900001
 30
0.0
 11
621.5
 21
3285.5
 31
0.0
  0
LINE
  5
88B
100
AcDbEntity
  8
寸法
  6
CONTINUOUS
 62
     3
100
AcDbLine
 10
1221.5
 20
3489.900001
 30
0.0
 11
1221.5
 21
3285.5
 31
0.0
  0
TEXT
  5
88C
100
AcDbEntity
  8
寸法
  6
CONTINUOUS
 62
     2
100
AcDbText
 10
858.5
 20
3305.75
 30
0.0
 40
60.0
  1
600
 41
0.84
  7
EXCADSTD
 72
     1
 11
921.5
 21
3305.75
 31
0.0
100
AcDbText
  0
LINE
  5
88D
100
AcDbEntity
  8
寸法
  6
CONTINUOUS
 62
     3
100
AcDbLine
 10
621.5
 20
3300.5
 30
0.0
 11
1221.5
 21
3300.5
 31
0.0
  0
LINE
  5
88E
100
AcDbEntity
  8
寸法
  6
CONTINUOUS
 62
     3
100
AcDbLine
 10
666.5
 20
3308.0
 30
0.0
 11
621.5
 21
3300.5
 31
0.0
  0
LINE
  5
88F
100
AcDbEntity
  8
寸法
  6
CONTINUOUS
 62
     3
100
AcDbLine
 10
621.5
 20
3300.5
 30
0.0
 11
666.5
 21
3293.0
 31
0.0
  0
LINE
  5
890
100
AcDbEntity
  8
寸法
  6
CONTINUOUS
 62
     3
100
AcDbLine
 10
1176.5
 20
3293.0
 30
0.0
 11
1221.5
 21
3300.5
 31
0.0
  0
LINE
  5
891
100
AcDbEntity
  8
寸法
  6
CONTINUOUS
 62
     3
100
AcDbLine
 10
1221.5
 20
3300.5
 30
0.0
 11
1176.5
 21
3308.0
 31
0.0
  0
ENDBLK
  5
892
100
AcDbEntity
  8
0
100
AcDbBlockEnd
  0
BLOCK
  5
895
100
AcDbEntity
  8
0
100
AcDbBlockBegin
  2
*D27
 70
    65
 10
0.0
 20
0.0
 30
0.0
  3
*D27
  1

  0
LINE
  5
896
100
AcDbEntity
  8
寸法
  6
CONTINUOUS
 62
     3
100
AcDbLine
 10
726.5
 20
4013.5
 30
0.0
 11
726.5
 21
4075.5
 31
0.0
  0
LINE
  5
897
100
AcDbEntity
  8
寸法
  6
CONTINUOUS
 62
     3
100
AcDbLine
 10
1116.5
 20
4013.5
 30
0.0
 11
1116.5
 21
4075.5
 31
0.0
  0
TEXT
  5
898
100
AcDbEntity
  8
寸法
  6
CONTINUOUS
 62
     2
100
AcDbText
 10
858.5
 20
4065.75
 30
0.0
 40
60.0
  1
390
 41
0.84
  7
EXCADSTD
 72
     1
 11
921.5
 21
4065.75
 31
0.0
100
AcDbText
  0
LINE
  5
899
100
AcDbEntity
  8
寸法
  6
CONTINUOUS
 62
     3
100
AcDbLine
 10
726.5
 20
4060.5
 30
0.0
 11
1116.5
 21
4060.5
 31
0.0
  0
LINE
  5
89A
100
AcDbEntity
  8
寸法
  6
CONTINUOUS
 62
     3
100
AcDbLine
 10
771.5
 20
4068.0
 30
0.0
 11
726.5
 21
4060.5
 31
0.0
  0
LINE
  5
89B
100
AcDbEntity
  8
寸法
  6
CONTINUOUS
 62
     3
100
AcDbLine
 10
726.5
 20
4060.5
 30
0.0
 11
771.5
 21
4053.0
 31
0.0
  0
LINE
  5
89C
100
AcDbEntity
  8
寸法
  6
CONTINUOUS
 62
     3
100
AcDbLine
 10
1071.5
 20
4053.0
 30
0.0
 11
1116.5
 21
4060.5
 31
0.0
  0
LINE
  5
89D
100
AcDbEntity
  8
寸法
  6
CONTINUOUS
 62
     3
100
AcDbLine
 10
1116.5
 20
4060.5
 30
0.0
 11
1071.5
 21
4068.0
 31
0.0
  0
ENDBLK
  5
89E
100
AcDbEntity
  8
0
100
AcDbBlockEnd
  0
BLOCK
  5
8A1
100
AcDbEntity
  8
0
100
AcDbBlockBegin
  2
*D28
 70
    65
 10
0.0
 20
0.0
 30
0.0
  3
*D28
  1

  0
LINE
  5
8A2
100
AcDbEntity
  8
寸法
  6
CONTINUOUS
 62
     3
100
AcDbLine
 10
1442.0
 20
2710.5
 30
0.0
 11
1536.5
 21
2710.5
 31
0.0
  0
TEXT
  5
8A3
100
AcDbEntity
  8
寸法
  6
CONTINUOUS
 62
     2
100
AcDbText
 10
1516.25
 20
1731.1
 30
0.0
 40
60.0
  1
1795
 50
90.0
 41
0.84
  7
EXCADSTD
 72
     1
 11
1516.25
 21
1813.0
 31
0.0
100
AcDbText
  0
LINE
  5
8A4
100
AcDbEntity
  8
寸法
  6
CONTINUOUS
 62
     3
100
AcDbLine
 10
1521.5
 20
2710.5
 30
0.0
 11
1521.5
 21
915.5
 31
0.0
  0
LINE
  5
8A5
100
AcDbEntity
  8
寸法
  6
CONTINUOUS
 62
     3
100
AcDbLine
 10
1529.0
 20
2665.5
 30
0.0
 11
1521.5
 21
2710.5
 31
0.0
  0
LINE
  5
8A6
100
AcDbEntity
  8
寸法
  6
CONTINUOUS
 62
     3
100
AcDbLine
 10
1521.5
 20
2710.5
 30
0.0
 11
1514.0
 21
2665.5
 31
0.0
  0
LINE
  5
8A7
100
AcDbEntity
  8
寸法
  6
CONTINUOUS
 62
     3
100
AcDbLine
 10
1514.0
 20
960.5
 30
0.0
 11
1521.5
 21
915.5
 31
0.0
  0
LINE
  5
8A8
100
AcDbEntity
  8
寸法
  6
CONTINUOUS
 62
     3
100
AcDbLine
 10
1521.5
 20
915.5
 30
0.0
 11
1529.0
 21
960.5
 31
0.0
  0
ENDBLK
  5
8A9
100
AcDbEntity
  8
0
100
AcDbBlockEnd
  0
BLOCK
  5
8AC
100
AcDbEntity
  8
0
100
AcDbBlockBegin
  2
*D29
 70
    65
 10
0.0
 20
0.0
 30
0.0
  3
*D29
  1

  0
LINE
  5
8AD
100
AcDbEntity
  8
寸法
  6
CONTINUOUS
 62
     3
100
AcDbLine
 10
870.5
 20
1777.855808
 30
0.0
 11
870.5
 21
1899.855533
 31
0.0
  0
LINE
  5
8AE
100
AcDbEntity
  8
寸法
  6
CONTINUOUS
 62
     3
100
AcDbLine
 10
972.5
 20
1777.855808
 30
0.0
 11
972.5
 21
1899.855533
 31
0.0
  0
TEXT
  5
8AF
100
AcDbEntity
  8
寸法
  6
CONTINUOUS
 62
     2
100
AcDbText
 10
858.5
 20
1890.105533
 30
0.0
 40
60.0
  1
102
 41
0.84
  7
EXCADSTD
 72
     1
 11
921.5
 21
1890.105533
 31
0.0
100
AcDbText
  0
LINE
  5
8B0
100
AcDbEntity
  8
寸法
  6
CONTINUOUS
 62
     3
100
AcDbLine
 10
825.5
 20
1884.855533
 30
0.0
 11
1017.5
 21
1884.855533
 31
0.0
  0
LINE
  5
8B1
100
AcDbEntity
  8
寸法
  6
CONTINUOUS
 62
     3
100
AcDbLine
 10
825.5
 20
1877.355533
 30
0.0
 11
870.5
 21
1884.855533
 31
0.0
  0
LINE
  5
8B2
100
AcDbEntity
  8
寸法
  6
CONTINUOUS
 62
     3
100
AcDbLine
 10
870.5
 20
1884.855533
 30
0.0
 11
825.5
 21
1892.355533
 31
0.0
  0
LINE
  5
8B3
100
AcDbEntity
  8
寸法
  6
CONTINUOUS
 62
     3
100
AcDbLine
 10
1017.5
 20
1892.355533
 30
0.0
 11
972.5
 21
1884.855533
 31
0.0
  0
LINE
  5
8B4
100
AcDbEntity
  8
寸法
  6
CONTINUOUS
 62
     3
100
AcDbLine
 10
972.5
 20
1884.855533
 30
0.0
 11
1017.5
 21
1877.355533
 31
0.0
  0
ENDBLK
  5
8B5
100
AcDbEntity
  8
0
100
AcDbBlockEnd
  0
BLOCK
  5
8B8
100
AcDbEntity
  8
0
100
AcDbBlockBegin
  2
*D30
 70
    65
 10
0.0
 20
0.0
 30
0.0
  3
*D30
  1

  0
LINE
  5
8B9
100
AcDbEntity
  8
寸法
  6
CONTINUOUS
 62
     3
100
AcDbLine
 10
2355.0
 20
1777.855808
 30
0.0
 11
2355.0
 21
1899.855533
 31
0.0
  0
TEXT
  5
8BA
100
AcDbEntity
  8
寸法
  6
CONTINUOUS
 62
     2
100
AcDbText
 10
2213.4
 20
1890.105533
 30
0.0
 40
60.0
  1
95
 41
0.84
  7
EXCADSTD
 72
     1
 11
2257.5
 21
1890.105533
 31
0.0
100
AcDbText
  0
LINE
  5
8BB
100
AcDbEntity
  8
寸法
  6
CONTINUOUS
 62
     3
100
AcDbLine
 10
2199.749994
 20
1884.855533
 30
0.0
 11
2495.0
 21
1884.855533
 31
0.0
  0
LINE
  5
8BC
100
AcDbEntity
  8
寸法
  6
CONTINUOUS
 62
     3
100
AcDbLine
 10
2310.0
 20
1877.355533
 30
0.0
 11
2355.0
 21
1884.855533
 31
0.0
  0
LINE
  5
8BD
100
AcDbEntity
  8
寸法
  6
CONTINUOUS
 62
     3
100
AcDbLine
 10
2355.0
 20
1884.855533
 30
0.0
 11
2310.0
 21
1892.355533
 31
0.0
  0
LINE
  5
8BE
100
AcDbEntity
  8
寸法
  6
CONTINUOUS
 62
     3
100
AcDbLine
 10
2495.0
 20
1892.355533
 30
0.0
 11
2450.0
 21
1884.855533
 31
0.0
  0
LINE
  5
8BF
100
AcDbEntity
  8
寸法
  6
CONTINUOUS
 62
     3
100
AcDbLine
 10
2450.0
 20
1884.855533
 30
0.0
 11
2495.0
 21
1877.355533
 31
0.0
  0
ENDBLK
  5
8C0
100
AcDbEntity
  8
0
100
AcDbBlockEnd
  0
BLOCK
  5
8C3
100
AcDbEntity
  8
0
100
AcDbBlockBegin
  2
*D31
 70
    65
 10
0.0
 20
0.0
 30
0.0
  3
*D31
  1

  0
LINE
  5
8C4
100
AcDbEntity
  8
寸法
  6
CONTINUOUS
 62
     3
100
AcDbLine
 10
801.5
 20
669.0
 30
0.0
 11
1041.5
 21
669.0
 31
0.0
  0
LINE
  5
8C5
100
AcDbEntity
  8
寸法
  6
CONTINUOUS
 62
     3
100
AcDbLine
 10
801.5
 20
661.5
 30
0.0
 11
846.5
 21
669.0
 31
0.0
  0
LINE
  5
8C6
100
AcDbEntity
  8
寸法
  6
CONTINUOUS
 62
     3
100
AcDbLine
 10
846.5
 20
669.0
 30
0.0
 11
801.5
 21
676.5
 31
0.0
  0
LINE
  5
8C7
100
AcDbEntity
  8
寸法
  6
CONTINUOUS
 62
     3
100
AcDbLine
 10
1041.5
 20
676.5
 30
0.0
 11
996.5
 21
669.0
 31
0.0
  0
LINE
  5
8C8
100
AcDbEntity
  8
寸法
  6
CONTINUOUS
 62
     3
100
AcDbLine
 10
996.5
 20
669.0
 30
0.0
 11
1041.5
 21
661.5
 31
0.0
  0
TEXT
  5
8C9
100
AcDbEntity
  8
寸法
  6
CONTINUOUS
 62
     2
100
AcDbText
 10
858.5
 20
674.25
 30
0.0
 40
60.0
  1
150
 41
0.84
  7
EXCADSTD
 72
     1
 11
921.5
 21
674.25
 31
0.0
100
AcDbText
  0
LINE
  5
8CA
100
AcDbEntity
  8
寸法
  6
CONTINUOUS
 62
     3
100
AcDbLine
 10
846.5
 20
896.99997
 30
0.0
 11
846.5
 21
654.0
 31
0.0
  0
LINE
  5
8CB
100
AcDbEntity
  8
寸法
  6
CONTINUOUS
 62
     3
100
AcDbLine
 10
996.5
 20
896.99997
 30
0.0
 11
996.5
 21
654.0
 31
0.0
  0
ENDBLK
  5
8CC
100
AcDbEntity
  8
0
100
AcDbBlockEnd
  0
BLOCK
  5
8CF
100
AcDbEntity
  8
0
100
AcDbBlockBegin
  2
*D32
 70
    65
 10
0.0
 20
0.0
 30
0.0
  3
*D32
  1

  0
LINE
  5
8D0
100
AcDbEntity
  8
寸法
  6
CONTINUOUS
 62
     3
100
AcDbLine
 10
2457.5
 20
1265.5
 30
0.0
 11
2585.0
 21
1265.5
 31
0.0
  0
LINE
  5
8D1
100
AcDbEntity
  8
寸法
  6
CONTINUOUS
 62
     3
100
AcDbLine
 10
2457.5
 20
915.5
 30
0.0
 11
2585.0
 21
915.5
 31
0.0
  0
TEXT
  5
8D2
100
AcDbEntity
  8
寸法
  6
CONTINUOUS
 62
     2
100
AcDbText
 10
2564.75
 20
1027.5
 30
0.0
 40
60.0
  1
350
 50
90.0
 41
0.84
  7
EXCADSTD
 72
     1
 11
2564.75
 21
1090.5
 31
0.0
100
AcDbText
  0
LINE
  5
8D3
100
AcDbEntity
  8
寸法
  6
CONTINUOUS
 62
     3
100
AcDbLine
 10
2570.0
 20
1265.5
 30
0.0
 11
2570.0
 21
915.5
 31
0.0
  0
LINE
  5
8D4
100
AcDbEntity
  8
寸法
  6
CONTINUOUS
 62
     3
100
AcDbLine
 10
2577.5
 20
1220.5
 30
0.0
 11
2570.0
 21
1265.5
 31
0.0
  0
LINE
  5
8D5
100
AcDbEntity
  8
寸法
  6
CONTINUOUS
 62
     3
100
AcDbLine
 10
2570.0
 20
1265.5
 30
0.0
 11
2562.5
 21
1220.5
 31
0.0
  0
LINE
  5
8D6
100
AcDbEntity
  8
寸法
  6
CONTINUOUS
 62
     3
100
AcDbLine
 10
2562.5
 20
960.5
 30
0.0
 11
2570.0
 21
915.5
 31
0.0
  0
LINE
  5
8D7
100
AcDbEntity
  8
寸法
  6
CONTINUOUS
 62
     3
100
AcDbLine
 10
2570.0
 20
915.5
 30
0.0
 11
2577.5
 21
960.5
 31
0.0
  0
ENDBLK
  5
8D8
100
AcDbEntity
  8
0
100
AcDbBlockEnd
  0
BLOCK
  5
8DB
100
AcDbEntity
  8
0
100
AcDbBlockBegin
  2
*D33
 70
    65
 10
0.0
 20
0.0
 30
0.0
  3
*D33
  1

  0
TEXT
  5
8DC
100
AcDbEntity
  8
寸法
  6
CONTINUOUS
 62
     2
100
AcDbText
 10
2744.75
 20
2152.5
 30
0.0
 40
60.0
  1
880
 50
90.0
 41
0.84
  7
EXCADSTD
 72
     1
 11
2744.75
 21
2215.5
 31
0.0
100
AcDbText
  0
LINE
  5
8DD
100
AcDbEntity
  8
寸法
  6
CONTINUOUS
 62
     3
100
AcDbLine
 10
2490.0
 20
2655.5
 30
0.0
 11
2765.0
 21
2655.5
 31
0.0
  0
LINE
  5
8DE
100
AcDbEntity
  8
寸法
  6
CONTINUOUS
 62
     3
100
AcDbLine
 10
2505.0
 20
1775.5
 30
0.0
 11
2765.0
 21
1775.5
 31
0.0
  0
LINE
  5
8DF
100
AcDbEntity
  8
寸法
  6
CONTINUOUS
 62
     3
100
AcDbLine
 10
2750.0
 20
2655.5
 30
0.0
 11
2750.0
 21
1775.5
 31
0.0
  0
LINE
  5
8E0
100
AcDbEntity
  8
寸法
  6
CONTINUOUS
 62
     3
100
AcDbLine
 10
2757.5
 20
2610.5
 30
0.0
 11
2750.0
 21
2655.5
 31
0.0
  0
LINE
  5
8E1
100
AcDbEntity
  8
寸法
  6
CONTINUOUS
 62
     3
100
AcDbLine
 10
2750.0
 20
2655.5
 30
0.0
 11
2742.5
 21
2610.5
 31
0.0
  0
LINE
  5
8E2
100
AcDbEntity
  8
寸法
  6
CONTINUOUS
 62
     3
100
AcDbLine
 10
2742.5
 20
1820.5
 30
0.0
 11
2750.0
 21
1775.5
 31
0.0
  0
LINE
  5
8E3
100
AcDbEntity
  8
寸法
  6
CONTINUOUS
 62
     3
100
AcDbLine
 10
2750.0
 20
1775.5
 30
0.0
 11
2757.5
 21
1820.5
 31
0.0
  0
ENDBLK
  5
8E4
100
AcDbEntity
  8
0
100
AcDbBlockEnd
  0
BLOCK
  5
8E7
100
AcDbEntity
  8
0
100
AcDbBlockBegin
  2
*D34
 70
    65
 10
0.0
 20
0.0
 30
0.0
  3
*D34
  1

  0
LINE
  5
8E8
100
AcDbEntity
  8
寸法
  6
CONTINUOUS
 62
     3
100
AcDbLine
 10
1380.0
 20
3420.5
 30
0.0
 11
1380.0
 21
3970.5
 31
0.0
  0
LINE
  5
8E9
100
AcDbEntity
  8
寸法
  6
CONTINUOUS
 62
     3
100
AcDbLine
 10
1372.5
 20
3465.5
 30
0.0
 11
1380.0
 21
3420.5
 31
0.0
  0
LINE
  5
8EA
100
AcDbEntity
  8
寸法
  6
CONTINUOUS
 62
     3
100
AcDbLine
 10
1380.0
 20
3420.5
 30
0.0
 11
1387.5
 21
3465.5
 31
0.0
  0
LINE
  5
8EB
100
AcDbEntity
  8
寸法
  6
CONTINUOUS
 62
     3
100
AcDbLine
 10
1387.5
 20
3925.5
 30
0.0
 11
1380.0
 21
3970.5
 31
0.0
  0
LINE
  5
8EC
100
AcDbEntity
  8
寸法
  6
CONTINUOUS
 62
     3
100
AcDbLine
 10
1380.0
 20
3970.5
 30
0.0
 11
1372.5
 21
3925.5
 31
0.0
  0
TEXT
  5
8ED
100
AcDbEntity
  8
寸法
  6
CONTINUOUS
 62
     2
100
AcDbText
 10
1374.75
 20
3632.5
 30
0.0
 40
60.0
  1
550
 50
90.0
 41
0.84
  7
EXCADSTD
 72
     1
 11
1374.75
 21
3695.5
 31
0.0
100
AcDbText
  0
LINE
  5
8EE
100
AcDbEntity
  8
寸法
  6
CONTINUOUS
 62
     3
100
AcDbLine
 10
932.0
 20
3420.5
 30
0.0
 11
1395.0
 21
3420.5
 31
0.0
  0
ENDBLK
  5
8EF
100
AcDbEntity
  8
0
100
AcDbBlockEnd
  0
ENDSEC
  0
SECTION
  2
ENTITIES
  0
LINE
  5
87
100
AcDbEntity
  8
枠・表
  6
CONTINUOUS
 62
     7
100
AcDbLine
 10
270.0
 20
202.5
 30
0.0
 11
3000.0
 21
202.5
 31
0.0
  0
LINE
  5
88
100
AcDbEntity
  8
枠・表
  6
CONTINUOUS
 62
     7
100
AcDbLine
 10
3000.0
 20
202.5
 30
0.0
 11
3000.0
 21
4327.5
 31
0.0
  0
LINE
  5
89
100
AcDbEntity
  8
枠・表
  6
CONTINUOUS
 62
     7
100
AcDbLine
 10
270.0
 20
202.5
 30
0.0
 11
270.0
 21
4327.5
 31
0.0
  0
LINE
  5
8A
100
AcDbEntity
  8
枠・表
  6
CONTINUOUS
 62
     7
100
AcDbLine
 10
270.0
 20
4327.5
 30
0.0
 11
3000.0
 21
4327.5
 31
0.0
  0
LINE
  5
8B
100
AcDbEntity
  8
枠・表
  6
CONTINUOUS
 62
     7
100
AcDbLine
 10
270.0
 20
532.5
 30
0.0
 11
3000.0
 21
532.5
 31
0.0
  0
LINE
  5
8C
100
AcDbEntity
  8
枠・表
  6
CONTINUOUS
 62
     6
100
AcDbLine
 10
3000.0
 20
352.5
 30
0.0
 11
1125.0
 21
352.5
 31
0.0
  0
LINE
  5
8D
100
AcDbEntity
  8
枠・表
  6
CONTINUOUS
 62
     6
100
AcDbLine
 10
2790.0
 20
532.5
 30
0.0
 11
2790.0
 21
352.5
 31
0.0
  0
LINE
  5
8E
100
AcDbEntity
  8
枠・表
  6
CONTINUOUS
 62
     6
100
AcDbLine
 10
2715.0
 20
532.5
 30
0.0
 11
2715.0
 21
352.5
 31
0.0
  0
LINE
  5
8F
100
AcDbEntity
  8
枠・表
  6
CONTINUOUS
 62
     6
100
AcDbLine
 10
2160.0
 20
532.5
 30
0.0
 11
2160.0
 21
202.5
 31
0.0
  0
LINE
  5
90
100
AcDbEntity
  8
枠・表
  6
CONTINUOUS
 62
     6
100
AcDbLine
 10
2085.0
 20
532.5
 30
0.0
 11
2085.0
 21
202.5
 31
0.0
  0
LINE
  5
91
100
AcDbEntity
  8
枠・表
  6
CONTINUOUS
 62
     6
100
AcDbLine
 10
1200.0
 20
532.5
 30
0.0
 11
1200.0
 21
352.5
 31
0.0
  0
LINE
  5
92
100
AcDbEntity
  8
枠・表
  6
CONTINUOUS
 62
     6
100
AcDbLine
 10
1125.0
 20
532.5
 30
0.0
 11
1125.0
 21
202.5
 31
0.0
  0
LINE
  5
93
100
AcDbEntity
  8
枠・表
  6
CONTINUOUS
 62
     6
100
AcDbLine
 10
930.0
 20
532.5
 30
0.0
 11
930.0
 21
202.5
 31
0.0
  0
LINE
  5
94
100
AcDbEntity
  8
枠・表
  6
CONTINUOUS
 62
     6
100
AcDbLine
 10
735.0
 20
532.5
 30
0.0
 11
735.0
 21
202.5
 31
0.0
  0
LINE
  5
95
100
AcDbEntity
  8
枠・表
  6
CONTINUOUS
 62
     6
100
AcDbLine
 10
502.5
 20
532.5
 30
0.0
 11
502.5
 21
202.5
 31
0.0
  0
LINE
  5
96
100
AcDbEntity
  8
枠・表
  6
CONTINUOUS
 62
     6
100
AcDbLine
 10
270.0
 20
457.5
 30
0.0
 11
1125.0
 21
457.5
 31
0.0
  0
LINE
  5
97
100
AcDbEntity
  8
枠・表
  6
CONTINUOUS
 62
     6
100
AcDbLine
 10
2838.980713
 20
387.004395
 30
0.0
 11
2954.990845
 21
505.049744
 31
0.0
  0
TEXT
  5
98
100
AcDbEntity
  8
枠・表
  6
CONTINUOUS
 62
     2
100
AcDbText
 10
2835.805664
 20
454.084167
 30
0.0
 40
45.0
  1
１
 41
0.826
  7
EXCADSTD
 72
     5
 11
2871.205665
 21
454.084167
 31
0.0
100
AcDbText
  0
TEXT
  5
99
100
AcDbEntity
  8
枠・表
  6
CONTINUOUS
 62
     2
100
AcDbText
 10
2896.918945
 20
387.52327
 30
0.0
 40
45.0
  1
１５
 41
0.791
  7
EXCADSTD
 72
     5
 11
2974.600797
 21
387.52327
 31
0.0
100
AcDbText
  0
TEXT
  5
9A
100
AcDbEntity
  8
枠・表
  6
CONTINUOUS
 62
     2
100
AcDbText
 10
303.75
 20
463.125
 30
0.0
 40
63.75
  1
製図
 41
1.087059
  7
EXCADSTD
 72
     5
 11
454.989
 21
463.125
 31
0.0
100
AcDbText
  0
TEXT
  5
9B
100
AcDbEntity
  8
枠・表
  6
CONTINUOUS
 62
     2
100
AcDbText
 10
536.25
 20
463.125
 30
0.0
 40
63.75
  1
写図
 41
1.087059
  7
EXCADSTD
 72
     5
 11
687.489
 21
463.125
 31
0.0
100
AcDbText
  0
TEXT
  5
9C
100
AcDbEntity
  8
枠・表
  6
CONTINUOUS
 62
     2
100
AcDbText
 10
761.25
 20
463.125
 30
0.0
 40
63.75
  1
検図
 41
0.938824
  7
EXCADSTD
 72
     5
 11
891.8655
 21
463.125
 31
0.0
100
AcDbText
  0
TEXT
  5
9D
100
AcDbEntity
  8
枠・表
  6
CONTINUOUS
 62
     2
100
AcDbText
 10
956.25
 20
463.125
 30
0.0
 40
63.75
  1
承認
 41
0.938824
  7
EXCADSTD
 72
     5
 11
1086.8655
 21
463.125
 31
0.0
100
AcDbText
  0
TEXT
  5
9E
100
AcDbEntity
  8
枠・表
  6
CONTINUOUS
 62
     2
100
AcDbText
 10
1133.625
 20
448.125
 30
0.0
 40
63.75
  1
品
 41
0.84
  7
EXCADSTD
 72
     5
 11
1184.625
 21
448.125
 31
0.0
100
AcDbText
  0
TEXT
  5
9F
100
AcDbEntity
  8
枠・表
  6
CONTINUOUS
 62
     2
100
AcDbText
 10
1133.625
 20
373.125
 30
0.0
 40
63.75
  1
名
 41
0.84
  7
EXCADSTD
 72
     5
 11
1184.625
 21
373.125
 31
0.0
100
AcDbText
  0
TEXT
  5
A0
100
AcDbEntity
  8
枠・表
  6
CONTINUOUS
 62
     2
100
AcDbText
 10
2093.625
 20
448.125
 30
0.0
 40
63.75
  1
品
 41
0.84
  7
EXCADSTD
 72
     5
 11
2144.625
 21
448.125
 31
0.0
100
AcDbText
  0
TEXT
  5
A1
100
AcDbEntity
  8
枠・表
  6
CONTINUOUS
 62
     2
100
AcDbText
 10
2093.625
 20
373.125
 30
0.0
 40
63.75
  1
番
 41
0.84
  7
EXCADSTD
 72
     5
 11
2144.625
 21
373.125
 31
0.0
100
AcDbText
  0
TEXT
  5
A2
100
AcDbEntity
  8
枠・表
  6
CONTINUOUS
 62
     2
100
AcDbText
 10
2725.125
 20
448.125
 30
0.0
 40
63.75
  1
尺
 41
0.84
  7
EXCADSTD
 72
     5
 11
2776.125
 21
448.125
 31
0.0
100
AcDbText
  0
TEXT
  5
A3
100
AcDbEntity
  8
枠・表
  6
CONTINUOUS
 62
     2
100
AcDbText
 10
2725.125
 20
373.125
 30
0.0
 40
63.75
  1
度
 41
0.84
  7
EXCADSTD
 72
     5
 11
2776.125
 21
373.125
 31
0.0
100
AcDbText
  0
TEXT
  5
A4
100
AcDbEntity
  8
枠・表
  6
CONTINUOUS
 62
     2
100
AcDbText
 10
2093.625
 20
278.625
 30
0.0
 40
63.75
  1
図
 41
0.84
  7
EXCADSTD
 72
     5
 11
2144.625
 21
278.625
 31
0.0
100
AcDbText
  0
TEXT
  5
A5
100
AcDbEntity
  8
枠・表
  6
CONTINUOUS
 62
     2
100
AcDbText
 10
2093.625
 20
214.125
 30
0.0
 40
63.75
  1
番
 41
0.84
  7
EXCADSTD
 72
     5
 11
2144.625
 21
214.125
 31
0.0
100
AcDbText
  0
TEXT
  5
A6
100
AcDbEntity
  8
枠・表
  6
CONTINUOUS
 62
     2
100
AcDbText
 10
1215.0
 20
442.5
 30
0.0
 40
75.0
  1
600㎜幅
 41
0.72072
  7
EXCADSTD
 72
     5
 11
1503.75
 21
442.5
 31
0.0
100
AcDbText
  0
TEXT
  5
A7
100
AcDbEntity
  8
枠・表
  6
CONTINUOUS
 62
     2
100
AcDbText
 10
1215.0
 20
367.5
 30
0.0
 40
75.0
  1
　洗面化粧ユニット
 41
0.924
  7
EXCADSTD
 72
     5
 11
1957.5
 21
367.5
 31
0.0
100
AcDbText
  0
LINE
  5
A8
100
AcDbEntity
  8
枠・表
  6
CONTINUOUS
 62
     6
100
AcDbLine
 10
1875.0
 20
4282.5
 30
0.0
 11
2925.0
 21
4282.5
 31
0.0
  0
LINE
  5
A9
100
AcDbEntity
  8
枠・表
  6
CONTINUOUS
 62
     6
100
AcDbLine
 10
1875.0
 20
4200.0
 30
0.0
 11
2925.0
 21
4200.0
 31
0.0
  0
LINE
  5
AA
100
AcDbEntity
  8
枠・表
  6
CONTINUOUS
 62
     6
100
AcDbLine
 10
1875.0
 20
4117.5
 30
0.0
 11
2925.0
 21
4117.5
 31
0.0
  0
TEXT
  5
AB
100
AcDbEntity
  8
枠・表
  6
CONTINUOUS
 62
     2
100
AcDbText
 10
1995.0
 20
4211.25
 30
0.0
 40
60.0
  1
品番
 41
1.47
  7
EXCADSTD
 72
     5
 11
2187.486
 21
4211.25
 31
0.0
100
AcDbText
  0
TEXT
  5
AC
100
AcDbEntity
  8
枠・表
  6
CONTINUOUS
 62
     2
100
AcDbText
 10
2445.0
 20
4211.25
 30
0.0
 40
60.0
  1
品名
 41
1.47
  7
EXCADSTD
 72
     5
 11
2637.486
 21
4211.25
 31
0.0
100
AcDbText
  0
TEXT
  5
AD
100
AcDbEntity
  8
枠・表
  6
CONTINUOUS
 62
     2
100
AcDbText
 10
2788.5
 20
4211.25
 30
0.0
 40
60.0
  1
個数
 41
0.861
  7
EXCADSTD
 72
     5
 11
2901.2418
 21
4211.25
 31
0.0
100
AcDbText
  0
TEXT
  5
AE
100
AcDbEntity
  8
枠・表
  6
CONTINUOUS
 62
     2
100
AcDbText
 10
2340.0
 20
4128.75
 30
0.0
 40
60.0
  1
洗面化粧台
 41
0.8106
  7
EXCADSTD
 72
     5
 11
2629.499999
 21
4128.75
 31
0.0
100
AcDbText
  0
TEXT
  5
AF
100
AcDbEntity
  8
枠・表
  6
CONTINUOUS
 62
     2
100
AcDbText
 10
2816.25
 20
4128.75
 30
0.0
 40
60.0
  1
１
 41
0.945
  7
EXCADSTD
 72
     5
 11
2870.25
 21
4128.75
 31
0.0
100
AcDbText
  0
TEXT
  5
B0
100
AcDbEntity
  8
枠・表
  6
CONTINUOUS
 62
     2
100
AcDbText
 10
2340.0
 20
4046.25
 30
0.0
 40
60.0
  1
化粧鏡台
 41
0.819
  7
EXCADSTD
 72
     5
 11
2573.999999
 21
4046.25
 31
0.0
100
AcDbText
  0
TEXT
  5
B1
100
AcDbEntity
  8
枠・表
  6
CONTINUOUS
 62
     2
100
AcDbText
 10
2816.25
 20
4046.25
 30
0.0
 40
60.0
  1
１
 41
0.945
  7
EXCADSTD
 72
     5
 11
2870.25
 21
4046.25
 31
0.0
100
AcDbText
  0
LINE
  5
B2
100
AcDbEntity
  8
枠・表
  6
EXLTYPE2
 62
     6
100
AcDbLine
 10
270.0
 20
277.5
 30
0.0
 11
735.0
 21
277.5
 31
0.0
  0
CIRCLE
  5
B3
100
AcDbEntity
  8
枠・表
  6
CONTINUOUS
 62
     6
100
AcDbCircle
 10
345.0
 20
240.0
 30
0.0
 40
1.5
  0
CIRCLE
  5
B4
100
AcDbEntity
  8
枠・表
  6
CONTINUOUS
 62
     6
100
AcDbCircle
 10
420.0
 20
240.0
 30
0.0
 40
1.5
  0
CIRCLE
  5
B5
100
AcDbEntity
  8
枠・表
  6
CONTINUOUS
 62
     6
100
AcDbCircle
 10
577.5
 20
240.0
 30
0.0
 40
1.5
  0
CIRCLE
  5
B6
100
AcDbEntity
  8
枠・表
  6
CONTINUOUS
 62
     6
100
AcDbCircle
 10
652.5
 20
240.0
 30
0.0
 40
1.5
  0
LINE
  5
B7
100
AcDbEntity
  8
枠・表
  6
EXLTYPE2
 62
     6
100
AcDbLine
 10
0.0
 20
2265.0
 30
0.0
 11
270.0
 21
2265.0
 31
0.0
  0
TEXT
  5
B8
100
AcDbEntity
  8
枠・表
  6
CONTINUOUS
 62
     6
100
AcDbText
 10
311.249986
 20
329.999992
 30
0.0
 40
75.000015
  1
間瀬
 41
0.8736
  7
EXCADSTD
 72
     5
 11
454.239612
 21
329.999992
 31
0.0
100
AcDbText
  0
TEXT
  5
B9
100
AcDbEntity
  8
枠・表
  6
CONTINUOUS
 62
     6
100
AcDbText
 10
953.249987
 20
329.999992
 30
0.0
 40
75.000015
  1
古林
 41
0.8568
  7
EXCADSTD
 72
     5
 11
1093.489811
 21
329.999992
 31
0.0
100
AcDbText
  0
TEXT
  5
BA
100
AcDbEntity
  8
枠・表
  6
CONTINUOUS
 62
     6
100
AcDbText
 10
758.249987
 20
329.999992
 30
0.0
 40
75.000015
  1
中村
 41
0.8568
  7
EXCADSTD
 72
     5
 11
898.489811
 21
329.999992
 31
0.0
100
AcDbText
  0
LINE
  5
BB
100
AcDbEntity
  8
枠・表
  6
CONTINUOUS
 62
     6
100
AcDbLine
 10
1875.0
 20
3952.5
 30
0.0
 11
2925.0
 21
3952.5
 31
0.0
  0
LINE
  5
BC
100
AcDbEntity
  8
枠・表
  6
CONTINUOUS
 62
     6
100
AcDbLine
 10
1875.0
 20
4035.0
 30
0.0
 11
2925.0
 21
4035.0
 31
0.0
  0
LINE
  5
BD
100
AcDbEntity
  8
枠・表
  6
CONTINUOUS
 62
     6
100
AcDbLine
 10
1875.0
 20
4035.0
 30
0.0
 11
1875.0
 21
4282.5
 31
0.0
  0
LINE
  5
BE
100
AcDbEntity
  8
枠・表
  6
CONTINUOUS
 62
     6
100
AcDbLine
 10
2325.0
 20
4035.0
 30
0.0
 11
2325.0
 21
4282.5
 31
0.0
  0
LINE
  5
BF
100
AcDbEntity
  8
枠・表
  6
CONTINUOUS
 62
     6
100
AcDbLine
 10
2775.0
 20
4035.0
 30
0.0
 11
2775.0
 21
4282.5
 31
0.0
  0
LINE
  5
C0
100
AcDbEntity
  8
枠・表
  6
CONTINUOUS
 62
     6
100
AcDbLine
 10
2925.0
 20
4035.0
 30
0.0
 11
2925.0
 21
4282.5
 31
0.0
  0
TEXT
  5
C1
100
AcDbEntity
  8
枠・表
  6
CONTINUOUS
 62
     2
100
AcDbText
 10
1890.0
 20
3881.25
 30
0.0
 40
60.0
  1
ＮＬ３０Ｓ４０
 41
0.528
  7
EXCADSTD
 72
     5
 11
2154.000004
 21
3881.25
 31
0.0
100
AcDbText
  0
TEXT
  5
C2
100
AcDbEntity
  8
枠・表
  6
CONTINUOUS
 62
     2
100
AcDbText
 10
2340.0
 20
3881.25
 30
0.0
 40
60.0
  1
フレキシブルパイプ
 41
0.648667
  7
EXCADSTD
 72
     5
 11
2756.999992
 21
3881.25
 31
0.0
100
AcDbText
  0
LINE
  5
C3
100
AcDbEntity
  8
枠・表
  6
CONTINUOUS
 62
     6
100
AcDbLine
 10
1875.0
 20
3787.5
 30
0.0
 11
2925.0
 21
3787.5
 31
0.0
  0
TEXT
  5
C4
100
AcDbEntity
  8
枠・表
  6
CONTINUOUS
 62
     2
100
AcDbText
 10
1890.0
 20
3798.75
 30
0.0
 40
60.0
  1
ＮＬ２２１-７５ＷＭＹ
 41
0.49719
  7
EXCADSTD
 72
     5
 11
2274.000006
 21
3798.75
 31
0.0
100
AcDbText
  0
TEXT
  5
C5
100
AcDbEntity
  8
枠・表
  6
CONTINUOUS
 62
     2
100
AcDbText
 10
2816.25
 20
3798.75
 30
0.0
 40
60.0
  1
２
 41
0.945
  7
EXCADSTD
 72
     5
 11
2870.25
 21
3798.75
 31
0.0
100
AcDbText
  0
TEXT
  5
C6
100
AcDbEntity
  8
枠・表
  6
CONTINUOUS
 62
     2
100
AcDbText
 10
2340.0
 20
3798.75
 30
0.0
 40
60.0
  1
アングル形止水栓（共用形）
 41
0.474923
  7
EXCADSTD
 72
     5
 11
2781.000023
 21
3798.75
 31
0.0
100
AcDbText
  0
LINE
  5
C7
100
AcDbEntity
  8
枠・表
  6
CONTINUOUS
 62
     6
100
AcDbLine
 10
1875.0
 20
3870.0
 30
0.0
 11
2925.0
 21
3870.0
 31
0.0
  0
LINE
  5
C8
100
AcDbEntity
  8
枠・表
  6
CONTINUOUS
 62
     6
100
AcDbLine
 10
1875.0
 20
3787.5
 30
0.0
 11
1875.0
 21
3952.5
 31
0.0
  0
LINE
  5
C9
100
AcDbEntity
  8
枠・表
  6
CONTINUOUS
 62
     6
100
AcDbLine
 10
2325.0
 20
3787.5
 30
0.0
 11
2325.0
 21
3952.5
 31
0.0
  0
LINE
  5
CA
100
AcDbEntity
  8
枠・表
  6
CONTINUOUS
 62
     6
100
AcDbLine
 10
2775.0
 20
3787.5
 30
0.0
 11
2775.0
 21
3952.5
 31
0.0
  0
LINE
  5
CB
100
AcDbEntity
  8
枠・表
  6
CONTINUOUS
 62
     6
100
AcDbLine
 10
2925.0
 20
3787.5
 30
0.0
 11
2925.0
 21
3952.5
 31
0.0
  0
TEXT
  5
CC
100
AcDbEntity
  8
枠・表
  6
CONTINUOUS
 62
     2
100
AcDbText
 10
2816.25
 20
3881.25
 30
0.0
 40
60.0
  1
２
 41
0.945
  7
EXCADSTD
 72
     5
 11
2870.25
 21
3881.25
 31
0.0
100
AcDbText
  0
TEXT
  5
CD
100
AcDbEntity
  8
枠・表
  6
CONTINUOUS
 62
     2
100
AcDbText
 10
1890.0
 20
3963.75
 30
0.0
 40
60.0
  1
止水栓手配品番（アングル形の場合）
 41
0.681882
  7
EXCADSTD
 72
     5
 11
2717.999997
 21
3963.75
 31
0.0
100
AcDbText
  0
LINE
  5
CE
100
AcDbEntity
  8
枠・表
  6
CONTINUOUS
 62
     6
100
AcDbLine
 10
1875.0
 20
3705.0
 30
0.0
 11
2925.0
 21
3705.0
 31
0.0
  0
TEXT
  5
CF
100
AcDbEntity
  8
枠・表
  6
CONTINUOUS
 62
     2
100
AcDbText
 10
1890.0
 20
3633.75
 30
0.0
 40
60.0
  1
ＮＬ３０Ｓ４０
 41
0.528
  7
EXCADSTD
 72
     5
 11
2154.000004
 21
3633.75
 31
0.0
100
AcDbText
  0
LINE
  5
D0
100
AcDbEntity
  8
枠・表
  6
CONTINUOUS
 62
     6
100
AcDbLine
 10
1875.0
 20
3540.0
 30
0.0
 11
2925.0
 21
3540.0
 31
0.0
  0
TEXT
  5
D1
100
AcDbEntity
  8
枠・表
  6
CONTINUOUS
 62
     2
100
AcDbText
 10
2816.25
 20
3551.25
 30
0.0
 40
60.0
  1
２
 41
0.945
  7
EXCADSTD
 72
     5
 11
2870.25
 21
3551.25
 31
0.0
100
AcDbText
  0
LINE
  5
D2
100
AcDbEntity
  8
枠・表
  6
CONTINUOUS
 62
     6
100
AcDbLine
 10
1875.0
 20
3622.5
 30
0.0
 11
2925.0
 21
3622.5
 31
0.0
  0
LINE
  5
D3
100
AcDbEntity
  8
枠・表
  6
CONTINUOUS
 62
     6
100
AcDbLine
 10
1875.0
 20
3540.0
 30
0.0
 11
1875.0
 21
3705.0
 31
0.0
  0
LINE
  5
D4
100
AcDbEntity
  8
枠・表
  6
CONTINUOUS
 62
     6
100
AcDbLine
 10
2325.0
 20
3540.0
 30
0.0
 11
2325.0
 21
3705.0
 31
0.0
  0
LINE
  5
D5
100
AcDbEntity
  8
枠・表
  6
CONTINUOUS
 62
     6
100
AcDbLine
 10
2775.0
 20
3540.0
 30
0.0
 11
2775.0
 21
3705.0
 31
0.0
  0
LINE
  5
D6
100
AcDbEntity
  8
枠・表
  6
CONTINUOUS
 62
     6
100
AcDbLine
 10
2925.0
 20
3540.0
 30
0.0
 11
2925.0
 21
3705.0
 31
0.0
  0
TEXT
  5
D7
100
AcDbEntity
  8
枠・表
  6
CONTINUOUS
 62
     2
100
AcDbText
 10
2816.25
 20
3633.75
 30
0.0
 40
60.0
  1
２
 41
0.945
  7
EXCADSTD
 72
     5
 11
2870.25
 21
3633.75
 31
0.0
100
AcDbText
  0
TEXT
  5
D8
100
AcDbEntity
  8
枠・表
  6
CONTINUOUS
 62
     2
100
AcDbText
 10
1890.0
 20
3716.25
 30
0.0
 40
60.0
  1
止水栓手配品番（ストレート形の場合）
 41
0.681333
  7
EXCADSTD
 72
     5
 11
2765.999997
 21
3716.25
 31
0.0
100
AcDbText
  0
TEXT
  5
D9
100
AcDbEntity
  8
枠・表
  6
CONTINUOUS
 62
     2
100
AcDbText
 10
1890.0
 20
3551.25
 30
0.0
 40
60.0
  1
ＮＬ２１１-３３０ＷＭＹ
 41
0.518222
  7
EXCADSTD
 72
     5
 11
2327.24999
 21
3551.25
 31
0.0
100
AcDbText
  0
TEXT
  5
DA
100
AcDbEntity
  8
枠・表
  6
CONTINUOUS
 62
     2
100
AcDbText
 10
2340.0
 20
3551.25
 30
0.0
 40
60.0
  1
ストレート形止水栓（共用形）
 41
0.435
  7
EXCADSTD
 72
     5
 11
2775.00005
 21
3551.25
 31
0.0
100
AcDbText
  0
TEXT
  5
DB
100
AcDbEntity
  8
枠・表
  6
CONTINUOUS
 62
     2
100
AcDbText
 10
2340.0
 20
3633.75
 30
0.0
 40
60.0
  1
フレキシブルパイプ
 41
0.648667
  7
EXCADSTD
 72
     5
 11
2756.999992
 21
3633.75
 31
0.0
100
AcDbText
  0
TEXT
  5
DC
100
AcDbEntity
  8
枠・表
  6
CONTINUOUS
 62
     2
100
AcDbText
 10
1890.0
 20
4046.25
 30
0.0
 40
60.0
  1
ＬＵＭ６０１Ｋ（Ｈ）
 41
0.5208
  7
EXCADSTD
 72
     5
 11
2262.000006
 21
4046.25
 31
0.0
100
AcDbText
  0
TEXT
  5
DE
100
AcDbEntity
  8
枠・表
  6
CONTINUOUS
 62
     2
100
AcDbText
 10
1155.0
 20
232.5
 30
0.0
 40
67.5
  1
ジャニス工業株式会社
 41
1.0
  7
EXCADTTF1
 72
     5
 11
2055.0
 21
232.5
 31
0.0
100
AcDbText
  0
TEXT
  5
DF
100
AcDbEntity
  8
枠・表
  6
CONTINUOUS
 62
     2
100
AcDbText
 10
2175.0
 20
442.5
 30
0.0
 40
75.0
  1
ＬＵ６０３ＨＡＤ（Ｙ）Ｒ１
 41
0.449723
  7
EXCADSTD
 72
     5
 11
2696.999981
 21
442.5
 31
0.0
100
AcDbText
  0
TEXT
  5
E0
100
AcDbEntity
  8
枠・表
  6
CONTINUOUS
 62
     2
100
AcDbText
 10
2175.0
 20
367.5
 30
0.0
 40
75.0
  1
ＬＵＭ６０１Ｋ（Ｈ）
 41
0.4536
  7
EXCADSTD
 72
     5
 11
2579.999986
 21
367.5
 31
0.0
100
AcDbText
  0
TEXT
  5
E1
100
AcDbEntity
  8
枠・表
  6
CONTINUOUS
 62
     6
100
AcDbText
 10
273.066174
 20
220.42511
 30
0.0
 40
37.500008
  1
２１
 41
0.75768
  7
EXCADSTD
 72
     5
 11
335.074175
 21
220.42511
 31
0.0
100
AcDbText
  0
TEXT
  5
E2
100
AcDbEntity
  8
枠・表
  6
CONTINUOUS
 62
     6
100
AcDbText
 10
352.903668
 20
220.425106
 30
0.0
 40
37.500008
  1
１０
 41
0.75768
  7
EXCADSTD
 72
     5
 11
414.911669
 21
220.425106
 31
0.0
100
AcDbText
  0
TEXT
  5
E3
100
AcDbEntity
  8
枠・表
  6
CONTINUOUS
 62
     6
100
AcDbText
 10
430.266168
 20
220.425106
 30
0.0
 40
37.500008
  1
２９
 41
0.75768
  7
EXCADSTD
 72
     5
 11
492.274169
 21
220.425106
 31
0.0
100
AcDbText
  0
TEXT
  5
E4
100
AcDbEntity
  8
枠・表
  6
CONTINUOUS
 62
     2
100
AcDbText
 10
1890.0
 20
4128.75
 30
0.0
 40
60.0
  1
ＬＵ６０３ＨＡＤ（Ｙ）Ｒ１
 41
0.455538
  7
EXCADSTD
 72
     5
 11
2313.000004
 21
4128.75
 31
0.0
100
AcDbText
  0
TEXT
  5
E5
100
AcDbEntity
  8
枠・表
  6
CONTINUOUS
 62
     2
100
AcDbText
 10
1905.0
 20
3463.5
 30
0.0
 40
52.5
  1
※止水栓・フレキシブルパイプは別途
 41
0.899294
  7
EXCADSTD
 72
     5
 11
2860.499997
 21
3463.5
 31
0.0
100
AcDbText
  0
TEXT
  5
E6
100
AcDbEntity
  8
枠・表
  6
CONTINUOUS
 62
     2
100
AcDbText
 10
1905.0
 20
3411.0
 30
0.0
 40
52.5
  1
※洗面化粧台
 41
0.92
  7
EXCADSTD
 72
     5
 11
2249.999999
 21
3411.0
 31
0.0
100
AcDbText
  0
TEXT
  5
E7
100
AcDbEntity
  8
枠・表
  6
CONTINUOUS
 62
     2
100
AcDbText
 10
1905.0
 20
3358.5
 30
0.0
 40
52.5
  1
　品番にＹの付く場合は、寒冷地仕様
 41
0.899294
  7
EXCADSTD
 72
     5
 11
2860.499997
 21
3358.5
 31
0.0
100
AcDbText
  0
TEXT
  5
E8
100
AcDbEntity
  8
枠・表
  6
CONTINUOUS
 62
     2
100
AcDbText
 10
1905.0
 20
3306.0
 30
0.0
 40
52.5
  1
　底板着脱式
 41
0.92
  7
EXCADSTD
 72
     5
 11
2249.999999
 21
3306.0
 31
0.0
100
AcDbText
  0
TEXT
  5
E9
100
AcDbEntity
  8
枠・表
  6
CONTINUOUS
 62
     2
100
AcDbText
 10
1905.0
 20
3253.5
 30
0.0
 40
52.5
  1
※化粧鏡台
 41
0.9264
  7
EXCADSTD
 72
     5
 11
2194.499999
 21
3253.5
 31
0.0
100
AcDbText
  0
TEXT
  5
EA
100
AcDbEntity
  8
枠・表
  6
CONTINUOUS
 62
     2
100
AcDbText
 10
1905.0
 20
3201.0
 30
0.0
 40
52.5
  1
　電源：１００Ｖ，５０/６０Ｈｚ
 41
0.876562
  7
EXCADSTD
 72
     5
 11
2771.249997
 21
3201.0
 31
0.0
100
AcDbText
  0
TEXT
  5
EB
100
AcDbEntity
  8
枠・表
  6
CONTINUOUS
 62
     2
100
AcDbText
 10
1905.0
 20
3148.5
 30
0.0
 40
52.5
  1
　コンセント容量：１２００Ｗ
 41
0.901714
  7
EXCADSTD
 72
     5
 11
2693.999998
 21
3148.5
 31
0.0
100
AcDbText
  0
TEXT
  5
EC
100
AcDbEntity
  8
枠・表
  6
CONTINUOUS
 62
     2
100
AcDbText
 10
1905.0
 20
3096.0
 30
0.0
 40
52.5
  1
　電源コードの取出しは、左右及び上側
 41
0.898667
  7
EXCADSTD
 72
     5
 11
2915.999997
 21
3096.0
 31
0.0
100
AcDbText
  0
TEXT
  5
ED
100
AcDbEntity
  8
枠・表
  6
CONTINUOUS
 62
     2
100
AcDbText
 10
1905.0
 20
3043.5
 30
0.0
 40
52.5
  1
　品番末尾にＨの付く場合は、くもり止め
 41
0.898105
  7
EXCADSTD
 72
     5
 11
2971.499997
 21
3043.5
 31
0.0
100
AcDbText
  0
TEXT
  5
EE
100
AcDbEntity
  8
枠・表
  6
CONTINUOUS
 62
     2
100
AcDbText
 10
1905.0
 20
2991.0
 30
0.0
 40
52.5
  1
　ヒーター付　
 41
0.915429
  7
EXCADSTD
 72
     5
 11
2305.499999
 21
2991.0
 31
0.0
100
AcDbText
  0
TEXT
  5
EF
100
AcDbEntity
  8
枠・表
  6
CONTINUOUS
 62
     7
100
AcDbText
 10
2178.000003
 20
227.25
 30
0.0
 40
105.0
  1
ＬＵ２１６５７０
 41
0.804
  7
EXCADSTD
 72
     5
 11
2981.999997
 21
227.25
 31
0.0
100
AcDbText
  0
POLYLINE
  5
F0
100
AcDbEntity
  8
化粧台
  6
CONTINUOUS
 62
     3
100
AcDb2dPolyline
 66
     1
 10
0.0
 20
0.0
 30
0.0
 70
   128
  0
VERTEX
  5
F1
100
AcDbEntity
  8
化粧台
  6
CONTINUOUS
 62
     3
100
AcDbVertex
100
AcDb2dVertex
 10
2450.0
 20
2900.5
 30
0.0
  0
VERTEX
  5
F2
100
AcDbEntity
  8
化粧台
  6
CONTINUOUS
 62
     3
100
AcDbVertex
100
AcDb2dVertex
 10
2404.0
 20
2920.5
 30
0.0
  0
SEQEND
  5
F3
100
AcDbEntity
  8
化粧台
  6
CONTINUOUS
 62
     3
  0
LINE
  5
F4
100
AcDbEntity
  8
化粧台
  6
CONTINUOUS
 62
     3
100
AcDbLine
 10
2405.741402
 20
2911.56465
 30
0.0
 11
2450.0
 21
2900.5
 31
0.0
  0
LINE
  5
F5
100
AcDbEntity
  8
化粧台
  6
CONTINUOUS
 62
     3
100
AcDbLine
 10
2450.0
 20
2900.5
 30
0.0
 11
2411.722293
 21
2925.3207
 31
0.0
  0
LINE
  5
F6
100
AcDbEntity
  8
化粧台
  6
EXLTYPE3
 62
     6
100
AcDbLine
 10
921.5
 20
3980.5
 30
0.0
 11
921.5
 21
3410.5
 31
0.0
  0
ARC
  5
F7
100
AcDbEntity
  8
化粧台
  6
CONTINUOUS
 62
     2
100
AcDbCircle
 10
737.219563
 20
3553.715242
 30
0.0
 40
62.719563
100
AcDbArc
 50
178.043407
 51
239.352418
  0
ARC
  5
F8
100
AcDbEntity
  8
化粧台
  6
CONTINUOUS
 62
     2
100
AcDbCircle
 10
921.5
 20
3864.726667
 30
0.0
 40
424.226667
100
AcDbArc
 50
239.352418
 51
300.647582
  0
ARC
  5
F9
100
AcDbEntity
  8
化粧台
  6
CONTINUOUS
 62
     2
100
AcDbCircle
 10
1105.780437
 20
3553.715242
 30
0.0
 40
62.719563
100
AcDbArc
 50
300.647582
 51
1.956593
  0
ARC
  5
FA
100
AcDbEntity
  8
化粧台
  6
CONTINUOUS
 62
     2
100
AcDbCircle
 10
660.724234
 20
3455.5
 30
0.0
 40
30.0
100
AcDbArc
 50
62.007737
 51
90.0
  0
ARC
  5
FB
100
AcDbEntity
  8
化粧台
  6
CONTINUOUS
 62
     2
100
AcDbCircle
 10
921.5
 20
3946.107692
 30
0.0
 40
525.607692
100
AcDbArc
 50
242.007737
 51
297.992263
  0
ARC
  5
FC
100
AcDbEntity
  8
化粧台
  6
CONTINUOUS
 62
     2
100
AcDbCircle
 10
1182.275766
 20
3455.5
 30
0.0
 40
30.0
100
AcDbArc
 50
90.0
 51
117.992263
  0
ARC
  5
FD
100
AcDbEntity
  8
化粧台
  6
CONTINUOUS
 62
     2
100
AcDbCircle
 10
630.483665
 20
3954.5
 30
0.0
 40
9.0
100
AcDbArc
 50
180.0
 51
202.13862
  0
LINE
  5
FE
100
AcDbEntity
  8
化粧台
  6
CONTINUOUS
 62
     2
100
AcDbLine
 10
621.483665
 20
3970.5
 30
0.0
 11
1221.516335
 21
3970.5
 31
0.0
  0
ARC
  5
FF
100
AcDbEntity
  8
化粧台
  6
CONTINUOUS
 62
     2
100
AcDbCircle
 10
1212.5
 20
3954.5
 30
0.0
 40
9.0
100
AcDbArc
 50
338.164861
 51
0.0
  0
ARC
  5
100
100
AcDbEntity
  8
化粧台
  6
EXLTYPE2
 62
     6
100
AcDbCircle
 10
1212.5
 20
3954.5
 30
0.0
 40
9.0
100
AcDbArc
 50
270.0
 51
338.164861
  0
LINE
  5
101
100
AcDbEntity
  8
化粧台
  6
EXLTYPE2
 62
     6
100
AcDbLine
 10
630.483665
 20
3945.5
 30
0.0
 11
1212.5
 21
3945.5
 31
0.0
  0
ARC
  5
102
100
AcDbEntity
  8
化粧台
  6
EXLTYPE2
 62
     6
100
AcDbCircle
 10
630.483665
 20
3954.5
 30
0.0
 40
9.0
100
AcDbArc
 50
202.13862
 51
270.0
  0
LINE
  5
103
100
AcDbEntity
  8
化粧台
  6
CONTINUOUS
 62
     6
100
AcDbLine
 10
726.5
 20
4003.0
 30
0.0
 11
724.5
 21
3970.5
 31
0.0
  0
LINE
  5
104
100
AcDbEntity
  8
化粧台
  6
CONTINUOUS
 62
     6
100
AcDbLine
 10
728.5
 20
3970.5
 30
0.0
 11
726.5
 21
4003.0
 31
0.0
  0
LINE
  5
105
100
AcDbEntity
  8
化粧台
  6
CONTINUOUS
 62
     6
100
AcDbLine
 10
726.5
 20
3955.5
 30
0.0
 11
726.5
 21
4018.0
 31
0.0
  0
LINE
  5
106
100
AcDbEntity
  8
化粧台
  6
CONTINUOUS
 62
     6
100
AcDbLine
 10
1116.5
 20
4003.0
 30
0.0
 11
1114.5
 21
3970.5
 31
0.0
  0
LINE
  5
107
100
AcDbEntity
  8
化粧台
  6
CONTINUOUS
 62
     6
100
AcDbLine
 10
1116.5
 20
3955.5
 30
0.0
 11
1116.5
 21
4018.0
 31
0.0
  0
LINE
  5
108
100
AcDbEntity
  8
化粧台
  6
CONTINUOUS
 62
     6
100
AcDbLine
 10
1118.5
 20
3970.5
 30
0.0
 11
1116.5
 21
4003.0
 31
0.0
  0
LINE
  5
109
100
AcDbEntity
  8
化粧台
  6
CONTINUOUS
 62
     2
100
AcDbLine
 10
621.483665
 20
3970.5
 30
0.0
 11
621.483665
 21
3495.5
 31
0.0
  0
ARC
  5
10A
100
AcDbEntity
  8
化粧台
  6
CONTINUOUS
 62
     2
100
AcDbCircle
 10
631.483665
 20
3495.5
 30
0.0
 40
10.0
100
AcDbArc
 50
180.0
 51
270.0
  0
LINE
  5
10B
100
AcDbEntity
  8
化粧台
  6
CONTINUOUS
 62
     2
100
AcDbLine
 10
631.483665
 20
3485.5
 30
0.0
 11
660.724234
 21
3485.5
 31
0.0
  0
LINE
  5
10C
100
AcDbEntity
  8
化粧台
  6
CONTINUOUS
 62
     2
100
AcDbLine
 10
1221.5
 20
3970.5
 30
0.0
 11
1221.5
 21
3495.5
 31
0.0
  0
ARC
  5
10D
100
AcDbEntity
  8
化粧台
  6
CONTINUOUS
 62
     2
100
AcDbCircle
 10
1211.5
 20
3495.5
 30
0.0
 40
10.0
100
AcDbArc
 50
270.0
 51
0.0
  0
LINE
  5
10E
100
AcDbEntity
  8
化粧台
  6
CONTINUOUS
 62
     2
100
AcDbLine
 10
1182.275766
 20
3485.5
 30
0.0
 11
1211.5
 21
3485.5
 31
0.0
  0
LINE
  5
10F
100
AcDbEntity
  8
化粧台
  6
EXLTYPE4
 62
     6
100
AcDbLine
 10
385.0
 20
3970.5
 30
0.0
 11
1594.5
 21
3970.5
 31
0.0
  0
ARC
  5
110
100
AcDbEntity
  8
化粧台
  6
CONTINUOUS
 62
     2
100
AcDbCircle
 10
974.361661
 20
3545.61393
 30
0.0
 40
300.0
100
AcDbArc
 50
121.912032
 51
177.968009
  0
ARC
  5
111
100
AcDbEntity
  8
化粧台
  6
CONTINUOUS
 62
     2
100
AcDbCircle
 10
868.638339
 20
3545.61393
 30
0.0
 40
300.0
100
AcDbArc
 50
2.031991
 51
58.087968
  0
LINE
  5
112
100
AcDbEntity
  8
化粧台
  6
CONTINUOUS
 62
     6
100
AcDbLine
 10
962.0
 20
3740.5
 30
0.0
 11
881.0
 21
3740.5
 31
0.0
  0
ARC
  5
113
100
AcDbEntity
  8
化粧台
  6
CONTINUOUS
 62
     2
100
AcDbCircle
 10
921.5
 20
3630.5
 30
0.0
 40
200.0
100
AcDbArc
 50
113.578178
 51
121.912032
  0
ARC
  5
114
100
AcDbEntity
  8
化粧台
  6
CONTINUOUS
 62
     2
100
AcDbCircle
 10
921.5
 20
3630.5
 30
0.0
 40
200.0
100
AcDbArc
 50
58.087968
 51
63.917958
  0
LINE
  5
115
100
AcDbEntity
  8
化粧台
  6
EXLTYPE3
 62
     6
100
AcDbLine
 10
834.0
 20
3875.5
 30
0.0
 11
1006.2
 21
3875.5
 31
0.0
  0
LINE
  5
116
100
AcDbEntity
  8
化粧台
  6
CONTINUOUS
 62
     2
100
AcDbLine
 10
2450.0
 20
1627.5
 30
0.0
 11
2450.0
 21
919.0
 31
0.0
  0
LINE
  5
117
100
AcDbEntity
  8
化粧台
  6
CONTINUOUS
 62
     2
100
AcDbLine
 10
2035.0
 20
919.0
 30
0.0
 11
2450.0
 21
919.0
 31
0.0
  0
LINE
  5
118
100
AcDbEntity
  8
化粧台
  6
CONTINUOUS
 62
     2
100
AcDbLine
 10
2099.0
 20
919.0
 30
0.0
 11
2099.0
 21
915.5
 31
0.0
  0
LINE
  5
119
100
AcDbEntity
  8
化粧台
  6
CONTINUOUS
 62
     2
100
AcDbLine
 10
2086.0
 20
919.0
 30
0.0
 11
2086.0
 21
915.5
 31
0.0
  0
LINE
  5
11A
100
AcDbEntity
  8
化粧台
  6
CONTINUOUS
 62
     2
100
AcDbLine
 10
2086.0
 20
915.5
 30
0.0
 11
2099.0
 21
915.5
 31
0.0
  0
LINE
  5
11B
100
AcDbEntity
  8
化粧台
  6
CONTINUOUS
 62
     2
100
AcDbLine
 10
2399.0
 20
919.0
 30
0.0
 11
2399.0
 21
915.5
 31
0.0
  0
LINE
  5
11C
100
AcDbEntity
  8
化粧台
  6
CONTINUOUS
 62
     2
100
AcDbLine
 10
2386.0
 20
919.0
 30
0.0
 11
2386.0
 21
915.5
 31
0.0
  0
LINE
  5
11D
100
AcDbEntity
  8
化粧台
  6
CONTINUOUS
 62
     2
100
AcDbLine
 10
2386.0
 20
915.5
 30
0.0
 11
2399.0
 21
915.5
 31
0.0
  0
LINE
  5
11E
100
AcDbEntity
  8
化粧台
  6
CONTINUOUS
 62
     2
100
AcDbLine
 10
2033.0
 20
1010.5
 30
0.0
 11
2018.0
 21
1010.5
 31
0.0
  0
LINE
  5
11F
100
AcDbEntity
  8
化粧台
  6
CONTINUOUS
 62
     2
100
AcDbLine
 10
2033.0
 20
1502.5
 30
0.0
 11
2018.0
 21
1502.5
 31
0.0
  0
LINE
  5
120
100
AcDbEntity
  8
化粧台
  6
CONTINUOUS
 62
     2
100
AcDbLine
 10
2033.0
 20
1502.5
 30
0.0
 11
2033.0
 21
1010.5
 31
0.0
  0
LINE
  5
121
100
AcDbEntity
  8
化粧台
  6
CONTINUOUS
 62
     2
100
AcDbLine
 10
2018.0
 20
1502.5
 30
0.0
 11
2018.0
 21
1010.5
 31
0.0
  0
ARC
  5
122
100
AcDbEntity
  8
化粧台
  6
CONTINUOUS
 62
     2
100
AcDbCircle
 10
1903.270961
 20
1982.320543
 30
0.0
 40
300.0
100
AcDbArc
 50
271.243793
 51
285.522736
  0
LINE
  5
123
100
AcDbEntity
  8
化粧台
  6
CONTINUOUS
 62
     2
100
AcDbLine
 10
2450.0
 20
1710.5
 30
0.0
 11
2450.0
 21
1515.5
 31
0.0
  0
ARC
  5
124
100
AcDbEntity
  8
化粧台
  6
CONTINUOUS
 62
     2
100
AcDbCircle
 10
2016.0
 20
1524.348954
 30
0.0
 40
6.0
100
AcDbArc
 50
270.0
 51
0.0
  0
ARC
  5
125
100
AcDbEntity
  8
化粧台
  6
CONTINUOUS
 62
     2
100
AcDbCircle
 10
2002.195705
 20
1524.348954
 30
0.0
 40
6.0
100
AcDbArc
 50
186.731084
 51
270.0
  0
ARC
  5
126
100
AcDbEntity
  8
化粧台
  6
CONTINUOUS
 62
     2
100
AcDbCircle
 10
1947.156829
 20
1514.018313
 30
0.0
 40
50.0
100
AcDbArc
 50
10.630568
 51
55.608469
  0
ARC
  5
127
100
AcDbEntity
  8
化粧台
  6
CONTINUOUS
 62
     2
100
AcDbCircle
 10
2077.071186
 20
1703.813624
 30
0.0
 40
180.0
100
AcDbArc
 50
190.650858
 51
235.608469
  0
ARC
  5
128
100
AcDbEntity
  8
化粧台
  6
CONTINUOUS
 62
     2
100
AcDbCircle
 10
1986.233392
 20
1683.628
 30
0.0
 40
10.0
100
AcDbArc
 50
92.167399
 51
105.522736
  0
LINE
  5
129
100
AcDbEntity
  8
化粧台
  6
CONTINUOUS
 62
     2
100
AcDbLine
 10
2016.0
 20
1518.348954
 30
0.0
 11
2002.195705
 21
1518.348954
 31
0.0
  0
LINE
  5
12A
100
AcDbEntity
  8
化粧台
  6
CONTINUOUS
 62
     6
100
AcDbLine
 10
2450.0
 20
1427.5
 30
0.0
 11
2482.5
 21
1425.5
 31
0.0
  0
LINE
  5
12B
100
AcDbEntity
  8
化粧台
  6
CONTINUOUS
 62
     6
100
AcDbLine
 10
2482.5
 20
1425.5
 30
0.0
 11
2450.0
 21
1423.5
 31
0.0
  0
LINE
  5
12C
100
AcDbEntity
  8
化粧台
  6
CONTINUOUS
 62
     6
100
AcDbLine
 10
2417.5
 20
1425.5
 30
0.0
 11
2497.5
 21
1425.5
 31
0.0
  0
LINE
  5
12D
100
AcDbEntity
  8
化粧台
  6
EXLTYPE2
 62
     6
100
AcDbLine
 10
2053.0
 20
1005.5
 30
0.0
 11
2053.0
 21
919.5
 31
0.0
  0
LINE
  5
12E
100
AcDbEntity
  8
化粧台
  6
EXLTYPE2
 62
     6
100
AcDbLine
 10
2068.0
 20
1005.5
 30
0.0
 11
2035.0
 21
1005.5
 31
0.0
  0
LINE
  5
12F
100
AcDbEntity
  8
化粧台
  6
EXLTYPE2
 62
     6
100
AcDbLine
 10
2145.0
 20
1019.0
 30
0.0
 11
2068.0
 21
1019.0
 31
0.0
  0
LINE
  5
130
100
AcDbEntity
  8
化粧台
  6
EXLTYPE2
 62
     6
100
AcDbLine
 10
2068.0
 20
1019.0
 30
0.0
 11
2068.0
 21
1005.5
 31
0.0
  0
LINE
  5
131
100
AcDbEntity
  8
化粧台
  6
EXLTYPE2
 62
     6
100
AcDbLine
 10
2432.0
 20
1023.0
 30
0.0
 11
2035.0
 21
1023.0
 31
0.0
  0
LINE
  5
132
100
AcDbEntity
  8
化粧台
  6
EXLTYPE2
 62
     6
100
AcDbLine
 10
2180.0
 20
1019.0
 30
0.0
 11
2180.0
 21
1005.5
 31
0.0
  0
LINE
  5
133
100
AcDbEntity
  8
化粧台
  6
EXLTYPE2
 62
     6
100
AcDbLine
 10
2180.0
 20
1005.5
 30
0.0
 11
2145.0
 21
1005.5
 31
0.0
  0
LINE
  5
134
100
AcDbEntity
  8
化粧台
  6
EXLTYPE2
 62
     6
100
AcDbLine
 10
2145.0
 20
1019.0
 30
0.0
 11
2145.0
 21
1005.5
 31
0.0
  0
LINE
  5
135
100
AcDbEntity
  8
化粧台
  6
EXLTYPE2
 62
     6
100
AcDbLine
 10
2400.0
 20
1019.0
 30
0.0
 11
2400.0
 21
1005.5
 31
0.0
  0
LINE
  5
136
100
AcDbEntity
  8
化粧台
  6
EXLTYPE2
 62
     6
100
AcDbLine
 10
2435.0
 20
1005.5
 30
0.0
 11
2400.0
 21
1005.5
 31
0.0
  0
LINE
  5
137
100
AcDbEntity
  8
化粧台
  6
EXLTYPE2
 62
     6
100
AcDbLine
 10
2400.0
 20
1019.0
 30
0.0
 11
2180.0
 21
1019.0
 31
0.0
  0
LINE
  5
138
100
AcDbEntity
  8
化粧台
  6
EXLTYPE2
 62
     6
100
AcDbLine
 10
2432.0
 20
1455.5
 30
0.0
 11
2432.0
 21
1005.5
 31
0.0
  0
LINE
  5
139
100
AcDbEntity
  8
化粧台
  6
EXLTYPE2
 62
     6
100
AcDbLine
 10
2435.0
 20
1415.5
 30
0.0
 11
2435.0
 21
1005.5
 31
0.0
  0
LINE
  5
13A
100
AcDbEntity
  8
化粧台
  6
EXLTYPE2
 62
     6
100
AcDbLine
 10
2432.0
 20
1455.5
 30
0.0
 11
2450.0
 21
1455.5
 31
0.0
  0
LINE
  5
13B
100
AcDbEntity
  8
化粧台
  6
EXLTYPE2
 62
     6
100
AcDbLine
 10
2435.0
 20
1415.5
 30
0.0
 11
2450.0
 21
1415.5
 31
0.0
  0
LINE
  5
13C
100
AcDbEntity
  8
化粧台
  6
EXLTYPE2
 62
     6
100
AcDbLine
 10
2053.0
 20
1526.5
 30
0.0
 11
2053.0
 21
1476.5
 31
0.0
  0
LINE
  5
13D
100
AcDbEntity
  8
化粧台
  6
EXLTYPE2
 62
     6
100
AcDbLine
 10
2035.5
 20
1476.5
 30
0.0
 11
2053.0
 21
1476.5
 31
0.0
  0
LINE
  5
13E
100
AcDbEntity
  8
化粧台
  6
EXLTYPE2
 62
     6
100
AcDbLine
 10
2035.5
 20
1526.5
 30
0.0
 11
2053.0
 21
1526.5
 31
0.0
  0
ARC
  5
13F
100
AcDbEntity
  8
化粧台
  6
CONTINUOUS
 62
     2
100
AcDbCircle
 10
1910.0
 20
1672.393584
 30
0.0
 40
10.0
100
AcDbArc
 50
91.243793
 51
190.650858
  0
LINE
  5
140
100
AcDbEntity
  8
化粧台
  6
CONTINUOUS
 62
     2
100
AcDbLine
 10
2021.997612
 20
1524.1797
 30
0.0
 11
2024.589613
 21
1616.028318
 31
0.0
  0
ARC
  5
141
100
AcDbEntity
  8
化粧台
  6
CONTINUOUS
 62
     2
100
AcDbCircle
 10
2016.0
 20
1524.348954
 30
0.0
 40
6.0
100
AcDbArc
 50
270.0
 51
0.0
  0
LINE
  5
142
100
AcDbEntity
  8
化粧台
  6
CONTINUOUS
 62
     2
100
AcDbLine
 10
1976.311257
 20
1682.382511
 30
0.0
 11
1996.242424
 21
1523.601661
 31
0.0
  0
ARC
  5
143
100
AcDbEntity
  8
化粧台
  6
CONTINUOUS
 62
     2
100
AcDbCircle
 10
1986.233392
 20
1683.628
 30
0.0
 40
10.0
100
AcDbArc
 50
92.167399
 51
188.218096
  0
LINE
  5
144
100
AcDbEntity
  8
化粧台
  6
CONTINUOUS
 62
     2
100
AcDbLine
 10
2016.0
 20
1518.348954
 30
0.0
 11
2002.195705
 21
1518.348954
 31
0.0
  0
ARC
  5
145
100
AcDbEntity
  8
化粧台
  6
CONTINUOUS
 62
     2
100
AcDbCircle
 10
2033.578287
 20
1615.5
 30
0.0
 40
9.0
100
AcDbArc
 50
90.0
 51
178.383521
  0
LINE
  5
146
100
AcDbEntity
  8
化粧台
  6
CONTINUOUS
 62
     2
100
AcDbLine
 10
2450.0
 20
1624.5
 30
0.0
 11
2033.578287
 21
1624.5
 31
0.0
  0
LINE
  5
147
100
AcDbEntity
  8
化粧台
  6
CONTINUOUS
 62
     2
100
AcDbLine
 10
2035.0
 20
1624.5
 30
0.0
 11
2035.0
 21
919.0
 31
0.0
  0
ARC
  5
148
100
AcDbEntity
  8
化粧台
  6
CONTINUOUS
 62
     2
100
AcDbCircle
 10
2031.468083
 20
1540.724044
 30
0.0
 40
9.0
100
AcDbArc
 50
66.893886
 51
178.383521
  0
LINE
  5
149
100
AcDbEntity
  8
化粧台
  6
CONTINUOUS
 62
     2
100
AcDbLine
 10
2031.468083
 20
1549.724044
 30
0.0
 11
2035.0
 21
1549.724044
 31
0.0
  0
ARC
  5
14A
100
AcDbEntity
  8
化粧台
  6
EXLTYPE2
 62
     6
100
AcDbCircle
 10
2055.660113
 20
1519.724044
 30
0.0
 40
30.0
100
AcDbArc
 50
73.537061
 51
90.0
  0
ARC
  5
14B
100
AcDbEntity
  8
化粧台
  6
EXLTYPE2
 62
     6
100
AcDbCircle
 10
2031.468083
 20
1540.724044
 30
0.0
 40
9.0
100
AcDbArc
 50
61.131666
 51
66.893886
  0
LINE
  5
14C
100
AcDbEntity
  8
化粧台
  6
EXLTYPE2
 62
     6
100
AcDbLine
 10
2035.0
 20
1549.724044
 30
0.0
 11
2055.660113
 21
1549.724044
 31
0.0
  0
ARC
  5
14D
100
AcDbEntity
  8
化粧台
  6
EXLTYPE2
 62
     6
100
AcDbCircle
 10
2523.439716
 20
2433.094433
 30
0.0
 40
1010.0
100
AcDbArc
 50
241.131666
 51
249.439599
  0
LINE
  5
14E
100
AcDbEntity
  8
化粧台
  6
EXLTYPE2
 62
     6
100
AcDbLine
 10
2200.572411
 20
1506.809734
 30
0.0
 11
2064.427589
 21
1548.41431
 31
0.0
  0
ARC
  5
14F
100
AcDbEntity
  8
化粧台
  6
EXLTYPE2
 62
     6
100
AcDbCircle
 10
2265.671038
 20
1446.506619
 30
0.0
 40
5.0
100
AcDbArc
 50
105.664033
 51
109.475664
  0
LINE
  5
150
100
AcDbEntity
  8
化粧台
  6
EXLTYPE2
 62
     6
100
AcDbLine
 10
2256.503001
 20
1445.5
 30
0.0
 11
2183.897084
 21
1445.5
 31
0.0
  0
LINE
  5
151
100
AcDbEntity
  8
化粧台
  6
EXLTYPE2
 62
     6
100
AcDbLine
 10
2178.93808
 20
1449.861031
 30
0.0
 11
2175.13921
 21
1479.34384
 31
0.0
  0
ARC
  5
152
100
AcDbEntity
  8
化粧台
  6
EXLTYPE2
 62
     6
100
AcDbCircle
 10
2256.503001
 20
1450.5
 30
0.0
 40
5.0
100
AcDbArc
 50
270.0
 51
336.46319
  0
ARC
  5
153
100
AcDbEntity
  8
化粧台
  6
EXLTYPE2
 62
     6
100
AcDbCircle
 10
2237.331491
 20
1526.64319
 30
0.0
 40
80.0
100
AcDbArc
 50
289.475664
 51
347.078912
  0
ARC
  5
154
100
AcDbEntity
  8
化粧台
  6
EXLTYPE2
 62
     6
100
AcDbCircle
 10
2265.671038
 20
1446.506619
 30
0.0
 40
5.0
100
AcDbArc
 50
109.475664
 51
156.46319
  0
ARC
  5
155
100
AcDbEntity
  8
化粧台
  6
EXLTYPE2
 62
     6
100
AcDbCircle
 10
2183.897084
 20
1450.5
 30
0.0
 40
5.0
100
AcDbArc
 50
187.342126
 51
270.0
  0
ARC
  5
156
100
AcDbEntity
  8
化粧台
  6
EXLTYPE2
 62
     6
100
AcDbCircle
 10
2165.221203
 20
1478.065902
 30
0.0
 40
10.0
100
AcDbArc
 50
7.342126
 51
69.439599
  0
ARC
  5
157
100
AcDbEntity
  8
化粧台
  6
EXLTYPE2
 62
     6
100
AcDbCircle
 10
2209.339887
 20
1535.5
 30
0.0
 40
30.0
100
AcDbArc
 50
253.537061
 51
270.0
  0
LINE
  5
158
100
AcDbEntity
  8
化粧台
  6
EXLTYPE2
 62
     6
100
AcDbLine
 10
2440.0
 20
1505.5
 30
0.0
 11
2209.339887
 21
1505.5
 31
0.0
  0
ARC
  5
159
100
AcDbEntity
  8
化粧台
  6
EXLTYPE2
 62
     6
100
AcDbCircle
 10
2440.0
 20
1515.5
 30
0.0
 40
10.0
100
AcDbArc
 50
270.0
 51
0.0
  0
LINE
  5
15A
100
AcDbEntity
  8
化粧台
  6
EXLTYPE2
 62
     6
100
AcDbLine
 10
2201.5
 20
1360.707107
 30
0.0
 11
2201.5
 21
1325.707107
 31
0.0
  0
LINE
  5
15B
100
AcDbEntity
  8
化粧台
  6
EXLTYPE2
 62
     6
100
AcDbLine
 10
2238.5
 20
1360.707107
 30
0.0
 11
2238.5
 21
1325.707107
 31
0.0
  0
LINE
  5
15C
100
AcDbEntity
  8
化粧台
  6
EXLTYPE2
 62
     6
100
AcDbLine
 10
2204.15
 20
1323.057107
 30
0.0
 11
2204.15
 21
1285.300361
 31
0.0
  0
LINE
  5
15D
100
AcDbEntity
  8
化粧台
  6
EXLTYPE2
 62
     6
100
AcDbLine
 10
2235.85
 20
1323.057107
 30
0.0
 11
2235.85
 21
1282.707107
 31
0.0
  0
LINE
  5
15E
100
AcDbEntity
  8
化粧台
  6
EXLTYPE2
 62
     6
100
AcDbLine
 10
2235.85
 20
1287.707107
 30
0.0
 11
2251.178125
 21
1287.707107
 31
0.0
  0
LINE
  5
15F
100
AcDbEntity
  8
化粧台
  6
EXLTYPE2
 62
     6
100
AcDbLine
 10
2216.178125
 20
1257.732429
 30
0.0
 11
2216.178125
 21
1253.207107
 31
0.0
  0
LINE
  5
160
100
AcDbEntity
  8
化粧台
  6
EXLTYPE2
 62
     6
100
AcDbLine
 10
2251.178125
 20
1287.707107
 30
0.0
 11
2251.178125
 21
1253.207107
 31
0.0
  0
LINE
  5
161
100
AcDbEntity
  8
化粧台
  6
EXLTYPE2
 62
     6
100
AcDbLine
 10
2238.5
 20
1325.707107
 30
0.0
 11
2235.85
 21
1323.057107
 31
0.0
  0
LINE
  5
162
100
AcDbEntity
  8
化粧台
  6
EXLTYPE2
 62
     6
100
AcDbLine
 10
2201.5
 20
1325.707107
 30
0.0
 11
2204.15
 21
1323.057107
 31
0.0
  0
LINE
  5
163
100
AcDbEntity
  8
化粧台
  6
EXLTYPE2
 62
     6
100
AcDbLine
 10
2196.6
 20
1360.707107
 30
0.0
 11
2243.4
 21
1360.707107
 31
0.0
  0
LINE
  5
164
100
AcDbEntity
  8
化粧台
  6
EXLTYPE2
 62
     6
100
AcDbLine
 10
2198.6
 20
1378.707107
 30
0.0
 11
2241.4
 21
1378.707107
 31
0.0
  0
LINE
  5
165
100
AcDbEntity
  8
化粧台
  6
EXLTYPE2
 62
     6
100
AcDbLine
 10
2196.6
 20
1376.707107
 30
0.0
 11
2196.6
 21
1360.707107
 31
0.0
  0
LINE
  5
166
100
AcDbEntity
  8
化粧台
  6
EXLTYPE2
 62
     6
100
AcDbLine
 10
2243.4
 20
1376.707107
 30
0.0
 11
2243.4
 21
1360.707107
 31
0.0
  0
ARC
  5
167
100
AcDbEntity
  8
化粧台
  6
EXLTYPE2
 62
     6
100
AcDbCircle
 10
2198.6
 20
1376.707107
 30
0.0
 40
2.0
100
AcDbArc
 50
90.0
 51
180.0
  0
ARC
  5
168
100
AcDbEntity
  8
化粧台
  6
EXLTYPE2
 62
     6
100
AcDbCircle
 10
2241.4
 20
1376.707107
 30
0.0
 40
2.0
100
AcDbArc
 50
0.0
 51
90.0
  0
LINE
  5
169
100
AcDbEntity
  8
化粧台
  6
EXLTYPE2
 62
     6
100
AcDbLine
 10
2210.678125
 20
1253.207107
 30
0.0
 11
2256.678125
 21
1253.207107
 31
0.0
  0
LINE
  5
16A
100
AcDbEntity
  8
化粧台
  6
EXLTYPE2
 62
     6
100
AcDbLine
 10
2212.178125
 20
1236.707107
 30
0.0
 11
2255.178125
 21
1236.707107
 31
0.0
  0
LINE
  5
16B
100
AcDbEntity
  8
化粧台
  6
EXLTYPE2
 62
     6
100
AcDbLine
 10
2256.678125
 20
1238.207107
 30
0.0
 11
2256.678125
 21
1253.207107
 31
0.0
  0
LINE
  5
16C
100
AcDbEntity
  8
化粧台
  6
EXLTYPE2
 62
     6
100
AcDbLine
 10
2210.678125
 20
1238.207107
 30
0.0
 11
2210.678125
 21
1253.207107
 31
0.0
  0
ARC
  5
16D
100
AcDbEntity
  8
化粧台
  6
EXLTYPE2
 62
     6
100
AcDbCircle
 10
2212.178125
 20
1238.207107
 30
0.0
 40
1.5
100
AcDbArc
 50
180.0
 51
270.0
  0
ARC
  5
16E
100
AcDbEntity
  8
化粧台
  6
EXLTYPE2
 62
     6
100
AcDbCircle
 10
2255.178125
 20
1238.207107
 30
0.0
 40
1.5
100
AcDbArc
 50
270.0
 51
0.0
  0
LINE
  5
16F
100
AcDbEntity
  8
化粧台
  6
EXLTYPE2
 62
     6
100
AcDbLine
 10
2204.15
 20
1323.057107
 30
0.0
 11
2235.85
 21
1323.057107
 31
0.0
  0
ARC
  5
170
100
AcDbEntity
  8
化粧台
  6
EXLTYPE2
 62
     6
100
AcDbCircle
 10
2244.15
 20
1285.300361
 30
0.0
 40
40.0
100
AcDbArc
 50
180.0
 51
216.143789
  0
ARC
  5
171
100
AcDbEntity
  8
化粧台
  6
EXLTYPE2
 62
     6
100
AcDbCircle
 10
2223.961516
 20
1270.555019
 30
0.0
 40
15.0
100
AcDbArc
 50
216.143789
 51
310.373975
  0
LINE
  5
172
100
AcDbEntity
  8
化粧台
  6
EXLTYPE2
 62
     6
100
AcDbLine
 10
2202.870011
 20
1376.707107
 30
0.0
 11
2202.870011
 21
1360.707107
 31
0.0
  0
LINE
  5
173
100
AcDbEntity
  8
化粧台
  6
EXLTYPE2
 62
     6
100
AcDbLine
 10
2213.729989
 20
1376.707107
 30
0.0
 11
2213.729989
 21
1360.707107
 31
0.0
  0
LINE
  5
174
100
AcDbEntity
  8
化粧台
  6
EXLTYPE2
 62
     6
100
AcDbLine
 10
2226.270011
 20
1376.707107
 30
0.0
 11
2226.270011
 21
1360.707107
 31
0.0
  0
LINE
  5
175
100
AcDbEntity
  8
化粧台
  6
EXLTYPE2
 62
     6
100
AcDbLine
 10
2237.129989
 20
1376.707107
 30
0.0
 11
2237.129989
 21
1360.707107
 31
0.0
  0
LINE
  5
176
100
AcDbEntity
  8
化粧台
  6
EXLTYPE2
 62
     6
100
AcDbLine
 10
2241.086239
 20
1328.707107
 30
0.0
 11
2241.086239
 21
1312.707107
 31
0.0
  0
LINE
  5
177
100
AcDbEntity
  8
化粧台
  6
EXLTYPE2
 62
     6
100
AcDbLine
 10
2253.626261
 20
1328.707107
 30
0.0
 11
2253.626261
 21
1312.707107
 31
0.0
  0
LINE
  5
178
100
AcDbEntity
  8
化粧台
  6
EXLTYPE2
 62
     6
100
AcDbLine
 10
2212.824466
 20
1236.707107
 30
0.0
 11
2212.824466
 21
1253.207107
 31
0.0
  0
LINE
  5
179
100
AcDbEntity
  8
化粧台
  6
EXLTYPE2
 62
     6
100
AcDbLine
 10
2254.531784
 20
1236.707107
 30
0.0
 11
2254.531784
 21
1253.207107
 31
0.0
  0
LINE
  5
17A
100
AcDbEntity
  8
化粧台
  6
EXLTYPE2
 62
     6
100
AcDbLine
 10
2225.394586
 20
1238.207107
 30
0.0
 11
2225.394586
 21
1253.207107
 31
0.0
  0
LINE
  5
17B
100
AcDbEntity
  8
化粧台
  6
EXLTYPE2
 62
     6
100
AcDbLine
 10
2241.961664
 20
1238.207107
 30
0.0
 11
2241.961664
 21
1253.207107
 31
0.0
  0
LINE
  5
17C
100
AcDbEntity
  8
化粧台
  6
EXLTYPE2
 62
     6
100
AcDbLine
 10
2220.928125
 20
1253.207107
 30
0.0
 11
2220.928125
 21
1238.207107
 31
0.0
  0
LINE
  5
17D
100
AcDbEntity
  8
化粧台
  6
EXLTYPE2
 62
     6
100
AcDbLine
 10
2246.428125
 20
1253.207107
 30
0.0
 11
2246.428125
 21
1238.207107
 31
0.0
  0
ARC
  5
17E
100
AcDbEntity
  8
化粧台
  6
EXLTYPE2
 62
     6
100
AcDbCircle
 10
2222.428125
 20
1238.207107
 30
0.0
 40
1.5
100
AcDbArc
 50
180.0
 51
270.0
  0
ARC
  5
17F
100
AcDbEntity
  8
化粧台
  6
EXLTYPE2
 62
     6
100
AcDbCircle
 10
2223.894586
 20
1238.207107
 30
0.0
 40
1.5
100
AcDbArc
 50
270.0
 51
0.0
  0
ARC
  5
180
100
AcDbEntity
  8
化粧台
  6
EXLTYPE2
 62
     6
100
AcDbCircle
 10
2243.461664
 20
1238.207107
 30
0.0
 40
1.5
100
AcDbArc
 50
180.0
 51
270.0
  0
ARC
  5
181
100
AcDbEntity
  8
化粧台
  6
EXLTYPE2
 62
     6
100
AcDbCircle
 10
2244.928125
 20
1238.207107
 30
0.0
 40
1.5
100
AcDbArc
 50
270.0
 51
0.0
  0
LINE
  5
182
100
AcDbEntity
  8
化粧台
  6
EXLTYPE2
 62
     6
100
AcDbLine
 10
2196.1
 20
1404.707107
 30
0.0
 11
2243.9
 21
1404.707107
 31
0.0
  0
LINE
  5
183
100
AcDbEntity
  8
化粧台
  6
EXLTYPE2
 62
     6
100
AcDbLine
 10
2186.0
 20
1438.207107
 30
0.0
 11
2254.0
 21
1438.207107
 31
0.0
  0
LINE
  5
184
100
AcDbEntity
  8
化粧台
  6
EXLTYPE2
 62
     6
100
AcDbLine
 10
2186.0
 20
1441.207107
 30
0.0
 11
2186.0
 21
1438.207107
 31
0.0
  0
LINE
  5
185
100
AcDbEntity
  8
化粧台
  6
EXLTYPE2
 62
     6
100
AcDbLine
 10
2254.0
 20
1441.207107
 30
0.0
 11
2254.0
 21
1438.207107
 31
0.0
  0
LINE
  5
186
100
AcDbEntity
  8
化粧台
  6
EXLTYPE2
 62
     6
100
AcDbLine
 10
2187.5
 20
1435.100165
 30
0.0
 11
2187.5
 21
1438.207107
 31
0.0
  0
LINE
  5
187
100
AcDbEntity
  8
化粧台
  6
EXLTYPE2
 62
     6
100
AcDbLine
 10
2252.5
 20
1435.100165
 30
0.0
 11
2252.5
 21
1438.207107
 31
0.0
  0
LINE
  5
188
100
AcDbEntity
  8
化粧台
  6
EXLTYPE2
 62
     6
100
AcDbLine
 10
2186.0
 20
1438.707107
 30
0.0
 11
2254.0
 21
1438.707107
 31
0.0
  0
LINE
  5
189
100
AcDbEntity
  8
化粧台
  6
EXLTYPE2
 62
     6
100
AcDbLine
 10
2186.0
 20
1441.207107
 30
0.0
 11
2254.0
 21
1441.207107
 31
0.0
  0
LINE
  5
18A
100
AcDbEntity
  8
化粧台
  6
EXLTYPE2
 62
     6
100
AcDbLine
 10
2186.0
 20
1441.207107
 30
0.0
 11
2191.100967
 21
1445.5
 31
0.0
  0
LINE
  5
18B
100
AcDbEntity
  8
化粧台
  6
EXLTYPE2
 62
     6
100
AcDbLine
 10
2248.899033
 20
1445.5
 30
0.0
 11
2254.0
 21
1441.207107
 31
0.0
  0
LINE
  5
18C
100
AcDbEntity
  8
化粧台
  6
EXLTYPE2
 62
     6
100
AcDbLine
 10
2196.1
 20
1404.707107
 30
0.0
 11
2196.1
 21
1416.600165
 31
0.0
  0
LINE
  5
18D
100
AcDbEntity
  8
化粧台
  6
EXLTYPE2
 62
     6
100
AcDbLine
 10
2243.9
 20
1404.707107
 30
0.0
 11
2243.9
 21
1416.600165
 31
0.0
  0
LINE
  5
18E
100
AcDbEntity
  8
化粧台
  6
EXLTYPE2
 62
     6
100
AcDbLine
 10
2187.5
 20
1435.100165
 30
0.0
 11
2252.5
 21
1435.100165
 31
0.0
  0
LINE
  5
18F
100
AcDbEntity
  8
化粧台
  6
EXLTYPE2
 62
     6
100
AcDbLine
 10
2246.0
 20
1416.600165
 30
0.0
 11
2194.0
 21
1416.600165
 31
0.0
  0
LINE
  5
190
100
AcDbEntity
  8
化粧台
  6
EXLTYPE2
 62
     6
100
AcDbLine
 10
2194.0
 20
1416.600165
 30
0.0
 11
2194.0
 21
1435.100165
 31
0.0
  0
LINE
  5
191
100
AcDbEntity
  8
化粧台
  6
EXLTYPE2
 62
     6
100
AcDbLine
 10
2246.0
 20
1416.600165
 30
0.0
 11
2246.0
 21
1435.100165
 31
0.0
  0
LINE
  5
192
100
AcDbEntity
  8
化粧台
  6
EXLTYPE2
 62
     6
100
AcDbLine
 10
2198.0
 20
1418.100165
 30
0.0
 11
2198.0
 21
1435.100165
 31
0.0
  0
LINE
  5
193
100
AcDbEntity
  8
化粧台
  6
EXLTYPE2
 62
     6
100
AcDbLine
 10
2216.0
 20
1418.100165
 30
0.0
 11
2216.0
 21
1435.100165
 31
0.0
  0
LINE
  5
194
100
AcDbEntity
  8
化粧台
  6
EXLTYPE2
 62
     6
100
AcDbLine
 10
2224.0
 20
1418.100165
 30
0.0
 11
2224.0
 21
1435.100165
 31
0.0
  0
LINE
  5
195
100
AcDbEntity
  8
化粧台
  6
EXLTYPE2
 62
     6
100
AcDbLine
 10
2242.0
 20
1418.100165
 30
0.0
 11
2242.0
 21
1435.100165
 31
0.0
  0
LINE
  5
196
100
AcDbEntity
  8
化粧台
  6
EXLTYPE2
 62
     6
100
AcDbLine
 10
2204.15
 20
1404.707107
 30
0.0
 11
2204.15
 21
1378.707107
 31
0.0
  0
LINE
  5
197
100
AcDbEntity
  8
化粧台
  6
EXLTYPE2
 62
     6
100
AcDbLine
 10
2235.85
 20
1404.707107
 30
0.0
 11
2235.85
 21
1378.707107
 31
0.0
  0
LINE
  5
198
100
AcDbEntity
  8
化粧台
  6
EXLTYPE2
 62
     6
100
AcDbLine
 10
2238.5
 20
1330.707107
 30
0.0
 11
2268.75625
 21
1330.707107
 31
0.0
  0
LINE
  5
199
100
AcDbEntity
  8
化粧台
  6
EXLTYPE2
 62
     6
100
AcDbLine
 10
2235.85
 20
1312.707107
 30
0.0
 11
2270.75625
 21
1312.707107
 31
0.0
  0
LINE
  5
19A
100
AcDbEntity
  8
化粧台
  6
EXLTYPE2
 62
     6
100
AcDbLine
 10
2265.85625
 20
1312.707107
 30
0.0
 11
2265.85625
 21
1282.707107
 31
0.0
  0
LINE
  5
19B
100
AcDbEntity
  8
化粧台
  6
EXLTYPE2
 62
     6
100
AcDbLine
 10
2251.75625
 20
1282.707107
 30
0.0
 11
2265.85625
 21
1282.707107
 31
0.0
  0
ARC
  5
19C
100
AcDbEntity
  8
化粧台
  6
EXLTYPE2
 62
     6
100
AcDbCircle
 10
2221.595911
 20
1283.630936
 30
0.0
 40
40.0
100
AcDbArc
 50
317.693553
 51
358.676594
  0
LINE
  5
19D
100
AcDbEntity
  8
化粧台
  6
EXLTYPE2
 62
     6
100
AcDbLine
 10
2270.75625
 20
1328.707107
 30
0.0
 11
2270.75625
 21
1312.707107
 31
0.0
  0
ARC
  5
19E
100
AcDbEntity
  8
化粧台
  6
EXLTYPE2
 62
     6
100
AcDbCircle
 10
2268.75625
 20
1328.707107
 30
0.0
 40
2.0
100
AcDbArc
 50
0.0
 51
90.0
  0
LINE
  5
19F
100
AcDbEntity
  8
化粧台
  6
EXLTYPE2
 62
     6
100
AcDbLine
 10
2263.20625
 20
1332.535232
 30
0.0
 11
2263.20625
 21
1330.707107
 31
0.0
  0
LINE
  5
1A0
100
AcDbEntity
  8
化粧台
  6
EXLTYPE2
 62
     6
100
AcDbLine
 10
2264.486239
 20
1328.707107
 30
0.0
 11
2264.486239
 21
1312.707107
 31
0.0
  0
ARC
  5
1A1
100
AcDbEntity
  8
化粧台
  6
EXLTYPE2
 62
     6
100
AcDbCircle
 10
2278.678125
 20
1332.535232
 30
0.0
 40
15.471875
100
AcDbArc
 50
0.0
 51
180.0
  0
ARC
  5
1A2
100
AcDbEntity
  8
化粧台
  6
EXLTYPE2
 62
     6
100
AcDbCircle
 10
2278.678125
 20
1332.535232
 30
0.0
 40
47.171875
100
AcDbArc
 50
0.0
 51
138.405648
  0
LINE
  5
1A3
100
AcDbEntity
  8
化粧台
  6
EXLTYPE2
 62
     6
100
AcDbLine
 10
2294.15
 20
1332.535232
 30
0.0
 11
2294.15
 21
1309.707107
 31
0.0
  0
LINE
  5
1A4
100
AcDbEntity
  8
化粧台
  6
EXLTYPE2
 62
     6
100
AcDbLine
 10
2325.85
 20
1309.707107
 30
0.0
 11
2325.85
 21
1332.535232
 31
0.0
  0
LINE
  5
1A5
100
AcDbEntity
  8
化粧台
  6
CONTINUOUS
 62
     6
100
AcDbLine
 10
2294.15
 20
1309.707107
 30
0.0
 11
2310.0
 21
1309.707107
 31
0.0
  0
LINE
  5
1A6
100
AcDbEntity
  8
化粧台
  6
CONTINUOUS
 62
     6
100
AcDbLine
 10
2310.0
 20
1304.707107
 30
0.0
 11
2324.0
 21
1304.707107
 31
0.0
  0
LINE
  5
1A7
100
AcDbEntity
  8
化粧台
  6
CONTINUOUS
 62
     6
100
AcDbLine
 10
2296.0
 20
1299.707107
 30
0.0
 11
2310.0
 21
1299.707107
 31
0.0
  0
LINE
  5
1A8
100
AcDbEntity
  8
化粧台
  6
CONTINUOUS
 62
     6
100
AcDbLine
 10
2310.0
 20
1294.707107
 30
0.0
 11
2324.0
 21
1294.707107
 31
0.0
  0
LINE
  5
1A9
100
AcDbEntity
  8
化粧台
  6
CONTINUOUS
 62
     6
100
AcDbLine
 10
2296.0
 20
1289.707107
 30
0.0
 11
2310.0
 21
1289.707107
 31
0.0
  0
LINE
  5
1AA
100
AcDbEntity
  8
化粧台
  6
CONTINUOUS
 62
     6
100
AcDbLine
 10
2310.0
 20
1284.707107
 30
0.0
 11
2324.0
 21
1284.707107
 31
0.0
  0
LINE
  5
1AB
100
AcDbEntity
  8
化粧台
  6
CONTINUOUS
 62
     6
100
AcDbLine
 10
2296.0
 20
1279.707107
 30
0.0
 11
2310.0
 21
1279.707107
 31
0.0
  0
LINE
  5
1AC
100
AcDbEntity
  8
化粧台
  6
CONTINUOUS
 62
     6
100
AcDbLine
 10
2310.0
 20
1274.707107
 30
0.0
 11
2324.0
 21
1274.707107
 31
0.0
  0
LINE
  5
1AD
100
AcDbEntity
  8
化粧台
  6
CONTINUOUS
 62
     6
100
AcDbLine
 10
2296.0
 20
1269.707107
 30
0.0
 11
2310.0
 21
1269.707107
 31
0.0
  0
LINE
  5
1AE
100
AcDbEntity
  8
化粧台
  6
CONTINUOUS
 62
     6
100
AcDbLine
 10
2310.0
 20
1264.707107
 30
0.0
 11
2324.0
 21
1264.707107
 31
0.0
  0
LINE
  5
1AF
100
AcDbEntity
  8
化粧台
  6
CONTINUOUS
 62
     6
100
AcDbLine
 10
2296.0
 20
1259.707107
 30
0.0
 11
2310.0
 21
1259.707107
 31
0.0
  0
LINE
  5
1B0
100
AcDbEntity
  8
化粧台
  6
CONTINUOUS
 62
     6
100
AcDbLine
 10
2310.0
 20
1254.707107
 30
0.0
 11
2324.0
 21
1254.707107
 31
0.0
  0
LINE
  5
1B1
100
AcDbEntity
  8
化粧台
  6
CONTINUOUS
 62
     6
100
AcDbLine
 10
2296.0
 20
1249.707107
 30
0.0
 11
2310.0
 21
1249.707107
 31
0.0
  0
LINE
  5
1B2
100
AcDbEntity
  8
化粧台
  6
CONTINUOUS
 62
     6
100
AcDbLine
 10
2310.0
 20
1244.707107
 30
0.0
 11
2324.0
 21
1244.707107
 31
0.0
  0
LINE
  5
1B3
100
AcDbEntity
  8
化粧台
  6
CONTINUOUS
 62
     6
100
AcDbLine
 10
2296.0
 20
1239.707107
 30
0.0
 11
2310.0
 21
1239.707107
 31
0.0
  0
LINE
  5
1B4
100
AcDbEntity
  8
化粧台
  6
CONTINUOUS
 62
     6
100
AcDbLine
 10
2310.0
 20
1234.707107
 30
0.0
 11
2324.0
 21
1234.707107
 31
0.0
  0
LINE
  5
1B5
100
AcDbEntity
  8
化粧台
  6
CONTINUOUS
 62
     6
100
AcDbLine
 10
2296.0
 20
1229.707107
 30
0.0
 11
2310.0
 21
1229.707107
 31
0.0
  0
LINE
  5
1B6
100
AcDbEntity
  8
化粧台
  6
CONTINUOUS
 62
     6
100
AcDbLine
 10
2310.0
 20
1224.707107
 30
0.0
 11
2324.0
 21
1224.707107
 31
0.0
  0
LINE
  5
1B7
100
AcDbEntity
  8
化粧台
  6
CONTINUOUS
 62
     6
100
AcDbLine
 10
2296.0
 20
1219.707107
 30
0.0
 11
2310.0
 21
1219.707107
 31
0.0
  0
LINE
  5
1B8
100
AcDbEntity
  8
化粧台
  6
CONTINUOUS
 62
     6
100
AcDbLine
 10
2310.0
 20
1214.707107
 30
0.0
 11
2324.0
 21
1214.707107
 31
0.0
  0
LINE
  5
1B9
100
AcDbEntity
  8
化粧台
  6
CONTINUOUS
 62
     6
100
AcDbLine
 10
2296.0
 20
1209.707107
 30
0.0
 11
2310.0
 21
1209.707107
 31
0.0
  0
LINE
  5
1BA
100
AcDbEntity
  8
化粧台
  6
CONTINUOUS
 62
     6
100
AcDbLine
 10
2310.0
 20
1204.707107
 30
0.0
 11
2324.0
 21
1204.707107
 31
0.0
  0
LINE
  5
1BB
100
AcDbEntity
  8
化粧台
  6
CONTINUOUS
 62
     6
100
AcDbLine
 10
2296.0
 20
1199.707107
 30
0.0
 11
2310.0
 21
1199.707107
 31
0.0
  0
LINE
  5
1BC
100
AcDbEntity
  8
化粧台
  6
CONTINUOUS
 62
     6
100
AcDbLine
 10
2310.0
 20
1194.707107
 30
0.0
 11
2324.0
 21
1194.707107
 31
0.0
  0
LINE
  5
1BD
100
AcDbEntity
  8
化粧台
  6
CONTINUOUS
 62
     6
100
AcDbLine
 10
2296.0
 20
1189.707107
 30
0.0
 11
2310.0
 21
1189.707107
 31
0.0
  0
LINE
  5
1BE
100
AcDbEntity
  8
化粧台
  6
CONTINUOUS
 62
     6
100
AcDbLine
 10
2310.0
 20
1184.707107
 30
0.0
 11
2324.0
 21
1184.707107
 31
0.0
  0
LINE
  5
1BF
100
AcDbEntity
  8
化粧台
  6
CONTINUOUS
 62
     6
100
AcDbLine
 10
2296.0
 20
1179.707107
 30
0.0
 11
2310.0
 21
1179.707107
 31
0.0
  0
LINE
  5
1C0
100
AcDbEntity
  8
化粧台
  6
CONTINUOUS
 62
     6
100
AcDbLine
 10
2310.0
 20
1174.707107
 30
0.0
 11
2324.0
 21
1174.707107
 31
0.0
  0
LINE
  5
1C1
100
AcDbEntity
  8
化粧台
  6
CONTINUOUS
 62
     6
100
AcDbLine
 10
2296.0
 20
1169.707107
 30
0.0
 11
2310.0
 21
1169.707107
 31
0.0
  0
LINE
  5
1C2
100
AcDbEntity
  8
化粧台
  6
CONTINUOUS
 62
     6
100
AcDbLine
 10
2310.0
 20
1164.707107
 30
0.0
 11
2324.0
 21
1164.707107
 31
0.0
  0
LINE
  5
1C3
100
AcDbEntity
  8
化粧台
  6
CONTINUOUS
 62
     6
100
AcDbLine
 10
2296.0
 20
1159.707107
 30
0.0
 11
2310.0
 21
1159.707107
 31
0.0
  0
LINE
  5
1C4
100
AcDbEntity
  8
化粧台
  6
CONTINUOUS
 62
     6
100
AcDbLine
 10
2310.0
 20
1154.707107
 30
0.0
 11
2324.0
 21
1154.707107
 31
0.0
  0
LINE
  5
1C5
100
AcDbEntity
  8
化粧台
  6
CONTINUOUS
 62
     6
100
AcDbLine
 10
2296.0
 20
1149.707107
 30
0.0
 11
2310.0
 21
1149.707107
 31
0.0
  0
LINE
  5
1C6
100
AcDbEntity
  8
化粧台
  6
CONTINUOUS
 62
     6
100
AcDbLine
 10
2310.0
 20
1144.707107
 30
0.0
 11
2324.0
 21
1144.707107
 31
0.0
  0
LINE
  5
1C7
100
AcDbEntity
  8
化粧台
  6
CONTINUOUS
 62
     6
100
AcDbLine
 10
2296.0
 20
1139.707107
 30
0.0
 11
2310.0
 21
1139.707107
 31
0.0
  0
LINE
  5
1C8
100
AcDbEntity
  8
化粧台
  6
CONTINUOUS
 62
     6
100
AcDbLine
 10
2310.0
 20
1134.707107
 30
0.0
 11
2324.0
 21
1134.707107
 31
0.0
  0
LINE
  5
1C9
100
AcDbEntity
  8
化粧台
  6
CONTINUOUS
 62
     6
100
AcDbLine
 10
2296.0
 20
1129.707107
 30
0.0
 11
2310.0
 21
1129.707107
 31
0.0
  0
LINE
  5
1CA
100
AcDbEntity
  8
化粧台
  6
CONTINUOUS
 62
     6
100
AcDbLine
 10
2310.0
 20
1124.707107
 30
0.0
 11
2324.0
 21
1124.707107
 31
0.0
  0
LINE
  5
1CB
100
AcDbEntity
  8
化粧台
  6
CONTINUOUS
 62
     6
100
AcDbLine
 10
2296.0
 20
1119.707107
 30
0.0
 11
2310.0
 21
1119.707107
 31
0.0
  0
LINE
  5
1CC
100
AcDbEntity
  8
化粧台
  6
CONTINUOUS
 62
     6
100
AcDbLine
 10
2310.0
 20
1114.707107
 30
0.0
 11
2324.0
 21
1114.707107
 31
0.0
  0
LINE
  5
1CD
100
AcDbEntity
  8
化粧台
  6
CONTINUOUS
 62
     6
100
AcDbLine
 10
2296.0
 20
1109.707107
 30
0.0
 11
2310.0
 21
1109.707107
 31
0.0
  0
LINE
  5
1CE
100
AcDbEntity
  8
化粧台
  6
CONTINUOUS
 62
     6
100
AcDbLine
 10
2310.0
 20
1104.707107
 30
0.0
 11
2324.0
 21
1104.707107
 31
0.0
  0
LINE
  5
1CF
100
AcDbEntity
  8
化粧台
  6
CONTINUOUS
 62
     6
100
AcDbLine
 10
2296.0
 20
1099.707107
 30
0.0
 11
2310.0
 21
1099.707107
 31
0.0
  0
LINE
  5
1D0
100
AcDbEntity
  8
化粧台
  6
CONTINUOUS
 62
     6
100
AcDbLine
 10
2310.0
 20
1094.707107
 30
0.0
 11
2324.0
 21
1094.707107
 31
0.0
  0
LINE
  5
1D1
100
AcDbEntity
  8
化粧台
  6
CONTINUOUS
 62
     6
100
AcDbLine
 10
2296.0
 20
1089.707107
 30
0.0
 11
2310.0
 21
1089.707107
 31
0.0
  0
LINE
  5
1D2
100
AcDbEntity
  8
化粧台
  6
CONTINUOUS
 62
     6
100
AcDbLine
 10
2310.0
 20
1084.707107
 30
0.0
 11
2324.0
 21
1084.707107
 31
0.0
  0
LINE
  5
1D3
100
AcDbEntity
  8
化粧台
  6
CONTINUOUS
 62
     6
100
AcDbLine
 10
2296.0
 20
1079.707107
 30
0.0
 11
2310.0
 21
1079.707107
 31
0.0
  0
LINE
  5
1D4
100
AcDbEntity
  8
化粧台
  6
CONTINUOUS
 62
     6
100
AcDbLine
 10
2310.0
 20
1074.707107
 30
0.0
 11
2324.0
 21
1074.707107
 31
0.0
  0
LINE
  5
1D5
100
AcDbEntity
  8
化粧台
  6
CONTINUOUS
 62
     6
100
AcDbLine
 10
2296.0
 20
1069.707107
 30
0.0
 11
2310.0
 21
1069.707107
 31
0.0
  0
LINE
  5
1D6
100
AcDbEntity
  8
化粧台
  6
CONTINUOUS
 62
     6
100
AcDbLine
 10
2310.0
 20
1064.707107
 30
0.0
 11
2324.0
 21
1064.707107
 31
0.0
  0
LINE
  5
1D7
100
AcDbEntity
  8
化粧台
  6
CONTINUOUS
 62
     6
100
AcDbLine
 10
2296.0
 20
1059.707107
 30
0.0
 11
2310.0
 21
1059.707107
 31
0.0
  0
LINE
  5
1D8
100
AcDbEntity
  8
化粧台
  6
CONTINUOUS
 62
     6
100
AcDbLine
 10
2310.0
 20
1054.707107
 30
0.0
 11
2324.0
 21
1054.707107
 31
0.0
  0
LINE
  5
1D9
100
AcDbEntity
  8
化粧台
  6
CONTINUOUS
 62
     6
100
AcDbLine
 10
2296.0
 20
1049.707107
 30
0.0
 11
2310.0
 21
1049.707107
 31
0.0
  0
LINE
  5
1DA
100
AcDbEntity
  8
化粧台
  6
CONTINUOUS
 62
     6
100
AcDbLine
 10
2310.0
 20
1044.707107
 30
0.0
 11
2324.0
 21
1044.707107
 31
0.0
  0
LINE
  5
1DB
100
AcDbEntity
  8
化粧台
  6
CONTINUOUS
 62
     6
100
AcDbLine
 10
2296.0
 20
1039.707107
 30
0.0
 11
2310.0
 21
1039.707107
 31
0.0
  0
LINE
  5
1DC
100
AcDbEntity
  8
化粧台
  6
CONTINUOUS
 62
     6
100
AcDbLine
 10
2310.0
 20
1034.707107
 30
0.0
 11
2324.0
 21
1034.707107
 31
0.0
  0
LINE
  5
1DD
100
AcDbEntity
  8
化粧台
  6
CONTINUOUS
 62
     6
100
AcDbLine
 10
2296.0
 20
1029.707107
 30
0.0
 11
2310.0
 21
1029.707107
 31
0.0
  0
LINE
  5
1DE
100
AcDbEntity
  8
化粧台
  6
CONTINUOUS
 62
     6
100
AcDbLine
 10
2310.0
 20
1024.707107
 30
0.0
 11
2324.0
 21
1024.707107
 31
0.0
  0
LINE
  5
1DF
100
AcDbEntity
  8
化粧台
  6
CONTINUOUS
 62
     6
100
AcDbLine
 10
2296.0
 20
1019.707107
 30
0.0
 11
2310.0
 21
1019.707107
 31
0.0
  0
LINE
  5
1E0
100
AcDbEntity
  8
化粧台
  6
CONTINUOUS
 62
     6
100
AcDbLine
 10
2310.0
 20
1014.707107
 30
0.0
 11
2324.0
 21
1014.707107
 31
0.0
  0
POLYLINE
  5
1E1
100
AcDbEntity
  8
化粧台
  6
EXLTYPE2
 62
     6
100
AcDb2dPolyline
 66
     1
 10
0.0
 20
0.0
 30
0.0
 70
   128
  0
VERTEX
  5
1E2
100
AcDbEntity
  8
化粧台
  6
EXLTYPE2
 62
     6
100
AcDbVertex
100
AcDb2dVertex
 10
2325.110051
 20
915.5
 30
0.0
  0
VERTEX
  5
1E3
100
AcDbEntity
  8
化粧台
  6
EXLTYPE2
 62
     6
100
AcDbVertex
100
AcDb2dVertex
 10
2327.5
 20
917.207107
 30
0.0
  0
VERTEX
  5
1E4
100
AcDbEntity
  8
化粧台
  6
EXLTYPE2
 62
     6
100
AcDbVertex
100
AcDb2dVertex
 10
2324.0
 20
919.707107
 30
0.0
  0
VERTEX
  5
1E5
100
AcDbEntity
  8
化粧台
  6
EXLTYPE2
 62
     6
100
AcDbVertex
100
AcDb2dVertex
 10
2327.5
 20
922.207107
 30
0.0
  0
VERTEX
  5
1E6
100
AcDbEntity
  8
化粧台
  6
EXLTYPE2
 62
     6
100
AcDbVertex
100
AcDb2dVertex
 10
2324.0
 20
924.707107
 30
0.0
  0
VERTEX
  5
1E7
100
AcDbEntity
  8
化粧台
  6
EXLTYPE2
 62
     6
100
AcDbVertex
100
AcDb2dVertex
 10
2327.5
 20
927.207107
 30
0.0
  0
VERTEX
  5
1E8
100
AcDbEntity
  8
化粧台
  6
EXLTYPE2
 62
     6
100
AcDbVertex
100
AcDb2dVertex
 10
2324.0
 20
929.707107
 30
0.0
  0
VERTEX
  5
1E9
100
AcDbEntity
  8
化粧台
  6
EXLTYPE2
 62
     6
100
AcDbVertex
100
AcDb2dVertex
 10
2327.5
 20
932.207107
 30
0.0
  0
VERTEX
  5
1EA
100
AcDbEntity
  8
化粧台
  6
EXLTYPE2
 62
     6
100
AcDbVertex
100
AcDb2dVertex
 10
2324.0
 20
934.707107
 30
0.0
  0
VERTEX
  5
1EB
100
AcDbEntity
  8
化粧台
  6
EXLTYPE2
 62
     6
100
AcDbVertex
100
AcDb2dVertex
 10
2327.5
 20
937.207107
 30
0.0
  0
VERTEX
  5
1EC
100
AcDbEntity
  8
化粧台
  6
EXLTYPE2
 62
     6
100
AcDbVertex
100
AcDb2dVertex
 10
2324.0
 20
939.707107
 30
0.0
  0
VERTEX
  5
1ED
100
AcDbEntity
  8
化粧台
  6
EXLTYPE2
 62
     6
100
AcDbVertex
100
AcDb2dVertex
 10
2327.5
 20
942.207107
 30
0.0
  0
VERTEX
  5
1EE
100
AcDbEntity
  8
化粧台
  6
EXLTYPE2
 62
     6
100
AcDbVertex
100
AcDb2dVertex
 10
2324.0
 20
944.707107
 30
0.0
  0
VERTEX
  5
1EF
100
AcDbEntity
  8
化粧台
  6
EXLTYPE2
 62
     6
100
AcDbVertex
100
AcDb2dVertex
 10
2327.5
 20
947.207107
 30
0.0
  0
VERTEX
  5
1F0
100
AcDbEntity
  8
化粧台
  6
EXLTYPE2
 62
     6
100
AcDbVertex
100
AcDb2dVertex
 10
2324.0
 20
949.707107
 30
0.0
  0
VERTEX
  5
1F1
100
AcDbEntity
  8
化粧台
  6
EXLTYPE2
 62
     6
100
AcDbVertex
100
AcDb2dVertex
 10
2327.5
 20
952.207107
 30
0.0
  0
VERTEX
  5
1F2
100
AcDbEntity
  8
化粧台
  6
EXLTYPE2
 62
     6
100
AcDbVertex
100
AcDb2dVertex
 10
2324.0
 20
954.707107
 30
0.0
  0
VERTEX
  5
1F3
100
AcDbEntity
  8
化粧台
  6
EXLTYPE2
 62
     6
100
AcDbVertex
100
AcDb2dVertex
 10
2327.5
 20
957.207107
 30
0.0
  0
VERTEX
  5
1F4
100
AcDbEntity
  8
化粧台
  6
EXLTYPE2
 62
     6
100
AcDbVertex
100
AcDb2dVertex
 10
2324.0
 20
959.707107
 30
0.0
  0
VERTEX
  5
1F5
100
AcDbEntity
  8
化粧台
  6
EXLTYPE2
 62
     6
100
AcDbVertex
100
AcDb2dVertex
 10
2327.5
 20
962.207107
 30
0.0
  0
VERTEX
  5
1F6
100
AcDbEntity
  8
化粧台
  6
EXLTYPE2
 62
     6
100
AcDbVertex
100
AcDb2dVertex
 10
2324.0
 20
964.707107
 30
0.0
  0
VERTEX
  5
1F7
100
AcDbEntity
  8
化粧台
  6
EXLTYPE2
 62
     6
100
AcDbVertex
100
AcDb2dVertex
 10
2327.5
 20
967.207107
 30
0.0
  0
VERTEX
  5
1F8
100
AcDbEntity
  8
化粧台
  6
EXLTYPE2
 62
     6
100
AcDbVertex
100
AcDb2dVertex
 10
2324.0
 20
969.707107
 30
0.0
  0
VERTEX
  5
1F9
100
AcDbEntity
  8
化粧台
  6
EXLTYPE2
 62
     6
100
AcDbVertex
100
AcDb2dVertex
 10
2327.5
 20
972.207107
 30
0.0
  0
VERTEX
  5
1FA
100
AcDbEntity
  8
化粧台
  6
EXLTYPE2
 62
     6
100
AcDbVertex
100
AcDb2dVertex
 10
2324.0
 20
974.707107
 30
0.0
  0
VERTEX
  5
1FB
100
AcDbEntity
  8
化粧台
  6
EXLTYPE2
 62
     6
100
AcDbVertex
100
AcDb2dVertex
 10
2327.5
 20
977.207107
 30
0.0
  0
VERTEX
  5
1FC
100
AcDbEntity
  8
化粧台
  6
EXLTYPE2
 62
     6
100
AcDbVertex
100
AcDb2dVertex
 10
2324.0
 20
979.707107
 30
0.0
  0
VERTEX
  5
1FD
100
AcDbEntity
  8
化粧台
  6
EXLTYPE2
 62
     6
100
AcDbVertex
100
AcDb2dVertex
 10
2327.5
 20
982.207107
 30
0.0
  0
VERTEX
  5
1FE
100
AcDbEntity
  8
化粧台
  6
EXLTYPE2
 62
     6
100
AcDbVertex
100
AcDb2dVertex
 10
2324.0
 20
984.707107
 30
0.0
  0
VERTEX
  5
1FF
100
AcDbEntity
  8
化粧台
  6
EXLTYPE2
 62
     6
100
AcDbVertex
100
AcDb2dVertex
 10
2327.5
 20
987.207107
 30
0.0
  0
VERTEX
  5
200
100
AcDbEntity
  8
化粧台
  6
EXLTYPE2
 62
     6
100
AcDbVertex
100
AcDb2dVertex
 10
2324.0
 20
989.707107
 30
0.0
  0
VERTEX
  5
201
100
AcDbEntity
  8
化粧台
  6
EXLTYPE2
 62
     6
100
AcDbVertex
100
AcDb2dVertex
 10
2327.5
 20
992.207107
 30
0.0
  0
VERTEX
  5
202
100
AcDbEntity
  8
化粧台
  6
EXLTYPE2
 62
     6
100
AcDbVertex
100
AcDb2dVertex
 10
2324.0
 20
994.707107
 30
0.0
  0
VERTEX
  5
203
100
AcDbEntity
  8
化粧台
  6
EXLTYPE2
 62
     6
100
AcDbVertex
100
AcDb2dVertex
 10
2327.5
 20
997.207107
 30
0.0
  0
VERTEX
  5
204
100
AcDbEntity
  8
化粧台
  6
EXLTYPE2
 62
     6
100
AcDbVertex
100
AcDb2dVertex
 10
2324.0
 20
999.707107
 30
0.0
  0
VERTEX
  5
205
100
AcDbEntity
  8
化粧台
  6
EXLTYPE2
 62
     6
100
AcDbVertex
100
AcDb2dVertex
 10
2327.5
 20
1002.207107
 30
0.0
  0
VERTEX
  5
206
100
AcDbEntity
  8
化粧台
  6
EXLTYPE2
 62
     6
100
AcDbVertex
100
AcDb2dVertex
 10
2324.0
 20
1004.707107
 30
0.0
  0
VERTEX
  5
207
100
AcDbEntity
  8
化粧台
  6
EXLTYPE2
 62
     6
100
AcDbVertex
100
AcDb2dVertex
 10
2327.5
 20
1007.207107
 30
0.0
  0
VERTEX
  5
208
100
AcDbEntity
  8
化粧台
  6
EXLTYPE2
 62
     6
100
AcDbVertex
100
AcDb2dVertex
 10
2324.0
 20
1009.707107
 30
0.0
  0
VERTEX
  5
209
100
AcDbEntity
  8
化粧台
  6
EXLTYPE2
 62
     6
100
AcDbVertex
100
AcDb2dVertex
 10
2327.5
 20
1012.207107
 30
0.0
  0
VERTEX
  5
20A
100
AcDbEntity
  8
化粧台
  6
EXLTYPE2
 62
     6
100
AcDbVertex
100
AcDb2dVertex
 10
2324.0
 20
1014.707107
 30
0.0
  0
VERTEX
  5
20B
100
AcDbEntity
  8
化粧台
  6
EXLTYPE2
 62
     6
100
AcDbVertex
100
AcDb2dVertex
 10
2327.5
 20
1017.207107
 30
0.0
  0
VERTEX
  5
20C
100
AcDbEntity
  8
化粧台
  6
EXLTYPE2
 62
     6
100
AcDbVertex
100
AcDb2dVertex
 10
2324.0
 20
1019.707107
 30
0.0
  0
VERTEX
  5
20D
100
AcDbEntity
  8
化粧台
  6
EXLTYPE2
 62
     6
100
AcDbVertex
100
AcDb2dVertex
 10
2327.5
 20
1022.207107
 30
0.0
  0
VERTEX
  5
20E
100
AcDbEntity
  8
化粧台
  6
EXLTYPE2
 62
     6
100
AcDbVertex
100
AcDb2dVertex
 10
2324.0
 20
1024.707107
 30
0.0
  0
VERTEX
  5
20F
100
AcDbEntity
  8
化粧台
  6
EXLTYPE2
 62
     6
100
AcDbVertex
100
AcDb2dVertex
 10
2327.5
 20
1027.207107
 30
0.0
  0
VERTEX
  5
210
100
AcDbEntity
  8
化粧台
  6
EXLTYPE2
 62
     6
100
AcDbVertex
100
AcDb2dVertex
 10
2324.0
 20
1029.707107
 30
0.0
  0
VERTEX
  5
211
100
AcDbEntity
  8
化粧台
  6
EXLTYPE2
 62
     6
100
AcDbVertex
100
AcDb2dVertex
 10
2327.5
 20
1032.207107
 30
0.0
  0
VERTEX
  5
212
100
AcDbEntity
  8
化粧台
  6
EXLTYPE2
 62
     6
100
AcDbVertex
100
AcDb2dVertex
 10
2324.0
 20
1034.707107
 30
0.0
  0
VERTEX
  5
213
100
AcDbEntity
  8
化粧台
  6
EXLTYPE2
 62
     6
100
AcDbVertex
100
AcDb2dVertex
 10
2327.5
 20
1037.207107
 30
0.0
  0
VERTEX
  5
214
100
AcDbEntity
  8
化粧台
  6
EXLTYPE2
 62
     6
100
AcDbVertex
100
AcDb2dVertex
 10
2324.0
 20
1039.707107
 30
0.0
  0
VERTEX
  5
215
100
AcDbEntity
  8
化粧台
  6
EXLTYPE2
 62
     6
100
AcDbVertex
100
AcDb2dVertex
 10
2327.5
 20
1042.207107
 30
0.0
  0
VERTEX
  5
216
100
AcDbEntity
  8
化粧台
  6
EXLTYPE2
 62
     6
100
AcDbVertex
100
AcDb2dVertex
 10
2324.0
 20
1044.707107
 30
0.0
  0
VERTEX
  5
217
100
AcDbEntity
  8
化粧台
  6
EXLTYPE2
 62
     6
100
AcDbVertex
100
AcDb2dVertex
 10
2327.5
 20
1047.207107
 30
0.0
  0
VERTEX
  5
218
100
AcDbEntity
  8
化粧台
  6
EXLTYPE2
 62
     6
100
AcDbVertex
100
AcDb2dVertex
 10
2324.0
 20
1049.707107
 30
0.0
  0
VERTEX
  5
219
100
AcDbEntity
  8
化粧台
  6
EXLTYPE2
 62
     6
100
AcDbVertex
100
AcDb2dVertex
 10
2327.5
 20
1052.207107
 30
0.0
  0
VERTEX
  5
21A
100
AcDbEntity
  8
化粧台
  6
EXLTYPE2
 62
     6
100
AcDbVertex
100
AcDb2dVertex
 10
2324.0
 20
1054.707107
 30
0.0
  0
VERTEX
  5
21B
100
AcDbEntity
  8
化粧台
  6
EXLTYPE2
 62
     6
100
AcDbVertex
100
AcDb2dVertex
 10
2327.5
 20
1057.207107
 30
0.0
  0
VERTEX
  5
21C
100
AcDbEntity
  8
化粧台
  6
EXLTYPE2
 62
     6
100
AcDbVertex
100
AcDb2dVertex
 10
2324.0
 20
1059.707107
 30
0.0
  0
VERTEX
  5
21D
100
AcDbEntity
  8
化粧台
  6
EXLTYPE2
 62
     6
100
AcDbVertex
100
AcDb2dVertex
 10
2327.5
 20
1062.207107
 30
0.0
  0
VERTEX
  5
21E
100
AcDbEntity
  8
化粧台
  6
EXLTYPE2
 62
     6
100
AcDbVertex
100
AcDb2dVertex
 10
2324.0
 20
1064.707107
 30
0.0
  0
VERTEX
  5
21F
100
AcDbEntity
  8
化粧台
  6
EXLTYPE2
 62
     6
100
AcDbVertex
100
AcDb2dVertex
 10
2327.5
 20
1067.207107
 30
0.0
  0
VERTEX
  5
220
100
AcDbEntity
  8
化粧台
  6
EXLTYPE2
 62
     6
100
AcDbVertex
100
AcDb2dVertex
 10
2324.0
 20
1069.707107
 30
0.0
  0
VERTEX
  5
221
100
AcDbEntity
  8
化粧台
  6
EXLTYPE2
 62
     6
100
AcDbVertex
100
AcDb2dVertex
 10
2327.5
 20
1072.207107
 30
0.0
  0
VERTEX
  5
222
100
AcDbEntity
  8
化粧台
  6
EXLTYPE2
 62
     6
100
AcDbVertex
100
AcDb2dVertex
 10
2324.0
 20
1074.707107
 30
0.0
  0
VERTEX
  5
223
100
AcDbEntity
  8
化粧台
  6
EXLTYPE2
 62
     6
100
AcDbVertex
100
AcDb2dVertex
 10
2327.5
 20
1077.207107
 30
0.0
  0
VERTEX
  5
224
100
AcDbEntity
  8
化粧台
  6
EXLTYPE2
 62
     6
100
AcDbVertex
100
AcDb2dVertex
 10
2324.0
 20
1079.707107
 30
0.0
  0
VERTEX
  5
225
100
AcDbEntity
  8
化粧台
  6
EXLTYPE2
 62
     6
100
AcDbVertex
100
AcDb2dVertex
 10
2327.5
 20
1082.207107
 30
0.0
  0
VERTEX
  5
226
100
AcDbEntity
  8
化粧台
  6
EXLTYPE2
 62
     6
100
AcDbVertex
100
AcDb2dVertex
 10
2324.0
 20
1084.707107
 30
0.0
  0
VERTEX
  5
227
100
AcDbEntity
  8
化粧台
  6
EXLTYPE2
 62
     6
100
AcDbVertex
100
AcDb2dVertex
 10
2327.5
 20
1087.207107
 30
0.0
  0
VERTEX
  5
228
100
AcDbEntity
  8
化粧台
  6
EXLTYPE2
 62
     6
100
AcDbVertex
100
AcDb2dVertex
 10
2324.0
 20
1089.707107
 30
0.0
  0
VERTEX
  5
229
100
AcDbEntity
  8
化粧台
  6
EXLTYPE2
 62
     6
100
AcDbVertex
100
AcDb2dVertex
 10
2327.5
 20
1092.207107
 30
0.0
  0
VERTEX
  5
22A
100
AcDbEntity
  8
化粧台
  6
EXLTYPE2
 62
     6
100
AcDbVertex
100
AcDb2dVertex
 10
2324.0
 20
1094.707107
 30
0.0
  0
VERTEX
  5
22B
100
AcDbEntity
  8
化粧台
  6
EXLTYPE2
 62
     6
100
AcDbVertex
100
AcDb2dVertex
 10
2327.5
 20
1097.207107
 30
0.0
  0
VERTEX
  5
22C
100
AcDbEntity
  8
化粧台
  6
EXLTYPE2
 62
     6
100
AcDbVertex
100
AcDb2dVertex
 10
2324.0
 20
1099.707107
 30
0.0
  0
VERTEX
  5
22D
100
AcDbEntity
  8
化粧台
  6
EXLTYPE2
 62
     6
100
AcDbVertex
100
AcDb2dVertex
 10
2327.5
 20
1102.207107
 30
0.0
  0
VERTEX
  5
22E
100
AcDbEntity
  8
化粧台
  6
EXLTYPE2
 62
     6
100
AcDbVertex
100
AcDb2dVertex
 10
2324.0
 20
1104.707107
 30
0.0
  0
VERTEX
  5
22F
100
AcDbEntity
  8
化粧台
  6
EXLTYPE2
 62
     6
100
AcDbVertex
100
AcDb2dVertex
 10
2327.5
 20
1107.207107
 30
0.0
  0
VERTEX
  5
230
100
AcDbEntity
  8
化粧台
  6
EXLTYPE2
 62
     6
100
AcDbVertex
100
AcDb2dVertex
 10
2324.0
 20
1109.707107
 30
0.0
  0
VERTEX
  5
231
100
AcDbEntity
  8
化粧台
  6
EXLTYPE2
 62
     6
100
AcDbVertex
100
AcDb2dVertex
 10
2327.5
 20
1112.207107
 30
0.0
  0
VERTEX
  5
232
100
AcDbEntity
  8
化粧台
  6
EXLTYPE2
 62
     6
100
AcDbVertex
100
AcDb2dVertex
 10
2324.0
 20
1114.707107
 30
0.0
  0
VERTEX
  5
233
100
AcDbEntity
  8
化粧台
  6
EXLTYPE2
 62
     6
100
AcDbVertex
100
AcDb2dVertex
 10
2327.5
 20
1117.207107
 30
0.0
  0
VERTEX
  5
234
100
AcDbEntity
  8
化粧台
  6
EXLTYPE2
 62
     6
100
AcDbVertex
100
AcDb2dVertex
 10
2324.0
 20
1119.707107
 30
0.0
  0
VERTEX
  5
235
100
AcDbEntity
  8
化粧台
  6
EXLTYPE2
 62
     6
100
AcDbVertex
100
AcDb2dVertex
 10
2327.5
 20
1122.207107
 30
0.0
  0
VERTEX
  5
236
100
AcDbEntity
  8
化粧台
  6
EXLTYPE2
 62
     6
100
AcDbVertex
100
AcDb2dVertex
 10
2324.0
 20
1124.707107
 30
0.0
  0
VERTEX
  5
237
100
AcDbEntity
  8
化粧台
  6
EXLTYPE2
 62
     6
100
AcDbVertex
100
AcDb2dVertex
 10
2327.5
 20
1127.207107
 30
0.0
  0
VERTEX
  5
238
100
AcDbEntity
  8
化粧台
  6
EXLTYPE2
 62
     6
100
AcDbVertex
100
AcDb2dVertex
 10
2324.0
 20
1129.707107
 30
0.0
  0
VERTEX
  5
239
100
AcDbEntity
  8
化粧台
  6
EXLTYPE2
 62
     6
100
AcDbVertex
100
AcDb2dVertex
 10
2327.5
 20
1132.207107
 30
0.0
  0
VERTEX
  5
23A
100
AcDbEntity
  8
化粧台
  6
EXLTYPE2
 62
     6
100
AcDbVertex
100
AcDb2dVertex
 10
2324.0
 20
1134.707107
 30
0.0
  0
VERTEX
  5
23B
100
AcDbEntity
  8
化粧台
  6
EXLTYPE2
 62
     6
100
AcDbVertex
100
AcDb2dVertex
 10
2327.5
 20
1137.207107
 30
0.0
  0
VERTEX
  5
23C
100
AcDbEntity
  8
化粧台
  6
EXLTYPE2
 62
     6
100
AcDbVertex
100
AcDb2dVertex
 10
2324.0
 20
1139.707107
 30
0.0
  0
VERTEX
  5
23D
100
AcDbEntity
  8
化粧台
  6
EXLTYPE2
 62
     6
100
AcDbVertex
100
AcDb2dVertex
 10
2327.5
 20
1142.207107
 30
0.0
  0
VERTEX
  5
23E
100
AcDbEntity
  8
化粧台
  6
EXLTYPE2
 62
     6
100
AcDbVertex
100
AcDb2dVertex
 10
2324.0
 20
1144.707107
 30
0.0
  0
VERTEX
  5
23F
100
AcDbEntity
  8
化粧台
  6
EXLTYPE2
 62
     6
100
AcDbVertex
100
AcDb2dVertex
 10
2327.5
 20
1147.207107
 30
0.0
  0
VERTEX
  5
240
100
AcDbEntity
  8
化粧台
  6
EXLTYPE2
 62
     6
100
AcDbVertex
100
AcDb2dVertex
 10
2324.0
 20
1149.707107
 30
0.0
  0
VERTEX
  5
241
100
AcDbEntity
  8
化粧台
  6
EXLTYPE2
 62
     6
100
AcDbVertex
100
AcDb2dVertex
 10
2327.5
 20
1152.207107
 30
0.0
  0
VERTEX
  5
242
100
AcDbEntity
  8
化粧台
  6
EXLTYPE2
 62
     6
100
AcDbVertex
100
AcDb2dVertex
 10
2324.0
 20
1154.707107
 30
0.0
  0
VERTEX
  5
243
100
AcDbEntity
  8
化粧台
  6
EXLTYPE2
 62
     6
100
AcDbVertex
100
AcDb2dVertex
 10
2327.5
 20
1157.207107
 30
0.0
  0
VERTEX
  5
244
100
AcDbEntity
  8
化粧台
  6
EXLTYPE2
 62
     6
100
AcDbVertex
100
AcDb2dVertex
 10
2324.0
 20
1159.707107
 30
0.0
  0
VERTEX
  5
245
100
AcDbEntity
  8
化粧台
  6
EXLTYPE2
 62
     6
100
AcDbVertex
100
AcDb2dVertex
 10
2327.5
 20
1162.207107
 30
0.0
  0
VERTEX
  5
246
100
AcDbEntity
  8
化粧台
  6
EXLTYPE2
 62
     6
100
AcDbVertex
100
AcDb2dVertex
 10
2324.0
 20
1164.707107
 30
0.0
  0
VERTEX
  5
247
100
AcDbEntity
  8
化粧台
  6
EXLTYPE2
 62
     6
100
AcDbVertex
100
AcDb2dVertex
 10
2327.5
 20
1167.207107
 30
0.0
  0
VERTEX
  5
248
100
AcDbEntity
  8
化粧台
  6
EXLTYPE2
 62
     6
100
AcDbVertex
100
AcDb2dVertex
 10
2324.0
 20
1169.707107
 30
0.0
  0
VERTEX
  5
249
100
AcDbEntity
  8
化粧台
  6
EXLTYPE2
 62
     6
100
AcDbVertex
100
AcDb2dVertex
 10
2327.5
 20
1172.207107
 30
0.0
  0
VERTEX
  5
24A
100
AcDbEntity
  8
化粧台
  6
EXLTYPE2
 62
     6
100
AcDbVertex
100
AcDb2dVertex
 10
2324.0
 20
1174.707107
 30
0.0
  0
VERTEX
  5
24B
100
AcDbEntity
  8
化粧台
  6
EXLTYPE2
 62
     6
100
AcDbVertex
100
AcDb2dVertex
 10
2327.5
 20
1177.207107
 30
0.0
  0
VERTEX
  5
24C
100
AcDbEntity
  8
化粧台
  6
EXLTYPE2
 62
     6
100
AcDbVertex
100
AcDb2dVertex
 10
2324.0
 20
1179.707107
 30
0.0
  0
VERTEX
  5
24D
100
AcDbEntity
  8
化粧台
  6
EXLTYPE2
 62
     6
100
AcDbVertex
100
AcDb2dVertex
 10
2327.5
 20
1182.207107
 30
0.0
  0
VERTEX
  5
24E
100
AcDbEntity
  8
化粧台
  6
EXLTYPE2
 62
     6
100
AcDbVertex
100
AcDb2dVertex
 10
2324.0
 20
1184.707107
 30
0.0
  0
VERTEX
  5
24F
100
AcDbEntity
  8
化粧台
  6
EXLTYPE2
 62
     6
100
AcDbVertex
100
AcDb2dVertex
 10
2327.5
 20
1187.207107
 30
0.0
  0
VERTEX
  5
250
100
AcDbEntity
  8
化粧台
  6
EXLTYPE2
 62
     6
100
AcDbVertex
100
AcDb2dVertex
 10
2324.0
 20
1189.707107
 30
0.0
  0
VERTEX
  5
251
100
AcDbEntity
  8
化粧台
  6
EXLTYPE2
 62
     6
100
AcDbVertex
100
AcDb2dVertex
 10
2327.5
 20
1192.207107
 30
0.0
  0
VERTEX
  5
252
100
AcDbEntity
  8
化粧台
  6
EXLTYPE2
 62
     6
100
AcDbVertex
100
AcDb2dVertex
 10
2324.0
 20
1194.707107
 30
0.0
  0
VERTEX
  5
253
100
AcDbEntity
  8
化粧台
  6
EXLTYPE2
 62
     6
100
AcDbVertex
100
AcDb2dVertex
 10
2327.5
 20
1197.207107
 30
0.0
  0
VERTEX
  5
254
100
AcDbEntity
  8
化粧台
  6
EXLTYPE2
 62
     6
100
AcDbVertex
100
AcDb2dVertex
 10
2324.0
 20
1199.707107
 30
0.0
  0
VERTEX
  5
255
100
AcDbEntity
  8
化粧台
  6
EXLTYPE2
 62
     6
100
AcDbVertex
100
AcDb2dVertex
 10
2327.5
 20
1202.207107
 30
0.0
  0
VERTEX
  5
256
100
AcDbEntity
  8
化粧台
  6
EXLTYPE2
 62
     6
100
AcDbVertex
100
AcDb2dVertex
 10
2324.0
 20
1204.707107
 30
0.0
  0
VERTEX
  5
257
100
AcDbEntity
  8
化粧台
  6
EXLTYPE2
 62
     6
100
AcDbVertex
100
AcDb2dVertex
 10
2327.5
 20
1207.207107
 30
0.0
  0
VERTEX
  5
258
100
AcDbEntity
  8
化粧台
  6
EXLTYPE2
 62
     6
100
AcDbVertex
100
AcDb2dVertex
 10
2324.0
 20
1209.707107
 30
0.0
  0
VERTEX
  5
259
100
AcDbEntity
  8
化粧台
  6
EXLTYPE2
 62
     6
100
AcDbVertex
100
AcDb2dVertex
 10
2327.5
 20
1212.207107
 30
0.0
  0
VERTEX
  5
25A
100
AcDbEntity
  8
化粧台
  6
EXLTYPE2
 62
     6
100
AcDbVertex
100
AcDb2dVertex
 10
2324.0
 20
1214.707107
 30
0.0
  0
VERTEX
  5
25B
100
AcDbEntity
  8
化粧台
  6
EXLTYPE2
 62
     6
100
AcDbVertex
100
AcDb2dVertex
 10
2327.5
 20
1217.207107
 30
0.0
  0
VERTEX
  5
25C
100
AcDbEntity
  8
化粧台
  6
EXLTYPE2
 62
     6
100
AcDbVertex
100
AcDb2dVertex
 10
2324.0
 20
1219.707107
 30
0.0
  0
VERTEX
  5
25D
100
AcDbEntity
  8
化粧台
  6
EXLTYPE2
 62
     6
100
AcDbVertex
100
AcDb2dVertex
 10
2327.5
 20
1222.207107
 30
0.0
  0
VERTEX
  5
25E
100
AcDbEntity
  8
化粧台
  6
EXLTYPE2
 62
     6
100
AcDbVertex
100
AcDb2dVertex
 10
2324.0
 20
1224.707107
 30
0.0
  0
VERTEX
  5
25F
100
AcDbEntity
  8
化粧台
  6
EXLTYPE2
 62
     6
100
AcDbVertex
100
AcDb2dVertex
 10
2327.5
 20
1227.207107
 30
0.0
  0
VERTEX
  5
260
100
AcDbEntity
  8
化粧台
  6
EXLTYPE2
 62
     6
100
AcDbVertex
100
AcDb2dVertex
 10
2324.0
 20
1229.707107
 30
0.0
  0
VERTEX
  5
261
100
AcDbEntity
  8
化粧台
  6
EXLTYPE2
 62
     6
100
AcDbVertex
100
AcDb2dVertex
 10
2327.5
 20
1232.207107
 30
0.0
  0
VERTEX
  5
262
100
AcDbEntity
  8
化粧台
  6
EXLTYPE2
 62
     6
100
AcDbVertex
100
AcDb2dVertex
 10
2324.0
 20
1234.707107
 30
0.0
  0
VERTEX
  5
263
100
AcDbEntity
  8
化粧台
  6
EXLTYPE2
 62
     6
100
AcDbVertex
100
AcDb2dVertex
 10
2327.5
 20
1237.207107
 30
0.0
  0
VERTEX
  5
264
100
AcDbEntity
  8
化粧台
  6
EXLTYPE2
 62
     6
100
AcDbVertex
100
AcDb2dVertex
 10
2324.0
 20
1239.707107
 30
0.0
  0
VERTEX
  5
265
100
AcDbEntity
  8
化粧台
  6
EXLTYPE2
 62
     6
100
AcDbVertex
100
AcDb2dVertex
 10
2327.5
 20
1242.207107
 30
0.0
  0
VERTEX
  5
266
100
AcDbEntity
  8
化粧台
  6
EXLTYPE2
 62
     6
100
AcDbVertex
100
AcDb2dVertex
 10
2324.0
 20
1244.707107
 30
0.0
  0
VERTEX
  5
267
100
AcDbEntity
  8
化粧台
  6
EXLTYPE2
 62
     6
100
AcDbVertex
100
AcDb2dVertex
 10
2327.5
 20
1247.207107
 30
0.0
  0
VERTEX
  5
268
100
AcDbEntity
  8
化粧台
  6
EXLTYPE2
 62
     6
100
AcDbVertex
100
AcDb2dVertex
 10
2324.0
 20
1249.707107
 30
0.0
  0
VERTEX
  5
269
100
AcDbEntity
  8
化粧台
  6
EXLTYPE2
 62
     6
100
AcDbVertex
100
AcDb2dVertex
 10
2327.5
 20
1252.207107
 30
0.0
  0
VERTEX
  5
26A
100
AcDbEntity
  8
化粧台
  6
EXLTYPE2
 62
     6
100
AcDbVertex
100
AcDb2dVertex
 10
2324.0
 20
1254.707107
 30
0.0
  0
VERTEX
  5
26B
100
AcDbEntity
  8
化粧台
  6
EXLTYPE2
 62
     6
100
AcDbVertex
100
AcDb2dVertex
 10
2327.5
 20
1257.207107
 30
0.0
  0
VERTEX
  5
26C
100
AcDbEntity
  8
化粧台
  6
EXLTYPE2
 62
     6
100
AcDbVertex
100
AcDb2dVertex
 10
2324.0
 20
1259.707107
 30
0.0
  0
VERTEX
  5
26D
100
AcDbEntity
  8
化粧台
  6
EXLTYPE2
 62
     6
100
AcDbVertex
100
AcDb2dVertex
 10
2327.5
 20
1262.207107
 30
0.0
  0
VERTEX
  5
26E
100
AcDbEntity
  8
化粧台
  6
EXLTYPE2
 62
     6
100
AcDbVertex
100
AcDb2dVertex
 10
2324.0
 20
1264.707107
 30
0.0
  0
VERTEX
  5
26F
100
AcDbEntity
  8
化粧台
  6
EXLTYPE2
 62
     6
100
AcDbVertex
100
AcDb2dVertex
 10
2327.5
 20
1267.207107
 30
0.0
  0
VERTEX
  5
270
100
AcDbEntity
  8
化粧台
  6
EXLTYPE2
 62
     6
100
AcDbVertex
100
AcDb2dVertex
 10
2324.0
 20
1269.707107
 30
0.0
  0
VERTEX
  5
271
100
AcDbEntity
  8
化粧台
  6
EXLTYPE2
 62
     6
100
AcDbVertex
100
AcDb2dVertex
 10
2327.5
 20
1272.207107
 30
0.0
  0
VERTEX
  5
272
100
AcDbEntity
  8
化粧台
  6
EXLTYPE2
 62
     6
100
AcDbVertex
100
AcDb2dVertex
 10
2324.0
 20
1274.707107
 30
0.0
  0
VERTEX
  5
273
100
AcDbEntity
  8
化粧台
  6
EXLTYPE2
 62
     6
100
AcDbVertex
100
AcDb2dVertex
 10
2327.5
 20
1277.207107
 30
0.0
  0
VERTEX
  5
274
100
AcDbEntity
  8
化粧台
  6
EXLTYPE2
 62
     6
100
AcDbVertex
100
AcDb2dVertex
 10
2324.0
 20
1279.707107
 30
0.0
  0
VERTEX
  5
275
100
AcDbEntity
  8
化粧台
  6
EXLTYPE2
 62
     6
100
AcDbVertex
100
AcDb2dVertex
 10
2327.5
 20
1282.207107
 30
0.0
  0
VERTEX
  5
276
100
AcDbEntity
  8
化粧台
  6
EXLTYPE2
 62
     6
100
AcDbVertex
100
AcDb2dVertex
 10
2324.0
 20
1284.707107
 30
0.0
  0
VERTEX
  5
277
100
AcDbEntity
  8
化粧台
  6
EXLTYPE2
 62
     6
100
AcDbVertex
100
AcDb2dVertex
 10
2327.5
 20
1287.207107
 30
0.0
  0
VERTEX
  5
278
100
AcDbEntity
  8
化粧台
  6
EXLTYPE2
 62
     6
100
AcDbVertex
100
AcDb2dVertex
 10
2324.0
 20
1289.707107
 30
0.0
  0
VERTEX
  5
279
100
AcDbEntity
  8
化粧台
  6
EXLTYPE2
 62
     6
100
AcDbVertex
100
AcDb2dVertex
 10
2327.5
 20
1292.207107
 30
0.0
  0
VERTEX
  5
27A
100
AcDbEntity
  8
化粧台
  6
EXLTYPE2
 62
     6
100
AcDbVertex
100
AcDb2dVertex
 10
2324.0
 20
1294.707107
 30
0.0
  0
VERTEX
  5
27B
100
AcDbEntity
  8
化粧台
  6
EXLTYPE2
 62
     6
100
AcDbVertex
100
AcDb2dVertex
 10
2327.5
 20
1297.207107
 30
0.0
  0
VERTEX
  5
27C
100
AcDbEntity
  8
化粧台
  6
EXLTYPE2
 62
     6
100
AcDbVertex
100
AcDb2dVertex
 10
2324.0
 20
1299.707107
 30
0.0
  0
VERTEX
  5
27D
100
AcDbEntity
  8
化粧台
  6
EXLTYPE2
 62
     6
100
AcDbVertex
100
AcDb2dVertex
 10
2327.5
 20
1302.207107
 30
0.0
  0
VERTEX
  5
27E
100
AcDbEntity
  8
化粧台
  6
EXLTYPE2
 62
     6
100
AcDbVertex
100
AcDb2dVertex
 10
2324.0
 20
1304.707107
 30
0.0
  0
VERTEX
  5
27F
100
AcDbEntity
  8
化粧台
  6
EXLTYPE2
 62
     6
100
AcDbVertex
100
AcDb2dVertex
 10
2327.5
 20
1307.207107
 30
0.0
  0
VERTEX
  5
280
100
AcDbEntity
  8
化粧台
  6
EXLTYPE2
 62
     6
100
AcDbVertex
100
AcDb2dVertex
 10
2325.85
 20
1309.707107
 30
0.0
  0
SEQEND
  5
281
100
AcDbEntity
  8
化粧台
  6
EXLTYPE2
 62
     6
  0
POLYLINE
  5
282
100
AcDbEntity
  8
化粧台
  6
EXLTYPE2
 62
     6
100
AcDb2dPolyline
 66
     1
 10
0.0
 20
0.0
 30
0.0
 70
   128
  0
VERTEX
  5
283
100
AcDbEntity
  8
化粧台
  6
EXLTYPE2
 62
     6
100
AcDbVertex
100
AcDb2dVertex
 10
2294.889949
 20
915.5
 30
0.0
  0
VERTEX
  5
284
100
AcDbEntity
  8
化粧台
  6
EXLTYPE2
 62
     6
100
AcDbVertex
100
AcDb2dVertex
 10
2292.5
 20
917.207107
 30
0.0
  0
VERTEX
  5
285
100
AcDbEntity
  8
化粧台
  6
EXLTYPE2
 62
     6
100
AcDbVertex
100
AcDb2dVertex
 10
2296.0
 20
919.707107
 30
0.0
  0
VERTEX
  5
286
100
AcDbEntity
  8
化粧台
  6
EXLTYPE2
 62
     6
100
AcDbVertex
100
AcDb2dVertex
 10
2292.5
 20
922.207107
 30
0.0
  0
VERTEX
  5
287
100
AcDbEntity
  8
化粧台
  6
EXLTYPE2
 62
     6
100
AcDbVertex
100
AcDb2dVertex
 10
2296.0
 20
924.707107
 30
0.0
  0
VERTEX
  5
288
100
AcDbEntity
  8
化粧台
  6
EXLTYPE2
 62
     6
100
AcDbVertex
100
AcDb2dVertex
 10
2292.5
 20
927.207107
 30
0.0
  0
VERTEX
  5
289
100
AcDbEntity
  8
化粧台
  6
EXLTYPE2
 62
     6
100
AcDbVertex
100
AcDb2dVertex
 10
2296.0
 20
929.707107
 30
0.0
  0
VERTEX
  5
28A
100
AcDbEntity
  8
化粧台
  6
EXLTYPE2
 62
     6
100
AcDbVertex
100
AcDb2dVertex
 10
2292.5
 20
932.207107
 30
0.0
  0
VERTEX
  5
28B
100
AcDbEntity
  8
化粧台
  6
EXLTYPE2
 62
     6
100
AcDbVertex
100
AcDb2dVertex
 10
2296.0
 20
934.707107
 30
0.0
  0
VERTEX
  5
28C
100
AcDbEntity
  8
化粧台
  6
EXLTYPE2
 62
     6
100
AcDbVertex
100
AcDb2dVertex
 10
2292.5
 20
937.207107
 30
0.0
  0
VERTEX
  5
28D
100
AcDbEntity
  8
化粧台
  6
EXLTYPE2
 62
     6
100
AcDbVertex
100
AcDb2dVertex
 10
2296.0
 20
939.707107
 30
0.0
  0
VERTEX
  5
28E
100
AcDbEntity
  8
化粧台
  6
EXLTYPE2
 62
     6
100
AcDbVertex
100
AcDb2dVertex
 10
2292.5
 20
942.207107
 30
0.0
  0
VERTEX
  5
28F
100
AcDbEntity
  8
化粧台
  6
EXLTYPE2
 62
     6
100
AcDbVertex
100
AcDb2dVertex
 10
2296.0
 20
944.707107
 30
0.0
  0
VERTEX
  5
290
100
AcDbEntity
  8
化粧台
  6
EXLTYPE2
 62
     6
100
AcDbVertex
100
AcDb2dVertex
 10
2292.5
 20
947.207107
 30
0.0
  0
VERTEX
  5
291
100
AcDbEntity
  8
化粧台
  6
EXLTYPE2
 62
     6
100
AcDbVertex
100
AcDb2dVertex
 10
2296.0
 20
949.707107
 30
0.0
  0
VERTEX
  5
292
100
AcDbEntity
  8
化粧台
  6
EXLTYPE2
 62
     6
100
AcDbVertex
100
AcDb2dVertex
 10
2292.5
 20
952.207107
 30
0.0
  0
VERTEX
  5
293
100
AcDbEntity
  8
化粧台
  6
EXLTYPE2
 62
     6
100
AcDbVertex
100
AcDb2dVertex
 10
2296.0
 20
954.707107
 30
0.0
  0
VERTEX
  5
294
100
AcDbEntity
  8
化粧台
  6
EXLTYPE2
 62
     6
100
AcDbVertex
100
AcDb2dVertex
 10
2292.5
 20
957.207107
 30
0.0
  0
VERTEX
  5
295
100
AcDbEntity
  8
化粧台
  6
EXLTYPE2
 62
     6
100
AcDbVertex
100
AcDb2dVertex
 10
2296.0
 20
959.707107
 30
0.0
  0
VERTEX
  5
296
100
AcDbEntity
  8
化粧台
  6
EXLTYPE2
 62
     6
100
AcDbVertex
100
AcDb2dVertex
 10
2292.5
 20
962.207107
 30
0.0
  0
VERTEX
  5
297
100
AcDbEntity
  8
化粧台
  6
EXLTYPE2
 62
     6
100
AcDbVertex
100
AcDb2dVertex
 10
2296.0
 20
964.707107
 30
0.0
  0
VERTEX
  5
298
100
AcDbEntity
  8
化粧台
  6
EXLTYPE2
 62
     6
100
AcDbVertex
100
AcDb2dVertex
 10
2292.5
 20
967.207107
 30
0.0
  0
VERTEX
  5
299
100
AcDbEntity
  8
化粧台
  6
EXLTYPE2
 62
     6
100
AcDbVertex
100
AcDb2dVertex
 10
2296.0
 20
969.707107
 30
0.0
  0
VERTEX
  5
29A
100
AcDbEntity
  8
化粧台
  6
EXLTYPE2
 62
     6
100
AcDbVertex
100
AcDb2dVertex
 10
2292.5
 20
972.207107
 30
0.0
  0
VERTEX
  5
29B
100
AcDbEntity
  8
化粧台
  6
EXLTYPE2
 62
     6
100
AcDbVertex
100
AcDb2dVertex
 10
2296.0
 20
974.707107
 30
0.0
  0
VERTEX
  5
29C
100
AcDbEntity
  8
化粧台
  6
EXLTYPE2
 62
     6
100
AcDbVertex
100
AcDb2dVertex
 10
2292.5
 20
977.207107
 30
0.0
  0
VERTEX
  5
29D
100
AcDbEntity
  8
化粧台
  6
EXLTYPE2
 62
     6
100
AcDbVertex
100
AcDb2dVertex
 10
2296.0
 20
979.707107
 30
0.0
  0
VERTEX
  5
29E
100
AcDbEntity
  8
化粧台
  6
EXLTYPE2
 62
     6
100
AcDbVertex
100
AcDb2dVertex
 10
2292.5
 20
982.207107
 30
0.0
  0
VERTEX
  5
29F
100
AcDbEntity
  8
化粧台
  6
EXLTYPE2
 62
     6
100
AcDbVertex
100
AcDb2dVertex
 10
2296.0
 20
984.707107
 30
0.0
  0
VERTEX
  5
2A0
100
AcDbEntity
  8
化粧台
  6
EXLTYPE2
 62
     6
100
AcDbVertex
100
AcDb2dVertex
 10
2292.5
 20
987.207107
 30
0.0
  0
VERTEX
  5
2A1
100
AcDbEntity
  8
化粧台
  6
EXLTYPE2
 62
     6
100
AcDbVertex
100
AcDb2dVertex
 10
2296.0
 20
989.707107
 30
0.0
  0
VERTEX
  5
2A2
100
AcDbEntity
  8
化粧台
  6
EXLTYPE2
 62
     6
100
AcDbVertex
100
AcDb2dVertex
 10
2292.5
 20
992.207107
 30
0.0
  0
VERTEX
  5
2A3
100
AcDbEntity
  8
化粧台
  6
EXLTYPE2
 62
     6
100
AcDbVertex
100
AcDb2dVertex
 10
2296.0
 20
994.707107
 30
0.0
  0
VERTEX
  5
2A4
100
AcDbEntity
  8
化粧台
  6
EXLTYPE2
 62
     6
100
AcDbVertex
100
AcDb2dVertex
 10
2292.5
 20
997.207107
 30
0.0
  0
VERTEX
  5
2A5
100
AcDbEntity
  8
化粧台
  6
EXLTYPE2
 62
     6
100
AcDbVertex
100
AcDb2dVertex
 10
2296.0
 20
999.707107
 30
0.0
  0
VERTEX
  5
2A6
100
AcDbEntity
  8
化粧台
  6
EXLTYPE2
 62
     6
100
AcDbVertex
100
AcDb2dVertex
 10
2292.5
 20
1002.207107
 30
0.0
  0
VERTEX
  5
2A7
100
AcDbEntity
  8
化粧台
  6
EXLTYPE2
 62
     6
100
AcDbVertex
100
AcDb2dVertex
 10
2296.0
 20
1004.707107
 30
0.0
  0
VERTEX
  5
2A8
100
AcDbEntity
  8
化粧台
  6
EXLTYPE2
 62
     6
100
AcDbVertex
100
AcDb2dVertex
 10
2292.5
 20
1007.207107
 30
0.0
  0
VERTEX
  5
2A9
100
AcDbEntity
  8
化粧台
  6
EXLTYPE2
 62
     6
100
AcDbVertex
100
AcDb2dVertex
 10
2296.0
 20
1009.707107
 30
0.0
  0
VERTEX
  5
2AA
100
AcDbEntity
  8
化粧台
  6
EXLTYPE2
 62
     6
100
AcDbVertex
100
AcDb2dVertex
 10
2292.5
 20
1012.207107
 30
0.0
  0
VERTEX
  5
2AB
100
AcDbEntity
  8
化粧台
  6
EXLTYPE2
 62
     6
100
AcDbVertex
100
AcDb2dVertex
 10
2296.0
 20
1014.707107
 30
0.0
  0
VERTEX
  5
2AC
100
AcDbEntity
  8
化粧台
  6
EXLTYPE2
 62
     6
100
AcDbVertex
100
AcDb2dVertex
 10
2292.5
 20
1017.207107
 30
0.0
  0
VERTEX
  5
2AD
100
AcDbEntity
  8
化粧台
  6
EXLTYPE2
 62
     6
100
AcDbVertex
100
AcDb2dVertex
 10
2296.0
 20
1019.707107
 30
0.0
  0
VERTEX
  5
2AE
100
AcDbEntity
  8
化粧台
  6
EXLTYPE2
 62
     6
100
AcDbVertex
100
AcDb2dVertex
 10
2292.5
 20
1022.207107
 30
0.0
  0
VERTEX
  5
2AF
100
AcDbEntity
  8
化粧台
  6
EXLTYPE2
 62
     6
100
AcDbVertex
100
AcDb2dVertex
 10
2296.0
 20
1024.707107
 30
0.0
  0
VERTEX
  5
2B0
100
AcDbEntity
  8
化粧台
  6
EXLTYPE2
 62
     6
100
AcDbVertex
100
AcDb2dVertex
 10
2292.5
 20
1027.207107
 30
0.0
  0
VERTEX
  5
2B1
100
AcDbEntity
  8
化粧台
  6
EXLTYPE2
 62
     6
100
AcDbVertex
100
AcDb2dVertex
 10
2296.0
 20
1029.707107
 30
0.0
  0
VERTEX
  5
2B2
100
AcDbEntity
  8
化粧台
  6
EXLTYPE2
 62
     6
100
AcDbVertex
100
AcDb2dVertex
 10
2292.5
 20
1032.207107
 30
0.0
  0
VERTEX
  5
2B3
100
AcDbEntity
  8
化粧台
  6
EXLTYPE2
 62
     6
100
AcDbVertex
100
AcDb2dVertex
 10
2296.0
 20
1034.707107
 30
0.0
  0
VERTEX
  5
2B4
100
AcDbEntity
  8
化粧台
  6
EXLTYPE2
 62
     6
100
AcDbVertex
100
AcDb2dVertex
 10
2292.5
 20
1037.207107
 30
0.0
  0
VERTEX
  5
2B5
100
AcDbEntity
  8
化粧台
  6
EXLTYPE2
 62
     6
100
AcDbVertex
100
AcDb2dVertex
 10
2296.0
 20
1039.707107
 30
0.0
  0
VERTEX
  5
2B6
100
AcDbEntity
  8
化粧台
  6
EXLTYPE2
 62
     6
100
AcDbVertex
100
AcDb2dVertex
 10
2292.5
 20
1042.207107
 30
0.0
  0
VERTEX
  5
2B7
100
AcDbEntity
  8
化粧台
  6
EXLTYPE2
 62
     6
100
AcDbVertex
100
AcDb2dVertex
 10
2296.0
 20
1044.707107
 30
0.0
  0
VERTEX
  5
2B8
100
AcDbEntity
  8
化粧台
  6
EXLTYPE2
 62
     6
100
AcDbVertex
100
AcDb2dVertex
 10
2292.5
 20
1047.207107
 30
0.0
  0
VERTEX
  5
2B9
100
AcDbEntity
  8
化粧台
  6
EXLTYPE2
 62
     6
100
AcDbVertex
100
AcDb2dVertex
 10
2296.0
 20
1049.707107
 30
0.0
  0
VERTEX
  5
2BA
100
AcDbEntity
  8
化粧台
  6
EXLTYPE2
 62
     6
100
AcDbVertex
100
AcDb2dVertex
 10
2292.5
 20
1052.207107
 30
0.0
  0
VERTEX
  5
2BB
100
AcDbEntity
  8
化粧台
  6
EXLTYPE2
 62
     6
100
AcDbVertex
100
AcDb2dVertex
 10
2296.0
 20
1054.707107
 30
0.0
  0
VERTEX
  5
2BC
100
AcDbEntity
  8
化粧台
  6
EXLTYPE2
 62
     6
100
AcDbVertex
100
AcDb2dVertex
 10
2292.5
 20
1057.207107
 30
0.0
  0
VERTEX
  5
2BD
100
AcDbEntity
  8
化粧台
  6
EXLTYPE2
 62
     6
100
AcDbVertex
100
AcDb2dVertex
 10
2296.0
 20
1059.707107
 30
0.0
  0
VERTEX
  5
2BE
100
AcDbEntity
  8
化粧台
  6
EXLTYPE2
 62
     6
100
AcDbVertex
100
AcDb2dVertex
 10
2292.5
 20
1062.207107
 30
0.0
  0
VERTEX
  5
2BF
100
AcDbEntity
  8
化粧台
  6
EXLTYPE2
 62
     6
100
AcDbVertex
100
AcDb2dVertex
 10
2296.0
 20
1064.707107
 30
0.0
  0
VERTEX
  5
2C0
100
AcDbEntity
  8
化粧台
  6
EXLTYPE2
 62
     6
100
AcDbVertex
100
AcDb2dVertex
 10
2292.5
 20
1067.207107
 30
0.0
  0
VERTEX
  5
2C1
100
AcDbEntity
  8
化粧台
  6
EXLTYPE2
 62
     6
100
AcDbVertex
100
AcDb2dVertex
 10
2296.0
 20
1069.707107
 30
0.0
  0
VERTEX
  5
2C2
100
AcDbEntity
  8
化粧台
  6
EXLTYPE2
 62
     6
100
AcDbVertex
100
AcDb2dVertex
 10
2292.5
 20
1072.207107
 30
0.0
  0
VERTEX
  5
2C3
100
AcDbEntity
  8
化粧台
  6
EXLTYPE2
 62
     6
100
AcDbVertex
100
AcDb2dVertex
 10
2296.0
 20
1074.707107
 30
0.0
  0
VERTEX
  5
2C4
100
AcDbEntity
  8
化粧台
  6
EXLTYPE2
 62
     6
100
AcDbVertex
100
AcDb2dVertex
 10
2292.5
 20
1077.207107
 30
0.0
  0
VERTEX
  5
2C5
100
AcDbEntity
  8
化粧台
  6
EXLTYPE2
 62
     6
100
AcDbVertex
100
AcDb2dVertex
 10
2296.0
 20
1079.707107
 30
0.0
  0
VERTEX
  5
2C6
100
AcDbEntity
  8
化粧台
  6
EXLTYPE2
 62
     6
100
AcDbVertex
100
AcDb2dVertex
 10
2292.5
 20
1082.207107
 30
0.0
  0
VERTEX
  5
2C7
100
AcDbEntity
  8
化粧台
  6
EXLTYPE2
 62
     6
100
AcDbVertex
100
AcDb2dVertex
 10
2296.0
 20
1084.707107
 30
0.0
  0
VERTEX
  5
2C8
100
AcDbEntity
  8
化粧台
  6
EXLTYPE2
 62
     6
100
AcDbVertex
100
AcDb2dVertex
 10
2292.5
 20
1087.207107
 30
0.0
  0
VERTEX
  5
2C9
100
AcDbEntity
  8
化粧台
  6
EXLTYPE2
 62
     6
100
AcDbVertex
100
AcDb2dVertex
 10
2296.0
 20
1089.707107
 30
0.0
  0
VERTEX
  5
2CA
100
AcDbEntity
  8
化粧台
  6
EXLTYPE2
 62
     6
100
AcDbVertex
100
AcDb2dVertex
 10
2292.5
 20
1092.207107
 30
0.0
  0
VERTEX
  5
2CB
100
AcDbEntity
  8
化粧台
  6
EXLTYPE2
 62
     6
100
AcDbVertex
100
AcDb2dVertex
 10
2296.0
 20
1094.707107
 30
0.0
  0
VERTEX
  5
2CC
100
AcDbEntity
  8
化粧台
  6
EXLTYPE2
 62
     6
100
AcDbVertex
100
AcDb2dVertex
 10
2292.5
 20
1097.207107
 30
0.0
  0
VERTEX
  5
2CD
100
AcDbEntity
  8
化粧台
  6
EXLTYPE2
 62
     6
100
AcDbVertex
100
AcDb2dVertex
 10
2296.0
 20
1099.707107
 30
0.0
  0
VERTEX
  5
2CE
100
AcDbEntity
  8
化粧台
  6
EXLTYPE2
 62
     6
100
AcDbVertex
100
AcDb2dVertex
 10
2292.5
 20
1102.207107
 30
0.0
  0
VERTEX
  5
2CF
100
AcDbEntity
  8
化粧台
  6
EXLTYPE2
 62
     6
100
AcDbVertex
100
AcDb2dVertex
 10
2296.0
 20
1104.707107
 30
0.0
  0
VERTEX
  5
2D0
100
AcDbEntity
  8
化粧台
  6
EXLTYPE2
 62
     6
100
AcDbVertex
100
AcDb2dVertex
 10
2292.5
 20
1107.207107
 30
0.0
  0
VERTEX
  5
2D1
100
AcDbEntity
  8
化粧台
  6
EXLTYPE2
 62
     6
100
AcDbVertex
100
AcDb2dVertex
 10
2296.0
 20
1109.707107
 30
0.0
  0
VERTEX
  5
2D2
100
AcDbEntity
  8
化粧台
  6
EXLTYPE2
 62
     6
100
AcDbVertex
100
AcDb2dVertex
 10
2292.5
 20
1112.207107
 30
0.0
  0
VERTEX
  5
2D3
100
AcDbEntity
  8
化粧台
  6
EXLTYPE2
 62
     6
100
AcDbVertex
100
AcDb2dVertex
 10
2296.0
 20
1114.707107
 30
0.0
  0
VERTEX
  5
2D4
100
AcDbEntity
  8
化粧台
  6
EXLTYPE2
 62
     6
100
AcDbVertex
100
AcDb2dVertex
 10
2292.5
 20
1117.207107
 30
0.0
  0
VERTEX
  5
2D5
100
AcDbEntity
  8
化粧台
  6
EXLTYPE2
 62
     6
100
AcDbVertex
100
AcDb2dVertex
 10
2296.0
 20
1119.707107
 30
0.0
  0
VERTEX
  5
2D6
100
AcDbEntity
  8
化粧台
  6
EXLTYPE2
 62
     6
100
AcDbVertex
100
AcDb2dVertex
 10
2292.5
 20
1122.207107
 30
0.0
  0
VERTEX
  5
2D7
100
AcDbEntity
  8
化粧台
  6
EXLTYPE2
 62
     6
100
AcDbVertex
100
AcDb2dVertex
 10
2296.0
 20
1124.707107
 30
0.0
  0
VERTEX
  5
2D8
100
AcDbEntity
  8
化粧台
  6
EXLTYPE2
 62
     6
100
AcDbVertex
100
AcDb2dVertex
 10
2292.5
 20
1127.207107
 30
0.0
  0
VERTEX
  5
2D9
100
AcDbEntity
  8
化粧台
  6
EXLTYPE2
 62
     6
100
AcDbVertex
100
AcDb2dVertex
 10
2296.0
 20
1129.707107
 30
0.0
  0
VERTEX
  5
2DA
100
AcDbEntity
  8
化粧台
  6
EXLTYPE2
 62
     6
100
AcDbVertex
100
AcDb2dVertex
 10
2292.5
 20
1132.207107
 30
0.0
  0
VERTEX
  5
2DB
100
AcDbEntity
  8
化粧台
  6
EXLTYPE2
 62
     6
100
AcDbVertex
100
AcDb2dVertex
 10
2296.0
 20
1134.707107
 30
0.0
  0
VERTEX
  5
2DC
100
AcDbEntity
  8
化粧台
  6
EXLTYPE2
 62
     6
100
AcDbVertex
100
AcDb2dVertex
 10
2292.5
 20
1137.207107
 30
0.0
  0
VERTEX
  5
2DD
100
AcDbEntity
  8
化粧台
  6
EXLTYPE2
 62
     6
100
AcDbVertex
100
AcDb2dVertex
 10
2296.0
 20
1139.707107
 30
0.0
  0
VERTEX
  5
2DE
100
AcDbEntity
  8
化粧台
  6
EXLTYPE2
 62
     6
100
AcDbVertex
100
AcDb2dVertex
 10
2292.5
 20
1142.207107
 30
0.0
  0
VERTEX
  5
2DF
100
AcDbEntity
  8
化粧台
  6
EXLTYPE2
 62
     6
100
AcDbVertex
100
AcDb2dVertex
 10
2296.0
 20
1144.707107
 30
0.0
  0
VERTEX
  5
2E0
100
AcDbEntity
  8
化粧台
  6
EXLTYPE2
 62
     6
100
AcDbVertex
100
AcDb2dVertex
 10
2292.5
 20
1147.207107
 30
0.0
  0
VERTEX
  5
2E1
100
AcDbEntity
  8
化粧台
  6
EXLTYPE2
 62
     6
100
AcDbVertex
100
AcDb2dVertex
 10
2296.0
 20
1149.707107
 30
0.0
  0
VERTEX
  5
2E2
100
AcDbEntity
  8
化粧台
  6
EXLTYPE2
 62
     6
100
AcDbVertex
100
AcDb2dVertex
 10
2292.5
 20
1152.207107
 30
0.0
  0
VERTEX
  5
2E3
100
AcDbEntity
  8
化粧台
  6
EXLTYPE2
 62
     6
100
AcDbVertex
100
AcDb2dVertex
 10
2296.0
 20
1154.707107
 30
0.0
  0
VERTEX
  5
2E4
100
AcDbEntity
  8
化粧台
  6
EXLTYPE2
 62
     6
100
AcDbVertex
100
AcDb2dVertex
 10
2292.5
 20
1157.207107
 30
0.0
  0
VERTEX
  5
2E5
100
AcDbEntity
  8
化粧台
  6
EXLTYPE2
 62
     6
100
AcDbVertex
100
AcDb2dVertex
 10
2296.0
 20
1159.707107
 30
0.0
  0
VERTEX
  5
2E6
100
AcDbEntity
  8
化粧台
  6
EXLTYPE2
 62
     6
100
AcDbVertex
100
AcDb2dVertex
 10
2292.5
 20
1162.207107
 30
0.0
  0
VERTEX
  5
2E7
100
AcDbEntity
  8
化粧台
  6
EXLTYPE2
 62
     6
100
AcDbVertex
100
AcDb2dVertex
 10
2296.0
 20
1164.707107
 30
0.0
  0
VERTEX
  5
2E8
100
AcDbEntity
  8
化粧台
  6
EXLTYPE2
 62
     6
100
AcDbVertex
100
AcDb2dVertex
 10
2292.5
 20
1167.207107
 30
0.0
  0
VERTEX
  5
2E9
100
AcDbEntity
  8
化粧台
  6
EXLTYPE2
 62
     6
100
AcDbVertex
100
AcDb2dVertex
 10
2296.0
 20
1169.707107
 30
0.0
  0
VERTEX
  5
2EA
100
AcDbEntity
  8
化粧台
  6
EXLTYPE2
 62
     6
100
AcDbVertex
100
AcDb2dVertex
 10
2292.5
 20
1172.207107
 30
0.0
  0
VERTEX
  5
2EB
100
AcDbEntity
  8
化粧台
  6
EXLTYPE2
 62
     6
100
AcDbVertex
100
AcDb2dVertex
 10
2296.0
 20
1174.707107
 30
0.0
  0
VERTEX
  5
2EC
100
AcDbEntity
  8
化粧台
  6
EXLTYPE2
 62
     6
100
AcDbVertex
100
AcDb2dVertex
 10
2292.5
 20
1177.207107
 30
0.0
  0
VERTEX
  5
2ED
100
AcDbEntity
  8
化粧台
  6
EXLTYPE2
 62
     6
100
AcDbVertex
100
AcDb2dVertex
 10
2296.0
 20
1179.707107
 30
0.0
  0
VERTEX
  5
2EE
100
AcDbEntity
  8
化粧台
  6
EXLTYPE2
 62
     6
100
AcDbVertex
100
AcDb2dVertex
 10
2292.5
 20
1182.207107
 30
0.0
  0
VERTEX
  5
2EF
100
AcDbEntity
  8
化粧台
  6
EXLTYPE2
 62
     6
100
AcDbVertex
100
AcDb2dVertex
 10
2296.0
 20
1184.707107
 30
0.0
  0
VERTEX
  5
2F0
100
AcDbEntity
  8
化粧台
  6
EXLTYPE2
 62
     6
100
AcDbVertex
100
AcDb2dVertex
 10
2292.5
 20
1187.207107
 30
0.0
  0
VERTEX
  5
2F1
100
AcDbEntity
  8
化粧台
  6
EXLTYPE2
 62
     6
100
AcDbVertex
100
AcDb2dVertex
 10
2296.0
 20
1189.707107
 30
0.0
  0
VERTEX
  5
2F2
100
AcDbEntity
  8
化粧台
  6
EXLTYPE2
 62
     6
100
AcDbVertex
100
AcDb2dVertex
 10
2292.5
 20
1192.207107
 30
0.0
  0
VERTEX
  5
2F3
100
AcDbEntity
  8
化粧台
  6
EXLTYPE2
 62
     6
100
AcDbVertex
100
AcDb2dVertex
 10
2296.0
 20
1194.707107
 30
0.0
  0
VERTEX
  5
2F4
100
AcDbEntity
  8
化粧台
  6
EXLTYPE2
 62
     6
100
AcDbVertex
100
AcDb2dVertex
 10
2292.5
 20
1197.207107
 30
0.0
  0
VERTEX
  5
2F5
100
AcDbEntity
  8
化粧台
  6
EXLTYPE2
 62
     6
100
AcDbVertex
100
AcDb2dVertex
 10
2296.0
 20
1199.707107
 30
0.0
  0
VERTEX
  5
2F6
100
AcDbEntity
  8
化粧台
  6
EXLTYPE2
 62
     6
100
AcDbVertex
100
AcDb2dVertex
 10
2292.5
 20
1202.207107
 30
0.0
  0
VERTEX
  5
2F7
100
AcDbEntity
  8
化粧台
  6
EXLTYPE2
 62
     6
100
AcDbVertex
100
AcDb2dVertex
 10
2296.0
 20
1204.707107
 30
0.0
  0
VERTEX
  5
2F8
100
AcDbEntity
  8
化粧台
  6
EXLTYPE2
 62
     6
100
AcDbVertex
100
AcDb2dVertex
 10
2292.5
 20
1207.207107
 30
0.0
  0
VERTEX
  5
2F9
100
AcDbEntity
  8
化粧台
  6
EXLTYPE2
 62
     6
100
AcDbVertex
100
AcDb2dVertex
 10
2296.0
 20
1209.707107
 30
0.0
  0
VERTEX
  5
2FA
100
AcDbEntity
  8
化粧台
  6
EXLTYPE2
 62
     6
100
AcDbVertex
100
AcDb2dVertex
 10
2292.5
 20
1212.207107
 30
0.0
  0
VERTEX
  5
2FB
100
AcDbEntity
  8
化粧台
  6
EXLTYPE2
 62
     6
100
AcDbVertex
100
AcDb2dVertex
 10
2296.0
 20
1214.707107
 30
0.0
  0
VERTEX
  5
2FC
100
AcDbEntity
  8
化粧台
  6
EXLTYPE2
 62
     6
100
AcDbVertex
100
AcDb2dVertex
 10
2292.5
 20
1217.207107
 30
0.0
  0
VERTEX
  5
2FD
100
AcDbEntity
  8
化粧台
  6
EXLTYPE2
 62
     6
100
AcDbVertex
100
AcDb2dVertex
 10
2296.0
 20
1219.707107
 30
0.0
  0
VERTEX
  5
2FE
100
AcDbEntity
  8
化粧台
  6
EXLTYPE2
 62
     6
100
AcDbVertex
100
AcDb2dVertex
 10
2292.5
 20
1222.207107
 30
0.0
  0
VERTEX
  5
2FF
100
AcDbEntity
  8
化粧台
  6
EXLTYPE2
 62
     6
100
AcDbVertex
100
AcDb2dVertex
 10
2296.0
 20
1224.707107
 30
0.0
  0
VERTEX
  5
300
100
AcDbEntity
  8
化粧台
  6
EXLTYPE2
 62
     6
100
AcDbVertex
100
AcDb2dVertex
 10
2292.5
 20
1227.207107
 30
0.0
  0
VERTEX
  5
301
100
AcDbEntity
  8
化粧台
  6
EXLTYPE2
 62
     6
100
AcDbVertex
100
AcDb2dVertex
 10
2296.0
 20
1229.707107
 30
0.0
  0
VERTEX
  5
302
100
AcDbEntity
  8
化粧台
  6
EXLTYPE2
 62
     6
100
AcDbVertex
100
AcDb2dVertex
 10
2292.5
 20
1232.207107
 30
0.0
  0
VERTEX
  5
303
100
AcDbEntity
  8
化粧台
  6
EXLTYPE2
 62
     6
100
AcDbVertex
100
AcDb2dVertex
 10
2296.0
 20
1234.707107
 30
0.0
  0
VERTEX
  5
304
100
AcDbEntity
  8
化粧台
  6
EXLTYPE2
 62
     6
100
AcDbVertex
100
AcDb2dVertex
 10
2292.5
 20
1237.207107
 30
0.0
  0
VERTEX
  5
305
100
AcDbEntity
  8
化粧台
  6
EXLTYPE2
 62
     6
100
AcDbVertex
100
AcDb2dVertex
 10
2296.0
 20
1239.707107
 30
0.0
  0
VERTEX
  5
306
100
AcDbEntity
  8
化粧台
  6
EXLTYPE2
 62
     6
100
AcDbVertex
100
AcDb2dVertex
 10
2292.5
 20
1242.207107
 30
0.0
  0
VERTEX
  5
307
100
AcDbEntity
  8
化粧台
  6
EXLTYPE2
 62
     6
100
AcDbVertex
100
AcDb2dVertex
 10
2296.0
 20
1244.707107
 30
0.0
  0
VERTEX
  5
308
100
AcDbEntity
  8
化粧台
  6
EXLTYPE2
 62
     6
100
AcDbVertex
100
AcDb2dVertex
 10
2292.5
 20
1247.207107
 30
0.0
  0
VERTEX
  5
309
100
AcDbEntity
  8
化粧台
  6
EXLTYPE2
 62
     6
100
AcDbVertex
100
AcDb2dVertex
 10
2296.0
 20
1249.707107
 30
0.0
  0
VERTEX
  5
30A
100
AcDbEntity
  8
化粧台
  6
EXLTYPE2
 62
     6
100
AcDbVertex
100
AcDb2dVertex
 10
2292.5
 20
1252.207107
 30
0.0
  0
VERTEX
  5
30B
100
AcDbEntity
  8
化粧台
  6
EXLTYPE2
 62
     6
100
AcDbVertex
100
AcDb2dVertex
 10
2296.0
 20
1254.707107
 30
0.0
  0
VERTEX
  5
30C
100
AcDbEntity
  8
化粧台
  6
EXLTYPE2
 62
     6
100
AcDbVertex
100
AcDb2dVertex
 10
2292.5
 20
1257.207107
 30
0.0
  0
VERTEX
  5
30D
100
AcDbEntity
  8
化粧台
  6
EXLTYPE2
 62
     6
100
AcDbVertex
100
AcDb2dVertex
 10
2296.0
 20
1259.707107
 30
0.0
  0
VERTEX
  5
30E
100
AcDbEntity
  8
化粧台
  6
EXLTYPE2
 62
     6
100
AcDbVertex
100
AcDb2dVertex
 10
2292.5
 20
1262.207107
 30
0.0
  0
VERTEX
  5
30F
100
AcDbEntity
  8
化粧台
  6
EXLTYPE2
 62
     6
100
AcDbVertex
100
AcDb2dVertex
 10
2296.0
 20
1264.707107
 30
0.0
  0
VERTEX
  5
310
100
AcDbEntity
  8
化粧台
  6
EXLTYPE2
 62
     6
100
AcDbVertex
100
AcDb2dVertex
 10
2292.5
 20
1267.207107
 30
0.0
  0
VERTEX
  5
311
100
AcDbEntity
  8
化粧台
  6
EXLTYPE2
 62
     6
100
AcDbVertex
100
AcDb2dVertex
 10
2296.0
 20
1269.707107
 30
0.0
  0
VERTEX
  5
312
100
AcDbEntity
  8
化粧台
  6
EXLTYPE2
 62
     6
100
AcDbVertex
100
AcDb2dVertex
 10
2292.5
 20
1272.207107
 30
0.0
  0
VERTEX
  5
313
100
AcDbEntity
  8
化粧台
  6
EXLTYPE2
 62
     6
100
AcDbVertex
100
AcDb2dVertex
 10
2296.0
 20
1274.707107
 30
0.0
  0
VERTEX
  5
314
100
AcDbEntity
  8
化粧台
  6
EXLTYPE2
 62
     6
100
AcDbVertex
100
AcDb2dVertex
 10
2292.5
 20
1277.207107
 30
0.0
  0
VERTEX
  5
315
100
AcDbEntity
  8
化粧台
  6
EXLTYPE2
 62
     6
100
AcDbVertex
100
AcDb2dVertex
 10
2296.0
 20
1279.707107
 30
0.0
  0
VERTEX
  5
316
100
AcDbEntity
  8
化粧台
  6
EXLTYPE2
 62
     6
100
AcDbVertex
100
AcDb2dVertex
 10
2292.5
 20
1282.207107
 30
0.0
  0
VERTEX
  5
317
100
AcDbEntity
  8
化粧台
  6
EXLTYPE2
 62
     6
100
AcDbVertex
100
AcDb2dVertex
 10
2296.0
 20
1284.707107
 30
0.0
  0
VERTEX
  5
318
100
AcDbEntity
  8
化粧台
  6
EXLTYPE2
 62
     6
100
AcDbVertex
100
AcDb2dVertex
 10
2292.5
 20
1287.207107
 30
0.0
  0
VERTEX
  5
319
100
AcDbEntity
  8
化粧台
  6
EXLTYPE2
 62
     6
100
AcDbVertex
100
AcDb2dVertex
 10
2296.0
 20
1289.707107
 30
0.0
  0
VERTEX
  5
31A
100
AcDbEntity
  8
化粧台
  6
EXLTYPE2
 62
     6
100
AcDbVertex
100
AcDb2dVertex
 10
2292.5
 20
1292.207107
 30
0.0
  0
VERTEX
  5
31B
100
AcDbEntity
  8
化粧台
  6
EXLTYPE2
 62
     6
100
AcDbVertex
100
AcDb2dVertex
 10
2296.0
 20
1294.707107
 30
0.0
  0
VERTEX
  5
31C
100
AcDbEntity
  8
化粧台
  6
EXLTYPE2
 62
     6
100
AcDbVertex
100
AcDb2dVertex
 10
2292.5
 20
1297.207107
 30
0.0
  0
VERTEX
  5
31D
100
AcDbEntity
  8
化粧台
  6
EXLTYPE2
 62
     6
100
AcDbVertex
100
AcDb2dVertex
 10
2296.0
 20
1299.707107
 30
0.0
  0
VERTEX
  5
31E
100
AcDbEntity
  8
化粧台
  6
EXLTYPE2
 62
     6
100
AcDbVertex
100
AcDb2dVertex
 10
2292.5
 20
1302.207107
 30
0.0
  0
VERTEX
  5
31F
100
AcDbEntity
  8
化粧台
  6
EXLTYPE2
 62
     6
100
AcDbVertex
100
AcDb2dVertex
 10
2296.0
 20
1304.707107
 30
0.0
  0
VERTEX
  5
320
100
AcDbEntity
  8
化粧台
  6
EXLTYPE2
 62
     6
100
AcDbVertex
100
AcDb2dVertex
 10
2292.5
 20
1307.207107
 30
0.0
  0
VERTEX
  5
321
100
AcDbEntity
  8
化粧台
  6
EXLTYPE2
 62
     6
100
AcDbVertex
100
AcDb2dVertex
 10
2294.15
 20
1309.707107
 30
0.0
  0
SEQEND
  5
322
100
AcDbEntity
  8
化粧台
  6
EXLTYPE2
 62
     6
  0
LINE
  5
323
100
AcDbEntity
  8
化粧台
  6
CONTINUOUS
 62
     6
100
AcDbLine
 10
2296.0
 20
909.707107
 30
0.0
 11
2324.0
 21
909.707107
 31
0.0
  0
LINE
  5
324
100
AcDbEntity
  8
化粧台
  6
CONTINUOUS
 62
     6
100
AcDbLine
 10
2296.0
 20
904.707107
 30
0.0
 11
2324.0
 21
904.707107
 31
0.0
  0
LINE
  5
325
100
AcDbEntity
  8
化粧台
  6
CONTINUOUS
 62
     6
100
AcDbLine
 10
2296.0
 20
899.707107
 30
0.0
 11
2324.0
 21
899.707107
 31
0.0
  0
LINE
  5
326
100
AcDbEntity
  8
化粧台
  6
CONTINUOUS
 62
     6
100
AcDbLine
 10
2296.0
 20
1009.707107
 30
0.0
 11
2310.0
 21
1009.707107
 31
0.0
  0
LINE
  5
327
100
AcDbEntity
  8
化粧台
  6
CONTINUOUS
 62
     6
100
AcDbLine
 10
2310.0
 20
1004.707107
 30
0.0
 11
2324.0
 21
1004.707107
 31
0.0
  0
LINE
  5
328
100
AcDbEntity
  8
化粧台
  6
CONTINUOUS
 62
     6
100
AcDbLine
 10
2296.0
 20
999.707107
 30
0.0
 11
2310.0
 21
999.707107
 31
0.0
  0
LINE
  5
329
100
AcDbEntity
  8
化粧台
  6
CONTINUOUS
 62
     6
100
AcDbLine
 10
2310.0
 20
994.707107
 30
0.0
 11
2324.0
 21
994.707107
 31
0.0
  0
LINE
  5
32A
100
AcDbEntity
  8
化粧台
  6
CONTINUOUS
 62
     6
100
AcDbLine
 10
2296.0
 20
989.707107
 30
0.0
 11
2310.0
 21
989.707107
 31
0.0
  0
LINE
  5
32B
100
AcDbEntity
  8
化粧台
  6
CONTINUOUS
 62
     6
100
AcDbLine
 10
2310.0
 20
984.707107
 30
0.0
 11
2324.0
 21
984.707107
 31
0.0
  0
LINE
  5
32C
100
AcDbEntity
  8
化粧台
  6
CONTINUOUS
 62
     6
100
AcDbLine
 10
2296.0
 20
979.707107
 30
0.0
 11
2310.0
 21
979.707107
 31
0.0
  0
LINE
  5
32D
100
AcDbEntity
  8
化粧台
  6
CONTINUOUS
 62
     6
100
AcDbLine
 10
2310.0
 20
974.707107
 30
0.0
 11
2324.0
 21
974.707107
 31
0.0
  0
LINE
  5
32E
100
AcDbEntity
  8
化粧台
  6
CONTINUOUS
 62
     6
100
AcDbLine
 10
2296.0
 20
969.707107
 30
0.0
 11
2310.0
 21
969.707107
 31
0.0
  0
LINE
  5
32F
100
AcDbEntity
  8
化粧台
  6
CONTINUOUS
 62
     6
100
AcDbLine
 10
2310.0
 20
964.707107
 30
0.0
 11
2324.0
 21
964.707107
 31
0.0
  0
LINE
  5
330
100
AcDbEntity
  8
化粧台
  6
CONTINUOUS
 62
     6
100
AcDbLine
 10
2296.0
 20
959.707107
 30
0.0
 11
2310.0
 21
959.707107
 31
0.0
  0
LINE
  5
331
100
AcDbEntity
  8
化粧台
  6
CONTINUOUS
 62
     6
100
AcDbLine
 10
2310.0
 20
954.707107
 30
0.0
 11
2324.0
 21
954.707107
 31
0.0
  0
LINE
  5
332
100
AcDbEntity
  8
化粧台
  6
CONTINUOUS
 62
     6
100
AcDbLine
 10
2296.0
 20
949.707107
 30
0.0
 11
2310.0
 21
949.707107
 31
0.0
  0
LINE
  5
333
100
AcDbEntity
  8
化粧台
  6
CONTINUOUS
 62
     6
100
AcDbLine
 10
2310.0
 20
944.707107
 30
0.0
 11
2324.0
 21
944.707107
 31
0.0
  0
LINE
  5
334
100
AcDbEntity
  8
化粧台
  6
CONTINUOUS
 62
     6
100
AcDbLine
 10
2296.0
 20
939.707107
 30
0.0
 11
2310.0
 21
939.707107
 31
0.0
  0
LINE
  5
335
100
AcDbEntity
  8
化粧台
  6
CONTINUOUS
 62
     6
100
AcDbLine
 10
2310.0
 20
934.707107
 30
0.0
 11
2324.0
 21
934.707107
 31
0.0
  0
LINE
  5
336
100
AcDbEntity
  8
化粧台
  6
CONTINUOUS
 62
     6
100
AcDbLine
 10
2296.0
 20
929.707107
 30
0.0
 11
2310.0
 21
929.707107
 31
0.0
  0
LINE
  5
337
100
AcDbEntity
  8
化粧台
  6
CONTINUOUS
 62
     6
100
AcDbLine
 10
2310.0
 20
924.707107
 30
0.0
 11
2324.0
 21
924.707107
 31
0.0
  0
LINE
  5
338
100
AcDbEntity
  8
化粧台
  6
CONTINUOUS
 62
     6
100
AcDbLine
 10
2296.0
 20
919.707107
 30
0.0
 11
2310.0
 21
919.707107
 31
0.0
  0
LINE
  5
339
100
AcDbEntity
  8
化粧台
  6
CONTINUOUS
 62
     6
100
AcDbLine
 10
2310.0
 20
914.707107
 30
0.0
 11
2324.0
 21
914.707107
 31
0.0
  0
LINE
  5
33A
100
AcDbEntity
  8
化粧台
  6
CONTINUOUS
 62
     6
100
AcDbLine
 10
2294.15
 20
779.707107
 30
0.0
 11
2325.85
 21
779.707107
 31
0.0
  0
LINE
  5
33B
100
AcDbEntity
  8
化粧台
  6
CONTINUOUS
 62
     6
100
AcDbLine
 10
2294.15
 20
879.707107
 30
0.0
 11
2294.15
 21
779.707107
 31
0.0
  0
LINE
  5
33C
100
AcDbEntity
  8
化粧台
  6
CONTINUOUS
 62
     6
100
AcDbLine
 10
2325.85
 20
779.707107
 30
0.0
 11
2325.85
 21
879.707107
 31
0.0
  0
LINE
  5
33D
100
AcDbEntity
  8
化粧台
  6
CONTINUOUS
 62
     6
100
AcDbLine
 10
2294.15
 20
879.707107
 30
0.0
 11
2325.85
 21
879.707107
 31
0.0
  0
LINE
  5
33E
100
AcDbEntity
  8
化粧台
  6
CONTINUOUS
 62
     6
100
AcDbLine
 10
2296.0
 20
894.707107
 30
0.0
 11
2324.0
 21
894.707107
 31
0.0
  0
LINE
  5
33F
100
AcDbEntity
  8
化粧台
  6
CONTINUOUS
 62
     6
100
AcDbLine
 10
2296.0
 20
889.707107
 30
0.0
 11
2324.0
 21
889.707107
 31
0.0
  0
LINE
  5
340
100
AcDbEntity
  8
化粧台
  6
CONTINUOUS
 62
     6
100
AcDbLine
 10
2296.0
 20
884.707107
 30
0.0
 11
2324.0
 21
884.707107
 31
0.0
  0
LINE
  5
341
100
AcDbEntity
  8
化粧台
  6
CONTINUOUS
 62
     6
100
AcDbLine
 10
2337.0
 20
944.8
 30
0.0
 11
2337.0
 21
941.0
 31
0.0
  0
LINE
  5
342
100
AcDbEntity
  8
化粧台
  6
CONTINUOUS
 62
     6
100
AcDbLine
 10
2283.0
 20
948.0
 30
0.0
 11
2283.0
 21
944.4
 31
0.0
  0
LINE
  5
343
100
AcDbEntity
  8
化粧台
  6
CONTINUOUS
 62
     6
100
AcDbLine
 10
2343.0
 20
927.0
 30
0.0
 11
2343.0
 21
920.5
 31
0.0
  0
LINE
  5
344
100
AcDbEntity
  8
化粧台
  6
CONTINUOUS
 62
     6
100
AcDbLine
 10
2277.0
 20
936.0
 30
0.0
 11
2277.0
 21
928.4
 31
0.0
  0
LINE
  5
345
100
AcDbEntity
  8
化粧台
  6
EXLTYPE2
 62
     6
100
AcDbLine
 10
2277.0
 20
920.5
 30
0.0
 11
2343.0
 21
920.5
 31
0.0
  0
LINE
  5
346
100
AcDbEntity
  8
化粧台
  6
EXLTYPE2
 62
     6
100
AcDbLine
 10
2279.5
 20
938.5
 30
0.0
 11
2340.5
 21
938.5
 31
0.0
  0
LINE
  5
347
100
AcDbEntity
  8
化粧台
  6
EXLTYPE2
 62
     6
100
AcDbLine
 10
2285.5
 20
950.5
 30
0.0
 11
2334.5
 21
950.5
 31
0.0
  0
ARC
  5
348
100
AcDbEntity
  8
化粧台
  6
CONTINUOUS
 62
     6
100
AcDbCircle
 10
2339.5
 20
941.0
 30
0.0
 40
2.5
100
AcDbArc
 50
180.0
 51
270.0
  0
ARC
  5
349
100
AcDbEntity
  8
化粧台
  6
CONTINUOUS
 62
     6
100
AcDbCircle
 10
2280.5
 20
941.0
 30
0.0
 40
2.5
100
AcDbArc
 50
270.0
 51
0.0
  0
ARC
  5
34A
100
AcDbEntity
  8
化粧台
  6
CONTINUOUS
 62
     6
100
AcDbCircle
 10
2340.5
 20
936.0
 30
0.0
 40
2.5
100
AcDbArc
 50
0.0
 51
90.0
  0
ARC
  5
34B
100
AcDbEntity
  8
化粧台
  6
CONTINUOUS
 62
     6
100
AcDbCircle
 10
2334.5
 20
948.0
 30
0.0
 40
2.5
100
AcDbArc
 50
0.0
 51
90.0
  0
ARC
  5
34C
100
AcDbEntity
  8
化粧台
  6
CONTINUOUS
 62
     6
100
AcDbCircle
 10
2285.5
 20
948.0
 30
0.0
 40
2.5
100
AcDbArc
 50
90.0
 51
180.0
  0
ARC
  5
34D
100
AcDbEntity
  8
化粧台
  6
CONTINUOUS
 62
     6
100
AcDbCircle
 10
2279.5
 20
936.0
 30
0.0
 40
2.5
100
AcDbArc
 50
90.0
 51
180.0
  0
POLYLINE
  5
34E
100
AcDbEntity
  8
化粧台
  6
CONTINUOUS
 62
     6
100
AcDb2dPolyline
 66
     1
 10
0.0
 20
0.0
 30
0.0
 70
   128
  0
VERTEX
  5
34F
100
AcDbEntity
  8
化粧台
  6
CONTINUOUS
 62
     6
100
AcDbVertex
100
AcDb2dVertex
 10
2294.15
 20
879.707107
 30
0.0
  0
VERTEX
  5
350
100
AcDbEntity
  8
化粧台
  6
CONTINUOUS
 62
     6
100
AcDbVertex
100
AcDb2dVertex
 10
2292.5
 20
882.207107
 30
0.0
  0
VERTEX
  5
351
100
AcDbEntity
  8
化粧台
  6
CONTINUOUS
 62
     6
100
AcDbVertex
100
AcDb2dVertex
 10
2296.0
 20
884.707107
 30
0.0
  0
VERTEX
  5
352
100
AcDbEntity
  8
化粧台
  6
CONTINUOUS
 62
     6
100
AcDbVertex
100
AcDb2dVertex
 10
2292.5
 20
887.207107
 30
0.0
  0
VERTEX
  5
353
100
AcDbEntity
  8
化粧台
  6
CONTINUOUS
 62
     6
100
AcDbVertex
100
AcDb2dVertex
 10
2296.0
 20
889.707107
 30
0.0
  0
VERTEX
  5
354
100
AcDbEntity
  8
化粧台
  6
CONTINUOUS
 62
     6
100
AcDbVertex
100
AcDb2dVertex
 10
2292.5
 20
892.207107
 30
0.0
  0
VERTEX
  5
355
100
AcDbEntity
  8
化粧台
  6
CONTINUOUS
 62
     6
100
AcDbVertex
100
AcDb2dVertex
 10
2296.0
 20
894.707107
 30
0.0
  0
VERTEX
  5
356
100
AcDbEntity
  8
化粧台
  6
CONTINUOUS
 62
     6
100
AcDbVertex
100
AcDb2dVertex
 10
2292.5
 20
897.207107
 30
0.0
  0
VERTEX
  5
357
100
AcDbEntity
  8
化粧台
  6
CONTINUOUS
 62
     6
100
AcDbVertex
100
AcDb2dVertex
 10
2296.0
 20
899.707107
 30
0.0
  0
VERTEX
  5
358
100
AcDbEntity
  8
化粧台
  6
CONTINUOUS
 62
     6
100
AcDbVertex
100
AcDb2dVertex
 10
2292.5
 20
902.207107
 30
0.0
  0
VERTEX
  5
359
100
AcDbEntity
  8
化粧台
  6
CONTINUOUS
 62
     6
100
AcDbVertex
100
AcDb2dVertex
 10
2296.0
 20
904.707107
 30
0.0
  0
VERTEX
  5
35A
100
AcDbEntity
  8
化粧台
  6
CONTINUOUS
 62
     6
100
AcDbVertex
100
AcDb2dVertex
 10
2292.5
 20
907.207107
 30
0.0
  0
VERTEX
  5
35B
100
AcDbEntity
  8
化粧台
  6
CONTINUOUS
 62
     6
100
AcDbVertex
100
AcDb2dVertex
 10
2296.0
 20
909.707107
 30
0.0
  0
VERTEX
  5
35C
100
AcDbEntity
  8
化粧台
  6
CONTINUOUS
 62
     6
100
AcDbVertex
100
AcDb2dVertex
 10
2292.5
 20
912.207107
 30
0.0
  0
VERTEX
  5
35D
100
AcDbEntity
  8
化粧台
  6
CONTINUOUS
 62
     6
100
AcDbVertex
100
AcDb2dVertex
 10
2296.0
 20
914.707107
 30
0.0
  0
VERTEX
  5
35E
100
AcDbEntity
  8
化粧台
  6
CONTINUOUS
 62
     6
100
AcDbVertex
100
AcDb2dVertex
 10
2294.889949
 20
915.5
 30
0.0
  0
SEQEND
  5
35F
100
AcDbEntity
  8
化粧台
  6
CONTINUOUS
 62
     6
  0
POLYLINE
  5
360
100
AcDbEntity
  8
化粧台
  6
CONTINUOUS
 62
     6
100
AcDb2dPolyline
 66
     1
 10
0.0
 20
0.0
 30
0.0
 70
   128
  0
VERTEX
  5
361
100
AcDbEntity
  8
化粧台
  6
CONTINUOUS
 62
     6
100
AcDbVertex
100
AcDb2dVertex
 10
2325.85
 20
879.707107
 30
0.0
  0
VERTEX
  5
362
100
AcDbEntity
  8
化粧台
  6
CONTINUOUS
 62
     6
100
AcDbVertex
100
AcDb2dVertex
 10
2327.5
 20
882.207107
 30
0.0
  0
VERTEX
  5
363
100
AcDbEntity
  8
化粧台
  6
CONTINUOUS
 62
     6
100
AcDbVertex
100
AcDb2dVertex
 10
2324.0
 20
884.707107
 30
0.0
  0
VERTEX
  5
364
100
AcDbEntity
  8
化粧台
  6
CONTINUOUS
 62
     6
100
AcDbVertex
100
AcDb2dVertex
 10
2327.5
 20
887.207107
 30
0.0
  0
VERTEX
  5
365
100
AcDbEntity
  8
化粧台
  6
CONTINUOUS
 62
     6
100
AcDbVertex
100
AcDb2dVertex
 10
2324.0
 20
889.707107
 30
0.0
  0
VERTEX
  5
366
100
AcDbEntity
  8
化粧台
  6
CONTINUOUS
 62
     6
100
AcDbVertex
100
AcDb2dVertex
 10
2327.5
 20
892.207107
 30
0.0
  0
VERTEX
  5
367
100
AcDbEntity
  8
化粧台
  6
CONTINUOUS
 62
     6
100
AcDbVertex
100
AcDb2dVertex
 10
2324.0
 20
894.707107
 30
0.0
  0
VERTEX
  5
368
100
AcDbEntity
  8
化粧台
  6
CONTINUOUS
 62
     6
100
AcDbVertex
100
AcDb2dVertex
 10
2327.5
 20
897.207107
 30
0.0
  0
VERTEX
  5
369
100
AcDbEntity
  8
化粧台
  6
CONTINUOUS
 62
     6
100
AcDbVertex
100
AcDb2dVertex
 10
2324.0
 20
899.707107
 30
0.0
  0
VERTEX
  5
36A
100
AcDbEntity
  8
化粧台
  6
CONTINUOUS
 62
     6
100
AcDbVertex
100
AcDb2dVertex
 10
2327.5
 20
902.207107
 30
0.0
  0
VERTEX
  5
36B
100
AcDbEntity
  8
化粧台
  6
CONTINUOUS
 62
     6
100
AcDbVertex
100
AcDb2dVertex
 10
2324.0
 20
904.707107
 30
0.0
  0
VERTEX
  5
36C
100
AcDbEntity
  8
化粧台
  6
CONTINUOUS
 62
     6
100
AcDbVertex
100
AcDb2dVertex
 10
2327.5
 20
907.207107
 30
0.0
  0
VERTEX
  5
36D
100
AcDbEntity
  8
化粧台
  6
CONTINUOUS
 62
     6
100
AcDbVertex
100
AcDb2dVertex
 10
2324.0
 20
909.707107
 30
0.0
  0
VERTEX
  5
36E
100
AcDbEntity
  8
化粧台
  6
CONTINUOUS
 62
     6
100
AcDbVertex
100
AcDb2dVertex
 10
2327.5
 20
912.207107
 30
0.0
  0
VERTEX
  5
36F
100
AcDbEntity
  8
化粧台
  6
CONTINUOUS
 62
     6
100
AcDbVertex
100
AcDb2dVertex
 10
2324.0
 20
914.707107
 30
0.0
  0
VERTEX
  5
370
100
AcDbEntity
  8
化粧台
  6
CONTINUOUS
 62
     6
100
AcDbVertex
100
AcDb2dVertex
 10
2325.110051
 20
915.5
 30
0.0
  0
SEQEND
  5
371
100
AcDbEntity
  8
化粧台
  6
CONTINUOUS
 62
     6
  0
LINE
  5
372
100
AcDbEntity
  8
化粧台
  6
EXLTYPE3
 62
     6
100
AcDbLine
 10
2220.0
 20
1472.5
 30
0.0
 11
2220.0
 21
1317.1
 31
0.0
  0
LINE
  5
373
100
AcDbEntity
  8
化粧台
  6
EXLTYPE3
 62
     6
100
AcDbLine
 10
2310.0
 20
1331.707107
 30
0.0
 11
2310.0
 21
765.5
 31
0.0
  0
LINE
  5
374
100
AcDbEntity
  8
化粧台
  6
CONTINUOUS
 62
     2
100
AcDbLine
 10
1205.0
 20
915.5
 30
0.0
 11
1190.0
 21
915.5
 31
0.0
  0
LINE
  5
375
100
AcDbEntity
  8
化粧台
  6
CONTINUOUS
 62
     2
100
AcDbLine
 10
1190.0
 20
1010.5
 30
0.0
 11
1190.0
 21
915.5
 31
0.0
  0
LINE
  5
376
100
AcDbEntity
  8
化粧台
  6
CONTINUOUS
 62
     2
100
AcDbLine
 10
1201.5
 20
1502.5
 30
0.0
 11
1201.5
 21
1010.5
 31
0.0
  0
LINE
  5
377
100
AcDbEntity
  8
化粧台
  6
CONTINUOUS
 62
     2
100
AcDbLine
 10
1201.5
 20
1010.5
 30
0.0
 11
922.5
 21
1010.5
 31
0.0
  0
LINE
  5
378
100
AcDbEntity
  8
化粧台
  6
CONTINUOUS
 62
     2
100
AcDbLine
 10
641.5
 20
1502.5
 30
0.0
 11
641.5
 21
1010.5
 31
0.0
  0
LINE
  5
379
100
AcDbEntity
  8
化粧台
  6
CONTINUOUS
 62
     2
100
AcDbLine
 10
920.5
 20
1010.5
 30
0.0
 11
641.5
 21
1010.5
 31
0.0
  0
LINE
  5
37A
100
AcDbEntity
  8
化粧台
  6
CONTINUOUS
 62
     2
100
AcDbLine
 10
1190.0
 20
1005.5
 30
0.0
 11
653.0
 21
1005.5
 31
0.0
  0
ARC
  5
37B
100
AcDbEntity
  8
化粧台
  6
CONTINUOUS
 62
     2
100
AcDbCircle
 10
634.5
 20
1700.5
 30
0.0
 40
10.0
100
AcDbArc
 50
90.0
 51
181.123735
  0
ARC
  5
37C
100
AcDbEntity
  8
化粧台
  6
CONTINUOUS
 62
     2
100
AcDbCircle
 10
635.337307
 20
1524.5
 30
0.0
 40
6.0
100
AcDbArc
 50
181.574853
 51
270.0
  0
LINE
  5
37D
100
AcDbEntity
  8
化粧台
  6
CONTINUOUS
 62
     2
100
AcDbLine
 10
629.339574
 20
1524.335103
 30
0.0
 11
624.503777
 21
1700.225171
 31
0.0
  0
ARC
  5
37E
100
AcDbEntity
  8
化粧台
  6
CONTINUOUS
 62
     2
100
AcDbCircle
 10
634.967386
 20
1683.5
 30
0.0
 40
10.0
100
AcDbArc
 50
90.0
 51
181.574853
  0
ARC
  5
37F
100
AcDbEntity
  8
化粧台
  6
CONTINUOUS
 62
     2
100
AcDbCircle
 10
1208.5
 20
1700.5
 30
0.0
 40
10.0
100
AcDbArc
 50
358.876265
 51
90.0
  0
ARC
  5
380
100
AcDbEntity
  8
化粧台
  6
CONTINUOUS
 62
     2
100
AcDbCircle
 10
1207.662693
 20
1524.5
 30
0.0
 40
6.0
100
AcDbArc
 50
270.0
 51
358.425147
  0
LINE
  5
381
100
AcDbEntity
  8
化粧台
  6
CONTINUOUS
 62
     2
100
AcDbLine
 10
1213.660426
 20
1524.335103
 30
0.0
 11
1218.496223
 21
1700.225171
 31
0.0
  0
ARC
  5
382
100
AcDbEntity
  8
化粧台
  6
CONTINUOUS
 62
     2
100
AcDbCircle
 10
1208.032614
 20
1683.5
 30
0.0
 40
10.0
100
AcDbArc
 50
358.425147
 51
90.0
  0
ARC
  5
383
100
AcDbEntity
  8
化粧台
  6
CONTINUOUS
 62
     2
100
AcDbCircle
 10
921.5
 20
2574.316667
 30
0.0
 40
1031.816667
100
AcDbArc
 50
266.309637
 51
273.690363
  0
LINE
  5
384
100
AcDbEntity
  8
化粧台
  6
CONTINUOUS
 62
     2
100
AcDbLine
 10
635.337307
 20
1518.5
 30
0.0
 11
1207.662693
 21
1518.5
 31
0.0
  0
LINE
  5
385
100
AcDbEntity
  8
化粧台
  6
CONTINUOUS
 62
     2
100
AcDbLine
 10
1085.694842
 20
1687.355533
 30
0.0
 11
757.305158
 21
1687.355533
 31
0.0
  0
LINE
  5
386
100
AcDbEntity
  8
化粧台
  6
CONTINUOUS
 62
     2
100
AcDbLine
 10
634.967386
 20
1693.5
 30
0.0
 11
674.5
 21
1693.5
 31
0.0
  0
ARC
  5
387
100
AcDbEntity
  8
化粧台
  6
CONTINUOUS
 62
     2
100
AcDbCircle
 10
867.960575
 20
1744.224806
 30
0.0
 40
200.0
100
AcDbArc
 50
194.692068
 51
266.309637
  0
ARC
  5
388
100
AcDbEntity
  8
化粧台
  6
CONTINUOUS
 62
     2
100
AcDbCircle
 10
921.5
 20
4461.136364
 30
0.0
 40
2778.636364
100
AcDbArc
 50
264.900102
 51
275.099898
  0
LINE
  5
389
100
AcDbEntity
  8
化粧台
  6
CONTINUOUS
 62
     2
100
AcDbLine
 10
1208.032614
 20
1693.5
 30
0.0
 11
1168.5
 21
1693.5
 31
0.0
  0
ARC
  5
38A
100
AcDbEntity
  8
化粧台
  6
CONTINUOUS
 62
     2
100
AcDbCircle
 10
975.039425
 20
1744.224806
 30
0.0
 40
200.0
100
AcDbArc
 50
273.690363
 51
345.307932
  0
LINE
  5
38B
100
AcDbEntity
  8
化粧台
  6
CONTINUOUS
 62
     2
100
AcDbLine
 10
1205.0
 20
1518.5
 30
0.0
 11
1205.0
 21
915.5
 31
0.0
  0
LINE
  5
38C
100
AcDbEntity
  8
化粧台
  6
CONTINUOUS
 62
     2
100
AcDbLine
 10
1190.0
 20
1518.5
 30
0.0
 11
1190.0
 21
1502.5
 31
0.0
  0
LINE
  5
38D
100
AcDbEntity
  8
化粧台
  6
CONTINUOUS
 62
     2
100
AcDbLine
 10
653.0
 20
1518.5
 30
0.0
 11
653.0
 21
1502.5
 31
0.0
  0
LINE
  5
38E
100
AcDbEntity
  8
化粧台
  6
CONTINUOUS
 62
     2
100
AcDbLine
 10
920.5
 20
1502.5
 30
0.0
 11
920.5
 21
1010.5
 31
0.0
  0
LINE
  5
38F
100
AcDbEntity
  8
化粧台
  6
CONTINUOUS
 62
     2
100
AcDbLine
 10
920.5
 20
1502.5
 30
0.0
 11
641.5
 21
1502.5
 31
0.0
  0
LINE
  5
390
100
AcDbEntity
  8
化粧台
  6
CONTINUOUS
 62
     2
100
AcDbLine
 10
1201.5
 20
1502.5
 30
0.0
 11
922.5
 21
1502.5
 31
0.0
  0
LINE
  5
391
100
AcDbEntity
  8
化粧台
  6
CONTINUOUS
 62
     2
100
AcDbLine
 10
922.5
 20
1502.5
 30
0.0
 11
922.5
 21
1010.5
 31
0.0
  0
ARC
  5
392
100
AcDbEntity
  8
化粧台
  6
EXLTYPE2
 62
     6
100
AcDbCircle
 10
1109.604766
 20
2466.313484
 30
0.0
 40
1010.0
100
AcDbArc
 50
253.16608
 51
256.239069
  0
ARC
  5
393
100
AcDbEntity
  8
化粧台
  6
EXLTYPE2
 62
     6
100
AcDbCircle
 10
843.174149
 20
1585.737124
 30
0.0
 40
90.0
100
AcDbArc
 50
228.337995
 51
253.16608
  0
ARC
  5
394
100
AcDbEntity
  8
化粧台
  6
EXLTYPE2
 62
     6
100
AcDbCircle
 10
866.976135
 20
1475.590845
 30
0.0
 40
10.0
100
AcDbArc
 50
7.457011
 51
76.239069
  0
LINE
  5
395
100
AcDbEntity
  8
化粧台
  6
EXLTYPE2
 62
     6
100
AcDbLine
 10
880.430489
 20
1449.851089
 30
0.0
 11
876.89156
 21
1476.888668
 31
0.0
  0
ARC
  5
396
100
AcDbEntity
  8
化粧台
  6
EXLTYPE2
 62
     6
100
AcDbCircle
 10
885.388202
 20
1450.5
 30
0.0
 40
5.0
100
AcDbArc
 50
187.457011
 51
270.0
  0
LINE
  5
397
100
AcDbEntity
  8
化粧台
  6
EXLTYPE2
 62
     6
100
AcDbLine
 10
885.388202
 20
1445.5
 30
0.0
 11
957.611798
 21
1445.5
 31
0.0
  0
ARC
  5
398
100
AcDbEntity
  8
化粧台
  6
EXLTYPE2
 62
     6
100
AcDbCircle
 10
957.611798
 20
1450.5
 30
0.0
 40
5.0
100
AcDbArc
 50
270.0
 51
352.542989
  0
LINE
  5
399
100
AcDbEntity
  8
化粧台
  6
EXLTYPE2
 62
     6
100
AcDbLine
 10
962.569511
 20
1449.851089
 30
0.0
 11
966.10844
 21
1476.888668
 31
0.0
  0
ARC
  5
39A
100
AcDbEntity
  8
化粧台
  6
EXLTYPE2
 62
     6
100
AcDbCircle
 10
976.023865
 20
1475.590845
 30
0.0
 40
10.0
100
AcDbArc
 50
103.760931
 51
172.542989
  0
ARC
  5
39B
100
AcDbEntity
  8
化粧台
  6
EXLTYPE2
 62
     6
100
AcDbCircle
 10
733.395234
 20
2466.313484
 30
0.0
 40
1010.0
100
AcDbArc
 50
283.760931
 51
286.83392
  0
ARC
  5
39C
100
AcDbEntity
  8
化粧台
  6
EXLTYPE2
 62
     6
100
AcDbCircle
 10
999.825851
 20
1585.737124
 30
0.0
 40
90.0
100
AcDbArc
 50
286.83392
 51
311.662005
  0
CIRCLE
  5
39D
100
AcDbEntity
  8
化粧台
  6
EXLTYPE2
 62
     6
100
AcDbCircle
 10
726.5
 20
1425.5
 30
0.0
 40
7.5
  0
LINE
  5
39E
100
AcDbEntity
  8
化粧台
  6
CONTINUOUS
 62
     6
100
AcDbLine
 10
714.5
 20
1425.5
 30
0.0
 11
740.3
 21
1425.5
 31
0.0
  0
LINE
  5
39F
100
AcDbEntity
  8
化粧台
  6
CONTINUOUS
 62
     6
100
AcDbLine
 10
726.5
 20
1439.3
 30
0.0
 11
726.5
 21
1412.2
 31
0.0
  0
CIRCLE
  5
3A0
100
AcDbEntity
  8
化粧台
  6
EXLTYPE2
 62
     6
100
AcDbCircle
 10
1116.5
 20
1425.5
 30
0.0
 40
7.5
  0
LINE
  5
3A1
100
AcDbEntity
  8
化粧台
  6
CONTINUOUS
 62
     6
100
AcDbLine
 10
1128.5
 20
1425.5
 30
0.0
 11
1102.7
 21
1425.5
 31
0.0
  0
LINE
  5
3A2
100
AcDbEntity
  8
化粧台
  6
CONTINUOUS
 62
     6
100
AcDbLine
 10
1116.5
 20
1439.3
 30
0.0
 11
1116.5
 21
1412.2
 31
0.0
  0
LINE
  5
3A3
100
AcDbEntity
  8
化粧台
  6
CONTINUOUS
 62
     2
100
AcDbLine
 10
652.0
 20
919.0
 30
0.0
 11
652.0
 21
915.5
 31
0.0
  0
LINE
  5
3A4
100
AcDbEntity
  8
化粧台
  6
CONTINUOUS
 62
     2
100
AcDbLine
 10
639.0
 20
919.0
 30
0.0
 11
639.0
 21
915.5
 31
0.0
  0
LINE
  5
3A5
100
AcDbEntity
  8
化粧台
  6
CONTINUOUS
 62
     2
100
AcDbLine
 10
639.0
 20
915.5
 30
0.0
 11
652.0
 21
915.5
 31
0.0
  0
LINE
  5
3A6
100
AcDbEntity
  8
化粧台
  6
CONTINUOUS
 62
     2
100
AcDbLine
 10
638.0
 20
1518.5
 30
0.0
 11
638.0
 21
919.0
 31
0.0
  0
LINE
  5
3A7
100
AcDbEntity
  8
化粧台
  6
CONTINUOUS
 62
     2
100
AcDbLine
 10
1205.0
 20
919.0
 30
0.0
 11
638.0
 21
919.0
 31
0.0
  0
LINE
  5
3A8
100
AcDbEntity
  8
化粧台
  6
CONTINUOUS
 62
     2
100
AcDbLine
 10
653.0
 20
1010.5
 30
0.0
 11
653.0
 21
919.0
 31
0.0
  0
LINE
  5
3A9
100
AcDbEntity
  8
化粧台
  6
CONTINUOUS
 62
     6
100
AcDbLine
 10
928.309939
 20
1269.707107
 30
0.0
 11
935.5
 21
1269.707107
 31
0.0
  0
LINE
  5
3AA
100
AcDbEntity
  8
化粧台
  6
CONTINUOUS
 62
     6
100
AcDbLine
 10
917.478873
 20
1259.707107
 30
0.0
 11
935.5
 21
1259.707107
 31
0.0
  0
LINE
  5
3AB
100
AcDbEntity
  8
化粧台
  6
CONTINUOUS
 62
     6
100
AcDbLine
 10
920.978873
 20
1249.707107
 30
0.0
 11
935.5
 21
1249.707107
 31
0.0
  0
LINE
  5
3AC
100
AcDbEntity
  8
化粧台
  6
CONTINUOUS
 62
     6
100
AcDbLine
 10
907.5
 20
909.707107
 30
0.0
 11
935.5
 21
909.707107
 31
0.0
  0
LINE
  5
3AD
100
AcDbEntity
  8
化粧台
  6
CONTINUOUS
 62
     6
100
AcDbLine
 10
907.5
 20
904.707107
 30
0.0
 11
935.5
 21
904.707107
 31
0.0
  0
LINE
  5
3AE
100
AcDbEntity
  8
化粧台
  6
CONTINUOUS
 62
     6
100
AcDbLine
 10
907.5
 20
899.707107
 30
0.0
 11
935.5
 21
899.707107
 31
0.0
  0
LINE
  5
3AF
100
AcDbEntity
  8
化粧台
  6
CONTINUOUS
 62
     6
100
AcDbLine
 10
920.978873
 20
1239.707107
 30
0.0
 11
935.5
 21
1239.707107
 31
0.0
  0
LINE
  5
3B0
100
AcDbEntity
  8
化粧台
  6
EXLTYPE2
 62
     6
100
AcDbLine
 10
903.0
 20
1360.707107
 30
0.0
 11
903.0
 21
1325.707107
 31
0.0
  0
LINE
  5
3B1
100
AcDbEntity
  8
化粧台
  6
EXLTYPE2
 62
     6
100
AcDbLine
 10
940.0
 20
1360.707107
 30
0.0
 11
940.0
 21
1325.707107
 31
0.0
  0
LINE
  5
3B2
100
AcDbEntity
  8
化粧台
  6
EXLTYPE2
 62
     6
100
AcDbLine
 10
940.0
 20
1325.707107
 30
0.0
 11
937.35
 21
1323.057107
 31
0.0
  0
LINE
  5
3B3
100
AcDbEntity
  8
化粧台
  6
EXLTYPE2
 62
     6
100
AcDbLine
 10
898.1
 20
1360.707107
 30
0.0
 11
944.9
 21
1360.707107
 31
0.0
  0
LINE
  5
3B4
100
AcDbEntity
  8
化粧台
  6
EXLTYPE2
 62
     6
100
AcDbLine
 10
900.1
 20
1378.707107
 30
0.0
 11
942.9
 21
1378.707107
 31
0.0
  0
LINE
  5
3B5
100
AcDbEntity
  8
化粧台
  6
EXLTYPE2
 62
     6
100
AcDbLine
 10
898.1
 20
1376.707107
 30
0.0
 11
898.1
 21
1360.707107
 31
0.0
  0
LINE
  5
3B6
100
AcDbEntity
  8
化粧台
  6
EXLTYPE2
 62
     6
100
AcDbLine
 10
944.9
 20
1376.707107
 30
0.0
 11
944.9
 21
1360.707107
 31
0.0
  0
ARC
  5
3B7
100
AcDbEntity
  8
化粧台
  6
EXLTYPE2
 62
     6
100
AcDbCircle
 10
900.1
 20
1376.707107
 30
0.0
 40
2.0
100
AcDbArc
 50
90.0
 51
180.0
  0
ARC
  5
3B8
100
AcDbEntity
  8
化粧台
  6
EXLTYPE2
 62
     6
100
AcDbCircle
 10
942.9
 20
1376.707107
 30
0.0
 40
2.0
100
AcDbArc
 50
0.0
 51
90.0
  0
LINE
  5
3B9
100
AcDbEntity
  8
化粧台
  6
EXLTYPE2
 62
     6
100
AcDbLine
 10
905.65
 20
1323.057107
 30
0.0
 11
937.35
 21
1323.057107
 31
0.0
  0
LINE
  5
3BA
100
AcDbEntity
  8
化粧台
  6
EXLTYPE2
 62
     6
100
AcDbLine
 10
862.607747
 20
1342.33598
 30
0.0
 11
862.607747
 21
1330.707107
 31
0.0
  0
LINE
  5
3BB
100
AcDbEntity
  8
化粧台
  6
EXLTYPE2
 62
     6
100
AcDbLine
 10
894.307747
 20
1342.33598
 30
0.0
 11
894.307747
 21
1330.707107
 31
0.0
  0
ARC
  5
3BC
100
AcDbEntity
  8
化粧台
  6
EXLTYPE2
 62
     6
100
AcDbCircle
 10
899.978873
 20
1342.33598
 30
0.0
 40
37.371127
100
AcDbArc
 50
81.271554
 51
180.0
  0
ARC
  5
3BD
100
AcDbEntity
  8
化粧台
  6
EXLTYPE2
 62
     6
100
AcDbCircle
 10
899.978873
 20
1342.33598
 30
0.0
 40
5.671127
100
AcDbArc
 50
57.810532
 51
180.0
  0
LINE
  5
3BE
100
AcDbEntity
  8
化粧台
  6
EXLTYPE2
 62
     6
100
AcDbLine
 10
904.370011
 20
1376.707107
 30
0.0
 11
904.370011
 21
1360.707107
 31
0.0
  0
LINE
  5
3BF
100
AcDbEntity
  8
化粧台
  6
EXLTYPE2
 62
     6
100
AcDbLine
 10
915.229989
 20
1376.707107
 30
0.0
 11
915.229989
 21
1360.707107
 31
0.0
  0
LINE
  5
3C0
100
AcDbEntity
  8
化粧台
  6
EXLTYPE2
 62
     6
100
AcDbLine
 10
927.770011
 20
1376.707107
 30
0.0
 11
927.770011
 21
1360.707107
 31
0.0
  0
LINE
  5
3C1
100
AcDbEntity
  8
化粧台
  6
EXLTYPE2
 62
     6
100
AcDbLine
 10
938.629989
 20
1376.707107
 30
0.0
 11
938.629989
 21
1360.707107
 31
0.0
  0
LINE
  5
3C2
100
AcDbEntity
  8
化粧台
  6
EXLTYPE2
 62
     6
100
AcDbLine
 10
882.478873
 20
1287.707107
 30
0.0
 11
882.478873
 21
1253.207107
 31
0.0
  0
LINE
  5
3C3
100
AcDbEntity
  8
化粧台
  6
EXLTYPE2
 62
     6
100
AcDbLine
 10
917.478873
 20
1261.057768
 30
0.0
 11
917.478873
 21
1253.207107
 31
0.0
  0
LINE
  5
3C4
100
AcDbEntity
  8
化粧台
  6
EXLTYPE2
 62
     6
100
AcDbLine
 10
878.978873
 20
1253.207107
 30
0.0
 11
920.978873
 21
1253.207107
 31
0.0
  0
LINE
  5
3C5
100
AcDbEntity
  8
化粧台
  6
EXLTYPE2
 62
     6
100
AcDbLine
 10
880.478873
 20
1236.707107
 30
0.0
 11
919.478873
 21
1236.707107
 31
0.0
  0
LINE
  5
3C6
100
AcDbEntity
  8
化粧台
  6
EXLTYPE2
 62
     6
100
AcDbLine
 10
878.978873
 20
1238.207107
 30
0.0
 11
878.978873
 21
1253.207107
 31
0.0
  0
LINE
  5
3C7
100
AcDbEntity
  8
化粧台
  6
EXLTYPE2
 62
     6
100
AcDbLine
 10
920.978873
 20
1238.207107
 30
0.0
 11
920.978873
 21
1253.207107
 31
0.0
  0
ARC
  5
3C8
100
AcDbEntity
  8
化粧台
  6
EXLTYPE2
 62
     6
100
AcDbCircle
 10
919.478873
 20
1238.207107
 30
0.0
 40
1.5
100
AcDbArc
 50
270.0
 51
0.0
  0
ARC
  5
3C9
100
AcDbEntity
  8
化粧台
  6
EXLTYPE2
 62
     6
100
AcDbCircle
 10
880.478873
 20
1238.207107
 30
0.0
 40
1.5
100
AcDbArc
 50
180.0
 51
270.0
  0
ARC
  5
3CA
100
AcDbEntity
  8
化粧台
  6
EXLTYPE2
 62
     6
100
AcDbCircle
 10
899.978873
 20
1272.557107
 30
0.0
 40
15.85
100
AcDbArc
 50
99.640243
 51
270.0
  0
ARC
  5
3CB
100
AcDbEntity
  8
化粧台
  6
EXLTYPE2
 62
     6
100
AcDbCircle
 10
899.978873
 20
1294.078234
 30
0.0
 40
37.371127
100
AcDbArc
 50
197.714595
 51
242.077557
  0
LINE
  5
3CC
100
AcDbEntity
  8
化粧台
  6
EXLTYPE2
 62
     6
100
AcDbLine
 10
920.232394
 20
1253.207107
 30
0.0
 11
920.232394
 21
1238.207107
 31
0.0
  0
LINE
  5
3CD
100
AcDbEntity
  8
化粧台
  6
EXLTYPE2
 62
     6
100
AcDbLine
 10
879.725352
 20
1238.207107
 30
0.0
 11
879.725352
 21
1253.207107
 31
0.0
  0
LINE
  5
3CE
100
AcDbEntity
  8
化粧台
  6
EXLTYPE2
 62
     6
100
AcDbLine
 10
883.156505
 20
1238.207107
 30
0.0
 11
883.156505
 21
1253.207107
 31
0.0
  0
LINE
  5
3CF
100
AcDbEntity
  8
化粧台
  6
EXLTYPE2
 62
     6
100
AcDbLine
 10
897.504015
 20
1238.207107
 30
0.0
 11
897.504015
 21
1253.207107
 31
0.0
  0
LINE
  5
3D0
100
AcDbEntity
  8
化粧台
  6
EXLTYPE2
 62
     6
100
AcDbLine
 10
902.453732
 20
1238.207107
 30
0.0
 11
902.453732
 21
1253.207107
 31
0.0
  0
LINE
  5
3D1
100
AcDbEntity
  8
化粧台
  6
EXLTYPE2
 62
     6
100
AcDbLine
 10
916.801242
 20
1238.207107
 30
0.0
 11
916.801242
 21
1253.207107
 31
0.0
  0
ARC
  5
3D2
100
AcDbEntity
  8
化粧台
  6
EXLTYPE2
 62
     6
100
AcDbCircle
 10
881.225352
 20
1238.207107
 30
0.0
 40
1.5
100
AcDbArc
 50
180.0
 51
270.0
  0
ARC
  5
3D3
100
AcDbEntity
  8
化粧台
  6
EXLTYPE2
 62
     6
100
AcDbCircle
 10
881.656505
 20
1238.207107
 30
0.0
 40
1.5
100
AcDbArc
 50
270.0
 51
0.0
  0
ARC
  5
3D4
100
AcDbEntity
  8
化粧台
  6
EXLTYPE2
 62
     6
100
AcDbCircle
 10
899.004015
 20
1238.207107
 30
0.0
 40
1.5
100
AcDbArc
 50
180.0
 51
270.0
  0
ARC
  5
3D5
100
AcDbEntity
  8
化粧台
  6
EXLTYPE2
 62
     6
100
AcDbCircle
 10
900.953732
 20
1238.207107
 30
0.0
 40
1.5
100
AcDbArc
 50
270.0
 51
0.0
  0
ARC
  5
3D6
100
AcDbEntity
  8
化粧台
  6
EXLTYPE2
 62
     6
100
AcDbCircle
 10
918.301242
 20
1238.207107
 30
0.0
 40
1.5
100
AcDbArc
 50
180.0
 51
270.0
  0
ARC
  5
3D7
100
AcDbEntity
  8
化粧台
  6
EXLTYPE2
 62
     6
100
AcDbCircle
 10
918.732394
 20
1238.207107
 30
0.0
 40
1.5
100
AcDbArc
 50
270.0
 51
0.0
  0
LINE
  5
3D8
100
AcDbEntity
  8
化粧台
  6
EXLTYPE2
 62
     6
100
AcDbLine
 10
905.65
 20
1323.057107
 30
0.0
 11
905.65
 21
1298.04207
 31
0.0
  0
LINE
  5
3D9
100
AcDbEntity
  8
化粧台
  6
EXLTYPE2
 62
     6
100
AcDbLine
 10
859.957747
 20
1312.707107
 30
0.0
 11
859.957747
 21
1282.707107
 31
0.0
  0
LINE
  5
3DA
100
AcDbEntity
  8
化粧台
  6
EXLTYPE2
 62
     6
100
AcDbLine
 10
896.957747
 20
1312.707107
 30
0.0
 11
896.957747
 21
1287.707107
 31
0.0
  0
LINE
  5
3DB
100
AcDbEntity
  8
化粧台
  6
EXLTYPE2
 62
     6
100
AcDbLine
 10
903.0
 20
1325.707107
 30
0.0
 11
905.65
 21
1323.057107
 31
0.0
  0
LINE
  5
3DC
100
AcDbEntity
  8
化粧台
  6
EXLTYPE2
 62
     6
100
AcDbLine
 10
855.057747
 20
1312.707107
 30
0.0
 11
901.857747
 21
1312.707107
 31
0.0
  0
LINE
  5
3DD
100
AcDbEntity
  8
化粧台
  6
EXLTYPE2
 62
     6
100
AcDbLine
 10
857.057747
 20
1330.707107
 30
0.0
 11
899.857747
 21
1330.707107
 31
0.0
  0
LINE
  5
3DE
100
AcDbEntity
  8
化粧台
  6
EXLTYPE2
 62
     6
100
AcDbLine
 10
855.057747
 20
1328.707107
 30
0.0
 11
855.057747
 21
1312.707107
 31
0.0
  0
LINE
  5
3DF
100
AcDbEntity
  8
化粧台
  6
EXLTYPE2
 62
     6
100
AcDbLine
 10
901.857747
 20
1328.707107
 30
0.0
 11
901.857747
 21
1312.707107
 31
0.0
  0
ARC
  5
3E0
100
AcDbEntity
  8
化粧台
  6
EXLTYPE2
 62
     6
100
AcDbCircle
 10
857.057747
 20
1328.707107
 30
0.0
 40
2.0
100
AcDbArc
 50
90.0
 51
180.0
  0
ARC
  5
3E1
100
AcDbEntity
  8
化粧台
  6
EXLTYPE2
 62
     6
100
AcDbCircle
 10
899.857747
 20
1328.707107
 30
0.0
 40
2.0
100
AcDbArc
 50
0.0
 51
90.0
  0
LINE
  5
3E2
100
AcDbEntity
  8
化粧台
  6
EXLTYPE2
 62
     6
100
AcDbLine
 10
861.327758
 20
1328.707107
 30
0.0
 11
861.327758
 21
1312.707107
 31
0.0
  0
LINE
  5
3E3
100
AcDbEntity
  8
化粧台
  6
EXLTYPE2
 62
     6
100
AcDbLine
 10
872.187735
 20
1328.707107
 30
0.0
 11
872.187735
 21
1312.707107
 31
0.0
  0
LINE
  5
3E4
100
AcDbEntity
  8
化粧台
  6
EXLTYPE2
 62
     6
100
AcDbLine
 10
884.727758
 20
1328.707107
 30
0.0
 11
884.727758
 21
1312.707107
 31
0.0
  0
LINE
  5
3E5
100
AcDbEntity
  8
化粧台
  6
EXLTYPE2
 62
     6
100
AcDbLine
 10
895.587735
 20
1328.707107
 30
0.0
 11
895.587735
 21
1312.707107
 31
0.0
  0
LINE
  5
3E6
100
AcDbEntity
  8
化粧台
  6
EXLTYPE2
 62
     6
100
AcDbLine
 10
882.478873
 20
1287.707107
 30
0.0
 11
895.320547
 21
1287.707107
 31
0.0
  0
LINE
  5
3E7
100
AcDbEntity
  8
化粧台
  6
EXLTYPE2
 62
     6
100
AcDbLine
 10
859.957747
 20
1282.707107
 30
0.0
 11
882.478873
 21
1282.707107
 31
0.0
  0
ARC
  5
3E8
100
AcDbEntity
  8
化粧台
  6
EXLTYPE2
 62
     6
100
AcDbCircle
 10
895.65
 20
1298.04207
 30
0.0
 40
10.0
100
AcDbArc
 50
279.640243
 51
0.0
  0
ARC
  5
3E9
100
AcDbEntity
  8
化粧台
  6
EXLTYPE2
 62
     6
100
AcDbCircle
 10
899.978873
 20
1294.078234
 30
0.0
 40
37.371127
100
AcDbArc
 50
270.0
 51
0.0
  0
LINE
  5
3EA
100
AcDbEntity
  8
化粧台
  6
EXLTYPE2
 62
     6
100
AcDbLine
 10
937.35
 20
1323.057107
 30
0.0
 11
937.35
 21
1294.078234
 31
0.0
  0
LINE
  5
3EB
100
AcDbEntity
  8
化粧台
  6
CONTINUOUS
 62
     6
100
AcDbLine
 10
907.5
 20
1234.707107
 30
0.0
 11
921.5
 21
1234.707107
 31
0.0
  0
LINE
  5
3EC
100
AcDbEntity
  8
化粧台
  6
CONTINUOUS
 62
     6
100
AcDbLine
 10
921.5
 20
1229.707107
 30
0.0
 11
935.5
 21
1229.707107
 31
0.0
  0
LINE
  5
3ED
100
AcDbEntity
  8
化粧台
  6
CONTINUOUS
 62
     6
100
AcDbLine
 10
907.5
 20
1224.707107
 30
0.0
 11
921.5
 21
1224.707107
 31
0.0
  0
LINE
  5
3EE
100
AcDbEntity
  8
化粧台
  6
CONTINUOUS
 62
     6
100
AcDbLine
 10
921.5
 20
1219.707107
 30
0.0
 11
935.5
 21
1219.707107
 31
0.0
  0
LINE
  5
3EF
100
AcDbEntity
  8
化粧台
  6
CONTINUOUS
 62
     6
100
AcDbLine
 10
907.5
 20
1214.707107
 30
0.0
 11
921.5
 21
1214.707107
 31
0.0
  0
LINE
  5
3F0
100
AcDbEntity
  8
化粧台
  6
CONTINUOUS
 62
     6
100
AcDbLine
 10
921.5
 20
1209.707107
 30
0.0
 11
935.5
 21
1209.707107
 31
0.0
  0
LINE
  5
3F1
100
AcDbEntity
  8
化粧台
  6
CONTINUOUS
 62
     6
100
AcDbLine
 10
907.5
 20
1204.707107
 30
0.0
 11
921.5
 21
1204.707107
 31
0.0
  0
LINE
  5
3F2
100
AcDbEntity
  8
化粧台
  6
CONTINUOUS
 62
     6
100
AcDbLine
 10
921.5
 20
1199.707107
 30
0.0
 11
935.5
 21
1199.707107
 31
0.0
  0
LINE
  5
3F3
100
AcDbEntity
  8
化粧台
  6
CONTINUOUS
 62
     6
100
AcDbLine
 10
907.5
 20
1194.707107
 30
0.0
 11
921.5
 21
1194.707107
 31
0.0
  0
LINE
  5
3F4
100
AcDbEntity
  8
化粧台
  6
CONTINUOUS
 62
     6
100
AcDbLine
 10
921.5
 20
1189.707107
 30
0.0
 11
935.5
 21
1189.707107
 31
0.0
  0
LINE
  5
3F5
100
AcDbEntity
  8
化粧台
  6
CONTINUOUS
 62
     6
100
AcDbLine
 10
907.5
 20
1184.707107
 30
0.0
 11
921.5
 21
1184.707107
 31
0.0
  0
LINE
  5
3F6
100
AcDbEntity
  8
化粧台
  6
CONTINUOUS
 62
     6
100
AcDbLine
 10
921.5
 20
1179.707107
 30
0.0
 11
935.5
 21
1179.707107
 31
0.0
  0
LINE
  5
3F7
100
AcDbEntity
  8
化粧台
  6
CONTINUOUS
 62
     6
100
AcDbLine
 10
907.5
 20
1174.707107
 30
0.0
 11
921.5
 21
1174.707107
 31
0.0
  0
LINE
  5
3F8
100
AcDbEntity
  8
化粧台
  6
CONTINUOUS
 62
     6
100
AcDbLine
 10
921.5
 20
1169.707107
 30
0.0
 11
935.5
 21
1169.707107
 31
0.0
  0
LINE
  5
3F9
100
AcDbEntity
  8
化粧台
  6
CONTINUOUS
 62
     6
100
AcDbLine
 10
907.5
 20
1164.707107
 30
0.0
 11
921.5
 21
1164.707107
 31
0.0
  0
LINE
  5
3FA
100
AcDbEntity
  8
化粧台
  6
CONTINUOUS
 62
     6
100
AcDbLine
 10
921.5
 20
1159.707107
 30
0.0
 11
935.5
 21
1159.707107
 31
0.0
  0
LINE
  5
3FB
100
AcDbEntity
  8
化粧台
  6
CONTINUOUS
 62
     6
100
AcDbLine
 10
907.5
 20
1154.707107
 30
0.0
 11
921.5
 21
1154.707107
 31
0.0
  0
LINE
  5
3FC
100
AcDbEntity
  8
化粧台
  6
CONTINUOUS
 62
     6
100
AcDbLine
 10
921.5
 20
1149.707107
 30
0.0
 11
935.5
 21
1149.707107
 31
0.0
  0
LINE
  5
3FD
100
AcDbEntity
  8
化粧台
  6
CONTINUOUS
 62
     6
100
AcDbLine
 10
907.5
 20
1144.707107
 30
0.0
 11
921.5
 21
1144.707107
 31
0.0
  0
LINE
  5
3FE
100
AcDbEntity
  8
化粧台
  6
CONTINUOUS
 62
     6
100
AcDbLine
 10
921.5
 20
1139.707107
 30
0.0
 11
935.5
 21
1139.707107
 31
0.0
  0
LINE
  5
3FF
100
AcDbEntity
  8
化粧台
  6
CONTINUOUS
 62
     6
100
AcDbLine
 10
907.5
 20
1134.707107
 30
0.0
 11
921.5
 21
1134.707107
 31
0.0
  0
LINE
  5
400
100
AcDbEntity
  8
化粧台
  6
CONTINUOUS
 62
     6
100
AcDbLine
 10
921.5
 20
1129.707107
 30
0.0
 11
935.5
 21
1129.707107
 31
0.0
  0
LINE
  5
401
100
AcDbEntity
  8
化粧台
  6
CONTINUOUS
 62
     6
100
AcDbLine
 10
907.5
 20
1124.707107
 30
0.0
 11
921.5
 21
1124.707107
 31
0.0
  0
LINE
  5
402
100
AcDbEntity
  8
化粧台
  6
CONTINUOUS
 62
     6
100
AcDbLine
 10
921.5
 20
1119.707107
 30
0.0
 11
935.5
 21
1119.707107
 31
0.0
  0
LINE
  5
403
100
AcDbEntity
  8
化粧台
  6
CONTINUOUS
 62
     6
100
AcDbLine
 10
907.5
 20
1114.707107
 30
0.0
 11
921.5
 21
1114.707107
 31
0.0
  0
LINE
  5
404
100
AcDbEntity
  8
化粧台
  6
CONTINUOUS
 62
     6
100
AcDbLine
 10
921.5
 20
1109.707107
 30
0.0
 11
935.5
 21
1109.707107
 31
0.0
  0
LINE
  5
405
100
AcDbEntity
  8
化粧台
  6
CONTINUOUS
 62
     6
100
AcDbLine
 10
907.5
 20
1104.707107
 30
0.0
 11
921.5
 21
1104.707107
 31
0.0
  0
LINE
  5
406
100
AcDbEntity
  8
化粧台
  6
CONTINUOUS
 62
     6
100
AcDbLine
 10
921.5
 20
1099.707107
 30
0.0
 11
935.5
 21
1099.707107
 31
0.0
  0
LINE
  5
407
100
AcDbEntity
  8
化粧台
  6
CONTINUOUS
 62
     6
100
AcDbLine
 10
907.5
 20
1094.707107
 30
0.0
 11
921.5
 21
1094.707107
 31
0.0
  0
LINE
  5
408
100
AcDbEntity
  8
化粧台
  6
CONTINUOUS
 62
     6
100
AcDbLine
 10
921.5
 20
1089.707107
 30
0.0
 11
935.5
 21
1089.707107
 31
0.0
  0
LINE
  5
409
100
AcDbEntity
  8
化粧台
  6
CONTINUOUS
 62
     6
100
AcDbLine
 10
907.5
 20
1084.707107
 30
0.0
 11
921.5
 21
1084.707107
 31
0.0
  0
LINE
  5
40A
100
AcDbEntity
  8
化粧台
  6
CONTINUOUS
 62
     6
100
AcDbLine
 10
921.5
 20
1079.707107
 30
0.0
 11
935.5
 21
1079.707107
 31
0.0
  0
LINE
  5
40B
100
AcDbEntity
  8
化粧台
  6
CONTINUOUS
 62
     6
100
AcDbLine
 10
907.5
 20
1074.707107
 30
0.0
 11
921.5
 21
1074.707107
 31
0.0
  0
LINE
  5
40C
100
AcDbEntity
  8
化粧台
  6
CONTINUOUS
 62
     6
100
AcDbLine
 10
921.5
 20
1069.707107
 30
0.0
 11
935.5
 21
1069.707107
 31
0.0
  0
LINE
  5
40D
100
AcDbEntity
  8
化粧台
  6
CONTINUOUS
 62
     6
100
AcDbLine
 10
907.5
 20
1064.707107
 30
0.0
 11
921.5
 21
1064.707107
 31
0.0
  0
LINE
  5
40E
100
AcDbEntity
  8
化粧台
  6
CONTINUOUS
 62
     6
100
AcDbLine
 10
921.5
 20
1059.707107
 30
0.0
 11
935.5
 21
1059.707107
 31
0.0
  0
LINE
  5
40F
100
AcDbEntity
  8
化粧台
  6
CONTINUOUS
 62
     6
100
AcDbLine
 10
907.5
 20
1054.707107
 30
0.0
 11
921.5
 21
1054.707107
 31
0.0
  0
LINE
  5
410
100
AcDbEntity
  8
化粧台
  6
CONTINUOUS
 62
     6
100
AcDbLine
 10
921.5
 20
1049.707107
 30
0.0
 11
935.5
 21
1049.707107
 31
0.0
  0
LINE
  5
411
100
AcDbEntity
  8
化粧台
  6
CONTINUOUS
 62
     6
100
AcDbLine
 10
907.5
 20
1044.707107
 30
0.0
 11
921.5
 21
1044.707107
 31
0.0
  0
LINE
  5
412
100
AcDbEntity
  8
化粧台
  6
CONTINUOUS
 62
     6
100
AcDbLine
 10
921.5
 20
1039.707107
 30
0.0
 11
935.5
 21
1039.707107
 31
0.0
  0
LINE
  5
413
100
AcDbEntity
  8
化粧台
  6
CONTINUOUS
 62
     6
100
AcDbLine
 10
907.5
 20
1034.707107
 30
0.0
 11
921.5
 21
1034.707107
 31
0.0
  0
LINE
  5
414
100
AcDbEntity
  8
化粧台
  6
CONTINUOUS
 62
     6
100
AcDbLine
 10
921.5
 20
1029.707107
 30
0.0
 11
935.5
 21
1029.707107
 31
0.0
  0
LINE
  5
415
100
AcDbEntity
  8
化粧台
  6
CONTINUOUS
 62
     6
100
AcDbLine
 10
907.5
 20
1024.707107
 30
0.0
 11
921.5
 21
1024.707107
 31
0.0
  0
LINE
  5
416
100
AcDbEntity
  8
化粧台
  6
CONTINUOUS
 62
     6
100
AcDbLine
 10
921.5
 20
1019.707107
 30
0.0
 11
935.5
 21
1019.707107
 31
0.0
  0
LINE
  5
417
100
AcDbEntity
  8
化粧台
  6
CONTINUOUS
 62
     6
100
AcDbLine
 10
907.5
 20
1014.707107
 30
0.0
 11
921.5
 21
1014.707107
 31
0.0
  0
LINE
  5
418
100
AcDbEntity
  8
化粧台
  6
CONTINUOUS
 62
     6
100
AcDbLine
 10
921.5
 20
1009.707107
 30
0.0
 11
935.5
 21
1009.707107
 31
0.0
  0
LINE
  5
419
100
AcDbEntity
  8
化粧台
  6
CONTINUOUS
 62
     6
100
AcDbLine
 10
907.5
 20
1004.707107
 30
0.0
 11
921.5
 21
1004.707107
 31
0.0
  0
LINE
  5
41A
100
AcDbEntity
  8
化粧台
  6
CONTINUOUS
 62
     6
100
AcDbLine
 10
921.5
 20
999.707107
 30
0.0
 11
935.5
 21
999.707107
 31
0.0
  0
LINE
  5
41B
100
AcDbEntity
  8
化粧台
  6
CONTINUOUS
 62
     6
100
AcDbLine
 10
907.5
 20
994.707107
 30
0.0
 11
921.5
 21
994.707107
 31
0.0
  0
LINE
  5
41C
100
AcDbEntity
  8
化粧台
  6
CONTINUOUS
 62
     6
100
AcDbLine
 10
921.5
 20
989.707107
 30
0.0
 11
935.5
 21
989.707107
 31
0.0
  0
LINE
  5
41D
100
AcDbEntity
  8
化粧台
  6
CONTINUOUS
 62
     6
100
AcDbLine
 10
907.5
 20
984.707107
 30
0.0
 11
921.5
 21
984.707107
 31
0.0
  0
LINE
  5
41E
100
AcDbEntity
  8
化粧台
  6
CONTINUOUS
 62
     6
100
AcDbLine
 10
921.5
 20
979.707107
 30
0.0
 11
935.5
 21
979.707107
 31
0.0
  0
LINE
  5
41F
100
AcDbEntity
  8
化粧台
  6
CONTINUOUS
 62
     6
100
AcDbLine
 10
907.5
 20
974.707107
 30
0.0
 11
921.5
 21
974.707107
 31
0.0
  0
LINE
  5
420
100
AcDbEntity
  8
化粧台
  6
CONTINUOUS
 62
     6
100
AcDbLine
 10
921.5
 20
969.707107
 30
0.0
 11
935.5
 21
969.707107
 31
0.0
  0
LINE
  5
421
100
AcDbEntity
  8
化粧台
  6
CONTINUOUS
 62
     6
100
AcDbLine
 10
907.5
 20
964.707107
 30
0.0
 11
921.5
 21
964.707107
 31
0.0
  0
LINE
  5
422
100
AcDbEntity
  8
化粧台
  6
CONTINUOUS
 62
     6
100
AcDbLine
 10
921.5
 20
959.707107
 30
0.0
 11
935.5
 21
959.707107
 31
0.0
  0
LINE
  5
423
100
AcDbEntity
  8
化粧台
  6
CONTINUOUS
 62
     6
100
AcDbLine
 10
907.5
 20
954.707107
 30
0.0
 11
921.5
 21
954.707107
 31
0.0
  0
LINE
  5
424
100
AcDbEntity
  8
化粧台
  6
CONTINUOUS
 62
     6
100
AcDbLine
 10
921.5
 20
949.707107
 30
0.0
 11
935.5
 21
949.707107
 31
0.0
  0
LINE
  5
425
100
AcDbEntity
  8
化粧台
  6
CONTINUOUS
 62
     6
100
AcDbLine
 10
907.5
 20
944.707107
 30
0.0
 11
921.5
 21
944.707107
 31
0.0
  0
LINE
  5
426
100
AcDbEntity
  8
化粧台
  6
CONTINUOUS
 62
     6
100
AcDbLine
 10
921.5
 20
939.707107
 30
0.0
 11
935.5
 21
939.707107
 31
0.0
  0
LINE
  5
427
100
AcDbEntity
  8
化粧台
  6
CONTINUOUS
 62
     6
100
AcDbLine
 10
907.5
 20
934.707107
 30
0.0
 11
921.5
 21
934.707107
 31
0.0
  0
LINE
  5
428
100
AcDbEntity
  8
化粧台
  6
CONTINUOUS
 62
     6
100
AcDbLine
 10
921.5
 20
929.707107
 30
0.0
 11
935.5
 21
929.707107
 31
0.0
  0
LINE
  5
429
100
AcDbEntity
  8
化粧台
  6
CONTINUOUS
 62
     6
100
AcDbLine
 10
907.5
 20
924.707107
 30
0.0
 11
921.5
 21
924.707107
 31
0.0
  0
LINE
  5
42A
100
AcDbEntity
  8
化粧台
  6
CONTINUOUS
 62
     6
100
AcDbLine
 10
921.5
 20
919.707107
 30
0.0
 11
935.5
 21
919.707107
 31
0.0
  0
LINE
  5
42B
100
AcDbEntity
  8
化粧台
  6
CONTINUOUS
 62
     6
100
AcDbLine
 10
905.65
 20
779.707107
 30
0.0
 11
937.35
 21
779.707107
 31
0.0
  0
LINE
  5
42C
100
AcDbEntity
  8
化粧台
  6
CONTINUOUS
 62
     6
100
AcDbLine
 10
905.65
 20
879.707107
 30
0.0
 11
905.65
 21
779.707107
 31
0.0
  0
LINE
  5
42D
100
AcDbEntity
  8
化粧台
  6
CONTINUOUS
 62
     6
100
AcDbLine
 10
937.35
 20
779.707107
 30
0.0
 11
937.35
 21
879.707107
 31
0.0
  0
LINE
  5
42E
100
AcDbEntity
  8
化粧台
  6
CONTINUOUS
 62
     6
100
AcDbLine
 10
905.65
 20
879.707107
 30
0.0
 11
937.35
 21
879.707107
 31
0.0
  0
LINE
  5
42F
100
AcDbEntity
  8
化粧台
  6
CONTINUOUS
 62
     6
100
AcDbLine
 10
907.5
 20
894.707107
 30
0.0
 11
935.5
 21
894.707107
 31
0.0
  0
LINE
  5
430
100
AcDbEntity
  8
化粧台
  6
CONTINUOUS
 62
     6
100
AcDbLine
 10
907.5
 20
889.707107
 30
0.0
 11
935.5
 21
889.707107
 31
0.0
  0
LINE
  5
431
100
AcDbEntity
  8
化粧台
  6
CONTINUOUS
 62
     6
100
AcDbLine
 10
907.5
 20
884.707107
 30
0.0
 11
935.5
 21
884.707107
 31
0.0
  0
LINE
  5
432
100
AcDbEntity
  8
化粧台
  6
CONTINUOUS
 62
     6
100
AcDbLine
 10
907.5
 20
914.707107
 30
0.0
 11
935.5
 21
914.707107
 31
0.0
  0
POLYLINE
  5
433
100
AcDbEntity
  8
化粧台
  6
CONTINUOUS
 62
     6
100
AcDb2dPolyline
 66
     1
 10
0.0
 20
0.0
 30
0.0
 70
   128
  0
VERTEX
  5
434
100
AcDbEntity
  8
化粧台
  6
CONTINUOUS
 62
     6
100
AcDbVertex
100
AcDb2dVertex
 10
905.65
 20
879.707107
 30
0.0
  0
VERTEX
  5
435
100
AcDbEntity
  8
化粧台
  6
CONTINUOUS
 62
     6
100
AcDbVertex
100
AcDb2dVertex
 10
904.0
 20
882.207107
 30
0.0
  0
VERTEX
  5
436
100
AcDbEntity
  8
化粧台
  6
CONTINUOUS
 62
     6
100
AcDbVertex
100
AcDb2dVertex
 10
907.5
 20
884.707107
 30
0.0
  0
VERTEX
  5
437
100
AcDbEntity
  8
化粧台
  6
CONTINUOUS
 62
     6
100
AcDbVertex
100
AcDb2dVertex
 10
904.0
 20
887.207107
 30
0.0
  0
VERTEX
  5
438
100
AcDbEntity
  8
化粧台
  6
CONTINUOUS
 62
     6
100
AcDbVertex
100
AcDb2dVertex
 10
907.5
 20
889.707107
 30
0.0
  0
VERTEX
  5
439
100
AcDbEntity
  8
化粧台
  6
CONTINUOUS
 62
     6
100
AcDbVertex
100
AcDb2dVertex
 10
904.0
 20
892.207107
 30
0.0
  0
VERTEX
  5
43A
100
AcDbEntity
  8
化粧台
  6
CONTINUOUS
 62
     6
100
AcDbVertex
100
AcDb2dVertex
 10
907.5
 20
894.707107
 30
0.0
  0
VERTEX
  5
43B
100
AcDbEntity
  8
化粧台
  6
CONTINUOUS
 62
     6
100
AcDbVertex
100
AcDb2dVertex
 10
904.0
 20
897.207107
 30
0.0
  0
VERTEX
  5
43C
100
AcDbEntity
  8
化粧台
  6
CONTINUOUS
 62
     6
100
AcDbVertex
100
AcDb2dVertex
 10
907.5
 20
899.707107
 30
0.0
  0
VERTEX
  5
43D
100
AcDbEntity
  8
化粧台
  6
CONTINUOUS
 62
     6
100
AcDbVertex
100
AcDb2dVertex
 10
904.0
 20
902.207107
 30
0.0
  0
VERTEX
  5
43E
100
AcDbEntity
  8
化粧台
  6
CONTINUOUS
 62
     6
100
AcDbVertex
100
AcDb2dVertex
 10
907.5
 20
904.707107
 30
0.0
  0
VERTEX
  5
43F
100
AcDbEntity
  8
化粧台
  6
CONTINUOUS
 62
     6
100
AcDbVertex
100
AcDb2dVertex
 10
904.0
 20
907.207107
 30
0.0
  0
VERTEX
  5
440
100
AcDbEntity
  8
化粧台
  6
CONTINUOUS
 62
     6
100
AcDbVertex
100
AcDb2dVertex
 10
907.5
 20
909.707107
 30
0.0
  0
VERTEX
  5
441
100
AcDbEntity
  8
化粧台
  6
CONTINUOUS
 62
     6
100
AcDbVertex
100
AcDb2dVertex
 10
904.0
 20
912.207107
 30
0.0
  0
VERTEX
  5
442
100
AcDbEntity
  8
化粧台
  6
CONTINUOUS
 62
     6
100
AcDbVertex
100
AcDb2dVertex
 10
907.5
 20
914.707107
 30
0.0
  0
VERTEX
  5
443
100
AcDbEntity
  8
化粧台
  6
CONTINUOUS
 62
     6
100
AcDbVertex
100
AcDb2dVertex
 10
906.389949
 20
915.5
 30
0.0
  0
SEQEND
  5
444
100
AcDbEntity
  8
化粧台
  6
CONTINUOUS
 62
     6
  0
POLYLINE
  5
445
100
AcDbEntity
  8
化粧台
  6
CONTINUOUS
 62
     6
100
AcDb2dPolyline
 66
     1
 10
0.0
 20
0.0
 30
0.0
 70
   128
  0
VERTEX
  5
446
100
AcDbEntity
  8
化粧台
  6
CONTINUOUS
 62
     6
100
AcDbVertex
100
AcDb2dVertex
 10
937.35
 20
879.707107
 30
0.0
  0
VERTEX
  5
447
100
AcDbEntity
  8
化粧台
  6
CONTINUOUS
 62
     6
100
AcDbVertex
100
AcDb2dVertex
 10
939.0
 20
882.207107
 30
0.0
  0
VERTEX
  5
448
100
AcDbEntity
  8
化粧台
  6
CONTINUOUS
 62
     6
100
AcDbVertex
100
AcDb2dVertex
 10
935.5
 20
884.707107
 30
0.0
  0
VERTEX
  5
449
100
AcDbEntity
  8
化粧台
  6
CONTINUOUS
 62
     6
100
AcDbVertex
100
AcDb2dVertex
 10
939.0
 20
887.207107
 30
0.0
  0
VERTEX
  5
44A
100
AcDbEntity
  8
化粧台
  6
CONTINUOUS
 62
     6
100
AcDbVertex
100
AcDb2dVertex
 10
935.5
 20
889.707107
 30
0.0
  0
VERTEX
  5
44B
100
AcDbEntity
  8
化粧台
  6
CONTINUOUS
 62
     6
100
AcDbVertex
100
AcDb2dVertex
 10
939.0
 20
892.207107
 30
0.0
  0
VERTEX
  5
44C
100
AcDbEntity
  8
化粧台
  6
CONTINUOUS
 62
     6
100
AcDbVertex
100
AcDb2dVertex
 10
935.5
 20
894.707107
 30
0.0
  0
VERTEX
  5
44D
100
AcDbEntity
  8
化粧台
  6
CONTINUOUS
 62
     6
100
AcDbVertex
100
AcDb2dVertex
 10
939.0
 20
897.207107
 30
0.0
  0
VERTEX
  5
44E
100
AcDbEntity
  8
化粧台
  6
CONTINUOUS
 62
     6
100
AcDbVertex
100
AcDb2dVertex
 10
935.5
 20
899.707107
 30
0.0
  0
VERTEX
  5
44F
100
AcDbEntity
  8
化粧台
  6
CONTINUOUS
 62
     6
100
AcDbVertex
100
AcDb2dVertex
 10
939.0
 20
902.207107
 30
0.0
  0
VERTEX
  5
450
100
AcDbEntity
  8
化粧台
  6
CONTINUOUS
 62
     6
100
AcDbVertex
100
AcDb2dVertex
 10
935.5
 20
904.707107
 30
0.0
  0
VERTEX
  5
451
100
AcDbEntity
  8
化粧台
  6
CONTINUOUS
 62
     6
100
AcDbVertex
100
AcDb2dVertex
 10
939.0
 20
907.207107
 30
0.0
  0
VERTEX
  5
452
100
AcDbEntity
  8
化粧台
  6
CONTINUOUS
 62
     6
100
AcDbVertex
100
AcDb2dVertex
 10
935.5
 20
909.707107
 30
0.0
  0
VERTEX
  5
453
100
AcDbEntity
  8
化粧台
  6
CONTINUOUS
 62
     6
100
AcDbVertex
100
AcDb2dVertex
 10
939.0
 20
912.207107
 30
0.0
  0
VERTEX
  5
454
100
AcDbEntity
  8
化粧台
  6
CONTINUOUS
 62
     6
100
AcDbVertex
100
AcDb2dVertex
 10
935.5
 20
914.707107
 30
0.0
  0
VERTEX
  5
455
100
AcDbEntity
  8
化粧台
  6
CONTINUOUS
 62
     6
100
AcDbVertex
100
AcDb2dVertex
 10
936.610051
 20
915.5
 30
0.0
  0
SEQEND
  5
456
100
AcDbEntity
  8
化粧台
  6
CONTINUOUS
 62
     6
  0
POLYLINE
  5
457
100
AcDbEntity
  8
化粧台
  6
EXLTYPE2
 62
     6
100
AcDb2dPolyline
 66
     1
 10
0.0
 20
0.0
 30
0.0
 70
   128
  0
VERTEX
  5
458
100
AcDbEntity
  8
化粧台
  6
EXLTYPE2
 62
     6
100
AcDbVertex
100
AcDb2dVertex
 10
906.389949
 20
915.5
 30
0.0
  0
VERTEX
  5
459
100
AcDbEntity
  8
化粧台
  6
EXLTYPE2
 62
     6
100
AcDbVertex
100
AcDb2dVertex
 10
904.0
 20
917.207107
 30
0.0
  0
VERTEX
  5
45A
100
AcDbEntity
  8
化粧台
  6
EXLTYPE2
 62
     6
100
AcDbVertex
100
AcDb2dVertex
 10
907.5
 20
919.707107
 30
0.0
  0
VERTEX
  5
45B
100
AcDbEntity
  8
化粧台
  6
EXLTYPE2
 62
     6
100
AcDbVertex
100
AcDb2dVertex
 10
904.0
 20
922.207107
 30
0.0
  0
VERTEX
  5
45C
100
AcDbEntity
  8
化粧台
  6
EXLTYPE2
 62
     6
100
AcDbVertex
100
AcDb2dVertex
 10
907.5
 20
924.707107
 30
0.0
  0
VERTEX
  5
45D
100
AcDbEntity
  8
化粧台
  6
EXLTYPE2
 62
     6
100
AcDbVertex
100
AcDb2dVertex
 10
904.0
 20
927.207107
 30
0.0
  0
VERTEX
  5
45E
100
AcDbEntity
  8
化粧台
  6
EXLTYPE2
 62
     6
100
AcDbVertex
100
AcDb2dVertex
 10
907.5
 20
929.707107
 30
0.0
  0
VERTEX
  5
45F
100
AcDbEntity
  8
化粧台
  6
EXLTYPE2
 62
     6
100
AcDbVertex
100
AcDb2dVertex
 10
904.0
 20
932.207107
 30
0.0
  0
VERTEX
  5
460
100
AcDbEntity
  8
化粧台
  6
EXLTYPE2
 62
     6
100
AcDbVertex
100
AcDb2dVertex
 10
907.5
 20
934.707107
 30
0.0
  0
VERTEX
  5
461
100
AcDbEntity
  8
化粧台
  6
EXLTYPE2
 62
     6
100
AcDbVertex
100
AcDb2dVertex
 10
904.0
 20
937.207107
 30
0.0
  0
VERTEX
  5
462
100
AcDbEntity
  8
化粧台
  6
EXLTYPE2
 62
     6
100
AcDbVertex
100
AcDb2dVertex
 10
907.5
 20
939.707107
 30
0.0
  0
VERTEX
  5
463
100
AcDbEntity
  8
化粧台
  6
EXLTYPE2
 62
     6
100
AcDbVertex
100
AcDb2dVertex
 10
904.0
 20
942.207107
 30
0.0
  0
VERTEX
  5
464
100
AcDbEntity
  8
化粧台
  6
EXLTYPE2
 62
     6
100
AcDbVertex
100
AcDb2dVertex
 10
907.5
 20
944.707107
 30
0.0
  0
VERTEX
  5
465
100
AcDbEntity
  8
化粧台
  6
EXLTYPE2
 62
     6
100
AcDbVertex
100
AcDb2dVertex
 10
904.0
 20
947.207107
 30
0.0
  0
VERTEX
  5
466
100
AcDbEntity
  8
化粧台
  6
EXLTYPE2
 62
     6
100
AcDbVertex
100
AcDb2dVertex
 10
907.5
 20
949.707107
 30
0.0
  0
VERTEX
  5
467
100
AcDbEntity
  8
化粧台
  6
EXLTYPE2
 62
     6
100
AcDbVertex
100
AcDb2dVertex
 10
904.0
 20
952.207107
 30
0.0
  0
VERTEX
  5
468
100
AcDbEntity
  8
化粧台
  6
EXLTYPE2
 62
     6
100
AcDbVertex
100
AcDb2dVertex
 10
907.5
 20
954.707107
 30
0.0
  0
VERTEX
  5
469
100
AcDbEntity
  8
化粧台
  6
EXLTYPE2
 62
     6
100
AcDbVertex
100
AcDb2dVertex
 10
904.0
 20
957.207107
 30
0.0
  0
VERTEX
  5
46A
100
AcDbEntity
  8
化粧台
  6
EXLTYPE2
 62
     6
100
AcDbVertex
100
AcDb2dVertex
 10
907.5
 20
959.707107
 30
0.0
  0
VERTEX
  5
46B
100
AcDbEntity
  8
化粧台
  6
EXLTYPE2
 62
     6
100
AcDbVertex
100
AcDb2dVertex
 10
904.0
 20
962.207107
 30
0.0
  0
VERTEX
  5
46C
100
AcDbEntity
  8
化粧台
  6
EXLTYPE2
 62
     6
100
AcDbVertex
100
AcDb2dVertex
 10
907.5
 20
964.707107
 30
0.0
  0
VERTEX
  5
46D
100
AcDbEntity
  8
化粧台
  6
EXLTYPE2
 62
     6
100
AcDbVertex
100
AcDb2dVertex
 10
904.0
 20
967.207107
 30
0.0
  0
VERTEX
  5
46E
100
AcDbEntity
  8
化粧台
  6
EXLTYPE2
 62
     6
100
AcDbVertex
100
AcDb2dVertex
 10
907.5
 20
969.707107
 30
0.0
  0
VERTEX
  5
46F
100
AcDbEntity
  8
化粧台
  6
EXLTYPE2
 62
     6
100
AcDbVertex
100
AcDb2dVertex
 10
904.0
 20
972.207107
 30
0.0
  0
VERTEX
  5
470
100
AcDbEntity
  8
化粧台
  6
EXLTYPE2
 62
     6
100
AcDbVertex
100
AcDb2dVertex
 10
907.5
 20
974.707107
 30
0.0
  0
VERTEX
  5
471
100
AcDbEntity
  8
化粧台
  6
EXLTYPE2
 62
     6
100
AcDbVertex
100
AcDb2dVertex
 10
904.0
 20
977.207107
 30
0.0
  0
VERTEX
  5
472
100
AcDbEntity
  8
化粧台
  6
EXLTYPE2
 62
     6
100
AcDbVertex
100
AcDb2dVertex
 10
907.5
 20
979.707107
 30
0.0
  0
VERTEX
  5
473
100
AcDbEntity
  8
化粧台
  6
EXLTYPE2
 62
     6
100
AcDbVertex
100
AcDb2dVertex
 10
904.0
 20
982.207107
 30
0.0
  0
VERTEX
  5
474
100
AcDbEntity
  8
化粧台
  6
EXLTYPE2
 62
     6
100
AcDbVertex
100
AcDb2dVertex
 10
907.5
 20
984.707107
 30
0.0
  0
VERTEX
  5
475
100
AcDbEntity
  8
化粧台
  6
EXLTYPE2
 62
     6
100
AcDbVertex
100
AcDb2dVertex
 10
904.0
 20
987.207107
 30
0.0
  0
VERTEX
  5
476
100
AcDbEntity
  8
化粧台
  6
EXLTYPE2
 62
     6
100
AcDbVertex
100
AcDb2dVertex
 10
907.5
 20
989.707107
 30
0.0
  0
VERTEX
  5
477
100
AcDbEntity
  8
化粧台
  6
EXLTYPE2
 62
     6
100
AcDbVertex
100
AcDb2dVertex
 10
904.0
 20
992.207107
 30
0.0
  0
VERTEX
  5
478
100
AcDbEntity
  8
化粧台
  6
EXLTYPE2
 62
     6
100
AcDbVertex
100
AcDb2dVertex
 10
907.5
 20
994.707107
 30
0.0
  0
VERTEX
  5
479
100
AcDbEntity
  8
化粧台
  6
EXLTYPE2
 62
     6
100
AcDbVertex
100
AcDb2dVertex
 10
904.0
 20
997.207107
 30
0.0
  0
VERTEX
  5
47A
100
AcDbEntity
  8
化粧台
  6
EXLTYPE2
 62
     6
100
AcDbVertex
100
AcDb2dVertex
 10
907.5
 20
999.707107
 30
0.0
  0
VERTEX
  5
47B
100
AcDbEntity
  8
化粧台
  6
EXLTYPE2
 62
     6
100
AcDbVertex
100
AcDb2dVertex
 10
904.0
 20
1002.207107
 30
0.0
  0
VERTEX
  5
47C
100
AcDbEntity
  8
化粧台
  6
EXLTYPE2
 62
     6
100
AcDbVertex
100
AcDb2dVertex
 10
907.5
 20
1004.707107
 30
0.0
  0
VERTEX
  5
47D
100
AcDbEntity
  8
化粧台
  6
EXLTYPE2
 62
     6
100
AcDbVertex
100
AcDb2dVertex
 10
904.0
 20
1007.207107
 30
0.0
  0
VERTEX
  5
47E
100
AcDbEntity
  8
化粧台
  6
EXLTYPE2
 62
     6
100
AcDbVertex
100
AcDb2dVertex
 10
907.5
 20
1009.707107
 30
0.0
  0
VERTEX
  5
47F
100
AcDbEntity
  8
化粧台
  6
EXLTYPE2
 62
     6
100
AcDbVertex
100
AcDb2dVertex
 10
904.0
 20
1012.207107
 30
0.0
  0
VERTEX
  5
480
100
AcDbEntity
  8
化粧台
  6
EXLTYPE2
 62
     6
100
AcDbVertex
100
AcDb2dVertex
 10
907.5
 20
1014.707107
 30
0.0
  0
VERTEX
  5
481
100
AcDbEntity
  8
化粧台
  6
EXLTYPE2
 62
     6
100
AcDbVertex
100
AcDb2dVertex
 10
904.0
 20
1017.207107
 30
0.0
  0
VERTEX
  5
482
100
AcDbEntity
  8
化粧台
  6
EXLTYPE2
 62
     6
100
AcDbVertex
100
AcDb2dVertex
 10
907.5
 20
1019.707107
 30
0.0
  0
VERTEX
  5
483
100
AcDbEntity
  8
化粧台
  6
EXLTYPE2
 62
     6
100
AcDbVertex
100
AcDb2dVertex
 10
904.0
 20
1022.207107
 30
0.0
  0
VERTEX
  5
484
100
AcDbEntity
  8
化粧台
  6
EXLTYPE2
 62
     6
100
AcDbVertex
100
AcDb2dVertex
 10
907.5
 20
1024.707107
 30
0.0
  0
VERTEX
  5
485
100
AcDbEntity
  8
化粧台
  6
EXLTYPE2
 62
     6
100
AcDbVertex
100
AcDb2dVertex
 10
904.0
 20
1027.207107
 30
0.0
  0
VERTEX
  5
486
100
AcDbEntity
  8
化粧台
  6
EXLTYPE2
 62
     6
100
AcDbVertex
100
AcDb2dVertex
 10
907.5
 20
1029.707107
 30
0.0
  0
VERTEX
  5
487
100
AcDbEntity
  8
化粧台
  6
EXLTYPE2
 62
     6
100
AcDbVertex
100
AcDb2dVertex
 10
904.0
 20
1032.207107
 30
0.0
  0
VERTEX
  5
488
100
AcDbEntity
  8
化粧台
  6
EXLTYPE2
 62
     6
100
AcDbVertex
100
AcDb2dVertex
 10
907.5
 20
1034.707107
 30
0.0
  0
VERTEX
  5
489
100
AcDbEntity
  8
化粧台
  6
EXLTYPE2
 62
     6
100
AcDbVertex
100
AcDb2dVertex
 10
904.0
 20
1037.207107
 30
0.0
  0
VERTEX
  5
48A
100
AcDbEntity
  8
化粧台
  6
EXLTYPE2
 62
     6
100
AcDbVertex
100
AcDb2dVertex
 10
907.5
 20
1039.707107
 30
0.0
  0
VERTEX
  5
48B
100
AcDbEntity
  8
化粧台
  6
EXLTYPE2
 62
     6
100
AcDbVertex
100
AcDb2dVertex
 10
904.0
 20
1042.207107
 30
0.0
  0
VERTEX
  5
48C
100
AcDbEntity
  8
化粧台
  6
EXLTYPE2
 62
     6
100
AcDbVertex
100
AcDb2dVertex
 10
907.5
 20
1044.707107
 30
0.0
  0
VERTEX
  5
48D
100
AcDbEntity
  8
化粧台
  6
EXLTYPE2
 62
     6
100
AcDbVertex
100
AcDb2dVertex
 10
904.0
 20
1047.207107
 30
0.0
  0
VERTEX
  5
48E
100
AcDbEntity
  8
化粧台
  6
EXLTYPE2
 62
     6
100
AcDbVertex
100
AcDb2dVertex
 10
907.5
 20
1049.707107
 30
0.0
  0
VERTEX
  5
48F
100
AcDbEntity
  8
化粧台
  6
EXLTYPE2
 62
     6
100
AcDbVertex
100
AcDb2dVertex
 10
904.0
 20
1052.207107
 30
0.0
  0
VERTEX
  5
490
100
AcDbEntity
  8
化粧台
  6
EXLTYPE2
 62
     6
100
AcDbVertex
100
AcDb2dVertex
 10
907.5
 20
1054.707107
 30
0.0
  0
VERTEX
  5
491
100
AcDbEntity
  8
化粧台
  6
EXLTYPE2
 62
     6
100
AcDbVertex
100
AcDb2dVertex
 10
904.0
 20
1057.207107
 30
0.0
  0
VERTEX
  5
492
100
AcDbEntity
  8
化粧台
  6
EXLTYPE2
 62
     6
100
AcDbVertex
100
AcDb2dVertex
 10
907.5
 20
1059.707107
 30
0.0
  0
VERTEX
  5
493
100
AcDbEntity
  8
化粧台
  6
EXLTYPE2
 62
     6
100
AcDbVertex
100
AcDb2dVertex
 10
904.0
 20
1062.207107
 30
0.0
  0
VERTEX
  5
494
100
AcDbEntity
  8
化粧台
  6
EXLTYPE2
 62
     6
100
AcDbVertex
100
AcDb2dVertex
 10
907.5
 20
1064.707107
 30
0.0
  0
VERTEX
  5
495
100
AcDbEntity
  8
化粧台
  6
EXLTYPE2
 62
     6
100
AcDbVertex
100
AcDb2dVertex
 10
904.0
 20
1067.207107
 30
0.0
  0
VERTEX
  5
496
100
AcDbEntity
  8
化粧台
  6
EXLTYPE2
 62
     6
100
AcDbVertex
100
AcDb2dVertex
 10
907.5
 20
1069.707107
 30
0.0
  0
VERTEX
  5
497
100
AcDbEntity
  8
化粧台
  6
EXLTYPE2
 62
     6
100
AcDbVertex
100
AcDb2dVertex
 10
904.0
 20
1072.207107
 30
0.0
  0
VERTEX
  5
498
100
AcDbEntity
  8
化粧台
  6
EXLTYPE2
 62
     6
100
AcDbVertex
100
AcDb2dVertex
 10
907.5
 20
1074.707107
 30
0.0
  0
VERTEX
  5
499
100
AcDbEntity
  8
化粧台
  6
EXLTYPE2
 62
     6
100
AcDbVertex
100
AcDb2dVertex
 10
904.0
 20
1077.207107
 30
0.0
  0
VERTEX
  5
49A
100
AcDbEntity
  8
化粧台
  6
EXLTYPE2
 62
     6
100
AcDbVertex
100
AcDb2dVertex
 10
907.5
 20
1079.707107
 30
0.0
  0
VERTEX
  5
49B
100
AcDbEntity
  8
化粧台
  6
EXLTYPE2
 62
     6
100
AcDbVertex
100
AcDb2dVertex
 10
904.0
 20
1082.207107
 30
0.0
  0
VERTEX
  5
49C
100
AcDbEntity
  8
化粧台
  6
EXLTYPE2
 62
     6
100
AcDbVertex
100
AcDb2dVertex
 10
907.5
 20
1084.707107
 30
0.0
  0
VERTEX
  5
49D
100
AcDbEntity
  8
化粧台
  6
EXLTYPE2
 62
     6
100
AcDbVertex
100
AcDb2dVertex
 10
904.0
 20
1087.207107
 30
0.0
  0
VERTEX
  5
49E
100
AcDbEntity
  8
化粧台
  6
EXLTYPE2
 62
     6
100
AcDbVertex
100
AcDb2dVertex
 10
907.5
 20
1089.707107
 30
0.0
  0
VERTEX
  5
49F
100
AcDbEntity
  8
化粧台
  6
EXLTYPE2
 62
     6
100
AcDbVertex
100
AcDb2dVertex
 10
904.0
 20
1092.207107
 30
0.0
  0
VERTEX
  5
4A0
100
AcDbEntity
  8
化粧台
  6
EXLTYPE2
 62
     6
100
AcDbVertex
100
AcDb2dVertex
 10
907.5
 20
1094.707107
 30
0.0
  0
VERTEX
  5
4A1
100
AcDbEntity
  8
化粧台
  6
EXLTYPE2
 62
     6
100
AcDbVertex
100
AcDb2dVertex
 10
904.0
 20
1097.207107
 30
0.0
  0
VERTEX
  5
4A2
100
AcDbEntity
  8
化粧台
  6
EXLTYPE2
 62
     6
100
AcDbVertex
100
AcDb2dVertex
 10
907.5
 20
1099.707107
 30
0.0
  0
VERTEX
  5
4A3
100
AcDbEntity
  8
化粧台
  6
EXLTYPE2
 62
     6
100
AcDbVertex
100
AcDb2dVertex
 10
904.0
 20
1102.207107
 30
0.0
  0
VERTEX
  5
4A4
100
AcDbEntity
  8
化粧台
  6
EXLTYPE2
 62
     6
100
AcDbVertex
100
AcDb2dVertex
 10
907.5
 20
1104.707107
 30
0.0
  0
VERTEX
  5
4A5
100
AcDbEntity
  8
化粧台
  6
EXLTYPE2
 62
     6
100
AcDbVertex
100
AcDb2dVertex
 10
904.0
 20
1107.207107
 30
0.0
  0
VERTEX
  5
4A6
100
AcDbEntity
  8
化粧台
  6
EXLTYPE2
 62
     6
100
AcDbVertex
100
AcDb2dVertex
 10
907.5
 20
1109.707107
 30
0.0
  0
VERTEX
  5
4A7
100
AcDbEntity
  8
化粧台
  6
EXLTYPE2
 62
     6
100
AcDbVertex
100
AcDb2dVertex
 10
904.0
 20
1112.207107
 30
0.0
  0
VERTEX
  5
4A8
100
AcDbEntity
  8
化粧台
  6
EXLTYPE2
 62
     6
100
AcDbVertex
100
AcDb2dVertex
 10
907.5
 20
1114.707107
 30
0.0
  0
VERTEX
  5
4A9
100
AcDbEntity
  8
化粧台
  6
EXLTYPE2
 62
     6
100
AcDbVertex
100
AcDb2dVertex
 10
904.0
 20
1117.207107
 30
0.0
  0
VERTEX
  5
4AA
100
AcDbEntity
  8
化粧台
  6
EXLTYPE2
 62
     6
100
AcDbVertex
100
AcDb2dVertex
 10
907.5
 20
1119.707107
 30
0.0
  0
VERTEX
  5
4AB
100
AcDbEntity
  8
化粧台
  6
EXLTYPE2
 62
     6
100
AcDbVertex
100
AcDb2dVertex
 10
904.0
 20
1122.207107
 30
0.0
  0
VERTEX
  5
4AC
100
AcDbEntity
  8
化粧台
  6
EXLTYPE2
 62
     6
100
AcDbVertex
100
AcDb2dVertex
 10
907.5
 20
1124.707107
 30
0.0
  0
VERTEX
  5
4AD
100
AcDbEntity
  8
化粧台
  6
EXLTYPE2
 62
     6
100
AcDbVertex
100
AcDb2dVertex
 10
904.0
 20
1127.207107
 30
0.0
  0
VERTEX
  5
4AE
100
AcDbEntity
  8
化粧台
  6
EXLTYPE2
 62
     6
100
AcDbVertex
100
AcDb2dVertex
 10
907.5
 20
1129.707107
 30
0.0
  0
VERTEX
  5
4AF
100
AcDbEntity
  8
化粧台
  6
EXLTYPE2
 62
     6
100
AcDbVertex
100
AcDb2dVertex
 10
904.0
 20
1132.207107
 30
0.0
  0
VERTEX
  5
4B0
100
AcDbEntity
  8
化粧台
  6
EXLTYPE2
 62
     6
100
AcDbVertex
100
AcDb2dVertex
 10
907.5
 20
1134.707107
 30
0.0
  0
VERTEX
  5
4B1
100
AcDbEntity
  8
化粧台
  6
EXLTYPE2
 62
     6
100
AcDbVertex
100
AcDb2dVertex
 10
904.0
 20
1137.207107
 30
0.0
  0
VERTEX
  5
4B2
100
AcDbEntity
  8
化粧台
  6
EXLTYPE2
 62
     6
100
AcDbVertex
100
AcDb2dVertex
 10
907.5
 20
1139.707107
 30
0.0
  0
VERTEX
  5
4B3
100
AcDbEntity
  8
化粧台
  6
EXLTYPE2
 62
     6
100
AcDbVertex
100
AcDb2dVertex
 10
904.0
 20
1142.207107
 30
0.0
  0
VERTEX
  5
4B4
100
AcDbEntity
  8
化粧台
  6
EXLTYPE2
 62
     6
100
AcDbVertex
100
AcDb2dVertex
 10
907.5
 20
1144.707107
 30
0.0
  0
VERTEX
  5
4B5
100
AcDbEntity
  8
化粧台
  6
EXLTYPE2
 62
     6
100
AcDbVertex
100
AcDb2dVertex
 10
904.0
 20
1147.207107
 30
0.0
  0
VERTEX
  5
4B6
100
AcDbEntity
  8
化粧台
  6
EXLTYPE2
 62
     6
100
AcDbVertex
100
AcDb2dVertex
 10
907.5
 20
1149.707107
 30
0.0
  0
VERTEX
  5
4B7
100
AcDbEntity
  8
化粧台
  6
EXLTYPE2
 62
     6
100
AcDbVertex
100
AcDb2dVertex
 10
904.0
 20
1152.207107
 30
0.0
  0
VERTEX
  5
4B8
100
AcDbEntity
  8
化粧台
  6
EXLTYPE2
 62
     6
100
AcDbVertex
100
AcDb2dVertex
 10
907.5
 20
1154.707107
 30
0.0
  0
VERTEX
  5
4B9
100
AcDbEntity
  8
化粧台
  6
EXLTYPE2
 62
     6
100
AcDbVertex
100
AcDb2dVertex
 10
904.0
 20
1157.207107
 30
0.0
  0
VERTEX
  5
4BA
100
AcDbEntity
  8
化粧台
  6
EXLTYPE2
 62
     6
100
AcDbVertex
100
AcDb2dVertex
 10
907.5
 20
1159.707107
 30
0.0
  0
VERTEX
  5
4BB
100
AcDbEntity
  8
化粧台
  6
EXLTYPE2
 62
     6
100
AcDbVertex
100
AcDb2dVertex
 10
904.0
 20
1162.207107
 30
0.0
  0
VERTEX
  5
4BC
100
AcDbEntity
  8
化粧台
  6
EXLTYPE2
 62
     6
100
AcDbVertex
100
AcDb2dVertex
 10
907.5
 20
1164.707107
 30
0.0
  0
VERTEX
  5
4BD
100
AcDbEntity
  8
化粧台
  6
EXLTYPE2
 62
     6
100
AcDbVertex
100
AcDb2dVertex
 10
904.0
 20
1167.207107
 30
0.0
  0
VERTEX
  5
4BE
100
AcDbEntity
  8
化粧台
  6
EXLTYPE2
 62
     6
100
AcDbVertex
100
AcDb2dVertex
 10
907.5
 20
1169.707107
 30
0.0
  0
VERTEX
  5
4BF
100
AcDbEntity
  8
化粧台
  6
EXLTYPE2
 62
     6
100
AcDbVertex
100
AcDb2dVertex
 10
904.0
 20
1172.207107
 30
0.0
  0
VERTEX
  5
4C0
100
AcDbEntity
  8
化粧台
  6
EXLTYPE2
 62
     6
100
AcDbVertex
100
AcDb2dVertex
 10
907.5
 20
1174.707107
 30
0.0
  0
VERTEX
  5
4C1
100
AcDbEntity
  8
化粧台
  6
EXLTYPE2
 62
     6
100
AcDbVertex
100
AcDb2dVertex
 10
904.0
 20
1177.207107
 30
0.0
  0
VERTEX
  5
4C2
100
AcDbEntity
  8
化粧台
  6
EXLTYPE2
 62
     6
100
AcDbVertex
100
AcDb2dVertex
 10
907.5
 20
1179.707107
 30
0.0
  0
VERTEX
  5
4C3
100
AcDbEntity
  8
化粧台
  6
EXLTYPE2
 62
     6
100
AcDbVertex
100
AcDb2dVertex
 10
904.0
 20
1182.207107
 30
0.0
  0
VERTEX
  5
4C4
100
AcDbEntity
  8
化粧台
  6
EXLTYPE2
 62
     6
100
AcDbVertex
100
AcDb2dVertex
 10
907.5
 20
1184.707107
 30
0.0
  0
VERTEX
  5
4C5
100
AcDbEntity
  8
化粧台
  6
EXLTYPE2
 62
     6
100
AcDbVertex
100
AcDb2dVertex
 10
904.0
 20
1187.207107
 30
0.0
  0
VERTEX
  5
4C6
100
AcDbEntity
  8
化粧台
  6
EXLTYPE2
 62
     6
100
AcDbVertex
100
AcDb2dVertex
 10
907.5
 20
1189.707107
 30
0.0
  0
VERTEX
  5
4C7
100
AcDbEntity
  8
化粧台
  6
EXLTYPE2
 62
     6
100
AcDbVertex
100
AcDb2dVertex
 10
904.0
 20
1192.207107
 30
0.0
  0
VERTEX
  5
4C8
100
AcDbEntity
  8
化粧台
  6
EXLTYPE2
 62
     6
100
AcDbVertex
100
AcDb2dVertex
 10
907.5
 20
1194.707107
 30
0.0
  0
VERTEX
  5
4C9
100
AcDbEntity
  8
化粧台
  6
EXLTYPE2
 62
     6
100
AcDbVertex
100
AcDb2dVertex
 10
904.0
 20
1197.207107
 30
0.0
  0
VERTEX
  5
4CA
100
AcDbEntity
  8
化粧台
  6
EXLTYPE2
 62
     6
100
AcDbVertex
100
AcDb2dVertex
 10
907.5
 20
1199.707107
 30
0.0
  0
VERTEX
  5
4CB
100
AcDbEntity
  8
化粧台
  6
EXLTYPE2
 62
     6
100
AcDbVertex
100
AcDb2dVertex
 10
904.0
 20
1202.207107
 30
0.0
  0
VERTEX
  5
4CC
100
AcDbEntity
  8
化粧台
  6
EXLTYPE2
 62
     6
100
AcDbVertex
100
AcDb2dVertex
 10
907.5
 20
1204.707107
 30
0.0
  0
VERTEX
  5
4CD
100
AcDbEntity
  8
化粧台
  6
EXLTYPE2
 62
     6
100
AcDbVertex
100
AcDb2dVertex
 10
904.0
 20
1207.207107
 30
0.0
  0
VERTEX
  5
4CE
100
AcDbEntity
  8
化粧台
  6
EXLTYPE2
 62
     6
100
AcDbVertex
100
AcDb2dVertex
 10
907.5
 20
1209.707107
 30
0.0
  0
VERTEX
  5
4CF
100
AcDbEntity
  8
化粧台
  6
EXLTYPE2
 62
     6
100
AcDbVertex
100
AcDb2dVertex
 10
904.0
 20
1212.207107
 30
0.0
  0
VERTEX
  5
4D0
100
AcDbEntity
  8
化粧台
  6
EXLTYPE2
 62
     6
100
AcDbVertex
100
AcDb2dVertex
 10
907.5
 20
1214.707107
 30
0.0
  0
VERTEX
  5
4D1
100
AcDbEntity
  8
化粧台
  6
EXLTYPE2
 62
     6
100
AcDbVertex
100
AcDb2dVertex
 10
904.0
 20
1217.207107
 30
0.0
  0
VERTEX
  5
4D2
100
AcDbEntity
  8
化粧台
  6
EXLTYPE2
 62
     6
100
AcDbVertex
100
AcDb2dVertex
 10
907.5
 20
1219.707107
 30
0.0
  0
VERTEX
  5
4D3
100
AcDbEntity
  8
化粧台
  6
EXLTYPE2
 62
     6
100
AcDbVertex
100
AcDb2dVertex
 10
904.0
 20
1222.207107
 30
0.0
  0
VERTEX
  5
4D4
100
AcDbEntity
  8
化粧台
  6
EXLTYPE2
 62
     6
100
AcDbVertex
100
AcDb2dVertex
 10
907.5
 20
1224.707107
 30
0.0
  0
VERTEX
  5
4D5
100
AcDbEntity
  8
化粧台
  6
EXLTYPE2
 62
     6
100
AcDbVertex
100
AcDb2dVertex
 10
904.0
 20
1227.207107
 30
0.0
  0
VERTEX
  5
4D6
100
AcDbEntity
  8
化粧台
  6
EXLTYPE2
 62
     6
100
AcDbVertex
100
AcDb2dVertex
 10
907.5
 20
1229.707107
 30
0.0
  0
VERTEX
  5
4D7
100
AcDbEntity
  8
化粧台
  6
EXLTYPE2
 62
     6
100
AcDbVertex
100
AcDb2dVertex
 10
904.0
 20
1232.207107
 30
0.0
  0
VERTEX
  5
4D8
100
AcDbEntity
  8
化粧台
  6
EXLTYPE2
 62
     6
100
AcDbVertex
100
AcDb2dVertex
 10
907.5
 20
1234.707107
 30
0.0
  0
VERTEX
  5
4D9
100
AcDbEntity
  8
化粧台
  6
EXLTYPE2
 62
     6
100
AcDbVertex
100
AcDb2dVertex
 10
904.7
 20
1236.707107
 30
0.0
  0
SEQEND
  5
4DA
100
AcDbEntity
  8
化粧台
  6
EXLTYPE2
 62
     6
  0
POLYLINE
  5
4DB
100
AcDbEntity
  8
化粧台
  6
EXLTYPE2
 62
     6
100
AcDb2dPolyline
 66
     1
 10
0.0
 20
0.0
 30
0.0
 70
   128
  0
VERTEX
  5
4DC
100
AcDbEntity
  8
化粧台
  6
EXLTYPE2
 62
     6
100
AcDbVertex
100
AcDb2dVertex
 10
936.610051
 20
915.5
 30
0.0
  0
VERTEX
  5
4DD
100
AcDbEntity
  8
化粧台
  6
EXLTYPE2
 62
     6
100
AcDbVertex
100
AcDb2dVertex
 10
939.0
 20
917.207107
 30
0.0
  0
VERTEX
  5
4DE
100
AcDbEntity
  8
化粧台
  6
EXLTYPE2
 62
     6
100
AcDbVertex
100
AcDb2dVertex
 10
935.5
 20
919.707107
 30
0.0
  0
VERTEX
  5
4DF
100
AcDbEntity
  8
化粧台
  6
EXLTYPE2
 62
     6
100
AcDbVertex
100
AcDb2dVertex
 10
939.0
 20
922.207107
 30
0.0
  0
VERTEX
  5
4E0
100
AcDbEntity
  8
化粧台
  6
EXLTYPE2
 62
     6
100
AcDbVertex
100
AcDb2dVertex
 10
935.5
 20
924.707107
 30
0.0
  0
VERTEX
  5
4E1
100
AcDbEntity
  8
化粧台
  6
EXLTYPE2
 62
     6
100
AcDbVertex
100
AcDb2dVertex
 10
939.0
 20
927.207107
 30
0.0
  0
VERTEX
  5
4E2
100
AcDbEntity
  8
化粧台
  6
EXLTYPE2
 62
     6
100
AcDbVertex
100
AcDb2dVertex
 10
935.5
 20
929.707107
 30
0.0
  0
VERTEX
  5
4E3
100
AcDbEntity
  8
化粧台
  6
EXLTYPE2
 62
     6
100
AcDbVertex
100
AcDb2dVertex
 10
939.0
 20
932.207107
 30
0.0
  0
VERTEX
  5
4E4
100
AcDbEntity
  8
化粧台
  6
EXLTYPE2
 62
     6
100
AcDbVertex
100
AcDb2dVertex
 10
935.5
 20
934.707107
 30
0.0
  0
VERTEX
  5
4E5
100
AcDbEntity
  8
化粧台
  6
EXLTYPE2
 62
     6
100
AcDbVertex
100
AcDb2dVertex
 10
939.0
 20
937.207107
 30
0.0
  0
VERTEX
  5
4E6
100
AcDbEntity
  8
化粧台
  6
EXLTYPE2
 62
     6
100
AcDbVertex
100
AcDb2dVertex
 10
935.5
 20
939.707107
 30
0.0
  0
VERTEX
  5
4E7
100
AcDbEntity
  8
化粧台
  6
EXLTYPE2
 62
     6
100
AcDbVertex
100
AcDb2dVertex
 10
939.0
 20
942.207107
 30
0.0
  0
VERTEX
  5
4E8
100
AcDbEntity
  8
化粧台
  6
EXLTYPE2
 62
     6
100
AcDbVertex
100
AcDb2dVertex
 10
935.5
 20
944.707107
 30
0.0
  0
VERTEX
  5
4E9
100
AcDbEntity
  8
化粧台
  6
EXLTYPE2
 62
     6
100
AcDbVertex
100
AcDb2dVertex
 10
939.0
 20
947.207107
 30
0.0
  0
VERTEX
  5
4EA
100
AcDbEntity
  8
化粧台
  6
EXLTYPE2
 62
     6
100
AcDbVertex
100
AcDb2dVertex
 10
935.5
 20
949.707107
 30
0.0
  0
VERTEX
  5
4EB
100
AcDbEntity
  8
化粧台
  6
EXLTYPE2
 62
     6
100
AcDbVertex
100
AcDb2dVertex
 10
939.0
 20
952.207107
 30
0.0
  0
VERTEX
  5
4EC
100
AcDbEntity
  8
化粧台
  6
EXLTYPE2
 62
     6
100
AcDbVertex
100
AcDb2dVertex
 10
935.5
 20
954.707107
 30
0.0
  0
VERTEX
  5
4ED
100
AcDbEntity
  8
化粧台
  6
EXLTYPE2
 62
     6
100
AcDbVertex
100
AcDb2dVertex
 10
939.0
 20
957.207107
 30
0.0
  0
VERTEX
  5
4EE
100
AcDbEntity
  8
化粧台
  6
EXLTYPE2
 62
     6
100
AcDbVertex
100
AcDb2dVertex
 10
935.5
 20
959.707107
 30
0.0
  0
VERTEX
  5
4EF
100
AcDbEntity
  8
化粧台
  6
EXLTYPE2
 62
     6
100
AcDbVertex
100
AcDb2dVertex
 10
939.0
 20
962.207107
 30
0.0
  0
VERTEX
  5
4F0
100
AcDbEntity
  8
化粧台
  6
EXLTYPE2
 62
     6
100
AcDbVertex
100
AcDb2dVertex
 10
935.5
 20
964.707107
 30
0.0
  0
VERTEX
  5
4F1
100
AcDbEntity
  8
化粧台
  6
EXLTYPE2
 62
     6
100
AcDbVertex
100
AcDb2dVertex
 10
939.0
 20
967.207107
 30
0.0
  0
VERTEX
  5
4F2
100
AcDbEntity
  8
化粧台
  6
EXLTYPE2
 62
     6
100
AcDbVertex
100
AcDb2dVertex
 10
935.5
 20
969.707107
 30
0.0
  0
VERTEX
  5
4F3
100
AcDbEntity
  8
化粧台
  6
EXLTYPE2
 62
     6
100
AcDbVertex
100
AcDb2dVertex
 10
939.0
 20
972.207107
 30
0.0
  0
VERTEX
  5
4F4
100
AcDbEntity
  8
化粧台
  6
EXLTYPE2
 62
     6
100
AcDbVertex
100
AcDb2dVertex
 10
935.5
 20
974.707107
 30
0.0
  0
VERTEX
  5
4F5
100
AcDbEntity
  8
化粧台
  6
EXLTYPE2
 62
     6
100
AcDbVertex
100
AcDb2dVertex
 10
939.0
 20
977.207107
 30
0.0
  0
VERTEX
  5
4F6
100
AcDbEntity
  8
化粧台
  6
EXLTYPE2
 62
     6
100
AcDbVertex
100
AcDb2dVertex
 10
935.5
 20
979.707107
 30
0.0
  0
VERTEX
  5
4F7
100
AcDbEntity
  8
化粧台
  6
EXLTYPE2
 62
     6
100
AcDbVertex
100
AcDb2dVertex
 10
939.0
 20
982.207107
 30
0.0
  0
VERTEX
  5
4F8
100
AcDbEntity
  8
化粧台
  6
EXLTYPE2
 62
     6
100
AcDbVertex
100
AcDb2dVertex
 10
935.5
 20
984.707107
 30
0.0
  0
VERTEX
  5
4F9
100
AcDbEntity
  8
化粧台
  6
EXLTYPE2
 62
     6
100
AcDbVertex
100
AcDb2dVertex
 10
939.0
 20
987.207107
 30
0.0
  0
VERTEX
  5
4FA
100
AcDbEntity
  8
化粧台
  6
EXLTYPE2
 62
     6
100
AcDbVertex
100
AcDb2dVertex
 10
935.5
 20
989.707107
 30
0.0
  0
VERTEX
  5
4FB
100
AcDbEntity
  8
化粧台
  6
EXLTYPE2
 62
     6
100
AcDbVertex
100
AcDb2dVertex
 10
939.0
 20
992.207107
 30
0.0
  0
VERTEX
  5
4FC
100
AcDbEntity
  8
化粧台
  6
EXLTYPE2
 62
     6
100
AcDbVertex
100
AcDb2dVertex
 10
935.5
 20
994.707107
 30
0.0
  0
VERTEX
  5
4FD
100
AcDbEntity
  8
化粧台
  6
EXLTYPE2
 62
     6
100
AcDbVertex
100
AcDb2dVertex
 10
939.0
 20
997.207107
 30
0.0
  0
VERTEX
  5
4FE
100
AcDbEntity
  8
化粧台
  6
EXLTYPE2
 62
     6
100
AcDbVertex
100
AcDb2dVertex
 10
935.5
 20
999.707107
 30
0.0
  0
VERTEX
  5
4FF
100
AcDbEntity
  8
化粧台
  6
EXLTYPE2
 62
     6
100
AcDbVertex
100
AcDb2dVertex
 10
939.0
 20
1002.207107
 30
0.0
  0
VERTEX
  5
500
100
AcDbEntity
  8
化粧台
  6
EXLTYPE2
 62
     6
100
AcDbVertex
100
AcDb2dVertex
 10
935.5
 20
1004.707107
 30
0.0
  0
VERTEX
  5
501
100
AcDbEntity
  8
化粧台
  6
EXLTYPE2
 62
     6
100
AcDbVertex
100
AcDb2dVertex
 10
939.0
 20
1007.207107
 30
0.0
  0
VERTEX
  5
502
100
AcDbEntity
  8
化粧台
  6
EXLTYPE2
 62
     6
100
AcDbVertex
100
AcDb2dVertex
 10
935.5
 20
1009.707107
 30
0.0
  0
VERTEX
  5
503
100
AcDbEntity
  8
化粧台
  6
EXLTYPE2
 62
     6
100
AcDbVertex
100
AcDb2dVertex
 10
939.0
 20
1012.207107
 30
0.0
  0
VERTEX
  5
504
100
AcDbEntity
  8
化粧台
  6
EXLTYPE2
 62
     6
100
AcDbVertex
100
AcDb2dVertex
 10
935.5
 20
1014.707107
 30
0.0
  0
VERTEX
  5
505
100
AcDbEntity
  8
化粧台
  6
EXLTYPE2
 62
     6
100
AcDbVertex
100
AcDb2dVertex
 10
939.0
 20
1017.207107
 30
0.0
  0
VERTEX
  5
506
100
AcDbEntity
  8
化粧台
  6
EXLTYPE2
 62
     6
100
AcDbVertex
100
AcDb2dVertex
 10
935.5
 20
1019.707107
 30
0.0
  0
VERTEX
  5
507
100
AcDbEntity
  8
化粧台
  6
EXLTYPE2
 62
     6
100
AcDbVertex
100
AcDb2dVertex
 10
939.0
 20
1022.207107
 30
0.0
  0
VERTEX
  5
508
100
AcDbEntity
  8
化粧台
  6
EXLTYPE2
 62
     6
100
AcDbVertex
100
AcDb2dVertex
 10
935.5
 20
1024.707107
 30
0.0
  0
VERTEX
  5
509
100
AcDbEntity
  8
化粧台
  6
EXLTYPE2
 62
     6
100
AcDbVertex
100
AcDb2dVertex
 10
939.0
 20
1027.207107
 30
0.0
  0
VERTEX
  5
50A
100
AcDbEntity
  8
化粧台
  6
EXLTYPE2
 62
     6
100
AcDbVertex
100
AcDb2dVertex
 10
935.5
 20
1029.707107
 30
0.0
  0
VERTEX
  5
50B
100
AcDbEntity
  8
化粧台
  6
EXLTYPE2
 62
     6
100
AcDbVertex
100
AcDb2dVertex
 10
939.0
 20
1032.207107
 30
0.0
  0
VERTEX
  5
50C
100
AcDbEntity
  8
化粧台
  6
EXLTYPE2
 62
     6
100
AcDbVertex
100
AcDb2dVertex
 10
935.5
 20
1034.707107
 30
0.0
  0
VERTEX
  5
50D
100
AcDbEntity
  8
化粧台
  6
EXLTYPE2
 62
     6
100
AcDbVertex
100
AcDb2dVertex
 10
939.0
 20
1037.207107
 30
0.0
  0
VERTEX
  5
50E
100
AcDbEntity
  8
化粧台
  6
EXLTYPE2
 62
     6
100
AcDbVertex
100
AcDb2dVertex
 10
935.5
 20
1039.707107
 30
0.0
  0
VERTEX
  5
50F
100
AcDbEntity
  8
化粧台
  6
EXLTYPE2
 62
     6
100
AcDbVertex
100
AcDb2dVertex
 10
939.0
 20
1042.207107
 30
0.0
  0
VERTEX
  5
510
100
AcDbEntity
  8
化粧台
  6
EXLTYPE2
 62
     6
100
AcDbVertex
100
AcDb2dVertex
 10
935.5
 20
1044.707107
 30
0.0
  0
VERTEX
  5
511
100
AcDbEntity
  8
化粧台
  6
EXLTYPE2
 62
     6
100
AcDbVertex
100
AcDb2dVertex
 10
939.0
 20
1047.207107
 30
0.0
  0
VERTEX
  5
512
100
AcDbEntity
  8
化粧台
  6
EXLTYPE2
 62
     6
100
AcDbVertex
100
AcDb2dVertex
 10
935.5
 20
1049.707107
 30
0.0
  0
VERTEX
  5
513
100
AcDbEntity
  8
化粧台
  6
EXLTYPE2
 62
     6
100
AcDbVertex
100
AcDb2dVertex
 10
939.0
 20
1052.207107
 30
0.0
  0
VERTEX
  5
514
100
AcDbEntity
  8
化粧台
  6
EXLTYPE2
 62
     6
100
AcDbVertex
100
AcDb2dVertex
 10
935.5
 20
1054.707107
 30
0.0
  0
VERTEX
  5
515
100
AcDbEntity
  8
化粧台
  6
EXLTYPE2
 62
     6
100
AcDbVertex
100
AcDb2dVertex
 10
939.0
 20
1057.207107
 30
0.0
  0
VERTEX
  5
516
100
AcDbEntity
  8
化粧台
  6
EXLTYPE2
 62
     6
100
AcDbVertex
100
AcDb2dVertex
 10
935.5
 20
1059.707107
 30
0.0
  0
VERTEX
  5
517
100
AcDbEntity
  8
化粧台
  6
EXLTYPE2
 62
     6
100
AcDbVertex
100
AcDb2dVertex
 10
939.0
 20
1062.207107
 30
0.0
  0
VERTEX
  5
518
100
AcDbEntity
  8
化粧台
  6
EXLTYPE2
 62
     6
100
AcDbVertex
100
AcDb2dVertex
 10
935.5
 20
1064.707107
 30
0.0
  0
VERTEX
  5
519
100
AcDbEntity
  8
化粧台
  6
EXLTYPE2
 62
     6
100
AcDbVertex
100
AcDb2dVertex
 10
939.0
 20
1067.207107
 30
0.0
  0
VERTEX
  5
51A
100
AcDbEntity
  8
化粧台
  6
EXLTYPE2
 62
     6
100
AcDbVertex
100
AcDb2dVertex
 10
935.5
 20
1069.707107
 30
0.0
  0
VERTEX
  5
51B
100
AcDbEntity
  8
化粧台
  6
EXLTYPE2
 62
     6
100
AcDbVertex
100
AcDb2dVertex
 10
939.0
 20
1072.207107
 30
0.0
  0
VERTEX
  5
51C
100
AcDbEntity
  8
化粧台
  6
EXLTYPE2
 62
     6
100
AcDbVertex
100
AcDb2dVertex
 10
935.5
 20
1074.707107
 30
0.0
  0
VERTEX
  5
51D
100
AcDbEntity
  8
化粧台
  6
EXLTYPE2
 62
     6
100
AcDbVertex
100
AcDb2dVertex
 10
939.0
 20
1077.207107
 30
0.0
  0
VERTEX
  5
51E
100
AcDbEntity
  8
化粧台
  6
EXLTYPE2
 62
     6
100
AcDbVertex
100
AcDb2dVertex
 10
935.5
 20
1079.707107
 30
0.0
  0
VERTEX
  5
51F
100
AcDbEntity
  8
化粧台
  6
EXLTYPE2
 62
     6
100
AcDbVertex
100
AcDb2dVertex
 10
939.0
 20
1082.207107
 30
0.0
  0
VERTEX
  5
520
100
AcDbEntity
  8
化粧台
  6
EXLTYPE2
 62
     6
100
AcDbVertex
100
AcDb2dVertex
 10
935.5
 20
1084.707107
 30
0.0
  0
VERTEX
  5
521
100
AcDbEntity
  8
化粧台
  6
EXLTYPE2
 62
     6
100
AcDbVertex
100
AcDb2dVertex
 10
939.0
 20
1087.207107
 30
0.0
  0
VERTEX
  5
522
100
AcDbEntity
  8
化粧台
  6
EXLTYPE2
 62
     6
100
AcDbVertex
100
AcDb2dVertex
 10
935.5
 20
1089.707107
 30
0.0
  0
VERTEX
  5
523
100
AcDbEntity
  8
化粧台
  6
EXLTYPE2
 62
     6
100
AcDbVertex
100
AcDb2dVertex
 10
939.0
 20
1092.207107
 30
0.0
  0
VERTEX
  5
524
100
AcDbEntity
  8
化粧台
  6
EXLTYPE2
 62
     6
100
AcDbVertex
100
AcDb2dVertex
 10
935.5
 20
1094.707107
 30
0.0
  0
VERTEX
  5
525
100
AcDbEntity
  8
化粧台
  6
EXLTYPE2
 62
     6
100
AcDbVertex
100
AcDb2dVertex
 10
939.0
 20
1097.207107
 30
0.0
  0
VERTEX
  5
526
100
AcDbEntity
  8
化粧台
  6
EXLTYPE2
 62
     6
100
AcDbVertex
100
AcDb2dVertex
 10
935.5
 20
1099.707107
 30
0.0
  0
VERTEX
  5
527
100
AcDbEntity
  8
化粧台
  6
EXLTYPE2
 62
     6
100
AcDbVertex
100
AcDb2dVertex
 10
939.0
 20
1102.207107
 30
0.0
  0
VERTEX
  5
528
100
AcDbEntity
  8
化粧台
  6
EXLTYPE2
 62
     6
100
AcDbVertex
100
AcDb2dVertex
 10
935.5
 20
1104.707107
 30
0.0
  0
VERTEX
  5
529
100
AcDbEntity
  8
化粧台
  6
EXLTYPE2
 62
     6
100
AcDbVertex
100
AcDb2dVertex
 10
939.0
 20
1107.207107
 30
0.0
  0
VERTEX
  5
52A
100
AcDbEntity
  8
化粧台
  6
EXLTYPE2
 62
     6
100
AcDbVertex
100
AcDb2dVertex
 10
935.5
 20
1109.707107
 30
0.0
  0
VERTEX
  5
52B
100
AcDbEntity
  8
化粧台
  6
EXLTYPE2
 62
     6
100
AcDbVertex
100
AcDb2dVertex
 10
939.0
 20
1112.207107
 30
0.0
  0
VERTEX
  5
52C
100
AcDbEntity
  8
化粧台
  6
EXLTYPE2
 62
     6
100
AcDbVertex
100
AcDb2dVertex
 10
935.5
 20
1114.707107
 30
0.0
  0
VERTEX
  5
52D
100
AcDbEntity
  8
化粧台
  6
EXLTYPE2
 62
     6
100
AcDbVertex
100
AcDb2dVertex
 10
939.0
 20
1117.207107
 30
0.0
  0
VERTEX
  5
52E
100
AcDbEntity
  8
化粧台
  6
EXLTYPE2
 62
     6
100
AcDbVertex
100
AcDb2dVertex
 10
935.5
 20
1119.707107
 30
0.0
  0
VERTEX
  5
52F
100
AcDbEntity
  8
化粧台
  6
EXLTYPE2
 62
     6
100
AcDbVertex
100
AcDb2dVertex
 10
939.0
 20
1122.207107
 30
0.0
  0
VERTEX
  5
530
100
AcDbEntity
  8
化粧台
  6
EXLTYPE2
 62
     6
100
AcDbVertex
100
AcDb2dVertex
 10
935.5
 20
1124.707107
 30
0.0
  0
VERTEX
  5
531
100
AcDbEntity
  8
化粧台
  6
EXLTYPE2
 62
     6
100
AcDbVertex
100
AcDb2dVertex
 10
939.0
 20
1127.207107
 30
0.0
  0
VERTEX
  5
532
100
AcDbEntity
  8
化粧台
  6
EXLTYPE2
 62
     6
100
AcDbVertex
100
AcDb2dVertex
 10
935.5
 20
1129.707107
 30
0.0
  0
VERTEX
  5
533
100
AcDbEntity
  8
化粧台
  6
EXLTYPE2
 62
     6
100
AcDbVertex
100
AcDb2dVertex
 10
939.0
 20
1132.207107
 30
0.0
  0
VERTEX
  5
534
100
AcDbEntity
  8
化粧台
  6
EXLTYPE2
 62
     6
100
AcDbVertex
100
AcDb2dVertex
 10
935.5
 20
1134.707107
 30
0.0
  0
VERTEX
  5
535
100
AcDbEntity
  8
化粧台
  6
EXLTYPE2
 62
     6
100
AcDbVertex
100
AcDb2dVertex
 10
939.0
 20
1137.207107
 30
0.0
  0
VERTEX
  5
536
100
AcDbEntity
  8
化粧台
  6
EXLTYPE2
 62
     6
100
AcDbVertex
100
AcDb2dVertex
 10
935.5
 20
1139.707107
 30
0.0
  0
VERTEX
  5
537
100
AcDbEntity
  8
化粧台
  6
EXLTYPE2
 62
     6
100
AcDbVertex
100
AcDb2dVertex
 10
939.0
 20
1142.207107
 30
0.0
  0
VERTEX
  5
538
100
AcDbEntity
  8
化粧台
  6
EXLTYPE2
 62
     6
100
AcDbVertex
100
AcDb2dVertex
 10
935.5
 20
1144.707107
 30
0.0
  0
VERTEX
  5
539
100
AcDbEntity
  8
化粧台
  6
EXLTYPE2
 62
     6
100
AcDbVertex
100
AcDb2dVertex
 10
939.0
 20
1147.207107
 30
0.0
  0
VERTEX
  5
53A
100
AcDbEntity
  8
化粧台
  6
EXLTYPE2
 62
     6
100
AcDbVertex
100
AcDb2dVertex
 10
935.5
 20
1149.707107
 30
0.0
  0
VERTEX
  5
53B
100
AcDbEntity
  8
化粧台
  6
EXLTYPE2
 62
     6
100
AcDbVertex
100
AcDb2dVertex
 10
939.0
 20
1152.207107
 30
0.0
  0
VERTEX
  5
53C
100
AcDbEntity
  8
化粧台
  6
EXLTYPE2
 62
     6
100
AcDbVertex
100
AcDb2dVertex
 10
935.5
 20
1154.707107
 30
0.0
  0
VERTEX
  5
53D
100
AcDbEntity
  8
化粧台
  6
EXLTYPE2
 62
     6
100
AcDbVertex
100
AcDb2dVertex
 10
939.0
 20
1157.207107
 30
0.0
  0
VERTEX
  5
53E
100
AcDbEntity
  8
化粧台
  6
EXLTYPE2
 62
     6
100
AcDbVertex
100
AcDb2dVertex
 10
935.5
 20
1159.707107
 30
0.0
  0
VERTEX
  5
53F
100
AcDbEntity
  8
化粧台
  6
EXLTYPE2
 62
     6
100
AcDbVertex
100
AcDb2dVertex
 10
939.0
 20
1162.207107
 30
0.0
  0
VERTEX
  5
540
100
AcDbEntity
  8
化粧台
  6
EXLTYPE2
 62
     6
100
AcDbVertex
100
AcDb2dVertex
 10
935.5
 20
1164.707107
 30
0.0
  0
VERTEX
  5
541
100
AcDbEntity
  8
化粧台
  6
EXLTYPE2
 62
     6
100
AcDbVertex
100
AcDb2dVertex
 10
939.0
 20
1167.207107
 30
0.0
  0
VERTEX
  5
542
100
AcDbEntity
  8
化粧台
  6
EXLTYPE2
 62
     6
100
AcDbVertex
100
AcDb2dVertex
 10
935.5
 20
1169.707107
 30
0.0
  0
VERTEX
  5
543
100
AcDbEntity
  8
化粧台
  6
EXLTYPE2
 62
     6
100
AcDbVertex
100
AcDb2dVertex
 10
939.0
 20
1172.207107
 30
0.0
  0
VERTEX
  5
544
100
AcDbEntity
  8
化粧台
  6
EXLTYPE2
 62
     6
100
AcDbVertex
100
AcDb2dVertex
 10
935.5
 20
1174.707107
 30
0.0
  0
VERTEX
  5
545
100
AcDbEntity
  8
化粧台
  6
EXLTYPE2
 62
     6
100
AcDbVertex
100
AcDb2dVertex
 10
939.0
 20
1177.207107
 30
0.0
  0
VERTEX
  5
546
100
AcDbEntity
  8
化粧台
  6
EXLTYPE2
 62
     6
100
AcDbVertex
100
AcDb2dVertex
 10
935.5
 20
1179.707107
 30
0.0
  0
VERTEX
  5
547
100
AcDbEntity
  8
化粧台
  6
EXLTYPE2
 62
     6
100
AcDbVertex
100
AcDb2dVertex
 10
939.0
 20
1182.207107
 30
0.0
  0
VERTEX
  5
548
100
AcDbEntity
  8
化粧台
  6
EXLTYPE2
 62
     6
100
AcDbVertex
100
AcDb2dVertex
 10
935.5
 20
1184.707107
 30
0.0
  0
VERTEX
  5
549
100
AcDbEntity
  8
化粧台
  6
EXLTYPE2
 62
     6
100
AcDbVertex
100
AcDb2dVertex
 10
939.0
 20
1187.207107
 30
0.0
  0
VERTEX
  5
54A
100
AcDbEntity
  8
化粧台
  6
EXLTYPE2
 62
     6
100
AcDbVertex
100
AcDb2dVertex
 10
935.5
 20
1189.707107
 30
0.0
  0
VERTEX
  5
54B
100
AcDbEntity
  8
化粧台
  6
EXLTYPE2
 62
     6
100
AcDbVertex
100
AcDb2dVertex
 10
939.0
 20
1192.207107
 30
0.0
  0
VERTEX
  5
54C
100
AcDbEntity
  8
化粧台
  6
EXLTYPE2
 62
     6
100
AcDbVertex
100
AcDb2dVertex
 10
935.5
 20
1194.707107
 30
0.0
  0
VERTEX
  5
54D
100
AcDbEntity
  8
化粧台
  6
EXLTYPE2
 62
     6
100
AcDbVertex
100
AcDb2dVertex
 10
939.0
 20
1197.207107
 30
0.0
  0
VERTEX
  5
54E
100
AcDbEntity
  8
化粧台
  6
EXLTYPE2
 62
     6
100
AcDbVertex
100
AcDb2dVertex
 10
935.5
 20
1199.707107
 30
0.0
  0
VERTEX
  5
54F
100
AcDbEntity
  8
化粧台
  6
EXLTYPE2
 62
     6
100
AcDbVertex
100
AcDb2dVertex
 10
939.0
 20
1202.207107
 30
0.0
  0
VERTEX
  5
550
100
AcDbEntity
  8
化粧台
  6
EXLTYPE2
 62
     6
100
AcDbVertex
100
AcDb2dVertex
 10
935.5
 20
1204.707107
 30
0.0
  0
VERTEX
  5
551
100
AcDbEntity
  8
化粧台
  6
EXLTYPE2
 62
     6
100
AcDbVertex
100
AcDb2dVertex
 10
939.0
 20
1207.207107
 30
0.0
  0
VERTEX
  5
552
100
AcDbEntity
  8
化粧台
  6
EXLTYPE2
 62
     6
100
AcDbVertex
100
AcDb2dVertex
 10
935.5
 20
1209.707107
 30
0.0
  0
VERTEX
  5
553
100
AcDbEntity
  8
化粧台
  6
EXLTYPE2
 62
     6
100
AcDbVertex
100
AcDb2dVertex
 10
939.0
 20
1212.207107
 30
0.0
  0
VERTEX
  5
554
100
AcDbEntity
  8
化粧台
  6
EXLTYPE2
 62
     6
100
AcDbVertex
100
AcDb2dVertex
 10
935.5
 20
1214.707107
 30
0.0
  0
VERTEX
  5
555
100
AcDbEntity
  8
化粧台
  6
EXLTYPE2
 62
     6
100
AcDbVertex
100
AcDb2dVertex
 10
939.0
 20
1217.207107
 30
0.0
  0
VERTEX
  5
556
100
AcDbEntity
  8
化粧台
  6
EXLTYPE2
 62
     6
100
AcDbVertex
100
AcDb2dVertex
 10
935.5
 20
1219.707107
 30
0.0
  0
VERTEX
  5
557
100
AcDbEntity
  8
化粧台
  6
EXLTYPE2
 62
     6
100
AcDbVertex
100
AcDb2dVertex
 10
939.0
 20
1222.207107
 30
0.0
  0
VERTEX
  5
558
100
AcDbEntity
  8
化粧台
  6
EXLTYPE2
 62
     6
100
AcDbVertex
100
AcDb2dVertex
 10
935.5
 20
1224.707107
 30
0.0
  0
VERTEX
  5
559
100
AcDbEntity
  8
化粧台
  6
EXLTYPE2
 62
     6
100
AcDbVertex
100
AcDb2dVertex
 10
939.0
 20
1227.207107
 30
0.0
  0
VERTEX
  5
55A
100
AcDbEntity
  8
化粧台
  6
EXLTYPE2
 62
     6
100
AcDbVertex
100
AcDb2dVertex
 10
935.5
 20
1229.707107
 30
0.0
  0
VERTEX
  5
55B
100
AcDbEntity
  8
化粧台
  6
EXLTYPE2
 62
     6
100
AcDbVertex
100
AcDb2dVertex
 10
939.0
 20
1232.207107
 30
0.0
  0
VERTEX
  5
55C
100
AcDbEntity
  8
化粧台
  6
EXLTYPE2
 62
     6
100
AcDbVertex
100
AcDb2dVertex
 10
935.5
 20
1234.707107
 30
0.0
  0
VERTEX
  5
55D
100
AcDbEntity
  8
化粧台
  6
EXLTYPE2
 62
     6
100
AcDbVertex
100
AcDb2dVertex
 10
939.0
 20
1237.207107
 30
0.0
  0
VERTEX
  5
55E
100
AcDbEntity
  8
化粧台
  6
EXLTYPE2
 62
     6
100
AcDbVertex
100
AcDb2dVertex
 10
935.5
 20
1239.707107
 30
0.0
  0
VERTEX
  5
55F
100
AcDbEntity
  8
化粧台
  6
EXLTYPE2
 62
     6
100
AcDbVertex
100
AcDb2dVertex
 10
939.0
 20
1242.207107
 30
0.0
  0
VERTEX
  5
560
100
AcDbEntity
  8
化粧台
  6
EXLTYPE2
 62
     6
100
AcDbVertex
100
AcDb2dVertex
 10
935.5
 20
1244.707107
 30
0.0
  0
VERTEX
  5
561
100
AcDbEntity
  8
化粧台
  6
EXLTYPE2
 62
     6
100
AcDbVertex
100
AcDb2dVertex
 10
939.0
 20
1247.207107
 30
0.0
  0
VERTEX
  5
562
100
AcDbEntity
  8
化粧台
  6
EXLTYPE2
 62
     6
100
AcDbVertex
100
AcDb2dVertex
 10
935.5
 20
1249.707107
 30
0.0
  0
VERTEX
  5
563
100
AcDbEntity
  8
化粧台
  6
EXLTYPE2
 62
     6
100
AcDbVertex
100
AcDb2dVertex
 10
939.0
 20
1252.207107
 30
0.0
  0
VERTEX
  5
564
100
AcDbEntity
  8
化粧台
  6
EXLTYPE2
 62
     6
100
AcDbVertex
100
AcDb2dVertex
 10
935.5
 20
1254.707107
 30
0.0
  0
VERTEX
  5
565
100
AcDbEntity
  8
化粧台
  6
EXLTYPE2
 62
     6
100
AcDbVertex
100
AcDb2dVertex
 10
939.0
 20
1257.207107
 30
0.0
  0
VERTEX
  5
566
100
AcDbEntity
  8
化粧台
  6
EXLTYPE2
 62
     6
100
AcDbVertex
100
AcDb2dVertex
 10
935.5
 20
1259.707107
 30
0.0
  0
VERTEX
  5
567
100
AcDbEntity
  8
化粧台
  6
EXLTYPE2
 62
     6
100
AcDbVertex
100
AcDb2dVertex
 10
939.0
 20
1262.207107
 30
0.0
  0
VERTEX
  5
568
100
AcDbEntity
  8
化粧台
  6
EXLTYPE2
 62
     6
100
AcDbVertex
100
AcDb2dVertex
 10
935.5
 20
1264.707107
 30
0.0
  0
VERTEX
  5
569
100
AcDbEntity
  8
化粧台
  6
EXLTYPE2
 62
     6
100
AcDbVertex
100
AcDb2dVertex
 10
939.0
 20
1267.207107
 30
0.0
  0
VERTEX
  5
56A
100
AcDbEntity
  8
化粧台
  6
EXLTYPE2
 62
     6
100
AcDbVertex
100
AcDb2dVertex
 10
935.5
 20
1269.707107
 30
0.0
  0
VERTEX
  5
56B
100
AcDbEntity
  8
化粧台
  6
EXLTYPE2
 62
     6
100
AcDbVertex
100
AcDb2dVertex
 10
939.0
 20
1272.207107
 30
0.0
  0
VERTEX
  5
56C
100
AcDbEntity
  8
化粧台
  6
EXLTYPE2
 62
     6
100
AcDbVertex
100
AcDb2dVertex
 10
935.5
 20
1274.707107
 30
0.0
  0
VERTEX
  5
56D
100
AcDbEntity
  8
化粧台
  6
EXLTYPE2
 62
     6
100
AcDbVertex
100
AcDb2dVertex
 10
939.0
 20
1277.207107
 30
0.0
  0
VERTEX
  5
56E
100
AcDbEntity
  8
化粧台
  6
EXLTYPE2
 62
     6
100
AcDbVertex
100
AcDb2dVertex
 10
935.5
 20
1279.707107
 30
0.0
  0
VERTEX
  5
56F
100
AcDbEntity
  8
化粧台
  6
EXLTYPE2
 62
     6
100
AcDbVertex
100
AcDb2dVertex
 10
939.0
 20
1282.207107
 30
0.0
  0
VERTEX
  5
570
100
AcDbEntity
  8
化粧台
  6
EXLTYPE2
 62
     6
100
AcDbVertex
100
AcDb2dVertex
 10
935.5
 20
1284.707107
 30
0.0
  0
VERTEX
  5
571
100
AcDbEntity
  8
化粧台
  6
EXLTYPE2
 62
     6
100
AcDbVertex
100
AcDb2dVertex
 10
939.0
 20
1287.207107
 30
0.0
  0
VERTEX
  5
572
100
AcDbEntity
  8
化粧台
  6
EXLTYPE2
 62
     6
100
AcDbVertex
100
AcDb2dVertex
 10
935.5
 20
1289.707107
 30
0.0
  0
VERTEX
  5
573
100
AcDbEntity
  8
化粧台
  6
EXLTYPE2
 62
     6
100
AcDbVertex
100
AcDb2dVertex
 10
939.0
 20
1292.207107
 30
0.0
  0
VERTEX
  5
574
100
AcDbEntity
  8
化粧台
  6
EXLTYPE2
 62
     6
100
AcDbVertex
100
AcDb2dVertex
 10
937.343666
 20
1293.390203
 30
0.0
  0
SEQEND
  5
575
100
AcDbEntity
  8
化粧台
  6
EXLTYPE2
 62
     6
  0
ARC
  5
576
100
AcDbEntity
  8
化粧台
  6
CONTINUOUS
 62
     6
100
AcDbCircle
 10
891.0
 20
936.0
 30
0.0
 40
2.5
100
AcDbArc
 50
90.0
 51
180.0
  0
ARC
  5
577
100
AcDbEntity
  8
化粧台
  6
CONTINUOUS
 62
     6
100
AcDbCircle
 10
897.0
 20
948.0
 30
0.0
 40
2.5
100
AcDbArc
 50
90.0
 51
180.0
  0
ARC
  5
578
100
AcDbEntity
  8
化粧台
  6
CONTINUOUS
 62
     6
100
AcDbCircle
 10
946.0
 20
948.0
 30
0.0
 40
2.5
100
AcDbArc
 50
0.0
 51
90.0
  0
ARC
  5
579
100
AcDbEntity
  8
化粧台
  6
CONTINUOUS
 62
     6
100
AcDbCircle
 10
952.0
 20
936.0
 30
0.0
 40
2.5
100
AcDbArc
 50
0.0
 51
90.0
  0
ARC
  5
57A
100
AcDbEntity
  8
化粧台
  6
CONTINUOUS
 62
     6
100
AcDbCircle
 10
892.0
 20
941.0
 30
0.0
 40
2.5
100
AcDbArc
 50
270.0
 51
0.0
  0
ARC
  5
57B
100
AcDbEntity
  8
化粧台
  6
CONTINUOUS
 62
     6
100
AcDbCircle
 10
951.0
 20
941.0
 30
0.0
 40
2.5
100
AcDbArc
 50
180.0
 51
270.0
  0
LINE
  5
57C
100
AcDbEntity
  8
化粧台
  6
EXLTYPE2
 62
     6
100
AcDbLine
 10
897.0
 20
950.5
 30
0.0
 11
946.0
 21
950.5
 31
0.0
  0
LINE
  5
57D
100
AcDbEntity
  8
化粧台
  6
EXLTYPE2
 62
     6
100
AcDbLine
 10
891.0
 20
938.5
 30
0.0
 11
952.0
 21
938.5
 31
0.0
  0
LINE
  5
57E
100
AcDbEntity
  8
化粧台
  6
EXLTYPE2
 62
     6
100
AcDbLine
 10
888.5
 20
920.5
 30
0.0
 11
954.5
 21
920.5
 31
0.0
  0
LINE
  5
57F
100
AcDbEntity
  8
化粧台
  6
CONTINUOUS
 62
     6
100
AcDbLine
 10
888.5
 20
936.0
 30
0.0
 11
888.5
 21
928.4
 31
0.0
  0
LINE
  5
580
100
AcDbEntity
  8
化粧台
  6
CONTINUOUS
 62
     6
100
AcDbLine
 10
954.5
 20
927.0
 30
0.0
 11
954.5
 21
920.5
 31
0.0
  0
LINE
  5
581
100
AcDbEntity
  8
化粧台
  6
CONTINUOUS
 62
     6
100
AcDbLine
 10
894.5
 20
948.0
 30
0.0
 11
894.5
 21
944.4
 31
0.0
  0
LINE
  5
582
100
AcDbEntity
  8
化粧台
  6
CONTINUOUS
 62
     6
100
AcDbLine
 10
948.5
 20
944.8
 30
0.0
 11
948.5
 21
941.0
 31
0.0
  0
LINE
  5
583
100
AcDbEntity
  8
化粧台
  6
EXLTYPE2
 62
     6
100
AcDbLine
 10
905.65
 20
1404.707107
 30
0.0
 11
905.65
 21
1378.707107
 31
0.0
  0
LINE
  5
584
100
AcDbEntity
  8
化粧台
  6
EXLTYPE2
 62
     6
100
AcDbLine
 10
937.35
 20
1404.707107
 30
0.0
 11
937.35
 21
1378.707107
 31
0.0
  0
LINE
  5
585
100
AcDbEntity
  8
化粧台
  6
EXLTYPE2
 62
     6
100
AcDbLine
 10
897.6
 20
1404.707107
 30
0.0
 11
945.4
 21
1404.707107
 31
0.0
  0
LINE
  5
586
100
AcDbEntity
  8
化粧台
  6
EXLTYPE2
 62
     6
100
AcDbLine
 10
887.5
 20
1438.207107
 30
0.0
 11
955.5
 21
1438.207107
 31
0.0
  0
LINE
  5
587
100
AcDbEntity
  8
化粧台
  6
EXLTYPE2
 62
     6
100
AcDbLine
 10
887.5
 20
1441.207107
 30
0.0
 11
887.5
 21
1438.207107
 31
0.0
  0
LINE
  5
588
100
AcDbEntity
  8
化粧台
  6
EXLTYPE2
 62
     6
100
AcDbLine
 10
955.5
 20
1441.207107
 30
0.0
 11
955.5
 21
1438.207107
 31
0.0
  0
LINE
  5
589
100
AcDbEntity
  8
化粧台
  6
EXLTYPE2
 62
     6
100
AcDbLine
 10
893.5
 20
1418.100165
 30
0.0
 11
893.5
 21
1435.100165
 31
0.0
  0
LINE
  5
58A
100
AcDbEntity
  8
化粧台
  6
EXLTYPE2
 62
     6
100
AcDbLine
 10
895.0
 20
1416.600165
 30
0.0
 11
893.5
 21
1418.100165
 31
0.0
  0
LINE
  5
58B
100
AcDbEntity
  8
化粧台
  6
EXLTYPE2
 62
     6
100
AcDbLine
 10
949.5
 20
1418.100165
 30
0.0
 11
949.5
 21
1435.100165
 31
0.0
  0
LINE
  5
58C
100
AcDbEntity
  8
化粧台
  6
EXLTYPE2
 62
     6
100
AcDbLine
 10
948.0
 20
1416.600165
 30
0.0
 11
895.0
 21
1416.600165
 31
0.0
  0
LINE
  5
58D
100
AcDbEntity
  8
化粧台
  6
EXLTYPE2
 62
     6
100
AcDbLine
 10
949.5
 20
1418.100165
 30
0.0
 11
948.0
 21
1416.600165
 31
0.0
  0
LINE
  5
58E
100
AcDbEntity
  8
化粧台
  6
EXLTYPE2
 62
     6
100
AcDbLine
 10
889.0
 20
1435.100165
 30
0.0
 11
954.0
 21
1435.100165
 31
0.0
  0
LINE
  5
58F
100
AcDbEntity
  8
化粧台
  6
EXLTYPE2
 62
     6
100
AcDbLine
 10
889.0
 20
1435.100165
 30
0.0
 11
889.0
 21
1438.207107
 31
0.0
  0
LINE
  5
590
100
AcDbEntity
  8
化粧台
  6
EXLTYPE2
 62
     6
100
AcDbLine
 10
954.0
 20
1435.100165
 30
0.0
 11
954.0
 21
1438.207107
 31
0.0
  0
LINE
  5
591
100
AcDbEntity
  8
化粧台
  6
EXLTYPE2
 62
     6
100
AcDbLine
 10
904.179492
 20
1418.100165
 30
0.0
 11
904.179492
 21
1435.100165
 31
0.0
  0
LINE
  5
592
100
AcDbEntity
  8
化粧台
  6
EXLTYPE2
 62
     6
100
AcDbLine
 10
911.107695
 20
1418.100165
 30
0.0
 11
911.107695
 21
1435.100165
 31
0.0
  0
LINE
  5
593
100
AcDbEntity
  8
化粧台
  6
EXLTYPE2
 62
     6
100
AcDbLine
 10
931.892305
 20
1418.100165
 30
0.0
 11
931.892305
 21
1435.100165
 31
0.0
  0
LINE
  5
594
100
AcDbEntity
  8
化粧台
  6
EXLTYPE2
 62
     6
100
AcDbLine
 10
938.820508
 20
1418.100165
 30
0.0
 11
938.820508
 21
1435.100165
 31
0.0
  0
LINE
  5
595
100
AcDbEntity
  8
化粧台
  6
EXLTYPE2
 62
     6
100
AcDbLine
 10
887.5
 20
1438.707107
 30
0.0
 11
955.5
 21
1438.707107
 31
0.0
  0
LINE
  5
596
100
AcDbEntity
  8
化粧台
  6
EXLTYPE2
 62
     6
100
AcDbLine
 10
887.5
 20
1441.207107
 30
0.0
 11
955.5
 21
1441.207107
 31
0.0
  0
LINE
  5
597
100
AcDbEntity
  8
化粧台
  6
EXLTYPE2
 62
     6
100
AcDbLine
 10
887.5
 20
1441.207107
 30
0.0
 11
892.600967
 21
1445.5
 31
0.0
  0
LINE
  5
598
100
AcDbEntity
  8
化粧台
  6
EXLTYPE2
 62
     6
100
AcDbLine
 10
950.399033
 20
1445.5
 30
0.0
 11
955.5
 21
1441.207107
 31
0.0
  0
LINE
  5
599
100
AcDbEntity
  8
化粧台
  6
EXLTYPE2
 62
     6
100
AcDbLine
 10
897.6
 20
1404.707107
 30
0.0
 11
897.6
 21
1416.600165
 31
0.0
  0
LINE
  5
59A
100
AcDbEntity
  8
化粧台
  6
EXLTYPE2
 62
     6
100
AcDbLine
 10
945.4
 20
1404.707107
 30
0.0
 11
945.4
 21
1416.600165
 31
0.0
  0
LINE
  5
59B
100
AcDbEntity
  8
化粧台
  6
EXLTYPE4
 62
     6
100
AcDbLine
 10
1730.5
 20
915.5
 30
0.0
 11
385.0
 21
915.5
 31
0.0
  0
ARC
  5
59C
100
AcDbEntity
  8
化粧台
  6
CONTINUOUS
 62
     2
100
AcDbCircle
 10
908.129733
 20
1460.0
 30
0.0
 40
2.0
100
AcDbArc
 50
16.84928
 51
90.0
  0
ARC
  5
59D
100
AcDbEntity
  8
化粧台
  6
CONTINUOUS
 62
     2
100
AcDbCircle
 10
908.129733
 20
1455.0
 30
0.0
 40
2.0
100
AcDbArc
 50
270.0
 51
343.15072
  0
ARC
  5
59E
100
AcDbEntity
  8
化粧台
  6
CONTINUOUS
 62
     2
100
AcDbCircle
 10
899.875
 20
1457.5
 30
0.0
 40
10.625
100
AcDbArc
 50
343.15072
 51
16.84928
  0
ARC
  5
59F
100
AcDbEntity
  8
化粧台
  6
CONTINUOUS
 62
     2
100
AcDbCircle
 10
793.870267
 20
1460.0
 30
0.0
 40
2.0
100
AcDbArc
 50
90.0
 51
163.15072
  0
ARC
  5
5A0
100
AcDbEntity
  8
化粧台
  6
CONTINUOUS
 62
     2
100
AcDbCircle
 10
793.870267
 20
1455.0
 30
0.0
 40
2.0
100
AcDbArc
 50
196.84928
 51
270.0
  0
ARC
  5
5A1
100
AcDbEntity
  8
化粧台
  6
CONTINUOUS
 62
     2
100
AcDbCircle
 10
802.125
 20
1457.5
 30
0.0
 40
10.625
100
AcDbArc
 50
163.15072
 51
196.84928
  0
ARC
  5
5A2
100
AcDbEntity
  8
化粧台
  6
CONTINUOUS
 62
     2
100
AcDbCircle
 10
851.0
 20
2542.185483
 30
0.0
 40
1090.685483
100
AcDbArc
 50
266.991972
 51
273.008028
  0
ARC
  5
5A3
100
AcDbEntity
  8
化粧台
  6
CONTINUOUS
 62
     2
100
AcDbCircle
 10
934.870267
 20
1460.0
 30
0.0
 40
2.0
100
AcDbArc
 50
90.0
 51
163.15072
  0
ARC
  5
5A4
100
AcDbEntity
  8
化粧台
  6
CONTINUOUS
 62
     2
100
AcDbCircle
 10
934.870267
 20
1455.0
 30
0.0
 40
2.0
100
AcDbArc
 50
196.84928
 51
270.0
  0
ARC
  5
5A5
100
AcDbEntity
  8
化粧台
  6
CONTINUOUS
 62
     2
100
AcDbCircle
 10
943.125
 20
1457.5
 30
0.0
 40
10.625
100
AcDbArc
 50
163.15072
 51
196.84928
  0
ARC
  5
5A6
100
AcDbEntity
  8
化粧台
  6
CONTINUOUS
 62
     2
100
AcDbCircle
 10
1049.129733
 20
1460.0
 30
0.0
 40
2.0
100
AcDbArc
 50
16.84928
 51
90.0
  0
ARC
  5
5A7
100
AcDbEntity
  8
化粧台
  6
CONTINUOUS
 62
     2
100
AcDbCircle
 10
1049.129733
 20
1455.0
 30
0.0
 40
2.0
100
AcDbArc
 50
270.0
 51
343.15072
  0
ARC
  5
5A8
100
AcDbEntity
  8
化粧台
  6
CONTINUOUS
 62
     2
100
AcDbCircle
 10
1040.875
 20
1457.5
 30
0.0
 40
10.625
100
AcDbArc
 50
343.15072
 51
16.84928
  0
ARC
  5
5A9
100
AcDbEntity
  8
化粧台
  6
CONTINUOUS
 62
     2
100
AcDbCircle
 10
992.0
 20
2542.185483
 30
0.0
 40
1090.685483
100
AcDbArc
 50
266.991972
 51
273.008028
  0
ARC
  5
5AA
100
AcDbEntity
  8
化粧台
  6
CONTINUOUS
 62
     2
100
AcDbCircle
 10
851.0
 20
372.814517
 30
0.0
 40
1090.685483
100
AcDbArc
 50
86.991972
 51
93.008028
  0
ARC
  5
5AB
100
AcDbEntity
  8
化粧台
  6
CONTINUOUS
 62
     2
100
AcDbCircle
 10
992.0
 20
372.814517
 30
0.0
 40
1090.685483
100
AcDbArc
 50
86.991972
 51
93.008028
  0
LINE
  5
5AC
100
AcDbEntity
  8
化粧台
  6
CONTINUOUS
 62
     2
100
AcDbLine
 10
2018.0
 20
1465.0
 30
0.0
 11
1992.073499
 21
1462.983438
 31
0.0
  0
LINE
  5
5AD
100
AcDbEntity
  8
化粧台
  6
CONTINUOUS
 62
     2
100
AcDbLine
 10
2018.0
 20
1450.0
 30
0.0
 11
1992.073499
 21
1452.016562
 31
0.0
  0
ARC
  5
5AE
100
AcDbEntity
  8
化粧台
  6
CONTINUOUS
 62
     2
100
AcDbCircle
 10
1992.5
 20
1457.5
 30
0.0
 40
5.5
100
AcDbArc
 50
94.447508
 51
265.552492
  0
TEXT
  5
5AF
100
AcDbEntity
  8
化粧台
  6
CONTINUOUS
 62
     2
100
AcDbText
 10
2450.0
 20
2936.500001
 30
0.0
 40
60.0
  1
W.L.
 50
90.0
 41
0.4125
  7
EXCADSTD
 72
     5
 11
2450.0
 21
3027.2434
 31
0.0
100
AcDbText
  0
LINE
  5
5B0
100
AcDbEntity
  8
化粧台
  6
EXLTYPE4
 62
     6
100
AcDbLine
 10
2450.0
 20
915.5
 30
0.0
 11
2450.0
 21
3034.5
 31
0.0
  0
LINE
  5
5B1
100
AcDbEntity
  8
化粧台
  6
CONTINUOUS
 62
     2
100
AcDbLine
 10
674.5
 20
3844.875402
 30
0.0
 11
674.5
 21
3553.414579
 31
0.0
  0
LINE
  5
5B2
100
AcDbEntity
  8
化粧台
  6
EXLTYPE2
 62
     6
100
AcDbLine
 10
674.5
 20
3930.5
 30
0.0
 11
674.5
 21
3844.875402
 31
0.0
  0
LINE
  5
5B3
100
AcDbEntity
  8
化粧台
  6
EXLTYPE2
 62
     6
100
AcDbLine
 10
1168.5
 20
3930.5
 30
0.0
 11
1168.5
 21
3844.875402
 31
0.0
  0
LINE
  5
5B4
100
AcDbEntity
  8
化粧台
  6
CONTINUOUS
 62
     2
100
AcDbLine
 10
1168.5
 20
3844.875402
 30
0.0
 11
1168.5
 21
3553.414579
 31
0.0
  0
LINE
  5
5B5
100
AcDbEntity
  8
化粧台
  6
CONTINUOUS
 62
     2
100
AcDbLine
 10
2431.847252
 20
1710.5
 30
0.0
 11
1985.855199
 21
1693.620846
 31
0.0
  0
ARC
  5
5B6
100
AcDbEntity
  8
化粧台
  6
CONTINUOUS
 62
     2
100
AcDbCircle
 10
921.5
 20
3630.5
 30
0.0
 40
200.0
100
AcDbArc
 50
107.527381
 51
113.578178
  0
ARC
  5
5B7
100
AcDbEntity
  8
化粧台
  6
CONTINUOUS
 62
     2
100
AcDbCircle
 10
921.5
 20
3630.5
 30
0.0
 40
200.0
100
AcDbArc
 50
63.917958
 51
72.474194
  0
ARC
  5
5B8
100
AcDbEntity
  8
化粧台
  6
CONTINUOUS
 62
     2
100
AcDbCircle
 10
921.5
 20
3740.5
 30
0.0
 40
32.0
100
AcDbArc
 50
123.078939
 51
56.921061
  0
ARC
  5
5B9
100
AcDbEntity
  8
化粧台
  6
CONTINUOUS
 62
     2
100
AcDbCircle
 10
921.5
 20
3740.5
 30
0.0
 40
21.0
100
AcDbArc
 50
137.59722
 51
42.129547
  0
ARC
  5
5BA
100
AcDbEntity
  8
化粧台
  6
EXLTYPE2
 62
     6
100
AcDbCircle
 10
921.5
 20
3630.5
 30
0.0
 40
200.0
100
AcDbArc
 50
97.60558
 51
107.527381
  0
ARC
  5
5BB
100
AcDbEntity
  8
化粧台
  6
EXLTYPE2
 62
     6
100
AcDbCircle
 10
921.5
 20
3630.5
 30
0.0
 40
200.0
100
AcDbArc
 50
72.474194
 51
82.438199
  0
POINT
  5
5BC
100
AcDbEntity
  8
化粧台
  6
CONTINUOUS
 62
     6
100
AcDbPoint
 10
992.500114
 20
3875.5
 30
0.0
  0
POINT
  5
5BD
100
AcDbEntity
  8
化粧台
  6
CONTINUOUS
 62
     6
100
AcDbPoint
 10
850.500114
 20
3875.5
 30
0.0
  0
ARC
  5
5BE
100
AcDbEntity
  8
化粧台
  6
CONTINUOUS
 62
     6
100
AcDbCircle
 10
921.500114
 20
3758.60278
 30
0.0
 40
16.0
100
AcDbArc
 50
186.414462
 51
353.585538
  0
LINE
  5
5BF
100
AcDbEntity
  8
化粧台
  6
CONTINUOUS
 62
     6
100
AcDbLine
 10
913.588293
 20
3754.792828
 30
0.0
 11
904.046276
 21
3818.527245
 31
0.0
  0
LINE
  5
5C0
100
AcDbEntity
  8
化粧台
  6
CONTINUOUS
 62
     6
100
AcDbLine
 10
929.411935
 20
3754.792828
 30
0.0
 11
939.096293
 21
3819.477998
 31
0.0
  0
ARC
  5
5C1
100
AcDbEntity
  8
化粧台
  6
CONTINUOUS
 62
     6
100
AcDbCircle
 10
921.500114
 20
3755.977349
 30
0.0
 40
8.0
100
AcDbArc
 50
188.514811
 51
351.485189
  0
ARC
  5
5C2
100
AcDbEntity
  8
化粧台
  6
CONTINUOUS
 62
     6
100
AcDbCircle
 10
943.509797
 20
1677.358058
 30
0.0
 40
50.0
100
AcDbArc
 50
11.534621
 51
22.021223
  0
ARC
  5
5C3
100
AcDbEntity
  8
化粧台
  6
CONTINUOUS
 62
     6
100
AcDbCircle
 10
980.591598
 20
1692.356058
 30
0.0
 40
10.0
100
AcDbArc
 50
22.021223
 51
84.101526
  0
LINE
  5
5C4
100
AcDbEntity
  8
化粧台
  6
CONTINUOUS
 62
     6
100
AcDbLine
 10
943.0
 20
1773.356058
 30
0.0
 11
944.753052
 21
1723.155215
 31
0.0
  0
LINE
  5
5C5
100
AcDbEntity
  8
化粧台
  6
CONTINUOUS
 62
     6
100
AcDbLine
 10
937.492678
 20
1736.182342
 30
0.0
 11
944.84821
 21
1693.982355
 31
0.0
  0
ARC
  5
5C6
100
AcDbEntity
  8
化粧台
  6
CONTINUOUS
 62
     6
100
AcDbCircle
 10
952.729387
 20
1695.356058
 30
0.0
 40
8.0
100
AcDbArc
 50
189.887424
 51
270.0
  0
ELLIPSE
  5
5C7
100
AcDbEntity
  8
化粧台
  6
CONTINUOUS
 62
     6
100
AcDbEllipse
 10
921.5
 20
1773.356058
 30
0.0
 11
21.499999999999986
 21
0.0
 31
0.0
210
0.0
220
0.0
230
1.0
 40
0.173651
 41
4.7123889999999999
 42
0.2192690000000014
  0
ELLIPSE
  5
5C8
100
AcDbEntity
  8
化粧台
  6
CONTINUOUS
 62
     6
100
AcDbEllipse
 10
921.5
 20
1736.09831
 30
0.0
 11
16.0
 21
0.0
 31
0.0
210
0.0
220
0.0
230
1.0
 40
0.173625
 41
0.0302539999999974
 42
1.5707960000000001
  0
ELLIPSE
  5
5C9
100
AcDbEntity
  8
化粧台
  6
CONTINUOUS
 62
     6
100
AcDbEllipse
 10
921.5
 20
1736.09831
 30
0.0
 11
12.250000000000002
 21
0.0
 31
0.0
210
0.0
220
0.0
230
1.0
 40
0.173633
 41
6.0808099999999978
 42
1.5707959999999996
  0
ELLIPSE
  5
5CA
100
AcDbEntity
  8
化粧台
  6
CONTINUOUS
 62
     6
100
AcDbEllipse
 10
921.5
 20
1773.356058
 30
0.0
 11
-21.499999999999986
 21
0.0000000000000026
 31
0.0
210
0.0
220
0.0
230
1.0
 40
0.173651
 41
6.0639170000000053
 42
1.5707959999999996
  0
ELLIPSE
  5
5CB
100
AcDbEntity
  8
化粧台
  6
CONTINUOUS
 62
     6
100
AcDbEllipse
 10
921.5
 20
1736.09831
 30
0.0
 11
-16.0
 21
0.000000000000002
 31
0.0
210
0.0
220
0.0
230
1.0
 40
0.173625
 41
4.7123889999999999
 42
6.2529310000000002
  0
ELLIPSE
  5
5CC
100
AcDbEntity
  8
化粧台
  6
CONTINUOUS
 62
     6
100
AcDbEllipse
 10
921.5
 20
1736.09831
 30
0.0
 11
-12.250000000000002
 21
0.0000000000000015
 31
0.0
210
0.0
220
0.0
230
1.0
 40
0.173633
 41
4.7123889999999999
 42
0.2023759999999976
  0
LINE
  5
5CD
100
AcDbEntity
  8
化粧台
  6
CONTINUOUS
 62
     6
100
AcDbLine
 10
905.507321
 20
1736.182342
 30
0.0
 11
898.151789
 21
1693.982355
 31
0.0
  0
ARC
  5
5CE
100
AcDbEntity
  8
化粧台
  6
CONTINUOUS
 62
     6
100
AcDbCircle
 10
890.270612
 20
1695.356058
 30
0.0
 40
8.0
100
AcDbArc
 50
270.0
 51
350.112576
  0
ARC
  5
5CF
100
AcDbEntity
  8
化粧台
  6
CONTINUOUS
 62
     6
100
AcDbCircle
 10
878.259131
 20
1723.853205
 30
0.0
 40
20.0
100
AcDbArc
 50
274.098493
 51
358.0
  0
LINE
  5
5D0
100
AcDbEntity
  8
化粧台
  6
CONTINUOUS
 62
     6
100
AcDbLine
 10
900.0
 20
1773.356058
 30
0.0
 11
898.246947
 21
1723.155215
 31
0.0
  0
ARC
  5
5D1
100
AcDbEntity
  8
化粧台
  6
CONTINUOUS
 62
     6
100
AcDbCircle
 10
921.5
 20
1120.389476
 30
0.0
 40
585.010946
100
AcDbArc
 50
94.098493
 51
95.898474
  0
ARC
  5
5D2
100
AcDbEntity
  8
化粧台
  6
CONTINUOUS
 62
     6
100
AcDbCircle
 10
862.408401
 20
1692.356058
 30
0.0
 40
10.0
100
AcDbArc
 50
95.898474
 51
157.978777
  0
ARC
  5
5D3
100
AcDbEntity
  8
化粧台
  6
CONTINUOUS
 62
     6
100
AcDbCircle
 10
899.490202
 20
1677.358058
 30
0.0
 40
50.0
100
AcDbArc
 50
157.978777
 51
168.465379
  0
LINE
  5
5D4
100
AcDbEntity
  8
化粧台
  6
CONTINUOUS
 62
     6
100
AcDbLine
 10
933.5
 20
1730.681342
 30
0.0
 11
933.5
 21
1736.525831
 31
0.0
  0
LINE
  5
5D5
100
AcDbEntity
  8
化粧台
  6
CONTINUOUS
 62
     6
100
AcDbLine
 10
909.5
 20
1730.681342
 30
0.0
 11
909.5
 21
1736.525831
 31
0.0
  0
ELLIPSE
  5
5D6
100
AcDbEntity
  8
化粧台
  6
CONTINUOUS
 62
     6
100
AcDbEllipse
 10
921.5
 20
1727.234515
 30
0.0
 11
9.9999999999999964
 21
0.0
 31
0.0
210
0.0
220
0.0
230
1.0
 40
0.17365
 41
0.0
 42
6.2831852538378543
  0
ARC
  5
5D7
100
AcDbEntity
  8
化粧台
  6
CONTINUOUS
 62
     6
100
AcDbCircle
 10
920.5
 20
1773.355533
 30
0.0
 40
20.0
100
AcDbArc
 50
168.353656
 51
180.0
  0
ARC
  5
5D8
100
AcDbEntity
  8
化粧台
  6
CONTINUOUS
 62
     6
100
AcDbCircle
 10
922.5
 20
1773.355533
 30
0.0
 40
20.0
100
AcDbArc
 50
0.0
 51
11.646344
  0
ELLIPSE
  5
5D9
100
AcDbEntity
  8
化粧台
  6
CONTINUOUS
 62
     6
100
AcDbEllipse
 10
921.5
 20
1773.355533
 30
0.0
 11
21.000000000000018
 21
0.0
 31
0.0
210
0.0
220
0.0
230
1.0
 40
0.173643
 41
3.1415927137415012
 42
0.0
  0
ARC
  5
5DA
100
AcDbEntity
  8
化粧台
  6
CONTINUOUS
 62
     6
100
AcDbCircle
 10
999.0
 20
1778.968937
 30
0.0
 40
100.0
100
AcDbArc
 50
170.546476
 51
180.0
  0
ARC
  5
5DB
100
AcDbEntity
  8
化粧台
  6
CONTINUOUS
 62
     6
100
AcDbCircle
 10
844.0
 20
1778.968937
 30
0.0
 40
100.0
100
AcDbArc
 50
0.0
 51
9.453524
  0
LINE
  5
5DC
100
AcDbEntity
  8
化粧台
  6
CONTINUOUS
 62
     6
100
AcDbLine
 10
930.006993
 20
1809.006704
 30
0.0
 11
939.144438
 21
1801.462566
 31
0.0
  0
ARC
  5
5DD
100
AcDbEntity
  8
化粧台
  6
CONTINUOUS
 62
     6
100
AcDbCircle
 10
932.777724
 20
1793.751214
 30
0.0
 40
10.0
100
AcDbArc
 50
9.453524
 51
50.455936
  0
ARC
  5
5DE
100
AcDbEntity
  8
化粧台
  6
CONTINUOUS
 62
     6
100
AcDbCircle
 10
921.5
 20
1780.511628
 30
0.0
 40
30.0
100
AcDbArc
 50
75.857606
 51
90.0
  0
ARC
  5
5DF
100
AcDbEntity
  8
化粧台
  6
CONTINUOUS
 62
     6
100
AcDbCircle
 10
928.096979
 20
1806.693298
 30
0.0
 40
3.0
100
AcDbArc
 50
50.455936
 51
75.857606
  0
ARC
  5
5E0
100
AcDbEntity
  8
化粧台
  6
CONTINUOUS
 62
     6
100
AcDbCircle
 10
921.5
 20
1780.511628
 30
0.0
 40
30.0
100
AcDbArc
 50
90.0
 51
104.142394
  0
ARC
  5
5E1
100
AcDbEntity
  8
化粧台
  6
CONTINUOUS
 62
     6
100
AcDbCircle
 10
914.90302
 20
1806.693298
 30
0.0
 40
3.0
100
AcDbArc
 50
104.142394
 51
129.544064
  0
LINE
  5
5E2
100
AcDbEntity
  8
化粧台
  6
CONTINUOUS
 62
     6
100
AcDbLine
 10
912.993006
 20
1809.006704
 30
0.0
 11
903.855561
 21
1801.462566
 31
0.0
  0
ARC
  5
5E3
100
AcDbEntity
  8
化粧台
  6
CONTINUOUS
 62
     6
100
AcDbCircle
 10
910.222276
 20
1793.751214
 30
0.0
 40
10.0
100
AcDbArc
 50
129.544064
 51
170.546476
  0
ELLIPSE
  5
5E4
100
AcDbEntity
  8
化粧台
  6
CONTINUOUS
 62
     6
100
AcDbEllipse
 10
921.5
 20
1778.968937
 30
0.0
 11
22.499999999999961
 21
0.0
 31
0.0
210
0.0
220
0.0
230
1.0
 40
0.173644
 41
3.1415927137418471
 42
0.0
  0
LINE
  5
5E5
100
AcDbEntity
  8
化粧台
  6
CONTINUOUS
 62
     6
100
AcDbLine
 10
932.5
 20
1726.401638
 30
0.0
 11
932.5
 21
1731.514218
 31
0.0
  0
ELLIPSE
  5
5E6
100
AcDbEntity
  8
化粧台
  6
CONTINUOUS
 62
     6
100
AcDbEllipse
 10
921.5
 20
1730.681342
 30
0.0
 11
12.000000000000002
 21
0.0
 31
0.0
210
0.0
220
0.0
230
1.0
 40
0.173667
 41
5.8720470000000189
 42
0.4111379999999977
  0
LINE
  5
5E7
100
AcDbEntity
  8
化粧台
  6
CONTINUOUS
 62
     6
100
AcDbLine
 10
910.5
 20
1726.401638
 30
0.0
 11
910.5
 21
1731.514218
 31
0.0
  0
ELLIPSE
  5
5E8
100
AcDbEntity
  8
化粧台
  6
CONTINUOUS
 62
     6
100
AcDbEllipse
 10
921.5
 20
1730.681342
 30
0.0
 11
-12.000000000000002
 21
0.0000000000000015
 31
0.0
210
0.0
220
0.0
230
1.0
 40
0.173667
 41
5.8720470000000189
 42
0.4111379999999977
  0
ELLIPSE
  5
5E9
100
AcDbEntity
  8
化粧台
  6
CONTINUOUS
 62
     6
100
AcDbEllipse
 10
921.5
 20
1727.234515
 30
0.0
 11
12.000000000000002
 21
0.0
 31
0.0
210
0.0
220
0.0
230
1.0
 40
0.173667
 41
0.4111379999999977
 42
2.7304550000000027
  0
ELLIPSE
  5
5EA
100
AcDbEntity
  8
化粧台
  6
CONTINUOUS
 62
     6
100
AcDbEllipse
 10
921.5
 20
1727.234515
 30
0.0
 11
12.000000000000002
 21
0.0
 31
0.0
210
0.0
220
0.0
230
1.0
 40
0.173667
 41
3.5527309999999983
 42
5.8720470000000189
  0
ARC
  5
5EB
100
AcDbEntity
  8
化粧台
  6
CONTINUOUS
 62
     6
100
AcDbCircle
 10
964.740868
 20
1723.853205
 30
0.0
 40
20.0
100
AcDbArc
 50
182.0
 51
265.901507
  0
ARC
  5
5EC
100
AcDbEntity
  8
化粧台
  6
CONTINUOUS
 62
     6
100
AcDbCircle
 10
921.5
 20
1120.389476
 30
0.0
 40
585.010946
100
AcDbArc
 50
84.101526
 51
85.901507
  0
ELLIPSE
  5
5ED
100
AcDbEntity
  8
化粧台
  6
CONTINUOUS
 62
     6
100
AcDbEllipse
 10
921.5
 20
1718.219812
 30
0.0
 11
3.0000000000000022
 21
0.0
 31
0.0
210
0.0
220
0.0
230
1.0
 40
0.422667
 41
0.0
 42
6.2831850000000049
  0
LINE
  5
5EE
100
AcDbEntity
  8
化粧台
  6
CONTINUOUS
 62
     6
100
AcDbLine
 10
924.5
 20
1723.657532
 30
0.0
 11
924.5
 21
1718.219812
 31
0.0
  0
LINE
  5
5EF
100
AcDbEntity
  8
化粧台
  6
CONTINUOUS
 62
     6
100
AcDbLine
 10
918.5
 20
1723.657532
 30
0.0
 11
918.5
 21
1718.219812
 31
0.0
  0
ELLIPSE
  5
5F0
100
AcDbEntity
  8
化粧台
  6
CONTINUOUS
 62
     6
100
AcDbEllipse
 10
921.5
 20
1723.657532
 30
0.0
 11
3.0000000000000022
 21
0.0
 31
0.0
210
0.0
220
0.0
230
1.0
 40
0.422667
 41
0.0
 42
3.1415930000000025
  0
ARC
  5
5F1
100
AcDbEntity
  8
化粧台
  6
CONTINUOUS
 62
     6
100
AcDbCircle
 10
928.032926
 20
1778.968937
 30
0.0
 40
29.032926
100
AcDbArc
 50
129.544064
 51
158.021405
  0
LINE
  5
5F2
100
AcDbEntity
  8
化粧台
  6
CONTINUOUS
 62
     6
100
AcDbLine
 10
929.030512
 20
1804.619728
 30
0.0
 11
913.5
 21
1804.619728
 31
0.0
  0
LINE
  5
5F3
100
AcDbEntity
  8
化粧台
  6
CONTINUOUS
 62
     6
100
AcDbLine
 10
913.164854
 20
1804.343021
 30
0.0
 11
909.54849
 21
1801.357248
 31
0.0
  0
LINE
  5
5F4
100
AcDbEntity
  8
化粧台
  6
CONTINUOUS
 62
     6
100
AcDbLine
 10
929.835146
 20
1804.343021
 30
0.0
 11
933.451509
 21
1801.357248
 31
0.0
  0
ARC
  5
5F5
100
AcDbEntity
  8
化粧台
  6
CONTINUOUS
 62
     6
100
AcDbCircle
 10
914.967073
 20
1778.968937
 30
0.0
 40
29.032926
100
AcDbArc
 50
22.880485
 51
50.455936
  0
LINE
  5
5F6
100
AcDbEntity
  8
化粧台
  6
CONTINUOUS
 62
     6
100
AcDbLine
 10
929.5
 20
1808.517599
 30
0.0
 11
929.5
 21
1805.23427
 31
0.0
  0
LINE
  5
5F7
100
AcDbEntity
  8
化粧台
  6
CONTINUOUS
 62
     6
100
AcDbLine
 10
913.5
 20
1808.517599
 30
0.0
 11
913.5
 21
1805.23427
 31
0.0
  0
ELLIPSE
  5
5F8
100
AcDbEntity
  8
化粧台
  6
CONTINUOUS
 62
     6
100
AcDbEllipse
 10
921.5
 20
1785.402334
 30
0.0
 11
5.25
 21
0.0
 31
0.0
210
0.0
220
0.0
230
1.0
 40
0.984762
 41
0.0
 42
6.283185000000004
  0
LINE
  5
5F9
100
AcDbEntity
  8
化粧台
  6
CONTINUOUS
 62
     6
100
AcDbLine
 10
921.5
 20
1790.572334
 30
0.0
 11
921.5
 21
1780.232334
 31
0.0
  0
LINE
  5
5FA
100
AcDbEntity
  8
化粧台
  6
CONTINUOUS
 62
     6
100
AcDbLine
 10
937.48576
 20
1741.549588
 30
0.0
 11
937.48576
 21
1744.216163
 31
0.0
  0
ARC
  5
5FB
100
AcDbEntity
  8
化粧台
  6
CONTINUOUS
 62
     6
100
AcDbCircle
 10
921.5
 20
1724.603911
 30
0.0
 40
30.0
100
AcDbArc
 50
72.542397
 51
90.0
  0
ARC
  5
5FC
100
AcDbEntity
  8
化粧台
  6
CONTINUOUS
 62
     6
100
AcDbCircle
 10
927.5
 20
1743.682695
 30
0.0
 40
10.0
100
AcDbArc
 50
3.057995
 51
16.608543
  0
ARC
  5
5FD
100
AcDbEntity
  8
化粧台
  6
CONTINUOUS
 62
     6
100
AcDbCircle
 10
927.5
 20
1743.682695
 30
0.0
 40
10.0
100
AcDbArc
 50
33.493313
 51
72.542397
  0
LINE
  5
5FE
100
AcDbEntity
  8
化粧台
  6
CONTINUOUS
 62
     6
100
AcDbLine
 10
935.839502
 20
1749.201092
 30
0.0
 11
941.194249
 21
1741.1089
 31
0.0
  0
ARC
  5
5FF
100
AcDbEntity
  8
化粧台
  6
CONTINUOUS
 62
     6
100
AcDbCircle
 10
915.5
 20
1743.682695
 30
0.0
 40
10.0
100
AcDbArc
 50
107.457603
 51
146.506687
  0
LINE
  5
600
100
AcDbEntity
  8
化粧台
  6
CONTINUOUS
 62
     6
100
AcDbLine
 10
905.514239
 20
1741.549588
 30
0.0
 11
905.514239
 21
1744.216163
 31
0.0
  0
LINE
  5
601
100
AcDbEntity
  8
化粧台
  6
CONTINUOUS
 62
     6
100
AcDbLine
 10
907.160497
 20
1749.201092
 30
0.0
 11
901.80575
 21
1741.1089
 31
0.0
  0
ARC
  5
602
100
AcDbEntity
  8
化粧台
  6
CONTINUOUS
 62
     6
100
AcDbCircle
 10
921.5
 20
1724.603911
 30
0.0
 40
30.0
100
AcDbArc
 50
90.0
 51
107.457603
  0
ARC
  5
603
100
AcDbEntity
  8
化粧台
  6
CONTINUOUS
 62
     6
100
AcDbCircle
 10
915.5
 20
1743.682695
 30
0.0
 40
10.0
100
AcDbArc
 50
163.391457
 51
176.942005
  0
LINE
  5
604
100
AcDbEntity
  8
化粧台
  6
CONTINUOUS
 62
     6
100
AcDbLine
 10
2291.826633
 20
1769.622097
 30
0.0
 11
2334.173366
 21
1777.088968
 31
0.0
  0
LINE
  5
605
100
AcDbEntity
  8
化粧台
  6
CONTINUOUS
 62
     6
100
AcDbLine
 10
2334.173366
 20
1777.088968
 30
0.0
 11
2345.767551
 21
1722.542618
 31
0.0
  0
LINE
  5
606
100
AcDbEntity
  8
化粧台
  6
CONTINUOUS
 62
     6
100
AcDbLine
 10
2223.342593
 20
1738.611654
 30
0.0
 11
2252.501013
 21
1733.470238
 31
0.0
  0
ARC
  5
607
100
AcDbEntity
  8
化粧台
  6
CONTINUOUS
 62
     6
100
AcDbCircle
 10
2271.08292
 20
1730.193746
 30
0.0
 40
50.0
100
AcDbArc
 50
158.885004
 51
168.227683
  0
ARC
  5
608
100
AcDbEntity
  8
化粧台
  6
CONTINUOUS
 62
     6
100
AcDbCircle
 10
2223.603065
 20
1740.088866
 30
0.0
 40
1.5
100
AcDbArc
 50
168.227683
 51
260.0
  0
LINE
  5
609
100
AcDbEntity
  8
化粧台
  6
CONTINUOUS
 62
     6
100
AcDbLine
 10
2234.987242
 20
1754.528847
 30
0.0
 11
2282.048042
 21
1748.750508
 31
0.0
  0
ARC
  5
60A
100
AcDbEntity
  8
化粧台
  6
CONTINUOUS
 62
     6
100
AcDbCircle
 10
2233.768549
 20
1744.603386
 30
0.0
 40
10.0
100
AcDbArc
 50
83.0
 51
158.885004
  0
LINE
  5
60B
100
AcDbEntity
  8
化粧台
  6
CONTINUOUS
 62
     6
100
AcDbLine
 10
2291.826633
 20
1769.622097
 30
0.0
 11
2293.169416
 21
1760.0677
 31
0.0
  0
ARC
  5
60C
100
AcDbEntity
  8
化粧台
  6
CONTINUOUS
 62
     6
100
AcDbCircle
 10
2283.266735
 20
1758.675969
 30
0.0
 40
10.0
100
AcDbArc
 50
263.0
 51
8.0
  0
LINE
  5
60D
100
AcDbEntity
  8
化粧台
  6
CONTINUOUS
 62
     6
100
AcDbLine
 10
2226.274167
 20
1738.094738
 30
0.0
 11
2226.187343
 21
1737.602335
 31
0.0
  0
LINE
  5
60E
100
AcDbEntity
  8
化粧台
  6
CONTINUOUS
 62
     6
100
AcDbLine
 10
2225.694939
 20
1737.689159
 30
0.0
 11
2237.512632
 21
1735.60538
 31
0.0
  0
LINE
  5
60F
100
AcDbEntity
  8
化粧台
  6
CONTINUOUS
 62
     6
100
AcDbLine
 10
2225.694939
 20
1737.689159
 30
0.0
 11
2224.305754
 21
1729.810697
 31
0.0
  0
LINE
  5
610
100
AcDbEntity
  8
化粧台
  6
CONTINUOUS
 62
     6
100
AcDbLine
 10
2224.305754
 20
1729.810697
 30
0.0
 11
2224.711334
 21
1729.231469
 31
0.0
  0
LINE
  5
611
100
AcDbEntity
  8
化粧台
  6
CONTINUOUS
 62
     6
100
AcDbLine
 10
2224.711334
 20
1729.231469
 30
0.0
 11
2236.036623
 21
1727.234515
 31
0.0
  0
LINE
  5
612
100
AcDbEntity
  8
化粧台
  6
CONTINUOUS
 62
     6
100
AcDbLine
 10
2247.361912
 20
1725.237561
 30
0.0
 11
2236.036623
 21
1727.234515
 31
0.0
  0
LINE
  5
613
100
AcDbEntity
  8
化粧台
  6
CONTINUOUS
 62
     6
100
AcDbLine
 10
2247.94114
 20
1725.64314
 30
0.0
 11
2247.361912
 21
1725.237561
 31
0.0
  0
LINE
  5
614
100
AcDbEntity
  8
化粧台
  6
CONTINUOUS
 62
     6
100
AcDbLine
 10
2249.330325
 20
1733.521602
 30
0.0
 11
2247.94114
 21
1725.64314
 31
0.0
  0
LINE
  5
615
100
AcDbEntity
  8
化粧台
  6
CONTINUOUS
 62
     6
100
AcDbLine
 10
2249.330325
 20
1733.521602
 30
0.0
 11
2237.512632
 21
1735.60538
 31
0.0
  0
LINE
  5
616
100
AcDbEntity
  8
化粧台
  6
CONTINUOUS
 62
     6
100
AcDbLine
 10
2248.924746
 20
1734.10083
 30
0.0
 11
2248.837921
 21
1733.608426
 31
0.0
  0
LINE
  5
617
100
AcDbEntity
  8
化粧台
  6
CONTINUOUS
 62
     6
100
AcDbLine
 10
2312.010205
 20
1778.968937
 30
0.0
 11
2289.852031
 21
1775.061853
 31
0.0
  0
LINE
  5
618
100
AcDbEntity
  8
化粧台
  6
CONTINUOUS
 62
     6
100
AcDbLine
 10
2289.852031
 20
1775.061853
 30
0.0
 11
2286.726363
 21
1792.788392
 31
0.0
  0
LINE
  5
619
100
AcDbEntity
  8
化粧台
  6
CONTINUOUS
 62
     6
100
AcDbLine
 10
2228.189251
 20
1805.157092
 30
0.0
 11
2227.477066
 21
1809.196094
 31
0.0
  0
ARC
  5
61A
100
AcDbEntity
  8
化粧台
  6
CONTINUOUS
 62
     6
100
AcDbCircle
 10
2247.957736
 20
1535.511628
 30
0.0
 40
275.0
100
AcDbArc
 50
75.198631
 51
94.175802
  0
LINE
  5
61B
100
AcDbEntity
  8
化粧台
  6
CONTINUOUS
 62
     6
100
AcDbLine
 10
2228.811064
 20
1804.760953
 30
0.0
 11
2237.010542
 21
1806.957997
 31
0.0
  0
ARC
  5
61C
100
AcDbEntity
  8
化粧台
  6
CONTINUOUS
 62
     6
100
AcDbCircle
 10
2275.939305
 20
1790.634474
 30
0.0
 40
11.0
100
AcDbArc
 50
11.292088
 51
78.691952
  0
ARC
  5
61D
100
AcDbEntity
  8
化粧台
  6
CONTINUOUS
 62
     6
100
AcDbCircle
 10
2242.581219
 20
1693.094185
 30
0.0
 40
114.0
100
AcDbArc
 50
71.848229
 51
92.800907
  0
ARC
  5
61E
100
AcDbEntity
  8
化粧台
  6
CONTINUOUS
 62
     6
100
AcDbCircle
 10
2227.96947
 20
1809.282918
 30
0.0
 40
0.5
100
AcDbArc
 50
94.175802
 51
190.0
  0
ARC
  5
61F
100
AcDbEntity
  8
化粧台
  6
CONTINUOUS
 62
     6
100
AcDbCircle
 10
2228.681655
 20
1805.243916
 30
0.0
 40
0.5
100
AcDbArc
 50
190.0
 51
285.0
  0
LINE
  5
620
100
AcDbEntity
  8
化粧台
  6
CONTINUOUS
 62
     6
100
AcDbLine
 10
2286.059109
 20
1785.055038
 30
0.0
 11
2285.624989
 21
1787.517057
 31
0.0
  0
ARC
  5
621
100
AcDbEntity
  8
化粧台
  6
CONTINUOUS
 62
     6
100
AcDbCircle
 10
2290.596229
 20
1786.981549
 30
0.0
 40
5.0
100
AcDbArc
 50
134.093513
 51
173.85174
  0
LINE
  5
622
100
AcDbEntity
  8
化粧台
  6
CONTINUOUS
 62
     6
100
AcDbLine
 10
2286.059109
 20
1785.055038
 30
0.0
 11
2286.49323
 21
1782.593018
 31
0.0
  0
ARC
  5
623
100
AcDbEntity
  8
化粧台
  6
CONTINUOUS
 62
     6
100
AcDbCircle
 10
2290.981513
 20
1784.796496
 30
0.0
 40
5.0
100
AcDbArc
 50
206.14826
 51
245.906487
  0
ARC
  5
624
100
AcDbEntity
  8
化粧台
  6
CONTINUOUS
 62
     6
100
AcDbCircle
 10
2311.924865
 20
1773.660059
 30
0.0
 40
20.0
100
AcDbArc
 50
174.890164
 51
191.39413
  0
ARC
  5
625
100
AcDbEntity
  8
化粧台
  6
CONTINUOUS
 62
     6
100
AcDbCircle
 10
2313.906141
 20
1774.009411
 30
0.0
 40
20.0
100
AcDbArc
 50
8.60587
 51
33.374872
  0
LINE
  5
626
100
AcDbEntity
  8
化粧台
  6
CONTINUOUS
 62
     6
100
AcDbLine
 10
2312.010205
 20
1778.968937
 30
0.0
 11
2333.559361
 21
1785.970682
 31
0.0
  0
ARC
  5
627
100
AcDbEntity
  8
化粧台
  6
CONTINUOUS
 62
     6
100
AcDbCircle
 10
2312.333429
 20
1780.186233
 30
0.0
 40
22.0
100
AcDbArc
 50
15.243958
 51
74.50271
  0
LINE
  5
628
100
AcDbEntity
  8
化粧台
  6
CONTINUOUS
 62
     6
100
AcDbLine
 10
2241.367363
 20
1729.848554
 30
0.0
 11
2231.921419
 21
1731.514129
 31
0.0
  0
LINE
  5
629
100
AcDbEntity
  8
化粧台
  6
CONTINUOUS
 62
     6
100
AcDbLine
 10
2240.759595
 20
1726.401727
 30
0.0
 11
2241.367363
 21
1729.848554
 31
0.0
  0
LINE
  5
62A
100
AcDbEntity
  8
化粧台
  6
CONTINUOUS
 62
     6
100
AcDbLine
 10
2231.313651
 20
1728.067302
 30
0.0
 11
2231.921419
 21
1731.514129
 31
0.0
  0
LINE
  5
62B
100
AcDbEntity
  8
化粧台
  6
CONTINUOUS
 62
     6
100
AcDbLine
 10
2224.305754
 20
1729.810697
 30
0.0
 11
2231.400475
 21
1728.559706
 31
0.0
  0
LINE
  5
62C
100
AcDbEntity
  8
化粧台
  6
CONTINUOUS
 62
     6
100
AcDbLine
 10
2240.846419
 20
1726.894131
 30
0.0
 11
2247.94114
 21
1725.64314
 31
0.0
  0
LINE
  5
62D
100
AcDbEntity
  8
化粧台
  6
CONTINUOUS
 62
     6
100
AcDbLine
 10
2283.352843
 20
1717.163266
 30
0.0
 11
2278.821304
 21
1719.276357
 31
0.0
  0
LINE
  5
62E
100
AcDbEntity
  8
化粧台
  6
CONTINUOUS
 62
     6
100
AcDbLine
 10
2278.821304
 20
1719.276357
 30
0.0
 11
2278.579459
 21
1719.94082
 31
0.0
  0
LINE
  5
62F
100
AcDbEntity
  8
化粧台
  6
CONTINUOUS
 62
     6
100
AcDbLine
 10
2283.352843
 20
1717.163266
 30
0.0
 11
2284.017306
 21
1717.405111
 31
0.0
  0
LINE
  5
630
100
AcDbEntity
  8
化粧台
  6
CONTINUOUS
 62
     6
100
AcDbLine
 10
2284.017306
 20
1717.405111
 30
0.0
 11
2286.326426
 21
1722.357035
 31
0.0
  0
LINE
  5
631
100
AcDbEntity
  8
化粧台
  6
CONTINUOUS
 62
     6
100
AcDbLine
 10
2280.888589
 20
1724.892766
 30
0.0
 11
2278.579459
 21
1719.94082
 31
0.0
  0
CIRCLE
  5
632
100
AcDbEntity
  8
化粧台
  6
CONTINUOUS
 62
     6
100
AcDbCircle
 10
2282.354928
 20
1720.938735
 30
0.0
 40
1.5
  0
LINE
  5
633
100
AcDbEntity
  8
化粧台
  6
CONTINUOUS
 62
     6
100
AcDbLine
 10
2278.579459
 20
1719.94082
 30
0.0
 11
2284.017306
 21
1717.405111
 31
0.0
  0
ARC
  5
634
100
AcDbEntity
  8
化粧台
  6
CONTINUOUS
 62
     6
100
AcDbCircle
 10
2230.794991
 20
1610.369269
 30
0.0
 40
125.0
100
AcDbArc
 50
49.868467
 51
80.000001
  0
ARC
  5
635
100
AcDbEntity
  8
化粧台
  6
CONTINUOUS
 62
     6
100
AcDbCircle
 10
2365.330503
 20
1726.700852
 30
0.0
 40
20.0
100
AcDbArc
 50
192.0
 51
251.434957
  0
POLYLINE
  5
636
100
AcDbEntity
  8
化粧台
  6
CONTINUOUS
 62
     3
100
AcDb2dPolyline
 66
     1
 10
0.0
 20
0.0
 30
0.0
 70
   128
  0
VERTEX
  5
637
100
AcDbEntity
  8
化粧台
  6
CONTINUOUS
 62
     3
100
AcDbVertex
100
AcDb2dVertex
 10
1465.5
 20
3970.5
 30
0.0
  0
VERTEX
  5
638
100
AcDbEntity
  8
化粧台
  6
CONTINUOUS
 62
     3
100
AcDbVertex
100
AcDb2dVertex
 10
1488.5
 20
3921.0
 30
0.0
  0
SEQEND
  5
639
100
AcDbEntity
  8
化粧台
  6
CONTINUOUS
 62
     3
  0
LINE
  5
63A
100
AcDbEntity
  8
化粧台
  6
CONTINUOUS
 62
     3
100
AcDbLine
 10
1491.263749
 20
3932.850575
 30
0.0
 11
1465.5
 21
3970.5
 31
0.0
  0
LINE
  5
63B
100
AcDbEntity
  8
化粧台
  6
CONTINUOUS
 62
     3
100
AcDbLine
 10
1465.5
 20
3970.5
 30
0.0
 11
1477.66049
 21
3926.529868
 31
0.0
  0
LINE
  5
63C
100
AcDbEntity
  8
化粧台
  6
EXLTYPE3
 62
     6
100
AcDbLine
 10
921.5
 20
1825.5
 30
0.0
 11
921.5
 21
769.207107
 31
0.0
  0
ARC
  5
63D
100
AcDbEntity
  8
化粧台
  6
CONTINUOUS
 62
     6
100
AcDbCircle
 10
2893.07978
 20
3980.2548
 30
0.0
 40
2000.0
100
AcDbArc
 50
184.606212
 51
186.414462
  0
ARC
  5
63E
100
AcDbEntity
  8
化粧台
  6
CONTINUOUS
 62
     6
100
AcDbCircle
 10
-1050.079553
 20
3980.2548
 30
0.0
 40
2000.0
100
AcDbArc
 50
353.585538
 51
355.393809
  0
ARC
  5
63F
100
AcDbEntity
  8
化粧台
  6
EXLTYPE2
 62
     6
100
AcDbCircle
 10
870.500114
 20
3875.5
 30
0.0
 40
20.0
100
AcDbArc
 50
92.981359
 51
257.188799
  0
ARC
  5
640
100
AcDbEntity
  8
化粧台
  6
EXLTYPE2
 62
     6
100
AcDbCircle
 10
972.500114
 20
3875.5
 30
0.0
 40
20.0
100
AcDbArc
 50
282.811201
 51
87.018641
  0
ARC
  5
641
100
AcDbEntity
  8
化粧台
  6
EXLTYPE2
 62
     6
100
AcDbCircle
 10
921.500114
 20
2896.266366
 30
0.0
 40
1000.560814
100
AcDbArc
 50
87.018641
 51
92.981359
  0
ARC
  5
642
100
AcDbEntity
  8
化粧台
  6
EXLTYPE2
 62
     6
100
AcDbCircle
 10
921.500114
 20
4099.747438
 30
0.0
 40
249.973724
100
AcDbArc
 50
257.18731
 51
262.203178
  0
ARC
  5
643
100
AcDbEntity
  8
化粧台
  6
EXLTYPE2
 62
     6
100
AcDbCircle
 10
921.500114
 20
4099.747438
 30
0.0
 40
249.973724
100
AcDbArc
 50
277.796822
 51
282.81269
  0
ARC
  5
644
100
AcDbEntity
  8
化粧台
  6
EXLTYPE2
 62
     6
100
AcDbCircle
 10
957.039629
 20
3840.195566
 30
0.0
 40
12.0
100
AcDbArc
 50
97.796822
 51
176.008301
  0
ARC
  5
645
100
AcDbEntity
  8
化粧台
  6
EXLTYPE2
 62
     6
100
AcDbCircle
 10
885.960598
 20
3840.195566
 30
0.0
 40
12.0
100
AcDbArc
 50
3.991699
 51
82.203178
  0
ARC
  5
646
100
AcDbEntity
  8
化粧台
  6
EXLTYPE2
 62
     6
100
AcDbCircle
 10
866.623232
 20
3812.924443
 30
0.0
 40
37.840132
100
AcDbArc
 50
8.514811
 51
31.171388
  0
ARC
  5
647
100
AcDbEntity
  8
化粧台
  6
EXLTYPE2
 62
     6
100
AcDbCircle
 10
976.376995
 20
3812.924443
 30
0.0
 40
37.840132
100
AcDbArc
 50
148.828612
 51
171.485189
  0
ELLIPSE
  5
648
100
AcDbEntity
  8
化粧台
  6
EXLTYPE2
 62
     6
100
AcDbEllipse
 10
921.500114
 20
3832.510488
 30
0.0
 11
-22.5
 21
0.0000000000000028
 31
0.0
210
0.0
220
0.0
230
1.0
 40
0.9848
 41
2.4586609999999993
 42
0.6829310000000005
  0
ARC
  5
649
100
AcDbEntity
  8
化粧台
  6
EXLTYPE2
 62
     6
100
AcDbCircle
 10
2893.07978
 20
3980.2548
 30
0.0
 40
2000.0
100
AcDbArc
 50
183.991699
 51
184.606212
  0
ARC
  5
64A
100
AcDbEntity
  8
化粧台
  6
EXLTYPE2
 62
     6
100
AcDbCircle
 10
-1050.079553
 20
3980.2548
 30
0.0
 40
2000.0
100
AcDbArc
 50
355.393809
 51
356.008301
  0
ELLIPSE
  5
64B
100
AcDbEntity
  8
化粧台
  6
EXLTYPE2
 62
     6
100
AcDbEllipse
 10
921.500114
 20
3843.177298
 30
0.0
 11
23.446000000000002
 21
0.0
 31
0.0
210
0.0
220
0.0
230
1.0
 40
0.984816
 41
0.45368
 42
2.763067000000003
  0
TEXT
  5
64C
100
AcDbEntity
  8
化粧台
  6
CONTINUOUS
 62
     2
100
AcDbText
 10
1507.500001
 20
3910.5
 30
0.0
 40
60.0
  1
W.L.
 41
0.4125
  7
EXCADSTD
 72
     5
 11
1598.2434
 21
3910.5
 31
0.0
100
AcDbText
  0
LINE
  5
64D
100
AcDbEntity
  8
鏡台
  6
EXLTYPE3
 62
     6
100
AcDbLine
 10
2365.0
 20
1130.5
 30
0.0
 11
2365.0
 21
892.499969
 31
0.0
  0
LINE
  5
64E
100
AcDbEntity
  8
鏡台
  6
CONTINUOUS
 62
     6
100
AcDbLine
 10
2375.0
 20
915.49301
 30
0.0
 11
2374.852295
 21
908.727081
 31
0.0
  0
LINE
  5
64F
100
AcDbEntity
  8
鏡台
  6
CONTINUOUS
 62
     6
100
AcDbLine
 10
2374.852295
 20
908.727081
 30
0.0
 11
2373.625183
 21
907.499969
 31
0.0
  0
LINE
  5
650
100
AcDbEntity
  8
鏡台
  6
CONTINUOUS
 62
     6
100
AcDbLine
 10
2373.625183
 20
907.499969
 30
0.0
 11
2356.374817
 21
907.499969
 31
0.0
  0
LINE
  5
651
100
AcDbEntity
  8
鏡台
  6
CONTINUOUS
 62
     6
100
AcDbLine
 10
2356.374817
 20
907.499969
 30
0.0
 11
2355.147858
 21
908.727081
 31
0.0
  0
LINE
  5
652
100
AcDbEntity
  8
鏡台
  6
CONTINUOUS
 62
     6
100
AcDbLine
 10
2355.147858
 20
908.727081
 30
0.0
 11
2355.0
 21
915.5
 31
0.0
  0
LINE
  5
653
100
AcDbEntity
  8
鏡台
  6
EXLTYPE4
 62
     6
100
AcDbLine
 10
2355.0
 20
915.5
 30
0.0
 11
2355.0
 21
1115.5
 31
0.0
  0
LINE
  5
654
100
AcDbEntity
  8
鏡台
  6
EXLTYPE4
 62
     6
100
AcDbLine
 10
2375.0
 20
1115.5
 30
0.0
 11
2375.0
 21
915.49301
 31
0.0
  0
LINE
  5
655
100
AcDbEntity
  8
鏡台
  6
CONTINUOUS
 62
     6
100
AcDbLine
 10
1290.112793
 20
3821.252808
 30
0.0
 11
1279.776246
 21
3817.490601
 31
0.0
  0
LINE
  5
656
100
AcDbEntity
  8
鏡台
  6
CONTINUOUS
 62
     6
100
AcDbLine
 10
1285.153443
 20
3834.878296
 30
0.0
 11
1271.733643
 21
3829.354126
 31
0.0
  0
LINE
  5
657
100
AcDbEntity
  8
鏡台
  6
CONTINUOUS
 62
     6
100
AcDbLine
 10
1279.102662
 20
3837.464966
 30
0.0
 11
1270.29358
 21
3834.258667
 31
0.0
  0
LINE
  5
658
100
AcDbEntity
  8
鏡台
  6
CONTINUOUS
 62
     6
100
AcDbLine
 10
1271.733643
 20
3829.354126
 30
0.0
 11
1265.33545
 21
3851.144531
 31
0.0
  0
LINE
  5
659
100
AcDbEntity
  8
鏡台
  6
CONTINUOUS
 62
     6
100
AcDbLine
 10
1272.025757
 20
3853.580933
 30
0.0
 11
1279.807251
 21
3835.860229
 31
0.0
  0
LINE
  5
65A
100
AcDbEntity
  8
鏡台
  6
CONTINUOUS
 62
     6
100
AcDbLine
 10
1304.634888
 20
3828.134644
 30
0.0
 11
1289.599732
 21
3822.662476
 31
0.0
  0
LINE
  5
65B
100
AcDbEntity
  8
鏡台
  6
CONTINUOUS
 62
     6
100
AcDbLine
 10
1301.556641
 20
3836.591919
 30
0.0
 11
1286.521607
 21
3831.119751
 31
0.0
  0
LINE
  5
65C
100
AcDbEntity
  8
鏡台
  6
CONTINUOUS
 62
     6
100
AcDbLine
 10
1279.776124
 20
3817.490601
 30
0.0
 11
1275.671998
 21
3828.766968
 31
0.0
  0
LINE
  5
65D
100
AcDbEntity
  8
鏡台
  6
CONTINUOUS
 62
     6
100
AcDbLine
 10
1286.008545
 20
3832.529175
 30
0.0
 11
1275.671998
 21
3828.766968
 31
0.0
  0
LINE
  5
65E
100
AcDbEntity
  8
鏡台
  6
CONTINUOUS
 62
     6
100
AcDbLine
 10
1285.153443
 20
3834.878296
 30
0.0
 11
1283.673462
 21
3834.283081
 31
0.0
  0
LINE
  5
65F
100
AcDbEntity
  8
鏡台
  6
CONTINUOUS
 62
     6
100
AcDbLine
 10
1291.138794
 20
3818.433716
 30
0.0
 11
1277.599976
 21
3814.504028
 31
0.0
  0
LINE
  5
660
100
AcDbEntity
  8
鏡台
  6
CONTINUOUS
 62
     6
100
AcDbLine
 10
1285.153443
 20
3834.878296
 30
0.0
 11
1291.138794
 21
3818.433716
 31
0.0
  0
LINE
  5
661
100
AcDbEntity
  8
鏡台
  6
CONTINUOUS
 62
     6
100
AcDbLine
 10
1271.559937
 20
3828.369263
 30
0.0
 11
1276.38147
 21
3815.122192
 31
0.0
  0
LINE
  5
662
100
AcDbEntity
  8
鏡台
  6
CONTINUOUS
 62
     6
100
AcDbLine
 10
1270.768067
 20
3854.11853
 30
0.0
 11
1265.952881
 21
3852.365967
 31
0.0
  0
ARC
  5
663
100
AcDbEntity
  8
鏡台
  6
CONTINUOUS
 62
     6
100
AcDbCircle
 10
1282.554078
 20
3837.066528
 30
0.0
 40
3.0
100
AcDbArc
 50
203.707275
 51
291.909241
  0
ARC
  5
664
100
AcDbEntity
  8
鏡台
  6
CONTINUOUS
 62
     6
100
AcDbCircle
 10
1266.294922
 20
3851.42627
 30
0.0
 40
1.0
100
AcDbArc
 50
110.000061
 51
196.363464
  0
ARC
  5
665
100
AcDbEntity
  8
鏡台
  6
CONTINUOUS
 62
     6
100
AcDbCircle
 10
1271.110108
 20
3853.178833
 30
0.0
 40
1.0
100
AcDbArc
 50
23.707275
 51
110.0
  0
ARC
  5
666
100
AcDbEntity
  8
鏡台
  6
CONTINUOUS
 62
     6
100
AcDbCircle
 10
1294.70398
 20
3829.30896
 30
0.0
 40
10.0
100
AcDbArc
 50
353.256348
 51
46.743622
  0
ARC
  5
667
100
AcDbEntity
  8
鏡台
  6
CONTINUOUS
 62
     6
100
AcDbCircle
 10
1277.321167
 20
3815.464233
 30
0.0
 40
1.0
100
AcDbArc
 50
200.0
 51
286.186218
  0
ARC
  5
668
100
AcDbEntity
  8
鏡台
  6
CONTINUOUS
 62
     6
100
AcDbCircle
 10
1272.499634
 20
3828.711304
 30
0.0
 40
1.0
100
AcDbArc
 50
111.909119
 51
200.0
  0
ARC
  5
669
100
AcDbEntity
  8
鏡台
  6
CONTINUOUS
 62
     6
100
AcDbCircle
 10
1403.156739
 20
3912.665039
 30
0.0
 40
150.0
100
AcDbArc
 50
184.388733
 51
203.721497
  0
ARC
  5
66A
100
AcDbEntity
  8
鏡台
  6
CONTINUOUS
 62
     6
100
AcDbCircle
 10
1408.649537
 20
3912.383301
 30
0.0
 40
150.0
100
AcDbArc
 50
184.77002
 51
202.901428
  0
ARC
  5
66B
100
AcDbEntity
  8
鏡台
  6
CONTINUOUS
 62
     6
100
AcDbCircle
 10
1133.248658
 20
3900.689941
 30
0.0
 40
120.0
100
AcDbArc
 50
4.115021
 51
27.576874
  0
ARC
  5
66C
100
AcDbEntity
  8
鏡台
  6
CONTINUOUS
 62
     6
100
AcDbCircle
 10
1139.144654
 20
3901.916992
 30
0.0
 40
120.0
100
AcDbArc
 50
2.871643
 51
29.221863
  0
ARC
  5
66D
100
AcDbEntity
  8
鏡台
  6
CONTINUOUS
 62
     6
100
AcDbCircle
 10
1282.554078
 20
3837.066528
 30
0.0
 40
3.0
100
AcDbArc
 50
203.707275
 51
291.909241
  0
ARC
  5
66E
100
AcDbEntity
  8
鏡台
  6
CONTINUOUS
 62
     6
100
AcDbCircle
 10
1266.294922
 20
3851.42627
 30
0.0
 40
1.0
100
AcDbArc
 50
110.000061
 51
196.363464
  0
ARC
  5
66F
100
AcDbEntity
  8
鏡台
  6
CONTINUOUS
 62
     6
100
AcDbCircle
 10
1271.110108
 20
3853.178833
 30
0.0
 40
1.0
100
AcDbArc
 50
23.707275
 51
110.0
  0
ARC
  5
670
100
AcDbEntity
  8
鏡台
  6
CONTINUOUS
 62
     6
100
AcDbCircle
 10
1294.70398
 20
3829.30896
 30
0.0
 40
10.0
100
AcDbArc
 50
353.256348
 51
46.743622
  0
ARC
  5
671
100
AcDbEntity
  8
鏡台
  6
CONTINUOUS
 62
     6
100
AcDbCircle
 10
1277.321167
 20
3815.464233
 30
0.0
 40
1.0
100
AcDbArc
 50
200.0
 51
286.186218
  0
ARC
  5
672
100
AcDbEntity
  8
鏡台
  6
CONTINUOUS
 62
     6
100
AcDbCircle
 10
1272.499634
 20
3828.711304
 30
0.0
 40
1.0
100
AcDbArc
 50
111.909119
 51
200.0
  0
ARC
  5
673
100
AcDbEntity
  8
鏡台
  6
CONTINUOUS
 62
     6
100
AcDbCircle
 10
1250.358277
 20
3892.498779
 30
0.0
 40
16.999516
100
AcDbArc
 50
71.927826
 51
128.074554
  0
ARC
  5
674
100
AcDbEntity
  8
鏡台
  6
CONTINUOUS
 62
     6
100
AcDbCircle
 10
1260.904542
 20
3924.818604
 30
0.0
 40
16.997519
100
AcDbArc
 50
251.927856
 51
280.004395
  0
ARC
  5
675
100
AcDbEntity
  8
鏡台
  6
CONTINUOUS
 62
     6
100
AcDbCircle
 10
1260.903321
 20
3924.825928
 30
0.0
 40
17.004932
100
AcDbArc
 50
280.004395
 51
308.068359
  0
ARC
  5
676
100
AcDbEntity
  8
鏡台
  6
CONTINUOUS
 62
     6
100
AcDbCircle
 10
1250.358277
 20
3884.498779
 30
0.0
 40
16.999516
100
AcDbArc
 50
71.927826
 51
128.074554
  0
ARC
  5
677
100
AcDbEntity
  8
鏡台
  6
CONTINUOUS
 62
     6
100
AcDbCircle
 10
1260.904542
 20
3916.818604
 30
0.0
 40
16.997519
100
AcDbArc
 50
251.927856
 51
280.004395
  0
ARC
  5
678
100
AcDbEntity
  8
鏡台
  6
CONTINUOUS
 62
     6
100
AcDbCircle
 10
1260.903321
 20
3916.825928
 30
0.0
 40
17.004932
100
AcDbArc
 50
280.004395
 51
308.068359
  0
LINE
  5
679
100
AcDbEntity
  8
鏡台
  6
CONTINUOUS
 62
     6
100
AcDbLine
 10
666.5
 20
3955.5
 30
0.0
 11
666.5
 21
4018.0
 31
0.0
  0
LINE
  5
67A
100
AcDbEntity
  8
鏡台
  6
CONTINUOUS
 62
     6
100
AcDbLine
 10
1176.5
 20
3955.5
 30
0.0
 11
1176.5
 21
4018.0
 31
0.0
  0
LINE
  5
67B
100
AcDbEntity
  8
鏡台
  6
CONTINUOUS
 62
     2
100
AcDbLine
 10
625.580369
 20
3935.5
 30
0.0
 11
1220.286109
 21
3935.5
 31
0.0
  0
ARC
  5
67C
100
AcDbEntity
  8
鏡台
  6
CONTINUOUS
 62
     2
100
AcDbCircle
 10
625.580369
 20
3938.5
 30
0.0
 40
3.0
100
AcDbArc
 50
181.959734
 51
270.0
  0
LINE
  5
67D
100
AcDbEntity
  8
鏡台
  6
CONTINUOUS
 62
     2
100
AcDbLine
 10
621.483665
 20
3970.5
 30
0.0
 11
623.035138
 21
3925.158029
 31
0.0
  0
ARC
  5
67E
100
AcDbEntity
  8
鏡台
  6
CONTINUOUS
 62
     2
100
AcDbCircle
 10
633.029289
 20
3925.5
 30
0.0
 40
10.0
100
AcDbArc
 50
181.959734
 51
270.0
  0
ARC
  5
67F
100
AcDbEntity
  8
鏡台
  6
CONTINUOUS
 62
     2
100
AcDbCircle
 10
510.792441
 20
2414.211278
 30
0.0
 40
1440.0
100
AcDbArc
 50
80.310059
 51
84.5314
  0
ARC
  5
680
100
AcDbEntity
  8
鏡台
  6
CONTINUOUS
 62
     2
100
AcDbCircle
 10
648.977775
 20
3857.611712
 30
0.0
 40
10.0
100
AcDbArc
 50
183.000006
 51
264.5314
  0
LINE
  5
681
100
AcDbEntity
  8
鏡台
  6
CONTINUOUS
 62
     2
100
AcDbLine
 10
633.029289
 20
3915.5
 30
0.0
 11
635.930244
 21
3915.5
 31
0.0
  0
LINE
  5
682
100
AcDbEntity
  8
鏡台
  6
CONTINUOUS
 62
     2
100
AcDbLine
 10
638.99148
 20
3857.088352
 30
0.0
 11
634.882092
 21
3935.5
 31
0.0
  0
ARC
  5
683
100
AcDbEntity
  8
鏡台
  6
CONTINUOUS
 62
     2
100
AcDbCircle
 10
696.233665
 20
4039.307328
 30
0.0
 40
183.807328
100
AcDbArc
 50
246.775197
 51
251.722714
  0
LINE
  5
684
100
AcDbEntity
  8
鏡台
  6
CONTINUOUS
 62
     2
100
AcDbLine
 10
623.751126
 20
3921.769626
 30
0.0
 11
623.751126
 21
3870.394879
 31
0.0
  0
ARC
  5
685
100
AcDbEntity
  8
鏡台
  6
CONTINUOUS
 62
     2
100
AcDbCircle
 10
1217.419631
 20
3938.5
 30
0.0
 40
3.0
100
AcDbArc
 50
270.0
 51
358.040266
  0
LINE
  5
686
100
AcDbEntity
  8
鏡台
  6
CONTINUOUS
 62
     2
100
AcDbLine
 10
1221.516335
 20
3970.5
 30
0.0
 11
1219.964862
 21
3925.158029
 31
0.0
  0
ARC
  5
687
100
AcDbEntity
  8
鏡台
  6
CONTINUOUS
 62
     2
100
AcDbCircle
 10
1209.970711
 20
3925.5
 30
0.0
 40
10.0
100
AcDbArc
 50
270.0
 51
358.040266
  0
ARC
  5
688
100
AcDbEntity
  8
鏡台
  6
CONTINUOUS
 62
     2
100
AcDbCircle
 10
1194.022225
 20
3857.611712
 30
0.0
 40
10.0
100
AcDbArc
 50
275.4686
 51
356.999994
  0
LINE
  5
689
100
AcDbEntity
  8
鏡台
  6
CONTINUOUS
 62
     2
100
AcDbLine
 10
1209.970711
 20
3915.5
 30
0.0
 11
1207.069756
 21
3915.5
 31
0.0
  0
LINE
  5
68A
100
AcDbEntity
  8
鏡台
  6
CONTINUOUS
 62
     2
100
AcDbLine
 10
1204.00852
 20
3857.088352
 30
0.0
 11
1208.117908
 21
3935.5
 31
0.0
  0
ARC
  5
68B
100
AcDbEntity
  8
鏡台
  6
CONTINUOUS
 62
     2
100
AcDbCircle
 10
1146.766335
 20
4039.307328
 30
0.0
 40
183.807328
100
AcDbArc
 50
288.277286
 51
293.224803
  0
LINE
  5
68C
100
AcDbEntity
  8
鏡台
  6
CONTINUOUS
 62
     2
100
AcDbLine
 10
1219.248874
 20
3921.769626
 30
0.0
 11
1219.248874
 21
3870.394879
 31
0.0
  0
ARC
  5
68D
100
AcDbEntity
  8
鏡台
  6
CONTINUOUS
 62
     2
100
AcDbCircle
 10
1332.207559
 20
2414.211278
 30
0.0
 40
1440.0
100
AcDbArc
 50
95.4686
 51
99.689941
  0
LINE
  5
68E
100
AcDbEntity
  8
鏡台
  6
CONTINUOUS
 62
     6
100
AcDbLine
 10
625.751126
 20
3918.642279
 30
0.0
 11
625.751126
 21
3871.718199
 31
0.0
  0
ARC
  5
68F
100
AcDbEntity
  8
鏡台
  6
CONTINUOUS
 62
     6
100
AcDbCircle
 10
696.233665
 20
4039.307328
 30
0.0
 40
181.807328
100
AcDbArc
 50
247.189961
 51
251.477056
  0
ARC
  5
690
100
AcDbEntity
  8
鏡台
  6
CONTINUOUS
 62
     6
100
AcDbCircle
 10
1146.766335
 20
4039.307328
 30
0.0
 40
181.807328
100
AcDbArc
 50
288.522944
 51
292.810039
  0
LINE
  5
691
100
AcDbEntity
  8
鏡台
  6
CONTINUOUS
 62
     6
100
AcDbLine
 10
1217.248874
 20
3918.642279
 30
0.0
 11
1217.248874
 21
3871.718199
 31
0.0
  0
LINE
  5
692
100
AcDbEntity
  8
鏡台
  6
CONTINUOUS
 62
     6
100
AcDbLine
 10
664.5
 20
3970.5
 30
0.0
 11
666.5
 21
4003.0
 31
0.0
  0
LINE
  5
693
100
AcDbEntity
  8
鏡台
  6
CONTINUOUS
 62
     6
100
AcDbLine
 10
666.5
 20
4003.0
 30
0.0
 11
668.5
 21
3970.5
 31
0.0
  0
LINE
  5
694
100
AcDbEntity
  8
鏡台
  6
CONTINUOUS
 62
     6
100
AcDbLine
 10
1178.5
 20
3970.5
 30
0.0
 11
1176.5
 21
4003.0
 31
0.0
  0
LINE
  5
695
100
AcDbEntity
  8
鏡台
  6
CONTINUOUS
 62
     6
100
AcDbLine
 10
1176.5
 20
4003.0
 30
0.0
 11
1174.5
 21
3970.5
 31
0.0
  0
ARC
  5
696
100
AcDbEntity
  8
鏡台
  6
CONTINUOUS
 62
     6
100
AcDbCircle
 10
1133.248658
 20
3900.689941
 30
0.0
 40
120.0
100
AcDbArc
 50
4.115021
 51
27.576874
  0
ARC
  5
697
100
AcDbEntity
  8
鏡台
  6
CONTINUOUS
 62
     6
100
AcDbCircle
 10
1221.5
 20
3940.5
 30
0.0
 40
30.0
100
AcDbArc
 50
41.793671
 51
90.0
  0
ARC
  5
698
100
AcDbEntity
  8
鏡台
  6
CONTINUOUS
 62
     6
100
AcDbCircle
 10
1221.5
 20
3940.5
 30
0.0
 40
24.0
100
AcDbArc
 50
40.990967
 51
90.500301
  0
ARC
  5
699
100
AcDbEntity
  8
鏡台
  6
CONTINUOUS
 62
     2
100
AcDbCircle
 10
921.483665
 20
4819.4
 30
0.0
 40
1000.0
100
AcDbArc
 50
260.310059
 51
270.850523
  0
ARC
  5
69A
100
AcDbEntity
  8
鏡台
  6
CONTINUOUS
 62
     2
100
AcDbCircle
 10
921.483665
 20
4819.4
 30
0.0
 40
1000.0
100
AcDbArc
 50
270.850523
 51
279.690683
  0
DIMENSION
  5
6A7
100
AcDbEntity
  8
鏡台
  6
CONTINUOUS
 62
     3
100
AcDbDimension
  2
*D14
 10
1371.5
 20
1840.5
 30
0.0
 11
1336.25
 21
1775.5
 31
0.0
 70
   160
  3
STANDARD
100
AcDbAlignedDimension
 13
1216.5
 23
1710.5
 33
0.0
 14
1234.576697
 24
1840.5
 34
0.0
 50
90.0
100
AcDbRotatedDimension
1001
ACAD
1000
DSTYLE
1002
{
1070
     6
1000
_EX_NORM
1070
     7
1000
_EX_NORM
1070
    41
1040
45.0
1070
    42
1040
10.5
1070
    44
1040
15.0
1070
    73
1070
     0
1070
    74
1070
     0
1070
    75
1070
     0
1070
    76
1070
     0
1070
    77
1070
     1
1070
    78
1070
     0
1070
   140
1040
60.0
1070
   147
1040
5.25
1070
   173
1070
     1
1070
   176
1070
     3
1070
   177
1070
     3
1070
   178
1070
     2
1070
   271
1070
     0
1070
   279
1070
     2
1070
   280
1070
     0
1070
   287
1070
     5
1070
   340
1005
6A6
1002
}
  0
DIMENSION
  5
6B3
100
AcDbEntity
  8
鏡台
  6
CONTINUOUS
 62
     3
100
AcDbDimension
  2
*D15
 10
1431.5
 20
2710.5
 30
0.0
 11
1396.25
 21
2210.5
 31
0.0
 70
   160
  3
STANDARD
100
AcDbAlignedDimension
 13
1216.5
 23
1710.5
 33
0.0
 14
1216.499985
 24
2710.5
 34
0.0
 50
90.0
100
AcDbRotatedDimension
1001
ACAD
1000
DSTYLE
1002
{
1070
     6
1000
_EX_NORM
1070
     7
1000
_EX_NORM
1070
    41
1040
45.0
1070
    42
1040
10.5
1070
    44
1040
15.0
1070
    73
1070
     0
1070
    74
1070
     0
1070
    75
1070
     0
1070
    76
1070
     0
1070
    77
1070
     1
1070
    78
1070
     0
1070
   140
1040
60.0
1070
   147
1040
5.25
1070
   173
1070
     1
1070
   176
1070
     3
1070
   177
1070
     3
1070
   178
1070
     2
1070
   271
1070
     0
1070
   279
1070
     2
1070
   280
1070
     0
1070
   287
1070
     5
1070
   340
1005
6A6
1002
}
  0
DIMENSION
  5
6BF
100
AcDbEntity
  8
鏡台
  6
CONTINUOUS
 62
     3
100
AcDbDimension
  2
*D16
 10
1176.5
 20
2785.5
 30
0.0
 11
921.5
 21
2820.75
 31
0.0
 70
   160
  3
STANDARD
100
AcDbAlignedDimension
 13
666.5
 23
2664.0
 33
0.0
 14
1176.5
 24
2664.0
 34
0.0
100
AcDbRotatedDimension
1001
ACAD
1000
DSTYLE
1002
{
1070
     6
1000
_EX_NORM
1070
     7
1000
_EX_NORM
1070
    41
1040
45.0
1070
    42
1040
10.5
1070
    44
1040
15.0
1070
    73
1070
     0
1070
    74
1070
     0
1070
    75
1070
     0
1070
    76
1070
     0
1070
    77
1070
     1
1070
    78
1070
     0
1070
   140
1040
60.0
1070
   147
1040
5.25
1070
   173
1070
     1
1070
   176
1070
     3
1070
   177
1070
     3
1070
   178
1070
     2
1070
   271
1070
     0
1070
   279
1070
     2
1070
   280
1070
     0
1070
   287
1070
     5
1070
   340
1005
6A6
1002
}
  0
ARC
  5
6C0
100
AcDbEntity
  8
鏡台
  6
CONTINUOUS
 62
     2
100
AcDbCircle
 10
626.5
 20
2705.5
 30
0.0
 40
5.0
100
AcDbArc
 50
90.0
 51
180.0
  0
LINE
  5
6C1
100
AcDbEntity
  8
鏡台
  6
CONTINUOUS
 62
     2
100
AcDbLine
 10
1216.5
 20
2710.5
 30
0.0
 11
626.5
 21
2710.5
 31
0.0
  0
ARC
  5
6C2
100
AcDbEntity
  8
鏡台
  6
CONTINUOUS
 62
     2
100
AcDbCircle
 10
1216.5
 20
2705.5
 30
0.0
 40
5.0
100
AcDbArc
 50
0.0
 51
90.0
  0
LINE
  5
6C3
100
AcDbEntity
  8
鏡台
  6
CONTINUOUS
 62
     2
100
AcDbLine
 10
621.5
 20
2705.5
 30
0.0
 11
621.5
 21
1715.5
 31
0.0
  0
ARC
  5
6C4
100
AcDbEntity
  8
鏡台
  6
CONTINUOUS
 62
     2
100
AcDbCircle
 10
626.5
 20
1715.5
 30
0.0
 40
5.0
100
AcDbArc
 50
180.0
 51
270.0
  0
LINE
  5
6C5
100
AcDbEntity
  8
鏡台
  6
CONTINUOUS
 62
     2
100
AcDbLine
 10
1221.5
 20
1715.5
 30
0.0
 11
1221.5
 21
2705.5
 31
0.0
  0
ARC
  5
6C6
100
AcDbEntity
  8
鏡台
  6
CONTINUOUS
 62
     2
100
AcDbCircle
 10
1216.5
 20
1715.5
 30
0.0
 40
5.0
100
AcDbArc
 50
270.0
 51
0.0
  0
CIRCLE
  5
6C7
100
AcDbEntity
  8
鏡台
  6
CONTINUOUS
 62
     2
100
AcDbCircle
 10
666.5
 20
1775.5
 30
0.0
 40
8.5
  0
CIRCLE
  5
6C8
100
AcDbEntity
  8
鏡台
  6
CONTINUOUS
 62
     2
100
AcDbCircle
 10
1176.5
 20
1775.5
 30
0.0
 40
8.5
  0
LINE
  5
6C9
100
AcDbEntity
  8
鏡台
  6
CONTINUOUS
 62
     2
100
AcDbLine
 10
764.529197
 20
1989.318897
 30
0.0
 11
1078.5
 21
1989.318897
 31
0.0
  0
LINE
  5
6CA
100
AcDbEntity
  8
鏡台
  6
CONTINUOUS
 62
     2
100
AcDbLine
 10
771.0
 20
2020.0
 30
0.0
 11
1072.5
 21
2020.0
 31
0.0
  0
LINE
  5
6CB
100
AcDbEntity
  8
鏡台
  6
CONTINUOUS
 62
     2
100
AcDbLine
 10
1071.5
 20
1825.5
 30
0.0
 11
1071.5
 21
1807.460349
 31
0.0
  0
LINE
  5
6CC
100
AcDbEntity
  8
鏡台
  6
CONTINUOUS
 62
     2
100
AcDbLine
 10
621.5
 20
1810.5
 30
0.0
 11
771.4
 21
1810.5
 31
0.0
  0
LINE
  5
6CD
100
AcDbEntity
  8
鏡台
  6
CONTINUOUS
 62
     2
100
AcDbLine
 10
771.4
 20
1825.5
 30
0.0
 11
771.4
 21
1807.460349
 31
0.0
  0
LINE
  5
6CE
100
AcDbEntity
  8
鏡台
  6
CONTINUOUS
 62
     2
100
AcDbLine
 10
1071.5
 20
1810.5
 30
0.0
 11
1221.5
 21
1810.5
 31
0.0
  0
LINE
  5
6CF
100
AcDbEntity
  8
鏡台
  6
CONTINUOUS
 62
     2
100
AcDbLine
 10
629.70437
 20
2560.5
 30
0.0
 11
764.50437
 21
2560.5
 31
0.0
  0
LINE
  5
6D0
100
AcDbEntity
  8
鏡台
  6
CONTINUOUS
 62
     2
100
AcDbLine
 10
629.713933
 20
2340.5
 30
0.0
 11
629.702609
 21
2601.029253
 31
0.0
  0
LINE
  5
6D1
100
AcDbEntity
  8
鏡台
  6
CONTINUOUS
 62
     2
100
AcDbLine
 10
764.513933
 20
2340.5
 30
0.0
 11
764.502609
 21
2601.029253
 31
0.0
  0
LINE
  5
6D2
100
AcDbEntity
  8
鏡台
  6
CONTINUOUS
 62
     2
100
AcDbLine
 10
768.732539
 20
2340.5
 30
0.0
 11
623.767461
 21
2340.5
 31
0.0
  0
LINE
  5
6D3
100
AcDbEntity
  8
鏡台
  6
CONTINUOUS
 62
     2
100
AcDbLine
 10
623.767461
 20
2340.5
 30
0.0
 11
623.767461
 21
2290.5
 31
0.0
  0
LINE
  5
6D4
100
AcDbEntity
  8
鏡台
  6
CONTINUOUS
 62
     2
100
AcDbLine
 10
768.732539
 20
2290.5
 30
0.0
 11
623.767461
 21
2290.5
 31
0.0
  0
LINE
  5
6D5
100
AcDbEntity
  8
鏡台
  6
CONTINUOUS
 62
     2
100
AcDbLine
 10
768.732539
 20
2340.5
 30
0.0
 11
768.732539
 21
2290.5
 31
0.0
  0
LINE
  5
6D6
100
AcDbEntity
  8
鏡台
  6
CONTINUOUS
 62
     2
100
AcDbLine
 10
629.7
 20
2045.0
 30
0.0
 11
629.7
 21
2290.5
 31
0.0
  0
LINE
  5
6D7
100
AcDbEntity
  8
鏡台
  6
CONTINUOUS
 62
     2
100
AcDbLine
 10
764.526777
 20
2045.0
 30
0.0
 11
764.516106
 21
2290.5
 31
0.0
  0
LINE
  5
6D8
100
AcDbEntity
  8
鏡台
  6
CONTINUOUS
 62
     2
100
AcDbLine
 10
768.732539
 20
2045.0
 30
0.0
 11
623.767461
 21
2045.0
 31
0.0
  0
LINE
  5
6D9
100
AcDbEntity
  8
鏡台
  6
CONTINUOUS
 62
     2
100
AcDbLine
 10
623.767461
 20
2045.0
 30
0.0
 11
623.767461
 21
1995.0
 31
0.0
  0
LINE
  5
6DA
100
AcDbEntity
  8
鏡台
  6
CONTINUOUS
 62
     2
100
AcDbLine
 10
768.732539
 20
1995.0
 30
0.0
 11
623.767461
 21
1995.0
 31
0.0
  0
LINE
  5
6DB
100
AcDbEntity
  8
鏡台
  6
CONTINUOUS
 62
     2
100
AcDbLine
 10
768.732539
 20
1995.0
 30
0.0
 11
768.732539
 21
2045.0
 31
0.0
  0
LINE
  5
6DC
100
AcDbEntity
  8
鏡台
  6
CONTINUOUS
 62
     2
100
AcDbLine
 10
629.7
 20
1825.5
 30
0.0
 11
629.7
 21
1995.0
 31
0.0
  0
LINE
  5
6DD
100
AcDbEntity
  8
鏡台
  6
CONTINUOUS
 62
     2
100
AcDbLine
 10
1213.3
 20
1825.5
 30
0.0
 11
1213.3
 21
1995.0
 31
0.0
  0
LINE
  5
6DE
100
AcDbEntity
  8
鏡台
  6
CONTINUOUS
 62
     2
100
AcDbLine
 10
1074.267461
 20
2045.0
 30
0.0
 11
1074.267461
 21
1995.0
 31
0.0
  0
LINE
  5
6DF
100
AcDbEntity
  8
鏡台
  6
CONTINUOUS
 62
     2
100
AcDbLine
 10
1074.267461
 20
2045.0
 30
0.0
 11
1219.232539
 21
2045.0
 31
0.0
  0
LINE
  5
6E0
100
AcDbEntity
  8
鏡台
  6
CONTINUOUS
 62
     2
100
AcDbLine
 10
1219.232539
 20
2045.0
 30
0.0
 11
1219.232539
 21
1995.0
 31
0.0
  0
LINE
  5
6E1
100
AcDbEntity
  8
鏡台
  6
CONTINUOUS
 62
     2
100
AcDbLine
 10
1219.232539
 20
1995.0
 30
0.0
 11
1074.267461
 21
1995.0
 31
0.0
  0
LINE
  5
6E2
100
AcDbEntity
  8
鏡台
  6
CONTINUOUS
 62
     2
100
AcDbLine
 10
1074.267461
 20
2340.5
 30
0.0
 11
1074.267461
 21
2290.5
 31
0.0
  0
LINE
  5
6E3
100
AcDbEntity
  8
鏡台
  6
CONTINUOUS
 62
     2
100
AcDbLine
 10
1074.267461
 20
2340.5
 30
0.0
 11
1219.232539
 21
2340.5
 31
0.0
  0
LINE
  5
6E4
100
AcDbEntity
  8
鏡台
  6
CONTINUOUS
 62
     2
100
AcDbLine
 10
1219.232539
 20
2290.5
 30
0.0
 11
1219.232539
 21
2340.5
 31
0.0
  0
LINE
  5
6E5
100
AcDbEntity
  8
鏡台
  6
CONTINUOUS
 62
     2
100
AcDbLine
 10
1078.5
 20
2340.5
 30
0.0
 11
1078.5
 21
2601.029253
 31
0.0
  0
LINE
  5
6E6
100
AcDbEntity
  8
鏡台
  6
CONTINUOUS
 62
     2
100
AcDbLine
 10
1213.3
 20
2340.5
 30
0.0
 11
1213.3
 21
2601.029253
 31
0.0
  0
LINE
  5
6E7
100
AcDbEntity
  8
鏡台
  6
CONTINUOUS
 62
     2
100
AcDbLine
 10
811.0
 20
2042.5
 30
0.0
 11
791.0
 21
2042.5
 31
0.0
  0
LINE
  5
6E8
100
AcDbEntity
  8
鏡台
  6
EXLTYPE1
 62
     2
100
AcDbLine
 10
811.0
 20
2042.5
 30
0.0
 11
811.0
 21
2032.5
 31
0.0
  0
LINE
  5
6E9
100
AcDbEntity
  8
鏡台
  6
EXLTYPE1
 62
     2
100
AcDbLine
 10
791.0
 20
2042.5
 30
0.0
 11
791.0
 21
2032.5
 31
0.0
  0
LINE
  5
6EA
100
AcDbEntity
  8
鏡台
  6
CONTINUOUS
 62
     2
100
AcDbLine
 10
811.0
 20
2032.5
 30
0.0
 11
791.0
 21
2032.5
 31
0.0
  0
LINE
  5
6EB
100
AcDbEntity
  8
鏡台
  6
CONTINUOUS
 62
     2
100
AcDbLine
 10
771.5
 20
2035.5
 30
0.0
 11
791.0
 21
2035.5
 31
0.0
  0
LINE
  5
6EC
100
AcDbEntity
  8
鏡台
  6
EXLTYPE1
 62
     2
100
AcDbLine
 10
1032.0
 20
2042.5
 30
0.0
 11
1032.0
 21
2032.5
 31
0.0
  0
LINE
  5
6ED
100
AcDbEntity
  8
鏡台
  6
CONTINUOUS
 62
     2
100
AcDbLine
 10
1052.0
 20
2032.5
 30
0.0
 11
1032.0
 21
2032.5
 31
0.0
  0
LINE
  5
6EE
100
AcDbEntity
  8
鏡台
  6
CONTINUOUS
 62
     2
100
AcDbLine
 10
1052.0
 20
2042.5
 30
0.0
 11
1032.0
 21
2042.5
 31
0.0
  0
LINE
  5
6EF
100
AcDbEntity
  8
鏡台
  6
EXLTYPE1
 62
     2
100
AcDbLine
 10
1052.0
 20
2042.5
 30
0.0
 11
1052.0
 21
2032.5
 31
0.0
  0
LINE
  5
6F0
100
AcDbEntity
  8
鏡台
  6
CONTINUOUS
 62
     2
100
AcDbLine
 10
1052.0
 20
2035.5
 30
0.0
 11
1071.5
 21
2035.5
 31
0.0
  0
LINE
  5
6F1
100
AcDbEntity
  8
鏡台
  6
CONTINUOUS
 62
     2
100
AcDbLine
 10
811.0
 20
2035.5
 30
0.0
 11
1032.0
 21
2035.5
 31
0.0
  0
LINE
  5
6F2
100
AcDbEntity
  8
鏡台
  6
CONTINUOUS
 62
     2
100
AcDbLine
 10
1078.5
 20
2045.0
 30
0.0
 11
1078.5
 21
2245.5
 31
0.0
  0
LINE
  5
6F3
100
AcDbEntity
  8
鏡台
  6
CONTINUOUS
 62
     2
100
AcDbLine
 10
1213.3
 20
2045.0
 30
0.0
 11
1213.3
 21
2245.5
 31
0.0
  0
LINE
  5
6F4
100
AcDbEntity
  8
鏡台
  6
CONTINUOUS
 62
     6
100
AcDbLine
 10
1191.5
 20
1840.5
 30
0.0
 11
1264.576697
 21
1840.5
 31
0.0
  0
LINE
  5
6F5
100
AcDbEntity
  8
鏡台
  6
CONTINUOUS
 62
     6
100
AcDbLine
 10
696.5
 20
1775.5
 30
0.0
 11
636.5
 21
1775.5
 31
0.0
  0
LINE
  5
6F6
100
AcDbEntity
  8
鏡台
  6
CONTINUOUS
 62
     6
100
AcDbLine
 10
666.5
 20
1805.5
 30
0.0
 11
666.5
 21
1745.5
 31
0.0
  0
LINE
  5
6F7
100
AcDbEntity
  8
鏡台
  6
CONTINUOUS
 62
     6
100
AcDbLine
 10
1206.5
 20
1775.5
 30
0.0
 11
1146.5
 21
1775.5
 31
0.0
  0
LINE
  5
6F8
100
AcDbEntity
  8
鏡台
  6
CONTINUOUS
 62
     6
100
AcDbLine
 10
1176.5
 20
1805.5
 30
0.0
 11
1176.5
 21
1745.5
 31
0.0
  0
LINE
  5
6F9
100
AcDbEntity
  8
鏡台
  6
CONTINUOUS
 62
     2
100
AcDbLine
 10
1078.5
 20
2560.5
 30
0.0
 11
1213.3
 21
2560.5
 31
0.0
  0
LINE
  5
6FA
100
AcDbEntity
  8
鏡台
  6
CONTINUOUS
 62
     2
100
AcDbLine
 10
764.536318
 20
1825.5
 30
0.0
 11
764.52895
 21
1995.0
 31
0.0
  0
ARC
  5
6FB
100
AcDbEntity
  8
鏡台
  6
CONTINUOUS
 62
     2
100
AcDbCircle
 10
921.5
 20
-67012.5735
 30
0.0
 40
69012.5735
100
AcDbArc
 50
89.875051
 51
90.124949
  0
LINE
  5
6FC
100
AcDbEntity
  8
鏡台
  6
CONTINUOUS
 62
     6
100
AcDbLine
 10
870.333009
 20
2550.333009
 30
0.0
 11
817.3
 21
2497.3
 31
0.0
  0
LINE
  5
6FD
100
AcDbEntity
  8
鏡台
  6
CONTINUOUS
 62
     6
100
AcDbLine
 10
847.693146
 20
2539.006854
 30
0.0
 11
828.743146
 21
2520.056854
 31
0.0
  0
LINE
  5
6FE
100
AcDbEntity
  8
鏡台
  6
CONTINUOUS
 62
     6
100
AcDbLine
 10
864.206854
 20
2532.893146
 30
0.0
 11
834.506854
 21
2503.193146
 31
0.0
  0
LINE
  5
6FF
100
AcDbEntity
  8
鏡台
  6
CONTINUOUS
 62
     6
100
AcDbLine
 10
1032.333009
 20
2377.333009
 30
0.0
 11
979.3
 21
2324.3
 31
0.0
  0
LINE
  5
700
100
AcDbEntity
  8
鏡台
  6
CONTINUOUS
 62
     6
100
AcDbLine
 10
1009.693146
 20
2366.006854
 30
0.0
 11
990.743146
 21
2347.056854
 31
0.0
  0
LINE
  5
701
100
AcDbEntity
  8
鏡台
  6
CONTINUOUS
 62
     6
100
AcDbLine
 10
1026.206854
 20
2359.893146
 30
0.0
 11
996.506854
 21
2330.193146
 31
0.0
  0
LINE
  5
702
100
AcDbEntity
  8
鏡台
  6
CONTINUOUS
 62
     6
100
AcDbLine
 10
896.333009
 20
2195.333009
 30
0.0
 11
843.3
 21
2142.3
 31
0.0
  0
LINE
  5
703
100
AcDbEntity
  8
鏡台
  6
CONTINUOUS
 62
     6
100
AcDbLine
 10
873.693146
 20
2184.006854
 30
0.0
 11
854.743146
 21
2165.056854
 31
0.0
  0
LINE
  5
704
100
AcDbEntity
  8
鏡台
  6
CONTINUOUS
 62
     6
100
AcDbLine
 10
890.206854
 20
2177.893146
 30
0.0
 11
860.506854
 21
2148.193146
 31
0.0
  0
ARC
  5
705
100
AcDbEntity
  8
鏡台
  6
CONTINUOUS
 62
     6
100
AcDbCircle
 10
1076.3
 20
2287.5
 30
0.0
 40
3.0
100
AcDbArc
 50
90.0
 51
180.0
  0
LINE
  5
706
100
AcDbEntity
  8
鏡台
  6
CONTINUOUS
 62
     6
100
AcDbLine
 10
1073.3
 20
2248.5
 30
0.0
 11
1073.3
 21
2287.5
 31
0.0
  0
ARC
  5
707
100
AcDbEntity
  8
鏡台
  6
CONTINUOUS
 62
     6
100
AcDbCircle
 10
1076.3
 20
2248.5
 30
0.0
 40
3.0
100
AcDbArc
 50
180.0
 51
270.0
  0
ARC
  5
708
100
AcDbEntity
  8
鏡台
  6
CONTINUOUS
 62
     6
100
AcDbCircle
 10
1216.2
 20
2248.5
 30
0.0
 40
3.0
100
AcDbArc
 50
270.0
 51
0.0
  0
LINE
  5
709
100
AcDbEntity
  8
鏡台
  6
CONTINUOUS
 62
     6
100
AcDbLine
 10
1219.2
 20
2248.5
 30
0.0
 11
1219.2
 21
2287.5
 31
0.0
  0
ARC
  5
70A
100
AcDbEntity
  8
鏡台
  6
CONTINUOUS
 62
     6
100
AcDbCircle
 10
1216.2
 20
2287.5
 30
0.0
 40
3.0
100
AcDbArc
 50
0.0
 51
90.0
  0
LINE
  5
70B
100
AcDbEntity
  8
鏡台
  6
CONTINUOUS
 62
     6
100
AcDbLine
 10
1155.25
 20
2274.5
 30
0.0
 11
1183.25
 21
2274.5
 31
0.0
  0
LINE
  5
70C
100
AcDbEntity
  8
鏡台
  6
CONTINUOUS
 62
     6
100
AcDbLine
 10
1155.25
 20
2274.5
 30
0.0
 11
1155.25
 21
2251.5
 31
0.0
  0
LINE
  5
70D
100
AcDbEntity
  8
鏡台
  6
CONTINUOUS
 62
     6
100
AcDbLine
 10
1155.25
 20
2251.5
 30
0.0
 11
1183.25
 21
2251.5
 31
0.0
  0
LINE
  5
70E
100
AcDbEntity
  8
鏡台
  6
CONTINUOUS
 62
     6
100
AcDbLine
 10
1183.25
 20
2274.5
 30
0.0
 11
1183.25
 21
2251.5
 31
0.0
  0
LINE
  5
70F
100
AcDbEntity
  8
鏡台
  6
CONTINUOUS
 62
     6
100
AcDbLine
 10
1109.25
 20
2274.5
 30
0.0
 11
1137.25
 21
2274.5
 31
0.0
  0
LINE
  5
710
100
AcDbEntity
  8
鏡台
  6
CONTINUOUS
 62
     6
100
AcDbLine
 10
1109.25
 20
2274.5
 30
0.0
 11
1109.25
 21
2251.5
 31
0.0
  0
LINE
  5
711
100
AcDbEntity
  8
鏡台
  6
CONTINUOUS
 62
     6
100
AcDbLine
 10
1109.25
 20
2251.5
 30
0.0
 11
1137.25
 21
2251.5
 31
0.0
  0
LINE
  5
712
100
AcDbEntity
  8
鏡台
  6
CONTINUOUS
 62
     6
100
AcDbLine
 10
1137.25
 20
2274.5
 30
0.0
 11
1137.25
 21
2251.5
 31
0.0
  0
LINE
  5
713
100
AcDbEntity
  8
鏡台
  6
CONTINUOUS
 62
     6
100
AcDbLine
 10
1131.75
 20
2267.359087
 30
0.0
 11
1131.75
 21
2258.359087
 31
0.0
  0
LINE
  5
714
100
AcDbEntity
  8
鏡台
  6
CONTINUOUS
 62
     6
100
AcDbLine
 10
1162.25
 20
2266.859087
 30
0.0
 11
1162.25
 21
2258.859087
 31
0.0
  0
LINE
  5
715
100
AcDbEntity
  8
鏡台
  6
CONTINUOUS
 62
     6
100
AcDbLine
 10
1176.25
 20
2267.359087
 30
0.0
 11
1176.25
 21
2258.359087
 31
0.0
  0
LINE
  5
716
100
AcDbEntity
  8
鏡台
  6
CONTINUOUS
 62
     2
100
AcDbLine
 10
1072.0
 20
2245.5
 30
0.0
 11
1221.5
 21
2245.5
 31
0.0
  0
LINE
  5
717
100
AcDbEntity
  8
鏡台
  6
CONTINUOUS
 62
     2
100
AcDbLine
 10
1221.5
 20
2290.5
 30
0.0
 11
1072.0
 21
2290.5
 31
0.0
  0
LINE
  5
718
100
AcDbEntity
  8
鏡台
  6
CONTINUOUS
 62
     2
100
AcDbLine
 10
629.702609
 20
2601.029253
 30
0.0
 11
764.502609
 21
2601.029253
 31
0.0
  0
LINE
  5
719
100
AcDbEntity
  8
鏡台
  6
CONTINUOUS
 62
     2
100
AcDbLine
 10
1078.5
 20
2601.029253
 30
0.0
 11
1213.3
 21
2601.029253
 31
0.0
  0
LINE
  5
71A
100
AcDbEntity
  8
鏡台
  6
CONTINUOUS
 62
     2
100
AcDbLine
 10
771.0
 20
2601.029253
 30
0.0
 11
1072.0
 21
2601.029253
 31
0.0
  0
LINE
  5
71B
100
AcDbEntity
  8
鏡台
  6
CONTINUOUS
 62
     2
100
AcDbLine
 10
771.0
 20
1989.318897
 30
0.0
 11
771.0
 21
2601.029253
 31
0.0
  0
LINE
  5
71C
100
AcDbEntity
  8
鏡台
  6
CONTINUOUS
 62
     2
100
AcDbLine
 10
1072.0
 20
1989.318897
 30
0.0
 11
1072.0
 21
2601.029253
 31
0.0
  0
ARC
  5
71D
100
AcDbEntity
  8
鏡台
  6
CONTINUOUS
 62
     2
100
AcDbCircle
 10
1198.983882
 20
2690.684234
 30
0.0
 40
10.0
100
AcDbArc
 50
0.0
 51
90.0
  0
LINE
  5
71E
100
AcDbEntity
  8
鏡台
  6
CONTINUOUS
 62
     2
100
AcDbLine
 10
1198.983882
 20
2700.684234
 30
0.0
 11
643.465233
 21
2700.684234
 31
0.0
  0
ARC
  5
71F
100
AcDbEntity
  8
鏡台
  6
CONTINUOUS
 62
     2
100
AcDbCircle
 10
643.465233
 20
2690.684234
 30
0.0
 40
10.0
100
AcDbArc
 50
90.0
 51
180.0
  0
LINE
  5
720
100
AcDbEntity
  8
鏡台
  6
CONTINUOUS
 62
     2
100
AcDbLine
 10
633.465233
 20
2690.684234
 30
0.0
 11
633.465233
 21
2624.0
 31
0.0
  0
ARC
  5
721
100
AcDbEntity
  8
鏡台
  6
CONTINUOUS
 62
     2
100
AcDbCircle
 10
643.465233
 20
2624.0
 30
0.0
 40
10.0
100
AcDbArc
 50
180.0
 51
270.0
  0
LINE
  5
722
100
AcDbEntity
  8
鏡台
  6
CONTINUOUS
 62
     2
100
AcDbLine
 10
1208.983882
 20
2624.0
 30
0.0
 11
1208.983882
 21
2690.684234
 31
0.0
  0
ARC
  5
723
100
AcDbEntity
  8
鏡台
  6
CONTINUOUS
 62
     2
100
AcDbCircle
 10
1198.983882
 20
2624.0
 30
0.0
 40
10.0
100
AcDbArc
 50
270.0
 51
0.0
  0
LINE
  5
724
100
AcDbEntity
  8
鏡台
  6
CONTINUOUS
 62
     2
100
AcDbLine
 10
1221.5
 20
2614.0
 30
0.0
 11
621.5
 21
2614.0
 31
0.0
  0
LINE
  5
725
100
AcDbEntity
  8
鏡台
  6
CONTINUOUS
 62
     2
100
AcDbLine
 10
1221.5
 20
2604.0
 30
0.0
 11
621.5
 21
2604.0
 31
0.0
  0
LINE
  5
726
100
AcDbEntity
  8
鏡台
  6
CONTINUOUS
 62
     6
100
AcDbLine
 10
666.5
 20
2685.5
 30
0.0
 11
666.5
 21
2625.5
 31
0.0
  0
LINE
  5
727
100
AcDbEntity
  8
鏡台
  6
CONTINUOUS
 62
     6
100
AcDbLine
 10
696.5
 20
2655.5
 30
0.0
 11
636.5
 21
2655.5
 31
0.0
  0
CIRCLE
  5
728
100
AcDbEntity
  8
鏡台
  6
EXLTYPE2
 62
     6
100
AcDbCircle
 10
666.5
 20
2655.5
 30
0.0
 40
8.5
  0
LINE
  5
729
100
AcDbEntity
  8
鏡台
  6
CONTINUOUS
 62
     6
100
AcDbLine
 10
1176.5
 20
2685.5
 30
0.0
 11
1176.5
 21
2625.5
 31
0.0
  0
LINE
  5
72A
100
AcDbEntity
  8
鏡台
  6
CONTINUOUS
 62
     6
100
AcDbLine
 10
1146.5
 20
2655.5
 30
0.0
 11
1206.5
 21
2655.5
 31
0.0
  0
CIRCLE
  5
72B
100
AcDbEntity
  8
鏡台
  6
EXLTYPE2
 62
     6
100
AcDbCircle
 10
1176.5
 20
2655.5
 30
0.0
 40
8.5
  0
LINE
  5
72C
100
AcDbEntity
  8
鏡台
  6
CONTINUOUS
 62
     6
100
AcDbLine
 10
1081.25
 20
2280.5
 30
0.0
 11
1081.25
 21
2245.5
 31
0.0
  0
LINE
  5
72D
100
AcDbEntity
  8
鏡台
  6
CONTINUOUS
 62
     6
100
AcDbLine
 10
1211.25
 20
2280.5
 30
0.0
 11
1211.25
 21
2245.5
 31
0.0
  0
LINE
  5
72E
100
AcDbEntity
  8
鏡台
  6
CONTINUOUS
 62
     6
100
AcDbLine
 10
1081.25
 20
2280.5
 30
0.0
 11
1211.25
 21
2280.5
 31
0.0
  0
ARC
  5
72F
100
AcDbEntity
  8
鏡台
  6
CONTINUOUS
 62
     6
100
AcDbCircle
 10
921.483882
 20
42163.124482
 30
0.0
 40
39467.148438
100
AcDbArc
 50
269.604393
 51
270.395607
  0
ARC
  5
730
100
AcDbEntity
  8
鏡台
  6
CONTINUOUS
 62
     6
100
AcDbCircle
 10
648.910133
 20
2686.91706
 30
0.0
 40
10.0
100
AcDbArc
 50
89.604393
 51
182.037575
  0
ARC
  5
731
100
AcDbEntity
  8
鏡台
  6
CONTINUOUS
 62
     6
100
AcDbCircle
 10
-179.617436
 20
2657.440216
 30
0.0
 40
819.051758
100
AcDbArc
 50
357.95171
 51
2.037575
  0
ARC
  5
732
100
AcDbEntity
  8
鏡台
  6
CONTINUOUS
 62
     6
100
AcDbCircle
 10
648.904606
 20
2627.808426
 30
0.0
 40
10.0
100
AcDbArc
 50
177.95171
 51
270.395615
  0
ARC
  5
733
100
AcDbEntity
  8
鏡台
  6
CONTINUOUS
 62
     6
100
AcDbCircle
 10
921.483882
 20
-36848.398956
 30
0.0
 40
39467.148438
100
AcDbArc
 50
89.604385
 51
90.395615
  0
ARC
  5
734
100
AcDbEntity
  8
鏡台
  6
CONTINUOUS
 62
     6
100
AcDbCircle
 10
1194.063158
 20
2627.808426
 30
0.0
 40
10.0
100
AcDbArc
 50
269.604385
 51
2.04829
  0
ARC
  5
735
100
AcDbEntity
  8
鏡台
  6
CONTINUOUS
 62
     6
100
AcDbCircle
 10
2022.5852
 20
2657.440216
 30
0.0
 40
819.051758
100
AcDbArc
 50
177.962425
 51
182.04829
  0
ARC
  5
736
100
AcDbEntity
  8
鏡台
  6
CONTINUOUS
 62
     6
100
AcDbCircle
 10
1194.057631
 20
2686.91706
 30
0.0
 40
10.0
100
AcDbArc
 50
357.962425
 51
90.395607
  0
LINE
  5
737
100
AcDbEntity
  8
鏡台
  6
CONTINUOUS
 62
     6
100
AcDbLine
 10
1277.107802
 20
1725.912733
 30
0.0
 11
1266.482689
 21
1723.065732
 31
0.0
  0
LINE
  5
738
100
AcDbEntity
  8
鏡台
  6
CONTINUOUS
 62
     6
100
AcDbLine
 10
1273.354862
 20
1739.918608
 30
0.0
 11
1259.504666
 21
1735.585072
 31
0.0
  0
LINE
  5
739
100
AcDbEntity
  8
鏡台
  6
CONTINUOUS
 62
     6
100
AcDbLine
 10
1267.552539
 20
1743.022674
 30
0.0
 11
1258.49753
 21
1740.596338
 31
0.0
  0
LINE
  5
73A
100
AcDbEntity
  8
鏡台
  6
CONTINUOUS
 62
     6
100
AcDbLine
 10
1259.504666
 20
1735.585072
 30
0.0
 11
1255.029978
 21
1757.850197
 31
0.0
  0
LINE
  5
73B
100
AcDbEntity
  8
鏡台
  6
CONTINUOUS
 62
     6
100
AcDbLine
 10
1261.907174
 20
1759.694229
 30
0.0
 11
1268.114596
 21
1741.362756
 31
0.0
  0
LINE
  5
73C
100
AcDbEntity
  8
鏡台
  6
CONTINUOUS
 62
     6
100
AcDbLine
 10
1292.174427
 20
1731.502698
 30
0.0
 11
1276.719542
 21
1727.361631
 31
0.0
  0
LINE
  5
73D
100
AcDbEntity
  8
鏡台
  6
CONTINUOUS
 62
     6
100
AcDbLine
 10
1289.844994
 20
1740.196077
 30
0.0
 11
1274.39023
 21
1736.055
 31
0.0
  0
LINE
  5
73E
100
AcDbEntity
  8
鏡台
  6
CONTINUOUS
 62
     6
100
AcDbLine
 10
1266.482568
 20
1723.065743
 30
0.0
 11
1263.376849
 21
1734.656776
 31
0.0
  0
LINE
  5
73F
100
AcDbEntity
  8
鏡台
  6
CONTINUOUS
 62
     6
100
AcDbLine
 10
1274.001972
 20
1737.503899
 30
0.0
 11
1263.376849
 21
1734.656776
 31
0.0
  0
LINE
  5
740
100
AcDbEntity
  8
鏡台
  6
CONTINUOUS
 62
     6
100
AcDbLine
 10
1273.354862
 20
1739.918608
 30
0.0
 11
1271.828637
 21
1739.454647
 31
0.0
  0
LINE
  5
741
100
AcDbEntity
  8
鏡台
  6
CONTINUOUS
 62
     6
100
AcDbLine
 10
1277.884198
 20
1723.014947
 30
0.0
 11
1264.054394
 21
1720.280077
 31
0.0
  0
LINE
  5
742
100
AcDbEntity
  8
鏡台
  6
CONTINUOUS
 62
     6
100
AcDbLine
 10
1273.354862
 20
1739.918608
 30
0.0
 11
1277.884198
 21
1723.014947
 31
0.0
  0
LINE
  5
743
100
AcDbEntity
  8
鏡台
  6
CONTINUOUS
 62
     6
100
AcDbLine
 10
1259.245785
 20
1734.619096
 30
0.0
 11
1262.894412
 21
1721.00221
 31
0.0
  0
LINE
  5
744
100
AcDbEntity
  8
鏡台
  6
CONTINUOUS
 62
     6
100
AcDbLine
 10
1260.701124
 20
1760.339395
 30
0.0
 11
1255.751516
 21
1759.013172
 31
0.0
  0
ARC
  5
745
100
AcDbEntity
  8
鏡台
  6
CONTINUOUS
 62
     6
100
AcDbCircle
 10
1403.156677
 20
1785.665039
 30
0.0
 40
150.0
100
AcDbArc
 50
184.010986
 51
190.263581
  0
ARC
  5
746
100
AcDbEntity
  8
鏡台
  6
CONTINUOUS
 62
     6
100
AcDbCircle
 10
1408.649475
 20
1785.383301
 30
0.0
 40
150.0
100
AcDbArc
 50
184.385864
 51
189.606282
  0
ARC
  5
747
100
AcDbEntity
  8
鏡台
  6
CONTINUOUS
 62
     6
100
AcDbCircle
 10
1270.956095
 20
1742.324941
 30
0.0
 40
3.0
100
AcDbArc
 50
198.707275
 51
286.909241
  0
ARC
  5
748
100
AcDbEntity
  8
鏡台
  6
CONTINUOUS
 62
     6
100
AcDbCircle
 10
1256.010355
 20
1758.047239
 30
0.0
 40
1.0
100
AcDbArc
 50
105.000061
 51
191.363464
  0
ARC
  5
749
100
AcDbEntity
  8
鏡台
  6
CONTINUOUS
 62
     6
100
AcDbCircle
 10
1260.959963
 20
1759.373463
 30
0.0
 40
1.0
100
AcDbArc
 50
18.707275
 51
105.0
  0
ARC
  5
74A
100
AcDbEntity
  8
鏡台
  6
CONTINUOUS
 62
     6
100
AcDbCircle
 10
1282.383657
 20
1733.538081
 30
0.0
 40
10.0
100
AcDbArc
 50
348.256348
 51
41.743622
  0
ARC
  5
74B
100
AcDbEntity
  8
鏡台
  6
CONTINUOUS
 62
     6
100
AcDbCircle
 10
1263.860344
 20
1721.261049
 30
0.0
 40
1.0
100
AcDbArc
 50
195.0
 51
281.186218
  0
ARC
  5
74C
100
AcDbEntity
  8
鏡台
  6
CONTINUOUS
 62
     6
100
AcDbCircle
 10
1260.211717
 20
1734.877935
 30
0.0
 40
1.0
100
AcDbArc
 50
106.909119
 51
195.0
  0
ARC
  5
74D
100
AcDbEntity
  8
鏡台
  6
CONTINUOUS
 62
     6
100
AcDbCircle
 10
1133.248657
 20
1773.689941
 30
0.0
 40
120.0
100
AcDbArc
 50
4.590393
 51
27.576874
  0
ARC
  5
74E
100
AcDbEntity
  8
鏡台
  6
CONTINUOUS
 62
     6
100
AcDbCircle
 10
1139.144653
 20
1774.916992
 30
0.0
 40
120.0
100
AcDbArc
 50
3.349121
 51
29.221863
  0
ARC
  5
74F
100
AcDbEntity
  8
鏡台
  6
CONTINUOUS
 62
     6
100
AcDbCircle
 10
1221.5
 20
1813.5
 30
0.0
 40
30.0
100
AcDbArc
 50
41.793671
 51
90.0
  0
ARC
  5
750
100
AcDbEntity
  8
鏡台
  6
CONTINUOUS
 62
     6
100
AcDbCircle
 10
1270.956095
 20
1742.324941
 30
0.0
 40
3.0
100
AcDbArc
 50
198.707275
 51
286.909241
  0
ARC
  5
751
100
AcDbEntity
  8
鏡台
  6
CONTINUOUS
 62
     6
100
AcDbCircle
 10
1256.010355
 20
1758.047239
 30
0.0
 40
1.0
100
AcDbArc
 50
105.000061
 51
191.363464
  0
ARC
  5
752
100
AcDbEntity
  8
鏡台
  6
CONTINUOUS
 62
     6
100
AcDbCircle
 10
1260.959963
 20
1759.373463
 30
0.0
 40
1.0
100
AcDbArc
 50
18.707275
 51
105.0
  0
ARC
  5
753
100
AcDbEntity
  8
鏡台
  6
CONTINUOUS
 62
     6
100
AcDbCircle
 10
1282.383657
 20
1733.538081
 30
0.0
 40
10.0
100
AcDbArc
 50
348.256348
 51
41.743622
  0
ARC
  5
754
100
AcDbEntity
  8
鏡台
  6
CONTINUOUS
 62
     6
100
AcDbCircle
 10
1263.860344
 20
1721.261049
 30
0.0
 40
1.0
100
AcDbArc
 50
195.0
 51
281.186218
  0
ARC
  5
755
100
AcDbEntity
  8
鏡台
  6
CONTINUOUS
 62
     6
100
AcDbCircle
 10
1260.211717
 20
1734.877935
 30
0.0
 40
1.0
100
AcDbArc
 50
106.909119
 51
195.0
  0
ARC
  5
756
100
AcDbEntity
  8
鏡台
  6
CONTINUOUS
 62
     6
100
AcDbCircle
 10
1221.5
 20
1813.5
 30
0.0
 40
24.0
100
AcDbArc
 50
40.990967
 51
90.0
  0
ARC
  5
757
100
AcDbEntity
  8
鏡台
  6
CONTINUOUS
 62
     6
100
AcDbCircle
 10
1250.127808
 20
1766.515259
 30
0.0
 40
17.00025
100
AcDbArc
 50
71.928894
 51
128.072876
  0
ARC
  5
758
100
AcDbEntity
  8
鏡台
  6
CONTINUOUS
 62
     6
100
AcDbCircle
 10
1260.674561
 20
1798.838562
 30
0.0
 40
17.000208
100
AcDbArc
 50
251.928955
 51
280.001038
  0
ARC
  5
759
100
AcDbEntity
  8
鏡台
  6
CONTINUOUS
 62
     6
100
AcDbCircle
 10
1260.674683
 20
1798.838379
 30
0.0
 40
17.000029
100
AcDbArc
 50
280.001038
 51
308.073608
  0
ARC
  5
75A
100
AcDbEntity
  8
鏡台
  6
CONTINUOUS
 62
     6
100
AcDbCircle
 10
1250.127808
 20
1758.515259
 30
0.0
 40
17.00025
100
AcDbArc
 50
71.928894
 51
128.072876
  0
ARC
  5
75B
100
AcDbEntity
  8
鏡台
  6
CONTINUOUS
 62
     6
100
AcDbCircle
 10
1260.674561
 20
1790.838562
 30
0.0
 40
17.000208
100
AcDbArc
 50
251.928955
 51
280.001038
  0
ARC
  5
75C
100
AcDbEntity
  8
鏡台
  6
CONTINUOUS
 62
     6
100
AcDbCircle
 10
1260.674683
 20
1790.838379
 30
0.0
 40
17.000029
100
AcDbArc
 50
280.001038
 51
308.073608
  0
DIMENSION
  5
767
100
AcDbEntity
  8
鏡台
  6
CONTINUOUS
 62
     3
100
AcDbDimension
  2
*D17
 10
2450.0
 20
2785.5
 30
0.0
 11
2374.37059
 21
2820.75
 31
0.0
 70
   160
  3
STANDARD
100
AcDbAlignedDimension
 13
2298.74118
 23
2682.202357
 33
0.0
 14
2450.0
 24
2710.5
 34
0.0
100
AcDbRotatedDimension
1001
ACAD
1000
DSTYLE
1002
{
1070
     6
1000
_EX_NORM
1070
     7
1000
_EX_NORM
1070
    41
1040
45.0
1070
    42
1040
10.5
1070
    44
1040
15.0
1070
    73
1070
     0
1070
    74
1070
     0
1070
    75
1070
     0
1070
    76
1070
     1
1070
    77
1070
     1
1070
    78
1070
     0
1070
   140
1040
60.0
1070
   147
1040
5.25
1070
   173
1070
     1
1070
   176
1070
     3
1070
   177
1070
     3
1070
   178
1070
     2
1070
   271
1070
     0
1070
   279
1070
     2
1070
   280
1070
     0
1070
   287
1070
     5
1070
   340
1005
6A6
1002
}
  0
LINE
  5
768
100
AcDbEntity
  8
鏡台
  6
CONTINUOUS
 62
     6
100
AcDbLine
 10
2435.0
 20
1775.5
 30
0.0
 11
2497.5
 21
1775.5
 31
0.0
  0
ARC
  5
769
100
AcDbEntity
  8
鏡台
  6
CONTINUOUS
 62
     2
100
AcDbCircle
 10
2401.85604
 20
1980.344209
 30
0.0
 40
15.0
100
AcDbArc
 50
28.805081
 51
82.0
  0
LINE
  5
76A
100
AcDbEntity
  8
鏡台
  6
CONTINUOUS
 62
     2
100
AcDbLine
 10
2450.0
 20
2710.5
 30
0.0
 11
2450.0
 21
1710.5
 31
0.0
  0
LINE
  5
76B
100
AcDbEntity
  8
鏡台
  6
CONTINUOUS
 62
     2
100
AcDbLine
 10
2362.0
 20
1810.5
 30
0.0
 11
2362.0
 21
1825.5
 31
0.0
  0
LINE
  5
76C
100
AcDbEntity
  8
鏡台
  6
CONTINUOUS
 62
     2
100
AcDbLine
 10
2335.0
 20
2045.0
 30
0.0
 11
2335.0
 21
1995.0
 31
0.0
  0
LINE
  5
76D
100
AcDbEntity
  8
鏡台
  6
CONTINUOUS
 62
     2
100
AcDbLine
 10
2335.0
 20
2045.0
 30
0.0
 11
2415.0
 21
2045.0
 31
0.0
  0
LINE
  5
76E
100
AcDbEntity
  8
鏡台
  6
CONTINUOUS
 62
     2
100
AcDbLine
 10
2335.0
 20
1995.0
 30
0.0
 11
2415.0
 21
1995.0
 31
0.0
  0
LINE
  5
76F
100
AcDbEntity
  8
鏡台
  6
CONTINUOUS
 62
     2
100
AcDbLine
 10
2384.0
 20
2290.5
 30
0.0
 11
2384.0
 21
2245.5
 31
0.0
  0
LINE
  5
770
100
AcDbEntity
  8
鏡台
  6
CONTINUOUS
 62
     2
100
AcDbLine
 10
2384.0
 20
2280.5
 30
0.0
 11
2377.0
 21
2280.5
 31
0.0
  0
LINE
  5
771
100
AcDbEntity
  8
鏡台
  6
CONTINUOUS
 62
     2
100
AcDbLine
 10
2377.0
 20
2280.5
 30
0.0
 11
2377.0
 21
2245.500299
 31
0.0
  0
LINE
  5
772
100
AcDbEntity
  8
鏡台
  6
CONTINUOUS
 62
     2
100
AcDbLine
 10
2384.0
 20
2245.500299
 30
0.0
 11
2377.0
 21
2245.500299
 31
0.0
  0
LINE
  5
773
100
AcDbEntity
  8
鏡台
  6
CONTINUOUS
 62
     2
100
AcDbLine
 10
2335.0
 20
2290.5
 30
0.0
 11
2415.0
 21
2290.5
 31
0.0
  0
LINE
  5
774
100
AcDbEntity
  8
鏡台
  6
CONTINUOUS
 62
     2
100
AcDbLine
 10
2335.0
 20
2340.5
 30
0.0
 11
2335.0
 21
2290.5
 31
0.0
  0
LINE
  5
775
100
AcDbEntity
  8
鏡台
  6
CONTINUOUS
 62
     2
100
AcDbLine
 10
2335.0
 20
2340.5
 30
0.0
 11
2415.0
 21
2340.5
 31
0.0
  0
ARC
  5
776
100
AcDbEntity
  8
鏡台
  6
CONTINUOUS
 62
     2
100
AcDbCircle
 10
2423.0
 20
1713.5
 30
0.0
 40
3.0
100
AcDbArc
 50
180.0
 51
270.0
  0
LINE
  5
777
100
AcDbEntity
  8
鏡台
  6
CONTINUOUS
 62
     2
100
AcDbLine
 10
2362.0
 20
1810.5
 30
0.0
 11
2415.26168
 21
1807.708674
 31
0.0
  0
LINE
  5
778
100
AcDbEntity
  8
鏡台
  6
CONTINUOUS
 62
     2
100
AcDbLine
 10
2420.0
 20
1713.5
 30
0.0
 11
2420.0
 21
1802.715526
 31
0.0
  0
ARC
  5
779
100
AcDbEntity
  8
鏡台
  6
CONTINUOUS
 62
     2
100
AcDbCircle
 10
2415.0
 20
1802.715526
 30
0.0
 40
5.0
100
AcDbArc
 50
0.0
 51
87.000001
  0
LINE
  5
77A
100
AcDbEntity
  8
鏡台
  6
CONTINUOUS
 62
     2
100
AcDbLine
 10
2362.0
 20
1825.5
 30
0.0
 11
2410.0
 21
1825.5
 31
0.0
  0
ARC
  5
77B
100
AcDbEntity
  8
鏡台
  6
CONTINUOUS
 62
     2
100
AcDbCircle
 10
2410.0
 20
1830.5
 30
0.0
 40
5.0
100
AcDbArc
 50
270.0
 51
0.0
  0
LINE
  5
77C
100
AcDbEntity
  8
鏡台
  6
CONTINUOUS
 62
     2
100
AcDbLine
 10
2384.0
 20
2245.5
 30
0.0
 11
2410.087262
 21
2245.044645
 31
0.0
  0
ARC
  5
77D
100
AcDbEntity
  8
鏡台
  6
CONTINUOUS
 62
     2
100
AcDbCircle
 10
2410.0
 20
2240.045407
 30
0.0
 40
5.0
100
AcDbArc
 50
0.0
 51
88.999999
  0
LINE
  5
77E
100
AcDbEntity
  8
鏡台
  6
CONTINUOUS
 62
     6
100
AcDbLine
 10
2377.0
 20
2251.5
 30
0.0
 11
2375.0
 21
2251.5
 31
0.0
  0
LINE
  5
77F
100
AcDbEntity
  8
鏡台
  6
CONTINUOUS
 62
     6
100
AcDbLine
 10
2375.0
 20
2274.5
 30
0.0
 11
2375.0
 21
2251.5
 31
0.0
  0
LINE
  5
780
100
AcDbEntity
  8
鏡台
  6
CONTINUOUS
 62
     6
100
AcDbLine
 10
2377.0
 20
2274.5
 30
0.0
 11
2375.0
 21
2274.5
 31
0.0
  0
LINE
  5
781
100
AcDbEntity
  8
鏡台
  6
CONTINUOUS
 62
     6
100
AcDbLine
 10
2375.0
 20
2254.5
 30
0.0
 11
2372.0
 21
2254.5
 31
0.0
  0
LINE
  5
782
100
AcDbEntity
  8
鏡台
  6
CONTINUOUS
 62
     6
100
AcDbLine
 10
2372.0
 20
2271.5
 30
0.0
 11
2372.0
 21
2254.5
 31
0.0
  0
LINE
  5
783
100
AcDbEntity
  8
鏡台
  6
CONTINUOUS
 62
     6
100
AcDbLine
 10
2375.0
 20
2271.5
 30
0.0
 11
2372.0
 21
2271.5
 31
0.0
  0
LINE
  5
784
100
AcDbEntity
  8
鏡台
  6
CONTINUOUS
 62
     2
100
AcDbLine
 10
2401.878458
 20
2614.118024
 30
0.0
 11
2333.869412
 21
2614.118045
 31
0.0
  0
ARC
  5
785
100
AcDbEntity
  8
鏡台
  6
CONTINUOUS
 62
     2
100
AcDbCircle
 10
2333.86942
 20
2634.118023
 30
0.0
 40
20.0
100
AcDbArc
 50
203.031494
 51
270.0
  0
ARC
  5
786
100
AcDbEntity
  8
鏡台
  6
CONTINUOUS
 62
     2
100
AcDbCircle
 10
2563.941904
 20
2731.927355
 30
0.0
 40
270.0
100
AcDbArc
 50
191.025757
 51
203.031494
  0
ARC
  5
787
100
AcDbEntity
  8
鏡台
  6
CONTINUOUS
 62
     2
100
AcDbCircle
 10
2308.74118
 20
2682.202357
 30
0.0
 40
10.0
100
AcDbArc
 50
94.000031
 51
191.025757
  0
LINE
  5
788
100
AcDbEntity
  8
鏡台
  6
CONTINUOUS
 62
     2
100
AcDbLine
 10
2308.043613
 20
2692.177985
 30
0.0
 11
2415.0
 21
2699.65711
 31
0.0
  0
LINE
  5
789
100
AcDbEntity
  8
鏡台
  6
CONTINUOUS
 62
     2
100
AcDbLine
 10
2415.0
 20
2628.578095
 30
0.0
 11
2415.0
 21
2709.312682
 31
0.0
  0
LINE
  5
78A
100
AcDbEntity
  8
鏡台
  6
CONTINUOUS
 62
     2
100
AcDbLine
 10
2450.0
 20
2710.5
 30
0.0
 11
2415.0
 21
2709.312682
 31
0.0
  0
LINE
  5
78B
100
AcDbEntity
  8
鏡台
  6
CONTINUOUS
 62
     2
100
AcDbLine
 10
2400.0
 20
2613.999939
 30
0.0
 11
2395.0
 21
2613.999939
 31
0.0
  0
ARC
  5
78C
100
AcDbEntity
  8
鏡台
  6
CONTINUOUS
 62
     2
100
AcDbCircle
 10
2400.0
 20
2628.999939
 30
0.0
 40
15.0
100
AcDbArc
 50
270.0
 51
0.0
  0
LINE
  5
78D
100
AcDbEntity
  8
鏡台
  6
CONTINUOUS
 62
     2
100
AcDbLine
 10
2395.0
 20
2603.999939
 30
0.0
 11
2395.0
 21
2613.999939
 31
0.0
  0
LINE
  5
78E
100
AcDbEntity
  8
鏡台
  6
CONTINUOUS
 62
     2
100
AcDbLine
 10
2415.0
 20
2600.999939
 30
0.0
 11
2415.0
 21
1830.5
 31
0.0
  0
LINE
  5
78F
100
AcDbEntity
  8
鏡台
  6
CONTINUOUS
 62
     2
100
AcDbLine
 10
2395.0
 20
2603.999939
 30
0.0
 11
2415.0
 21
2600.999939
 31
0.0
  0
LINE
  5
790
100
AcDbEntity
  8
鏡台
  6
CONTINUOUS
 62
     6
100
AcDbLine
 10
2435.0
 20
2655.5
 30
0.0
 11
2497.5
 21
2655.5
 31
0.0
  0
ARC
  5
791
100
AcDbEntity
  8
鏡台
  6
CONTINUOUS
 62
     6
100
AcDbCircle
 10
2337.007777
 20
2684.178943
 30
0.0
 40
10.0
100
AcDbArc
 50
94.000061
 51
187.019409
  0
ARC
  5
792
100
AcDbEntity
  8
鏡台
  6
CONTINUOUS
 62
     6
100
AcDbCircle
 10
2595.058895
 20
2715.952687
 30
0.0
 40
270.0
100
AcDbArc
 50
187.01947
 51
199.909058
  0
ARC
  5
793
100
AcDbEntity
  8
鏡台
  6
CONTINUOUS
 62
     6
100
AcDbCircle
 10
2355.299159
 20
2629.118052
 30
0.0
 40
15.0
100
AcDbArc
 50
199.909058
 51
270.0
  0
LINE
  5
794
100
AcDbEntity
  8
鏡台
  6
CONTINUOUS
 62
     6
100
AcDbLine
 10
2450.0
 20
1777.5
 30
0.0
 11
2482.5
 21
1775.5
 31
0.0
  0
LINE
  5
795
100
AcDbEntity
  8
鏡台
  6
CONTINUOUS
 62
     6
100
AcDbLine
 10
2482.5
 20
1775.5
 30
0.0
 11
2450.0
 21
1773.5
 31
0.0
  0
LINE
  5
796
100
AcDbEntity
  8
鏡台
  6
CONTINUOUS
 62
     6
100
AcDbLine
 10
2450.0
 20
2657.5
 30
0.0
 11
2482.5
 21
2655.5
 31
0.0
  0
LINE
  5
797
100
AcDbEntity
  8
鏡台
  6
CONTINUOUS
 62
     6
100
AcDbLine
 10
2482.5
 20
2655.5
 30
0.0
 11
2450.0
 21
2653.5
 31
0.0
  0
LINE
  5
798
100
AcDbEntity
  8
鏡台
  6
CONTINUOUS
 62
     2
100
AcDbLine
 10
2450.0
 20
1710.5
 30
0.0
 11
2431.847252
 21
1710.5
 31
0.0
  0
LINE
  5
799
100
AcDbEntity
  8
鏡台
  6
CONTINUOUS
 62
     2
100
AcDbLine
 10
1078.5
 20
1825.5
 30
0.0
 11
1078.5
 21
1995.0
 31
0.0
  0
LINE
  5
79A
100
AcDbEntity
  8
鏡台
  6
CONTINUOUS
 62
     2
100
AcDbLine
 10
1221.5
 20
1825.5
 30
0.0
 11
621.5
 21
1825.5
 31
0.0
  0
LINE
  5
79B
100
AcDbEntity
  8
鏡台
  6
CONTINUOUS
 62
     2
100
AcDbLine
 10
771.4
 20
1807.460349
 30
0.0
 11
911.120064
 21
1807.460349
 31
0.0
  0
LINE
  5
79C
100
AcDbEntity
  8
鏡台
  6
CONTINUOUS
 62
     2
100
AcDbLine
 10
931.879935
 20
1807.460349
 30
0.0
 11
1071.5
 21
1807.460349
 31
0.0
  0
LINE
  5
79D
100
AcDbEntity
  8
鏡台
  6
CONTINUOUS
 62
     2
100
AcDbLine
 10
626.5
 20
1710.5
 30
0.0
 11
893.148453
 21
1710.5
 31
0.0
  0
LINE
  5
79E
100
AcDbEntity
  8
鏡台
  6
CONTINUOUS
 62
     2
100
AcDbLine
 10
949.851546
 20
1710.5
 30
0.0
 11
1216.5
 21
1710.5
 31
0.0
  0
TEXT
  5
79F
100
AcDbEntity
  8
鏡台
  6
CONTINUOUS
 62
     2
100
AcDbText
 10
1302.0
 20
4141.5
 30
0.0
 40
60.0
  1
コード長さ：１ｍ
 41
0.693
  7
EXCADSTD
 72
     5
 11
1697.999999
 21
4141.5
 31
0.0
100
AcDbText
  0
LEADER
  5
7A0
100
AcDbEntity
  8
鏡台
  6
CONTINUOUS
 62
     3
100
AcDbLeader
  3
STANDARD
 73
     3
 74
     1
 75
     0
 40
0.0
 76
     3
 10
1243.872957
 20
3960.500118
 30
0.0
 10
1302.0
 20
4141.5
 30
0.0
 10
1692.0
 20
4141.5
 30
0.0
 77
     3
1001
ACAD
1000
DSTYLE
1002
{
1070
    41
1040
45.0
1070
     5
1000
_EX_NORM
1070
     6
1000
_EX_NORM
1070
     7
1000
_EX_NORM
1070
   341
1005
2B
1002
}
  0
POLYLINE
  5
7A1
100
AcDbEntity
  8
付属金具
  6
CONTINUOUS
 62
     3
100
AcDb2dPolyline
 66
     1
 10
0.0
 20
0.0
 30
0.0
 70
   128
  0
VERTEX
  5
7A2
100
AcDbEntity
  8
付属金具
  6
CONTINUOUS
 62
     3
100
AcDbVertex
100
AcDb2dVertex
 10
1948.0
 20
915.5
 30
0.0
  0
VERTEX
  5
7A3
100
AcDbEntity
  8
付属金具
  6
CONTINUOUS
 62
     3
100
AcDbVertex
100
AcDb2dVertex
 10
1929.0
 20
964.5
 30
0.0
  0
SEQEND
  5
7A4
100
AcDbEntity
  8
付属金具
  6
CONTINUOUS
 62
     3
  0
LINE
  5
7A5
100
AcDbEntity
  8
付属金具
  6
CONTINUOUS
 62
     3
100
AcDbLine
 10
1924.738537
 20
954.7448
 30
0.0
 11
1948.0
 21
915.5
 31
0.0
  0
LINE
  5
7A6
100
AcDbEntity
  8
付属金具
  6
CONTINUOUS
 62
     3
100
AcDbLine
 10
1948.0
 20
915.5
 30
0.0
 11
1938.723956
 21
960.167718
 31
0.0
  0
DIMENSION
  5
7B1
100
AcDbEntity
  8
付属金具
  6
CONTINUOUS
 62
     3
100
AcDbDimension
  2
*D18
 10
2750.0
 20
915.5
 30
0.0
 11
2714.75
 21
1345.5
 31
0.0
 70
   160
  3
STANDARD
100
AcDbAlignedDimension
 13
2750.0
 23
1775.5
 33
0.0
 14
2660.0
 24
915.5
 34
0.0
 50
90.0
100
AcDbRotatedDimension
1001
ACAD
1000
DSTYLE
1002
{
1070
     6
1000
_EX_NORM
1070
     7
1000
_EX_NORM
1070
    41
1040
45.0
1070
    42
1040
10.5
1070
    44
1040
15.0
1070
    73
1070
     0
1070
    74
1070
     0
1070
    75
1070
     1
1070
    76
1070
     0
1070
    77
1070
     1
1070
    78
1070
     8
1070
   140
1040
60.0
1070
   147
1040
5.25
1070
   173
1070
     1
1070
   176
1070
     3
1070
   177
1070
     3
1070
   178
1070
     2
1070
   271
1070
     2
1070
   279
1070
     2
1070
   280
1070
     0
1070
   287
1070
     5
1070
   340
1005
6A6
1002
}
  0
CIRCLE
  5
7B2
100
AcDbEntity
  8
付属金具
  6
CONTINUOUS
 62
     6
100
AcDbCircle
 10
951.523343
 20
3751.572438
 30
0.0
 40
3.0
  0
CIRCLE
  5
7B3
100
AcDbEntity
  8
付属金具
  6
CONTINUOUS
 62
     6
100
AcDbCircle
 10
957.9
 20
3757.6
 30
0.0
 40
3.0
  0
CIRCLE
  5
7B4
100
AcDbEntity
  8
付属金具
  6
CONTINUOUS
 62
     6
100
AcDbCircle
 10
963.7
 20
3765.3
 30
0.0
 40
3.0
  0
CIRCLE
  5
7B5
100
AcDbEntity
  8
付属金具
  6
CONTINUOUS
 62
     6
100
AcDbCircle
 10
969.5
 20
3772.6
 30
0.0
 40
3.0
  0
CIRCLE
  5
7B6
100
AcDbEntity
  8
付属金具
  6
CONTINUOUS
 62
     6
100
AcDbCircle
 10
973.3
 20
3780.8
 30
0.0
 40
3.0
  0
CIRCLE
  5
7B7
100
AcDbEntity
  8
付属金具
  6
CONTINUOUS
 62
     6
100
AcDbCircle
 10
975.3
 20
3789.5
 30
0.0
 40
3.0
  0
CIRCLE
  5
7B8
100
AcDbEntity
  8
付属金具
  6
CONTINUOUS
 62
     6
100
AcDbCircle
 10
971.9
 20
3797.7
 30
0.0
 40
3.0
  0
CIRCLE
  5
7B9
100
AcDbEntity
  8
付属金具
  6
CONTINUOUS
 62
     6
100
AcDbCircle
 10
967.6
 20
3805.4
 30
0.0
 40
3.0
  0
CIRCLE
  5
7BA
100
AcDbEntity
  8
付属金具
  6
CONTINUOUS
 62
     6
100
AcDbCircle
 10
960.3
 20
3810.7
 30
0.0
 40
3.0
  0
CIRCLE
  5
7BB
100
AcDbEntity
  8
付属金具
  6
CONTINUOUS
 62
     6
100
AcDbCircle
 10
952.6
 20
3816.5
 30
0.0
 40
3.0
  0
CIRCLE
  5
7BC
100
AcDbEntity
  8
付属金具
  6
CONTINUOUS
 62
     6
100
AcDbCircle
 10
941.692003
 20
3746.269144
 30
0.0
 40
3.0
  0
LINE
  5
7BD
100
AcDbEntity
  8
付属金具
  6
CONTINUOUS
 62
     6
100
AcDbLine
 10
972.5
 20
3915.5
 30
0.0
 11
972.5
 21
3835.5
 31
0.0
  0
LINE
  5
7BE
100
AcDbEntity
  8
付属金具
  6
CONTINUOUS
 62
     6
100
AcDbLine
 10
870.5
 20
3915.5
 30
0.0
 11
870.5
 21
3835.5
 31
0.0
  0
TEXT
  5
7BF
100
AcDbEntity
  8
付属金具
  6
CONTINUOUS
 62
     2
100
AcDbText
 10
1821.5
 20
915.5
 30
0.0
 40
60.0
  1
F.L.
 41
0.4125
  7
EXCADSTD
 72
     5
 11
1912.2434
 21
915.5
 31
0.0
100
AcDbText
  0
LINE
  5
7C0
100
AcDbEntity
  8
付属金具
  6
EXLTYPE4
 62
     6
100
AcDbLine
 10
2450.0
 20
915.5
 30
0.0
 11
1814.5
 21
915.5
 31
0.0
  0
LINE
  5
7C1
100
AcDbEntity
  8
付属金具
  6
EXLTYPE2
 62
     6
100
AcDbLine
 10
2348.15696
 20
1505.5
 30
0.0
 11
2358.65
 21
1432.048719
 31
0.0
  0
LINE
  5
7C2
100
AcDbEntity
  8
付属金具
  6
EXLTYPE2
 62
     6
100
AcDbLine
 10
2360.985897
 20
1505.5
 30
0.0
 11
2371.35
 21
1432.951281
 31
0.0
  0
LINE
  5
7C3
100
AcDbEntity
  8
付属金具
  6
EXLTYPE3
 62
     6
100
AcDbLine
 10
996.5
 20
1130.5
 30
0.0
 11
996.5
 21
892.499969
 31
0.0
  0
LINE
  5
7C4
100
AcDbEntity
  8
付属金具
  6
CONTINUOUS
 62
     6
100
AcDbLine
 10
1006.5
 20
915.49301
 30
0.0
 11
1006.352295
 21
908.727081
 31
0.0
  0
LINE
  5
7C5
100
AcDbEntity
  8
付属金具
  6
CONTINUOUS
 62
     6
100
AcDbLine
 10
1006.352295
 20
908.727081
 30
0.0
 11
1005.125183
 21
907.499969
 31
0.0
  0
LINE
  5
7C6
100
AcDbEntity
  8
付属金具
  6
CONTINUOUS
 62
     6
100
AcDbLine
 10
1005.125183
 20
907.499969
 30
0.0
 11
987.874817
 21
907.499969
 31
0.0
  0
LINE
  5
7C7
100
AcDbEntity
  8
付属金具
  6
CONTINUOUS
 62
     6
100
AcDbLine
 10
987.874817
 20
907.499969
 30
0.0
 11
986.647858
 21
908.727081
 31
0.0
  0
LINE
  5
7C8
100
AcDbEntity
  8
付属金具
  6
CONTINUOUS
 62
     6
100
AcDbLine
 10
986.647858
 20
908.727081
 30
0.0
 11
986.5
 21
915.5
 31
0.0
  0
LINE
  5
7C9
100
AcDbEntity
  8
付属金具
  6
EXLTYPE4
 62
     6
100
AcDbLine
 10
986.5
 20
915.5
 30
0.0
 11
986.5
 21
1115.5
 31
0.0
  0
LINE
  5
7CA
100
AcDbEntity
  8
付属金具
  6
EXLTYPE4
 62
     6
100
AcDbLine
 10
1006.5
 20
1115.5
 30
0.0
 11
1006.5
 21
915.49301
 31
0.0
  0
LINE
  5
7CB
100
AcDbEntity
  8
付属金具
  6
EXLTYPE3
 62
     6
100
AcDbLine
 10
846.5
 20
1130.5
 30
0.0
 11
846.5
 21
892.499969
 31
0.0
  0
LINE
  5
7CC
100
AcDbEntity
  8
付属金具
  6
CONTINUOUS
 62
     6
100
AcDbLine
 10
856.5
 20
915.49301
 30
0.0
 11
856.352295
 21
908.727081
 31
0.0
  0
LINE
  5
7CD
100
AcDbEntity
  8
付属金具
  6
CONTINUOUS
 62
     6
100
AcDbLine
 10
856.352295
 20
908.727081
 30
0.0
 11
855.125183
 21
907.499969
 31
0.0
  0
LINE
  5
7CE
100
AcDbEntity
  8
付属金具
  6
CONTINUOUS
 62
     6
100
AcDbLine
 10
855.125183
 20
907.499969
 30
0.0
 11
837.874817
 21
907.499969
 31
0.0
  0
LINE
  5
7CF
100
AcDbEntity
  8
付属金具
  6
CONTINUOUS
 62
     6
100
AcDbLine
 10
837.874817
 20
907.499969
 30
0.0
 11
836.647858
 21
908.727081
 31
0.0
  0
LINE
  5
7D0
100
AcDbEntity
  8
付属金具
  6
CONTINUOUS
 62
     6
100
AcDbLine
 10
836.647858
 20
908.727081
 30
0.0
 11
836.5
 21
915.5
 31
0.0
  0
LINE
  5
7D1
100
AcDbEntity
  8
付属金具
  6
EXLTYPE4
 62
     6
100
AcDbLine
 10
836.5
 20
915.5
 30
0.0
 11
836.5
 21
1115.5
 31
0.0
  0
LINE
  5
7D2
100
AcDbEntity
  8
付属金具
  6
EXLTYPE4
 62
     6
100
AcDbLine
 10
856.5
 20
1115.5
 30
0.0
 11
856.5
 21
915.49301
 31
0.0
  0
LINE
  5
7D3
100
AcDbEntity
  8
付属金具
  6
EXLTYPE2
 62
     6
100
AcDbLine
 10
971.891068
 20
1484.696886
 30
0.0
 11
990.15
 21
1431.441667
 31
0.0
  0
LINE
  5
7D4
100
AcDbEntity
  8
付属金具
  6
EXLTYPE2
 62
     6
100
AcDbLine
 10
984.201613
 20
1487.949462
 30
0.0
 11
1002.85
 21
1433.558333
 31
0.0
  0
LINE
  5
7D5
100
AcDbEntity
  8
付属金具
  6
EXLTYPE2
 62
     6
100
AcDbLine
 10
858.798387
 20
1487.949462
 30
0.0
 11
840.15
 21
1433.558333
 31
0.0
  0
LINE
  5
7D6
100
AcDbEntity
  8
付属金具
  6
EXLTYPE2
 62
     6
100
AcDbLine
 10
871.108932
 20
1484.696886
 30
0.0
 11
852.85
 21
1431.441667
 31
0.0
  0
LINE
  5
7D7
100
AcDbEntity
  8
付属金具
  6
CONTINUOUS
 62
     6
100
AcDbLine
 10
2355.0
 20
1782.355808
 30
0.0
 11
2355.0
 21
1683.0
 31
0.0
  0
LINE
  5
7D8
100
AcDbEntity
  8
付属金具
  6
CONTINUOUS
 62
     6
100
AcDbLine
 10
870.5
 20
1782.355808
 30
0.0
 11
870.5
 21
1672.8
 31
0.0
  0
LINE
  5
7D9
100
AcDbEntity
  8
付属金具
  6
CONTINUOUS
 62
     6
100
AcDbLine
 10
972.5
 20
1782.355808
 30
0.0
 11
972.5
 21
1672.8
 31
0.0
  0
ARC
  5
7DA
100
AcDbEntity
  8
付属金具
  6
CONTINUOUS
 62
     6
100
AcDbCircle
 10
2381.10588
 20
1284.5
 30
0.0
 40
6.5
100
AcDbArc
 50
270.0
 51
318.84583
  0
ARC
  5
7DB
100
AcDbEntity
  8
付属金具
  6
CONTINUOUS
 62
     6
100
AcDbCircle
 10
2381.10588
 20
1246.5
 30
0.0
 40
6.5
100
AcDbArc
 50
41.15417
 51
90.0
  0
LINE
  5
7DC
100
AcDbEntity
  8
付属金具
  6
CONTINUOUS
 62
     6
100
AcDbLine
 10
2391.572541
 20
1280.222432
 30
0.0
 11
2386.0
 21
1280.222432
 31
0.0
  0
LINE
  5
7DD
100
AcDbEntity
  8
付属金具
  6
CONTINUOUS
 62
     6
100
AcDbLine
 10
2391.572541
 20
1250.777568
 30
0.0
 11
2386.0
 21
1250.777568
 31
0.0
  0
ARC
  5
7DE
100
AcDbEntity
  8
付属金具
  6
CONTINUOUS
 62
     6
100
AcDbCircle
 10
2351.0
 20
1281.5
 30
0.0
 40
3.5
100
AcDbArc
 50
270.0
 51
0.0
  0
ARC
  5
7DF
100
AcDbEntity
  8
付属金具
  6
CONTINUOUS
 62
     6
100
AcDbCircle
 10
2379.0
 20
1281.5
 30
0.0
 40
3.5
100
AcDbArc
 50
180.0
 51
270.0
  0
LINE
  5
7E0
100
AcDbEntity
  8
付属金具
  6
CONTINUOUS
 62
     6
100
AcDbLine
 10
2379.0
 20
1278.0
 30
0.0
 11
2381.10588
 21
1278.0
 31
0.0
  0
LINE
  5
7E1
100
AcDbEntity
  8
付属金具
  6
CONTINUOUS
 62
     6
100
AcDbLine
 10
2337.6
 20
1260.2
 30
0.0
 11
2337.6
 21
1270.8
 31
0.0
  0
ARC
  5
7E2
100
AcDbEntity
  8
付属金具
  6
CONTINUOUS
 62
     6
100
AcDbCircle
 10
2346.725083
 20
1256.75
 30
0.0
 40
5.5
100
AcDbArc
 50
217.187626
 51
313.341758
  0
ARC
  5
7E3
100
AcDbEntity
  8
付属金具
  6
CONTINUOUS
 62
     6
100
AcDbCircle
 10
2346.725083
 20
1274.25
 30
0.0
 40
5.5
100
AcDbArc
 50
46.658242
 51
142.812374
  0
LINE
  5
7E4
100
AcDbEntity
  8
付属金具
  6
CONTINUOUS
 62
     6
100
AcDbLine
 10
2350.5
 20
1278.0
 30
0.0
 11
2351.0
 21
1278.0
 31
0.0
  0
LINE
  5
7E5
100
AcDbEntity
  8
付属金具
  6
CONTINUOUS
 62
     6
100
AcDbLine
 10
2354.5
 20
1281.5
 30
0.0
 11
2354.5
 21
1288.2
 31
0.0
  0
LINE
  5
7E6
100
AcDbEntity
  8
付属金具
  6
CONTINUOUS
 62
     6
100
AcDbLine
 10
2375.5
 20
1281.5
 30
0.0
 11
2375.5
 21
1288.2
 31
0.0
  0
LINE
  5
7E7
100
AcDbEntity
  8
付属金具
  6
CONTINUOUS
 62
     6
100
AcDbLine
 10
2332.0
 20
1270.25
 30
0.0
 11
2337.6
 21
1270.25
 31
0.0
  0
LINE
  5
7E8
100
AcDbEntity
  8
付属金具
  6
CONTINUOUS
 62
     6
100
AcDbLine
 10
2332.0
 20
1260.75
 30
0.0
 11
2337.6
 21
1260.75
 31
0.0
  0
LINE
  5
7E9
100
AcDbEntity
  8
付属金具
  6
CONTINUOUS
 62
     6
100
AcDbLine
 10
2332.0
 20
1270.25
 30
0.0
 11
2332.0
 21
1260.75
 31
0.0
  0
LINE
  5
7EA
100
AcDbEntity
  8
付属金具
  6
EXLTYPE2
 62
     6
100
AcDbLine
 10
2350.5
 20
1253.0
 30
0.0
 11
2381.10588
 21
1253.0
 31
0.0
  0
LINE
  5
7EB
100
AcDbEntity
  8
付属金具
  6
EXLTYPE2
 62
     6
100
AcDbLine
 10
2350.5
 20
1252.75
 30
0.0
 11
2350.5
 21
1278.25
 31
0.0
  0
LINE
  5
7EC
100
AcDbEntity
  8
付属金具
  6
EXLTYPE2
 62
     6
100
AcDbLine
 10
2337.6
 20
1270.8
 30
0.0
 11
2342.34345
 21
1277.574349
 31
0.0
  0
LINE
  5
7ED
100
AcDbEntity
  8
付属金具
  6
EXLTYPE2
 62
     6
100
AcDbLine
 10
2337.6
 20
1260.2
 30
0.0
 11
2342.34345
 21
1253.425651
 31
0.0
  0
LINE
  5
7EE
100
AcDbEntity
  8
付属金具
  6
EXLTYPE2
 62
     6
100
AcDbLine
 10
2354.030456
 20
1288.2
 30
0.0
 11
2375.969544
 21
1288.2
 31
0.0
  0
ARC
  5
7EF
100
AcDbEntity
  8
付属金具
  6
EXLTYPE2
 62
     6
100
AcDbCircle
 10
2363.25
 20
1294.2
 30
0.0
 40
11.0
100
AcDbArc
 50
146.944269
 51
213.055731
  0
ARC
  5
7F0
100
AcDbEntity
  8
付属金具
  6
EXLTYPE2
 62
     6
100
AcDbCircle
 10
2366.75
 20
1294.2
 30
0.0
 40
11.0
100
AcDbArc
 50
326.944269
 51
33.055731
  0
LINE
  5
7F1
100
AcDbEntity
  8
付属金具
  6
EXLTYPE2
 62
     6
100
AcDbLine
 10
2342.34345
 20
1277.574349
 30
0.0
 11
2342.34345
 21
1253.425651
 31
0.0
  0
LINE
  5
7F2
100
AcDbEntity
  8
付属金具
  6
EXLTYPE2
 62
     6
100
AcDbLine
 10
2354.030456
 20
1300.2
 30
0.0
 11
2375.969544
 21
1300.2
 31
0.0
  0
LINE
  5
7F3
100
AcDbEntity
  8
付属金具
  6
CONTINUOUS
 62
     6
100
AcDbLine
 10
2317.0
 20
1265.5
 30
0.0
 11
2473.0
 21
1265.5
 31
0.0
  0
LINE
  5
7F4
100
AcDbEntity
  8
付属金具
  6
CONTINUOUS
 62
     6
100
AcDbLine
 10
2450.0
 20
1255.0
 30
0.0
 11
2458.0
 21
1255.0
 31
0.0
  0
LINE
  5
7F5
100
AcDbEntity
  8
付属金具
  6
CONTINUOUS
 62
     6
100
AcDbLine
 10
2458.0
 20
1276.0
 30
0.0
 11
2458.0
 21
1255.0
 31
0.0
  0
LINE
  5
7F6
100
AcDbEntity
  8
付属金具
  6
CONTINUOUS
 62
     6
100
AcDbLine
 10
2450.0
 20
1276.0
 30
0.0
 11
2458.0
 21
1276.0
 31
0.0
  0
LINE
  5
7F7
100
AcDbEntity
  8
付属金具
  6
EXLTYPE2
 62
     6
100
AcDbLine
 10
2393.0
 20
1276.0
 30
0.0
 11
2450.0
 21
1276.0
 31
0.0
  0
LINE
  5
7F8
100
AcDbEntity
  8
付属金具
  6
EXLTYPE2
 62
     6
100
AcDbLine
 10
2393.0
 20
1255.0
 30
0.0
 11
2450.0
 21
1255.0
 31
0.0
  0
LINE
  5
7F9
100
AcDbEntity
  8
付属金具
  6
EXLTYPE2
 62
     6
100
AcDbLine
 10
2393.0
 20
1277.75
 30
0.0
 11
2393.0
 21
1253.25
 31
0.0
  0
LINE
  5
7FA
100
AcDbEntity
  8
付属金具
  6
CONTINUOUS
 62
     6
100
AcDbLine
 10
2393.0
 20
1277.75
 30
0.0
 11
2391.572541
 21
1280.222432
 31
0.0
  0
LINE
  5
7FB
100
AcDbEntity
  8
付属金具
  6
CONTINUOUS
 62
     6
100
AcDbLine
 10
2393.0
 20
1253.25
 30
0.0
 11
2391.572541
 21
1250.777568
 31
0.0
  0
LINE
  5
7FC
100
AcDbEntity
  8
付属金具
  6
EXLTYPE2
 62
     6
100
AcDbLine
 10
2371.35
 20
1300.2
 30
0.0
 11
2371.35
 21
1432.951281
 31
0.0
  0
LINE
  5
7FD
100
AcDbEntity
  8
付属金具
  6
EXLTYPE2
 62
     6
100
AcDbLine
 10
2358.65
 20
1300.2
 30
0.0
 11
2358.65
 21
1432.048719
 31
0.0
  0
LINE
  5
7FE
100
AcDbEntity
  8
付属金具
  6
CONTINUOUS
 62
     6
100
AcDbLine
 10
1009.5
 20
1259.663691
 30
0.0
 11
1009.5
 21
1271.336309
 31
0.0
  0
LINE
  5
7FF
100
AcDbEntity
  8
付属金具
  6
CONTINUOUS
 62
     6
100
AcDbLine
 10
995.054392
 20
1279.676485
 30
0.0
 11
984.945608
 21
1273.840176
 31
0.0
  0
LINE
  5
800
100
AcDbEntity
  8
付属金具
  6
CONTINUOUS
 62
     6
100
AcDbLine
 10
984.945608
 20
1257.159824
 30
0.0
 11
995.054392
 21
1251.323515
 31
0.0
  0
ARC
  5
801
100
AcDbEntity
  8
付属金具
  6
CONTINUOUS
 62
     6
100
AcDbCircle
 10
996.5
 20
1265.5
 30
0.0
 40
14.25
100
AcDbArc
 50
264.177545
 51
275.822455
  0
ARC
  5
802
100
AcDbEntity
  8
付属金具
  6
CONTINUOUS
 62
     6
100
AcDbCircle
 10
996.5
 20
1265.5
 30
0.0
 40
14.25
100
AcDbArc
 50
324.177545
 51
335.822455
  0
ARC
  5
803
100
AcDbEntity
  8
付属金具
  6
CONTINUOUS
 62
     6
100
AcDbCircle
 10
996.5
 20
1265.5
 30
0.0
 40
14.25
100
AcDbArc
 50
24.177545
 51
35.822455
  0
ARC
  5
804
100
AcDbEntity
  8
付属金具
  6
CONTINUOUS
 62
     6
100
AcDbCircle
 10
996.5
 20
1265.5
 30
0.0
 40
14.25
100
AcDbArc
 50
84.177545
 51
95.822455
  0
ARC
  5
805
100
AcDbEntity
  8
付属金具
  6
CONTINUOUS
 62
     6
100
AcDbCircle
 10
996.5
 20
1265.5
 30
0.0
 40
14.25
100
AcDbArc
 50
144.177545
 51
155.822455
  0
ARC
  5
806
100
AcDbEntity
  8
付属金具
  6
CONTINUOUS
 62
     6
100
AcDbCircle
 10
996.5
 20
1265.5
 30
0.0
 40
14.25
100
AcDbArc
 50
204.177545
 51
215.822455
  0
LINE
  5
807
100
AcDbEntity
  8
付属金具
  6
CONTINUOUS
 62
     6
100
AcDbLine
 10
985.0
 20
1299.292887
 30
0.0
 11
985.0
 21
1289.107113
 31
0.0
  0
LINE
  5
808
100
AcDbEntity
  8
付属金具
  6
CONTINUOUS
 62
     6
100
AcDbLine
 10
1008.0
 20
1299.292887
 30
0.0
 11
1008.0
 21
1289.107113
 31
0.0
  0
ARC
  5
809
100
AcDbEntity
  8
付属金具
  6
CONTINUOUS
 62
     6
100
AcDbCircle
 10
994.75
 20
1294.2
 30
0.0
 40
11.0
100
AcDbArc
 50
207.580199
 51
213.055731
  0
ARC
  5
80A
100
AcDbEntity
  8
付属金具
  6
CONTINUOUS
 62
     6
100
AcDbCircle
 10
998.25
 20
1294.2
 30
0.0
 40
11.0
100
AcDbArc
 50
326.944269
 51
332.419801
  0
CIRCLE
  5
80B
100
AcDbEntity
  8
付属金具
  6
EXLTYPE2
 62
     6
100
AcDbCircle
 10
996.5
 20
1265.5
 30
0.0
 40
12.074349
  0
LINE
  5
80C
100
AcDbEntity
  8
付属金具
  6
CONTINUOUS
 62
     6
100
AcDbLine
 10
986.0
 20
1288.2
 30
0.0
 11
986.0
 21
1280.358333
 31
0.0
  0
LINE
  5
80D
100
AcDbEntity
  8
付属金具
  6
CONTINUOUS
 62
     6
100
AcDbLine
 10
1007.0
 20
1280.858333
 30
0.0
 11
1007.0
 21
1274.448929
 31
0.0
  0
LINE
  5
80E
100
AcDbEntity
  8
付属金具
  6
EXLTYPE2
 62
     6
100
AcDbLine
 10
985.530456
 20
1288.2
 30
0.0
 11
1007.469544
 21
1288.2
 31
0.0
  0
CIRCLE
  5
80F
100
AcDbEntity
  8
付属金具
  6
EXLTYPE2
 62
     6
100
AcDbCircle
 10
996.5
 20
1265.5
 30
0.0
 40
4.75
  0
ARC
  5
810
100
AcDbEntity
  8
付属金具
  6
EXLTYPE2
 62
     6
100
AcDbCircle
 10
994.75
 20
1294.2
 30
0.0
 40
11.0
100
AcDbArc
 50
146.944269
 51
152.419801
  0
ARC
  5
811
100
AcDbEntity
  8
付属金具
  6
EXLTYPE2
 62
     6
100
AcDbCircle
 10
998.25
 20
1294.2
 30
0.0
 40
11.0
100
AcDbArc
 50
27.580199
 51
33.055731
  0
LINE
  5
812
100
AcDbEntity
  8
付属金具
  6
EXLTYPE2
 62
     6
100
AcDbLine
 10
985.530456
 20
1300.2
 30
0.0
 11
1007.469544
 21
1300.2
 31
0.0
  0
LINE
  5
813
100
AcDbEntity
  8
付属金具
  6
CONTINUOUS
 62
     6
100
AcDbLine
 10
954.0
 20
1265.5
 30
0.0
 11
1039.0
 21
1265.5
 31
0.0
  0
LINE
  5
814
100
AcDbEntity
  8
付属金具
  6
EXLTYPE2
 62
     6
100
AcDbLine
 10
1002.85
 20
1300.2
 30
0.0
 11
1002.85
 21
1433.558333
 31
0.0
  0
LINE
  5
815
100
AcDbEntity
  8
付属金具
  6
EXLTYPE2
 62
     6
100
AcDbLine
 10
990.15
 20
1300.2
 30
0.0
 11
990.15
 21
1431.441667
 31
0.0
  0
LINE
  5
816
100
AcDbEntity
  8
付属金具
  6
CONTINUOUS
 62
     6
100
AcDbLine
 10
833.5
 20
1259.663691
 30
0.0
 11
833.5
 21
1271.336309
 31
0.0
  0
LINE
  5
817
100
AcDbEntity
  8
付属金具
  6
CONTINUOUS
 62
     6
100
AcDbLine
 10
847.945608
 20
1279.676485
 30
0.0
 11
858.054392
 21
1273.840176
 31
0.0
  0
LINE
  5
818
100
AcDbEntity
  8
付属金具
  6
CONTINUOUS
 62
     6
100
AcDbLine
 10
858.054392
 20
1257.159824
 30
0.0
 11
847.945608
 21
1251.323515
 31
0.0
  0
ARC
  5
819
100
AcDbEntity
  8
付属金具
  6
CONTINUOUS
 62
     6
100
AcDbCircle
 10
846.5
 20
1265.5
 30
0.0
 40
14.25
100
AcDbArc
 50
264.177545
 51
275.822455
  0
ARC
  5
81A
100
AcDbEntity
  8
付属金具
  6
CONTINUOUS
 62
     6
100
AcDbCircle
 10
846.5
 20
1265.5
 30
0.0
 40
14.25
100
AcDbArc
 50
204.177545
 51
215.822455
  0
ARC
  5
81B
100
AcDbEntity
  8
付属金具
  6
CONTINUOUS
 62
     6
100
AcDbCircle
 10
846.5
 20
1265.5
 30
0.0
 40
14.25
100
AcDbArc
 50
144.177545
 51
155.822455
  0
ARC
  5
81C
100
AcDbEntity
  8
付属金具
  6
CONTINUOUS
 62
     6
100
AcDbCircle
 10
846.5
 20
1265.5
 30
0.0
 40
14.25
100
AcDbArc
 50
84.177545
 51
95.822455
  0
ARC
  5
81D
100
AcDbEntity
  8
付属金具
  6
CONTINUOUS
 62
     6
100
AcDbCircle
 10
846.5
 20
1265.5
 30
0.0
 40
14.25
100
AcDbArc
 50
24.177545
 51
35.822455
  0
ARC
  5
81E
100
AcDbEntity
  8
付属金具
  6
CONTINUOUS
 62
     6
100
AcDbCircle
 10
846.5
 20
1265.5
 30
0.0
 40
14.25
100
AcDbArc
 50
324.177545
 51
335.822455
  0
LINE
  5
81F
100
AcDbEntity
  8
付属金具
  6
CONTINUOUS
 62
     6
100
AcDbLine
 10
858.0
 20
1299.292887
 30
0.0
 11
858.0
 21
1289.107113
 31
0.0
  0
LINE
  5
820
100
AcDbEntity
  8
付属金具
  6
CONTINUOUS
 62
     6
100
AcDbLine
 10
835.0
 20
1299.292887
 30
0.0
 11
835.0
 21
1289.107113
 31
0.0
  0
ARC
  5
821
100
AcDbEntity
  8
付属金具
  6
CONTINUOUS
 62
     6
100
AcDbCircle
 10
848.25
 20
1294.2
 30
0.0
 40
11.0
100
AcDbArc
 50
326.944269
 51
332.419801
  0
ARC
  5
822
100
AcDbEntity
  8
付属金具
  6
CONTINUOUS
 62
     6
100
AcDbCircle
 10
844.75
 20
1294.2
 30
0.0
 40
11.0
100
AcDbArc
 50
207.580199
 51
213.055731
  0
CIRCLE
  5
823
100
AcDbEntity
  8
付属金具
  6
EXLTYPE2
 62
     6
100
AcDbCircle
 10
846.5
 20
1265.5
 30
0.0
 40
12.074349
  0
LINE
  5
824
100
AcDbEntity
  8
付属金具
  6
CONTINUOUS
 62
     6
100
AcDbLine
 10
857.0
 20
1288.2
 30
0.0
 11
857.0
 21
1280.358333
 31
0.0
  0
LINE
  5
825
100
AcDbEntity
  8
付属金具
  6
CONTINUOUS
 62
     6
100
AcDbLine
 10
836.0
 20
1280.858333
 30
0.0
 11
836.0
 21
1274.448929
 31
0.0
  0
LINE
  5
826
100
AcDbEntity
  8
付属金具
  6
EXLTYPE2
 62
     6
100
AcDbLine
 10
857.469544
 20
1288.2
 30
0.0
 11
835.530456
 21
1288.2
 31
0.0
  0
CIRCLE
  5
827
100
AcDbEntity
  8
付属金具
  6
EXLTYPE2
 62
     6
100
AcDbCircle
 10
846.5
 20
1265.5
 30
0.0
 40
4.75
  0
ARC
  5
828
100
AcDbEntity
  8
付属金具
  6
EXLTYPE2
 62
     6
100
AcDbCircle
 10
848.25
 20
1294.2
 30
0.0
 40
11.0
100
AcDbArc
 50
27.580199
 51
33.055731
  0
ARC
  5
829
100
AcDbEntity
  8
付属金具
  6
EXLTYPE2
 62
     6
100
AcDbCircle
 10
844.75
 20
1294.2
 30
0.0
 40
11.0
100
AcDbArc
 50
146.944269
 51
152.419801
  0
LINE
  5
82A
100
AcDbEntity
  8
付属金具
  6
EXLTYPE2
 62
     6
100
AcDbLine
 10
857.469544
 20
1300.2
 30
0.0
 11
835.530456
 21
1300.2
 31
0.0
  0
LINE
  5
82B
100
AcDbEntity
  8
付属金具
  6
CONTINUOUS
 62
     6
100
AcDbLine
 10
889.0
 20
1265.5
 30
0.0
 11
804.0
 21
1265.5
 31
0.0
  0
LINE
  5
82C
100
AcDbEntity
  8
付属金具
  6
EXLTYPE2
 62
     6
100
AcDbLine
 10
840.15
 20
1300.2
 30
0.0
 11
840.15
 21
1433.558333
 31
0.0
  0
LINE
  5
82D
100
AcDbEntity
  8
付属金具
  6
EXLTYPE2
 62
     6
100
AcDbLine
 10
852.85
 20
1300.2
 30
0.0
 11
852.85
 21
1431.441667
 31
0.0
  0
LINE
  5
82E
100
AcDbEntity
  8
付属金具
  6
CONTINUOUS
 62
     6
100
AcDbLine
 10
846.5
 20
1308.0
 30
0.0
 11
846.5
 21
1223.0
 31
0.0
  0
LINE
  5
82F
100
AcDbEntity
  8
付属金具
  6
CONTINUOUS
 62
     6
100
AcDbLine
 10
996.5
 20
1308.0
 30
0.0
 11
996.5
 21
1223.0
 31
0.0
  0
ARC
  5
830
100
AcDbEntity
  8
付属金具
  6
CONTINUOUS
 62
     2
100
AcDbCircle
 10
930.0
 20
3745.5
 30
0.0
 40
8.5
100
AcDbArc
 50
227.942863
 51
46.073106
  0
ARC
  5
831
100
AcDbEntity
  8
付属金具
  6
CONTINUOUS
 62
     2
100
AcDbCircle
 10
921.5
 20
3740.25
 30
0.0
 40
3.0
100
AcDbArc
 50
125.341244
 51
54.658756
  0
DIMENSION
  5
83D
100
AcDbEntity
  8
寸法
  6
CONTINUOUS
 62
     3
100
AcDbDimension
  2
*D19
 10
2450.0
 20
669.0
 30
0.0
 11
2570.0
 21
704.25
 31
0.0
 70
   160
  3
STANDARD
100
AcDbAlignedDimension
 13
2310.0
 23
765.5
 33
0.0
 14
2450.0
 24
919.0
 34
0.0
100
AcDbRotatedDimension
1001
ACAD
1000
DSTYLE
1002
{
1070
     6
1000
_EX_NORM
1070
     7
1000
_EX_NORM
1070
    41
1040
45.0
1070
    42
1040
0.0
1070
    44
1040
15.0
1070
    73
1070
     0
1070
    74
1070
     0
1070
    75
1070
     0
1070
    76
1070
     0
1070
    77
1070
     1
1070
    78
1070
     0
1070
   140
1040
60.0
1070
   147
1040
5.25
1070
   173
1070
     1
1070
   176
1070
     3
1070
   177
1070
     3
1070
   178
1070
     2
1070
   271
1070
     0
1070
   279
1070
     2
1070
   280
1070
     2
1070
   287
1070
     5
1070
   340
1005
6A6
1002
}
  0
DIMENSION
  5
848
100
AcDbEntity
  8
寸法
  6
CONTINUOUS
 62
     3
100
AcDbDimension
  2
*D20
 10
2450.0
 20
759.0
 30
0.0
 11
2660.0
 21
794.25
 31
0.0
 70
   160
  1
85（床給水）
  3
STANDARD
100
AcDbAlignedDimension
 13
2365.0
 23
892.499969
 33
0.0
 14
2450.0
 24
908.5
 34
0.0
100
AcDbRotatedDimension
1001
ACAD
1000
DSTYLE
1002
{
1070
     6
1000
_EX_NORM
1070
     7
1000
_EX_NORM
1070
    41
1040
45.0
1070
    42
1040
10.5
1070
    44
1040
15.0
1070
    73
1070
     0
1070
    74
1070
     0
1070
    75
1070
     0
1070
    76
1070
     1
1070
    77
1070
     1
1070
    78
1070
     0
1070
   140
1040
60.0
1070
   147
1040
5.25
1070
   173
1070
     1
1070
   176
1070
     3
1070
   177
1070
     3
1070
   178
1070
     2
1070
   271
1070
     0
1070
   279
1070
     2
1070
   280
1070
     2
1070
   287
1070
     5
1070
   340
1005
6A6
1002
}
  0
DIMENSION
  5
854
100
AcDbEntity
  8
寸法
  6
CONTINUOUS
 62
     3
100
AcDbDimension
  2
*D21
 10
2450.0
 20
579.0
 30
0.0
 11
2242.5
 21
614.25
 31
0.0
 70
   160
  3
STANDARD
100
AcDbAlignedDimension
 13
2035.0
 23
919.0
 33
0.0
 14
2450.0
 24
919.0
 34
0.0
100
AcDbRotatedDimension
1001
ACAD
1000
DSTYLE
1002
{
1070
     6
1000
_EX_NORM
1070
     7
1000
_EX_NORM
1070
    41
1040
45.0
1070
    42
1040
10.5
1070
    44
1040
15.0
1070
    73
1070
     0
1070
    74
1070
     0
1070
    75
1070
     0
1070
    76
1070
     0
1070
    77
1070
     1
1070
    78
1070
     0
1070
   140
1040
60.0
1070
   147
1040
5.25
1070
   173
1070
     1
1070
   176
1070
     3
1070
   177
1070
     3
1070
   178
1070
     2
1070
   271
1070
     0
1070
   279
1070
     2
1070
   280
1070
     0
1070
   287
1070
     5
1070
   340
1005
6A6
1002
}
  0
LINE
  5
855
100
AcDbEntity
  8
寸法
  6
CONTINUOUS
 62
     3
100
AcDbLine
 10
2452.7
 20
915.5
 30
0.0
 11
2585.0
 21
915.5
 31
0.0
  0
DIMENSION
  5
861
100
AcDbEntity
  8
寸法
  6
CONTINUOUS
 62
     3
100
AcDbDimension
  2
*D22
 10
2660.0
 20
1425.5
 30
0.0
 11
2624.75
 21
1170.5
 31
0.0
 70
   160
  3
STANDARD
100
AcDbAlignedDimension
 13
2450.0
 23
915.5
 33
0.0
 14
2482.5
 24
1425.5
 34
0.0
 50
90.0
100
AcDbRotatedDimension
1001
ACAD
1000
DSTYLE
1002
{
1070
     6
1000
_EX_NORM
1070
     7
1000
_EX_NORM
1070
    41
1040
45.0
1070
    42
1040
10.5
1070
    44
1040
15.0
1070
    73
1070
     0
1070
    74
1070
     0
1070
    75
1070
     0
1070
    76
1070
     0
1070
    77
1070
     1
1070
    78
1070
     0
1070
   140
1040
60.0
1070
   147
1040
5.25
1070
   173
1070
     1
1070
   176
1070
     3
1070
   177
1070
     3
1070
   178
1070
     2
1070
   271
1070
     0
1070
   279
1070
     2
1070
   280
1070
     0
1070
   287
1070
     5
1070
   340
1005
6A6
1002
}
  0
TEXT
  5
862
100
AcDbEntity
  8
寸法
  6
CONTINUOUS
 62
     2
100
AcDbText
 10
2544.5
 20
1477.25
 30
0.0
 40
60.0
  1
Ｒ１/２
 41
0.73425
  7
EXCADSTD
 72
     5
 11
2744.749999
 21
1477.25
 31
0.0
100
AcDbText
  0
LEADER
  5
863
100
AcDbEntity
  8
寸法
  6
CONTINUOUS
 62
     3
100
AcDbLeader
  3
STANDARD
 73
     3
 74
     1
 75
     0
 40
0.0
 76
     3
 10
2458.0
 20
1276.0
 30
0.0
 10
2537.0
 20
1472.0
 30
0.0
 10
2730.0
 20
1472.0
 30
0.0
 77
     3
1001
ACAD
1000
DSTYLE
1002
{
1070
    41
1040
52.5
1070
     5
1000
_EX_NORM
1070
     6
1000
_EX_NORM
1070
     7
1000
_EX_NORM
1070
   341
1005
2B
1002
}
  0
TEXT
  5
864
100
AcDbEntity
  8
寸法
  6
CONTINUOUS
 62
     2
100
AcDbText
 10
1551.500002
 20
721.25
 30
0.0
 40
60.0
  1
ＶＰ･ＶＵ４０･５０
 41
0.62784
  7
EXCADSTD
 72
     5
 11
1983.5
 21
721.25
 31
0.0
100
AcDbText
  0
LEADER
  5
865
100
AcDbEntity
  8
寸法
  6
CONTINUOUS
 62
     3
100
AcDbLeader
  3
STANDARD
 73
     3
 74
     1
 75
     0
 40
0.0
 76
     3
 10
2277.0
 20
920.5
 30
0.0
 10
1991.0
 20
716.0
 30
0.0
 10
1545.0
 20
716.0
 30
0.0
 77
     3
1001
ACAD
1000
DSTYLE
1002
{
1070
    41
1040
45.0
1070
     5
1000
_EX_NORM
1070
     6
1000
_EX_NORM
1070
     7
1000
_EX_NORM
1070
   341
1005
2B
1002
}
  0
DIMENSION
  5
870
100
AcDbEntity
  8
寸法
  6
CONTINUOUS
 62
     3
100
AcDbDimension
  2
*D23
 10
1431.5
 20
1710.5
 30
0.0
 11
1396.25
 21
1313.0
 31
0.0
 70
   160
  3
STANDARD
100
AcDbAlignedDimension
 13
1205.0
 23
915.5
 33
0.0
 14
1208.5
 24
1710.5
 34
0.0
 50
90.0
100
AcDbRotatedDimension
1001
ACAD
1000
DSTYLE
1002
{
1070
     6
1000
_EX_NORM
1070
     7
1000
_EX_NORM
1070
    41
1040
45.0
1070
    42
1040
10.5
1070
    44
1040
15.0
1070
    73
1070
     0
1070
    74
1070
     0
1070
    75
1070
     1
1070
    76
1070
     0
1070
    77
1070
     1
1070
    78
1070
     0
1070
   140
1040
60.0
1070
   147
1040
5.25
1070
   173
1070
     1
1070
   176
1070
     3
1070
   177
1070
     3
1070
   178
1070
     2
1070
   271
1070
     0
1070
   279
1070
     2
1070
   280
1070
     0
1070
   287
1070
     5
1070
   340
1005
6A6
1002
}
  0
DIMENSION
  5
87C
100
AcDbEntity
  8
寸法
  6
CONTINUOUS
 62
     3
100
AcDbDimension
  2
*D24
 10
1205.0
 20
579.0
 30
0.0
 11
921.5
 21
614.25
 31
0.0
 70
   160
  3
STANDARD
100
AcDbAlignedDimension
 13
638.0
 23
915.5
 33
0.0
 14
1205.0
 24
915.5
 34
0.0
100
AcDbRotatedDimension
1001
ACAD
1000
DSTYLE
1002
{
1070
     6
1000
_EX_NORM
1070
     7
1000
_EX_NORM
1070
    41
1040
45.0
1070
    42
1040
10.5
1070
    44
1040
15.0
1070
    73
1070
     0
1070
    74
1070
     0
1070
    75
1070
     0
1070
    76
1070
     0
1070
    77
1070
     1
1070
    78
1070
     0
1070
   140
1040
60.0
1070
   147
1040
5.25
1070
   173
1070
     1
1070
   176
1070
     3
1070
   177
1070
     3
1070
   178
1070
     2
1070
   271
1070
     0
1070
   279
1070
     2
1070
   280
1070
     0
1070
   287
1070
     5
1070
   340
1005
6A6
1002
}
  0
DIMENSION
  5
887
100
AcDbEntity
  8
寸法
  6
CONTINUOUS
 62
     3
100
AcDbDimension
  2
*D25
 10
1341.5
 20
915.5
 30
0.0
 11
1306.25
 21
1299.0
 31
0.0
 70
   160
  3
STANDARD
100
AcDbAlignedDimension
 13
921.5
 23
1682.5
 33
0.0
 14
1341.5
 24
915.5
 34
0.0
 50
90.0
100
AcDbRotatedDimension
1001
ACAD
1000
DSTYLE
1002
{
1070
     6
1000
_EX_NORM
1070
     7
1000
_EX_NORM
1070
    41
1040
45.0
1070
    42
1040
7.5
1070
    44
1040
15.0
1070
    73
1070
     0
1070
    74
1070
     0
1070
    75
1070
     0
1070
    76
1070
     1
1070
    77
1070
     1
1070
    78
1070
     8
1070
   140
1040
60.0
1070
   147
1040
5.25
1070
   173
1070
     1
1070
   176
1070
     3
1070
   177
1070
     3
1070
   178
1070
     2
1070
   271
1070
     2
1070
   279
1070
     2
1070
   280
1070
     0
1070
   287
1070
     5
1070
   340
1005
6A6
1002
}
  0
DIMENSION
  5
893
100
AcDbEntity
  8
寸法
  6
CONTINUOUS
 62
     3
100
AcDbDimension
  2
*D26
 10
1221.5
 20
3300.5
 30
0.0
 11
921.5
 21
3335.75
 31
0.0
 70
   160
  3
STANDARD
100
AcDbAlignedDimension
 13
621.5
 23
3526.556872
 33
0.0
 14
1221.5
 24
3526.556872
 34
0.0
100
AcDbRotatedDimension
1001
ACAD
1000
DSTYLE
1002
{
1070
     6
1000
_EX_NORM
1070
     7
1000
_EX_NORM
1070
    41
1040
45.0
1070
    42
1040
36.656871
1070
    44
1040
15.0
1070
    73
1070
     0
1070
    74
1070
     0
1070
    75
1070
     0
1070
    76
1070
     0
1070
    77
1070
     1
1070
    78
1070
     0
1070
   140
1040
60.0
1070
   147
1040
5.25
1070
   173
1070
     1
1070
   176
1070
     3
1070
   177
1070
     3
1070
   178
1070
     2
1070
   271
1070
     0
1070
   279
1070
     2
1070
   280
1070
     0
1070
   287
1070
     5
1070
   340
1005
6A6
1002
}
  0
DIMENSION
  5
89F
100
AcDbEntity
  8
寸法
  6
CONTINUOUS
 62
     3
100
AcDbDimension
  2
*D27
 10
1116.5
 20
4060.5
 30
0.0
 11
921.5
 21
4095.75
 31
0.0
 70
   160
  3
STANDARD
100
AcDbAlignedDimension
 13
726.5
 23
4003.0
 33
0.0
 14
1116.5
 24
4003.0
 34
0.0
100
AcDbRotatedDimension
1001
ACAD
1000
DSTYLE
1002
{
1070
     6
1000
_EX_NORM
1070
     7
1000
_EX_NORM
1070
    41
1040
45.0
1070
    42
1040
10.5
1070
    44
1040
15.0
1070
    73
1070
     0
1070
    74
1070
     0
1070
    75
1070
     0
1070
    76
1070
     0
1070
    77
1070
     1
1070
    78
1070
     0
1070
   140
1040
60.0
1070
   147
1040
5.25
1070
   173
1070
     1
1070
   176
1070
     3
1070
   177
1070
     3
1070
   178
1070
     2
1070
   271
1070
     0
1070
   279
1070
     2
1070
   280
1070
     0
1070
   287
1070
     5
1070
   340
1005
6A6
1002
}
  0
DIMENSION
  5
8AA
100
AcDbEntity
  8
寸法
  6
CONTINUOUS
 62
     3
100
AcDbDimension
  2
*D28
 10
1521.5
 20
915.5
 30
0.0
 11
1486.25
 21
1813.0
 31
0.0
 70
   160
  3
STANDARD
100
AcDbAlignedDimension
 13
1431.5
 23
2710.5
 33
0.0
 14
1521.5
 24
915.5
 34
0.0
 50
90.0
100
AcDbRotatedDimension
1001
ACAD
1000
DSTYLE
1002
{
1070
     6
1000
_EX_NORM
1070
     7
1000
_EX_NORM
1070
    41
1040
45.0
1070
    42
1040
10.5
1070
    44
1040
15.0
1070
    73
1070
     0
1070
    74
1070
     0
1070
    75
1070
     0
1070
    76
1070
     1
1070
    77
1070
     1
1070
    78
1070
     8
1070
   140
1040
60.0
1070
   147
1040
5.25
1070
   173
1070
     1
1070
   176
1070
     3
1070
   177
1070
     3
1070
   178
1070
     2
1070
   271
1070
     2
1070
   279
1070
     2
1070
   280
1070
     0
1070
   287
1070
     5
1070
   340
1005
6A6
1002
}
  0
DIMENSION
  5
8B6
100
AcDbEntity
  8
寸法
  6
CONTINUOUS
 62
     3
100
AcDbDimension
  2
*D29
 10
972.5
 20
1884.855533
 30
0.0
 11
921.5
 21
1920.105533
 31
0.0
 70
   160
  3
STANDARD
100
AcDbAlignedDimension
 13
870.5
 23
1767.355808
 33
0.0
 14
972.5
 24
1767.355808
 34
0.0
100
AcDbRotatedDimension
1001
ACAD
1000
DSTYLE
1002
{
1070
     6
1000
_EX_NORM
1070
     7
1000
_EX_NORM
1070
    41
1040
45.0
1070
    42
1040
10.5
1070
    44
1040
15.0
1070
    73
1070
     0
1070
    74
1070
     0
1070
    75
1070
     0
1070
    76
1070
     0
1070
    77
1070
     1
1070
    78
1070
     0
1070
   140
1040
60.0
1070
   147
1040
5.25
1070
   173
1070
     1
1070
   176
1070
     3
1070
   177
1070
     3
1070
   178
1070
     2
1070
   271
1070
     0
1070
   279
1070
     2
1070
   280
1070
     0
1070
   287
1070
     5
1070
   340
1005
6A6
1002
}
  0
DIMENSION
  5
8C1
100
AcDbEntity
  8
寸法
  6
CONTINUOUS
 62
     3
100
AcDbDimension
  2
*D30
 10
2450.0
 20
1884.855533
 30
0.0
 11
2257.5
 21
1920.105533
 31
0.0
 70
   160
  3
STANDARD
100
AcDbAlignedDimension
 13
2355.0
 23
1767.355808
 33
0.0
 14
2450.0
 24
1727.355533
 34
0.0
100
AcDbRotatedDimension
1001
ACAD
1000
DSTYLE
1002
{
1070
     6
1000
_EX_NORM
1070
     7
1000
_EX_NORM
1070
    41
1040
45.0
1070
    42
1040
10.5
1070
    44
1040
15.0
1070
    73
1070
     0
1070
    74
1070
     0
1070
    75
1070
     0
1070
    76
1070
     1
1070
    77
1070
     1
1070
    78
1070
     0
1070
   140
1040
60.0
1070
   147
1040
5.25
1070
   173
1070
     1
1070
   176
1070
     3
1070
   177
1070
     3
1070
   178
1070
     2
1070
   271
1070
     0
1070
   279
1070
     2
1070
   280
1070
     1
1070
   287
1070
     5
1070
   340
1005
6A6
1002
}
  0
DIMENSION
  5
8CD
100
AcDbEntity
  8
寸法
  6
CONTINUOUS
 62
     3
100
AcDbDimension
  2
*D31
 10
996.5
 20
669.0
 30
0.0
 11
921.5
 21
704.25
 31
0.0
 70
   160
  3
STANDARD
100
AcDbAlignedDimension
 13
846.5
 23
907.499969
 33
0.0
 14
996.5
 24
907.499969
 34
0.0
100
AcDbRotatedDimension
1001
ACAD
1000
DSTYLE
1002
{
1070
     6
1000
_EX_NORM
1070
     7
1000
_EX_NORM
1070
    41
1040
45.0
1070
    42
1040
10.5
1070
    44
1040
15.0
1070
    73
1070
     0
1070
    74
1070
     0
1070
    75
1070
     0
1070
    76
1070
     0
1070
    77
1070
     1
1070
    78
1070
     0
1070
   140
1040
60.0
1070
   147
1040
5.25
1070
   173
1070
     1
1070
   176
1070
     3
1070
   177
1070
     3
1070
   178
1070
     2
1070
   271
1070
     0
1070
   279
1070
     2
1070
   280
1070
     0
1070
   287
1070
     5
1070
   340
1005
6A6
1002
}
  0
DIMENSION
  5
8D9
100
AcDbEntity
  8
寸法
  6
CONTINUOUS
 62
     3
100
AcDbDimension
  2
*D32
 10
2570.0
 20
915.5
 30
0.0
 11
2534.75
 21
1090.5
 31
0.0
 70
   160
  3
STANDARD
100
AcDbAlignedDimension
 13
2450.0
 23
1265.5
 33
0.0
 14
2450.0
 24
915.5
 34
0.0
 50
90.0
100
AcDbRotatedDimension
1001
ACAD
1000
DSTYLE
1002
{
1070
     6
1000
_EX_NORM
1070
     7
1000
_EX_NORM
1070
    41
1040
45.0
1070
    42
1040
7.5
1070
    44
1040
15.0
1070
    73
1070
     0
1070
    74
1070
     0
1070
    75
1070
     0
1070
    76
1070
     0
1070
    77
1070
     1
1070
    78
1070
     8
1070
   140
1040
60.0
1070
   147
1040
5.25
1070
   173
1070
     1
1070
   176
1070
     3
1070
   177
1070
     3
1070
   178
1070
     2
1070
   271
1070
     2
1070
   279
1070
     2
1070
   280
1070
     0
1070
   287
1070
     5
1070
   340
1005
6A6
1002
}
  0
DIMENSION
  5
8E5
100
AcDbEntity
  8
寸法
  6
CONTINUOUS
 62
     3
100
AcDbDimension
  2
*D33
 10
2750.0
 20
1775.5
 30
0.0
 11
2714.75
 21
2215.5
 31
0.0
 70
   160
  3
STANDARD
100
AcDbAlignedDimension
 13
2482.5
 23
2655.5
 33
0.0
 14
2497.5
 24
1775.5
 34
0.0
 50
90.0
100
AcDbRotatedDimension
1001
ACAD
1000
DSTYLE
1002
{
1070
     6
1000
_EX_NORM
1070
     7
1000
_EX_NORM
1070
    41
1040
45.0
1070
    42
1040
7.5
1070
    44
1040
15.0
1070
    73
1070
     0
1070
    74
1070
     0
1070
    75
1070
     0
1070
    76
1070
     0
1070
    77
1070
     1
1070
    78
1070
     8
1070
   140
1040
60.0
1070
   147
1040
5.25
1070
   173
1070
     1
1070
   176
1070
     3
1070
   177
1070
     3
1070
   178
1070
     2
1070
   271
1070
     2
1070
   279
1070
     2
1070
   280
1070
     0
1070
   287
1070
     5
1070
   340
1005
6A6
1002
}
  0
DIMENSION
  5
8F0
100
AcDbEntity
  8
寸法
  6
CONTINUOUS
 62
     3
100
AcDbDimension
  2
*D34
 10
1380.0
 20
3970.5
 30
0.0
 11
1344.75
 21
3695.5
 31
0.0
 70
   160
  3
STANDARD
100
AcDbAlignedDimension
 13
921.5
 23
3420.5
 33
0.0
 14
1221.5
 24
3970.5
 34
0.0
 50
90.0
100
AcDbRotatedDimension
1001
ACAD
1000
DSTYLE
1002
{
1070
     6
1000
_EX_NORM
1070
     7
1000
_EX_NORM
1070
    41
1040
45.0
1070
    42
1040
10.5
1070
    44
1040
15.0
1070
    73
1070
     0
1070
    74
1070
     0
1070
    75
1070
     0
1070
    76
1070
     1
1070
    77
1070
     1
1070
    78
1070
     0
1070
   140
1040
60.0
1070
   147
1040
5.25
1070
   173
1070
     1
1070
   176
1070
     3
1070
   177
1070
     3
1070
   178
1070
     2
1070
   271
1070
     0
1070
   279
1070
     2
1070
   280
1070
     0
1070
   287
1070
     5
1070
   340
1005
6A6
1002
}
  0
ENDSEC
  0
SECTION
  2
OBJECTS
  0
DICTIONARY
  5
19
100
AcDbDictionary
  3
ACAD_GROUP
350
1A
  3
ACAD_MLINESTYLE
350
1B
  0
DICTIONARY
  5
1A
102
{ACAD_REACTORS
330
19
102
}
100
AcDbDictionary
  0
DICTIONARY
  5
1B
102
{ACAD_REACTORS
330
19
102
}
100
AcDbDictionary
  3
STANDARD
350
1C
  0
MLINESTYLE
  5
1C
102
{ACAD_REACTORS
330
1B
102
}
100
AcDbMlineStyle
  2
Standard
 70
     0
  3

 62
     0
 51
90.0
 52
90.0
 71
     2
 49
0.5
 62
   256
  6
ByLayer
 49
-0.5
 62
   256
  6
ByLayer
  0
ENDSEC
  0
EOF
