  0
SECTION
  2
HEADER
  9
$ACADVER
  1
AC1014
  9
$ACADMAINTVER
 70
     0
  9
$DWGCODEPAGE
  3
ANSI_932
  9
$INSBASE
 10
0.0
 20
0.0
 30
0.0
  9
$EXTMIN
 10
0.0
 20
13.5
 30
0.0
  9
$EXTMAX
 10
200.0
 20
288.5
 30
0.0
  9
$LIMMIN
 10
0.0
 20
0.0
  9
$LIMMAX
 10
210.0
 20
297.0
  9
$ORTHOMODE
 70
     0
  9
$REGENMODE
 70
     1
  9
$FILLMODE
 70
     1
  9
$QTEXTMODE
 70
     0
  9
$MIRRTEXT
 70
     1
  9
$DRAGMODE
 70
     2
  9
$LTSCALE
 40
1.0
  9
$OSMODE
 70
     0
  9
$ATTMODE
 70
     1
  9
$TEXTSIZE
 40
0.2
  9
$TRACEWID
 40
0.05
  9
$TEXTSTYLE
  7
STANDARD
  9
$CLAYER
  8
化粧台
  9
$CELTYPE
  6
CONTINUOUS
  9
$CECOLOR
 62
   256
  9
$CELTSCALE
 40
1.0
  9
$DELOBJ
 70
     1
  9
$DISPSILH
 70
     0
  9
$DIMSCALE
 40
1.0
  9
$DIMASZ
 40
0.18
  9
$DIMEXO
 40
0.0625
  9
$DIMDLI
 40
0.38
  9
$DIMRND
 40
0.0
  9
$DIMDLE
 40
0.0
  9
$DIMEXE
 40
0.18
  9
$DIMTP
 40
0.0
  9
$DIMTM
 40
0.0
  9
$DIMTXT
 40
0.18
  9
$DIMCEN
 40
0.09
  9
$DIMTSZ
 40
0.0
  9
$DIMTOL
 70
     0
  9
$DIMLIM
 70
     0
  9
$DIMTIH
 70
     1
  9
$DIMTOH
 70
     1
  9
$DIMSE1
 70
     0
  9
$DIMSE2
 70
     0
  9
$DIMTAD
 70
     0
  9
$DIMZIN
 70
     0
  9
$DIMBLK
  1

  9
$DIMASO
 70
     1
  9
$DIMSHO
 70
     1
  9
$DIMPOST
  1

  9
$DIMAPOST
  1

  9
$DIMALT
 70
     0
  9
$DIMALTD
 70
     2
  9
$DIMALTF
 40
25.4
  9
$DIMLFAC
 40
1.0
  9
$DIMTOFL
 70
     0
  9
$DIMTVP
 40
0.0
  9
$DIMTIX
 70
     0
  9
$DIMSOXD
 70
     0
  9
$DIMSAH
 70
     0
  9
$DIMBLK1
  1

  9
$DIMBLK2
  1

  9
$DIMSTYLE
  2
STANDARD
  9
$DIMCLRD
 70
     0
  9
$DIMCLRE
 70
     0
  9
$DIMCLRT
 70
     0
  9
$DIMTFAC
 40
1.0
  9
$DIMGAP
 40
0.09
  9
$DIMJUST
 70
     0
  9
$DIMSD1
 70
     0
  9
$DIMSD2
 70
     0
  9
$DIMTOLJ
 70
     1
  9
$DIMTZIN
 70
     0
  9
$DIMALTZ
 70
     0
  9
$DIMALTTZ
 70
     0
  9
$DIMFIT
 70
     3
  9
$DIMUPT
 70
     0
  9
$DIMUNIT
 70
     2
  9
$DIMDEC
 70
     4
  9
$DIMTDEC
 70
     4
  9
$DIMALTU
 70
     2
  9
$DIMALTTD
 70
     2
  9
$DIMTXSTY
  7
STANDARD
  9
$DIMAUNIT
 70
     0
  9
$LUNITS
 70
     2
  9
$LUPREC
 70
     4
  9
$SKETCHINC
 40
0.1
  9
$FILLETRAD
 40
0.0
  9
$AUNITS
 70
     0
  9
$AUPREC
 70
     0
  9
$MENU
  1
acad
  9
$ELEVATION
 40
0.0
  9
$PELEVATION
 40
0.0
  9
$THICKNESS
 40
0.0
  9
$LIMCHECK
 70
     0
  9
$BLIPMODE
 70
     1
  9
$CHAMFERA
 40
0.0
  9
$CHAMFERB
 40
0.0
  9
$CHAMFERC
 40
0.0
  9
$CHAMFERD
 40
0.0
  9
$SKPOLY
 70
     0
  9
$TDCREATE
 40
2455307.795304734
  9
$TDUPDATE
 40
2455307.795304734
  9
$TDINDWG
 40
0.0000000000
  9
$TDUSRTIMER
 40
0.0000000000
  9
$USRTIMER
 70
     1
  9
$ANGBASE
 50
0.0
  9
$ANGDIR
 70
     0
  9
$PDMODE
 70
     0
  9
$PDSIZE
 40
0.0
  9
$PLINEWID
 40
0.0
  9
$COORDS
 70
     1
  9
$SPLFRAME
 70
     0
  9
$SPLINETYPE
 70
     6
  9
$SPLINESEGS
 70
     8
  9
$ATTDIA
 70
     0
  9
$ATTREQ
 70
     1
  9
$HANDLING
 70
     1
  9
$HANDSEED
  5
8E7
  9
$SURFTAB1
 70
     6
  9
$SURFTAB2
 70
     6
  9
$SURFTYPE
 70
     6
  9
$SURFU
 70
     6
  9
$SURFV
 70
     6
  9
$UCSNAME
  2

  9
$UCSORG
 10
0.0
 20
0.0
 30
0.0
  9
$UCSXDIR
 10
1.0
 20
0.0
 30
0.0
  9
$UCSYDIR
 10
0.0
 20
1.0
 30
0.0
  9
$PUCSNAME
  2

  9
$PUCSORG
 10
0.0
 20
0.0
 30
0.0
  9
$PUCSXDIR
 10
1.0
 20
0.0
 30
0.0
  9
$PUCSYDIR
 10
0.0
 20
1.0
 30
0.0
  9
$USERI1
 70
     0
  9
$USERI2
 70
     0
  9
$USERI3
 70
     0
  9
$USERI4
 70
     0
  9
$USERI5
 70
     0
  9
$USERR1
 40
0.0
  9
$USERR2
 40
0.0
  9
$USERR3
 40
0.0
  9
$USERR4
 40
0.0
  9
$USERR5
 40
0.0
  9
$WORLDVIEW
 70
     1
  9
$SHADEDGE
 70
     3
  9
$SHADEDIF
 70
    70
  9
$TILEMODE
 70
     1
  9
$MAXACTVP
 70
    16
  9
$PINSBASE
 10
0.0
 20
0.0
 30
0.0
  9
$PLIMCHECK
 70
     0
  9
$PEXTMIN
 10
1.000000E+20
 20
1.000000E+20
 30
1.000000E+20
  9
$PEXTMAX
 10
-1.000000E+20
 20
-1.000000E+20
 30
-1.000000E+20
  9
$PLIMMIN
 10
0.0
 20
0.0
  9
$PLIMMAX
 10
12.0
 20
9.0
  9
$UNITMODE
 70
     0
  9
$VISRETAIN
 70
     0
  9
$PLINEGEN
 70
     1
  9
$PSLTSCALE
 70
     0
  9
$TREEDEPTH
 70
  3020
  9
$PICKSTYLE
 70
     1
  9
$CMLSTYLE
  2
Standard
  9
$CMLJUST
 70
     0
  9
$CMLSCALE
 40
1.0
  9
$PROXYGRAPHICS
 70
     0
  9
$MEASUREMENT
 70
     0
  0
ENDSEC
  0
SECTION
  2
CLASSES
  0
CLASS
  1
LWPOLYLINE
  2
AcDbPolyline
  3
"AutoCAD"
 90
        0
280
     0
281
     1
  0
CLASS
  1
IMAGE
  2
AcDbRasterImage
  3
ISM
 90
      127
280
     0
281
     1
  0
CLASS
  1
OLE2FRAME
  2
AcDbOle2Frame
  3
""
 90
        0
280
     0
281
     1
  0
CLASS
  1
HATCH
  2
AcDbHatch
  3
"ACAD_SEDONA"
 90
        0
280
     0
281
     1
  0
CLASS
  1
DICTIONARYVAR
  2
AcDbDictionaryVar
  3
"AutoCAD"
 90
        0
280
     0
281
     0
  0
CLASS
  1
RASTERVARIABLES
  2
AcDbRasterVariables
  3
ISM
 90
        0
280
     0
281
     0
  0
CLASS
  1
IMAGEDEF
  2
AcDbRasterImageDef
  3
ISM
 90
        0
280
     0
281
     0
  0
CLASS
  1
IMAGEDEF_REACTOR
  2
AcDbRasterImageDefReactor
  3
ISM
 90
        1
280
     0
281
     0
  0
CLASS
  1
IDBUFFER
  2
AcDbIdBuffer
  3
"Acad"
 90
        0
280
     0
281
     0
  0
CLASS
  1
SPATIAL_FILTER
  2
AcDbSpatialFilter
  3
"Acad"
 90
        0
280
     0
281
     0
  0
CLASS
  1
XRECORD
  2
AcDbXrecord
  3
"<Built In>"
 90
        0
280
     0
281
     0
  0
CLASS
  1
SORTENTSTABLE
  2
AcDbSortentsTable
  3
"AutoCAD"
 90
        0
280
     0
281
     0
  0
CLASS
  1
LAYER_INDEX
  2
AcDbLayerIndex
  3
"Acad"
 90
        0
280
     0
281
     0
  0
CLASS
  1
SPATIAL_INDEX
  2
AcDbSpatialIndex
  3
"Acad"
 90
        0
280
     0
281
     0
  0
CLASS
  1
OBJECT_PTR
  2
CAseDLPNTableRecord
  3
"ASE-LPNTableRecord"
 90
        1
280
     0
281
     0
  0
CLASS
  1
LAYOUT
  2
AcDbLayout
  3
"AutoCAD 2000"
 90
        1
280
     0
281
     0
  0
CLASS
  1
PLOTSETTINGS
  2
AcDbPlotSettings
  3
"AutoCAD 2000"
 90
        1
280
     0
281
     0
  0
CLASS
  1
ACDBDICTIONARYWDFLT
  2
AcDbDictionaryWithDefault
  3
"AutoCAD 2000"
 90
        1
280
     0
281
     0
  0
CLASS
  1
ACDBPLACEHOLDER
  2
AcDbPlaceHolder
  3
"AutoCAD 2000"
 90
        1
280
     0
281
     0
  0
CLASS
  1
VBA_PROJECT
  2
AcDbVbaProject
  3
"acadvba"
 90
        1
280
     0
281
     0
  0
CLASS
  1
WIPEOUT
  2
AcDbWipeout
  3
WipeOut|AutoCAD Express Tool|expresstools@autodesk.com
 90
      127
280
     0
281
     1
  0
CLASS
  1
WIPEOUTVARIABLES
  2
AcDbWipeoutVariables
  3
WipeOut|AutoCAD Express Tool|expresstools@autodesk.com
 90
        0
280
     0
281
     0
  0
CLASS
  1
RTEXT
  2
RText
  3
RText|AutoCAD Express Tool|expresstools@autodesk.com
 90
        0
280
     0
281
     1
  0
CLASS
  1
ARCALIGNEDTEXT
  2
AcDbArcAlignedText
  3
ATEXT|AutoCAD Express Tool|expresstools@autodesk.com
 90
        0
280
     0
281
     1
  0
ENDSEC
  0
SECTION
  2
TABLES
  0
TABLE
  2
VPORT
  5
7
100
AcDbSymbolTable
 70
     1
  0
VPORT
  5
15
100
AcDbSymbolTableRecord
100
AcDbViewportTableRecord
  2
*ACTIVE
 70
     0
 10
0.0
 20
0.0
 11
1.0
 21
1.0
 12
1500.0
 22
2265.0
 13
0.0
 23
0.0
 14
1.0
 24
1.0
 15
0.0
 25
0.0
 16
0.0
 26
0.0
 36
1.0
 17
0.0
 27
0.0
 37
0.0
 40
4125.0
 41
1.722533
 42
50.0
 43
0.0
 44
0.0
 50
0.0
 51
0.0
 71
     0
 72
   100
 73
     1
 74
     1
 75
     0
 76
     0
 77
     0
 78
     0
  0
ENDTAB
  0
TABLE
  2
LTYPE
  5
4
100
AcDbSymbolTable
 70
     9
  0
LTYPE
  5
11
100
AcDbSymbolTableRecord
100
AcDbLinetypeTableRecord
  2
BYBLOCK
 70
    64
  3

 72
    65
 73
     0
 40
0.0
  0
LTYPE
  5
12
100
AcDbSymbolTableRecord
100
AcDbLinetypeTableRecord
  2
BYLAYER
 70
    64
  3

 72
    65
 73
     0
 40
0.0
  0
LTYPE
  5
13
100
AcDbSymbolTableRecord
100
AcDbLinetypeTableRecord
  2
CONTINUOUS
 70
    64
  3
実線
 72
    65
 73
     0
 40
0.0
  0
LTYPE
  5
1D
100
AcDbSymbolTableRecord
100
AcDbLinetypeTableRecord
  2
EXLTYPE1
 70
    64
  3
破線
 72
    65
 73
     2
 40
3.0
 49
2.0
 74
     0
 49
-1.0
 74
     0
  0
LTYPE
  5
1E
100
AcDbSymbolTableRecord
100
AcDbLinetypeTableRecord
  2
EXLTYPE2
 70
    64
  3
点線
 72
    65
 73
     2
 40
2.0
 49
1.0
 74
     0
 49
-1.0
 74
     0
  0
LTYPE
  5
1F
100
AcDbSymbolTableRecord
100
AcDbLinetypeTableRecord
  2
EXLTYPE3
 70
    64
  3
一点鎖線
 72
    65
 73
     4
 40
10.0
 49
7.0
 74
     0
 49
-1.0
 74
     0
 49
1.0
 74
     0
 49
-1.0
 74
     0
  0
LTYPE
  5
20
100
AcDbSymbolTableRecord
100
AcDbLinetypeTableRecord
  2
EXLTYPE4
 70
    64
  3
二点鎖線
 72
    65
 73
     6
 40
12.0
 49
7.0
 74
     0
 49
-1.0
 74
     0
 49
1.0
 74
     0
 49
-1.0
 74
     0
 49
1.0
 74
     0
 49
-1.0
 74
     0
  0
LTYPE
  5
21
100
AcDbSymbolTableRecord
100
AcDbLinetypeTableRecord
  2
EXLTYPE5
 70
    64
  3
三点鎖線
 72
    65
 73
     8
 40
37.0
 49
30.0
 74
     0
 49
-1.0
 74
     0
 49
1.0
 74
     0
 49
-1.0
 74
     0
 49
1.0
 74
     0
 49
-1.0
 74
     0
 49
1.0
 74
     0
 49
-1.0
 74
     0
  0
LTYPE
  5
22
100
AcDbSymbolTableRecord
100
AcDbLinetypeTableRecord
  2
EXLTYPE6
 70
    64
  3
四点鎖線
 72
    65
 73
    10
 40
39.0
 49
30.0
 74
     0
 49
-1.0
 74
     0
 49
1.0
 74
     0
 49
-1.0
 74
     0
 49
1.0
 74
     0
 49
-1.0
 74
     0
 49
1.0
 74
     0
 49
-1.0
 74
     0
 49
1.0
 74
     0
 49
-1.0
 74
     0
  0
ENDTAB
  0
TABLE
  2
LAYER
  5
2
100
AcDbSymbolTable
 70
     6
  0
LAYER
  5
14
100
AcDbSymbolTableRecord
100
AcDbLayerTableRecord
  2
0
 70
     0
 62
     7
  6
CONTINUOUS
  0
LAYER
  5
25
100
AcDbSymbolTableRecord
100
AcDbLayerTableRecord
  2
枠・表
 70
    64
 62
     7
  6
CONTINUOUS
  0
LAYER
  5
26
100
AcDbSymbolTableRecord
100
AcDbLayerTableRecord
  2
化粧台
 70
    64
 62
     7
  6
CONTINUOUS
  0
LAYER
  5
27
100
AcDbSymbolTableRecord
100
AcDbLayerTableRecord
  2
鏡台
 70
    64
 62
     7
  6
CONTINUOUS
  0
LAYER
  5
28
100
AcDbSymbolTableRecord
100
AcDbLayerTableRecord
  2
付属金具
 70
    64
 62
     7
  6
CONTINUOUS
  0
LAYER
  5
29
100
AcDbSymbolTableRecord
100
AcDbLayerTableRecord
  2
寸法
 70
    64
 62
     7
  6
CONTINUOUS
  0
ENDTAB
  0
TABLE
  2
STYLE
  5
3
100
AcDbSymbolTable
 70
     5
  0
STYLE
  5
17
100
AcDbSymbolTableRecord
100
AcDbTextStyleTableRecord
  2
STANDARD
 70
     0
 40
0.0
 41
1.0
 50
0.0
 71
     0
 42
0.0
  3
monotxt
  4
extfont
  0
STYLE
  5
23
100
AcDbSymbolTableRecord
100
AcDbTextStyleTableRecord
  2
EXCADSTD
 70
    64
 40
0.0
 41
1.0
 50
0.0
 71
     0
 42
0.2
  3
monotxt
  4
extfont
  0
STYLE
  5
24
100
AcDbSymbolTableRecord
100
AcDbTextStyleTableRecord
  2
EXCADVERT
 70
    68
 40
0.0
 41
1.0
 50
0.0
 71
     0
 42
0.286885
  3
monotxt
  4
extfont
  0
STYLE
  5
E4
100
AcDbSymbolTableRecord
100
AcDbTextStyleTableRecord
  2
EXCADTTF1
 70
    64
 40
0.0
 41
1.0
 50
0.0
 71
     0
 42
0.2
  3
MS Gothic.ttf
  4

1001
ACAD
1000
MS Gothic
1071
    32817
  0
STYLE
  5
123
100
AcDbSymbolTableRecord
100
AcDbTextStyleTableRecord
  2
EXCADDIM1
 70
    64
 40
0.0
 41
0.84
 50
0.0
 71
     0
 42
0.2
  3
monotxt
  4
extfont
  0
ENDTAB
  0
TABLE
  2
VIEW
  5
5
100
AcDbSymbolTable
 70
     0
  0
ENDTAB
  0
TABLE
  2
UCS
  5
6
100
AcDbSymbolTable
 70
     0
  0
ENDTAB
  0
TABLE
  2
APPID
  5
8
100
AcDbSymbolTable
 70
     1
  0
APPID
  5
16
100
AcDbSymbolTableRecord
100
AcDbRegAppTableRecord
  2
ACAD
 70
     0
  0
ENDTAB
  0
TABLE
  2
DIMSTYLE
  5
9
100
AcDbSymbolTable
 70
     1
  0
DIMSTYLE
105
18
100
AcDbSymbolTableRecord
100
AcDbDimStyleTableRecord
  2
STANDARD
 70
     0
  3

  4

  5

  6

  7

 40
1.0
 41
0.18
 42
0.0625
 43
0.38
 44
0.18
 45
0.0
 46
0.0
 47
0.0
 48
0.0
 71
     0
 72
     0
 73
     1
 74
     1
 75
     0
 76
     0
 77
     0
 78
     0
140
0.18
141
0.09
142
0.0
143
25.4
144
1.0
145
0.0
146
1.0
147
0.09
170
     0
171
     2
172
     1
173
     0
174
     0
175
     0
176
     0
177
     0
178
     0
270
     2
271
     4
272
     4
273
     2
274
     2
275
     0
280
     0
281
     0
282
     0
283
     1
284
     0
285
     0
286
     0
287
     0
288
     0
340
17
  0
ENDTAB
  0
TABLE
  2
BLOCK_RECORD
  5
1
100
AcDbSymbolTable
 70
    37
  0
BLOCK_RECORD
  5
A
100
AcDbSymbolTableRecord
100
AcDbBlockTableRecord
  2
*MODEL_SPACE
  0
BLOCK_RECORD
  5
B
100
AcDbSymbolTableRecord
100
AcDbBlockTableRecord
  2
*PAPER_SPACE
  0
BLOCK_RECORD
  5
2A
100
AcDbSymbolTableRecord
100
AcDbBlockTableRecord
  2
_EX_NORM
  0
BLOCK_RECORD
  5
2B
100
AcDbSymbolTableRecord
100
AcDbBlockTableRecord
  2
_EX_BNORM
  0
BLOCK_RECORD
  5
2C
100
AcDbSymbolTableRecord
100
AcDbBlockTableRecord
  2
_EX_BCIR
  0
BLOCK_RECORD
  5
2D
100
AcDbSymbolTableRecord
100
AcDbBlockTableRecord
  2
_EX_RCIVIL
  0
BLOCK_RECORD
  5
2E
100
AcDbSymbolTableRecord
100
AcDbBlockTableRecord
  2
_EX_SLANT
  0
BLOCK_RECORD
  5
2F
100
AcDbSymbolTableRecord
100
AcDbBlockTableRecord
  2
_EX_NONE
  0
BLOCK_RECORD
  5
30
100
AcDbSymbolTableRecord
100
AcDbBlockTableRecord
  2
_EX_CIVIL
  0
BLOCK_RECORD
  5
31
100
AcDbSymbolTableRecord
100
AcDbBlockTableRecord
  2
_EX_WCIR
  0
BLOCK_RECORD
  5
32
100
AcDbSymbolTableRecord
100
AcDbBlockTableRecord
  2
_EX_WCIR2
  0
BLOCK_RECORD
  5
33
100
AcDbSymbolTableRecord
100
AcDbBlockTableRecord
  2
_EX_WNORM
  0
BLOCK_RECORD
  5
34
100
AcDbSymbolTableRecord
100
AcDbBlockTableRecord
  2
_EX_NNORM
  0
BLOCK_RECORD
  5
35
100
AcDbSymbolTableRecord
100
AcDbBlockTableRecord
  2
_EX_BBOX
  0
BLOCK_RECORD
  5
36
100
AcDbSymbolTableRecord
100
AcDbBlockTableRecord
  2
_EX_WBOX
  0
BLOCK_RECORD
  5
37
100
AcDbSymbolTableRecord
100
AcDbBlockTableRecord
  2
_EX_INTEGRAL
  0
BLOCK_RECORD
  5
119
100
AcDbSymbolTableRecord
100
AcDbBlockTableRecord
  2
*D14
  0
BLOCK_RECORD
  5
6CF
100
AcDbSymbolTableRecord
100
AcDbBlockTableRecord
  2
*D15
  0
BLOCK_RECORD
  5
6DB
100
AcDbSymbolTableRecord
100
AcDbBlockTableRecord
  2
*D16
  0
BLOCK_RECORD
  5
6E7
100
AcDbSymbolTableRecord
100
AcDbBlockTableRecord
  2
*D17
  0
BLOCK_RECORD
  5
6F3
100
AcDbSymbolTableRecord
100
AcDbBlockTableRecord
  2
*D18
  0
BLOCK_RECORD
  5
6FF
100
AcDbSymbolTableRecord
100
AcDbBlockTableRecord
  2
*D19
  0
BLOCK_RECORD
  5
70B
100
AcDbSymbolTableRecord
100
AcDbBlockTableRecord
  2
*D20
  0
BLOCK_RECORD
  5
716
100
AcDbSymbolTableRecord
100
AcDbBlockTableRecord
  2
*D21
  0
BLOCK_RECORD
  5
831
100
AcDbSymbolTableRecord
100
AcDbBlockTableRecord
  2
*D22
  0
BLOCK_RECORD
  5
83E
100
AcDbSymbolTableRecord
100
AcDbBlockTableRecord
  2
*D23
  0
BLOCK_RECORD
  5
84A
100
AcDbSymbolTableRecord
100
AcDbBlockTableRecord
  2
*D24
  0
BLOCK_RECORD
  5
856
100
AcDbSymbolTableRecord
100
AcDbBlockTableRecord
  2
*D25
  0
BLOCK_RECORD
  5
861
100
AcDbSymbolTableRecord
100
AcDbBlockTableRecord
  2
*D26
  0
BLOCK_RECORD
  5
86D
100
AcDbSymbolTableRecord
100
AcDbBlockTableRecord
  2
*D27
  0
BLOCK_RECORD
  5
879
100
AcDbSymbolTableRecord
100
AcDbBlockTableRecord
  2
*D28
  0
BLOCK_RECORD
  5
884
100
AcDbSymbolTableRecord
100
AcDbBlockTableRecord
  2
*D29
  0
BLOCK_RECORD
  5
88F
100
AcDbSymbolTableRecord
100
AcDbBlockTableRecord
  2
*D30
  0
BLOCK_RECORD
  5
89B
100
AcDbSymbolTableRecord
100
AcDbBlockTableRecord
  2
*D31
  0
BLOCK_RECORD
  5
8AC
100
AcDbSymbolTableRecord
100
AcDbBlockTableRecord
  2
*D32
  0
BLOCK_RECORD
  5
8B8
100
AcDbSymbolTableRecord
100
AcDbBlockTableRecord
  2
*D33
  0
BLOCK_RECORD
  5
8C4
100
AcDbSymbolTableRecord
100
AcDbBlockTableRecord
  2
*D34
  0
BLOCK_RECORD
  5
8CF
100
AcDbSymbolTableRecord
100
AcDbBlockTableRecord
  2
*D35
  0
BLOCK_RECORD
  5
8DC
100
AcDbSymbolTableRecord
100
AcDbBlockTableRecord
  2
*D36
  0
ENDTAB
  0
ENDSEC
  0
SECTION
  2
BLOCKS
  0
BLOCK
  5
D
100
AcDbEntity
  8
0
100
AcDbBlockBegin
  2
*MODEL_SPACE
 70
     0
 10
0.0
 20
0.0
 30
0.0
  3
*MODEL_SPACE
  1

  0
ENDBLK
  5
E
100
AcDbEntity
  8
0
100
AcDbBlockEnd
  0
BLOCK
  5
F
100
AcDbEntity
 67
     1
  8
0
100
AcDbBlockBegin
  2
*PAPER_SPACE
 70
     0
 10
0.0
 20
0.0
 30
0.0
  3
*PAPER_SPACE
  1

  0
ENDBLK
  5
10
100
AcDbEntity
 67
     1
  8
0
100
AcDbBlockEnd
  0
BLOCK
  5
38
100
AcDbEntity
  8
0
100
AcDbBlockBegin
  2
_EX_NORM
 70
     0
 10
0.0
 20
0.0
 30
0.0
  3
_EX_NORM
  1

  0
LINE
  5
39
100
AcDbEntity
  8
0
  6
CONTINUOUS
 62
     0
100
AcDbLine
 10
0.0
 20
0.0
 30
0.0
 11
-1.0
 21
0.0
 31
0.0
  0
LINE
  5
3A
100
AcDbEntity
  8
0
  6
CONTINUOUS
 62
     0
100
AcDbLine
 10
0.0
 20
0.0
 30
0.0
 11
-1.0
 21
0.166667
 31
0.0
  0
LINE
  5
3B
100
AcDbEntity
  8
0
  6
CONTINUOUS
 62
     0
100
AcDbLine
 10
0.0
 20
0.0
 30
0.0
 11
-1.0
 21
-0.166667
 31
0.0
  0
ENDBLK
  5
3C
100
AcDbEntity
  8
0
100
AcDbBlockEnd
  0
BLOCK
  5
3D
100
AcDbEntity
  8
0
100
AcDbBlockBegin
  2
_EX_BNORM
 70
     0
 10
0.0
 20
0.0
 30
0.0
  3
_EX_BNORM
  1

  0
LINE
  5
3E
100
AcDbEntity
  8
0
  6
CONTINUOUS
 62
     0
100
AcDbLine
 10
0.0
 20
0.0
 30
0.0
 11
-1.0
 21
0.0
 31
0.0
  0
LINE
  5
3F
100
AcDbEntity
  8
0
  6
CONTINUOUS
 62
     0
100
AcDbLine
 10
0.0
 20
0.0
 30
0.0
 11
-1.0
 21
0.166667
 31
0.0
  0
LINE
  5
40
100
AcDbEntity
  8
0
  6
CONTINUOUS
 62
     0
100
AcDbLine
 10
0.0
 20
0.0
 30
0.0
 11
-1.0
 21
-0.166667
 31
0.0
  0
LINE
  5
41
100
AcDbEntity
  8
0
  6
CONTINUOUS
 62
     0
100
AcDbLine
 10
0.0
 20
0.0
 30
0.0
 11
-1.0
 21
0.083333
 31
0.0
  0
LINE
  5
42
100
AcDbEntity
  8
0
  6
CONTINUOUS
 62
     0
100
AcDbLine
 10
0.0
 20
0.0
 30
0.0
 11
-1.0
 21
-0.083333
 31
0.0
  0
LINE
  5
43
100
AcDbEntity
  8
0
  6
CONTINUOUS
 62
     0
100
AcDbLine
 10
-1.0
 20
0.166667
 30
0.0
 11
-1.0
 21
-0.166667
 31
0.0
  0
ENDBLK
  5
44
100
AcDbEntity
  8
0
100
AcDbBlockEnd
  0
BLOCK
  5
45
100
AcDbEntity
  8
0
100
AcDbBlockBegin
  2
_EX_BCIR
 70
     0
 10
0.0
 20
0.0
 30
0.0
  3
_EX_BCIR
  1

  0
LINE
  5
46
100
AcDbEntity
  8
0
  6
CONTINUOUS
 62
     0
100
AcDbLine
 10
0.0
 20
0.0
 30
0.0
 11
-1.0
 21
0.0
 31
0.0
  0
CIRCLE
  5
47
100
AcDbEntity
  8
0
  6
CONTINUOUS
 62
     0
100
AcDbCircle
 10
0.0
 20
0.0
 30
0.0
 40
0.5
  0
CIRCLE
  5
48
100
AcDbEntity
  8
0
  6
CONTINUOUS
 62
     0
100
AcDbCircle
 10
0.0
 20
0.0
 30
0.0
 40
0.25
  0
ENDBLK
  5
49
100
AcDbEntity
  8
0
100
AcDbBlockEnd
  0
BLOCK
  5
4A
100
AcDbEntity
  8
0
100
AcDbBlockBegin
  2
_EX_RCIVIL
 70
     0
 10
0.0
 20
0.0
 30
0.0
  3
_EX_RCIVIL
  1

  0
LINE
  5
4B
100
AcDbEntity
  8
0
  6
CONTINUOUS
 62
     0
100
AcDbLine
 10
0.0
 20
0.0
 30
0.0
 11
-1.0
 21
0.0
 31
0.0
  0
LINE
  5
4C
100
AcDbEntity
  8
0
  6
CONTINUOUS
 62
     0
100
AcDbLine
 10
-1.0
 20
-0.25
 30
0.0
 11
0.0
 21
-0.25
 31
0.0
  0
LINE
  5
4D
100
AcDbEntity
  8
0
  6
CONTINUOUS
 62
     0
100
AcDbLine
 10
-1.0
 20
-0.125
 30
0.0
 11
0.0
 21
-0.125
 31
0.0
  0
ENDBLK
  5
4E
100
AcDbEntity
  8
0
100
AcDbBlockEnd
  0
BLOCK
  5
4F
100
AcDbEntity
  8
0
100
AcDbBlockBegin
  2
_EX_SLANT
 70
     0
 10
0.0
 20
0.0
 30
0.0
  3
_EX_SLANT
  1

  0
LINE
  5
50
100
AcDbEntity
  8
0
  6
CONTINUOUS
 62
     0
100
AcDbLine
 10
0.0
 20
0.0
 30
0.0
 11
-1.0
 21
0.0
 31
0.0
  0
LINE
  5
51
100
AcDbEntity
  8
0
  6
CONTINUOUS
 62
     0
100
AcDbLine
 10
0.707107
 20
0.707107
 30
0.0
 11
-0.707107
 21
-0.707107
 31
0.0
  0
ENDBLK
  5
52
100
AcDbEntity
  8
0
100
AcDbBlockEnd
  0
BLOCK
  5
53
100
AcDbEntity
  8
0
100
AcDbBlockBegin
  2
_EX_NONE
 70
     0
 10
0.0
 20
0.0
 30
0.0
  3
_EX_NONE
  1

  0
LINE
  5
54
100
AcDbEntity
  8
0
  6
CONTINUOUS
 62
     0
100
AcDbLine
 10
0.0
 20
0.0
 30
0.0
 11
-1.0
 21
0.0
 31
0.0
  0
ENDBLK
  5
55
100
AcDbEntity
  8
0
100
AcDbBlockEnd
  0
BLOCK
  5
56
100
AcDbEntity
  8
0
100
AcDbBlockBegin
  2
_EX_CIVIL
 70
     0
 10
0.0
 20
0.0
 30
0.0
  3
_EX_CIVIL
  1

  0
LINE
  5
57
100
AcDbEntity
  8
0
  6
CONTINUOUS
 62
     0
100
AcDbLine
 10
0.0
 20
0.0
 30
0.0
 11
-1.0
 21
0.0
 31
0.0
  0
LINE
  5
58
100
AcDbEntity
  8
0
  6
CONTINUOUS
 62
     0
100
AcDbLine
 10
-1.0
 20
0.25
 30
0.0
 11
0.0
 21
0.25
 31
0.0
  0
LINE
  5
59
100
AcDbEntity
  8
0
  6
CONTINUOUS
 62
     0
100
AcDbLine
 10
-1.0
 20
0.125
 30
0.0
 11
0.0
 21
0.125
 31
0.0
  0
ENDBLK
  5
5A
100
AcDbEntity
  8
0
100
AcDbBlockEnd
  0
BLOCK
  5
5B
100
AcDbEntity
  8
0
100
AcDbBlockBegin
  2
_EX_WCIR
 70
     0
 10
0.0
 20
0.0
 30
0.0
  3
_EX_WCIR
  1

  0
LINE
  5
5C
100
AcDbEntity
  8
0
  6
CONTINUOUS
 62
     0
100
AcDbLine
 10
0.0
 20
0.0
 30
0.0
 11
-1.0
 21
0.0
 31
0.0
  0
CIRCLE
  5
5D
100
AcDbEntity
  8
0
  6
CONTINUOUS
 62
     0
100
AcDbCircle
 10
0.0
 20
0.0
 30
0.0
 40
0.5
  0
ENDBLK
  5
5E
100
AcDbEntity
  8
0
100
AcDbBlockEnd
  0
BLOCK
  5
5F
100
AcDbEntity
  8
0
100
AcDbBlockBegin
  2
_EX_WCIR2
 70
     0
 10
0.0
 20
0.0
 30
0.0
  3
_EX_WCIR2
  1

  0
LINE
  5
60
100
AcDbEntity
  8
0
  6
CONTINUOUS
 62
     0
100
AcDbLine
 10
-0.5
 20
0.0
 30
0.0
 11
-1.0
 21
0.0
 31
0.0
  0
CIRCLE
  5
61
100
AcDbEntity
  8
0
  6
CONTINUOUS
 62
     0
100
AcDbCircle
 10
0.0
 20
0.0
 30
0.0
 40
0.5
  0
ENDBLK
  5
62
100
AcDbEntity
  8
0
100
AcDbBlockEnd
  0
BLOCK
  5
63
100
AcDbEntity
  8
0
100
AcDbBlockBegin
  2
_EX_WNORM
 70
     0
 10
0.0
 20
0.0
 30
0.0
  3
_EX_WNORM
  1

  0
LINE
  5
64
100
AcDbEntity
  8
0
  6
CONTINUOUS
 62
     0
100
AcDbLine
 10
-1.0
 20
0.0
 30
0.0
 11
-1.0
 21
0.0
 31
0.0
  0
LINE
  5
65
100
AcDbEntity
  8
0
  6
CONTINUOUS
 62
     0
100
AcDbLine
 10
0.0
 20
0.0
 30
0.0
 11
-1.0
 21
0.166667
 31
0.0
  0
LINE
  5
66
100
AcDbEntity
  8
0
  6
CONTINUOUS
 62
     0
100
AcDbLine
 10
0.0
 20
0.0
 30
0.0
 11
-1.0
 21
-0.166667
 31
0.0
  0
LINE
  5
67
100
AcDbEntity
  8
0
  6
CONTINUOUS
 62
     0
100
AcDbLine
 10
-1.0
 20
0.166667
 30
0.0
 11
-1.0
 21
-0.166667
 31
0.0
  0
ENDBLK
  5
68
100
AcDbEntity
  8
0
100
AcDbBlockEnd
  0
BLOCK
  5
69
100
AcDbEntity
  8
0
100
AcDbBlockBegin
  2
_EX_NNORM
 70
     0
 10
0.0
 20
0.0
 30
0.0
  3
_EX_NNORM
  1

  0
LINE
  5
6A
100
AcDbEntity
  8
0
  6
CONTINUOUS
 62
     0
100
AcDbLine
 10
0.0
 20
0.0
 30
0.0
 11
-1.0
 21
0.0
 31
0.0
  0
LINE
  5
6B
100
AcDbEntity
  8
0
  6
CONTINUOUS
 62
     0
100
AcDbLine
 10
0.0
 20
0.0
 30
0.0
 11
-1.0
 21
0.166667
 31
0.0
  0
LINE
  5
6C
100
AcDbEntity
  8
0
  6
CONTINUOUS
 62
     0
100
AcDbLine
 10
0.0
 20
0.0
 30
0.0
 11
-1.0
 21
-0.166667
 31
0.0
  0
LINE
  5
6D
100
AcDbEntity
  8
0
  6
CONTINUOUS
 62
     0
100
AcDbLine
 10
-1.0
 20
0.166667
 30
0.0
 11
-1.0
 21
-0.166667
 31
0.0
  0
ENDBLK
  5
6E
100
AcDbEntity
  8
0
100
AcDbBlockEnd
  0
BLOCK
  5
6F
100
AcDbEntity
  8
0
100
AcDbBlockBegin
  2
_EX_BBOX
 70
     0
 10
0.0
 20
0.0
 30
0.0
  3
_EX_BBOX
  1

  0
LINE
  5
70
100
AcDbEntity
  8
0
  6
CONTINUOUS
 62
     0
100
AcDbLine
 10
0.0
 20
0.0
 30
0.0
 11
-1.0
 21
0.0
 31
0.0
  0
LINE
  5
71
100
AcDbEntity
  8
0
  6
CONTINUOUS
 62
     0
100
AcDbLine
 10
-0.5
 20
0.5
 30
0.0
 11
0.5
 21
0.5
 31
0.0
  0
LINE
  5
72
100
AcDbEntity
  8
0
  6
CONTINUOUS
 62
     0
100
AcDbLine
 10
0.5
 20
0.5
 30
0.0
 11
0.5
 21
-0.5
 31
0.0
  0
LINE
  5
73
100
AcDbEntity
  8
0
  6
CONTINUOUS
 62
     0
100
AcDbLine
 10
0.5
 20
-0.5
 30
0.0
 11
-0.5
 21
-0.5
 31
0.0
  0
LINE
  5
74
100
AcDbEntity
  8
0
  6
CONTINUOUS
 62
     0
100
AcDbLine
 10
-0.5
 20
-0.5
 30
0.0
 11
-0.5
 21
0.5
 31
0.0
  0
LINE
  5
75
100
AcDbEntity
  8
0
  6
CONTINUOUS
 62
     0
100
AcDbLine
 10
-0.25
 20
0.25
 30
0.0
 11
0.25
 21
0.25
 31
0.0
  0
LINE
  5
76
100
AcDbEntity
  8
0
  6
CONTINUOUS
 62
     0
100
AcDbLine
 10
0.25
 20
0.25
 30
0.0
 11
0.25
 21
-0.25
 31
0.0
  0
LINE
  5
77
100
AcDbEntity
  8
0
  6
CONTINUOUS
 62
     0
100
AcDbLine
 10
0.25
 20
-0.25
 30
0.0
 11
-0.25
 21
-0.25
 31
0.0
  0
LINE
  5
78
100
AcDbEntity
  8
0
  6
CONTINUOUS
 62
     0
100
AcDbLine
 10
-0.25
 20
-0.25
 30
0.0
 11
-0.25
 21
0.25
 31
0.0
  0
ENDBLK
  5
79
100
AcDbEntity
  8
0
100
AcDbBlockEnd
  0
BLOCK
  5
7A
100
AcDbEntity
  8
0
100
AcDbBlockBegin
  2
_EX_WBOX
 70
     0
 10
0.0
 20
0.0
 30
0.0
  3
_EX_WBOX
  1

  0
LINE
  5
7B
100
AcDbEntity
  8
0
  6
CONTINUOUS
 62
     0
100
AcDbLine
 10
-0.5
 20
0.0
 30
0.0
 11
-1.0
 21
0.0
 31
0.0
  0
LINE
  5
7C
100
AcDbEntity
  8
0
  6
CONTINUOUS
 62
     0
100
AcDbLine
 10
-0.5
 20
0.5
 30
0.0
 11
0.5
 21
0.5
 31
0.0
  0
LINE
  5
7D
100
AcDbEntity
  8
0
  6
CONTINUOUS
 62
     0
100
AcDbLine
 10
0.5
 20
0.5
 30
0.0
 11
0.5
 21
-0.5
 31
0.0
  0
LINE
  5
7E
100
AcDbEntity
  8
0
  6
CONTINUOUS
 62
     0
100
AcDbLine
 10
0.5
 20
-0.5
 30
0.0
 11
-0.5
 21
-0.5
 31
0.0
  0
LINE
  5
7F
100
AcDbEntity
  8
0
  6
CONTINUOUS
 62
     0
100
AcDbLine
 10
-0.5
 20
-0.5
 30
0.0
 11
-0.5
 21
0.5
 31
0.0
  0
ENDBLK
  5
80
100
AcDbEntity
  8
0
100
AcDbBlockEnd
  0
BLOCK
  5
81
100
AcDbEntity
  8
0
100
AcDbBlockBegin
  2
_EX_INTEGRAL
 70
     0
 10
0.0
 20
0.0
 30
0.0
  3
_EX_INTEGRAL
  1

  0
LINE
  5
82
100
AcDbEntity
  8
0
  6
CONTINUOUS
 62
     0
100
AcDbLine
 10
0.0
 20
0.0
 30
0.0
 11
-1.0
 21
0.0
 31
0.0
  0
ARC
  5
83
100
AcDbEntity
  8
0
  6
CONTINUOUS
 62
     0
100
AcDbCircle
 10
0.542115
 20
0.164992
 30
0.0
 40
0.56667
100
AcDbArc
 50
73.07249
 51
196.927513
  0
ARC
  5
84
100
AcDbEntity
  8
0
  6
CONTINUOUS
 62
     0
100
AcDbCircle
 10
-0.542115
 20
-0.164992
 30
0.0
 40
0.56667
100
AcDbArc
 50
253.072487
 51
16.927513
  0
ENDBLK
  5
85
100
AcDbEntity
  8
0
100
AcDbBlockEnd
  0
BLOCK
  5
11A
100
AcDbEntity
  8
0
100
AcDbBlockBegin
  2
*D14
 70
    65
 10
0.0
 20
0.0
 30
0.0
  3
*D14
  1

  0
LINE
  5
11B
100
AcDbEntity
  8
化粧台
  6
CONTINUOUS
 62
     3
100
AcDbLine
 10
2575.0
 20
1274.5
 30
0.0
 11
2679.5
 21
1274.5
 31
0.0
  0
TEXT
  5
11C
100
AcDbEntity
  8
化粧台
  6
CONTINUOUS
 62
     2
100
AcDbText
 10
2659.25
 20
1036.5
 30
0.0
 40
60.0
  1
350
 50
90.0
 41
0.84
  7
EXCADSTD
 72
     1
 11
2659.25
 21
1099.5
 31
0.0
100
AcDbText
  0
LINE
  5
11D
100
AcDbEntity
  8
化粧台
  6
CONTINUOUS
 62
     3
100
AcDbLine
 10
2664.5
 20
1274.5
 30
0.0
 11
2664.5
 21
924.5
 31
0.0
  0
LINE
  5
11E
100
AcDbEntity
  8
化粧台
  6
CONTINUOUS
 62
     3
100
AcDbLine
 10
2672.0
 20
1229.5
 30
0.0
 11
2664.5
 21
1274.5
 31
0.0
  0
LINE
  5
11F
100
AcDbEntity
  8
化粧台
  6
CONTINUOUS
 62
     3
100
AcDbLine
 10
2664.5
 20
1274.5
 30
0.0
 11
2657.0
 21
1229.5
 31
0.0
  0
LINE
  5
120
100
AcDbEntity
  8
化粧台
  6
CONTINUOUS
 62
     3
100
AcDbLine
 10
2657.0
 20
969.5
 30
0.0
 11
2664.5
 21
924.5
 31
0.0
  0
LINE
  5
121
100
AcDbEntity
  8
化粧台
  6
CONTINUOUS
 62
     3
100
AcDbLine
 10
2664.5
 20
924.5
 30
0.0
 11
2672.0
 21
969.5
 31
0.0
  0
ENDBLK
  5
122
100
AcDbEntity
  8
0
100
AcDbBlockEnd
  0
BLOCK
  5
6D0
100
AcDbEntity
  8
0
100
AcDbBlockBegin
  2
*D15
 70
    65
 10
0.0
 20
0.0
 30
0.0
  3
*D15
  1

  0
LINE
  5
6D1
100
AcDbEntity
  8
鏡台
  6
CONTINUOUS
 62
     3
100
AcDbLine
 10
602.5
 20
2783.5
 30
0.0
 11
602.5
 21
2909.5
 31
0.0
  0
LINE
  5
6D2
100
AcDbEntity
  8
鏡台
  6
CONTINUOUS
 62
     3
100
AcDbLine
 10
1262.5
 20
2783.5
 30
0.0
 11
1262.5
 21
2909.5
 31
0.0
  0
TEXT
  5
6D3
100
AcDbEntity
  8
鏡台
  6
CONTINUOUS
 62
     2
100
AcDbText
 10
869.5
 20
2899.75
 30
0.0
 40
60.0
  1
660
 41
0.84
  7
EXCADSTD
 72
     1
 11
932.5
 21
2899.75
 31
0.0
100
AcDbText
  0
LINE
  5
6D4
100
AcDbEntity
  8
鏡台
  6
CONTINUOUS
 62
     3
100
AcDbLine
 10
602.5
 20
2894.5
 30
0.0
 11
1262.5
 21
2894.5
 31
0.0
  0
LINE
  5
6D5
100
AcDbEntity
  8
鏡台
  6
CONTINUOUS
 62
     3
100
AcDbLine
 10
647.5
 20
2902.0
 30
0.0
 11
602.5
 21
2894.5
 31
0.0
  0
LINE
  5
6D6
100
AcDbEntity
  8
鏡台
  6
CONTINUOUS
 62
     3
100
AcDbLine
 10
602.5
 20
2894.5
 30
0.0
 11
647.5
 21
2887.0
 31
0.0
  0
LINE
  5
6D7
100
AcDbEntity
  8
鏡台
  6
CONTINUOUS
 62
     3
100
AcDbLine
 10
1217.5
 20
2887.0
 30
0.0
 11
1262.5
 21
2894.5
 31
0.0
  0
LINE
  5
6D8
100
AcDbEntity
  8
鏡台
  6
CONTINUOUS
 62
     3
100
AcDbLine
 10
1262.5
 20
2894.5
 30
0.0
 11
1217.5
 21
2902.0
 31
0.0
  0
ENDBLK
  5
6D9
100
AcDbEntity
  8
0
100
AcDbBlockEnd
  0
BLOCK
  5
6DC
100
AcDbEntity
  8
0
100
AcDbBlockBegin
  2
*D16
 70
    65
 10
0.0
 20
0.0
 30
0.0
  3
*D16
  1

  0
LINE
  5
6DD
100
AcDbEntity
  8
鏡台
  6
CONTINUOUS
 62
     3
100
AcDbLine
 10
670.0
 20
2198.5
 30
0.0
 11
670.0
 21
2247.5
 31
0.0
  0
LINE
  5
6DE
100
AcDbEntity
  8
鏡台
  6
CONTINUOUS
 62
     3
100
AcDbLine
 10
932.5
 20
2195.5
 30
0.0
 11
932.5
 21
2247.5
 31
0.0
  0
TEXT
  5
6DF
100
AcDbEntity
  8
鏡台
  6
CONTINUOUS
 62
     2
100
AcDbText
 10
738.25
 20
2237.75
 30
0.0
 40
60.0
  1
263
 41
0.84
  7
EXCADSTD
 72
     1
 11
801.25
 21
2237.75
 31
0.0
100
AcDbText
  0
LINE
  5
6E0
100
AcDbEntity
  8
鏡台
  6
CONTINUOUS
 62
     3
100
AcDbLine
 10
670.0
 20
2232.5
 30
0.0
 11
932.5
 21
2232.5
 31
0.0
  0
LINE
  5
6E1
100
AcDbEntity
  8
鏡台
  6
CONTINUOUS
 62
     3
100
AcDbLine
 10
715.0
 20
2240.0
 30
0.0
 11
670.0
 21
2232.5
 31
0.0
  0
LINE
  5
6E2
100
AcDbEntity
  8
鏡台
  6
CONTINUOUS
 62
     3
100
AcDbLine
 10
670.0
 20
2232.5
 30
0.0
 11
715.0
 21
2225.0
 31
0.0
  0
LINE
  5
6E3
100
AcDbEntity
  8
鏡台
  6
CONTINUOUS
 62
     3
100
AcDbLine
 10
887.5
 20
2225.0
 30
0.0
 11
932.5
 21
2232.5
 31
0.0
  0
LINE
  5
6E4
100
AcDbEntity
  8
鏡台
  6
CONTINUOUS
 62
     3
100
AcDbLine
 10
932.5
 20
2232.5
 30
0.0
 11
887.5
 21
2240.0
 31
0.0
  0
ENDBLK
  5
6E5
100
AcDbEntity
  8
0
100
AcDbBlockEnd
  0
BLOCK
  5
6E8
100
AcDbEntity
  8
0
100
AcDbBlockBegin
  2
*D17
 70
    65
 10
0.0
 20
0.0
 30
0.0
  3
*D17
  1

  0
LINE
  5
6E9
100
AcDbEntity
  8
鏡台
  6
CONTINUOUS
 62
     3
100
AcDbLine
 10
932.5
 20
2195.5
 30
0.0
 11
932.5
 21
2247.5
 31
0.0
  0
LINE
  5
6EA
100
AcDbEntity
  8
鏡台
  6
CONTINUOUS
 62
     3
100
AcDbLine
 10
1195.0
 20
2198.5
 30
0.0
 11
1195.0
 21
2247.5
 31
0.0
  0
TEXT
  5
6EB
100
AcDbEntity
  8
鏡台
  6
CONTINUOUS
 62
     2
100
AcDbText
 10
1000.75
 20
2237.75
 30
0.0
 40
60.0
  1
263
 41
0.84
  7
EXCADSTD
 72
     1
 11
1063.75
 21
2237.75
 31
0.0
100
AcDbText
  0
LINE
  5
6EC
100
AcDbEntity
  8
鏡台
  6
CONTINUOUS
 62
     3
100
AcDbLine
 10
932.5
 20
2232.5
 30
0.0
 11
1195.0
 21
2232.5
 31
0.0
  0
LINE
  5
6ED
100
AcDbEntity
  8
鏡台
  6
CONTINUOUS
 62
     3
100
AcDbLine
 10
977.5
 20
2240.0
 30
0.0
 11
932.5
 21
2232.5
 31
0.0
  0
LINE
  5
6EE
100
AcDbEntity
  8
鏡台
  6
CONTINUOUS
 62
     3
100
AcDbLine
 10
932.5
 20
2232.5
 30
0.0
 11
977.5
 21
2225.0
 31
0.0
  0
LINE
  5
6EF
100
AcDbEntity
  8
鏡台
  6
CONTINUOUS
 62
     3
100
AcDbLine
 10
1150.0
 20
2225.0
 30
0.0
 11
1195.0
 21
2232.5
 31
0.0
  0
LINE
  5
6F0
100
AcDbEntity
  8
鏡台
  6
CONTINUOUS
 62
     3
100
AcDbLine
 10
1195.0
 20
2232.5
 30
0.0
 11
1150.0
 21
2240.0
 31
0.0
  0
ENDBLK
  5
6F1
100
AcDbEntity
  8
0
100
AcDbBlockEnd
  0
BLOCK
  5
6F4
100
AcDbEntity
  8
0
100
AcDbBlockBegin
  2
*D18
 70
    65
 10
0.0
 20
0.0
 30
0.0
  3
*D18
  1

  0
LINE
  5
6F5
100
AcDbEntity
  8
鏡台
  6
CONTINUOUS
 62
     3
100
AcDbLine
 10
1318.0
 20
1719.5
 30
0.0
 11
1472.5
 21
1719.5
 31
0.0
  0
LINE
  5
6F6
100
AcDbEntity
  8
鏡台
  6
CONTINUOUS
 62
     3
100
AcDbLine
 10
1331.076697
 20
1849.5
 30
0.0
 11
1472.5
 21
1849.5
 31
0.0
  0
TEXT
  5
6F7
100
AcDbEntity
  8
鏡台
  6
CONTINUOUS
 62
     2
100
AcDbText
 10
1452.25
 20
1721.5
 30
0.0
 40
60.0
  1
130
 50
90.0
 41
0.84
  7
EXCADSTD
 72
     1
 11
1452.25
 21
1784.5
 31
0.0
100
AcDbText
  0
LINE
  5
6F8
100
AcDbEntity
  8
鏡台
  6
CONTINUOUS
 62
     3
100
AcDbLine
 10
1457.5
 20
1674.5
 30
0.0
 11
1457.5
 21
1894.5
 31
0.0
  0
LINE
  5
6F9
100
AcDbEntity
  8
鏡台
  6
CONTINUOUS
 62
     3
100
AcDbLine
 10
1465.0
 20
1674.5
 30
0.0
 11
1457.5
 21
1719.5
 31
0.0
  0
LINE
  5
6FA
100
AcDbEntity
  8
鏡台
  6
CONTINUOUS
 62
     3
100
AcDbLine
 10
1457.5
 20
1719.5
 30
0.0
 11
1450.0
 21
1674.5
 31
0.0
  0
LINE
  5
6FB
100
AcDbEntity
  8
鏡台
  6
CONTINUOUS
 62
     3
100
AcDbLine
 10
1450.0
 20
1894.5
 30
0.0
 11
1457.5
 21
1849.5
 31
0.0
  0
LINE
  5
6FC
100
AcDbEntity
  8
鏡台
  6
CONTINUOUS
 62
     3
100
AcDbLine
 10
1457.5
 20
1849.5
 30
0.0
 11
1465.0
 21
1894.5
 31
0.0
  0
ENDBLK
  5
6FD
100
AcDbEntity
  8
0
100
AcDbBlockEnd
  0
BLOCK
  5
700
100
AcDbEntity
  8
0
100
AcDbBlockBegin
  2
*D19
 70
    65
 10
0.0
 20
0.0
 30
0.0
  3
*D19
  1

  0
LINE
  5
701
100
AcDbEntity
  8
鏡台
  6
CONTINUOUS
 62
     3
100
AcDbLine
 10
1318.0
 20
1719.5
 30
0.0
 11
1532.5
 21
1719.5
 31
0.0
  0
LINE
  5
702
100
AcDbEntity
  8
鏡台
  6
CONTINUOUS
 62
     3
100
AcDbLine
 10
1318.0
 20
2819.5
 30
0.0
 11
1532.5
 21
2819.5
 31
0.0
  0
TEXT
  5
703
100
AcDbEntity
  8
鏡台
  6
CONTINUOUS
 62
     2
100
AcDbText
 10
1512.25
 20
2187.6
 30
0.0
 40
60.0
  1
1100
 50
90.0
 41
0.84
  7
EXCADSTD
 72
     1
 11
1512.25
 21
2269.5
 31
0.0
100
AcDbText
  0
LINE
  5
704
100
AcDbEntity
  8
鏡台
  6
CONTINUOUS
 62
     3
100
AcDbLine
 10
1517.5
 20
1719.5
 30
0.0
 11
1517.5
 21
2819.5
 31
0.0
  0
LINE
  5
705
100
AcDbEntity
  8
鏡台
  6
CONTINUOUS
 62
     3
100
AcDbLine
 10
1510.0
 20
1764.5
 30
0.0
 11
1517.5
 21
1719.5
 31
0.0
  0
LINE
  5
706
100
AcDbEntity
  8
鏡台
  6
CONTINUOUS
 62
     3
100
AcDbLine
 10
1517.5
 20
1719.5
 30
0.0
 11
1525.0
 21
1764.5
 31
0.0
  0
LINE
  5
707
100
AcDbEntity
  8
鏡台
  6
CONTINUOUS
 62
     3
100
AcDbLine
 10
1525.0
 20
2774.5
 30
0.0
 11
1517.5
 21
2819.5
 31
0.0
  0
LINE
  5
708
100
AcDbEntity
  8
鏡台
  6
CONTINUOUS
 62
     3
100
AcDbLine
 10
1517.5
 20
2819.5
 30
0.0
 11
1510.0
 21
2774.5
 31
0.0
  0
ENDBLK
  5
709
100
AcDbEntity
  8
0
100
AcDbBlockEnd
  0
BLOCK
  5
70C
100
AcDbEntity
  8
0
100
AcDbBlockBegin
  2
*D20
 70
    65
 10
0.0
 20
0.0
 30
0.0
  3
*D20
  1

  0
LINE
  5
70D
100
AcDbEntity
  8
鏡台
  6
CONTINUOUS
 62
     3
100
AcDbLine
 10
2334.5
 20
2801.702357
 30
0.0
 11
2334.5
 21
2886.0
 31
0.0
  0
TEXT
  5
70E
100
AcDbEntity
  8
鏡台
  6
CONTINUOUS
 62
     2
100
AcDbText
 10
2376.5
 20
2876.25
 30
0.0
 40
60.0
  1
210
 41
0.84
  7
EXCADSTD
 72
     1
 11
2439.5
 21
2876.25
 31
0.0
100
AcDbText
  0
LINE
  5
70F
100
AcDbEntity
  8
鏡台
  6
CONTINUOUS
 62
     3
100
AcDbLine
 10
2334.5
 20
2871.0
 30
0.0
 11
2544.5
 21
2871.0
 31
0.0
  0
LINE
  5
710
100
AcDbEntity
  8
鏡台
  6
CONTINUOUS
 62
     3
100
AcDbLine
 10
2379.5
 20
2878.5
 30
0.0
 11
2334.5
 21
2871.0
 31
0.0
  0
LINE
  5
711
100
AcDbEntity
  8
鏡台
  6
CONTINUOUS
 62
     3
100
AcDbLine
 10
2334.5
 20
2871.0
 30
0.0
 11
2379.5
 21
2863.5
 31
0.0
  0
LINE
  5
712
100
AcDbEntity
  8
鏡台
  6
CONTINUOUS
 62
     3
100
AcDbLine
 10
2499.5
 20
2863.5
 30
0.0
 11
2544.5
 21
2871.0
 31
0.0
  0
LINE
  5
713
100
AcDbEntity
  8
鏡台
  6
CONTINUOUS
 62
     3
100
AcDbLine
 10
2544.5
 20
2871.0
 30
0.0
 11
2499.5
 21
2878.5
 31
0.0
  0
ENDBLK
  5
714
100
AcDbEntity
  8
0
100
AcDbBlockEnd
  0
BLOCK
  5
717
100
AcDbEntity
  8
0
100
AcDbBlockBegin
  2
*D21
 70
    65
 10
0.0
 20
0.0
 30
0.0
  3
*D21
  1

  0
LINE
  5
718
100
AcDbEntity
  8
鏡台
  6
CONTINUOUS
 62
     3
100
AcDbLine
 10
2587.5
 20
2179.5
 30
0.0
 11
2859.5
 21
2179.5
 31
0.0
  0
LINE
  5
719
100
AcDbEntity
  8
鏡台
  6
CONTINUOUS
 62
     3
100
AcDbLine
 10
2587.5
 20
2764.5
 30
0.0
 11
2859.5
 21
2764.5
 31
0.0
  0
TEXT
  5
71A
100
AcDbEntity
  8
鏡台
  6
CONTINUOUS
 62
     2
100
AcDbText
 10
2839.25
 20
2409.0
 30
0.0
 40
60.0
  1
585
 50
90.0
 41
0.84
  7
EXCADSTD
 72
     1
 11
2839.25
 21
2472.0
 31
0.0
100
AcDbText
  0
LINE
  5
71B
100
AcDbEntity
  8
鏡台
  6
CONTINUOUS
 62
     3
100
AcDbLine
 10
2844.5
 20
2179.5
 30
0.0
 11
2844.5
 21
2764.5
 31
0.0
  0
LINE
  5
71C
100
AcDbEntity
  8
鏡台
  6
CONTINUOUS
 62
     3
100
AcDbLine
 10
2837.0
 20
2224.5
 30
0.0
 11
2844.5
 21
2179.5
 31
0.0
  0
LINE
  5
71D
100
AcDbEntity
  8
鏡台
  6
CONTINUOUS
 62
     3
100
AcDbLine
 10
2844.5
 20
2179.5
 30
0.0
 11
2852.0
 21
2224.5
 31
0.0
  0
LINE
  5
71E
100
AcDbEntity
  8
鏡台
  6
CONTINUOUS
 62
     3
100
AcDbLine
 10
2852.0
 20
2719.5
 30
0.0
 11
2844.5
 21
2764.5
 31
0.0
  0
LINE
  5
71F
100
AcDbEntity
  8
鏡台
  6
CONTINUOUS
 62
     3
100
AcDbLine
 10
2844.5
 20
2764.5
 30
0.0
 11
2837.0
 21
2719.5
 31
0.0
  0
ENDBLK
  5
720
100
AcDbEntity
  8
0
100
AcDbBlockEnd
  0
BLOCK
  5
832
100
AcDbEntity
  8
0
100
AcDbBlockBegin
  2
*D22
 70
    65
 10
0.0
 20
0.0
 30
0.0
  3
*D22
  1

  0
LINE
  5
833
100
AcDbEntity
  8
寸法
  6
CONTINUOUS
 62
     3
100
AcDbLine
 10
662.5
 20
4063.0
 30
0.0
 11
662.5
 21
4135.0
 31
0.0
  0
LINE
  5
834
100
AcDbEntity
  8
寸法
  6
CONTINUOUS
 62
     3
100
AcDbLine
 10
1202.5
 20
4063.0
 30
0.0
 11
1202.5
 21
4135.0
 31
0.0
  0
TEXT
  5
835
100
AcDbEntity
  8
寸法
  6
CONTINUOUS
 62
     2
100
AcDbText
 10
869.5
 20
4125.25
 30
0.0
 40
60.0
  1
540
 41
0.84
  7
EXCADSTD
 72
     1
 11
932.5
 21
4125.25
 31
0.0
100
AcDbText
  0
LINE
  5
836
100
AcDbEntity
  8
寸法
  6
CONTINUOUS
 62
     3
100
AcDbLine
 10
662.5
 20
4120.0
 30
0.0
 11
1202.5
 21
4120.0
 31
0.0
  0
LINE
  5
837
100
AcDbEntity
  8
寸法
  6
CONTINUOUS
 62
     3
100
AcDbLine
 10
707.5
 20
4127.5
 30
0.0
 11
662.5
 21
4120.0
 31
0.0
  0
LINE
  5
838
100
AcDbEntity
  8
寸法
  6
CONTINUOUS
 62
     3
100
AcDbLine
 10
662.5
 20
4120.0
 30
0.0
 11
707.5
 21
4112.5
 31
0.0
  0
LINE
  5
839
100
AcDbEntity
  8
寸法
  6
CONTINUOUS
 62
     3
100
AcDbLine
 10
1157.5
 20
4112.5
 30
0.0
 11
1202.5
 21
4120.0
 31
0.0
  0
LINE
  5
83A
100
AcDbEntity
  8
寸法
  6
CONTINUOUS
 62
     3
100
AcDbLine
 10
1202.5
 20
4120.0
 30
0.0
 11
1157.5
 21
4127.5
 31
0.0
  0
ENDBLK
  5
83B
100
AcDbEntity
  8
0
100
AcDbBlockEnd
  0
BLOCK
  5
83F
100
AcDbEntity
  8
0
100
AcDbBlockBegin
  2
*D23
 70
    65
 10
0.0
 20
0.0
 30
0.0
  3
*D23
  1

  0
LINE
  5
840
100
AcDbEntity
  8
寸法
  6
CONTINUOUS
 62
     3
100
AcDbLine
 10
1291.0
 20
924.500003
 30
0.0
 11
1291.0
 21
561.0
 31
0.0
  0
LINE
  5
841
100
AcDbEntity
  8
寸法
  6
CONTINUOUS
 62
     3
100
AcDbLine
 10
574.0
 20
924.500003
 30
0.0
 11
574.0
 21
561.0
 31
0.0
  0
TEXT
  5
842
100
AcDbEntity
  8
寸法
  6
CONTINUOUS
 62
     2
100
AcDbText
 10
869.5
 20
581.25
 30
0.0
 40
60.0
  1
717
 41
0.84
  7
EXCADSTD
 72
     1
 11
932.5
 21
581.25
 31
0.0
100
AcDbText
  0
LINE
  5
843
100
AcDbEntity
  8
寸法
  6
CONTINUOUS
 62
     3
100
AcDbLine
 10
1291.0
 20
576.0
 30
0.0
 11
574.0
 21
576.0
 31
0.0
  0
LINE
  5
844
100
AcDbEntity
  8
寸法
  6
CONTINUOUS
 62
     3
100
AcDbLine
 10
1246.0
 20
568.5
 30
0.0
 11
1291.0
 21
576.0
 31
0.0
  0
LINE
  5
845
100
AcDbEntity
  8
寸法
  6
CONTINUOUS
 62
     3
100
AcDbLine
 10
1291.0
 20
576.0
 30
0.0
 11
1246.0
 21
583.5
 31
0.0
  0
LINE
  5
846
100
AcDbEntity
  8
寸法
  6
CONTINUOUS
 62
     3
100
AcDbLine
 10
619.0
 20
583.5
 30
0.0
 11
574.0
 21
576.0
 31
0.0
  0
LINE
  5
847
100
AcDbEntity
  8
寸法
  6
CONTINUOUS
 62
     3
100
AcDbLine
 10
574.0
 20
576.0
 30
0.0
 11
619.0
 21
568.5
 31
0.0
  0
ENDBLK
  5
848
100
AcDbEntity
  8
0
100
AcDbBlockEnd
  0
BLOCK
  5
84B
100
AcDbEntity
  8
0
100
AcDbBlockBegin
  2
*D24
 70
    65
 10
0.0
 20
0.0
 30
0.0
  3
*D24
  1

  0
LINE
  5
84C
100
AcDbEntity
  8
寸法
  6
CONTINUOUS
 62
     3
100
AcDbLine
 10
2404.5
 20
774.499999
 30
0.0
 11
2404.5
 21
651.0
 31
0.0
  0
LINE
  5
84D
100
AcDbEntity
  8
寸法
  6
CONTINUOUS
 62
     3
100
AcDbLine
 10
2544.5
 20
922.050001
 30
0.0
 11
2544.5
 21
651.0
 31
0.0
  0
TEXT
  5
84E
100
AcDbEntity
  8
寸法
  6
CONTINUOUS
 62
     2
100
AcDbText
 10
2601.5
 20
671.25
 30
0.0
 40
60.0
  1
140
 41
0.84
  7
EXCADSTD
 72
     1
 11
2664.5
 21
671.25
 31
0.0
100
AcDbText
  0
LINE
  5
84F
100
AcDbEntity
  8
寸法
  6
CONTINUOUS
 62
     3
100
AcDbLine
 10
2359.5
 20
666.0
 30
0.0
 11
2744.750006
 21
666.0
 31
0.0
  0
LINE
  5
850
100
AcDbEntity
  8
寸法
  6
CONTINUOUS
 62
     3
100
AcDbLine
 10
2359.5
 20
658.5
 30
0.0
 11
2404.5
 21
666.0
 31
0.0
  0
LINE
  5
851
100
AcDbEntity
  8
寸法
  6
CONTINUOUS
 62
     3
100
AcDbLine
 10
2404.5
 20
666.0
 30
0.0
 11
2359.5
 21
673.5
 31
0.0
  0
LINE
  5
852
100
AcDbEntity
  8
寸法
  6
CONTINUOUS
 62
     3
100
AcDbLine
 10
2589.5
 20
673.5
 30
0.0
 11
2544.5
 21
666.0
 31
0.0
  0
LINE
  5
853
100
AcDbEntity
  8
寸法
  6
CONTINUOUS
 62
     3
100
AcDbLine
 10
2544.5
 20
666.0
 30
0.0
 11
2589.5
 21
658.5
 31
0.0
  0
ENDBLK
  5
854
100
AcDbEntity
  8
0
100
AcDbBlockEnd
  0
BLOCK
  5
857
100
AcDbEntity
  8
0
100
AcDbBlockBegin
  2
*D25
 70
    65
 10
0.0
 20
0.0
 30
0.0
  3
*D25
  1

  0
LINE
  5
858
100
AcDbEntity
  8
寸法
  6
CONTINUOUS
 62
     3
100
AcDbLine
 10
2459.5
 20
960.707076
 30
0.0
 11
2459.5
 21
741.0
 31
0.0
  0
TEXT
  5
859
100
AcDbEntity
  8
寸法
  6
CONTINUOUS
 62
     2
100
AcDbText
 10
2615.9
 20
761.25
 30
0.0
 40
60.0
  1
85（床給水）
 41
0.84
  7
EXCADSTD
 72
     1
 11
2754.5
 21
761.25
 31
0.0
100
AcDbText
  0
LINE
  5
85A
100
AcDbEntity
  8
寸法
  6
CONTINUOUS
 62
     3
100
AcDbLine
 10
2414.5
 20
756.0
 30
0.0
 11
2924.750006
 21
756.0
 31
0.0
  0
LINE
  5
85B
100
AcDbEntity
  8
寸法
  6
CONTINUOUS
 62
     3
100
AcDbLine
 10
2414.5
 20
748.5
 30
0.0
 11
2459.5
 21
756.0
 31
0.0
  0
LINE
  5
85C
100
AcDbEntity
  8
寸法
  6
CONTINUOUS
 62
     3
100
AcDbLine
 10
2459.5
 20
756.0
 30
0.0
 11
2414.5
 21
763.5
 31
0.0
  0
LINE
  5
85D
100
AcDbEntity
  8
寸法
  6
CONTINUOUS
 62
     3
100
AcDbLine
 10
2589.5
 20
763.5
 30
0.0
 11
2544.5
 21
756.0
 31
0.0
  0
LINE
  5
85E
100
AcDbEntity
  8
寸法
  6
CONTINUOUS
 62
     3
100
AcDbLine
 10
2544.5
 20
756.0
 30
0.0
 11
2589.5
 21
748.5
 31
0.0
  0
ENDBLK
  5
85F
100
AcDbEntity
  8
0
100
AcDbBlockEnd
  0
BLOCK
  5
862
100
AcDbEntity
  8
0
100
AcDbBlockBegin
  2
*D26
 70
    65
 10
0.0
 20
0.0
 30
0.0
  3
*D26
  1

  0
LINE
  5
863
100
AcDbEntity
  8
寸法
  6
CONTINUOUS
 62
     3
100
AcDbLine
 10
2129.5
 20
987.207107
 30
0.0
 11
2129.5
 21
561.0
 31
0.0
  0
LINE
  5
864
100
AcDbEntity
  8
寸法
  6
CONTINUOUS
 62
     3
100
AcDbLine
 10
2544.5
 20
913.650002
 30
0.0
 11
2544.5
 21
561.0
 31
0.0
  0
TEXT
  5
865
100
AcDbEntity
  8
寸法
  6
CONTINUOUS
 62
     2
100
AcDbText
 10
2274.0
 20
581.25
 30
0.0
 40
60.0
  1
415
 41
0.84
  7
EXCADSTD
 72
     1
 11
2337.0
 21
581.25
 31
0.0
100
AcDbText
  0
LINE
  5
866
100
AcDbEntity
  8
寸法
  6
CONTINUOUS
 62
     3
100
AcDbLine
 10
2129.5
 20
576.0
 30
0.0
 11
2544.5
 21
576.0
 31
0.0
  0
LINE
  5
867
100
AcDbEntity
  8
寸法
  6
CONTINUOUS
 62
     3
100
AcDbLine
 10
2174.5
 20
583.5
 30
0.0
 11
2129.5
 21
576.0
 31
0.0
  0
LINE
  5
868
100
AcDbEntity
  8
寸法
  6
CONTINUOUS
 62
     3
100
AcDbLine
 10
2129.5
 20
576.0
 30
0.0
 11
2174.5
 21
568.5
 31
0.0
  0
LINE
  5
869
100
AcDbEntity
  8
寸法
  6
CONTINUOUS
 62
     3
100
AcDbLine
 10
2499.5
 20
568.5
 30
0.0
 11
2544.5
 21
576.0
 31
0.0
  0
LINE
  5
86A
100
AcDbEntity
  8
寸法
  6
CONTINUOUS
 62
     3
100
AcDbLine
 10
2544.5
 20
576.0
 30
0.0
 11
2499.5
 21
583.5
 31
0.0
  0
ENDBLK
  5
86B
100
AcDbEntity
  8
0
100
AcDbBlockEnd
  0
BLOCK
  5
86E
100
AcDbEntity
  8
0
100
AcDbBlockBegin
  2
*D27
 70
    65
 10
0.0
 20
0.0
 30
0.0
  3
*D27
  1

  0
LINE
  5
86F
100
AcDbEntity
  8
寸法
  6
CONTINUOUS
 62
     3
100
AcDbLine
 10
557.5
 20
3519.5
 30
0.0
 11
557.5
 21
3314.0
 31
0.0
  0
LINE
  5
870
100
AcDbEntity
  8
寸法
  6
CONTINUOUS
 62
     3
100
AcDbLine
 10
1307.5
 20
3519.5
 30
0.0
 11
1307.5
 21
3314.0
 31
0.0
  0
TEXT
  5
871
100
AcDbEntity
  8
寸法
  6
CONTINUOUS
 62
     2
100
AcDbText
 10
869.5
 20
3334.25
 30
0.0
 40
60.0
  1
750
 41
0.84
  7
EXCADSTD
 72
     1
 11
932.5
 21
3334.25
 31
0.0
100
AcDbText
  0
LINE
  5
872
100
AcDbEntity
  8
寸法
  6
CONTINUOUS
 62
     3
100
AcDbLine
 10
557.5
 20
3329.0
 30
0.0
 11
1307.5
 21
3329.0
 31
0.0
  0
LINE
  5
873
100
AcDbEntity
  8
寸法
  6
CONTINUOUS
 62
     3
100
AcDbLine
 10
602.5
 20
3336.5
 30
0.0
 11
557.5
 21
3329.0
 31
0.0
  0
LINE
  5
874
100
AcDbEntity
  8
寸法
  6
CONTINUOUS
 62
     3
100
AcDbLine
 10
557.5
 20
3329.0
 30
0.0
 11
602.5
 21
3321.5
 31
0.0
  0
LINE
  5
875
100
AcDbEntity
  8
寸法
  6
CONTINUOUS
 62
     3
100
AcDbLine
 10
1262.5
 20
3321.5
 30
0.0
 11
1307.5
 21
3329.0
 31
0.0
  0
LINE
  5
876
100
AcDbEntity
  8
寸法
  6
CONTINUOUS
 62
     3
100
AcDbLine
 10
1307.5
 20
3329.0
 30
0.0
 11
1262.5
 21
3336.5
 31
0.0
  0
ENDBLK
  5
877
100
AcDbEntity
  8
0
100
AcDbBlockEnd
  0
BLOCK
  5
87A
100
AcDbEntity
  8
0
100
AcDbBlockBegin
  2
*D28
 70
    65
 10
0.0
 20
0.0
 30
0.0
  3
*D28
  1

  0
LINE
  5
87B
100
AcDbEntity
  8
寸法
  6
CONTINUOUS
 62
     3
100
AcDbLine
 10
943.0
 20
3455.0
 30
0.0
 11
1444.0
 21
3455.0
 31
0.0
  0
TEXT
  5
87C
100
AcDbEntity
  8
寸法
  6
CONTINUOUS
 62
     2
100
AcDbText
 10
1423.75
 20
3667.0
 30
0.0
 40
60.0
  1
550
 50
90.0
 41
0.84
  7
EXCADSTD
 72
     1
 11
1423.75
 21
3730.0
 31
0.0
100
AcDbText
  0
LINE
  5
87D
100
AcDbEntity
  8
寸法
  6
CONTINUOUS
 62
     3
100
AcDbLine
 10
1429.0
 20
3455.0
 30
0.0
 11
1429.0
 21
4005.0
 31
0.0
  0
LINE
  5
87E
100
AcDbEntity
  8
寸法
  6
CONTINUOUS
 62
     3
100
AcDbLine
 10
1421.5
 20
3500.0
 30
0.0
 11
1429.0
 21
3455.0
 31
0.0
  0
LINE
  5
87F
100
AcDbEntity
  8
寸法
  6
CONTINUOUS
 62
     3
100
AcDbLine
 10
1429.0
 20
3455.0
 30
0.0
 11
1436.5
 21
3500.0
 31
0.0
  0
LINE
  5
880
100
AcDbEntity
  8
寸法
  6
CONTINUOUS
 62
     3
100
AcDbLine
 10
1436.5
 20
3960.0
 30
0.0
 11
1429.0
 21
4005.0
 31
0.0
  0
LINE
  5
881
100
AcDbEntity
  8
寸法
  6
CONTINUOUS
 62
     3
100
AcDbLine
 10
1429.0
 20
4005.0
 30
0.0
 11
1421.5
 21
3960.0
 31
0.0
  0
ENDBLK
  5
882
100
AcDbEntity
  8
0
100
AcDbBlockEnd
  0
BLOCK
  5
885
100
AcDbEntity
  8
0
100
AcDbBlockBegin
  2
*D29
 70
    65
 10
0.0
 20
0.0
 30
0.0
  3
*D29
  1

  0
LINE
  5
886
100
AcDbEntity
  8
寸法
  6
CONTINUOUS
 62
     3
100
AcDbLine
 10
1310.55
 20
1719.5
 30
0.0
 11
1532.5
 21
1719.5
 31
0.0
  0
TEXT
  5
887
100
AcDbEntity
  8
寸法
  6
CONTINUOUS
 62
     2
100
AcDbText
 10
1512.25
 20
1259.0
 30
0.0
 40
60.0
  1
795
 50
90.0
 41
0.84
  7
EXCADSTD
 72
     1
 11
1512.25
 21
1322.0
 31
0.0
100
AcDbText
  0
LINE
  5
888
100
AcDbEntity
  8
寸法
  6
CONTINUOUS
 62
     3
100
AcDbLine
 10
1517.5
 20
924.5
 30
0.0
 11
1517.5
 21
1719.5
 31
0.0
  0
LINE
  5
889
100
AcDbEntity
  8
寸法
  6
CONTINUOUS
 62
     3
100
AcDbLine
 10
1510.0
 20
969.5
 30
0.0
 11
1517.5
 21
924.5
 31
0.0
  0
LINE
  5
88A
100
AcDbEntity
  8
寸法
  6
CONTINUOUS
 62
     3
100
AcDbLine
 10
1517.5
 20
924.5
 30
0.0
 11
1525.0
 21
969.5
 31
0.0
  0
LINE
  5
88B
100
AcDbEntity
  8
寸法
  6
CONTINUOUS
 62
     3
100
AcDbLine
 10
1525.0
 20
1674.5
 30
0.0
 11
1517.5
 21
1719.5
 31
0.0
  0
LINE
  5
88C
100
AcDbEntity
  8
寸法
  6
CONTINUOUS
 62
     3
100
AcDbLine
 10
1517.5
 20
1719.5
 30
0.0
 11
1510.0
 21
1674.5
 31
0.0
  0
ENDBLK
  5
88D
100
AcDbEntity
  8
0
100
AcDbBlockEnd
  0
BLOCK
  5
890
100
AcDbEntity
  8
0
100
AcDbBlockBegin
  2
*D30
 70
    65
 10
0.0
 20
0.0
 30
0.0
  3
*D30
  1

  0
LINE
  5
891
100
AcDbEntity
  8
寸法
  6
CONTINUOUS
 62
     3
100
AcDbLine
 10
2555.0
 20
924.5
 30
0.0
 11
2859.5
 21
924.5
 31
0.0
  0
LINE
  5
892
100
AcDbEntity
  8
寸法
  6
CONTINUOUS
 62
     3
100
AcDbLine
 10
2587.5
 20
1434.5
 30
0.0
 11
2769.5
 21
1434.5
 31
0.0
  0
TEXT
  5
893
100
AcDbEntity
  8
寸法
  6
CONTINUOUS
 62
     2
100
AcDbText
 10
2749.25
 20
1116.5
 30
0.0
 40
60.0
  1
510
 50
90.0
 41
0.84
  7
EXCADSTD
 72
     1
 11
2749.25
 21
1179.5
 31
0.0
100
AcDbText
  0
LINE
  5
894
100
AcDbEntity
  8
寸法
  6
CONTINUOUS
 62
     3
100
AcDbLine
 10
2754.5
 20
924.5
 30
0.0
 11
2754.5
 21
1434.5
 31
0.0
  0
LINE
  5
895
100
AcDbEntity
  8
寸法
  6
CONTINUOUS
 62
     3
100
AcDbLine
 10
2747.0
 20
969.5
 30
0.0
 11
2754.5
 21
924.5
 31
0.0
  0
LINE
  5
896
100
AcDbEntity
  8
寸法
  6
CONTINUOUS
 62
     3
100
AcDbLine
 10
2754.5
 20
924.5
 30
0.0
 11
2762.0
 21
969.5
 31
0.0
  0
LINE
  5
897
100
AcDbEntity
  8
寸法
  6
CONTINUOUS
 62
     3
100
AcDbLine
 10
2762.0
 20
1389.5
 30
0.0
 11
2754.5
 21
1434.5
 31
0.0
  0
LINE
  5
898
100
AcDbEntity
  8
寸法
  6
CONTINUOUS
 62
     3
100
AcDbLine
 10
2754.5
 20
1434.5
 30
0.0
 11
2747.0
 21
1389.5
 31
0.0
  0
ENDBLK
  5
899
100
AcDbEntity
  8
0
100
AcDbBlockEnd
  0
BLOCK
  5
89C
100
AcDbEntity
  8
0
100
AcDbBlockBegin
  2
*D31
 70
    65
 10
0.0
 20
0.0
 30
0.0
  3
*D31
  1

  0
LINE
  5
89D
100
AcDbEntity
  8
寸法
  6
CONTINUOUS
 62
     3
100
AcDbLine
 10
943.0
 20
1691.5
 30
0.0
 11
1442.5
 21
1691.5
 31
0.0
  0
TEXT
  5
89E
100
AcDbEntity
  8
寸法
  6
CONTINUOUS
 62
     2
100
AcDbText
 10
1422.25
 20
1245.0
 30
0.0
 40
60.0
  1
767
 50
90.0
 41
0.84
  7
EXCADSTD
 72
     1
 11
1422.25
 21
1308.0
 31
0.0
100
AcDbText
  0
LINE
  5
89F
100
AcDbEntity
  8
寸法
  6
CONTINUOUS
 62
     3
100
AcDbLine
 10
1427.5
 20
1691.5
 30
0.0
 11
1427.5
 21
924.5
 31
0.0
  0
LINE
  5
8A0
100
AcDbEntity
  8
寸法
  6
CONTINUOUS
 62
     3
100
AcDbLine
 10
1435.0
 20
1646.5
 30
0.0
 11
1427.5
 21
1691.5
 31
0.0
  0
LINE
  5
8A1
100
AcDbEntity
  8
寸法
  6
CONTINUOUS
 62
     3
100
AcDbLine
 10
1427.5
 20
1691.5
 30
0.0
 11
1420.0
 21
1646.5
 31
0.0
  0
LINE
  5
8A2
100
AcDbEntity
  8
寸法
  6
CONTINUOUS
 62
     3
100
AcDbLine
 10
1420.0
 20
969.5
 30
0.0
 11
1427.5
 21
924.5
 31
0.0
  0
LINE
  5
8A3
100
AcDbEntity
  8
寸法
  6
CONTINUOUS
 62
     3
100
AcDbLine
 10
1427.5
 20
924.5
 30
0.0
 11
1435.0
 21
969.5
 31
0.0
  0
ENDBLK
  5
8A4
100
AcDbEntity
  8
0
100
AcDbBlockEnd
  0
BLOCK
  5
8AD
100
AcDbEntity
  8
0
100
AcDbBlockBegin
  2
*D32
 70
    65
 10
0.0
 20
0.0
 30
0.0
  3
*D32
  1

  0
LINE
  5
8AE
100
AcDbEntity
  8
寸法
  6
CONTINUOUS
 62
     3
100
AcDbLine
 10
881.5
 20
1786.663781
 30
0.0
 11
881.5
 21
1881.0
 31
0.0
  0
LINE
  5
8AF
100
AcDbEntity
  8
寸法
  6
CONTINUOUS
 62
     3
100
AcDbLine
 10
983.5
 20
1786.663781
 30
0.0
 11
983.5
 21
1881.0
 31
0.0
  0
TEXT
  5
8B0
100
AcDbEntity
  8
寸法
  6
CONTINUOUS
 62
     2
100
AcDbText
 10
869.5
 20
1871.25
 30
0.0
 40
60.0
  1
102
 41
0.84
  7
EXCADSTD
 72
     1
 11
932.5
 21
1871.25
 31
0.0
100
AcDbText
  0
LINE
  5
8B1
100
AcDbEntity
  8
寸法
  6
CONTINUOUS
 62
     3
100
AcDbLine
 10
836.5
 20
1866.0
 30
0.0
 11
1028.5
 21
1866.0
 31
0.0
  0
LINE
  5
8B2
100
AcDbEntity
  8
寸法
  6
CONTINUOUS
 62
     3
100
AcDbLine
 10
836.5
 20
1858.5
 30
0.0
 11
881.5
 21
1866.0
 31
0.0
  0
LINE
  5
8B3
100
AcDbEntity
  8
寸法
  6
CONTINUOUS
 62
     3
100
AcDbLine
 10
881.5
 20
1866.0
 30
0.0
 11
836.5
 21
1873.5
 31
0.0
  0
LINE
  5
8B4
100
AcDbEntity
  8
寸法
  6
CONTINUOUS
 62
     3
100
AcDbLine
 10
1028.5
 20
1873.5
 30
0.0
 11
983.5
 21
1866.0
 31
0.0
  0
LINE
  5
8B5
100
AcDbEntity
  8
寸法
  6
CONTINUOUS
 62
     3
100
AcDbLine
 10
983.5
 20
1866.0
 30
0.0
 11
1028.5
 21
1858.5
 31
0.0
  0
ENDBLK
  5
8B6
100
AcDbEntity
  8
0
100
AcDbBlockEnd
  0
BLOCK
  5
8B9
100
AcDbEntity
  8
0
100
AcDbBlockBegin
  2
*D33
 70
    65
 10
0.0
 20
0.0
 30
0.0
  3
*D33
  1

  0
LINE
  5
8BA
100
AcDbEntity
  8
寸法
  6
CONTINUOUS
 62
     3
100
AcDbLine
 10
857.5
 20
907.050003
 30
0.0
 11
857.5
 21
651.0
 31
0.0
  0
LINE
  5
8BB
100
AcDbEntity
  8
寸法
  6
CONTINUOUS
 62
     3
100
AcDbLine
 10
1007.5
 20
907.050003
 30
0.0
 11
1007.5
 21
651.0
 31
0.0
  0
TEXT
  5
8BC
100
AcDbEntity
  8
寸法
  6
CONTINUOUS
 62
     2
100
AcDbText
 10
869.5
 20
671.25
 30
0.0
 40
60.0
  1
150
 41
0.84
  7
EXCADSTD
 72
     1
 11
932.5
 21
671.25
 31
0.0
100
AcDbText
  0
LINE
  5
8BD
100
AcDbEntity
  8
寸法
  6
CONTINUOUS
 62
     3
100
AcDbLine
 10
812.5
 20
666.0
 30
0.0
 11
1052.5
 21
666.0
 31
0.0
  0
LINE
  5
8BE
100
AcDbEntity
  8
寸法
  6
CONTINUOUS
 62
     3
100
AcDbLine
 10
812.5
 20
658.5
 30
0.0
 11
857.5
 21
666.0
 31
0.0
  0
LINE
  5
8BF
100
AcDbEntity
  8
寸法
  6
CONTINUOUS
 62
     3
100
AcDbLine
 10
857.5
 20
666.0
 30
0.0
 11
812.5
 21
673.5
 31
0.0
  0
LINE
  5
8C0
100
AcDbEntity
  8
寸法
  6
CONTINUOUS
 62
     3
100
AcDbLine
 10
1052.5
 20
673.5
 30
0.0
 11
1007.5
 21
666.0
 31
0.0
  0
LINE
  5
8C1
100
AcDbEntity
  8
寸法
  6
CONTINUOUS
 62
     3
100
AcDbLine
 10
1007.5
 20
666.0
 30
0.0
 11
1052.5
 21
658.5
 31
0.0
  0
ENDBLK
  5
8C2
100
AcDbEntity
  8
0
100
AcDbBlockEnd
  0
BLOCK
  5
8C5
100
AcDbEntity
  8
0
100
AcDbBlockBegin
  2
*D34
 70
    65
 10
0.0
 20
0.0
 30
0.0
  3
*D34
  1

  0
LINE
  5
8C6
100
AcDbEntity
  8
寸法
  6
CONTINUOUS
 62
     3
100
AcDbLine
 10
2294.249994
 20
1870.95
 30
0.0
 11
2589.5
 21
1870.95
 31
0.0
  0
LINE
  5
8C7
100
AcDbEntity
  8
寸法
  6
CONTINUOUS
 62
     3
100
AcDbLine
 10
2404.5
 20
1863.45
 30
0.0
 11
2449.5
 21
1870.95
 31
0.0
  0
LINE
  5
8C8
100
AcDbEntity
  8
寸法
  6
CONTINUOUS
 62
     3
100
AcDbLine
 10
2449.5
 20
1870.95
 30
0.0
 11
2404.5
 21
1878.45
 31
0.0
  0
LINE
  5
8C9
100
AcDbEntity
  8
寸法
  6
CONTINUOUS
 62
     3
100
AcDbLine
 10
2589.5
 20
1878.45
 30
0.0
 11
2544.5
 21
1870.95
 31
0.0
  0
LINE
  5
8CA
100
AcDbEntity
  8
寸法
  6
CONTINUOUS
 62
     3
100
AcDbLine
 10
2544.5
 20
1870.95
 30
0.0
 11
2589.5
 21
1863.45
 31
0.0
  0
TEXT
  5
8CB
100
AcDbEntity
  8
寸法
  6
CONTINUOUS
 62
     2
100
AcDbText
 10
2307.9
 20
1876.2
 30
0.0
 40
60.0
  1
95
 41
0.84
  7
EXCADSTD
 72
     1
 11
2352.0
 21
1876.2
 31
0.0
100
AcDbText
  0
LINE
  5
8CC
100
AcDbEntity
  8
寸法
  6
CONTINUOUS
 62
     3
100
AcDbLine
 10
2449.5
 20
1786.663781
 30
0.0
 11
2449.5
 21
1885.95
 31
0.0
  0
ENDBLK
  5
8CD
100
AcDbEntity
  8
0
100
AcDbBlockEnd
  0
BLOCK
  5
8D0
100
AcDbEntity
  8
0
100
AcDbBlockBegin
  2
*D35
 70
    65
 10
0.0
 20
0.0
 30
0.0
  3
*D35
  1

  0
LINE
  5
8D1
100
AcDbEntity
  8
寸法
  6
CONTINUOUS
 62
     3
100
AcDbLine
 10
2762.0
 20
924.5
 30
0.0
 11
2859.5
 21
924.5
 31
0.0
  0
TEXT
  5
8D2
100
AcDbEntity
  8
寸法
  6
CONTINUOUS
 62
     2
100
AcDbText
 10
2839.25
 20
1578.1
 30
0.0
 40
60.0
  1
1255
 50
90.0
 41
0.84
  7
EXCADSTD
 72
     1
 11
2839.25
 21
1660.0
 31
0.0
100
AcDbText
  0
LINE
  5
8D3
100
AcDbEntity
  8
寸法
  6
CONTINUOUS
 62
     3
100
AcDbLine
 10
2844.5
 20
2179.5
 30
0.0
 11
2844.5
 21
924.5
 31
0.0
  0
LINE
  5
8D4
100
AcDbEntity
  8
寸法
  6
CONTINUOUS
 62
     3
100
AcDbLine
 10
2852.0
 20
2134.5
 30
0.0
 11
2844.5
 21
2179.5
 31
0.0
  0
LINE
  5
8D5
100
AcDbEntity
  8
寸法
  6
CONTINUOUS
 62
     3
100
AcDbLine
 10
2844.5
 20
2179.5
 30
0.0
 11
2837.0
 21
2134.5
 31
0.0
  0
LINE
  5
8D6
100
AcDbEntity
  8
寸法
  6
CONTINUOUS
 62
     3
100
AcDbLine
 10
2837.0
 20
969.5
 30
0.0
 11
2844.5
 21
924.5
 31
0.0
  0
LINE
  5
8D7
100
AcDbEntity
  8
寸法
  6
CONTINUOUS
 62
     3
100
AcDbLine
 10
2844.5
 20
924.5
 30
0.0
 11
2852.0
 21
969.5
 31
0.0
  0
ENDBLK
  5
8D8
100
AcDbEntity
  8
0
100
AcDbBlockEnd
  0
BLOCK
  5
8DD
100
AcDbEntity
  8
0
100
AcDbBlockBegin
  2
*D36
 70
    65
 10
0.0
 20
0.0
 30
0.0
  3
*D36
  1

  0
TEXT
  5
8DE
100
AcDbEntity
  8
寸法
  6
CONTINUOUS
 62
     2
100
AcDbText
 10
1602.25
 20
1790.1
 30
0.0
 40
60.0
  1
1895
 50
90.0
 41
0.84
  7
EXCADSTD
 72
     1
 11
1602.25
 21
1872.0
 31
0.0
100
AcDbText
  0
LINE
  5
8DF
100
AcDbEntity
  8
寸法
  6
CONTINUOUS
 62
     3
100
AcDbLine
 10
1525.0
 20
2819.5
 30
0.0
 11
1622.5
 21
2819.5
 31
0.0
  0
LINE
  5
8E0
100
AcDbEntity
  8
寸法
  6
CONTINUOUS
 62
     3
100
AcDbLine
 10
1607.5
 20
2819.5
 30
0.0
 11
1607.5
 21
924.5
 31
0.0
  0
LINE
  5
8E1
100
AcDbEntity
  8
寸法
  6
CONTINUOUS
 62
     3
100
AcDbLine
 10
1615.0
 20
2774.5
 30
0.0
 11
1607.5
 21
2819.5
 31
0.0
  0
LINE
  5
8E2
100
AcDbEntity
  8
寸法
  6
CONTINUOUS
 62
     3
100
AcDbLine
 10
1607.5
 20
2819.5
 30
0.0
 11
1600.0
 21
2774.5
 31
0.0
  0
LINE
  5
8E3
100
AcDbEntity
  8
寸法
  6
CONTINUOUS
 62
     3
100
AcDbLine
 10
1600.0
 20
969.5
 30
0.0
 11
1607.5
 21
924.5
 31
0.0
  0
LINE
  5
8E4
100
AcDbEntity
  8
寸法
  6
CONTINUOUS
 62
     3
100
AcDbLine
 10
1607.5
 20
924.5
 30
0.0
 11
1615.0
 21
969.5
 31
0.0
  0
ENDBLK
  5
8E5
100
AcDbEntity
  8
0
100
AcDbBlockEnd
  0
ENDSEC
  0
SECTION
  2
ENTITIES
  0
LINE
  5
86
100
AcDbEntity
  8
枠・表
  6
CONTINUOUS
 62
     7
100
AcDbLine
 10
270.0
 20
202.5
 30
0.0
 11
3000.0
 21
202.5
 31
0.0
  0
LINE
  5
87
100
AcDbEntity
  8
枠・表
  6
CONTINUOUS
 62
     7
100
AcDbLine
 10
3000.0
 20
202.5
 30
0.0
 11
3000.0
 21
4327.5
 31
0.0
  0
LINE
  5
88
100
AcDbEntity
  8
枠・表
  6
CONTINUOUS
 62
     7
100
AcDbLine
 10
270.0
 20
202.5
 30
0.0
 11
270.0
 21
4327.5
 31
0.0
  0
LINE
  5
89
100
AcDbEntity
  8
枠・表
  6
CONTINUOUS
 62
     7
100
AcDbLine
 10
270.0
 20
4327.5
 30
0.0
 11
3000.0
 21
4327.5
 31
0.0
  0
LINE
  5
8A
100
AcDbEntity
  8
枠・表
  6
CONTINUOUS
 62
     7
100
AcDbLine
 10
270.0
 20
532.5
 30
0.0
 11
3000.0
 21
532.5
 31
0.0
  0
LINE
  5
8B
100
AcDbEntity
  8
枠・表
  6
CONTINUOUS
 62
     6
100
AcDbLine
 10
3000.0
 20
352.5
 30
0.0
 11
1125.0
 21
352.5
 31
0.0
  0
LINE
  5
8C
100
AcDbEntity
  8
枠・表
  6
CONTINUOUS
 62
     6
100
AcDbLine
 10
2790.0
 20
532.5
 30
0.0
 11
2790.0
 21
352.5
 31
0.0
  0
LINE
  5
8D
100
AcDbEntity
  8
枠・表
  6
CONTINUOUS
 62
     6
100
AcDbLine
 10
2715.0
 20
532.5
 30
0.0
 11
2715.0
 21
352.5
 31
0.0
  0
LINE
  5
8E
100
AcDbEntity
  8
枠・表
  6
CONTINUOUS
 62
     6
100
AcDbLine
 10
2160.0
 20
532.5
 30
0.0
 11
2160.0
 21
202.5
 31
0.0
  0
LINE
  5
8F
100
AcDbEntity
  8
枠・表
  6
CONTINUOUS
 62
     6
100
AcDbLine
 10
2085.0
 20
532.5
 30
0.0
 11
2085.0
 21
202.5
 31
0.0
  0
LINE
  5
90
100
AcDbEntity
  8
枠・表
  6
CONTINUOUS
 62
     6
100
AcDbLine
 10
1200.0
 20
532.5
 30
0.0
 11
1200.0
 21
352.5
 31
0.0
  0
LINE
  5
91
100
AcDbEntity
  8
枠・表
  6
CONTINUOUS
 62
     6
100
AcDbLine
 10
1125.0
 20
532.5
 30
0.0
 11
1125.0
 21
202.5
 31
0.0
  0
LINE
  5
92
100
AcDbEntity
  8
枠・表
  6
CONTINUOUS
 62
     6
100
AcDbLine
 10
930.0
 20
532.5
 30
0.0
 11
930.0
 21
202.5
 31
0.0
  0
LINE
  5
93
100
AcDbEntity
  8
枠・表
  6
CONTINUOUS
 62
     6
100
AcDbLine
 10
735.0
 20
532.5
 30
0.0
 11
735.0
 21
202.5
 31
0.0
  0
LINE
  5
94
100
AcDbEntity
  8
枠・表
  6
CONTINUOUS
 62
     6
100
AcDbLine
 10
502.5
 20
532.5
 30
0.0
 11
502.5
 21
202.5
 31
0.0
  0
LINE
  5
95
100
AcDbEntity
  8
枠・表
  6
CONTINUOUS
 62
     6
100
AcDbLine
 10
270.0
 20
457.5
 30
0.0
 11
1125.0
 21
457.5
 31
0.0
  0
LINE
  5
96
100
AcDbEntity
  8
枠・表
  6
CONTINUOUS
 62
     6
100
AcDbLine
 10
2838.980713
 20
387.004395
 30
0.0
 11
2954.990845
 21
505.049744
 31
0.0
  0
TEXT
  5
97
100
AcDbEntity
  8
枠・表
  6
CONTINUOUS
 62
     2
100
AcDbText
 10
2835.805664
 20
454.084167
 30
0.0
 40
45.0
  1
１
 41
0.826
  7
EXCADSTD
 72
     5
 11
2871.205665
 21
454.084167
 31
0.0
100
AcDbText
  0
TEXT
  5
98
100
AcDbEntity
  8
枠・表
  6
CONTINUOUS
 62
     2
100
AcDbText
 10
2896.918945
 20
387.52327
 30
0.0
 40
45.0
  1
１５
 41
0.791
  7
EXCADSTD
 72
     5
 11
2974.600797
 21
387.52327
 31
0.0
100
AcDbText
  0
TEXT
  5
99
100
AcDbEntity
  8
枠・表
  6
CONTINUOUS
 62
     2
100
AcDbText
 10
303.75
 20
463.125
 30
0.0
 40
63.75
  1
製図
 41
1.087059
  7
EXCADSTD
 72
     5
 11
454.989
 21
463.125
 31
0.0
100
AcDbText
  0
TEXT
  5
9A
100
AcDbEntity
  8
枠・表
  6
CONTINUOUS
 62
     2
100
AcDbText
 10
536.25
 20
463.125
 30
0.0
 40
63.75
  1
写図
 41
1.087059
  7
EXCADSTD
 72
     5
 11
687.489
 21
463.125
 31
0.0
100
AcDbText
  0
TEXT
  5
9B
100
AcDbEntity
  8
枠・表
  6
CONTINUOUS
 62
     2
100
AcDbText
 10
761.25
 20
463.125
 30
0.0
 40
63.75
  1
検図
 41
0.938824
  7
EXCADSTD
 72
     5
 11
891.8655
 21
463.125
 31
0.0
100
AcDbText
  0
TEXT
  5
9C
100
AcDbEntity
  8
枠・表
  6
CONTINUOUS
 62
     2
100
AcDbText
 10
956.25
 20
463.125
 30
0.0
 40
63.75
  1
承認
 41
0.938824
  7
EXCADSTD
 72
     5
 11
1086.8655
 21
463.125
 31
0.0
100
AcDbText
  0
TEXT
  5
9D
100
AcDbEntity
  8
枠・表
  6
CONTINUOUS
 62
     2
100
AcDbText
 10
1133.625
 20
448.125
 30
0.0
 40
63.75
  1
品
 41
0.84
  7
EXCADSTD
 72
     5
 11
1184.625
 21
448.125
 31
0.0
100
AcDbText
  0
TEXT
  5
9E
100
AcDbEntity
  8
枠・表
  6
CONTINUOUS
 62
     2
100
AcDbText
 10
1133.625
 20
373.125
 30
0.0
 40
63.75
  1
名
 41
0.84
  7
EXCADSTD
 72
     5
 11
1184.625
 21
373.125
 31
0.0
100
AcDbText
  0
TEXT
  5
9F
100
AcDbEntity
  8
枠・表
  6
CONTINUOUS
 62
     2
100
AcDbText
 10
2093.625
 20
448.125
 30
0.0
 40
63.75
  1
品
 41
0.84
  7
EXCADSTD
 72
     5
 11
2144.625
 21
448.125
 31
0.0
100
AcDbText
  0
TEXT
  5
A0
100
AcDbEntity
  8
枠・表
  6
CONTINUOUS
 62
     2
100
AcDbText
 10
2093.625
 20
373.125
 30
0.0
 40
63.75
  1
番
 41
0.84
  7
EXCADSTD
 72
     5
 11
2144.625
 21
373.125
 31
0.0
100
AcDbText
  0
TEXT
  5
A1
100
AcDbEntity
  8
枠・表
  6
CONTINUOUS
 62
     2
100
AcDbText
 10
2725.125
 20
448.125
 30
0.0
 40
63.75
  1
尺
 41
0.84
  7
EXCADSTD
 72
     5
 11
2776.125
 21
448.125
 31
0.0
100
AcDbText
  0
TEXT
  5
A2
100
AcDbEntity
  8
枠・表
  6
CONTINUOUS
 62
     2
100
AcDbText
 10
2725.125
 20
373.125
 30
0.0
 40
63.75
  1
度
 41
0.84
  7
EXCADSTD
 72
     5
 11
2776.125
 21
373.125
 31
0.0
100
AcDbText
  0
TEXT
  5
A3
100
AcDbEntity
  8
枠・表
  6
CONTINUOUS
 62
     2
100
AcDbText
 10
2093.625
 20
278.625
 30
0.0
 40
63.75
  1
図
 41
0.84
  7
EXCADSTD
 72
     5
 11
2144.625
 21
278.625
 31
0.0
100
AcDbText
  0
TEXT
  5
A4
100
AcDbEntity
  8
枠・表
  6
CONTINUOUS
 62
     2
100
AcDbText
 10
2093.625
 20
214.125
 30
0.0
 40
63.75
  1
番
 41
0.84
  7
EXCADSTD
 72
     5
 11
2144.625
 21
214.125
 31
0.0
100
AcDbText
  0
TEXT
  5
A5
100
AcDbEntity
  8
枠・表
  6
CONTINUOUS
 62
     2
100
AcDbText
 10
1215.0
 20
442.5
 30
0.0
 40
75.0
  1
750㎜幅
 41
0.72072
  7
EXCADSTD
 72
     5
 11
1503.75
 21
442.5
 31
0.0
100
AcDbText
  0
TEXT
  5
A6
100
AcDbEntity
  8
枠・表
  6
CONTINUOUS
 62
     2
100
AcDbText
 10
1215.0
 20
367.5
 30
0.0
 40
75.0
  1
　洗面化粧ユニット
 41
0.924
  7
EXCADSTD
 72
     5
 11
1957.5
 21
367.5
 31
0.0
100
AcDbText
  0
LINE
  5
A7
100
AcDbEntity
  8
枠・表
  6
EXLTYPE2
 62
     6
100
AcDbLine
 10
270.0
 20
277.5
 30
0.0
 11
735.0
 21
277.5
 31
0.0
  0
CIRCLE
  5
A8
100
AcDbEntity
  8
枠・表
  6
CONTINUOUS
 62
     6
100
AcDbCircle
 10
345.0
 20
240.0
 30
0.0
 40
1.5
  0
CIRCLE
  5
A9
100
AcDbEntity
  8
枠・表
  6
CONTINUOUS
 62
     6
100
AcDbCircle
 10
420.0
 20
240.0
 30
0.0
 40
1.5
  0
CIRCLE
  5
AA
100
AcDbEntity
  8
枠・表
  6
CONTINUOUS
 62
     6
100
AcDbCircle
 10
577.5
 20
240.0
 30
0.0
 40
1.5
  0
CIRCLE
  5
AB
100
AcDbEntity
  8
枠・表
  6
CONTINUOUS
 62
     6
100
AcDbCircle
 10
652.5
 20
240.0
 30
0.0
 40
1.5
  0
LINE
  5
AC
100
AcDbEntity
  8
枠・表
  6
EXLTYPE2
 62
     6
100
AcDbLine
 10
0.0
 20
2265.0
 30
0.0
 11
270.0
 21
2265.0
 31
0.0
  0
TEXT
  5
AD
100
AcDbEntity
  8
枠・表
  6
CONTINUOUS
 62
     6
100
AcDbText
 10
311.25
 20
330.0
 30
0.0
 40
75.0
  1
間瀬
 41
0.8736
  7
EXCADSTD
 72
     5
 11
454.2396
 21
330.0
 31
0.0
100
AcDbText
  0
TEXT
  5
AE
100
AcDbEntity
  8
枠・表
  6
CONTINUOUS
 62
     6
100
AcDbText
 10
758.25
 20
330.0
 30
0.0
 40
75.0
  1
中村
 41
0.8568
  7
EXCADSTD
 72
     5
 11
898.4898
 21
330.0
 31
0.0
100
AcDbText
  0
TEXT
  5
AF
100
AcDbEntity
  8
枠・表
  6
CONTINUOUS
 62
     6
100
AcDbText
 10
953.25
 20
330.0
 30
0.0
 40
75.0
  1
古林
 41
0.8568
  7
EXCADSTD
 72
     5
 11
1093.4898
 21
330.0
 31
0.0
100
AcDbText
  0
LINE
  5
B0
100
AcDbEntity
  8
枠・表
  6
CONTINUOUS
 62
     6
100
AcDbLine
 10
1875.0
 20
4282.5
 30
0.0
 11
2925.0
 21
4282.5
 31
0.0
  0
LINE
  5
B1
100
AcDbEntity
  8
枠・表
  6
CONTINUOUS
 62
     6
100
AcDbLine
 10
1875.0
 20
4200.0
 30
0.0
 11
2925.0
 21
4200.0
 31
0.0
  0
LINE
  5
B2
100
AcDbEntity
  8
枠・表
  6
CONTINUOUS
 62
     6
100
AcDbLine
 10
1875.0
 20
4117.5
 30
0.0
 11
2925.0
 21
4117.5
 31
0.0
  0
TEXT
  5
B3
100
AcDbEntity
  8
枠・表
  6
CONTINUOUS
 62
     2
100
AcDbText
 10
1995.0
 20
4211.25
 30
0.0
 40
60.0
  1
品番
 41
1.47
  7
EXCADSTD
 72
     5
 11
2187.486
 21
4211.25
 31
0.0
100
AcDbText
  0
TEXT
  5
B4
100
AcDbEntity
  8
枠・表
  6
CONTINUOUS
 62
     2
100
AcDbText
 10
2445.0
 20
4211.25
 30
0.0
 40
60.0
  1
品名
 41
1.47
  7
EXCADSTD
 72
     5
 11
2637.486
 21
4211.25
 31
0.0
100
AcDbText
  0
TEXT
  5
B5
100
AcDbEntity
  8
枠・表
  6
CONTINUOUS
 62
     2
100
AcDbText
 10
2788.5
 20
4211.25
 30
0.0
 40
60.0
  1
個数
 41
0.861
  7
EXCADSTD
 72
     5
 11
2901.2418
 21
4211.25
 31
0.0
100
AcDbText
  0
TEXT
  5
B6
100
AcDbEntity
  8
枠・表
  6
CONTINUOUS
 62
     2
100
AcDbText
 10
2340.0
 20
4128.75
 30
0.0
 40
60.0
  1
洗面化粧台
 41
0.8106
  7
EXCADSTD
 72
     5
 11
2629.499999
 21
4128.75
 31
0.0
100
AcDbText
  0
TEXT
  5
B7
100
AcDbEntity
  8
枠・表
  6
CONTINUOUS
 62
     2
100
AcDbText
 10
2816.25
 20
4128.75
 30
0.0
 40
60.0
  1
１
 41
0.945
  7
EXCADSTD
 72
     5
 11
2870.25
 21
4128.75
 31
0.0
100
AcDbText
  0
TEXT
  5
B8
100
AcDbEntity
  8
枠・表
  6
CONTINUOUS
 62
     2
100
AcDbText
 10
2340.0
 20
4046.25
 30
0.0
 40
60.0
  1
化粧鏡台
 41
0.819
  7
EXCADSTD
 72
     5
 11
2573.999999
 21
4046.25
 31
0.0
100
AcDbText
  0
TEXT
  5
B9
100
AcDbEntity
  8
枠・表
  6
CONTINUOUS
 62
     2
100
AcDbText
 10
2816.25
 20
4046.25
 30
0.0
 40
60.0
  1
１
 41
0.945
  7
EXCADSTD
 72
     5
 11
2870.25
 21
4046.25
 31
0.0
100
AcDbText
  0
LINE
  5
BA
100
AcDbEntity
  8
枠・表
  6
CONTINUOUS
 62
     6
100
AcDbLine
 10
1875.0
 20
3952.5
 30
0.0
 11
2925.0
 21
3952.5
 31
0.0
  0
LINE
  5
BB
100
AcDbEntity
  8
枠・表
  6
CONTINUOUS
 62
     6
100
AcDbLine
 10
1875.0
 20
4035.0
 30
0.0
 11
2925.0
 21
4035.0
 31
0.0
  0
LINE
  5
BC
100
AcDbEntity
  8
枠・表
  6
CONTINUOUS
 62
     6
100
AcDbLine
 10
1875.0
 20
4035.0
 30
0.0
 11
1875.0
 21
4282.5
 31
0.0
  0
LINE
  5
BD
100
AcDbEntity
  8
枠・表
  6
CONTINUOUS
 62
     6
100
AcDbLine
 10
2325.0
 20
4035.0
 30
0.0
 11
2325.0
 21
4282.5
 31
0.0
  0
LINE
  5
BE
100
AcDbEntity
  8
枠・表
  6
CONTINUOUS
 62
     6
100
AcDbLine
 10
2775.0
 20
4035.0
 30
0.0
 11
2775.0
 21
4282.5
 31
0.0
  0
LINE
  5
BF
100
AcDbEntity
  8
枠・表
  6
CONTINUOUS
 62
     6
100
AcDbLine
 10
2925.0
 20
4035.0
 30
0.0
 11
2925.0
 21
4282.5
 31
0.0
  0
TEXT
  5
C0
100
AcDbEntity
  8
枠・表
  6
CONTINUOUS
 62
     2
100
AcDbText
 10
1890.0
 20
3881.25
 30
0.0
 40
60.0
  1
ＮＬ３０Ｓ４０
 41
0.528
  7
EXCADSTD
 72
     5
 11
2154.000004
 21
3881.25
 31
0.0
100
AcDbText
  0
TEXT
  5
C1
100
AcDbEntity
  8
枠・表
  6
CONTINUOUS
 62
     2
100
AcDbText
 10
2340.0
 20
3881.25
 30
0.0
 40
60.0
  1
フレキシブルパイプ
 41
0.648667
  7
EXCADSTD
 72
     5
 11
2756.999992
 21
3881.25
 31
0.0
100
AcDbText
  0
LINE
  5
C2
100
AcDbEntity
  8
枠・表
  6
CONTINUOUS
 62
     6
100
AcDbLine
 10
1875.0
 20
3787.5
 30
0.0
 11
2925.0
 21
3787.5
 31
0.0
  0
TEXT
  5
C3
100
AcDbEntity
  8
枠・表
  6
CONTINUOUS
 62
     2
100
AcDbText
 10
1890.0
 20
3798.75
 30
0.0
 40
60.0
  1
ＮＬ２２１-７５ＷＭＹ
 41
0.49719
  7
EXCADSTD
 72
     5
 11
2274.000006
 21
3798.75
 31
0.0
100
AcDbText
  0
TEXT
  5
C4
100
AcDbEntity
  8
枠・表
  6
CONTINUOUS
 62
     2
100
AcDbText
 10
2816.25
 20
3798.75
 30
0.0
 40
60.0
  1
２
 41
0.945
  7
EXCADSTD
 72
     5
 11
2870.25
 21
3798.75
 31
0.0
100
AcDbText
  0
TEXT
  5
C5
100
AcDbEntity
  8
枠・表
  6
CONTINUOUS
 62
     2
100
AcDbText
 10
2340.0
 20
3798.75
 30
0.0
 40
60.0
  1
アングル形止水栓（共用形）
 41
0.474923
  7
EXCADSTD
 72
     5
 11
2781.000023
 21
3798.75
 31
0.0
100
AcDbText
  0
LINE
  5
C6
100
AcDbEntity
  8
枠・表
  6
CONTINUOUS
 62
     6
100
AcDbLine
 10
1875.0
 20
3870.0
 30
0.0
 11
2925.0
 21
3870.0
 31
0.0
  0
LINE
  5
C7
100
AcDbEntity
  8
枠・表
  6
CONTINUOUS
 62
     6
100
AcDbLine
 10
1875.0
 20
3787.5
 30
0.0
 11
1875.0
 21
3952.5
 31
0.0
  0
LINE
  5
C8
100
AcDbEntity
  8
枠・表
  6
CONTINUOUS
 62
     6
100
AcDbLine
 10
2325.0
 20
3787.5
 30
0.0
 11
2325.0
 21
3952.5
 31
0.0
  0
LINE
  5
C9
100
AcDbEntity
  8
枠・表
  6
CONTINUOUS
 62
     6
100
AcDbLine
 10
2775.0
 20
3787.5
 30
0.0
 11
2775.0
 21
3952.5
 31
0.0
  0
LINE
  5
CA
100
AcDbEntity
  8
枠・表
  6
CONTINUOUS
 62
     6
100
AcDbLine
 10
2925.0
 20
3787.5
 30
0.0
 11
2925.0
 21
3952.5
 31
0.0
  0
TEXT
  5
CB
100
AcDbEntity
  8
枠・表
  6
CONTINUOUS
 62
     2
100
AcDbText
 10
2816.25
 20
3881.25
 30
0.0
 40
60.0
  1
２
 41
0.945
  7
EXCADSTD
 72
     5
 11
2870.25
 21
3881.25
 31
0.0
100
AcDbText
  0
TEXT
  5
CC
100
AcDbEntity
  8
枠・表
  6
CONTINUOUS
 62
     2
100
AcDbText
 10
1890.0
 20
3963.75
 30
0.0
 40
60.0
  1
止水栓手配品番（アングル形の場合）
 41
0.681882
  7
EXCADSTD
 72
     5
 11
2717.999997
 21
3963.75
 31
0.0
100
AcDbText
  0
LINE
  5
CD
100
AcDbEntity
  8
枠・表
  6
CONTINUOUS
 62
     6
100
AcDbLine
 10
1875.0
 20
3705.0
 30
0.0
 11
2925.0
 21
3705.0
 31
0.0
  0
TEXT
  5
CE
100
AcDbEntity
  8
枠・表
  6
CONTINUOUS
 62
     2
100
AcDbText
 10
1890.0
 20
3633.75
 30
0.0
 40
60.0
  1
ＮＬ３０Ｓ４０
 41
0.528
  7
EXCADSTD
 72
     5
 11
2154.000004
 21
3633.75
 31
0.0
100
AcDbText
  0
LINE
  5
CF
100
AcDbEntity
  8
枠・表
  6
CONTINUOUS
 62
     6
100
AcDbLine
 10
1875.0
 20
3540.0
 30
0.0
 11
2925.0
 21
3540.0
 31
0.0
  0
TEXT
  5
D0
100
AcDbEntity
  8
枠・表
  6
CONTINUOUS
 62
     2
100
AcDbText
 10
2816.25
 20
3551.25
 30
0.0
 40
60.0
  1
２
 41
0.945
  7
EXCADSTD
 72
     5
 11
2870.25
 21
3551.25
 31
0.0
100
AcDbText
  0
LINE
  5
D1
100
AcDbEntity
  8
枠・表
  6
CONTINUOUS
 62
     6
100
AcDbLine
 10
1875.0
 20
3622.5
 30
0.0
 11
2925.0
 21
3622.5
 31
0.0
  0
LINE
  5
D2
100
AcDbEntity
  8
枠・表
  6
CONTINUOUS
 62
     6
100
AcDbLine
 10
1875.0
 20
3540.0
 30
0.0
 11
1875.0
 21
3705.0
 31
0.0
  0
LINE
  5
D3
100
AcDbEntity
  8
枠・表
  6
CONTINUOUS
 62
     6
100
AcDbLine
 10
2325.0
 20
3540.0
 30
0.0
 11
2325.0
 21
3705.0
 31
0.0
  0
LINE
  5
D4
100
AcDbEntity
  8
枠・表
  6
CONTINUOUS
 62
     6
100
AcDbLine
 10
2775.0
 20
3540.0
 30
0.0
 11
2775.0
 21
3705.0
 31
0.0
  0
LINE
  5
D5
100
AcDbEntity
  8
枠・表
  6
CONTINUOUS
 62
     6
100
AcDbLine
 10
2925.0
 20
3540.0
 30
0.0
 11
2925.0
 21
3705.0
 31
0.0
  0
TEXT
  5
D6
100
AcDbEntity
  8
枠・表
  6
CONTINUOUS
 62
     2
100
AcDbText
 10
2816.25
 20
3633.75
 30
0.0
 40
60.0
  1
２
 41
0.945
  7
EXCADSTD
 72
     5
 11
2870.25
 21
3633.75
 31
0.0
100
AcDbText
  0
TEXT
  5
D7
100
AcDbEntity
  8
枠・表
  6
CONTINUOUS
 62
     2
100
AcDbText
 10
1890.0
 20
3716.25
 30
0.0
 40
60.0
  1
止水栓手配品番（ストレート形の場合）
 41
0.681333
  7
EXCADSTD
 72
     5
 11
2765.999997
 21
3716.25
 31
0.0
100
AcDbText
  0
TEXT
  5
D8
100
AcDbEntity
  8
枠・表
  6
CONTINUOUS
 62
     2
100
AcDbText
 10
1890.0
 20
3551.25
 30
0.0
 40
60.0
  1
ＮＬ２１１-３３０ＷＭＹ
 41
0.518222
  7
EXCADSTD
 72
     5
 11
2327.24999
 21
3551.25
 31
0.0
100
AcDbText
  0
TEXT
  5
D9
100
AcDbEntity
  8
枠・表
  6
CONTINUOUS
 62
     2
100
AcDbText
 10
2340.0
 20
3551.25
 30
0.0
 40
60.0
  1
ストレート形止水栓（共用形）
 41
0.435
  7
EXCADSTD
 72
     5
 11
2775.00005
 21
3551.25
 31
0.0
100
AcDbText
  0
TEXT
  5
DA
100
AcDbEntity
  8
枠・表
  6
CONTINUOUS
 62
     2
100
AcDbText
 10
2340.0
 20
3633.75
 30
0.0
 40
60.0
  1
フレキシブルパイプ
 41
0.648667
  7
EXCADSTD
 72
     5
 11
2756.999992
 21
3633.75
 31
0.0
100
AcDbText
  0
TEXT
  5
DB
100
AcDbEntity
  8
枠・表
  6
CONTINUOUS
 62
     2
100
AcDbText
 10
1905.0
 20
3463.5
 30
0.0
 40
52.5
  1
※止水栓・フレキシブルパイプは別途
 41
0.899294
  7
EXCADSTD
 72
     5
 11
2860.499997
 21
3463.5
 31
0.0
100
AcDbText
  0
TEXT
  5
DC
100
AcDbEntity
  8
枠・表
  6
CONTINUOUS
 62
     2
100
AcDbText
 10
1905.0
 20
3411.0
 30
0.0
 40
52.5
  1
※洗面化粧台
 41
0.92
  7
EXCADSTD
 72
     5
 11
2249.999999
 21
3411.0
 31
0.0
100
AcDbText
  0
TEXT
  5
DD
100
AcDbEntity
  8
枠・表
  6
CONTINUOUS
 62
     2
100
AcDbText
 10
1905.0
 20
3358.5
 30
0.0
 40
52.5
  1
　品番にＹの付く場合は、寒冷地仕様
 41
0.899294
  7
EXCADSTD
 72
     5
 11
2860.499997
 21
3358.5
 31
0.0
100
AcDbText
  0
TEXT
  5
DE
100
AcDbEntity
  8
枠・表
  6
CONTINUOUS
 62
     2
100
AcDbText
 10
1905.0
 20
3306.0
 30
0.0
 40
52.5
  1
※化粧鏡台
 41
0.9264
  7
EXCADSTD
 72
     5
 11
2194.499999
 21
3306.0
 31
0.0
100
AcDbText
  0
TEXT
  5
DF
100
AcDbEntity
  8
枠・表
  6
CONTINUOUS
 62
     2
100
AcDbText
 10
1905.0
 20
3253.5
 30
0.0
 40
52.5
  1
　電源：１００Ｖ，５０/６０Ｈｚ
 41
0.876562
  7
EXCADSTD
 72
     5
 11
2771.249997
 21
3253.5
 31
0.0
100
AcDbText
  0
TEXT
  5
E0
100
AcDbEntity
  8
枠・表
  6
CONTINUOUS
 62
     2
100
AcDbText
 10
1905.0
 20
3201.0
 30
0.0
 40
52.5
  1
　コンセント容量：１２００Ｗ
 41
0.901714
  7
EXCADSTD
 72
     5
 11
2693.999998
 21
3201.0
 31
0.0
100
AcDbText
  0
TEXT
  5
E1
100
AcDbEntity
  8
枠・表
  6
CONTINUOUS
 62
     2
100
AcDbText
 10
1905.0
 20
3148.5
 30
0.0
 40
52.5
  1
　電源コードの取出しは、左右及び上側
 41
0.898667
  7
EXCADSTD
 72
     5
 11
2915.999997
 21
3148.5
 31
0.0
100
AcDbText
  0
TEXT
  5
E2
100
AcDbEntity
  8
枠・表
  6
CONTINUOUS
 62
     2
100
AcDbText
 10
1905.0
 20
3096.0
 30
0.0
 40
52.5
  1
　品番末尾にＨの付く場合は、くもり止め
 41
0.898105
  7
EXCADSTD
 72
     5
 11
2971.499997
 21
3096.0
 31
0.0
100
AcDbText
  0
TEXT
  5
E3
100
AcDbEntity
  8
枠・表
  6
CONTINUOUS
 62
     2
100
AcDbText
 10
1905.0
 20
3043.5
 30
0.0
 40
52.5
  1
　ヒーター付　
 41
0.915429
  7
EXCADSTD
 72
     5
 11
2305.499999
 21
3043.5
 31
0.0
100
AcDbText
  0
TEXT
  5
E5
100
AcDbEntity
  8
枠・表
  6
CONTINUOUS
 62
     2
100
AcDbText
 10
1155.0
 20
232.5
 30
0.0
 40
67.5
  1
ジャニス工業株式会社
 41
1.0
  7
EXCADTTF1
 72
     5
 11
2055.0
 21
232.5
 31
0.0
100
AcDbText
  0
TEXT
  5
E6
100
AcDbEntity
  8
枠・表
  6
CONTINUOUS
 62
     2
100
AcDbText
 10
1890.0
 20
4046.25
 30
0.0
 40
60.0
  1
ＬＵＭ７５３ＭＫＨ
 41
0.522667
  7
EXCADSTD
 72
     5
 11
2226.000005
 21
4046.25
 31
0.0
100
AcDbText
  0
TEXT
  5
E7
100
AcDbEntity
  8
枠・表
  6
CONTINUOUS
 62
     2
100
AcDbText
 10
2175.0
 20
442.5
 30
0.0
 40
75.0
  1
ＬＵ７５３ＨＡＤ（Ｙ）Ｒ１
 41
0.449723
  7
EXCADSTD
 72
     5
 11
2696.999981
 21
442.5
 31
0.0
100
AcDbText
  0
TEXT
  5
E8
100
AcDbEntity
  8
枠・表
  6
CONTINUOUS
 62
     2
100
AcDbText
 10
2175.0
 20
367.5
 30
0.0
 40
75.0
  1
ＬＵＭ７５３ＭＫＨ
 41
0.455467
  7
EXCADSTD
 72
     5
 11
2540.999987
 21
367.5
 31
0.0
100
AcDbText
  0
TEXT
  5
E9
100
AcDbEntity
  8
枠・表
  6
CONTINUOUS
 62
     6
100
AcDbText
 10
273.066174
 20
220.42511
 30
0.0
 40
37.5
  1
２２
 41
0.75768
  7
EXCADSTD
 72
     5
 11
335.074163
 21
220.42511
 31
0.0
100
AcDbText
  0
TEXT
  5
EA
100
AcDbEntity
  8
枠・表
  6
CONTINUOUS
 62
     6
100
AcDbText
 10
366.816174
 20
220.42511
 30
0.0
 40
37.5
  1
３
 41
0.89208
  7
EXCADSTD
 72
     5
 11
398.676174
 21
220.42511
 31
0.0
100
AcDbText
  0
TEXT
  5
EB
100
AcDbEntity
  8
枠・表
  6
CONTINUOUS
 62
     6
100
AcDbText
 10
430.266175
 20
220.42511
 30
0.0
 40
37.5
  1
２９
 41
0.75768
  7
EXCADSTD
 72
     5
 11
492.274163
 21
220.42511
 31
0.0
100
AcDbText
  0
TEXT
  5
EC
100
AcDbEntity
  8
枠・表
  6
CONTINUOUS
 62
     7
100
AcDbText
 10
2178.000003
 20
227.25
 30
0.0
 40
105.0
  1
ＬＵ３１７０５０
 41
0.804
  7
EXCADSTD
 72
     5
 11
2981.999997
 21
227.25
 31
0.0
100
AcDbText
  0
TEXT
  5
ED
100
AcDbEntity
  8
枠・表
  6
CONTINUOUS
 62
     2
100
AcDbText
 10
1890.0
 20
4128.75
 30
0.0
 40
60.0
  1
ＬＵ７５３ＨＡＤ（Ｙ）Ｒ１
 41
0.453923
  7
EXCADSTD
 72
     5
 11
2311.500016
 21
4128.75
 31
0.0
100
AcDbText
  0
POLYLINE
  5
EE
100
AcDbEntity
  8
化粧台
  6
CONTINUOUS
 62
     3
100
AcDb2dPolyline
 66
     1
 10
0.0
 20
0.0
 30
0.0
 70
   128
  0
VERTEX
  5
EF
100
AcDbEntity
  8
化粧台
  6
CONTINUOUS
 62
     3
100
AcDbVertex
100
AcDb2dVertex
 10
1464.5
 20
4005.0
 30
0.0
  0
VERTEX
  5
F0
100
AcDbEntity
  8
化粧台
  6
CONTINUOUS
 62
     3
100
AcDbVertex
100
AcDb2dVertex
 10
1487.5
 20
3955.5
 30
0.0
  0
SEQEND
  5
F1
100
AcDbEntity
  8
化粧台
  6
CONTINUOUS
 62
     3
  0
LINE
  5
F2
100
AcDbEntity
  8
化粧台
  6
CONTINUOUS
 62
     3
100
AcDbLine
 10
1490.263749
 20
3967.350575
 30
0.0
 11
1464.5
 21
4005.0
 31
0.0
  0
LINE
  5
F3
100
AcDbEntity
  8
化粧台
  6
CONTINUOUS
 62
     3
100
AcDbLine
 10
1464.5
 20
4005.0
 30
0.0
 11
1476.66049
 21
3961.029868
 31
0.0
  0
ARC
  5
F4
100
AcDbEntity
  8
化粧台
  6
CONTINUOUS
 62
     2
100
AcDbCircle
 10
726.927022
 20
3610.615017
 30
0.0
 40
89.427022
100
AcDbArc
 50
167.489219
 51
244.674213
  0
ARC
  5
F5
100
AcDbEntity
  8
化粧台
  6
CONTINUOUS
 62
     2
100
AcDbCircle
 10
1138.072978
 20
3610.615017
 30
0.0
 40
89.427022
100
AcDbArc
 50
295.325787
 51
12.510781
  0
ARC
  5
F6
100
AcDbEntity
  8
化粧台
  6
CONTINUOUS
 62
     2
100
AcDbCircle
 10
1233.124825
 20
3470.0
 30
0.0
 40
50.0
100
AcDbArc
 50
90.0
 51
114.400951
  0
ARC
  5
F7
100
AcDbEntity
  8
化粧台
  6
CONTINUOUS
 62
     2
100
AcDbCircle
 10
631.875175
 20
3470.0
 30
0.0
 40
50.0
100
AcDbArc
 50
65.599049
 51
90.0
  0
ARC
  5
F8
100
AcDbEntity
  8
化粧台
  6
CONTINUOUS
 62
     2
100
AcDbCircle
 10
932.5
 20
4132.694504
 30
0.0
 40
677.694504
100
AcDbArc
 50
245.599049
 51
294.400951
  0
ARC
  5
F9
100
AcDbEntity
  8
化粧台
  6
CONTINUOUS
 62
     2
100
AcDbCircle
 10
932.5
 20
4045.001903
 30
0.0
 40
570.001903
100
AcDbArc
 50
244.674213
 51
295.325787
  0
LINE
  5
FA
100
AcDbEntity
  8
化粧台
  6
CONTINUOUS
 62
     6
100
AcDbLine
 10
662.5
 20
3990.0
 30
0.0
 11
662.5
 21
4052.5
 31
0.0
  0
LINE
  5
FB
100
AcDbEntity
  8
化粧台
  6
CONTINUOUS
 62
     6
100
AcDbLine
 10
664.5
 20
4005.0
 30
0.0
 11
662.5
 21
4037.5
 31
0.0
  0
LINE
  5
FC
100
AcDbEntity
  8
化粧台
  6
CONTINUOUS
 62
     6
100
AcDbLine
 10
662.5
 20
4037.5
 30
0.0
 11
660.5
 21
4005.0
 31
0.0
  0
LINE
  5
FD
100
AcDbEntity
  8
化粧台
  6
CONTINUOUS
 62
     6
100
AcDbLine
 10
1202.5
 20
3990.0
 30
0.0
 11
1202.5
 21
4052.5
 31
0.0
  0
LINE
  5
FE
100
AcDbEntity
  8
化粧台
  6
CONTINUOUS
 62
     6
100
AcDbLine
 10
1200.5
 20
4005.0
 30
0.0
 11
1202.5
 21
4037.5
 31
0.0
  0
LINE
  5
FF
100
AcDbEntity
  8
化粧台
  6
CONTINUOUS
 62
     6
100
AcDbLine
 10
1202.5
 20
4037.5
 30
0.0
 11
1204.5
 21
4005.0
 31
0.0
  0
ARC
  5
100
100
AcDbEntity
  8
化粧台
  6
EXLTYPE2
 62
     6
100
AcDbCircle
 10
566.5
 20
3989.0
 30
0.0
 40
9.0
100
AcDbArc
 50
202.389656
 51
270.0
  0
ARC
  5
101
100
AcDbEntity
  8
化粧台
  6
CONTINUOUS
 62
     2
100
AcDbCircle
 10
566.5
 20
3989.0
 30
0.0
 40
9.0
100
AcDbArc
 50
180.0
 51
202.389656
  0
LINE
  5
102
100
AcDbEntity
  8
化粧台
  6
EXLTYPE2
 62
     6
100
AcDbLine
 10
566.5
 20
3980.0
 30
0.0
 11
1295.5
 21
3980.0
 31
0.0
  0
ARC
  5
103
100
AcDbEntity
  8
化粧台
  6
CONTINUOUS
 62
     2
100
AcDbCircle
 10
567.5
 20
3530.0
 30
0.0
 40
10.0
100
AcDbArc
 50
180.0
 51
270.0
  0
LINE
  5
104
100
AcDbEntity
  8
化粧台
  6
CONTINUOUS
 62
     2
100
AcDbLine
 10
557.5
 20
4005.0
 30
0.0
 11
557.5
 21
3530.0
 31
0.0
  0
LINE
  5
105
100
AcDbEntity
  8
化粧台
  6
CONTINUOUS
 62
     2
100
AcDbLine
 10
567.5
 20
3520.0
 30
0.0
 11
631.875175
 21
3520.0
 31
0.0
  0
ARC
  5
106
100
AcDbEntity
  8
化粧台
  6
EXLTYPE2
 62
     6
100
AcDbCircle
 10
1298.5
 20
3989.0
 30
0.0
 40
9.0
100
AcDbArc
 50
270.0
 51
337.610344
  0
ARC
  5
107
100
AcDbEntity
  8
化粧台
  6
CONTINUOUS
 62
     2
100
AcDbCircle
 10
1298.5
 20
3989.0
 30
0.0
 40
9.0
100
AcDbArc
 50
337.610344
 51
0.0
  0
LINE
  5
108
100
AcDbEntity
  8
化粧台
  6
CONTINUOUS
 62
     2
100
AcDbLine
 10
1307.5
 20
4005.0
 30
0.0
 11
1307.5
 21
3530.0
 31
0.0
  0
ARC
  5
109
100
AcDbEntity
  8
化粧台
  6
CONTINUOUS
 62
     2
100
AcDbCircle
 10
1297.5
 20
3530.0
 30
0.0
 40
10.0
100
AcDbArc
 50
270.0
 51
0.0
  0
LINE
  5
10A
100
AcDbEntity
  8
化粧台
  6
CONTINUOUS
 62
     2
100
AcDbLine
 10
1233.124825
 20
3520.0
 30
0.0
 11
1297.5
 21
3520.0
 31
0.0
  0
LINE
  5
10B
100
AcDbEntity
  8
化粧台
  6
EXLTYPE4
 62
     6
100
AcDbLine
 10
1307.5
 20
4005.0
 30
0.0
 11
1640.0
 21
4005.0
 31
0.0
  0
TEXT
  5
10C
100
AcDbEntity
  8
化粧台
  6
CONTINUOUS
 62
     2
100
AcDbText
 10
1506.500001
 20
3945.0
 30
0.0
 40
60.0
  1
W.L.
 41
0.4125
  7
EXCADSTD
 72
     5
 11
1597.2434
 21
3945.0
 31
0.0
100
AcDbText
  0
LINE
  5
10D
100
AcDbEntity
  8
化粧台
  6
EXLTYPE4
 62
     6
100
AcDbLine
 10
557.5
 20
4005.0
 30
0.0
 11
384.0
 21
4005.0
 31
0.0
  0
LINE
  5
10E
100
AcDbEntity
  8
化粧台
  6
CONTINUOUS
 62
     2
100
AcDbLine
 10
557.5
 20
4005.0
 30
0.0
 11
1307.5
 21
4005.0
 31
0.0
  0
ARC
  5
10F
100
AcDbEntity
  8
化粧台
  6
CONTINUOUS
 62
     2
100
AcDbCircle
 10
932.5
 20
3565.0
 30
0.0
 40
300.0
100
AcDbArc
 50
126.599132
 51
167.489219
  0
ARC
  5
110
100
AcDbEntity
  8
化粧台
  6
CONTINUOUS
 62
     2
100
AcDbCircle
 10
932.5
 20
3565.0
 30
0.0
 40
300.0
100
AcDbArc
 50
12.510781
 51
53.400868
  0
TEXT
  5
111
100
AcDbEntity
  8
化粧台
  6
CONTINUOUS
 62
     2
100
AcDbText
 10
1373.0
 20
4093.25
 30
0.0
 40
60.0
  1
コード長さ：１ｍ
 41
0.693
  7
EXCADSTD
 72
     5
 11
1768.999999
 21
4093.25
 31
0.0
100
AcDbText
  0
LEADER
  5
112
100
AcDbEntity
  8
化粧台
  6
CONTINUOUS
 62
     3
100
AcDbLeader
  3
STANDARD
 73
     3
 74
     1
 75
     0
 40
0.0
 76
     3
 10
1328.464426
 20
3996.459931
 30
0.0
 10
1365.5
 20
4088.0
 30
0.0
 10
1765.5
 20
4088.0
 30
0.0
 77
     3
1001
ACAD
1000
DSTYLE
1002
{
1070
    41
1040
45.0
1070
     5
1000
_EX_NORM
1070
     6
1000
_EX_NORM
1070
     7
1000
_EX_NORM
1070
   341
1005
2A
1002
}
  0
LINE
  5
113
100
AcDbEntity
  8
化粧台
  6
EXLTYPE2
 62
     6
100
AcDbLine
 10
637.5
 20
3965.0
 30
0.0
 11
637.5
 21
3923.764197
 31
0.0
  0
LINE
  5
114
100
AcDbEntity
  8
化粧台
  6
CONTINUOUS
 62
     6
100
AcDbLine
 10
973.0
 20
3775.0
 30
0.0
 11
892.0
 21
3775.0
 31
0.0
  0
LINE
  5
115
100
AcDbEntity
  8
化粧台
  6
EXLTYPE3
 62
     6
100
AcDbLine
 10
831.8
 20
3910.0
 30
0.0
 11
1038.0
 21
3910.0
 31
0.0
  0
CIRCLE
  5
116
100
AcDbEntity
  8
化粧台
  6
CONTINUOUS
 62
     6
100
AcDbCircle
 10
952.692003
 20
3780.769144
 30
0.0
 40
3.0
  0
CIRCLE
  5
117
100
AcDbEntity
  8
化粧台
  6
CONTINUOUS
 62
     6
100
AcDbCircle
 10
962.523343
 20
3786.072438
 30
0.0
 40
3.0
  0
ARC
  5
118
100
AcDbEntity
  8
化粧台
  6
CONTINUOUS
 62
     2
100
AcDbCircle
 10
932.5
 20
3775.05
 30
0.0
 40
3.0
100
AcDbArc
 50
159.979492
 51
20.020508
  0
DIMENSION
  5
124
100
AcDbEntity
  8
化粧台
  6
CONTINUOUS
 62
     3
100
AcDbDimension
  2
*D14
 10
2664.5
 20
924.5
 30
0.0
 11
2629.25
 21
1099.5
 31
0.0
 70
   160
  3
STANDARD
100
AcDbAlignedDimension
 13
2567.5
 23
1274.5
 33
0.0
 14
2664.5
 24
924.5
 34
0.0
 50
90.0
100
AcDbRotatedDimension
1001
ACAD
1000
DSTYLE
1002
{
1070
     6
1000
_EX_NORM
1070
     7
1000
_EX_NORM
1070
    41
1040
45.0
1070
    42
1040
7.5
1070
    44
1040
15.0
1070
    73
1070
     0
1070
    74
1070
     0
1070
    75
1070
     0
1070
    76
1070
     1
1070
    77
1070
     1
1070
    78
1070
     8
1070
   140
1040
60.0
1070
   147
1040
5.25
1070
   173
1070
     1
1070
   176
1070
     3
1070
   177
1070
     3
1070
   178
1070
     2
1070
   271
1070
     2
1070
   279
1070
     2
1070
   280
1070
     0
1070
   287
1070
     5
1070
   340
1005
123
1002
}
  0
TEXT
  5
125
100
AcDbEntity
  8
化粧台
  6
CONTINUOUS
 62
     2
100
AcDbText
 10
2639.0
 20
1486.25
 30
0.0
 40
60.0
  1
Ｒ１/２
 41
0.73425
  7
EXCADSTD
 72
     5
 11
2839.249999
 21
1486.25
 31
0.0
100
AcDbText
  0
LEADER
  5
126
100
AcDbEntity
  8
化粧台
  6
CONTINUOUS
 62
     3
100
AcDbLeader
  3
STANDARD
 73
     3
 74
     1
 75
     0
 40
0.0
 76
     3
 10
2552.5
 20
1285.0
 30
0.0
 10
2631.5
 20
1481.0
 30
0.0
 10
2824.5
 20
1481.0
 30
0.0
 77
     3
1001
ACAD
1000
DSTYLE
1002
{
1070
    41
1040
52.5
1070
     5
1000
_EX_NORM
1070
     6
1000
_EX_NORM
1070
     7
1000
_EX_NORM
1070
   341
1005
2A
1002
}
  0
LINE
  5
127
100
AcDbEntity
  8
化粧台
  6
EXLTYPE3
 62
     6
100
AcDbLine
 10
932.5
 20
4052.85
 30
0.0
 11
932.5
 21
3436.0
 31
0.0
  0
LINE
  5
128
100
AcDbEntity
  8
化粧台
  6
CONTINUOUS
 62
     2
100
AcDbLine
 10
637.5
 20
3819.128072
 30
0.0
 11
637.5
 21
3610.615017
 31
0.0
  0
LINE
  5
129
100
AcDbEntity
  8
化粧台
  6
EXLTYPE2
 62
     6
100
AcDbLine
 10
637.5
 20
3909.558459
 30
0.0
 11
637.5
 21
3819.128072
 31
0.0
  0
LINE
  5
12A
100
AcDbEntity
  8
化粧台
  6
CONTINUOUS
 62
     2
100
AcDbLine
 10
1227.5
 20
3819.128072
 30
0.0
 11
1227.5
 21
3610.542237
 31
0.0
  0
LINE
  5
12B
100
AcDbEntity
  8
化粧台
  6
EXLTYPE2
 62
     6
100
AcDbLine
 10
1227.5
 20
3965.0
 30
0.0
 11
1227.5
 21
3819.128072
 31
0.0
  0
CIRCLE
  5
12C
100
AcDbEntity
  8
化粧台
  6
EXLTYPE1
 62
     6
100
AcDbCircle
 10
968.9
 20
3792.1
 30
0.0
 40
3.0
  0
ARC
  5
12D
100
AcDbEntity
  8
化粧台
  6
CONTINUOUS
 62
     2
100
AcDbCircle
 10
932.5
 20
3775.0
 30
0.0
 40
32.0
100
AcDbArc
 50
140.839123
 51
39.160877
  0
CIRCLE
  5
12E
100
AcDbEntity
  8
化粧台
  6
EXLTYPE2
 62
     6
100
AcDbCircle
 10
980.5
 20
3807.1
 30
0.0
 40
3.0
  0
CIRCLE
  5
12F
100
AcDbEntity
  8
化粧台
  6
EXLTYPE2
 62
     6
100
AcDbCircle
 10
984.3
 20
3815.3
 30
0.0
 40
3.0
  0
CIRCLE
  5
130
100
AcDbEntity
  8
化粧台
  6
EXLTYPE2
 62
     6
100
AcDbCircle
 10
986.3
 20
3824.0
 30
0.0
 40
3.0
  0
CIRCLE
  5
131
100
AcDbEntity
  8
化粧台
  6
EXLTYPE2
 62
     6
100
AcDbCircle
 10
982.9
 20
3832.2
 30
0.0
 40
3.0
  0
CIRCLE
  5
132
100
AcDbEntity
  8
化粧台
  6
EXLTYPE2
 62
     6
100
AcDbCircle
 10
978.6
 20
3839.9
 30
0.0
 40
3.0
  0
CIRCLE
  5
133
100
AcDbEntity
  8
化粧台
  6
EXLTYPE2
 62
     6
100
AcDbCircle
 10
971.3
 20
3845.2
 30
0.0
 40
3.0
  0
ARC
  5
134
100
AcDbEntity
  8
化粧台
  6
EXLTYPE2
 62
     6
100
AcDbCircle
 10
932.5
 20
3775.0
 30
0.0
 40
32.0
100
AcDbArc
 50
125.222797
 51
140.839123
  0
CIRCLE
  5
135
100
AcDbEntity
  8
化粧台
  6
EXLTYPE2
 62
     6
100
AcDbCircle
 10
974.7
 20
3799.8
 30
0.0
 40
3.0
  0
ARC
  5
136
100
AcDbEntity
  8
化粧台
  6
EXLTYPE2
 62
     6
100
AcDbCircle
 10
932.5
 20
3775.0
 30
0.0
 40
32.0
100
AcDbArc
 50
39.160877
 51
54.777205
  0
ARC
  5
137
100
AcDbEntity
  8
化粧台
  6
EXLTYPE2
 62
     6
100
AcDbCircle
 10
932.5
 20
3565.0
 30
0.0
 40
300.0
100
AcDbArc
 50
94.569577
 51
126.599132
  0
ARC
  5
138
100
AcDbEntity
  8
化粧台
  6
EXLTYPE2
 62
     6
100
AcDbCircle
 10
932.5
 20
3565.0
 30
0.0
 40
300.0
100
AcDbArc
 50
53.400868
 51
85.430423
  0
LINE
  5
139
100
AcDbEntity
  8
化粧台
  6
CONTINUOUS
 62
     2
100
AcDbLine
 10
2129.5
 20
928.0
 30
0.0
 11
2544.5
 21
928.0
 31
0.0
  0
LINE
  5
13A
100
AcDbEntity
  8
化粧台
  6
CONTINUOUS
 62
     2
100
AcDbLine
 10
2193.5
 20
928.0
 30
0.0
 11
2193.5
 21
924.5
 31
0.0
  0
LINE
  5
13B
100
AcDbEntity
  8
化粧台
  6
CONTINUOUS
 62
     2
100
AcDbLine
 10
2180.5
 20
928.0
 30
0.0
 11
2180.5
 21
924.5
 31
0.0
  0
LINE
  5
13C
100
AcDbEntity
  8
化粧台
  6
CONTINUOUS
 62
     2
100
AcDbLine
 10
2180.5
 20
924.5
 30
0.0
 11
2193.5
 21
924.5
 31
0.0
  0
LINE
  5
13D
100
AcDbEntity
  8
化粧台
  6
CONTINUOUS
 62
     2
100
AcDbLine
 10
2493.5
 20
928.0
 30
0.0
 11
2493.5
 21
924.5
 31
0.0
  0
LINE
  5
13E
100
AcDbEntity
  8
化粧台
  6
CONTINUOUS
 62
     2
100
AcDbLine
 10
2480.5
 20
928.0
 30
0.0
 11
2480.5
 21
924.5
 31
0.0
  0
LINE
  5
13F
100
AcDbEntity
  8
化粧台
  6
CONTINUOUS
 62
     2
100
AcDbLine
 10
2480.5
 20
924.5
 30
0.0
 11
2493.5
 21
924.5
 31
0.0
  0
ARC
  5
140
100
AcDbEntity
  8
化粧台
  6
CONTINUOUS
 62
     2
100
AcDbCircle
 10
1997.770961
 20
1991.320543
 30
0.0
 40
300.0
100
AcDbArc
 50
271.243793
 51
285.522736
  0
LINE
  5
141
100
AcDbEntity
  8
化粧台
  6
CONTINUOUS
 62
     2
100
AcDbLine
 10
2544.5
 20
1719.5
 30
0.0
 11
2544.5
 21
1524.5
 31
0.0
  0
ARC
  5
142
100
AcDbEntity
  8
化粧台
  6
CONTINUOUS
 62
     2
100
AcDbCircle
 10
2110.5
 20
1533.348954
 30
0.0
 40
6.0
100
AcDbArc
 50
270.0
 51
0.0
  0
ARC
  5
143
100
AcDbEntity
  8
化粧台
  6
CONTINUOUS
 62
     2
100
AcDbCircle
 10
2096.695705
 20
1533.348954
 30
0.0
 40
6.0
100
AcDbArc
 50
186.731084
 51
270.0
  0
ARC
  5
144
100
AcDbEntity
  8
化粧台
  6
CONTINUOUS
 62
     2
100
AcDbCircle
 10
2041.656829
 20
1523.018313
 30
0.0
 40
50.0
100
AcDbArc
 50
10.630568
 51
55.608469
  0
ARC
  5
145
100
AcDbEntity
  8
化粧台
  6
CONTINUOUS
 62
     2
100
AcDbCircle
 10
2171.571186
 20
1712.813624
 30
0.0
 40
180.0
100
AcDbArc
 50
190.650858
 51
235.608469
  0
ARC
  5
146
100
AcDbEntity
  8
化粧台
  6
CONTINUOUS
 62
     2
100
AcDbCircle
 10
2080.733392
 20
1692.628
 30
0.0
 40
10.0
100
AcDbArc
 50
92.167399
 51
105.522736
  0
LINE
  5
147
100
AcDbEntity
  8
化粧台
  6
CONTINUOUS
 62
     2
100
AcDbLine
 10
2110.5
 20
1527.348954
 30
0.0
 11
2096.695705
 21
1527.348954
 31
0.0
  0
LINE
  5
148
100
AcDbEntity
  8
化粧台
  6
CONTINUOUS
 62
     6
100
AcDbLine
 10
2544.5
 20
1436.5
 30
0.0
 11
2577.0
 21
1434.5
 31
0.0
  0
LINE
  5
149
100
AcDbEntity
  8
化粧台
  6
CONTINUOUS
 62
     6
100
AcDbLine
 10
2577.0
 20
1434.5
 30
0.0
 11
2544.5
 21
1432.5
 31
0.0
  0
LINE
  5
14A
100
AcDbEntity
  8
化粧台
  6
CONTINUOUS
 62
     6
100
AcDbLine
 10
2512.0
 20
1434.5
 30
0.0
 11
2592.0
 21
1434.5
 31
0.0
  0
LINE
  5
14B
100
AcDbEntity
  8
化粧台
  6
EXLTYPE2
 62
     6
100
AcDbLine
 10
2147.5
 20
1014.5
 30
0.0
 11
2147.5
 21
928.5
 31
0.0
  0
LINE
  5
14C
100
AcDbEntity
  8
化粧台
  6
EXLTYPE2
 62
     6
100
AcDbLine
 10
2162.5
 20
1014.5
 30
0.0
 11
2129.5
 21
1014.5
 31
0.0
  0
LINE
  5
14D
100
AcDbEntity
  8
化粧台
  6
EXLTYPE2
 62
     6
100
AcDbLine
 10
2239.5
 20
1028.0
 30
0.0
 11
2162.5
 21
1028.0
 31
0.0
  0
LINE
  5
14E
100
AcDbEntity
  8
化粧台
  6
EXLTYPE2
 62
     6
100
AcDbLine
 10
2162.5
 20
1028.0
 30
0.0
 11
2162.5
 21
1014.5
 31
0.0
  0
LINE
  5
14F
100
AcDbEntity
  8
化粧台
  6
EXLTYPE2
 62
     6
100
AcDbLine
 10
2526.5
 20
1032.0
 30
0.0
 11
2129.5
 21
1032.0
 31
0.0
  0
LINE
  5
150
100
AcDbEntity
  8
化粧台
  6
EXLTYPE2
 62
     6
100
AcDbLine
 10
2274.5
 20
1028.0
 30
0.0
 11
2274.5
 21
1014.5
 31
0.0
  0
LINE
  5
151
100
AcDbEntity
  8
化粧台
  6
EXLTYPE2
 62
     6
100
AcDbLine
 10
2274.5
 20
1014.5
 30
0.0
 11
2239.5
 21
1014.5
 31
0.0
  0
LINE
  5
152
100
AcDbEntity
  8
化粧台
  6
EXLTYPE2
 62
     6
100
AcDbLine
 10
2239.5
 20
1028.0
 30
0.0
 11
2239.5
 21
1014.5
 31
0.0
  0
LINE
  5
153
100
AcDbEntity
  8
化粧台
  6
EXLTYPE2
 62
     6
100
AcDbLine
 10
2494.5
 20
1028.0
 30
0.0
 11
2494.5
 21
1014.5
 31
0.0
  0
LINE
  5
154
100
AcDbEntity
  8
化粧台
  6
EXLTYPE2
 62
     6
100
AcDbLine
 10
2529.5
 20
1014.5
 30
0.0
 11
2494.5
 21
1014.5
 31
0.0
  0
LINE
  5
155
100
AcDbEntity
  8
化粧台
  6
EXLTYPE2
 62
     6
100
AcDbLine
 10
2494.5
 20
1028.0
 30
0.0
 11
2274.5
 21
1028.0
 31
0.0
  0
LINE
  5
156
100
AcDbEntity
  8
化粧台
  6
EXLTYPE2
 62
     6
100
AcDbLine
 10
2526.5
 20
1464.5
 30
0.0
 11
2526.5
 21
1014.5
 31
0.0
  0
LINE
  5
157
100
AcDbEntity
  8
化粧台
  6
EXLTYPE2
 62
     6
100
AcDbLine
 10
2529.5
 20
1424.5
 30
0.0
 11
2529.5
 21
1014.5
 31
0.0
  0
LINE
  5
158
100
AcDbEntity
  8
化粧台
  6
EXLTYPE2
 62
     6
100
AcDbLine
 10
2526.5
 20
1464.5
 30
0.0
 11
2544.5
 21
1464.5
 31
0.0
  0
LINE
  5
159
100
AcDbEntity
  8
化粧台
  6
EXLTYPE2
 62
     6
100
AcDbLine
 10
2529.5
 20
1424.5
 30
0.0
 11
2544.5
 21
1424.5
 31
0.0
  0
LINE
  5
15A
100
AcDbEntity
  8
化粧台
  6
EXLTYPE2
 62
     6
100
AcDbLine
 10
2147.5
 20
1535.5
 30
0.0
 11
2147.5
 21
1485.5
 31
0.0
  0
LINE
  5
15B
100
AcDbEntity
  8
化粧台
  6
EXLTYPE2
 62
     6
100
AcDbLine
 10
2130.0
 20
1485.5
 30
0.0
 11
2147.5
 21
1485.5
 31
0.0
  0
LINE
  5
15C
100
AcDbEntity
  8
化粧台
  6
EXLTYPE2
 62
     6
100
AcDbLine
 10
2130.0
 20
1535.5
 30
0.0
 11
2147.5
 21
1535.5
 31
0.0
  0
ARC
  5
15D
100
AcDbEntity
  8
化粧台
  6
CONTINUOUS
 62
     2
100
AcDbCircle
 10
2004.5
 20
1681.393584
 30
0.0
 40
10.0
100
AcDbArc
 50
91.243793
 51
190.650858
  0
LINE
  5
15E
100
AcDbEntity
  8
化粧台
  6
CONTINUOUS
 62
     2
100
AcDbLine
 10
2116.497612
 20
1533.1797
 30
0.0
 11
2119.089613
 21
1625.028318
 31
0.0
  0
ARC
  5
15F
100
AcDbEntity
  8
化粧台
  6
CONTINUOUS
 62
     2
100
AcDbCircle
 10
2110.5
 20
1533.348954
 30
0.0
 40
6.0
100
AcDbArc
 50
270.0
 51
0.0
  0
LINE
  5
160
100
AcDbEntity
  8
化粧台
  6
CONTINUOUS
 62
     2
100
AcDbLine
 10
2070.811257
 20
1691.382511
 30
0.0
 11
2090.742424
 21
1532.601661
 31
0.0
  0
ARC
  5
161
100
AcDbEntity
  8
化粧台
  6
CONTINUOUS
 62
     2
100
AcDbCircle
 10
2080.733392
 20
1692.628
 30
0.0
 40
10.0
100
AcDbArc
 50
92.167399
 51
188.218096
  0
LINE
  5
162
100
AcDbEntity
  8
化粧台
  6
CONTINUOUS
 62
     2
100
AcDbLine
 10
2110.5
 20
1527.348954
 30
0.0
 11
2096.695705
 21
1527.348954
 31
0.0
  0
ARC
  5
163
100
AcDbEntity
  8
化粧台
  6
CONTINUOUS
 62
     2
100
AcDbCircle
 10
2128.078287
 20
1624.5
 30
0.0
 40
9.0
100
AcDbArc
 50
90.0
 51
178.383521
  0
LINE
  5
164
100
AcDbEntity
  8
化粧台
  6
CONTINUOUS
 62
     2
100
AcDbLine
 10
2544.5
 20
1633.5
 30
0.0
 11
2128.078287
 21
1633.5
 31
0.0
  0
LINE
  5
165
100
AcDbEntity
  8
化粧台
  6
CONTINUOUS
 62
     2
100
AcDbLine
 10
2129.5
 20
1633.5
 30
0.0
 11
2129.5
 21
928.0
 31
0.0
  0
ARC
  5
166
100
AcDbEntity
  8
化粧台
  6
CONTINUOUS
 62
     2
100
AcDbCircle
 10
2125.968083
 20
1549.724044
 30
0.0
 40
9.0
100
AcDbArc
 50
66.893886
 51
178.383521
  0
LINE
  5
167
100
AcDbEntity
  8
化粧台
  6
CONTINUOUS
 62
     2
100
AcDbLine
 10
2125.968083
 20
1558.724044
 30
0.0
 11
2129.5
 21
1558.724044
 31
0.0
  0
ARC
  5
168
100
AcDbEntity
  8
化粧台
  6
EXLTYPE2
 62
     6
100
AcDbCircle
 10
2150.160113
 20
1528.724044
 30
0.0
 40
30.0
100
AcDbArc
 50
73.537061
 51
90.0
  0
ARC
  5
169
100
AcDbEntity
  8
化粧台
  6
EXLTYPE2
 62
     6
100
AcDbCircle
 10
2125.968083
 20
1549.724044
 30
0.0
 40
9.0
100
AcDbArc
 50
61.131666
 51
66.893886
  0
LINE
  5
16A
100
AcDbEntity
  8
化粧台
  6
EXLTYPE2
 62
     6
100
AcDbLine
 10
2129.5
 20
1558.724044
 30
0.0
 11
2150.160113
 21
1558.724044
 31
0.0
  0
ARC
  5
16B
100
AcDbEntity
  8
化粧台
  6
EXLTYPE2
 62
     6
100
AcDbCircle
 10
2617.939716
 20
2442.094433
 30
0.0
 40
1010.0
100
AcDbArc
 50
241.131666
 51
249.439599
  0
LINE
  5
16C
100
AcDbEntity
  8
化粧台
  6
EXLTYPE2
 62
     6
100
AcDbLine
 10
2295.072411
 20
1515.809734
 30
0.0
 11
2158.927589
 21
1557.41431
 31
0.0
  0
ARC
  5
16D
100
AcDbEntity
  8
化粧台
  6
EXLTYPE2
 62
     6
100
AcDbCircle
 10
2360.171038
 20
1455.506619
 30
0.0
 40
5.0
100
AcDbArc
 50
105.664033
 51
109.475664
  0
LINE
  5
16E
100
AcDbEntity
  8
化粧台
  6
EXLTYPE2
 62
     6
100
AcDbLine
 10
2351.003001
 20
1454.5
 30
0.0
 11
2278.397084
 21
1454.5
 31
0.0
  0
LINE
  5
16F
100
AcDbEntity
  8
化粧台
  6
EXLTYPE2
 62
     6
100
AcDbLine
 10
2273.43808
 20
1458.861031
 30
0.0
 11
2269.63921
 21
1488.34384
 31
0.0
  0
ARC
  5
170
100
AcDbEntity
  8
化粧台
  6
EXLTYPE2
 62
     6
100
AcDbCircle
 10
2351.003001
 20
1459.5
 30
0.0
 40
5.0
100
AcDbArc
 50
270.0
 51
336.46319
  0
ARC
  5
171
100
AcDbEntity
  8
化粧台
  6
EXLTYPE2
 62
     6
100
AcDbCircle
 10
2331.831491
 20
1535.64319
 30
0.0
 40
80.0
100
AcDbArc
 50
289.475664
 51
347.078912
  0
ARC
  5
172
100
AcDbEntity
  8
化粧台
  6
EXLTYPE2
 62
     6
100
AcDbCircle
 10
2360.171038
 20
1455.506619
 30
0.0
 40
5.0
100
AcDbArc
 50
109.475664
 51
156.46319
  0
ARC
  5
173
100
AcDbEntity
  8
化粧台
  6
EXLTYPE2
 62
     6
100
AcDbCircle
 10
2278.397084
 20
1459.5
 30
0.0
 40
5.0
100
AcDbArc
 50
187.342126
 51
270.0
  0
ARC
  5
174
100
AcDbEntity
  8
化粧台
  6
EXLTYPE2
 62
     6
100
AcDbCircle
 10
2259.721203
 20
1487.065902
 30
0.0
 40
10.0
100
AcDbArc
 50
7.342126
 51
69.439599
  0
ARC
  5
175
100
AcDbEntity
  8
化粧台
  6
EXLTYPE2
 62
     6
100
AcDbCircle
 10
2303.839887
 20
1544.5
 30
0.0
 40
30.0
100
AcDbArc
 50
253.537061
 51
270.0
  0
LINE
  5
176
100
AcDbEntity
  8
化粧台
  6
EXLTYPE2
 62
     6
100
AcDbLine
 10
2534.5
 20
1514.5
 30
0.0
 11
2303.839887
 21
1514.5
 31
0.0
  0
ARC
  5
177
100
AcDbEntity
  8
化粧台
  6
EXLTYPE2
 62
     6
100
AcDbCircle
 10
2534.5
 20
1524.5
 30
0.0
 40
10.0
100
AcDbArc
 50
270.0
 51
0.0
  0
LINE
  5
178
100
AcDbEntity
  8
化粧台
  6
EXLTYPE2
 62
     6
100
AcDbLine
 10
2296.0
 20
1369.707107
 30
0.0
 11
2296.0
 21
1334.707107
 31
0.0
  0
LINE
  5
179
100
AcDbEntity
  8
化粧台
  6
EXLTYPE2
 62
     6
100
AcDbLine
 10
2333.0
 20
1369.707107
 30
0.0
 11
2333.0
 21
1334.707107
 31
0.0
  0
LINE
  5
17A
100
AcDbEntity
  8
化粧台
  6
EXLTYPE2
 62
     6
100
AcDbLine
 10
2298.65
 20
1332.057107
 30
0.0
 11
2298.65
 21
1294.300361
 31
0.0
  0
LINE
  5
17B
100
AcDbEntity
  8
化粧台
  6
EXLTYPE2
 62
     6
100
AcDbLine
 10
2330.35
 20
1332.057107
 30
0.0
 11
2330.35
 21
1291.707107
 31
0.0
  0
LINE
  5
17C
100
AcDbEntity
  8
化粧台
  6
EXLTYPE2
 62
     6
100
AcDbLine
 10
2330.35
 20
1296.707107
 30
0.0
 11
2345.678125
 21
1296.707107
 31
0.0
  0
LINE
  5
17D
100
AcDbEntity
  8
化粧台
  6
EXLTYPE2
 62
     6
100
AcDbLine
 10
2310.678125
 20
1266.732429
 30
0.0
 11
2310.678125
 21
1262.207107
 31
0.0
  0
LINE
  5
17E
100
AcDbEntity
  8
化粧台
  6
EXLTYPE2
 62
     6
100
AcDbLine
 10
2345.678125
 20
1296.707107
 30
0.0
 11
2345.678125
 21
1262.207107
 31
0.0
  0
LINE
  5
17F
100
AcDbEntity
  8
化粧台
  6
EXLTYPE2
 62
     6
100
AcDbLine
 10
2333.0
 20
1334.707107
 30
0.0
 11
2330.35
 21
1332.057107
 31
0.0
  0
LINE
  5
180
100
AcDbEntity
  8
化粧台
  6
EXLTYPE2
 62
     6
100
AcDbLine
 10
2296.0
 20
1334.707107
 30
0.0
 11
2298.65
 21
1332.057107
 31
0.0
  0
LINE
  5
181
100
AcDbEntity
  8
化粧台
  6
EXLTYPE2
 62
     6
100
AcDbLine
 10
2291.1
 20
1369.707107
 30
0.0
 11
2337.9
 21
1369.707107
 31
0.0
  0
LINE
  5
182
100
AcDbEntity
  8
化粧台
  6
EXLTYPE2
 62
     6
100
AcDbLine
 10
2293.1
 20
1387.707107
 30
0.0
 11
2335.9
 21
1387.707107
 31
0.0
  0
LINE
  5
183
100
AcDbEntity
  8
化粧台
  6
EXLTYPE2
 62
     6
100
AcDbLine
 10
2291.1
 20
1385.707107
 30
0.0
 11
2291.1
 21
1369.707107
 31
0.0
  0
LINE
  5
184
100
AcDbEntity
  8
化粧台
  6
EXLTYPE2
 62
     6
100
AcDbLine
 10
2337.9
 20
1385.707107
 30
0.0
 11
2337.9
 21
1369.707107
 31
0.0
  0
ARC
  5
185
100
AcDbEntity
  8
化粧台
  6
EXLTYPE2
 62
     6
100
AcDbCircle
 10
2293.1
 20
1385.707107
 30
0.0
 40
2.0
100
AcDbArc
 50
90.0
 51
180.0
  0
ARC
  5
186
100
AcDbEntity
  8
化粧台
  6
EXLTYPE2
 62
     6
100
AcDbCircle
 10
2335.9
 20
1385.707107
 30
0.0
 40
2.0
100
AcDbArc
 50
0.0
 51
90.0
  0
LINE
  5
187
100
AcDbEntity
  8
化粧台
  6
EXLTYPE2
 62
     6
100
AcDbLine
 10
2305.178125
 20
1262.207107
 30
0.0
 11
2351.178125
 21
1262.207107
 31
0.0
  0
LINE
  5
188
100
AcDbEntity
  8
化粧台
  6
EXLTYPE2
 62
     6
100
AcDbLine
 10
2306.678125
 20
1245.707107
 30
0.0
 11
2349.678125
 21
1245.707107
 31
0.0
  0
LINE
  5
189
100
AcDbEntity
  8
化粧台
  6
EXLTYPE2
 62
     6
100
AcDbLine
 10
2351.178125
 20
1247.207107
 30
0.0
 11
2351.178125
 21
1262.207107
 31
0.0
  0
LINE
  5
18A
100
AcDbEntity
  8
化粧台
  6
EXLTYPE2
 62
     6
100
AcDbLine
 10
2305.178125
 20
1247.207107
 30
0.0
 11
2305.178125
 21
1262.207107
 31
0.0
  0
ARC
  5
18B
100
AcDbEntity
  8
化粧台
  6
EXLTYPE2
 62
     6
100
AcDbCircle
 10
2306.678125
 20
1247.207107
 30
0.0
 40
1.5
100
AcDbArc
 50
180.0
 51
270.0
  0
ARC
  5
18C
100
AcDbEntity
  8
化粧台
  6
EXLTYPE2
 62
     6
100
AcDbCircle
 10
2349.678125
 20
1247.207107
 30
0.0
 40
1.5
100
AcDbArc
 50
270.0
 51
0.0
  0
LINE
  5
18D
100
AcDbEntity
  8
化粧台
  6
EXLTYPE2
 62
     6
100
AcDbLine
 10
2298.65
 20
1332.057107
 30
0.0
 11
2330.35
 21
1332.057107
 31
0.0
  0
ARC
  5
18E
100
AcDbEntity
  8
化粧台
  6
EXLTYPE2
 62
     6
100
AcDbCircle
 10
2338.65
 20
1294.300361
 30
0.0
 40
40.0
100
AcDbArc
 50
180.0
 51
216.143789
  0
ARC
  5
18F
100
AcDbEntity
  8
化粧台
  6
EXLTYPE2
 62
     6
100
AcDbCircle
 10
2318.461516
 20
1279.555019
 30
0.0
 40
15.0
100
AcDbArc
 50
216.143789
 51
310.373975
  0
LINE
  5
190
100
AcDbEntity
  8
化粧台
  6
EXLTYPE2
 62
     6
100
AcDbLine
 10
2297.370011
 20
1385.707107
 30
0.0
 11
2297.370011
 21
1369.707107
 31
0.0
  0
LINE
  5
191
100
AcDbEntity
  8
化粧台
  6
EXLTYPE2
 62
     6
100
AcDbLine
 10
2308.229989
 20
1385.707107
 30
0.0
 11
2308.229989
 21
1369.707107
 31
0.0
  0
LINE
  5
192
100
AcDbEntity
  8
化粧台
  6
EXLTYPE2
 62
     6
100
AcDbLine
 10
2320.770011
 20
1385.707107
 30
0.0
 11
2320.770011
 21
1369.707107
 31
0.0
  0
LINE
  5
193
100
AcDbEntity
  8
化粧台
  6
EXLTYPE2
 62
     6
100
AcDbLine
 10
2331.629989
 20
1385.707107
 30
0.0
 11
2331.629989
 21
1369.707107
 31
0.0
  0
LINE
  5
194
100
AcDbEntity
  8
化粧台
  6
EXLTYPE2
 62
     6
100
AcDbLine
 10
2335.586239
 20
1337.707107
 30
0.0
 11
2335.586239
 21
1321.707107
 31
0.0
  0
LINE
  5
195
100
AcDbEntity
  8
化粧台
  6
EXLTYPE2
 62
     6
100
AcDbLine
 10
2348.126261
 20
1337.707107
 30
0.0
 11
2348.126261
 21
1321.707107
 31
0.0
  0
LINE
  5
196
100
AcDbEntity
  8
化粧台
  6
EXLTYPE2
 62
     6
100
AcDbLine
 10
2307.324466
 20
1245.707107
 30
0.0
 11
2307.324466
 21
1262.207107
 31
0.0
  0
LINE
  5
197
100
AcDbEntity
  8
化粧台
  6
EXLTYPE2
 62
     6
100
AcDbLine
 10
2349.031784
 20
1245.707107
 30
0.0
 11
2349.031784
 21
1262.207107
 31
0.0
  0
LINE
  5
198
100
AcDbEntity
  8
化粧台
  6
EXLTYPE2
 62
     6
100
AcDbLine
 10
2319.894586
 20
1247.207107
 30
0.0
 11
2319.894586
 21
1262.207107
 31
0.0
  0
LINE
  5
199
100
AcDbEntity
  8
化粧台
  6
EXLTYPE2
 62
     6
100
AcDbLine
 10
2336.461664
 20
1247.207107
 30
0.0
 11
2336.461664
 21
1262.207107
 31
0.0
  0
LINE
  5
19A
100
AcDbEntity
  8
化粧台
  6
EXLTYPE2
 62
     6
100
AcDbLine
 10
2315.428125
 20
1262.207107
 30
0.0
 11
2315.428125
 21
1247.207107
 31
0.0
  0
LINE
  5
19B
100
AcDbEntity
  8
化粧台
  6
EXLTYPE2
 62
     6
100
AcDbLine
 10
2340.928125
 20
1262.207107
 30
0.0
 11
2340.928125
 21
1247.207107
 31
0.0
  0
ARC
  5
19C
100
AcDbEntity
  8
化粧台
  6
EXLTYPE2
 62
     6
100
AcDbCircle
 10
2316.928125
 20
1247.207107
 30
0.0
 40
1.5
100
AcDbArc
 50
180.0
 51
270.0
  0
ARC
  5
19D
100
AcDbEntity
  8
化粧台
  6
EXLTYPE2
 62
     6
100
AcDbCircle
 10
2318.394586
 20
1247.207107
 30
0.0
 40
1.5
100
AcDbArc
 50
270.0
 51
0.0
  0
ARC
  5
19E
100
AcDbEntity
  8
化粧台
  6
EXLTYPE2
 62
     6
100
AcDbCircle
 10
2337.961664
 20
1247.207107
 30
0.0
 40
1.5
100
AcDbArc
 50
180.0
 51
270.0
  0
ARC
  5
19F
100
AcDbEntity
  8
化粧台
  6
EXLTYPE2
 62
     6
100
AcDbCircle
 10
2339.428125
 20
1247.207107
 30
0.0
 40
1.5
100
AcDbArc
 50
270.0
 51
0.0
  0
LINE
  5
1A0
100
AcDbEntity
  8
化粧台
  6
EXLTYPE2
 62
     6
100
AcDbLine
 10
2290.6
 20
1413.707107
 30
0.0
 11
2338.4
 21
1413.707107
 31
0.0
  0
LINE
  5
1A1
100
AcDbEntity
  8
化粧台
  6
EXLTYPE2
 62
     6
100
AcDbLine
 10
2280.5
 20
1447.207107
 30
0.0
 11
2348.5
 21
1447.207107
 31
0.0
  0
LINE
  5
1A2
100
AcDbEntity
  8
化粧台
  6
EXLTYPE2
 62
     6
100
AcDbLine
 10
2280.5
 20
1450.207107
 30
0.0
 11
2280.5
 21
1447.207107
 31
0.0
  0
LINE
  5
1A3
100
AcDbEntity
  8
化粧台
  6
EXLTYPE2
 62
     6
100
AcDbLine
 10
2348.5
 20
1450.207107
 30
0.0
 11
2348.5
 21
1447.207107
 31
0.0
  0
LINE
  5
1A4
100
AcDbEntity
  8
化粧台
  6
EXLTYPE2
 62
     6
100
AcDbLine
 10
2282.0
 20
1444.100165
 30
0.0
 11
2282.0
 21
1447.207107
 31
0.0
  0
LINE
  5
1A5
100
AcDbEntity
  8
化粧台
  6
EXLTYPE2
 62
     6
100
AcDbLine
 10
2347.0
 20
1444.100165
 30
0.0
 11
2347.0
 21
1447.207107
 31
0.0
  0
LINE
  5
1A6
100
AcDbEntity
  8
化粧台
  6
EXLTYPE2
 62
     6
100
AcDbLine
 10
2280.5
 20
1447.707107
 30
0.0
 11
2348.5
 21
1447.707107
 31
0.0
  0
LINE
  5
1A7
100
AcDbEntity
  8
化粧台
  6
EXLTYPE2
 62
     6
100
AcDbLine
 10
2280.5
 20
1450.207107
 30
0.0
 11
2348.5
 21
1450.207107
 31
0.0
  0
LINE
  5
1A8
100
AcDbEntity
  8
化粧台
  6
EXLTYPE2
 62
     6
100
AcDbLine
 10
2280.5
 20
1450.207107
 30
0.0
 11
2285.600967
 21
1454.5
 31
0.0
  0
LINE
  5
1A9
100
AcDbEntity
  8
化粧台
  6
EXLTYPE2
 62
     6
100
AcDbLine
 10
2343.399033
 20
1454.5
 30
0.0
 11
2348.5
 21
1450.207107
 31
0.0
  0
LINE
  5
1AA
100
AcDbEntity
  8
化粧台
  6
EXLTYPE2
 62
     6
100
AcDbLine
 10
2290.6
 20
1413.707107
 30
0.0
 11
2290.6
 21
1425.600165
 31
0.0
  0
LINE
  5
1AB
100
AcDbEntity
  8
化粧台
  6
EXLTYPE2
 62
     6
100
AcDbLine
 10
2338.4
 20
1413.707107
 30
0.0
 11
2338.4
 21
1425.600165
 31
0.0
  0
LINE
  5
1AC
100
AcDbEntity
  8
化粧台
  6
EXLTYPE2
 62
     6
100
AcDbLine
 10
2282.0
 20
1444.100165
 30
0.0
 11
2347.0
 21
1444.100165
 31
0.0
  0
LINE
  5
1AD
100
AcDbEntity
  8
化粧台
  6
EXLTYPE2
 62
     6
100
AcDbLine
 10
2340.5
 20
1425.600165
 30
0.0
 11
2288.5
 21
1425.600165
 31
0.0
  0
LINE
  5
1AE
100
AcDbEntity
  8
化粧台
  6
EXLTYPE2
 62
     6
100
AcDbLine
 10
2288.5
 20
1425.600165
 30
0.0
 11
2288.5
 21
1444.100165
 31
0.0
  0
LINE
  5
1AF
100
AcDbEntity
  8
化粧台
  6
EXLTYPE2
 62
     6
100
AcDbLine
 10
2340.5
 20
1425.600165
 30
0.0
 11
2340.5
 21
1444.100165
 31
0.0
  0
LINE
  5
1B0
100
AcDbEntity
  8
化粧台
  6
EXLTYPE2
 62
     6
100
AcDbLine
 10
2292.5
 20
1427.100165
 30
0.0
 11
2292.5
 21
1444.100165
 31
0.0
  0
LINE
  5
1B1
100
AcDbEntity
  8
化粧台
  6
EXLTYPE2
 62
     6
100
AcDbLine
 10
2310.5
 20
1427.100165
 30
0.0
 11
2310.5
 21
1444.100165
 31
0.0
  0
LINE
  5
1B2
100
AcDbEntity
  8
化粧台
  6
EXLTYPE2
 62
     6
100
AcDbLine
 10
2318.5
 20
1427.100165
 30
0.0
 11
2318.5
 21
1444.100165
 31
0.0
  0
LINE
  5
1B3
100
AcDbEntity
  8
化粧台
  6
EXLTYPE2
 62
     6
100
AcDbLine
 10
2336.5
 20
1427.100165
 30
0.0
 11
2336.5
 21
1444.100165
 31
0.0
  0
LINE
  5
1B4
100
AcDbEntity
  8
化粧台
  6
EXLTYPE2
 62
     6
100
AcDbLine
 10
2298.65
 20
1413.707107
 30
0.0
 11
2298.65
 21
1387.707107
 31
0.0
  0
LINE
  5
1B5
100
AcDbEntity
  8
化粧台
  6
EXLTYPE2
 62
     6
100
AcDbLine
 10
2330.35
 20
1413.707107
 30
0.0
 11
2330.35
 21
1387.707107
 31
0.0
  0
LINE
  5
1B6
100
AcDbEntity
  8
化粧台
  6
EXLTYPE2
 62
     6
100
AcDbLine
 10
2333.0
 20
1339.707107
 30
0.0
 11
2363.25625
 21
1339.707107
 31
0.0
  0
LINE
  5
1B7
100
AcDbEntity
  8
化粧台
  6
EXLTYPE2
 62
     6
100
AcDbLine
 10
2330.35
 20
1321.707107
 30
0.0
 11
2365.25625
 21
1321.707107
 31
0.0
  0
LINE
  5
1B8
100
AcDbEntity
  8
化粧台
  6
EXLTYPE2
 62
     6
100
AcDbLine
 10
2360.35625
 20
1321.707107
 30
0.0
 11
2360.35625
 21
1291.707107
 31
0.0
  0
LINE
  5
1B9
100
AcDbEntity
  8
化粧台
  6
EXLTYPE2
 62
     6
100
AcDbLine
 10
2346.25625
 20
1291.707107
 30
0.0
 11
2360.35625
 21
1291.707107
 31
0.0
  0
ARC
  5
1BA
100
AcDbEntity
  8
化粧台
  6
EXLTYPE2
 62
     6
100
AcDbCircle
 10
2316.095911
 20
1292.630936
 30
0.0
 40
40.0
100
AcDbArc
 50
317.693553
 51
358.676594
  0
LINE
  5
1BB
100
AcDbEntity
  8
化粧台
  6
EXLTYPE2
 62
     6
100
AcDbLine
 10
2365.25625
 20
1337.707107
 30
0.0
 11
2365.25625
 21
1321.707107
 31
0.0
  0
ARC
  5
1BC
100
AcDbEntity
  8
化粧台
  6
EXLTYPE2
 62
     6
100
AcDbCircle
 10
2363.25625
 20
1337.707107
 30
0.0
 40
2.0
100
AcDbArc
 50
0.0
 51
90.0
  0
LINE
  5
1BD
100
AcDbEntity
  8
化粧台
  6
EXLTYPE2
 62
     6
100
AcDbLine
 10
2357.70625
 20
1341.535232
 30
0.0
 11
2357.70625
 21
1339.707107
 31
0.0
  0
LINE
  5
1BE
100
AcDbEntity
  8
化粧台
  6
EXLTYPE2
 62
     6
100
AcDbLine
 10
2358.986239
 20
1337.707107
 30
0.0
 11
2358.986239
 21
1321.707107
 31
0.0
  0
ARC
  5
1BF
100
AcDbEntity
  8
化粧台
  6
EXLTYPE2
 62
     6
100
AcDbCircle
 10
2373.178125
 20
1341.535232
 30
0.0
 40
15.471875
100
AcDbArc
 50
0.0
 51
180.0
  0
ARC
  5
1C0
100
AcDbEntity
  8
化粧台
  6
EXLTYPE2
 62
     6
100
AcDbCircle
 10
2373.178125
 20
1341.535232
 30
0.0
 40
47.171875
100
AcDbArc
 50
0.0
 51
138.405648
  0
LINE
  5
1C1
100
AcDbEntity
  8
化粧台
  6
EXLTYPE2
 62
     6
100
AcDbLine
 10
2388.65
 20
1341.535232
 30
0.0
 11
2388.65
 21
1318.707107
 31
0.0
  0
LINE
  5
1C2
100
AcDbEntity
  8
化粧台
  6
EXLTYPE2
 62
     6
100
AcDbLine
 10
2420.35
 20
1318.707107
 30
0.0
 11
2420.35
 21
1341.535232
 31
0.0
  0
LINE
  5
1C3
100
AcDbEntity
  8
化粧台
  6
CONTINUOUS
 62
     6
100
AcDbLine
 10
2388.65
 20
1318.707107
 30
0.0
 11
2404.5
 21
1318.707107
 31
0.0
  0
LINE
  5
1C4
100
AcDbEntity
  8
化粧台
  6
CONTINUOUS
 62
     6
100
AcDbLine
 10
2404.5
 20
1313.707107
 30
0.0
 11
2418.5
 21
1313.707107
 31
0.0
  0
LINE
  5
1C5
100
AcDbEntity
  8
化粧台
  6
CONTINUOUS
 62
     6
100
AcDbLine
 10
2390.5
 20
1308.707107
 30
0.0
 11
2404.5
 21
1308.707107
 31
0.0
  0
LINE
  5
1C6
100
AcDbEntity
  8
化粧台
  6
CONTINUOUS
 62
     6
100
AcDbLine
 10
2404.5
 20
1303.707107
 30
0.0
 11
2418.5
 21
1303.707107
 31
0.0
  0
LINE
  5
1C7
100
AcDbEntity
  8
化粧台
  6
CONTINUOUS
 62
     6
100
AcDbLine
 10
2390.5
 20
1298.707107
 30
0.0
 11
2404.5
 21
1298.707107
 31
0.0
  0
LINE
  5
1C8
100
AcDbEntity
  8
化粧台
  6
CONTINUOUS
 62
     6
100
AcDbLine
 10
2404.5
 20
1293.707107
 30
0.0
 11
2418.5
 21
1293.707107
 31
0.0
  0
LINE
  5
1C9
100
AcDbEntity
  8
化粧台
  6
CONTINUOUS
 62
     6
100
AcDbLine
 10
2390.5
 20
1288.707107
 30
0.0
 11
2404.5
 21
1288.707107
 31
0.0
  0
LINE
  5
1CA
100
AcDbEntity
  8
化粧台
  6
CONTINUOUS
 62
     6
100
AcDbLine
 10
2404.5
 20
1283.707107
 30
0.0
 11
2418.5
 21
1283.707107
 31
0.0
  0
LINE
  5
1CB
100
AcDbEntity
  8
化粧台
  6
CONTINUOUS
 62
     6
100
AcDbLine
 10
2390.5
 20
1278.707107
 30
0.0
 11
2404.5
 21
1278.707107
 31
0.0
  0
LINE
  5
1CC
100
AcDbEntity
  8
化粧台
  6
CONTINUOUS
 62
     6
100
AcDbLine
 10
2404.5
 20
1273.707107
 30
0.0
 11
2418.5
 21
1273.707107
 31
0.0
  0
LINE
  5
1CD
100
AcDbEntity
  8
化粧台
  6
CONTINUOUS
 62
     6
100
AcDbLine
 10
2390.5
 20
1268.707107
 30
0.0
 11
2404.5
 21
1268.707107
 31
0.0
  0
LINE
  5
1CE
100
AcDbEntity
  8
化粧台
  6
CONTINUOUS
 62
     6
100
AcDbLine
 10
2404.5
 20
1263.707107
 30
0.0
 11
2418.5
 21
1263.707107
 31
0.0
  0
LINE
  5
1CF
100
AcDbEntity
  8
化粧台
  6
CONTINUOUS
 62
     6
100
AcDbLine
 10
2390.5
 20
1258.707107
 30
0.0
 11
2404.5
 21
1258.707107
 31
0.0
  0
LINE
  5
1D0
100
AcDbEntity
  8
化粧台
  6
CONTINUOUS
 62
     6
100
AcDbLine
 10
2404.5
 20
1253.707107
 30
0.0
 11
2418.5
 21
1253.707107
 31
0.0
  0
LINE
  5
1D1
100
AcDbEntity
  8
化粧台
  6
CONTINUOUS
 62
     6
100
AcDbLine
 10
2390.5
 20
1248.707107
 30
0.0
 11
2404.5
 21
1248.707107
 31
0.0
  0
LINE
  5
1D2
100
AcDbEntity
  8
化粧台
  6
CONTINUOUS
 62
     6
100
AcDbLine
 10
2404.5
 20
1243.707107
 30
0.0
 11
2418.5
 21
1243.707107
 31
0.0
  0
LINE
  5
1D3
100
AcDbEntity
  8
化粧台
  6
CONTINUOUS
 62
     6
100
AcDbLine
 10
2390.5
 20
1238.707107
 30
0.0
 11
2404.5
 21
1238.707107
 31
0.0
  0
LINE
  5
1D4
100
AcDbEntity
  8
化粧台
  6
CONTINUOUS
 62
     6
100
AcDbLine
 10
2404.5
 20
1233.707107
 30
0.0
 11
2418.5
 21
1233.707107
 31
0.0
  0
LINE
  5
1D5
100
AcDbEntity
  8
化粧台
  6
CONTINUOUS
 62
     6
100
AcDbLine
 10
2390.5
 20
1228.707107
 30
0.0
 11
2404.5
 21
1228.707107
 31
0.0
  0
LINE
  5
1D6
100
AcDbEntity
  8
化粧台
  6
CONTINUOUS
 62
     6
100
AcDbLine
 10
2404.5
 20
1223.707107
 30
0.0
 11
2418.5
 21
1223.707107
 31
0.0
  0
LINE
  5
1D7
100
AcDbEntity
  8
化粧台
  6
CONTINUOUS
 62
     6
100
AcDbLine
 10
2390.5
 20
1218.707107
 30
0.0
 11
2404.5
 21
1218.707107
 31
0.0
  0
LINE
  5
1D8
100
AcDbEntity
  8
化粧台
  6
CONTINUOUS
 62
     6
100
AcDbLine
 10
2404.5
 20
1213.707107
 30
0.0
 11
2418.5
 21
1213.707107
 31
0.0
  0
LINE
  5
1D9
100
AcDbEntity
  8
化粧台
  6
CONTINUOUS
 62
     6
100
AcDbLine
 10
2390.5
 20
1208.707107
 30
0.0
 11
2404.5
 21
1208.707107
 31
0.0
  0
LINE
  5
1DA
100
AcDbEntity
  8
化粧台
  6
CONTINUOUS
 62
     6
100
AcDbLine
 10
2404.5
 20
1203.707107
 30
0.0
 11
2418.5
 21
1203.707107
 31
0.0
  0
LINE
  5
1DB
100
AcDbEntity
  8
化粧台
  6
CONTINUOUS
 62
     6
100
AcDbLine
 10
2390.5
 20
1198.707107
 30
0.0
 11
2404.5
 21
1198.707107
 31
0.0
  0
LINE
  5
1DC
100
AcDbEntity
  8
化粧台
  6
CONTINUOUS
 62
     6
100
AcDbLine
 10
2404.5
 20
1193.707107
 30
0.0
 11
2418.5
 21
1193.707107
 31
0.0
  0
LINE
  5
1DD
100
AcDbEntity
  8
化粧台
  6
CONTINUOUS
 62
     6
100
AcDbLine
 10
2390.5
 20
1188.707107
 30
0.0
 11
2404.5
 21
1188.707107
 31
0.0
  0
LINE
  5
1DE
100
AcDbEntity
  8
化粧台
  6
CONTINUOUS
 62
     6
100
AcDbLine
 10
2404.5
 20
1183.707107
 30
0.0
 11
2418.5
 21
1183.707107
 31
0.0
  0
LINE
  5
1DF
100
AcDbEntity
  8
化粧台
  6
CONTINUOUS
 62
     6
100
AcDbLine
 10
2390.5
 20
1178.707107
 30
0.0
 11
2404.5
 21
1178.707107
 31
0.0
  0
LINE
  5
1E0
100
AcDbEntity
  8
化粧台
  6
CONTINUOUS
 62
     6
100
AcDbLine
 10
2404.5
 20
1173.707107
 30
0.0
 11
2418.5
 21
1173.707107
 31
0.0
  0
LINE
  5
1E1
100
AcDbEntity
  8
化粧台
  6
CONTINUOUS
 62
     6
100
AcDbLine
 10
2390.5
 20
1168.707107
 30
0.0
 11
2404.5
 21
1168.707107
 31
0.0
  0
LINE
  5
1E2
100
AcDbEntity
  8
化粧台
  6
CONTINUOUS
 62
     6
100
AcDbLine
 10
2404.5
 20
1163.707107
 30
0.0
 11
2418.5
 21
1163.707107
 31
0.0
  0
LINE
  5
1E3
100
AcDbEntity
  8
化粧台
  6
CONTINUOUS
 62
     6
100
AcDbLine
 10
2390.5
 20
1158.707107
 30
0.0
 11
2404.5
 21
1158.707107
 31
0.0
  0
LINE
  5
1E4
100
AcDbEntity
  8
化粧台
  6
CONTINUOUS
 62
     6
100
AcDbLine
 10
2404.5
 20
1153.707107
 30
0.0
 11
2418.5
 21
1153.707107
 31
0.0
  0
LINE
  5
1E5
100
AcDbEntity
  8
化粧台
  6
CONTINUOUS
 62
     6
100
AcDbLine
 10
2390.5
 20
1148.707107
 30
0.0
 11
2404.5
 21
1148.707107
 31
0.0
  0
LINE
  5
1E6
100
AcDbEntity
  8
化粧台
  6
CONTINUOUS
 62
     6
100
AcDbLine
 10
2404.5
 20
1143.707107
 30
0.0
 11
2418.5
 21
1143.707107
 31
0.0
  0
LINE
  5
1E7
100
AcDbEntity
  8
化粧台
  6
CONTINUOUS
 62
     6
100
AcDbLine
 10
2390.5
 20
1138.707107
 30
0.0
 11
2404.5
 21
1138.707107
 31
0.0
  0
LINE
  5
1E8
100
AcDbEntity
  8
化粧台
  6
CONTINUOUS
 62
     6
100
AcDbLine
 10
2404.5
 20
1133.707107
 30
0.0
 11
2418.5
 21
1133.707107
 31
0.0
  0
LINE
  5
1E9
100
AcDbEntity
  8
化粧台
  6
CONTINUOUS
 62
     6
100
AcDbLine
 10
2390.5
 20
1128.707107
 30
0.0
 11
2404.5
 21
1128.707107
 31
0.0
  0
LINE
  5
1EA
100
AcDbEntity
  8
化粧台
  6
CONTINUOUS
 62
     6
100
AcDbLine
 10
2404.5
 20
1123.707107
 30
0.0
 11
2418.5
 21
1123.707107
 31
0.0
  0
LINE
  5
1EB
100
AcDbEntity
  8
化粧台
  6
CONTINUOUS
 62
     6
100
AcDbLine
 10
2390.5
 20
1118.707107
 30
0.0
 11
2404.5
 21
1118.707107
 31
0.0
  0
LINE
  5
1EC
100
AcDbEntity
  8
化粧台
  6
CONTINUOUS
 62
     6
100
AcDbLine
 10
2404.5
 20
1113.707107
 30
0.0
 11
2418.5
 21
1113.707107
 31
0.0
  0
LINE
  5
1ED
100
AcDbEntity
  8
化粧台
  6
CONTINUOUS
 62
     6
100
AcDbLine
 10
2390.5
 20
1108.707107
 30
0.0
 11
2404.5
 21
1108.707107
 31
0.0
  0
LINE
  5
1EE
100
AcDbEntity
  8
化粧台
  6
CONTINUOUS
 62
     6
100
AcDbLine
 10
2404.5
 20
1103.707107
 30
0.0
 11
2418.5
 21
1103.707107
 31
0.0
  0
LINE
  5
1EF
100
AcDbEntity
  8
化粧台
  6
CONTINUOUS
 62
     6
100
AcDbLine
 10
2390.5
 20
1098.707107
 30
0.0
 11
2404.5
 21
1098.707107
 31
0.0
  0
LINE
  5
1F0
100
AcDbEntity
  8
化粧台
  6
CONTINUOUS
 62
     6
100
AcDbLine
 10
2404.5
 20
1093.707107
 30
0.0
 11
2418.5
 21
1093.707107
 31
0.0
  0
LINE
  5
1F1
100
AcDbEntity
  8
化粧台
  6
CONTINUOUS
 62
     6
100
AcDbLine
 10
2390.5
 20
1088.707107
 30
0.0
 11
2404.5
 21
1088.707107
 31
0.0
  0
LINE
  5
1F2
100
AcDbEntity
  8
化粧台
  6
CONTINUOUS
 62
     6
100
AcDbLine
 10
2404.5
 20
1083.707107
 30
0.0
 11
2418.5
 21
1083.707107
 31
0.0
  0
LINE
  5
1F3
100
AcDbEntity
  8
化粧台
  6
CONTINUOUS
 62
     6
100
AcDbLine
 10
2390.5
 20
1078.707107
 30
0.0
 11
2404.5
 21
1078.707107
 31
0.0
  0
LINE
  5
1F4
100
AcDbEntity
  8
化粧台
  6
CONTINUOUS
 62
     6
100
AcDbLine
 10
2404.5
 20
1073.707107
 30
0.0
 11
2418.5
 21
1073.707107
 31
0.0
  0
LINE
  5
1F5
100
AcDbEntity
  8
化粧台
  6
CONTINUOUS
 62
     6
100
AcDbLine
 10
2390.5
 20
1068.707107
 30
0.0
 11
2404.5
 21
1068.707107
 31
0.0
  0
LINE
  5
1F6
100
AcDbEntity
  8
化粧台
  6
CONTINUOUS
 62
     6
100
AcDbLine
 10
2404.5
 20
1063.707107
 30
0.0
 11
2418.5
 21
1063.707107
 31
0.0
  0
LINE
  5
1F7
100
AcDbEntity
  8
化粧台
  6
CONTINUOUS
 62
     6
100
AcDbLine
 10
2390.5
 20
1058.707107
 30
0.0
 11
2404.5
 21
1058.707107
 31
0.0
  0
LINE
  5
1F8
100
AcDbEntity
  8
化粧台
  6
CONTINUOUS
 62
     6
100
AcDbLine
 10
2404.5
 20
1053.707107
 30
0.0
 11
2418.5
 21
1053.707107
 31
0.0
  0
LINE
  5
1F9
100
AcDbEntity
  8
化粧台
  6
CONTINUOUS
 62
     6
100
AcDbLine
 10
2390.5
 20
1048.707107
 30
0.0
 11
2404.5
 21
1048.707107
 31
0.0
  0
LINE
  5
1FA
100
AcDbEntity
  8
化粧台
  6
CONTINUOUS
 62
     6
100
AcDbLine
 10
2404.5
 20
1043.707107
 30
0.0
 11
2418.5
 21
1043.707107
 31
0.0
  0
LINE
  5
1FB
100
AcDbEntity
  8
化粧台
  6
CONTINUOUS
 62
     6
100
AcDbLine
 10
2390.5
 20
1038.707107
 30
0.0
 11
2404.5
 21
1038.707107
 31
0.0
  0
LINE
  5
1FC
100
AcDbEntity
  8
化粧台
  6
CONTINUOUS
 62
     6
100
AcDbLine
 10
2404.5
 20
1033.707107
 30
0.0
 11
2418.5
 21
1033.707107
 31
0.0
  0
LINE
  5
1FD
100
AcDbEntity
  8
化粧台
  6
CONTINUOUS
 62
     6
100
AcDbLine
 10
2390.5
 20
1028.707107
 30
0.0
 11
2404.5
 21
1028.707107
 31
0.0
  0
LINE
  5
1FE
100
AcDbEntity
  8
化粧台
  6
CONTINUOUS
 62
     6
100
AcDbLine
 10
2404.5
 20
1023.707107
 30
0.0
 11
2418.5
 21
1023.707107
 31
0.0
  0
POLYLINE
  5
1FF
100
AcDbEntity
  8
化粧台
  6
EXLTYPE2
 62
     6
100
AcDb2dPolyline
 66
     1
 10
0.0
 20
0.0
 30
0.0
 70
   128
  0
VERTEX
  5
200
100
AcDbEntity
  8
化粧台
  6
EXLTYPE2
 62
     6
100
AcDbVertex
100
AcDb2dVertex
 10
2419.610051
 20
924.5
 30
0.0
  0
VERTEX
  5
201
100
AcDbEntity
  8
化粧台
  6
EXLTYPE2
 62
     6
100
AcDbVertex
100
AcDb2dVertex
 10
2422.0
 20
926.207107
 30
0.0
  0
VERTEX
  5
202
100
AcDbEntity
  8
化粧台
  6
EXLTYPE2
 62
     6
100
AcDbVertex
100
AcDb2dVertex
 10
2418.5
 20
928.707107
 30
0.0
  0
VERTEX
  5
203
100
AcDbEntity
  8
化粧台
  6
EXLTYPE2
 62
     6
100
AcDbVertex
100
AcDb2dVertex
 10
2422.0
 20
931.207107
 30
0.0
  0
VERTEX
  5
204
100
AcDbEntity
  8
化粧台
  6
EXLTYPE2
 62
     6
100
AcDbVertex
100
AcDb2dVertex
 10
2418.5
 20
933.707107
 30
0.0
  0
VERTEX
  5
205
100
AcDbEntity
  8
化粧台
  6
EXLTYPE2
 62
     6
100
AcDbVertex
100
AcDb2dVertex
 10
2422.0
 20
936.207107
 30
0.0
  0
VERTEX
  5
206
100
AcDbEntity
  8
化粧台
  6
EXLTYPE2
 62
     6
100
AcDbVertex
100
AcDb2dVertex
 10
2418.5
 20
938.707107
 30
0.0
  0
VERTEX
  5
207
100
AcDbEntity
  8
化粧台
  6
EXLTYPE2
 62
     6
100
AcDbVertex
100
AcDb2dVertex
 10
2422.0
 20
941.207107
 30
0.0
  0
VERTEX
  5
208
100
AcDbEntity
  8
化粧台
  6
EXLTYPE2
 62
     6
100
AcDbVertex
100
AcDb2dVertex
 10
2418.5
 20
943.707107
 30
0.0
  0
VERTEX
  5
209
100
AcDbEntity
  8
化粧台
  6
EXLTYPE2
 62
     6
100
AcDbVertex
100
AcDb2dVertex
 10
2422.0
 20
946.207107
 30
0.0
  0
VERTEX
  5
20A
100
AcDbEntity
  8
化粧台
  6
EXLTYPE2
 62
     6
100
AcDbVertex
100
AcDb2dVertex
 10
2418.5
 20
948.707107
 30
0.0
  0
VERTEX
  5
20B
100
AcDbEntity
  8
化粧台
  6
EXLTYPE2
 62
     6
100
AcDbVertex
100
AcDb2dVertex
 10
2422.0
 20
951.207107
 30
0.0
  0
VERTEX
  5
20C
100
AcDbEntity
  8
化粧台
  6
EXLTYPE2
 62
     6
100
AcDbVertex
100
AcDb2dVertex
 10
2418.5
 20
953.707107
 30
0.0
  0
VERTEX
  5
20D
100
AcDbEntity
  8
化粧台
  6
EXLTYPE2
 62
     6
100
AcDbVertex
100
AcDb2dVertex
 10
2422.0
 20
956.207107
 30
0.0
  0
VERTEX
  5
20E
100
AcDbEntity
  8
化粧台
  6
EXLTYPE2
 62
     6
100
AcDbVertex
100
AcDb2dVertex
 10
2418.5
 20
958.707107
 30
0.0
  0
VERTEX
  5
20F
100
AcDbEntity
  8
化粧台
  6
EXLTYPE2
 62
     6
100
AcDbVertex
100
AcDb2dVertex
 10
2422.0
 20
961.207107
 30
0.0
  0
VERTEX
  5
210
100
AcDbEntity
  8
化粧台
  6
EXLTYPE2
 62
     6
100
AcDbVertex
100
AcDb2dVertex
 10
2418.5
 20
963.707107
 30
0.0
  0
VERTEX
  5
211
100
AcDbEntity
  8
化粧台
  6
EXLTYPE2
 62
     6
100
AcDbVertex
100
AcDb2dVertex
 10
2422.0
 20
966.207107
 30
0.0
  0
VERTEX
  5
212
100
AcDbEntity
  8
化粧台
  6
EXLTYPE2
 62
     6
100
AcDbVertex
100
AcDb2dVertex
 10
2418.5
 20
968.707107
 30
0.0
  0
VERTEX
  5
213
100
AcDbEntity
  8
化粧台
  6
EXLTYPE2
 62
     6
100
AcDbVertex
100
AcDb2dVertex
 10
2422.0
 20
971.207107
 30
0.0
  0
VERTEX
  5
214
100
AcDbEntity
  8
化粧台
  6
EXLTYPE2
 62
     6
100
AcDbVertex
100
AcDb2dVertex
 10
2418.5
 20
973.707107
 30
0.0
  0
VERTEX
  5
215
100
AcDbEntity
  8
化粧台
  6
EXLTYPE2
 62
     6
100
AcDbVertex
100
AcDb2dVertex
 10
2422.0
 20
976.207107
 30
0.0
  0
VERTEX
  5
216
100
AcDbEntity
  8
化粧台
  6
EXLTYPE2
 62
     6
100
AcDbVertex
100
AcDb2dVertex
 10
2418.5
 20
978.707107
 30
0.0
  0
VERTEX
  5
217
100
AcDbEntity
  8
化粧台
  6
EXLTYPE2
 62
     6
100
AcDbVertex
100
AcDb2dVertex
 10
2422.0
 20
981.207107
 30
0.0
  0
VERTEX
  5
218
100
AcDbEntity
  8
化粧台
  6
EXLTYPE2
 62
     6
100
AcDbVertex
100
AcDb2dVertex
 10
2418.5
 20
983.707107
 30
0.0
  0
VERTEX
  5
219
100
AcDbEntity
  8
化粧台
  6
EXLTYPE2
 62
     6
100
AcDbVertex
100
AcDb2dVertex
 10
2422.0
 20
986.207107
 30
0.0
  0
VERTEX
  5
21A
100
AcDbEntity
  8
化粧台
  6
EXLTYPE2
 62
     6
100
AcDbVertex
100
AcDb2dVertex
 10
2418.5
 20
988.707107
 30
0.0
  0
VERTEX
  5
21B
100
AcDbEntity
  8
化粧台
  6
EXLTYPE2
 62
     6
100
AcDbVertex
100
AcDb2dVertex
 10
2422.0
 20
991.207107
 30
0.0
  0
VERTEX
  5
21C
100
AcDbEntity
  8
化粧台
  6
EXLTYPE2
 62
     6
100
AcDbVertex
100
AcDb2dVertex
 10
2418.5
 20
993.707107
 30
0.0
  0
VERTEX
  5
21D
100
AcDbEntity
  8
化粧台
  6
EXLTYPE2
 62
     6
100
AcDbVertex
100
AcDb2dVertex
 10
2422.0
 20
996.207107
 30
0.0
  0
VERTEX
  5
21E
100
AcDbEntity
  8
化粧台
  6
EXLTYPE2
 62
     6
100
AcDbVertex
100
AcDb2dVertex
 10
2418.5
 20
998.707107
 30
0.0
  0
VERTEX
  5
21F
100
AcDbEntity
  8
化粧台
  6
EXLTYPE2
 62
     6
100
AcDbVertex
100
AcDb2dVertex
 10
2422.0
 20
1001.207107
 30
0.0
  0
VERTEX
  5
220
100
AcDbEntity
  8
化粧台
  6
EXLTYPE2
 62
     6
100
AcDbVertex
100
AcDb2dVertex
 10
2418.5
 20
1003.707107
 30
0.0
  0
VERTEX
  5
221
100
AcDbEntity
  8
化粧台
  6
EXLTYPE2
 62
     6
100
AcDbVertex
100
AcDb2dVertex
 10
2422.0
 20
1006.207107
 30
0.0
  0
VERTEX
  5
222
100
AcDbEntity
  8
化粧台
  6
EXLTYPE2
 62
     6
100
AcDbVertex
100
AcDb2dVertex
 10
2418.5
 20
1008.707107
 30
0.0
  0
VERTEX
  5
223
100
AcDbEntity
  8
化粧台
  6
EXLTYPE2
 62
     6
100
AcDbVertex
100
AcDb2dVertex
 10
2422.0
 20
1011.207107
 30
0.0
  0
VERTEX
  5
224
100
AcDbEntity
  8
化粧台
  6
EXLTYPE2
 62
     6
100
AcDbVertex
100
AcDb2dVertex
 10
2418.5
 20
1013.707107
 30
0.0
  0
VERTEX
  5
225
100
AcDbEntity
  8
化粧台
  6
EXLTYPE2
 62
     6
100
AcDbVertex
100
AcDb2dVertex
 10
2422.0
 20
1016.207107
 30
0.0
  0
VERTEX
  5
226
100
AcDbEntity
  8
化粧台
  6
EXLTYPE2
 62
     6
100
AcDbVertex
100
AcDb2dVertex
 10
2418.5
 20
1018.707107
 30
0.0
  0
VERTEX
  5
227
100
AcDbEntity
  8
化粧台
  6
EXLTYPE2
 62
     6
100
AcDbVertex
100
AcDb2dVertex
 10
2422.0
 20
1021.207107
 30
0.0
  0
VERTEX
  5
228
100
AcDbEntity
  8
化粧台
  6
EXLTYPE2
 62
     6
100
AcDbVertex
100
AcDb2dVertex
 10
2418.5
 20
1023.707107
 30
0.0
  0
VERTEX
  5
229
100
AcDbEntity
  8
化粧台
  6
EXLTYPE2
 62
     6
100
AcDbVertex
100
AcDb2dVertex
 10
2422.0
 20
1026.207107
 30
0.0
  0
VERTEX
  5
22A
100
AcDbEntity
  8
化粧台
  6
EXLTYPE2
 62
     6
100
AcDbVertex
100
AcDb2dVertex
 10
2418.5
 20
1028.707107
 30
0.0
  0
VERTEX
  5
22B
100
AcDbEntity
  8
化粧台
  6
EXLTYPE2
 62
     6
100
AcDbVertex
100
AcDb2dVertex
 10
2422.0
 20
1031.207107
 30
0.0
  0
VERTEX
  5
22C
100
AcDbEntity
  8
化粧台
  6
EXLTYPE2
 62
     6
100
AcDbVertex
100
AcDb2dVertex
 10
2418.5
 20
1033.707107
 30
0.0
  0
VERTEX
  5
22D
100
AcDbEntity
  8
化粧台
  6
EXLTYPE2
 62
     6
100
AcDbVertex
100
AcDb2dVertex
 10
2422.0
 20
1036.207107
 30
0.0
  0
VERTEX
  5
22E
100
AcDbEntity
  8
化粧台
  6
EXLTYPE2
 62
     6
100
AcDbVertex
100
AcDb2dVertex
 10
2418.5
 20
1038.707107
 30
0.0
  0
VERTEX
  5
22F
100
AcDbEntity
  8
化粧台
  6
EXLTYPE2
 62
     6
100
AcDbVertex
100
AcDb2dVertex
 10
2422.0
 20
1041.207107
 30
0.0
  0
VERTEX
  5
230
100
AcDbEntity
  8
化粧台
  6
EXLTYPE2
 62
     6
100
AcDbVertex
100
AcDb2dVertex
 10
2418.5
 20
1043.707107
 30
0.0
  0
VERTEX
  5
231
100
AcDbEntity
  8
化粧台
  6
EXLTYPE2
 62
     6
100
AcDbVertex
100
AcDb2dVertex
 10
2422.0
 20
1046.207107
 30
0.0
  0
VERTEX
  5
232
100
AcDbEntity
  8
化粧台
  6
EXLTYPE2
 62
     6
100
AcDbVertex
100
AcDb2dVertex
 10
2418.5
 20
1048.707107
 30
0.0
  0
VERTEX
  5
233
100
AcDbEntity
  8
化粧台
  6
EXLTYPE2
 62
     6
100
AcDbVertex
100
AcDb2dVertex
 10
2422.0
 20
1051.207107
 30
0.0
  0
VERTEX
  5
234
100
AcDbEntity
  8
化粧台
  6
EXLTYPE2
 62
     6
100
AcDbVertex
100
AcDb2dVertex
 10
2418.5
 20
1053.707107
 30
0.0
  0
VERTEX
  5
235
100
AcDbEntity
  8
化粧台
  6
EXLTYPE2
 62
     6
100
AcDbVertex
100
AcDb2dVertex
 10
2422.0
 20
1056.207107
 30
0.0
  0
VERTEX
  5
236
100
AcDbEntity
  8
化粧台
  6
EXLTYPE2
 62
     6
100
AcDbVertex
100
AcDb2dVertex
 10
2418.5
 20
1058.707107
 30
0.0
  0
VERTEX
  5
237
100
AcDbEntity
  8
化粧台
  6
EXLTYPE2
 62
     6
100
AcDbVertex
100
AcDb2dVertex
 10
2422.0
 20
1061.207107
 30
0.0
  0
VERTEX
  5
238
100
AcDbEntity
  8
化粧台
  6
EXLTYPE2
 62
     6
100
AcDbVertex
100
AcDb2dVertex
 10
2418.5
 20
1063.707107
 30
0.0
  0
VERTEX
  5
239
100
AcDbEntity
  8
化粧台
  6
EXLTYPE2
 62
     6
100
AcDbVertex
100
AcDb2dVertex
 10
2422.0
 20
1066.207107
 30
0.0
  0
VERTEX
  5
23A
100
AcDbEntity
  8
化粧台
  6
EXLTYPE2
 62
     6
100
AcDbVertex
100
AcDb2dVertex
 10
2418.5
 20
1068.707107
 30
0.0
  0
VERTEX
  5
23B
100
AcDbEntity
  8
化粧台
  6
EXLTYPE2
 62
     6
100
AcDbVertex
100
AcDb2dVertex
 10
2422.0
 20
1071.207107
 30
0.0
  0
VERTEX
  5
23C
100
AcDbEntity
  8
化粧台
  6
EXLTYPE2
 62
     6
100
AcDbVertex
100
AcDb2dVertex
 10
2418.5
 20
1073.707107
 30
0.0
  0
VERTEX
  5
23D
100
AcDbEntity
  8
化粧台
  6
EXLTYPE2
 62
     6
100
AcDbVertex
100
AcDb2dVertex
 10
2422.0
 20
1076.207107
 30
0.0
  0
VERTEX
  5
23E
100
AcDbEntity
  8
化粧台
  6
EXLTYPE2
 62
     6
100
AcDbVertex
100
AcDb2dVertex
 10
2418.5
 20
1078.707107
 30
0.0
  0
VERTEX
  5
23F
100
AcDbEntity
  8
化粧台
  6
EXLTYPE2
 62
     6
100
AcDbVertex
100
AcDb2dVertex
 10
2422.0
 20
1081.207107
 30
0.0
  0
VERTEX
  5
240
100
AcDbEntity
  8
化粧台
  6
EXLTYPE2
 62
     6
100
AcDbVertex
100
AcDb2dVertex
 10
2418.5
 20
1083.707107
 30
0.0
  0
VERTEX
  5
241
100
AcDbEntity
  8
化粧台
  6
EXLTYPE2
 62
     6
100
AcDbVertex
100
AcDb2dVertex
 10
2422.0
 20
1086.207107
 30
0.0
  0
VERTEX
  5
242
100
AcDbEntity
  8
化粧台
  6
EXLTYPE2
 62
     6
100
AcDbVertex
100
AcDb2dVertex
 10
2418.5
 20
1088.707107
 30
0.0
  0
VERTEX
  5
243
100
AcDbEntity
  8
化粧台
  6
EXLTYPE2
 62
     6
100
AcDbVertex
100
AcDb2dVertex
 10
2422.0
 20
1091.207107
 30
0.0
  0
VERTEX
  5
244
100
AcDbEntity
  8
化粧台
  6
EXLTYPE2
 62
     6
100
AcDbVertex
100
AcDb2dVertex
 10
2418.5
 20
1093.707107
 30
0.0
  0
VERTEX
  5
245
100
AcDbEntity
  8
化粧台
  6
EXLTYPE2
 62
     6
100
AcDbVertex
100
AcDb2dVertex
 10
2422.0
 20
1096.207107
 30
0.0
  0
VERTEX
  5
246
100
AcDbEntity
  8
化粧台
  6
EXLTYPE2
 62
     6
100
AcDbVertex
100
AcDb2dVertex
 10
2418.5
 20
1098.707107
 30
0.0
  0
VERTEX
  5
247
100
AcDbEntity
  8
化粧台
  6
EXLTYPE2
 62
     6
100
AcDbVertex
100
AcDb2dVertex
 10
2422.0
 20
1101.207107
 30
0.0
  0
VERTEX
  5
248
100
AcDbEntity
  8
化粧台
  6
EXLTYPE2
 62
     6
100
AcDbVertex
100
AcDb2dVertex
 10
2418.5
 20
1103.707107
 30
0.0
  0
VERTEX
  5
249
100
AcDbEntity
  8
化粧台
  6
EXLTYPE2
 62
     6
100
AcDbVertex
100
AcDb2dVertex
 10
2422.0
 20
1106.207107
 30
0.0
  0
VERTEX
  5
24A
100
AcDbEntity
  8
化粧台
  6
EXLTYPE2
 62
     6
100
AcDbVertex
100
AcDb2dVertex
 10
2418.5
 20
1108.707107
 30
0.0
  0
VERTEX
  5
24B
100
AcDbEntity
  8
化粧台
  6
EXLTYPE2
 62
     6
100
AcDbVertex
100
AcDb2dVertex
 10
2422.0
 20
1111.207107
 30
0.0
  0
VERTEX
  5
24C
100
AcDbEntity
  8
化粧台
  6
EXLTYPE2
 62
     6
100
AcDbVertex
100
AcDb2dVertex
 10
2418.5
 20
1113.707107
 30
0.0
  0
VERTEX
  5
24D
100
AcDbEntity
  8
化粧台
  6
EXLTYPE2
 62
     6
100
AcDbVertex
100
AcDb2dVertex
 10
2422.0
 20
1116.207107
 30
0.0
  0
VERTEX
  5
24E
100
AcDbEntity
  8
化粧台
  6
EXLTYPE2
 62
     6
100
AcDbVertex
100
AcDb2dVertex
 10
2418.5
 20
1118.707107
 30
0.0
  0
VERTEX
  5
24F
100
AcDbEntity
  8
化粧台
  6
EXLTYPE2
 62
     6
100
AcDbVertex
100
AcDb2dVertex
 10
2422.0
 20
1121.207107
 30
0.0
  0
VERTEX
  5
250
100
AcDbEntity
  8
化粧台
  6
EXLTYPE2
 62
     6
100
AcDbVertex
100
AcDb2dVertex
 10
2418.5
 20
1123.707107
 30
0.0
  0
VERTEX
  5
251
100
AcDbEntity
  8
化粧台
  6
EXLTYPE2
 62
     6
100
AcDbVertex
100
AcDb2dVertex
 10
2422.0
 20
1126.207107
 30
0.0
  0
VERTEX
  5
252
100
AcDbEntity
  8
化粧台
  6
EXLTYPE2
 62
     6
100
AcDbVertex
100
AcDb2dVertex
 10
2418.5
 20
1128.707107
 30
0.0
  0
VERTEX
  5
253
100
AcDbEntity
  8
化粧台
  6
EXLTYPE2
 62
     6
100
AcDbVertex
100
AcDb2dVertex
 10
2422.0
 20
1131.207107
 30
0.0
  0
VERTEX
  5
254
100
AcDbEntity
  8
化粧台
  6
EXLTYPE2
 62
     6
100
AcDbVertex
100
AcDb2dVertex
 10
2418.5
 20
1133.707107
 30
0.0
  0
VERTEX
  5
255
100
AcDbEntity
  8
化粧台
  6
EXLTYPE2
 62
     6
100
AcDbVertex
100
AcDb2dVertex
 10
2422.0
 20
1136.207107
 30
0.0
  0
VERTEX
  5
256
100
AcDbEntity
  8
化粧台
  6
EXLTYPE2
 62
     6
100
AcDbVertex
100
AcDb2dVertex
 10
2418.5
 20
1138.707107
 30
0.0
  0
VERTEX
  5
257
100
AcDbEntity
  8
化粧台
  6
EXLTYPE2
 62
     6
100
AcDbVertex
100
AcDb2dVertex
 10
2422.0
 20
1141.207107
 30
0.0
  0
VERTEX
  5
258
100
AcDbEntity
  8
化粧台
  6
EXLTYPE2
 62
     6
100
AcDbVertex
100
AcDb2dVertex
 10
2418.5
 20
1143.707107
 30
0.0
  0
VERTEX
  5
259
100
AcDbEntity
  8
化粧台
  6
EXLTYPE2
 62
     6
100
AcDbVertex
100
AcDb2dVertex
 10
2422.0
 20
1146.207107
 30
0.0
  0
VERTEX
  5
25A
100
AcDbEntity
  8
化粧台
  6
EXLTYPE2
 62
     6
100
AcDbVertex
100
AcDb2dVertex
 10
2418.5
 20
1148.707107
 30
0.0
  0
VERTEX
  5
25B
100
AcDbEntity
  8
化粧台
  6
EXLTYPE2
 62
     6
100
AcDbVertex
100
AcDb2dVertex
 10
2422.0
 20
1151.207107
 30
0.0
  0
VERTEX
  5
25C
100
AcDbEntity
  8
化粧台
  6
EXLTYPE2
 62
     6
100
AcDbVertex
100
AcDb2dVertex
 10
2418.5
 20
1153.707107
 30
0.0
  0
VERTEX
  5
25D
100
AcDbEntity
  8
化粧台
  6
EXLTYPE2
 62
     6
100
AcDbVertex
100
AcDb2dVertex
 10
2422.0
 20
1156.207107
 30
0.0
  0
VERTEX
  5
25E
100
AcDbEntity
  8
化粧台
  6
EXLTYPE2
 62
     6
100
AcDbVertex
100
AcDb2dVertex
 10
2418.5
 20
1158.707107
 30
0.0
  0
VERTEX
  5
25F
100
AcDbEntity
  8
化粧台
  6
EXLTYPE2
 62
     6
100
AcDbVertex
100
AcDb2dVertex
 10
2422.0
 20
1161.207107
 30
0.0
  0
VERTEX
  5
260
100
AcDbEntity
  8
化粧台
  6
EXLTYPE2
 62
     6
100
AcDbVertex
100
AcDb2dVertex
 10
2418.5
 20
1163.707107
 30
0.0
  0
VERTEX
  5
261
100
AcDbEntity
  8
化粧台
  6
EXLTYPE2
 62
     6
100
AcDbVertex
100
AcDb2dVertex
 10
2422.0
 20
1166.207107
 30
0.0
  0
VERTEX
  5
262
100
AcDbEntity
  8
化粧台
  6
EXLTYPE2
 62
     6
100
AcDbVertex
100
AcDb2dVertex
 10
2418.5
 20
1168.707107
 30
0.0
  0
VERTEX
  5
263
100
AcDbEntity
  8
化粧台
  6
EXLTYPE2
 62
     6
100
AcDbVertex
100
AcDb2dVertex
 10
2422.0
 20
1171.207107
 30
0.0
  0
VERTEX
  5
264
100
AcDbEntity
  8
化粧台
  6
EXLTYPE2
 62
     6
100
AcDbVertex
100
AcDb2dVertex
 10
2418.5
 20
1173.707107
 30
0.0
  0
VERTEX
  5
265
100
AcDbEntity
  8
化粧台
  6
EXLTYPE2
 62
     6
100
AcDbVertex
100
AcDb2dVertex
 10
2422.0
 20
1176.207107
 30
0.0
  0
VERTEX
  5
266
100
AcDbEntity
  8
化粧台
  6
EXLTYPE2
 62
     6
100
AcDbVertex
100
AcDb2dVertex
 10
2418.5
 20
1178.707107
 30
0.0
  0
VERTEX
  5
267
100
AcDbEntity
  8
化粧台
  6
EXLTYPE2
 62
     6
100
AcDbVertex
100
AcDb2dVertex
 10
2422.0
 20
1181.207107
 30
0.0
  0
VERTEX
  5
268
100
AcDbEntity
  8
化粧台
  6
EXLTYPE2
 62
     6
100
AcDbVertex
100
AcDb2dVertex
 10
2418.5
 20
1183.707107
 30
0.0
  0
VERTEX
  5
269
100
AcDbEntity
  8
化粧台
  6
EXLTYPE2
 62
     6
100
AcDbVertex
100
AcDb2dVertex
 10
2422.0
 20
1186.207107
 30
0.0
  0
VERTEX
  5
26A
100
AcDbEntity
  8
化粧台
  6
EXLTYPE2
 62
     6
100
AcDbVertex
100
AcDb2dVertex
 10
2418.5
 20
1188.707107
 30
0.0
  0
VERTEX
  5
26B
100
AcDbEntity
  8
化粧台
  6
EXLTYPE2
 62
     6
100
AcDbVertex
100
AcDb2dVertex
 10
2422.0
 20
1191.207107
 30
0.0
  0
VERTEX
  5
26C
100
AcDbEntity
  8
化粧台
  6
EXLTYPE2
 62
     6
100
AcDbVertex
100
AcDb2dVertex
 10
2418.5
 20
1193.707107
 30
0.0
  0
VERTEX
  5
26D
100
AcDbEntity
  8
化粧台
  6
EXLTYPE2
 62
     6
100
AcDbVertex
100
AcDb2dVertex
 10
2422.0
 20
1196.207107
 30
0.0
  0
VERTEX
  5
26E
100
AcDbEntity
  8
化粧台
  6
EXLTYPE2
 62
     6
100
AcDbVertex
100
AcDb2dVertex
 10
2418.5
 20
1198.707107
 30
0.0
  0
VERTEX
  5
26F
100
AcDbEntity
  8
化粧台
  6
EXLTYPE2
 62
     6
100
AcDbVertex
100
AcDb2dVertex
 10
2422.0
 20
1201.207107
 30
0.0
  0
VERTEX
  5
270
100
AcDbEntity
  8
化粧台
  6
EXLTYPE2
 62
     6
100
AcDbVertex
100
AcDb2dVertex
 10
2418.5
 20
1203.707107
 30
0.0
  0
VERTEX
  5
271
100
AcDbEntity
  8
化粧台
  6
EXLTYPE2
 62
     6
100
AcDbVertex
100
AcDb2dVertex
 10
2422.0
 20
1206.207107
 30
0.0
  0
VERTEX
  5
272
100
AcDbEntity
  8
化粧台
  6
EXLTYPE2
 62
     6
100
AcDbVertex
100
AcDb2dVertex
 10
2418.5
 20
1208.707107
 30
0.0
  0
VERTEX
  5
273
100
AcDbEntity
  8
化粧台
  6
EXLTYPE2
 62
     6
100
AcDbVertex
100
AcDb2dVertex
 10
2422.0
 20
1211.207107
 30
0.0
  0
VERTEX
  5
274
100
AcDbEntity
  8
化粧台
  6
EXLTYPE2
 62
     6
100
AcDbVertex
100
AcDb2dVertex
 10
2418.5
 20
1213.707107
 30
0.0
  0
VERTEX
  5
275
100
AcDbEntity
  8
化粧台
  6
EXLTYPE2
 62
     6
100
AcDbVertex
100
AcDb2dVertex
 10
2422.0
 20
1216.207107
 30
0.0
  0
VERTEX
  5
276
100
AcDbEntity
  8
化粧台
  6
EXLTYPE2
 62
     6
100
AcDbVertex
100
AcDb2dVertex
 10
2418.5
 20
1218.707107
 30
0.0
  0
VERTEX
  5
277
100
AcDbEntity
  8
化粧台
  6
EXLTYPE2
 62
     6
100
AcDbVertex
100
AcDb2dVertex
 10
2422.0
 20
1221.207107
 30
0.0
  0
VERTEX
  5
278
100
AcDbEntity
  8
化粧台
  6
EXLTYPE2
 62
     6
100
AcDbVertex
100
AcDb2dVertex
 10
2418.5
 20
1223.707107
 30
0.0
  0
VERTEX
  5
279
100
AcDbEntity
  8
化粧台
  6
EXLTYPE2
 62
     6
100
AcDbVertex
100
AcDb2dVertex
 10
2422.0
 20
1226.207107
 30
0.0
  0
VERTEX
  5
27A
100
AcDbEntity
  8
化粧台
  6
EXLTYPE2
 62
     6
100
AcDbVertex
100
AcDb2dVertex
 10
2418.5
 20
1228.707107
 30
0.0
  0
VERTEX
  5
27B
100
AcDbEntity
  8
化粧台
  6
EXLTYPE2
 62
     6
100
AcDbVertex
100
AcDb2dVertex
 10
2422.0
 20
1231.207107
 30
0.0
  0
VERTEX
  5
27C
100
AcDbEntity
  8
化粧台
  6
EXLTYPE2
 62
     6
100
AcDbVertex
100
AcDb2dVertex
 10
2418.5
 20
1233.707107
 30
0.0
  0
VERTEX
  5
27D
100
AcDbEntity
  8
化粧台
  6
EXLTYPE2
 62
     6
100
AcDbVertex
100
AcDb2dVertex
 10
2422.0
 20
1236.207107
 30
0.0
  0
VERTEX
  5
27E
100
AcDbEntity
  8
化粧台
  6
EXLTYPE2
 62
     6
100
AcDbVertex
100
AcDb2dVertex
 10
2418.5
 20
1238.707107
 30
0.0
  0
VERTEX
  5
27F
100
AcDbEntity
  8
化粧台
  6
EXLTYPE2
 62
     6
100
AcDbVertex
100
AcDb2dVertex
 10
2422.0
 20
1241.207107
 30
0.0
  0
VERTEX
  5
280
100
AcDbEntity
  8
化粧台
  6
EXLTYPE2
 62
     6
100
AcDbVertex
100
AcDb2dVertex
 10
2418.5
 20
1243.707107
 30
0.0
  0
VERTEX
  5
281
100
AcDbEntity
  8
化粧台
  6
EXLTYPE2
 62
     6
100
AcDbVertex
100
AcDb2dVertex
 10
2422.0
 20
1246.207107
 30
0.0
  0
VERTEX
  5
282
100
AcDbEntity
  8
化粧台
  6
EXLTYPE2
 62
     6
100
AcDbVertex
100
AcDb2dVertex
 10
2418.5
 20
1248.707107
 30
0.0
  0
VERTEX
  5
283
100
AcDbEntity
  8
化粧台
  6
EXLTYPE2
 62
     6
100
AcDbVertex
100
AcDb2dVertex
 10
2422.0
 20
1251.207107
 30
0.0
  0
VERTEX
  5
284
100
AcDbEntity
  8
化粧台
  6
EXLTYPE2
 62
     6
100
AcDbVertex
100
AcDb2dVertex
 10
2418.5
 20
1253.707107
 30
0.0
  0
VERTEX
  5
285
100
AcDbEntity
  8
化粧台
  6
EXLTYPE2
 62
     6
100
AcDbVertex
100
AcDb2dVertex
 10
2422.0
 20
1256.207107
 30
0.0
  0
VERTEX
  5
286
100
AcDbEntity
  8
化粧台
  6
EXLTYPE2
 62
     6
100
AcDbVertex
100
AcDb2dVertex
 10
2418.5
 20
1258.707107
 30
0.0
  0
VERTEX
  5
287
100
AcDbEntity
  8
化粧台
  6
EXLTYPE2
 62
     6
100
AcDbVertex
100
AcDb2dVertex
 10
2422.0
 20
1261.207107
 30
0.0
  0
VERTEX
  5
288
100
AcDbEntity
  8
化粧台
  6
EXLTYPE2
 62
     6
100
AcDbVertex
100
AcDb2dVertex
 10
2418.5
 20
1263.707107
 30
0.0
  0
VERTEX
  5
289
100
AcDbEntity
  8
化粧台
  6
EXLTYPE2
 62
     6
100
AcDbVertex
100
AcDb2dVertex
 10
2422.0
 20
1266.207107
 30
0.0
  0
VERTEX
  5
28A
100
AcDbEntity
  8
化粧台
  6
EXLTYPE2
 62
     6
100
AcDbVertex
100
AcDb2dVertex
 10
2418.5
 20
1268.707107
 30
0.0
  0
VERTEX
  5
28B
100
AcDbEntity
  8
化粧台
  6
EXLTYPE2
 62
     6
100
AcDbVertex
100
AcDb2dVertex
 10
2422.0
 20
1271.207107
 30
0.0
  0
VERTEX
  5
28C
100
AcDbEntity
  8
化粧台
  6
EXLTYPE2
 62
     6
100
AcDbVertex
100
AcDb2dVertex
 10
2418.5
 20
1273.707107
 30
0.0
  0
VERTEX
  5
28D
100
AcDbEntity
  8
化粧台
  6
EXLTYPE2
 62
     6
100
AcDbVertex
100
AcDb2dVertex
 10
2422.0
 20
1276.207107
 30
0.0
  0
VERTEX
  5
28E
100
AcDbEntity
  8
化粧台
  6
EXLTYPE2
 62
     6
100
AcDbVertex
100
AcDb2dVertex
 10
2418.5
 20
1278.707107
 30
0.0
  0
VERTEX
  5
28F
100
AcDbEntity
  8
化粧台
  6
EXLTYPE2
 62
     6
100
AcDbVertex
100
AcDb2dVertex
 10
2422.0
 20
1281.207107
 30
0.0
  0
VERTEX
  5
290
100
AcDbEntity
  8
化粧台
  6
EXLTYPE2
 62
     6
100
AcDbVertex
100
AcDb2dVertex
 10
2418.5
 20
1283.707107
 30
0.0
  0
VERTEX
  5
291
100
AcDbEntity
  8
化粧台
  6
EXLTYPE2
 62
     6
100
AcDbVertex
100
AcDb2dVertex
 10
2422.0
 20
1286.207107
 30
0.0
  0
VERTEX
  5
292
100
AcDbEntity
  8
化粧台
  6
EXLTYPE2
 62
     6
100
AcDbVertex
100
AcDb2dVertex
 10
2418.5
 20
1288.707107
 30
0.0
  0
VERTEX
  5
293
100
AcDbEntity
  8
化粧台
  6
EXLTYPE2
 62
     6
100
AcDbVertex
100
AcDb2dVertex
 10
2422.0
 20
1291.207107
 30
0.0
  0
VERTEX
  5
294
100
AcDbEntity
  8
化粧台
  6
EXLTYPE2
 62
     6
100
AcDbVertex
100
AcDb2dVertex
 10
2418.5
 20
1293.707107
 30
0.0
  0
VERTEX
  5
295
100
AcDbEntity
  8
化粧台
  6
EXLTYPE2
 62
     6
100
AcDbVertex
100
AcDb2dVertex
 10
2422.0
 20
1296.207107
 30
0.0
  0
VERTEX
  5
296
100
AcDbEntity
  8
化粧台
  6
EXLTYPE2
 62
     6
100
AcDbVertex
100
AcDb2dVertex
 10
2418.5
 20
1298.707107
 30
0.0
  0
VERTEX
  5
297
100
AcDbEntity
  8
化粧台
  6
EXLTYPE2
 62
     6
100
AcDbVertex
100
AcDb2dVertex
 10
2422.0
 20
1301.207107
 30
0.0
  0
VERTEX
  5
298
100
AcDbEntity
  8
化粧台
  6
EXLTYPE2
 62
     6
100
AcDbVertex
100
AcDb2dVertex
 10
2418.5
 20
1303.707107
 30
0.0
  0
VERTEX
  5
299
100
AcDbEntity
  8
化粧台
  6
EXLTYPE2
 62
     6
100
AcDbVertex
100
AcDb2dVertex
 10
2422.0
 20
1306.207107
 30
0.0
  0
VERTEX
  5
29A
100
AcDbEntity
  8
化粧台
  6
EXLTYPE2
 62
     6
100
AcDbVertex
100
AcDb2dVertex
 10
2418.5
 20
1308.707107
 30
0.0
  0
VERTEX
  5
29B
100
AcDbEntity
  8
化粧台
  6
EXLTYPE2
 62
     6
100
AcDbVertex
100
AcDb2dVertex
 10
2422.0
 20
1311.207107
 30
0.0
  0
VERTEX
  5
29C
100
AcDbEntity
  8
化粧台
  6
EXLTYPE2
 62
     6
100
AcDbVertex
100
AcDb2dVertex
 10
2418.5
 20
1313.707107
 30
0.0
  0
VERTEX
  5
29D
100
AcDbEntity
  8
化粧台
  6
EXLTYPE2
 62
     6
100
AcDbVertex
100
AcDb2dVertex
 10
2422.0
 20
1316.207107
 30
0.0
  0
VERTEX
  5
29E
100
AcDbEntity
  8
化粧台
  6
EXLTYPE2
 62
     6
100
AcDbVertex
100
AcDb2dVertex
 10
2420.35
 20
1318.707107
 30
0.0
  0
SEQEND
  5
29F
100
AcDbEntity
  8
化粧台
  6
EXLTYPE2
 62
     6
  0
POLYLINE
  5
2A0
100
AcDbEntity
  8
化粧台
  6
EXLTYPE2
 62
     6
100
AcDb2dPolyline
 66
     1
 10
0.0
 20
0.0
 30
0.0
 70
   128
  0
VERTEX
  5
2A1
100
AcDbEntity
  8
化粧台
  6
EXLTYPE2
 62
     6
100
AcDbVertex
100
AcDb2dVertex
 10
2389.389949
 20
924.5
 30
0.0
  0
VERTEX
  5
2A2
100
AcDbEntity
  8
化粧台
  6
EXLTYPE2
 62
     6
100
AcDbVertex
100
AcDb2dVertex
 10
2387.0
 20
926.207107
 30
0.0
  0
VERTEX
  5
2A3
100
AcDbEntity
  8
化粧台
  6
EXLTYPE2
 62
     6
100
AcDbVertex
100
AcDb2dVertex
 10
2390.5
 20
928.707107
 30
0.0
  0
VERTEX
  5
2A4
100
AcDbEntity
  8
化粧台
  6
EXLTYPE2
 62
     6
100
AcDbVertex
100
AcDb2dVertex
 10
2387.0
 20
931.207107
 30
0.0
  0
VERTEX
  5
2A5
100
AcDbEntity
  8
化粧台
  6
EXLTYPE2
 62
     6
100
AcDbVertex
100
AcDb2dVertex
 10
2390.5
 20
933.707107
 30
0.0
  0
VERTEX
  5
2A6
100
AcDbEntity
  8
化粧台
  6
EXLTYPE2
 62
     6
100
AcDbVertex
100
AcDb2dVertex
 10
2387.0
 20
936.207107
 30
0.0
  0
VERTEX
  5
2A7
100
AcDbEntity
  8
化粧台
  6
EXLTYPE2
 62
     6
100
AcDbVertex
100
AcDb2dVertex
 10
2390.5
 20
938.707107
 30
0.0
  0
VERTEX
  5
2A8
100
AcDbEntity
  8
化粧台
  6
EXLTYPE2
 62
     6
100
AcDbVertex
100
AcDb2dVertex
 10
2387.0
 20
941.207107
 30
0.0
  0
VERTEX
  5
2A9
100
AcDbEntity
  8
化粧台
  6
EXLTYPE2
 62
     6
100
AcDbVertex
100
AcDb2dVertex
 10
2390.5
 20
943.707107
 30
0.0
  0
VERTEX
  5
2AA
100
AcDbEntity
  8
化粧台
  6
EXLTYPE2
 62
     6
100
AcDbVertex
100
AcDb2dVertex
 10
2387.0
 20
946.207107
 30
0.0
  0
VERTEX
  5
2AB
100
AcDbEntity
  8
化粧台
  6
EXLTYPE2
 62
     6
100
AcDbVertex
100
AcDb2dVertex
 10
2390.5
 20
948.707107
 30
0.0
  0
VERTEX
  5
2AC
100
AcDbEntity
  8
化粧台
  6
EXLTYPE2
 62
     6
100
AcDbVertex
100
AcDb2dVertex
 10
2387.0
 20
951.207107
 30
0.0
  0
VERTEX
  5
2AD
100
AcDbEntity
  8
化粧台
  6
EXLTYPE2
 62
     6
100
AcDbVertex
100
AcDb2dVertex
 10
2390.5
 20
953.707107
 30
0.0
  0
VERTEX
  5
2AE
100
AcDbEntity
  8
化粧台
  6
EXLTYPE2
 62
     6
100
AcDbVertex
100
AcDb2dVertex
 10
2387.0
 20
956.207107
 30
0.0
  0
VERTEX
  5
2AF
100
AcDbEntity
  8
化粧台
  6
EXLTYPE2
 62
     6
100
AcDbVertex
100
AcDb2dVertex
 10
2390.5
 20
958.707107
 30
0.0
  0
VERTEX
  5
2B0
100
AcDbEntity
  8
化粧台
  6
EXLTYPE2
 62
     6
100
AcDbVertex
100
AcDb2dVertex
 10
2387.0
 20
961.207107
 30
0.0
  0
VERTEX
  5
2B1
100
AcDbEntity
  8
化粧台
  6
EXLTYPE2
 62
     6
100
AcDbVertex
100
AcDb2dVertex
 10
2390.5
 20
963.707107
 30
0.0
  0
VERTEX
  5
2B2
100
AcDbEntity
  8
化粧台
  6
EXLTYPE2
 62
     6
100
AcDbVertex
100
AcDb2dVertex
 10
2387.0
 20
966.207107
 30
0.0
  0
VERTEX
  5
2B3
100
AcDbEntity
  8
化粧台
  6
EXLTYPE2
 62
     6
100
AcDbVertex
100
AcDb2dVertex
 10
2390.5
 20
968.707107
 30
0.0
  0
VERTEX
  5
2B4
100
AcDbEntity
  8
化粧台
  6
EXLTYPE2
 62
     6
100
AcDbVertex
100
AcDb2dVertex
 10
2387.0
 20
971.207107
 30
0.0
  0
VERTEX
  5
2B5
100
AcDbEntity
  8
化粧台
  6
EXLTYPE2
 62
     6
100
AcDbVertex
100
AcDb2dVertex
 10
2390.5
 20
973.707107
 30
0.0
  0
VERTEX
  5
2B6
100
AcDbEntity
  8
化粧台
  6
EXLTYPE2
 62
     6
100
AcDbVertex
100
AcDb2dVertex
 10
2387.0
 20
976.207107
 30
0.0
  0
VERTEX
  5
2B7
100
AcDbEntity
  8
化粧台
  6
EXLTYPE2
 62
     6
100
AcDbVertex
100
AcDb2dVertex
 10
2390.5
 20
978.707107
 30
0.0
  0
VERTEX
  5
2B8
100
AcDbEntity
  8
化粧台
  6
EXLTYPE2
 62
     6
100
AcDbVertex
100
AcDb2dVertex
 10
2387.0
 20
981.207107
 30
0.0
  0
VERTEX
  5
2B9
100
AcDbEntity
  8
化粧台
  6
EXLTYPE2
 62
     6
100
AcDbVertex
100
AcDb2dVertex
 10
2390.5
 20
983.707107
 30
0.0
  0
VERTEX
  5
2BA
100
AcDbEntity
  8
化粧台
  6
EXLTYPE2
 62
     6
100
AcDbVertex
100
AcDb2dVertex
 10
2387.0
 20
986.207107
 30
0.0
  0
VERTEX
  5
2BB
100
AcDbEntity
  8
化粧台
  6
EXLTYPE2
 62
     6
100
AcDbVertex
100
AcDb2dVertex
 10
2390.5
 20
988.707107
 30
0.0
  0
VERTEX
  5
2BC
100
AcDbEntity
  8
化粧台
  6
EXLTYPE2
 62
     6
100
AcDbVertex
100
AcDb2dVertex
 10
2387.0
 20
991.207107
 30
0.0
  0
VERTEX
  5
2BD
100
AcDbEntity
  8
化粧台
  6
EXLTYPE2
 62
     6
100
AcDbVertex
100
AcDb2dVertex
 10
2390.5
 20
993.707107
 30
0.0
  0
VERTEX
  5
2BE
100
AcDbEntity
  8
化粧台
  6
EXLTYPE2
 62
     6
100
AcDbVertex
100
AcDb2dVertex
 10
2387.0
 20
996.207107
 30
0.0
  0
VERTEX
  5
2BF
100
AcDbEntity
  8
化粧台
  6
EXLTYPE2
 62
     6
100
AcDbVertex
100
AcDb2dVertex
 10
2390.5
 20
998.707107
 30
0.0
  0
VERTEX
  5
2C0
100
AcDbEntity
  8
化粧台
  6
EXLTYPE2
 62
     6
100
AcDbVertex
100
AcDb2dVertex
 10
2387.0
 20
1001.207107
 30
0.0
  0
VERTEX
  5
2C1
100
AcDbEntity
  8
化粧台
  6
EXLTYPE2
 62
     6
100
AcDbVertex
100
AcDb2dVertex
 10
2390.5
 20
1003.707107
 30
0.0
  0
VERTEX
  5
2C2
100
AcDbEntity
  8
化粧台
  6
EXLTYPE2
 62
     6
100
AcDbVertex
100
AcDb2dVertex
 10
2387.0
 20
1006.207107
 30
0.0
  0
VERTEX
  5
2C3
100
AcDbEntity
  8
化粧台
  6
EXLTYPE2
 62
     6
100
AcDbVertex
100
AcDb2dVertex
 10
2390.5
 20
1008.707107
 30
0.0
  0
VERTEX
  5
2C4
100
AcDbEntity
  8
化粧台
  6
EXLTYPE2
 62
     6
100
AcDbVertex
100
AcDb2dVertex
 10
2387.0
 20
1011.207107
 30
0.0
  0
VERTEX
  5
2C5
100
AcDbEntity
  8
化粧台
  6
EXLTYPE2
 62
     6
100
AcDbVertex
100
AcDb2dVertex
 10
2390.5
 20
1013.707107
 30
0.0
  0
VERTEX
  5
2C6
100
AcDbEntity
  8
化粧台
  6
EXLTYPE2
 62
     6
100
AcDbVertex
100
AcDb2dVertex
 10
2387.0
 20
1016.207107
 30
0.0
  0
VERTEX
  5
2C7
100
AcDbEntity
  8
化粧台
  6
EXLTYPE2
 62
     6
100
AcDbVertex
100
AcDb2dVertex
 10
2390.5
 20
1018.707107
 30
0.0
  0
VERTEX
  5
2C8
100
AcDbEntity
  8
化粧台
  6
EXLTYPE2
 62
     6
100
AcDbVertex
100
AcDb2dVertex
 10
2387.0
 20
1021.207107
 30
0.0
  0
VERTEX
  5
2C9
100
AcDbEntity
  8
化粧台
  6
EXLTYPE2
 62
     6
100
AcDbVertex
100
AcDb2dVertex
 10
2390.5
 20
1023.707107
 30
0.0
  0
VERTEX
  5
2CA
100
AcDbEntity
  8
化粧台
  6
EXLTYPE2
 62
     6
100
AcDbVertex
100
AcDb2dVertex
 10
2387.0
 20
1026.207107
 30
0.0
  0
VERTEX
  5
2CB
100
AcDbEntity
  8
化粧台
  6
EXLTYPE2
 62
     6
100
AcDbVertex
100
AcDb2dVertex
 10
2390.5
 20
1028.707107
 30
0.0
  0
VERTEX
  5
2CC
100
AcDbEntity
  8
化粧台
  6
EXLTYPE2
 62
     6
100
AcDbVertex
100
AcDb2dVertex
 10
2387.0
 20
1031.207107
 30
0.0
  0
VERTEX
  5
2CD
100
AcDbEntity
  8
化粧台
  6
EXLTYPE2
 62
     6
100
AcDbVertex
100
AcDb2dVertex
 10
2390.5
 20
1033.707107
 30
0.0
  0
VERTEX
  5
2CE
100
AcDbEntity
  8
化粧台
  6
EXLTYPE2
 62
     6
100
AcDbVertex
100
AcDb2dVertex
 10
2387.0
 20
1036.207107
 30
0.0
  0
VERTEX
  5
2CF
100
AcDbEntity
  8
化粧台
  6
EXLTYPE2
 62
     6
100
AcDbVertex
100
AcDb2dVertex
 10
2390.5
 20
1038.707107
 30
0.0
  0
VERTEX
  5
2D0
100
AcDbEntity
  8
化粧台
  6
EXLTYPE2
 62
     6
100
AcDbVertex
100
AcDb2dVertex
 10
2387.0
 20
1041.207107
 30
0.0
  0
VERTEX
  5
2D1
100
AcDbEntity
  8
化粧台
  6
EXLTYPE2
 62
     6
100
AcDbVertex
100
AcDb2dVertex
 10
2390.5
 20
1043.707107
 30
0.0
  0
VERTEX
  5
2D2
100
AcDbEntity
  8
化粧台
  6
EXLTYPE2
 62
     6
100
AcDbVertex
100
AcDb2dVertex
 10
2387.0
 20
1046.207107
 30
0.0
  0
VERTEX
  5
2D3
100
AcDbEntity
  8
化粧台
  6
EXLTYPE2
 62
     6
100
AcDbVertex
100
AcDb2dVertex
 10
2390.5
 20
1048.707107
 30
0.0
  0
VERTEX
  5
2D4
100
AcDbEntity
  8
化粧台
  6
EXLTYPE2
 62
     6
100
AcDbVertex
100
AcDb2dVertex
 10
2387.0
 20
1051.207107
 30
0.0
  0
VERTEX
  5
2D5
100
AcDbEntity
  8
化粧台
  6
EXLTYPE2
 62
     6
100
AcDbVertex
100
AcDb2dVertex
 10
2390.5
 20
1053.707107
 30
0.0
  0
VERTEX
  5
2D6
100
AcDbEntity
  8
化粧台
  6
EXLTYPE2
 62
     6
100
AcDbVertex
100
AcDb2dVertex
 10
2387.0
 20
1056.207107
 30
0.0
  0
VERTEX
  5
2D7
100
AcDbEntity
  8
化粧台
  6
EXLTYPE2
 62
     6
100
AcDbVertex
100
AcDb2dVertex
 10
2390.5
 20
1058.707107
 30
0.0
  0
VERTEX
  5
2D8
100
AcDbEntity
  8
化粧台
  6
EXLTYPE2
 62
     6
100
AcDbVertex
100
AcDb2dVertex
 10
2387.0
 20
1061.207107
 30
0.0
  0
VERTEX
  5
2D9
100
AcDbEntity
  8
化粧台
  6
EXLTYPE2
 62
     6
100
AcDbVertex
100
AcDb2dVertex
 10
2390.5
 20
1063.707107
 30
0.0
  0
VERTEX
  5
2DA
100
AcDbEntity
  8
化粧台
  6
EXLTYPE2
 62
     6
100
AcDbVertex
100
AcDb2dVertex
 10
2387.0
 20
1066.207107
 30
0.0
  0
VERTEX
  5
2DB
100
AcDbEntity
  8
化粧台
  6
EXLTYPE2
 62
     6
100
AcDbVertex
100
AcDb2dVertex
 10
2390.5
 20
1068.707107
 30
0.0
  0
VERTEX
  5
2DC
100
AcDbEntity
  8
化粧台
  6
EXLTYPE2
 62
     6
100
AcDbVertex
100
AcDb2dVertex
 10
2387.0
 20
1071.207107
 30
0.0
  0
VERTEX
  5
2DD
100
AcDbEntity
  8
化粧台
  6
EXLTYPE2
 62
     6
100
AcDbVertex
100
AcDb2dVertex
 10
2390.5
 20
1073.707107
 30
0.0
  0
VERTEX
  5
2DE
100
AcDbEntity
  8
化粧台
  6
EXLTYPE2
 62
     6
100
AcDbVertex
100
AcDb2dVertex
 10
2387.0
 20
1076.207107
 30
0.0
  0
VERTEX
  5
2DF
100
AcDbEntity
  8
化粧台
  6
EXLTYPE2
 62
     6
100
AcDbVertex
100
AcDb2dVertex
 10
2390.5
 20
1078.707107
 30
0.0
  0
VERTEX
  5
2E0
100
AcDbEntity
  8
化粧台
  6
EXLTYPE2
 62
     6
100
AcDbVertex
100
AcDb2dVertex
 10
2387.0
 20
1081.207107
 30
0.0
  0
VERTEX
  5
2E1
100
AcDbEntity
  8
化粧台
  6
EXLTYPE2
 62
     6
100
AcDbVertex
100
AcDb2dVertex
 10
2390.5
 20
1083.707107
 30
0.0
  0
VERTEX
  5
2E2
100
AcDbEntity
  8
化粧台
  6
EXLTYPE2
 62
     6
100
AcDbVertex
100
AcDb2dVertex
 10
2387.0
 20
1086.207107
 30
0.0
  0
VERTEX
  5
2E3
100
AcDbEntity
  8
化粧台
  6
EXLTYPE2
 62
     6
100
AcDbVertex
100
AcDb2dVertex
 10
2390.5
 20
1088.707107
 30
0.0
  0
VERTEX
  5
2E4
100
AcDbEntity
  8
化粧台
  6
EXLTYPE2
 62
     6
100
AcDbVertex
100
AcDb2dVertex
 10
2387.0
 20
1091.207107
 30
0.0
  0
VERTEX
  5
2E5
100
AcDbEntity
  8
化粧台
  6
EXLTYPE2
 62
     6
100
AcDbVertex
100
AcDb2dVertex
 10
2390.5
 20
1093.707107
 30
0.0
  0
VERTEX
  5
2E6
100
AcDbEntity
  8
化粧台
  6
EXLTYPE2
 62
     6
100
AcDbVertex
100
AcDb2dVertex
 10
2387.0
 20
1096.207107
 30
0.0
  0
VERTEX
  5
2E7
100
AcDbEntity
  8
化粧台
  6
EXLTYPE2
 62
     6
100
AcDbVertex
100
AcDb2dVertex
 10
2390.5
 20
1098.707107
 30
0.0
  0
VERTEX
  5
2E8
100
AcDbEntity
  8
化粧台
  6
EXLTYPE2
 62
     6
100
AcDbVertex
100
AcDb2dVertex
 10
2387.0
 20
1101.207107
 30
0.0
  0
VERTEX
  5
2E9
100
AcDbEntity
  8
化粧台
  6
EXLTYPE2
 62
     6
100
AcDbVertex
100
AcDb2dVertex
 10
2390.5
 20
1103.707107
 30
0.0
  0
VERTEX
  5
2EA
100
AcDbEntity
  8
化粧台
  6
EXLTYPE2
 62
     6
100
AcDbVertex
100
AcDb2dVertex
 10
2387.0
 20
1106.207107
 30
0.0
  0
VERTEX
  5
2EB
100
AcDbEntity
  8
化粧台
  6
EXLTYPE2
 62
     6
100
AcDbVertex
100
AcDb2dVertex
 10
2390.5
 20
1108.707107
 30
0.0
  0
VERTEX
  5
2EC
100
AcDbEntity
  8
化粧台
  6
EXLTYPE2
 62
     6
100
AcDbVertex
100
AcDb2dVertex
 10
2387.0
 20
1111.207107
 30
0.0
  0
VERTEX
  5
2ED
100
AcDbEntity
  8
化粧台
  6
EXLTYPE2
 62
     6
100
AcDbVertex
100
AcDb2dVertex
 10
2390.5
 20
1113.707107
 30
0.0
  0
VERTEX
  5
2EE
100
AcDbEntity
  8
化粧台
  6
EXLTYPE2
 62
     6
100
AcDbVertex
100
AcDb2dVertex
 10
2387.0
 20
1116.207107
 30
0.0
  0
VERTEX
  5
2EF
100
AcDbEntity
  8
化粧台
  6
EXLTYPE2
 62
     6
100
AcDbVertex
100
AcDb2dVertex
 10
2390.5
 20
1118.707107
 30
0.0
  0
VERTEX
  5
2F0
100
AcDbEntity
  8
化粧台
  6
EXLTYPE2
 62
     6
100
AcDbVertex
100
AcDb2dVertex
 10
2387.0
 20
1121.207107
 30
0.0
  0
VERTEX
  5
2F1
100
AcDbEntity
  8
化粧台
  6
EXLTYPE2
 62
     6
100
AcDbVertex
100
AcDb2dVertex
 10
2390.5
 20
1123.707107
 30
0.0
  0
VERTEX
  5
2F2
100
AcDbEntity
  8
化粧台
  6
EXLTYPE2
 62
     6
100
AcDbVertex
100
AcDb2dVertex
 10
2387.0
 20
1126.207107
 30
0.0
  0
VERTEX
  5
2F3
100
AcDbEntity
  8
化粧台
  6
EXLTYPE2
 62
     6
100
AcDbVertex
100
AcDb2dVertex
 10
2390.5
 20
1128.707107
 30
0.0
  0
VERTEX
  5
2F4
100
AcDbEntity
  8
化粧台
  6
EXLTYPE2
 62
     6
100
AcDbVertex
100
AcDb2dVertex
 10
2387.0
 20
1131.207107
 30
0.0
  0
VERTEX
  5
2F5
100
AcDbEntity
  8
化粧台
  6
EXLTYPE2
 62
     6
100
AcDbVertex
100
AcDb2dVertex
 10
2390.5
 20
1133.707107
 30
0.0
  0
VERTEX
  5
2F6
100
AcDbEntity
  8
化粧台
  6
EXLTYPE2
 62
     6
100
AcDbVertex
100
AcDb2dVertex
 10
2387.0
 20
1136.207107
 30
0.0
  0
VERTEX
  5
2F7
100
AcDbEntity
  8
化粧台
  6
EXLTYPE2
 62
     6
100
AcDbVertex
100
AcDb2dVertex
 10
2390.5
 20
1138.707107
 30
0.0
  0
VERTEX
  5
2F8
100
AcDbEntity
  8
化粧台
  6
EXLTYPE2
 62
     6
100
AcDbVertex
100
AcDb2dVertex
 10
2387.0
 20
1141.207107
 30
0.0
  0
VERTEX
  5
2F9
100
AcDbEntity
  8
化粧台
  6
EXLTYPE2
 62
     6
100
AcDbVertex
100
AcDb2dVertex
 10
2390.5
 20
1143.707107
 30
0.0
  0
VERTEX
  5
2FA
100
AcDbEntity
  8
化粧台
  6
EXLTYPE2
 62
     6
100
AcDbVertex
100
AcDb2dVertex
 10
2387.0
 20
1146.207107
 30
0.0
  0
VERTEX
  5
2FB
100
AcDbEntity
  8
化粧台
  6
EXLTYPE2
 62
     6
100
AcDbVertex
100
AcDb2dVertex
 10
2390.5
 20
1148.707107
 30
0.0
  0
VERTEX
  5
2FC
100
AcDbEntity
  8
化粧台
  6
EXLTYPE2
 62
     6
100
AcDbVertex
100
AcDb2dVertex
 10
2387.0
 20
1151.207107
 30
0.0
  0
VERTEX
  5
2FD
100
AcDbEntity
  8
化粧台
  6
EXLTYPE2
 62
     6
100
AcDbVertex
100
AcDb2dVertex
 10
2390.5
 20
1153.707107
 30
0.0
  0
VERTEX
  5
2FE
100
AcDbEntity
  8
化粧台
  6
EXLTYPE2
 62
     6
100
AcDbVertex
100
AcDb2dVertex
 10
2387.0
 20
1156.207107
 30
0.0
  0
VERTEX
  5
2FF
100
AcDbEntity
  8
化粧台
  6
EXLTYPE2
 62
     6
100
AcDbVertex
100
AcDb2dVertex
 10
2390.5
 20
1158.707107
 30
0.0
  0
VERTEX
  5
300
100
AcDbEntity
  8
化粧台
  6
EXLTYPE2
 62
     6
100
AcDbVertex
100
AcDb2dVertex
 10
2387.0
 20
1161.207107
 30
0.0
  0
VERTEX
  5
301
100
AcDbEntity
  8
化粧台
  6
EXLTYPE2
 62
     6
100
AcDbVertex
100
AcDb2dVertex
 10
2390.5
 20
1163.707107
 30
0.0
  0
VERTEX
  5
302
100
AcDbEntity
  8
化粧台
  6
EXLTYPE2
 62
     6
100
AcDbVertex
100
AcDb2dVertex
 10
2387.0
 20
1166.207107
 30
0.0
  0
VERTEX
  5
303
100
AcDbEntity
  8
化粧台
  6
EXLTYPE2
 62
     6
100
AcDbVertex
100
AcDb2dVertex
 10
2390.5
 20
1168.707107
 30
0.0
  0
VERTEX
  5
304
100
AcDbEntity
  8
化粧台
  6
EXLTYPE2
 62
     6
100
AcDbVertex
100
AcDb2dVertex
 10
2387.0
 20
1171.207107
 30
0.0
  0
VERTEX
  5
305
100
AcDbEntity
  8
化粧台
  6
EXLTYPE2
 62
     6
100
AcDbVertex
100
AcDb2dVertex
 10
2390.5
 20
1173.707107
 30
0.0
  0
VERTEX
  5
306
100
AcDbEntity
  8
化粧台
  6
EXLTYPE2
 62
     6
100
AcDbVertex
100
AcDb2dVertex
 10
2387.0
 20
1176.207107
 30
0.0
  0
VERTEX
  5
307
100
AcDbEntity
  8
化粧台
  6
EXLTYPE2
 62
     6
100
AcDbVertex
100
AcDb2dVertex
 10
2390.5
 20
1178.707107
 30
0.0
  0
VERTEX
  5
308
100
AcDbEntity
  8
化粧台
  6
EXLTYPE2
 62
     6
100
AcDbVertex
100
AcDb2dVertex
 10
2387.0
 20
1181.207107
 30
0.0
  0
VERTEX
  5
309
100
AcDbEntity
  8
化粧台
  6
EXLTYPE2
 62
     6
100
AcDbVertex
100
AcDb2dVertex
 10
2390.5
 20
1183.707107
 30
0.0
  0
VERTEX
  5
30A
100
AcDbEntity
  8
化粧台
  6
EXLTYPE2
 62
     6
100
AcDbVertex
100
AcDb2dVertex
 10
2387.0
 20
1186.207107
 30
0.0
  0
VERTEX
  5
30B
100
AcDbEntity
  8
化粧台
  6
EXLTYPE2
 62
     6
100
AcDbVertex
100
AcDb2dVertex
 10
2390.5
 20
1188.707107
 30
0.0
  0
VERTEX
  5
30C
100
AcDbEntity
  8
化粧台
  6
EXLTYPE2
 62
     6
100
AcDbVertex
100
AcDb2dVertex
 10
2387.0
 20
1191.207107
 30
0.0
  0
VERTEX
  5
30D
100
AcDbEntity
  8
化粧台
  6
EXLTYPE2
 62
     6
100
AcDbVertex
100
AcDb2dVertex
 10
2390.5
 20
1193.707107
 30
0.0
  0
VERTEX
  5
30E
100
AcDbEntity
  8
化粧台
  6
EXLTYPE2
 62
     6
100
AcDbVertex
100
AcDb2dVertex
 10
2387.0
 20
1196.207107
 30
0.0
  0
VERTEX
  5
30F
100
AcDbEntity
  8
化粧台
  6
EXLTYPE2
 62
     6
100
AcDbVertex
100
AcDb2dVertex
 10
2390.5
 20
1198.707107
 30
0.0
  0
VERTEX
  5
310
100
AcDbEntity
  8
化粧台
  6
EXLTYPE2
 62
     6
100
AcDbVertex
100
AcDb2dVertex
 10
2387.0
 20
1201.207107
 30
0.0
  0
VERTEX
  5
311
100
AcDbEntity
  8
化粧台
  6
EXLTYPE2
 62
     6
100
AcDbVertex
100
AcDb2dVertex
 10
2390.5
 20
1203.707107
 30
0.0
  0
VERTEX
  5
312
100
AcDbEntity
  8
化粧台
  6
EXLTYPE2
 62
     6
100
AcDbVertex
100
AcDb2dVertex
 10
2387.0
 20
1206.207107
 30
0.0
  0
VERTEX
  5
313
100
AcDbEntity
  8
化粧台
  6
EXLTYPE2
 62
     6
100
AcDbVertex
100
AcDb2dVertex
 10
2390.5
 20
1208.707107
 30
0.0
  0
VERTEX
  5
314
100
AcDbEntity
  8
化粧台
  6
EXLTYPE2
 62
     6
100
AcDbVertex
100
AcDb2dVertex
 10
2387.0
 20
1211.207107
 30
0.0
  0
VERTEX
  5
315
100
AcDbEntity
  8
化粧台
  6
EXLTYPE2
 62
     6
100
AcDbVertex
100
AcDb2dVertex
 10
2390.5
 20
1213.707107
 30
0.0
  0
VERTEX
  5
316
100
AcDbEntity
  8
化粧台
  6
EXLTYPE2
 62
     6
100
AcDbVertex
100
AcDb2dVertex
 10
2387.0
 20
1216.207107
 30
0.0
  0
VERTEX
  5
317
100
AcDbEntity
  8
化粧台
  6
EXLTYPE2
 62
     6
100
AcDbVertex
100
AcDb2dVertex
 10
2390.5
 20
1218.707107
 30
0.0
  0
VERTEX
  5
318
100
AcDbEntity
  8
化粧台
  6
EXLTYPE2
 62
     6
100
AcDbVertex
100
AcDb2dVertex
 10
2387.0
 20
1221.207107
 30
0.0
  0
VERTEX
  5
319
100
AcDbEntity
  8
化粧台
  6
EXLTYPE2
 62
     6
100
AcDbVertex
100
AcDb2dVertex
 10
2390.5
 20
1223.707107
 30
0.0
  0
VERTEX
  5
31A
100
AcDbEntity
  8
化粧台
  6
EXLTYPE2
 62
     6
100
AcDbVertex
100
AcDb2dVertex
 10
2387.0
 20
1226.207107
 30
0.0
  0
VERTEX
  5
31B
100
AcDbEntity
  8
化粧台
  6
EXLTYPE2
 62
     6
100
AcDbVertex
100
AcDb2dVertex
 10
2390.5
 20
1228.707107
 30
0.0
  0
VERTEX
  5
31C
100
AcDbEntity
  8
化粧台
  6
EXLTYPE2
 62
     6
100
AcDbVertex
100
AcDb2dVertex
 10
2387.0
 20
1231.207107
 30
0.0
  0
VERTEX
  5
31D
100
AcDbEntity
  8
化粧台
  6
EXLTYPE2
 62
     6
100
AcDbVertex
100
AcDb2dVertex
 10
2390.5
 20
1233.707107
 30
0.0
  0
VERTEX
  5
31E
100
AcDbEntity
  8
化粧台
  6
EXLTYPE2
 62
     6
100
AcDbVertex
100
AcDb2dVertex
 10
2387.0
 20
1236.207107
 30
0.0
  0
VERTEX
  5
31F
100
AcDbEntity
  8
化粧台
  6
EXLTYPE2
 62
     6
100
AcDbVertex
100
AcDb2dVertex
 10
2390.5
 20
1238.707107
 30
0.0
  0
VERTEX
  5
320
100
AcDbEntity
  8
化粧台
  6
EXLTYPE2
 62
     6
100
AcDbVertex
100
AcDb2dVertex
 10
2387.0
 20
1241.207107
 30
0.0
  0
VERTEX
  5
321
100
AcDbEntity
  8
化粧台
  6
EXLTYPE2
 62
     6
100
AcDbVertex
100
AcDb2dVertex
 10
2390.5
 20
1243.707107
 30
0.0
  0
VERTEX
  5
322
100
AcDbEntity
  8
化粧台
  6
EXLTYPE2
 62
     6
100
AcDbVertex
100
AcDb2dVertex
 10
2387.0
 20
1246.207107
 30
0.0
  0
VERTEX
  5
323
100
AcDbEntity
  8
化粧台
  6
EXLTYPE2
 62
     6
100
AcDbVertex
100
AcDb2dVertex
 10
2390.5
 20
1248.707107
 30
0.0
  0
VERTEX
  5
324
100
AcDbEntity
  8
化粧台
  6
EXLTYPE2
 62
     6
100
AcDbVertex
100
AcDb2dVertex
 10
2387.0
 20
1251.207107
 30
0.0
  0
VERTEX
  5
325
100
AcDbEntity
  8
化粧台
  6
EXLTYPE2
 62
     6
100
AcDbVertex
100
AcDb2dVertex
 10
2390.5
 20
1253.707107
 30
0.0
  0
VERTEX
  5
326
100
AcDbEntity
  8
化粧台
  6
EXLTYPE2
 62
     6
100
AcDbVertex
100
AcDb2dVertex
 10
2387.0
 20
1256.207107
 30
0.0
  0
VERTEX
  5
327
100
AcDbEntity
  8
化粧台
  6
EXLTYPE2
 62
     6
100
AcDbVertex
100
AcDb2dVertex
 10
2390.5
 20
1258.707107
 30
0.0
  0
VERTEX
  5
328
100
AcDbEntity
  8
化粧台
  6
EXLTYPE2
 62
     6
100
AcDbVertex
100
AcDb2dVertex
 10
2387.0
 20
1261.207107
 30
0.0
  0
VERTEX
  5
329
100
AcDbEntity
  8
化粧台
  6
EXLTYPE2
 62
     6
100
AcDbVertex
100
AcDb2dVertex
 10
2390.5
 20
1263.707107
 30
0.0
  0
VERTEX
  5
32A
100
AcDbEntity
  8
化粧台
  6
EXLTYPE2
 62
     6
100
AcDbVertex
100
AcDb2dVertex
 10
2387.0
 20
1266.207107
 30
0.0
  0
VERTEX
  5
32B
100
AcDbEntity
  8
化粧台
  6
EXLTYPE2
 62
     6
100
AcDbVertex
100
AcDb2dVertex
 10
2390.5
 20
1268.707107
 30
0.0
  0
VERTEX
  5
32C
100
AcDbEntity
  8
化粧台
  6
EXLTYPE2
 62
     6
100
AcDbVertex
100
AcDb2dVertex
 10
2387.0
 20
1271.207107
 30
0.0
  0
VERTEX
  5
32D
100
AcDbEntity
  8
化粧台
  6
EXLTYPE2
 62
     6
100
AcDbVertex
100
AcDb2dVertex
 10
2390.5
 20
1273.707107
 30
0.0
  0
VERTEX
  5
32E
100
AcDbEntity
  8
化粧台
  6
EXLTYPE2
 62
     6
100
AcDbVertex
100
AcDb2dVertex
 10
2387.0
 20
1276.207107
 30
0.0
  0
VERTEX
  5
32F
100
AcDbEntity
  8
化粧台
  6
EXLTYPE2
 62
     6
100
AcDbVertex
100
AcDb2dVertex
 10
2390.5
 20
1278.707107
 30
0.0
  0
VERTEX
  5
330
100
AcDbEntity
  8
化粧台
  6
EXLTYPE2
 62
     6
100
AcDbVertex
100
AcDb2dVertex
 10
2387.0
 20
1281.207107
 30
0.0
  0
VERTEX
  5
331
100
AcDbEntity
  8
化粧台
  6
EXLTYPE2
 62
     6
100
AcDbVertex
100
AcDb2dVertex
 10
2390.5
 20
1283.707107
 30
0.0
  0
VERTEX
  5
332
100
AcDbEntity
  8
化粧台
  6
EXLTYPE2
 62
     6
100
AcDbVertex
100
AcDb2dVertex
 10
2387.0
 20
1286.207107
 30
0.0
  0
VERTEX
  5
333
100
AcDbEntity
  8
化粧台
  6
EXLTYPE2
 62
     6
100
AcDbVertex
100
AcDb2dVertex
 10
2390.5
 20
1288.707107
 30
0.0
  0
VERTEX
  5
334
100
AcDbEntity
  8
化粧台
  6
EXLTYPE2
 62
     6
100
AcDbVertex
100
AcDb2dVertex
 10
2387.0
 20
1291.207107
 30
0.0
  0
VERTEX
  5
335
100
AcDbEntity
  8
化粧台
  6
EXLTYPE2
 62
     6
100
AcDbVertex
100
AcDb2dVertex
 10
2390.5
 20
1293.707107
 30
0.0
  0
VERTEX
  5
336
100
AcDbEntity
  8
化粧台
  6
EXLTYPE2
 62
     6
100
AcDbVertex
100
AcDb2dVertex
 10
2387.0
 20
1296.207107
 30
0.0
  0
VERTEX
  5
337
100
AcDbEntity
  8
化粧台
  6
EXLTYPE2
 62
     6
100
AcDbVertex
100
AcDb2dVertex
 10
2390.5
 20
1298.707107
 30
0.0
  0
VERTEX
  5
338
100
AcDbEntity
  8
化粧台
  6
EXLTYPE2
 62
     6
100
AcDbVertex
100
AcDb2dVertex
 10
2387.0
 20
1301.207107
 30
0.0
  0
VERTEX
  5
339
100
AcDbEntity
  8
化粧台
  6
EXLTYPE2
 62
     6
100
AcDbVertex
100
AcDb2dVertex
 10
2390.5
 20
1303.707107
 30
0.0
  0
VERTEX
  5
33A
100
AcDbEntity
  8
化粧台
  6
EXLTYPE2
 62
     6
100
AcDbVertex
100
AcDb2dVertex
 10
2387.0
 20
1306.207107
 30
0.0
  0
VERTEX
  5
33B
100
AcDbEntity
  8
化粧台
  6
EXLTYPE2
 62
     6
100
AcDbVertex
100
AcDb2dVertex
 10
2390.5
 20
1308.707107
 30
0.0
  0
VERTEX
  5
33C
100
AcDbEntity
  8
化粧台
  6
EXLTYPE2
 62
     6
100
AcDbVertex
100
AcDb2dVertex
 10
2387.0
 20
1311.207107
 30
0.0
  0
VERTEX
  5
33D
100
AcDbEntity
  8
化粧台
  6
EXLTYPE2
 62
     6
100
AcDbVertex
100
AcDb2dVertex
 10
2390.5
 20
1313.707107
 30
0.0
  0
VERTEX
  5
33E
100
AcDbEntity
  8
化粧台
  6
EXLTYPE2
 62
     6
100
AcDbVertex
100
AcDb2dVertex
 10
2387.0
 20
1316.207107
 30
0.0
  0
VERTEX
  5
33F
100
AcDbEntity
  8
化粧台
  6
EXLTYPE2
 62
     6
100
AcDbVertex
100
AcDb2dVertex
 10
2388.65
 20
1318.707107
 30
0.0
  0
SEQEND
  5
340
100
AcDbEntity
  8
化粧台
  6
EXLTYPE2
 62
     6
  0
LINE
  5
341
100
AcDbEntity
  8
化粧台
  6
CONTINUOUS
 62
     6
100
AcDbLine
 10
2390.5
 20
918.707107
 30
0.0
 11
2418.5
 21
918.707107
 31
0.0
  0
LINE
  5
342
100
AcDbEntity
  8
化粧台
  6
CONTINUOUS
 62
     6
100
AcDbLine
 10
2390.5
 20
913.707107
 30
0.0
 11
2418.5
 21
913.707107
 31
0.0
  0
LINE
  5
343
100
AcDbEntity
  8
化粧台
  6
CONTINUOUS
 62
     6
100
AcDbLine
 10
2390.5
 20
908.707107
 30
0.0
 11
2418.5
 21
908.707107
 31
0.0
  0
LINE
  5
344
100
AcDbEntity
  8
化粧台
  6
CONTINUOUS
 62
     6
100
AcDbLine
 10
2390.5
 20
1018.707107
 30
0.0
 11
2404.5
 21
1018.707107
 31
0.0
  0
LINE
  5
345
100
AcDbEntity
  8
化粧台
  6
CONTINUOUS
 62
     6
100
AcDbLine
 10
2404.5
 20
1013.707107
 30
0.0
 11
2418.5
 21
1013.707107
 31
0.0
  0
LINE
  5
346
100
AcDbEntity
  8
化粧台
  6
CONTINUOUS
 62
     6
100
AcDbLine
 10
2390.5
 20
1008.707107
 30
0.0
 11
2404.5
 21
1008.707107
 31
0.0
  0
LINE
  5
347
100
AcDbEntity
  8
化粧台
  6
CONTINUOUS
 62
     6
100
AcDbLine
 10
2404.5
 20
1003.707107
 30
0.0
 11
2418.5
 21
1003.707107
 31
0.0
  0
LINE
  5
348
100
AcDbEntity
  8
化粧台
  6
CONTINUOUS
 62
     6
100
AcDbLine
 10
2390.5
 20
998.707107
 30
0.0
 11
2404.5
 21
998.707107
 31
0.0
  0
LINE
  5
349
100
AcDbEntity
  8
化粧台
  6
CONTINUOUS
 62
     6
100
AcDbLine
 10
2404.5
 20
993.707107
 30
0.0
 11
2418.5
 21
993.707107
 31
0.0
  0
LINE
  5
34A
100
AcDbEntity
  8
化粧台
  6
CONTINUOUS
 62
     6
100
AcDbLine
 10
2390.5
 20
988.707107
 30
0.0
 11
2404.5
 21
988.707107
 31
0.0
  0
LINE
  5
34B
100
AcDbEntity
  8
化粧台
  6
CONTINUOUS
 62
     6
100
AcDbLine
 10
2404.5
 20
983.707107
 30
0.0
 11
2418.5
 21
983.707107
 31
0.0
  0
LINE
  5
34C
100
AcDbEntity
  8
化粧台
  6
CONTINUOUS
 62
     6
100
AcDbLine
 10
2390.5
 20
978.707107
 30
0.0
 11
2404.5
 21
978.707107
 31
0.0
  0
LINE
  5
34D
100
AcDbEntity
  8
化粧台
  6
CONTINUOUS
 62
     6
100
AcDbLine
 10
2404.5
 20
973.707107
 30
0.0
 11
2418.5
 21
973.707107
 31
0.0
  0
LINE
  5
34E
100
AcDbEntity
  8
化粧台
  6
CONTINUOUS
 62
     6
100
AcDbLine
 10
2390.5
 20
968.707107
 30
0.0
 11
2404.5
 21
968.707107
 31
0.0
  0
LINE
  5
34F
100
AcDbEntity
  8
化粧台
  6
CONTINUOUS
 62
     6
100
AcDbLine
 10
2404.5
 20
963.707107
 30
0.0
 11
2418.5
 21
963.707107
 31
0.0
  0
LINE
  5
350
100
AcDbEntity
  8
化粧台
  6
CONTINUOUS
 62
     6
100
AcDbLine
 10
2390.5
 20
958.707107
 30
0.0
 11
2404.5
 21
958.707107
 31
0.0
  0
LINE
  5
351
100
AcDbEntity
  8
化粧台
  6
CONTINUOUS
 62
     6
100
AcDbLine
 10
2404.5
 20
953.707107
 30
0.0
 11
2418.5
 21
953.707107
 31
0.0
  0
LINE
  5
352
100
AcDbEntity
  8
化粧台
  6
CONTINUOUS
 62
     6
100
AcDbLine
 10
2390.5
 20
948.707107
 30
0.0
 11
2404.5
 21
948.707107
 31
0.0
  0
LINE
  5
353
100
AcDbEntity
  8
化粧台
  6
CONTINUOUS
 62
     6
100
AcDbLine
 10
2404.5
 20
943.707107
 30
0.0
 11
2418.5
 21
943.707107
 31
0.0
  0
LINE
  5
354
100
AcDbEntity
  8
化粧台
  6
CONTINUOUS
 62
     6
100
AcDbLine
 10
2390.5
 20
938.707107
 30
0.0
 11
2404.5
 21
938.707107
 31
0.0
  0
LINE
  5
355
100
AcDbEntity
  8
化粧台
  6
CONTINUOUS
 62
     6
100
AcDbLine
 10
2404.5
 20
933.707107
 30
0.0
 11
2418.5
 21
933.707107
 31
0.0
  0
LINE
  5
356
100
AcDbEntity
  8
化粧台
  6
CONTINUOUS
 62
     6
100
AcDbLine
 10
2390.5
 20
928.707107
 30
0.0
 11
2404.5
 21
928.707107
 31
0.0
  0
LINE
  5
357
100
AcDbEntity
  8
化粧台
  6
CONTINUOUS
 62
     6
100
AcDbLine
 10
2404.5
 20
923.707107
 30
0.0
 11
2418.5
 21
923.707107
 31
0.0
  0
LINE
  5
358
100
AcDbEntity
  8
化粧台
  6
CONTINUOUS
 62
     6
100
AcDbLine
 10
2388.65
 20
788.707107
 30
0.0
 11
2420.35
 21
788.707107
 31
0.0
  0
LINE
  5
359
100
AcDbEntity
  8
化粧台
  6
CONTINUOUS
 62
     6
100
AcDbLine
 10
2388.65
 20
888.707107
 30
0.0
 11
2388.65
 21
788.707107
 31
0.0
  0
LINE
  5
35A
100
AcDbEntity
  8
化粧台
  6
CONTINUOUS
 62
     6
100
AcDbLine
 10
2420.35
 20
788.707107
 30
0.0
 11
2420.35
 21
888.707107
 31
0.0
  0
LINE
  5
35B
100
AcDbEntity
  8
化粧台
  6
CONTINUOUS
 62
     6
100
AcDbLine
 10
2388.65
 20
888.707107
 30
0.0
 11
2420.35
 21
888.707107
 31
0.0
  0
LINE
  5
35C
100
AcDbEntity
  8
化粧台
  6
CONTINUOUS
 62
     6
100
AcDbLine
 10
2390.5
 20
903.707107
 30
0.0
 11
2418.5
 21
903.707107
 31
0.0
  0
LINE
  5
35D
100
AcDbEntity
  8
化粧台
  6
CONTINUOUS
 62
     6
100
AcDbLine
 10
2390.5
 20
898.707107
 30
0.0
 11
2418.5
 21
898.707107
 31
0.0
  0
LINE
  5
35E
100
AcDbEntity
  8
化粧台
  6
CONTINUOUS
 62
     6
100
AcDbLine
 10
2390.5
 20
893.707107
 30
0.0
 11
2418.5
 21
893.707107
 31
0.0
  0
LINE
  5
35F
100
AcDbEntity
  8
化粧台
  6
CONTINUOUS
 62
     6
100
AcDbLine
 10
2431.5
 20
953.8
 30
0.0
 11
2431.5
 21
950.0
 31
0.0
  0
LINE
  5
360
100
AcDbEntity
  8
化粧台
  6
CONTINUOUS
 62
     6
100
AcDbLine
 10
2377.5
 20
957.0
 30
0.0
 11
2377.5
 21
953.4
 31
0.0
  0
LINE
  5
361
100
AcDbEntity
  8
化粧台
  6
CONTINUOUS
 62
     6
100
AcDbLine
 10
2437.5
 20
936.0
 30
0.0
 11
2437.5
 21
929.5
 31
0.0
  0
LINE
  5
362
100
AcDbEntity
  8
化粧台
  6
CONTINUOUS
 62
     6
100
AcDbLine
 10
2371.5
 20
945.0
 30
0.0
 11
2371.5
 21
937.4
 31
0.0
  0
LINE
  5
363
100
AcDbEntity
  8
化粧台
  6
EXLTYPE2
 62
     6
100
AcDbLine
 10
2371.5
 20
929.5
 30
0.0
 11
2437.5
 21
929.5
 31
0.0
  0
LINE
  5
364
100
AcDbEntity
  8
化粧台
  6
EXLTYPE2
 62
     6
100
AcDbLine
 10
2374.0
 20
947.5
 30
0.0
 11
2435.0
 21
947.5
 31
0.0
  0
LINE
  5
365
100
AcDbEntity
  8
化粧台
  6
EXLTYPE2
 62
     6
100
AcDbLine
 10
2380.0
 20
959.5
 30
0.0
 11
2429.0
 21
959.5
 31
0.0
  0
ARC
  5
366
100
AcDbEntity
  8
化粧台
  6
CONTINUOUS
 62
     6
100
AcDbCircle
 10
2434.0
 20
950.0
 30
0.0
 40
2.5
100
AcDbArc
 50
180.0
 51
270.0
  0
ARC
  5
367
100
AcDbEntity
  8
化粧台
  6
CONTINUOUS
 62
     6
100
AcDbCircle
 10
2375.0
 20
950.0
 30
0.0
 40
2.5
100
AcDbArc
 50
270.0
 51
0.0
  0
ARC
  5
368
100
AcDbEntity
  8
化粧台
  6
CONTINUOUS
 62
     6
100
AcDbCircle
 10
2435.0
 20
945.0
 30
0.0
 40
2.5
100
AcDbArc
 50
0.0
 51
90.0
  0
ARC
  5
369
100
AcDbEntity
  8
化粧台
  6
CONTINUOUS
 62
     6
100
AcDbCircle
 10
2429.0
 20
957.0
 30
0.0
 40
2.5
100
AcDbArc
 50
0.0
 51
90.0
  0
ARC
  5
36A
100
AcDbEntity
  8
化粧台
  6
CONTINUOUS
 62
     6
100
AcDbCircle
 10
2380.0
 20
957.0
 30
0.0
 40
2.5
100
AcDbArc
 50
90.0
 51
180.0
  0
ARC
  5
36B
100
AcDbEntity
  8
化粧台
  6
CONTINUOUS
 62
     6
100
AcDbCircle
 10
2374.0
 20
945.0
 30
0.0
 40
2.5
100
AcDbArc
 50
90.0
 51
180.0
  0
POLYLINE
  5
36C
100
AcDbEntity
  8
化粧台
  6
CONTINUOUS
 62
     6
100
AcDb2dPolyline
 66
     1
 10
0.0
 20
0.0
 30
0.0
 70
   128
  0
VERTEX
  5
36D
100
AcDbEntity
  8
化粧台
  6
CONTINUOUS
 62
     6
100
AcDbVertex
100
AcDb2dVertex
 10
2388.65
 20
888.707107
 30
0.0
  0
VERTEX
  5
36E
100
AcDbEntity
  8
化粧台
  6
CONTINUOUS
 62
     6
100
AcDbVertex
100
AcDb2dVertex
 10
2387.0
 20
891.207107
 30
0.0
  0
VERTEX
  5
36F
100
AcDbEntity
  8
化粧台
  6
CONTINUOUS
 62
     6
100
AcDbVertex
100
AcDb2dVertex
 10
2390.5
 20
893.707107
 30
0.0
  0
VERTEX
  5
370
100
AcDbEntity
  8
化粧台
  6
CONTINUOUS
 62
     6
100
AcDbVertex
100
AcDb2dVertex
 10
2387.0
 20
896.207107
 30
0.0
  0
VERTEX
  5
371
100
AcDbEntity
  8
化粧台
  6
CONTINUOUS
 62
     6
100
AcDbVertex
100
AcDb2dVertex
 10
2390.5
 20
898.707107
 30
0.0
  0
VERTEX
  5
372
100
AcDbEntity
  8
化粧台
  6
CONTINUOUS
 62
     6
100
AcDbVertex
100
AcDb2dVertex
 10
2387.0
 20
901.207107
 30
0.0
  0
VERTEX
  5
373
100
AcDbEntity
  8
化粧台
  6
CONTINUOUS
 62
     6
100
AcDbVertex
100
AcDb2dVertex
 10
2390.5
 20
903.707107
 30
0.0
  0
VERTEX
  5
374
100
AcDbEntity
  8
化粧台
  6
CONTINUOUS
 62
     6
100
AcDbVertex
100
AcDb2dVertex
 10
2387.0
 20
906.207107
 30
0.0
  0
VERTEX
  5
375
100
AcDbEntity
  8
化粧台
  6
CONTINUOUS
 62
     6
100
AcDbVertex
100
AcDb2dVertex
 10
2390.5
 20
908.707107
 30
0.0
  0
VERTEX
  5
376
100
AcDbEntity
  8
化粧台
  6
CONTINUOUS
 62
     6
100
AcDbVertex
100
AcDb2dVertex
 10
2387.0
 20
911.207107
 30
0.0
  0
VERTEX
  5
377
100
AcDbEntity
  8
化粧台
  6
CONTINUOUS
 62
     6
100
AcDbVertex
100
AcDb2dVertex
 10
2390.5
 20
913.707107
 30
0.0
  0
VERTEX
  5
378
100
AcDbEntity
  8
化粧台
  6
CONTINUOUS
 62
     6
100
AcDbVertex
100
AcDb2dVertex
 10
2387.0
 20
916.207107
 30
0.0
  0
VERTEX
  5
379
100
AcDbEntity
  8
化粧台
  6
CONTINUOUS
 62
     6
100
AcDbVertex
100
AcDb2dVertex
 10
2390.5
 20
918.707107
 30
0.0
  0
VERTEX
  5
37A
100
AcDbEntity
  8
化粧台
  6
CONTINUOUS
 62
     6
100
AcDbVertex
100
AcDb2dVertex
 10
2387.0
 20
921.207107
 30
0.0
  0
VERTEX
  5
37B
100
AcDbEntity
  8
化粧台
  6
CONTINUOUS
 62
     6
100
AcDbVertex
100
AcDb2dVertex
 10
2390.5
 20
923.707107
 30
0.0
  0
VERTEX
  5
37C
100
AcDbEntity
  8
化粧台
  6
CONTINUOUS
 62
     6
100
AcDbVertex
100
AcDb2dVertex
 10
2389.389949
 20
924.5
 30
0.0
  0
SEQEND
  5
37D
100
AcDbEntity
  8
化粧台
  6
CONTINUOUS
 62
     6
  0
POLYLINE
  5
37E
100
AcDbEntity
  8
化粧台
  6
CONTINUOUS
 62
     6
100
AcDb2dPolyline
 66
     1
 10
0.0
 20
0.0
 30
0.0
 70
   128
  0
VERTEX
  5
37F
100
AcDbEntity
  8
化粧台
  6
CONTINUOUS
 62
     6
100
AcDbVertex
100
AcDb2dVertex
 10
2420.35
 20
888.707107
 30
0.0
  0
VERTEX
  5
380
100
AcDbEntity
  8
化粧台
  6
CONTINUOUS
 62
     6
100
AcDbVertex
100
AcDb2dVertex
 10
2422.0
 20
891.207107
 30
0.0
  0
VERTEX
  5
381
100
AcDbEntity
  8
化粧台
  6
CONTINUOUS
 62
     6
100
AcDbVertex
100
AcDb2dVertex
 10
2418.5
 20
893.707107
 30
0.0
  0
VERTEX
  5
382
100
AcDbEntity
  8
化粧台
  6
CONTINUOUS
 62
     6
100
AcDbVertex
100
AcDb2dVertex
 10
2422.0
 20
896.207107
 30
0.0
  0
VERTEX
  5
383
100
AcDbEntity
  8
化粧台
  6
CONTINUOUS
 62
     6
100
AcDbVertex
100
AcDb2dVertex
 10
2418.5
 20
898.707107
 30
0.0
  0
VERTEX
  5
384
100
AcDbEntity
  8
化粧台
  6
CONTINUOUS
 62
     6
100
AcDbVertex
100
AcDb2dVertex
 10
2422.0
 20
901.207107
 30
0.0
  0
VERTEX
  5
385
100
AcDbEntity
  8
化粧台
  6
CONTINUOUS
 62
     6
100
AcDbVertex
100
AcDb2dVertex
 10
2418.5
 20
903.707107
 30
0.0
  0
VERTEX
  5
386
100
AcDbEntity
  8
化粧台
  6
CONTINUOUS
 62
     6
100
AcDbVertex
100
AcDb2dVertex
 10
2422.0
 20
906.207107
 30
0.0
  0
VERTEX
  5
387
100
AcDbEntity
  8
化粧台
  6
CONTINUOUS
 62
     6
100
AcDbVertex
100
AcDb2dVertex
 10
2418.5
 20
908.707107
 30
0.0
  0
VERTEX
  5
388
100
AcDbEntity
  8
化粧台
  6
CONTINUOUS
 62
     6
100
AcDbVertex
100
AcDb2dVertex
 10
2422.0
 20
911.207107
 30
0.0
  0
VERTEX
  5
389
100
AcDbEntity
  8
化粧台
  6
CONTINUOUS
 62
     6
100
AcDbVertex
100
AcDb2dVertex
 10
2418.5
 20
913.707107
 30
0.0
  0
VERTEX
  5
38A
100
AcDbEntity
  8
化粧台
  6
CONTINUOUS
 62
     6
100
AcDbVertex
100
AcDb2dVertex
 10
2422.0
 20
916.207107
 30
0.0
  0
VERTEX
  5
38B
100
AcDbEntity
  8
化粧台
  6
CONTINUOUS
 62
     6
100
AcDbVertex
100
AcDb2dVertex
 10
2418.5
 20
918.707107
 30
0.0
  0
VERTEX
  5
38C
100
AcDbEntity
  8
化粧台
  6
CONTINUOUS
 62
     6
100
AcDbVertex
100
AcDb2dVertex
 10
2422.0
 20
921.207107
 30
0.0
  0
VERTEX
  5
38D
100
AcDbEntity
  8
化粧台
  6
CONTINUOUS
 62
     6
100
AcDbVertex
100
AcDb2dVertex
 10
2418.5
 20
923.707107
 30
0.0
  0
VERTEX
  5
38E
100
AcDbEntity
  8
化粧台
  6
CONTINUOUS
 62
     6
100
AcDbVertex
100
AcDb2dVertex
 10
2419.610051
 20
924.5
 30
0.0
  0
SEQEND
  5
38F
100
AcDbEntity
  8
化粧台
  6
CONTINUOUS
 62
     6
  0
LINE
  5
390
100
AcDbEntity
  8
化粧台
  6
EXLTYPE3
 62
     6
100
AcDbLine
 10
2314.5
 20
1481.5
 30
0.0
 11
2314.5
 21
1326.1
 31
0.0
  0
LINE
  5
391
100
AcDbEntity
  8
化粧台
  6
EXLTYPE3
 62
     6
100
AcDbLine
 10
2404.5
 20
1340.707107
 30
0.0
 11
2404.5
 21
774.5
 31
0.0
  0
LINE
  5
392
100
AcDbEntity
  8
化粧台
  6
EXLTYPE3
 62
     6
100
AcDbLine
 10
932.5
 20
1545.5
 30
0.0
 11
932.5
 21
1188.5
 31
0.0
  0
LINE
  5
393
100
AcDbEntity
  8
化粧台
  6
CONTINUOUS
 62
     2
100
AcDbLine
 10
1276.0
 20
1014.5
 30
0.0
 11
589.0
 21
1014.5
 31
0.0
  0
ARC
  5
394
100
AcDbEntity
  8
化粧台
  6
CONTINUOUS
 62
     2
100
AcDbCircle
 10
569.5
 20
1710.5
 30
0.0
 40
9.0
100
AcDbArc
 50
90.0
 51
181.617102
  0
ARC
  5
395
100
AcDbEntity
  8
化粧台
  6
CONTINUOUS
 62
     2
100
AcDbCircle
 10
571.5
 20
1533.349
 30
0.0
 40
6.0
100
AcDbArc
 50
181.617102
 51
270.0
  0
LINE
  5
396
100
AcDbEntity
  8
化粧台
  6
CONTINUOUS
 62
     2
100
AcDbLine
 10
560.503584
 20
1710.24602
 30
0.0
 11
565.50239
 21
1533.17968
 31
0.0
  0
ARC
  5
397
100
AcDbEntity
  8
化粧台
  6
CONTINUOUS
 62
     2
100
AcDbCircle
 10
571.004947
 20
1692.628
 30
0.0
 40
10.0
100
AcDbArc
 50
90.0
 51
181.617102
  0
ARC
  5
398
100
AcDbEntity
  8
化粧台
  6
CONTINUOUS
 62
     2
100
AcDbCircle
 10
1295.5
 20
1710.5
 30
0.0
 40
9.0
100
AcDbArc
 50
358.382898
 51
90.0
  0
ARC
  5
399
100
AcDbEntity
  8
化粧台
  6
CONTINUOUS
 62
     2
100
AcDbCircle
 10
1293.5
 20
1533.349
 30
0.0
 40
6.0
100
AcDbArc
 50
270.0
 51
358.382898
  0
LINE
  5
39A
100
AcDbEntity
  8
化粧台
  6
CONTINUOUS
 62
     2
100
AcDbLine
 10
1304.496416
 20
1710.24602
 30
0.0
 11
1299.49761
 21
1533.17968
 31
0.0
  0
ARC
  5
39B
100
AcDbEntity
  8
化粧台
  6
CONTINUOUS
 62
     2
100
AcDbCircle
 10
1293.995053
 20
1692.628
 30
0.0
 40
10.0
100
AcDbArc
 50
358.382898
 51
90.0
  0
ARC
  5
39C
100
AcDbEntity
  8
化粧台
  6
CONTINUOUS
 62
     2
100
AcDbCircle
 10
932.5
 20
3016.765667
 30
0.0
 40
1465.416667
100
AcDbArc
 50
265.695175
 51
274.304825
  0
LINE
  5
39D
100
AcDbEntity
  8
化粧台
  6
CONTINUOUS
 62
     2
100
AcDbLine
 10
571.5
 20
1527.349
 30
0.0
 11
1293.5
 21
1527.349
 31
0.0
  0
LINE
  5
39E
100
AcDbEntity
  8
化粧台
  6
CONTINUOUS
 62
     2
100
AcDbLine
 10
571.004947
 20
1702.628
 30
0.0
 11
644.471261
 21
1702.628
 31
0.0
  0
ARC
  5
39F
100
AcDbEntity
  8
化粧台
  6
CONTINUOUS
 62
     2
100
AcDbCircle
 10
837.514401
 20
1754.918974
 30
0.0
 40
200.0
100
AcDbArc
 50
195.156406
 51
265.695175
  0
ARC
  5
3A0
100
AcDbEntity
  8
化粧台
  6
CONTINUOUS
 62
     2
100
AcDbCircle
 10
1027.485599
 20
1754.918974
 30
0.0
 40
200.0
100
AcDbArc
 50
274.304825
 51
344.843594
  0
LINE
  5
3A1
100
AcDbEntity
  8
化粧台
  6
CONTINUOUS
 62
     2
100
AcDbLine
 10
1293.995053
 20
1702.628
 30
0.0
 11
1220.528739
 21
1702.628
 31
0.0
  0
LINE
  5
3A2
100
AcDbEntity
  8
化粧台
  6
CONTINUOUS
 62
     2
100
AcDbLine
 10
1119.0399
 20
1696.163506
 30
0.0
 11
745.9601
 21
1696.163506
 31
0.0
  0
ARC
  5
3A3
100
AcDbEntity
  8
化粧台
  6
CONTINUOUS
 62
     2
100
AcDbCircle
 10
932.5
 20
5424.623067
 30
0.0
 40
3733.123067
100
AcDbArc
 50
265.574952
 51
274.425048
  0
LINE
  5
3A4
100
AcDbEntity
  8
化粧台
  6
CONTINUOUS
 62
     2
100
AcDbLine
 10
589.0
 20
1527.349
 30
0.0
 11
589.0
 21
1511.5
 31
0.0
  0
LINE
  5
3A5
100
AcDbEntity
  8
化粧台
  6
CONTINUOUS
 62
     2
100
AcDbLine
 10
1276.0
 20
1527.349
 30
0.0
 11
1276.0
 21
1511.5
 31
0.0
  0
ARC
  5
3A6
100
AcDbEntity
  8
化粧台
  6
EXLTYPE2
 62
     6
100
AcDbCircle
 10
817.724364
 20
1605.487035
 30
0.0
 40
100.0
100
AcDbArc
 50
231.387133
 51
257.03425
  0
ARC
  5
3A7
100
AcDbEntity
  8
化粧台
  6
EXLTYPE2
 62
     6
100
AcDbCircle
 10
1021.89975
 20
2492.286004
 30
0.0
 40
1010.0
100
AcDbArc
 50
257.03425
 51
261.745346
  0
ARC
  5
3A8
100
AcDbEntity
  8
化粧台
  6
EXLTYPE2
 62
     6
100
AcDbCircle
 10
875.455288
 20
1482.853481
 30
0.0
 40
10.0
100
AcDbArc
 50
12.528808
 51
81.745346
  0
LINE
  5
3A9
100
AcDbEntity
  8
化粧台
  6
EXLTYPE2
 62
     6
100
AcDbLine
 10
885.217159
 20
1485.022785
 30
0.0
 11
891.129923
 21
1458.415348
 31
0.0
  0
ARC
  5
3AA
100
AcDbEntity
  8
化粧台
  6
EXLTYPE2
 62
     6
100
AcDbCircle
 10
896.010858
 20
1459.5
 30
0.0
 40
5.0
100
AcDbArc
 50
192.528808
 51
270.0
  0
LINE
  5
3AB
100
AcDbEntity
  8
化粧台
  6
EXLTYPE2
 62
     6
100
AcDbLine
 10
896.010858
 20
1454.5
 30
0.0
 11
968.989142
 21
1454.5
 31
0.0
  0
ARC
  5
3AC
100
AcDbEntity
  8
化粧台
  6
EXLTYPE2
 62
     6
100
AcDbCircle
 10
968.989142
 20
1459.5
 30
0.0
 40
5.0
100
AcDbArc
 50
270.0
 51
347.471192
  0
LINE
  5
3AD
100
AcDbEntity
  8
化粧台
  6
EXLTYPE2
 62
     6
100
AcDbLine
 10
979.782841
 20
1485.022785
 30
0.0
 11
973.870077
 21
1458.415348
 31
0.0
  0
ARC
  5
3AE
100
AcDbEntity
  8
化粧台
  6
EXLTYPE2
 62
     6
100
AcDbCircle
 10
989.544712
 20
1482.853481
 30
0.0
 40
10.0
100
AcDbArc
 50
98.254654
 51
167.471192
  0
ARC
  5
3AF
100
AcDbEntity
  8
化粧台
  6
EXLTYPE2
 62
     6
100
AcDbCircle
 10
843.10025
 20
2492.286004
 30
0.0
 40
1010.0
100
AcDbArc
 50
278.254654
 51
282.96575
  0
LINE
  5
3B0
100
AcDbEntity
  8
化粧台
  6
CONTINUOUS
 62
     6
100
AcDbLine
 10
675.0
 20
1434.5
 30
0.0
 11
650.0
 21
1434.5
 31
0.0
  0
LINE
  5
3B1
100
AcDbEntity
  8
化粧台
  6
CONTINUOUS
 62
     6
100
AcDbLine
 10
662.5
 20
1447.0
 30
0.0
 11
662.5
 21
1422.0
 31
0.0
  0
CIRCLE
  5
3B2
100
AcDbEntity
  8
化粧台
  6
EXLTYPE2
 62
     6
100
AcDbCircle
 10
662.5
 20
1434.5
 30
0.0
 40
7.5
  0
LINE
  5
3B3
100
AcDbEntity
  8
化粧台
  6
CONTINUOUS
 62
     6
100
AcDbLine
 10
1190.0
 20
1434.5
 30
0.0
 11
1215.0
 21
1434.5
 31
0.0
  0
LINE
  5
3B4
100
AcDbEntity
  8
化粧台
  6
CONTINUOUS
 62
     6
100
AcDbLine
 10
1202.5
 20
1447.0
 30
0.0
 11
1202.5
 21
1422.0
 31
0.0
  0
CIRCLE
  5
3B5
100
AcDbEntity
  8
化粧台
  6
EXLTYPE2
 62
     6
100
AcDbCircle
 10
1202.5
 20
1434.5
 30
0.0
 40
7.5
  0
LINE
  5
3B6
100
AcDbEntity
  8
化粧台
  6
CONTINUOUS
 62
     2
100
AcDbLine
 10
1287.5
 20
1019.5
 30
0.0
 11
933.5
 21
1019.5
 31
0.0
  0
LINE
  5
3B7
100
AcDbEntity
  8
化粧台
  6
CONTINUOUS
 62
     6
100
AcDbLine
 10
918.5
 20
918.707107
 30
0.0
 11
946.5
 21
918.707107
 31
0.0
  0
LINE
  5
3B8
100
AcDbEntity
  8
化粧台
  6
CONTINUOUS
 62
     6
100
AcDbLine
 10
918.5
 20
913.707107
 30
0.0
 11
946.5
 21
913.707107
 31
0.0
  0
LINE
  5
3B9
100
AcDbEntity
  8
化粧台
  6
CONTINUOUS
 62
     6
100
AcDbLine
 10
918.5
 20
908.707107
 30
0.0
 11
946.5
 21
908.707107
 31
0.0
  0
LINE
  5
3BA
100
AcDbEntity
  8
化粧台
  6
CONTINUOUS
 62
     6
100
AcDbLine
 10
932.5
 20
1098.707107
 30
0.0
 11
946.5
 21
1098.707107
 31
0.0
  0
LINE
  5
3BB
100
AcDbEntity
  8
化粧台
  6
CONTINUOUS
 62
     6
100
AcDbLine
 10
918.5
 20
1093.707107
 30
0.0
 11
932.5
 21
1093.707107
 31
0.0
  0
LINE
  5
3BC
100
AcDbEntity
  8
化粧台
  6
CONTINUOUS
 62
     6
100
AcDbLine
 10
932.5
 20
1088.707107
 30
0.0
 11
946.5
 21
1088.707107
 31
0.0
  0
LINE
  5
3BD
100
AcDbEntity
  8
化粧台
  6
CONTINUOUS
 62
     6
100
AcDbLine
 10
918.5
 20
1083.707107
 30
0.0
 11
932.5
 21
1083.707107
 31
0.0
  0
LINE
  5
3BE
100
AcDbEntity
  8
化粧台
  6
CONTINUOUS
 62
     6
100
AcDbLine
 10
932.5
 20
1078.707107
 30
0.0
 11
946.5
 21
1078.707107
 31
0.0
  0
LINE
  5
3BF
100
AcDbEntity
  8
化粧台
  6
CONTINUOUS
 62
     6
100
AcDbLine
 10
918.5
 20
1073.707107
 30
0.0
 11
932.5
 21
1073.707107
 31
0.0
  0
LINE
  5
3C0
100
AcDbEntity
  8
化粧台
  6
CONTINUOUS
 62
     6
100
AcDbLine
 10
932.5
 20
1068.707107
 30
0.0
 11
946.5
 21
1068.707107
 31
0.0
  0
LINE
  5
3C1
100
AcDbEntity
  8
化粧台
  6
CONTINUOUS
 62
     6
100
AcDbLine
 10
918.5
 20
1063.707107
 30
0.0
 11
932.5
 21
1063.707107
 31
0.0
  0
LINE
  5
3C2
100
AcDbEntity
  8
化粧台
  6
CONTINUOUS
 62
     6
100
AcDbLine
 10
932.5
 20
1058.707107
 30
0.0
 11
946.5
 21
1058.707107
 31
0.0
  0
LINE
  5
3C3
100
AcDbEntity
  8
化粧台
  6
CONTINUOUS
 62
     6
100
AcDbLine
 10
918.5
 20
1053.707107
 30
0.0
 11
932.5
 21
1053.707107
 31
0.0
  0
LINE
  5
3C4
100
AcDbEntity
  8
化粧台
  6
CONTINUOUS
 62
     6
100
AcDbLine
 10
932.5
 20
1048.707107
 30
0.0
 11
946.5
 21
1048.707107
 31
0.0
  0
LINE
  5
3C5
100
AcDbEntity
  8
化粧台
  6
CONTINUOUS
 62
     6
100
AcDbLine
 10
918.5
 20
1043.707107
 30
0.0
 11
932.5
 21
1043.707107
 31
0.0
  0
LINE
  5
3C6
100
AcDbEntity
  8
化粧台
  6
CONTINUOUS
 62
     6
100
AcDbLine
 10
932.5
 20
1038.707107
 30
0.0
 11
946.5
 21
1038.707107
 31
0.0
  0
LINE
  5
3C7
100
AcDbEntity
  8
化粧台
  6
CONTINUOUS
 62
     6
100
AcDbLine
 10
918.5
 20
1033.707107
 30
0.0
 11
932.5
 21
1033.707107
 31
0.0
  0
LINE
  5
3C8
100
AcDbEntity
  8
化粧台
  6
CONTINUOUS
 62
     6
100
AcDbLine
 10
932.5
 20
1028.707107
 30
0.0
 11
946.5
 21
1028.707107
 31
0.0
  0
LINE
  5
3C9
100
AcDbEntity
  8
化粧台
  6
CONTINUOUS
 62
     6
100
AcDbLine
 10
918.5
 20
1023.707107
 30
0.0
 11
932.5
 21
1023.707107
 31
0.0
  0
LINE
  5
3CA
100
AcDbEntity
  8
化粧台
  6
CONTINUOUS
 62
     6
100
AcDbLine
 10
932.5
 20
1018.707107
 30
0.0
 11
946.5
 21
1018.707107
 31
0.0
  0
LINE
  5
3CB
100
AcDbEntity
  8
化粧台
  6
CONTINUOUS
 62
     6
100
AcDbLine
 10
918.5
 20
1013.707107
 30
0.0
 11
932.5
 21
1013.707107
 31
0.0
  0
LINE
  5
3CC
100
AcDbEntity
  8
化粧台
  6
CONTINUOUS
 62
     6
100
AcDbLine
 10
932.5
 20
1008.707107
 30
0.0
 11
946.5
 21
1008.707107
 31
0.0
  0
LINE
  5
3CD
100
AcDbEntity
  8
化粧台
  6
CONTINUOUS
 62
     6
100
AcDbLine
 10
918.5
 20
1003.707107
 30
0.0
 11
932.5
 21
1003.707107
 31
0.0
  0
LINE
  5
3CE
100
AcDbEntity
  8
化粧台
  6
CONTINUOUS
 62
     6
100
AcDbLine
 10
932.5
 20
998.707107
 30
0.0
 11
946.5
 21
998.707107
 31
0.0
  0
LINE
  5
3CF
100
AcDbEntity
  8
化粧台
  6
CONTINUOUS
 62
     6
100
AcDbLine
 10
918.5
 20
993.707107
 30
0.0
 11
932.5
 21
993.707107
 31
0.0
  0
LINE
  5
3D0
100
AcDbEntity
  8
化粧台
  6
CONTINUOUS
 62
     6
100
AcDbLine
 10
932.5
 20
988.707107
 30
0.0
 11
946.5
 21
988.707107
 31
0.0
  0
LINE
  5
3D1
100
AcDbEntity
  8
化粧台
  6
CONTINUOUS
 62
     6
100
AcDbLine
 10
918.5
 20
983.707107
 30
0.0
 11
932.5
 21
983.707107
 31
0.0
  0
LINE
  5
3D2
100
AcDbEntity
  8
化粧台
  6
CONTINUOUS
 62
     6
100
AcDbLine
 10
932.5
 20
978.707107
 30
0.0
 11
946.5
 21
978.707107
 31
0.0
  0
LINE
  5
3D3
100
AcDbEntity
  8
化粧台
  6
CONTINUOUS
 62
     6
100
AcDbLine
 10
918.5
 20
973.707107
 30
0.0
 11
932.5
 21
973.707107
 31
0.0
  0
LINE
  5
3D4
100
AcDbEntity
  8
化粧台
  6
CONTINUOUS
 62
     6
100
AcDbLine
 10
932.5
 20
968.707107
 30
0.0
 11
946.5
 21
968.707107
 31
0.0
  0
LINE
  5
3D5
100
AcDbEntity
  8
化粧台
  6
CONTINUOUS
 62
     6
100
AcDbLine
 10
918.5
 20
963.707107
 30
0.0
 11
932.5
 21
963.707107
 31
0.0
  0
LINE
  5
3D6
100
AcDbEntity
  8
化粧台
  6
CONTINUOUS
 62
     6
100
AcDbLine
 10
932.5
 20
958.707107
 30
0.0
 11
946.5
 21
958.707107
 31
0.0
  0
LINE
  5
3D7
100
AcDbEntity
  8
化粧台
  6
CONTINUOUS
 62
     6
100
AcDbLine
 10
918.5
 20
953.707107
 30
0.0
 11
932.5
 21
953.707107
 31
0.0
  0
LINE
  5
3D8
100
AcDbEntity
  8
化粧台
  6
CONTINUOUS
 62
     6
100
AcDbLine
 10
932.5
 20
948.707107
 30
0.0
 11
946.5
 21
948.707107
 31
0.0
  0
LINE
  5
3D9
100
AcDbEntity
  8
化粧台
  6
CONTINUOUS
 62
     6
100
AcDbLine
 10
918.5
 20
943.707107
 30
0.0
 11
932.5
 21
943.707107
 31
0.0
  0
LINE
  5
3DA
100
AcDbEntity
  8
化粧台
  6
CONTINUOUS
 62
     6
100
AcDbLine
 10
932.5
 20
938.707107
 30
0.0
 11
946.5
 21
938.707107
 31
0.0
  0
LINE
  5
3DB
100
AcDbEntity
  8
化粧台
  6
CONTINUOUS
 62
     6
100
AcDbLine
 10
918.5
 20
933.707107
 30
0.0
 11
932.5
 21
933.707107
 31
0.0
  0
LINE
  5
3DC
100
AcDbEntity
  8
化粧台
  6
CONTINUOUS
 62
     6
100
AcDbLine
 10
932.5
 20
928.707107
 30
0.0
 11
946.5
 21
928.707107
 31
0.0
  0
LINE
  5
3DD
100
AcDbEntity
  8
化粧台
  6
CONTINUOUS
 62
     6
100
AcDbLine
 10
918.5
 20
923.707107
 30
0.0
 11
932.5
 21
923.707107
 31
0.0
  0
LINE
  5
3DE
100
AcDbEntity
  8
化粧台
  6
CONTINUOUS
 62
     6
100
AcDbLine
 10
916.65
 20
788.707107
 30
0.0
 11
948.35
 21
788.707107
 31
0.0
  0
LINE
  5
3DF
100
AcDbEntity
  8
化粧台
  6
CONTINUOUS
 62
     6
100
AcDbLine
 10
916.65
 20
888.707107
 30
0.0
 11
916.65
 21
788.707107
 31
0.0
  0
LINE
  5
3E0
100
AcDbEntity
  8
化粧台
  6
CONTINUOUS
 62
     6
100
AcDbLine
 10
948.35
 20
788.707107
 30
0.0
 11
948.35
 21
888.707107
 31
0.0
  0
LINE
  5
3E1
100
AcDbEntity
  8
化粧台
  6
CONTINUOUS
 62
     6
100
AcDbLine
 10
916.65
 20
888.707107
 30
0.0
 11
948.35
 21
888.707107
 31
0.0
  0
LINE
  5
3E2
100
AcDbEntity
  8
化粧台
  6
CONTINUOUS
 62
     6
100
AcDbLine
 10
918.5
 20
903.707107
 30
0.0
 11
946.5
 21
903.707107
 31
0.0
  0
LINE
  5
3E3
100
AcDbEntity
  8
化粧台
  6
CONTINUOUS
 62
     6
100
AcDbLine
 10
918.5
 20
898.707107
 30
0.0
 11
946.5
 21
898.707107
 31
0.0
  0
LINE
  5
3E4
100
AcDbEntity
  8
化粧台
  6
CONTINUOUS
 62
     6
100
AcDbLine
 10
918.5
 20
893.707107
 30
0.0
 11
946.5
 21
893.707107
 31
0.0
  0
LINE
  5
3E5
100
AcDbEntity
  8
化粧台
  6
CONTINUOUS
 62
     6
100
AcDbLine
 10
959.5
 20
953.8
 30
0.0
 11
959.5
 21
950.0
 31
0.0
  0
LINE
  5
3E6
100
AcDbEntity
  8
化粧台
  6
CONTINUOUS
 62
     6
100
AcDbLine
 10
905.5
 20
957.0
 30
0.0
 11
905.5
 21
953.4
 31
0.0
  0
LINE
  5
3E7
100
AcDbEntity
  8
化粧台
  6
CONTINUOUS
 62
     6
100
AcDbLine
 10
965.5
 20
936.0
 30
0.0
 11
965.5
 21
929.5
 31
0.0
  0
LINE
  5
3E8
100
AcDbEntity
  8
化粧台
  6
CONTINUOUS
 62
     6
100
AcDbLine
 10
899.5
 20
945.0
 30
0.0
 11
899.5
 21
937.4
 31
0.0
  0
LINE
  5
3E9
100
AcDbEntity
  8
化粧台
  6
EXLTYPE2
 62
     6
100
AcDbLine
 10
899.5
 20
929.5
 30
0.0
 11
965.5
 21
929.5
 31
0.0
  0
LINE
  5
3EA
100
AcDbEntity
  8
化粧台
  6
EXLTYPE2
 62
     6
100
AcDbLine
 10
902.0
 20
947.5
 30
0.0
 11
963.0
 21
947.5
 31
0.0
  0
LINE
  5
3EB
100
AcDbEntity
  8
化粧台
  6
EXLTYPE2
 62
     6
100
AcDbLine
 10
908.0
 20
959.5
 30
0.0
 11
957.0
 21
959.5
 31
0.0
  0
ARC
  5
3EC
100
AcDbEntity
  8
化粧台
  6
CONTINUOUS
 62
     6
100
AcDbCircle
 10
962.0
 20
950.0
 30
0.0
 40
2.5
100
AcDbArc
 50
180.0
 51
270.0
  0
ARC
  5
3ED
100
AcDbEntity
  8
化粧台
  6
CONTINUOUS
 62
     6
100
AcDbCircle
 10
903.0
 20
950.0
 30
0.0
 40
2.5
100
AcDbArc
 50
270.0
 51
0.0
  0
ARC
  5
3EE
100
AcDbEntity
  8
化粧台
  6
CONTINUOUS
 62
     6
100
AcDbCircle
 10
963.0
 20
945.0
 30
0.0
 40
2.5
100
AcDbArc
 50
0.0
 51
90.0
  0
ARC
  5
3EF
100
AcDbEntity
  8
化粧台
  6
CONTINUOUS
 62
     6
100
AcDbCircle
 10
957.0
 20
957.0
 30
0.0
 40
2.5
100
AcDbArc
 50
0.0
 51
90.0
  0
ARC
  5
3F0
100
AcDbEntity
  8
化粧台
  6
CONTINUOUS
 62
     6
100
AcDbCircle
 10
908.0
 20
957.0
 30
0.0
 40
2.5
100
AcDbArc
 50
90.0
 51
180.0
  0
ARC
  5
3F1
100
AcDbEntity
  8
化粧台
  6
CONTINUOUS
 62
     6
100
AcDbCircle
 10
902.0
 20
945.0
 30
0.0
 40
2.5
100
AcDbArc
 50
90.0
 51
180.0
  0
POLYLINE
  5
3F2
100
AcDbEntity
  8
化粧台
  6
CONTINUOUS
 62
     6
100
AcDb2dPolyline
 66
     1
 10
0.0
 20
0.0
 30
0.0
 70
   128
  0
VERTEX
  5
3F3
100
AcDbEntity
  8
化粧台
  6
CONTINUOUS
 62
     6
100
AcDbVertex
100
AcDb2dVertex
 10
916.65
 20
888.707107
 30
0.0
  0
VERTEX
  5
3F4
100
AcDbEntity
  8
化粧台
  6
CONTINUOUS
 62
     6
100
AcDbVertex
100
AcDb2dVertex
 10
915.0
 20
891.207107
 30
0.0
  0
VERTEX
  5
3F5
100
AcDbEntity
  8
化粧台
  6
CONTINUOUS
 62
     6
100
AcDbVertex
100
AcDb2dVertex
 10
918.5
 20
893.707107
 30
0.0
  0
VERTEX
  5
3F6
100
AcDbEntity
  8
化粧台
  6
CONTINUOUS
 62
     6
100
AcDbVertex
100
AcDb2dVertex
 10
915.0
 20
896.207107
 30
0.0
  0
VERTEX
  5
3F7
100
AcDbEntity
  8
化粧台
  6
CONTINUOUS
 62
     6
100
AcDbVertex
100
AcDb2dVertex
 10
918.5
 20
898.707107
 30
0.0
  0
VERTEX
  5
3F8
100
AcDbEntity
  8
化粧台
  6
CONTINUOUS
 62
     6
100
AcDbVertex
100
AcDb2dVertex
 10
915.0
 20
901.207107
 30
0.0
  0
VERTEX
  5
3F9
100
AcDbEntity
  8
化粧台
  6
CONTINUOUS
 62
     6
100
AcDbVertex
100
AcDb2dVertex
 10
918.5
 20
903.707107
 30
0.0
  0
VERTEX
  5
3FA
100
AcDbEntity
  8
化粧台
  6
CONTINUOUS
 62
     6
100
AcDbVertex
100
AcDb2dVertex
 10
915.0
 20
906.207107
 30
0.0
  0
VERTEX
  5
3FB
100
AcDbEntity
  8
化粧台
  6
CONTINUOUS
 62
     6
100
AcDbVertex
100
AcDb2dVertex
 10
918.5
 20
908.707107
 30
0.0
  0
VERTEX
  5
3FC
100
AcDbEntity
  8
化粧台
  6
CONTINUOUS
 62
     6
100
AcDbVertex
100
AcDb2dVertex
 10
915.0
 20
911.207107
 30
0.0
  0
VERTEX
  5
3FD
100
AcDbEntity
  8
化粧台
  6
CONTINUOUS
 62
     6
100
AcDbVertex
100
AcDb2dVertex
 10
918.5
 20
913.707107
 30
0.0
  0
VERTEX
  5
3FE
100
AcDbEntity
  8
化粧台
  6
CONTINUOUS
 62
     6
100
AcDbVertex
100
AcDb2dVertex
 10
915.0
 20
916.207107
 30
0.0
  0
VERTEX
  5
3FF
100
AcDbEntity
  8
化粧台
  6
CONTINUOUS
 62
     6
100
AcDbVertex
100
AcDb2dVertex
 10
918.5
 20
918.707107
 30
0.0
  0
VERTEX
  5
400
100
AcDbEntity
  8
化粧台
  6
CONTINUOUS
 62
     6
100
AcDbVertex
100
AcDb2dVertex
 10
915.0
 20
921.207107
 30
0.0
  0
VERTEX
  5
401
100
AcDbEntity
  8
化粧台
  6
CONTINUOUS
 62
     6
100
AcDbVertex
100
AcDb2dVertex
 10
918.5
 20
923.707107
 30
0.0
  0
VERTEX
  5
402
100
AcDbEntity
  8
化粧台
  6
CONTINUOUS
 62
     6
100
AcDbVertex
100
AcDb2dVertex
 10
917.389949
 20
924.5
 30
0.0
  0
SEQEND
  5
403
100
AcDbEntity
  8
化粧台
  6
CONTINUOUS
 62
     6
  0
POLYLINE
  5
404
100
AcDbEntity
  8
化粧台
  6
CONTINUOUS
 62
     6
100
AcDb2dPolyline
 66
     1
 10
0.0
 20
0.0
 30
0.0
 70
   128
  0
VERTEX
  5
405
100
AcDbEntity
  8
化粧台
  6
CONTINUOUS
 62
     6
100
AcDbVertex
100
AcDb2dVertex
 10
948.35
 20
888.707107
 30
0.0
  0
VERTEX
  5
406
100
AcDbEntity
  8
化粧台
  6
CONTINUOUS
 62
     6
100
AcDbVertex
100
AcDb2dVertex
 10
950.0
 20
891.207107
 30
0.0
  0
VERTEX
  5
407
100
AcDbEntity
  8
化粧台
  6
CONTINUOUS
 62
     6
100
AcDbVertex
100
AcDb2dVertex
 10
946.5
 20
893.707107
 30
0.0
  0
VERTEX
  5
408
100
AcDbEntity
  8
化粧台
  6
CONTINUOUS
 62
     6
100
AcDbVertex
100
AcDb2dVertex
 10
950.0
 20
896.207107
 30
0.0
  0
VERTEX
  5
409
100
AcDbEntity
  8
化粧台
  6
CONTINUOUS
 62
     6
100
AcDbVertex
100
AcDb2dVertex
 10
946.5
 20
898.707107
 30
0.0
  0
VERTEX
  5
40A
100
AcDbEntity
  8
化粧台
  6
CONTINUOUS
 62
     6
100
AcDbVertex
100
AcDb2dVertex
 10
950.0
 20
901.207107
 30
0.0
  0
VERTEX
  5
40B
100
AcDbEntity
  8
化粧台
  6
CONTINUOUS
 62
     6
100
AcDbVertex
100
AcDb2dVertex
 10
946.5
 20
903.707107
 30
0.0
  0
VERTEX
  5
40C
100
AcDbEntity
  8
化粧台
  6
CONTINUOUS
 62
     6
100
AcDbVertex
100
AcDb2dVertex
 10
950.0
 20
906.207107
 30
0.0
  0
VERTEX
  5
40D
100
AcDbEntity
  8
化粧台
  6
CONTINUOUS
 62
     6
100
AcDbVertex
100
AcDb2dVertex
 10
946.5
 20
908.707107
 30
0.0
  0
VERTEX
  5
40E
100
AcDbEntity
  8
化粧台
  6
CONTINUOUS
 62
     6
100
AcDbVertex
100
AcDb2dVertex
 10
950.0
 20
911.207107
 30
0.0
  0
VERTEX
  5
40F
100
AcDbEntity
  8
化粧台
  6
CONTINUOUS
 62
     6
100
AcDbVertex
100
AcDb2dVertex
 10
946.5
 20
913.707107
 30
0.0
  0
VERTEX
  5
410
100
AcDbEntity
  8
化粧台
  6
CONTINUOUS
 62
     6
100
AcDbVertex
100
AcDb2dVertex
 10
950.0
 20
916.207107
 30
0.0
  0
VERTEX
  5
411
100
AcDbEntity
  8
化粧台
  6
CONTINUOUS
 62
     6
100
AcDbVertex
100
AcDb2dVertex
 10
946.5
 20
918.707107
 30
0.0
  0
VERTEX
  5
412
100
AcDbEntity
  8
化粧台
  6
CONTINUOUS
 62
     6
100
AcDbVertex
100
AcDb2dVertex
 10
950.0
 20
921.207107
 30
0.0
  0
VERTEX
  5
413
100
AcDbEntity
  8
化粧台
  6
CONTINUOUS
 62
     6
100
AcDbVertex
100
AcDb2dVertex
 10
946.5
 20
923.707107
 30
0.0
  0
VERTEX
  5
414
100
AcDbEntity
  8
化粧台
  6
CONTINUOUS
 62
     6
100
AcDbVertex
100
AcDb2dVertex
 10
947.610051
 20
924.5
 30
0.0
  0
SEQEND
  5
415
100
AcDbEntity
  8
化粧台
  6
CONTINUOUS
 62
     6
  0
LINE
  5
416
100
AcDbEntity
  8
化粧台
  6
CONTINUOUS
 62
     6
100
AcDbLine
 10
918.5
 20
1233.707107
 30
0.0
 11
932.5
 21
1233.707107
 31
0.0
  0
LINE
  5
417
100
AcDbEntity
  8
化粧台
  6
CONTINUOUS
 62
     6
100
AcDbLine
 10
932.5
 20
1228.707107
 30
0.0
 11
946.5
 21
1228.707107
 31
0.0
  0
LINE
  5
418
100
AcDbEntity
  8
化粧台
  6
CONTINUOUS
 62
     6
100
AcDbLine
 10
918.5
 20
1223.707107
 30
0.0
 11
932.5
 21
1223.707107
 31
0.0
  0
LINE
  5
419
100
AcDbEntity
  8
化粧台
  6
CONTINUOUS
 62
     6
100
AcDbLine
 10
932.5
 20
1218.707107
 30
0.0
 11
946.5
 21
1218.707107
 31
0.0
  0
LINE
  5
41A
100
AcDbEntity
  8
化粧台
  6
CONTINUOUS
 62
     6
100
AcDbLine
 10
918.5
 20
1213.707107
 30
0.0
 11
932.5
 21
1213.707107
 31
0.0
  0
LINE
  5
41B
100
AcDbEntity
  8
化粧台
  6
CONTINUOUS
 62
     6
100
AcDbLine
 10
932.5
 20
1208.707107
 30
0.0
 11
946.5
 21
1208.707107
 31
0.0
  0
LINE
  5
41C
100
AcDbEntity
  8
化粧台
  6
CONTINUOUS
 62
     6
100
AcDbLine
 10
918.5
 20
1203.707107
 30
0.0
 11
932.5
 21
1203.707107
 31
0.0
  0
LINE
  5
41D
100
AcDbEntity
  8
化粧台
  6
CONTINUOUS
 62
     6
100
AcDbLine
 10
932.5
 20
1198.707107
 30
0.0
 11
946.5
 21
1198.707107
 31
0.0
  0
LINE
  5
41E
100
AcDbEntity
  8
化粧台
  6
CONTINUOUS
 62
     6
100
AcDbLine
 10
918.5
 20
1193.707107
 30
0.0
 11
932.5
 21
1193.707107
 31
0.0
  0
LINE
  5
41F
100
AcDbEntity
  8
化粧台
  6
CONTINUOUS
 62
     6
100
AcDbLine
 10
932.5
 20
1188.707107
 30
0.0
 11
946.5
 21
1188.707107
 31
0.0
  0
LINE
  5
420
100
AcDbEntity
  8
化粧台
  6
CONTINUOUS
 62
     6
100
AcDbLine
 10
918.5
 20
1183.707107
 30
0.0
 11
932.5
 21
1183.707107
 31
0.0
  0
LINE
  5
421
100
AcDbEntity
  8
化粧台
  6
CONTINUOUS
 62
     6
100
AcDbLine
 10
932.5
 20
1178.707107
 30
0.0
 11
946.5
 21
1178.707107
 31
0.0
  0
LINE
  5
422
100
AcDbEntity
  8
化粧台
  6
CONTINUOUS
 62
     6
100
AcDbLine
 10
918.5
 20
1173.707107
 30
0.0
 11
932.5
 21
1173.707107
 31
0.0
  0
LINE
  5
423
100
AcDbEntity
  8
化粧台
  6
CONTINUOUS
 62
     6
100
AcDbLine
 10
932.5
 20
1168.707107
 30
0.0
 11
946.5
 21
1168.707107
 31
0.0
  0
LINE
  5
424
100
AcDbEntity
  8
化粧台
  6
CONTINUOUS
 62
     6
100
AcDbLine
 10
918.5
 20
1163.707107
 30
0.0
 11
932.5
 21
1163.707107
 31
0.0
  0
LINE
  5
425
100
AcDbEntity
  8
化粧台
  6
CONTINUOUS
 62
     6
100
AcDbLine
 10
932.5
 20
1158.707107
 30
0.0
 11
946.5
 21
1158.707107
 31
0.0
  0
LINE
  5
426
100
AcDbEntity
  8
化粧台
  6
CONTINUOUS
 62
     6
100
AcDbLine
 10
918.5
 20
1153.707107
 30
0.0
 11
932.5
 21
1153.707107
 31
0.0
  0
LINE
  5
427
100
AcDbEntity
  8
化粧台
  6
CONTINUOUS
 62
     6
100
AcDbLine
 10
932.5
 20
1148.707107
 30
0.0
 11
946.5
 21
1148.707107
 31
0.0
  0
LINE
  5
428
100
AcDbEntity
  8
化粧台
  6
CONTINUOUS
 62
     6
100
AcDbLine
 10
918.5
 20
1143.707107
 30
0.0
 11
932.5
 21
1143.707107
 31
0.0
  0
LINE
  5
429
100
AcDbEntity
  8
化粧台
  6
CONTINUOUS
 62
     6
100
AcDbLine
 10
932.5
 20
1138.707107
 30
0.0
 11
946.5
 21
1138.707107
 31
0.0
  0
LINE
  5
42A
100
AcDbEntity
  8
化粧台
  6
CONTINUOUS
 62
     6
100
AcDbLine
 10
918.5
 20
1133.707107
 30
0.0
 11
932.5
 21
1133.707107
 31
0.0
  0
LINE
  5
42B
100
AcDbEntity
  8
化粧台
  6
CONTINUOUS
 62
     6
100
AcDbLine
 10
932.5
 20
1128.707107
 30
0.0
 11
946.5
 21
1128.707107
 31
0.0
  0
LINE
  5
42C
100
AcDbEntity
  8
化粧台
  6
CONTINUOUS
 62
     6
100
AcDbLine
 10
918.5
 20
1123.707107
 30
0.0
 11
932.5
 21
1123.707107
 31
0.0
  0
LINE
  5
42D
100
AcDbEntity
  8
化粧台
  6
CONTINUOUS
 62
     6
100
AcDbLine
 10
932.5
 20
1118.707107
 30
0.0
 11
946.5
 21
1118.707107
 31
0.0
  0
LINE
  5
42E
100
AcDbEntity
  8
化粧台
  6
CONTINUOUS
 62
     6
100
AcDbLine
 10
918.5
 20
1113.707107
 30
0.0
 11
932.5
 21
1113.707107
 31
0.0
  0
LINE
  5
42F
100
AcDbEntity
  8
化粧台
  6
CONTINUOUS
 62
     6
100
AcDbLine
 10
932.5
 20
1108.707107
 30
0.0
 11
946.5
 21
1108.707107
 31
0.0
  0
LINE
  5
430
100
AcDbEntity
  8
化粧台
  6
CONTINUOUS
 62
     6
100
AcDbLine
 10
918.5
 20
1103.707107
 30
0.0
 11
932.5
 21
1103.707107
 31
0.0
  0
LINE
  5
431
100
AcDbEntity
  8
化粧台
  6
CONTINUOUS
 62
     6
100
AcDbLine
 10
939.309939
 20
1278.707107
 30
0.0
 11
946.5
 21
1278.707107
 31
0.0
  0
LINE
  5
432
100
AcDbEntity
  8
化粧台
  6
CONTINUOUS
 62
     6
100
AcDbLine
 10
928.478873
 20
1268.707107
 30
0.0
 11
946.5
 21
1268.707107
 31
0.0
  0
LINE
  5
433
100
AcDbEntity
  8
化粧台
  6
CONTINUOUS
 62
     6
100
AcDbLine
 10
931.978873
 20
1258.707107
 30
0.0
 11
946.5
 21
1258.707107
 31
0.0
  0
LINE
  5
434
100
AcDbEntity
  8
化粧台
  6
CONTINUOUS
 62
     6
100
AcDbLine
 10
931.978873
 20
1248.707107
 30
0.0
 11
946.5
 21
1248.707107
 31
0.0
  0
LINE
  5
435
100
AcDbEntity
  8
化粧台
  6
EXLTYPE2
 62
     6
100
AcDbLine
 10
914.0
 20
1369.707107
 30
0.0
 11
914.0
 21
1334.707107
 31
0.0
  0
LINE
  5
436
100
AcDbEntity
  8
化粧台
  6
EXLTYPE2
 62
     6
100
AcDbLine
 10
951.0
 20
1369.707107
 30
0.0
 11
951.0
 21
1334.707107
 31
0.0
  0
LINE
  5
437
100
AcDbEntity
  8
化粧台
  6
EXLTYPE2
 62
     6
100
AcDbLine
 10
951.0
 20
1334.707107
 30
0.0
 11
948.35
 21
1332.057107
 31
0.0
  0
LINE
  5
438
100
AcDbEntity
  8
化粧台
  6
EXLTYPE2
 62
     6
100
AcDbLine
 10
909.1
 20
1369.707107
 30
0.0
 11
955.9
 21
1369.707107
 31
0.0
  0
LINE
  5
439
100
AcDbEntity
  8
化粧台
  6
EXLTYPE2
 62
     6
100
AcDbLine
 10
911.1
 20
1387.707107
 30
0.0
 11
953.9
 21
1387.707107
 31
0.0
  0
LINE
  5
43A
100
AcDbEntity
  8
化粧台
  6
EXLTYPE2
 62
     6
100
AcDbLine
 10
909.1
 20
1385.707107
 30
0.0
 11
909.1
 21
1369.707107
 31
0.0
  0
LINE
  5
43B
100
AcDbEntity
  8
化粧台
  6
EXLTYPE2
 62
     6
100
AcDbLine
 10
955.9
 20
1385.707107
 30
0.0
 11
955.9
 21
1369.707107
 31
0.0
  0
ARC
  5
43C
100
AcDbEntity
  8
化粧台
  6
EXLTYPE2
 62
     6
100
AcDbCircle
 10
911.1
 20
1385.707107
 30
0.0
 40
2.0
100
AcDbArc
 50
90.0
 51
180.0
  0
ARC
  5
43D
100
AcDbEntity
  8
化粧台
  6
EXLTYPE2
 62
     6
100
AcDbCircle
 10
953.9
 20
1385.707107
 30
0.0
 40
2.0
100
AcDbArc
 50
0.0
 51
90.0
  0
LINE
  5
43E
100
AcDbEntity
  8
化粧台
  6
EXLTYPE2
 62
     6
100
AcDbLine
 10
916.65
 20
1332.057107
 30
0.0
 11
948.35
 21
1332.057107
 31
0.0
  0
LINE
  5
43F
100
AcDbEntity
  8
化粧台
  6
EXLTYPE2
 62
     6
100
AcDbLine
 10
873.607747
 20
1351.33598
 30
0.0
 11
873.607747
 21
1339.707107
 31
0.0
  0
LINE
  5
440
100
AcDbEntity
  8
化粧台
  6
EXLTYPE2
 62
     6
100
AcDbLine
 10
905.307747
 20
1351.33598
 30
0.0
 11
905.307747
 21
1339.707107
 31
0.0
  0
ARC
  5
441
100
AcDbEntity
  8
化粧台
  6
EXLTYPE2
 62
     6
100
AcDbCircle
 10
910.978873
 20
1351.33598
 30
0.0
 40
37.371127
100
AcDbArc
 50
81.271554
 51
180.0
  0
ARC
  5
442
100
AcDbEntity
  8
化粧台
  6
EXLTYPE2
 62
     6
100
AcDbCircle
 10
910.978873
 20
1351.33598
 30
0.0
 40
5.671127
100
AcDbArc
 50
57.810532
 51
180.0
  0
LINE
  5
443
100
AcDbEntity
  8
化粧台
  6
EXLTYPE2
 62
     6
100
AcDbLine
 10
915.370011
 20
1385.707107
 30
0.0
 11
915.370011
 21
1369.707107
 31
0.0
  0
LINE
  5
444
100
AcDbEntity
  8
化粧台
  6
EXLTYPE2
 62
     6
100
AcDbLine
 10
926.229989
 20
1385.707107
 30
0.0
 11
926.229989
 21
1369.707107
 31
0.0
  0
LINE
  5
445
100
AcDbEntity
  8
化粧台
  6
EXLTYPE2
 62
     6
100
AcDbLine
 10
938.770011
 20
1385.707107
 30
0.0
 11
938.770011
 21
1369.707107
 31
0.0
  0
LINE
  5
446
100
AcDbEntity
  8
化粧台
  6
EXLTYPE2
 62
     6
100
AcDbLine
 10
949.629989
 20
1385.707107
 30
0.0
 11
949.629989
 21
1369.707107
 31
0.0
  0
LINE
  5
447
100
AcDbEntity
  8
化粧台
  6
EXLTYPE2
 62
     6
100
AcDbLine
 10
908.6
 20
1413.707107
 30
0.0
 11
956.4
 21
1413.707107
 31
0.0
  0
LINE
  5
448
100
AcDbEntity
  8
化粧台
  6
EXLTYPE2
 62
     6
100
AcDbLine
 10
898.5
 20
1447.207107
 30
0.0
 11
966.5
 21
1447.207107
 31
0.0
  0
LINE
  5
449
100
AcDbEntity
  8
化粧台
  6
EXLTYPE2
 62
     6
100
AcDbLine
 10
898.5
 20
1450.207107
 30
0.0
 11
898.5
 21
1447.207107
 31
0.0
  0
LINE
  5
44A
100
AcDbEntity
  8
化粧台
  6
EXLTYPE2
 62
     6
100
AcDbLine
 10
966.5
 20
1450.207107
 30
0.0
 11
966.5
 21
1447.207107
 31
0.0
  0
LINE
  5
44B
100
AcDbEntity
  8
化粧台
  6
EXLTYPE2
 62
     6
100
AcDbLine
 10
904.5
 20
1427.100165
 30
0.0
 11
904.5
 21
1444.100165
 31
0.0
  0
LINE
  5
44C
100
AcDbEntity
  8
化粧台
  6
EXLTYPE2
 62
     6
100
AcDbLine
 10
906.0
 20
1425.600165
 30
0.0
 11
904.5
 21
1427.100165
 31
0.0
  0
LINE
  5
44D
100
AcDbEntity
  8
化粧台
  6
EXLTYPE2
 62
     6
100
AcDbLine
 10
960.5
 20
1427.100165
 30
0.0
 11
960.5
 21
1444.100165
 31
0.0
  0
LINE
  5
44E
100
AcDbEntity
  8
化粧台
  6
EXLTYPE2
 62
     6
100
AcDbLine
 10
959.0
 20
1425.600165
 30
0.0
 11
906.0
 21
1425.600165
 31
0.0
  0
LINE
  5
44F
100
AcDbEntity
  8
化粧台
  6
EXLTYPE2
 62
     6
100
AcDbLine
 10
960.5
 20
1427.100165
 30
0.0
 11
959.0
 21
1425.600165
 31
0.0
  0
LINE
  5
450
100
AcDbEntity
  8
化粧台
  6
EXLTYPE2
 62
     6
100
AcDbLine
 10
900.0
 20
1444.100165
 30
0.0
 11
965.0
 21
1444.100165
 31
0.0
  0
LINE
  5
451
100
AcDbEntity
  8
化粧台
  6
EXLTYPE2
 62
     6
100
AcDbLine
 10
900.0
 20
1444.100165
 30
0.0
 11
900.0
 21
1447.207107
 31
0.0
  0
LINE
  5
452
100
AcDbEntity
  8
化粧台
  6
EXLTYPE2
 62
     6
100
AcDbLine
 10
965.0
 20
1444.100165
 30
0.0
 11
965.0
 21
1447.207107
 31
0.0
  0
LINE
  5
453
100
AcDbEntity
  8
化粧台
  6
EXLTYPE2
 62
     6
100
AcDbLine
 10
915.179492
 20
1427.100165
 30
0.0
 11
915.179492
 21
1444.100165
 31
0.0
  0
LINE
  5
454
100
AcDbEntity
  8
化粧台
  6
EXLTYPE2
 62
     6
100
AcDbLine
 10
922.107695
 20
1427.100165
 30
0.0
 11
922.107695
 21
1444.100165
 31
0.0
  0
LINE
  5
455
100
AcDbEntity
  8
化粧台
  6
EXLTYPE2
 62
     6
100
AcDbLine
 10
942.892305
 20
1427.100165
 30
0.0
 11
942.892305
 21
1444.100165
 31
0.0
  0
LINE
  5
456
100
AcDbEntity
  8
化粧台
  6
EXLTYPE2
 62
     6
100
AcDbLine
 10
949.820508
 20
1427.100165
 30
0.0
 11
949.820508
 21
1444.100165
 31
0.0
  0
LINE
  5
457
100
AcDbEntity
  8
化粧台
  6
EXLTYPE2
 62
     6
100
AcDbLine
 10
898.5
 20
1447.707107
 30
0.0
 11
966.5
 21
1447.707107
 31
0.0
  0
LINE
  5
458
100
AcDbEntity
  8
化粧台
  6
EXLTYPE2
 62
     6
100
AcDbLine
 10
898.5
 20
1450.207107
 30
0.0
 11
966.5
 21
1450.207107
 31
0.0
  0
LINE
  5
459
100
AcDbEntity
  8
化粧台
  6
EXLTYPE2
 62
     6
100
AcDbLine
 10
898.5
 20
1450.207107
 30
0.0
 11
903.600967
 21
1454.5
 31
0.0
  0
LINE
  5
45A
100
AcDbEntity
  8
化粧台
  6
EXLTYPE2
 62
     6
100
AcDbLine
 10
961.399033
 20
1454.5
 30
0.0
 11
966.5
 21
1450.207107
 31
0.0
  0
LINE
  5
45B
100
AcDbEntity
  8
化粧台
  6
EXLTYPE2
 62
     6
100
AcDbLine
 10
908.6
 20
1413.707107
 30
0.0
 11
908.6
 21
1425.600165
 31
0.0
  0
LINE
  5
45C
100
AcDbEntity
  8
化粧台
  6
EXLTYPE2
 62
     6
100
AcDbLine
 10
956.4
 20
1413.707107
 30
0.0
 11
956.4
 21
1425.600165
 31
0.0
  0
LINE
  5
45D
100
AcDbEntity
  8
化粧台
  6
EXLTYPE2
 62
     6
100
AcDbLine
 10
916.65
 20
1413.707107
 30
0.0
 11
916.65
 21
1387.707107
 31
0.0
  0
LINE
  5
45E
100
AcDbEntity
  8
化粧台
  6
EXLTYPE2
 62
     6
100
AcDbLine
 10
948.35
 20
1413.707107
 30
0.0
 11
948.35
 21
1387.707107
 31
0.0
  0
LINE
  5
45F
100
AcDbEntity
  8
化粧台
  6
EXLTYPE2
 62
     6
100
AcDbLine
 10
893.478873
 20
1296.707107
 30
0.0
 11
893.478873
 21
1262.207107
 31
0.0
  0
LINE
  5
460
100
AcDbEntity
  8
化粧台
  6
EXLTYPE2
 62
     6
100
AcDbLine
 10
928.478873
 20
1270.057768
 30
0.0
 11
928.478873
 21
1262.207107
 31
0.0
  0
LINE
  5
461
100
AcDbEntity
  8
化粧台
  6
EXLTYPE2
 62
     6
100
AcDbLine
 10
889.978873
 20
1262.207107
 30
0.0
 11
931.978873
 21
1262.207107
 31
0.0
  0
LINE
  5
462
100
AcDbEntity
  8
化粧台
  6
EXLTYPE2
 62
     6
100
AcDbLine
 10
891.478873
 20
1245.707107
 30
0.0
 11
930.478873
 21
1245.707107
 31
0.0
  0
LINE
  5
463
100
AcDbEntity
  8
化粧台
  6
EXLTYPE2
 62
     6
100
AcDbLine
 10
889.978873
 20
1247.207107
 30
0.0
 11
889.978873
 21
1262.207107
 31
0.0
  0
LINE
  5
464
100
AcDbEntity
  8
化粧台
  6
EXLTYPE2
 62
     6
100
AcDbLine
 10
931.978873
 20
1247.207107
 30
0.0
 11
931.978873
 21
1262.207107
 31
0.0
  0
ARC
  5
465
100
AcDbEntity
  8
化粧台
  6
EXLTYPE2
 62
     6
100
AcDbCircle
 10
930.478873
 20
1247.207107
 30
0.0
 40
1.5
100
AcDbArc
 50
270.0
 51
0.0
  0
ARC
  5
466
100
AcDbEntity
  8
化粧台
  6
EXLTYPE2
 62
     6
100
AcDbCircle
 10
891.478873
 20
1247.207107
 30
0.0
 40
1.5
100
AcDbArc
 50
180.0
 51
270.0
  0
ARC
  5
467
100
AcDbEntity
  8
化粧台
  6
EXLTYPE2
 62
     6
100
AcDbCircle
 10
910.978873
 20
1281.557107
 30
0.0
 40
15.85
100
AcDbArc
 50
99.640243
 51
270.0
  0
ARC
  5
468
100
AcDbEntity
  8
化粧台
  6
EXLTYPE2
 62
     6
100
AcDbCircle
 10
910.978873
 20
1303.078234
 30
0.0
 40
37.371127
100
AcDbArc
 50
197.714595
 51
242.077557
  0
LINE
  5
469
100
AcDbEntity
  8
化粧台
  6
EXLTYPE2
 62
     6
100
AcDbLine
 10
931.232394
 20
1262.207107
 30
0.0
 11
931.232394
 21
1247.207107
 31
0.0
  0
LINE
  5
46A
100
AcDbEntity
  8
化粧台
  6
EXLTYPE2
 62
     6
100
AcDbLine
 10
890.725352
 20
1247.207107
 30
0.0
 11
890.725352
 21
1262.207107
 31
0.0
  0
LINE
  5
46B
100
AcDbEntity
  8
化粧台
  6
EXLTYPE2
 62
     6
100
AcDbLine
 10
894.156505
 20
1247.207107
 30
0.0
 11
894.156505
 21
1262.207107
 31
0.0
  0
LINE
  5
46C
100
AcDbEntity
  8
化粧台
  6
EXLTYPE2
 62
     6
100
AcDbLine
 10
908.504015
 20
1247.207107
 30
0.0
 11
908.504015
 21
1262.207107
 31
0.0
  0
LINE
  5
46D
100
AcDbEntity
  8
化粧台
  6
EXLTYPE2
 62
     6
100
AcDbLine
 10
913.453732
 20
1247.207107
 30
0.0
 11
913.453732
 21
1262.207107
 31
0.0
  0
LINE
  5
46E
100
AcDbEntity
  8
化粧台
  6
EXLTYPE2
 62
     6
100
AcDbLine
 10
927.801242
 20
1247.207107
 30
0.0
 11
927.801242
 21
1262.207107
 31
0.0
  0
ARC
  5
46F
100
AcDbEntity
  8
化粧台
  6
EXLTYPE2
 62
     6
100
AcDbCircle
 10
892.225352
 20
1247.207107
 30
0.0
 40
1.5
100
AcDbArc
 50
180.0
 51
270.0
  0
ARC
  5
470
100
AcDbEntity
  8
化粧台
  6
EXLTYPE2
 62
     6
100
AcDbCircle
 10
892.656505
 20
1247.207107
 30
0.0
 40
1.5
100
AcDbArc
 50
270.0
 51
0.0
  0
ARC
  5
471
100
AcDbEntity
  8
化粧台
  6
EXLTYPE2
 62
     6
100
AcDbCircle
 10
910.004015
 20
1247.207107
 30
0.0
 40
1.5
100
AcDbArc
 50
180.0
 51
270.0
  0
ARC
  5
472
100
AcDbEntity
  8
化粧台
  6
EXLTYPE2
 62
     6
100
AcDbCircle
 10
911.953732
 20
1247.207107
 30
0.0
 40
1.5
100
AcDbArc
 50
270.0
 51
0.0
  0
ARC
  5
473
100
AcDbEntity
  8
化粧台
  6
EXLTYPE2
 62
     6
100
AcDbCircle
 10
929.301242
 20
1247.207107
 30
0.0
 40
1.5
100
AcDbArc
 50
180.0
 51
270.0
  0
ARC
  5
474
100
AcDbEntity
  8
化粧台
  6
EXLTYPE2
 62
     6
100
AcDbCircle
 10
929.732394
 20
1247.207107
 30
0.0
 40
1.5
100
AcDbArc
 50
270.0
 51
0.0
  0
LINE
  5
475
100
AcDbEntity
  8
化粧台
  6
EXLTYPE2
 62
     6
100
AcDbLine
 10
916.65
 20
1332.057107
 30
0.0
 11
916.65
 21
1307.04207
 31
0.0
  0
LINE
  5
476
100
AcDbEntity
  8
化粧台
  6
EXLTYPE2
 62
     6
100
AcDbLine
 10
870.957747
 20
1321.707107
 30
0.0
 11
870.957747
 21
1291.707107
 31
0.0
  0
LINE
  5
477
100
AcDbEntity
  8
化粧台
  6
EXLTYPE2
 62
     6
100
AcDbLine
 10
907.957747
 20
1321.707107
 30
0.0
 11
907.957747
 21
1296.707107
 31
0.0
  0
LINE
  5
478
100
AcDbEntity
  8
化粧台
  6
EXLTYPE2
 62
     6
100
AcDbLine
 10
914.0
 20
1334.707107
 30
0.0
 11
916.65
 21
1332.057107
 31
0.0
  0
LINE
  5
479
100
AcDbEntity
  8
化粧台
  6
EXLTYPE2
 62
     6
100
AcDbLine
 10
866.057747
 20
1321.707107
 30
0.0
 11
912.857747
 21
1321.707107
 31
0.0
  0
LINE
  5
47A
100
AcDbEntity
  8
化粧台
  6
EXLTYPE2
 62
     6
100
AcDbLine
 10
868.057747
 20
1339.707107
 30
0.0
 11
910.857747
 21
1339.707107
 31
0.0
  0
LINE
  5
47B
100
AcDbEntity
  8
化粧台
  6
EXLTYPE2
 62
     6
100
AcDbLine
 10
866.057747
 20
1337.707107
 30
0.0
 11
866.057747
 21
1321.707107
 31
0.0
  0
LINE
  5
47C
100
AcDbEntity
  8
化粧台
  6
EXLTYPE2
 62
     6
100
AcDbLine
 10
912.857747
 20
1337.707107
 30
0.0
 11
912.857747
 21
1321.707107
 31
0.0
  0
ARC
  5
47D
100
AcDbEntity
  8
化粧台
  6
EXLTYPE2
 62
     6
100
AcDbCircle
 10
868.057747
 20
1337.707107
 30
0.0
 40
2.0
100
AcDbArc
 50
90.0
 51
180.0
  0
ARC
  5
47E
100
AcDbEntity
  8
化粧台
  6
EXLTYPE2
 62
     6
100
AcDbCircle
 10
910.857747
 20
1337.707107
 30
0.0
 40
2.0
100
AcDbArc
 50
0.0
 51
90.0
  0
LINE
  5
47F
100
AcDbEntity
  8
化粧台
  6
EXLTYPE2
 62
     6
100
AcDbLine
 10
872.327758
 20
1337.707107
 30
0.0
 11
872.327758
 21
1321.707107
 31
0.0
  0
LINE
  5
480
100
AcDbEntity
  8
化粧台
  6
EXLTYPE2
 62
     6
100
AcDbLine
 10
883.187735
 20
1337.707107
 30
0.0
 11
883.187735
 21
1321.707107
 31
0.0
  0
LINE
  5
481
100
AcDbEntity
  8
化粧台
  6
EXLTYPE2
 62
     6
100
AcDbLine
 10
895.727758
 20
1337.707107
 30
0.0
 11
895.727758
 21
1321.707107
 31
0.0
  0
LINE
  5
482
100
AcDbEntity
  8
化粧台
  6
EXLTYPE2
 62
     6
100
AcDbLine
 10
906.587735
 20
1337.707107
 30
0.0
 11
906.587735
 21
1321.707107
 31
0.0
  0
LINE
  5
483
100
AcDbEntity
  8
化粧台
  6
EXLTYPE2
 62
     6
100
AcDbLine
 10
893.478873
 20
1296.707107
 30
0.0
 11
906.320547
 21
1296.707107
 31
0.0
  0
LINE
  5
484
100
AcDbEntity
  8
化粧台
  6
EXLTYPE2
 62
     6
100
AcDbLine
 10
870.957747
 20
1291.707107
 30
0.0
 11
893.478873
 21
1291.707107
 31
0.0
  0
ARC
  5
485
100
AcDbEntity
  8
化粧台
  6
EXLTYPE2
 62
     6
100
AcDbCircle
 10
906.65
 20
1307.04207
 30
0.0
 40
10.0
100
AcDbArc
 50
279.640243
 51
0.0
  0
ARC
  5
486
100
AcDbEntity
  8
化粧台
  6
EXLTYPE2
 62
     6
100
AcDbCircle
 10
910.978873
 20
1303.078234
 30
0.0
 40
37.371127
100
AcDbArc
 50
270.0
 51
0.0
  0
LINE
  5
487
100
AcDbEntity
  8
化粧台
  6
EXLTYPE2
 62
     6
100
AcDbLine
 10
948.35
 20
1332.057107
 30
0.0
 11
948.35
 21
1303.078234
 31
0.0
  0
LINE
  5
488
100
AcDbEntity
  8
化粧台
  6
CONTINUOUS
 62
     6
100
AcDbLine
 10
918.5
 20
1243.707107
 30
0.0
 11
932.5
 21
1243.707107
 31
0.0
  0
LINE
  5
489
100
AcDbEntity
  8
化粧台
  6
CONTINUOUS
 62
     6
100
AcDbLine
 10
932.5
 20
1238.707107
 30
0.0
 11
946.5
 21
1238.707107
 31
0.0
  0
POLYLINE
  5
48A
100
AcDbEntity
  8
化粧台
  6
EXLTYPE2
 62
     6
100
AcDb2dPolyline
 66
     1
 10
0.0
 20
0.0
 30
0.0
 70
   128
  0
VERTEX
  5
48B
100
AcDbEntity
  8
化粧台
  6
EXLTYPE2
 62
     6
100
AcDbVertex
100
AcDb2dVertex
 10
947.610051
 20
924.5
 30
0.0
  0
VERTEX
  5
48C
100
AcDbEntity
  8
化粧台
  6
EXLTYPE2
 62
     6
100
AcDbVertex
100
AcDb2dVertex
 10
950.0
 20
926.207107
 30
0.0
  0
VERTEX
  5
48D
100
AcDbEntity
  8
化粧台
  6
EXLTYPE2
 62
     6
100
AcDbVertex
100
AcDb2dVertex
 10
946.5
 20
928.707107
 30
0.0
  0
VERTEX
  5
48E
100
AcDbEntity
  8
化粧台
  6
EXLTYPE2
 62
     6
100
AcDbVertex
100
AcDb2dVertex
 10
950.0
 20
931.207107
 30
0.0
  0
VERTEX
  5
48F
100
AcDbEntity
  8
化粧台
  6
EXLTYPE2
 62
     6
100
AcDbVertex
100
AcDb2dVertex
 10
946.5
 20
933.707107
 30
0.0
  0
VERTEX
  5
490
100
AcDbEntity
  8
化粧台
  6
EXLTYPE2
 62
     6
100
AcDbVertex
100
AcDb2dVertex
 10
950.0
 20
936.207107
 30
0.0
  0
VERTEX
  5
491
100
AcDbEntity
  8
化粧台
  6
EXLTYPE2
 62
     6
100
AcDbVertex
100
AcDb2dVertex
 10
946.5
 20
938.707107
 30
0.0
  0
VERTEX
  5
492
100
AcDbEntity
  8
化粧台
  6
EXLTYPE2
 62
     6
100
AcDbVertex
100
AcDb2dVertex
 10
950.0
 20
941.207107
 30
0.0
  0
VERTEX
  5
493
100
AcDbEntity
  8
化粧台
  6
EXLTYPE2
 62
     6
100
AcDbVertex
100
AcDb2dVertex
 10
946.5
 20
943.707107
 30
0.0
  0
VERTEX
  5
494
100
AcDbEntity
  8
化粧台
  6
EXLTYPE2
 62
     6
100
AcDbVertex
100
AcDb2dVertex
 10
950.0
 20
946.207107
 30
0.0
  0
VERTEX
  5
495
100
AcDbEntity
  8
化粧台
  6
EXLTYPE2
 62
     6
100
AcDbVertex
100
AcDb2dVertex
 10
946.5
 20
948.707107
 30
0.0
  0
VERTEX
  5
496
100
AcDbEntity
  8
化粧台
  6
EXLTYPE2
 62
     6
100
AcDbVertex
100
AcDb2dVertex
 10
950.0
 20
951.207107
 30
0.0
  0
VERTEX
  5
497
100
AcDbEntity
  8
化粧台
  6
EXLTYPE2
 62
     6
100
AcDbVertex
100
AcDb2dVertex
 10
946.5
 20
953.707107
 30
0.0
  0
VERTEX
  5
498
100
AcDbEntity
  8
化粧台
  6
EXLTYPE2
 62
     6
100
AcDbVertex
100
AcDb2dVertex
 10
950.0
 20
956.207107
 30
0.0
  0
VERTEX
  5
499
100
AcDbEntity
  8
化粧台
  6
EXLTYPE2
 62
     6
100
AcDbVertex
100
AcDb2dVertex
 10
946.5
 20
958.707107
 30
0.0
  0
VERTEX
  5
49A
100
AcDbEntity
  8
化粧台
  6
EXLTYPE2
 62
     6
100
AcDbVertex
100
AcDb2dVertex
 10
950.0
 20
961.207107
 30
0.0
  0
VERTEX
  5
49B
100
AcDbEntity
  8
化粧台
  6
EXLTYPE2
 62
     6
100
AcDbVertex
100
AcDb2dVertex
 10
946.5
 20
963.707107
 30
0.0
  0
VERTEX
  5
49C
100
AcDbEntity
  8
化粧台
  6
EXLTYPE2
 62
     6
100
AcDbVertex
100
AcDb2dVertex
 10
950.0
 20
966.207107
 30
0.0
  0
VERTEX
  5
49D
100
AcDbEntity
  8
化粧台
  6
EXLTYPE2
 62
     6
100
AcDbVertex
100
AcDb2dVertex
 10
946.5
 20
968.707107
 30
0.0
  0
VERTEX
  5
49E
100
AcDbEntity
  8
化粧台
  6
EXLTYPE2
 62
     6
100
AcDbVertex
100
AcDb2dVertex
 10
950.0
 20
971.207107
 30
0.0
  0
VERTEX
  5
49F
100
AcDbEntity
  8
化粧台
  6
EXLTYPE2
 62
     6
100
AcDbVertex
100
AcDb2dVertex
 10
946.5
 20
973.707107
 30
0.0
  0
VERTEX
  5
4A0
100
AcDbEntity
  8
化粧台
  6
EXLTYPE2
 62
     6
100
AcDbVertex
100
AcDb2dVertex
 10
950.0
 20
976.207107
 30
0.0
  0
VERTEX
  5
4A1
100
AcDbEntity
  8
化粧台
  6
EXLTYPE2
 62
     6
100
AcDbVertex
100
AcDb2dVertex
 10
946.5
 20
978.707107
 30
0.0
  0
VERTEX
  5
4A2
100
AcDbEntity
  8
化粧台
  6
EXLTYPE2
 62
     6
100
AcDbVertex
100
AcDb2dVertex
 10
950.0
 20
981.207107
 30
0.0
  0
VERTEX
  5
4A3
100
AcDbEntity
  8
化粧台
  6
EXLTYPE2
 62
     6
100
AcDbVertex
100
AcDb2dVertex
 10
946.5
 20
983.707107
 30
0.0
  0
VERTEX
  5
4A4
100
AcDbEntity
  8
化粧台
  6
EXLTYPE2
 62
     6
100
AcDbVertex
100
AcDb2dVertex
 10
950.0
 20
986.207107
 30
0.0
  0
VERTEX
  5
4A5
100
AcDbEntity
  8
化粧台
  6
EXLTYPE2
 62
     6
100
AcDbVertex
100
AcDb2dVertex
 10
946.5
 20
988.707107
 30
0.0
  0
VERTEX
  5
4A6
100
AcDbEntity
  8
化粧台
  6
EXLTYPE2
 62
     6
100
AcDbVertex
100
AcDb2dVertex
 10
950.0
 20
991.207107
 30
0.0
  0
VERTEX
  5
4A7
100
AcDbEntity
  8
化粧台
  6
EXLTYPE2
 62
     6
100
AcDbVertex
100
AcDb2dVertex
 10
946.5
 20
993.707107
 30
0.0
  0
VERTEX
  5
4A8
100
AcDbEntity
  8
化粧台
  6
EXLTYPE2
 62
     6
100
AcDbVertex
100
AcDb2dVertex
 10
950.0
 20
996.207107
 30
0.0
  0
VERTEX
  5
4A9
100
AcDbEntity
  8
化粧台
  6
EXLTYPE2
 62
     6
100
AcDbVertex
100
AcDb2dVertex
 10
946.5
 20
998.707107
 30
0.0
  0
VERTEX
  5
4AA
100
AcDbEntity
  8
化粧台
  6
EXLTYPE2
 62
     6
100
AcDbVertex
100
AcDb2dVertex
 10
950.0
 20
1001.207107
 30
0.0
  0
VERTEX
  5
4AB
100
AcDbEntity
  8
化粧台
  6
EXLTYPE2
 62
     6
100
AcDbVertex
100
AcDb2dVertex
 10
946.5
 20
1003.707107
 30
0.0
  0
VERTEX
  5
4AC
100
AcDbEntity
  8
化粧台
  6
EXLTYPE2
 62
     6
100
AcDbVertex
100
AcDb2dVertex
 10
950.0
 20
1006.207107
 30
0.0
  0
VERTEX
  5
4AD
100
AcDbEntity
  8
化粧台
  6
EXLTYPE2
 62
     6
100
AcDbVertex
100
AcDb2dVertex
 10
946.5
 20
1008.707107
 30
0.0
  0
VERTEX
  5
4AE
100
AcDbEntity
  8
化粧台
  6
EXLTYPE2
 62
     6
100
AcDbVertex
100
AcDb2dVertex
 10
950.0
 20
1011.207107
 30
0.0
  0
VERTEX
  5
4AF
100
AcDbEntity
  8
化粧台
  6
EXLTYPE2
 62
     6
100
AcDbVertex
100
AcDb2dVertex
 10
946.5
 20
1013.707107
 30
0.0
  0
VERTEX
  5
4B0
100
AcDbEntity
  8
化粧台
  6
EXLTYPE2
 62
     6
100
AcDbVertex
100
AcDb2dVertex
 10
950.0
 20
1016.207107
 30
0.0
  0
VERTEX
  5
4B1
100
AcDbEntity
  8
化粧台
  6
EXLTYPE2
 62
     6
100
AcDbVertex
100
AcDb2dVertex
 10
946.5
 20
1018.707107
 30
0.0
  0
VERTEX
  5
4B2
100
AcDbEntity
  8
化粧台
  6
EXLTYPE2
 62
     6
100
AcDbVertex
100
AcDb2dVertex
 10
950.0
 20
1021.207107
 30
0.0
  0
VERTEX
  5
4B3
100
AcDbEntity
  8
化粧台
  6
EXLTYPE2
 62
     6
100
AcDbVertex
100
AcDb2dVertex
 10
946.5
 20
1023.707107
 30
0.0
  0
VERTEX
  5
4B4
100
AcDbEntity
  8
化粧台
  6
EXLTYPE2
 62
     6
100
AcDbVertex
100
AcDb2dVertex
 10
950.0
 20
1026.207107
 30
0.0
  0
VERTEX
  5
4B5
100
AcDbEntity
  8
化粧台
  6
EXLTYPE2
 62
     6
100
AcDbVertex
100
AcDb2dVertex
 10
946.5
 20
1028.707107
 30
0.0
  0
VERTEX
  5
4B6
100
AcDbEntity
  8
化粧台
  6
EXLTYPE2
 62
     6
100
AcDbVertex
100
AcDb2dVertex
 10
950.0
 20
1031.207107
 30
0.0
  0
VERTEX
  5
4B7
100
AcDbEntity
  8
化粧台
  6
EXLTYPE2
 62
     6
100
AcDbVertex
100
AcDb2dVertex
 10
946.5
 20
1033.707107
 30
0.0
  0
VERTEX
  5
4B8
100
AcDbEntity
  8
化粧台
  6
EXLTYPE2
 62
     6
100
AcDbVertex
100
AcDb2dVertex
 10
950.0
 20
1036.207107
 30
0.0
  0
VERTEX
  5
4B9
100
AcDbEntity
  8
化粧台
  6
EXLTYPE2
 62
     6
100
AcDbVertex
100
AcDb2dVertex
 10
946.5
 20
1038.707107
 30
0.0
  0
VERTEX
  5
4BA
100
AcDbEntity
  8
化粧台
  6
EXLTYPE2
 62
     6
100
AcDbVertex
100
AcDb2dVertex
 10
950.0
 20
1041.207107
 30
0.0
  0
VERTEX
  5
4BB
100
AcDbEntity
  8
化粧台
  6
EXLTYPE2
 62
     6
100
AcDbVertex
100
AcDb2dVertex
 10
946.5
 20
1043.707107
 30
0.0
  0
VERTEX
  5
4BC
100
AcDbEntity
  8
化粧台
  6
EXLTYPE2
 62
     6
100
AcDbVertex
100
AcDb2dVertex
 10
950.0
 20
1046.207107
 30
0.0
  0
VERTEX
  5
4BD
100
AcDbEntity
  8
化粧台
  6
EXLTYPE2
 62
     6
100
AcDbVertex
100
AcDb2dVertex
 10
946.5
 20
1048.707107
 30
0.0
  0
VERTEX
  5
4BE
100
AcDbEntity
  8
化粧台
  6
EXLTYPE2
 62
     6
100
AcDbVertex
100
AcDb2dVertex
 10
950.0
 20
1051.207107
 30
0.0
  0
VERTEX
  5
4BF
100
AcDbEntity
  8
化粧台
  6
EXLTYPE2
 62
     6
100
AcDbVertex
100
AcDb2dVertex
 10
946.5
 20
1053.707107
 30
0.0
  0
VERTEX
  5
4C0
100
AcDbEntity
  8
化粧台
  6
EXLTYPE2
 62
     6
100
AcDbVertex
100
AcDb2dVertex
 10
950.0
 20
1056.207107
 30
0.0
  0
VERTEX
  5
4C1
100
AcDbEntity
  8
化粧台
  6
EXLTYPE2
 62
     6
100
AcDbVertex
100
AcDb2dVertex
 10
946.5
 20
1058.707107
 30
0.0
  0
VERTEX
  5
4C2
100
AcDbEntity
  8
化粧台
  6
EXLTYPE2
 62
     6
100
AcDbVertex
100
AcDb2dVertex
 10
950.0
 20
1061.207107
 30
0.0
  0
VERTEX
  5
4C3
100
AcDbEntity
  8
化粧台
  6
EXLTYPE2
 62
     6
100
AcDbVertex
100
AcDb2dVertex
 10
946.5
 20
1063.707107
 30
0.0
  0
VERTEX
  5
4C4
100
AcDbEntity
  8
化粧台
  6
EXLTYPE2
 62
     6
100
AcDbVertex
100
AcDb2dVertex
 10
950.0
 20
1066.207107
 30
0.0
  0
VERTEX
  5
4C5
100
AcDbEntity
  8
化粧台
  6
EXLTYPE2
 62
     6
100
AcDbVertex
100
AcDb2dVertex
 10
946.5
 20
1068.707107
 30
0.0
  0
VERTEX
  5
4C6
100
AcDbEntity
  8
化粧台
  6
EXLTYPE2
 62
     6
100
AcDbVertex
100
AcDb2dVertex
 10
950.0
 20
1071.207107
 30
0.0
  0
VERTEX
  5
4C7
100
AcDbEntity
  8
化粧台
  6
EXLTYPE2
 62
     6
100
AcDbVertex
100
AcDb2dVertex
 10
946.5
 20
1073.707107
 30
0.0
  0
VERTEX
  5
4C8
100
AcDbEntity
  8
化粧台
  6
EXLTYPE2
 62
     6
100
AcDbVertex
100
AcDb2dVertex
 10
950.0
 20
1076.207107
 30
0.0
  0
VERTEX
  5
4C9
100
AcDbEntity
  8
化粧台
  6
EXLTYPE2
 62
     6
100
AcDbVertex
100
AcDb2dVertex
 10
946.5
 20
1078.707107
 30
0.0
  0
VERTEX
  5
4CA
100
AcDbEntity
  8
化粧台
  6
EXLTYPE2
 62
     6
100
AcDbVertex
100
AcDb2dVertex
 10
950.0
 20
1081.207107
 30
0.0
  0
VERTEX
  5
4CB
100
AcDbEntity
  8
化粧台
  6
EXLTYPE2
 62
     6
100
AcDbVertex
100
AcDb2dVertex
 10
946.5
 20
1083.707107
 30
0.0
  0
VERTEX
  5
4CC
100
AcDbEntity
  8
化粧台
  6
EXLTYPE2
 62
     6
100
AcDbVertex
100
AcDb2dVertex
 10
950.0
 20
1086.207107
 30
0.0
  0
VERTEX
  5
4CD
100
AcDbEntity
  8
化粧台
  6
EXLTYPE2
 62
     6
100
AcDbVertex
100
AcDb2dVertex
 10
946.5
 20
1088.707107
 30
0.0
  0
VERTEX
  5
4CE
100
AcDbEntity
  8
化粧台
  6
EXLTYPE2
 62
     6
100
AcDbVertex
100
AcDb2dVertex
 10
950.0
 20
1091.207107
 30
0.0
  0
VERTEX
  5
4CF
100
AcDbEntity
  8
化粧台
  6
EXLTYPE2
 62
     6
100
AcDbVertex
100
AcDb2dVertex
 10
946.5
 20
1093.707107
 30
0.0
  0
VERTEX
  5
4D0
100
AcDbEntity
  8
化粧台
  6
EXLTYPE2
 62
     6
100
AcDbVertex
100
AcDb2dVertex
 10
950.0
 20
1096.207107
 30
0.0
  0
VERTEX
  5
4D1
100
AcDbEntity
  8
化粧台
  6
EXLTYPE2
 62
     6
100
AcDbVertex
100
AcDb2dVertex
 10
946.5
 20
1098.707107
 30
0.0
  0
VERTEX
  5
4D2
100
AcDbEntity
  8
化粧台
  6
EXLTYPE2
 62
     6
100
AcDbVertex
100
AcDb2dVertex
 10
950.0
 20
1101.207107
 30
0.0
  0
VERTEX
  5
4D3
100
AcDbEntity
  8
化粧台
  6
EXLTYPE2
 62
     6
100
AcDbVertex
100
AcDb2dVertex
 10
946.5
 20
1103.707107
 30
0.0
  0
VERTEX
  5
4D4
100
AcDbEntity
  8
化粧台
  6
EXLTYPE2
 62
     6
100
AcDbVertex
100
AcDb2dVertex
 10
950.0
 20
1106.207107
 30
0.0
  0
VERTEX
  5
4D5
100
AcDbEntity
  8
化粧台
  6
EXLTYPE2
 62
     6
100
AcDbVertex
100
AcDb2dVertex
 10
946.5
 20
1108.707107
 30
0.0
  0
VERTEX
  5
4D6
100
AcDbEntity
  8
化粧台
  6
EXLTYPE2
 62
     6
100
AcDbVertex
100
AcDb2dVertex
 10
950.0
 20
1111.207107
 30
0.0
  0
VERTEX
  5
4D7
100
AcDbEntity
  8
化粧台
  6
EXLTYPE2
 62
     6
100
AcDbVertex
100
AcDb2dVertex
 10
946.5
 20
1113.707107
 30
0.0
  0
VERTEX
  5
4D8
100
AcDbEntity
  8
化粧台
  6
EXLTYPE2
 62
     6
100
AcDbVertex
100
AcDb2dVertex
 10
950.0
 20
1116.207107
 30
0.0
  0
VERTEX
  5
4D9
100
AcDbEntity
  8
化粧台
  6
EXLTYPE2
 62
     6
100
AcDbVertex
100
AcDb2dVertex
 10
946.5
 20
1118.707107
 30
0.0
  0
VERTEX
  5
4DA
100
AcDbEntity
  8
化粧台
  6
EXLTYPE2
 62
     6
100
AcDbVertex
100
AcDb2dVertex
 10
950.0
 20
1121.207107
 30
0.0
  0
VERTEX
  5
4DB
100
AcDbEntity
  8
化粧台
  6
EXLTYPE2
 62
     6
100
AcDbVertex
100
AcDb2dVertex
 10
946.5
 20
1123.707107
 30
0.0
  0
VERTEX
  5
4DC
100
AcDbEntity
  8
化粧台
  6
EXLTYPE2
 62
     6
100
AcDbVertex
100
AcDb2dVertex
 10
950.0
 20
1126.207107
 30
0.0
  0
VERTEX
  5
4DD
100
AcDbEntity
  8
化粧台
  6
EXLTYPE2
 62
     6
100
AcDbVertex
100
AcDb2dVertex
 10
946.5
 20
1128.707107
 30
0.0
  0
VERTEX
  5
4DE
100
AcDbEntity
  8
化粧台
  6
EXLTYPE2
 62
     6
100
AcDbVertex
100
AcDb2dVertex
 10
950.0
 20
1131.207107
 30
0.0
  0
VERTEX
  5
4DF
100
AcDbEntity
  8
化粧台
  6
EXLTYPE2
 62
     6
100
AcDbVertex
100
AcDb2dVertex
 10
946.5
 20
1133.707107
 30
0.0
  0
VERTEX
  5
4E0
100
AcDbEntity
  8
化粧台
  6
EXLTYPE2
 62
     6
100
AcDbVertex
100
AcDb2dVertex
 10
950.0
 20
1136.207107
 30
0.0
  0
VERTEX
  5
4E1
100
AcDbEntity
  8
化粧台
  6
EXLTYPE2
 62
     6
100
AcDbVertex
100
AcDb2dVertex
 10
946.5
 20
1138.707107
 30
0.0
  0
VERTEX
  5
4E2
100
AcDbEntity
  8
化粧台
  6
EXLTYPE2
 62
     6
100
AcDbVertex
100
AcDb2dVertex
 10
950.0
 20
1141.207107
 30
0.0
  0
VERTEX
  5
4E3
100
AcDbEntity
  8
化粧台
  6
EXLTYPE2
 62
     6
100
AcDbVertex
100
AcDb2dVertex
 10
946.5
 20
1143.707107
 30
0.0
  0
VERTEX
  5
4E4
100
AcDbEntity
  8
化粧台
  6
EXLTYPE2
 62
     6
100
AcDbVertex
100
AcDb2dVertex
 10
950.0
 20
1146.207107
 30
0.0
  0
VERTEX
  5
4E5
100
AcDbEntity
  8
化粧台
  6
EXLTYPE2
 62
     6
100
AcDbVertex
100
AcDb2dVertex
 10
946.5
 20
1148.707107
 30
0.0
  0
VERTEX
  5
4E6
100
AcDbEntity
  8
化粧台
  6
EXLTYPE2
 62
     6
100
AcDbVertex
100
AcDb2dVertex
 10
950.0
 20
1151.207107
 30
0.0
  0
VERTEX
  5
4E7
100
AcDbEntity
  8
化粧台
  6
EXLTYPE2
 62
     6
100
AcDbVertex
100
AcDb2dVertex
 10
946.5
 20
1153.707107
 30
0.0
  0
VERTEX
  5
4E8
100
AcDbEntity
  8
化粧台
  6
EXLTYPE2
 62
     6
100
AcDbVertex
100
AcDb2dVertex
 10
950.0
 20
1156.207107
 30
0.0
  0
VERTEX
  5
4E9
100
AcDbEntity
  8
化粧台
  6
EXLTYPE2
 62
     6
100
AcDbVertex
100
AcDb2dVertex
 10
946.5
 20
1158.707107
 30
0.0
  0
VERTEX
  5
4EA
100
AcDbEntity
  8
化粧台
  6
EXLTYPE2
 62
     6
100
AcDbVertex
100
AcDb2dVertex
 10
950.0
 20
1161.207107
 30
0.0
  0
VERTEX
  5
4EB
100
AcDbEntity
  8
化粧台
  6
EXLTYPE2
 62
     6
100
AcDbVertex
100
AcDb2dVertex
 10
946.5
 20
1163.707107
 30
0.0
  0
VERTEX
  5
4EC
100
AcDbEntity
  8
化粧台
  6
EXLTYPE2
 62
     6
100
AcDbVertex
100
AcDb2dVertex
 10
950.0
 20
1166.207107
 30
0.0
  0
VERTEX
  5
4ED
100
AcDbEntity
  8
化粧台
  6
EXLTYPE2
 62
     6
100
AcDbVertex
100
AcDb2dVertex
 10
946.5
 20
1168.707107
 30
0.0
  0
VERTEX
  5
4EE
100
AcDbEntity
  8
化粧台
  6
EXLTYPE2
 62
     6
100
AcDbVertex
100
AcDb2dVertex
 10
950.0
 20
1171.207107
 30
0.0
  0
VERTEX
  5
4EF
100
AcDbEntity
  8
化粧台
  6
EXLTYPE2
 62
     6
100
AcDbVertex
100
AcDb2dVertex
 10
946.5
 20
1173.707107
 30
0.0
  0
VERTEX
  5
4F0
100
AcDbEntity
  8
化粧台
  6
EXLTYPE2
 62
     6
100
AcDbVertex
100
AcDb2dVertex
 10
950.0
 20
1176.207107
 30
0.0
  0
VERTEX
  5
4F1
100
AcDbEntity
  8
化粧台
  6
EXLTYPE2
 62
     6
100
AcDbVertex
100
AcDb2dVertex
 10
946.5
 20
1178.707107
 30
0.0
  0
VERTEX
  5
4F2
100
AcDbEntity
  8
化粧台
  6
EXLTYPE2
 62
     6
100
AcDbVertex
100
AcDb2dVertex
 10
950.0
 20
1181.207107
 30
0.0
  0
VERTEX
  5
4F3
100
AcDbEntity
  8
化粧台
  6
EXLTYPE2
 62
     6
100
AcDbVertex
100
AcDb2dVertex
 10
946.5
 20
1183.707107
 30
0.0
  0
VERTEX
  5
4F4
100
AcDbEntity
  8
化粧台
  6
EXLTYPE2
 62
     6
100
AcDbVertex
100
AcDb2dVertex
 10
950.0
 20
1186.207107
 30
0.0
  0
VERTEX
  5
4F5
100
AcDbEntity
  8
化粧台
  6
EXLTYPE2
 62
     6
100
AcDbVertex
100
AcDb2dVertex
 10
946.5
 20
1188.707107
 30
0.0
  0
VERTEX
  5
4F6
100
AcDbEntity
  8
化粧台
  6
EXLTYPE2
 62
     6
100
AcDbVertex
100
AcDb2dVertex
 10
950.0
 20
1191.207107
 30
0.0
  0
VERTEX
  5
4F7
100
AcDbEntity
  8
化粧台
  6
EXLTYPE2
 62
     6
100
AcDbVertex
100
AcDb2dVertex
 10
946.5
 20
1193.707107
 30
0.0
  0
VERTEX
  5
4F8
100
AcDbEntity
  8
化粧台
  6
EXLTYPE2
 62
     6
100
AcDbVertex
100
AcDb2dVertex
 10
950.0
 20
1196.207107
 30
0.0
  0
VERTEX
  5
4F9
100
AcDbEntity
  8
化粧台
  6
EXLTYPE2
 62
     6
100
AcDbVertex
100
AcDb2dVertex
 10
946.5
 20
1198.707107
 30
0.0
  0
VERTEX
  5
4FA
100
AcDbEntity
  8
化粧台
  6
EXLTYPE2
 62
     6
100
AcDbVertex
100
AcDb2dVertex
 10
950.0
 20
1201.207107
 30
0.0
  0
VERTEX
  5
4FB
100
AcDbEntity
  8
化粧台
  6
EXLTYPE2
 62
     6
100
AcDbVertex
100
AcDb2dVertex
 10
946.5
 20
1203.707107
 30
0.0
  0
VERTEX
  5
4FC
100
AcDbEntity
  8
化粧台
  6
EXLTYPE2
 62
     6
100
AcDbVertex
100
AcDb2dVertex
 10
950.0
 20
1206.207107
 30
0.0
  0
VERTEX
  5
4FD
100
AcDbEntity
  8
化粧台
  6
EXLTYPE2
 62
     6
100
AcDbVertex
100
AcDb2dVertex
 10
946.5
 20
1208.707107
 30
0.0
  0
VERTEX
  5
4FE
100
AcDbEntity
  8
化粧台
  6
EXLTYPE2
 62
     6
100
AcDbVertex
100
AcDb2dVertex
 10
950.0
 20
1211.207107
 30
0.0
  0
VERTEX
  5
4FF
100
AcDbEntity
  8
化粧台
  6
EXLTYPE2
 62
     6
100
AcDbVertex
100
AcDb2dVertex
 10
946.5
 20
1213.707107
 30
0.0
  0
VERTEX
  5
500
100
AcDbEntity
  8
化粧台
  6
EXLTYPE2
 62
     6
100
AcDbVertex
100
AcDb2dVertex
 10
950.0
 20
1216.207107
 30
0.0
  0
VERTEX
  5
501
100
AcDbEntity
  8
化粧台
  6
EXLTYPE2
 62
     6
100
AcDbVertex
100
AcDb2dVertex
 10
946.5
 20
1218.707107
 30
0.0
  0
VERTEX
  5
502
100
AcDbEntity
  8
化粧台
  6
EXLTYPE2
 62
     6
100
AcDbVertex
100
AcDb2dVertex
 10
950.0
 20
1221.207107
 30
0.0
  0
VERTEX
  5
503
100
AcDbEntity
  8
化粧台
  6
EXLTYPE2
 62
     6
100
AcDbVertex
100
AcDb2dVertex
 10
946.5
 20
1223.707107
 30
0.0
  0
VERTEX
  5
504
100
AcDbEntity
  8
化粧台
  6
EXLTYPE2
 62
     6
100
AcDbVertex
100
AcDb2dVertex
 10
950.0
 20
1226.207107
 30
0.0
  0
VERTEX
  5
505
100
AcDbEntity
  8
化粧台
  6
EXLTYPE2
 62
     6
100
AcDbVertex
100
AcDb2dVertex
 10
946.5
 20
1228.707107
 30
0.0
  0
VERTEX
  5
506
100
AcDbEntity
  8
化粧台
  6
EXLTYPE2
 62
     6
100
AcDbVertex
100
AcDb2dVertex
 10
950.0
 20
1231.207107
 30
0.0
  0
VERTEX
  5
507
100
AcDbEntity
  8
化粧台
  6
EXLTYPE2
 62
     6
100
AcDbVertex
100
AcDb2dVertex
 10
946.5
 20
1233.707107
 30
0.0
  0
VERTEX
  5
508
100
AcDbEntity
  8
化粧台
  6
EXLTYPE2
 62
     6
100
AcDbVertex
100
AcDb2dVertex
 10
950.0
 20
1236.207107
 30
0.0
  0
VERTEX
  5
509
100
AcDbEntity
  8
化粧台
  6
EXLTYPE2
 62
     6
100
AcDbVertex
100
AcDb2dVertex
 10
946.5
 20
1238.707107
 30
0.0
  0
VERTEX
  5
50A
100
AcDbEntity
  8
化粧台
  6
EXLTYPE2
 62
     6
100
AcDbVertex
100
AcDb2dVertex
 10
950.0
 20
1241.207107
 30
0.0
  0
VERTEX
  5
50B
100
AcDbEntity
  8
化粧台
  6
EXLTYPE2
 62
     6
100
AcDbVertex
100
AcDb2dVertex
 10
946.5
 20
1243.707107
 30
0.0
  0
VERTEX
  5
50C
100
AcDbEntity
  8
化粧台
  6
EXLTYPE2
 62
     6
100
AcDbVertex
100
AcDb2dVertex
 10
950.0
 20
1246.207107
 30
0.0
  0
VERTEX
  5
50D
100
AcDbEntity
  8
化粧台
  6
EXLTYPE2
 62
     6
100
AcDbVertex
100
AcDb2dVertex
 10
946.5
 20
1248.707107
 30
0.0
  0
VERTEX
  5
50E
100
AcDbEntity
  8
化粧台
  6
EXLTYPE2
 62
     6
100
AcDbVertex
100
AcDb2dVertex
 10
950.0
 20
1251.207107
 30
0.0
  0
VERTEX
  5
50F
100
AcDbEntity
  8
化粧台
  6
EXLTYPE2
 62
     6
100
AcDbVertex
100
AcDb2dVertex
 10
946.5
 20
1253.707107
 30
0.0
  0
VERTEX
  5
510
100
AcDbEntity
  8
化粧台
  6
EXLTYPE2
 62
     6
100
AcDbVertex
100
AcDb2dVertex
 10
950.0
 20
1256.207107
 30
0.0
  0
VERTEX
  5
511
100
AcDbEntity
  8
化粧台
  6
EXLTYPE2
 62
     6
100
AcDbVertex
100
AcDb2dVertex
 10
946.5
 20
1258.707107
 30
0.0
  0
VERTEX
  5
512
100
AcDbEntity
  8
化粧台
  6
EXLTYPE2
 62
     6
100
AcDbVertex
100
AcDb2dVertex
 10
950.0
 20
1261.207107
 30
0.0
  0
VERTEX
  5
513
100
AcDbEntity
  8
化粧台
  6
EXLTYPE2
 62
     6
100
AcDbVertex
100
AcDb2dVertex
 10
946.5
 20
1263.707107
 30
0.0
  0
VERTEX
  5
514
100
AcDbEntity
  8
化粧台
  6
EXLTYPE2
 62
     6
100
AcDbVertex
100
AcDb2dVertex
 10
950.0
 20
1266.207107
 30
0.0
  0
VERTEX
  5
515
100
AcDbEntity
  8
化粧台
  6
EXLTYPE2
 62
     6
100
AcDbVertex
100
AcDb2dVertex
 10
946.5
 20
1268.707107
 30
0.0
  0
VERTEX
  5
516
100
AcDbEntity
  8
化粧台
  6
EXLTYPE2
 62
     6
100
AcDbVertex
100
AcDb2dVertex
 10
950.0
 20
1271.207107
 30
0.0
  0
VERTEX
  5
517
100
AcDbEntity
  8
化粧台
  6
EXLTYPE2
 62
     6
100
AcDbVertex
100
AcDb2dVertex
 10
946.5
 20
1273.707107
 30
0.0
  0
VERTEX
  5
518
100
AcDbEntity
  8
化粧台
  6
EXLTYPE2
 62
     6
100
AcDbVertex
100
AcDb2dVertex
 10
950.0
 20
1276.207107
 30
0.0
  0
VERTEX
  5
519
100
AcDbEntity
  8
化粧台
  6
EXLTYPE2
 62
     6
100
AcDbVertex
100
AcDb2dVertex
 10
946.5
 20
1278.707107
 30
0.0
  0
VERTEX
  5
51A
100
AcDbEntity
  8
化粧台
  6
EXLTYPE2
 62
     6
100
AcDbVertex
100
AcDb2dVertex
 10
950.0
 20
1281.207107
 30
0.0
  0
VERTEX
  5
51B
100
AcDbEntity
  8
化粧台
  6
EXLTYPE2
 62
     6
100
AcDbVertex
100
AcDb2dVertex
 10
946.5
 20
1283.707107
 30
0.0
  0
VERTEX
  5
51C
100
AcDbEntity
  8
化粧台
  6
EXLTYPE2
 62
     6
100
AcDbVertex
100
AcDb2dVertex
 10
950.0
 20
1286.207107
 30
0.0
  0
VERTEX
  5
51D
100
AcDbEntity
  8
化粧台
  6
EXLTYPE2
 62
     6
100
AcDbVertex
100
AcDb2dVertex
 10
946.5
 20
1288.707107
 30
0.0
  0
VERTEX
  5
51E
100
AcDbEntity
  8
化粧台
  6
EXLTYPE2
 62
     6
100
AcDbVertex
100
AcDb2dVertex
 10
950.0
 20
1291.207107
 30
0.0
  0
VERTEX
  5
51F
100
AcDbEntity
  8
化粧台
  6
EXLTYPE2
 62
     6
100
AcDbVertex
100
AcDb2dVertex
 10
946.5
 20
1293.707107
 30
0.0
  0
VERTEX
  5
520
100
AcDbEntity
  8
化粧台
  6
EXLTYPE2
 62
     6
100
AcDbVertex
100
AcDb2dVertex
 10
950.0
 20
1296.207107
 30
0.0
  0
VERTEX
  5
521
100
AcDbEntity
  8
化粧台
  6
EXLTYPE2
 62
     6
100
AcDbVertex
100
AcDb2dVertex
 10
946.5
 20
1298.707107
 30
0.0
  0
VERTEX
  5
522
100
AcDbEntity
  8
化粧台
  6
EXLTYPE2
 62
     6
100
AcDbVertex
100
AcDb2dVertex
 10
950.0
 20
1301.207107
 30
0.0
  0
VERTEX
  5
523
100
AcDbEntity
  8
化粧台
  6
EXLTYPE2
 62
     6
100
AcDbVertex
100
AcDb2dVertex
 10
948.343666
 20
1302.390203
 30
0.0
  0
SEQEND
  5
524
100
AcDbEntity
  8
化粧台
  6
EXLTYPE2
 62
     6
  0
POLYLINE
  5
525
100
AcDbEntity
  8
化粧台
  6
EXLTYPE2
 62
     6
100
AcDb2dPolyline
 66
     1
 10
0.0
 20
0.0
 30
0.0
 70
   128
  0
VERTEX
  5
526
100
AcDbEntity
  8
化粧台
  6
EXLTYPE2
 62
     6
100
AcDbVertex
100
AcDb2dVertex
 10
917.389949
 20
924.5
 30
0.0
  0
VERTEX
  5
527
100
AcDbEntity
  8
化粧台
  6
EXLTYPE2
 62
     6
100
AcDbVertex
100
AcDb2dVertex
 10
915.0
 20
926.207107
 30
0.0
  0
VERTEX
  5
528
100
AcDbEntity
  8
化粧台
  6
EXLTYPE2
 62
     6
100
AcDbVertex
100
AcDb2dVertex
 10
918.5
 20
928.707107
 30
0.0
  0
VERTEX
  5
529
100
AcDbEntity
  8
化粧台
  6
EXLTYPE2
 62
     6
100
AcDbVertex
100
AcDb2dVertex
 10
915.0
 20
931.207107
 30
0.0
  0
VERTEX
  5
52A
100
AcDbEntity
  8
化粧台
  6
EXLTYPE2
 62
     6
100
AcDbVertex
100
AcDb2dVertex
 10
918.5
 20
933.707107
 30
0.0
  0
VERTEX
  5
52B
100
AcDbEntity
  8
化粧台
  6
EXLTYPE2
 62
     6
100
AcDbVertex
100
AcDb2dVertex
 10
915.0
 20
936.207107
 30
0.0
  0
VERTEX
  5
52C
100
AcDbEntity
  8
化粧台
  6
EXLTYPE2
 62
     6
100
AcDbVertex
100
AcDb2dVertex
 10
918.5
 20
938.707107
 30
0.0
  0
VERTEX
  5
52D
100
AcDbEntity
  8
化粧台
  6
EXLTYPE2
 62
     6
100
AcDbVertex
100
AcDb2dVertex
 10
915.0
 20
941.207107
 30
0.0
  0
VERTEX
  5
52E
100
AcDbEntity
  8
化粧台
  6
EXLTYPE2
 62
     6
100
AcDbVertex
100
AcDb2dVertex
 10
918.5
 20
943.707107
 30
0.0
  0
VERTEX
  5
52F
100
AcDbEntity
  8
化粧台
  6
EXLTYPE2
 62
     6
100
AcDbVertex
100
AcDb2dVertex
 10
915.0
 20
946.207107
 30
0.0
  0
VERTEX
  5
530
100
AcDbEntity
  8
化粧台
  6
EXLTYPE2
 62
     6
100
AcDbVertex
100
AcDb2dVertex
 10
918.5
 20
948.707107
 30
0.0
  0
VERTEX
  5
531
100
AcDbEntity
  8
化粧台
  6
EXLTYPE2
 62
     6
100
AcDbVertex
100
AcDb2dVertex
 10
915.0
 20
951.207107
 30
0.0
  0
VERTEX
  5
532
100
AcDbEntity
  8
化粧台
  6
EXLTYPE2
 62
     6
100
AcDbVertex
100
AcDb2dVertex
 10
918.5
 20
953.707107
 30
0.0
  0
VERTEX
  5
533
100
AcDbEntity
  8
化粧台
  6
EXLTYPE2
 62
     6
100
AcDbVertex
100
AcDb2dVertex
 10
915.0
 20
956.207107
 30
0.0
  0
VERTEX
  5
534
100
AcDbEntity
  8
化粧台
  6
EXLTYPE2
 62
     6
100
AcDbVertex
100
AcDb2dVertex
 10
918.5
 20
958.707107
 30
0.0
  0
VERTEX
  5
535
100
AcDbEntity
  8
化粧台
  6
EXLTYPE2
 62
     6
100
AcDbVertex
100
AcDb2dVertex
 10
915.0
 20
961.207107
 30
0.0
  0
VERTEX
  5
536
100
AcDbEntity
  8
化粧台
  6
EXLTYPE2
 62
     6
100
AcDbVertex
100
AcDb2dVertex
 10
918.5
 20
963.707107
 30
0.0
  0
VERTEX
  5
537
100
AcDbEntity
  8
化粧台
  6
EXLTYPE2
 62
     6
100
AcDbVertex
100
AcDb2dVertex
 10
915.0
 20
966.207107
 30
0.0
  0
VERTEX
  5
538
100
AcDbEntity
  8
化粧台
  6
EXLTYPE2
 62
     6
100
AcDbVertex
100
AcDb2dVertex
 10
918.5
 20
968.707107
 30
0.0
  0
VERTEX
  5
539
100
AcDbEntity
  8
化粧台
  6
EXLTYPE2
 62
     6
100
AcDbVertex
100
AcDb2dVertex
 10
915.0
 20
971.207107
 30
0.0
  0
VERTEX
  5
53A
100
AcDbEntity
  8
化粧台
  6
EXLTYPE2
 62
     6
100
AcDbVertex
100
AcDb2dVertex
 10
918.5
 20
973.707107
 30
0.0
  0
VERTEX
  5
53B
100
AcDbEntity
  8
化粧台
  6
EXLTYPE2
 62
     6
100
AcDbVertex
100
AcDb2dVertex
 10
915.0
 20
976.207107
 30
0.0
  0
VERTEX
  5
53C
100
AcDbEntity
  8
化粧台
  6
EXLTYPE2
 62
     6
100
AcDbVertex
100
AcDb2dVertex
 10
918.5
 20
978.707107
 30
0.0
  0
VERTEX
  5
53D
100
AcDbEntity
  8
化粧台
  6
EXLTYPE2
 62
     6
100
AcDbVertex
100
AcDb2dVertex
 10
915.0
 20
981.207107
 30
0.0
  0
VERTEX
  5
53E
100
AcDbEntity
  8
化粧台
  6
EXLTYPE2
 62
     6
100
AcDbVertex
100
AcDb2dVertex
 10
918.5
 20
983.707107
 30
0.0
  0
VERTEX
  5
53F
100
AcDbEntity
  8
化粧台
  6
EXLTYPE2
 62
     6
100
AcDbVertex
100
AcDb2dVertex
 10
915.0
 20
986.207107
 30
0.0
  0
VERTEX
  5
540
100
AcDbEntity
  8
化粧台
  6
EXLTYPE2
 62
     6
100
AcDbVertex
100
AcDb2dVertex
 10
918.5
 20
988.707107
 30
0.0
  0
VERTEX
  5
541
100
AcDbEntity
  8
化粧台
  6
EXLTYPE2
 62
     6
100
AcDbVertex
100
AcDb2dVertex
 10
915.0
 20
991.207107
 30
0.0
  0
VERTEX
  5
542
100
AcDbEntity
  8
化粧台
  6
EXLTYPE2
 62
     6
100
AcDbVertex
100
AcDb2dVertex
 10
918.5
 20
993.707107
 30
0.0
  0
VERTEX
  5
543
100
AcDbEntity
  8
化粧台
  6
EXLTYPE2
 62
     6
100
AcDbVertex
100
AcDb2dVertex
 10
915.0
 20
996.207107
 30
0.0
  0
VERTEX
  5
544
100
AcDbEntity
  8
化粧台
  6
EXLTYPE2
 62
     6
100
AcDbVertex
100
AcDb2dVertex
 10
918.5
 20
998.707107
 30
0.0
  0
VERTEX
  5
545
100
AcDbEntity
  8
化粧台
  6
EXLTYPE2
 62
     6
100
AcDbVertex
100
AcDb2dVertex
 10
915.0
 20
1001.207107
 30
0.0
  0
VERTEX
  5
546
100
AcDbEntity
  8
化粧台
  6
EXLTYPE2
 62
     6
100
AcDbVertex
100
AcDb2dVertex
 10
918.5
 20
1003.707107
 30
0.0
  0
VERTEX
  5
547
100
AcDbEntity
  8
化粧台
  6
EXLTYPE2
 62
     6
100
AcDbVertex
100
AcDb2dVertex
 10
915.0
 20
1006.207107
 30
0.0
  0
VERTEX
  5
548
100
AcDbEntity
  8
化粧台
  6
EXLTYPE2
 62
     6
100
AcDbVertex
100
AcDb2dVertex
 10
918.5
 20
1008.707107
 30
0.0
  0
VERTEX
  5
549
100
AcDbEntity
  8
化粧台
  6
EXLTYPE2
 62
     6
100
AcDbVertex
100
AcDb2dVertex
 10
915.0
 20
1011.207107
 30
0.0
  0
VERTEX
  5
54A
100
AcDbEntity
  8
化粧台
  6
EXLTYPE2
 62
     6
100
AcDbVertex
100
AcDb2dVertex
 10
918.5
 20
1013.707107
 30
0.0
  0
VERTEX
  5
54B
100
AcDbEntity
  8
化粧台
  6
EXLTYPE2
 62
     6
100
AcDbVertex
100
AcDb2dVertex
 10
915.0
 20
1016.207107
 30
0.0
  0
VERTEX
  5
54C
100
AcDbEntity
  8
化粧台
  6
EXLTYPE2
 62
     6
100
AcDbVertex
100
AcDb2dVertex
 10
918.5
 20
1018.707107
 30
0.0
  0
VERTEX
  5
54D
100
AcDbEntity
  8
化粧台
  6
EXLTYPE2
 62
     6
100
AcDbVertex
100
AcDb2dVertex
 10
915.0
 20
1021.207107
 30
0.0
  0
VERTEX
  5
54E
100
AcDbEntity
  8
化粧台
  6
EXLTYPE2
 62
     6
100
AcDbVertex
100
AcDb2dVertex
 10
918.5
 20
1023.707107
 30
0.0
  0
VERTEX
  5
54F
100
AcDbEntity
  8
化粧台
  6
EXLTYPE2
 62
     6
100
AcDbVertex
100
AcDb2dVertex
 10
915.0
 20
1026.207107
 30
0.0
  0
VERTEX
  5
550
100
AcDbEntity
  8
化粧台
  6
EXLTYPE2
 62
     6
100
AcDbVertex
100
AcDb2dVertex
 10
918.5
 20
1028.707107
 30
0.0
  0
VERTEX
  5
551
100
AcDbEntity
  8
化粧台
  6
EXLTYPE2
 62
     6
100
AcDbVertex
100
AcDb2dVertex
 10
915.0
 20
1031.207107
 30
0.0
  0
VERTEX
  5
552
100
AcDbEntity
  8
化粧台
  6
EXLTYPE2
 62
     6
100
AcDbVertex
100
AcDb2dVertex
 10
918.5
 20
1033.707107
 30
0.0
  0
VERTEX
  5
553
100
AcDbEntity
  8
化粧台
  6
EXLTYPE2
 62
     6
100
AcDbVertex
100
AcDb2dVertex
 10
915.0
 20
1036.207107
 30
0.0
  0
VERTEX
  5
554
100
AcDbEntity
  8
化粧台
  6
EXLTYPE2
 62
     6
100
AcDbVertex
100
AcDb2dVertex
 10
918.5
 20
1038.707107
 30
0.0
  0
VERTEX
  5
555
100
AcDbEntity
  8
化粧台
  6
EXLTYPE2
 62
     6
100
AcDbVertex
100
AcDb2dVertex
 10
915.0
 20
1041.207107
 30
0.0
  0
VERTEX
  5
556
100
AcDbEntity
  8
化粧台
  6
EXLTYPE2
 62
     6
100
AcDbVertex
100
AcDb2dVertex
 10
918.5
 20
1043.707107
 30
0.0
  0
VERTEX
  5
557
100
AcDbEntity
  8
化粧台
  6
EXLTYPE2
 62
     6
100
AcDbVertex
100
AcDb2dVertex
 10
915.0
 20
1046.207107
 30
0.0
  0
VERTEX
  5
558
100
AcDbEntity
  8
化粧台
  6
EXLTYPE2
 62
     6
100
AcDbVertex
100
AcDb2dVertex
 10
918.5
 20
1048.707107
 30
0.0
  0
VERTEX
  5
559
100
AcDbEntity
  8
化粧台
  6
EXLTYPE2
 62
     6
100
AcDbVertex
100
AcDb2dVertex
 10
915.0
 20
1051.207107
 30
0.0
  0
VERTEX
  5
55A
100
AcDbEntity
  8
化粧台
  6
EXLTYPE2
 62
     6
100
AcDbVertex
100
AcDb2dVertex
 10
918.5
 20
1053.707107
 30
0.0
  0
VERTEX
  5
55B
100
AcDbEntity
  8
化粧台
  6
EXLTYPE2
 62
     6
100
AcDbVertex
100
AcDb2dVertex
 10
915.0
 20
1056.207107
 30
0.0
  0
VERTEX
  5
55C
100
AcDbEntity
  8
化粧台
  6
EXLTYPE2
 62
     6
100
AcDbVertex
100
AcDb2dVertex
 10
918.5
 20
1058.707107
 30
0.0
  0
VERTEX
  5
55D
100
AcDbEntity
  8
化粧台
  6
EXLTYPE2
 62
     6
100
AcDbVertex
100
AcDb2dVertex
 10
915.0
 20
1061.207107
 30
0.0
  0
VERTEX
  5
55E
100
AcDbEntity
  8
化粧台
  6
EXLTYPE2
 62
     6
100
AcDbVertex
100
AcDb2dVertex
 10
918.5
 20
1063.707107
 30
0.0
  0
VERTEX
  5
55F
100
AcDbEntity
  8
化粧台
  6
EXLTYPE2
 62
     6
100
AcDbVertex
100
AcDb2dVertex
 10
915.0
 20
1066.207107
 30
0.0
  0
VERTEX
  5
560
100
AcDbEntity
  8
化粧台
  6
EXLTYPE2
 62
     6
100
AcDbVertex
100
AcDb2dVertex
 10
918.5
 20
1068.707107
 30
0.0
  0
VERTEX
  5
561
100
AcDbEntity
  8
化粧台
  6
EXLTYPE2
 62
     6
100
AcDbVertex
100
AcDb2dVertex
 10
915.0
 20
1071.207107
 30
0.0
  0
VERTEX
  5
562
100
AcDbEntity
  8
化粧台
  6
EXLTYPE2
 62
     6
100
AcDbVertex
100
AcDb2dVertex
 10
918.5
 20
1073.707107
 30
0.0
  0
VERTEX
  5
563
100
AcDbEntity
  8
化粧台
  6
EXLTYPE2
 62
     6
100
AcDbVertex
100
AcDb2dVertex
 10
915.0
 20
1076.207107
 30
0.0
  0
VERTEX
  5
564
100
AcDbEntity
  8
化粧台
  6
EXLTYPE2
 62
     6
100
AcDbVertex
100
AcDb2dVertex
 10
918.5
 20
1078.707107
 30
0.0
  0
VERTEX
  5
565
100
AcDbEntity
  8
化粧台
  6
EXLTYPE2
 62
     6
100
AcDbVertex
100
AcDb2dVertex
 10
915.0
 20
1081.207107
 30
0.0
  0
VERTEX
  5
566
100
AcDbEntity
  8
化粧台
  6
EXLTYPE2
 62
     6
100
AcDbVertex
100
AcDb2dVertex
 10
918.5
 20
1083.707107
 30
0.0
  0
VERTEX
  5
567
100
AcDbEntity
  8
化粧台
  6
EXLTYPE2
 62
     6
100
AcDbVertex
100
AcDb2dVertex
 10
915.0
 20
1086.207107
 30
0.0
  0
VERTEX
  5
568
100
AcDbEntity
  8
化粧台
  6
EXLTYPE2
 62
     6
100
AcDbVertex
100
AcDb2dVertex
 10
918.5
 20
1088.707107
 30
0.0
  0
VERTEX
  5
569
100
AcDbEntity
  8
化粧台
  6
EXLTYPE2
 62
     6
100
AcDbVertex
100
AcDb2dVertex
 10
915.0
 20
1091.207107
 30
0.0
  0
VERTEX
  5
56A
100
AcDbEntity
  8
化粧台
  6
EXLTYPE2
 62
     6
100
AcDbVertex
100
AcDb2dVertex
 10
918.5
 20
1093.707107
 30
0.0
  0
VERTEX
  5
56B
100
AcDbEntity
  8
化粧台
  6
EXLTYPE2
 62
     6
100
AcDbVertex
100
AcDb2dVertex
 10
915.0
 20
1096.207107
 30
0.0
  0
VERTEX
  5
56C
100
AcDbEntity
  8
化粧台
  6
EXLTYPE2
 62
     6
100
AcDbVertex
100
AcDb2dVertex
 10
918.5
 20
1098.707107
 30
0.0
  0
VERTEX
  5
56D
100
AcDbEntity
  8
化粧台
  6
EXLTYPE2
 62
     6
100
AcDbVertex
100
AcDb2dVertex
 10
915.0
 20
1101.207107
 30
0.0
  0
VERTEX
  5
56E
100
AcDbEntity
  8
化粧台
  6
EXLTYPE2
 62
     6
100
AcDbVertex
100
AcDb2dVertex
 10
918.5
 20
1103.707107
 30
0.0
  0
VERTEX
  5
56F
100
AcDbEntity
  8
化粧台
  6
EXLTYPE2
 62
     6
100
AcDbVertex
100
AcDb2dVertex
 10
915.0
 20
1106.207107
 30
0.0
  0
VERTEX
  5
570
100
AcDbEntity
  8
化粧台
  6
EXLTYPE2
 62
     6
100
AcDbVertex
100
AcDb2dVertex
 10
918.5
 20
1108.707107
 30
0.0
  0
VERTEX
  5
571
100
AcDbEntity
  8
化粧台
  6
EXLTYPE2
 62
     6
100
AcDbVertex
100
AcDb2dVertex
 10
915.0
 20
1111.207107
 30
0.0
  0
VERTEX
  5
572
100
AcDbEntity
  8
化粧台
  6
EXLTYPE2
 62
     6
100
AcDbVertex
100
AcDb2dVertex
 10
918.5
 20
1113.707107
 30
0.0
  0
VERTEX
  5
573
100
AcDbEntity
  8
化粧台
  6
EXLTYPE2
 62
     6
100
AcDbVertex
100
AcDb2dVertex
 10
915.0
 20
1116.207107
 30
0.0
  0
VERTEX
  5
574
100
AcDbEntity
  8
化粧台
  6
EXLTYPE2
 62
     6
100
AcDbVertex
100
AcDb2dVertex
 10
918.5
 20
1118.707107
 30
0.0
  0
VERTEX
  5
575
100
AcDbEntity
  8
化粧台
  6
EXLTYPE2
 62
     6
100
AcDbVertex
100
AcDb2dVertex
 10
915.0
 20
1121.207107
 30
0.0
  0
VERTEX
  5
576
100
AcDbEntity
  8
化粧台
  6
EXLTYPE2
 62
     6
100
AcDbVertex
100
AcDb2dVertex
 10
918.5
 20
1123.707107
 30
0.0
  0
VERTEX
  5
577
100
AcDbEntity
  8
化粧台
  6
EXLTYPE2
 62
     6
100
AcDbVertex
100
AcDb2dVertex
 10
915.0
 20
1126.207107
 30
0.0
  0
VERTEX
  5
578
100
AcDbEntity
  8
化粧台
  6
EXLTYPE2
 62
     6
100
AcDbVertex
100
AcDb2dVertex
 10
918.5
 20
1128.707107
 30
0.0
  0
VERTEX
  5
579
100
AcDbEntity
  8
化粧台
  6
EXLTYPE2
 62
     6
100
AcDbVertex
100
AcDb2dVertex
 10
915.0
 20
1131.207107
 30
0.0
  0
VERTEX
  5
57A
100
AcDbEntity
  8
化粧台
  6
EXLTYPE2
 62
     6
100
AcDbVertex
100
AcDb2dVertex
 10
918.5
 20
1133.707107
 30
0.0
  0
VERTEX
  5
57B
100
AcDbEntity
  8
化粧台
  6
EXLTYPE2
 62
     6
100
AcDbVertex
100
AcDb2dVertex
 10
915.0
 20
1136.207107
 30
0.0
  0
VERTEX
  5
57C
100
AcDbEntity
  8
化粧台
  6
EXLTYPE2
 62
     6
100
AcDbVertex
100
AcDb2dVertex
 10
918.5
 20
1138.707107
 30
0.0
  0
VERTEX
  5
57D
100
AcDbEntity
  8
化粧台
  6
EXLTYPE2
 62
     6
100
AcDbVertex
100
AcDb2dVertex
 10
915.0
 20
1141.207107
 30
0.0
  0
VERTEX
  5
57E
100
AcDbEntity
  8
化粧台
  6
EXLTYPE2
 62
     6
100
AcDbVertex
100
AcDb2dVertex
 10
918.5
 20
1143.707107
 30
0.0
  0
VERTEX
  5
57F
100
AcDbEntity
  8
化粧台
  6
EXLTYPE2
 62
     6
100
AcDbVertex
100
AcDb2dVertex
 10
915.0
 20
1146.207107
 30
0.0
  0
VERTEX
  5
580
100
AcDbEntity
  8
化粧台
  6
EXLTYPE2
 62
     6
100
AcDbVertex
100
AcDb2dVertex
 10
918.5
 20
1148.707107
 30
0.0
  0
VERTEX
  5
581
100
AcDbEntity
  8
化粧台
  6
EXLTYPE2
 62
     6
100
AcDbVertex
100
AcDb2dVertex
 10
915.0
 20
1151.207107
 30
0.0
  0
VERTEX
  5
582
100
AcDbEntity
  8
化粧台
  6
EXLTYPE2
 62
     6
100
AcDbVertex
100
AcDb2dVertex
 10
918.5
 20
1153.707107
 30
0.0
  0
VERTEX
  5
583
100
AcDbEntity
  8
化粧台
  6
EXLTYPE2
 62
     6
100
AcDbVertex
100
AcDb2dVertex
 10
915.0
 20
1156.207107
 30
0.0
  0
VERTEX
  5
584
100
AcDbEntity
  8
化粧台
  6
EXLTYPE2
 62
     6
100
AcDbVertex
100
AcDb2dVertex
 10
918.5
 20
1158.707107
 30
0.0
  0
VERTEX
  5
585
100
AcDbEntity
  8
化粧台
  6
EXLTYPE2
 62
     6
100
AcDbVertex
100
AcDb2dVertex
 10
915.0
 20
1161.207107
 30
0.0
  0
VERTEX
  5
586
100
AcDbEntity
  8
化粧台
  6
EXLTYPE2
 62
     6
100
AcDbVertex
100
AcDb2dVertex
 10
918.5
 20
1163.707107
 30
0.0
  0
VERTEX
  5
587
100
AcDbEntity
  8
化粧台
  6
EXLTYPE2
 62
     6
100
AcDbVertex
100
AcDb2dVertex
 10
915.0
 20
1166.207107
 30
0.0
  0
VERTEX
  5
588
100
AcDbEntity
  8
化粧台
  6
EXLTYPE2
 62
     6
100
AcDbVertex
100
AcDb2dVertex
 10
918.5
 20
1168.707107
 30
0.0
  0
VERTEX
  5
589
100
AcDbEntity
  8
化粧台
  6
EXLTYPE2
 62
     6
100
AcDbVertex
100
AcDb2dVertex
 10
915.0
 20
1171.207107
 30
0.0
  0
VERTEX
  5
58A
100
AcDbEntity
  8
化粧台
  6
EXLTYPE2
 62
     6
100
AcDbVertex
100
AcDb2dVertex
 10
918.5
 20
1173.707107
 30
0.0
  0
VERTEX
  5
58B
100
AcDbEntity
  8
化粧台
  6
EXLTYPE2
 62
     6
100
AcDbVertex
100
AcDb2dVertex
 10
915.0
 20
1176.207107
 30
0.0
  0
VERTEX
  5
58C
100
AcDbEntity
  8
化粧台
  6
EXLTYPE2
 62
     6
100
AcDbVertex
100
AcDb2dVertex
 10
918.5
 20
1178.707107
 30
0.0
  0
VERTEX
  5
58D
100
AcDbEntity
  8
化粧台
  6
EXLTYPE2
 62
     6
100
AcDbVertex
100
AcDb2dVertex
 10
915.0
 20
1181.207107
 30
0.0
  0
VERTEX
  5
58E
100
AcDbEntity
  8
化粧台
  6
EXLTYPE2
 62
     6
100
AcDbVertex
100
AcDb2dVertex
 10
918.5
 20
1183.707107
 30
0.0
  0
VERTEX
  5
58F
100
AcDbEntity
  8
化粧台
  6
EXLTYPE2
 62
     6
100
AcDbVertex
100
AcDb2dVertex
 10
915.0
 20
1186.207107
 30
0.0
  0
VERTEX
  5
590
100
AcDbEntity
  8
化粧台
  6
EXLTYPE2
 62
     6
100
AcDbVertex
100
AcDb2dVertex
 10
918.5
 20
1188.707107
 30
0.0
  0
VERTEX
  5
591
100
AcDbEntity
  8
化粧台
  6
EXLTYPE2
 62
     6
100
AcDbVertex
100
AcDb2dVertex
 10
915.0
 20
1191.207107
 30
0.0
  0
VERTEX
  5
592
100
AcDbEntity
  8
化粧台
  6
EXLTYPE2
 62
     6
100
AcDbVertex
100
AcDb2dVertex
 10
918.5
 20
1193.707107
 30
0.0
  0
VERTEX
  5
593
100
AcDbEntity
  8
化粧台
  6
EXLTYPE2
 62
     6
100
AcDbVertex
100
AcDb2dVertex
 10
915.0
 20
1196.207107
 30
0.0
  0
VERTEX
  5
594
100
AcDbEntity
  8
化粧台
  6
EXLTYPE2
 62
     6
100
AcDbVertex
100
AcDb2dVertex
 10
918.5
 20
1198.707107
 30
0.0
  0
VERTEX
  5
595
100
AcDbEntity
  8
化粧台
  6
EXLTYPE2
 62
     6
100
AcDbVertex
100
AcDb2dVertex
 10
915.0
 20
1201.207107
 30
0.0
  0
VERTEX
  5
596
100
AcDbEntity
  8
化粧台
  6
EXLTYPE2
 62
     6
100
AcDbVertex
100
AcDb2dVertex
 10
918.5
 20
1203.707107
 30
0.0
  0
VERTEX
  5
597
100
AcDbEntity
  8
化粧台
  6
EXLTYPE2
 62
     6
100
AcDbVertex
100
AcDb2dVertex
 10
915.0
 20
1206.207107
 30
0.0
  0
VERTEX
  5
598
100
AcDbEntity
  8
化粧台
  6
EXLTYPE2
 62
     6
100
AcDbVertex
100
AcDb2dVertex
 10
918.5
 20
1208.707107
 30
0.0
  0
VERTEX
  5
599
100
AcDbEntity
  8
化粧台
  6
EXLTYPE2
 62
     6
100
AcDbVertex
100
AcDb2dVertex
 10
915.0
 20
1211.207107
 30
0.0
  0
VERTEX
  5
59A
100
AcDbEntity
  8
化粧台
  6
EXLTYPE2
 62
     6
100
AcDbVertex
100
AcDb2dVertex
 10
918.5
 20
1213.707107
 30
0.0
  0
VERTEX
  5
59B
100
AcDbEntity
  8
化粧台
  6
EXLTYPE2
 62
     6
100
AcDbVertex
100
AcDb2dVertex
 10
915.0
 20
1216.207107
 30
0.0
  0
VERTEX
  5
59C
100
AcDbEntity
  8
化粧台
  6
EXLTYPE2
 62
     6
100
AcDbVertex
100
AcDb2dVertex
 10
918.5
 20
1218.707107
 30
0.0
  0
VERTEX
  5
59D
100
AcDbEntity
  8
化粧台
  6
EXLTYPE2
 62
     6
100
AcDbVertex
100
AcDb2dVertex
 10
915.0
 20
1221.207107
 30
0.0
  0
VERTEX
  5
59E
100
AcDbEntity
  8
化粧台
  6
EXLTYPE2
 62
     6
100
AcDbVertex
100
AcDb2dVertex
 10
918.5
 20
1223.707107
 30
0.0
  0
VERTEX
  5
59F
100
AcDbEntity
  8
化粧台
  6
EXLTYPE2
 62
     6
100
AcDbVertex
100
AcDb2dVertex
 10
915.0
 20
1226.207107
 30
0.0
  0
VERTEX
  5
5A0
100
AcDbEntity
  8
化粧台
  6
EXLTYPE2
 62
     6
100
AcDbVertex
100
AcDb2dVertex
 10
918.5
 20
1228.707107
 30
0.0
  0
VERTEX
  5
5A1
100
AcDbEntity
  8
化粧台
  6
EXLTYPE2
 62
     6
100
AcDbVertex
100
AcDb2dVertex
 10
915.0
 20
1231.207107
 30
0.0
  0
VERTEX
  5
5A2
100
AcDbEntity
  8
化粧台
  6
EXLTYPE2
 62
     6
100
AcDbVertex
100
AcDb2dVertex
 10
918.5
 20
1233.707107
 30
0.0
  0
VERTEX
  5
5A3
100
AcDbEntity
  8
化粧台
  6
EXLTYPE2
 62
     6
100
AcDbVertex
100
AcDb2dVertex
 10
915.0
 20
1236.207107
 30
0.0
  0
VERTEX
  5
5A4
100
AcDbEntity
  8
化粧台
  6
EXLTYPE2
 62
     6
100
AcDbVertex
100
AcDb2dVertex
 10
918.5
 20
1238.707107
 30
0.0
  0
VERTEX
  5
5A5
100
AcDbEntity
  8
化粧台
  6
EXLTYPE2
 62
     6
100
AcDbVertex
100
AcDb2dVertex
 10
915.0
 20
1241.207107
 30
0.0
  0
VERTEX
  5
5A6
100
AcDbEntity
  8
化粧台
  6
EXLTYPE2
 62
     6
100
AcDbVertex
100
AcDb2dVertex
 10
918.5
 20
1243.707107
 30
0.0
  0
VERTEX
  5
5A7
100
AcDbEntity
  8
化粧台
  6
EXLTYPE2
 62
     6
100
AcDbVertex
100
AcDb2dVertex
 10
915.7
 20
1245.707107
 30
0.0
  0
SEQEND
  5
5A8
100
AcDbEntity
  8
化粧台
  6
EXLTYPE2
 62
     6
  0
LINE
  5
5A9
100
AcDbEntity
  8
化粧台
  6
EXLTYPE3
 62
     6
100
AcDbLine
 10
932.5
 20
1129.5
 30
0.0
 11
932.5
 21
782.5
 31
0.0
  0
LINE
  5
5AA
100
AcDbEntity
  8
化粧台
  6
CONTINUOUS
 62
     2
100
AcDbLine
 10
1291.0
 20
928.0
 30
0.0
 11
574.0
 21
928.0
 31
0.0
  0
LINE
  5
5AB
100
AcDbEntity
  8
化粧台
  6
CONTINUOUS
 62
     2
100
AcDbLine
 10
1290.0
 20
928.0
 30
0.0
 11
1290.0
 21
924.5
 31
0.0
  0
LINE
  5
5AC
100
AcDbEntity
  8
化粧台
  6
CONTINUOUS
 62
     2
100
AcDbLine
 10
1277.0
 20
928.0
 30
0.0
 11
1277.0
 21
924.5
 31
0.0
  0
LINE
  5
5AD
100
AcDbEntity
  8
化粧台
  6
CONTINUOUS
 62
     2
100
AcDbLine
 10
1277.0
 20
924.5
 30
0.0
 11
1290.0
 21
924.5
 31
0.0
  0
LINE
  5
5AE
100
AcDbEntity
  8
化粧台
  6
CONTINUOUS
 62
     2
100
AcDbLine
 10
1276.0
 20
1019.5
 30
0.0
 11
1276.0
 21
928.0
 31
0.0
  0
LINE
  5
5AF
100
AcDbEntity
  8
化粧台
  6
CONTINUOUS
 62
     2
100
AcDbLine
 10
1291.0
 20
1527.349
 30
0.0
 11
1291.0
 21
928.0
 31
0.0
  0
LINE
  5
5B0
100
AcDbEntity
  8
化粧台
  6
CONTINUOUS
 62
     2
100
AcDbLine
 10
589.0
 20
1019.5
 30
0.0
 11
589.0
 21
928.0
 31
0.0
  0
LINE
  5
5B1
100
AcDbEntity
  8
化粧台
  6
CONTINUOUS
 62
     2
100
AcDbLine
 10
574.0
 20
1527.349
 30
0.0
 11
574.0
 21
928.0
 31
0.0
  0
LINE
  5
5B2
100
AcDbEntity
  8
化粧台
  6
CONTINUOUS
 62
     2
100
AcDbLine
 10
575.0
 20
928.0
 30
0.0
 11
575.0
 21
924.5
 31
0.0
  0
LINE
  5
5B3
100
AcDbEntity
  8
化粧台
  6
CONTINUOUS
 62
     2
100
AcDbLine
 10
588.0
 20
928.0
 30
0.0
 11
588.0
 21
924.5
 31
0.0
  0
LINE
  5
5B4
100
AcDbEntity
  8
化粧台
  6
CONTINUOUS
 62
     2
100
AcDbLine
 10
588.0
 20
924.5
 30
0.0
 11
575.0
 21
924.5
 31
0.0
  0
LINE
  5
5B5
100
AcDbEntity
  8
化粧台
  6
CONTINUOUS
 62
     2
100
AcDbLine
 10
577.5
 20
1019.5
 30
0.0
 11
931.5
 21
1019.5
 31
0.0
  0
LINE
  5
5B6
100
AcDbEntity
  8
化粧台
  6
CONTINUOUS
 62
     2
100
AcDbLine
 10
577.5
 20
1511.5
 30
0.0
 11
577.5
 21
1019.5
 31
0.0
  0
LINE
  5
5B7
100
AcDbEntity
  8
化粧台
  6
CONTINUOUS
 62
     2
100
AcDbLine
 10
1287.5
 20
1511.5
 30
0.0
 11
1287.5
 21
1019.5
 31
0.0
  0
LINE
  5
5B8
100
AcDbEntity
  8
化粧台
  6
CONTINUOUS
 62
     2
100
AcDbLine
 10
1287.5
 20
1511.5
 30
0.0
 11
933.5
 21
1511.5
 31
0.0
  0
LINE
  5
5B9
100
AcDbEntity
  8
化粧台
  6
CONTINUOUS
 62
     2
100
AcDbLine
 10
931.5
 20
1511.5
 30
0.0
 11
577.5
 21
1511.5
 31
0.0
  0
ARC
  5
5BA
100
AcDbEntity
  8
化粧台
  6
CONTINUOUS
 62
     2
100
AcDbCircle
 10
919.129733
 20
1469.0
 30
0.0
 40
2.0
100
AcDbArc
 50
16.84928
 51
90.0
  0
ARC
  5
5BB
100
AcDbEntity
  8
化粧台
  6
CONTINUOUS
 62
     2
100
AcDbCircle
 10
919.129733
 20
1464.0
 30
0.0
 40
2.0
100
AcDbArc
 50
270.0
 51
343.15072
  0
ARC
  5
5BC
100
AcDbEntity
  8
化粧台
  6
CONTINUOUS
 62
     2
100
AcDbCircle
 10
910.875
 20
1466.5
 30
0.0
 40
10.625
100
AcDbArc
 50
343.15072
 51
16.84928
  0
ARC
  5
5BD
100
AcDbEntity
  8
化粧台
  6
CONTINUOUS
 62
     2
100
AcDbCircle
 10
804.870267
 20
1469.0
 30
0.0
 40
2.0
100
AcDbArc
 50
90.0
 51
163.15072
  0
ARC
  5
5BE
100
AcDbEntity
  8
化粧台
  6
CONTINUOUS
 62
     2
100
AcDbCircle
 10
804.870267
 20
1464.0
 30
0.0
 40
2.0
100
AcDbArc
 50
196.84928
 51
270.0
  0
ARC
  5
5BF
100
AcDbEntity
  8
化粧台
  6
CONTINUOUS
 62
     2
100
AcDbCircle
 10
813.125
 20
1466.5
 30
0.0
 40
10.625
100
AcDbArc
 50
163.15072
 51
196.84928
  0
ARC
  5
5C0
100
AcDbEntity
  8
化粧台
  6
CONTINUOUS
 62
     2
100
AcDbCircle
 10
862.0
 20
2551.185483
 30
0.0
 40
1090.685483
100
AcDbArc
 50
266.991972
 51
273.008028
  0
ARC
  5
5C1
100
AcDbEntity
  8
化粧台
  6
CONTINUOUS
 62
     2
100
AcDbCircle
 10
862.0
 20
381.814517
 30
0.0
 40
1090.685483
100
AcDbArc
 50
86.991972
 51
93.008028
  0
ARC
  5
5C2
100
AcDbEntity
  8
化粧台
  6
CONTINUOUS
 62
     2
100
AcDbCircle
 10
945.870267
 20
1469.0
 30
0.0
 40
2.0
100
AcDbArc
 50
90.0
 51
163.15072
  0
ARC
  5
5C3
100
AcDbEntity
  8
化粧台
  6
CONTINUOUS
 62
     2
100
AcDbCircle
 10
945.870267
 20
1464.0
 30
0.0
 40
2.0
100
AcDbArc
 50
196.84928
 51
270.0
  0
ARC
  5
5C4
100
AcDbEntity
  8
化粧台
  6
CONTINUOUS
 62
     2
100
AcDbCircle
 10
954.125
 20
1466.5
 30
0.0
 40
10.625
100
AcDbArc
 50
163.15072
 51
196.84928
  0
ARC
  5
5C5
100
AcDbEntity
  8
化粧台
  6
CONTINUOUS
 62
     2
100
AcDbCircle
 10
1060.129733
 20
1469.0
 30
0.0
 40
2.0
100
AcDbArc
 50
16.84928
 51
90.0
  0
ARC
  5
5C6
100
AcDbEntity
  8
化粧台
  6
CONTINUOUS
 62
     2
100
AcDbCircle
 10
1060.129733
 20
1464.0
 30
0.0
 40
2.0
100
AcDbArc
 50
270.0
 51
343.15072
  0
ARC
  5
5C7
100
AcDbEntity
  8
化粧台
  6
CONTINUOUS
 62
     2
100
AcDbCircle
 10
1051.875
 20
1466.5
 30
0.0
 40
10.625
100
AcDbArc
 50
343.15072
 51
16.84928
  0
ARC
  5
5C8
100
AcDbEntity
  8
化粧台
  6
CONTINUOUS
 62
     2
100
AcDbCircle
 10
1003.0
 20
2551.185483
 30
0.0
 40
1090.685483
100
AcDbArc
 50
266.991972
 51
273.008028
  0
ARC
  5
5C9
100
AcDbEntity
  8
化粧台
  6
CONTINUOUS
 62
     2
100
AcDbCircle
 10
1003.0
 20
381.814517
 30
0.0
 40
1090.685483
100
AcDbArc
 50
86.991972
 51
93.008028
  0
LINE
  5
5CA
100
AcDbEntity
  8
化粧台
  6
CONTINUOUS
 62
     2
100
AcDbLine
 10
2112.5
 20
1511.5
 30
0.0
 11
2112.5
 21
1019.5
 31
0.0
  0
LINE
  5
5CB
100
AcDbEntity
  8
化粧台
  6
CONTINUOUS
 62
     2
100
AcDbLine
 10
2127.5
 20
1511.5
 30
0.0
 11
2127.5
 21
1019.5
 31
0.0
  0
LINE
  5
5CC
100
AcDbEntity
  8
化粧台
  6
CONTINUOUS
 62
     2
100
AcDbLine
 10
2127.5
 20
1511.5
 30
0.0
 11
2112.5
 21
1511.5
 31
0.0
  0
LINE
  5
5CD
100
AcDbEntity
  8
化粧台
  6
CONTINUOUS
 62
     2
100
AcDbLine
 10
2112.5
 20
1474.0
 30
0.0
 11
2086.573499
 21
1471.983438
 31
0.0
  0
LINE
  5
5CE
100
AcDbEntity
  8
化粧台
  6
CONTINUOUS
 62
     2
100
AcDbLine
 10
2112.5
 20
1459.0
 30
0.0
 11
2086.573499
 21
1461.016562
 31
0.0
  0
ARC
  5
5CF
100
AcDbEntity
  8
化粧台
  6
CONTINUOUS
 62
     2
100
AcDbCircle
 10
2087.0
 20
1466.5
 30
0.0
 40
5.5
100
AcDbArc
 50
94.447508
 51
265.552492
  0
LINE
  5
5D0
100
AcDbEntity
  8
化粧台
  6
EXLTYPE3
 62
     6
100
AcDbLine
 10
932.5
 20
1779.074399
 30
0.0
 11
932.5
 21
1444.5
 31
0.0
  0
LINE
  5
5D1
100
AcDbEntity
  8
化粧台
  6
EXLTYPE4
 62
     6
100
AcDbLine
 10
1688.0
 20
924.5
 30
0.0
 11
360.0
 21
924.5
 31
0.0
  0
ARC
  5
5D2
100
AcDbEntity
  8
化粧台
  6
CONTINUOUS
 62
     6
100
AcDbCircle
 10
2475.60588
 20
1293.5
 30
0.0
 40
6.5
100
AcDbArc
 50
270.0
 51
318.84583
  0
ARC
  5
5D3
100
AcDbEntity
  8
化粧台
  6
CONTINUOUS
 62
     6
100
AcDbCircle
 10
2475.60588
 20
1255.5
 30
0.0
 40
6.5
100
AcDbArc
 50
41.15417
 51
90.0
  0
LINE
  5
5D4
100
AcDbEntity
  8
化粧台
  6
CONTINUOUS
 62
     6
100
AcDbLine
 10
2486.072541
 20
1289.222432
 30
0.0
 11
2480.5
 21
1289.222432
 31
0.0
  0
LINE
  5
5D5
100
AcDbEntity
  8
化粧台
  6
CONTINUOUS
 62
     6
100
AcDbLine
 10
2486.072541
 20
1259.777568
 30
0.0
 11
2480.5
 21
1259.777568
 31
0.0
  0
ARC
  5
5D6
100
AcDbEntity
  8
化粧台
  6
CONTINUOUS
 62
     6
100
AcDbCircle
 10
2445.5
 20
1290.5
 30
0.0
 40
3.5
100
AcDbArc
 50
270.0
 51
0.0
  0
ARC
  5
5D7
100
AcDbEntity
  8
化粧台
  6
CONTINUOUS
 62
     6
100
AcDbCircle
 10
2473.5
 20
1290.5
 30
0.0
 40
3.5
100
AcDbArc
 50
180.0
 51
270.0
  0
LINE
  5
5D8
100
AcDbEntity
  8
化粧台
  6
CONTINUOUS
 62
     6
100
AcDbLine
 10
2473.5
 20
1287.0
 30
0.0
 11
2475.60588
 21
1287.0
 31
0.0
  0
LINE
  5
5D9
100
AcDbEntity
  8
化粧台
  6
CONTINUOUS
 62
     6
100
AcDbLine
 10
2432.1
 20
1269.2
 30
0.0
 11
2432.1
 21
1279.8
 31
0.0
  0
ARC
  5
5DA
100
AcDbEntity
  8
化粧台
  6
CONTINUOUS
 62
     6
100
AcDbCircle
 10
2441.225083
 20
1265.75
 30
0.0
 40
5.5
100
AcDbArc
 50
217.187626
 51
313.341758
  0
ARC
  5
5DB
100
AcDbEntity
  8
化粧台
  6
CONTINUOUS
 62
     6
100
AcDbCircle
 10
2441.225083
 20
1283.25
 30
0.0
 40
5.5
100
AcDbArc
 50
46.658242
 51
142.812374
  0
LINE
  5
5DC
100
AcDbEntity
  8
化粧台
  6
CONTINUOUS
 62
     6
100
AcDbLine
 10
2445.0
 20
1287.0
 30
0.0
 11
2445.5
 21
1287.0
 31
0.0
  0
LINE
  5
5DD
100
AcDbEntity
  8
化粧台
  6
CONTINUOUS
 62
     6
100
AcDbLine
 10
2449.0
 20
1290.5
 30
0.0
 11
2449.0
 21
1297.2
 31
0.0
  0
LINE
  5
5DE
100
AcDbEntity
  8
化粧台
  6
CONTINUOUS
 62
     6
100
AcDbLine
 10
2470.0
 20
1290.5
 30
0.0
 11
2470.0
 21
1297.2
 31
0.0
  0
LINE
  5
5DF
100
AcDbEntity
  8
化粧台
  6
CONTINUOUS
 62
     6
100
AcDbLine
 10
2426.5
 20
1279.25
 30
0.0
 11
2432.1
 21
1279.25
 31
0.0
  0
LINE
  5
5E0
100
AcDbEntity
  8
化粧台
  6
CONTINUOUS
 62
     6
100
AcDbLine
 10
2426.5
 20
1269.75
 30
0.0
 11
2432.1
 21
1269.75
 31
0.0
  0
LINE
  5
5E1
100
AcDbEntity
  8
化粧台
  6
CONTINUOUS
 62
     6
100
AcDbLine
 10
2426.5
 20
1279.25
 30
0.0
 11
2426.5
 21
1269.75
 31
0.0
  0
LINE
  5
5E2
100
AcDbEntity
  8
化粧台
  6
EXLTYPE2
 62
     6
100
AcDbLine
 10
2445.0
 20
1262.0
 30
0.0
 11
2475.60588
 21
1262.0
 31
0.0
  0
LINE
  5
5E3
100
AcDbEntity
  8
化粧台
  6
EXLTYPE2
 62
     6
100
AcDbLine
 10
2445.0
 20
1261.75
 30
0.0
 11
2445.0
 21
1287.25
 31
0.0
  0
LINE
  5
5E4
100
AcDbEntity
  8
化粧台
  6
EXLTYPE2
 62
     6
100
AcDbLine
 10
2432.1
 20
1279.8
 30
0.0
 11
2436.84345
 21
1286.574349
 31
0.0
  0
LINE
  5
5E5
100
AcDbEntity
  8
化粧台
  6
EXLTYPE2
 62
     6
100
AcDbLine
 10
2432.1
 20
1269.2
 30
0.0
 11
2436.84345
 21
1262.425651
 31
0.0
  0
LINE
  5
5E6
100
AcDbEntity
  8
化粧台
  6
EXLTYPE2
 62
     6
100
AcDbLine
 10
2448.530456
 20
1297.2
 30
0.0
 11
2470.469544
 21
1297.2
 31
0.0
  0
ARC
  5
5E7
100
AcDbEntity
  8
化粧台
  6
EXLTYPE2
 62
     6
100
AcDbCircle
 10
2457.75
 20
1303.2
 30
0.0
 40
11.0
100
AcDbArc
 50
146.944269
 51
213.055731
  0
ARC
  5
5E8
100
AcDbEntity
  8
化粧台
  6
EXLTYPE2
 62
     6
100
AcDbCircle
 10
2461.25
 20
1303.2
 30
0.0
 40
11.0
100
AcDbArc
 50
326.944269
 51
33.055731
  0
LINE
  5
5E9
100
AcDbEntity
  8
化粧台
  6
EXLTYPE2
 62
     6
100
AcDbLine
 10
2436.84345
 20
1286.574349
 30
0.0
 11
2436.84345
 21
1262.425651
 31
0.0
  0
LINE
  5
5EA
100
AcDbEntity
  8
化粧台
  6
EXLTYPE2
 62
     6
100
AcDbLine
 10
2448.530456
 20
1309.2
 30
0.0
 11
2470.469544
 21
1309.2
 31
0.0
  0
LINE
  5
5EB
100
AcDbEntity
  8
化粧台
  6
CONTINUOUS
 62
     6
100
AcDbLine
 10
2544.5
 20
1264.0
 30
0.0
 11
2552.5
 21
1264.0
 31
0.0
  0
LINE
  5
5EC
100
AcDbEntity
  8
化粧台
  6
CONTINUOUS
 62
     6
100
AcDbLine
 10
2552.5
 20
1285.0
 30
0.0
 11
2552.5
 21
1264.0
 31
0.0
  0
LINE
  5
5ED
100
AcDbEntity
  8
化粧台
  6
CONTINUOUS
 62
     6
100
AcDbLine
 10
2544.5
 20
1285.0
 30
0.0
 11
2552.5
 21
1285.0
 31
0.0
  0
LINE
  5
5EE
100
AcDbEntity
  8
化粧台
  6
EXLTYPE2
 62
     6
100
AcDbLine
 10
2487.5
 20
1285.0
 30
0.0
 11
2544.5
 21
1285.0
 31
0.0
  0
LINE
  5
5EF
100
AcDbEntity
  8
化粧台
  6
EXLTYPE2
 62
     6
100
AcDbLine
 10
2487.5
 20
1264.0
 30
0.0
 11
2544.5
 21
1264.0
 31
0.0
  0
LINE
  5
5F0
100
AcDbEntity
  8
化粧台
  6
CONTINUOUS
 62
     6
100
AcDbLine
 10
2487.5
 20
1286.75
 30
0.0
 11
2486.072541
 21
1289.222432
 31
0.0
  0
LINE
  5
5F1
100
AcDbEntity
  8
化粧台
  6
CONTINUOUS
 62
     6
100
AcDbLine
 10
2487.5
 20
1262.25
 30
0.0
 11
2486.072541
 21
1259.777568
 31
0.0
  0
LINE
  5
5F2
100
AcDbEntity
  8
化粧台
  6
EXLTYPE2
 62
     6
100
AcDbLine
 10
2487.5
 20
1286.75
 30
0.0
 11
2487.5
 21
1262.25
 31
0.0
  0
LINE
  5
5F3
100
AcDbEntity
  8
化粧台
  6
CONTINUOUS
 62
     6
100
AcDbLine
 10
2411.5
 20
1274.5
 30
0.0
 11
2567.5
 21
1274.5
 31
0.0
  0
LINE
  5
5F4
100
AcDbEntity
  8
化粧台
  6
EXLTYPE2
 62
     6
100
AcDbLine
 10
2465.85
 20
1309.2
 30
0.0
 11
2465.85
 21
1441.951281
 31
0.0
  0
LINE
  5
5F5
100
AcDbEntity
  8
化粧台
  6
EXLTYPE2
 62
     6
100
AcDbLine
 10
2453.15
 20
1309.2
 30
0.0
 11
2453.15
 21
1441.048719
 31
0.0
  0
LINE
  5
5F6
100
AcDbEntity
  8
化粧台
  6
EXLTYPE2
 62
     6
100
AcDbLine
 10
2455.485897
 20
1514.5
 30
0.0
 11
2465.85
 21
1441.951281
 31
0.0
  0
LINE
  5
5F7
100
AcDbEntity
  8
化粧台
  6
EXLTYPE2
 62
     6
100
AcDbLine
 10
2442.65696
 20
1514.5
 30
0.0
 11
2453.15
 21
1441.048719
 31
0.0
  0
LINE
  5
5F8
100
AcDbEntity
  8
化粧台
  6
CONTINUOUS
 62
     2
100
AcDbLine
 10
2544.5
 20
1636.5
 30
0.0
 11
2544.5
 21
928.0
 31
0.0
  0
LINE
  5
5F9
100
AcDbEntity
  8
化粧台
  6
CONTINUOUS
 62
     2
100
AcDbLine
 10
2524.5
 20
1719.430088
 30
0.0
 11
2080.355199
 21
1702.620846
 31
0.0
  0
ARC
  5
5FA
100
AcDbEntity
  8
化粧台
  6
CONTINUOUS
 62
     2
100
AcDbCircle
 10
941.0
 20
3780.0
 30
0.0
 40
8.5
100
AcDbArc
 50
227.106075
 51
46.073106
  0
ARC
  5
5FB
100
AcDbEntity
  8
化粧台
  6
CONTINUOUS
 62
     2
100
AcDbCircle
 10
932.5
 20
3775.0
 30
0.0
 40
21.0
100
AcDbArc
 50
137.59722
 51
42.129547
  0
POINT
  5
5FC
100
AcDbEntity
  8
化粧台
  6
CONTINUOUS
 62
     6
100
AcDbPoint
 10
1003.500114
 20
3910.0
 30
0.0
  0
POINT
  5
5FD
100
AcDbEntity
  8
化粧台
  6
CONTINUOUS
 62
     6
100
AcDbPoint
 10
861.500114
 20
3910.0
 30
0.0
  0
ARC
  5
5FE
100
AcDbEntity
  8
化粧台
  6
EXLTYPE2
 62
     6
100
AcDbCircle
 10
881.500114
 20
3910.0
 30
0.0
 40
20.0
100
AcDbArc
 50
92.981359
 51
257.188799
  0
ARC
  5
5FF
100
AcDbEntity
  8
化粧台
  6
EXLTYPE2
 62
     6
100
AcDbCircle
 10
983.500114
 20
3910.0
 30
0.0
 40
20.0
100
AcDbArc
 50
282.811201
 51
87.018641
  0
ARC
  5
600
100
AcDbEntity
  8
化粧台
  6
EXLTYPE2
 62
     6
100
AcDbCircle
 10
932.500114
 20
2930.766366
 30
0.0
 40
1000.560814
100
AcDbArc
 50
87.018641
 51
92.981359
  0
ARC
  5
601
100
AcDbEntity
  8
化粧台
  6
EXLTYPE2
 62
     6
100
AcDbCircle
 10
932.500114
 20
4134.247438
 30
0.0
 40
249.973724
100
AcDbArc
 50
257.18731
 51
262.203178
  0
ARC
  5
602
100
AcDbEntity
  8
化粧台
  6
EXLTYPE2
 62
     6
100
AcDbCircle
 10
932.500114
 20
4134.247438
 30
0.0
 40
249.973724
100
AcDbArc
 50
277.796822
 51
282.81269
  0
ARC
  5
603
100
AcDbEntity
  8
化粧台
  6
EXLTYPE2
 62
     6
100
AcDbCircle
 10
968.039629
 20
3874.695566
 30
0.0
 40
12.0
100
AcDbArc
 50
97.796822
 51
176.008301
  0
ARC
  5
604
100
AcDbEntity
  8
化粧台
  6
EXLTYPE2
 62
     6
100
AcDbCircle
 10
896.960598
 20
3874.695566
 30
0.0
 40
12.0
100
AcDbArc
 50
3.991699
 51
82.203178
  0
ELLIPSE
  5
605
100
AcDbEntity
  8
化粧台
  6
EXLTYPE2
 62
     6
100
AcDbEllipse
 10
932.500114
 20
3877.677298
 30
0.0
 11
23.446000000000002
 21
0.0
 31
0.0
210
0.0
220
0.0
230
1.0
 40
0.984816
 41
0.45368
 42
2.763067000000003
  0
ELLIPSE
  5
606
100
AcDbEntity
  8
化粧台
  6
EXLTYPE2
 62
     6
100
AcDbEllipse
 10
932.500114
 20
3867.010488
 30
0.0
 11
-22.5
 21
0.0000000000000028
 31
0.0
210
0.0
220
0.0
230
1.0
 40
0.9848
 41
2.4586609999999993
 42
0.6829310000000005
  0
LINE
  5
607
100
AcDbEntity
  8
化粧台
  6
CONTINUOUS
 62
     6
100
AcDbLine
 10
924.588293
 20
3789.292828
 30
0.0
 11
915.046276
 21
3853.027245
 31
0.0
  0
LINE
  5
608
100
AcDbEntity
  8
化粧台
  6
CONTINUOUS
 62
     6
100
AcDbLine
 10
940.411935
 20
3789.292828
 30
0.0
 11
950.096293
 21
3853.977998
 31
0.0
  0
ARC
  5
609
100
AcDbEntity
  8
化粧台
  6
CONTINUOUS
 62
     6
100
AcDbCircle
 10
2904.07978
 20
4014.7548
 30
0.0
 40
2000.0
100
AcDbArc
 50
184.608453
 51
186.414462
  0
ARC
  5
60A
100
AcDbEntity
  8
化粧台
  6
CONTINUOUS
 62
     6
100
AcDbCircle
 10
-1039.079553
 20
4014.7548
 30
0.0
 40
2000.0
100
AcDbArc
 50
353.585538
 51
355.391547
  0
ARC
  5
60B
100
AcDbEntity
  8
化粧台
  6
EXLTYPE2
 62
     6
100
AcDbCircle
 10
877.623232
 20
3847.424443
 30
0.0
 40
37.840132
100
AcDbArc
 50
8.514811
 51
31.171388
  0
ARC
  5
60C
100
AcDbEntity
  8
化粧台
  6
EXLTYPE2
 62
     6
100
AcDbCircle
 10
987.376995
 20
3847.424443
 30
0.0
 40
37.840132
100
AcDbArc
 50
148.828612
 51
171.485189
  0
ARC
  5
60D
100
AcDbEntity
  8
化粧台
  6
EXLTYPE2
 62
     6
100
AcDbCircle
 10
2904.07978
 20
4014.7548
 30
0.0
 40
2000.0
100
AcDbArc
 50
183.991699
 51
184.608453
  0
ARC
  5
60E
100
AcDbEntity
  8
化粧台
  6
EXLTYPE2
 62
     6
100
AcDbCircle
 10
-1039.079553
 20
4014.7548
 30
0.0
 40
2000.0
100
AcDbArc
 50
355.391547
 51
356.008301
  0
ARC
  5
60F
100
AcDbEntity
  8
化粧台
  6
CONTINUOUS
 62
     6
100
AcDbCircle
 10
932.500114
 20
3793.10278
 30
0.0
 40
16.0
100
AcDbArc
 50
186.414462
 51
353.585538
  0
ARC
  5
610
100
AcDbEntity
  8
化粧台
  6
CONTINUOUS
 62
     6
100
AcDbCircle
 10
932.500114
 20
3790.477349
 30
0.0
 40
8.0
100
AcDbArc
 50
188.514811
 51
351.485189
  0
ARC
  5
611
100
AcDbEntity
  8
化粧台
  6
CONTINUOUS
 62
     6
100
AcDbCircle
 10
954.509797
 20
1686.166031
 30
0.0
 40
50.0
100
AcDbArc
 50
11.534621
 51
22.021223
  0
ARC
  5
612
100
AcDbEntity
  8
化粧台
  6
CONTINUOUS
 62
     6
100
AcDbCircle
 10
991.591598
 20
1701.164031
 30
0.0
 40
10.0
100
AcDbArc
 50
22.021223
 51
84.101526
  0
LINE
  5
613
100
AcDbEntity
  8
化粧台
  6
CONTINUOUS
 62
     6
100
AcDbLine
 10
954.0
 20
1782.164031
 30
0.0
 11
955.753052
 21
1731.963188
 31
0.0
  0
LINE
  5
614
100
AcDbEntity
  8
化粧台
  6
CONTINUOUS
 62
     6
100
AcDbLine
 10
948.492678
 20
1744.990315
 30
0.0
 11
955.84821
 21
1702.790328
 31
0.0
  0
ARC
  5
615
100
AcDbEntity
  8
化粧台
  6
CONTINUOUS
 62
     6
100
AcDbCircle
 10
963.729387
 20
1704.164031
 30
0.0
 40
8.0
100
AcDbArc
 50
189.887424
 51
270.0
  0
ELLIPSE
  5
616
100
AcDbEntity
  8
化粧台
  6
CONTINUOUS
 62
     6
100
AcDbEllipse
 10
932.5
 20
1782.164031
 30
0.0
 11
21.499999999999986
 21
0.0
 31
0.0
210
0.0
220
0.0
230
1.0
 40
0.173651
 41
4.7123889999999999
 42
0.2192690000000014
  0
ELLIPSE
  5
617
100
AcDbEntity
  8
化粧台
  6
CONTINUOUS
 62
     6
100
AcDbEllipse
 10
932.5
 20
1744.906283
 30
0.0
 11
16.0
 21
0.0
 31
0.0
210
0.0
220
0.0
230
1.0
 40
0.173625
 41
0.0302539999999974
 42
1.5707960000000001
  0
ELLIPSE
  5
618
100
AcDbEntity
  8
化粧台
  6
CONTINUOUS
 62
     6
100
AcDbEllipse
 10
932.5
 20
1744.906283
 30
0.0
 11
12.250000000000002
 21
0.0
 31
0.0
210
0.0
220
0.0
230
1.0
 40
0.173633
 41
6.0808099999999978
 42
1.5707959999999996
  0
ELLIPSE
  5
619
100
AcDbEntity
  8
化粧台
  6
CONTINUOUS
 62
     6
100
AcDbEllipse
 10
932.5
 20
1782.164031
 30
0.0
 11
-21.499999999999986
 21
0.0000000000000026
 31
0.0
210
0.0
220
0.0
230
1.0
 40
0.173651
 41
6.0639170000000053
 42
1.5707959999999996
  0
ELLIPSE
  5
61A
100
AcDbEntity
  8
化粧台
  6
CONTINUOUS
 62
     6
100
AcDbEllipse
 10
932.5
 20
1744.906283
 30
0.0
 11
-16.0
 21
0.000000000000002
 31
0.0
210
0.0
220
0.0
230
1.0
 40
0.173625
 41
4.7123889999999999
 42
6.2529310000000002
  0
ELLIPSE
  5
61B
100
AcDbEntity
  8
化粧台
  6
CONTINUOUS
 62
     6
100
AcDbEllipse
 10
932.5
 20
1744.906283
 30
0.0
 11
-12.250000000000002
 21
0.0000000000000015
 31
0.0
210
0.0
220
0.0
230
1.0
 40
0.173633
 41
4.7123889999999999
 42
0.2023759999999976
  0
LINE
  5
61C
100
AcDbEntity
  8
化粧台
  6
CONTINUOUS
 62
     6
100
AcDbLine
 10
916.507321
 20
1744.990315
 30
0.0
 11
909.151789
 21
1702.790328
 31
0.0
  0
ARC
  5
61D
100
AcDbEntity
  8
化粧台
  6
CONTINUOUS
 62
     6
100
AcDbCircle
 10
901.270612
 20
1704.164031
 30
0.0
 40
8.0
100
AcDbArc
 50
270.0
 51
350.112576
  0
ARC
  5
61E
100
AcDbEntity
  8
化粧台
  6
CONTINUOUS
 62
     6
100
AcDbCircle
 10
889.259131
 20
1732.661178
 30
0.0
 40
20.0
100
AcDbArc
 50
274.098493
 51
358.0
  0
LINE
  5
61F
100
AcDbEntity
  8
化粧台
  6
CONTINUOUS
 62
     6
100
AcDbLine
 10
911.0
 20
1782.164031
 30
0.0
 11
909.246947
 21
1731.963188
 31
0.0
  0
ARC
  5
620
100
AcDbEntity
  8
化粧台
  6
CONTINUOUS
 62
     6
100
AcDbCircle
 10
932.5
 20
1129.197449
 30
0.0
 40
585.010946
100
AcDbArc
 50
94.098493
 51
95.898474
  0
ARC
  5
621
100
AcDbEntity
  8
化粧台
  6
CONTINUOUS
 62
     6
100
AcDbCircle
 10
873.408401
 20
1701.164031
 30
0.0
 40
10.0
100
AcDbArc
 50
95.898474
 51
157.978777
  0
ARC
  5
622
100
AcDbEntity
  8
化粧台
  6
CONTINUOUS
 62
     6
100
AcDbCircle
 10
910.490202
 20
1686.166031
 30
0.0
 40
50.0
100
AcDbArc
 50
157.978777
 51
168.465379
  0
LINE
  5
623
100
AcDbEntity
  8
化粧台
  6
CONTINUOUS
 62
     6
100
AcDbLine
 10
944.5
 20
1739.489315
 30
0.0
 11
944.5
 21
1745.333804
 31
0.0
  0
LINE
  5
624
100
AcDbEntity
  8
化粧台
  6
CONTINUOUS
 62
     6
100
AcDbLine
 10
920.5
 20
1739.489315
 30
0.0
 11
920.5
 21
1745.333804
 31
0.0
  0
ELLIPSE
  5
625
100
AcDbEntity
  8
化粧台
  6
CONTINUOUS
 62
     6
100
AcDbEllipse
 10
932.5
 20
1736.042488
 30
0.0
 11
9.9999999999999964
 21
0.0
 31
0.0
210
0.0
220
0.0
230
1.0
 40
0.17365
 41
0.0
 42
6.2831852538378543
  0
ARC
  5
626
100
AcDbEntity
  8
化粧台
  6
CONTINUOUS
 62
     6
100
AcDbCircle
 10
931.5
 20
1782.163506
 30
0.0
 40
20.0
100
AcDbArc
 50
168.353656
 51
180.0
  0
ARC
  5
627
100
AcDbEntity
  8
化粧台
  6
CONTINUOUS
 62
     6
100
AcDbCircle
 10
933.5
 20
1782.163506
 30
0.0
 40
20.0
100
AcDbArc
 50
0.0
 51
11.646344
  0
ELLIPSE
  5
628
100
AcDbEntity
  8
化粧台
  6
CONTINUOUS
 62
     6
100
AcDbEllipse
 10
932.5
 20
1782.163506
 30
0.0
 11
21.000000000000018
 21
0.0
 31
0.0
210
0.0
220
0.0
230
1.0
 40
0.173643
 41
3.1415927137415012
 42
0.0
  0
ARC
  5
629
100
AcDbEntity
  8
化粧台
  6
CONTINUOUS
 62
     6
100
AcDbCircle
 10
1010.0
 20
1787.77691
 30
0.0
 40
100.0
100
AcDbArc
 50
170.546476
 51
180.0
  0
ARC
  5
62A
100
AcDbEntity
  8
化粧台
  6
CONTINUOUS
 62
     6
100
AcDbCircle
 10
855.0
 20
1787.77691
 30
0.0
 40
100.0
100
AcDbArc
 50
0.0
 51
9.453524
  0
LINE
  5
62B
100
AcDbEntity
  8
化粧台
  6
CONTINUOUS
 62
     6
100
AcDbLine
 10
941.006993
 20
1817.814677
 30
0.0
 11
950.144438
 21
1810.270539
 31
0.0
  0
ARC
  5
62C
100
AcDbEntity
  8
化粧台
  6
CONTINUOUS
 62
     6
100
AcDbCircle
 10
943.777724
 20
1802.559187
 30
0.0
 40
10.0
100
AcDbArc
 50
9.453524
 51
50.455936
  0
ARC
  5
62D
100
AcDbEntity
  8
化粧台
  6
CONTINUOUS
 62
     6
100
AcDbCircle
 10
932.5
 20
1789.319601
 30
0.0
 40
30.0
100
AcDbArc
 50
75.857606
 51
90.0
  0
ARC
  5
62E
100
AcDbEntity
  8
化粧台
  6
CONTINUOUS
 62
     6
100
AcDbCircle
 10
939.096979
 20
1815.501271
 30
0.0
 40
3.0
100
AcDbArc
 50
50.455936
 51
75.857606
  0
ARC
  5
62F
100
AcDbEntity
  8
化粧台
  6
CONTINUOUS
 62
     6
100
AcDbCircle
 10
932.5
 20
1789.319601
 30
0.0
 40
30.0
100
AcDbArc
 50
90.0
 51
104.142394
  0
ARC
  5
630
100
AcDbEntity
  8
化粧台
  6
CONTINUOUS
 62
     6
100
AcDbCircle
 10
925.90302
 20
1815.501271
 30
0.0
 40
3.0
100
AcDbArc
 50
104.142394
 51
129.544064
  0
LINE
  5
631
100
AcDbEntity
  8
化粧台
  6
CONTINUOUS
 62
     6
100
AcDbLine
 10
923.993006
 20
1817.814677
 30
0.0
 11
914.855561
 21
1810.270539
 31
0.0
  0
ARC
  5
632
100
AcDbEntity
  8
化粧台
  6
CONTINUOUS
 62
     6
100
AcDbCircle
 10
921.222276
 20
1802.559187
 30
0.0
 40
10.0
100
AcDbArc
 50
129.544064
 51
170.546476
  0
ELLIPSE
  5
633
100
AcDbEntity
  8
化粧台
  6
CONTINUOUS
 62
     6
100
AcDbEllipse
 10
932.5
 20
1787.77691
 30
0.0
 11
22.499999999999961
 21
0.0
 31
0.0
210
0.0
220
0.0
230
1.0
 40
0.173644
 41
3.1415927137418471
 42
0.0
  0
LINE
  5
634
100
AcDbEntity
  8
化粧台
  6
CONTINUOUS
 62
     6
100
AcDbLine
 10
943.5
 20
1735.209611
 30
0.0
 11
943.5
 21
1740.322191
 31
0.0
  0
ELLIPSE
  5
635
100
AcDbEntity
  8
化粧台
  6
CONTINUOUS
 62
     6
100
AcDbEllipse
 10
932.5
 20
1739.489315
 30
0.0
 11
12.000000000000002
 21
0.0
 31
0.0
210
0.0
220
0.0
230
1.0
 40
0.173667
 41
5.8720470000000189
 42
0.4111379999999977
  0
LINE
  5
636
100
AcDbEntity
  8
化粧台
  6
CONTINUOUS
 62
     6
100
AcDbLine
 10
921.5
 20
1735.209611
 30
0.0
 11
921.5
 21
1740.322191
 31
0.0
  0
ELLIPSE
  5
637
100
AcDbEntity
  8
化粧台
  6
CONTINUOUS
 62
     6
100
AcDbEllipse
 10
932.5
 20
1739.489315
 30
0.0
 11
-12.000000000000002
 21
0.0000000000000015
 31
0.0
210
0.0
220
0.0
230
1.0
 40
0.173667
 41
5.8720470000000189
 42
0.4111379999999977
  0
ELLIPSE
  5
638
100
AcDbEntity
  8
化粧台
  6
CONTINUOUS
 62
     6
100
AcDbEllipse
 10
932.5
 20
1736.042488
 30
0.0
 11
12.000000000000002
 21
0.0
 31
0.0
210
0.0
220
0.0
230
1.0
 40
0.173667
 41
0.4111379999999977
 42
2.7304550000000027
  0
ELLIPSE
  5
639
100
AcDbEntity
  8
化粧台
  6
CONTINUOUS
 62
     6
100
AcDbEllipse
 10
932.5
 20
1736.042488
 30
0.0
 11
12.000000000000002
 21
0.0
 31
0.0
210
0.0
220
0.0
230
1.0
 40
0.173667
 41
3.5527309999999983
 42
5.8720470000000189
  0
ARC
  5
63A
100
AcDbEntity
  8
化粧台
  6
CONTINUOUS
 62
     6
100
AcDbCircle
 10
975.740868
 20
1732.661178
 30
0.0
 40
20.0
100
AcDbArc
 50
182.0
 51
265.901507
  0
ARC
  5
63B
100
AcDbEntity
  8
化粧台
  6
CONTINUOUS
 62
     6
100
AcDbCircle
 10
932.5
 20
1129.197449
 30
0.0
 40
585.010946
100
AcDbArc
 50
84.101526
 51
85.901507
  0
ELLIPSE
  5
63C
100
AcDbEntity
  8
化粧台
  6
CONTINUOUS
 62
     6
100
AcDbEllipse
 10
932.5
 20
1727.027785
 30
0.0
 11
3.0000000000000022
 21
0.0
 31
0.0
210
0.0
220
0.0
230
1.0
 40
0.422667
 41
0.0
 42
6.2831850000000049
  0
LINE
  5
63D
100
AcDbEntity
  8
化粧台
  6
CONTINUOUS
 62
     6
100
AcDbLine
 10
935.5
 20
1732.465505
 30
0.0
 11
935.5
 21
1727.027785
 31
0.0
  0
LINE
  5
63E
100
AcDbEntity
  8
化粧台
  6
CONTINUOUS
 62
     6
100
AcDbLine
 10
929.5
 20
1732.465505
 30
0.0
 11
929.5
 21
1727.027785
 31
0.0
  0
ELLIPSE
  5
63F
100
AcDbEntity
  8
化粧台
  6
CONTINUOUS
 62
     6
100
AcDbEllipse
 10
932.5
 20
1732.465505
 30
0.0
 11
3.0000000000000022
 21
0.0
 31
0.0
210
0.0
220
0.0
230
1.0
 40
0.422667
 41
0.0
 42
3.1415930000000025
  0
ARC
  5
640
100
AcDbEntity
  8
化粧台
  6
CONTINUOUS
 62
     6
100
AcDbCircle
 10
939.032926
 20
1787.77691
 30
0.0
 40
29.032926
100
AcDbArc
 50
129.544064
 51
158.021405
  0
LINE
  5
641
100
AcDbEntity
  8
化粧台
  6
CONTINUOUS
 62
     6
100
AcDbLine
 10
940.030512
 20
1813.427701
 30
0.0
 11
924.5
 21
1813.427701
 31
0.0
  0
LINE
  5
642
100
AcDbEntity
  8
化粧台
  6
CONTINUOUS
 62
     6
100
AcDbLine
 10
924.164854
 20
1813.150994
 30
0.0
 11
920.54849
 21
1810.165221
 31
0.0
  0
LINE
  5
643
100
AcDbEntity
  8
化粧台
  6
CONTINUOUS
 62
     6
100
AcDbLine
 10
940.835146
 20
1813.150994
 30
0.0
 11
944.451509
 21
1810.165221
 31
0.0
  0
ARC
  5
644
100
AcDbEntity
  8
化粧台
  6
CONTINUOUS
 62
     6
100
AcDbCircle
 10
925.967073
 20
1787.77691
 30
0.0
 40
29.032926
100
AcDbArc
 50
22.880485
 51
50.455936
  0
LINE
  5
645
100
AcDbEntity
  8
化粧台
  6
CONTINUOUS
 62
     6
100
AcDbLine
 10
940.5
 20
1817.325572
 30
0.0
 11
940.5
 21
1814.042243
 31
0.0
  0
LINE
  5
646
100
AcDbEntity
  8
化粧台
  6
CONTINUOUS
 62
     6
100
AcDbLine
 10
924.5
 20
1817.325572
 30
0.0
 11
924.5
 21
1814.042243
 31
0.0
  0
ELLIPSE
  5
647
100
AcDbEntity
  8
化粧台
  6
CONTINUOUS
 62
     6
100
AcDbEllipse
 10
932.5
 20
1794.210307
 30
0.0
 11
5.25
 21
0.0
 31
0.0
210
0.0
220
0.0
230
1.0
 40
0.984762
 41
0.0
 42
6.283185000000004
  0
LINE
  5
648
100
AcDbEntity
  8
化粧台
  6
CONTINUOUS
 62
     6
100
AcDbLine
 10
932.5
 20
1799.380307
 30
0.0
 11
932.5
 21
1789.040307
 31
0.0
  0
LINE
  5
649
100
AcDbEntity
  8
化粧台
  6
CONTINUOUS
 62
     6
100
AcDbLine
 10
948.48576
 20
1750.357561
 30
0.0
 11
948.48576
 21
1753.024136
 31
0.0
  0
ARC
  5
64A
100
AcDbEntity
  8
化粧台
  6
CONTINUOUS
 62
     6
100
AcDbCircle
 10
932.5
 20
1733.411884
 30
0.0
 40
30.0
100
AcDbArc
 50
72.542397
 51
90.0
  0
ARC
  5
64B
100
AcDbEntity
  8
化粧台
  6
CONTINUOUS
 62
     6
100
AcDbCircle
 10
938.5
 20
1752.490668
 30
0.0
 40
10.0
100
AcDbArc
 50
3.057995
 51
16.608543
  0
ARC
  5
64C
100
AcDbEntity
  8
化粧台
  6
CONTINUOUS
 62
     6
100
AcDbCircle
 10
938.5
 20
1752.490668
 30
0.0
 40
10.0
100
AcDbArc
 50
33.493313
 51
72.542397
  0
LINE
  5
64D
100
AcDbEntity
  8
化粧台
  6
CONTINUOUS
 62
     6
100
AcDbLine
 10
946.839502
 20
1758.009065
 30
0.0
 11
952.194249
 21
1749.916873
 31
0.0
  0
ARC
  5
64E
100
AcDbEntity
  8
化粧台
  6
CONTINUOUS
 62
     6
100
AcDbCircle
 10
926.5
 20
1752.490668
 30
0.0
 40
10.0
100
AcDbArc
 50
107.457603
 51
146.506687
  0
LINE
  5
64F
100
AcDbEntity
  8
化粧台
  6
CONTINUOUS
 62
     6
100
AcDbLine
 10
916.514239
 20
1750.357561
 30
0.0
 11
916.514239
 21
1753.024136
 31
0.0
  0
LINE
  5
650
100
AcDbEntity
  8
化粧台
  6
CONTINUOUS
 62
     6
100
AcDbLine
 10
918.160497
 20
1758.009065
 30
0.0
 11
912.80575
 21
1749.916873
 31
0.0
  0
ARC
  5
651
100
AcDbEntity
  8
化粧台
  6
CONTINUOUS
 62
     6
100
AcDbCircle
 10
932.5
 20
1733.411884
 30
0.0
 40
30.0
100
AcDbArc
 50
90.0
 51
107.457603
  0
ARC
  5
652
100
AcDbEntity
  8
化粧台
  6
CONTINUOUS
 62
     6
100
AcDbCircle
 10
926.5
 20
1752.490668
 30
0.0
 40
10.0
100
AcDbArc
 50
163.391457
 51
176.942005
  0
LINE
  5
653
100
AcDbEntity
  8
化粧台
  6
CONTINUOUS
 62
     2
100
AcDbLine
 10
557.5
 20
1719.5
 30
0.0
 11
904.31846
 21
1719.5
 31
0.0
  0
LINE
  5
654
100
AcDbEntity
  8
化粧台
  6
CONTINUOUS
 62
     2
100
AcDbLine
 10
960.681539
 20
1719.5
 30
0.0
 11
1307.5
 21
1719.5
 31
0.0
  0
LINE
  5
655
100
AcDbEntity
  8
化粧台
  6
CONTINUOUS
 62
     6
100
AcDbLine
 10
2386.326633
 20
1778.43007
 30
0.0
 11
2428.673366
 21
1785.896941
 31
0.0
  0
LINE
  5
656
100
AcDbEntity
  8
化粧台
  6
CONTINUOUS
 62
     6
100
AcDbLine
 10
2428.673366
 20
1785.896941
 30
0.0
 11
2440.267551
 21
1731.350591
 31
0.0
  0
LINE
  5
657
100
AcDbEntity
  8
化粧台
  6
CONTINUOUS
 62
     6
100
AcDbLine
 10
2317.842593
 20
1747.419627
 30
0.0
 11
2347.001013
 21
1742.278211
 31
0.0
  0
ARC
  5
658
100
AcDbEntity
  8
化粧台
  6
CONTINUOUS
 62
     6
100
AcDbCircle
 10
2365.58292
 20
1739.001719
 30
0.0
 40
50.0
100
AcDbArc
 50
158.885004
 51
168.227683
  0
ARC
  5
659
100
AcDbEntity
  8
化粧台
  6
CONTINUOUS
 62
     6
100
AcDbCircle
 10
2318.103065
 20
1748.896839
 30
0.0
 40
1.5
100
AcDbArc
 50
168.227683
 51
260.0
  0
LINE
  5
65A
100
AcDbEntity
  8
化粧台
  6
CONTINUOUS
 62
     6
100
AcDbLine
 10
2329.487242
 20
1763.33682
 30
0.0
 11
2376.548042
 21
1757.558481
 31
0.0
  0
ARC
  5
65B
100
AcDbEntity
  8
化粧台
  6
CONTINUOUS
 62
     6
100
AcDbCircle
 10
2328.268549
 20
1753.411359
 30
0.0
 40
10.0
100
AcDbArc
 50
83.0
 51
158.885004
  0
LINE
  5
65C
100
AcDbEntity
  8
化粧台
  6
CONTINUOUS
 62
     6
100
AcDbLine
 10
2386.326633
 20
1778.43007
 30
0.0
 11
2387.669416
 21
1768.875673
 31
0.0
  0
ARC
  5
65D
100
AcDbEntity
  8
化粧台
  6
CONTINUOUS
 62
     6
100
AcDbCircle
 10
2377.766735
 20
1767.483942
 30
0.0
 40
10.0
100
AcDbArc
 50
263.0
 51
8.0
  0
LINE
  5
65E
100
AcDbEntity
  8
化粧台
  6
CONTINUOUS
 62
     6
100
AcDbLine
 10
2320.774167
 20
1746.902711
 30
0.0
 11
2320.687343
 21
1746.410308
 31
0.0
  0
LINE
  5
65F
100
AcDbEntity
  8
化粧台
  6
CONTINUOUS
 62
     6
100
AcDbLine
 10
2320.194939
 20
1746.497132
 30
0.0
 11
2332.012632
 21
1744.413353
 31
0.0
  0
LINE
  5
660
100
AcDbEntity
  8
化粧台
  6
CONTINUOUS
 62
     6
100
AcDbLine
 10
2320.194939
 20
1746.497132
 30
0.0
 11
2318.805754
 21
1738.61867
 31
0.0
  0
LINE
  5
661
100
AcDbEntity
  8
化粧台
  6
CONTINUOUS
 62
     6
100
AcDbLine
 10
2318.805754
 20
1738.61867
 30
0.0
 11
2319.211334
 21
1738.039442
 31
0.0
  0
LINE
  5
662
100
AcDbEntity
  8
化粧台
  6
CONTINUOUS
 62
     6
100
AcDbLine
 10
2319.211334
 20
1738.039442
 30
0.0
 11
2330.536623
 21
1736.042488
 31
0.0
  0
LINE
  5
663
100
AcDbEntity
  8
化粧台
  6
CONTINUOUS
 62
     6
100
AcDbLine
 10
2341.861912
 20
1734.045534
 30
0.0
 11
2330.536623
 21
1736.042488
 31
0.0
  0
LINE
  5
664
100
AcDbEntity
  8
化粧台
  6
CONTINUOUS
 62
     6
100
AcDbLine
 10
2342.44114
 20
1734.451113
 30
0.0
 11
2341.861912
 21
1734.045534
 31
0.0
  0
LINE
  5
665
100
AcDbEntity
  8
化粧台
  6
CONTINUOUS
 62
     6
100
AcDbLine
 10
2343.830325
 20
1742.329575
 30
0.0
 11
2342.44114
 21
1734.451113
 31
0.0
  0
LINE
  5
666
100
AcDbEntity
  8
化粧台
  6
CONTINUOUS
 62
     6
100
AcDbLine
 10
2343.830325
 20
1742.329575
 30
0.0
 11
2332.012632
 21
1744.413353
 31
0.0
  0
LINE
  5
667
100
AcDbEntity
  8
化粧台
  6
CONTINUOUS
 62
     6
100
AcDbLine
 10
2343.424746
 20
1742.908803
 30
0.0
 11
2343.337921
 21
1742.416399
 31
0.0
  0
LINE
  5
668
100
AcDbEntity
  8
化粧台
  6
CONTINUOUS
 62
     6
100
AcDbLine
 10
2406.510205
 20
1787.77691
 30
0.0
 11
2384.352031
 21
1783.869826
 31
0.0
  0
LINE
  5
669
100
AcDbEntity
  8
化粧台
  6
CONTINUOUS
 62
     6
100
AcDbLine
 10
2384.352031
 20
1783.869826
 30
0.0
 11
2381.226363
 21
1801.596365
 31
0.0
  0
LINE
  5
66A
100
AcDbEntity
  8
化粧台
  6
CONTINUOUS
 62
     6
100
AcDbLine
 10
2322.689251
 20
1813.965065
 30
0.0
 11
2321.977066
 21
1818.004067
 31
0.0
  0
ARC
  5
66B
100
AcDbEntity
  8
化粧台
  6
CONTINUOUS
 62
     6
100
AcDbCircle
 10
2342.457736
 20
1544.319601
 30
0.0
 40
275.0
100
AcDbArc
 50
75.198631
 51
94.175802
  0
LINE
  5
66C
100
AcDbEntity
  8
化粧台
  6
CONTINUOUS
 62
     6
100
AcDbLine
 10
2323.311064
 20
1813.568926
 30
0.0
 11
2331.510542
 21
1815.76597
 31
0.0
  0
ARC
  5
66D
100
AcDbEntity
  8
化粧台
  6
CONTINUOUS
 62
     6
100
AcDbCircle
 10
2370.439305
 20
1799.442447
 30
0.0
 40
11.0
100
AcDbArc
 50
11.292088
 51
78.691952
  0
ARC
  5
66E
100
AcDbEntity
  8
化粧台
  6
CONTINUOUS
 62
     6
100
AcDbCircle
 10
2337.081219
 20
1701.902158
 30
0.0
 40
114.0
100
AcDbArc
 50
71.848229
 51
92.800907
  0
ARC
  5
66F
100
AcDbEntity
  8
化粧台
  6
CONTINUOUS
 62
     6
100
AcDbCircle
 10
2322.46947
 20
1818.090891
 30
0.0
 40
0.5
100
AcDbArc
 50
94.175802
 51
190.0
  0
ARC
  5
670
100
AcDbEntity
  8
化粧台
  6
CONTINUOUS
 62
     6
100
AcDbCircle
 10
2323.181655
 20
1814.051889
 30
0.0
 40
0.5
100
AcDbArc
 50
190.0
 51
285.0
  0
LINE
  5
671
100
AcDbEntity
  8
化粧台
  6
CONTINUOUS
 62
     6
100
AcDbLine
 10
2380.559109
 20
1793.863011
 30
0.0
 11
2380.124989
 21
1796.32503
 31
0.0
  0
ARC
  5
672
100
AcDbEntity
  8
化粧台
  6
CONTINUOUS
 62
     6
100
AcDbCircle
 10
2385.096229
 20
1795.789522
 30
0.0
 40
5.0
100
AcDbArc
 50
134.093513
 51
173.85174
  0
LINE
  5
673
100
AcDbEntity
  8
化粧台
  6
CONTINUOUS
 62
     6
100
AcDbLine
 10
2380.559109
 20
1793.863011
 30
0.0
 11
2380.99323
 21
1791.400991
 31
0.0
  0
ARC
  5
674
100
AcDbEntity
  8
化粧台
  6
CONTINUOUS
 62
     6
100
AcDbCircle
 10
2385.481513
 20
1793.604469
 30
0.0
 40
5.0
100
AcDbArc
 50
206.14826
 51
245.906487
  0
ARC
  5
675
100
AcDbEntity
  8
化粧台
  6
CONTINUOUS
 62
     6
100
AcDbCircle
 10
2406.424865
 20
1782.468032
 30
0.0
 40
20.0
100
AcDbArc
 50
174.890164
 51
191.39413
  0
ARC
  5
676
100
AcDbEntity
  8
化粧台
  6
CONTINUOUS
 62
     6
100
AcDbCircle
 10
2408.406141
 20
1782.817384
 30
0.0
 40
20.0
100
AcDbArc
 50
8.60587
 51
33.374872
  0
LINE
  5
677
100
AcDbEntity
  8
化粧台
  6
CONTINUOUS
 62
     6
100
AcDbLine
 10
2406.510205
 20
1787.77691
 30
0.0
 11
2428.059361
 21
1794.778655
 31
0.0
  0
ARC
  5
678
100
AcDbEntity
  8
化粧台
  6
CONTINUOUS
 62
     6
100
AcDbCircle
 10
2406.833429
 20
1788.994206
 30
0.0
 40
22.0
100
AcDbArc
 50
15.243958
 51
74.50271
  0
LINE
  5
679
100
AcDbEntity
  8
化粧台
  6
CONTINUOUS
 62
     6
100
AcDbLine
 10
2335.867363
 20
1738.656527
 30
0.0
 11
2326.421419
 21
1740.322102
 31
0.0
  0
LINE
  5
67A
100
AcDbEntity
  8
化粧台
  6
CONTINUOUS
 62
     6
100
AcDbLine
 10
2335.259595
 20
1735.2097
 30
0.0
 11
2335.867363
 21
1738.656527
 31
0.0
  0
LINE
  5
67B
100
AcDbEntity
  8
化粧台
  6
CONTINUOUS
 62
     6
100
AcDbLine
 10
2325.813651
 20
1736.875275
 30
0.0
 11
2326.421419
 21
1740.322102
 31
0.0
  0
LINE
  5
67C
100
AcDbEntity
  8
化粧台
  6
CONTINUOUS
 62
     6
100
AcDbLine
 10
2318.805754
 20
1738.61867
 30
0.0
 11
2325.900475
 21
1737.367679
 31
0.0
  0
LINE
  5
67D
100
AcDbEntity
  8
化粧台
  6
CONTINUOUS
 62
     6
100
AcDbLine
 10
2335.346419
 20
1735.702104
 30
0.0
 11
2342.44114
 21
1734.451113
 31
0.0
  0
LINE
  5
67E
100
AcDbEntity
  8
化粧台
  6
CONTINUOUS
 62
     6
100
AcDbLine
 10
2377.852843
 20
1725.971239
 30
0.0
 11
2373.321304
 21
1728.08433
 31
0.0
  0
LINE
  5
67F
100
AcDbEntity
  8
化粧台
  6
CONTINUOUS
 62
     6
100
AcDbLine
 10
2373.321304
 20
1728.08433
 30
0.0
 11
2373.079459
 21
1728.748793
 31
0.0
  0
LINE
  5
680
100
AcDbEntity
  8
化粧台
  6
CONTINUOUS
 62
     6
100
AcDbLine
 10
2377.852843
 20
1725.971239
 30
0.0
 11
2378.517306
 21
1726.213084
 31
0.0
  0
LINE
  5
681
100
AcDbEntity
  8
化粧台
  6
CONTINUOUS
 62
     6
100
AcDbLine
 10
2378.517306
 20
1726.213084
 30
0.0
 11
2380.826426
 21
1731.165008
 31
0.0
  0
LINE
  5
682
100
AcDbEntity
  8
化粧台
  6
CONTINUOUS
 62
     6
100
AcDbLine
 10
2375.388589
 20
1733.700739
 30
0.0
 11
2373.079459
 21
1728.748793
 31
0.0
  0
CIRCLE
  5
683
100
AcDbEntity
  8
化粧台
  6
CONTINUOUS
 62
     6
100
AcDbCircle
 10
2376.854928
 20
1729.746708
 30
0.0
 40
1.5
  0
LINE
  5
684
100
AcDbEntity
  8
化粧台
  6
CONTINUOUS
 62
     6
100
AcDbLine
 10
2373.079459
 20
1728.748793
 30
0.0
 11
2378.517306
 21
1726.213084
 31
0.0
  0
ARC
  5
685
100
AcDbEntity
  8
化粧台
  6
CONTINUOUS
 62
     6
100
AcDbCircle
 10
2325.294991
 20
1619.177242
 30
0.0
 40
125.0
100
AcDbArc
 50
49.999324
 51
80.000001
  0
ARC
  5
686
100
AcDbEntity
  8
化粧台
  6
CONTINUOUS
 62
     6
100
AcDbCircle
 10
2459.830503
 20
1735.508825
 30
0.0
 40
20.0
100
AcDbArc
 50
192.0
 51
249.933858
  0
ARC
  5
687
100
AcDbEntity
  8
鏡台
  6
CONTINUOUS
 62
     2
100
AcDbCircle
 10
408.66394
 20
1329.62329
 30
0.0
 40
2500.0
100
AcDbArc
 50
82.436951
 51
85.971846
  0
ARC
  5
688
100
AcDbEntity
  8
鏡台
  6
CONTINUOUS
 62
     2
100
AcDbCircle
 10
584.983039
 20
3833.422718
 30
0.0
 40
10.0
100
AcDbArc
 50
182.999998
 51
265.971846
  0
LINE
  5
689
100
AcDbEntity
  8
鏡台
  6
CONTINUOUS
 62
     2
100
AcDbLine
 10
574.996743
 20
3832.899359
 30
0.0
 11
570.898425
 21
3911.1
 31
0.0
  0
ARC
  5
68A
100
AcDbEntity
  8
鏡台
  6
CONTINUOUS
 62
     2
100
AcDbCircle
 10
932.5
 20
5275.0
 30
0.0
 40
1480.0
100
AcDbArc
 50
262.436951
 51
277.563048
  0
ARC
  5
68B
100
AcDbEntity
  8
鏡台
  6
CONTINUOUS
 62
     2
100
AcDbCircle
 10
1456.33606
 20
1329.62329
 30
0.0
 40
2500.0
100
AcDbArc
 50
94.028154
 51
97.563048
  0
LINE
  5
68C
100
AcDbEntity
  8
鏡台
  6
CONTINUOUS
 62
     2
100
AcDbLine
 10
1290.003287
 20
3832.899364
 30
0.0
 11
1294.101581
 21
3911.1
 31
0.0
  0
ARC
  5
68D
100
AcDbEntity
  8
鏡台
  6
CONTINUOUS
 62
     2
100
AcDbCircle
 10
1280.016991
 20
3833.42272
 30
0.0
 40
10.0
100
AcDbArc
 50
274.028154
 51
357.00002
  0
LINE
  5
68E
100
AcDbEntity
  8
鏡台
  6
CONTINUOUS
 62
     6
100
AcDbLine
 10
562.0
 20
3867.0
 30
0.0
 11
573.209606
 21
3867.0
 31
0.0
  0
LINE
  5
68F
100
AcDbEntity
  8
鏡台
  6
CONTINUOUS
 62
     6
100
AcDbLine
 10
562.0
 20
3881.0
 30
0.0
 11
572.475898
 21
3881.0
 31
0.0
  0
LINE
  5
690
100
AcDbEntity
  8
鏡台
  6
CONTINUOUS
 62
     6
100
AcDbLine
 10
562.0
 20
3867.0
 30
0.0
 11
562.0
 21
3881.0
 31
0.0
  0
LINE
  5
691
100
AcDbEntity
  8
鏡台
  6
CONTINUOUS
 62
     6
100
AcDbLine
 10
1303.0
 20
3867.0
 30
0.0
 11
1291.790394
 21
3867.0
 31
0.0
  0
LINE
  5
692
100
AcDbEntity
  8
鏡台
  6
CONTINUOUS
 62
     6
100
AcDbLine
 10
1303.0
 20
3881.0
 30
0.0
 11
1292.524102
 21
3881.0
 31
0.0
  0
LINE
  5
693
100
AcDbEntity
  8
鏡台
  6
CONTINUOUS
 62
     6
100
AcDbLine
 10
1303.0
 20
3867.0
 30
0.0
 11
1303.0
 21
3881.0
 31
0.0
  0
LINE
  5
694
100
AcDbEntity
  8
鏡台
  6
CONTINUOUS
 62
     6
100
AcDbLine
 10
558.564678
 20
3883.0
 30
0.0
 11
572.371082
 21
3883.0
 31
0.0
  0
LINE
  5
695
100
AcDbEntity
  8
鏡台
  6
CONTINUOUS
 62
     2
100
AcDbLine
 10
558.590858
 20
3880.0
 30
0.0
 11
562.0
 21
3880.0
 31
0.0
  0
LINE
  5
696
100
AcDbEntity
  8
鏡台
  6
CONTINUOUS
 62
     2
100
AcDbLine
 10
557.5
 20
4005.0
 30
0.0
 11
558.590858
 21
3880.0
 31
0.0
  0
LINE
  5
697
100
AcDbEntity
  8
鏡台
  6
CONTINUOUS
 62
     2
100
AcDbLine
 10
558.319453
 20
3911.1
 30
0.0
 11
1306.680547
 21
3911.1
 31
0.0
  0
LINE
  5
698
100
AcDbEntity
  8
鏡台
  6
CONTINUOUS
 62
     2
100
AcDbLine
 10
1307.5
 20
4005.0
 30
0.0
 11
1306.409142
 21
3880.0
 31
0.0
  0
LINE
  5
699
100
AcDbEntity
  8
鏡台
  6
CONTINUOUS
 62
     6
100
AcDbLine
 10
1306.435322
 20
3883.0
 30
0.0
 11
1292.628918
 21
3883.0
 31
0.0
  0
LINE
  5
69A
100
AcDbEntity
  8
鏡台
  6
CONTINUOUS
 62
     2
100
AcDbLine
 10
1306.409142
 20
3880.0
 30
0.0
 11
1303.0
 21
3880.0
 31
0.0
  0
LINE
  5
69B
100
AcDbEntity
  8
鏡台
  6
CONTINUOUS
 62
     6
100
AcDbLine
 10
1376.113647
 20
3855.752808
 30
0.0
 11
1365.7771
 21
3851.990601
 31
0.0
  0
LINE
  5
69C
100
AcDbEntity
  8
鏡台
  6
CONTINUOUS
 62
     6
100
AcDbLine
 10
1371.154297
 20
3869.378296
 30
0.0
 11
1357.734497
 21
3863.854126
 31
0.0
  0
LINE
  5
69D
100
AcDbEntity
  8
鏡台
  6
CONTINUOUS
 62
     6
100
AcDbLine
 10
1365.103516
 20
3871.964966
 30
0.0
 11
1356.294434
 21
3868.758667
 31
0.0
  0
LINE
  5
69E
100
AcDbEntity
  8
鏡台
  6
CONTINUOUS
 62
     6
100
AcDbLine
 10
1357.734497
 20
3863.854126
 30
0.0
 11
1351.336304
 21
3885.644531
 31
0.0
  0
LINE
  5
69F
100
AcDbEntity
  8
鏡台
  6
CONTINUOUS
 62
     6
100
AcDbLine
 10
1358.026611
 20
3888.080933
 30
0.0
 11
1365.808105
 21
3870.360229
 31
0.0
  0
LINE
  5
6A0
100
AcDbEntity
  8
鏡台
  6
CONTINUOUS
 62
     6
100
AcDbLine
 10
1390.635742
 20
3862.634644
 30
0.0
 11
1375.600586
 21
3857.162476
 31
0.0
  0
LINE
  5
6A1
100
AcDbEntity
  8
鏡台
  6
CONTINUOUS
 62
     6
100
AcDbLine
 10
1387.557495
 20
3871.091919
 30
0.0
 11
1372.522461
 21
3865.619751
 31
0.0
  0
LINE
  5
6A2
100
AcDbEntity
  8
鏡台
  6
CONTINUOUS
 62
     6
100
AcDbLine
 10
1365.776978
 20
3851.990601
 30
0.0
 11
1361.672852
 21
3863.266968
 31
0.0
  0
LINE
  5
6A3
100
AcDbEntity
  8
鏡台
  6
CONTINUOUS
 62
     6
100
AcDbLine
 10
1372.009399
 20
3867.029175
 30
0.0
 11
1361.672852
 21
3863.266968
 31
0.0
  0
LINE
  5
6A4
100
AcDbEntity
  8
鏡台
  6
CONTINUOUS
 62
     6
100
AcDbLine
 10
1371.154297
 20
3869.378296
 30
0.0
 11
1369.674316
 21
3868.783081
 31
0.0
  0
LINE
  5
6A5
100
AcDbEntity
  8
鏡台
  6
CONTINUOUS
 62
     6
100
AcDbLine
 10
1377.139648
 20
3852.933716
 30
0.0
 11
1363.60083
 21
3849.004028
 31
0.0
  0
LINE
  5
6A6
100
AcDbEntity
  8
鏡台
  6
CONTINUOUS
 62
     6
100
AcDbLine
 10
1371.154297
 20
3869.378296
 30
0.0
 11
1377.139648
 21
3852.933716
 31
0.0
  0
LINE
  5
6A7
100
AcDbEntity
  8
鏡台
  6
CONTINUOUS
 62
     6
100
AcDbLine
 10
1357.560791
 20
3862.869263
 30
0.0
 11
1362.382324
 21
3849.622192
 31
0.0
  0
LINE
  5
6A8
100
AcDbEntity
  8
鏡台
  6
CONTINUOUS
 62
     6
100
AcDbLine
 10
1356.768921
 20
3888.61853
 30
0.0
 11
1351.953735
 21
3886.865967
 31
0.0
  0
ARC
  5
6A9
100
AcDbEntity
  8
鏡台
  6
CONTINUOUS
 62
     6
100
AcDbCircle
 10
1368.554932
 20
3871.566528
 30
0.0
 40
3.0
100
AcDbArc
 50
203.707275
 51
291.909241
  0
ARC
  5
6AA
100
AcDbEntity
  8
鏡台
  6
CONTINUOUS
 62
     6
100
AcDbCircle
 10
1352.295776
 20
3885.92627
 30
0.0
 40
1.0
100
AcDbArc
 50
110.000061
 51
196.363464
  0
ARC
  5
6AB
100
AcDbEntity
  8
鏡台
  6
CONTINUOUS
 62
     6
100
AcDbCircle
 10
1357.110962
 20
3887.678833
 30
0.0
 40
1.0
100
AcDbArc
 50
23.707275
 51
110.0
  0
ARC
  5
6AC
100
AcDbEntity
  8
鏡台
  6
CONTINUOUS
 62
     6
100
AcDbCircle
 10
1380.704834
 20
3863.80896
 30
0.0
 40
10.0
100
AcDbArc
 50
353.256348
 51
46.743622
  0
ARC
  5
6AD
100
AcDbEntity
  8
鏡台
  6
CONTINUOUS
 62
     6
100
AcDbCircle
 10
1363.322021
 20
3849.964233
 30
0.0
 40
1.0
100
AcDbArc
 50
200.0
 51
286.186218
  0
ARC
  5
6AE
100
AcDbEntity
  8
鏡台
  6
CONTINUOUS
 62
     6
100
AcDbCircle
 10
1358.500488
 20
3863.211304
 30
0.0
 40
1.0
100
AcDbArc
 50
111.909119
 51
200.0
  0
ARC
  5
6AF
100
AcDbEntity
  8
鏡台
  6
CONTINUOUS
 62
     6
100
AcDbCircle
 10
1489.157593
 20
3947.165039
 30
0.0
 40
150.0
100
AcDbArc
 50
184.388733
 51
203.721497
  0
ARC
  5
6B0
100
AcDbEntity
  8
鏡台
  6
CONTINUOUS
 62
     6
100
AcDbCircle
 10
1494.650391
 20
3946.883301
 30
0.0
 40
150.0
100
AcDbArc
 50
184.77002
 51
202.901428
  0
ARC
  5
6B1
100
AcDbEntity
  8
鏡台
  6
CONTINUOUS
 62
     6
100
AcDbCircle
 10
1219.249512
 20
3935.189941
 30
0.0
 40
120.0
100
AcDbArc
 50
4.115021
 51
27.576874
  0
ARC
  5
6B2
100
AcDbEntity
  8
鏡台
  6
CONTINUOUS
 62
     6
100
AcDbCircle
 10
1225.145508
 20
3936.416992
 30
0.0
 40
120.0
100
AcDbArc
 50
2.871643
 51
29.221863
  0
ARC
  5
6B3
100
AcDbEntity
  8
鏡台
  6
CONTINUOUS
 62
     6
100
AcDbCircle
 10
1368.554932
 20
3871.566528
 30
0.0
 40
3.0
100
AcDbArc
 50
203.707275
 51
291.909241
  0
ARC
  5
6B4
100
AcDbEntity
  8
鏡台
  6
CONTINUOUS
 62
     6
100
AcDbCircle
 10
1352.295776
 20
3885.92627
 30
0.0
 40
1.0
100
AcDbArc
 50
110.000061
 51
196.363464
  0
ARC
  5
6B5
100
AcDbEntity
  8
鏡台
  6
CONTINUOUS
 62
     6
100
AcDbCircle
 10
1357.110962
 20
3887.678833
 30
0.0
 40
1.0
100
AcDbArc
 50
23.707275
 51
110.0
  0
ARC
  5
6B6
100
AcDbEntity
  8
鏡台
  6
CONTINUOUS
 62
     6
100
AcDbCircle
 10
1380.704834
 20
3863.80896
 30
0.0
 40
10.0
100
AcDbArc
 50
353.256348
 51
46.743622
  0
ARC
  5
6B7
100
AcDbEntity
  8
鏡台
  6
CONTINUOUS
 62
     6
100
AcDbCircle
 10
1363.322021
 20
3849.964233
 30
0.0
 40
1.0
100
AcDbArc
 50
200.0
 51
286.186218
  0
ARC
  5
6B8
100
AcDbEntity
  8
鏡台
  6
CONTINUOUS
 62
     6
100
AcDbCircle
 10
1358.500488
 20
3863.211304
 30
0.0
 40
1.0
100
AcDbArc
 50
111.909119
 51
200.0
  0
ARC
  5
6B9
100
AcDbEntity
  8
鏡台
  6
CONTINUOUS
 62
     6
100
AcDbCircle
 10
1336.359131
 20
3926.998779
 30
0.0
 40
16.999516
100
AcDbArc
 50
71.927826
 51
128.074554
  0
ARC
  5
6BA
100
AcDbEntity
  8
鏡台
  6
CONTINUOUS
 62
     6
100
AcDbCircle
 10
1346.905396
 20
3959.318604
 30
0.0
 40
16.997519
100
AcDbArc
 50
251.927856
 51
280.004395
  0
ARC
  5
6BB
100
AcDbEntity
  8
鏡台
  6
CONTINUOUS
 62
     6
100
AcDbCircle
 10
1346.904175
 20
3959.325928
 30
0.0
 40
17.004932
100
AcDbArc
 50
280.004395
 51
308.068359
  0
ARC
  5
6BC
100
AcDbEntity
  8
鏡台
  6
CONTINUOUS
 62
     6
100
AcDbCircle
 10
1336.359131
 20
3918.998779
 30
0.0
 40
16.999516
100
AcDbArc
 50
71.927826
 51
128.074554
  0
ARC
  5
6BD
100
AcDbEntity
  8
鏡台
  6
CONTINUOUS
 62
     6
100
AcDbCircle
 10
1346.905396
 20
3951.318604
 30
0.0
 40
16.997519
100
AcDbArc
 50
251.927856
 51
280.004395
  0
ARC
  5
6BE
100
AcDbEntity
  8
鏡台
  6
CONTINUOUS
 62
     6
100
AcDbCircle
 10
1346.904175
 20
3951.325928
 30
0.0
 40
17.004932
100
AcDbArc
 50
280.004395
 51
308.068359
  0
ARC
  5
6BF
100
AcDbEntity
  8
鏡台
  6
CONTINUOUS
 62
     6
100
AcDbCircle
 10
1307.500854
 20
3975.0
 30
0.0
 40
30.0
100
AcDbArc
 50
41.793671
 51
90.001631
  0
ARC
  5
6C0
100
AcDbEntity
  8
鏡台
  6
CONTINUOUS
 62
     6
100
AcDbCircle
 10
1307.500854
 20
3975.0
 30
0.0
 40
24.0
100
AcDbArc
 50
40.990967
 51
90.502341
  0
LINE
  5
6C1
100
AcDbEntity
  8
鏡台
  6
CONTINUOUS
 62
     6
100
AcDbLine
 10
602.5
 20
3990.0
 30
0.0
 11
602.5
 21
4052.5
 31
0.0
  0
LINE
  5
6C2
100
AcDbEntity
  8
鏡台
  6
CONTINUOUS
 62
     6
100
AcDbLine
 10
604.5
 20
4005.0
 30
0.0
 11
602.5
 21
4037.5
 31
0.0
  0
LINE
  5
6C3
100
AcDbEntity
  8
鏡台
  6
CONTINUOUS
 62
     6
100
AcDbLine
 10
602.5
 20
4037.5
 30
0.0
 11
600.5
 21
4005.0
 31
0.0
  0
LINE
  5
6C4
100
AcDbEntity
  8
鏡台
  6
CONTINUOUS
 62
     6
100
AcDbLine
 10
670.0
 20
3990.0
 30
0.0
 11
670.0
 21
4052.5
 31
0.0
  0
LINE
  5
6C5
100
AcDbEntity
  8
鏡台
  6
CONTINUOUS
 62
     6
100
AcDbLine
 10
672.0
 20
4005.0
 30
0.0
 11
670.0
 21
4037.5
 31
0.0
  0
LINE
  5
6C6
100
AcDbEntity
  8
鏡台
  6
CONTINUOUS
 62
     6
100
AcDbLine
 10
670.0
 20
4037.5
 30
0.0
 11
668.0
 21
4005.0
 31
0.0
  0
LINE
  5
6C7
100
AcDbEntity
  8
鏡台
  6
CONTINUOUS
 62
     6
100
AcDbLine
 10
1195.0
 20
3990.0
 30
0.0
 11
1195.0
 21
4052.5
 31
0.0
  0
LINE
  5
6C8
100
AcDbEntity
  8
鏡台
  6
CONTINUOUS
 62
     6
100
AcDbLine
 10
1197.0
 20
4005.0
 30
0.0
 11
1195.0
 21
4037.5
 31
0.0
  0
LINE
  5
6C9
100
AcDbEntity
  8
鏡台
  6
CONTINUOUS
 62
     6
100
AcDbLine
 10
1195.0
 20
4037.5
 30
0.0
 11
1193.0
 21
4005.0
 31
0.0
  0
LINE
  5
6CA
100
AcDbEntity
  8
鏡台
  6
CONTINUOUS
 62
     6
100
AcDbLine
 10
1262.5
 20
3990.0
 30
0.0
 11
1262.5
 21
4052.5
 31
0.0
  0
LINE
  5
6CB
100
AcDbEntity
  8
鏡台
  6
CONTINUOUS
 62
     6
100
AcDbLine
 10
1264.5
 20
4005.0
 30
0.0
 11
1262.5
 21
4037.5
 31
0.0
  0
LINE
  5
6CC
100
AcDbEntity
  8
鏡台
  6
CONTINUOUS
 62
     6
100
AcDbLine
 10
1262.5
 20
4037.5
 30
0.0
 11
1260.5
 21
4005.0
 31
0.0
  0
LINE
  5
6CD
100
AcDbEntity
  8
鏡台
  6
CONTINUOUS
 62
     6
100
AcDbLine
 10
934.5
 20
4005.0
 30
0.0
 11
932.5
 21
4037.5
 31
0.0
  0
LINE
  5
6CE
100
AcDbEntity
  8
鏡台
  6
CONTINUOUS
 62
     6
100
AcDbLine
 10
932.5
 20
4037.5
 30
0.0
 11
930.5
 21
4005.0
 31
0.0
  0
DIMENSION
  5
6DA
100
AcDbEntity
  8
鏡台
  6
CONTINUOUS
 62
     3
100
AcDbDimension
  2
*D15
 10
1262.5
 20
2894.5
 30
0.0
 11
932.5
 21
2929.75
 31
0.0
 70
   160
  3
STANDARD
100
AcDbAlignedDimension
 13
602.5
 23
2773.0
 33
0.0
 14
1262.5
 24
2773.0
 34
0.0
100
AcDbRotatedDimension
1001
ACAD
1000
DSTYLE
1002
{
1070
     6
1000
_EX_NORM
1070
     7
1000
_EX_NORM
1070
    41
1040
45.0
1070
    42
1040
10.5
1070
    44
1040
15.0
1070
    73
1070
     0
1070
    74
1070
     0
1070
    75
1070
     0
1070
    76
1070
     0
1070
    77
1070
     1
1070
    78
1070
     0
1070
   140
1040
60.0
1070
   147
1040
5.25
1070
   173
1070
     1
1070
   176
1070
     3
1070
   177
1070
     3
1070
   178
1070
     2
1070
   271
1070
     0
1070
   279
1070
     2
1070
   280
1070
     0
1070
   287
1070
     5
1070
   340
1005
123
1002
}
  0
DIMENSION
  5
6E6
100
AcDbEntity
  8
鏡台
  6
CONTINUOUS
 62
     3
100
AcDbDimension
  2
*D16
 10
932.5
 20
2232.5
 30
0.0
 11
801.25
 21
2267.75
 31
0.0
 70
   160
  3
STANDARD
100
AcDbAlignedDimension
 13
670.0
 23
2188.0
 33
0.0
 14
932.5
 24
2188.0
 34
0.0
100
AcDbRotatedDimension
1001
ACAD
1000
DSTYLE
1002
{
1070
     6
1000
_EX_NORM
1070
     7
1000
_EX_NORM
1070
    41
1040
45.0
1070
    42
1040
10.5
1070
    44
1040
15.0
1070
    73
1070
     0
1070
    74
1070
     0
1070
    75
1070
     0
1070
    76
1070
     0
1070
    77
1070
     1
1070
    78
1070
     0
1070
   140
1040
60.0
1070
   147
1040
5.25
1070
   173
1070
     1
1070
   176
1070
     3
1070
   177
1070
     3
1070
   178
1070
     2
1070
   271
1070
     0
1070
   279
1070
     2
1070
   280
1070
     0
1070
   287
1070
     5
1070
   340
1005
123
1002
}
  0
DIMENSION
  5
6F2
100
AcDbEntity
  8
鏡台
  6
CONTINUOUS
 62
     3
100
AcDbDimension
  2
*D17
 10
1195.0
 20
2232.5
 30
0.0
 11
1063.75
 21
2267.75
 31
0.0
 70
   160
  3
STANDARD
100
AcDbAlignedDimension
 13
932.5
 23
2188.0
 33
0.0
 14
1195.0
 24
2188.0
 34
0.0
100
AcDbRotatedDimension
1001
ACAD
1000
DSTYLE
1002
{
1070
     6
1000
_EX_NORM
1070
     7
1000
_EX_NORM
1070
    41
1040
45.0
1070
    42
1040
7.5
1070
    44
1040
15.0
1070
    73
1070
     0
1070
    74
1070
     0
1070
    75
1070
     0
1070
    76
1070
     0
1070
    77
1070
     1
1070
    78
1070
     0
1070
   140
1040
60.0
1070
   147
1040
5.25
1070
   173
1070
     1
1070
   176
1070
     3
1070
   177
1070
     3
1070
   178
1070
     2
1070
   271
1070
     0
1070
   279
1070
     2
1070
   280
1070
     0
1070
   287
1070
     5
1070
   340
1005
123
1002
}
  0
DIMENSION
  5
6FE
100
AcDbEntity
  8
鏡台
  6
CONTINUOUS
 62
     3
100
AcDbDimension
  2
*D18
 10
1457.5
 20
1849.5
 30
0.0
 11
1422.25
 21
1784.5
 31
0.0
 70
   160
  3
STANDARD
100
AcDbAlignedDimension
 13
1307.5
 23
1719.5
 33
0.0
 14
1320.576697
 24
1849.5
 34
0.0
 50
90.0
100
AcDbRotatedDimension
1001
ACAD
1000
DSTYLE
1002
{
1070
     6
1000
_EX_NORM
1070
     7
1000
_EX_NORM
1070
    41
1040
45.0
1070
    42
1040
10.5
1070
    44
1040
15.0
1070
    73
1070
     0
1070
    74
1070
     0
1070
    75
1070
     0
1070
    76
1070
     0
1070
    77
1070
     1
1070
    78
1070
     0
1070
   140
1040
60.0
1070
   147
1040
5.25
1070
   173
1070
     1
1070
   176
1070
     3
1070
   177
1070
     3
1070
   178
1070
     2
1070
   271
1070
     0
1070
   279
1070
     2
1070
   280
1070
     0
1070
   287
1070
     5
1070
   340
1005
123
1002
}
  0
DIMENSION
  5
70A
100
AcDbEntity
  8
鏡台
  6
CONTINUOUS
 62
     3
100
AcDbDimension
  2
*D19
 10
1517.5
 20
2819.5
 30
0.0
 11
1482.25
 21
2269.5
 31
0.0
 70
   160
  3
STANDARD
100
AcDbAlignedDimension
 13
1307.5
 23
1719.5
 33
0.0
 14
1307.5
 24
2819.5
 34
0.0
 50
90.0
100
AcDbRotatedDimension
1001
ACAD
1000
DSTYLE
1002
{
1070
     6
1000
_EX_NORM
1070
     7
1000
_EX_NORM
1070
    41
1040
45.0
1070
    42
1040
10.5
1070
    44
1040
15.0
1070
    73
1070
     0
1070
    74
1070
     0
1070
    75
1070
     0
1070
    76
1070
     0
1070
    77
1070
     1
1070
    78
1070
     0
1070
   140
1040
60.0
1070
   147
1040
5.25
1070
   173
1070
     1
1070
   176
1070
     3
1070
   177
1070
     3
1070
   178
1070
     2
1070
   271
1070
     0
1070
   279
1070
     2
1070
   280
1070
     0
1070
   287
1070
     5
1070
   340
1005
123
1002
}
  0
DIMENSION
  5
715
100
AcDbEntity
  8
鏡台
  6
CONTINUOUS
 62
     3
100
AcDbDimension
  2
*D20
 10
2544.5
 20
2871.0
 30
0.0
 11
2439.5
 21
2906.25
 31
0.0
 70
   160
  3
STANDARD
100
AcDbAlignedDimension
 13
2334.5
 23
2791.202357
 33
0.0
 14
2544.5
 24
2819.5
 34
0.0
100
AcDbRotatedDimension
1001
ACAD
1000
DSTYLE
1002
{
1070
     6
1000
_EX_NORM
1070
     7
1000
_EX_NORM
1070
    41
1040
45.0
1070
    42
1040
10.5
1070
    44
1040
15.0
1070
    73
1070
     0
1070
    74
1070
     0
1070
    75
1070
     0
1070
    76
1070
     1
1070
    77
1070
     1
1070
    78
1070
     0
1070
   140
1040
60.0
1070
   147
1040
5.25
1070
   173
1070
     1
1070
   176
1070
     3
1070
   177
1070
     3
1070
   178
1070
     2
1070
   271
1070
     0
1070
   279
1070
     2
1070
   280
1070
     0
1070
   287
1070
     5
1070
   340
1005
123
1002
}
  0
DIMENSION
  5
721
100
AcDbEntity
  8
鏡台
  6
CONTINUOUS
 62
     3
100
AcDbDimension
  2
*D21
 10
2844.5
 20
2764.5
 30
0.0
 11
2809.25
 21
2472.0
 31
0.0
 70
   160
  3
STANDARD
100
AcDbAlignedDimension
 13
2577.0
 23
2179.5
 33
0.0
 14
2577.0
 24
2764.5
 34
0.0
 50
90.0
100
AcDbRotatedDimension
1001
ACAD
1000
DSTYLE
1002
{
1070
     6
1000
_EX_NORM
1070
     7
1000
_EX_NORM
1070
    41
1040
45.0
1070
    42
1040
10.5
1070
    44
1040
15.0
1070
    73
1070
     0
1070
    74
1070
     0
1070
    75
1070
     0
1070
    76
1070
     0
1070
    77
1070
     1
1070
    78
1070
     0
1070
   140
1040
60.0
1070
   147
1040
5.25
1070
   173
1070
     1
1070
   176
1070
     3
1070
   177
1070
     3
1070
   178
1070
     2
1070
   271
1070
     0
1070
   279
1070
     2
1070
   280
1070
     0
1070
   287
1070
     5
1070
   340
1005
123
1002
}
  0
LINE
  5
722
100
AcDbEntity
  8
鏡台
  6
EXLTYPE3
 62
     6
100
AcDbLine
 10
2459.5
 20
1139.5
 30
0.0
 11
2459.5
 21
901.499969
 31
0.0
  0
LINE
  5
723
100
AcDbEntity
  8
鏡台
  6
CONTINUOUS
 62
     6
100
AcDbLine
 10
2469.5
 20
924.49301
 30
0.0
 11
2469.352295
 21
917.727081
 31
0.0
  0
LINE
  5
724
100
AcDbEntity
  8
鏡台
  6
CONTINUOUS
 62
     6
100
AcDbLine
 10
2469.352295
 20
917.727081
 30
0.0
 11
2468.125183
 21
916.499969
 31
0.0
  0
LINE
  5
725
100
AcDbEntity
  8
鏡台
  6
CONTINUOUS
 62
     6
100
AcDbLine
 10
2468.125183
 20
916.499969
 30
0.0
 11
2450.874817
 21
916.499969
 31
0.0
  0
LINE
  5
726
100
AcDbEntity
  8
鏡台
  6
CONTINUOUS
 62
     6
100
AcDbLine
 10
2450.874817
 20
916.499969
 30
0.0
 11
2449.647858
 21
917.727081
 31
0.0
  0
LINE
  5
727
100
AcDbEntity
  8
鏡台
  6
CONTINUOUS
 62
     6
100
AcDbLine
 10
2449.647858
 20
917.727081
 30
0.0
 11
2449.5
 21
924.5
 31
0.0
  0
LINE
  5
728
100
AcDbEntity
  8
鏡台
  6
EXLTYPE4
 62
     6
100
AcDbLine
 10
2449.5
 20
924.5
 30
0.0
 11
2449.5
 21
1124.5
 31
0.0
  0
LINE
  5
729
100
AcDbEntity
  8
鏡台
  6
EXLTYPE4
 62
     6
100
AcDbLine
 10
2469.5
 20
1124.5
 30
0.0
 11
2469.5
 21
924.49301
 31
0.0
  0
ARC
  5
72A
100
AcDbEntity
  8
鏡台
  6
EXLTYPE2
 62
     6
100
AcDbCircle
 10
1047.275636
 20
1605.487035
 30
0.0
 40
100.0
100
AcDbArc
 50
282.96575
 51
308.612867
  0
LINE
  5
72B
100
AcDbEntity
  8
鏡台
  6
CONTINUOUS
 62
     2
100
AcDbLine
 10
933.5
 20
1511.5
 30
0.0
 11
933.5
 21
1019.5
 31
0.0
  0
LINE
  5
72C
100
AcDbEntity
  8
鏡台
  6
CONTINUOUS
 62
     2
100
AcDbLine
 10
931.5
 20
1511.5
 30
0.0
 11
931.5
 21
1019.5
 31
0.0
  0
LINE
  5
72D
100
AcDbEntity
  8
鏡台
  6
CONTINUOUS
 62
     2
100
AcDbLine
 10
557.5
 20
2819.5
 30
0.0
 11
1307.5
 21
2819.5
 31
0.0
  0
LINE
  5
72E
100
AcDbEntity
  8
鏡台
  6
CONTINUOUS
 62
     2
100
AcDbLine
 10
1303.0
 20
2714.5
 30
0.0
 11
1303.0
 21
1969.5
 31
0.0
  0
LINE
  5
72F
100
AcDbEntity
  8
鏡台
  6
CONTINUOUS
 62
     2
100
AcDbLine
 10
562.0
 20
2714.5
 30
0.0
 11
562.0
 21
1969.5
 31
0.0
  0
ARC
  5
730
100
AcDbEntity
  8
鏡台
  6
CONTINUOUS
 62
     2
100
AcDbCircle
 10
1285.518432
 20
2799.692871
 30
0.0
 40
10.0
100
AcDbArc
 50
0.0
 51
90.0
  0
LINE
  5
731
100
AcDbEntity
  8
鏡台
  6
CONTINUOUS
 62
     2
100
AcDbLine
 10
579.481568
 20
2809.692871
 30
0.0
 11
1285.518432
 21
2809.692871
 31
0.0
  0
ARC
  5
732
100
AcDbEntity
  8
鏡台
  6
CONTINUOUS
 62
     2
100
AcDbCircle
 10
579.481568
 20
2799.692871
 30
0.0
 40
10.0
100
AcDbArc
 50
90.0
 51
180.0
  0
LINE
  5
733
100
AcDbEntity
  8
鏡台
  6
CONTINUOUS
 62
     2
100
AcDbLine
 10
569.481568
 20
2799.692871
 30
0.0
 11
569.481568
 21
2733.0
 31
0.0
  0
ARC
  5
734
100
AcDbEntity
  8
鏡台
  6
CONTINUOUS
 62
     2
100
AcDbCircle
 10
579.481568
 20
2733.0
 30
0.0
 40
10.0
100
AcDbArc
 50
180.0
 51
270.0
  0
LINE
  5
735
100
AcDbEntity
  8
鏡台
  6
CONTINUOUS
 62
     2
100
AcDbLine
 10
1295.518432
 20
2799.692871
 30
0.0
 11
1295.518432
 21
2733.0
 31
0.0
  0
ARC
  5
736
100
AcDbEntity
  8
鏡台
  6
CONTINUOUS
 62
     2
100
AcDbCircle
 10
1285.518432
 20
2733.0
 30
0.0
 40
10.0
100
AcDbArc
 50
270.0
 51
0.0
  0
LINE
  5
737
100
AcDbEntity
  8
鏡台
  6
CONTINUOUS
 62
     2
100
AcDbLine
 10
1307.5
 20
2723.0
 30
0.0
 11
557.5
 21
2723.0
 31
0.0
  0
LINE
  5
738
100
AcDbEntity
  8
鏡台
  6
CONTINUOUS
 62
     6
100
AcDbLine
 10
632.5
 20
2764.5
 30
0.0
 11
572.5
 21
2764.5
 31
0.0
  0
LINE
  5
739
100
AcDbEntity
  8
鏡台
  6
CONTINUOUS
 62
     6
100
AcDbLine
 10
602.5
 20
2794.5
 30
0.0
 11
602.5
 21
2734.5
 31
0.0
  0
LINE
  5
73A
100
AcDbEntity
  8
鏡台
  6
CONTINUOUS
 62
     6
100
AcDbLine
 10
1292.5
 20
2764.5
 30
0.0
 11
1232.5
 21
2764.5
 31
0.0
  0
LINE
  5
73B
100
AcDbEntity
  8
鏡台
  6
CONTINUOUS
 62
     6
100
AcDbLine
 10
1262.5
 20
2794.5
 30
0.0
 11
1262.5
 21
2734.5
 31
0.0
  0
CIRCLE
  5
73C
100
AcDbEntity
  8
鏡台
  6
EXLTYPE2
 62
     6
100
AcDbCircle
 10
602.5
 20
2764.5
 30
0.0
 40
8.5
  0
CIRCLE
  5
73D
100
AcDbEntity
  8
鏡台
  6
EXLTYPE2
 62
     6
100
AcDbCircle
 10
1262.5
 20
2764.5
 30
0.0
 40
8.5
  0
ARC
  5
73E
100
AcDbEntity
  8
鏡台
  6
CONTINUOUS
 62
     6
100
AcDbCircle
 10
932.500217
 20
66971.677461
 30
0.0
 40
64166.701417
100
AcDbArc
 50
269.689686
 51
270.310313
  0
ARC
  5
73F
100
AcDbEntity
  8
鏡台
  6
CONTINUOUS
 62
     6
100
AcDbCircle
 10
584.921037
 20
2795.91729
 30
0.0
 40
10.0
100
AcDbArc
 50
89.689686
 51
182.048105
  0
ARC
  5
740
100
AcDbEntity
  8
鏡台
  6
CONTINUOUS
 62
     6
100
AcDbCircle
 10
-243.601101
 20
2766.288178
 30
0.0
 40
819.051758
100
AcDbArc
 50
357.962228
 51
2.048105
  0
ARC
  5
741
100
AcDbEntity
  8
鏡台
  6
CONTINUOUS
 62
     6
100
AcDbCircle
 10
584.926367
 20
2736.808484
 30
0.0
 40
10.0
100
AcDbArc
 50
177.962228
 51
270.310237
  0
ARC
  5
742
100
AcDbEntity
  8
鏡台
  6
CONTINUOUS
 62
     6
100
AcDbCircle
 10
932.500217
 20
-61453.929678
 30
0.0
 40
64181.67916
100
AcDbArc
 50
89.689764
 51
90.310237
  0
ARC
  5
743
100
AcDbEntity
  8
鏡台
  6
CONTINUOUS
 62
     6
100
AcDbCircle
 10
1280.073633
 20
2736.808486
 30
0.0
 40
10.0
100
AcDbArc
 50
269.689764
 51
2.037772
  0
ARC
  5
744
100
AcDbEntity
  8
鏡台
  6
CONTINUOUS
 62
     6
100
AcDbCircle
 10
2108.601101
 20
2766.288178
 30
0.0
 40
819.051758
100
AcDbArc
 50
177.951896
 51
182.037772
  0
ARC
  5
745
100
AcDbEntity
  8
鏡台
  6
CONTINUOUS
 62
     6
100
AcDbCircle
 10
1280.078963
 20
2795.917287
 30
0.0
 40
10.0
100
AcDbArc
 50
357.951896
 51
90.310313
  0
LINE
  5
746
100
AcDbEntity
  8
鏡台
  6
CONTINUOUS
 62
     2
100
AcDbLine
 10
562.0
 20
2690.5
 30
0.0
 11
782.0
 21
2690.5
 31
0.0
  0
LINE
  5
747
100
AcDbEntity
  8
鏡台
  6
CONTINUOUS
 62
     2
100
AcDbLine
 10
562.0
 20
2714.5
 30
0.0
 11
782.0
 21
2714.5
 31
0.0
  0
LINE
  5
748
100
AcDbEntity
  8
鏡台
  6
CONTINUOUS
 62
     2
100
AcDbLine
 10
785.0
 20
2714.5
 30
0.0
 11
1080.0
 21
2714.5
 31
0.0
  0
LINE
  5
749
100
AcDbEntity
  8
鏡台
  6
CONTINUOUS
 62
     2
100
AcDbLine
 10
1083.0
 20
2714.5
 30
0.0
 11
1303.0
 21
2714.5
 31
0.0
  0
LINE
  5
74A
100
AcDbEntity
  8
鏡台
  6
CONTINUOUS
 62
     2
100
AcDbLine
 10
785.0
 20
2690.5
 30
0.0
 11
1080.0
 21
2690.5
 31
0.0
  0
LINE
  5
74B
100
AcDbEntity
  8
鏡台
  6
CONTINUOUS
 62
     2
100
AcDbLine
 10
1083.0
 20
2690.5
 30
0.0
 11
1303.0
 21
2690.5
 31
0.0
  0
LINE
  5
74C
100
AcDbEntity
  8
鏡台
  6
CONTINUOUS
 62
     2
100
AcDbLine
 10
562.0
 20
1993.5
 30
0.0
 11
782.0
 21
1993.5
 31
0.0
  0
LINE
  5
74D
100
AcDbEntity
  8
鏡台
  6
CONTINUOUS
 62
     2
100
AcDbLine
 10
785.0
 20
1993.5
 30
0.0
 11
1080.0
 21
1993.5
 31
0.0
  0
LINE
  5
74E
100
AcDbEntity
  8
鏡台
  6
CONTINUOUS
 62
     2
100
AcDbLine
 10
1083.0
 20
1993.5
 30
0.0
 11
1303.0
 21
1993.5
 31
0.0
  0
LINE
  5
74F
100
AcDbEntity
  8
鏡台
  6
CONTINUOUS
 62
     2
100
AcDbLine
 10
557.5
 20
1969.5
 30
0.0
 11
1307.5
 21
1969.5
 31
0.0
  0
LINE
  5
750
100
AcDbEntity
  8
鏡台
  6
CONTINUOUS
 62
     2
100
AcDbLine
 10
557.5
 20
1929.5
 30
0.0
 11
782.5
 21
1929.5
 31
0.0
  0
LINE
  5
751
100
AcDbEntity
  8
鏡台
  6
CONTINUOUS
 62
     2
100
AcDbLine
 10
737.5
 20
1969.5
 30
0.0
 11
737.5
 21
1929.5
 31
0.0
  0
LINE
  5
752
100
AcDbEntity
  8
鏡台
  6
CONTINUOUS
 62
     2
100
AcDbLine
 10
782.5
 20
1969.5
 30
0.0
 11
782.5
 21
1929.5
 31
0.0
  0
LINE
  5
753
100
AcDbEntity
  8
鏡台
  6
CONTINUOUS
 62
     6
100
AcDbLine
 10
629.5
 20
1956.5
 30
0.0
 11
665.5
 21
1956.5
 31
0.0
  0
LINE
  5
754
100
AcDbEntity
  8
鏡台
  6
CONTINUOUS
 62
     6
100
AcDbLine
 10
629.5
 20
1950.5
 30
0.0
 11
665.5
 21
1950.5
 31
0.0
  0
ARC
  5
755
100
AcDbEntity
  8
鏡台
  6
CONTINUOUS
 62
     6
100
AcDbCircle
 10
629.5
 20
1953.5
 30
0.0
 40
3.0
100
AcDbArc
 50
90.0
 51
270.0
  0
ARC
  5
756
100
AcDbEntity
  8
鏡台
  6
CONTINUOUS
 62
     6
100
AcDbCircle
 10
665.5
 20
1953.5
 30
0.0
 40
3.0
100
AcDbArc
 50
270.0
 51
90.0
  0
LINE
  5
757
100
AcDbEntity
  8
鏡台
  6
CONTINUOUS
 62
     6
100
AcDbLine
 10
1195.0
 20
2209.5
 30
0.0
 11
1195.0
 21
2149.5
 31
0.0
  0
LINE
  5
758
100
AcDbEntity
  8
鏡台
  6
CONTINUOUS
 62
     6
100
AcDbLine
 10
1225.0
 20
2179.5
 30
0.0
 11
1165.0
 21
2179.5
 31
0.0
  0
CIRCLE
  5
759
100
AcDbEntity
  8
鏡台
  6
EXLTYPE2
 62
     6
100
AcDbCircle
 10
1195.0
 20
2179.5
 30
0.0
 40
8.5
  0
LINE
  5
75A
100
AcDbEntity
  8
鏡台
  6
CONTINUOUS
 62
     6
100
AcDbLine
 10
962.5
 20
2179.5
 30
0.0
 11
902.5
 21
2179.5
 31
0.0
  0
CIRCLE
  5
75B
100
AcDbEntity
  8
鏡台
  6
EXLTYPE2
 62
     6
100
AcDbCircle
 10
932.5
 20
2179.5
 30
0.0
 40
8.5
  0
LINE
  5
75C
100
AcDbEntity
  8
鏡台
  6
CONTINUOUS
 62
     6
100
AcDbLine
 10
670.0
 20
2209.5
 30
0.0
 11
670.0
 21
2149.5
 31
0.0
  0
LINE
  5
75D
100
AcDbEntity
  8
鏡台
  6
CONTINUOUS
 62
     6
100
AcDbLine
 10
700.0
 20
2179.5
 30
0.0
 11
640.0
 21
2179.5
 31
0.0
  0
CIRCLE
  5
75E
100
AcDbEntity
  8
鏡台
  6
EXLTYPE2
 62
     6
100
AcDbCircle
 10
670.0
 20
2179.5
 30
0.0
 40
8.5
  0
LINE
  5
75F
100
AcDbEntity
  8
鏡台
  6
CONTINUOUS
 62
     6
100
AcDbLine
 10
668.533009
 20
2101.533009
 30
0.0
 11
615.5
 21
2048.5
 31
0.0
  0
LINE
  5
760
100
AcDbEntity
  8
鏡台
  6
CONTINUOUS
 62
     6
100
AcDbLine
 10
645.893146
 20
2090.206854
 30
0.0
 11
626.943146
 21
2071.256854
 31
0.0
  0
LINE
  5
761
100
AcDbEntity
  8
鏡台
  6
CONTINUOUS
 62
     6
100
AcDbLine
 10
662.406854
 20
2084.093146
 30
0.0
 11
632.706854
 21
2054.393146
 31
0.0
  0
LINE
  5
762
100
AcDbEntity
  8
鏡台
  6
CONTINUOUS
 62
     6
100
AcDbLine
 10
753.533009
 20
2381.533009
 30
0.0
 11
700.5
 21
2328.5
 31
0.0
  0
LINE
  5
763
100
AcDbEntity
  8
鏡台
  6
CONTINUOUS
 62
     6
100
AcDbLine
 10
730.893146
 20
2370.206854
 30
0.0
 11
711.943146
 21
2351.256854
 31
0.0
  0
LINE
  5
764
100
AcDbEntity
  8
鏡台
  6
CONTINUOUS
 62
     6
100
AcDbLine
 10
747.406854
 20
2364.093146
 30
0.0
 11
717.706854
 21
2334.393146
 31
0.0
  0
LINE
  5
765
100
AcDbEntity
  8
鏡台
  6
CONTINUOUS
 62
     6
100
AcDbLine
 10
675.533009
 20
2558.533009
 30
0.0
 11
622.5
 21
2505.5
 31
0.0
  0
LINE
  5
766
100
AcDbEntity
  8
鏡台
  6
CONTINUOUS
 62
     6
100
AcDbLine
 10
652.893146
 20
2547.206854
 30
0.0
 11
633.943146
 21
2528.256854
 31
0.0
  0
LINE
  5
767
100
AcDbEntity
  8
鏡台
  6
CONTINUOUS
 62
     6
100
AcDbLine
 10
669.406854
 20
2541.093146
 30
0.0
 11
639.706854
 21
2511.393146
 31
0.0
  0
LINE
  5
768
100
AcDbEntity
  8
鏡台
  6
CONTINUOUS
 62
     6
100
AcDbLine
 10
1173.893146
 20
2547.206854
 30
0.0
 11
1154.943146
 21
2528.256854
 31
0.0
  0
LINE
  5
769
100
AcDbEntity
  8
鏡台
  6
CONTINUOUS
 62
     6
100
AcDbLine
 10
1196.533009
 20
2558.533009
 30
0.0
 11
1143.5
 21
2505.5
 31
0.0
  0
LINE
  5
76A
100
AcDbEntity
  8
鏡台
  6
CONTINUOUS
 62
     6
100
AcDbLine
 10
1190.406854
 20
2541.093146
 30
0.0
 11
1160.706854
 21
2511.393146
 31
0.0
  0
LINE
  5
76B
100
AcDbEntity
  8
鏡台
  6
CONTINUOUS
 62
     6
100
AcDbLine
 10
1251.893146
 20
2370.206854
 30
0.0
 11
1232.943146
 21
2351.256854
 31
0.0
  0
LINE
  5
76C
100
AcDbEntity
  8
鏡台
  6
CONTINUOUS
 62
     6
100
AcDbLine
 10
1274.533009
 20
2381.533009
 30
0.0
 11
1221.5
 21
2328.5
 31
0.0
  0
LINE
  5
76D
100
AcDbEntity
  8
鏡台
  6
CONTINUOUS
 62
     6
100
AcDbLine
 10
1268.406854
 20
2364.093146
 30
0.0
 11
1238.706854
 21
2334.393146
 31
0.0
  0
LINE
  5
76E
100
AcDbEntity
  8
鏡台
  6
CONTINUOUS
 62
     6
100
AcDbLine
 10
1166.893146
 20
2090.206854
 30
0.0
 11
1147.943146
 21
2071.256854
 31
0.0
  0
LINE
  5
76F
100
AcDbEntity
  8
鏡台
  6
CONTINUOUS
 62
     6
100
AcDbLine
 10
1183.406854
 20
2084.093146
 30
0.0
 11
1153.706854
 21
2054.393146
 31
0.0
  0
LINE
  5
770
100
AcDbEntity
  8
鏡台
  6
CONTINUOUS
 62
     6
100
AcDbLine
 10
1189.533009
 20
2101.533009
 30
0.0
 11
1136.5
 21
2048.5
 31
0.0
  0
LINE
  5
771
100
AcDbEntity
  8
鏡台
  6
CONTINUOUS
 62
     6
100
AcDbLine
 10
1363.107802
 20
1734.912733
 30
0.0
 11
1352.482689
 21
1732.065732
 31
0.0
  0
LINE
  5
772
100
AcDbEntity
  8
鏡台
  6
CONTINUOUS
 62
     6
100
AcDbLine
 10
1359.354862
 20
1748.918608
 30
0.0
 11
1345.504666
 21
1744.585072
 31
0.0
  0
LINE
  5
773
100
AcDbEntity
  8
鏡台
  6
CONTINUOUS
 62
     6
100
AcDbLine
 10
1353.552539
 20
1752.022674
 30
0.0
 11
1344.49753
 21
1749.596338
 31
0.0
  0
LINE
  5
774
100
AcDbEntity
  8
鏡台
  6
CONTINUOUS
 62
     6
100
AcDbLine
 10
1345.504666
 20
1744.585072
 30
0.0
 11
1341.029978
 21
1766.850197
 31
0.0
  0
LINE
  5
775
100
AcDbEntity
  8
鏡台
  6
CONTINUOUS
 62
     6
100
AcDbLine
 10
1347.907174
 20
1768.694229
 30
0.0
 11
1354.114596
 21
1750.362756
 31
0.0
  0
LINE
  5
776
100
AcDbEntity
  8
鏡台
  6
CONTINUOUS
 62
     6
100
AcDbLine
 10
1378.174427
 20
1740.502698
 30
0.0
 11
1362.719542
 21
1736.361631
 31
0.0
  0
LINE
  5
777
100
AcDbEntity
  8
鏡台
  6
CONTINUOUS
 62
     6
100
AcDbLine
 10
1375.844994
 20
1749.196077
 30
0.0
 11
1360.39023
 21
1745.055
 31
0.0
  0
LINE
  5
778
100
AcDbEntity
  8
鏡台
  6
CONTINUOUS
 62
     6
100
AcDbLine
 10
1352.482568
 20
1732.065743
 30
0.0
 11
1349.376849
 21
1743.656776
 31
0.0
  0
LINE
  5
779
100
AcDbEntity
  8
鏡台
  6
CONTINUOUS
 62
     6
100
AcDbLine
 10
1360.001972
 20
1746.503899
 30
0.0
 11
1349.376849
 21
1743.656776
 31
0.0
  0
LINE
  5
77A
100
AcDbEntity
  8
鏡台
  6
CONTINUOUS
 62
     6
100
AcDbLine
 10
1359.354862
 20
1748.918608
 30
0.0
 11
1357.828637
 21
1748.454647
 31
0.0
  0
LINE
  5
77B
100
AcDbEntity
  8
鏡台
  6
CONTINUOUS
 62
     6
100
AcDbLine
 10
1363.884198
 20
1732.014947
 30
0.0
 11
1350.054394
 21
1729.280077
 31
0.0
  0
LINE
  5
77C
100
AcDbEntity
  8
鏡台
  6
CONTINUOUS
 62
     6
100
AcDbLine
 10
1359.354862
 20
1748.918608
 30
0.0
 11
1363.884198
 21
1732.014947
 31
0.0
  0
LINE
  5
77D
100
AcDbEntity
  8
鏡台
  6
CONTINUOUS
 62
     6
100
AcDbLine
 10
1345.245785
 20
1743.619096
 30
0.0
 11
1348.894412
 21
1730.00221
 31
0.0
  0
LINE
  5
77E
100
AcDbEntity
  8
鏡台
  6
CONTINUOUS
 62
     6
100
AcDbLine
 10
1346.701124
 20
1769.339395
 30
0.0
 11
1341.751516
 21
1768.013172
 31
0.0
  0
ARC
  5
77F
100
AcDbEntity
  8
鏡台
  6
CONTINUOUS
 62
     6
100
AcDbCircle
 10
1489.156677
 20
1794.665039
 30
0.0
 40
150.0
100
AcDbArc
 50
184.010986
 51
190.263581
  0
ARC
  5
780
100
AcDbEntity
  8
鏡台
  6
CONTINUOUS
 62
     6
100
AcDbCircle
 10
1494.649475
 20
1794.383301
 30
0.0
 40
150.0
100
AcDbArc
 50
184.385864
 51
189.606282
  0
ARC
  5
781
100
AcDbEntity
  8
鏡台
  6
CONTINUOUS
 62
     6
100
AcDbCircle
 10
1356.956095
 20
1751.324941
 30
0.0
 40
3.0
100
AcDbArc
 50
198.707275
 51
286.909241
  0
ARC
  5
782
100
AcDbEntity
  8
鏡台
  6
CONTINUOUS
 62
     6
100
AcDbCircle
 10
1342.010355
 20
1767.047239
 30
0.0
 40
1.0
100
AcDbArc
 50
105.000061
 51
191.363464
  0
ARC
  5
783
100
AcDbEntity
  8
鏡台
  6
CONTINUOUS
 62
     6
100
AcDbCircle
 10
1346.959963
 20
1768.373463
 30
0.0
 40
1.0
100
AcDbArc
 50
18.707275
 51
105.0
  0
ARC
  5
784
100
AcDbEntity
  8
鏡台
  6
CONTINUOUS
 62
     6
100
AcDbCircle
 10
1368.383657
 20
1742.538081
 30
0.0
 40
10.0
100
AcDbArc
 50
348.256348
 51
41.743622
  0
ARC
  5
785
100
AcDbEntity
  8
鏡台
  6
CONTINUOUS
 62
     6
100
AcDbCircle
 10
1349.860344
 20
1730.261049
 30
0.0
 40
1.0
100
AcDbArc
 50
195.0
 51
281.186218
  0
ARC
  5
786
100
AcDbEntity
  8
鏡台
  6
CONTINUOUS
 62
     6
100
AcDbCircle
 10
1346.211717
 20
1743.877935
 30
0.0
 40
1.0
100
AcDbArc
 50
106.909119
 51
195.0
  0
ARC
  5
787
100
AcDbEntity
  8
鏡台
  6
CONTINUOUS
 62
     6
100
AcDbCircle
 10
1219.248657
 20
1782.689941
 30
0.0
 40
120.0
100
AcDbArc
 50
4.590393
 51
27.576874
  0
ARC
  5
788
100
AcDbEntity
  8
鏡台
  6
CONTINUOUS
 62
     6
100
AcDbCircle
 10
1225.144653
 20
1783.916992
 30
0.0
 40
120.0
100
AcDbArc
 50
3.349121
 51
29.221863
  0
ARC
  5
789
100
AcDbEntity
  8
鏡台
  6
CONTINUOUS
 62
     6
100
AcDbCircle
 10
1307.5
 20
1822.5
 30
0.0
 40
30.0
100
AcDbArc
 50
41.793671
 51
90.0
  0
ARC
  5
78A
100
AcDbEntity
  8
鏡台
  6
CONTINUOUS
 62
     6
100
AcDbCircle
 10
1356.956095
 20
1751.324941
 30
0.0
 40
3.0
100
AcDbArc
 50
198.707275
 51
286.909241
  0
ARC
  5
78B
100
AcDbEntity
  8
鏡台
  6
CONTINUOUS
 62
     6
100
AcDbCircle
 10
1342.010355
 20
1767.047239
 30
0.0
 40
1.0
100
AcDbArc
 50
105.000061
 51
191.363464
  0
ARC
  5
78C
100
AcDbEntity
  8
鏡台
  6
CONTINUOUS
 62
     6
100
AcDbCircle
 10
1346.959963
 20
1768.373463
 30
0.0
 40
1.0
100
AcDbArc
 50
18.707275
 51
105.0
  0
ARC
  5
78D
100
AcDbEntity
  8
鏡台
  6
CONTINUOUS
 62
     6
100
AcDbCircle
 10
1368.383657
 20
1742.538081
 30
0.0
 40
10.0
100
AcDbArc
 50
348.256348
 51
41.743622
  0
ARC
  5
78E
100
AcDbEntity
  8
鏡台
  6
CONTINUOUS
 62
     6
100
AcDbCircle
 10
1349.860344
 20
1730.261049
 30
0.0
 40
1.0
100
AcDbArc
 50
195.0
 51
281.186218
  0
ARC
  5
78F
100
AcDbEntity
  8
鏡台
  6
CONTINUOUS
 62
     6
100
AcDbCircle
 10
1346.211717
 20
1743.877935
 30
0.0
 40
1.0
100
AcDbArc
 50
106.909119
 51
195.0
  0
ARC
  5
790
100
AcDbEntity
  8
鏡台
  6
CONTINUOUS
 62
     6
100
AcDbCircle
 10
1307.5
 20
1822.5
 30
0.0
 40
24.0
100
AcDbArc
 50
40.990967
 51
90.0
  0
ARC
  5
791
100
AcDbEntity
  8
鏡台
  6
CONTINUOUS
 62
     6
100
AcDbCircle
 10
1336.127808
 20
1775.515259
 30
0.0
 40
17.00025
100
AcDbArc
 50
71.928894
 51
128.072876
  0
ARC
  5
792
100
AcDbEntity
  8
鏡台
  6
CONTINUOUS
 62
     6
100
AcDbCircle
 10
1346.674561
 20
1807.838562
 30
0.0
 40
17.000208
100
AcDbArc
 50
251.928955
 51
280.001038
  0
ARC
  5
793
100
AcDbEntity
  8
鏡台
  6
CONTINUOUS
 62
     6
100
AcDbCircle
 10
1346.674683
 20
1807.838379
 30
0.0
 40
17.000029
100
AcDbArc
 50
280.001038
 51
308.073608
  0
ARC
  5
794
100
AcDbEntity
  8
鏡台
  6
CONTINUOUS
 62
     6
100
AcDbCircle
 10
1336.127808
 20
1767.515259
 30
0.0
 40
17.00025
100
AcDbArc
 50
71.928894
 51
128.072876
  0
ARC
  5
795
100
AcDbEntity
  8
鏡台
  6
CONTINUOUS
 62
     6
100
AcDbCircle
 10
1346.674561
 20
1799.838562
 30
0.0
 40
17.000208
100
AcDbArc
 50
251.928955
 51
280.001038
  0
ARC
  5
796
100
AcDbEntity
  8
鏡台
  6
CONTINUOUS
 62
     6
100
AcDbCircle
 10
1346.674683
 20
1799.838379
 30
0.0
 40
17.000029
100
AcDbArc
 50
280.001038
 51
308.073608
  0
LINE
  5
797
100
AcDbEntity
  8
鏡台
  6
CONTINUOUS
 62
     6
100
AcDbLine
 10
1277.5
 20
1849.5
 30
0.0
 11
1350.576697
 21
1849.5
 31
0.0
  0
LINE
  5
798
100
AcDbEntity
  8
鏡台
  6
EXLTYPE2
 62
     6
100
AcDbLine
 10
842.5
 20
2124.5
 30
0.0
 11
1022.5
 21
2124.5
 31
0.0
  0
LINE
  5
799
100
AcDbEntity
  8
鏡台
  6
EXLTYPE2
 62
     6
100
AcDbLine
 10
842.5
 20
2554.5
 30
0.0
 11
1022.5
 21
2554.5
 31
0.0
  0
LINE
  5
79A
100
AcDbEntity
  8
鏡台
  6
CONTINUOUS
 62
     6
100
AcDbLine
 10
881.533009
 20
2641.533009
 30
0.0
 11
828.5
 21
2588.5
 31
0.0
  0
LINE
  5
79B
100
AcDbEntity
  8
鏡台
  6
CONTINUOUS
 62
     6
100
AcDbLine
 10
858.893146
 20
2630.206854
 30
0.0
 11
839.943146
 21
2611.256854
 31
0.0
  0
LINE
  5
79C
100
AcDbEntity
  8
鏡台
  6
CONTINUOUS
 62
     6
100
AcDbLine
 10
875.406854
 20
2624.093146
 30
0.0
 11
845.706854
 21
2594.393146
 31
0.0
  0
LINE
  5
79D
100
AcDbEntity
  8
鏡台
  6
CONTINUOUS
 62
     6
100
AcDbLine
 10
911.533009
 20
2086.533009
 30
0.0
 11
858.5
 21
2033.5
 31
0.0
  0
LINE
  5
79E
100
AcDbEntity
  8
鏡台
  6
CONTINUOUS
 62
     6
100
AcDbLine
 10
888.893146
 20
2075.206854
 30
0.0
 11
869.943146
 21
2056.256854
 31
0.0
  0
LINE
  5
79F
100
AcDbEntity
  8
鏡台
  6
CONTINUOUS
 62
     6
100
AcDbLine
 10
905.406854
 20
2069.093146
 30
0.0
 11
875.706854
 21
2039.393146
 31
0.0
  0
LINE
  5
7A0
100
AcDbEntity
  8
鏡台
  6
CONTINUOUS
 62
     6
100
AcDbLine
 10
1008.533009
 20
2372.533009
 30
0.0
 11
955.5
 21
2319.5
 31
0.0
  0
LINE
  5
7A1
100
AcDbEntity
  8
鏡台
  6
CONTINUOUS
 62
     6
100
AcDbLine
 10
985.893146
 20
2361.206854
 30
0.0
 11
966.943146
 21
2342.256854
 31
0.0
  0
LINE
  5
7A2
100
AcDbEntity
  8
鏡台
  6
CONTINUOUS
 62
     6
100
AcDbLine
 10
1002.406854
 20
2355.093146
 30
0.0
 11
972.706854
 21
2325.393146
 31
0.0
  0
LINE
  5
7A3
100
AcDbEntity
  8
鏡台
  6
CONTINUOUS
 62
     6
100
AcDbLine
 10
932.5
 20
2209.5
 30
0.0
 11
932.5
 21
2149.5
 31
0.0
  0
LINE
  5
7A4
100
AcDbEntity
  8
鏡台
  6
CONTINUOUS
 62
     2
100
AcDbLine
 10
785.0
 20
2714.5
 30
0.0
 11
785.0
 21
2301.5
 31
0.0
  0
LINE
  5
7A5
100
AcDbEntity
  8
鏡台
  6
CONTINUOUS
 62
     2
100
AcDbLine
 10
785.0
 20
2210.5
 30
0.0
 11
785.0
 21
1969.5
 31
0.0
  0
LINE
  5
7A6
100
AcDbEntity
  8
鏡台
  6
CONTINUOUS
 62
     2
100
AcDbLine
 10
1080.0
 20
2714.5
 30
0.0
 11
1080.0
 21
2301.5
 31
0.0
  0
LINE
  5
7A7
100
AcDbEntity
  8
鏡台
  6
CONTINUOUS
 62
     2
100
AcDbLine
 10
1080.0
 20
2210.5
 30
0.0
 11
1080.0
 21
1969.5
 31
0.0
  0
LINE
  5
7A8
100
AcDbEntity
  8
鏡台
  6
CONTINUOUS
 62
     2
100
AcDbLine
 10
1083.0
 20
2714.5
 30
0.0
 11
1083.0
 21
2301.5
 31
0.0
  0
LINE
  5
7A9
100
AcDbEntity
  8
鏡台
  6
CONTINUOUS
 62
     2
100
AcDbLine
 10
1083.0
 20
2210.5
 30
0.0
 11
1083.0
 21
1969.5
 31
0.0
  0
LINE
  5
7AA
100
AcDbEntity
  8
鏡台
  6
CONTINUOUS
 62
     2
100
AcDbLine
 10
782.0
 20
2714.5
 30
0.0
 11
782.0
 21
2301.5
 31
0.0
  0
LINE
  5
7AB
100
AcDbEntity
  8
鏡台
  6
CONTINUOUS
 62
     2
100
AcDbLine
 10
782.0
 20
2210.5
 30
0.0
 11
782.0
 21
1969.5
 31
0.0
  0
LINE
  5
7AC
100
AcDbEntity
  8
鏡台
  6
EXLTYPE2
 62
     6
100
AcDbLine
 10
842.5
 20
2554.5
 30
0.0
 11
842.5
 21
2301.5
 31
0.0
  0
LINE
  5
7AD
100
AcDbEntity
  8
鏡台
  6
EXLTYPE2
 62
     6
100
AcDbLine
 10
842.5
 20
2210.5
 30
0.0
 11
842.5
 21
2124.5
 31
0.0
  0
LINE
  5
7AE
100
AcDbEntity
  8
鏡台
  6
EXLTYPE2
 62
     6
100
AcDbLine
 10
1022.5
 20
2554.5
 30
0.0
 11
1022.5
 21
2301.5
 31
0.0
  0
LINE
  5
7AF
100
AcDbEntity
  8
鏡台
  6
EXLTYPE2
 62
     6
100
AcDbLine
 10
1022.5
 20
2210.5
 30
0.0
 11
1022.5
 21
2124.5
 31
0.0
  0
LINE
  5
7B0
100
AcDbEntity
  8
鏡台
  6
CONTINUOUS
 62
     3
100
AcDbLine
 10
932.5
 20
2198.5
 30
0.0
 11
932.5
 21
2210.5
 31
0.0
  0
LINE
  5
7B1
100
AcDbEntity
  8
鏡台
  6
CONTINUOUS
 62
     3
100
AcDbLine
 10
932.5
 20
2198.5
 30
0.0
 11
932.5
 21
2210.5
 31
0.0
  0
LINE
  5
7B2
100
AcDbEntity
  8
鏡台
  6
CONTINUOUS
 62
     2
100
AcDbLine
 10
557.5
 20
2819.5
 30
0.0
 11
557.5
 21
1719.5
 31
0.0
  0
LINE
  5
7B3
100
AcDbEntity
  8
鏡台
  6
CONTINUOUS
 62
     2
100
AcDbLine
 10
1307.5
 20
2819.5
 30
0.0
 11
1307.5
 21
1719.5
 31
0.0
  0
LINE
  5
7B4
100
AcDbEntity
  8
鏡台
  6
CONTINUOUS
 62
     2
100
AcDbLine
 10
2544.5
 20
2819.5
 30
0.0
 11
2544.5
 21
1719.5
 31
0.0
  0
LINE
  5
7B5
100
AcDbEntity
  8
鏡台
  6
CONTINUOUS
 62
     2
100
AcDbLine
 10
2419.5
 20
1969.5
 30
0.0
 11
2524.5
 21
1969.5
 31
0.0
  0
ARC
  5
7B6
100
AcDbEntity
  8
鏡台
  6
CONTINUOUS
 62
     2
100
AcDbCircle
 10
2369.628241
 20
2743.118023
 30
0.0
 40
20.0
100
AcDbArc
 50
203.031494
 51
270.0
  0
ARC
  5
7B7
100
AcDbEntity
  8
鏡台
  6
CONTINUOUS
 62
     2
100
AcDbCircle
 10
2599.700724
 20
2840.927355
 30
0.0
 40
270.0
100
AcDbArc
 50
191.025757
 51
203.031494
  0
ARC
  5
7B8
100
AcDbEntity
  8
鏡台
  6
CONTINUOUS
 62
     2
100
AcDbCircle
 10
2344.5
 20
2791.202357
 30
0.0
 40
10.0
100
AcDbArc
 50
94.000031
 51
191.025757
  0
ARC
  5
7B9
100
AcDbEntity
  8
鏡台
  6
CONTINUOUS
 62
     6
100
AcDbCircle
 10
2372.766597
 20
2793.178943
 30
0.0
 40
10.0
100
AcDbArc
 50
94.000061
 51
187.019409
  0
ARC
  5
7BA
100
AcDbEntity
  8
鏡台
  6
CONTINUOUS
 62
     6
100
AcDbCircle
 10
2630.817715
 20
2824.952687
 30
0.0
 40
270.0
100
AcDbArc
 50
187.01947
 51
199.909058
  0
ARC
  5
7BB
100
AcDbEntity
  8
鏡台
  6
CONTINUOUS
 62
     6
100
AcDbCircle
 10
2391.057979
 20
2738.118052
 30
0.0
 40
15.0
100
AcDbArc
 50
199.909058
 51
270.0
  0
LINE
  5
7BC
100
AcDbEntity
  8
鏡台
  6
CONTINUOUS
 62
     2
100
AcDbLine
 10
2343.802433
 20
2801.177985
 30
0.0
 11
2457.5
 21
2809.1285
 31
0.0
  0
LINE
  5
7BD
100
AcDbEntity
  8
鏡台
  6
CONTINUOUS
 62
     2
100
AcDbLine
 10
2457.5
 20
2723.118018
 30
0.0
 11
2369.628232
 21
2723.118045
 31
0.0
  0
LINE
  5
7BE
100
AcDbEntity
  8
鏡台
  6
CONTINUOUS
 62
     6
100
AcDbLine
 10
2406.5
 20
2690.5
 30
0.0
 11
2409.5
 21
2690.5
 31
0.0
  0
LINE
  5
7BF
100
AcDbEntity
  8
鏡台
  6
CONTINUOUS
 62
     6
100
AcDbLine
 10
2406.5
 20
2714.5
 30
0.0
 11
2414.5
 21
2714.5
 31
0.0
  0
LINE
  5
7C0
100
AcDbEntity
  8
鏡台
  6
CONTINUOUS
 62
     6
100
AcDbLine
 10
2414.5
 20
2714.5
 30
0.0
 11
2414.5
 21
1969.5
 31
0.0
  0
LINE
  5
7C1
100
AcDbEntity
  8
鏡台
  6
CONTINUOUS
 62
     6
100
AcDbLine
 10
2409.5
 20
2690.5
 30
0.0
 11
2409.5
 21
1993.5
 31
0.0
  0
LINE
  5
7C2
100
AcDbEntity
  8
鏡台
  6
CONTINUOUS
 62
     6
100
AcDbLine
 10
2406.5
 20
2714.5
 30
0.0
 11
2406.5
 21
2690.5
 31
0.0
  0
LINE
  5
7C3
100
AcDbEntity
  8
鏡台
  6
CONTINUOUS
 62
     6
100
AcDbLine
 10
2406.5
 20
1993.5
 30
0.0
 11
2406.5
 21
1969.5
 31
0.0
  0
LINE
  5
7C4
100
AcDbEntity
  8
鏡台
  6
CONTINUOUS
 62
     6
100
AcDbLine
 10
2406.5
 20
1993.5
 30
0.0
 11
2409.5
 21
1993.5
 31
0.0
  0
LINE
  5
7C5
100
AcDbEntity
  8
鏡台
  6
CONTINUOUS
 62
     6
100
AcDbLine
 10
2406.5
 20
1969.5
 30
0.0
 11
2414.5
 21
1969.5
 31
0.0
  0
LINE
  5
7C6
100
AcDbEntity
  8
鏡台
  6
CONTINUOUS
 62
     6
100
AcDbLine
 10
2411.5
 20
1956.5
 30
0.0
 11
2419.5
 21
1956.5
 31
0.0
  0
LINE
  5
7C7
100
AcDbEntity
  8
鏡台
  6
CONTINUOUS
 62
     6
100
AcDbLine
 10
2411.5
 20
1950.5
 30
0.0
 11
2419.5
 21
1950.5
 31
0.0
  0
ARC
  5
7C8
100
AcDbEntity
  8
鏡台
  6
CONTINUOUS
 62
     6
100
AcDbCircle
 10
2411.5
 20
1953.5
 30
0.0
 40
3.0
100
AcDbArc
 50
90.0
 51
270.0
  0
LINE
  5
7C9
100
AcDbEntity
  8
鏡台
  6
CONTINUOUS
 62
     2
100
AcDbLine
 10
2419.5
 20
2719.5
 30
0.0
 11
2419.5
 21
1969.5
 31
0.0
  0
ARC
  5
7CA
100
AcDbEntity
  8
鏡台
  6
CONTINUOUS
 62
     2
100
AcDbCircle
 10
2422.5
 20
1966.5
 30
0.0
 40
3.0
100
AcDbArc
 50
90.0
 51
180.0
  0
LINE
  5
7CB
100
AcDbEntity
  8
鏡台
  6
CONTINUOUS
 62
     2
100
AcDbLine
 10
2419.5
 20
1966.5
 30
0.0
 11
2419.5
 21
1932.346894
 31
0.0
  0
LINE
  5
7CC
100
AcDbEntity
  8
鏡台
  6
CONTINUOUS
 62
     2
100
AcDbLine
 10
2422.342992
 20
1929.351005
 30
0.0
 11
2524.5
 21
1923.997183
 31
0.0
  0
ARC
  5
7CD
100
AcDbEntity
  8
鏡台
  6
CONTINUOUS
 62
     2
100
AcDbCircle
 10
2422.5
 20
1932.346894
 30
0.0
 40
3.0
100
AcDbArc
 50
180.0
 51
267.0
  0
LINE
  5
7CE
100
AcDbEntity
  8
鏡台
  6
CONTINUOUS
 62
     2
100
AcDbLine
 10
2524.5
 20
1969.5
 30
0.0
 11
2524.5
 21
1719.5
 31
0.0
  0
LINE
  5
7CF
100
AcDbEntity
  8
鏡台
  6
CONTINUOUS
 62
     2
100
AcDbLine
 10
2419.5
 20
2719.5
 30
0.0
 11
2457.5
 21
2719.5
 31
0.0
  0
LINE
  5
7D0
100
AcDbEntity
  8
鏡台
  6
CONTINUOUS
 62
     6
100
AcDbLine
 10
2457.5
 20
2719.5
 30
0.0
 11
2524.5
 21
2719.5
 31
0.0
  0
LINE
  5
7D1
100
AcDbEntity
  8
鏡台
  6
CONTINUOUS
 62
     6
100
AcDbLine
 10
2524.5
 20
2719.5
 30
0.0
 11
2524.5
 21
1969.5
 31
0.0
  0
LINE
  5
7D2
100
AcDbEntity
  8
鏡台
  6
CONTINUOUS
 62
     2
100
AcDbLine
 10
2544.5
 20
2819.5
 30
0.0
 11
2460.395302
 21
2816.562999
 31
0.0
  0
LINE
  5
7D3
100
AcDbEntity
  8
鏡台
  6
CONTINUOUS
 62
     2
100
AcDbLine
 10
2457.5
 20
2813.564827
 30
0.0
 11
2457.5
 21
2719.5
 31
0.0
  0
ARC
  5
7D4
100
AcDbEntity
  8
鏡台
  6
CONTINUOUS
 62
     2
100
AcDbCircle
 10
2460.5
 20
2813.564827
 30
0.0
 40
3.0
100
AcDbArc
 50
92.0
 51
180.0
  0
LINE
  5
7D5
100
AcDbEntity
  8
鏡台
  6
CONTINUOUS
 62
     6
100
AcDbLine
 10
2529.5
 20
2764.5
 30
0.0
 11
2592.0
 21
2764.5
 31
0.0
  0
LINE
  5
7D6
100
AcDbEntity
  8
鏡台
  6
CONTINUOUS
 62
     6
100
AcDbLine
 10
2544.5
 20
2762.5
 30
0.0
 11
2577.0
 21
2764.5
 31
0.0
  0
LINE
  5
7D7
100
AcDbEntity
  8
鏡台
  6
CONTINUOUS
 62
     6
100
AcDbLine
 10
2577.0
 20
2764.5
 30
0.0
 11
2544.5
 21
2766.5
 31
0.0
  0
LINE
  5
7D8
100
AcDbEntity
  8
鏡台
  6
CONTINUOUS
 62
     6
100
AcDbLine
 10
2529.5
 20
2179.5
 30
0.0
 11
2592.0
 21
2179.5
 31
0.0
  0
LINE
  5
7D9
100
AcDbEntity
  8
鏡台
  6
CONTINUOUS
 62
     6
100
AcDbLine
 10
2544.5
 20
2177.5
 30
0.0
 11
2577.0
 21
2179.5
 31
0.0
  0
LINE
  5
7DA
100
AcDbEntity
  8
鏡台
  6
CONTINUOUS
 62
     6
100
AcDbLine
 10
2577.0
 20
2179.5
 30
0.0
 11
2544.5
 21
2181.5
 31
0.0
  0
LINE
  5
7DB
100
AcDbEntity
  8
鏡台
  6
CONTINUOUS
 62
     2
100
AcDbLine
 10
2524.5
 20
1719.5
 30
0.0
 11
2544.5
 21
1719.5
 31
0.0
  0
TEXT
  5
7DC
100
AcDbEntity
  8
付属金具
  6
CONTINUOUS
 62
     2
100
AcDbText
 10
1575.500002
 20
719.25
 30
0.0
 40
60.0
  1
ＶＰ･ＶＵ４０･５０
 41
0.72594
  7
EXCADSTD
 72
     5
 11
2075.0
 21
719.25
 31
0.0
100
AcDbText
  0
LEADER
  5
7DD
100
AcDbEntity
  8
付属金具
  6
CONTINUOUS
 62
     3
100
AcDbLeader
  3
STANDARD
 73
     3
 74
     1
 75
     0
 40
0.0
 76
     3
 10
2371.5
 20
929.5
 30
0.0
 10
2082.5
 20
714.0
 30
0.0
 10
1573.5
 20
714.0
 30
0.0
 77
     3
1001
ACAD
1000
DSTYLE
1002
{
1070
    41
1040
52.5
1070
     5
1000
_EX_NORM
1070
     6
1000
_EX_NORM
1070
     7
1000
_EX_NORM
1070
   341
1005
2A
1002
}
  0
POLYLINE
  5
7DE
100
AcDbEntity
  8
付属金具
  6
CONTINUOUS
 62
     3
100
AcDb2dPolyline
 66
     1
 10
0.0
 20
0.0
 30
0.0
 70
   128
  0
VERTEX
  5
7DF
100
AcDbEntity
  8
付属金具
  6
CONTINUOUS
 62
     3
100
AcDbVertex
100
AcDb2dVertex
 10
2042.5
 20
924.5
 30
0.0
  0
VERTEX
  5
7E0
100
AcDbEntity
  8
付属金具
  6
CONTINUOUS
 62
     3
100
AcDbVertex
100
AcDb2dVertex
 10
2023.5
 20
973.5
 30
0.0
  0
SEQEND
  5
7E1
100
AcDbEntity
  8
付属金具
  6
CONTINUOUS
 62
     3
  0
LINE
  5
7E2
100
AcDbEntity
  8
付属金具
  6
CONTINUOUS
 62
     3
100
AcDbLine
 10
2019.238537
 20
963.7448
 30
0.0
 11
2042.5
 21
924.5
 31
0.0
  0
LINE
  5
7E3
100
AcDbEntity
  8
付属金具
  6
CONTINUOUS
 62
     3
100
AcDbLine
 10
2042.5
 20
924.5
 30
0.0
 11
2033.223956
 21
969.167718
 31
0.0
  0
LINE
  5
7E4
100
AcDbEntity
  8
付属金具
  6
CONTINUOUS
 62
     6
100
AcDbLine
 10
983.5
 20
3950.0
 30
0.0
 11
983.5
 21
3870.0
 31
0.0
  0
LINE
  5
7E5
100
AcDbEntity
  8
付属金具
  6
CONTINUOUS
 62
     6
100
AcDbLine
 10
881.5
 20
3870.0
 30
0.0
 11
881.5
 21
3950.0
 31
0.0
  0
TEXT
  5
7E6
100
AcDbEntity
  8
付属金具
  6
CONTINUOUS
 62
     2
100
AcDbText
 10
1916.0
 20
924.5
 30
0.0
 40
60.0
  1
F.L.
 41
0.4125
  7
EXCADSTD
 72
     5
 11
2006.7434
 21
924.5
 31
0.0
100
AcDbText
  0
LINE
  5
7E7
100
AcDbEntity
  8
付属金具
  6
EXLTYPE4
 62
     6
100
AcDbLine
 10
2544.5
 20
924.5
 30
0.0
 11
1909.0
 21
924.5
 31
0.0
  0
LINE
  5
7E8
100
AcDbEntity
  8
付属金具
  6
CONTINUOUS
 62
     6
100
AcDbLine
 10
881.5
 20
1791.163781
 30
0.0
 11
881.5
 21
1666.163506
 31
0.0
  0
LINE
  5
7E9
100
AcDbEntity
  8
付属金具
  6
CONTINUOUS
 62
     6
100
AcDbLine
 10
983.5
 20
1791.163781
 30
0.0
 11
983.5
 21
1666.163506
 31
0.0
  0
LINE
  5
7EA
100
AcDbEntity
  8
付属金具
  6
EXLTYPE3
 62
     6
100
AcDbLine
 10
1007.5
 20
1139.5
 30
0.0
 11
1007.5
 21
901.499969
 31
0.0
  0
LINE
  5
7EB
100
AcDbEntity
  8
付属金具
  6
EXLTYPE4
 62
     6
100
AcDbLine
 10
1017.5
 20
1124.5
 30
0.0
 11
1017.5
 21
924.49301
 31
0.0
  0
LINE
  5
7EC
100
AcDbEntity
  8
付属金具
  6
EXLTYPE4
 62
     6
100
AcDbLine
 10
997.5
 20
924.5
 30
0.0
 11
997.5
 21
1124.5
 31
0.0
  0
LINE
  5
7ED
100
AcDbEntity
  8
付属金具
  6
CONTINUOUS
 62
     6
100
AcDbLine
 10
1016.125183
 20
916.499969
 30
0.0
 11
998.874817
 21
916.499969
 31
0.0
  0
LINE
  5
7EE
100
AcDbEntity
  8
付属金具
  6
CONTINUOUS
 62
     6
100
AcDbLine
 10
998.874817
 20
916.499969
 30
0.0
 11
997.647858
 21
917.727081
 31
0.0
  0
LINE
  5
7EF
100
AcDbEntity
  8
付属金具
  6
CONTINUOUS
 62
     6
100
AcDbLine
 10
997.647858
 20
917.727081
 30
0.0
 11
997.5
 21
924.5
 31
0.0
  0
LINE
  5
7F0
100
AcDbEntity
  8
付属金具
  6
CONTINUOUS
 62
     6
100
AcDbLine
 10
1017.5
 20
924.49301
 30
0.0
 11
1017.352295
 21
917.727081
 31
0.0
  0
LINE
  5
7F1
100
AcDbEntity
  8
付属金具
  6
CONTINUOUS
 62
     6
100
AcDbLine
 10
1017.352295
 20
917.727081
 30
0.0
 11
1016.125183
 21
916.499969
 31
0.0
  0
LINE
  5
7F2
100
AcDbEntity
  8
付属金具
  6
EXLTYPE3
 62
     6
100
AcDbLine
 10
857.5
 20
1139.5
 30
0.0
 11
857.5
 21
901.499969
 31
0.0
  0
LINE
  5
7F3
100
AcDbEntity
  8
付属金具
  6
CONTINUOUS
 62
     6
100
AcDbLine
 10
867.5
 20
924.49301
 30
0.0
 11
867.352295
 21
917.727081
 31
0.0
  0
LINE
  5
7F4
100
AcDbEntity
  8
付属金具
  6
CONTINUOUS
 62
     6
100
AcDbLine
 10
867.352295
 20
917.727081
 30
0.0
 11
866.125183
 21
916.499969
 31
0.0
  0
LINE
  5
7F5
100
AcDbEntity
  8
付属金具
  6
CONTINUOUS
 62
     6
100
AcDbLine
 10
866.125183
 20
916.499969
 30
0.0
 11
848.874817
 21
916.499969
 31
0.0
  0
LINE
  5
7F6
100
AcDbEntity
  8
付属金具
  6
CONTINUOUS
 62
     6
100
AcDbLine
 10
848.874817
 20
916.499969
 30
0.0
 11
847.647858
 21
917.727081
 31
0.0
  0
LINE
  5
7F7
100
AcDbEntity
  8
付属金具
  6
CONTINUOUS
 62
     6
100
AcDbLine
 10
847.647858
 20
917.727081
 30
0.0
 11
847.5
 21
924.5
 31
0.0
  0
LINE
  5
7F8
100
AcDbEntity
  8
付属金具
  6
EXLTYPE4
 62
     6
100
AcDbLine
 10
847.5
 20
924.5
 30
0.0
 11
847.5
 21
1124.5
 31
0.0
  0
LINE
  5
7F9
100
AcDbEntity
  8
付属金具
  6
EXLTYPE4
 62
     6
100
AcDbLine
 10
867.5
 20
1124.5
 30
0.0
 11
867.5
 21
924.49301
 31
0.0
  0
LINE
  5
7FA
100
AcDbEntity
  8
付属金具
  6
CONTINUOUS
 62
     6
100
AcDbLine
 10
2449.5
 20
1791.163781
 30
0.0
 11
2449.5
 21
1666.163506
 31
0.0
  0
LINE
  5
7FB
100
AcDbEntity
  8
付属金具
  6
CONTINUOUS
 62
     6
100
AcDbLine
 10
1020.5
 20
1268.663691
 30
0.0
 11
1020.5
 21
1280.336309
 31
0.0
  0
LINE
  5
7FC
100
AcDbEntity
  8
付属金具
  6
CONTINUOUS
 62
     6
100
AcDbLine
 10
1006.054392
 20
1288.676485
 30
0.0
 11
995.945608
 21
1282.840176
 31
0.0
  0
LINE
  5
7FD
100
AcDbEntity
  8
付属金具
  6
CONTINUOUS
 62
     6
100
AcDbLine
 10
995.945608
 20
1266.159824
 30
0.0
 11
1006.054392
 21
1260.323515
 31
0.0
  0
ARC
  5
7FE
100
AcDbEntity
  8
付属金具
  6
CONTINUOUS
 62
     6
100
AcDbCircle
 10
1007.5
 20
1274.5
 30
0.0
 40
14.25
100
AcDbArc
 50
264.177545
 51
275.822455
  0
ARC
  5
7FF
100
AcDbEntity
  8
付属金具
  6
CONTINUOUS
 62
     6
100
AcDbCircle
 10
1007.5
 20
1274.5
 30
0.0
 40
14.25
100
AcDbArc
 50
324.177545
 51
335.822455
  0
ARC
  5
800
100
AcDbEntity
  8
付属金具
  6
CONTINUOUS
 62
     6
100
AcDbCircle
 10
1007.5
 20
1274.5
 30
0.0
 40
14.25
100
AcDbArc
 50
24.177545
 51
35.822455
  0
ARC
  5
801
100
AcDbEntity
  8
付属金具
  6
CONTINUOUS
 62
     6
100
AcDbCircle
 10
1007.5
 20
1274.5
 30
0.0
 40
14.25
100
AcDbArc
 50
84.177545
 51
95.822455
  0
ARC
  5
802
100
AcDbEntity
  8
付属金具
  6
CONTINUOUS
 62
     6
100
AcDbCircle
 10
1007.5
 20
1274.5
 30
0.0
 40
14.25
100
AcDbArc
 50
144.177545
 51
155.822455
  0
ARC
  5
803
100
AcDbEntity
  8
付属金具
  6
CONTINUOUS
 62
     6
100
AcDbCircle
 10
1007.5
 20
1274.5
 30
0.0
 40
14.25
100
AcDbArc
 50
204.177545
 51
215.822455
  0
LINE
  5
804
100
AcDbEntity
  8
付属金具
  6
CONTINUOUS
 62
     6
100
AcDbLine
 10
996.0
 20
1308.292887
 30
0.0
 11
996.0
 21
1298.107113
 31
0.0
  0
LINE
  5
805
100
AcDbEntity
  8
付属金具
  6
CONTINUOUS
 62
     6
100
AcDbLine
 10
1019.0
 20
1308.292887
 30
0.0
 11
1019.0
 21
1298.107113
 31
0.0
  0
ARC
  5
806
100
AcDbEntity
  8
付属金具
  6
CONTINUOUS
 62
     6
100
AcDbCircle
 10
1005.75
 20
1303.2
 30
0.0
 40
11.0
100
AcDbArc
 50
207.580199
 51
213.055731
  0
ARC
  5
807
100
AcDbEntity
  8
付属金具
  6
CONTINUOUS
 62
     6
100
AcDbCircle
 10
1009.25
 20
1303.2
 30
0.0
 40
11.0
100
AcDbArc
 50
326.944269
 51
332.419801
  0
CIRCLE
  5
808
100
AcDbEntity
  8
付属金具
  6
EXLTYPE2
 62
     6
100
AcDbCircle
 10
1007.5
 20
1274.5
 30
0.0
 40
12.074349
  0
LINE
  5
809
100
AcDbEntity
  8
付属金具
  6
CONTINUOUS
 62
     6
100
AcDbLine
 10
997.0
 20
1297.2
 30
0.0
 11
997.0
 21
1289.358333
 31
0.0
  0
LINE
  5
80A
100
AcDbEntity
  8
付属金具
  6
CONTINUOUS
 62
     6
100
AcDbLine
 10
1018.0
 20
1289.858333
 30
0.0
 11
1018.0
 21
1283.448929
 31
0.0
  0
LINE
  5
80B
100
AcDbEntity
  8
付属金具
  6
EXLTYPE2
 62
     6
100
AcDbLine
 10
996.530456
 20
1297.2
 30
0.0
 11
1018.469544
 21
1297.2
 31
0.0
  0
CIRCLE
  5
80C
100
AcDbEntity
  8
付属金具
  6
EXLTYPE2
 62
     6
100
AcDbCircle
 10
1007.5
 20
1274.5
 30
0.0
 40
4.75
  0
ARC
  5
80D
100
AcDbEntity
  8
付属金具
  6
EXLTYPE2
 62
     6
100
AcDbCircle
 10
1005.75
 20
1303.2
 30
0.0
 40
11.0
100
AcDbArc
 50
146.944269
 51
152.419801
  0
ARC
  5
80E
100
AcDbEntity
  8
付属金具
  6
EXLTYPE2
 62
     6
100
AcDbCircle
 10
1009.25
 20
1303.2
 30
0.0
 40
11.0
100
AcDbArc
 50
27.580199
 51
33.055731
  0
LINE
  5
80F
100
AcDbEntity
  8
付属金具
  6
EXLTYPE2
 62
     6
100
AcDbLine
 10
996.530456
 20
1309.2
 30
0.0
 11
1018.469544
 21
1309.2
 31
0.0
  0
LINE
  5
810
100
AcDbEntity
  8
付属金具
  6
CONTINUOUS
 62
     6
100
AcDbLine
 10
1007.5
 20
1317.0
 30
0.0
 11
1007.5
 21
1232.0
 31
0.0
  0
LINE
  5
811
100
AcDbEntity
  8
付属金具
  6
CONTINUOUS
 62
     6
100
AcDbLine
 10
965.0
 20
1274.5
 30
0.0
 11
1050.0
 21
1274.5
 31
0.0
  0
LINE
  5
812
100
AcDbEntity
  8
付属金具
  6
CONTINUOUS
 62
     6
100
AcDbLine
 10
857.5
 20
1317.0
 30
0.0
 11
857.5
 21
1232.0
 31
0.0
  0
LINE
  5
813
100
AcDbEntity
  8
付属金具
  6
CONTINUOUS
 62
     6
100
AcDbLine
 10
900.0
 20
1274.5
 30
0.0
 11
815.0
 21
1274.5
 31
0.0
  0
LINE
  5
814
100
AcDbEntity
  8
付属金具
  6
CONTINUOUS
 62
     6
100
AcDbLine
 10
844.5
 20
1268.663691
 30
0.0
 11
844.5
 21
1280.336309
 31
0.0
  0
LINE
  5
815
100
AcDbEntity
  8
付属金具
  6
CONTINUOUS
 62
     6
100
AcDbLine
 10
858.945608
 20
1288.676485
 30
0.0
 11
869.054392
 21
1282.840176
 31
0.0
  0
LINE
  5
816
100
AcDbEntity
  8
付属金具
  6
CONTINUOUS
 62
     6
100
AcDbLine
 10
869.054392
 20
1266.159824
 30
0.0
 11
858.945608
 21
1260.323515
 31
0.0
  0
ARC
  5
817
100
AcDbEntity
  8
付属金具
  6
CONTINUOUS
 62
     6
100
AcDbCircle
 10
857.5
 20
1274.5
 30
0.0
 40
14.25
100
AcDbArc
 50
264.177545
 51
275.822455
  0
ARC
  5
818
100
AcDbEntity
  8
付属金具
  6
CONTINUOUS
 62
     6
100
AcDbCircle
 10
857.5
 20
1274.5
 30
0.0
 40
14.25
100
AcDbArc
 50
204.177545
 51
215.822455
  0
ARC
  5
819
100
AcDbEntity
  8
付属金具
  6
CONTINUOUS
 62
     6
100
AcDbCircle
 10
857.5
 20
1274.5
 30
0.0
 40
14.25
100
AcDbArc
 50
144.177545
 51
155.822455
  0
ARC
  5
81A
100
AcDbEntity
  8
付属金具
  6
CONTINUOUS
 62
     6
100
AcDbCircle
 10
857.5
 20
1274.5
 30
0.0
 40
14.25
100
AcDbArc
 50
84.177545
 51
95.822455
  0
ARC
  5
81B
100
AcDbEntity
  8
付属金具
  6
CONTINUOUS
 62
     6
100
AcDbCircle
 10
857.5
 20
1274.5
 30
0.0
 40
14.25
100
AcDbArc
 50
24.177545
 51
35.822455
  0
ARC
  5
81C
100
AcDbEntity
  8
付属金具
  6
CONTINUOUS
 62
     6
100
AcDbCircle
 10
857.5
 20
1274.5
 30
0.0
 40
14.25
100
AcDbArc
 50
324.177545
 51
335.822455
  0
LINE
  5
81D
100
AcDbEntity
  8
付属金具
  6
CONTINUOUS
 62
     6
100
AcDbLine
 10
869.0
 20
1308.292887
 30
0.0
 11
869.0
 21
1298.107113
 31
0.0
  0
LINE
  5
81E
100
AcDbEntity
  8
付属金具
  6
CONTINUOUS
 62
     6
100
AcDbLine
 10
846.0
 20
1308.292887
 30
0.0
 11
846.0
 21
1298.107113
 31
0.0
  0
ARC
  5
81F
100
AcDbEntity
  8
付属金具
  6
CONTINUOUS
 62
     6
100
AcDbCircle
 10
859.25
 20
1303.2
 30
0.0
 40
11.0
100
AcDbArc
 50
326.944269
 51
332.419801
  0
ARC
  5
820
100
AcDbEntity
  8
付属金具
  6
CONTINUOUS
 62
     6
100
AcDbCircle
 10
855.75
 20
1303.2
 30
0.0
 40
11.0
100
AcDbArc
 50
207.580199
 51
213.055731
  0
CIRCLE
  5
821
100
AcDbEntity
  8
付属金具
  6
EXLTYPE2
 62
     6
100
AcDbCircle
 10
857.5
 20
1274.5
 30
0.0
 40
12.074349
  0
LINE
  5
822
100
AcDbEntity
  8
付属金具
  6
CONTINUOUS
 62
     6
100
AcDbLine
 10
868.0
 20
1297.2
 30
0.0
 11
868.0
 21
1289.358333
 31
0.0
  0
LINE
  5
823
100
AcDbEntity
  8
付属金具
  6
CONTINUOUS
 62
     6
100
AcDbLine
 10
847.0
 20
1289.858333
 30
0.0
 11
847.0
 21
1283.448929
 31
0.0
  0
LINE
  5
824
100
AcDbEntity
  8
付属金具
  6
EXLTYPE2
 62
     6
100
AcDbLine
 10
868.469544
 20
1297.2
 30
0.0
 11
846.530456
 21
1297.2
 31
0.0
  0
CIRCLE
  5
825
100
AcDbEntity
  8
付属金具
  6
EXLTYPE2
 62
     6
100
AcDbCircle
 10
857.5
 20
1274.5
 30
0.0
 40
4.75
  0
ARC
  5
826
100
AcDbEntity
  8
付属金具
  6
EXLTYPE2
 62
     6
100
AcDbCircle
 10
859.25
 20
1303.2
 30
0.0
 40
11.0
100
AcDbArc
 50
27.580199
 51
33.055731
  0
ARC
  5
827
100
AcDbEntity
  8
付属金具
  6
EXLTYPE2
 62
     6
100
AcDbCircle
 10
855.75
 20
1303.2
 30
0.0
 40
11.0
100
AcDbArc
 50
146.944269
 51
152.419801
  0
LINE
  5
828
100
AcDbEntity
  8
付属金具
  6
EXLTYPE2
 62
     6
100
AcDbLine
 10
868.469544
 20
1309.2
 30
0.0
 11
846.530456
 21
1309.2
 31
0.0
  0
LINE
  5
829
100
AcDbEntity
  8
付属金具
  6
EXLTYPE2
 62
     6
100
AcDbLine
 10
863.85
 20
1309.2
 30
0.0
 11
863.85
 21
1440.441667
 31
0.0
  0
LINE
  5
82A
100
AcDbEntity
  8
付属金具
  6
EXLTYPE2
 62
     6
100
AcDbLine
 10
851.15
 20
1309.2
 30
0.0
 11
851.15
 21
1442.558333
 31
0.0
  0
LINE
  5
82B
100
AcDbEntity
  8
付属金具
  6
EXLTYPE2
 62
     6
100
AcDbLine
 10
868.773833
 20
1493.96118
 30
0.0
 11
851.15
 21
1442.558333
 31
0.0
  0
LINE
  5
82C
100
AcDbEntity
  8
付属金具
  6
EXLTYPE2
 62
     6
100
AcDbLine
 10
881.198036
 20
1491.040106
 30
0.0
 11
863.85
 21
1440.441667
 31
0.0
  0
LINE
  5
82D
100
AcDbEntity
  8
付属金具
  6
EXLTYPE2
 62
     6
100
AcDbLine
 10
983.801964
 20
1491.040106
 30
0.0
 11
1001.15
 21
1440.441667
 31
0.0
  0
LINE
  5
82E
100
AcDbEntity
  8
付属金具
  6
EXLTYPE2
 62
     6
100
AcDbLine
 10
996.226167
 20
1493.96118
 30
0.0
 11
1013.85
 21
1442.558333
 31
0.0
  0
LINE
  5
82F
100
AcDbEntity
  8
付属金具
  6
EXLTYPE2
 62
     6
100
AcDbLine
 10
1013.85
 20
1309.2
 30
0.0
 11
1013.85
 21
1442.558333
 31
0.0
  0
LINE
  5
830
100
AcDbEntity
  8
付属金具
  6
EXLTYPE2
 62
     6
100
AcDbLine
 10
1001.15
 20
1309.2
 30
0.0
 11
1001.15
 21
1440.441667
 31
0.0
  0
DIMENSION
  5
83C
100
AcDbEntity
  8
寸法
  6
CONTINUOUS
 62
     3
100
AcDbDimension
  2
*D22
 10
1202.5
 20
4120.0
 30
0.0
 11
932.5
 21
4155.25
 31
0.0
 70
   160
  3
STANDARD
100
AcDbAlignedDimension
 13
662.5
 23
4052.5
 33
0.0
 14
1202.5
 24
4052.5
 34
0.0
100
AcDbRotatedDimension
1001
ACAD
1000
DSTYLE
1002
{
1070
     6
1000
_EX_NORM
1070
     7
1000
_EX_NORM
1070
    41
1040
45.0
1070
    42
1040
10.5
1070
    44
1040
15.0
1070
    73
1070
     0
1070
    74
1070
     0
1070
    75
1070
     0
1070
    76
1070
     0
1070
    77
1070
     1
1070
    78
1070
     0
1070
   140
1040
60.0
1070
   147
1040
5.25
1070
   173
1070
     1
1070
   176
1070
     3
1070
   177
1070
     3
1070
   178
1070
     2
1070
   271
1070
     0
1070
   279
1070
     2
1070
   280
1070
     0
1070
   287
1070
     5
1070
   340
1005
123
1002
}
  0
LINE
  5
83D
100
AcDbEntity
  8
寸法
  6
CONTINUOUS
 62
     3
100
AcDbLine
 10
2544.5
 20
2730.0
 30
0.0
 11
2544.5
 21
2813.5
 31
0.0
  0
DIMENSION
  5
849
100
AcDbEntity
  8
寸法
  6
CONTINUOUS
 62
     3
100
AcDbDimension
  2
*D23
 10
574.0
 20
576.0
 30
0.0
 11
932.5
 21
611.25
 31
0.0
 70
   160
  3
STANDARD
100
AcDbAlignedDimension
 13
1291.0
 23
997.707107
 33
0.0
 14
574.0
 24
997.707107
 34
0.0
100
AcDbRotatedDimension
1001
ACAD
1000
DSTYLE
1002
{
1070
     6
1000
_EX_NORM
1070
     7
1000
_EX_NORM
1070
    41
1040
45.0
1070
    42
1040
73.207104
1070
    44
1040
15.0
1070
    73
1070
     0
1070
    74
1070
     0
1070
    75
1070
     0
1070
    76
1070
     0
1070
    77
1070
     1
1070
    78
1070
     0
1070
   140
1040
60.0
1070
   147
1040
5.25
1070
   173
1070
     1
1070
   176
1070
     3
1070
   177
1070
     3
1070
   178
1070
     2
1070
   271
1070
     0
1070
   279
1070
     2
1070
   280
1070
     0
1070
   287
1070
     5
1070
   340
1005
123
1002
}
  0
DIMENSION
  5
855
100
AcDbEntity
  8
寸法
  6
CONTINUOUS
 62
     3
100
AcDbDimension
  2
*D24
 10
2544.5
 20
666.0
 30
0.0
 11
2664.5
 21
701.25
 31
0.0
 70
   160
  3
STANDARD
100
AcDbAlignedDimension
 13
2404.5
 23
844.207107
 33
0.0
 14
2544.5
 24
997.707107
 34
0.0
100
AcDbRotatedDimension
1001
ACAD
1000
DSTYLE
1002
{
1070
     6
1000
_EX_NORM
1070
     7
1000
_EX_NORM
1070
    41
1040
45.0
1070
    42
1040
69.707108
1070
    44
1040
15.0
1070
    73
1070
     0
1070
    74
1070
     0
1070
    75
1070
     0
1070
    76
1070
     0
1070
    77
1070
     1
1070
    78
1070
     0
1070
   140
1040
60.0
1070
   147
1040
5.25
1070
   173
1070
     1
1070
   176
1070
     3
1070
   177
1070
     3
1070
   178
1070
     2
1070
   271
1070
     0
1070
   279
1070
     2
1070
   280
1070
     2
1070
   287
1070
     5
1070
   340
1005
123
1002
}
  0
DIMENSION
  5
860
100
AcDbEntity
  8
寸法
  6
CONTINUOUS
 62
     3
100
AcDbDimension
  2
*D25
 10
2544.5
 20
756.0
 30
0.0
 11
2754.5
 21
791.25
 31
0.0
 70
   160
  1
85（床給水）
  3
STANDARD
100
AcDbAlignedDimension
 13
2459.5
 23
971.207076
 33
0.0
 14
2544.5
 24
987.207107
 34
0.0
100
AcDbRotatedDimension
1001
ACAD
1000
DSTYLE
1002
{
1070
     6
1000
_EX_NORM
1070
     7
1000
_EX_NORM
1070
    41
1040
45.0
1070
    42
1040
10.5
1070
    44
1040
15.0
1070
    73
1070
     0
1070
    74
1070
     0
1070
    75
1070
     0
1070
    76
1070
     1
1070
    77
1070
     1
1070
    78
1070
     0
1070
   140
1040
60.0
1070
   147
1040
5.25
1070
   173
1070
     1
1070
   176
1070
     3
1070
   177
1070
     3
1070
   178
1070
     2
1070
   271
1070
     0
1070
   279
1070
     2
1070
   280
1070
     2
1070
   287
1070
     5
1070
   340
1005
123
1002
}
  0
DIMENSION
  5
86C
100
AcDbEntity
  8
寸法
  6
CONTINUOUS
 62
     3
100
AcDbDimension
  2
*D26
 10
2544.5
 20
576.0
 30
0.0
 11
2337.0
 21
611.25
 31
0.0
 70
   160
  3
STANDARD
100
AcDbAlignedDimension
 13
2129.5
 23
997.707107
 33
0.0
 14
2544.5
 24
997.707107
 34
0.0
100
AcDbRotatedDimension
1001
ACAD
1000
DSTYLE
1002
{
1070
     6
1000
_EX_NORM
1070
     7
1000
_EX_NORM
1070
    41
1040
45.0
1070
    42
1040
10.5
1070
    44
1040
15.0
1070
    73
1070
     0
1070
    74
1070
     0
1070
    75
1070
     0
1070
    76
1070
     0
1070
    77
1070
     1
1070
    78
1070
     0
1070
   140
1040
60.0
1070
   147
1040
5.25
1070
   173
1070
     1
1070
   176
1070
     3
1070
   177
1070
     3
1070
   178
1070
     2
1070
   271
1070
     0
1070
   279
1070
     2
1070
   280
1070
     0
1070
   287
1070
     5
1070
   340
1005
123
1002
}
  0
DIMENSION
  5
878
100
AcDbEntity
  8
寸法
  6
CONTINUOUS
 62
     3
100
AcDbDimension
  2
*D27
 10
1307.5
 20
3329.0
 30
0.0
 11
932.5
 21
3364.25
 31
0.0
 70
   160
  3
STANDARD
100
AcDbAlignedDimension
 13
557.5
 23
3530.0
 33
0.0
 14
1307.5
 24
3530.0
 34
0.0
100
AcDbRotatedDimension
1001
ACAD
1000
DSTYLE
1002
{
1070
     6
1000
_EX_NORM
1070
     7
1000
_EX_NORM
1070
    41
1040
45.0
1070
    42
1040
10.5
1070
    44
1040
15.0
1070
    73
1070
     0
1070
    74
1070
     0
1070
    75
1070
     0
1070
    76
1070
     0
1070
    77
1070
     1
1070
    78
1070
     0
1070
   140
1040
60.0
1070
   147
1040
5.25
1070
   173
1070
     1
1070
   176
1070
     3
1070
   177
1070
     3
1070
   178
1070
     2
1070
   271
1070
     0
1070
   279
1070
     2
1070
   280
1070
     0
1070
   287
1070
     5
1070
   340
1005
123
1002
}
  0
DIMENSION
  5
883
100
AcDbEntity
  8
寸法
  6
CONTINUOUS
 62
     3
100
AcDbDimension
  2
*D28
 10
1429.0
 20
4005.0
 30
0.0
 11
1393.75
 21
3730.0
 31
0.0
 70
   160
  3
STANDARD
100
AcDbAlignedDimension
 13
932.5
 23
3455.0
 33
0.0
 14
1489.0
 24
4005.0
 34
0.0
 50
90.0
100
AcDbRotatedDimension
1001
ACAD
1000
DSTYLE
1002
{
1070
     6
1000
_EX_NORM
1070
     7
1000
_EX_NORM
1070
    41
1040
45.0
1070
    42
1040
10.5
1070
    44
1040
15.0
1070
    73
1070
     0
1070
    74
1070
     0
1070
    75
1070
     0
1070
    76
1070
     1
1070
    77
1070
     1
1070
    78
1070
     0
1070
   140
1040
60.0
1070
   147
1040
5.25
1070
   173
1070
     1
1070
   176
1070
     3
1070
   177
1070
     3
1070
   178
1070
     2
1070
   271
1070
     0
1070
   279
1070
     2
1070
   280
1070
     0
1070
   287
1070
     5
1070
   340
1005
123
1002
}
  0
DIMENSION
  5
88E
100
AcDbEntity
  8
寸法
  6
CONTINUOUS
 62
     3
100
AcDbDimension
  2
*D29
 10
1517.5
 20
1719.5
 30
0.0
 11
1482.25
 21
1322.0
 31
0.0
 70
   160
  3
STANDARD
100
AcDbAlignedDimension
 13
1291.0
 23
924.5
 33
0.0
 14
1295.5
 24
1719.5
 34
0.0
 50
90.0
100
AcDbRotatedDimension
1001
ACAD
1000
DSTYLE
1002
{
1070
     6
1000
_EX_NORM
1070
     7
1000
_EX_NORM
1070
    41
1040
45.0
1070
    42
1040
15.05
1070
    44
1040
15.0
1070
    73
1070
     0
1070
    74
1070
     0
1070
    75
1070
     1
1070
    76
1070
     0
1070
    77
1070
     1
1070
    78
1070
     0
1070
   140
1040
60.0
1070
   147
1040
5.25
1070
   173
1070
     1
1070
   176
1070
     3
1070
   177
1070
     3
1070
   178
1070
     2
1070
   271
1070
     0
1070
   279
1070
     2
1070
   280
1070
     0
1070
   287
1070
     5
1070
   340
1005
123
1002
}
  0
DIMENSION
  5
89A
100
AcDbEntity
  8
寸法
  6
CONTINUOUS
 62
     3
100
AcDbDimension
  2
*D30
 10
2754.5
 20
1434.5
 30
0.0
 11
2719.25
 21
1179.5
 31
0.0
 70
   160
  3
STANDARD
100
AcDbAlignedDimension
 13
2544.5
 23
924.5
 33
0.0
 14
2577.0
 24
1434.5
 34
0.0
 50
90.0
100
AcDbRotatedDimension
1001
ACAD
1000
DSTYLE
1002
{
1070
     6
1000
_EX_NORM
1070
     7
1000
_EX_NORM
1070
    41
1040
45.0
1070
    42
1040
10.5
1070
    44
1040
105.0
1070
    73
1070
     0
1070
    74
1070
     0
1070
    75
1070
     0
1070
    76
1070
     0
1070
    77
1070
     1
1070
    78
1070
     0
1070
   140
1040
60.0
1070
   147
1040
5.25
1070
   173
1070
     1
1070
   176
1070
     3
1070
   177
1070
     3
1070
   178
1070
     2
1070
   271
1070
     0
1070
   279
1070
     2
1070
   280
1070
     0
1070
   287
1070
     5
1070
   340
1005
123
1002
}
  0
DIMENSION
  5
8A5
100
AcDbEntity
  8
寸法
  6
CONTINUOUS
 62
     3
100
AcDbDimension
  2
*D31
 10
1427.5
 20
924.5
 30
0.0
 11
1392.25
 21
1308.0
 31
0.0
 70
   160
  3
STANDARD
100
AcDbAlignedDimension
 13
932.5
 23
1691.5
 33
0.0
 14
1427.5
 24
924.5
 34
0.0
 50
90.0
100
AcDbRotatedDimension
1001
ACAD
1000
DSTYLE
1002
{
1070
     6
1000
_EX_NORM
1070
     7
1000
_EX_NORM
1070
    41
1040
45.0
1070
    42
1040
10.5
1070
    44
1040
15.0
1070
    73
1070
     0
1070
    74
1070
     0
1070
    75
1070
     0
1070
    76
1070
     1
1070
    77
1070
     1
1070
    78
1070
     0
1070
   140
1040
60.0
1070
   147
1040
5.25
1070
   173
1070
     1
1070
   176
1070
     3
1070
   177
1070
     3
1070
   178
1070
     2
1070
   271
1070
     0
1070
   279
1070
     2
1070
   280
1070
     0
1070
   287
1070
     5
1070
   340
1005
123
1002
}
  0
POLYLINE
  5
8A6
100
AcDbEntity
  8
寸法
  6
CONTINUOUS
 62
     3
100
AcDb2dPolyline
 66
     1
 10
0.0
 20
0.0
 30
0.0
 70
   128
  0
VERTEX
  5
8A7
100
AcDbEntity
  8
寸法
  6
CONTINUOUS
 62
     3
100
AcDbVertex
100
AcDb2dVertex
 10
2544.5
 20
2938.75
 30
0.0
  0
VERTEX
  5
8A8
100
AcDbEntity
  8
寸法
  6
CONTINUOUS
 62
     3
100
AcDbVertex
100
AcDb2dVertex
 10
2498.5
 20
2958.75
 30
0.0
  0
SEQEND
  5
8A9
100
AcDbEntity
  8
寸法
  6
CONTINUOUS
 62
     3
  0
LINE
  5
8AA
100
AcDbEntity
  8
寸法
  6
CONTINUOUS
 62
     3
100
AcDbLine
 10
2500.241402
 20
2949.81465
 30
0.0
 11
2544.5
 21
2938.75
 31
0.0
  0
LINE
  5
8AB
100
AcDbEntity
  8
寸法
  6
CONTINUOUS
 62
     3
100
AcDbLine
 10
2544.5
 20
2938.75
 30
0.0
 11
2506.222293
 21
2963.5707
 31
0.0
  0
DIMENSION
  5
8B7
100
AcDbEntity
  8
寸法
  6
CONTINUOUS
 62
     3
100
AcDbDimension
  2
*D32
 10
983.5
 20
1866.0
 30
0.0
 11
932.5
 21
1901.25
 31
0.0
 70
   160
  3
STANDARD
100
AcDbAlignedDimension
 13
881.5
 23
1776.163781
 33
0.0
 14
983.5
 24
1776.163781
 34
0.0
100
AcDbRotatedDimension
1001
ACAD
1000
DSTYLE
1002
{
1070
     6
1000
_EX_NORM
1070
     7
1000
_EX_NORM
1070
    41
1040
45.0
1070
    42
1040
10.5
1070
    44
1040
15.0
1070
    73
1070
     0
1070
    74
1070
     0
1070
    75
1070
     0
1070
    76
1070
     0
1070
    77
1070
     1
1070
    78
1070
     0
1070
   140
1040
60.0
1070
   147
1040
5.25
1070
   173
1070
     1
1070
   176
1070
     3
1070
   177
1070
     3
1070
   178
1070
     2
1070
   271
1070
     0
1070
   279
1070
     2
1070
   280
1070
     0
1070
   287
1070
     5
1070
   340
1005
123
1002
}
  0
DIMENSION
  5
8C3
100
AcDbEntity
  8
寸法
  6
CONTINUOUS
 62
     3
100
AcDbDimension
  2
*D33
 10
1007.5
 20
666.0
 30
0.0
 11
932.5
 21
701.25
 31
0.0
 70
   160
  3
STANDARD
100
AcDbAlignedDimension
 13
857.5
 23
986.207076
 33
0.0
 14
1007.5
 24
986.207076
 34
0.0
100
AcDbRotatedDimension
1001
ACAD
1000
DSTYLE
1002
{
1070
     6
1000
_EX_NORM
1070
     7
1000
_EX_NORM
1070
    41
1040
45.0
1070
    42
1040
79.157073
1070
    44
1040
15.0
1070
    73
1070
     0
1070
    74
1070
     0
1070
    75
1070
     0
1070
    76
1070
     0
1070
    77
1070
     1
1070
    78
1070
     0
1070
   140
1040
60.0
1070
   147
1040
5.25
1070
   173
1070
     1
1070
   176
1070
     3
1070
   177
1070
     3
1070
   178
1070
     2
1070
   271
1070
     0
1070
   279
1070
     2
1070
   280
1070
     0
1070
   287
1070
     5
1070
   340
1005
123
1002
}
  0
DIMENSION
  5
8CE
100
AcDbEntity
  8
寸法
  6
CONTINUOUS
 62
     3
100
AcDbDimension
  2
*D34
 10
2544.5
 20
1870.95
 30
0.0
 11
2352.0
 21
1906.2
 31
0.0
 70
   160
  3
STANDARD
100
AcDbAlignedDimension
 13
2449.5
 23
1776.163781
 33
0.0
 14
2544.5
 24
1736.163506
 34
0.0
100
AcDbRotatedDimension
1001
ACAD
1000
DSTYLE
1002
{
1070
     6
1000
_EX_NORM
1070
     7
1000
_EX_NORM
1070
    41
1040
45.0
1070
    42
1040
10.5
1070
    44
1040
15.0
1070
    73
1070
     0
1070
    74
1070
     0
1070
    75
1070
     0
1070
    76
1070
     1
1070
    77
1070
     1
1070
    78
1070
     0
1070
   140
1040
60.0
1070
   147
1040
5.25
1070
   173
1070
     1
1070
   176
1070
     3
1070
   177
1070
     3
1070
   178
1070
     2
1070
   271
1070
     0
1070
   279
1070
     2
1070
   280
1070
     1
1070
   287
1070
     5
1070
   340
1005
123
1002
}
  0
DIMENSION
  5
8D9
100
AcDbEntity
  8
寸法
  6
CONTINUOUS
 62
     3
100
AcDbDimension
  2
*D35
 10
2844.5
 20
924.5
 30
0.0
 11
2809.25
 21
1660.0
 31
0.0
 70
   160
  3
STANDARD
100
AcDbAlignedDimension
 13
2844.5
 23
2179.5
 33
0.0
 14
2754.5
 24
924.5
 34
0.0
 50
90.0
100
AcDbRotatedDimension
1001
ACAD
1000
DSTYLE
1002
{
1070
     6
1000
_EX_NORM
1070
     7
1000
_EX_NORM
1070
    41
1040
45.0
1070
    42
1040
7.5
1070
    44
1040
15.0
1070
    73
1070
     0
1070
    74
1070
     0
1070
    75
1070
     1
1070
    76
1070
     0
1070
    77
1070
     1
1070
    78
1070
     8
1070
   140
1040
60.0
1070
   147
1040
5.25
1070
   173
1070
     1
1070
   176
1070
     3
1070
   177
1070
     3
1070
   178
1070
     2
1070
   271
1070
     2
1070
   279
1070
     2
1070
   280
1070
     0
1070
   287
1070
     5
1070
   340
1005
123
1002
}
  0
TEXT
  5
8DA
100
AcDbEntity
  8
寸法
  6
CONTINUOUS
 62
     2
100
AcDbText
 10
2544.5
 20
2974.750001
 30
0.0
 40
60.0
  1
W.L.
 50
90.0
 41
0.4125
  7
EXCADSTD
 72
     5
 11
2544.5
 21
3065.4934
 31
0.0
100
AcDbText
  0
LINE
  5
8DB
100
AcDbEntity
  8
寸法
  6
EXLTYPE4
 62
     6
100
AcDbLine
 10
2544.5
 20
924.5
 30
0.0
 11
2544.5
 21
3075.0
 31
0.0
  0
DIMENSION
  5
8E6
100
AcDbEntity
  8
寸法
  6
CONTINUOUS
 62
     3
100
AcDbDimension
  2
*D36
 10
1607.5
 20
924.5
 30
0.0
 11
1572.25
 21
1872.0
 31
0.0
 70
   160
  3
STANDARD
100
AcDbAlignedDimension
 13
1517.5
 23
2819.5
 33
0.0
 14
1607.5
 24
924.5
 34
0.0
 50
90.0
100
AcDbRotatedDimension
1001
ACAD
1000
DSTYLE
1002
{
1070
     6
1000
_EX_NORM
1070
     7
1000
_EX_NORM
1070
    41
1040
45.0
1070
    42
1040
7.5
1070
    44
1040
15.0
1070
    73
1070
     0
1070
    74
1070
     0
1070
    75
1070
     0
1070
    76
1070
     1
1070
    77
1070
     1
1070
    78
1070
     8
1070
   140
1040
60.0
1070
   147
1040
5.25
1070
   173
1070
     1
1070
   176
1070
     3
1070
   177
1070
     3
1070
   178
1070
     2
1070
   271
1070
     2
1070
   279
1070
     2
1070
   280
1070
     0
1070
   287
1070
     5
1070
   340
1005
123
1002
}
  0
ENDSEC
  0
SECTION
  2
OBJECTS
  0
DICTIONARY
  5
19
100
AcDbDictionary
  3
ACAD_GROUP
350
1A
  3
ACAD_MLINESTYLE
350
1B
  0
DICTIONARY
  5
1A
102
{ACAD_REACTORS
330
19
102
}
100
AcDbDictionary
  0
DICTIONARY
  5
1B
102
{ACAD_REACTORS
330
19
102
}
100
AcDbDictionary
  3
STANDARD
350
1C
  0
MLINESTYLE
  5
1C
102
{ACAD_REACTORS
330
1B
102
}
100
AcDbMlineStyle
  2
Standard
 70
     0
  3

 62
     0
 51
90.0
 52
90.0
 71
     2
 49
0.5
 62
   256
  6
ByLayer
 49
-0.5
 62
   256
  6
ByLayer
  0
ENDSEC
  0
EOF
