  0
SECTION
  2
HEADER
  9
$ACADVER
  1
AC1014
  9
$ACADMAINTVER
 70
     0
  9
$DWGCODEPAGE
  3
ANSI_932
  9
$INSBASE
 10
0.0
 20
0.0
 30
0.0
  9
$EXTMIN
 10
-0.5
 20
10.0
 30
0.0
  9
$EXTMAX
 10
199.5
 20
290.0
 30
0.0
  9
$LIMMIN
 10
0.0
 20
0.0
  9
$LIMMAX
 10
210.0
 20
297.0
  9
$ORTHOMODE
 70
     0
  9
$REGENMODE
 70
     1
  9
$FILLMODE
 70
     1
  9
$QTEXTMODE
 70
     0
  9
$MIRRTEXT
 70
     1
  9
$DRAGMODE
 70
     2
  9
$LTSCALE
 40
1.0
  9
$OSMODE
 70
     0
  9
$ATTMODE
 70
     1
  9
$TEXTSIZE
 40
0.2
  9
$TRACEWID
 40
0.05
  9
$TEXTSTYLE
  7
STANDARD
  9
$CLAYER
  8
寸法
  9
$CELTYPE
  6
CONTINUOUS
  9
$CECOLOR
 62
   256
  9
$CELTSCALE
 40
1.0
  9
$DELOBJ
 70
     1
  9
$DISPSILH
 70
     0
  9
$DIMSCALE
 40
1.0
  9
$DIMASZ
 40
0.18
  9
$DIMEXO
 40
0.0625
  9
$DIMDLI
 40
0.38
  9
$DIMRND
 40
0.0
  9
$DIMDLE
 40
0.0
  9
$DIMEXE
 40
0.18
  9
$DIMTP
 40
0.0
  9
$DIMTM
 40
0.0
  9
$DIMTXT
 40
0.18
  9
$DIMCEN
 40
0.09
  9
$DIMTSZ
 40
0.0
  9
$DIMTOL
 70
     0
  9
$DIMLIM
 70
     0
  9
$DIMTIH
 70
     1
  9
$DIMTOH
 70
     1
  9
$DIMSE1
 70
     0
  9
$DIMSE2
 70
     0
  9
$DIMTAD
 70
     0
  9
$DIMZIN
 70
     0
  9
$DIMBLK
  1

  9
$DIMASO
 70
     1
  9
$DIMSHO
 70
     1
  9
$DIMPOST
  1

  9
$DIMAPOST
  1

  9
$DIMALT
 70
     0
  9
$DIMALTD
 70
     2
  9
$DIMALTF
 40
25.4
  9
$DIMLFAC
 40
1.0
  9
$DIMTOFL
 70
     0
  9
$DIMTVP
 40
0.0
  9
$DIMTIX
 70
     0
  9
$DIMSOXD
 70
     0
  9
$DIMSAH
 70
     0
  9
$DIMBLK1
  1

  9
$DIMBLK2
  1

  9
$DIMSTYLE
  2
STANDARD
  9
$DIMCLRD
 70
     0
  9
$DIMCLRE
 70
     0
  9
$DIMCLRT
 70
     0
  9
$DIMTFAC
 40
1.0
  9
$DIMGAP
 40
0.09
  9
$DIMJUST
 70
     0
  9
$DIMSD1
 70
     0
  9
$DIMSD2
 70
     0
  9
$DIMTOLJ
 70
     1
  9
$DIMTZIN
 70
     0
  9
$DIMALTZ
 70
     0
  9
$DIMALTTZ
 70
     0
  9
$DIMFIT
 70
     3
  9
$DIMUPT
 70
     0
  9
$DIMUNIT
 70
     2
  9
$DIMDEC
 70
     4
  9
$DIMTDEC
 70
     4
  9
$DIMALTU
 70
     2
  9
$DIMALTTD
 70
     2
  9
$DIMTXSTY
  7
STANDARD
  9
$DIMAUNIT
 70
     0
  9
$LUNITS
 70
     2
  9
$LUPREC
 70
     4
  9
$SKETCHINC
 40
0.1
  9
$FILLETRAD
 40
0.0
  9
$AUNITS
 70
     0
  9
$AUPREC
 70
     0
  9
$MENU
  1
acad
  9
$ELEVATION
 40
0.0
  9
$PELEVATION
 40
0.0
  9
$THICKNESS
 40
0.0
  9
$LIMCHECK
 70
     0
  9
$BLIPMODE
 70
     1
  9
$CHAMFERA
 40
0.0
  9
$CHAMFERB
 40
0.0
  9
$CHAMFERC
 40
0.0
  9
$CHAMFERD
 40
0.0
  9
$SKPOLY
 70
     0
  9
$TDCREATE
 40
2455890.874143275
  9
$TDUPDATE
 40
2455890.874143275
  9
$TDINDWG
 40
0.0000000000
  9
$TDUSRTIMER
 40
0.0000000000
  9
$USRTIMER
 70
     1
  9
$ANGBASE
 50
0.0
  9
$ANGDIR
 70
     0
  9
$PDMODE
 70
     0
  9
$PDSIZE
 40
0.0
  9
$PLINEWID
 40
0.0
  9
$COORDS
 70
     1
  9
$SPLFRAME
 70
     0
  9
$SPLINETYPE
 70
     6
  9
$SPLINESEGS
 70
     8
  9
$ATTDIA
 70
     0
  9
$ATTREQ
 70
     1
  9
$HANDLING
 70
     1
  9
$HANDSEED
  5
146
  9
$SURFTAB1
 70
     6
  9
$SURFTAB2
 70
     6
  9
$SURFTYPE
 70
     6
  9
$SURFU
 70
     6
  9
$SURFV
 70
     6
  9
$UCSNAME
  2

  9
$UCSORG
 10
0.0
 20
0.0
 30
0.0
  9
$UCSXDIR
 10
1.0
 20
0.0
 30
0.0
  9
$UCSYDIR
 10
0.0
 20
1.0
 30
0.0
  9
$PUCSNAME
  2

  9
$PUCSORG
 10
0.0
 20
0.0
 30
0.0
  9
$PUCSXDIR
 10
1.0
 20
0.0
 30
0.0
  9
$PUCSYDIR
 10
0.0
 20
1.0
 30
0.0
  9
$USERI1
 70
     0
  9
$USERI2
 70
     0
  9
$USERI3
 70
     0
  9
$USERI4
 70
     0
  9
$USERI5
 70
     0
  9
$USERR1
 40
0.0
  9
$USERR2
 40
0.0
  9
$USERR3
 40
0.0
  9
$USERR4
 40
0.0
  9
$USERR5
 40
0.0
  9
$WORLDVIEW
 70
     1
  9
$SHADEDGE
 70
     3
  9
$SHADEDIF
 70
    70
  9
$TILEMODE
 70
     1
  9
$MAXACTVP
 70
    16
  9
$PINSBASE
 10
0.0
 20
0.0
 30
0.0
  9
$PLIMCHECK
 70
     0
  9
$PEXTMIN
 10
1.000000E+20
 20
1.000000E+20
 30
1.000000E+20
  9
$PEXTMAX
 10
-1.000000E+20
 20
-1.000000E+20
 30
-1.000000E+20
  9
$PLIMMIN
 10
0.0
 20
0.0
  9
$PLIMMAX
 10
12.0
 20
9.0
  9
$UNITMODE
 70
     0
  9
$VISRETAIN
 70
     0
  9
$PLINEGEN
 70
     1
  9
$PSLTSCALE
 70
     0
  9
$TREEDEPTH
 70
  3020
  9
$PICKSTYLE
 70
     1
  9
$CMLSTYLE
  2
Standard
  9
$CMLJUST
 70
     0
  9
$CMLSCALE
 40
1.0
  9
$PROXYGRAPHICS
 70
     0
  9
$MEASUREMENT
 70
     0
  0
ENDSEC
  0
SECTION
  2
CLASSES
  0
CLASS
  1
LWPOLYLINE
  2
AcDbPolyline
  3
"AutoCAD"
 90
        0
280
     0
281
     1
  0
CLASS
  1
IMAGE
  2
AcDbRasterImage
  3
ISM
 90
      127
280
     0
281
     1
  0
CLASS
  1
OLE2FRAME
  2
AcDbOle2Frame
  3
""
 90
        0
280
     0
281
     1
  0
CLASS
  1
HATCH
  2
AcDbHatch
  3
"ACAD_SEDONA"
 90
        0
280
     0
281
     1
  0
CLASS
  1
DICTIONARYVAR
  2
AcDbDictionaryVar
  3
"AutoCAD"
 90
        0
280
     0
281
     0
  0
CLASS
  1
RASTERVARIABLES
  2
AcDbRasterVariables
  3
ISM
 90
        0
280
     0
281
     0
  0
CLASS
  1
IMAGEDEF
  2
AcDbRasterImageDef
  3
ISM
 90
        0
280
     0
281
     0
  0
CLASS
  1
IMAGEDEF_REACTOR
  2
AcDbRasterImageDefReactor
  3
ISM
 90
        1
280
     0
281
     0
  0
CLASS
  1
IDBUFFER
  2
AcDbIdBuffer
  3
"Acad"
 90
        0
280
     0
281
     0
  0
CLASS
  1
SPATIAL_FILTER
  2
AcDbSpatialFilter
  3
"Acad"
 90
        0
280
     0
281
     0
  0
CLASS
  1
XRECORD
  2
AcDbXrecord
  3
"<Built In>"
 90
        0
280
     0
281
     0
  0
CLASS
  1
SORTENTSTABLE
  2
AcDbSortentsTable
  3
"AutoCAD"
 90
        0
280
     0
281
     0
  0
CLASS
  1
LAYER_INDEX
  2
AcDbLayerIndex
  3
"Acad"
 90
        0
280
     0
281
     0
  0
CLASS
  1
SPATIAL_INDEX
  2
AcDbSpatialIndex
  3
"Acad"
 90
        0
280
     0
281
     0
  0
CLASS
  1
OBJECT_PTR
  2
CAseDLPNTableRecord
  3
"ASE-LPNTableRecord"
 90
        1
280
     0
281
     0
  0
CLASS
  1
LAYOUT
  2
AcDbLayout
  3
"AutoCAD 2000"
 90
        1
280
     0
281
     0
  0
CLASS
  1
PLOTSETTINGS
  2
AcDbPlotSettings
  3
"AutoCAD 2000"
 90
        1
280
     0
281
     0
  0
CLASS
  1
ACDBDICTIONARYWDFLT
  2
AcDbDictionaryWithDefault
  3
"AutoCAD 2000"
 90
        1
280
     0
281
     0
  0
CLASS
  1
ACDBPLACEHOLDER
  2
AcDbPlaceHolder
  3
"AutoCAD 2000"
 90
        1
280
     0
281
     0
  0
CLASS
  1
VBA_PROJECT
  2
AcDbVbaProject
  3
"acadvba"
 90
        1
280
     0
281
     0
  0
CLASS
  1
WIPEOUT
  2
AcDbWipeout
  3
WipeOut|AutoCAD Express Tool|expresstools@autodesk.com
 90
      127
280
     0
281
     1
  0
CLASS
  1
WIPEOUTVARIABLES
  2
AcDbWipeoutVariables
  3
WipeOut|AutoCAD Express Tool|expresstools@autodesk.com
 90
        0
280
     0
281
     0
  0
CLASS
  1
RTEXT
  2
RText
  3
RText|AutoCAD Express Tool|expresstools@autodesk.com
 90
        0
280
     0
281
     1
  0
CLASS
  1
ARCALIGNEDTEXT
  2
AcDbArcAlignedText
  3
ATEXT|AutoCAD Express Tool|expresstools@autodesk.com
 90
        0
280
     0
281
     1
  0
ENDSEC
  0
SECTION
  2
TABLES
  0
TABLE
  2
VPORT
  5
7
100
AcDbSymbolTable
 70
     1
  0
VPORT
  5
15
100
AcDbSymbolTableRecord
100
AcDbViewportTableRecord
  2
*ACTIVE
 70
     0
 10
0.0
 20
0.0
 11
1.0
 21
1.0
 12
1492.5
 22
2250.0
 13
0.0
 23
0.0
 14
1.0
 24
1.0
 15
0.0
 25
0.0
 16
0.0
 26
0.0
 36
1.0
 17
0.0
 27
0.0
 37
0.0
 40
4200.0
 41
1.722533
 42
50.0
 43
0.0
 44
0.0
 50
0.0
 51
0.0
 71
     0
 72
   100
 73
     1
 74
     1
 75
     0
 76
     0
 77
     0
 78
     0
  0
ENDTAB
  0
TABLE
  2
LTYPE
  5
4
100
AcDbSymbolTable
 70
     9
  0
LTYPE
  5
11
100
AcDbSymbolTableRecord
100
AcDbLinetypeTableRecord
  2
BYBLOCK
 70
    64
  3

 72
    65
 73
     0
 40
0.0
  0
LTYPE
  5
12
100
AcDbSymbolTableRecord
100
AcDbLinetypeTableRecord
  2
BYLAYER
 70
    64
  3

 72
    65
 73
     0
 40
0.0
  0
LTYPE
  5
13
100
AcDbSymbolTableRecord
100
AcDbLinetypeTableRecord
  2
CONTINUOUS
 70
    64
  3
実線
 72
    65
 73
     0
 40
0.0
  0
LTYPE
  5
1D
100
AcDbSymbolTableRecord
100
AcDbLinetypeTableRecord
  2
EXLTYPE1
 70
    64
  3
破線
 72
    65
 73
     2
 40
3.0
 49
2.0
 74
     0
 49
-1.0
 74
     0
  0
LTYPE
  5
1E
100
AcDbSymbolTableRecord
100
AcDbLinetypeTableRecord
  2
EXLTYPE2
 70
    64
  3
点線
 72
    65
 73
     2
 40
2.0
 49
1.0
 74
     0
 49
-1.0
 74
     0
  0
LTYPE
  5
1F
100
AcDbSymbolTableRecord
100
AcDbLinetypeTableRecord
  2
EXLTYPE3
 70
    64
  3
一点鎖線
 72
    65
 73
     4
 40
10.0
 49
7.0
 74
     0
 49
-1.0
 74
     0
 49
1.0
 74
     0
 49
-1.0
 74
     0
  0
LTYPE
  5
20
100
AcDbSymbolTableRecord
100
AcDbLinetypeTableRecord
  2
EXLTYPE4
 70
    64
  3
二点鎖線
 72
    65
 73
     6
 40
12.0
 49
7.0
 74
     0
 49
-1.0
 74
     0
 49
1.0
 74
     0
 49
-1.0
 74
     0
 49
1.0
 74
     0
 49
-1.0
 74
     0
  0
LTYPE
  5
21
100
AcDbSymbolTableRecord
100
AcDbLinetypeTableRecord
  2
EXLTYPE5
 70
    64
  3
三点鎖線
 72
    65
 73
     8
 40
37.0
 49
30.0
 74
     0
 49
-1.0
 74
     0
 49
1.0
 74
     0
 49
-1.0
 74
     0
 49
1.0
 74
     0
 49
-1.0
 74
     0
 49
1.0
 74
     0
 49
-1.0
 74
     0
  0
LTYPE
  5
22
100
AcDbSymbolTableRecord
100
AcDbLinetypeTableRecord
  2
EXLTYPE6
 70
    64
  3
四点鎖線
 72
    65
 73
    10
 40
39.0
 49
30.0
 74
     0
 49
-1.0
 74
     0
 49
1.0
 74
     0
 49
-1.0
 74
     0
 49
1.0
 74
     0
 49
-1.0
 74
     0
 49
1.0
 74
     0
 49
-1.0
 74
     0
 49
1.0
 74
     0
 49
-1.0
 74
     0
  0
ENDTAB
  0
TABLE
  2
LAYER
  5
2
100
AcDbSymbolTable
 70
     4
  0
LAYER
  5
14
100
AcDbSymbolTableRecord
100
AcDbLayerTableRecord
  2
0
 70
     0
 62
     7
  6
CONTINUOUS
  0
LAYER
  5
25
100
AcDbSymbolTableRecord
100
AcDbLayerTableRecord
  2
枠・表
 70
    64
 62
     7
  6
CONTINUOUS
  0
LAYER
  5
26
100
AcDbSymbolTableRecord
100
AcDbLayerTableRecord
  2
ｶｳﾝﾀｰ/ｷｬﾋﾞﾈｯﾄ
 70
    64
 62
     7
  6
CONTINUOUS
  0
LAYER
  5
27
100
AcDbSymbolTableRecord
100
AcDbLayerTableRecord
  2
寸法
 70
    64
 62
     7
  6
CONTINUOUS
  0
ENDTAB
  0
TABLE
  2
STYLE
  5
3
100
AcDbSymbolTable
 70
     5
  0
STYLE
  5
17
100
AcDbSymbolTableRecord
100
AcDbTextStyleTableRecord
  2
STANDARD
 70
     0
 40
0.0
 41
1.0
 50
0.0
 71
     0
 42
0.0
  3
monotxt
  4
extfont
  0
STYLE
  5
23
100
AcDbSymbolTableRecord
100
AcDbTextStyleTableRecord
  2
EXCADSTD
 70
    64
 40
0.0
 41
1.0
 50
0.0
 71
     0
 42
0.2
  3
monotxt
  4
extfont
  0
STYLE
  5
24
100
AcDbSymbolTableRecord
100
AcDbTextStyleTableRecord
  2
EXCADVERT
 70
    68
 40
0.0
 41
1.0
 50
0.0
 71
     0
 42
0.286885
  3
monotxt
  4
extfont
  0
STYLE
  5
B1
100
AcDbSymbolTableRecord
100
AcDbTextStyleTableRecord
  2
EXCADTTF1
 70
    64
 40
0.0
 41
1.0
 50
0.0
 71
     0
 42
0.2
  3
MS Gothic.ttf
  4

1001
ACAD
1000
MS Gothic
1071
    32817
  0
STYLE
  5
DD
100
AcDbSymbolTableRecord
100
AcDbTextStyleTableRecord
  2
EXCADDIM1
 70
    64
 40
0.0
 41
0.84
 50
0.0
 71
     0
 42
0.2
  3
monotxt
  4
extfont
  0
ENDTAB
  0
TABLE
  2
VIEW
  5
5
100
AcDbSymbolTable
 70
     0
  0
ENDTAB
  0
TABLE
  2
UCS
  5
6
100
AcDbSymbolTable
 70
     0
  0
ENDTAB
  0
TABLE
  2
APPID
  5
8
100
AcDbSymbolTable
 70
     1
  0
APPID
  5
16
100
AcDbSymbolTableRecord
100
AcDbRegAppTableRecord
  2
ACAD
 70
     0
  0
ENDTAB
  0
TABLE
  2
DIMSTYLE
  5
9
100
AcDbSymbolTable
 70
     1
  0
DIMSTYLE
105
18
100
AcDbSymbolTableRecord
100
AcDbDimStyleTableRecord
  2
STANDARD
 70
     0
  3

  4

  5

  6

  7

 40
1.0
 41
0.18
 42
0.0625
 43
0.38
 44
0.18
 45
0.0
 46
0.0
 47
0.0
 48
0.0
 71
     0
 72
     0
 73
     1
 74
     1
 75
     0
 76
     0
 77
     0
 78
     0
140
0.18
141
0.09
142
0.0
143
25.4
144
1.0
145
0.0
146
1.0
147
0.09
170
     0
171
     2
172
     1
173
     0
174
     0
175
     0
176
     0
177
     0
178
     0
270
     2
271
     4
272
     4
273
     2
274
     2
275
     0
280
     0
281
     0
282
     0
283
     1
284
     0
285
     0
286
     0
287
     0
288
     0
340
17
  0
ENDTAB
  0
TABLE
  2
BLOCK_RECORD
  5
1
100
AcDbSymbolTable
 70
    17
  0
BLOCK_RECORD
  5
A
100
AcDbSymbolTableRecord
100
AcDbBlockTableRecord
  2
*MODEL_SPACE
  0
BLOCK_RECORD
  5
B
100
AcDbSymbolTableRecord
100
AcDbBlockTableRecord
  2
*PAPER_SPACE
  0
BLOCK_RECORD
  5
28
100
AcDbSymbolTableRecord
100
AcDbBlockTableRecord
  2
_EX_NORM
  0
BLOCK_RECORD
  5
29
100
AcDbSymbolTableRecord
100
AcDbBlockTableRecord
  2
_EX_BNORM
  0
BLOCK_RECORD
  5
2A
100
AcDbSymbolTableRecord
100
AcDbBlockTableRecord
  2
_EX_BCIR
  0
BLOCK_RECORD
  5
2B
100
AcDbSymbolTableRecord
100
AcDbBlockTableRecord
  2
_EX_RCIVIL
  0
BLOCK_RECORD
  5
2C
100
AcDbSymbolTableRecord
100
AcDbBlockTableRecord
  2
_EX_SLANT
  0
BLOCK_RECORD
  5
2D
100
AcDbSymbolTableRecord
100
AcDbBlockTableRecord
  2
_EX_NONE
  0
BLOCK_RECORD
  5
2E
100
AcDbSymbolTableRecord
100
AcDbBlockTableRecord
  2
_EX_CIVIL
  0
BLOCK_RECORD
  5
2F
100
AcDbSymbolTableRecord
100
AcDbBlockTableRecord
  2
_EX_WCIR
  0
BLOCK_RECORD
  5
30
100
AcDbSymbolTableRecord
100
AcDbBlockTableRecord
  2
_EX_WCIR2
  0
BLOCK_RECORD
  5
31
100
AcDbSymbolTableRecord
100
AcDbBlockTableRecord
  2
_EX_WNORM
  0
BLOCK_RECORD
  5
32
100
AcDbSymbolTableRecord
100
AcDbBlockTableRecord
  2
_EX_NNORM
  0
BLOCK_RECORD
  5
33
100
AcDbSymbolTableRecord
100
AcDbBlockTableRecord
  2
_EX_BBOX
  0
BLOCK_RECORD
  5
34
100
AcDbSymbolTableRecord
100
AcDbBlockTableRecord
  2
_EX_WBOX
  0
BLOCK_RECORD
  5
35
100
AcDbSymbolTableRecord
100
AcDbBlockTableRecord
  2
_EX_INTEGRAL
  0
BLOCK_RECORD
  5
D2
100
AcDbSymbolTableRecord
100
AcDbBlockTableRecord
  2
*D14
  0
BLOCK_RECORD
  5
12E
100
AcDbSymbolTableRecord
100
AcDbBlockTableRecord
  2
*D15
  0
BLOCK_RECORD
  5
13A
100
AcDbSymbolTableRecord
100
AcDbBlockTableRecord
  2
*D16
  0
ENDTAB
  0
ENDSEC
  0
SECTION
  2
BLOCKS
  0
BLOCK
  5
D
100
AcDbEntity
  8
0
100
AcDbBlockBegin
  2
*MODEL_SPACE
 70
     0
 10
0.0
 20
0.0
 30
0.0
  3
*MODEL_SPACE
  1

  0
ENDBLK
  5
E
100
AcDbEntity
  8
0
100
AcDbBlockEnd
  0
BLOCK
  5
F
100
AcDbEntity
 67
     1
  8
0
100
AcDbBlockBegin
  2
*PAPER_SPACE
 70
     0
 10
0.0
 20
0.0
 30
0.0
  3
*PAPER_SPACE
  1

  0
ENDBLK
  5
10
100
AcDbEntity
 67
     1
  8
0
100
AcDbBlockEnd
  0
BLOCK
  5
36
100
AcDbEntity
  8
0
100
AcDbBlockBegin
  2
_EX_NORM
 70
     0
 10
0.0
 20
0.0
 30
0.0
  3
_EX_NORM
  1

  0
LINE
  5
37
100
AcDbEntity
  8
0
  6
CONTINUOUS
 62
     0
100
AcDbLine
 10
0.0
 20
0.0
 30
0.0
 11
-1.0
 21
0.0
 31
0.0
  0
LINE
  5
38
100
AcDbEntity
  8
0
  6
CONTINUOUS
 62
     0
100
AcDbLine
 10
0.0
 20
0.0
 30
0.0
 11
-1.0
 21
0.166667
 31
0.0
  0
LINE
  5
39
100
AcDbEntity
  8
0
  6
CONTINUOUS
 62
     0
100
AcDbLine
 10
0.0
 20
0.0
 30
0.0
 11
-1.0
 21
-0.166667
 31
0.0
  0
ENDBLK
  5
3A
100
AcDbEntity
  8
0
100
AcDbBlockEnd
  0
BLOCK
  5
3B
100
AcDbEntity
  8
0
100
AcDbBlockBegin
  2
_EX_BNORM
 70
     0
 10
0.0
 20
0.0
 30
0.0
  3
_EX_BNORM
  1

  0
LINE
  5
3C
100
AcDbEntity
  8
0
  6
CONTINUOUS
 62
     0
100
AcDbLine
 10
0.0
 20
0.0
 30
0.0
 11
-1.0
 21
0.0
 31
0.0
  0
LINE
  5
3D
100
AcDbEntity
  8
0
  6
CONTINUOUS
 62
     0
100
AcDbLine
 10
0.0
 20
0.0
 30
0.0
 11
-1.0
 21
0.166667
 31
0.0
  0
LINE
  5
3E
100
AcDbEntity
  8
0
  6
CONTINUOUS
 62
     0
100
AcDbLine
 10
0.0
 20
0.0
 30
0.0
 11
-1.0
 21
-0.166667
 31
0.0
  0
LINE
  5
3F
100
AcDbEntity
  8
0
  6
CONTINUOUS
 62
     0
100
AcDbLine
 10
0.0
 20
0.0
 30
0.0
 11
-1.0
 21
0.083333
 31
0.0
  0
LINE
  5
40
100
AcDbEntity
  8
0
  6
CONTINUOUS
 62
     0
100
AcDbLine
 10
0.0
 20
0.0
 30
0.0
 11
-1.0
 21
-0.083333
 31
0.0
  0
LINE
  5
41
100
AcDbEntity
  8
0
  6
CONTINUOUS
 62
     0
100
AcDbLine
 10
-1.0
 20
0.166667
 30
0.0
 11
-1.0
 21
-0.166667
 31
0.0
  0
ENDBLK
  5
42
100
AcDbEntity
  8
0
100
AcDbBlockEnd
  0
BLOCK
  5
43
100
AcDbEntity
  8
0
100
AcDbBlockBegin
  2
_EX_BCIR
 70
     0
 10
0.0
 20
0.0
 30
0.0
  3
_EX_BCIR
  1

  0
LINE
  5
44
100
AcDbEntity
  8
0
  6
CONTINUOUS
 62
     0
100
AcDbLine
 10
0.0
 20
0.0
 30
0.0
 11
-1.0
 21
0.0
 31
0.0
  0
CIRCLE
  5
45
100
AcDbEntity
  8
0
  6
CONTINUOUS
 62
     0
100
AcDbCircle
 10
0.0
 20
0.0
 30
0.0
 40
0.5
  0
CIRCLE
  5
46
100
AcDbEntity
  8
0
  6
CONTINUOUS
 62
     0
100
AcDbCircle
 10
0.0
 20
0.0
 30
0.0
 40
0.25
  0
ENDBLK
  5
47
100
AcDbEntity
  8
0
100
AcDbBlockEnd
  0
BLOCK
  5
48
100
AcDbEntity
  8
0
100
AcDbBlockBegin
  2
_EX_RCIVIL
 70
     0
 10
0.0
 20
0.0
 30
0.0
  3
_EX_RCIVIL
  1

  0
LINE
  5
49
100
AcDbEntity
  8
0
  6
CONTINUOUS
 62
     0
100
AcDbLine
 10
0.0
 20
0.0
 30
0.0
 11
-1.0
 21
0.0
 31
0.0
  0
LINE
  5
4A
100
AcDbEntity
  8
0
  6
CONTINUOUS
 62
     0
100
AcDbLine
 10
-1.0
 20
-0.25
 30
0.0
 11
0.0
 21
-0.25
 31
0.0
  0
LINE
  5
4B
100
AcDbEntity
  8
0
  6
CONTINUOUS
 62
     0
100
AcDbLine
 10
-1.0
 20
-0.125
 30
0.0
 11
0.0
 21
-0.125
 31
0.0
  0
ENDBLK
  5
4C
100
AcDbEntity
  8
0
100
AcDbBlockEnd
  0
BLOCK
  5
4D
100
AcDbEntity
  8
0
100
AcDbBlockBegin
  2
_EX_SLANT
 70
     0
 10
0.0
 20
0.0
 30
0.0
  3
_EX_SLANT
  1

  0
LINE
  5
4E
100
AcDbEntity
  8
0
  6
CONTINUOUS
 62
     0
100
AcDbLine
 10
0.0
 20
0.0
 30
0.0
 11
-1.0
 21
0.0
 31
0.0
  0
LINE
  5
4F
100
AcDbEntity
  8
0
  6
CONTINUOUS
 62
     0
100
AcDbLine
 10
0.707107
 20
0.707107
 30
0.0
 11
-0.707107
 21
-0.707107
 31
0.0
  0
ENDBLK
  5
50
100
AcDbEntity
  8
0
100
AcDbBlockEnd
  0
BLOCK
  5
51
100
AcDbEntity
  8
0
100
AcDbBlockBegin
  2
_EX_NONE
 70
     0
 10
0.0
 20
0.0
 30
0.0
  3
_EX_NONE
  1

  0
LINE
  5
52
100
AcDbEntity
  8
0
  6
CONTINUOUS
 62
     0
100
AcDbLine
 10
0.0
 20
0.0
 30
0.0
 11
-1.0
 21
0.0
 31
0.0
  0
ENDBLK
  5
53
100
AcDbEntity
  8
0
100
AcDbBlockEnd
  0
BLOCK
  5
54
100
AcDbEntity
  8
0
100
AcDbBlockBegin
  2
_EX_CIVIL
 70
     0
 10
0.0
 20
0.0
 30
0.0
  3
_EX_CIVIL
  1

  0
LINE
  5
55
100
AcDbEntity
  8
0
  6
CONTINUOUS
 62
     0
100
AcDbLine
 10
0.0
 20
0.0
 30
0.0
 11
-1.0
 21
0.0
 31
0.0
  0
LINE
  5
56
100
AcDbEntity
  8
0
  6
CONTINUOUS
 62
     0
100
AcDbLine
 10
-1.0
 20
0.25
 30
0.0
 11
0.0
 21
0.25
 31
0.0
  0
LINE
  5
57
100
AcDbEntity
  8
0
  6
CONTINUOUS
 62
     0
100
AcDbLine
 10
-1.0
 20
0.125
 30
0.0
 11
0.0
 21
0.125
 31
0.0
  0
ENDBLK
  5
58
100
AcDbEntity
  8
0
100
AcDbBlockEnd
  0
BLOCK
  5
59
100
AcDbEntity
  8
0
100
AcDbBlockBegin
  2
_EX_WCIR
 70
     0
 10
0.0
 20
0.0
 30
0.0
  3
_EX_WCIR
  1

  0
LINE
  5
5A
100
AcDbEntity
  8
0
  6
CONTINUOUS
 62
     0
100
AcDbLine
 10
0.0
 20
0.0
 30
0.0
 11
-1.0
 21
0.0
 31
0.0
  0
CIRCLE
  5
5B
100
AcDbEntity
  8
0
  6
CONTINUOUS
 62
     0
100
AcDbCircle
 10
0.0
 20
0.0
 30
0.0
 40
0.5
  0
ENDBLK
  5
5C
100
AcDbEntity
  8
0
100
AcDbBlockEnd
  0
BLOCK
  5
5D
100
AcDbEntity
  8
0
100
AcDbBlockBegin
  2
_EX_WCIR2
 70
     0
 10
0.0
 20
0.0
 30
0.0
  3
_EX_WCIR2
  1

  0
LINE
  5
5E
100
AcDbEntity
  8
0
  6
CONTINUOUS
 62
     0
100
AcDbLine
 10
-0.5
 20
0.0
 30
0.0
 11
-1.0
 21
0.0
 31
0.0
  0
CIRCLE
  5
5F
100
AcDbEntity
  8
0
  6
CONTINUOUS
 62
     0
100
AcDbCircle
 10
0.0
 20
0.0
 30
0.0
 40
0.5
  0
ENDBLK
  5
60
100
AcDbEntity
  8
0
100
AcDbBlockEnd
  0
BLOCK
  5
61
100
AcDbEntity
  8
0
100
AcDbBlockBegin
  2
_EX_WNORM
 70
     0
 10
0.0
 20
0.0
 30
0.0
  3
_EX_WNORM
  1

  0
LINE
  5
62
100
AcDbEntity
  8
0
  6
CONTINUOUS
 62
     0
100
AcDbLine
 10
-1.0
 20
0.0
 30
0.0
 11
-1.0
 21
0.0
 31
0.0
  0
LINE
  5
63
100
AcDbEntity
  8
0
  6
CONTINUOUS
 62
     0
100
AcDbLine
 10
0.0
 20
0.0
 30
0.0
 11
-1.0
 21
0.166667
 31
0.0
  0
LINE
  5
64
100
AcDbEntity
  8
0
  6
CONTINUOUS
 62
     0
100
AcDbLine
 10
0.0
 20
0.0
 30
0.0
 11
-1.0
 21
-0.166667
 31
0.0
  0
LINE
  5
65
100
AcDbEntity
  8
0
  6
CONTINUOUS
 62
     0
100
AcDbLine
 10
-1.0
 20
0.166667
 30
0.0
 11
-1.0
 21
-0.166667
 31
0.0
  0
ENDBLK
  5
66
100
AcDbEntity
  8
0
100
AcDbBlockEnd
  0
BLOCK
  5
67
100
AcDbEntity
  8
0
100
AcDbBlockBegin
  2
_EX_NNORM
 70
     0
 10
0.0
 20
0.0
 30
0.0
  3
_EX_NNORM
  1

  0
LINE
  5
68
100
AcDbEntity
  8
0
  6
CONTINUOUS
 62
     0
100
AcDbLine
 10
0.0
 20
0.0
 30
0.0
 11
-1.0
 21
0.0
 31
0.0
  0
LINE
  5
69
100
AcDbEntity
  8
0
  6
CONTINUOUS
 62
     0
100
AcDbLine
 10
0.0
 20
0.0
 30
0.0
 11
-1.0
 21
0.166667
 31
0.0
  0
LINE
  5
6A
100
AcDbEntity
  8
0
  6
CONTINUOUS
 62
     0
100
AcDbLine
 10
0.0
 20
0.0
 30
0.0
 11
-1.0
 21
-0.166667
 31
0.0
  0
LINE
  5
6B
100
AcDbEntity
  8
0
  6
CONTINUOUS
 62
     0
100
AcDbLine
 10
-1.0
 20
0.166667
 30
0.0
 11
-1.0
 21
-0.166667
 31
0.0
  0
ENDBLK
  5
6C
100
AcDbEntity
  8
0
100
AcDbBlockEnd
  0
BLOCK
  5
6D
100
AcDbEntity
  8
0
100
AcDbBlockBegin
  2
_EX_BBOX
 70
     0
 10
0.0
 20
0.0
 30
0.0
  3
_EX_BBOX
  1

  0
LINE
  5
6E
100
AcDbEntity
  8
0
  6
CONTINUOUS
 62
     0
100
AcDbLine
 10
0.0
 20
0.0
 30
0.0
 11
-1.0
 21
0.0
 31
0.0
  0
LINE
  5
6F
100
AcDbEntity
  8
0
  6
CONTINUOUS
 62
     0
100
AcDbLine
 10
-0.5
 20
0.5
 30
0.0
 11
0.5
 21
0.5
 31
0.0
  0
LINE
  5
70
100
AcDbEntity
  8
0
  6
CONTINUOUS
 62
     0
100
AcDbLine
 10
0.5
 20
0.5
 30
0.0
 11
0.5
 21
-0.5
 31
0.0
  0
LINE
  5
71
100
AcDbEntity
  8
0
  6
CONTINUOUS
 62
     0
100
AcDbLine
 10
0.5
 20
-0.5
 30
0.0
 11
-0.5
 21
-0.5
 31
0.0
  0
LINE
  5
72
100
AcDbEntity
  8
0
  6
CONTINUOUS
 62
     0
100
AcDbLine
 10
-0.5
 20
-0.5
 30
0.0
 11
-0.5
 21
0.5
 31
0.0
  0
LINE
  5
73
100
AcDbEntity
  8
0
  6
CONTINUOUS
 62
     0
100
AcDbLine
 10
-0.25
 20
0.25
 30
0.0
 11
0.25
 21
0.25
 31
0.0
  0
LINE
  5
74
100
AcDbEntity
  8
0
  6
CONTINUOUS
 62
     0
100
AcDbLine
 10
0.25
 20
0.25
 30
0.0
 11
0.25
 21
-0.25
 31
0.0
  0
LINE
  5
75
100
AcDbEntity
  8
0
  6
CONTINUOUS
 62
     0
100
AcDbLine
 10
0.25
 20
-0.25
 30
0.0
 11
-0.25
 21
-0.25
 31
0.0
  0
LINE
  5
76
100
AcDbEntity
  8
0
  6
CONTINUOUS
 62
     0
100
AcDbLine
 10
-0.25
 20
-0.25
 30
0.0
 11
-0.25
 21
0.25
 31
0.0
  0
ENDBLK
  5
77
100
AcDbEntity
  8
0
100
AcDbBlockEnd
  0
BLOCK
  5
78
100
AcDbEntity
  8
0
100
AcDbBlockBegin
  2
_EX_WBOX
 70
     0
 10
0.0
 20
0.0
 30
0.0
  3
_EX_WBOX
  1

  0
LINE
  5
79
100
AcDbEntity
  8
0
  6
CONTINUOUS
 62
     0
100
AcDbLine
 10
-0.5
 20
0.0
 30
0.0
 11
-1.0
 21
0.0
 31
0.0
  0
LINE
  5
7A
100
AcDbEntity
  8
0
  6
CONTINUOUS
 62
     0
100
AcDbLine
 10
-0.5
 20
0.5
 30
0.0
 11
0.5
 21
0.5
 31
0.0
  0
LINE
  5
7B
100
AcDbEntity
  8
0
  6
CONTINUOUS
 62
     0
100
AcDbLine
 10
0.5
 20
0.5
 30
0.0
 11
0.5
 21
-0.5
 31
0.0
  0
LINE
  5
7C
100
AcDbEntity
  8
0
  6
CONTINUOUS
 62
     0
100
AcDbLine
 10
0.5
 20
-0.5
 30
0.0
 11
-0.5
 21
-0.5
 31
0.0
  0
LINE
  5
7D
100
AcDbEntity
  8
0
  6
CONTINUOUS
 62
     0
100
AcDbLine
 10
-0.5
 20
-0.5
 30
0.0
 11
-0.5
 21
0.5
 31
0.0
  0
ENDBLK
  5
7E
100
AcDbEntity
  8
0
100
AcDbBlockEnd
  0
BLOCK
  5
7F
100
AcDbEntity
  8
0
100
AcDbBlockBegin
  2
_EX_INTEGRAL
 70
     0
 10
0.0
 20
0.0
 30
0.0
  3
_EX_INTEGRAL
  1

  0
LINE
  5
80
100
AcDbEntity
  8
0
  6
CONTINUOUS
 62
     0
100
AcDbLine
 10
0.0
 20
0.0
 30
0.0
 11
-1.0
 21
0.0
 31
0.0
  0
ARC
  5
81
100
AcDbEntity
  8
0
  6
CONTINUOUS
 62
     0
100
AcDbCircle
 10
0.542115
 20
0.164992
 30
0.0
 40
0.56667
100
AcDbArc
 50
73.07249
 51
196.927513
  0
ARC
  5
82
100
AcDbEntity
  8
0
  6
CONTINUOUS
 62
     0
100
AcDbCircle
 10
-0.542115
 20
-0.164992
 30
0.0
 40
0.56667
100
AcDbArc
 50
253.072487
 51
16.927513
  0
ENDBLK
  5
83
100
AcDbEntity
  8
0
100
AcDbBlockEnd
  0
BLOCK
  5
D3
100
AcDbEntity
  8
0
100
AcDbBlockBegin
  2
*D14
 70
    65
 10
0.0
 20
0.0
 30
0.0
  3
*D14
  1

  0
LINE
  5
D4
100
AcDbEntity
  8
ｶｳﾝﾀｰ/ｷｬﾋﾞﾈｯﾄ
  6
CONTINUOUS
 62
     3
100
AcDbLine
 10
1082.0
 20
2705.0
 30
0.0
 11
1082.0
 21
2580.0
 31
0.0
  0
LINE
  5
D5
100
AcDbEntity
  8
ｶｳﾝﾀｰ/ｷｬﾋﾞﾈｯﾄ
  6
CONTINUOUS
 62
     3
100
AcDbLine
 10
2102.0
 20
2705.0
 30
0.0
 11
2102.0
 21
2580.0
 31
0.0
  0
TEXT
  5
D6
100
AcDbEntity
  8
ｶｳﾝﾀｰ/ｷｬﾋﾞﾈｯﾄ
  6
CONTINUOUS
 62
     2
100
AcDbText
 10
1510.1
 20
2600.25
 30
0.0
 40
60.0
  1
1020
 50
360.0
 41
0.84
  7
EXCADSTD
 72
     1
 11
1592.0
 21
2600.25
 31
0.0
100
AcDbText
  0
LINE
  5
D7
100
AcDbEntity
  8
ｶｳﾝﾀｰ/ｷｬﾋﾞﾈｯﾄ
  6
CONTINUOUS
 62
     3
100
AcDbLine
 10
1082.0
 20
2595.0
 30
0.0
 11
2102.0
 21
2595.0
 31
0.0
  0
LINE
  5
D8
100
AcDbEntity
  8
ｶｳﾝﾀｰ/ｷｬﾋﾞﾈｯﾄ
  6
CONTINUOUS
 62
     3
100
AcDbLine
 10
1127.0
 20
2602.5
 30
0.0
 11
1082.0
 21
2595.0
 31
0.0
  0
LINE
  5
D9
100
AcDbEntity
  8
ｶｳﾝﾀｰ/ｷｬﾋﾞﾈｯﾄ
  6
CONTINUOUS
 62
     3
100
AcDbLine
 10
1082.0
 20
2595.0
 30
0.0
 11
1127.0
 21
2587.5
 31
0.0
  0
LINE
  5
DA
100
AcDbEntity
  8
ｶｳﾝﾀｰ/ｷｬﾋﾞﾈｯﾄ
  6
CONTINUOUS
 62
     3
100
AcDbLine
 10
2057.0
 20
2587.5
 30
0.0
 11
2102.0
 21
2595.0
 31
0.0
  0
LINE
  5
DB
100
AcDbEntity
  8
ｶｳﾝﾀｰ/ｷｬﾋﾞﾈｯﾄ
  6
CONTINUOUS
 62
     3
100
AcDbLine
 10
2102.0
 20
2595.0
 30
0.0
 11
2057.0
 21
2602.5
 31
0.0
  0
ENDBLK
  5
DC
100
AcDbEntity
  8
0
100
AcDbBlockEnd
  0
BLOCK
  5
12F
100
AcDbEntity
  8
0
100
AcDbBlockBegin
  2
*D15
 70
    65
 10
0.0
 20
0.0
 30
0.0
  3
*D15
  1

  0
LINE
  5
130
100
AcDbEntity
  8
寸法
  6
CONTINUOUS
 62
     3
100
AcDbLine
 10
2112.5
 20
2822.5
 30
0.0
 11
2274.0
 21
2822.5
 31
0.0
  0
LINE
  5
131
100
AcDbEntity
  8
寸法
  6
CONTINUOUS
 62
     3
100
AcDbLine
 10
2112.5
 20
2712.5
 30
0.0
 11
2274.0
 21
2712.5
 31
0.0
  0
TEXT
  5
132
100
AcDbEntity
  8
寸法
  6
CONTINUOUS
 62
     2
100
AcDbText
 10
2253.75
 20
2704.5
 30
0.0
 40
60.0
  1
110
 50
90.0
 41
0.84
  7
EXCADSTD
 72
     1
 11
2253.75
 21
2767.5
 31
0.0
100
AcDbText
  0
LINE
  5
133
100
AcDbEntity
  8
寸法
  6
CONTINUOUS
 62
     3
100
AcDbLine
 10
2259.0
 20
2867.5
 30
0.0
 11
2259.0
 21
2667.5
 31
0.0
  0
LINE
  5
134
100
AcDbEntity
  8
寸法
  6
CONTINUOUS
 62
     3
100
AcDbLine
 10
2251.5
 20
2867.5
 30
0.0
 11
2259.0
 21
2822.5
 31
0.0
  0
LINE
  5
135
100
AcDbEntity
  8
寸法
  6
CONTINUOUS
 62
     3
100
AcDbLine
 10
2259.0
 20
2822.5
 30
0.0
 11
2266.5
 21
2867.5
 31
0.0
  0
LINE
  5
136
100
AcDbEntity
  8
寸法
  6
CONTINUOUS
 62
     3
100
AcDbLine
 10
2266.5
 20
2667.5
 30
0.0
 11
2259.0
 21
2712.5
 31
0.0
  0
LINE
  5
137
100
AcDbEntity
  8
寸法
  6
CONTINUOUS
 62
     3
100
AcDbLine
 10
2259.0
 20
2712.5
 30
0.0
 11
2251.5
 21
2667.5
 31
0.0
  0
ENDBLK
  5
138
100
AcDbEntity
  8
0
100
AcDbBlockEnd
  0
BLOCK
  5
13B
100
AcDbEntity
  8
0
100
AcDbBlockBegin
  2
*D16
 70
    65
 10
0.0
 20
0.0
 30
0.0
  3
*D16
  1

  0
LINE
  5
13C
100
AcDbEntity
  8
寸法
  6
CONTINUOUS
 62
     3
100
AcDbLine
 10
2109.5
 20
2025.0
 30
0.0
 11
2274.0
 21
2025.0
 31
0.0
  0
LINE
  5
13D
100
AcDbEntity
  8
寸法
  6
CONTINUOUS
 62
     3
100
AcDbLine
 10
2109.5
 20
2044.0
 30
0.0
 11
2274.0
 21
2044.0
 31
0.0
  0
TEXT
  5
13E
100
AcDbEntity
  8
寸法
  6
CONTINUOUS
 62
     2
100
AcDbText
 10
2253.75
 20
2097.4
 30
0.0
 40
60.0
  1
19
 50
90.0
 41
0.84
  7
EXCADSTD
 72
     1
 11
2253.75
 21
2141.5
 31
0.0
100
AcDbText
  0
LINE
  5
13F
100
AcDbEntity
  8
寸法
  6
CONTINUOUS
 62
     3
100
AcDbLine
 10
2259.0
 20
1980.0
 30
0.0
 11
2259.0
 21
2199.250006
 31
0.0
  0
LINE
  5
140
100
AcDbEntity
  8
寸法
  6
CONTINUOUS
 62
     3
100
AcDbLine
 10
2266.5
 20
1980.0
 30
0.0
 11
2259.0
 21
2025.0
 31
0.0
  0
LINE
  5
141
100
AcDbEntity
  8
寸法
  6
CONTINUOUS
 62
     3
100
AcDbLine
 10
2259.0
 20
2025.0
 30
0.0
 11
2251.5
 21
1980.0
 31
0.0
  0
LINE
  5
142
100
AcDbEntity
  8
寸法
  6
CONTINUOUS
 62
     3
100
AcDbLine
 10
2251.5
 20
2089.0
 30
0.0
 11
2259.0
 21
2044.0
 31
0.0
  0
LINE
  5
143
100
AcDbEntity
  8
寸法
  6
CONTINUOUS
 62
     3
100
AcDbLine
 10
2259.0
 20
2044.0
 30
0.0
 11
2266.5
 21
2089.0
 31
0.0
  0
ENDBLK
  5
144
100
AcDbEntity
  8
0
100
AcDbBlockEnd
  0
ENDSEC
  0
SECTION
  2
ENTITIES
  0
LINE
  5
84
100
AcDbEntity
  8
枠・表
  6
CONTINUOUS
 62
     7
100
AcDbLine
 10
262.5
 20
150.0
 30
0.0
 11
2992.5
 21
150.0
 31
0.0
  0
LINE
  5
85
100
AcDbEntity
  8
枠・表
  6
CONTINUOUS
 62
     7
100
AcDbLine
 10
2992.5
 20
150.0
 30
0.0
 11
2992.5
 21
4350.0
 31
0.0
  0
LINE
  5
86
100
AcDbEntity
  8
枠・表
  6
CONTINUOUS
 62
     7
100
AcDbLine
 10
262.5
 20
150.0
 30
0.0
 11
262.5
 21
4350.0
 31
0.0
  0
LINE
  5
87
100
AcDbEntity
  8
枠・表
  6
CONTINUOUS
 62
     7
100
AcDbLine
 10
262.5
 20
4350.0
 30
0.0
 11
2992.5
 21
4350.0
 31
0.0
  0
LINE
  5
88
100
AcDbEntity
  8
枠・表
  6
CONTINUOUS
 62
     7
100
AcDbLine
 10
262.5
 20
480.0
 30
0.0
 11
2992.5
 21
480.0
 31
0.0
  0
LINE
  5
89
100
AcDbEntity
  8
枠・表
  6
CONTINUOUS
 62
     6
100
AcDbLine
 10
2992.5
 20
300.0
 30
0.0
 11
1117.5
 21
300.0
 31
0.0
  0
LINE
  5
8A
100
AcDbEntity
  8
枠・表
  6
CONTINUOUS
 62
     6
100
AcDbLine
 10
2782.5
 20
480.0
 30
0.0
 11
2782.5
 21
300.0
 31
0.0
  0
LINE
  5
8B
100
AcDbEntity
  8
枠・表
  6
CONTINUOUS
 62
     6
100
AcDbLine
 10
2707.5
 20
480.0
 30
0.0
 11
2707.5
 21
300.0
 31
0.0
  0
LINE
  5
8C
100
AcDbEntity
  8
枠・表
  6
CONTINUOUS
 62
     6
100
AcDbLine
 10
2152.5
 20
480.0
 30
0.0
 11
2152.5
 21
150.0
 31
0.0
  0
LINE
  5
8D
100
AcDbEntity
  8
枠・表
  6
CONTINUOUS
 62
     6
100
AcDbLine
 10
2077.5
 20
480.0
 30
0.0
 11
2077.5
 21
150.0
 31
0.0
  0
LINE
  5
8E
100
AcDbEntity
  8
枠・表
  6
CONTINUOUS
 62
     6
100
AcDbLine
 10
1192.5
 20
480.0
 30
0.0
 11
1192.5
 21
300.0
 31
0.0
  0
LINE
  5
8F
100
AcDbEntity
  8
枠・表
  6
CONTINUOUS
 62
     6
100
AcDbLine
 10
1117.5
 20
480.0
 30
0.0
 11
1117.5
 21
150.0
 31
0.0
  0
LINE
  5
90
100
AcDbEntity
  8
枠・表
  6
CONTINUOUS
 62
     6
100
AcDbLine
 10
2831.480713
 20
334.504395
 30
0.0
 11
2947.490845
 21
452.549744
 31
0.0
  0
TEXT
  5
91
100
AcDbEntity
  8
枠・表
  6
CONTINUOUS
 62
     2
100
AcDbText
 10
2828.305664
 20
401.584167
 30
0.0
 40
45.0
  1
１
 41
0.826
  7
EXCADSTD
 72
     5
 11
2863.705665
 21
401.584167
 31
0.0
100
AcDbText
  0
TEXT
  5
92
100
AcDbEntity
  8
枠・表
  6
CONTINUOUS
 62
     2
100
AcDbText
 10
2889.418945
 20
335.02327
 30
0.0
 40
45.0
  1
１５
 41
0.791
  7
EXCADSTD
 72
     5
 11
2967.100797
 21
335.02327
 31
0.0
100
AcDbText
  0
TEXT
  5
93
100
AcDbEntity
  8
枠・表
  6
CONTINUOUS
 62
     2
100
AcDbText
 10
1126.125
 20
395.625
 30
0.0
 40
63.75
  1
品
 41
0.84
  7
EXCADSTD
 72
     5
 11
1177.125
 21
395.625
 31
0.0
100
AcDbText
  0
TEXT
  5
94
100
AcDbEntity
  8
枠・表
  6
CONTINUOUS
 62
     2
100
AcDbText
 10
1126.125
 20
320.625
 30
0.0
 40
63.75
  1
名
 41
0.84
  7
EXCADSTD
 72
     5
 11
1177.125
 21
320.625
 31
0.0
100
AcDbText
  0
TEXT
  5
95
100
AcDbEntity
  8
枠・表
  6
CONTINUOUS
 62
     2
100
AcDbText
 10
2086.125
 20
395.625
 30
0.0
 40
63.75
  1
品
 41
0.84
  7
EXCADSTD
 72
     5
 11
2137.125
 21
395.625
 31
0.0
100
AcDbText
  0
TEXT
  5
96
100
AcDbEntity
  8
枠・表
  6
CONTINUOUS
 62
     2
100
AcDbText
 10
2086.125
 20
320.625
 30
0.0
 40
63.75
  1
番
 41
0.84
  7
EXCADSTD
 72
     5
 11
2137.125
 21
320.625
 31
0.0
100
AcDbText
  0
TEXT
  5
97
100
AcDbEntity
  8
枠・表
  6
CONTINUOUS
 62
     2
100
AcDbText
 10
2717.625
 20
395.625
 30
0.0
 40
63.75
  1
尺
 41
0.84
  7
EXCADSTD
 72
     5
 11
2768.625
 21
395.625
 31
0.0
100
AcDbText
  0
TEXT
  5
98
100
AcDbEntity
  8
枠・表
  6
CONTINUOUS
 62
     2
100
AcDbText
 10
2717.625
 20
320.625
 30
0.0
 40
63.75
  1
度
 41
0.84
  7
EXCADSTD
 72
     5
 11
2768.625
 21
320.625
 31
0.0
100
AcDbText
  0
TEXT
  5
99
100
AcDbEntity
  8
枠・表
  6
CONTINUOUS
 62
     2
100
AcDbText
 10
2086.125
 20
226.125
 30
0.0
 40
63.75
  1
図
 41
0.84
  7
EXCADSTD
 72
     5
 11
2137.125
 21
226.125
 31
0.0
100
AcDbText
  0
TEXT
  5
9A
100
AcDbEntity
  8
枠・表
  6
CONTINUOUS
 62
     2
100
AcDbText
 10
2086.125
 20
161.625
 30
0.0
 40
63.75
  1
番
 41
0.84
  7
EXCADSTD
 72
     5
 11
2137.125
 21
161.625
 31
0.0
100
AcDbText
  0
LINE
  5
9B
100
AcDbEntity
  8
枠・表
  6
EXLTYPE2
 62
     6
100
AcDbLine
 10
-7.5
 20
2250.0
 30
0.0
 11
262.5
 21
2250.0
 31
0.0
  0
LINE
  5
9C
100
AcDbEntity
  8
枠・表
  6
CONTINUOUS
 62
     6
100
AcDbLine
 10
922.5
 20
480.0
 30
0.0
 11
922.5
 21
150.0
 31
0.0
  0
LINE
  5
9D
100
AcDbEntity
  8
枠・表
  6
CONTINUOUS
 62
     6
100
AcDbLine
 10
727.5
 20
480.0
 30
0.0
 11
727.5
 21
150.0
 31
0.0
  0
LINE
  5
9E
100
AcDbEntity
  8
枠・表
  6
CONTINUOUS
 62
     6
100
AcDbLine
 10
495.0
 20
480.0
 30
0.0
 11
495.0
 21
150.0
 31
0.0
  0
TEXT
  5
9F
100
AcDbEntity
  8
枠・表
  6
CONTINUOUS
 62
     2
100
AcDbText
 10
296.25
 20
410.625
 30
0.0
 40
63.75
  1
製図
 41
1.087059
  7
EXCADSTD
 72
     5
 11
447.489
 21
410.625
 31
0.0
100
AcDbText
  0
TEXT
  5
A0
100
AcDbEntity
  8
枠・表
  6
CONTINUOUS
 62
     2
100
AcDbText
 10
528.75
 20
410.625
 30
0.0
 40
63.75
  1
写図
 41
1.087059
  7
EXCADSTD
 72
     5
 11
679.989
 21
410.625
 31
0.0
100
AcDbText
  0
TEXT
  5
A1
100
AcDbEntity
  8
枠・表
  6
CONTINUOUS
 62
     2
100
AcDbText
 10
753.75
 20
410.625
 30
0.0
 40
63.75
  1
検図
 41
0.938824
  7
EXCADSTD
 72
     5
 11
884.3655
 21
410.625
 31
0.0
100
AcDbText
  0
TEXT
  5
A2
100
AcDbEntity
  8
枠・表
  6
CONTINUOUS
 62
     2
100
AcDbText
 10
948.75
 20
410.625
 30
0.0
 40
63.75
  1
承認
 41
0.938824
  7
EXCADSTD
 72
     5
 11
1079.3655
 21
410.625
 31
0.0
100
AcDbText
  0
LINE
  5
A3
100
AcDbEntity
  8
枠・表
  6
CONTINUOUS
 62
     6
100
AcDbLine
 10
262.5
 20
405.0
 30
0.0
 11
1117.5
 21
405.0
 31
0.0
  0
LINE
  5
A4
100
AcDbEntity
  8
枠・表
  6
EXLTYPE2
 62
     6
100
AcDbLine
 10
262.5
 20
225.0
 30
0.0
 11
727.5
 21
225.0
 31
0.0
  0
CIRCLE
  5
A5
100
AcDbEntity
  8
枠・表
  6
CONTINUOUS
 62
     6
100
AcDbCircle
 10
337.5
 20
187.5
 30
0.0
 40
1.5
  0
CIRCLE
  5
A6
100
AcDbEntity
  8
枠・表
  6
CONTINUOUS
 62
     6
100
AcDbCircle
 10
412.5
 20
187.5
 30
0.0
 40
1.5
  0
CIRCLE
  5
A7
100
AcDbEntity
  8
枠・表
  6
CONTINUOUS
 62
     6
100
AcDbCircle
 10
570.0
 20
187.5
 30
0.0
 40
1.5
  0
CIRCLE
  5
A8
100
AcDbEntity
  8
枠・表
  6
CONTINUOUS
 62
     6
100
AcDbCircle
 10
645.0
 20
187.5
 30
0.0
 40
1.5
  0
TEXT
  5
A9
100
AcDbEntity
  8
枠・表
  6
CONTINUOUS
 62
     2
100
AcDbText
 10
742.5
 20
277.5
 30
0.0
 40
75.0
  1
間瀬
 41
0.924
  7
EXCADSTD
 72
     5
 11
893.739
 21
277.5
 31
0.0
100
AcDbText
  0
TEXT
  5
AA
100
AcDbEntity
  8
枠・表
  6
CONTINUOUS
 62
     2
100
AcDbText
 10
1327.5
 20
347.25
 30
0.0
 40
85.5
  1
カウンター付手洗器
 41
0.671345
  7
EXCADSTD
 72
     5
 11
1942.5
 21
347.25
 31
0.0
100
AcDbText
  0
TEXT
  5
AB
100
AcDbEntity
  8
枠・表
  6
CONTINUOUS
 62
     2
100
AcDbText
 10
937.5
 20
277.5
 30
0.0
 40
75.0
  1
古林
 41
0.924
  7
EXCADSTD
 72
     5
 11
1088.739
 21
277.5
 31
0.0
100
AcDbText
  0
TEXT
  5
AC
100
AcDbEntity
  8
枠・表
  6
CONTINUOUS
 62
     7
100
AcDbText
 10
2170.500003
 20
174.75
 30
0.0
 40
105.0
  1
ＬＵ７１７３７０
 41
0.804
  7
EXCADSTD
 72
     5
 11
2974.499997
 21
174.75
 31
0.0
100
AcDbText
  0
TEXT
  5
AD
100
AcDbEntity
  8
枠・表
  6
CONTINUOUS
 62
     2
100
AcDbText
 10
345.0
 20
157.5
 30
0.0
 40
60.0
  1
10
 41
0.5
  7
EXCADSTD
 72
     5
 11
393.0
 21
157.5
 31
0.0
100
AcDbText
  0
TEXT
  5
AE
100
AcDbEntity
  8
枠・表
  6
CONTINUOUS
 62
     2
100
AcDbText
 10
269.25
 20
157.5
 30
0.0
 40
60.0
  1
21
 41
0.5
  7
EXCADSTD
 72
     5
 11
317.25
 21
157.5
 31
0.0
100
AcDbText
  0
TEXT
  5
AF
100
AcDbEntity
  8
枠・表
  6
CONTINUOUS
 62
     2
100
AcDbText
 10
296.25
 20
277.5
 30
0.0
 40
75.0
  1
間瀬
 41
0.924
  7
EXCADSTD
 72
     5
 11
447.489
 21
277.5
 31
0.0
100
AcDbText
  0
TEXT
  5
B0
100
AcDbEntity
  8
枠・表
  6
CONTINUOUS
 62
     2
100
AcDbText
 10
424.5
 20
157.5
 30
0.0
 40
60.0
  1
26
 41
0.5
  7
EXCADSTD
 72
     5
 11
472.5
 21
157.5
 31
0.0
100
AcDbText
  0
TEXT
  5
B2
100
AcDbEntity
  8
枠・表
  6
CONTINUOUS
 62
     2
100
AcDbText
 10
1147.5
 20
180.0
 30
0.0
 40
67.5
  1
ジャニス工業株式会社
 41
1.0
  7
EXCADTTF1
 72
     5
 11
2047.5
 21
180.0
 31
0.0
100
AcDbText
  0
TEXT
  5
B3
100
AcDbEntity
  8
枠・表
  6
CONTINUOUS
 62
     2
100
AcDbText
 10
1506.0
 20
1822.75
 30
0.0
 40
45.0
  1
ＣＦ－Ａ６３－ＪＡ１Ｂ
 41
0.668182
  7
EXCADTTF1
 72
     5
 11
1947.0
 21
1822.75
 31
0.0
100
AcDbText
  0
LEADER
  5
B4
100
AcDbEntity
  8
枠・表
  6
CONTINUOUS
 62
     3
100
AcDbLeader
  3
STANDARD
 73
     3
 74
     1
 75
     0
 40
0.0
 76
     3
 10
1418.237509
 20
1927.552914
 30
0.0
 10
1510.5
 20
1825.5
 30
0.0
 10
1942.5
 20
1825.5
 30
0.0
 77
     3
1001
ACAD
1000
DSTYLE
1002
{
1070
    41
1040
45.0
1070
     5
1000
_EX_NORM
1070
     6
1000
_EX_NORM
1070
     7
1000
_EX_NORM
1070
   341
1005
28
1002
}
  0
LEADER
  5
B5
100
AcDbEntity
  8
枠・表
  6
CONTINUOUS
 62
     3
100
AcDbLeader
  3
STANDARD
 73
     3
 74
     1
 75
     0
 40
0.0
 76
     2
 10
2005.5
 20
1975.0
 30
0.0
 10
1942.5
 20
1825.5
 30
0.0
 77
     3
1001
ACAD
1000
DSTYLE
1002
{
1070
    41
1040
45.0
1070
     5
1000
_EX_NORM
1070
     6
1000
_EX_NORM
1070
     7
1000
_EX_NORM
1070
   341
1005
28
1002
}
  0
TEXT
  5
B6
100
AcDbEntity
  8
枠・表
  6
CONTINUOUS
 62
     2
100
AcDbText
 10
1570.5
 20
2116.75
 30
0.0
 40
45.0
  1
ＬＵＣＰ３５０１ＴＮ
 41
0.67
  7
EXCADTTF1
 72
     5
 11
1972.5
 21
2116.75
 31
0.0
100
AcDbText
  0
POLYLINE
  5
B7
100
AcDbEntity
  8
枠・表
  6
CONTINUOUS
 62
     3
100
AcDb2dPolyline
 66
     1
 10
0.0
 20
0.0
 30
0.0
 70
   128
  0
VERTEX
  5
B8
100
AcDbEntity
  8
枠・表
  6
CONTINUOUS
 62
     3
100
AcDbVertex
100
AcDb2dVertex
 10
1539.0
 20
2044.0
 30
0.0
  0
VERTEX
  5
B9
100
AcDbEntity
  8
枠・表
  6
CONTINUOUS
 62
     3
100
AcDbVertex
100
AcDb2dVertex
 10
1575.0
 20
2119.5
 30
0.0
  0
VERTEX
  5
BA
100
AcDbEntity
  8
枠・表
  6
CONTINUOUS
 62
     3
100
AcDbVertex
100
AcDb2dVertex
 10
1971.0
 20
2119.5
 30
0.0
  0
SEQEND
  5
BB
100
AcDbEntity
  8
枠・表
  6
CONTINUOUS
 62
     3
  0
LINE
  5
BC
100
AcDbEntity
  8
枠・表
  6
CONTINUOUS
 62
     3
100
AcDbLine
 10
1551.598096
 20
2087.846755
 30
0.0
 11
1539.0
 21
2044.0
 31
0.0
  0
LINE
  5
BD
100
AcDbEntity
  8
枠・表
  6
CONTINUOUS
 62
     3
100
AcDbLine
 10
1539.0
 20
2044.0
 30
0.0
 11
1565.137688
 21
2081.390791
 31
0.0
  0
LINE
  5
BE
100
AcDbEntity
  8
枠・表
  6
CONTINUOUS
 62
     6
100
AcDbLine
 10
1810.5
 20
4159.0
 30
0.0
 11
2860.5
 21
4159.0
 31
0.0
  0
LINE
  5
BF
100
AcDbEntity
  8
枠・表
  6
CONTINUOUS
 62
     6
100
AcDbLine
 10
1810.5
 20
4076.5
 30
0.0
 11
2860.5
 21
4076.5
 31
0.0
  0
TEXT
  5
C0
100
AcDbEntity
  8
枠・表
  6
CONTINUOUS
 62
     2
100
AcDbText
 10
1930.5
 20
4087.75
 30
0.0
 40
60.0
  1
品番
 41
1.47
  7
EXCADSTD
 72
     5
 11
2122.986
 21
4087.75
 31
0.0
100
AcDbText
  0
TEXT
  5
C1
100
AcDbEntity
  8
枠・表
  6
CONTINUOUS
 62
     2
100
AcDbText
 10
2380.5
 20
4087.75
 30
0.0
 40
60.0
  1
品名
 41
1.47
  7
EXCADSTD
 72
     5
 11
2572.986
 21
4087.75
 31
0.0
100
AcDbText
  0
TEXT
  5
C2
100
AcDbEntity
  8
枠・表
  6
CONTINUOUS
 62
     2
100
AcDbText
 10
2724.0
 20
4087.75
 30
0.0
 40
60.0
  1
個数
 41
0.861
  7
EXCADSTD
 72
     5
 11
2836.7418
 21
4087.75
 31
0.0
100
AcDbText
  0
LINE
  5
C3
100
AcDbEntity
  8
枠・表
  6
CONTINUOUS
 62
     6
100
AcDbLine
 10
1810.5
 20
4241.5
 30
0.0
 11
2860.5
 21
4241.5
 31
0.0
  0
TEXT
  5
C4
100
AcDbEntity
  8
枠・表
  6
CONTINUOUS
 62
     2
100
AcDbText
 10
2107.500001
 20
4166.5
 30
0.0
 40
67.5
  1
ＡＵ５０Ａの内訳
 41
0.709333
  7
EXCADSTD
 72
     5
 11
2563.499999
 21
4166.5
 31
0.0
100
AcDbText
  0
LINE
  5
C5
100
AcDbEntity
  8
枠・表
  6
CONTINUOUS
 62
     6
100
AcDbLine
 10
1810.5
 20
3994.0
 30
0.0
 11
2860.5
 21
3994.0
 31
0.0
  0
TEXT
  5
C6
100
AcDbEntity
  8
枠・表
  6
CONTINUOUS
 62
     2
100
AcDbText
 10
2751.75
 20
4005.25
 30
0.0
 40
60.0
  1
１
 41
0.945
  7
EXCADSTD
 72
     5
 11
2805.75
 21
4005.25
 31
0.0
100
AcDbText
  0
TEXT
  5
C7
100
AcDbEntity
  8
枠・表
  6
CONTINUOUS
 62
     2
100
AcDbText
 10
2751.75
 20
3922.75
 30
0.0
 40
60.0
  1
１
 41
0.945
  7
EXCADSTD
 72
     5
 11
2805.75
 21
3922.75
 31
0.0
100
AcDbText
  0
TEXT
  5
C8
100
AcDbEntity
  8
枠・表
  6
CONTINUOUS
 62
     2
100
AcDbText
 10
2275.5
 20
3922.75
 30
0.0
 40
60.0
  1
紙巻器・ブラケット
 41
0.653333
  7
EXCADSTD
 72
     5
 11
2695.5
 21
3922.75
 31
0.0
100
AcDbText
  0
TEXT
  5
C9
100
AcDbEntity
  8
枠・表
  6
CONTINUOUS
 62
     2
100
AcDbText
 10
2275.5
 20
4005.25
 30
0.0
 40
60.0
  1
カウンター
 41
0.8106
  7
EXCADSTD
 72
     5
 11
2564.999999
 21
4005.25
 31
0.0
100
AcDbText
  0
TEXT
  5
CA
100
AcDbEntity
  8
枠・表
  6
CONTINUOUS
 62
     2
100
AcDbText
 10
1825.5
 20
3922.75
 30
0.0
 40
60.0
  1
ＣＦ－Ａ６３－ＪＡ１Ｂ
 41
0.523091
  7
EXCADSTD
 72
     5
 11
2236.500025
 21
3922.75
 31
0.0
100
AcDbText
  0
LINE
  5
CB
100
AcDbEntity
  8
枠・表
  6
CONTINUOUS
 62
     6
100
AcDbLine
 10
1810.5
 20
3911.5
 30
0.0
 11
2860.5
 21
3911.5
 31
0.0
  0
TEXT
  5
CC
100
AcDbEntity
  8
枠・表
  6
CONTINUOUS
 62
     2
100
AcDbText
 10
1825.5
 20
4005.25
 30
0.0
 40
60.0
  1
ＬＵＣＰ３５０１ＴＮ
 41
0.5628
  7
EXCADSTD
 72
     5
 11
2227.500013
 21
4005.25
 31
0.0
100
AcDbText
  0
LINE
  5
CD
100
AcDbEntity
  8
枠・表
  6
CONTINUOUS
 62
     6
100
AcDbLine
 10
1810.5
 20
3911.5
 30
0.0
 11
1810.5
 21
4241.5
 31
0.0
  0
LINE
  5
CE
100
AcDbEntity
  8
枠・表
  6
CONTINUOUS
 62
     6
100
AcDbLine
 10
2260.5
 20
3911.5
 30
0.0
 11
2260.5
 21
4159.0
 31
0.0
  0
LINE
  5
CF
100
AcDbEntity
  8
枠・表
  6
CONTINUOUS
 62
     6
100
AcDbLine
 10
2710.5
 20
3911.5
 30
0.0
 11
2710.5
 21
4159.0
 31
0.0
  0
LINE
  5
D0
100
AcDbEntity
  8
枠・表
  6
CONTINUOUS
 62
     6
100
AcDbLine
 10
2860.5
 20
3911.5
 30
0.0
 11
2860.5
 21
4241.5
 31
0.0
  0
TEXT
  5
D1
100
AcDbEntity
  8
枠・表
  6
CONTINUOUS
 62
     2
100
AcDbText
 10
2288.25
 20
354.0
 30
0.0
 40
67.5
  1
ＡＵ５０Ａ
 41
0.720533
  7
EXCADSTD
 72
     5
 11
2577.75
 21
354.0
 31
0.0
100
AcDbText
  0
DIMENSION
  5
DE
100
AcDbEntity
  8
ｶｳﾝﾀｰ/ｷｬﾋﾞﾈｯﾄ
  6
CONTINUOUS
 62
     3
100
AcDbDimension
  2
*D14
 10
2102.0
 20
2595.0
 30
0.0
 11
1592.0
 21
2630.25
 31
0.0
 70
   160
  3
STANDARD
100
AcDbAlignedDimension
 13
1082.0
 23
2712.5
 33
0.0
 14
2102.0
 24
2712.5
 34
0.0
100
AcDbRotatedDimension
1001
ACAD
1000
DSTYLE
1002
{
1070
     6
1000
_EX_NORM
1070
     7
1000
_EX_NORM
1070
    41
1040
45.0
1070
    42
1040
7.5
1070
    44
1040
15.0
1070
    73
1070
     0
1070
    74
1070
     0
1070
    75
1070
     0
1070
    76
1070
     0
1070
    77
1070
     1
1070
    78
1070
     8
1070
   140
1040
60.0
1070
   147
1040
5.25
1070
   173
1070
     1
1070
   176
1070
     3
1070
   177
1070
     3
1070
   178
1070
     2
1070
   271
1070
     2
1070
   279
1070
     2
1070
   280
1070
     0
1070
   287
1070
     5
1070
   340
1005
DD
1002
}
  0
LINE
  5
DF
100
AcDbEntity
  8
ｶｳﾝﾀｰ/ｷｬﾋﾞﾈｯﾄ
  6
CONTINUOUS
 62
     2
100
AcDbLine
 10
2040.0
 20
2025.0
 30
0.0
 11
2040.0
 21
1975.0
 31
0.0
  0
LINE
  5
E0
100
AcDbEntity
  8
ｶｳﾝﾀｰ/ｷｬﾋﾞﾈｯﾄ
  6
CONTINUOUS
 62
     2
100
AcDbLine
 10
1964.0
 20
1975.0
 30
0.0
 11
2040.0
 21
1975.0
 31
0.0
  0
LINE
  5
E1
100
AcDbEntity
  8
ｶｳﾝﾀｰ/ｷｬﾋﾞﾈｯﾄ
  6
CONTINUOUS
 62
     2
100
AcDbLine
 10
1964.0
 20
1975.0
 30
0.0
 11
1964.0
 21
2025.0
 31
0.0
  0
LINE
  5
E2
100
AcDbEntity
  8
ｶｳﾝﾀｰ/ｷｬﾋﾞﾈｯﾄ
  6
CONTINUOUS
 62
     2
100
AcDbLine
 10
1964.0
 20
2014.0
 30
0.0
 11
2040.0
 21
2014.0
 31
0.0
  0
CIRCLE
  5
E3
100
AcDbEntity
  8
ｶｳﾝﾀｰ/ｷｬﾋﾞﾈｯﾄ
  6
CONTINUOUS
 62
     6
100
AcDbCircle
 10
1984.0
 20
1995.0
 30
0.0
 40
3.0
  0
CIRCLE
  5
E4
100
AcDbEntity
  8
ｶｳﾝﾀｰ/ｷｬﾋﾞﾈｯﾄ
  6
CONTINUOUS
 62
     6
100
AcDbCircle
 10
2020.0
 20
1995.0
 30
0.0
 40
3.0
  0
LINE
  5
E5
100
AcDbEntity
  8
ｶｳﾝﾀｰ/ｷｬﾋﾞﾈｯﾄ
  6
CONTINUOUS
 62
     2
100
AcDbLine
 10
2102.0
 20
2044.0
 30
0.0
 11
2102.0
 21
2025.0
 31
0.0
  0
LINE
  5
E6
100
AcDbEntity
  8
ｶｳﾝﾀｰ/ｷｬﾋﾞﾈｯﾄ
  6
CONTINUOUS
 62
     2
100
AcDbLine
 10
1272.975
 20
2016.8
 30
0.0
 11
1401.025
 21
2016.8
 31
0.0
  0
ARC
  5
E7
100
AcDbEntity
  8
ｶｳﾝﾀｰ/ｷｬﾋﾞﾈｯﾄ
  6
CONTINUOUS
 62
     2
100
AcDbCircle
 10
1413.045
 20
1903.0
 30
0.0
 40
5.0
100
AcDbArc
 50
270.0
 51
359.465
  0
ARC
  5
E8
100
AcDbEntity
  8
ｶｳﾝﾀｰ/ｷｬﾋﾞﾈｯﾄ
  6
CONTINUOUS
 62
     2
100
AcDbCircle
 10
1406.95
 20
1903.0
 30
0.0
 40
5.0
100
AcDbArc
 50
180.566
 51
270.0
  0
LINE
  5
E9
100
AcDbEntity
  8
ｶｳﾝﾀｰ/ｷｬﾋﾞﾈｯﾄ
  6
CONTINUOUS
 62
     2
100
AcDbLine
 10
1413.045
 20
1898.0
 30
0.0
 11
1406.95
 21
1898.0
 31
0.0
  0
LINE
  5
EA
100
AcDbEntity
  8
ｶｳﾝﾀｰ/ｷｬﾋﾞﾈｯﾄ
  6
CONTINUOUS
 62
     2
100
AcDbLine
 10
1401.95
 20
1902.95
 30
0.0
 11
1401.025
 21
2016.8
 31
0.0
  0
LINE
  5
EB
100
AcDbEntity
  8
ｶｳﾝﾀｰ/ｷｬﾋﾞﾈｯﾄ
  6
CONTINUOUS
 62
     2
100
AcDbLine
 10
1272.365
 20
1942.3
 30
0.0
 11
1401.63
 21
1942.3
 31
0.0
  0
ARC
  5
EC
100
AcDbEntity
  8
ｶｳﾝﾀｰ/ｷｬﾋﾞﾈｯﾄ
  6
CONTINUOUS
 62
     2
100
AcDbCircle
 10
1300.0
 20
1932.475
 30
0.0
 40
2.0
100
AcDbArc
 50
280.125
 51
0.0
  0
ARC
  5
ED
100
AcDbEntity
  8
ｶｳﾝﾀｰ/ｷｬﾋﾞﾈｯﾄ
  6
CONTINUOUS
 62
     2
100
AcDbCircle
 10
1300.0
 20
1935.8
 30
0.0
 40
2.0
100
AcDbArc
 50
0.0
 51
90.0
  0
LINE
  5
EE
100
AcDbEntity
  8
ｶｳﾝﾀｰ/ｷｬﾋﾞﾈｯﾄ
  6
CONTINUOUS
 62
     2
100
AcDbLine
 10
1300.35
 20
1930.505
 30
0.0
 11
1272.17
 21
1925.83
 31
0.0
  0
LINE
  5
EF
100
AcDbEntity
  8
ｶｳﾝﾀｰ/ｷｬﾋﾞﾈｯﾄ
  6
CONTINUOUS
 62
     2
100
AcDbLine
 10
1302.0
 20
1935.8
 30
0.0
 11
1302.0
 21
1932.475
 31
0.0
  0
LINE
  5
F0
100
AcDbEntity
  8
ｶｳﾝﾀｰ/ｷｬﾋﾞﾈｯﾄ
  6
CONTINUOUS
 62
     2
100
AcDbLine
 10
1272.33
 20
1937.8
 30
0.0
 11
1300.0
 21
1937.8
 31
0.0
  0
ARC
  5
F1
100
AcDbEntity
  8
ｶｳﾝﾀｰ/ｷｬﾋﾞﾈｯﾄ
  6
CONTINUOUS
 62
     2
100
AcDbCircle
 10
1374.0
 20
1932.475
 30
0.0
 40
2.0
100
AcDbArc
 50
180.0
 51
259.875
  0
ARC
  5
F2
100
AcDbEntity
  8
ｶｳﾝﾀｰ/ｷｬﾋﾞﾈｯﾄ
  6
CONTINUOUS
 62
     2
100
AcDbCircle
 10
1374.0
 20
1935.8
 30
0.0
 40
2.0
100
AcDbArc
 50
90.0
 51
180.0
  0
LINE
  5
F3
100
AcDbEntity
  8
ｶｳﾝﾀｰ/ｷｬﾋﾞﾈｯﾄ
  6
CONTINUOUS
 62
     2
100
AcDbLine
 10
1373.645
 20
1930.505
 30
0.0
 11
1401.825
 21
1925.83
 31
0.0
  0
LINE
  5
F4
100
AcDbEntity
  8
ｶｳﾝﾀｰ/ｷｬﾋﾞﾈｯﾄ
  6
CONTINUOUS
 62
     2
100
AcDbLine
 10
1372.0
 20
1935.8
 30
0.0
 11
1372.0
 21
1932.475
 31
0.0
  0
LINE
  5
F5
100
AcDbEntity
  8
ｶｳﾝﾀｰ/ｷｬﾋﾞﾈｯﾄ
  6
CONTINUOUS
 62
     2
100
AcDbLine
 10
1401.665
 20
1937.8
 30
0.0
 11
1374.0
 21
1937.8
 31
0.0
  0
LINE
  5
F6
100
AcDbEntity
  8
ｶｳﾝﾀｰ/ｷｬﾋﾞﾈｯﾄ
  6
CONTINUOUS
 62
     2
100
AcDbLine
 10
1399.75
 20
2002.745
 30
0.0
 11
1274.25
 21
2002.745
 31
0.0
  0
LINE
  5
F7
100
AcDbEntity
  8
ｶｳﾝﾀｰ/ｷｬﾋﾞﾈｯﾄ
  6
CONTINUOUS
 62
     2
100
AcDbLine
 10
1274.25
 20
2002.745
 30
0.0
 11
1274.25
 21
1966.765
 31
0.0
  0
LINE
  5
F8
100
AcDbEntity
  8
ｶｳﾝﾀｰ/ｷｬﾋﾞﾈｯﾄ
  6
CONTINUOUS
 62
     2
100
AcDbLine
 10
1399.75
 20
1966.765
 30
0.0
 11
1399.75
 21
2002.745
 31
0.0
  0
LINE
  5
F9
100
AcDbEntity
  8
ｶｳﾝﾀｰ/ｷｬﾋﾞﾈｯﾄ
  6
CONTINUOUS
 62
     2
100
AcDbLine
 10
1274.25
 20
1966.765
 30
0.0
 11
1399.75
 21
1966.765
 31
0.0
  0
LINE
  5
FA
100
AcDbEntity
  8
ｶｳﾝﾀｰ/ｷｬﾋﾞﾈｯﾄ
  6
CONTINUOUS
 62
     6
100
AcDbLine
 10
1274.25
 20
1969.44
 30
0.0
 11
1399.75
 21
1969.44
 31
0.0
  0
LINE
  5
FB
100
AcDbEntity
  8
ｶｳﾝﾀｰ/ｷｬﾋﾞﾈｯﾄ
  6
CONTINUOUS
 62
     2
100
AcDbLine
 10
1272.045075
 20
1902.959158
 30
0.0
 11
1272.975
 21
2016.8
 31
0.0
  0
ARC
  5
FC
100
AcDbEntity
  8
ｶｳﾝﾀｰ/ｷｬﾋﾞﾈｯﾄ
  6
CONTINUOUS
 62
     2
100
AcDbCircle
 10
1267.045242
 20
1903.0
 30
0.0
 40
5.0
100
AcDbArc
 50
270.0
 51
359.531982
  0
LINE
  5
FD
100
AcDbEntity
  8
ｶｳﾝﾀｰ/ｷｬﾋﾞﾈｯﾄ
  6
CONTINUOUS
 62
     2
100
AcDbLine
 10
1241.025
 20
2016.8
 30
0.0
 11
1112.975
 21
2016.8
 31
0.0
  0
ARC
  5
FE
100
AcDbEntity
  8
ｶｳﾝﾀｰ/ｷｬﾋﾞﾈｯﾄ
  6
CONTINUOUS
 62
     2
100
AcDbCircle
 10
1100.955
 20
1903.0
 30
0.0
 40
5.0
100
AcDbArc
 50
180.535
 51
270.0
  0
ARC
  5
FF
100
AcDbEntity
  8
ｶｳﾝﾀｰ/ｷｬﾋﾞﾈｯﾄ
  6
CONTINUOUS
 62
     2
100
AcDbCircle
 10
1107.05
 20
1903.0
 30
0.0
 40
5.0
100
AcDbArc
 50
270.0
 51
359.434
  0
LINE
  5
100
100
AcDbEntity
  8
ｶｳﾝﾀｰ/ｷｬﾋﾞﾈｯﾄ
  6
CONTINUOUS
 62
     2
100
AcDbLine
 10
1100.955
 20
1898.0
 30
0.0
 11
1107.05
 21
1898.0
 31
0.0
  0
LINE
  5
101
100
AcDbEntity
  8
ｶｳﾝﾀｰ/ｷｬﾋﾞﾈｯﾄ
  6
CONTINUOUS
 62
     2
100
AcDbLine
 10
1112.05
 20
1902.95
 30
0.0
 11
1112.975
 21
2016.8
 31
0.0
  0
LINE
  5
102
100
AcDbEntity
  8
ｶｳﾝﾀｰ/ｷｬﾋﾞﾈｯﾄ
  6
CONTINUOUS
 62
     2
100
AcDbLine
 10
1241.635
 20
1942.3
 30
0.0
 11
1112.37
 21
1942.3
 31
0.0
  0
ARC
  5
103
100
AcDbEntity
  8
ｶｳﾝﾀｰ/ｷｬﾋﾞﾈｯﾄ
  6
CONTINUOUS
 62
     2
100
AcDbCircle
 10
1214.0
 20
1932.475
 30
0.0
 40
2.0
100
AcDbArc
 50
180.0
 51
259.875
  0
ARC
  5
104
100
AcDbEntity
  8
ｶｳﾝﾀｰ/ｷｬﾋﾞﾈｯﾄ
  6
CONTINUOUS
 62
     2
100
AcDbCircle
 10
1214.0
 20
1935.8
 30
0.0
 40
2.0
100
AcDbArc
 50
90.0
 51
180.0
  0
LINE
  5
105
100
AcDbEntity
  8
ｶｳﾝﾀｰ/ｷｬﾋﾞﾈｯﾄ
  6
CONTINUOUS
 62
     2
100
AcDbLine
 10
1213.65
 20
1930.505
 30
0.0
 11
1241.83
 21
1925.83
 31
0.0
  0
LINE
  5
106
100
AcDbEntity
  8
ｶｳﾝﾀｰ/ｷｬﾋﾞﾈｯﾄ
  6
CONTINUOUS
 62
     2
100
AcDbLine
 10
1212.0
 20
1935.8
 30
0.0
 11
1212.0
 21
1932.475
 31
0.0
  0
LINE
  5
107
100
AcDbEntity
  8
ｶｳﾝﾀｰ/ｷｬﾋﾞﾈｯﾄ
  6
CONTINUOUS
 62
     2
100
AcDbLine
 10
1241.67
 20
1937.8
 30
0.0
 11
1214.0
 21
1937.8
 31
0.0
  0
ARC
  5
108
100
AcDbEntity
  8
ｶｳﾝﾀｰ/ｷｬﾋﾞﾈｯﾄ
  6
CONTINUOUS
 62
     2
100
AcDbCircle
 10
1140.0
 20
1932.475
 30
0.0
 40
2.0
100
AcDbArc
 50
280.125
 51
0.0
  0
ARC
  5
109
100
AcDbEntity
  8
ｶｳﾝﾀｰ/ｷｬﾋﾞﾈｯﾄ
  6
CONTINUOUS
 62
     2
100
AcDbCircle
 10
1140.0
 20
1935.8
 30
0.0
 40
2.0
100
AcDbArc
 50
0.0
 51
90.0
  0
LINE
  5
10A
100
AcDbEntity
  8
ｶｳﾝﾀｰ/ｷｬﾋﾞﾈｯﾄ
  6
CONTINUOUS
 62
     2
100
AcDbLine
 10
1140.355
 20
1930.505
 30
0.0
 11
1112.175
 21
1925.83
 31
0.0
  0
LINE
  5
10B
100
AcDbEntity
  8
ｶｳﾝﾀｰ/ｷｬﾋﾞﾈｯﾄ
  6
CONTINUOUS
 62
     2
100
AcDbLine
 10
1142.0
 20
1935.8
 30
0.0
 11
1142.0
 21
1932.475
 31
0.0
  0
LINE
  5
10C
100
AcDbEntity
  8
ｶｳﾝﾀｰ/ｷｬﾋﾞﾈｯﾄ
  6
CONTINUOUS
 62
     2
100
AcDbLine
 10
1112.335
 20
1937.8
 30
0.0
 11
1140.0
 21
1937.8
 31
0.0
  0
LINE
  5
10D
100
AcDbEntity
  8
ｶｳﾝﾀｰ/ｷｬﾋﾞﾈｯﾄ
  6
CONTINUOUS
 62
     2
100
AcDbLine
 10
1114.25
 20
2002.745
 30
0.0
 11
1239.75
 21
2002.745
 31
0.0
  0
LINE
  5
10E
100
AcDbEntity
  8
ｶｳﾝﾀｰ/ｷｬﾋﾞﾈｯﾄ
  6
CONTINUOUS
 62
     2
100
AcDbLine
 10
1239.75
 20
2002.745
 30
0.0
 11
1239.75
 21
1966.765
 31
0.0
  0
LINE
  5
10F
100
AcDbEntity
  8
ｶｳﾝﾀｰ/ｷｬﾋﾞﾈｯﾄ
  6
CONTINUOUS
 62
     2
100
AcDbLine
 10
1114.25
 20
1966.765
 30
0.0
 11
1114.25
 21
2002.745
 31
0.0
  0
LINE
  5
110
100
AcDbEntity
  8
ｶｳﾝﾀｰ/ｷｬﾋﾞﾈｯﾄ
  6
CONTINUOUS
 62
     2
100
AcDbLine
 10
1239.75
 20
1966.765
 30
0.0
 11
1114.25
 21
1966.765
 31
0.0
  0
LINE
  5
111
100
AcDbEntity
  8
ｶｳﾝﾀｰ/ｷｬﾋﾞﾈｯﾄ
  6
CONTINUOUS
 62
     6
100
AcDbLine
 10
1239.75
 20
1969.44
 30
0.0
 11
1114.25
 21
1969.44
 31
0.0
  0
LINE
  5
112
100
AcDbEntity
  8
ｶｳﾝﾀｰ/ｷｬﾋﾞﾈｯﾄ
  6
CONTINUOUS
 62
     2
100
AcDbLine
 10
1241.954925
 20
1902.959158
 30
0.0
 11
1241.025
 21
2016.8
 31
0.0
  0
LINE
  5
113
100
AcDbEntity
  8
ｶｳﾝﾀｰ/ｷｬﾋﾞﾈｯﾄ
  6
CONTINUOUS
 62
     2
100
AcDbLine
 10
1267.045242
 20
1898.0
 30
0.0
 11
1246.954758
 21
1898.0
 31
0.0
  0
ARC
  5
114
100
AcDbEntity
  8
ｶｳﾝﾀｰ/ｷｬﾋﾞﾈｯﾄ
  6
CONTINUOUS
 62
     2
100
AcDbCircle
 10
1246.954758
 20
1903.0
 30
0.0
 40
5.0
100
AcDbArc
 50
180.468018
 51
270.0
  0
LINE
  5
115
100
AcDbEntity
  8
ｶｳﾝﾀｰ/ｷｬﾋﾞﾈｯﾄ
  6
CONTINUOUS
 62
     2
100
AcDbLine
 10
1418.045
 20
1902.95
 30
0.0
 11
1419.0
 21
2025.0
 31
0.0
  0
LINE
  5
116
100
AcDbEntity
  8
ｶｳﾝﾀｰ/ｷｬﾋﾞﾈｯﾄ
  6
CONTINUOUS
 62
     2
100
AcDbLine
 10
1095.955
 20
1902.95
 30
0.0
 11
1095.0
 21
2025.0
 31
0.0
  0
CIRCLE
  5
117
100
AcDbEntity
  8
ｶｳﾝﾀｰ/ｷｬﾋﾞﾈｯﾄ
  6
EXLTYPE2
 62
     6
100
AcDbCircle
 10
1177.0
 20
1995.0
 30
0.0
 40
2.5
  0
CIRCLE
  5
118
100
AcDbEntity
  8
ｶｳﾝﾀｰ/ｷｬﾋﾞﾈｯﾄ
  6
EXLTYPE2
 62
     6
100
AcDbCircle
 10
1177.0
 20
1965.0
 30
0.0
 40
2.5
  0
CIRCLE
  5
119
100
AcDbEntity
  8
ｶｳﾝﾀｰ/ｷｬﾋﾞﾈｯﾄ
  6
EXLTYPE2
 62
     6
100
AcDbCircle
 10
1337.0
 20
1965.0
 30
0.0
 40
2.5
  0
CIRCLE
  5
11A
100
AcDbEntity
  8
ｶｳﾝﾀｰ/ｷｬﾋﾞﾈｯﾄ
  6
EXLTYPE2
 62
     6
100
AcDbCircle
 10
1337.0
 20
1995.0
 30
0.0
 40
2.5
  0
LINE
  5
11B
100
AcDbEntity
  8
ｶｳﾝﾀｰ/ｷｬﾋﾞﾈｯﾄ
  6
CONTINUOUS
 62
     2
100
AcDbLine
 10
1082.0
 20
2044.0
 30
0.0
 11
2102.0
 21
2044.0
 31
0.0
  0
LINE
  5
11C
100
AcDbEntity
  8
ｶｳﾝﾀｰ/ｷｬﾋﾞﾈｯﾄ
  6
CONTINUOUS
 62
     2
100
AcDbLine
 10
1082.0
 20
2044.0
 30
0.0
 11
1082.0
 21
2025.0
 31
0.0
  0
LINE
  5
11D
100
AcDbEntity
  8
ｶｳﾝﾀｰ/ｷｬﾋﾞﾈｯﾄ
  6
CONTINUOUS
 62
     2
100
AcDbLine
 10
1082.0
 20
2025.0
 30
0.0
 11
2102.0
 21
2025.0
 31
0.0
  0
LINE
  5
11E
100
AcDbEntity
  8
ｶｳﾝﾀｰ/ｷｬﾋﾞﾈｯﾄ
  6
CONTINUOUS
 62
     6
100
AcDbLine
 10
2018.0
 20
2822.5
 30
0.0
 11
2020.0
 21
2854.5
 31
0.0
  0
LINE
  5
11F
100
AcDbEntity
  8
ｶｳﾝﾀｰ/ｷｬﾋﾞﾈｯﾄ
  6
CONTINUOUS
 62
     6
100
AcDbLine
 10
2022.0
 20
2822.5
 30
0.0
 11
2020.0
 21
2854.5
 31
0.0
  0
LINE
  5
120
100
AcDbEntity
  8
ｶｳﾝﾀｰ/ｷｬﾋﾞﾈｯﾄ
  6
CONTINUOUS
 62
     6
100
AcDbLine
 10
2020.0
 20
2812.5
 30
0.0
 11
2020.0
 21
2864.5
 31
0.0
  0
LINE
  5
121
100
AcDbEntity
  8
ｶｳﾝﾀｰ/ｷｬﾋﾞﾈｯﾄ
  6
CONTINUOUS
 62
     6
100
AcDbLine
 10
1982.0
 20
2822.5
 30
0.0
 11
1984.0
 21
2854.5
 31
0.0
  0
LINE
  5
122
100
AcDbEntity
  8
ｶｳﾝﾀｰ/ｷｬﾋﾞﾈｯﾄ
  6
CONTINUOUS
 62
     6
100
AcDbLine
 10
1986.0
 20
2822.5
 30
0.0
 11
1984.0
 21
2854.5
 31
0.0
  0
LINE
  5
123
100
AcDbEntity
  8
ｶｳﾝﾀｰ/ｷｬﾋﾞﾈｯﾄ
  6
CONTINUOUS
 62
     6
100
AcDbLine
 10
1984.0
 20
2812.5
 30
0.0
 11
1984.0
 21
2864.5
 31
0.0
  0
LINE
  5
124
100
AcDbEntity
  8
ｶｳﾝﾀｰ/ｷｬﾋﾞﾈｯﾄ
  6
CONTINUOUS
 62
     2
100
AcDbLine
 10
2102.0
 20
2822.5
 30
0.0
 11
2102.0
 21
2712.5
 31
0.0
  0
LINE
  5
125
100
AcDbEntity
  8
ｶｳﾝﾀｰ/ｷｬﾋﾞﾈｯﾄ
  6
CONTINUOUS
 62
     6
100
AcDbLine
 10
1175.0
 20
2822.5
 30
0.0
 11
1177.0
 21
2854.5
 31
0.0
  0
LINE
  5
126
100
AcDbEntity
  8
ｶｳﾝﾀｰ/ｷｬﾋﾞﾈｯﾄ
  6
CONTINUOUS
 62
     6
100
AcDbLine
 10
1179.0
 20
2822.5
 30
0.0
 11
1177.0
 21
2854.5
 31
0.0
  0
LINE
  5
127
100
AcDbEntity
  8
ｶｳﾝﾀｰ/ｷｬﾋﾞﾈｯﾄ
  6
CONTINUOUS
 62
     6
100
AcDbLine
 10
1177.0
 20
2812.5
 30
0.0
 11
1177.0
 21
2864.5
 31
0.0
  0
LINE
  5
128
100
AcDbEntity
  8
ｶｳﾝﾀｰ/ｷｬﾋﾞﾈｯﾄ
  6
CONTINUOUS
 62
     6
100
AcDbLine
 10
1335.0
 20
2822.5
 30
0.0
 11
1337.0
 21
2854.5
 31
0.0
  0
LINE
  5
129
100
AcDbEntity
  8
ｶｳﾝﾀｰ/ｷｬﾋﾞﾈｯﾄ
  6
CONTINUOUS
 62
     6
100
AcDbLine
 10
1339.0
 20
2822.5
 30
0.0
 11
1337.0
 21
2854.5
 31
0.0
  0
LINE
  5
12A
100
AcDbEntity
  8
ｶｳﾝﾀｰ/ｷｬﾋﾞﾈｯﾄ
  6
CONTINUOUS
 62
     6
100
AcDbLine
 10
1337.0
 20
2812.5
 30
0.0
 11
1337.0
 21
2864.5
 31
0.0
  0
LINE
  5
12B
100
AcDbEntity
  8
ｶｳﾝﾀｰ/ｷｬﾋﾞﾈｯﾄ
  6
CONTINUOUS
 62
     2
100
AcDbLine
 10
1082.0
 20
2822.5
 30
0.0
 11
2102.0
 21
2822.5
 31
0.0
  0
LINE
  5
12C
100
AcDbEntity
  8
ｶｳﾝﾀｰ/ｷｬﾋﾞﾈｯﾄ
  6
CONTINUOUS
 62
     2
100
AcDbLine
 10
1082.0
 20
2712.5
 30
0.0
 11
1082.0
 21
2822.5
 31
0.0
  0
LINE
  5
12D
100
AcDbEntity
  8
ｶｳﾝﾀｰ/ｷｬﾋﾞﾈｯﾄ
  6
CONTINUOUS
 62
     2
100
AcDbLine
 10
1082.0
 20
2712.5
 30
0.0
 11
2102.0
 21
2712.5
 31
0.0
  0
DIMENSION
  5
139
100
AcDbEntity
  8
寸法
  6
CONTINUOUS
 62
     3
100
AcDbDimension
  2
*D15
 10
2259.0
 20
2712.5
 30
0.0
 11
2223.75
 21
2767.5
 31
0.0
 70
   160
  3
STANDARD
100
AcDbAlignedDimension
 13
2102.0
 23
2822.5
 33
0.0
 14
2102.0
 24
2712.5
 34
0.0
 50
90.0
100
AcDbRotatedDimension
1001
ACAD
1000
DSTYLE
1002
{
1070
     6
1000
_EX_NORM
1070
     7
1000
_EX_NORM
1070
    41
1040
45.0
1070
    42
1040
10.5
1070
    44
1040
15.0
1070
    73
1070
     0
1070
    74
1070
     0
1070
    75
1070
     0
1070
    76
1070
     0
1070
    77
1070
     1
1070
    78
1070
     0
1070
   140
1040
60.0
1070
   147
1040
5.25
1070
   173
1070
     1
1070
   176
1070
     3
1070
   177
1070
     3
1070
   178
1070
     2
1070
   271
1070
     0
1070
   279
1070
     2
1070
   280
1070
     0
1070
   287
1070
     5
1070
   340
1005
DD
1002
}
  0
DIMENSION
  5
145
100
AcDbEntity
  8
寸法
  6
CONTINUOUS
 62
     3
100
AcDbDimension
  2
*D16
 10
2259.0
 20
2044.0
 30
0.0
 11
2223.75
 21
2141.5
 31
0.0
 70
   160
  3
STANDARD
100
AcDbAlignedDimension
 13
2102.0
 23
2025.0
 33
0.0
 14
2102.0
 24
2044.0
 34
0.0
 50
90.0
100
AcDbRotatedDimension
1001
ACAD
1000
DSTYLE
1002
{
1070
     6
1000
_EX_NORM
1070
     7
1000
_EX_NORM
1070
    41
1040
45.0
1070
    42
1040
7.5
1070
    44
1040
15.0
1070
    73
1070
     0
1070
    74
1070
     0
1070
    75
1070
     0
1070
    76
1070
     0
1070
    77
1070
     1
1070
    78
1070
     8
1070
   140
1040
60.0
1070
   147
1040
5.25
1070
   173
1070
     1
1070
   176
1070
     3
1070
   177
1070
     3
1070
   178
1070
     2
1070
   271
1070
     2
1070
   279
1070
     2
1070
   280
1070
     2
1070
   287
1070
     5
1070
   340
1005
DD
1002
}
  0
ENDSEC
  0
SECTION
  2
OBJECTS
  0
DICTIONARY
  5
19
100
AcDbDictionary
  3
ACAD_GROUP
350
1A
  3
ACAD_MLINESTYLE
350
1B
  0
DICTIONARY
  5
1A
102
{ACAD_REACTORS
330
19
102
}
100
AcDbDictionary
  0
DICTIONARY
  5
1B
102
{ACAD_REACTORS
330
19
102
}
100
AcDbDictionary
  3
STANDARD
350
1C
  0
MLINESTYLE
  5
1C
102
{ACAD_REACTORS
330
1B
102
}
100
AcDbMlineStyle
  2
Standard
 70
     0
  3

 62
     0
 51
90.0
 52
90.0
 71
     2
 49
0.5
 62
   256
  6
ByLayer
 49
-0.5
 62
   256
  6
ByLayer
  0
ENDSEC
  0
EOF
