  0
SECTION
  2
HEADER
  9
$ACADVER
  1
AC1014
  9
$ACADMAINTVER
 70
     0
  9
$DWGCODEPAGE
  3
ANSI_932
  9
$INSBASE
 10
0.0
 20
0.0
 30
0.0
  9
$EXTMIN
 10
0.0
 20
13.5
 30
0.0
  9
$EXTMAX
 10
200.0
 20
288.5
 30
0.0
  9
$LIMMIN
 10
0.0
 20
0.0
  9
$LIMMAX
 10
210.0
 20
297.0
  9
$ORTHOMODE
 70
     0
  9
$REGENMODE
 70
     1
  9
$FILLMODE
 70
     1
  9
$QTEXTMODE
 70
     0
  9
$MIRRTEXT
 70
     1
  9
$DRAGMODE
 70
     2
  9
$LTSCALE
 40
1.0
  9
$OSMODE
 70
     0
  9
$ATTMODE
 70
     1
  9
$TEXTSIZE
 40
0.2
  9
$TRACEWID
 40
0.05
  9
$TEXTSTYLE
  7
STANDARD
  9
$CLAYER
  8
化粧台
  9
$CELTYPE
  6
CONTINUOUS
  9
$CECOLOR
 62
   256
  9
$CELTSCALE
 40
1.0
  9
$DELOBJ
 70
     1
  9
$DISPSILH
 70
     0
  9
$DIMSCALE
 40
1.0
  9
$DIMASZ
 40
0.18
  9
$DIMEXO
 40
0.0625
  9
$DIMDLI
 40
0.38
  9
$DIMRND
 40
0.0
  9
$DIMDLE
 40
0.0
  9
$DIMEXE
 40
0.18
  9
$DIMTP
 40
0.0
  9
$DIMTM
 40
0.0
  9
$DIMTXT
 40
0.18
  9
$DIMCEN
 40
0.09
  9
$DIMTSZ
 40
0.0
  9
$DIMTOL
 70
     0
  9
$DIMLIM
 70
     0
  9
$DIMTIH
 70
     1
  9
$DIMTOH
 70
     1
  9
$DIMSE1
 70
     0
  9
$DIMSE2
 70
     0
  9
$DIMTAD
 70
     0
  9
$DIMZIN
 70
     0
  9
$DIMBLK
  1

  9
$DIMASO
 70
     1
  9
$DIMSHO
 70
     1
  9
$DIMPOST
  1

  9
$DIMAPOST
  1

  9
$DIMALT
 70
     0
  9
$DIMALTD
 70
     2
  9
$DIMALTF
 40
25.4
  9
$DIMLFAC
 40
1.0
  9
$DIMTOFL
 70
     0
  9
$DIMTVP
 40
0.0
  9
$DIMTIX
 70
     0
  9
$DIMSOXD
 70
     0
  9
$DIMSAH
 70
     0
  9
$DIMBLK1
  1

  9
$DIMBLK2
  1

  9
$DIMSTYLE
  2
STANDARD
  9
$DIMCLRD
 70
     0
  9
$DIMCLRE
 70
     0
  9
$DIMCLRT
 70
     0
  9
$DIMTFAC
 40
1.0
  9
$DIMGAP
 40
0.09
  9
$DIMJUST
 70
     0
  9
$DIMSD1
 70
     0
  9
$DIMSD2
 70
     0
  9
$DIMTOLJ
 70
     1
  9
$DIMTZIN
 70
     0
  9
$DIMALTZ
 70
     0
  9
$DIMALTTZ
 70
     0
  9
$DIMFIT
 70
     3
  9
$DIMUPT
 70
     0
  9
$DIMUNIT
 70
     2
  9
$DIMDEC
 70
     4
  9
$DIMTDEC
 70
     4
  9
$DIMALTU
 70
     2
  9
$DIMALTTD
 70
     2
  9
$DIMTXSTY
  7
STANDARD
  9
$DIMAUNIT
 70
     0
  9
$LUNITS
 70
     2
  9
$LUPREC
 70
     4
  9
$SKETCHINC
 40
0.1
  9
$FILLETRAD
 40
0.0
  9
$AUNITS
 70
     0
  9
$AUPREC
 70
     0
  9
$MENU
  1
acad
  9
$ELEVATION
 40
0.0
  9
$PELEVATION
 40
0.0
  9
$THICKNESS
 40
0.0
  9
$LIMCHECK
 70
     0
  9
$BLIPMODE
 70
     1
  9
$CHAMFERA
 40
0.0
  9
$CHAMFERB
 40
0.0
  9
$CHAMFERC
 40
0.0
  9
$CHAMFERD
 40
0.0
  9
$SKPOLY
 70
     0
  9
$TDCREATE
 40
2454820.049706192
  9
$TDUPDATE
 40
2454820.049706192
  9
$TDINDWG
 40
0.0000000000
  9
$TDUSRTIMER
 40
0.0000000000
  9
$USRTIMER
 70
     1
  9
$ANGBASE
 50
0.0
  9
$ANGDIR
 70
     0
  9
$PDMODE
 70
     0
  9
$PDSIZE
 40
0.0
  9
$PLINEWID
 40
0.0
  9
$COORDS
 70
     1
  9
$SPLFRAME
 70
     0
  9
$SPLINETYPE
 70
     6
  9
$SPLINESEGS
 70
     8
  9
$ATTDIA
 70
     0
  9
$ATTREQ
 70
     1
  9
$HANDLING
 70
     1
  9
$HANDSEED
  5
594
  9
$SURFTAB1
 70
     6
  9
$SURFTAB2
 70
     6
  9
$SURFTYPE
 70
     6
  9
$SURFU
 70
     6
  9
$SURFV
 70
     6
  9
$UCSNAME
  2

  9
$UCSORG
 10
0.0
 20
0.0
 30
0.0
  9
$UCSXDIR
 10
1.0
 20
0.0
 30
0.0
  9
$UCSYDIR
 10
0.0
 20
1.0
 30
0.0
  9
$PUCSNAME
  2

  9
$PUCSORG
 10
0.0
 20
0.0
 30
0.0
  9
$PUCSXDIR
 10
1.0
 20
0.0
 30
0.0
  9
$PUCSYDIR
 10
0.0
 20
1.0
 30
0.0
  9
$USERI1
 70
     0
  9
$USERI2
 70
     0
  9
$USERI3
 70
     0
  9
$USERI4
 70
     0
  9
$USERI5
 70
     0
  9
$USERR1
 40
0.0
  9
$USERR2
 40
0.0
  9
$USERR3
 40
0.0
  9
$USERR4
 40
0.0
  9
$USERR5
 40
0.0
  9
$WORLDVIEW
 70
     1
  9
$SHADEDGE
 70
     3
  9
$SHADEDIF
 70
    70
  9
$TILEMODE
 70
     1
  9
$MAXACTVP
 70
    16
  9
$PINSBASE
 10
0.0
 20
0.0
 30
0.0
  9
$PLIMCHECK
 70
     0
  9
$PEXTMIN
 10
1.000000E+20
 20
1.000000E+20
 30
1.000000E+20
  9
$PEXTMAX
 10
-1.000000E+20
 20
-1.000000E+20
 30
-1.000000E+20
  9
$PLIMMIN
 10
0.0
 20
0.0
  9
$PLIMMAX
 10
12.0
 20
9.0
  9
$UNITMODE
 70
     0
  9
$VISRETAIN
 70
     0
  9
$PLINEGEN
 70
     1
  9
$PSLTSCALE
 70
     0
  9
$TREEDEPTH
 70
  3020
  9
$PICKSTYLE
 70
     1
  9
$CMLSTYLE
  2
Standard
  9
$CMLJUST
 70
     0
  9
$CMLSCALE
 40
1.0
  9
$PROXYGRAPHICS
 70
     0
  9
$MEASUREMENT
 70
     0
  0
ENDSEC
  0
SECTION
  2
CLASSES
  0
CLASS
  1
LWPOLYLINE
  2
AcDbPolyline
  3
"AutoCAD"
 90
        0
280
     0
281
     1
  0
CLASS
  1
IMAGE
  2
AcDbRasterImage
  3
ISM
 90
      127
280
     0
281
     1
  0
CLASS
  1
OLE2FRAME
  2
AcDbOle2Frame
  3
""
 90
        0
280
     0
281
     1
  0
CLASS
  1
HATCH
  2
AcDbHatch
  3
"ACAD_SEDONA"
 90
        0
280
     0
281
     1
  0
CLASS
  1
DICTIONARYVAR
  2
AcDbDictionaryVar
  3
"AutoCAD"
 90
        0
280
     0
281
     0
  0
CLASS
  1
RASTERVARIABLES
  2
AcDbRasterVariables
  3
ISM
 90
        0
280
     0
281
     0
  0
CLASS
  1
IMAGEDEF
  2
AcDbRasterImageDef
  3
ISM
 90
        0
280
     0
281
     0
  0
CLASS
  1
IMAGEDEF_REACTOR
  2
AcDbRasterImageDefReactor
  3
ISM
 90
        1
280
     0
281
     0
  0
CLASS
  1
IDBUFFER
  2
AcDbIdBuffer
  3
"Acad"
 90
        0
280
     0
281
     0
  0
CLASS
  1
SPATIAL_FILTER
  2
AcDbSpatialFilter
  3
"Acad"
 90
        0
280
     0
281
     0
  0
CLASS
  1
XRECORD
  2
AcDbXrecord
  3
"<Built In>"
 90
        0
280
     0
281
     0
  0
CLASS
  1
SORTENTSTABLE
  2
AcDbSortentsTable
  3
"AutoCAD"
 90
        0
280
     0
281
     0
  0
CLASS
  1
LAYER_INDEX
  2
AcDbLayerIndex
  3
"Acad"
 90
        0
280
     0
281
     0
  0
CLASS
  1
SPATIAL_INDEX
  2
AcDbSpatialIndex
  3
"Acad"
 90
        0
280
     0
281
     0
  0
CLASS
  1
OBJECT_PTR
  2
CAseDLPNTableRecord
  3
"ASE-LPNTableRecord"
 90
        1
280
     0
281
     0
  0
CLASS
  1
LAYOUT
  2
AcDbLayout
  3
"AutoCAD 2000"
 90
        1
280
     0
281
     0
  0
CLASS
  1
PLOTSETTINGS
  2
AcDbPlotSettings
  3
"AutoCAD 2000"
 90
        1
280
     0
281
     0
  0
CLASS
  1
ACDBDICTIONARYWDFLT
  2
AcDbDictionaryWithDefault
  3
"AutoCAD 2000"
 90
        1
280
     0
281
     0
  0
CLASS
  1
ACDBPLACEHOLDER
  2
AcDbPlaceHolder
  3
"AutoCAD 2000"
 90
        1
280
     0
281
     0
  0
CLASS
  1
VBA_PROJECT
  2
AcDbVbaProject
  3
"acadvba"
 90
        1
280
     0
281
     0
  0
CLASS
  1
WIPEOUT
  2
AcDbWipeout
  3
WipeOut|AutoCAD Express Tool|expresstools@autodesk.com
 90
      127
280
     0
281
     1
  0
CLASS
  1
WIPEOUTVARIABLES
  2
AcDbWipeoutVariables
  3
WipeOut|AutoCAD Express Tool|expresstools@autodesk.com
 90
        0
280
     0
281
     0
  0
CLASS
  1
RTEXT
  2
RText
  3
RText|AutoCAD Express Tool|expresstools@autodesk.com
 90
        0
280
     0
281
     1
  0
CLASS
  1
ARCALIGNEDTEXT
  2
AcDbArcAlignedText
  3
ATEXT|AutoCAD Express Tool|expresstools@autodesk.com
 90
        0
280
     0
281
     1
  0
ENDSEC
  0
SECTION
  2
TABLES
  0
TABLE
  2
VPORT
  5
7
100
AcDbSymbolTable
 70
     1
  0
VPORT
  5
15
100
AcDbSymbolTableRecord
100
AcDbViewportTableRecord
  2
*ACTIVE
 70
     0
 10
0.0
 20
0.0
 11
1.0
 21
1.0
 12
1500.0
 22
2265.0
 13
0.0
 23
0.0
 14
1.0
 24
1.0
 15
0.0
 25
0.0
 16
0.0
 26
0.0
 36
1.0
 17
0.0
 27
0.0
 37
0.0
 40
4125.0
 41
1.722533
 42
50.0
 43
0.0
 44
0.0
 50
0.0
 51
0.0
 71
     0
 72
   100
 73
     1
 74
     1
 75
     0
 76
     0
 77
     0
 78
     0
  0
ENDTAB
  0
TABLE
  2
LTYPE
  5
4
100
AcDbSymbolTable
 70
     9
  0
LTYPE
  5
11
100
AcDbSymbolTableRecord
100
AcDbLinetypeTableRecord
  2
BYBLOCK
 70
    64
  3

 72
    65
 73
     0
 40
0.0
  0
LTYPE
  5
12
100
AcDbSymbolTableRecord
100
AcDbLinetypeTableRecord
  2
BYLAYER
 70
    64
  3

 72
    65
 73
     0
 40
0.0
  0
LTYPE
  5
13
100
AcDbSymbolTableRecord
100
AcDbLinetypeTableRecord
  2
CONTINUOUS
 70
    64
  3
実線
 72
    65
 73
     0
 40
0.0
  0
LTYPE
  5
1D
100
AcDbSymbolTableRecord
100
AcDbLinetypeTableRecord
  2
EXLTYPE1
 70
    64
  3
破線
 72
    65
 73
     2
 40
3.0
 49
2.0
 74
     0
 49
-1.0
 74
     0
  0
LTYPE
  5
1E
100
AcDbSymbolTableRecord
100
AcDbLinetypeTableRecord
  2
EXLTYPE2
 70
    64
  3
点線
 72
    65
 73
     2
 40
2.0
 49
1.0
 74
     0
 49
-1.0
 74
     0
  0
LTYPE
  5
1F
100
AcDbSymbolTableRecord
100
AcDbLinetypeTableRecord
  2
EXLTYPE3
 70
    64
  3
一点鎖線
 72
    65
 73
     4
 40
10.0
 49
7.0
 74
     0
 49
-1.0
 74
     0
 49
1.0
 74
     0
 49
-1.0
 74
     0
  0
LTYPE
  5
20
100
AcDbSymbolTableRecord
100
AcDbLinetypeTableRecord
  2
EXLTYPE4
 70
    64
  3
二点鎖線
 72
    65
 73
     6
 40
12.0
 49
7.0
 74
     0
 49
-1.0
 74
     0
 49
1.0
 74
     0
 49
-1.0
 74
     0
 49
1.0
 74
     0
 49
-1.0
 74
     0
  0
LTYPE
  5
21
100
AcDbSymbolTableRecord
100
AcDbLinetypeTableRecord
  2
EXLTYPE5
 70
    64
  3
三点鎖線
 72
    65
 73
     8
 40
37.0
 49
30.0
 74
     0
 49
-1.0
 74
     0
 49
1.0
 74
     0
 49
-1.0
 74
     0
 49
1.0
 74
     0
 49
-1.0
 74
     0
 49
1.0
 74
     0
 49
-1.0
 74
     0
  0
LTYPE
  5
22
100
AcDbSymbolTableRecord
100
AcDbLinetypeTableRecord
  2
EXLTYPE6
 70
    64
  3
四点鎖線
 72
    65
 73
    10
 40
39.0
 49
30.0
 74
     0
 49
-1.0
 74
     0
 49
1.0
 74
     0
 49
-1.0
 74
     0
 49
1.0
 74
     0
 49
-1.0
 74
     0
 49
1.0
 74
     0
 49
-1.0
 74
     0
 49
1.0
 74
     0
 49
-1.0
 74
     0
  0
ENDTAB
  0
TABLE
  2
LAYER
  5
2
100
AcDbSymbolTable
 70
     6
  0
LAYER
  5
14
100
AcDbSymbolTableRecord
100
AcDbLayerTableRecord
  2
0
 70
     0
 62
     7
  6
CONTINUOUS
  0
LAYER
  5
25
100
AcDbSymbolTableRecord
100
AcDbLayerTableRecord
  2
枠・表
 70
    64
 62
     7
  6
CONTINUOUS
  0
LAYER
  5
26
100
AcDbSymbolTableRecord
100
AcDbLayerTableRecord
  2
化粧台
 70
    64
 62
     7
  6
CONTINUOUS
  0
LAYER
  5
27
100
AcDbSymbolTableRecord
100
AcDbLayerTableRecord
  2
鏡台
 70
    64
 62
     7
  6
CONTINUOUS
  0
LAYER
  5
28
100
AcDbSymbolTableRecord
100
AcDbLayerTableRecord
  2
付属金具
 70
    64
 62
     7
  6
CONTINUOUS
  0
LAYER
  5
29
100
AcDbSymbolTableRecord
100
AcDbLayerTableRecord
  2
寸法
 70
    64
 62
     7
  6
CONTINUOUS
  0
ENDTAB
  0
TABLE
  2
STYLE
  5
3
100
AcDbSymbolTable
 70
     5
  0
STYLE
  5
17
100
AcDbSymbolTableRecord
100
AcDbTextStyleTableRecord
  2
STANDARD
 70
     0
 40
0.0
 41
1.0
 50
0.0
 71
     0
 42
0.0
  3
monotxt
  4
extfont
  0
STYLE
  5
23
100
AcDbSymbolTableRecord
100
AcDbTextStyleTableRecord
  2
EXCADSTD
 70
    64
 40
0.0
 41
1.0
 50
0.0
 71
     0
 42
0.2
  3
monotxt
  4
extfont
  0
STYLE
  5
24
100
AcDbSymbolTableRecord
100
AcDbTextStyleTableRecord
  2
EXCADVERT
 70
    68
 40
0.0
 41
1.0
 50
0.0
 71
     0
 42
0.286885
  3
monotxt
  4
extfont
  0
STYLE
  5
BF
100
AcDbSymbolTableRecord
100
AcDbTextStyleTableRecord
  2
EXCADTTF1
 70
    64
 40
0.0
 41
1.0
 50
0.0
 71
     0
 42
0.2
  3
MS Gothic.ttf
  4

1001
ACAD
1000
MS Gothic
1071
    32817
  0
STYLE
  5
484
100
AcDbSymbolTableRecord
100
AcDbTextStyleTableRecord
  2
EXCADDIM1
 70
    64
 40
0.0
 41
0.84
 50
0.0
 71
     0
 42
0.2
  3
monotxt
  4
extfont
  0
ENDTAB
  0
TABLE
  2
VIEW
  5
5
100
AcDbSymbolTable
 70
     0
  0
ENDTAB
  0
TABLE
  2
UCS
  5
6
100
AcDbSymbolTable
 70
     0
  0
ENDTAB
  0
TABLE
  2
APPID
  5
8
100
AcDbSymbolTable
 70
     1
  0
APPID
  5
16
100
AcDbSymbolTableRecord
100
AcDbRegAppTableRecord
  2
ACAD
 70
     0
  0
ENDTAB
  0
TABLE
  2
DIMSTYLE
  5
9
100
AcDbSymbolTable
 70
     1
  0
DIMSTYLE
105
18
100
AcDbSymbolTableRecord
100
AcDbDimStyleTableRecord
  2
STANDARD
 70
     0
  3

  4

  5

  6

  7

 40
1.0
 41
0.18
 42
0.0625
 43
0.38
 44
0.18
 45
0.0
 46
0.0
 47
0.0
 48
0.0
 71
     0
 72
     0
 73
     1
 74
     1
 75
     0
 76
     0
 77
     0
 78
     0
140
0.18
141
0.09
142
0.0
143
25.4
144
1.0
145
0.0
146
1.0
147
0.09
170
     0
171
     2
172
     1
173
     0
174
     0
175
     0
176
     0
177
     0
178
     0
270
     2
271
     4
272
     4
273
     2
274
     2
275
     0
280
     0
281
     0
282
     0
283
     1
284
     0
285
     0
286
     0
287
     0
288
     0
340
17
  0
ENDTAB
  0
TABLE
  2
BLOCK_RECORD
  5
1
100
AcDbSymbolTable
 70
    37
  0
BLOCK_RECORD
  5
A
100
AcDbSymbolTableRecord
100
AcDbBlockTableRecord
  2
*MODEL_SPACE
  0
BLOCK_RECORD
  5
B
100
AcDbSymbolTableRecord
100
AcDbBlockTableRecord
  2
*PAPER_SPACE
  0
BLOCK_RECORD
  5
2A
100
AcDbSymbolTableRecord
100
AcDbBlockTableRecord
  2
_EX_NORM
  0
BLOCK_RECORD
  5
2B
100
AcDbSymbolTableRecord
100
AcDbBlockTableRecord
  2
_EX_BNORM
  0
BLOCK_RECORD
  5
2C
100
AcDbSymbolTableRecord
100
AcDbBlockTableRecord
  2
_EX_BCIR
  0
BLOCK_RECORD
  5
2D
100
AcDbSymbolTableRecord
100
AcDbBlockTableRecord
  2
_EX_RCIVIL
  0
BLOCK_RECORD
  5
2E
100
AcDbSymbolTableRecord
100
AcDbBlockTableRecord
  2
_EX_SLANT
  0
BLOCK_RECORD
  5
2F
100
AcDbSymbolTableRecord
100
AcDbBlockTableRecord
  2
_EX_NONE
  0
BLOCK_RECORD
  5
30
100
AcDbSymbolTableRecord
100
AcDbBlockTableRecord
  2
_EX_CIVIL
  0
BLOCK_RECORD
  5
31
100
AcDbSymbolTableRecord
100
AcDbBlockTableRecord
  2
_EX_WCIR
  0
BLOCK_RECORD
  5
32
100
AcDbSymbolTableRecord
100
AcDbBlockTableRecord
  2
_EX_WCIR2
  0
BLOCK_RECORD
  5
33
100
AcDbSymbolTableRecord
100
AcDbBlockTableRecord
  2
_EX_WNORM
  0
BLOCK_RECORD
  5
34
100
AcDbSymbolTableRecord
100
AcDbBlockTableRecord
  2
_EX_NNORM
  0
BLOCK_RECORD
  5
35
100
AcDbSymbolTableRecord
100
AcDbBlockTableRecord
  2
_EX_BBOX
  0
BLOCK_RECORD
  5
36
100
AcDbSymbolTableRecord
100
AcDbBlockTableRecord
  2
_EX_WBOX
  0
BLOCK_RECORD
  5
37
100
AcDbSymbolTableRecord
100
AcDbBlockTableRecord
  2
_EX_INTEGRAL
  0
BLOCK_RECORD
  5
479
100
AcDbSymbolTableRecord
100
AcDbBlockTableRecord
  2
*D14
  0
BLOCK_RECORD
  5
486
100
AcDbSymbolTableRecord
100
AcDbBlockTableRecord
  2
*D15
  0
BLOCK_RECORD
  5
492
100
AcDbSymbolTableRecord
100
AcDbBlockTableRecord
  2
*D16
  0
BLOCK_RECORD
  5
49D
100
AcDbSymbolTableRecord
100
AcDbBlockTableRecord
  2
*D17
  0
BLOCK_RECORD
  5
4A8
100
AcDbSymbolTableRecord
100
AcDbBlockTableRecord
  2
*D18
  0
BLOCK_RECORD
  5
4B3
100
AcDbSymbolTableRecord
100
AcDbBlockTableRecord
  2
*D19
  0
BLOCK_RECORD
  5
4BE
100
AcDbSymbolTableRecord
100
AcDbBlockTableRecord
  2
*D20
  0
BLOCK_RECORD
  5
4CD
100
AcDbSymbolTableRecord
100
AcDbBlockTableRecord
  2
*D21
  0
BLOCK_RECORD
  5
4D9
100
AcDbSymbolTableRecord
100
AcDbBlockTableRecord
  2
*D22
  0
BLOCK_RECORD
  5
4E5
100
AcDbSymbolTableRecord
100
AcDbBlockTableRecord
  2
*D23
  0
BLOCK_RECORD
  5
4F1
100
AcDbSymbolTableRecord
100
AcDbBlockTableRecord
  2
*D24
  0
BLOCK_RECORD
  5
4FD
100
AcDbSymbolTableRecord
100
AcDbBlockTableRecord
  2
*D25
  0
BLOCK_RECORD
  5
509
100
AcDbSymbolTableRecord
100
AcDbBlockTableRecord
  2
*D26
  0
BLOCK_RECORD
  5
51D
100
AcDbSymbolTableRecord
100
AcDbBlockTableRecord
  2
*D27
  0
BLOCK_RECORD
  5
529
100
AcDbSymbolTableRecord
100
AcDbBlockTableRecord
  2
*D28
  0
BLOCK_RECORD
  5
535
100
AcDbSymbolTableRecord
100
AcDbBlockTableRecord
  2
*D29
  0
BLOCK_RECORD
  5
540
100
AcDbSymbolTableRecord
100
AcDbBlockTableRecord
  2
*D30
  0
BLOCK_RECORD
  5
54B
100
AcDbSymbolTableRecord
100
AcDbBlockTableRecord
  2
*D31
  0
BLOCK_RECORD
  5
557
100
AcDbSymbolTableRecord
100
AcDbBlockTableRecord
  2
*D32
  0
BLOCK_RECORD
  5
563
100
AcDbSymbolTableRecord
100
AcDbBlockTableRecord
  2
*D33
  0
BLOCK_RECORD
  5
571
100
AcDbSymbolTableRecord
100
AcDbBlockTableRecord
  2
*D34
  0
BLOCK_RECORD
  5
57C
100
AcDbSymbolTableRecord
100
AcDbBlockTableRecord
  2
*D35
  0
BLOCK_RECORD
  5
588
100
AcDbSymbolTableRecord
100
AcDbBlockTableRecord
  2
*D36
  0
ENDTAB
  0
ENDSEC
  0
SECTION
  2
BLOCKS
  0
BLOCK
  5
D
100
AcDbEntity
  8
0
100
AcDbBlockBegin
  2
*MODEL_SPACE
 70
     0
 10
0.0
 20
0.0
 30
0.0
  3
*MODEL_SPACE
  1

  0
ENDBLK
  5
E
100
AcDbEntity
  8
0
100
AcDbBlockEnd
  0
BLOCK
  5
F
100
AcDbEntity
 67
     1
  8
0
100
AcDbBlockBegin
  2
*PAPER_SPACE
 70
     0
 10
0.0
 20
0.0
 30
0.0
  3
*PAPER_SPACE
  1

  0
ENDBLK
  5
10
100
AcDbEntity
 67
     1
  8
0
100
AcDbBlockEnd
  0
BLOCK
  5
38
100
AcDbEntity
  8
0
100
AcDbBlockBegin
  2
_EX_NORM
 70
     0
 10
0.0
 20
0.0
 30
0.0
  3
_EX_NORM
  1

  0
LINE
  5
39
100
AcDbEntity
  8
0
  6
CONTINUOUS
 62
     0
100
AcDbLine
 10
0.0
 20
0.0
 30
0.0
 11
-1.0
 21
0.0
 31
0.0
  0
LINE
  5
3A
100
AcDbEntity
  8
0
  6
CONTINUOUS
 62
     0
100
AcDbLine
 10
0.0
 20
0.0
 30
0.0
 11
-1.0
 21
0.166667
 31
0.0
  0
LINE
  5
3B
100
AcDbEntity
  8
0
  6
CONTINUOUS
 62
     0
100
AcDbLine
 10
0.0
 20
0.0
 30
0.0
 11
-1.0
 21
-0.166667
 31
0.0
  0
ENDBLK
  5
3C
100
AcDbEntity
  8
0
100
AcDbBlockEnd
  0
BLOCK
  5
3D
100
AcDbEntity
  8
0
100
AcDbBlockBegin
  2
_EX_BNORM
 70
     0
 10
0.0
 20
0.0
 30
0.0
  3
_EX_BNORM
  1

  0
LINE
  5
3E
100
AcDbEntity
  8
0
  6
CONTINUOUS
 62
     0
100
AcDbLine
 10
0.0
 20
0.0
 30
0.0
 11
-1.0
 21
0.0
 31
0.0
  0
LINE
  5
3F
100
AcDbEntity
  8
0
  6
CONTINUOUS
 62
     0
100
AcDbLine
 10
0.0
 20
0.0
 30
0.0
 11
-1.0
 21
0.166667
 31
0.0
  0
LINE
  5
40
100
AcDbEntity
  8
0
  6
CONTINUOUS
 62
     0
100
AcDbLine
 10
0.0
 20
0.0
 30
0.0
 11
-1.0
 21
-0.166667
 31
0.0
  0
LINE
  5
41
100
AcDbEntity
  8
0
  6
CONTINUOUS
 62
     0
100
AcDbLine
 10
0.0
 20
0.0
 30
0.0
 11
-1.0
 21
0.083333
 31
0.0
  0
LINE
  5
42
100
AcDbEntity
  8
0
  6
CONTINUOUS
 62
     0
100
AcDbLine
 10
0.0
 20
0.0
 30
0.0
 11
-1.0
 21
-0.083333
 31
0.0
  0
LINE
  5
43
100
AcDbEntity
  8
0
  6
CONTINUOUS
 62
     0
100
AcDbLine
 10
-1.0
 20
0.166667
 30
0.0
 11
-1.0
 21
-0.166667
 31
0.0
  0
ENDBLK
  5
44
100
AcDbEntity
  8
0
100
AcDbBlockEnd
  0
BLOCK
  5
45
100
AcDbEntity
  8
0
100
AcDbBlockBegin
  2
_EX_BCIR
 70
     0
 10
0.0
 20
0.0
 30
0.0
  3
_EX_BCIR
  1

  0
LINE
  5
46
100
AcDbEntity
  8
0
  6
CONTINUOUS
 62
     0
100
AcDbLine
 10
0.0
 20
0.0
 30
0.0
 11
-1.0
 21
0.0
 31
0.0
  0
CIRCLE
  5
47
100
AcDbEntity
  8
0
  6
CONTINUOUS
 62
     0
100
AcDbCircle
 10
0.0
 20
0.0
 30
0.0
 40
0.5
  0
CIRCLE
  5
48
100
AcDbEntity
  8
0
  6
CONTINUOUS
 62
     0
100
AcDbCircle
 10
0.0
 20
0.0
 30
0.0
 40
0.25
  0
ENDBLK
  5
49
100
AcDbEntity
  8
0
100
AcDbBlockEnd
  0
BLOCK
  5
4A
100
AcDbEntity
  8
0
100
AcDbBlockBegin
  2
_EX_RCIVIL
 70
     0
 10
0.0
 20
0.0
 30
0.0
  3
_EX_RCIVIL
  1

  0
LINE
  5
4B
100
AcDbEntity
  8
0
  6
CONTINUOUS
 62
     0
100
AcDbLine
 10
0.0
 20
0.0
 30
0.0
 11
-1.0
 21
0.0
 31
0.0
  0
LINE
  5
4C
100
AcDbEntity
  8
0
  6
CONTINUOUS
 62
     0
100
AcDbLine
 10
-1.0
 20
-0.25
 30
0.0
 11
0.0
 21
-0.25
 31
0.0
  0
LINE
  5
4D
100
AcDbEntity
  8
0
  6
CONTINUOUS
 62
     0
100
AcDbLine
 10
-1.0
 20
-0.125
 30
0.0
 11
0.0
 21
-0.125
 31
0.0
  0
ENDBLK
  5
4E
100
AcDbEntity
  8
0
100
AcDbBlockEnd
  0
BLOCK
  5
4F
100
AcDbEntity
  8
0
100
AcDbBlockBegin
  2
_EX_SLANT
 70
     0
 10
0.0
 20
0.0
 30
0.0
  3
_EX_SLANT
  1

  0
LINE
  5
50
100
AcDbEntity
  8
0
  6
CONTINUOUS
 62
     0
100
AcDbLine
 10
0.0
 20
0.0
 30
0.0
 11
-1.0
 21
0.0
 31
0.0
  0
LINE
  5
51
100
AcDbEntity
  8
0
  6
CONTINUOUS
 62
     0
100
AcDbLine
 10
0.707107
 20
0.707107
 30
0.0
 11
-0.707107
 21
-0.707107
 31
0.0
  0
ENDBLK
  5
52
100
AcDbEntity
  8
0
100
AcDbBlockEnd
  0
BLOCK
  5
53
100
AcDbEntity
  8
0
100
AcDbBlockBegin
  2
_EX_NONE
 70
     0
 10
0.0
 20
0.0
 30
0.0
  3
_EX_NONE
  1

  0
LINE
  5
54
100
AcDbEntity
  8
0
  6
CONTINUOUS
 62
     0
100
AcDbLine
 10
0.0
 20
0.0
 30
0.0
 11
-1.0
 21
0.0
 31
0.0
  0
ENDBLK
  5
55
100
AcDbEntity
  8
0
100
AcDbBlockEnd
  0
BLOCK
  5
56
100
AcDbEntity
  8
0
100
AcDbBlockBegin
  2
_EX_CIVIL
 70
     0
 10
0.0
 20
0.0
 30
0.0
  3
_EX_CIVIL
  1

  0
LINE
  5
57
100
AcDbEntity
  8
0
  6
CONTINUOUS
 62
     0
100
AcDbLine
 10
0.0
 20
0.0
 30
0.0
 11
-1.0
 21
0.0
 31
0.0
  0
LINE
  5
58
100
AcDbEntity
  8
0
  6
CONTINUOUS
 62
     0
100
AcDbLine
 10
-1.0
 20
0.25
 30
0.0
 11
0.0
 21
0.25
 31
0.0
  0
LINE
  5
59
100
AcDbEntity
  8
0
  6
CONTINUOUS
 62
     0
100
AcDbLine
 10
-1.0
 20
0.125
 30
0.0
 11
0.0
 21
0.125
 31
0.0
  0
ENDBLK
  5
5A
100
AcDbEntity
  8
0
100
AcDbBlockEnd
  0
BLOCK
  5
5B
100
AcDbEntity
  8
0
100
AcDbBlockBegin
  2
_EX_WCIR
 70
     0
 10
0.0
 20
0.0
 30
0.0
  3
_EX_WCIR
  1

  0
LINE
  5
5C
100
AcDbEntity
  8
0
  6
CONTINUOUS
 62
     0
100
AcDbLine
 10
0.0
 20
0.0
 30
0.0
 11
-1.0
 21
0.0
 31
0.0
  0
CIRCLE
  5
5D
100
AcDbEntity
  8
0
  6
CONTINUOUS
 62
     0
100
AcDbCircle
 10
0.0
 20
0.0
 30
0.0
 40
0.5
  0
ENDBLK
  5
5E
100
AcDbEntity
  8
0
100
AcDbBlockEnd
  0
BLOCK
  5
5F
100
AcDbEntity
  8
0
100
AcDbBlockBegin
  2
_EX_WCIR2
 70
     0
 10
0.0
 20
0.0
 30
0.0
  3
_EX_WCIR2
  1

  0
LINE
  5
60
100
AcDbEntity
  8
0
  6
CONTINUOUS
 62
     0
100
AcDbLine
 10
-0.5
 20
0.0
 30
0.0
 11
-1.0
 21
0.0
 31
0.0
  0
CIRCLE
  5
61
100
AcDbEntity
  8
0
  6
CONTINUOUS
 62
     0
100
AcDbCircle
 10
0.0
 20
0.0
 30
0.0
 40
0.5
  0
ENDBLK
  5
62
100
AcDbEntity
  8
0
100
AcDbBlockEnd
  0
BLOCK
  5
63
100
AcDbEntity
  8
0
100
AcDbBlockBegin
  2
_EX_WNORM
 70
     0
 10
0.0
 20
0.0
 30
0.0
  3
_EX_WNORM
  1

  0
LINE
  5
64
100
AcDbEntity
  8
0
  6
CONTINUOUS
 62
     0
100
AcDbLine
 10
-1.0
 20
0.0
 30
0.0
 11
-1.0
 21
0.0
 31
0.0
  0
LINE
  5
65
100
AcDbEntity
  8
0
  6
CONTINUOUS
 62
     0
100
AcDbLine
 10
0.0
 20
0.0
 30
0.0
 11
-1.0
 21
0.166667
 31
0.0
  0
LINE
  5
66
100
AcDbEntity
  8
0
  6
CONTINUOUS
 62
     0
100
AcDbLine
 10
0.0
 20
0.0
 30
0.0
 11
-1.0
 21
-0.166667
 31
0.0
  0
LINE
  5
67
100
AcDbEntity
  8
0
  6
CONTINUOUS
 62
     0
100
AcDbLine
 10
-1.0
 20
0.166667
 30
0.0
 11
-1.0
 21
-0.166667
 31
0.0
  0
ENDBLK
  5
68
100
AcDbEntity
  8
0
100
AcDbBlockEnd
  0
BLOCK
  5
69
100
AcDbEntity
  8
0
100
AcDbBlockBegin
  2
_EX_NNORM
 70
     0
 10
0.0
 20
0.0
 30
0.0
  3
_EX_NNORM
  1

  0
LINE
  5
6A
100
AcDbEntity
  8
0
  6
CONTINUOUS
 62
     0
100
AcDbLine
 10
0.0
 20
0.0
 30
0.0
 11
-1.0
 21
0.0
 31
0.0
  0
LINE
  5
6B
100
AcDbEntity
  8
0
  6
CONTINUOUS
 62
     0
100
AcDbLine
 10
0.0
 20
0.0
 30
0.0
 11
-1.0
 21
0.166667
 31
0.0
  0
LINE
  5
6C
100
AcDbEntity
  8
0
  6
CONTINUOUS
 62
     0
100
AcDbLine
 10
0.0
 20
0.0
 30
0.0
 11
-1.0
 21
-0.166667
 31
0.0
  0
LINE
  5
6D
100
AcDbEntity
  8
0
  6
CONTINUOUS
 62
     0
100
AcDbLine
 10
-1.0
 20
0.166667
 30
0.0
 11
-1.0
 21
-0.166667
 31
0.0
  0
ENDBLK
  5
6E
100
AcDbEntity
  8
0
100
AcDbBlockEnd
  0
BLOCK
  5
6F
100
AcDbEntity
  8
0
100
AcDbBlockBegin
  2
_EX_BBOX
 70
     0
 10
0.0
 20
0.0
 30
0.0
  3
_EX_BBOX
  1

  0
LINE
  5
70
100
AcDbEntity
  8
0
  6
CONTINUOUS
 62
     0
100
AcDbLine
 10
0.0
 20
0.0
 30
0.0
 11
-1.0
 21
0.0
 31
0.0
  0
LINE
  5
71
100
AcDbEntity
  8
0
  6
CONTINUOUS
 62
     0
100
AcDbLine
 10
-0.5
 20
0.5
 30
0.0
 11
0.5
 21
0.5
 31
0.0
  0
LINE
  5
72
100
AcDbEntity
  8
0
  6
CONTINUOUS
 62
     0
100
AcDbLine
 10
0.5
 20
0.5
 30
0.0
 11
0.5
 21
-0.5
 31
0.0
  0
LINE
  5
73
100
AcDbEntity
  8
0
  6
CONTINUOUS
 62
     0
100
AcDbLine
 10
0.5
 20
-0.5
 30
0.0
 11
-0.5
 21
-0.5
 31
0.0
  0
LINE
  5
74
100
AcDbEntity
  8
0
  6
CONTINUOUS
 62
     0
100
AcDbLine
 10
-0.5
 20
-0.5
 30
0.0
 11
-0.5
 21
0.5
 31
0.0
  0
LINE
  5
75
100
AcDbEntity
  8
0
  6
CONTINUOUS
 62
     0
100
AcDbLine
 10
-0.25
 20
0.25
 30
0.0
 11
0.25
 21
0.25
 31
0.0
  0
LINE
  5
76
100
AcDbEntity
  8
0
  6
CONTINUOUS
 62
     0
100
AcDbLine
 10
0.25
 20
0.25
 30
0.0
 11
0.25
 21
-0.25
 31
0.0
  0
LINE
  5
77
100
AcDbEntity
  8
0
  6
CONTINUOUS
 62
     0
100
AcDbLine
 10
0.25
 20
-0.25
 30
0.0
 11
-0.25
 21
-0.25
 31
0.0
  0
LINE
  5
78
100
AcDbEntity
  8
0
  6
CONTINUOUS
 62
     0
100
AcDbLine
 10
-0.25
 20
-0.25
 30
0.0
 11
-0.25
 21
0.25
 31
0.0
  0
ENDBLK
  5
79
100
AcDbEntity
  8
0
100
AcDbBlockEnd
  0
BLOCK
  5
7A
100
AcDbEntity
  8
0
100
AcDbBlockBegin
  2
_EX_WBOX
 70
     0
 10
0.0
 20
0.0
 30
0.0
  3
_EX_WBOX
  1

  0
LINE
  5
7B
100
AcDbEntity
  8
0
  6
CONTINUOUS
 62
     0
100
AcDbLine
 10
-0.5
 20
0.0
 30
0.0
 11
-1.0
 21
0.0
 31
0.0
  0
LINE
  5
7C
100
AcDbEntity
  8
0
  6
CONTINUOUS
 62
     0
100
AcDbLine
 10
-0.5
 20
0.5
 30
0.0
 11
0.5
 21
0.5
 31
0.0
  0
LINE
  5
7D
100
AcDbEntity
  8
0
  6
CONTINUOUS
 62
     0
100
AcDbLine
 10
0.5
 20
0.5
 30
0.0
 11
0.5
 21
-0.5
 31
0.0
  0
LINE
  5
7E
100
AcDbEntity
  8
0
  6
CONTINUOUS
 62
     0
100
AcDbLine
 10
0.5
 20
-0.5
 30
0.0
 11
-0.5
 21
-0.5
 31
0.0
  0
LINE
  5
7F
100
AcDbEntity
  8
0
  6
CONTINUOUS
 62
     0
100
AcDbLine
 10
-0.5
 20
-0.5
 30
0.0
 11
-0.5
 21
0.5
 31
0.0
  0
ENDBLK
  5
80
100
AcDbEntity
  8
0
100
AcDbBlockEnd
  0
BLOCK
  5
81
100
AcDbEntity
  8
0
100
AcDbBlockBegin
  2
_EX_INTEGRAL
 70
     0
 10
0.0
 20
0.0
 30
0.0
  3
_EX_INTEGRAL
  1

  0
LINE
  5
82
100
AcDbEntity
  8
0
  6
CONTINUOUS
 62
     0
100
AcDbLine
 10
0.0
 20
0.0
 30
0.0
 11
-1.0
 21
0.0
 31
0.0
  0
ARC
  5
83
100
AcDbEntity
  8
0
  6
CONTINUOUS
 62
     0
100
AcDbCircle
 10
0.542115
 20
0.164992
 30
0.0
 40
0.56667
100
AcDbArc
 50
73.07249
 51
196.927513
  0
ARC
  5
84
100
AcDbEntity
  8
0
  6
CONTINUOUS
 62
     0
100
AcDbCircle
 10
-0.542115
 20
-0.164992
 30
0.0
 40
0.56667
100
AcDbArc
 50
253.072487
 51
16.927513
  0
ENDBLK
  5
85
100
AcDbEntity
  8
0
100
AcDbBlockEnd
  0
BLOCK
  5
47A
100
AcDbEntity
  8
0
100
AcDbBlockBegin
  2
*D14
 70
    65
 10
0.0
 20
0.0
 30
0.0
  3
*D14
  1

  0
LINE
  5
47B
100
AcDbEntity
  8
寸法
  6
CONTINUOUS
 62
     3
100
AcDbLine
 10
645.0
 20
3532.5
 30
0.0
 11
645.0
 21
3412.5
 31
0.0
  0
LINE
  5
47C
100
AcDbEntity
  8
寸法
  6
CONTINUOUS
 62
     3
100
AcDbLine
 10
1195.0
 20
3532.5
 30
0.0
 11
1195.0
 21
3412.5
 31
0.0
  0
TEXT
  5
47D
100
AcDbEntity
  8
寸法
  6
CONTINUOUS
 62
     2
100
AcDbText
 10
857.0
 20
3432.75
 30
0.0
 40
60.0
  1
550
 41
0.84
  7
EXCADSTD
 72
     1
 11
920.0
 21
3432.75
 31
0.0
100
AcDbText
  0
LINE
  5
47E
100
AcDbEntity
  8
寸法
  6
CONTINUOUS
 62
     3
100
AcDbLine
 10
645.0
 20
3427.5
 30
0.0
 11
1195.0
 21
3427.5
 31
0.0
  0
LINE
  5
47F
100
AcDbEntity
  8
寸法
  6
CONTINUOUS
 62
     3
100
AcDbLine
 10
690.0
 20
3435.0
 30
0.0
 11
645.0
 21
3427.5
 31
0.0
  0
LINE
  5
480
100
AcDbEntity
  8
寸法
  6
CONTINUOUS
 62
     3
100
AcDbLine
 10
645.0
 20
3427.5
 30
0.0
 11
690.0
 21
3420.0
 31
0.0
  0
LINE
  5
481
100
AcDbEntity
  8
寸法
  6
CONTINUOUS
 62
     3
100
AcDbLine
 10
1150.0
 20
3420.0
 30
0.0
 11
1195.0
 21
3427.5
 31
0.0
  0
LINE
  5
482
100
AcDbEntity
  8
寸法
  6
CONTINUOUS
 62
     3
100
AcDbLine
 10
1195.0
 20
3427.5
 30
0.0
 11
1150.0
 21
3435.0
 31
0.0
  0
ENDBLK
  5
483
100
AcDbEntity
  8
0
100
AcDbBlockEnd
  0
BLOCK
  5
487
100
AcDbEntity
  8
0
100
AcDbBlockBegin
  2
*D15
 70
    65
 10
0.0
 20
0.0
 30
0.0
  3
*D15
  1

  0
LINE
  5
488
100
AcDbEntity
  8
寸法
  6
CONTINUOUS
 62
     3
100
AcDbLine
 10
470.0
 20
3572.5
 30
0.0
 11
470.0
 21
3316.5
 31
0.0
  0
LINE
  5
489
100
AcDbEntity
  8
寸法
  6
CONTINUOUS
 62
     3
100
AcDbLine
 10
1370.0
 20
3572.5
 30
0.0
 11
1370.0
 21
3316.5
 31
0.0
  0
TEXT
  5
48A
100
AcDbEntity
  8
寸法
  6
CONTINUOUS
 62
     2
100
AcDbText
 10
857.0
 20
3336.75
 30
0.0
 40
60.0
  1
900
 41
0.84
  7
EXCADSTD
 72
     1
 11
920.0
 21
3336.75
 31
0.0
100
AcDbText
  0
LINE
  5
48B
100
AcDbEntity
  8
寸法
  6
CONTINUOUS
 62
     3
100
AcDbLine
 10
470.0
 20
3331.5
 30
0.0
 11
1370.0
 21
3331.5
 31
0.0
  0
LINE
  5
48C
100
AcDbEntity
  8
寸法
  6
CONTINUOUS
 62
     3
100
AcDbLine
 10
515.0
 20
3339.0
 30
0.0
 11
470.0
 21
3331.5
 31
0.0
  0
LINE
  5
48D
100
AcDbEntity
  8
寸法
  6
CONTINUOUS
 62
     3
100
AcDbLine
 10
470.0
 20
3331.5
 30
0.0
 11
515.0
 21
3324.0
 31
0.0
  0
LINE
  5
48E
100
AcDbEntity
  8
寸法
  6
CONTINUOUS
 62
     3
100
AcDbLine
 10
1325.0
 20
3324.0
 30
0.0
 11
1370.0
 21
3331.5
 31
0.0
  0
LINE
  5
48F
100
AcDbEntity
  8
寸法
  6
CONTINUOUS
 62
     3
100
AcDbLine
 10
1370.0
 20
3331.5
 30
0.0
 11
1325.0
 21
3339.0
 31
0.0
  0
ENDBLK
  5
490
100
AcDbEntity
  8
0
100
AcDbBlockEnd
  0
BLOCK
  5
493
100
AcDbEntity
  8
0
100
AcDbBlockBegin
  2
*D16
 70
    65
 10
0.0
 20
0.0
 30
0.0
  3
*D16
  1

  0
LINE
  5
494
100
AcDbEntity
  8
寸法
  6
CONTINUOUS
 62
     3
100
AcDbLine
 10
1380.5
 20
3583.0
 30
0.0
 11
1491.0
 21
3583.0
 31
0.0
  0
TEXT
  5
495
100
AcDbEntity
  8
寸法
  6
CONTINUOUS
 62
     2
100
AcDbText
 10
1470.75
 20
3745.0
 30
0.0
 40
60.0
  1
450
 50
90.0
 41
0.84
  7
EXCADSTD
 72
     1
 11
1470.75
 21
3808.0
 31
0.0
100
AcDbText
  0
LINE
  5
496
100
AcDbEntity
  8
寸法
  6
CONTINUOUS
 62
     3
100
AcDbLine
 10
1476.0
 20
4033.0
 30
0.0
 11
1476.0
 21
3583.0
 31
0.0
  0
LINE
  5
497
100
AcDbEntity
  8
寸法
  6
CONTINUOUS
 62
     3
100
AcDbLine
 10
1483.5
 20
3988.0
 30
0.0
 11
1476.0
 21
4033.0
 31
0.0
  0
LINE
  5
498
100
AcDbEntity
  8
寸法
  6
CONTINUOUS
 62
     3
100
AcDbLine
 10
1476.0
 20
4033.0
 30
0.0
 11
1468.5
 21
3988.0
 31
0.0
  0
LINE
  5
499
100
AcDbEntity
  8
寸法
  6
CONTINUOUS
 62
     3
100
AcDbLine
 10
1468.5
 20
3628.0
 30
0.0
 11
1476.0
 21
3583.0
 31
0.0
  0
LINE
  5
49A
100
AcDbEntity
  8
寸法
  6
CONTINUOUS
 62
     3
100
AcDbLine
 10
1476.0
 20
3583.0
 30
0.0
 11
1483.5
 21
3628.0
 31
0.0
  0
ENDBLK
  5
49B
100
AcDbEntity
  8
0
100
AcDbBlockEnd
  0
BLOCK
  5
49E
100
AcDbEntity
  8
0
100
AcDbBlockBegin
  2
*D17
 70
    65
 10
0.0
 20
0.0
 30
0.0
  3
*D17
  1

  0
LINE
  5
49F
100
AcDbEntity
  8
寸法
  6
CONTINUOUS
 62
     3
100
AcDbLine
 10
1195.5
 20
3533.0
 30
0.0
 11
1576.5
 21
3533.0
 31
0.0
  0
TEXT
  5
4A0
100
AcDbEntity
  8
寸法
  6
CONTINUOUS
 62
     2
100
AcDbText
 10
1556.25
 20
3720.0
 30
0.0
 40
60.0
  1
500
 50
90.0
 41
0.84
  7
EXCADSTD
 72
     1
 11
1556.25
 21
3783.0
 31
0.0
100
AcDbText
  0
LINE
  5
4A1
100
AcDbEntity
  8
寸法
  6
CONTINUOUS
 62
     3
100
AcDbLine
 10
1561.5
 20
3533.0
 30
0.0
 11
1561.5
 21
4033.0
 31
0.0
  0
LINE
  5
4A2
100
AcDbEntity
  8
寸法
  6
CONTINUOUS
 62
     3
100
AcDbLine
 10
1554.0
 20
3578.0
 30
0.0
 11
1561.5
 21
3533.0
 31
0.0
  0
LINE
  5
4A3
100
AcDbEntity
  8
寸法
  6
CONTINUOUS
 62
     3
100
AcDbLine
 10
1561.5
 20
3533.0
 30
0.0
 11
1569.0
 21
3578.0
 31
0.0
  0
LINE
  5
4A4
100
AcDbEntity
  8
寸法
  6
CONTINUOUS
 62
     3
100
AcDbLine
 10
1569.0
 20
3988.0
 30
0.0
 11
1561.5
 21
4033.0
 31
0.0
  0
LINE
  5
4A5
100
AcDbEntity
  8
寸法
  6
CONTINUOUS
 62
     3
100
AcDbLine
 10
1561.5
 20
4033.0
 30
0.0
 11
1554.0
 21
3988.0
 31
0.0
  0
ENDBLK
  5
4A6
100
AcDbEntity
  8
0
100
AcDbBlockEnd
  0
BLOCK
  5
4A9
100
AcDbEntity
  8
0
100
AcDbBlockBegin
  2
*D18
 70
    65
 10
0.0
 20
0.0
 30
0.0
  3
*D18
  1

  0
LINE
  5
4AA
100
AcDbEntity
  8
寸法
  6
CONTINUOUS
 62
     3
100
AcDbLine
 10
1380.5
 20
1586.0
 30
0.0
 11
1491.0
 21
1586.0
 31
0.0
  0
TEXT
  5
4AB
100
AcDbEntity
  8
寸法
  6
CONTINUOUS
 62
     2
100
AcDbText
 10
1470.75
 20
1173.5
 30
0.0
 40
60.0
  1
699
 50
90.0
 41
0.84
  7
EXCADSTD
 72
     1
 11
1470.75
 21
1236.5
 31
0.0
100
AcDbText
  0
LINE
  5
4AC
100
AcDbEntity
  8
寸法
  6
CONTINUOUS
 62
     3
100
AcDbLine
 10
1476.0
 20
887.0
 30
0.0
 11
1476.0
 21
1586.0
 31
0.0
  0
LINE
  5
4AD
100
AcDbEntity
  8
寸法
  6
CONTINUOUS
 62
     3
100
AcDbLine
 10
1468.5
 20
932.0
 30
0.0
 11
1476.0
 21
887.0
 31
0.0
  0
LINE
  5
4AE
100
AcDbEntity
  8
寸法
  6
CONTINUOUS
 62
     3
100
AcDbLine
 10
1476.0
 20
887.0
 30
0.0
 11
1483.5
 21
932.0
 31
0.0
  0
LINE
  5
4AF
100
AcDbEntity
  8
寸法
  6
CONTINUOUS
 62
     3
100
AcDbLine
 10
1483.5
 20
1541.0
 30
0.0
 11
1476.0
 21
1586.0
 31
0.0
  0
LINE
  5
4B0
100
AcDbEntity
  8
寸法
  6
CONTINUOUS
 62
     3
100
AcDbLine
 10
1476.0
 20
1586.0
 30
0.0
 11
1468.5
 21
1541.0
 31
0.0
  0
ENDBLK
  5
4B1
100
AcDbEntity
  8
0
100
AcDbBlockEnd
  0
BLOCK
  5
4B4
100
AcDbEntity
  8
0
100
AcDbBlockBegin
  2
*D19
 70
    65
 10
0.0
 20
0.0
 30
0.0
  3
*D19
  1

  0
LINE
  5
4B5
100
AcDbEntity
  8
寸法
  6
CONTINUOUS
 62
     3
100
AcDbLine
 10
1200.5
 20
1726.0
 30
0.0
 11
1581.0
 21
1726.0
 31
0.0
  0
TEXT
  5
4B6
100
AcDbEntity
  8
寸法
  6
CONTINUOUS
 62
     2
100
AcDbText
 10
1560.75
 20
1243.5
 30
0.0
 40
60.0
  1
839
 50
90.0
 41
0.84
  7
EXCADSTD
 72
     1
 11
1560.75
 21
1306.5
 31
0.0
100
AcDbText
  0
LINE
  5
4B7
100
AcDbEntity
  8
寸法
  6
CONTINUOUS
 62
     3
100
AcDbLine
 10
1566.0
 20
887.0
 30
0.0
 11
1566.0
 21
1726.0
 31
0.0
  0
LINE
  5
4B8
100
AcDbEntity
  8
寸法
  6
CONTINUOUS
 62
     3
100
AcDbLine
 10
1558.5
 20
932.0
 30
0.0
 11
1566.0
 21
887.0
 31
0.0
  0
LINE
  5
4B9
100
AcDbEntity
  8
寸法
  6
CONTINUOUS
 62
     3
100
AcDbLine
 10
1566.0
 20
887.0
 30
0.0
 11
1573.5
 21
932.0
 31
0.0
  0
LINE
  5
4BA
100
AcDbEntity
  8
寸法
  6
CONTINUOUS
 62
     3
100
AcDbLine
 10
1573.5
 20
1681.0
 30
0.0
 11
1566.0
 21
1726.0
 31
0.0
  0
LINE
  5
4BB
100
AcDbEntity
  8
寸法
  6
CONTINUOUS
 62
     3
100
AcDbLine
 10
1566.0
 20
1726.0
 30
0.0
 11
1558.5
 21
1681.0
 31
0.0
  0
ENDBLK
  5
4BC
100
AcDbEntity
  8
0
100
AcDbBlockEnd
  0
BLOCK
  5
4BF
100
AcDbEntity
  8
0
100
AcDbBlockBegin
  2
*D20
 70
    65
 10
0.0
 20
0.0
 30
0.0
  3
*D20
  1

  0
LINE
  5
4C0
100
AcDbEntity
  8
寸法
  6
CONTINUOUS
 62
     3
100
AcDbLine
 10
920.0
 20
876.5
 30
0.0
 11
920.0
 21
723.0
 31
0.0
  0
LINE
  5
4C1
100
AcDbEntity
  8
寸法
  6
CONTINUOUS
 62
     3
100
AcDbLine
 10
1160.0
 20
812.0
 30
0.0
 11
1160.0
 21
723.0
 31
0.0
  0
TEXT
  5
4C2
100
AcDbEntity
  8
寸法
  6
CONTINUOUS
 62
     2
100
AcDbText
 10
571.4
 20
743.25
 30
0.0
 40
60.0
  1
240（排水）
 41
0.84
  7
EXCADSTD
 72
     1
 11
710.0
 21
743.25
 31
0.0
100
AcDbText
  0
LINE
  5
4C3
100
AcDbEntity
  8
寸法
  6
CONTINUOUS
 62
     3
100
AcDbLine
 10
539.749994
 20
738.0
 30
0.0
 11
1205.0
 21
738.0
 31
0.0
  0
LINE
  5
4C4
100
AcDbEntity
  8
寸法
  6
CONTINUOUS
 62
     3
100
AcDbLine
 10
875.0
 20
730.5
 30
0.0
 11
920.0
 21
738.0
 31
0.0
  0
LINE
  5
4C5
100
AcDbEntity
  8
寸法
  6
CONTINUOUS
 62
     3
100
AcDbLine
 10
920.0
 20
738.0
 30
0.0
 11
875.0
 21
745.5
 31
0.0
  0
LINE
  5
4C6
100
AcDbEntity
  8
寸法
  6
CONTINUOUS
 62
     3
100
AcDbLine
 10
1205.0
 20
745.5
 30
0.0
 11
1160.0
 21
738.0
 31
0.0
  0
LINE
  5
4C7
100
AcDbEntity
  8
寸法
  6
CONTINUOUS
 62
     3
100
AcDbLine
 10
1160.0
 20
738.0
 30
0.0
 11
1205.0
 21
730.5
 31
0.0
  0
ENDBLK
  5
4C8
100
AcDbEntity
  8
0
100
AcDbBlockEnd
  0
BLOCK
  5
4CE
100
AcDbEntity
  8
0
100
AcDbBlockBegin
  2
*D21
 70
    65
 10
0.0
 20
0.0
 30
0.0
  3
*D21
  1

  0
LINE
  5
4CF
100
AcDbEntity
  8
寸法
  6
CONTINUOUS
 62
     3
100
AcDbLine
 10
2560.5
 20
887.0
 30
0.0
 11
2731.5
 21
887.0
 31
0.0
  0
LINE
  5
4D0
100
AcDbEntity
  8
寸法
  6
CONTINUOUS
 62
     3
100
AcDbLine
 10
2568.5
 20
1307.0
 30
0.0
 11
2731.5
 21
1307.0
 31
0.0
  0
TEXT
  5
4D1
100
AcDbEntity
  8
寸法
  6
CONTINUOUS
 62
     2
100
AcDbText
 10
2711.25
 20
958.4
 30
0.0
 40
60.0
  1
420（給水）
 50
90.0
 41
0.84
  7
EXCADSTD
 72
     1
 11
2711.25
 21
1097.0
 31
0.0
100
AcDbText
  0
LINE
  5
4D2
100
AcDbEntity
  8
寸法
  6
CONTINUOUS
 62
     3
100
AcDbLine
 10
2716.5
 20
887.0
 30
0.0
 11
2716.5
 21
1307.0
 31
0.0
  0
LINE
  5
4D3
100
AcDbEntity
  8
寸法
  6
CONTINUOUS
 62
     3
100
AcDbLine
 10
2709.0
 20
932.0
 30
0.0
 11
2716.5
 21
887.0
 31
0.0
  0
LINE
  5
4D4
100
AcDbEntity
  8
寸法
  6
CONTINUOUS
 62
     3
100
AcDbLine
 10
2716.5
 20
887.0
 30
0.0
 11
2724.0
 21
932.0
 31
0.0
  0
LINE
  5
4D5
100
AcDbEntity
  8
寸法
  6
CONTINUOUS
 62
     3
100
AcDbLine
 10
2724.0
 20
1262.0
 30
0.0
 11
2716.5
 21
1307.0
 31
0.0
  0
LINE
  5
4D6
100
AcDbEntity
  8
寸法
  6
CONTINUOUS
 62
     3
100
AcDbLine
 10
2716.5
 20
1307.0
 30
0.0
 11
2709.0
 21
1262.0
 31
0.0
  0
ENDBLK
  5
4D7
100
AcDbEntity
  8
0
100
AcDbBlockEnd
  0
BLOCK
  5
4DA
100
AcDbEntity
  8
0
100
AcDbBlockBegin
  2
*D22
 70
    65
 10
0.0
 20
0.0
 30
0.0
  3
*D22
  1

  0
LINE
  5
4DB
100
AcDbEntity
  8
寸法
  6
CONTINUOUS
 62
     3
100
AcDbLine
 10
2560.5
 20
887.0
 30
0.0
 11
2821.5
 21
887.0
 31
0.0
  0
LINE
  5
4DC
100
AcDbEntity
  8
寸法
  6
CONTINUOUS
 62
     3
100
AcDbLine
 10
2593.0
 20
1467.0
 30
0.0
 11
2821.5
 21
1467.0
 31
0.0
  0
TEXT
  5
4DD
100
AcDbEntity
  8
寸法
  6
CONTINUOUS
 62
     2
100
AcDbText
 10
2801.25
 20
1019.5
 30
0.0
 40
60.0
  1
580（壁固定）
 50
90.0
 41
0.84
  7
EXCADSTD
 72
     1
 11
2801.25
 21
1177.0
 31
0.0
100
AcDbText
  0
LINE
  5
4DE
100
AcDbEntity
  8
寸法
  6
CONTINUOUS
 62
     3
100
AcDbLine
 10
2806.5
 20
887.0
 30
0.0
 11
2806.5
 21
1467.0
 31
0.0
  0
LINE
  5
4DF
100
AcDbEntity
  8
寸法
  6
CONTINUOUS
 62
     3
100
AcDbLine
 10
2799.0
 20
932.0
 30
0.0
 11
2806.5
 21
887.0
 31
0.0
  0
LINE
  5
4E0
100
AcDbEntity
  8
寸法
  6
CONTINUOUS
 62
     3
100
AcDbLine
 10
2806.5
 20
887.0
 30
0.0
 11
2814.0
 21
932.0
 31
0.0
  0
LINE
  5
4E1
100
AcDbEntity
  8
寸法
  6
CONTINUOUS
 62
     3
100
AcDbLine
 10
2814.0
 20
1422.0
 30
0.0
 11
2806.5
 21
1467.0
 31
0.0
  0
LINE
  5
4E2
100
AcDbEntity
  8
寸法
  6
CONTINUOUS
 62
     3
100
AcDbLine
 10
2806.5
 20
1467.0
 30
0.0
 11
2799.0
 21
1422.0
 31
0.0
  0
ENDBLK
  5
4E3
100
AcDbEntity
  8
0
100
AcDbBlockEnd
  0
BLOCK
  5
4E6
100
AcDbEntity
  8
0
100
AcDbBlockBegin
  2
*D23
 70
    65
 10
0.0
 20
0.0
 30
0.0
  3
*D23
  1

  0
LINE
  5
4E7
100
AcDbEntity
  8
寸法
  6
CONTINUOUS
 62
     3
100
AcDbLine
 10
845.0
 20
4051.5
 30
0.0
 11
845.0
 21
4119.0
 31
0.0
  0
LINE
  5
4E8
100
AcDbEntity
  8
寸法
  6
CONTINUOUS
 62
     3
100
AcDbLine
 10
995.0
 20
4051.5
 30
0.0
 11
995.0
 21
4119.0
 31
0.0
  0
TEXT
  5
4E9
100
AcDbEntity
  8
寸法
  6
CONTINUOUS
 62
     2
100
AcDbText
 10
781.4
 20
4109.25
 30
0.0
 40
60.0
  1
150（給水）
 41
0.84
  7
EXCADSTD
 72
     1
 11
920.0
 21
4109.25
 31
0.0
100
AcDbText
  0
LINE
  5
4EA
100
AcDbEntity
  8
寸法
  6
CONTINUOUS
 62
     3
100
AcDbLine
 10
800.0
 20
4104.0
 30
0.0
 11
1040.0
 21
4104.0
 31
0.0
  0
LINE
  5
4EB
100
AcDbEntity
  8
寸法
  6
CONTINUOUS
 62
     3
100
AcDbLine
 10
800.0
 20
4096.5
 30
0.0
 11
845.0
 21
4104.0
 31
0.0
  0
LINE
  5
4EC
100
AcDbEntity
  8
寸法
  6
CONTINUOUS
 62
     3
100
AcDbLine
 10
845.0
 20
4104.0
 30
0.0
 11
800.0
 21
4111.5
 31
0.0
  0
LINE
  5
4ED
100
AcDbEntity
  8
寸法
  6
CONTINUOUS
 62
     3
100
AcDbLine
 10
1040.0
 20
4111.5
 30
0.0
 11
995.0
 21
4104.0
 31
0.0
  0
LINE
  5
4EE
100
AcDbEntity
  8
寸法
  6
CONTINUOUS
 62
     3
100
AcDbLine
 10
995.0
 20
4104.0
 30
0.0
 11
1040.0
 21
4096.5
 31
0.0
  0
ENDBLK
  5
4EF
100
AcDbEntity
  8
0
100
AcDbBlockEnd
  0
BLOCK
  5
4F2
100
AcDbEntity
  8
0
100
AcDbBlockBegin
  2
*D24
 70
    65
 10
0.0
 20
0.0
 30
0.0
  3
*D24
  1

  0
LINE
  5
4F3
100
AcDbEntity
  8
寸法
  6
CONTINUOUS
 62
     3
100
AcDbLine
 10
2450.0
 20
812.0
 30
0.0
 11
2450.0
 21
723.0
 31
0.0
  0
LINE
  5
4F4
100
AcDbEntity
  8
寸法
  6
CONTINUOUS
 62
     3
100
AcDbLine
 10
2550.0
 20
876.5
 30
0.0
 11
2550.0
 21
723.0
 31
0.0
  0
TEXT
  5
4F5
100
AcDbEntity
  8
寸法
  6
CONTINUOUS
 62
     2
100
AcDbText
 10
2621.4
 20
743.25
 30
0.0
 40
60.0
  1
100（排水）
 41
0.84
  7
EXCADSTD
 72
     1
 11
2760.0
 21
743.25
 31
0.0
100
AcDbText
  0
LINE
  5
4F6
100
AcDbEntity
  8
寸法
  6
CONTINUOUS
 62
     3
100
AcDbLine
 10
2405.0
 20
738.0
 30
0.0
 11
2930.250006
 21
738.0
 31
0.0
  0
LINE
  5
4F7
100
AcDbEntity
  8
寸法
  6
CONTINUOUS
 62
     3
100
AcDbLine
 10
2405.0
 20
730.5
 30
0.0
 11
2450.0
 21
738.0
 31
0.0
  0
LINE
  5
4F8
100
AcDbEntity
  8
寸法
  6
CONTINUOUS
 62
     3
100
AcDbLine
 10
2450.0
 20
738.0
 30
0.0
 11
2405.0
 21
745.5
 31
0.0
  0
LINE
  5
4F9
100
AcDbEntity
  8
寸法
  6
CONTINUOUS
 62
     3
100
AcDbLine
 10
2595.0
 20
745.5
 30
0.0
 11
2550.0
 21
738.0
 31
0.0
  0
LINE
  5
4FA
100
AcDbEntity
  8
寸法
  6
CONTINUOUS
 62
     3
100
AcDbLine
 10
2550.0
 20
738.0
 30
0.0
 11
2595.0
 21
730.5
 31
0.0
  0
ENDBLK
  5
4FB
100
AcDbEntity
  8
0
100
AcDbBlockEnd
  0
BLOCK
  5
4FE
100
AcDbEntity
  8
0
100
AcDbBlockBegin
  2
*D25
 70
    65
 10
0.0
 20
0.0
 30
0.0
  3
*D25
  1

  0
LINE
  5
4FF
100
AcDbEntity
  8
寸法
  6
CONTINUOUS
 62
     3
100
AcDbLine
 10
2125.0
 20
876.5
 30
0.0
 11
2125.0
 21
633.0
 31
0.0
  0
LINE
  5
500
100
AcDbEntity
  8
寸法
  6
CONTINUOUS
 62
     3
100
AcDbLine
 10
2550.0
 20
876.5
 30
0.0
 11
2550.0
 21
633.0
 31
0.0
  0
TEXT
  5
501
100
AcDbEntity
  8
寸法
  6
CONTINUOUS
 62
     2
100
AcDbText
 10
2274.5
 20
653.25
 30
0.0
 40
60.0
  1
425
 41
0.84
  7
EXCADSTD
 72
     1
 11
2337.5
 21
653.25
 31
0.0
100
AcDbText
  0
LINE
  5
502
100
AcDbEntity
  8
寸法
  6
CONTINUOUS
 62
     3
100
AcDbLine
 10
2125.0
 20
648.0
 30
0.0
 11
2550.0
 21
648.0
 31
0.0
  0
LINE
  5
503
100
AcDbEntity
  8
寸法
  6
CONTINUOUS
 62
     3
100
AcDbLine
 10
2170.0
 20
655.5
 30
0.0
 11
2125.0
 21
648.0
 31
0.0
  0
LINE
  5
504
100
AcDbEntity
  8
寸法
  6
CONTINUOUS
 62
     3
100
AcDbLine
 10
2125.0
 20
648.0
 30
0.0
 11
2170.0
 21
640.5
 31
0.0
  0
LINE
  5
505
100
AcDbEntity
  8
寸法
  6
CONTINUOUS
 62
     3
100
AcDbLine
 10
2505.0
 20
640.5
 30
0.0
 11
2550.0
 21
648.0
 31
0.0
  0
LINE
  5
506
100
AcDbEntity
  8
寸法
  6
CONTINUOUS
 62
     3
100
AcDbLine
 10
2550.0
 20
648.0
 30
0.0
 11
2505.0
 21
655.5
 31
0.0
  0
ENDBLK
  5
507
100
AcDbEntity
  8
0
100
AcDbBlockEnd
  0
BLOCK
  5
50A
100
AcDbEntity
  8
0
100
AcDbBlockBegin
  2
*D26
 70
    65
 10
0.0
 20
0.0
 30
0.0
  3
*D26
  1

  0
LINE
  5
50B
100
AcDbEntity
  8
寸法
  6
CONTINUOUS
 62
     3
100
AcDbLine
 10
590.0
 20
4076.0
 30
0.0
 11
590.0
 21
4209.0
 31
0.0
  0
LINE
  5
50C
100
AcDbEntity
  8
寸法
  6
CONTINUOUS
 62
     3
100
AcDbLine
 10
1250.0
 20
4076.0
 30
0.0
 11
1250.0
 21
4209.0
 31
0.0
  0
TEXT
  5
50D
100
AcDbEntity
  8
寸法
  6
CONTINUOUS
 62
     2
100
AcDbText
 10
762.5
 20
4199.25
 30
0.0
 40
60.0
  1
660（壁固定）
 41
0.84
  7
EXCADSTD
 72
     1
 11
920.0
 21
4199.25
 31
0.0
100
AcDbText
  0
LINE
  5
50E
100
AcDbEntity
  8
寸法
  6
CONTINUOUS
 62
     3
100
AcDbLine
 10
590.0
 20
4194.0
 30
0.0
 11
1250.0
 21
4194.0
 31
0.0
  0
LINE
  5
50F
100
AcDbEntity
  8
寸法
  6
CONTINUOUS
 62
     3
100
AcDbLine
 10
635.0
 20
4201.5
 30
0.0
 11
590.0
 21
4194.0
 31
0.0
  0
LINE
  5
510
100
AcDbEntity
  8
寸法
  6
CONTINUOUS
 62
     3
100
AcDbLine
 10
590.0
 20
4194.0
 30
0.0
 11
635.0
 21
4186.5
 31
0.0
  0
LINE
  5
511
100
AcDbEntity
  8
寸法
  6
CONTINUOUS
 62
     3
100
AcDbLine
 10
1205.0
 20
4186.5
 30
0.0
 11
1250.0
 21
4194.0
 31
0.0
  0
LINE
  5
512
100
AcDbEntity
  8
寸法
  6
CONTINUOUS
 62
     3
100
AcDbLine
 10
1250.0
 20
4194.0
 30
0.0
 11
1205.0
 21
4201.5
 31
0.0
  0
ENDBLK
  5
513
100
AcDbEntity
  8
0
100
AcDbBlockEnd
  0
BLOCK
  5
51E
100
AcDbEntity
  8
0
100
AcDbBlockBegin
  2
*D27
 70
    65
 10
0.0
 20
0.0
 30
0.0
  3
*D27
  1

  0
LINE
  5
51F
100
AcDbEntity
  8
寸法
  6
CONTINUOUS
 62
     3
100
AcDbLine
 10
545.0
 20
2797.5
 30
0.0
 11
545.0
 21
3058.5
 31
0.0
  0
LINE
  5
520
100
AcDbEntity
  8
寸法
  6
CONTINUOUS
 62
     3
100
AcDbLine
 10
1295.0
 20
2797.5
 30
0.0
 11
1295.0
 21
3058.5
 31
0.0
  0
TEXT
  5
521
100
AcDbEntity
  8
寸法
  6
CONTINUOUS
 62
     2
100
AcDbText
 10
857.0
 20
3048.75
 30
0.0
 40
60.0
  1
750
 41
0.84
  7
EXCADSTD
 72
     1
 11
920.0
 21
3048.75
 31
0.0
100
AcDbText
  0
LINE
  5
522
100
AcDbEntity
  8
寸法
  6
CONTINUOUS
 62
     3
100
AcDbLine
 10
545.0
 20
3043.5
 30
0.0
 11
1295.0
 21
3043.5
 31
0.0
  0
LINE
  5
523
100
AcDbEntity
  8
寸法
  6
CONTINUOUS
 62
     3
100
AcDbLine
 10
590.0
 20
3051.0
 30
0.0
 11
545.0
 21
3043.5
 31
0.0
  0
LINE
  5
524
100
AcDbEntity
  8
寸法
  6
CONTINUOUS
 62
     3
100
AcDbLine
 10
545.0
 20
3043.5
 30
0.0
 11
590.0
 21
3036.0
 31
0.0
  0
LINE
  5
525
100
AcDbEntity
  8
寸法
  6
CONTINUOUS
 62
     3
100
AcDbLine
 10
1250.0
 20
3036.0
 30
0.0
 11
1295.0
 21
3043.5
 31
0.0
  0
LINE
  5
526
100
AcDbEntity
  8
寸法
  6
CONTINUOUS
 62
     3
100
AcDbLine
 10
1295.0
 20
3043.5
 30
0.0
 11
1250.0
 21
3051.0
 31
0.0
  0
ENDBLK
  5
527
100
AcDbEntity
  8
0
100
AcDbBlockEnd
  0
BLOCK
  5
52A
100
AcDbEntity
  8
0
100
AcDbBlockBegin
  2
*D28
 70
    65
 10
0.0
 20
0.0
 30
0.0
  3
*D28
  1

  0
LINE
  5
52B
100
AcDbEntity
  8
寸法
  6
CONTINUOUS
 62
     3
100
AcDbLine
 10
1305.5
 20
2787.0
 30
0.0
 11
1677.0
 21
2787.0
 31
0.0
  0
LINE
  5
52C
100
AcDbEntity
  8
寸法
  6
CONTINUOUS
 62
     3
100
AcDbLine
 10
1305.5
 20
1987.0
 30
0.0
 11
1677.0
 21
1987.0
 31
0.0
  0
TEXT
  5
52D
100
AcDbEntity
  8
寸法
  6
CONTINUOUS
 62
     2
100
AcDbText
 10
1656.75
 20
2324.0
 30
0.0
 40
60.0
  1
800
 50
90.0
 41
0.84
  7
EXCADSTD
 72
     1
 11
1656.75
 21
2387.0
 31
0.0
100
AcDbText
  0
LINE
  5
52E
100
AcDbEntity
  8
寸法
  6
CONTINUOUS
 62
     3
100
AcDbLine
 10
1662.0
 20
2787.0
 30
0.0
 11
1662.0
 21
1987.0
 31
0.0
  0
LINE
  5
52F
100
AcDbEntity
  8
寸法
  6
CONTINUOUS
 62
     3
100
AcDbLine
 10
1669.5
 20
2742.0
 30
0.0
 11
1662.0
 21
2787.0
 31
0.0
  0
LINE
  5
530
100
AcDbEntity
  8
寸法
  6
CONTINUOUS
 62
     3
100
AcDbLine
 10
1662.0
 20
2787.0
 30
0.0
 11
1654.5
 21
2742.0
 31
0.0
  0
LINE
  5
531
100
AcDbEntity
  8
寸法
  6
CONTINUOUS
 62
     3
100
AcDbLine
 10
1654.5
 20
2032.0
 30
0.0
 11
1662.0
 21
1987.0
 31
0.0
  0
LINE
  5
532
100
AcDbEntity
  8
寸法
  6
CONTINUOUS
 62
     3
100
AcDbLine
 10
1662.0
 20
1987.0
 30
0.0
 11
1669.5
 21
2032.0
 31
0.0
  0
ENDBLK
  5
533
100
AcDbEntity
  8
0
100
AcDbBlockEnd
  0
BLOCK
  5
536
100
AcDbEntity
  8
0
100
AcDbBlockBegin
  2
*D29
 70
    65
 10
0.0
 20
0.0
 30
0.0
  3
*D29
  1

  0
LINE
  5
537
100
AcDbEntity
  8
寸法
  6
CONTINUOUS
 62
     3
100
AcDbLine
 10
1305.5
 20
1987.0
 30
0.0
 11
1677.0
 21
1987.0
 31
0.0
  0
TEXT
  5
538
100
AcDbEntity
  8
寸法
  6
CONTINUOUS
 62
     2
100
AcDbText
 10
1656.75
 20
1355.1
 30
0.0
 40
60.0
  1
1100
 50
90.0
 41
0.84
  7
EXCADSTD
 72
     1
 11
1656.75
 21
1437.0
 31
0.0
100
AcDbText
  0
LINE
  5
539
100
AcDbEntity
  8
寸法
  6
CONTINUOUS
 62
     3
100
AcDbLine
 10
1662.0
 20
887.0
 30
0.0
 11
1662.0
 21
1987.0
 31
0.0
  0
LINE
  5
53A
100
AcDbEntity
  8
寸法
  6
CONTINUOUS
 62
     3
100
AcDbLine
 10
1654.5
 20
932.0
 30
0.0
 11
1662.0
 21
887.0
 31
0.0
  0
LINE
  5
53B
100
AcDbEntity
  8
寸法
  6
CONTINUOUS
 62
     3
100
AcDbLine
 10
1662.0
 20
887.0
 30
0.0
 11
1669.5
 21
932.0
 31
0.0
  0
LINE
  5
53C
100
AcDbEntity
  8
寸法
  6
CONTINUOUS
 62
     3
100
AcDbLine
 10
1669.5
 20
1942.0
 30
0.0
 11
1662.0
 21
1987.0
 31
0.0
  0
LINE
  5
53D
100
AcDbEntity
  8
寸法
  6
CONTINUOUS
 62
     3
100
AcDbLine
 10
1662.0
 20
1987.0
 30
0.0
 11
1654.5
 21
1942.0
 31
0.0
  0
ENDBLK
  5
53E
100
AcDbEntity
  8
0
100
AcDbBlockEnd
  0
BLOCK
  5
541
100
AcDbEntity
  8
0
100
AcDbBlockBegin
  2
*D30
 70
    65
 10
0.0
 20
0.0
 30
0.0
  3
*D30
  1

  0
LINE
  5
542
100
AcDbEntity
  8
寸法
  6
CONTINUOUS
 62
     3
100
AcDbLine
 10
1305.5
 20
2787.0
 30
0.0
 11
1767.0
 21
2787.0
 31
0.0
  0
TEXT
  5
543
100
AcDbEntity
  8
寸法
  6
CONTINUOUS
 62
     2
100
AcDbText
 10
1746.75
 20
1755.1
 30
0.0
 40
60.0
  1
1900
 50
90.0
 41
0.84
  7
EXCADSTD
 72
     1
 11
1746.75
 21
1837.0
 31
0.0
100
AcDbText
  0
LINE
  5
544
100
AcDbEntity
  8
寸法
  6
CONTINUOUS
 62
     3
100
AcDbLine
 10
1752.0
 20
887.0
 30
0.0
 11
1752.0
 21
2787.0
 31
0.0
  0
LINE
  5
545
100
AcDbEntity
  8
寸法
  6
CONTINUOUS
 62
     3
100
AcDbLine
 10
1744.5
 20
932.0
 30
0.0
 11
1752.0
 21
887.0
 31
0.0
  0
LINE
  5
546
100
AcDbEntity
  8
寸法
  6
CONTINUOUS
 62
     3
100
AcDbLine
 10
1752.0
 20
887.0
 30
0.0
 11
1759.5
 21
932.0
 31
0.0
  0
LINE
  5
547
100
AcDbEntity
  8
寸法
  6
CONTINUOUS
 62
     3
100
AcDbLine
 10
1759.5
 20
2742.0
 30
0.0
 11
1752.0
 21
2787.0
 31
0.0
  0
LINE
  5
548
100
AcDbEntity
  8
寸法
  6
CONTINUOUS
 62
     3
100
AcDbLine
 10
1752.0
 20
2787.0
 30
0.0
 11
1744.5
 21
2742.0
 31
0.0
  0
ENDBLK
  5
549
100
AcDbEntity
  8
0
100
AcDbBlockEnd
  0
BLOCK
  5
54C
100
AcDbEntity
  8
0
100
AcDbBlockBegin
  2
*D31
 70
    65
 10
0.0
 20
0.0
 30
0.0
  3
*D31
  1

  0
LINE
  5
54D
100
AcDbEntity
  8
寸法
  6
CONTINUOUS
 62
     3
100
AcDbLine
 10
645.0
 20
2745.5
 30
0.0
 11
645.0
 21
2968.5
 31
0.0
  0
LINE
  5
54E
100
AcDbEntity
  8
寸法
  6
CONTINUOUS
 62
     3
100
AcDbLine
 10
1195.0
 20
2745.5
 30
0.0
 11
1195.0
 21
2968.5
 31
0.0
  0
TEXT
  5
54F
100
AcDbEntity
  8
寸法
  6
CONTINUOUS
 62
     2
100
AcDbText
 10
857.0
 20
2958.75
 30
0.0
 40
60.0
  1
550
 41
0.84
  7
EXCADSTD
 72
     1
 11
920.0
 21
2958.75
 31
0.0
100
AcDbText
  0
LINE
  5
550
100
AcDbEntity
  8
寸法
  6
CONTINUOUS
 62
     3
100
AcDbLine
 10
645.0
 20
2953.5
 30
0.0
 11
1195.0
 21
2953.5
 31
0.0
  0
LINE
  5
551
100
AcDbEntity
  8
寸法
  6
CONTINUOUS
 62
     3
100
AcDbLine
 10
690.0
 20
2961.0
 30
0.0
 11
645.0
 21
2953.5
 31
0.0
  0
LINE
  5
552
100
AcDbEntity
  8
寸法
  6
CONTINUOUS
 62
     3
100
AcDbLine
 10
645.0
 20
2953.5
 30
0.0
 11
690.0
 21
2946.0
 31
0.0
  0
LINE
  5
553
100
AcDbEntity
  8
寸法
  6
CONTINUOUS
 62
     3
100
AcDbLine
 10
1150.0
 20
2946.0
 30
0.0
 11
1195.0
 21
2953.5
 31
0.0
  0
LINE
  5
554
100
AcDbEntity
  8
寸法
  6
CONTINUOUS
 62
     3
100
AcDbLine
 10
1195.0
 20
2953.5
 30
0.0
 11
1150.0
 21
2961.0
 31
0.0
  0
ENDBLK
  5
555
100
AcDbEntity
  8
0
100
AcDbBlockEnd
  0
BLOCK
  5
558
100
AcDbEntity
  8
0
100
AcDbBlockBegin
  2
*D32
 70
    65
 10
0.0
 20
0.0
 30
0.0
  3
*D32
  1

  0
LINE
  5
559
100
AcDbEntity
  8
寸法
  6
CONTINUOUS
 62
     3
100
AcDbLine
 10
695.0
 20
1998.5
 30
0.0
 11
695.0
 21
1878.9
 31
0.0
  0
LINE
  5
55A
100
AcDbEntity
  8
寸法
  6
CONTINUOUS
 62
     3
100
AcDbLine
 10
1145.0
 20
1998.5
 30
0.0
 11
1145.0
 21
1878.9
 31
0.0
  0
TEXT
  5
55B
100
AcDbEntity
  8
寸法
  6
CONTINUOUS
 62
     2
100
AcDbText
 10
857.0
 20
1899.15
 30
0.0
 40
60.0
  1
450
 41
0.84
  7
EXCADSTD
 72
     1
 11
920.0
 21
1899.15
 31
0.0
100
AcDbText
  0
LINE
  5
55C
100
AcDbEntity
  8
寸法
  6
CONTINUOUS
 62
     3
100
AcDbLine
 10
695.0
 20
1893.9
 30
0.0
 11
1145.0
 21
1893.9
 31
0.0
  0
LINE
  5
55D
100
AcDbEntity
  8
寸法
  6
CONTINUOUS
 62
     3
100
AcDbLine
 10
740.0
 20
1901.4
 30
0.0
 11
695.0
 21
1893.9
 31
0.0
  0
LINE
  5
55E
100
AcDbEntity
  8
寸法
  6
CONTINUOUS
 62
     3
100
AcDbLine
 10
695.0
 20
1893.9
 30
0.0
 11
740.0
 21
1886.4
 31
0.0
  0
LINE
  5
55F
100
AcDbEntity
  8
寸法
  6
CONTINUOUS
 62
     3
100
AcDbLine
 10
1100.0
 20
1886.4
 30
0.0
 11
1145.0
 21
1893.9
 31
0.0
  0
LINE
  5
560
100
AcDbEntity
  8
寸法
  6
CONTINUOUS
 62
     3
100
AcDbLine
 10
1145.0
 20
1893.9
 30
0.0
 11
1100.0
 21
1901.4
 31
0.0
  0
ENDBLK
  5
561
100
AcDbEntity
  8
0
100
AcDbBlockEnd
  0
BLOCK
  5
564
100
AcDbEntity
  8
0
100
AcDbBlockBegin
  2
*D33
 70
    65
 10
0.0
 20
0.0
 30
0.0
  3
*D33
  1

  0
LINE
  5
565
100
AcDbEntity
  8
寸法
  6
CONTINUOUS
 62
     3
100
AcDbLine
 10
1105.0
 20
2810.576697
 30
0.0
 11
1105.0
 21
2878.5
 31
0.0
  0
LINE
  5
566
100
AcDbEntity
  8
寸法
  6
CONTINUOUS
 62
     3
100
AcDbLine
 10
1295.0
 20
2797.5
 30
0.0
 11
1295.0
 21
2878.5
 31
0.0
  0
TEXT
  5
567
100
AcDbEntity
  8
寸法
  6
CONTINUOUS
 62
     2
100
AcDbText
 10
1352.0
 20
2868.75
 30
0.0
 40
60.0
  1
190
 41
0.84
  7
EXCADSTD
 72
     1
 11
1415.0
 21
2868.75
 31
0.0
100
AcDbText
  0
LINE
  5
568
100
AcDbEntity
  8
寸法
  6
CONTINUOUS
 62
     3
100
AcDbLine
 10
1060.0
 20
2863.5
 30
0.0
 11
1495.250006
 21
2863.5
 31
0.0
  0
LINE
  5
569
100
AcDbEntity
  8
寸法
  6
CONTINUOUS
 62
     3
100
AcDbLine
 10
1060.0
 20
2856.0
 30
0.0
 11
1105.0
 21
2863.5
 31
0.0
  0
LINE
  5
56A
100
AcDbEntity
  8
寸法
  6
CONTINUOUS
 62
     3
100
AcDbLine
 10
1105.0
 20
2863.5
 30
0.0
 11
1060.0
 21
2871.0
 31
0.0
  0
LINE
  5
56B
100
AcDbEntity
  8
寸法
  6
CONTINUOUS
 62
     3
100
AcDbLine
 10
1340.0
 20
2871.0
 30
0.0
 11
1295.0
 21
2863.5
 31
0.0
  0
LINE
  5
56C
100
AcDbEntity
  8
寸法
  6
CONTINUOUS
 62
     3
100
AcDbLine
 10
1295.0
 20
2863.5
 30
0.0
 11
1340.0
 21
2856.0
 31
0.0
  0
ENDBLK
  5
56D
100
AcDbEntity
  8
0
100
AcDbBlockEnd
  0
BLOCK
  5
572
100
AcDbEntity
  8
0
100
AcDbBlockBegin
  2
*D34
 70
    65
 10
0.0
 20
0.0
 30
0.0
  3
*D34
  1

  0
LINE
  5
573
100
AcDbEntity
  8
寸法
  6
CONTINUOUS
 62
     3
100
AcDbLine
 10
2430.0
 20
2797.5
 30
0.0
 11
2430.0
 21
2878.5
 31
0.0
  0
TEXT
  5
574
100
AcDbEntity
  8
寸法
  6
CONTINUOUS
 62
     2
100
AcDbText
 10
2427.0
 20
2868.75
 30
0.0
 40
60.0
  1
120
 41
0.84
  7
EXCADSTD
 72
     1
 11
2490.0
 21
2868.75
 31
0.0
100
AcDbText
  0
LINE
  5
575
100
AcDbEntity
  8
寸法
  6
CONTINUOUS
 62
     3
100
AcDbLine
 10
2385.0
 20
2863.5
 30
0.0
 11
2595.0
 21
2863.5
 31
0.0
  0
LINE
  5
576
100
AcDbEntity
  8
寸法
  6
CONTINUOUS
 62
     3
100
AcDbLine
 10
2385.0
 20
2856.0
 30
0.0
 11
2430.0
 21
2863.5
 31
0.0
  0
LINE
  5
577
100
AcDbEntity
  8
寸法
  6
CONTINUOUS
 62
     3
100
AcDbLine
 10
2430.0
 20
2863.5
 30
0.0
 11
2385.0
 21
2871.0
 31
0.0
  0
LINE
  5
578
100
AcDbEntity
  8
寸法
  6
CONTINUOUS
 62
     3
100
AcDbLine
 10
2595.0
 20
2871.0
 30
0.0
 11
2550.0
 21
2863.5
 31
0.0
  0
LINE
  5
579
100
AcDbEntity
  8
寸法
  6
CONTINUOUS
 62
     3
100
AcDbLine
 10
2550.0
 20
2863.5
 30
0.0
 11
2595.0
 21
2856.0
 31
0.0
  0
ENDBLK
  5
57A
100
AcDbEntity
  8
0
100
AcDbBlockEnd
  0
BLOCK
  5
57D
100
AcDbEntity
  8
0
100
AcDbBlockBegin
  2
*D35
 70
    65
 10
0.0
 20
0.0
 30
0.0
  3
*D35
  1

  0
LINE
  5
57E
100
AcDbEntity
  8
寸法
  6
CONTINUOUS
 62
     3
100
AcDbLine
 10
2902.5
 20
887.0
 30
0.0
 11
2902.5
 21
2017.0
 31
0.0
  0
LINE
  5
57F
100
AcDbEntity
  8
寸法
  6
CONTINUOUS
 62
     3
100
AcDbLine
 10
2895.0
 20
932.0
 30
0.0
 11
2902.5
 21
887.0
 31
0.0
  0
LINE
  5
580
100
AcDbEntity
  8
寸法
  6
CONTINUOUS
 62
     3
100
AcDbLine
 10
2902.5
 20
887.0
 30
0.0
 11
2910.0
 21
932.0
 31
0.0
  0
LINE
  5
581
100
AcDbEntity
  8
寸法
  6
CONTINUOUS
 62
     3
100
AcDbLine
 10
2910.0
 20
1972.0
 30
0.0
 11
2902.5
 21
2017.0
 31
0.0
  0
LINE
  5
582
100
AcDbEntity
  8
寸法
  6
CONTINUOUS
 62
     3
100
AcDbLine
 10
2902.5
 20
2017.0
 30
0.0
 11
2895.0
 21
1972.0
 31
0.0
  0
TEXT
  5
583
100
AcDbEntity
  8
寸法
  6
CONTINUOUS
 62
     2
100
AcDbText
 10
2897.25
 20
1370.1
 30
0.0
 40
60.0
  1
1130
 50
90.0
 41
0.84
  7
EXCADSTD
 72
     1
 11
2897.25
 21
1452.0
 31
0.0
100
AcDbText
  0
LINE
  5
584
100
AcDbEntity
  8
寸法
  6
CONTINUOUS
 62
     3
100
AcDbLine
 10
2560.5
 20
887.0
 30
0.0
 11
2917.5
 21
887.0
 31
0.0
  0
LINE
  5
585
100
AcDbEntity
  8
寸法
  6
CONTINUOUS
 62
     3
100
AcDbLine
 10
2593.0
 20
2017.0
 30
0.0
 11
2917.5
 21
2017.0
 31
0.0
  0
ENDBLK
  5
586
100
AcDbEntity
  8
0
100
AcDbBlockEnd
  0
BLOCK
  5
589
100
AcDbEntity
  8
0
100
AcDbBlockBegin
  2
*D36
 70
    65
 10
0.0
 20
0.0
 30
0.0
  3
*D36
  1

  0
LINE
  5
58A
100
AcDbEntity
  8
寸法
  6
CONTINUOUS
 62
     3
100
AcDbLine
 10
2902.5
 20
2017.0
 30
0.0
 11
2902.5
 21
2727.0
 31
0.0
  0
LINE
  5
58B
100
AcDbEntity
  8
寸法
  6
CONTINUOUS
 62
     3
100
AcDbLine
 10
2895.0
 20
2062.0
 30
0.0
 11
2902.5
 21
2017.0
 31
0.0
  0
LINE
  5
58C
100
AcDbEntity
  8
寸法
  6
CONTINUOUS
 62
     3
100
AcDbLine
 10
2902.5
 20
2017.0
 30
0.0
 11
2910.0
 21
2062.0
 31
0.0
  0
LINE
  5
58D
100
AcDbEntity
  8
寸法
  6
CONTINUOUS
 62
     3
100
AcDbLine
 10
2910.0
 20
2682.0
 30
0.0
 11
2902.5
 21
2727.0
 31
0.0
  0
LINE
  5
58E
100
AcDbEntity
  8
寸法
  6
CONTINUOUS
 62
     3
100
AcDbLine
 10
2902.5
 20
2727.0
 30
0.0
 11
2895.0
 21
2682.0
 31
0.0
  0
TEXT
  5
58F
100
AcDbEntity
  8
寸法
  6
CONTINUOUS
 62
     2
100
AcDbText
 10
2897.25
 20
2239.7
 30
0.0
 40
60.0
  1
710(壁固定)
 50
90.0
 41
0.84
  7
EXCADSTD
 72
     1
 11
2897.25
 21
2372.0
 31
0.0
100
AcDbText
  0
LINE
  5
590
100
AcDbEntity
  8
寸法
  6
CONTINUOUS
 62
     3
100
AcDbLine
 10
2593.0
 20
2017.0
 30
0.0
 11
2917.5
 21
2017.0
 31
0.0
  0
LINE
  5
591
100
AcDbEntity
  8
寸法
  6
CONTINUOUS
 62
     3
100
AcDbLine
 10
2593.0
 20
2727.0
 30
0.0
 11
2917.5
 21
2727.0
 31
0.0
  0
ENDBLK
  5
592
100
AcDbEntity
  8
0
100
AcDbBlockEnd
  0
ENDSEC
  0
SECTION
  2
ENTITIES
  0
LINE
  5
86
100
AcDbEntity
  8
枠・表
  6
CONTINUOUS
 62
     7
100
AcDbLine
 10
180.0
 20
135.0
 30
0.0
 11
2000.0
 21
135.0
 31
0.0
  0
LINE
  5
87
100
AcDbEntity
  8
枠・表
  6
CONTINUOUS
 62
     7
100
AcDbLine
 10
2000.0
 20
135.0
 30
0.0
 11
2000.0
 21
2885.0
 31
0.0
  0
LINE
  5
88
100
AcDbEntity
  8
枠・表
  6
CONTINUOUS
 62
     7
100
AcDbLine
 10
180.0
 20
135.0
 30
0.0
 11
180.0
 21
2885.0
 31
0.0
  0
LINE
  5
89
100
AcDbEntity
  8
枠・表
  6
CONTINUOUS
 62
     7
100
AcDbLine
 10
180.0
 20
2885.0
 30
0.0
 11
2000.0
 21
2885.0
 31
0.0
  0
LINE
  5
8A
100
AcDbEntity
  8
枠・表
  6
CONTINUOUS
 62
     7
100
AcDbLine
 10
180.0
 20
355.0
 30
0.0
 11
2000.0
 21
355.0
 31
0.0
  0
LINE
  5
8B
100
AcDbEntity
  8
枠・表
  6
CONTINUOUS
 62
     6
100
AcDbLine
 10
2000.0
 20
235.0
 30
0.0
 11
750.0
 21
235.0
 31
0.0
  0
LINE
  5
8C
100
AcDbEntity
  8
枠・表
  6
CONTINUOUS
 62
     6
100
AcDbLine
 10
1860.0
 20
355.0
 30
0.0
 11
1860.0
 21
235.0
 31
0.0
  0
LINE
  5
8D
100
AcDbEntity
  8
枠・表
  6
CONTINUOUS
 62
     6
100
AcDbLine
 10
1810.0
 20
355.0
 30
0.0
 11
1810.0
 21
235.0
 31
0.0
  0
LINE
  5
8E
100
AcDbEntity
  8
枠・表
  6
CONTINUOUS
 62
     6
100
AcDbLine
 10
1440.0
 20
355.0
 30
0.0
 11
1440.0
 21
135.0
 31
0.0
  0
LINE
  5
8F
100
AcDbEntity
  8
枠・表
  6
CONTINUOUS
 62
     6
100
AcDbLine
 10
1390.0
 20
355.0
 30
0.0
 11
1390.0
 21
135.0
 31
0.0
  0
LINE
  5
90
100
AcDbEntity
  8
枠・表
  6
CONTINUOUS
 62
     6
100
AcDbLine
 10
800.0
 20
355.0
 30
0.0
 11
800.0
 21
235.0
 31
0.0
  0
LINE
  5
91
100
AcDbEntity
  8
枠・表
  6
CONTINUOUS
 62
     6
100
AcDbLine
 10
750.0
 20
355.0
 30
0.0
 11
750.0
 21
135.0
 31
0.0
  0
LINE
  5
92
100
AcDbEntity
  8
枠・表
  6
CONTINUOUS
 62
     6
100
AcDbLine
 10
620.0
 20
355.0
 30
0.0
 11
620.0
 21
135.0
 31
0.0
  0
LINE
  5
93
100
AcDbEntity
  8
枠・表
  6
CONTINUOUS
 62
     6
100
AcDbLine
 10
490.0
 20
355.0
 30
0.0
 11
490.0
 21
135.0
 31
0.0
  0
LINE
  5
94
100
AcDbEntity
  8
枠・表
  6
CONTINUOUS
 62
     6
100
AcDbLine
 10
335.0
 20
355.0
 30
0.0
 11
335.0
 21
135.0
 31
0.0
  0
LINE
  5
95
100
AcDbEntity
  8
枠・表
  6
CONTINUOUS
 62
     6
100
AcDbLine
 10
180.0
 20
305.0
 30
0.0
 11
750.0
 21
305.0
 31
0.0
  0
LINE
  5
96
100
AcDbEntity
  8
枠・表
  6
CONTINUOUS
 62
     6
100
AcDbLine
 10
1892.653809
 20
258.00293
 30
0.0
 11
1969.993897
 21
336.699829
 31
0.0
  0
LINE
  5
97
100
AcDbEntity
  8
枠・表
  6
CONTINUOUS
 62
     6
100
AcDbLine
 10
1250.0
 20
2835.0
 30
0.0
 11
1950.0
 21
2835.0
 31
0.0
  0
LINE
  5
98
100
AcDbEntity
  8
枠・表
  6
CONTINUOUS
 62
     6
100
AcDbLine
 10
1250.0
 20
2780.0
 30
0.0
 11
1950.0
 21
2780.0
 31
0.0
  0
LINE
  5
99
100
AcDbEntity
  8
枠・表
  6
CONTINUOUS
 62
     6
100
AcDbLine
 10
1250.0
 20
2725.0
 30
0.0
 11
1950.0
 21
2725.0
 31
0.0
  0
LINE
  5
9A
100
AcDbEntity
  8
枠・表
  6
CONTINUOUS
 62
     6
100
AcDbLine
 10
1250.0
 20
2670.0
 30
0.0
 11
1950.0
 21
2670.0
 31
0.0
  0
LINE
  5
9B
100
AcDbEntity
  8
枠・表
  6
CONTINUOUS
 62
     6
100
AcDbLine
 10
1250.0
 20
2615.0
 30
0.0
 11
1950.0
 21
2615.0
 31
0.0
  0
TEXT
  5
9C
100
AcDbEntity
  8
枠・表
  6
CONTINUOUS
 62
     2
100
AcDbText
 10
1890.537109
 20
302.722778
 30
0.0
 40
30.0
  1
１
 41
0.826
  7
EXCADSTD
 72
     5
 11
1914.13711
 21
302.722778
 31
0.0
100
AcDbText
  0
TEXT
  5
9D
100
AcDbEntity
  8
枠・表
  6
CONTINUOUS
 62
     2
100
AcDbText
 10
1931.279297
 20
258.348846
 30
0.0
 40
30.0
  1
１５
 41
0.791
  7
EXCADSTD
 72
     5
 11
1983.067198
 21
258.348846
 31
0.0
100
AcDbText
  0
TEXT
  5
9E
100
AcDbEntity
  8
枠・表
  6
CONTINUOUS
 62
     2
100
AcDbText
 10
202.5
 20
308.75
 30
0.0
 40
42.5
  1
製図
 41
1.087059
  7
EXCADSTD
 72
     5
 11
303.326
 21
308.75
 31
0.0
100
AcDbText
  0
TEXT
  5
9F
100
AcDbEntity
  8
枠・表
  6
CONTINUOUS
 62
     2
100
AcDbText
 10
357.5
 20
308.75
 30
0.0
 40
42.5
  1
写図
 41
1.087059
  7
EXCADSTD
 72
     5
 11
458.326
 21
308.75
 31
0.0
100
AcDbText
  0
TEXT
  5
A0
100
AcDbEntity
  8
枠・表
  6
CONTINUOUS
 62
     2
100
AcDbText
 10
507.5
 20
308.75
 30
0.0
 40
42.5
  1
検図
 41
0.938824
  7
EXCADSTD
 72
     5
 11
594.577
 21
308.75
 31
0.0
100
AcDbText
  0
TEXT
  5
A1
100
AcDbEntity
  8
枠・表
  6
CONTINUOUS
 62
     2
100
AcDbText
 10
637.5
 20
308.75
 30
0.0
 40
42.5
  1
承認
 41
0.938824
  7
EXCADSTD
 72
     5
 11
724.577
 21
308.75
 31
0.0
100
AcDbText
  0
TEXT
  5
A2
100
AcDbEntity
  8
枠・表
  6
CONTINUOUS
 62
     2
100
AcDbText
 10
755.75
 20
298.75
 30
0.0
 40
42.5
  1
品
 41
0.84
  7
EXCADSTD
 72
     5
 11
789.75
 21
298.75
 31
0.0
100
AcDbText
  0
TEXT
  5
A3
100
AcDbEntity
  8
枠・表
  6
CONTINUOUS
 62
     2
100
AcDbText
 10
755.75
 20
248.75
 30
0.0
 40
42.5
  1
名
 41
0.84
  7
EXCADSTD
 72
     5
 11
789.75
 21
248.75
 31
0.0
100
AcDbText
  0
TEXT
  5
A4
100
AcDbEntity
  8
枠・表
  6
CONTINUOUS
 62
     2
100
AcDbText
 10
1395.75
 20
298.75
 30
0.0
 40
42.5
  1
品
 41
0.84
  7
EXCADSTD
 72
     5
 11
1429.75
 21
298.75
 31
0.0
100
AcDbText
  0
TEXT
  5
A5
100
AcDbEntity
  8
枠・表
  6
CONTINUOUS
 62
     2
100
AcDbText
 10
1395.75
 20
248.75
 30
0.0
 40
42.5
  1
番
 41
0.84
  7
EXCADSTD
 72
     5
 11
1429.75
 21
248.75
 31
0.0
100
AcDbText
  0
TEXT
  5
A6
100
AcDbEntity
  8
枠・表
  6
CONTINUOUS
 62
     2
100
AcDbText
 10
1816.75
 20
298.75
 30
0.0
 40
42.5
  1
尺
 41
0.84
  7
EXCADSTD
 72
     5
 11
1850.75
 21
298.75
 31
0.0
100
AcDbText
  0
TEXT
  5
A7
100
AcDbEntity
  8
枠・表
  6
CONTINUOUS
 62
     2
100
AcDbText
 10
1816.75
 20
248.75
 30
0.0
 40
42.5
  1
度
 41
0.84
  7
EXCADSTD
 72
     5
 11
1850.75
 21
248.75
 31
0.0
100
AcDbText
  0
TEXT
  5
A8
100
AcDbEntity
  8
枠・表
  6
CONTINUOUS
 62
     2
100
AcDbText
 10
1395.75
 20
185.75
 30
0.0
 40
42.5
  1
図
 41
0.84
  7
EXCADSTD
 72
     5
 11
1429.75
 21
185.75
 31
0.0
100
AcDbText
  0
TEXT
  5
A9
100
AcDbEntity
  8
枠・表
  6
CONTINUOUS
 62
     2
100
AcDbText
 10
1395.75
 20
142.75
 30
0.0
 40
42.5
  1
番
 41
0.84
  7
EXCADSTD
 72
     5
 11
1429.75
 21
142.75
 31
0.0
100
AcDbText
  0
TEXT
  5
AA
100
AcDbEntity
  8
枠・表
  6
CONTINUOUS
 62
     2
100
AcDbText
 10
1330.0
 20
2787.5
 30
0.0
 40
40.0
  1
品番
 41
1.47
  7
EXCADSTD
 72
     5
 11
1458.324
 21
2787.5
 31
0.0
100
AcDbText
  0
TEXT
  5
AB
100
AcDbEntity
  8
枠・表
  6
CONTINUOUS
 62
     2
100
AcDbText
 10
810.0
 20
295.0
 30
0.0
 40
50.0
  1
900㎜幅
 41
0.72072
  7
EXCADSTD
 72
     5
 11
1002.5
 21
295.0
 31
0.0
100
AcDbText
  0
TEXT
  5
AC
100
AcDbEntity
  8
枠・表
  6
CONTINUOUS
 62
     2
100
AcDbText
 10
810.0
 20
245.0
 30
0.0
 40
50.0
  1
　洗面化粧ユニット
 41
0.924
  7
EXCADSTD
 72
     5
 11
1305.0
 21
245.0
 31
0.0
100
AcDbText
  0
TEXT
  5
AD
100
AcDbEntity
  8
枠・表
  6
CONTINUOUS
 62
     2
100
AcDbText
 10
1260.0
 20
2732.5
 30
0.0
 40
40.0
  1
ＬＵ９０３ＣＳＤ
 41
0.588
  7
EXCADSTD
 72
     5
 11
1483.999999
 21
2732.5
 31
0.0
100
AcDbText
  0
TEXT
  5
AE
100
AcDbEntity
  8
枠・表
  6
CONTINUOUS
 62
     2
100
AcDbText
 10
1260.0
 20
2677.5
 30
0.0
 40
40.0
  1
ＬＵ９０３ＣＳＤＹ
 41
0.585667
  7
EXCADSTD
 72
     5
 11
1510.999999
 21
2677.5
 31
0.0
100
AcDbText
  0
LINE
  5
AF
100
AcDbEntity
  8
枠・表
  6
CONTINUOUS
 62
     6
100
AcDbLine
 10
1250.0
 20
2615.0
 30
0.0
 11
1250.0
 21
2835.0
 31
0.0
  0
LINE
  5
B0
100
AcDbEntity
  8
枠・表
  6
CONTINUOUS
 62
     6
100
AcDbLine
 10
1550.0
 20
2615.0
 30
0.0
 11
1550.0
 21
2835.0
 31
0.0
  0
LINE
  5
B1
100
AcDbEntity
  8
枠・表
  6
CONTINUOUS
 62
     6
100
AcDbLine
 10
1950.0
 20
2615.0
 30
0.0
 11
1950.0
 21
2835.0
 31
0.0
  0
TEXT
  5
B2
100
AcDbEntity
  8
枠・表
  6
CONTINUOUS
 62
     2
100
AcDbText
 10
1560.0
 20
2732.5
 30
0.0
 40
40.0
  1
洗面化粧台
 41
0.756
  7
EXCADSTD
 72
     5
 11
1740.0
 21
2732.5
 31
0.0
100
AcDbText
  0
TEXT
  5
B3
100
AcDbEntity
  8
枠・表
  6
CONTINUOUS
 62
     2
100
AcDbText
 10
1560.0
 20
2677.5
 30
0.0
 40
40.0
  1
洗面化粧台：寒冷地仕様
 41
0.744545
  7
EXCADSTD
 72
     5
 11
1950.0
 21
2677.5
 31
0.0
100
AcDbText
  0
TEXT
  5
B4
100
AcDbEntity
  8
枠・表
  6
CONTINUOUS
 62
     2
100
AcDbText
 10
1680.0
 20
2787.5
 30
0.0
 40
40.0
  1
品名
 41
1.47
  7
EXCADSTD
 72
     5
 11
1808.324
 21
2787.5
 31
0.0
100
AcDbText
  0
LINE
  5
B5
100
AcDbEntity
  8
枠・表
  6
EXLTYPE2
 62
     6
100
AcDbLine
 10
180.0
 20
1510.0
 30
0.0
 11
0.0
 21
1510.0
 31
0.0
  0
CIRCLE
  5
B6
100
AcDbEntity
  8
枠・表
  6
CONTINUOUS
 62
     6
100
AcDbCircle
 10
230.0
 20
160.0
 30
0.0
 40
1.0
  0
CIRCLE
  5
B7
100
AcDbEntity
  8
枠・表
  6
CONTINUOUS
 62
     6
100
AcDbCircle
 10
280.0
 20
160.0
 30
0.0
 40
1.0
  0
CIRCLE
  5
B8
100
AcDbEntity
  8
枠・表
  6
CONTINUOUS
 62
     6
100
AcDbCircle
 10
385.0
 20
160.0
 30
0.0
 40
1.0
  0
CIRCLE
  5
B9
100
AcDbEntity
  8
枠・表
  6
CONTINUOUS
 62
     6
100
AcDbCircle
 10
435.0
 20
160.0
 30
0.0
 40
1.0
  0
LINE
  5
BA
100
AcDbEntity
  8
枠・表
  6
EXLTYPE2
 62
     6
100
AcDbLine
 10
180.0
 20
185.0
 30
0.0
 11
490.0
 21
185.0
 31
0.0
  0
TEXT
  5
BB
100
AcDbEntity
  8
枠・表
  6
CONTINUOUS
 62
     2
100
AcDbText
 10
207.5
 20
220.0
 30
0.0
 40
50.0
  1
間瀬
 41
0.882
  7
EXCADSTD
 72
     5
 11
303.743
 21
220.0
 31
0.0
100
AcDbText
  0
TEXT
  5
BC
100
AcDbEntity
  8
枠・表
  6
CONTINUOUS
 62
     2
100
AcDbText
 10
184.5
 20
140.0
 30
0.0
 40
40.0
  1
20
 41
0.5
  7
EXCADSTD
 72
     5
 11
216.5
 21
140.0
 31
0.0
100
AcDbText
  0
TEXT
  5
BD
100
AcDbEntity
  8
枠・表
  6
CONTINUOUS
 62
     2
100
AcDbText
 10
505.0
 20
220.0
 30
0.0
 40
50.0
  1
中村
 41
0.882
  7
EXCADSTD
 72
     5
 11
601.243
 21
220.0
 31
0.0
100
AcDbText
  0
TEXT
  5
BE
100
AcDbEntity
  8
枠・表
  6
CONTINUOUS
 62
     2
100
AcDbText
 10
635.0
 20
220.0
 30
0.0
 40
50.0
  1
古林
 41
0.882
  7
EXCADSTD
 72
     5
 11
731.243
 21
220.0
 31
0.0
100
AcDbText
  0
TEXT
  5
C0
100
AcDbEntity
  8
枠・表
  6
CONTINUOUS
 62
     2
100
AcDbText
 10
770.0
 20
155.0
 30
0.0
 40
45.0
  1
ジャニス工業株式会社
  7
EXCADTTF1
 72
     5
 11
1370.0
 21
155.0
 31
0.0
100
AcDbText
  0
TEXT
  5
C1
100
AcDbEntity
  8
枠・表
  6
CONTINUOUS
 62
     2
100
AcDbText
 10
235.0
 20
140.0
 30
0.0
 40
40.0
  1
12
 41
0.5
  7
EXCADSTD
 72
     5
 11
267.0
 21
140.0
 31
0.0
100
AcDbText
  0
TEXT
  5
C2
100
AcDbEntity
  8
枠・表
  6
CONTINUOUS
 62
     2
100
AcDbText
 10
296.75
 20
140.0
 30
0.0
 40
40.0
  1
3
 41
0.5625
  7
EXCADSTD
 72
     5
 11
311.375
 21
140.0
 31
0.0
100
AcDbText
  0
TEXT
  5
C3
100
AcDbEntity
  8
枠・表
  6
CONTINUOUS
 62
     2
100
AcDbText
 10
1560.0
 20
2622.5
 30
0.0
 40
40.0
  1
化粧鏡台
 41
0.819
  7
EXCADSTD
 72
     5
 11
1716.0
 21
2622.5
 31
0.0
100
AcDbText
  0
TEXT
  5
C4
100
AcDbEntity
  8
枠・表
  6
CONTINUOUS
 62
     2
100
AcDbText
 10
1270.0
 20
2535.0
 30
0.0
 40
40.0
  1
※化粧鏡台
 41
0.8106
  7
EXCADSTD
 72
     5
 11
1463.0
 21
2535.0
 31
0.0
100
AcDbText
  0
TEXT
  5
C5
100
AcDbEntity
  8
枠・表
  6
CONTINUOUS
 62
     2
100
AcDbText
 10
1270.0
 20
2495.0
 30
0.0
 40
40.0
  1
　　電源：１００Ｖ，５０/６０Ｈｚ
 41
0.767593
  7
EXCADSTD
 72
     5
 11
1884.499998
 21
2495.0
 31
0.0
100
AcDbText
  0
TEXT
  5
C6
100
AcDbEntity
  8
枠・表
  6
CONTINUOUS
 62
     2
100
AcDbText
 10
1270.0
 20
2455.0
 30
0.0
 40
40.0
  1
　　コンセント容量：１２００Ｗ
 41
0.7882
  7
EXCADSTD
 72
     5
 11
1832.999998
 21
2455.0
 31
0.0
100
AcDbText
  0
TEXT
  5
C7
100
AcDbEntity
  8
枠・表
  6
CONTINUOUS
 62
     2
100
AcDbText
 10
1270.0
 20
2415.0
 30
0.0
 40
40.0
  1
※止水栓は別途
 41
0.801
  7
EXCADSTD
 72
     5
 11
1536.999999
 21
2415.0
 31
0.0
100
AcDbText
  0
TEXT
  5
C8
100
AcDbEntity
  8
枠・表
  6
CONTINUOUS
 62
     2
100
AcDbText
 10
1270.0
 20
2375.0
 30
0.0
 40
40.0
  1
※本図の止水栓位置は参考寸法とする
 41
0.786882
  7
EXCADSTD
 72
     5
 11
1906.999998
 21
2375.0
 31
0.0
100
AcDbText
  0
TEXT
  5
C9
100
AcDbEntity
  8
枠・表
  6
CONTINUOUS
 62
     2
100
AcDbText
 10
1260.0
 20
2622.5
 30
0.0
 40
40.0
  1
ＬＵＭ７５１ＣＳＫＨ
 41
0.5838
  7
EXCADSTD
 72
     5
 11
1537.999999
 21
2622.5
 31
0.0
100
AcDbText
  0
TEXT
  5
CA
100
AcDbEntity
  8
枠・表
  6
CONTINUOUS
 62
     2
100
AcDbText
 10
1450.0
 20
295.0
 30
0.0
 40
50.0
  1
ＬＵ９０３ＣＳＤ型 
 41
0.606667
  7
EXCADSTD
 72
     5
 11
1775.0
 21
295.0
 31
0.0
100
AcDbText
  0
TEXT
  5
CB
100
AcDbEntity
  8
枠・表
  6
CONTINUOUS
 62
     2
100
AcDbText
 10
1450.0
 20
245.0
 30
0.0
 40
50.0
  1
ＬＵＭ７５１ＣＳＫＨ
 41
0.6048
  7
EXCADSTD
 72
     5
 11
1810.0
 21
245.0
 31
0.0
100
AcDbText
  0
TEXT
  5
CC
100
AcDbEntity
  8
枠・表
  6
CONTINUOUS
 62
     7
100
AcDbText
 10
1452.000002
 20
151.5
 30
0.0
 40
70.0
  1
ＬＵＡ１０１００
 41
0.804
  7
EXCADSTD
 72
     5
 11
1987.999998
 21
151.5
 31
0.0
100
AcDbText
  0
POLYLINE
  5
CD
100
AcDbEntity
  8
化粧台
  6
CONTINUOUS
 62
     3
100
AcDb2dPolyline
 66
     1
 10
0.0
 20
0.0
 30
0.0
 70
   128
  0
VERTEX
  5
CE
100
AcDbEntity
  8
化粧台
  6
CONTINUOUS
 62
     3
100
AcDbVertex
100
AcDb2dVertex
 10
1602.0
 20
4033.0
 30
0.0
  0
VERTEX
  5
CF
100
AcDbEntity
  8
化粧台
  6
CONTINUOUS
 62
     3
100
AcDbVertex
100
AcDb2dVertex
 10
1625.0
 20
3983.5
 30
0.0
  0
SEQEND
  5
D0
100
AcDbEntity
  8
化粧台
  6
CONTINUOUS
 62
     3
  0
LINE
  5
D1
100
AcDbEntity
  8
化粧台
  6
CONTINUOUS
 62
     3
100
AcDbLine
 10
1627.763749
 20
3995.350575
 30
0.0
 11
1602.0
 21
4033.0
 31
0.0
  0
LINE
  5
D2
100
AcDbEntity
  8
化粧台
  6
CONTINUOUS
 62
     3
100
AcDbLine
 10
1602.0
 20
4033.0
 30
0.0
 11
1614.16049
 21
3989.029868
 31
0.0
  0
POLYLINE
  5
D3
100
AcDbEntity
  8
化粧台
  6
CONTINUOUS
 62
     3
100
AcDb2dPolyline
 66
     1
 10
0.0
 20
0.0
 30
0.0
 70
   128
  0
VERTEX
  5
D4
100
AcDbEntity
  8
化粧台
  6
CONTINUOUS
 62
     3
100
AcDbVertex
100
AcDb2dVertex
 10
2550.0
 20
2989.0
 30
0.0
  0
VERTEX
  5
D5
100
AcDbEntity
  8
化粧台
  6
CONTINUOUS
 62
     3
100
AcDbVertex
100
AcDb2dVertex
 10
2504.0
 20
3009.0
 30
0.0
  0
SEQEND
  5
D6
100
AcDbEntity
  8
化粧台
  6
CONTINUOUS
 62
     3
  0
LINE
  5
D7
100
AcDbEntity
  8
化粧台
  6
CONTINUOUS
 62
     3
100
AcDbLine
 10
2505.741402
 20
3000.06465
 30
0.0
 11
2550.0
 21
2989.0
 31
0.0
  0
LINE
  5
D8
100
AcDbEntity
  8
化粧台
  6
CONTINUOUS
 62
     3
100
AcDbLine
 10
2550.0
 20
2989.0
 30
0.0
 11
2511.722293
 21
3013.8207
 31
0.0
  0
POLYLINE
  5
D9
100
AcDbEntity
  8
化粧台
  6
CONTINUOUS
 62
     3
100
AcDb2dPolyline
 66
     1
 10
0.0
 20
0.0
 30
0.0
 70
   128
  0
VERTEX
  5
DA
100
AcDbEntity
  8
化粧台
  6
CONTINUOUS
 62
     3
100
AcDbVertex
100
AcDb2dVertex
 10
2048.0
 20
887.0
 30
0.0
  0
VERTEX
  5
DB
100
AcDbEntity
  8
化粧台
  6
CONTINUOUS
 62
     3
100
AcDbVertex
100
AcDb2dVertex
 10
2029.0
 20
936.0
 30
0.0
  0
SEQEND
  5
DC
100
AcDbEntity
  8
化粧台
  6
CONTINUOUS
 62
     3
  0
LINE
  5
DD
100
AcDbEntity
  8
化粧台
  6
CONTINUOUS
 62
     3
100
AcDbLine
 10
2024.738537
 20
926.2448
 30
0.0
 11
2048.0
 21
887.0
 31
0.0
  0
LINE
  5
DE
100
AcDbEntity
  8
化粧台
  6
CONTINUOUS
 62
     3
100
AcDbLine
 10
2048.0
 20
887.0
 30
0.0
 11
2038.723956
 21
931.667718
 31
0.0
  0
LINE
  5
DF
100
AcDbEntity
  8
化粧台
  6
CONTINUOUS
 62
     2
100
AcDbLine
 10
1370.0
 20
4033.0
 30
0.0
 11
1370.0
 21
3583.0
 31
0.0
  0
LINE
  5
E0
100
AcDbEntity
  8
化粧台
  6
CONTINUOUS
 62
     2
100
AcDbLine
 10
470.0
 20
4033.0
 30
0.0
 11
1370.0
 21
4033.0
 31
0.0
  0
LINE
  5
E1
100
AcDbEntity
  8
化粧台
  6
CONTINUOUS
 62
     2
100
AcDbLine
 10
470.0
 20
4033.0
 30
0.0
 11
470.0
 21
3583.0
 31
0.0
  0
ARC
  5
E2
100
AcDbEntity
  8
化粧台
  6
CONTINUOUS
 62
     2
100
AcDbCircle
 10
655.0
 20
3543.0
 30
0.0
 40
10.0
100
AcDbArc
 50
180.0
 51
270.0
  0
ARC
  5
E3
100
AcDbEntity
  8
化粧台
  6
CONTINUOUS
 62
     2
100
AcDbCircle
 10
1185.0
 20
3543.0
 30
0.0
 40
10.0
100
AcDbArc
 50
270.0
 51
0.0
  0
LINE
  5
E4
100
AcDbEntity
  8
化粧台
  6
CONTINUOUS
 62
     2
100
AcDbLine
 10
655.0
 20
3533.0
 30
0.0
 11
1185.0
 21
3533.0
 31
0.0
  0
LINE
  5
E5
100
AcDbEntity
  8
化粧台
  6
CONTINUOUS
 62
     2
100
AcDbLine
 10
676.0
 20
3544.0
 30
0.0
 11
1164.0
 21
3544.0
 31
0.0
  0
ARC
  5
E6
100
AcDbEntity
  8
化粧台
  6
CONTINUOUS
 62
     2
100
AcDbCircle
 10
676.0
 20
3564.0
 30
0.0
 40
20.0
100
AcDbArc
 50
180.0
 51
270.0
  0
ARC
  5
E7
100
AcDbEntity
  8
化粧台
  6
CONTINUOUS
 62
     2
100
AcDbCircle
 10
1164.0
 20
3564.0
 30
0.0
 40
20.0
100
AcDbArc
 50
270.0
 51
0.0
  0
LINE
  5
E8
100
AcDbEntity
  8
化粧台
  6
CONTINUOUS
 62
     6
100
AcDbLine
 10
883.1
 20
3798.0
 30
0.0
 11
956.9
 21
3798.0
 31
0.0
  0
LINE
  5
E9
100
AcDbEntity
  8
化粧台
  6
CONTINUOUS
 62
     6
100
AcDbLine
 10
891.0
 20
3948.0
 30
0.0
 11
949.0
 21
3948.0
 31
0.0
  0
ARC
  5
EA
100
AcDbEntity
  8
化粧台
  6
CONTINUOUS
 62
     6
100
AcDbCircle
 10
251.062457
 20
4233.946075
 30
0.0
 40
800.0
100
AcDbArc
 50
301.628901
 51
317.938137
  0
ARC
  5
EB
100
AcDbEntity
  8
化粧台
  6
CONTINUOUS
 62
     6
100
AcDbCircle
 10
1588.937543
 20
4233.946075
 30
0.0
 40
800.0
100
AcDbArc
 50
222.061863
 51
238.371099
  0
LINE
  5
EC
100
AcDbEntity
  8
化粧台
  6
CONTINUOUS
 62
     6
100
AcDbLine
 10
845.0
 20
3844.0
 30
0.0
 11
845.0
 21
3698.0
 31
0.0
  0
LINE
  5
ED
100
AcDbEntity
  8
化粧台
  6
CONTINUOUS
 62
     6
100
AcDbLine
 10
845.0
 20
3698.0
 30
0.0
 11
995.0
 21
3698.0
 31
0.0
  0
LINE
  5
EE
100
AcDbEntity
  8
化粧台
  6
CONTINUOUS
 62
     6
100
AcDbLine
 10
995.0
 20
3844.0
 30
0.0
 11
995.0
 21
3698.0
 31
0.0
  0
LINE
  5
EF
100
AcDbEntity
  8
化粧台
  6
CONTINUOUS
 62
     6
100
AcDbLine
 10
995.0
 20
3844.0
 30
0.0
 11
1163.5
 21
3883.0
 31
0.0
  0
LINE
  5
F0
100
AcDbEntity
  8
化粧台
  6
CONTINUOUS
 62
     6
100
AcDbLine
 10
845.0
 20
3844.0
 30
0.0
 11
676.5
 21
3883.0
 31
0.0
  0
LINE
  5
F1
100
AcDbEntity
  8
化粧台
  6
CONTINUOUS
 62
     2
100
AcDbLine
 10
916.0
 20
3863.0
 30
0.0
 11
924.0
 21
3863.0
 31
0.0
  0
ELLIPSE
  5
F2
100
AcDbEntity
  8
化粧台
  6
CONTINUOUS
 62
     2
100
AcDbEllipse
 10
920.0
 20
3823.0
 30
0.0
 11
15.000000000000011
 21
0.0
 31
0.0
210
0.0
220
0.0
230
1.0
 40
0.5
 41
0.0
 42
6.2831853071796004
  0
ELLIPSE
  5
F3
100
AcDbEntity
  8
化粧台
  6
CONTINUOUS
 62
     6
100
AcDbEllipse
 10
920.0
 20
3892.282032
 30
0.0
 11
15.000000000000011
 21
0.0
 31
0.0
210
0.0
220
0.0
230
1.0
 40
0.5
 41
0.0
 42
1.3008635309614991
  0
ELLIPSE
  5
F4
100
AcDbEntity
  8
化粧台
  6
CONTINUOUS
 62
     6
100
AcDbEllipse
 10
920.0
 20
3892.282032
 30
0.0
 11
15.000000000000011
 21
0.0
 31
0.0
210
0.0
220
0.0
230
1.0
 40
0.5
 41
1.8407291226283071
 42
3.1415926535897931
  0
LINE
  5
F5
100
AcDbEntity
  8
化粧台
  6
CONTINUOUS
 62
     2
100
AcDbLine
 10
676.5
 20
3883.0
 30
0.0
 11
905.0
 21
3883.0
 31
0.0
  0
LINE
  5
F6
100
AcDbEntity
  8
化粧台
  6
CONTINUOUS
 62
     2
100
AcDbLine
 10
935.0
 20
3883.0
 30
0.0
 11
1163.5
 21
3883.0
 31
0.0
  0
ARC
  5
F7
100
AcDbEntity
  8
化粧台
  6
CONTINUOUS
 62
     2
100
AcDbCircle
 10
920.0
 20
3798.0
 30
0.0
 40
19.2
100
AcDbArc
 50
108.843592
 51
71.156408
  0
ARC
  5
F8
100
AcDbEntity
  8
化粧台
  6
CONTINUOUS
 62
     2
100
AcDbCircle
 10
920.0
 20
3798.0
 30
0.0
 40
26.9
100
AcDbArc
 50
122.168583
 51
57.831417
  0
LINE
  5
F9
100
AcDbEntity
  8
化粧台
  6
CONTINUOUS
 62
     6
100
AcDbLine
 10
845.0
 20
3844.0
 30
0.0
 11
905.0
 21
3844.0
 31
0.0
  0
LINE
  5
FA
100
AcDbEntity
  8
化粧台
  6
CONTINUOUS
 62
     6
100
AcDbLine
 10
935.0
 20
3844.0
 30
0.0
 11
995.0
 21
3844.0
 31
0.0
  0
LINE
  5
FB
100
AcDbEntity
  8
化粧台
  6
CONTINUOUS
 62
     6
100
AcDbLine
 10
855.5
 20
4033.0
 30
0.0
 11
855.5
 21
4041.0
 31
0.0
  0
LINE
  5
FC
100
AcDbEntity
  8
化粧台
  6
CONTINUOUS
 62
     6
100
AcDbLine
 10
834.5
 20
4041.0
 30
0.0
 11
855.5
 21
4041.0
 31
0.0
  0
LINE
  5
FD
100
AcDbEntity
  8
化粧台
  6
CONTINUOUS
 62
     6
100
AcDbLine
 10
834.5
 20
4033.0
 30
0.0
 11
834.5
 21
4041.0
 31
0.0
  0
LINE
  5
FE
100
AcDbEntity
  8
化粧台
  6
CONTINUOUS
 62
     6
100
AcDbLine
 10
1005.5
 20
4033.0
 30
0.0
 11
1005.5
 21
4041.0
 31
0.0
  0
LINE
  5
FF
100
AcDbEntity
  8
化粧台
  6
CONTINUOUS
 62
     6
100
AcDbLine
 10
984.5
 20
4041.0
 30
0.0
 11
1005.5
 21
4041.0
 31
0.0
  0
LINE
  5
100
100
AcDbEntity
  8
化粧台
  6
CONTINUOUS
 62
     6
100
AcDbLine
 10
984.5
 20
4033.0
 30
0.0
 11
984.5
 21
4041.0
 31
0.0
  0
LINE
  5
101
100
AcDbEntity
  8
化粧台
  6
CONTINUOUS
 62
     6
100
AcDbLine
 10
845.0
 20
4056.0
 30
0.0
 11
845.0
 21
4003.0
 31
0.0
  0
LINE
  5
102
100
AcDbEntity
  8
化粧台
  6
CONTINUOUS
 62
     6
100
AcDbLine
 10
995.0
 20
4056.0
 30
0.0
 11
995.0
 21
4003.0
 31
0.0
  0
LINE
  5
103
100
AcDbEntity
  8
化粧台
  6
EXLTYPE3
 62
     6
100
AcDbLine
 10
920.0
 20
4048.0
 30
0.0
 11
920.0
 21
3518.0
 31
0.0
  0
LINE
  5
104
100
AcDbEntity
  8
化粧台
  6
CONTINUOUS
 62
     2
100
AcDbLine
 10
470.0
 20
3583.0
 30
0.0
 11
645.0
 21
3583.0
 31
0.0
  0
LINE
  5
105
100
AcDbEntity
  8
化粧台
  6
CONTINUOUS
 62
     2
100
AcDbLine
 10
1195.0
 20
3583.0
 30
0.0
 11
1370.0
 21
3583.0
 31
0.0
  0
LINE
  5
106
100
AcDbEntity
  8
化粧台
  6
CONTINUOUS
 62
     6
100
AcDbLine
 10
588.0
 20
4033.0
 30
0.0
 11
590.0
 21
4065.5
 31
0.0
  0
LINE
  5
107
100
AcDbEntity
  8
化粧台
  6
CONTINUOUS
 62
     6
100
AcDbLine
 10
590.0
 20
4065.5
 30
0.0
 11
592.0
 21
4033.0
 31
0.0
  0
LINE
  5
108
100
AcDbEntity
  8
化粧台
  6
CONTINUOUS
 62
     6
100
AcDbLine
 10
590.0
 20
4018.0
 30
0.0
 11
590.0
 21
4075.5
 31
0.0
  0
LINE
  5
109
100
AcDbEntity
  8
化粧台
  6
CONTINUOUS
 62
     6
100
AcDbLine
 10
1248.0
 20
4033.0
 30
0.0
 11
1250.0
 21
4065.5
 31
0.0
  0
LINE
  5
10A
100
AcDbEntity
  8
化粧台
  6
CONTINUOUS
 62
     6
100
AcDbLine
 10
1250.0
 20
4065.5
 30
0.0
 11
1252.0
 21
4033.0
 31
0.0
  0
LINE
  5
10B
100
AcDbEntity
  8
化粧台
  6
CONTINUOUS
 62
     6
100
AcDbLine
 10
1250.0
 20
4018.0
 30
0.0
 11
1250.0
 21
4075.5
 31
0.0
  0
LINE
  5
10C
100
AcDbEntity
  8
化粧台
  6
EXLTYPE4
 62
     6
100
AcDbLine
 10
333.0
 20
4033.0
 30
0.0
 11
1743.0
 21
4033.0
 31
0.0
  0
TEXT
  5
10D
100
AcDbEntity
  8
化粧台
  6
CONTINUOUS
 62
     2
100
AcDbText
 10
1644.000001
 20
3973.0
 30
0.0
 40
60.0
  1
W.L.
 41
0.4125
  7
EXCADSTD
 72
     5
 11
1734.7434
 21
3973.0
 31
0.0
100
AcDbText
  0
LINE
  5
10E
100
AcDbEntity
  8
化粧台
  6
CONTINUOUS
 62
     2
100
AcDbLine
 10
1353.0
 20
887.0
 30
0.0
 11
1353.0
 21
977.0
 31
0.0
  0
LINE
  5
10F
100
AcDbEntity
  8
化粧台
  6
CONTINUOUS
 62
     2
100
AcDbLine
 10
1370.0
 20
1586.0
 30
0.0
 11
1370.0
 21
1567.0
 31
0.0
  0
LINE
  5
110
100
AcDbEntity
  8
化粧台
  6
CONTINUOUS
 62
     6
100
AcDbLine
 10
1250.0
 20
1480.0
 30
0.0
 11
1250.0
 21
1454.0
 31
0.0
  0
LINE
  5
111
100
AcDbEntity
  8
化粧台
  6
CONTINUOUS
 62
     6
100
AcDbLine
 10
1263.0
 20
1467.0
 30
0.0
 11
1237.0
 21
1467.0
 31
0.0
  0
LINE
  5
112
100
AcDbEntity
  8
化粧台
  6
CONTINUOUS
 62
     2
100
AcDbLine
 10
1368.0
 20
887.0
 30
0.0
 11
1368.0
 21
1567.0
 31
0.0
  0
LINE
  5
113
100
AcDbEntity
  8
化粧台
  6
CONTINUOUS
 62
     6
100
AcDbLine
 10
1365.0
 20
1562.0
 30
0.0
 11
1365.0
 21
1530.0
 31
0.0
  0
LINE
  5
114
100
AcDbEntity
  8
化粧台
  6
CONTINUOUS
 62
     2
100
AcDbLine
 10
1365.0
 20
1530.0
 30
0.0
 11
1365.0
 21
1387.0
 31
0.0
  0
LINE
  5
115
100
AcDbEntity
  8
化粧台
  6
CONTINUOUS
 62
     6
100
AcDbLine
 10
1365.0
 20
1383.0
 30
0.0
 11
1365.0
 21
1351.0
 31
0.0
  0
LINE
  5
116
100
AcDbEntity
  8
化粧台
  6
CONTINUOUS
 62
     2
100
AcDbLine
 10
1365.0
 20
1351.0
 30
0.0
 11
1365.0
 21
977.0
 31
0.0
  0
LINE
  5
117
100
AcDbEntity
  8
化粧台
  6
CONTINUOUS
 62
     2
100
AcDbLine
 10
1338.0
 20
887.0
 30
0.0
 11
1338.0
 21
977.0
 31
0.0
  0
LINE
  5
118
100
AcDbEntity
  8
化粧台
  6
CONTINUOUS
 62
     6
100
AcDbLine
 10
1365.0
 20
1530.0
 30
0.0
 11
475.0
 21
1530.0
 31
0.0
  0
LINE
  5
119
100
AcDbEntity
  8
化粧台
  6
CONTINUOUS
 62
     6
100
AcDbLine
 10
1365.0
 20
1534.042314
 30
0.0
 11
475.0
 21
1534.042314
 31
0.0
  0
LINE
  5
11A
100
AcDbEntity
  8
化粧台
  6
CONTINUOUS
 62
     6
100
AcDbLine
 10
1365.0
 20
1351.0
 30
0.0
 11
475.0
 21
1351.0
 31
0.0
  0
LINE
  5
11B
100
AcDbEntity
  8
化粧台
  6
CONTINUOUS
 62
     6
100
AcDbLine
 10
1365.0
 20
1355.042314
 30
0.0
 11
475.0
 21
1355.042314
 31
0.0
  0
LINE
  5
11C
100
AcDbEntity
  8
化粧台
  6
CONTINUOUS
 62
     2
100
AcDbLine
 10
1365.0
 20
977.0
 30
0.0
 11
475.0
 21
977.0
 31
0.0
  0
LINE
  5
11D
100
AcDbEntity
  8
化粧台
  6
CONTINUOUS
 62
     2
100
AcDbLine
 10
1365.0
 20
1387.0
 30
0.0
 11
475.0
 21
1387.0
 31
0.0
  0
LINE
  5
11E
100
AcDbEntity
  8
化粧台
  6
CONTINUOUS
 62
     6
100
AcDbLine
 10
1365.0
 20
1383.0
 30
0.0
 11
475.0
 21
1383.0
 31
0.0
  0
LINE
  5
11F
100
AcDbEntity
  8
化粧台
  6
CONTINUOUS
 62
     6
100
AcDbLine
 10
1365.0
 20
1373.0
 30
0.0
 11
475.0
 21
1373.0
 31
0.0
  0
LINE
  5
120
100
AcDbEntity
  8
化粧台
  6
CONTINUOUS
 62
     6
100
AcDbLine
 10
1365.0
 20
1562.0
 30
0.0
 11
475.0
 21
1562.0
 31
0.0
  0
LINE
  5
121
100
AcDbEntity
  8
化粧台
  6
CONTINUOUS
 62
     6
100
AcDbLine
 10
1365.0
 20
1552.0
 30
0.0
 11
475.0
 21
1552.0
 31
0.0
  0
LINE
  5
122
100
AcDbEntity
  8
化粧台
  6
CONTINUOUS
 62
     2
100
AcDbLine
 10
472.0
 20
887.0
 30
0.0
 11
1368.0
 21
887.0
 31
0.0
  0
LINE
  5
123
100
AcDbEntity
  8
化粧台
  6
CONTINUOUS
 62
     2
100
AcDbLine
 10
1370.0
 20
1586.0
 30
0.0
 11
470.0
 21
1586.0
 31
0.0
  0
LINE
  5
124
100
AcDbEntity
  8
化粧台
  6
CONTINUOUS
 62
     2
100
AcDbLine
 10
1370.0
 20
1567.0
 30
0.0
 11
470.0
 21
1567.0
 31
0.0
  0
LINE
  5
125
100
AcDbEntity
  8
化粧台
  6
CONTINUOUS
 62
     2
100
AcDbLine
 10
502.0
 20
887.0
 30
0.0
 11
502.0
 21
977.0
 31
0.0
  0
LINE
  5
126
100
AcDbEntity
  8
化粧台
  6
CONTINUOUS
 62
     2
100
AcDbLine
 10
475.0
 20
1351.0
 30
0.0
 11
475.0
 21
977.0
 31
0.0
  0
LINE
  5
127
100
AcDbEntity
  8
化粧台
  6
CONTINUOUS
 62
     6
100
AcDbLine
 10
475.0
 20
1383.0
 30
0.0
 11
475.0
 21
1351.0
 31
0.0
  0
LINE
  5
128
100
AcDbEntity
  8
化粧台
  6
CONTINUOUS
 62
     2
100
AcDbLine
 10
475.0
 20
1530.0
 30
0.0
 11
475.0
 21
1387.0
 31
0.0
  0
LINE
  5
129
100
AcDbEntity
  8
化粧台
  6
CONTINUOUS
 62
     6
100
AcDbLine
 10
475.0
 20
1562.0
 30
0.0
 11
475.0
 21
1530.0
 31
0.0
  0
LINE
  5
12A
100
AcDbEntity
  8
化粧台
  6
CONTINUOUS
 62
     2
100
AcDbLine
 10
472.0
 20
887.0
 30
0.0
 11
472.0
 21
1567.0
 31
0.0
  0
LINE
  5
12B
100
AcDbEntity
  8
化粧台
  6
CONTINUOUS
 62
     6
100
AcDbLine
 10
577.0
 20
1467.0
 30
0.0
 11
603.0
 21
1467.0
 31
0.0
  0
LINE
  5
12C
100
AcDbEntity
  8
化粧台
  6
CONTINUOUS
 62
     6
100
AcDbLine
 10
590.0
 20
1480.0
 30
0.0
 11
590.0
 21
1454.0
 31
0.0
  0
LINE
  5
12D
100
AcDbEntity
  8
化粧台
  6
CONTINUOUS
 62
     2
100
AcDbLine
 10
470.0
 20
1586.0
 30
0.0
 11
470.0
 21
1567.0
 31
0.0
  0
LINE
  5
12E
100
AcDbEntity
  8
化粧台
  6
CONTINUOUS
 62
     2
100
AcDbLine
 10
487.0
 20
887.0
 30
0.0
 11
487.0
 21
977.0
 31
0.0
  0
LINE
  5
12F
100
AcDbEntity
  8
化粧台
  6
CONTINUOUS
 62
     2
100
AcDbLine
 10
1189.996306
 20
1590.807834
 30
0.0
 11
1194.996306
 21
1720.807834
 31
0.0
  0
ARC
  5
130
100
AcDbEntity
  8
化粧台
  6
CONTINUOUS
 62
     2
100
AcDbCircle
 10
1190.0
 20
1721.0
 30
0.0
 40
5.0
100
AcDbArc
 50
357.797402
 51
90.0
  0
ARC
  5
131
100
AcDbEntity
  8
化粧台
  6
CONTINUOUS
 62
     2
100
AcDbCircle
 10
1185.0
 20
1591.0
 30
0.0
 40
5.0
100
AcDbArc
 50
270.0
 51
357.797402
  0
LINE
  5
132
100
AcDbEntity
  8
化粧台
  6
CONTINUOUS
 62
     2
100
AcDbLine
 10
650.003694
 20
1590.807834
 30
0.0
 11
645.003694
 21
1720.807834
 31
0.0
  0
ARC
  5
133
100
AcDbEntity
  8
化粧台
  6
CONTINUOUS
 62
     2
100
AcDbCircle
 10
650.0
 20
1721.0
 30
0.0
 40
5.0
100
AcDbArc
 50
90.0
 51
182.202598
  0
ARC
  5
134
100
AcDbEntity
  8
化粧台
  6
CONTINUOUS
 62
     2
100
AcDbCircle
 10
655.0
 20
1591.0
 30
0.0
 40
5.0
100
AcDbArc
 50
182.202598
 51
270.0
  0
LINE
  5
135
100
AcDbEntity
  8
化粧台
  6
CONTINUOUS
 62
     2
100
AcDbLine
 10
655.0
 20
1586.0
 30
0.0
 11
1185.0
 21
1586.0
 31
0.0
  0
LINE
  5
136
100
AcDbEntity
  8
化粧台
  6
CONTINUOUS
 62
     2
100
AcDbLine
 10
650.0
 20
1726.0
 30
0.0
 11
1190.0
 21
1726.0
 31
0.0
  0
LINE
  5
137
100
AcDbEntity
  8
化粧台
  6
CONTINUOUS
 62
     2
100
AcDbLine
 10
841.614829
 20
1736.655405
 30
0.0
 11
845.25
 21
1727.907239
 31
0.0
  0
ARC
  5
138
100
AcDbEntity
  8
化粧台
  6
CONTINUOUS
 62
     2
100
AcDbCircle
 10
843.0
 20
1737.230992
 30
0.0
 40
1.5
100
AcDbArc
 50
90.0
 51
202.564607
  0
LINE
  5
139
100
AcDbEntity
  8
化粧台
  6
CONTINUOUS
 62
     2
100
AcDbLine
 10
858.385171
 20
1736.655405
 30
0.0
 11
854.75
 21
1727.907239
 31
0.0
  0
ARC
  5
13A
100
AcDbEntity
  8
化粧台
  6
CONTINUOUS
 62
     2
100
AcDbCircle
 10
857.0
 20
1737.230992
 30
0.0
 40
1.5
100
AcDbArc
 50
337.435393
 51
90.0
  0
LINE
  5
13B
100
AcDbEntity
  8
化粧台
  6
CONTINUOUS
 62
     2
100
AcDbLine
 10
843.0
 20
1738.730992
 30
0.0
 11
857.0
 21
1738.730992
 31
0.0
  0
LINE
  5
13C
100
AcDbEntity
  8
化粧台
  6
CONTINUOUS
 62
     2
100
AcDbLine
 10
845.25
 20
1726.0
 30
0.0
 11
845.25
 21
1727.907239
 31
0.0
  0
LINE
  5
13D
100
AcDbEntity
  8
化粧台
  6
CONTINUOUS
 62
     2
100
AcDbLine
 10
854.75
 20
1726.0
 30
0.0
 11
854.75
 21
1727.907239
 31
0.0
  0
ELLIPSE
  5
13E
100
AcDbEntity
  8
化粧台
  6
CONTINUOUS
 62
     2
100
AcDbEllipse
 10
920.0
 20
1779.0
 30
0.0
 11
11.500000000000009
 21
0.0
 31
0.0
210
0.0
220
0.0
230
1.0
 40
0.422618
 41
0.0
 42
6.2831853071796004
  0
CIRCLE
  5
13F
100
AcDbEntity
  8
化粧台
  6
CONTINUOUS
 62
     2
100
AcDbCircle
 10
920.0
 20
1844.5
 30
0.0
 40
4.0
  0
ELLIPSE
  5
140
100
AcDbEntity
  8
化粧台
  6
CONTINUOUS
 62
     2
100
AcDbEllipse
 10
920.0
 20
1805.0
 30
0.0
 11
15.000000000000009
 21
0.0
 31
0.0
210
0.0
220
0.0
230
1.0
 40
0.866025
 41
0.0
 42
6.2831853071796004
  0
ELLIPSE
  5
141
100
AcDbEntity
  8
化粧台
  6
CONTINUOUS
 62
     2
100
AcDbEllipse
 10
920.0
 20
1746.976298
 30
0.0
 11
0.0000000000000011
 21
17.320508075600181
 31
0.0
210
0.0
220
0.0
230
1.0
 40
0.866025
 41
1.5707963267948966
 42
4.7123889803846897
  0
LINE
  5
142
100
AcDbEntity
  8
化粧台
  6
CONTINUOUS
 62
     2
100
AcDbLine
 10
905.0
 20
1805.0
 30
0.0
 11
905.0
 21
1746.976298
 31
0.0
  0
LINE
  5
143
100
AcDbEntity
  8
化粧台
  6
CONTINUOUS
 62
     2
100
AcDbLine
 10
935.0
 20
1805.0
 30
0.0
 11
935.0
 21
1746.976298
 31
0.0
  0
LINE
  5
144
100
AcDbEntity
  8
化粧台
  6
CONTINUOUS
 62
     2
100
AcDbLine
 10
908.5
 20
1779.0
 30
0.0
 11
908.5
 21
1787.790236
 31
0.0
  0
LINE
  5
145
100
AcDbEntity
  8
化粧台
  6
CONTINUOUS
 62
     2
100
AcDbLine
 10
931.5
 20
1779.0
 30
0.0
 11
931.5
 21
1787.790236
 31
0.0
  0
ELLIPSE
  5
146
100
AcDbEntity
  8
化粧台
  6
CONTINUOUS
 62
     2
100
AcDbEllipse
 10
920.0
 20
1787.790236
 30
0.0
 11
11.500000000000009
 21
0.0
 31
0.0
210
0.0
220
0.0
230
1.0
 40
0.173967
 41
0.0
 42
3.1415926535897931
  0
LINE
  5
147
100
AcDbEntity
  8
化粧台
  6
CONTINUOUS
 62
     2
100
AcDbLine
 10
895.5
 20
1812.0
 30
0.0
 11
907.364072
 21
1812.0
 31
0.0
  0
LINE
  5
148
100
AcDbEntity
  8
化粧台
  6
CONTINUOUS
 62
     2
100
AcDbLine
 10
932.635928
 20
1812.0
 30
0.0
 11
944.5
 21
1812.0
 31
0.0
  0
LINE
  5
149
100
AcDbEntity
  8
化粧台
  6
CONTINUOUS
 62
     2
100
AcDbLine
 10
906.155627
 20
1810.0
 30
0.0
 11
895.5
 21
1810.0
 31
0.0
  0
LINE
  5
14A
100
AcDbEntity
  8
化粧台
  6
CONTINUOUS
 62
     2
100
AcDbLine
 10
944.5
 20
1810.0
 30
0.0
 11
933.844373
 21
1810.0
 31
0.0
  0
LINE
  5
14B
100
AcDbEntity
  8
化粧台
  6
CONTINUOUS
 62
     2
100
AcDbLine
 10
895.5
 20
1852.0
 30
0.0
 11
895.5
 21
1812.0
 31
0.0
  0
ARC
  5
14C
100
AcDbEntity
  8
化粧台
  6
CONTINUOUS
 62
     2
100
AcDbCircle
 10
897.5
 20
1852.0
 30
0.0
 40
2.0
100
AcDbArc
 50
90.0
 51
180.0
  0
LINE
  5
14D
100
AcDbEntity
  8
化粧台
  6
CONTINUOUS
 62
     2
100
AcDbLine
 10
944.5
 20
1852.0
 30
0.0
 11
944.5
 21
1812.0
 31
0.0
  0
LINE
  5
14E
100
AcDbEntity
  8
化粧台
  6
CONTINUOUS
 62
     2
100
AcDbLine
 10
897.5
 20
1854.0
 30
0.0
 11
942.5
 21
1854.0
 31
0.0
  0
ARC
  5
14F
100
AcDbEntity
  8
化粧台
  6
CONTINUOUS
 62
     2
100
AcDbCircle
 10
942.5
 20
1852.0
 30
0.0
 40
2.0
100
AcDbArc
 50
0.0
 51
90.0
  0
LINE
  5
150
100
AcDbEntity
  8
化粧台
  6
CONTINUOUS
 62
     2
100
AcDbLine
 10
895.5
 20
1810.0
 30
0.0
 11
895.5
 21
1726.0
 31
0.0
  0
LINE
  5
151
100
AcDbEntity
  8
化粧台
  6
CONTINUOUS
 62
     2
100
AcDbLine
 10
944.5
 20
1810.0
 30
0.0
 11
944.5
 21
1726.0
 31
0.0
  0
ELLIPSE
  5
152
100
AcDbEntity
  8
化粧台
  6
CONTINUOUS
 62
     6
100
AcDbEllipse
 10
920.0
 20
1765.0
 30
0.0
 11
15.000000000000009
 21
0.0
 31
0.0
210
0.0
220
0.0
230
1.0
 40
0.866025
 41
3.1415926535897931
 42
0.0
  0
LINE
  5
153
100
AcDbEntity
  8
化粧台
  6
EXLTYPE2
 62
     6
100
AcDbLine
 10
879.38673
 20
1555.292893
 30
0.0
 11
875.0
 21
1586.0
 31
0.0
  0
ARC
  5
154
100
AcDbEntity
  8
化粧台
  6
EXLTYPE2
 62
     6
100
AcDbCircle
 10
884.336477
 20
1556.0
 30
0.0
 40
5.0
100
AcDbArc
 50
188.130102
 51
270.0
  0
LINE
  5
155
100
AcDbEntity
  8
化粧台
  6
EXLTYPE2
 62
     6
100
AcDbLine
 10
960.61327
 20
1555.292893
 30
0.0
 11
965.0
 21
1586.0
 31
0.0
  0
LINE
  5
156
100
AcDbEntity
  8
化粧台
  6
EXLTYPE2
 62
     6
100
AcDbLine
 10
884.336477
 20
1551.0
 30
0.0
 11
955.663523
 21
1551.0
 31
0.0
  0
ARC
  5
157
100
AcDbEntity
  8
化粧台
  6
EXLTYPE2
 62
     6
100
AcDbCircle
 10
955.663523
 20
1556.0
 30
0.0
 40
5.0
100
AcDbArc
 50
270.0
 51
351.869898
  0
ARC
  5
158
100
AcDbEntity
  8
化粧台
  6
EXLTYPE2
 62
     6
100
AcDbCircle
 10
765.188889
 20
1481.0
 30
0.0
 40
174.511111
100
AcDbArc
 50
351.763621
 51
8.236379
  0
LINE
  5
159
100
AcDbEntity
  8
化粧台
  6
EXLTYPE2
 62
     6
100
AcDbLine
 10
937.9
 20
1456.0
 30
0.0
 11
935.8
 21
1453.9
 31
0.0
  0
ARC
  5
15A
100
AcDbEntity
  8
化粧台
  6
EXLTYPE2
 62
     6
100
AcDbCircle
 10
1074.811111
 20
1481.0
 30
0.0
 40
174.511111
100
AcDbArc
 50
171.763621
 51
188.236379
  0
LINE
  5
15B
100
AcDbEntity
  8
化粧台
  6
EXLTYPE2
 62
     6
100
AcDbLine
 10
902.1
 20
1456.0
 30
0.0
 11
904.2
 21
1453.9
 31
0.0
  0
LINE
  5
15C
100
AcDbEntity
  8
化粧台
  6
EXLTYPE2
 62
     6
100
AcDbLine
 10
893.75
 20
1526.5
 30
0.0
 11
946.25
 21
1526.5
 31
0.0
  0
ARC
  5
15D
100
AcDbEntity
  8
化粧台
  6
EXLTYPE2
 62
     6
100
AcDbCircle
 10
896.75
 20
1510.5
 30
0.0
 40
3.0
100
AcDbArc
 50
180.0
 51
270.0
  0
ARC
  5
15E
100
AcDbEntity
  8
化粧台
  6
EXLTYPE2
 62
     6
100
AcDbCircle
 10
943.25
 20
1510.5
 30
0.0
 40
3.0
100
AcDbArc
 50
270.0
 51
0.0
  0
LINE
  5
15F
100
AcDbEntity
  8
化粧台
  6
EXLTYPE2
 62
     6
100
AcDbLine
 10
946.25
 20
1526.5
 30
0.0
 11
946.25
 21
1510.5
 31
0.0
  0
LINE
  5
160
100
AcDbEntity
  8
化粧台
  6
EXLTYPE2
 62
     6
100
AcDbLine
 10
896.75
 20
1507.5
 30
0.0
 11
943.25
 21
1507.5
 31
0.0
  0
LINE
  5
161
100
AcDbEntity
  8
化粧台
  6
EXLTYPE2
 62
     6
100
AcDbLine
 10
893.75
 20
1526.5
 30
0.0
 11
893.75
 21
1510.5
 31
0.0
  0
LINE
  5
162
100
AcDbEntity
  8
化粧台
  6
EXLTYPE2
 62
     6
100
AcDbLine
 10
902.1
 20
1506.0
 30
0.0
 11
902.1
 21
1507.5
 31
0.0
  0
LINE
  5
163
100
AcDbEntity
  8
化粧台
  6
EXLTYPE2
 62
     6
100
AcDbLine
 10
937.9
 20
1506.0
 30
0.0
 11
937.9
 21
1507.5
 31
0.0
  0
LINE
  5
164
100
AcDbEntity
  8
化粧台
  6
EXLTYPE2
 62
     6
100
AcDbLine
 10
891.7
 20
1541.7
 30
0.0
 11
948.3
 21
1541.7
 31
0.0
  0
LINE
  5
165
100
AcDbEntity
  8
化粧台
  6
EXLTYPE2
 62
     6
100
AcDbLine
 10
894.5
 20
1541.7
 30
0.0
 11
894.5
 21
1533.9
 31
0.0
  0
LINE
  5
166
100
AcDbEntity
  8
化粧台
  6
EXLTYPE2
 62
     6
100
AcDbLine
 10
945.5
 20
1541.7
 30
0.0
 11
945.5
 21
1533.9
 31
0.0
  0
LINE
  5
167
100
AcDbEntity
  8
化粧台
  6
EXLTYPE2
 62
     6
100
AcDbLine
 10
948.3
 20
1545.2
 30
0.0
 11
948.3
 21
1541.7
 31
0.0
  0
LINE
  5
168
100
AcDbEntity
  8
化粧台
  6
EXLTYPE2
 62
     6
100
AcDbLine
 10
894.5
 20
1533.9
 30
0.0
 11
945.5
 21
1533.9
 31
0.0
  0
LINE
  5
169
100
AcDbEntity
  8
化粧台
  6
EXLTYPE2
 62
     6
100
AcDbLine
 10
891.7
 20
1545.2
 30
0.0
 11
891.7
 21
1541.7
 31
0.0
  0
LINE
  5
16A
100
AcDbEntity
  8
化粧台
  6
EXLTYPE2
 62
     6
100
AcDbLine
 10
896.5
 20
1533.9
 30
0.0
 11
896.5
 21
1526.5
 31
0.0
  0
LINE
  5
16B
100
AcDbEntity
  8
化粧台
  6
EXLTYPE2
 62
     6
100
AcDbLine
 10
943.5
 20
1533.9
 30
0.0
 11
943.5
 21
1526.5
 31
0.0
  0
LINE
  5
16C
100
AcDbEntity
  8
化粧台
  6
EXLTYPE2
 62
     6
100
AcDbLine
 10
891.5
 20
1545.7
 30
0.0
 11
891.5
 21
1547.7
 31
0.0
  0
LINE
  5
16D
100
AcDbEntity
  8
化粧台
  6
EXLTYPE2
 62
     6
100
AcDbLine
 10
948.5
 20
1545.7
 30
0.0
 11
948.5
 21
1547.7
 31
0.0
  0
LINE
  5
16E
100
AcDbEntity
  8
化粧台
  6
EXLTYPE2
 62
     6
100
AcDbLine
 10
896.725
 20
1551.0
 30
0.0
 11
891.5
 21
1547.7
 31
0.0
  0
LINE
  5
16F
100
AcDbEntity
  8
化粧台
  6
EXLTYPE2
 62
     6
100
AcDbLine
 10
943.275
 20
1551.0
 30
0.0
 11
948.5
 21
1547.7
 31
0.0
  0
LINE
  5
170
100
AcDbEntity
  8
化粧台
  6
EXLTYPE2
 62
     6
100
AcDbLine
 10
891.5
 20
1547.7
 30
0.0
 11
948.5
 21
1547.7
 31
0.0
  0
LINE
  5
171
100
AcDbEntity
  8
化粧台
  6
EXLTYPE2
 62
     6
100
AcDbLine
 10
891.5
 20
1545.7
 30
0.0
 11
948.5
 21
1545.7
 31
0.0
  0
LINE
  5
172
100
AcDbEntity
  8
化粧台
  6
EXLTYPE2
 62
     6
100
AcDbLine
 10
891.7
 20
1545.2
 30
0.0
 11
948.3
 21
1545.2
 31
0.0
  0
LINE
  5
173
100
AcDbEntity
  8
化粧台
  6
EXLTYPE2
 62
     6
100
AcDbLine
 10
896.620795
 20
1541.7
 30
0.0
 11
896.620795
 21
1533.9
 31
0.0
  0
LINE
  5
174
100
AcDbEntity
  8
化粧台
  6
EXLTYPE2
 62
     6
100
AcDbLine
 10
917.879205
 20
1541.7
 30
0.0
 11
917.879205
 21
1533.9
 31
0.0
  0
LINE
  5
175
100
AcDbEntity
  8
化粧台
  6
EXLTYPE2
 62
     6
100
AcDbLine
 10
922.120795
 20
1541.7
 30
0.0
 11
922.120795
 21
1533.9
 31
0.0
  0
LINE
  5
176
100
AcDbEntity
  8
化粧台
  6
EXLTYPE2
 62
     6
100
AcDbLine
 10
943.379205
 20
1541.7
 30
0.0
 11
943.379205
 21
1533.9
 31
0.0
  0
LINE
  5
177
100
AcDbEntity
  8
化粧台
  6
EXLTYPE2
 62
     6
100
AcDbLine
 10
908.328204
 20
1526.5
 30
0.0
 11
908.328204
 21
1510.5
 31
0.0
  0
LINE
  5
178
100
AcDbEntity
  8
化粧台
  6
EXLTYPE2
 62
     6
100
AcDbLine
 10
910.256412
 20
1526.5
 30
0.0
 11
910.256412
 21
1510.5
 31
0.0
  0
LINE
  5
179
100
AcDbEntity
  8
化粧台
  6
EXLTYPE2
 62
     6
100
AcDbLine
 10
929.743588
 20
1526.5
 30
0.0
 11
929.743588
 21
1510.5
 31
0.0
  0
LINE
  5
17A
100
AcDbEntity
  8
化粧台
  6
EXLTYPE2
 62
     6
100
AcDbLine
 10
931.671796
 20
1526.5
 30
0.0
 11
931.671796
 21
1510.5
 31
0.0
  0
LINE
  5
17B
100
AcDbEntity
  8
化粧台
  6
EXLTYPE2
 62
     6
100
AcDbLine
 10
902.1
 20
1506.0
 30
0.0
 11
937.9
 21
1506.0
 31
0.0
  0
LINE
  5
17C
100
AcDbEntity
  8
化粧台
  6
EXLTYPE2
 62
     6
100
AcDbLine
 10
902.1
 20
1456.0
 30
0.0
 11
937.9
 21
1456.0
 31
0.0
  0
LINE
  5
17D
100
AcDbEntity
  8
化粧台
  6
EXLTYPE2
 62
     6
100
AcDbLine
 10
904.2
 20
1453.9
 30
0.0
 11
935.8
 21
1453.9
 31
0.0
  0
LINE
  5
17E
100
AcDbEntity
  8
化粧台
  6
EXLTYPE2
 62
     6
100
AcDbLine
 10
920.0
 20
1367.5
 30
0.0
 11
939.0
 21
1386.5
 31
0.0
  0
ARC
  5
17F
100
AcDbEntity
  8
化粧台
  6
EXLTYPE2
 62
     6
100
AcDbCircle
 10
954.0
 20
1401.5
 30
0.0
 40
15.0
100
AcDbArc
 50
180.0
 51
270.0
  0
LINE
  5
180
100
AcDbEntity
  8
化粧台
  6
EXLTYPE2
 62
     6
100
AcDbLine
 10
938.0
 20
1348.5
 30
0.0
 11
938.0
 21
1385.5
 31
0.0
  0
LINE
  5
181
100
AcDbEntity
  8
化粧台
  6
EXLTYPE2
 62
     6
100
AcDbLine
 10
901.0
 20
1385.5
 30
0.0
 11
938.0
 21
1385.5
 31
0.0
  0
LINE
  5
182
100
AcDbEntity
  8
化粧台
  6
EXLTYPE2
 62
     6
100
AcDbLine
 10
903.75
 20
1382.5
 30
0.0
 11
935.0
 21
1382.5
 31
0.0
  0
LINE
  5
183
100
AcDbEntity
  8
化粧台
  6
EXLTYPE2
 62
     6
100
AcDbLine
 10
935.0
 20
1351.25
 30
0.0
 11
935.0
 21
1382.5
 31
0.0
  0
LINE
  5
184
100
AcDbEntity
  8
化粧台
  6
EXLTYPE2
 62
     6
100
AcDbLine
 10
956.7
 20
1348.5
 30
0.0
 11
938.0
 21
1348.5
 31
0.0
  0
LINE
  5
185
100
AcDbEntity
  8
化粧台
  6
EXLTYPE2
 62
     6
100
AcDbLine
 10
901.0
 20
1385.5
 30
0.0
 11
901.0
 21
1404.2
 31
0.0
  0
LINE
  5
186
100
AcDbEntity
  8
化粧台
  6
EXLTYPE2
 62
     6
100
AcDbLine
 10
903.75
 20
1367.5
 30
0.0
 11
903.75
 21
1382.5
 31
0.0
  0
LINE
  5
187
100
AcDbEntity
  8
化粧台
  6
EXLTYPE2
 62
     6
100
AcDbLine
 10
920.0
 20
1351.25
 30
0.0
 11
935.0
 21
1351.25
 31
0.0
  0
ARC
  5
188
100
AcDbEntity
  8
化粧台
  6
EXLTYPE2
 62
     6
100
AcDbCircle
 10
920.0
 20
1367.5
 30
0.0
 40
16.25
100
AcDbArc
 50
180.0
 51
270.0
  0
LINE
  5
189
100
AcDbEntity
  8
化粧台
  6
EXLTYPE2
 62
     6
100
AcDbLine
 10
938.0
 20
1348.5
 30
0.0
 11
935.0
 21
1351.25
 31
0.0
  0
LINE
  5
18A
100
AcDbEntity
  8
化粧台
  6
EXLTYPE2
 62
     6
100
AcDbLine
 10
901.0
 20
1385.5
 30
0.0
 11
903.75
 21
1382.5
 31
0.0
  0
LINE
  5
18B
100
AcDbEntity
  8
化粧台
  6
EXLTYPE2
 62
     6
100
AcDbLine
 10
956.7
 20
1386.5
 30
0.0
 11
939.0
 21
1386.5
 31
0.0
  0
LINE
  5
18C
100
AcDbEntity
  8
化粧台
  6
EXLTYPE2
 62
     6
100
AcDbLine
 10
939.0
 20
1386.5
 30
0.0
 11
939.0
 21
1404.2
 31
0.0
  0
LINE
  5
18D
100
AcDbEntity
  8
化粧台
  6
EXLTYPE2
 62
     6
100
AcDbLine
 10
974.5
 20
1390.3
 30
0.0
 11
956.7
 21
1390.3
 31
0.0
  0
LINE
  5
18E
100
AcDbEntity
  8
化粧台
  6
EXLTYPE2
 62
     6
100
AcDbLine
 10
974.5
 20
1344.7
 30
0.0
 11
956.7
 21
1344.7
 31
0.0
  0
LINE
  5
18F
100
AcDbEntity
  8
化粧台
  6
EXLTYPE2
 62
     6
100
AcDbLine
 10
974.5
 20
1390.3
 30
0.0
 11
974.5
 21
1344.7
 31
0.0
  0
LINE
  5
190
100
AcDbEntity
  8
化粧台
  6
EXLTYPE2
 62
     6
100
AcDbLine
 10
956.7
 20
1390.3
 30
0.0
 11
956.7
 21
1344.7
 31
0.0
  0
LINE
  5
191
100
AcDbEntity
  8
化粧台
  6
EXLTYPE2
 62
     6
100
AcDbLine
 10
897.2
 20
1422.0
 30
0.0
 11
897.2
 21
1404.2
 31
0.0
  0
LINE
  5
192
100
AcDbEntity
  8
化粧台
  6
EXLTYPE2
 62
     6
100
AcDbLine
 10
942.8
 20
1422.0
 30
0.0
 11
942.8
 21
1404.2
 31
0.0
  0
LINE
  5
193
100
AcDbEntity
  8
化粧台
  6
EXLTYPE2
 62
     6
100
AcDbLine
 10
897.2
 20
1422.0
 30
0.0
 11
942.8
 21
1422.0
 31
0.0
  0
LINE
  5
194
100
AcDbEntity
  8
化粧台
  6
EXLTYPE2
 62
     6
100
AcDbLine
 10
897.2
 20
1404.2
 30
0.0
 11
942.8
 21
1404.2
 31
0.0
  0
LINE
  5
195
100
AcDbEntity
  8
化粧台
  6
EXLTYPE2
 62
     6
100
AcDbLine
 10
941.643357
 20
1420.0
 30
0.0
 11
941.643357
 21
1404.2
 31
0.0
  0
LINE
  5
196
100
AcDbEntity
  8
化粧台
  6
EXLTYPE2
 62
     6
100
AcDbLine
 10
898.356643
 20
1420.0
 30
0.0
 11
898.356643
 21
1404.2
 31
0.0
  0
LINE
  5
197
100
AcDbEntity
  8
化粧台
  6
EXLTYPE2
 62
     6
100
AcDbLine
 10
930.600712
 20
1420.0
 30
0.0
 11
930.600712
 21
1404.2
 31
0.0
  0
LINE
  5
198
100
AcDbEntity
  8
化粧台
  6
EXLTYPE2
 62
     6
100
AcDbLine
 10
927.808329
 20
1420.0
 30
0.0
 11
927.808329
 21
1404.2
 31
0.0
  0
LINE
  5
199
100
AcDbEntity
  8
化粧台
  6
EXLTYPE2
 62
     6
100
AcDbLine
 10
912.191671
 20
1420.0
 30
0.0
 11
912.191671
 21
1404.2
 31
0.0
  0
LINE
  5
19A
100
AcDbEntity
  8
化粧台
  6
EXLTYPE2
 62
     6
100
AcDbLine
 10
909.399288
 20
1420.0
 30
0.0
 11
909.399288
 21
1404.2
 31
0.0
  0
LINE
  5
19B
100
AcDbEntity
  8
化粧台
  6
EXLTYPE2
 62
     6
100
AcDbLine
 10
972.5
 20
1345.856643
 30
0.0
 11
956.7
 21
1345.856643
 31
0.0
  0
LINE
  5
19C
100
AcDbEntity
  8
化粧台
  6
EXLTYPE2
 62
     6
100
AcDbLine
 10
972.5
 20
1389.143357
 30
0.0
 11
956.7
 21
1389.143357
 31
0.0
  0
LINE
  5
19D
100
AcDbEntity
  8
化粧台
  6
EXLTYPE2
 62
     6
100
AcDbLine
 10
972.5
 20
1356.899288
 30
0.0
 11
956.7
 21
1356.899288
 31
0.0
  0
LINE
  5
19E
100
AcDbEntity
  8
化粧台
  6
EXLTYPE2
 62
     6
100
AcDbLine
 10
972.5
 20
1359.691671
 30
0.0
 11
956.7
 21
1359.691671
 31
0.0
  0
LINE
  5
19F
100
AcDbEntity
  8
化粧台
  6
EXLTYPE2
 62
     6
100
AcDbLine
 10
972.5
 20
1375.308329
 30
0.0
 11
956.7
 21
1375.308329
 31
0.0
  0
LINE
  5
1A0
100
AcDbEntity
  8
化粧台
  6
EXLTYPE2
 62
     6
100
AcDbLine
 10
972.5
 20
1378.100712
 30
0.0
 11
956.7
 21
1378.100712
 31
0.0
  0
LINE
  5
1A1
100
AcDbEntity
  8
化粧台
  6
EXLTYPE2
 62
     6
100
AcDbLine
 10
904.2
 20
1453.9
 30
0.0
 11
904.2
 21
1422.0
 31
0.0
  0
LINE
  5
1A2
100
AcDbEntity
  8
化粧台
  6
EXLTYPE2
 62
     6
100
AcDbLine
 10
935.8
 20
1453.9
 30
0.0
 11
935.8
 21
1422.0
 31
0.0
  0
ARC
  5
1A3
100
AcDbEntity
  8
化粧台
  6
EXLTYPE2
 62
     6
100
AcDbCircle
 10
1054.0
 20
1351.5
 30
0.0
 40
32.0
100
AcDbArc
 50
0.0
 51
90.0
  0
LINE
  5
1A4
100
AcDbEntity
  8
化粧台
  6
EXLTYPE2
 62
     6
100
AcDbLine
 10
1054.0
 20
1383.5
 30
0.0
 11
974.5
 21
1383.5
 31
0.0
  0
LINE
  5
1A5
100
AcDbEntity
  8
化粧台
  6
EXLTYPE2
 62
     6
100
AcDbLine
 10
1054.0
 20
1351.5
 30
0.0
 11
974.5
 21
1351.5
 31
0.0
  0
LINE
  5
1A6
100
AcDbEntity
  8
化粧台
  6
EXLTYPE2
 62
     6
100
AcDbLine
 10
1054.0
 20
1320.5
 30
0.0
 11
1054.0
 21
1351.5
 31
0.0
  0
LINE
  5
1A7
100
AcDbEntity
  8
化粧台
  6
EXLTYPE2
 62
     6
100
AcDbLine
 10
1086.0
 20
1320.5
 30
0.0
 11
1086.0
 21
1351.5
 31
0.0
  0
LINE
  5
1A8
100
AcDbEntity
  8
化粧台
  6
EXLTYPE2
 62
     6
100
AcDbLine
 10
982.0
 20
1341.0
 30
0.0
 11
982.0
 21
1330.0
 31
0.0
  0
LINE
  5
1A9
100
AcDbEntity
  8
化粧台
  6
EXLTYPE2
 62
     6
100
AcDbLine
 10
1008.0
 20
1341.0
 30
0.0
 11
1008.0
 21
1330.0
 31
0.0
  0
LINE
  5
1AA
100
AcDbEntity
  8
化粧台
  6
EXLTYPE2
 62
     6
100
AcDbLine
 10
982.0
 20
1341.0
 30
0.0
 11
1008.0
 21
1341.0
 31
0.0
  0
LINE
  5
1AB
100
AcDbEntity
  8
化粧台
  6
EXLTYPE2
 62
     6
100
AcDbLine
 10
1005.0
 20
1370.0
 30
0.0
 11
1005.0
 21
1341.0
 31
0.0
  0
LINE
  5
1AC
100
AcDbEntity
  8
化粧台
  6
EXLTYPE2
 62
     6
100
AcDbLine
 10
985.0
 20
1370.0
 30
0.0
 11
985.0
 21
1341.0
 31
0.0
  0
LINE
  5
1AD
100
AcDbEntity
  8
化粧台
  6
EXLTYPE2
 62
     6
100
AcDbLine
 10
980.5
 20
1384.0
 30
0.0
 11
1009.5
 21
1384.0
 31
0.0
  0
LINE
  5
1AE
100
AcDbEntity
  8
化粧台
  6
EXLTYPE2
 62
     6
100
AcDbLine
 10
980.5
 20
1370.0
 30
0.0
 11
980.5
 21
1384.0
 31
0.0
  0
LINE
  5
1AF
100
AcDbEntity
  8
化粧台
  6
EXLTYPE2
 62
     6
100
AcDbLine
 10
1009.5
 20
1370.0
 30
0.0
 11
1009.5
 21
1384.0
 31
0.0
  0
LINE
  5
1B0
100
AcDbEntity
  8
化粧台
  6
EXLTYPE2
 62
     6
100
AcDbLine
 10
980.5
 20
1370.0
 30
0.0
 11
1009.5
 21
1370.0
 31
0.0
  0
LINE
  5
1B1
100
AcDbEntity
  8
化粧台
  6
EXLTYPE2
 62
     6
100
AcDbLine
 10
858.0
 20
1301.163691
 30
0.0
 11
858.0
 21
1312.836309
 31
0.0
  0
LINE
  5
1B2
100
AcDbEntity
  8
化粧台
  6
EXLTYPE2
 62
     6
100
AcDbLine
 10
856.554392
 20
1315.340176
 30
0.0
 11
846.445608
 21
1321.176485
 31
0.0
  0
LINE
  5
1B3
100
AcDbEntity
  8
化粧台
  6
EXLTYPE2
 62
     6
100
AcDbLine
 10
843.554392
 20
1321.176485
 30
0.0
 11
833.445608
 21
1315.340176
 31
0.0
  0
LINE
  5
1B4
100
AcDbEntity
  8
化粧台
  6
EXLTYPE2
 62
     6
100
AcDbLine
 10
832.0
 20
1312.836309
 30
0.0
 11
832.0
 21
1301.163691
 31
0.0
  0
LINE
  5
1B5
100
AcDbEntity
  8
化粧台
  6
EXLTYPE2
 62
     6
100
AcDbLine
 10
833.445608
 20
1298.659824
 30
0.0
 11
843.554392
 21
1292.823515
 31
0.0
  0
LINE
  5
1B6
100
AcDbEntity
  8
化粧台
  6
EXLTYPE2
 62
     6
100
AcDbLine
 10
846.445608
 20
1292.823515
 30
0.0
 11
856.554392
 21
1298.659824
 31
0.0
  0
ARC
  5
1B7
100
AcDbEntity
  8
化粧台
  6
EXLTYPE2
 62
     6
100
AcDbCircle
 10
845.0
 20
1307.0
 30
0.0
 40
14.25
100
AcDbArc
 50
264.177545
 51
275.822455
  0
ARC
  5
1B8
100
AcDbEntity
  8
化粧台
  6
EXLTYPE2
 62
     6
100
AcDbCircle
 10
845.0
 20
1307.0
 30
0.0
 40
14.25
100
AcDbArc
 50
324.177545
 51
335.822455
  0
ARC
  5
1B9
100
AcDbEntity
  8
化粧台
  6
EXLTYPE2
 62
     6
100
AcDbCircle
 10
845.0
 20
1307.0
 30
0.0
 40
14.25
100
AcDbArc
 50
24.177545
 51
35.822455
  0
ARC
  5
1BA
100
AcDbEntity
  8
化粧台
  6
EXLTYPE2
 62
     6
100
AcDbCircle
 10
845.0
 20
1307.0
 30
0.0
 40
14.25
100
AcDbArc
 50
144.177545
 51
155.822455
  0
ARC
  5
1BB
100
AcDbEntity
  8
化粧台
  6
EXLTYPE2
 62
     6
100
AcDbCircle
 10
845.0
 20
1307.0
 30
0.0
 40
14.25
100
AcDbArc
 50
204.177545
 51
215.822455
  0
CIRCLE
  5
1BC
100
AcDbEntity
  8
化粧台
  6
EXLTYPE2
 62
     6
100
AcDbCircle
 10
845.0
 20
1307.0
 30
0.0
 40
4.75
  0
CIRCLE
  5
1BD
100
AcDbEntity
  8
化粧台
  6
EXLTYPE2
 62
     6
100
AcDbCircle
 10
845.0
 20
1307.0
 30
0.0
 40
12.074349
  0
LINE
  5
1BE
100
AcDbEntity
  8
化粧台
  6
EXLTYPE2
 62
     6
100
AcDbLine
 10
834.5
 20
1330.0
 30
0.0
 11
834.5
 21
1315.948929
 31
0.0
  0
LINE
  5
1BF
100
AcDbEntity
  8
化粧台
  6
EXLTYPE2
 62
     6
100
AcDbLine
 10
855.5
 20
1330.0
 30
0.0
 11
855.5
 21
1315.948929
 31
0.0
  0
ARC
  5
1C0
100
AcDbEntity
  8
化粧台
  6
EXLTYPE2
 62
     6
100
AcDbCircle
 10
845.0
 20
1307.0
 30
0.0
 40
14.25
100
AcDbArc
 50
84.177545
 51
95.822455
  0
LINE
  5
1C1
100
AcDbEntity
  8
化粧台
  6
EXLTYPE2
 62
     6
100
AcDbLine
 10
832.0
 20
1341.0
 30
0.0
 11
832.0
 21
1330.0
 31
0.0
  0
LINE
  5
1C2
100
AcDbEntity
  8
化粧台
  6
EXLTYPE2
 62
     6
100
AcDbLine
 10
858.0
 20
1341.0
 30
0.0
 11
858.0
 21
1330.0
 31
0.0
  0
LINE
  5
1C3
100
AcDbEntity
  8
化粧台
  6
EXLTYPE2
 62
     6
100
AcDbLine
 10
832.0
 20
1341.0
 30
0.0
 11
858.0
 21
1341.0
 31
0.0
  0
LINE
  5
1C4
100
AcDbEntity
  8
化粧台
  6
EXLTYPE2
 62
     6
100
AcDbLine
 10
855.0
 20
1370.0
 30
0.0
 11
855.0
 21
1341.0
 31
0.0
  0
LINE
  5
1C5
100
AcDbEntity
  8
化粧台
  6
EXLTYPE2
 62
     6
100
AcDbLine
 10
835.0
 20
1370.0
 30
0.0
 11
835.0
 21
1341.0
 31
0.0
  0
LINE
  5
1C6
100
AcDbEntity
  8
化粧台
  6
EXLTYPE2
 62
     6
100
AcDbLine
 10
830.5
 20
1384.0
 30
0.0
 11
859.5
 21
1384.0
 31
0.0
  0
LINE
  5
1C7
100
AcDbEntity
  8
化粧台
  6
EXLTYPE2
 62
     6
100
AcDbLine
 10
830.5
 20
1370.0
 30
0.0
 11
830.5
 21
1384.0
 31
0.0
  0
LINE
  5
1C8
100
AcDbEntity
  8
化粧台
  6
EXLTYPE2
 62
     6
100
AcDbLine
 10
859.5
 20
1370.0
 30
0.0
 11
859.5
 21
1384.0
 31
0.0
  0
LINE
  5
1C9
100
AcDbEntity
  8
化粧台
  6
EXLTYPE2
 62
     6
100
AcDbLine
 10
830.5
 20
1370.0
 30
0.0
 11
859.5
 21
1370.0
 31
0.0
  0
LINE
  5
1CA
100
AcDbEntity
  8
化粧台
  6
EXLTYPE2
 62
     6
100
AcDbLine
 10
832.0
 20
1330.0
 30
0.0
 11
858.0
 21
1330.0
 31
0.0
  0
LINE
  5
1CB
100
AcDbEntity
  8
化粧台
  6
EXLTYPE2
 62
     6
100
AcDbLine
 10
839.0
 20
1434.874225
 30
0.0
 11
839.0
 21
1384.0
 31
0.0
  0
LINE
  5
1CC
100
AcDbEntity
  8
化粧台
  6
EXLTYPE2
 62
     6
100
AcDbLine
 10
851.0
 20
1384.0
 30
0.0
 11
851.0
 21
1434.874225
 31
0.0
  0
ARC
  5
1CD
100
AcDbEntity
  8
化粧台
  6
EXLTYPE2
 62
     6
100
AcDbCircle
 10
1051.0
 20
1434.874225
 30
0.0
 40
200.0
100
AcDbArc
 50
144.505213
 51
180.0
  0
ARC
  5
1CE
100
AcDbEntity
  8
化粧台
  6
EXLTYPE2
 62
     6
100
AcDbCircle
 10
1051.0
 20
1434.874225
 30
0.0
 40
212.0
100
AcDbArc
 50
144.269819
 51
180.0
  0
ARC
  5
1CF
100
AcDbEntity
  8
化粧台
  6
EXLTYPE2
 62
     6
100
AcDbCircle
 10
789.0
 20
1434.874225
 30
0.0
 40
200.0
100
AcDbArc
 50
0.0
 51
35.494787
  0
ARC
  5
1D0
100
AcDbEntity
  8
化粧台
  6
EXLTYPE2
 62
     6
100
AcDbCircle
 10
789.0
 20
1434.874225
 30
0.0
 40
212.0
100
AcDbArc
 50
0.0
 51
35.730181
  0
LINE
  5
1D1
100
AcDbEntity
  8
化粧台
  6
EXLTYPE2
 62
     6
100
AcDbLine
 10
989.0
 20
1434.874225
 30
0.0
 11
989.0
 21
1384.0
 31
0.0
  0
LINE
  5
1D2
100
AcDbEntity
  8
化粧台
  6
EXLTYPE2
 62
     6
100
AcDbLine
 10
1001.0
 20
1384.0
 30
0.0
 11
1001.0
 21
1434.874225
 31
0.0
  0
ARC
  5
1D3
100
AcDbEntity
  8
化粧台
  6
EXLTYPE2
 62
     6
100
AcDbCircle
 10
1128.678125
 20
1274.328125
 30
0.0
 40
15.471875
100
AcDbArc
 50
0.0
 51
180.0
  0
ARC
  5
1D4
100
AcDbEntity
  8
化粧台
  6
EXLTYPE2
 62
     6
100
AcDbCircle
 10
1128.678125
 20
1274.328125
 30
0.0
 40
47.171875
100
AcDbArc
 50
0.0
 51
138.405648
  0
LINE
  5
1D5
100
AcDbEntity
  8
化粧台
  6
EXLTYPE2
 62
     6
100
AcDbLine
 10
1137.2
 20
949.2
 30
0.0
 11
1182.8
 21
949.2
 31
0.0
  0
LINE
  5
1D6
100
AcDbEntity
  8
化粧台
  6
EXLTYPE2
 62
     6
100
AcDbLine
 10
1137.2
 20
967.0
 30
0.0
 11
1182.8
 21
967.0
 31
0.0
  0
LINE
  5
1D7
100
AcDbEntity
  8
化粧台
  6
EXLTYPE2
 62
     6
100
AcDbLine
 10
1182.8
 20
967.0
 30
0.0
 11
1182.8
 21
949.2
 31
0.0
  0
LINE
  5
1D8
100
AcDbEntity
  8
化粧台
  6
EXLTYPE2
 62
     6
100
AcDbLine
 10
1137.2
 20
967.0
 30
0.0
 11
1137.2
 21
949.2
 31
0.0
  0
LINE
  5
1D9
100
AcDbEntity
  8
化粧台
  6
EXLTYPE2
 62
     6
100
AcDbLine
 10
1126.5
 20
909.0
 30
0.0
 11
1193.5
 21
909.0
 31
0.0
  0
LINE
  5
1DA
100
AcDbEntity
  8
化粧台
  6
EXLTYPE2
 62
     6
100
AcDbLine
 10
1139.3
 20
949.2
 30
0.0
 11
1139.3
 21
947.0
 31
0.0
  0
LINE
  5
1DB
100
AcDbEntity
  8
化粧台
  6
EXLTYPE2
 62
     6
100
AcDbLine
 10
1180.7
 20
949.2
 30
0.0
 11
1180.7
 21
947.0
 31
0.0
  0
LINE
  5
1DC
100
AcDbEntity
  8
化粧台
  6
EXLTYPE2
 62
     6
100
AcDbLine
 10
1193.5
 20
929.0
 30
0.0
 11
1193.5
 21
909.0
 31
0.0
  0
ARC
  5
1DD
100
AcDbEntity
  8
化粧台
  6
EXLTYPE2
 62
     6
100
AcDbCircle
 10
1190.5
 20
929.0
 30
0.0
 40
3.0
100
AcDbArc
 50
0.0
 51
90.0
  0
LINE
  5
1DE
100
AcDbEntity
  8
化粧台
  6
EXLTYPE2
 62
     6
100
AcDbLine
 10
1187.0
 20
944.0
 30
0.0
 11
1187.0
 21
932.0
 31
0.0
  0
ARC
  5
1DF
100
AcDbEntity
  8
化粧台
  6
EXLTYPE2
 62
     6
100
AcDbCircle
 10
1184.0
 20
944.0
 30
0.0
 40
3.0
100
AcDbArc
 50
0.0
 51
90.0
  0
LINE
  5
1E0
100
AcDbEntity
  8
化粧台
  6
EXLTYPE2
 62
     6
100
AcDbLine
 10
1133.0
 20
944.0
 30
0.0
 11
1133.0
 21
932.0
 31
0.0
  0
LINE
  5
1E1
100
AcDbEntity
  8
化粧台
  6
EXLTYPE2
 62
     6
100
AcDbLine
 10
1136.0
 20
947.0
 30
0.0
 11
1184.0
 21
947.0
 31
0.0
  0
ARC
  5
1E2
100
AcDbEntity
  8
化粧台
  6
EXLTYPE2
 62
     6
100
AcDbCircle
 10
1136.0
 20
944.0
 30
0.0
 40
3.0
100
AcDbArc
 50
90.0
 51
180.0
  0
LINE
  5
1E3
100
AcDbEntity
  8
化粧台
  6
EXLTYPE2
 62
     6
100
AcDbLine
 10
1126.5
 20
929.0
 30
0.0
 11
1126.5
 21
909.0
 31
0.0
  0
LINE
  5
1E4
100
AcDbEntity
  8
化粧台
  6
EXLTYPE2
 62
     6
100
AcDbLine
 10
1129.5
 20
932.0
 30
0.0
 11
1190.5
 21
932.0
 31
0.0
  0
ARC
  5
1E5
100
AcDbEntity
  8
化粧台
  6
EXLTYPE2
 62
     6
100
AcDbCircle
 10
1129.5
 20
929.0
 30
0.0
 40
3.0
100
AcDbArc
 50
90.0
 51
180.0
  0
LINE
  5
1E6
100
AcDbEntity
  8
化粧台
  6
EXLTYPE2
 62
     6
100
AcDbLine
 10
1149.399288
 20
965.0
 30
0.0
 11
1149.399288
 21
949.2
 31
0.0
  0
LINE
  5
1E7
100
AcDbEntity
  8
化粧台
  6
EXLTYPE2
 62
     6
100
AcDbLine
 10
1152.191671
 20
965.0
 30
0.0
 11
1152.191671
 21
949.2
 31
0.0
  0
LINE
  5
1E8
100
AcDbEntity
  8
化粧台
  6
EXLTYPE2
 62
     6
100
AcDbLine
 10
1167.808329
 20
965.0
 30
0.0
 11
1167.808329
 21
949.2
 31
0.0
  0
LINE
  5
1E9
100
AcDbEntity
  8
化粧台
  6
EXLTYPE2
 62
     6
100
AcDbLine
 10
1170.600712
 20
965.0
 30
0.0
 11
1170.600712
 21
949.2
 31
0.0
  0
LINE
  5
1EA
100
AcDbEntity
  8
化粧台
  6
EXLTYPE2
 62
     6
100
AcDbLine
 10
1138.356643
 20
965.0
 30
0.0
 11
1138.356643
 21
949.2
 31
0.0
  0
LINE
  5
1EB
100
AcDbEntity
  8
化粧台
  6
EXLTYPE2
 62
     6
100
AcDbLine
 10
1181.643357
 20
965.0
 30
0.0
 11
1181.643357
 21
949.2
 31
0.0
  0
LINE
  5
1EC
100
AcDbEntity
  8
化粧台
  6
EXLTYPE2
 62
     6
100
AcDbLine
 10
1175.85
 20
887.0
 30
0.0
 11
1175.85
 21
1274.328125
 31
0.0
  0
LINE
  5
1ED
100
AcDbEntity
  8
化粧台
  6
EXLTYPE2
 62
     6
100
AcDbLine
 10
1144.15
 20
1274.328125
 30
0.0
 11
1144.15
 21
887.0
 31
0.0
  0
LINE
  5
1EE
100
AcDbEntity
  8
化粧台
  6
EXLTYPE2
 62
     6
100
AcDbLine
 10
1051.5
 20
1302.5
 30
0.0
 11
1051.5
 21
1267.5
 31
0.0
  0
LINE
  5
1EF
100
AcDbEntity
  8
化粧台
  6
EXLTYPE2
 62
     6
100
AcDbLine
 10
1088.5
 20
1302.5
 30
0.0
 11
1088.5
 21
1267.5
 31
0.0
  0
LINE
  5
1F0
100
AcDbEntity
  8
化粧台
  6
EXLTYPE2
 62
     6
100
AcDbLine
 10
1054.15
 20
1264.85
 30
0.0
 11
1054.15
 21
1227.093255
 31
0.0
  0
LINE
  5
1F1
100
AcDbEntity
  8
化粧台
  6
EXLTYPE2
 62
     6
100
AcDbLine
 10
1085.85
 20
1264.85
 30
0.0
 11
1085.85
 21
1224.5
 31
0.0
  0
LINE
  5
1F2
100
AcDbEntity
  8
化粧台
  6
EXLTYPE2
 62
     6
100
AcDbLine
 10
1085.85
 20
1229.5
 30
0.0
 11
1101.178125
 21
1229.5
 31
0.0
  0
LINE
  5
1F3
100
AcDbEntity
  8
化粧台
  6
EXLTYPE2
 62
     6
100
AcDbLine
 10
1115.85625
 20
1254.5
 30
0.0
 11
1115.85625
 21
1224.5
 31
0.0
  0
LINE
  5
1F4
100
AcDbEntity
  8
化粧台
  6
EXLTYPE2
 62
     6
100
AcDbLine
 10
1066.178125
 20
1199.525322
 30
0.0
 11
1066.178125
 21
1195.0
 31
0.0
  0
LINE
  5
1F5
100
AcDbEntity
  8
化粧台
  6
EXLTYPE2
 62
     6
100
AcDbLine
 10
1101.178125
 20
1229.5
 30
0.0
 11
1101.178125
 21
1195.0
 31
0.0
  0
LINE
  5
1F6
100
AcDbEntity
  8
化粧台
  6
EXLTYPE2
 62
     6
100
AcDbLine
 10
1088.5
 20
1267.5
 30
0.0
 11
1085.85
 21
1264.85
 31
0.0
  0
LINE
  5
1F7
100
AcDbEntity
  8
化粧台
  6
EXLTYPE2
 62
     6
100
AcDbLine
 10
1051.5
 20
1267.5
 30
0.0
 11
1054.15
 21
1264.85
 31
0.0
  0
LINE
  5
1F8
100
AcDbEntity
  8
化粧台
  6
EXLTYPE2
 62
     6
100
AcDbLine
 10
1101.75625
 20
1224.5
 30
0.0
 11
1115.85625
 21
1224.5
 31
0.0
  0
LINE
  5
1F9
100
AcDbEntity
  8
化粧台
  6
EXLTYPE2
 62
     6
100
AcDbLine
 10
1046.6
 20
1302.5
 30
0.0
 11
1093.4
 21
1302.5
 31
0.0
  0
LINE
  5
1FA
100
AcDbEntity
  8
化粧台
  6
EXLTYPE2
 62
     6
100
AcDbLine
 10
1048.6
 20
1320.5
 30
0.0
 11
1091.4
 21
1320.5
 31
0.0
  0
LINE
  5
1FB
100
AcDbEntity
  8
化粧台
  6
EXLTYPE2
 62
     6
100
AcDbLine
 10
1046.6
 20
1318.5
 30
0.0
 11
1046.6
 21
1302.5
 31
0.0
  0
LINE
  5
1FC
100
AcDbEntity
  8
化粧台
  6
EXLTYPE2
 62
     6
100
AcDbLine
 10
1093.4
 20
1318.5
 30
0.0
 11
1093.4
 21
1302.5
 31
0.0
  0
ARC
  5
1FD
100
AcDbEntity
  8
化粧台
  6
EXLTYPE2
 62
     6
100
AcDbCircle
 10
1048.6
 20
1318.5
 30
0.0
 40
2.0
100
AcDbArc
 50
90.0
 51
180.0
  0
ARC
  5
1FE
100
AcDbEntity
  8
化粧台
  6
EXLTYPE2
 62
     6
100
AcDbCircle
 10
1091.4
 20
1318.5
 30
0.0
 40
2.0
100
AcDbArc
 50
0.0
 51
90.0
  0
LINE
  5
1FF
100
AcDbEntity
  8
化粧台
  6
EXLTYPE2
 62
     6
100
AcDbLine
 10
1085.85
 20
1254.5
 30
0.0
 11
1120.75625
 21
1254.5
 31
0.0
  0
LINE
  5
200
100
AcDbEntity
  8
化粧台
  6
EXLTYPE2
 62
     6
100
AcDbLine
 10
1088.5
 20
1272.5
 30
0.0
 11
1118.75625
 21
1272.5
 31
0.0
  0
LINE
  5
201
100
AcDbEntity
  8
化粧台
  6
EXLTYPE2
 62
     6
100
AcDbLine
 10
1120.75625
 20
1270.5
 30
0.0
 11
1120.75625
 21
1254.5
 31
0.0
  0
ARC
  5
202
100
AcDbEntity
  8
化粧台
  6
EXLTYPE2
 62
     6
100
AcDbCircle
 10
1118.75625
 20
1270.5
 30
0.0
 40
2.0
100
AcDbArc
 50
0.0
 51
90.0
  0
LINE
  5
203
100
AcDbEntity
  8
化粧台
  6
EXLTYPE2
 62
     6
100
AcDbLine
 10
1060.678125
 20
1195.0
 30
0.0
 11
1106.678125
 21
1195.0
 31
0.0
  0
LINE
  5
204
100
AcDbEntity
  8
化粧台
  6
EXLTYPE2
 62
     6
100
AcDbLine
 10
1062.178125
 20
1178.5
 30
0.0
 11
1105.178125
 21
1178.5
 31
0.0
  0
LINE
  5
205
100
AcDbEntity
  8
化粧台
  6
EXLTYPE2
 62
     6
100
AcDbLine
 10
1106.678125
 20
1180.0
 30
0.0
 11
1106.678125
 21
1195.0
 31
0.0
  0
LINE
  5
206
100
AcDbEntity
  8
化粧台
  6
EXLTYPE2
 62
     6
100
AcDbLine
 10
1060.678125
 20
1180.0
 30
0.0
 11
1060.678125
 21
1195.0
 31
0.0
  0
ARC
  5
207
100
AcDbEntity
  8
化粧台
  6
EXLTYPE2
 62
     6
100
AcDbCircle
 10
1062.178125
 20
1180.0
 30
0.0
 40
1.5
100
AcDbArc
 50
180.0
 51
270.0
  0
ARC
  5
208
100
AcDbEntity
  8
化粧台
  6
EXLTYPE2
 62
     6
100
AcDbCircle
 10
1105.178125
 20
1180.0
 30
0.0
 40
1.5
100
AcDbArc
 50
270.0
 51
0.0
  0
LINE
  5
209
100
AcDbEntity
  8
化粧台
  6
EXLTYPE2
 62
     6
100
AcDbLine
 10
1054.15
 20
1264.85
 30
0.0
 11
1085.85
 21
1264.85
 31
0.0
  0
ARC
  5
20A
100
AcDbEntity
  8
化粧台
  6
EXLTYPE2
 62
     6
100
AcDbCircle
 10
1094.15
 20
1227.093255
 30
0.0
 40
40.0
100
AcDbArc
 50
180.0
 51
216.143789
  0
ARC
  5
20B
100
AcDbEntity
  8
化粧台
  6
EXLTYPE2
 62
     6
100
AcDbCircle
 10
1073.961516
 20
1212.347912
 30
0.0
 40
15.0
100
AcDbArc
 50
216.143789
 51
310.373975
  0
ARC
  5
20C
100
AcDbEntity
  8
化粧台
  6
EXLTYPE2
 62
     6
100
AcDbCircle
 10
1071.595911
 20
1225.423829
 30
0.0
 40
40.0
100
AcDbArc
 50
317.693553
 51
358.676594
  0
LINE
  5
20D
100
AcDbEntity
  8
化粧台
  6
EXLTYPE2
 62
     6
100
AcDbLine
 10
1113.20625
 20
1274.328125
 30
0.0
 11
1113.20625
 21
1272.5
 31
0.0
  0
LINE
  5
20E
100
AcDbEntity
  8
化粧台
  6
EXLTYPE2
 62
     6
100
AcDbLine
 10
1052.870011
 20
1318.5
 30
0.0
 11
1052.870011
 21
1302.5
 31
0.0
  0
LINE
  5
20F
100
AcDbEntity
  8
化粧台
  6
EXLTYPE2
 62
     6
100
AcDbLine
 10
1063.729989
 20
1318.5
 30
0.0
 11
1063.729989
 21
1302.5
 31
0.0
  0
LINE
  5
210
100
AcDbEntity
  8
化粧台
  6
EXLTYPE2
 62
     6
100
AcDbLine
 10
1076.270011
 20
1318.5
 30
0.0
 11
1076.270011
 21
1302.5
 31
0.0
  0
LINE
  5
211
100
AcDbEntity
  8
化粧台
  6
EXLTYPE2
 62
     6
100
AcDbLine
 10
1087.129989
 20
1318.5
 30
0.0
 11
1087.129989
 21
1302.5
 31
0.0
  0
LINE
  5
212
100
AcDbEntity
  8
化粧台
  6
EXLTYPE2
 62
     6
100
AcDbLine
 10
1091.086239
 20
1270.5
 30
0.0
 11
1091.086239
 21
1254.5
 31
0.0
  0
LINE
  5
213
100
AcDbEntity
  8
化粧台
  6
EXLTYPE2
 62
     6
100
AcDbLine
 10
1103.626261
 20
1270.5
 30
0.0
 11
1103.626261
 21
1254.5
 31
0.0
  0
LINE
  5
214
100
AcDbEntity
  8
化粧台
  6
EXLTYPE2
 62
     6
100
AcDbLine
 10
1114.486239
 20
1270.5
 30
0.0
 11
1114.486239
 21
1254.5
 31
0.0
  0
LINE
  5
215
100
AcDbEntity
  8
化粧台
  6
EXLTYPE2
 62
     6
100
AcDbLine
 10
1062.824466
 20
1178.5
 30
0.0
 11
1062.824466
 21
1195.0
 31
0.0
  0
LINE
  5
216
100
AcDbEntity
  8
化粧台
  6
EXLTYPE2
 62
     6
100
AcDbLine
 10
1104.531784
 20
1178.5
 30
0.0
 11
1104.531784
 21
1195.0
 31
0.0
  0
LINE
  5
217
100
AcDbEntity
  8
化粧台
  6
EXLTYPE2
 62
     6
100
AcDbLine
 10
1075.394586
 20
1180.0
 30
0.0
 11
1075.394586
 21
1195.0
 31
0.0
  0
LINE
  5
218
100
AcDbEntity
  8
化粧台
  6
EXLTYPE2
 62
     6
100
AcDbLine
 10
1091.961664
 20
1180.0
 30
0.0
 11
1091.961664
 21
1195.0
 31
0.0
  0
LINE
  5
219
100
AcDbEntity
  8
化粧台
  6
EXLTYPE2
 62
     6
100
AcDbLine
 10
1070.928125
 20
1195.0
 30
0.0
 11
1070.928125
 21
1180.0
 31
0.0
  0
LINE
  5
21A
100
AcDbEntity
  8
化粧台
  6
EXLTYPE2
 62
     6
100
AcDbLine
 10
1096.428125
 20
1195.0
 30
0.0
 11
1096.428125
 21
1180.0
 31
0.0
  0
LINE
  5
21B
100
AcDbEntity
  8
化粧台
  6
EXLTYPE2
 62
     6
100
AcDbLine
 10
1008.0
 20
1301.163691
 30
0.0
 11
1008.0
 21
1312.836309
 31
0.0
  0
LINE
  5
21C
100
AcDbEntity
  8
化粧台
  6
EXLTYPE2
 62
     6
100
AcDbLine
 10
1006.554392
 20
1315.340176
 30
0.0
 11
996.445608
 21
1321.176485
 31
0.0
  0
LINE
  5
21D
100
AcDbEntity
  8
化粧台
  6
EXLTYPE2
 62
     6
100
AcDbLine
 10
993.554392
 20
1321.176485
 30
0.0
 11
983.445608
 21
1315.340176
 31
0.0
  0
LINE
  5
21E
100
AcDbEntity
  8
化粧台
  6
EXLTYPE2
 62
     6
100
AcDbLine
 10
982.0
 20
1312.836309
 30
0.0
 11
982.0
 21
1301.163691
 31
0.0
  0
LINE
  5
21F
100
AcDbEntity
  8
化粧台
  6
EXLTYPE2
 62
     6
100
AcDbLine
 10
983.445608
 20
1298.659824
 30
0.0
 11
993.554392
 21
1292.823515
 31
0.0
  0
LINE
  5
220
100
AcDbEntity
  8
化粧台
  6
EXLTYPE2
 62
     6
100
AcDbLine
 10
996.445608
 20
1292.823515
 30
0.0
 11
1006.554392
 21
1298.659824
 31
0.0
  0
ARC
  5
221
100
AcDbEntity
  8
化粧台
  6
EXLTYPE2
 62
     6
100
AcDbCircle
 10
995.0
 20
1307.0
 30
0.0
 40
14.25
100
AcDbArc
 50
264.177545
 51
275.822455
  0
ARC
  5
222
100
AcDbEntity
  8
化粧台
  6
EXLTYPE2
 62
     6
100
AcDbCircle
 10
995.0
 20
1307.0
 30
0.0
 40
14.25
100
AcDbArc
 50
324.177545
 51
335.822455
  0
ARC
  5
223
100
AcDbEntity
  8
化粧台
  6
EXLTYPE2
 62
     6
100
AcDbCircle
 10
995.0
 20
1307.0
 30
0.0
 40
14.25
100
AcDbArc
 50
24.177545
 51
35.822455
  0
ARC
  5
224
100
AcDbEntity
  8
化粧台
  6
EXLTYPE2
 62
     6
100
AcDbCircle
 10
995.0
 20
1307.0
 30
0.0
 40
14.25
100
AcDbArc
 50
144.177545
 51
155.822455
  0
ARC
  5
225
100
AcDbEntity
  8
化粧台
  6
EXLTYPE2
 62
     6
100
AcDbCircle
 10
995.0
 20
1307.0
 30
0.0
 40
14.25
100
AcDbArc
 50
204.177545
 51
215.822455
  0
CIRCLE
  5
226
100
AcDbEntity
  8
化粧台
  6
EXLTYPE2
 62
     6
100
AcDbCircle
 10
995.0
 20
1307.0
 30
0.0
 40
4.75
  0
CIRCLE
  5
227
100
AcDbEntity
  8
化粧台
  6
EXLTYPE2
 62
     6
100
AcDbCircle
 10
995.0
 20
1307.0
 30
0.0
 40
12.074349
  0
LINE
  5
228
100
AcDbEntity
  8
化粧台
  6
EXLTYPE2
 62
     6
100
AcDbLine
 10
984.5
 20
1330.0
 30
0.0
 11
984.5
 21
1315.948929
 31
0.0
  0
LINE
  5
229
100
AcDbEntity
  8
化粧台
  6
EXLTYPE2
 62
     6
100
AcDbLine
 10
1005.5
 20
1330.0
 30
0.0
 11
1005.5
 21
1315.948929
 31
0.0
  0
ARC
  5
22A
100
AcDbEntity
  8
化粧台
  6
EXLTYPE2
 62
     6
100
AcDbCircle
 10
995.0
 20
1307.0
 30
0.0
 40
14.25
100
AcDbArc
 50
84.177545
 51
95.822455
  0
LINE
  5
22B
100
AcDbEntity
  8
化粧台
  6
EXLTYPE2
 62
     6
100
AcDbLine
 10
982.0
 20
1330.0
 30
0.0
 11
1008.0
 21
1330.0
 31
0.0
  0
LINE
  5
22C
100
AcDbEntity
  8
化粧台
  6
CONTINUOUS
 62
     6
100
AcDbLine
 10
815.0
 20
1307.0
 30
0.0
 11
875.0
 21
1307.0
 31
0.0
  0
LINE
  5
22D
100
AcDbEntity
  8
化粧台
  6
CONTINUOUS
 62
     6
100
AcDbLine
 10
845.0
 20
1337.0
 30
0.0
 11
845.0
 21
1277.0
 31
0.0
  0
LINE
  5
22E
100
AcDbEntity
  8
化粧台
  6
CONTINUOUS
 62
     6
100
AcDbLine
 10
965.0
 20
1307.0
 30
0.0
 11
1025.0
 21
1307.0
 31
0.0
  0
LINE
  5
22F
100
AcDbEntity
  8
化粧台
  6
CONTINUOUS
 62
     6
100
AcDbLine
 10
995.0
 20
1337.0
 30
0.0
 11
995.0
 21
1277.0
 31
0.0
  0
LINE
  5
230
100
AcDbEntity
  8
化粧台
  6
EXLTYPE3
 62
     6
100
AcDbLine
 10
920.0
 20
1869.0
 30
0.0
 11
920.0
 21
872.0
 31
0.0
  0
LINE
  5
231
100
AcDbEntity
  8
化粧台
  6
CONTINUOUS
 62
     2
100
AcDbLine
 10
1144.15
 20
822.5
 30
0.0
 11
1175.85
 21
822.5
 31
0.0
  0
LINE
  5
232
100
AcDbEntity
  8
化粧台
  6
CONTINUOUS
 62
     2
100
AcDbLine
 10
1175.85
 20
822.5
 30
0.0
 11
1175.85
 21
887.0
 31
0.0
  0
LINE
  5
233
100
AcDbEntity
  8
化粧台
  6
CONTINUOUS
 62
     2
100
AcDbLine
 10
1144.15
 20
887.0
 30
0.0
 11
1144.15
 21
822.5
 31
0.0
  0
LINE
  5
234
100
AcDbEntity
  8
化粧台
  6
EXLTYPE3
 62
     6
100
AcDbLine
 10
1160.0
 20
1064.5
 30
0.0
 11
1160.0
 21
807.5
 31
0.0
  0
LINE
  5
235
100
AcDbEntity
  8
化粧台
  6
EXLTYPE2
 62
     6
100
AcDbLine
 10
795.0
 20
1027.0
 30
0.0
 11
1045.0
 21
1027.0
 31
0.0
  0
LINE
  5
236
100
AcDbEntity
  8
化粧台
  6
EXLTYPE2
 62
     6
100
AcDbLine
 10
795.0
 20
992.0
 30
0.0
 11
1045.0
 21
992.0
 31
0.0
  0
LINE
  5
237
100
AcDbEntity
  8
化粧台
  6
EXLTYPE2
 62
     6
100
AcDbLine
 10
795.0
 20
1027.0
 30
0.0
 11
795.0
 21
992.0
 31
0.0
  0
LINE
  5
238
100
AcDbEntity
  8
化粧台
  6
EXLTYPE2
 62
     6
100
AcDbLine
 10
1045.0
 20
1027.0
 30
0.0
 11
1045.0
 21
992.0
 31
0.0
  0
LINE
  5
239
100
AcDbEntity
  8
化粧台
  6
EXLTYPE4
 62
     6
100
AcDbLine
 10
2550.0
 20
887.0
 30
0.0
 11
2550.0
 21
3124.0
 31
0.0
  0
LINE
  5
23A
100
AcDbEntity
  8
化粧台
  6
EXLTYPE4
 62
     6
100
AcDbLine
 10
2550.0
 20
887.0
 30
0.0
 11
1921.5
 21
887.0
 31
0.0
  0
TEXT
  5
23B
100
AcDbEntity
  8
化粧台
  6
CONTINUOUS
 62
     2
100
AcDbText
 10
1921.5
 20
887.0
 30
0.0
 40
60.0
  1
F.L.
 41
0.4125
  7
EXCADSTD
 72
     5
 11
2012.2434
 21
887.0
 31
0.0
100
AcDbText
  0
TEXT
  5
23C
100
AcDbEntity
  8
化粧台
  6
CONTINUOUS
 62
     2
100
AcDbText
 10
2550.0
 20
3025.000001
 30
0.0
 40
60.0
  1
W.L.
 50
90.0
 41
0.4125
  7
EXCADSTD
 72
     5
 11
2550.0
 21
3115.7434
 31
0.0
100
AcDbText
  0
LINE
  5
23D
100
AcDbEntity
  8
化粧台
  6
CONTINUOUS
 62
     2
100
AcDbLine
 10
2550.0
 20
1586.0
 30
0.0
 11
2550.0
 21
1567.0
 31
0.0
  0
ARC
  5
23E
100
AcDbEntity
  8
化粧台
  6
CONTINUOUS
 62
     2
100
AcDbCircle
 10
2102.0
 20
1584.0
 30
0.0
 40
2.0
100
AcDbArc
 50
90.0
 51
180.0
  0
LINE
  5
23F
100
AcDbEntity
  8
化粧台
  6
CONTINUOUS
 62
     2
100
AcDbLine
 10
2100.0
 20
1584.0
 30
0.0
 11
2100.0
 21
1569.0
 31
0.0
  0
ARC
  5
240
100
AcDbEntity
  8
化粧台
  6
CONTINUOUS
 62
     2
100
AcDbCircle
 10
2102.0
 20
1569.0
 30
0.0
 40
2.0
100
AcDbArc
 50
180.0
 51
270.0
  0
LINE
  5
241
100
AcDbEntity
  8
化粧台
  6
CONTINUOUS
 62
     2
100
AcDbLine
 10
2125.0
 20
887.0
 30
0.0
 11
2550.0
 21
887.0
 31
0.0
  0
LINE
  5
242
100
AcDbEntity
  8
化粧台
  6
CONTINUOUS
 62
     2
100
AcDbLine
 10
2550.0
 20
887.0
 30
0.0
 11
2550.0
 21
1567.0
 31
0.0
  0
LINE
  5
243
100
AcDbEntity
  8
化粧台
  6
CONTINUOUS
 62
     2
100
AcDbLine
 10
2125.0
 20
887.0
 30
0.0
 11
2125.0
 21
1567.0
 31
0.0
  0
LINE
  5
244
100
AcDbEntity
  8
化粧台
  6
CONTINUOUS
 62
     2
100
AcDbLine
 10
2104.5
 20
977.0
 30
0.0
 11
2121.5
 21
977.0
 31
0.0
  0
LINE
  5
245
100
AcDbEntity
  8
化粧台
  6
CONTINUOUS
 62
     2
100
AcDbLine
 10
2104.5
 20
1387.0
 30
0.0
 11
2121.5
 21
1387.0
 31
0.0
  0
LINE
  5
246
100
AcDbEntity
  8
化粧台
  6
CONTINUOUS
 62
     2
100
AcDbLine
 10
2104.5
 20
1532.0
 30
0.0
 11
2121.5
 21
1532.0
 31
0.0
  0
LINE
  5
247
100
AcDbEntity
  8
化粧台
  6
CONTINUOUS
 62
     2
100
AcDbLine
 10
2104.5
 20
1387.0
 30
0.0
 11
2104.5
 21
1532.0
 31
0.0
  0
LINE
  5
248
100
AcDbEntity
  8
化粧台
  6
CONTINUOUS
 62
     2
100
AcDbLine
 10
2121.5
 20
1387.0
 30
0.0
 11
2121.5
 21
1532.0
 31
0.0
  0
LINE
  5
249
100
AcDbEntity
  8
化粧台
  6
CONTINUOUS
 62
     6
100
AcDbLine
 10
2103.5
 20
1532.0
 30
0.0
 11
2121.5
 21
1532.0
 31
0.0
  0
ARC
  5
24A
100
AcDbEntity
  8
化粧台
  6
CONTINUOUS
 62
     6
100
AcDbCircle
 10
2120.15
 20
1558.95
 30
0.0
 40
1.0
100
AcDbArc
 50
0.0
 51
90.0
  0
ARC
  5
24B
100
AcDbEntity
  8
化粧台
  6
CONTINUOUS
 62
     6
100
AcDbCircle
 10
2120.0
 20
1559.0
 30
0.0
 40
3.0
100
AcDbArc
 50
0.0
 51
90.0
  0
ARC
  5
24C
100
AcDbEntity
  8
化粧台
  6
CONTINUOUS
 62
     6
100
AcDbCircle
 10
2103.75
 20
1553.75
 30
0.0
 40
1.75
100
AcDbArc
 50
170.744962
 51
68.766314
  0
ARC
  5
24D
100
AcDbEntity
  8
化粧台
  6
CONTINUOUS
 62
     6
100
AcDbCircle
 10
2116.827515
 20
1551.619011
 30
0.0
 40
13.0
100
AcDbArc
 50
142.344254
 51
163.178039
  0
ARC
  5
24E
100
AcDbEntity
  8
化粧台
  6
CONTINUOUS
 62
     6
100
AcDbCircle
 10
2107.327167
 20
1558.95
 30
0.0
 40
1.0
100
AcDbArc
 50
90.0
 51
142.344254
  0
ARC
  5
24F
100
AcDbEntity
  8
化粧台
  6
CONTINUOUS
 62
     6
100
AcDbCircle
 10
2116.827515
 20
1551.619011
 30
0.0
 40
15.0
100
AcDbArc
 50
142.042092
 51
170.744962
  0
ARC
  5
250
100
AcDbEntity
  8
化粧台
  6
CONTINUOUS
 62
     6
100
AcDbCircle
 10
2107.365961
 20
1559.0
 30
0.0
 40
3.0
100
AcDbArc
 50
90.0
 51
142.042092
  0
LINE
  5
251
100
AcDbEntity
  8
化粧台
  6
CONTINUOUS
 62
     6
100
AcDbLine
 10
2107.365961
 20
1562.0
 30
0.0
 11
2120.0
 21
1562.0
 31
0.0
  0
LINE
  5
252
100
AcDbEntity
  8
化粧台
  6
CONTINUOUS
 62
     6
100
AcDbLine
 10
2107.327167
 20
1559.95
 30
0.0
 11
2120.15
 21
1559.95
 31
0.0
  0
LINE
  5
253
100
AcDbEntity
  8
化粧台
  6
CONTINUOUS
 62
     6
100
AcDbLine
 10
2121.15
 20
1558.95
 30
0.0
 11
2121.15
 21
1542.560271
 31
0.0
  0
LINE
  5
254
100
AcDbEntity
  8
化粧台
  6
CONTINUOUS
 62
     6
100
AcDbLine
 10
2121.5
 20
1532.0
 30
0.0
 11
2121.5
 21
1517.0
 31
0.0
  0
LINE
  5
255
100
AcDbEntity
  8
化粧台
  6
CONTINUOUS
 62
     6
100
AcDbLine
 10
2102.950253
 20
1534.042314
 30
0.0
 11
2113.547979
 21
1534.570176
 31
0.0
  0
ARC
  5
256
100
AcDbEntity
  8
化粧台
  6
CONTINUOUS
 62
     6
100
AcDbCircle
 10
2113.15
 20
1542.560271
 30
0.0
 40
8.0
100
AcDbArc
 50
272.851492
 51
0.0
  0
ARC
  5
257
100
AcDbEntity
  8
化粧台
  6
CONTINUOUS
 62
     6
100
AcDbCircle
 10
2103.0
 20
1533.043552
 30
0.0
 40
1.0
100
AcDbArc
 50
92.851492
 51
180.0
  0
ARC
  5
258
100
AcDbEntity
  8
化粧台
  6
CONTINUOUS
 62
     6
100
AcDbCircle
 10
2122.0
 20
1518.0
 30
0.0
 40
1.0
100
AcDbArc
 50
270.0
 51
0.0
  0
LINE
  5
259
100
AcDbEntity
  8
化粧台
  6
CONTINUOUS
 62
     6
100
AcDbLine
 10
2123.0
 20
1559.0
 30
0.0
 11
2123.0
 21
1518.0
 31
0.0
  0
LINE
  5
25A
100
AcDbEntity
  8
化粧台
  6
CONTINUOUS
 62
     6
100
AcDbLine
 10
2121.5
 20
1517.0
 30
0.0
 11
2122.0
 21
1517.0
 31
0.0
  0
ARC
  5
25B
100
AcDbEntity
  8
化粧台
  6
CONTINUOUS
 62
     6
100
AcDbCircle
 10
2103.0
 20
1531.0
 30
0.0
 40
1.0
100
AcDbArc
 50
180.0
 51
270.0
  0
LINE
  5
25C
100
AcDbEntity
  8
化粧台
  6
CONTINUOUS
 62
     6
100
AcDbLine
 10
2103.5
 20
1530.0
 30
0.0
 11
2103.0
 21
1530.0
 31
0.0
  0
LINE
  5
25D
100
AcDbEntity
  8
化粧台
  6
CONTINUOUS
 62
     6
100
AcDbLine
 10
2102.0
 20
1533.043552
 30
0.0
 11
2102.0
 21
1531.0
 31
0.0
  0
LINE
  5
25E
100
AcDbEntity
  8
化粧台
  6
CONTINUOUS
 62
     6
100
AcDbLine
 10
2103.5
 20
1532.0
 30
0.0
 11
2103.5
 21
1530.0
 31
0.0
  0
LINE
  5
25F
100
AcDbEntity
  8
化粧台
  6
CONTINUOUS
 62
     2
100
AcDbLine
 10
2104.5
 20
1353.0
 30
0.0
 11
2121.5
 21
1353.0
 31
0.0
  0
LINE
  5
260
100
AcDbEntity
  8
化粧台
  6
CONTINUOUS
 62
     2
100
AcDbLine
 10
2104.5
 20
977.0
 30
0.0
 11
2104.5
 21
1353.0
 31
0.0
  0
LINE
  5
261
100
AcDbEntity
  8
化粧台
  6
CONTINUOUS
 62
     2
100
AcDbLine
 10
2121.5
 20
977.0
 30
0.0
 11
2121.5
 21
1353.0
 31
0.0
  0
LINE
  5
262
100
AcDbEntity
  8
化粧台
  6
CONTINUOUS
 62
     6
100
AcDbLine
 10
2103.5
 20
1353.0
 30
0.0
 11
2121.5
 21
1353.0
 31
0.0
  0
ARC
  5
263
100
AcDbEntity
  8
化粧台
  6
CONTINUOUS
 62
     6
100
AcDbCircle
 10
2120.15
 20
1379.95
 30
0.0
 40
1.0
100
AcDbArc
 50
0.0
 51
90.0
  0
ARC
  5
264
100
AcDbEntity
  8
化粧台
  6
CONTINUOUS
 62
     6
100
AcDbCircle
 10
2120.0
 20
1380.0
 30
0.0
 40
3.0
100
AcDbArc
 50
0.0
 51
90.0
  0
ARC
  5
265
100
AcDbEntity
  8
化粧台
  6
CONTINUOUS
 62
     6
100
AcDbCircle
 10
2103.75
 20
1374.75
 30
0.0
 40
1.75
100
AcDbArc
 50
170.744962
 51
68.766314
  0
ARC
  5
266
100
AcDbEntity
  8
化粧台
  6
CONTINUOUS
 62
     6
100
AcDbCircle
 10
2116.827515
 20
1372.619011
 30
0.0
 40
13.0
100
AcDbArc
 50
142.344254
 51
163.178039
  0
ARC
  5
267
100
AcDbEntity
  8
化粧台
  6
CONTINUOUS
 62
     6
100
AcDbCircle
 10
2107.327167
 20
1379.95
 30
0.0
 40
1.0
100
AcDbArc
 50
90.0
 51
142.344254
  0
ARC
  5
268
100
AcDbEntity
  8
化粧台
  6
CONTINUOUS
 62
     6
100
AcDbCircle
 10
2116.827515
 20
1372.619011
 30
0.0
 40
15.0
100
AcDbArc
 50
142.042092
 51
170.744962
  0
ARC
  5
269
100
AcDbEntity
  8
化粧台
  6
CONTINUOUS
 62
     6
100
AcDbCircle
 10
2107.365961
 20
1380.0
 30
0.0
 40
3.0
100
AcDbArc
 50
90.0
 51
142.042092
  0
LINE
  5
26A
100
AcDbEntity
  8
化粧台
  6
CONTINUOUS
 62
     6
100
AcDbLine
 10
2107.365961
 20
1383.0
 30
0.0
 11
2120.0
 21
1383.0
 31
0.0
  0
LINE
  5
26B
100
AcDbEntity
  8
化粧台
  6
CONTINUOUS
 62
     6
100
AcDbLine
 10
2107.327167
 20
1380.95
 30
0.0
 11
2120.15
 21
1380.95
 31
0.0
  0
LINE
  5
26C
100
AcDbEntity
  8
化粧台
  6
CONTINUOUS
 62
     6
100
AcDbLine
 10
2121.15
 20
1379.95
 30
0.0
 11
2121.15
 21
1363.560271
 31
0.0
  0
LINE
  5
26D
100
AcDbEntity
  8
化粧台
  6
CONTINUOUS
 62
     6
100
AcDbLine
 10
2121.5
 20
1353.0
 30
0.0
 11
2121.5
 21
1338.0
 31
0.0
  0
LINE
  5
26E
100
AcDbEntity
  8
化粧台
  6
CONTINUOUS
 62
     6
100
AcDbLine
 10
2102.950253
 20
1355.042314
 30
0.0
 11
2113.547979
 21
1355.570176
 31
0.0
  0
ARC
  5
26F
100
AcDbEntity
  8
化粧台
  6
CONTINUOUS
 62
     6
100
AcDbCircle
 10
2113.15
 20
1363.560271
 30
0.0
 40
8.0
100
AcDbArc
 50
272.851492
 51
0.0
  0
ARC
  5
270
100
AcDbEntity
  8
化粧台
  6
CONTINUOUS
 62
     6
100
AcDbCircle
 10
2103.0
 20
1354.043552
 30
0.0
 40
1.0
100
AcDbArc
 50
92.851492
 51
180.0
  0
ARC
  5
271
100
AcDbEntity
  8
化粧台
  6
CONTINUOUS
 62
     6
100
AcDbCircle
 10
2122.0
 20
1339.0
 30
0.0
 40
1.0
100
AcDbArc
 50
270.0
 51
0.0
  0
LINE
  5
272
100
AcDbEntity
  8
化粧台
  6
CONTINUOUS
 62
     6
100
AcDbLine
 10
2123.0
 20
1380.0
 30
0.0
 11
2123.0
 21
1339.0
 31
0.0
  0
LINE
  5
273
100
AcDbEntity
  8
化粧台
  6
CONTINUOUS
 62
     6
100
AcDbLine
 10
2121.5
 20
1338.0
 30
0.0
 11
2122.0
 21
1338.0
 31
0.0
  0
ARC
  5
274
100
AcDbEntity
  8
化粧台
  6
CONTINUOUS
 62
     6
100
AcDbCircle
 10
2103.0
 20
1352.0
 30
0.0
 40
1.0
100
AcDbArc
 50
180.0
 51
270.0
  0
LINE
  5
275
100
AcDbEntity
  8
化粧台
  6
CONTINUOUS
 62
     6
100
AcDbLine
 10
2103.5
 20
1351.0
 30
0.0
 11
2103.0
 21
1351.0
 31
0.0
  0
LINE
  5
276
100
AcDbEntity
  8
化粧台
  6
CONTINUOUS
 62
     6
100
AcDbLine
 10
2102.0
 20
1354.043552
 30
0.0
 11
2102.0
 21
1352.0
 31
0.0
  0
LINE
  5
277
100
AcDbEntity
  8
化粧台
  6
CONTINUOUS
 62
     6
100
AcDbLine
 10
2103.5
 20
1353.0
 30
0.0
 11
2103.5
 21
1351.0
 31
0.0
  0
LINE
  5
278
100
AcDbEntity
  8
化粧台
  6
CONTINUOUS
 62
     2
100
AcDbLine
 10
2550.0
 20
1586.0
 30
0.0
 11
2102.0
 21
1586.0
 31
0.0
  0
LINE
  5
279
100
AcDbEntity
  8
化粧台
  6
CONTINUOUS
 62
     2
100
AcDbLine
 10
2550.0
 20
1567.0
 30
0.0
 11
2102.0
 21
1567.0
 31
0.0
  0
LINE
  5
27A
100
AcDbEntity
  8
化粧台
  6
EXLTYPE2
 62
     6
100
AcDbLine
 10
2143.5
 20
1567.0
 30
0.0
 11
2143.5
 21
1517.0
 31
0.0
  0
LINE
  5
27B
100
AcDbEntity
  8
化粧台
  6
EXLTYPE2
 62
     6
100
AcDbLine
 10
2126.0
 20
1567.0
 30
0.0
 11
2126.0
 21
1517.0
 31
0.0
  0
LINE
  5
27C
100
AcDbEntity
  8
化粧台
  6
EXLTYPE2
 62
     6
100
AcDbLine
 10
2126.0
 20
1517.0
 30
0.0
 11
2143.5
 21
1517.0
 31
0.0
  0
LINE
  5
27D
100
AcDbEntity
  8
化粧台
  6
EXLTYPE2
 62
     6
100
AcDbLine
 10
2226.5
 20
1417.0
 30
0.0
 11
2226.5
 21
1477.0
 31
0.0
  0
LINE
  5
27E
100
AcDbEntity
  8
化粧台
  6
EXLTYPE2
 62
     6
100
AcDbLine
 10
2469.5
 20
1477.0
 30
0.0
 11
2469.5
 21
1402.0
 31
0.0
  0
LINE
  5
27F
100
AcDbEntity
  8
化粧台
  6
EXLTYPE2
 62
     6
100
AcDbLine
 10
2391.5
 20
1477.0
 30
0.0
 11
2391.5
 21
1402.0
 31
0.0
  0
LINE
  5
280
100
AcDbEntity
  8
化粧台
  6
EXLTYPE2
 62
     6
100
AcDbLine
 10
2469.5
 20
1402.0
 30
0.0
 11
2121.5
 21
1402.0
 31
0.0
  0
LINE
  5
281
100
AcDbEntity
  8
化粧台
  6
EXLTYPE2
 62
     6
100
AcDbLine
 10
2241.5
 20
1402.0
 30
0.0
 11
2241.5
 21
1477.0
 31
0.0
  0
LINE
  5
282
100
AcDbEntity
  8
化粧台
  6
EXLTYPE2
 62
     6
100
AcDbLine
 10
2469.5
 20
1477.0
 30
0.0
 11
2121.5
 21
1477.0
 31
0.0
  0
LINE
  5
283
100
AcDbEntity
  8
化粧台
  6
EXLTYPE2
 62
     6
100
AcDbLine
 10
2226.5
 20
1417.0
 30
0.0
 11
2121.5
 21
1417.0
 31
0.0
  0
LINE
  5
284
100
AcDbEntity
  8
化粧台
  6
EXLTYPE2
 62
     6
100
AcDbLine
 10
2469.5
 20
1007.0
 30
0.0
 11
2121.5
 21
1007.0
 31
0.0
  0
LINE
  5
285
100
AcDbEntity
  8
化粧台
  6
EXLTYPE2
 62
     6
100
AcDbLine
 10
2469.5
 20
1147.0
 30
0.0
 11
2469.5
 21
1007.0
 31
0.0
  0
LINE
  5
286
100
AcDbEntity
  8
化粧台
  6
EXLTYPE2
 62
     6
100
AcDbLine
 10
2391.5
 20
1147.0
 30
0.0
 11
2391.5
 21
1007.0
 31
0.0
  0
LINE
  5
287
100
AcDbEntity
  8
化粧台
  6
EXLTYPE2
 62
     6
100
AcDbLine
 10
2376.5
 20
1147.0
 30
0.0
 11
2376.5
 21
1022.0
 31
0.0
  0
LINE
  5
288
100
AcDbEntity
  8
化粧台
  6
EXLTYPE2
 62
     6
100
AcDbLine
 10
2469.5
 20
1147.0
 30
0.0
 11
2121.5
 21
1147.0
 31
0.0
  0
LINE
  5
289
100
AcDbEntity
  8
化粧台
  6
EXLTYPE2
 62
     6
100
AcDbLine
 10
2376.5
 20
1022.0
 30
0.0
 11
2121.5
 21
1022.0
 31
0.0
  0
LINE
  5
28A
100
AcDbEntity
  8
化粧台
  6
EXLTYPE2
 62
     6
100
AcDbLine
 10
2126.0
 20
992.0
 30
0.0
 11
2126.0
 21
977.0
 31
0.0
  0
LINE
  5
28B
100
AcDbEntity
  8
化粧台
  6
EXLTYPE2
 62
     6
100
AcDbLine
 10
2335.0
 20
887.0
 30
0.0
 11
2335.0
 21
977.0
 31
0.0
  0
LINE
  5
28C
100
AcDbEntity
  8
化粧台
  6
EXLTYPE2
 62
     6
100
AcDbLine
 10
2330.0
 20
992.0
 30
0.0
 11
2330.0
 21
989.0
 31
0.0
  0
LINE
  5
28D
100
AcDbEntity
  8
化粧台
  6
EXLTYPE2
 62
     6
100
AcDbLine
 10
2350.0
 20
887.0
 30
0.0
 11
2350.0
 21
989.0
 31
0.0
  0
LINE
  5
28E
100
AcDbEntity
  8
化粧台
  6
EXLTYPE2
 62
     6
100
AcDbLine
 10
2502.0
 20
989.0
 30
0.0
 11
2502.0
 21
974.0
 31
0.0
  0
LINE
  5
28F
100
AcDbEntity
  8
化粧台
  6
EXLTYPE2
 62
     6
100
AcDbLine
 10
2126.0
 20
977.0
 30
0.0
 11
2350.0
 21
977.0
 31
0.0
  0
LINE
  5
290
100
AcDbEntity
  8
化粧台
  6
EXLTYPE2
 62
     6
100
AcDbLine
 10
2502.0
 20
974.0
 30
0.0
 11
2532.0
 21
974.0
 31
0.0
  0
LINE
  5
291
100
AcDbEntity
  8
化粧台
  6
EXLTYPE2
 62
     6
100
AcDbLine
 10
2330.0
 20
989.0
 30
0.0
 11
2532.0
 21
989.0
 31
0.0
  0
LINE
  5
292
100
AcDbEntity
  8
化粧台
  6
EXLTYPE2
 62
     6
100
AcDbLine
 10
2126.0
 20
992.0
 30
0.0
 11
2532.0
 21
992.0
 31
0.0
  0
LINE
  5
293
100
AcDbEntity
  8
化粧台
  6
EXLTYPE2
 62
     6
100
AcDbLine
 10
2535.0
 20
1027.0
 30
0.0
 11
2550.0
 21
1027.0
 31
0.0
  0
LINE
  5
294
100
AcDbEntity
  8
化粧台
  6
EXLTYPE2
 62
     6
100
AcDbLine
 10
2535.0
 20
1447.0
 30
0.0
 11
2550.0
 21
1447.0
 31
0.0
  0
LINE
  5
295
100
AcDbEntity
  8
化粧台
  6
EXLTYPE2
 62
     6
100
AcDbLine
 10
2535.0
 20
977.0
 30
0.0
 11
2535.0
 21
1567.0
 31
0.0
  0
LINE
  5
296
100
AcDbEntity
  8
化粧台
  6
EXLTYPE2
 62
     6
100
AcDbLine
 10
2532.0
 20
977.0
 30
0.0
 11
2550.0
 21
977.0
 31
0.0
  0
LINE
  5
297
100
AcDbEntity
  8
化粧台
  6
EXLTYPE2
 62
     6
100
AcDbLine
 10
2532.0
 20
974.0
 30
0.0
 11
2532.0
 21
1567.0
 31
0.0
  0
LINE
  5
298
100
AcDbEntity
  8
化粧台
  6
CONTINUOUS
 62
     2
100
AcDbLine
 10
2050.076464
 20
1720.128913
 30
0.0
 11
2073.076464
 21
1590.128913
 31
0.0
  0
LINE
  5
299
100
AcDbEntity
  8
化粧台
  6
CONTINUOUS
 62
     2
100
AcDbLine
 10
2550.0
 20
1586.0
 30
0.0
 11
2078.0
 21
1586.0
 31
0.0
  0
LINE
  5
29A
100
AcDbEntity
  8
化粧台
  6
CONTINUOUS
 62
     2
100
AcDbLine
 10
2550.0
 20
1726.0
 30
0.0
 11
2055.0
 21
1726.0
 31
0.0
  0
ARC
  5
29B
100
AcDbEntity
  8
化粧台
  6
CONTINUOUS
 62
     2
100
AcDbCircle
 10
2055.0
 20
1721.0
 30
0.0
 40
5.0
100
AcDbArc
 50
90.0
 51
190.033121
  0
ARC
  5
29C
100
AcDbEntity
  8
化粧台
  6
CONTINUOUS
 62
     2
100
AcDbCircle
 10
2078.0
 20
1591.0
 30
0.0
 40
5.0
100
AcDbArc
 50
190.033121
 51
270.0
  0
LINE
  5
29D
100
AcDbEntity
  8
化粧台
  6
CONTINUOUS
 62
     2
100
AcDbLine
 10
2550.0
 20
1726.0
 30
0.0
 11
2550.0
 21
1586.0
 31
0.0
  0
LINE
  5
29E
100
AcDbEntity
  8
化粧台
  6
CONTINUOUS
 62
     2
100
AcDbLine
 10
2465.85
 20
822.5
 30
0.0
 11
2434.15
 21
822.5
 31
0.0
  0
LINE
  5
29F
100
AcDbEntity
  8
化粧台
  6
CONTINUOUS
 62
     2
100
AcDbLine
 10
2333.57746
 20
1783.86011
 30
0.0
 11
2354.42254
 21
1774.13989
 31
0.0
  0
LINE
  5
2A0
100
AcDbEntity
  8
化粧台
  6
CONTINUOUS
 62
     2
100
AcDbLine
 10
2333.57746
 20
1783.86011
 30
0.0
 11
2336.343012
 21
1789.790855
 31
0.0
  0
LINE
  5
2A1
100
AcDbEntity
  8
化粧台
  6
CONTINUOUS
 62
     2
100
AcDbLine
 10
2354.42254
 20
1774.13989
 30
0.0
 11
2356.337682
 21
1778.246927
 31
0.0
  0
LINE
  5
2A2
100
AcDbEntity
  8
化粧台
  6
CONTINUOUS
 62
     2
100
AcDbLine
 10
2380.0
 20
1848.5
 30
0.0
 11
2380.0
 21
1840.5
 31
0.0
  0
LINE
  5
2A3
100
AcDbEntity
  8
化粧台
  6
CONTINUOUS
 62
     2
100
AcDbLine
 10
2380.0
 20
1840.5
 30
0.0
 11
2440.5
 21
1840.5
 31
0.0
  0
LINE
  5
2A4
100
AcDbEntity
  8
化粧台
  6
CONTINUOUS
 62
     2
100
AcDbLine
 10
2380.0
 20
1848.5
 30
0.0
 11
2440.5
 21
1848.5
 31
0.0
  0
ELLIPSE
  5
2A5
100
AcDbEntity
  8
化粧台
  6
CONTINUOUS
 62
     2
100
AcDbEllipse
 10
2440.5
 20
1746.976298
 30
0.0
 11
0.0000000000000122
 21
-17.320508075649741
 31
0.0
210
0.0
220
0.0
230
1.0
 40
0.296102
 41
0.0
 42
3.1415926535897931
  0
LINE
  5
2A6
100
AcDbEntity
  8
化粧台
  6
CONTINUOUS
 62
     2
100
AcDbLine
 10
2356.337682
 20
1778.246927
 30
0.0
 11
2440.5
 21
1729.65579
 31
0.0
  0
ELLIPSE
  5
2A7
100
AcDbEntity
  8
化粧台
  6
CONTINUOUS
 62
     2
100
AcDbEllipse
 10
2346.340347
 20
1784.018891
 30
0.0
 11
9.997335021550132
 21
-5.7719640659000797
 31
0.0
210
0.0
220
0.0
230
1.0
 40
0.401725
 41
0.000000000002572
 42
3.1415926535916872
  0
LINE
  5
2A8
100
AcDbEntity
  8
化粧台
  6
CONTINUOUS
 62
     2
100
AcDbLine
 10
2465.0
 20
1812.0
 30
0.0
 11
2489.5
 21
1826.145082
 31
0.0
  0
LINE
  5
2A9
100
AcDbEntity
  8
化粧台
  6
CONTINUOUS
 62
     2
100
AcDbLine
 10
2440.5
 20
1810.0
 30
0.0
 11
2489.5
 21
1810.0
 31
0.0
  0
LINE
  5
2AA
100
AcDbEntity
  8
化粧台
  6
CONTINUOUS
 62
     2
100
AcDbLine
 10
2440.5
 20
1812.0
 30
0.0
 11
2465.0
 21
1812.0
 31
0.0
  0
LINE
  5
2AB
100
AcDbEntity
  8
化粧台
  6
CONTINUOUS
 62
     2
100
AcDbLine
 10
2440.5
 20
1810.0
 30
0.0
 11
2440.5
 21
1764.296806
 31
0.0
  0
ARC
  5
2AC
100
AcDbEntity
  8
化粧台
  6
CONTINUOUS
 62
     2
100
AcDbCircle
 10
2442.5
 20
1852.0
 30
0.0
 40
2.0
100
AcDbArc
 50
90.0
 51
180.0
  0
LINE
  5
2AD
100
AcDbEntity
  8
化粧台
  6
CONTINUOUS
 62
     2
100
AcDbLine
 10
2489.5
 20
1852.0
 30
0.0
 11
2489.5
 21
1826.145082
 31
0.0
  0
LINE
  5
2AE
100
AcDbEntity
  8
化粧台
  6
CONTINUOUS
 62
     2
100
AcDbLine
 10
2442.5
 20
1854.0
 30
0.0
 11
2487.5
 21
1854.0
 31
0.0
  0
ARC
  5
2AF
100
AcDbEntity
  8
化粧台
  6
CONTINUOUS
 62
     2
100
AcDbCircle
 10
2487.5
 20
1852.0
 30
0.0
 40
2.0
100
AcDbArc
 50
0.0
 51
90.0
  0
LINE
  5
2B0
100
AcDbEntity
  8
化粧台
  6
CONTINUOUS
 62
     2
100
AcDbLine
 10
2348.366025
 20
1817.490381
 30
0.0
 11
2440.5
 21
1764.296806
 31
0.0
  0
ARC
  5
2B1
100
AcDbEntity
  8
化粧台
  6
CONTINUOUS
 62
     2
100
AcDbCircle
 10
2347.866025
 20
1816.624356
 30
0.0
 40
1.0
100
AcDbArc
 50
60.0
 51
150.0
  0
LINE
  5
2B2
100
AcDbEntity
  8
化粧台
  6
CONTINUOUS
 62
     2
100
AcDbLine
 10
2347.0
 20
1817.124356
 30
0.0
 11
2333.0
 21
1792.875644
 31
0.0
  0
LINE
  5
2B3
100
AcDbEntity
  8
化粧台
  6
CONTINUOUS
 62
     2
100
AcDbLine
 10
2333.366025
 20
1791.509619
 30
0.0
 11
2336.343012
 21
1789.790855
 31
0.0
  0
ARC
  5
2B4
100
AcDbEntity
  8
化粧台
  6
CONTINUOUS
 62
     2
100
AcDbCircle
 10
2333.866025
 20
1792.375644
 30
0.0
 40
1.0
100
AcDbArc
 50
150.0
 51
240.0
  0
ARC
  5
2B5
100
AcDbEntity
  8
化粧台
  6
CONTINUOUS
 62
     2
100
AcDbCircle
 10
2465.0
 20
1810.0
 30
0.0
 40
21.504709
100
AcDbArc
 50
0.0
 51
34.61977
  0
LINE
  5
2B6
100
AcDbEntity
  8
化粧台
  6
CONTINUOUS
 62
     2
100
AcDbLine
 10
2440.5
 20
1852.0
 30
0.0
 11
2440.5
 21
1848.5
 31
0.0
  0
LINE
  5
2B7
100
AcDbEntity
  8
化粧台
  6
CONTINUOUS
 62
     2
100
AcDbLine
 10
2440.5
 20
1840.5
 30
0.0
 11
2440.5
 21
1812.0
 31
0.0
  0
ELLIPSE
  5
2B8
100
AcDbEntity
  8
化粧台
  6
CONTINUOUS
 62
     2
100
AcDbEllipse
 10
2440.5
 20
1844.5
 30
0.0
 11
-0.0000000000000024
 21
4.0
 31
0.0
210
0.0
220
0.0
230
1.0
 40
0.152582
 41
3.1415926535897922
 42
0.0
  0
LINE
  5
2B9
100
AcDbEntity
  8
化粧台
  6
CONTINUOUS
 62
     6
100
AcDbLine
 10
2416.782032
 20
1777.990381
 30
0.0
 11
2401.782032
 21
1752.009619
 31
0.0
  0
LINE
  5
2BA
100
AcDbEntity
  8
化粧台
  6
CONTINUOUS
 62
     2
100
AcDbLine
 10
2440.5
 20
1729.65579
 30
0.0
 11
2440.5
 21
1726.0
 31
0.0
  0
LINE
  5
2BB
100
AcDbEntity
  8
化粧台
  6
CONTINUOUS
 62
     2
100
AcDbLine
 10
2489.5
 20
1810.0
 30
0.0
 11
2489.5
 21
1726.0
 31
0.0
  0
LINE
  5
2BC
100
AcDbEntity
  8
化粧台
  6
CONTINUOUS
 62
     2
100
AcDbLine
 10
2434.15
 20
822.5
 30
0.0
 11
2434.15
 21
887.0
 31
0.0
  0
LINE
  5
2BD
100
AcDbEntity
  8
化粧台
  6
CONTINUOUS
 62
     2
100
AcDbLine
 10
2465.85
 20
887.0
 30
0.0
 11
2465.85
 21
822.5
 31
0.0
  0
LINE
  5
2BE
100
AcDbEntity
  8
化粧台
  6
EXLTYPE3
 62
     6
100
AcDbLine
 10
2465.0
 20
1869.0
 30
0.0
 11
2465.0
 21
1696.0
 31
0.0
  0
LINE
  5
2BF
100
AcDbEntity
  8
化粧台
  6
EXLTYPE3
 62
     6
100
AcDbLine
 10
2450.0
 20
807.5
 30
0.0
 11
2450.0
 21
1064.5
 31
0.0
  0
LINE
  5
2C0
100
AcDbEntity
  8
化粧台
  6
EXLTYPE2
 62
     6
100
AcDbLine
 10
2274.38673
 20
1555.292893
 30
0.0
 11
2270.0
 21
1586.0
 31
0.0
  0
ARC
  5
2C1
100
AcDbEntity
  8
化粧台
  6
EXLTYPE2
 62
     6
100
AcDbCircle
 10
2279.336477
 20
1556.0
 30
0.0
 40
5.0
100
AcDbArc
 50
188.130102
 51
270.0
  0
LINE
  5
2C2
100
AcDbEntity
  8
化粧台
  6
EXLTYPE2
 62
     6
100
AcDbLine
 10
2279.336477
 20
1551.0
 30
0.0
 11
2350.663523
 21
1551.0
 31
0.0
  0
ARC
  5
2C3
100
AcDbEntity
  8
化粧台
  6
EXLTYPE2
 62
     6
100
AcDbCircle
 10
2350.663523
 20
1556.0
 30
0.0
 40
5.0
100
AcDbArc
 50
270.0
 51
351.869898
  0
ARC
  5
2C4
100
AcDbEntity
  8
化粧台
  6
EXLTYPE2
 62
     6
100
AcDbCircle
 10
2343.709238
 20
1588.206325
 30
0.0
 40
35.0
100
AcDbArc
 50
289.883894
 51
338.8865
  0
LINE
  5
2C5
100
AcDbEntity
  8
化粧台
  6
EXLTYPE2
 62
     6
100
AcDbLine
 10
2376.359642
 20
1575.598743
 30
0.0
 11
2380.375969
 21
1586.0
 31
0.0
  0
ARC
  5
2C6
100
AcDbEntity
  8
化粧台
  6
EXLTYPE2
 62
     6
100
AcDbCircle
 10
2469.811111
 20
1481.0
 30
0.0
 40
174.511111
100
AcDbArc
 50
171.763621
 51
188.236379
  0
LINE
  5
2C7
100
AcDbEntity
  8
化粧台
  6
EXLTYPE2
 62
     6
100
AcDbLine
 10
2297.1
 20
1456.0
 30
0.0
 11
2299.2
 21
1453.9
 31
0.0
  0
LINE
  5
2C8
100
AcDbEntity
  8
化粧台
  6
EXLTYPE2
 62
     6
100
AcDbLine
 10
2332.9
 20
1456.0
 30
0.0
 11
2330.8
 21
1453.9
 31
0.0
  0
LINE
  5
2C9
100
AcDbEntity
  8
化粧台
  6
EXLTYPE2
 62
     6
100
AcDbLine
 10
2362.0
 20
1487.5
 30
0.0
 11
2359.0
 21
1483.2
 31
0.0
  0
LINE
  5
2CA
100
AcDbEntity
  8
化粧台
  6
EXLTYPE2
 62
     6
100
AcDbLine
 10
2362.0
 20
1454.5
 30
0.0
 11
2359.0
 21
1458.8
 31
0.0
  0
LINE
  5
2CB
100
AcDbEntity
  8
化粧台
  6
EXLTYPE2
 62
     6
100
AcDbLine
 10
2359.0
 20
1483.2
 30
0.0
 11
2334.686132
 21
1483.2
 31
0.0
  0
LINE
  5
2CC
100
AcDbEntity
  8
化粧台
  6
EXLTYPE2
 62
     6
100
AcDbLine
 10
2359.0
 20
1458.8
 30
0.0
 11
2333.282181
 21
1458.8
 31
0.0
  0
LINE
  5
2CD
100
AcDbEntity
  8
化粧台
  6
EXLTYPE2
 62
     6
100
AcDbLine
 10
2349.686132
 20
1483.2
 30
0.0
 11
2334.340225
 21
1492.2
 31
0.0
  0
LINE
  5
2CE
100
AcDbEntity
  8
化粧台
  6
EXLTYPE2
 62
     6
100
AcDbLine
 10
2349.686132
 20
1458.8
 30
0.0
 11
2330.8
 21
1447.723744
 31
0.0
  0
LINE
  5
2CF
100
AcDbEntity
  8
化粧台
  6
EXLTYPE2
 62
     6
100
AcDbLine
 10
2349.686132
 20
1472.25
 30
0.0
 11
2328.4
 21
1472.25
 31
0.0
  0
LINE
  5
2D0
100
AcDbEntity
  8
化粧台
  6
EXLTYPE2
 62
     6
100
AcDbLine
 10
2349.686132
 20
1469.75
 30
0.0
 11
2328.4
 21
1469.75
 31
0.0
  0
LINE
  5
2D1
100
AcDbEntity
  8
化粧台
  6
EXLTYPE2
 62
     6
100
AcDbLine
 10
2349.686132
 20
1472.25
 30
0.0
 11
2349.686132
 21
1469.75
 31
0.0
  0
ARC
  5
2D2
100
AcDbEntity
  8
化粧台
  6
EXLTYPE2
 62
     6
100
AcDbCircle
 10
2160.188889
 20
1481.0
 30
0.0
 40
174.511111
100
AcDbArc
 50
351.763621
 51
352.691455
  0
ARC
  5
2D3
100
AcDbEntity
  8
化粧台
  6
EXLTYPE2
 62
     6
100
AcDbCircle
 10
2160.188889
 20
1481.0
 30
0.0
 40
174.511111
100
AcDbArc
 50
0.722327
 51
8.236379
  0
ELLIPSE
  5
2D4
100
AcDbEntity
  8
化粧台
  6
EXLTYPE2
 62
     6
100
AcDbEllipse
 10
2333.984157
 20
1471.0
 30
0.0
 11
-0.7019753845999902
 21
-12.200000000000056
 31
0.0
210
0.0
220
0.0
230
1.0
 40
0.215354
 41
3.1415926535898118
 42
4.6221483396039345
  0
ELLIPSE
  5
2D5
100
AcDbEntity
  8
化粧台
  6
EXLTYPE2
 62
     6
100
AcDbEllipse
 10
2333.984157
 20
1471.0
 30
0.0
 11
-0.7019753845999902
 21
-12.200000000000056
 31
0.0
210
0.0
220
0.0
230
1.0
 40
0.215354
 41
4.8274107966977384
 42
0.0247811754805761
  0
LINE
  5
2D6
100
AcDbEntity
  8
化粧台
  6
EXLTYPE2
 62
     6
100
AcDbLine
 10
2362.0
 20
1488.5
 30
0.0
 11
2362.0
 21
1453.5
 31
0.0
  0
LINE
  5
2D7
100
AcDbEntity
  8
化粧台
  6
EXLTYPE2
 62
     6
100
AcDbLine
 10
2341.25
 20
1526.5
 30
0.0
 11
2288.75
 21
1526.5
 31
0.0
  0
ARC
  5
2D8
100
AcDbEntity
  8
化粧台
  6
EXLTYPE2
 62
     6
100
AcDbCircle
 10
2338.25
 20
1510.5
 30
0.0
 40
3.0
100
AcDbArc
 50
270.0
 51
0.0
  0
ARC
  5
2D9
100
AcDbEntity
  8
化粧台
  6
EXLTYPE2
 62
     6
100
AcDbCircle
 10
2291.75
 20
1510.5
 30
0.0
 40
3.0
100
AcDbArc
 50
180.0
 51
270.0
  0
LINE
  5
2DA
100
AcDbEntity
  8
化粧台
  6
EXLTYPE2
 62
     6
100
AcDbLine
 10
2288.75
 20
1526.5
 30
0.0
 11
2288.75
 21
1510.5
 31
0.0
  0
LINE
  5
2DB
100
AcDbEntity
  8
化粧台
  6
EXLTYPE2
 62
     6
100
AcDbLine
 10
2338.25
 20
1507.5
 30
0.0
 11
2291.75
 21
1507.5
 31
0.0
  0
LINE
  5
2DC
100
AcDbEntity
  8
化粧台
  6
EXLTYPE2
 62
     6
100
AcDbLine
 10
2341.25
 20
1526.5
 30
0.0
 11
2341.25
 21
1510.5
 31
0.0
  0
LINE
  5
2DD
100
AcDbEntity
  8
化粧台
  6
EXLTYPE2
 62
     6
100
AcDbLine
 10
2332.9
 20
1506.0
 30
0.0
 11
2332.9
 21
1507.5
 31
0.0
  0
LINE
  5
2DE
100
AcDbEntity
  8
化粧台
  6
EXLTYPE2
 62
     6
100
AcDbLine
 10
2297.1
 20
1506.0
 30
0.0
 11
2297.1
 21
1507.5
 31
0.0
  0
LINE
  5
2DF
100
AcDbEntity
  8
化粧台
  6
EXLTYPE2
 62
     6
100
AcDbLine
 10
2343.3
 20
1545.2
 30
0.0
 11
2343.3
 21
1533.9
 31
0.0
  0
LINE
  5
2E0
100
AcDbEntity
  8
化粧台
  6
EXLTYPE2
 62
     6
100
AcDbLine
 10
2286.7
 20
1545.2
 30
0.0
 11
2286.7
 21
1533.9
 31
0.0
  0
LINE
  5
2E1
100
AcDbEntity
  8
化粧台
  6
EXLTYPE2
 62
     6
100
AcDbLine
 10
2343.3
 20
1533.9
 30
0.0
 11
2286.7
 21
1533.9
 31
0.0
  0
LINE
  5
2E2
100
AcDbEntity
  8
化粧台
  6
EXLTYPE2
 62
     6
100
AcDbLine
 10
2343.3
 20
1541.7
 30
0.0
 11
2286.7
 21
1541.7
 31
0.0
  0
LINE
  5
2E3
100
AcDbEntity
  8
化粧台
  6
EXLTYPE2
 62
     6
100
AcDbLine
 10
2338.5
 20
1533.9
 30
0.0
 11
2338.5
 21
1526.5
 31
0.0
  0
LINE
  5
2E4
100
AcDbEntity
  8
化粧台
  6
EXLTYPE2
 62
     6
100
AcDbLine
 10
2291.5
 20
1533.9
 30
0.0
 11
2291.5
 21
1526.5
 31
0.0
  0
LINE
  5
2E5
100
AcDbEntity
  8
化粧台
  6
EXLTYPE2
 62
     6
100
AcDbLine
 10
2343.5
 20
1545.7
 30
0.0
 11
2343.5
 21
1547.7
 31
0.0
  0
LINE
  5
2E6
100
AcDbEntity
  8
化粧台
  6
EXLTYPE2
 62
     6
100
AcDbLine
 10
2286.5
 20
1545.7
 30
0.0
 11
2286.5
 21
1547.7
 31
0.0
  0
LINE
  5
2E7
100
AcDbEntity
  8
化粧台
  6
EXLTYPE2
 62
     6
100
AcDbLine
 10
2338.275
 20
1551.0
 30
0.0
 11
2343.5
 21
1547.7
 31
0.0
  0
LINE
  5
2E8
100
AcDbEntity
  8
化粧台
  6
EXLTYPE2
 62
     6
100
AcDbLine
 10
2291.725
 20
1551.0
 30
0.0
 11
2286.5
 21
1547.7
 31
0.0
  0
LINE
  5
2E9
100
AcDbEntity
  8
化粧台
  6
EXLTYPE2
 62
     6
100
AcDbLine
 10
2373.0
 20
1488.5
 30
0.0
 11
2362.0
 21
1488.5
 31
0.0
  0
LINE
  5
2EA
100
AcDbEntity
  8
化粧台
  6
EXLTYPE2
 62
     6
100
AcDbLine
 10
2373.0
 20
1453.5
 30
0.0
 11
2362.0
 21
1453.5
 31
0.0
  0
LINE
  5
2EB
100
AcDbEntity
  8
化粧台
  6
EXLTYPE2
 62
     6
100
AcDbLine
 10
2373.0
 20
1488.5
 30
0.0
 11
2373.0
 21
1453.5
 31
0.0
  0
LINE
  5
2EC
100
AcDbEntity
  8
化粧台
  6
EXLTYPE2
 62
     6
100
AcDbLine
 10
2380.0
 20
1484.0
 30
0.0
 11
2380.0
 21
1458.0
 31
0.0
  0
LINE
  5
2ED
100
AcDbEntity
  8
化粧台
  6
EXLTYPE2
 62
     6
100
AcDbLine
 10
2380.0
 20
1484.0
 30
0.0
 11
2373.0
 21
1486.5
 31
0.0
  0
LINE
  5
2EE
100
AcDbEntity
  8
化粧台
  6
EXLTYPE2
 62
     6
100
AcDbLine
 10
2380.0
 20
1458.0
 30
0.0
 11
2373.0
 21
1455.5
 31
0.0
  0
LINE
  5
2EF
100
AcDbEntity
  8
化粧台
  6
EXLTYPE2
 62
     6
100
AcDbLine
 10
2385.0
 20
1474.5
 30
0.0
 11
2385.0
 21
1467.5
 31
0.0
  0
LINE
  5
2F0
100
AcDbEntity
  8
化粧台
  6
EXLTYPE2
 62
     6
100
AcDbLine
 10
2385.0
 20
1468.5
 30
0.0
 11
2407.9
 21
1468.5
 31
0.0
  0
LINE
  5
2F1
100
AcDbEntity
  8
化粧台
  6
EXLTYPE2
 62
     6
100
AcDbLine
 10
2385.0
 20
1474.5
 30
0.0
 11
2380.0
 21
1474.5
 31
0.0
  0
LINE
  5
2F2
100
AcDbEntity
  8
化粧台
  6
EXLTYPE2
 62
     6
100
AcDbLine
 10
2385.0
 20
1467.5
 30
0.0
 11
2380.0
 21
1467.5
 31
0.0
  0
LINE
  5
2F3
100
AcDbEntity
  8
化粧台
  6
EXLTYPE2
 62
     6
100
AcDbLine
 10
2407.9
 20
1473.5
 30
0.0
 11
2385.0
 21
1473.5
 31
0.0
  0
LINE
  5
2F4
100
AcDbEntity
  8
化粧台
  6
EXLTYPE2
 62
     6
100
AcDbLine
 10
2343.5
 20
1547.7
 30
0.0
 11
2286.5
 21
1547.7
 31
0.0
  0
LINE
  5
2F5
100
AcDbEntity
  8
化粧台
  6
EXLTYPE2
 62
     6
100
AcDbLine
 10
2343.5
 20
1545.7
 30
0.0
 11
2286.5
 21
1545.7
 31
0.0
  0
LINE
  5
2F6
100
AcDbEntity
  8
化粧台
  6
EXLTYPE2
 62
     6
100
AcDbLine
 10
2343.3
 20
1545.2
 30
0.0
 11
2286.7
 21
1545.2
 31
0.0
  0
LINE
  5
2F7
100
AcDbEntity
  8
化粧台
  6
EXLTYPE2
 62
     6
100
AcDbLine
 10
2299.053127
 20
1541.7
 30
0.0
 11
2299.053127
 21
1533.9
 31
0.0
  0
LINE
  5
2F8
100
AcDbEntity
  8
化粧台
  6
EXLTYPE2
 62
     6
100
AcDbLine
 10
2302.726451
 20
1541.7
 30
0.0
 11
2302.726451
 21
1533.9
 31
0.0
  0
LINE
  5
2F9
100
AcDbEntity
  8
化粧台
  6
EXLTYPE2
 62
     6
100
AcDbLine
 10
2327.273549
 20
1541.7
 30
0.0
 11
2327.273549
 21
1533.9
 31
0.0
  0
LINE
  5
2FA
100
AcDbEntity
  8
化粧台
  6
EXLTYPE2
 62
     6
100
AcDbLine
 10
2330.946873
 20
1541.7
 30
0.0
 11
2330.946873
 21
1533.9
 31
0.0
  0
LINE
  5
2FB
100
AcDbEntity
  8
化粧台
  6
EXLTYPE2
 62
     6
100
AcDbLine
 10
2303.328204
 20
1526.5
 30
0.0
 11
2303.328204
 21
1510.5
 31
0.0
  0
LINE
  5
2FC
100
AcDbEntity
  8
化粧台
  6
EXLTYPE2
 62
     6
100
AcDbLine
 10
2305.256412
 20
1526.5
 30
0.0
 11
2305.256412
 21
1510.5
 31
0.0
  0
LINE
  5
2FD
100
AcDbEntity
  8
化粧台
  6
EXLTYPE2
 62
     6
100
AcDbLine
 10
2324.743588
 20
1526.5
 30
0.0
 11
2324.743588
 21
1510.5
 31
0.0
  0
LINE
  5
2FE
100
AcDbEntity
  8
化粧台
  6
EXLTYPE2
 62
     6
100
AcDbLine
 10
2326.671796
 20
1526.5
 30
0.0
 11
2326.671796
 21
1510.5
 31
0.0
  0
LINE
  5
2FF
100
AcDbEntity
  8
化粧台
  6
EXLTYPE2
 62
     6
100
AcDbLine
 10
2332.9
 20
1506.0
 30
0.0
 11
2297.1
 21
1506.0
 31
0.0
  0
LINE
  5
300
100
AcDbEntity
  8
化粧台
  6
EXLTYPE2
 62
     6
100
AcDbLine
 10
2332.9
 20
1456.0
 30
0.0
 11
2297.1
 21
1456.0
 31
0.0
  0
LINE
  5
301
100
AcDbEntity
  8
化粧台
  6
EXLTYPE2
 62
     6
100
AcDbLine
 10
2330.8
 20
1453.9
 30
0.0
 11
2299.2
 21
1453.9
 31
0.0
  0
LINE
  5
302
100
AcDbEntity
  8
化粧台
  6
EXLTYPE2
 62
     6
100
AcDbLine
 10
2359.0
 20
1483.2
 30
0.0
 11
2359.0
 21
1458.8
 31
0.0
  0
LINE
  5
303
100
AcDbEntity
  8
化粧台
  6
EXLTYPE2
 62
     6
100
AcDbLine
 10
2315.0
 20
1367.5
 30
0.0
 11
2334.0
 21
1386.5
 31
0.0
  0
ARC
  5
304
100
AcDbEntity
  8
化粧台
  6
EXLTYPE2
 62
     6
100
AcDbCircle
 10
2349.0
 20
1401.5
 30
0.0
 40
15.0
100
AcDbArc
 50
180.0
 51
270.0
  0
LINE
  5
305
100
AcDbEntity
  8
化粧台
  6
EXLTYPE2
 62
     6
100
AcDbLine
 10
2333.0
 20
1348.5
 30
0.0
 11
2333.0
 21
1385.5
 31
0.0
  0
LINE
  5
306
100
AcDbEntity
  8
化粧台
  6
EXLTYPE2
 62
     6
100
AcDbLine
 10
2296.0
 20
1385.5
 30
0.0
 11
2333.0
 21
1385.5
 31
0.0
  0
LINE
  5
307
100
AcDbEntity
  8
化粧台
  6
EXLTYPE2
 62
     6
100
AcDbLine
 10
2298.75
 20
1382.5
 30
0.0
 11
2330.0
 21
1382.5
 31
0.0
  0
LINE
  5
308
100
AcDbEntity
  8
化粧台
  6
EXLTYPE2
 62
     6
100
AcDbLine
 10
2330.0
 20
1351.25
 30
0.0
 11
2330.0
 21
1382.5
 31
0.0
  0
LINE
  5
309
100
AcDbEntity
  8
化粧台
  6
EXLTYPE2
 62
     6
100
AcDbLine
 10
2351.7
 20
1348.5
 30
0.0
 11
2333.0
 21
1348.5
 31
0.0
  0
LINE
  5
30A
100
AcDbEntity
  8
化粧台
  6
EXLTYPE2
 62
     6
100
AcDbLine
 10
2296.0
 20
1385.5
 30
0.0
 11
2296.0
 21
1404.2
 31
0.0
  0
LINE
  5
30B
100
AcDbEntity
  8
化粧台
  6
EXLTYPE2
 62
     6
100
AcDbLine
 10
2298.75
 20
1367.5
 30
0.0
 11
2298.75
 21
1382.5
 31
0.0
  0
LINE
  5
30C
100
AcDbEntity
  8
化粧台
  6
EXLTYPE2
 62
     6
100
AcDbLine
 10
2315.0
 20
1351.25
 30
0.0
 11
2330.0
 21
1351.25
 31
0.0
  0
ARC
  5
30D
100
AcDbEntity
  8
化粧台
  6
EXLTYPE2
 62
     6
100
AcDbCircle
 10
2315.0
 20
1367.5
 30
0.0
 40
16.25
100
AcDbArc
 50
180.0
 51
270.0
  0
LINE
  5
30E
100
AcDbEntity
  8
化粧台
  6
EXLTYPE2
 62
     6
100
AcDbLine
 10
2333.0
 20
1348.5
 30
0.0
 11
2330.0
 21
1351.25
 31
0.0
  0
LINE
  5
30F
100
AcDbEntity
  8
化粧台
  6
EXLTYPE2
 62
     6
100
AcDbLine
 10
2296.0
 20
1385.5
 30
0.0
 11
2298.75
 21
1382.5
 31
0.0
  0
LINE
  5
310
100
AcDbEntity
  8
化粧台
  6
EXLTYPE2
 62
     6
100
AcDbLine
 10
2351.7
 20
1386.5
 30
0.0
 11
2334.0
 21
1386.5
 31
0.0
  0
LINE
  5
311
100
AcDbEntity
  8
化粧台
  6
EXLTYPE2
 62
     6
100
AcDbLine
 10
2334.0
 20
1386.5
 30
0.0
 11
2334.0
 21
1404.2
 31
0.0
  0
LINE
  5
312
100
AcDbEntity
  8
化粧台
  6
EXLTYPE2
 62
     6
100
AcDbLine
 10
2369.5
 20
1390.3
 30
0.0
 11
2351.7
 21
1390.3
 31
0.0
  0
LINE
  5
313
100
AcDbEntity
  8
化粧台
  6
EXLTYPE2
 62
     6
100
AcDbLine
 10
2369.5
 20
1344.7
 30
0.0
 11
2351.7
 21
1344.7
 31
0.0
  0
LINE
  5
314
100
AcDbEntity
  8
化粧台
  6
EXLTYPE2
 62
     6
100
AcDbLine
 10
2369.5
 20
1390.3
 30
0.0
 11
2369.5
 21
1344.7
 31
0.0
  0
LINE
  5
315
100
AcDbEntity
  8
化粧台
  6
EXLTYPE2
 62
     6
100
AcDbLine
 10
2351.7
 20
1390.3
 30
0.0
 11
2351.7
 21
1344.7
 31
0.0
  0
LINE
  5
316
100
AcDbEntity
  8
化粧台
  6
EXLTYPE2
 62
     6
100
AcDbLine
 10
2292.2
 20
1422.0
 30
0.0
 11
2292.2
 21
1404.2
 31
0.0
  0
LINE
  5
317
100
AcDbEntity
  8
化粧台
  6
EXLTYPE2
 62
     6
100
AcDbLine
 10
2337.8
 20
1422.0
 30
0.0
 11
2337.8
 21
1404.2
 31
0.0
  0
LINE
  5
318
100
AcDbEntity
  8
化粧台
  6
EXLTYPE2
 62
     6
100
AcDbLine
 10
2292.2
 20
1422.0
 30
0.0
 11
2337.8
 21
1422.0
 31
0.0
  0
LINE
  5
319
100
AcDbEntity
  8
化粧台
  6
EXLTYPE2
 62
     6
100
AcDbLine
 10
2292.2
 20
1404.2
 30
0.0
 11
2337.8
 21
1404.2
 31
0.0
  0
LINE
  5
31A
100
AcDbEntity
  8
化粧台
  6
EXLTYPE2
 62
     6
100
AcDbLine
 10
2336.643357
 20
1420.0
 30
0.0
 11
2336.643357
 21
1404.2
 31
0.0
  0
LINE
  5
31B
100
AcDbEntity
  8
化粧台
  6
EXLTYPE2
 62
     6
100
AcDbLine
 10
2293.356643
 20
1420.0
 30
0.0
 11
2293.356643
 21
1404.2
 31
0.0
  0
LINE
  5
31C
100
AcDbEntity
  8
化粧台
  6
EXLTYPE2
 62
     6
100
AcDbLine
 10
2325.600712
 20
1420.0
 30
0.0
 11
2325.600712
 21
1404.2
 31
0.0
  0
LINE
  5
31D
100
AcDbEntity
  8
化粧台
  6
EXLTYPE2
 62
     6
100
AcDbLine
 10
2322.808329
 20
1420.0
 30
0.0
 11
2322.808329
 21
1404.2
 31
0.0
  0
LINE
  5
31E
100
AcDbEntity
  8
化粧台
  6
EXLTYPE2
 62
     6
100
AcDbLine
 10
2307.191671
 20
1420.0
 30
0.0
 11
2307.191671
 21
1404.2
 31
0.0
  0
LINE
  5
31F
100
AcDbEntity
  8
化粧台
  6
EXLTYPE2
 62
     6
100
AcDbLine
 10
2304.399288
 20
1420.0
 30
0.0
 11
2304.399288
 21
1404.2
 31
0.0
  0
LINE
  5
320
100
AcDbEntity
  8
化粧台
  6
EXLTYPE2
 62
     6
100
AcDbLine
 10
2367.5
 20
1345.856643
 30
0.0
 11
2351.7
 21
1345.856643
 31
0.0
  0
LINE
  5
321
100
AcDbEntity
  8
化粧台
  6
EXLTYPE2
 62
     6
100
AcDbLine
 10
2367.5
 20
1389.143357
 30
0.0
 11
2351.7
 21
1389.143357
 31
0.0
  0
LINE
  5
322
100
AcDbEntity
  8
化粧台
  6
EXLTYPE2
 62
     6
100
AcDbLine
 10
2367.5
 20
1356.899288
 30
0.0
 11
2351.7
 21
1356.899288
 31
0.0
  0
LINE
  5
323
100
AcDbEntity
  8
化粧台
  6
EXLTYPE2
 62
     6
100
AcDbLine
 10
2367.5
 20
1359.691671
 30
0.0
 11
2351.7
 21
1359.691671
 31
0.0
  0
LINE
  5
324
100
AcDbEntity
  8
化粧台
  6
EXLTYPE2
 62
     6
100
AcDbLine
 10
2367.5
 20
1375.308329
 30
0.0
 11
2351.7
 21
1375.308329
 31
0.0
  0
LINE
  5
325
100
AcDbEntity
  8
化粧台
  6
EXLTYPE2
 62
     6
100
AcDbLine
 10
2367.5
 20
1378.100712
 30
0.0
 11
2351.7
 21
1378.100712
 31
0.0
  0
LINE
  5
326
100
AcDbEntity
  8
化粧台
  6
EXLTYPE2
 62
     6
100
AcDbLine
 10
2299.2
 20
1453.9
 30
0.0
 11
2299.2
 21
1422.0
 31
0.0
  0
LINE
  5
327
100
AcDbEntity
  8
化粧台
  6
EXLTYPE2
 62
     6
100
AcDbLine
 10
2330.8
 20
1453.9
 30
0.0
 11
2330.8
 21
1422.0
 31
0.0
  0
ARC
  5
328
100
AcDbEntity
  8
化粧台
  6
EXLTYPE2
 62
     6
100
AcDbCircle
 10
2434.0
 20
1351.5
 30
0.0
 40
32.0
100
AcDbArc
 50
0.0
 51
90.0
  0
LINE
  5
329
100
AcDbEntity
  8
化粧台
  6
EXLTYPE2
 62
     6
100
AcDbLine
 10
2434.0
 20
1383.5
 30
0.0
 11
2369.5
 21
1383.5
 31
0.0
  0
LINE
  5
32A
100
AcDbEntity
  8
化粧台
  6
EXLTYPE2
 62
     6
100
AcDbLine
 10
2434.0
 20
1351.5
 30
0.0
 11
2369.5
 21
1351.5
 31
0.0
  0
LINE
  5
32B
100
AcDbEntity
  8
化粧台
  6
EXLTYPE2
 62
     6
100
AcDbLine
 10
2431.5
 20
1302.5
 30
0.0
 11
2431.5
 21
1267.5
 31
0.0
  0
LINE
  5
32C
100
AcDbEntity
  8
化粧台
  6
EXLTYPE2
 62
     6
100
AcDbLine
 10
2465.85
 20
1264.85
 30
0.0
 11
2465.85
 21
1239.834963
 31
0.0
  0
LINE
  5
32D
100
AcDbEntity
  8
化粧台
  6
EXLTYPE2
 62
     6
100
AcDbLine
 10
2431.5
 20
1267.5
 30
0.0
 11
2434.15
 21
1264.85
 31
0.0
  0
LINE
  5
32E
100
AcDbEntity
  8
化粧台
  6
EXLTYPE2
 62
     6
100
AcDbLine
 10
2468.5
 20
1267.5
 30
0.0
 11
2465.85
 21
1264.85
 31
0.0
  0
LINE
  5
32F
100
AcDbEntity
  8
化粧台
  6
EXLTYPE2
 62
     6
100
AcDbLine
 10
2426.6
 20
1318.5
 30
0.0
 11
2426.6
 21
1302.5
 31
0.0
  0
ARC
  5
330
100
AcDbEntity
  8
化粧台
  6
EXLTYPE2
 62
     6
100
AcDbCircle
 10
2428.6
 20
1318.5
 30
0.0
 40
2.0
100
AcDbArc
 50
90.0
 51
180.0
  0
LINE
  5
331
100
AcDbEntity
  8
化粧台
  6
EXLTYPE2
 62
     6
100
AcDbLine
 10
2492.521127
 20
1180.0
 30
0.0
 11
2492.521127
 21
1195.0
 31
0.0
  0
ARC
  5
332
100
AcDbEntity
  8
化粧台
  6
EXLTYPE2
 62
     6
100
AcDbCircle
 10
2491.021127
 20
1180.0
 30
0.0
 40
1.5
100
AcDbArc
 50
270.0
 51
0.0
  0
LINE
  5
333
100
AcDbEntity
  8
化粧台
  6
EXLTYPE2
 62
     6
100
AcDbLine
 10
2516.442253
 20
1254.5
 30
0.0
 11
2469.642253
 21
1254.5
 31
0.0
  0
LINE
  5
334
100
AcDbEntity
  8
化粧台
  6
EXLTYPE2
 62
     6
100
AcDbLine
 10
2514.442253
 20
1272.5
 30
0.0
 11
2471.642253
 21
1272.5
 31
0.0
  0
LINE
  5
335
100
AcDbEntity
  8
化粧台
  6
EXLTYPE2
 62
     6
100
AcDbLine
 10
2516.442253
 20
1270.5
 30
0.0
 11
2516.442253
 21
1254.5
 31
0.0
  0
LINE
  5
336
100
AcDbEntity
  8
化粧台
  6
EXLTYPE2
 62
     6
100
AcDbLine
 10
2469.642253
 20
1270.5
 30
0.0
 11
2469.642253
 21
1254.5
 31
0.0
  0
ARC
  5
337
100
AcDbEntity
  8
化粧台
  6
EXLTYPE2
 62
     6
100
AcDbCircle
 10
2514.442253
 20
1270.5
 30
0.0
 40
2.0
100
AcDbArc
 50
0.0
 51
90.0
  0
ARC
  5
338
100
AcDbEntity
  8
化粧台
  6
EXLTYPE2
 62
     6
100
AcDbCircle
 10
2471.642253
 20
1270.5
 30
0.0
 40
2.0
100
AcDbArc
 50
90.0
 51
180.0
  0
LINE
  5
339
100
AcDbEntity
  8
化粧台
  6
EXLTYPE2
 62
     6
100
AcDbLine
 10
2511.542253
 20
1254.5
 30
0.0
 11
2511.542253
 21
1224.5
 31
0.0
  0
LINE
  5
33A
100
AcDbEntity
  8
化粧台
  6
EXLTYPE2
 62
     6
100
AcDbLine
 10
2508.892253
 20
1284.128873
 30
0.0
 11
2508.892253
 21
1272.5
 31
0.0
  0
LINE
  5
33B
100
AcDbEntity
  8
化粧台
  6
EXLTYPE2
 62
     6
100
AcDbLine
 10
2477.192253
 20
1284.128873
 30
0.0
 11
2477.192253
 21
1272.5
 31
0.0
  0
LINE
  5
33C
100
AcDbEntity
  8
化粧台
  6
EXLTYPE2
 62
     6
100
AcDbLine
 10
2432.870011
 20
1318.5
 30
0.0
 11
2432.870011
 21
1302.5
 31
0.0
  0
LINE
  5
33D
100
AcDbEntity
  8
化粧台
  6
EXLTYPE2
 62
     6
100
AcDbLine
 10
2491.774648
 20
1180.0
 30
0.0
 11
2491.774648
 21
1195.0
 31
0.0
  0
LINE
  5
33E
100
AcDbEntity
  8
化粧台
  6
EXLTYPE2
 62
     6
100
AcDbLine
 10
2488.343495
 20
1180.0
 30
0.0
 11
2488.343495
 21
1195.0
 31
0.0
  0
LINE
  5
33F
100
AcDbEntity
  8
化粧台
  6
EXLTYPE2
 62
     6
100
AcDbLine
 10
2473.995985
 20
1180.0
 30
0.0
 11
2473.995985
 21
1195.0
 31
0.0
  0
LINE
  5
340
100
AcDbEntity
  8
化粧台
  6
EXLTYPE2
 62
     6
100
AcDbLine
 10
2469.046268
 20
1180.0
 30
0.0
 11
2469.046268
 21
1195.0
 31
0.0
  0
LINE
  5
341
100
AcDbEntity
  8
化粧台
  6
EXLTYPE2
 62
     6
100
AcDbLine
 10
2510.172242
 20
1270.5
 30
0.0
 11
2510.172242
 21
1254.5
 31
0.0
  0
LINE
  5
342
100
AcDbEntity
  8
化粧台
  6
EXLTYPE2
 62
     6
100
AcDbLine
 10
2499.312265
 20
1270.5
 30
0.0
 11
2499.312265
 21
1254.5
 31
0.0
  0
LINE
  5
343
100
AcDbEntity
  8
化粧台
  6
EXLTYPE2
 62
     6
100
AcDbLine
 10
2486.772242
 20
1270.5
 30
0.0
 11
2486.772242
 21
1254.5
 31
0.0
  0
LINE
  5
344
100
AcDbEntity
  8
化粧台
  6
EXLTYPE2
 62
     6
100
AcDbLine
 10
2475.912265
 20
1270.5
 30
0.0
 11
2475.912265
 21
1254.5
 31
0.0
  0
ARC
  5
345
100
AcDbEntity
  8
化粧台
  6
EXLTYPE2
 62
     6
100
AcDbCircle
 10
2471.521127
 20
1284.128873
 30
0.0
 40
37.371127
100
AcDbArc
 50
0.0
 51
180.0
  0
ARC
  5
346
100
AcDbEntity
  8
化粧台
  6
EXLTYPE2
 62
     6
100
AcDbCircle
 10
2471.521127
 20
1284.128873
 30
0.0
 40
5.671127
100
AcDbArc
 50
0.0
 51
180.0
  0
LINE
  5
347
100
AcDbEntity
  8
化粧台
  6
EXLTYPE2
 62
     6
100
AcDbLine
 10
2443.729989
 20
1318.5
 30
0.0
 11
2443.729989
 21
1309.113944
 31
0.0
  0
LINE
  5
348
100
AcDbEntity
  8
化粧台
  6
EXLTYPE2
 62
     6
100
AcDbLine
 10
2438.977267
 20
1302.5
 30
0.0
 11
2426.6
 21
1302.5
 31
0.0
  0
LINE
  5
349
100
AcDbEntity
  8
化粧台
  6
EXLTYPE2
 62
     6
100
AcDbLine
 10
2468.5
 20
1288.928297
 30
0.0
 11
2468.5
 21
1267.5
 31
0.0
  0
LINE
  5
34A
100
AcDbEntity
  8
化粧台
  6
EXLTYPE2
 62
     6
100
AcDbLine
 10
2462.933796
 20
1320.5
 30
0.0
 11
2428.6
 21
1320.5
 31
0.0
  0
LINE
  5
34B
100
AcDbEntity
  8
化粧台
  6
EXLTYPE2
 62
     6
100
AcDbLine
 10
2474.542253
 20
1254.5
 30
0.0
 11
2474.542253
 21
1224.5
 31
0.0
  0
LINE
  5
34C
100
AcDbEntity
  8
化粧台
  6
EXLTYPE2
 62
     6
100
AcDbLine
 10
2511.542253
 20
1224.5
 30
0.0
 11
2474.542253
 21
1224.5
 31
0.0
  0
LINE
  5
34D
100
AcDbEntity
  8
化粧台
  6
EXLTYPE2
 62
     6
100
AcDbLine
 10
2489.021127
 20
1202.850662
 30
0.0
 11
2489.021127
 21
1195.0
 31
0.0
  0
ARC
  5
34E
100
AcDbEntity
  8
化粧台
  6
EXLTYPE2
 62
     6
100
AcDbCircle
 10
2471.521127
 20
1235.871127
 30
0.0
 40
37.371127
100
AcDbArc
 50
265.207599
 51
342.285405
  0
LINE
  5
34F
100
AcDbEntity
  8
化粧台
  6
EXLTYPE2
 62
     6
100
AcDbLine
 10
2492.521127
 20
1195.0
 30
0.0
 11
2465.85
 21
1195.0
 31
0.0
  0
LINE
  5
350
100
AcDbEntity
  8
化粧台
  6
EXLTYPE2
 62
     6
100
AcDbLine
 10
2491.021127
 20
1178.5
 30
0.0
 11
2465.85
 21
1178.5
 31
0.0
  0
ARC
  5
351
100
AcDbEntity
  8
化粧台
  6
EXLTYPE2
 62
     6
100
AcDbCircle
 10
2470.196127
 20
1232.45397
 30
0.0
 40
4.346127
100
AcDbArc
 50
180.0
 51
0.0
  0
LINE
  5
352
100
AcDbEntity
  8
化粧台
  6
EXLTYPE2
 62
     6
100
AcDbLine
 10
2466.0
 20
1321.08991
 30
0.0
 11
2466.0
 21
1351.5
 31
0.0
  0
LINE
  5
353
100
AcDbEntity
  8
化粧台
  6
EXLTYPE2
 62
     6
100
AcDbLine
 10
2434.0
 20
1320.5
 30
0.0
 11
2434.0
 21
1351.5
 31
0.0
  0
LINE
  5
354
100
AcDbEntity
  8
化粧台
  6
EXLTYPE2
 62
     6
100
AcDbLine
 10
2427.2
 20
949.2
 30
0.0
 11
2472.8
 21
949.2
 31
0.0
  0
LINE
  5
355
100
AcDbEntity
  8
化粧台
  6
EXLTYPE2
 62
     6
100
AcDbLine
 10
2427.2
 20
967.0
 30
0.0
 11
2472.8
 21
967.0
 31
0.0
  0
LINE
  5
356
100
AcDbEntity
  8
化粧台
  6
EXLTYPE2
 62
     6
100
AcDbLine
 10
2472.8
 20
967.0
 30
0.0
 11
2472.8
 21
949.2
 31
0.0
  0
LINE
  5
357
100
AcDbEntity
  8
化粧台
  6
EXLTYPE2
 62
     6
100
AcDbLine
 10
2427.2
 20
967.0
 30
0.0
 11
2427.2
 21
949.2
 31
0.0
  0
LINE
  5
358
100
AcDbEntity
  8
化粧台
  6
EXLTYPE2
 62
     6
100
AcDbLine
 10
2416.5
 20
909.0
 30
0.0
 11
2483.5
 21
909.0
 31
0.0
  0
LINE
  5
359
100
AcDbEntity
  8
化粧台
  6
EXLTYPE2
 62
     6
100
AcDbLine
 10
2429.3
 20
949.2
 30
0.0
 11
2429.3
 21
947.0
 31
0.0
  0
LINE
  5
35A
100
AcDbEntity
  8
化粧台
  6
EXLTYPE2
 62
     6
100
AcDbLine
 10
2470.7
 20
949.2
 30
0.0
 11
2470.7
 21
947.0
 31
0.0
  0
LINE
  5
35B
100
AcDbEntity
  8
化粧台
  6
EXLTYPE2
 62
     6
100
AcDbLine
 10
2483.5
 20
929.0
 30
0.0
 11
2483.5
 21
909.0
 31
0.0
  0
ARC
  5
35C
100
AcDbEntity
  8
化粧台
  6
EXLTYPE2
 62
     6
100
AcDbCircle
 10
2480.5
 20
929.0
 30
0.0
 40
3.0
100
AcDbArc
 50
0.0
 51
90.0
  0
LINE
  5
35D
100
AcDbEntity
  8
化粧台
  6
EXLTYPE2
 62
     6
100
AcDbLine
 10
2477.0
 20
944.0
 30
0.0
 11
2477.0
 21
932.0
 31
0.0
  0
ARC
  5
35E
100
AcDbEntity
  8
化粧台
  6
EXLTYPE2
 62
     6
100
AcDbCircle
 10
2474.0
 20
944.0
 30
0.0
 40
3.0
100
AcDbArc
 50
0.0
 51
90.0
  0
LINE
  5
35F
100
AcDbEntity
  8
化粧台
  6
EXLTYPE2
 62
     6
100
AcDbLine
 10
2423.0
 20
944.0
 30
0.0
 11
2423.0
 21
932.0
 31
0.0
  0
LINE
  5
360
100
AcDbEntity
  8
化粧台
  6
EXLTYPE2
 62
     6
100
AcDbLine
 10
2426.0
 20
947.0
 30
0.0
 11
2474.0
 21
947.0
 31
0.0
  0
ARC
  5
361
100
AcDbEntity
  8
化粧台
  6
EXLTYPE2
 62
     6
100
AcDbCircle
 10
2426.0
 20
944.0
 30
0.0
 40
3.0
100
AcDbArc
 50
90.0
 51
180.0
  0
LINE
  5
362
100
AcDbEntity
  8
化粧台
  6
EXLTYPE2
 62
     6
100
AcDbLine
 10
2416.5
 20
929.0
 30
0.0
 11
2416.5
 21
909.0
 31
0.0
  0
LINE
  5
363
100
AcDbEntity
  8
化粧台
  6
EXLTYPE2
 62
     6
100
AcDbLine
 10
2419.5
 20
932.0
 30
0.0
 11
2480.5
 21
932.0
 31
0.0
  0
ARC
  5
364
100
AcDbEntity
  8
化粧台
  6
EXLTYPE2
 62
     6
100
AcDbCircle
 10
2419.5
 20
929.0
 30
0.0
 40
3.0
100
AcDbArc
 50
90.0
 51
180.0
  0
LINE
  5
365
100
AcDbEntity
  8
化粧台
  6
EXLTYPE2
 62
     6
100
AcDbLine
 10
2439.399288
 20
965.0
 30
0.0
 11
2439.399288
 21
949.2
 31
0.0
  0
LINE
  5
366
100
AcDbEntity
  8
化粧台
  6
EXLTYPE2
 62
     6
100
AcDbLine
 10
2442.191671
 20
965.0
 30
0.0
 11
2442.191671
 21
949.2
 31
0.0
  0
LINE
  5
367
100
AcDbEntity
  8
化粧台
  6
EXLTYPE2
 62
     6
100
AcDbLine
 10
2457.808329
 20
965.0
 30
0.0
 11
2457.808329
 21
949.2
 31
0.0
  0
LINE
  5
368
100
AcDbEntity
  8
化粧台
  6
EXLTYPE2
 62
     6
100
AcDbLine
 10
2460.600712
 20
965.0
 30
0.0
 11
2460.600712
 21
949.2
 31
0.0
  0
LINE
  5
369
100
AcDbEntity
  8
化粧台
  6
EXLTYPE2
 62
     6
100
AcDbLine
 10
2428.356643
 20
965.0
 30
0.0
 11
2428.356643
 21
949.2
 31
0.0
  0
LINE
  5
36A
100
AcDbEntity
  8
化粧台
  6
EXLTYPE2
 62
     6
100
AcDbLine
 10
2471.643357
 20
965.0
 30
0.0
 11
2471.643357
 21
949.2
 31
0.0
  0
LINE
  5
36B
100
AcDbEntity
  8
化粧台
  6
EXLTYPE2
 62
     6
100
AcDbLine
 10
2434.15
 20
887.0
 30
0.0
 11
2434.15
 21
1284.128873
 31
0.0
  0
LINE
  5
36C
100
AcDbEntity
  8
化粧台
  6
EXLTYPE2
 62
     6
100
AcDbLine
 10
2465.85
 20
1284.128873
 30
0.0
 11
2465.85
 21
887.0
 31
0.0
  0
LINE
  5
36D
100
AcDbEntity
  8
化粧台
  6
CONTINUOUS
 62
     6
100
AcDbLine
 10
2550.0
 20
1296.5
 30
0.0
 11
2558.0
 21
1296.5
 31
0.0
  0
LINE
  5
36E
100
AcDbEntity
  8
化粧台
  6
CONTINUOUS
 62
     6
100
AcDbLine
 10
2558.0
 20
1317.5
 30
0.0
 11
2558.0
 21
1296.5
 31
0.0
  0
LINE
  5
36F
100
AcDbEntity
  8
化粧台
  6
CONTINUOUS
 62
     6
100
AcDbLine
 10
2550.0
 20
1317.5
 30
0.0
 11
2558.0
 21
1317.5
 31
0.0
  0
LINE
  5
370
100
AcDbEntity
  8
化粧台
  6
CONTINUOUS
 62
     6
100
AcDbLine
 10
2465.0
 20
1337.0
 30
0.0
 11
2465.0
 21
1277.0
 31
0.0
  0
LINE
  5
371
100
AcDbEntity
  8
化粧台
  6
CONTINUOUS
 62
     6
100
AcDbLine
 10
2417.0
 20
1307.0
 30
0.0
 11
2573.0
 21
1307.0
 31
0.0
  0
ARC
  5
372
100
AcDbEntity
  8
化粧台
  6
EXLTYPE2
 62
     6
100
AcDbCircle
 10
2481.10588
 20
1326.0
 30
0.0
 40
6.5
100
AcDbArc
 50
270.0
 51
318.84583
  0
ARC
  5
373
100
AcDbEntity
  8
化粧台
  6
EXLTYPE2
 62
     6
100
AcDbCircle
 10
2481.10588
 20
1288.0
 30
0.0
 40
6.5
100
AcDbArc
 50
41.15417
 51
90.0
  0
LINE
  5
374
100
AcDbEntity
  8
化粧台
  6
EXLTYPE2
 62
     6
100
AcDbLine
 10
2493.0
 20
1319.25
 30
0.0
 11
2491.572541
 21
1321.722432
 31
0.0
  0
LINE
  5
375
100
AcDbEntity
  8
化粧台
  6
EXLTYPE2
 62
     6
100
AcDbLine
 10
2493.0
 20
1294.75
 30
0.0
 11
2491.572541
 21
1292.277568
 31
0.0
  0
LINE
  5
376
100
AcDbEntity
  8
化粧台
  6
EXLTYPE2
 62
     6
100
AcDbLine
 10
2493.0
 20
1319.25
 30
0.0
 11
2493.0
 21
1294.75
 31
0.0
  0
LINE
  5
377
100
AcDbEntity
  8
化粧台
  6
EXLTYPE2
 62
     6
100
AcDbLine
 10
2491.572541
 20
1292.277568
 30
0.0
 11
2486.0
 21
1292.277568
 31
0.0
  0
ARC
  5
378
100
AcDbEntity
  8
化粧台
  6
EXLTYPE2
 62
     6
100
AcDbCircle
 10
2451.0
 20
1323.0
 30
0.0
 40
3.5
100
AcDbArc
 50
270.0
 51
0.0
  0
ARC
  5
379
100
AcDbEntity
  8
化粧台
  6
EXLTYPE2
 62
     6
100
AcDbCircle
 10
2479.0
 20
1323.0
 30
0.0
 40
3.5
100
AcDbArc
 50
180.0
 51
270.0
  0
LINE
  5
37A
100
AcDbEntity
  8
化粧台
  6
EXLTYPE2
 62
     6
100
AcDbLine
 10
2479.0
 20
1319.5
 30
0.0
 11
2481.10588
 21
1319.5
 31
0.0
  0
LINE
  5
37B
100
AcDbEntity
  8
化粧台
  6
EXLTYPE2
 62
     6
100
AcDbLine
 10
2437.6
 20
1301.7
 30
0.0
 11
2437.6
 21
1312.3
 31
0.0
  0
LINE
  5
37C
100
AcDbEntity
  8
化粧台
  6
EXLTYPE2
 62
     6
100
AcDbLine
 10
2450.5
 20
1294.25
 30
0.0
 11
2450.5
 21
1319.75
 31
0.0
  0
ARC
  5
37D
100
AcDbEntity
  8
化粧台
  6
EXLTYPE2
 62
     6
100
AcDbCircle
 10
2446.725083
 20
1298.25
 30
0.0
 40
5.5
100
AcDbArc
 50
217.187626
 51
313.341758
  0
LINE
  5
37E
100
AcDbEntity
  8
化粧台
  6
EXLTYPE2
 62
     6
100
AcDbLine
 10
2437.6
 20
1301.7
 30
0.0
 11
2442.34345
 21
1294.925651
 31
0.0
  0
ARC
  5
37F
100
AcDbEntity
  8
化粧台
  6
EXLTYPE2
 62
     6
100
AcDbCircle
 10
2446.725083
 20
1315.75
 30
0.0
 40
5.5
100
AcDbArc
 50
46.658242
 51
142.812374
  0
LINE
  5
380
100
AcDbEntity
  8
化粧台
  6
EXLTYPE2
 62
     6
100
AcDbLine
 10
2437.6
 20
1312.3
 30
0.0
 11
2442.34345
 21
1319.074349
 31
0.0
  0
LINE
  5
381
100
AcDbEntity
  8
化粧台
  6
EXLTYPE2
 62
     6
100
AcDbLine
 10
2442.34345
 20
1294.925651
 30
0.0
 11
2442.34345
 21
1319.074349
 31
0.0
  0
LINE
  5
382
100
AcDbEntity
  8
化粧台
  6
EXLTYPE2
 62
     6
100
AcDbLine
 10
2450.5
 20
1319.5
 30
0.0
 11
2451.0
 21
1319.5
 31
0.0
  0
LINE
  5
383
100
AcDbEntity
  8
化粧台
  6
EXLTYPE2
 62
     6
100
AcDbLine
 10
2450.5
 20
1294.5
 30
0.0
 11
2481.10588
 21
1294.5
 31
0.0
  0
LINE
  5
384
100
AcDbEntity
  8
化粧台
  6
EXLTYPE2
 62
     6
100
AcDbLine
 10
2432.0
 20
1311.75
 30
0.0
 11
2437.6
 21
1311.75
 31
0.0
  0
LINE
  5
385
100
AcDbEntity
  8
化粧台
  6
EXLTYPE2
 62
     6
100
AcDbLine
 10
2432.0
 20
1302.25
 30
0.0
 11
2437.6
 21
1302.25
 31
0.0
  0
LINE
  5
386
100
AcDbEntity
  8
化粧台
  6
EXLTYPE2
 62
     6
100
AcDbLine
 10
2432.0
 20
1311.75
 30
0.0
 11
2432.0
 21
1302.25
 31
0.0
  0
LINE
  5
387
100
AcDbEntity
  8
化粧台
  6
EXLTYPE2
 62
     6
100
AcDbLine
 10
2493.0
 20
1296.5
 30
0.0
 11
2550.0
 21
1296.5
 31
0.0
  0
LINE
  5
388
100
AcDbEntity
  8
化粧台
  6
EXLTYPE2
 62
     6
100
AcDbLine
 10
2493.0
 20
1317.5
 30
0.0
 11
2550.0
 21
1317.5
 31
0.0
  0
LINE
  5
389
100
AcDbEntity
  8
化粧台
  6
EXLTYPE2
 62
     6
100
AcDbLine
 10
2491.572541
 20
1321.722432
 30
0.0
 11
2486.0
 21
1321.722432
 31
0.0
  0
LINE
  5
38A
100
AcDbEntity
  8
化粧台
  6
EXLTYPE2
 62
     6
100
AcDbLine
 10
2475.0
 20
1370.0
 30
0.0
 11
2475.0
 21
1341.0
 31
0.0
  0
LINE
  5
38B
100
AcDbEntity
  8
化粧台
  6
EXLTYPE2
 62
     6
100
AcDbLine
 10
2455.0
 20
1370.0
 30
0.0
 11
2455.0
 21
1341.0
 31
0.0
  0
LINE
  5
38C
100
AcDbEntity
  8
化粧台
  6
EXLTYPE2
 62
     6
100
AcDbLine
 10
2477.0
 20
1341.0
 30
0.0
 11
2477.0
 21
1330.0
 31
0.0
  0
LINE
  5
38D
100
AcDbEntity
  8
化粧台
  6
EXLTYPE2
 62
     6
100
AcDbLine
 10
2453.0
 20
1341.0
 30
0.0
 11
2453.0
 21
1330.0
 31
0.0
  0
LINE
  5
38E
100
AcDbEntity
  8
化粧台
  6
EXLTYPE2
 62
     6
100
AcDbLine
 10
2453.0
 20
1330.0
 30
0.0
 11
2477.0
 21
1330.0
 31
0.0
  0
LINE
  5
38F
100
AcDbEntity
  8
化粧台
  6
EXLTYPE2
 62
     6
100
AcDbLine
 10
2453.0
 20
1341.0
 30
0.0
 11
2477.0
 21
1341.0
 31
0.0
  0
LINE
  5
390
100
AcDbEntity
  8
化粧台
  6
EXLTYPE2
 62
     6
100
AcDbLine
 10
2449.0
 20
1384.0
 30
0.0
 11
2449.0
 21
1370.0
 31
0.0
  0
LINE
  5
391
100
AcDbEntity
  8
化粧台
  6
EXLTYPE2
 62
     6
100
AcDbLine
 10
2479.0
 20
1382.0
 30
0.0
 11
2479.0
 21
1370.0
 31
0.0
  0
LINE
  5
392
100
AcDbEntity
  8
化粧台
  6
EXLTYPE2
 62
     6
100
AcDbLine
 10
2449.0
 20
1370.0
 30
0.0
 11
2479.0
 21
1370.0
 31
0.0
  0
LINE
  5
393
100
AcDbEntity
  8
化粧台
  6
EXLTYPE2
 62
     6
100
AcDbLine
 10
2457.0
 20
1384.0
 30
0.0
 11
2457.0
 21
1370.0
 31
0.0
  0
LINE
  5
394
100
AcDbEntity
  8
化粧台
  6
EXLTYPE2
 62
     6
100
AcDbLine
 10
2449.0
 20
1384.0
 30
0.0
 11
2457.0
 21
1384.0
 31
0.0
  0
LINE
  5
395
100
AcDbEntity
  8
化粧台
  6
EXLTYPE2
 62
     6
100
AcDbLine
 10
2457.0
 20
1382.0
 30
0.0
 11
2479.0
 21
1382.0
 31
0.0
  0
LINE
  5
396
100
AcDbEntity
  8
化粧台
  6
EXLTYPE2
 62
     6
100
AcDbLine
 10
2457.5
 20
1384.0
 30
0.0
 11
2472.5
 21
1384.0
 31
0.0
  0
LINE
  5
397
100
AcDbEntity
  8
化粧台
  6
EXLTYPE2
 62
     6
100
AcDbLine
 10
2457.5
 20
1382.0
 30
0.0
 11
2457.5
 21
1384.0
 31
0.0
  0
LINE
  5
398
100
AcDbEntity
  8
化粧台
  6
EXLTYPE2
 62
     6
100
AcDbLine
 10
2472.5
 20
1382.0
 30
0.0
 11
2472.5
 21
1384.0
 31
0.0
  0
LINE
  5
399
100
AcDbEntity
  8
化粧台
  6
EXLTYPE2
 62
     6
100
AcDbLine
 10
2454.5
 20
1323.0
 30
0.0
 11
2454.5
 21
1330.0
 31
0.0
  0
LINE
  5
39A
100
AcDbEntity
  8
化粧台
  6
EXLTYPE2
 62
     6
100
AcDbLine
 10
2475.5
 20
1323.0
 30
0.0
 11
2475.5
 21
1330.0
 31
0.0
  0
LINE
  5
39B
100
AcDbEntity
  8
化粧台
  6
EXLTYPE2
 62
     6
100
AcDbLine
 10
2459.0
 20
1586.0
 30
0.0
 11
2459.0
 21
1384.0
 31
0.0
  0
LINE
  5
39C
100
AcDbEntity
  8
化粧台
  6
EXLTYPE2
 62
     6
100
AcDbLine
 10
2471.0
 20
1586.0
 30
0.0
 11
2471.0
 21
1384.0
 31
0.0
  0
LINE
  5
39D
100
AcDbEntity
  8
化粧台
  6
EXLTYPE3
 62
     6
100
AcDbLine
 10
2315.0
 20
1566.0
 30
0.0
 11
2315.0
 21
1371.0
 31
0.0
  0
LINE
  5
39E
100
AcDbEntity
  8
化粧台
  6
CONTINUOUS
 62
     6
100
AcDbLine
 10
2550.0
 20
1469.0
 30
0.0
 11
2582.5
 21
1467.0
 31
0.0
  0
LINE
  5
39F
100
AcDbEntity
  8
化粧台
  6
CONTINUOUS
 62
     6
100
AcDbLine
 10
2582.5
 20
1467.0
 30
0.0
 11
2550.0
 21
1465.0
 31
0.0
  0
LINE
  5
3A0
100
AcDbEntity
  8
化粧台
  6
CONTINUOUS
 62
     6
100
AcDbLine
 10
2532.0
 20
1474.5
 30
0.0
 11
2531.0
 21
1474.5
 31
0.0
  0
LINE
  5
3A1
100
AcDbEntity
  8
化粧台
  6
CONTINUOUS
 62
     6
100
AcDbLine
 10
2532.0
 20
1459.5
 30
0.0
 11
2531.0
 21
1459.5
 31
0.0
  0
ARC
  5
3A2
100
AcDbEntity
  8
化粧台
  6
CONTINUOUS
 62
     6
100
AcDbCircle
 10
2532.039655
 20
1467.0
 30
0.0
 40
3.939655
100
AcDbArc
 50
105.301302
 51
254.698698
  0
LINE
  5
3A3
100
AcDbEntity
  8
化粧台
  6
CONTINUOUS
 62
     6
100
AcDbLine
 10
2531.0
 20
1474.5
 30
0.0
 11
2531.0
 21
1459.5
 31
0.0
  0
LINE
  5
3A4
100
AcDbEntity
  8
化粧台
  6
CONTINUOUS
 62
     6
100
AcDbLine
 10
2518.1
 20
1467.0
 30
0.0
 11
2592.5
 21
1467.0
 31
0.0
  0
LINE
  5
3A5
100
AcDbEntity
  8
化粧台
  6
EXLTYPE2
 62
     6
100
AcDbLine
 10
2532.0
 20
1027.0
 30
0.0
 11
2439.0
 21
1027.0
 31
0.0
  0
LINE
  5
3A6
100
AcDbEntity
  8
化粧台
  6
EXLTYPE2
 62
     6
100
AcDbLine
 10
2532.0
 20
992.0
 30
0.0
 11
2439.0
 21
992.0
 31
0.0
  0
LINE
  5
3A7
100
AcDbEntity
  8
化粧台
  6
EXLTYPE2
 62
     6
100
AcDbLine
 10
2439.0
 20
1027.0
 30
0.0
 11
2439.0
 21
992.0
 31
0.0
  0
LINE
  5
3A8
100
AcDbEntity
  8
化粧台
  6
EXLTYPE2
 62
     6
100
AcDbLine
 10
2532.0
 20
1027.0
 30
0.0
 11
2532.0
 21
992.0
 31
0.0
  0
LINE
  5
3A9
100
AcDbEntity
  8
化粧台
  6
EXLTYPE4
 62
     6
100
AcDbLine
 10
1825.5
 20
887.0
 30
0.0
 11
320.0
 21
887.0
 31
0.0
  0
LINE
  5
3AA
100
AcDbEntity
  8
化粧台
  6
CONTINUOUS
 62
     2
100
AcDbLine
 10
645.0
 20
4033.0
 30
0.0
 11
645.0
 21
3913.0
 31
0.0
  0
LINE
  5
3AB
100
AcDbEntity
  8
化粧台
  6
CONTINUOUS
 62
     2
100
AcDbLine
 10
645.0
 20
3913.0
 30
0.0
 11
645.0
 21
3543.0
 31
0.0
  0
LINE
  5
3AC
100
AcDbEntity
  8
化粧台
  6
CONTINUOUS
 62
     2
100
AcDbLine
 10
656.0
 20
3913.0
 30
0.0
 11
656.0
 21
3564.0
 31
0.0
  0
LINE
  5
3AD
100
AcDbEntity
  8
化粧台
  6
CONTINUOUS
 62
     2
100
AcDbLine
 10
676.5
 20
3883.0
 30
0.0
 11
675.282745
 21
3913.0
 31
0.0
  0
LINE
  5
3AE
100
AcDbEntity
  8
化粧台
  6
CONTINUOUS
 62
     2
100
AcDbLine
 10
1163.5
 20
3883.0
 30
0.0
 11
1164.717255
 21
3913.0
 31
0.0
  0
LINE
  5
3AF
100
AcDbEntity
  8
化粧台
  6
CONTINUOUS
 62
     2
100
AcDbLine
 10
1184.0
 20
3913.0
 30
0.0
 11
1184.0
 21
3564.0
 31
0.0
  0
LINE
  5
3B0
100
AcDbEntity
  8
化粧台
  6
CONTINUOUS
 62
     2
100
AcDbLine
 10
1195.0
 20
4033.0
 30
0.0
 11
1195.0
 21
3913.0
 31
0.0
  0
LINE
  5
3B1
100
AcDbEntity
  8
化粧台
  6
CONTINUOUS
 62
     2
100
AcDbLine
 10
1195.0
 20
3913.0
 30
0.0
 11
1195.0
 21
3543.0
 31
0.0
  0
LINE
  5
3B2
100
AcDbEntity
  8
化粧台
  6
CONTINUOUS
 62
     2
100
AcDbLine
 10
905.0
 20
3913.0
 30
0.0
 11
905.0
 21
3823.0
 31
0.0
  0
LINE
  5
3B3
100
AcDbEntity
  8
化粧台
  6
CONTINUOUS
 62
     2
100
AcDbLine
 10
916.0
 20
3913.0
 30
0.0
 11
916.0
 21
3863.0
 31
0.0
  0
LINE
  5
3B4
100
AcDbEntity
  8
化粧台
  6
CONTINUOUS
 62
     2
100
AcDbLine
 10
924.0
 20
3913.0
 30
0.0
 11
924.0
 21
3863.0
 31
0.0
  0
LINE
  5
3B5
100
AcDbEntity
  8
化粧台
  6
CONTINUOUS
 62
     2
100
AcDbLine
 10
935.0
 20
3913.0
 30
0.0
 11
935.0
 21
3823.0
 31
0.0
  0
CIRCLE
  5
3B6
100
AcDbEntity
  8
化粧台
  6
EXLTYPE2
 62
     6
100
AcDbCircle
 10
850.0
 20
3938.0
 30
0.0
 40
12.5
  0
CIRCLE
  5
3B7
100
AcDbEntity
  8
化粧台
  6
EXLTYPE2
 62
     6
100
AcDbCircle
 10
850.0
 20
3938.0
 30
0.0
 40
7.5
  0
LINE
  5
3B8
100
AcDbEntity
  8
化粧台
  6
EXLTYPE2
 62
     6
100
AcDbLine
 10
675.282745
 20
3913.0
 30
0.0
 11
671.401252
 21
4008.661773
 31
0.0
  0
LINE
  5
3B9
100
AcDbEntity
  8
化粧台
  6
EXLTYPE2
 62
     6
100
AcDbLine
 10
656.0
 20
4008.0
 30
0.0
 11
656.0
 21
3913.0
 31
0.0
  0
ARC
  5
3BA
100
AcDbEntity
  8
化粧台
  6
EXLTYPE2
 62
     6
100
AcDbCircle
 10
666.0
 20
4008.0
 30
0.0
 40
10.0
100
AcDbArc
 50
90.0
 51
180.0
  0
LINE
  5
3BB
100
AcDbEntity
  8
化粧台
  6
EXLTYPE2
 62
     6
100
AcDbLine
 10
666.0
 20
4018.0
 30
0.0
 11
1174.0
 21
4018.0
 31
0.0
  0
ARC
  5
3BC
100
AcDbEntity
  8
化粧台
  6
EXLTYPE2
 62
     6
100
AcDbCircle
 10
1174.0
 20
4008.0
 30
0.0
 40
10.0
100
AcDbArc
 50
0.0
 51
90.0
  0
LINE
  5
3BD
100
AcDbEntity
  8
化粧台
  6
EXLTYPE2
 62
     6
100
AcDbLine
 10
1184.0
 20
4008.0
 30
0.0
 11
1184.0
 21
3913.0
 31
0.0
  0
LINE
  5
3BE
100
AcDbEntity
  8
化粧台
  6
EXLTYPE2
 62
     6
100
AcDbLine
 10
1164.717255
 20
3913.0
 30
0.0
 11
1168.598748
 21
4008.661773
 31
0.0
  0
CIRCLE
  5
3BF
100
AcDbEntity
  8
化粧台
  6
EXLTYPE2
 62
     6
100
AcDbCircle
 10
920.0
 20
3948.0
 30
0.0
 40
24.5
  0
LINE
  5
3C0
100
AcDbEntity
  8
化粧台
  6
EXLTYPE2
 62
     6
100
AcDbLine
 10
935.0
 20
3928.628629
 30
0.0
 11
935.0
 21
3913.0
 31
0.0
  0
LINE
  5
3C1
100
AcDbEntity
  8
化粧台
  6
EXLTYPE2
 62
     6
100
AcDbLine
 10
905.0
 20
3928.628629
 30
0.0
 11
905.0
 21
3913.0
 31
0.0
  0
LINE
  5
3C2
100
AcDbEntity
  8
化粧台
  6
EXLTYPE2
 62
     6
100
AcDbLine
 10
916.0
 20
3923.828736
 30
0.0
 11
916.0
 21
3913.0
 31
0.0
  0
LINE
  5
3C3
100
AcDbEntity
  8
化粧台
  6
EXLTYPE2
 62
     6
100
AcDbLine
 10
924.0
 20
3923.828736
 30
0.0
 11
924.0
 21
3913.0
 31
0.0
  0
LINE
  5
3C4
100
AcDbEntity
  8
鏡台
  6
CONTINUOUS
 62
     2
100
AcDbLine
 10
545.0
 20
2787.0
 30
0.0
 11
1295.0
 21
2787.0
 31
0.0
  0
LINE
  5
3C5
100
AcDbEntity
  8
鏡台
  6
CONTINUOUS
 62
     2
100
AcDbLine
 10
545.0
 20
1987.0
 30
0.0
 11
1295.0
 21
1987.0
 31
0.0
  0
LINE
  5
3C6
100
AcDbEntity
  8
鏡台
  6
CONTINUOUS
 62
     2
100
AcDbLine
 10
545.0
 20
2787.0
 30
0.0
 11
545.0
 21
1987.0
 31
0.0
  0
LINE
  5
3C7
100
AcDbEntity
  8
鏡台
  6
CONTINUOUS
 62
     2
100
AcDbLine
 10
1295.0
 20
2787.0
 30
0.0
 11
1295.0
 21
1987.0
 31
0.0
  0
LINE
  5
3C8
100
AcDbEntity
  8
鏡台
  6
CONTINUOUS
 62
     2
100
AcDbLine
 10
1280.0
 20
2787.0
 30
0.0
 11
1280.0
 21
1987.0
 31
0.0
  0
LINE
  5
3C9
100
AcDbEntity
  8
鏡台
  6
CONTINUOUS
 62
     2
100
AcDbLine
 10
560.0
 20
2787.0
 30
0.0
 11
560.0
 21
1987.0
 31
0.0
  0
LINE
  5
3CA
100
AcDbEntity
  8
鏡台
  6
CONTINUOUS
 62
     2
100
AcDbLine
 10
560.0
 20
2005.0
 30
0.0
 11
1280.0
 21
2005.0
 31
0.0
  0
LINE
  5
3CB
100
AcDbEntity
  8
鏡台
  6
CONTINUOUS
 62
     2
100
AcDbLine
 10
560.0
 20
2771.5
 30
0.0
 11
1280.0
 21
2771.5
 31
0.0
  0
LINE
  5
3CC
100
AcDbEntity
  8
鏡台
  6
CONTINUOUS
 62
     2
100
AcDbLine
 10
1085.0
 20
2771.5
 30
0.0
 11
1085.0
 21
2005.0
 31
0.0
  0
LINE
  5
3CD
100
AcDbEntity
  8
鏡台
  6
CONTINUOUS
 62
     2
100
AcDbLine
 10
1070.0
 20
2771.5
 30
0.0
 11
1070.0
 21
2005.0
 31
0.0
  0
LINE
  5
3CE
100
AcDbEntity
  8
鏡台
  6
CONTINUOUS
 62
     2
100
AcDbLine
 10
1085.0
 20
2110.0
 30
0.0
 11
1280.0
 21
2110.0
 31
0.0
  0
LINE
  5
3CF
100
AcDbEntity
  8
鏡台
  6
CONTINUOUS
 62
     2
100
AcDbLine
 10
1085.0
 20
2070.0
 30
0.0
 11
1280.0
 21
2070.0
 31
0.0
  0
LINE
  5
3D0
100
AcDbEntity
  8
鏡台
  6
CONTINUOUS
 62
     2
100
AcDbLine
 10
1085.0
 20
2300.0
 30
0.0
 11
1280.0
 21
2300.0
 31
0.0
  0
LINE
  5
3D1
100
AcDbEntity
  8
鏡台
  6
CONTINUOUS
 62
     2
100
AcDbLine
 10
1085.0
 20
2340.0
 30
0.0
 11
1280.0
 21
2340.0
 31
0.0
  0
LINE
  5
3D2
100
AcDbEntity
  8
鏡台
  6
CONTINUOUS
 62
     2
100
AcDbLine
 10
1085.0
 20
2590.0
 30
0.0
 11
1280.0
 21
2590.0
 31
0.0
  0
LINE
  5
3D3
100
AcDbEntity
  8
鏡台
  6
CONTINUOUS
 62
     2
100
AcDbLine
 10
1085.0
 20
2550.0
 30
0.0
 11
1280.0
 21
2550.0
 31
0.0
  0
LINE
  5
3D4
100
AcDbEntity
  8
鏡台
  6
CONTINUOUS
 62
     6
100
AcDbLine
 10
1168.25
 20
2041.6
 30
0.0
 11
1168.25
 21
2018.4
 31
0.0
  0
LINE
  5
3D5
100
AcDbEntity
  8
鏡台
  6
CONTINUOUS
 62
     6
100
AcDbLine
 10
1196.75
 20
2041.6
 30
0.0
 11
1196.75
 21
2018.4
 31
0.0
  0
LINE
  5
3D6
100
AcDbEntity
  8
鏡台
  6
CONTINUOUS
 62
     6
100
AcDbLine
 10
1168.25
 20
2018.4
 30
0.0
 11
1196.75
 21
2018.4
 31
0.0
  0
LINE
  5
3D7
100
AcDbEntity
  8
鏡台
  6
CONTINUOUS
 62
     6
100
AcDbLine
 10
1168.25
 20
2041.6
 30
0.0
 11
1196.75
 21
2041.6
 31
0.0
  0
LINE
  5
3D8
100
AcDbEntity
  8
鏡台
  6
CONTINUOUS
 62
     6
100
AcDbLine
 10
1123.25
 20
2041.6
 30
0.0
 11
1123.25
 21
2018.4
 31
0.0
  0
LINE
  5
3D9
100
AcDbEntity
  8
鏡台
  6
CONTINUOUS
 62
     6
100
AcDbLine
 10
1151.75
 20
2041.6
 30
0.0
 11
1151.75
 21
2018.4
 31
0.0
  0
LINE
  5
3DA
100
AcDbEntity
  8
鏡台
  6
CONTINUOUS
 62
     6
100
AcDbLine
 10
1123.25
 20
2018.4
 30
0.0
 11
1151.75
 21
2018.4
 31
0.0
  0
LINE
  5
3DB
100
AcDbEntity
  8
鏡台
  6
CONTINUOUS
 62
     6
100
AcDbLine
 10
1123.25
 20
2041.6
 30
0.0
 11
1151.75
 21
2041.6
 31
0.0
  0
LINE
  5
3DC
100
AcDbEntity
  8
鏡台
  6
CONTINUOUS
 62
     6
100
AcDbLine
 10
1213.25
 20
2041.6
 30
0.0
 11
1213.25
 21
2018.4
 31
0.0
  0
LINE
  5
3DD
100
AcDbEntity
  8
鏡台
  6
CONTINUOUS
 62
     6
100
AcDbLine
 10
1241.75
 20
2041.6
 30
0.0
 11
1241.75
 21
2018.4
 31
0.0
  0
LINE
  5
3DE
100
AcDbEntity
  8
鏡台
  6
CONTINUOUS
 62
     6
100
AcDbLine
 10
1213.25
 20
2018.4
 30
0.0
 11
1241.75
 21
2018.4
 31
0.0
  0
LINE
  5
3DF
100
AcDbEntity
  8
鏡台
  6
CONTINUOUS
 62
     6
100
AcDbLine
 10
1213.25
 20
2041.6
 30
0.0
 11
1241.75
 21
2041.6
 31
0.0
  0
ARC
  5
3E0
100
AcDbEntity
  8
鏡台
  6
CONTINUOUS
 62
     6
100
AcDbCircle
 10
1098.0
 20
2044.5
 30
0.0
 40
3.0
100
AcDbArc
 50
90.0
 51
180.0
  0
LINE
  5
3E1
100
AcDbEntity
  8
鏡台
  6
CONTINUOUS
 62
     6
100
AcDbLine
 10
1095.0
 20
2044.5
 30
0.0
 11
1095.0
 21
2015.5
 31
0.0
  0
ARC
  5
3E2
100
AcDbEntity
  8
鏡台
  6
CONTINUOUS
 62
     6
100
AcDbCircle
 10
1098.0
 20
2015.5
 30
0.0
 40
3.0
100
AcDbArc
 50
180.0
 51
270.0
  0
LINE
  5
3E3
100
AcDbEntity
  8
鏡台
  6
CONTINUOUS
 62
     6
100
AcDbLine
 10
1098.0
 20
2012.5
 30
0.0
 11
1267.0
 21
2012.5
 31
0.0
  0
ARC
  5
3E4
100
AcDbEntity
  8
鏡台
  6
CONTINUOUS
 62
     6
100
AcDbCircle
 10
1267.0
 20
2015.5
 30
0.0
 40
3.0
100
AcDbArc
 50
270.0
 51
0.0
  0
LINE
  5
3E5
100
AcDbEntity
  8
鏡台
  6
CONTINUOUS
 62
     6
100
AcDbLine
 10
1270.0
 20
2044.5
 30
0.0
 11
1270.0
 21
2015.5
 31
0.0
  0
LINE
  5
3E6
100
AcDbEntity
  8
鏡台
  6
CONTINUOUS
 62
     6
100
AcDbLine
 10
1098.0
 20
2047.5
 30
0.0
 11
1267.0
 21
2047.5
 31
0.0
  0
ARC
  5
3E7
100
AcDbEntity
  8
鏡台
  6
CONTINUOUS
 62
     6
100
AcDbCircle
 10
1267.0
 20
2044.5
 30
0.0
 40
3.0
100
AcDbArc
 50
0.0
 51
90.0
  0
CIRCLE
  5
3E8
100
AcDbEntity
  8
鏡台
  6
CONTINUOUS
 62
     6
100
AcDbCircle
 10
1227.5
 20
2030.0
 30
0.0
 40
11.0
  0
LINE
  5
3E9
100
AcDbEntity
  8
鏡台
  6
CONTINUOUS
 62
     6
100
AcDbLine
 10
1170.25
 20
2038.6
 30
0.0
 11
1170.25
 21
2021.4
 31
0.0
  0
LINE
  5
3EA
100
AcDbEntity
  8
鏡台
  6
CONTINUOUS
 62
     6
100
AcDbLine
 10
1194.75
 20
2038.6
 30
0.0
 11
1194.75
 21
2021.4
 31
0.0
  0
LINE
  5
3EB
100
AcDbEntity
  8
鏡台
  6
CONTINUOUS
 62
     6
100
AcDbLine
 10
1192.75
 20
2038.6
 30
0.0
 11
1192.75
 21
2021.4
 31
0.0
  0
LINE
  5
3EC
100
AcDbEntity
  8
鏡台
  6
CONTINUOUS
 62
     6
100
AcDbLine
 10
1170.25
 20
2021.4
 30
0.0
 11
1194.75
 21
2021.4
 31
0.0
  0
LINE
  5
3ED
100
AcDbEntity
  8
鏡台
  6
CONTINUOUS
 62
     6
100
AcDbLine
 10
1170.25
 20
2038.6
 30
0.0
 11
1194.75
 21
2038.6
 31
0.0
  0
CIRCLE
  5
3EE
100
AcDbEntity
  8
鏡台
  6
CONTINUOUS
 62
     6
100
AcDbCircle
 10
1189.05
 20
2030.0
 30
0.0
 40
1.0
  0
LINE
  5
3EF
100
AcDbEntity
  8
鏡台
  6
CONTINUOUS
 62
     6
100
AcDbLine
 10
1125.25
 20
2038.6
 30
0.0
 11
1125.25
 21
2021.4
 31
0.0
  0
LINE
  5
3F0
100
AcDbEntity
  8
鏡台
  6
CONTINUOUS
 62
     6
100
AcDbLine
 10
1149.75
 20
2038.6
 30
0.0
 11
1149.75
 21
2021.4
 31
0.0
  0
LINE
  5
3F1
100
AcDbEntity
  8
鏡台
  6
CONTINUOUS
 62
     6
100
AcDbLine
 10
1147.75
 20
2038.6
 30
0.0
 11
1147.75
 21
2021.4
 31
0.0
  0
LINE
  5
3F2
100
AcDbEntity
  8
鏡台
  6
CONTINUOUS
 62
     6
100
AcDbLine
 10
1125.25
 20
2021.4
 30
0.0
 11
1149.75
 21
2021.4
 31
0.0
  0
LINE
  5
3F3
100
AcDbEntity
  8
鏡台
  6
CONTINUOUS
 62
     6
100
AcDbLine
 10
1125.25
 20
2038.6
 30
0.0
 11
1149.75
 21
2038.6
 31
0.0
  0
CIRCLE
  5
3F4
100
AcDbEntity
  8
鏡台
  6
CONTINUOUS
 62
     6
100
AcDbCircle
 10
1144.05
 20
2030.0
 30
0.0
 40
1.0
  0
LINE
  5
3F5
100
AcDbEntity
  8
鏡台
  6
CONTINUOUS
 62
     6
100
AcDbLine
 10
1223.5
 20
2036.0
 30
0.0
 11
1231.5
 21
2036.0
 31
0.0
  0
LINE
  5
3F6
100
AcDbEntity
  8
鏡台
  6
CONTINUOUS
 62
     6
100
AcDbLine
 10
1223.5
 20
2024.0
 30
0.0
 11
1231.5
 21
2024.0
 31
0.0
  0
LINE
  5
3F7
100
AcDbEntity
  8
鏡台
  6
CONTINUOUS
 62
     2
100
AcDbLine
 10
560.0
 20
2046.0
 30
0.0
 11
1070.0
 21
2046.0
 31
0.0
  0
LINE
  5
3F8
100
AcDbEntity
  8
鏡台
  6
CONTINUOUS
 62
     2
100
AcDbLine
 10
560.0
 20
2669.5
 30
0.0
 11
1070.0
 21
2669.5
 31
0.0
  0
LINE
  5
3F9
100
AcDbEntity
  8
鏡台
  6
CONTINUOUS
 62
     2
100
AcDbLine
 10
560.0
 20
2660.5
 30
0.0
 11
1070.0
 21
2660.5
 31
0.0
  0
LINE
  5
3FA
100
AcDbEntity
  8
鏡台
  6
CONTINUOUS
 62
     6
100
AcDbLine
 10
560.0
 20
2768.5
 30
0.0
 11
1070.0
 21
2768.5
 31
0.0
  0
LINE
  5
3FB
100
AcDbEntity
  8
鏡台
  6
CONTINUOUS
 62
     6
100
AcDbLine
 10
560.0
 20
2677.5
 30
0.0
 11
1070.0
 21
2677.5
 31
0.0
  0
LINE
  5
3FC
100
AcDbEntity
  8
鏡台
  6
CONTINUOUS
 62
     5
100
AcDbLine
 10
1085.0
 20
2585.75
 30
0.0
 11
1280.0
 21
2585.75
 31
0.0
  0
LINE
  5
3FD
100
AcDbEntity
  8
鏡台
  6
CONTINUOUS
 62
     5
100
AcDbLine
 10
1085.0
 20
2579.75
 30
0.0
 11
1280.0
 21
2579.75
 31
0.0
  0
LINE
  5
3FE
100
AcDbEntity
  8
鏡台
  6
CONTINUOUS
 62
     5
100
AcDbLine
 10
1085.0
 20
2573.75
 30
0.0
 11
1280.0
 21
2573.75
 31
0.0
  0
LINE
  5
3FF
100
AcDbEntity
  8
鏡台
  6
CONTINUOUS
 62
     5
100
AcDbLine
 10
1085.0
 20
2567.75
 30
0.0
 11
1280.0
 21
2567.75
 31
0.0
  0
LINE
  5
400
100
AcDbEntity
  8
鏡台
  6
CONTINUOUS
 62
     5
100
AcDbLine
 10
1085.0
 20
2561.75
 30
0.0
 11
1280.0
 21
2561.75
 31
0.0
  0
LINE
  5
401
100
AcDbEntity
  8
鏡台
  6
CONTINUOUS
 62
     5
100
AcDbLine
 10
1085.0
 20
2555.75
 30
0.0
 11
1280.0
 21
2555.75
 31
0.0
  0
LINE
  5
402
100
AcDbEntity
  8
鏡台
  6
CONTINUOUS
 62
     5
100
AcDbLine
 10
1085.0
 20
2335.75
 30
0.0
 11
1280.0
 21
2335.75
 31
0.0
  0
LINE
  5
403
100
AcDbEntity
  8
鏡台
  6
CONTINUOUS
 62
     5
100
AcDbLine
 10
1085.0
 20
2329.75
 30
0.0
 11
1280.0
 21
2329.75
 31
0.0
  0
LINE
  5
404
100
AcDbEntity
  8
鏡台
  6
CONTINUOUS
 62
     5
100
AcDbLine
 10
1085.0
 20
2323.75
 30
0.0
 11
1280.0
 21
2323.75
 31
0.0
  0
LINE
  5
405
100
AcDbEntity
  8
鏡台
  6
CONTINUOUS
 62
     5
100
AcDbLine
 10
1085.0
 20
2317.75
 30
0.0
 11
1280.0
 21
2317.75
 31
0.0
  0
LINE
  5
406
100
AcDbEntity
  8
鏡台
  6
CONTINUOUS
 62
     5
100
AcDbLine
 10
1085.0
 20
2311.75
 30
0.0
 11
1280.0
 21
2311.75
 31
0.0
  0
LINE
  5
407
100
AcDbEntity
  8
鏡台
  6
CONTINUOUS
 62
     5
100
AcDbLine
 10
1085.0
 20
2305.75
 30
0.0
 11
1280.0
 21
2305.75
 31
0.0
  0
LINE
  5
408
100
AcDbEntity
  8
鏡台
  6
CONTINUOUS
 62
     5
100
AcDbLine
 10
1085.0
 20
2105.75
 30
0.0
 11
1280.0
 21
2105.75
 31
0.0
  0
LINE
  5
409
100
AcDbEntity
  8
鏡台
  6
CONTINUOUS
 62
     5
100
AcDbLine
 10
1085.0
 20
2099.75
 30
0.0
 11
1280.0
 21
2099.75
 31
0.0
  0
LINE
  5
40A
100
AcDbEntity
  8
鏡台
  6
CONTINUOUS
 62
     5
100
AcDbLine
 10
1085.0
 20
2093.75
 30
0.0
 11
1280.0
 21
2093.75
 31
0.0
  0
LINE
  5
40B
100
AcDbEntity
  8
鏡台
  6
CONTINUOUS
 62
     5
100
AcDbLine
 10
1085.0
 20
2087.75
 30
0.0
 11
1280.0
 21
2087.75
 31
0.0
  0
LINE
  5
40C
100
AcDbEntity
  8
鏡台
  6
CONTINUOUS
 62
     5
100
AcDbLine
 10
1085.0
 20
2081.75
 30
0.0
 11
1280.0
 21
2081.75
 31
0.0
  0
LINE
  5
40D
100
AcDbEntity
  8
鏡台
  6
CONTINUOUS
 62
     5
100
AcDbLine
 10
1085.0
 20
2075.75
 30
0.0
 11
1280.0
 21
2075.75
 31
0.0
  0
LINE
  5
40E
100
AcDbEntity
  8
鏡台
  6
CONTINUOUS
 62
     5
100
AcDbLine
 10
560.0
 20
2041.75
 30
0.0
 11
1070.0
 21
2041.75
 31
0.0
  0
LINE
  5
40F
100
AcDbEntity
  8
鏡台
  6
CONTINUOUS
 62
     5
100
AcDbLine
 10
560.0
 20
2035.75
 30
0.0
 11
1070.0
 21
2035.75
 31
0.0
  0
LINE
  5
410
100
AcDbEntity
  8
鏡台
  6
CONTINUOUS
 62
     5
100
AcDbLine
 10
560.0
 20
2029.75
 30
0.0
 11
1070.0
 21
2029.75
 31
0.0
  0
LINE
  5
411
100
AcDbEntity
  8
鏡台
  6
CONTINUOUS
 62
     5
100
AcDbLine
 10
560.0
 20
2023.75
 30
0.0
 11
1070.0
 21
2023.75
 31
0.0
  0
LINE
  5
412
100
AcDbEntity
  8
鏡台
  6
CONTINUOUS
 62
     5
100
AcDbLine
 10
560.0
 20
2017.75
 30
0.0
 11
1070.0
 21
2017.75
 31
0.0
  0
LINE
  5
413
100
AcDbEntity
  8
鏡台
  6
CONTINUOUS
 62
     5
100
AcDbLine
 10
560.0
 20
2011.75
 30
0.0
 11
1070.0
 21
2011.75
 31
0.0
  0
LINE
  5
414
100
AcDbEntity
  8
鏡台
  6
CONTINUOUS
 62
     5
100
AcDbLine
 10
560.0
 20
2759.5
 30
0.0
 11
1070.0
 21
2759.5
 31
0.0
  0
LINE
  5
415
100
AcDbEntity
  8
鏡台
  6
CONTINUOUS
 62
     5
100
AcDbLine
 10
560.0
 20
2750.5
 30
0.0
 11
1070.0
 21
2750.5
 31
0.0
  0
LINE
  5
416
100
AcDbEntity
  8
鏡台
  6
CONTINUOUS
 62
     5
100
AcDbLine
 10
560.0
 20
2741.5
 30
0.0
 11
1070.0
 21
2741.5
 31
0.0
  0
LINE
  5
417
100
AcDbEntity
  8
鏡台
  6
CONTINUOUS
 62
     5
100
AcDbLine
 10
560.0
 20
2732.5
 30
0.0
 11
1070.0
 21
2732.5
 31
0.0
  0
LINE
  5
418
100
AcDbEntity
  8
鏡台
  6
CONTINUOUS
 62
     5
100
AcDbLine
 10
560.0
 20
2723.5
 30
0.0
 11
1070.0
 21
2723.5
 31
0.0
  0
LINE
  5
419
100
AcDbEntity
  8
鏡台
  6
CONTINUOUS
 62
     5
100
AcDbLine
 10
560.0
 20
2714.5
 30
0.0
 11
1070.0
 21
2714.5
 31
0.0
  0
LINE
  5
41A
100
AcDbEntity
  8
鏡台
  6
CONTINUOUS
 62
     5
100
AcDbLine
 10
560.0
 20
2705.5
 30
0.0
 11
1070.0
 21
2705.5
 31
0.0
  0
LINE
  5
41B
100
AcDbEntity
  8
鏡台
  6
CONTINUOUS
 62
     5
100
AcDbLine
 10
560.0
 20
2696.5
 30
0.0
 11
1070.0
 21
2696.5
 31
0.0
  0
LINE
  5
41C
100
AcDbEntity
  8
鏡台
  6
CONTINUOUS
 62
     5
100
AcDbLine
 10
560.0
 20
2687.5
 30
0.0
 11
1070.0
 21
2687.5
 31
0.0
  0
LINE
  5
41D
100
AcDbEntity
  8
鏡台
  6
CONTINUOUS
 62
     6
100
AcDbLine
 10
942.714466
 20
2559.785534
 30
0.0
 11
929.964466
 21
2547.035534
 31
0.0
  0
LINE
  5
41E
100
AcDbEntity
  8
鏡台
  6
CONTINUOUS
 62
     6
100
AcDbLine
 10
922.0
 20
2532.0
 30
0.0
 11
954.5
 21
2564.5
 31
0.0
  0
LINE
  5
41F
100
AcDbEntity
  8
鏡台
  6
CONTINUOUS
 62
     6
100
AcDbLine
 10
932.535534
 20
2535.464466
 30
0.0
 11
947.535534
 21
2550.464466
 31
0.0
  0
LINE
  5
420
100
AcDbEntity
  8
鏡台
  6
CONTINUOUS
 62
     6
100
AcDbLine
 10
692.214466
 20
2349.785534
 30
0.0
 11
679.464466
 21
2337.035534
 31
0.0
  0
LINE
  5
421
100
AcDbEntity
  8
鏡台
  6
CONTINUOUS
 62
     6
100
AcDbLine
 10
671.5
 20
2322.0
 30
0.0
 11
704.0
 21
2354.5
 31
0.0
  0
LINE
  5
422
100
AcDbEntity
  8
鏡台
  6
CONTINUOUS
 62
     6
100
AcDbLine
 10
682.035534
 20
2325.464466
 30
0.0
 11
697.035534
 21
2340.464466
 31
0.0
  0
LINE
  5
423
100
AcDbEntity
  8
鏡台
  6
CONTINUOUS
 62
     6
100
AcDbLine
 10
879.714466
 20
2163.785534
 30
0.0
 11
866.964466
 21
2151.035534
 31
0.0
  0
LINE
  5
424
100
AcDbEntity
  8
鏡台
  6
CONTINUOUS
 62
     6
100
AcDbLine
 10
859.0
 20
2136.0
 30
0.0
 11
891.5
 21
2168.5
 31
0.0
  0
LINE
  5
425
100
AcDbEntity
  8
鏡台
  6
CONTINUOUS
 62
     6
100
AcDbLine
 10
869.535534
 20
2139.464466
 30
0.0
 11
884.535534
 21
2154.464466
 31
0.0
  0
LINE
  5
426
100
AcDbEntity
  8
鏡台
  6
CONTINUOUS
 62
     6
100
AcDbLine
 10
1105.0
 20
2761.5
 30
0.0
 11
1105.0
 21
2815.076697
 31
0.0
  0
CIRCLE
  5
427
100
AcDbEntity
  8
鏡台
  6
CONTINUOUS
 62
     2
100
AcDbCircle
 10
1195.0
 20
2727.0
 30
0.0
 40
8.0
  0
LINE
  5
428
100
AcDbEntity
  8
鏡台
  6
CONTINUOUS
 62
     6
100
AcDbLine
 10
1208.0
 20
2727.0
 30
0.0
 11
1182.0
 21
2727.0
 31
0.0
  0
LINE
  5
429
100
AcDbEntity
  8
鏡台
  6
CONTINUOUS
 62
     6
100
AcDbLine
 10
1195.0
 20
2740.0
 30
0.0
 11
1195.0
 21
2714.0
 31
0.0
  0
LINE
  5
42A
100
AcDbEntity
  8
鏡台
  6
CONTINUOUS
 62
     6
100
AcDbLine
 10
658.0
 20
2727.0
 30
0.0
 11
632.0
 21
2727.0
 31
0.0
  0
LINE
  5
42B
100
AcDbEntity
  8
鏡台
  6
CONTINUOUS
 62
     6
100
AcDbLine
 10
645.0
 20
2740.0
 30
0.0
 11
645.0
 21
2714.0
 31
0.0
  0
CIRCLE
  5
42C
100
AcDbEntity
  8
鏡台
  6
EXLTYPE2
 62
     6
100
AcDbCircle
 10
645.0
 20
2727.0
 30
0.0
 40
8.0
  0
LINE
  5
42D
100
AcDbEntity
  8
鏡台
  6
CONTINUOUS
 62
     6
100
AcDbLine
 10
1158.0
 20
2017.0
 30
0.0
 11
1132.0
 21
2017.0
 31
0.0
  0
LINE
  5
42E
100
AcDbEntity
  8
鏡台
  6
CONTINUOUS
 62
     6
100
AcDbLine
 10
1145.0
 20
2030.0
 30
0.0
 11
1145.0
 21
2004.0
 31
0.0
  0
CIRCLE
  5
42F
100
AcDbEntity
  8
鏡台
  6
EXLTYPE2
 62
     6
100
AcDbCircle
 10
1145.0
 20
2017.0
 30
0.0
 40
8.0
  0
LINE
  5
430
100
AcDbEntity
  8
鏡台
  6
CONTINUOUS
 62
     6
100
AcDbLine
 10
708.0
 20
2017.0
 30
0.0
 11
682.0
 21
2017.0
 31
0.0
  0
LINE
  5
431
100
AcDbEntity
  8
鏡台
  6
CONTINUOUS
 62
     6
100
AcDbLine
 10
695.0
 20
2030.0
 30
0.0
 11
695.0
 21
2004.0
 31
0.0
  0
CIRCLE
  5
432
100
AcDbEntity
  8
鏡台
  6
EXLTYPE2
 62
     6
100
AcDbCircle
 10
695.0
 20
2017.0
 30
0.0
 40
8.0
  0
ARC
  5
433
100
AcDbEntity
  8
鏡台
  6
CONTINUOUS
 62
     6
100
AcDbCircle
 10
1038.189941
 20
2698.748657
 30
0.0
 40
120.0
100
AcDbArc
 50
62.423126
 51
85.409607
  0
ARC
  5
434
100
AcDbEntity
  8
鏡台
  6
CONTINUOUS
 62
     6
100
AcDbCircle
 10
1039.416992
 20
2704.644653
 30
0.0
 40
120.0
100
AcDbArc
 50
60.778137
 51
86.650879
  0
ARC
  5
435
100
AcDbEntity
  8
鏡台
  6
CONTINUOUS
 62
     6
100
AcDbCircle
 10
1031.015259
 20
2815.627808
 30
0.0
 40
17.00025
100
AcDbArc
 50
321.927124
 51
18.071106
  0
ARC
  5
436
100
AcDbEntity
  8
鏡台
  6
CONTINUOUS
 62
     6
100
AcDbCircle
 10
1063.338562
 20
2826.174561
 30
0.0
 40
17.000208
100
AcDbArc
 50
169.998962
 51
198.071045
  0
ARC
  5
437
100
AcDbEntity
  8
鏡台
  6
CONTINUOUS
 62
     6
100
AcDbCircle
 10
1063.338379
 20
2826.174683
 30
0.0
 40
17.000029
100
AcDbArc
 50
141.926392
 51
169.998962
  0
ARC
  5
438
100
AcDbEntity
  8
鏡台
  6
CONTINUOUS
 62
     6
100
AcDbCircle
 10
1023.015259
 20
2815.627808
 30
0.0
 40
17.00025
100
AcDbArc
 50
321.927124
 51
18.071106
  0
ARC
  5
439
100
AcDbEntity
  8
鏡台
  6
CONTINUOUS
 62
     6
100
AcDbCircle
 10
1055.338562
 20
2826.174561
 30
0.0
 40
17.000208
100
AcDbArc
 50
169.998962
 51
198.071045
  0
ARC
  5
43A
100
AcDbEntity
  8
鏡台
  6
CONTINUOUS
 62
     6
100
AcDbCircle
 10
1055.338379
 20
2826.174683
 30
0.0
 40
17.000029
100
AcDbArc
 50
141.926392
 51
169.998962
  0
ARC
  5
43B
100
AcDbEntity
  8
鏡台
  6
CONTINUOUS
 62
     6
100
AcDbCircle
 10
1078.0
 20
2787.0
 30
0.0
 40
24.0
100
AcDbArc
 50
0.0
 51
49.009033
  0
ARC
  5
43C
100
AcDbEntity
  8
鏡台
  6
CONTINUOUS
 62
     6
100
AcDbCircle
 10
1078.0
 20
2787.0
 30
0.0
 40
30.0
100
AcDbArc
 50
0.0
 51
48.206329
  0
LINE
  5
43D
100
AcDbEntity
  8
鏡台
  6
CONTINUOUS
 62
     6
100
AcDbLine
 10
985.496104
 20
2824.302
 30
0.0
 11
988.355649
 21
2834.923743
 31
0.0
  0
LINE
  5
43E
100
AcDbEntity
  8
鏡台
  6
CONTINUOUS
 62
     6
100
AcDbLine
 10
999.497569
 20
2820.532641
 30
0.0
 11
1002.686461
 21
2834.690269
 31
0.0
  0
LINE
  5
43F
100
AcDbEntity
  8
鏡台
  6
CONTINUOUS
 62
     6
100
AcDbLine
 10
1005.091034
 20
2823.998955
 30
0.0
 11
1007.527977
 21
2833.051114
 31
0.0
  0
LINE
  5
440
100
AcDbEntity
  8
鏡台
  6
CONTINUOUS
 62
     6
100
AcDbLine
 10
1002.686461
 20
2834.690269
 30
0.0
 11
1024.197371
 21
2827.407454
 31
0.0
  0
LINE
  5
441
100
AcDbEntity
  8
鏡台
  6
CONTINUOUS
 62
     6
100
AcDbLine
 10
1022.347618
 20
2820.531794
 30
0.0
 11
1003.372881
 21
2824.34419
 31
0.0
  0
LINE
  5
442
100
AcDbEntity
  8
鏡台
  6
CONTINUOUS
 62
     6
100
AcDbLine
 10
982.785107
 20
2808.462132
 30
0.0
 11
986.944556
 21
2823.912081
 31
0.0
  0
LINE
  5
443
100
AcDbEntity
  8
鏡台
  6
CONTINUOUS
 62
     6
100
AcDbLine
 10
991.47575
 20
2806.122511
 30
0.0
 11
995.63513
 21
2821.572359
 31
0.0
  0
LINE
  5
444
100
AcDbEntity
  8
鏡台
  6
CONTINUOUS
 62
     6
100
AcDbLine
 10
988.355719
 20
2834.923843
 30
0.0
 11
999.943027
 21
2831.804251
 31
0.0
  0
LINE
  5
445
100
AcDbEntity
  8
鏡台
  6
CONTINUOUS
 62
     6
100
AcDbLine
 10
997.083582
 20
2821.182438
 30
0.0
 11
999.943027
 21
2831.804251
 31
0.0
  0
LINE
  5
446
100
AcDbEntity
  8
鏡台
  6
CONTINUOUS
 62
     6
100
AcDbLine
 10
999.497569
 20
2820.532641
 30
0.0
 11
999.860716
 21
2822.085943
 31
0.0
  0
LINE
  5
447
100
AcDbEntity
  8
鏡台
  6
CONTINUOUS
 62
     6
100
AcDbLine
 10
982.599269
 20
2825.081941
 30
0.0
 11
987.161484
 21
2838.420951
 31
0.0
  0
LINE
  5
448
100
AcDbEntity
  8
鏡台
  6
CONTINUOUS
 62
     6
100
AcDbLine
 10
999.497569
 20
2820.532641
 30
0.0
 11
982.599269
 21
2825.081941
 31
0.0
  0
LINE
  5
449
100
AcDbEntity
  8
鏡台
  6
CONTINUOUS
 62
     6
100
AcDbLine
 10
1001.980179
 20
2835.398291
 30
0.0
 11
988.367621
 21
2839.063032
 31
0.0
  0
LINE
  5
44A
100
AcDbEntity
  8
鏡台
  6
CONTINUOUS
 62
     6
100
AcDbLine
 10
1023.510227
 20
2821.252307
 30
0.0
 11
1024.842341
 21
2826.200332
 31
0.0
  0
ARC
  5
44B
100
AcDbEntity
  8
鏡台
  6
CONTINUOUS
 62
     6
100
AcDbCircle
 10
1002.78193
 20
2821.402984
 30
0.0
 40
3.0
100
AcDbArc
 50
78.639511
 51
166.841477
  0
ARC
  5
44C
100
AcDbEntity
  8
鏡台
  6
CONTINUOUS
 62
     6
100
AcDbCircle
 10
1023.876705
 20
2826.46028
 30
0.0
 40
1.0
100
AcDbArc
 50
344.932297
 51
71.2957
  0
ARC
  5
44D
100
AcDbEntity
  8
鏡台
  6
CONTINUOUS
 62
     6
100
AcDbCircle
 10
1022.544592
 20
2821.512254
 30
0.0
 40
1.0
100
AcDbArc
 50
258.639511
 51
344.932236
  0
ARC
  5
44E
100
AcDbEntity
  8
鏡台
  6
CONTINUOUS
 62
     6
100
AcDbCircle
 10
989.452005
 20
2815.915617
 30
0.0
 40
10.0
100
AcDbArc
 50
228.188584
 51
281.675858
  0
ARC
  5
44F
100
AcDbEntity
  8
鏡台
  6
CONTINUOUS
 62
     6
100
AcDbCircle
 10
988.107674
 20
2838.097398
 30
0.0
 40
1.0
100
AcDbArc
 50
74.932236
 51
161.118454
  0
ARC
  5
450
100
AcDbEntity
  8
鏡台
  6
CONTINUOUS
 62
     6
100
AcDbCircle
 10
1001.720232
 20
2834.432656
 30
0.0
 40
1.0
100
AcDbArc
 50
346.841355
 51
74.932236
  0
ARC
  5
451
100
AcDbEntity
  8
鏡台
  6
CONTINUOUS
 62
     6
100
AcDbCircle
 10
1002.78193
 20
2821.402984
 30
0.0
 40
3.0
100
AcDbArc
 50
78.639511
 51
166.841477
  0
ARC
  5
452
100
AcDbEntity
  8
鏡台
  6
CONTINUOUS
 62
     6
100
AcDbCircle
 10
1023.876705
 20
2826.46028
 30
0.0
 40
1.0
100
AcDbArc
 50
344.932297
 51
71.2957
  0
ARC
  5
453
100
AcDbEntity
  8
鏡台
  6
CONTINUOUS
 62
     6
100
AcDbCircle
 10
1022.544592
 20
2821.512254
 30
0.0
 40
1.0
100
AcDbArc
 50
258.639511
 51
344.932236
  0
ARC
  5
454
100
AcDbEntity
  8
鏡台
  6
CONTINUOUS
 62
     6
100
AcDbCircle
 10
989.452005
 20
2815.915617
 30
0.0
 40
10.0
100
AcDbArc
 50
228.188584
 51
281.675858
  0
ARC
  5
455
100
AcDbEntity
  8
鏡台
  6
CONTINUOUS
 62
     6
100
AcDbCircle
 10
988.107674
 20
2838.097398
 30
0.0
 40
1.0
100
AcDbArc
 50
74.932236
 51
161.118454
  0
ARC
  5
456
100
AcDbEntity
  8
鏡台
  6
CONTINUOUS
 62
     6
100
AcDbCircle
 10
1001.720232
 20
2834.432656
 30
0.0
 40
1.0
100
AcDbArc
 50
346.841355
 51
74.932236
  0
ARC
  5
457
100
AcDbEntity
  8
鏡台
  6
CONTINUOUS
 62
     6
100
AcDbCircle
 10
1049.883301
 20
2974.149475
 30
0.0
 40
150.0
100
AcDbArc
 50
260.395458
 51
265.614136
  0
ARC
  5
458
100
AcDbEntity
  8
鏡台
  6
CONTINUOUS
 62
     6
100
AcDbCircle
 10
1050.165039
 20
2968.656677
 30
0.0
 40
150.0
100
AcDbArc
 50
259.743488
 51
265.989014
  0
LINE
  5
459
100
AcDbEntity
  8
鏡台
  6
CONTINUOUS
 62
     2
100
AcDbLine
 10
2430.0
 20
2787.0
 30
0.0
 11
2430.0
 21
1987.0
 31
0.0
  0
LINE
  5
45A
100
AcDbEntity
  8
鏡台
  6
CONTINUOUS
 62
     2
100
AcDbLine
 10
2550.0
 20
2787.0
 30
0.0
 11
2550.0
 21
1987.0
 31
0.0
  0
LINE
  5
45B
100
AcDbEntity
  8
鏡台
  6
CONTINUOUS
 62
     2
100
AcDbLine
 10
2430.0
 20
2787.0
 30
0.0
 11
2550.0
 21
2787.0
 31
0.0
  0
LINE
  5
45C
100
AcDbEntity
  8
鏡台
  6
CONTINUOUS
 62
     2
100
AcDbLine
 10
2430.0
 20
1987.0
 30
0.0
 11
2550.0
 21
1987.0
 31
0.0
  0
LINE
  5
45D
100
AcDbEntity
  8
鏡台
  6
CONTINUOUS
 62
     6
100
AcDbLine
 10
2550.0
 20
2729.0
 30
0.0
 11
2582.5
 21
2727.0
 31
0.0
  0
LINE
  5
45E
100
AcDbEntity
  8
鏡台
  6
CONTINUOUS
 62
     6
100
AcDbLine
 10
2582.5
 20
2727.0
 30
0.0
 11
2550.0
 21
2725.0
 31
0.0
  0
LINE
  5
45F
100
AcDbEntity
  8
鏡台
  6
CONTINUOUS
 62
     6
100
AcDbLine
 10
2540.0
 20
2727.0
 30
0.0
 11
2592.5
 21
2727.0
 31
0.0
  0
LINE
  5
460
100
AcDbEntity
  8
鏡台
  6
CONTINUOUS
 62
     6
100
AcDbLine
 10
2550.0
 20
2019.0
 30
0.0
 11
2582.5
 21
2017.0
 31
0.0
  0
LINE
  5
461
100
AcDbEntity
  8
鏡台
  6
CONTINUOUS
 62
     6
100
AcDbLine
 10
2582.5
 20
2017.0
 30
0.0
 11
2550.0
 21
2015.0
 31
0.0
  0
LINE
  5
462
100
AcDbEntity
  8
鏡台
  6
CONTINUOUS
 62
     6
100
AcDbLine
 10
2540.0
 20
2017.0
 30
0.0
 11
2592.5
 21
2017.0
 31
0.0
  0
LINE
  5
463
100
AcDbEntity
  8
鏡台
  6
CONTINUOUS
 62
     6
100
AcDbLine
 10
2510.0
 20
1990.0
 30
0.0
 11
2510.0
 21
1987.0
 31
0.0
  0
LINE
  5
464
100
AcDbEntity
  8
鏡台
  6
CONTINUOUS
 62
     6
100
AcDbLine
 10
2547.0
 20
2027.0
 30
0.0
 11
2550.0
 21
2027.0
 31
0.0
  0
LINE
  5
465
100
AcDbEntity
  8
鏡台
  6
EXLTYPE2
 62
     6
100
AcDbLine
 10
2510.0
 20
1990.0
 30
0.0
 11
2547.0
 21
1990.0
 31
0.0
  0
LINE
  5
466
100
AcDbEntity
  8
鏡台
  6
EXLTYPE2
 62
     6
100
AcDbLine
 10
2547.0
 20
2027.0
 30
0.0
 11
2547.0
 21
1990.0
 31
0.0
  0
LINE
  5
467
100
AcDbEntity
  8
鏡台
  6
CONTINUOUS
 62
     2
100
AcDbLine
 10
545.0
 20
3913.0
 30
0.0
 11
1295.0
 21
3913.0
 31
0.0
  0
LINE
  5
468
100
AcDbEntity
  8
鏡台
  6
CONTINUOUS
 62
     2
100
AcDbLine
 10
545.0
 20
4033.0
 30
0.0
 11
1295.0
 21
4033.0
 31
0.0
  0
LINE
  5
469
100
AcDbEntity
  8
鏡台
  6
CONTINUOUS
 62
     2
100
AcDbLine
 10
545.0
 20
3913.0
 30
0.0
 11
545.0
 21
4033.0
 31
0.0
  0
LINE
  5
46A
100
AcDbEntity
  8
鏡台
  6
CONTINUOUS
 62
     2
100
AcDbLine
 10
1295.0
 20
3913.0
 30
0.0
 11
1295.0
 21
4033.0
 31
0.0
  0
LINE
  5
46B
100
AcDbEntity
  8
鏡台
  6
CONTINUOUS
 62
     2
100
AcDbLine
 10
560.0
 20
3913.0
 30
0.0
 11
560.0
 21
4033.0
 31
0.0
  0
LINE
  5
46C
100
AcDbEntity
  8
鏡台
  6
CONTINUOUS
 62
     2
100
AcDbLine
 10
1280.0
 20
3913.0
 30
0.0
 11
1280.0
 21
4033.0
 31
0.0
  0
LINE
  5
46D
100
AcDbEntity
  8
鏡台
  6
CONTINUOUS
 62
     6
100
AcDbLine
 10
1193.0
 20
4033.0
 30
0.0
 11
1195.0
 21
4065.5
 31
0.0
  0
LINE
  5
46E
100
AcDbEntity
  8
鏡台
  6
CONTINUOUS
 62
     6
100
AcDbLine
 10
1195.0
 20
4065.5
 30
0.0
 11
1197.0
 21
4033.0
 31
0.0
  0
LINE
  5
46F
100
AcDbEntity
  8
鏡台
  6
CONTINUOUS
 62
     6
100
AcDbLine
 10
1195.0
 20
4023.0
 30
0.0
 11
1195.0
 21
4075.5
 31
0.0
  0
LINE
  5
470
100
AcDbEntity
  8
鏡台
  6
CONTINUOUS
 62
     6
100
AcDbLine
 10
643.0
 20
4033.0
 30
0.0
 11
645.0
 21
4065.5
 31
0.0
  0
LINE
  5
471
100
AcDbEntity
  8
鏡台
  6
CONTINUOUS
 62
     6
100
AcDbLine
 10
645.0
 20
4065.5
 30
0.0
 11
647.0
 21
4033.0
 31
0.0
  0
LINE
  5
472
100
AcDbEntity
  8
鏡台
  6
CONTINUOUS
 62
     6
100
AcDbLine
 10
645.0
 20
4023.0
 30
0.0
 11
645.0
 21
4075.5
 31
0.0
  0
LINE
  5
473
100
AcDbEntity
  8
鏡台
  6
CONTINUOUS
 62
     6
100
AcDbLine
 10
693.0
 20
4033.0
 30
0.0
 11
695.0
 21
4065.5
 31
0.0
  0
LINE
  5
474
100
AcDbEntity
  8
鏡台
  6
CONTINUOUS
 62
     6
100
AcDbLine
 10
695.0
 20
4065.5
 30
0.0
 11
697.0
 21
4033.0
 31
0.0
  0
LINE
  5
475
100
AcDbEntity
  8
鏡台
  6
CONTINUOUS
 62
     6
100
AcDbLine
 10
695.0
 20
4023.0
 30
0.0
 11
695.0
 21
4075.5
 31
0.0
  0
LINE
  5
476
100
AcDbEntity
  8
鏡台
  6
CONTINUOUS
 62
     6
100
AcDbLine
 10
1143.0
 20
4033.0
 30
0.0
 11
1145.0
 21
4065.5
 31
0.0
  0
LINE
  5
477
100
AcDbEntity
  8
鏡台
  6
CONTINUOUS
 62
     6
100
AcDbLine
 10
1145.0
 20
4065.5
 30
0.0
 11
1147.0
 21
4033.0
 31
0.0
  0
LINE
  5
478
100
AcDbEntity
  8
鏡台
  6
CONTINUOUS
 62
     6
100
AcDbLine
 10
1145.0
 20
4023.0
 30
0.0
 11
1145.0
 21
4075.5
 31
0.0
  0
DIMENSION
  5
485
100
AcDbEntity
  8
寸法
  6
CONTINUOUS
 62
     3
100
AcDbDimension
  2
*D14
 10
1195.0
 20
3427.5
 30
0.0
 11
920.0
 21
3462.75
 31
0.0
 70
   160
  3
STANDARD
100
AcDbAlignedDimension
 13
645.0
 23
3543.0
 33
0.0
 14
1195.0
 24
3543.0
 34
0.0
100
AcDbRotatedDimension
1001
ACAD
1000
DSTYLE
1002
{
1070
     6
1000
_EX_NORM
1070
     7
1000
_EX_NORM
1070
    41
1040
45.0
1070
    42
1040
10.5
1070
    44
1040
15.0
1070
    73
1070
     0
1070
    74
1070
     0
1070
    75
1070
     0
1070
    76
1070
     0
1070
    77
1070
     1
1070
    78
1070
     8
1070
   140
1040
60.0
1070
   147
1040
5.25
1070
   173
1070
     1
1070
   176
1070
     3
1070
   177
1070
     3
1070
   178
1070
     2
1070
   271
1070
     2
1070
   279
1070
     2
1070
   280
1070
     0
1070
   287
1070
     5
1070
   340
1005
484
1002
}
  0
DIMENSION
  5
491
100
AcDbEntity
  8
寸法
  6
CONTINUOUS
 62
     3
100
AcDbDimension
  2
*D15
 10
1370.0
 20
3331.5
 30
0.0
 11
920.0
 21
3366.75
 31
0.0
 70
   160
  3
STANDARD
100
AcDbAlignedDimension
 13
470.0
 23
3583.0
 33
0.0
 14
1370.0
 24
3583.0
 34
0.0
100
AcDbRotatedDimension
1001
ACAD
1000
DSTYLE
1002
{
1070
     6
1000
_EX_NORM
1070
     7
1000
_EX_NORM
1070
    41
1040
45.0
1070
    42
1040
10.5
1070
    44
1040
15.0
1070
    73
1070
     0
1070
    74
1070
     0
1070
    75
1070
     0
1070
    76
1070
     0
1070
    77
1070
     1
1070
    78
1070
     8
1070
   140
1040
60.0
1070
   147
1040
5.25
1070
   173
1070
     1
1070
   176
1070
     3
1070
   177
1070
     3
1070
   178
1070
     2
1070
   271
1070
     2
1070
   279
1070
     2
1070
   280
1070
     0
1070
   287
1070
     5
1070
   340
1005
484
1002
}
  0
DIMENSION
  5
49C
100
AcDbEntity
  8
寸法
  6
CONTINUOUS
 62
     3
100
AcDbDimension
  2
*D16
 10
1476.0
 20
3583.0
 30
0.0
 11
1440.75
 21
3808.0
 31
0.0
 70
   160
  3
STANDARD
100
AcDbAlignedDimension
 13
1370.0
 23
4033.0
 33
0.0
 14
1370.0
 24
3583.0
 34
0.0
 50
90.0
100
AcDbRotatedDimension
1001
ACAD
1000
DSTYLE
1002
{
1070
     6
1000
_EX_NORM
1070
     7
1000
_EX_NORM
1070
    41
1040
45.0
1070
    42
1040
10.5
1070
    44
1040
15.0
1070
    73
1070
     0
1070
    74
1070
     0
1070
    75
1070
     1
1070
    76
1070
     0
1070
    77
1070
     1
1070
    78
1070
     8
1070
   140
1040
60.0
1070
   147
1040
5.25
1070
   173
1070
     1
1070
   176
1070
     3
1070
   177
1070
     3
1070
   178
1070
     2
1070
   271
1070
     2
1070
   279
1070
     2
1070
   280
1070
     0
1070
   287
1070
     5
1070
   340
1005
484
1002
}
  0
DIMENSION
  5
4A7
100
AcDbEntity
  8
寸法
  6
CONTINUOUS
 62
     3
100
AcDbDimension
  2
*D17
 10
1561.5
 20
4033.0
 30
0.0
 11
1526.25
 21
3783.0
 31
0.0
 70
   160
  3
STANDARD
100
AcDbAlignedDimension
 13
1185.0
 23
3533.0
 33
0.0
 14
1370.0
 24
4033.0
 34
0.0
 50
90.0
100
AcDbRotatedDimension
1001
ACAD
1000
DSTYLE
1002
{
1070
     6
1000
_EX_NORM
1070
     7
1000
_EX_NORM
1070
    41
1040
45.0
1070
    42
1040
10.5
1070
    44
1040
15.0
1070
    73
1070
     0
1070
    74
1070
     0
1070
    75
1070
     0
1070
    76
1070
     1
1070
    77
1070
     1
1070
    78
1070
     8
1070
   140
1040
60.0
1070
   147
1040
5.25
1070
   173
1070
     1
1070
   176
1070
     3
1070
   177
1070
     3
1070
   178
1070
     2
1070
   271
1070
     2
1070
   279
1070
     2
1070
   280
1070
     0
1070
   287
1070
     5
1070
   340
1005
484
1002
}
  0
DIMENSION
  5
4B2
100
AcDbEntity
  8
寸法
  6
CONTINUOUS
 62
     3
100
AcDbDimension
  2
*D18
 10
1476.0
 20
1586.0
 30
0.0
 11
1440.75
 21
1236.5
 31
0.0
 70
   160
  3
STANDARD
100
AcDbAlignedDimension
 13
1368.0
 23
887.0
 33
0.0
 14
1370.0
 24
1586.0
 34
0.0
 50
90.0
100
AcDbRotatedDimension
1001
ACAD
1000
DSTYLE
1002
{
1070
     6
1000
_EX_NORM
1070
     7
1000
_EX_NORM
1070
    41
1040
45.0
1070
    42
1040
10.5
1070
    44
1040
15.0
1070
    73
1070
     0
1070
    74
1070
     0
1070
    75
1070
     1
1070
    76
1070
     0
1070
    77
1070
     1
1070
    78
1070
     8
1070
   140
1040
60.0
1070
   147
1040
5.25
1070
   173
1070
     1
1070
   176
1070
     3
1070
   177
1070
     3
1070
   178
1070
     2
1070
   271
1070
     2
1070
   279
1070
     2
1070
   280
1070
     0
1070
   287
1070
     5
1070
   340
1005
484
1002
}
  0
DIMENSION
  5
4BD
100
AcDbEntity
  8
寸法
  6
CONTINUOUS
 62
     3
100
AcDbDimension
  2
*D19
 10
1566.0
 20
1726.0
 30
0.0
 11
1530.75
 21
1306.5
 31
0.0
 70
   160
  3
STANDARD
100
AcDbAlignedDimension
 13
1368.0
 23
887.0
 33
0.0
 14
1190.0
 24
1726.0
 34
0.0
 50
90.0
100
AcDbRotatedDimension
1001
ACAD
1000
DSTYLE
1002
{
1070
     6
1000
_EX_NORM
1070
     7
1000
_EX_NORM
1070
    41
1040
45.0
1070
    42
1040
10.5
1070
    44
1040
15.0
1070
    73
1070
     0
1070
    74
1070
     0
1070
    75
1070
     1
1070
    76
1070
     0
1070
    77
1070
     1
1070
    78
1070
     8
1070
   140
1040
60.0
1070
   147
1040
5.25
1070
   173
1070
     1
1070
   176
1070
     3
1070
   177
1070
     3
1070
   178
1070
     2
1070
   271
1070
     2
1070
   279
1070
     2
1070
   280
1070
     0
1070
   287
1070
     5
1070
   340
1005
484
1002
}
  0
DIMENSION
  5
4C9
100
AcDbEntity
  8
寸法
  6
CONTINUOUS
 62
     3
100
AcDbDimension
  2
*D20
 10
1160.0
 20
738.0
 30
0.0
 11
710.0
 21
773.25
 31
0.0
 70
   160
  1
240（排水）
  3
STANDARD
100
AcDbAlignedDimension
 13
920.0
 23
887.0
 33
0.0
 14
1160.0
 24
822.5
 34
0.0
100
AcDbRotatedDimension
1001
ACAD
1000
DSTYLE
1002
{
1070
     6
1000
_EX_NORM
1070
     7
1000
_EX_NORM
1070
    41
1040
45.0
1070
    42
1040
10.5
1070
    44
1040
15.0
1070
    73
1070
     0
1070
    74
1070
     0
1070
    75
1070
     0
1070
    76
1070
     0
1070
    77
1070
     1
1070
    78
1070
     8
1070
   140
1040
60.0
1070
   147
1040
5.25
1070
   173
1070
     1
1070
   176
1070
     3
1070
   177
1070
     3
1070
   178
1070
     2
1070
   271
1070
     2
1070
   279
1070
     2
1070
   280
1070
     1
1070
   287
1070
     5
1070
   340
1005
484
1002
}
  0
LEADER
  5
4CA
100
AcDbEntity
  8
寸法
  6
CONTINUOUS
 62
     3
100
AcDbLeader
  3
STANDARD
 73
     3
 74
     1
 75
     0
 40
0.0
 76
     3
 10
1175.85
 20
887.0
 30
0.0
 10
1314.0
 20
684.0
 30
0.0
 10
1744.5
 20
684.0
 30
0.0
 77
     3
1001
ACAD
1000
DSTYLE
1002
{
1070
    41
1040
45.0
1070
     5
1000
_EX_NORM
1070
     6
1000
_EX_NORM
1070
     7
1000
_EX_NORM
1070
   341
1005
2A
1002
}
  0
TEXT
  5
4CB
100
AcDbEntity
  8
寸法
  6
CONTINUOUS
 62
     2
100
AcDbText
 10
1321.5
 20
749.25
 30
0.0
 40
60.0
  1
ＶＰ･ＶＵ４０･５０
 41
0.62784
  7
EXCADSTD
 72
     5
 11
1753.499998
 21
749.25
 31
0.0
100
AcDbText
  0
TEXT
  5
4CC
100
AcDbEntity
  8
寸法
  6
CONTINUOUS
 62
     2
100
AcDbText
 10
1321.5
 20
689.25
 30
0.0
 40
60.0
  1
４０～５０㎜立上げ
 41
0.690667
  7
EXCADSTD
 72
     5
 11
1765.499999
 21
689.25
 31
0.0
100
AcDbText
  0
DIMENSION
  5
4D8
100
AcDbEntity
  8
寸法
  6
CONTINUOUS
 62
     3
100
AcDbDimension
  2
*D21
 10
2716.5
 20
1307.0
 30
0.0
 11
2681.25
 21
1097.0
 31
0.0
 70
   160
  1
420（給水）
  3
STANDARD
100
AcDbAlignedDimension
 13
2550.0
 23
887.0
 33
0.0
 14
2558.0
 24
1307.0
 34
0.0
 50
90.0
100
AcDbRotatedDimension
1001
ACAD
1000
DSTYLE
1002
{
1070
     6
1000
_EX_NORM
1070
     7
1000
_EX_NORM
1070
    41
1040
45.0
1070
    42
1040
10.5
1070
    44
1040
15.0
1070
    73
1070
     0
1070
    74
1070
     0
1070
    75
1070
     0
1070
    76
1070
     0
1070
    77
1070
     1
1070
    78
1070
     8
1070
   140
1040
60.0
1070
   147
1040
5.25
1070
   173
1070
     1
1070
   176
1070
     3
1070
   177
1070
     3
1070
   178
1070
     2
1070
   271
1070
     2
1070
   279
1070
     2
1070
   280
1070
     0
1070
   287
1070
     5
1070
   340
1005
484
1002
}
  0
DIMENSION
  5
4E4
100
AcDbEntity
  8
寸法
  6
CONTINUOUS
 62
     3
100
AcDbDimension
  2
*D22
 10
2806.5
 20
1467.0
 30
0.0
 11
2771.25
 21
1177.0
 31
0.0
 70
   160
  1
580（壁固定）
  3
STANDARD
100
AcDbAlignedDimension
 13
2550.0
 23
887.0
 33
0.0
 14
2582.5
 24
1467.0
 34
0.0
 50
90.0
100
AcDbRotatedDimension
1001
ACAD
1000
DSTYLE
1002
{
1070
     6
1000
_EX_NORM
1070
     7
1000
_EX_NORM
1070
    41
1040
45.0
1070
    42
1040
10.5
1070
    44
1040
15.0
1070
    73
1070
     0
1070
    74
1070
     0
1070
    75
1070
     0
1070
    76
1070
     0
1070
    77
1070
     1
1070
    78
1070
     8
1070
   140
1040
60.0
1070
   147
1040
5.25
1070
   173
1070
     1
1070
   176
1070
     3
1070
   177
1070
     3
1070
   178
1070
     2
1070
   271
1070
     2
1070
   279
1070
     2
1070
   280
1070
     0
1070
   287
1070
     5
1070
   340
1005
484
1002
}
  0
DIMENSION
  5
4F0
100
AcDbEntity
  8
寸法
  6
CONTINUOUS
 62
     3
100
AcDbDimension
  2
*D23
 10
995.0
 20
4104.0
 30
0.0
 11
920.0
 21
4139.25
 31
0.0
 70
   160
  1
150（給水）
  3
STANDARD
100
AcDbAlignedDimension
 13
845.0
 23
4041.0
 33
0.0
 14
995.0
 24
4041.0
 34
0.0
100
AcDbRotatedDimension
1001
ACAD
1000
DSTYLE
1002
{
1070
     6
1000
_EX_NORM
1070
     7
1000
_EX_NORM
1070
    41
1040
45.0
1070
    42
1040
10.5
1070
    44
1040
15.0
1070
    73
1070
     0
1070
    74
1070
     0
1070
    75
1070
     0
1070
    76
1070
     0
1070
    77
1070
     1
1070
    78
1070
     8
1070
   140
1040
60.0
1070
   147
1040
5.25
1070
   173
1070
     1
1070
   176
1070
     3
1070
   177
1070
     3
1070
   178
1070
     2
1070
   271
1070
     2
1070
   279
1070
     2
1070
   280
1070
     0
1070
   287
1070
     5
1070
   340
1005
484
1002
}
  0
DIMENSION
  5
4FC
100
AcDbEntity
  8
寸法
  6
CONTINUOUS
 62
     3
100
AcDbDimension
  2
*D24
 10
2550.0
 20
738.0
 30
0.0
 11
2760.0
 21
773.25
 31
0.0
 70
   160
  1
100（排水）
  3
STANDARD
100
AcDbAlignedDimension
 13
2450.0
 23
822.5
 33
0.0
 14
2550.0
 24
887.0
 34
0.0
100
AcDbRotatedDimension
1001
ACAD
1000
DSTYLE
1002
{
1070
     6
1000
_EX_NORM
1070
     7
1000
_EX_NORM
1070
    41
1040
45.0
1070
    42
1040
10.5
1070
    44
1040
15.0
1070
    73
1070
     0
1070
    74
1070
     0
1070
    75
1070
     0
1070
    76
1070
     0
1070
    77
1070
     1
1070
    78
1070
     8
1070
   140
1040
60.0
1070
   147
1040
5.25
1070
   173
1070
     1
1070
   176
1070
     3
1070
   177
1070
     3
1070
   178
1070
     2
1070
   271
1070
     2
1070
   279
1070
     2
1070
   280
1070
     2
1070
   287
1070
     5
1070
   340
1005
484
1002
}
  0
DIMENSION
  5
508
100
AcDbEntity
  8
寸法
  6
CONTINUOUS
 62
     3
100
AcDbDimension
  2
*D25
 10
2550.0
 20
648.0
 30
0.0
 11
2337.5
 21
683.25
 31
0.0
 70
   160
  3
STANDARD
100
AcDbAlignedDimension
 13
2125.0
 23
887.0
 33
0.0
 14
2550.0
 24
887.0
 34
0.0
100
AcDbRotatedDimension
1001
ACAD
1000
DSTYLE
1002
{
1070
     6
1000
_EX_NORM
1070
     7
1000
_EX_NORM
1070
    41
1040
45.0
1070
    42
1040
10.5
1070
    44
1040
15.0
1070
    73
1070
     0
1070
    74
1070
     0
1070
    75
1070
     0
1070
    76
1070
     0
1070
    77
1070
     1
1070
    78
1070
     8
1070
   140
1040
60.0
1070
   147
1040
5.25
1070
   173
1070
     1
1070
   176
1070
     3
1070
   177
1070
     3
1070
   178
1070
     2
1070
   271
1070
     2
1070
   279
1070
     2
1070
   280
1070
     0
1070
   287
1070
     5
1070
   340
1005
484
1002
}
  0
DIMENSION
  5
514
100
AcDbEntity
  8
寸法
  6
CONTINUOUS
 62
     3
100
AcDbDimension
  2
*D26
 10
1250.0
 20
4194.0
 30
0.0
 11
920.0
 21
4229.25
 31
0.0
 70
   160
  1
660（壁固定）
  3
STANDARD
100
AcDbAlignedDimension
 13
590.0
 23
4065.5
 33
0.0
 14
1250.0
 24
4065.5
 34
0.0
100
AcDbRotatedDimension
1001
ACAD
1000
DSTYLE
1002
{
1070
     6
1000
_EX_NORM
1070
     7
1000
_EX_NORM
1070
    41
1040
45.0
1070
    42
1040
10.5
1070
    44
1040
15.0
1070
    73
1070
     0
1070
    74
1070
     0
1070
    75
1070
     0
1070
    76
1070
     0
1070
    77
1070
     1
1070
    78
1070
     8
1070
   140
1040
60.0
1070
   147
1040
5.25
1070
   173
1070
     1
1070
   176
1070
     3
1070
   177
1070
     3
1070
   178
1070
     2
1070
   271
1070
     2
1070
   279
1070
     2
1070
   280
1070
     0
1070
   287
1070
     5
1070
   340
1005
484
1002
}
  0
TEXT
  5
515
100
AcDbEntity
  8
寸法
  6
CONTINUOUS
 62
     2
100
AcDbText
 10
2579.950204
 20
1379.05267
 30
0.0
 40
60.0
  1
Ｒ１/２
 41
0.638
  7
EXCADSTD
 72
     5
 11
2753.950204
 21
1379.05267
 31
0.0
100
AcDbText
  0
POLYLINE
  5
516
100
AcDbEntity
  8
寸法
  6
CONTINUOUS
 62
     3
100
AcDb2dPolyline
 66
     1
 10
0.0
 20
0.0
 30
0.0
 70
   128
  0
VERTEX
  5
517
100
AcDbEntity
  8
寸法
  6
CONTINUOUS
 62
     3
100
AcDbVertex
100
AcDb2dVertex
 10
2558.0
 20
1317.5
 30
0.0
  0
VERTEX
  5
518
100
AcDbEntity
  8
寸法
  6
CONTINUOUS
 62
     3
100
AcDbVertex
100
AcDb2dVertex
 10
2572.450204
 20
1373.80267
 30
0.0
  0
VERTEX
  5
519
100
AcDbEntity
  8
寸法
  6
CONTINUOUS
 62
     3
100
AcDbVertex
100
AcDb2dVertex
 10
2738.950204
 20
1373.80267
 30
0.0
  0
SEQEND
  5
51A
100
AcDbEntity
  8
寸法
  6
CONTINUOUS
 62
     3
  0
LINE
  5
51B
100
AcDbEntity
  8
寸法
  6
CONTINUOUS
 62
     3
100
AcDbLine
 10
2561.92223
 20
1362.9518
 30
0.0
 11
2558.0
 21
1317.5
 31
0.0
  0
LINE
  5
51C
100
AcDbEntity
  8
寸法
  6
CONTINUOUS
 62
     3
100
AcDbLine
 10
2558.0
 20
1317.5
 30
0.0
 11
2576.451341
 21
1359.222871
 31
0.0
  0
DIMENSION
  5
528
100
AcDbEntity
  8
寸法
  6
CONTINUOUS
 62
     3
100
AcDbDimension
  2
*D27
 10
1295.0
 20
3043.5
 30
0.0
 11
920.0
 21
3078.75
 31
0.0
 70
   160
  3
STANDARD
100
AcDbAlignedDimension
 13
545.0
 23
2787.0
 33
0.0
 14
1295.0
 24
2787.0
 34
0.0
100
AcDbRotatedDimension
1001
ACAD
1000
DSTYLE
1002
{
1070
     6
1000
_EX_NORM
1070
     7
1000
_EX_NORM
1070
    41
1040
45.0
1070
    42
1040
10.5
1070
    44
1040
15.0
1070
    73
1070
     0
1070
    74
1070
     0
1070
    75
1070
     0
1070
    76
1070
     0
1070
    77
1070
     1
1070
    78
1070
     8
1070
   140
1040
60.0
1070
   147
1040
5.25
1070
   173
1070
     1
1070
   176
1070
     3
1070
   177
1070
     3
1070
   178
1070
     2
1070
   271
1070
     2
1070
   279
1070
     2
1070
   280
1070
     0
1070
   287
1070
     5
1070
   340
1005
484
1002
}
  0
DIMENSION
  5
534
100
AcDbEntity
  8
寸法
  6
CONTINUOUS
 62
     3
100
AcDbDimension
  2
*D28
 10
1662.0
 20
1987.0
 30
0.0
 11
1626.75
 21
2387.0
 31
0.0
 70
   160
  3
STANDARD
100
AcDbAlignedDimension
 13
1295.0
 23
2787.0
 33
0.0
 14
1295.0
 24
1987.0
 34
0.0
 50
90.0
100
AcDbRotatedDimension
1001
ACAD
1000
DSTYLE
1002
{
1070
     6
1000
_EX_NORM
1070
     7
1000
_EX_NORM
1070
    41
1040
45.0
1070
    42
1040
10.5
1070
    44
1040
15.0
1070
    73
1070
     0
1070
    74
1070
     0
1070
    75
1070
     0
1070
    76
1070
     0
1070
    77
1070
     1
1070
    78
1070
     8
1070
   140
1040
60.0
1070
   147
1040
5.25
1070
   173
1070
     1
1070
   176
1070
     3
1070
   177
1070
     3
1070
   178
1070
     2
1070
   271
1070
     2
1070
   279
1070
     2
1070
   280
1070
     0
1070
   287
1070
     5
1070
   340
1005
484
1002
}
  0
DIMENSION
  5
53F
100
AcDbEntity
  8
寸法
  6
CONTINUOUS
 62
     3
100
AcDbDimension
  2
*D29
 10
1662.0
 20
1987.0
 30
0.0
 11
1626.75
 21
1437.0
 31
0.0
 70
   160
  3
STANDARD
100
AcDbAlignedDimension
 13
1368.0
 23
887.0
 33
0.0
 14
1295.0
 24
1987.0
 34
0.0
 50
90.0
100
AcDbRotatedDimension
1001
ACAD
1000
DSTYLE
1002
{
1070
     6
1000
_EX_NORM
1070
     7
1000
_EX_NORM
1070
    41
1040
45.0
1070
    42
1040
10.5
1070
    44
1040
15.0
1070
    73
1070
     0
1070
    74
1070
     0
1070
    75
1070
     1
1070
    76
1070
     0
1070
    77
1070
     1
1070
    78
1070
     8
1070
   140
1040
60.0
1070
   147
1040
5.25
1070
   173
1070
     1
1070
   176
1070
     3
1070
   177
1070
     3
1070
   178
1070
     2
1070
   271
1070
     2
1070
   279
1070
     2
1070
   280
1070
     0
1070
   287
1070
     5
1070
   340
1005
484
1002
}
  0
DIMENSION
  5
54A
100
AcDbEntity
  8
寸法
  6
CONTINUOUS
 62
     3
100
AcDbDimension
  2
*D30
 10
1752.0
 20
2787.0
 30
0.0
 11
1716.75
 21
1837.0
 31
0.0
 70
   160
  3
STANDARD
100
AcDbAlignedDimension
 13
1368.0
 23
887.0
 33
0.0
 14
1295.0
 24
2787.0
 34
0.0
 50
90.0
100
AcDbRotatedDimension
1001
ACAD
1000
DSTYLE
1002
{
1070
     6
1000
_EX_NORM
1070
     7
1000
_EX_NORM
1070
    41
1040
45.0
1070
    42
1040
10.5
1070
    44
1040
15.0
1070
    73
1070
     0
1070
    74
1070
     0
1070
    75
1070
     1
1070
    76
1070
     0
1070
    77
1070
     1
1070
    78
1070
     8
1070
   140
1040
60.0
1070
   147
1040
5.25
1070
   173
1070
     1
1070
   176
1070
     3
1070
   177
1070
     3
1070
   178
1070
     2
1070
   271
1070
     2
1070
   279
1070
     2
1070
   280
1070
     0
1070
   287
1070
     5
1070
   340
1005
484
1002
}
  0
DIMENSION
  5
556
100
AcDbEntity
  8
寸法
  6
CONTINUOUS
 62
     3
100
AcDbDimension
  2
*D31
 10
1195.0
 20
2953.5
 30
0.0
 11
920.0
 21
2988.75
 31
0.0
 70
   160
  3
STANDARD
100
AcDbAlignedDimension
 13
645.0
 23
2735.0
 33
0.0
 14
1195.0
 24
2735.0
 34
0.0
100
AcDbRotatedDimension
1001
ACAD
1000
DSTYLE
1002
{
1070
     6
1000
_EX_NORM
1070
     7
1000
_EX_NORM
1070
    41
1040
45.0
1070
    42
1040
10.5
1070
    44
1040
15.0
1070
    73
1070
     0
1070
    74
1070
     0
1070
    75
1070
     0
1070
    76
1070
     0
1070
    77
1070
     1
1070
    78
1070
     8
1070
   140
1040
60.0
1070
   147
1040
5.25
1070
   173
1070
     1
1070
   176
1070
     3
1070
   177
1070
     3
1070
   178
1070
     2
1070
   271
1070
     2
1070
   279
1070
     2
1070
   280
1070
     0
1070
   287
1070
     5
1070
   340
1005
484
1002
}
  0
DIMENSION
  5
562
100
AcDbEntity
  8
寸法
  6
CONTINUOUS
 62
     3
100
AcDbDimension
  2
*D32
 10
1145.0
 20
1893.9
 30
0.0
 11
920.0
 21
1929.15
 31
0.0
 70
   160
  3
STANDARD
100
AcDbAlignedDimension
 13
695.0
 23
2009.0
 33
0.0
 14
1145.0
 24
2009.0
 34
0.0
100
AcDbRotatedDimension
1001
ACAD
1000
DSTYLE
1002
{
1070
     6
1000
_EX_NORM
1070
     7
1000
_EX_NORM
1070
    41
1040
45.0
1070
    42
1040
10.5
1070
    44
1040
15.0
1070
    73
1070
     0
1070
    74
1070
     0
1070
    75
1070
     0
1070
    76
1070
     0
1070
    77
1070
     1
1070
    78
1070
     8
1070
   140
1040
60.0
1070
   147
1040
5.25
1070
   173
1070
     1
1070
   176
1070
     3
1070
   177
1070
     3
1070
   178
1070
     2
1070
   271
1070
     2
1070
   279
1070
     2
1070
   280
1070
     0
1070
   287
1070
     5
1070
   340
1005
484
1002
}
  0
DIMENSION
  5
56E
100
AcDbEntity
  8
寸法
  6
CONTINUOUS
 62
     3
100
AcDbDimension
  2
*D33
 10
1295.0
 20
2863.5
 30
0.0
 11
1415.0
 21
2898.75
 31
0.0
 70
   160
  3
STANDARD
100
AcDbAlignedDimension
 13
1105.0
 23
2800.076697
 33
0.0
 14
1295.0
 24
2787.0
 34
0.0
100
AcDbRotatedDimension
1001
ACAD
1000
DSTYLE
1002
{
1070
     6
1000
_EX_NORM
1070
     7
1000
_EX_NORM
1070
    41
1040
45.0
1070
    42
1040
10.5
1070
    44
1040
15.0
1070
    73
1070
     0
1070
    74
1070
     0
1070
    75
1070
     0
1070
    76
1070
     0
1070
    77
1070
     1
1070
    78
1070
     8
1070
   140
1040
60.0
1070
   147
1040
5.25
1070
   173
1070
     1
1070
   176
1070
     3
1070
   177
1070
     3
1070
   178
1070
     2
1070
   271
1070
     2
1070
   279
1070
     2
1070
   280
1070
     2
1070
   287
1070
     5
1070
   340
1005
484
1002
}
  0
TEXT
  5
56F
100
AcDbEntity
  8
寸法
  6
CONTINUOUS
 62
     2
100
AcDbText
 10
1347.0
 20
2985.75
 30
0.0
 40
60.0
  1
コード長さ；０.９ｍ
 41
0.65912
  7
EXCADSTD
 72
     5
 11
1808.999998
 21
2985.75
 31
0.0
100
AcDbText
  0
LEADER
  5
570
100
AcDbEntity
  8
寸法
  6
CONTINUOUS
 62
     3
100
AcDbLeader
  3
STANDARD
 73
     3
 74
     1
 75
     0
 40
0.0
 76
     3
 10
1086.629828
 20
2814.966673
 30
0.0
 10
1339.5
 20
2980.5
 30
0.0
 10
1810.5
 20
2980.5
 30
0.0
 77
     3
1001
ACAD
1000
DSTYLE
1002
{
1070
    41
1040
45.0
1070
     5
1000
_EX_NORM
1070
     6
1000
_EX_NORM
1070
     7
1000
_EX_NORM
1070
   341
1005
2A
1002
}
  0
DIMENSION
  5
57B
100
AcDbEntity
  8
寸法
  6
CONTINUOUS
 62
     3
100
AcDbDimension
  2
*D34
 10
2550.0
 20
2863.5
 30
0.0
 11
2490.0
 21
2898.75
 31
0.0
 70
   160
  3
STANDARD
100
AcDbAlignedDimension
 13
2430.0
 23
2787.0
 33
0.0
 14
2550.0
 24
2787.0
 34
0.0
100
AcDbRotatedDimension
1001
ACAD
1000
DSTYLE
1002
{
1070
     6
1000
_EX_NORM
1070
     7
1000
_EX_NORM
1070
    41
1040
45.0
1070
    42
1040
10.5
1070
    44
1040
15.0
1070
    73
1070
     0
1070
    74
1070
     0
1070
    75
1070
     0
1070
    76
1070
     1
1070
    77
1070
     1
1070
    78
1070
     8
1070
   140
1040
60.0
1070
   147
1040
5.25
1070
   173
1070
     1
1070
   176
1070
     3
1070
   177
1070
     3
1070
   178
1070
     2
1070
   271
1070
     2
1070
   279
1070
     2
1070
   280
1070
     0
1070
   287
1070
     5
1070
   340
1005
484
1002
}
  0
DIMENSION
  5
587
100
AcDbEntity
  8
寸法
  6
CONTINUOUS
 62
     3
100
AcDbDimension
  2
*D35
 10
2902.5
 20
2017.0
 30
0.0
 11
2867.25
 21
1452.0
 31
0.0
 70
   160
  3
STANDARD
100
AcDbAlignedDimension
 13
2550.0
 23
887.0
 33
0.0
 14
2582.5
 24
2017.0
 34
0.0
 50
90.0
100
AcDbRotatedDimension
1001
ACAD
1000
DSTYLE
1002
{
1070
     6
1000
_EX_NORM
1070
     7
1000
_EX_NORM
1070
    41
1040
45.0
1070
    42
1040
10.5
1070
    44
1040
15.0
1070
    73
1070
     0
1070
    74
1070
     0
1070
    75
1070
     0
1070
    76
1070
     0
1070
    77
1070
     1
1070
    78
1070
     8
1070
   140
1040
60.0
1070
   147
1040
5.25
1070
   173
1070
     1
1070
   176
1070
     3
1070
   177
1070
     3
1070
   178
1070
     2
1070
   271
1070
     2
1070
   279
1070
     2
1070
   280
1070
     0
1070
   287
1070
     5
1070
   340
1005
484
1002
}
  0
DIMENSION
  5
593
100
AcDbEntity
  8
寸法
  6
CONTINUOUS
 62
     3
100
AcDbDimension
  2
*D36
 10
2902.5
 20
2727.0
 30
0.0
 11
2867.25
 21
2372.0
 31
0.0
 70
   160
  1
710(壁固定)
  3
STANDARD
100
AcDbAlignedDimension
 13
2582.5
 23
2017.0
 33
0.0
 14
2582.5
 24
2727.0
 34
0.0
 50
90.0
100
AcDbRotatedDimension
1001
ACAD
1000
DSTYLE
1002
{
1070
     6
1000
_EX_NORM
1070
     7
1000
_EX_NORM
1070
    41
1040
45.0
1070
    42
1040
10.5
1070
    44
1040
15.0
1070
    73
1070
     0
1070
    74
1070
     0
1070
    75
1070
     0
1070
    76
1070
     0
1070
    77
1070
     1
1070
    78
1070
     8
1070
   140
1040
60.0
1070
   147
1040
5.25
1070
   173
1070
     1
1070
   176
1070
     3
1070
   177
1070
     3
1070
   178
1070
     2
1070
   271
1070
     2
1070
   279
1070
     2
1070
   280
1070
     0
1070
   287
1070
     5
1070
   340
1005
484
1002
}
  0
ENDSEC
  0
SECTION
  2
OBJECTS
  0
DICTIONARY
  5
19
100
AcDbDictionary
  3
ACAD_GROUP
350
1A
  3
ACAD_MLINESTYLE
350
1B
  0
DICTIONARY
  5
1A
102
{ACAD_REACTORS
330
19
102
}
100
AcDbDictionary
  0
DICTIONARY
  5
1B
102
{ACAD_REACTORS
330
19
102
}
100
AcDbDictionary
  3
STANDARD
350
1C
  0
MLINESTYLE
  5
1C
102
{ACAD_REACTORS
330
1B
102
}
100
AcDbMlineStyle
  2
Standard
 70
     0
  3

 62
     0
 51
90.0
 52
90.0
 71
     2
 49
0.5
 62
   256
  6
ByLayer
 49
-0.5
 62
   256
  6
ByLayer
  0
ENDSEC
  0
EOF
