  0
SECTION
  2
HEADER
  9
$ACADVER
  1
AC1014
  9
$ACADMAINTVER
 70
     0
  9
$DWGCODEPAGE
  3
ANSI_932
  9
$INSBASE
 10
0.0
 20
0.0
 30
0.0
  9
$EXTMIN
 10
-7.1
 20
11.5
 30
0.0
  9
$EXTMAX
 10
199.9
 20
291.5
 30
0.0
  9
$LIMMIN
 10
0.0
 20
0.0
  9
$LIMMAX
 10
210.0
 20
297.0
  9
$ORTHOMODE
 70
     0
  9
$REGENMODE
 70
     1
  9
$FILLMODE
 70
     1
  9
$QTEXTMODE
 70
     0
  9
$MIRRTEXT
 70
     1
  9
$DRAGMODE
 70
     2
  9
$LTSCALE
 40
1.0
  9
$OSMODE
 70
     0
  9
$ATTMODE
 70
     1
  9
$TEXTSIZE
 40
0.2
  9
$TRACEWID
 40
0.05
  9
$TEXTSTYLE
  7
STANDARD
  9
$CLAYER
  8
本体
  9
$CELTYPE
  6
CONTINUOUS
  9
$CECOLOR
 62
   256
  9
$CELTSCALE
 40
1.0
  9
$DELOBJ
 70
     1
  9
$DISPSILH
 70
     0
  9
$DIMSCALE
 40
1.0
  9
$DIMASZ
 40
0.18
  9
$DIMEXO
 40
0.0625
  9
$DIMDLI
 40
0.38
  9
$DIMRND
 40
0.0
  9
$DIMDLE
 40
0.0
  9
$DIMEXE
 40
0.18
  9
$DIMTP
 40
0.0
  9
$DIMTM
 40
0.0
  9
$DIMTXT
 40
0.18
  9
$DIMCEN
 40
0.09
  9
$DIMTSZ
 40
0.0
  9
$DIMTOL
 70
     0
  9
$DIMLIM
 70
     0
  9
$DIMTIH
 70
     1
  9
$DIMTOH
 70
     1
  9
$DIMSE1
 70
     0
  9
$DIMSE2
 70
     0
  9
$DIMTAD
 70
     0
  9
$DIMZIN
 70
     0
  9
$DIMBLK
  1

  9
$DIMASO
 70
     1
  9
$DIMSHO
 70
     1
  9
$DIMPOST
  1

  9
$DIMAPOST
  1

  9
$DIMALT
 70
     0
  9
$DIMALTD
 70
     2
  9
$DIMALTF
 40
25.4
  9
$DIMLFAC
 40
1.0
  9
$DIMTOFL
 70
     0
  9
$DIMTVP
 40
0.0
  9
$DIMTIX
 70
     0
  9
$DIMSOXD
 70
     0
  9
$DIMSAH
 70
     0
  9
$DIMBLK1
  1

  9
$DIMBLK2
  1

  9
$DIMSTYLE
  2
STANDARD
  9
$DIMCLRD
 70
     0
  9
$DIMCLRE
 70
     0
  9
$DIMCLRT
 70
     0
  9
$DIMTFAC
 40
1.0
  9
$DIMGAP
 40
0.09
  9
$DIMJUST
 70
     0
  9
$DIMSD1
 70
     0
  9
$DIMSD2
 70
     0
  9
$DIMTOLJ
 70
     1
  9
$DIMTZIN
 70
     0
  9
$DIMALTZ
 70
     0
  9
$DIMALTTZ
 70
     0
  9
$DIMFIT
 70
     3
  9
$DIMUPT
 70
     0
  9
$DIMUNIT
 70
     2
  9
$DIMDEC
 70
     4
  9
$DIMTDEC
 70
     4
  9
$DIMALTU
 70
     2
  9
$DIMALTTD
 70
     2
  9
$DIMTXSTY
  7
STANDARD
  9
$DIMAUNIT
 70
     0
  9
$LUNITS
 70
     2
  9
$LUPREC
 70
     4
  9
$SKETCHINC
 40
0.1
  9
$FILLETRAD
 40
0.0
  9
$AUNITS
 70
     0
  9
$AUPREC
 70
     0
  9
$MENU
  1
acad
  9
$ELEVATION
 40
0.0
  9
$PELEVATION
 40
0.0
  9
$THICKNESS
 40
0.0
  9
$LIMCHECK
 70
     0
  9
$BLIPMODE
 70
     1
  9
$CHAMFERA
 40
0.0
  9
$CHAMFERB
 40
0.0
  9
$CHAMFERC
 40
0.0
  9
$CHAMFERD
 40
0.0
  9
$SKPOLY
 70
     0
  9
$TDCREATE
 40
2455284.817854306
  9
$TDUPDATE
 40
2455284.817854306
  9
$TDINDWG
 40
0.0000000000
  9
$TDUSRTIMER
 40
0.0000000000
  9
$USRTIMER
 70
     1
  9
$ANGBASE
 50
0.0
  9
$ANGDIR
 70
     0
  9
$PDMODE
 70
     0
  9
$PDSIZE
 40
0.0
  9
$PLINEWID
 40
0.0
  9
$COORDS
 70
     1
  9
$SPLFRAME
 70
     0
  9
$SPLINETYPE
 70
     6
  9
$SPLINESEGS
 70
     8
  9
$ATTDIA
 70
     0
  9
$ATTREQ
 70
     1
  9
$HANDLING
 70
     1
  9
$HANDSEED
  5
4D7
  9
$SURFTAB1
 70
     6
  9
$SURFTAB2
 70
     6
  9
$SURFTYPE
 70
     6
  9
$SURFU
 70
     6
  9
$SURFV
 70
     6
  9
$UCSNAME
  2

  9
$UCSORG
 10
0.0
 20
0.0
 30
0.0
  9
$UCSXDIR
 10
1.0
 20
0.0
 30
0.0
  9
$UCSYDIR
 10
0.0
 20
1.0
 30
0.0
  9
$PUCSNAME
  2

  9
$PUCSORG
 10
0.0
 20
0.0
 30
0.0
  9
$PUCSXDIR
 10
1.0
 20
0.0
 30
0.0
  9
$PUCSYDIR
 10
0.0
 20
1.0
 30
0.0
  9
$USERI1
 70
     0
  9
$USERI2
 70
     0
  9
$USERI3
 70
     0
  9
$USERI4
 70
     0
  9
$USERI5
 70
     0
  9
$USERR1
 40
0.0
  9
$USERR2
 40
0.0
  9
$USERR3
 40
0.0
  9
$USERR4
 40
0.0
  9
$USERR5
 40
0.0
  9
$WORLDVIEW
 70
     1
  9
$SHADEDGE
 70
     3
  9
$SHADEDIF
 70
    70
  9
$TILEMODE
 70
     1
  9
$MAXACTVP
 70
    16
  9
$PINSBASE
 10
0.0
 20
0.0
 30
0.0
  9
$PLIMCHECK
 70
     0
  9
$PEXTMIN
 10
1.000000E+20
 20
1.000000E+20
 30
1.000000E+20
  9
$PEXTMAX
 10
-1.000000E+20
 20
-1.000000E+20
 30
-1.000000E+20
  9
$PLIMMIN
 10
0.0
 20
0.0
  9
$PLIMMAX
 10
12.0
 20
9.0
  9
$UNITMODE
 70
     0
  9
$VISRETAIN
 70
     0
  9
$PLINEGEN
 70
     1
  9
$PSLTSCALE
 70
     0
  9
$TREEDEPTH
 70
  3020
  9
$PICKSTYLE
 70
     1
  9
$CMLSTYLE
  2
Standard
  9
$CMLJUST
 70
     0
  9
$CMLSCALE
 40
1.0
  9
$PROXYGRAPHICS
 70
     0
  9
$MEASUREMENT
 70
     0
  0
ENDSEC
  0
SECTION
  2
CLASSES
  0
CLASS
  1
LWPOLYLINE
  2
AcDbPolyline
  3
"AutoCAD"
 90
        0
280
     0
281
     1
  0
CLASS
  1
IMAGE
  2
AcDbRasterImage
  3
ISM
 90
      127
280
     0
281
     1
  0
CLASS
  1
OLE2FRAME
  2
AcDbOle2Frame
  3
""
 90
        0
280
     0
281
     1
  0
CLASS
  1
HATCH
  2
AcDbHatch
  3
"ACAD_SEDONA"
 90
        0
280
     0
281
     1
  0
CLASS
  1
DICTIONARYVAR
  2
AcDbDictionaryVar
  3
"AutoCAD"
 90
        0
280
     0
281
     0
  0
CLASS
  1
RASTERVARIABLES
  2
AcDbRasterVariables
  3
ISM
 90
        0
280
     0
281
     0
  0
CLASS
  1
IMAGEDEF
  2
AcDbRasterImageDef
  3
ISM
 90
        0
280
     0
281
     0
  0
CLASS
  1
IMAGEDEF_REACTOR
  2
AcDbRasterImageDefReactor
  3
ISM
 90
        1
280
     0
281
     0
  0
CLASS
  1
IDBUFFER
  2
AcDbIdBuffer
  3
"Acad"
 90
        0
280
     0
281
     0
  0
CLASS
  1
SPATIAL_FILTER
  2
AcDbSpatialFilter
  3
"Acad"
 90
        0
280
     0
281
     0
  0
CLASS
  1
XRECORD
  2
AcDbXrecord
  3
"<Built In>"
 90
        0
280
     0
281
     0
  0
CLASS
  1
SORTENTSTABLE
  2
AcDbSortentsTable
  3
"AutoCAD"
 90
        0
280
     0
281
     0
  0
CLASS
  1
LAYER_INDEX
  2
AcDbLayerIndex
  3
"Acad"
 90
        0
280
     0
281
     0
  0
CLASS
  1
SPATIAL_INDEX
  2
AcDbSpatialIndex
  3
"Acad"
 90
        0
280
     0
281
     0
  0
CLASS
  1
OBJECT_PTR
  2
CAseDLPNTableRecord
  3
"ASE-LPNTableRecord"
 90
        1
280
     0
281
     0
  0
CLASS
  1
LAYOUT
  2
AcDbLayout
  3
"AutoCAD 2000"
 90
        1
280
     0
281
     0
  0
CLASS
  1
PLOTSETTINGS
  2
AcDbPlotSettings
  3
"AutoCAD 2000"
 90
        1
280
     0
281
     0
  0
CLASS
  1
ACDBDICTIONARYWDFLT
  2
AcDbDictionaryWithDefault
  3
"AutoCAD 2000"
 90
        1
280
     0
281
     0
  0
CLASS
  1
ACDBPLACEHOLDER
  2
AcDbPlaceHolder
  3
"AutoCAD 2000"
 90
        1
280
     0
281
     0
  0
CLASS
  1
VBA_PROJECT
  2
AcDbVbaProject
  3
"acadvba"
 90
        1
280
     0
281
     0
  0
CLASS
  1
WIPEOUT
  2
AcDbWipeout
  3
WipeOut|AutoCAD Express Tool|expresstools@autodesk.com
 90
      127
280
     0
281
     1
  0
CLASS
  1
WIPEOUTVARIABLES
  2
AcDbWipeoutVariables
  3
WipeOut|AutoCAD Express Tool|expresstools@autodesk.com
 90
        0
280
     0
281
     0
  0
CLASS
  1
RTEXT
  2
RText
  3
RText|AutoCAD Express Tool|expresstools@autodesk.com
 90
        0
280
     0
281
     1
  0
CLASS
  1
ARCALIGNEDTEXT
  2
AcDbArcAlignedText
  3
ATEXT|AutoCAD Express Tool|expresstools@autodesk.com
 90
        0
280
     0
281
     1
  0
ENDSEC
  0
SECTION
  2
TABLES
  0
TABLE
  2
VPORT
  5
7
100
AcDbSymbolTable
 70
     1
  0
VPORT
  5
15
100
AcDbSymbolTableRecord
100
AcDbViewportTableRecord
  2
*ACTIVE
 70
     0
 10
0.0
 20
0.0
 11
1.0
 21
1.0
 12
964.0
 22
1515.0
 13
0.0
 23
0.0
 14
1.0
 24
1.0
 15
0.0
 25
0.0
 16
0.0
 26
0.0
 36
1.0
 17
0.0
 27
0.0
 37
0.0
 40
2800.0
 41
1.722533
 42
50.0
 43
0.0
 44
0.0
 50
0.0
 51
0.0
 71
     0
 72
   100
 73
     1
 74
     1
 75
     0
 76
     0
 77
     0
 78
     0
  0
ENDTAB
  0
TABLE
  2
LTYPE
  5
4
100
AcDbSymbolTable
 70
    11
  0
LTYPE
  5
11
100
AcDbSymbolTableRecord
100
AcDbLinetypeTableRecord
  2
BYBLOCK
 70
    64
  3

 72
    65
 73
     0
 40
0.0
  0
LTYPE
  5
12
100
AcDbSymbolTableRecord
100
AcDbLinetypeTableRecord
  2
BYLAYER
 70
    64
  3

 72
    65
 73
     0
 40
0.0
  0
LTYPE
  5
13
100
AcDbSymbolTableRecord
100
AcDbLinetypeTableRecord
  2
CONTINUOUS
 70
    64
  3
実線
 72
    65
 73
     0
 40
0.0
  0
LTYPE
  5
1D
100
AcDbSymbolTableRecord
100
AcDbLinetypeTableRecord
  2
EXLTYPE1
 70
    64
  3
破線
 72
    65
 73
     2
 40
3.0
 49
2.0
 74
     0
 49
-1.0
 74
     0
  0
LTYPE
  5
1E
100
AcDbSymbolTableRecord
100
AcDbLinetypeTableRecord
  2
EXLTYPE2
 70
    64
  3
点線
 72
    65
 73
     2
 40
2.0
 49
1.0
 74
     0
 49
-1.0
 74
     0
  0
LTYPE
  5
1F
100
AcDbSymbolTableRecord
100
AcDbLinetypeTableRecord
  2
EXLTYPE3
 70
    64
  3
一点鎖線
 72
    65
 73
     4
 40
10.0
 49
7.0
 74
     0
 49
-1.0
 74
     0
 49
1.0
 74
     0
 49
-1.0
 74
     0
  0
LTYPE
  5
20
100
AcDbSymbolTableRecord
100
AcDbLinetypeTableRecord
  2
EXLTYPE4
 70
    64
  3
二点鎖線
 72
    65
 73
     6
 40
12.0
 49
7.0
 74
     0
 49
-1.0
 74
     0
 49
1.0
 74
     0
 49
-1.0
 74
     0
 49
1.0
 74
     0
 49
-1.0
 74
     0
  0
LTYPE
  5
21
100
AcDbSymbolTableRecord
100
AcDbLinetypeTableRecord
  2
EXLTYPE5
 70
    64
  3
三点鎖線
 72
    65
 73
     8
 40
37.0
 49
30.0
 74
     0
 49
-1.0
 74
     0
 49
1.0
 74
     0
 49
-1.0
 74
     0
 49
1.0
 74
     0
 49
-1.0
 74
     0
 49
1.0
 74
     0
 49
-1.0
 74
     0
  0
LTYPE
  5
22
100
AcDbSymbolTableRecord
100
AcDbLinetypeTableRecord
  2
EXLTYPE6
 70
    64
  3
四点鎖線
 72
    65
 73
    10
 40
39.0
 49
30.0
 74
     0
 49
-1.0
 74
     0
 49
1.0
 74
     0
 49
-1.0
 74
     0
 49
1.0
 74
     0
 49
-1.0
 74
     0
 49
1.0
 74
     0
 49
-1.0
 74
     0
 49
1.0
 74
     0
 49
-1.0
 74
     0
  0
LTYPE
  5
23
100
AcDbSymbolTableRecord
100
AcDbLinetypeTableRecord
  2
EXLTYPE7
 70
    64
  3
一点鎖線2
 72
    65
 73
     4
 40
9.011873
 49
3.918206
 74
     0
 49
-1.959103
 74
     0
 49
1.175462
 74
     0
 49
-1.959103
 74
     0
  0
LTYPE
  5
24
100
AcDbSymbolTableRecord
100
AcDbLinetypeTableRecord
  2
EXLTYPE8
 70
    64
  3
破線5
 72
    65
 73
     2
 40
3.526385
 49
2.350923
 74
     0
 49
-1.175462
 74
     0
  0
ENDTAB
  0
TABLE
  2
LAYER
  5
2
100
AcDbSymbolTable
 70
     6
  0
LAYER
  5
14
100
AcDbSymbolTableRecord
100
AcDbLayerTableRecord
  2
0
 70
     0
 62
     7
  6
CONTINUOUS
  0
LAYER
  5
27
100
AcDbSymbolTableRecord
100
AcDbLayerTableRecord
  2
枠
 70
    64
 62
     7
  6
CONTINUOUS
  0
LAYER
  5
28
100
AcDbSymbolTableRecord
100
AcDbLayerTableRecord
  2
本体
 70
    64
 62
     7
  6
CONTINUOUS
  0
LAYER
  5
29
100
AcDbSymbolTableRecord
100
AcDbLayerTableRecord
  2
寸法
 70
    64
 62
     7
  6
CONTINUOUS
  0
LAYER
  5
2A
100
AcDbSymbolTableRecord
100
AcDbLayerTableRecord
  2
詳細図
 70
    64
 62
     7
  6
CONTINUOUS
  0
LAYER
  5
2B
100
AcDbSymbolTableRecord
100
AcDbLayerTableRecord
  2
詳細図寸法
 70
    64
 62
     7
  6
CONTINUOUS
  0
ENDTAB
  0
TABLE
  2
STYLE
  5
3
100
AcDbSymbolTable
 70
     5
  0
STYLE
  5
17
100
AcDbSymbolTableRecord
100
AcDbTextStyleTableRecord
  2
STANDARD
 70
     0
 40
0.0
 41
1.0
 50
0.0
 71
     0
 42
0.0
  3
monotxt
  4
extfont
  0
STYLE
  5
25
100
AcDbSymbolTableRecord
100
AcDbTextStyleTableRecord
  2
EXCADSTD
 70
    64
 40
0.0
 41
1.0
 50
0.0
 71
     0
 42
0.2
  3
monotxt
  4
extfont
  0
STYLE
  5
26
100
AcDbSymbolTableRecord
100
AcDbTextStyleTableRecord
  2
EXCADVERT
 70
    68
 40
0.0
 41
1.0
 50
0.0
 71
     0
 42
0.286885
  3
monotxt
  4
extfont
  0
STYLE
  5
B7
100
AcDbSymbolTableRecord
100
AcDbTextStyleTableRecord
  2
EXCADTTF1
 70
    64
 40
0.0
 41
1.0
 50
0.0
 71
     0
 42
0.2
  3
MS Gothic.ttf
  4

1001
ACAD
1000
MS Gothic
1071
    32817
  0
STYLE
  5
192
100
AcDbSymbolTableRecord
100
AcDbTextStyleTableRecord
  2
EXCADDIM1
 70
    64
 40
0.0
 41
0.84
 50
0.0
 71
     0
 42
0.2
  3
monotxt
  4
extfont
  0
ENDTAB
  0
TABLE
  2
VIEW
  5
5
100
AcDbSymbolTable
 70
     0
  0
ENDTAB
  0
TABLE
  2
UCS
  5
6
100
AcDbSymbolTable
 70
     0
  0
ENDTAB
  0
TABLE
  2
APPID
  5
8
100
AcDbSymbolTable
 70
     1
  0
APPID
  5
16
100
AcDbSymbolTableRecord
100
AcDbRegAppTableRecord
  2
ACAD
 70
     0
  0
ENDTAB
  0
TABLE
  2
DIMSTYLE
  5
9
100
AcDbSymbolTable
 70
     1
  0
DIMSTYLE
105
18
100
AcDbSymbolTableRecord
100
AcDbDimStyleTableRecord
  2
STANDARD
 70
     0
  3

  4

  5

  6

  7

 40
1.0
 41
0.18
 42
0.0625
 43
0.38
 44
0.18
 45
0.0
 46
0.0
 47
0.0
 48
0.0
 71
     0
 72
     0
 73
     1
 74
     1
 75
     0
 76
     0
 77
     0
 78
     0
140
0.18
141
0.09
142
0.0
143
25.4
144
1.0
145
0.0
146
1.0
147
0.09
170
     0
171
     2
172
     1
173
     0
174
     0
175
     0
176
     0
177
     0
178
     0
270
     2
271
     4
272
     4
273
     2
274
     2
275
     0
280
     0
281
     0
282
     0
283
     1
284
     0
285
     0
286
     0
287
     0
288
     0
340
17
  0
ENDTAB
  0
TABLE
  2
BLOCK_RECORD
  5
1
100
AcDbSymbolTable
 70
    25
  0
BLOCK_RECORD
  5
A
100
AcDbSymbolTableRecord
100
AcDbBlockTableRecord
  2
*MODEL_SPACE
  0
BLOCK_RECORD
  5
B
100
AcDbSymbolTableRecord
100
AcDbBlockTableRecord
  2
*PAPER_SPACE
  0
BLOCK_RECORD
  5
2C
100
AcDbSymbolTableRecord
100
AcDbBlockTableRecord
  2
_EX_NORM
  0
BLOCK_RECORD
  5
2D
100
AcDbSymbolTableRecord
100
AcDbBlockTableRecord
  2
_EX_BNORM
  0
BLOCK_RECORD
  5
2E
100
AcDbSymbolTableRecord
100
AcDbBlockTableRecord
  2
_EX_BCIR
  0
BLOCK_RECORD
  5
2F
100
AcDbSymbolTableRecord
100
AcDbBlockTableRecord
  2
_EX_RCIVIL
  0
BLOCK_RECORD
  5
30
100
AcDbSymbolTableRecord
100
AcDbBlockTableRecord
  2
_EX_SLANT
  0
BLOCK_RECORD
  5
31
100
AcDbSymbolTableRecord
100
AcDbBlockTableRecord
  2
_EX_NONE
  0
BLOCK_RECORD
  5
32
100
AcDbSymbolTableRecord
100
AcDbBlockTableRecord
  2
_EX_CIVIL
  0
BLOCK_RECORD
  5
33
100
AcDbSymbolTableRecord
100
AcDbBlockTableRecord
  2
_EX_WCIR
  0
BLOCK_RECORD
  5
34
100
AcDbSymbolTableRecord
100
AcDbBlockTableRecord
  2
_EX_WCIR2
  0
BLOCK_RECORD
  5
35
100
AcDbSymbolTableRecord
100
AcDbBlockTableRecord
  2
_EX_WNORM
  0
BLOCK_RECORD
  5
36
100
AcDbSymbolTableRecord
100
AcDbBlockTableRecord
  2
_EX_NNORM
  0
BLOCK_RECORD
  5
37
100
AcDbSymbolTableRecord
100
AcDbBlockTableRecord
  2
_EX_BBOX
  0
BLOCK_RECORD
  5
38
100
AcDbSymbolTableRecord
100
AcDbBlockTableRecord
  2
_EX_WBOX
  0
BLOCK_RECORD
  5
39
100
AcDbSymbolTableRecord
100
AcDbBlockTableRecord
  2
_EX_INTEGRAL
  0
BLOCK_RECORD
  5
187
100
AcDbSymbolTableRecord
100
AcDbBlockTableRecord
  2
*D14
  0
BLOCK_RECORD
  5
20F
100
AcDbSymbolTableRecord
100
AcDbBlockTableRecord
  2
*D15
  0
BLOCK_RECORD
  5
3F2
100
AcDbSymbolTableRecord
100
AcDbBlockTableRecord
  2
*D16
  0
BLOCK_RECORD
  5
401
100
AcDbSymbolTableRecord
100
AcDbBlockTableRecord
  2
*D17
  0
BLOCK_RECORD
  5
40C
100
AcDbSymbolTableRecord
100
AcDbBlockTableRecord
  2
*D18
  0
BLOCK_RECORD
  5
417
100
AcDbSymbolTableRecord
100
AcDbBlockTableRecord
  2
*D19
  0
BLOCK_RECORD
  5
423
100
AcDbSymbolTableRecord
100
AcDbBlockTableRecord
  2
*D20
  0
BLOCK_RECORD
  5
430
100
AcDbSymbolTableRecord
100
AcDbBlockTableRecord
  2
*D21
  0
BLOCK_RECORD
  5
43C
100
AcDbSymbolTableRecord
100
AcDbBlockTableRecord
  2
*D22
  0
BLOCK_RECORD
  5
448
100
AcDbSymbolTableRecord
100
AcDbBlockTableRecord
  2
*D23
  0
BLOCK_RECORD
  5
454
100
AcDbSymbolTableRecord
100
AcDbBlockTableRecord
  2
*D24
  0
ENDTAB
  0
ENDSEC
  0
SECTION
  2
BLOCKS
  0
BLOCK
  5
D
100
AcDbEntity
  8
0
100
AcDbBlockBegin
  2
*MODEL_SPACE
 70
     0
 10
0.0
 20
0.0
 30
0.0
  3
*MODEL_SPACE
  1

  0
ENDBLK
  5
E
100
AcDbEntity
  8
0
100
AcDbBlockEnd
  0
BLOCK
  5
F
100
AcDbEntity
 67
     1
  8
0
100
AcDbBlockBegin
  2
*PAPER_SPACE
 70
     0
 10
0.0
 20
0.0
 30
0.0
  3
*PAPER_SPACE
  1

  0
ENDBLK
  5
10
100
AcDbEntity
 67
     1
  8
0
100
AcDbBlockEnd
  0
BLOCK
  5
3A
100
AcDbEntity
  8
0
100
AcDbBlockBegin
  2
_EX_NORM
 70
     0
 10
0.0
 20
0.0
 30
0.0
  3
_EX_NORM
  1

  0
LINE
  5
3B
100
AcDbEntity
  8
0
  6
CONTINUOUS
 62
     0
100
AcDbLine
 10
0.0
 20
0.0
 30
0.0
 11
-1.0
 21
0.0
 31
0.0
  0
LINE
  5
3C
100
AcDbEntity
  8
0
  6
CONTINUOUS
 62
     0
100
AcDbLine
 10
0.0
 20
0.0
 30
0.0
 11
-1.0
 21
0.166667
 31
0.0
  0
LINE
  5
3D
100
AcDbEntity
  8
0
  6
CONTINUOUS
 62
     0
100
AcDbLine
 10
0.0
 20
0.0
 30
0.0
 11
-1.0
 21
-0.166667
 31
0.0
  0
ENDBLK
  5
3E
100
AcDbEntity
  8
0
100
AcDbBlockEnd
  0
BLOCK
  5
3F
100
AcDbEntity
  8
0
100
AcDbBlockBegin
  2
_EX_BNORM
 70
     0
 10
0.0
 20
0.0
 30
0.0
  3
_EX_BNORM
  1

  0
LINE
  5
40
100
AcDbEntity
  8
0
  6
CONTINUOUS
 62
     0
100
AcDbLine
 10
0.0
 20
0.0
 30
0.0
 11
-1.0
 21
0.0
 31
0.0
  0
LINE
  5
41
100
AcDbEntity
  8
0
  6
CONTINUOUS
 62
     0
100
AcDbLine
 10
0.0
 20
0.0
 30
0.0
 11
-1.0
 21
0.166667
 31
0.0
  0
LINE
  5
42
100
AcDbEntity
  8
0
  6
CONTINUOUS
 62
     0
100
AcDbLine
 10
0.0
 20
0.0
 30
0.0
 11
-1.0
 21
-0.166667
 31
0.0
  0
LINE
  5
43
100
AcDbEntity
  8
0
  6
CONTINUOUS
 62
     0
100
AcDbLine
 10
0.0
 20
0.0
 30
0.0
 11
-1.0
 21
0.083333
 31
0.0
  0
LINE
  5
44
100
AcDbEntity
  8
0
  6
CONTINUOUS
 62
     0
100
AcDbLine
 10
0.0
 20
0.0
 30
0.0
 11
-1.0
 21
-0.083333
 31
0.0
  0
LINE
  5
45
100
AcDbEntity
  8
0
  6
CONTINUOUS
 62
     0
100
AcDbLine
 10
-1.0
 20
0.166667
 30
0.0
 11
-1.0
 21
-0.166667
 31
0.0
  0
ENDBLK
  5
46
100
AcDbEntity
  8
0
100
AcDbBlockEnd
  0
BLOCK
  5
47
100
AcDbEntity
  8
0
100
AcDbBlockBegin
  2
_EX_BCIR
 70
     0
 10
0.0
 20
0.0
 30
0.0
  3
_EX_BCIR
  1

  0
LINE
  5
48
100
AcDbEntity
  8
0
  6
CONTINUOUS
 62
     0
100
AcDbLine
 10
0.0
 20
0.0
 30
0.0
 11
-1.0
 21
0.0
 31
0.0
  0
CIRCLE
  5
49
100
AcDbEntity
  8
0
  6
CONTINUOUS
 62
     0
100
AcDbCircle
 10
0.0
 20
0.0
 30
0.0
 40
0.5
  0
CIRCLE
  5
4A
100
AcDbEntity
  8
0
  6
CONTINUOUS
 62
     0
100
AcDbCircle
 10
0.0
 20
0.0
 30
0.0
 40
0.25
  0
ENDBLK
  5
4B
100
AcDbEntity
  8
0
100
AcDbBlockEnd
  0
BLOCK
  5
4C
100
AcDbEntity
  8
0
100
AcDbBlockBegin
  2
_EX_RCIVIL
 70
     0
 10
0.0
 20
0.0
 30
0.0
  3
_EX_RCIVIL
  1

  0
LINE
  5
4D
100
AcDbEntity
  8
0
  6
CONTINUOUS
 62
     0
100
AcDbLine
 10
0.0
 20
0.0
 30
0.0
 11
-1.0
 21
0.0
 31
0.0
  0
LINE
  5
4E
100
AcDbEntity
  8
0
  6
CONTINUOUS
 62
     0
100
AcDbLine
 10
-1.0
 20
-0.25
 30
0.0
 11
0.0
 21
-0.25
 31
0.0
  0
LINE
  5
4F
100
AcDbEntity
  8
0
  6
CONTINUOUS
 62
     0
100
AcDbLine
 10
-1.0
 20
-0.125
 30
0.0
 11
0.0
 21
-0.125
 31
0.0
  0
ENDBLK
  5
50
100
AcDbEntity
  8
0
100
AcDbBlockEnd
  0
BLOCK
  5
51
100
AcDbEntity
  8
0
100
AcDbBlockBegin
  2
_EX_SLANT
 70
     0
 10
0.0
 20
0.0
 30
0.0
  3
_EX_SLANT
  1

  0
LINE
  5
52
100
AcDbEntity
  8
0
  6
CONTINUOUS
 62
     0
100
AcDbLine
 10
0.0
 20
0.0
 30
0.0
 11
-1.0
 21
0.0
 31
0.0
  0
LINE
  5
53
100
AcDbEntity
  8
0
  6
CONTINUOUS
 62
     0
100
AcDbLine
 10
0.707107
 20
0.707107
 30
0.0
 11
-0.707107
 21
-0.707107
 31
0.0
  0
ENDBLK
  5
54
100
AcDbEntity
  8
0
100
AcDbBlockEnd
  0
BLOCK
  5
55
100
AcDbEntity
  8
0
100
AcDbBlockBegin
  2
_EX_NONE
 70
     0
 10
0.0
 20
0.0
 30
0.0
  3
_EX_NONE
  1

  0
LINE
  5
56
100
AcDbEntity
  8
0
  6
CONTINUOUS
 62
     0
100
AcDbLine
 10
0.0
 20
0.0
 30
0.0
 11
-1.0
 21
0.0
 31
0.0
  0
ENDBLK
  5
57
100
AcDbEntity
  8
0
100
AcDbBlockEnd
  0
BLOCK
  5
58
100
AcDbEntity
  8
0
100
AcDbBlockBegin
  2
_EX_CIVIL
 70
     0
 10
0.0
 20
0.0
 30
0.0
  3
_EX_CIVIL
  1

  0
LINE
  5
59
100
AcDbEntity
  8
0
  6
CONTINUOUS
 62
     0
100
AcDbLine
 10
0.0
 20
0.0
 30
0.0
 11
-1.0
 21
0.0
 31
0.0
  0
LINE
  5
5A
100
AcDbEntity
  8
0
  6
CONTINUOUS
 62
     0
100
AcDbLine
 10
-1.0
 20
0.25
 30
0.0
 11
0.0
 21
0.25
 31
0.0
  0
LINE
  5
5B
100
AcDbEntity
  8
0
  6
CONTINUOUS
 62
     0
100
AcDbLine
 10
-1.0
 20
0.125
 30
0.0
 11
0.0
 21
0.125
 31
0.0
  0
ENDBLK
  5
5C
100
AcDbEntity
  8
0
100
AcDbBlockEnd
  0
BLOCK
  5
5D
100
AcDbEntity
  8
0
100
AcDbBlockBegin
  2
_EX_WCIR
 70
     0
 10
0.0
 20
0.0
 30
0.0
  3
_EX_WCIR
  1

  0
LINE
  5
5E
100
AcDbEntity
  8
0
  6
CONTINUOUS
 62
     0
100
AcDbLine
 10
0.0
 20
0.0
 30
0.0
 11
-1.0
 21
0.0
 31
0.0
  0
CIRCLE
  5
5F
100
AcDbEntity
  8
0
  6
CONTINUOUS
 62
     0
100
AcDbCircle
 10
0.0
 20
0.0
 30
0.0
 40
0.5
  0
ENDBLK
  5
60
100
AcDbEntity
  8
0
100
AcDbBlockEnd
  0
BLOCK
  5
61
100
AcDbEntity
  8
0
100
AcDbBlockBegin
  2
_EX_WCIR2
 70
     0
 10
0.0
 20
0.0
 30
0.0
  3
_EX_WCIR2
  1

  0
LINE
  5
62
100
AcDbEntity
  8
0
  6
CONTINUOUS
 62
     0
100
AcDbLine
 10
-0.5
 20
0.0
 30
0.0
 11
-1.0
 21
0.0
 31
0.0
  0
CIRCLE
  5
63
100
AcDbEntity
  8
0
  6
CONTINUOUS
 62
     0
100
AcDbCircle
 10
0.0
 20
0.0
 30
0.0
 40
0.5
  0
ENDBLK
  5
64
100
AcDbEntity
  8
0
100
AcDbBlockEnd
  0
BLOCK
  5
65
100
AcDbEntity
  8
0
100
AcDbBlockBegin
  2
_EX_WNORM
 70
     0
 10
0.0
 20
0.0
 30
0.0
  3
_EX_WNORM
  1

  0
LINE
  5
66
100
AcDbEntity
  8
0
  6
CONTINUOUS
 62
     0
100
AcDbLine
 10
-1.0
 20
0.0
 30
0.0
 11
-1.0
 21
0.0
 31
0.0
  0
LINE
  5
67
100
AcDbEntity
  8
0
  6
CONTINUOUS
 62
     0
100
AcDbLine
 10
0.0
 20
0.0
 30
0.0
 11
-1.0
 21
0.166667
 31
0.0
  0
LINE
  5
68
100
AcDbEntity
  8
0
  6
CONTINUOUS
 62
     0
100
AcDbLine
 10
0.0
 20
0.0
 30
0.0
 11
-1.0
 21
-0.166667
 31
0.0
  0
LINE
  5
69
100
AcDbEntity
  8
0
  6
CONTINUOUS
 62
     0
100
AcDbLine
 10
-1.0
 20
0.166667
 30
0.0
 11
-1.0
 21
-0.166667
 31
0.0
  0
ENDBLK
  5
6A
100
AcDbEntity
  8
0
100
AcDbBlockEnd
  0
BLOCK
  5
6B
100
AcDbEntity
  8
0
100
AcDbBlockBegin
  2
_EX_NNORM
 70
     0
 10
0.0
 20
0.0
 30
0.0
  3
_EX_NNORM
  1

  0
LINE
  5
6C
100
AcDbEntity
  8
0
  6
CONTINUOUS
 62
     0
100
AcDbLine
 10
0.0
 20
0.0
 30
0.0
 11
-1.0
 21
0.0
 31
0.0
  0
LINE
  5
6D
100
AcDbEntity
  8
0
  6
CONTINUOUS
 62
     0
100
AcDbLine
 10
0.0
 20
0.0
 30
0.0
 11
-1.0
 21
0.166667
 31
0.0
  0
LINE
  5
6E
100
AcDbEntity
  8
0
  6
CONTINUOUS
 62
     0
100
AcDbLine
 10
0.0
 20
0.0
 30
0.0
 11
-1.0
 21
-0.166667
 31
0.0
  0
LINE
  5
6F
100
AcDbEntity
  8
0
  6
CONTINUOUS
 62
     0
100
AcDbLine
 10
-1.0
 20
0.166667
 30
0.0
 11
-1.0
 21
-0.166667
 31
0.0
  0
ENDBLK
  5
70
100
AcDbEntity
  8
0
100
AcDbBlockEnd
  0
BLOCK
  5
71
100
AcDbEntity
  8
0
100
AcDbBlockBegin
  2
_EX_BBOX
 70
     0
 10
0.0
 20
0.0
 30
0.0
  3
_EX_BBOX
  1

  0
LINE
  5
72
100
AcDbEntity
  8
0
  6
CONTINUOUS
 62
     0
100
AcDbLine
 10
0.0
 20
0.0
 30
0.0
 11
-1.0
 21
0.0
 31
0.0
  0
LINE
  5
73
100
AcDbEntity
  8
0
  6
CONTINUOUS
 62
     0
100
AcDbLine
 10
-0.5
 20
0.5
 30
0.0
 11
0.5
 21
0.5
 31
0.0
  0
LINE
  5
74
100
AcDbEntity
  8
0
  6
CONTINUOUS
 62
     0
100
AcDbLine
 10
0.5
 20
0.5
 30
0.0
 11
0.5
 21
-0.5
 31
0.0
  0
LINE
  5
75
100
AcDbEntity
  8
0
  6
CONTINUOUS
 62
     0
100
AcDbLine
 10
0.5
 20
-0.5
 30
0.0
 11
-0.5
 21
-0.5
 31
0.0
  0
LINE
  5
76
100
AcDbEntity
  8
0
  6
CONTINUOUS
 62
     0
100
AcDbLine
 10
-0.5
 20
-0.5
 30
0.0
 11
-0.5
 21
0.5
 31
0.0
  0
LINE
  5
77
100
AcDbEntity
  8
0
  6
CONTINUOUS
 62
     0
100
AcDbLine
 10
-0.25
 20
0.25
 30
0.0
 11
0.25
 21
0.25
 31
0.0
  0
LINE
  5
78
100
AcDbEntity
  8
0
  6
CONTINUOUS
 62
     0
100
AcDbLine
 10
0.25
 20
0.25
 30
0.0
 11
0.25
 21
-0.25
 31
0.0
  0
LINE
  5
79
100
AcDbEntity
  8
0
  6
CONTINUOUS
 62
     0
100
AcDbLine
 10
0.25
 20
-0.25
 30
0.0
 11
-0.25
 21
-0.25
 31
0.0
  0
LINE
  5
7A
100
AcDbEntity
  8
0
  6
CONTINUOUS
 62
     0
100
AcDbLine
 10
-0.25
 20
-0.25
 30
0.0
 11
-0.25
 21
0.25
 31
0.0
  0
ENDBLK
  5
7B
100
AcDbEntity
  8
0
100
AcDbBlockEnd
  0
BLOCK
  5
7C
100
AcDbEntity
  8
0
100
AcDbBlockBegin
  2
_EX_WBOX
 70
     0
 10
0.0
 20
0.0
 30
0.0
  3
_EX_WBOX
  1

  0
LINE
  5
7D
100
AcDbEntity
  8
0
  6
CONTINUOUS
 62
     0
100
AcDbLine
 10
-0.5
 20
0.0
 30
0.0
 11
-1.0
 21
0.0
 31
0.0
  0
LINE
  5
7E
100
AcDbEntity
  8
0
  6
CONTINUOUS
 62
     0
100
AcDbLine
 10
-0.5
 20
0.5
 30
0.0
 11
0.5
 21
0.5
 31
0.0
  0
LINE
  5
7F
100
AcDbEntity
  8
0
  6
CONTINUOUS
 62
     0
100
AcDbLine
 10
0.5
 20
0.5
 30
0.0
 11
0.5
 21
-0.5
 31
0.0
  0
LINE
  5
80
100
AcDbEntity
  8
0
  6
CONTINUOUS
 62
     0
100
AcDbLine
 10
0.5
 20
-0.5
 30
0.0
 11
-0.5
 21
-0.5
 31
0.0
  0
LINE
  5
81
100
AcDbEntity
  8
0
  6
CONTINUOUS
 62
     0
100
AcDbLine
 10
-0.5
 20
-0.5
 30
0.0
 11
-0.5
 21
0.5
 31
0.0
  0
ENDBLK
  5
82
100
AcDbEntity
  8
0
100
AcDbBlockEnd
  0
BLOCK
  5
83
100
AcDbEntity
  8
0
100
AcDbBlockBegin
  2
_EX_INTEGRAL
 70
     0
 10
0.0
 20
0.0
 30
0.0
  3
_EX_INTEGRAL
  1

  0
LINE
  5
84
100
AcDbEntity
  8
0
  6
CONTINUOUS
 62
     0
100
AcDbLine
 10
0.0
 20
0.0
 30
0.0
 11
-1.0
 21
0.0
 31
0.0
  0
ARC
  5
85
100
AcDbEntity
  8
0
  6
CONTINUOUS
 62
     0
100
AcDbCircle
 10
0.542115
 20
0.164992
 30
0.0
 40
0.56667
100
AcDbArc
 50
73.07249
 51
196.927513
  0
ARC
  5
86
100
AcDbEntity
  8
0
  6
CONTINUOUS
 62
     0
100
AcDbCircle
 10
-0.542115
 20
-0.164992
 30
0.0
 40
0.56667
100
AcDbArc
 50
253.072487
 51
16.927513
  0
ENDBLK
  5
87
100
AcDbEntity
  8
0
100
AcDbBlockEnd
  0
BLOCK
  5
188
100
AcDbEntity
  8
0
100
AcDbBlockBegin
  2
*D14
 70
    65
 10
0.0
 20
0.0
 30
0.0
  3
*D14
  1

  0
LINE
  5
189
100
AcDbEntity
  8
本体
  6
CONTINUOUS
 62
     3
100
AcDbLine
 10
712.0
 20
2431.288259
 30
0.0
 11
712.0
 21
2571.488263
 31
0.0
  0
LINE
  5
18A
100
AcDbEntity
  8
本体
  6
CONTINUOUS
 62
     3
100
AcDbLine
 10
1307.0
 20
2432.088267
 30
0.0
 11
1307.0
 21
2571.488263
 31
0.0
  0
TEXT
  5
18B
100
AcDbEntity
  8
本体
  6
CONTINUOUS
 62
     2
100
AcDbText
 10
965.82
 20
2554.988263
 30
0.0
 40
40.0
  1
595
 41
0.84
  7
EXCADSTD
 72
     1
 11
1009.5
 21
2554.988263
 31
0.0
100
AcDbText
  0
LINE
  5
18C
100
AcDbEntity
  8
本体
  6
CONTINUOUS
 62
     3
100
AcDbLine
 10
712.0
 20
2551.488263
 30
0.0
 11
1307.0
 21
2551.488263
 31
0.0
  0
LINE
  5
18D
100
AcDbEntity
  8
本体
  6
CONTINUOUS
 62
     3
100
AcDbLine
 10
747.0
 20
2557.321597
 30
0.0
 11
712.0
 21
2551.488263
 31
0.0
  0
LINE
  5
18E
100
AcDbEntity
  8
本体
  6
CONTINUOUS
 62
     3
100
AcDbLine
 10
712.0
 20
2551.488263
 30
0.0
 11
747.0
 21
2545.65493
 31
0.0
  0
LINE
  5
18F
100
AcDbEntity
  8
本体
  6
CONTINUOUS
 62
     3
100
AcDbLine
 10
1272.0
 20
2545.65493
 30
0.0
 11
1307.0
 21
2551.488263
 31
0.0
  0
LINE
  5
190
100
AcDbEntity
  8
本体
  6
CONTINUOUS
 62
     3
100
AcDbLine
 10
1307.0
 20
2551.488263
 30
0.0
 11
1272.0
 21
2557.321597
 31
0.0
  0
ENDBLK
  5
191
100
AcDbEntity
  8
0
100
AcDbBlockEnd
  0
BLOCK
  5
210
100
AcDbEntity
  8
0
100
AcDbBlockBegin
  2
*D15
 70
    65
 10
0.0
 20
0.0
 30
0.0
  3
*D15
  1

  0
LINE
  5
211
100
AcDbEntity
  8
本体
  6
CONTINUOUS
 62
     3
100
AcDbLine
 10
729.299995
 20
2448.988263
 30
0.0
 11
589.5
 21
2448.988263
 31
0.0
  0
LINE
  5
212
100
AcDbEntity
  8
本体
  6
CONTINUOUS
 62
     3
100
AcDbLine
 10
727.900002
 20
1853.988263
 30
0.0
 11
589.5
 21
1853.988263
 31
0.0
  0
TEXT
  5
213
100
AcDbEntity
  8
本体
  6
CONTINUOUS
 62
     2
100
AcDbText
 10
606.0
 20
2107.808263
 30
0.0
 40
40.0
  1
595
 50
90.0
 41
0.84
  7
EXCADSTD
 72
     1
 11
606.0
 21
2151.488263
 31
0.0
100
AcDbText
  0
LINE
  5
214
100
AcDbEntity
  8
本体
  6
CONTINUOUS
 62
     3
100
AcDbLine
 10
609.5
 20
2448.988263
 30
0.0
 11
609.5
 21
1853.988263
 31
0.0
  0
LINE
  5
215
100
AcDbEntity
  8
本体
  6
CONTINUOUS
 62
     3
100
AcDbLine
 10
615.333333
 20
2413.988263
 30
0.0
 11
609.5
 21
2448.988263
 31
0.0
  0
LINE
  5
216
100
AcDbEntity
  8
本体
  6
CONTINUOUS
 62
     3
100
AcDbLine
 10
609.5
 20
2448.988263
 30
0.0
 11
603.666667
 21
2413.988263
 31
0.0
  0
LINE
  5
217
100
AcDbEntity
  8
本体
  6
CONTINUOUS
 62
     3
100
AcDbLine
 10
603.666667
 20
1888.988263
 30
0.0
 11
609.5
 21
1853.988263
 31
0.0
  0
LINE
  5
218
100
AcDbEntity
  8
本体
  6
CONTINUOUS
 62
     3
100
AcDbLine
 10
609.5
 20
1853.988263
 30
0.0
 11
615.333333
 21
1888.988263
 31
0.0
  0
ENDBLK
  5
219
100
AcDbEntity
  8
0
100
AcDbBlockEnd
  0
BLOCK
  5
3F3
100
AcDbEntity
  8
0
100
AcDbBlockBegin
  2
*D16
 70
    65
 10
0.0
 20
0.0
 30
0.0
  3
*D16
  1

  0
LINE
  5
3F4
100
AcDbEntity
  8
本体
  6
CONTINUOUS
 62
     3
100
AcDbLine
 10
767.5
 20
1360.1
 30
0.0
 11
701.0
 21
1360.1
 31
0.0
  0
LINE
  5
3F5
100
AcDbEntity
  8
本体
  6
CONTINUOUS
 62
     3
100
AcDbLine
 10
788.45
 20
961.1
 30
0.0
 11
701.0
 21
961.1
 31
0.0
  0
LINE
  5
3F6
100
AcDbEntity
  8
本体
  6
CONTINUOUS
 62
     3
100
AcDbLine
 10
711.0
 20
1360.1
 30
0.0
 11
711.0
 21
961.1
 31
0.0
  0
LINE
  5
3F7
100
AcDbEntity
  8
本体
  6
CONTINUOUS
 62
     3
100
AcDbLine
 10
716.0
 20
1330.1
 30
0.0
 11
711.0
 21
1360.1
 31
0.0
  0
LINE
  5
3F8
100
AcDbEntity
  8
本体
  6
CONTINUOUS
 62
     3
100
AcDbLine
 10
711.0
 20
1360.1
 30
0.0
 11
706.0
 21
1330.1
 31
0.0
  0
LINE
  5
3F9
100
AcDbEntity
  8
本体
  6
CONTINUOUS
 62
     3
100
AcDbLine
 10
706.0
 20
991.1
 30
0.0
 11
711.0
 21
961.1
 31
0.0
  0
LINE
  5
3FA
100
AcDbEntity
  8
本体
  6
CONTINUOUS
 62
     3
100
AcDbLine
 10
711.0
 20
961.1
 30
0.0
 11
716.0
 21
991.1
 31
0.0
  0
TEXT
  5
3FB
100
AcDbEntity
  8
本体
  6
CONTINUOUS
 62
     2
100
AcDbText
 10
707.5
 20
1118.6
 30
0.0
 40
40.0
  1
634
 50
90.0
 41
0.84
  7
EXCADSTD
 72
     1
 11
707.5
 21
1160.6
 31
0.0
100
AcDbText
  0
ENDBLK
  5
3FC
100
AcDbEntity
  8
0
100
AcDbBlockEnd
  0
BLOCK
  5
402
100
AcDbEntity
  8
0
100
AcDbBlockBegin
  2
*D17
 70
    65
 10
0.0
 20
0.0
 30
0.0
  3
*D17
  1

  0
LINE
  5
403
100
AcDbEntity
  8
寸法
  6
CONTINUOUS
 62
     3
100
AcDbLine
 10
1327.2
 20
1549.0
 30
0.0
 11
1432.0
 21
1549.0
 31
0.0
  0
TEXT
  5
404
100
AcDbEntity
  8
寸法
  6
CONTINUOUS
 62
     2
100
AcDbText
 10
1418.5
 20
1584.6
 30
0.0
 40
40.0
  1
60
 50
90.0
 41
0.84
  7
EXCADSTD
 72
     1
 11
1418.5
 21
1614.0
 31
0.0
100
AcDbText
  0
LINE
  5
405
100
AcDbEntity
  8
寸法
  6
CONTINUOUS
 62
     3
100
AcDbLine
 10
1422.0
 20
1459.0
 30
0.0
 11
1422.0
 21
1652.500004
 31
0.0
  0
LINE
  5
406
100
AcDbEntity
  8
寸法
  6
CONTINUOUS
 62
     3
100
AcDbLine
 10
1427.0
 20
1459.0
 30
0.0
 11
1422.0
 21
1489.0
 31
0.0
  0
LINE
  5
407
100
AcDbEntity
  8
寸法
  6
CONTINUOUS
 62
     3
100
AcDbLine
 10
1422.0
 20
1489.0
 30
0.0
 11
1417.0
 21
1459.0
 31
0.0
  0
LINE
  5
408
100
AcDbEntity
  8
寸法
  6
CONTINUOUS
 62
     3
100
AcDbLine
 10
1417.0
 20
1579.0
 30
0.0
 11
1422.0
 21
1549.0
 31
0.0
  0
LINE
  5
409
100
AcDbEntity
  8
寸法
  6
CONTINUOUS
 62
     3
100
AcDbLine
 10
1422.0
 20
1549.0
 30
0.0
 11
1427.0
 21
1579.0
 31
0.0
  0
ENDBLK
  5
40A
100
AcDbEntity
  8
0
100
AcDbBlockEnd
  0
BLOCK
  5
40D
100
AcDbEntity
  8
0
100
AcDbBlockBegin
  2
*D18
 70
    65
 10
0.0
 20
0.0
 30
0.0
  3
*D18
  1

  0
LINE
  5
40E
100
AcDbEntity
  8
寸法
  6
CONTINUOUS
 62
     3
100
AcDbLine
 10
812.5
 20
2073.999998
 30
0.0
 11
812.5
 21
2030.0
 31
0.0
  0
TEXT
  5
40F
100
AcDbEntity
  8
寸法
  6
CONTINUOUS
 62
     2
100
AcDbText
 10
916.5
 20
2043.5
 30
0.0
 40
40.0
  1
123
 41
0.84
  7
EXCADSTD
 72
     1
 11
958.5
 21
2043.5
 31
0.0
100
AcDbText
  0
LINE
  5
410
100
AcDbEntity
  8
寸法
  6
CONTINUOUS
 62
     3
100
AcDbLine
 10
1000.0
 20
2040.0
 30
0.0
 11
659.5
 21
2040.0
 31
0.0
  0
LINE
  5
411
100
AcDbEntity
  8
寸法
  6
CONTINUOUS
 62
     3
100
AcDbLine
 10
842.5
 20
2045.0
 30
0.0
 11
812.5
 21
2040.0
 31
0.0
  0
LINE
  5
412
100
AcDbEntity
  8
寸法
  6
CONTINUOUS
 62
     3
100
AcDbLine
 10
812.5
 20
2040.0
 30
0.0
 11
842.5
 21
2035.0
 31
0.0
  0
LINE
  5
413
100
AcDbEntity
  8
寸法
  6
CONTINUOUS
 62
     3
100
AcDbLine
 10
659.5
 20
2035.0
 30
0.0
 11
689.5
 21
2040.0
 31
0.0
  0
LINE
  5
414
100
AcDbEntity
  8
寸法
  6
CONTINUOUS
 62
     3
100
AcDbLine
 10
689.5
 20
2040.0
 30
0.0
 11
659.5
 21
2045.0
 31
0.0
  0
ENDBLK
  5
415
100
AcDbEntity
  8
0
100
AcDbBlockEnd
  0
BLOCK
  5
418
100
AcDbEntity
  8
0
100
AcDbBlockBegin
  2
*D19
 70
    65
 10
0.0
 20
0.0
 30
0.0
  3
*D19
  1

  0
LINE
  5
419
100
AcDbEntity
  8
寸法
  6
CONTINUOUS
 62
     3
100
AcDbLine
 10
1481.0
 20
2471.488263
 30
0.0
 11
1481.0
 21
1831.488263
 31
0.0
  0
LINE
  5
41A
100
AcDbEntity
  8
寸法
  6
CONTINUOUS
 62
     3
100
AcDbLine
 10
1486.0
 20
2441.488263
 30
0.0
 11
1481.0
 21
2471.488263
 31
0.0
  0
LINE
  5
41B
100
AcDbEntity
  8
寸法
  6
CONTINUOUS
 62
     3
100
AcDbLine
 10
1481.0
 20
2471.488263
 30
0.0
 11
1476.0
 21
2441.488263
 31
0.0
  0
LINE
  5
41C
100
AcDbEntity
  8
寸法
  6
CONTINUOUS
 62
     3
100
AcDbLine
 10
1476.0
 20
1861.488263
 30
0.0
 11
1481.0
 21
1831.488263
 31
0.0
  0
LINE
  5
41D
100
AcDbEntity
  8
寸法
  6
CONTINUOUS
 62
     3
100
AcDbLine
 10
1481.0
 20
1831.488263
 30
0.0
 11
1486.0
 21
1861.488263
 31
0.0
  0
TEXT
  5
41E
100
AcDbEntity
  8
寸法
  6
CONTINUOUS
 62
     2
100
AcDbText
 10
1477.5
 20
2109.488263
 30
0.0
 40
40.0
  1
640
 50
90.0
 41
0.84
  7
EXCADSTD
 72
     1
 11
1477.5
 21
2151.488263
 31
0.0
100
AcDbText
  0
LINE
  5
41F
100
AcDbEntity
  8
寸法
  6
CONTINUOUS
 62
     3
100
AcDbLine
 10
1324.5
 20
2471.488263
 30
0.0
 11
1491.0
 21
2471.488263
 31
0.0
  0
LINE
  5
420
100
AcDbEntity
  8
寸法
  6
CONTINUOUS
 62
     3
100
AcDbLine
 10
1324.5
 20
1831.488263
 30
0.0
 11
1491.0
 21
1831.488263
 31
0.0
  0
ENDBLK
  5
421
100
AcDbEntity
  8
0
100
AcDbBlockEnd
  0
BLOCK
  5
424
100
AcDbEntity
  8
0
100
AcDbBlockBegin
  2
*D20
 70
    65
 10
0.0
 20
0.0
 30
0.0
  3
*D20
  1

  0
LINE
  5
425
100
AcDbEntity
  8
寸法
  6
CONTINUOUS
 62
     3
100
AcDbLine
 10
689.5
 20
1695.0
 30
0.0
 11
1329.5
 21
1695.0
 31
0.0
  0
LINE
  5
426
100
AcDbEntity
  8
寸法
  6
CONTINUOUS
 62
     3
100
AcDbLine
 10
719.5
 20
1700.0
 30
0.0
 11
689.5
 21
1695.0
 31
0.0
  0
LINE
  5
427
100
AcDbEntity
  8
寸法
  6
CONTINUOUS
 62
     3
100
AcDbLine
 10
689.5
 20
1695.0
 30
0.0
 11
719.5
 21
1690.0
 31
0.0
  0
LINE
  5
428
100
AcDbEntity
  8
寸法
  6
CONTINUOUS
 62
     3
100
AcDbLine
 10
1299.5
 20
1690.0
 30
0.0
 11
1329.5
 21
1695.0
 31
0.0
  0
LINE
  5
429
100
AcDbEntity
  8
寸法
  6
CONTINUOUS
 62
     3
100
AcDbLine
 10
1329.5
 20
1695.0
 30
0.0
 11
1299.5
 21
1700.0
 31
0.0
  0
TEXT
  5
42A
100
AcDbEntity
  8
寸法
  6
CONTINUOUS
 62
     2
100
AcDbText
 10
967.5
 20
1698.5
 30
0.0
 40
40.0
  1
640
 41
0.84
  7
EXCADSTD
 72
     1
 11
1009.5
 21
1698.5
 31
0.0
100
AcDbText
  0
LINE
  5
42B
100
AcDbEntity
  8
寸法
  6
CONTINUOUS
 62
     3
100
AcDbLine
 10
689.5
 20
1836.488263
 30
0.0
 11
689.5
 21
1685.0
 31
0.0
  0
LINE
  5
42C
100
AcDbEntity
  8
寸法
  6
CONTINUOUS
 62
     3
100
AcDbLine
 10
1329.5
 20
1836.488263
 30
0.0
 11
1329.5
 21
1685.0
 31
0.0
  0
ENDBLK
  5
42D
100
AcDbEntity
  8
0
100
AcDbBlockEnd
  0
BLOCK
  5
431
100
AcDbEntity
  8
0
100
AcDbBlockBegin
  2
*D21
 70
    65
 10
0.0
 20
0.0
 30
0.0
  3
*D21
  1

  0
LINE
  5
432
100
AcDbEntity
  8
寸法
  6
CONTINUOUS
 62
     3
100
AcDbLine
 10
707.0
 20
1333.998679
 30
0.0
 11
638.0
 21
1333.998679
 31
0.0
  0
LINE
  5
433
100
AcDbEntity
  8
寸法
  6
CONTINUOUS
 62
     3
100
AcDbLine
 10
648.0
 20
1489.0
 30
0.0
 11
648.0
 21
1333.998679
 31
0.0
  0
LINE
  5
434
100
AcDbEntity
  8
寸法
  6
CONTINUOUS
 62
     3
100
AcDbLine
 10
653.0
 20
1459.0
 30
0.0
 11
648.0
 21
1489.0
 31
0.0
  0
LINE
  5
435
100
AcDbEntity
  8
寸法
  6
CONTINUOUS
 62
     3
100
AcDbLine
 10
648.0
 20
1489.0
 30
0.0
 11
643.0
 21
1459.0
 31
0.0
  0
LINE
  5
436
100
AcDbEntity
  8
寸法
  6
CONTINUOUS
 62
     3
100
AcDbLine
 10
643.0
 20
1363.998679
 30
0.0
 11
648.0
 21
1333.998679
 31
0.0
  0
LINE
  5
437
100
AcDbEntity
  8
寸法
  6
CONTINUOUS
 62
     3
100
AcDbLine
 10
648.0
 20
1333.998679
 30
0.0
 11
653.0
 21
1363.998679
 31
0.0
  0
TEXT
  5
438
100
AcDbEntity
  8
寸法
  6
CONTINUOUS
 62
     2
100
AcDbText
 10
644.5
 20
1369.499339
 30
0.0
 40
40.0
  1
159
 50
90.0
 41
0.84
  7
EXCADSTD
 72
     1
 11
644.5
 21
1411.499339
 31
0.0
100
AcDbText
  0
ENDBLK
  5
439
100
AcDbEntity
  8
0
100
AcDbBlockEnd
  0
BLOCK
  5
43D
100
AcDbEntity
  8
0
100
AcDbBlockBegin
  2
*D22
 70
    65
 10
0.0
 20
0.0
 30
0.0
  3
*D22
  1

  0
LINE
  5
43E
100
AcDbEntity
  8
寸法
  6
CONTINUOUS
 62
     3
100
AcDbLine
 10
791.2
 20
968.0
 30
0.0
 11
791.2
 21
913.4
 31
0.0
  0
LINE
  5
43F
100
AcDbEntity
  8
寸法
  6
CONTINUOUS
 62
     3
100
AcDbLine
 10
833.8
 20
968.0
 30
0.0
 11
833.8
 21
913.4
 31
0.0
  0
LINE
  5
440
100
AcDbEntity
  8
寸法
  6
CONTINUOUS
 62
     3
100
AcDbLine
 10
761.2
 20
923.4
 30
0.0
 11
1007.300004
 21
923.4
 31
0.0
  0
LINE
  5
441
100
AcDbEntity
  8
寸法
  6
CONTINUOUS
 62
     3
100
AcDbLine
 10
761.2
 20
918.4
 30
0.0
 11
791.2
 21
923.4
 31
0.0
  0
LINE
  5
442
100
AcDbEntity
  8
寸法
  6
CONTINUOUS
 62
     3
100
AcDbLine
 10
791.2
 20
923.4
 30
0.0
 11
761.2
 21
928.4
 31
0.0
  0
LINE
  5
443
100
AcDbEntity
  8
寸法
  6
CONTINUOUS
 62
     3
100
AcDbLine
 10
863.8
 20
928.4
 30
0.0
 11
833.8
 21
923.4
 31
0.0
  0
LINE
  5
444
100
AcDbEntity
  8
寸法
  6
CONTINUOUS
 62
     3
100
AcDbLine
 10
833.8
 20
923.4
 30
0.0
 11
863.8
 21
918.4
 31
0.0
  0
TEXT
  5
445
100
AcDbEntity
  8
寸法
  6
CONTINUOUS
 62
     2
100
AcDbText
 10
875.0
 20
926.9
 30
0.0
 40
40.0
  1
%%c42.6
 41
0.84
  7
EXCADSTD
 72
     1
 11
933.8
 21
926.9
 31
0.0
100
AcDbText
  0
ENDBLK
  5
446
100
AcDbEntity
  8
0
100
AcDbBlockEnd
  0
BLOCK
  5
449
100
AcDbEntity
  8
0
100
AcDbBlockBegin
  2
*D23
 70
    65
 10
0.0
 20
0.0
 30
0.0
  3
*D23
  1

  0
LINE
  5
44A
100
AcDbEntity
  8
寸法
  6
CONTINUOUS
 62
     3
100
AcDbLine
 10
1292.156865
 20
2446.488263
 30
0.0
 11
1433.0
 21
2446.488263
 31
0.0
  0
LINE
  5
44B
100
AcDbEntity
  8
寸法
  6
CONTINUOUS
 62
     3
100
AcDbLine
 10
1292.156865
 20
1856.488263
 30
0.0
 11
1433.0
 21
1856.488263
 31
0.0
  0
LINE
  5
44C
100
AcDbEntity
  8
寸法
  6
CONTINUOUS
 62
     3
100
AcDbLine
 10
1423.0
 20
2446.488263
 30
0.0
 11
1423.0
 21
1856.488263
 31
0.0
  0
LINE
  5
44D
100
AcDbEntity
  8
寸法
  6
CONTINUOUS
 62
     3
100
AcDbLine
 10
1428.0
 20
2416.488263
 30
0.0
 11
1423.0
 21
2446.488263
 31
0.0
  0
LINE
  5
44E
100
AcDbEntity
  8
寸法
  6
CONTINUOUS
 62
     3
100
AcDbLine
 10
1423.0
 20
2446.488263
 30
0.0
 11
1418.0
 21
2416.488263
 31
0.0
  0
LINE
  5
44F
100
AcDbEntity
  8
寸法
  6
CONTINUOUS
 62
     3
100
AcDbLine
 10
1418.0
 20
1886.488263
 30
0.0
 11
1423.0
 21
1856.488263
 31
0.0
  0
LINE
  5
450
100
AcDbEntity
  8
寸法
  6
CONTINUOUS
 62
     3
100
AcDbLine
 10
1423.0
 20
1856.488263
 30
0.0
 11
1428.0
 21
1886.488263
 31
0.0
  0
TEXT
  5
451
100
AcDbEntity
  8
寸法
  6
CONTINUOUS
 62
     2
100
AcDbText
 10
1419.5
 20
2059.088263
 30
0.0
 40
40.0
  1
590（内寸）
 50
90.0
 41
0.84
  7
EXCADSTD
 72
     1
 11
1419.5
 21
2151.488263
 31
0.0
100
AcDbText
  0
ENDBLK
  5
452
100
AcDbEntity
  8
0
100
AcDbBlockEnd
  0
BLOCK
  5
455
100
AcDbEntity
  8
0
100
AcDbBlockBegin
  2
*D24
 70
    65
 10
0.0
 20
0.0
 30
0.0
  3
*D24
  1

  0
LINE
  5
456
100
AcDbEntity
  8
寸法
  6
CONTINUOUS
 62
     3
100
AcDbLine
 10
1304.5
 20
1754.0
 30
0.0
 11
714.5
 21
1754.0
 31
0.0
  0
LINE
  5
457
100
AcDbEntity
  8
寸法
  6
CONTINUOUS
 62
     3
100
AcDbLine
 10
1274.5
 20
1749.0
 30
0.0
 11
1304.5
 21
1754.0
 31
0.0
  0
LINE
  5
458
100
AcDbEntity
  8
寸法
  6
CONTINUOUS
 62
     3
100
AcDbLine
 10
1304.5
 20
1754.0
 30
0.0
 11
1274.5
 21
1759.0
 31
0.0
  0
LINE
  5
459
100
AcDbEntity
  8
寸法
  6
CONTINUOUS
 62
     3
100
AcDbLine
 10
744.5
 20
1759.0
 30
0.0
 11
714.5
 21
1754.0
 31
0.0
  0
LINE
  5
45A
100
AcDbEntity
  8
寸法
  6
CONTINUOUS
 62
     3
100
AcDbLine
 10
714.5
 20
1754.0
 30
0.0
 11
744.5
 21
1749.0
 31
0.0
  0
TEXT
  5
45B
100
AcDbEntity
  8
寸法
  6
CONTINUOUS
 62
     2
100
AcDbText
 10
917.1
 20
1757.5
 30
0.0
 40
40.0
  1
590（内寸）
 41
0.84
  7
EXCADSTD
 72
     1
 11
1009.5
 21
1757.5
 31
0.0
100
AcDbText
  0
LINE
  5
45C
100
AcDbEntity
  8
寸法
  6
CONTINUOUS
 62
     3
100
AcDbLine
 10
1304.5
 20
1868.831398
 30
0.0
 11
1304.5
 21
1744.0
 31
0.0
  0
LINE
  5
45D
100
AcDbEntity
  8
寸法
  6
CONTINUOUS
 62
     3
100
AcDbLine
 10
714.5
 20
1868.831398
 30
0.0
 11
714.5
 21
1744.0
 31
0.0
  0
ENDBLK
  5
45E
100
AcDbEntity
  8
0
100
AcDbBlockEnd
  0
ENDSEC
  0
SECTION
  2
ENTITIES
  0
TEXT
  5
88
100
AcDbEntity
  8
枠
  6
CONTINUOUS
 62
     2
100
AcDbText
 10
201.5
 20
287.5
 30
0.0
 40
45.0
  1
製図
 41
1.026667
  7
EXCADSTD
 72
     5
 11
302.326
 21
287.5
 31
0.0
100
AcDbText
  0
TEXT
  5
89
100
AcDbEntity
  8
枠
  6
CONTINUOUS
 62
     2
100
AcDbText
 10
356.5
 20
287.5
 30
0.0
 40
45.0
  1
写図
 41
1.026667
  7
EXCADSTD
 72
     5
 11
457.326
 21
287.5
 31
0.0
100
AcDbText
  0
TEXT
  5
8A
100
AcDbEntity
  8
枠
  6
CONTINUOUS
 62
     2
100
AcDbText
 10
504.0
 20
287.5
 30
0.0
 40
45.0
  1
検図
 41
0.933333
  7
EXCADSTD
 72
     5
 11
595.66
 21
287.5
 31
0.0
100
AcDbText
  0
TEXT
  5
8B
100
AcDbEntity
  8
枠
  6
CONTINUOUS
 62
     2
100
AcDbText
 10
634.0
 20
287.5
 30
0.0
 40
45.0
  1
承認
 41
0.933333
  7
EXCADSTD
 72
     5
 11
725.66
 21
287.5
 31
0.0
100
AcDbText
  0
TEXT
  5
8C
100
AcDbEntity
  8
枠
  6
CONTINUOUS
 62
     2
100
AcDbText
 10
774.0
 20
325.0
 30
0.0
 40
45.0
  1
品名
  7
EXCADVERT
 72
     3
 11
774.0
 21
225.0
 31
0.0
100
AcDbText
  0
TEXT
  5
8D
100
AcDbEntity
  8
枠
  6
CONTINUOUS
 62
     2
100
AcDbText
 10
1414.0
 20
325.0
 30
0.0
 40
45.0
  1
品番
  7
EXCADVERT
 72
     3
 11
1414.0
 21
225.0
 31
0.0
100
AcDbText
  0
TEXT
  5
8E
100
AcDbEntity
  8
枠
  6
CONTINUOUS
 62
     2
100
AcDbText
 10
1834.0
 20
325.0
 30
0.0
 40
45.0
  1
尺度
  7
EXCADVERT
 72
     3
 11
1834.0
 21
225.0
 31
0.0
100
AcDbText
  0
TEXT
  5
8F
100
AcDbEntity
  8
枠
  6
CONTINUOUS
 62
     2
100
AcDbText
 10
1414.0
 20
210.0
 30
0.0
 40
45.0
  1
図番
  7
EXCADVERT
 72
     3
 11
1414.0
 21
120.0
 31
0.0
100
AcDbText
  0
TEXT
  5
90
100
AcDbEntity
  8
枠
  6
CONTINUOUS
 62
     2
100
AcDbText
 10
1896.0
 20
316.5
 30
0.0
 40
35.0
  1
１
 41
0.785714
  7
EXCADVERT
 72
     3
 11
1896.0
 21
281.5
 31
0.0
100
AcDbText
  0
LINE
  5
91
100
AcDbEntity
  8
枠
  6
CONTINUOUS
 62
     7
100
AcDbLine
 10
179.0
 20
115.0
 30
0.0
 11
1999.0
 21
115.0
 31
0.0
  0
LINE
  5
92
100
AcDbEntity
  8
枠
  6
CONTINUOUS
 62
     7
100
AcDbLine
 10
179.0
 20
115.0
 30
0.0
 11
179.0
 21
2915.0
 31
0.0
  0
LINE
  5
93
100
AcDbEntity
  8
枠
  6
CONTINUOUS
 62
     7
100
AcDbLine
 10
179.0
 20
2915.0
 30
0.0
 11
1999.0
 21
2915.0
 31
0.0
  0
LINE
  5
94
100
AcDbEntity
  8
枠
  6
CONTINUOUS
 62
     7
100
AcDbLine
 10
179.0
 20
335.0
 30
0.0
 11
1999.0
 21
335.0
 31
0.0
  0
LINE
  5
95
100
AcDbEntity
  8
枠
  6
CONTINUOUS
 62
     6
100
AcDbLine
 10
1859.0
 20
335.0
 30
0.0
 11
1859.0
 21
215.0
 31
0.0
  0
LINE
  5
96
100
AcDbEntity
  8
枠
  6
CONTINUOUS
 62
     6
100
AcDbLine
 10
1809.0
 20
335.0
 30
0.0
 11
1809.0
 21
215.0
 31
0.0
  0
LINE
  5
97
100
AcDbEntity
  8
枠
  6
CONTINUOUS
 62
     6
100
AcDbLine
 10
1439.0
 20
335.0
 30
0.0
 11
1439.0
 21
115.0
 31
0.0
  0
LINE
  5
98
100
AcDbEntity
  8
枠
  6
CONTINUOUS
 62
     6
100
AcDbLine
 10
1389.0
 20
335.0
 30
0.0
 11
1389.0
 21
115.0
 31
0.0
  0
LINE
  5
99
100
AcDbEntity
  8
枠
  6
CONTINUOUS
 62
     6
100
AcDbLine
 10
799.0
 20
335.0
 30
0.0
 11
799.0
 21
215.0
 31
0.0
  0
LINE
  5
9A
100
AcDbEntity
  8
枠
  6
CONTINUOUS
 62
     6
100
AcDbLine
 10
749.0
 20
335.0
 30
0.0
 11
749.0
 21
115.0
 31
0.0
  0
LINE
  5
9B
100
AcDbEntity
  8
枠
  6
CONTINUOUS
 62
     6
100
AcDbLine
 10
619.0
 20
335.0
 30
0.0
 11
619.0
 21
115.0
 31
0.0
  0
LINE
  5
9C
100
AcDbEntity
  8
枠
  6
CONTINUOUS
 62
     6
100
AcDbLine
 10
489.0
 20
335.0
 30
0.0
 11
489.0
 21
115.0
 31
0.0
  0
LINE
  5
9D
100
AcDbEntity
  8
枠
  6
CONTINUOUS
 62
     6
100
AcDbLine
 10
334.0
 20
335.0
 30
0.0
 11
334.0
 21
115.0
 31
0.0
  0
LINE
  5
9E
100
AcDbEntity
  8
枠
  6
CONTINUOUS
 62
     6
100
AcDbLine
 10
179.0
 20
285.0
 30
0.0
 11
749.0
 21
285.0
 31
0.0
  0
LINE
  5
9F
100
AcDbEntity
  8
枠
  6
CONTINUOUS
 62
     6
100
AcDbLine
 10
1891.654114
 20
238.00293
 30
0.0
 11
1968.993896
 21
316.699829
 31
0.0
  0
LINE
  5
A0
100
AcDbEntity
  8
枠
  6
EXLTYPE2
 62
     6
100
AcDbLine
 10
179.0
 20
165.0
 30
0.0
 11
489.0
 21
165.0
 31
0.0
  0
CIRCLE
  5
A1
100
AcDbEntity
  8
枠
  6
CONTINUOUS
 62
     6
100
AcDbCircle
 10
229.0
 20
140.0
 30
0.0
 40
1.0
  0
CIRCLE
  5
A2
100
AcDbEntity
  8
枠
  6
CONTINUOUS
 62
     6
100
AcDbCircle
 10
279.0
 20
140.0
 30
0.0
 40
1.0
  0
CIRCLE
  5
A3
100
AcDbEntity
  8
枠
  6
CONTINUOUS
 62
     6
100
AcDbCircle
 10
384.0
 20
140.0
 30
0.0
 40
1.0
  0
CIRCLE
  5
A4
100
AcDbEntity
  8
枠
  6
CONTINUOUS
 62
     6
100
AcDbCircle
 10
434.0
 20
140.0
 30
0.0
 40
1.0
  0
LINE
  5
A5
100
AcDbEntity
  8
枠
  6
CONTINUOUS
 62
     6
100
AcDbLine
 10
1999.0
 20
215.0
 30
0.0
 11
749.0
 21
215.0
 31
0.0
  0
TEXT
  5
A6
100
AcDbEntity
  8
枠
  6
CONTINUOUS
 62
     2
100
AcDbText
 10
882.000003
 20
217.5
 30
0.0
 40
65.0
  1
洗濯機用防水パン
 41
0.684923
  7
EXCADSTD
 72
     5
 11
1305.999997
 21
217.5
 31
0.0
100
AcDbText
  0
TEXT
  5
A7
100
AcDbEntity
  8
枠
  6
CONTINUOUS
 62
     2
100
AcDbText
 10
1938.5
 20
235.5
 30
0.0
 40
35.0
  1
１０
 41
0.564
  7
EXCADSTD
 72
     5
 11
1981.5802
 21
235.5
 31
0.0
100
AcDbText
  0
TEXT
  5
A8
100
AcDbEntity
  8
枠
  6
CONTINUOUS
 62
     2
100
AcDbText
 10
807.0
 20
281.5
 30
0.0
 40
50.0
  1
６４０×６４０
 41
0.684
  7
EXCADSTD
 72
     5
 11
1092.0
 21
281.5
 31
0.0
100
AcDbText
  0
LINE
  5
A9
100
AcDbEntity
  8
枠
  6
CONTINUOUS
 62
     7
100
AcDbLine
 10
1999.0
 20
115.0
 30
0.0
 11
1999.0
 21
2915.0
 31
0.0
  0
TEXT
  5
AA
100
AcDbEntity
  8
枠
  6
CONTINUOUS
 62
     2
100
AcDbText
 10
1840.0
 20
2760.5
 30
0.0
 40
40.0
  1
個数
 41
0.861
  7
EXCADSTD
 72
     5
 11
1915.1612
 21
2760.5
 31
0.0
100
AcDbText
  0
TEXT
  5
AB
100
AcDbEntity
  8
枠
  6
CONTINUOUS
 62
     2
100
AcDbText
 10
1858.5
 20
2705.5
 30
0.0
 40
40.0
  1
１
 41
0.945
  7
EXCADSTD
 72
     5
 11
1894.5
 21
2705.5
 31
0.0
100
AcDbText
  0
TEXT
  5
AC
100
AcDbEntity
  8
枠
  6
CONTINUOUS
 62
     2
100
AcDbText
 10
1858.5
 20
2650.5
 30
0.0
 40
40.0
  1
１
 41
0.945
  7
EXCADSTD
 72
     5
 11
1894.5
 21
2650.5
 31
0.0
100
AcDbText
  0
TEXT
  5
AD
100
AcDbEntity
  8
枠
  6
CONTINUOUS
 62
     2
100
AcDbText
 10
1331.0
 20
2818.0
 30
0.0
 40
50.0
  1
器具明細
 41
0.924
  7
EXCADSTD
 72
     5
 11
1551.0
 21
2818.0
 31
0.0
100
AcDbText
  0
LINE
  5
AE
100
AcDbEntity
  8
枠
  6
CONTINUOUS
 62
     6
100
AcDbLine
 10
1331.0
 20
2808.0
 30
0.0
 11
1931.0
 21
2808.0
 31
0.0
  0
LINE
  5
AF
100
AcDbEntity
  8
枠
  6
CONTINUOUS
 62
     6
100
AcDbLine
 10
1331.0
 20
2753.0
 30
0.0
 11
1931.0
 21
2753.0
 31
0.0
  0
LINE
  5
B0
100
AcDbEntity
  8
枠
  6
CONTINUOUS
 62
     6
100
AcDbLine
 10
1331.0
 20
2698.0
 30
0.0
 11
1931.0
 21
2698.0
 31
0.0
  0
TEXT
  5
B1
100
AcDbEntity
  8
枠
  6
CONTINUOUS
 62
     2
100
AcDbText
 10
1486.0
 20
2760.5
 30
0.0
 40
40.0
  1
品名
 41
1.995
  7
EXCADSTD
 72
     5
 11
1660.154
 21
2760.5
 31
0.0
100
AcDbText
  0
TEXT
  5
B2
100
AcDbEntity
  8
枠
  6
CONTINUOUS
 62
     2
100
AcDbText
 10
1341.0
 20
2705.5
 30
0.0
 40
40.0
  1
防水パン（ＰＰ製）
 41
0.795667
  7
EXCADSTD
 72
     5
 11
1681.999999
 21
2705.5
 31
0.0
100
AcDbText
  0
TEXT
  5
B3
100
AcDbEntity
  8
枠
  6
CONTINUOUS
 62
     2
100
AcDbText
 10
206.5
 20
200.0
 30
0.0
 40
50.0
  1
間瀬
 41
0.882
  7
EXCADSTD
 72
     5
 11
302.743
 21
200.0
 31
0.0
100
AcDbText
  0
TEXT
  5
B4
100
AcDbEntity
  8
枠
  6
CONTINUOUS
 62
     2
100
AcDbText
 10
502.5
 20
200.0
 30
0.0
 40
50.0
  1
中村
 41
0.882
  7
EXCADSTD
 72
     5
 11
598.743
 21
200.0
 31
0.0
100
AcDbText
  0
TEXT
  5
B5
100
AcDbEntity
  8
枠
  6
CONTINUOUS
 62
     2
100
AcDbText
 10
632.5
 20
200.0
 30
0.0
 40
50.0
  1
古林
 41
0.882
  7
EXCADSTD
 72
     5
 11
728.743
 21
200.0
 31
0.0
100
AcDbText
  0
TEXT
  5
B6
100
AcDbEntity
  8
枠
  6
CONTINUOUS
 62
     6
100
AcDbText
 10
243.8
 20
126.5
 30
0.0
 40
25.0
  1
９
 41
0.84
  7
EXCADSTD
 72
     5
 11
263.8
 21
126.5
 31
0.0
100
AcDbText
  0
TEXT
  5
B8
100
AcDbEntity
  8
枠
  6
CONTINUOUS
 62
     2
100
AcDbText
 10
769.0
 20
135.0
 30
0.0
 40
45.0
  1
ジャニス工業株式会社
  7
EXCADTTF1
 72
     5
 11
1369.0
 21
135.0
 31
0.0
100
AcDbText
  0
LINE
  5
B9
100
AcDbEntity
  8
枠
  6
EXLTYPE2
 62
     6
100
AcDbLine
 10
-71.0
 20
1515.0
 30
0.0
 11
179.0
 21
1515.0
 31
0.0
  0
TEXT
  5
BA
100
AcDbEntity
  8
枠
  6
CONTINUOUS
 62
     2
100
AcDbText
 10
1341.0
 20
2650.5
 30
0.0
 40
40.0
  1
縦形トラップ（樹脂製）
 41
0.792273
  7
EXCADSTD
 72
     5
 11
1755.999999
 21
2650.5
 31
0.0
100
AcDbText
  0
TEXT
  5
BB
100
AcDbEntity
  8
枠
  6
CONTINUOUS
 62
     6
100
AcDbText
 10
183.5
 20
126.5
 30
0.0
 40
25.0
  1
２１
 41
0.756
  7
EXCADSTD
 72
     5
 11
224.747
 21
126.5
 31
0.0
100
AcDbText
  0
TEXT
  5
BC
100
AcDbEntity
  8
枠
  6
CONTINUOUS
 62
     6
100
AcDbText
 10
296.5
 20
126.5
 30
0.0
 40
25.0
  1
３
 41
0.84
  7
EXCADSTD
 72
     5
 11
316.5
 21
126.5
 31
0.0
100
AcDbText
  0
TEXT
  5
BD
100
AcDbEntity
  8
枠
  6
CONTINUOUS
 62
     7
100
AcDbText
 10
1451.000002
 20
131.5
 30
0.0
 40
70.0
  1
Ｐ０１０１９９０
 41
0.804
  7
EXCADSTD
 72
     5
 11
1986.999998
 21
131.5
 31
0.0
100
AcDbText
  0
TEXT
  5
BE
100
AcDbEntity
  8
枠
  6
CONTINUOUS
 62
     2
100
AcDbText
 10
1858.5
 20
2595.5
 30
0.0
 40
40.0
  1
１
 41
0.945
  7
EXCADSTD
 72
     5
 11
1894.5
 21
2595.5
 31
0.0
100
AcDbText
  0
LINE
  5
BF
100
AcDbEntity
  8
枠
  6
CONTINUOUS
 62
     6
100
AcDbLine
 10
1331.0
 20
2588.0
 30
0.0
 11
1931.0
 21
2588.0
 31
0.0
  0
TEXT
  5
C0
100
AcDbEntity
  8
枠
  6
CONTINUOUS
 62
     2
100
AcDbText
 10
1341.0
 20
2595.5
 30
0.0
 40
40.0
  1
トラップ接続ホース
 41
0.795667
  7
EXCADSTD
 72
     5
 11
1681.999999
 21
2595.5
 31
0.0
100
AcDbText
  0
LINE
  5
C1
100
AcDbEntity
  8
枠
  6
CONTINUOUS
 62
     6
100
AcDbLine
 10
1831.0
 20
2588.0
 30
0.0
 11
1831.0
 21
2808.0
 31
0.0
  0
LINE
  5
C2
100
AcDbEntity
  8
枠
  6
CONTINUOUS
 62
     6
100
AcDbLine
 10
1931.0
 20
2588.0
 30
0.0
 11
1931.0
 21
2808.0
 31
0.0
  0
LINE
  5
C3
100
AcDbEntity
  8
枠
  6
CONTINUOUS
 62
     6
100
AcDbLine
 10
1331.0
 20
2588.0
 30
0.0
 11
1331.0
 21
2808.0
 31
0.0
  0
LINE
  5
C4
100
AcDbEntity
  8
枠
  6
CONTINUOUS
 62
     6
100
AcDbLine
 10
1331.0
 20
2643.0
 30
0.0
 11
1931.0
 21
2643.0
 31
0.0
  0
TEXT
  5
C5
100
AcDbEntity
  8
枠
  6
CONTINUOUS
 62
     2
100
AcDbText
 10
1455.0
 20
291.5
 30
0.0
 40
33.0
  1
ＳＰ６４０１Ｇ
 41
0.970909
  7
EXCADSTD
 72
     5
 11
1721.999999
 21
291.5
 31
0.0
100
AcDbText
  0
TEXT
  5
C6
100
AcDbEntity
  8
枠
  6
CONTINUOUS
 62
     2
100
AcDbText
 10
1455.0
 20
258.5
 30
0.0
 40
33.0
  1
ＳＰ２－Ｍ
 41
0.982545
  7
EXCADSTD
 72
     5
 11
1648.0
 21
258.5
 31
0.0
100
AcDbText
  0
TEXT
  5
C7
100
AcDbEntity
  8
枠
  6
CONTINUOUS
 62
     2
100
AcDbText
 10
1455.0
 20
225.5
 30
0.0
 40
33.0
  1
ＭＥＳＰＢＰＨ－６
 41
0.964444
  7
EXCADSTD
 72
     5
 11
1795.999999
 21
225.5
 31
0.0
100
AcDbText
  0
ARC
  5
C8
100
AcDbEntity
  8
本体
  6
CONTINUOUS
 62
     6
100
AcDbCircle
 10
1510.4
 20
824.445172
 30
0.0
 40
42.556707
100
AcDbArc
 50
41.241478
 51
138.758522
  0
LINE
  5
C9
100
AcDbEntity
  8
本体
  6
CONTINUOUS
 62
     2
100
AcDbLine
 10
690.461552
 20
1544.087262
 30
0.0
 11
689.5
 21
1489.0
 31
0.0
  0
ARC
  5
CA
100
AcDbEntity
  8
本体
  6
CONTINUOUS
 62
     2
100
AcDbCircle
 10
695.46079
 20
1544.0
 30
0.0
 40
5.0
100
AcDbArc
 50
90.0
 51
179.0
  0
LINE
  5
CB
100
AcDbEntity
  8
本体
  6
CONTINUOUS
 62
     2
100
AcDbLine
 10
695.46079
 20
1549.0
 30
0.0
 11
1323.53921
 21
1549.0
 31
0.0
  0
ARC
  5
CC
100
AcDbEntity
  8
本体
  6
CONTINUOUS
 62
     2
100
AcDbCircle
 10
1323.53921
 20
1544.0
 30
0.0
 40
5.0
100
AcDbArc
 50
1.0
 51
90.0
  0
LINE
  5
CD
100
AcDbEntity
  8
本体
  6
CONTINUOUS
 62
     2
100
AcDbLine
 10
1328.538448
 20
1544.087262
 30
0.0
 11
1329.5
 21
1489.0
 31
0.0
  0
ARC
  5
CE
100
AcDbEntity
  8
本体
  6
CONTINUOUS
 62
     2
100
AcDbCircle
 10
742.0
 20
1489.0
 30
0.0
 40
5.0
100
AcDbArc
 50
180.0
 51
270.0
  0
ARC
  5
CF
100
AcDbEntity
  8
本体
  6
CONTINUOUS
 62
     2
100
AcDbCircle
 10
883.0
 20
1489.0
 30
0.0
 40
5.0
100
AcDbArc
 50
270.0
 51
0.0
  0
LINE
  5
D0
100
AcDbEntity
  8
本体
  6
EXLTYPE7
 62
     6
100
AcDbLine
 10
1339.2
 20
2151.488263
 30
0.0
 11
675.6
 21
2151.488263
 31
0.0
  0
LINE
  5
D1
100
AcDbEntity
  8
本体
  6
CONTINUOUS
 62
     2
100
AcDbLine
 10
689.5
 20
1841.488263
 30
0.0
 11
689.5
 21
2461.488263
 31
0.0
  0
LINE
  5
D2
100
AcDbEntity
  8
本体
  6
CONTINUOUS
 62
     2
100
AcDbLine
 10
1329.5
 20
1841.488263
 30
0.0
 11
1329.5
 21
2461.488263
 31
0.0
  0
LINE
  5
D3
100
AcDbEntity
  8
本体
  6
CONTINUOUS
 62
     2
100
AcDbLine
 10
1319.5
 20
2471.488263
 30
0.0
 11
699.5
 21
2471.488263
 31
0.0
  0
LINE
  5
D4
100
AcDbEntity
  8
本体
  6
CONTINUOUS
 62
     2
100
AcDbLine
 10
1319.5
 20
1831.488263
 30
0.0
 11
699.5
 21
1831.488263
 31
0.0
  0
ARC
  5
D5
100
AcDbEntity
  8
本体
  6
CONTINUOUS
 62
     2
100
AcDbCircle
 10
1319.5
 20
2461.488263
 30
0.0
 40
10.0
100
AcDbArc
 50
0.0
 51
90.0
  0
ARC
  5
D6
100
AcDbEntity
  8
本体
  6
CONTINUOUS
 62
     2
100
AcDbCircle
 10
699.5
 20
1841.488263
 30
0.0
 40
10.0
100
AcDbArc
 50
180.0
 51
270.0
  0
ARC
  5
D7
100
AcDbEntity
  8
本体
  6
CONTINUOUS
 62
     2
100
AcDbCircle
 10
1319.5
 20
1841.488263
 30
0.0
 40
10.0
100
AcDbArc
 50
270.0
 51
0.0
  0
ARC
  5
D8
100
AcDbEntity
  8
本体
  6
CONTINUOUS
 62
     2
100
AcDbCircle
 10
699.5
 20
2461.488263
 30
0.0
 40
10.0
100
AcDbArc
 50
90.0
 51
180.0
  0
CIRCLE
  5
D9
100
AcDbEntity
  8
本体
  6
CONTINUOUS
 62
     6
100
AcDbCircle
 10
812.5
 20
2151.488263
 30
0.0
 40
72.0
  0
ARC
  5
DA
100
AcDbEntity
  8
本体
  6
CONTINUOUS
 62
     6
100
AcDbCircle
 10
883.13193
 20
2129.417231
 30
0.0
 40
2.0
100
AcDbArc
 50
87.310982
 51
162.647044
  0
ARC
  5
DB
100
AcDbEntity
  8
本体
  6
CONTINUOUS
 62
     6
100
AcDbCircle
 10
883.13193
 20
2173.559296
 30
0.0
 40
2.0
100
AcDbArc
 50
197.352956
 51
272.689018
  0
CIRCLE
  5
DC
100
AcDbEntity
  8
本体
  6
CONTINUOUS
 62
     6
100
AcDbCircle
 10
812.5
 20
2151.488263
 30
0.0
 40
71.000003
  0
ELLIPSE
  5
DD
100
AcDbEntity
  8
本体
  6
CONTINUOUS
 62
     6
100
AcDbEllipse
 10
860.634936
 20
2151.488263
 30
0.0
 11
0.0000000000000137
 21
-19.499999999999993
 31
0.0
210
0.0
220
0.0
230
1.0
 40
0.258819
 41
0.0
 42
6.2831853071796004
  0
LINE
  5
DE
100
AcDbEntity
  8
本体
  6
CONTINUOUS
 62
     6
100
AcDbLine
 10
825.413214
 20
2154.488263
 30
0.0
 11
825.413214
 21
2148.488263
 31
0.0
  0
LINE
  5
DF
100
AcDbEntity
  8
本体
  6
CONTINUOUS
 62
     6
100
AcDbLine
 10
825.413214
 20
2154.488263
 30
0.0
 11
843.091014
 21
2154.488263
 31
0.0
  0
LINE
  5
E0
100
AcDbEntity
  8
本体
  6
CONTINUOUS
 62
     6
100
AcDbLine
 10
825.413214
 20
2148.488263
 30
0.0
 11
843.091014
 21
2148.488263
 31
0.0
  0
ELLIPSE
  5
E1
100
AcDbEntity
  8
本体
  6
CONTINUOUS
 62
     6
100
AcDbEllipse
 10
845.180123
 20
2151.488263
 30
0.0
 11
0.0000000000000137
 21
-19.499999999999993
 31
0.0
210
0.0
220
0.0
230
1.0
 40
0.258819
 41
3.1415926535897931
 42
4.5579293819006477
  0
LINE
  5
E2
100
AcDbEntity
  8
本体
  6
CONTINUOUS
 62
     6
100
AcDbLine
 10
857.737158
 20
2170.988263
 30
0.0
 11
860.634936
 21
2170.988263
 31
0.0
  0
ELLIPSE
  5
E3
100
AcDbEntity
  8
本体
  6
CONTINUOUS
 62
     6
100
AcDbEllipse
 10
857.737158
 20
2151.488263
 30
0.0
 11
0.0000000000000137
 21
-19.499999999999993
 31
0.0
210
0.0
220
0.0
230
1.0
 40
0.258819
 41
3.1415926535897931
 42
0.0
  0
LINE
  5
E4
100
AcDbEntity
  8
本体
  6
CONTINUOUS
 62
     6
100
AcDbLine
 10
849.407529
 20
2171.136203
 30
0.0
 11
856.407529
 21
2171.136203
 31
0.0
  0
ELLIPSE
  5
E5
100
AcDbEntity
  8
本体
  6
CONTINUOUS
 62
     6
100
AcDbEllipse
 10
860.634936
 20
2151.488263
 30
0.0
 11
0.0000000000000116
 21
-16.500000000000004
 31
0.0
210
0.0
220
0.0
230
1.0
 40
0.258819
 41
0.0
 42
6.2831853071796004
  0
LINE
  5
E6
100
AcDbEntity
  8
本体
  6
CONTINUOUS
 62
     6
100
AcDbLine
 10
845.180123
 20
2170.988263
 30
0.0
 11
848.0779
 21
2170.988263
 31
0.0
  0
LINE
  5
E7
100
AcDbEntity
  8
本体
  6
CONTINUOUS
 62
     6
100
AcDbLine
 10
847.69479
 20
2169.988263
 30
0.0
 11
846.482432
 21
2169.988263
 31
0.0
  0
LINE
  5
E8
100
AcDbEntity
  8
本体
  6
CONTINUOUS
 62
     6
100
AcDbLine
 10
835.030929
 20
2148.488263
 30
0.0
 11
835.030929
 21
2154.488263
 31
0.0
  0
LINE
  5
E9
100
AcDbEntity
  8
本体
  6
CONTINUOUS
 62
     6
100
AcDbLine
 10
856.141691
 20
2169.988263
 30
0.0
 11
855.44309
 21
2169.988263
 31
0.0
  0
LINE
  5
EA
100
AcDbEntity
  8
本体
  6
CONTINUOUS
 62
     6
100
AcDbLine
 10
857.737158
 20
2131.988263
 30
0.0
 11
860.634936
 21
2131.988263
 31
0.0
  0
LINE
  5
EB
100
AcDbEntity
  8
本体
  6
CONTINUOUS
 62
     6
100
AcDbLine
 10
847.69479
 20
2132.988263
 30
0.0
 11
846.482432
 21
2132.988263
 31
0.0
  0
LINE
  5
EC
100
AcDbEntity
  8
本体
  6
CONTINUOUS
 62
     6
100
AcDbLine
 10
856.141691
 20
2132.988263
 30
0.0
 11
855.44309
 21
2132.988263
 31
0.0
  0
ARC
  5
ED
100
AcDbEntity
  8
本体
  6
CONTINUOUS
 62
     6
100
AcDbCircle
 10
812.5
 20
2151.488263
 30
0.0
 40
17.0
100
AcDbArc
 50
120.139088
 51
239.860912
  0
ARC
  5
EE
100
AcDbEntity
  8
本体
  6
CONTINUOUS
 62
     6
100
AcDbCircle
 10
812.5
 20
2151.488263
 30
0.0
 40
19.0
100
AcDbArc
 50
84.715267
 51
275.284733
  0
ARC
  5
EF
100
AcDbEntity
  8
本体
  6
CONTINUOUS
 62
     6
100
AcDbCircle
 10
812.5
 20
2151.488263
 30
0.0
 40
19.5
100
AcDbArc
 50
76.997176
 51
283.342364
  0
ELLIPSE
  5
F0
100
AcDbEntity
  8
本体
  6
CONTINUOUS
 62
     6
100
AcDbEllipse
 10
849.407529
 20
2151.488263
 30
0.0
 11
0.0000000000000012
 21
19.647939461319989
 31
0.0
210
0.0
220
0.0
230
1.0
 40
0.258819
 41
0.0000000000000007
 42
3.1722900573009816
  0
LINE
  5
F1
100
AcDbEntity
  8
本体
  6
CONTINUOUS
 62
     6
100
AcDbLine
 10
849.407529
 20
2131.840324
 30
0.0
 11
856.407529
 21
2131.840324
 31
0.0
  0
LINE
  5
F2
100
AcDbEntity
  8
本体
  6
CONTINUOUS
 62
     6
100
AcDbLine
 10
845.180123
 20
2131.988263
 30
0.0
 11
848.784666
 21
2131.988263
 31
0.0
  0
ELLIPSE
  5
F3
100
AcDbEntity
  8
本体
  6
CONTINUOUS
 62
     6
100
AcDbEllipse
 10
848.0779
 20
2151.488263
 30
0.0
 11
0.0000000000000012
 21
19.499999999999993
 31
0.0
210
0.0
220
0.0
230
1.0
 40
0.258819
 41
6.1801842312692976
 42
3.1415926535897958
  0
ELLIPSE
  5
F4
100
AcDbEntity
  8
本体
  6
CONTINUOUS
 62
     6
100
AcDbEllipse
 10
845.180123
 20
2151.488263
 30
0.0
 11
0.0000000000000012
 21
19.499999999999993
 31
0.0
210
0.0
220
0.0
230
1.0
 40
0.258819
 41
1.7252559252789581
 42
3.1415926535897958
  0
LINE
  5
F5
100
AcDbEntity
  8
本体
  6
CONTINUOUS
 62
     6
100
AcDbLine
 10
857.737158
 20
2131.988263
 30
0.0
 11
860.634936
 21
2131.988263
 31
0.0
  0
ELLIPSE
  5
F6
100
AcDbEntity
  8
本体
  6
CONTINUOUS
 62
     6
100
AcDbEllipse
 10
856.407529
 20
2151.488263
 30
0.0
 11
0.0000000000000012
 21
19.647939461319989
 31
0.0
210
0.0
220
0.0
230
1.0
 40
0.258819
 41
6.1230797949452587
 42
3.2643850253334796
  0
LINE
  5
F7
100
AcDbEntity
  8
本体
  6
CONTINUOUS
 62
     6
100
AcDbLine
 10
816.0
 20
2170.488263
 30
0.0
 11
844.044559
 21
2170.488263
 31
0.0
  0
LINE
  5
F8
100
AcDbEntity
  8
本体
  6
CONTINUOUS
 62
     6
100
AcDbLine
 10
816.0
 20
2132.488263
 30
0.0
 11
844.044559
 21
2132.488263
 31
0.0
  0
ARC
  5
F9
100
AcDbEntity
  8
本体
  6
CONTINUOUS
 62
     6
100
AcDbCircle
 10
816.0
 20
2151.488263
 30
0.0
 40
19.0
100
AcDbArc
 50
90.0
 51
270.0
  0
LINE
  5
FA
100
AcDbEntity
  8
本体
  6
EXLTYPE3
 62
     6
100
AcDbLine
 10
812.5
 20
2074.0
 30
0.0
 11
812.5
 21
2236.0
 31
0.0
  0
LINE
  5
FB
100
AcDbEntity
  8
本体
  6
CONTINUOUS
 62
     2
100
AcDbLine
 10
742.0
 20
1484.0
 30
0.0
 11
883.0
 21
1484.0
 31
0.0
  0
CIRCLE
  5
FC
100
AcDbEntity
  8
本体
  6
CONTINUOUS
 62
     6
100
AcDbCircle
 10
770.0
 20
2151.488263
 30
0.0
 40
3.5
  0
ARC
  5
FD
100
AcDbEntity
  8
本体
  6
CONTINUOUS
 62
     6
100
AcDbCircle
 10
786.157317
 20
2163.615218
 30
0.0
 40
3.5
100
AcDbArc
 50
225.0
 51
45.0
  0
ARC
  5
FE
100
AcDbEntity
  8
本体
  6
CONTINUOUS
 62
     6
100
AcDbCircle
 10
775.465504
 20
2174.30703
 30
0.0
 40
3.5
100
AcDbArc
 50
45.0
 51
225.0
  0
ARC
  5
FF
100
AcDbEntity
  8
本体
  6
CONTINUOUS
 62
     6
100
AcDbCircle
 10
777.642136
 20
2157.988263
 30
0.0
 40
3.5
100
AcDbArc
 50
225.0
 51
45.0
  0
ARC
  5
100
100
AcDbEntity
  8
本体
  6
CONTINUOUS
 62
     6
100
AcDbCircle
 10
771.024861
 20
2164.605537
 30
0.0
 40
3.5
100
AcDbArc
 50
45.0
 51
225.0
  0
LINE
  5
101
100
AcDbEntity
  8
本体
  6
CONTINUOUS
 62
     6
100
AcDbLine
 10
772.990631
 20
2171.832157
 30
0.0
 11
783.682443
 21
2161.140344
 31
0.0
  0
LINE
  5
102
100
AcDbEntity
  8
本体
  6
CONTINUOUS
 62
     6
100
AcDbLine
 10
773.499735
 20
2167.080411
 30
0.0
 11
780.117009
 21
2160.463137
 31
0.0
  0
LINE
  5
103
100
AcDbEntity
  8
本体
  6
CONTINUOUS
 62
     6
100
AcDbLine
 10
768.549988
 20
2162.130664
 30
0.0
 11
775.167262
 21
2155.51339
 31
0.0
  0
ARC
  5
104
100
AcDbEntity
  8
本体
  6
CONTINUOUS
 62
     6
100
AcDbCircle
 10
800.272417
 20
2125.192138
 30
0.0
 40
3.5
100
AcDbArc
 50
315.0
 51
135.0
  0
ARC
  5
105
100
AcDbEntity
  8
本体
  6
CONTINUOUS
 62
     6
100
AcDbCircle
 10
789.590256
 20
2114.509977
 30
0.0
 40
3.5
100
AcDbArc
 50
135.0
 51
315.0
  0
ARC
  5
106
100
AcDbEntity
  8
本体
  6
CONTINUOUS
 62
     6
100
AcDbCircle
 10
791.95714
 20
2131.018996
 30
0.0
 40
3.5
100
AcDbArc
 50
315.0
 51
135.0
  0
ARC
  5
107
100
AcDbEntity
  8
本体
  6
CONTINUOUS
 62
     6
100
AcDbCircle
 10
781.70408
 20
2120.765937
 30
0.0
 40
3.5
100
AcDbArc
 50
135.0
 51
315.0
  0
ARC
  5
108
100
AcDbEntity
  8
本体
  6
CONTINUOUS
 62
     6
100
AcDbCircle
 10
786.157317
 20
2139.361309
 30
0.0
 40
3.5
100
AcDbArc
 50
315.0
 51
135.0
  0
ARC
  5
109
100
AcDbEntity
  8
本体
  6
CONTINUOUS
 62
     6
100
AcDbCircle
 10
775.465504
 20
2128.669496
 30
0.0
 40
3.5
100
AcDbArc
 50
135.0
 51
315.0
  0
ARC
  5
10A
100
AcDbEntity
  8
本体
  6
CONTINUOUS
 62
     6
100
AcDbCircle
 10
777.642136
 20
2144.988263
 30
0.0
 40
3.5
100
AcDbArc
 50
315.0
 51
135.0
  0
ARC
  5
10B
100
AcDbEntity
  8
本体
  6
CONTINUOUS
 62
     6
100
AcDbCircle
 10
771.024861
 20
2138.370989
 30
0.0
 40
3.5
100
AcDbArc
 50
135.0
 51
315.0
  0
LINE
  5
10C
100
AcDbEntity
  8
本体
  6
CONTINUOUS
 62
     6
100
AcDbLine
 10
792.06513
 20
2112.035103
 30
0.0
 11
802.747291
 21
2122.717264
 31
0.0
  0
LINE
  5
10D
100
AcDbEntity
  8
本体
  6
CONTINUOUS
 62
     6
100
AcDbLine
 10
787.115383
 20
2116.984851
 30
0.0
 11
797.797543
 21
2127.667012
 31
0.0
  0
LINE
  5
10E
100
AcDbEntity
  8
本体
  6
CONTINUOUS
 62
     6
100
AcDbLine
 10
784.178954
 20
2118.291063
 30
0.0
 11
794.432014
 21
2128.544122
 31
0.0
  0
LINE
  5
10F
100
AcDbEntity
  8
本体
  6
CONTINUOUS
 62
     6
100
AcDbLine
 10
779.229207
 20
2123.240811
 30
0.0
 11
789.482266
 21
2133.49387
 31
0.0
  0
LINE
  5
110
100
AcDbEntity
  8
本体
  6
CONTINUOUS
 62
     6
100
AcDbLine
 10
777.940378
 20
2126.194623
 30
0.0
 11
788.63219
 21
2136.886435
 31
0.0
  0
LINE
  5
111
100
AcDbEntity
  8
本体
  6
CONTINUOUS
 62
     6
100
AcDbLine
 10
772.990631
 20
2131.14437
 30
0.0
 11
783.682443
 21
2141.836182
 31
0.0
  0
LINE
  5
112
100
AcDbEntity
  8
本体
  6
CONTINUOUS
 62
     6
100
AcDbLine
 10
773.499735
 20
2135.896115
 30
0.0
 11
780.117009
 21
2142.51339
 31
0.0
  0
LINE
  5
113
100
AcDbEntity
  8
本体
  6
CONTINUOUS
 62
     6
100
AcDbLine
 10
768.549988
 20
2140.845863
 30
0.0
 11
775.167262
 21
2147.463137
 31
0.0
  0
CIRCLE
  5
114
100
AcDbEntity
  8
本体
  6
CONTINUOUS
 62
     6
100
AcDbCircle
 10
812.5
 20
2188.988263
 30
0.0
 40
7.5
  0
CIRCLE
  5
115
100
AcDbEntity
  8
本体
  6
CONTINUOUS
 62
     6
100
AcDbCircle
 10
824.930757
 20
2192.129699
 30
0.0
 40
3.5
  0
ARC
  5
116
100
AcDbEntity
  8
本体
  6
CONTINUOUS
 62
     6
100
AcDbCircle
 10
824.727583
 20
2177.784389
 30
0.0
 40
3.5
100
AcDbArc
 50
135.0
 51
315.0
  0
ARC
  5
117
100
AcDbEntity
  8
本体
  6
CONTINUOUS
 62
     6
100
AcDbCircle
 10
835.409744
 20
2188.466549
 30
0.0
 40
3.5
100
AcDbArc
 50
315.0
 51
135.0
  0
ARC
  5
118
100
AcDbEntity
  8
本体
  6
CONTINUOUS
 62
     6
100
AcDbCircle
 10
843.29592
 20
2182.21059
 30
0.0
 40
3.5
100
AcDbArc
 50
315.0
 51
135.0
  0
ARC
  5
119
100
AcDbEntity
  8
本体
  6
CONTINUOUS
 62
     6
100
AcDbCircle
 10
849.534496
 20
2174.30703
 30
0.0
 40
3.5
100
AcDbArc
 50
315.0
 51
135.0
  0
LINE
  5
11A
100
AcDbEntity
  8
本体
  6
CONTINUOUS
 62
     6
100
AcDbLine
 10
832.93487
 20
2190.941423
 30
0.0
 11
822.252709
 21
2180.259262
 31
0.0
  0
LINE
  5
11B
100
AcDbEntity
  8
本体
  6
CONTINUOUS
 62
     6
100
AcDbLine
 10
837.884617
 20
2185.991676
 30
0.0
 11
827.202457
 21
2175.309515
 31
0.0
  0
LINE
  5
11C
100
AcDbEntity
  8
本体
  6
CONTINUOUS
 62
     6
100
AcDbLine
 10
840.821046
 20
2184.685463
 30
0.0
 11
830.567986
 21
2174.432404
 31
0.0
  0
CIRCLE
  5
11D
100
AcDbEntity
  8
本体
  6
CONTINUOUS
 62
     6
100
AcDbCircle
 10
800.069243
 20
2192.129699
 30
0.0
 40
3.5
  0
ARC
  5
11E
100
AcDbEntity
  8
本体
  6
CONTINUOUS
 62
     6
100
AcDbCircle
 10
800.272417
 20
2177.784389
 30
0.0
 40
3.5
100
AcDbArc
 50
225.0
 51
45.0
  0
ARC
  5
11F
100
AcDbEntity
  8
本体
  6
CONTINUOUS
 62
     6
100
AcDbCircle
 10
789.590256
 20
2188.466549
 30
0.0
 40
3.5
100
AcDbArc
 50
45.0
 51
225.0
  0
ARC
  5
120
100
AcDbEntity
  8
本体
  6
CONTINUOUS
 62
     6
100
AcDbCircle
 10
791.95714
 20
2171.95753
 30
0.0
 40
3.5
100
AcDbArc
 50
225.0
 51
45.0
  0
ARC
  5
121
100
AcDbEntity
  8
本体
  6
CONTINUOUS
 62
     6
100
AcDbCircle
 10
781.70408
 20
2182.21059
 30
0.0
 40
3.5
100
AcDbArc
 50
45.0
 51
225.0
  0
LINE
  5
122
100
AcDbEntity
  8
本体
  6
CONTINUOUS
 62
     6
100
AcDbLine
 10
792.06513
 20
2190.941423
 30
0.0
 11
802.747291
 21
2180.259262
 31
0.0
  0
LINE
  5
123
100
AcDbEntity
  8
本体
  6
CONTINUOUS
 62
     6
100
AcDbLine
 10
787.115383
 20
2185.991676
 30
0.0
 11
797.797543
 21
2175.309515
 31
0.0
  0
LINE
  5
124
100
AcDbEntity
  8
本体
  6
CONTINUOUS
 62
     6
100
AcDbLine
 10
784.178954
 20
2184.685463
 30
0.0
 11
794.432014
 21
2174.432404
 31
0.0
  0
LINE
  5
125
100
AcDbEntity
  8
本体
  6
CONTINUOUS
 62
     6
100
AcDbLine
 10
779.229207
 20
2179.735716
 30
0.0
 11
789.482266
 21
2169.482657
 31
0.0
  0
LINE
  5
126
100
AcDbEntity
  8
本体
  6
CONTINUOUS
 62
     6
100
AcDbLine
 10
777.940378
 20
2176.781904
 30
0.0
 11
788.63219
 21
2166.090092
 31
0.0
  0
LINE
  5
127
100
AcDbEntity
  8
本体
  6
CONTINUOUS
 62
     6
100
AcDbLine
 10
814.0
 20
2196.336733
 30
0.0
 11
814.0
 21
2181.639794
 31
0.0
  0
LINE
  5
128
100
AcDbEntity
  8
本体
  6
CONTINUOUS
 62
     6
100
AcDbLine
 10
811.0
 20
2196.336733
 30
0.0
 11
811.0
 21
2181.639794
 31
0.0
  0
CIRCLE
  5
129
100
AcDbEntity
  8
本体
  6
CONTINUOUS
 62
     6
100
AcDbCircle
 10
812.5
 20
2113.988263
 30
0.0
 40
7.5
  0
CIRCLE
  5
12A
100
AcDbEntity
  8
本体
  6
CONTINUOUS
 62
     6
100
AcDbCircle
 10
800.069243
 20
2110.846828
 30
0.0
 40
3.5
  0
LINE
  5
12B
100
AcDbEntity
  8
本体
  6
CONTINUOUS
 62
     6
100
AcDbLine
 10
814.0
 20
2106.639794
 30
0.0
 11
814.0
 21
2121.336733
 31
0.0
  0
LINE
  5
12C
100
AcDbEntity
  8
本体
  6
CONTINUOUS
 62
     6
100
AcDbLine
 10
811.0
 20
2106.639794
 30
0.0
 11
811.0
 21
2121.336733
 31
0.0
  0
ARC
  5
12D
100
AcDbEntity
  8
本体
  6
CONTINUOUS
 62
     6
100
AcDbCircle
 10
824.727583
 20
2125.192138
 30
0.0
 40
3.5
100
AcDbArc
 50
45.0
 51
225.0
  0
ARC
  5
12E
100
AcDbEntity
  8
本体
  6
CONTINUOUS
 62
     6
100
AcDbCircle
 10
843.29592
 20
2120.765937
 30
0.0
 40
3.5
100
AcDbArc
 50
225.0
 51
45.0
  0
LINE
  5
12F
100
AcDbEntity
  8
本体
  6
CONTINUOUS
 62
     6
100
AcDbLine
 10
837.884617
 20
2116.984851
 30
0.0
 11
827.202457
 21
2127.667012
 31
0.0
  0
LINE
  5
130
100
AcDbEntity
  8
本体
  6
CONTINUOUS
 62
     6
100
AcDbLine
 10
840.821046
 20
2118.291063
 30
0.0
 11
830.567986
 21
2128.544122
 31
0.0
  0
CIRCLE
  5
131
100
AcDbEntity
  8
本体
  6
CONTINUOUS
 62
     6
100
AcDbCircle
 10
824.930757
 20
2110.846828
 30
0.0
 40
3.5
  0
ARC
  5
132
100
AcDbEntity
  8
本体
  6
CONTINUOUS
 62
     6
100
AcDbCircle
 10
835.409744
 20
2114.509977
 30
0.0
 40
3.5
100
AcDbArc
 50
225.0
 51
45.0
  0
LINE
  5
133
100
AcDbEntity
  8
本体
  6
CONTINUOUS
 62
     6
100
AcDbLine
 10
832.93487
 20
2112.035103
 30
0.0
 11
822.252709
 21
2122.717264
 31
0.0
  0
ARC
  5
134
100
AcDbEntity
  8
本体
  6
CONTINUOUS
 62
     6
100
AcDbCircle
 10
812.5
 20
2151.488263
 30
0.0
 40
53.0
100
AcDbArc
 50
21.759772
 51
337.946581
  0
ARC
  5
135
100
AcDbEntity
  8
本体
  6
CONTINUOUS
 62
     6
100
AcDbCircle
 10
833.04286
 20
2171.95753
 30
0.0
 40
3.5
100
AcDbArc
 50
135.0
 51
204.821367
  0
LINE
  5
136
100
AcDbEntity
  8
本体
  6
CONTINUOUS
 62
     6
100
AcDbLine
 10
845.770793
 20
2179.735716
 30
0.0
 11
836.523341
 21
2170.488263
 31
0.0
  0
LINE
  5
137
100
AcDbEntity
  8
本体
  6
CONTINUOUS
 62
     6
100
AcDbLine
 10
847.059622
 20
2176.781904
 30
0.0
 11
840.765981
 21
2170.488263
 31
0.0
  0
LINE
  5
138
100
AcDbEntity
  8
本体
  6
CONTINUOUS
 62
     6
100
AcDbLine
 10
852.009369
 20
2171.832157
 30
0.0
 11
851.313416
 21
2171.136203
 31
0.0
  0
ARC
  5
139
100
AcDbEntity
  8
本体
  6
CONTINUOUS
 62
     6
100
AcDbCircle
 10
849.534496
 20
2128.669496
 30
0.0
 40
3.5
100
AcDbArc
 50
225.0
 51
45.0
  0
LINE
  5
13A
100
AcDbEntity
  8
本体
  6
CONTINUOUS
 62
     6
100
AcDbLine
 10
852.009369
 20
2131.14437
 30
0.0
 11
851.313416
 21
2131.840324
 31
0.0
  0
LINE
  5
13B
100
AcDbEntity
  8
本体
  6
CONTINUOUS
 62
     6
100
AcDbLine
 10
847.059622
 20
2126.194623
 30
0.0
 11
840.765981
 21
2132.488263
 31
0.0
  0
LINE
  5
13C
100
AcDbEntity
  8
本体
  6
CONTINUOUS
 62
     6
100
AcDbLine
 10
845.770793
 20
2123.240811
 30
0.0
 11
836.523341
 21
2132.488263
 31
0.0
  0
ARC
  5
13D
100
AcDbEntity
  8
本体
  6
CONTINUOUS
 62
     6
100
AcDbCircle
 10
833.04286
 20
2131.018996
 30
0.0
 40
3.5
100
AcDbArc
 50
155.178633
 51
225.0
  0
LINE
  5
13E
100
AcDbEntity
  8
本体
  6
CONTINUOUS
 62
     2
100
AcDbLine
 10
753.000002
 20
1473.998679
 30
0.0
 11
753.000002
 21
1464.498679
 31
0.0
  0
LINE
  5
13F
100
AcDbEntity
  8
本体
  6
CONTINUOUS
 62
     2
100
AcDbLine
 10
755.4
 20
1461.998679
 30
0.0
 11
756.255383
 21
1385.014192
 31
0.0
  0
LINE
  5
140
100
AcDbEntity
  8
本体
  6
CONTINUOUS
 62
     2
100
AcDbLine
 10
753.000002
 20
1464.498679
 30
0.0
 11
755.4
 21
1461.998679
 31
0.0
  0
LINE
  5
141
100
AcDbEntity
  8
本体
  6
CONTINUOUS
 62
     2
100
AcDbLine
 10
769.30604
 20
1370.307931
 30
0.0
 11
776.689685
 21
1369.340642
 31
0.0
  0
ARC
  5
142
100
AcDbEntity
  8
本体
  6
CONTINUOUS
 62
     2
100
AcDbCircle
 10
776.300001
 20
1366.366058
 30
0.0
 40
3.0
100
AcDbArc
 50
0.0
 51
82.536506
  0
ARC
  5
143
100
AcDbEntity
  8
本体
  6
CONTINUOUS
 62
     2
100
AcDbCircle
 10
771.254457
 20
1385.180849
 30
0.0
 40
15.0
100
AcDbArc
 50
180.636594
 51
262.536506
  0
ARC
  5
144
100
AcDbEntity
  8
本体
  6
CONTINUOUS
 62
     2
100
AcDbCircle
 10
750.000002
 20
1473.998679
 30
0.0
 40
3.0
100
AcDbArc
 50
0.000003
 51
90.000005
  0
LINE
  5
145
100
AcDbEntity
  8
本体
  6
CONTINUOUS
 62
     2
100
AcDbLine
 10
741.500002
 20
1481.998679
 30
0.0
 11
741.500002
 21
1478.998679
 31
0.0
  0
ARC
  5
146
100
AcDbEntity
  8
本体
  6
CONTINUOUS
 62
     2
100
AcDbCircle
 10
743.500002
 20
1478.998679
 30
0.0
 40
2.0
100
AcDbArc
 50
179.999997
 51
270.0
  0
ARC
  5
147
100
AcDbEntity
  8
本体
  6
CONTINUOUS
 62
     2
100
AcDbCircle
 10
776.300001
 20
1366.366058
 30
0.0
 40
3.0
100
AcDbArc
 50
1.988579
 51
82.536506
  0
ARC
  5
148
100
AcDbEntity
  8
本体
  6
CONTINUOUS
 62
     2
100
AcDbCircle
 10
743.021285
 20
1483.04862
 30
0.0
 40
1.0
100
AcDbArc
 50
180.0
 51
263.383262
  0
LINE
  5
149
100
AcDbEntity
  8
本体
  6
CONTINUOUS
 62
     2
100
AcDbLine
 10
742.021285
 20
1483.04862
 30
0.0
 11
742.021285
 21
1483.652644
 31
0.0
  0
ARC
  5
14A
100
AcDbEntity
  8
本体
  6
CONTINUOUS
 62
     2
100
AcDbCircle
 10
743.021285
 20
1483.652644
 30
0.0
 40
1.0
100
AcDbArc
 50
159.674307
 51
180.0
  0
LINE
  5
14B
100
AcDbEntity
  8
本体
  6
CONTINUOUS
 62
     2
100
AcDbLine
 10
871.999998
 20
1473.998679
 30
0.0
 11
871.999998
 21
1464.498679
 31
0.0
  0
LINE
  5
14C
100
AcDbEntity
  8
本体
  6
CONTINUOUS
 62
     2
100
AcDbLine
 10
871.999998
 20
1464.498679
 30
0.0
 11
869.6
 21
1461.998679
 31
0.0
  0
ARC
  5
14D
100
AcDbEntity
  8
本体
  6
CONTINUOUS
 62
     2
100
AcDbCircle
 10
874.999998
 20
1473.998679
 30
0.0
 40
3.0
100
AcDbArc
 50
89.999995
 51
179.999997
  0
LINE
  5
14E
100
AcDbEntity
  8
本体
  6
CONTINUOUS
 62
     2
100
AcDbLine
 10
883.499998
 20
1481.998679
 30
0.0
 11
883.499998
 21
1478.998679
 31
0.0
  0
ARC
  5
14F
100
AcDbEntity
  8
本体
  6
CONTINUOUS
 62
     2
100
AcDbCircle
 10
881.499998
 20
1478.998679
 30
0.0
 40
2.0
100
AcDbArc
 50
270.0
 51
0.000003
  0
ARC
  5
150
100
AcDbEntity
  8
本体
  6
CONTINUOUS
 62
     2
100
AcDbCircle
 10
881.978715
 20
1483.04862
 30
0.0
 40
1.0
100
AcDbArc
 50
276.616738
 51
0.0
  0
LINE
  5
151
100
AcDbEntity
  8
本体
  6
CONTINUOUS
 62
     2
100
AcDbLine
 10
882.978715
 20
1483.04862
 30
0.0
 11
882.978715
 21
1483.652644
 31
0.0
  0
ARC
  5
152
100
AcDbEntity
  8
本体
  6
CONTINUOUS
 62
     2
100
AcDbCircle
 10
881.978715
 20
1483.652644
 30
0.0
 40
1.0
100
AcDbArc
 50
0.0
 51
20.325693
  0
LINE
  5
153
100
AcDbEntity
  8
本体
  6
CONTINUOUS
 62
     2
100
AcDbLine
 10
869.6
 20
1461.998679
 30
0.0
 11
868.744617
 21
1385.014192
 31
0.0
  0
ARC
  5
154
100
AcDbEntity
  8
本体
  6
CONTINUOUS
 62
     2
100
AcDbCircle
 10
853.745543
 20
1385.180849
 30
0.0
 40
15.0
100
AcDbArc
 50
277.463494
 51
359.363406
  0
ARC
  5
155
100
AcDbEntity
  8
本体
  6
CONTINUOUS
 62
     2
100
AcDbCircle
 10
848.699999
 20
1366.366058
 30
0.0
 40
3.0
100
AcDbArc
 50
97.463494
 51
180.0
  0
ARC
  5
156
100
AcDbEntity
  8
本体
  6
CONTINUOUS
 62
     2
100
AcDbCircle
 10
848.699999
 20
1366.366058
 30
0.0
 40
3.0
100
AcDbArc
 50
97.463494
 51
178.011421
  0
LINE
  5
157
100
AcDbEntity
  8
本体
  6
CONTINUOUS
 62
     2
100
AcDbLine
 10
847.26149
 20
1368.998679
 30
0.0
 11
777.73851
 21
1368.998679
 31
0.0
  0
LINE
  5
158
100
AcDbEntity
  8
本体
  6
CONTINUOUS
 62
     2
100
AcDbLine
 10
855.69396
 20
1370.307931
 30
0.0
 11
848.310315
 21
1369.340642
 31
0.0
  0
LINE
  5
159
100
AcDbEntity
  8
本体
  6
CONTINUOUS
 62
     2
100
AcDbLine
 10
742.5
 20
1483.14862
 30
0.0
 11
882.5
 21
1483.14862
 31
0.0
  0
LINE
  5
15A
100
AcDbEntity
  8
本体
  6
CONTINUOUS
 62
     2
100
AcDbLine
 10
882.093942
 20
1481.998679
 30
0.0
 11
741.500002
 21
1481.998679
 31
0.0
  0
LINE
  5
15B
100
AcDbEntity
  8
本体
  6
CONTINUOUS
 62
     2
100
AcDbLine
 10
881.499998
 20
1476.998679
 30
0.0
 11
743.500002
 21
1476.998679
 31
0.0
  0
LINE
  5
15C
100
AcDbEntity
  8
本体
  6
CONTINUOUS
 62
     2
100
AcDbLine
 10
871.999998
 20
1464.498679
 30
0.0
 11
753.000002
 21
1464.498679
 31
0.0
  0
LINE
  5
15D
100
AcDbEntity
  8
本体
  6
CONTINUOUS
 62
     2
100
AcDbLine
 10
869.6
 20
1461.998679
 30
0.0
 11
755.4
 21
1461.998679
 31
0.0
  0
LINE
  5
15E
100
AcDbEntity
  8
本体
  6
CONTINUOUS
 62
     6
100
AcDbLine
 10
1309.5
 20
1469.532367
 30
0.0
 11
1308.47036
 21
1473.209654
 31
0.0
  0
LINE
  5
15F
100
AcDbEntity
  8
本体
  6
CONTINUOUS
 62
     6
100
AcDbLine
 10
1310.52964
 20
1473.209654
 30
0.0
 11
1309.5
 21
1469.532367
 31
0.0
  0
ARC
  5
160
100
AcDbEntity
  8
本体
  6
CONTINUOUS
 62
     6
100
AcDbCircle
 10
1318.1
 20
1475.905953
 30
0.0
 40
10.0
100
AcDbArc
 50
180.0
 51
195.642246
  0
ARC
  5
161
100
AcDbEntity
  8
本体
  6
CONTINUOUS
 62
     6
100
AcDbCircle
 10
1300.9
 20
1475.905953
 30
0.0
 40
10.0
100
AcDbArc
 50
344.357754
 51
0.0
  0
LINE
  5
162
100
AcDbEntity
  8
本体
  6
CONTINUOUS
 62
     6
100
AcDbLine
 10
1307.5
 20
1487.712081
 30
0.0
 11
1311.5
 21
1488.417389
 31
0.0
  0
LINE
  5
163
100
AcDbEntity
  8
本体
  6
CONTINUOUS
 62
     6
100
AcDbLine
 10
1311.5
 20
1486.667389
 30
0.0
 11
1307.5
 21
1485.962081
 31
0.0
  0
LINE
  5
164
100
AcDbEntity
  8
本体
  6
CONTINUOUS
 62
     6
100
AcDbLine
 10
1307.5
 20
1484.212081
 30
0.0
 11
1311.5
 21
1484.917389
 31
0.0
  0
LINE
  5
165
100
AcDbEntity
  8
本体
  6
CONTINUOUS
 62
     6
100
AcDbLine
 10
1311.5
 20
1483.167389
 30
0.0
 11
1307.5
 21
1482.462081
 31
0.0
  0
LINE
  5
166
100
AcDbEntity
  8
本体
  6
CONTINUOUS
 62
     6
100
AcDbLine
 10
1307.5
 20
1480.712081
 30
0.0
 11
1311.5
 21
1481.417389
 31
0.0
  0
LINE
  5
167
100
AcDbEntity
  8
本体
  6
CONTINUOUS
 62
     6
100
AcDbLine
 10
1311.5
 20
1479.667389
 30
0.0
 11
1307.5
 21
1478.962081
 31
0.0
  0
LINE
  5
168
100
AcDbEntity
  8
本体
  6
CONTINUOUS
 62
     6
100
AcDbLine
 10
1307.5
 20
1477.212081
 30
0.0
 11
1311.5
 21
1477.917389
 31
0.0
  0
LINE
  5
169
100
AcDbEntity
  8
本体
  6
CONTINUOUS
 62
     6
100
AcDbLine
 10
1307.5
 20
1475.462081
 30
0.0
 11
1311.5
 21
1476.167389
 31
0.0
  0
LINE
  5
16A
100
AcDbEntity
  8
本体
  6
CONTINUOUS
 62
     6
100
AcDbLine
 10
1307.5
 20
1473.712081
 30
0.0
 11
1311.5
 21
1474.417389
 31
0.0
  0
LINE
  5
16B
100
AcDbEntity
  8
本体
  6
CONTINUOUS
 62
     6
100
AcDbLine
 10
1310.97496
 20
1472.57481
 30
0.0
 11
1308.16383
 21
1472.079132
 31
0.0
  0
LINE
  5
16C
100
AcDbEntity
  8
本体
  6
CONTINUOUS
 62
     6
100
AcDbLine
 10
1310.459512
 20
1470.733922
 30
0.0
 11
1308.630776
 21
1470.411467
 31
0.0
  0
LINE
  5
16D
100
AcDbEntity
  8
本体
  6
CONTINUOUS
 62
     6
100
AcDbLine
 10
1308.1
 20
1489.0
 30
0.0
 11
1308.1
 21
1475.905953
 31
0.0
  0
LINE
  5
16E
100
AcDbEntity
  8
本体
  6
CONTINUOUS
 62
     6
100
AcDbLine
 10
1310.9
 20
1489.0
 30
0.0
 11
1310.9
 21
1475.905953
 31
0.0
  0
LINE
  5
16F
100
AcDbEntity
  8
本体
  6
CONTINUOUS
 62
     6
100
AcDbLine
 10
709.5
 20
1469.532367
 30
0.0
 11
708.47036
 21
1473.209654
 31
0.0
  0
LINE
  5
170
100
AcDbEntity
  8
本体
  6
CONTINUOUS
 62
     6
100
AcDbLine
 10
710.52964
 20
1473.209654
 30
0.0
 11
709.5
 21
1469.532367
 31
0.0
  0
ARC
  5
171
100
AcDbEntity
  8
本体
  6
CONTINUOUS
 62
     6
100
AcDbCircle
 10
718.1
 20
1475.905953
 30
0.0
 40
10.0
100
AcDbArc
 50
180.0
 51
195.642246
  0
ARC
  5
172
100
AcDbEntity
  8
本体
  6
CONTINUOUS
 62
     6
100
AcDbCircle
 10
700.9
 20
1475.905953
 30
0.0
 40
10.0
100
AcDbArc
 50
344.357754
 51
0.0
  0
LINE
  5
173
100
AcDbEntity
  8
本体
  6
CONTINUOUS
 62
     6
100
AcDbLine
 10
707.5
 20
1487.712081
 30
0.0
 11
711.5
 21
1488.417389
 31
0.0
  0
LINE
  5
174
100
AcDbEntity
  8
本体
  6
CONTINUOUS
 62
     6
100
AcDbLine
 10
711.5
 20
1486.667389
 30
0.0
 11
707.5
 21
1485.962081
 31
0.0
  0
LINE
  5
175
100
AcDbEntity
  8
本体
  6
CONTINUOUS
 62
     6
100
AcDbLine
 10
707.5
 20
1484.212081
 30
0.0
 11
711.5
 21
1484.917389
 31
0.0
  0
LINE
  5
176
100
AcDbEntity
  8
本体
  6
CONTINUOUS
 62
     6
100
AcDbLine
 10
711.5
 20
1483.167389
 30
0.0
 11
707.5
 21
1482.462081
 31
0.0
  0
LINE
  5
177
100
AcDbEntity
  8
本体
  6
CONTINUOUS
 62
     6
100
AcDbLine
 10
707.5
 20
1480.712081
 30
0.0
 11
711.5
 21
1481.417389
 31
0.0
  0
LINE
  5
178
100
AcDbEntity
  8
本体
  6
CONTINUOUS
 62
     6
100
AcDbLine
 10
711.5
 20
1479.667389
 30
0.0
 11
707.5
 21
1478.962081
 31
0.0
  0
LINE
  5
179
100
AcDbEntity
  8
本体
  6
CONTINUOUS
 62
     6
100
AcDbLine
 10
707.5
 20
1477.212081
 30
0.0
 11
711.5
 21
1477.917389
 31
0.0
  0
LINE
  5
17A
100
AcDbEntity
  8
本体
  6
CONTINUOUS
 62
     6
100
AcDbLine
 10
707.5
 20
1475.462081
 30
0.0
 11
711.5
 21
1476.167389
 31
0.0
  0
LINE
  5
17B
100
AcDbEntity
  8
本体
  6
CONTINUOUS
 62
     6
100
AcDbLine
 10
707.5
 20
1473.712081
 30
0.0
 11
711.5
 21
1474.417389
 31
0.0
  0
LINE
  5
17C
100
AcDbEntity
  8
本体
  6
CONTINUOUS
 62
     6
100
AcDbLine
 10
710.97496
 20
1472.57481
 30
0.0
 11
708.16383
 21
1472.079132
 31
0.0
  0
LINE
  5
17D
100
AcDbEntity
  8
本体
  6
CONTINUOUS
 62
     6
100
AcDbLine
 10
710.459512
 20
1470.733922
 30
0.0
 11
708.630776
 21
1470.411467
 31
0.0
  0
LINE
  5
17E
100
AcDbEntity
  8
本体
  6
CONTINUOUS
 62
     6
100
AcDbLine
 10
708.1
 20
1489.0
 30
0.0
 11
708.1
 21
1475.905953
 31
0.0
  0
LINE
  5
17F
100
AcDbEntity
  8
本体
  6
CONTINUOUS
 62
     6
100
AcDbLine
 10
710.9
 20
1489.0
 30
0.0
 11
710.9
 21
1475.905953
 31
0.0
  0
LINE
  5
180
100
AcDbEntity
  8
本体
  6
CONTINUOUS
 62
     6
100
AcDbLine
 10
543.5
 20
1489.0
 30
0.0
 11
543.5
 21
1289.0
 31
0.0
  0
LINE
  5
181
100
AcDbEntity
  8
本体
  6
CONTINUOUS
 62
     6
100
AcDbLine
 10
463.5
 20
1489.0
 30
0.0
 11
463.5
 21
1289.0
 31
0.0
  0
LINE
  5
182
100
AcDbEntity
  8
本体
  6
CONTINUOUS
 62
     6
100
AcDbLine
 10
463.5
 20
1289.0
 30
0.0
 11
543.5
 21
1289.0
 31
0.0
  0
LINE
  5
183
100
AcDbEntity
  8
本体
  6
CONTINUOUS
 62
     6
100
AcDbLine
 10
463.5
 20
1489.0
 30
0.0
 11
543.5
 21
1289.0
 31
0.0
  0
LINE
  5
184
100
AcDbEntity
  8
本体
  6
CONTINUOUS
 62
     6
100
AcDbLine
 10
463.5
 20
1289.0
 30
0.0
 11
543.5
 21
1489.0
 31
0.0
  0
TEXT
  5
185
100
AcDbEntity
  8
本体
  6
CONTINUOUS
 62
     2
100
AcDbText
 10
437.0
 20
1468.0
 30
0.0
 40
40.0
  1
根太
 41
1.125
  7
EXCADVERT
 72
     3
 11
437.0
 21
1378.0
 31
0.0
100
AcDbText
  0
LINE
  5
186
100
AcDbEntity
  8
本体
  6
CONTINUOUS
 62
     2
100
AcDbLine
 10
368.0
 20
1489.0
 30
0.0
 11
1591.0
 21
1489.0
 31
0.0
  0
DIMENSION
  5
193
100
AcDbEntity
  8
本体
  6
CONTINUOUS
 62
     3
100
AcDbDimension
  2
*D14
 10
1307.0
 20
2551.488263
 30
0.0
 11
1009.5
 21
2574.988263
 31
0.0
 70
   160
  3
STANDARD
100
AcDbAlignedDimension
 13
712.0
 23
2448.988263
 33
0.0
 14
1307.0
 24
2448.988263
 34
0.0
100
AcDbRotatedDimension
1001
ACAD
1000
DSTYLE
1002
{
1070
     6
1000
_EX_NORM
1070
     7
1000
_EX_NORM
1070
    41
1040
35.0
1070
    42
1040
0.0
1070
    44
1040
0.0
1070
    73
1070
     0
1070
    74
1070
     0
1070
    75
1070
     0
1070
    76
1070
     0
1070
    77
1070
     1
1070
    78
1070
     0
1070
   140
1040
40.0
1070
   147
1040
3.5
1070
   173
1070
     1
1070
   176
1070
     3
1070
   177
1070
     3
1070
   178
1070
     2
1070
   271
1070
     0
1070
   279
1070
     2
1070
   280
1070
     0
1070
   287
1070
     5
1070
   340
1005
192
1002
}
  0
CIRCLE
  5
194
100
AcDbEntity
  8
本体
  6
CONTINUOUS
 62
     2
100
AcDbCircle
 10
712.0
 20
2448.988263
 30
0.0
 40
12.1
  0
ARC
  5
195
100
AcDbEntity
  8
本体
  6
CONTINUOUS
 62
     2
100
AcDbCircle
 10
736.874686
 20
2446.488263
 30
0.0
 40
5.0
100
AcDbArc
 50
90.0
 51
174.26083
  0
ARC
  5
196
100
AcDbEntity
  8
本体
  6
CONTINUOUS
 62
     2
100
AcDbCircle
 10
714.5
 20
2424.113577
 30
0.0
 40
5.0
100
AcDbArc
 50
95.73917
 51
180.0
  0
LINE
  5
197
100
AcDbEntity
  8
本体
  6
CONTINUOUS
 62
     6
100
AcDbLine
 10
726.1
 20
2448.988263
 30
0.0
 11
697.9
 21
2448.988263
 31
0.0
  0
ARC
  5
198
100
AcDbEntity
  8
本体
  6
CONTINUOUS
 62
     2
100
AcDbCircle
 10
712.0
 20
2448.988263
 30
0.0
 40
20.0
100
AcDbArc
 50
275.73917
 51
354.26083
  0
ARC
  5
199
100
AcDbEntity
  8
本体
  6
CONTINUOUS
 62
     2
100
AcDbCircle
 10
754.5
 20
2406.488263
 30
0.0
 40
37.75
100
AcDbArc
 50
90.0
 51
153.969539
  0
ARC
  5
19A
100
AcDbEntity
  8
本体
  6
CONTINUOUS
 62
     2
100
AcDbCircle
 10
723.27501
 20
2421.738263
 30
0.0
 40
3.0
100
AcDbArc
 50
153.969539
 51
270.0
  0
ARC
  5
19B
100
AcDbEntity
  8
本体
  6
CONTINUOUS
 62
     2
100
AcDbCircle
 10
719.75
 20
2411.238263
 30
0.0
 40
3.0
100
AcDbArc
 50
90.0
 51
180.0
  0
LINE
  5
19C
100
AcDbEntity
  8
本体
  6
CONTINUOUS
 62
     2
100
AcDbLine
 10
716.75
 20
2411.238263
 30
0.0
 11
716.75
 21
2396.738263
 31
0.0
  0
ARC
  5
19D
100
AcDbEntity
  8
本体
  6
CONTINUOUS
 62
     2
100
AcDbCircle
 10
719.75
 20
2396.738263
 30
0.0
 40
3.0
100
AcDbArc
 50
180.0
 51
270.0
  0
ARC
  5
19E
100
AcDbEntity
  8
本体
  6
CONTINUOUS
 62
     2
100
AcDbCircle
 10
719.75
 20
2386.238263
 30
0.0
 40
3.0
100
AcDbArc
 50
90.0
 51
180.0
  0
LINE
  5
19F
100
AcDbEntity
  8
本体
  6
CONTINUOUS
 62
     2
100
AcDbLine
 10
709.5
 20
1878.862949
 30
0.0
 11
709.5
 21
2424.113577
 31
0.0
  0
LINE
  5
1A0
100
AcDbEntity
  8
本体
  6
CONTINUOUS
 62
     2
100
AcDbLine
 10
736.874686
 20
2451.488263
 30
0.0
 11
1282.125314
 21
2451.488263
 31
0.0
  0
LINE
  5
1A1
100
AcDbEntity
  8
本体
  6
CONTINUOUS
 62
     2
100
AcDbLine
 10
864.25
 20
2444.238263
 30
0.0
 11
754.5
 21
2444.238263
 31
0.0
  0
ARC
  5
1A2
100
AcDbEntity
  8
本体
  6
CONTINUOUS
 62
     2
100
AcDbCircle
 10
869.5
 20
2291.488263
 30
0.0
 40
45.0
100
AcDbArc
 50
270.0
 51
0.0
  0
ARC
  5
1A3
100
AcDbEntity
  8
本体
  6
CONTINUOUS
 62
     2
100
AcDbCircle
 10
869.5
 20
2291.488263
 30
0.0
 40
10.0
100
AcDbArc
 50
270.0
 51
0.0
  0
LINE
  5
1A4
100
AcDbEntity
  8
本体
  6
CONTINUOUS
 62
     2
100
AcDbLine
 10
723.27501
 20
2418.738263
 30
0.0
 11
864.25
 21
2418.738263
 31
0.0
  0
LINE
  5
1A5
100
AcDbEntity
  8
本体
  6
CONTINUOUS
 62
     2
100
AcDbLine
 10
867.25
 20
2396.738263
 30
0.0
 11
867.25
 21
2411.238263
 31
0.0
  0
ARC
  5
1A6
100
AcDbEntity
  8
本体
  6
CONTINUOUS
 62
     2
100
AcDbCircle
 10
864.25
 20
2396.738263
 30
0.0
 40
3.0
100
AcDbArc
 50
270.0
 51
0.0
  0
ARC
  5
1A7
100
AcDbEntity
  8
本体
  6
CONTINUOUS
 62
     2
100
AcDbCircle
 10
864.25
 20
2371.738263
 30
0.0
 40
3.0
100
AcDbArc
 50
270.0
 51
0.0
  0
LINE
  5
1A8
100
AcDbEntity
  8
本体
  6
CONTINUOUS
 62
     2
100
AcDbLine
 10
867.25
 20
2371.738263
 30
0.0
 11
867.25
 21
2386.238263
 31
0.0
  0
ARC
  5
1A9
100
AcDbEntity
  8
本体
  6
CONTINUOUS
 62
     2
100
AcDbCircle
 10
864.25
 20
2386.238263
 30
0.0
 40
3.0
100
AcDbArc
 50
0.0
 51
90.0
  0
ARC
  5
1AA
100
AcDbEntity
  8
本体
  6
CONTINUOUS
 62
     2
100
AcDbCircle
 10
864.25
 20
2346.738263
 30
0.0
 40
3.0
100
AcDbArc
 50
270.0
 51
0.0
  0
LINE
  5
1AB
100
AcDbEntity
  8
本体
  6
CONTINUOUS
 62
     2
100
AcDbLine
 10
867.25
 20
2346.738263
 30
0.0
 11
867.25
 21
2361.238263
 31
0.0
  0
ARC
  5
1AC
100
AcDbEntity
  8
本体
  6
CONTINUOUS
 62
     2
100
AcDbCircle
 10
864.25
 20
2361.238263
 30
0.0
 40
3.0
100
AcDbArc
 50
0.0
 51
90.0
  0
ARC
  5
1AD
100
AcDbEntity
  8
本体
  6
CONTINUOUS
 62
     2
100
AcDbCircle
 10
864.25
 20
2321.738263
 30
0.0
 40
3.0
100
AcDbArc
 50
270.0
 51
0.0
  0
LINE
  5
1AE
100
AcDbEntity
  8
本体
  6
CONTINUOUS
 62
     2
100
AcDbLine
 10
867.25
 20
2321.738263
 30
0.0
 11
867.25
 21
2336.238263
 31
0.0
  0
ARC
  5
1AF
100
AcDbEntity
  8
本体
  6
CONTINUOUS
 62
     2
100
AcDbCircle
 10
864.25
 20
2336.238263
 30
0.0
 40
3.0
100
AcDbArc
 50
0.0
 51
90.0
  0
ARC
  5
1B0
100
AcDbEntity
  8
本体
  6
CONTINUOUS
 62
     2
100
AcDbCircle
 10
864.25
 20
2296.738263
 30
0.0
 40
3.0
100
AcDbArc
 50
270.0
 51
0.0
  0
LINE
  5
1B1
100
AcDbEntity
  8
本体
  6
CONTINUOUS
 62
     2
100
AcDbLine
 10
867.25
 20
2296.738263
 30
0.0
 11
867.25
 21
2311.238263
 31
0.0
  0
ARC
  5
1B2
100
AcDbEntity
  8
本体
  6
CONTINUOUS
 62
     2
100
AcDbCircle
 10
864.25
 20
2311.238263
 30
0.0
 40
3.0
100
AcDbArc
 50
0.0
 51
90.0
  0
LINE
  5
1B3
100
AcDbEntity
  8
本体
  6
CONTINUOUS
 62
     2
100
AcDbLine
 10
719.75
 20
2414.238263
 30
0.0
 11
864.25
 21
2414.238263
 31
0.0
  0
LINE
  5
1B4
100
AcDbEntity
  8
本体
  6
CONTINUOUS
 62
     2
100
AcDbLine
 10
719.75
 20
2393.738263
 30
0.0
 11
864.25
 21
2393.738263
 31
0.0
  0
LINE
  5
1B5
100
AcDbEntity
  8
本体
  6
CONTINUOUS
 62
     2
100
AcDbLine
 10
719.75
 20
2389.238263
 30
0.0
 11
864.25
 21
2389.238263
 31
0.0
  0
LINE
  5
1B6
100
AcDbEntity
  8
本体
  6
CONTINUOUS
 62
     2
100
AcDbLine
 10
716.75
 20
2386.238263
 30
0.0
 11
716.75
 21
2371.738263
 31
0.0
  0
ARC
  5
1B7
100
AcDbEntity
  8
本体
  6
CONTINUOUS
 62
     2
100
AcDbCircle
 10
719.75
 20
2371.738263
 30
0.0
 40
3.0
100
AcDbArc
 50
180.0
 51
270.0
  0
LINE
  5
1B8
100
AcDbEntity
  8
本体
  6
CONTINUOUS
 62
     2
100
AcDbLine
 10
719.75
 20
2368.738263
 30
0.0
 11
864.25
 21
2368.738263
 31
0.0
  0
ARC
  5
1B9
100
AcDbEntity
  8
本体
  6
CONTINUOUS
 62
     2
100
AcDbCircle
 10
719.75
 20
2361.238263
 30
0.0
 40
3.0
100
AcDbArc
 50
90.0
 51
180.0
  0
LINE
  5
1BA
100
AcDbEntity
  8
本体
  6
CONTINUOUS
 62
     2
100
AcDbLine
 10
716.75
 20
2361.238263
 30
0.0
 11
716.75
 21
2346.738263
 31
0.0
  0
ARC
  5
1BB
100
AcDbEntity
  8
本体
  6
CONTINUOUS
 62
     2
100
AcDbCircle
 10
719.75
 20
2346.738263
 30
0.0
 40
3.0
100
AcDbArc
 50
180.0
 51
270.0
  0
LINE
  5
1BC
100
AcDbEntity
  8
本体
  6
CONTINUOUS
 62
     2
100
AcDbLine
 10
719.75
 20
2343.738263
 30
0.0
 11
864.25
 21
2343.738263
 31
0.0
  0
LINE
  5
1BD
100
AcDbEntity
  8
本体
  6
CONTINUOUS
 62
     2
100
AcDbLine
 10
719.75
 20
2364.238263
 30
0.0
 11
864.25
 21
2364.238263
 31
0.0
  0
ARC
  5
1BE
100
AcDbEntity
  8
本体
  6
CONTINUOUS
 62
     2
100
AcDbCircle
 10
719.75
 20
2336.238263
 30
0.0
 40
3.0
100
AcDbArc
 50
90.0
 51
180.0
  0
LINE
  5
1BF
100
AcDbEntity
  8
本体
  6
CONTINUOUS
 62
     2
100
AcDbLine
 10
716.75
 20
2336.238263
 30
0.0
 11
716.75
 21
2321.738263
 31
0.0
  0
ARC
  5
1C0
100
AcDbEntity
  8
本体
  6
CONTINUOUS
 62
     2
100
AcDbCircle
 10
719.75
 20
2321.738263
 30
0.0
 40
3.0
100
AcDbArc
 50
180.0
 51
270.0
  0
LINE
  5
1C1
100
AcDbEntity
  8
本体
  6
CONTINUOUS
 62
     2
100
AcDbLine
 10
719.75
 20
2318.738263
 30
0.0
 11
864.25
 21
2318.738263
 31
0.0
  0
LINE
  5
1C2
100
AcDbEntity
  8
本体
  6
CONTINUOUS
 62
     2
100
AcDbLine
 10
719.75
 20
2339.238263
 30
0.0
 11
864.25
 21
2339.238263
 31
0.0
  0
LINE
  5
1C3
100
AcDbEntity
  8
本体
  6
CONTINUOUS
 62
     2
100
AcDbLine
 10
719.75
 20
2314.238263
 30
0.0
 11
864.25
 21
2314.238263
 31
0.0
  0
ARC
  5
1C4
100
AcDbEntity
  8
本体
  6
CONTINUOUS
 62
     2
100
AcDbCircle
 10
719.75
 20
2311.238263
 30
0.0
 40
3.0
100
AcDbArc
 50
90.0
 51
180.0
  0
LINE
  5
1C5
100
AcDbEntity
  8
本体
  6
CONTINUOUS
 62
     2
100
AcDbLine
 10
719.75
 20
2293.738263
 30
0.0
 11
864.25
 21
2293.738263
 31
0.0
  0
LINE
  5
1C6
100
AcDbEntity
  8
本体
  6
CONTINUOUS
 62
     2
100
AcDbLine
 10
716.75
 20
2311.238263
 30
0.0
 11
716.75
 21
2296.738263
 31
0.0
  0
ARC
  5
1C7
100
AcDbEntity
  8
本体
  6
CONTINUOUS
 62
     2
100
AcDbCircle
 10
719.75
 20
2296.738263
 30
0.0
 40
3.0
100
AcDbArc
 50
180.0
 51
270.0
  0
ARC
  5
1C8
100
AcDbEntity
  8
本体
  6
CONTINUOUS
 62
     2
100
AcDbCircle
 10
889.5
 20
2441.488263
 30
0.0
 40
10.0
100
AcDbArc
 50
90.0
 51
180.0
  0
LINE
  5
1C9
100
AcDbEntity
  8
本体
  6
CONTINUOUS
 62
     2
100
AcDbLine
 10
867.25
 20
2421.738263
 30
0.0
 11
867.25
 21
2441.238263
 31
0.0
  0
ARC
  5
1CA
100
AcDbEntity
  8
本体
  6
CONTINUOUS
 62
     2
100
AcDbCircle
 10
864.25
 20
2441.238263
 30
0.0
 40
3.0
100
AcDbArc
 50
0.0
 51
90.0
  0
LINE
  5
1CB
100
AcDbEntity
  8
本体
  6
CONTINUOUS
 62
     2
100
AcDbLine
 10
879.5
 20
2441.488263
 30
0.0
 11
879.5
 21
2291.488263
 31
0.0
  0
ARC
  5
1CC
100
AcDbEntity
  8
本体
  6
CONTINUOUS
 62
     2
100
AcDbCircle
 10
864.25
 20
2421.738263
 30
0.0
 40
3.0
100
AcDbArc
 50
270.0
 51
0.0
  0
ARC
  5
1CD
100
AcDbEntity
  8
本体
  6
CONTINUOUS
 62
     2
100
AcDbCircle
 10
864.25
 20
2411.238263
 30
0.0
 40
3.0
100
AcDbArc
 50
0.0
 51
90.0
  0
ARC
  5
1CE
100
AcDbEntity
  8
本体
  6
CONTINUOUS
 62
     2
100
AcDbCircle
 10
924.5
 20
2436.488263
 30
0.0
 40
10.0
100
AcDbArc
 50
90.0
 51
180.0
  0
LINE
  5
1CF
100
AcDbEntity
  8
本体
  6
CONTINUOUS
 62
     2
100
AcDbLine
 10
914.5
 20
2291.488263
 30
0.0
 11
914.5
 21
2436.488263
 31
0.0
  0
ARC
  5
1D0
100
AcDbEntity
  8
本体
  6
CONTINUOUS
 62
     2
100
AcDbCircle
 10
724.5
 20
2236.488263
 30
0.0
 40
10.0
100
AcDbArc
 50
90.0
 51
180.0
  0
ARC
  5
1D1
100
AcDbEntity
  8
本体
  6
CONTINUOUS
 62
     2
100
AcDbCircle
 10
719.5
 20
2271.488263
 30
0.0
 40
10.0
100
AcDbArc
 50
90.0
 51
180.0
  0
LINE
  5
1D2
100
AcDbEntity
  8
本体
  6
CONTINUOUS
 62
     2
100
AcDbLine
 10
719.5
 20
2281.488263
 30
0.0
 11
869.5
 21
2281.488263
 31
0.0
  0
LINE
  5
1D3
100
AcDbEntity
  8
本体
  6
CONTINUOUS
 62
     2
100
AcDbLine
 10
724.5
 20
2246.488263
 30
0.0
 11
869.5
 21
2246.488263
 31
0.0
  0
ARC
  5
1D4
100
AcDbEntity
  8
本体
  6
CONTINUOUS
 62
     2
100
AcDbCircle
 10
724.5
 20
2066.488263
 30
0.0
 40
10.0
100
AcDbArc
 50
180.0
 51
270.0
  0
LINE
  5
1D5
100
AcDbEntity
  8
本体
  6
CONTINUOUS
 62
     2
100
AcDbLine
 10
724.5
 20
2056.488263
 30
0.0
 11
869.5
 21
2056.488263
 31
0.0
  0
ARC
  5
1D6
100
AcDbEntity
  8
本体
  6
CONTINUOUS
 62
     2
100
AcDbCircle
 10
869.5
 20
2011.488263
 30
0.0
 40
45.0
100
AcDbArc
 50
0.0
 51
90.0
  0
ARC
  5
1D7
100
AcDbEntity
  8
本体
  6
CONTINUOUS
 62
     2
100
AcDbCircle
 10
714.5
 20
1878.862949
 30
0.0
 40
5.0
100
AcDbArc
 50
180.0
 51
264.26083
  0
ARC
  5
1D8
100
AcDbEntity
  8
本体
  6
CONTINUOUS
 62
     2
100
AcDbCircle
 10
736.874686
 20
1856.488263
 30
0.0
 40
5.0
100
AcDbArc
 50
185.73917
 51
270.0
  0
LINE
  5
1D9
100
AcDbEntity
  8
本体
  6
CONTINUOUS
 62
     6
100
AcDbLine
 10
697.9
 20
1853.988263
 30
0.0
 11
726.1
 21
1853.988263
 31
0.0
  0
ARC
  5
1DA
100
AcDbEntity
  8
本体
  6
CONTINUOUS
 62
     2
100
AcDbCircle
 10
889.5
 20
1861.488263
 30
0.0
 40
10.0
100
AcDbArc
 50
180.0
 51
270.0
  0
LINE
  5
1DB
100
AcDbEntity
  8
本体
  6
CONTINUOUS
 62
     2
100
AcDbLine
 10
879.5
 20
1861.488263
 30
0.0
 11
879.5
 21
2011.488263
 31
0.0
  0
ARC
  5
1DC
100
AcDbEntity
  8
本体
  6
CONTINUOUS
 62
     2
100
AcDbCircle
 10
869.5
 20
2011.488263
 30
0.0
 40
10.0
100
AcDbArc
 50
0.0
 51
90.0
  0
LINE
  5
1DD
100
AcDbEntity
  8
本体
  6
CONTINUOUS
 62
     2
100
AcDbLine
 10
719.5
 20
2021.488263
 30
0.0
 11
869.5
 21
2021.488263
 31
0.0
  0
LINE
  5
1DE
100
AcDbEntity
  8
本体
  6
CONTINUOUS
 62
     2
100
AcDbLine
 10
716.75
 20
1916.738263
 30
0.0
 11
716.75
 21
1931.238263
 31
0.0
  0
ARC
  5
1DF
100
AcDbEntity
  8
本体
  6
CONTINUOUS
 62
     2
100
AcDbCircle
 10
719.75
 20
1931.238263
 30
0.0
 40
3.0
100
AcDbArc
 50
90.0
 51
180.0
  0
LINE
  5
1E0
100
AcDbEntity
  8
本体
  6
CONTINUOUS
 62
     2
100
AcDbLine
 10
719.75
 20
1934.238263
 30
0.0
 11
864.25
 21
1934.238263
 31
0.0
  0
ARC
  5
1E1
100
AcDbEntity
  8
本体
  6
CONTINUOUS
 62
     2
100
AcDbCircle
 10
864.25
 20
1931.238263
 30
0.0
 40
3.0
100
AcDbArc
 50
0.0
 51
90.0
  0
LINE
  5
1E2
100
AcDbEntity
  8
本体
  6
CONTINUOUS
 62
     2
100
AcDbLine
 10
867.25
 20
1931.238263
 30
0.0
 11
867.25
 21
1916.738263
 31
0.0
  0
ARC
  5
1E3
100
AcDbEntity
  8
本体
  6
CONTINUOUS
 62
     2
100
AcDbCircle
 10
719.75
 20
1941.738263
 30
0.0
 40
3.0
100
AcDbArc
 50
180.0
 51
270.0
  0
LINE
  5
1E4
100
AcDbEntity
  8
本体
  6
CONTINUOUS
 62
     2
100
AcDbLine
 10
716.75
 20
1941.738263
 30
0.0
 11
716.75
 21
1956.238263
 31
0.0
  0
ARC
  5
1E5
100
AcDbEntity
  8
本体
  6
CONTINUOUS
 62
     2
100
AcDbCircle
 10
719.75
 20
1956.238263
 30
0.0
 40
3.0
100
AcDbArc
 50
90.0
 51
180.0
  0
LINE
  5
1E6
100
AcDbEntity
  8
本体
  6
CONTINUOUS
 62
     2
100
AcDbLine
 10
719.75
 20
1959.238263
 30
0.0
 11
864.25
 21
1959.238263
 31
0.0
  0
ARC
  5
1E7
100
AcDbEntity
  8
本体
  6
CONTINUOUS
 62
     2
100
AcDbCircle
 10
864.25
 20
1956.238263
 30
0.0
 40
3.0
100
AcDbArc
 50
0.0
 51
90.0
  0
LINE
  5
1E8
100
AcDbEntity
  8
本体
  6
CONTINUOUS
 62
     2
100
AcDbLine
 10
719.75
 20
1938.738263
 30
0.0
 11
864.25
 21
1938.738263
 31
0.0
  0
LINE
  5
1E9
100
AcDbEntity
  8
本体
  6
CONTINUOUS
 62
     2
100
AcDbLine
 10
867.25
 20
1956.238263
 30
0.0
 11
867.25
 21
1941.738263
 31
0.0
  0
ARC
  5
1EA
100
AcDbEntity
  8
本体
  6
CONTINUOUS
 62
     2
100
AcDbCircle
 10
864.25
 20
1941.738263
 30
0.0
 40
3.0
100
AcDbArc
 50
270.0
 51
0.0
  0
ARC
  5
1EB
100
AcDbEntity
  8
本体
  6
CONTINUOUS
 62
     2
100
AcDbCircle
 10
719.75
 20
1966.738263
 30
0.0
 40
3.0
100
AcDbArc
 50
180.0
 51
270.0
  0
LINE
  5
1EC
100
AcDbEntity
  8
本体
  6
CONTINUOUS
 62
     2
100
AcDbLine
 10
716.75
 20
1966.738263
 30
0.0
 11
716.75
 21
1981.238263
 31
0.0
  0
ARC
  5
1ED
100
AcDbEntity
  8
本体
  6
CONTINUOUS
 62
     2
100
AcDbCircle
 10
719.75
 20
1981.238263
 30
0.0
 40
3.0
100
AcDbArc
 50
90.0
 51
180.0
  0
LINE
  5
1EE
100
AcDbEntity
  8
本体
  6
CONTINUOUS
 62
     2
100
AcDbLine
 10
719.75
 20
1984.238263
 30
0.0
 11
864.25
 21
1984.238263
 31
0.0
  0
ARC
  5
1EF
100
AcDbEntity
  8
本体
  6
CONTINUOUS
 62
     2
100
AcDbCircle
 10
864.25
 20
1981.238263
 30
0.0
 40
3.0
100
AcDbArc
 50
0.0
 51
90.0
  0
LINE
  5
1F0
100
AcDbEntity
  8
本体
  6
CONTINUOUS
 62
     2
100
AcDbLine
 10
719.75
 20
1963.738263
 30
0.0
 11
864.25
 21
1963.738263
 31
0.0
  0
LINE
  5
1F1
100
AcDbEntity
  8
本体
  6
CONTINUOUS
 62
     2
100
AcDbLine
 10
867.25
 20
1981.238263
 30
0.0
 11
867.25
 21
1966.738263
 31
0.0
  0
ARC
  5
1F2
100
AcDbEntity
  8
本体
  6
CONTINUOUS
 62
     2
100
AcDbCircle
 10
864.25
 20
1966.738263
 30
0.0
 40
3.0
100
AcDbArc
 50
270.0
 51
0.0
  0
ARC
  5
1F3
100
AcDbEntity
  8
本体
  6
CONTINUOUS
 62
     2
100
AcDbCircle
 10
864.25
 20
2006.238263
 30
0.0
 40
3.0
100
AcDbArc
 50
0.0
 51
90.0
  0
LINE
  5
1F4
100
AcDbEntity
  8
本体
  6
CONTINUOUS
 62
     2
100
AcDbLine
 10
867.25
 20
2006.238263
 30
0.0
 11
867.25
 21
1991.738263
 31
0.0
  0
ARC
  5
1F5
100
AcDbEntity
  8
本体
  6
CONTINUOUS
 62
     2
100
AcDbCircle
 10
864.25
 20
1991.738263
 30
0.0
 40
3.0
100
AcDbArc
 50
270.0
 51
0.0
  0
LINE
  5
1F6
100
AcDbEntity
  8
本体
  6
CONTINUOUS
 62
     2
100
AcDbLine
 10
719.75
 20
1988.738263
 30
0.0
 11
864.25
 21
1988.738263
 31
0.0
  0
ARC
  5
1F7
100
AcDbEntity
  8
本体
  6
CONTINUOUS
 62
     2
100
AcDbCircle
 10
719.75
 20
1991.738263
 30
0.0
 40
3.0
100
AcDbArc
 50
180.0
 51
270.0
  0
LINE
  5
1F8
100
AcDbEntity
  8
本体
  6
CONTINUOUS
 62
     2
100
AcDbLine
 10
719.75
 20
2009.238263
 30
0.0
 11
864.25
 21
2009.238263
 31
0.0
  0
LINE
  5
1F9
100
AcDbEntity
  8
本体
  6
CONTINUOUS
 62
     2
100
AcDbLine
 10
716.75
 20
1991.738263
 30
0.0
 11
716.75
 21
2006.238263
 31
0.0
  0
ARC
  5
1FA
100
AcDbEntity
  8
本体
  6
CONTINUOUS
 62
     2
100
AcDbCircle
 10
719.75
 20
2006.238263
 30
0.0
 40
3.0
100
AcDbArc
 50
90.0
 51
180.0
  0
LINE
  5
1FB
100
AcDbEntity
  8
本体
  6
CONTINUOUS
 62
     2
100
AcDbLine
 10
867.25
 20
1906.238263
 30
0.0
 11
867.25
 21
1891.738263
 31
0.0
  0
ARC
  5
1FC
100
AcDbEntity
  8
本体
  6
CONTINUOUS
 62
     2
100
AcDbCircle
 10
864.25
 20
1906.238263
 30
0.0
 40
3.0
100
AcDbArc
 50
0.0
 51
90.0
  0
LINE
  5
1FD
100
AcDbEntity
  8
本体
  6
CONTINUOUS
 62
     2
100
AcDbLine
 10
719.75
 20
1909.238263
 30
0.0
 11
864.25
 21
1909.238263
 31
0.0
  0
LINE
  5
1FE
100
AcDbEntity
  8
本体
  6
CONTINUOUS
 62
     2
100
AcDbLine
 10
716.75
 20
1891.738263
 30
0.0
 11
716.75
 21
1906.238263
 31
0.0
  0
ARC
  5
1FF
100
AcDbEntity
  8
本体
  6
CONTINUOUS
 62
     2
100
AcDbCircle
 10
719.75
 20
1906.238263
 30
0.0
 40
3.0
100
AcDbArc
 50
90.0
 51
180.0
  0
ARC
  5
200
100
AcDbEntity
  8
本体
  6
CONTINUOUS
 62
     2
100
AcDbCircle
 10
719.75
 20
1916.738263
 30
0.0
 40
3.0
100
AcDbArc
 50
180.0
 51
270.0
  0
LINE
  5
201
100
AcDbEntity
  8
本体
  6
CONTINUOUS
 62
     2
100
AcDbLine
 10
719.75
 20
1913.738263
 30
0.0
 11
864.25
 21
1913.738263
 31
0.0
  0
ARC
  5
202
100
AcDbEntity
  8
本体
  6
CONTINUOUS
 62
     2
100
AcDbCircle
 10
864.25
 20
1916.738263
 30
0.0
 40
3.0
100
AcDbArc
 50
270.0
 51
0.0
  0
ARC
  5
203
100
AcDbEntity
  8
本体
  6
CONTINUOUS
 62
     2
100
AcDbCircle
 10
712.0
 20
1853.988263
 30
0.0
 40
20.0
100
AcDbArc
 50
5.73917
 51
84.26083
  0
ARC
  5
204
100
AcDbEntity
  8
本体
  6
CONTINUOUS
 62
     2
100
AcDbCircle
 10
754.5
 20
1896.488263
 30
0.0
 40
37.75
100
AcDbArc
 50
206.030461
 51
270.0
  0
ARC
  5
205
100
AcDbEntity
  8
本体
  6
CONTINUOUS
 62
     2
100
AcDbCircle
 10
723.27501
 20
1881.238263
 30
0.0
 40
3.0
100
AcDbArc
 50
90.0
 51
206.030461
  0
LINE
  5
206
100
AcDbEntity
  8
本体
  6
CONTINUOUS
 62
     2
100
AcDbLine
 10
723.27501
 20
1884.238263
 30
0.0
 11
864.25
 21
1884.238263
 31
0.0
  0
ARC
  5
207
100
AcDbEntity
  8
本体
  6
CONTINUOUS
 62
     2
100
AcDbCircle
 10
864.25
 20
1881.238263
 30
0.0
 40
3.0
100
AcDbArc
 50
0.0
 51
90.0
  0
LINE
  5
208
100
AcDbEntity
  8
本体
  6
CONTINUOUS
 62
     2
100
AcDbLine
 10
864.25
 20
1858.738263
 30
0.0
 11
754.5
 21
1858.738263
 31
0.0
  0
LINE
  5
209
100
AcDbEntity
  8
本体
  6
CONTINUOUS
 62
     2
100
AcDbLine
 10
867.25
 20
1881.238263
 30
0.0
 11
867.25
 21
1861.738263
 31
0.0
  0
ARC
  5
20A
100
AcDbEntity
  8
本体
  6
CONTINUOUS
 62
     2
100
AcDbCircle
 10
864.25
 20
1861.738263
 30
0.0
 40
3.0
100
AcDbArc
 50
270.0
 51
0.0
  0
ARC
  5
20B
100
AcDbEntity
  8
本体
  6
CONTINUOUS
 62
     2
100
AcDbCircle
 10
864.25
 20
1891.738263
 30
0.0
 40
3.0
100
AcDbArc
 50
270.0
 51
0.0
  0
LINE
  5
20C
100
AcDbEntity
  8
本体
  6
CONTINUOUS
 62
     2
100
AcDbLine
 10
719.75
 20
1888.738263
 30
0.0
 11
864.25
 21
1888.738263
 31
0.0
  0
ARC
  5
20D
100
AcDbEntity
  8
本体
  6
CONTINUOUS
 62
     2
100
AcDbCircle
 10
719.75
 20
1891.738263
 30
0.0
 40
3.0
100
AcDbArc
 50
180.0
 51
270.0
  0
CIRCLE
  5
20E
100
AcDbEntity
  8
本体
  6
CONTINUOUS
 62
     2
100
AcDbCircle
 10
712.0
 20
1853.988263
 30
0.0
 40
12.1
  0
DIMENSION
  5
21A
100
AcDbEntity
  8
本体
  6
CONTINUOUS
 62
     3
100
AcDbDimension
  2
*D15
 10
609.5
 20
1853.988263
 30
0.0
 11
586.0
 21
2151.488263
 31
0.0
 70
   160
  3
STANDARD
100
AcDbAlignedDimension
 13
712.0
 23
2448.988263
 33
0.0
 14
712.0
 24
1853.988263
 34
0.0
 50
90.0
100
AcDbRotatedDimension
1001
ACAD
1000
DSTYLE
1002
{
1070
     6
1000
_EX_NORM
1070
     7
1000
_EX_NORM
1070
    41
1040
35.0
1070
    42
1040
0.0
1070
    44
1040
0.0
1070
    73
1070
     0
1070
    74
1070
     0
1070
    75
1070
     0
1070
    76
1070
     0
1070
    77
1070
     1
1070
    78
1070
     0
1070
   140
1040
40.0
1070
   147
1040
3.5
1070
   173
1070
     1
1070
   176
1070
     3
1070
   177
1070
     3
1070
   178
1070
     2
1070
   271
1070
     0
1070
   279
1070
     2
1070
   280
1070
     0
1070
   287
1070
     5
1070
   340
1005
192
1002
}
  0
LINE
  5
21B
100
AcDbEntity
  8
本体
  6
CONTINUOUS
 62
     6
100
AcDbLine
 10
712.0
 20
1868.088263
 30
0.0
 11
712.0
 21
1839.888263
 31
0.0
  0
LINE
  5
21C
100
AcDbEntity
  8
本体
  6
CONTINUOUS
 62
     2
100
AcDbLine
 10
1282.125314
 20
1851.488263
 30
0.0
 11
736.874686
 21
1851.488263
 31
0.0
  0
ARC
  5
21D
100
AcDbEntity
  8
本体
  6
CONTINUOUS
 62
     2
100
AcDbCircle
 10
924.5
 20
1866.488263
 30
0.0
 40
10.0
100
AcDbArc
 50
180.0
 51
270.0
  0
LINE
  5
21E
100
AcDbEntity
  8
本体
  6
CONTINUOUS
 62
     2
100
AcDbLine
 10
914.5
 20
2011.488263
 30
0.0
 11
914.5
 21
1866.488263
 31
0.0
  0
LINE
  5
21F
100
AcDbEntity
  8
本体
  6
CONTINUOUS
 62
     6
100
AcDbLine
 10
1321.1
 20
2448.988263
 30
0.0
 11
1292.9
 21
2448.988263
 31
0.0
  0
ARC
  5
220
100
AcDbEntity
  8
本体
  6
CONTINUOUS
 62
     2
100
AcDbCircle
 10
1094.5
 20
2436.488263
 30
0.0
 40
10.0
100
AcDbArc
 50
0.0
 51
90.0
  0
ARC
  5
221
100
AcDbEntity
  8
本体
  6
CONTINUOUS
 62
     2
100
AcDbCircle
 10
1294.5
 20
2236.488263
 30
0.0
 40
10.0
100
AcDbArc
 50
0.0
 51
90.0
  0
ARC
  5
222
100
AcDbEntity
  8
本体
  6
CONTINUOUS
 62
     2
100
AcDbCircle
 10
1149.5
 20
2291.488263
 30
0.0
 40
45.0
100
AcDbArc
 50
180.0
 51
270.0
  0
LINE
  5
223
100
AcDbEntity
  8
本体
  6
CONTINUOUS
 62
     2
100
AcDbLine
 10
1294.5
 20
2246.488263
 30
0.0
 11
1149.5
 21
2246.488263
 31
0.0
  0
LINE
  5
224
100
AcDbEntity
  8
本体
  6
CONTINUOUS
 62
     2
100
AcDbLine
 10
1104.5
 20
2291.488263
 30
0.0
 11
1104.5
 21
2436.488263
 31
0.0
  0
ARC
  5
225
100
AcDbEntity
  8
本体
  6
CONTINUOUS
 62
     2
100
AcDbCircle
 10
1304.5
 20
2424.113577
 30
0.0
 40
5.0
100
AcDbArc
 50
0.0
 51
84.26083
  0
ARC
  5
226
100
AcDbEntity
  8
本体
  6
CONTINUOUS
 62
     2
100
AcDbCircle
 10
1307.0
 20
2448.988263
 30
0.0
 40
20.0
100
AcDbArc
 50
185.73917
 51
264.26083
  0
ARC
  5
227
100
AcDbEntity
  8
本体
  6
CONTINUOUS
 62
     2
100
AcDbCircle
 10
1282.125314
 20
2446.488263
 30
0.0
 40
5.0
100
AcDbArc
 50
5.73917
 51
90.0
  0
LINE
  5
228
100
AcDbEntity
  8
本体
  6
CONTINUOUS
 62
     2
100
AcDbLine
 10
1307.0
 20
2434.888263
 30
0.0
 11
1307.0
 21
2463.088263
 31
0.0
  0
ARC
  5
229
100
AcDbEntity
  8
本体
  6
CONTINUOUS
 62
     2
100
AcDbCircle
 10
1129.5
 20
2441.488263
 30
0.0
 40
10.0
100
AcDbArc
 50
0.0
 51
90.0
  0
ARC
  5
22A
100
AcDbEntity
  8
本体
  6
CONTINUOUS
 62
     2
100
AcDbCircle
 10
1299.5
 20
2271.488263
 30
0.0
 40
10.0
100
AcDbArc
 50
0.0
 51
90.0
  0
ARC
  5
22B
100
AcDbEntity
  8
本体
  6
CONTINUOUS
 62
     2
100
AcDbCircle
 10
1149.5
 20
2291.488263
 30
0.0
 40
10.0
100
AcDbArc
 50
180.0
 51
270.0
  0
LINE
  5
22C
100
AcDbEntity
  8
本体
  6
CONTINUOUS
 62
     2
100
AcDbLine
 10
1299.5
 20
2281.488263
 30
0.0
 11
1149.5
 21
2281.488263
 31
0.0
  0
LINE
  5
22D
100
AcDbEntity
  8
本体
  6
CONTINUOUS
 62
     2
100
AcDbLine
 10
1139.5
 20
2441.488263
 30
0.0
 11
1139.5
 21
2291.488263
 31
0.0
  0
ARC
  5
22E
100
AcDbEntity
  8
本体
  6
CONTINUOUS
 62
     2
100
AcDbCircle
 10
1264.5
 20
2406.488263
 30
0.0
 40
37.75
100
AcDbArc
 50
26.030461
 51
90.0
  0
ARC
  5
22F
100
AcDbEntity
  8
本体
  6
CONTINUOUS
 62
     2
100
AcDbCircle
 10
1295.72499
 20
2421.738263
 30
0.0
 40
3.0
100
AcDbArc
 50
270.0
 51
26.030461
  0
LINE
  5
230
100
AcDbEntity
  8
本体
  6
CONTINUOUS
 62
     2
100
AcDbLine
 10
1295.72499
 20
2418.738263
 30
0.0
 11
1154.75
 21
2418.738263
 31
0.0
  0
ARC
  5
231
100
AcDbEntity
  8
本体
  6
CONTINUOUS
 62
     2
100
AcDbCircle
 10
1154.75
 20
2421.738263
 30
0.0
 40
3.0
100
AcDbArc
 50
180.0
 51
270.0
  0
LINE
  5
232
100
AcDbEntity
  8
本体
  6
CONTINUOUS
 62
     2
100
AcDbLine
 10
1154.75
 20
2444.238263
 30
0.0
 11
1264.5
 21
2444.238263
 31
0.0
  0
LINE
  5
233
100
AcDbEntity
  8
本体
  6
CONTINUOUS
 62
     2
100
AcDbLine
 10
1151.75
 20
2421.738263
 30
0.0
 11
1151.75
 21
2441.238263
 31
0.0
  0
ARC
  5
234
100
AcDbEntity
  8
本体
  6
CONTINUOUS
 62
     2
100
AcDbCircle
 10
1154.75
 20
2441.238263
 30
0.0
 40
3.0
100
AcDbArc
 50
90.0
 51
180.0
  0
ARC
  5
235
100
AcDbEntity
  8
本体
  6
CONTINUOUS
 62
     2
100
AcDbCircle
 10
1154.75
 20
2411.238263
 30
0.0
 40
3.0
100
AcDbArc
 50
90.0
 51
180.0
  0
LINE
  5
236
100
AcDbEntity
  8
本体
  6
CONTINUOUS
 62
     2
100
AcDbLine
 10
1151.75
 20
2396.738263
 30
0.0
 11
1151.75
 21
2411.238263
 31
0.0
  0
ARC
  5
237
100
AcDbEntity
  8
本体
  6
CONTINUOUS
 62
     2
100
AcDbCircle
 10
1154.75
 20
2396.738263
 30
0.0
 40
3.0
100
AcDbArc
 50
180.0
 51
270.0
  0
LINE
  5
238
100
AcDbEntity
  8
本体
  6
CONTINUOUS
 62
     2
100
AcDbLine
 10
1299.25
 20
2414.238263
 30
0.0
 11
1154.75
 21
2414.238263
 31
0.0
  0
ARC
  5
239
100
AcDbEntity
  8
本体
  6
CONTINUOUS
 62
     2
100
AcDbCircle
 10
1299.25
 20
2411.238263
 30
0.0
 40
3.0
100
AcDbArc
 50
0.0
 51
90.0
  0
LINE
  5
23A
100
AcDbEntity
  8
本体
  6
CONTINUOUS
 62
     2
100
AcDbLine
 10
1299.25
 20
2393.738263
 30
0.0
 11
1154.75
 21
2393.738263
 31
0.0
  0
LINE
  5
23B
100
AcDbEntity
  8
本体
  6
CONTINUOUS
 62
     2
100
AcDbLine
 10
1302.25
 20
2411.238263
 30
0.0
 11
1302.25
 21
2396.738263
 31
0.0
  0
ARC
  5
23C
100
AcDbEntity
  8
本体
  6
CONTINUOUS
 62
     2
100
AcDbCircle
 10
1299.25
 20
2396.738263
 30
0.0
 40
3.0
100
AcDbArc
 50
270.0
 51
0.0
  0
ARC
  5
23D
100
AcDbEntity
  8
本体
  6
CONTINUOUS
 62
     2
100
AcDbCircle
 10
1299.25
 20
2386.238263
 30
0.0
 40
3.0
100
AcDbArc
 50
0.0
 51
90.0
  0
LINE
  5
23E
100
AcDbEntity
  8
本体
  6
CONTINUOUS
 62
     2
100
AcDbLine
 10
1302.25
 20
2386.238263
 30
0.0
 11
1302.25
 21
2371.738263
 31
0.0
  0
ARC
  5
23F
100
AcDbEntity
  8
本体
  6
CONTINUOUS
 62
     2
100
AcDbCircle
 10
1299.25
 20
2371.738263
 30
0.0
 40
3.0
100
AcDbArc
 50
270.0
 51
0.0
  0
LINE
  5
240
100
AcDbEntity
  8
本体
  6
CONTINUOUS
 62
     2
100
AcDbLine
 10
1299.25
 20
2368.738263
 30
0.0
 11
1154.75
 21
2368.738263
 31
0.0
  0
ARC
  5
241
100
AcDbEntity
  8
本体
  6
CONTINUOUS
 62
     2
100
AcDbCircle
 10
1154.75
 20
2371.738263
 30
0.0
 40
3.0
100
AcDbArc
 50
180.0
 51
270.0
  0
LINE
  5
242
100
AcDbEntity
  8
本体
  6
CONTINUOUS
 62
     2
100
AcDbLine
 10
1299.25
 20
2389.238263
 30
0.0
 11
1154.75
 21
2389.238263
 31
0.0
  0
LINE
  5
243
100
AcDbEntity
  8
本体
  6
CONTINUOUS
 62
     2
100
AcDbLine
 10
1151.75
 20
2371.738263
 30
0.0
 11
1151.75
 21
2386.238263
 31
0.0
  0
ARC
  5
244
100
AcDbEntity
  8
本体
  6
CONTINUOUS
 62
     2
100
AcDbCircle
 10
1154.75
 20
2386.238263
 30
0.0
 40
3.0
100
AcDbArc
 50
90.0
 51
180.0
  0
ARC
  5
245
100
AcDbEntity
  8
本体
  6
CONTINUOUS
 62
     2
100
AcDbCircle
 10
1299.25
 20
2361.238263
 30
0.0
 40
3.0
100
AcDbArc
 50
0.0
 51
90.0
  0
LINE
  5
246
100
AcDbEntity
  8
本体
  6
CONTINUOUS
 62
     2
100
AcDbLine
 10
1302.25
 20
2361.238263
 30
0.0
 11
1302.25
 21
2346.738263
 31
0.0
  0
ARC
  5
247
100
AcDbEntity
  8
本体
  6
CONTINUOUS
 62
     2
100
AcDbCircle
 10
1299.25
 20
2346.738263
 30
0.0
 40
3.0
100
AcDbArc
 50
270.0
 51
0.0
  0
LINE
  5
248
100
AcDbEntity
  8
本体
  6
CONTINUOUS
 62
     2
100
AcDbLine
 10
1299.25
 20
2343.738263
 30
0.0
 11
1154.75
 21
2343.738263
 31
0.0
  0
ARC
  5
249
100
AcDbEntity
  8
本体
  6
CONTINUOUS
 62
     2
100
AcDbCircle
 10
1154.75
 20
2346.738263
 30
0.0
 40
3.0
100
AcDbArc
 50
180.0
 51
270.0
  0
LINE
  5
24A
100
AcDbEntity
  8
本体
  6
CONTINUOUS
 62
     2
100
AcDbLine
 10
1299.25
 20
2364.238263
 30
0.0
 11
1154.75
 21
2364.238263
 31
0.0
  0
LINE
  5
24B
100
AcDbEntity
  8
本体
  6
CONTINUOUS
 62
     2
100
AcDbLine
 10
1151.75
 20
2346.738263
 30
0.0
 11
1151.75
 21
2361.238263
 31
0.0
  0
ARC
  5
24C
100
AcDbEntity
  8
本体
  6
CONTINUOUS
 62
     2
100
AcDbCircle
 10
1154.75
 20
2361.238263
 30
0.0
 40
3.0
100
AcDbArc
 50
90.0
 51
180.0
  0
ARC
  5
24D
100
AcDbEntity
  8
本体
  6
CONTINUOUS
 62
     2
100
AcDbCircle
 10
1299.25
 20
2336.238263
 30
0.0
 40
3.0
100
AcDbArc
 50
0.0
 51
90.0
  0
LINE
  5
24E
100
AcDbEntity
  8
本体
  6
CONTINUOUS
 62
     2
100
AcDbLine
 10
1302.25
 20
2336.238263
 30
0.0
 11
1302.25
 21
2321.738263
 31
0.0
  0
ARC
  5
24F
100
AcDbEntity
  8
本体
  6
CONTINUOUS
 62
     2
100
AcDbCircle
 10
1299.25
 20
2321.738263
 30
0.0
 40
3.0
100
AcDbArc
 50
270.0
 51
0.0
  0
LINE
  5
250
100
AcDbEntity
  8
本体
  6
CONTINUOUS
 62
     2
100
AcDbLine
 10
1299.25
 20
2318.738263
 30
0.0
 11
1154.75
 21
2318.738263
 31
0.0
  0
ARC
  5
251
100
AcDbEntity
  8
本体
  6
CONTINUOUS
 62
     2
100
AcDbCircle
 10
1154.75
 20
2321.738263
 30
0.0
 40
3.0
100
AcDbArc
 50
180.0
 51
270.0
  0
LINE
  5
252
100
AcDbEntity
  8
本体
  6
CONTINUOUS
 62
     2
100
AcDbLine
 10
1299.25
 20
2339.238263
 30
0.0
 11
1154.75
 21
2339.238263
 31
0.0
  0
LINE
  5
253
100
AcDbEntity
  8
本体
  6
CONTINUOUS
 62
     2
100
AcDbLine
 10
1151.75
 20
2321.738263
 30
0.0
 11
1151.75
 21
2336.238263
 31
0.0
  0
ARC
  5
254
100
AcDbEntity
  8
本体
  6
CONTINUOUS
 62
     2
100
AcDbCircle
 10
1154.75
 20
2336.238263
 30
0.0
 40
3.0
100
AcDbArc
 50
90.0
 51
180.0
  0
ARC
  5
255
100
AcDbEntity
  8
本体
  6
CONTINUOUS
 62
     2
100
AcDbCircle
 10
1154.75
 20
2296.738263
 30
0.0
 40
3.0
100
AcDbArc
 50
180.0
 51
270.0
  0
LINE
  5
256
100
AcDbEntity
  8
本体
  6
CONTINUOUS
 62
     2
100
AcDbLine
 10
1151.75
 20
2296.738263
 30
0.0
 11
1151.75
 21
2311.238263
 31
0.0
  0
ARC
  5
257
100
AcDbEntity
  8
本体
  6
CONTINUOUS
 62
     2
100
AcDbCircle
 10
1154.75
 20
2311.238263
 30
0.0
 40
3.0
100
AcDbArc
 50
90.0
 51
180.0
  0
LINE
  5
258
100
AcDbEntity
  8
本体
  6
CONTINUOUS
 62
     2
100
AcDbLine
 10
1299.25
 20
2314.238263
 30
0.0
 11
1154.75
 21
2314.238263
 31
0.0
  0
ARC
  5
259
100
AcDbEntity
  8
本体
  6
CONTINUOUS
 62
     2
100
AcDbCircle
 10
1299.25
 20
2311.238263
 30
0.0
 40
3.0
100
AcDbArc
 50
0.0
 51
90.0
  0
LINE
  5
25A
100
AcDbEntity
  8
本体
  6
CONTINUOUS
 62
     2
100
AcDbLine
 10
1299.25
 20
2293.738263
 30
0.0
 11
1154.75
 21
2293.738263
 31
0.0
  0
LINE
  5
25B
100
AcDbEntity
  8
本体
  6
CONTINUOUS
 62
     2
100
AcDbLine
 10
1302.25
 20
2311.238263
 30
0.0
 11
1302.25
 21
2296.738263
 31
0.0
  0
ARC
  5
25C
100
AcDbEntity
  8
本体
  6
CONTINUOUS
 62
     2
100
AcDbCircle
 10
1299.25
 20
2296.738263
 30
0.0
 40
3.0
100
AcDbArc
 50
270.0
 51
0.0
  0
CIRCLE
  5
25D
100
AcDbEntity
  8
本体
  6
CONTINUOUS
 62
     2
100
AcDbCircle
 10
1307.0
 20
2448.988263
 30
0.0
 40
12.1
  0
LINE
  5
25E
100
AcDbEntity
  8
本体
  6
CONTINUOUS
 62
     2
100
AcDbLine
 10
1309.5
 20
2424.113577
 30
0.0
 11
1309.5
 21
1878.862949
 31
0.0
  0
ARC
  5
25F
100
AcDbEntity
  8
本体
  6
CONTINUOUS
 62
     2
100
AcDbCircle
 10
1304.5
 20
1878.862949
 30
0.0
 40
5.0
100
AcDbArc
 50
275.73917
 51
0.0
  0
ARC
  5
260
100
AcDbEntity
  8
本体
  6
CONTINUOUS
 62
     2
100
AcDbCircle
 10
1299.5
 20
2031.488263
 30
0.0
 40
10.0
100
AcDbArc
 50
270.0
 51
0.0
  0
ARC
  5
261
100
AcDbEntity
  8
本体
  6
CONTINUOUS
 62
     2
100
AcDbCircle
 10
1282.125314
 20
1856.488263
 30
0.0
 40
5.0
100
AcDbArc
 50
270.0
 51
354.26083
  0
ARC
  5
262
100
AcDbEntity
  8
本体
  6
CONTINUOUS
 62
     2
100
AcDbCircle
 10
1307.0
 20
1853.988263
 30
0.0
 40
20.0
100
AcDbArc
 50
95.73917
 51
174.26083
  0
ARC
  5
263
100
AcDbEntity
  8
本体
  6
CONTINUOUS
 62
     2
100
AcDbCircle
 10
1129.5
 20
1861.488263
 30
0.0
 40
10.0
100
AcDbArc
 50
270.0
 51
0.0
  0
ARC
  5
264
100
AcDbEntity
  8
本体
  6
CONTINUOUS
 62
     2
100
AcDbCircle
 10
1094.5
 20
1866.488263
 30
0.0
 40
10.0
100
AcDbArc
 50
270.0
 51
0.0
  0
ARC
  5
265
100
AcDbEntity
  8
本体
  6
CONTINUOUS
 62
     2
100
AcDbCircle
 10
1294.5
 20
2066.488263
 30
0.0
 40
10.0
100
AcDbArc
 50
270.0
 51
0.0
  0
ARC
  5
266
100
AcDbEntity
  8
本体
  6
CONTINUOUS
 62
     2
100
AcDbCircle
 10
1149.5
 20
2011.488263
 30
0.0
 40
10.0
100
AcDbArc
 50
90.0
 51
180.0
  0
ARC
  5
267
100
AcDbEntity
  8
本体
  6
CONTINUOUS
 62
     2
100
AcDbCircle
 10
1149.5
 20
2011.488263
 30
0.0
 40
45.0
100
AcDbArc
 50
90.0
 51
180.0
  0
LINE
  5
268
100
AcDbEntity
  8
本体
  6
CONTINUOUS
 62
     2
100
AcDbLine
 10
1299.5
 20
2021.488263
 30
0.0
 11
1149.5
 21
2021.488263
 31
0.0
  0
LINE
  5
269
100
AcDbEntity
  8
本体
  6
CONTINUOUS
 62
     2
100
AcDbLine
 10
1294.5
 20
2056.488263
 30
0.0
 11
1149.5
 21
2056.488263
 31
0.0
  0
LINE
  5
26A
100
AcDbEntity
  8
本体
  6
CONTINUOUS
 62
     2
100
AcDbLine
 10
1139.5
 20
1861.488263
 30
0.0
 11
1139.5
 21
2011.488263
 31
0.0
  0
LINE
  5
26B
100
AcDbEntity
  8
本体
  6
CONTINUOUS
 62
     2
100
AcDbLine
 10
1104.5
 20
2011.488263
 30
0.0
 11
1104.5
 21
1866.488263
 31
0.0
  0
ARC
  5
26C
100
AcDbEntity
  8
本体
  6
CONTINUOUS
 62
     2
100
AcDbCircle
 10
1264.5
 20
1896.488263
 30
0.0
 40
37.75
100
AcDbArc
 50
270.0
 51
333.969539
  0
ARC
  5
26D
100
AcDbEntity
  8
本体
  6
CONTINUOUS
 62
     2
100
AcDbCircle
 10
1295.72499
 20
1881.238263
 30
0.0
 40
3.0
100
AcDbArc
 50
333.969539
 51
90.0
  0
LINE
  5
26E
100
AcDbEntity
  8
本体
  6
CONTINUOUS
 62
     2
100
AcDbLine
 10
1295.72499
 20
1884.238263
 30
0.0
 11
1154.75
 21
1884.238263
 31
0.0
  0
ARC
  5
26F
100
AcDbEntity
  8
本体
  6
CONTINUOUS
 62
     2
100
AcDbCircle
 10
1154.75
 20
1881.238263
 30
0.0
 40
3.0
100
AcDbArc
 50
90.0
 51
180.0
  0
LINE
  5
270
100
AcDbEntity
  8
本体
  6
CONTINUOUS
 62
     2
100
AcDbLine
 10
1154.75
 20
1858.738263
 30
0.0
 11
1264.5
 21
1858.738263
 31
0.0
  0
LINE
  5
271
100
AcDbEntity
  8
本体
  6
CONTINUOUS
 62
     2
100
AcDbLine
 10
1151.75
 20
1881.238263
 30
0.0
 11
1151.75
 21
1861.738263
 31
0.0
  0
ARC
  5
272
100
AcDbEntity
  8
本体
  6
CONTINUOUS
 62
     2
100
AcDbCircle
 10
1154.75
 20
1861.738263
 30
0.0
 40
3.0
100
AcDbArc
 50
180.0
 51
270.0
  0
ARC
  5
273
100
AcDbEntity
  8
本体
  6
CONTINUOUS
 62
     2
100
AcDbCircle
 10
1154.75
 20
1891.738263
 30
0.0
 40
3.0
100
AcDbArc
 50
180.0
 51
270.0
  0
LINE
  5
274
100
AcDbEntity
  8
本体
  6
CONTINUOUS
 62
     2
100
AcDbLine
 10
1151.75
 20
1906.238263
 30
0.0
 11
1151.75
 21
1891.738263
 31
0.0
  0
ARC
  5
275
100
AcDbEntity
  8
本体
  6
CONTINUOUS
 62
     2
100
AcDbCircle
 10
1154.75
 20
1906.238263
 30
0.0
 40
3.0
100
AcDbArc
 50
90.0
 51
180.0
  0
LINE
  5
276
100
AcDbEntity
  8
本体
  6
CONTINUOUS
 62
     2
100
AcDbLine
 10
1299.25
 20
1888.738263
 30
0.0
 11
1154.75
 21
1888.738263
 31
0.0
  0
ARC
  5
277
100
AcDbEntity
  8
本体
  6
CONTINUOUS
 62
     2
100
AcDbCircle
 10
1299.25
 20
1891.738263
 30
0.0
 40
3.0
100
AcDbArc
 50
270.0
 51
0.0
  0
LINE
  5
278
100
AcDbEntity
  8
本体
  6
CONTINUOUS
 62
     2
100
AcDbLine
 10
1299.25
 20
1909.238263
 30
0.0
 11
1154.75
 21
1909.238263
 31
0.0
  0
LINE
  5
279
100
AcDbEntity
  8
本体
  6
CONTINUOUS
 62
     2
100
AcDbLine
 10
1302.25
 20
1891.738263
 30
0.0
 11
1302.25
 21
1906.238263
 31
0.0
  0
ARC
  5
27A
100
AcDbEntity
  8
本体
  6
CONTINUOUS
 62
     2
100
AcDbCircle
 10
1299.25
 20
1906.238263
 30
0.0
 40
3.0
100
AcDbArc
 50
0.0
 51
90.0
  0
ARC
  5
27B
100
AcDbEntity
  8
本体
  6
CONTINUOUS
 62
     2
100
AcDbCircle
 10
1299.25
 20
1916.738263
 30
0.0
 40
3.0
100
AcDbArc
 50
270.0
 51
0.0
  0
LINE
  5
27C
100
AcDbEntity
  8
本体
  6
CONTINUOUS
 62
     2
100
AcDbLine
 10
1302.25
 20
1916.738263
 30
0.0
 11
1302.25
 21
1931.238263
 31
0.0
  0
ARC
  5
27D
100
AcDbEntity
  8
本体
  6
CONTINUOUS
 62
     2
100
AcDbCircle
 10
1299.25
 20
1931.238263
 30
0.0
 40
3.0
100
AcDbArc
 50
0.0
 51
90.0
  0
LINE
  5
27E
100
AcDbEntity
  8
本体
  6
CONTINUOUS
 62
     2
100
AcDbLine
 10
1299.25
 20
1934.238263
 30
0.0
 11
1154.75
 21
1934.238263
 31
0.0
  0
ARC
  5
27F
100
AcDbEntity
  8
本体
  6
CONTINUOUS
 62
     2
100
AcDbCircle
 10
1154.75
 20
1931.238263
 30
0.0
 40
3.0
100
AcDbArc
 50
90.0
 51
180.0
  0
LINE
  5
280
100
AcDbEntity
  8
本体
  6
CONTINUOUS
 62
     2
100
AcDbLine
 10
1299.25
 20
1913.738263
 30
0.0
 11
1154.75
 21
1913.738263
 31
0.0
  0
LINE
  5
281
100
AcDbEntity
  8
本体
  6
CONTINUOUS
 62
     2
100
AcDbLine
 10
1151.75
 20
1931.238263
 30
0.0
 11
1151.75
 21
1916.738263
 31
0.0
  0
ARC
  5
282
100
AcDbEntity
  8
本体
  6
CONTINUOUS
 62
     2
100
AcDbCircle
 10
1154.75
 20
1916.738263
 30
0.0
 40
3.0
100
AcDbArc
 50
180.0
 51
270.0
  0
ARC
  5
283
100
AcDbEntity
  8
本体
  6
CONTINUOUS
 62
     2
100
AcDbCircle
 10
1299.25
 20
1941.738263
 30
0.0
 40
3.0
100
AcDbArc
 50
270.0
 51
0.0
  0
LINE
  5
284
100
AcDbEntity
  8
本体
  6
CONTINUOUS
 62
     2
100
AcDbLine
 10
1302.25
 20
1941.738263
 30
0.0
 11
1302.25
 21
1956.238263
 31
0.0
  0
ARC
  5
285
100
AcDbEntity
  8
本体
  6
CONTINUOUS
 62
     2
100
AcDbCircle
 10
1299.25
 20
1956.238263
 30
0.0
 40
3.0
100
AcDbArc
 50
0.0
 51
90.0
  0
LINE
  5
286
100
AcDbEntity
  8
本体
  6
CONTINUOUS
 62
     2
100
AcDbLine
 10
1299.25
 20
1959.238263
 30
0.0
 11
1154.75
 21
1959.238263
 31
0.0
  0
ARC
  5
287
100
AcDbEntity
  8
本体
  6
CONTINUOUS
 62
     2
100
AcDbCircle
 10
1154.75
 20
1956.238263
 30
0.0
 40
3.0
100
AcDbArc
 50
90.0
 51
180.0
  0
LINE
  5
288
100
AcDbEntity
  8
本体
  6
CONTINUOUS
 62
     2
100
AcDbLine
 10
1299.25
 20
1938.738263
 30
0.0
 11
1154.75
 21
1938.738263
 31
0.0
  0
LINE
  5
289
100
AcDbEntity
  8
本体
  6
CONTINUOUS
 62
     2
100
AcDbLine
 10
1151.75
 20
1956.238263
 30
0.0
 11
1151.75
 21
1941.738263
 31
0.0
  0
ARC
  5
28A
100
AcDbEntity
  8
本体
  6
CONTINUOUS
 62
     2
100
AcDbCircle
 10
1154.75
 20
1941.738263
 30
0.0
 40
3.0
100
AcDbArc
 50
180.0
 51
270.0
  0
ARC
  5
28B
100
AcDbEntity
  8
本体
  6
CONTINUOUS
 62
     2
100
AcDbCircle
 10
1299.25
 20
1966.738263
 30
0.0
 40
3.0
100
AcDbArc
 50
270.0
 51
0.0
  0
LINE
  5
28C
100
AcDbEntity
  8
本体
  6
CONTINUOUS
 62
     2
100
AcDbLine
 10
1302.25
 20
1966.738263
 30
0.0
 11
1302.25
 21
1981.238263
 31
0.0
  0
ARC
  5
28D
100
AcDbEntity
  8
本体
  6
CONTINUOUS
 62
     2
100
AcDbCircle
 10
1299.25
 20
1981.238263
 30
0.0
 40
3.0
100
AcDbArc
 50
0.0
 51
90.0
  0
LINE
  5
28E
100
AcDbEntity
  8
本体
  6
CONTINUOUS
 62
     2
100
AcDbLine
 10
1299.25
 20
1984.238263
 30
0.0
 11
1154.75
 21
1984.238263
 31
0.0
  0
ARC
  5
28F
100
AcDbEntity
  8
本体
  6
CONTINUOUS
 62
     2
100
AcDbCircle
 10
1154.75
 20
1981.238263
 30
0.0
 40
3.0
100
AcDbArc
 50
90.0
 51
180.0
  0
LINE
  5
290
100
AcDbEntity
  8
本体
  6
CONTINUOUS
 62
     2
100
AcDbLine
 10
1299.25
 20
1963.738263
 30
0.0
 11
1154.75
 21
1963.738263
 31
0.0
  0
LINE
  5
291
100
AcDbEntity
  8
本体
  6
CONTINUOUS
 62
     2
100
AcDbLine
 10
1151.75
 20
1981.238263
 30
0.0
 11
1151.75
 21
1966.738263
 31
0.0
  0
ARC
  5
292
100
AcDbEntity
  8
本体
  6
CONTINUOUS
 62
     2
100
AcDbCircle
 10
1154.75
 20
1966.738263
 30
0.0
 40
3.0
100
AcDbArc
 50
180.0
 51
270.0
  0
ARC
  5
293
100
AcDbEntity
  8
本体
  6
CONTINUOUS
 62
     2
100
AcDbCircle
 10
1154.75
 20
2006.238263
 30
0.0
 40
3.0
100
AcDbArc
 50
90.0
 51
180.0
  0
LINE
  5
294
100
AcDbEntity
  8
本体
  6
CONTINUOUS
 62
     2
100
AcDbLine
 10
1151.75
 20
2006.238263
 30
0.0
 11
1151.75
 21
1991.738263
 31
0.0
  0
ARC
  5
295
100
AcDbEntity
  8
本体
  6
CONTINUOUS
 62
     2
100
AcDbCircle
 10
1154.75
 20
1991.738263
 30
0.0
 40
3.0
100
AcDbArc
 50
180.0
 51
270.0
  0
LINE
  5
296
100
AcDbEntity
  8
本体
  6
CONTINUOUS
 62
     2
100
AcDbLine
 10
1299.25
 20
1988.738263
 30
0.0
 11
1154.75
 21
1988.738263
 31
0.0
  0
ARC
  5
297
100
AcDbEntity
  8
本体
  6
CONTINUOUS
 62
     2
100
AcDbCircle
 10
1299.25
 20
1991.738263
 30
0.0
 40
3.0
100
AcDbArc
 50
270.0
 51
0.0
  0
LINE
  5
298
100
AcDbEntity
  8
本体
  6
CONTINUOUS
 62
     2
100
AcDbLine
 10
1299.25
 20
2009.238263
 30
0.0
 11
1154.75
 21
2009.238263
 31
0.0
  0
LINE
  5
299
100
AcDbEntity
  8
本体
  6
CONTINUOUS
 62
     2
100
AcDbLine
 10
1302.25
 20
1991.738263
 30
0.0
 11
1302.25
 21
2006.238263
 31
0.0
  0
ARC
  5
29A
100
AcDbEntity
  8
本体
  6
CONTINUOUS
 62
     2
100
AcDbCircle
 10
1299.25
 20
2006.238263
 30
0.0
 40
3.0
100
AcDbArc
 50
0.0
 51
90.0
  0
CIRCLE
  5
29B
100
AcDbEntity
  8
本体
  6
CONTINUOUS
 62
     2
100
AcDbCircle
 10
1307.0
 20
1853.988263
 30
0.0
 40
12.1
  0
LINE
  5
29C
100
AcDbEntity
  8
本体
  6
CONTINUOUS
 62
     6
100
AcDbLine
 10
1292.9
 20
1853.988263
 30
0.0
 11
1321.1
 21
1853.988263
 31
0.0
  0
LINE
  5
29D
100
AcDbEntity
  8
本体
  6
CONTINUOUS
 62
     6
100
AcDbLine
 10
1307.0
 20
1839.888263
 30
0.0
 11
1307.0
 21
1868.088263
 31
0.0
  0
ARC
  5
29E
100
AcDbEntity
  8
本体
  6
CONTINUOUS
 62
     6
100
AcDbCircle
 10
844.5
 20
1338.1
 30
0.0
 40
8.0
100
AcDbArc
 50
270.0
 51
0.0
  0
LINE
  5
29F
100
AcDbEntity
  8
本体
  6
CONTINUOUS
 62
     6
100
AcDbLine
 10
772.5
 20
1360.1
 30
0.0
 11
772.5
 21
1338.1
 31
0.0
  0
ARC
  5
2A0
100
AcDbEntity
  8
本体
  6
CONTINUOUS
 62
     6
100
AcDbCircle
 10
780.5
 20
1338.1
 30
0.0
 40
8.0
100
AcDbArc
 50
180.0
 51
270.0
  0
LINE
  5
2A1
100
AcDbEntity
  8
本体
  6
CONTINUOUS
 62
     6
100
AcDbLine
 10
780.5
 20
1330.1
 30
0.0
 11
844.5
 21
1330.1
 31
0.0
  0
LINE
  5
2A2
100
AcDbEntity
  8
本体
  6
CONTINUOUS
 62
     6
100
AcDbLine
 10
852.5
 20
1360.1
 30
0.0
 11
852.5
 21
1338.1
 31
0.0
  0
LINE
  5
2A3
100
AcDbEntity
  8
本体
  6
CONTINUOUS
 62
     6
100
AcDbLine
 10
772.5
 20
1360.1
 30
0.0
 11
852.5
 21
1360.1
 31
0.0
  0
LINE
  5
2A4
100
AcDbEntity
  8
本体
  6
CONTINUOUS
 62
     2
100
AcDbLine
 10
779.3
 20
1366.351309
 30
0.0
 11
779.3
 21
1360.1
 31
0.0
  0
LINE
  5
2A5
100
AcDbEntity
  8
本体
  6
CONTINUOUS
 62
     2
100
AcDbLine
 10
845.7
 20
1366.351309
 30
0.0
 11
845.7
 21
1360.1
 31
0.0
  0
ARC
  5
2A6
100
AcDbEntity
  8
本体
  6
CONTINUOUS
 62
     6
100
AcDbCircle
 10
798.55
 20
1358.1075
 30
0.0
 40
25.7075
100
AcDbArc
 50
239.751985
 51
300.248015
  0
ARC
  5
2A7
100
AcDbEntity
  8
本体
  6
CONTINUOUS
 62
     6
100
AcDbCircle
 10
778.204223
 20
1338.167548
 30
0.0
 40
5.852878
100
AcDbArc
 50
202.794336
 51
337.205664
  0
LINE
  5
2A8
100
AcDbEntity
  8
本体
  6
CONTINUOUS
 62
     6
100
AcDbLine
 10
783.6
 20
1360.1
 30
0.0
 11
783.6
 21
1335.9
 31
0.0
  0
LINE
  5
2A9
100
AcDbEntity
  8
本体
  6
CONTINUOUS
 62
     6
100
AcDbLine
 10
785.6
 20
1360.1
 30
0.0
 11
785.6
 21
1335.9
 31
0.0
  0
LINE
  5
2AA
100
AcDbEntity
  8
本体
  6
CONTINUOUS
 62
     6
100
AcDbLine
 10
811.5
 20
1360.1
 30
0.0
 11
811.5
 21
1335.9
 31
0.0
  0
ARC
  5
2AB
100
AcDbEntity
  8
本体
  6
CONTINUOUS
 62
     6
100
AcDbCircle
 10
826.45
 20
1358.1075
 30
0.0
 40
25.7075
100
AcDbArc
 50
239.751985
 51
300.248015
  0
ARC
  5
2AC
100
AcDbEntity
  8
本体
  6
CONTINUOUS
 62
     6
100
AcDbCircle
 10
846.795777
 20
1338.167548
 30
0.0
 40
5.852878
100
AcDbArc
 50
202.794336
 51
337.205664
  0
LINE
  5
2AD
100
AcDbEntity
  8
本体
  6
CONTINUOUS
 62
     6
100
AcDbLine
 10
813.5
 20
1360.1
 30
0.0
 11
813.5
 21
1335.9
 31
0.0
  0
LINE
  5
2AE
100
AcDbEntity
  8
本体
  6
CONTINUOUS
 62
     6
100
AcDbLine
 10
839.4
 20
1360.1
 30
0.0
 11
839.4
 21
1335.9
 31
0.0
  0
LINE
  5
2AF
100
AcDbEntity
  8
本体
  6
CONTINUOUS
 62
     6
100
AcDbLine
 10
841.4
 20
1360.1
 30
0.0
 11
841.4
 21
1335.9
 31
0.0
  0
LINE
  5
2B0
100
AcDbEntity
  8
本体
  6
CONTINUOUS
 62
     6
100
AcDbLine
 10
793.45
 20
1325.172447
 30
0.0
 11
793.45
 21
1319.994093
 31
0.0
  0
LINE
  5
2B1
100
AcDbEntity
  8
本体
  6
CONTINUOUS
 62
     6
100
AcDbLine
 10
793.45
 20
1316.172447
 30
0.0
 11
793.45
 21
1310.994093
 31
0.0
  0
LINE
  5
2B2
100
AcDbEntity
  8
本体
  6
CONTINUOUS
 62
     6
100
AcDbLine
 10
831.55
 20
1312.1
 30
0.0
 11
831.55
 21
1306.921646
 31
0.0
  0
LINE
  5
2B3
100
AcDbEntity
  8
本体
  6
CONTINUOUS
 62
     6
100
AcDbLine
 10
831.55
 20
1321.1
 30
0.0
 11
831.55
 21
1315.921646
 31
0.0
  0
LINE
  5
2B4
100
AcDbEntity
  8
本体
  6
CONTINUOUS
 62
     6
100
AcDbLine
 10
793.45
 20
1330.1
 30
0.0
 11
793.45
 21
1328.994093
 31
0.0
  0
LINE
  5
2B5
100
AcDbEntity
  8
本体
  6
CONTINUOUS
 62
     6
100
AcDbLine
 10
831.55
 20
1330.1
 30
0.0
 11
831.55
 21
1324.921646
 31
0.0
  0
ARC
  5
2B6
100
AcDbEntity
  8
本体
  6
CONTINUOUS
 62
     6
100
AcDbCircle
 10
793.1
 20
1327.120681
 30
0.0
 40
1.9
100
AcDbArc
 50
83.898913
 51
263.898913
  0
ARC
  5
2B7
100
AcDbEntity
  8
本体
  6
CONTINUOUS
 62
     6
100
AcDbCircle
 10
831.9
 20
1322.973412
 30
0.0
 40
1.9
100
AcDbArc
 50
263.898913
 51
83.898913
  0
ARC
  5
2B8
100
AcDbEntity
  8
本体
  6
CONTINUOUS
 62
     6
100
AcDbCircle
 10
793.1
 20
1318.120681
 30
0.0
 40
1.9
100
AcDbArc
 50
83.898913
 51
263.898913
  0
ARC
  5
2B9
100
AcDbEntity
  8
本体
  6
CONTINUOUS
 62
     6
100
AcDbCircle
 10
793.1
 20
1309.120681
 30
0.0
 40
1.9
100
AcDbArc
 50
83.898913
 51
263.898913
  0
ARC
  5
2BA
100
AcDbEntity
  8
本体
  6
CONTINUOUS
 62
     6
100
AcDbCircle
 10
831.9
 20
1313.973412
 30
0.0
 40
1.9
100
AcDbArc
 50
263.898913
 51
83.898913
  0
ARC
  5
2BB
100
AcDbEntity
  8
本体
  6
CONTINUOUS
 62
     6
100
AcDbCircle
 10
831.9
 20
1304.973412
 30
0.0
 40
1.9
100
AcDbArc
 50
263.898913
 51
83.898913
  0
LINE
  5
2BC
100
AcDbEntity
  8
本体
  6
CONTINUOUS
 62
     6
100
AcDbLine
 10
793.301938
 20
1329.009919
 30
0.0
 11
832.101938
 21
1324.86265
 31
0.0
  0
LINE
  5
2BD
100
AcDbEntity
  8
本体
  6
CONTINUOUS
 62
     6
100
AcDbLine
 10
831.698062
 20
1321.084174
 30
0.0
 11
792.898062
 21
1325.231442
 31
0.0
  0
LINE
  5
2BE
100
AcDbEntity
  8
本体
  6
CONTINUOUS
 62
     6
100
AcDbLine
 10
793.301938
 20
1320.009919
 30
0.0
 11
832.101938
 21
1315.86265
 31
0.0
  0
LINE
  5
2BF
100
AcDbEntity
  8
本体
  6
CONTINUOUS
 62
     6
100
AcDbLine
 10
831.698062
 20
1312.084174
 30
0.0
 11
792.898062
 21
1316.231442
 31
0.0
  0
LINE
  5
2C0
100
AcDbEntity
  8
本体
  6
CONTINUOUS
 62
     6
100
AcDbLine
 10
793.301938
 20
1311.009919
 30
0.0
 11
832.101938
 21
1306.86265
 31
0.0
  0
LINE
  5
2C1
100
AcDbEntity
  8
本体
  6
CONTINUOUS
 62
     6
100
AcDbLine
 10
831.698062
 20
1303.084174
 30
0.0
 11
792.898062
 21
1307.231442
 31
0.0
  0
LINE
  5
2C2
100
AcDbEntity
  8
本体
  6
CONTINUOUS
 62
     6
100
AcDbLine
 10
793.45
 20
1298.172447
 30
0.0
 11
793.45
 21
1292.994093
 31
0.0
  0
LINE
  5
2C3
100
AcDbEntity
  8
本体
  6
CONTINUOUS
 62
     6
100
AcDbLine
 10
831.55
 20
1294.1
 30
0.0
 11
831.55
 21
1288.921646
 31
0.0
  0
LINE
  5
2C4
100
AcDbEntity
  8
本体
  6
CONTINUOUS
 62
     6
100
AcDbLine
 10
831.55
 20
1303.1
 30
0.0
 11
831.55
 21
1297.921646
 31
0.0
  0
ARC
  5
2C5
100
AcDbEntity
  8
本体
  6
CONTINUOUS
 62
     6
100
AcDbCircle
 10
793.1
 20
1300.120681
 30
0.0
 40
1.9
100
AcDbArc
 50
83.898913
 51
263.898913
  0
ARC
  5
2C6
100
AcDbEntity
  8
本体
  6
CONTINUOUS
 62
     6
100
AcDbCircle
 10
793.1
 20
1291.120681
 30
0.0
 40
1.9
100
AcDbArc
 50
83.898913
 51
263.898913
  0
ARC
  5
2C7
100
AcDbEntity
  8
本体
  6
CONTINUOUS
 62
     6
100
AcDbCircle
 10
831.9
 20
1295.973412
 30
0.0
 40
1.9
100
AcDbArc
 50
263.898913
 51
83.898913
  0
ARC
  5
2C8
100
AcDbEntity
  8
本体
  6
CONTINUOUS
 62
     6
100
AcDbCircle
 10
831.9
 20
1286.973412
 30
0.0
 40
1.9
100
AcDbArc
 50
263.898913
 51
83.898913
  0
LINE
  5
2C9
100
AcDbEntity
  8
本体
  6
CONTINUOUS
 62
     6
100
AcDbLine
 10
793.301938
 20
1302.009919
 30
0.0
 11
832.101938
 21
1297.86265
 31
0.0
  0
LINE
  5
2CA
100
AcDbEntity
  8
本体
  6
CONTINUOUS
 62
     6
100
AcDbLine
 10
831.698062
 20
1294.084174
 30
0.0
 11
792.898062
 21
1298.231442
 31
0.0
  0
LINE
  5
2CB
100
AcDbEntity
  8
本体
  6
CONTINUOUS
 62
     6
100
AcDbLine
 10
793.301938
 20
1293.009919
 30
0.0
 11
832.101938
 21
1288.86265
 31
0.0
  0
LINE
  5
2CC
100
AcDbEntity
  8
本体
  6
CONTINUOUS
 62
     6
100
AcDbLine
 10
831.698062
 20
1285.084174
 30
0.0
 11
792.898062
 21
1289.231442
 31
0.0
  0
LINE
  5
2CD
100
AcDbEntity
  8
本体
  6
CONTINUOUS
 62
     6
100
AcDbLine
 10
793.45
 20
1280.172447
 30
0.0
 11
793.45
 21
1274.994093
 31
0.0
  0
LINE
  5
2CE
100
AcDbEntity
  8
本体
  6
CONTINUOUS
 62
     6
100
AcDbLine
 10
831.55
 20
1276.1
 30
0.0
 11
831.55
 21
1270.921646
 31
0.0
  0
LINE
  5
2CF
100
AcDbEntity
  8
本体
  6
CONTINUOUS
 62
     6
100
AcDbLine
 10
831.55
 20
1285.1
 30
0.0
 11
831.55
 21
1279.921646
 31
0.0
  0
ARC
  5
2D0
100
AcDbEntity
  8
本体
  6
CONTINUOUS
 62
     6
100
AcDbCircle
 10
793.1
 20
1282.120681
 30
0.0
 40
1.9
100
AcDbArc
 50
83.898913
 51
263.898913
  0
ARC
  5
2D1
100
AcDbEntity
  8
本体
  6
CONTINUOUS
 62
     6
100
AcDbCircle
 10
793.1
 20
1273.120681
 30
0.0
 40
1.9
100
AcDbArc
 50
83.898913
 51
263.898913
  0
ARC
  5
2D2
100
AcDbEntity
  8
本体
  6
CONTINUOUS
 62
     6
100
AcDbCircle
 10
831.9
 20
1277.973412
 30
0.0
 40
1.9
100
AcDbArc
 50
263.898913
 51
83.898913
  0
ARC
  5
2D3
100
AcDbEntity
  8
本体
  6
CONTINUOUS
 62
     6
100
AcDbCircle
 10
831.9
 20
1268.973412
 30
0.0
 40
1.9
100
AcDbArc
 50
263.898913
 51
83.898913
  0
LINE
  5
2D4
100
AcDbEntity
  8
本体
  6
CONTINUOUS
 62
     6
100
AcDbLine
 10
793.301938
 20
1284.009919
 30
0.0
 11
832.101938
 21
1279.86265
 31
0.0
  0
LINE
  5
2D5
100
AcDbEntity
  8
本体
  6
CONTINUOUS
 62
     6
100
AcDbLine
 10
831.698062
 20
1276.084174
 30
0.0
 11
792.898062
 21
1280.231442
 31
0.0
  0
LINE
  5
2D6
100
AcDbEntity
  8
本体
  6
CONTINUOUS
 62
     6
100
AcDbLine
 10
793.301938
 20
1275.009919
 30
0.0
 11
832.101938
 21
1270.86265
 31
0.0
  0
LINE
  5
2D7
100
AcDbEntity
  8
本体
  6
CONTINUOUS
 62
     6
100
AcDbLine
 10
831.698062
 20
1267.084174
 30
0.0
 11
792.898062
 21
1271.231442
 31
0.0
  0
LINE
  5
2D8
100
AcDbEntity
  8
本体
  6
CONTINUOUS
 62
     6
100
AcDbLine
 10
793.45
 20
1262.172447
 30
0.0
 11
793.45
 21
1256.994093
 31
0.0
  0
LINE
  5
2D9
100
AcDbEntity
  8
本体
  6
CONTINUOUS
 62
     6
100
AcDbLine
 10
831.55
 20
1258.1
 30
0.0
 11
831.55
 21
1252.921646
 31
0.0
  0
LINE
  5
2DA
100
AcDbEntity
  8
本体
  6
CONTINUOUS
 62
     6
100
AcDbLine
 10
831.55
 20
1267.1
 30
0.0
 11
831.55
 21
1261.921646
 31
0.0
  0
ARC
  5
2DB
100
AcDbEntity
  8
本体
  6
CONTINUOUS
 62
     6
100
AcDbCircle
 10
793.1
 20
1264.120681
 30
0.0
 40
1.9
100
AcDbArc
 50
83.898913
 51
263.898913
  0
ARC
  5
2DC
100
AcDbEntity
  8
本体
  6
CONTINUOUS
 62
     6
100
AcDbCircle
 10
793.1
 20
1255.120681
 30
0.0
 40
1.9
100
AcDbArc
 50
83.898913
 51
263.898913
  0
ARC
  5
2DD
100
AcDbEntity
  8
本体
  6
CONTINUOUS
 62
     6
100
AcDbCircle
 10
831.9
 20
1259.973412
 30
0.0
 40
1.9
100
AcDbArc
 50
263.898913
 51
83.898913
  0
ARC
  5
2DE
100
AcDbEntity
  8
本体
  6
CONTINUOUS
 62
     6
100
AcDbCircle
 10
831.9
 20
1250.973412
 30
0.0
 40
1.9
100
AcDbArc
 50
263.898913
 51
83.898913
  0
LINE
  5
2DF
100
AcDbEntity
  8
本体
  6
CONTINUOUS
 62
     6
100
AcDbLine
 10
793.301938
 20
1266.009919
 30
0.0
 11
832.101938
 21
1261.86265
 31
0.0
  0
LINE
  5
2E0
100
AcDbEntity
  8
本体
  6
CONTINUOUS
 62
     6
100
AcDbLine
 10
831.698062
 20
1258.084174
 30
0.0
 11
792.898062
 21
1262.231442
 31
0.0
  0
LINE
  5
2E1
100
AcDbEntity
  8
本体
  6
CONTINUOUS
 62
     6
100
AcDbLine
 10
793.301938
 20
1257.009919
 30
0.0
 11
832.101938
 21
1252.86265
 31
0.0
  0
LINE
  5
2E2
100
AcDbEntity
  8
本体
  6
CONTINUOUS
 62
     6
100
AcDbLine
 10
831.698062
 20
1249.084174
 30
0.0
 11
792.898062
 21
1253.231442
 31
0.0
  0
LINE
  5
2E3
100
AcDbEntity
  8
本体
  6
CONTINUOUS
 62
     6
100
AcDbLine
 10
793.45
 20
1244.172447
 30
0.0
 11
793.45
 21
1238.994093
 31
0.0
  0
LINE
  5
2E4
100
AcDbEntity
  8
本体
  6
CONTINUOUS
 62
     6
100
AcDbLine
 10
831.55
 20
1240.1
 30
0.0
 11
831.55
 21
1234.921646
 31
0.0
  0
LINE
  5
2E5
100
AcDbEntity
  8
本体
  6
CONTINUOUS
 62
     6
100
AcDbLine
 10
831.55
 20
1249.1
 30
0.0
 11
831.55
 21
1243.921646
 31
0.0
  0
ARC
  5
2E6
100
AcDbEntity
  8
本体
  6
CONTINUOUS
 62
     6
100
AcDbCircle
 10
793.1
 20
1246.120681
 30
0.0
 40
1.9
100
AcDbArc
 50
83.898913
 51
263.898913
  0
ARC
  5
2E7
100
AcDbEntity
  8
本体
  6
CONTINUOUS
 62
     6
100
AcDbCircle
 10
793.1
 20
1237.120681
 30
0.0
 40
1.9
100
AcDbArc
 50
83.898913
 51
263.898913
  0
ARC
  5
2E8
100
AcDbEntity
  8
本体
  6
CONTINUOUS
 62
     6
100
AcDbCircle
 10
831.9
 20
1241.973412
 30
0.0
 40
1.9
100
AcDbArc
 50
263.898913
 51
83.898913
  0
ARC
  5
2E9
100
AcDbEntity
  8
本体
  6
CONTINUOUS
 62
     6
100
AcDbCircle
 10
831.9
 20
1232.973412
 30
0.0
 40
1.9
100
AcDbArc
 50
263.898913
 51
83.898913
  0
LINE
  5
2EA
100
AcDbEntity
  8
本体
  6
CONTINUOUS
 62
     6
100
AcDbLine
 10
793.301938
 20
1248.009919
 30
0.0
 11
832.101938
 21
1243.86265
 31
0.0
  0
LINE
  5
2EB
100
AcDbEntity
  8
本体
  6
CONTINUOUS
 62
     6
100
AcDbLine
 10
831.698062
 20
1240.084174
 30
0.0
 11
792.898062
 21
1244.231442
 31
0.0
  0
LINE
  5
2EC
100
AcDbEntity
  8
本体
  6
CONTINUOUS
 62
     6
100
AcDbLine
 10
793.301938
 20
1239.009919
 30
0.0
 11
832.101938
 21
1234.86265
 31
0.0
  0
LINE
  5
2ED
100
AcDbEntity
  8
本体
  6
CONTINUOUS
 62
     6
100
AcDbLine
 10
831.698062
 20
1231.084174
 30
0.0
 11
792.898062
 21
1235.231442
 31
0.0
  0
LINE
  5
2EE
100
AcDbEntity
  8
本体
  6
CONTINUOUS
 62
     6
100
AcDbLine
 10
793.45
 20
1226.172447
 30
0.0
 11
793.45
 21
1220.994093
 31
0.0
  0
LINE
  5
2EF
100
AcDbEntity
  8
本体
  6
CONTINUOUS
 62
     6
100
AcDbLine
 10
831.55
 20
1222.1
 30
0.0
 11
831.55
 21
1216.921646
 31
0.0
  0
LINE
  5
2F0
100
AcDbEntity
  8
本体
  6
CONTINUOUS
 62
     6
100
AcDbLine
 10
831.55
 20
1231.1
 30
0.0
 11
831.55
 21
1225.921646
 31
0.0
  0
ARC
  5
2F1
100
AcDbEntity
  8
本体
  6
CONTINUOUS
 62
     6
100
AcDbCircle
 10
793.1
 20
1228.120681
 30
0.0
 40
1.9
100
AcDbArc
 50
83.898913
 51
263.898913
  0
ARC
  5
2F2
100
AcDbEntity
  8
本体
  6
CONTINUOUS
 62
     6
100
AcDbCircle
 10
793.1
 20
1219.120681
 30
0.0
 40
1.9
100
AcDbArc
 50
83.898913
 51
263.898913
  0
ARC
  5
2F3
100
AcDbEntity
  8
本体
  6
CONTINUOUS
 62
     6
100
AcDbCircle
 10
831.9
 20
1223.973412
 30
0.0
 40
1.9
100
AcDbArc
 50
263.898913
 51
83.898913
  0
ARC
  5
2F4
100
AcDbEntity
  8
本体
  6
CONTINUOUS
 62
     6
100
AcDbCircle
 10
831.9
 20
1214.973412
 30
0.0
 40
1.9
100
AcDbArc
 50
263.898913
 51
83.898913
  0
LINE
  5
2F5
100
AcDbEntity
  8
本体
  6
CONTINUOUS
 62
     6
100
AcDbLine
 10
793.301938
 20
1230.009919
 30
0.0
 11
832.101938
 21
1225.86265
 31
0.0
  0
LINE
  5
2F6
100
AcDbEntity
  8
本体
  6
CONTINUOUS
 62
     6
100
AcDbLine
 10
831.698062
 20
1222.084174
 30
0.0
 11
792.898062
 21
1226.231442
 31
0.0
  0
LINE
  5
2F7
100
AcDbEntity
  8
本体
  6
CONTINUOUS
 62
     6
100
AcDbLine
 10
793.301938
 20
1221.009919
 30
0.0
 11
832.101938
 21
1216.86265
 31
0.0
  0
LINE
  5
2F8
100
AcDbEntity
  8
本体
  6
CONTINUOUS
 62
     6
100
AcDbLine
 10
831.698062
 20
1213.084174
 30
0.0
 11
792.898062
 21
1217.231442
 31
0.0
  0
LINE
  5
2F9
100
AcDbEntity
  8
本体
  6
CONTINUOUS
 62
     6
100
AcDbLine
 10
793.45
 20
1208.172447
 30
0.0
 11
793.45
 21
1202.994093
 31
0.0
  0
LINE
  5
2FA
100
AcDbEntity
  8
本体
  6
CONTINUOUS
 62
     6
100
AcDbLine
 10
831.55
 20
1204.1
 30
0.0
 11
831.55
 21
1198.921646
 31
0.0
  0
LINE
  5
2FB
100
AcDbEntity
  8
本体
  6
CONTINUOUS
 62
     6
100
AcDbLine
 10
831.55
 20
1213.1
 30
0.0
 11
831.55
 21
1207.921646
 31
0.0
  0
ARC
  5
2FC
100
AcDbEntity
  8
本体
  6
CONTINUOUS
 62
     6
100
AcDbCircle
 10
793.1
 20
1210.120681
 30
0.0
 40
1.9
100
AcDbArc
 50
83.898913
 51
263.898913
  0
ARC
  5
2FD
100
AcDbEntity
  8
本体
  6
CONTINUOUS
 62
     6
100
AcDbCircle
 10
793.1
 20
1201.120681
 30
0.0
 40
1.9
100
AcDbArc
 50
83.898913
 51
263.898913
  0
ARC
  5
2FE
100
AcDbEntity
  8
本体
  6
CONTINUOUS
 62
     6
100
AcDbCircle
 10
831.9
 20
1205.973412
 30
0.0
 40
1.9
100
AcDbArc
 50
263.898913
 51
83.898913
  0
ARC
  5
2FF
100
AcDbEntity
  8
本体
  6
CONTINUOUS
 62
     6
100
AcDbCircle
 10
831.9
 20
1196.973412
 30
0.0
 40
1.9
100
AcDbArc
 50
263.898913
 51
83.898913
  0
LINE
  5
300
100
AcDbEntity
  8
本体
  6
CONTINUOUS
 62
     6
100
AcDbLine
 10
793.301938
 20
1212.009919
 30
0.0
 11
832.101938
 21
1207.86265
 31
0.0
  0
LINE
  5
301
100
AcDbEntity
  8
本体
  6
CONTINUOUS
 62
     6
100
AcDbLine
 10
831.698062
 20
1204.084174
 30
0.0
 11
792.898062
 21
1208.231442
 31
0.0
  0
LINE
  5
302
100
AcDbEntity
  8
本体
  6
CONTINUOUS
 62
     6
100
AcDbLine
 10
793.301938
 20
1203.009919
 30
0.0
 11
832.101938
 21
1198.86265
 31
0.0
  0
LINE
  5
303
100
AcDbEntity
  8
本体
  6
CONTINUOUS
 62
     6
100
AcDbLine
 10
831.698062
 20
1195.084174
 30
0.0
 11
792.898062
 21
1199.231442
 31
0.0
  0
LINE
  5
304
100
AcDbEntity
  8
本体
  6
CONTINUOUS
 62
     6
100
AcDbLine
 10
793.45
 20
1190.172447
 30
0.0
 11
793.45
 21
1184.994093
 31
0.0
  0
LINE
  5
305
100
AcDbEntity
  8
本体
  6
CONTINUOUS
 62
     6
100
AcDbLine
 10
831.55
 20
1186.1
 30
0.0
 11
831.55
 21
1180.921646
 31
0.0
  0
LINE
  5
306
100
AcDbEntity
  8
本体
  6
CONTINUOUS
 62
     6
100
AcDbLine
 10
831.55
 20
1195.1
 30
0.0
 11
831.55
 21
1189.921646
 31
0.0
  0
ARC
  5
307
100
AcDbEntity
  8
本体
  6
CONTINUOUS
 62
     6
100
AcDbCircle
 10
793.1
 20
1192.120681
 30
0.0
 40
1.9
100
AcDbArc
 50
83.898913
 51
263.898913
  0
ARC
  5
308
100
AcDbEntity
  8
本体
  6
CONTINUOUS
 62
     6
100
AcDbCircle
 10
793.1
 20
1183.120681
 30
0.0
 40
1.9
100
AcDbArc
 50
83.898913
 51
263.898913
  0
ARC
  5
309
100
AcDbEntity
  8
本体
  6
CONTINUOUS
 62
     6
100
AcDbCircle
 10
831.9
 20
1187.973412
 30
0.0
 40
1.9
100
AcDbArc
 50
263.898913
 51
83.898913
  0
ARC
  5
30A
100
AcDbEntity
  8
本体
  6
CONTINUOUS
 62
     6
100
AcDbCircle
 10
831.9
 20
1178.973412
 30
0.0
 40
1.9
100
AcDbArc
 50
263.898913
 51
83.898913
  0
LINE
  5
30B
100
AcDbEntity
  8
本体
  6
CONTINUOUS
 62
     6
100
AcDbLine
 10
793.301938
 20
1194.009919
 30
0.0
 11
832.101938
 21
1189.86265
 31
0.0
  0
LINE
  5
30C
100
AcDbEntity
  8
本体
  6
CONTINUOUS
 62
     6
100
AcDbLine
 10
831.698062
 20
1186.084174
 30
0.0
 11
792.898062
 21
1190.231442
 31
0.0
  0
LINE
  5
30D
100
AcDbEntity
  8
本体
  6
CONTINUOUS
 62
     6
100
AcDbLine
 10
793.301938
 20
1185.009919
 30
0.0
 11
832.101938
 21
1180.86265
 31
0.0
  0
LINE
  5
30E
100
AcDbEntity
  8
本体
  6
CONTINUOUS
 62
     6
100
AcDbLine
 10
831.698062
 20
1177.084174
 30
0.0
 11
792.898062
 21
1181.231442
 31
0.0
  0
LINE
  5
30F
100
AcDbEntity
  8
本体
  6
CONTINUOUS
 62
     6
100
AcDbLine
 10
793.45
 20
1172.172447
 30
0.0
 11
793.45
 21
1166.994093
 31
0.0
  0
LINE
  5
310
100
AcDbEntity
  8
本体
  6
CONTINUOUS
 62
     6
100
AcDbLine
 10
831.55
 20
1168.1
 30
0.0
 11
831.55
 21
1162.921646
 31
0.0
  0
LINE
  5
311
100
AcDbEntity
  8
本体
  6
CONTINUOUS
 62
     6
100
AcDbLine
 10
831.55
 20
1177.1
 30
0.0
 11
831.55
 21
1171.921646
 31
0.0
  0
ARC
  5
312
100
AcDbEntity
  8
本体
  6
CONTINUOUS
 62
     6
100
AcDbCircle
 10
793.1
 20
1174.120681
 30
0.0
 40
1.9
100
AcDbArc
 50
83.898913
 51
263.898913
  0
ARC
  5
313
100
AcDbEntity
  8
本体
  6
CONTINUOUS
 62
     6
100
AcDbCircle
 10
793.1
 20
1165.120681
 30
0.0
 40
1.9
100
AcDbArc
 50
83.898913
 51
263.898913
  0
ARC
  5
314
100
AcDbEntity
  8
本体
  6
CONTINUOUS
 62
     6
100
AcDbCircle
 10
831.9
 20
1169.973412
 30
0.0
 40
1.9
100
AcDbArc
 50
263.898913
 51
83.898913
  0
ARC
  5
315
100
AcDbEntity
  8
本体
  6
CONTINUOUS
 62
     6
100
AcDbCircle
 10
831.9
 20
1160.973412
 30
0.0
 40
1.9
100
AcDbArc
 50
263.898913
 51
83.898913
  0
LINE
  5
316
100
AcDbEntity
  8
本体
  6
CONTINUOUS
 62
     6
100
AcDbLine
 10
793.301938
 20
1176.009919
 30
0.0
 11
832.101938
 21
1171.86265
 31
0.0
  0
LINE
  5
317
100
AcDbEntity
  8
本体
  6
CONTINUOUS
 62
     6
100
AcDbLine
 10
831.698062
 20
1168.084174
 30
0.0
 11
792.898062
 21
1172.231442
 31
0.0
  0
LINE
  5
318
100
AcDbEntity
  8
本体
  6
CONTINUOUS
 62
     6
100
AcDbLine
 10
793.301938
 20
1167.009919
 30
0.0
 11
832.101938
 21
1162.86265
 31
0.0
  0
LINE
  5
319
100
AcDbEntity
  8
本体
  6
CONTINUOUS
 62
     6
100
AcDbLine
 10
831.698062
 20
1159.084174
 30
0.0
 11
792.898062
 21
1163.231442
 31
0.0
  0
LINE
  5
31A
100
AcDbEntity
  8
本体
  6
EXLTYPE7
 62
     6
100
AcDbLine
 10
812.5
 20
1501.0
 30
0.0
 11
812.5
 21
1152.3
 31
0.0
  0
LINE
  5
31B
100
AcDbEntity
  8
本体
  6
CONTINUOUS
 62
     6
100
AcDbLine
 10
793.45
 20
1307.172447
 30
0.0
 11
793.45
 21
1301.994093
 31
0.0
  0
LINE
  5
31C
100
AcDbEntity
  8
本体
  6
CONTINUOUS
 62
     6
100
AcDbLine
 10
793.301938
 20
1289.188273
 30
0.0
 11
793.301938
 21
1284.009919
 31
0.0
  0
LINE
  5
31D
100
AcDbEntity
  8
本体
  6
CONTINUOUS
 62
     6
100
AcDbLine
 10
793.45
 20
1271.172447
 30
0.0
 11
793.45
 21
1265.994093
 31
0.0
  0
LINE
  5
31E
100
AcDbEntity
  8
本体
  6
CONTINUOUS
 62
     6
100
AcDbLine
 10
793.45
 20
1253.172447
 30
0.0
 11
793.45
 21
1247.994093
 31
0.0
  0
LINE
  5
31F
100
AcDbEntity
  8
本体
  6
CONTINUOUS
 62
     6
100
AcDbLine
 10
793.45
 20
1235.172447
 30
0.0
 11
793.45
 21
1229.994093
 31
0.0
  0
LINE
  5
320
100
AcDbEntity
  8
本体
  6
CONTINUOUS
 62
     6
100
AcDbLine
 10
793.45
 20
1217.172447
 30
0.0
 11
793.45
 21
1211.994093
 31
0.0
  0
LINE
  5
321
100
AcDbEntity
  8
本体
  6
CONTINUOUS
 62
     6
100
AcDbLine
 10
793.45
 20
1199.172447
 30
0.0
 11
793.45
 21
1193.994093
 31
0.0
  0
LINE
  5
322
100
AcDbEntity
  8
本体
  6
CONTINUOUS
 62
     6
100
AcDbLine
 10
793.45
 20
1181.172447
 30
0.0
 11
793.45
 21
1175.994093
 31
0.0
  0
ARC
  5
323
100
AcDbEntity
  8
本体
  6
CONTINUOUS
 62
     6
100
AcDbCircle
 10
793.1
 20
1156.120681
 30
0.0
 40
1.9
100
AcDbArc
 50
83.898913
 51
263.898913
  0
ARC
  5
324
100
AcDbEntity
  8
本体
  6
CONTINUOUS
 62
     6
100
AcDbCircle
 10
831.9
 20
1151.973412
 30
0.0
 40
1.9
100
AcDbArc
 50
263.898913
 51
83.898913
  0
LINE
  5
325
100
AcDbEntity
  8
本体
  6
CONTINUOUS
 62
     6
100
AcDbLine
 10
793.301938
 20
1158.009919
 30
0.0
 11
832.101938
 21
1153.86265
 31
0.0
  0
LINE
  5
326
100
AcDbEntity
  8
本体
  6
CONTINUOUS
 62
     6
100
AcDbLine
 10
831.698062
 20
1150.084174
 30
0.0
 11
792.898062
 21
1154.231442
 31
0.0
  0
LINE
  5
327
100
AcDbEntity
  8
本体
  6
CONTINUOUS
 62
     6
100
AcDbLine
 10
831.55
 20
1150.1
 30
0.0
 11
831.55
 21
1144.921646
 31
0.0
  0
ARC
  5
328
100
AcDbEntity
  8
本体
  6
CONTINUOUS
 62
     6
100
AcDbCircle
 10
793.1
 20
1147.120681
 30
0.0
 40
1.9
100
AcDbArc
 50
83.898913
 51
263.898913
  0
ARC
  5
329
100
AcDbEntity
  8
本体
  6
CONTINUOUS
 62
     6
100
AcDbCircle
 10
831.9
 20
1142.973412
 30
0.0
 40
1.9
100
AcDbArc
 50
263.898913
 51
83.898913
  0
LINE
  5
32A
100
AcDbEntity
  8
本体
  6
CONTINUOUS
 62
     6
100
AcDbLine
 10
793.301938
 20
1149.009919
 30
0.0
 11
832.101938
 21
1144.86265
 31
0.0
  0
LINE
  5
32B
100
AcDbEntity
  8
本体
  6
CONTINUOUS
 62
     6
100
AcDbLine
 10
793.45
 20
1127.172447
 30
0.0
 11
793.45
 21
1121.994093
 31
0.0
  0
LINE
  5
32C
100
AcDbEntity
  8
本体
  6
CONTINUOUS
 62
     6
100
AcDbLine
 10
831.55
 20
1123.1
 30
0.0
 11
831.55
 21
1117.921646
 31
0.0
  0
LINE
  5
32D
100
AcDbEntity
  8
本体
  6
CONTINUOUS
 62
     6
100
AcDbLine
 10
831.55
 20
1132.1
 30
0.0
 11
831.55
 21
1126.921646
 31
0.0
  0
ARC
  5
32E
100
AcDbEntity
  8
本体
  6
CONTINUOUS
 62
     6
100
AcDbCircle
 10
793.1
 20
1129.120681
 30
0.0
 40
1.9
100
AcDbArc
 50
83.898913
 51
263.898913
  0
ARC
  5
32F
100
AcDbEntity
  8
本体
  6
CONTINUOUS
 62
     6
100
AcDbCircle
 10
793.1
 20
1120.120681
 30
0.0
 40
1.9
100
AcDbArc
 50
83.898913
 51
263.898913
  0
ARC
  5
330
100
AcDbEntity
  8
本体
  6
CONTINUOUS
 62
     6
100
AcDbCircle
 10
831.9
 20
1124.973412
 30
0.0
 40
1.9
100
AcDbArc
 50
263.898913
 51
83.898913
  0
ARC
  5
331
100
AcDbEntity
  8
本体
  6
CONTINUOUS
 62
     6
100
AcDbCircle
 10
831.9
 20
1115.973412
 30
0.0
 40
1.9
100
AcDbArc
 50
263.898913
 51
83.898913
  0
LINE
  5
332
100
AcDbEntity
  8
本体
  6
CONTINUOUS
 62
     6
100
AcDbLine
 10
793.301938
 20
1131.009919
 30
0.0
 11
832.101938
 21
1126.86265
 31
0.0
  0
LINE
  5
333
100
AcDbEntity
  8
本体
  6
CONTINUOUS
 62
     6
100
AcDbLine
 10
831.698062
 20
1123.084174
 30
0.0
 11
792.898062
 21
1127.231442
 31
0.0
  0
LINE
  5
334
100
AcDbEntity
  8
本体
  6
CONTINUOUS
 62
     6
100
AcDbLine
 10
793.301938
 20
1122.009919
 30
0.0
 11
832.101938
 21
1117.86265
 31
0.0
  0
LINE
  5
335
100
AcDbEntity
  8
本体
  6
CONTINUOUS
 62
     6
100
AcDbLine
 10
831.698062
 20
1114.084174
 30
0.0
 11
792.898062
 21
1118.231442
 31
0.0
  0
LINE
  5
336
100
AcDbEntity
  8
本体
  6
CONTINUOUS
 62
     6
100
AcDbLine
 10
793.45
 20
1109.172447
 30
0.0
 11
793.45
 21
1103.994093
 31
0.0
  0
LINE
  5
337
100
AcDbEntity
  8
本体
  6
CONTINUOUS
 62
     6
100
AcDbLine
 10
831.55
 20
1105.1
 30
0.0
 11
831.55
 21
1099.921646
 31
0.0
  0
LINE
  5
338
100
AcDbEntity
  8
本体
  6
CONTINUOUS
 62
     6
100
AcDbLine
 10
831.55
 20
1114.1
 30
0.0
 11
831.55
 21
1108.921646
 31
0.0
  0
ARC
  5
339
100
AcDbEntity
  8
本体
  6
CONTINUOUS
 62
     6
100
AcDbCircle
 10
793.1
 20
1111.120681
 30
0.0
 40
1.9
100
AcDbArc
 50
83.898913
 51
263.898913
  0
ARC
  5
33A
100
AcDbEntity
  8
本体
  6
CONTINUOUS
 62
     6
100
AcDbCircle
 10
793.1
 20
1102.120681
 30
0.0
 40
1.9
100
AcDbArc
 50
83.898913
 51
263.898913
  0
ARC
  5
33B
100
AcDbEntity
  8
本体
  6
CONTINUOUS
 62
     6
100
AcDbCircle
 10
831.9
 20
1106.973412
 30
0.0
 40
1.9
100
AcDbArc
 50
263.898913
 51
83.898913
  0
ARC
  5
33C
100
AcDbEntity
  8
本体
  6
CONTINUOUS
 62
     6
100
AcDbCircle
 10
831.9
 20
1097.973412
 30
0.0
 40
1.9
100
AcDbArc
 50
263.898913
 51
83.898913
  0
LINE
  5
33D
100
AcDbEntity
  8
本体
  6
CONTINUOUS
 62
     6
100
AcDbLine
 10
793.301938
 20
1113.009919
 30
0.0
 11
832.101938
 21
1108.86265
 31
0.0
  0
LINE
  5
33E
100
AcDbEntity
  8
本体
  6
CONTINUOUS
 62
     6
100
AcDbLine
 10
831.698062
 20
1105.084174
 30
0.0
 11
792.898062
 21
1109.231442
 31
0.0
  0
LINE
  5
33F
100
AcDbEntity
  8
本体
  6
CONTINUOUS
 62
     6
100
AcDbLine
 10
793.301938
 20
1104.009919
 30
0.0
 11
832.101938
 21
1099.86265
 31
0.0
  0
LINE
  5
340
100
AcDbEntity
  8
本体
  6
CONTINUOUS
 62
     6
100
AcDbLine
 10
831.698062
 20
1096.084174
 30
0.0
 11
792.898062
 21
1100.231442
 31
0.0
  0
LINE
  5
341
100
AcDbEntity
  8
本体
  6
CONTINUOUS
 62
     6
100
AcDbLine
 10
793.45
 20
1091.172447
 30
0.0
 11
793.45
 21
1085.994093
 31
0.0
  0
LINE
  5
342
100
AcDbEntity
  8
本体
  6
CONTINUOUS
 62
     6
100
AcDbLine
 10
831.55
 20
1087.1
 30
0.0
 11
831.55
 21
1081.921646
 31
0.0
  0
LINE
  5
343
100
AcDbEntity
  8
本体
  6
CONTINUOUS
 62
     6
100
AcDbLine
 10
831.55
 20
1096.1
 30
0.0
 11
831.55
 21
1090.921646
 31
0.0
  0
ARC
  5
344
100
AcDbEntity
  8
本体
  6
CONTINUOUS
 62
     6
100
AcDbCircle
 10
793.1
 20
1093.120681
 30
0.0
 40
1.9
100
AcDbArc
 50
83.898913
 51
263.898913
  0
ARC
  5
345
100
AcDbEntity
  8
本体
  6
CONTINUOUS
 62
     6
100
AcDbCircle
 10
793.1
 20
1084.120681
 30
0.0
 40
1.9
100
AcDbArc
 50
83.898913
 51
263.898913
  0
ARC
  5
346
100
AcDbEntity
  8
本体
  6
CONTINUOUS
 62
     6
100
AcDbCircle
 10
831.9
 20
1088.973412
 30
0.0
 40
1.9
100
AcDbArc
 50
263.898913
 51
83.898913
  0
ARC
  5
347
100
AcDbEntity
  8
本体
  6
CONTINUOUS
 62
     6
100
AcDbCircle
 10
831.9
 20
1079.973412
 30
0.0
 40
1.9
100
AcDbArc
 50
263.898913
 51
83.898913
  0
LINE
  5
348
100
AcDbEntity
  8
本体
  6
CONTINUOUS
 62
     6
100
AcDbLine
 10
793.301938
 20
1095.009919
 30
0.0
 11
832.101938
 21
1090.86265
 31
0.0
  0
LINE
  5
349
100
AcDbEntity
  8
本体
  6
CONTINUOUS
 62
     6
100
AcDbLine
 10
831.698062
 20
1087.084174
 30
0.0
 11
792.898062
 21
1091.231442
 31
0.0
  0
LINE
  5
34A
100
AcDbEntity
  8
本体
  6
CONTINUOUS
 62
     6
100
AcDbLine
 10
793.301938
 20
1086.009919
 30
0.0
 11
832.101938
 21
1081.86265
 31
0.0
  0
LINE
  5
34B
100
AcDbEntity
  8
本体
  6
CONTINUOUS
 62
     6
100
AcDbLine
 10
831.698062
 20
1078.084174
 30
0.0
 11
792.898062
 21
1082.231442
 31
0.0
  0
LINE
  5
34C
100
AcDbEntity
  8
本体
  6
CONTINUOUS
 62
     6
100
AcDbLine
 10
793.45
 20
1073.172447
 30
0.0
 11
793.45
 21
1067.994093
 31
0.0
  0
LINE
  5
34D
100
AcDbEntity
  8
本体
  6
CONTINUOUS
 62
     6
100
AcDbLine
 10
831.55
 20
1069.1
 30
0.0
 11
831.55
 21
1063.921646
 31
0.0
  0
LINE
  5
34E
100
AcDbEntity
  8
本体
  6
CONTINUOUS
 62
     6
100
AcDbLine
 10
831.55
 20
1078.1
 30
0.0
 11
831.55
 21
1072.921646
 31
0.0
  0
ARC
  5
34F
100
AcDbEntity
  8
本体
  6
CONTINUOUS
 62
     6
100
AcDbCircle
 10
793.1
 20
1075.120681
 30
0.0
 40
1.9
100
AcDbArc
 50
83.898913
 51
263.898913
  0
ARC
  5
350
100
AcDbEntity
  8
本体
  6
CONTINUOUS
 62
     6
100
AcDbCircle
 10
793.1
 20
1066.120681
 30
0.0
 40
1.9
100
AcDbArc
 50
83.898913
 51
263.898913
  0
ARC
  5
351
100
AcDbEntity
  8
本体
  6
CONTINUOUS
 62
     6
100
AcDbCircle
 10
831.9
 20
1070.973412
 30
0.0
 40
1.9
100
AcDbArc
 50
263.898913
 51
83.898913
  0
ARC
  5
352
100
AcDbEntity
  8
本体
  6
CONTINUOUS
 62
     6
100
AcDbCircle
 10
831.9
 20
1061.973412
 30
0.0
 40
1.9
100
AcDbArc
 50
263.898913
 51
83.898913
  0
LINE
  5
353
100
AcDbEntity
  8
本体
  6
CONTINUOUS
 62
     6
100
AcDbLine
 10
793.301938
 20
1077.009919
 30
0.0
 11
832.101938
 21
1072.86265
 31
0.0
  0
LINE
  5
354
100
AcDbEntity
  8
本体
  6
CONTINUOUS
 62
     6
100
AcDbLine
 10
831.698062
 20
1069.084174
 30
0.0
 11
792.898062
 21
1073.231442
 31
0.0
  0
LINE
  5
355
100
AcDbEntity
  8
本体
  6
CONTINUOUS
 62
     6
100
AcDbLine
 10
793.301938
 20
1068.009919
 30
0.0
 11
832.101938
 21
1063.86265
 31
0.0
  0
LINE
  5
356
100
AcDbEntity
  8
本体
  6
CONTINUOUS
 62
     6
100
AcDbLine
 10
831.698062
 20
1060.084174
 30
0.0
 11
792.898062
 21
1064.231442
 31
0.0
  0
LINE
  5
357
100
AcDbEntity
  8
本体
  6
CONTINUOUS
 62
     6
100
AcDbLine
 10
793.45
 20
1154.172447
 30
0.0
 11
793.45
 21
1148.994093
 31
0.0
  0
LINE
  5
358
100
AcDbEntity
  8
本体
  6
CONTINUOUS
 62
     6
100
AcDbLine
 10
793.45
 20
1136.172447
 30
0.0
 11
793.45
 21
1130.994093
 31
0.0
  0
LINE
  5
359
100
AcDbEntity
  8
本体
  6
CONTINUOUS
 62
     6
100
AcDbLine
 10
793.45
 20
1118.172447
 30
0.0
 11
793.45
 21
1112.994093
 31
0.0
  0
LINE
  5
35A
100
AcDbEntity
  8
本体
  6
CONTINUOUS
 62
     6
100
AcDbLine
 10
793.45
 20
1100.172447
 30
0.0
 11
793.45
 21
1094.994093
 31
0.0
  0
LINE
  5
35B
100
AcDbEntity
  8
本体
  6
CONTINUOUS
 62
     6
100
AcDbLine
 10
793.45
 20
1082.172447
 30
0.0
 11
793.45
 21
1076.994093
 31
0.0
  0
LINE
  5
35C
100
AcDbEntity
  8
本体
  6
CONTINUOUS
 62
     6
100
AcDbLine
 10
793.45
 20
1163.172447
 30
0.0
 11
793.45
 21
1157.994093
 31
0.0
  0
LINE
  5
35D
100
AcDbEntity
  8
本体
  6
CONTINUOUS
 62
     6
100
AcDbLine
 10
831.55
 20
1159.1
 30
0.0
 11
831.55
 21
1153.921646
 31
0.0
  0
ARC
  5
35E
100
AcDbEntity
  8
本体
  6
CONTINUOUS
 62
     6
100
AcDbCircle
 10
793.1
 20
1057.120681
 30
0.0
 40
1.9
100
AcDbArc
 50
83.898913
 51
263.898913
  0
ARC
  5
35F
100
AcDbEntity
  8
本体
  6
CONTINUOUS
 62
     6
100
AcDbCircle
 10
831.9
 20
1052.973412
 30
0.0
 40
1.9
100
AcDbArc
 50
263.898913
 51
83.898913
  0
LINE
  5
360
100
AcDbEntity
  8
本体
  6
CONTINUOUS
 62
     6
100
AcDbLine
 10
793.301938
 20
1059.009919
 30
0.0
 11
832.101938
 21
1054.86265
 31
0.0
  0
LINE
  5
361
100
AcDbEntity
  8
本体
  6
CONTINUOUS
 62
     6
100
AcDbLine
 10
831.698062
 20
1051.084174
 30
0.0
 11
792.898062
 21
1055.231442
 31
0.0
  0
LINE
  5
362
100
AcDbEntity
  8
本体
  6
CONTINUOUS
 62
     6
100
AcDbLine
 10
793.45
 20
1046.172447
 30
0.0
 11
793.45
 21
1040.994093
 31
0.0
  0
LINE
  5
363
100
AcDbEntity
  8
本体
  6
CONTINUOUS
 62
     6
100
AcDbLine
 10
831.55
 20
1042.1
 30
0.0
 11
831.55
 21
1036.921646
 31
0.0
  0
LINE
  5
364
100
AcDbEntity
  8
本体
  6
CONTINUOUS
 62
     6
100
AcDbLine
 10
831.55
 20
1051.1
 30
0.0
 11
831.55
 21
1045.921646
 31
0.0
  0
ARC
  5
365
100
AcDbEntity
  8
本体
  6
CONTINUOUS
 62
     6
100
AcDbCircle
 10
793.1
 20
1048.120681
 30
0.0
 40
1.9
100
AcDbArc
 50
83.898913
 51
263.898913
  0
ARC
  5
366
100
AcDbEntity
  8
本体
  6
CONTINUOUS
 62
     6
100
AcDbCircle
 10
793.1
 20
1039.120681
 30
0.0
 40
1.9
100
AcDbArc
 50
83.898913
 51
263.898913
  0
ARC
  5
367
100
AcDbEntity
  8
本体
  6
CONTINUOUS
 62
     6
100
AcDbCircle
 10
831.9
 20
1043.973412
 30
0.0
 40
1.9
100
AcDbArc
 50
263.898913
 51
83.898913
  0
ARC
  5
368
100
AcDbEntity
  8
本体
  6
CONTINUOUS
 62
     6
100
AcDbCircle
 10
831.9
 20
1034.973412
 30
0.0
 40
1.9
100
AcDbArc
 50
263.898913
 51
83.898913
  0
LINE
  5
369
100
AcDbEntity
  8
本体
  6
CONTINUOUS
 62
     6
100
AcDbLine
 10
793.301938
 20
1050.009919
 30
0.0
 11
832.101938
 21
1045.86265
 31
0.0
  0
LINE
  5
36A
100
AcDbEntity
  8
本体
  6
CONTINUOUS
 62
     6
100
AcDbLine
 10
831.698062
 20
1042.084174
 30
0.0
 11
792.898062
 21
1046.231442
 31
0.0
  0
LINE
  5
36B
100
AcDbEntity
  8
本体
  6
CONTINUOUS
 62
     6
100
AcDbLine
 10
793.301938
 20
1041.009919
 30
0.0
 11
832.101938
 21
1036.86265
 31
0.0
  0
LINE
  5
36C
100
AcDbEntity
  8
本体
  6
CONTINUOUS
 62
     6
100
AcDbLine
 10
831.698062
 20
1033.084174
 30
0.0
 11
792.898062
 21
1037.231442
 31
0.0
  0
LINE
  5
36D
100
AcDbEntity
  8
本体
  6
CONTINUOUS
 62
     6
100
AcDbLine
 10
793.45
 20
1028.172447
 30
0.0
 11
793.45
 21
1022.994093
 31
0.0
  0
LINE
  5
36E
100
AcDbEntity
  8
本体
  6
CONTINUOUS
 62
     6
100
AcDbLine
 10
831.55
 20
1024.1
 30
0.0
 11
831.55
 21
1018.921646
 31
0.0
  0
LINE
  5
36F
100
AcDbEntity
  8
本体
  6
CONTINUOUS
 62
     6
100
AcDbLine
 10
831.55
 20
1033.1
 30
0.0
 11
831.55
 21
1027.921646
 31
0.0
  0
ARC
  5
370
100
AcDbEntity
  8
本体
  6
CONTINUOUS
 62
     6
100
AcDbCircle
 10
793.1
 20
1030.120681
 30
0.0
 40
1.9
100
AcDbArc
 50
83.898913
 51
263.898913
  0
ARC
  5
371
100
AcDbEntity
  8
本体
  6
CONTINUOUS
 62
     6
100
AcDbCircle
 10
793.1
 20
1021.120681
 30
0.0
 40
1.9
100
AcDbArc
 50
83.898913
 51
263.898913
  0
ARC
  5
372
100
AcDbEntity
  8
本体
  6
CONTINUOUS
 62
     6
100
AcDbCircle
 10
831.9
 20
1025.973412
 30
0.0
 40
1.9
100
AcDbArc
 50
263.898913
 51
83.898913
  0
ARC
  5
373
100
AcDbEntity
  8
本体
  6
CONTINUOUS
 62
     6
100
AcDbCircle
 10
831.9
 20
1016.973412
 30
0.0
 40
1.9
100
AcDbArc
 50
263.898913
 51
83.898913
  0
LINE
  5
374
100
AcDbEntity
  8
本体
  6
CONTINUOUS
 62
     6
100
AcDbLine
 10
793.301938
 20
1032.009919
 30
0.0
 11
832.101938
 21
1027.86265
 31
0.0
  0
LINE
  5
375
100
AcDbEntity
  8
本体
  6
CONTINUOUS
 62
     6
100
AcDbLine
 10
831.698062
 20
1024.084174
 30
0.0
 11
792.898062
 21
1028.231442
 31
0.0
  0
LINE
  5
376
100
AcDbEntity
  8
本体
  6
CONTINUOUS
 62
     6
100
AcDbLine
 10
793.301938
 20
1023.009919
 30
0.0
 11
832.101938
 21
1018.86265
 31
0.0
  0
LINE
  5
377
100
AcDbEntity
  8
本体
  6
CONTINUOUS
 62
     6
100
AcDbLine
 10
831.698062
 20
1015.084174
 30
0.0
 11
792.898062
 21
1019.231442
 31
0.0
  0
LINE
  5
378
100
AcDbEntity
  8
本体
  6
CONTINUOUS
 62
     6
100
AcDbLine
 10
793.45
 20
1010.172447
 30
0.0
 11
793.45
 21
1004.994093
 31
0.0
  0
LINE
  5
379
100
AcDbEntity
  8
本体
  6
CONTINUOUS
 62
     6
100
AcDbLine
 10
831.55
 20
1006.1
 30
0.0
 11
831.55
 21
1000.921646
 31
0.0
  0
LINE
  5
37A
100
AcDbEntity
  8
本体
  6
CONTINUOUS
 62
     6
100
AcDbLine
 10
831.55
 20
1015.1
 30
0.0
 11
831.55
 21
1009.921646
 31
0.0
  0
ARC
  5
37B
100
AcDbEntity
  8
本体
  6
CONTINUOUS
 62
     6
100
AcDbCircle
 10
793.1
 20
1012.120681
 30
0.0
 40
1.9
100
AcDbArc
 50
83.898913
 51
263.898913
  0
ARC
  5
37C
100
AcDbEntity
  8
本体
  6
CONTINUOUS
 62
     6
100
AcDbCircle
 10
793.1
 20
1003.120681
 30
0.0
 40
1.9
100
AcDbArc
 50
83.898913
 51
263.898913
  0
ARC
  5
37D
100
AcDbEntity
  8
本体
  6
CONTINUOUS
 62
     6
100
AcDbCircle
 10
831.9
 20
1007.973412
 30
0.0
 40
1.9
100
AcDbArc
 50
263.898913
 51
83.898913
  0
ARC
  5
37E
100
AcDbEntity
  8
本体
  6
CONTINUOUS
 62
     6
100
AcDbCircle
 10
831.9
 20
998.973412
 30
0.0
 40
1.9
100
AcDbArc
 50
263.898913
 51
83.898913
  0
LINE
  5
37F
100
AcDbEntity
  8
本体
  6
CONTINUOUS
 62
     6
100
AcDbLine
 10
793.301938
 20
1014.009919
 30
0.0
 11
832.101938
 21
1009.86265
 31
0.0
  0
LINE
  5
380
100
AcDbEntity
  8
本体
  6
CONTINUOUS
 62
     6
100
AcDbLine
 10
831.698062
 20
1006.084174
 30
0.0
 11
792.898062
 21
1010.231442
 31
0.0
  0
LINE
  5
381
100
AcDbEntity
  8
本体
  6
CONTINUOUS
 62
     6
100
AcDbLine
 10
793.301938
 20
1005.009919
 30
0.0
 11
832.101938
 21
1000.86265
 31
0.0
  0
LINE
  5
382
100
AcDbEntity
  8
本体
  6
CONTINUOUS
 62
     6
100
AcDbLine
 10
831.698062
 20
997.084174
 30
0.0
 11
792.898062
 21
1001.231442
 31
0.0
  0
LINE
  5
383
100
AcDbEntity
  8
本体
  6
CONTINUOUS
 62
     6
100
AcDbLine
 10
793.45
 20
992.172447
 30
0.0
 11
793.45
 21
986.994093
 31
0.0
  0
LINE
  5
384
100
AcDbEntity
  8
本体
  6
CONTINUOUS
 62
     6
100
AcDbLine
 10
831.55
 20
988.1
 30
0.0
 11
831.55
 21
982.921646
 31
0.0
  0
LINE
  5
385
100
AcDbEntity
  8
本体
  6
CONTINUOUS
 62
     6
100
AcDbLine
 10
831.55
 20
997.1
 30
0.0
 11
831.55
 21
991.921646
 31
0.0
  0
ARC
  5
386
100
AcDbEntity
  8
本体
  6
CONTINUOUS
 62
     6
100
AcDbCircle
 10
793.1
 20
994.120681
 30
0.0
 40
1.9
100
AcDbArc
 50
83.898913
 51
263.898913
  0
ARC
  5
387
100
AcDbEntity
  8
本体
  6
CONTINUOUS
 62
     6
100
AcDbCircle
 10
793.1
 20
985.120681
 30
0.0
 40
1.9
100
AcDbArc
 50
83.898913
 51
263.898913
  0
ARC
  5
388
100
AcDbEntity
  8
本体
  6
CONTINUOUS
 62
     6
100
AcDbCircle
 10
831.9
 20
989.973412
 30
0.0
 40
1.9
100
AcDbArc
 50
263.898913
 51
83.898913
  0
ARC
  5
389
100
AcDbEntity
  8
本体
  6
CONTINUOUS
 62
     6
100
AcDbCircle
 10
831.9
 20
980.973412
 30
0.0
 40
1.9
100
AcDbArc
 50
263.898913
 51
83.898913
  0
LINE
  5
38A
100
AcDbEntity
  8
本体
  6
CONTINUOUS
 62
     6
100
AcDbLine
 10
793.301938
 20
996.009919
 30
0.0
 11
832.101938
 21
991.86265
 31
0.0
  0
LINE
  5
38B
100
AcDbEntity
  8
本体
  6
CONTINUOUS
 62
     6
100
AcDbLine
 10
831.698062
 20
988.084174
 30
0.0
 11
792.898062
 21
992.231442
 31
0.0
  0
LINE
  5
38C
100
AcDbEntity
  8
本体
  6
CONTINUOUS
 62
     6
100
AcDbLine
 10
793.301938
 20
987.009919
 30
0.0
 11
832.101938
 21
982.86265
 31
0.0
  0
LINE
  5
38D
100
AcDbEntity
  8
本体
  6
CONTINUOUS
 62
     6
100
AcDbLine
 10
831.698062
 20
979.084174
 30
0.0
 11
792.898062
 21
983.231442
 31
0.0
  0
LINE
  5
38E
100
AcDbEntity
  8
本体
  6
CONTINUOUS
 62
     6
100
AcDbLine
 10
793.45
 20
974.172447
 30
0.0
 11
793.45
 21
968.994093
 31
0.0
  0
LINE
  5
38F
100
AcDbEntity
  8
本体
  6
CONTINUOUS
 62
     6
100
AcDbLine
 10
831.55
 20
970.1
 30
0.0
 11
831.55
 21
964.921646
 31
0.0
  0
LINE
  5
390
100
AcDbEntity
  8
本体
  6
CONTINUOUS
 62
     6
100
AcDbLine
 10
831.55
 20
979.1
 30
0.0
 11
831.55
 21
973.921646
 31
0.0
  0
ARC
  5
391
100
AcDbEntity
  8
本体
  6
CONTINUOUS
 62
     6
100
AcDbCircle
 10
793.1
 20
976.120681
 30
0.0
 40
1.9
100
AcDbArc
 50
83.898913
 51
263.898913
  0
ARC
  5
392
100
AcDbEntity
  8
本体
  6
CONTINUOUS
 62
     6
100
AcDbCircle
 10
793.1
 20
967.120681
 30
0.0
 40
1.9
100
AcDbArc
 50
83.898913
 51
263.898913
  0
ARC
  5
393
100
AcDbEntity
  8
本体
  6
CONTINUOUS
 62
     6
100
AcDbCircle
 10
831.9
 20
971.973412
 30
0.0
 40
1.9
100
AcDbArc
 50
263.898913
 51
83.898913
  0
ARC
  5
394
100
AcDbEntity
  8
本体
  6
CONTINUOUS
 62
     6
100
AcDbCircle
 10
831.9
 20
962.973412
 30
0.0
 40
1.9
100
AcDbArc
 50
263.898913
 51
83.898913
  0
LINE
  5
395
100
AcDbEntity
  8
本体
  6
CONTINUOUS
 62
     6
100
AcDbLine
 10
793.301938
 20
978.009919
 30
0.0
 11
832.101938
 21
973.86265
 31
0.0
  0
LINE
  5
396
100
AcDbEntity
  8
本体
  6
CONTINUOUS
 62
     6
100
AcDbLine
 10
831.698062
 20
970.084174
 30
0.0
 11
792.898062
 21
974.231442
 31
0.0
  0
LINE
  5
397
100
AcDbEntity
  8
本体
  6
CONTINUOUS
 62
     6
100
AcDbLine
 10
793.301938
 20
969.009919
 30
0.0
 11
832.101938
 21
964.86265
 31
0.0
  0
LINE
  5
398
100
AcDbEntity
  8
本体
  6
CONTINUOUS
 62
     6
100
AcDbLine
 10
793.45
 20
1055.172447
 30
0.0
 11
793.45
 21
1049.994093
 31
0.0
  0
LINE
  5
399
100
AcDbEntity
  8
本体
  6
CONTINUOUS
 62
     6
100
AcDbLine
 10
793.45
 20
1037.172447
 30
0.0
 11
793.45
 21
1031.994093
 31
0.0
  0
LINE
  5
39A
100
AcDbEntity
  8
本体
  6
CONTINUOUS
 62
     6
100
AcDbLine
 10
793.45
 20
1019.172447
 30
0.0
 11
793.45
 21
1013.994093
 31
0.0
  0
LINE
  5
39B
100
AcDbEntity
  8
本体
  6
CONTINUOUS
 62
     6
100
AcDbLine
 10
793.45
 20
1001.172447
 30
0.0
 11
793.45
 21
995.994093
 31
0.0
  0
LINE
  5
39C
100
AcDbEntity
  8
本体
  6
CONTINUOUS
 62
     6
100
AcDbLine
 10
793.45
 20
983.172447
 30
0.0
 11
793.45
 21
977.994093
 31
0.0
  0
LINE
  5
39D
100
AcDbEntity
  8
本体
  6
CONTINUOUS
 62
     6
100
AcDbLine
 10
793.45
 20
1064.172447
 30
0.0
 11
793.45
 21
1058.994093
 31
0.0
  0
LINE
  5
39E
100
AcDbEntity
  8
本体
  6
CONTINUOUS
 62
     6
100
AcDbLine
 10
831.55
 20
1060.1
 30
0.0
 11
831.55
 21
1054.921646
 31
0.0
  0
LINE
  5
39F
100
AcDbEntity
  8
本体
  6
CONTINUOUS
 62
     6
100
AcDbLine
 10
831.55
 20
961.1
 30
0.0
 11
792.898062
 21
965.231442
 31
0.0
  0
LINE
  5
3A0
100
AcDbEntity
  8
本体
  6
CONTINUOUS
 62
     6
100
AcDbLine
 10
793.45
 20
965.172447
 30
0.0
 11
793.45
 21
961.1
 31
0.0
  0
LINE
  5
3A1
100
AcDbEntity
  8
本体
  6
CONTINUOUS
 62
     6
100
AcDbLine
 10
793.45
 20
961.1
 30
0.0
 11
831.55
 21
961.1
 31
0.0
  0
POLYLINE
  5
3A2
100
AcDbEntity
  8
本体
  6
CONTINUOUS
 62
     6
100
AcDb2dPolyline
 66
     1
 10
0.0
 20
0.0
 30
0.0
 70
   128
  0
VERTEX
  5
3A3
100
AcDbEntity
  8
本体
  6
CONTINUOUS
 62
     6
100
AcDbVertex
100
AcDb2dVertex
 10
786.5
 20
1142.9
 30
0.0
  0
VERTEX
  5
3A4
100
AcDbEntity
  8
本体
  6
CONTINUOUS
 62
     6
100
AcDbVertex
100
AcDb2dVertex
 10
786.795389
 20
1143.038044
 30
0.0
  0
VERTEX
  5
3A5
100
AcDbEntity
  8
本体
  6
CONTINUOUS
 62
     6
100
AcDbVertex
100
AcDb2dVertex
 10
787.629717
 20
1143.412471
 30
0.0
  0
VERTEX
  5
3A6
100
AcDbEntity
  8
本体
  6
CONTINUOUS
 62
     6
100
AcDbVertex
100
AcDb2dVertex
 10
788.925221
 20
1143.963726
 30
0.0
  0
VERTEX
  5
3A7
100
AcDbEntity
  8
本体
  6
CONTINUOUS
 62
     6
100
AcDbVertex
100
AcDb2dVertex
 10
790.604141
 20
1144.632251
 30
0.0
  0
VERTEX
  5
3A8
100
AcDbEntity
  8
本体
  6
CONTINUOUS
 62
     6
100
AcDbVertex
100
AcDb2dVertex
 10
792.588715
 20
1145.35849
 30
0.0
  0
VERTEX
  5
3A9
100
AcDbEntity
  8
本体
  6
CONTINUOUS
 62
     6
100
AcDbVertex
100
AcDb2dVertex
 10
794.801182
 20
1146.082887
 30
0.0
  0
VERTEX
  5
3AA
100
AcDbEntity
  8
本体
  6
CONTINUOUS
 62
     6
100
AcDbVertex
100
AcDb2dVertex
 10
797.163781
 20
1146.745885
 30
0.0
  0
VERTEX
  5
3AB
100
AcDbEntity
  8
本体
  6
CONTINUOUS
 62
     6
100
AcDbVertex
100
AcDb2dVertex
 10
799.59875
 20
1147.287927
 30
0.0
  0
VERTEX
  5
3AC
100
AcDbEntity
  8
本体
  6
CONTINUOUS
 62
     6
100
AcDbVertex
100
AcDb2dVertex
 10
802.02833
 20
1147.649458
 30
0.0
  0
VERTEX
  5
3AD
100
AcDbEntity
  8
本体
  6
CONTINUOUS
 62
     6
100
AcDbVertex
100
AcDb2dVertex
 10
804.374757
 20
1147.77092
 30
0.0
  0
VERTEX
  5
3AE
100
AcDbEntity
  8
本体
  6
CONTINUOUS
 62
     6
100
AcDbVertex
100
AcDb2dVertex
 10
806.560271
 20
1147.592757
 30
0.0
  0
VERTEX
  5
3AF
100
AcDbEntity
  8
本体
  6
CONTINUOUS
 62
     6
100
AcDbVertex
100
AcDb2dVertex
 10
808.377852
 20
1147.130768
 30
0.0
  0
VERTEX
  5
3B0
100
AcDbEntity
  8
本体
  6
CONTINUOUS
 62
     6
100
AcDbVertex
100
AcDb2dVertex
 10
810.029631
 20
1146.424422
 30
0.0
  0
VERTEX
  5
3B1
100
AcDbEntity
  8
本体
  6
CONTINUOUS
 62
     6
100
AcDbVertex
100
AcDb2dVertex
 10
811.551762
 20
1145.533288
 30
0.0
  0
VERTEX
  5
3B2
100
AcDbEntity
  8
本体
  6
CONTINUOUS
 62
     6
100
AcDbVertex
100
AcDb2dVertex
 10
812.9804
 20
1144.516933
 30
0.0
  0
VERTEX
  5
3B3
100
AcDbEntity
  8
本体
  6
CONTINUOUS
 62
     6
100
AcDbVertex
100
AcDb2dVertex
 10
814.351698
 20
1143.434927
 30
0.0
  0
VERTEX
  5
3B4
100
AcDbEntity
  8
本体
  6
CONTINUOUS
 62
     6
100
AcDbVertex
100
AcDb2dVertex
 10
815.701811
 20
1142.346836
 30
0.0
  0
VERTEX
  5
3B5
100
AcDbEntity
  8
本体
  6
CONTINUOUS
 62
     6
100
AcDbVertex
100
AcDb2dVertex
 10
817.066894
 20
1141.312229
 30
0.0
  0
VERTEX
  5
3B6
100
AcDbEntity
  8
本体
  6
CONTINUOUS
 62
     6
100
AcDbVertex
100
AcDb2dVertex
 10
818.4831
 20
1140.390674
 30
0.0
  0
VERTEX
  5
3B7
100
AcDbEntity
  8
本体
  6
CONTINUOUS
 62
     6
100
AcDbVertex
100
AcDb2dVertex
 10
819.986583
 20
1139.641739
 30
0.0
  0
VERTEX
  5
3B8
100
AcDbEntity
  8
本体
  6
CONTINUOUS
 62
     6
100
AcDbVertex
100
AcDb2dVertex
 10
821.613498
 20
1139.124991
 30
0.0
  0
VERTEX
  5
3B9
100
AcDbEntity
  8
本体
  6
CONTINUOUS
 62
     6
100
AcDbVertex
100
AcDb2dVertex
 10
823.4
 20
1138.9
 30
0.0
  0
VERTEX
  5
3BA
100
AcDbEntity
  8
本体
  6
CONTINUOUS
 62
     6
100
AcDbVertex
100
AcDb2dVertex
 10
825.372514
 20
1139.006899
 30
0.0
  0
VERTEX
  5
3BB
100
AcDbEntity
  8
本体
  6
CONTINUOUS
 62
     6
100
AcDbVertex
100
AcDb2dVertex
 10
827.475175
 20
1139.4043
 30
0.0
  0
VERTEX
  5
3BC
100
AcDbEntity
  8
本体
  6
CONTINUOUS
 62
     6
100
AcDbVertex
100
AcDb2dVertex
 10
829.640979
 20
1140.028849
 30
0.0
  0
VERTEX
  5
3BD
100
AcDbEntity
  8
本体
  6
CONTINUOUS
 62
     6
100
AcDbVertex
100
AcDb2dVertex
 10
831.802921
 20
1140.817191
 30
0.0
  0
VERTEX
  5
3BE
100
AcDbEntity
  8
本体
  6
CONTINUOUS
 62
     6
100
AcDbVertex
100
AcDb2dVertex
 10
833.893996
 20
1141.705972
 30
0.0
  0
VERTEX
  5
3BF
100
AcDbEntity
  8
本体
  6
CONTINUOUS
 62
     6
100
AcDbVertex
100
AcDb2dVertex
 10
835.847201
 20
1142.631836
 30
0.0
  0
VERTEX
  5
3C0
100
AcDbEntity
  8
本体
  6
CONTINUOUS
 62
     6
100
AcDbVertex
100
AcDb2dVertex
 10
837.59553
 20
1143.531429
 30
0.0
  0
VERTEX
  5
3C1
100
AcDbEntity
  8
本体
  6
CONTINUOUS
 62
     6
100
AcDbVertex
100
AcDb2dVertex
 10
839.071979
 20
1144.341397
 30
0.0
  0
VERTEX
  5
3C2
100
AcDbEntity
  8
本体
  6
CONTINUOUS
 62
     6
100
AcDbVertex
100
AcDb2dVertex
 10
840.209543
 20
1144.998384
 30
0.0
  0
VERTEX
  5
3C3
100
AcDbEntity
  8
本体
  6
CONTINUOUS
 62
     6
100
AcDbVertex
100
AcDb2dVertex
 10
840.941218
 20
1145.439037
 30
0.0
  0
VERTEX
  5
3C4
100
AcDbEntity
  8
本体
  6
CONTINUOUS
 62
     6
100
AcDbVertex
100
AcDb2dVertex
 10
841.2
 20
1145.6
 30
0.0
  0
SEQEND
  5
3C5
100
AcDbEntity
  8
本体
  6
CONTINUOUS
 62
     6
  0
POLYLINE
  5
3C6
100
AcDbEntity
  8
本体
  6
CONTINUOUS
 62
     6
100
AcDb2dPolyline
 66
     1
 10
0.0
 20
0.0
 30
0.0
 70
   128
  0
VERTEX
  5
3C7
100
AcDbEntity
  8
本体
  6
CONTINUOUS
 62
     6
100
AcDbVertex
100
AcDb2dVertex
 10
786.5
 20
1134.3
 30
0.0
  0
VERTEX
  5
3C8
100
AcDbEntity
  8
本体
  6
CONTINUOUS
 62
     6
100
AcDbVertex
100
AcDb2dVertex
 10
786.795389
 20
1134.438044
 30
0.0
  0
VERTEX
  5
3C9
100
AcDbEntity
  8
本体
  6
CONTINUOUS
 62
     6
100
AcDbVertex
100
AcDb2dVertex
 10
787.629717
 20
1134.812471
 30
0.0
  0
VERTEX
  5
3CA
100
AcDbEntity
  8
本体
  6
CONTINUOUS
 62
     6
100
AcDbVertex
100
AcDb2dVertex
 10
788.925221
 20
1135.363726
 30
0.0
  0
VERTEX
  5
3CB
100
AcDbEntity
  8
本体
  6
CONTINUOUS
 62
     6
100
AcDbVertex
100
AcDb2dVertex
 10
790.604141
 20
1136.032251
 30
0.0
  0
VERTEX
  5
3CC
100
AcDbEntity
  8
本体
  6
CONTINUOUS
 62
     6
100
AcDbVertex
100
AcDb2dVertex
 10
792.588715
 20
1136.75849
 30
0.0
  0
VERTEX
  5
3CD
100
AcDbEntity
  8
本体
  6
CONTINUOUS
 62
     6
100
AcDbVertex
100
AcDb2dVertex
 10
794.801182
 20
1137.482887
 30
0.0
  0
VERTEX
  5
3CE
100
AcDbEntity
  8
本体
  6
CONTINUOUS
 62
     6
100
AcDbVertex
100
AcDb2dVertex
 10
797.163781
 20
1138.145885
 30
0.0
  0
VERTEX
  5
3CF
100
AcDbEntity
  8
本体
  6
CONTINUOUS
 62
     6
100
AcDbVertex
100
AcDb2dVertex
 10
799.59875
 20
1138.687927
 30
0.0
  0
VERTEX
  5
3D0
100
AcDbEntity
  8
本体
  6
CONTINUOUS
 62
     6
100
AcDbVertex
100
AcDb2dVertex
 10
802.02833
 20
1139.049458
 30
0.0
  0
VERTEX
  5
3D1
100
AcDbEntity
  8
本体
  6
CONTINUOUS
 62
     6
100
AcDbVertex
100
AcDb2dVertex
 10
804.374757
 20
1139.17092
 30
0.0
  0
VERTEX
  5
3D2
100
AcDbEntity
  8
本体
  6
CONTINUOUS
 62
     6
100
AcDbVertex
100
AcDb2dVertex
 10
806.560271
 20
1138.992757
 30
0.0
  0
VERTEX
  5
3D3
100
AcDbEntity
  8
本体
  6
CONTINUOUS
 62
     6
100
AcDbVertex
100
AcDb2dVertex
 10
808.377852
 20
1138.530768
 30
0.0
  0
VERTEX
  5
3D4
100
AcDbEntity
  8
本体
  6
CONTINUOUS
 62
     6
100
AcDbVertex
100
AcDb2dVertex
 10
810.029631
 20
1137.824422
 30
0.0
  0
VERTEX
  5
3D5
100
AcDbEntity
  8
本体
  6
CONTINUOUS
 62
     6
100
AcDbVertex
100
AcDb2dVertex
 10
811.551762
 20
1136.933288
 30
0.0
  0
VERTEX
  5
3D6
100
AcDbEntity
  8
本体
  6
CONTINUOUS
 62
     6
100
AcDbVertex
100
AcDb2dVertex
 10
812.9804
 20
1135.916933
 30
0.0
  0
VERTEX
  5
3D7
100
AcDbEntity
  8
本体
  6
CONTINUOUS
 62
     6
100
AcDbVertex
100
AcDb2dVertex
 10
814.351698
 20
1134.834927
 30
0.0
  0
VERTEX
  5
3D8
100
AcDbEntity
  8
本体
  6
CONTINUOUS
 62
     6
100
AcDbVertex
100
AcDb2dVertex
 10
815.701811
 20
1133.746836
 30
0.0
  0
VERTEX
  5
3D9
100
AcDbEntity
  8
本体
  6
CONTINUOUS
 62
     6
100
AcDbVertex
100
AcDb2dVertex
 10
817.066894
 20
1132.712229
 30
0.0
  0
VERTEX
  5
3DA
100
AcDbEntity
  8
本体
  6
CONTINUOUS
 62
     6
100
AcDbVertex
100
AcDb2dVertex
 10
818.4831
 20
1131.790674
 30
0.0
  0
VERTEX
  5
3DB
100
AcDbEntity
  8
本体
  6
CONTINUOUS
 62
     6
100
AcDbVertex
100
AcDb2dVertex
 10
819.986583
 20
1131.041739
 30
0.0
  0
VERTEX
  5
3DC
100
AcDbEntity
  8
本体
  6
CONTINUOUS
 62
     6
100
AcDbVertex
100
AcDb2dVertex
 10
821.613498
 20
1130.524991
 30
0.0
  0
VERTEX
  5
3DD
100
AcDbEntity
  8
本体
  6
CONTINUOUS
 62
     6
100
AcDbVertex
100
AcDb2dVertex
 10
823.4
 20
1130.3
 30
0.0
  0
VERTEX
  5
3DE
100
AcDbEntity
  8
本体
  6
CONTINUOUS
 62
     6
100
AcDbVertex
100
AcDb2dVertex
 10
825.372514
 20
1130.406899
 30
0.0
  0
VERTEX
  5
3DF
100
AcDbEntity
  8
本体
  6
CONTINUOUS
 62
     6
100
AcDbVertex
100
AcDb2dVertex
 10
827.475175
 20
1130.8043
 30
0.0
  0
VERTEX
  5
3E0
100
AcDbEntity
  8
本体
  6
CONTINUOUS
 62
     6
100
AcDbVertex
100
AcDb2dVertex
 10
829.640979
 20
1131.428849
 30
0.0
  0
VERTEX
  5
3E1
100
AcDbEntity
  8
本体
  6
CONTINUOUS
 62
     6
100
AcDbVertex
100
AcDb2dVertex
 10
831.802921
 20
1132.217191
 30
0.0
  0
VERTEX
  5
3E2
100
AcDbEntity
  8
本体
  6
CONTINUOUS
 62
     6
100
AcDbVertex
100
AcDb2dVertex
 10
833.893996
 20
1133.105972
 30
0.0
  0
VERTEX
  5
3E3
100
AcDbEntity
  8
本体
  6
CONTINUOUS
 62
     6
100
AcDbVertex
100
AcDb2dVertex
 10
835.847201
 20
1134.031836
 30
0.0
  0
VERTEX
  5
3E4
100
AcDbEntity
  8
本体
  6
CONTINUOUS
 62
     6
100
AcDbVertex
100
AcDb2dVertex
 10
837.59553
 20
1134.931429
 30
0.0
  0
VERTEX
  5
3E5
100
AcDbEntity
  8
本体
  6
CONTINUOUS
 62
     6
100
AcDbVertex
100
AcDb2dVertex
 10
839.071979
 20
1135.741397
 30
0.0
  0
VERTEX
  5
3E6
100
AcDbEntity
  8
本体
  6
CONTINUOUS
 62
     6
100
AcDbVertex
100
AcDb2dVertex
 10
840.209543
 20
1136.398384
 30
0.0
  0
VERTEX
  5
3E7
100
AcDbEntity
  8
本体
  6
CONTINUOUS
 62
     6
100
AcDbVertex
100
AcDb2dVertex
 10
840.941218
 20
1136.839037
 30
0.0
  0
VERTEX
  5
3E8
100
AcDbEntity
  8
本体
  6
CONTINUOUS
 62
     6
100
AcDbVertex
100
AcDb2dVertex
 10
841.2
 20
1137.0
 30
0.0
  0
SEQEND
  5
3E9
100
AcDbEntity
  8
本体
  6
CONTINUOUS
 62
     6
  0
LINE
  5
3EA
100
AcDbEntity
  8
本体
  6
CONTINUOUS
 62
     6
100
AcDbLine
 10
831.55
 20
1141.1
 30
0.0
 11
831.55
 21
1140.724965
 31
0.0
  0
ARC
  5
3EB
100
AcDbEntity
  8
本体
  6
CONTINUOUS
 62
     6
100
AcDbCircle
 10
831.9
 20
1133.973412
 30
0.0
 40
1.9
100
AcDbArc
 50
263.898913
 51
326.857576
  0
LINE
  5
3EC
100
AcDbEntity
  8
本体
  6
CONTINUOUS
 62
     6
100
AcDbLine
 10
831.698062
 20
1132.084174
 30
0.0
 11
831.497056
 21
1132.105659
 31
0.0
  0
LINE
  5
3ED
100
AcDbEntity
  8
本体
  6
CONTINUOUS
 62
     6
100
AcDbLine
 10
815.63436
 20
1133.801197
 30
0.0
 11
792.898062
 21
1136.231442
 31
0.0
  0
LINE
  5
3EE
100
AcDbEntity
  8
本体
  6
CONTINUOUS
 62
     6
100
AcDbLine
 10
793.301938
 20
1140.009919
 30
0.0
 11
793.45
 21
1139.994093
 31
0.0
  0
LINE
  5
3EF
100
AcDbEntity
  8
本体
  6
CONTINUOUS
 62
     6
100
AcDbLine
 10
802.202996
 20
1139.058499
 30
0.0
 11
808.790302
 21
1138.354393
 31
0.0
  0
ARC
  5
3F0
100
AcDbEntity
  8
本体
  6
CONTINUOUS
 62
     6
100
AcDbCircle
 10
793.1
 20
1138.120681
 30
0.0
 40
1.9
100
AcDbArc
 50
235.606605
 51
263.898913
  0
LINE
  5
3F1
100
AcDbEntity
  8
本体
  6
CONTINUOUS
 62
     6
100
AcDbLine
 10
831.698062
 20
1141.084174
 30
0.0
 11
815.062144
 21
1142.86236
 31
0.0
  0
DIMENSION
  5
3FD
100
AcDbEntity
  8
本体
  6
CONTINUOUS
 62
     2
100
AcDbDimension
  2
*D16
 10
711.0
 20
961.1
 30
0.0
 11
687.5
 21
1160.6
 31
0.0
 70
   160
  1
634
  3
STANDARD
100
AcDbAlignedDimension
 13
772.5
 23
1360.1
 33
0.0
 14
793.45
 24
961.1
 34
0.0
 50
90.0
100
AcDbRotatedDimension
1001
ACAD
1000
DSTYLE
1002
{
1070
     6
1000
_EX_NORM
1070
     7
1000
_EX_NORM
1070
    41
1040
30.0
1070
    42
1040
5.0
1070
    44
1040
10.0
1070
    73
1070
     0
1070
    74
1070
     0
1070
    75
1070
     0
1070
    76
1070
     0
1070
    77
1070
     1
1070
    78
1070
     8
1070
   140
1040
40.0
1070
   147
1040
3.5
1070
   173
1070
     1
1070
   176
1070
     3
1070
   177
1070
     3
1070
   178
1070
     2
1070
   271
1070
     2
1070
   279
1070
     2
1070
   280
1070
     0
1070
   287
1070
     5
1070
   340
1005
192
1002
}
  0
LINE
  5
3FE
100
AcDbEntity
  8
本体
  6
CONTINUOUS
 62
     6
100
AcDbLine
 10
1474.009345
 20
941.2
 30
0.0
 11
1466.512376
 21
941.2
 31
0.0
  0
LINE
  5
3FF
100
AcDbEntity
  8
本体
  6
CONTINUOUS
 62
     6
100
AcDbLine
 10
1544.966412
 20
975.0
 30
0.0
 11
1475.033588
 21
975.0
 31
0.0
  0
LINE
  5
400
100
AcDbEntity
  8
本体
  6
CONTINUOUS
 62
     6
100
AcDbLine
 10
1545.990655
 20
941.2
 30
0.0
 11
1553.487624
 21
941.2
 31
0.0
  0
DIMENSION
  5
40B
100
AcDbEntity
  8
寸法
  6
CONTINUOUS
 62
     3
100
AcDbDimension
  2
*D17
 10
1422.0
 20
1549.0
 30
0.0
 11
1398.5
 21
1614.0
 31
0.0
 70
   160
  3
STANDARD
100
AcDbAlignedDimension
 13
1534.0
 23
1489.0
 33
0.0
 14
1319.0
 24
1549.0
 34
0.0
 50
90.0
100
AcDbRotatedDimension
1001
ACAD
1000
DSTYLE
1002
{
1070
     6
1000
_EX_NORM
1070
     7
1000
_EX_NORM
1070
    41
1040
30.0
1070
    42
1040
8.2
1070
    44
1040
10.0
1070
    73
1070
     0
1070
    74
1070
     0
1070
    75
1070
     1
1070
    76
1070
     0
1070
    77
1070
     1
1070
    78
1070
     8
1070
   140
1040
40.0
1070
   147
1040
3.5
1070
   173
1070
     1
1070
   176
1070
     3
1070
   177
1070
     3
1070
   178
1070
     2
1070
   271
1070
     2
1070
   279
1070
     2
1070
   280
1070
     2
1070
   287
1070
     5
1070
   340
1005
192
1002
}
  0
DIMENSION
  5
416
100
AcDbEntity
  8
寸法
  6
CONTINUOUS
 62
     3
100
AcDbDimension
  2
*D18
 10
689.5
 20
2040.0
 30
0.0
 11
958.5
 21
2063.5
 31
0.0
 70
   160
  3
STANDARD
100
AcDbAlignedDimension
 13
812.5
 23
2151.488263
 33
0.0
 14
689.5
 24
2081.0
 34
0.0
100
AcDbRotatedDimension
1001
ACAD
1000
DSTYLE
1002
{
1070
     6
1000
_EX_NORM
1070
     7
1000
_EX_NORM
1070
    41
1040
30.0
1070
    42
1040
77.488265
1070
    44
1040
10.0
1070
    73
1070
     0
1070
    74
1070
     0
1070
    75
1070
     0
1070
    76
1070
     1
1070
    77
1070
     1
1070
    78
1070
     8
1070
   140
1040
40.0
1070
   147
1040
3.5
1070
   173
1070
     1
1070
   176
1070
     3
1070
   177
1070
     3
1070
   178
1070
     2
1070
   271
1070
     2
1070
   279
1070
     2
1070
   280
1070
     0
1070
   287
1070
     5
1070
   340
1005
192
1002
}
  0
DIMENSION
  5
422
100
AcDbEntity
  8
寸法
  6
CONTINUOUS
 62
     3
100
AcDbDimension
  2
*D19
 10
1481.0
 20
1831.488263
 30
0.0
 11
1457.5
 21
2151.488263
 31
0.0
 70
   160
  3
STANDARD
100
AcDbAlignedDimension
 13
1319.5
 23
2471.488263
 33
0.0
 14
1319.5
 24
1831.488263
 34
0.0
 50
90.0
100
AcDbRotatedDimension
1001
ACAD
1000
DSTYLE
1002
{
1070
     6
1000
_EX_NORM
1070
     7
1000
_EX_NORM
1070
    41
1040
30.0
1070
    42
1040
5.0
1070
    44
1040
10.0
1070
    73
1070
     0
1070
    74
1070
     0
1070
    75
1070
     0
1070
    76
1070
     0
1070
    77
1070
     1
1070
    78
1070
     8
1070
   140
1040
40.0
1070
   147
1040
3.5
1070
   173
1070
     1
1070
   176
1070
     3
1070
   177
1070
     3
1070
   178
1070
     2
1070
   271
1070
     2
1070
   279
1070
     2
1070
   280
1070
     0
1070
   287
1070
     5
1070
   340
1005
192
1002
}
  0
DIMENSION
  5
42E
100
AcDbEntity
  8
寸法
  6
CONTINUOUS
 62
     3
100
AcDbDimension
  2
*D20
 10
1329.5
 20
1695.0
 30
0.0
 11
1009.5
 21
1718.5
 31
0.0
 70
   160
  3
STANDARD
100
AcDbAlignedDimension
 13
689.5
 23
1841.488263
 33
0.0
 14
1329.5
 24
1841.488263
 34
0.0
100
AcDbRotatedDimension
1001
ACAD
1000
DSTYLE
1002
{
1070
     6
1000
_EX_NORM
1070
     7
1000
_EX_NORM
1070
    41
1040
30.0
1070
    42
1040
5.0
1070
    44
1040
10.0
1070
    73
1070
     0
1070
    74
1070
     0
1070
    75
1070
     0
1070
    76
1070
     0
1070
    77
1070
     1
1070
    78
1070
     8
1070
   140
1040
40.0
1070
   147
1040
3.5
1070
   173
1070
     1
1070
   176
1070
     3
1070
   177
1070
     3
1070
   178
1070
     2
1070
   271
1070
     2
1070
   279
1070
     2
1070
   280
1070
     0
1070
   287
1070
     5
1070
   340
1005
192
1002
}
  0
LINE
  5
42F
100
AcDbEntity
  8
寸法
  6
CONTINUOUS
 62
     3
100
AcDbLine
 10
774.3
 20
1333.998679
 30
0.0
 11
702.0
 21
1333.998679
 31
0.0
  0
DIMENSION
  5
43A
100
AcDbEntity
  8
寸法
  6
CONTINUOUS
 62
     2
100
AcDbDimension
  2
*D21
 10
648.0
 20
1333.998679
 30
0.0
 11
624.5
 21
1411.499339
 31
0.0
 70
   160
  1
159
  3
STANDARD
100
AcDbAlignedDimension
 13
689.5
 23
1489.0
 33
0.0
 14
712.0
 24
1333.998679
 34
0.0
 50
90.0
100
AcDbRotatedDimension
1001
ACAD
1000
DSTYLE
1002
{
1070
     6
1000
_EX_NORM
1070
     7
1000
_EX_NORM
1070
    41
1040
30.0
1070
    42
1040
5.0
1070
    44
1040
10.0
1070
    73
1070
     0
1070
    74
1070
     0
1070
    75
1070
     1
1070
    76
1070
     0
1070
    77
1070
     1
1070
    78
1070
     8
1070
   140
1040
40.0
1070
   147
1040
3.5
1070
   173
1070
     1
1070
   176
1070
     3
1070
   177
1070
     3
1070
   178
1070
     2
1070
   271
1070
     2
1070
   279
1070
     2
1070
   280
1070
     0
1070
   287
1070
     5
1070
   340
1005
192
1002
}
  0
TEXT
  5
43B
100
AcDbEntity
  8
寸法
  6
CONTINUOUS
 62
     2
100
AcDbText
 10
1482.866667
 20
1492.5
 30
0.0
 40
40.0
  1
Ｆ．Ｌ
 41
0.833
  7
EXCADSTD
 72
     5
 11
1601.866666
 21
1492.5
 31
0.0
100
AcDbText
  0
DIMENSION
  5
447
100
AcDbEntity
  8
寸法
  6
CONTINUOUS
 62
     2
100
AcDbDimension
  2
*D22
 10
833.8
 20
923.4
 30
0.0
 11
933.8
 21
946.9
 31
0.0
 70
   160
  1
%%c42.6
  3
STANDARD
100
AcDbAlignedDimension
 13
791.2
 23
973.0
 33
0.0
 14
833.8
 24
973.0
 34
0.0
100
AcDbRotatedDimension
1001
ACAD
1000
DSTYLE
1002
{
1070
     6
1000
_EX_NORM
1070
     7
1000
_EX_NORM
1070
    41
1040
30.0
1070
    42
1040
5.0
1070
    44
1040
10.0
1070
    73
1070
     0
1070
    74
1070
     0
1070
    75
1070
     0
1070
    76
1070
     0
1070
    77
1070
     1
1070
    78
1070
     8
1070
   140
1040
40.0
1070
   147
1040
3.5
1070
   173
1070
     1
1070
   176
1070
     3
1070
   177
1070
     3
1070
   178
1070
     2
1070
   271
1070
     2
1070
   279
1070
     2
1070
   280
1070
     2
1070
   287
1070
     5
1070
   340
1005
192
1002
}
  0
DIMENSION
  5
453
100
AcDbEntity
  8
寸法
  6
CONTINUOUS
 62
     2
100
AcDbDimension
  2
*D23
 10
1423.0
 20
1856.488263
 30
0.0
 11
1399.5
 21
2151.488263
 31
0.0
 70
   160
  1
590（内寸）
  3
STANDARD
100
AcDbAlignedDimension
 13
1287.156865
 23
2446.488263
 33
0.0
 14
1287.156865
 24
1856.488263
 34
0.0
 50
90.0
100
AcDbRotatedDimension
1001
ACAD
1000
DSTYLE
1002
{
1070
     6
1000
_EX_NORM
1070
     7
1000
_EX_NORM
1070
    41
1040
30.0
1070
    42
1040
5.0
1070
    44
1040
10.0
1070
    73
1070
     0
1070
    74
1070
     0
1070
    75
1070
     0
1070
    76
1070
     0
1070
    77
1070
     1
1070
    78
1070
     8
1070
   140
1040
40.0
1070
   147
1040
3.5
1070
   173
1070
     1
1070
   176
1070
     3
1070
   177
1070
     3
1070
   178
1070
     2
1070
   271
1070
     2
1070
   279
1070
     2
1070
   280
1070
     0
1070
   287
1070
     5
1070
   340
1005
192
1002
}
  0
DIMENSION
  5
45F
100
AcDbEntity
  8
寸法
  6
CONTINUOUS
 62
     3
100
AcDbDimension
  2
*D24
 10
714.5
 20
1754.0
 30
0.0
 11
1009.5
 21
1777.5
 31
0.0
 70
   160
  1
590（内寸）
  3
STANDARD
100
AcDbAlignedDimension
 13
1304.5
 23
1873.831398
 33
0.0
 14
714.5
 24
1873.831398
 34
0.0
100
AcDbRotatedDimension
1001
ACAD
1000
DSTYLE
1002
{
1070
     6
1000
_EX_NORM
1070
     7
1000
_EX_NORM
1070
    41
1040
30.0
1070
    42
1040
5.0
1070
    44
1040
10.0
1070
    73
1070
     0
1070
    74
1070
     0
1070
    75
1070
     0
1070
    76
1070
     0
1070
    77
1070
     1
1070
    78
1070
     8
1070
   140
1040
40.0
1070
   147
1040
3.5
1070
   173
1070
     1
1070
   176
1070
     3
1070
   177
1070
     3
1070
   178
1070
     2
1070
   271
1070
     2
1070
   279
1070
     2
1070
   280
1070
     0
1070
   287
1070
     5
1070
   340
1005
192
1002
}
  0
LINE
  5
460
100
AcDbEntity
  8
詳細図
  6
CONTINUOUS
 62
     2
100
AcDbLine
 10
1371.611652
 20
687.5
 30
0.0
 11
1378.829917
 21
963.154424
 31
0.0
  0
ARC
  5
461
100
AcDbEntity
  8
詳細図
  6
CONTINUOUS
 62
     2
100
AcDbCircle
 10
1634.08461
 20
952.5
 30
0.0
 40
25.0
100
AcDbArc
 50
184.411726
 51
270.0
  0
ARC
  5
462
100
AcDbEntity
  8
詳細図
  6
CONTINUOUS
 62
     2
100
AcDbCircle
 10
1569.277203
 20
947.5
 30
0.0
 40
40.0
100
AcDbArc
 50
4.411726
 51
90.0
  0
ARC
  5
463
100
AcDbEntity
  8
詳細図
  6
CONTINUOUS
 62
     2
100
AcDbCircle
 10
1403.821351
 20
962.5
 30
0.0
 40
25.0
100
AcDbArc
 50
90.0
 51
178.5
  0
ARC
  5
464
100
AcDbEntity
  8
詳細図
  6
CONTINUOUS
 62
     2
100
AcDbCircle
 10
1403.821351
 20
962.5
 30
0.0
 40
10.0
100
AcDbArc
 50
90.0
 51
178.5
  0
LINE
  5
465
100
AcDbEntity
  8
詳細図
  6
CONTINUOUS
 62
     2
100
AcDbLine
 10
1393.824777
 20
962.761769
 30
0.0
 11
1386.606512
 21
687.107346
 31
0.0
  0
ARC
  5
466
100
AcDbEntity
  8
詳細図
  6
CONTINUOUS
 62
     2
100
AcDbCircle
 10
1636.730891
 20
950.0
 30
0.0
 40
42.5
100
AcDbArc
 50
182.122551
 51
270.0
  0
LINE
  5
467
100
AcDbEntity
  8
詳細図
  6
CONTINUOUS
 62
     2
100
AcDbLine
 10
1634.08461
 20
927.5
 30
0.0
 11
1747.657288
 21
927.5
 31
0.0
  0
LINE
  5
468
100
AcDbEntity
  8
詳細図
  6
CONTINUOUS
 62
     2
100
AcDbLine
 10
1634.08461
 20
907.5
 30
0.0
 11
1747.657288
 21
907.5
 31
0.0
  0
LINE
  5
469
100
AcDbEntity
  8
詳細図
  6
CONTINUOUS
 62
     2
100
AcDbLine
 10
1535.0
 20
792.5
 30
0.0
 11
1535.0
 21
687.5
 31
0.0
  0
LINE
  5
46A
100
AcDbEntity
  8
詳細図
  6
CONTINUOUS
 62
     2
100
AcDbLine
 10
1485.0
 20
792.5
 30
0.0
 11
1485.0
 21
687.5
 31
0.0
  0
ARC
  5
46B
100
AcDbEntity
  8
詳細図
  6
CONTINUOUS
 62
     2
100
AcDbCircle
 10
1569.277203
 20
947.5
 30
0.0
 40
25.0
100
AcDbArc
 50
2.122551
 51
82.375922
  0
LINE
  5
46C
100
AcDbEntity
  8
詳細図
  6
CONTINUOUS
 62
     2
100
AcDbLine
 10
1448.064287
 20
972.5
 30
0.0
 11
1403.821351
 21
972.5
 31
0.0
  0
ARC
  5
46D
100
AcDbEntity
  8
詳細図
  6
CONTINUOUS
 62
     2
100
AcDbCircle
 10
1448.064287
 20
967.5
 30
0.0
 40
5.0
100
AcDbArc
 50
1.636577
 51
90.0
  0
ARC
  5
46E
100
AcDbEntity
  8
詳細図
  6
CONTINUOUS
 62
     2
100
AcDbCircle
 10
1571.930661
 20
967.323197
 30
0.0
 40
5.0
100
AcDbArc
 50
82.375922
 51
178.363423
  0
LINE
  5
46F
100
AcDbEntity
  8
詳細図
  6
CONTINUOUS
 62
     2
100
AcDbLine
 10
1449.5
 20
987.5
 30
0.0
 11
1449.5
 21
980.0
 31
0.0
  0
ARC
  5
470
100
AcDbEntity
  8
詳細図
  6
CONTINUOUS
 62
     2
100
AcDbCircle
 10
1462.573513
 20
977.5
 30
0.0
 40
2.5
100
AcDbArc
 50
1.709814
 51
90.0
  0
LINE
  5
471
100
AcDbEntity
  8
詳細図
  6
CONTINUOUS
 62
     2
100
AcDbLine
 10
1570.5
 20
987.5
 30
0.0
 11
1570.5
 21
980.0
 31
0.0
  0
LINE
  5
472
100
AcDbEntity
  8
詳細図
  6
CONTINUOUS
 62
     6
100
AcDbLine
 10
1450.0
 20
983.048009
 30
0.0
 11
1450.0
 21
980.0
 31
0.0
  0
LINE
  5
473
100
AcDbEntity
  8
詳細図
  6
CONTINUOUS
 62
     6
100
AcDbLine
 10
1570.0
 20
983.048009
 30
0.0
 11
1570.0
 21
980.0
 31
0.0
  0
ARC
  5
474
100
AcDbEntity
  8
詳細図
  6
CONTINUOUS
 62
     6
100
AcDbCircle
 10
1510.0
 20
491.113054
 30
0.0
 40
500.0
100
AcDbArc
 50
83.62063
 51
96.37937
  0
ARC
  5
475
100
AcDbEntity
  8
詳細図
  6
CONTINUOUS
 62
     6
100
AcDbCircle
 10
1455.0
 20
983.048009
 30
0.0
 40
5.0
100
AcDbArc
 50
96.37937
 51
180.0
  0
ARC
  5
476
100
AcDbEntity
  8
詳細図
  6
CONTINUOUS
 62
     6
100
AcDbCircle
 10
1565.0
 20
983.048009
 30
0.0
 40
5.0
100
AcDbArc
 50
0.0
 51
83.62063
  0
LINE
  5
477
100
AcDbEntity
  8
詳細図
  6
CONTINUOUS
 62
     6
100
AcDbLine
 10
1455.0
 20
982.5
 30
0.0
 11
1455.0
 21
980.0
 31
0.0
  0
LINE
  5
478
100
AcDbEntity
  8
詳細図
  6
CONTINUOUS
 62
     6
100
AcDbLine
 10
1565.0
 20
982.5
 30
0.0
 11
1565.0
 21
980.0
 31
0.0
  0
LINE
  5
479
100
AcDbEntity
  8
詳細図
  6
CONTINUOUS
 62
     2
100
AcDbLine
 10
1403.821351
 20
987.5
 30
0.0
 11
1452.724087
 21
987.5
 31
0.0
  0
LINE
  5
47A
100
AcDbEntity
  8
詳細図
  6
CONTINUOUS
 62
     2
100
AcDbLine
 10
1567.275913
 20
987.5
 30
0.0
 11
1747.657288
 21
987.5
 31
0.0
  0
LINE
  5
47B
100
AcDbEntity
  8
詳細図
  6
CONTINUOUS
 62
     2
100
AcDbLine
 10
1449.5
 20
980.0
 30
0.0
 11
1450.0
 21
980.0
 31
0.0
  0
LINE
  5
47C
100
AcDbEntity
  8
詳細図
  6
CONTINUOUS
 62
     2
100
AcDbLine
 10
1570.0
 20
980.0
 30
0.0
 11
1570.5
 21
980.0
 31
0.0
  0
LINE
  5
47D
100
AcDbEntity
  8
詳細図
  6
CONTINUOUS
 62
     6
100
AcDbLine
 10
1593.188276
 20
627.5
 30
0.0
 11
1653.188276
 21
687.5
 31
0.0
  0
LINE
  5
47E
100
AcDbEntity
  8
詳細図
  6
CONTINUOUS
 62
     6
100
AcDbLine
 10
1586.117208
 20
627.5
 30
0.0
 11
1646.117208
 21
687.5
 31
0.0
  0
LINE
  5
47F
100
AcDbEntity
  8
詳細図
  6
CONTINUOUS
 62
     6
100
AcDbLine
 10
1600.259344
 20
627.5
 30
0.0
 11
1660.259344
 21
687.5
 31
0.0
  0
LINE
  5
480
100
AcDbEntity
  8
詳細図
  6
CONTINUOUS
 62
     6
100
AcDbLine
 10
1405.859344
 20
627.5
 30
0.0
 11
1465.859344
 21
687.5
 31
0.0
  0
LINE
  5
481
100
AcDbEntity
  8
詳細図
  6
CONTINUOUS
 62
     6
100
AcDbLine
 10
1391.717208
 20
627.5
 30
0.0
 11
1451.717208
 21
687.5
 31
0.0
  0
LINE
  5
482
100
AcDbEntity
  8
詳細図
  6
CONTINUOUS
 62
     6
100
AcDbLine
 10
1398.788276
 20
627.5
 30
0.0
 11
1458.788276
 21
687.5
 31
0.0
  0
LINE
  5
483
100
AcDbEntity
  8
詳細図
  6
CONTINUOUS
 62
     6
100
AcDbLine
 10
1535.459344
 20
627.5
 30
0.0
 11
1595.459344
 21
687.5
 31
0.0
  0
LINE
  5
484
100
AcDbEntity
  8
詳細図
  6
CONTINUOUS
 62
     6
100
AcDbLine
 10
1528.388276
 20
627.5
 30
0.0
 11
1588.388276
 21
687.5
 31
0.0
  0
LINE
  5
485
100
AcDbEntity
  8
詳細図
  6
CONTINUOUS
 62
     6
100
AcDbLine
 10
1521.317208
 20
627.5
 30
0.0
 11
1581.317208
 21
687.5
 31
0.0
  0
LINE
  5
486
100
AcDbEntity
  8
詳細図
  6
CONTINUOUS
 62
     6
100
AcDbLine
 10
1470.659344
 20
627.5
 30
0.0
 11
1502.5
 21
659.340656
 31
0.0
  0
LINE
  5
487
100
AcDbEntity
  8
詳細図
  6
CONTINUOUS
 62
     6
100
AcDbLine
 10
1517.5
 20
674.340656
 30
0.0
 11
1530.659344
 21
687.5
 31
0.0
  0
LINE
  5
488
100
AcDbEntity
  8
詳細図
  6
CONTINUOUS
 62
     2
100
AcDbLine
 10
1200.0
 20
687.5
 30
0.0
 11
1502.5
 21
687.5
 31
0.0
  0
LINE
  5
489
100
AcDbEntity
  8
詳細図
  6
CONTINUOUS
 62
     2
100
AcDbLine
 10
1517.5
 20
687.5
 30
0.0
 11
1686.7
 21
687.5
 31
0.0
  0
LINE
  5
48A
100
AcDbEntity
  8
詳細図
  6
CONTINUOUS
 62
     6
100
AcDbLine
 10
1326.917208
 20
627.5
 30
0.0
 11
1386.917208
 21
687.5
 31
0.0
  0
LINE
  5
48B
100
AcDbEntity
  8
詳細図
  6
CONTINUOUS
 62
     6
100
AcDbLine
 10
1333.988276
 20
627.5
 30
0.0
 11
1393.988276
 21
687.5
 31
0.0
  0
LINE
  5
48C
100
AcDbEntity
  8
詳細図
  6
CONTINUOUS
 62
     6
100
AcDbLine
 10
1341.059344
 20
627.5
 30
0.0
 11
1401.059344
 21
687.5
 31
0.0
  0
LINE
  5
48D
100
AcDbEntity
  8
詳細図
  6
CONTINUOUS
 62
     6
100
AcDbLine
 10
1261.816794
 20
627.5
 30
0.0
 11
1321.816794
 21
687.5
 31
0.0
  0
LINE
  5
48E
100
AcDbEntity
  8
詳細図
  6
CONTINUOUS
 62
     6
100
AcDbLine
 10
1268.887862
 20
627.5
 30
0.0
 11
1328.887862
 21
687.5
 31
0.0
  0
LINE
  5
48F
100
AcDbEntity
  8
詳細図
  6
CONTINUOUS
 62
     6
100
AcDbLine
 10
1275.95893
 20
627.5
 30
0.0
 11
1335.95893
 21
687.5
 31
0.0
  0
LINE
  5
490
100
AcDbEntity
  8
詳細図
  6
CONTINUOUS
 62
     6
100
AcDbLine
 10
1197.016794
 20
627.5
 30
0.0
 11
1257.016794
 21
687.5
 31
0.0
  0
LINE
  5
491
100
AcDbEntity
  8
詳細図
  6
CONTINUOUS
 62
     6
100
AcDbLine
 10
1204.087862
 20
627.5
 30
0.0
 11
1264.087862
 21
687.5
 31
0.0
  0
LINE
  5
492
100
AcDbEntity
  8
詳細図
  6
CONTINUOUS
 62
     6
100
AcDbLine
 10
1211.15893
 20
627.5
 30
0.0
 11
1271.15893
 21
687.5
 31
0.0
  0
LINE
  5
493
100
AcDbEntity
  8
詳細図
  6
CONTINUOUS
 62
     6
100
AcDbLine
 10
1520.0
 20
845.5
 30
0.0
 11
1500.0
 21
841.5
 31
0.0
  0
LINE
  5
494
100
AcDbEntity
  8
詳細図
  6
CONTINUOUS
 62
     6
100
AcDbLine
 10
1520.0
 20
837.5
 30
0.0
 11
1500.0
 21
833.5
 31
0.0
  0
LINE
  5
495
100
AcDbEntity
  8
詳細図
  6
CONTINUOUS
 62
     6
100
AcDbLine
 10
1520.0
 20
829.5
 30
0.0
 11
1500.0
 21
825.5
 31
0.0
  0
LINE
  5
496
100
AcDbEntity
  8
詳細図
  6
CONTINUOUS
 62
     6
100
AcDbLine
 10
1520.0
 20
821.5
 30
0.0
 11
1500.0
 21
817.5
 31
0.0
  0
LINE
  5
497
100
AcDbEntity
  8
詳細図
  6
CONTINUOUS
 62
     6
100
AcDbLine
 10
1520.0
 20
813.5
 30
0.0
 11
1500.0
 21
809.5
 31
0.0
  0
LINE
  5
498
100
AcDbEntity
  8
詳細図
  6
CONTINUOUS
 62
     6
100
AcDbLine
 10
1520.0
 20
805.5
 30
0.0
 11
1500.0
 21
801.5
 31
0.0
  0
LINE
  5
499
100
AcDbEntity
  8
詳細図
  6
CONTINUOUS
 62
     6
100
AcDbLine
 10
1520.0
 20
797.5
 30
0.0
 11
1500.0
 21
793.5
 31
0.0
  0
LINE
  5
49A
100
AcDbEntity
  8
詳細図
  6
CONTINUOUS
 62
     6
100
AcDbLine
 10
1520.0
 20
789.5
 30
0.0
 11
1500.0
 21
785.5
 31
0.0
  0
LINE
  5
49B
100
AcDbEntity
  8
詳細図
  6
CONTINUOUS
 62
     6
100
AcDbLine
 10
1520.0
 20
781.5
 30
0.0
 11
1500.0
 21
777.5
 31
0.0
  0
LINE
  5
49C
100
AcDbEntity
  8
詳細図
  6
CONTINUOUS
 62
     6
100
AcDbLine
 10
1520.0
 20
773.5
 30
0.0
 11
1500.0
 21
769.5
 31
0.0
  0
LINE
  5
49D
100
AcDbEntity
  8
詳細図
  6
CONTINUOUS
 62
     6
100
AcDbLine
 10
1520.0
 20
757.5
 30
0.0
 11
1500.0
 21
753.5
 31
0.0
  0
LINE
  5
49E
100
AcDbEntity
  8
詳細図
  6
CONTINUOUS
 62
     6
100
AcDbLine
 10
1520.0
 20
749.5
 30
0.0
 11
1500.0
 21
745.5
 31
0.0
  0
LINE
  5
49F
100
AcDbEntity
  8
詳細図
  6
CONTINUOUS
 62
     6
100
AcDbLine
 10
1520.0
 20
741.5
 30
0.0
 11
1500.0
 21
737.5
 31
0.0
  0
LINE
  5
4A0
100
AcDbEntity
  8
詳細図
  6
CONTINUOUS
 62
     6
100
AcDbLine
 10
1520.0
 20
733.5
 30
0.0
 11
1500.0
 21
729.5
 31
0.0
  0
LINE
  5
4A1
100
AcDbEntity
  8
詳細図
  6
CONTINUOUS
 62
     6
100
AcDbLine
 10
1520.0
 20
725.5
 30
0.0
 11
1500.0
 21
721.5
 31
0.0
  0
LINE
  5
4A2
100
AcDbEntity
  8
詳細図
  6
CONTINUOUS
 62
     6
100
AcDbLine
 10
1520.0
 20
717.5
 30
0.0
 11
1500.0
 21
713.5
 31
0.0
  0
LINE
  5
4A3
100
AcDbEntity
  8
詳細図
  6
CONTINUOUS
 62
     6
100
AcDbLine
 10
1520.0
 20
709.5
 30
0.0
 11
1500.0
 21
705.5
 31
0.0
  0
LINE
  5
4A4
100
AcDbEntity
  8
詳細図
  6
CONTINUOUS
 62
     6
100
AcDbLine
 10
1520.0
 20
701.5
 30
0.0
 11
1500.0
 21
697.5
 31
0.0
  0
LINE
  5
4A5
100
AcDbEntity
  8
詳細図
  6
CONTINUOUS
 62
     6
100
AcDbLine
 10
1520.0
 20
765.5
 30
0.0
 11
1500.0
 21
761.5
 31
0.0
  0
LINE
  5
4A6
100
AcDbEntity
  8
詳細図
  6
CONTINUOUS
 62
     2
100
AcDbLine
 10
1472.426487
 20
852.5
 30
0.0
 11
1547.573513
 21
852.5
 31
0.0
  0
ARC
  5
4A7
100
AcDbEntity
  8
詳細図
  6
CONTINUOUS
 62
     2
100
AcDbCircle
 10
1472.426487
 20
855.0
 30
0.0
 40
2.5
100
AcDbArc
 50
181.709814
 51
270.0
  0
ARC
  5
4A8
100
AcDbEntity
  8
詳細図
  6
CONTINUOUS
 62
     2
100
AcDbCircle
 10
1547.573513
 20
855.0
 30
0.0
 40
2.5
100
AcDbArc
 50
270.0
 51
358.290186
  0
LINE
  5
4A9
100
AcDbEntity
  8
詳細図
  6
CONTINUOUS
 62
     2
100
AcDbLine
 10
1497.5
 20
852.5
 30
0.0
 11
1497.5
 21
687.5
 31
0.0
  0
LINE
  5
4AA
100
AcDbEntity
  8
詳細図
  6
CONTINUOUS
 62
     2
100
AcDbLine
 10
1522.5
 20
852.5
 30
0.0
 11
1522.5
 21
687.5
 31
0.0
  0
LINE
  5
4AB
100
AcDbEntity
  8
詳細図
  6
CONTINUOUS
 62
     2
100
AcDbLine
 10
1459.995125
 20
792.5
 30
0.0
 11
1485.0
 21
792.5
 31
0.0
  0
LINE
  5
4AC
100
AcDbEntity
  8
詳細図
  6
CONTINUOUS
 62
     2
100
AcDbLine
 10
1560.004875
 20
792.5
 30
0.0
 11
1535.0
 21
792.5
 31
0.0
  0
ARC
  5
4AD
100
AcDbEntity
  8
詳細図
  6
CONTINUOUS
 62
     2
100
AcDbCircle
 10
1557.426487
 20
977.5
 30
0.0
 40
2.5
100
AcDbArc
 50
90.0
 51
177.733179
  0
LINE
  5
4AE
100
AcDbEntity
  8
詳細図
  6
CONTINUOUS
 62
     2
100
AcDbLine
 10
1459.995125
 20
792.5
 30
0.0
 11
1453.062248
 21
967.642799
 31
0.0
  0
LINE
  5
4AF
100
AcDbEntity
  8
詳細図
  6
CONTINUOUS
 62
     2
100
AcDbLine
 10
1469.928443
 20
854.901117
 30
0.0
 11
1465.071557
 21
977.598883
 31
0.0
  0
LINE
  5
4B0
100
AcDbEntity
  8
詳細図
  6
CONTINUOUS
 62
     2
100
AcDbLine
 10
1550.071557
 20
854.901117
 30
0.0
 11
1554.928443
 21
977.598883
 31
0.0
  0
LINE
  5
4B1
100
AcDbEntity
  8
詳細図
  6
CONTINUOUS
 62
     2
100
AcDbLine
 10
1560.004875
 20
792.5
 30
0.0
 11
1566.937752
 21
967.642799
 31
0.0
  0
ARC
  5
4B2
100
AcDbEntity
  8
詳細図
  6
CONTINUOUS
 62
     6
100
AcDbCircle
 10
1577.5
 20
635.191742
 30
0.0
 40
75.0
100
AcDbArc
 50
180.0
 51
205.841933
  0
ARC
  5
4B3
100
AcDbEntity
  8
詳細図
  6
CONTINUOUS
 62
     6
100
AcDbCircle
 10
1442.5
 20
635.191742
 30
0.0
 40
75.0
100
AcDbArc
 50
334.158067
 51
0.0
  0
LINE
  5
4B4
100
AcDbEntity
  8
詳細図
  6
CONTINUOUS
 62
     6
100
AcDbLine
 10
1520.0
 20
688.5
 30
0.0
 11
1500.0
 21
684.5
 31
0.0
  0
LINE
  5
4B5
100
AcDbEntity
  8
詳細図
  6
CONTINUOUS
 62
     6
100
AcDbLine
 10
1520.0
 20
680.5
 30
0.0
 11
1500.0
 21
676.5
 31
0.0
  0
LINE
  5
4B6
100
AcDbEntity
  8
詳細図
  6
CONTINUOUS
 62
     6
100
AcDbLine
 10
1520.0
 20
672.5
 30
0.0
 11
1500.0
 21
668.5
 31
0.0
  0
LINE
  5
4B7
100
AcDbEntity
  8
詳細図
  6
CONTINUOUS
 62
     6
100
AcDbLine
 10
1520.0
 20
664.5
 30
0.0
 11
1500.0
 21
660.5
 31
0.0
  0
LINE
  5
4B8
100
AcDbEntity
  8
詳細図
  6
CONTINUOUS
 62
     6
100
AcDbLine
 10
1520.0
 20
656.5
 30
0.0
 11
1500.0
 21
652.5
 31
0.0
  0
LINE
  5
4B9
100
AcDbEntity
  8
詳細図
  6
CONTINUOUS
 62
     6
100
AcDbLine
 10
1520.0
 20
648.5
 30
0.0
 11
1500.0
 21
644.5
 31
0.0
  0
LINE
  5
4BA
100
AcDbEntity
  8
詳細図
  6
CONTINUOUS
 62
     6
100
AcDbLine
 10
1520.0
 20
640.5
 30
0.0
 11
1500.0
 21
636.5
 31
0.0
  0
LINE
  5
4BB
100
AcDbEntity
  8
詳細図
  6
CONTINUOUS
 62
     6
100
AcDbLine
 10
1520.0
 20
632.5
 30
0.0
 11
1500.0
 21
628.5
 31
0.0
  0
LINE
  5
4BC
100
AcDbEntity
  8
詳細図
  6
CONTINUOUS
 62
     6
100
AcDbLine
 10
1517.590768
 20
616.018154
 30
0.0
 11
1503.203299
 21
613.14066
 31
0.0
  0
LINE
  5
4BD
100
AcDbEntity
  8
詳細図
  6
CONTINUOUS
 62
     6
100
AcDbLine
 10
1519.237557
 20
624.347511
 30
0.0
 11
1501.353537
 21
620.770707
 31
0.0
  0
LINE
  5
4BE
100
AcDbEntity
  8
詳細図
  6
CONTINUOUS
 62
     6
100
AcDbLine
 10
1502.5
 20
852.5
 30
0.0
 11
1502.5
 21
635.191742
 31
0.0
  0
LINE
  5
4BF
100
AcDbEntity
  8
詳細図
  6
CONTINUOUS
 62
     6
100
AcDbLine
 10
1517.5
 20
852.5
 30
0.0
 11
1517.5
 21
635.191742
 31
0.0
  0
LINE
  5
4C0
100
AcDbEntity
  8
詳細図
  6
EXLTYPE3
 62
     6
100
AcDbLine
 10
1510.0
 20
1006.113054
 30
0.0
 11
1510.0
 21
593.7
 31
0.0
  0
LINE
  5
4C1
100
AcDbEntity
  8
詳細図
  6
CONTINUOUS
 62
     6
100
AcDbLine
 10
1520.0
 20
694.9
 30
0.0
 11
1500.0
 21
690.9
 31
0.0
  0
LINE
  5
4C2
100
AcDbEntity
  8
詳細図
  6
CONTINUOUS
 62
     6
100
AcDbLine
 10
1456.517208
 20
627.5
 30
0.0
 11
1502.5
 21
673.482792
 31
0.0
  0
LINE
  5
4C3
100
AcDbEntity
  8
詳細図
  6
CONTINUOUS
 62
     6
100
AcDbLine
 10
1463.588276
 20
627.5
 30
0.0
 11
1502.5
 21
666.411724
 31
0.0
  0
LINE
  5
4C4
100
AcDbEntity
  8
詳細図
  6
CONTINUOUS
 62
     6
100
AcDbLine
 10
1517.5
 20
681.411724
 30
0.0
 11
1523.588276
 21
687.5
 31
0.0
  0
LINE
  5
4C5
100
AcDbEntity
  8
詳細図
  6
CONTINUOUS
 62
     6
100
AcDbLine
 10
1450.0
 20
980.0
 30
0.0
 11
1465.336618
 21
980.0
 31
0.0
  0
LINE
  5
4C6
100
AcDbEntity
  8
詳細図
  6
CONTINUOUS
 62
     6
100
AcDbLine
 10
1455.0
 20
982.5
 30
0.0
 11
1465.26086
 21
982.5
 31
0.0
  0
LINE
  5
4C7
100
AcDbEntity
  8
詳細図
  6
CONTINUOUS
 62
     6
100
AcDbLine
 10
1465.26086
 20
982.5
 30
0.0
 11
1466.512376
 21
941.2
 31
0.0
  0
LINE
  5
4C8
100
AcDbEntity
  8
詳細図
  6
CONTINUOUS
 62
     6
100
AcDbLine
 10
1475.26086
 20
982.5
 30
0.0
 11
1474.009345
 21
941.2
 31
0.0
  0
LINE
  5
4C9
100
AcDbEntity
  8
詳細図
  6
CONTINUOUS
 62
     6
100
AcDbLine
 10
1475.26086
 20
982.5
 30
0.0
 11
1544.73914
 21
982.5
 31
0.0
  0
LINE
  5
4CA
100
AcDbEntity
  8
詳細図
  6
CONTINUOUS
 62
     6
100
AcDbLine
 10
1554.73914
 20
982.5
 30
0.0
 11
1565.0
 21
982.5
 31
0.0
  0
LINE
  5
4CB
100
AcDbEntity
  8
詳細図
  6
CONTINUOUS
 62
     6
100
AcDbLine
 10
1554.663382
 20
980.0
 30
0.0
 11
1570.0
 21
980.0
 31
0.0
  0
LINE
  5
4CC
100
AcDbEntity
  8
詳細図
  6
CONTINUOUS
 62
     6
100
AcDbLine
 10
1544.73914
 20
982.5
 30
0.0
 11
1545.990655
 21
941.2
 31
0.0
  0
LINE
  5
4CD
100
AcDbEntity
  8
詳細図
  6
CONTINUOUS
 62
     6
100
AcDbLine
 10
1554.73914
 20
982.5
 30
0.0
 11
1553.487624
 21
941.2
 31
0.0
  0
TEXT
  5
4CE
100
AcDbEntity
  8
詳細図寸法
  6
CONTINUOUS
 62
     2
100
AcDbText
 10
1617.029221
 20
832.75
 30
0.0
 40
40.0
  1
トラスねじ
 41
0.8106
  7
EXCADSTD
 72
     5
 11
1810.02922
 21
832.75
 31
0.0
100
AcDbText
  0
LEADER
  5
4CF
100
AcDbEntity
  8
詳細図寸法
  6
CONTINUOUS
 62
     6
100
AcDbLeader
  3
STANDARD
 73
     3
 74
     1
 75
     0
 40
0.0
 76
     3
 10
1517.5
 20
752.0
 30
0.0
 10
1609.5
 20
829.5
 30
0.0
 10
1810.0
 20
829.5
 30
0.0
 77
     6
1001
ACAD
1000
DSTYLE
1002
{
1070
    41
1040
35.0
1070
     5
1000
_EX_NORM
1070
     6
1000
_EX_NORM
1070
     7
1000
_EX_NORM
1070
   341
1005
2C
1002
}
  0
TEXT
  5
4D0
100
AcDbEntity
  8
詳細図寸法
  6
CONTINUOUS
 62
     2
100
AcDbText
 10
1716.404221
 20
1084.431527
 30
0.0
 40
40.0
  1
キャップ
 41
0.819
  7
EXCADSTD
 72
     5
 11
1872.40422
 21
1084.431527
 31
0.0
100
AcDbText
  0
LEADER
  5
4D1
100
AcDbEntity
  8
詳細図寸法
  6
CONTINUOUS
 62
     6
100
AcDbLeader
  3
STANDARD
 73
     3
 74
     1
 75
     0
 40
0.0
 76
     3
 10
1526.478285
 20
990.841447
 30
0.0
 10
1711.533554
 20
1076.961982
 30
0.0
 10
1872.5
 20
1076.961982
 30
0.0
 77
     6
1001
ACAD
1000
DSTYLE
1002
{
1070
    41
1040
35.0
1070
     5
1000
_EX_NORM
1070
     6
1000
_EX_NORM
1070
     7
1000
_EX_NORM
1070
   341
1005
2C
1002
}
  0
TEXT
  5
4D2
100
AcDbEntity
  8
詳細図寸法
  6
CONTINUOUS
 62
     2
100
AcDbText
 10
1155.093247
 20
1089.25
 30
0.0
 40
40.0
  1
パン本体
 41
0.819
  7
EXCADSTD
 72
     5
 11
1311.093247
 21
1089.25
 31
0.0
100
AcDbText
  0
LEADER
  5
4D3
100
AcDbEntity
  8
詳細図寸法
  6
CONTINUOUS
 62
     6
100
AcDbLeader
  3
STANDARD
 73
     3
 74
     1
 75
     0
 40
0.0
 76
     3
 10
1421.0
 20
987.5
 30
0.0
 10
1313.941559
 20
1081.5
 30
0.0
 10
1146.0
 20
1081.5
 30
0.0
 77
     6
1001
ACAD
1000
DSTYLE
1002
{
1070
    41
1040
35.0
1070
     5
1000
_EX_NORM
1070
     6
1000
_EX_NORM
1070
     7
1000
_EX_NORM
1070
   341
1005
2C
1002
}
  0
TEXT
  5
4D4
100
AcDbEntity
  8
詳細図寸法
  6
CONTINUOUS
 62
     2
100
AcDbText
 10
1202.0
 20
687.5
 30
0.0
 40
40.0
  1
仕上床
 41
0.833
  7
EXCADSTD
 72
     5
 11
1321.0
 21
687.5
 31
0.0
100
AcDbText
  0
TEXT
  5
4D5
100
AcDbEntity
  8
詳細図寸法
  6
CONTINUOUS
 62
     2
100
AcDbText
 10
1306.535343
 20
455.0
 30
0.0
 40
45.0
  1
防水パン固定部詳細図
 41
0.798933
  7
EXCADSTD
 72
     5
 11
1734.535347
 21
455.0
 31
0.0
100
AcDbText
  0
LINE
  5
4D6
100
AcDbEntity
  8
詳細図寸法
  6
CONTINUOUS
 62
     6
100
AcDbLine
 10
1287.0
 20
449.75
 30
0.0
 11
1747.0
 21
449.75
 31
0.0
  0
ENDSEC
  0
SECTION
  2
OBJECTS
  0
DICTIONARY
  5
19
100
AcDbDictionary
  3
ACAD_GROUP
350
1A
  3
ACAD_MLINESTYLE
350
1B
  0
DICTIONARY
  5
1A
102
{ACAD_REACTORS
330
19
102
}
100
AcDbDictionary
  0
DICTIONARY
  5
1B
102
{ACAD_REACTORS
330
19
102
}
100
AcDbDictionary
  3
STANDARD
350
1C
  0
MLINESTYLE
  5
1C
102
{ACAD_REACTORS
330
1B
102
}
100
AcDbMlineStyle
  2
Standard
 70
     0
  3

 62
     0
 51
90.0
 52
90.0
 71
     2
 49
0.5
 62
   256
  6
ByLayer
 49
-0.5
 62
   256
  6
ByLayer
  0
ENDSEC
  0
EOF
