  0
SECTION
  2
HEADER
  9
$ACADVER
  1
AC1014
  9
$ACADMAINTVER
 70
     0
  9
$DWGCODEPAGE
  3
ANSI_932
  9
$INSBASE
 10
0.0
 20
0.0
 30
0.0
  9
$EXTMIN
 10
0.4
 20
13.5
 30
0.0
  9
$EXTMAX
 10
200.0
 20
288.5
 30
0.0
  9
$LIMMIN
 10
0.0
 20
0.0
  9
$LIMMAX
 10
210.0
 20
297.0
  9
$ORTHOMODE
 70
     0
  9
$REGENMODE
 70
     1
  9
$FILLMODE
 70
     1
  9
$QTEXTMODE
 70
     0
  9
$MIRRTEXT
 70
     1
  9
$DRAGMODE
 70
     2
  9
$LTSCALE
 40
1.0
  9
$OSMODE
 70
     0
  9
$ATTMODE
 70
     1
  9
$TEXTSIZE
 40
0.2
  9
$TRACEWID
 40
0.05
  9
$TEXTSTYLE
  7
STANDARD
  9
$CLAYER
  8
図
  9
$CELTYPE
  6
CONTINUOUS
  9
$CECOLOR
 62
   256
  9
$CELTSCALE
 40
1.0
  9
$DELOBJ
 70
     1
  9
$DISPSILH
 70
     0
  9
$DIMSCALE
 40
1.0
  9
$DIMASZ
 40
0.18
  9
$DIMEXO
 40
0.0625
  9
$DIMDLI
 40
0.38
  9
$DIMRND
 40
0.0
  9
$DIMDLE
 40
0.0
  9
$DIMEXE
 40
0.18
  9
$DIMTP
 40
0.0
  9
$DIMTM
 40
0.0
  9
$DIMTXT
 40
0.18
  9
$DIMCEN
 40
0.09
  9
$DIMTSZ
 40
0.0
  9
$DIMTOL
 70
     0
  9
$DIMLIM
 70
     0
  9
$DIMTIH
 70
     1
  9
$DIMTOH
 70
     1
  9
$DIMSE1
 70
     0
  9
$DIMSE2
 70
     0
  9
$DIMTAD
 70
     0
  9
$DIMZIN
 70
     0
  9
$DIMBLK
  1

  9
$DIMASO
 70
     1
  9
$DIMSHO
 70
     1
  9
$DIMPOST
  1

  9
$DIMAPOST
  1

  9
$DIMALT
 70
     0
  9
$DIMALTD
 70
     2
  9
$DIMALTF
 40
25.4
  9
$DIMLFAC
 40
1.0
  9
$DIMTOFL
 70
     0
  9
$DIMTVP
 40
0.0
  9
$DIMTIX
 70
     0
  9
$DIMSOXD
 70
     0
  9
$DIMSAH
 70
     0
  9
$DIMBLK1
  1

  9
$DIMBLK2
  1

  9
$DIMSTYLE
  2
STANDARD
  9
$DIMCLRD
 70
     0
  9
$DIMCLRE
 70
     0
  9
$DIMCLRT
 70
     0
  9
$DIMTFAC
 40
1.0
  9
$DIMGAP
 40
0.09
  9
$DIMJUST
 70
     0
  9
$DIMSD1
 70
     0
  9
$DIMSD2
 70
     0
  9
$DIMTOLJ
 70
     1
  9
$DIMTZIN
 70
     0
  9
$DIMALTZ
 70
     0
  9
$DIMALTTZ
 70
     0
  9
$DIMFIT
 70
     3
  9
$DIMUPT
 70
     0
  9
$DIMUNIT
 70
     2
  9
$DIMDEC
 70
     4
  9
$DIMTDEC
 70
     4
  9
$DIMALTU
 70
     2
  9
$DIMALTTD
 70
     2
  9
$DIMTXSTY
  7
STANDARD
  9
$DIMAUNIT
 70
     0
  9
$LUNITS
 70
     2
  9
$LUPREC
 70
     4
  9
$SKETCHINC
 40
0.1
  9
$FILLETRAD
 40
0.0
  9
$AUNITS
 70
     0
  9
$AUPREC
 70
     0
  9
$MENU
  1
acad
  9
$ELEVATION
 40
0.0
  9
$PELEVATION
 40
0.0
  9
$THICKNESS
 40
0.0
  9
$LIMCHECK
 70
     0
  9
$BLIPMODE
 70
     1
  9
$CHAMFERA
 40
0.0
  9
$CHAMFERB
 40
0.0
  9
$CHAMFERC
 40
0.0
  9
$CHAMFERD
 40
0.0
  9
$SKPOLY
 70
     0
  9
$TDCREATE
 40
2455195.878828669
  9
$TDUPDATE
 40
2455195.878828669
  9
$TDINDWG
 40
0.0000000000
  9
$TDUSRTIMER
 40
0.0000000000
  9
$USRTIMER
 70
     1
  9
$ANGBASE
 50
0.0
  9
$ANGDIR
 70
     0
  9
$PDMODE
 70
     0
  9
$PDSIZE
 40
0.0
  9
$PLINEWID
 40
0.0
  9
$COORDS
 70
     1
  9
$SPLFRAME
 70
     0
  9
$SPLINETYPE
 70
     6
  9
$SPLINESEGS
 70
     8
  9
$ATTDIA
 70
     0
  9
$ATTREQ
 70
     1
  9
$HANDLING
 70
     1
  9
$HANDSEED
  5
7C6
  9
$SURFTAB1
 70
     6
  9
$SURFTAB2
 70
     6
  9
$SURFTYPE
 70
     6
  9
$SURFU
 70
     6
  9
$SURFV
 70
     6
  9
$UCSNAME
  2

  9
$UCSORG
 10
0.0
 20
0.0
 30
0.0
  9
$UCSXDIR
 10
1.0
 20
0.0
 30
0.0
  9
$UCSYDIR
 10
0.0
 20
1.0
 30
0.0
  9
$PUCSNAME
  2

  9
$PUCSORG
 10
0.0
 20
0.0
 30
0.0
  9
$PUCSXDIR
 10
1.0
 20
0.0
 30
0.0
  9
$PUCSYDIR
 10
0.0
 20
1.0
 30
0.0
  9
$USERI1
 70
     0
  9
$USERI2
 70
     0
  9
$USERI3
 70
     0
  9
$USERI4
 70
     0
  9
$USERI5
 70
     0
  9
$USERR1
 40
0.0
  9
$USERR2
 40
0.0
  9
$USERR3
 40
0.0
  9
$USERR4
 40
0.0
  9
$USERR5
 40
0.0
  9
$WORLDVIEW
 70
     1
  9
$SHADEDGE
 70
     3
  9
$SHADEDIF
 70
    70
  9
$TILEMODE
 70
     1
  9
$MAXACTVP
 70
    16
  9
$PINSBASE
 10
0.0
 20
0.0
 30
0.0
  9
$PLIMCHECK
 70
     0
  9
$PEXTMIN
 10
1.000000E+20
 20
1.000000E+20
 30
1.000000E+20
  9
$PEXTMAX
 10
-1.000000E+20
 20
-1.000000E+20
 30
-1.000000E+20
  9
$PLIMMIN
 10
0.0
 20
0.0
  9
$PLIMMAX
 10
12.0
 20
9.0
  9
$UNITMODE
 70
     0
  9
$VISRETAIN
 70
     0
  9
$PLINEGEN
 70
     1
  9
$PSLTSCALE
 70
     0
  9
$TREEDEPTH
 70
  3020
  9
$PICKSTYLE
 70
     1
  9
$CMLSTYLE
  2
Standard
  9
$CMLJUST
 70
     0
  9
$CMLSCALE
 40
1.0
  9
$PROXYGRAPHICS
 70
     0
  9
$MEASUREMENT
 70
     0
  0
ENDSEC
  0
SECTION
  2
CLASSES
  0
CLASS
  1
LWPOLYLINE
  2
AcDbPolyline
  3
"AutoCAD"
 90
        0
280
     0
281
     1
  0
CLASS
  1
IMAGE
  2
AcDbRasterImage
  3
ISM
 90
      127
280
     0
281
     1
  0
CLASS
  1
OLE2FRAME
  2
AcDbOle2Frame
  3
""
 90
        0
280
     0
281
     1
  0
CLASS
  1
HATCH
  2
AcDbHatch
  3
"ACAD_SEDONA"
 90
        0
280
     0
281
     1
  0
CLASS
  1
DICTIONARYVAR
  2
AcDbDictionaryVar
  3
"AutoCAD"
 90
        0
280
     0
281
     0
  0
CLASS
  1
RASTERVARIABLES
  2
AcDbRasterVariables
  3
ISM
 90
        0
280
     0
281
     0
  0
CLASS
  1
IMAGEDEF
  2
AcDbRasterImageDef
  3
ISM
 90
        0
280
     0
281
     0
  0
CLASS
  1
IMAGEDEF_REACTOR
  2
AcDbRasterImageDefReactor
  3
ISM
 90
        1
280
     0
281
     0
  0
CLASS
  1
IDBUFFER
  2
AcDbIdBuffer
  3
"Acad"
 90
        0
280
     0
281
     0
  0
CLASS
  1
SPATIAL_FILTER
  2
AcDbSpatialFilter
  3
"Acad"
 90
        0
280
     0
281
     0
  0
CLASS
  1
XRECORD
  2
AcDbXrecord
  3
"<Built In>"
 90
        0
280
     0
281
     0
  0
CLASS
  1
SORTENTSTABLE
  2
AcDbSortentsTable
  3
"AutoCAD"
 90
        0
280
     0
281
     0
  0
CLASS
  1
LAYER_INDEX
  2
AcDbLayerIndex
  3
"Acad"
 90
        0
280
     0
281
     0
  0
CLASS
  1
SPATIAL_INDEX
  2
AcDbSpatialIndex
  3
"Acad"
 90
        0
280
     0
281
     0
  0
CLASS
  1
OBJECT_PTR
  2
CAseDLPNTableRecord
  3
"ASE-LPNTableRecord"
 90
        1
280
     0
281
     0
  0
CLASS
  1
LAYOUT
  2
AcDbLayout
  3
"AutoCAD 2000"
 90
        1
280
     0
281
     0
  0
CLASS
  1
PLOTSETTINGS
  2
AcDbPlotSettings
  3
"AutoCAD 2000"
 90
        1
280
     0
281
     0
  0
CLASS
  1
ACDBDICTIONARYWDFLT
  2
AcDbDictionaryWithDefault
  3
"AutoCAD 2000"
 90
        1
280
     0
281
     0
  0
CLASS
  1
ACDBPLACEHOLDER
  2
AcDbPlaceHolder
  3
"AutoCAD 2000"
 90
        1
280
     0
281
     0
  0
CLASS
  1
VBA_PROJECT
  2
AcDbVbaProject
  3
"acadvba"
 90
        1
280
     0
281
     0
  0
CLASS
  1
WIPEOUT
  2
AcDbWipeout
  3
WipeOut|AutoCAD Express Tool|expresstools@autodesk.com
 90
      127
280
     0
281
     1
  0
CLASS
  1
WIPEOUTVARIABLES
  2
AcDbWipeoutVariables
  3
WipeOut|AutoCAD Express Tool|expresstools@autodesk.com
 90
        0
280
     0
281
     0
  0
CLASS
  1
RTEXT
  2
RText
  3
RText|AutoCAD Express Tool|expresstools@autodesk.com
 90
        0
280
     0
281
     1
  0
CLASS
  1
ARCALIGNEDTEXT
  2
AcDbArcAlignedText
  3
ATEXT|AutoCAD Express Tool|expresstools@autodesk.com
 90
        0
280
     0
281
     1
  0
ENDSEC
  0
SECTION
  2
TABLES
  0
TABLE
  2
VPORT
  5
7
100
AcDbSymbolTable
 70
     1
  0
VPORT
  5
15
100
AcDbSymbolTableRecord
100
AcDbViewportTableRecord
  2
*ACTIVE
 70
     0
 10
0.0
 20
0.0
 11
1.0
 21
1.0
 12
1002.0
 22
1510.0
 13
0.0
 23
0.0
 14
1.0
 24
1.0
 15
0.0
 25
0.0
 16
0.0
 26
0.0
 36
1.0
 17
0.0
 27
0.0
 37
0.0
 40
2750.0
 41
1.722533
 42
50.0
 43
0.0
 44
0.0
 50
0.0
 51
0.0
 71
     0
 72
   100
 73
     1
 74
     1
 75
     0
 76
     0
 77
     0
 78
     0
  0
ENDTAB
  0
TABLE
  2
LTYPE
  5
4
100
AcDbSymbolTable
 70
     9
  0
LTYPE
  5
11
100
AcDbSymbolTableRecord
100
AcDbLinetypeTableRecord
  2
BYBLOCK
 70
    64
  3

 72
    65
 73
     0
 40
0.0
  0
LTYPE
  5
12
100
AcDbSymbolTableRecord
100
AcDbLinetypeTableRecord
  2
BYLAYER
 70
    64
  3

 72
    65
 73
     0
 40
0.0
  0
LTYPE
  5
13
100
AcDbSymbolTableRecord
100
AcDbLinetypeTableRecord
  2
CONTINUOUS
 70
    64
  3
実線
 72
    65
 73
     0
 40
0.0
  0
LTYPE
  5
1D
100
AcDbSymbolTableRecord
100
AcDbLinetypeTableRecord
  2
EXLTYPE1
 70
    64
  3
破線
 72
    65
 73
     2
 40
3.0
 49
2.0
 74
     0
 49
-1.0
 74
     0
  0
LTYPE
  5
1E
100
AcDbSymbolTableRecord
100
AcDbLinetypeTableRecord
  2
EXLTYPE2
 70
    64
  3
点線
 72
    65
 73
     2
 40
2.0
 49
1.0
 74
     0
 49
-1.0
 74
     0
  0
LTYPE
  5
1F
100
AcDbSymbolTableRecord
100
AcDbLinetypeTableRecord
  2
EXLTYPE3
 70
    64
  3
一点鎖線
 72
    65
 73
     4
 40
10.0
 49
7.0
 74
     0
 49
-1.0
 74
     0
 49
1.0
 74
     0
 49
-1.0
 74
     0
  0
LTYPE
  5
20
100
AcDbSymbolTableRecord
100
AcDbLinetypeTableRecord
  2
EXLTYPE4
 70
    64
  3
二点鎖線
 72
    65
 73
     6
 40
12.0
 49
7.0
 74
     0
 49
-1.0
 74
     0
 49
1.0
 74
     0
 49
-1.0
 74
     0
 49
1.0
 74
     0
 49
-1.0
 74
     0
  0
LTYPE
  5
21
100
AcDbSymbolTableRecord
100
AcDbLinetypeTableRecord
  2
EXLTYPE5
 70
    64
  3
三点鎖線
 72
    65
 73
     8
 40
37.0
 49
30.0
 74
     0
 49
-1.0
 74
     0
 49
1.0
 74
     0
 49
-1.0
 74
     0
 49
1.0
 74
     0
 49
-1.0
 74
     0
 49
1.0
 74
     0
 49
-1.0
 74
     0
  0
LTYPE
  5
22
100
AcDbSymbolTableRecord
100
AcDbLinetypeTableRecord
  2
EXLTYPE6
 70
    64
  3
四点鎖線
 72
    65
 73
    10
 40
39.0
 49
30.0
 74
     0
 49
-1.0
 74
     0
 49
1.0
 74
     0
 49
-1.0
 74
     0
 49
1.0
 74
     0
 49
-1.0
 74
     0
 49
1.0
 74
     0
 49
-1.0
 74
     0
 49
1.0
 74
     0
 49
-1.0
 74
     0
  0
ENDTAB
  0
TABLE
  2
LAYER
  5
2
100
AcDbSymbolTable
 70
     4
  0
LAYER
  5
14
100
AcDbSymbolTableRecord
100
AcDbLayerTableRecord
  2
0
 70
     0
 62
     7
  6
CONTINUOUS
  0
LAYER
  5
25
100
AcDbSymbolTableRecord
100
AcDbLayerTableRecord
  2
枠・表
 70
    64
 62
     7
  6
CONTINUOUS
  0
LAYER
  5
26
100
AcDbSymbolTableRecord
100
AcDbLayerTableRecord
  2
図
 70
    64
 62
     7
  6
CONTINUOUS
  0
LAYER
  5
27
100
AcDbSymbolTableRecord
100
AcDbLayerTableRecord
  2
寸法
 70
    64
 62
     7
  6
CONTINUOUS
  0
ENDTAB
  0
TABLE
  2
STYLE
  5
3
100
AcDbSymbolTable
 70
     5
  0
STYLE
  5
17
100
AcDbSymbolTableRecord
100
AcDbTextStyleTableRecord
  2
STANDARD
 70
     0
 40
0.0
 41
1.0
 50
0.0
 71
     0
 42
0.0
  3
monotxt
  4
extfont
  0
STYLE
  5
23
100
AcDbSymbolTableRecord
100
AcDbTextStyleTableRecord
  2
EXCADSTD
 70
    64
 40
0.0
 41
1.0
 50
0.0
 71
     0
 42
0.2
  3
monotxt
  4
extfont
  0
STYLE
  5
24
100
AcDbSymbolTableRecord
100
AcDbTextStyleTableRecord
  2
EXCADVERT
 70
    68
 40
0.0
 41
1.0
 50
0.0
 71
     0
 42
0.286885
  3
monotxt
  4
extfont
  0
STYLE
  5
AA
100
AcDbSymbolTableRecord
100
AcDbTextStyleTableRecord
  2
EXCADTTF1
 70
    64
 40
0.0
 41
1.0
 50
0.0
 71
     0
 42
0.2
  3
MS Gothic.ttf
  4

1001
ACAD
1000
MS Gothic
1071
    32817
  0
STYLE
  5
109
100
AcDbSymbolTableRecord
100
AcDbTextStyleTableRecord
  2
EXCADDIM1
 70
    64
 40
0.0
 41
0.84
 50
0.0
 71
     0
 42
0.2
  3
monotxt
  4
extfont
  0
ENDTAB
  0
TABLE
  2
VIEW
  5
5
100
AcDbSymbolTable
 70
     0
  0
ENDTAB
  0
TABLE
  2
UCS
  5
6
100
AcDbSymbolTable
 70
     0
  0
ENDTAB
  0
TABLE
  2
APPID
  5
8
100
AcDbSymbolTable
 70
     1
  0
APPID
  5
16
100
AcDbSymbolTableRecord
100
AcDbRegAppTableRecord
  2
ACAD
 70
     0
  0
ENDTAB
  0
TABLE
  2
DIMSTYLE
  5
9
100
AcDbSymbolTable
 70
     1
  0
DIMSTYLE
105
18
100
AcDbSymbolTableRecord
100
AcDbDimStyleTableRecord
  2
STANDARD
 70
     0
  3

  4

  5

  6

  7

 40
1.0
 41
0.18
 42
0.0625
 43
0.38
 44
0.18
 45
0.0
 46
0.0
 47
0.0
 48
0.0
 71
     0
 72
     0
 73
     1
 74
     1
 75
     0
 76
     0
 77
     0
 78
     0
140
0.18
141
0.09
142
0.0
143
25.4
144
1.0
145
0.0
146
1.0
147
0.09
170
     0
171
     2
172
     1
173
     0
174
     0
175
     0
176
     0
177
     0
178
     0
270
     2
271
     4
272
     4
273
     2
274
     2
275
     0
280
     0
281
     0
282
     0
283
     1
284
     0
285
     0
286
     0
287
     0
288
     0
340
17
  0
ENDTAB
  0
TABLE
  2
BLOCK_RECORD
  5
1
100
AcDbSymbolTable
 70
    34
  0
BLOCK_RECORD
  5
A
100
AcDbSymbolTableRecord
100
AcDbBlockTableRecord
  2
*MODEL_SPACE
  0
BLOCK_RECORD
  5
B
100
AcDbSymbolTableRecord
100
AcDbBlockTableRecord
  2
*PAPER_SPACE
  0
BLOCK_RECORD
  5
28
100
AcDbSymbolTableRecord
100
AcDbBlockTableRecord
  2
_EX_NORM
  0
BLOCK_RECORD
  5
29
100
AcDbSymbolTableRecord
100
AcDbBlockTableRecord
  2
_EX_BNORM
  0
BLOCK_RECORD
  5
2A
100
AcDbSymbolTableRecord
100
AcDbBlockTableRecord
  2
_EX_BCIR
  0
BLOCK_RECORD
  5
2B
100
AcDbSymbolTableRecord
100
AcDbBlockTableRecord
  2
_EX_RCIVIL
  0
BLOCK_RECORD
  5
2C
100
AcDbSymbolTableRecord
100
AcDbBlockTableRecord
  2
_EX_SLANT
  0
BLOCK_RECORD
  5
2D
100
AcDbSymbolTableRecord
100
AcDbBlockTableRecord
  2
_EX_NONE
  0
BLOCK_RECORD
  5
2E
100
AcDbSymbolTableRecord
100
AcDbBlockTableRecord
  2
_EX_CIVIL
  0
BLOCK_RECORD
  5
2F
100
AcDbSymbolTableRecord
100
AcDbBlockTableRecord
  2
_EX_WCIR
  0
BLOCK_RECORD
  5
30
100
AcDbSymbolTableRecord
100
AcDbBlockTableRecord
  2
_EX_WCIR2
  0
BLOCK_RECORD
  5
31
100
AcDbSymbolTableRecord
100
AcDbBlockTableRecord
  2
_EX_WNORM
  0
BLOCK_RECORD
  5
32
100
AcDbSymbolTableRecord
100
AcDbBlockTableRecord
  2
_EX_NNORM
  0
BLOCK_RECORD
  5
33
100
AcDbSymbolTableRecord
100
AcDbBlockTableRecord
  2
_EX_BBOX
  0
BLOCK_RECORD
  5
34
100
AcDbSymbolTableRecord
100
AcDbBlockTableRecord
  2
_EX_WBOX
  0
BLOCK_RECORD
  5
35
100
AcDbSymbolTableRecord
100
AcDbBlockTableRecord
  2
_EX_INTEGRAL
  0
BLOCK_RECORD
  5
FE
100
AcDbSymbolTableRecord
100
AcDbBlockTableRecord
  2
*D14
  0
BLOCK_RECORD
  5
10B
100
AcDbSymbolTableRecord
100
AcDbBlockTableRecord
  2
*D15
  0
BLOCK_RECORD
  5
117
100
AcDbSymbolTableRecord
100
AcDbBlockTableRecord
  2
*D16
  0
BLOCK_RECORD
  5
123
100
AcDbSymbolTableRecord
100
AcDbBlockTableRecord
  2
*D17
  0
BLOCK_RECORD
  5
12F
100
AcDbSymbolTableRecord
100
AcDbBlockTableRecord
  2
*D18
  0
BLOCK_RECORD
  5
140
100
AcDbSymbolTableRecord
100
AcDbBlockTableRecord
  2
*D19
  0
BLOCK_RECORD
  5
14C
100
AcDbSymbolTableRecord
100
AcDbBlockTableRecord
  2
*D20
  0
BLOCK_RECORD
  5
158
100
AcDbSymbolTableRecord
100
AcDbBlockTableRecord
  2
*D21
  0
BLOCK_RECORD
  5
17C
100
AcDbSymbolTableRecord
100
AcDbBlockTableRecord
  2
*D22
  0
BLOCK_RECORD
  5
199
100
AcDbSymbolTableRecord
100
AcDbBlockTableRecord
  2
*D23
  0
BLOCK_RECORD
  5
1A5
100
AcDbSymbolTableRecord
100
AcDbBlockTableRecord
  2
*D24
  0
BLOCK_RECORD
  5
750
100
AcDbSymbolTableRecord
100
AcDbBlockTableRecord
  2
*D25
  0
BLOCK_RECORD
  5
75C
100
AcDbSymbolTableRecord
100
AcDbBlockTableRecord
  2
*D26
  0
BLOCK_RECORD
  5
768
100
AcDbSymbolTableRecord
100
AcDbBlockTableRecord
  2
*D27
  0
BLOCK_RECORD
  5
774
100
AcDbSymbolTableRecord
100
AcDbBlockTableRecord
  2
*D28
  0
BLOCK_RECORD
  5
77F
100
AcDbSymbolTableRecord
100
AcDbBlockTableRecord
  2
*D29
  0
BLOCK_RECORD
  5
78B
100
AcDbSymbolTableRecord
100
AcDbBlockTableRecord
  2
*D30
  0
BLOCK_RECORD
  5
796
100
AcDbSymbolTableRecord
100
AcDbBlockTableRecord
  2
*D31
  0
BLOCK_RECORD
  5
7AD
100
AcDbSymbolTableRecord
100
AcDbBlockTableRecord
  2
*D32
  0
BLOCK_RECORD
  5
7B9
100
AcDbSymbolTableRecord
100
AcDbBlockTableRecord
  2
*D33
  0
ENDTAB
  0
ENDSEC
  0
SECTION
  2
BLOCKS
  0
BLOCK
  5
D
100
AcDbEntity
  8
0
100
AcDbBlockBegin
  2
*MODEL_SPACE
 70
     0
 10
0.0
 20
0.0
 30
0.0
  3
*MODEL_SPACE
  1

  0
ENDBLK
  5
E
100
AcDbEntity
  8
0
100
AcDbBlockEnd
  0
BLOCK
  5
F
100
AcDbEntity
 67
     1
  8
0
100
AcDbBlockBegin
  2
*PAPER_SPACE
 70
     0
 10
0.0
 20
0.0
 30
0.0
  3
*PAPER_SPACE
  1

  0
ENDBLK
  5
10
100
AcDbEntity
 67
     1
  8
0
100
AcDbBlockEnd
  0
BLOCK
  5
36
100
AcDbEntity
  8
0
100
AcDbBlockBegin
  2
_EX_NORM
 70
     0
 10
0.0
 20
0.0
 30
0.0
  3
_EX_NORM
  1

  0
LINE
  5
37
100
AcDbEntity
  8
0
  6
CONTINUOUS
 62
     0
100
AcDbLine
 10
0.0
 20
0.0
 30
0.0
 11
-1.0
 21
0.0
 31
0.0
  0
LINE
  5
38
100
AcDbEntity
  8
0
  6
CONTINUOUS
 62
     0
100
AcDbLine
 10
0.0
 20
0.0
 30
0.0
 11
-1.0
 21
0.166667
 31
0.0
  0
LINE
  5
39
100
AcDbEntity
  8
0
  6
CONTINUOUS
 62
     0
100
AcDbLine
 10
0.0
 20
0.0
 30
0.0
 11
-1.0
 21
-0.166667
 31
0.0
  0
ENDBLK
  5
3A
100
AcDbEntity
  8
0
100
AcDbBlockEnd
  0
BLOCK
  5
3B
100
AcDbEntity
  8
0
100
AcDbBlockBegin
  2
_EX_BNORM
 70
     0
 10
0.0
 20
0.0
 30
0.0
  3
_EX_BNORM
  1

  0
LINE
  5
3C
100
AcDbEntity
  8
0
  6
CONTINUOUS
 62
     0
100
AcDbLine
 10
0.0
 20
0.0
 30
0.0
 11
-1.0
 21
0.0
 31
0.0
  0
LINE
  5
3D
100
AcDbEntity
  8
0
  6
CONTINUOUS
 62
     0
100
AcDbLine
 10
0.0
 20
0.0
 30
0.0
 11
-1.0
 21
0.166667
 31
0.0
  0
LINE
  5
3E
100
AcDbEntity
  8
0
  6
CONTINUOUS
 62
     0
100
AcDbLine
 10
0.0
 20
0.0
 30
0.0
 11
-1.0
 21
-0.166667
 31
0.0
  0
LINE
  5
3F
100
AcDbEntity
  8
0
  6
CONTINUOUS
 62
     0
100
AcDbLine
 10
0.0
 20
0.0
 30
0.0
 11
-1.0
 21
0.083333
 31
0.0
  0
LINE
  5
40
100
AcDbEntity
  8
0
  6
CONTINUOUS
 62
     0
100
AcDbLine
 10
0.0
 20
0.0
 30
0.0
 11
-1.0
 21
-0.083333
 31
0.0
  0
LINE
  5
41
100
AcDbEntity
  8
0
  6
CONTINUOUS
 62
     0
100
AcDbLine
 10
-1.0
 20
0.166667
 30
0.0
 11
-1.0
 21
-0.166667
 31
0.0
  0
ENDBLK
  5
42
100
AcDbEntity
  8
0
100
AcDbBlockEnd
  0
BLOCK
  5
43
100
AcDbEntity
  8
0
100
AcDbBlockBegin
  2
_EX_BCIR
 70
     0
 10
0.0
 20
0.0
 30
0.0
  3
_EX_BCIR
  1

  0
LINE
  5
44
100
AcDbEntity
  8
0
  6
CONTINUOUS
 62
     0
100
AcDbLine
 10
0.0
 20
0.0
 30
0.0
 11
-1.0
 21
0.0
 31
0.0
  0
CIRCLE
  5
45
100
AcDbEntity
  8
0
  6
CONTINUOUS
 62
     0
100
AcDbCircle
 10
0.0
 20
0.0
 30
0.0
 40
0.5
  0
CIRCLE
  5
46
100
AcDbEntity
  8
0
  6
CONTINUOUS
 62
     0
100
AcDbCircle
 10
0.0
 20
0.0
 30
0.0
 40
0.25
  0
ENDBLK
  5
47
100
AcDbEntity
  8
0
100
AcDbBlockEnd
  0
BLOCK
  5
48
100
AcDbEntity
  8
0
100
AcDbBlockBegin
  2
_EX_RCIVIL
 70
     0
 10
0.0
 20
0.0
 30
0.0
  3
_EX_RCIVIL
  1

  0
LINE
  5
49
100
AcDbEntity
  8
0
  6
CONTINUOUS
 62
     0
100
AcDbLine
 10
0.0
 20
0.0
 30
0.0
 11
-1.0
 21
0.0
 31
0.0
  0
LINE
  5
4A
100
AcDbEntity
  8
0
  6
CONTINUOUS
 62
     0
100
AcDbLine
 10
-1.0
 20
-0.25
 30
0.0
 11
0.0
 21
-0.25
 31
0.0
  0
LINE
  5
4B
100
AcDbEntity
  8
0
  6
CONTINUOUS
 62
     0
100
AcDbLine
 10
-1.0
 20
-0.125
 30
0.0
 11
0.0
 21
-0.125
 31
0.0
  0
ENDBLK
  5
4C
100
AcDbEntity
  8
0
100
AcDbBlockEnd
  0
BLOCK
  5
4D
100
AcDbEntity
  8
0
100
AcDbBlockBegin
  2
_EX_SLANT
 70
     0
 10
0.0
 20
0.0
 30
0.0
  3
_EX_SLANT
  1

  0
LINE
  5
4E
100
AcDbEntity
  8
0
  6
CONTINUOUS
 62
     0
100
AcDbLine
 10
0.0
 20
0.0
 30
0.0
 11
-1.0
 21
0.0
 31
0.0
  0
LINE
  5
4F
100
AcDbEntity
  8
0
  6
CONTINUOUS
 62
     0
100
AcDbLine
 10
0.707107
 20
0.707107
 30
0.0
 11
-0.707107
 21
-0.707107
 31
0.0
  0
ENDBLK
  5
50
100
AcDbEntity
  8
0
100
AcDbBlockEnd
  0
BLOCK
  5
51
100
AcDbEntity
  8
0
100
AcDbBlockBegin
  2
_EX_NONE
 70
     0
 10
0.0
 20
0.0
 30
0.0
  3
_EX_NONE
  1

  0
LINE
  5
52
100
AcDbEntity
  8
0
  6
CONTINUOUS
 62
     0
100
AcDbLine
 10
0.0
 20
0.0
 30
0.0
 11
-1.0
 21
0.0
 31
0.0
  0
ENDBLK
  5
53
100
AcDbEntity
  8
0
100
AcDbBlockEnd
  0
BLOCK
  5
54
100
AcDbEntity
  8
0
100
AcDbBlockBegin
  2
_EX_CIVIL
 70
     0
 10
0.0
 20
0.0
 30
0.0
  3
_EX_CIVIL
  1

  0
LINE
  5
55
100
AcDbEntity
  8
0
  6
CONTINUOUS
 62
     0
100
AcDbLine
 10
0.0
 20
0.0
 30
0.0
 11
-1.0
 21
0.0
 31
0.0
  0
LINE
  5
56
100
AcDbEntity
  8
0
  6
CONTINUOUS
 62
     0
100
AcDbLine
 10
-1.0
 20
0.25
 30
0.0
 11
0.0
 21
0.25
 31
0.0
  0
LINE
  5
57
100
AcDbEntity
  8
0
  6
CONTINUOUS
 62
     0
100
AcDbLine
 10
-1.0
 20
0.125
 30
0.0
 11
0.0
 21
0.125
 31
0.0
  0
ENDBLK
  5
58
100
AcDbEntity
  8
0
100
AcDbBlockEnd
  0
BLOCK
  5
59
100
AcDbEntity
  8
0
100
AcDbBlockBegin
  2
_EX_WCIR
 70
     0
 10
0.0
 20
0.0
 30
0.0
  3
_EX_WCIR
  1

  0
LINE
  5
5A
100
AcDbEntity
  8
0
  6
CONTINUOUS
 62
     0
100
AcDbLine
 10
0.0
 20
0.0
 30
0.0
 11
-1.0
 21
0.0
 31
0.0
  0
CIRCLE
  5
5B
100
AcDbEntity
  8
0
  6
CONTINUOUS
 62
     0
100
AcDbCircle
 10
0.0
 20
0.0
 30
0.0
 40
0.5
  0
ENDBLK
  5
5C
100
AcDbEntity
  8
0
100
AcDbBlockEnd
  0
BLOCK
  5
5D
100
AcDbEntity
  8
0
100
AcDbBlockBegin
  2
_EX_WCIR2
 70
     0
 10
0.0
 20
0.0
 30
0.0
  3
_EX_WCIR2
  1

  0
LINE
  5
5E
100
AcDbEntity
  8
0
  6
CONTINUOUS
 62
     0
100
AcDbLine
 10
-0.5
 20
0.0
 30
0.0
 11
-1.0
 21
0.0
 31
0.0
  0
CIRCLE
  5
5F
100
AcDbEntity
  8
0
  6
CONTINUOUS
 62
     0
100
AcDbCircle
 10
0.0
 20
0.0
 30
0.0
 40
0.5
  0
ENDBLK
  5
60
100
AcDbEntity
  8
0
100
AcDbBlockEnd
  0
BLOCK
  5
61
100
AcDbEntity
  8
0
100
AcDbBlockBegin
  2
_EX_WNORM
 70
     0
 10
0.0
 20
0.0
 30
0.0
  3
_EX_WNORM
  1

  0
LINE
  5
62
100
AcDbEntity
  8
0
  6
CONTINUOUS
 62
     0
100
AcDbLine
 10
-1.0
 20
0.0
 30
0.0
 11
-1.0
 21
0.0
 31
0.0
  0
LINE
  5
63
100
AcDbEntity
  8
0
  6
CONTINUOUS
 62
     0
100
AcDbLine
 10
0.0
 20
0.0
 30
0.0
 11
-1.0
 21
0.166667
 31
0.0
  0
LINE
  5
64
100
AcDbEntity
  8
0
  6
CONTINUOUS
 62
     0
100
AcDbLine
 10
0.0
 20
0.0
 30
0.0
 11
-1.0
 21
-0.166667
 31
0.0
  0
LINE
  5
65
100
AcDbEntity
  8
0
  6
CONTINUOUS
 62
     0
100
AcDbLine
 10
-1.0
 20
0.166667
 30
0.0
 11
-1.0
 21
-0.166667
 31
0.0
  0
ENDBLK
  5
66
100
AcDbEntity
  8
0
100
AcDbBlockEnd
  0
BLOCK
  5
67
100
AcDbEntity
  8
0
100
AcDbBlockBegin
  2
_EX_NNORM
 70
     0
 10
0.0
 20
0.0
 30
0.0
  3
_EX_NNORM
  1

  0
LINE
  5
68
100
AcDbEntity
  8
0
  6
CONTINUOUS
 62
     0
100
AcDbLine
 10
0.0
 20
0.0
 30
0.0
 11
-1.0
 21
0.0
 31
0.0
  0
LINE
  5
69
100
AcDbEntity
  8
0
  6
CONTINUOUS
 62
     0
100
AcDbLine
 10
0.0
 20
0.0
 30
0.0
 11
-1.0
 21
0.166667
 31
0.0
  0
LINE
  5
6A
100
AcDbEntity
  8
0
  6
CONTINUOUS
 62
     0
100
AcDbLine
 10
0.0
 20
0.0
 30
0.0
 11
-1.0
 21
-0.166667
 31
0.0
  0
LINE
  5
6B
100
AcDbEntity
  8
0
  6
CONTINUOUS
 62
     0
100
AcDbLine
 10
-1.0
 20
0.166667
 30
0.0
 11
-1.0
 21
-0.166667
 31
0.0
  0
ENDBLK
  5
6C
100
AcDbEntity
  8
0
100
AcDbBlockEnd
  0
BLOCK
  5
6D
100
AcDbEntity
  8
0
100
AcDbBlockBegin
  2
_EX_BBOX
 70
     0
 10
0.0
 20
0.0
 30
0.0
  3
_EX_BBOX
  1

  0
LINE
  5
6E
100
AcDbEntity
  8
0
  6
CONTINUOUS
 62
     0
100
AcDbLine
 10
0.0
 20
0.0
 30
0.0
 11
-1.0
 21
0.0
 31
0.0
  0
LINE
  5
6F
100
AcDbEntity
  8
0
  6
CONTINUOUS
 62
     0
100
AcDbLine
 10
-0.5
 20
0.5
 30
0.0
 11
0.5
 21
0.5
 31
0.0
  0
LINE
  5
70
100
AcDbEntity
  8
0
  6
CONTINUOUS
 62
     0
100
AcDbLine
 10
0.5
 20
0.5
 30
0.0
 11
0.5
 21
-0.5
 31
0.0
  0
LINE
  5
71
100
AcDbEntity
  8
0
  6
CONTINUOUS
 62
     0
100
AcDbLine
 10
0.5
 20
-0.5
 30
0.0
 11
-0.5
 21
-0.5
 31
0.0
  0
LINE
  5
72
100
AcDbEntity
  8
0
  6
CONTINUOUS
 62
     0
100
AcDbLine
 10
-0.5
 20
-0.5
 30
0.0
 11
-0.5
 21
0.5
 31
0.0
  0
LINE
  5
73
100
AcDbEntity
  8
0
  6
CONTINUOUS
 62
     0
100
AcDbLine
 10
-0.25
 20
0.25
 30
0.0
 11
0.25
 21
0.25
 31
0.0
  0
LINE
  5
74
100
AcDbEntity
  8
0
  6
CONTINUOUS
 62
     0
100
AcDbLine
 10
0.25
 20
0.25
 30
0.0
 11
0.25
 21
-0.25
 31
0.0
  0
LINE
  5
75
100
AcDbEntity
  8
0
  6
CONTINUOUS
 62
     0
100
AcDbLine
 10
0.25
 20
-0.25
 30
0.0
 11
-0.25
 21
-0.25
 31
0.0
  0
LINE
  5
76
100
AcDbEntity
  8
0
  6
CONTINUOUS
 62
     0
100
AcDbLine
 10
-0.25
 20
-0.25
 30
0.0
 11
-0.25
 21
0.25
 31
0.0
  0
ENDBLK
  5
77
100
AcDbEntity
  8
0
100
AcDbBlockEnd
  0
BLOCK
  5
78
100
AcDbEntity
  8
0
100
AcDbBlockBegin
  2
_EX_WBOX
 70
     0
 10
0.0
 20
0.0
 30
0.0
  3
_EX_WBOX
  1

  0
LINE
  5
79
100
AcDbEntity
  8
0
  6
CONTINUOUS
 62
     0
100
AcDbLine
 10
-0.5
 20
0.0
 30
0.0
 11
-1.0
 21
0.0
 31
0.0
  0
LINE
  5
7A
100
AcDbEntity
  8
0
  6
CONTINUOUS
 62
     0
100
AcDbLine
 10
-0.5
 20
0.5
 30
0.0
 11
0.5
 21
0.5
 31
0.0
  0
LINE
  5
7B
100
AcDbEntity
  8
0
  6
CONTINUOUS
 62
     0
100
AcDbLine
 10
0.5
 20
0.5
 30
0.0
 11
0.5
 21
-0.5
 31
0.0
  0
LINE
  5
7C
100
AcDbEntity
  8
0
  6
CONTINUOUS
 62
     0
100
AcDbLine
 10
0.5
 20
-0.5
 30
0.0
 11
-0.5
 21
-0.5
 31
0.0
  0
LINE
  5
7D
100
AcDbEntity
  8
0
  6
CONTINUOUS
 62
     0
100
AcDbLine
 10
-0.5
 20
-0.5
 30
0.0
 11
-0.5
 21
0.5
 31
0.0
  0
ENDBLK
  5
7E
100
AcDbEntity
  8
0
100
AcDbBlockEnd
  0
BLOCK
  5
7F
100
AcDbEntity
  8
0
100
AcDbBlockBegin
  2
_EX_INTEGRAL
 70
     0
 10
0.0
 20
0.0
 30
0.0
  3
_EX_INTEGRAL
  1

  0
LINE
  5
80
100
AcDbEntity
  8
0
  6
CONTINUOUS
 62
     0
100
AcDbLine
 10
0.0
 20
0.0
 30
0.0
 11
-1.0
 21
0.0
 31
0.0
  0
ARC
  5
81
100
AcDbEntity
  8
0
  6
CONTINUOUS
 62
     0
100
AcDbCircle
 10
0.542115
 20
0.164992
 30
0.0
 40
0.56667
100
AcDbArc
 50
73.07249
 51
196.927513
  0
ARC
  5
82
100
AcDbEntity
  8
0
  6
CONTINUOUS
 62
     0
100
AcDbCircle
 10
-0.542115
 20
-0.164992
 30
0.0
 40
0.56667
100
AcDbArc
 50
253.072487
 51
16.927513
  0
ENDBLK
  5
83
100
AcDbEntity
  8
0
100
AcDbBlockEnd
  0
BLOCK
  5
FF
100
AcDbEntity
  8
0
100
AcDbBlockBegin
  2
*D14
 70
    65
 10
0.0
 20
0.0
 30
0.0
  3
*D14
  1

  0
LINE
  5
100
100
AcDbEntity
  8
図
  6
CONTINUOUS
 62
     3
100
AcDbLine
 10
562.5
 20
2360.0
 30
0.0
 11
562.5
 21
2507.0
 31
0.0
  0
LINE
  5
101
100
AcDbEntity
  8
図
  6
CONTINUOUS
 62
     3
100
AcDbLine
 10
722.5
 20
2360.0
 30
0.0
 11
722.5
 21
2507.0
 31
0.0
  0
TEXT
  5
102
100
AcDbEntity
  8
図
  6
CONTINUOUS
 62
     2
100
AcDbText
 10
600.5
 20
2500.5
 30
0.0
 40
40.0
  1
160
 41
0.84
  7
EXCADSTD
 72
     1
 11
642.5
 21
2500.5
 31
0.0
100
AcDbText
  0
LINE
  5
103
100
AcDbEntity
  8
図
  6
CONTINUOUS
 62
     3
100
AcDbLine
 10
562.5
 20
2497.0
 30
0.0
 11
722.5
 21
2497.0
 31
0.0
  0
LINE
  5
104
100
AcDbEntity
  8
図
  6
CONTINUOUS
 62
     3
100
AcDbLine
 10
592.5
 20
2502.0
 30
0.0
 11
562.5
 21
2497.0
 31
0.0
  0
LINE
  5
105
100
AcDbEntity
  8
図
  6
CONTINUOUS
 62
     3
100
AcDbLine
 10
562.5
 20
2497.0
 30
0.0
 11
592.5
 21
2492.0
 31
0.0
  0
LINE
  5
106
100
AcDbEntity
  8
図
  6
CONTINUOUS
 62
     3
100
AcDbLine
 10
692.5
 20
2492.0
 30
0.0
 11
722.5
 21
2497.0
 31
0.0
  0
LINE
  5
107
100
AcDbEntity
  8
図
  6
CONTINUOUS
 62
     3
100
AcDbLine
 10
722.5
 20
2497.0
 30
0.0
 11
692.5
 21
2502.0
 31
0.0
  0
ENDBLK
  5
108
100
AcDbEntity
  8
0
100
AcDbBlockEnd
  0
BLOCK
  5
10C
100
AcDbEntity
  8
0
100
AcDbBlockBegin
  2
*D15
 70
    65
 10
0.0
 20
0.0
 30
0.0
  3
*D15
  1

  0
LINE
  5
10D
100
AcDbEntity
  8
図
  6
CONTINUOUS
 62
     3
100
AcDbLine
 10
509.5
 20
2304.0
 30
0.0
 11
509.5
 21
2567.0
 31
0.0
  0
LINE
  5
10E
100
AcDbEntity
  8
図
  6
CONTINUOUS
 62
     3
100
AcDbLine
 10
775.5
 20
2304.0
 30
0.0
 11
775.5
 21
2567.0
 31
0.0
  0
TEXT
  5
10F
100
AcDbEntity
  8
図
  6
CONTINUOUS
 62
     2
100
AcDbText
 10
600.5
 20
2560.5
 30
0.0
 40
40.0
  1
266
 41
0.84
  7
EXCADSTD
 72
     1
 11
642.5
 21
2560.5
 31
0.0
100
AcDbText
  0
LINE
  5
110
100
AcDbEntity
  8
図
  6
CONTINUOUS
 62
     3
100
AcDbLine
 10
509.5
 20
2557.0
 30
0.0
 11
775.5
 21
2557.0
 31
0.0
  0
LINE
  5
111
100
AcDbEntity
  8
図
  6
CONTINUOUS
 62
     3
100
AcDbLine
 10
539.5
 20
2562.0
 30
0.0
 11
509.5
 21
2557.0
 31
0.0
  0
LINE
  5
112
100
AcDbEntity
  8
図
  6
CONTINUOUS
 62
     3
100
AcDbLine
 10
509.5
 20
2557.0
 30
0.0
 11
539.5
 21
2552.0
 31
0.0
  0
LINE
  5
113
100
AcDbEntity
  8
図
  6
CONTINUOUS
 62
     3
100
AcDbLine
 10
745.5
 20
2552.0
 30
0.0
 11
775.5
 21
2557.0
 31
0.0
  0
LINE
  5
114
100
AcDbEntity
  8
図
  6
CONTINUOUS
 62
     3
100
AcDbLine
 10
775.5
 20
2557.0
 30
0.0
 11
745.5
 21
2562.0
 31
0.0
  0
ENDBLK
  5
115
100
AcDbEntity
  8
0
100
AcDbBlockEnd
  0
BLOCK
  5
118
100
AcDbEntity
  8
0
100
AcDbBlockBegin
  2
*D16
 70
    65
 10
0.0
 20
0.0
 30
0.0
  3
*D16
  1

  0
LINE
  5
119
100
AcDbEntity
  8
図
  6
CONTINUOUS
 62
     3
100
AcDbLine
 10
593.0
 20
2116.5
 30
0.0
 11
464.0
 21
2116.5
 31
0.0
  0
LINE
  5
11A
100
AcDbEntity
  8
図
  6
CONTINUOUS
 62
     3
100
AcDbLine
 10
555.5
 20
2196.5
 30
0.0
 11
464.0
 21
2196.5
 31
0.0
  0
TEXT
  5
11B
100
AcDbEntity
  8
図
  6
CONTINUOUS
 62
     2
100
AcDbText
 10
470.5
 20
2127.1
 30
0.0
 40
40.0
  1
80
 50
90.0
 41
0.84
  7
EXCADSTD
 72
     1
 11
470.5
 21
2156.5
 31
0.0
100
AcDbText
  0
LINE
  5
11C
100
AcDbEntity
  8
図
  6
CONTINUOUS
 62
     3
100
AcDbLine
 10
474.0
 20
2116.5
 30
0.0
 11
474.0
 21
2196.5
 31
0.0
  0
LINE
  5
11D
100
AcDbEntity
  8
図
  6
CONTINUOUS
 62
     3
100
AcDbLine
 10
469.0
 20
2146.5
 30
0.0
 11
474.0
 21
2116.5
 31
0.0
  0
LINE
  5
11E
100
AcDbEntity
  8
図
  6
CONTINUOUS
 62
     3
100
AcDbLine
 10
474.0
 20
2116.5
 30
0.0
 11
479.0
 21
2146.5
 31
0.0
  0
LINE
  5
11F
100
AcDbEntity
  8
図
  6
CONTINUOUS
 62
     3
100
AcDbLine
 10
479.0
 20
2166.5
 30
0.0
 11
474.0
 21
2196.5
 31
0.0
  0
LINE
  5
120
100
AcDbEntity
  8
図
  6
CONTINUOUS
 62
     3
100
AcDbLine
 10
474.0
 20
2196.5
 30
0.0
 11
469.0
 21
2166.5
 31
0.0
  0
ENDBLK
  5
121
100
AcDbEntity
  8
0
100
AcDbBlockEnd
  0
BLOCK
  5
124
100
AcDbEntity
  8
0
100
AcDbBlockBegin
  2
*D17
 70
    65
 10
0.0
 20
0.0
 30
0.0
  3
*D17
  1

  0
LINE
  5
125
100
AcDbEntity
  8
図
  6
CONTINUOUS
 62
     3
100
AcDbLine
 10
555.5
 20
2196.5
 30
0.0
 11
464.0
 21
2196.5
 31
0.0
  0
LINE
  5
126
100
AcDbEntity
  8
図
  6
CONTINUOUS
 62
     3
100
AcDbLine
 10
495.0
 20
2289.5
 30
0.0
 11
464.0
 21
2289.5
 31
0.0
  0
TEXT
  5
127
100
AcDbEntity
  8
図
  6
CONTINUOUS
 62
     2
100
AcDbText
 10
470.5
 20
2213.6
 30
0.0
 40
40.0
  1
93
 50
90.0
 41
0.84
  7
EXCADSTD
 72
     1
 11
470.5
 21
2243.0
 31
0.0
100
AcDbText
  0
LINE
  5
128
100
AcDbEntity
  8
図
  6
CONTINUOUS
 62
     3
100
AcDbLine
 10
474.0
 20
2196.5
 30
0.0
 11
474.0
 21
2289.5
 31
0.0
  0
LINE
  5
129
100
AcDbEntity
  8
図
  6
CONTINUOUS
 62
     3
100
AcDbLine
 10
469.0
 20
2226.5
 30
0.0
 11
474.0
 21
2196.5
 31
0.0
  0
LINE
  5
12A
100
AcDbEntity
  8
図
  6
CONTINUOUS
 62
     3
100
AcDbLine
 10
474.0
 20
2196.5
 30
0.0
 11
479.0
 21
2226.5
 31
0.0
  0
LINE
  5
12B
100
AcDbEntity
  8
図
  6
CONTINUOUS
 62
     3
100
AcDbLine
 10
479.0
 20
2259.5
 30
0.0
 11
474.0
 21
2289.5
 31
0.0
  0
LINE
  5
12C
100
AcDbEntity
  8
図
  6
CONTINUOUS
 62
     3
100
AcDbLine
 10
474.0
 20
2289.5
 30
0.0
 11
469.0
 21
2259.5
 31
0.0
  0
ENDBLK
  5
12D
100
AcDbEntity
  8
0
100
AcDbBlockEnd
  0
BLOCK
  5
130
100
AcDbEntity
  8
0
100
AcDbBlockBegin
  2
*D18
 70
    65
 10
0.0
 20
0.0
 30
0.0
  3
*D18
  1

  0
LINE
  5
131
100
AcDbEntity
  8
図
  6
CONTINUOUS
 62
     3
100
AcDbLine
 10
555.5
 20
2196.5
 30
0.0
 11
404.0
 21
2196.5
 31
0.0
  0
TEXT
  5
132
100
AcDbEntity
  8
図
  6
CONTINUOUS
 62
     2
100
AcDbText
 10
410.5
 20
2282.0
 30
0.0
 40
40.0
  1
255
 50
90.0
 41
0.84
  7
EXCADSTD
 72
     1
 11
410.5
 21
2324.0
 31
0.0
100
AcDbText
  0
LINE
  5
133
100
AcDbEntity
  8
図
  6
CONTINUOUS
 62
     3
100
AcDbLine
 10
414.0
 20
2196.5
 30
0.0
 11
414.0
 21
2451.5
 31
0.0
  0
LINE
  5
134
100
AcDbEntity
  8
図
  6
CONTINUOUS
 62
     3
100
AcDbLine
 10
409.0
 20
2226.5
 30
0.0
 11
414.0
 21
2196.5
 31
0.0
  0
LINE
  5
135
100
AcDbEntity
  8
図
  6
CONTINUOUS
 62
     3
100
AcDbLine
 10
414.0
 20
2196.5
 30
0.0
 11
419.0
 21
2226.5
 31
0.0
  0
LINE
  5
136
100
AcDbEntity
  8
図
  6
CONTINUOUS
 62
     3
100
AcDbLine
 10
419.0
 20
2421.5
 30
0.0
 11
414.0
 21
2451.5
 31
0.0
  0
LINE
  5
137
100
AcDbEntity
  8
図
  6
CONTINUOUS
 62
     3
100
AcDbLine
 10
414.0
 20
2451.5
 30
0.0
 11
409.0
 21
2421.5
 31
0.0
  0
ENDBLK
  5
138
100
AcDbEntity
  8
0
100
AcDbBlockEnd
  0
BLOCK
  5
141
100
AcDbEntity
  8
0
100
AcDbBlockBegin
  2
*D19
 70
    65
 10
0.0
 20
0.0
 30
0.0
  3
*D19
  1

  0
LINE
  5
142
100
AcDbEntity
  8
図
  6
CONTINUOUS
 62
     3
100
AcDbLine
 10
607.5
 20
2102.0
 30
0.0
 11
607.5
 21
1936.0
 31
0.0
  0
LINE
  5
143
100
AcDbEntity
  8
図
  6
CONTINUOUS
 62
     3
100
AcDbLine
 10
642.5
 20
1994.5
 30
0.0
 11
642.5
 21
1936.0
 31
0.0
  0
TEXT
  5
144
100
AcDbEntity
  8
図
  6
CONTINUOUS
 62
     2
100
AcDbText
 10
513.1
 20
1949.5
 30
0.0
 40
40.0
  1
35
 41
0.84
  7
EXCADSTD
 72
     1
 11
542.5
 21
1949.5
 31
0.0
100
AcDbText
  0
LINE
  5
145
100
AcDbEntity
  8
図
  6
CONTINUOUS
 62
     3
100
AcDbLine
 10
503.999996
 20
1946.0
 30
0.0
 11
672.5
 21
1946.0
 31
0.0
  0
LINE
  5
146
100
AcDbEntity
  8
図
  6
CONTINUOUS
 62
     3
100
AcDbLine
 10
577.5
 20
1941.0
 30
0.0
 11
607.5
 21
1946.0
 31
0.0
  0
LINE
  5
147
100
AcDbEntity
  8
図
  6
CONTINUOUS
 62
     3
100
AcDbLine
 10
607.5
 20
1946.0
 30
0.0
 11
577.5
 21
1951.0
 31
0.0
  0
LINE
  5
148
100
AcDbEntity
  8
図
  6
CONTINUOUS
 62
     3
100
AcDbLine
 10
672.5
 20
1951.0
 30
0.0
 11
642.5
 21
1946.0
 31
0.0
  0
LINE
  5
149
100
AcDbEntity
  8
図
  6
CONTINUOUS
 62
     3
100
AcDbLine
 10
642.5
 20
1946.0
 30
0.0
 11
672.5
 21
1941.0
 31
0.0
  0
ENDBLK
  5
14A
100
AcDbEntity
  8
0
100
AcDbBlockEnd
  0
BLOCK
  5
14D
100
AcDbEntity
  8
0
100
AcDbBlockBegin
  2
*D20
 70
    65
 10
0.0
 20
0.0
 30
0.0
  3
*D20
  1

  0
LINE
  5
14E
100
AcDbEntity
  8
図
  6
CONTINUOUS
 62
     3
100
AcDbLine
 10
647.5
 20
2396.5
 30
0.0
 11
862.0
 21
2396.5
 31
0.0
  0
LINE
  5
14F
100
AcDbEntity
  8
図
  6
CONTINUOUS
 62
     3
100
AcDbLine
 10
647.5
 20
2146.5
 30
0.0
 11
862.0
 21
2146.5
 31
0.0
  0
TEXT
  5
150
100
AcDbEntity
  8
図
  6
CONTINUOUS
 62
     2
100
AcDbText
 10
848.5
 20
2229.5
 30
0.0
 40
40.0
  1
250
 50
90.0
 41
0.84
  7
EXCADSTD
 72
     1
 11
848.5
 21
2271.5
 31
0.0
100
AcDbText
  0
LINE
  5
151
100
AcDbEntity
  8
図
  6
CONTINUOUS
 62
     3
100
AcDbLine
 10
852.0
 20
2396.5
 30
0.0
 11
852.0
 21
2146.5
 31
0.0
  0
LINE
  5
152
100
AcDbEntity
  8
図
  6
CONTINUOUS
 62
     3
100
AcDbLine
 10
857.0
 20
2366.5
 30
0.0
 11
852.0
 21
2396.5
 31
0.0
  0
LINE
  5
153
100
AcDbEntity
  8
図
  6
CONTINUOUS
 62
     3
100
AcDbLine
 10
852.0
 20
2396.5
 30
0.0
 11
847.0
 21
2366.5
 31
0.0
  0
LINE
  5
154
100
AcDbEntity
  8
図
  6
CONTINUOUS
 62
     3
100
AcDbLine
 10
847.0
 20
2176.5
 30
0.0
 11
852.0
 21
2146.5
 31
0.0
  0
LINE
  5
155
100
AcDbEntity
  8
図
  6
CONTINUOUS
 62
     3
100
AcDbLine
 10
852.0
 20
2146.5
 30
0.0
 11
857.0
 21
2176.5
 31
0.0
  0
ENDBLK
  5
156
100
AcDbEntity
  8
0
100
AcDbBlockEnd
  0
BLOCK
  5
159
100
AcDbEntity
  8
0
100
AcDbBlockBegin
  2
*D21
 70
    65
 10
0.0
 20
0.0
 30
0.0
  3
*D21
  1

  0
TEXT
  5
15A
100
AcDbEntity
  8
図
  6
CONTINUOUS
 62
     2
100
AcDbText
 10
848.5
 20
2487.1
 30
0.0
 40
40.0
  1
55
 50
90.0
 41
0.84
  7
EXCADSTD
 72
     1
 11
848.5
 21
2516.5
 31
0.0
100
AcDbText
  0
LINE
  5
15B
100
AcDbEntity
  8
図
  6
CONTINUOUS
 62
     3
100
AcDbLine
 10
852.0
 20
2366.5
 30
0.0
 11
852.0
 21
2555.000004
 31
0.0
  0
LINE
  5
15C
100
AcDbEntity
  8
図
  6
CONTINUOUS
 62
     3
100
AcDbLine
 10
857.0
 20
2366.5
 30
0.0
 11
852.0
 21
2396.5
 31
0.0
  0
LINE
  5
15D
100
AcDbEntity
  8
図
  6
CONTINUOUS
 62
     3
100
AcDbLine
 10
852.0
 20
2396.5
 30
0.0
 11
847.0
 21
2366.5
 31
0.0
  0
LINE
  5
15E
100
AcDbEntity
  8
図
  6
CONTINUOUS
 62
     3
100
AcDbLine
 10
847.0
 20
2481.5
 30
0.0
 11
852.0
 21
2451.5
 31
0.0
  0
LINE
  5
15F
100
AcDbEntity
  8
図
  6
CONTINUOUS
 62
     3
100
AcDbLine
 10
852.0
 20
2451.5
 30
0.0
 11
857.0
 21
2481.5
 31
0.0
  0
ENDBLK
  5
160
100
AcDbEntity
  8
0
100
AcDbBlockEnd
  0
BLOCK
  5
17D
100
AcDbEntity
  8
0
100
AcDbBlockBegin
  2
*D22
 70
    65
 10
0.0
 20
0.0
 30
0.0
  3
*D22
  1

  0
LINE
  5
17E
100
AcDbEntity
  8
図
  6
CONTINUOUS
 62
     3
100
AcDbLine
 10
1422.99999
 20
995.0
 30
0.0
 11
1422.99999
 21
778.0
 31
0.0
  0
TEXT
  5
17F
100
AcDbEntity
  8
図
  6
CONTINUOUS
 62
     2
100
AcDbText
 10
1508.49999
 20
791.5
 30
0.0
 40
40.0
  1
255
 41
0.84
  7
EXCADSTD
 72
     1
 11
1550.49999
 21
791.5
 31
0.0
100
AcDbText
  0
LINE
  5
180
100
AcDbEntity
  8
図
  6
CONTINUOUS
 62
     3
100
AcDbLine
 10
1422.99999
 20
788.0
 30
0.0
 11
1677.99999
 21
788.0
 31
0.0
  0
LINE
  5
181
100
AcDbEntity
  8
図
  6
CONTINUOUS
 62
     3
100
AcDbLine
 10
1452.99999
 20
793.0
 30
0.0
 11
1422.99999
 21
788.0
 31
0.0
  0
LINE
  5
182
100
AcDbEntity
  8
図
  6
CONTINUOUS
 62
     3
100
AcDbLine
 10
1422.99999
 20
788.0
 30
0.0
 11
1452.99999
 21
783.0
 31
0.0
  0
LINE
  5
183
100
AcDbEntity
  8
図
  6
CONTINUOUS
 62
     3
100
AcDbLine
 10
1647.99999
 20
783.0
 30
0.0
 11
1677.99999
 21
788.0
 31
0.0
  0
LINE
  5
184
100
AcDbEntity
  8
図
  6
CONTINUOUS
 62
     3
100
AcDbLine
 10
1677.99999
 20
788.0
 30
0.0
 11
1647.99999
 21
793.0
 31
0.0
  0
ENDBLK
  5
185
100
AcDbEntity
  8
0
100
AcDbBlockEnd
  0
BLOCK
  5
19A
100
AcDbEntity
  8
0
100
AcDbBlockBegin
  2
*D23
 70
    65
 10
0.0
 20
0.0
 30
0.0
  3
*D23
  1

  0
LINE
  5
19B
100
AcDbEntity
  8
図
  6
CONTINUOUS
 62
     3
100
AcDbLine
 10
513.0
 20
892.000002
 30
0.0
 11
513.0
 21
789.0
 31
0.0
  0
LINE
  5
19C
100
AcDbEntity
  8
図
  6
CONTINUOUS
 62
     3
100
AcDbLine
 10
663.0
 20
890.999998
 30
0.0
 11
663.0
 21
789.0
 31
0.0
  0
TEXT
  5
19D
100
AcDbEntity
  8
図
  6
CONTINUOUS
 62
     2
100
AcDbText
 10
546.0
 20
802.5
 30
0.0
 40
40.0
  1
150
 41
0.84
  7
EXCADSTD
 72
     1
 11
588.0
 21
802.5
 31
0.0
100
AcDbText
  0
LINE
  5
19E
100
AcDbEntity
  8
図
  6
CONTINUOUS
 62
     3
100
AcDbLine
 10
513.0
 20
799.0
 30
0.0
 11
663.0
 21
799.0
 31
0.0
  0
LINE
  5
19F
100
AcDbEntity
  8
図
  6
CONTINUOUS
 62
     3
100
AcDbLine
 10
543.0
 20
804.0
 30
0.0
 11
513.0
 21
799.0
 31
0.0
  0
LINE
  5
1A0
100
AcDbEntity
  8
図
  6
CONTINUOUS
 62
     3
100
AcDbLine
 10
513.0
 20
799.0
 30
0.0
 11
543.0
 21
794.0
 31
0.0
  0
LINE
  5
1A1
100
AcDbEntity
  8
図
  6
CONTINUOUS
 62
     3
100
AcDbLine
 10
633.0
 20
794.0
 30
0.0
 11
663.0
 21
799.0
 31
0.0
  0
LINE
  5
1A2
100
AcDbEntity
  8
図
  6
CONTINUOUS
 62
     3
100
AcDbLine
 10
663.0
 20
799.0
 30
0.0
 11
633.0
 21
804.0
 31
0.0
  0
ENDBLK
  5
1A3
100
AcDbEntity
  8
0
100
AcDbBlockEnd
  0
BLOCK
  5
1A6
100
AcDbEntity
  8
0
100
AcDbBlockBegin
  2
*D24
 70
    65
 10
0.0
 20
0.0
 30
0.0
  3
*D24
  1

  0
LINE
  5
1A7
100
AcDbEntity
  8
図
  6
CONTINUOUS
 62
     3
100
AcDbLine
 10
595.0
 20
1354.0
 30
0.0
 11
981.0
 21
1354.0
 31
0.0
  0
TEXT
  5
1A8
100
AcDbEntity
  8
図
  6
CONTINUOUS
 62
     2
100
AcDbText
 10
967.5
 20
1232.0
 30
0.0
 40
40.0
  1
160
 50
90.0
 41
0.84
  7
EXCADSTD
 72
     1
 11
967.5
 21
1274.0
 31
0.0
100
AcDbText
  0
LINE
  5
1A9
100
AcDbEntity
  8
図
  6
CONTINUOUS
 62
     3
100
AcDbLine
 10
971.0
 20
1194.0
 30
0.0
 11
971.0
 21
1354.0
 31
0.0
  0
LINE
  5
1AA
100
AcDbEntity
  8
図
  6
CONTINUOUS
 62
     3
100
AcDbLine
 10
966.0
 20
1224.0
 30
0.0
 11
971.0
 21
1194.0
 31
0.0
  0
LINE
  5
1AB
100
AcDbEntity
  8
図
  6
CONTINUOUS
 62
     3
100
AcDbLine
 10
971.0
 20
1194.0
 30
0.0
 11
976.0
 21
1224.0
 31
0.0
  0
LINE
  5
1AC
100
AcDbEntity
  8
図
  6
CONTINUOUS
 62
     3
100
AcDbLine
 10
976.0
 20
1324.0
 30
0.0
 11
971.0
 21
1354.0
 31
0.0
  0
LINE
  5
1AD
100
AcDbEntity
  8
図
  6
CONTINUOUS
 62
     3
100
AcDbLine
 10
971.0
 20
1354.0
 30
0.0
 11
966.0
 21
1324.0
 31
0.0
  0
LINE
  5
1AE
100
AcDbEntity
  8
図
  6
CONTINUOUS
 62
     3
100
AcDbLine
 10
879.0
 20
1194.0
 30
0.0
 11
981.0
 21
1194.0
 31
0.0
  0
ENDBLK
  5
1AF
100
AcDbEntity
  8
0
100
AcDbBlockEnd
  0
BLOCK
  5
751
100
AcDbEntity
  8
0
100
AcDbBlockBegin
  2
*D25
 70
    65
 10
0.0
 20
0.0
 30
0.0
  3
*D25
  1

  0
LINE
  5
752
100
AcDbEntity
  8
寸法
  6
CONTINUOUS
 62
     3
100
AcDbLine
 10
870.695526
 20
1194.0
 30
0.0
 11
919.0
 21
1194.0
 31
0.0
  0
LINE
  5
753
100
AcDbEntity
  8
寸法
  6
CONTINUOUS
 62
     3
100
AcDbLine
 10
875.0
 20
1169.0
 30
0.0
 11
919.0
 21
1169.0
 31
0.0
  0
TEXT
  5
754
100
AcDbEntity
  8
寸法
  6
CONTINUOUS
 62
     2
100
AcDbText
 10
905.5
 20
936.6
 30
0.0
 40
40.0
  1
（10～25）
 50
90.0
 41
0.84
  7
EXCADSTD
 72
     1
 11
905.5
 21
1029.0
 31
0.0
100
AcDbText
  0
LINE
  5
755
100
AcDbEntity
  8
寸法
  6
CONTINUOUS
 62
     3
100
AcDbLine
 10
909.0
 20
1224.0
 30
0.0
 11
909.0
 21
915.499996
 31
0.0
  0
LINE
  5
756
100
AcDbEntity
  8
寸法
  6
CONTINUOUS
 62
     3
100
AcDbLine
 10
904.0
 20
1224.0
 30
0.0
 11
909.0
 21
1194.0
 31
0.0
  0
LINE
  5
757
100
AcDbEntity
  8
寸法
  6
CONTINUOUS
 62
     3
100
AcDbLine
 10
909.0
 20
1194.0
 30
0.0
 11
914.0
 21
1224.0
 31
0.0
  0
LINE
  5
758
100
AcDbEntity
  8
寸法
  6
CONTINUOUS
 62
     3
100
AcDbLine
 10
914.0
 20
1139.0
 30
0.0
 11
909.0
 21
1169.0
 31
0.0
  0
LINE
  5
759
100
AcDbEntity
  8
寸法
  6
CONTINUOUS
 62
     3
100
AcDbLine
 10
909.0
 20
1169.0
 30
0.0
 11
904.0
 21
1139.0
 31
0.0
  0
ENDBLK
  5
75A
100
AcDbEntity
  8
0
100
AcDbBlockEnd
  0
BLOCK
  5
75D
100
AcDbEntity
  8
0
100
AcDbBlockBegin
  2
*D26
 70
    65
 10
0.0
 20
0.0
 30
0.0
  3
*D26
  1

  0
LINE
  5
75E
100
AcDbEntity
  8
寸法
  6
CONTINUOUS
 62
     3
100
AcDbLine
 10
972.0
 20
1194.0
 30
0.0
 11
961.0
 21
1194.0
 31
0.0
  0
LINE
  5
75F
100
AcDbEntity
  8
寸法
  6
CONTINUOUS
 62
     3
100
AcDbLine
 10
970.0
 20
554.0
 30
0.0
 11
981.0
 21
554.0
 31
0.0
  0
TEXT
  5
760
100
AcDbEntity
  8
寸法
  6
CONTINUOUS
 62
     2
100
AcDbText
 10
967.5
 20
832.0
 30
0.0
 40
40.0
  1
640
 50
90.0
 41
0.84
  7
EXCADSTD
 72
     1
 11
967.5
 21
874.0
 31
0.0
100
AcDbText
  0
LINE
  5
761
100
AcDbEntity
  8
寸法
  6
CONTINUOUS
 62
     3
100
AcDbLine
 10
971.0
 20
1194.0
 30
0.0
 11
971.0
 21
554.0
 31
0.0
  0
LINE
  5
762
100
AcDbEntity
  8
寸法
  6
CONTINUOUS
 62
     3
100
AcDbLine
 10
976.0
 20
1164.0
 30
0.0
 11
971.0
 21
1194.0
 31
0.0
  0
LINE
  5
763
100
AcDbEntity
  8
寸法
  6
CONTINUOUS
 62
     3
100
AcDbLine
 10
971.0
 20
1194.0
 30
0.0
 11
966.0
 21
1164.0
 31
0.0
  0
LINE
  5
764
100
AcDbEntity
  8
寸法
  6
CONTINUOUS
 62
     3
100
AcDbLine
 10
966.0
 20
584.0
 30
0.0
 11
971.0
 21
554.0
 31
0.0
  0
LINE
  5
765
100
AcDbEntity
  8
寸法
  6
CONTINUOUS
 62
     3
100
AcDbLine
 10
971.0
 20
554.0
 30
0.0
 11
976.0
 21
584.0
 31
0.0
  0
ENDBLK
  5
766
100
AcDbEntity
  8
0
100
AcDbBlockEnd
  0
BLOCK
  5
769
100
AcDbEntity
  8
0
100
AcDbBlockBegin
  2
*D27
 70
    65
 10
0.0
 20
0.0
 30
0.0
  3
*D27
  1

  0
LINE
  5
76A
100
AcDbEntity
  8
寸法
  6
CONTINUOUS
 62
     3
100
AcDbLine
 10
981.0
 20
1354.0
 30
0.0
 11
1041.0
 21
1354.0
 31
0.0
  0
LINE
  5
76B
100
AcDbEntity
  8
寸法
  6
CONTINUOUS
 62
     3
100
AcDbLine
 10
1017.0
 20
554.0
 30
0.0
 11
1041.0
 21
554.0
 31
0.0
  0
TEXT
  5
76C
100
AcDbEntity
  8
寸法
  6
CONTINUOUS
 62
     2
100
AcDbText
 10
1027.5
 20
912.0
 30
0.0
 40
40.0
  1
800
 50
90.0
 41
0.84
  7
EXCADSTD
 72
     1
 11
1027.5
 21
954.0
 31
0.0
100
AcDbText
  0
LINE
  5
76D
100
AcDbEntity
  8
寸法
  6
CONTINUOUS
 62
     3
100
AcDbLine
 10
1031.0
 20
1354.0
 30
0.0
 11
1031.0
 21
554.0
 31
0.0
  0
LINE
  5
76E
100
AcDbEntity
  8
寸法
  6
CONTINUOUS
 62
     3
100
AcDbLine
 10
1036.0
 20
1324.0
 30
0.0
 11
1031.0
 21
1354.0
 31
0.0
  0
LINE
  5
76F
100
AcDbEntity
  8
寸法
  6
CONTINUOUS
 62
     3
100
AcDbLine
 10
1031.0
 20
1354.0
 30
0.0
 11
1026.0
 21
1324.0
 31
0.0
  0
LINE
  5
770
100
AcDbEntity
  8
寸法
  6
CONTINUOUS
 62
     3
100
AcDbLine
 10
1026.0
 20
584.0
 30
0.0
 11
1031.0
 21
554.0
 31
0.0
  0
LINE
  5
771
100
AcDbEntity
  8
寸法
  6
CONTINUOUS
 62
     3
100
AcDbLine
 10
1031.0
 20
554.0
 30
0.0
 11
1036.0
 21
584.0
 31
0.0
  0
ENDBLK
  5
772
100
AcDbEntity
  8
0
100
AcDbBlockEnd
  0
BLOCK
  5
775
100
AcDbEntity
  8
0
100
AcDbBlockBegin
  2
*D28
 70
    65
 10
0.0
 20
0.0
 30
0.0
  3
*D28
  1

  0
LINE
  5
776
100
AcDbEntity
  8
寸法
  6
CONTINUOUS
 62
     3
100
AcDbLine
 10
1592.997081
 20
1005.299999
 30
0.0
 11
1592.997081
 21
845.0
 31
0.0
  0
TEXT
  5
777
100
AcDbEntity
  8
寸法
  6
CONTINUOUS
 62
     2
100
AcDbText
 10
1606.098536
 20
858.5
 30
0.0
 40
40.0
  1
85
 41
0.84
  7
EXCADSTD
 72
     1
 11
1635.498536
 21
858.5
 31
0.0
100
AcDbText
  0
LINE
  5
778
100
AcDbEntity
  8
寸法
  6
CONTINUOUS
 62
     3
100
AcDbLine
 10
1592.997081
 20
855.0
 30
0.0
 11
1677.99999
 21
855.0
 31
0.0
  0
LINE
  5
779
100
AcDbEntity
  8
寸法
  6
CONTINUOUS
 62
     3
100
AcDbLine
 10
1622.997081
 20
860.0
 30
0.0
 11
1592.997081
 21
855.0
 31
0.0
  0
LINE
  5
77A
100
AcDbEntity
  8
寸法
  6
CONTINUOUS
 62
     3
100
AcDbLine
 10
1592.997081
 20
855.0
 30
0.0
 11
1622.997081
 21
850.0
 31
0.0
  0
LINE
  5
77B
100
AcDbEntity
  8
寸法
  6
CONTINUOUS
 62
     3
100
AcDbLine
 10
1647.99999
 20
850.0
 30
0.0
 11
1677.99999
 21
855.0
 31
0.0
  0
LINE
  5
77C
100
AcDbEntity
  8
寸法
  6
CONTINUOUS
 62
     3
100
AcDbLine
 10
1677.99999
 20
855.0
 30
0.0
 11
1647.99999
 21
860.0
 31
0.0
  0
ENDBLK
  5
77D
100
AcDbEntity
  8
0
100
AcDbBlockEnd
  0
BLOCK
  5
780
100
AcDbEntity
  8
0
100
AcDbBlockBegin
  2
*D29
 70
    65
 10
0.0
 20
0.0
 30
0.0
  3
*D29
  1

  0
LINE
  5
781
100
AcDbEntity
  8
寸法
  6
CONTINUOUS
 62
     3
100
AcDbLine
 10
363.0
 20
1359.0
 30
0.0
 11
363.0
 21
1572.0
 31
0.0
  0
LINE
  5
782
100
AcDbEntity
  8
寸法
  6
CONTINUOUS
 62
     3
100
AcDbLine
 10
813.0
 20
1359.0
 30
0.0
 11
813.0
 21
1572.0
 31
0.0
  0
TEXT
  5
783
100
AcDbEntity
  8
寸法
  6
CONTINUOUS
 62
     2
100
AcDbText
 10
533.4
 20
1565.5
 30
0.0
 40
40.0
  1
%%c450
 41
0.84
  7
EXCADSTD
 72
     1
 11
588.0
 21
1565.5
 31
0.0
100
AcDbText
  0
LINE
  5
784
100
AcDbEntity
  8
寸法
  6
CONTINUOUS
 62
     3
100
AcDbLine
 10
363.0
 20
1562.0
 30
0.0
 11
813.0
 21
1562.0
 31
0.0
  0
LINE
  5
785
100
AcDbEntity
  8
寸法
  6
CONTINUOUS
 62
     3
100
AcDbLine
 10
393.0
 20
1567.0
 30
0.0
 11
363.0
 21
1562.0
 31
0.0
  0
LINE
  5
786
100
AcDbEntity
  8
寸法
  6
CONTINUOUS
 62
     3
100
AcDbLine
 10
363.0
 20
1562.0
 30
0.0
 11
393.0
 21
1557.0
 31
0.0
  0
LINE
  5
787
100
AcDbEntity
  8
寸法
  6
CONTINUOUS
 62
     3
100
AcDbLine
 10
783.0
 20
1557.0
 30
0.0
 11
813.0
 21
1562.0
 31
0.0
  0
LINE
  5
788
100
AcDbEntity
  8
寸法
  6
CONTINUOUS
 62
     3
100
AcDbLine
 10
813.0
 20
1562.0
 30
0.0
 11
783.0
 21
1567.0
 31
0.0
  0
ENDBLK
  5
789
100
AcDbEntity
  8
0
100
AcDbBlockEnd
  0
BLOCK
  5
78C
100
AcDbEntity
  8
0
100
AcDbBlockBegin
  2
*D30
 70
    65
 10
0.0
 20
0.0
 30
0.0
  3
*D30
  1

  0
LINE
  5
78D
100
AcDbEntity
  8
寸法
  6
CONTINUOUS
 62
     3
100
AcDbLine
 10
1721.49999
 20
1039.0
 30
0.0
 11
1769.0
 21
1039.0
 31
0.0
  0
TEXT
  5
78E
100
AcDbEntity
  8
寸法
  6
CONTINUOUS
 62
     2
100
AcDbText
 10
1755.5
 20
1253.6
 30
0.0
 40
40.0
  1
155（ボトルトラップ）
 50
90.0
 41
0.84
  7
EXCADSTD
 72
     1
 11
1755.5
 21
1409.0
 31
0.0
100
AcDbText
  0
LINE
  5
78F
100
AcDbEntity
  8
寸法
  6
CONTINUOUS
 62
     3
100
AcDbLine
 10
1759.0
 20
1009.0
 30
0.0
 11
1759.0
 21
1597.499985
 31
0.0
  0
LINE
  5
790
100
AcDbEntity
  8
寸法
  6
CONTINUOUS
 62
     3
100
AcDbLine
 10
1764.0
 20
1009.0
 30
0.0
 11
1759.0
 21
1039.0
 31
0.0
  0
LINE
  5
791
100
AcDbEntity
  8
寸法
  6
CONTINUOUS
 62
     3
100
AcDbLine
 10
1759.0
 20
1039.0
 30
0.0
 11
1754.0
 21
1009.0
 31
0.0
  0
LINE
  5
792
100
AcDbEntity
  8
寸法
  6
CONTINUOUS
 62
     3
100
AcDbLine
 10
1754.0
 20
1224.0
 30
0.0
 11
1759.0
 21
1194.0
 31
0.0
  0
LINE
  5
793
100
AcDbEntity
  8
寸法
  6
CONTINUOUS
 62
     3
100
AcDbLine
 10
1759.0
 20
1194.0
 30
0.0
 11
1764.0
 21
1224.0
 31
0.0
  0
ENDBLK
  5
794
100
AcDbEntity
  8
0
100
AcDbBlockEnd
  0
BLOCK
  5
797
100
AcDbEntity
  8
0
100
AcDbBlockBegin
  2
*D31
 70
    65
 10
0.0
 20
0.0
 30
0.0
  3
*D31
  1

  0
LINE
  5
798
100
AcDbEntity
  8
寸法
  6
CONTINUOUS
 62
     3
100
AcDbLine
 10
1709.49999
 20
969.0
 30
0.0
 11
1828.0
 21
969.0
 31
0.0
  0
LINE
  5
799
100
AcDbEntity
  8
寸法
  6
CONTINUOUS
 62
     3
100
AcDbLine
 10
1819.0
 20
1194.0
 30
0.0
 11
1828.0
 21
1194.0
 31
0.0
  0
TEXT
  5
79A
100
AcDbEntity
  8
寸法
  6
CONTINUOUS
 62
     2
100
AcDbText
 10
1814.5
 20
1248.8
 30
0.0
 40
40.0
  1
225（Ｐトラップ）
 50
90.0
 41
0.84
  7
EXCADSTD
 72
     1
 11
1814.5
 21
1379.0
 31
0.0
100
AcDbText
  0
LINE
  5
79B
100
AcDbEntity
  8
寸法
  6
CONTINUOUS
 62
     3
100
AcDbLine
 10
1818.0
 20
939.0
 30
0.0
 11
1818.0
 21
1537.499985
 31
0.0
  0
LINE
  5
79C
100
AcDbEntity
  8
寸法
  6
CONTINUOUS
 62
     3
100
AcDbLine
 10
1823.0
 20
939.0
 30
0.0
 11
1818.0
 21
969.0
 31
0.0
  0
LINE
  5
79D
100
AcDbEntity
  8
寸法
  6
CONTINUOUS
 62
     3
100
AcDbLine
 10
1818.0
 20
969.0
 30
0.0
 11
1813.0
 21
939.0
 31
0.0
  0
LINE
  5
79E
100
AcDbEntity
  8
寸法
  6
CONTINUOUS
 62
     3
100
AcDbLine
 10
1813.0
 20
1224.0
 30
0.0
 11
1818.0
 21
1194.0
 31
0.0
  0
LINE
  5
79F
100
AcDbEntity
  8
寸法
  6
CONTINUOUS
 62
     3
100
AcDbLine
 10
1818.0
 20
1194.0
 30
0.0
 11
1823.0
 21
1224.0
 31
0.0
  0
ENDBLK
  5
7A0
100
AcDbEntity
  8
0
100
AcDbBlockEnd
  0
BLOCK
  5
7AE
100
AcDbEntity
  8
0
100
AcDbBlockBegin
  2
*D32
 70
    65
 10
0.0
 20
0.0
 30
0.0
  3
*D32
  1

  0
LINE
  5
7AF
100
AcDbEntity
  8
寸法
  6
CONTINUOUS
 62
     3
100
AcDbLine
 10
1593.001678
 20
531.0
 30
0.0
 11
1593.001678
 21
460.0
 31
0.0
  0
LINE
  5
7B0
100
AcDbEntity
  8
寸法
  6
CONTINUOUS
 62
     3
100
AcDbLine
 10
1677.99999
 20
549.0
 30
0.0
 11
1677.99999
 21
460.0
 31
0.0
  0
TEXT
  5
7B1
100
AcDbEntity
  8
寸法
  6
CONTINUOUS
 62
     2
100
AcDbText
 10
1725.59999
 20
473.5
 30
0.0
 40
40.0
  1
85（床給水）
 41
0.84
  7
EXCADSTD
 72
     1
 11
1817.99999
 21
473.5
 31
0.0
100
AcDbText
  0
LINE
  5
7B2
100
AcDbEntity
  8
寸法
  6
CONTINUOUS
 62
     3
100
AcDbLine
 10
1563.001678
 20
470.0
 30
0.0
 11
1931.499994
 21
470.0
 31
0.0
  0
LINE
  5
7B3
100
AcDbEntity
  8
寸法
  6
CONTINUOUS
 62
     3
100
AcDbLine
 10
1563.001678
 20
465.0
 30
0.0
 11
1593.001678
 21
470.0
 31
0.0
  0
LINE
  5
7B4
100
AcDbEntity
  8
寸法
  6
CONTINUOUS
 62
     3
100
AcDbLine
 10
1593.001678
 20
470.0
 30
0.0
 11
1563.001678
 21
475.0
 31
0.0
  0
LINE
  5
7B5
100
AcDbEntity
  8
寸法
  6
CONTINUOUS
 62
     3
100
AcDbLine
 10
1707.99999
 20
475.0
 30
0.0
 11
1677.99999
 21
470.0
 31
0.0
  0
LINE
  5
7B6
100
AcDbEntity
  8
寸法
  6
CONTINUOUS
 62
     3
100
AcDbLine
 10
1677.99999
 20
470.0
 30
0.0
 11
1707.99999
 21
465.0
 31
0.0
  0
ENDBLK
  5
7B7
100
AcDbEntity
  8
0
100
AcDbBlockEnd
  0
BLOCK
  5
7BA
100
AcDbEntity
  8
0
100
AcDbBlockBegin
  2
*D33
 70
    65
 10
0.0
 20
0.0
 30
0.0
  3
*D33
  1

  0
LINE
  5
7BB
100
AcDbEntity
  8
寸法
  6
CONTINUOUS
 62
     3
100
AcDbLine
 10
1687.99999
 20
1194.0
 30
0.0
 11
1892.99999
 21
1194.0
 31
0.0
  0
LINE
  5
7BC
100
AcDbEntity
  8
寸法
  6
CONTINUOUS
 62
     3
100
AcDbLine
 10
1703.339152
 20
934.0
 30
0.0
 11
1892.99999
 21
934.0
 31
0.0
  0
TEXT
  5
7BD
100
AcDbEntity
  8
寸法
  6
CONTINUOUS
 62
     2
100
AcDbText
 10
1879.49999
 20
1022.0
 30
0.0
 40
40.0
  1
260
 50
90.0
 41
0.84
  7
EXCADSTD
 72
     1
 11
1879.49999
 21
1064.0
 31
0.0
100
AcDbText
  0
LINE
  5
7BE
100
AcDbEntity
  8
寸法
  6
CONTINUOUS
 62
     3
100
AcDbLine
 10
1882.99999
 20
1194.0
 30
0.0
 11
1882.99999
 21
934.0
 31
0.0
  0
LINE
  5
7BF
100
AcDbEntity
  8
寸法
  6
CONTINUOUS
 62
     3
100
AcDbLine
 10
1887.99999
 20
1164.0
 30
0.0
 11
1882.99999
 21
1194.0
 31
0.0
  0
LINE
  5
7C0
100
AcDbEntity
  8
寸法
  6
CONTINUOUS
 62
     3
100
AcDbLine
 10
1882.99999
 20
1194.0
 30
0.0
 11
1877.99999
 21
1164.0
 31
0.0
  0
LINE
  5
7C1
100
AcDbEntity
  8
寸法
  6
CONTINUOUS
 62
     3
100
AcDbLine
 10
1877.99999
 20
964.0
 30
0.0
 11
1882.99999
 21
934.0
 31
0.0
  0
LINE
  5
7C2
100
AcDbEntity
  8
寸法
  6
CONTINUOUS
 62
     3
100
AcDbLine
 10
1882.99999
 20
934.0
 30
0.0
 11
1887.99999
 21
964.0
 31
0.0
  0
ENDBLK
  5
7C3
100
AcDbEntity
  8
0
100
AcDbBlockEnd
  0
ENDSEC
  0
SECTION
  2
ENTITIES
  0
LINE
  5
84
100
AcDbEntity
  8
枠・表
  6
CONTINUOUS
 62
     7
100
AcDbLine
 10
180.0
 20
135.0
 30
0.0
 11
2000.0
 21
135.0
 31
0.0
  0
LINE
  5
85
100
AcDbEntity
  8
枠・表
  6
CONTINUOUS
 62
     7
100
AcDbLine
 10
2000.0
 20
135.0
 30
0.0
 11
2000.0
 21
2885.0
 31
0.0
  0
LINE
  5
86
100
AcDbEntity
  8
枠・表
  6
CONTINUOUS
 62
     7
100
AcDbLine
 10
180.0
 20
135.0
 30
0.0
 11
180.0
 21
2885.0
 31
0.0
  0
LINE
  5
87
100
AcDbEntity
  8
枠・表
  6
CONTINUOUS
 62
     7
100
AcDbLine
 10
180.0
 20
2885.0
 30
0.0
 11
2000.0
 21
2885.0
 31
0.0
  0
LINE
  5
88
100
AcDbEntity
  8
枠・表
  6
CONTINUOUS
 62
     7
100
AcDbLine
 10
180.0
 20
355.0
 30
0.0
 11
2000.0
 21
355.0
 31
0.0
  0
LINE
  5
89
100
AcDbEntity
  8
枠・表
  6
CONTINUOUS
 62
     6
100
AcDbLine
 10
2000.0
 20
235.0
 30
0.0
 11
750.0
 21
235.0
 31
0.0
  0
LINE
  5
8A
100
AcDbEntity
  8
枠・表
  6
CONTINUOUS
 62
     6
100
AcDbLine
 10
1860.0
 20
355.0
 30
0.0
 11
1860.0
 21
235.0
 31
0.0
  0
LINE
  5
8B
100
AcDbEntity
  8
枠・表
  6
CONTINUOUS
 62
     6
100
AcDbLine
 10
1810.0
 20
355.0
 30
0.0
 11
1810.0
 21
235.0
 31
0.0
  0
LINE
  5
8C
100
AcDbEntity
  8
枠・表
  6
CONTINUOUS
 62
     6
100
AcDbLine
 10
1440.0
 20
355.0
 30
0.0
 11
1440.0
 21
135.0
 31
0.0
  0
LINE
  5
8D
100
AcDbEntity
  8
枠・表
  6
CONTINUOUS
 62
     6
100
AcDbLine
 10
1390.0
 20
355.0
 30
0.0
 11
1390.0
 21
135.0
 31
0.0
  0
LINE
  5
8E
100
AcDbEntity
  8
枠・表
  6
CONTINUOUS
 62
     6
100
AcDbLine
 10
800.0
 20
355.0
 30
0.0
 11
800.0
 21
235.0
 31
0.0
  0
LINE
  5
8F
100
AcDbEntity
  8
枠・表
  6
CONTINUOUS
 62
     6
100
AcDbLine
 10
750.0
 20
355.0
 30
0.0
 11
750.0
 21
135.0
 31
0.0
  0
LINE
  5
90
100
AcDbEntity
  8
枠・表
  6
CONTINUOUS
 62
     6
100
AcDbLine
 10
620.0
 20
355.0
 30
0.0
 11
620.0
 21
135.0
 31
0.0
  0
LINE
  5
91
100
AcDbEntity
  8
枠・表
  6
CONTINUOUS
 62
     6
100
AcDbLine
 10
490.0
 20
355.0
 30
0.0
 11
490.0
 21
135.0
 31
0.0
  0
LINE
  5
92
100
AcDbEntity
  8
枠・表
  6
CONTINUOUS
 62
     6
100
AcDbLine
 10
335.0
 20
355.0
 30
0.0
 11
335.0
 21
135.0
 31
0.0
  0
LINE
  5
93
100
AcDbEntity
  8
枠・表
  6
CONTINUOUS
 62
     6
100
AcDbLine
 10
180.0
 20
305.0
 30
0.0
 11
750.0
 21
305.0
 31
0.0
  0
LINE
  5
94
100
AcDbEntity
  8
枠・表
  6
CONTINUOUS
 62
     6
100
AcDbLine
 10
1892.653809
 20
258.00293
 30
0.0
 11
1969.993897
 21
336.699829
 31
0.0
  0
LINE
  5
95
100
AcDbEntity
  8
枠・表
  6
EXLTYPE2
 62
     6
100
AcDbLine
 10
180.0
 20
185.0
 30
0.0
 11
490.0
 21
185.0
 31
0.0
  0
CIRCLE
  5
96
100
AcDbEntity
  8
枠・表
  6
CONTINUOUS
 62
     6
100
AcDbCircle
 10
230.0
 20
160.0
 30
0.0
 40
1.0
  0
CIRCLE
  5
97
100
AcDbEntity
  8
枠・表
  6
CONTINUOUS
 62
     6
100
AcDbCircle
 10
280.0
 20
160.0
 30
0.0
 40
1.0
  0
CIRCLE
  5
98
100
AcDbEntity
  8
枠・表
  6
CONTINUOUS
 62
     6
100
AcDbCircle
 10
385.0
 20
160.0
 30
0.0
 40
1.0
  0
CIRCLE
  5
99
100
AcDbEntity
  8
枠・表
  6
CONTINUOUS
 62
     6
100
AcDbCircle
 10
435.0
 20
160.0
 30
0.0
 40
1.0
  0
TEXT
  5
9A
100
AcDbEntity
  8
枠・表
  6
CONTINUOUS
 62
     2
100
AcDbText
 10
1890.537109
 20
302.722778
 30
0.0
 40
30.0
  1
１
 41
0.826
  7
EXCADSTD
 72
     5
 11
1914.13711
 21
302.722778
 31
0.0
100
AcDbText
  0
TEXT
  5
9B
100
AcDbEntity
  8
枠・表
  6
CONTINUOUS
 62
     2
100
AcDbText
 10
202.5
 20
308.75
 30
0.0
 40
42.5
  1
製図
 41
1.087059
  7
EXCADSTD
 72
     5
 11
303.326
 21
308.75
 31
0.0
100
AcDbText
  0
TEXT
  5
9C
100
AcDbEntity
  8
枠・表
  6
CONTINUOUS
 62
     2
100
AcDbText
 10
357.5
 20
308.75
 30
0.0
 40
42.5
  1
写図
 41
1.087059
  7
EXCADSTD
 72
     5
 11
458.326
 21
308.75
 31
0.0
100
AcDbText
  0
TEXT
  5
9D
100
AcDbEntity
  8
枠・表
  6
CONTINUOUS
 62
     2
100
AcDbText
 10
507.5
 20
308.75
 30
0.0
 40
42.5
  1
検図
 41
0.938824
  7
EXCADSTD
 72
     5
 11
594.577
 21
308.75
 31
0.0
100
AcDbText
  0
TEXT
  5
9E
100
AcDbEntity
  8
枠・表
  6
CONTINUOUS
 62
     2
100
AcDbText
 10
637.5
 20
308.75
 30
0.0
 40
42.5
  1
承認
 41
0.938824
  7
EXCADSTD
 72
     5
 11
724.577
 21
308.75
 31
0.0
100
AcDbText
  0
TEXT
  5
9F
100
AcDbEntity
  8
枠・表
  6
CONTINUOUS
 62
     2
100
AcDbText
 10
755.75
 20
298.75
 30
0.0
 40
42.5
  1
品
 41
0.84
  7
EXCADSTD
 72
     5
 11
789.75
 21
298.75
 31
0.0
100
AcDbText
  0
TEXT
  5
A0
100
AcDbEntity
  8
枠・表
  6
CONTINUOUS
 62
     2
100
AcDbText
 10
755.75
 20
248.75
 30
0.0
 40
42.5
  1
名
 41
0.84
  7
EXCADSTD
 72
     5
 11
789.75
 21
248.75
 31
0.0
100
AcDbText
  0
TEXT
  5
A1
100
AcDbEntity
  8
枠・表
  6
CONTINUOUS
 62
     2
100
AcDbText
 10
1395.75
 20
298.75
 30
0.0
 40
42.5
  1
品
 41
0.84
  7
EXCADSTD
 72
     5
 11
1429.75
 21
298.75
 31
0.0
100
AcDbText
  0
TEXT
  5
A2
100
AcDbEntity
  8
枠・表
  6
CONTINUOUS
 62
     2
100
AcDbText
 10
1395.75
 20
248.75
 30
0.0
 40
42.5
  1
番
 41
0.84
  7
EXCADSTD
 72
     5
 11
1429.75
 21
248.75
 31
0.0
100
AcDbText
  0
TEXT
  5
A3
100
AcDbEntity
  8
枠・表
  6
CONTINUOUS
 62
     2
100
AcDbText
 10
1816.75
 20
298.75
 30
0.0
 40
42.5
  1
尺
 41
0.84
  7
EXCADSTD
 72
     5
 11
1850.75
 21
298.75
 31
0.0
100
AcDbText
  0
TEXT
  5
A4
100
AcDbEntity
  8
枠・表
  6
CONTINUOUS
 62
     2
100
AcDbText
 10
1816.75
 20
248.75
 30
0.0
 40
42.5
  1
度
 41
0.84
  7
EXCADSTD
 72
     5
 11
1850.75
 21
248.75
 31
0.0
100
AcDbText
  0
TEXT
  5
A5
100
AcDbEntity
  8
枠・表
  6
CONTINUOUS
 62
     2
100
AcDbText
 10
1395.75
 20
185.75
 30
0.0
 40
42.5
  1
図
 41
0.84
  7
EXCADSTD
 72
     5
 11
1429.75
 21
185.75
 31
0.0
100
AcDbText
  0
TEXT
  5
A6
100
AcDbEntity
  8
枠・表
  6
CONTINUOUS
 62
     2
100
AcDbText
 10
1395.75
 20
142.75
 30
0.0
 40
42.5
  1
番
 41
0.84
  7
EXCADSTD
 72
     5
 11
1429.75
 21
142.75
 31
0.0
100
AcDbText
  0
TEXT
  5
A7
100
AcDbEntity
  8
枠・表
  6
CONTINUOUS
 62
     2
100
AcDbText
 10
1931.279297
 20
258.348846
 30
0.0
 40
30.0
  1
１０
 41
0.791
  7
EXCADSTD
 72
     5
 11
1983.067198
 21
258.348846
 31
0.0
100
AcDbText
  0
TEXT
  5
A8
100
AcDbEntity
  8
枠・表
  6
CONTINUOUS
 62
     2
100
AcDbText
 10
633.833333
 20
220.0
 30
0.0
 40
50.0
  1
古林
 41
0.882
  7
EXCADSTD
 72
     5
 11
730.076333
 21
220.0
 31
0.0
100
AcDbText
  0
TEXT
  5
A9
100
AcDbEntity
  8
枠・表
  6
CONTINUOUS
 62
     2
100
AcDbText
 10
207.5
 20
220.0
 30
0.0
 40
50.0
  1
間瀬
 41
0.882
  7
EXCADSTD
 72
     5
 11
303.743
 21
220.0
 31
0.0
100
AcDbText
  0
TEXT
  5
AB
100
AcDbEntity
  8
枠・表
  6
CONTINUOUS
 62
     2
100
AcDbText
 10
770.0
 20
155.0
 30
0.0
 40
45.0
  1
ジャニス工業株式会社
  7
EXCADTTF1
 72
     5
 11
1370.0
 21
155.0
 31
0.0
100
AcDbText
  0
LINE
  5
AC
100
AcDbEntity
  8
枠・表
  6
EXLTYPE2
 62
     6
100
AcDbLine
 10
4.0
 20
1510.0
 30
0.0
 11
180.0
 21
1510.0
 31
0.0
  0
TEXT
  5
AD
100
AcDbEntity
  8
枠・表
  6
CONTINUOUS
 62
     2
100
AcDbText
 10
1889.00293
 20
2535.249023
 30
0.0
 40
47.5
  1
１
 41
1.043368
  7
EXCADSTD
 72
     5
 11
1936.20293
 21
2535.249023
 31
0.0
100
AcDbText
  0
LINE
  5
AE
100
AcDbEntity
  8
枠・表
  6
CONTINUOUS
 62
     6
100
AcDbLine
 10
1124.00293
 20
2526.635742
 30
0.0
 11
1959.00293
 21
2526.635742
 31
0.0
  0
LINE
  5
AF
100
AcDbEntity
  8
枠・表
  6
CONTINUOUS
 62
     6
100
AcDbLine
 10
1124.00293
 20
2591.635742
 30
0.0
 11
1959.00293
 21
2591.635742
 31
0.0
  0
TEXT
  5
B0
100
AcDbEntity
  8
枠・表
  6
CONTINUOUS
 62
     2
100
AcDbText
 10
503.833333
 20
220.0
 30
0.0
 40
50.0
  1
中村
 41
0.882
  7
EXCADSTD
 72
     5
 11
600.076333
 21
220.0
 31
0.0
100
AcDbText
  0
TEXT
  5
B1
100
AcDbEntity
  8
枠・表
  6
CONTINUOUS
 62
     2
100
AcDbText
 10
885.500001
 20
265.0
 30
0.0
 40
60.0
  1
サークルライン
 41
0.838
  7
EXCADSTD
 72
     5
 11
1304.499999
 21
265.0
 31
0.0
100
AcDbText
  0
TEXT
  5
B2
100
AcDbEntity
  8
枠・表
  6
CONTINUOUS
 62
     2
100
AcDbText
 10
1504.0
 20
270.0
 30
0.0
 40
50.0
  1
Ｌ４５５ＣＦ
 41
0.7
  7
EXCADSTD
 72
     5
 11
1754.0
 21
270.0
 31
0.0
100
AcDbText
  0
TEXT
  5
B3
100
AcDbEntity
  8
枠・表
  6
CONTINUOUS
 62
     2
100
AcDbText
 10
1874.00293
 20
2726.635742
 30
0.0
 40
55.0
  1
個数
 41
0.664364
  7
EXCADSTD
 72
     5
 11
1953.74713
 21
2726.635742
 31
0.0
100
AcDbText
  0
TEXT
  5
B4
100
AcDbEntity
  8
枠・表
  6
CONTINUOUS
 62
     2
100
AcDbText
 10
1889.00293
 20
2666.396484
 30
0.0
 40
47.5
  1
１
 41
1.043368
  7
EXCADSTD
 72
     5
 11
1936.20293
 21
2666.396484
 31
0.0
100
AcDbText
  0
TEXT
  5
B5
100
AcDbEntity
  8
枠・表
  6
CONTINUOUS
 62
     2
100
AcDbText
 10
1174.40332
 20
2726.635742
 30
0.0
 40
55.0
  1
品　　番
 41
0.887727
  7
EXCADSTD
 72
     5
 11
1406.90332
 21
2726.635742
 31
0.0
100
AcDbText
  0
TEXT
  5
B6
100
AcDbEntity
  8
枠・表
  6
CONTINUOUS
 62
     2
100
AcDbText
 10
1141.053711
 20
2798.640137
 30
0.0
 40
60.0
  1
器　具　明　細
 41
0.91
  7
EXCADSTD
 72
     5
 11
1596.053711
 21
2798.640137
 31
0.0
100
AcDbText
  0
LINE
  5
B7
100
AcDbEntity
  8
枠・表
  6
CONTINUOUS
 62
     6
100
AcDbLine
 10
1124.00293
 20
2786.635742
 30
0.0
 11
1959.00293
 21
2786.635742
 31
0.0
  0
TEXT
  5
B8
100
AcDbEntity
  8
枠・表
  6
CONTINUOUS
 62
     2
100
AcDbText
 10
1129.082581
 20
2664.816895
 30
0.0
 40
50.0
  1
Ｌ４５５ＣＦ
 41
0.6244
  7
EXCADSTD
 72
     5
 11
1352.082594
 21
2664.816895
 31
0.0
100
AcDbText
  0
LINE
  5
B9
100
AcDbEntity
  8
枠・表
  6
CONTINUOUS
 62
     6
100
AcDbLine
 10
1124.00293
 20
2656.635742
 30
0.0
 11
1959.00293
 21
2656.635742
 31
0.0
  0
TEXT
  5
BA
100
AcDbEntity
  8
枠・表
  6
CONTINUOUS
 62
     2
100
AcDbText
 10
1889.00293
 20
2601.396484
 30
0.0
 40
47.5
  1
１
 41
1.043368
  7
EXCADSTD
 72
     5
 11
1936.20293
 21
2601.396484
 31
0.0
100
AcDbText
  0
LINE
  5
BB
100
AcDbEntity
  8
枠・表
  6
CONTINUOUS
 62
     6
100
AcDbLine
 10
1124.00293
 20
2721.635742
 30
0.0
 11
1959.00293
 21
2721.635742
 31
0.0
  0
TEXT
  5
BC
100
AcDbEntity
  8
枠・表
  6
CONTINUOUS
 62
     2
100
AcDbText
 10
1889.00293
 20
2470.016937
 30
0.0
 40
47.5
  1
１
 41
1.043368
  7
EXCADSTD
 72
     5
 11
1936.20293
 21
2470.016937
 31
0.0
100
AcDbText
  0
LINE
  5
BD
100
AcDbEntity
  8
枠・表
  6
CONTINUOUS
 62
     6
100
AcDbLine
 10
1124.00293
 20
2461.635742
 30
0.0
 11
1959.00293
 21
2461.635742
 31
0.0
  0
TEXT
  5
BE
100
AcDbEntity
  8
枠・表
  6
CONTINUOUS
 62
     2
100
AcDbText
 10
1130.049988
 20
2469.75708
 30
0.0
 40
50.0
  1
Ｐ２１７１
 41
0.63168
  7
EXCADSTD
 72
     5
 11
1318.049999
 21
2469.75708
 31
0.0
100
AcDbText
  0
TEXT
  5
BF
100
AcDbEntity
  8
枠・表
  6
CONTINUOUS
 62
     2
100
AcDbText
 10
1569.527405
 20
2466.635742
 30
0.0
 40
50.0
  1
排水上部
 41
0.7056
  7
EXCADSTD
 72
     5
 11
1737.527412
 21
2466.635742
 31
0.0
100
AcDbText
  0
LINE
  5
C0
100
AcDbEntity
  8
枠・表
  6
CONTINUOUS
 62
     6
100
AcDbLine
 10
1552.00293
 20
2786.635742
 30
0.0
 11
1552.00293
 21
2461.635742
 31
0.0
  0
TEXT
  5
C1
100
AcDbEntity
  8
枠・表
  6
CONTINUOUS
 62
     2
100
AcDbText
 10
1620.02002
 20
2726.635742
 30
0.0
 40
55.0
  1
品　　名
 41
0.687273
  7
EXCADSTD
 72
     5
 11
1800.02002
 21
2726.635742
 31
0.0
100
AcDbText
  0
TEXT
  5
C2
100
AcDbEntity
  8
枠・表
  6
CONTINUOUS
 62
     2
100
AcDbText
 10
1569.527405
 20
2531.635742
 30
0.0
 40
50.0
  1
水栓金具
 41
0.7056
  7
EXCADSTD
 72
     5
 11
1737.527412
 21
2531.635742
 31
0.0
100
AcDbText
  0
TEXT
  5
C3
100
AcDbEntity
  8
枠・表
  6
CONTINUOUS
 62
     2
100
AcDbText
 10
1569.527405
 20
2661.635742
 30
0.0
 40
50.0
  1
洗面器
 41
0.7168
  7
EXCADSTD
 72
     5
 11
1697.52741
 21
2661.635742
 31
0.0
100
AcDbText
  0
TEXT
  5
C4
100
AcDbEntity
  8
枠・表
  6
CONTINUOUS
 62
     2
100
AcDbText
 10
1569.527405
 20
2596.635742
 30
0.0
 40
50.0
  1
固定金具
 41
0.7056
  7
EXCADSTD
 72
     5
 11
1737.527412
 21
2596.635742
 31
0.0
100
AcDbText
  0
LINE
  5
C5
100
AcDbEntity
  8
枠・表
  6
CONTINUOUS
 62
     6
100
AcDbLine
 10
1124.00293
 20
2786.635742
 30
0.0
 11
1124.00293
 21
2461.635742
 31
0.0
  0
LINE
  5
C6
100
AcDbEntity
  8
枠・表
  6
CONTINUOUS
 62
     6
100
AcDbLine
 10
1869.00293
 20
2786.635742
 30
0.0
 11
1869.00293
 21
2461.635742
 31
0.0
  0
LINE
  5
C7
100
AcDbEntity
  8
枠・表
  6
CONTINUOUS
 62
     6
100
AcDbLine
 10
1959.00293
 20
2786.635742
 30
0.0
 11
1959.00293
 21
2461.635742
 31
0.0
  0
TEXT
  5
C8
100
AcDbEntity
  8
枠・表
  6
CONTINUOUS
 62
     2
100
AcDbText
 10
1889.00293
 20
2276.847992
 30
0.0
 40
47.5
  1
１
 41
1.043368
  7
EXCADSTD
 72
     5
 11
1936.20293
 21
2276.847992
 31
0.0
100
AcDbText
  0
TEXT
  5
C9
100
AcDbEntity
  8
枠・表
  6
CONTINUOUS
 62
     2
100
AcDbText
 10
1128.115173
 20
2274.346619
 30
0.0
 40
50.0
  1
Ｐ２２３３
 41
0.63168
  7
EXCADSTD
 72
     5
 11
1316.115185
 21
2274.346619
 31
0.0
100
AcDbText
  0
TEXT
  5
CA
100
AcDbEntity
  8
枠・表
  6
CONTINUOUS
 62
     2
100
AcDbText
 10
1569.527405
 20
2271.635742
 30
0.0
 40
50.0
  1
Ｓトラップ
 41
0.69888
  7
EXCADSTD
 72
     5
 11
1777.527414
 21
2271.635742
 31
0.0
100
AcDbText
  0
TEXT
  5
CB
100
AcDbEntity
  8
枠・表
  6
CONTINUOUS
 62
     2
100
AcDbText
 10
1889.00293
 20
2341.847992
 30
0.0
 40
47.5
  1
１
 41
1.043368
  7
EXCADSTD
 72
     5
 11
1936.20293
 21
2341.847992
 31
0.0
100
AcDbText
  0
TEXT
  5
CC
100
AcDbEntity
  8
枠・表
  6
CONTINUOUS
 62
     2
100
AcDbText
 10
1128.115173
 20
2339.346619
 30
0.0
 40
50.0
  1
Ｐ２２３４
 41
0.63168
  7
EXCADSTD
 72
     5
 11
1316.115185
 21
2339.346619
 31
0.0
100
AcDbText
  0
TEXT
  5
CD
100
AcDbEntity
  8
枠・表
  6
CONTINUOUS
 62
     2
100
AcDbText
 10
1569.527405
 20
2336.635742
 30
0.0
 40
50.0
  1
Ｐトラップ
 41
0.69888
  7
EXCADSTD
 72
     5
 11
1777.527414
 21
2336.635742
 31
0.0
100
AcDbText
  0
TEXT
  5
CE
100
AcDbEntity
  8
枠・表
  6
CONTINUOUS
 62
     2
100
AcDbText
 10
1128.115173
 20
2404.346619
 30
0.0
 40
50.0
  1
トラップ
 41
0.6426
  7
EXCADSTD
 72
     5
 11
1281.115182
 21
2404.346619
 31
0.0
100
AcDbText
  0
TEXT
  5
CF
100
AcDbEntity
  8
枠・表
  6
CONTINUOUS
 62
     2
100
AcDbText
 10
1889.00293
 20
2211.847992
 30
0.0
 40
47.5
  1
１
 41
1.043368
  7
EXCADSTD
 72
     5
 11
1936.20293
 21
2211.847992
 31
0.0
100
AcDbText
  0
TEXT
  5
D0
100
AcDbEntity
  8
枠・表
  6
CONTINUOUS
 62
     2
100
AcDbText
 10
1128.115173
 20
2209.346619
 30
0.0
 40
50.0
  1
Ｐ２２３２
 41
0.63168
  7
EXCADSTD
 72
     5
 11
1316.115185
 21
2209.346619
 31
0.0
100
AcDbText
  0
TEXT
  5
D1
100
AcDbEntity
  8
枠・表
  6
CONTINUOUS
 62
     2
100
AcDbText
 10
1564.527405
 20
2206.635742
 30
0.0
 40
50.0
  1
ボトルトラップ
 41
0.6912
  7
EXCADSTD
 72
     5
 11
1852.527417
 21
2206.635742
 31
0.0
100
AcDbText
  0
LINE
  5
D2
100
AcDbEntity
  8
枠・表
  6
CONTINUOUS
 62
     6
100
AcDbLine
 10
1124.00293
 20
2396.635742
 30
0.0
 11
1959.00293
 21
2396.635742
 31
0.0
  0
LINE
  5
D3
100
AcDbEntity
  8
枠・表
  6
CONTINUOUS
 62
     6
100
AcDbLine
 10
1124.00293
 20
2331.635742
 30
0.0
 11
1959.00293
 21
2331.635742
 31
0.0
  0
LINE
  5
D4
100
AcDbEntity
  8
枠・表
  6
CONTINUOUS
 62
     6
100
AcDbLine
 10
1124.00293
 20
2266.635742
 30
0.0
 11
1959.00293
 21
2266.635742
 31
0.0
  0
LINE
  5
D5
100
AcDbEntity
  8
枠・表
  6
CONTINUOUS
 62
     6
100
AcDbLine
 10
1124.00293
 20
2136.635742
 30
0.0
 11
1959.00293
 21
2136.635742
 31
0.0
  0
TEXT
  5
D6
100
AcDbEntity
  8
枠・表
  6
CONTINUOUS
 62
     2
100
AcDbText
 10
1889.00293
 20
2146.847992
 30
0.0
 40
47.5
  1
１
 41
1.043368
  7
EXCADSTD
 72
     5
 11
1936.20293
 21
2146.847992
 31
0.0
100
AcDbText
  0
TEXT
  5
D7
100
AcDbEntity
  8
枠・表
  6
CONTINUOUS
 62
     2
100
AcDbText
 10
1564.527405
 20
2141.635742
 30
0.0
 40
50.0
  1
配管アダプター
 41
0.6912
  7
EXCADSTD
 72
     5
 11
1852.527417
 21
2141.635742
 31
0.0
100
AcDbText
  0
LINE
  5
D8
100
AcDbEntity
  8
枠・表
  6
CONTINUOUS
 62
     6
100
AcDbLine
 10
1124.00293
 20
2201.635742
 30
0.0
 11
1959.00293
 21
2201.635742
 31
0.0
  0
LINE
  5
D9
100
AcDbEntity
  8
枠・表
  6
CONTINUOUS
 62
     6
100
AcDbLine
 10
1124.00293
 20
2396.635742
 30
0.0
 11
1124.00293
 21
2136.635742
 31
0.0
  0
LINE
  5
DA
100
AcDbEntity
  8
枠・表
  6
CONTINUOUS
 62
     6
100
AcDbLine
 10
1869.00293
 20
2396.635742
 30
0.0
 11
1869.00293
 21
2136.635742
 31
0.0
  0
LINE
  5
DB
100
AcDbEntity
  8
枠・表
  6
CONTINUOUS
 62
     6
100
AcDbLine
 10
1959.00293
 20
2396.635742
 30
0.0
 11
1959.00293
 21
2136.635742
 31
0.0
  0
LINE
  5
DC
100
AcDbEntity
  8
枠・表
  6
CONTINUOUS
 62
     6
100
AcDbLine
 10
1552.00293
 20
2396.635742
 30
0.0
 11
1552.00293
 21
2136.635742
 31
0.0
  0
TEXT
  5
DD
100
AcDbEntity
  8
枠・表
  6
CONTINUOUS
 62
     7
100
AcDbText
 10
1452.000002
 20
151.5
 30
0.0
 40
70.0
  1
Ｌ０４５５００４
 41
0.804
  7
EXCADSTD
 72
     5
 11
1987.999998
 21
151.5
 31
0.0
100
AcDbText
  0
TEXT
  5
DE
100
AcDbEntity
  8
枠・表
  6
CONTINUOUS
 62
     2
100
AcDbText
 10
1128.115173
 20
2079.346619
 30
0.0
 40
50.0
  1
止水栓
 41
0.7168
  7
EXCADSTD
 72
     5
 11
1256.115179
 21
2079.346619
 31
0.0
100
AcDbText
  0
LINE
  5
DF
100
AcDbEntity
  8
枠・表
  6
CONTINUOUS
 62
     6
100
AcDbLine
 10
1124.00293
 20
2071.635742
 30
0.0
 11
1959.00293
 21
2071.635742
 31
0.0
  0
LINE
  5
E0
100
AcDbEntity
  8
枠・表
  6
CONTINUOUS
 62
     6
100
AcDbLine
 10
1124.00293
 20
2006.635742
 30
0.0
 11
1959.00293
 21
2006.635742
 31
0.0
  0
LINE
  5
E1
100
AcDbEntity
  8
枠・表
  6
CONTINUOUS
 62
     6
100
AcDbLine
 10
1124.00293
 20
1941.635742
 30
0.0
 11
1959.00293
 21
1941.635742
 31
0.0
  0
TEXT
  5
E2
100
AcDbEntity
  8
枠・表
  6
CONTINUOUS
 62
     2
100
AcDbText
 10
1128.115173
 20
2014.346619
 30
0.0
 40
50.0
  1
ＮＬ２２１－７５ＷＭＹ
 41
0.557455
  7
EXCADSTD
 72
     5
 11
1493.115178
 21
2014.346619
 31
0.0
100
AcDbText
  0
TEXT
  5
E3
100
AcDbEntity
  8
枠・表
  6
CONTINUOUS
 62
     2
100
AcDbText
 10
1528.527405
 20
2011.635742
 30
0.0
 40
50.0
  1
アングル形止水栓
 41
0.6384
  7
EXCADSTD
 72
     5
 11
1832.527404
 21
2011.635742
 31
0.0
100
AcDbText
  0
TEXT
  5
E4
100
AcDbEntity
  8
枠・表
  6
CONTINUOUS
 62
     2
100
AcDbText
 10
1528.527405
 20
1946.635742
 30
0.0
 40
50.0
  1
ストレート形止水栓
 41
0.602933
  7
EXCADSTD
 72
     5
 11
1851.527421
 21
1946.635742
 31
0.0
100
AcDbText
  0
LINE
  5
E5
100
AcDbEntity
  8
枠・表
  6
CONTINUOUS
 62
     6
100
AcDbLine
 10
1124.00293
 20
2071.635742
 30
0.0
 11
1124.00293
 21
1941.635742
 31
0.0
  0
LINE
  5
E6
100
AcDbEntity
  8
枠・表
  6
CONTINUOUS
 62
     6
100
AcDbLine
 10
1511.00293
 20
2071.635742
 30
0.0
 11
1511.00293
 21
1941.635742
 31
0.0
  0
LINE
  5
E7
100
AcDbEntity
  8
枠・表
  6
CONTINUOUS
 62
     6
100
AcDbLine
 10
1869.00293
 20
2071.635742
 30
0.0
 11
1869.00293
 21
1941.635742
 31
0.0
  0
LINE
  5
E8
100
AcDbEntity
  8
枠・表
  6
CONTINUOUS
 62
     6
100
AcDbLine
 10
1959.00293
 20
2071.635742
 30
0.0
 11
1959.00293
 21
1941.635742
 31
0.0
  0
TEXT
  5
E9
100
AcDbEntity
  8
枠・表
  6
CONTINUOUS
 62
     2
100
AcDbText
 10
1132.50293
 20
1856.0
 30
0.0
 40
60.0
  1
参考図
 41
0.84
  7
EXCADSTD
 72
     5
 11
1312.50293
 21
1856.0
 31
0.0
100
AcDbText
  0
POLYLINE
  5
EA
100
AcDbEntity
  8
枠・表
  6
CONTINUOUS
 62
     6
100
AcDb2dPolyline
 66
     1
 10
0.0
 20
0.0
 30
0.0
 70
   128
  0
VERTEX
  5
EB
100
AcDbEntity
  8
枠・表
  6
CONTINUOUS
 62
     6
100
AcDbVertex
100
AcDb2dVertex
 10
1124.0
 20
1926.0
 30
0.0
  0
VERTEX
  5
EC
100
AcDbEntity
  8
枠・表
  6
CONTINUOUS
 62
     6
100
AcDbVertex
100
AcDb2dVertex
 10
1308.0
 20
1926.0
 30
0.0
  0
VERTEX
  5
ED
100
AcDbEntity
  8
枠・表
  6
CONTINUOUS
 62
     6
100
AcDbVertex
100
AcDb2dVertex
 10
1308.0
 20
1851.0
 30
0.0
  0
VERTEX
  5
EE
100
AcDbEntity
  8
枠・表
  6
CONTINUOUS
 62
     6
100
AcDbVertex
100
AcDb2dVertex
 10
1124.0
 20
1851.0
 30
0.0
  0
VERTEX
  5
EF
100
AcDbEntity
  8
枠・表
  6
CONTINUOUS
 62
     6
100
AcDbVertex
100
AcDb2dVertex
 10
1124.0
 20
1926.0
 30
0.0
  0
SEQEND
  5
F0
100
AcDbEntity
  8
枠・表
  6
CONTINUOUS
 62
     6
  0
TEXT
  5
F1
100
AcDbEntity
  8
枠・表
  6
CONTINUOUS
 62
     2
100
AcDbText
 10
1132.115173
 20
1808.346619
 30
0.0
 40
40.0
  1
本図は水あふれふち高さ８００で
 41
0.749
  7
EXCADSTD
 72
     5
 11
1667.115173
 21
1808.346619
 31
0.0
100
AcDbText
  0
TEXT
  5
F2
100
AcDbEntity
  8
枠・表
  6
CONTINUOUS
 62
     2
100
AcDbText
 10
1132.115173
 20
1768.346619
 30
0.0
 40
40.0
  1
上記器具を組み合わせた場合の一例を示す。
 41
0.7455
  7
EXCADSTD
 72
     5
 11
1842.115173
 21
1768.346619
 31
0.0
100
AcDbText
  0
TEXT
  5
F3
100
AcDbEntity
  8
枠・表
  6
CONTINUOUS
 62
     2
100
AcDbText
 10
1132.115173
 20
1728.346619
 30
0.0
 40
40.0
  1
止水栓、排水トラップは洗面器の取付位置に
 41
0.7455
  7
EXCADSTD
 72
     5
 11
1842.115173
 21
1728.346619
 31
0.0
100
AcDbText
  0
TEXT
  5
F4
100
AcDbEntity
  8
枠・表
  6
CONTINUOUS
 62
     2
100
AcDbText
 10
1132.115173
 20
1688.346619
 30
0.0
 40
40.0
  1
応じ、適当なものを選択してください。
 41
0.746667
  7
EXCADSTD
 72
     5
 11
1772.115173
 21
1688.346619
 31
0.0
100
AcDbText
  0
TEXT
  5
F5
100
AcDbEntity
  8
枠・表
  6
CONTINUOUS
 62
     2
100
AcDbText
 10
1129.082581
 20
2599.816895
 30
0.0
 40
50.0
  1
Ｐ６９１５９
 41
0.6244
  7
EXCADSTD
 72
     5
 11
1352.082594
 21
2599.816895
 31
0.0
100
AcDbText
  0
TEXT
  5
F6
100
AcDbEntity
  8
枠・表
  6
CONTINUOUS
 62
     2
100
AcDbText
 10
1128.115173
 20
2535.673828
 30
0.0
 40
50.0
  1
ＪＬ２４２
 41
0.63168
  7
EXCADSTD
 72
     5
 11
1316.115185
 21
2535.673828
 31
0.0
100
AcDbText
  0
TEXT
  5
F7
100
AcDbEntity
  8
枠・表
  6
CONTINUOUS
 62
     2
100
AcDbText
 10
1128.115173
 20
1949.346619
 30
0.0
 40
50.0
  1
ＮＬ２１１－３７５ＷＭＹ
 41
0.5222
  7
EXCADSTD
 72
     5
 11
1501.115202
 21
1949.346619
 31
0.0
100
AcDbText
  0
TEXT
  5
F8
100
AcDbEntity
  8
枠・表
  6
CONTINUOUS
 62
     2
100
AcDbText
 10
184.5
 20
140.0
 30
0.0
 40
40.0
  1
21
 41
0.5
  7
EXCADSTD
 72
     5
 11
216.5
 21
140.0
 31
0.0
100
AcDbText
  0
TEXT
  5
F9
100
AcDbEntity
  8
枠・表
  6
CONTINUOUS
 62
     2
100
AcDbText
 10
235.0
 20
140.0
 30
0.0
 40
40.0
  1
11
 41
0.5
  7
EXCADSTD
 72
     5
 11
267.0
 21
140.0
 31
0.0
100
AcDbText
  0
TEXT
  5
FA
100
AcDbEntity
  8
枠・表
  6
CONTINUOUS
 62
     2
100
AcDbText
 10
288.0
 20
140.0
 30
0.0
 40
40.0
  1
10
 41
0.5
  7
EXCADSTD
 72
     5
 11
320.0
 21
140.0
 31
0.0
100
AcDbText
  0
TEXT
  5
FB
100
AcDbEntity
  8
枠・表
  6
CONTINUOUS
 62
     2
100
AcDbText
 10
1128.115173
 20
2144.346619
 30
0.0
 40
50.0
  1
ＬＵＭＥＨ７０－２０－３２Ｂ
 41
0.5028
  7
EXCADSTD
 72
     5
 11
1547.115153
 21
2144.346619
 31
0.0
100
AcDbText
  0
TEXT
  5
FC
100
AcDbEntity
  8
枠・表
  6
CONTINUOUS
 62
     2
100
AcDbText
 10
1889.00293
 20
2016.847992
 30
0.0
 40
47.5
  1
２
 41
1.043368
  7
EXCADSTD
 72
     5
 11
1936.20293
 21
2016.847992
 31
0.0
100
AcDbText
  0
TEXT
  5
FD
100
AcDbEntity
  8
枠・表
  6
CONTINUOUS
 62
     2
100
AcDbText
 10
1889.00293
 20
1951.847992
 30
0.0
 40
47.5
  1
２
 41
1.043368
  7
EXCADSTD
 72
     5
 11
1936.20293
 21
1951.847992
 31
0.0
100
AcDbText
  0
DIMENSION
  5
10A
100
AcDbEntity
  8
図
  6
CONTINUOUS
 62
     3
100
AcDbDimension
  2
*D14
 10
722.5
 20
2497.0
 30
0.0
 11
642.5
 21
2520.5
 31
0.0
 70
   160
  3
STANDARD
100
AcDbAlignedDimension
 13
562.5
 23
2344.47959
 33
0.0
 14
722.5
 24
2344.47959
 34
0.0
100
AcDbRotatedDimension
1001
ACAD
1000
DSTYLE
1002
{
1070
     6
1000
_EX_NORM
1070
     7
1000
_EX_NORM
1070
    41
1040
30.0
1070
    42
1040
15.520411
1070
    44
1040
10.0
1070
    73
1070
     0
1070
    74
1070
     0
1070
    75
1070
     0
1070
    76
1070
     0
1070
    77
1070
     1
1070
    78
1070
     8
1070
   140
1040
40.0
1070
   147
1040
3.5
1070
   173
1070
     1
1070
   176
1070
     3
1070
   177
1070
     3
1070
   178
1070
     2
1070
   271
1070
     2
1070
   279
1070
     2
1070
   280
1070
     0
1070
   287
1070
     5
1070
   340
1005
109
1002
}
  0
DIMENSION
  5
116
100
AcDbEntity
  8
図
  6
CONTINUOUS
 62
     3
100
AcDbDimension
  2
*D15
 10
775.5
 20
2557.0
 30
0.0
 11
642.5
 21
2580.5
 31
0.0
 70
   160
  3
STANDARD
100
AcDbAlignedDimension
 13
509.5
 23
2297.0
 33
0.0
 14
775.5
 24
2297.0
 34
0.0
100
AcDbRotatedDimension
1001
ACAD
1000
DSTYLE
1002
{
1070
     6
1000
_EX_NORM
1070
     7
1000
_EX_NORM
1070
    41
1040
30.0
1070
    42
1040
7.0
1070
    44
1040
10.0
1070
    73
1070
     0
1070
    74
1070
     0
1070
    75
1070
     0
1070
    76
1070
     0
1070
    77
1070
     1
1070
    78
1070
     8
1070
   140
1040
40.0
1070
   147
1040
3.5
1070
   173
1070
     1
1070
   176
1070
     3
1070
   177
1070
     3
1070
   178
1070
     2
1070
   271
1070
     2
1070
   279
1070
     2
1070
   280
1070
     0
1070
   287
1070
     5
1070
   340
1005
109
1002
}
  0
DIMENSION
  5
122
100
AcDbEntity
  8
図
  6
CONTINUOUS
 62
     3
100
AcDbDimension
  2
*D16
 10
474.0
 20
2196.5
 30
0.0
 11
450.5
 21
2156.5
 31
0.0
 70
   160
  3
STANDARD
100
AcDbAlignedDimension
 13
600.0
 23
2116.5
 33
0.0
 14
562.5
 24
2196.5
 34
0.0
 50
90.0
100
AcDbRotatedDimension
1001
ACAD
1000
DSTYLE
1002
{
1070
     6
1000
_EX_NORM
1070
     7
1000
_EX_NORM
1070
    41
1040
30.0
1070
    42
1040
7.0
1070
    44
1040
10.0
1070
    73
1070
     0
1070
    74
1070
     0
1070
    75
1070
     0
1070
    76
1070
     0
1070
    77
1070
     1
1070
    78
1070
     8
1070
   140
1040
40.0
1070
   147
1040
3.5
1070
   173
1070
     1
1070
   176
1070
     3
1070
   177
1070
     3
1070
   178
1070
     2
1070
   271
1070
     2
1070
   279
1070
     2
1070
   280
1070
     0
1070
   287
1070
     5
1070
   340
1005
109
1002
}
  0
DIMENSION
  5
12E
100
AcDbEntity
  8
図
  6
CONTINUOUS
 62
     3
100
AcDbDimension
  2
*D17
 10
474.0
 20
2289.5
 30
0.0
 11
450.5
 21
2243.0
 31
0.0
 70
   160
  3
STANDARD
100
AcDbAlignedDimension
 13
562.5
 23
2196.5
 33
0.0
 14
502.0
 24
2289.5
 34
0.0
 50
90.0
100
AcDbRotatedDimension
1001
ACAD
1000
DSTYLE
1002
{
1070
     6
1000
_EX_NORM
1070
     7
1000
_EX_NORM
1070
    41
1040
30.0
1070
    42
1040
7.0
1070
    44
1040
10.0
1070
    73
1070
     0
1070
    74
1070
     0
1070
    75
1070
     0
1070
    76
1070
     0
1070
    77
1070
     1
1070
    78
1070
     8
1070
   140
1040
40.0
1070
   147
1040
3.5
1070
   173
1070
     1
1070
   176
1070
     3
1070
   177
1070
     3
1070
   178
1070
     2
1070
   271
1070
     2
1070
   279
1070
     2
1070
   280
1070
     0
1070
   287
1070
     5
1070
   340
1005
109
1002
}
  0
DIMENSION
  5
139
100
AcDbEntity
  8
図
  6
CONTINUOUS
 62
     3
100
AcDbDimension
  2
*D18
 10
414.0
 20
2451.5
 30
0.0
 11
390.5
 21
2324.0
 31
0.0
 70
   160
  3
STANDARD
100
AcDbAlignedDimension
 13
562.5
 23
2196.5
 33
0.0
 14
642.5
 24
2451.5
 34
0.0
 50
90.0
100
AcDbRotatedDimension
1001
ACAD
1000
DSTYLE
1002
{
1070
     6
1000
_EX_NORM
1070
     7
1000
_EX_NORM
1070
    41
1040
30.0
1070
    42
1040
7.0
1070
    44
1040
10.0
1070
    73
1070
     0
1070
    74
1070
     0
1070
    75
1070
     0
1070
    76
1070
     1
1070
    77
1070
     1
1070
    78
1070
     8
1070
   140
1040
40.0
1070
   147
1040
3.5
1070
   173
1070
     1
1070
   176
1070
     3
1070
   177
1070
     3
1070
   178
1070
     2
1070
   271
1070
     2
1070
   279
1070
     2
1070
   280
1070
     0
1070
   287
1070
     5
1070
   340
1005
109
1002
}
  0
TEXT
  5
13A
100
AcDbEntity
  8
図
  6
CONTINUOUS
 62
     2
100
AcDbText
 10
374.0
 20
2036.5
 30
0.0
 40
40.0
  1
３－φ１５
 41
0.7056
  7
EXCADSTD
 72
     5
 11
542.0
 21
2036.5
 31
0.0
100
AcDbText
  0
LEADER
  5
13B
100
AcDbEntity
  8
図
  6
CONTINUOUS
 62
     3
100
AcDbLeader
  3
STANDARD
 73
     3
 74
     1
 75
     0
 40
0.0
 76
     3
 10
603.099531
 20
2110.426626
 30
0.0
 10
547.0
 20
2033.0
 30
0.0
 10
375.0
 20
2033.0
 30
0.0
 77
     3
1001
ACAD
1000
DSTYLE
1002
{
1070
    41
1040
30.0
1070
     5
1000
_EX_NORM
1070
     6
1000
_EX_NORM
1070
     7
1000
_EX_NORM
1070
   341
1005
28
1002
}
  0
TEXT
  5
13C
100
AcDbEntity
  8
図
  6
CONTINUOUS
 62
     2
100
AcDbText
 10
730.0
 20
2020.5
 30
0.0
 40
40.0
  1
２－Ｒ１４０
 41
0.7
  7
EXCADSTD
 72
     5
 11
929.999999
 21
2020.5
 31
0.0
100
AcDbText
  0
LEADER
  5
13D
100
AcDbEntity
  8
図
  6
CONTINUOUS
 62
     3
100
AcDbLeader
  3
STANDARD
 73
     3
 74
     1
 75
     0
 40
0.0
 76
     3
 10
683.479998
 20
2152.632006
 30
0.0
 10
725.0
 20
2017.0
 30
0.0
 10
923.0
 20
2017.0
 30
0.0
 77
     3
1001
ACAD
1000
DSTYLE
1002
{
1070
    41
1040
30.0
1070
     5
1000
_EX_NORM
1070
     6
1000
_EX_NORM
1070
     7
1000
_EX_NORM
1070
   341
1005
28
1002
}
  0
TEXT
  5
13E
100
AcDbEntity
  8
図
  6
CONTINUOUS
 62
     2
100
AcDbText
 10
793.0
 20
2086.5
 30
0.0
 40
40.0
  1
４－Ｒ３０
 41
0.7056
  7
EXCADSTD
 72
     5
 11
961.0
 21
2086.5
 31
0.0
100
AcDbText
  0
LEADER
  5
13F
100
AcDbEntity
  8
図
  6
CONTINUOUS
 62
     3
100
AcDbLeader
  3
STANDARD
 73
     3
 74
     1
 75
     0
 40
0.0
 76
     3
 10
712.630779
 20
2166.277394
 30
0.0
 10
788.0
 20
2083.0
 30
0.0
 10
953.0
 20
2083.0
 30
0.0
 77
     3
1001
ACAD
1000
DSTYLE
1002
{
1070
    41
1040
30.0
1070
     5
1000
_EX_NORM
1070
     6
1000
_EX_NORM
1070
     7
1000
_EX_NORM
1070
   341
1005
28
1002
}
  0
DIMENSION
  5
14B
100
AcDbEntity
  8
図
  6
CONTINUOUS
 62
     3
100
AcDbDimension
  2
*D19
 10
642.5
 20
1946.0
 30
0.0
 11
542.5
 21
1969.5
 31
0.0
 70
   160
  3
STANDARD
100
AcDbAlignedDimension
 13
607.5
 23
2109.0
 33
0.0
 14
642.5
 24
2001.5
 34
0.0
100
AcDbRotatedDimension
1001
ACAD
1000
DSTYLE
1002
{
1070
     6
1000
_EX_NORM
1070
     7
1000
_EX_NORM
1070
    41
1040
30.0
1070
    42
1040
7.0
1070
    44
1040
10.0
1070
    73
1070
     0
1070
    74
1070
     0
1070
    75
1070
     0
1070
    76
1070
     0
1070
    77
1070
     1
1070
    78
1070
     8
1070
   140
1040
40.0
1070
   147
1040
3.5
1070
   173
1070
     1
1070
   176
1070
     3
1070
   177
1070
     3
1070
   178
1070
     2
1070
   271
1070
     2
1070
   279
1070
     2
1070
   280
1070
     1
1070
   287
1070
     5
1070
   340
1005
109
1002
}
  0
DIMENSION
  5
157
100
AcDbEntity
  8
図
  6
CONTINUOUS
 62
     3
100
AcDbDimension
  2
*D20
 10
852.0
 20
2146.5
 30
0.0
 11
828.5
 21
2271.5
 31
0.0
 70
   160
  3
STANDARD
100
AcDbAlignedDimension
 13
642.5
 23
2396.5
 33
0.0
 14
642.5
 24
2146.5
 34
0.0
 50
90.0
100
AcDbRotatedDimension
1001
ACAD
1000
DSTYLE
1002
{
1070
     6
1000
_EX_NORM
1070
     7
1000
_EX_NORM
1070
    41
1040
30.0
1070
    42
1040
5.0
1070
    44
1040
10.0
1070
    73
1070
     0
1070
    74
1070
     0
1070
    75
1070
     0
1070
    76
1070
     0
1070
    77
1070
     1
1070
    78
1070
     8
1070
   140
1040
40.0
1070
   147
1040
3.5
1070
   173
1070
     1
1070
   176
1070
     3
1070
   177
1070
     3
1070
   178
1070
     2
1070
   271
1070
     2
1070
   279
1070
     2
1070
   280
1070
     0
1070
   287
1070
     5
1070
   340
1005
109
1002
}
  0
DIMENSION
  5
161
100
AcDbEntity
  8
図
  6
CONTINUOUS
 62
     3
100
AcDbDimension
  2
*D21
 10
852.0
 20
2451.5
 30
0.0
 11
828.5
 21
2516.5
 31
0.0
 70
   160
  3
STANDARD
100
AcDbAlignedDimension
 13
852.0
 23
2396.5
 33
0.0
 14
852.0
 24
2451.5
 34
0.0
 50
90.0
100
AcDbRotatedDimension
1001
ACAD
1000
DSTYLE
1002
{
1070
     6
1000
_EX_NORM
1070
     7
1000
_EX_NORM
1070
    41
1040
30.0
1070
    42
1040
0.0
1070
    44
1040
0.0
1070
    73
1070
     0
1070
    74
1070
     0
1070
    75
1070
     1
1070
    76
1070
     1
1070
    77
1070
     1
1070
    78
1070
     8
1070
   140
1040
40.0
1070
   147
1040
3.5
1070
   173
1070
     1
1070
   176
1070
     3
1070
   177
1070
     3
1070
   178
1070
     2
1070
   271
1070
     2
1070
   279
1070
     2
1070
   280
1070
     2
1070
   287
1070
     5
1070
   340
1005
109
1002
}
  0
TEXT
  5
162
100
AcDbEntity
  8
図
  6
CONTINUOUS
 62
     2
100
AcDbText
 10
229.00293
 20
2642.0
 30
0.0
 40
50.0
  1
カウンター　穴加工寸法
 41
0.687273
  7
EXCADSTD
 72
     5
 11
679.00293
 21
2642.0
 31
0.0
100
AcDbText
  0
LINE
  5
163
100
AcDbEntity
  8
図
  6
EXLTYPE3
 62
     6
100
AcDbLine
 10
562.5
 20
2196.5
 30
0.0
 11
722.5
 21
2196.5
 31
0.0
  0
ARC
  5
164
100
AcDbEntity
  8
図
  6
CONTINUOUS
 62
     2
100
AcDbCircle
 10
692.5
 20
2188.52041
 30
0.0
 40
30.0
100
AcDbArc
 50
297.035692
 51
0.0
  0
ARC
  5
165
100
AcDbEntity
  8
図
  6
CONTINUOUS
 62
     2
100
AcDbCircle
 10
642.5
 20
2286.5
 30
0.0
 40
140.0
100
AcDbArc
 50
242.964308
 51
297.035692
  0
ARC
  5
166
100
AcDbEntity
  8
図
  6
CONTINUOUS
 62
     2
100
AcDbCircle
 10
592.5
 20
2188.52041
 30
0.0
 40
30.0
100
AcDbArc
 50
180.0
 51
242.964308
  0
LINE
  5
167
100
AcDbEntity
  8
図
  6
CONTINUOUS
 62
     2
100
AcDbLine
 10
267.5
 20
2001.5
 30
0.0
 11
1017.5
 21
2001.5
 31
0.0
  0
LINE
  5
168
100
AcDbEntity
  8
図
  6
CONTINUOUS
 62
     2
100
AcDbLine
 10
267.5
 20
2451.5
 30
0.0
 11
1017.5
 21
2451.5
 31
0.0
  0
CIRCLE
  5
169
100
AcDbEntity
  8
図
  6
CONTINUOUS
 62
     2
100
AcDbCircle
 10
509.5
 20
2289.5
 30
0.0
 40
7.5
  0
LINE
  5
16A
100
AcDbEntity
  8
図
  6
CONTINUOUS
 62
     6
100
AcDbLine
 10
497.0
 20
2289.5
 30
0.0
 11
522.0
 21
2289.5
 31
0.0
  0
LINE
  5
16B
100
AcDbEntity
  8
図
  6
CONTINUOUS
 62
     6
100
AcDbLine
 10
509.5
 20
2277.0
 30
0.0
 11
509.5
 21
2302.0
 31
0.0
  0
CIRCLE
  5
16C
100
AcDbEntity
  8
図
  6
CONTINUOUS
 62
     2
100
AcDbCircle
 10
775.5
 20
2289.5
 30
0.0
 40
7.5
  0
LINE
  5
16D
100
AcDbEntity
  8
図
  6
CONTINUOUS
 62
     6
100
AcDbLine
 10
763.0
 20
2289.5
 30
0.0
 11
788.0
 21
2289.5
 31
0.0
  0
LINE
  5
16E
100
AcDbEntity
  8
図
  6
CONTINUOUS
 62
     6
100
AcDbLine
 10
775.5
 20
2277.0
 30
0.0
 11
775.5
 21
2302.0
 31
0.0
  0
CIRCLE
  5
16F
100
AcDbEntity
  8
図
  6
CONTINUOUS
 62
     2
100
AcDbCircle
 10
607.5
 20
2116.5
 30
0.0
 40
7.5
  0
LINE
  5
170
100
AcDbEntity
  8
図
  6
CONTINUOUS
 62
     6
100
AcDbLine
 10
595.0
 20
2116.5
 30
0.0
 11
620.0
 21
2116.5
 31
0.0
  0
LINE
  5
171
100
AcDbEntity
  8
図
  6
EXLTYPE3
 62
     6
100
AcDbLine
 10
642.5
 20
2461.5
 30
0.0
 11
642.5
 21
1991.5
 31
0.0
  0
LINE
  5
172
100
AcDbEntity
  8
図
  6
CONTINUOUS
 62
     6
100
AcDbLine
 10
607.5
 20
2104.0
 30
0.0
 11
607.5
 21
2129.0
 31
0.0
  0
ARC
  5
173
100
AcDbEntity
  8
図
  6
CONTINUOUS
 62
     2
100
AcDbCircle
 10
692.5
 20
2354.47959
 30
0.0
 40
30.0
100
AcDbArc
 50
0.0
 51
62.964308
  0
ARC
  5
174
100
AcDbEntity
  8
図
  6
CONTINUOUS
 62
     2
100
AcDbCircle
 10
592.5
 20
2354.47959
 30
0.0
 40
30.0
100
AcDbArc
 50
117.035692
 51
180.0
  0
ARC
  5
175
100
AcDbEntity
  8
図
  6
CONTINUOUS
 62
     2
100
AcDbCircle
 10
642.5
 20
2256.5
 30
0.0
 40
140.0
100
AcDbArc
 50
62.964308
 51
117.035692
  0
LINE
  5
176
100
AcDbEntity
  8
図
  6
CONTINUOUS
 62
     2
100
AcDbLine
 10
562.5
 20
2354.47959
 30
0.0
 11
562.5
 21
2188.52041
 31
0.0
  0
LINE
  5
177
100
AcDbEntity
  8
図
  6
CONTINUOUS
 62
     2
100
AcDbLine
 10
722.5
 20
2354.47959
 30
0.0
 11
722.5
 21
2188.52041
 31
0.0
  0
LINE
  5
178
100
AcDbEntity
  8
図
  6
CONTINUOUS
 62
     6
100
AcDbLine
 10
224.00293
 20
1892.0
 30
0.0
 11
1059.00293
 21
1892.0
 31
0.0
  0
LINE
  5
179
100
AcDbEntity
  8
図
  6
CONTINUOUS
 62
     6
100
AcDbLine
 10
1059.00293
 20
1892.0
 30
0.0
 11
1059.00293
 21
2704.0
 31
0.0
  0
LINE
  5
17A
100
AcDbEntity
  8
図
  6
CONTINUOUS
 62
     6
100
AcDbLine
 10
224.00293
 20
2704.0
 30
0.0
 11
1059.00293
 21
2704.0
 31
0.0
  0
LINE
  5
17B
100
AcDbEntity
  8
図
  6
CONTINUOUS
 62
     6
100
AcDbLine
 10
224.00293
 20
1892.0
 30
0.0
 11
224.00293
 21
2704.0
 31
0.0
  0
DIMENSION
  5
186
100
AcDbEntity
  8
図
  6
CONTINUOUS
 62
     3
100
AcDbDimension
  2
*D22
 10
1677.99999
 20
788.0
 30
0.0
 11
1550.49999
 21
811.5
 31
0.0
 70
   160
  3
STANDARD
100
AcDbAlignedDimension
 13
1422.99999
 23
1000.0
 33
0.0
 14
1677.99999
 24
771.8
 34
0.0
100
AcDbRotatedDimension
1001
ACAD
1000
DSTYLE
1002
{
1070
     6
1000
_EX_NORM
1070
     7
1000
_EX_NORM
1070
    41
1040
30.0
1070
    42
1040
5.0
1070
    44
1040
10.0
1070
    73
1070
     0
1070
    74
1070
     0
1070
    75
1070
     0
1070
    76
1070
     1
1070
    77
1070
     1
1070
    78
1070
     8
1070
   140
1040
40.0
1070
   147
1040
3.5
1070
   173
1070
     1
1070
   176
1070
     3
1070
   177
1070
     3
1070
   178
1070
     2
1070
   271
1070
     2
1070
   279
1070
     2
1070
   280
1070
     0
1070
   287
1070
     5
1070
   340
1005
109
1002
}
  0
LINE
  5
187
100
AcDbEntity
  8
図
  6
CONTINUOUS
 62
     2
100
AcDbLine
 10
1292.588745
 20
1169.0
 30
0.0
 11
1317.588745
 21
1194.0
 31
0.0
  0
LINE
  5
188
100
AcDbEntity
  8
図
  6
CONTINUOUS
 62
     2
100
AcDbLine
 10
1320.873016
 20
1169.0
 30
0.0
 11
1345.873016
 21
1194.0
 31
0.0
  0
LINE
  5
189
100
AcDbEntity
  8
図
  6
CONTINUOUS
 62
     2
100
AcDbLine
 10
1349.157288
 20
1169.0
 30
0.0
 11
1374.157288
 21
1194.0
 31
0.0
  0
LINE
  5
18A
100
AcDbEntity
  8
図
  6
CONTINUOUS
 62
     2
100
AcDbLine
 10
1377.441559
 20
1169.0
 30
0.0
 11
1402.441559
 21
1194.0
 31
0.0
  0
LINE
  5
18B
100
AcDbEntity
  8
図
  6
CONTINUOUS
 62
     2
100
AcDbLine
 10
1405.72583
 20
1169.0
 30
0.0
 11
1430.72583
 21
1194.0
 31
0.0
  0
LINE
  5
18C
100
AcDbEntity
  8
図
  6
CONTINUOUS
 62
     2
100
AcDbLine
 10
1434.010101
 20
1169.0
 30
0.0
 11
1459.010101
 21
1194.0
 31
0.0
  0
LINE
  5
18D
100
AcDbEntity
  8
図
  6
CONTINUOUS
 62
     2
100
AcDbLine
 10
1462.294373
 20
1169.0
 30
0.0
 11
1487.294373
 21
1194.0
 31
0.0
  0
LINE
  5
18E
100
AcDbEntity
  8
図
  6
CONTINUOUS
 62
     2
100
AcDbLine
 10
1490.578644
 20
1169.0
 30
0.0
 11
1515.578644
 21
1194.0
 31
0.0
  0
LINE
  5
18F
100
AcDbEntity
  8
図
  6
CONTINUOUS
 62
     2
100
AcDbLine
 10
1547.147186
 20
1169.0
 30
0.0
 11
1572.147186
 21
1194.0
 31
0.0
  0
LINE
  5
190
100
AcDbEntity
  8
図
  6
CONTINUOUS
 62
     2
100
AcDbLine
 10
1575.431458
 20
1169.0
 30
0.0
 11
1600.431458
 21
1194.0
 31
0.0
  0
LINE
  5
191
100
AcDbEntity
  8
図
  6
CONTINUOUS
 62
     2
100
AcDbLine
 10
1603.715729
 20
1169.0
 30
0.0
 11
1628.715729
 21
1194.0
 31
0.0
  0
LINE
  5
192
100
AcDbEntity
  8
図
  6
CONTINUOUS
 62
     2
100
AcDbLine
 10
1632.0
 20
1169.0
 30
0.0
 11
1657.0
 21
1194.0
 31
0.0
  0
LINE
  5
193
100
AcDbEntity
  8
図
  6
CONTINUOUS
 62
     2
100
AcDbLine
 10
1660.284271
 20
1169.0
 30
0.0
 11
1677.99999
 21
1186.715719
 31
0.0
  0
LINE
  5
194
100
AcDbEntity
  8
図
  6
CONTINUOUS
 62
     2
100
AcDbLine
 10
1207.735931
 20
1169.0
 30
0.0
 11
1232.735931
 21
1194.0
 31
0.0
  0
LINE
  5
195
100
AcDbEntity
  8
図
  6
CONTINUOUS
 62
     2
100
AcDbLine
 10
1236.020203
 20
1169.0
 30
0.0
 11
1261.020203
 21
1194.0
 31
0.0
  0
LINE
  5
196
100
AcDbEntity
  8
図
  6
CONTINUOUS
 62
     2
100
AcDbLine
 10
1264.304474
 20
1169.0
 30
0.0
 11
1289.304474
 21
1194.0
 31
0.0
  0
LINE
  5
197
100
AcDbEntity
  8
図
  6
CONTINUOUS
 62
     2
100
AcDbLine
 10
1180.0
 20
1169.54834
 30
0.0
 11
1204.45166
 21
1194.0
 31
0.0
  0
LINE
  5
198
100
AcDbEntity
  8
図
  6
CONTINUOUS
 62
     2
100
AcDbLine
 10
1518.862915
 20
1169.0
 30
0.0
 11
1543.862915
 21
1194.0
 31
0.0
  0
DIMENSION
  5
1A4
100
AcDbEntity
  8
図
  6
CONTINUOUS
 62
     3
100
AcDbDimension
  2
*D23
 10
663.0
 20
799.0
 30
0.0
 11
588.0
 21
822.5
 31
0.0
 70
   160
  3
STANDARD
100
AcDbAlignedDimension
 13
513.0
 23
1014.0
 33
0.0
 14
663.0
 24
1014.0
 34
0.0
100
AcDbRotatedDimension
1001
ACAD
1000
DSTYLE
1002
{
1070
     6
1000
_EX_NORM
1070
     7
1000
_EX_NORM
1070
    41
1040
30.0
1070
    42
1040
121.999998
1070
    44
1040
10.0
1070
    73
1070
     0
1070
    74
1070
     0
1070
    75
1070
     0
1070
    76
1070
     0
1070
    77
1070
     1
1070
    78
1070
     8
1070
   140
1040
40.0
1070
   147
1040
3.5
1070
   173
1070
     1
1070
   176
1070
     3
1070
   177
1070
     3
1070
   178
1070
     2
1070
   271
1070
     2
1070
   279
1070
     2
1070
   280
1070
     0
1070
   287
1070
     5
1070
   340
1005
109
1002
}
  0
DIMENSION
  5
1B0
100
AcDbEntity
  8
図
  6
CONTINUOUS
 62
     3
100
AcDbDimension
  2
*D24
 10
971.0
 20
1354.0
 30
0.0
 11
947.5
 21
1274.0
 31
0.0
 70
   160
  3
STANDARD
100
AcDbAlignedDimension
 13
963.0
 23
1194.0
 33
0.0
 14
588.0
 24
1354.0
 34
0.0
 50
90.0
100
AcDbRotatedDimension
1001
ACAD
1000
DSTYLE
1002
{
1070
     6
1000
_EX_NORM
1070
     7
1000
_EX_NORM
1070
    41
1040
30.0
1070
    42
1040
7.0
1070
    44
1040
10.0
1070
    73
1070
     0
1070
    74
1070
     0
1070
    75
1070
     0
1070
    76
1070
     0
1070
    77
1070
     1
1070
    78
1070
     8
1070
   140
1040
40.0
1070
   147
1040
3.5
1070
   173
1070
     1
1070
   176
1070
     3
1070
   177
1070
     3
1070
   178
1070
     2
1070
   271
1070
     2
1070
   279
1070
     2
1070
   280
1070
     0
1070
   287
1070
     5
1070
   340
1005
109
1002
}
  0
LINE
  5
1B1
100
AcDbEntity
  8
図
  6
CONTINUOUS
 62
     2
100
AcDbLine
 10
359.862915
 20
1169.0
 30
0.0
 11
384.862915
 21
1194.0
 31
0.0
  0
LINE
  5
1B2
100
AcDbEntity
  8
図
  6
CONTINUOUS
 62
     2
100
AcDbLine
 10
388.147186
 20
1169.0
 30
0.0
 11
413.147186
 21
1194.0
 31
0.0
  0
LINE
  5
1B3
100
AcDbEntity
  8
図
  6
CONTINUOUS
 62
     2
100
AcDbLine
 10
416.431458
 20
1169.0
 30
0.0
 11
441.431458
 21
1194.0
 31
0.0
  0
LINE
  5
1B4
100
AcDbEntity
  8
図
  6
CONTINUOUS
 62
     2
100
AcDbLine
 10
444.715729
 20
1169.0
 30
0.0
 11
469.715729
 21
1194.0
 31
0.0
  0
LINE
  5
1B5
100
AcDbEntity
  8
図
  6
CONTINUOUS
 62
     2
100
AcDbLine
 10
473.0
 20
1169.0
 30
0.0
 11
498.0
 21
1194.0
 31
0.0
  0
LINE
  5
1B6
100
AcDbEntity
  8
図
  6
CONTINUOUS
 62
     2
100
AcDbLine
 10
501.284271
 20
1169.0
 30
0.0
 11
526.284271
 21
1194.0
 31
0.0
  0
LINE
  5
1B7
100
AcDbEntity
  8
図
  6
CONTINUOUS
 62
     2
100
AcDbLine
 10
529.568542
 20
1169.0
 30
0.0
 11
554.568542
 21
1194.0
 31
0.0
  0
LINE
  5
1B8
100
AcDbEntity
  8
図
  6
CONTINUOUS
 62
     2
100
AcDbLine
 10
557.852814
 20
1169.0
 30
0.0
 11
582.852814
 21
1194.0
 31
0.0
  0
LINE
  5
1B9
100
AcDbEntity
  8
図
  6
CONTINUOUS
 62
     2
100
AcDbLine
 10
614.421356
 20
1169.0
 30
0.0
 11
639.421356
 21
1194.0
 31
0.0
  0
LINE
  5
1BA
100
AcDbEntity
  8
図
  6
CONTINUOUS
 62
     2
100
AcDbLine
 10
642.705627
 20
1169.0
 30
0.0
 11
667.705627
 21
1194.0
 31
0.0
  0
LINE
  5
1BB
100
AcDbEntity
  8
図
  6
CONTINUOUS
 62
     2
100
AcDbLine
 10
670.989899
 20
1169.0
 30
0.0
 11
695.989899
 21
1194.0
 31
0.0
  0
LINE
  5
1BC
100
AcDbEntity
  8
図
  6
CONTINUOUS
 62
     2
100
AcDbLine
 10
699.27417
 20
1169.0
 30
0.0
 11
724.27417
 21
1194.0
 31
0.0
  0
LINE
  5
1BD
100
AcDbEntity
  8
図
  6
CONTINUOUS
 62
     2
100
AcDbLine
 10
303.294373
 20
1169.0
 30
0.0
 11
328.294373
 21
1194.0
 31
0.0
  0
LINE
  5
1BE
100
AcDbEntity
  8
図
  6
CONTINUOUS
 62
     2
100
AcDbLine
 10
331.578644
 20
1169.0
 30
0.0
 11
356.578644
 21
1194.0
 31
0.0
  0
LINE
  5
1BF
100
AcDbEntity
  8
図
  6
CONTINUOUS
 62
     2
100
AcDbLine
 10
727.558441
 20
1169.0
 30
0.0
 11
752.558441
 21
1194.0
 31
0.0
  0
LINE
  5
1C0
100
AcDbEntity
  8
図
  6
CONTINUOUS
 62
     2
100
AcDbLine
 10
586.137085
 20
1169.0
 30
0.0
 11
611.137085
 21
1194.0
 31
0.0
  0
LINE
  5
1C1
100
AcDbEntity
  8
図
  6
CONTINUOUS
 62
     2
100
AcDbLine
 10
755.842712
 20
1169.0
 30
0.0
 11
780.842712
 21
1194.0
 31
0.0
  0
LINE
  5
1C2
100
AcDbEntity
  8
図
  6
CONTINUOUS
 62
     2
100
AcDbLine
 10
784.126984
 20
1169.0
 30
0.0
 11
809.126984
 21
1194.0
 31
0.0
  0
LINE
  5
1C3
100
AcDbEntity
  8
図
  6
CONTINUOUS
 62
     2
100
AcDbLine
 10
812.411255
 20
1169.0
 30
0.0
 11
837.411255
 21
1194.0
 31
0.0
  0
LINE
  5
1C4
100
AcDbEntity
  8
図
  6
CONTINUOUS
 62
     2
100
AcDbLine
 10
840.695526
 20
1169.0
 30
0.0
 11
865.695526
 21
1194.0
 31
0.0
  0
TEXT
  5
1C5
100
AcDbEntity
  8
図
  6
CONTINUOUS
 62
     2
100
AcDbText
 10
1719.49999
 20
768.5
 30
0.0
 40
40.0
  1
Ｒ１/２
 41
0.638
  7
EXCADSTD
 72
     5
 11
1835.49999
 21
768.5
 31
0.0
100
AcDbText
  0
LEADER
  5
1C6
100
AcDbEntity
  8
図
  6
CONTINUOUS
 62
     3
100
AcDbLeader
  3
STANDARD
 73
     3
 74
     1
 75
     0
 40
0.0
 76
     3
 10
1681.864944
 20
923.61493
 30
0.0
 10
1720.77349
 20
765.0
 30
0.0
 10
1833.0
 20
765.0
 30
0.0
 77
     3
1001
ACAD
1000
DSTYLE
1002
{
1070
    41
1040
30.0
1070
     5
1000
_EX_NORM
1070
     6
1000
_EX_NORM
1070
     7
1000
_EX_NORM
1070
   341
1005
28
1002
}
  0
LINE
  5
1C7
100
AcDbEntity
  8
図
  6
CONTINUOUS
 62
     7
100
AcDbLine
 10
363.283477
 20
1352.340358
 30
0.0
 11
419.0
 21
1194.0
 31
0.0
  0
LINE
  5
1C8
100
AcDbEntity
  8
図
  6
CONTINUOUS
 62
     7
100
AcDbLine
 10
757.0
 20
1194.0
 30
0.0
 11
812.716523
 21
1352.340358
 31
0.0
  0
ARC
  5
1C9
100
AcDbEntity
  8
図
  6
CONTINUOUS
 62
     7
100
AcDbCircle
 10
368.0
 20
1354.0
 30
0.0
 40
5.0
100
AcDbArc
 50
92.603905
 51
199.38586
  0
ARC
  5
1CA
100
AcDbEntity
  8
図
  6
CONTINUOUS
 62
     7
100
AcDbCircle
 10
808.0
 20
1354.0
 30
0.0
 40
5.0
100
AcDbArc
 50
340.61414
 51
87.396095
  0
ARC
  5
1CB
100
AcDbEntity
  8
図
  6
CONTINUOUS
 62
     7
100
AcDbCircle
 10
588.0
 20
6191.5
 30
0.0
 40
4837.5
100
AcDbArc
 50
267.455315
 51
272.544685
  0
LINE
  5
1CC
100
AcDbEntity
  8
図
  6
CONTINUOUS
 62
     7
100
AcDbLine
 10
489.643506
 20
1355.0
 30
0.0
 11
686.356494
 21
1355.0
 31
0.0
  0
LINE
  5
1CD
100
AcDbEntity
  8
図
  6
CONTINUOUS
 62
     2
100
AcDbLine
 10
608.0
 20
1145.3
 30
0.0
 11
568.0
 21
1145.3
 31
0.0
  0
LINE
  5
1CE
100
AcDbEntity
  8
図
  6
CONTINUOUS
 62
     2
100
AcDbLine
 10
604.0
 20
1143.3
 30
0.0
 11
572.0
 21
1143.3
 31
0.0
  0
LINE
  5
1CF
100
AcDbEntity
  8
図
  6
CONTINUOUS
 62
     2
100
AcDbLine
 10
604.0
 20
1143.3
 30
0.0
 11
608.0
 21
1145.3
 31
0.0
  0
LINE
  5
1D0
100
AcDbEntity
  8
図
  6
CONTINUOUS
 62
     2
100
AcDbLine
 10
572.0
 20
1143.3
 30
0.0
 11
568.0
 21
1145.3
 31
0.0
  0
LINE
  5
1D1
100
AcDbEntity
  8
図
  6
CONTINUOUS
 62
     2
100
AcDbLine
 10
568.0
 20
1169.0
 30
0.0
 11
568.0
 21
1145.3
 31
0.0
  0
LINE
  5
1D2
100
AcDbEntity
  8
図
  6
CONTINUOUS
 62
     2
100
AcDbLine
 10
608.0
 20
1169.0
 30
0.0
 11
608.0
 21
1145.3
 31
0.0
  0
LINE
  5
1D3
100
AcDbEntity
  8
図
  6
CONTINUOUS
 62
     7
100
AcDbLine
 10
419.0
 20
1194.0
 30
0.0
 11
757.0
 21
1194.0
 31
0.0
  0
LINE
  5
1D4
100
AcDbEntity
  8
図
  6
CONTINUOUS
 62
     2
100
AcDbLine
 10
870.0
 20
1169.0
 30
0.0
 11
301.0
 21
1169.0
 31
0.0
  0
LINE
  5
1D5
100
AcDbEntity
  8
図
  6
CONTINUOUS
 62
     2
100
AcDbLine
 10
870.0
 20
1194.0
 30
0.0
 11
301.0
 21
1194.0
 31
0.0
  0
LINE
  5
1D6
100
AcDbEntity
  8
図
  6
CONTINUOUS
 62
     7
100
AcDbLine
 10
1647.995205
 20
1353.98131
 30
0.0
 11
1641.08372
 21
1196.112524
 31
0.0
  0
LINE
  5
1D7
100
AcDbEntity
  8
図
  6
CONTINUOUS
 62
     7
100
AcDbLine
 10
1642.943175
 20
1359.199677
 30
0.0
 11
1202.943175
 21
1354.199677
 31
0.0
  0
LINE
  5
1D8
100
AcDbEntity
  8
図
  6
CONTINUOUS
 62
     7
100
AcDbLine
 10
1198.873526
 20
1346.376475
 30
0.0
 11
1302.40429
 21
1195.07059
 31
0.0
  0
ARC
  5
1D9
100
AcDbEntity
  8
図
  6
CONTINUOUS
 62
     7
100
AcDbCircle
 10
1304.054876
 20
1196.2
 30
0.0
 40
2.0
100
AcDbArc
 50
214.381811
 51
270.0
  0
ARC
  5
1DA
100
AcDbEntity
  8
図
  6
CONTINUOUS
 62
     7
100
AcDbCircle
 10
1642.99999
 20
1354.2
 30
0.0
 40
5.0
100
AcDbArc
 50
357.493195
 51
90.65106
  0
ARC
  5
1DB
100
AcDbEntity
  8
図
  6
CONTINUOUS
 62
     7
100
AcDbCircle
 10
1202.99999
 20
1349.2
 30
0.0
 40
5.0
100
AcDbArc
 50
90.65106
 51
214.381811
  0
ARC
  5
1DC
100
AcDbEntity
  8
図
  6
CONTINUOUS
 62
     2
100
AcDbCircle
 10
1445.99999
 20
1143.121608
 30
0.0
 40
3.0
100
AcDbArc
 50
96.483074
 51
180.0
  0
LINE
  5
1DD
100
AcDbEntity
  8
図
  6
CONTINUOUS
 62
     2
100
AcDbLine
 10
1442.99999
 20
1143.121608
 30
0.0
 11
1442.99999
 21
1139.3
 31
0.0
  0
LINE
  5
1DE
100
AcDbEntity
  8
図
  6
CONTINUOUS
 62
     2
100
AcDbLine
 10
1442.99999
 20
1139.3
 30
0.0
 11
1402.99999
 21
1139.3
 31
0.0
  0
LINE
  5
1DF
100
AcDbEntity
  8
図
  6
CONTINUOUS
 62
     2
100
AcDbLine
 10
1438.99999
 20
1137.3
 30
0.0
 11
1406.99999
 21
1137.3
 31
0.0
  0
LINE
  5
1E0
100
AcDbEntity
  8
図
  6
CONTINUOUS
 62
     2
100
AcDbLine
 10
1438.99999
 20
1137.3
 30
0.0
 11
1442.99999
 21
1139.3
 31
0.0
  0
LINE
  5
1E1
100
AcDbEntity
  8
図
  6
CONTINUOUS
 62
     2
100
AcDbLine
 10
1406.99999
 20
1137.3
 30
0.0
 11
1402.99999
 21
1139.3
 31
0.0
  0
LINE
  5
1E2
100
AcDbEntity
  8
図
  6
CONTINUOUS
 62
     2
100
AcDbLine
 10
1445.661254
 20
1166.497584
 30
0.0
 11
1464.99999
 21
1164.3
 31
0.0
  0
LINE
  5
1E3
100
AcDbEntity
  8
図
  6
CONTINUOUS
 62
     2
100
AcDbLine
 10
1617.99999
 20
1159.3
 30
0.0
 11
1617.99999
 21
1153.3
 31
0.0
  0
LINE
  5
1E4
100
AcDbEntity
  8
図
  6
CONTINUOUS
 62
     2
100
AcDbLine
 10
1478.49999
 20
1168.3
 30
0.0
 11
1478.49999
 21
1144.3
 31
0.0
  0
LINE
  5
1E5
100
AcDbEntity
  8
図
  6
CONTINUOUS
 62
     2
100
AcDbLine
 10
1484.99999
 20
1168.3
 30
0.0
 11
1484.99999
 21
1144.3
 31
0.0
  0
LINE
  5
1E6
100
AcDbEntity
  8
図
  6
CONTINUOUS
 62
     2
100
AcDbLine
 10
1473.49999
 20
1166.8
 30
0.0
 11
1464.99999
 21
1166.8
 31
0.0
  0
LINE
  5
1E7
100
AcDbEntity
  8
図
  6
CONTINUOUS
 62
     2
100
AcDbLine
 10
1496.99999
 20
1164.3
 30
0.0
 11
1496.99999
 21
1148.3
 31
0.0
  0
LINE
  5
1E8
100
AcDbEntity
  8
図
  6
CONTINUOUS
 62
     2
100
AcDbLine
 10
1473.49999
 20
1167.8
 30
0.0
 11
1473.49999
 21
1144.8
 31
0.0
  0
LINE
  5
1E9
100
AcDbEntity
  8
図
  6
CONTINUOUS
 62
     2
100
AcDbLine
 10
1484.99999
 20
1168.3
 30
0.0
 11
1478.49999
 21
1168.3
 31
0.0
  0
ARC
  5
1EA
100
AcDbEntity
  8
図
  6
CONTINUOUS
 62
     2
100
AcDbCircle
 10
1493.99999
 20
1164.3
 30
0.0
 40
3.0
100
AcDbArc
 50
0.0
 51
90.0
  0
LINE
  5
1EB
100
AcDbEntity
  8
図
  6
CONTINUOUS
 62
     2
100
AcDbLine
 10
1493.99999
 20
1167.3
 30
0.0
 11
1484.99999
 21
1167.3
 31
0.0
  0
LINE
  5
1EC
100
AcDbEntity
  8
図
  6
CONTINUOUS
 62
     2
100
AcDbLine
 10
1473.49999
 20
1145.8
 30
0.0
 11
1464.99999
 21
1145.8
 31
0.0
  0
LINE
  5
1ED
100
AcDbEntity
  8
図
  6
CONTINUOUS
 62
     2
100
AcDbLine
 10
1484.99999
 20
1144.3
 30
0.0
 11
1478.49999
 21
1144.3
 31
0.0
  0
ARC
  5
1EE
100
AcDbEntity
  8
図
  6
CONTINUOUS
 62
     2
100
AcDbCircle
 10
1493.99999
 20
1148.3
 30
0.0
 40
3.0
100
AcDbArc
 50
270.0
 51
0.0
  0
LINE
  5
1EF
100
AcDbEntity
  8
図
  6
CONTINUOUS
 62
     2
100
AcDbLine
 10
1493.99999
 20
1145.3
 30
0.0
 11
1484.99999
 21
1145.3
 31
0.0
  0
LINE
  5
1F0
100
AcDbEntity
  8
図
  6
CONTINUOUS
 62
     2
100
AcDbLine
 10
1464.99999
 20
1166.8
 30
0.0
 11
1464.99999
 21
1145.8
 31
0.0
  0
LINE
  5
1F1
100
AcDbEntity
  8
図
  6
CONTINUOUS
 62
     2
100
AcDbLine
 10
1445.661254
 20
1146.102424
 30
0.0
 11
1464.99999
 21
1148.3
 31
0.0
  0
LINE
  5
1F2
100
AcDbEntity
  8
図
  6
CONTINUOUS
 62
     2
100
AcDbLine
 10
1402.99999
 20
1169.0
 30
0.0
 11
1402.99999
 21
1139.3
 31
0.0
  0
LINE
  5
1F3
100
AcDbEntity
  8
図
  6
EXLTYPE3
 62
     6
100
AcDbLine
 10
1422.99999
 20
1153.3
 30
0.0
 11
1422.99999
 21
1000.0
 31
0.0
  0
ARC
  5
1F4
100
AcDbEntity
  8
図
  6
CONTINUOUS
 62
     2
100
AcDbCircle
 10
1445.99999
 20
1169.4784
 30
0.0
 40
3.0
100
AcDbArc
 50
189.175941
 51
263.516926
  0
ARC
  5
1F5
100
AcDbEntity
  8
図
  6
CONTINUOUS
 62
     7
100
AcDbCircle
 10
1639.085634
 20
1196.2
 30
0.0
 40
2.0
100
AcDbArc
 50
293.200633
 51
357.493195
  0
LINE
  5
1F6
100
AcDbEntity
  8
図
  6
CONTINUOUS
 62
     2
100
AcDbLine
 10
1180.0
 20
1169.0
 30
0.0
 11
1677.99999
 21
1169.0
 31
0.0
  0
LINE
  5
1F7
100
AcDbEntity
  8
図
  6
CONTINUOUS
 62
     7
100
AcDbLine
 10
1304.054876
 20
1194.0
 30
0.0
 11
1639.873538
 21
1194.0
 31
0.0
  0
LINE
  5
1F8
100
AcDbEntity
  8
図
  6
CONTINUOUS
 62
     2
100
AcDbLine
 10
1180.0
 20
1194.0
 30
0.0
 11
1303.5
 21
1194.0
 31
0.0
  0
LINE
  5
1F9
100
AcDbEntity
  8
図
  6
CONTINUOUS
 62
     2
100
AcDbLine
 10
1586.247081
 20
1159.3
 30
0.0
 11
1496.99999
 21
1159.3
 31
0.0
  0
LINE
  5
1FA
100
AcDbEntity
  8
図
  6
CONTINUOUS
 62
     2
100
AcDbLine
 10
1617.99999
 20
1159.3
 30
0.0
 11
1599.747081
 21
1159.3
 31
0.0
  0
LINE
  5
1FB
100
AcDbEntity
  8
図
  6
CONTINUOUS
 62
     2
100
AcDbLine
 10
1617.99999
 20
1153.3
 30
0.0
 11
1599.747081
 21
1153.3
 31
0.0
  0
LINE
  5
1FC
100
AcDbEntity
  8
図
  6
CONTINUOUS
 62
     2
100
AcDbLine
 10
1586.247081
 20
1153.3
 30
0.0
 11
1496.99999
 21
1153.3
 31
0.0
  0
LINE
  5
1FD
100
AcDbEntity
  8
図
  6
CONTINUOUS
 62
     2
100
AcDbLine
 10
1639.873538
 20
1194.0
 30
0.0
 11
1677.99999
 21
1194.0
 31
0.0
  0
TEXT
  5
1FE
100
AcDbEntity
  8
図
  6
CONTINUOUS
 62
     2
100
AcDbText
 10
1220.864257
 20
1102.974396
 30
0.0
 40
40.0
  1
排水上部
 41
0.76125
  7
EXCADSTD
 72
     5
 11
1365.864257
 21
1102.974396
 31
0.0
100
AcDbText
  0
POLYLINE
  5
1FF
100
AcDbEntity
  8
図
  6
CONTINUOUS
 62
     3
100
AcDb2dPolyline
 66
     1
 10
0.0
 20
0.0
 30
0.0
 70
   128
  0
VERTEX
  5
200
100
AcDbEntity
  8
図
  6
CONTINUOUS
 62
     3
100
AcDbVertex
100
AcDb2dVertex
 10
1402.99999
 20
1142.7
 30
0.0
  0
VERTEX
  5
201
100
AcDbEntity
  8
図
  6
CONTINUOUS
 62
     3
100
AcDbVertex
100
AcDb2dVertex
 10
1363.79123
 20
1100.300685
 30
0.0
  0
VERTEX
  5
202
100
AcDbEntity
  8
図
  6
CONTINUOUS
 62
     3
100
AcDbVertex
100
AcDb2dVertex
 10
1215.922602
 20
1100.300685
 30
0.0
  0
SEQEND
  5
203
100
AcDbEntity
  8
図
  6
CONTINUOUS
 62
     3
  0
LINE
  5
204
100
AcDbEntity
  8
図
  6
CONTINUOUS
 62
     3
100
AcDbLine
 10
1386.302655
 20
1117.279556
 30
0.0
 11
1402.99999
 21
1142.7
 31
0.0
  0
LINE
  5
205
100
AcDbEntity
  8
図
  6
CONTINUOUS
 62
     3
100
AcDbLine
 10
1402.99999
 20
1142.7
 30
0.0
 11
1378.960745
 21
1124.068986
 31
0.0
  0
TEXT
  5
206
100
AcDbEntity
  8
図
  6
CONTINUOUS
 62
     2
100
AcDbText
 10
1223.941655
 20
1571.974396
 30
0.0
 40
40.0
  1
水栓金具
 41
0.76125
  7
EXCADSTD
 72
     5
 11
1368.941655
 21
1571.974396
 31
0.0
100
AcDbText
  0
LINE
  5
207
100
AcDbEntity
  8
図
  6
CONTINUOUS
 62
     6
100
AcDbLine
 10
1706.49999
 20
1023.0
 30
0.0
 11
1706.49999
 21
1055.0
 31
0.0
  0
LINE
  5
208
100
AcDbEntity
  8
図
  6
CONTINUOUS
 62
     6
100
AcDbLine
 10
1704.49999
 20
943.5
 30
0.0
 11
1704.49999
 21
994.5
 31
0.0
  0
LINE
  5
209
100
AcDbEntity
  8
図
  6
CONTINUOUS
 62
     2
100
AcDbLine
 10
1407.12499
 20
1137.3
 30
0.0
 11
1407.12499
 21
1013.0
 31
0.0
  0
LINE
  5
20A
100
AcDbEntity
  8
図
  6
CONTINUOUS
 62
     2
100
AcDbLine
 10
1438.87499
 20
1137.3
 30
0.0
 11
1438.87499
 21
1013.0
 31
0.0
  0
LINE
  5
20B
100
AcDbEntity
  8
図
  6
CONTINUOUS
 62
     2
100
AcDbLine
 10
1400.99999
 20
1013.0
 30
0.0
 11
1444.99999
 21
1013.0
 31
0.0
  0
LINE
  5
20C
100
AcDbEntity
  8
図
  6
CONTINUOUS
 62
     2
100
AcDbLine
 10
1406.99999
 20
951.024887
 30
0.0
 11
1406.99999
 21
915.0
 31
0.0
  0
LINE
  5
20D
100
AcDbEntity
  8
図
  6
CONTINUOUS
 62
     2
100
AcDbLine
 10
1438.99999
 20
951.024886
 30
0.0
 11
1438.99999
 21
915.0
 31
0.0
  0
ARC
  5
20E
100
AcDbEntity
  8
図
  6
CONTINUOUS
 62
     2
100
AcDbCircle
 10
1460.99999
 20
915.0
 30
0.0
 40
22.0
100
AcDbArc
 50
180.0
 51
0.0
  0
ARC
  5
20F
100
AcDbEntity
  8
図
  6
CONTINUOUS
 62
     2
100
AcDbCircle
 10
1460.99999
 20
915.0
 30
0.0
 40
54.0
100
AcDbArc
 50
180.0
 51
0.0
  0
LINE
  5
210
100
AcDbEntity
  8
図
  6
CONTINUOUS
 62
     2
100
AcDbLine
 10
1406.99999
 20
951.399887
 30
0.0
 11
1438.99999
 21
951.399887
 31
0.0
  0
LINE
  5
211
100
AcDbEntity
  8
図
  6
CONTINUOUS
 62
     2
100
AcDbLine
 10
1406.24999
 20
951.774887
 30
0.0
 11
1406.99999
 21
951.024887
 31
0.0
  0
LINE
  5
212
100
AcDbEntity
  8
図
  6
CONTINUOUS
 62
     2
100
AcDbLine
 10
1439.74999
 20
951.774887
 30
0.0
 11
1438.99999
 21
951.024886
 31
0.0
  0
LINE
  5
213
100
AcDbEntity
  8
図
  6
CONTINUOUS
 62
     2
100
AcDbLine
 10
1439.74999
 20
1001.0
 30
0.0
 11
1439.74999
 21
951.774887
 31
0.0
  0
LINE
  5
214
100
AcDbEntity
  8
図
  6
CONTINUOUS
 62
     2
100
AcDbLine
 10
1406.24999
 20
1001.0
 30
0.0
 11
1406.24999
 21
951.774887
 31
0.0
  0
LINE
  5
215
100
AcDbEntity
  8
図
  6
CONTINUOUS
 62
     2
100
AcDbLine
 10
1400.99999
 20
1001.0
 30
0.0
 11
1444.99999
 21
1001.0
 31
0.0
  0
ARC
  5
216
100
AcDbEntity
  8
図
  6
CONTINUOUS
 62
     2
100
AcDbCircle
 10
1436.99999
 20
1007.0
 30
0.0
 40
10.0
100
AcDbArc
 50
323.130102
 51
36.869898
  0
ARC
  5
217
100
AcDbEntity
  8
図
  6
CONTINUOUS
 62
     2
100
AcDbCircle
 10
1408.99999
 20
1007.0
 30
0.0
 40
10.0
100
AcDbArc
 50
143.130102
 51
216.869898
  0
LINE
  5
218
100
AcDbEntity
  8
図
  6
CONTINUOUS
 62
     2
100
AcDbLine
 10
1514.99999
 20
918.0
 30
0.0
 11
1514.99999
 21
915.0
 31
0.0
  0
LINE
  5
219
100
AcDbEntity
  8
図
  6
CONTINUOUS
 62
     2
100
AcDbLine
 10
1482.99999
 20
918.0
 30
0.0
 11
1482.99999
 21
915.0
 31
0.0
  0
LINE
  5
21A
100
AcDbEntity
  8
図
  6
CONTINUOUS
 62
     2
100
AcDbLine
 10
1476.99999
 20
930.0
 30
0.0
 11
1520.99999
 21
930.0
 31
0.0
  0
LINE
  5
21B
100
AcDbEntity
  8
図
  6
CONTINUOUS
 62
     2
100
AcDbLine
 10
1476.99999
 20
918.0
 30
0.0
 11
1520.99999
 21
918.0
 31
0.0
  0
ARC
  5
21C
100
AcDbEntity
  8
図
  6
CONTINUOUS
 62
     2
100
AcDbCircle
 10
1512.99999
 20
924.0
 30
0.0
 40
10.0
100
AcDbArc
 50
323.130102
 51
36.869898
  0
ARC
  5
21D
100
AcDbEntity
  8
図
  6
CONTINUOUS
 62
     2
100
AcDbCircle
 10
1484.99999
 20
924.0
 30
0.0
 40
10.0
100
AcDbArc
 50
143.130102
 51
216.869898
  0
ELLIPSE
  5
21E
100
AcDbEntity
  8
図
  6
CONTINUOUS
 62
     6
100
AcDbEllipse
 10
1404.356558
 20
1007.0
 30
0.0
 11
0.0000000000000004
 21
6.0000475440321903
 31
0.0
210
0.0
220
0.0
230
1.0
 40
0.892754
 41
0.0
 42
6.2831853071796004
  0
ELLIPSE
  5
21F
100
AcDbEntity
  8
図
  6
CONTINUOUS
 62
     6
100
AcDbEllipse
 10
1422.99999
 20
1007.0
 30
0.0
 11
10.665364503850013
 21
0.0
 31
0.0
210
0.0
220
0.0
230
1.0
 40
0.562569
 41
0.0
 42
6.2831853071796004
  0
ELLIPSE
  5
220
100
AcDbEntity
  8
図
  6
CONTINUOUS
 62
     6
100
AcDbEllipse
 10
1441.643422
 20
1007.0
 30
0.0
 11
0.0000000000000004
 21
6.0000475440321521
 31
0.0
210
0.0
220
0.0
230
1.0
 40
0.892754
 41
0.0
 42
6.2831853071796004
  0
ELLIPSE
  5
221
100
AcDbEntity
  8
図
  6
CONTINUOUS
 62
     6
100
AcDbEllipse
 10
1480.356558
 20
924.0
 30
0.0
 11
0.0000000000000004
 21
6.0000475440321903
 31
0.0
210
0.0
220
0.0
230
1.0
 40
0.892754
 41
0.0
 42
6.2831853071796004
  0
ELLIPSE
  5
222
100
AcDbEntity
  8
図
  6
CONTINUOUS
 62
     6
100
AcDbEllipse
 10
1498.99999
 20
924.0
 30
0.0
 11
10.665364503850013
 21
0.0
 31
0.0
210
0.0
220
0.0
230
1.0
 40
0.562569
 41
0.0
 42
6.2831853071796004
  0
ELLIPSE
  5
223
100
AcDbEntity
  8
図
  6
CONTINUOUS
 62
     6
100
AcDbEllipse
 10
1517.643422
 20
924.0
 30
0.0
 11
0.0000000000000004
 21
6.0000475440321521
 31
0.0
210
0.0
220
0.0
230
1.0
 40
0.892754
 41
0.0
 42
6.2831853071796004
  0
LINE
  5
224
100
AcDbEntity
  8
図
  6
CONTINUOUS
 62
     2
100
AcDbLine
 10
1478.49999
 20
1167.8
 30
0.0
 11
1473.49999
 21
1167.8
 31
0.0
  0
LINE
  5
225
100
AcDbEntity
  8
図
  6
CONTINUOUS
 62
     2
100
AcDbLine
 10
1478.49999
 20
1144.8
 30
0.0
 11
1473.49999
 21
1144.8
 31
0.0
  0
LINE
  5
226
100
AcDbEntity
  8
図
  6
CONTINUOUS
 62
     6
100
AcDbLine
 10
1677.99999
 20
994.5
 30
0.0
 11
1704.49999
 21
994.5
 31
0.0
  0
ARC
  5
227
100
AcDbEntity
  8
図
  6
CONTINUOUS
 62
     2
100
AcDbCircle
 10
1536.99999
 20
931.0
 30
0.0
 40
22.0
100
AcDbArc
 50
90.0
 51
182.605251
  0
ARC
  5
228
100
AcDbEntity
  8
図
  6
CONTINUOUS
 62
     2
100
AcDbCircle
 10
1536.99999
 20
931.0
 30
0.0
 40
54.0
100
AcDbArc
 50
90.0
 51
181.061094
  0
ARC
  5
229
100
AcDbEntity
  8
図
  6
CONTINUOUS
 62
     2
100
AcDbCircle
 10
1649.00298
 20
990.997008
 30
0.0
 40
11.002992
100
AcDbArc
 50
90.0
 51
180.0
  0
LINE
  5
22A
100
AcDbEntity
  8
図
  6
CONTINUOUS
 62
     2
100
AcDbLine
 10
1649.00298
 20
1002.0
 30
0.0
 11
1677.99999
 21
1002.0
 31
0.0
  0
LINE
  5
22B
100
AcDbEntity
  8
図
  6
EXLTYPE4
 62
     6
100
AcDbLine
 10
1613.0
 20
1055.0
 30
0.0
 11
1706.49999
 21
1055.0
 31
0.0
  0
LINE
  5
22C
100
AcDbEntity
  8
図
  6
EXLTYPE3
 62
     6
100
AcDbLine
 10
1613.0
 20
1039.0
 30
0.0
 11
1716.49999
 21
1039.0
 31
0.0
  0
LINE
  5
22D
100
AcDbEntity
  8
図
  6
EXLTYPE4
 62
     6
100
AcDbLine
 10
1613.0
 20
1023.0
 30
0.0
 11
1706.49999
 21
1023.0
 31
0.0
  0
LINE
  5
22E
100
AcDbEntity
  8
図
  6
CONTINUOUS
 62
     6
100
AcDbLine
 10
502.5
 20
546.0
 30
0.0
 11
523.5
 21
546.0
 31
0.0
  0
LINE
  5
22F
100
AcDbEntity
  8
図
  6
EXLTYPE4
 62
     6
100
AcDbLine
 10
523.5
 20
754.0
 30
0.0
 11
523.5
 21
546.0
 31
0.0
  0
LINE
  5
230
100
AcDbEntity
  8
図
  6
EXLTYPE4
 62
     6
100
AcDbLine
 10
502.5
 20
754.0
 30
0.0
 11
502.5
 21
546.0
 31
0.0
  0
LINE
  5
231
100
AcDbEntity
  8
図
  6
EXLTYPE4
 62
     6
100
AcDbLine
 10
673.5
 20
754.0
 30
0.0
 11
673.5
 21
546.0
 31
0.0
  0
LINE
  5
232
100
AcDbEntity
  8
図
  6
EXLTYPE4
 62
     6
100
AcDbLine
 10
652.5
 20
754.0
 30
0.0
 11
652.5
 21
546.0
 31
0.0
  0
LINE
  5
233
100
AcDbEntity
  8
図
  6
CONTINUOUS
 62
     6
100
AcDbLine
 10
673.5
 20
546.0
 30
0.0
 11
652.5
 21
546.0
 31
0.0
  0
LINE
  5
234
100
AcDbEntity
  8
図
  6
CONTINUOUS
 62
     2
100
AcDbLine
 10
608.0
 20
1001.0
 30
0.0
 11
608.0
 21
999.016
 31
0.0
  0
LINE
  5
235
100
AcDbEntity
  8
図
  6
CONTINUOUS
 62
     2
100
AcDbLine
 10
569.016
 20
998.0
 30
0.0
 11
606.984
 21
998.0
 31
0.0
  0
LINE
  5
236
100
AcDbEntity
  8
図
  6
CONTINUOUS
 62
     2
100
AcDbLine
 10
608.0
 20
999.016
 30
0.0
 11
568.0
 21
999.016
 31
0.0
  0
ARC
  5
237
100
AcDbEntity
  8
図
  6
CONTINUOUS
 62
     2
100
AcDbCircle
 10
572.596588
 20
1007.0
 30
0.0
 40
10.0
100
AcDbArc
 50
143.130102
 51
216.869898
  0
ARC
  5
238
100
AcDbEntity
  8
図
  6
CONTINUOUS
 62
     2
100
AcDbCircle
 10
603.403412
 20
1007.0
 30
0.0
 40
10.0
100
AcDbArc
 50
323.130102
 51
36.869898
  0
LINE
  5
239
100
AcDbEntity
  8
図
  6
CONTINUOUS
 62
     2
100
AcDbLine
 10
564.596588
 20
1001.0
 30
0.0
 11
611.403412
 21
1001.0
 31
0.0
  0
LINE
  5
23A
100
AcDbEntity
  8
図
  6
CONTINUOUS
 62
     2
100
AcDbLine
 10
564.596588
 20
1013.0
 30
0.0
 11
611.403412
 21
1013.0
 31
0.0
  0
LINE
  5
23B
100
AcDbEntity
  8
図
  6
CONTINUOUS
 62
     2
100
AcDbLine
 10
569.016
 20
998.0
 30
0.0
 11
568.0
 21
999.016
 31
0.0
  0
LINE
  5
23C
100
AcDbEntity
  8
図
  6
CONTINUOUS
 62
     2
100
AcDbLine
 10
568.0
 20
1001.0
 30
0.0
 11
568.0
 21
999.016
 31
0.0
  0
LINE
  5
23D
100
AcDbEntity
  8
図
  6
CONTINUOUS
 62
     2
100
AcDbLine
 10
605.0
 20
998.0
 30
0.0
 11
605.984
 21
998.0
 31
0.0
  0
LINE
  5
23E
100
AcDbEntity
  8
図
  6
CONTINUOUS
 62
     2
100
AcDbLine
 10
606.984
 20
998.0
 30
0.0
 11
608.0
 21
999.016
 31
0.0
  0
POLYLINE
  5
23F
100
AcDbEntity
  8
図
  6
CONTINUOUS
 62
     6
100
AcDb2dPolyline
 66
     1
 10
0.0
 20
0.0
 30
0.0
 70
   128
  0
VERTEX
  5
240
100
AcDbEntity
  8
図
  6
CONTINUOUS
 62
     6
100
AcDbVertex
100
AcDb2dVertex
 10
598.451706
 20
1007.0
 30
0.0
  0
VERTEX
  5
241
100
AcDbEntity
  8
図
  6
CONTINUOUS
 62
     6
100
AcDbVertex
100
AcDb2dVertex
 10
598.411934
 20
1007.522934
 30
0.0
  0
VERTEX
  5
242
100
AcDbEntity
  8
図
  6
CONTINUOUS
 62
     6
100
AcDbVertex
100
AcDb2dVertex
 10
598.292922
 20
1008.04189
 30
0.0
  0
VERTEX
  5
243
100
AcDbEntity
  8
図
  6
CONTINUOUS
 62
     6
100
AcDbVertex
100
AcDb2dVertex
 10
598.095572
 20
1008.552914
 30
0.0
  0
VERTEX
  5
244
100
AcDbEntity
  8
図
  6
CONTINUOUS
 62
     6
100
AcDbVertex
100
AcDb2dVertex
 10
597.821392
 20
1009.052122
 30
0.0
  0
VERTEX
  5
245
100
AcDbEntity
  8
図
  6
CONTINUOUS
 62
     6
100
AcDbVertex
100
AcDb2dVertex
 10
597.472462
 20
1009.53571
 30
0.0
  0
VERTEX
  5
246
100
AcDbEntity
  8
図
  6
CONTINUOUS
 62
     6
100
AcDbVertex
100
AcDb2dVertex
 10
597.051444
 20
1010.0
 30
0.0
  0
VERTEX
  5
247
100
AcDbEntity
  8
図
  6
CONTINUOUS
 62
     6
100
AcDbVertex
100
AcDb2dVertex
 10
596.561536
 20
1010.441458
 30
0.0
  0
VERTEX
  5
248
100
AcDbEntity
  8
図
  6
CONTINUOUS
 62
     6
100
AcDbVertex
100
AcDb2dVertex
 10
596.006472
 20
1010.856726
 30
0.0
  0
VERTEX
  5
249
100
AcDbEntity
  8
図
  6
CONTINUOUS
 62
     6
100
AcDbVertex
100
AcDb2dVertex
 10
595.390472
 20
1011.24264
 30
0.0
  0
VERTEX
  5
24A
100
AcDbEntity
  8
図
  6
CONTINUOUS
 62
     6
100
AcDbVertex
100
AcDb2dVertex
 10
594.718228
 20
1011.596266
 30
0.0
  0
VERTEX
  5
24B
100
AcDbEntity
  8
図
  6
CONTINUOUS
 62
     6
100
AcDbVertex
100
AcDb2dVertex
 10
593.994852
 20
1011.914912
 30
0.0
  0
VERTEX
  5
24C
100
AcDbEntity
  8
図
  6
CONTINUOUS
 62
     6
100
AcDbVertex
100
AcDb2dVertex
 10
593.225854
 20
1012.196152
 30
0.0
  0
VERTEX
  5
24D
100
AcDbEntity
  8
図
  6
CONTINUOUS
 62
     6
100
AcDbVertex
100
AcDb2dVertex
 10
592.417082
 20
1012.437846
 30
0.0
  0
VERTEX
  5
24E
100
AcDbEntity
  8
図
  6
CONTINUOUS
 62
     6
100
AcDbVertex
100
AcDb2dVertex
 10
591.574694
 20
1012.638156
 30
0.0
  0
VERTEX
  5
24F
100
AcDbEntity
  8
図
  6
CONTINUOUS
 62
     6
100
AcDbVertex
100
AcDb2dVertex
 10
590.7051
 20
1012.795556
 30
0.0
  0
VERTEX
  5
250
100
AcDbEntity
  8
図
  6
CONTINUOUS
 62
     6
100
AcDbVertex
100
AcDb2dVertex
 10
589.81492
 20
1012.908846
 30
0.0
  0
VERTEX
  5
251
100
AcDbEntity
  8
図
  6
CONTINUOUS
 62
     6
100
AcDbVertex
100
AcDb2dVertex
 10
588.910926
 20
1012.977168
 30
0.0
  0
VERTEX
  5
252
100
AcDbEntity
  8
図
  6
CONTINUOUS
 62
     6
100
AcDbVertex
100
AcDb2dVertex
 10
588.0
 20
1013.0
 30
0.0
  0
VERTEX
  5
253
100
AcDbEntity
  8
図
  6
CONTINUOUS
 62
     6
100
AcDbVertex
100
AcDb2dVertex
 10
587.089074
 20
1012.977168
 30
0.0
  0
VERTEX
  5
254
100
AcDbEntity
  8
図
  6
CONTINUOUS
 62
     6
100
AcDbVertex
100
AcDb2dVertex
 10
586.18508
 20
1012.908846
 30
0.0
  0
VERTEX
  5
255
100
AcDbEntity
  8
図
  6
CONTINUOUS
 62
     6
100
AcDbVertex
100
AcDb2dVertex
 10
585.2949
 20
1012.795556
 30
0.0
  0
VERTEX
  5
256
100
AcDbEntity
  8
図
  6
CONTINUOUS
 62
     6
100
AcDbVertex
100
AcDb2dVertex
 10
584.425306
 20
1012.638156
 30
0.0
  0
VERTEX
  5
257
100
AcDbEntity
  8
図
  6
CONTINUOUS
 62
     6
100
AcDbVertex
100
AcDb2dVertex
 10
583.582918
 20
1012.437846
 30
0.0
  0
VERTEX
  5
258
100
AcDbEntity
  8
図
  6
CONTINUOUS
 62
     6
100
AcDbVertex
100
AcDb2dVertex
 10
582.774148
 20
1012.196152
 30
0.0
  0
VERTEX
  5
259
100
AcDbEntity
  8
図
  6
CONTINUOUS
 62
     6
100
AcDbVertex
100
AcDb2dVertex
 10
582.005148
 20
1011.914912
 30
0.0
  0
VERTEX
  5
25A
100
AcDbEntity
  8
図
  6
CONTINUOUS
 62
     6
100
AcDbVertex
100
AcDb2dVertex
 10
581.281774
 20
1011.596266
 30
0.0
  0
VERTEX
  5
25B
100
AcDbEntity
  8
図
  6
CONTINUOUS
 62
     6
100
AcDbVertex
100
AcDb2dVertex
 10
580.609528
 20
1011.24264
 30
0.0
  0
VERTEX
  5
25C
100
AcDbEntity
  8
図
  6
CONTINUOUS
 62
     6
100
AcDbVertex
100
AcDb2dVertex
 10
579.99353
 20
1010.856726
 30
0.0
  0
VERTEX
  5
25D
100
AcDbEntity
  8
図
  6
CONTINUOUS
 62
     6
100
AcDbVertex
100
AcDb2dVertex
 10
579.438464
 20
1010.441458
 30
0.0
  0
VERTEX
  5
25E
100
AcDbEntity
  8
図
  6
CONTINUOUS
 62
     6
100
AcDbVertex
100
AcDb2dVertex
 10
578.948558
 20
1010.0
 30
0.0
  0
VERTEX
  5
25F
100
AcDbEntity
  8
図
  6
CONTINUOUS
 62
     6
100
AcDbVertex
100
AcDb2dVertex
 10
578.527538
 20
1009.53571
 30
0.0
  0
VERTEX
  5
260
100
AcDbEntity
  8
図
  6
CONTINUOUS
 62
     6
100
AcDbVertex
100
AcDb2dVertex
 10
578.17861
 20
1009.052122
 30
0.0
  0
VERTEX
  5
261
100
AcDbEntity
  8
図
  6
CONTINUOUS
 62
     6
100
AcDbVertex
100
AcDb2dVertex
 10
577.904428
 20
1008.552914
 30
0.0
  0
VERTEX
  5
262
100
AcDbEntity
  8
図
  6
CONTINUOUS
 62
     6
100
AcDbVertex
100
AcDb2dVertex
 10
577.70708
 20
1008.04189
 30
0.0
  0
VERTEX
  5
263
100
AcDbEntity
  8
図
  6
CONTINUOUS
 62
     6
100
AcDbVertex
100
AcDb2dVertex
 10
577.588066
 20
1007.522934
 30
0.0
  0
VERTEX
  5
264
100
AcDbEntity
  8
図
  6
CONTINUOUS
 62
     6
100
AcDbVertex
100
AcDb2dVertex
 10
577.548294
 20
1007.0
 30
0.0
  0
VERTEX
  5
265
100
AcDbEntity
  8
図
  6
CONTINUOUS
 62
     6
100
AcDbVertex
100
AcDb2dVertex
 10
577.588066
 20
1006.477066
 30
0.0
  0
VERTEX
  5
266
100
AcDbEntity
  8
図
  6
CONTINUOUS
 62
     6
100
AcDbVertex
100
AcDb2dVertex
 10
577.70708
 20
1005.958112
 30
0.0
  0
VERTEX
  5
267
100
AcDbEntity
  8
図
  6
CONTINUOUS
 62
     6
100
AcDbVertex
100
AcDb2dVertex
 10
577.904428
 20
1005.447086
 30
0.0
  0
VERTEX
  5
268
100
AcDbEntity
  8
図
  6
CONTINUOUS
 62
     6
100
AcDbVertex
100
AcDb2dVertex
 10
578.17861
 20
1004.94788
 30
0.0
  0
VERTEX
  5
269
100
AcDbEntity
  8
図
  6
CONTINUOUS
 62
     6
100
AcDbVertex
100
AcDb2dVertex
 10
578.527538
 20
1004.46429
 30
0.0
  0
VERTEX
  5
26A
100
AcDbEntity
  8
図
  6
CONTINUOUS
 62
     6
100
AcDbVertex
100
AcDb2dVertex
 10
578.948558
 20
1004.0
 30
0.0
  0
VERTEX
  5
26B
100
AcDbEntity
  8
図
  6
CONTINUOUS
 62
     6
100
AcDbVertex
100
AcDb2dVertex
 10
579.438464
 20
1003.558542
 30
0.0
  0
VERTEX
  5
26C
100
AcDbEntity
  8
図
  6
CONTINUOUS
 62
     6
100
AcDbVertex
100
AcDb2dVertex
 10
579.99353
 20
1003.143274
 30
0.0
  0
VERTEX
  5
26D
100
AcDbEntity
  8
図
  6
CONTINUOUS
 62
     6
100
AcDbVertex
100
AcDb2dVertex
 10
580.609528
 20
1002.75736
 30
0.0
  0
VERTEX
  5
26E
100
AcDbEntity
  8
図
  6
CONTINUOUS
 62
     6
100
AcDbVertex
100
AcDb2dVertex
 10
581.281774
 20
1002.403734
 30
0.0
  0
VERTEX
  5
26F
100
AcDbEntity
  8
図
  6
CONTINUOUS
 62
     6
100
AcDbVertex
100
AcDb2dVertex
 10
582.005148
 20
1002.085088
 30
0.0
  0
VERTEX
  5
270
100
AcDbEntity
  8
図
  6
CONTINUOUS
 62
     6
100
AcDbVertex
100
AcDb2dVertex
 10
582.774148
 20
1001.803848
 30
0.0
  0
VERTEX
  5
271
100
AcDbEntity
  8
図
  6
CONTINUOUS
 62
     6
100
AcDbVertex
100
AcDb2dVertex
 10
583.582918
 20
1001.562154
 30
0.0
  0
VERTEX
  5
272
100
AcDbEntity
  8
図
  6
CONTINUOUS
 62
     6
100
AcDbVertex
100
AcDb2dVertex
 10
584.425306
 20
1001.361844
 30
0.0
  0
VERTEX
  5
273
100
AcDbEntity
  8
図
  6
CONTINUOUS
 62
     6
100
AcDbVertex
100
AcDb2dVertex
 10
585.2949
 20
1001.204446
 30
0.0
  0
VERTEX
  5
274
100
AcDbEntity
  8
図
  6
CONTINUOUS
 62
     6
100
AcDbVertex
100
AcDb2dVertex
 10
586.18508
 20
1001.091154
 30
0.0
  0
VERTEX
  5
275
100
AcDbEntity
  8
図
  6
CONTINUOUS
 62
     6
100
AcDbVertex
100
AcDb2dVertex
 10
587.089074
 20
1001.022832
 30
0.0
  0
VERTEX
  5
276
100
AcDbEntity
  8
図
  6
CONTINUOUS
 62
     6
100
AcDbVertex
100
AcDb2dVertex
 10
588.0
 20
1001.0
 30
0.0
  0
VERTEX
  5
277
100
AcDbEntity
  8
図
  6
CONTINUOUS
 62
     6
100
AcDbVertex
100
AcDb2dVertex
 10
588.910926
 20
1001.022832
 30
0.0
  0
VERTEX
  5
278
100
AcDbEntity
  8
図
  6
CONTINUOUS
 62
     6
100
AcDbVertex
100
AcDb2dVertex
 10
589.81492
 20
1001.091154
 30
0.0
  0
VERTEX
  5
279
100
AcDbEntity
  8
図
  6
CONTINUOUS
 62
     6
100
AcDbVertex
100
AcDb2dVertex
 10
590.7051
 20
1001.204446
 30
0.0
  0
VERTEX
  5
27A
100
AcDbEntity
  8
図
  6
CONTINUOUS
 62
     6
100
AcDbVertex
100
AcDb2dVertex
 10
591.574694
 20
1001.361844
 30
0.0
  0
VERTEX
  5
27B
100
AcDbEntity
  8
図
  6
CONTINUOUS
 62
     6
100
AcDbVertex
100
AcDb2dVertex
 10
592.417082
 20
1001.562154
 30
0.0
  0
VERTEX
  5
27C
100
AcDbEntity
  8
図
  6
CONTINUOUS
 62
     6
100
AcDbVertex
100
AcDb2dVertex
 10
593.225854
 20
1001.803848
 30
0.0
  0
VERTEX
  5
27D
100
AcDbEntity
  8
図
  6
CONTINUOUS
 62
     6
100
AcDbVertex
100
AcDb2dVertex
 10
593.994852
 20
1002.085088
 30
0.0
  0
VERTEX
  5
27E
100
AcDbEntity
  8
図
  6
CONTINUOUS
 62
     6
100
AcDbVertex
100
AcDb2dVertex
 10
594.718228
 20
1002.403734
 30
0.0
  0
VERTEX
  5
27F
100
AcDbEntity
  8
図
  6
CONTINUOUS
 62
     6
100
AcDbVertex
100
AcDb2dVertex
 10
595.390472
 20
1002.75736
 30
0.0
  0
VERTEX
  5
280
100
AcDbEntity
  8
図
  6
CONTINUOUS
 62
     6
100
AcDbVertex
100
AcDb2dVertex
 10
596.006472
 20
1003.143274
 30
0.0
  0
VERTEX
  5
281
100
AcDbEntity
  8
図
  6
CONTINUOUS
 62
     6
100
AcDbVertex
100
AcDb2dVertex
 10
596.561536
 20
1003.558542
 30
0.0
  0
VERTEX
  5
282
100
AcDbEntity
  8
図
  6
CONTINUOUS
 62
     6
100
AcDbVertex
100
AcDb2dVertex
 10
597.051444
 20
1004.0
 30
0.0
  0
VERTEX
  5
283
100
AcDbEntity
  8
図
  6
CONTINUOUS
 62
     6
100
AcDbVertex
100
AcDb2dVertex
 10
597.472462
 20
1004.46429
 30
0.0
  0
VERTEX
  5
284
100
AcDbEntity
  8
図
  6
CONTINUOUS
 62
     6
100
AcDbVertex
100
AcDb2dVertex
 10
597.821392
 20
1004.94788
 30
0.0
  0
VERTEX
  5
285
100
AcDbEntity
  8
図
  6
CONTINUOUS
 62
     6
100
AcDbVertex
100
AcDb2dVertex
 10
598.095572
 20
1005.447086
 30
0.0
  0
VERTEX
  5
286
100
AcDbEntity
  8
図
  6
CONTINUOUS
 62
     6
100
AcDbVertex
100
AcDb2dVertex
 10
598.292922
 20
1005.958112
 30
0.0
  0
VERTEX
  5
287
100
AcDbEntity
  8
図
  6
CONTINUOUS
 62
     6
100
AcDbVertex
100
AcDb2dVertex
 10
598.411934
 20
1006.477066
 30
0.0
  0
VERTEX
  5
288
100
AcDbEntity
  8
図
  6
CONTINUOUS
 62
     6
100
AcDbVertex
100
AcDb2dVertex
 10
598.451706
 20
1007.0
 30
0.0
  0
SEQEND
  5
289
100
AcDbEntity
  8
図
  6
CONTINUOUS
 62
     6
  0
POLYLINE
  5
28A
100
AcDbEntity
  8
図
  6
CONTINUOUS
 62
     6
100
AcDb2dPolyline
 66
     1
 10
0.0
 20
0.0
 30
0.0
 70
   128
  0
VERTEX
  5
28B
100
AcDbEntity
  8
図
  6
CONTINUOUS
 62
     6
100
AcDbVertex
100
AcDb2dVertex
 10
608.17756
 20
1001.0
 30
0.0
  0
VERTEX
  5
28C
100
AcDbEntity
  8
図
  6
CONTINUOUS
 62
     6
100
AcDbVertex
100
AcDb2dVertex
 10
608.633022
 20
1001.022832
 30
0.0
  0
VERTEX
  5
28D
100
AcDbEntity
  8
図
  6
CONTINUOUS
 62
     6
100
AcDbVertex
100
AcDb2dVertex
 10
609.08502
 20
1001.091154
 30
0.0
  0
VERTEX
  5
28E
100
AcDbEntity
  8
図
  6
CONTINUOUS
 62
     6
100
AcDbVertex
100
AcDb2dVertex
 10
609.53011
 20
1001.204446
 30
0.0
  0
VERTEX
  5
28F
100
AcDbEntity
  8
図
  6
CONTINUOUS
 62
     6
100
AcDbVertex
100
AcDb2dVertex
 10
609.964906
 20
1001.361844
 30
0.0
  0
VERTEX
  5
290
100
AcDbEntity
  8
図
  6
CONTINUOUS
 62
     6
100
AcDbVertex
100
AcDb2dVertex
 10
610.3861
 20
1001.562154
 30
0.0
  0
VERTEX
  5
291
100
AcDbEntity
  8
図
  6
CONTINUOUS
 62
     6
100
AcDbVertex
100
AcDb2dVertex
 10
610.790486
 20
1001.803848
 30
0.0
  0
VERTEX
  5
292
100
AcDbEntity
  8
図
  6
CONTINUOUS
 62
     6
100
AcDbVertex
100
AcDb2dVertex
 10
611.174986
 20
1002.085088
 30
0.0
  0
VERTEX
  5
293
100
AcDbEntity
  8
図
  6
CONTINUOUS
 62
     6
100
AcDbVertex
100
AcDb2dVertex
 10
611.536672
 20
1002.403734
 30
0.0
  0
VERTEX
  5
294
100
AcDbEntity
  8
図
  6
CONTINUOUS
 62
     6
100
AcDbVertex
100
AcDb2dVertex
 10
611.872796
 20
1002.75736
 30
0.0
  0
VERTEX
  5
295
100
AcDbEntity
  8
図
  6
CONTINUOUS
 62
     6
100
AcDbVertex
100
AcDb2dVertex
 10
612.180794
 20
1003.143274
 30
0.0
  0
VERTEX
  5
296
100
AcDbEntity
  8
図
  6
CONTINUOUS
 62
     6
100
AcDbVertex
100
AcDb2dVertex
 10
612.458328
 20
1003.558542
 30
0.0
  0
VERTEX
  5
297
100
AcDbEntity
  8
図
  6
CONTINUOUS
 62
     6
100
AcDbVertex
100
AcDb2dVertex
 10
612.70328
 20
1004.0
 30
0.0
  0
VERTEX
  5
298
100
AcDbEntity
  8
図
  6
CONTINUOUS
 62
     6
100
AcDbVertex
100
AcDb2dVertex
 10
612.91379
 20
1004.46429
 30
0.0
  0
VERTEX
  5
299
100
AcDbEntity
  8
図
  6
CONTINUOUS
 62
     6
100
AcDbVertex
100
AcDb2dVertex
 10
613.088254
 20
1004.94788
 30
0.0
  0
VERTEX
  5
29A
100
AcDbEntity
  8
図
  6
CONTINUOUS
 62
     6
100
AcDbVertex
100
AcDb2dVertex
 10
613.225346
 20
1005.447086
 30
0.0
  0
VERTEX
  5
29B
100
AcDbEntity
  8
図
  6
CONTINUOUS
 62
     6
100
AcDbVertex
100
AcDb2dVertex
 10
613.32402
 20
1005.958112
 30
0.0
  0
VERTEX
  5
29C
100
AcDbEntity
  8
図
  6
CONTINUOUS
 62
     6
100
AcDbVertex
100
AcDb2dVertex
 10
613.383526
 20
1006.477066
 30
0.0
  0
VERTEX
  5
29D
100
AcDbEntity
  8
図
  6
CONTINUOUS
 62
     6
100
AcDbVertex
100
AcDb2dVertex
 10
613.403412
 20
1007.0
 30
0.0
  0
VERTEX
  5
29E
100
AcDbEntity
  8
図
  6
CONTINUOUS
 62
     6
100
AcDbVertex
100
AcDb2dVertex
 10
613.383526
 20
1007.522934
 30
0.0
  0
VERTEX
  5
29F
100
AcDbEntity
  8
図
  6
CONTINUOUS
 62
     6
100
AcDbVertex
100
AcDb2dVertex
 10
613.32402
 20
1008.04189
 30
0.0
  0
VERTEX
  5
2A0
100
AcDbEntity
  8
図
  6
CONTINUOUS
 62
     6
100
AcDbVertex
100
AcDb2dVertex
 10
613.225346
 20
1008.552914
 30
0.0
  0
VERTEX
  5
2A1
100
AcDbEntity
  8
図
  6
CONTINUOUS
 62
     6
100
AcDbVertex
100
AcDb2dVertex
 10
613.088254
 20
1009.052122
 30
0.0
  0
VERTEX
  5
2A2
100
AcDbEntity
  8
図
  6
CONTINUOUS
 62
     6
100
AcDbVertex
100
AcDb2dVertex
 10
612.91379
 20
1009.53571
 30
0.0
  0
VERTEX
  5
2A3
100
AcDbEntity
  8
図
  6
CONTINUOUS
 62
     6
100
AcDbVertex
100
AcDb2dVertex
 10
612.70328
 20
1010.0
 30
0.0
  0
VERTEX
  5
2A4
100
AcDbEntity
  8
図
  6
CONTINUOUS
 62
     6
100
AcDbVertex
100
AcDb2dVertex
 10
612.458328
 20
1010.441458
 30
0.0
  0
VERTEX
  5
2A5
100
AcDbEntity
  8
図
  6
CONTINUOUS
 62
     6
100
AcDbVertex
100
AcDb2dVertex
 10
612.180794
 20
1010.856726
 30
0.0
  0
VERTEX
  5
2A6
100
AcDbEntity
  8
図
  6
CONTINUOUS
 62
     6
100
AcDbVertex
100
AcDb2dVertex
 10
611.872796
 20
1011.24264
 30
0.0
  0
VERTEX
  5
2A7
100
AcDbEntity
  8
図
  6
CONTINUOUS
 62
     6
100
AcDbVertex
100
AcDb2dVertex
 10
611.536672
 20
1011.596266
 30
0.0
  0
VERTEX
  5
2A8
100
AcDbEntity
  8
図
  6
CONTINUOUS
 62
     6
100
AcDbVertex
100
AcDb2dVertex
 10
611.174986
 20
1011.914912
 30
0.0
  0
VERTEX
  5
2A9
100
AcDbEntity
  8
図
  6
CONTINUOUS
 62
     6
100
AcDbVertex
100
AcDb2dVertex
 10
610.790486
 20
1012.196152
 30
0.0
  0
VERTEX
  5
2AA
100
AcDbEntity
  8
図
  6
CONTINUOUS
 62
     6
100
AcDbVertex
100
AcDb2dVertex
 10
610.3861
 20
1012.437846
 30
0.0
  0
VERTEX
  5
2AB
100
AcDbEntity
  8
図
  6
CONTINUOUS
 62
     6
100
AcDbVertex
100
AcDb2dVertex
 10
609.964906
 20
1012.638156
 30
0.0
  0
VERTEX
  5
2AC
100
AcDbEntity
  8
図
  6
CONTINUOUS
 62
     6
100
AcDbVertex
100
AcDb2dVertex
 10
609.53011
 20
1012.795556
 30
0.0
  0
VERTEX
  5
2AD
100
AcDbEntity
  8
図
  6
CONTINUOUS
 62
     6
100
AcDbVertex
100
AcDb2dVertex
 10
609.08502
 20
1012.908846
 30
0.0
  0
VERTEX
  5
2AE
100
AcDbEntity
  8
図
  6
CONTINUOUS
 62
     6
100
AcDbVertex
100
AcDb2dVertex
 10
608.633022
 20
1012.977168
 30
0.0
  0
VERTEX
  5
2AF
100
AcDbEntity
  8
図
  6
CONTINUOUS
 62
     6
100
AcDbVertex
100
AcDb2dVertex
 10
608.17756
 20
1013.0
 30
0.0
  0
VERTEX
  5
2B0
100
AcDbEntity
  8
図
  6
CONTINUOUS
 62
     6
100
AcDbVertex
100
AcDb2dVertex
 10
607.722096
 20
1012.977168
 30
0.0
  0
VERTEX
  5
2B1
100
AcDbEntity
  8
図
  6
CONTINUOUS
 62
     6
100
AcDbVertex
100
AcDb2dVertex
 10
607.2701
 20
1012.908846
 30
0.0
  0
VERTEX
  5
2B2
100
AcDbEntity
  8
図
  6
CONTINUOUS
 62
     6
100
AcDbVertex
100
AcDb2dVertex
 10
606.825008
 20
1012.795556
 30
0.0
  0
VERTEX
  5
2B3
100
AcDbEntity
  8
図
  6
CONTINUOUS
 62
     6
100
AcDbVertex
100
AcDb2dVertex
 10
606.390212
 20
1012.638156
 30
0.0
  0
VERTEX
  5
2B4
100
AcDbEntity
  8
図
  6
CONTINUOUS
 62
     6
100
AcDbVertex
100
AcDb2dVertex
 10
605.969018
 20
1012.437846
 30
0.0
  0
VERTEX
  5
2B5
100
AcDbEntity
  8
図
  6
CONTINUOUS
 62
     6
100
AcDbVertex
100
AcDb2dVertex
 10
605.564632
 20
1012.196152
 30
0.0
  0
VERTEX
  5
2B6
100
AcDbEntity
  8
図
  6
CONTINUOUS
 62
     6
100
AcDbVertex
100
AcDb2dVertex
 10
605.180134
 20
1011.914912
 30
0.0
  0
VERTEX
  5
2B7
100
AcDbEntity
  8
図
  6
CONTINUOUS
 62
     6
100
AcDbVertex
100
AcDb2dVertex
 10
604.818446
 20
1011.596266
 30
0.0
  0
VERTEX
  5
2B8
100
AcDbEntity
  8
図
  6
CONTINUOUS
 62
     6
100
AcDbVertex
100
AcDb2dVertex
 10
604.482324
 20
1011.24264
 30
0.0
  0
VERTEX
  5
2B9
100
AcDbEntity
  8
図
  6
CONTINUOUS
 62
     6
100
AcDbVertex
100
AcDb2dVertex
 10
604.174324
 20
1010.856726
 30
0.0
  0
VERTEX
  5
2BA
100
AcDbEntity
  8
図
  6
CONTINUOUS
 62
     6
100
AcDbVertex
100
AcDb2dVertex
 10
603.896792
 20
1010.441458
 30
0.0
  0
VERTEX
  5
2BB
100
AcDbEntity
  8
図
  6
CONTINUOUS
 62
     6
100
AcDbVertex
100
AcDb2dVertex
 10
603.651838
 20
1010.0
 30
0.0
  0
VERTEX
  5
2BC
100
AcDbEntity
  8
図
  6
CONTINUOUS
 62
     6
100
AcDbVertex
100
AcDb2dVertex
 10
603.441328
 20
1009.53571
 30
0.0
  0
VERTEX
  5
2BD
100
AcDbEntity
  8
図
  6
CONTINUOUS
 62
     6
100
AcDbVertex
100
AcDb2dVertex
 10
603.266864
 20
1009.052122
 30
0.0
  0
VERTEX
  5
2BE
100
AcDbEntity
  8
図
  6
CONTINUOUS
 62
     6
100
AcDbVertex
100
AcDb2dVertex
 10
603.129772
 20
1008.552914
 30
0.0
  0
VERTEX
  5
2BF
100
AcDbEntity
  8
図
  6
CONTINUOUS
 62
     6
100
AcDbVertex
100
AcDb2dVertex
 10
603.031098
 20
1008.04189
 30
0.0
  0
VERTEX
  5
2C0
100
AcDbEntity
  8
図
  6
CONTINUOUS
 62
     6
100
AcDbVertex
100
AcDb2dVertex
 10
602.971592
 20
1007.522934
 30
0.0
  0
VERTEX
  5
2C1
100
AcDbEntity
  8
図
  6
CONTINUOUS
 62
     6
100
AcDbVertex
100
AcDb2dVertex
 10
602.951706
 20
1007.0
 30
0.0
  0
VERTEX
  5
2C2
100
AcDbEntity
  8
図
  6
CONTINUOUS
 62
     6
100
AcDbVertex
100
AcDb2dVertex
 10
602.971592
 20
1006.477066
 30
0.0
  0
VERTEX
  5
2C3
100
AcDbEntity
  8
図
  6
CONTINUOUS
 62
     6
100
AcDbVertex
100
AcDb2dVertex
 10
603.031098
 20
1005.958112
 30
0.0
  0
VERTEX
  5
2C4
100
AcDbEntity
  8
図
  6
CONTINUOUS
 62
     6
100
AcDbVertex
100
AcDb2dVertex
 10
603.129772
 20
1005.447086
 30
0.0
  0
VERTEX
  5
2C5
100
AcDbEntity
  8
図
  6
CONTINUOUS
 62
     6
100
AcDbVertex
100
AcDb2dVertex
 10
603.266864
 20
1004.94788
 30
0.0
  0
VERTEX
  5
2C6
100
AcDbEntity
  8
図
  6
CONTINUOUS
 62
     6
100
AcDbVertex
100
AcDb2dVertex
 10
603.441328
 20
1004.46429
 30
0.0
  0
VERTEX
  5
2C7
100
AcDbEntity
  8
図
  6
CONTINUOUS
 62
     6
100
AcDbVertex
100
AcDb2dVertex
 10
603.651838
 20
1004.0
 30
0.0
  0
VERTEX
  5
2C8
100
AcDbEntity
  8
図
  6
CONTINUOUS
 62
     6
100
AcDbVertex
100
AcDb2dVertex
 10
603.896792
 20
1003.558542
 30
0.0
  0
VERTEX
  5
2C9
100
AcDbEntity
  8
図
  6
CONTINUOUS
 62
     6
100
AcDbVertex
100
AcDb2dVertex
 10
604.174324
 20
1003.143274
 30
0.0
  0
VERTEX
  5
2CA
100
AcDbEntity
  8
図
  6
CONTINUOUS
 62
     6
100
AcDbVertex
100
AcDb2dVertex
 10
604.482324
 20
1002.75736
 30
0.0
  0
VERTEX
  5
2CB
100
AcDbEntity
  8
図
  6
CONTINUOUS
 62
     6
100
AcDbVertex
100
AcDb2dVertex
 10
604.818446
 20
1002.403734
 30
0.0
  0
VERTEX
  5
2CC
100
AcDbEntity
  8
図
  6
CONTINUOUS
 62
     6
100
AcDbVertex
100
AcDb2dVertex
 10
605.180134
 20
1002.085088
 30
0.0
  0
VERTEX
  5
2CD
100
AcDbEntity
  8
図
  6
CONTINUOUS
 62
     6
100
AcDbVertex
100
AcDb2dVertex
 10
605.564632
 20
1001.803848
 30
0.0
  0
VERTEX
  5
2CE
100
AcDbEntity
  8
図
  6
CONTINUOUS
 62
     6
100
AcDbVertex
100
AcDb2dVertex
 10
605.969018
 20
1001.562154
 30
0.0
  0
VERTEX
  5
2CF
100
AcDbEntity
  8
図
  6
CONTINUOUS
 62
     6
100
AcDbVertex
100
AcDb2dVertex
 10
606.390212
 20
1001.361844
 30
0.0
  0
VERTEX
  5
2D0
100
AcDbEntity
  8
図
  6
CONTINUOUS
 62
     6
100
AcDbVertex
100
AcDb2dVertex
 10
606.825008
 20
1001.204446
 30
0.0
  0
VERTEX
  5
2D1
100
AcDbEntity
  8
図
  6
CONTINUOUS
 62
     6
100
AcDbVertex
100
AcDb2dVertex
 10
607.2701
 20
1001.091154
 30
0.0
  0
VERTEX
  5
2D2
100
AcDbEntity
  8
図
  6
CONTINUOUS
 62
     6
100
AcDbVertex
100
AcDb2dVertex
 10
607.722096
 20
1001.022832
 30
0.0
  0
VERTEX
  5
2D3
100
AcDbEntity
  8
図
  6
CONTINUOUS
 62
     6
100
AcDbVertex
100
AcDb2dVertex
 10
608.17756
 20
1001.0
 30
0.0
  0
SEQEND
  5
2D4
100
AcDbEntity
  8
図
  6
CONTINUOUS
 62
     6
  0
POLYLINE
  5
2D5
100
AcDbEntity
  8
図
  6
CONTINUOUS
 62
     6
100
AcDb2dPolyline
 66
     1
 10
0.0
 20
0.0
 30
0.0
 70
   128
  0
VERTEX
  5
2D6
100
AcDbEntity
  8
図
  6
CONTINUOUS
 62
     6
100
AcDbVertex
100
AcDb2dVertex
 10
567.822442
 20
1001.0
 30
0.0
  0
VERTEX
  5
2D7
100
AcDbEntity
  8
図
  6
CONTINUOUS
 62
     6
100
AcDbVertex
100
AcDb2dVertex
 10
568.277904
 20
1001.022832
 30
0.0
  0
VERTEX
  5
2D8
100
AcDbEntity
  8
図
  6
CONTINUOUS
 62
     6
100
AcDbVertex
100
AcDb2dVertex
 10
568.729902
 20
1001.091154
 30
0.0
  0
VERTEX
  5
2D9
100
AcDbEntity
  8
図
  6
CONTINUOUS
 62
     6
100
AcDbVertex
100
AcDb2dVertex
 10
569.174992
 20
1001.204446
 30
0.0
  0
VERTEX
  5
2DA
100
AcDbEntity
  8
図
  6
CONTINUOUS
 62
     6
100
AcDbVertex
100
AcDb2dVertex
 10
569.609788
 20
1001.361844
 30
0.0
  0
VERTEX
  5
2DB
100
AcDbEntity
  8
図
  6
CONTINUOUS
 62
     6
100
AcDbVertex
100
AcDb2dVertex
 10
570.030982
 20
1001.562154
 30
0.0
  0
VERTEX
  5
2DC
100
AcDbEntity
  8
図
  6
CONTINUOUS
 62
     6
100
AcDbVertex
100
AcDb2dVertex
 10
570.435368
 20
1001.803848
 30
0.0
  0
VERTEX
  5
2DD
100
AcDbEntity
  8
図
  6
CONTINUOUS
 62
     6
100
AcDbVertex
100
AcDb2dVertex
 10
570.819868
 20
1002.085088
 30
0.0
  0
VERTEX
  5
2DE
100
AcDbEntity
  8
図
  6
CONTINUOUS
 62
     6
100
AcDbVertex
100
AcDb2dVertex
 10
571.181554
 20
1002.403734
 30
0.0
  0
VERTEX
  5
2DF
100
AcDbEntity
  8
図
  6
CONTINUOUS
 62
     6
100
AcDbVertex
100
AcDb2dVertex
 10
571.517678
 20
1002.75736
 30
0.0
  0
VERTEX
  5
2E0
100
AcDbEntity
  8
図
  6
CONTINUOUS
 62
     6
100
AcDbVertex
100
AcDb2dVertex
 10
571.825678
 20
1003.143274
 30
0.0
  0
VERTEX
  5
2E1
100
AcDbEntity
  8
図
  6
CONTINUOUS
 62
     6
100
AcDbVertex
100
AcDb2dVertex
 10
572.10321
 20
1003.558542
 30
0.0
  0
VERTEX
  5
2E2
100
AcDbEntity
  8
図
  6
CONTINUOUS
 62
     6
100
AcDbVertex
100
AcDb2dVertex
 10
572.348162
 20
1004.0
 30
0.0
  0
VERTEX
  5
2E3
100
AcDbEntity
  8
図
  6
CONTINUOUS
 62
     6
100
AcDbVertex
100
AcDb2dVertex
 10
572.558672
 20
1004.46429
 30
0.0
  0
VERTEX
  5
2E4
100
AcDbEntity
  8
図
  6
CONTINUOUS
 62
     6
100
AcDbVertex
100
AcDb2dVertex
 10
572.733136
 20
1004.94788
 30
0.0
  0
VERTEX
  5
2E5
100
AcDbEntity
  8
図
  6
CONTINUOUS
 62
     6
100
AcDbVertex
100
AcDb2dVertex
 10
572.870228
 20
1005.447086
 30
0.0
  0
VERTEX
  5
2E6
100
AcDbEntity
  8
図
  6
CONTINUOUS
 62
     6
100
AcDbVertex
100
AcDb2dVertex
 10
572.968902
 20
1005.958112
 30
0.0
  0
VERTEX
  5
2E7
100
AcDbEntity
  8
図
  6
CONTINUOUS
 62
     6
100
AcDbVertex
100
AcDb2dVertex
 10
573.028408
 20
1006.477066
 30
0.0
  0
VERTEX
  5
2E8
100
AcDbEntity
  8
図
  6
CONTINUOUS
 62
     6
100
AcDbVertex
100
AcDb2dVertex
 10
573.048294
 20
1007.0
 30
0.0
  0
VERTEX
  5
2E9
100
AcDbEntity
  8
図
  6
CONTINUOUS
 62
     6
100
AcDbVertex
100
AcDb2dVertex
 10
573.028408
 20
1007.522934
 30
0.0
  0
VERTEX
  5
2EA
100
AcDbEntity
  8
図
  6
CONTINUOUS
 62
     6
100
AcDbVertex
100
AcDb2dVertex
 10
572.968902
 20
1008.04189
 30
0.0
  0
VERTEX
  5
2EB
100
AcDbEntity
  8
図
  6
CONTINUOUS
 62
     6
100
AcDbVertex
100
AcDb2dVertex
 10
572.870228
 20
1008.552914
 30
0.0
  0
VERTEX
  5
2EC
100
AcDbEntity
  8
図
  6
CONTINUOUS
 62
     6
100
AcDbVertex
100
AcDb2dVertex
 10
572.733136
 20
1009.052122
 30
0.0
  0
VERTEX
  5
2ED
100
AcDbEntity
  8
図
  6
CONTINUOUS
 62
     6
100
AcDbVertex
100
AcDb2dVertex
 10
572.558672
 20
1009.53571
 30
0.0
  0
VERTEX
  5
2EE
100
AcDbEntity
  8
図
  6
CONTINUOUS
 62
     6
100
AcDbVertex
100
AcDb2dVertex
 10
572.348162
 20
1010.0
 30
0.0
  0
VERTEX
  5
2EF
100
AcDbEntity
  8
図
  6
CONTINUOUS
 62
     6
100
AcDbVertex
100
AcDb2dVertex
 10
572.10321
 20
1010.441458
 30
0.0
  0
VERTEX
  5
2F0
100
AcDbEntity
  8
図
  6
CONTINUOUS
 62
     6
100
AcDbVertex
100
AcDb2dVertex
 10
571.825678
 20
1010.856726
 30
0.0
  0
VERTEX
  5
2F1
100
AcDbEntity
  8
図
  6
CONTINUOUS
 62
     6
100
AcDbVertex
100
AcDb2dVertex
 10
571.517678
 20
1011.24264
 30
0.0
  0
VERTEX
  5
2F2
100
AcDbEntity
  8
図
  6
CONTINUOUS
 62
     6
100
AcDbVertex
100
AcDb2dVertex
 10
571.181554
 20
1011.596266
 30
0.0
  0
VERTEX
  5
2F3
100
AcDbEntity
  8
図
  6
CONTINUOUS
 62
     6
100
AcDbVertex
100
AcDb2dVertex
 10
570.819868
 20
1011.914912
 30
0.0
  0
VERTEX
  5
2F4
100
AcDbEntity
  8
図
  6
CONTINUOUS
 62
     6
100
AcDbVertex
100
AcDb2dVertex
 10
570.435368
 20
1012.196152
 30
0.0
  0
VERTEX
  5
2F5
100
AcDbEntity
  8
図
  6
CONTINUOUS
 62
     6
100
AcDbVertex
100
AcDb2dVertex
 10
570.030982
 20
1012.437846
 30
0.0
  0
VERTEX
  5
2F6
100
AcDbEntity
  8
図
  6
CONTINUOUS
 62
     6
100
AcDbVertex
100
AcDb2dVertex
 10
569.609788
 20
1012.638156
 30
0.0
  0
VERTEX
  5
2F7
100
AcDbEntity
  8
図
  6
CONTINUOUS
 62
     6
100
AcDbVertex
100
AcDb2dVertex
 10
569.174992
 20
1012.795556
 30
0.0
  0
VERTEX
  5
2F8
100
AcDbEntity
  8
図
  6
CONTINUOUS
 62
     6
100
AcDbVertex
100
AcDb2dVertex
 10
568.729902
 20
1012.908846
 30
0.0
  0
VERTEX
  5
2F9
100
AcDbEntity
  8
図
  6
CONTINUOUS
 62
     6
100
AcDbVertex
100
AcDb2dVertex
 10
568.277904
 20
1012.977168
 30
0.0
  0
VERTEX
  5
2FA
100
AcDbEntity
  8
図
  6
CONTINUOUS
 62
     6
100
AcDbVertex
100
AcDb2dVertex
 10
567.822442
 20
1013.0
 30
0.0
  0
VERTEX
  5
2FB
100
AcDbEntity
  8
図
  6
CONTINUOUS
 62
     6
100
AcDbVertex
100
AcDb2dVertex
 10
567.366978
 20
1012.977168
 30
0.0
  0
VERTEX
  5
2FC
100
AcDbEntity
  8
図
  6
CONTINUOUS
 62
     6
100
AcDbVertex
100
AcDb2dVertex
 10
566.914982
 20
1012.908846
 30
0.0
  0
VERTEX
  5
2FD
100
AcDbEntity
  8
図
  6
CONTINUOUS
 62
     6
100
AcDbVertex
100
AcDb2dVertex
 10
566.469892
 20
1012.795556
 30
0.0
  0
VERTEX
  5
2FE
100
AcDbEntity
  8
図
  6
CONTINUOUS
 62
     6
100
AcDbVertex
100
AcDb2dVertex
 10
566.035094
 20
1012.638156
 30
0.0
  0
VERTEX
  5
2FF
100
AcDbEntity
  8
図
  6
CONTINUOUS
 62
     6
100
AcDbVertex
100
AcDb2dVertex
 10
565.6139
 20
1012.437846
 30
0.0
  0
VERTEX
  5
300
100
AcDbEntity
  8
図
  6
CONTINUOUS
 62
     6
100
AcDbVertex
100
AcDb2dVertex
 10
565.209514
 20
1012.196152
 30
0.0
  0
VERTEX
  5
301
100
AcDbEntity
  8
図
  6
CONTINUOUS
 62
     6
100
AcDbVertex
100
AcDb2dVertex
 10
564.825016
 20
1011.914912
 30
0.0
  0
VERTEX
  5
302
100
AcDbEntity
  8
図
  6
CONTINUOUS
 62
     6
100
AcDbVertex
100
AcDb2dVertex
 10
564.463328
 20
1011.596266
 30
0.0
  0
VERTEX
  5
303
100
AcDbEntity
  8
図
  6
CONTINUOUS
 62
     6
100
AcDbVertex
100
AcDb2dVertex
 10
564.127206
 20
1011.24264
 30
0.0
  0
VERTEX
  5
304
100
AcDbEntity
  8
図
  6
CONTINUOUS
 62
     6
100
AcDbVertex
100
AcDb2dVertex
 10
563.819206
 20
1010.856726
 30
0.0
  0
VERTEX
  5
305
100
AcDbEntity
  8
図
  6
CONTINUOUS
 62
     6
100
AcDbVertex
100
AcDb2dVertex
 10
563.541674
 20
1010.441458
 30
0.0
  0
VERTEX
  5
306
100
AcDbEntity
  8
図
  6
CONTINUOUS
 62
     6
100
AcDbVertex
100
AcDb2dVertex
 10
563.29672
 20
1010.0
 30
0.0
  0
VERTEX
  5
307
100
AcDbEntity
  8
図
  6
CONTINUOUS
 62
     6
100
AcDbVertex
100
AcDb2dVertex
 10
563.08621
 20
1009.53571
 30
0.0
  0
VERTEX
  5
308
100
AcDbEntity
  8
図
  6
CONTINUOUS
 62
     6
100
AcDbVertex
100
AcDb2dVertex
 10
562.911746
 20
1009.052122
 30
0.0
  0
VERTEX
  5
309
100
AcDbEntity
  8
図
  6
CONTINUOUS
 62
     6
100
AcDbVertex
100
AcDb2dVertex
 10
562.774656
 20
1008.552914
 30
0.0
  0
VERTEX
  5
30A
100
AcDbEntity
  8
図
  6
CONTINUOUS
 62
     6
100
AcDbVertex
100
AcDb2dVertex
 10
562.67598
 20
1008.04189
 30
0.0
  0
VERTEX
  5
30B
100
AcDbEntity
  8
図
  6
CONTINUOUS
 62
     6
100
AcDbVertex
100
AcDb2dVertex
 10
562.616474
 20
1007.522934
 30
0.0
  0
VERTEX
  5
30C
100
AcDbEntity
  8
図
  6
CONTINUOUS
 62
     6
100
AcDbVertex
100
AcDb2dVertex
 10
562.596588
 20
1007.0
 30
0.0
  0
VERTEX
  5
30D
100
AcDbEntity
  8
図
  6
CONTINUOUS
 62
     6
100
AcDbVertex
100
AcDb2dVertex
 10
562.616474
 20
1006.477066
 30
0.0
  0
VERTEX
  5
30E
100
AcDbEntity
  8
図
  6
CONTINUOUS
 62
     6
100
AcDbVertex
100
AcDb2dVertex
 10
562.67598
 20
1005.958112
 30
0.0
  0
VERTEX
  5
30F
100
AcDbEntity
  8
図
  6
CONTINUOUS
 62
     6
100
AcDbVertex
100
AcDb2dVertex
 10
562.774656
 20
1005.447086
 30
0.0
  0
VERTEX
  5
310
100
AcDbEntity
  8
図
  6
CONTINUOUS
 62
     6
100
AcDbVertex
100
AcDb2dVertex
 10
562.911746
 20
1004.94788
 30
0.0
  0
VERTEX
  5
311
100
AcDbEntity
  8
図
  6
CONTINUOUS
 62
     6
100
AcDbVertex
100
AcDb2dVertex
 10
563.08621
 20
1004.46429
 30
0.0
  0
VERTEX
  5
312
100
AcDbEntity
  8
図
  6
CONTINUOUS
 62
     6
100
AcDbVertex
100
AcDb2dVertex
 10
563.29672
 20
1004.0
 30
0.0
  0
VERTEX
  5
313
100
AcDbEntity
  8
図
  6
CONTINUOUS
 62
     6
100
AcDbVertex
100
AcDb2dVertex
 10
563.541674
 20
1003.558542
 30
0.0
  0
VERTEX
  5
314
100
AcDbEntity
  8
図
  6
CONTINUOUS
 62
     6
100
AcDbVertex
100
AcDb2dVertex
 10
563.819206
 20
1003.143274
 30
0.0
  0
VERTEX
  5
315
100
AcDbEntity
  8
図
  6
CONTINUOUS
 62
     6
100
AcDbVertex
100
AcDb2dVertex
 10
564.127206
 20
1002.75736
 30
0.0
  0
VERTEX
  5
316
100
AcDbEntity
  8
図
  6
CONTINUOUS
 62
     6
100
AcDbVertex
100
AcDb2dVertex
 10
564.463328
 20
1002.403734
 30
0.0
  0
VERTEX
  5
317
100
AcDbEntity
  8
図
  6
CONTINUOUS
 62
     6
100
AcDbVertex
100
AcDb2dVertex
 10
564.825016
 20
1002.085088
 30
0.0
  0
VERTEX
  5
318
100
AcDbEntity
  8
図
  6
CONTINUOUS
 62
     6
100
AcDbVertex
100
AcDb2dVertex
 10
565.209514
 20
1001.803848
 30
0.0
  0
VERTEX
  5
319
100
AcDbEntity
  8
図
  6
CONTINUOUS
 62
     6
100
AcDbVertex
100
AcDb2dVertex
 10
565.6139
 20
1001.562154
 30
0.0
  0
VERTEX
  5
31A
100
AcDbEntity
  8
図
  6
CONTINUOUS
 62
     6
100
AcDbVertex
100
AcDb2dVertex
 10
566.035094
 20
1001.361844
 30
0.0
  0
VERTEX
  5
31B
100
AcDbEntity
  8
図
  6
CONTINUOUS
 62
     6
100
AcDbVertex
100
AcDb2dVertex
 10
566.469892
 20
1001.204446
 30
0.0
  0
VERTEX
  5
31C
100
AcDbEntity
  8
図
  6
CONTINUOUS
 62
     6
100
AcDbVertex
100
AcDb2dVertex
 10
566.914982
 20
1001.091154
 30
0.0
  0
VERTEX
  5
31D
100
AcDbEntity
  8
図
  6
CONTINUOUS
 62
     6
100
AcDbVertex
100
AcDb2dVertex
 10
567.366978
 20
1001.022832
 30
0.0
  0
VERTEX
  5
31E
100
AcDbEntity
  8
図
  6
CONTINUOUS
 62
     6
100
AcDbVertex
100
AcDb2dVertex
 10
567.822442
 20
1001.0
 30
0.0
  0
SEQEND
  5
31F
100
AcDbEntity
  8
図
  6
CONTINUOUS
 62
     6
  0
LINE
  5
320
100
AcDbEntity
  8
図
  6
CONTINUOUS
 62
     6
100
AcDbLine
 10
569.016
 20
1001.0
 30
0.0
 11
569.016
 21
998.0
 31
0.0
  0
LINE
  5
321
100
AcDbEntity
  8
図
  6
CONTINUOUS
 62
     6
100
AcDbLine
 10
606.984
 20
998.0
 30
0.0
 11
606.984
 21
1001.0
 31
0.0
  0
ARC
  5
322
100
AcDbEntity
  8
図
  6
CONTINUOUS
 62
     2
100
AcDbCircle
 10
588.0
 20
973.5
 30
0.0
 40
33.0
100
AcDbArc
 50
127.305201
 51
240.997454
  0
ARC
  5
323
100
AcDbEntity
  8
図
  6
CONTINUOUS
 62
     2
100
AcDbCircle
 10
588.0
 20
973.5
 30
0.0
 40
33.0
100
AcDbArc
 50
299.002546
 51
52.694799
  0
LINE
  5
324
100
AcDbEntity
  8
図
  6
CONTINUOUS
 62
     2
100
AcDbLine
 10
572.125
 20
1143.3
 30
0.0
 11
572.125
 21
1013.0
 31
0.0
  0
LINE
  5
325
100
AcDbEntity
  8
図
  6
CONTINUOUS
 62
     2
100
AcDbLine
 10
603.875
 20
1143.3
 30
0.0
 11
603.875
 21
1013.0
 31
0.0
  0
ARC
  5
326
100
AcDbEntity
  8
図
  6
CONTINUOUS
 62
     2
100
AcDbCircle
 10
605.25
 20
950.238709
 30
0.0
 40
1.25
100
AcDbArc
 50
124.849905
 51
180.0
  0
ARC
  5
327
100
AcDbEntity
  8
図
  6
CONTINUOUS
 62
     2
100
AcDbCircle
 10
604.25
 20
951.674849
 30
0.0
 40
0.5
100
AcDbArc
 50
304.849905
 51
0.0
  0
ARC
  5
328
100
AcDbEntity
  8
図
  6
CONTINUOUS
 62
     2
100
AcDbCircle
 10
571.75
 20
951.674849
 30
0.0
 40
0.5
100
AcDbArc
 50
180.0
 51
235.150095
  0
ARC
  5
329
100
AcDbEntity
  8
図
  6
CONTINUOUS
 62
     2
100
AcDbCircle
 10
570.75
 20
950.238709
 30
0.0
 40
1.25
100
AcDbArc
 50
0.0
 51
55.150095
  0
LINE
  5
32A
100
AcDbEntity
  8
図
  6
CONTINUOUS
 62
     6
100
AcDbLine
 10
601.581974
 20
951.399887
 30
0.0
 11
573.760118
 21
951.399887
 31
0.0
  0
LINE
  5
32B
100
AcDbEntity
  8
図
  6
CONTINUOUS
 62
     2
100
AcDbLine
 10
571.25
 20
998.0
 30
0.0
 11
571.25
 21
951.674849
 31
0.0
  0
LINE
  5
32C
100
AcDbEntity
  8
図
  6
CONTINUOUS
 62
     2
100
AcDbLine
 10
604.75
 20
998.0
 30
0.0
 11
604.75
 21
951.399887
 31
0.0
  0
ARC
  5
32D
100
AcDbEntity
  8
図
  6
CONTINUOUS
 62
     2
100
AcDbCircle
 10
588.0
 20
877.0
 30
0.0
 40
16.0
100
AcDbArc
 50
180.0
 51
0.0
  0
LINE
  5
32E
100
AcDbEntity
  8
図
  6
CONTINUOUS
 62
     2
100
AcDbLine
 10
572.0
 20
950.238709
 30
0.0
 11
572.0
 21
877.0
 31
0.0
  0
LINE
  5
32F
100
AcDbEntity
  8
図
  6
CONTINUOUS
 62
     2
100
AcDbLine
 10
604.0
 20
950.238709
 30
0.0
 11
604.0
 21
877.0
 31
0.0
  0
LINE
  5
330
100
AcDbEntity
  8
図
  6
EXLTYPE4
 62
     6
100
AcDbLine
 10
572.0
 20
753.0
 30
0.0
 11
572.0
 21
524.0
 31
0.0
  0
LINE
  5
331
100
AcDbEntity
  8
図
  6
EXLTYPE4
 62
     6
100
AcDbLine
 10
572.0
 20
524.0
 30
0.0
 11
604.0
 21
524.0
 31
0.0
  0
LINE
  5
332
100
AcDbEntity
  8
図
  6
EXLTYPE4
 62
     6
100
AcDbLine
 10
604.0
 20
753.0
 30
0.0
 11
604.0
 21
524.0
 31
0.0
  0
LINE
  5
333
100
AcDbEntity
  8
図
  6
EXLTYPE4
 62
     6
100
AcDbLine
 10
1531.99999
 20
524.0
 30
0.0
 11
1563.99999
 21
524.0
 31
0.0
  0
LINE
  5
334
100
AcDbEntity
  8
図
  6
EXLTYPE4
 62
     6
100
AcDbLine
 10
1531.99999
 20
714.0
 30
0.0
 11
1531.99999
 21
524.0
 31
0.0
  0
LINE
  5
335
100
AcDbEntity
  8
図
  6
EXLTYPE4
 62
     6
100
AcDbLine
 10
1563.99999
 20
714.0
 30
0.0
 11
1563.99999
 21
524.0
 31
0.0
  0
LINE
  5
336
100
AcDbEntity
  8
図
  6
CONTINUOUS
 62
     6
100
AcDbLine
 10
563.0
 20
1460.5
 30
0.0
 11
563.0
 21
1359.0
 31
0.0
  0
LINE
  5
337
100
AcDbEntity
  8
図
  6
CONTINUOUS
 62
     6
100
AcDbLine
 10
613.0
 20
1460.5
 30
0.0
 11
613.0
 21
1359.0
 31
0.0
  0
LINE
  5
338
100
AcDbEntity
  8
図
  6
CONTINUOUS
 62
     6
100
AcDbLine
 10
563.0
 20
1359.0
 30
0.0
 11
588.0
 21
1359.0
 31
0.0
  0
LINE
  5
339
100
AcDbEntity
  8
図
  6
CONTINUOUS
 62
     6
100
AcDbLine
 10
563.0
 20
1359.0
 30
0.0
 11
561.0
 21
1355.0
 31
0.0
  0
LINE
  5
33A
100
AcDbEntity
  8
図
  6
CONTINUOUS
 62
     6
100
AcDbLine
 10
613.0
 20
1359.0
 30
0.0
 11
615.0
 21
1355.0
 31
0.0
  0
LINE
  5
33B
100
AcDbEntity
  8
図
  6
CONTINUOUS
 62
     6
100
AcDbLine
 10
588.0
 20
1359.0
 30
0.0
 11
613.0
 21
1359.0
 31
0.0
  0
LINE
  5
33C
100
AcDbEntity
  8
図
  6
CONTINUOUS
 62
     6
100
AcDbLine
 10
613.0
 20
1506.099334
 30
0.0
 11
613.0
 21
1470.536075
 31
0.0
  0
LINE
  5
33D
100
AcDbEntity
  8
図
  6
CONTINUOUS
 62
     6
100
AcDbLine
 10
563.0
 20
1506.099334
 30
0.0
 11
563.0
 21
1470.536075
 31
0.0
  0
ARC
  5
33E
100
AcDbEntity
  8
図
  6
CONTINUOUS
 62
     6
100
AcDbCircle
 10
588.0
 20
1432.298149
 30
0.0
 40
15.0
100
AcDbArc
 50
322.90405
 51
217.09595
  0
ELLIPSE
  5
33F
100
AcDbEntity
  8
図
  6
CONTINUOUS
 62
     6
100
AcDbEllipse
 10
588.0
 20
1422.827958
 30
0.0
 11
-11.999999999999998
 21
0.0000000000000015
 31
0.0
210
0.0
220
0.0
230
1.0
 40
0.22103
 41
3.1415926535897931
 42
0.0
  0
ELLIPSE
  5
340
100
AcDbEntity
  8
図
  6
CONTINUOUS
 62
     6
100
AcDbEllipse
 10
588.0
 20
1413.607542
 30
0.0
 11
-11.999999999999998
 21
0.0000000000000015
 31
0.0
210
0.0
220
0.0
230
1.0
 40
0.173648
 41
0.0
 42
6.2831853071796004
  0
LINE
  5
341
100
AcDbEntity
  8
図
  6
CONTINUOUS
 62
     6
100
AcDbLine
 10
576.0
 20
1413.607542
 30
0.0
 11
576.0
 21
1423.039548
 31
0.0
  0
LINE
  5
342
100
AcDbEntity
  8
図
  6
CONTINUOUS
 62
     6
100
AcDbLine
 10
600.0
 20
1413.607542
 30
0.0
 11
600.0
 21
1423.039548
 31
0.0
  0
LINE
  5
343
100
AcDbEntity
  8
図
  6
CONTINUOUS
 62
     6
100
AcDbLine
 10
611.0
 20
1467.0
 30
0.0
 11
565.055831
 21
1466.999221
 31
0.0
  0
LINE
  5
344
100
AcDbEntity
  8
図
  6
CONTINUOUS
 62
     6
100
AcDbLine
 10
613.0
 20
1470.536075
 30
0.0
 11
563.0
 21
1470.536075
 31
0.0
  0
ARC
  5
345
100
AcDbEntity
  8
図
  6
CONTINUOUS
 62
     6
100
AcDbCircle
 10
565.0
 20
1465.0
 30
0.0
 40
2.0
100
AcDbArc
 50
88.400357
 51
180.0
  0
LINE
  5
346
100
AcDbEntity
  8
図
  6
CONTINUOUS
 62
     6
100
AcDbLine
 10
563.5
 20
1461.0
 30
0.0
 11
563.0
 21
1460.5
 31
0.0
  0
LINE
  5
347
100
AcDbEntity
  8
図
  6
CONTINUOUS
 62
     6
100
AcDbLine
 10
563.0
 20
1465.0
 30
0.0
 11
563.0
 21
1461.0
 31
0.0
  0
ARC
  5
348
100
AcDbEntity
  8
図
  6
CONTINUOUS
 62
     6
100
AcDbCircle
 10
588.020089
 20
1462.882759
 30
0.0
 40
22.5
100
AcDbArc
 50
160.114148
 51
167.425717
  0
ARC
  5
349
100
AcDbEntity
  8
図
  6
CONTINUOUS
 62
     6
100
AcDbCircle
 10
565.083746
 20
1467.998831
 30
0.0
 40
1.0
100
AcDbArc
 50
268.400357
 51
347.425717
  0
ARC
  5
34A
100
AcDbEntity
  8
図
  6
CONTINUOUS
 62
     6
100
AcDbCircle
 10
611.0
 20
1465.0
 30
0.0
 40
2.0
100
AcDbArc
 50
0.0
 51
90.0
  0
LINE
  5
34B
100
AcDbEntity
  8
図
  6
CONTINUOUS
 62
     6
100
AcDbLine
 10
612.5
 20
1461.0
 30
0.0
 11
613.0
 21
1460.5
 31
0.0
  0
LINE
  5
34C
100
AcDbEntity
  8
図
  6
CONTINUOUS
 62
     6
100
AcDbLine
 10
613.0
 20
1465.0
 30
0.0
 11
613.0
 21
1461.0
 31
0.0
  0
ARC
  5
34D
100
AcDbEntity
  8
図
  6
CONTINUOUS
 62
     6
100
AcDbCircle
 10
610.915993
 20
1468.0
 30
0.0
 40
1.0
100
AcDbArc
 50
192.577203
 51
270.0
  0
LINE
  5
34E
100
AcDbEntity
  8
図
  6
CONTINUOUS
 62
     6
100
AcDbLine
 10
610.915993
 20
1467.0
 30
0.0
 11
611.0
 21
1467.0
 31
0.0
  0
ARC
  5
34F
100
AcDbEntity
  8
図
  6
CONTINUOUS
 62
     6
100
AcDbCircle
 10
587.979911
 20
1462.882759
 30
0.0
 40
22.5
100
AcDbArc
 50
12.577203
 51
19.885852
  0
ELLIPSE
  5
350
100
AcDbEntity
  8
図
  6
CONTINUOUS
 62
     6
100
AcDbEllipse
 10
588.0
 20
1512.629715
 30
0.0
 11
-7.5000000000000044
 21
0.0000000000000009
 31
0.0
210
0.0
220
0.0
230
1.0
 40
0.96368
 41
0.0
 42
6.2831853071796004
  0
LINE
  5
351
100
AcDbEntity
  8
図
  6
CONTINUOUS
 62
     6
100
AcDbLine
 10
595.5
 20
1500.84206
 30
0.0
 11
595.5
 21
1512.629715
 31
0.0
  0
LINE
  5
352
100
AcDbEntity
  8
図
  6
CONTINUOUS
 62
     6
100
AcDbLine
 10
580.5
 20
1500.84206
 30
0.0
 11
580.5
 21
1512.629715
 31
0.0
  0
ARC
  5
353
100
AcDbEntity
  8
図
  6
CONTINUOUS
 62
     6
100
AcDbCircle
 10
565.0
 20
1506.099334
 30
0.0
 40
2.0
100
AcDbArc
 50
97.462794
 51
180.0
  0
ARC
  5
354
100
AcDbEntity
  8
図
  6
CONTINUOUS
 62
     6
100
AcDbCircle
 10
611.0
 20
1506.099334
 30
0.0
 40
2.0
100
AcDbArc
 50
0.0
 51
82.537206
  0
ELLIPSE
  5
355
100
AcDbEntity
  8
図
  6
CONTINUOUS
 62
     6
100
AcDbEllipse
 10
588.0
 20
1500.84206
 30
0.0
 11
-7.5000000000000044
 21
0.0000000000000009
 31
0.0
210
0.0
220
0.0
230
1.0
 40
0.96368
 41
0.0
 42
3.1415926535897931
  0
ARC
  5
356
100
AcDbEntity
  8
図
  6
CONTINUOUS
 62
     6
100
AcDbCircle
 10
588.0
 20
1580.196662
 30
0.0
 40
154.622782
100
AcDbArc
 50
264.918147
 51
275.081853
  0
LINE
  5
357
100
AcDbEntity
  8
図
  6
EXLTYPE3
 62
     6
100
AcDbLine
 10
574.844286
 20
1413.607542
 30
0.0
 11
600.888391
 21
1413.607542
 31
0.0
  0
ARC
  5
358
100
AcDbEntity
  8
図
  6
CONTINUOUS
 62
     6
100
AcDbCircle
 10
588.0
 20
1330.516001
 30
0.0
 40
179.083333
100
AcDbArc
 50
92.400246
 51
97.462794
  0
ARC
  5
359
100
AcDbEntity
  8
図
  6
CONTINUOUS
 62
     6
100
AcDbCircle
 10
588.0
 20
1330.516001
 30
0.0
 40
179.083333
100
AcDbArc
 50
82.537206
 51
87.599754
  0
CIRCLE
  5
35A
100
AcDbEntity
  8
図
  6
CONTINUOUS
 62
     6
100
AcDbCircle
 10
588.0
 20
1484.6
 30
0.0
 40
5.1
  0
LINE
  5
35B
100
AcDbEntity
  8
図
  6
CONTINUOUS
 62
     6
100
AcDbLine
 10
588.0
 20
1461.0
 30
0.0
 11
563.0
 21
1461.0
 31
0.0
  0
LINE
  5
35C
100
AcDbEntity
  8
図
  6
CONTINUOUS
 62
     6
100
AcDbLine
 10
613.0
 20
1461.0
 30
0.0
 11
588.0
 21
1461.0
 31
0.0
  0
ARC
  5
35D
100
AcDbEntity
  8
図
  6
CONTINUOUS
 62
     7
100
AcDbCircle
 10
588.0
 20
-3483.5
 30
0.0
 40
4847.5
100
AcDbArc
 50
90.295493
 51
92.603905
  0
ARC
  5
35E
100
AcDbEntity
  8
図
  6
CONTINUOUS
 62
     7
100
AcDbCircle
 10
588.0
 20
-3483.5
 30
0.0
 40
4847.5
100
AcDbArc
 50
87.396095
 51
89.704507
  0
LINE
  5
35F
100
AcDbEntity
  8
図
  6
EXLTYPE3
 62
     6
100
AcDbLine
 10
588.0
 20
1529.0
 30
0.0
 11
588.0
 21
855.9
 31
0.0
  0
POLYLINE
  5
360
100
AcDbEntity
  8
図
  6
CONTINUOUS
 62
     6
100
AcDb2dPolyline
 66
     1
 10
0.0
 20
0.0
 30
0.0
 70
   128
  0
VERTEX
  5
361
100
AcDbEntity
  8
図
  6
CONTINUOUS
 62
     6
100
AcDbVertex
100
AcDb2dVertex
 10
1514.017553
 20
1479.598039
 30
0.0
  0
VERTEX
  5
362
100
AcDbEntity
  8
図
  6
CONTINUOUS
 62
     6
100
AcDbVertex
100
AcDb2dVertex
 10
1514.017556
 20
1479.594226
 30
0.0
  0
VERTEX
  5
363
100
AcDbEntity
  8
図
  6
CONTINUOUS
 62
     6
100
AcDbVertex
100
AcDb2dVertex
 10
1514.017561
 20
1479.583398
 30
0.0
  0
VERTEX
  5
364
100
AcDbEntity
  8
図
  6
CONTINUOUS
 62
     6
100
AcDbVertex
100
AcDb2dVertex
 10
1514.017565
 20
1479.566472
 30
0.0
  0
VERTEX
  5
365
100
AcDbEntity
  8
図
  6
CONTINUOUS
 62
     6
100
AcDbVertex
100
AcDb2dVertex
 10
1514.017564
 20
1479.544365
 30
0.0
  0
VERTEX
  5
366
100
AcDbEntity
  8
図
  6
CONTINUOUS
 62
     6
100
AcDbVertex
100
AcDb2dVertex
 10
1514.017555
 20
1479.517995
 30
0.0
  0
VERTEX
  5
367
100
AcDbEntity
  8
図
  6
CONTINUOUS
 62
     6
100
AcDbVertex
100
AcDb2dVertex
 10
1514.017533
 20
1479.488277
 30
0.0
  0
VERTEX
  5
368
100
AcDbEntity
  8
図
  6
CONTINUOUS
 62
     6
100
AcDbVertex
100
AcDb2dVertex
 10
1514.017495
 20
1479.45613
 30
0.0
  0
VERTEX
  5
369
100
AcDbEntity
  8
図
  6
CONTINUOUS
 62
     6
100
AcDbVertex
100
AcDb2dVertex
 10
1514.017438
 20
1479.42247
 30
0.0
  0
VERTEX
  5
36A
100
AcDbEntity
  8
図
  6
CONTINUOUS
 62
     6
100
AcDbVertex
100
AcDb2dVertex
 10
1514.017357
 20
1479.388214
 30
0.0
  0
VERTEX
  5
36B
100
AcDbEntity
  8
図
  6
CONTINUOUS
 62
     6
100
AcDbVertex
100
AcDb2dVertex
 10
1514.017248
 20
1479.354279
 30
0.0
  0
VERTEX
  5
36C
100
AcDbEntity
  8
図
  6
CONTINUOUS
 62
     6
100
AcDbVertex
100
AcDb2dVertex
 10
1514.017108
 20
1479.321583
 30
0.0
  0
VERTEX
  5
36D
100
AcDbEntity
  8
図
  6
CONTINUOUS
 62
     6
100
AcDbVertex
100
AcDb2dVertex
 10
1514.016942
 20
1479.292024
 30
0.0
  0
VERTEX
  5
36E
100
AcDbEntity
  8
図
  6
CONTINUOUS
 62
     6
100
AcDbVertex
100
AcDb2dVertex
 10
1514.016745
 20
1479.264227
 30
0.0
  0
VERTEX
  5
36F
100
AcDbEntity
  8
図
  6
CONTINUOUS
 62
     6
100
AcDbVertex
100
AcDb2dVertex
 10
1514.016519
 20
1479.237967
 30
0.0
  0
VERTEX
  5
370
100
AcDbEntity
  8
図
  6
CONTINUOUS
 62
     6
100
AcDbVertex
100
AcDb2dVertex
 10
1514.016264
 20
1479.213017
 30
0.0
  0
VERTEX
  5
371
100
AcDbEntity
  8
図
  6
CONTINUOUS
 62
     6
100
AcDbVertex
100
AcDb2dVertex
 10
1514.015982
 20
1479.189152
 30
0.0
  0
VERTEX
  5
372
100
AcDbEntity
  8
図
  6
CONTINUOUS
 62
     6
100
AcDbVertex
100
AcDb2dVertex
 10
1514.015675
 20
1479.166144
 30
0.0
  0
VERTEX
  5
373
100
AcDbEntity
  8
図
  6
CONTINUOUS
 62
     6
100
AcDbVertex
100
AcDb2dVertex
 10
1514.015343
 20
1479.14377
 30
0.0
  0
VERTEX
  5
374
100
AcDbEntity
  8
図
  6
CONTINUOUS
 62
     6
100
AcDbVertex
100
AcDb2dVertex
 10
1514.014989
 20
1479.121801
 30
0.0
  0
VERTEX
  5
375
100
AcDbEntity
  8
図
  6
CONTINUOUS
 62
     6
100
AcDbVertex
100
AcDb2dVertex
 10
1514.014613
 20
1479.100014
 30
0.0
  0
VERTEX
  5
376
100
AcDbEntity
  8
図
  6
CONTINUOUS
 62
     6
100
AcDbVertex
100
AcDb2dVertex
 10
1514.014217
 20
1479.07818
 30
0.0
  0
VERTEX
  5
377
100
AcDbEntity
  8
図
  6
CONTINUOUS
 62
     6
100
AcDbVertex
100
AcDb2dVertex
 10
1514.013801
 20
1479.056075
 30
0.0
  0
VERTEX
  5
378
100
AcDbEntity
  8
図
  6
CONTINUOUS
 62
     6
100
AcDbVertex
100
AcDb2dVertex
 10
1514.013429
 20
1479.036681
 30
0.0
  0
VERTEX
  5
379
100
AcDbEntity
  8
図
  6
CONTINUOUS
 62
     6
100
AcDbVertex
100
AcDb2dVertex
 10
1514.013042
 20
1479.01694
 30
0.0
  0
VERTEX
  5
37A
100
AcDbEntity
  8
図
  6
CONTINUOUS
 62
     6
100
AcDbVertex
100
AcDb2dVertex
 10
1514.01264
 20
1478.996877
 30
0.0
  0
VERTEX
  5
37B
100
AcDbEntity
  8
図
  6
CONTINUOUS
 62
     6
100
AcDbVertex
100
AcDb2dVertex
 10
1514.01222
 20
1478.976514
 30
0.0
  0
VERTEX
  5
37C
100
AcDbEntity
  8
図
  6
CONTINUOUS
 62
     6
100
AcDbVertex
100
AcDb2dVertex
 10
1514.011783
 20
1478.955875
 30
0.0
  0
VERTEX
  5
37D
100
AcDbEntity
  8
図
  6
CONTINUOUS
 62
     6
100
AcDbVertex
100
AcDb2dVertex
 10
1514.011325
 20
1478.934981
 30
0.0
  0
VERTEX
  5
37E
100
AcDbEntity
  8
図
  6
CONTINUOUS
 62
     6
100
AcDbVertex
100
AcDb2dVertex
 10
1514.010846
 20
1478.913857
 30
0.0
  0
VERTEX
  5
37F
100
AcDbEntity
  8
図
  6
CONTINUOUS
 62
     6
100
AcDbVertex
100
AcDb2dVertex
 10
1514.010345
 20
1478.892525
 30
0.0
  0
VERTEX
  5
380
100
AcDbEntity
  8
図
  6
CONTINUOUS
 62
     6
100
AcDbVertex
100
AcDb2dVertex
 10
1514.009821
 20
1478.871008
 30
0.0
  0
VERTEX
  5
381
100
AcDbEntity
  8
図
  6
CONTINUOUS
 62
     6
100
AcDbVertex
100
AcDb2dVertex
 10
1514.009271
 20
1478.84933
 30
0.0
  0
VERTEX
  5
382
100
AcDbEntity
  8
図
  6
CONTINUOUS
 62
     6
100
AcDbVertex
100
AcDb2dVertex
 10
1514.008695
 20
1478.827512
 30
0.0
  0
VERTEX
  5
383
100
AcDbEntity
  8
図
  6
CONTINUOUS
 62
     6
100
AcDbVertex
100
AcDb2dVertex
 10
1514.008227
 20
1478.810408
 30
0.0
  0
VERTEX
  5
384
100
AcDbEntity
  8
図
  6
CONTINUOUS
 62
     6
100
AcDbVertex
100
AcDb2dVertex
 10
1514.007745
 20
1478.793296
 30
0.0
  0
VERTEX
  5
385
100
AcDbEntity
  8
図
  6
CONTINUOUS
 62
     6
100
AcDbVertex
100
AcDb2dVertex
 10
1514.007252
 20
1478.776237
 30
0.0
  0
VERTEX
  5
386
100
AcDbEntity
  8
図
  6
CONTINUOUS
 62
     6
100
AcDbVertex
100
AcDb2dVertex
 10
1514.00675
 20
1478.759294
 30
0.0
  0
VERTEX
  5
387
100
AcDbEntity
  8
図
  6
CONTINUOUS
 62
     6
100
AcDbVertex
100
AcDb2dVertex
 10
1514.006244
 20
1478.742528
 30
0.0
  0
VERTEX
  5
388
100
AcDbEntity
  8
図
  6
CONTINUOUS
 62
     6
100
AcDbVertex
100
AcDb2dVertex
 10
1514.005735
 20
1478.726002
 30
0.0
  0
VERTEX
  5
389
100
AcDbEntity
  8
図
  6
CONTINUOUS
 62
     6
100
AcDbVertex
100
AcDb2dVertex
 10
1514.005227
 20
1478.709777
 30
0.0
  0
VERTEX
  5
38A
100
AcDbEntity
  8
図
  6
CONTINUOUS
 62
     6
100
AcDbVertex
100
AcDb2dVertex
 10
1514.004722
 20
1478.693915
 30
0.0
  0
VERTEX
  5
38B
100
AcDbEntity
  8
図
  6
CONTINUOUS
 62
     6
100
AcDbVertex
100
AcDb2dVertex
 10
1514.004224
 20
1478.67848
 30
0.0
  0
VERTEX
  5
38C
100
AcDbEntity
  8
図
  6
CONTINUOUS
 62
     6
100
AcDbVertex
100
AcDb2dVertex
 10
1514.003735
 20
1478.663532
 30
0.0
  0
VERTEX
  5
38D
100
AcDbEntity
  8
図
  6
CONTINUOUS
 62
     6
100
AcDbVertex
100
AcDb2dVertex
 10
1514.003259
 20
1478.649133
 30
0.0
  0
VERTEX
  5
38E
100
AcDbEntity
  8
図
  6
CONTINUOUS
 62
     6
100
AcDbVertex
100
AcDb2dVertex
 10
1514.002967
 20
1478.640418
 30
0.0
  0
VERTEX
  5
38F
100
AcDbEntity
  8
図
  6
CONTINUOUS
 62
     6
100
AcDbVertex
100
AcDb2dVertex
 10
1514.002676
 20
1478.631812
 30
0.0
  0
VERTEX
  5
390
100
AcDbEntity
  8
図
  6
CONTINUOUS
 62
     6
100
AcDbVertex
100
AcDb2dVertex
 10
1514.002381
 20
1478.623184
 30
0.0
  0
VERTEX
  5
391
100
AcDbEntity
  8
図
  6
CONTINUOUS
 62
     6
100
AcDbVertex
100
AcDb2dVertex
 10
1514.002076
 20
1478.614403
 30
0.0
  0
VERTEX
  5
392
100
AcDbEntity
  8
図
  6
CONTINUOUS
 62
     6
100
AcDbVertex
100
AcDb2dVertex
 10
1514.001755
 20
1478.605338
 30
0.0
  0
VERTEX
  5
393
100
AcDbEntity
  8
図
  6
CONTINUOUS
 62
     6
100
AcDbVertex
100
AcDb2dVertex
 10
1514.001414
 20
1478.59586
 30
0.0
  0
VERTEX
  5
394
100
AcDbEntity
  8
図
  6
CONTINUOUS
 62
     6
100
AcDbVertex
100
AcDb2dVertex
 10
1514.001047
 20
1478.585838
 30
0.0
  0
VERTEX
  5
395
100
AcDbEntity
  8
図
  6
CONTINUOUS
 62
     6
100
AcDbVertex
100
AcDb2dVertex
 10
1514.000649
 20
1478.575141
 30
0.0
  0
VERTEX
  5
396
100
AcDbEntity
  8
図
  6
CONTINUOUS
 62
     6
100
AcDbVertex
100
AcDb2dVertex
 10
1514.000215
 20
1478.563638
 30
0.0
  0
VERTEX
  5
397
100
AcDbEntity
  8
図
  6
CONTINUOUS
 62
     6
100
AcDbVertex
100
AcDb2dVertex
 10
1513.99974
 20
1478.5512
 30
0.0
  0
VERTEX
  5
398
100
AcDbEntity
  8
図
  6
CONTINUOUS
 62
     6
100
AcDbVertex
100
AcDb2dVertex
 10
1513.999217
 20
1478.537696
 30
0.0
  0
VERTEX
  5
399
100
AcDbEntity
  8
図
  6
CONTINUOUS
 62
     6
100
AcDbVertex
100
AcDb2dVertex
 10
1513.999029
 20
1478.532881
 30
0.0
  0
VERTEX
  5
39A
100
AcDbEntity
  8
図
  6
CONTINUOUS
 62
     6
100
AcDbVertex
100
AcDb2dVertex
 10
1513.99884
 20
1478.528033
 30
0.0
  0
VERTEX
  5
39B
100
AcDbEntity
  8
図
  6
CONTINUOUS
 62
     6
100
AcDbVertex
100
AcDb2dVertex
 10
1513.998653
 20
1478.523255
 30
0.0
  0
VERTEX
  5
39C
100
AcDbEntity
  8
図
  6
CONTINUOUS
 62
     6
100
AcDbVertex
100
AcDb2dVertex
 10
1513.998472
 20
1478.518651
 30
0.0
  0
VERTEX
  5
39D
100
AcDbEntity
  8
図
  6
CONTINUOUS
 62
     6
100
AcDbVertex
100
AcDb2dVertex
 10
1513.998302
 20
1478.514325
 30
0.0
  0
VERTEX
  5
39E
100
AcDbEntity
  8
図
  6
CONTINUOUS
 62
     6
100
AcDbVertex
100
AcDb2dVertex
 10
1513.998147
 20
1478.51038
 30
0.0
  0
VERTEX
  5
39F
100
AcDbEntity
  8
図
  6
CONTINUOUS
 62
     6
100
AcDbVertex
100
AcDb2dVertex
 10
1513.99801
 20
1478.506919
 30
0.0
  0
VERTEX
  5
3A0
100
AcDbEntity
  8
図
  6
CONTINUOUS
 62
     6
100
AcDbVertex
100
AcDb2dVertex
 10
1513.997897
 20
1478.504048
 30
0.0
  0
VERTEX
  5
3A1
100
AcDbEntity
  8
図
  6
CONTINUOUS
 62
     6
100
AcDbVertex
100
AcDb2dVertex
 10
1513.997811
 20
1478.501868
 30
0.0
  0
VERTEX
  5
3A2
100
AcDbEntity
  8
図
  6
CONTINUOUS
 62
     6
100
AcDbVertex
100
AcDb2dVertex
 10
1513.997757
 20
1478.500484
 30
0.0
  0
VERTEX
  5
3A3
100
AcDbEntity
  8
図
  6
CONTINUOUS
 62
     6
100
AcDbVertex
100
AcDb2dVertex
 10
1513.997737
 20
1478.5
 30
0.0
  0
SEQEND
  5
3A4
100
AcDbEntity
  8
図
  6
CONTINUOUS
 62
     6
  0
ARC
  5
3A5
100
AcDbEntity
  8
図
  6
CONTINUOUS
 62
     6
100
AcDbCircle
 10
1571.107625
 20
1397.993492
 30
0.0
 40
4.0
100
AcDbArc
 50
90.0
 51
152.0
  0
LINE
  5
3A6
100
AcDbEntity
  8
図
  6
CONTINUOUS
 62
     6
100
AcDbLine
 10
1586.168588
 20
1410.834576
 30
0.0
 11
1586.168588
 21
1399.152408
 31
0.0
  0
ARC
  5
3A7
100
AcDbEntity
  8
図
  6
CONTINUOUS
 62
     6
100
AcDbCircle
 10
1568.617503
 20
1404.993492
 30
0.0
 40
18.551084
100
AcDbArc
 50
342.298207
 51
17.701793
  0
ARC
  5
3A8
100
AcDbEntity
  8
図
  6
CONTINUOUS
 62
     6
100
AcDbCircle
 10
1564.49999
 20
1360.096291
 30
0.0
 40
0.5
100
AcDbArc
 50
180.0
 51
201.801409
  0
ARC
  5
3A9
100
AcDbEntity
  8
図
  6
CONTINUOUS
 62
     6
100
AcDbCircle
 10
1564.49999
 20
1360.096291
 30
0.0
 40
0.5
100
AcDbArc
 50
180.0
 51
201.801409
  0
ARC
  5
3AA
100
AcDbEntity
  8
図
  6
CONTINUOUS
 62
     6
100
AcDbCircle
 10
1571.668588
 20
1400.267267
 30
0.0
 40
0.5
100
AcDbArc
 50
180.0
 51
266.914712
  0
ARC
  5
3AB
100
AcDbEntity
  8
図
  6
CONTINUOUS
 62
     6
100
AcDbCircle
 10
1585.813904
 20
1399.504827
 30
0.0
 40
0.5
100
AcDbArc
 50
266.914712
 51
342.298207
  0
LINE
  5
3AC
100
AcDbEntity
  8
図
  6
CONTINUOUS
 62
     6
100
AcDbLine
 10
1571.641677
 20
1399.767992
 30
0.0
 11
1585.786993
 21
1399.005552
 31
0.0
  0
ARC
  5
3AD
100
AcDbEntity
  8
図
  6
CONTINUOUS
 62
     6
100
AcDbCircle
 10
1513.49999
 20
1360.096291
 30
0.0
 40
0.5
100
AcDbArc
 50
338.198591
 51
0.0
  0
ARC
  5
3AE
100
AcDbEntity
  8
図
  6
CONTINUOUS
 62
     6
100
AcDbCircle
 10
1513.49999
 20
1360.096291
 30
0.0
 40
0.5
100
AcDbArc
 50
338.198591
 51
0.0
  0
LINE
  5
3AF
100
AcDbEntity
  8
図
  6
CONTINUOUS
 62
     6
100
AcDbLine
 10
1507.925566
 20
1493.614458
 30
0.0
 11
1443.030877
 21
1505.057143
 31
0.0
  0
LINE
  5
3B0
100
AcDbEntity
  8
図
  6
CONTINUOUS
 62
     6
100
AcDbLine
 10
1421.196632
 20
1449.595135
 30
0.0
 11
1513.99999
 21
1433.231399
 31
0.0
  0
LINE
  5
3B1
100
AcDbEntity
  8
図
  6
CONTINUOUS
 62
     6
100
AcDbLine
 10
1450.847701
 20
1413.904053
 30
0.0
 11
1513.99999
 21
1402.768601
 31
0.0
  0
LINE
  5
3B2
100
AcDbEntity
  8
図
  6
CONTINUOUS
 62
     6
100
AcDbLine
 10
1510.3445
 20
1508.419334
 30
0.0
 11
1445.56263
 21
1519.842125
 31
0.0
  0
ARC
  5
3B3
100
AcDbEntity
  8
図
  6
CONTINUOUS
 62
     6
100
AcDbCircle
 10
1571.668588
 20
1409.719716
 30
0.0
 40
0.5
100
AcDbArc
 50
93.085288
 51
180.0
  0
ARC
  5
3B4
100
AcDbEntity
  8
図
  6
CONTINUOUS
 62
     6
100
AcDbCircle
 10
1585.813904
 20
1410.482157
 30
0.0
 40
0.5
100
AcDbArc
 50
17.701793
 51
93.085288
  0
LINE
  5
3B5
100
AcDbEntity
  8
図
  6
CONTINUOUS
 62
     6
100
AcDbLine
 10
1571.641677
 20
1410.218992
 30
0.0
 11
1585.786993
 21
1410.981432
 31
0.0
  0
ARC
  5
3B6
100
AcDbEntity
  8
図
  6
CONTINUOUS
 62
     6
100
AcDbCircle
 10
1561.99999
 20
1465.0
 30
0.0
 40
2.0
100
AcDbArc
 50
0.0
 51
91.599643
  0
LINE
  5
3B7
100
AcDbEntity
  8
図
  6
CONTINUOUS
 62
     6
100
AcDbLine
 10
1563.49999
 20
1461.0
 30
0.0
 11
1563.99999
 21
1460.5
 31
0.0
  0
LINE
  5
3B8
100
AcDbEntity
  8
図
  6
CONTINUOUS
 62
     6
100
AcDbLine
 10
1563.99999
 20
1465.0
 30
0.0
 11
1563.99999
 21
1461.0
 31
0.0
  0
ARC
  5
3B9
100
AcDbEntity
  8
図
  6
CONTINUOUS
 62
     6
100
AcDbCircle
 10
1561.916244
 20
1467.998831
 30
0.0
 40
1.0
100
AcDbArc
 50
192.574283
 51
271.599643
  0
LINE
  5
3BA
100
AcDbEntity
  8
図
  6
CONTINUOUS
 62
     6
100
AcDbLine
 10
1514.49999
 20
1461.0
 30
0.0
 11
1513.99999
 21
1460.5
 31
0.0
  0
LINE
  5
3BB
100
AcDbEntity
  8
図
  6
CONTINUOUS
 62
     6
100
AcDbLine
 10
1516.083997
 20
1467.0
 30
0.0
 11
1515.99999
 21
1467.0
 31
0.0
  0
ARC
  5
3BC
100
AcDbEntity
  8
図
  6
CONTINUOUS
 62
     6
100
AcDbCircle
 10
1516.083997
 20
1468.0
 30
0.0
 40
1.0
100
AcDbArc
 50
270.0
 51
347.422797
  0
LINE
  5
3BD
100
AcDbEntity
  8
図
  6
CONTINUOUS
 62
     6
100
AcDbLine
 10
1513.99999
 20
1465.0
 30
0.0
 11
1513.99999
 21
1461.0
 31
0.0
  0
ARC
  5
3BE
100
AcDbEntity
  8
図
  6
CONTINUOUS
 62
     6
100
AcDbCircle
 10
1515.99999
 20
1465.0
 30
0.0
 40
2.0
100
AcDbArc
 50
90.0
 51
180.0
  0
ARC
  5
3BF
100
AcDbEntity
  8
図
  6
CONTINUOUS
 62
     6
100
AcDbCircle
 10
1538.99999
 20
1330.516001
 30
0.0
 40
179.083333
100
AcDbArc
 50
82.537206
 51
97.462794
  0
ARC
  5
3C0
100
AcDbEntity
  8
図
  6
CONTINUOUS
 62
     6
100
AcDbCircle
 10
1538.99999
 20
1330.516001
 30
0.0
 40
179.083333
100
AcDbArc
 50
82.537206
 51
97.462794
  0
ARC
  5
3C1
100
AcDbEntity
  8
図
  6
CONTINUOUS
 62
     6
100
AcDbCircle
 10
1561.99999
 20
1506.099334
 30
0.0
 40
2.0
100
AcDbArc
 50
0.0
 51
90.0
  0
ARC
  5
3C2
100
AcDbEntity
  8
図
  6
CONTINUOUS
 62
     6
100
AcDbCircle
 10
1561.99999
 20
1506.099334
 30
0.0
 40
2.0
100
AcDbArc
 50
0.0
 51
90.0
  0
LINE
  5
3C3
100
AcDbEntity
  8
図
  6
CONTINUOUS
 62
     6
100
AcDbLine
 10
1563.99999
 20
1477.234805
 30
0.0
 11
1563.99999
 21
1506.099334
 31
0.0
  0
LINE
  5
3C4
100
AcDbEntity
  8
図
  6
CONTINUOUS
 62
     6
100
AcDbLine
 10
1563.99999
 20
1477.234805
 30
0.0
 11
1563.99999
 21
1506.099334
 31
0.0
  0
LINE
  5
3C5
100
AcDbEntity
  8
図
  6
CONTINUOUS
 62
     6
100
AcDbLine
 10
1509.720331
 20
1500.913692
 30
0.0
 11
1510.935869
 21
1507.807346
 31
0.0
  0
ARC
  5
3C6
100
AcDbEntity
  8
図
  6
CONTINUOUS
 62
     6
100
AcDbCircle
 10
1510.443465
 20
1507.89417
 30
0.0
 40
0.5
100
AcDbArc
 50
350.0
 51
80.0
  0
ARC
  5
3C7
100
AcDbEntity
  8
図
  6
CONTINUOUS
 62
     6
100
AcDbCircle
 10
1510.994152
 20
1505.258503
 30
0.0
 40
0.5
100
AcDbArc
 50
170.0
 51
260.0
  0
ARC
  5
3C8
100
AcDbEntity
  8
図
  6
CONTINUOUS
 62
     6
100
AcDbCircle
 10
1508.01239
 20
1494.106862
 30
0.0
 40
0.5
100
AcDbArc
 50
260.0
 51
350.0
  0
ARC
  5
3C9
100
AcDbEntity
  8
図
  6
CONTINUOUS
 62
     6
100
AcDbCircle
 10
1509.431318
 20
1496.395233
 30
0.0
 40
0.5
100
AcDbArc
 50
80.0
 51
170.0
  0
LINE
  5
3CA
100
AcDbEntity
  8
図
  6
CONTINUOUS
 62
     6
100
AcDbLine
 10
1508.504794
 20
1494.020038
 30
0.0
 11
1509.720331
 21
1500.913692
 31
0.0
  0
ARC
  5
3CB
100
AcDbEntity
  8
図
  6
CONTINUOUS
 62
     6
100
AcDbCircle
 10
1519.06943
 20
1484.6
 30
0.0
 40
7.550071
100
AcDbArc
 50
137.507763
 51
222.492237
  0
ARC
  5
3CC
100
AcDbEntity
  8
図
  6
CONTINUOUS
 62
     6
100
AcDbCircle
 10
1515.99999
 20
1506.099334
 30
0.0
 40
2.0
100
AcDbArc
 50
90.0
 51
180.0
  0
ARC
  5
3CD
100
AcDbEntity
  8
図
  6
CONTINUOUS
 62
     6
100
AcDbCircle
 10
1515.99999
 20
1506.099334
 30
0.0
 40
2.0
100
AcDbArc
 50
90.0
 51
180.0
  0
LINE
  5
3CE
100
AcDbEntity
  8
図
  6
CONTINUOUS
 62
     6
100
AcDbLine
 10
1513.99999
 20
1479.5
 30
0.0
 11
1513.502243
 21
1479.5
 31
0.0
  0
LINE
  5
3CF
100
AcDbEntity
  8
図
  6
CONTINUOUS
 62
     6
100
AcDbLine
 10
1513.99999
 20
1489.7
 30
0.0
 11
1513.502243
 21
1489.7
 31
0.0
  0
ARC
  5
3D0
100
AcDbEntity
  8
図
  6
CONTINUOUS
 62
     6
100
AcDbCircle
 10
1492.334219
 20
1421.82026
 30
0.0
 40
78.0
100
AcDbArc
 50
160.150973
 51
174.754975
  0
LINE
  5
3D1
100
AcDbEntity
  8
図
  6
CONTINUOUS
 62
     6
100
AcDbLine
 10
1441.070275
 20
1414.283384
 30
0.0
 11
1419.404504
 21
1418.103644
 31
0.0
  0
LINE
  5
3D2
100
AcDbEntity
  8
図
  6
CONTINUOUS
 62
     6
100
AcDbLine
 10
1419.404504
 20
1418.103644
 30
0.0
 11
1441.070275
 21
1414.283384
 31
0.0
  0
LINE
  5
3D3
100
AcDbEntity
  8
図
  6
CONTINUOUS
 62
     6
100
AcDbLine
 10
1441.070275
 20
1414.283384
 30
0.0
 11
1442.155338
 21
1414.678315
 31
0.0
  0
LINE
  5
3D4
100
AcDbEntity
  8
図
  6
CONTINUOUS
 62
     6
100
AcDbLine
 10
1441.070275
 20
1414.283384
 30
0.0
 11
1442.155338
 21
1414.678315
 31
0.0
  0
LINE
  5
3D5
100
AcDbEntity
  8
図
  6
CONTINUOUS
 62
     6
100
AcDbLine
 10
1446.402904
 20
1421.491149
 30
0.0
 11
1450.847701
 21
1413.904053
 31
0.0
  0
LINE
  5
3D6
100
AcDbEntity
  8
図
  6
CONTINUOUS
 62
     6
100
AcDbLine
 10
1419.404504
 20
1418.103644
 30
0.0
 11
1418.519952
 21
1418.845871
 31
0.0
  0
LINE
  5
3D7
100
AcDbEntity
  8
図
  6
CONTINUOUS
 62
     6
100
AcDbLine
 10
1419.404504
 20
1418.103644
 30
0.0
 11
1418.519952
 21
1418.845871
 31
0.0
  0
ARC
  5
3D8
100
AcDbEntity
  8
図
  6
CONTINUOUS
 62
     6
100
AcDbCircle
 10
1416.652441
 20
1428.767812
 30
0.0
 40
2.0
100
AcDbArc
 50
174.754975
 51
260.0
  0
ARC
  5
3D9
100
AcDbEntity
  8
図
  6
CONTINUOUS
 62
     6
100
AcDbCircle
 10
1420.849336
 20
1447.62552
 30
0.0
 40
2.0
100
AcDbArc
 50
80.0
 51
160.150973
  0
LINE
  5
3DA
100
AcDbEntity
  8
図
  6
CONTINUOUS
 62
     6
100
AcDbLine
 10
1442.146747
 20
1506.228465
 30
0.0
 11
1444.404174
 21
1519.030966
 31
0.0
  0
ARC
  5
3DB
100
AcDbEntity
  8
図
  6
CONTINUOUS
 62
     6
100
AcDbCircle
 10
1443.131555
 20
1506.054817
 30
0.0
 40
1.0
100
AcDbArc
 50
170.0
 51
260.0
  0
ARC
  5
3DC
100
AcDbEntity
  8
図
  6
CONTINUOUS
 62
     6
100
AcDbCircle
 10
1445.388982
 20
1518.857318
 30
0.0
 40
1.0
100
AcDbArc
 50
80.0
 51
170.0
  0
LINE
  5
3DD
100
AcDbEntity
  8
図
  6
CONTINUOUS
 62
     6
100
AcDbLine
 10
1513.99999
 20
1470.536075
 30
0.0
 11
1513.99999
 21
1478.5
 31
0.0
  0
LINE
  5
3DE
100
AcDbEntity
  8
図
  6
CONTINUOUS
 62
     6
100
AcDbLine
 10
1513.99999
 20
1470.536075
 30
0.0
 11
1513.99999
 21
1484.6
 31
0.0
  0
LINE
  5
3DF
100
AcDbEntity
  8
図
  6
CONTINUOUS
 62
     6
100
AcDbLine
 10
1510.907328
 20
1504.766099
 30
0.0
 11
1513.99999
 21
1504.220779
 31
0.0
  0
LINE
  5
3E0
100
AcDbEntity
  8
図
  6
CONTINUOUS
 62
     6
100
AcDbLine
 10
1509.518142
 20
1496.887637
 30
0.0
 11
1513.99999
 21
1496.097366
 31
0.0
  0
LINE
  5
3E1
100
AcDbEntity
  8
図
  6
CONTINUOUS
 62
     6
100
AcDbLine
 10
1538.99999
 20
1470.536075
 30
0.0
 11
1563.99999
 21
1477.234805
 31
0.0
  0
LINE
  5
3E2
100
AcDbEntity
  8
図
  6
CONTINUOUS
 62
     6
100
AcDbLine
 10
1513.99999
 20
1470.536075
 30
0.0
 11
1538.99999
 21
1470.536075
 31
0.0
  0
ARC
  5
3E3
100
AcDbEntity
  8
図
  6
CONTINUOUS
 62
     6
100
AcDbCircle
 10
1539.020079
 20
1462.882759
 30
0.0
 40
22.5
100
AcDbArc
 50
160.114148
 51
167.422797
  0
ARC
  5
3E4
100
AcDbEntity
  8
図
  6
CONTINUOUS
 62
     6
100
AcDbCircle
 10
1538.979901
 20
1462.882759
 30
0.0
 40
22.5
100
AcDbArc
 50
12.574283
 51
34.167204
  0
LINE
  5
3E5
100
AcDbEntity
  8
図
  6
CONTINUOUS
 62
     6
100
AcDbLine
 10
1562.99999
 20
1356.876273
 30
0.0
 11
1562.99999
 21
1357.0
 31
0.0
  0
LINE
  5
3E6
100
AcDbEntity
  8
図
  6
CONTINUOUS
 62
     6
100
AcDbLine
 10
1571.168588
 20
1409.719716
 30
0.0
 11
1571.168588
 21
1404.993492
 31
0.0
  0
LINE
  5
3E7
100
AcDbEntity
  8
図
  6
CONTINUOUS
 62
     6
100
AcDbLine
 10
1571.168588
 20
1404.993492
 30
0.0
 11
1571.168588
 21
1400.267267
 31
0.0
  0
LINE
  5
3E8
100
AcDbEntity
  8
図
  6
CONTINUOUS
 62
     6
100
AcDbLine
 10
1563.99999
 20
1399.536356
 30
0.0
 11
1563.99999
 21
1360.096291
 31
0.0
  0
LINE
  5
3E9
100
AcDbEntity
  8
図
  6
CONTINUOUS
 62
     6
100
AcDbLine
 10
1563.99999
 20
1460.5
 30
0.0
 11
1563.99999
 21
1399.536356
 31
0.0
  0
LINE
  5
3EA
100
AcDbEntity
  8
図
  6
CONTINUOUS
 62
     6
100
AcDbLine
 10
1431.630788
 20
1424.095872
 30
0.0
 11
1446.402904
 21
1421.491149
 31
0.0
  0
LINE
  5
3EB
100
AcDbEntity
  8
図
  6
CONTINUOUS
 62
     6
100
AcDbLine
 10
1416.305145
 20
1426.798196
 30
0.0
 11
1431.630788
 21
1424.095872
 31
0.0
  0
LINE
  5
3EC
100
AcDbEntity
  8
図
  6
CONTINUOUS
 62
     6
100
AcDbLine
 10
1419.813095
 20
1426.17965
 30
0.0
 11
1418.519952
 21
1418.845871
 31
0.0
  0
LINE
  5
3ED
100
AcDbEntity
  8
図
  6
CONTINUOUS
 62
     6
100
AcDbLine
 10
1443.448481
 20
1422.012094
 30
0.0
 11
1442.155338
 21
1414.678315
 31
0.0
  0
LINE
  5
3EE
100
AcDbEntity
  8
図
  6
CONTINUOUS
 62
     6
100
AcDbLine
 10
1513.99999
 20
1460.5
 30
0.0
 11
1513.99999
 21
1433.231399
 31
0.0
  0
LINE
  5
3EF
100
AcDbEntity
  8
図
  6
CONTINUOUS
 62
     6
100
AcDbLine
 10
1513.99999
 20
1402.768601
 30
0.0
 11
1513.99999
 21
1360.096291
 31
0.0
  0
LINE
  5
3F0
100
AcDbEntity
  8
図
  6
CONTINUOUS
 62
     6
100
AcDbLine
 10
1513.99999
 20
1504.220779
 30
0.0
 11
1513.99999
 21
1506.099334
 31
0.0
  0
LINE
  5
3F1
100
AcDbEntity
  8
図
  6
CONTINUOUS
 62
     6
100
AcDbLine
 10
1513.99999
 20
1484.6
 30
0.0
 11
1513.99999
 21
1496.097366
 31
0.0
  0
ARC
  5
3F2
100
AcDbEntity
  8
図
  6
CONTINUOUS
 62
     6
100
AcDbCircle
 10
1496.583217
 20
1418.0
 30
0.0
 40
23.137405
100
AcDbArc
 50
318.8295
 51
41.1705
  0
ARC
  5
3F3
100
AcDbEntity
  8
図
  6
CONTINUOUS
 62
     6
100
AcDbCircle
 10
1509.184396
 20
1500.159073
 30
0.0
 40
6.299794
100
AcDbArc
 50
319.854088
 51
40.145912
  0
LINE
  5
3F4
100
AcDbEntity
  8
図
  6
CONTINUOUS
 62
     6
100
AcDbLine
 10
1563.99999
 20
1360.096291
 30
0.0
 11
1513.964228
 21
1360.096291
 31
0.0
  0
LINE
  5
3F5
100
AcDbEntity
  8
図
  6
CONTINUOUS
 62
     6
100
AcDbLine
 10
1563.99999
 20
1393.146193
 30
0.0
 11
1567.575834
 21
1399.871378
 31
0.0
  0
LINE
  5
3F6
100
AcDbEntity
  8
図
  6
CONTINUOUS
 62
     6
100
AcDbLine
 10
1538.99999
 20
1461.0
 30
0.0
 11
1563.99999
 21
1461.0
 31
0.0
  0
LINE
  5
3F7
100
AcDbEntity
  8
図
  6
CONTINUOUS
 62
     6
100
AcDbLine
 10
1513.99999
 20
1461.0
 30
0.0
 11
1538.99999
 21
1461.0
 31
0.0
  0
ARC
  5
3F8
100
AcDbEntity
  8
図
  6
CONTINUOUS
 62
     6
100
AcDbCircle
 10
1571.107625
 20
1397.993492
 30
0.0
 40
10.0
100
AcDbArc
 50
90.0
 51
135.297068
  0
LEADER
  5
3F9
100
AcDbEntity
  8
図
  6
CONTINUOUS
 62
     3
100
AcDbLeader
  3
STANDARD
 73
     3
 74
     1
 75
     0
 40
0.0
 76
     3
 10
1431.891143
 20
1447.709404
 30
0.0
 10
1366.868628
 20
1569.300685
 30
0.0
 10
1219.0
 20
1569.300685
 30
0.0
 77
     3
1001
ACAD
1000
DSTYLE
1002
{
1070
    41
1040
30.0
1070
     5
1000
_EX_NORM
1070
     6
1000
_EX_NORM
1070
     7
1000
_EX_NORM
1070
   341
1005
28
1002
}
  0
LINE
  5
3FA
100
AcDbEntity
  8
図
  6
CONTINUOUS
 62
     6
100
AcDbLine
 10
1513.964228
 20
1359.910596
 30
0.0
 11
1513.089617
 21
1357.724069
 31
0.0
  0
LINE
  5
3FB
100
AcDbEntity
  8
図
  6
CONTINUOUS
 62
     6
100
AcDbLine
 10
1564.035752
 20
1359.910596
 30
0.0
 11
1564.67588
 21
1358.310276
 31
0.0
  0
LINE
  5
3FC
100
AcDbEntity
  8
図
  6
EXLTYPE4
 62
     6
100
AcDbLine
 10
227.0
 20
554.0
 30
0.0
 11
1086.0
 21
554.0
 31
0.0
  0
TEXT
  5
3FD
100
AcDbEntity
  8
図
  6
CONTINUOUS
 62
     2
100
AcDbText
 10
1677.99999
 20
1530.00001
 30
0.0
 40
40.0
  1
W.L.
 50
90.0
 41
0.4125
  7
EXCADSTD
 72
     5
 11
1677.99999
 21
1590.49561
 31
0.0
100
AcDbText
  0
LINE
  5
3FE
100
AcDbEntity
  8
図
  6
EXLTYPE4
 62
     6
100
AcDbLine
 10
1677.99999
 20
554.0
 30
0.0
 11
1677.99999
 21
1614.0
 31
0.0
  0
LINE
  5
3FF
100
AcDbEntity
  8
図
  6
EXLTYPE4
 62
     6
100
AcDbLine
 10
1128.0
 20
554.0
 30
0.0
 11
1677.99999
 21
554.0
 31
0.0
  0
TEXT
  5
400
100
AcDbEntity
  8
図
  6
CONTINUOUS
 62
     2
100
AcDbText
 10
1149.5
 20
554.0
 30
0.0
 40
40.0
  1
F.L.
 41
0.4125
  7
EXCADSTD
 72
     5
 11
1209.9956
 21
554.0
 31
0.0
100
AcDbText
  0
LINE
  5
401
100
AcDbEntity
  8
図
  6
EXLTYPE3
 62
     6
100
AcDbLine
 10
1593.001678
 20
764.0
 30
0.0
 11
1593.001678
 21
536.0
 31
0.0
  0
LINE
  5
402
100
AcDbEntity
  8
図
  6
EXLTYPE4
 62
     6
100
AcDbLine
 10
1603.501678
 20
754.0
 30
0.0
 11
1603.501678
 21
546.0
 31
0.0
  0
LINE
  5
403
100
AcDbEntity
  8
図
  6
EXLTYPE4
 62
     6
100
AcDbLine
 10
1582.501678
 20
754.0
 30
0.0
 11
1582.501678
 21
546.0
 31
0.0
  0
LINE
  5
404
100
AcDbEntity
  8
図
  6
CONTINUOUS
 62
     6
100
AcDbLine
 10
1603.501678
 20
546.0
 30
0.0
 11
1582.501678
 21
546.0
 31
0.0
  0
LINE
  5
405
100
AcDbEntity
  8
図
  6
EXLTYPE3
 62
     6
100
AcDbLine
 10
663.0
 20
764.0
 30
0.0
 11
663.0
 21
536.0
 31
0.0
  0
LINE
  5
406
100
AcDbEntity
  8
図
  6
EXLTYPE3
 62
     6
100
AcDbLine
 10
513.0
 20
764.0
 30
0.0
 11
513.0
 21
536.0
 31
0.0
  0
LINE
  5
407
100
AcDbEntity
  8
図
  6
EXLTYPE3
 62
     6
100
AcDbLine
 10
1703.339152
 20
934.0
 30
0.0
 11
1552.916118
 21
934.0
 31
0.0
  0
LINE
  5
408
100
AcDbEntity
  8
図
  6
CONTINUOUS
 62
     6
100
AcDbLine
 10
1577.50119
 20
921.994385
 30
0.0
 11
1583.319061
 21
921.994385
 31
0.0
  0
POLYLINE
  5
409
100
AcDbEntity
  8
図
  6
CONTINUOUS
 62
     6
100
AcDb2dPolyline
 66
     1
 10
0.0
 20
0.0
 30
0.0
 70
   128
  0
VERTEX
  5
40A
100
AcDbEntity
  8
図
  6
CONTINUOUS
 62
     6
100
AcDbVertex
100
AcDb2dVertex
 10
1570.355194
 20
921.940064
 30
0.0
  0
VERTEX
  5
40B
100
AcDbEntity
  8
図
  6
CONTINUOUS
 62
     6
100
AcDbVertex
100
AcDb2dVertex
 10
1570.289276
 20
922.191834
 30
0.0
  0
VERTEX
  5
40C
100
AcDbEntity
  8
図
  6
CONTINUOUS
 62
     6
100
AcDbVertex
100
AcDb2dVertex
 10
1570.250213
 20
922.447723
 30
0.0
  0
VERTEX
  5
40D
100
AcDbEntity
  8
図
  6
CONTINUOUS
 62
     6
100
AcDbVertex
100
AcDb2dVertex
 10
1570.235565
 20
922.705597
 30
0.0
  0
SEQEND
  5
40E
100
AcDbEntity
  8
図
  6
CONTINUOUS
 62
     6
  0
POLYLINE
  5
40F
100
AcDbEntity
  8
図
  6
CONTINUOUS
 62
     6
100
AcDb2dPolyline
 66
     1
 10
0.0
 20
0.0
 30
0.0
 70
   128
  0
VERTEX
  5
410
100
AcDbEntity
  8
図
  6
CONTINUOUS
 62
     6
100
AcDbVertex
100
AcDb2dVertex
 10
1572.252166
 20
920.026306
 30
0.0
  0
VERTEX
  5
411
100
AcDbEntity
  8
図
  6
CONTINUOUS
 62
     6
100
AcDbVertex
100
AcDb2dVertex
 10
1571.98117
 20
920.14502
 30
0.0
  0
VERTEX
  5
412
100
AcDbEntity
  8
図
  6
CONTINUOUS
 62
     6
100
AcDbVertex
100
AcDb2dVertex
 10
1571.724823
 20
920.283569
 30
0.0
  0
VERTEX
  5
413
100
AcDbEntity
  8
図
  6
CONTINUOUS
 62
     6
100
AcDbVertex
100
AcDb2dVertex
 10
1571.480682
 20
920.440582
 30
0.0
  0
VERTEX
  5
414
100
AcDbEntity
  8
図
  6
CONTINUOUS
 62
     6
100
AcDbVertex
100
AcDb2dVertex
 10
1571.258514
 20
920.614685
 30
0.0
  0
VERTEX
  5
415
100
AcDbEntity
  8
図
  6
CONTINUOUS
 62
     6
100
AcDbVertex
100
AcDb2dVertex
 10
1571.053436
 20
920.80481
 30
0.0
  0
VERTEX
  5
416
100
AcDbEntity
  8
図
  6
CONTINUOUS
 62
     6
100
AcDbVertex
100
AcDb2dVertex
 10
1570.867889
 20
921.00943
 30
0.0
  0
VERTEX
  5
417
100
AcDbEntity
  8
図
  6
CONTINUOUS
 62
     6
100
AcDbVertex
100
AcDb2dVertex
 10
1570.701873
 20
921.226868
 30
0.0
  0
VERTEX
  5
418
100
AcDbEntity
  8
図
  6
CONTINUOUS
 62
     6
100
AcDbVertex
100
AcDb2dVertex
 10
1570.560272
 20
921.455597
 30
0.0
  0
VERTEX
  5
419
100
AcDbEntity
  8
図
  6
CONTINUOUS
 62
     6
100
AcDbVertex
100
AcDb2dVertex
 10
1570.445526
 20
921.693939
 30
0.0
  0
VERTEX
  5
41A
100
AcDbEntity
  8
図
  6
CONTINUOUS
 62
     6
100
AcDbVertex
100
AcDb2dVertex
 10
1570.355194
 20
921.940064
 30
0.0
  0
SEQEND
  5
41B
100
AcDbEntity
  8
図
  6
CONTINUOUS
 62
     6
  0
POLYLINE
  5
41C
100
AcDbEntity
  8
図
  6
CONTINUOUS
 62
     6
100
AcDb2dPolyline
 66
     1
 10
0.0
 20
0.0
 30
0.0
 70
   128
  0
VERTEX
  5
41D
100
AcDbEntity
  8
図
  6
CONTINUOUS
 62
     6
100
AcDbVertex
100
AcDb2dVertex
 10
1570.235565
 20
922.704987
 30
0.0
  0
VERTEX
  5
41E
100
AcDbEntity
  8
図
  6
CONTINUOUS
 62
     6
100
AcDbVertex
100
AcDb2dVertex
 10
1570.250213
 20
922.962708
 30
0.0
  0
VERTEX
  5
41F
100
AcDbEntity
  8
図
  6
CONTINUOUS
 62
     6
100
AcDbVertex
100
AcDb2dVertex
 10
1570.289276
 20
923.218292
 30
0.0
  0
VERTEX
  5
420
100
AcDbEntity
  8
図
  6
CONTINUOUS
 62
     6
100
AcDbVertex
100
AcDb2dVertex
 10
1570.355194
 20
923.470062
 30
0.0
  0
VERTEX
  5
421
100
AcDbEntity
  8
図
  6
CONTINUOUS
 62
     6
100
AcDbVertex
100
AcDb2dVertex
 10
1570.447967
 20
923.715881
 30
0.0
  0
VERTEX
  5
422
100
AcDbEntity
  8
図
  6
CONTINUOUS
 62
     6
100
AcDbVertex
100
AcDb2dVertex
 10
1570.562713
 20
923.954071
 30
0.0
  0
VERTEX
  5
423
100
AcDbEntity
  8
図
  6
CONTINUOUS
 62
     6
100
AcDbVertex
100
AcDb2dVertex
 10
1570.701873
 20
924.182953
 30
0.0
  0
VERTEX
  5
424
100
AcDbEntity
  8
図
  6
CONTINUOUS
 62
     6
100
AcDbVertex
100
AcDb2dVertex
 10
1570.865448
 20
924.400391
 30
0.0
  0
VERTEX
  5
425
100
AcDbEntity
  8
図
  6
CONTINUOUS
 62
     6
100
AcDbVertex
100
AcDb2dVertex
 10
1571.050994
 20
924.605011
 30
0.0
  0
VERTEX
  5
426
100
AcDbEntity
  8
図
  6
CONTINUOUS
 62
     6
100
AcDbVertex
100
AcDb2dVertex
 10
1571.258514
 20
924.795288
 30
0.0
  0
VERTEX
  5
427
100
AcDbEntity
  8
図
  6
CONTINUOUS
 62
     6
100
AcDbVertex
100
AcDb2dVertex
 10
1571.483123
 20
924.969543
 30
0.0
  0
VERTEX
  5
428
100
AcDbEntity
  8
図
  6
CONTINUOUS
 62
     6
100
AcDbVertex
100
AcDb2dVertex
 10
1571.724823
 20
925.126404
 30
0.0
  0
VERTEX
  5
429
100
AcDbEntity
  8
図
  6
CONTINUOUS
 62
     6
100
AcDbVertex
100
AcDb2dVertex
 10
1571.98117
 20
925.265106
 30
0.0
  0
VERTEX
  5
42A
100
AcDbEntity
  8
図
  6
CONTINUOUS
 62
     6
100
AcDbVertex
100
AcDb2dVertex
 10
1572.252166
 20
925.384125
 30
0.0
  0
VERTEX
  5
42B
100
AcDbEntity
  8
図
  6
CONTINUOUS
 62
     6
100
AcDbVertex
100
AcDb2dVertex
 10
1572.532928
 20
925.482849
 30
0.0
  0
VERTEX
  5
42C
100
AcDbEntity
  8
図
  6
CONTINUOUS
 62
     6
100
AcDbVertex
100
AcDb2dVertex
 10
1572.823455
 20
925.560211
 30
0.0
  0
VERTEX
  5
42D
100
AcDbEntity
  8
図
  6
CONTINUOUS
 62
     6
100
AcDbVertex
100
AcDb2dVertex
 10
1573.121307
 20
925.615906
 30
0.0
  0
VERTEX
  5
42E
100
AcDbEntity
  8
図
  6
CONTINUOUS
 62
     6
100
AcDbVertex
100
AcDb2dVertex
 10
1573.424041
 20
925.649475
 30
0.0
  0
VERTEX
  5
42F
100
AcDbEntity
  8
図
  6
CONTINUOUS
 62
     6
100
AcDbVertex
100
AcDb2dVertex
 10
1573.726776
 20
925.661072
 30
0.0
  0
VERTEX
  5
430
100
AcDbEntity
  8
図
  6
CONTINUOUS
 62
     6
100
AcDbVertex
100
AcDb2dVertex
 10
1574.031951
 20
925.64978
 30
0.0
  0
VERTEX
  5
431
100
AcDbEntity
  8
図
  6
CONTINUOUS
 62
     6
100
AcDbVertex
100
AcDb2dVertex
 10
1574.332244
 20
925.616058
 30
0.0
  0
VERTEX
  5
432
100
AcDbEntity
  8
図
  6
CONTINUOUS
 62
     6
100
AcDbVertex
100
AcDb2dVertex
 10
1574.630096
 20
925.560211
 30
0.0
  0
VERTEX
  5
433
100
AcDbEntity
  8
図
  6
CONTINUOUS
 62
     6
100
AcDbVertex
100
AcDb2dVertex
 10
1574.920623
 20
925.482544
 30
0.0
  0
VERTEX
  5
434
100
AcDbEntity
  8
図
  6
CONTINUOUS
 62
     6
100
AcDbVertex
100
AcDb2dVertex
 10
1575.201385
 20
925.383667
 30
0.0
  0
VERTEX
  5
435
100
AcDbEntity
  8
図
  6
CONTINUOUS
 62
     6
100
AcDbVertex
100
AcDb2dVertex
 10
1575.472381
 20
925.265106
 30
0.0
  0
VERTEX
  5
436
100
AcDbEntity
  8
図
  6
CONTINUOUS
 62
     6
100
AcDbVertex
100
AcDb2dVertex
 10
1575.728729
 20
925.126556
 30
0.0
  0
VERTEX
  5
437
100
AcDbEntity
  8
図
  6
CONTINUOUS
 62
     6
100
AcDbVertex
100
AcDb2dVertex
 10
1575.972869
 20
924.969543
 30
0.0
  0
VERTEX
  5
438
100
AcDbEntity
  8
図
  6
CONTINUOUS
 62
     6
100
AcDbVertex
100
AcDb2dVertex
 10
1576.195037
 20
924.795288
 30
0.0
  0
VERTEX
  5
439
100
AcDbEntity
  8
図
  6
CONTINUOUS
 62
     6
100
AcDbVertex
100
AcDb2dVertex
 10
1576.400116
 20
924.605164
 30
0.0
  0
VERTEX
  5
43A
100
AcDbEntity
  8
図
  6
CONTINUOUS
 62
     6
100
AcDbVertex
100
AcDb2dVertex
 10
1576.585662
 20
924.400543
 30
0.0
  0
VERTEX
  5
43B
100
AcDbEntity
  8
図
  6
CONTINUOUS
 62
     6
100
AcDbVertex
100
AcDb2dVertex
 10
1576.751678
 20
924.182953
 30
0.0
  0
VERTEX
  5
43C
100
AcDbEntity
  8
図
  6
CONTINUOUS
 62
     6
100
AcDbVertex
100
AcDb2dVertex
 10
1576.89328
 20
923.954224
 30
0.0
  0
VERTEX
  5
43D
100
AcDbEntity
  8
図
  6
CONTINUOUS
 62
     6
100
AcDbVertex
100
AcDb2dVertex
 10
1577.008026
 20
923.715881
 30
0.0
  0
VERTEX
  5
43E
100
AcDbEntity
  8
図
  6
CONTINUOUS
 62
     6
100
AcDbVertex
100
AcDb2dVertex
 10
1577.098358
 20
923.470062
 30
0.0
  0
VERTEX
  5
43F
100
AcDbEntity
  8
図
  6
CONTINUOUS
 62
     6
100
AcDbVertex
100
AcDb2dVertex
 10
1577.164276
 20
923.218292
 30
0.0
  0
VERTEX
  5
440
100
AcDbEntity
  8
図
  6
CONTINUOUS
 62
     6
100
AcDbVertex
100
AcDb2dVertex
 10
1577.203338
 20
922.962402
 30
0.0
  0
VERTEX
  5
441
100
AcDbEntity
  8
図
  6
CONTINUOUS
 62
     6
100
AcDbVertex
100
AcDb2dVertex
 10
1577.217987
 20
922.704987
 30
0.0
  0
VERTEX
  5
442
100
AcDbEntity
  8
図
  6
CONTINUOUS
 62
     6
100
AcDbVertex
100
AcDb2dVertex
 10
1577.203338
 20
922.447266
 30
0.0
  0
VERTEX
  5
443
100
AcDbEntity
  8
図
  6
CONTINUOUS
 62
     6
100
AcDbVertex
100
AcDb2dVertex
 10
1577.164276
 20
922.191681
 30
0.0
  0
VERTEX
  5
444
100
AcDbEntity
  8
図
  6
CONTINUOUS
 62
     6
100
AcDbVertex
100
AcDb2dVertex
 10
1577.098358
 20
921.940064
 30
0.0
  0
VERTEX
  5
445
100
AcDbEntity
  8
図
  6
CONTINUOUS
 62
     6
100
AcDbVertex
100
AcDb2dVertex
 10
1577.005584
 20
921.694244
 30
0.0
  0
VERTEX
  5
446
100
AcDbEntity
  8
図
  6
CONTINUOUS
 62
     6
100
AcDbVertex
100
AcDb2dVertex
 10
1576.890838
 20
921.456055
 30
0.0
  0
VERTEX
  5
447
100
AcDbEntity
  8
図
  6
CONTINUOUS
 62
     6
100
AcDbVertex
100
AcDb2dVertex
 10
1576.751678
 20
921.226868
 30
0.0
  0
VERTEX
  5
448
100
AcDbEntity
  8
図
  6
CONTINUOUS
 62
     6
100
AcDbVertex
100
AcDb2dVertex
 10
1576.588104
 20
921.00943
 30
0.0
  0
VERTEX
  5
449
100
AcDbEntity
  8
図
  6
CONTINUOUS
 62
     6
100
AcDbVertex
100
AcDb2dVertex
 10
1576.402557
 20
920.80481
 30
0.0
  0
VERTEX
  5
44A
100
AcDbEntity
  8
図
  6
CONTINUOUS
 62
     6
100
AcDbVertex
100
AcDb2dVertex
 10
1576.195037
 20
920.614685
 30
0.0
  0
VERTEX
  5
44B
100
AcDbEntity
  8
図
  6
CONTINUOUS
 62
     6
100
AcDbVertex
100
AcDb2dVertex
 10
1575.970428
 20
920.44043
 30
0.0
  0
VERTEX
  5
44C
100
AcDbEntity
  8
図
  6
CONTINUOUS
 62
     6
100
AcDbVertex
100
AcDb2dVertex
 10
1575.728729
 20
920.283569
 30
0.0
  0
VERTEX
  5
44D
100
AcDbEntity
  8
図
  6
CONTINUOUS
 62
     6
100
AcDbVertex
100
AcDb2dVertex
 10
1575.472381
 20
920.14502
 30
0.0
  0
VERTEX
  5
44E
100
AcDbEntity
  8
図
  6
CONTINUOUS
 62
     6
100
AcDbVertex
100
AcDb2dVertex
 10
1575.201385
 20
920.026001
 30
0.0
  0
VERTEX
  5
44F
100
AcDbEntity
  8
図
  6
CONTINUOUS
 62
     6
100
AcDbVertex
100
AcDb2dVertex
 10
1574.920623
 20
919.927277
 30
0.0
  0
VERTEX
  5
450
100
AcDbEntity
  8
図
  6
CONTINUOUS
 62
     6
100
AcDbVertex
100
AcDb2dVertex
 10
1574.630096
 20
919.849762
 30
0.0
  0
VERTEX
  5
451
100
AcDbEntity
  8
図
  6
CONTINUOUS
 62
     6
100
AcDbVertex
100
AcDb2dVertex
 10
1574.332244
 20
919.794067
 30
0.0
  0
VERTEX
  5
452
100
AcDbEntity
  8
図
  6
CONTINUOUS
 62
     6
100
AcDbVertex
100
AcDb2dVertex
 10
1574.02951
 20
919.760498
 30
0.0
  0
VERTEX
  5
453
100
AcDbEntity
  8
図
  6
CONTINUOUS
 62
     6
100
AcDbVertex
100
AcDb2dVertex
 10
1573.726776
 20
919.748749
 30
0.0
  0
VERTEX
  5
454
100
AcDbEntity
  8
図
  6
CONTINUOUS
 62
     6
100
AcDbVertex
100
AcDb2dVertex
 10
1573.4216
 20
919.76004
 30
0.0
  0
VERTEX
  5
455
100
AcDbEntity
  8
図
  6
CONTINUOUS
 62
     6
100
AcDbVertex
100
AcDb2dVertex
 10
1573.121307
 20
919.793762
 30
0.0
  0
VERTEX
  5
456
100
AcDbEntity
  8
図
  6
CONTINUOUS
 62
     6
100
AcDbVertex
100
AcDb2dVertex
 10
1572.823455
 20
919.849762
 30
0.0
  0
VERTEX
  5
457
100
AcDbEntity
  8
図
  6
CONTINUOUS
 62
     6
100
AcDbVertex
100
AcDb2dVertex
 10
1572.532928
 20
919.927429
 30
0.0
  0
VERTEX
  5
458
100
AcDbEntity
  8
図
  6
CONTINUOUS
 62
     6
100
AcDbVertex
100
AcDb2dVertex
 10
1572.252166
 20
920.026306
 30
0.0
  0
SEQEND
  5
459
100
AcDbEntity
  8
図
  6
CONTINUOUS
 62
     6
  0
POLYLINE
  5
45A
100
AcDbEntity
  8
図
  6
CONTINUOUS
 62
     6
100
AcDb2dPolyline
 66
     1
 10
0.0
 20
0.0
 30
0.0
 70
   128
  0
VERTEX
  5
45B
100
AcDbEntity
  8
図
  6
CONTINUOUS
 62
     6
100
AcDbVertex
100
AcDb2dVertex
 10
1570.355194
 20
932.488617
 30
0.0
  0
VERTEX
  5
45C
100
AcDbEntity
  8
図
  6
CONTINUOUS
 62
     6
100
AcDbVertex
100
AcDb2dVertex
 10
1570.289276
 20
932.985596
 30
0.0
  0
VERTEX
  5
45D
100
AcDbEntity
  8
図
  6
CONTINUOUS
 62
     6
100
AcDbVertex
100
AcDb2dVertex
 10
1570.250213
 20
933.490204
 30
0.0
  0
VERTEX
  5
45E
100
AcDbEntity
  8
図
  6
CONTINUOUS
 62
     6
100
AcDbVertex
100
AcDb2dVertex
 10
1570.238006
 20
933.998627
 30
0.0
  0
SEQEND
  5
45F
100
AcDbEntity
  8
図
  6
CONTINUOUS
 62
     6
  0
POLYLINE
  5
460
100
AcDbEntity
  8
図
  6
CONTINUOUS
 62
     6
100
AcDb2dPolyline
 66
     1
 10
0.0
 20
0.0
 30
0.0
 70
   128
  0
VERTEX
  5
461
100
AcDbEntity
  8
図
  6
CONTINUOUS
 62
     6
100
AcDbVertex
100
AcDb2dVertex
 10
1572.252166
 20
928.710693
 30
0.0
  0
VERTEX
  5
462
100
AcDbEntity
  8
図
  6
CONTINUOUS
 62
     6
100
AcDbVertex
100
AcDb2dVertex
 10
1571.98117
 20
928.945374
 30
0.0
  0
VERTEX
  5
463
100
AcDbEntity
  8
図
  6
CONTINUOUS
 62
     6
100
AcDbVertex
100
AcDb2dVertex
 10
1571.724823
 20
929.218811
 30
0.0
  0
VERTEX
  5
464
100
AcDbEntity
  8
図
  6
CONTINUOUS
 62
     6
100
AcDbVertex
100
AcDb2dVertex
 10
1571.480682
 20
929.528717
 30
0.0
  0
VERTEX
  5
465
100
AcDbEntity
  8
図
  6
CONTINUOUS
 62
     6
100
AcDbVertex
100
AcDb2dVertex
 10
1571.258514
 20
929.872955
 30
0.0
  0
VERTEX
  5
466
100
AcDbEntity
  8
図
  6
CONTINUOUS
 62
     6
100
AcDbVertex
100
AcDb2dVertex
 10
1571.053436
 20
930.248322
 30
0.0
  0
VERTEX
  5
467
100
AcDbEntity
  8
図
  6
CONTINUOUS
 62
     6
100
AcDbVertex
100
AcDb2dVertex
 10
1570.867889
 20
930.652374
 30
0.0
  0
VERTEX
  5
468
100
AcDbEntity
  8
図
  6
CONTINUOUS
 62
     6
100
AcDbVertex
100
AcDb2dVertex
 10
1570.701873
 20
931.081299
 30
0.0
  0
VERTEX
  5
469
100
AcDbEntity
  8
図
  6
CONTINUOUS
 62
     6
100
AcDbVertex
100
AcDb2dVertex
 10
1570.560272
 20
931.532959
 30
0.0
  0
VERTEX
  5
46A
100
AcDbEntity
  8
図
  6
CONTINUOUS
 62
     6
100
AcDbVertex
100
AcDb2dVertex
 10
1570.445526
 20
932.003387
 30
0.0
  0
VERTEX
  5
46B
100
AcDbEntity
  8
図
  6
CONTINUOUS
 62
     6
100
AcDbVertex
100
AcDb2dVertex
 10
1570.355194
 20
932.488617
 30
0.0
  0
SEQEND
  5
46C
100
AcDbEntity
  8
図
  6
CONTINUOUS
 62
     6
  0
POLYLINE
  5
46D
100
AcDbEntity
  8
図
  6
CONTINUOUS
 62
     6
100
AcDb2dPolyline
 66
     1
 10
0.0
 20
0.0
 30
0.0
 70
   128
  0
VERTEX
  5
46E
100
AcDbEntity
  8
図
  6
CONTINUOUS
 62
     6
100
AcDbVertex
100
AcDb2dVertex
 10
1570.235565
 20
933.998932
 30
0.0
  0
VERTEX
  5
46F
100
AcDbEntity
  8
図
  6
CONTINUOUS
 62
     6
100
AcDbVertex
100
AcDb2dVertex
 10
1570.247772
 20
934.507507
 30
0.0
  0
VERTEX
  5
470
100
AcDbEntity
  8
図
  6
CONTINUOUS
 62
     6
100
AcDbVertex
100
AcDb2dVertex
 10
1570.289276
 20
935.012116
 30
0.0
  0
VERTEX
  5
471
100
AcDbEntity
  8
図
  6
CONTINUOUS
 62
     6
100
AcDbVertex
100
AcDb2dVertex
 10
1570.355194
 20
935.509247
 30
0.0
  0
VERTEX
  5
472
100
AcDbEntity
  8
図
  6
CONTINUOUS
 62
     6
100
AcDbVertex
100
AcDb2dVertex
 10
1570.445526
 20
935.994782
 30
0.0
  0
VERTEX
  5
473
100
AcDbEntity
  8
図
  6
CONTINUOUS
 62
     6
100
AcDbVertex
100
AcDb2dVertex
 10
1570.562713
 20
936.46521
 30
0.0
  0
VERTEX
  5
474
100
AcDbEntity
  8
図
  6
CONTINUOUS
 62
     6
100
AcDbVertex
100
AcDb2dVertex
 10
1570.701873
 20
936.916412
 30
0.0
  0
VERTEX
  5
475
100
AcDbEntity
  8
図
  6
CONTINUOUS
 62
     6
100
AcDbVertex
100
AcDb2dVertex
 10
1570.865448
 20
937.345642
 30
0.0
  0
VERTEX
  5
476
100
AcDbEntity
  8
図
  6
CONTINUOUS
 62
     6
100
AcDbVertex
100
AcDb2dVertex
 10
1571.050994
 20
937.749542
 30
0.0
  0
VERTEX
  5
477
100
AcDbEntity
  8
図
  6
CONTINUOUS
 62
     6
100
AcDbVertex
100
AcDb2dVertex
 10
1571.258514
 20
938.124908
 30
0.0
  0
VERTEX
  5
478
100
AcDbEntity
  8
図
  6
CONTINUOUS
 62
     6
100
AcDbVertex
100
AcDb2dVertex
 10
1571.483123
 20
938.468689
 30
0.0
  0
VERTEX
  5
479
100
AcDbEntity
  8
図
  6
CONTINUOUS
 62
     6
100
AcDbVertex
100
AcDb2dVertex
 10
1571.724823
 20
938.778442
 30
0.0
  0
VERTEX
  5
47A
100
AcDbEntity
  8
図
  6
CONTINUOUS
 62
     6
100
AcDbVertex
100
AcDb2dVertex
 10
1571.98117
 20
939.05249
 30
0.0
  0
VERTEX
  5
47B
100
AcDbEntity
  8
図
  6
CONTINUOUS
 62
     6
100
AcDbVertex
100
AcDb2dVertex
 10
1572.252166
 20
939.287476
 30
0.0
  0
VERTEX
  5
47C
100
AcDbEntity
  8
図
  6
CONTINUOUS
 62
     6
100
AcDbVertex
100
AcDb2dVertex
 10
1572.532928
 20
939.482483
 30
0.0
  0
VERTEX
  5
47D
100
AcDbEntity
  8
図
  6
CONTINUOUS
 62
     6
100
AcDbVertex
100
AcDb2dVertex
 10
1572.823455
 20
939.635223
 30
0.0
  0
VERTEX
  5
47E
100
AcDbEntity
  8
図
  6
CONTINUOUS
 62
     6
100
AcDbVertex
100
AcDb2dVertex
 10
1573.121307
 20
939.745239
 30
0.0
  0
VERTEX
  5
47F
100
AcDbEntity
  8
図
  6
CONTINUOUS
 62
     6
100
AcDbVertex
100
AcDb2dVertex
 10
1573.424041
 20
939.811615
 30
0.0
  0
VERTEX
  5
480
100
AcDbEntity
  8
図
  6
CONTINUOUS
 62
     6
100
AcDbVertex
100
AcDb2dVertex
 10
1573.726776
 20
939.834045
 30
0.0
  0
VERTEX
  5
481
100
AcDbEntity
  8
図
  6
CONTINUOUS
 62
     6
100
AcDbVertex
100
AcDb2dVertex
 10
1574.031951
 20
939.811768
 30
0.0
  0
VERTEX
  5
482
100
AcDbEntity
  8
図
  6
CONTINUOUS
 62
     6
100
AcDbVertex
100
AcDb2dVertex
 10
1574.332244
 20
939.745087
 30
0.0
  0
VERTEX
  5
483
100
AcDbEntity
  8
図
  6
CONTINUOUS
 62
     6
100
AcDbVertex
100
AcDb2dVertex
 10
1574.630096
 20
939.635223
 30
0.0
  0
VERTEX
  5
484
100
AcDbEntity
  8
図
  6
CONTINUOUS
 62
     6
100
AcDbVertex
100
AcDb2dVertex
 10
1574.920623
 20
939.482025
 30
0.0
  0
VERTEX
  5
485
100
AcDbEntity
  8
図
  6
CONTINUOUS
 62
     6
100
AcDbVertex
100
AcDb2dVertex
 10
1575.201385
 20
939.28717
 30
0.0
  0
VERTEX
  5
486
100
AcDbEntity
  8
図
  6
CONTINUOUS
 62
     6
100
AcDbVertex
100
AcDb2dVertex
 10
1575.472381
 20
939.05249
 30
0.0
  0
VERTEX
  5
487
100
AcDbEntity
  8
図
  6
CONTINUOUS
 62
     6
100
AcDbVertex
100
AcDb2dVertex
 10
1575.728729
 20
938.779053
 30
0.0
  0
VERTEX
  5
488
100
AcDbEntity
  8
図
  6
CONTINUOUS
 62
     6
100
AcDbVertex
100
AcDb2dVertex
 10
1575.972869
 20
938.469147
 30
0.0
  0
VERTEX
  5
489
100
AcDbEntity
  8
図
  6
CONTINUOUS
 62
     6
100
AcDbVertex
100
AcDb2dVertex
 10
1576.195037
 20
938.124908
 30
0.0
  0
VERTEX
  5
48A
100
AcDbEntity
  8
図
  6
CONTINUOUS
 62
     6
100
AcDbVertex
100
AcDb2dVertex
 10
1576.400116
 20
937.749542
 30
0.0
  0
VERTEX
  5
48B
100
AcDbEntity
  8
図
  6
CONTINUOUS
 62
     6
100
AcDbVertex
100
AcDb2dVertex
 10
1576.585662
 20
937.34549
 30
0.0
  0
VERTEX
  5
48C
100
AcDbEntity
  8
図
  6
CONTINUOUS
 62
     6
100
AcDbVertex
100
AcDb2dVertex
 10
1576.751678
 20
936.916412
 30
0.0
  0
VERTEX
  5
48D
100
AcDbEntity
  8
図
  6
CONTINUOUS
 62
     6
100
AcDbVertex
100
AcDb2dVertex
 10
1576.89328
 20
936.464752
 30
0.0
  0
VERTEX
  5
48E
100
AcDbEntity
  8
図
  6
CONTINUOUS
 62
     6
100
AcDbVertex
100
AcDb2dVertex
 10
1577.008026
 20
935.994324
 30
0.0
  0
VERTEX
  5
48F
100
AcDbEntity
  8
図
  6
CONTINUOUS
 62
     6
100
AcDbVertex
100
AcDb2dVertex
 10
1577.098358
 20
935.509247
 30
0.0
  0
VERTEX
  5
490
100
AcDbEntity
  8
図
  6
CONTINUOUS
 62
     6
100
AcDbVertex
100
AcDb2dVertex
 10
1577.164276
 20
935.012268
 30
0.0
  0
VERTEX
  5
491
100
AcDbEntity
  8
図
  6
CONTINUOUS
 62
     6
100
AcDbVertex
100
AcDb2dVertex
 10
1577.203338
 20
934.50766
 30
0.0
  0
VERTEX
  5
492
100
AcDbEntity
  8
図
  6
CONTINUOUS
 62
     6
100
AcDbVertex
100
AcDb2dVertex
 10
1577.217987
 20
933.998932
 30
0.0
  0
VERTEX
  5
493
100
AcDbEntity
  8
図
  6
CONTINUOUS
 62
     6
100
AcDbVertex
100
AcDb2dVertex
 10
1577.20578
 20
933.490356
 30
0.0
  0
VERTEX
  5
494
100
AcDbEntity
  8
図
  6
CONTINUOUS
 62
     6
100
AcDbVertex
100
AcDb2dVertex
 10
1577.164276
 20
932.985748
 30
0.0
  0
VERTEX
  5
495
100
AcDbEntity
  8
図
  6
CONTINUOUS
 62
     6
100
AcDbVertex
100
AcDb2dVertex
 10
1577.098358
 20
932.488617
 30
0.0
  0
VERTEX
  5
496
100
AcDbEntity
  8
図
  6
CONTINUOUS
 62
     6
100
AcDbVertex
100
AcDb2dVertex
 10
1577.008026
 20
932.003082
 30
0.0
  0
VERTEX
  5
497
100
AcDbEntity
  8
図
  6
CONTINUOUS
 62
     6
100
AcDbVertex
100
AcDb2dVertex
 10
1576.890838
 20
931.532654
 30
0.0
  0
VERTEX
  5
498
100
AcDbEntity
  8
図
  6
CONTINUOUS
 62
     6
100
AcDbVertex
100
AcDb2dVertex
 10
1576.751678
 20
931.081299
 30
0.0
  0
VERTEX
  5
499
100
AcDbEntity
  8
図
  6
CONTINUOUS
 62
     6
100
AcDbVertex
100
AcDb2dVertex
 10
1576.588104
 20
930.652069
 30
0.0
  0
VERTEX
  5
49A
100
AcDbEntity
  8
図
  6
CONTINUOUS
 62
     6
100
AcDbVertex
100
AcDb2dVertex
 10
1576.402557
 20
930.248169
 30
0.0
  0
VERTEX
  5
49B
100
AcDbEntity
  8
図
  6
CONTINUOUS
 62
     6
100
AcDbVertex
100
AcDb2dVertex
 10
1576.195037
 20
929.872955
 30
0.0
  0
VERTEX
  5
49C
100
AcDbEntity
  8
図
  6
CONTINUOUS
 62
     6
100
AcDbVertex
100
AcDb2dVertex
 10
1575.970428
 20
929.529175
 30
0.0
  0
VERTEX
  5
49D
100
AcDbEntity
  8
図
  6
CONTINUOUS
 62
     6
100
AcDbVertex
100
AcDb2dVertex
 10
1575.728729
 20
929.219421
 30
0.0
  0
VERTEX
  5
49E
100
AcDbEntity
  8
図
  6
CONTINUOUS
 62
     6
100
AcDbVertex
100
AcDb2dVertex
 10
1575.472381
 20
928.945374
 30
0.0
  0
VERTEX
  5
49F
100
AcDbEntity
  8
図
  6
CONTINUOUS
 62
     6
100
AcDbVertex
100
AcDb2dVertex
 10
1575.201385
 20
928.710388
 30
0.0
  0
VERTEX
  5
4A0
100
AcDbEntity
  8
図
  6
CONTINUOUS
 62
     6
100
AcDbVertex
100
AcDb2dVertex
 10
1574.920623
 20
928.515381
 30
0.0
  0
VERTEX
  5
4A1
100
AcDbEntity
  8
図
  6
CONTINUOUS
 62
     6
100
AcDbVertex
100
AcDb2dVertex
 10
1574.630096
 20
928.36264
 30
0.0
  0
VERTEX
  5
4A2
100
AcDbEntity
  8
図
  6
CONTINUOUS
 62
     6
100
AcDbVertex
100
AcDb2dVertex
 10
1574.332244
 20
928.252625
 30
0.0
  0
VERTEX
  5
4A3
100
AcDbEntity
  8
図
  6
CONTINUOUS
 62
     6
100
AcDbVertex
100
AcDb2dVertex
 10
1574.02951
 20
928.186249
 30
0.0
  0
VERTEX
  5
4A4
100
AcDbEntity
  8
図
  6
CONTINUOUS
 62
     6
100
AcDbVertex
100
AcDb2dVertex
 10
1573.726776
 20
928.163818
 30
0.0
  0
VERTEX
  5
4A5
100
AcDbEntity
  8
図
  6
CONTINUOUS
 62
     6
100
AcDbVertex
100
AcDb2dVertex
 10
1573.4216
 20
928.186096
 30
0.0
  0
VERTEX
  5
4A6
100
AcDbEntity
  8
図
  6
CONTINUOUS
 62
     6
100
AcDbVertex
100
AcDb2dVertex
 10
1573.121307
 20
928.252777
 30
0.0
  0
VERTEX
  5
4A7
100
AcDbEntity
  8
図
  6
CONTINUOUS
 62
     6
100
AcDbVertex
100
AcDb2dVertex
 10
1572.823455
 20
928.36264
 30
0.0
  0
VERTEX
  5
4A8
100
AcDbEntity
  8
図
  6
CONTINUOUS
 62
     6
100
AcDbVertex
100
AcDb2dVertex
 10
1572.532928
 20
928.515839
 30
0.0
  0
VERTEX
  5
4A9
100
AcDbEntity
  8
図
  6
CONTINUOUS
 62
     6
100
AcDbVertex
100
AcDb2dVertex
 10
1572.252166
 20
928.710693
 30
0.0
  0
SEQEND
  5
4AA
100
AcDbEntity
  8
図
  6
CONTINUOUS
 62
     6
  0
POLYLINE
  5
4AB
100
AcDbEntity
  8
図
  6
CONTINUOUS
 62
     6
100
AcDb2dPolyline
 66
     1
 10
0.0
 20
0.0
 30
0.0
 70
   128
  0
VERTEX
  5
4AC
100
AcDbEntity
  8
図
  6
CONTINUOUS
 62
     6
100
AcDbVertex
100
AcDb2dVertex
 10
1570.355194
 20
944.530396
 30
0.0
  0
VERTEX
  5
4AD
100
AcDbEntity
  8
図
  6
CONTINUOUS
 62
     6
100
AcDbVertex
100
AcDb2dVertex
 10
1570.289276
 20
944.782013
 30
0.0
  0
VERTEX
  5
4AE
100
AcDbEntity
  8
図
  6
CONTINUOUS
 62
     6
100
AcDbVertex
100
AcDb2dVertex
 10
1570.250213
 20
945.03775
 30
0.0
  0
VERTEX
  5
4AF
100
AcDbEntity
  8
図
  6
CONTINUOUS
 62
     6
100
AcDbVertex
100
AcDb2dVertex
 10
1570.235565
 20
945.295471
 30
0.0
  0
SEQEND
  5
4B0
100
AcDbEntity
  8
図
  6
CONTINUOUS
 62
     6
  0
POLYLINE
  5
4B1
100
AcDbEntity
  8
図
  6
CONTINUOUS
 62
     6
100
AcDb2dPolyline
 66
     1
 10
0.0
 20
0.0
 30
0.0
 70
   128
  0
VERTEX
  5
4B2
100
AcDbEntity
  8
図
  6
CONTINUOUS
 62
     6
100
AcDbVertex
100
AcDb2dVertex
 10
1572.252166
 20
942.617554
 30
0.0
  0
VERTEX
  5
4B3
100
AcDbEntity
  8
図
  6
CONTINUOUS
 62
     6
100
AcDbVertex
100
AcDb2dVertex
 10
1571.98117
 20
942.73642
 30
0.0
  0
VERTEX
  5
4B4
100
AcDbEntity
  8
図
  6
CONTINUOUS
 62
     6
100
AcDbVertex
100
AcDb2dVertex
 10
1571.724823
 20
942.87497
 30
0.0
  0
VERTEX
  5
4B5
100
AcDbEntity
  8
図
  6
CONTINUOUS
 62
     6
100
AcDbVertex
100
AcDb2dVertex
 10
1571.480682
 20
943.03183
 30
0.0
  0
VERTEX
  5
4B6
100
AcDbEntity
  8
図
  6
CONTINUOUS
 62
     6
100
AcDbVertex
100
AcDb2dVertex
 10
1571.258514
 20
943.205933
 30
0.0
  0
VERTEX
  5
4B7
100
AcDbEntity
  8
図
  6
CONTINUOUS
 62
     6
100
AcDbVertex
100
AcDb2dVertex
 10
1571.053436
 20
943.396057
 30
0.0
  0
VERTEX
  5
4B8
100
AcDbEntity
  8
図
  6
CONTINUOUS
 62
     6
100
AcDbVertex
100
AcDb2dVertex
 10
1570.867889
 20
943.600678
 30
0.0
  0
VERTEX
  5
4B9
100
AcDbEntity
  8
図
  6
CONTINUOUS
 62
     6
100
AcDbVertex
100
AcDb2dVertex
 10
1570.701873
 20
943.817505
 30
0.0
  0
VERTEX
  5
4BA
100
AcDbEntity
  8
図
  6
CONTINUOUS
 62
     6
100
AcDbVertex
100
AcDb2dVertex
 10
1570.560272
 20
944.046082
 30
0.0
  0
VERTEX
  5
4BB
100
AcDbEntity
  8
図
  6
CONTINUOUS
 62
     6
100
AcDbVertex
100
AcDb2dVertex
 10
1570.445526
 20
944.284119
 30
0.0
  0
VERTEX
  5
4BC
100
AcDbEntity
  8
図
  6
CONTINUOUS
 62
     6
100
AcDbVertex
100
AcDb2dVertex
 10
1570.355194
 20
944.530396
 30
0.0
  0
SEQEND
  5
4BD
100
AcDbEntity
  8
図
  6
CONTINUOUS
 62
     6
  0
POLYLINE
  5
4BE
100
AcDbEntity
  8
図
  6
CONTINUOUS
 62
     6
100
AcDb2dPolyline
 66
     1
 10
0.0
 20
0.0
 30
0.0
 70
   128
  0
VERTEX
  5
4BF
100
AcDbEntity
  8
図
  6
CONTINUOUS
 62
     6
100
AcDbVertex
100
AcDb2dVertex
 10
1570.235565
 20
945.294861
 30
0.0
  0
VERTEX
  5
4C0
100
AcDbEntity
  8
図
  6
CONTINUOUS
 62
     6
100
AcDbVertex
100
AcDb2dVertex
 10
1570.250213
 20
945.552429
 30
0.0
  0
VERTEX
  5
4C1
100
AcDbEntity
  8
図
  6
CONTINUOUS
 62
     6
100
AcDbVertex
100
AcDb2dVertex
 10
1570.289276
 20
945.808167
 30
0.0
  0
VERTEX
  5
4C2
100
AcDbEntity
  8
図
  6
CONTINUOUS
 62
     6
100
AcDbVertex
100
AcDb2dVertex
 10
1570.355194
 20
946.059631
 30
0.0
  0
VERTEX
  5
4C3
100
AcDbEntity
  8
図
  6
CONTINUOUS
 62
     6
100
AcDbVertex
100
AcDb2dVertex
 10
1570.447967
 20
946.30545
 30
0.0
  0
VERTEX
  5
4C4
100
AcDbEntity
  8
図
  6
CONTINUOUS
 62
     6
100
AcDbVertex
100
AcDb2dVertex
 10
1570.562713
 20
946.543793
 30
0.0
  0
VERTEX
  5
4C5
100
AcDbEntity
  8
図
  6
CONTINUOUS
 62
     6
100
AcDbVertex
100
AcDb2dVertex
 10
1570.701873
 20
946.771912
 30
0.0
  0
VERTEX
  5
4C6
100
AcDbEntity
  8
図
  6
CONTINUOUS
 62
     6
100
AcDbVertex
100
AcDb2dVertex
 10
1570.865448
 20
946.989349
 30
0.0
  0
VERTEX
  5
4C7
100
AcDbEntity
  8
図
  6
CONTINUOUS
 62
     6
100
AcDbVertex
100
AcDb2dVertex
 10
1571.050994
 20
947.193817
 30
0.0
  0
VERTEX
  5
4C8
100
AcDbEntity
  8
図
  6
CONTINUOUS
 62
     6
100
AcDbVertex
100
AcDb2dVertex
 10
1571.258514
 20
947.383942
 30
0.0
  0
VERTEX
  5
4C9
100
AcDbEntity
  8
図
  6
CONTINUOUS
 62
     6
100
AcDbVertex
100
AcDb2dVertex
 10
1571.483123
 20
947.558044
 30
0.0
  0
VERTEX
  5
4CA
100
AcDbEntity
  8
図
  6
CONTINUOUS
 62
     6
100
AcDbVertex
100
AcDb2dVertex
 10
1571.724823
 20
947.71521
 30
0.0
  0
VERTEX
  5
4CB
100
AcDbEntity
  8
図
  6
CONTINUOUS
 62
     6
100
AcDbVertex
100
AcDb2dVertex
 10
1571.98117
 20
947.853149
 30
0.0
  0
VERTEX
  5
4CC
100
AcDbEntity
  8
図
  6
CONTINUOUS
 62
     6
100
AcDbVertex
100
AcDb2dVertex
 10
1572.252166
 20
947.972015
 30
0.0
  0
VERTEX
  5
4CD
100
AcDbEntity
  8
図
  6
CONTINUOUS
 62
     6
100
AcDbVertex
100
AcDb2dVertex
 10
1572.532928
 20
948.070587
 30
0.0
  0
VERTEX
  5
4CE
100
AcDbEntity
  8
図
  6
CONTINUOUS
 62
     6
100
AcDbVertex
100
AcDb2dVertex
 10
1572.823455
 20
948.148102
 30
0.0
  0
VERTEX
  5
4CF
100
AcDbEntity
  8
図
  6
CONTINUOUS
 62
     6
100
AcDbVertex
100
AcDb2dVertex
 10
1573.121307
 20
948.203796
 30
0.0
  0
VERTEX
  5
4D0
100
AcDbEntity
  8
図
  6
CONTINUOUS
 62
     6
100
AcDbVertex
100
AcDb2dVertex
 10
1573.424041
 20
948.237213
 30
0.0
  0
VERTEX
  5
4D1
100
AcDbEntity
  8
図
  6
CONTINUOUS
 62
     6
100
AcDbVertex
100
AcDb2dVertex
 10
1573.726776
 20
948.248962
 30
0.0
  0
VERTEX
  5
4D2
100
AcDbEntity
  8
図
  6
CONTINUOUS
 62
     6
100
AcDbVertex
100
AcDb2dVertex
 10
1574.031951
 20
948.237671
 30
0.0
  0
VERTEX
  5
4D3
100
AcDbEntity
  8
図
  6
CONTINUOUS
 62
     6
100
AcDbVertex
100
AcDb2dVertex
 10
1574.332244
 20
948.204102
 30
0.0
  0
VERTEX
  5
4D4
100
AcDbEntity
  8
図
  6
CONTINUOUS
 62
     6
100
AcDbVertex
100
AcDb2dVertex
 10
1574.630096
 20
948.148102
 30
0.0
  0
VERTEX
  5
4D5
100
AcDbEntity
  8
図
  6
CONTINUOUS
 62
     6
100
AcDbVertex
100
AcDb2dVertex
 10
1574.920623
 20
948.070587
 30
0.0
  0
VERTEX
  5
4D6
100
AcDbEntity
  8
図
  6
CONTINUOUS
 62
     6
100
AcDbVertex
100
AcDb2dVertex
 10
1575.201385
 20
947.97171
 30
0.0
  0
VERTEX
  5
4D7
100
AcDbEntity
  8
図
  6
CONTINUOUS
 62
     6
100
AcDbVertex
100
AcDb2dVertex
 10
1575.472381
 20
947.853149
 30
0.0
  0
VERTEX
  5
4D8
100
AcDbEntity
  8
図
  6
CONTINUOUS
 62
     6
100
AcDbVertex
100
AcDb2dVertex
 10
1575.728729
 20
947.7146
 30
0.0
  0
VERTEX
  5
4D9
100
AcDbEntity
  8
図
  6
CONTINUOUS
 62
     6
100
AcDbVertex
100
AcDb2dVertex
 10
1575.972869
 20
947.557587
 30
0.0
  0
VERTEX
  5
4DA
100
AcDbEntity
  8
図
  6
CONTINUOUS
 62
     6
100
AcDbVertex
100
AcDb2dVertex
 10
1576.195037
 20
947.383942
 30
0.0
  0
VERTEX
  5
4DB
100
AcDbEntity
  8
図
  6
CONTINUOUS
 62
     6
100
AcDbVertex
100
AcDb2dVertex
 10
1576.400116
 20
947.19397
 30
0.0
  0
VERTEX
  5
4DC
100
AcDbEntity
  8
図
  6
CONTINUOUS
 62
     6
100
AcDbVertex
100
AcDb2dVertex
 10
1576.585662
 20
946.989655
 30
0.0
  0
VERTEX
  5
4DD
100
AcDbEntity
  8
図
  6
CONTINUOUS
 62
     6
100
AcDbVertex
100
AcDb2dVertex
 10
1576.751678
 20
946.771912
 30
0.0
  0
VERTEX
  5
4DE
100
AcDbEntity
  8
図
  6
CONTINUOUS
 62
     6
100
AcDbVertex
100
AcDb2dVertex
 10
1576.89328
 20
946.543335
 30
0.0
  0
VERTEX
  5
4DF
100
AcDbEntity
  8
図
  6
CONTINUOUS
 62
     6
100
AcDbVertex
100
AcDb2dVertex
 10
1577.008026
 20
946.305298
 30
0.0
  0
VERTEX
  5
4E0
100
AcDbEntity
  8
図
  6
CONTINUOUS
 62
     6
100
AcDbVertex
100
AcDb2dVertex
 10
1577.098358
 20
946.059631
 30
0.0
  0
VERTEX
  5
4E1
100
AcDbEntity
  8
図
  6
CONTINUOUS
 62
     6
100
AcDbVertex
100
AcDb2dVertex
 10
1577.164276
 20
945.808014
 30
0.0
  0
VERTEX
  5
4E2
100
AcDbEntity
  8
図
  6
CONTINUOUS
 62
     6
100
AcDbVertex
100
AcDb2dVertex
 10
1577.203338
 20
945.552734
 30
0.0
  0
VERTEX
  5
4E3
100
AcDbEntity
  8
図
  6
CONTINUOUS
 62
     6
100
AcDbVertex
100
AcDb2dVertex
 10
1577.217987
 20
945.294861
 30
0.0
  0
VERTEX
  5
4E4
100
AcDbEntity
  8
図
  6
CONTINUOUS
 62
     6
100
AcDbVertex
100
AcDb2dVertex
 10
1577.203338
 20
945.037445
 30
0.0
  0
VERTEX
  5
4E5
100
AcDbEntity
  8
図
  6
CONTINUOUS
 62
     6
100
AcDbVertex
100
AcDb2dVertex
 10
1577.164276
 20
944.782166
 30
0.0
  0
VERTEX
  5
4E6
100
AcDbEntity
  8
図
  6
CONTINUOUS
 62
     6
100
AcDbVertex
100
AcDb2dVertex
 10
1577.098358
 20
944.530396
 30
0.0
  0
VERTEX
  5
4E7
100
AcDbEntity
  8
図
  6
CONTINUOUS
 62
     6
100
AcDbVertex
100
AcDb2dVertex
 10
1577.005584
 20
944.284729
 30
0.0
  0
VERTEX
  5
4E8
100
AcDbEntity
  8
図
  6
CONTINUOUS
 62
     6
100
AcDbVertex
100
AcDb2dVertex
 10
1576.890838
 20
944.046692
 30
0.0
  0
VERTEX
  5
4E9
100
AcDbEntity
  8
図
  6
CONTINUOUS
 62
     6
100
AcDbVertex
100
AcDb2dVertex
 10
1576.751678
 20
943.817505
 30
0.0
  0
VERTEX
  5
4EA
100
AcDbEntity
  8
図
  6
CONTINUOUS
 62
     6
100
AcDbVertex
100
AcDb2dVertex
 10
1576.588104
 20
943.600067
 30
0.0
  0
VERTEX
  5
4EB
100
AcDbEntity
  8
図
  6
CONTINUOUS
 62
     6
100
AcDbVertex
100
AcDb2dVertex
 10
1576.402557
 20
943.395447
 30
0.0
  0
VERTEX
  5
4EC
100
AcDbEntity
  8
図
  6
CONTINUOUS
 62
     6
100
AcDbVertex
100
AcDb2dVertex
 10
1576.195037
 20
943.205933
 30
0.0
  0
VERTEX
  5
4ED
100
AcDbEntity
  8
図
  6
CONTINUOUS
 62
     6
100
AcDbVertex
100
AcDb2dVertex
 10
1575.970428
 20
943.03183
 30
0.0
  0
VERTEX
  5
4EE
100
AcDbEntity
  8
図
  6
CONTINUOUS
 62
     6
100
AcDbVertex
100
AcDb2dVertex
 10
1575.728729
 20
942.875122
 30
0.0
  0
VERTEX
  5
4EF
100
AcDbEntity
  8
図
  6
CONTINUOUS
 62
     6
100
AcDbVertex
100
AcDb2dVertex
 10
1575.472381
 20
942.73642
 30
0.0
  0
VERTEX
  5
4F0
100
AcDbEntity
  8
図
  6
CONTINUOUS
 62
     6
100
AcDbVertex
100
AcDb2dVertex
 10
1575.201385
 20
942.617401
 30
0.0
  0
VERTEX
  5
4F1
100
AcDbEntity
  8
図
  6
CONTINUOUS
 62
     6
100
AcDbVertex
100
AcDb2dVertex
 10
1574.920623
 20
942.518982
 30
0.0
  0
VERTEX
  5
4F2
100
AcDbEntity
  8
図
  6
CONTINUOUS
 62
     6
100
AcDbVertex
100
AcDb2dVertex
 10
1574.630096
 20
942.441315
 30
0.0
  0
VERTEX
  5
4F3
100
AcDbEntity
  8
図
  6
CONTINUOUS
 62
     6
100
AcDbVertex
100
AcDb2dVertex
 10
1574.332244
 20
942.38562
 30
0.0
  0
VERTEX
  5
4F4
100
AcDbEntity
  8
図
  6
CONTINUOUS
 62
     6
100
AcDbVertex
100
AcDb2dVertex
 10
1574.02951
 20
942.352051
 30
0.0
  0
VERTEX
  5
4F5
100
AcDbEntity
  8
図
  6
CONTINUOUS
 62
     6
100
AcDbVertex
100
AcDb2dVertex
 10
1573.726776
 20
942.340607
 30
0.0
  0
VERTEX
  5
4F6
100
AcDbEntity
  8
図
  6
CONTINUOUS
 62
     6
100
AcDbVertex
100
AcDb2dVertex
 10
1573.4216
 20
942.351898
 30
0.0
  0
VERTEX
  5
4F7
100
AcDbEntity
  8
図
  6
CONTINUOUS
 62
     6
100
AcDbVertex
100
AcDb2dVertex
 10
1573.121307
 20
942.385468
 30
0.0
  0
VERTEX
  5
4F8
100
AcDbEntity
  8
図
  6
CONTINUOUS
 62
     6
100
AcDbVertex
100
AcDb2dVertex
 10
1572.823455
 20
942.441315
 30
0.0
  0
VERTEX
  5
4F9
100
AcDbEntity
  8
図
  6
CONTINUOUS
 62
     6
100
AcDbVertex
100
AcDb2dVertex
 10
1572.532928
 20
942.518829
 30
0.0
  0
VERTEX
  5
4FA
100
AcDbEntity
  8
図
  6
CONTINUOUS
 62
     6
100
AcDbVertex
100
AcDb2dVertex
 10
1572.252166
 20
942.617554
 30
0.0
  0
SEQEND
  5
4FB
100
AcDbEntity
  8
図
  6
CONTINUOUS
 62
     6
  0
LINE
  5
4FC
100
AcDbEntity
  8
図
  6
CONTINUOUS
 62
     6
100
AcDbLine
 10
1569.114959
 20
922.251953
 30
0.0
 11
1569.114959
 21
945.744843
 31
0.0
  0
LINE
  5
4FD
100
AcDbEntity
  8
図
  6
CONTINUOUS
 62
     6
100
AcDbLine
 10
1564.600799
 20
939.298004
 30
0.0
 11
1569.114959
 21
945.744843
 31
0.0
  0
LINE
  5
4FE
100
AcDbEntity
  8
図
  6
CONTINUOUS
 62
     6
100
AcDbLine
 10
1564.600799
 20
928.698792
 30
0.0
 11
1564.600799
 21
939.298004
 31
0.0
  0
LINE
  5
4FF
100
AcDbEntity
  8
図
  6
CONTINUOUS
 62
     6
100
AcDbLine
 10
1569.114959
 20
922.251953
 30
0.0
 11
1564.600799
 21
928.698792
 31
0.0
  0
ARC
  5
500
100
AcDbEntity
  8
図
  6
CONTINUOUS
 62
     6
100
AcDbCircle
 10
1573.726776
 20
925.248779
 30
0.0
 40
5.500042
100
AcDbArc
 50
213.016403
 51
313.338501
  0
LINE
  5
501
100
AcDbEntity
  8
図
  6
CONTINUOUS
 62
     6
100
AcDbLine
 10
1577.50119
 20
921.24823
 30
0.0
 11
1577.50119
 21
946.749329
 31
0.0
  0
ARC
  5
502
100
AcDbEntity
  8
図
  6
CONTINUOUS
 62
     6
100
AcDbCircle
 10
1573.726776
 20
942.748779
 30
0.0
 40
5.49999
100
AcDbArc
 50
46.661499
 51
146.989334
  0
LINE
  5
503
100
AcDbEntity
  8
図
  6
CONTINUOUS
 62
     6
100
AcDbLine
 10
1564.600799
 20
938.749756
 30
0.0
 11
1561.592987
 21
938.749756
 31
0.0
  0
LINE
  5
504
100
AcDbEntity
  8
図
  6
CONTINUOUS
 62
     6
100
AcDbLine
 10
1561.592987
 20
929.247803
 30
0.0
 11
1564.600799
 21
929.247803
 31
0.0
  0
LINE
  5
505
100
AcDbEntity
  8
図
  6
CONTINUOUS
 62
     6
100
AcDbLine
 10
1577.50119
 20
945.998291
 30
0.0
 11
1577.989471
 21
945.998291
 31
0.0
  0
ARC
  5
506
100
AcDbEntity
  8
図
  6
CONTINUOUS
 62
     6
100
AcDbCircle
 10
1615.711639
 20
928.998779
 30
0.0
 40
9.000411
100
AcDbArc
 50
247.075455
 51
306.019775
  0
LINE
  5
507
100
AcDbEntity
  8
図
  6
CONTINUOUS
 62
     6
100
AcDbLine
 10
1621.004608
 20
921.718964
 30
0.0
 11
1620.975311
 21
946.298584
 31
0.0
  0
POLYLINE
  5
508
100
AcDbEntity
  8
図
  6
CONTINUOUS
 62
     6
100
AcDb2dPolyline
 66
     1
 10
0.0
 20
0.0
 30
0.0
 70
   128
  0
VERTEX
  5
509
100
AcDbEntity
  8
図
  6
CONTINUOUS
 62
     6
100
AcDbVertex
100
AcDb2dVertex
 10
1615.484588
 20
920.143799
 30
0.0
  0
VERTEX
  5
50A
100
AcDbEntity
  8
図
  6
CONTINUOUS
 62
     6
100
AcDbVertex
100
AcDb2dVertex
 10
1615.030487
 20
920.156006
 30
0.0
  0
VERTEX
  5
50B
100
AcDbEntity
  8
図
  6
CONTINUOUS
 62
     6
100
AcDbVertex
100
AcDb2dVertex
 10
1614.578826
 20
920.190186
 30
0.0
  0
VERTEX
  5
50C
100
AcDbEntity
  8
図
  6
CONTINUOUS
 62
     6
100
AcDbVertex
100
AcDb2dVertex
 10
1614.132049
 20
920.246338
 30
0.0
  0
VERTEX
  5
50D
100
AcDbEntity
  8
図
  6
CONTINUOUS
 62
     6
100
AcDbVertex
100
AcDb2dVertex
 10
1613.697479
 20
920.326904
 30
0.0
  0
VERTEX
  5
50E
100
AcDbEntity
  8
図
  6
CONTINUOUS
 62
     6
100
AcDbVertex
100
AcDb2dVertex
 10
1613.275116
 20
920.427002
 30
0.0
  0
VERTEX
  5
50F
100
AcDbEntity
  8
図
  6
CONTINUOUS
 62
     6
100
AcDbVertex
100
AcDb2dVertex
 10
1612.872283
 20
920.546631
 30
0.0
  0
VERTEX
  5
510
100
AcDbEntity
  8
図
  6
CONTINUOUS
 62
     6
100
AcDbVertex
100
AcDb2dVertex
 10
1612.486541
 20
920.688232
 30
0.0
  0
VERTEX
  5
511
100
AcDbEntity
  8
図
  6
CONTINUOUS
 62
     6
100
AcDbVertex
100
AcDb2dVertex
 10
1612.125213
 20
920.846924
 30
0.0
  0
VERTEX
  5
512
100
AcDbEntity
  8
図
  6
CONTINUOUS
 62
     6
100
AcDbVertex
100
AcDb2dVertex
 10
1611.790741
 20
921.022705
 30
0.0
  0
VERTEX
  5
513
100
AcDbEntity
  8
図
  6
CONTINUOUS
 62
     6
100
AcDbVertex
100
AcDb2dVertex
 10
1611.480682
 20
921.215576
 30
0.0
  0
VERTEX
  5
514
100
AcDbEntity
  8
図
  6
CONTINUOUS
 62
     6
100
AcDbVertex
100
AcDb2dVertex
 10
1611.204803
 20
921.425537
 30
0.0
  0
VERTEX
  5
515
100
AcDbEntity
  8
図
  6
CONTINUOUS
 62
     6
100
AcDbVertex
100
AcDb2dVertex
 10
1610.958221
 20
921.645264
 30
0.0
  0
VERTEX
  5
516
100
AcDbEntity
  8
図
  6
CONTINUOUS
 62
     6
100
AcDbVertex
100
AcDb2dVertex
 10
1610.74826
 20
921.877197
 30
0.0
  0
VERTEX
  5
517
100
AcDbEntity
  8
図
  6
CONTINUOUS
 62
     6
100
AcDbVertex
100
AcDb2dVertex
 10
1610.572479
 20
922.118897
 30
0.0
  0
VERTEX
  5
518
100
AcDbEntity
  8
図
  6
CONTINUOUS
 62
     6
100
AcDbVertex
100
AcDb2dVertex
 10
1610.43576
 20
922.36792
 30
0.0
  0
VERTEX
  5
519
100
AcDbEntity
  8
図
  6
CONTINUOUS
 62
     6
100
AcDbVertex
100
AcDb2dVertex
 10
1610.338104
 20
922.624268
 30
0.0
  0
VERTEX
  5
51A
100
AcDbEntity
  8
図
  6
CONTINUOUS
 62
     6
100
AcDbVertex
100
AcDb2dVertex
 10
1610.277069
 20
922.883057
 30
0.0
  0
VERTEX
  5
51B
100
AcDbEntity
  8
図
  6
CONTINUOUS
 62
     6
100
AcDbVertex
100
AcDb2dVertex
 10
1610.257537
 20
923.144287
 30
0.0
  0
VERTEX
  5
51C
100
AcDbEntity
  8
図
  6
CONTINUOUS
 62
     6
100
AcDbVertex
100
AcDb2dVertex
 10
1610.272186
 20
923.356689
 30
0.0
  0
VERTEX
  5
51D
100
AcDbEntity
  8
図
  6
CONTINUOUS
 62
     6
100
AcDbVertex
100
AcDb2dVertex
 10
1610.311248
 20
923.569092
 30
0.0
  0
VERTEX
  5
51E
100
AcDbEntity
  8
図
  6
CONTINUOUS
 62
     6
100
AcDbVertex
100
AcDb2dVertex
 10
1610.374725
 20
923.779053
 30
0.0
  0
SEQEND
  5
51F
100
AcDbEntity
  8
図
  6
CONTINUOUS
 62
     6
  0
POLYLINE
  5
520
100
AcDbEntity
  8
図
  6
CONTINUOUS
 62
     6
100
AcDb2dPolyline
 66
     1
 10
0.0
 20
0.0
 30
0.0
 70
   128
  0
VERTEX
  5
521
100
AcDbEntity
  8
図
  6
CONTINUOUS
 62
     6
100
AcDbVertex
100
AcDb2dVertex
 10
1610.374725
 20
923.779053
 30
0.0
  0
VERTEX
  5
522
100
AcDbEntity
  8
図
  6
CONTINUOUS
 62
     6
100
AcDbVertex
100
AcDb2dVertex
 10
1610.394256
 20
923.825439
 30
0.0
  0
VERTEX
  5
523
100
AcDbEntity
  8
図
  6
CONTINUOUS
 62
     6
100
AcDbVertex
100
AcDb2dVertex
 10
1610.413787
 20
923.874268
 30
0.0
  0
VERTEX
  5
524
100
AcDbEntity
  8
図
  6
CONTINUOUS
 62
     6
100
AcDbVertex
100
AcDb2dVertex
 10
1610.43576
 20
923.920654
 30
0.0
  0
VERTEX
  5
525
100
AcDbEntity
  8
図
  6
CONTINUOUS
 62
     6
100
AcDbVertex
100
AcDb2dVertex
 10
1610.572479
 20
924.169678
 30
0.0
  0
VERTEX
  5
526
100
AcDbEntity
  8
図
  6
CONTINUOUS
 62
     6
100
AcDbVertex
100
AcDb2dVertex
 10
1610.74826
 20
924.411377
 30
0.0
  0
VERTEX
  5
527
100
AcDbEntity
  8
図
  6
CONTINUOUS
 62
     6
100
AcDbVertex
100
AcDb2dVertex
 10
1610.958221
 20
924.643311
 30
0.0
  0
VERTEX
  5
528
100
AcDbEntity
  8
図
  6
CONTINUOUS
 62
     6
100
AcDbVertex
100
AcDb2dVertex
 10
1611.202362
 20
924.865479
 30
0.0
  0
VERTEX
  5
529
100
AcDbEntity
  8
図
  6
CONTINUOUS
 62
     6
100
AcDbVertex
100
AcDb2dVertex
 10
1611.480682
 20
925.072998
 30
0.0
  0
VERTEX
  5
52A
100
AcDbEntity
  8
図
  6
CONTINUOUS
 62
     6
100
AcDbVertex
100
AcDb2dVertex
 10
1611.788299
 20
925.265869
 30
0.0
  0
VERTEX
  5
52B
100
AcDbEntity
  8
図
  6
CONTINUOUS
 62
     6
100
AcDbVertex
100
AcDb2dVertex
 10
1612.125213
 20
925.44165
 30
0.0
  0
VERTEX
  5
52C
100
AcDbEntity
  8
図
  6
CONTINUOUS
 62
     6
100
AcDbVertex
100
AcDb2dVertex
 10
1612.486541
 20
925.602783
 30
0.0
  0
VERTEX
  5
52D
100
AcDbEntity
  8
図
  6
CONTINUOUS
 62
     6
100
AcDbVertex
100
AcDb2dVertex
 10
1612.872283
 20
925.741943
 30
0.0
  0
VERTEX
  5
52E
100
AcDbEntity
  8
図
  6
CONTINUOUS
 62
     6
100
AcDbVertex
100
AcDb2dVertex
 10
1613.275116
 20
925.864014
 30
0.0
  0
VERTEX
  5
52F
100
AcDbEntity
  8
図
  6
CONTINUOUS
 62
     6
100
AcDbVertex
100
AcDb2dVertex
 10
1613.697479
 20
925.964111
 30
0.0
  0
VERTEX
  5
530
100
AcDbEntity
  8
図
  6
CONTINUOUS
 62
     6
100
AcDbVertex
100
AcDb2dVertex
 10
1614.132049
 20
926.042236
 30
0.0
  0
VERTEX
  5
531
100
AcDbEntity
  8
図
  6
CONTINUOUS
 62
     6
100
AcDbVertex
100
AcDb2dVertex
 10
1614.578826
 20
926.098389
 30
0.0
  0
VERTEX
  5
532
100
AcDbEntity
  8
図
  6
CONTINUOUS
 62
     6
100
AcDbVertex
100
AcDb2dVertex
 10
1615.030487
 20
926.132568
 30
0.0
  0
VERTEX
  5
533
100
AcDbEntity
  8
図
  6
CONTINUOUS
 62
     6
100
AcDbVertex
100
AcDb2dVertex
 10
1615.484588
 20
926.144775
 30
0.0
  0
VERTEX
  5
534
100
AcDbEntity
  8
図
  6
CONTINUOUS
 62
     6
100
AcDbVertex
100
AcDb2dVertex
 10
1615.941131
 20
926.132568
 30
0.0
  0
VERTEX
  5
535
100
AcDbEntity
  8
図
  6
CONTINUOUS
 62
     6
100
AcDbVertex
100
AcDb2dVertex
 10
1616.392791
 20
926.098389
 30
0.0
  0
VERTEX
  5
536
100
AcDbEntity
  8
図
  6
CONTINUOUS
 62
     6
100
AcDbVertex
100
AcDb2dVertex
 10
1616.839569
 20
926.042236
 30
0.0
  0
VERTEX
  5
537
100
AcDbEntity
  8
図
  6
CONTINUOUS
 62
     6
100
AcDbVertex
100
AcDb2dVertex
 10
1617.274139
 20
925.964111
 30
0.0
  0
VERTEX
  5
538
100
AcDbEntity
  8
図
  6
CONTINUOUS
 62
     6
100
AcDbVertex
100
AcDb2dVertex
 10
1617.694061
 20
925.864014
 30
0.0
  0
VERTEX
  5
539
100
AcDbEntity
  8
図
  6
CONTINUOUS
 62
     6
100
AcDbVertex
100
AcDb2dVertex
 10
1618.099334
 20
925.741943
 30
0.0
  0
VERTEX
  5
53A
100
AcDbEntity
  8
図
  6
CONTINUOUS
 62
     6
100
AcDbVertex
100
AcDb2dVertex
 10
1618.485076
 20
925.602783
 30
0.0
  0
VERTEX
  5
53B
100
AcDbEntity
  8
図
  6
CONTINUOUS
 62
     6
100
AcDbVertex
100
AcDb2dVertex
 10
1618.846405
 20
925.444092
 30
0.0
  0
VERTEX
  5
53C
100
AcDbEntity
  8
図
  6
CONTINUOUS
 62
     6
100
AcDbVertex
100
AcDb2dVertex
 10
1619.180877
 20
925.265869
 30
0.0
  0
VERTEX
  5
53D
100
AcDbEntity
  8
図
  6
CONTINUOUS
 62
     6
100
AcDbVertex
100
AcDb2dVertex
 10
1619.490936
 20
925.072998
 30
0.0
  0
VERTEX
  5
53E
100
AcDbEntity
  8
図
  6
CONTINUOUS
 62
     6
100
AcDbVertex
100
AcDb2dVertex
 10
1619.766815
 20
924.865479
 30
0.0
  0
VERTEX
  5
53F
100
AcDbEntity
  8
図
  6
CONTINUOUS
 62
     6
100
AcDbVertex
100
AcDb2dVertex
 10
1620.013397
 20
924.645752
 30
0.0
  0
VERTEX
  5
540
100
AcDbEntity
  8
図
  6
CONTINUOUS
 62
     6
100
AcDbVertex
100
AcDb2dVertex
 10
1620.223358
 20
924.413818
 30
0.0
  0
VERTEX
  5
541
100
AcDbEntity
  8
図
  6
CONTINUOUS
 62
     6
100
AcDbVertex
100
AcDb2dVertex
 10
1620.396698
 20
924.169678
 30
0.0
  0
VERTEX
  5
542
100
AcDbEntity
  8
図
  6
CONTINUOUS
 62
     6
100
AcDbVertex
100
AcDb2dVertex
 10
1620.535858
 20
923.920654
 30
0.0
  0
VERTEX
  5
543
100
AcDbEntity
  8
図
  6
CONTINUOUS
 62
     6
100
AcDbVertex
100
AcDb2dVertex
 10
1620.633514
 20
923.666748
 30
0.0
  0
VERTEX
  5
544
100
AcDbEntity
  8
図
  6
CONTINUOUS
 62
     6
100
AcDbVertex
100
AcDb2dVertex
 10
1620.694549
 20
923.405518
 30
0.0
  0
VERTEX
  5
545
100
AcDbEntity
  8
図
  6
CONTINUOUS
 62
     6
100
AcDbVertex
100
AcDb2dVertex
 10
1620.71408
 20
923.144287
 30
0.0
  0
VERTEX
  5
546
100
AcDbEntity
  8
図
  6
CONTINUOUS
 62
     6
100
AcDbVertex
100
AcDb2dVertex
 10
1620.692108
 20
922.883057
 30
0.0
  0
VERTEX
  5
547
100
AcDbEntity
  8
図
  6
CONTINUOUS
 62
     6
100
AcDbVertex
100
AcDb2dVertex
 10
1620.633514
 20
922.624268
 30
0.0
  0
VERTEX
  5
548
100
AcDbEntity
  8
図
  6
CONTINUOUS
 62
     6
100
AcDbVertex
100
AcDb2dVertex
 10
1620.535858
 20
922.36792
 30
0.0
  0
VERTEX
  5
549
100
AcDbEntity
  8
図
  6
CONTINUOUS
 62
     6
100
AcDbVertex
100
AcDb2dVertex
 10
1620.399139
 20
922.118897
 30
0.0
  0
VERTEX
  5
54A
100
AcDbEntity
  8
図
  6
CONTINUOUS
 62
     6
100
AcDbVertex
100
AcDb2dVertex
 10
1620.223358
 20
921.877197
 30
0.0
  0
VERTEX
  5
54B
100
AcDbEntity
  8
図
  6
CONTINUOUS
 62
     6
100
AcDbVertex
100
AcDb2dVertex
 10
1620.013397
 20
921.645264
 30
0.0
  0
VERTEX
  5
54C
100
AcDbEntity
  8
図
  6
CONTINUOUS
 62
     6
100
AcDbVertex
100
AcDb2dVertex
 10
1619.766815
 20
921.425537
 30
0.0
  0
VERTEX
  5
54D
100
AcDbEntity
  8
図
  6
CONTINUOUS
 62
     6
100
AcDbVertex
100
AcDb2dVertex
 10
1619.488494
 20
921.215576
 30
0.0
  0
VERTEX
  5
54E
100
AcDbEntity
  8
図
  6
CONTINUOUS
 62
     6
100
AcDbVertex
100
AcDb2dVertex
 10
1619.180877
 20
921.022705
 30
0.0
  0
VERTEX
  5
54F
100
AcDbEntity
  8
図
  6
CONTINUOUS
 62
     6
100
AcDbVertex
100
AcDb2dVertex
 10
1618.846405
 20
920.846924
 30
0.0
  0
VERTEX
  5
550
100
AcDbEntity
  8
図
  6
CONTINUOUS
 62
     6
100
AcDbVertex
100
AcDb2dVertex
 10
1618.485076
 20
920.688232
 30
0.0
  0
VERTEX
  5
551
100
AcDbEntity
  8
図
  6
CONTINUOUS
 62
     6
100
AcDbVertex
100
AcDb2dVertex
 10
1618.099334
 20
920.546631
 30
0.0
  0
VERTEX
  5
552
100
AcDbEntity
  8
図
  6
CONTINUOUS
 62
     6
100
AcDbVertex
100
AcDb2dVertex
 10
1617.694061
 20
920.424561
 30
0.0
  0
VERTEX
  5
553
100
AcDbEntity
  8
図
  6
CONTINUOUS
 62
     6
100
AcDbVertex
100
AcDb2dVertex
 10
1617.274139
 20
920.326904
 30
0.0
  0
VERTEX
  5
554
100
AcDbEntity
  8
図
  6
CONTINUOUS
 62
     6
100
AcDbVertex
100
AcDb2dVertex
 10
1616.839569
 20
920.246338
 30
0.0
  0
VERTEX
  5
555
100
AcDbEntity
  8
図
  6
CONTINUOUS
 62
     6
100
AcDbVertex
100
AcDb2dVertex
 10
1616.392791
 20
920.190186
 30
0.0
  0
VERTEX
  5
556
100
AcDbEntity
  8
図
  6
CONTINUOUS
 62
     6
100
AcDbVertex
100
AcDb2dVertex
 10
1615.941131
 20
920.156006
 30
0.0
  0
VERTEX
  5
557
100
AcDbEntity
  8
図
  6
CONTINUOUS
 62
     6
100
AcDbVertex
100
AcDb2dVertex
 10
1615.48703
 20
920.143799
 30
0.0
  0
SEQEND
  5
558
100
AcDbEntity
  8
図
  6
CONTINUOUS
 62
     6
  0
POLYLINE
  5
559
100
AcDbEntity
  8
図
  6
CONTINUOUS
 62
     6
100
AcDb2dPolyline
 66
     1
 10
0.0
 20
0.0
 30
0.0
 70
   128
  0
VERTEX
  5
55A
100
AcDbEntity
  8
図
  6
CONTINUOUS
 62
     6
100
AcDbVertex
100
AcDb2dVertex
 10
1620.511444
 20
933.945068
 30
0.0
  0
VERTEX
  5
55B
100
AcDbEntity
  8
図
  6
CONTINUOUS
 62
     6
100
AcDbVertex
100
AcDb2dVertex
 10
1620.489471
 20
933.464111
 30
0.0
  0
VERTEX
  5
55C
100
AcDbEntity
  8
図
  6
CONTINUOUS
 62
     6
100
AcDbVertex
100
AcDb2dVertex
 10
1620.433319
 20
932.988037
 30
0.0
  0
VERTEX
  5
55D
100
AcDbEntity
  8
図
  6
CONTINUOUS
 62
     6
100
AcDbVertex
100
AcDb2dVertex
 10
1620.340545
 20
932.519287
 30
0.0
  0
VERTEX
  5
55E
100
AcDbEntity
  8
図
  6
CONTINUOUS
 62
     6
100
AcDbVertex
100
AcDb2dVertex
 10
1620.211151
 20
932.040772
 30
0.0
  0
VERTEX
  5
55F
100
AcDbEntity
  8
図
  6
CONTINUOUS
 62
     6
100
AcDbVertex
100
AcDb2dVertex
 10
1620.042694
 20
931.576904
 30
0.0
  0
VERTEX
  5
560
100
AcDbEntity
  8
図
  6
CONTINUOUS
 62
     6
100
AcDbVertex
100
AcDb2dVertex
 10
1619.842498
 20
931.132568
 30
0.0
  0
VERTEX
  5
561
100
AcDbEntity
  8
図
  6
CONTINUOUS
 62
     6
100
AcDbVertex
100
AcDb2dVertex
 10
1619.608123
 20
930.710205
 30
0.0
  0
VERTEX
  5
562
100
AcDbEntity
  8
図
  6
CONTINUOUS
 62
     6
100
AcDbVertex
100
AcDb2dVertex
 10
1619.34201
 20
930.312256
 30
0.0
  0
VERTEX
  5
563
100
AcDbEntity
  8
図
  6
CONTINUOUS
 62
     6
100
AcDbVertex
100
AcDb2dVertex
 10
1619.0466
 20
929.943604
 30
0.0
  0
VERTEX
  5
564
100
AcDbEntity
  8
図
  6
CONTINUOUS
 62
     6
100
AcDbVertex
100
AcDb2dVertex
 10
1618.726776
 20
929.604248
 30
0.0
  0
VERTEX
  5
565
100
AcDbEntity
  8
図
  6
CONTINUOUS
 62
     6
100
AcDbVertex
100
AcDb2dVertex
 10
1618.380096
 20
929.299072
 30
0.0
  0
VERTEX
  5
566
100
AcDbEntity
  8
図
  6
CONTINUOUS
 62
     6
100
AcDbVertex
100
AcDb2dVertex
 10
1618.011444
 20
929.030518
 30
0.0
  0
VERTEX
  5
567
100
AcDbEntity
  8
図
  6
CONTINUOUS
 62
     6
100
AcDbVertex
100
AcDb2dVertex
 10
1617.625701
 20
928.798584
 30
0.0
  0
VERTEX
  5
568
100
AcDbEntity
  8
図
  6
CONTINUOUS
 62
     6
100
AcDbVertex
100
AcDb2dVertex
 10
1617.222869
 20
928.608154
 30
0.0
  0
VERTEX
  5
569
100
AcDbEntity
  8
図
  6
CONTINUOUS
 62
     6
100
AcDbVertex
100
AcDb2dVertex
 10
1616.805389
 20
928.456787
 30
0.0
  0
VERTEX
  5
56A
100
AcDbEntity
  8
図
  6
CONTINUOUS
 62
     6
100
AcDbVertex
100
AcDb2dVertex
 10
1616.380584
 20
928.349365
 30
0.0
  0
VERTEX
  5
56B
100
AcDbEntity
  8
図
  6
CONTINUOUS
 62
     6
100
AcDbVertex
100
AcDb2dVertex
 10
1615.948455
 20
928.283447
 30
0.0
  0
VERTEX
  5
56C
100
AcDbEntity
  8
図
  6
CONTINUOUS
 62
     6
100
AcDbVertex
100
AcDb2dVertex
 10
1615.511444
 20
928.261475
 30
0.0
  0
SEQEND
  5
56D
100
AcDbEntity
  8
図
  6
CONTINUOUS
 62
     6
  0
POLYLINE
  5
56E
100
AcDbEntity
  8
図
  6
CONTINUOUS
 62
     6
100
AcDb2dPolyline
 66
     1
 10
0.0
 20
0.0
 30
0.0
 70
   128
  0
VERTEX
  5
56F
100
AcDbEntity
  8
図
  6
CONTINUOUS
 62
     6
100
AcDbVertex
100
AcDb2dVertex
 10
1615.513885
 20
928.261475
 30
0.0
  0
VERTEX
  5
570
100
AcDbEntity
  8
図
  6
CONTINUOUS
 62
     6
100
AcDbVertex
100
AcDb2dVertex
 10
1615.076873
 20
928.283447
 30
0.0
  0
VERTEX
  5
571
100
AcDbEntity
  8
図
  6
CONTINUOUS
 62
     6
100
AcDbVertex
100
AcDb2dVertex
 10
1614.644744
 20
928.349365
 30
0.0
  0
VERTEX
  5
572
100
AcDbEntity
  8
図
  6
CONTINUOUS
 62
     6
100
AcDbVertex
100
AcDb2dVertex
 10
1614.21994
 20
928.456787
 30
0.0
  0
VERTEX
  5
573
100
AcDbEntity
  8
図
  6
CONTINUOUS
 62
     6
100
AcDbVertex
100
AcDb2dVertex
 10
1613.802459
 20
928.608154
 30
0.0
  0
VERTEX
  5
574
100
AcDbEntity
  8
図
  6
CONTINUOUS
 62
     6
100
AcDbVertex
100
AcDb2dVertex
 10
1613.399627
 20
928.798584
 30
0.0
  0
VERTEX
  5
575
100
AcDbEntity
  8
図
  6
CONTINUOUS
 62
     6
100
AcDbVertex
100
AcDb2dVertex
 10
1613.013885
 20
929.030518
 30
0.0
  0
VERTEX
  5
576
100
AcDbEntity
  8
図
  6
CONTINUOUS
 62
     6
100
AcDbVertex
100
AcDb2dVertex
 10
1612.645233
 20
929.299072
 30
0.0
  0
VERTEX
  5
577
100
AcDbEntity
  8
図
  6
CONTINUOUS
 62
     6
100
AcDbVertex
100
AcDb2dVertex
 10
1612.300994
 20
929.604248
 30
0.0
  0
VERTEX
  5
578
100
AcDbEntity
  8
図
  6
CONTINUOUS
 62
     6
100
AcDbVertex
100
AcDb2dVertex
 10
1611.978729
 20
929.943604
 30
0.0
  0
VERTEX
  5
579
100
AcDbEntity
  8
図
  6
CONTINUOUS
 62
     6
100
AcDbVertex
100
AcDb2dVertex
 10
1611.683319
 20
930.312256
 30
0.0
  0
VERTEX
  5
57A
100
AcDbEntity
  8
図
  6
CONTINUOUS
 62
     6
100
AcDbVertex
100
AcDb2dVertex
 10
1611.417205
 20
930.710205
 30
0.0
  0
VERTEX
  5
57B
100
AcDbEntity
  8
図
  6
CONTINUOUS
 62
     6
100
AcDbVertex
100
AcDb2dVertex
 10
1611.18283
 20
931.132568
 30
0.0
  0
VERTEX
  5
57C
100
AcDbEntity
  8
図
  6
CONTINUOUS
 62
     6
100
AcDbVertex
100
AcDb2dVertex
 10
1610.982635
 20
931.576904
 30
0.0
  0
VERTEX
  5
57D
100
AcDbEntity
  8
図
  6
CONTINUOUS
 62
     6
100
AcDbVertex
100
AcDb2dVertex
 10
1610.814178
 20
932.040772
 30
0.0
  0
VERTEX
  5
57E
100
AcDbEntity
  8
図
  6
CONTINUOUS
 62
     6
100
AcDbVertex
100
AcDb2dVertex
 10
1610.684783
 20
932.519287
 30
0.0
  0
VERTEX
  5
57F
100
AcDbEntity
  8
図
  6
CONTINUOUS
 62
     6
100
AcDbVertex
100
AcDb2dVertex
 10
1610.59201
 20
932.988037
 30
0.0
  0
VERTEX
  5
580
100
AcDbEntity
  8
図
  6
CONTINUOUS
 62
     6
100
AcDbVertex
100
AcDb2dVertex
 10
1610.535858
 20
933.464111
 30
0.0
  0
VERTEX
  5
581
100
AcDbEntity
  8
図
  6
CONTINUOUS
 62
     6
100
AcDbVertex
100
AcDb2dVertex
 10
1610.513885
 20
933.945068
 30
0.0
  0
SEQEND
  5
582
100
AcDbEntity
  8
図
  6
CONTINUOUS
 62
     6
  0
POLYLINE
  5
583
100
AcDbEntity
  8
図
  6
CONTINUOUS
 62
     6
100
AcDb2dPolyline
 66
     1
 10
0.0
 20
0.0
 30
0.0
 70
   128
  0
VERTEX
  5
584
100
AcDbEntity
  8
図
  6
CONTINUOUS
 62
     6
100
AcDbVertex
100
AcDb2dVertex
 10
1610.513885
 20
933.998779
 30
0.0
  0
VERTEX
  5
585
100
AcDbEntity
  8
図
  6
CONTINUOUS
 62
     6
100
AcDbVertex
100
AcDb2dVertex
 10
1610.513885
 20
934.001221
 30
0.0
  0
VERTEX
  5
586
100
AcDbEntity
  8
図
  6
CONTINUOUS
 62
     6
100
AcDbVertex
100
AcDb2dVertex
 10
1610.513885
 20
934.003662
 30
0.0
  0
VERTEX
  5
587
100
AcDbEntity
  8
図
  6
CONTINUOUS
 62
     6
100
AcDbVertex
100
AcDb2dVertex
 10
1610.513885
 20
934.006104
 30
0.0
  0
VERTEX
  5
588
100
AcDbEntity
  8
図
  6
CONTINUOUS
 62
     6
100
AcDbVertex
100
AcDb2dVertex
 10
1610.533416
 20
934.506592
 30
0.0
  0
VERTEX
  5
589
100
AcDbEntity
  8
図
  6
CONTINUOUS
 62
     6
100
AcDbVertex
100
AcDb2dVertex
 10
1610.589569
 20
935.002197
 30
0.0
  0
VERTEX
  5
58A
100
AcDbEntity
  8
図
  6
CONTINUOUS
 62
     6
100
AcDbVertex
100
AcDb2dVertex
 10
1610.684783
 20
935.49292
 30
0.0
  0
VERTEX
  5
58B
100
AcDbEntity
  8
図
  6
CONTINUOUS
 62
     6
100
AcDbVertex
100
AcDb2dVertex
 10
1610.814178
 20
935.971436
 30
0.0
  0
VERTEX
  5
58C
100
AcDbEntity
  8
図
  6
CONTINUOUS
 62
     6
100
AcDbVertex
100
AcDb2dVertex
 10
1610.982635
 20
936.432861
 30
0.0
  0
VERTEX
  5
58D
100
AcDbEntity
  8
図
  6
CONTINUOUS
 62
     6
100
AcDbVertex
100
AcDb2dVertex
 10
1611.18283
 20
936.877197
 30
0.0
  0
VERTEX
  5
58E
100
AcDbEntity
  8
図
  6
CONTINUOUS
 62
     6
100
AcDbVertex
100
AcDb2dVertex
 10
1611.417205
 20
937.299561
 30
0.0
  0
VERTEX
  5
58F
100
AcDbEntity
  8
図
  6
CONTINUOUS
 62
     6
100
AcDbVertex
100
AcDb2dVertex
 10
1611.683319
 20
937.69751
 30
0.0
  0
VERTEX
  5
590
100
AcDbEntity
  8
図
  6
CONTINUOUS
 62
     6
100
AcDbVertex
100
AcDb2dVertex
 10
1611.978729
 20
938.068604
 30
0.0
  0
VERTEX
  5
591
100
AcDbEntity
  8
図
  6
CONTINUOUS
 62
     6
100
AcDbVertex
100
AcDb2dVertex
 10
1612.298553
 20
938.405518
 30
0.0
  0
VERTEX
  5
592
100
AcDbEntity
  8
図
  6
CONTINUOUS
 62
     6
100
AcDbVertex
100
AcDb2dVertex
 10
1612.645233
 20
938.710693
 30
0.0
  0
VERTEX
  5
593
100
AcDbEntity
  8
図
  6
CONTINUOUS
 62
     6
100
AcDbVertex
100
AcDb2dVertex
 10
1613.013885
 20
938.979248
 30
0.0
  0
VERTEX
  5
594
100
AcDbEntity
  8
図
  6
CONTINUOUS
 62
     6
100
AcDbVertex
100
AcDb2dVertex
 10
1613.399627
 20
939.211182
 30
0.0
  0
VERTEX
  5
595
100
AcDbEntity
  8
図
  6
CONTINUOUS
 62
     6
100
AcDbVertex
100
AcDb2dVertex
 10
1613.802459
 20
939.404053
 30
0.0
  0
VERTEX
  5
596
100
AcDbEntity
  8
図
  6
CONTINUOUS
 62
     6
100
AcDbVertex
100
AcDb2dVertex
 10
1614.217498
 20
939.55542
 30
0.0
  0
VERTEX
  5
597
100
AcDbEntity
  8
図
  6
CONTINUOUS
 62
     6
100
AcDbVertex
100
AcDb2dVertex
 10
1614.644744
 20
939.662842
 30
0.0
  0
VERTEX
  5
598
100
AcDbEntity
  8
図
  6
CONTINUOUS
 62
     6
100
AcDbVertex
100
AcDb2dVertex
 10
1615.076873
 20
939.72876
 30
0.0
  0
VERTEX
  5
599
100
AcDbEntity
  8
図
  6
CONTINUOUS
 62
     6
100
AcDbVertex
100
AcDb2dVertex
 10
1615.511444
 20
939.750732
 30
0.0
  0
VERTEX
  5
59A
100
AcDbEntity
  8
図
  6
CONTINUOUS
 62
     6
100
AcDbVertex
100
AcDb2dVertex
 10
1615.948455
 20
939.72876
 30
0.0
  0
VERTEX
  5
59B
100
AcDbEntity
  8
図
  6
CONTINUOUS
 62
     6
100
AcDbVertex
100
AcDb2dVertex
 10
1616.380584
 20
939.662842
 30
0.0
  0
VERTEX
  5
59C
100
AcDbEntity
  8
図
  6
CONTINUOUS
 62
     6
100
AcDbVertex
100
AcDb2dVertex
 10
1616.805389
 20
939.55542
 30
0.0
  0
VERTEX
  5
59D
100
AcDbEntity
  8
図
  6
CONTINUOUS
 62
     6
100
AcDbVertex
100
AcDb2dVertex
 10
1617.222869
 20
939.404053
 30
0.0
  0
VERTEX
  5
59E
100
AcDbEntity
  8
図
  6
CONTINUOUS
 62
     6
100
AcDbVertex
100
AcDb2dVertex
 10
1617.625701
 20
939.211182
 30
0.0
  0
VERTEX
  5
59F
100
AcDbEntity
  8
図
  6
CONTINUOUS
 62
     6
100
AcDbVertex
100
AcDb2dVertex
 10
1618.011444
 20
938.979248
 30
0.0
  0
VERTEX
  5
5A0
100
AcDbEntity
  8
図
  6
CONTINUOUS
 62
     6
100
AcDbVertex
100
AcDb2dVertex
 10
1618.380096
 20
938.710693
 30
0.0
  0
VERTEX
  5
5A1
100
AcDbEntity
  8
図
  6
CONTINUOUS
 62
     6
100
AcDbVertex
100
AcDb2dVertex
 10
1618.726776
 20
938.405518
 30
0.0
  0
VERTEX
  5
5A2
100
AcDbEntity
  8
図
  6
CONTINUOUS
 62
     6
100
AcDbVertex
100
AcDb2dVertex
 10
1619.0466
 20
938.068604
 30
0.0
  0
VERTEX
  5
5A3
100
AcDbEntity
  8
図
  6
CONTINUOUS
 62
     6
100
AcDbVertex
100
AcDb2dVertex
 10
1619.34201
 20
937.69751
 30
0.0
  0
VERTEX
  5
5A4
100
AcDbEntity
  8
図
  6
CONTINUOUS
 62
     6
100
AcDbVertex
100
AcDb2dVertex
 10
1619.608123
 20
937.299561
 30
0.0
  0
VERTEX
  5
5A5
100
AcDbEntity
  8
図
  6
CONTINUOUS
 62
     6
100
AcDbVertex
100
AcDb2dVertex
 10
1619.842498
 20
936.877197
 30
0.0
  0
VERTEX
  5
5A6
100
AcDbEntity
  8
図
  6
CONTINUOUS
 62
     6
100
AcDbVertex
100
AcDb2dVertex
 10
1620.042694
 20
936.432861
 30
0.0
  0
VERTEX
  5
5A7
100
AcDbEntity
  8
図
  6
CONTINUOUS
 62
     6
100
AcDbVertex
100
AcDb2dVertex
 10
1620.211151
 20
935.971436
 30
0.0
  0
VERTEX
  5
5A8
100
AcDbEntity
  8
図
  6
CONTINUOUS
 62
     6
100
AcDbVertex
100
AcDb2dVertex
 10
1620.340545
 20
935.49292
 30
0.0
  0
VERTEX
  5
5A9
100
AcDbEntity
  8
図
  6
CONTINUOUS
 62
     6
100
AcDbVertex
100
AcDb2dVertex
 10
1620.43576
 20
935.002197
 30
0.0
  0
VERTEX
  5
5AA
100
AcDbEntity
  8
図
  6
CONTINUOUS
 62
     6
100
AcDbVertex
100
AcDb2dVertex
 10
1620.491912
 20
934.506592
 30
0.0
  0
VERTEX
  5
5AB
100
AcDbEntity
  8
図
  6
CONTINUOUS
 62
     6
100
AcDbVertex
100
AcDb2dVertex
 10
1620.511444
 20
934.006104
 30
0.0
  0
VERTEX
  5
5AC
100
AcDbEntity
  8
図
  6
CONTINUOUS
 62
     6
100
AcDbVertex
100
AcDb2dVertex
 10
1620.511444
 20
934.003662
 30
0.0
  0
VERTEX
  5
5AD
100
AcDbEntity
  8
図
  6
CONTINUOUS
 62
     6
100
AcDbVertex
100
AcDb2dVertex
 10
1620.511444
 20
934.001221
 30
0.0
  0
VERTEX
  5
5AE
100
AcDbEntity
  8
図
  6
CONTINUOUS
 62
     6
100
AcDbVertex
100
AcDb2dVertex
 10
1620.511444
 20
933.998779
 30
0.0
  0
SEQEND
  5
5AF
100
AcDbEntity
  8
図
  6
CONTINUOUS
 62
     6
  0
POLYLINE
  5
5B0
100
AcDbEntity
  8
図
  6
CONTINUOUS
 62
     6
100
AcDb2dPolyline
 66
     1
 10
0.0
 20
0.0
 30
0.0
 70
   128
  0
VERTEX
  5
5B1
100
AcDbEntity
  8
図
  6
CONTINUOUS
 62
     6
100
AcDbVertex
100
AcDb2dVertex
 10
1615.528533
 20
941.8479
 30
0.0
  0
VERTEX
  5
5B2
100
AcDbEntity
  8
図
  6
CONTINUOUS
 62
     6
100
AcDbVertex
100
AcDb2dVertex
 10
1615.069549
 20
941.857666
 30
0.0
  0
VERTEX
  5
5B3
100
AcDbEntity
  8
図
  6
CONTINUOUS
 62
     6
100
AcDbVertex
100
AcDb2dVertex
 10
1614.610565
 20
941.891846
 30
0.0
  0
VERTEX
  5
5B4
100
AcDbEntity
  8
図
  6
CONTINUOUS
 62
     6
100
AcDbVertex
100
AcDb2dVertex
 10
1614.161346
 20
941.947998
 30
0.0
  0
VERTEX
  5
5B5
100
AcDbEntity
  8
図
  6
CONTINUOUS
 62
     6
100
AcDbVertex
100
AcDb2dVertex
 10
1613.721893
 20
942.028564
 30
0.0
  0
VERTEX
  5
5B6
100
AcDbEntity
  8
図
  6
CONTINUOUS
 62
     6
100
AcDbVertex
100
AcDb2dVertex
 10
1613.294647
 20
942.128662
 30
0.0
  0
VERTEX
  5
5B7
100
AcDbEntity
  8
図
  6
CONTINUOUS
 62
     6
100
AcDbVertex
100
AcDb2dVertex
 10
1612.886932
 20
942.248291
 30
0.0
  0
VERTEX
  5
5B8
100
AcDbEntity
  8
図
  6
CONTINUOUS
 62
     6
100
AcDbVertex
100
AcDb2dVertex
 10
1612.496307
 20
942.389893
 30
0.0
  0
VERTEX
  5
5B9
100
AcDbEntity
  8
図
  6
CONTINUOUS
 62
     6
100
AcDbVertex
100
AcDb2dVertex
 10
1612.132537
 20
942.548584
 30
0.0
  0
VERTEX
  5
5BA
100
AcDbEntity
  8
図
  6
CONTINUOUS
 62
     6
100
AcDbVertex
100
AcDb2dVertex
 10
1611.790741
 20
942.724365
 30
0.0
  0
VERTEX
  5
5BB
100
AcDbEntity
  8
図
  6
CONTINUOUS
 62
     6
100
AcDbVertex
100
AcDb2dVertex
 10
1611.480682
 20
942.919678
 30
0.0
  0
VERTEX
  5
5BC
100
AcDbEntity
  8
図
  6
CONTINUOUS
 62
     6
100
AcDbVertex
100
AcDb2dVertex
 10
1611.19992
 20
943.127197
 30
0.0
  0
VERTEX
  5
5BD
100
AcDbEntity
  8
図
  6
CONTINUOUS
 62
     6
100
AcDbVertex
100
AcDb2dVertex
 10
1610.950897
 20
943.346924
 30
0.0
  0
VERTEX
  5
5BE
100
AcDbEntity
  8
図
  6
CONTINUOUS
 62
     6
100
AcDbVertex
100
AcDb2dVertex
 10
1610.738494
 20
943.578857
 30
0.0
  0
VERTEX
  5
5BF
100
AcDbEntity
  8
図
  6
CONTINUOUS
 62
     6
100
AcDbVertex
100
AcDb2dVertex
 10
1610.560272
 20
943.820557
 30
0.0
  0
VERTEX
  5
5C0
100
AcDbEntity
  8
図
  6
CONTINUOUS
 62
     6
100
AcDbVertex
100
AcDb2dVertex
 10
1610.423553
 20
944.06958
 30
0.0
  0
VERTEX
  5
5C1
100
AcDbEntity
  8
図
  6
CONTINUOUS
 62
     6
100
AcDbVertex
100
AcDb2dVertex
 10
1610.323455
 20
944.325928
 30
0.0
  0
VERTEX
  5
5C2
100
AcDbEntity
  8
図
  6
CONTINUOUS
 62
     6
100
AcDbVertex
100
AcDb2dVertex
 10
1610.26242
 20
944.584717
 30
0.0
  0
VERTEX
  5
5C3
100
AcDbEntity
  8
図
  6
CONTINUOUS
 62
     6
100
AcDbVertex
100
AcDb2dVertex
 10
1610.242889
 20
944.845947
 30
0.0
  0
VERTEX
  5
5C4
100
AcDbEntity
  8
図
  6
CONTINUOUS
 62
     6
100
AcDbVertex
100
AcDb2dVertex
 10
1610.26242
 20
945.107178
 30
0.0
  0
VERTEX
  5
5C5
100
AcDbEntity
  8
図
  6
CONTINUOUS
 62
     6
100
AcDbVertex
100
AcDb2dVertex
 10
1610.323455
 20
945.368408
 30
0.0
  0
VERTEX
  5
5C6
100
AcDbEntity
  8
図
  6
CONTINUOUS
 62
     6
100
AcDbVertex
100
AcDb2dVertex
 10
1610.423553
 20
945.622314
 30
0.0
  0
VERTEX
  5
5C7
100
AcDbEntity
  8
図
  6
CONTINUOUS
 62
     6
100
AcDbVertex
100
AcDb2dVertex
 10
1610.562713
 20
945.873779
 30
0.0
  0
VERTEX
  5
5C8
100
AcDbEntity
  8
図
  6
CONTINUOUS
 62
     6
100
AcDbVertex
100
AcDb2dVertex
 10
1610.738494
 20
946.115479
 30
0.0
  0
VERTEX
  5
5C9
100
AcDbEntity
  8
図
  6
CONTINUOUS
 62
     6
100
AcDbVertex
100
AcDb2dVertex
 10
1610.950897
 20
946.347412
 30
0.0
  0
VERTEX
  5
5CA
100
AcDbEntity
  8
図
  6
CONTINUOUS
 62
     6
100
AcDbVertex
100
AcDb2dVertex
 10
1611.19992
 20
946.567139
 30
0.0
  0
VERTEX
  5
5CB
100
AcDbEntity
  8
図
  6
CONTINUOUS
 62
     6
100
AcDbVertex
100
AcDb2dVertex
 10
1611.480682
 20
946.774658
 30
0.0
  0
VERTEX
  5
5CC
100
AcDbEntity
  8
図
  6
CONTINUOUS
 62
     6
100
AcDbVertex
100
AcDb2dVertex
 10
1611.790741
 20
946.967529
 30
0.0
  0
VERTEX
  5
5CD
100
AcDbEntity
  8
図
  6
CONTINUOUS
 62
     6
100
AcDbVertex
100
AcDb2dVertex
 10
1612.132537
 20
947.145752
 30
0.0
  0
VERTEX
  5
5CE
100
AcDbEntity
  8
図
  6
CONTINUOUS
 62
     6
100
AcDbVertex
100
AcDb2dVertex
 10
1612.496307
 20
947.304443
 30
0.0
  0
VERTEX
  5
5CF
100
AcDbEntity
  8
図
  6
CONTINUOUS
 62
     6
100
AcDbVertex
100
AcDb2dVertex
 10
1612.886932
 20
947.446045
 30
0.0
  0
VERTEX
  5
5D0
100
AcDbEntity
  8
図
  6
CONTINUOUS
 62
     6
100
AcDbVertex
100
AcDb2dVertex
 10
1613.294647
 20
947.565674
 30
0.0
  0
VERTEX
  5
5D1
100
AcDbEntity
  8
図
  6
CONTINUOUS
 62
     6
100
AcDbVertex
100
AcDb2dVertex
 10
1613.721893
 20
947.665772
 30
0.0
  0
VERTEX
  5
5D2
100
AcDbEntity
  8
図
  6
CONTINUOUS
 62
     6
100
AcDbVertex
100
AcDb2dVertex
 10
1614.161346
 20
947.743897
 30
0.0
  0
VERTEX
  5
5D3
100
AcDbEntity
  8
図
  6
CONTINUOUS
 62
     6
100
AcDbVertex
100
AcDb2dVertex
 10
1614.610565
 20
947.80249
 30
0.0
  0
VERTEX
  5
5D4
100
AcDbEntity
  8
図
  6
CONTINUOUS
 62
     6
100
AcDbVertex
100
AcDb2dVertex
 10
1615.069549
 20
947.83667
 30
0.0
  0
VERTEX
  5
5D5
100
AcDbEntity
  8
図
  6
CONTINUOUS
 62
     6
100
AcDbVertex
100
AcDb2dVertex
 10
1615.528533
 20
947.846436
 30
0.0
  0
VERTEX
  5
5D6
100
AcDbEntity
  8
図
  6
CONTINUOUS
 62
     6
100
AcDbVertex
100
AcDb2dVertex
 10
1615.989959
 20
947.83667
 30
0.0
  0
VERTEX
  5
5D7
100
AcDbEntity
  8
図
  6
CONTINUOUS
 62
     6
100
AcDbVertex
100
AcDb2dVertex
 10
1616.446502
 20
947.80249
 30
0.0
  0
VERTEX
  5
5D8
100
AcDbEntity
  8
図
  6
CONTINUOUS
 62
     6
100
AcDbVertex
100
AcDb2dVertex
 10
1616.898162
 20
947.743897
 30
0.0
  0
VERTEX
  5
5D9
100
AcDbEntity
  8
図
  6
CONTINUOUS
 62
     6
100
AcDbVertex
100
AcDb2dVertex
 10
1617.337616
 20
947.665772
 30
0.0
  0
VERTEX
  5
5DA
100
AcDbEntity
  8
図
  6
CONTINUOUS
 62
     6
100
AcDbVertex
100
AcDb2dVertex
 10
1617.76242
 20
947.565674
 30
0.0
  0
VERTEX
  5
5DB
100
AcDbEntity
  8
図
  6
CONTINUOUS
 62
     6
100
AcDbVertex
100
AcDb2dVertex
 10
1618.172576
 20
947.446045
 30
0.0
  0
VERTEX
  5
5DC
100
AcDbEntity
  8
図
  6
CONTINUOUS
 62
     6
100
AcDbVertex
100
AcDb2dVertex
 10
1618.56076
 20
947.304443
 30
0.0
  0
VERTEX
  5
5DD
100
AcDbEntity
  8
図
  6
CONTINUOUS
 62
     6
100
AcDbVertex
100
AcDb2dVertex
 10
1618.926971
 20
947.145752
 30
0.0
  0
VERTEX
  5
5DE
100
AcDbEntity
  8
図
  6
CONTINUOUS
 62
     6
100
AcDbVertex
100
AcDb2dVertex
 10
1619.266326
 20
946.967529
 30
0.0
  0
VERTEX
  5
5DF
100
AcDbEntity
  8
図
  6
CONTINUOUS
 62
     6
100
AcDbVertex
100
AcDb2dVertex
 10
1619.578826
 20
946.774658
 30
0.0
  0
VERTEX
  5
5E0
100
AcDbEntity
  8
図
  6
CONTINUOUS
 62
     6
100
AcDbVertex
100
AcDb2dVertex
 10
1619.859588
 20
946.567139
 30
0.0
  0
VERTEX
  5
5E1
100
AcDbEntity
  8
図
  6
CONTINUOUS
 62
     6
100
AcDbVertex
100
AcDb2dVertex
 10
1620.10617
 20
946.347412
 30
0.0
  0
VERTEX
  5
5E2
100
AcDbEntity
  8
図
  6
CONTINUOUS
 62
     6
100
AcDbVertex
100
AcDb2dVertex
 10
1620.321014
 20
946.115479
 30
0.0
  0
VERTEX
  5
5E3
100
AcDbEntity
  8
図
  6
CONTINUOUS
 62
     6
100
AcDbVertex
100
AcDb2dVertex
 10
1620.496795
 20
945.873779
 30
0.0
  0
VERTEX
  5
5E4
100
AcDbEntity
  8
図
  6
CONTINUOUS
 62
     6
100
AcDbVertex
100
AcDb2dVertex
 10
1620.635955
 20
945.622314
 30
0.0
  0
VERTEX
  5
5E5
100
AcDbEntity
  8
図
  6
CONTINUOUS
 62
     6
100
AcDbVertex
100
AcDb2dVertex
 10
1620.736053
 20
945.368408
 30
0.0
  0
VERTEX
  5
5E6
100
AcDbEntity
  8
図
  6
CONTINUOUS
 62
     6
100
AcDbVertex
100
AcDb2dVertex
 10
1620.797088
 20
945.107178
 30
0.0
  0
VERTEX
  5
5E7
100
AcDbEntity
  8
図
  6
CONTINUOUS
 62
     6
100
AcDbVertex
100
AcDb2dVertex
 10
1620.814178
 20
944.845947
 30
0.0
  0
VERTEX
  5
5E8
100
AcDbEntity
  8
図
  6
CONTINUOUS
 62
     6
100
AcDbVertex
100
AcDb2dVertex
 10
1620.811737
 20
944.731201
 30
0.0
  0
VERTEX
  5
5E9
100
AcDbEntity
  8
図
  6
CONTINUOUS
 62
     6
100
AcDbVertex
100
AcDb2dVertex
 10
1620.79953
 20
944.616455
 30
0.0
  0
VERTEX
  5
5EA
100
AcDbEntity
  8
図
  6
CONTINUOUS
 62
     6
100
AcDbVertex
100
AcDb2dVertex
 10
1620.779998
 20
944.50415
 30
0.0
  0
SEQEND
  5
5EB
100
AcDbEntity
  8
図
  6
CONTINUOUS
 62
     6
  0
POLYLINE
  5
5EC
100
AcDbEntity
  8
図
  6
CONTINUOUS
 62
     6
100
AcDb2dPolyline
 66
     1
 10
0.0
 20
0.0
 30
0.0
 70
   128
  0
VERTEX
  5
5ED
100
AcDbEntity
  8
図
  6
CONTINUOUS
 62
     6
100
AcDbVertex
100
AcDb2dVertex
 10
1620.779998
 20
944.50415
 30
0.0
  0
VERTEX
  5
5EE
100
AcDbEntity
  8
図
  6
CONTINUOUS
 62
     6
100
AcDbVertex
100
AcDb2dVertex
 10
1620.743377
 20
944.357666
 30
0.0
  0
VERTEX
  5
5EF
100
AcDbEntity
  8
図
  6
CONTINUOUS
 62
     6
100
AcDbVertex
100
AcDb2dVertex
 10
1620.694549
 20
944.213623
 30
0.0
  0
VERTEX
  5
5F0
100
AcDbEntity
  8
図
  6
CONTINUOUS
 62
     6
100
AcDbVertex
100
AcDb2dVertex
 10
1620.635955
 20
944.072022
 30
0.0
  0
VERTEX
  5
5F1
100
AcDbEntity
  8
図
  6
CONTINUOUS
 62
     6
100
AcDbVertex
100
AcDb2dVertex
 10
1620.496795
 20
943.820557
 30
0.0
  0
VERTEX
  5
5F2
100
AcDbEntity
  8
図
  6
CONTINUOUS
 62
     6
100
AcDbVertex
100
AcDb2dVertex
 10
1620.321014
 20
943.578857
 30
0.0
  0
VERTEX
  5
5F3
100
AcDbEntity
  8
図
  6
CONTINUOUS
 62
     6
100
AcDbVertex
100
AcDb2dVertex
 10
1620.10617
 20
943.346924
 30
0.0
  0
VERTEX
  5
5F4
100
AcDbEntity
  8
図
  6
CONTINUOUS
 62
     6
100
AcDbVertex
100
AcDb2dVertex
 10
1619.859588
 20
943.127197
 30
0.0
  0
VERTEX
  5
5F5
100
AcDbEntity
  8
図
  6
CONTINUOUS
 62
     6
100
AcDbVertex
100
AcDb2dVertex
 10
1619.578826
 20
942.919678
 30
0.0
  0
VERTEX
  5
5F6
100
AcDbEntity
  8
図
  6
CONTINUOUS
 62
     6
100
AcDbVertex
100
AcDb2dVertex
 10
1619.266326
 20
942.724365
 30
0.0
  0
VERTEX
  5
5F7
100
AcDbEntity
  8
図
  6
CONTINUOUS
 62
     6
100
AcDbVertex
100
AcDb2dVertex
 10
1618.926971
 20
942.548584
 30
0.0
  0
VERTEX
  5
5F8
100
AcDbEntity
  8
図
  6
CONTINUOUS
 62
     6
100
AcDbVertex
100
AcDb2dVertex
 10
1618.56076
 20
942.389893
 30
0.0
  0
VERTEX
  5
5F9
100
AcDbEntity
  8
図
  6
CONTINUOUS
 62
     6
100
AcDbVertex
100
AcDb2dVertex
 10
1618.172576
 20
942.248291
 30
0.0
  0
VERTEX
  5
5FA
100
AcDbEntity
  8
図
  6
CONTINUOUS
 62
     6
100
AcDbVertex
100
AcDb2dVertex
 10
1617.76242
 20
942.128662
 30
0.0
  0
VERTEX
  5
5FB
100
AcDbEntity
  8
図
  6
CONTINUOUS
 62
     6
100
AcDbVertex
100
AcDb2dVertex
 10
1617.337616
 20
942.028564
 30
0.0
  0
VERTEX
  5
5FC
100
AcDbEntity
  8
図
  6
CONTINUOUS
 62
     6
100
AcDbVertex
100
AcDb2dVertex
 10
1616.898162
 20
941.947998
 30
0.0
  0
VERTEX
  5
5FD
100
AcDbEntity
  8
図
  6
CONTINUOUS
 62
     6
100
AcDbVertex
100
AcDb2dVertex
 10
1616.446502
 20
941.891846
 30
0.0
  0
VERTEX
  5
5FE
100
AcDbEntity
  8
図
  6
CONTINUOUS
 62
     6
100
AcDbVertex
100
AcDb2dVertex
 10
1615.989959
 20
941.857666
 30
0.0
  0
VERTEX
  5
5FF
100
AcDbEntity
  8
図
  6
CONTINUOUS
 62
     6
100
AcDbVertex
100
AcDb2dVertex
 10
1615.530975
 20
941.845459
 30
0.0
  0
SEQEND
  5
600
100
AcDbEntity
  8
図
  6
CONTINUOUS
 62
     6
  0
ARC
  5
601
100
AcDbEntity
  8
図
  6
CONTINUOUS
 62
     6
100
AcDbCircle
 10
1608.311737
 20
911.498779
 30
0.0
 40
10.0
100
AcDbArc
 50
67.082504
 51
90.000031
  0
LINE
  5
602
100
AcDbEntity
  8
図
  6
CONTINUOUS
 62
     6
100
AcDbLine
 10
1598.900116
 20
921.498779
 30
0.0
 11
1608.311737
 21
921.498779
 31
0.0
  0
ARC
  5
603
100
AcDbEntity
  8
図
  6
CONTINUOUS
 62
     6
100
AcDbCircle
 10
1593.001678
 20
981.208252
 30
0.0
 40
60.000095
100
AcDbArc
 50
260.713165
 51
275.641708
  0
LINE
  5
604
100
AcDbEntity
  8
図
  6
CONTINUOUS
 62
     6
100
AcDbLine
 10
1578.502166
 20
945.998291
 30
0.0
 11
1578.502166
 21
921.999268
 31
0.0
  0
LINE
  5
605
100
AcDbEntity
  8
図
  6
CONTINUOUS
 62
     6
100
AcDbLine
 10
1577.50119
 20
945.998291
 30
0.0
 11
1577.989471
 21
945.998291
 31
0.0
  0
LINE
  5
606
100
AcDbEntity
  8
図
  6
CONTINUOUS
 62
     6
100
AcDbLine
 10
1579.002655
 20
945.998291
 30
0.0
 11
1577.989471
 21
945.998291
 31
0.0
  0
ARC
  5
607
100
AcDbEntity
  8
図
  6
CONTINUOUS
 62
     6
100
AcDbCircle
 10
1579.002655
 20
949.499268
 30
0.0
 40
3.498535
100
AcDbArc
 50
270.0
 51
0.0
  0
ARC
  5
608
100
AcDbEntity
  8
図
  6
CONTINUOUS
 62
     6
100
AcDbCircle
 10
1608.502166
 20
951.498779
 30
0.0
 40
5.000649
100
AcDbArc
 50
180.0
 51
269.076813
  0
ARC
  5
609
100
AcDbEntity
  8
図
  6
CONTINUOUS
 62
     6
100
AcDbCircle
 10
1608.311737
 20
956.498779
 30
0.0
 40
10.000696
100
AcDbArc
 50
270.643494
 51
292.915802
  0
ARC
  5
60A
100
AcDbEntity
  8
図
  6
CONTINUOUS
 62
     6
100
AcDbCircle
 10
1615.711639
 20
938.998779
 30
0.0
 40
8.999529
100
AcDbArc
 50
54.205185
 51
112.92717
  0
LINE
  5
60B
100
AcDbEntity
  8
図
  6
CONTINUOUS
 62
     6
100
AcDbLine
 10
1603.496349
 20
952.953711
 30
0.0
 11
1602.312267
 21
954.053711
 31
0.0
  0
LINE
  5
60C
100
AcDbEntity
  8
図
  6
CONTINUOUS
 62
     6
100
AcDbLine
 10
1582.500255
 20
952.955979
 30
0.0
 11
1583.684337
 21
954.055979
 31
0.0
  0
LINE
  5
60D
100
AcDbEntity
  8
図
  6
CONTINUOUS
 62
     6
100
AcDbLine
 10
1583.681896
 20
954.053711
 30
0.0
 11
1582.497814
 21
954.053711
 31
0.0
  0
LINE
  5
60E
100
AcDbEntity
  8
図
  6
CONTINUOUS
 62
     6
100
AcDbLine
 10
1603.502166
 20
954.053711
 30
0.0
 11
1582.50119
 21
954.053711
 31
0.0
  0
LINE
  5
60F
100
AcDbEntity
  8
図
  6
CONTINUOUS
 62
     6
100
AcDbLine
 10
1582.50119
 20
956.35
 30
0.0
 11
1582.50119
 21
949.499268
 31
0.0
  0
LINE
  5
610
100
AcDbEntity
  8
図
  6
CONTINUOUS
 62
     6
100
AcDbLine
 10
1583.681896
 20
954.053711
 30
0.0
 11
1583.681896
 21
956.35
 31
0.0
  0
LINE
  5
611
100
AcDbEntity
  8
図
  6
CONTINUOUS
 62
     6
100
AcDbLine
 10
1602.312267
 20
954.053711
 30
0.0
 11
1602.312267
 21
956.35
 31
0.0
  0
LINE
  5
612
100
AcDbEntity
  8
図
  6
CONTINUOUS
 62
     6
100
AcDbLine
 10
1603.502166
 20
951.498779
 30
0.0
 11
1603.502166
 21
956.35
 31
0.0
  0
LINE
  5
613
100
AcDbEntity
  8
図
  6
CONTINUOUS
 62
     6
100
AcDbLine
 10
1583.685272
 20
954.053711
 30
0.0
 11
1583.685272
 21
956.35
 31
0.0
  0
LINE
  5
614
100
AcDbEntity
  8
図
  6
CONTINUOUS
 62
     6
100
AcDbLine
 10
1602.315643
 20
954.053711
 30
0.0
 11
1602.315643
 21
956.35
 31
0.0
  0
LINE
  5
615
100
AcDbEntity
  8
図
  6
CONTINUOUS
 62
     6
100
AcDbLine
 10
1561.592987
 20
938.749756
 30
0.0
 11
1561.592987
 21
929.247803
 31
0.0
  0
LINE
  5
616
100
AcDbEntity
  8
図
  6
CONTINUOUS
 62
     6
100
AcDbLine
 10
1587.501678
 20
985.902573
 30
0.0
 11
1587.501678
 21
988.731
 31
0.0
  0
LINE
  5
617
100
AcDbEntity
  8
図
  6
CONTINUOUS
 62
     6
100
AcDbLine
 10
1598.501678
 20
985.902573
 30
0.0
 11
1598.501678
 21
988.731
 31
0.0
  0
LINE
  5
618
100
AcDbEntity
  8
図
  6
CONTINUOUS
 62
     6
100
AcDbLine
 10
1588.001678
 20
972.816786
 30
0.0
 11
1588.001678
 21
975.402573
 31
0.0
  0
LINE
  5
619
100
AcDbEntity
  8
図
  6
CONTINUOUS
 62
     6
100
AcDbLine
 10
1598.001678
 20
972.816786
 30
0.0
 11
1598.001678
 21
975.402573
 31
0.0
  0
LINE
  5
61A
100
AcDbEntity
  8
図
  6
CONTINUOUS
 62
     6
100
AcDbLine
 10
1593.001678
 20
972.816786
 30
0.0
 11
1587.251678
 21
972.816786
 31
0.0
  0
LINE
  5
61B
100
AcDbEntity
  8
図
  6
CONTINUOUS
 62
     6
100
AcDbLine
 10
1593.001678
 20
972.816786
 30
0.0
 11
1598.751678
 21
972.816786
 31
0.0
  0
LINE
  5
61C
100
AcDbEntity
  8
図
  6
CONTINUOUS
 62
     6
100
AcDbLine
 10
1587.501678
 20
980.902573
 30
0.0
 11
1587.501678
 21
982.731
 31
0.0
  0
LINE
  5
61D
100
AcDbEntity
  8
図
  6
CONTINUOUS
 62
     6
100
AcDbLine
 10
1588.001678
 20
978.231
 30
0.0
 11
1587.501678
 21
977.731
 31
0.0
  0
LINE
  5
61E
100
AcDbEntity
  8
図
  6
CONTINUOUS
 62
     6
100
AcDbLine
 10
1588.001678
 20
980.402573
 30
0.0
 11
1587.501678
 21
980.902573
 31
0.0
  0
LINE
  5
61F
100
AcDbEntity
  8
図
  6
CONTINUOUS
 62
     6
100
AcDbLine
 10
1588.001678
 20
978.231
 30
0.0
 11
1588.001678
 21
980.402573
 31
0.0
  0
LINE
  5
620
100
AcDbEntity
  8
図
  6
CONTINUOUS
 62
     6
100
AcDbLine
 10
1588.001678
 20
975.402573
 30
0.0
 11
1587.501678
 21
975.902573
 31
0.0
  0
LINE
  5
621
100
AcDbEntity
  8
図
  6
CONTINUOUS
 62
     6
100
AcDbLine
 10
1587.501678
 20
975.902573
 30
0.0
 11
1587.501678
 21
977.731
 31
0.0
  0
LINE
  5
622
100
AcDbEntity
  8
図
  6
CONTINUOUS
 62
     6
100
AcDbLine
 10
1588.001678
 20
983.231
 30
0.0
 11
1587.501678
 21
982.731
 31
0.0
  0
LINE
  5
623
100
AcDbEntity
  8
図
  6
CONTINUOUS
 62
     6
100
AcDbLine
 10
1588.001678
 20
985.402573
 30
0.0
 11
1587.501678
 21
985.902573
 31
0.0
  0
LINE
  5
624
100
AcDbEntity
  8
図
  6
CONTINUOUS
 62
     6
100
AcDbLine
 10
1588.001678
 20
983.231
 30
0.0
 11
1588.001678
 21
985.402573
 31
0.0
  0
LINE
  5
625
100
AcDbEntity
  8
図
  6
CONTINUOUS
 62
     6
100
AcDbLine
 10
1598.001678
 20
983.231
 30
0.0
 11
1598.001678
 21
985.402573
 31
0.0
  0
LINE
  5
626
100
AcDbEntity
  8
図
  6
CONTINUOUS
 62
     6
100
AcDbLine
 10
1598.001678
 20
985.402573
 30
0.0
 11
1598.501678
 21
985.902573
 31
0.0
  0
LINE
  5
627
100
AcDbEntity
  8
図
  6
CONTINUOUS
 62
     6
100
AcDbLine
 10
1598.001678
 20
983.231
 30
0.0
 11
1598.501678
 21
982.731
 31
0.0
  0
LINE
  5
628
100
AcDbEntity
  8
図
  6
CONTINUOUS
 62
     6
100
AcDbLine
 10
1598.501678
 20
975.902573
 30
0.0
 11
1598.501678
 21
977.731
 31
0.0
  0
LINE
  5
629
100
AcDbEntity
  8
図
  6
CONTINUOUS
 62
     6
100
AcDbLine
 10
1598.001678
 20
975.402573
 30
0.0
 11
1598.501678
 21
975.902573
 31
0.0
  0
LINE
  5
62A
100
AcDbEntity
  8
図
  6
CONTINUOUS
 62
     6
100
AcDbLine
 10
1598.001678
 20
978.231
 30
0.0
 11
1598.001678
 21
980.402573
 31
0.0
  0
LINE
  5
62B
100
AcDbEntity
  8
図
  6
CONTINUOUS
 62
     6
100
AcDbLine
 10
1598.001678
 20
980.402573
 30
0.0
 11
1598.501678
 21
980.902573
 31
0.0
  0
LINE
  5
62C
100
AcDbEntity
  8
図
  6
CONTINUOUS
 62
     6
100
AcDbLine
 10
1598.001678
 20
978.231
 30
0.0
 11
1598.501678
 21
977.731
 31
0.0
  0
LINE
  5
62D
100
AcDbEntity
  8
図
  6
CONTINUOUS
 62
     6
100
AcDbLine
 10
1598.501678
 20
980.902573
 30
0.0
 11
1598.501678
 21
982.731
 31
0.0
  0
ARC
  5
62E
100
AcDbEntity
  8
図
  6
CONTINUOUS
 62
     6
100
AcDbCircle
 10
1595.501678
 20
961.85
 30
0.0
 40
10.0
100
AcDbArc
 50
326.632987
 51
36.869898
  0
ARC
  5
62F
100
AcDbEntity
  8
図
  6
CONTINUOUS
 62
     6
100
AcDbCircle
 10
1590.501678
 20
961.85
 30
0.0
 40
10.0
100
AcDbArc
 50
143.130102
 51
213.367013
  0
LINE
  5
630
100
AcDbEntity
  8
図
  6
CONTINUOUS
 62
     6
100
AcDbLine
 10
1587.501678
 20
967.85
 30
0.0
 11
1587.501678
 21
969.85
 31
0.0
  0
LINE
  5
631
100
AcDbEntity
  8
図
  6
CONTINUOUS
 62
     6
100
AcDbLine
 10
1589.001678
 20
970.316786
 30
0.0
 11
1589.001678
 21
969.85
 31
0.0
  0
LINE
  5
632
100
AcDbEntity
  8
図
  6
CONTINUOUS
 62
     6
100
AcDbLine
 10
1587.501678
 20
969.85
 30
0.0
 11
1593.001678
 21
969.85
 31
0.0
  0
LINE
  5
633
100
AcDbEntity
  8
図
  6
CONTINUOUS
 62
     6
100
AcDbLine
 10
1593.001678
 20
970.316786
 30
0.0
 11
1598.751678
 21
970.316786
 31
0.0
  0
LINE
  5
634
100
AcDbEntity
  8
図
  6
CONTINUOUS
 62
     6
100
AcDbLine
 10
1598.501678
 20
969.85
 30
0.0
 11
1593.001678
 21
969.85
 31
0.0
  0
LINE
  5
635
100
AcDbEntity
  8
図
  6
CONTINUOUS
 62
     6
100
AcDbLine
 10
1597.001678
 20
970.316786
 30
0.0
 11
1597.001678
 21
969.85
 31
0.0
  0
LINE
  5
636
100
AcDbEntity
  8
図
  6
CONTINUOUS
 62
     6
100
AcDbLine
 10
1598.501678
 20
967.85
 30
0.0
 11
1598.501678
 21
969.85
 31
0.0
  0
LINE
  5
637
100
AcDbEntity
  8
図
  6
CONTINUOUS
 62
     6
100
AcDbLine
 10
1603.853325
 20
956.35
 30
0.0
 11
1593.001678
 21
956.35
 31
0.0
  0
LINE
  5
638
100
AcDbEntity
  8
図
  6
CONTINUOUS
 62
     6
100
AcDbLine
 10
1603.501678
 20
967.85
 30
0.0
 11
1593.001678
 21
967.85
 31
0.0
  0
LINE
  5
639
100
AcDbEntity
  8
図
  6
CONTINUOUS
 62
     6
100
AcDbLine
 10
1587.251678
 20
970.316786
 30
0.0
 11
1587.251678
 21
972.816786
 31
0.0
  0
LINE
  5
63A
100
AcDbEntity
  8
図
  6
CONTINUOUS
 62
     6
100
AcDbLine
 10
1598.751678
 20
970.316786
 30
0.0
 11
1598.751678
 21
972.816786
 31
0.0
  0
LINE
  5
63B
100
AcDbEntity
  8
図
  6
CONTINUOUS
 62
     6
100
AcDbLine
 10
1587.751678
 20
988.981
 30
0.0
 11
1587.501678
 21
988.731
 31
0.0
  0
LINE
  5
63C
100
AcDbEntity
  8
図
  6
CONTINUOUS
 62
     6
100
AcDbLine
 10
1598.251678
 20
988.981
 30
0.0
 11
1598.501678
 21
988.731
 31
0.0
  0
LINE
  5
63D
100
AcDbEntity
  8
図
  6
CONTINUOUS
 62
     6
100
AcDbLine
 10
1588.001678
 20
980.402573
 30
0.0
 11
1593.001678
 21
980.402573
 31
0.0
  0
LINE
  5
63E
100
AcDbEntity
  8
図
  6
CONTINUOUS
 62
     6
100
AcDbLine
 10
1587.501678
 20
980.902573
 30
0.0
 11
1593.001678
 21
980.902573
 31
0.0
  0
LINE
  5
63F
100
AcDbEntity
  8
図
  6
CONTINUOUS
 62
     6
100
AcDbLine
 10
1587.501678
 20
982.731
 30
0.0
 11
1593.001678
 21
982.731
 31
0.0
  0
LINE
  5
640
100
AcDbEntity
  8
図
  6
CONTINUOUS
 62
     6
100
AcDbLine
 10
1588.001678
 20
983.231
 30
0.0
 11
1593.001678
 21
983.231
 31
0.0
  0
LINE
  5
641
100
AcDbEntity
  8
図
  6
CONTINUOUS
 62
     6
100
AcDbLine
 10
1588.001678
 20
985.402573
 30
0.0
 11
1593.001678
 21
985.402573
 31
0.0
  0
LINE
  5
642
100
AcDbEntity
  8
図
  6
CONTINUOUS
 62
     6
100
AcDbLine
 10
1587.501678
 20
985.902573
 30
0.0
 11
1593.001678
 21
985.902573
 31
0.0
  0
LINE
  5
643
100
AcDbEntity
  8
図
  6
CONTINUOUS
 62
     6
100
AcDbLine
 10
1587.501678
 20
988.731
 30
0.0
 11
1593.001678
 21
988.731
 31
0.0
  0
LINE
  5
644
100
AcDbEntity
  8
図
  6
CONTINUOUS
 62
     6
100
AcDbLine
 10
1587.751678
 20
988.981
 30
0.0
 11
1593.001678
 21
988.981
 31
0.0
  0
LINE
  5
645
100
AcDbEntity
  8
図
  6
CONTINUOUS
 62
     6
100
AcDbLine
 10
1598.251678
 20
988.981
 30
0.0
 11
1593.001678
 21
988.981
 31
0.0
  0
LINE
  5
646
100
AcDbEntity
  8
図
  6
CONTINUOUS
 62
     6
100
AcDbLine
 10
1598.501678
 20
988.731
 30
0.0
 11
1593.001678
 21
988.731
 31
0.0
  0
LINE
  5
647
100
AcDbEntity
  8
図
  6
CONTINUOUS
 62
     6
100
AcDbLine
 10
1598.501678
 20
985.902573
 30
0.0
 11
1593.001678
 21
985.902573
 31
0.0
  0
LINE
  5
648
100
AcDbEntity
  8
図
  6
CONTINUOUS
 62
     6
100
AcDbLine
 10
1598.001678
 20
985.402573
 30
0.0
 11
1593.001678
 21
985.402573
 31
0.0
  0
LINE
  5
649
100
AcDbEntity
  8
図
  6
CONTINUOUS
 62
     6
100
AcDbLine
 10
1598.001678
 20
983.231
 30
0.0
 11
1593.001678
 21
983.231
 31
0.0
  0
LINE
  5
64A
100
AcDbEntity
  8
図
  6
CONTINUOUS
 62
     6
100
AcDbLine
 10
1598.501678
 20
982.731
 30
0.0
 11
1593.001678
 21
982.731
 31
0.0
  0
LINE
  5
64B
100
AcDbEntity
  8
図
  6
CONTINUOUS
 62
     6
100
AcDbLine
 10
1598.501678
 20
980.902573
 30
0.0
 11
1593.001678
 21
980.902573
 31
0.0
  0
LINE
  5
64C
100
AcDbEntity
  8
図
  6
CONTINUOUS
 62
     6
100
AcDbLine
 10
1598.001678
 20
980.402573
 30
0.0
 11
1593.001678
 21
980.402573
 31
0.0
  0
LINE
  5
64D
100
AcDbEntity
  8
図
  6
CONTINUOUS
 62
     6
100
AcDbLine
 10
1587.501678
 20
977.731
 30
0.0
 11
1593.001678
 21
977.731
 31
0.0
  0
LINE
  5
64E
100
AcDbEntity
  8
図
  6
CONTINUOUS
 62
     6
100
AcDbLine
 10
1588.001678
 20
978.231
 30
0.0
 11
1593.001678
 21
978.231
 31
0.0
  0
LINE
  5
64F
100
AcDbEntity
  8
図
  6
CONTINUOUS
 62
     6
100
AcDbLine
 10
1598.001678
 20
978.231
 30
0.0
 11
1593.001678
 21
978.231
 31
0.0
  0
LINE
  5
650
100
AcDbEntity
  8
図
  6
CONTINUOUS
 62
     6
100
AcDbLine
 10
1598.501678
 20
977.731
 30
0.0
 11
1593.001678
 21
977.731
 31
0.0
  0
LINE
  5
651
100
AcDbEntity
  8
図
  6
CONTINUOUS
 62
     6
100
AcDbLine
 10
1598.501678
 20
975.902573
 30
0.0
 11
1593.001678
 21
975.902573
 31
0.0
  0
LINE
  5
652
100
AcDbEntity
  8
図
  6
CONTINUOUS
 62
     6
100
AcDbLine
 10
1598.001678
 20
975.402573
 30
0.0
 11
1593.001678
 21
975.402573
 31
0.0
  0
LINE
  5
653
100
AcDbEntity
  8
図
  6
CONTINUOUS
 62
     6
100
AcDbLine
 10
1588.001678
 20
975.402573
 30
0.0
 11
1593.001678
 21
975.402573
 31
0.0
  0
LINE
  5
654
100
AcDbEntity
  8
図
  6
CONTINUOUS
 62
     6
100
AcDbLine
 10
1587.501678
 20
975.902573
 30
0.0
 11
1593.001678
 21
975.902573
 31
0.0
  0
ELLIPSE
  5
655
100
AcDbEntity
  8
図
  6
CONTINUOUS
 62
     6
100
AcDbEllipse
 10
1583.042386
 20
962.35
 30
0.0
 11
-0.0000000000000024
 21
4.0
 31
0.0
210
0.0
220
0.0
230
1.0
 40
0.612372
 41
0.0
 42
6.2831853071796004
  0
ELLIPSE
  5
656
100
AcDbEntity
  8
図
  6
CONTINUOUS
 62
     6
100
AcDbEllipse
 10
1593.001678
 20
962.35
 30
0.0
 11
4.898979663848869
 21
0.0000007644268222
 31
0.0
210
0.0
220
0.0
230
1.0
 40
0.816497
 41
1.5707962113152714
 42
4.7123887139092631
  0
ELLIPSE
  5
657
100
AcDbEntity
  8
図
  6
CONTINUOUS
 62
     6
100
AcDbEllipse
 10
1593.001678
 20
962.35
 30
0.0
 11
-4.898979663848869
 21
0.0000007644268125
 31
0.0
210
0.0
220
0.0
230
1.0
 40
0.816497
 41
1.5707965932703232
 42
4.7123890958643173
  0
ELLIPSE
  5
658
100
AcDbEntity
  8
図
  6
CONTINUOUS
 62
     6
100
AcDbEllipse
 10
1602.96097
 20
962.35
 30
0.0
 11
-0.0000000000000024
 21
4.0
 31
0.0
210
0.0
220
0.0
230
1.0
 40
0.612372
 41
0.0
 42
6.2831853071796004
  0
LINE
  5
659
100
AcDbEntity
  8
図
  6
CONTINUOUS
 62
     6
100
AcDbLine
 10
1593.001678
 20
970.316786
 30
0.0
 11
1587.251678
 21
970.316786
 31
0.0
  0
LINE
  5
65A
100
AcDbEntity
  8
図
  6
CONTINUOUS
 62
     6
100
AcDbLine
 10
1582.501678
 20
967.85
 30
0.0
 11
1593.001678
 21
967.85
 31
0.0
  0
LINE
  5
65B
100
AcDbEntity
  8
図
  6
CONTINUOUS
 62
     6
100
AcDbLine
 10
1582.150031
 20
956.35
 30
0.0
 11
1593.001678
 21
956.35
 31
0.0
  0
LINE
  5
65C
100
AcDbEntity
  8
図
  6
CONTINUOUS
 62
     6
100
AcDbLine
 10
1661.999013
 20
923.498291
 30
0.0
 11
1621.002487
 21
923.498291
 31
0.0
  0
LINE
  5
65D
100
AcDbEntity
  8
図
  6
CONTINUOUS
 62
     6
100
AcDbLine
 10
1661.999013
 20
944.499268
 30
0.0
 11
1620.977455
 21
944.499268
 31
0.0
  0
ARC
  5
65E
100
AcDbEntity
  8
図
  6
CONTINUOUS
 62
     6
100
AcDbCircle
 10
1676.000478
 20
919.499268
 30
0.0
 40
13.001356
100
AcDbArc
 50
203.141373
 51
270.661958
  0
LINE
  5
65F
100
AcDbEntity
  8
図
  6
CONTINUOUS
 62
     6
100
AcDbLine
 10
1677.99999
 20
906.498779
 30
0.0
 11
1676.000478
 21
906.498779
 31
0.0
  0
LINE
  5
660
100
AcDbEntity
  8
図
  6
CONTINUOUS
 62
     6
100
AcDbLine
 10
1684.779775
 20
944.269775
 30
0.0
 11
1684.737508
 21
923.7052
 31
0.0
  0
LINE
  5
661
100
AcDbEntity
  8
図
  6
CONTINUOUS
 62
     6
100
AcDbLine
 10
1686.300771
 20
925.251221
 30
0.0
 11
1686.300771
 21
942.748779
 31
0.0
  0
ARC
  5
662
100
AcDbEntity
  8
図
  6
CONTINUOUS
 62
     6
100
AcDbCircle
 10
1687.299306
 20
924.357666
 30
0.0
 40
25.298605
100
AcDbArc
 50
180.0
 51
203.205124
  0
LINE
  5
663
100
AcDbEntity
  8
図
  6
CONTINUOUS
 62
     6
100
AcDbLine
 10
1684.757803
 20
924.860596
 30
0.0
 11
1685.941885
 21
924.892334
 31
0.0
  0
LINE
  5
664
100
AcDbEntity
  8
図
  6
CONTINUOUS
 62
     6
100
AcDbLine
 10
1684.777334
 20
943.083252
 30
0.0
 11
1686.00292
 21
943.046631
 31
0.0
  0
LINE
  5
665
100
AcDbEntity
  8
図
  6
CONTINUOUS
 62
     6
100
AcDbLine
 10
1684.757803
 20
924.860596
 30
0.0
 11
1677.99999
 21
924.679932
 31
0.0
  0
LINE
  5
666
100
AcDbEntity
  8
図
  6
CONTINUOUS
 62
     6
100
AcDbLine
 10
1677.99999
 20
943.295654
 30
0.0
 11
1684.777334
 21
943.083252
 31
0.0
  0
LINE
  5
667
100
AcDbEntity
  8
図
  6
CONTINUOUS
 62
     6
100
AcDbLine
 10
1684.779775
 20
944.269775
 30
0.0
 11
1677.99999
 21
944.482178
 31
0.0
  0
LINE
  5
668
100
AcDbEntity
  8
図
  6
CONTINUOUS
 62
     6
100
AcDbLine
 10
1686.300771
 20
942.748779
 30
0.0
 11
1684.779775
 21
944.269775
 31
0.0
  0
LINE
  5
669
100
AcDbEntity
  8
図
  6
CONTINUOUS
 62
     6
100
AcDbLine
 10
1685.941885
 20
924.892334
 30
0.0
 11
1686.300771
 21
925.248779
 31
0.0
  0
LINE
  5
66A
100
AcDbEntity
  8
図
  6
CONTINUOUS
 62
     6
100
AcDbLine
 10
1684.755361
 20
923.705811
 30
0.0
 11
1685.941885
 21
924.892334
 31
0.0
  0
LINE
  5
66B
100
AcDbEntity
  8
図
  6
CONTINUOUS
 62
     6
100
AcDbLine
 10
1677.99999
 20
923.493408
 30
0.0
 11
1684.755361
 21
923.705811
 31
0.0
  0
ARC
  5
66C
100
AcDbEntity
  8
図
  6
CONTINUOUS
 62
     6
100
AcDbCircle
 10
1687.299306
 20
943.639893
 30
0.0
 40
25.300293
100
AcDbArc
 50
156.797287
 51
180.0
  0
ARC
  5
66D
100
AcDbEntity
  8
図
  6
CONTINUOUS
 62
     6
100
AcDbCircle
 10
1676.000478
 20
948.498291
 30
0.0
 40
12.999535
100
AcDbArc
 50
90.000031
 51
156.853699
  0
LINE
  5
66E
100
AcDbEntity
  8
図
  6
CONTINUOUS
 62
     6
100
AcDbLine
 10
1677.99999
 20
961.498779
 30
0.0
 11
1676.000478
 21
961.498779
 31
0.0
  0
LINE
  5
66F
100
AcDbEntity
  8
図
  6
CONTINUOUS
 62
     6
100
AcDbLine
 10
1661.999013
 20
943.639893
 30
0.0
 11
1661.999013
 21
924.357666
 31
0.0
  0
LINE
  5
670
100
AcDbEntity
  8
図
  6
CONTINUOUS
 62
     6
100
AcDbLine
 10
1686.300771
 20
943.5
 30
0.0
 11
1704.49999
 21
943.5
 31
0.0
  0
LINE
  5
671
100
AcDbEntity
  8
図
  6
CONTINUOUS
 62
     2
100
AcDbLine
 10
1536.99999
 20
985.0
 30
0.0
 11
1588.001678
 21
985.0
 31
0.0
  0
LINE
  5
672
100
AcDbEntity
  8
図
  6
CONTINUOUS
 62
     2
100
AcDbLine
 10
1598.001678
 20
985.0
 30
0.0
 11
1637.99999
 21
985.0
 31
0.0
  0
LINE
  5
673
100
AcDbEntity
  8
図
  6
EXLTYPE3
 62
     6
100
AcDbLine
 10
1620.0
 20
969.0
 30
0.0
 11
1714.49999
 21
969.0
 31
0.0
  0
ARC
  5
674
100
AcDbEntity
  8
図
  6
CONTINUOUS
 62
     2
100
AcDbCircle
 10
1649.00298
 20
947.002992
 30
0.0
 40
11.002992
100
AcDbArc
 50
180.0
 51
193.152838
  0
LINE
  5
675
100
AcDbEntity
  8
図
  6
CONTINUOUS
 62
     2
100
AcDbLine
 10
1637.99999
 20
990.997008
 30
0.0
 11
1637.99999
 21
947.002992
 31
0.0
  0
LINE
  5
676
100
AcDbEntity
  8
図
  6
CONTINUOUS
 62
     6
100
AcDbLine
 10
1587.751678
 20
1169.0
 30
0.0
 11
1587.751678
 21
988.981
 31
0.0
  0
LINE
  5
677
100
AcDbEntity
  8
図
  6
CONTINUOUS
 62
     6
100
AcDbLine
 10
1598.251678
 20
1169.0
 30
0.0
 11
1598.251678
 21
988.981
 31
0.0
  0
LINE
  5
678
100
AcDbEntity
  8
図
  6
CONTINUOUS
 62
     2
100
AcDbLine
 10
1536.99999
 20
953.0
 30
0.0
 11
1582.50119
 21
953.0
 31
0.0
  0
LINE
  5
679
100
AcDbEntity
  8
図
  6
CONTINUOUS
 62
     2
100
AcDbLine
 10
1603.502166
 20
953.0
 30
0.0
 11
1637.99999
 21
953.0
 31
0.0
  0
LINE
  5
67A
100
AcDbEntity
  8
図
  6
CONTINUOUS
 62
     6
100
AcDbLine
 10
524.557617
 20
942.390961
 30
0.0
 11
514.445313
 21
948.230957
 31
0.0
  0
LINE
  5
67B
100
AcDbEntity
  8
図
  6
CONTINUOUS
 62
     6
100
AcDbLine
 10
501.447266
 20
925.713867
 30
0.0
 11
511.55957
 21
919.876007
 31
0.0
  0
LINE
  5
67C
100
AcDbEntity
  8
図
  6
CONTINUOUS
 62
     6
100
AcDbLine
 10
500.001953
 20
939.890656
 30
0.0
 11
500.001953
 21
928.216309
 31
0.0
  0
CIRCLE
  5
67D
100
AcDbEntity
  8
図
  6
CONTINUOUS
 62
     6
100
AcDbCircle
 10
513.0
 20
934.053711
 30
0.0
 40
11.750031
  0
LINE
  5
67E
100
AcDbEntity
  8
図
  6
CONTINUOUS
 62
     6
100
AcDbLine
 10
512.001465
 20
929.410156
 30
0.0
 11
512.001465
 21
938.697266
 31
0.0
  0
LINE
  5
67F
100
AcDbEntity
  8
図
  6
CONTINUOUS
 62
     6
100
AcDbLine
 10
514.000977
 20
938.697266
 30
0.0
 11
514.000977
 21
929.410156
 31
0.0
  0
LINE
  5
680
100
AcDbEntity
  8
図
  6
CONTINUOUS
 62
     6
100
AcDbLine
 10
511.554688
 20
948.230957
 30
0.0
 11
501.55957
 21
942.54538
 31
0.0
  0
LINE
  5
681
100
AcDbEntity
  8
図
  6
CONTINUOUS
 62
     6
100
AcDbLine
 10
526.000488
 20
928.216309
 30
0.0
 11
526.000488
 21
939.891113
 31
0.0
  0
LINE
  5
682
100
AcDbEntity
  8
図
  6
CONTINUOUS
 62
     6
100
AcDbLine
 10
514.445313
 20
919.876465
 30
0.0
 11
524.555176
 21
925.713867
 31
0.0
  0
ARC
  5
683
100
AcDbEntity
  8
図
  6
CONTINUOUS
 62
     6
100
AcDbCircle
 10
513.0
 20
934.053711
 30
0.0
 40
14.248667
100
AcDbArc
 50
204.184753
 51
215.825424
  0
ARC
  5
684
100
AcDbEntity
  8
図
  6
CONTINUOUS
 62
     6
100
AcDbCircle
 10
513.0
 20
934.053711
 30
0.0
 40
14.248495
100
AcDbArc
 50
143.415161
 51
155.815567
  0
LINE
  5
685
100
AcDbEntity
  8
図
  6
CONTINUOUS
 62
     6
100
AcDbLine
 10
523.500488
 20
943.6875
 30
0.0
 11
523.500488
 21
943.001465
 31
0.0
  0
LINE
  5
686
100
AcDbEntity
  8
図
  6
CONTINUOUS
 62
     6
100
AcDbLine
 10
502.501953
 20
943.6875
 30
0.0
 11
502.501953
 21
943.082031
 31
0.0
  0
LINE
  5
687
100
AcDbEntity
  8
図
  6
CONTINUOUS
 62
     6
100
AcDbLine
 10
502.501953
 20
943.082031
 30
0.0
 11
501.557129
 21
942.544922
 31
0.0
  0
ARC
  5
688
100
AcDbEntity
  8
図
  6
CONTINUOUS
 62
     6
100
AcDbCircle
 10
513.0
 20
934.053711
 30
0.0
 40
4.748839
100
AcDbArc
 50
180.648041
 51
180.000092
  0
ARC
  5
689
100
AcDbEntity
  8
図
  6
CONTINUOUS
 62
     6
100
AcDbCircle
 10
513.0
 20
934.053711
 30
0.0
 40
5.798589
100
AcDbArc
 50
180.530731
 51
179.999969
  0
ARC
  5
68A
100
AcDbEntity
  8
図
  6
CONTINUOUS
 62
     6
100
AcDbCircle
 10
513.0
 20
934.053711
 30
0.0
 40
14.250727
100
AcDbArc
 50
264.179016
 51
275.820984
  0
ARC
  5
68B
100
AcDbEntity
  8
図
  6
CONTINUOUS
 62
     6
100
AcDbCircle
 10
513.0
 20
934.053711
 30
0.0
 40
14.250441
100
AcDbArc
 50
324.180481
 51
335.81987
  0
ARC
  5
68C
100
AcDbEntity
  8
図
  6
CONTINUOUS
 62
     6
100
AcDbCircle
 10
513.0
 20
934.053711
 30
0.0
 40
14.250898
100
AcDbArc
 50
24.18074
 51
35.820297
  0
LINE
  5
68D
100
AcDbEntity
  8
図
  6
CONTINUOUS
 62
     6
100
AcDbLine
 10
522.316406
 20
954.053711
 30
0.0
 11
502.501953
 21
954.053711
 31
0.0
  0
LINE
  5
68E
100
AcDbEntity
  8
図
  6
CONTINUOUS
 62
     6
100
AcDbLine
 10
522.316406
 20
954.053711
 30
0.0
 11
523.500488
 21
954.053711
 31
0.0
  0
ARC
  5
68F
100
AcDbEntity
  8
図
  6
CONTINUOUS
 62
     6
100
AcDbCircle
 10
513.0
 20
934.053711
 30
0.0
 40
14.250727
100
AcDbArc
 50
84.179016
 51
95.820984
  0
LINE
  5
690
100
AcDbEntity
  8
図
  6
CONTINUOUS
 62
     6
100
AcDbLine
 10
502.501953
 20
952.953711
 30
0.0
 11
503.686035
 21
954.053711
 31
0.0
  0
LINE
  5
691
100
AcDbEntity
  8
図
  6
CONTINUOUS
 62
     6
100
AcDbLine
 10
523.498047
 20
952.955979
 30
0.0
 11
522.313965
 21
954.055979
 31
0.0
  0
LINE
  5
692
100
AcDbEntity
  8
図
  6
CONTINUOUS
 62
     6
100
AcDbLine
 10
502.501953
 20
956.35
 30
0.0
 11
502.501953
 21
943.6875
 31
0.0
  0
LINE
  5
693
100
AcDbEntity
  8
図
  6
CONTINUOUS
 62
     6
100
AcDbLine
 10
523.500488
 20
956.35
 30
0.0
 11
523.500488
 21
943.6875
 31
0.0
  0
LINE
  5
694
100
AcDbEntity
  8
図
  6
CONTINUOUS
 62
     6
100
AcDbLine
 10
503.686035
 20
954.053711
 30
0.0
 11
503.686035
 21
956.35
 31
0.0
  0
LINE
  5
695
100
AcDbEntity
  8
図
  6
CONTINUOUS
 62
     6
100
AcDbLine
 10
522.316406
 20
954.053711
 30
0.0
 11
522.316406
 21
956.35
 31
0.0
  0
LINE
  5
696
100
AcDbEntity
  8
図
  6
CONTINUOUS
 62
     6
100
AcDbLine
 10
507.501221
 20
985.902573
 30
0.0
 11
507.501221
 21
988.731
 31
0.0
  0
LINE
  5
697
100
AcDbEntity
  8
図
  6
CONTINUOUS
 62
     6
100
AcDbLine
 10
518.501221
 20
985.902573
 30
0.0
 11
518.501221
 21
988.731
 31
0.0
  0
LINE
  5
698
100
AcDbEntity
  8
図
  6
CONTINUOUS
 62
     6
100
AcDbLine
 10
508.001221
 20
972.816786
 30
0.0
 11
508.001221
 21
975.402573
 31
0.0
  0
LINE
  5
699
100
AcDbEntity
  8
図
  6
CONTINUOUS
 62
     6
100
AcDbLine
 10
518.001221
 20
972.816786
 30
0.0
 11
518.001221
 21
975.402573
 31
0.0
  0
LINE
  5
69A
100
AcDbEntity
  8
図
  6
CONTINUOUS
 62
     6
100
AcDbLine
 10
513.001221
 20
972.816786
 30
0.0
 11
507.251221
 21
972.816786
 31
0.0
  0
LINE
  5
69B
100
AcDbEntity
  8
図
  6
CONTINUOUS
 62
     6
100
AcDbLine
 10
513.001221
 20
972.816786
 30
0.0
 11
518.751221
 21
972.816786
 31
0.0
  0
LINE
  5
69C
100
AcDbEntity
  8
図
  6
CONTINUOUS
 62
     6
100
AcDbLine
 10
507.501221
 20
980.902573
 30
0.0
 11
507.501221
 21
982.731
 31
0.0
  0
LINE
  5
69D
100
AcDbEntity
  8
図
  6
CONTINUOUS
 62
     6
100
AcDbLine
 10
508.001221
 20
978.231
 30
0.0
 11
507.501221
 21
977.731
 31
0.0
  0
LINE
  5
69E
100
AcDbEntity
  8
図
  6
CONTINUOUS
 62
     6
100
AcDbLine
 10
508.001221
 20
980.402573
 30
0.0
 11
507.501221
 21
980.902573
 31
0.0
  0
LINE
  5
69F
100
AcDbEntity
  8
図
  6
CONTINUOUS
 62
     6
100
AcDbLine
 10
508.001221
 20
978.231
 30
0.0
 11
508.001221
 21
980.402573
 31
0.0
  0
LINE
  5
6A0
100
AcDbEntity
  8
図
  6
CONTINUOUS
 62
     6
100
AcDbLine
 10
508.001221
 20
975.402573
 30
0.0
 11
507.501221
 21
975.902573
 31
0.0
  0
LINE
  5
6A1
100
AcDbEntity
  8
図
  6
CONTINUOUS
 62
     6
100
AcDbLine
 10
507.501221
 20
975.902573
 30
0.0
 11
507.501221
 21
977.731
 31
0.0
  0
LINE
  5
6A2
100
AcDbEntity
  8
図
  6
CONTINUOUS
 62
     6
100
AcDbLine
 10
508.001221
 20
983.231
 30
0.0
 11
507.501221
 21
982.731
 31
0.0
  0
LINE
  5
6A3
100
AcDbEntity
  8
図
  6
CONTINUOUS
 62
     6
100
AcDbLine
 10
508.001221
 20
985.402573
 30
0.0
 11
507.501221
 21
985.902573
 31
0.0
  0
LINE
  5
6A4
100
AcDbEntity
  8
図
  6
CONTINUOUS
 62
     6
100
AcDbLine
 10
508.001221
 20
983.231
 30
0.0
 11
508.001221
 21
985.402573
 31
0.0
  0
LINE
  5
6A5
100
AcDbEntity
  8
図
  6
CONTINUOUS
 62
     6
100
AcDbLine
 10
518.001221
 20
983.231
 30
0.0
 11
518.001221
 21
985.402573
 31
0.0
  0
LINE
  5
6A6
100
AcDbEntity
  8
図
  6
CONTINUOUS
 62
     6
100
AcDbLine
 10
518.001221
 20
985.402573
 30
0.0
 11
518.501221
 21
985.902573
 31
0.0
  0
LINE
  5
6A7
100
AcDbEntity
  8
図
  6
CONTINUOUS
 62
     6
100
AcDbLine
 10
518.001221
 20
983.231
 30
0.0
 11
518.501221
 21
982.731
 31
0.0
  0
LINE
  5
6A8
100
AcDbEntity
  8
図
  6
CONTINUOUS
 62
     6
100
AcDbLine
 10
518.501221
 20
975.902573
 30
0.0
 11
518.501221
 21
977.731
 31
0.0
  0
LINE
  5
6A9
100
AcDbEntity
  8
図
  6
CONTINUOUS
 62
     6
100
AcDbLine
 10
518.001221
 20
975.402573
 30
0.0
 11
518.501221
 21
975.902573
 31
0.0
  0
LINE
  5
6AA
100
AcDbEntity
  8
図
  6
CONTINUOUS
 62
     6
100
AcDbLine
 10
518.001221
 20
978.231
 30
0.0
 11
518.001221
 21
980.402573
 31
0.0
  0
LINE
  5
6AB
100
AcDbEntity
  8
図
  6
CONTINUOUS
 62
     6
100
AcDbLine
 10
518.001221
 20
980.402573
 30
0.0
 11
518.501221
 21
980.902573
 31
0.0
  0
LINE
  5
6AC
100
AcDbEntity
  8
図
  6
CONTINUOUS
 62
     6
100
AcDbLine
 10
518.001221
 20
978.231
 30
0.0
 11
518.501221
 21
977.731
 31
0.0
  0
LINE
  5
6AD
100
AcDbEntity
  8
図
  6
CONTINUOUS
 62
     6
100
AcDbLine
 10
518.501221
 20
980.902573
 30
0.0
 11
518.501221
 21
982.731
 31
0.0
  0
ARC
  5
6AE
100
AcDbEntity
  8
図
  6
CONTINUOUS
 62
     6
100
AcDbCircle
 10
515.501221
 20
961.85
 30
0.0
 40
10.0
100
AcDbArc
 50
326.632987
 51
36.869898
  0
ARC
  5
6AF
100
AcDbEntity
  8
図
  6
CONTINUOUS
 62
     6
100
AcDbCircle
 10
510.501221
 20
961.85
 30
0.0
 40
10.0
100
AcDbArc
 50
143.130102
 51
213.367013
  0
LINE
  5
6B0
100
AcDbEntity
  8
図
  6
CONTINUOUS
 62
     6
100
AcDbLine
 10
507.501221
 20
967.85
 30
0.0
 11
507.501221
 21
969.85
 31
0.0
  0
LINE
  5
6B1
100
AcDbEntity
  8
図
  6
CONTINUOUS
 62
     6
100
AcDbLine
 10
509.001221
 20
970.316786
 30
0.0
 11
509.001221
 21
969.85
 31
0.0
  0
LINE
  5
6B2
100
AcDbEntity
  8
図
  6
CONTINUOUS
 62
     6
100
AcDbLine
 10
507.501221
 20
969.85
 30
0.0
 11
513.001221
 21
969.85
 31
0.0
  0
LINE
  5
6B3
100
AcDbEntity
  8
図
  6
CONTINUOUS
 62
     6
100
AcDbLine
 10
513.001221
 20
970.316786
 30
0.0
 11
518.751221
 21
970.316786
 31
0.0
  0
LINE
  5
6B4
100
AcDbEntity
  8
図
  6
CONTINUOUS
 62
     6
100
AcDbLine
 10
518.501221
 20
969.85
 30
0.0
 11
513.001221
 21
969.85
 31
0.0
  0
LINE
  5
6B5
100
AcDbEntity
  8
図
  6
CONTINUOUS
 62
     6
100
AcDbLine
 10
517.001221
 20
970.316786
 30
0.0
 11
517.001221
 21
969.85
 31
0.0
  0
LINE
  5
6B6
100
AcDbEntity
  8
図
  6
CONTINUOUS
 62
     6
100
AcDbLine
 10
518.501221
 20
967.85
 30
0.0
 11
518.501221
 21
969.85
 31
0.0
  0
LINE
  5
6B7
100
AcDbEntity
  8
図
  6
CONTINUOUS
 62
     6
100
AcDbLine
 10
523.852867
 20
956.35
 30
0.0
 11
513.001221
 21
956.35
 31
0.0
  0
LINE
  5
6B8
100
AcDbEntity
  8
図
  6
CONTINUOUS
 62
     6
100
AcDbLine
 10
523.501221
 20
967.85
 30
0.0
 11
513.001221
 21
967.85
 31
0.0
  0
LINE
  5
6B9
100
AcDbEntity
  8
図
  6
CONTINUOUS
 62
     6
100
AcDbLine
 10
507.251221
 20
970.316786
 30
0.0
 11
507.251221
 21
972.816786
 31
0.0
  0
LINE
  5
6BA
100
AcDbEntity
  8
図
  6
CONTINUOUS
 62
     6
100
AcDbLine
 10
518.751221
 20
970.316786
 30
0.0
 11
518.751221
 21
972.816786
 31
0.0
  0
LINE
  5
6BB
100
AcDbEntity
  8
図
  6
CONTINUOUS
 62
     6
100
AcDbLine
 10
507.751221
 20
988.981
 30
0.0
 11
507.501221
 21
988.731
 31
0.0
  0
LINE
  5
6BC
100
AcDbEntity
  8
図
  6
CONTINUOUS
 62
     6
100
AcDbLine
 10
518.251221
 20
988.981
 30
0.0
 11
518.501221
 21
988.731
 31
0.0
  0
LINE
  5
6BD
100
AcDbEntity
  8
図
  6
CONTINUOUS
 62
     6
100
AcDbLine
 10
508.001221
 20
980.402573
 30
0.0
 11
513.001221
 21
980.402573
 31
0.0
  0
LINE
  5
6BE
100
AcDbEntity
  8
図
  6
CONTINUOUS
 62
     6
100
AcDbLine
 10
507.501221
 20
980.902573
 30
0.0
 11
513.001221
 21
980.902573
 31
0.0
  0
LINE
  5
6BF
100
AcDbEntity
  8
図
  6
CONTINUOUS
 62
     6
100
AcDbLine
 10
507.501221
 20
982.731
 30
0.0
 11
513.001221
 21
982.731
 31
0.0
  0
LINE
  5
6C0
100
AcDbEntity
  8
図
  6
CONTINUOUS
 62
     6
100
AcDbLine
 10
508.001221
 20
983.231
 30
0.0
 11
513.001221
 21
983.231
 31
0.0
  0
LINE
  5
6C1
100
AcDbEntity
  8
図
  6
CONTINUOUS
 62
     6
100
AcDbLine
 10
508.001221
 20
985.402573
 30
0.0
 11
513.001221
 21
985.402573
 31
0.0
  0
LINE
  5
6C2
100
AcDbEntity
  8
図
  6
CONTINUOUS
 62
     6
100
AcDbLine
 10
507.501221
 20
985.902573
 30
0.0
 11
513.001221
 21
985.902573
 31
0.0
  0
LINE
  5
6C3
100
AcDbEntity
  8
図
  6
CONTINUOUS
 62
     6
100
AcDbLine
 10
507.501221
 20
988.731
 30
0.0
 11
513.001221
 21
988.731
 31
0.0
  0
LINE
  5
6C4
100
AcDbEntity
  8
図
  6
CONTINUOUS
 62
     6
100
AcDbLine
 10
507.751221
 20
988.981
 30
0.0
 11
513.001221
 21
988.981
 31
0.0
  0
LINE
  5
6C5
100
AcDbEntity
  8
図
  6
CONTINUOUS
 62
     6
100
AcDbLine
 10
518.251221
 20
988.981
 30
0.0
 11
513.001221
 21
988.981
 31
0.0
  0
LINE
  5
6C6
100
AcDbEntity
  8
図
  6
CONTINUOUS
 62
     6
100
AcDbLine
 10
518.501221
 20
988.731
 30
0.0
 11
513.001221
 21
988.731
 31
0.0
  0
LINE
  5
6C7
100
AcDbEntity
  8
図
  6
CONTINUOUS
 62
     6
100
AcDbLine
 10
518.501221
 20
985.902573
 30
0.0
 11
513.001221
 21
985.902573
 31
0.0
  0
LINE
  5
6C8
100
AcDbEntity
  8
図
  6
CONTINUOUS
 62
     6
100
AcDbLine
 10
518.001221
 20
985.402573
 30
0.0
 11
513.001221
 21
985.402573
 31
0.0
  0
LINE
  5
6C9
100
AcDbEntity
  8
図
  6
CONTINUOUS
 62
     6
100
AcDbLine
 10
518.001221
 20
983.231
 30
0.0
 11
513.001221
 21
983.231
 31
0.0
  0
LINE
  5
6CA
100
AcDbEntity
  8
図
  6
CONTINUOUS
 62
     6
100
AcDbLine
 10
518.501221
 20
982.731
 30
0.0
 11
513.001221
 21
982.731
 31
0.0
  0
LINE
  5
6CB
100
AcDbEntity
  8
図
  6
CONTINUOUS
 62
     6
100
AcDbLine
 10
518.501221
 20
980.902573
 30
0.0
 11
513.001221
 21
980.902573
 31
0.0
  0
LINE
  5
6CC
100
AcDbEntity
  8
図
  6
CONTINUOUS
 62
     6
100
AcDbLine
 10
518.001221
 20
980.402573
 30
0.0
 11
513.001221
 21
980.402573
 31
0.0
  0
LINE
  5
6CD
100
AcDbEntity
  8
図
  6
CONTINUOUS
 62
     6
100
AcDbLine
 10
507.501221
 20
977.731
 30
0.0
 11
513.001221
 21
977.731
 31
0.0
  0
LINE
  5
6CE
100
AcDbEntity
  8
図
  6
CONTINUOUS
 62
     6
100
AcDbLine
 10
508.001221
 20
978.231
 30
0.0
 11
513.001221
 21
978.231
 31
0.0
  0
LINE
  5
6CF
100
AcDbEntity
  8
図
  6
CONTINUOUS
 62
     6
100
AcDbLine
 10
518.001221
 20
978.231
 30
0.0
 11
513.001221
 21
978.231
 31
0.0
  0
LINE
  5
6D0
100
AcDbEntity
  8
図
  6
CONTINUOUS
 62
     6
100
AcDbLine
 10
518.501221
 20
977.731
 30
0.0
 11
513.001221
 21
977.731
 31
0.0
  0
LINE
  5
6D1
100
AcDbEntity
  8
図
  6
CONTINUOUS
 62
     6
100
AcDbLine
 10
518.501221
 20
975.902573
 30
0.0
 11
513.001221
 21
975.902573
 31
0.0
  0
LINE
  5
6D2
100
AcDbEntity
  8
図
  6
CONTINUOUS
 62
     6
100
AcDbLine
 10
518.001221
 20
975.402573
 30
0.0
 11
513.001221
 21
975.402573
 31
0.0
  0
LINE
  5
6D3
100
AcDbEntity
  8
図
  6
CONTINUOUS
 62
     6
100
AcDbLine
 10
508.001221
 20
975.402573
 30
0.0
 11
513.001221
 21
975.402573
 31
0.0
  0
LINE
  5
6D4
100
AcDbEntity
  8
図
  6
CONTINUOUS
 62
     6
100
AcDbLine
 10
507.501221
 20
975.902573
 30
0.0
 11
513.001221
 21
975.902573
 31
0.0
  0
ELLIPSE
  5
6D5
100
AcDbEntity
  8
図
  6
CONTINUOUS
 62
     6
100
AcDbEllipse
 10
503.041929
 20
962.35
 30
0.0
 11
-0.0000000000000024
 21
4.0
 31
0.0
210
0.0
220
0.0
230
1.0
 40
0.612372
 41
0.0
 42
6.2831853071796004
  0
ELLIPSE
  5
6D6
100
AcDbEntity
  8
図
  6
CONTINUOUS
 62
     6
100
AcDbEllipse
 10
513.001221
 20
962.35
 30
0.0
 11
4.898979663848869
 21
0.0000007644268222
 31
0.0
210
0.0
220
0.0
230
1.0
 40
0.816497
 41
1.5707962113152714
 42
4.7123887139092631
  0
ELLIPSE
  5
6D7
100
AcDbEntity
  8
図
  6
CONTINUOUS
 62
     6
100
AcDbEllipse
 10
513.001221
 20
962.35
 30
0.0
 11
-4.898979663848869
 21
0.0000007644268125
 31
0.0
210
0.0
220
0.0
230
1.0
 40
0.816497
 41
1.5707965932703232
 42
4.7123890958643173
  0
ELLIPSE
  5
6D8
100
AcDbEntity
  8
図
  6
CONTINUOUS
 62
     6
100
AcDbEllipse
 10
522.960513
 20
962.35
 30
0.0
 11
-0.0000000000000024
 21
4.0
 31
0.0
210
0.0
220
0.0
230
1.0
 40
0.612372
 41
0.0
 42
6.2831853071796004
  0
LINE
  5
6D9
100
AcDbEntity
  8
図
  6
CONTINUOUS
 62
     6
100
AcDbLine
 10
513.001221
 20
970.316786
 30
0.0
 11
507.251221
 21
970.316786
 31
0.0
  0
LINE
  5
6DA
100
AcDbEntity
  8
図
  6
CONTINUOUS
 62
     6
100
AcDbLine
 10
502.501221
 20
967.85
 30
0.0
 11
513.001221
 21
967.85
 31
0.0
  0
LINE
  5
6DB
100
AcDbEntity
  8
図
  6
CONTINUOUS
 62
     6
100
AcDbLine
 10
502.149574
 20
956.35
 30
0.0
 11
513.001221
 21
956.35
 31
0.0
  0
ARC
  5
6DC
100
AcDbEntity
  8
図
  6
CONTINUOUS
 62
     6
100
AcDbCircle
 10
513.0
 20
934.0
 30
0.0
 40
27.499275
100
AcDbArc
 50
115.880464
 51
64.127172
  0
LINE
  5
6DD
100
AcDbEntity
  8
図
  6
EXLTYPE3
 62
     6
100
AcDbLine
 10
560.5
 20
934.0
 30
0.0
 11
465.5
 21
934.0
 31
0.0
  0
ARC
  5
6DE
100
AcDbEntity
  8
図
  6
CONTINUOUS
 62
     6
100
AcDbCircle
 10
607.751221
 20
1083.0
 30
0.0
 40
89.5
100
AcDbArc
 50
160.0
 51
180.0
  0
ARC
  5
6DF
100
AcDbEntity
  8
図
  6
CONTINUOUS
 62
     6
100
AcDbCircle
 10
607.751221
 20
1083.0
 30
0.0
 40
100.0
100
AcDbArc
 50
160.0
 51
180.0
  0
LINE
  5
6E0
100
AcDbEntity
  8
図
  6
CONTINUOUS
 62
     6
100
AcDbLine
 10
507.751221
 20
1083.0
 30
0.0
 11
507.751221
 21
988.981
 31
0.0
  0
LINE
  5
6E1
100
AcDbEntity
  8
図
  6
CONTINUOUS
 62
     6
100
AcDbLine
 10
518.251221
 20
1083.0
 30
0.0
 11
518.251221
 21
988.981
 31
0.0
  0
LINE
  5
6E2
100
AcDbEntity
  8
図
  6
CONTINUOUS
 62
     6
100
AcDbLine
 10
532.634884
 20
1169.0
 30
0.0
 11
513.781959
 21
1117.202014
 31
0.0
  0
LINE
  5
6E3
100
AcDbEntity
  8
図
  6
CONTINUOUS
 62
     6
100
AcDbLine
 10
543.80875
 20
1169.0
 30
0.0
 11
523.648731
 21
1113.610803
 31
0.0
  0
LINE
  5
6E4
100
AcDbEntity
  8
図
  6
CONTINUOUS
 62
     6
100
AcDbLine
 10
632.19125
 20
1169.0
 30
0.0
 11
652.351269
 21
1113.610803
 31
0.0
  0
LINE
  5
6E5
100
AcDbEntity
  8
図
  6
CONTINUOUS
 62
     6
100
AcDbLine
 10
643.365116
 20
1169.0
 30
0.0
 11
662.218041
 21
1117.202014
 31
0.0
  0
ARC
  5
6E6
100
AcDbEntity
  8
図
  6
CONTINUOUS
 62
     6
100
AcDbCircle
 10
568.248779
 20
1083.0
 30
0.0
 40
89.5
100
AcDbArc
 50
0.0
 51
20.0
  0
ARC
  5
6E7
100
AcDbEntity
  8
図
  6
CONTINUOUS
 62
     6
100
AcDbCircle
 10
568.248779
 20
1083.0
 30
0.0
 40
100.0
100
AcDbArc
 50
0.0
 51
20.0
  0
LINE
  5
6E8
100
AcDbEntity
  8
図
  6
CONTINUOUS
 62
     6
100
AcDbLine
 10
657.748779
 20
1083.0
 30
0.0
 11
657.748779
 21
988.981
 31
0.0
  0
LINE
  5
6E9
100
AcDbEntity
  8
図
  6
CONTINUOUS
 62
     6
100
AcDbLine
 10
668.248779
 20
1083.0
 30
0.0
 11
668.248779
 21
988.981
 31
0.0
  0
LINE
  5
6EA
100
AcDbEntity
  8
図
  6
CONTINUOUS
 62
     6
100
AcDbLine
 10
651.442383
 20
942.390961
 30
0.0
 11
661.554687
 21
948.230957
 31
0.0
  0
LINE
  5
6EB
100
AcDbEntity
  8
図
  6
CONTINUOUS
 62
     6
100
AcDbLine
 10
674.552734
 20
925.713867
 30
0.0
 11
664.44043
 21
919.876007
 31
0.0
  0
LINE
  5
6EC
100
AcDbEntity
  8
図
  6
CONTINUOUS
 62
     6
100
AcDbLine
 10
675.998047
 20
939.890656
 30
0.0
 11
675.998047
 21
928.216309
 31
0.0
  0
CIRCLE
  5
6ED
100
AcDbEntity
  8
図
  6
CONTINUOUS
 62
     6
100
AcDbCircle
 10
663.0
 20
934.053711
 30
0.0
 40
11.750031
  0
LINE
  5
6EE
100
AcDbEntity
  8
図
  6
CONTINUOUS
 62
     6
100
AcDbLine
 10
663.998535
 20
929.410156
 30
0.0
 11
663.998535
 21
938.697266
 31
0.0
  0
LINE
  5
6EF
100
AcDbEntity
  8
図
  6
CONTINUOUS
 62
     6
100
AcDbLine
 10
661.999023
 20
938.697266
 30
0.0
 11
661.999023
 21
929.410156
 31
0.0
  0
LINE
  5
6F0
100
AcDbEntity
  8
図
  6
CONTINUOUS
 62
     6
100
AcDbLine
 10
664.445312
 20
948.230957
 30
0.0
 11
674.44043
 21
942.54538
 31
0.0
  0
LINE
  5
6F1
100
AcDbEntity
  8
図
  6
CONTINUOUS
 62
     6
100
AcDbLine
 10
649.999512
 20
928.216309
 30
0.0
 11
649.999512
 21
939.891113
 31
0.0
  0
LINE
  5
6F2
100
AcDbEntity
  8
図
  6
CONTINUOUS
 62
     6
100
AcDbLine
 10
661.554687
 20
919.876465
 30
0.0
 11
651.444824
 21
925.713867
 31
0.0
  0
ARC
  5
6F3
100
AcDbEntity
  8
図
  6
CONTINUOUS
 62
     6
100
AcDbCircle
 10
663.0
 20
934.053711
 30
0.0
 40
14.248667
100
AcDbArc
 50
324.174576
 51
335.815247
  0
ARC
  5
6F4
100
AcDbEntity
  8
図
  6
CONTINUOUS
 62
     6
100
AcDbCircle
 10
663.0
 20
934.053711
 30
0.0
 40
14.248495
100
AcDbArc
 50
24.184433
 51
36.584839
  0
LINE
  5
6F5
100
AcDbEntity
  8
図
  6
CONTINUOUS
 62
     6
100
AcDbLine
 10
652.499512
 20
943.6875
 30
0.0
 11
652.499512
 21
943.001465
 31
0.0
  0
LINE
  5
6F6
100
AcDbEntity
  8
図
  6
CONTINUOUS
 62
     6
100
AcDbLine
 10
673.498047
 20
943.6875
 30
0.0
 11
673.498047
 21
943.082031
 31
0.0
  0
LINE
  5
6F7
100
AcDbEntity
  8
図
  6
CONTINUOUS
 62
     6
100
AcDbLine
 10
673.498047
 20
943.082031
 30
0.0
 11
674.442871
 21
942.544922
 31
0.0
  0
ARC
  5
6F8
100
AcDbEntity
  8
図
  6
CONTINUOUS
 62
     6
100
AcDbCircle
 10
663.0
 20
934.053711
 30
0.0
 40
4.748839
100
AcDbArc
 50
359.999908
 51
359.351959
  0
ARC
  5
6F9
100
AcDbEntity
  8
図
  6
CONTINUOUS
 62
     6
100
AcDbCircle
 10
663.0
 20
934.053711
 30
0.0
 40
5.798589
100
AcDbArc
 50
0.000031
 51
359.469269
  0
ARC
  5
6FA
100
AcDbEntity
  8
図
  6
CONTINUOUS
 62
     6
100
AcDbCircle
 10
663.0
 20
934.053711
 30
0.0
 40
14.250727
100
AcDbArc
 50
264.179016
 51
275.820984
  0
ARC
  5
6FB
100
AcDbEntity
  8
図
  6
CONTINUOUS
 62
     6
100
AcDbCircle
 10
663.0
 20
934.053711
 30
0.0
 40
14.250441
100
AcDbArc
 50
204.18013
 51
215.819519
  0
ARC
  5
6FC
100
AcDbEntity
  8
図
  6
CONTINUOUS
 62
     6
100
AcDbCircle
 10
663.0
 20
934.053711
 30
0.0
 40
14.250898
100
AcDbArc
 50
144.179703
 51
155.81926
  0
LINE
  5
6FD
100
AcDbEntity
  8
図
  6
CONTINUOUS
 62
     6
100
AcDbLine
 10
653.683594
 20
954.053711
 30
0.0
 11
673.498047
 21
954.053711
 31
0.0
  0
LINE
  5
6FE
100
AcDbEntity
  8
図
  6
CONTINUOUS
 62
     6
100
AcDbLine
 10
653.683594
 20
954.053711
 30
0.0
 11
652.499512
 21
954.053711
 31
0.0
  0
ARC
  5
6FF
100
AcDbEntity
  8
図
  6
CONTINUOUS
 62
     6
100
AcDbCircle
 10
663.0
 20
934.053711
 30
0.0
 40
14.250727
100
AcDbArc
 50
84.179016
 51
95.820984
  0
LINE
  5
700
100
AcDbEntity
  8
図
  6
CONTINUOUS
 62
     6
100
AcDbLine
 10
673.498047
 20
952.953711
 30
0.0
 11
672.313965
 21
954.053711
 31
0.0
  0
LINE
  5
701
100
AcDbEntity
  8
図
  6
CONTINUOUS
 62
     6
100
AcDbLine
 10
652.501953
 20
952.955979
 30
0.0
 11
653.686035
 21
954.055979
 31
0.0
  0
LINE
  5
702
100
AcDbEntity
  8
図
  6
CONTINUOUS
 62
     6
100
AcDbLine
 10
673.498047
 20
956.35
 30
0.0
 11
673.498047
 21
943.6875
 31
0.0
  0
LINE
  5
703
100
AcDbEntity
  8
図
  6
CONTINUOUS
 62
     6
100
AcDbLine
 10
652.499512
 20
956.35
 30
0.0
 11
652.499512
 21
943.6875
 31
0.0
  0
LINE
  5
704
100
AcDbEntity
  8
図
  6
CONTINUOUS
 62
     6
100
AcDbLine
 10
672.313965
 20
954.053711
 30
0.0
 11
672.313965
 21
956.35
 31
0.0
  0
LINE
  5
705
100
AcDbEntity
  8
図
  6
CONTINUOUS
 62
     6
100
AcDbLine
 10
653.683594
 20
954.053711
 30
0.0
 11
653.683594
 21
956.35
 31
0.0
  0
LINE
  5
706
100
AcDbEntity
  8
図
  6
CONTINUOUS
 62
     6
100
AcDbLine
 10
668.498779
 20
985.902573
 30
0.0
 11
668.498779
 21
988.731
 31
0.0
  0
LINE
  5
707
100
AcDbEntity
  8
図
  6
CONTINUOUS
 62
     6
100
AcDbLine
 10
657.498779
 20
985.902573
 30
0.0
 11
657.498779
 21
988.731
 31
0.0
  0
LINE
  5
708
100
AcDbEntity
  8
図
  6
CONTINUOUS
 62
     6
100
AcDbLine
 10
667.998779
 20
972.816786
 30
0.0
 11
667.998779
 21
975.402573
 31
0.0
  0
LINE
  5
709
100
AcDbEntity
  8
図
  6
CONTINUOUS
 62
     6
100
AcDbLine
 10
657.998779
 20
972.816786
 30
0.0
 11
657.998779
 21
975.402573
 31
0.0
  0
LINE
  5
70A
100
AcDbEntity
  8
図
  6
CONTINUOUS
 62
     6
100
AcDbLine
 10
662.998779
 20
972.816786
 30
0.0
 11
668.748779
 21
972.816786
 31
0.0
  0
LINE
  5
70B
100
AcDbEntity
  8
図
  6
CONTINUOUS
 62
     6
100
AcDbLine
 10
662.998779
 20
972.816786
 30
0.0
 11
657.248779
 21
972.816786
 31
0.0
  0
LINE
  5
70C
100
AcDbEntity
  8
図
  6
CONTINUOUS
 62
     6
100
AcDbLine
 10
668.498779
 20
980.902573
 30
0.0
 11
668.498779
 21
982.731
 31
0.0
  0
LINE
  5
70D
100
AcDbEntity
  8
図
  6
CONTINUOUS
 62
     6
100
AcDbLine
 10
667.998779
 20
978.231
 30
0.0
 11
668.498779
 21
977.731
 31
0.0
  0
LINE
  5
70E
100
AcDbEntity
  8
図
  6
CONTINUOUS
 62
     6
100
AcDbLine
 10
667.998779
 20
980.402573
 30
0.0
 11
668.498779
 21
980.902573
 31
0.0
  0
LINE
  5
70F
100
AcDbEntity
  8
図
  6
CONTINUOUS
 62
     6
100
AcDbLine
 10
667.998779
 20
978.231
 30
0.0
 11
667.998779
 21
980.402573
 31
0.0
  0
LINE
  5
710
100
AcDbEntity
  8
図
  6
CONTINUOUS
 62
     6
100
AcDbLine
 10
667.998779
 20
975.402573
 30
0.0
 11
668.498779
 21
975.902573
 31
0.0
  0
LINE
  5
711
100
AcDbEntity
  8
図
  6
CONTINUOUS
 62
     6
100
AcDbLine
 10
668.498779
 20
975.902573
 30
0.0
 11
668.498779
 21
977.731
 31
0.0
  0
LINE
  5
712
100
AcDbEntity
  8
図
  6
CONTINUOUS
 62
     6
100
AcDbLine
 10
667.998779
 20
983.231
 30
0.0
 11
668.498779
 21
982.731
 31
0.0
  0
LINE
  5
713
100
AcDbEntity
  8
図
  6
CONTINUOUS
 62
     6
100
AcDbLine
 10
667.998779
 20
985.402573
 30
0.0
 11
668.498779
 21
985.902573
 31
0.0
  0
LINE
  5
714
100
AcDbEntity
  8
図
  6
CONTINUOUS
 62
     6
100
AcDbLine
 10
667.998779
 20
983.231
 30
0.0
 11
667.998779
 21
985.402573
 31
0.0
  0
LINE
  5
715
100
AcDbEntity
  8
図
  6
CONTINUOUS
 62
     6
100
AcDbLine
 10
657.998779
 20
983.231
 30
0.0
 11
657.998779
 21
985.402573
 31
0.0
  0
LINE
  5
716
100
AcDbEntity
  8
図
  6
CONTINUOUS
 62
     6
100
AcDbLine
 10
657.998779
 20
985.402573
 30
0.0
 11
657.498779
 21
985.902573
 31
0.0
  0
LINE
  5
717
100
AcDbEntity
  8
図
  6
CONTINUOUS
 62
     6
100
AcDbLine
 10
657.998779
 20
983.231
 30
0.0
 11
657.498779
 21
982.731
 31
0.0
  0
LINE
  5
718
100
AcDbEntity
  8
図
  6
CONTINUOUS
 62
     6
100
AcDbLine
 10
657.498779
 20
975.902573
 30
0.0
 11
657.498779
 21
977.731
 31
0.0
  0
LINE
  5
719
100
AcDbEntity
  8
図
  6
CONTINUOUS
 62
     6
100
AcDbLine
 10
657.998779
 20
975.402573
 30
0.0
 11
657.498779
 21
975.902573
 31
0.0
  0
LINE
  5
71A
100
AcDbEntity
  8
図
  6
CONTINUOUS
 62
     6
100
AcDbLine
 10
657.998779
 20
978.231
 30
0.0
 11
657.998779
 21
980.402573
 31
0.0
  0
LINE
  5
71B
100
AcDbEntity
  8
図
  6
CONTINUOUS
 62
     6
100
AcDbLine
 10
657.998779
 20
980.402573
 30
0.0
 11
657.498779
 21
980.902573
 31
0.0
  0
LINE
  5
71C
100
AcDbEntity
  8
図
  6
CONTINUOUS
 62
     6
100
AcDbLine
 10
657.998779
 20
978.231
 30
0.0
 11
657.498779
 21
977.731
 31
0.0
  0
LINE
  5
71D
100
AcDbEntity
  8
図
  6
CONTINUOUS
 62
     6
100
AcDbLine
 10
657.498779
 20
980.902573
 30
0.0
 11
657.498779
 21
982.731
 31
0.0
  0
ARC
  5
71E
100
AcDbEntity
  8
図
  6
CONTINUOUS
 62
     6
100
AcDbCircle
 10
660.498779
 20
961.85
 30
0.0
 40
10.0
100
AcDbArc
 50
143.130102
 51
213.367013
  0
ARC
  5
71F
100
AcDbEntity
  8
図
  6
CONTINUOUS
 62
     6
100
AcDbCircle
 10
665.498779
 20
961.85
 30
0.0
 40
10.0
100
AcDbArc
 50
326.632987
 51
36.869898
  0
LINE
  5
720
100
AcDbEntity
  8
図
  6
CONTINUOUS
 62
     6
100
AcDbLine
 10
668.498779
 20
967.85
 30
0.0
 11
668.498779
 21
969.85
 31
0.0
  0
LINE
  5
721
100
AcDbEntity
  8
図
  6
CONTINUOUS
 62
     6
100
AcDbLine
 10
666.998779
 20
970.316786
 30
0.0
 11
666.998779
 21
969.85
 31
0.0
  0
LINE
  5
722
100
AcDbEntity
  8
図
  6
CONTINUOUS
 62
     6
100
AcDbLine
 10
668.498779
 20
969.85
 30
0.0
 11
662.998779
 21
969.85
 31
0.0
  0
LINE
  5
723
100
AcDbEntity
  8
図
  6
CONTINUOUS
 62
     6
100
AcDbLine
 10
662.998779
 20
970.316786
 30
0.0
 11
657.248779
 21
970.316786
 31
0.0
  0
LINE
  5
724
100
AcDbEntity
  8
図
  6
CONTINUOUS
 62
     6
100
AcDbLine
 10
657.498779
 20
969.85
 30
0.0
 11
662.998779
 21
969.85
 31
0.0
  0
LINE
  5
725
100
AcDbEntity
  8
図
  6
CONTINUOUS
 62
     6
100
AcDbLine
 10
658.998779
 20
970.316786
 30
0.0
 11
658.998779
 21
969.85
 31
0.0
  0
LINE
  5
726
100
AcDbEntity
  8
図
  6
CONTINUOUS
 62
     6
100
AcDbLine
 10
657.498779
 20
967.85
 30
0.0
 11
657.498779
 21
969.85
 31
0.0
  0
LINE
  5
727
100
AcDbEntity
  8
図
  6
CONTINUOUS
 62
     6
100
AcDbLine
 10
652.147133
 20
956.35
 30
0.0
 11
662.998779
 21
956.35
 31
0.0
  0
LINE
  5
728
100
AcDbEntity
  8
図
  6
CONTINUOUS
 62
     6
100
AcDbLine
 10
652.498779
 20
967.85
 30
0.0
 11
662.998779
 21
967.85
 31
0.0
  0
LINE
  5
729
100
AcDbEntity
  8
図
  6
CONTINUOUS
 62
     6
100
AcDbLine
 10
668.748779
 20
970.316786
 30
0.0
 11
668.748779
 21
972.816786
 31
0.0
  0
LINE
  5
72A
100
AcDbEntity
  8
図
  6
CONTINUOUS
 62
     6
100
AcDbLine
 10
657.248779
 20
970.316786
 30
0.0
 11
657.248779
 21
972.816786
 31
0.0
  0
LINE
  5
72B
100
AcDbEntity
  8
図
  6
CONTINUOUS
 62
     6
100
AcDbLine
 10
668.248779
 20
988.981
 30
0.0
 11
668.498779
 21
988.731
 31
0.0
  0
LINE
  5
72C
100
AcDbEntity
  8
図
  6
CONTINUOUS
 62
     6
100
AcDbLine
 10
657.748779
 20
988.981
 30
0.0
 11
657.498779
 21
988.731
 31
0.0
  0
LINE
  5
72D
100
AcDbEntity
  8
図
  6
CONTINUOUS
 62
     6
100
AcDbLine
 10
667.998779
 20
980.402573
 30
0.0
 11
662.998779
 21
980.402573
 31
0.0
  0
LINE
  5
72E
100
AcDbEntity
  8
図
  6
CONTINUOUS
 62
     6
100
AcDbLine
 10
668.498779
 20
980.902573
 30
0.0
 11
662.998779
 21
980.902573
 31
0.0
  0
LINE
  5
72F
100
AcDbEntity
  8
図
  6
CONTINUOUS
 62
     6
100
AcDbLine
 10
668.498779
 20
982.731
 30
0.0
 11
662.998779
 21
982.731
 31
0.0
  0
LINE
  5
730
100
AcDbEntity
  8
図
  6
CONTINUOUS
 62
     6
100
AcDbLine
 10
667.998779
 20
983.231
 30
0.0
 11
662.998779
 21
983.231
 31
0.0
  0
LINE
  5
731
100
AcDbEntity
  8
図
  6
CONTINUOUS
 62
     6
100
AcDbLine
 10
667.998779
 20
985.402573
 30
0.0
 11
662.998779
 21
985.402573
 31
0.0
  0
LINE
  5
732
100
AcDbEntity
  8
図
  6
CONTINUOUS
 62
     6
100
AcDbLine
 10
668.498779
 20
985.902573
 30
0.0
 11
662.998779
 21
985.902573
 31
0.0
  0
LINE
  5
733
100
AcDbEntity
  8
図
  6
CONTINUOUS
 62
     6
100
AcDbLine
 10
668.498779
 20
988.731
 30
0.0
 11
662.998779
 21
988.731
 31
0.0
  0
LINE
  5
734
100
AcDbEntity
  8
図
  6
CONTINUOUS
 62
     6
100
AcDbLine
 10
668.248779
 20
988.981
 30
0.0
 11
662.998779
 21
988.981
 31
0.0
  0
LINE
  5
735
100
AcDbEntity
  8
図
  6
CONTINUOUS
 62
     6
100
AcDbLine
 10
657.748779
 20
988.981
 30
0.0
 11
662.998779
 21
988.981
 31
0.0
  0
LINE
  5
736
100
AcDbEntity
  8
図
  6
CONTINUOUS
 62
     6
100
AcDbLine
 10
657.498779
 20
988.731
 30
0.0
 11
662.998779
 21
988.731
 31
0.0
  0
LINE
  5
737
100
AcDbEntity
  8
図
  6
CONTINUOUS
 62
     6
100
AcDbLine
 10
657.498779
 20
985.902573
 30
0.0
 11
662.998779
 21
985.902573
 31
0.0
  0
LINE
  5
738
100
AcDbEntity
  8
図
  6
CONTINUOUS
 62
     6
100
AcDbLine
 10
657.998779
 20
985.402573
 30
0.0
 11
662.998779
 21
985.402573
 31
0.0
  0
LINE
  5
739
100
AcDbEntity
  8
図
  6
CONTINUOUS
 62
     6
100
AcDbLine
 10
657.998779
 20
983.231
 30
0.0
 11
662.998779
 21
983.231
 31
0.0
  0
LINE
  5
73A
100
AcDbEntity
  8
図
  6
CONTINUOUS
 62
     6
100
AcDbLine
 10
657.498779
 20
982.731
 30
0.0
 11
662.998779
 21
982.731
 31
0.0
  0
LINE
  5
73B
100
AcDbEntity
  8
図
  6
CONTINUOUS
 62
     6
100
AcDbLine
 10
657.498779
 20
980.902573
 30
0.0
 11
662.998779
 21
980.902573
 31
0.0
  0
LINE
  5
73C
100
AcDbEntity
  8
図
  6
CONTINUOUS
 62
     6
100
AcDbLine
 10
657.998779
 20
980.402573
 30
0.0
 11
662.998779
 21
980.402573
 31
0.0
  0
LINE
  5
73D
100
AcDbEntity
  8
図
  6
CONTINUOUS
 62
     6
100
AcDbLine
 10
668.498779
 20
977.731
 30
0.0
 11
662.998779
 21
977.731
 31
0.0
  0
LINE
  5
73E
100
AcDbEntity
  8
図
  6
CONTINUOUS
 62
     6
100
AcDbLine
 10
667.998779
 20
978.231
 30
0.0
 11
662.998779
 21
978.231
 31
0.0
  0
LINE
  5
73F
100
AcDbEntity
  8
図
  6
CONTINUOUS
 62
     6
100
AcDbLine
 10
657.998779
 20
978.231
 30
0.0
 11
662.998779
 21
978.231
 31
0.0
  0
LINE
  5
740
100
AcDbEntity
  8
図
  6
CONTINUOUS
 62
     6
100
AcDbLine
 10
657.498779
 20
977.731
 30
0.0
 11
662.998779
 21
977.731
 31
0.0
  0
LINE
  5
741
100
AcDbEntity
  8
図
  6
CONTINUOUS
 62
     6
100
AcDbLine
 10
657.498779
 20
975.902573
 30
0.0
 11
662.998779
 21
975.902573
 31
0.0
  0
LINE
  5
742
100
AcDbEntity
  8
図
  6
CONTINUOUS
 62
     6
100
AcDbLine
 10
657.998779
 20
975.402573
 30
0.0
 11
662.998779
 21
975.402573
 31
0.0
  0
LINE
  5
743
100
AcDbEntity
  8
図
  6
CONTINUOUS
 62
     6
100
AcDbLine
 10
667.998779
 20
975.402573
 30
0.0
 11
662.998779
 21
975.402573
 31
0.0
  0
LINE
  5
744
100
AcDbEntity
  8
図
  6
CONTINUOUS
 62
     6
100
AcDbLine
 10
668.498779
 20
975.902573
 30
0.0
 11
662.998779
 21
975.902573
 31
0.0
  0
ELLIPSE
  5
745
100
AcDbEntity
  8
図
  6
CONTINUOUS
 62
     6
100
AcDbEllipse
 10
672.958071
 20
962.35
 30
0.0
 11
-0.0000000000000024
 21
4.0
 31
0.0
210
0.0
220
0.0
230
1.0
 40
0.612372
 41
0.0
 42
6.2831853071796004
  0
ELLIPSE
  5
746
100
AcDbEntity
  8
図
  6
CONTINUOUS
 62
     6
100
AcDbEllipse
 10
662.998779
 20
962.35
 30
0.0
 11
-4.898979663848869
 21
0.0000007644268212
 31
0.0
210
0.0
220
0.0
230
1.0
 40
0.816497
 41
1.5707965932703223
 42
4.7123890958643146
  0
ELLIPSE
  5
747
100
AcDbEntity
  8
図
  6
CONTINUOUS
 62
     6
100
AcDbEllipse
 10
662.998779
 20
962.35
 30
0.0
 11
-4.898979663848869
 21
-0.0000007644268156
 31
0.0
210
0.0
220
0.0
230
1.0
 40
0.816497
 41
4.7123888649050691
 42
1.5707960603194735
  0
ELLIPSE
  5
748
100
AcDbEntity
  8
図
  6
CONTINUOUS
 62
     6
100
AcDbEllipse
 10
653.039487
 20
962.35
 30
0.0
 11
-0.0000000000000024
 21
4.0
 31
0.0
210
0.0
220
0.0
230
1.0
 40
0.612372
 41
0.0
 42
6.2831853071796004
  0
LINE
  5
749
100
AcDbEntity
  8
図
  6
CONTINUOUS
 62
     6
100
AcDbLine
 10
662.998779
 20
970.316786
 30
0.0
 11
668.748779
 21
970.316786
 31
0.0
  0
LINE
  5
74A
100
AcDbEntity
  8
図
  6
CONTINUOUS
 62
     6
100
AcDbLine
 10
673.498779
 20
967.85
 30
0.0
 11
662.998779
 21
967.85
 31
0.0
  0
LINE
  5
74B
100
AcDbEntity
  8
図
  6
CONTINUOUS
 62
     6
100
AcDbLine
 10
673.850426
 20
956.35
 30
0.0
 11
662.998779
 21
956.35
 31
0.0
  0
ARC
  5
74C
100
AcDbEntity
  8
図
  6
CONTINUOUS
 62
     6
100
AcDbCircle
 10
663.0
 20
934.0
 30
0.0
 40
27.499275
100
AcDbArc
 50
115.872828
 51
64.119536
  0
LINE
  5
74D
100
AcDbEntity
  8
図
  6
EXLTYPE3
 62
     6
100
AcDbLine
 10
615.5
 20
934.0
 30
0.0
 11
710.5
 21
934.0
 31
0.0
  0
LINE
  5
74E
100
AcDbEntity
  8
図
  6
EXLTYPE3
 62
     6
100
AcDbLine
 10
513.0
 20
981.5
 30
0.0
 11
513.0
 21
886.5
 31
0.0
  0
LINE
  5
74F
100
AcDbEntity
  8
図
  6
EXLTYPE3
 62
     6
100
AcDbLine
 10
663.0
 20
981.5
 30
0.0
 11
663.0
 21
886.5
 31
0.0
  0
DIMENSION
  5
75B
100
AcDbEntity
  8
寸法
  6
CONTINUOUS
 62
     3
100
AcDbDimension
  2
*D25
 10
909.0
 20
1169.0
 30
0.0
 11
885.5
 21
1029.0
 31
0.0
 70
   160
  1
（10～25）
  3
STANDARD
100
AcDbAlignedDimension
 13
865.695526
 23
1194.0
 33
0.0
 14
870.0
 24
1169.0
 34
0.0
 50
90.0
100
AcDbRotatedDimension
1001
ACAD
1000
DSTYLE
1002
{
1070
     6
1000
_EX_NORM
1070
     7
1000
_EX_NORM
1070
    41
1040
30.0
1070
    42
1040
5.0
1070
    44
1040
10.0
1070
    73
1070
     0
1070
    74
1070
     0
1070
    75
1070
     0
1070
    76
1070
     0
1070
    77
1070
     1
1070
    78
1070
     8
1070
   140
1040
40.0
1070
   147
1040
3.5
1070
   173
1070
     1
1070
   176
1070
     3
1070
   177
1070
     3
1070
   178
1070
     2
1070
   271
1070
     2
1070
   279
1070
     2
1070
   280
1070
     2
1070
   287
1070
     5
1070
   340
1005
109
1002
}
  0
DIMENSION
  5
767
100
AcDbEntity
  8
寸法
  6
CONTINUOUS
 62
     3
100
AcDbDimension
  2
*D26
 10
971.0
 20
554.0
 30
0.0
 11
947.5
 21
874.0
 31
0.0
 70
   160
  3
STANDARD
100
AcDbAlignedDimension
 13
977.0
 23
1194.0
 33
0.0
 14
965.0
 24
554.0
 34
0.0
 50
90.0
100
AcDbRotatedDimension
1001
ACAD
1000
DSTYLE
1002
{
1070
     6
1000
_EX_NORM
1070
     7
1000
_EX_NORM
1070
    41
1040
30.0
1070
    42
1040
5.0
1070
    44
1040
10.0
1070
    73
1070
     0
1070
    74
1070
     0
1070
    75
1070
     0
1070
    76
1070
     0
1070
    77
1070
     1
1070
    78
1070
     8
1070
   140
1040
40.0
1070
   147
1040
3.5
1070
   173
1070
     1
1070
   176
1070
     3
1070
   177
1070
     3
1070
   178
1070
     2
1070
   271
1070
     2
1070
   279
1070
     2
1070
   280
1070
     0
1070
   287
1070
     5
1070
   340
1005
109
1002
}
  0
DIMENSION
  5
773
100
AcDbEntity
  8
寸法
  6
CONTINUOUS
 62
     3
100
AcDbDimension
  2
*D27
 10
1031.0
 20
554.0
 30
0.0
 11
1007.5
 21
954.0
 31
0.0
 70
   160
  3
STANDARD
100
AcDbAlignedDimension
 13
977.0
 23
1354.0
 33
0.0
 14
1012.0
 24
554.0
 34
0.0
 50
90.0
100
AcDbRotatedDimension
1001
ACAD
1000
DSTYLE
1002
{
1070
     6
1000
_EX_NORM
1070
     7
1000
_EX_NORM
1070
    41
1040
30.0
1070
    42
1040
4.0
1070
    44
1040
10.0
1070
    73
1070
     0
1070
    74
1070
     0
1070
    75
1070
     0
1070
    76
1070
     0
1070
    77
1070
     1
1070
    78
1070
     8
1070
   140
1040
40.0
1070
   147
1040
3.5
1070
   173
1070
     1
1070
   176
1070
     3
1070
   177
1070
     3
1070
   178
1070
     2
1070
   271
1070
     2
1070
   279
1070
     2
1070
   280
1070
     0
1070
   287
1070
     5
1070
   340
1005
109
1002
}
  0
DIMENSION
  5
77E
100
AcDbEntity
  8
寸法
  6
CONTINUOUS
 62
     3
100
AcDbDimension
  2
*D28
 10
1677.99999
 20
855.0
 30
0.0
 11
1635.498536
 21
878.5
 31
0.0
 70
   160
  3
STANDARD
100
AcDbAlignedDimension
 13
1592.997081
 23
1065.35
 33
0.0
 14
1677.99999
 24
942.0
 34
0.0
100
AcDbRotatedDimension
1001
ACAD
1000
DSTYLE
1002
{
1070
     6
1000
_EX_NORM
1070
     7
1000
_EX_NORM
1070
    41
1040
30.0
1070
    42
1040
60.050001
1070
    44
1040
10.0
1070
    73
1070
     0
1070
    74
1070
     0
1070
    75
1070
     0
1070
    76
1070
     1
1070
    77
1070
     1
1070
    78
1070
     8
1070
   140
1040
40.0
1070
   147
1040
3.5
1070
   173
1070
     1
1070
   176
1070
     3
1070
   177
1070
     3
1070
   178
1070
     2
1070
   271
1070
     2
1070
   279
1070
     2
1070
   280
1070
     0
1070
   287
1070
     5
1070
   340
1005
109
1002
}
  0
DIMENSION
  5
78A
100
AcDbEntity
  8
寸法
  6
CONTINUOUS
 62
     3
100
AcDbDimension
  2
*D29
 10
813.0
 20
1562.0
 30
0.0
 11
588.0
 21
1585.5
 31
0.0
 70
   160
  1
%%c450
  3
STANDARD
100
AcDbAlignedDimension
 13
363.0
 23
1354.0
 33
0.0
 14
813.0
 24
1354.0
 34
0.0
100
AcDbRotatedDimension
1001
ACAD
1000
DSTYLE
1002
{
1070
     6
1000
_EX_NORM
1070
     7
1000
_EX_NORM
1070
    41
1040
30.0
1070
    42
1040
5.0
1070
    44
1040
10.0
1070
    73
1070
     0
1070
    74
1070
     0
1070
    75
1070
     0
1070
    76
1070
     0
1070
    77
1070
     1
1070
    78
1070
     8
1070
   140
1040
40.0
1070
   147
1040
3.5
1070
   173
1070
     1
1070
   176
1070
     3
1070
   177
1070
     3
1070
   178
1070
     2
1070
   271
1070
     2
1070
   279
1070
     2
1070
   280
1070
     0
1070
   287
1070
     5
1070
   340
1005
109
1002
}
  0
DIMENSION
  5
795
100
AcDbEntity
  8
寸法
  6
CONTINUOUS
 62
     3
100
AcDbDimension
  2
*D30
 10
1759.0
 20
1194.0
 30
0.0
 11
1735.5
 21
1409.0
 31
0.0
 70
   160
  1
155（ボトルトラップ）
  3
STANDARD
100
AcDbAlignedDimension
 13
1716.49999
 23
1039.0
 33
0.0
 14
1759.0
 24
1194.0
 34
0.0
 50
90.0
100
AcDbRotatedDimension
1001
ACAD
1000
DSTYLE
1002
{
1070
     6
1000
_EX_NORM
1070
     7
1000
_EX_NORM
1070
    41
1040
30.0
1070
    42
1040
5.0
1070
    44
1040
10.0
1070
    73
1070
     0
1070
    74
1070
     0
1070
    75
1070
     0
1070
    76
1070
     1
1070
    77
1070
     1
1070
    78
1070
     8
1070
   140
1040
40.0
1070
   147
1040
3.5
1070
   173
1070
     1
1070
   176
1070
     3
1070
   177
1070
     3
1070
   178
1070
     2
1070
   271
1070
     2
1070
   279
1070
     2
1070
   280
1070
     2
1070
   287
1070
     5
1070
   340
1005
109
1002
}
  0
DIMENSION
  5
7A1
100
AcDbEntity
  8
寸法
  6
CONTINUOUS
 62
     3
100
AcDbDimension
  2
*D31
 10
1818.0
 20
1194.0
 30
0.0
 11
1794.5
 21
1379.0
 31
0.0
 70
   160
  1
225（Ｐトラップ）
  3
STANDARD
100
AcDbAlignedDimension
 13
1704.49999
 23
969.0
 33
0.0
 14
1814.0
 24
1194.0
 34
0.0
 50
90.0
100
AcDbRotatedDimension
1001
ACAD
1000
DSTYLE
1002
{
1070
     6
1000
_EX_NORM
1070
     7
1000
_EX_NORM
1070
    41
1040
30.0
1070
    42
1040
5.0
1070
    44
1040
10.0
1070
    73
1070
     0
1070
    74
1070
     0
1070
    75
1070
     0
1070
    76
1070
     0
1070
    77
1070
     1
1070
    78
1070
     8
1070
   140
1040
40.0
1070
   147
1040
3.5
1070
   173
1070
     1
1070
   176
1070
     3
1070
   177
1070
     3
1070
   178
1070
     2
1070
   271
1070
     2
1070
   279
1070
     2
1070
   280
1070
     2
1070
   287
1070
     5
1070
   340
1005
109
1002
}
  0
TEXT
  5
7A2
100
AcDbEntity
  8
寸法
  6
CONTINUOUS
 62
     2
100
AcDbText
 10
1730.431467
 20
843.917905
 30
0.0
 40
40.0
  1
ＶＰ･ＶＵ５０
 41
0.653306
  7
EXCADSTD
 72
     5
 11
1942.431466
 21
843.917905
 31
0.0
100
AcDbText
  0
LEADER
  5
7A3
100
AcDbEntity
  8
寸法
  6
CONTINUOUS
 62
     3
100
AcDbLeader
  3
STANDARD
 73
     3
 74
     1
 75
     0
 40
0.0
 76
     3
 10
1694.21146
 20
943.5
 30
0.0
 10
1739.0
 20
840.417905
 30
0.0
 10
1935.0
 20
840.417905
 30
0.0
 77
     3
1001
ACAD
1000
DSTYLE
1002
{
1070
    41
1040
30.0
1070
     5
1000
_EX_NORM
1070
     6
1000
_EX_NORM
1070
     7
1000
_EX_NORM
1070
   341
1005
28
1002
}
  0
TEXT
  5
7A4
100
AcDbEntity
  8
寸法
  6
CONTINUOUS
 62
     2
100
AcDbText
 10
1707.99999
 20
412.5
 30
0.0
 40
40.0
  1
１３０
 41
0.7
  7
EXCADSTD
 72
     5
 11
1807.99999
 21
412.5
 31
0.0
100
AcDbText
  0
TEXT
  5
7A5
100
AcDbEntity
  8
寸法
  6
CONTINUOUS
 62
     2
100
AcDbText
 10
1802.99999
 20
412.5
 30
0.0
 40
31.999998
  1
（Ｓトラップ）
 41
0.66
  7
EXCADSTD
 72
     5
 11
1978.99998
 21
412.5
 31
0.0
100
AcDbText
  0
LINE
  5
7A6
100
AcDbEntity
  8
寸法
  6
CONTINUOUS
 62
     3
100
AcDbLine
 10
1517.99999
 20
409.0
 30
0.0
 11
1977.499998
 21
409.0
 31
0.0
  0
LINE
  5
7A7
100
AcDbEntity
  8
寸法
  6
CONTINUOUS
 62
     3
100
AcDbLine
 10
1517.99999
 20
404.0
 30
0.0
 11
1547.99999
 21
409.0
 31
0.0
  0
LINE
  5
7A8
100
AcDbEntity
  8
寸法
  6
CONTINUOUS
 62
     3
100
AcDbLine
 10
1547.99999
 20
409.0
 30
0.0
 11
1517.99999
 21
414.0
 31
0.0
  0
LINE
  5
7A9
100
AcDbEntity
  8
寸法
  6
CONTINUOUS
 62
     3
100
AcDbLine
 10
1707.99999
 20
414.0
 30
0.0
 11
1677.99999
 21
409.0
 31
0.0
  0
LINE
  5
7AA
100
AcDbEntity
  8
寸法
  6
CONTINUOUS
 62
     3
100
AcDbLine
 10
1677.99999
 20
409.0
 30
0.0
 11
1707.99999
 21
404.0
 31
0.0
  0
LINE
  5
7AB
100
AcDbEntity
  8
寸法
  6
CONTINUOUS
 62
     3
100
AcDbLine
 10
1547.99999
 20
498.0
 30
0.0
 11
1547.99999
 21
399.0
 31
0.0
  0
LINE
  5
7AC
100
AcDbEntity
  8
寸法
  6
CONTINUOUS
 62
     3
100
AcDbLine
 10
1677.99999
 20
548.9
 30
0.0
 11
1677.99999
 21
399.0
 31
0.0
  0
DIMENSION
  5
7B8
100
AcDbEntity
  8
寸法
  6
CONTINUOUS
 62
     3
100
AcDbDimension
  2
*D32
 10
1677.99999
 20
470.0
 30
0.0
 11
1817.99999
 21
493.5
 31
0.0
 70
   160
  1
85（床給水）
  3
STANDARD
100
AcDbAlignedDimension
 13
1593.001678
 23
536.0
 33
0.0
 14
1677.99999
 24
554.0
 34
0.0
100
AcDbRotatedDimension
1001
ACAD
1000
DSTYLE
1002
{
1070
     6
1000
_EX_NORM
1070
     7
1000
_EX_NORM
1070
    41
1040
30.0
1070
    42
1040
5.0
1070
    44
1040
10.0
1070
    73
1070
     0
1070
    74
1070
     0
1070
    75
1070
     0
1070
    76
1070
     0
1070
    77
1070
     1
1070
    78
1070
     8
1070
   140
1040
40.0
1070
   147
1040
3.5
1070
   173
1070
     1
1070
   176
1070
     3
1070
   177
1070
     3
1070
   178
1070
     2
1070
   271
1070
     2
1070
   279
1070
     2
1070
   280
1070
     2
1070
   287
1070
     5
1070
   340
1005
109
1002
}
  0
DIMENSION
  5
7C4
100
AcDbEntity
  8
寸法
  6
CONTINUOUS
 62
     3
100
AcDbDimension
  2
*D33
 10
1882.99999
 20
934.0
 30
0.0
 11
1859.49999
 21
1064.0
 31
0.0
 70
   160
  3
STANDARD
100
AcDbAlignedDimension
 13
1682.99999
 23
1194.0
 33
0.0
 14
1698.339152
 24
934.0
 34
0.0
 50
90.0
100
AcDbRotatedDimension
1001
ACAD
1000
DSTYLE
1002
{
1070
     6
1000
_EX_NORM
1070
     7
1000
_EX_NORM
1070
    41
1040
30.0
1070
    42
1040
5.0
1070
    44
1040
10.0
1070
    73
1070
     0
1070
    74
1070
     0
1070
    75
1070
     0
1070
    76
1070
     0
1070
    77
1070
     1
1070
    78
1070
     8
1070
   140
1040
40.0
1070
   147
1040
3.5
1070
   173
1070
     1
1070
   176
1070
     3
1070
   177
1070
     3
1070
   178
1070
     2
1070
   271
1070
     2
1070
   279
1070
     2
1070
   280
1070
     0
1070
   287
1070
     5
1070
   340
1005
109
1002
}
  0
LINE
  5
7C5
100
AcDbEntity
  8
寸法
  6
EXLTYPE3
 62
     6
100
AcDbLine
 10
1547.99999
 20
724.0
 30
0.0
 11
1547.99999
 21
498.0
 31
0.0
  0
ENDSEC
  0
SECTION
  2
OBJECTS
  0
DICTIONARY
  5
19
100
AcDbDictionary
  3
ACAD_GROUP
350
1A
  3
ACAD_MLINESTYLE
350
1B
  0
DICTIONARY
  5
1A
102
{ACAD_REACTORS
330
19
102
}
100
AcDbDictionary
  0
DICTIONARY
  5
1B
102
{ACAD_REACTORS
330
19
102
}
100
AcDbDictionary
  3
STANDARD
350
1C
  0
MLINESTYLE
  5
1C
102
{ACAD_REACTORS
330
1B
102
}
100
AcDbMlineStyle
  2
Standard
 70
     0
  3

 62
     0
 51
90.0
 52
90.0
 71
     2
 49
0.5
 62
   256
  6
ByLayer
 49
-0.5
 62
   256
  6
ByLayer
  0
ENDSEC
  0
EOF
