  0
SECTION
  2
HEADER
  9
$ACADVER
  1
AC1014
  9
$ACADMAINTVER
 70
     9
  9
$DWGCODEPAGE
  3
ANSI_932
  9
$INSBASE
 10
0.0
 20
0.0
 30
0.0
  9
$EXTMIN
 10
1.000000000000009
 20
13.5
 30
0.0
  9
$EXTMAX
 10
200.0
 20
288.5
 30
0.0
  9
$LIMMIN
 10
0.0
 20
0.0
  9
$LIMMAX
 10
210.0
 20
297.0
  9
$ORTHOMODE
 70
     0
  9
$REGENMODE
 70
     1
  9
$FILLMODE
 70
     1
  9
$QTEXTMODE
 70
     0
  9
$MIRRTEXT
 70
     1
  9
$DRAGMODE
 70
     2
  9
$LTSCALE
 40
1.0
  9
$OSMODE
 70
    37
  9
$ATTMODE
 70
     1
  9
$TEXTSIZE
 40
2.5
  9
$TRACEWID
 40
1.0
  9
$TEXTSTYLE
  7
STANDARD
  9
$CLAYER
  8
鏡台
  9
$CELTYPE
  6
BYLAYER
  9
$CECOLOR
 62
   256
  9
$CELTSCALE
 40
1.0
  9
$DELOBJ
 70
     1
  9
$DISPSILH
 70
     0
  9
$DIMSCALE
 40
1.0
  9
$DIMASZ
 40
2.5
  9
$DIMEXO
 40
0.625
  9
$DIMDLI
 40
3.75
  9
$DIMRND
 40
0.0
  9
$DIMDLE
 40
0.0
  9
$DIMEXE
 40
1.25
  9
$DIMTP
 40
0.0
  9
$DIMTM
 40
0.0
  9
$DIMTXT
 40
2.5
  9
$DIMCEN
 40
2.5
  9
$DIMTSZ
 40
0.0
  9
$DIMTOL
 70
     0
  9
$DIMLIM
 70
     0
  9
$DIMTIH
 70
     0
  9
$DIMTOH
 70
     0
  9
$DIMSE1
 70
     0
  9
$DIMSE2
 70
     0
  9
$DIMTAD
 70
     1
  9
$DIMZIN
 70
     8
  9
$DIMBLK
  1

  9
$DIMASO
 70
     1
  9
$DIMSHO
 70
     1
  9
$DIMPOST
  1

  9
$DIMAPOST
  1

  9
$DIMALT
 70
     0
  9
$DIMALTD
 70
     3
  9
$DIMALTF
 40
0.03937007874016
  9
$DIMLFAC
 40
1.0
  9
$DIMTOFL
 70
     1
  9
$DIMTVP
 40
0.0
  9
$DIMTIX
 70
     0
  9
$DIMSOXD
 70
     0
  9
$DIMSAH
 70
     0
  9
$DIMBLK1
  1

  9
$DIMBLK2
  1

  9
$DIMSTYLE
  2
ISO-25
  9
$DIMCLRD
 70
     0
  9
$DIMCLRE
 70
     0
  9
$DIMCLRT
 70
     0
  9
$DIMTFAC
 40
1.0
  9
$DIMGAP
 40
0.625
  9
$DIMJUST
 70
     0
  9
$DIMSD1
 70
     0
  9
$DIMSD2
 70
     0
  9
$DIMTOLJ
 70
     0
  9
$DIMTZIN
 70
     8
  9
$DIMALTZ
 70
     0
  9
$DIMALTTZ
 70
     0
  9
$DIMFIT
 70
     3
  9
$DIMUPT
 70
     0
  9
$DIMUNIT
 70
     2
  9
$DIMDEC
 70
     2
  9
$DIMTDEC
 70
     2
  9
$DIMALTU
 70
     2
  9
$DIMALTTD
 70
     3
  9
$DIMTXSTY
  7
STANDARD
  9
$DIMAUNIT
 70
     0
  9
$LUNITS
 70
     2
  9
$LUPREC
 70
     4
  9
$SKETCHINC
 40
1.0
  9
$FILLETRAD
 40
10.0
  9
$AUNITS
 70
     0
  9
$AUPREC
 70
     0
  9
$MENU
  1
.
  9
$ELEVATION
 40
0.0
  9
$PELEVATION
 40
0.0
  9
$THICKNESS
 40
0.0
  9
$LIMCHECK
 70
     0
  9
$CHAMFERA
 40
10.0
  9
$CHAMFERB
 40
10.0
  9
$CHAMFERC
 40
20.0
  9
$CHAMFERD
 40
0.0
  9
$SKPOLY
 70
     0
  9
$TDCREATE
 40
2458430.8423536
  9
$TDUPDATE
 40
2458430.842353785
  9
$TDINDWG
 40
0.0000000116
  9
$TDUSRTIMER
 40
0.0000000116
  9
$USRTIMER
 70
     1
  9
$ANGBASE
 50
0.0
  9
$ANGDIR
 70
     0
  9
$PDMODE
 70
     0
  9
$PDSIZE
 40
0.0
  9
$PLINEWID
 40
0.0
  9
$COORDS
 70
     1
  9
$SPLFRAME
 70
     0
  9
$SPLINETYPE
 70
     6
  9
$SPLINESEGS
 70
     8
  9
$ATTDIA
 70
     0
  9
$ATTREQ
 70
     1
  9
$HANDLING
 70
     1
  9
$HANDSEED
  5
61F
  9
$SURFTAB1
 70
     6
  9
$SURFTAB2
 70
     6
  9
$SURFTYPE
 70
     6
  9
$SURFU
 70
     6
  9
$SURFV
 70
     6
  9
$UCSNAME
  2

  9
$UCSORG
 10
0.0
 20
0.0
 30
0.0
  9
$UCSXDIR
 10
1.0
 20
0.0
 30
0.0
  9
$UCSYDIR
 10
0.0
 20
1.0
 30
0.0
  9
$PUCSNAME
  2

  9
$PUCSORG
 10
0.0
 20
0.0
 30
0.0
  9
$PUCSXDIR
 10
1.0
 20
0.0
 30
0.0
  9
$PUCSYDIR
 10
0.0
 20
1.0
 30
0.0
  9
$USERI1
 70
     0
  9
$USERI2
 70
     0
  9
$USERI3
 70
     0
  9
$USERI4
 70
     0
  9
$USERI5
 70
     0
  9
$USERR1
 40
0.0
  9
$USERR2
 40
0.0
  9
$USERR3
 40
0.0
  9
$USERR4
 40
0.0
  9
$USERR5
 40
0.0
  9
$WORLDVIEW
 70
     1
  9
$SHADEDGE
 70
     3
  9
$SHADEDIF
 70
    70
  9
$TILEMODE
 70
     1
  9
$MAXACTVP
 70
    64
  9
$PINSBASE
 10
0.0
 20
0.0
 30
0.0
  9
$PLIMCHECK
 70
     0
  9
$PEXTMIN
 10
1.000000000000000E+20
 20
1.000000000000000E+20
 30
1.000000000000000E+20
  9
$PEXTMAX
 10
-1.000000000000000E+20
 20
-1.000000000000000E+20
 30
-1.000000000000000E+20
  9
$PLIMMIN
 10
0.0
 20
0.0
  9
$PLIMMAX
 10
420.0
 20
297.0
  9
$UNITMODE
 70
     0
  9
$VISRETAIN
 70
     1
  9
$PLINEGEN
 70
     0
  9
$PSLTSCALE
 70
     1
  9
$TREEDEPTH
 70
  3020
  9
$PICKSTYLE
 70
     1
  9
$CMLSTYLE
  2
STANDARD
  9
$CMLJUST
 70
     0
  9
$CMLSCALE
 40
20.0
  9
$PROXYGRAPHICS
 70
     1
  9
$MEASUREMENT
 70
     1
  0
ENDSEC
  0
SECTION
  2
CLASSES
  0
CLASS
  1
ACDBDICTIONARYWDFLT
  2
AcDbDictionaryWithDefault
  3
ObjectDBX Classes
 90
        0
280
     0
281
     0
  0
CLASS
  1
VISUALSTYLE
  2
AcDbVisualStyle
  3
ObjectDBX Classes
 90
     4095
280
     0
281
     0
  0
CLASS
  1
MATERIAL
  2
AcDbMaterial
  3
ObjectDBX Classes
 90
     1153
280
     0
281
     0
  0
CLASS
  1
SUN
  2
AcDbSun
  3
SCENEOE
 90
     1024
280
     0
281
     0
  0
CLASS
  1
DICTIONARYVAR
  2
AcDbDictionaryVar
  3
ObjectDBX Classes
 90
        0
280
     0
281
     0
  0
CLASS
  1
XRECORD
  2
AcDbXrecord
  3
AutoCAD 2000
 90
        0
280
     0
281
     0
  0
CLASS
  1
LWPOLYLINE
  2
AcDbPolyline
  3
AutoCAD 2000
 90
        0
280
     0
281
     1
  0
CLASS
  1
HATCH
  2
AcDbHatch
  3
AutoCAD 2000
 90
        0
280
     0
281
     1
  0
CLASS
  1
ACDBPLACEHOLDER
  2
AcDbPlaceHolder
  3
ObjectDBX Classes
 90
        0
280
     0
281
     0
  0
CLASS
  1
LAYOUT
  2
AcDbLayout
  3
ObjectDBX Classes
 90
        0
280
     0
281
     0
  0
ENDSEC
  0
SECTION
  2
TABLES
  0
TABLE
  2
VPORT
  5
8
330
0
100
AcDbSymbolTable
 70
     1
  0
VPORT
  5
29
330
8
100
AcDbSymbolTableRecord
100
AcDbViewportTableRecord
  2
*ACTIVE
 70
     0
 10
0.0
 20
0.0
 11
1.0
 21
1.0
 12
1005.0
 22
1510.0
 13
0.0
 23
0.0
 14
10.0
 24
10.0
 15
10.0
 25
10.0
 16
0.0
 26
0.0
 36
1.0
 17
0.0
 27
0.0
 37
0.0
 40
2750.0
 41
0.7236363636363635
 42
50.0
 43
0.0
 44
0.0
 50
0.0
 51
0.0
 71
     0
 72
  1000
 73
     1
 74
     3
 75
     0
 76
     0
 77
     0
 78
     0
  0
ENDTAB
  0
TABLE
  2
LTYPE
  5
5
330
0
100
AcDbSymbolTable
 70
     9
  0
LTYPE
  5
14
330
5
100
AcDbSymbolTableRecord
100
AcDbLinetypeTableRecord
  2
BYBLOCK
 70
     0
  3

 72
    65
 73
     0
 40
0.0
  0
LTYPE
  5
15
330
5
100
AcDbSymbolTableRecord
100
AcDbLinetypeTableRecord
  2
BYLAYER
 70
     0
  3

 72
    65
 73
     0
 40
0.0
  0
LTYPE
  5
16
330
5
100
AcDbSymbolTableRecord
100
AcDbLinetypeTableRecord
  2
CONTINUOUS
 70
     0
  3
Solid line
 72
    65
 73
     0
 40
0.0
  0
LTYPE
  5
40
330
5
100
AcDbSymbolTableRecord
100
AcDbLinetypeTableRecord
  2
EXLTYPE1
 70
     0
  3
破線
 72
    65
 73
     2
 40
3.0
 49
2.0
 74
     0
 49
-1.0
 74
     0
  0
LTYPE
  5
41
330
5
100
AcDbSymbolTableRecord
100
AcDbLinetypeTableRecord
  2
EXLTYPE2
 70
     0
  3
点線
 72
    65
 73
     2
 40
2.0
 49
1.0
 74
     0
 49
-1.0
 74
     0
  0
LTYPE
  5
42
330
5
100
AcDbSymbolTableRecord
100
AcDbLinetypeTableRecord
  2
EXLTYPE3
 70
     0
  3
一点鎖線
 72
    65
 73
     4
 40
10.0
 49
7.0
 74
     0
 49
-1.0
 74
     0
 49
1.0
 74
     0
 49
-1.0
 74
     0
  0
LTYPE
  5
43
330
5
100
AcDbSymbolTableRecord
100
AcDbLinetypeTableRecord
  2
EXLTYPE4
 70
     0
  3
二点鎖線
 72
    65
 73
     6
 40
12.0
 49
7.0
 74
     0
 49
-1.0
 74
     0
 49
1.0
 74
     0
 49
-1.0
 74
     0
 49
1.0
 74
     0
 49
-1.0
 74
     0
  0
LTYPE
  5
44
330
5
100
AcDbSymbolTableRecord
100
AcDbLinetypeTableRecord
  2
EXLTYPE5
 70
     0
  3
三点鎖線
 72
    65
 73
     8
 40
37.0
 49
30.0
 74
     0
 49
-1.0
 74
     0
 49
1.0
 74
     0
 49
-1.0
 74
     0
 49
1.0
 74
     0
 49
-1.0
 74
     0
 49
1.0
 74
     0
 49
-1.0
 74
     0
  0
LTYPE
  5
45
330
5
100
AcDbSymbolTableRecord
100
AcDbLinetypeTableRecord
  2
EXLTYPE6
 70
     0
  3
四点鎖線
 72
    65
 73
    10
 40
39.0
 49
30.0
 74
     0
 49
-1.0
 74
     0
 49
1.0
 74
     0
 49
-1.0
 74
     0
 49
1.0
 74
     0
 49
-1.0
 74
     0
 49
1.0
 74
     0
 49
-1.0
 74
     0
 49
1.0
 74
     0
 49
-1.0
 74
     0
  0
LTYPE
  5
46
330
5
100
AcDbSymbolTableRecord
100
AcDbLinetypeTableRecord
  2
EXLTYPE7
 70
     0
  3
破線3
 72
    65
 73
     2
 40
1.5
 49
1.0
 74
     0
 49
-0.5
 74
     0
  0
LTYPE
  5
47
330
5
100
AcDbSymbolTableRecord
100
AcDbLinetypeTableRecord
  2
EXLTYPE8
 70
     0
  3
一点鎖線7
 72
    65
 73
     4
 40
5.2915312
 49
3.175
 74
     0
 49
-1.0580624
 74
     0
 49
0.3527044
 74
     0
 49
-0.7057644000000001
 74
     0
  0
ENDTAB
  0
TABLE
  2
LAYER
  5
2
330
0
100
AcDbSymbolTable
 70
     6
  0
LAYER
  5
10
330
2
100
AcDbSymbolTableRecord
100
AcDbLayerTableRecord
  2
0
 70
     0
 62
     7
  6
CONTINUOUS
  0
LAYER
  5
4A
330
2
100
AcDbSymbolTableRecord
100
AcDbLayerTableRecord
  2
枠_表
 70
     0
 62
     7
  6
CONTINUOUS
  0
LAYER
  5
4B
330
2
100
AcDbSymbolTableRecord
100
AcDbLayerTableRecord
  2
鏡台
 70
     0
 62
     7
  6
CONTINUOUS
  0
LAYER
  5
4C
330
2
100
AcDbSymbolTableRecord
100
AcDbLayerTableRecord
  2
付属金具
 70
     0
 62
     7
  6
CONTINUOUS
  0
LAYER
  5
4D
330
2
100
AcDbSymbolTableRecord
100
AcDbLayerTableRecord
  2
寸法
 70
     0
 62
     7
  6
CONTINUOUS
  0
LAYER
  5
388
330
2
100
AcDbSymbolTableRecord
100
AcDbLayerTableRecord
  2
DEFPOINTS
 70
     0
 62
     7
  6
CONTINUOUS
  0
ENDTAB
  0
TABLE
  2
STYLE
  5
3
330
0
100
AcDbSymbolTable
 70
     5
  0
STYLE
  5
11
330
3
100
AcDbSymbolTableRecord
100
AcDbTextStyleTableRecord
  2
STANDARD
 70
     0
 40
0.0
 41
1.0
 50
0.0
 71
     0
 42
2.5
  3
monotxt
  4
extfont
  0
STYLE
  5
48
330
3
100
AcDbSymbolTableRecord
100
AcDbTextStyleTableRecord
  2
EXCADSTD
 70
     0
 40
0.0
 41
1.0
 50
0.0
 71
     0
 42
0.2
  3
monotxt
  4
extfont
  0
STYLE
  5
49
330
3
100
AcDbSymbolTableRecord
100
AcDbTextStyleTableRecord
  2
EXCADVERT
 70
     4
 40
0.0
 41
1.0
 50
0.0
 71
     0
 42
0.286885
  3
monotxt
  4
extfont
  0
STYLE
  5
386
330
3
100
AcDbSymbolTableRecord
100
AcDbTextStyleTableRecord
  2
EXCADDIM1
 70
     0
 40
0.0
 41
0.84
 50
0.0
 71
     0
 42
0.2
  3
monotxt
  4
extfont
  0
STYLE
  5
5BF
330
3
100
AcDbSymbolTableRecord
100
AcDbTextStyleTableRecord
  2
EXCADTTF1
 70
     0
 40
0.0
 41
1.0
 50
0.0
 71
     0
 42
0.2
  3
MSGOTHIC.TTC
  4

1001
ACAD
1000
MS Gothic
1071
    32817
  0
ENDTAB
  0
TABLE
  2
VIEW
  5
6
330
0
100
AcDbSymbolTable
 70
     0
  0
ENDTAB
  0
TABLE
  2
UCS
  5
7
330
0
100
AcDbSymbolTable
 70
     0
  0
ENDTAB
  0
TABLE
  2
APPID
  5
9
330
0
100
AcDbSymbolTable
 70
     1
  0
APPID
  5
12
330
9
100
AcDbSymbolTableRecord
100
AcDbRegAppTableRecord
  2
ACAD
 70
     0
  0
ENDTAB
  0
TABLE
  2
DIMSTYLE
  5
A
330
0
100
AcDbSymbolTable
 70
     1
  0
DIMSTYLE
105
27
102
{ACAD_REACTORS
330
387
330
395
330
3A2
330
3B1
330
3C0
330
3CD
330
3DC
330
3E9
330
400
330
40F
330
41C
330
429
102
}
330
A
100
AcDbSymbolTableRecord
100
AcDbDimStyleTableRecord
  2
ISO-25
 70
     0
  3

  4

  5

  6

  7

 40
1.0
 41
2.5
 42
0.625
 43
3.75
 44
1.25
 45
0.0
 46
0.0
 47
0.0
 48
0.0
140
2.5
141
2.5
142
0.0
143
0.03937007874016
144
1.0
145
0.0
146
1.0
147
0.625
 71
     0
 72
     0
 73
     0
 74
     0
 75
     0
 76
     0
 77
     1
 78
     8
170
     0
171
     3
172
     1
173
     0
174
     0
175
     0
176
     0
177
     0
178
     0
270
     2
271
     2
272
     2
273
     2
274
     3
340
11
275
     0
280
     0
281
     0
282
     0
283
     0
284
     8
285
     0
286
     0
287
     5
288
     0
  0
ENDTAB
  0
TABLE
  2
BLOCK_RECORD
  5
1
330
0
100
AcDbSymbolTable
 70
    27
  0
BLOCK_RECORD
  5
1F
330
1
100
AcDbSymbolTableRecord
100
AcDbBlockTableRecord
  2
*MODEL_SPACE
  0
BLOCK_RECORD
  5
1B
330
1
100
AcDbSymbolTableRecord
100
AcDbBlockTableRecord
  2
*PAPER_SPACE
  0
BLOCK_RECORD
  5
4E
330
1
100
AcDbSymbolTableRecord
100
AcDbBlockTableRecord
  2
EX_NORM
  0
BLOCK_RECORD
  5
51
330
1
100
AcDbSymbolTableRecord
100
AcDbBlockTableRecord
  2
EX_BNORM
  0
BLOCK_RECORD
  5
54
330
1
100
AcDbSymbolTableRecord
100
AcDbBlockTableRecord
  2
EX_BCIR
  0
BLOCK_RECORD
  5
57
330
1
100
AcDbSymbolTableRecord
100
AcDbBlockTableRecord
  2
EX_RCIVIL
  0
BLOCK_RECORD
  5
5A
330
1
100
AcDbSymbolTableRecord
100
AcDbBlockTableRecord
  2
EX_SLANT
  0
BLOCK_RECORD
  5
5D
330
1
100
AcDbSymbolTableRecord
100
AcDbBlockTableRecord
  2
EX_NONE
  0
BLOCK_RECORD
  5
60
330
1
100
AcDbSymbolTableRecord
100
AcDbBlockTableRecord
  2
EX_CIVIL
  0
BLOCK_RECORD
  5
63
330
1
100
AcDbSymbolTableRecord
100
AcDbBlockTableRecord
  2
EX_WCIR
  0
BLOCK_RECORD
  5
66
330
1
100
AcDbSymbolTableRecord
100
AcDbBlockTableRecord
  2
EX_WCIR2
  0
BLOCK_RECORD
  5
69
330
1
100
AcDbSymbolTableRecord
100
AcDbBlockTableRecord
  2
EX_WNORM
  0
BLOCK_RECORD
  5
6C
330
1
100
AcDbSymbolTableRecord
100
AcDbBlockTableRecord
  2
EX_NNORM
  0
BLOCK_RECORD
  5
6F
330
1
100
AcDbSymbolTableRecord
100
AcDbBlockTableRecord
  2
EX_BBOX
  0
BLOCK_RECORD
  5
72
330
1
100
AcDbSymbolTableRecord
100
AcDbBlockTableRecord
  2
EX_WBOX
  0
BLOCK_RECORD
  5
75
330
1
100
AcDbSymbolTableRecord
100
AcDbBlockTableRecord
  2
EX_INTEGRAL
  0
BLOCK_RECORD
  5
389
330
1
100
AcDbSymbolTableRecord
100
AcDbBlockTableRecord
  2
*D15
  0
BLOCK_RECORD
  5
396
330
1
100
AcDbSymbolTableRecord
100
AcDbBlockTableRecord
  2
*D16
  0
BLOCK_RECORD
  5
3A3
330
1
100
AcDbSymbolTableRecord
100
AcDbBlockTableRecord
  2
*D17
  0
BLOCK_RECORD
  5
3B2
330
1
100
AcDbSymbolTableRecord
100
AcDbBlockTableRecord
  2
*D18
  0
BLOCK_RECORD
  5
3C1
330
1
100
AcDbSymbolTableRecord
100
AcDbBlockTableRecord
  2
*D19
  0
BLOCK_RECORD
  5
3CE
330
1
100
AcDbSymbolTableRecord
100
AcDbBlockTableRecord
  2
*D20
  0
BLOCK_RECORD
  5
3DD
330
1
100
AcDbSymbolTableRecord
100
AcDbBlockTableRecord
  2
*D21
  0
BLOCK_RECORD
  5
3EA
330
1
100
AcDbSymbolTableRecord
100
AcDbBlockTableRecord
  2
*D22
  0
BLOCK_RECORD
  5
401
330
1
100
AcDbSymbolTableRecord
100
AcDbBlockTableRecord
  2
*D23
  0
BLOCK_RECORD
  5
410
330
1
100
AcDbSymbolTableRecord
100
AcDbBlockTableRecord
  2
*D24
  0
BLOCK_RECORD
  5
41D
330
1
100
AcDbSymbolTableRecord
100
AcDbBlockTableRecord
  2
*D25
  0
BLOCK_RECORD
  5
42A
330
1
100
AcDbSymbolTableRecord
100
AcDbBlockTableRecord
  2
*D26
  0
ENDTAB
  0
ENDSEC
  0
SECTION
  2
BLOCKS
  0
BLOCK
  5
20
330
1F
100
AcDbEntity
  8
0
100
AcDbBlockBegin
  2
*MODEL_SPACE
 70
     0
 10
0.0
 20
0.0
 30
0.0
  3
*MODEL_SPACE
  1

  0
ENDBLK
  5
21
330
1F
100
AcDbEntity
  8
0
100
AcDbBlockEnd
  0
BLOCK
  5
1C
330
1B
100
AcDbEntity
 67
     1
  8
0
100
AcDbBlockBegin
  2
*PAPER_SPACE
 70
     0
 10
0.0
 20
0.0
 30
0.0
  3
*PAPER_SPACE
  1

  0
ENDBLK
  5
1D
330
1B
100
AcDbEntity
 67
     1
  8
0
100
AcDbBlockEnd
  0
BLOCK
  5
4F
330
4E
100
AcDbEntity
  8
0
100
AcDbBlockBegin
  2
EX_NORM
 70
     0
 10
0.0
 20
0.0
 30
0.0
  3
EX_NORM
  1

  0
LINE
  5
78
330
4E
100
AcDbEntity
  8
0
  6
CONTINUOUS
 62
     0
100
AcDbLine
 10
0.0
 20
0.0
 30
0.0
 11
-1.0
 21
0.0
 31
0.0
  0
LINE
  5
79
330
4E
100
AcDbEntity
  8
0
  6
CONTINUOUS
 62
     0
100
AcDbLine
 10
0.0
 20
0.0
 30
0.0
 11
-1.0
 21
0.166666667
 31
0.0
  0
LINE
  5
7A
330
4E
100
AcDbEntity
  8
0
  6
CONTINUOUS
 62
     0
100
AcDbLine
 10
0.0
 20
0.0
 30
0.0
 11
-1.0
 21
-0.166666667
 31
0.0
  0
ENDBLK
  5
50
330
4E
100
AcDbEntity
  8
0
100
AcDbBlockEnd
  0
BLOCK
  5
52
330
51
100
AcDbEntity
  8
0
100
AcDbBlockBegin
  2
EX_BNORM
 70
     0
 10
0.0
 20
0.0
 30
0.0
  3
EX_BNORM
  1

  0
LINE
  5
7B
330
51
100
AcDbEntity
  8
0
  6
CONTINUOUS
 62
     0
100
AcDbLine
 10
0.0
 20
0.0
 30
0.0
 11
-1.0
 21
0.0
 31
0.0
  0
LINE
  5
7C
330
51
100
AcDbEntity
  8
0
  6
CONTINUOUS
 62
     0
100
AcDbLine
 10
0.0
 20
0.0
 30
0.0
 11
-1.0
 21
0.166666667
 31
0.0
  0
LINE
  5
7D
330
51
100
AcDbEntity
  8
0
  6
CONTINUOUS
 62
     0
100
AcDbLine
 10
0.0
 20
0.0
 30
0.0
 11
-1.0
 21
-0.166666667
 31
0.0
  0
LINE
  5
7E
330
51
100
AcDbEntity
  8
0
  6
CONTINUOUS
 62
     0
100
AcDbLine
 10
0.0
 20
0.0
 30
0.0
 11
-1.0
 21
0.083333333
 31
0.0
  0
LINE
  5
7F
330
51
100
AcDbEntity
  8
0
  6
CONTINUOUS
 62
     0
100
AcDbLine
 10
0.0
 20
0.0
 30
0.0
 11
-1.0
 21
-0.083333333
 31
0.0
  0
LINE
  5
80
330
51
100
AcDbEntity
  8
0
  6
CONTINUOUS
 62
     0
100
AcDbLine
 10
-1.0
 20
0.166666667
 30
0.0
 11
-1.0
 21
-0.166666667
 31
0.0
  0
ENDBLK
  5
53
330
51
100
AcDbEntity
  8
0
100
AcDbBlockEnd
  0
BLOCK
  5
55
330
54
100
AcDbEntity
  8
0
100
AcDbBlockBegin
  2
EX_BCIR
 70
     0
 10
0.0
 20
0.0
 30
0.0
  3
EX_BCIR
  1

  0
LINE
  5
81
330
54
100
AcDbEntity
  8
0
  6
CONTINUOUS
 62
     0
100
AcDbLine
 10
0.0
 20
0.0
 30
0.0
 11
-1.0
 21
0.0
 31
0.0
  0
CIRCLE
  5
82
330
54
100
AcDbEntity
  8
0
  6
CONTINUOUS
 62
     0
100
AcDbCircle
 10
0.0
 20
0.0
 30
0.0
 40
0.5
  0
CIRCLE
  5
83
330
54
100
AcDbEntity
  8
0
  6
CONTINUOUS
 62
     0
100
AcDbCircle
 10
0.0
 20
0.0
 30
0.0
 40
0.25
  0
ENDBLK
  5
56
330
54
100
AcDbEntity
  8
0
100
AcDbBlockEnd
  0
BLOCK
  5
58
330
57
100
AcDbEntity
  8
0
100
AcDbBlockBegin
  2
EX_RCIVIL
 70
     0
 10
0.0
 20
0.0
 30
0.0
  3
EX_RCIVIL
  1

  0
LINE
  5
84
330
57
100
AcDbEntity
  8
0
  6
CONTINUOUS
 62
     0
100
AcDbLine
 10
0.0
 20
0.0
 30
0.0
 11
-1.0
 21
0.0
 31
0.0
  0
LINE
  5
85
330
57
100
AcDbEntity
  8
0
  6
CONTINUOUS
 62
     0
100
AcDbLine
 10
-1.0
 20
-0.25
 30
0.0
 11
0.0
 21
-0.25
 31
0.0
  0
LINE
  5
86
330
57
100
AcDbEntity
  8
0
  6
CONTINUOUS
 62
     0
100
AcDbLine
 10
-1.0
 20
-0.125
 30
0.0
 11
0.0
 21
-0.125
 31
0.0
  0
ENDBLK
  5
59
330
57
100
AcDbEntity
  8
0
100
AcDbBlockEnd
  0
BLOCK
  5
5B
330
5A
100
AcDbEntity
  8
0
100
AcDbBlockBegin
  2
EX_SLANT
 70
     0
 10
0.0
 20
0.0
 30
0.0
  3
EX_SLANT
  1

  0
LINE
  5
87
330
5A
100
AcDbEntity
  8
0
  6
CONTINUOUS
 62
     0
100
AcDbLine
 10
0.0
 20
0.0
 30
0.0
 11
-1.0
 21
0.0
 31
0.0
  0
LINE
  5
88
330
5A
100
AcDbEntity
  8
0
  6
CONTINUOUS
 62
     0
100
AcDbLine
 10
0.707106781
 20
0.707106781
 30
0.0
 11
-0.707106781
 21
-0.707106781
 31
0.0
  0
ENDBLK
  5
5C
330
5A
100
AcDbEntity
  8
0
100
AcDbBlockEnd
  0
BLOCK
  5
5E
330
5D
100
AcDbEntity
  8
0
100
AcDbBlockBegin
  2
EX_NONE
 70
     0
 10
0.0
 20
0.0
 30
0.0
  3
EX_NONE
  1

  0
LINE
  5
89
330
5D
100
AcDbEntity
  8
0
  6
CONTINUOUS
 62
     0
100
AcDbLine
 10
0.0
 20
0.0
 30
0.0
 11
-1.0
 21
0.0
 31
0.0
  0
ENDBLK
  5
5F
330
5D
100
AcDbEntity
  8
0
100
AcDbBlockEnd
  0
BLOCK
  5
61
330
60
100
AcDbEntity
  8
0
100
AcDbBlockBegin
  2
EX_CIVIL
 70
     0
 10
0.0
 20
0.0
 30
0.0
  3
EX_CIVIL
  1

  0
LINE
  5
8A
330
60
100
AcDbEntity
  8
0
  6
CONTINUOUS
 62
     0
100
AcDbLine
 10
0.0
 20
0.0
 30
0.0
 11
-1.0
 21
0.0
 31
0.0
  0
LINE
  5
8B
330
60
100
AcDbEntity
  8
0
  6
CONTINUOUS
 62
     0
100
AcDbLine
 10
-1.0
 20
0.25
 30
0.0
 11
0.0
 21
0.25
 31
0.0
  0
LINE
  5
8C
330
60
100
AcDbEntity
  8
0
  6
CONTINUOUS
 62
     0
100
AcDbLine
 10
-1.0
 20
0.125
 30
0.0
 11
0.0
 21
0.125
 31
0.0
  0
ENDBLK
  5
62
330
60
100
AcDbEntity
  8
0
100
AcDbBlockEnd
  0
BLOCK
  5
64
330
63
100
AcDbEntity
  8
0
100
AcDbBlockBegin
  2
EX_WCIR
 70
     0
 10
0.0
 20
0.0
 30
0.0
  3
EX_WCIR
  1

  0
LINE
  5
8D
330
63
100
AcDbEntity
  8
0
  6
CONTINUOUS
 62
     0
100
AcDbLine
 10
0.0
 20
0.0
 30
0.0
 11
-1.0
 21
0.0
 31
0.0
  0
CIRCLE
  5
8E
330
63
100
AcDbEntity
  8
0
  6
CONTINUOUS
 62
     0
100
AcDbCircle
 10
0.0
 20
0.0
 30
0.0
 40
0.5
  0
ENDBLK
  5
65
330
63
100
AcDbEntity
  8
0
100
AcDbBlockEnd
  0
BLOCK
  5
67
330
66
100
AcDbEntity
  8
0
100
AcDbBlockBegin
  2
EX_WCIR2
 70
     0
 10
0.0
 20
0.0
 30
0.0
  3
EX_WCIR2
  1

  0
LINE
  5
8F
330
66
100
AcDbEntity
  8
0
  6
CONTINUOUS
 62
     0
100
AcDbLine
 10
-0.5
 20
0.0
 30
0.0
 11
-1.0
 21
0.0
 31
0.0
  0
CIRCLE
  5
90
330
66
100
AcDbEntity
  8
0
  6
CONTINUOUS
 62
     0
100
AcDbCircle
 10
0.0
 20
0.0
 30
0.0
 40
0.5
  0
ENDBLK
  5
68
330
66
100
AcDbEntity
  8
0
100
AcDbBlockEnd
  0
BLOCK
  5
6A
330
69
100
AcDbEntity
  8
0
100
AcDbBlockBegin
  2
EX_WNORM
 70
     0
 10
0.0
 20
0.0
 30
0.0
  3
EX_WNORM
  1

  0
LINE
  5
91
330
69
100
AcDbEntity
  8
0
  6
CONTINUOUS
 62
     0
100
AcDbLine
 10
-1.0
 20
0.0
 30
0.0
 11
-1.0
 21
0.0
 31
0.0
  0
LINE
  5
92
330
69
100
AcDbEntity
  8
0
  6
CONTINUOUS
 62
     0
100
AcDbLine
 10
0.0
 20
0.0
 30
0.0
 11
-1.0
 21
0.166666667
 31
0.0
  0
LINE
  5
93
330
69
100
AcDbEntity
  8
0
  6
CONTINUOUS
 62
     0
100
AcDbLine
 10
0.0
 20
0.0
 30
0.0
 11
-1.0
 21
-0.166666667
 31
0.0
  0
LINE
  5
94
330
69
100
AcDbEntity
  8
0
  6
CONTINUOUS
 62
     0
100
AcDbLine
 10
-1.0
 20
0.166666667
 30
0.0
 11
-1.0
 21
-0.166666667
 31
0.0
  0
ENDBLK
  5
6B
330
69
100
AcDbEntity
  8
0
100
AcDbBlockEnd
  0
BLOCK
  5
6D
330
6C
100
AcDbEntity
  8
0
100
AcDbBlockBegin
  2
EX_NNORM
 70
     0
 10
0.0
 20
0.0
 30
0.0
  3
EX_NNORM
  1

  0
LINE
  5
95
330
6C
100
AcDbEntity
  8
0
  6
CONTINUOUS
 62
     0
100
AcDbLine
 10
0.0
 20
0.0
 30
0.0
 11
-1.0
 21
0.0
 31
0.0
  0
LINE
  5
96
330
6C
100
AcDbEntity
  8
0
  6
CONTINUOUS
 62
     0
100
AcDbLine
 10
0.0
 20
0.0
 30
0.0
 11
-1.0
 21
0.166666667
 31
0.0
  0
LINE
  5
97
330
6C
100
AcDbEntity
  8
0
  6
CONTINUOUS
 62
     0
100
AcDbLine
 10
0.0
 20
0.0
 30
0.0
 11
-1.0
 21
-0.166666667
 31
0.0
  0
LINE
  5
98
330
6C
100
AcDbEntity
  8
0
  6
CONTINUOUS
 62
     0
100
AcDbLine
 10
-1.0
 20
0.166666667
 30
0.0
 11
-1.0
 21
-0.166666667
 31
0.0
  0
ENDBLK
  5
6E
330
6C
100
AcDbEntity
  8
0
100
AcDbBlockEnd
  0
BLOCK
  5
70
330
6F
100
AcDbEntity
  8
0
100
AcDbBlockBegin
  2
EX_BBOX
 70
     0
 10
0.0
 20
0.0
 30
0.0
  3
EX_BBOX
  1

  0
LINE
  5
99
330
6F
100
AcDbEntity
  8
0
  6
CONTINUOUS
 62
     0
100
AcDbLine
 10
0.0
 20
0.0
 30
0.0
 11
-1.0
 21
0.0
 31
0.0
  0
LINE
  5
9A
330
6F
100
AcDbEntity
  8
0
  6
CONTINUOUS
 62
     0
100
AcDbLine
 10
-0.5
 20
0.5
 30
0.0
 11
0.5
 21
0.5
 31
0.0
  0
LINE
  5
9B
330
6F
100
AcDbEntity
  8
0
  6
CONTINUOUS
 62
     0
100
AcDbLine
 10
0.5
 20
0.5
 30
0.0
 11
0.5
 21
-0.5
 31
0.0
  0
LINE
  5
9C
330
6F
100
AcDbEntity
  8
0
  6
CONTINUOUS
 62
     0
100
AcDbLine
 10
0.5
 20
-0.5
 30
0.0
 11
-0.5
 21
-0.5
 31
0.0
  0
LINE
  5
9D
330
6F
100
AcDbEntity
  8
0
  6
CONTINUOUS
 62
     0
100
AcDbLine
 10
-0.5
 20
-0.5
 30
0.0
 11
-0.5
 21
0.5
 31
0.0
  0
LINE
  5
9E
330
6F
100
AcDbEntity
  8
0
  6
CONTINUOUS
 62
     0
100
AcDbLine
 10
-0.25
 20
0.25
 30
0.0
 11
0.25
 21
0.25
 31
0.0
  0
LINE
  5
9F
330
6F
100
AcDbEntity
  8
0
  6
CONTINUOUS
 62
     0
100
AcDbLine
 10
0.25
 20
0.25
 30
0.0
 11
0.25
 21
-0.25
 31
0.0
  0
LINE
  5
A0
330
6F
100
AcDbEntity
  8
0
  6
CONTINUOUS
 62
     0
100
AcDbLine
 10
0.25
 20
-0.25
 30
0.0
 11
-0.25
 21
-0.25
 31
0.0
  0
LINE
  5
A1
330
6F
100
AcDbEntity
  8
0
  6
CONTINUOUS
 62
     0
100
AcDbLine
 10
-0.25
 20
-0.25
 30
0.0
 11
-0.25
 21
0.25
 31
0.0
  0
ENDBLK
  5
71
330
6F
100
AcDbEntity
  8
0
100
AcDbBlockEnd
  0
BLOCK
  5
73
330
72
100
AcDbEntity
  8
0
100
AcDbBlockBegin
  2
EX_WBOX
 70
     0
 10
0.0
 20
0.0
 30
0.0
  3
EX_WBOX
  1

  0
LINE
  5
A2
330
72
100
AcDbEntity
  8
0
  6
CONTINUOUS
 62
     0
100
AcDbLine
 10
-0.5
 20
0.0
 30
0.0
 11
-1.0
 21
0.0
 31
0.0
  0
LINE
  5
A3
330
72
100
AcDbEntity
  8
0
  6
CONTINUOUS
 62
     0
100
AcDbLine
 10
-0.5
 20
0.5
 30
0.0
 11
0.5
 21
0.5
 31
0.0
  0
LINE
  5
A4
330
72
100
AcDbEntity
  8
0
  6
CONTINUOUS
 62
     0
100
AcDbLine
 10
0.5
 20
0.5
 30
0.0
 11
0.5
 21
-0.5
 31
0.0
  0
LINE
  5
A5
330
72
100
AcDbEntity
  8
0
  6
CONTINUOUS
 62
     0
100
AcDbLine
 10
0.5
 20
-0.5
 30
0.0
 11
-0.5
 21
-0.5
 31
0.0
  0
LINE
  5
A6
330
72
100
AcDbEntity
  8
0
  6
CONTINUOUS
 62
     0
100
AcDbLine
 10
-0.5
 20
-0.5
 30
0.0
 11
-0.5
 21
0.5
 31
0.0
  0
ENDBLK
  5
74
330
72
100
AcDbEntity
  8
0
100
AcDbBlockEnd
  0
BLOCK
  5
76
330
75
100
AcDbEntity
  8
0
100
AcDbBlockBegin
  2
EX_INTEGRAL
 70
     0
 10
0.0
 20
0.0
 30
0.0
  3
EX_INTEGRAL
  1

  0
LINE
  5
A7
330
75
100
AcDbEntity
  8
0
  6
CONTINUOUS
 62
     0
100
AcDbLine
 10
0.0
 20
0.0
 30
0.0
 11
-1.0
 21
0.0
 31
0.0
  0
ARC
  5
A8
330
75
100
AcDbEntity
  8
0
  6
CONTINUOUS
 62
     0
100
AcDbCircle
 10
0.542115
 20
0.164992
 30
0.0
 40
0.56667
100
AcDbArc
 50
73.07249033629006
 51
196.9275130221199
  0
ARC
  5
A9
330
75
100
AcDbEntity
  8
0
  6
CONTINUOUS
 62
     0
100
AcDbCircle
 10
-0.542115
 20
-0.164992
 30
0.0
 40
0.56667
100
AcDbArc
 50
253.0724869220464
 51
16.9275130559125
  0
ENDBLK
  5
77
330
75
100
AcDbEntity
  8
0
100
AcDbBlockEnd
  0
BLOCK
  5
38A
330
389
100
AcDbEntity
  8
0
100
AcDbBlockBegin
  2
*D15
 70
     1
 10
0.0
 20
0.0
 30
0.0
  3
*D15
  1

  0
LINE
  5
38C
330
389
100
AcDbEntity
  8
枠_表
  6
CONTINUOUS
 62
     3
100
AcDbLine
 10
378.50000000002
 20
1547.999999880791
 30
0.0
 11
378.50000000002
 21
1632.0
 31
0.0
  0
LINE
  5
38D
330
389
100
AcDbEntity
  8
枠_表
  6
CONTINUOUS
 62
     3
100
AcDbLine
 10
1128.4889350174
 20
1547.999999880791
 30
0.0
 11
1128.4889350174
 21
1632.0
 31
0.0
  0
LINE
  5
38E
330
389
100
AcDbEntity
  8
枠_表
  6
CONTINUOUS
 62
     3
100
AcDbLine
 10
408.50000000002
 20
1622.0
 30
0.0
 11
1098.4889350174
 21
1622.0
 31
0.0
  0
INSERT
  5
38F
330
389
100
AcDbEntity
  8
枠_表
 62
     3
100
AcDbBlockReference
  2
EX_NORM
 10
378.50000000002
 20
1622.0
 30
0.0
 41
30.0
 42
30.0
 43
30.0
 50
180.0
  0
INSERT
  5
390
330
389
100
AcDbEntity
  8
枠_表
 62
     3
100
AcDbBlockReference
  2
EX_NORM
 10
1128.4889350174
 20
1622.0
 30
0.0
 41
30.0
 42
30.0
 43
30.0
  0
MTEXT
  5
391
330
389
100
AcDbEntity
  8
枠_表
 62
     2
100
AcDbMText
 10
753.4944675087102
 20
1645.499999940395
 30
0.0
 40
40.0
 41
0.0
 71
     5
 72
     1
  1
750
  7
EXCADDIM1
  0
POINT
  5
392
330
389
100
AcDbEntity
  8
DEFPOINTS
 62
     0
100
AcDbPoint
 10
378.50000000002
 20
1541.0
 30
0.0
  0
POINT
  5
393
330
389
100
AcDbEntity
  8
DEFPOINTS
 62
     0
100
AcDbPoint
 10
1128.4889350174
 20
1541.0
 30
0.0
  0
POINT
  5
394
330
389
100
AcDbEntity
  8
DEFPOINTS
 62
     0
100
AcDbPoint
 10
1128.4889350174
 20
1622.0
 30
0.0
  0
ENDBLK
  5
38B
330
389
100
AcDbEntity
  8
0
100
AcDbBlockEnd
  0
BLOCK
  5
397
330
396
100
AcDbEntity
  8
0
100
AcDbBlockBegin
  2
*D16
 70
     1
 10
0.0
 20
0.0
 30
0.0
  3
*D16
  1

  0
LINE
  5
399
330
396
100
AcDbEntity
  8
枠_表
  6
CONTINUOUS
 62
     3
100
AcDbLine
 10
1130.488971781191
 20
1546.0
 30
0.0
 11
1304.0
 21
1546.0
 31
0.0
  0
LINE
  5
39A
330
396
100
AcDbEntity
  8
枠_表
  6
CONTINUOUS
 62
     3
100
AcDbLine
 10
1130.488971781191
 20
496.0
 30
0.0
 11
1304.0
 21
496.0
 31
0.0
  0
LINE
  5
39B
330
396
100
AcDbEntity
  8
枠_表
  6
CONTINUOUS
 62
     3
100
AcDbLine
 10
1294.0
 20
1516.0
 30
0.0
 11
1294.0
 21
526.0
 31
0.0
  0
INSERT
  5
39C
330
396
100
AcDbEntity
  8
枠_表
 62
     3
100
AcDbBlockReference
  2
EX_NORM
 10
1294.0
 20
1546.0
 30
0.0
 41
30.0
 42
30.0
 43
30.0
 50
90.0
  0
INSERT
  5
39D
330
396
100
AcDbEntity
  8
枠_表
 62
     3
100
AcDbBlockReference
  2
EX_NORM
 10
1294.0
 20
496.0
 30
0.0
 41
30.0
 42
30.0
 43
30.0
 50
270.0
  0
MTEXT
  5
39E
330
396
100
AcDbEntity
  8
枠_表
 62
     2
100
AcDbMText
 10
1270.500000059605
 20
1021.0
 30
0.0
 40
40.0
 41
0.0
 71
     5
 72
     1
  1
1050
  7
EXCADDIM1
 11
0.0
 21
1.0
 31
0.0
  0
POINT
  5
39F
330
396
100
AcDbEntity
  8
DEFPOINTS
 62
     0
100
AcDbPoint
 10
1123.4889719004
 20
1546.0
 30
0.0
  0
POINT
  5
3A0
330
396
100
AcDbEntity
  8
DEFPOINTS
 62
     0
100
AcDbPoint
 10
1123.4889719004
 20
496.0
 30
0.0
  0
POINT
  5
3A1
330
396
100
AcDbEntity
  8
DEFPOINTS
 62
     0
100
AcDbPoint
 10
1294.0
 20
496.0
 30
0.0
  0
ENDBLK
  5
398
330
396
100
AcDbEntity
  8
0
100
AcDbBlockEnd
  0
BLOCK
  5
3A4
330
3A3
100
AcDbEntity
  8
0
100
AcDbBlockBegin
  2
*D17
 70
     1
 10
0.0
 20
0.0
 30
0.0
  3
*D17
  1

  0
LINE
  5
3A6
330
3A3
100
AcDbEntity
  8
枠_表
  6
CONTINUOUS
 62
     3
100
AcDbLine
 10
1130.488971781191
 20
496.0
 30
0.0
 11
1242.0
 21
495.9999999999999
 31
0.0
  0
LINE
  5
3A7
330
3A3
100
AcDbEntity
  8
枠_表
  6
CONTINUOUS
 62
     3
100
AcDbLine
 10
1135.488934898191
 20
581.0
 30
0.0
 11
1242.0
 21
581.0
 31
0.0
  0
LINE
  5
3A8
330
3A3
100
AcDbEntity
  8
枠_表
  6
CONTINUOUS
 62
     3
100
AcDbLine
 10
1232.0
 20
526.0
 30
0.0
 11
1232.0
 21
551.0
 31
0.0
  0
INSERT
  5
3A9
330
3A3
100
AcDbEntity
  8
枠_表
 62
     3
100
AcDbBlockReference
  2
EX_NORM
 10
1232.0
 20
495.9999999999999
 30
0.0
 41
30.0
 42
30.0
 43
30.0
 50
270.0
  0
INSERT
  5
3AA
330
3A3
100
AcDbEntity
  8
枠_表
 62
     3
100
AcDbBlockReference
  2
EX_NORM
 10
1232.0
 20
581.0
 30
0.0
 41
30.0
 42
30.0
 43
30.0
 50
90.0
  0
MTEXT
  5
3AB
330
3A3
100
AcDbEntity
  8
枠_表
 62
     2
100
AcDbMText
 10
1208.500000059605
 20
645.9999999999997
 30
0.0
 40
40.0
 41
0.0
 71
     5
 72
     1
  1
85
  7
EXCADDIM1
 11
0.0
 21
1.0
 31
0.0
  0
POINT
  5
3AC
330
3A3
100
AcDbEntity
  8
DEFPOINTS
 62
     0
100
AcDbPoint
 10
1123.4889719004
 20
496.0
 30
0.0
  0
POINT
  5
3AD
330
3A3
100
AcDbEntity
  8
DEFPOINTS
 62
     0
100
AcDbPoint
 10
1128.4889350174
 20
581.0
 30
0.0
  0
POINT
  5
3AE
330
3A3
100
AcDbEntity
  8
DEFPOINTS
 62
     0
100
AcDbPoint
 10
1232.0
 20
581.0
 30
0.0
  0
ENDBLK
  5
3A5
330
3A3
100
AcDbEntity
  8
0
100
AcDbBlockEnd
  0
BLOCK
  5
3B3
330
3B2
100
AcDbEntity
  8
0
100
AcDbBlockBegin
  2
*D18
 70
     1
 10
0.0
 20
0.0
 30
0.0
  3
*D18
  1

  0
LINE
  5
3B5
330
3B2
100
AcDbEntity
  8
枠_表
  6
CONTINUOUS
 62
     3
100
AcDbLine
 10
1700.5
 20
489.0000001192093
 30
0.0
 11
1700.5
 21
425.0
 31
0.0
  0
LINE
  5
3B6
330
3B2
100
AcDbEntity
  8
枠_表
  6
CONTINUOUS
 62
     3
100
AcDbLine
 10
1680.5
 20
510.0000001192093
 30
0.0
 11
1680.5
 21
425.0
 31
0.0
  0
LINE
  5
3B7
330
3B2
100
AcDbEntity
  8
枠_表
  6
CONTINUOUS
 62
     3
100
AcDbLine
 10
1700.5
 20
435.0
 30
0.0
 11
1680.5
 21
435.0
 31
0.0
  0
LINE
  5
3B8
330
3B2
100
AcDbEntity
  8
枠_表
  6
CONTINUOUS
 62
     3
100
AcDbLine
 10
1730.5
 20
435.0
 30
0.0
 11
1760.5
 21
435.0
 31
0.0
  0
LINE
  5
3B9
330
3B2
100
AcDbEntity
  8
枠_表
  6
CONTINUOUS
 62
     3
100
AcDbLine
 10
1650.5
 20
435.0
 30
0.0
 11
1620.5
 21
435.0
 31
0.0
  0
INSERT
  5
3BA
330
3B2
100
AcDbEntity
  8
枠_表
 62
     3
100
AcDbBlockReference
  2
EX_NORM
 10
1700.5
 20
435.0
 30
0.0
 41
30.0
 42
30.0
 43
30.0
 50
180.0
  0
INSERT
  5
3BB
330
3B2
100
AcDbEntity
  8
枠_表
 62
     3
100
AcDbBlockReference
  2
EX_NORM
 10
1680.5
 20
435.0
 30
0.0
 41
30.0
 42
30.0
 43
30.0
  0
MTEXT
  5
3BC
330
3B2
100
AcDbEntity
  8
枠_表
 62
     2
100
AcDbMText
 10
1615.5
 20
458.4999999403949
 30
0.0
 40
40.0
 41
0.0
 71
     5
 72
     1
  1
20
  7
EXCADDIM1
  0
POINT
  5
3BD
330
3B2
100
AcDbEntity
  8
DEFPOINTS
 62
     0
100
AcDbPoint
 10
1700.5
 20
496.0
 30
0.0
  0
POINT
  5
3BE
330
3B2
100
AcDbEntity
  8
DEFPOINTS
 62
     0
100
AcDbPoint
 10
1680.5
 20
517.0
 30
0.0
  0
POINT
  5
3BF
330
3B2
100
AcDbEntity
  8
DEFPOINTS
 62
     0
100
AcDbPoint
 10
1680.5
 20
435.0
 30
0.0
  0
ENDBLK
  5
3B4
330
3B2
100
AcDbEntity
  8
0
100
AcDbBlockEnd
  0
BLOCK
  5
3C2
330
3C1
100
AcDbEntity
  8
0
100
AcDbBlockBegin
  2
*D19
 70
     1
 10
0.0
 20
0.0
 30
0.0
  3
*D19
  1

  0
LINE
  5
3C4
330
3C1
100
AcDbEntity
  8
枠_表
  6
CONTINUOUS
 62
     3
100
AcDbLine
 10
1540.5
 20
1525.103198998991
 30
0.0
 11
1540.5
 21
1627.0
 31
0.0
  0
LINE
  5
3C5
330
3C1
100
AcDbEntity
  8
枠_表
  6
CONTINUOUS
 62
     3
100
AcDbLine
 10
1700.5
 20
1552.999999880791
 30
0.0
 11
1700.5
 21
1627.0
 31
0.0
  0
LINE
  5
3C6
330
3C1
100
AcDbEntity
  8
枠_表
  6
CONTINUOUS
 62
     3
100
AcDbLine
 10
1570.5
 20
1617.0
 30
0.0
 11
1670.5
 21
1617.0
 31
0.0
  0
INSERT
  5
3C7
330
3C1
100
AcDbEntity
  8
枠_表
 62
     3
100
AcDbBlockReference
  2
EX_NORM
 10
1540.5
 20
1617.0
 30
0.0
 41
30.0
 42
30.0
 43
30.0
 50
180.0
  0
INSERT
  5
3C8
330
3C1
100
AcDbEntity
  8
枠_表
 62
     3
100
AcDbBlockReference
  2
EX_NORM
 10
1700.5
 20
1617.0
 30
0.0
 41
30.0
 42
30.0
 43
30.0
  0
MTEXT
  5
3C9
330
3C1
100
AcDbEntity
  8
枠_表
 62
     2
100
AcDbMText
 10
1620.5
 20
1640.499999940395
 30
0.0
 40
40.0
 41
0.0
 71
     5
 72
     1
  1
160
  7
EXCADDIM1
  0
POINT
  5
3CA
330
3C1
100
AcDbEntity
  8
DEFPOINTS
 62
     0
100
AcDbPoint
 10
1540.5
 20
1518.1031991182
 30
0.0
  0
POINT
  5
3CB
330
3C1
100
AcDbEntity
  8
DEFPOINTS
 62
     0
100
AcDbPoint
 10
1700.5
 20
1546.0
 30
0.0
  0
POINT
  5
3CC
330
3C1
100
AcDbEntity
  8
DEFPOINTS
 62
     0
100
AcDbPoint
 10
1700.5
 20
1617.0
 30
0.0
  0
ENDBLK
  5
3C3
330
3C1
100
AcDbEntity
  8
0
100
AcDbBlockEnd
  0
BLOCK
  5
3CF
330
3CE
100
AcDbEntity
  8
0
100
AcDbBlockBegin
  2
*D20
 70
     1
 10
0.0
 20
0.0
 30
0.0
  3
*D20
  1

  0
LINE
  5
3D1
330
3CE
100
AcDbEntity
  8
枠_表
  6
CONTINUOUS
 62
     3
100
AcDbLine
 10
1707.499999880791
 20
496.0
 30
0.0
 11
1820.0
 21
496.0
 31
0.0
  0
LINE
  5
3D2
330
3CE
100
AcDbEntity
  8
枠_表
  6
CONTINUOUS
 62
     3
100
AcDbLine
 10
1754.999999880791
 20
521.0
 30
0.0
 11
1820.0
 21
521.0
 31
0.0
  0
LINE
  5
3D3
330
3CE
100
AcDbEntity
  8
枠_表
  6
CONTINUOUS
 62
     3
100
AcDbLine
 10
1810.0
 20
496.0
 30
0.0
 11
1810.0
 21
521.0
 31
0.0
  0
LINE
  5
3D4
330
3CE
100
AcDbEntity
  8
枠_表
  6
CONTINUOUS
 62
     3
100
AcDbLine
 10
1810.0
 20
466.0
 30
0.0
 11
1810.0
 21
436.0
 31
0.0
  0
LINE
  5
3D5
330
3CE
100
AcDbEntity
  8
枠_表
  6
CONTINUOUS
 62
     3
100
AcDbLine
 10
1810.0
 20
551.0
 30
0.0
 11
1810.0
 21
581.0
 31
0.0
  0
INSERT
  5
3D6
330
3CE
100
AcDbEntity
  8
枠_表
 62
     3
100
AcDbBlockReference
  2
EX_NORM
 10
1810.0
 20
496.0
 30
0.0
 41
30.0
 42
30.0
 43
30.0
 50
90.0
  0
INSERT
  5
3D7
330
3CE
100
AcDbEntity
  8
枠_表
 62
     3
100
AcDbBlockReference
  2
EX_NORM
 10
1810.0
 20
521.0
 30
0.0
 41
30.0
 42
30.0
 43
30.0
 50
270.0
  0
MTEXT
  5
3D8
330
3CE
100
AcDbEntity
  8
枠_表
 62
     2
100
AcDbMText
 10
1786.500000059605
 20
430.9999999999995
 30
0.0
 40
40.0
 41
0.0
 71
     5
 72
     1
  1
25
  7
EXCADDIM1
 11
0.0
 21
1.0
 31
0.0
  0
POINT
  5
3D9
330
3CE
100
AcDbEntity
  8
DEFPOINTS
 62
     0
100
AcDbPoint
 10
1700.5
 20
496.0
 30
0.0
  0
POINT
  5
3DA
330
3CE
100
AcDbEntity
  8
DEFPOINTS
 62
     0
100
AcDbPoint
 10
1748.0
 20
521.0
 30
0.0
  0
POINT
  5
3DB
330
3CE
100
AcDbEntity
  8
DEFPOINTS
 62
     0
100
AcDbPoint
 10
1810.0
 20
521.0
 30
0.0
  0
ENDBLK
  5
3D0
330
3CE
100
AcDbEntity
  8
0
100
AcDbBlockEnd
  0
BLOCK
  5
3DE
330
3DD
100
AcDbEntity
  8
0
100
AcDbBlockBegin
  2
*D21
 70
     1
 10
0.0
 20
0.0
 30
0.0
  3
*D21
  1

  0
LINE
  5
3E0
330
3DD
100
AcDbEntity
  8
枠_表
  6
CONTINUOUS
 62
     3
100
AcDbLine
 10
1739.999999880791
 20
1491.0
 30
0.0
 11
1820.0
 21
1491.0
 31
0.0
  0
LINE
  5
3E1
330
3DD
100
AcDbEntity
  8
枠_表
  6
CONTINUOUS
 62
     3
100
AcDbLine
 10
1739.999999880791
 20
521.0
 30
0.0
 11
1820.0
 21
521.0
 31
0.0
  0
LINE
  5
3E2
330
3DD
100
AcDbEntity
  8
枠_表
  6
CONTINUOUS
 62
     3
100
AcDbLine
 10
1810.0
 20
1461.0
 30
0.0
 11
1810.0
 21
551.0
 31
0.0
  0
INSERT
  5
3E3
330
3DD
100
AcDbEntity
  8
枠_表
 62
     3
100
AcDbBlockReference
  2
EX_NORM
 10
1810.0
 20
1491.0
 30
0.0
 41
30.0
 42
30.0
 43
30.0
 50
90.0
  0
INSERT
  5
3E4
330
3DD
100
AcDbEntity
  8
枠_表
 62
     3
100
AcDbBlockReference
  2
EX_NORM
 10
1810.0
 20
521.0
 30
0.0
 41
30.0
 42
30.0
 43
30.0
 50
270.0
  0
MTEXT
  5
3E5
330
3DD
100
AcDbEntity
  8
枠_表
 62
     2
100
AcDbMText
 10
1786.500000059605
 20
1006.0
 30
0.0
 40
40.0
 41
0.0
 71
     5
 72
     1
  1
970
  7
EXCADDIM1
 11
0.0
 21
1.0
 31
0.0
  0
POINT
  5
3E6
330
3DD
100
AcDbEntity
  8
DEFPOINTS
 62
     0
100
AcDbPoint
 10
1733.0
 20
1491.0
 30
0.0
  0
POINT
  5
3E7
330
3DD
100
AcDbEntity
  8
DEFPOINTS
 62
     0
100
AcDbPoint
 10
1733.0
 20
521.0
 30
0.0
  0
POINT
  5
3E8
330
3DD
100
AcDbEntity
  8
DEFPOINTS
 62
     0
100
AcDbPoint
 10
1810.0
 20
521.0
 30
0.0
  0
ENDBLK
  5
3DF
330
3DD
100
AcDbEntity
  8
0
100
AcDbBlockEnd
  0
BLOCK
  5
3EB
330
3EA
100
AcDbEntity
  8
0
100
AcDbBlockBegin
  2
*D22
 70
     1
 10
0.0
 20
0.0
 30
0.0
  3
*D22
  1

  0
LINE
  5
3ED
330
3EA
100
AcDbEntity
  8
枠_表
  6
CONTINUOUS
 62
     3
100
AcDbLine
 10
1595.5
 20
779.9999998808007
 30
0.0
 11
1595.5
 21
822.0
 31
0.0
  0
LINE
  5
3EE
330
3EA
100
AcDbEntity
  8
枠_表
  6
CONTINUOUS
 62
     3
100
AcDbLine
 10
1700.5
 20
779.9999998807908
 30
0.0
 11
1700.5
 21
822.0
 31
0.0
  0
LINE
  5
3EF
330
3EA
100
AcDbEntity
  8
枠_表
  6
CONTINUOUS
 62
     3
100
AcDbLine
 10
1625.5
 20
812.0
 30
0.0
 11
1670.5
 21
812.0
 31
0.0
  0
INSERT
  5
3F0
330
3EA
100
AcDbEntity
  8
枠_表
 62
     3
100
AcDbBlockReference
  2
EX_NORM
 10
1595.5
 20
812.0
 30
0.0
 41
30.0
 42
30.0
 43
30.0
 50
180.0
  0
INSERT
  5
3F1
330
3EA
100
AcDbEntity
  8
枠_表
 62
     3
100
AcDbBlockReference
  2
EX_NORM
 10
1700.5
 20
812.0
 30
0.0
 41
30.0
 42
30.0
 43
30.0
  0
MTEXT
  5
3F2
330
3EA
100
AcDbEntity
  8
枠_表
 62
     2
100
AcDbMText
 10
1515.5
 20
835.4999999403954
 30
0.0
 40
40.0
 41
0.0
 71
     5
 72
     1
  1
105
  7
EXCADDIM1
  0
POINT
  5
3F3
330
3EA
100
AcDbEntity
  8
DEFPOINTS
 62
     0
100
AcDbPoint
 10
1595.5
 20
773.00000000001
 30
0.0
  0
POINT
  5
3F4
330
3EA
100
AcDbEntity
  8
DEFPOINTS
 62
     0
100
AcDbPoint
 10
1700.5
 20
773.0000000000001
 30
0.0
  0
POINT
  5
3F5
330
3EA
100
AcDbEntity
  8
DEFPOINTS
 62
     0
100
AcDbPoint
 10
1700.5
 20
812.0
 30
0.0
  0
ENDBLK
  5
3EC
330
3EA
100
AcDbEntity
  8
0
100
AcDbBlockEnd
  0
BLOCK
  5
402
330
401
100
AcDbEntity
  8
0
100
AcDbBlockBegin
  2
*D23
 70
     1
 10
0.0
 20
0.0
 30
0.0
  3
*D23
  1

  0
LINE
  5
404
330
401
100
AcDbEntity
  8
鏡台
  6
CONTINUOUS
 62
     3
100
AcDbLine
 10
378.5
 20
2007.999999880791
 30
0.0
 11
378.5
 21
2104.0
 31
0.0
  0
LINE
  5
405
330
401
100
AcDbEntity
  8
鏡台
  6
CONTINUOUS
 62
     3
100
AcDbLine
 10
398.49999999999
 20
2027.999999880791
 30
0.0
 11
398.49999999999
 21
2104.0
 31
0.0
  0
LINE
  5
406
330
401
100
AcDbEntity
  8
鏡台
  6
CONTINUOUS
 62
     3
100
AcDbLine
 10
378.5
 20
2094.0
 30
0.0
 11
398.49999999999
 21
2094.0
 31
0.0
  0
LINE
  5
407
330
401
100
AcDbEntity
  8
鏡台
  6
CONTINUOUS
 62
     3
100
AcDbLine
 10
348.5
 20
2094.0
 30
0.0
 11
318.5
 21
2094.0
 31
0.0
  0
LINE
  5
408
330
401
100
AcDbEntity
  8
鏡台
  6
CONTINUOUS
 62
     3
100
AcDbLine
 10
428.49999999999
 20
2094.0
 30
0.0
 11
458.49999999999
 21
2094.0
 31
0.0
  0
INSERT
  5
409
330
401
100
AcDbEntity
  8
鏡台
 62
     3
100
AcDbBlockReference
  2
EX_NORM
 10
378.5
 20
2094.0
 30
0.0
 41
30.0
 42
30.0
 43
30.0
  0
INSERT
  5
40A
330
401
100
AcDbEntity
  8
鏡台
 62
     3
100
AcDbBlockReference
  2
EX_BCIR
 10
398.49999999999
 20
2094.0
 30
0.0
 41
30.0
 42
30.0
 43
30.0
 50
180.0
  0
MTEXT
  5
40B
330
401
100
AcDbEntity
  8
鏡台
 62
     2
100
AcDbMText
 10
313.5000000000001
 20
2117.499999940395
 30
0.0
 40
40.0
 41
0.0
 71
     5
 72
     1
  1
20
  7
EXCADDIM1
  0
POINT
  5
40C
330
401
100
AcDbEntity
  8
DEFPOINTS
 62
     0
100
AcDbPoint
 10
378.5
 20
2001.0
 30
0.0
  0
POINT
  5
40D
330
401
100
AcDbEntity
  8
DEFPOINTS
 62
     0
100
AcDbPoint
 10
398.49999999999
 20
2021.0
 30
0.0
  0
POINT
  5
40E
330
401
100
AcDbEntity
  8
DEFPOINTS
 62
     0
100
AcDbPoint
 10
398.49999999999
 20
2094.0
 30
0.0
  0
ENDBLK
  5
403
330
401
100
AcDbEntity
  8
0
100
AcDbBlockEnd
  0
BLOCK
  5
411
330
410
100
AcDbEntity
  8
0
100
AcDbBlockBegin
  2
*D24
 70
     1
 10
0.0
 20
0.0
 30
0.0
  3
*D24
  1

  0
LINE
  5
413
330
410
100
AcDbEntity
  8
鏡台
  6
CONTINUOUS
 62
     3
100
AcDbLine
 10
398.49999999999
 20
2027.999999880791
 30
0.0
 11
398.49999999999
 21
2103.7
 31
0.0
  0
LINE
  5
414
330
410
100
AcDbEntity
  8
鏡台
  6
CONTINUOUS
 62
     3
100
AcDbLine
 10
433.4944675087
 20
2027.999999880791
 30
0.0
 11
433.4944675087
 21
2103.7
 31
0.0
  0
LINE
  5
415
330
410
100
AcDbEntity
  8
鏡台
  6
CONTINUOUS
 62
     3
100
AcDbLine
 10
405.49999999999
 20
2093.7
 30
0.0
 11
426.4944675087
 21
2093.7
 31
0.0
  0
INSERT
  5
416
330
410
100
AcDbEntity
  8
鏡台
 62
     3
100
AcDbBlockReference
  2
EX_BCIR
 10
398.49999999999
 20
2093.7
 30
0.0
 41
7.0
 42
7.0
 43
7.0
 50
180.0
  0
INSERT
  5
417
330
410
100
AcDbEntity
  8
鏡台
 62
     3
100
AcDbBlockReference
  2
EX_NORM
 10
433.4944675087
 20
2093.7
 30
0.0
 41
7.0
 42
7.0
 43
7.0
  0
MTEXT
  5
418
330
410
100
AcDbEntity
  8
鏡台
 62
     2
100
AcDbMText
 10
498.4944675087002
 20
2117.199999940395
 30
0.0
 40
40.0
 41
0.0
 71
     5
 72
     1
  1
35
  7
EXCADDIM1
  0
POINT
  5
419
330
410
100
AcDbEntity
  8
DEFPOINTS
 62
     0
100
AcDbPoint
 10
398.49999999999
 20
2021.0
 30
0.0
  0
POINT
  5
41A
330
410
100
AcDbEntity
  8
DEFPOINTS
 62
     0
100
AcDbPoint
 10
433.4944675087
 20
2021.0
 30
0.0
  0
POINT
  5
41B
330
410
100
AcDbEntity
  8
DEFPOINTS
 62
     0
100
AcDbPoint
 10
433.4944675087
 20
2093.7
 30
0.0
  0
ENDBLK
  5
412
330
410
100
AcDbEntity
  8
0
100
AcDbBlockEnd
  0
BLOCK
  5
41E
330
41D
100
AcDbEntity
  8
0
100
AcDbBlockBegin
  2
*D25
 70
     1
 10
0.0
 20
0.0
 30
0.0
  3
*D25
  1

  0
LINE
  5
420
330
41D
100
AcDbEntity
  8
鏡台
  6
CONTINUOUS
 62
     3
100
AcDbLine
 10
433.4944675087
 20
2027.999999880791
 30
0.0
 11
433.4944675086999
 21
2157.0
 31
0.0
  0
LINE
  5
421
330
41D
100
AcDbEntity
  8
鏡台
  6
CONTINUOUS
 62
     3
100
AcDbLine
 10
1073.4944675087
 20
2027.999999880791
 30
0.0
 11
1073.4944675087
 21
2157.0
 31
0.0
  0
LINE
  5
422
330
41D
100
AcDbEntity
  8
鏡台
  6
CONTINUOUS
 62
     3
100
AcDbLine
 10
463.4944675086999
 20
2147.0
 30
0.0
 11
1043.4944675087
 21
2147.0
 31
0.0
  0
INSERT
  5
423
330
41D
100
AcDbEntity
  8
鏡台
 62
     3
100
AcDbBlockReference
  2
EX_NORM
 10
433.4944675086999
 20
2147.0
 30
0.0
 41
30.0
 42
30.0
 43
30.0
 50
180.0
  0
INSERT
  5
424
330
41D
100
AcDbEntity
  8
鏡台
 62
     3
100
AcDbBlockReference
  2
EX_NORM
 10
1073.4944675087
 20
2147.0
 30
0.0
 41
30.0
 42
30.0
 43
30.0
  0
MTEXT
  5
425
330
41D
100
AcDbEntity
  8
鏡台
 62
     2
100
AcDbMText
 10
753.4944675087002
 20
2170.499999940395
 30
0.0
 40
40.0
 41
0.0
 71
     5
 72
     1
  1
640
  7
EXCADDIM1
  0
POINT
  5
426
330
41D
100
AcDbEntity
  8
DEFPOINTS
 62
     0
100
AcDbPoint
 10
433.4944675087
 20
2021.0
 30
0.0
  0
POINT
  5
427
330
41D
100
AcDbEntity
  8
DEFPOINTS
 62
     0
100
AcDbPoint
 10
1073.4944675087
 20
2021.0
 30
0.0
  0
POINT
  5
428
330
41D
100
AcDbEntity
  8
DEFPOINTS
 62
     0
100
AcDbPoint
 10
1073.4944675087
 20
2147.0
 30
0.0
  0
ENDBLK
  5
41F
330
41D
100
AcDbEntity
  8
0
100
AcDbBlockEnd
  0
BLOCK
  5
42B
330
42A
100
AcDbEntity
  8
0
100
AcDbBlockBegin
  2
*D26
 70
     1
 10
0.0
 20
0.0
 30
0.0
  3
*D26
  1

  0
LINE
  5
42D
330
42A
100
AcDbEntity
  8
鏡台
  6
CONTINUOUS
 62
     3
100
AcDbLine
 10
398.49999999999
 20
2027.999999880791
 30
0.0
 11
398.49999999999
 21
2209.0
 31
0.0
  0
LINE
  5
42E
330
42A
100
AcDbEntity
  8
鏡台
  6
CONTINUOUS
 62
     3
100
AcDbLine
 10
1108.5
 20
2027.999999880791
 30
0.0
 11
1108.5
 21
2209.0
 31
0.0
  0
LINE
  5
42F
330
42A
100
AcDbEntity
  8
鏡台
  6
CONTINUOUS
 62
     3
100
AcDbLine
 10
428.49999999999
 20
2199.0
 30
0.0
 11
1078.5
 21
2199.0
 31
0.0
  0
INSERT
  5
430
330
42A
100
AcDbEntity
  8
鏡台
 62
     3
100
AcDbBlockReference
  2
EX_NORM
 10
398.49999999999
 20
2199.0
 30
0.0
 41
30.0
 42
30.0
 43
30.0
 50
180.0
  0
INSERT
  5
431
330
42A
100
AcDbEntity
  8
鏡台
 62
     3
100
AcDbBlockReference
  2
EX_NORM
 10
1108.5
 20
2199.0
 30
0.0
 41
30.0
 42
30.0
 43
30.0
  0
MTEXT
  5
432
330
42A
100
AcDbEntity
  8
鏡台
 62
     2
100
AcDbMText
 10
753.4999999999952
 20
2222.499999940395
 30
0.0
 40
40.0
 41
0.0
 71
     5
 72
     1
  1
710
  7
EXCADDIM1
  0
POINT
  5
433
330
42A
100
AcDbEntity
  8
DEFPOINTS
 62
     0
100
AcDbPoint
 10
398.49999999999
 20
2021.0
 30
0.0
  0
POINT
  5
434
330
42A
100
AcDbEntity
  8
DEFPOINTS
 62
     0
100
AcDbPoint
 10
1108.5
 20
2021.0
 30
0.0
  0
POINT
  5
435
330
42A
100
AcDbEntity
  8
DEFPOINTS
 62
     0
100
AcDbPoint
 10
1108.5
 20
2199.0
 30
0.0
  0
ENDBLK
  5
42C
330
42A
100
AcDbEntity
  8
0
100
AcDbBlockEnd
  0
ENDSEC
  0
SECTION
  2
ENTITIES
  0
HATCH
  5
AA
330
1F
100
AcDbEntity
  8
0
  6
CONTINUOUS
 62
     3
100
AcDbHatch
 10
0.0
 20
0.0
 30
0.0
210
0.0
220
0.0
230
1.0
  2
SOLID
 70
     1
 71
     1
 91
        2
 92
        3
 72
     1
 73
     1
 93
       27
 10
79.71572499999996
 20
19.3477999999986
 42
-0.1769427732109284
 10
79.71572499999996
 20
19.3477999999986
 42
0.0
 10
79.71572499999996
 20
18.98329999999858
 42
0.0
 10
79.80347500000002
 20
18.98329999999854
 42
-0.207533601427307
 10
80.37319070563194
 20
19.41067426153498
 42
-0.1226604740888933
 10
80.87672500000001
 20
19.42137499999858
 42
-0.3213715781137954
 10
81.39728122889584
 20
18.78241581402926
 42
-0.064704004662446
 10
81.39984999999986
 20
18.44464999999856
 42
-0.257798906330806
 10
81.29387499999997
 20
18.31639999999856
 42
-0.056602577721096
 10
81.06707499999995
 20
18.23742499999859
 42
-0.0166741689362636
 10
80.23547499999997
 20
18.07947499999857
 42
0.1186092302783404
 10
79.68669999999999
 20
17.81622499999856
 42
0.1699204224386695
 10
79.44774999999994
 20
17.41662499999855
 42
0.1006533494296199
 10
79.42565709463308
 20
17.06988622120177
 42
0.1675695228968024
 10
79.64214999999999
 20
16.60527499999857
 42
0.1376980079804242
 10
80.03567499999993
 20
16.37779999999859
 42
0.0719813663796923
 10
80.21454999999986
 20
16.34809999999858
 42
0.0
 10
80.48859999999996
 20
16.34809999999859
 42
0.1944607457809085
 10
81.39782499999997
 20
16.81587499999857
 42
0.1288538183665954
 10
81.48962499999988
 20
16.58637499999854
 42
0.2098387395261546
 10
81.7893249999999
 20
16.42099999999859
 42
0.0
 10
82.00667499999996
 20
16.41964999999859
 42
0.0945009641609563
 10
82.32054999999997
 20
16.48647499999858
 42
0.0
 10
82.32054999999995
 20
16.64374999999857
 42
-0.2395739894657535
 10
82.04650000000002
 20
16.64104999999855
 42
-0.2502312110031057
 10
81.9114999999999
 20
16.89484999999864
 42
-0.0104343570771765
 10
81.92972499999993
 20
18.78754999999856
 42
0.4051015674140716
 97
        0
 92
        3
 72
     1
 73
     1
 93
        8
 10
81.4119999999999
 20
18.11389999999856
 42
-0.0339435190873666
 10
81.41200000000072
 20
18.11389999999744
 42
-0.0001110072973599
 10
81.38365000000003
 20
17.07979999999855
 42
-0.2253076310552528
 10
80.67489999999992
 20
16.6066249999986
 42
0.0
 10
80.50142499999986
 20
16.6066249999986
 42
-0.3657967558150132
 10
79.98572499999995
 20
17.15472499999858
 42
0.0
 10
79.98572500000003
 20
17.35047499999859
 42
-0.2530797830369341
 10
80.33402499999994
 20
17.83242499999856
 42
-0.0724473624720066
 97
        0
 75
     0
 76
     1
 98
        1
 10
0.0
 20
0.0
  0
HATCH
  5
AB
330
1F
100
AcDbEntity
  8
0
  6
CONTINUOUS
 62
     3
100
AcDbHatch
 10
0.0
 20
0.0
 30
0.0
210
0.0
220
0.0
230
1.0
  2
SOLID
 70
     1
 71
     1
 91
        1
 92
        3
 72
     1
 73
     1
 93
       30
 10
90.47184999999992
 20
19.54489999999862
 42
-0.0009362235736497
 10
90.47184999999993
 20
19.54489999999857
 42
0.0681165430304653
 10
90.30815777534809
 20
19.05417499999858
 42
0.0
 10
89.69155
 20
19.47604999999859
 42
-0.302112590907374
 10
89.69154999999995
 20
19.47604999999858
 42
0.0
 10
89.06987499999995
 20
18.99949999999858
 42
-0.3704245237568778
 10
89.06987499999985
 20
18.99949999999855
 42
0.0
 10
89.10227499999988
 20
18.68089999999857
 42
-0.0262822419456939
 10
89.48567499999999
 20
18.37444999999855
 42
-0.180060563604375
 10
90.097225
 20
18.18814999999859
 42
-0.0298130817160724
 10
90.09722499999997
 20
18.18814999999855
 42
-0.3153987453686078
 10
90.66084999999993
 20
17.54352499999858
 42
0.0
 10
90.65747499999998
 20
17.25529999999855
 42
-0.3510306079065168
 10
89.57072499999987
 20
16.34404999999857
 42
0.0
 10
89.25347499999991
 20
16.34404999999855
 42
-0.1053356344842436
 10
88.55147499999991
 20
16.54654999999858
 42
0.1188608286962634
 10
88.6797249999999
 20
17.05954999999859
 42
0.0
 10
89.449225
 20
16.58704999999858
 42
-0.2447573632916039
 10
89.4492249999999
 20
16.58704999999857
 42
0.0
 10
90.19172499999999
 20
17.10679999999859
 42
-0.3734162676407277
 10
90.19172499999996
 20
17.10679999999856
 42
0.0
 10
89.92239999999995
 20
17.62587499999859
 42
-0.261219770190848
 10
89.29397499999992
 20
17.85402499999859
 42
-0.0572747914118363
 10
89.29397500000002
 20
17.85402499999858
 42
-0.1189658875692221
 10
88.79447499999989
 20
18.14697499999858
 42
-0.2005226878639636
 10
88.58522499999987
 20
18.61880000000077
 42
0.0
 10
88.58184999999999
 20
18.79767499999855
 42
-0.2622894489606957
 10
89.11847499999996
 20
19.6177999999986
 42
-0.0988461274137808
 10
89.62067499999995
 20
19.73862499999855
 42
0.0
 10
89.80697499999988
 20
19.73862499999859
 42
-0.0920156312561188
 97
        0
 75
     0
 76
     1
 98
        1
 10
0.0
 20
0.0
  0
ARC
  5
AC
330
1F
100
AcDbEntity
  8
0
  6
CONTINUOUS
 62
     3
100
AcDbCircle
 10
92.18269653356202
 20
18.70154504531946
 30
0.0
 40
1.907418003737831
100
AcDbArc
 50
153.7591918158497
 51
169.3462759801917
  0
LINE
  5
AD
330
1F
100
AcDbEntity
  8
0
  6
CONTINUOUS
 62
     3
100
AcDbLine
 10
90.2227749999999
 20
19.05417499999858
 30
0.0
 11
90.30815777534809
 21
19.05417499999858
 31
0.0
  0
LINE
  5
AE
330
1F
100
AcDbEntity
  8
0
  6
CONTINUOUS
 62
     3
100
AcDbLine
 10
89.58219999999989
 20
19.47334999999858
 30
0.0
 11
89.69154999999995
 21
19.47604999999858
 31
0.0
  0
LINE
  5
AF
330
1F
100
AcDbEntity
  8
0
  6
CONTINUOUS
 62
     3
100
AcDbLine
 10
88.58184999999997
 20
18.79767499999856
 30
0.0
 11
88.58522499999987
 21
18.61880000000077
 31
0.0
  0
LINE
  5
B0
330
1F
100
AcDbEntity
  8
0
  6
CONTINUOUS
 62
     3
100
AcDbLine
 10
89.06987499999985
 20
18.99949999999855
 30
0.0
 11
89.06042499999995
 21
18.82264999999855
 31
0.0
  0
LINE
  5
B1
330
1F
100
AcDbEntity
  8
0
  6
CONTINUOUS
 62
     3
100
AcDbLine
 10
90.66084999999993
 20
17.54352499999858
 30
0.0
 11
90.65747499999992
 21
17.25529999999857
 31
0.0
  0
LINE
  5
B2
330
1F
100
AcDbEntity
  8
0
  6
CONTINUOUS
 62
     3
100
AcDbLine
 10
90.18497499999995
 20
17.26204999999858
 30
0.0
 11
90.19172499999996
 21
17.10679999999856
 31
0.0
  0
ARC
  5
B3
330
1F
100
AcDbEntity
  8
0
  6
CONTINUOUS
 62
     3
100
AcDbCircle
 10
87.5518897398843
 20
17.06914826589453
 30
0.0
 40
1.127953740078838
100
AcDbArc
 50
332.3987521421788
 51
359.5124385477116
  0
LINE
  5
B4
330
1F
100
AcDbEntity
  8
0
  6
CONTINUOUS
 62
     3
100
AcDbLine
 10
79.71572499999996
 20
18.98329999999858
 30
0.0
 11
79.80347499999999
 21
18.98329999999858
 31
0.0
  0
HATCH
  5
B5
330
1F
100
AcDbEntity
  8
0
  6
CONTINUOUS
 62
     3
100
AcDbHatch
 10
0.0
 20
0.0
 30
0.0
210
0.0
220
0.0
230
1.0
  2
SOLID
 70
     1
 71
     1
 91
        2
 92
        1
 93
        1
 72
     2
 10
87.32699983050844
 20
20.8697053389816
 40
0.3572334466769884
 50
0.0
 51
360.0
 73
     1
 97
        0
 92
        3
 72
     1
 73
     1
 93
        3
 10
87.00774999999994
 20
19.68124999999856
 42
0.1200283885712921
 10
87.62874999999995
 20
16.41762499999853
 42
-0.0401820615762149
 10
87.00842499999995
 20
16.41559999999857
 42
-0.0237521668114666
 97
        0
 75
     0
 76
     1
 98
        1
 10
0.0
 20
0.0
  0
HATCH
  5
B6
330
1F
100
AcDbEntity
  8
0
  6
CONTINUOUS
 62
     3
100
AcDbHatch
 10
0.0
 20
0.0
 30
0.0
210
0.0
220
0.0
230
1.0
  2
SOLID
 70
     1
 71
     1
 91
        1
 92
        3
 72
     1
 73
     1
 93
       16
 10
83.08532499999991
 20
16.42167499999855
 42
-0.0386228372648426
 10
83.0792499999999
 20
19.67584999999857
 42
-0.0398707891902887
 10
83.66987499999988
 20
19.67854999999858
 42
-0.1256886216044368
 10
83.64287499999993
 20
19.12639999999857
 42
-0.0367815758121429
 10
83.64287499999993
 20
19.12639999999855
 42
-0.268021535028829
 10
84.83424999999991
 20
19.74469999999857
 42
-0.2571134422124888
 10
85.64897499999992
 20
19.3417249999986
 42
-0.1522526366014298
 10
85.85619999999997
 20
18.67144999999856
 42
-0.0158825412051521
 10
85.84134999999989
 20
16.41829999999856
 42
-0.0285251271418421
 10
85.27097499999996
 20
16.41829999999856
 42
-0.0452212723224612
 10
85.29999999999998
 20
18.49999999999859
 42
-0.0315567291532142
 10
85.1231499999999
 20
19.11492499999859
 42
-0.1476272403790709
 10
83.97159999999991
 20
19.20334999999855
 42
-0.3908144705745794
 10
83.64692499999995
 20
18.39537499999854
 42
-0.2046259928850854
 10
83.64692499999995
 20
18.39537499999859
 42
0.0
 10
83.69754999999994
 20
16.41627499999858
 42
-0.0304995761723369
 97
        0
 75
     0
 76
     1
 98
        1
 10
0.0
 20
0.0
  0
HATCH
  5
B7
330
1F
100
AcDbEntity
  8
0
  6
CONTINUOUS
 62
     3
100
AcDbHatch
 10
0.0
 20
0.0
 30
0.0
210
0.0
220
0.0
230
1.0
  2
SOLID
 70
     1
 71
     1
 91
        1
 92
        3
 72
     1
 73
     1
 93
       10
 10
77.17097499999998
 20
16.53304999999855
 42
-0.017362223501556
 10
77.17974999999994
 20
21.82977499999861
 42
-0.0267627618865285
 10
77.17974999999996
 20
21.82977499999858
 42
0.0737939047395297
 10
78.47169999999998
 20
21.8351749999985
 42
0.0183878899657109
 10
78.41972499999996
 20
17.05954999999855
 42
-0.1144749489451909
 10
78.21047499999987
 20
16.05379999999855
 42
-0.1929163439413163
 10
77.21484999999998
 20
15.27214999999855
 42
-0.0603888289562337
 10
76.68699999999995
 20
15.14052499999856
 42
0.0
 10
76.56347499999993
 20
15.51649999999855
 42
0.0860918333465722
 10
76.93269999999993
 20
15.71292499999856
 42
0.1331843103855141
 97
        0
 75
     0
 76
     1
 98
        1
 10
0.0
 20
0.0
  0
LINE
  5
B8
330
1F
100
AcDbEntity
  8
0
  6
CONTINUOUS
 62
     3
100
AcDbLine
 10
89.25347499999992
 20
16.34404999999857
 30
0.0
 11
89.57072499999987
 21
16.34404999999857
 31
0.0
  0
LINE
  5
B9
330
1F
100
AcDbEntity
  8
0
  6
CONTINUOUS
 62
     3
100
AcDbLine
 10
88.76747499999993
 20
17.05954999999859
 30
0.0
 11
88.6797249999999
 21
17.05954999999859
 31
0.0
  0
LINE
  5
BA
330
1F
100
AcDbEntity
  8
0
  6
CONTINUOUS
 62
     3
100
AcDbLine
 10
89.4492249999999
 20
16.58704999999857
 30
0.0
 11
89.61122499999993
 21
16.58704999999857
 31
0.0
  0
LINE
  5
BB
330
1F
100
AcDbEntity
  8
0
  6
CONTINUOUS
 62
     3
100
AcDbLine
 10
89.80697499999991
 20
19.73862499999855
 30
0.0
 11
89.62067499999995
 21
19.73862499999855
 31
0.0
  0
ARC
  5
BC
330
1F
100
AcDbEntity
  8
0
  6
CONTINUOUS
 62
     3
100
AcDbCircle
 10
89.63992181794998
 20
18.86564303316119
 30
0.0
 40
0.612586430102253
100
AcDbArc
 50
17.92452211681263
 51
85.16543319077402
  0
ARC
  5
BD
330
1F
100
AcDbEntity
  8
0
  6
CONTINUOUS
 62
     3
100
AcDbCircle
 10
89.60195807528027
 20
18.93810061732371
 30
0.0
 40
0.535613931103931
100
AcDbArc
 50
92.11404364449162
 51
173.4175047026091
  0
ARC
  5
BE
330
1F
100
AcDbEntity
  8
0
  6
CONTINUOUS
 62
     3
100
AcDbCircle
 10
90.42876250000114
 20
19.14958249999894
 30
0.0
 40
1.4068519372934
100
AcDbArc
 50
193.4375782160214
 51
199.459638038058
  0
ARC
  5
BF
330
1F
100
AcDbEntity
  8
0
  6
CONTINUOUS
 62
     3
100
AcDbCircle
 10
89.70566195054943
 20
19.04273708791062
 30
0.0
 40
0.703563707337184
100
AcDbArc
 50
210.9501336849607
 51
251.7794729821079
  0
ARC
  5
C0
330
1F
100
AcDbEntity
  8
0
  6
CONTINUOUS
 62
     3
100
AcDbCircle
 10
91.35229512359552
 20
23.40494377527962
 30
0.0
 40
5.36564425851668
100
AcDbArc
 50
249.6420733479936
 51
256.4727051201885
  0
ARC
  5
C1
330
1F
100
AcDbEntity
  8
0
  6
CONTINUOUS
 62
     3
100
AcDbCircle
 10
89.91890563959447
 20
17.46352325556025
 30
0.0
 40
0.746245075729606
100
AcDbArc
 50
6.154262763177246
 51
76.17509904255616
  0
ARC
  5
C2
330
1F
100
AcDbEntity
  8
0
  6
CONTINUOUS
 62
     3
100
AcDbCircle
 10
89.54508729135051
 20
17.47827534142495
 30
0.0
 40
1.134515058180645
100
AcDbArc
 50
271.2948770866743
 51
348.6654156292868
  0
ARC
  5
C3
330
1F
100
AcDbEntity
  8
0
  6
CONTINUOUS
 62
     3
100
AcDbCircle
 10
89.37774897260266
 20
18.09291643835475
 30
0.0
 40
1.75327631578002
100
AcDbArc
 50
241.8829576087176
 51
265.9354096935781
  0
ARC
  5
C4
330
1F
100
AcDbEntity
  8
0
  6
CONTINUOUS
 62
     3
100
AcDbCircle
 10
89.56205885902358
 20
17.47793706801833
 30
0.0
 40
0.898004035462527
100
AcDbArc
 50
207.7689879465537
 51
262.7817283832026
  0
ARC
  5
C5
330
1F
100
AcDbEntity
  8
0
  6
CONTINUOUS
 62
     3
100
AcDbCircle
 10
89.60202620114006
 20
17.18137430781617
 30
0.0
 40
0.594395491876676
100
AcDbArc
 50
270.8867385422408
 51
352.7925382056677
  0
ARC
  5
C6
330
1F
100
AcDbEntity
  8
0
  6
CONTINUOUS
 62
     3
100
AcDbCircle
 10
89.72924888521158
 20
17.20981292457618
 30
0.0
 40
0.458710152219014
100
AcDbArc
 50
6.53892419415897
 51
65.09756080693691
  0
ARC
  5
C7
330
1F
100
AcDbEntity
  8
0
  6
CONTINUOUS
 62
     3
100
AcDbCircle
 10
88.61559734497922
 20
15.00592208779661
 30
0.0
 40
2.927778413972754
100
AcDbArc
 50
63.49050203733571
 51
76.60259219849584
  0
ARC
  5
C8
330
1F
100
AcDbEntity
  8
0
  6
CONTINUOUS
 62
     3
100
AcDbCircle
 10
89.65112988466996
 20
19.03531478031137
 30
0.0
 40
1.234100950779567
100
AcDbArc
 50
226.0402388947521
 51
253.1776672992999
  0
ARC
  5
C9
330
1F
100
AcDbEntity
  8
0
  6
CONTINUOUS
 62
     3
100
AcDbCircle
 10
89.2544410059349
 20
18.6332783609998
 30
0.0
 40
0.669372605905611
100
AcDbArc
 50
181.2393899443581
 51
226.5942921332421
  0
ARC
  5
CA
330
1F
100
AcDbEntity
  8
0
  6
CONTINUOUS
 62
     3
100
AcDbCircle
 10
89.57808339467107
 20
18.73144358126315
 30
0.0
 40
0.99843256030919
100
AcDbArc
 50
117.4083995939977
 51
176.1964688215695
  0
ARC
  5
CB
330
1F
100
AcDbEntity
  8
0
  6
CONTINUOUS
 62
     3
100
AcDbCircle
 10
89.67555886951396
 20
18.42114164962062
 30
0.0
 40
1.319974865367525
100
AcDbArc
 50
92.38301574576484
 51
114.9635286746436
  0
ARC
  5
CC
330
1F
100
AcDbEntity
  8
0
  6
CONTINUOUS
 62
     3
100
AcDbCircle
 10
89.78387671128058
 20
18.72798105388405
 30
0.0
 40
1.010907867592157
100
AcDbArc
 50
67.66151957087348
 51
88.69073168448988
  0
ARC
  5
CD
330
1F
100
AcDbEntity
  8
0
  6
CONTINUOUS
 62
     3
100
AcDbCircle
 10
121.8628937499564
 20
100.7143249998865
 30
0.0
 40
87.02800228963156
100
AcDbArc
 50
248.6422112053103
 51
248.8567777804232
  0
ARC
  5
CE
330
1F
100
AcDbEntity
  8
0
  6
CONTINUOUS
 62
     3
100
AcDbCircle
 10
64.86745418031359
 20
18.04384859790686
 30
0.0
 40
22.20076085035812
100
AcDbArc
 50
355.7940354718673
 51
4.229650257234378
  0
ARC
  5
CF
330
1F
100
AcDbEntity
  8
0
  6
CONTINUOUS
 62
     3
100
AcDbCircle
 10
107.9238531446306
 20
18.03016072763837
 30
0.0
 40
20.35906390589
100
AcDbArc
 50
175.3387608397566
 51
184.5428594926176
  0
ARC
  5
D0
330
1F
100
AcDbEntity
  8
0
  6
CONTINUOUS
 62
     3
100
AcDbCircle
 10
87.3398893203883
 20
9.891154854367826
 30
0.0
 40
6.532859485251088
100
AcDbArc
 50
87.46575055044718
 51
92.90832285102188
  0
ARC
  5
D1
330
1F
100
AcDbEntity
  8
0
  6
CONTINUOUS
 62
     3
100
AcDbCircle
 10
87.31300918695223
 20
20.96467541382528
 30
0.0
 40
1.319228548840207
100
AcDbArc
 50
256.6209501743446
 51
283.9984576255729
  0
CIRCLE
  5
D2
330
1F
100
AcDbEntity
  8
0
  6
CONTINUOUS
 62
     3
100
AcDbCircle
 10
87.32699983050844
 20
20.8697053389816
 30
0.0
 40
0.357233446676989
  0
LINE
  5
D3
330
1F
100
AcDbEntity
  8
0
  6
CONTINUOUS
 62
     3
100
AcDbLine
 10
83.64692499999995
 20
18.39537499999859
 30
0.0
 11
83.64692499999995
 21
17.31604999999855
 31
0.0
  0
ARC
  5
D4
330
1F
100
AcDbEntity
  8
0
  6
CONTINUOUS
 62
     3
100
AcDbCircle
 10
62.71021831339084
 20
18.01073125696196
 30
0.0
 40
20.43697806131072
100
AcDbArc
 50
355.5405243117485
 51
4.673398698656258
  0
ARC
  5
D5
330
1F
100
AcDbEntity
  8
0
  6
CONTINUOUS
 62
     3
100
AcDbCircle
 10
83.36927692528724
 20
20.83341946838938
 30
0.0
 40
1.193349358546016
100
AcDbArc
 50
255.9341994177206
 51
284.5896440601899
  0
ARC
  5
D6
330
1F
100
AcDbEntity
  8
0
  6
CONTINUOUS
 62
     3
100
AcDbCircle
 10
87.40419570063654
 20
19.21920748407503
 30
0.0
 40
3.762465500458181
100
AcDbArc
 50
172.9875214416311
 51
181.4134392789641
  0
ARC
  5
D7
330
1F
100
AcDbEntity
  8
0
  6
CONTINUOUS
 62
     3
100
AcDbCircle
 10
84.77385911670041
 20
18.4041105584305
 30
0.0
 40
1.34194899665726
100
AcDbArc
 50
87.42068310381028
 51
147.4361518966862
  0
ARC
  5
D8
330
1F
100
AcDbEntity
  8
0
  6
CONTINUOUS
 62
     3
100
AcDbCircle
 10
84.87568900081254
 20
18.80339731822444
 30
0.0
 40
0.94221437555554
100
AcDbArc
 50
34.84393737091607
 51
92.5207065423111
  0
ARC
  5
D9
330
1F
100
AcDbEntity
  8
0
  6
CONTINUOUS
 62
     3
100
AcDbCircle
 10
84.67750358012319
 20
18.67421009475977
 30
0.0
 40
1.17869965146059
100
AcDbArc
 50
359.8658335690532
 51
34.49363429411157
  0
ARC
  5
DA
330
1F
100
AcDbEntity
  8
0
  6
CONTINUOUS
 62
     3
100
AcDbCircle
 10
79.71758443877553
 20
18.44450841836591
 30
0.0
 40
6.142809087866958
100
AcDbArc
 50
358.4775281223095
 51
2.117232414210064
  0
ARC
  5
DB
330
1F
100
AcDbEntity
  8
0
  6
CONTINUOUS
 62
     3
100
AcDbCircle
 10
102.1642117928447
 20
17.20202441763583
 30
0.0
 40
16.34166579853822
100
AcDbArc
 50
176.2131780319488
 51
182.7488833337936
  0
ARC
  5
DC
330
1F
100
AcDbEntity
  8
0
  6
CONTINUOUS
 62
     3
100
AcDbCircle
 10
85.55616249999997
 20
13.27150328947228
 30
0.0
 40
3.159693252126744
100
AcDbArc
 50
84.82155189294139
 51
95.17844810705873
  0
ARC
  5
DD
330
1F
100
AcDbEntity
  8
0
  6
CONTINUOUS
 62
     3
100
AcDbCircle
 10
68.81018221317237
 20
17.68886404906915
 30
0.0
 40
16.50975566668588
100
AcDbArc
 50
355.5862454873798
 51
2.816115806820253
  0
ARC
  5
DE
330
1F
100
AcDbEntity
  8
0
  6
CONTINUOUS
 62
     3
100
AcDbCircle
 10
84.19292247236018
 20
18.51450205846005
 30
0.0
 40
1.107172507744154
100
AcDbArc
 50
359.2495022237244
 51
32.84055016678327
  0
ARC
  5
DF
330
1F
100
AcDbEntity
  8
0
  6
CONTINUOUS
 62
     3
100
AcDbCircle
 10
84.49944987873022
 20
18.53501340163139
 30
0.0
 40
0.851645057047003
100
AcDbArc
 50
42.91644474042847
 51
128.3015542351336
  0
ARC
  5
E0
330
1F
100
AcDbEntity
  8
0
  6
CONTINUOUS
 62
     3
100
AcDbCircle
 10
84.75506565033896
 20
18.41930292162506
 30
0.0
 40
1.108398956318131
100
AcDbArc
 50
134.9787476233347
 51
181.2369872983282
  0
ARC
  5
E1
330
1F
100
AcDbEntity
  8
0
  6
CONTINUOUS
 62
     3
100
AcDbCircle
 10
91.0393342161853
 20
17.30285214034264
 30
0.0
 40
7.395120993114926
100
AcDbArc
 50
179.8977458165987
 51
186.8855675734268
  0
ARC
  5
E2
330
1F
100
AcDbEntity
  8
0
  6
CONTINUOUS
 62
     3
100
AcDbCircle
 10
83.35653622736805
 20
12.46204321536159
 30
0.0
 40
3.968909094418497
100
AcDbArc
 50
85.07099551674689
 51
93.91830029343228
  0
ARC
  5
E3
330
1F
100
AcDbEntity
  8
0
  6
CONTINUOUS
 62
     3
100
AcDbCircle
 10
-2247.50309379106
 20
81.44400312612281
 30
0.0
 40
2329.776001260591
100
AcDbArc
 50
358.4169008257799
 51
358.4423418242109
  0
ARC
  5
E4
330
1F
100
AcDbEntity
  8
0
  6
CONTINUOUS
 62
     3
100
AcDbCircle
 10
80.53089533433416
 20
17.58971556554657
 30
0.0
 40
0.993581603997916
100
AcDbArc
 50
278.3335103000368
 51
329.1221464187299
  0
LINE
  5
E5
330
1F
100
AcDbEntity
  8
0
  6
CONTINUOUS
 62
     3
100
AcDbLine
 10
80.50142499999987
 20
16.6066249999986
 30
0.0
 11
80.67489999999992
 21
16.6066249999986
 31
0.0
  0
ARC
  5
E6
330
1F
100
AcDbEntity
  8
0
  6
CONTINUOUS
 62
     3
100
AcDbCircle
 10
80.5680449615623
 20
17.18596447122236
 30
0.0
 40
0.583157304846997
100
AcDbArc
 50
183.0707787095794
 51
263.4402016072427
  0
LINE
  5
E7
330
1F
100
AcDbEntity
  8
0
  6
CONTINUOUS
 62
     3
100
AcDbLine
 10
79.98572499999995
 20
17.35047499999855
 30
0.0
 11
79.98572499999995
 21
17.15472499999858
 31
0.0
  0
ARC
  5
E8
330
1F
100
AcDbEntity
  8
0
  6
CONTINUOUS
 62
     3
100
AcDbCircle
 10
80.60546709505337
 20
17.26942546071633
 30
0.0
 40
0.625019433457053
100
AcDbArc
 50
115.7403688633493
 51
172.5491744442191
  0
ARC
  5
E9
330
1F
100
AcDbEntity
  8
0
  6
CONTINUOUS
 62
     3
100
AcDbCircle
 10
81.15505494425196
 20
16.09453929692428
 30
0.0
 40
1.922065786155208
100
AcDbArc
 50
98.71271710191789
 51
115.2874718053599
  0
ARC
  5
EA
330
1F
100
AcDbEntity
  8
0
  6
CONTINUOUS
 62
     3
100
AcDbCircle
 10
80.25900942021218
 20
22.08636448184957
 30
0.0
 40
4.136406814694017
100
AcDbArc
 50
278.4088456599976
 51
286.1851416003176
  0
ARC
  5
EB
330
1F
100
AcDbEntity
  8
0
  6
CONTINUOUS
 62
     3
100
AcDbCircle
 10
77.80753042789769
 20
26.18552637546675
 30
0.0
 40
4.400758833490466
100
AcDbArc
 50
261.7986203004403
 51
278.6803384946418
  0
ARC
  5
EC
330
1F
100
AcDbEntity
  8
0
  6
CONTINUOUS
 62
     3
100
AcDbCircle
 10
143.3527015680184
 20
18.74095427975296
 30
0.0
 40
64.95474244683605
100
AcDbArc
 50
177.2695926307304
 51
181.4833117237826
  0
ARC
  5
ED
330
1F
100
AcDbEntity
  8
0
  6
CONTINUOUS
 62
     3
100
AcDbCircle
 10
76.14744204458106
 20
17.00766423904544
 30
0.0
 40
2.272875263114311
100
AcDbArc
 50
335.1860595856123
 51
1.308075913059364
  0
ARC
  5
EE
330
1F
100
AcDbEntity
  8
0
  6
CONTINUOUS
 62
     3
100
AcDbCircle
 10
76.7374217055297
 20
16.9051858565128
 30
0.0
 40
1.701394688196115
100
AcDbArc
 50
286.2966123578915
 51
329.973223283839
  0
ARC
  5
EF
330
1F
100
AcDbEntity
  8
0
  6
CONTINUOUS
 62
     3
100
AcDbCircle
 10
76.40800592534146
 20
17.38358219939836
 30
0.0
 40
2.260341410821362
100
AcDbArc
 50
277.0901027239701
 51
290.9134154817058
  0
LINE
  5
F0
330
1F
100
AcDbEntity
  8
0
  6
CONTINUOUS
 62
     3
100
AcDbLine
 10
76.68699999999995
 20
15.14052499999856
 30
0.0
 11
76.56347499999998
 21
15.51649999999854
 31
0.0
  0
ARC
  5
F1
330
1F
100
AcDbEntity
  8
0
  6
CONTINUOUS
 62
     3
100
AcDbCircle
 10
76.18192132352937
 20
16.6789492647044
 30
0.0
 40
1.223467000390025
100
AcDbArc
 50
288.1715191042997
 51
307.8537826235693
  0
ARC
  5
F2
330
1F
100
AcDbEntity
  8
0
  6
CONTINUOUS
 62
     3
100
AcDbCircle
 10
76.40772229163514
 20
16.24542585497365
 30
0.0
 40
0.747769185530633
100
AcDbArc
 50
314.592391474832
 51
344.9374073189123
  0
ARC
  5
F3
330
1F
100
AcDbEntity
  8
0
  6
CONTINUOUS
 62
     3
100
AcDbCircle
 10
27.73230363896806
 20
19.26332402863291
 30
0.0
 40
49.51400430399008
100
AcDbArc
 50
356.8390243485978
 51
2.971133813187157
  0
ARC
  5
F4
330
1F
100
AcDbEntity
  8
0
  6
CONTINUOUS
 62
     3
100
AcDbCircle
 10
70.2128440789457
 20
16.88477828947238
 30
0.0
 40
6.967015049800598
100
AcDbArc
 50
353.1274757312911
 51
357.106204490141
  0
LINE
  5
F5
330
1F
100
AcDbEntity
  8
0
  6
CONTINUOUS
 62
     3
100
AcDbLine
 10
79.71572499999996
 20
19.3477999999986
 30
0.0
 11
79.71572499999996
 21
18.98329999999858
 31
0.0
  0
ARC
  5
F6
330
1F
100
AcDbEntity
  8
0
  6
CONTINUOUS
 62
     3
100
AcDbCircle
 10
80.58098460370485
 20
18.54025258882332
 30
0.0
 40
0.894881105176719
100
AcDbArc
 50
103.4267945469744
 51
150.3242613737993
  0
ARC
  5
F7
330
1F
100
AcDbEntity
  8
0
  6
CONTINUOUS
 62
     3
100
AcDbCircle
 10
80.64643938465798
 20
18.40518897537471
 30
0.0
 40
1.04195273466423
100
AcDbArc
 50
77.23143261361693
 51
105.203415964315
  0
ARC
  5
F8
330
1F
100
AcDbEntity
  8
0
  6
CONTINUOUS
 62
     3
100
AcDbCircle
 10
80.69128255485185
 20
18.73876953177871
 30
0.0
 40
0.707346538626002
100
AcDbArc
 50
3.537639967999379
 51
74.8013566619203
  0
ARC
  5
F9
330
1F
100
AcDbEntity
  8
0
  6
CONTINUOUS
 62
     3
100
AcDbCircle
 10
80.09898716234062
 20
18.60364937399574
 30
0.0
 40
1.310543751018921
100
AcDbArc
 50
353.0315250986587
 51
7.839947970678348
  0
ARC
  5
FA
330
1F
100
AcDbEntity
  8
0
  6
CONTINUOUS
 62
     3
100
AcDbCircle
 10
81.2307579834083
 20
18.47646399528738
 30
0.0
 40
0.172058828228131
100
AcDbArc
 50
291.5204897073511
 51
349.3445900274031
  0
ARC
  5
FB
330
1F
100
AcDbEntity
  8
0
  6
CONTINUOUS
 62
     3
100
AcDbCircle
 10
80.83277892778386
 20
19.27542429713198
 30
0.0
 40
1.064113335272784
100
AcDbArc
 50
282.7195832898965
 51
295.6781112778079
  0
ARC
  5
FC
330
1F
100
AcDbEntity
  8
0
  6
CONTINUOUS
 62
     3
100
AcDbCircle
 10
78.28374942653278
 20
30.62337096799662
 30
0.0
 40
12.69482409370382
100
AcDbArc
 50
278.8438342053764
 51
282.6649181367123
  0
ARC
  5
FD
330
1F
100
AcDbEntity
  8
0
  6
CONTINUOUS
 62
     3
100
AcDbCircle
 10
80.5081498134328
 20
16.80743548507321
 30
0.0
 40
1.30093661698492
100
AcDbArc
 50
102.0988446293839
 51
129.1556705448828
  0
ARC
  5
FE
330
1F
100
AcDbEntity
  8
0
  6
CONTINUOUS
 62
     3
100
AcDbCircle
 10
80.13817221697644
 20
17.27501399525251
 30
0.0
 40
0.704795370557922
100
AcDbArc
 50
129.8344892359069
 51
168.4089447024628
  0
ARC
  5
FF
330
1F
100
AcDbEntity
  8
0
  6
CONTINUOUS
 62
     3
100
AcDbCircle
 10
80.28919861237483
 20
17.18893779572194
 30
0.0
 40
0.871709372588669
100
AcDbArc
 50
164.8589457925044
 51
187.8495628504518
  0
ARC
  5
100
330
1F
100
AcDbEntity
  8
0
  6
CONTINUOUS
 62
     3
100
AcDbCircle
 10
80.2076017558299
 20
17.15150088597314
 30
0.0
 40
0.78619234712629
100
AcDbArc
 50
185.9586126338419
 51
224.0091989319859
  0
ARC
  5
101
330
1F
100
AcDbEntity
  8
0
  6
CONTINUOUS
 62
     3
100
AcDbCircle
 10
80.24407795704377
 20
17.19246171797046
 30
0.0
 40
0.840895657756366
100
AcDbArc
 50
224.289750990011
 51
255.6505938786759
  0
ARC
  5
102
330
1F
100
AcDbEntity
  8
0
  6
CONTINUOUS
 62
     3
100
AcDbCircle
 10
80.2277297340425
 20
16.98098561411861
 30
0.0
 40
0.633022832091786
100
AcDbArc
 50
252.3384873625213
 51
268.8069976857606
  0
LINE
  5
103
330
1F
100
AcDbEntity
  8
0
  6
CONTINUOUS
 62
     3
100
AcDbLine
 10
80.21454999999986
 20
16.34809999999858
 30
0.0
 11
80.48859999999996
 21
16.34809999999858
 31
0.0
  0
ARC
  5
104
330
1F
100
AcDbEntity
  8
0
  6
CONTINUOUS
 62
     3
100
AcDbCircle
 10
80.364578885345
 20
17.70669093281278
 30
0.0
 40
1.364239920103932
100
AcDbArc
 50
275.2158792069686
 51
319.2336424873511
  0
ARC
  5
105
330
1F
100
AcDbEntity
  8
0
  6
CONTINUOUS
 62
     3
100
AcDbCircle
 10
81.88160403225805
 20
16.8762766129018
 30
0.0
 40
0.487535134009722
100
AcDbArc
 50
187.1167640402297
 51
216.4860549324747
  0
ARC
  5
106
330
1F
100
AcDbEntity
  8
0
  6
CONTINUOUS
 62
     3
100
AcDbCircle
 10
81.82782577748952
 20
16.8450252355308
 30
0.0
 40
0.425769550620398
100
AcDbArc
 50
217.4081478714985
 51
264.8118660441384
  0
ARC
  5
107
330
1F
100
AcDbEntity
  8
0
  6
CONTINUOUS
 62
     3
100
AcDbCircle
 10
81.98840734613083
 20
17.27599579847482
 30
0.0
 40
0.856540620020894
100
AcDbArc
 50
271.2220539293239
 51
292.8159509797653
  0
LINE
  5
108
330
1F
100
AcDbEntity
  8
0
  6
CONTINUOUS
 62
     3
100
AcDbLine
 10
81.7893249999999
 20
16.42099999999859
 30
0.0
 11
82.00667499999992
 21
16.42099999999859
 31
0.0
  0
LINE
  5
109
330
1F
100
AcDbEntity
  8
0
  6
CONTINUOUS
 62
     3
100
AcDbLine
 10
82.32054999999997
 20
16.48647499999858
 30
0.0
 11
82.32054999999997
 21
16.64374999999855
 31
0.0
  0
ARC
  5
10A
330
1F
100
AcDbEntity
  8
0
  6
CONTINUOUS
 62
     3
100
AcDbCircle
 10
82.18086921125456
 20
16.9119625576554
 30
0.0
 40
0.30240485913648
100
AcDbArc
 50
243.6191685566582
 51
297.5097757939563
  0
ARC
  5
10B
330
1F
100
AcDbEntity
  8
0
  6
CONTINUOUS
 62
     3
100
AcDbCircle
 10
82.21668832113534
 20
16.89437995804924
 30
0.0
 40
0.305188683107389
100
AcDbArc
 50
179.9117548191414
 51
236.1065985968857
  0
ARC
  5
10C
330
1F
100
AcDbEntity
  8
0
  6
CONTINUOUS
 62
     3
100
AcDbCircle
 10
127.2634620105459
 20
17.40458910956183
 30
0.0
 40
45.35482655865662
100
AcDbArc
 50
178.2526643324597
 51
180.6439560401927
  0
ARC
  5
10D
330
1F
100
AcDbEntity
  8
0
  6
CONTINUOUS
 62
     3
100
AcDbCircle
 10
80.90551115270279
 20
18.71326692997765
 30
0.0
 40
1.02690407511459
100
AcDbArc
 50
4.148222840814693
 51
92.36000944257292
  0
ARC
  5
10E
330
1F
100
AcDbEntity
  8
0
  6
CONTINUOUS
 62
     3
100
AcDbCircle
 10
80.8253016679302
 20
17.97302355951338
 30
0.0
 40
1.766683515327064
100
AcDbArc
 50
88.77000393305703
 51
128.9068631829044
  0
LINE
  5
10F
330
1F
100
AcDbEntity
  8
枠_表
  6
CONTINUOUS
 62
     7
100
AcDbLine
 10
179.9999999999999
 20
135.0
 30
0.0
 11
1999.999999999999
 21
135.0
 31
0.0
  0
LINE
  5
110
330
1F
100
AcDbEntity
  8
枠_表
  6
CONTINUOUS
 62
     7
100
AcDbLine
 10
1999.999999999999
 20
135.0
 30
0.0
 11
1999.999999999999
 21
2885.0
 31
0.0
  0
LINE
  5
111
330
1F
100
AcDbEntity
  8
枠_表
  6
CONTINUOUS
 62
     7
100
AcDbLine
 10
179.9999999999999
 20
2885.0
 30
0.0
 11
1999.999999999999
 21
2885.0
 31
0.0
  0
LINE
  5
112
330
1F
100
AcDbEntity
  8
枠_表
  6
CONTINUOUS
 62
     2
100
AcDbLine
 10
1045.98418786344
 20
1231.0
 30
0.0
 11
1040.9944675087
 21
1231.0
 31
0.0
  0
ARC
  5
113
330
1F
100
AcDbEntity
  8
枠_表
  6
CONTINUOUS
 62
     2
100
AcDbCircle
 10
391.4944673794007
 20
1436.00000987069
 30
0.0
 40
2.999999870689865
100
AcDbArc
 50
179.9999975303583
 51
269.9999975303409
  0
LINE
  5
114
330
1F
100
AcDbEntity
  8
枠_表
  6
CONTINUOUS
 62
     2
100
AcDbLine
 10
1115.49446776729
 20
1433.00001
 30
0.0
 11
391.4944672500897
 21
1433.00001
 31
0.0
  0
ARC
  5
115
330
1F
100
AcDbEntity
  8
枠_表
  6
CONTINUOUS
 62
     2
100
AcDbCircle
 10
1115.494467638021
 20
1436.00000987069
 30
0.0
 40
2.999999870689865
100
AcDbArc
 50
270.0000024696548
 51
0.0000024696418713
  0
LINE
  5
116
330
1F
100
AcDbEntity
  8
枠_表
  6
CONTINUOUS
 62
     2
100
AcDbLine
 10
1118.494467508711
 20
1530.0
 30
0.0
 11
1118.494467508711
 21
1436.00001
 31
0.0
  0
ARC
  5
117
330
1F
100
AcDbEntity
  8
枠_表
  6
CONTINUOUS
 62
     2
100
AcDbCircle
 10
1115.494467638021
 20
1530.00000012931
 30
0.0
 40
3.000000000000003
100
AcDbArc
 50
359.9999975303583
 51
89.99999753034527
  0
LINE
  5
118
330
1F
100
AcDbEntity
  8
枠_表
  6
CONTINUOUS
 62
     2
100
AcDbLine
 10
391.4944672500897
 20
1533.0
 30
0.0
 11
1115.49446776729
 21
1533.0
 31
0.0
  0
ARC
  5
119
330
1F
100
AcDbEntity
  8
枠_表
  6
CONTINUOUS
 62
     2
100
AcDbCircle
 10
391.4944673794007
 20
1530.00000012931
 30
0.0
 40
2.999999870689865
100
AcDbArc
 50
90.0000024696592
 51
180.0000024696418
  0
LINE
  5
11A
330
1F
100
AcDbEntity
  8
枠_表
  6
CONTINUOUS
 62
     2
100
AcDbLine
 10
388.4944675087108
 20
1436.00001
 30
0.0
 11
388.4944675087108
 21
1530.0
 31
0.0
  0
LINE
  5
11B
330
1F
100
AcDbEntity
  8
枠_表
  6
CONTINUOUS
 62
     2
100
AcDbLine
 10
974.9944675086999
 20
741.0
 30
0.0
 11
1086.9944675087
 21
741.0
 31
0.0
  0
LINE
  5
11C
330
1F
100
AcDbEntity
  8
枠_表
  6
CONTINUOUS
 62
     2
100
AcDbLine
 10
1086.9944675087
 20
741.0
 30
0.0
 11
1086.9944675087
 21
745.0
 31
0.0
  0
LINE
  5
11D
330
1F
100
AcDbEntity
  8
枠_表
  6
CONTINUOUS
 62
     2
100
AcDbLine
 10
1079.1333275087
 20
815.999996
 30
0.0
 11
982.8555875087004
 21
815.999996
 31
0.0
  0
LINE
  5
11E
330
1F
100
AcDbEntity
  8
枠_表
  6
CONTINUOUS
 62
     2
100
AcDbLine
 10
974.9944675086999
 20
745.0
 30
0.0
 11
974.9944675086999
 21
741.0
 31
0.0
  0
LINE
  5
11F
330
1F
100
AcDbEntity
  8
枠_表
  6
CONTINUOUS
 62
     2
100
AcDbLine
 10
974.9944675086999
 20
745.0
 30
0.0
 11
1086.9944675087
 21
745.0
 31
0.0
  0
LINE
  5
120
330
1F
100
AcDbEntity
  8
枠_表
  6
CONTINUOUS
 62
     2
100
AcDbLine
 10
977.8575875086999
 20
811.1407839999999
 30
0.0
 11
975.9944675086999
 21
745.0
 31
0.0
  0
LINE
  5
121
330
1F
100
AcDbEntity
  8
枠_表
  6
CONTINUOUS
 62
     2
100
AcDbLine
 10
1085.9944675087
 20
745.0
 30
0.0
 11
1084.1313475087
 21
811.1407839999999
 31
0.0
  0
ARC
  5
122
330
1F
100
AcDbEntity
  8
枠_表
  6
CONTINUOUS
 62
     2
100
AcDbCircle
 10
1079.1333275087
 20
810.999996
 30
0.0
 40
4.99999999999982
100
AcDbArc
 50
1.613539000000757
 51
89.99999999999996
  0
ARC
  5
123
330
1F
100
AcDbEntity
  8
枠_表
  6
CONTINUOUS
 62
     2
100
AcDbCircle
 10
982.8555875087004
 20
810.999996
 30
0.0
 40
5.0
100
AcDbArc
 50
90.00000000000001
 51
178.3865000000005
  0
LINE
  5
124
330
1F
100
AcDbEntity
  8
枠_表
  6
CONTINUOUS
 62
     2
100
AcDbLine
 10
982.9944675086999
 20
815.9980659999999
 30
0.0
 11
982.9944675086999
 21
814.6999954
 31
0.0
  0
LINE
  5
125
330
1F
100
AcDbEntity
  8
枠_表
  6
CONTINUOUS
 62
     2
100
AcDbLine
 10
1022.9944675087
 20
814.7134609999998
 30
0.0
 11
1022.9944675087
 21
815.999996
 31
0.0
  0
ARC
  5
126
330
1F
100
AcDbEntity
  8
枠_表
  6
CONTINUOUS
 62
     2
100
AcDbCircle
 10
1018.4444075087
 20
828.993246
 30
0.0
 40
14.99999999999998
100
AcDbArc
 50
268.2809999999975
 51
287.8269000000004
  0
ARC
  5
127
330
1F
100
AcDbEntity
  8
枠_表
  6
CONTINUOUS
 62
     2
100
AcDbCircle
 10
987.5445075087
 20
828.993246
 30
0.0
 40
15.00000000000001
100
AcDbArc
 50
252.3419000000005
 51
271.7189999999991
  0
LINE
  5
128
330
1F
100
AcDbEntity
  8
枠_表
  6
CONTINUOUS
 62
     2
100
AcDbLine
 10
1017.9944675087
 20
813.9999954
 30
0.0
 11
987.9944675086999
 21
813.9999954
 31
0.0
  0
LINE
  5
129
330
1F
100
AcDbEntity
  8
枠_表
  6
CONTINUOUS
 62
     2
100
AcDbLine
 10
1041.4609875087
 20
813.9999954
 30
0.0
 11
1038.1707875087
 21
813.9999954
 31
0.0
  0
ARC
  5
12A
330
1F
100
AcDbEntity
  8
枠_表
  6
CONTINUOUS
 62
     2
100
AcDbCircle
 10
1030.561047508701
 20
798.893394
 30
0.0
 40
17.11209200000005
100
AcDbArc
 50
88.54857000000199
 51
105.4777000000023
  0
ARC
  5
12B
330
1F
100
AcDbEntity
  8
枠_表
  6
CONTINUOUS
 62
     2
100
AcDbCircle
 10
1026.2958275087
 20
815.1762022
 30
0.0
 40
0.282630999999891
100
AcDbArc
 50
81.72016999999235
 51
243.5736000000366
  0
ARC
  5
12C
330
1F
100
AcDbEntity
  8
枠_表
  6
CONTINUOUS
 62
     2
100
AcDbCircle
 10
1040.6159075087
 20
925.1027999999999
 30
0.0
 40
111.1297199999999
100
AcDbArc
 50
262.5028000000001
 51
268.9791000000004
  0
ARC
  5
12D
330
1F
100
AcDbEntity
  8
枠_表
  6
CONTINUOUS
 62
     2
100
AcDbCircle
 10
1039.4376875087
 20
796.787354
 30
0.0
 40
19.2107519999999
100
AcDbArc
 50
76.78236000000079
 51
91.7959799999998
  0
ARC
  5
12E
330
1F
100
AcDbEntity
  8
枠_表
  6
CONTINUOUS
 62
     2
100
AcDbCircle
 10
1040.8200675087
 20
819.6852959999999
 30
0.0
 40
5.72131399999998
100
AcDbArc
 50
276.4321999999985
 51
299.9787999999998
  0
ARC
  5
12F
330
1F
100
AcDbEntity
  8
枠_表
  6
CONTINUOUS
 62
     2
100
AcDbCircle
 10
1043.5593475087
 20
815.148199
 30
0.0
 40
0.435491400000028
100
AcDbArc
 50
285.9310000000212
 51
51.53549000002943
  0
LINE
  5
130
330
1F
100
AcDbEntity
  8
枠_表
  6
CONTINUOUS
 62
     2
100
AcDbLine
 10
1075.4609875087
 20
813.9999954
 30
0.0
 11
1072.1707875087
 21
813.9999954
 31
0.0
  0
ARC
  5
131
330
1F
100
AcDbEntity
  8
枠_表
  6
CONTINUOUS
 62
     2
100
AcDbCircle
 10
1064.561047508701
 20
798.893394
 30
0.0
 40
17.11209200000005
100
AcDbArc
 50
88.54857000000199
 51
105.4777000000023
  0
ARC
  5
132
330
1F
100
AcDbEntity
  8
枠_表
  6
CONTINUOUS
 62
     2
100
AcDbCircle
 10
1060.2958275087
 20
815.1762022
 30
0.0
 40
0.282630999999891
100
AcDbArc
 50
81.72016999999235
 51
243.5736000000366
  0
ARC
  5
133
330
1F
100
AcDbEntity
  8
枠_表
  6
CONTINUOUS
 62
     2
100
AcDbCircle
 10
1074.6159075087
 20
925.1027999999999
 30
0.0
 40
111.1297199999999
100
AcDbArc
 50
262.5028000000001
 51
268.9791000000004
  0
ARC
  5
134
330
1F
100
AcDbEntity
  8
枠_表
  6
CONTINUOUS
 62
     2
100
AcDbCircle
 10
1073.4376875087
 20
796.787354
 30
0.0
 40
19.2107519999999
100
AcDbArc
 50
76.78236000000079
 51
91.7959799999998
  0
ARC
  5
135
330
1F
100
AcDbEntity
  8
枠_表
  6
CONTINUOUS
 62
     2
100
AcDbCircle
 10
1074.8200675087
 20
819.6852959999999
 30
0.0
 40
5.72131399999998
100
AcDbArc
 50
276.4321999999985
 51
299.9787999999998
  0
ARC
  5
136
330
1F
100
AcDbEntity
  8
枠_表
  6
CONTINUOUS
 62
     2
100
AcDbCircle
 10
1077.5593475087
 20
815.148199
 30
0.0
 40
0.435491400000028
100
AcDbArc
 50
285.9310000000212
 51
51.53549000002943
  0
POLYLINE
  5
137
330
1F
100
AcDbEntity
  8
枠_表
  6
CONTINUOUS
 62
     2
100
AcDb2dPolyline
 66
     1
 10
0.0
 20
0.0
 30
0.0
 70
   128
  0
VERTEX
  5
138
330
137
100
AcDbEntity
  8
枠_表
  6
CONTINUOUS
 62
     2
100
AcDbVertex
100
AcDb2dVertex
 10
463.4944675161505
 20
1396.0
 30
0.0
  0
VERTEX
  5
139
330
137
100
AcDbEntity
  8
枠_表
  6
CONTINUOUS
 62
     2
100
AcDbVertex
100
AcDb2dVertex
 10
908.4944675161505
 20
1396.0
 30
0.0
  0
VERTEX
  5
13A
330
137
100
AcDbEntity
  8
枠_表
  6
CONTINUOUS
 62
     2
100
AcDbVertex
100
AcDb2dVertex
 10
908.4944675161505
 20
511.0
 30
0.0
  0
VERTEX
  5
13B
330
137
100
AcDbEntity
  8
枠_表
  6
CONTINUOUS
 62
     2
100
AcDbVertex
100
AcDb2dVertex
 10
463.4944675161505
 20
511.0
 30
0.0
  0
VERTEX
  5
13C
330
137
100
AcDbEntity
  8
枠_表
  6
CONTINUOUS
 62
     2
100
AcDbVertex
100
AcDb2dVertex
 10
463.4944675161505
 20
1396.0
 30
0.0
  0
SEQEND
  5
13D
330
137
100
AcDbEntity
  8
枠_表
  6
CONTINUOUS
 62
     2
  0
LINE
  5
13E
330
1F
100
AcDbEntity
  8
枠_表
  6
CONTINUOUS
 62
     2
100
AcDbLine
 10
438.4944675086999
 20
1406.0
 30
0.0
 11
438.4944675086999
 21
516.0
 31
0.0
  0
LINE
  5
13F
330
1F
100
AcDbEntity
  8
枠_表
  6
CONTINUOUS
 62
     2
100
AcDbLine
 10
933.4944675086999
 20
1406.0
 30
0.0
 11
933.4944675086999
 21
516.0
 31
0.0
  0
LINE
  5
140
330
1F
100
AcDbEntity
  8
枠_表
  6
CONTINUOUS
 62
     2
100
AcDbLine
 10
443.4944675086999
 20
511.0
 30
0.0
 11
928.4944675086999
 21
511.0
 31
0.0
  0
ARC
  5
141
330
1F
100
AcDbEntity
  8
枠_表
  6
CONTINUOUS
 62
     2
100
AcDbCircle
 10
443.4944675086999
 20
516.0
 30
0.0
 40
5.0
100
AcDbArc
 50
180.0
 51
270.0
  0
ARC
  5
142
330
1F
100
AcDbEntity
  8
枠_表
  6
CONTINUOUS
 62
     2
100
AcDbCircle
 10
453.4944675086999
 20
1406.0
 30
0.0
 40
15.0
100
AcDbArc
 50
90.00000000000001
 51
180.0
  0
ARC
  5
143
330
1F
100
AcDbEntity
  8
枠_表
  6
CONTINUOUS
 62
     2
100
AcDbCircle
 10
918.4944675086999
 20
1406.0
 30
0.0
 40
15.0
100
AcDbArc
 50
0.0
 51
90.00000000000001
  0
ARC
  5
144
330
1F
100
AcDbEntity
  8
枠_表
  6
CONTINUOUS
 62
     2
100
AcDbCircle
 10
928.4944675086999
 20
516.0
 30
0.0
 40
5.0
100
AcDbArc
 50
270.0
 51
0.0
  0
LINE
  5
145
330
1F
100
AcDbEntity
  8
枠_表
  6
CONTINUOUS
 62
     2
100
AcDbLine
 10
393.4944675086999
 20
1421.0
 30
0.0
 11
918.4944675086999
 21
1421.0
 31
0.0
  0
ARC
  5
146
330
1F
100
AcDbEntity
  8
枠_表
  6
CONTINUOUS
 62
     2
100
AcDbCircle
 10
393.4944675086999
 20
1411.0
 30
0.0
 40
10.0
100
AcDbArc
 50
90.00000000000001
 51
180.0
  0
LINE
  5
147
330
1F
100
AcDbEntity
  8
枠_表
  6
CONTINUOUS
 62
     2
100
AcDbLine
 10
438.4944675086999
 20
1421.0
 30
0.0
 11
918.4944675086999
 21
1421.0
 31
0.0
  0
ARC
  5
148
330
1F
100
AcDbEntity
  8
枠_表
  6
CONTINUOUS
 62
     2
100
AcDbCircle
 10
918.4944675086999
 20
1406.0
 30
0.0
 40
15.0
100
AcDbArc
 50
0.0
 51
90.00000000000001
  0
POLYLINE
  5
149
330
1F
100
AcDbEntity
  8
枠_表
  6
CONTINUOUS
 62
     2
100
AcDb2dPolyline
 66
     1
 10
0.0
 20
0.0
 30
0.0
 70
   128
  0
VERTEX
  5
14A
330
149
100
AcDbEntity
  8
枠_表
  6
CONTINUOUS
 62
     2
100
AcDbVertex
100
AcDb2dVertex
 10
425.9944675086999
 20
771.0
 30
0.0
  0
VERTEX
  5
14B
330
149
100
AcDbEntity
  8
枠_表
  6
CONTINUOUS
 62
     2
100
AcDbVertex
100
AcDb2dVertex
 10
425.9944675086999
 20
596.0
 30
0.0
  0
VERTEX
  5
14C
330
149
100
AcDbEntity
  8
枠_表
  6
CONTINUOUS
 62
     2
100
AcDbVertex
100
AcDb2dVertex
 10
390.9944675086999
 20
596.0
 30
0.0
  0
VERTEX
  5
14D
330
149
100
AcDbEntity
  8
枠_表
  6
CONTINUOUS
 62
     2
100
AcDbVertex
100
AcDb2dVertex
 10
390.9944675086999
 20
771.0
 30
0.0
  0
VERTEX
  5
14E
330
149
100
AcDbEntity
  8
枠_表
  6
CONTINUOUS
 62
     2
100
AcDbVertex
100
AcDb2dVertex
 10
425.9944675086999
 20
771.0
 30
0.0
  0
SEQEND
  5
14F
330
149
100
AcDbEntity
  8
枠_表
  6
CONTINUOUS
 62
     2
  0
LINE
  5
150
330
1F
100
AcDbEntity
  8
枠_表
  6
CONTINUOUS
 62
     2
100
AcDbLine
 10
388.4944675086999
 20
586.0
 30
0.0
 11
428.4944675086999
 21
586.0
 31
0.0
  0
ARC
  5
151
330
1F
100
AcDbEntity
  8
枠_表
  6
CONTINUOUS
 62
     2
100
AcDbCircle
 10
428.4944675086999
 20
581.0
 30
0.0
 40
5.0
100
AcDbArc
 50
0.0
 51
90.00000000000001
  0
ARC
  5
152
330
1F
100
AcDbEntity
  8
枠_表
  6
CONTINUOUS
 62
     2
100
AcDbCircle
 10
388.4944675086999
 20
581.0
 30
0.0
 40
5.0
100
AcDbArc
 50
90.00000000000001
 51
180.0
  0
POLYLINE
  5
153
330
1F
100
AcDbEntity
  8
枠_表
  6
CONTINUOUS
 62
     2
100
AcDb2dPolyline
 66
     1
 10
0.0
 20
0.0
 30
0.0
 70
   128
  0
VERTEX
  5
154
330
153
100
AcDbEntity
  8
枠_表
  6
CONTINUOUS
 62
     2
100
AcDbVertex
100
AcDb2dVertex
 10
1100.4944675087
 20
1270.5
 30
0.0
  0
VERTEX
  5
155
330
153
100
AcDbEntity
  8
枠_表
  6
CONTINUOUS
 62
     2
100
AcDbVertex
100
AcDb2dVertex
 10
1103.4944675087
 20
1270.5
 30
0.0
  0
VERTEX
  5
156
330
153
100
AcDbEntity
  8
枠_表
  6
CONTINUOUS
 62
     2
100
AcDbVertex
100
AcDb2dVertex
 10
1103.4944675087
 20
1261.5
 30
0.0
  0
VERTEX
  5
157
330
153
100
AcDbEntity
  8
枠_表
  6
CONTINUOUS
 62
     2
100
AcDbVertex
100
AcDb2dVertex
 10
1100.4944675087
 20
1261.5
 30
0.0
  0
VERTEX
  5
158
330
153
100
AcDbEntity
  8
枠_表
  6
CONTINUOUS
 62
     2
100
AcDbVertex
100
AcDb2dVertex
 10
1100.4944675087
 20
1270.5
 30
0.0
  0
SEQEND
  5
159
330
153
100
AcDbEntity
  8
枠_表
  6
CONTINUOUS
 62
     2
  0
POLYLINE
  5
15A
330
1F
100
AcDbEntity
  8
枠_表
  6
CONTINUOUS
 62
     2
100
AcDb2dPolyline
 66
     1
 10
0.0
 20
0.0
 30
0.0
 70
   128
  0
VERTEX
  5
15B
330
15A
100
AcDbEntity
  8
枠_表
  6
CONTINUOUS
 62
     2
100
AcDbVertex
100
AcDb2dVertex
 10
958.4944675086999
 20
1270.5
 30
0.0
  0
VERTEX
  5
15C
330
15A
100
AcDbEntity
  8
枠_表
  6
CONTINUOUS
 62
     2
100
AcDbVertex
100
AcDb2dVertex
 10
961.4944675086999
 20
1270.5
 30
0.0
  0
VERTEX
  5
15D
330
15A
100
AcDbEntity
  8
枠_表
  6
CONTINUOUS
 62
     2
100
AcDbVertex
100
AcDb2dVertex
 10
961.4944675086999
 20
1261.5
 30
0.0
  0
VERTEX
  5
15E
330
15A
100
AcDbEntity
  8
枠_表
  6
CONTINUOUS
 62
     2
100
AcDbVertex
100
AcDb2dVertex
 10
958.4944675086999
 20
1261.5
 30
0.0
  0
VERTEX
  5
15F
330
15A
100
AcDbEntity
  8
枠_表
  6
CONTINUOUS
 62
     2
100
AcDbVertex
100
AcDb2dVertex
 10
958.4944675086999
 20
1270.5
 30
0.0
  0
SEQEND
  5
160
330
15A
100
AcDbEntity
  8
枠_表
  6
CONTINUOUS
 62
     2
  0
POLYLINE
  5
161
330
1F
100
AcDbEntity
  8
枠_表
  6
CONTINUOUS
 62
     2
100
AcDb2dPolyline
 66
     1
 10
0.0
 20
0.0
 30
0.0
 70
   128
  0
VERTEX
  5
162
330
161
100
AcDbEntity
  8
枠_表
  6
CONTINUOUS
 62
     2
100
AcDbVertex
100
AcDb2dVertex
 10
1100.4944675087
 20
1055.5
 30
0.0
  0
VERTEX
  5
163
330
161
100
AcDbEntity
  8
枠_表
  6
CONTINUOUS
 62
     2
100
AcDbVertex
100
AcDb2dVertex
 10
1103.4944675087
 20
1055.5
 30
0.0
  0
VERTEX
  5
164
330
161
100
AcDbEntity
  8
枠_表
  6
CONTINUOUS
 62
     2
100
AcDbVertex
100
AcDb2dVertex
 10
1103.4944675087
 20
1046.5
 30
0.0
  0
VERTEX
  5
165
330
161
100
AcDbEntity
  8
枠_表
  6
CONTINUOUS
 62
     2
100
AcDbVertex
100
AcDb2dVertex
 10
1100.4944675087
 20
1046.5
 30
0.0
  0
VERTEX
  5
166
330
161
100
AcDbEntity
  8
枠_表
  6
CONTINUOUS
 62
     2
100
AcDbVertex
100
AcDb2dVertex
 10
1100.4944675087
 20
1055.5
 30
0.0
  0
SEQEND
  5
167
330
161
100
AcDbEntity
  8
枠_表
  6
CONTINUOUS
 62
     2
  0
POLYLINE
  5
168
330
1F
100
AcDbEntity
  8
枠_表
  6
CONTINUOUS
 62
     2
100
AcDb2dPolyline
 66
     1
 10
0.0
 20
0.0
 30
0.0
 70
   128
  0
VERTEX
  5
169
330
168
100
AcDbEntity
  8
枠_表
  6
CONTINUOUS
 62
     2
100
AcDbVertex
100
AcDb2dVertex
 10
958.4944675086999
 20
1055.5
 30
0.0
  0
VERTEX
  5
16A
330
168
100
AcDbEntity
  8
枠_表
  6
CONTINUOUS
 62
     2
100
AcDbVertex
100
AcDb2dVertex
 10
961.4944675086999
 20
1055.5
 30
0.0
  0
VERTEX
  5
16B
330
168
100
AcDbEntity
  8
枠_表
  6
CONTINUOUS
 62
     2
100
AcDbVertex
100
AcDb2dVertex
 10
961.4944675086999
 20
1046.5
 30
0.0
  0
VERTEX
  5
16C
330
168
100
AcDbEntity
  8
枠_表
  6
CONTINUOUS
 62
     2
100
AcDbVertex
100
AcDb2dVertex
 10
958.4944675086999
 20
1046.5
 30
0.0
  0
VERTEX
  5
16D
330
168
100
AcDbEntity
  8
枠_表
  6
CONTINUOUS
 62
     2
100
AcDbVertex
100
AcDb2dVertex
 10
958.4944675086999
 20
1055.5
 30
0.0
  0
SEQEND
  5
16E
330
168
100
AcDbEntity
  8
枠_表
  6
CONTINUOUS
 62
     2
  0
LINE
  5
16F
330
1F
100
AcDbEntity
  8
枠_表
  6
CONTINUOUS
 62
     2
100
AcDbLine
 10
978.5047471539601
 20
991.0
 30
0.0
 11
1083.50474715396
 21
991.0
 31
0.0
  0
LINE
  5
170
330
1F
100
AcDbEntity
  8
枠_表
  6
CONTINUOUS
 62
     2
100
AcDbLine
 10
968.5047471539601
 20
1016.0
 30
0.0
 11
1093.48418786344
 21
1016.0
 31
0.0
  0
ARC
  5
171
330
1F
100
AcDbEntity
  8
枠_表
  6
CONTINUOUS
 62
     2
100
AcDbCircle
 10
1093.519284767704
 20
1026.0
 30
0.0
 40
9.985462386256586
100
AcDbArc
 50
270.0
 51
0.0
  0
ARC
  5
172
330
1F
100
AcDbEntity
  8
枠_表
  6
CONTINUOUS
 62
     2
100
AcDbCircle
 10
968.5047471539601
 20
1026.0
 30
0.0
 40
10.0
100
AcDbArc
 50
180.0
 51
270.0
  0
ARC
  5
173
330
1F
100
AcDbEntity
  8
枠_表
  6
CONTINUOUS
 62
     2
100
AcDbCircle
 10
978.5047471539601
 20
1026.0
 30
0.0
 40
10.0
100
AcDbArc
 50
180.0
 51
270.0
  0
ARC
  5
174
330
1F
100
AcDbEntity
  8
枠_表
  6
CONTINUOUS
 62
     2
100
AcDbCircle
 10
1083.519284767704
 20
1026.0
 30
0.0
 40
9.985462386256586
100
AcDbArc
 50
270.0
 51
0.0
  0
LINE
  5
175
330
1F
100
AcDbEntity
  8
枠_表
  6
CONTINUOUS
 62
     2
100
AcDbLine
 10
978.5047471539601
 20
971.0
 30
0.0
 11
1083.50474715396
 21
971.0
 31
0.0
  0
ARC
  5
176
330
1F
100
AcDbEntity
  8
枠_表
  6
CONTINUOUS
 62
     2
100
AcDbCircle
 10
1083.50474715396
 20
961.0
 30
0.0
 40
10.0
100
AcDbArc
 50
0.0
 51
90.00000000000001
  0
ARC
  5
177
330
1F
100
AcDbEntity
  8
枠_表
  6
CONTINUOUS
 62
     2
100
AcDbCircle
 10
978.5047471539601
 20
961.0
 30
0.0
 40
10.0
100
AcDbArc
 50
90.00000000000001
 51
180.0
  0
ARC
  5
178
330
1F
100
AcDbEntity
  8
枠_表
  6
CONTINUOUS
 62
     2
100
AcDbCircle
 10
978.5047471539601
 20
971.0
 30
0.0
 40
20.0
100
AcDbArc
 50
90.00000000000001
 51
180.0
  0
ARC
  5
179
330
1F
100
AcDbEntity
  8
枠_表
  6
CONTINUOUS
 62
     2
100
AcDbCircle
 10
1083.50474715396
 20
971.0
 30
0.0
 40
20.0
100
AcDbArc
 50
0.0
 51
90.00000000000001
  0
LINE
  5
17A
330
1F
100
AcDbEntity
  8
枠_表
  6
CONTINUOUS
 62
     2
100
AcDbLine
 10
1103.4944675087
 20
1376.0
 30
0.0
 11
1103.4944675087
 21
751.0
 31
0.0
  0
LINE
  5
17B
330
1F
100
AcDbEntity
  8
枠_表
  6
CONTINUOUS
 62
     2
100
AcDbLine
 10
958.4944675086999
 20
1376.0
 30
0.0
 11
958.4944675086999
 21
751.0
 31
0.0
  0
ARC
  5
17C
330
1F
100
AcDbEntity
  8
枠_表
  6
CONTINUOUS
 62
     2
100
AcDbCircle
 10
968.4944675086999
 20
751.0
 30
0.0
 40
10.0
100
AcDbArc
 50
180.0
 51
270.0
  0
ARC
  5
17D
330
1F
100
AcDbEntity
  8
枠_表
  6
CONTINUOUS
 62
     2
100
AcDbCircle
 10
1093.4944675087
 20
751.0
 30
0.0
 40
10.0
100
AcDbArc
 50
270.0
 51
0.0
  0
LINE
  5
17E
330
1F
100
AcDbEntity
  8
枠_表
  6
CONTINUOUS
 62
     2
100
AcDbLine
 10
978.4944675086999
 20
1351.0
 30
0.0
 11
1083.4944675087
 21
1351.0
 31
0.0
  0
ARC
  5
17F
330
1F
100
AcDbEntity
  8
枠_表
  6
CONTINUOUS
 62
     2
100
AcDbCircle
 10
978.4944675086999
 20
1341.0
 30
0.0
 40
10.0
100
AcDbArc
 50
90.00000000000001
 51
180.0
  0
ARC
  5
180
330
1F
100
AcDbEntity
  8
枠_表
  6
CONTINUOUS
 62
     2
100
AcDbCircle
 10
1083.4944675087
 20
1341.0
 30
0.0
 40
10.0
100
AcDbArc
 50
0.0
 51
90.00000000000001
  0
LINE
  5
181
330
1F
100
AcDbEntity
  8
枠_表
  6
CONTINUOUS
 62
     2
100
AcDbLine
 10
968.4944675086999
 20
961.0
 30
0.0
 11
968.4944675086999
 21
751.0
 31
0.0
  0
LINE
  5
182
330
1F
100
AcDbEntity
  8
枠_表
  6
CONTINUOUS
 62
     2
100
AcDbLine
 10
1093.4944675087
 20
961.0
 30
0.0
 11
1093.4944675087
 21
751.0
 31
0.0
  0
ARC
  5
183
330
1F
100
AcDbEntity
  8
枠_表
  6
CONTINUOUS
 62
     2
100
AcDbCircle
 10
978.4944675086999
 20
751.0
 30
0.0
 40
10.0
100
AcDbArc
 50
180.0
 51
270.0
  0
ARC
  5
184
330
1F
100
AcDbEntity
  8
枠_表
  6
CONTINUOUS
 62
     2
100
AcDbCircle
 10
1083.4944675087
 20
751.0
 30
0.0
 40
10.0
100
AcDbArc
 50
270.0
 51
0.0
  0
LINE
  5
185
330
1F
100
AcDbEntity
  8
枠_表
  6
CONTINUOUS
 62
     2
100
AcDbLine
 10
963.4944675086999
 20
706.0
 30
0.0
 11
1098.4944675087
 21
706.0
 31
0.0
  0
ARC
  5
186
330
1F
100
AcDbEntity
  8
枠_表
  6
CONTINUOUS
 62
     2
100
AcDbCircle
 10
1098.4944675087
 20
686.0
 30
0.0
 40
20.0
100
AcDbArc
 50
0.0
 51
90.00000000000001
  0
ARC
  5
187
330
1F
100
AcDbEntity
  8
枠_表
  6
CONTINUOUS
 62
     2
100
AcDbCircle
 10
963.4944675086999
 20
686.0
 30
0.0
 40
20.0
100
AcDbArc
 50
90.00000000000001
 51
180.0
  0
LINE
  5
188
330
1F
100
AcDbEntity
  8
枠_表
  6
CONTINUOUS
 62
     2
100
AcDbLine
 10
978.5047471539601
 20
1206.0
 30
0.0
 11
1083.50474715396
 21
1206.0
 31
0.0
  0
LINE
  5
189
330
1F
100
AcDbEntity
  8
枠_表
  6
CONTINUOUS
 62
     2
100
AcDbLine
 10
968.5047471539601
 20
1231.0
 30
0.0
 11
1093.48418786344
 21
1231.0
 31
0.0
  0
ARC
  5
18A
330
1F
100
AcDbEntity
  8
枠_表
  6
CONTINUOUS
 62
     2
100
AcDbCircle
 10
1093.519284767704
 20
1241.0
 30
0.0
 40
9.985462386256586
100
AcDbArc
 50
270.0
 51
0.0
  0
ARC
  5
18B
330
1F
100
AcDbEntity
  8
枠_表
  6
CONTINUOUS
 62
     2
100
AcDbCircle
 10
968.5047471539601
 20
1241.0
 30
0.0
 40
10.0
100
AcDbArc
 50
180.0
 51
270.0
  0
ARC
  5
18C
330
1F
100
AcDbEntity
  8
枠_表
  6
CONTINUOUS
 62
     2
100
AcDbCircle
 10
978.5047471539601
 20
1241.0
 30
0.0
 40
10.0
100
AcDbArc
 50
180.0
 51
270.0
  0
ARC
  5
18D
330
1F
100
AcDbEntity
  8
枠_表
  6
CONTINUOUS
 62
     2
100
AcDbCircle
 10
1083.519284767704
 20
1241.0
 30
0.0
 40
9.985462386256586
100
AcDbArc
 50
270.0
 51
0.0
  0
LINE
  5
18E
330
1F
100
AcDbEntity
  8
枠_表
  6
CONTINUOUS
 62
     2
100
AcDbLine
 10
978.5047471539601
 20
1186.0
 30
0.0
 11
1083.50474715396
 21
1186.0
 31
0.0
  0
ARC
  5
18F
330
1F
100
AcDbEntity
  8
枠_表
  6
CONTINUOUS
 62
     2
100
AcDbCircle
 10
1083.50474715396
 20
1176.0
 30
0.0
 40
10.0
100
AcDbArc
 50
0.0
 51
90.00000000000001
  0
ARC
  5
190
330
1F
100
AcDbEntity
  8
枠_表
  6
CONTINUOUS
 62
     2
100
AcDbCircle
 10
978.5047471539601
 20
1176.0
 30
0.0
 40
10.0
100
AcDbArc
 50
90.00000000000001
 51
180.0
  0
ARC
  5
191
330
1F
100
AcDbEntity
  8
枠_表
  6
CONTINUOUS
 62
     2
100
AcDbCircle
 10
978.5047471539601
 20
1186.0
 30
0.0
 40
20.0
100
AcDbArc
 50
90.00000000000001
 51
180.0
  0
ARC
  5
192
330
1F
100
AcDbEntity
  8
枠_表
  6
CONTINUOUS
 62
     2
100
AcDbCircle
 10
1083.50474715396
 20
1186.0
 30
0.0
 40
20.0
100
AcDbArc
 50
0.0
 51
90.00000000000001
  0
ARC
  5
193
330
1F
100
AcDbEntity
  8
枠_表
  6
CONTINUOUS
 62
     2
100
AcDbCircle
 10
978.4944675086999
 20
1376.0
 30
0.0
 40
20.0
100
AcDbArc
 50
90.00000000000001
 51
180.0
  0
ARC
  5
194
330
1F
100
AcDbEntity
  8
枠_表
  6
CONTINUOUS
 62
     2
100
AcDbCircle
 10
1083.4944675087
 20
1376.0
 30
0.0
 40
20.0
100
AcDbArc
 50
0.0
 51
90.00000000000001
  0
LINE
  5
195
330
1F
100
AcDbEntity
  8
枠_表
  6
CONTINUOUS
 62
     2
100
AcDbLine
 10
978.4944675086999
 20
1396.0
 30
0.0
 11
1083.4944675087
 21
1396.0
 31
0.0
  0
LINE
  5
196
330
1F
100
AcDbEntity
  8
枠_表
  6
CONTINUOUS
 62
     2
100
AcDbLine
 10
968.4944675086999
 20
741.0
 30
0.0
 11
1093.4944675087
 21
741.0
 31
0.0
  0
ARC
  5
197
330
1F
100
AcDbEntity
  8
枠_表
  6
CONTINUOUS
 62
     2
100
AcDbCircle
 10
1118.488935017357
 20
1356.00000000001
 30
0.0
 40
5.000000000001052
100
AcDbArc
 50
0.0000000000120321
 51
89.99999999998793
  0
POLYLINE
  5
198
330
1F
100
AcDbEntity
  8
枠_表
  6
CONTINUOUS
 62
     2
100
AcDb2dPolyline
 66
     1
 10
0.0
 20
0.0
 30
0.0
 70
   128
  0
VERTEX
  5
199
330
198
100
AcDbEntity
  8
枠_表
  6
CONTINUOUS
 62
     2
100
AcDbVertex
100
AcDb2dVertex
 10
1118.488935017358
 20
1361.00000000001
 30
0.0
  0
VERTEX
  5
19A
330
198
100
AcDbEntity
  8
枠_表
  6
CONTINUOUS
 62
     2
100
AcDbVertex
100
AcDb2dVertex
 10
1108.488935017358
 20
1361.00000000001
 30
0.0
  0
SEQEND
  5
19B
330
198
100
AcDbEntity
  8
枠_表
  6
CONTINUOUS
 62
     2
  0
ARC
  5
19C
330
1F
100
AcDbEntity
  8
枠_表
  6
CONTINUOUS
 62
     2
100
AcDbCircle
 10
1108.488935017358
 20
1356.00000000001
 30
0.0
 40
5.000000000000314
100
AcDbArc
 50
90.00000000000358
 51
179.9999999999964
  0
ARC
  5
19D
330
1F
100
AcDbEntity
  8
枠_表
  6
CONTINUOUS
 62
     2
100
AcDbCircle
 10
953.4944675086995
 20
1356.00000000001
 30
0.0
 40
5.000000000000316
100
AcDbArc
 50
0.0000000000036096
 51
89.99999999999642
  0
POLYLINE
  5
19E
330
1F
100
AcDbEntity
  8
枠_表
  6
CONTINUOUS
 62
     2
100
AcDb2dPolyline
 66
     1
 10
0.0
 20
0.0
 30
0.0
 70
   128
  0
VERTEX
  5
19F
330
19E
100
AcDbEntity
  8
枠_表
  6
CONTINUOUS
 62
     2
100
AcDbVertex
100
AcDb2dVertex
 10
953.4944675086999
 20
1361.00000000001
 30
0.0
  0
VERTEX
  5
1A0
330
19E
100
AcDbEntity
  8
枠_表
  6
CONTINUOUS
 62
     2
100
AcDbVertex
100
AcDb2dVertex
 10
943.4944675086999
 20
1361.00000000001
 30
0.0
  0
SEQEND
  5
1A1
330
19E
100
AcDbEntity
  8
枠_表
  6
CONTINUOUS
 62
     2
  0
ARC
  5
1A2
330
1F
100
AcDbEntity
  8
枠_表
  6
CONTINUOUS
 62
     2
100
AcDbCircle
 10
943.4944675086999
 20
1356.00000000001
 30
0.0
 40
5.000000000000316
100
AcDbArc
 50
90.00000000000364
 51
179.9999999999963
  0
ARC
  5
1A3
330
1F
100
AcDbEntity
  8
枠_表
  6
CONTINUOUS
 62
     2
100
AcDbCircle
 10
1118.4944675087
 20
775.9999999999995
 30
0.0
 40
4.999999999999516
100
AcDbArc
 50
269.9999999999945
 51
0.0000000000055577
  0
POLYLINE
  5
1A4
330
1F
100
AcDbEntity
  8
枠_表
  6
CONTINUOUS
 62
     2
100
AcDb2dPolyline
 66
     1
 10
0.0
 20
0.0
 30
0.0
 70
   128
  0
VERTEX
  5
1A5
330
1A4
100
AcDbEntity
  8
枠_表
  6
CONTINUOUS
 62
     2
100
AcDbVertex
100
AcDb2dVertex
 10
1118.4944675087
 20
771.0
 30
0.0
  0
VERTEX
  5
1A6
330
1A4
100
AcDbEntity
  8
枠_表
  6
CONTINUOUS
 62
     2
100
AcDbVertex
100
AcDb2dVertex
 10
1108.4944675087
 20
771.0
 30
0.0
  0
SEQEND
  5
1A7
330
1A4
100
AcDbEntity
  8
枠_表
  6
CONTINUOUS
 62
     2
  0
ARC
  5
1A8
330
1F
100
AcDbEntity
  8
枠_表
  6
CONTINUOUS
 62
     2
100
AcDbCircle
 10
1108.494467508699
 20
776.0
 30
0.0
 40
4.999999999999516
100
AcDbArc
 50
179.9999999999945
 51
270.0000000000056
  0
ARC
  5
1A9
330
1F
100
AcDbEntity
  8
枠_表
  6
CONTINUOUS
 62
     2
100
AcDbCircle
 10
953.5000000000418
 20
775.9999999999995
 30
0.0
 40
4.999999999999516
100
AcDbArc
 50
269.9999999999945
 51
0.0000000000055577
  0
POLYLINE
  5
1AA
330
1F
100
AcDbEntity
  8
枠_表
  6
CONTINUOUS
 62
     2
100
AcDb2dPolyline
 66
     1
 10
0.0
 20
0.0
 30
0.0
 70
   128
  0
VERTEX
  5
1AB
330
1AA
100
AcDbEntity
  8
枠_表
  6
CONTINUOUS
 62
     2
100
AcDbVertex
100
AcDb2dVertex
 10
953.5000000000418
 20
771.0
 30
0.0
  0
VERTEX
  5
1AC
330
1AA
100
AcDbEntity
  8
枠_表
  6
CONTINUOUS
 62
     2
100
AcDbVertex
100
AcDb2dVertex
 10
943.5000000000418
 20
771.0
 30
0.0
  0
SEQEND
  5
1AD
330
1AA
100
AcDbEntity
  8
枠_表
  6
CONTINUOUS
 62
     2
  0
ARC
  5
1AE
330
1F
100
AcDbEntity
  8
枠_表
  6
CONTINUOUS
 62
     2
100
AcDbCircle
 10
943.5000000000423
 20
776.0
 30
0.0
 40
5.000000000000292
100
AcDbArc
 50
180.0000000000034
 51
269.9999999999967
  0
CIRCLE
  5
1AF
330
1F
100
AcDbEntity
  8
枠_表
  6
CONTINUOUS
 62
     2
100
AcDbCircle
 10
433.4944675086999
 20
1491.0
 30
0.0
 40
2.000000000000338
  0
CIRCLE
  5
1B0
330
1F
100
AcDbEntity
  8
枠_表
  6
CONTINUOUS
 62
     2
100
AcDbCircle
 10
1073.4944675087
 20
1491.0
 30
0.0
 40
2.000000000000338
  0
POLYLINE
  5
1B1
330
1F
100
AcDbEntity
  8
枠_表
  6
CONTINUOUS
 62
     2
100
AcDb2dPolyline
 66
     1
 10
0.0
 20
0.0
 30
0.0
 70
   128
  0
VERTEX
  5
1B2
330
1B1
100
AcDbEntity
  8
枠_表
  6
CONTINUOUS
 62
     2
100
AcDbVertex
100
AcDb2dVertex
 10
383.4999262334704
 20
1546.0
 30
0.0
  0
VERTEX
  5
1B3
330
1B1
100
AcDbEntity
  8
枠_表
  6
CONTINUOUS
 62
     2
100
AcDbVertex
100
AcDb2dVertex
 10
1123.489008783909
 20
1546.0
 30
0.0
  0
SEQEND
  5
1B4
330
1B1
100
AcDbEntity
  8
枠_表
  6
CONTINUOUS
 62
     2
  0
ARC
  5
1B5
330
1F
100
AcDbEntity
  8
枠_表
  6
CONTINUOUS
 62
     2
100
AcDbCircle
 10
1123.48897190036
 20
1541.000036883002
 30
0.0
 40
4.999963117134
100
AcDbArc
 50
359.9995773488117
 51
89.99957734254542
  0
POLYLINE
  5
1B6
330
1F
100
AcDbEntity
  8
枠_表
  6
CONTINUOUS
 62
     2
100
AcDb2dPolyline
 66
     1
 10
0.0
 20
0.0
 30
0.0
 70
   128
  0
VERTEX
  5
1B7
330
1B6
100
AcDbEntity
  8
枠_表
  6
CONTINUOUS
 62
     2
100
AcDbVertex
100
AcDb2dVertex
 10
1128.488935017358
 20
1541.0
 30
0.0
  0
VERTEX
  5
1B8
330
1B6
100
AcDbEntity
  8
枠_表
  6
CONTINUOUS
 62
     2
100
AcDbVertex
100
AcDb2dVertex
 10
1128.488935017358
 20
501.0
 30
0.0
  0
SEQEND
  5
1B9
330
1B6
100
AcDbEntity
  8
枠_表
  6
CONTINUOUS
 62
     2
  0
ARC
  5
1BA
330
1F
100
AcDbEntity
  8
枠_表
  6
CONTINUOUS
 62
     2
100
AcDbCircle
 10
1123.48897190036
 20
500.9999631169979
 30
0.0
 40
4.999963117133986
100
AcDbArc
 50
270.0004226574544
 51
0.0004226511883973
  0
ARC
  5
1BB
330
1F
100
AcDbEntity
  8
枠_表
  6
CONTINUOUS
 62
     2
100
AcDbCircle
 10
383.4999631170185
 20
500.9999631169972
 30
0.0
 40
4.99996311713319
100
AcDbArc
 50
179.9995773488025
 51
269.9995773425545
  0
ARC
  5
1BC
330
1F
100
AcDbEntity
  8
枠_表
  6
CONTINUOUS
 62
     2
100
AcDbCircle
 10
383.4999631170194
 20
1541.000036883002
 30
0.0
 40
4.999963117133986
100
AcDbArc
 50
90.00042265745475
 51
180.0004226511884
  0
POLYLINE
  5
1BD
330
1F
100
AcDbEntity
  8
枠_表
  6
CONTINUOUS
 62
     2
100
AcDb2dPolyline
 66
     1
 10
0.0
 20
0.0
 30
0.0
 70
   128
  0
VERTEX
  5
1BE
330
1BD
100
AcDbEntity
  8
枠_表
  6
CONTINUOUS
 62
     2
100
AcDbVertex
100
AcDb2dVertex
 10
1696.5
 20
585.0
 30
0.0
  0
VERTEX
  5
1BF
330
1BD
100
AcDbEntity
  8
枠_表
  6
CONTINUOUS
 62
     2
100
AcDbVertex
100
AcDb2dVertex
 10
1700.5
 20
585.0
 30
0.0
  0
VERTEX
  5
1C0
330
1BD
100
AcDbEntity
  8
枠_表
  6
CONTINUOUS
 62
     2
100
AcDbVertex
100
AcDb2dVertex
 10
1700.5
 20
577.0
 30
0.0
  0
VERTEX
  5
1C1
330
1BD
100
AcDbEntity
  8
枠_表
  6
CONTINUOUS
 62
     2
100
AcDbVertex
100
AcDb2dVertex
 10
1696.5
 20
577.0
 30
0.0
  0
SEQEND
  5
1C2
330
1BD
100
AcDbEntity
  8
枠_表
  6
CONTINUOUS
 62
     2
  0
ARC
  5
1C3
330
1F
100
AcDbEntity
  8
枠_表
  6
CONTINUOUS
 62
     2
100
AcDbCircle
 10
1696.5
 20
581.0
 30
0.0
 40
4.0
100
AcDbArc
 50
90.00000000000001
 51
270.0
  0
LINE
  5
1C4
330
1F
100
AcDbEntity
  8
枠_表
  6
CONTINUOUS
 62
     2
100
AcDbLine
 10
1700.5
 20
1546.0
 30
0.0
 11
1700.5
 21
496.0
 31
0.0
  0
LINE
  5
1C5
330
1F
100
AcDbEntity
  8
枠_表
  6
CONTINUOUS
 62
     2
100
AcDbLine
 10
1700.5
 20
496.0
 30
0.0
 11
1685.5
 21
496.0
 31
0.0
  0
LINE
  5
1C6
330
1F
100
AcDbEntity
  8
枠_表
  6
CONTINUOUS
 62
     2
100
AcDbLine
 10
1600.5
 20
768.0000000000099
 30
0.0
 11
1600.5
 21
664.9600732931099
 31
0.0
  0
LINE
  5
1C7
330
1F
100
AcDbEntity
  8
枠_表
  6
CONTINUOUS
 62
     2
100
AcDbLine
 10
1604.354803331373
 20
660.0929874514422
 30
0.0
 11
1676.645196668627
 21
650.1423066662055
 31
0.0
  0
ARC
  5
1C8
330
1F
100
AcDbEntity
  8
枠_表
  6
CONTINUOUS
 62
     2
100
AcDbCircle
 10
1605.5
 20
664.9600732931099
 30
0.0
 40
5.0
100
AcDbArc
 50
180.0
 51
256.7594800848177
  0
ARC
  5
1C9
330
1F
100
AcDbEntity
  8
枠_表
  6
CONTINUOUS
 62
     2
100
AcDbCircle
 10
1675.5
 20
645.2752208245374
 30
0.0
 40
5.0
100
AcDbArc
 50
0.0
 51
76.75948008481878
  0
ARC
  5
1CA
330
1F
100
AcDbEntity
  8
枠_表
  6
CONTINUOUS
 62
     2
100
AcDbCircle
 10
1685.5
 20
501.0
 30
0.0
 40
5.0
100
AcDbArc
 50
180.0
 51
270.0
  0
POLYLINE
  5
1CB
330
1F
100
AcDbEntity
  8
枠_表
  6
CONTINUOUS
 62
     2
100
AcDb2dPolyline
 66
     1
 10
0.0
 20
0.0
 30
0.0
 70
   128
  0
VERTEX
  5
1CC
330
1CB
100
AcDbEntity
  8
枠_表
  6
CONTINUOUS
 62
     2
100
AcDbVertex
100
AcDb2dVertex
 10
1593.5
 20
711.0
 30
0.0
  0
VERTEX
  5
1CD
330
1CB
100
AcDbEntity
  8
枠_表
  6
CONTINUOUS
 62
     2
100
AcDbVertex
100
AcDb2dVertex
 10
1600.5
 20
711.0
 30
0.0
  0
VERTEX
  5
1CE
330
1CB
100
AcDbEntity
  8
枠_表
  6
CONTINUOUS
 62
     2
100
AcDbVertex
100
AcDb2dVertex
 10
1600.5
 20
676.0
 30
0.0
  0
VERTEX
  5
1CF
330
1CB
100
AcDbEntity
  8
枠_表
  6
CONTINUOUS
 62
     2
100
AcDbVertex
100
AcDb2dVertex
 10
1593.5
 20
676.0
 30
0.0
  0
VERTEX
  5
1D0
330
1CB
100
AcDbEntity
  8
枠_表
  6
CONTINUOUS
 62
     2
100
AcDbVertex
100
AcDb2dVertex
 10
1593.5
 20
711.0
 30
0.0
  0
SEQEND
  5
1D1
330
1CB
100
AcDbEntity
  8
枠_表
  6
CONTINUOUS
 62
     2
  0
LINE
  5
1D2
330
1F
100
AcDbEntity
  8
枠_表
  6
CONTINUOUS
 62
     2
100
AcDbLine
 10
1680.5
 20
501.0
 30
0.0
 11
1680.5
 21
645.2752208245374
 31
0.0
  0
LINE
  5
1D3
330
1F
100
AcDbEntity
  8
枠_表
  6
CONTINUOUS
 62
     2
100
AcDbLine
 10
1595.5
 20
1359.00000000001
 30
0.0
 11
1595.5
 21
773.0000000000099
 31
0.0
  0
ARC
  5
1D4
330
1F
100
AcDbEntity
  8
枠_表
  6
CONTINUOUS
 62
     2
100
AcDbCircle
 10
1597.5
 20
768.0000000000099
 30
0.0
 40
3.0
100
AcDbArc
 50
0.0
 51
90.00000000000001
  0
ARC
  5
1D5
330
1F
100
AcDbEntity
  8
枠_表
  6
CONTINUOUS
 62
     2
100
AcDbCircle
 10
1597.5
 20
773.0000000000099
 30
0.0
 40
2.0
100
AcDbArc
 50
180.0
 51
270.0
  0
ARC
  5
1D6
330
1F
100
AcDbEntity
  8
枠_表
  6
CONTINUOUS
 62
     2
100
AcDbCircle
 10
1597.5
 20
1359.00000000001
 30
0.0
 40
2.0
100
AcDbArc
 50
90.00000000000001
 51
180.0
  0
ARC
  5
1D7
330
1F
100
AcDbEntity
  8
枠_表
  6
CONTINUOUS
 62
     2
100
AcDbCircle
 10
1597.5
 20
1364.00000000001
 30
0.0
 40
3.0
100
AcDbArc
 50
270.0
 51
0.0
  0
LINE
  5
1D8
330
1F
100
AcDbEntity
  8
枠_表
  6
CONTINUOUS
 62
     2
100
AcDbLine
 10
1700.5
 20
1546.0
 30
0.0
 11
1605.5
 21
1546.0
 31
0.0
  0
ARC
  5
1D9
330
1F
100
AcDbEntity
  8
枠_表
  6
CONTINUOUS
 62
     2
100
AcDbCircle
 10
1605.5
 20
1541.0
 30
0.0
 40
5.0
100
AcDbArc
 50
90.00000000000001
 51
180.0
  0
LINE
  5
1DA
330
1F
100
AcDbEntity
  8
枠_表
  6
CONTINUOUS
 62
     2
100
AcDbLine
 10
1600.5
 20
1541.0
 30
0.0
 11
1600.5
 21
1364.0
 31
0.0
  0
LINE
  5
1DB
330
1F
100
AcDbEntity
  8
枠_表
  6
CONTINUOUS
 62
     2
100
AcDbLine
 10
1600.5
 20
1541.0
 30
0.0
 11
1600.5
 21
1437.500000225621
 31
0.0
  0
POLYLINE
  5
1DC
330
1F
100
AcDbEntity
  8
枠_表
  6
CONTINUOUS
 62
     2
100
AcDb2dPolyline
 66
     1
 10
0.0
 20
0.0
 30
0.0
 70
   128
  0
VERTEX
  5
1DD
330
1DC
100
AcDbEntity
  8
枠_表
  6
CONTINUOUS
 62
     2
100
AcDbVertex
100
AcDb2dVertex
 10
1540.5
 20
1518.103199118194
 30
0.0
  0
VERTEX
  5
1DE
330
1DC
100
AcDbEntity
  8
枠_表
  6
CONTINUOUS
 62
     2
100
AcDbVertex
100
AcDb2dVertex
 10
1540.5
 20
1451.126619836454
 30
0.0
  0
SEQEND
  5
1DF
330
1DC
100
AcDbEntity
  8
枠_表
  6
CONTINUOUS
 62
     2
  0
ARC
  5
1E0
330
1F
100
AcDbEntity
  8
枠_表
  6
CONTINUOUS
 62
     2
100
AcDbCircle
 10
1550.432443158591
 20
1451.164364035355
 30
0.0
 40
9.932514874048659
100
AcDbArc
 50
180.2177281917423
 51
261.0498999193213
  0
POLYLINE
  5
1E1
330
1F
100
AcDbEntity
  8
枠_表
  6
CONTINUOUS
 62
     2
100
AcDb2dPolyline
 66
     1
 10
0.0
 20
0.0
 30
0.0
 70
   128
  0
VERTEX
  5
1E2
330
1E1
100
AcDbEntity
  8
枠_表
  6
CONTINUOUS
 62
     2
100
AcDbVertex
100
AcDb2dVertex
 10
1548.887200000002
 20
1441.3527854007
 30
0.0
  0
VERTEX
  5
1E3
330
1E1
100
AcDbEntity
  8
枠_表
  6
CONTINUOUS
 62
     2
100
AcDbVertex
100
AcDb2dVertex
 10
1600.5
 20
1433.0
 30
0.0
  0
VERTEX
  5
1E4
330
1E1
100
AcDbEntity
  8
枠_表
  6
CONTINUOUS
 62
     2
100
AcDbVertex
100
AcDb2dVertex
 10
1600.5
 20
1533.0
 30
0.0
  0
VERTEX
  5
1E5
330
1E1
100
AcDbEntity
  8
枠_表
  6
CONTINUOUS
 62
     2
100
AcDbVertex
100
AcDb2dVertex
 10
1549.506477740268
 20
1527.957670860793
 30
0.0
  0
SEQEND
  5
1E6
330
1E1
100
AcDbEntity
  8
枠_表
  6
CONTINUOUS
 62
     2
  0
ARC
  5
1E7
330
1F
100
AcDbEntity
  8
枠_表
  6
CONTINUOUS
 62
     2
100
AcDbCircle
 10
1550.440120326388
 20
1518.061406401127
 30
0.0
 40
9.940208183648503
100
AcDbArc
 50
95.38949959134817
 51
179.7591043051668
  0
POLYLINE
  5
1E8
330
1F
100
AcDbEntity
  8
枠_表
  6
CONTINUOUS
 62
     2
100
AcDb2dPolyline
 66
     1
 10
0.0
 20
0.0
 30
0.0
 70
   128
  0
VERTEX
  5
1E9
330
1E8
100
AcDbEntity
  8
枠_表
  6
CONTINUOUS
 62
     2
100
AcDbVertex
100
AcDb2dVertex
 10
1128.499999999995
 20
2001.0
 30
0.0
  0
VERTEX
  5
1EA
330
1E8
100
AcDbEntity
  8
枠_表
  6
CONTINUOUS
 62
     2
100
AcDbVertex
100
AcDb2dVertex
 10
378.4999999999951
 20
2001.0
 30
0.0
  0
VERTEX
  5
1EB
330
1E8
100
AcDbEntity
  8
枠_表
  6
CONTINUOUS
 62
     2
100
AcDbVertex
100
AcDb2dVertex
 10
378.4999999999951
 20
2021.0
 30
0.0
  0
VERTEX
  5
1EC
330
1E8
100
AcDbEntity
  8
枠_表
  6
CONTINUOUS
 62
     2
100
AcDbVertex
100
AcDb2dVertex
 10
1128.499999999995
 20
2021.0
 30
0.0
  0
VERTEX
  5
1ED
330
1E8
100
AcDbEntity
  8
枠_表
  6
CONTINUOUS
 62
     2
100
AcDbVertex
100
AcDb2dVertex
 10
1128.499999999995
 20
2001.0
 30
0.0
  0
SEQEND
  5
1EE
330
1E8
100
AcDbEntity
  8
枠_表
  6
CONTINUOUS
 62
     2
  0
LINE
  5
1EF
330
1F
100
AcDbEntity
  8
枠_表
  6
CONTINUOUS
 62
     2
100
AcDbLine
 10
378.4999999999951
 20
2001.0
 30
0.0
 11
381.3917157868115
 21
1923.887579018233
 31
0.0
  0
LINE
  5
1F0
330
1F
100
AcDbEntity
  8
枠_表
  6
CONTINUOUS
 62
     2
100
AcDbLine
 10
1128.499999999995
 20
2001.0
 30
0.0
 11
1125.608284213179
 21
1923.887579018233
 31
0.0
  0
LINE
  5
1F1
330
1F
100
AcDbEntity
  8
枠_表
  6
CONTINUOUS
 62
     2
100
AcDbLine
 10
1122.610391366051
 20
1921.0
 30
0.0
 11
384.3896086339388
 21
1921.0
 31
0.0
  0
ARC
  5
1F2
330
1F
100
AcDbEntity
  8
枠_表
  6
CONTINUOUS
 62
     2
100
AcDbCircle
 10
1122.610391366051
 20
1924.0
 30
0.0
 40
3.000000000000114
100
AcDbArc
 50
270.0
 51
357.8524145716991
  0
ARC
  5
1F3
330
1F
100
AcDbEntity
  8
枠_表
  6
CONTINUOUS
 62
     2
100
AcDbCircle
 10
384.3896086339388
 20
1924.0
 30
0.0
 40
2.99999999999979
100
AcDbArc
 50
182.1475854282987
 51
270.0
  0
POLYLINE
  5
1F4
330
1F
100
AcDbEntity
  8
枠_表
  6
CONTINUOUS
 62
     2
100
AcDb2dPolyline
 66
     1
 10
0.0
 20
0.0
 30
0.0
 70
   128
  0
VERTEX
  5
1F5
330
1F4
100
AcDbEntity
  8
枠_表
  6
CONTINUOUS
 62
     2
100
AcDbVertex
100
AcDb2dVertex
 10
1068.799663404127
 20
1881.447638730993
 30
0.0
  0
VERTEX
  5
1F6
330
1F4
100
AcDbEntity
  8
枠_表
  6
CONTINUOUS
 62
     2
100
AcDbVertex
100
AcDb2dVertex
 10
1068.790289969762
 20
1881.443938080771
 30
0.0
  0
VERTEX
  5
1F7
330
1F4
100
AcDbEntity
  8
枠_表
  6
CONTINUOUS
 62
     2
100
AcDbVertex
100
AcDb2dVertex
 10
1068.780907424175
 20
1881.440269656406
 30
0.0
  0
VERTEX
  5
1F8
330
1F4
100
AcDbEntity
  8
枠_表
  6
CONTINUOUS
 62
     2
100
AcDbVertex
100
AcDb2dVertex
 10
1068.771515767367
 20
1881.436633457898
 30
0.0
  0
VERTEX
  5
1F9
330
1F4
100
AcDbEntity
  8
枠_表
  6
CONTINUOUS
 62
     2
100
AcDbVertex
100
AcDb2dVertex
 10
1068.762114999337
 20
1881.433029485246
 30
0.0
  0
VERTEX
  5
1FA
330
1F4
100
AcDbEntity
  8
枠_表
  6
CONTINUOUS
 62
     2
100
AcDbVertex
100
AcDb2dVertex
 10
1068.752705120085
 20
1881.42945773845
 30
0.0
  0
VERTEX
  5
1FB
330
1F4
100
AcDbEntity
  8
枠_表
  6
CONTINUOUS
 62
     2
100
AcDbVertex
100
AcDb2dVertex
 10
1068.743286129612
 20
1881.425918217512
 30
0.0
  0
VERTEX
  5
1FC
330
1F4
100
AcDbEntity
  8
枠_表
  6
CONTINUOUS
 62
     2
100
AcDbVertex
100
AcDb2dVertex
 10
1068.733858027917
 20
1881.422410922429
 30
0.0
  0
VERTEX
  5
1FD
330
1F4
100
AcDbEntity
  8
枠_表
  6
CONTINUOUS
 62
     2
100
AcDbVertex
100
AcDb2dVertex
 10
1068.724420815001
 20
1881.418935853204
 30
0.0
  0
VERTEX
  5
1FE
330
1F4
100
AcDbEntity
  8
枠_表
  6
CONTINUOUS
 62
     2
100
AcDbVertex
100
AcDb2dVertex
 10
1068.714974490863
 20
1881.415493009835
 30
0.0
  0
VERTEX
  5
1FF
330
1F4
100
AcDbEntity
  8
枠_表
  6
CONTINUOUS
 62
     2
100
AcDbVertex
100
AcDb2dVertex
 10
1068.705519055504
 20
1881.412082392323
 30
0.0
  0
VERTEX
  5
200
330
1F4
100
AcDbEntity
  8
枠_表
  6
CONTINUOUS
 62
     2
100
AcDbVertex
100
AcDb2dVertex
 10
1068.696054508923
 20
1881.408704000667
 30
0.0
  0
VERTEX
  5
201
330
1F4
100
AcDbEntity
  8
枠_表
  6
CONTINUOUS
 62
     2
100
AcDbVertex
100
AcDb2dVertex
 10
1068.686580851121
 20
1881.405357834868
 30
0.0
  0
VERTEX
  5
202
330
1F4
100
AcDbEntity
  8
枠_表
  6
CONTINUOUS
 62
     2
100
AcDbVertex
100
AcDb2dVertex
 10
1068.677098082097
 20
1881.402043894925
 30
0.0
  0
VERTEX
  5
203
330
1F4
100
AcDbEntity
  8
枠_表
  6
CONTINUOUS
 62
     2
100
AcDbVertex
100
AcDb2dVertex
 10
1068.667606201851
 20
1881.398762180839
 30
0.0
  0
VERTEX
  5
204
330
1F4
100
AcDbEntity
  8
枠_表
  6
CONTINUOUS
 62
     2
100
AcDbVertex
100
AcDb2dVertex
 10
1068.658105210384
 20
1881.39551269261
 30
0.0
  0
VERTEX
  5
205
330
1F4
100
AcDbEntity
  8
枠_表
  6
CONTINUOUS
 62
     2
100
AcDbVertex
100
AcDb2dVertex
 10
1068.648595107696
 20
1881.392295430237
 30
0.0
  0
VERTEX
  5
206
330
1F4
100
AcDbEntity
  8
枠_表
  6
CONTINUOUS
 62
     2
100
AcDbVertex
100
AcDb2dVertex
 10
1068.639075893786
 20
1881.389110393721
 30
0.0
  0
VERTEX
  5
207
330
1F4
100
AcDbEntity
  8
枠_表
  6
CONTINUOUS
 62
     2
100
AcDbVertex
100
AcDb2dVertex
 10
1068.629547568654
 20
1881.385957583061
 30
0.0
  0
VERTEX
  5
208
330
1F4
100
AcDbEntity
  8
枠_表
  6
CONTINUOUS
 62
     2
100
AcDbVertex
100
AcDb2dVertex
 10
1068.620010132301
 20
1881.382836998258
 30
0.0
  0
VERTEX
  5
209
330
1F4
100
AcDbEntity
  8
枠_表
  6
CONTINUOUS
 62
     2
100
AcDbVertex
100
AcDb2dVertex
 10
1068.610463584726
 20
1881.379748639312
 30
0.0
  0
VERTEX
  5
20A
330
1F4
100
AcDbEntity
  8
枠_表
  6
CONTINUOUS
 62
     2
100
AcDbVertex
100
AcDb2dVertex
 10
1068.60090792593
 20
1881.376692506222
 30
0.0
  0
VERTEX
  5
20B
330
1F4
100
AcDbEntity
  8
枠_表
  6
CONTINUOUS
 62
     2
100
AcDbVertex
100
AcDb2dVertex
 10
1068.591343155912
 20
1881.373668598989
 30
0.0
  0
VERTEX
  5
20C
330
1F4
100
AcDbEntity
  8
枠_表
  6
CONTINUOUS
 62
     2
100
AcDbVertex
100
AcDb2dVertex
 10
1068.581769274673
 20
1881.370676917612
 30
0.0
  0
VERTEX
  5
20D
330
1F4
100
AcDbEntity
  8
枠_表
  6
CONTINUOUS
 62
     2
100
AcDbVertex
100
AcDb2dVertex
 10
1068.572186282212
 20
1881.367717462093
 30
0.0
  0
VERTEX
  5
20E
330
1F4
100
AcDbEntity
  8
枠_表
  6
CONTINUOUS
 62
     2
100
AcDbVertex
100
AcDb2dVertex
 10
1068.562594178529
 20
1881.364790232429
 30
0.0
  0
VERTEX
  5
20F
330
1F4
100
AcDbEntity
  8
枠_表
  6
CONTINUOUS
 62
     2
100
AcDbVertex
100
AcDb2dVertex
 10
1068.552992963625
 20
1881.361895228622
 30
0.0
  0
VERTEX
  5
210
330
1F4
100
AcDbEntity
  8
枠_表
  6
CONTINUOUS
 62
     2
100
AcDbVertex
100
AcDb2dVertex
 10
1068.5433826375
 20
1881.359032450672
 30
0.0
  0
VERTEX
  5
211
330
1F4
100
AcDbEntity
  8
枠_表
  6
CONTINUOUS
 62
     2
100
AcDbVertex
100
AcDb2dVertex
 10
1068.533763200153
 20
1881.356201898579
 30
0.0
  0
VERTEX
  5
212
330
1F4
100
AcDbEntity
  8
枠_表
  6
CONTINUOUS
 62
     2
100
AcDbVertex
100
AcDb2dVertex
 10
1068.524134651585
 20
1881.353403572342
 30
0.0
  0
VERTEX
  5
213
330
1F4
100
AcDbEntity
  8
枠_表
  6
CONTINUOUS
 62
     2
100
AcDbVertex
100
AcDb2dVertex
 10
1068.514496991794
 20
1881.350637471961
 30
0.0
  0
VERTEX
  5
214
330
1F4
100
AcDbEntity
  8
枠_表
  6
CONTINUOUS
 62
     2
100
AcDbVertex
100
AcDb2dVertex
 10
1068.504850220783
 20
1881.347903597437
 30
0.0
  0
VERTEX
  5
215
330
1F4
100
AcDbEntity
  8
枠_表
  6
CONTINUOUS
 62
     2
100
AcDbVertex
100
AcDb2dVertex
 10
1068.495194338549
 20
1881.34520194877
 30
0.0
  0
VERTEX
  5
216
330
1F4
100
AcDbEntity
  8
枠_表
  6
CONTINUOUS
 62
     2
100
AcDbVertex
100
AcDb2dVertex
 10
1068.485529345095
 20
1881.34253252596
 30
0.0
  0
VERTEX
  5
217
330
1F4
100
AcDbEntity
  8
枠_表
  6
CONTINUOUS
 62
     2
100
AcDbVertex
100
AcDb2dVertex
 10
1068.475855240418
 20
1881.339895329005
 30
0.0
  0
VERTEX
  5
218
330
1F4
100
AcDbEntity
  8
枠_表
  6
CONTINUOUS
 62
     2
100
AcDbVertex
100
AcDb2dVertex
 10
1068.466172024521
 20
1881.337290357908
 30
0.0
  0
VERTEX
  5
219
330
1F4
100
AcDbEntity
  8
枠_表
  6
CONTINUOUS
 62
     2
100
AcDbVertex
100
AcDb2dVertex
 10
1068.456479697401
 20
1881.334717612667
 30
0.0
  0
VERTEX
  5
21A
330
1F4
100
AcDbEntity
  8
枠_表
  6
CONTINUOUS
 62
     2
100
AcDbVertex
100
AcDb2dVertex
 10
1068.44677825906
 20
1881.332177093283
 30
0.0
  0
VERTEX
  5
21B
330
1F4
100
AcDbEntity
  8
枠_表
  6
CONTINUOUS
 62
     2
100
AcDbVertex
100
AcDb2dVertex
 10
1068.437067709498
 20
1881.329668799756
 30
0.0
  0
VERTEX
  5
21C
330
1F4
100
AcDbEntity
  8
枠_表
  6
CONTINUOUS
 62
     2
100
AcDbVertex
100
AcDb2dVertex
 10
1068.427348048714
 20
1881.327192732085
 30
0.0
  0
VERTEX
  5
21D
330
1F4
100
AcDbEntity
  8
枠_表
  6
CONTINUOUS
 62
     2
100
AcDbVertex
100
AcDb2dVertex
 10
1068.417619276709
 20
1881.32474889027
 30
0.0
  0
VERTEX
  5
21E
330
1F4
100
AcDbEntity
  8
枠_表
  6
CONTINUOUS
 62
     2
100
AcDbVertex
100
AcDb2dVertex
 10
1068.407881393482
 20
1881.322337274313
 30
0.0
  0
VERTEX
  5
21F
330
1F4
100
AcDbEntity
  8
枠_表
  6
CONTINUOUS
 62
     2
100
AcDbVertex
100
AcDb2dVertex
 10
1068.398134399033
 20
1881.319957884211
 30
0.0
  0
VERTEX
  5
220
330
1F4
100
AcDbEntity
  8
枠_表
  6
CONTINUOUS
 62
     2
100
AcDbVertex
100
AcDb2dVertex
 10
1068.388378293363
 20
1881.317610719967
 30
0.0
  0
VERTEX
  5
221
330
1F4
100
AcDbEntity
  8
枠_表
  6
CONTINUOUS
 62
     2
100
AcDbVertex
100
AcDb2dVertex
 10
1068.378613076471
 20
1881.315295781578
 30
0.0
  0
VERTEX
  5
222
330
1F4
100
AcDbEntity
  8
枠_表
  6
CONTINUOUS
 62
     2
100
AcDbVertex
100
AcDb2dVertex
 10
1068.368838748358
 20
1881.313013069047
 30
0.0
  0
VERTEX
  5
223
330
1F4
100
AcDbEntity
  8
枠_表
  6
CONTINUOUS
 62
     2
100
AcDbVertex
100
AcDb2dVertex
 10
1068.359055309023
 20
1881.310762582372
 30
0.0
  0
VERTEX
  5
224
330
1F4
100
AcDbEntity
  8
枠_表
  6
CONTINUOUS
 62
     2
100
AcDbVertex
100
AcDb2dVertex
 10
1068.349262758467
 20
1881.308544321554
 30
0.0
  0
VERTEX
  5
225
330
1F4
100
AcDbEntity
  8
枠_表
  6
CONTINUOUS
 62
     2
100
AcDbVertex
100
AcDb2dVertex
 10
1068.339461096689
 20
1881.306358286593
 30
0.0
  0
VERTEX
  5
226
330
1F4
100
AcDbEntity
  8
枠_表
  6
CONTINUOUS
 62
     2
100
AcDbVertex
100
AcDb2dVertex
 10
1068.32965032369
 20
1881.304204477487
 30
0.0
  0
VERTEX
  5
227
330
1F4
100
AcDbEntity
  8
枠_表
  6
CONTINUOUS
 62
     2
100
AcDbVertex
100
AcDb2dVertex
 10
1068.319830439469
 20
1881.302082894239
 30
0.0
  0
VERTEX
  5
228
330
1F4
100
AcDbEntity
  8
枠_表
  6
CONTINUOUS
 62
     2
100
AcDbVertex
100
AcDb2dVertex
 10
1068.310001444027
 20
1881.299993536847
 30
0.0
  0
VERTEX
  5
229
330
1F4
100
AcDbEntity
  8
枠_表
  6
CONTINUOUS
 62
     2
100
AcDbVertex
100
AcDb2dVertex
 10
1068.300163337362
 20
1881.297936405312
 30
0.0
  0
VERTEX
  5
22A
330
1F4
100
AcDbEntity
  8
枠_表
  6
CONTINUOUS
 62
     2
100
AcDbVertex
100
AcDb2dVertex
 10
1068.290316119477
 20
1881.295911499633
 30
0.0
  0
VERTEX
  5
22B
330
1F4
100
AcDbEntity
  8
枠_表
  6
CONTINUOUS
 62
     2
100
AcDbVertex
100
AcDb2dVertex
 10
1068.28045979037
 20
1881.293918819811
 30
0.0
  0
VERTEX
  5
22C
330
1F4
100
AcDbEntity
  8
枠_表
  6
CONTINUOUS
 62
     2
100
AcDbVertex
100
AcDb2dVertex
 10
1068.270594350041
 20
1881.291958365846
 30
0.0
  0
VERTEX
  5
22D
330
1F4
100
AcDbEntity
  8
枠_表
  6
CONTINUOUS
 62
     2
100
AcDbVertex
100
AcDb2dVertex
 10
1068.260719798491
 20
1881.290030137737
 30
0.0
  0
VERTEX
  5
22E
330
1F4
100
AcDbEntity
  8
枠_表
  6
CONTINUOUS
 62
     2
100
AcDbVertex
100
AcDb2dVertex
 10
1068.25083613572
 20
1881.288134135485
 30
0.0
  0
VERTEX
  5
22F
330
1F4
100
AcDbEntity
  8
枠_表
  6
CONTINUOUS
 62
     2
100
AcDbVertex
100
AcDb2dVertex
 10
1068.240943361726
 20
1881.286270359089
 30
0.0
  0
VERTEX
  5
230
330
1F4
100
AcDbEntity
  8
枠_表
  6
CONTINUOUS
 62
     2
100
AcDbVertex
100
AcDb2dVertex
 10
1068.231041476512
 20
1881.28443880855
 30
0.0
  0
VERTEX
  5
231
330
1F4
100
AcDbEntity
  8
枠_表
  6
CONTINUOUS
 62
     2
100
AcDbVertex
100
AcDb2dVertex
 10
1068.221130480075
 20
1881.282639483868
 30
0.0
  0
VERTEX
  5
232
330
1F4
100
AcDbEntity
  8
枠_表
  6
CONTINUOUS
 62
     2
100
AcDbVertex
100
AcDb2dVertex
 10
1068.211210372417
 20
1881.280872385042
 30
0.0
  0
VERTEX
  5
233
330
1F4
100
AcDbEntity
  8
枠_表
  6
CONTINUOUS
 62
     2
100
AcDbVertex
100
AcDb2dVertex
 10
1068.201281153538
 20
1881.279137512073
 30
0.0
  0
VERTEX
  5
234
330
1F4
100
AcDbEntity
  8
枠_表
  6
CONTINUOUS
 62
     2
100
AcDbVertex
100
AcDb2dVertex
 10
1068.191342823437
 20
1881.27743486496
 30
0.0
  0
VERTEX
  5
235
330
1F4
100
AcDbEntity
  8
枠_表
  6
CONTINUOUS
 62
     2
100
AcDbVertex
100
AcDb2dVertex
 10
1068.181395382114
 20
1881.275764443704
 30
0.0
  0
SEQEND
  5
236
330
1F4
100
AcDbEntity
  8
枠_表
  6
CONTINUOUS
 62
     2
  0
ARC
  5
237
330
1F
100
AcDbEntity
  8
枠_表
  6
CONTINUOUS
 62
     2
100
AcDbCircle
 10
753.499999999996
 20
4313.077392679629
 30
0.0
 40
2452.077392679631
100
AcDbArc
 50
262.6267514329845
 51
277.3732485670155
  0
POLYLINE
  5
238
330
1F
100
AcDbEntity
  8
枠_表
  6
CONTINUOUS
 62
     2
100
AcDb2dPolyline
 66
     1
 10
0.0
 20
0.0
 30
0.0
 70
   128
  0
VERTEX
  5
239
330
238
100
AcDbEntity
  8
枠_表
  6
CONTINUOUS
 62
     2
100
AcDbVertex
100
AcDb2dVertex
 10
438.8186046178763
 20
1881.275764443704
 30
0.0
  0
VERTEX
  5
23A
330
238
100
AcDbEntity
  8
枠_表
  6
CONTINUOUS
 62
     2
100
AcDbVertex
100
AcDb2dVertex
 10
438.8086571912019
 20
1881.27743486496
 30
0.0
  0
VERTEX
  5
23B
330
238
100
AcDbEntity
  8
枠_表
  6
CONTINUOUS
 62
     2
100
AcDbVertex
100
AcDb2dVertex
 10
438.7987189050465
 20
1881.279137512073
 30
0.0
  0
VERTEX
  5
23C
330
238
100
AcDbEntity
  8
枠_表
  6
CONTINUOUS
 62
     2
100
AcDbVertex
100
AcDb2dVertex
 10
438.7887897594093
 20
1881.280872385042
 30
0.0
  0
VERTEX
  5
23D
330
238
100
AcDbEntity
  8
枠_表
  6
CONTINUOUS
 62
     2
100
AcDbVertex
100
AcDb2dVertex
 10
438.7788697542907
 20
1881.282639483868
 30
0.0
  0
VERTEX
  5
23E
330
238
100
AcDbEntity
  8
枠_表
  6
CONTINUOUS
 62
     2
100
AcDbVertex
100
AcDb2dVertex
 10
438.7689588896902
 20
1881.28443880855
 30
0.0
  0
VERTEX
  5
23F
330
238
100
AcDbEntity
  8
枠_表
  6
CONTINUOUS
 62
     2
100
AcDbVertex
100
AcDb2dVertex
 10
438.7590571656079
 20
1881.286270359089
 30
0.0
  0
VERTEX
  5
240
330
238
100
AcDbEntity
  8
枠_表
  6
CONTINUOUS
 62
     2
100
AcDbVertex
100
AcDb2dVertex
 10
438.7491645820443
 20
1881.288134135485
 30
0.0
  0
VERTEX
  5
241
330
238
100
AcDbEntity
  8
枠_表
  6
CONTINUOUS
 62
     2
100
AcDbVertex
100
AcDb2dVertex
 10
438.7392811389992
 20
1881.290030137737
 30
0.0
  0
VERTEX
  5
242
330
238
100
AcDbEntity
  8
枠_表
  6
CONTINUOUS
 62
     2
100
AcDbVertex
100
AcDb2dVertex
 10
438.7294068364728
 20
1881.291958365846
 30
0.0
  0
VERTEX
  5
243
330
238
100
AcDbEntity
  8
枠_表
  6
CONTINUOUS
 62
     2
100
AcDbVertex
100
AcDb2dVertex
 10
438.7195416744645
 20
1881.293918819811
 30
0.0
  0
VERTEX
  5
244
330
238
100
AcDbEntity
  8
枠_表
  6
CONTINUOUS
 62
     2
100
AcDbVertex
100
AcDb2dVertex
 10
438.7096856529744
 20
1881.295911499633
 30
0.0
  0
VERTEX
  5
245
330
238
100
AcDbEntity
  8
枠_表
  6
CONTINUOUS
 62
     2
100
AcDbVertex
100
AcDb2dVertex
 10
438.6998387720029
 20
1881.297936405312
 30
0.0
  0
VERTEX
  5
246
330
238
100
AcDbEntity
  8
枠_表
  6
CONTINUOUS
 62
     2
100
AcDbVertex
100
AcDb2dVertex
 10
438.69000103155
 20
1881.299993536847
 30
0.0
  0
VERTEX
  5
247
330
238
100
AcDbEntity
  8
枠_表
  6
CONTINUOUS
 62
     2
100
AcDbVertex
100
AcDb2dVertex
 10
438.6801724316152
 20
1881.302082894239
 30
0.0
  0
VERTEX
  5
248
330
238
100
AcDbEntity
  8
枠_表
  6
CONTINUOUS
 62
     2
100
AcDbVertex
100
AcDb2dVertex
 10
438.6703529721987
 20
1881.304204477487
 30
0.0
  0
VERTEX
  5
249
330
238
100
AcDbEntity
  8
枠_表
  6
CONTINUOUS
 62
     2
100
AcDbVertex
100
AcDb2dVertex
 10
438.6605426533011
 20
1881.306358286593
 30
0.0
  0
VERTEX
  5
24A
330
238
100
AcDbEntity
  8
枠_表
  6
CONTINUOUS
 62
     2
100
AcDbVertex
100
AcDb2dVertex
 10
438.6507414749218
 20
1881.308544321554
 30
0.0
  0
VERTEX
  5
24B
330
238
100
AcDbEntity
  8
枠_表
  6
CONTINUOUS
 62
     2
100
AcDbVertex
100
AcDb2dVertex
 10
438.6409494370606
 20
1881.310762582372
 30
0.0
  0
VERTEX
  5
24C
330
238
100
AcDbEntity
  8
枠_表
  6
CONTINUOUS
 62
     2
100
AcDbVertex
100
AcDb2dVertex
 10
438.631166539718
 20
1881.313013069047
 30
0.0
  0
VERTEX
  5
24D
330
238
100
AcDbEntity
  8
枠_表
  6
CONTINUOUS
 62
     2
100
AcDbVertex
100
AcDb2dVertex
 10
438.6213927828936
 20
1881.315295781578
 30
0.0
  0
VERTEX
  5
24E
330
238
100
AcDbEntity
  8
枠_表
  6
CONTINUOUS
 62
     2
100
AcDbVertex
100
AcDb2dVertex
 10
438.6116281665878
 20
1881.317610719967
 30
0.0
  0
VERTEX
  5
24F
330
238
100
AcDbEntity
  8
枠_表
  6
CONTINUOUS
 62
     2
100
AcDbVertex
100
AcDb2dVertex
 10
438.6018726908006
 20
1881.319957884211
 30
0.0
  0
VERTEX
  5
250
330
238
100
AcDbEntity
  8
枠_表
  6
CONTINUOUS
 62
     2
100
AcDbVertex
100
AcDb2dVertex
 10
438.5921263555316
 20
1881.322337274313
 30
0.0
  0
VERTEX
  5
251
330
238
100
AcDbEntity
  8
枠_表
  6
CONTINUOUS
 62
     2
100
AcDbVertex
100
AcDb2dVertex
 10
438.5823891607812
 20
1881.32474889027
 30
0.0
  0
VERTEX
  5
252
330
238
100
AcDbEntity
  8
枠_表
  6
CONTINUOUS
 62
     2
100
AcDbVertex
100
AcDb2dVertex
 10
438.5726611065489
 20
1881.327192732085
 30
0.0
  0
VERTEX
  5
253
330
238
100
AcDbEntity
  8
枠_表
  6
CONTINUOUS
 62
     2
100
AcDbVertex
100
AcDb2dVertex
 10
438.5629421928353
 20
1881.329668799756
 30
0.0
  0
VERTEX
  5
254
330
238
100
AcDbEntity
  8
枠_表
  6
CONTINUOUS
 62
     2
100
AcDbVertex
100
AcDb2dVertex
 10
438.5532324196398
 20
1881.332177093283
 30
0.0
  0
VERTEX
  5
255
330
238
100
AcDbEntity
  8
枠_表
  6
CONTINUOUS
 62
     2
100
AcDbVertex
100
AcDb2dVertex
 10
438.5435317869629
 20
1881.334717612667
 30
0.0
  0
VERTEX
  5
256
330
238
100
AcDbEntity
  8
枠_表
  6
CONTINUOUS
 62
     2
100
AcDbVertex
100
AcDb2dVertex
 10
438.5338402948047
 20
1881.337290357908
 30
0.0
  0
VERTEX
  5
257
330
238
100
AcDbEntity
  8
枠_表
  6
CONTINUOUS
 62
     2
100
AcDbVertex
100
AcDb2dVertex
 10
438.5241579431646
 20
1881.339895329005
 30
0.0
  0
VERTEX
  5
258
330
238
100
AcDbEntity
  8
枠_表
  6
CONTINUOUS
 62
     2
100
AcDbVertex
100
AcDb2dVertex
 10
438.5144847320431
 20
1881.34253252596
 30
0.0
  0
VERTEX
  5
259
330
238
100
AcDbEntity
  8
枠_表
  6
CONTINUOUS
 62
     2
100
AcDbVertex
100
AcDb2dVertex
 10
438.5048206614398
 20
1881.34520194877
 30
0.0
  0
VERTEX
  5
25A
330
238
100
AcDbEntity
  8
枠_表
  6
CONTINUOUS
 62
     2
100
AcDbVertex
100
AcDb2dVertex
 10
438.4951657313551
 20
1881.347903597437
 30
0.0
  0
VERTEX
  5
25B
330
238
100
AcDbEntity
  8
枠_表
  6
CONTINUOUS
 62
     2
100
AcDbVertex
100
AcDb2dVertex
 10
438.4855199417885
 20
1881.350637471961
 30
0.0
  0
VERTEX
  5
25C
330
238
100
AcDbEntity
  8
枠_表
  6
CONTINUOUS
 62
     2
100
AcDbVertex
100
AcDb2dVertex
 10
438.4758832927406
 20
1881.353403572342
 30
0.0
  0
VERTEX
  5
25D
330
238
100
AcDbEntity
  8
枠_表
  6
CONTINUOUS
 62
     2
100
AcDbVertex
100
AcDb2dVertex
 10
438.4662557842108
 20
1881.356201898579
 30
0.0
  0
VERTEX
  5
25E
330
238
100
AcDbEntity
  8
枠_表
  6
CONTINUOUS
 62
     2
100
AcDbVertex
100
AcDb2dVertex
 10
438.4566374161997
 20
1881.359032450672
 30
0.0
  0
VERTEX
  5
25F
330
238
100
AcDbEntity
  8
枠_表
  6
CONTINUOUS
 62
     2
100
AcDbVertex
100
AcDb2dVertex
 10
438.4470281887071
 20
1881.361895228622
 30
0.0
  0
VERTEX
  5
260
330
238
100
AcDbEntity
  8
枠_表
  6
CONTINUOUS
 62
     2
100
AcDbVertex
100
AcDb2dVertex
 10
438.4374281017327
 20
1881.364790232429
 30
0.0
  0
VERTEX
  5
261
330
238
100
AcDbEntity
  8
枠_表
  6
CONTINUOUS
 62
     2
100
AcDbVertex
100
AcDb2dVertex
 10
438.427837155277
 20
1881.367717462093
 30
0.0
  0
VERTEX
  5
262
330
238
100
AcDbEntity
  8
枠_表
  6
CONTINUOUS
 62
     2
100
AcDbVertex
100
AcDb2dVertex
 10
438.4182553493393
 20
1881.370676917612
 30
0.0
  0
VERTEX
  5
263
330
238
100
AcDbEntity
  8
枠_表
  6
CONTINUOUS
 62
     2
100
AcDbVertex
100
AcDb2dVertex
 10
438.4086826839203
 20
1881.373668598989
 30
0.0
  0
VERTEX
  5
264
330
238
100
AcDbEntity
  8
枠_表
  6
CONTINUOUS
 62
     2
100
AcDbVertex
100
AcDb2dVertex
 10
438.3991191590195
 20
1881.376692506222
 30
0.0
  0
VERTEX
  5
265
330
238
100
AcDbEntity
  8
枠_表
  6
CONTINUOUS
 62
     2
100
AcDbVertex
100
AcDb2dVertex
 10
438.3895647746373
 20
1881.379748639312
 30
0.0
  0
VERTEX
  5
266
330
238
100
AcDbEntity
  8
枠_表
  6
CONTINUOUS
 62
     2
100
AcDbVertex
100
AcDb2dVertex
 10
438.3800195307737
 20
1881.382836998258
 30
0.0
  0
VERTEX
  5
267
330
238
100
AcDbEntity
  8
枠_表
  6
CONTINUOUS
 62
     2
100
AcDbVertex
100
AcDb2dVertex
 10
438.3704834274278
 20
1881.385957583061
 30
0.0
  0
VERTEX
  5
268
330
238
100
AcDbEntity
  8
枠_表
  6
CONTINUOUS
 62
     2
100
AcDbVertex
100
AcDb2dVertex
 10
438.3609564646009
 20
1881.389110393721
 30
0.0
  0
VERTEX
  5
269
330
238
100
AcDbEntity
  8
枠_表
  6
CONTINUOUS
 62
     2
100
AcDbVertex
100
AcDb2dVertex
 10
438.3514386422922
 20
1881.392295430237
 30
0.0
  0
VERTEX
  5
26A
330
238
100
AcDbEntity
  8
枠_表
  6
CONTINUOUS
 62
     2
100
AcDbVertex
100
AcDb2dVertex
 10
438.3419299605022
 20
1881.39551269261
 30
0.0
  0
VERTEX
  5
26B
330
238
100
AcDbEntity
  8
枠_表
  6
CONTINUOUS
 62
     2
100
AcDbVertex
100
AcDb2dVertex
 10
438.3324304192303
 20
1881.398762180839
 30
0.0
  0
VERTEX
  5
26C
330
238
100
AcDbEntity
  8
枠_表
  6
CONTINUOUS
 62
     2
100
AcDbVertex
100
AcDb2dVertex
 10
438.322940018477
 20
1881.402043894925
 30
0.0
  0
VERTEX
  5
26D
330
238
100
AcDbEntity
  8
枠_表
  6
CONTINUOUS
 62
     2
100
AcDbVertex
100
AcDb2dVertex
 10
438.3134587582418
 20
1881.405357834868
 30
0.0
  0
VERTEX
  5
26E
330
238
100
AcDbEntity
  8
枠_表
  6
CONTINUOUS
 62
     2
100
AcDbVertex
100
AcDb2dVertex
 10
438.3039866385253
 20
1881.408704000667
 30
0.0
  0
VERTEX
  5
26F
330
238
100
AcDbEntity
  8
枠_表
  6
CONTINUOUS
 62
     2
100
AcDbVertex
100
AcDb2dVertex
 10
438.2945236593274
 20
1881.412082392323
 30
0.0
  0
VERTEX
  5
270
330
238
100
AcDbEntity
  8
枠_表
  6
CONTINUOUS
 62
     2
100
AcDbVertex
100
AcDb2dVertex
 10
438.2850698206477
 20
1881.415493009835
 30
0.0
  0
VERTEX
  5
271
330
238
100
AcDbEntity
  8
枠_表
  6
CONTINUOUS
 62
     2
100
AcDbVertex
100
AcDb2dVertex
 10
438.2756251224861
 20
1881.418935853204
 30
0.0
  0
VERTEX
  5
272
330
238
100
AcDbEntity
  8
枠_表
  6
CONTINUOUS
 62
     2
100
AcDbVertex
100
AcDb2dVertex
 10
438.2661895648436
 20
1881.422410922429
 30
0.0
  0
VERTEX
  5
273
330
238
100
AcDbEntity
  8
枠_表
  6
CONTINUOUS
 62
     2
100
AcDbVertex
100
AcDb2dVertex
 10
438.2567631477192
 20
1881.425918217512
 30
0.0
  0
VERTEX
  5
274
330
238
100
AcDbEntity
  8
枠_表
  6
CONTINUOUS
 62
     2
100
AcDbVertex
100
AcDb2dVertex
 10
438.247345871113
 20
1881.42945773845
 30
0.0
  0
VERTEX
  5
275
330
238
100
AcDbEntity
  8
枠_表
  6
CONTINUOUS
 62
     2
100
AcDbVertex
100
AcDb2dVertex
 10
438.2379377350254
 20
1881.433029485246
 30
0.0
  0
VERTEX
  5
276
330
238
100
AcDbEntity
  8
枠_表
  6
CONTINUOUS
 62
     2
100
AcDbVertex
100
AcDb2dVertex
 10
438.228538739456
 20
1881.436633457898
 30
0.0
  0
VERTEX
  5
277
330
238
100
AcDbEntity
  8
枠_表
  6
CONTINUOUS
 62
     2
100
AcDbVertex
100
AcDb2dVertex
 10
438.2191488844052
 20
1881.440269656406
 30
0.0
  0
VERTEX
  5
278
330
238
100
AcDbEntity
  8
枠_表
  6
CONTINUOUS
 62
     2
100
AcDbVertex
100
AcDb2dVertex
 10
438.209768169873
 20
1881.443938080771
 30
0.0
  0
VERTEX
  5
279
330
238
100
AcDbEntity
  8
枠_表
  6
CONTINUOUS
 62
     2
100
AcDbVertex
100
AcDb2dVertex
 10
438.2003965958589
 20
1881.447638730993
 30
0.0
  0
VERTEX
  5
27A
330
238
100
AcDbEntity
  8
枠_表
  6
CONTINUOUS
 62
     2
100
AcDbVertex
100
AcDb2dVertex
 10
390.3858234414544
 20
1900.416236782085
 30
0.0
  0
VERTEX
  5
27B
330
238
100
AcDbEntity
  8
枠_表
  6
CONTINUOUS
 62
     2
100
AcDbVertex
100
AcDb2dVertex
 10
390.3592113931055
 20
1900.426928670981
 30
0.0
  0
VERTEX
  5
27C
330
238
100
AcDbEntity
  8
枠_表
  6
CONTINUOUS
 62
     2
100
AcDbVertex
100
AcDb2dVertex
 10
390.3327645950527
 20
1900.437824028458
 30
0.0
  0
VERTEX
  5
27D
330
238
100
AcDbEntity
  8
枠_表
  6
CONTINUOUS
 62
     2
100
AcDbVertex
100
AcDb2dVertex
 10
390.3064830472969
 20
1900.448922854515
 30
0.0
  0
VERTEX
  5
27E
330
238
100
AcDbEntity
  8
枠_表
  6
CONTINUOUS
 62
     2
100
AcDbVertex
100
AcDb2dVertex
 10
390.2803667498371
 20
1900.460225149154
 30
0.0
  0
VERTEX
  5
27F
330
238
100
AcDbEntity
  8
枠_表
  6
CONTINUOUS
 62
     2
100
AcDbVertex
100
AcDb2dVertex
 10
390.2544157026742
 20
1900.471730912373
 30
0.0
  0
VERTEX
  5
280
330
238
100
AcDbEntity
  8
枠_表
  6
CONTINUOUS
 62
     2
100
AcDbVertex
100
AcDb2dVertex
 10
390.2286299058075
 20
1900.483440144174
 30
0.0
  0
VERTEX
  5
281
330
238
100
AcDbEntity
  8
枠_表
  6
CONTINUOUS
 62
     2
100
AcDbVertex
100
AcDb2dVertex
 10
390.2030093592372
 20
1900.495352844555
 30
0.0
  0
VERTEX
  5
282
330
238
100
AcDbEntity
  8
枠_表
  6
CONTINUOUS
 62
     2
100
AcDbVertex
100
AcDb2dVertex
 10
390.1775540629634
 20
1900.507469013517
 30
0.0
  0
VERTEX
  5
283
330
238
100
AcDbEntity
  8
枠_表
  6
CONTINUOUS
 62
     2
100
AcDbVertex
100
AcDb2dVertex
 10
390.1522640169861
 20
1900.51978865106
 30
0.0
  0
VERTEX
  5
284
330
238
100
AcDbEntity
  8
枠_表
  6
CONTINUOUS
 62
     2
100
AcDbVertex
100
AcDb2dVertex
 10
390.1271392213054
 20
1900.532311757185
 30
0.0
  0
VERTEX
  5
285
330
238
100
AcDbEntity
  8
枠_表
  6
CONTINUOUS
 62
     2
100
AcDbVertex
100
AcDb2dVertex
 10
390.1021796759206
 20
1900.545038331889
 30
0.0
  0
VERTEX
  5
286
330
238
100
AcDbEntity
  8
枠_表
  6
CONTINUOUS
 62
     2
100
AcDbVertex
100
AcDb2dVertex
 10
390.0773853808329
 20
1900.557968375175
 30
0.0
  0
VERTEX
  5
287
330
238
100
AcDbEntity
  8
枠_表
  6
CONTINUOUS
 62
     2
100
AcDbVertex
100
AcDb2dVertex
 10
390.0527563360412
 20
1900.571101887042
 30
0.0
  0
VERTEX
  5
288
330
238
100
AcDbEntity
  8
枠_表
  6
CONTINUOUS
 62
     2
100
AcDbVertex
100
AcDb2dVertex
 10
390.028292541546
 20
1900.58443886749
 30
0.0
  0
VERTEX
  5
289
330
238
100
AcDbEntity
  8
枠_表
  6
CONTINUOUS
 62
     2
100
AcDbVertex
100
AcDb2dVertex
 10
390.0039939973477
 20
1900.597979316519
 30
0.0
  0
VERTEX
  5
28A
330
238
100
AcDbEntity
  8
枠_表
  6
CONTINUOUS
 62
     2
100
AcDbVertex
100
AcDb2dVertex
 10
389.9798607034455
 20
1900.611723234128
 30
0.0
  0
VERTEX
  5
28B
330
238
100
AcDbEntity
  8
枠_表
  6
CONTINUOUS
 62
     2
100
AcDbVertex
100
AcDb2dVertex
 10
389.9558926598398
 20
1900.625670620319
 30
0.0
  0
VERTEX
  5
28C
330
238
100
AcDbEntity
  8
枠_表
  6
CONTINUOUS
 62
     2
100
AcDbVertex
100
AcDb2dVertex
 10
389.9320898665306
 20
1900.63982147509
 30
0.0
  0
VERTEX
  5
28D
330
238
100
AcDbEntity
  8
枠_表
  6
CONTINUOUS
 62
     2
100
AcDbVertex
100
AcDb2dVertex
 10
389.9084523235175
 20
1900.654175798443
 30
0.0
  0
VERTEX
  5
28E
330
238
100
AcDbEntity
  8
枠_表
  6
CONTINUOUS
 62
     2
100
AcDbVertex
100
AcDb2dVertex
 10
389.8849800308013
 20
1900.668733590376
 30
0.0
  0
VERTEX
  5
28F
330
238
100
AcDbEntity
  8
枠_表
  6
CONTINUOUS
 62
     2
100
AcDbVertex
100
AcDb2dVertex
 10
389.8616729883817
 20
1900.68349485089
 30
0.0
  0
VERTEX
  5
290
330
238
100
AcDbEntity
  8
枠_表
  6
CONTINUOUS
 62
     2
100
AcDbVertex
100
AcDb2dVertex
 10
389.838531196258
 20
1900.698459579985
 30
0.0
  0
VERTEX
  5
291
330
238
100
AcDbEntity
  8
枠_表
  6
CONTINUOUS
 62
     2
100
AcDbVertex
100
AcDb2dVertex
 10
389.8155546544309
 20
1900.713627777661
 30
0.0
  0
VERTEX
  5
292
330
238
100
AcDbEntity
  8
枠_表
  6
CONTINUOUS
 62
     2
100
AcDbVertex
100
AcDb2dVertex
 10
389.7927433629003
 20
1900.728999443919
 30
0.0
  0
VERTEX
  5
293
330
238
100
AcDbEntity
  8
枠_表
  6
CONTINUOUS
 62
     2
100
AcDbVertex
100
AcDb2dVertex
 10
389.7700973216662
 20
1900.744574578757
 30
0.0
  0
VERTEX
  5
294
330
238
100
AcDbEntity
  8
枠_表
  6
CONTINUOUS
 62
     2
100
AcDbVertex
100
AcDb2dVertex
 10
389.747616530729
 20
1900.760353182175
 30
0.0
  0
VERTEX
  5
295
330
238
100
AcDbEntity
  8
枠_表
  6
CONTINUOUS
 62
     2
100
AcDbVertex
100
AcDb2dVertex
 10
389.7253009900875
 20
1900.776335254175
 30
0.0
  0
VERTEX
  5
296
330
238
100
AcDbEntity
  8
枠_表
  6
CONTINUOUS
 62
     2
100
AcDbVertex
100
AcDb2dVertex
 10
389.7031506997429
 20
1900.792520794756
 30
0.0
  0
VERTEX
  5
297
330
238
100
AcDbEntity
  8
枠_表
  6
CONTINUOUS
 62
     2
100
AcDbVertex
100
AcDb2dVertex
 10
389.6811656596948
 20
1900.808909803917
 30
0.0
  0
VERTEX
  5
298
330
238
100
AcDbEntity
  8
枠_表
  6
CONTINUOUS
 62
     2
100
AcDbVertex
100
AcDb2dVertex
 10
389.6593458699427
 20
1900.82550228166
 30
0.0
  0
VERTEX
  5
299
330
238
100
AcDbEntity
  8
枠_表
  6
CONTINUOUS
 62
     2
100
AcDbVertex
100
AcDb2dVertex
 10
389.6376913304872
 20
1900.842298227984
 30
0.0
  0
VERTEX
  5
29A
330
238
100
AcDbEntity
  8
枠_表
  6
CONTINUOUS
 62
     2
100
AcDbVertex
100
AcDb2dVertex
 10
389.6162020413286
 20
1900.859297642888
 30
0.0
  0
VERTEX
  5
29B
330
238
100
AcDbEntity
  8
枠_表
  6
CONTINUOUS
 62
     2
100
AcDbVertex
100
AcDb2dVertex
 10
389.5948780024661
 20
1900.876500526373
 30
0.0
  0
VERTEX
  5
29C
330
238
100
AcDbEntity
  8
枠_表
  6
CONTINUOUS
 62
     2
100
AcDbVertex
100
AcDb2dVertex
 10
389.5737192139001
 20
1900.89390687844
 30
0.0
  0
VERTEX
  5
29D
330
238
100
AcDbEntity
  8
枠_表
  6
CONTINUOUS
 62
     2
100
AcDbVertex
100
AcDb2dVertex
 10
389.5527256756305
 20
1900.911516699087
 30
0.0
  0
VERTEX
  5
29E
330
238
100
AcDbEntity
  8
枠_表
  6
CONTINUOUS
 62
     2
100
AcDbVertex
100
AcDb2dVertex
 10
389.5318973876575
 20
1900.929329988315
 30
0.0
  0
VERTEX
  5
29F
330
238
100
AcDbEntity
  8
枠_表
  6
CONTINUOUS
 62
     2
100
AcDbVertex
100
AcDb2dVertex
 10
389.5112343499806
 20
1900.947346746124
 30
0.0
  0
VERTEX
  5
2A0
330
238
100
AcDbEntity
  8
枠_表
  6
CONTINUOUS
 62
     2
100
AcDbVertex
100
AcDb2dVertex
 10
389.4907365626005
 20
1900.965566972514
 30
0.0
  0
VERTEX
  5
2A1
330
238
100
AcDbEntity
  8
枠_表
  6
CONTINUOUS
 62
     2
100
AcDbVertex
100
AcDb2dVertex
 10
389.4704040255166
 20
1900.983990667484
 30
0.0
  0
VERTEX
  5
2A2
330
238
100
AcDbEntity
  8
枠_表
  6
CONTINUOUS
 62
     2
100
AcDbVertex
100
AcDb2dVertex
 10
389.4502367387296
 20
1901.002617831036
 30
0.0
  0
VERTEX
  5
2A3
330
238
100
AcDbEntity
  8
枠_表
  6
CONTINUOUS
 62
     2
100
AcDbVertex
100
AcDb2dVertex
 10
389.4302347022386
 20
1901.021448463169
 30
0.0
  0
VERTEX
  5
2A4
330
238
100
AcDbEntity
  8
枠_表
  6
CONTINUOUS
 62
     2
100
AcDbVertex
100
AcDb2dVertex
 10
389.4103979160442
 20
1901.040482563883
 30
0.0
  0
VERTEX
  5
2A5
330
238
100
AcDbEntity
  8
枠_表
  6
CONTINUOUS
 62
     2
100
AcDbVertex
100
AcDb2dVertex
 10
389.3907263801462
 20
1901.059720133177
 30
0.0
  0
VERTEX
  5
2A6
330
238
100
AcDbEntity
  8
枠_表
  6
CONTINUOUS
 62
     2
100
AcDbVertex
100
AcDb2dVertex
 10
389.3712200945448
 20
1901.079161171053
 30
0.0
  0
VERTEX
  5
2A7
330
238
100
AcDbEntity
  8
枠_表
  6
CONTINUOUS
 62
     2
100
AcDbVertex
100
AcDb2dVertex
 10
389.3518790592399
 20
1901.098805677509
 30
0.0
  0
VERTEX
  5
2A8
330
238
100
AcDbEntity
  8
枠_表
  6
CONTINUOUS
 62
     2
100
AcDbVertex
100
AcDb2dVertex
 10
389.332703274231
 20
1901.118653652547
 30
0.0
  0
VERTEX
  5
2A9
330
238
100
AcDbEntity
  8
枠_表
  6
CONTINUOUS
 62
     2
100
AcDbVertex
100
AcDb2dVertex
 10
389.3136927395191
 20
1901.138705096165
 30
0.0
  0
VERTEX
  5
2AA
330
238
100
AcDbEntity
  8
枠_表
  6
CONTINUOUS
 62
     2
100
AcDbVertex
100
AcDb2dVertex
 10
389.2948474551032
 20
1901.158960008364
 30
0.0
  0
VERTEX
  5
2AB
330
238
100
AcDbEntity
  8
枠_表
  6
CONTINUOUS
 62
     2
100
AcDbVertex
100
AcDb2dVertex
 10
389.2761674209843
 20
1901.179418389144
 30
0.0
  0
VERTEX
  5
2AC
330
238
100
AcDbEntity
  8
枠_表
  6
CONTINUOUS
 62
     2
100
AcDbVertex
100
AcDb2dVertex
 10
389.2576526371614
 20
1901.200080238505
 30
0.0
  0
VERTEX
  5
2AD
330
238
100
AcDbEntity
  8
枠_表
  6
CONTINUOUS
 62
     2
100
AcDbVertex
100
AcDb2dVertex
 10
389.2393031036351
 20
1901.220945556447
 30
0.0
  0
VERTEX
  5
2AE
330
238
100
AcDbEntity
  8
枠_表
  6
CONTINUOUS
 62
     2
100
AcDbVertex
100
AcDb2dVertex
 10
389.2211188204052
 20
1901.24201434297
 30
0.0
  0
VERTEX
  5
2AF
330
238
100
AcDbEntity
  8
枠_表
  6
CONTINUOUS
 62
     2
100
AcDbVertex
100
AcDb2dVertex
 10
389.2030997874718
 20
1901.263286598074
 30
0.0
  0
VERTEX
  5
2B0
330
238
100
AcDbEntity
  8
枠_表
  6
CONTINUOUS
 62
     2
100
AcDbVertex
100
AcDb2dVertex
 10
389.185246004835
 20
1901.284762321759
 30
0.0
  0
VERTEX
  5
2B1
330
238
100
AcDbEntity
  8
枠_表
  6
CONTINUOUS
 62
     2
100
AcDbVertex
100
AcDb2dVertex
 10
389.1675574724942
 20
1901.306441514024
 30
0.0
  0
VERTEX
  5
2B2
330
238
100
AcDbEntity
  8
枠_表
  6
CONTINUOUS
 62
     2
100
AcDbVertex
100
AcDb2dVertex
 10
389.1500341904504
 20
1901.328324174871
 30
0.0
  0
VERTEX
  5
2B3
330
238
100
AcDbEntity
  8
枠_表
  6
CONTINUOUS
 62
     2
100
AcDbVertex
100
AcDb2dVertex
 10
389.1326761587026
 20
1901.350410304298
 30
0.0
  0
VERTEX
  5
2B4
330
238
100
AcDbEntity
  8
枠_表
  6
CONTINUOUS
 62
     2
100
AcDbVertex
100
AcDb2dVertex
 10
389.1154833772513
 20
1901.372699902307
 30
0.0
  0
VERTEX
  5
2B5
330
238
100
AcDbEntity
  8
枠_表
  6
CONTINUOUS
 62
     2
100
AcDbVertex
100
AcDb2dVertex
 10
389.0984558460965
 20
1901.395192968896
 30
0.0
  0
VERTEX
  5
2B6
330
238
100
AcDbEntity
  8
枠_表
  6
CONTINUOUS
 62
     2
100
AcDbVertex
100
AcDb2dVertex
 10
389.0815935652387
 20
1901.417889504066
 30
0.0
  0
VERTEX
  5
2B7
330
238
100
AcDbEntity
  8
枠_表
  6
CONTINUOUS
 62
     2
100
AcDbVertex
100
AcDb2dVertex
 10
389.0648965346764
 20
1901.440789507817
 30
0.0
  0
VERTEX
  5
2B8
330
238
100
AcDbEntity
  8
枠_表
  6
CONTINUOUS
 62
     2
100
AcDbVertex
100
AcDb2dVertex
 10
389.0483647544112
 20
1901.46389298015
 30
0.0
  0
VERTEX
  5
2B9
330
238
100
AcDbEntity
  8
枠_表
  6
CONTINUOUS
 62
     2
100
AcDbVertex
100
AcDb2dVertex
 10
389.0319982244424
 20
1901.487199921063
 30
0.0
  0
VERTEX
  5
2BA
330
238
100
AcDbEntity
  8
枠_表
  6
CONTINUOUS
 62
     2
100
AcDbVertex
100
AcDb2dVertex
 10
389.0157969447702
 20
1901.510710330557
 30
0.0
  0
VERTEX
  5
2BB
330
238
100
AcDbEntity
  8
枠_表
  6
CONTINUOUS
 62
     2
100
AcDbVertex
100
AcDb2dVertex
 10
388.9998042172343
 20
1901.534360775963
 30
0.0
  0
VERTEX
  5
2BC
330
238
100
AcDbEntity
  8
枠_表
  6
CONTINUOUS
 62
     2
100
AcDbVertex
100
AcDb2dVertex
 10
388.9840633436753
 20
1901.558087824611
 30
0.0
  0
VERTEX
  5
2BD
330
238
100
AcDbEntity
  8
枠_表
  6
CONTINUOUS
 62
     2
100
AcDbVertex
100
AcDb2dVertex
 10
388.9685743240935
 20
1901.581891476503
 30
0.0
  0
VERTEX
  5
2BE
330
238
100
AcDbEntity
  8
枠_表
  6
CONTINUOUS
 62
     2
100
AcDbVertex
100
AcDb2dVertex
 10
388.9533371584886
 20
1901.605771731637
 30
0.0
  0
VERTEX
  5
2BF
330
238
100
AcDbEntity
  8
枠_表
  6
CONTINUOUS
 62
     2
100
AcDbVertex
100
AcDb2dVertex
 10
388.9383518468604
 20
1901.629728590014
 30
0.0
  0
VERTEX
  5
2C0
330
238
100
AcDbEntity
  8
枠_表
  6
CONTINUOUS
 62
     2
100
AcDbVertex
100
AcDb2dVertex
 10
388.9236183892095
 20
1901.653762051634
 30
0.0
  0
VERTEX
  5
2C1
330
238
100
AcDbEntity
  8
枠_表
  6
CONTINUOUS
 62
     2
100
AcDbVertex
100
AcDb2dVertex
 10
388.9091367855355
 20
1901.677872116497
 30
0.0
  0
VERTEX
  5
2C2
330
238
100
AcDbEntity
  8
枠_表
  6
CONTINUOUS
 62
     2
100
AcDbVertex
100
AcDb2dVertex
 10
388.8949070358386
 20
1901.702058784603
 30
0.0
  0
VERTEX
  5
2C3
330
238
100
AcDbEntity
  8
枠_表
  6
CONTINUOUS
 62
     2
100
AcDbVertex
100
AcDb2dVertex
 10
388.8809291401182
 20
1901.726322055951
 30
0.0
  0
VERTEX
  5
2C4
330
238
100
AcDbEntity
  8
枠_表
  6
CONTINUOUS
 62
     2
100
AcDbVertex
100
AcDb2dVertex
 10
388.8672030983749
 20
1901.750661930542
 30
0.0
  0
VERTEX
  5
2C5
330
238
100
AcDbEntity
  8
枠_表
  6
CONTINUOUS
 62
     2
100
AcDbVertex
100
AcDb2dVertex
 10
388.8537289106085
 20
1901.775078408376
 30
0.0
  0
VERTEX
  5
2C6
330
238
100
AcDbEntity
  8
枠_表
  6
CONTINUOUS
 62
     2
100
AcDbVertex
100
AcDb2dVertex
 10
388.8405065768194
 20
1901.799571489453
 30
0.0
  0
VERTEX
  5
2C7
330
238
100
AcDbEntity
  8
枠_表
  6
CONTINUOUS
 62
     2
100
AcDbVertex
100
AcDb2dVertex
 10
388.8275360970066
 20
1901.824141173773
 30
0.0
  0
VERTEX
  5
2C8
330
238
100
AcDbEntity
  8
枠_表
  6
CONTINUOUS
 62
     2
100
AcDbVertex
100
AcDb2dVertex
 10
388.8148174711711
 20
1901.848787461335
 30
0.0
  0
VERTEX
  5
2C9
330
238
100
AcDbEntity
  8
枠_表
  6
CONTINUOUS
 62
     2
100
AcDbVertex
100
AcDb2dVertex
 10
388.8023506993128
 20
1901.873510352141
 30
0.0
  0
VERTEX
  5
2CA
330
238
100
AcDbEntity
  8
枠_表
  6
CONTINUOUS
 62
     2
100
AcDbVertex
100
AcDb2dVertex
 10
388.7901357814309
 20
1901.898309846189
 30
0.0
  0
VERTEX
  5
2CB
330
238
100
AcDbEntity
  8
枠_表
  6
CONTINUOUS
 62
     2
100
AcDbVertex
100
AcDb2dVertex
 10
388.7781727175262
 20
1901.92318594348
 30
0.0
  0
VERTEX
  5
2CC
330
238
100
AcDbEntity
  8
枠_表
  6
CONTINUOUS
 62
     2
100
AcDbVertex
100
AcDb2dVertex
 10
388.7664615075984
 20
1901.948138644014
 30
0.0
  0
VERTEX
  5
2CD
330
238
100
AcDbEntity
  8
枠_表
  6
CONTINUOUS
 62
     2
100
AcDbVertex
100
AcDb2dVertex
 10
388.7550021516478
 20
1901.973167947791
 30
0.0
  0
VERTEX
  5
2CE
330
238
100
AcDbEntity
  8
枠_表
  6
CONTINUOUS
 62
     2
100
AcDbVertex
100
AcDb2dVertex
 10
388.743794649674
 20
1901.99827385481
 30
0.0
  0
VERTEX
  5
2CF
330
238
100
AcDbEntity
  8
枠_表
  6
CONTINUOUS
 62
     2
100
AcDbVertex
100
AcDb2dVertex
 10
388.732839001677
 20
1902.023456365072
 30
0.0
  0
VERTEX
  5
2D0
330
238
100
AcDbEntity
  8
枠_表
  6
CONTINUOUS
 62
     2
100
AcDbVertex
100
AcDb2dVertex
 10
388.7221352076568
 20
1902.048715478578
 30
0.0
  0
VERTEX
  5
2D1
330
238
100
AcDbEntity
  8
枠_表
  6
CONTINUOUS
 62
     2
100
AcDbVertex
100
AcDb2dVertex
 10
388.7116832676139
 20
1902.074051195325
 30
0.0
  0
VERTEX
  5
2D2
330
238
100
AcDbEntity
  8
枠_表
  6
CONTINUOUS
 62
     2
100
AcDbVertex
100
AcDb2dVertex
 10
388.7014831815478
 20
1902.099463515316
 30
0.0
  0
VERTEX
  5
2D3
330
238
100
AcDbEntity
  8
枠_表
  6
CONTINUOUS
 62
     2
100
AcDbVertex
100
AcDb2dVertex
 10
388.6915349494585
 20
1902.12495243855
 30
0.0
  0
VERTEX
  5
2D4
330
238
100
AcDbEntity
  8
枠_表
  6
CONTINUOUS
 62
     2
100
AcDbVertex
100
AcDb2dVertex
 10
388.6818385713465
 20
1902.150517965026
 30
0.0
  0
VERTEX
  5
2D5
330
238
100
AcDbEntity
  8
枠_表
  6
CONTINUOUS
 62
     2
100
AcDbVertex
100
AcDb2dVertex
 10
388.6723940472112
 20
1902.176160094745
 30
0.0
  0
VERTEX
  5
2D6
330
238
100
AcDbEntity
  8
枠_表
  6
CONTINUOUS
 62
     2
100
AcDbVertex
100
AcDb2dVertex
 10
388.6632013770528
 20
1902.201878827708
 30
0.0
  0
VERTEX
  5
2D7
330
238
100
AcDbEntity
  8
枠_表
  6
CONTINUOUS
 62
     2
100
AcDbVertex
100
AcDb2dVertex
 10
388.6542605608716
 20
1902.227674163912
 30
0.0
  0
VERTEX
  5
2D8
330
238
100
AcDbEntity
  8
枠_表
  6
CONTINUOUS
 62
     2
100
AcDbVertex
100
AcDb2dVertex
 10
388.6455715986668
 20
1902.25354610336
 30
0.0
  0
VERTEX
  5
2D9
330
238
100
AcDbEntity
  8
枠_表
  6
CONTINUOUS
 62
     2
100
AcDbVertex
100
AcDb2dVertex
 10
388.6371344904393
 20
1902.279494646051
 30
0.0
  0
VERTEX
  5
2DA
330
238
100
AcDbEntity
  8
枠_表
  6
CONTINUOUS
 62
     2
100
AcDbVertex
100
AcDb2dVertex
 10
388.628949236189
 20
1902.305519791984
 30
0.0
  0
VERTEX
  5
2DB
330
238
100
AcDbEntity
  8
枠_表
  6
CONTINUOUS
 62
     2
100
AcDbVertex
100
AcDb2dVertex
 10
388.621015835915
 20
1902.33162154116
 30
0.0
  0
VERTEX
  5
2DC
330
238
100
AcDbEntity
  8
枠_表
  6
CONTINUOUS
 62
     2
100
AcDbVertex
100
AcDb2dVertex
 10
388.6133342896184
 20
1902.357799893579
 30
0.0
  0
VERTEX
  5
2DD
330
238
100
AcDbEntity
  8
枠_表
  6
CONTINUOUS
 62
     2
100
AcDbVertex
100
AcDb2dVertex
 10
388.6059045972989
 20
1902.384054849241
 30
0.0
  0
VERTEX
  5
2DE
330
238
100
AcDbEntity
  8
枠_表
  6
CONTINUOUS
 62
     2
100
AcDbVertex
100
AcDb2dVertex
 10
388.5987267589559
 20
1902.410386408146
 30
0.0
  0
VERTEX
  5
2DF
330
238
100
AcDbEntity
  8
枠_表
  6
CONTINUOUS
 62
     2
100
AcDbVertex
100
AcDb2dVertex
 10
388.5918007745901
 20
1902.436794570293
 30
0.0
  0
VERTEX
  5
2E0
330
238
100
AcDbEntity
  8
枠_表
  6
CONTINUOUS
 62
     2
100
AcDbVertex
100
AcDb2dVertex
 10
388.5851266442011
 20
1902.463279335683
 30
0.0
  0
VERTEX
  5
2E1
330
238
100
AcDbEntity
  8
枠_表
  6
CONTINUOUS
 62
     2
100
AcDbVertex
100
AcDb2dVertex
 10
388.5787043677893
 20
1902.489840704316
 30
0.0
  0
VERTEX
  5
2E2
330
238
100
AcDbEntity
  8
枠_表
  6
CONTINUOUS
 62
     2
100
AcDbVertex
100
AcDb2dVertex
 10
388.5725339453539
 20
1902.516478676192
 30
0.0
  0
VERTEX
  5
2E3
330
238
100
AcDbEntity
  8
枠_表
  6
CONTINUOUS
 62
     2
100
AcDbVertex
100
AcDb2dVertex
 10
388.5666153768963
 20
1902.543193251311
 30
0.0
  0
VERTEX
  5
2E4
330
238
100
AcDbEntity
  8
枠_表
  6
CONTINUOUS
 62
     2
100
AcDbVertex
100
AcDb2dVertex
 10
388.5609486624149
 20
1902.569984429673
 30
0.0
  0
VERTEX
  5
2E5
330
238
100
AcDbEntity
  8
枠_表
  6
CONTINUOUS
 62
     2
100
AcDbVertex
100
AcDb2dVertex
 10
388.5555338019104
 20
1902.596852211277
 30
0.0
  0
VERTEX
  5
2E6
330
238
100
AcDbEntity
  8
枠_表
  6
CONTINUOUS
 62
     2
100
AcDbVertex
100
AcDb2dVertex
 10
388.5503707953832
 20
1902.623796596124
 30
0.0
  0
VERTEX
  5
2E7
330
238
100
AcDbEntity
  8
枠_表
  6
CONTINUOUS
 62
     2
100
AcDbVertex
100
AcDb2dVertex
 10
388.5454596428332
 20
1902.650817584214
 30
0.0
  0
VERTEX
  5
2E8
330
238
100
AcDbEntity
  8
枠_表
  6
CONTINUOUS
 62
     2
100
AcDbVertex
100
AcDb2dVertex
 10
388.5408003442595
 20
1902.677915175547
 30
0.0
  0
VERTEX
  5
2E9
330
238
100
AcDbEntity
  8
枠_表
  6
CONTINUOUS
 62
     2
100
AcDbVertex
100
AcDb2dVertex
 10
388.5363928996632
 20
1902.705089370123
 30
0.0
  0
VERTEX
  5
2EA
330
238
100
AcDbEntity
  8
枠_表
  6
CONTINUOUS
 62
     2
100
AcDbVertex
100
AcDb2dVertex
 10
388.5322373090436
 20
1902.732340167941
 30
0.0
  0
VERTEX
  5
2EB
330
238
100
AcDbEntity
  8
枠_表
  6
CONTINUOUS
 62
     2
100
AcDbVertex
100
AcDb2dVertex
 10
388.5283335724008
 20
1902.759667569002
 30
0.0
  0
VERTEX
  5
2EC
330
238
100
AcDbEntity
  8
枠_表
  6
CONTINUOUS
 62
     2
100
AcDbVertex
100
AcDb2dVertex
 10
388.5246816897353
 20
1902.787071573307
 30
0.0
  0
VERTEX
  5
2ED
330
238
100
AcDbEntity
  8
枠_表
  6
CONTINUOUS
 62
     2
100
AcDbVertex
100
AcDb2dVertex
 10
388.5212816610466
 20
1902.814552180854
 30
0.0
  0
VERTEX
  5
2EE
330
238
100
AcDbEntity
  8
枠_表
  6
CONTINUOUS
 62
     2
100
AcDbVertex
100
AcDb2dVertex
 10
388.5181334863347
 20
1902.842109391643
 30
0.0
  0
VERTEX
  5
2EF
330
238
100
AcDbEntity
  8
枠_表
  6
CONTINUOUS
 62
     2
100
AcDbVertex
100
AcDb2dVertex
 10
388.5152371656001
 20
1902.869743205676
 30
0.0
  0
VERTEX
  5
2F0
330
238
100
AcDbEntity
  8
枠_表
  6
CONTINUOUS
 62
     2
100
AcDbVertex
100
AcDb2dVertex
 10
388.5125926988422
 20
1902.897453622951
 30
0.0
  0
VERTEX
  5
2F1
330
238
100
AcDbEntity
  8
枠_表
  6
CONTINUOUS
 62
     2
100
AcDbVertex
100
AcDb2dVertex
 10
388.5102000860612
 20
1902.92524064347
 30
0.0
  0
VERTEX
  5
2F2
330
238
100
AcDbEntity
  8
枠_表
  6
CONTINUOUS
 62
     2
100
AcDbVertex
100
AcDb2dVertex
 10
388.5080593272575
 20
1902.953104267231
 30
0.0
  0
VERTEX
  5
2F3
330
238
100
AcDbEntity
  8
枠_表
  6
CONTINUOUS
 62
     2
100
AcDbVertex
100
AcDb2dVertex
 10
388.50617042243
 20
1902.981044494235
 30
0.0
  0
VERTEX
  5
2F4
330
238
100
AcDbEntity
  8
枠_表
  6
CONTINUOUS
 62
     2
100
AcDbVertex
100
AcDb2dVertex
 10
388.5045333715804
 20
1903.009061324481
 30
0.0
  0
VERTEX
  5
2F5
330
238
100
AcDbEntity
  8
枠_表
  6
CONTINUOUS
 62
     2
100
AcDbVertex
100
AcDb2dVertex
 10
388.503148174707
 20
1903.037154757971
 30
0.0
  0
VERTEX
  5
2F6
330
238
100
AcDbEntity
  8
枠_表
  6
CONTINUOUS
 62
     2
100
AcDbVertex
100
AcDb2dVertex
 10
388.5020148318109
 20
1903.065324794703
 30
0.0
  0
VERTEX
  5
2F7
330
238
100
AcDbEntity
  8
枠_表
  6
CONTINUOUS
 62
     2
100
AcDbVertex
100
AcDb2dVertex
 10
388.5011333428912
 20
1903.093571434678
 30
0.0
  0
VERTEX
  5
2F8
330
238
100
AcDbEntity
  8
枠_表
  6
CONTINUOUS
 62
     2
100
AcDbVertex
100
AcDb2dVertex
 10
388.5005037079492
 20
1903.121894677897
 30
0.0
  0
VERTEX
  5
2F9
330
238
100
AcDbEntity
  8
枠_表
  6
CONTINUOUS
 62
     2
100
AcDbVertex
100
AcDb2dVertex
 10
388.5001259269835
 20
1903.150294524357
 30
0.0
  0
VERTEX
  5
2FA
330
238
100
AcDbEntity
  8
枠_表
  6
CONTINUOUS
 62
     2
100
AcDbVertex
100
AcDb2dVertex
 10
388.4999999999951
 20
1903.178770974061
 30
0.0
  0
VERTEX
  5
2FB
330
238
100
AcDbEntity
  8
枠_表
  6
CONTINUOUS
 62
     2
100
AcDbVertex
100
AcDb2dVertex
 10
388.4999999999951
 20
1921.0
 30
0.0
  0
VERTEX
  5
2FC
330
238
100
AcDbEntity
  8
枠_表
  6
CONTINUOUS
 62
     2
100
AcDbVertex
100
AcDb2dVertex
 10
1118.499999999995
 20
1921.0
 30
0.0
  0
VERTEX
  5
2FD
330
238
100
AcDbEntity
  8
枠_表
  6
CONTINUOUS
 62
     2
100
AcDbVertex
100
AcDb2dVertex
 10
1118.499999999995
 20
1903.178770974061
 30
0.0
  0
VERTEX
  5
2FE
330
238
100
AcDbEntity
  8
枠_表
  6
CONTINUOUS
 62
     2
100
AcDbVertex
100
AcDb2dVertex
 10
1118.499874073007
 20
1903.150294524357
 30
0.0
  0
VERTEX
  5
2FF
330
238
100
AcDbEntity
  8
枠_表
  6
CONTINUOUS
 62
     2
100
AcDbVertex
100
AcDb2dVertex
 10
1118.499496292041
 20
1903.121894677897
 30
0.0
  0
VERTEX
  5
300
330
238
100
AcDbEntity
  8
枠_表
  6
CONTINUOUS
 62
     2
100
AcDbVertex
100
AcDb2dVertex
 10
1118.498866657099
 20
1903.093571434678
 30
0.0
  0
VERTEX
  5
301
330
238
100
AcDbEntity
  8
枠_表
  6
CONTINUOUS
 62
     2
100
AcDbVertex
100
AcDb2dVertex
 10
1118.49798516818
 20
1903.065324794703
 30
0.0
  0
VERTEX
  5
302
330
238
100
AcDbEntity
  8
枠_表
  6
CONTINUOUS
 62
     2
100
AcDbVertex
100
AcDb2dVertex
 10
1118.496851825284
 20
1903.037154757971
 30
0.0
  0
VERTEX
  5
303
330
238
100
AcDbEntity
  8
枠_表
  6
CONTINUOUS
 62
     2
100
AcDbVertex
100
AcDb2dVertex
 10
1118.49546662841
 20
1903.009061324481
 30
0.0
  0
VERTEX
  5
304
330
238
100
AcDbEntity
  8
枠_表
  6
CONTINUOUS
 62
     2
100
AcDbVertex
100
AcDb2dVertex
 10
1118.49382957756
 20
1902.981044494235
 30
0.0
  0
VERTEX
  5
305
330
238
100
AcDbEntity
  8
枠_表
  6
CONTINUOUS
 62
     2
100
AcDbVertex
100
AcDb2dVertex
 10
1118.491940672733
 20
1902.953104267231
 30
0.0
  0
VERTEX
  5
306
330
238
100
AcDbEntity
  8
枠_表
  6
CONTINUOUS
 62
     2
100
AcDbVertex
100
AcDb2dVertex
 10
1118.489799913929
 20
1902.92524064347
 30
0.0
  0
VERTEX
  5
307
330
238
100
AcDbEntity
  8
枠_表
  6
CONTINUOUS
 62
     2
100
AcDbVertex
100
AcDb2dVertex
 10
1118.487407301148
 20
1902.897453622951
 30
0.0
  0
VERTEX
  5
308
330
238
100
AcDbEntity
  8
枠_表
  6
CONTINUOUS
 62
     2
100
AcDbVertex
100
AcDb2dVertex
 10
1118.48476283439
 20
1902.869743205676
 30
0.0
  0
VERTEX
  5
309
330
238
100
AcDbEntity
  8
枠_表
  6
CONTINUOUS
 62
     2
100
AcDbVertex
100
AcDb2dVertex
 10
1118.481866513655
 20
1902.842109391643
 30
0.0
  0
VERTEX
  5
30A
330
238
100
AcDbEntity
  8
枠_表
  6
CONTINUOUS
 62
     2
100
AcDbVertex
100
AcDb2dVertex
 10
1118.478718338944
 20
1902.814552180854
 30
0.0
  0
VERTEX
  5
30B
330
238
100
AcDbEntity
  8
枠_表
  6
CONTINUOUS
 62
     2
100
AcDbVertex
100
AcDb2dVertex
 10
1118.475318310255
 20
1902.787071573307
 30
0.0
  0
VERTEX
  5
30C
330
238
100
AcDbEntity
  8
枠_表
  6
CONTINUOUS
 62
     2
100
AcDbVertex
100
AcDb2dVertex
 10
1118.471666427589
 20
1902.759667569002
 30
0.0
  0
VERTEX
  5
30D
330
238
100
AcDbEntity
  8
枠_表
  6
CONTINUOUS
 62
     2
100
AcDbVertex
100
AcDb2dVertex
 10
1118.467762690947
 20
1902.732340167941
 30
0.0
  0
VERTEX
  5
30E
330
238
100
AcDbEntity
  8
枠_表
  6
CONTINUOUS
 62
     2
100
AcDbVertex
100
AcDb2dVertex
 10
1118.463607100327
 20
1902.705089370123
 30
0.0
  0
VERTEX
  5
30F
330
238
100
AcDbEntity
  8
枠_表
  6
CONTINUOUS
 62
     2
100
AcDbVertex
100
AcDb2dVertex
 10
1118.459199655731
 20
1902.677915175547
 30
0.0
  0
VERTEX
  5
310
330
238
100
AcDbEntity
  8
枠_表
  6
CONTINUOUS
 62
     2
100
AcDbVertex
100
AcDb2dVertex
 10
1118.454540357157
 20
1902.650817584214
 30
0.0
  0
VERTEX
  5
311
330
238
100
AcDbEntity
  8
枠_表
  6
CONTINUOUS
 62
     2
100
AcDbVertex
100
AcDb2dVertex
 10
1118.449629204607
 20
1902.623796596124
 30
0.0
  0
VERTEX
  5
312
330
238
100
AcDbEntity
  8
枠_表
  6
CONTINUOUS
 62
     2
100
AcDbVertex
100
AcDb2dVertex
 10
1118.44446619808
 20
1902.596852211277
 30
0.0
  0
VERTEX
  5
313
330
238
100
AcDbEntity
  8
枠_表
  6
CONTINUOUS
 62
     2
100
AcDbVertex
100
AcDb2dVertex
 10
1118.439051337576
 20
1902.569984429673
 30
0.0
  0
VERTEX
  5
314
330
238
100
AcDbEntity
  8
枠_表
  6
CONTINUOUS
 62
     2
100
AcDbVertex
100
AcDb2dVertex
 10
1118.433384623094
 20
1902.543193251311
 30
0.0
  0
VERTEX
  5
315
330
238
100
AcDbEntity
  8
枠_表
  6
CONTINUOUS
 62
     2
100
AcDbVertex
100
AcDb2dVertex
 10
1118.427466054636
 20
1902.516478676192
 30
0.0
  0
VERTEX
  5
316
330
238
100
AcDbEntity
  8
枠_表
  6
CONTINUOUS
 62
     2
100
AcDbVertex
100
AcDb2dVertex
 10
1118.421295632201
 20
1902.489840704316
 30
0.0
  0
VERTEX
  5
317
330
238
100
AcDbEntity
  8
枠_表
  6
CONTINUOUS
 62
     2
100
AcDbVertex
100
AcDb2dVertex
 10
1118.414873355789
 20
1902.463279335683
 30
0.0
  0
VERTEX
  5
318
330
238
100
AcDbEntity
  8
枠_表
  6
CONTINUOUS
 62
     2
100
AcDbVertex
100
AcDb2dVertex
 10
1118.4081992254
 20
1902.436794570293
 30
0.0
  0
VERTEX
  5
319
330
238
100
AcDbEntity
  8
枠_表
  6
CONTINUOUS
 62
     2
100
AcDbVertex
100
AcDb2dVertex
 10
1118.401273241034
 20
1902.410386408146
 30
0.0
  0
VERTEX
  5
31A
330
238
100
AcDbEntity
  8
枠_表
  6
CONTINUOUS
 62
     2
100
AcDbVertex
100
AcDb2dVertex
 10
1118.394095402692
 20
1902.384054849241
 30
0.0
  0
VERTEX
  5
31B
330
238
100
AcDbEntity
  8
枠_表
  6
CONTINUOUS
 62
     2
100
AcDbVertex
100
AcDb2dVertex
 10
1118.386665710372
 20
1902.357799893579
 30
0.0
  0
VERTEX
  5
31C
330
238
100
AcDbEntity
  8
枠_表
  6
CONTINUOUS
 62
     2
100
AcDbVertex
100
AcDb2dVertex
 10
1118.378984164075
 20
1902.33162154116
 30
0.0
  0
VERTEX
  5
31D
330
238
100
AcDbEntity
  8
枠_表
  6
CONTINUOUS
 62
     2
100
AcDbVertex
100
AcDb2dVertex
 10
1118.371050763802
 20
1902.305519791984
 30
0.0
  0
VERTEX
  5
31E
330
238
100
AcDbEntity
  8
枠_表
  6
CONTINUOUS
 62
     2
100
AcDbVertex
100
AcDb2dVertex
 10
1118.362865509551
 20
1902.279494646051
 30
0.0
  0
VERTEX
  5
31F
330
238
100
AcDbEntity
  8
枠_表
  6
CONTINUOUS
 62
     2
100
AcDbVertex
100
AcDb2dVertex
 10
1118.354428401323
 20
1902.25354610336
 30
0.0
  0
VERTEX
  5
320
330
238
100
AcDbEntity
  8
枠_表
  6
CONTINUOUS
 62
     2
100
AcDbVertex
100
AcDb2dVertex
 10
1118.345739439119
 20
1902.227674163912
 30
0.0
  0
VERTEX
  5
321
330
238
100
AcDbEntity
  8
枠_表
  6
CONTINUOUS
 62
     2
100
AcDbVertex
100
AcDb2dVertex
 10
1118.336798622937
 20
1902.201878827708
 30
0.0
  0
VERTEX
  5
322
330
238
100
AcDbEntity
  8
枠_表
  6
CONTINUOUS
 62
     2
100
AcDbVertex
100
AcDb2dVertex
 10
1118.327605952779
 20
1902.176160094745
 30
0.0
  0
VERTEX
  5
323
330
238
100
AcDbEntity
  8
枠_表
  6
CONTINUOUS
 62
     2
100
AcDbVertex
100
AcDb2dVertex
 10
1118.318161428644
 20
1902.150517965026
 30
0.0
  0
VERTEX
  5
324
330
238
100
AcDbEntity
  8
枠_表
  6
CONTINUOUS
 62
     2
100
AcDbVertex
100
AcDb2dVertex
 10
1118.308465050532
 20
1902.12495243855
 30
0.0
  0
VERTEX
  5
325
330
238
100
AcDbEntity
  8
枠_表
  6
CONTINUOUS
 62
     2
100
AcDbVertex
100
AcDb2dVertex
 10
1118.298516818442
 20
1902.099463515316
 30
0.0
  0
VERTEX
  5
326
330
238
100
AcDbEntity
  8
枠_表
  6
CONTINUOUS
 62
     2
100
AcDbVertex
100
AcDb2dVertex
 10
1118.288316732376
 20
1902.074051195325
 30
0.0
  0
VERTEX
  5
327
330
238
100
AcDbEntity
  8
枠_表
  6
CONTINUOUS
 62
     2
100
AcDbVertex
100
AcDb2dVertex
 10
1118.277864792333
 20
1902.048715478578
 30
0.0
  0
VERTEX
  5
328
330
238
100
AcDbEntity
  8
枠_表
  6
CONTINUOUS
 62
     2
100
AcDbVertex
100
AcDb2dVertex
 10
1118.267160998313
 20
1902.023456365072
 30
0.0
  0
VERTEX
  5
329
330
238
100
AcDbEntity
  8
枠_表
  6
CONTINUOUS
 62
     2
100
AcDbVertex
100
AcDb2dVertex
 10
1118.256205350316
 20
1901.99827385481
 30
0.0
  0
VERTEX
  5
32A
330
238
100
AcDbEntity
  8
枠_表
  6
CONTINUOUS
 62
     2
100
AcDbVertex
100
AcDb2dVertex
 10
1118.244997848342
 20
1901.973167947791
 30
0.0
  0
VERTEX
  5
32B
330
238
100
AcDbEntity
  8
枠_表
  6
CONTINUOUS
 62
     2
100
AcDbVertex
100
AcDb2dVertex
 10
1118.233538492392
 20
1901.948138644014
 30
0.0
  0
VERTEX
  5
32C
330
238
100
AcDbEntity
  8
枠_表
  6
CONTINUOUS
 62
     2
100
AcDbVertex
100
AcDb2dVertex
 10
1118.221827282464
 20
1901.92318594348
 30
0.0
  0
VERTEX
  5
32D
330
238
100
AcDbEntity
  8
枠_表
  6
CONTINUOUS
 62
     2
100
AcDbVertex
100
AcDb2dVertex
 10
1118.209864218559
 20
1901.898309846189
 30
0.0
  0
VERTEX
  5
32E
330
238
100
AcDbEntity
  8
枠_表
  6
CONTINUOUS
 62
     2
100
AcDbVertex
100
AcDb2dVertex
 10
1118.197649300678
 20
1901.873510352141
 30
0.0
  0
VERTEX
  5
32F
330
238
100
AcDbEntity
  8
枠_表
  6
CONTINUOUS
 62
     2
100
AcDbVertex
100
AcDb2dVertex
 10
1118.185182528819
 20
1901.848787461335
 30
0.0
  0
VERTEX
  5
330
330
238
100
AcDbEntity
  8
枠_表
  6
CONTINUOUS
 62
     2
100
AcDbVertex
100
AcDb2dVertex
 10
1118.172463902984
 20
1901.824141173773
 30
0.0
  0
VERTEX
  5
331
330
238
100
AcDbEntity
  8
枠_表
  6
CONTINUOUS
 62
     2
100
AcDbVertex
100
AcDb2dVertex
 10
1118.159493423171
 20
1901.799571489453
 30
0.0
  0
VERTEX
  5
332
330
238
100
AcDbEntity
  8
枠_表
  6
CONTINUOUS
 62
     2
100
AcDbVertex
100
AcDb2dVertex
 10
1118.146271089382
 20
1901.775078408376
 30
0.0
  0
VERTEX
  5
333
330
238
100
AcDbEntity
  8
枠_表
  6
CONTINUOUS
 62
     2
100
AcDbVertex
100
AcDb2dVertex
 10
1118.132796901615
 20
1901.750661930542
 30
0.0
  0
VERTEX
  5
334
330
238
100
AcDbEntity
  8
枠_表
  6
CONTINUOUS
 62
     2
100
AcDbVertex
100
AcDb2dVertex
 10
1118.119070859872
 20
1901.726322055951
 30
0.0
  0
VERTEX
  5
335
330
238
100
AcDbEntity
  8
枠_表
  6
CONTINUOUS
 62
     2
100
AcDbVertex
100
AcDb2dVertex
 10
1118.105092964152
 20
1901.702058784603
 30
0.0
  0
VERTEX
  5
336
330
238
100
AcDbEntity
  8
枠_表
  6
CONTINUOUS
 62
     2
100
AcDbVertex
100
AcDb2dVertex
 10
1118.090863214455
 20
1901.677872116497
 30
0.0
  0
VERTEX
  5
337
330
238
100
AcDbEntity
  8
枠_表
  6
CONTINUOUS
 62
     2
100
AcDbVertex
100
AcDb2dVertex
 10
1118.076381610781
 20
1901.653762051634
 30
0.0
  0
VERTEX
  5
338
330
238
100
AcDbEntity
  8
枠_表
  6
CONTINUOUS
 62
     2
100
AcDbVertex
100
AcDb2dVertex
 10
1118.06164815313
 20
1901.629728590014
 30
0.0
  0
VERTEX
  5
339
330
238
100
AcDbEntity
  8
枠_表
  6
CONTINUOUS
 62
     2
100
AcDbVertex
100
AcDb2dVertex
 10
1118.046662841502
 20
1901.605771731637
 30
0.0
  0
VERTEX
  5
33A
330
238
100
AcDbEntity
  8
枠_表
  6
CONTINUOUS
 62
     2
100
AcDbVertex
100
AcDb2dVertex
 10
1118.031425675897
 20
1901.581891476503
 30
0.0
  0
VERTEX
  5
33B
330
238
100
AcDbEntity
  8
枠_表
  6
CONTINUOUS
 62
     2
100
AcDbVertex
100
AcDb2dVertex
 10
1118.015936656315
 20
1901.558087824611
 30
0.0
  0
VERTEX
  5
33C
330
238
100
AcDbEntity
  8
枠_表
  6
CONTINUOUS
 62
     2
100
AcDbVertex
100
AcDb2dVertex
 10
1118.000195782756
 20
1901.534360775963
 30
0.0
  0
VERTEX
  5
33D
330
238
100
AcDbEntity
  8
枠_表
  6
CONTINUOUS
 62
     2
100
AcDbVertex
100
AcDb2dVertex
 10
1117.98420305522
 20
1901.510710330557
 30
0.0
  0
VERTEX
  5
33E
330
238
100
AcDbEntity
  8
枠_表
  6
CONTINUOUS
 62
     2
100
AcDbVertex
100
AcDb2dVertex
 10
1117.968001773978
 20
1901.487199925497
 30
0.0
  0
VERTEX
  5
33F
330
238
100
AcDbEntity
  8
枠_表
  6
CONTINUOUS
 62
     2
100
AcDbVertex
100
AcDb2dVertex
 10
1117.9516352393
 20
1901.463892997886
 30
0.0
  0
VERTEX
  5
340
330
238
100
AcDbEntity
  8
枠_表
  6
CONTINUOUS
 62
     2
100
AcDbVertex
100
AcDb2dVertex
 10
1117.935103451186
 20
1901.440789547724
 30
0.0
  0
VERTEX
  5
341
330
238
100
AcDbEntity
  8
枠_表
  6
CONTINUOUS
 62
     2
100
AcDbVertex
100
AcDb2dVertex
 10
1117.918406409637
 20
1901.417889575012
 30
0.0
  0
VERTEX
  5
342
330
238
100
AcDbEntity
  8
枠_表
  6
CONTINUOUS
 62
     2
100
AcDbVertex
100
AcDb2dVertex
 10
1117.901544114652
 20
1901.395193079748
 30
0.0
  0
VERTEX
  5
343
330
238
100
AcDbEntity
  8
枠_表
  6
CONTINUOUS
 62
     2
100
AcDbVertex
100
AcDb2dVertex
 10
1117.884516566231
 20
1901.372700061934
 30
0.0
  0
VERTEX
  5
344
330
238
100
AcDbEntity
  8
枠_表
  6
CONTINUOUS
 62
     2
100
AcDbVertex
100
AcDb2dVertex
 10
1117.867323764374
 20
1901.350410521569
 30
0.0
  0
VERTEX
  5
345
330
238
100
AcDbEntity
  8
枠_表
  6
CONTINUOUS
 62
     2
100
AcDbVertex
100
AcDb2dVertex
 10
1117.849965709081
 20
1901.328324458652
 30
0.0
  0
VERTEX
  5
346
330
238
100
AcDbEntity
  8
枠_表
  6
CONTINUOUS
 62
     2
100
AcDbVertex
100
AcDb2dVertex
 10
1117.832442400353
 20
1901.306441873185
 30
0.0
  0
VERTEX
  5
347
330
238
100
AcDbEntity
  8
枠_表
  6
CONTINUOUS
 62
     2
100
AcDbVertex
100
AcDb2dVertex
 10
1117.814753838188
 20
1901.284762765167
 30
0.0
  0
VERTEX
  5
348
330
238
100
AcDbEntity
  8
枠_表
  6
CONTINUOUS
 62
     2
100
AcDbVertex
100
AcDb2dVertex
 10
1117.796900022588
 20
1901.263287134598
 30
0.0
  0
VERTEX
  5
349
330
238
100
AcDbEntity
  8
枠_表
  6
CONTINUOUS
 62
     2
100
AcDbVertex
100
AcDb2dVertex
 10
1117.778880953552
 20
1901.242014981478
 30
0.0
  0
VERTEX
  5
34A
330
238
100
AcDbEntity
  8
枠_表
  6
CONTINUOUS
 62
     2
100
AcDbVertex
100
AcDb2dVertex
 10
1117.760696631081
 20
1901.220946305807
 30
0.0
  0
VERTEX
  5
34B
330
238
100
AcDbEntity
  8
枠_表
  6
CONTINUOUS
 62
     2
100
AcDbVertex
100
AcDb2dVertex
 10
1117.742347055173
 20
1901.200081107586
 30
0.0
  0
VERTEX
  5
34C
330
238
100
AcDbEntity
  8
枠_表
  6
CONTINUOUS
 62
     2
100
AcDbVertex
100
AcDb2dVertex
 10
1117.72383222583
 20
1901.179419386813
 30
0.0
  0
VERTEX
  5
34D
330
238
100
AcDbEntity
  8
枠_表
  6
CONTINUOUS
 62
     2
100
AcDbVertex
100
AcDb2dVertex
 10
1117.705152143051
 20
1901.15896114349
 30
0.0
  0
VERTEX
  5
34E
330
238
100
AcDbEntity
  8
枠_表
  6
CONTINUOUS
 62
     2
100
AcDbVertex
100
AcDb2dVertex
 10
1117.686306806836
 20
1901.138706377615
 30
0.0
  0
VERTEX
  5
34F
330
238
100
AcDbEntity
  8
枠_表
  6
CONTINUOUS
 62
     2
100
AcDbVertex
100
AcDb2dVertex
 10
1117.667296217186
 20
1901.11865508919
 30
0.0
  0
VERTEX
  5
350
330
238
100
AcDbEntity
  8
枠_表
  6
CONTINUOUS
 62
     2
100
AcDbVertex
100
AcDb2dVertex
 10
1117.648120374099
 20
1901.098807278214
 30
0.0
  0
VERTEX
  5
351
330
238
100
AcDbEntity
  8
枠_表
  6
CONTINUOUS
 62
     2
100
AcDbVertex
100
AcDb2dVertex
 10
1117.628779277577
 20
1901.079162944687
 30
0.0
  0
VERTEX
  5
352
330
238
100
AcDbEntity
  8
枠_表
  6
CONTINUOUS
 62
     2
100
AcDbVertex
100
AcDb2dVertex
 10
1117.609272927619
 20
1901.059722088609
 30
0.0
  0
VERTEX
  5
353
330
238
100
AcDbEntity
  8
枠_表
  6
CONTINUOUS
 62
     2
100
AcDbVertex
100
AcDb2dVertex
 10
1117.589601324225
 20
1901.04048470998
 30
0.0
  0
VERTEX
  5
354
330
238
100
AcDbEntity
  8
枠_表
  6
CONTINUOUS
 62
     2
100
AcDbVertex
100
AcDb2dVertex
 10
1117.569764467396
 20
1901.0214508088
 30
0.0
  0
VERTEX
  5
355
330
238
100
AcDbEntity
  8
枠_表
  6
CONTINUOUS
 62
     2
100
AcDbVertex
100
AcDb2dVertex
 10
1117.54976235713
 20
1901.002620385069
 30
0.0
  0
VERTEX
  5
356
330
238
100
AcDbEntity
  8
枠_表
  6
CONTINUOUS
 62
     2
100
AcDbVertex
100
AcDb2dVertex
 10
1117.529594993429
 20
1900.983993438788
 30
0.0
  0
VERTEX
  5
357
330
238
100
AcDbEntity
  8
枠_表
  6
CONTINUOUS
 62
     2
100
AcDbVertex
100
AcDb2dVertex
 10
1117.509262376292
 20
1900.965569969955
 30
0.0
  0
VERTEX
  5
358
330
238
100
AcDbEntity
  8
枠_表
  6
CONTINUOUS
 62
     2
100
AcDbVertex
100
AcDb2dVertex
 10
1117.488764505719
 20
1900.947349978572
 30
0.0
  0
VERTEX
  5
359
330
238
100
AcDbEntity
  8
枠_表
  6
CONTINUOUS
 62
     2
100
AcDbVertex
100
AcDb2dVertex
 10
1117.46810138171
 20
1900.929333464637
 30
0.0
  0
VERTEX
  5
35A
330
238
100
AcDbEntity
  8
枠_表
  6
CONTINUOUS
 62
     2
100
AcDbVertex
100
AcDb2dVertex
 10
1117.447273004266
 20
1900.911520428152
 30
0.0
  0
VERTEX
  5
35B
330
238
100
AcDbEntity
  8
枠_表
  6
CONTINUOUS
 62
     2
100
AcDbVertex
100
AcDb2dVertex
 10
1117.426279373386
 20
1900.893910869116
 30
0.0
  0
VERTEX
  5
35C
330
238
100
AcDbEntity
  8
枠_表
  6
CONTINUOUS
 62
     2
100
AcDbVertex
100
AcDb2dVertex
 10
1117.40512048907
 20
1900.876504787529
 30
0.0
  0
VERTEX
  5
35D
330
238
100
AcDbEntity
  8
枠_表
  6
CONTINUOUS
 62
     2
100
AcDbVertex
100
AcDb2dVertex
 10
1117.383796351318
 20
1900.859302183391
 30
0.0
  0
VERTEX
  5
35E
330
238
100
AcDbEntity
  8
枠_表
  6
CONTINUOUS
 62
     2
100
AcDbVertex
100
AcDb2dVertex
 10
1117.36230696013
 20
1900.842303056702
 30
0.0
  0
VERTEX
  5
35F
330
238
100
AcDbEntity
  8
枠_表
  6
CONTINUOUS
 62
     2
100
AcDbVertex
100
AcDb2dVertex
 10
1117.340652315507
 20
1900.825507407462
 30
0.0
  0
VERTEX
  5
360
330
238
100
AcDbEntity
  8
枠_表
  6
CONTINUOUS
 62
     2
100
AcDbVertex
100
AcDb2dVertex
 10
1117.318832417448
 20
1900.808915235671
 30
0.0
  0
VERTEX
  5
361
330
238
100
AcDbEntity
  8
枠_表
  6
CONTINUOUS
 62
     2
100
AcDbVertex
100
AcDb2dVertex
 10
1117.296847265953
 20
1900.79252654133
 30
0.0
  0
VERTEX
  5
362
330
238
100
AcDbEntity
  8
枠_表
  6
CONTINUOUS
 62
     2
100
AcDbVertex
100
AcDb2dVertex
 10
1117.274696861022
 20
1900.776341324437
 30
0.0
  0
VERTEX
  5
363
330
238
100
AcDbEntity
  8
枠_表
  6
CONTINUOUS
 62
     2
100
AcDbVertex
100
AcDb2dVertex
 10
1117.252381202656
 20
1900.760359584994
 30
0.0
  0
VERTEX
  5
364
330
238
100
AcDbEntity
  8
枠_表
  6
CONTINUOUS
 62
     2
100
AcDbVertex
100
AcDb2dVertex
 10
1117.229900290853
 20
1900.744581322999
 30
0.0
  0
VERTEX
  5
365
330
238
100
AcDbEntity
  8
枠_表
  6
CONTINUOUS
 62
     2
100
AcDbVertex
100
AcDb2dVertex
 10
1117.207254125615
 20
1900.729006538454
 30
0.0
  0
VERTEX
  5
366
330
238
100
AcDbEntity
  8
枠_表
  6
CONTINUOUS
 62
     2
100
AcDbVertex
100
AcDb2dVertex
 10
1117.184442706941
 20
1900.713635231358
 30
0.0
  0
VERTEX
  5
367
330
238
100
AcDbEntity
  8
枠_表
  6
CONTINUOUS
 62
     2
100
AcDbVertex
100
AcDb2dVertex
 10
1117.161466034831
 20
1900.698467401711
 30
0.0
  0
VERTEX
  5
368
330
238
100
AcDbEntity
  8
枠_表
  6
CONTINUOUS
 62
     2
100
AcDbVertex
100
AcDb2dVertex
 10
1117.138324109286
 20
1900.683503049513
 30
0.0
  0
VERTEX
  5
369
330
238
100
AcDbEntity
  8
枠_表
  6
CONTINUOUS
 62
     2
100
AcDbVertex
100
AcDb2dVertex
 10
1117.115016930305
 20
1900.668742174764
 30
0.0
  0
VERTEX
  5
36A
330
238
100
AcDbEntity
  8
枠_表
  6
CONTINUOUS
 62
     2
100
AcDbVertex
100
AcDb2dVertex
 10
1117.091544497887
 20
1900.654184777464
 30
0.0
  0
VERTEX
  5
36B
330
238
100
AcDbEntity
  8
枠_表
  6
CONTINUOUS
 62
     2
100
AcDbVertex
100
AcDb2dVertex
 10
1117.067906812034
 20
1900.639830857614
 30
0.0
  0
VERTEX
  5
36C
330
238
100
AcDbEntity
  8
枠_表
  6
CONTINUOUS
 62
     2
100
AcDbVertex
100
AcDb2dVertex
 10
1117.044103872746
 20
1900.625680415212
 30
0.0
  0
VERTEX
  5
36D
330
238
100
AcDbEntity
  8
枠_表
  6
CONTINUOUS
 62
     2
100
AcDbVertex
100
AcDb2dVertex
 10
1117.020135680021
 20
1900.61173345026
 30
0.0
  0
VERTEX
  5
36E
330
238
100
AcDbEntity
  8
枠_表
  6
CONTINUOUS
 62
     2
100
AcDbVertex
100
AcDb2dVertex
 10
1116.996002233861
 20
1900.597989962757
 30
0.0
  0
VERTEX
  5
36F
330
238
100
AcDbEntity
  8
枠_表
  6
CONTINUOUS
 62
     2
100
AcDbVertex
100
AcDb2dVertex
 10
1116.971703534265
 20
1900.584449952702
 30
0.0
  0
VERTEX
  5
370
330
238
100
AcDbEntity
  8
枠_表
  6
CONTINUOUS
 62
     2
100
AcDbVertex
100
AcDb2dVertex
 10
1116.947239581233
 20
1900.571113420097
 30
0.0
  0
VERTEX
  5
371
330
238
100
AcDbEntity
  8
枠_表
  6
CONTINUOUS
 62
     2
100
AcDbVertex
100
AcDb2dVertex
 10
1116.922610374765
 20
1900.557980364941
 30
0.0
  0
VERTEX
  5
372
330
238
100
AcDbEntity
  8
枠_表
  6
CONTINUOUS
 62
     2
100
AcDbVertex
100
AcDb2dVertex
 10
1116.897815914862
 20
1900.545050787234
 30
0.0
  0
VERTEX
  5
373
330
238
100
AcDbEntity
  8
枠_表
  6
CONTINUOUS
 62
     2
100
AcDbVertex
100
AcDb2dVertex
 10
1116.872856201523
 20
1900.532324686976
 30
0.0
  0
VERTEX
  5
374
330
238
100
AcDbEntity
  8
枠_表
  6
CONTINUOUS
 62
     2
100
AcDbVertex
100
AcDb2dVertex
 10
1116.847731234748
 20
1900.519802064167
 30
0.0
  0
VERTEX
  5
375
330
238
100
AcDbEntity
  8
枠_表
  6
CONTINUOUS
 62
     2
100
AcDbVertex
100
AcDb2dVertex
 10
1116.822441014537
 20
1900.507482918807
 30
0.0
  0
VERTEX
  5
376
330
238
100
AcDbEntity
  8
枠_表
  6
CONTINUOUS
 62
     2
100
AcDbVertex
100
AcDb2dVertex
 10
1116.79698554089
 20
1900.495367250897
 30
0.0
  0
VERTEX
  5
377
330
238
100
AcDbEntity
  8
枠_表
  6
CONTINUOUS
 62
     2
100
AcDbVertex
100
AcDb2dVertex
 10
1116.771364813807
 20
1900.483455060435
 30
0.0
  0
VERTEX
  5
378
330
238
100
AcDbEntity
  8
枠_表
  6
CONTINUOUS
 62
     2
100
AcDbVertex
100
AcDb2dVertex
 10
1116.745578833289
 20
1900.471746347423
 30
0.0
  0
VERTEX
  5
379
330
238
100
AcDbEntity
  8
枠_表
  6
CONTINUOUS
 62
     2
100
AcDbVertex
100
AcDb2dVertex
 10
1116.719627599335
 20
1900.460241111859
 30
0.0
  0
VERTEX
  5
37A
330
238
100
AcDbEntity
  8
枠_表
  6
CONTINUOUS
 62
     2
100
AcDbVertex
100
AcDb2dVertex
 10
1116.693511111946
 20
1900.448939353745
 30
0.0
  0
VERTEX
  5
37B
330
238
100
AcDbEntity
  8
枠_表
  6
CONTINUOUS
 62
     2
100
AcDbVertex
100
AcDb2dVertex
 10
1116.66722937112
 20
1900.43784107308
 30
0.0
  0
VERTEX
  5
37C
330
238
100
AcDbEntity
  8
枠_表
  6
CONTINUOUS
 62
     2
100
AcDbVertex
100
AcDb2dVertex
 10
1116.640782376858
 20
1900.426946269864
 30
0.0
  0
VERTEX
  5
37D
330
238
100
AcDbEntity
  8
枠_表
  6
CONTINUOUS
 62
     2
100
AcDbVertex
100
AcDb2dVertex
 10
1116.614170129161
 20
1900.416254944097
 30
0.0
  0
VERTEX
  5
37E
330
238
100
AcDbEntity
  8
枠_表
  6
CONTINUOUS
 62
     2
100
AcDbVertex
100
AcDb2dVertex
 10
1068.799663404127
 20
1881.447638730993
 30
0.0
  0
SEQEND
  5
37F
330
238
100
AcDbEntity
  8
枠_表
  6
CONTINUOUS
 62
     2
  0
LEADER
  5
380
330
1F
100
AcDbEntity
  8
枠_表
  6
CONTINUOUS
 62
     3
100
AcDbLeader
  3
ISO-25
 76
     3
 10
1178.2057354492
 20
699.8233191297988
 30
0.0
 10
1233.197303044
 20
759.8192080565589
 30
0.0
 10
1233.197303044
 20
929.8192080565589
 30
0.0
1001
ACAD
1000
DSTYLE
1002
{
1070
     5
1000
EX_NORM
1070
    41
1040
30.0
1070
   341
1005
4E
1002
}
  0
TEXT
  5
381
330
1F
100
AcDbEntity
  8
枠_表
  6
CONTINUOUS
 62
     2
100
AcDbText
 10
1229.697303044
 20
764.8192080565589
 30
0.0
 40
40.0
  1
電源コード
 50
90.0
 41
1.013793103448276
  7
EXCADSTD
 72
     5
 11
1229.697303044
 21
932.8192080565589
 31
0.0
100
AcDbText
  0
POLYLINE
  5
382
330
1F
100
AcDbEntity
  8
枠_表
  6
CONTINUOUS
 62
     2
100
AcDb2dPolyline
 66
     1
 10
0.0
 20
0.0
 30
0.0
 70
   128
  0
VERTEX
  5
383
330
382
100
AcDbEntity
  8
枠_表
  6
CONTINUOUS
 62
     2
100
AcDbVertex
100
AcDb2dVertex
 10
1123.489008783909
 20
496.0
 30
0.0
  0
VERTEX
  5
384
330
382
100
AcDbEntity
  8
枠_表
  6
CONTINUOUS
 62
     2
100
AcDbVertex
100
AcDb2dVertex
 10
383.49996311702
 20
495.9999999999999
 30
0.0
  0
SEQEND
  5
385
330
382
100
AcDbEntity
  8
枠_表
  6
CONTINUOUS
 62
     2
  0
DIMENSION
  5
387
330
1F
100
AcDbEntity
  8
枠_表
  6
CONTINUOUS
 62
     3
100
AcDbDimension
  2
*D15
 10
1128.4889350174
 20
1622.0
 30
0.0
 11
753.4944675087102
 21
1645.499999940395
 31
0.0
 70
   160
  3
ISO-25
100
AcDbAlignedDimension
 13
378.50000000002
 23
1541.0
 33
0.0
 14
1128.4889350174
 24
1541.0
 34
0.0
100
AcDbRotatedDimension
1001
ACAD
1000
DSTYLE
1002
{
1070
   270
1070
     2
1070
     6
1000
EX_NORM
1070
     7
1000
EX_NORM
1070
    41
1040
30.0
1070
    42
1040
6.99999988079071
1070
    44
1040
10.0
1070
    73
1070
     0
1070
    74
1070
     0
1070
    75
1070
     0
1070
    76
1070
     0
1070
    77
1070
     1
1070
    78
1070
     8
1070
   140
1040
40.0
1070
   147
1040
0.0
1070
   173
1070
     1
1070
   176
1070
     3
1070
   177
1070
     3
1070
   178
1070
     2
1070
   271
1070
     1
1070
   277
1070
     2
1070
   279
1070
     2
1070
   280
1070
     0
1070
   287
1070
     5
1070
   340
1005
386
1002
}
  0
DIMENSION
  5
395
330
1F
100
AcDbEntity
  8
枠_表
  6
CONTINUOUS
 62
     3
100
AcDbDimension
  2
*D16
 10
1294.0
 20
496.0
 30
0.0
 11
1270.500000059605
 21
1021.0
 31
0.0
 70
   160
  3
ISO-25
100
AcDbAlignedDimension
 13
1123.4889719004
 23
1546.0
 33
0.0
 14
1123.4889719004
 24
496.0
 34
0.0
 50
90.0
100
AcDbRotatedDimension
1001
ACAD
1000
DSTYLE
1002
{
1070
   270
1070
     2
1070
     6
1000
EX_NORM
1070
     7
1000
EX_NORM
1070
    41
1040
30.0
1070
    42
1040
6.99999988079071
1070
    44
1040
10.0
1070
    73
1070
     0
1070
    74
1070
     0
1070
    75
1070
     0
1070
    76
1070
     0
1070
    77
1070
     1
1070
    78
1070
     8
1070
   140
1040
40.0
1070
   147
1040
0.0
1070
   173
1070
     1
1070
   176
1070
     3
1070
   177
1070
     3
1070
   178
1070
     2
1070
   271
1070
     1
1070
   277
1070
     2
1070
   279
1070
     2
1070
   280
1070
     0
1070
   287
1070
     5
1070
   340
1005
386
1002
}
  0
DIMENSION
  5
3A2
330
1F
100
AcDbEntity
  8
枠_表
  6
CONTINUOUS
 62
     3
100
AcDbDimension
  2
*D17
 10
1232.0
 20
581.0
 30
0.0
 11
1208.500000059605
 21
645.9999999999997
 31
0.0
 70
   160
  3
ISO-25
100
AcDbAlignedDimension
 13
1123.4889719004
 23
496.0
 33
0.0
 14
1128.4889350174
 24
581.0
 34
0.0
 50
90.0
100
AcDbRotatedDimension
1001
ACAD
1000
DSTYLE
1002
{
1070
   270
1070
     2
1070
     6
1000
EX_NORM
1070
     7
1000
EX_NORM
1070
    41
1040
30.0
1070
    42
1040
6.99999988079071
1070
    44
1040
10.0
1070
    73
1070
     0
1070
    74
1070
     0
1070
    75
1070
     0
1070
    76
1070
     0
1070
    77
1070
     1
1070
    78
1070
     8
1070
   140
1040
40.0
1070
   147
1040
0.0
1070
   173
1070
     1
1070
   176
1070
     3
1070
   177
1070
     3
1070
   178
1070
     2
1070
   271
1070
     1
1070
   277
1070
     2
1070
   279
1070
     2
1070
   280
1070
     2
1070
   287
1070
     5
1070
   340
1005
386
1002
}
  0
LEADER
  5
3AF
330
1F
100
AcDbEntity
  8
枠_表
  6
CONTINUOUS
 62
     3
100
AcDbLeader
  3
ISO-25
 76
     3
 10
1711.987267153999
 20
1492.2930912521
 30
0.0
 10
1744.283424743999
 20
1546.1056520897
 30
0.0
 10
1881.283424743999
 20
1546.1056520897
 30
0.0
1001
ACAD
1000
DSTYLE
1002
{
1070
     5
1000
EX_NORM
1070
    41
1040
30.0
1070
   341
1005
4E
1002
}
  0
TEXT
  5
3B0
330
1F
100
AcDbEntity
  8
枠_表
  6
CONTINUOUS
 62
     2
100
AcDbText
 10
1749.283424743999
 20
1549.6056520897
 30
0.0
 40
40.0
  1
取付ねじ
 41
1.034782608695652
  7
EXCADSTD
 72
     5
 11
1885.283424743999
 21
1549.6056520897
 31
0.0
100
AcDbText
  0
DIMENSION
  5
3B1
330
1F
100
AcDbEntity
  8
枠_表
  6
CONTINUOUS
 62
     3
100
AcDbDimension
  2
*D18
 10
1680.5
 20
435.0
 30
0.0
 11
1615.5
 21
458.4999999403949
 31
0.0
 70
   160
  3
ISO-25
100
AcDbAlignedDimension
 13
1700.5
 23
496.0
 33
0.0
 14
1680.5
 24
517.0
 34
0.0
100
AcDbRotatedDimension
1001
ACAD
1000
DSTYLE
1002
{
1070
   270
1070
     2
1070
     6
1000
EX_NORM
1070
     7
1000
EX_NORM
1070
    41
1040
30.0
1070
    42
1040
6.99999988079071
1070
    44
1040
10.0
1070
    73
1070
     0
1070
    74
1070
     0
1070
    75
1070
     0
1070
    76
1070
     0
1070
    77
1070
     1
1070
    78
1070
     8
1070
   140
1040
40.0
1070
   147
1040
0.0
1070
   173
1070
     1
1070
   176
1070
     3
1070
   177
1070
     3
1070
   178
1070
     2
1070
   271
1070
     1
1070
   277
1070
     2
1070
   279
1070
     2
1070
   280
1070
     2
1070
   287
1070
     5
1070
   340
1005
386
1002
}
  0
DIMENSION
  5
3C0
330
1F
100
AcDbEntity
  8
枠_表
  6
CONTINUOUS
 62
     3
100
AcDbDimension
  2
*D19
 10
1700.5
 20
1617.0
 30
0.0
 11
1620.5
 21
1640.499999940395
 31
0.0
 70
   160
  3
ISO-25
100
AcDbAlignedDimension
 13
1540.5
 23
1518.1031991182
 33
0.0
 14
1700.5
 24
1546.0
 34
0.0
100
AcDbRotatedDimension
1001
ACAD
1000
DSTYLE
1002
{
1070
   270
1070
     2
1070
     6
1000
EX_NORM
1070
     7
1000
EX_NORM
1070
    41
1040
30.0
1070
    42
1040
6.99999988079071
1070
    44
1040
10.0
1070
    73
1070
     0
1070
    74
1070
     0
1070
    75
1070
     0
1070
    76
1070
     0
1070
    77
1070
     1
1070
    78
1070
     8
1070
   140
1040
40.0
1070
   147
1040
0.0
1070
   173
1070
     1
1070
   176
1070
     3
1070
   177
1070
     3
1070
   178
1070
     2
1070
   271
1070
     1
1070
   277
1070
     2
1070
   279
1070
     2
1070
   280
1070
     0
1070
   287
1070
     5
1070
   340
1005
386
1002
}
  0
DIMENSION
  5
3CD
330
1F
100
AcDbEntity
  8
枠_表
  6
CONTINUOUS
 62
     3
100
AcDbDimension
  2
*D20
 10
1810.0
 20
521.0
 30
0.0
 11
1786.500000059605
 21
430.9999999999995
 31
0.0
 70
   160
  3
ISO-25
100
AcDbAlignedDimension
 13
1700.5
 23
496.0
 33
0.0
 14
1748.0
 24
521.0
 34
0.0
 50
90.0
100
AcDbRotatedDimension
1001
ACAD
1000
DSTYLE
1002
{
1070
   270
1070
     2
1070
     6
1000
EX_NORM
1070
     7
1000
EX_NORM
1070
    41
1040
30.0
1070
    42
1040
6.99999988079071
1070
    44
1040
10.0
1070
    73
1070
     0
1070
    74
1070
     0
1070
    75
1070
     0
1070
    76
1070
     0
1070
    77
1070
     1
1070
    78
1070
     8
1070
   140
1040
40.0
1070
   147
1040
0.0
1070
   173
1070
     1
1070
   176
1070
     3
1070
   177
1070
     3
1070
   178
1070
     2
1070
   271
1070
     1
1070
   277
1070
     2
1070
   279
1070
     2
1070
   280
1070
     1
1070
   287
1070
     5
1070
   340
1005
386
1002
}
  0
DIMENSION
  5
3DC
330
1F
100
AcDbEntity
  8
枠_表
  6
CONTINUOUS
 62
     3
100
AcDbDimension
  2
*D21
 10
1810.0
 20
521.0
 30
0.0
 11
1786.500000059605
 21
1006.0
 31
0.0
 70
   160
  3
ISO-25
100
AcDbAlignedDimension
 13
1733.0
 23
1491.0
 33
0.0
 14
1733.0
 24
521.0
 34
0.0
 50
90.0
100
AcDbRotatedDimension
1001
ACAD
1000
DSTYLE
1002
{
1070
   270
1070
     2
1070
     6
1000
EX_NORM
1070
     7
1000
EX_NORM
1070
    41
1040
30.0
1070
    42
1040
6.99999988079071
1070
    44
1040
10.0
1070
    73
1070
     0
1070
    74
1070
     0
1070
    75
1070
     0
1070
    76
1070
     0
1070
    77
1070
     1
1070
    78
1070
     8
1070
   140
1040
40.0
1070
   147
1040
0.0
1070
   173
1070
     1
1070
   176
1070
     3
1070
   177
1070
     3
1070
   178
1070
     2
1070
   271
1070
     1
1070
   277
1070
     2
1070
   279
1070
     2
1070
   280
1070
     0
1070
   287
1070
     5
1070
   340
1005
386
1002
}
  0
DIMENSION
  5
3E9
330
1F
100
AcDbEntity
  8
枠_表
  6
CONTINUOUS
 62
     3
100
AcDbDimension
  2
*D22
 10
1700.5
 20
812.0
 30
0.0
 11
1515.5
 21
835.4999999403954
 31
0.0
 70
   160
  3
ISO-25
100
AcDbAlignedDimension
 13
1595.5
 23
773.00000000001
 33
0.0
 14
1700.5
 24
773.0000000000001
 34
0.0
100
AcDbRotatedDimension
1001
ACAD
1000
DSTYLE
1002
{
1070
   270
1070
     2
1070
     6
1000
EX_NORM
1070
     7
1000
EX_NORM
1070
    41
1040
30.0
1070
    42
1040
6.99999988079071
1070
    44
1040
10.0
1070
    73
1070
     0
1070
    74
1070
     0
1070
    75
1070
     0
1070
    76
1070
     0
1070
    77
1070
     1
1070
    78
1070
     8
1070
   140
1040
40.0
1070
   147
1040
0.0
1070
   173
1070
     1
1070
   176
1070
     3
1070
   177
1070
     3
1070
   178
1070
     2
1070
   271
1070
     1
1070
   277
1070
     2
1070
   279
1070
     2
1070
   280
1070
     1
1070
   287
1070
     5
1070
   340
1005
386
1002
}
  0
LINE
  5
3F6
330
1F
100
AcDbEntity
  8
枠_表
  6
CONTINUOUS
 62
     2
100
AcDbLine
 10
968.5047471539601
 20
1176.0
 30
0.0
 11
968.5047471539601
 21
1054.0
 31
0.0
  0
LINE
  5
3F7
330
1F
100
AcDbEntity
  8
枠_表
  6
CONTINUOUS
 62
     2
100
AcDbLine
 10
968.5047471539601
 20
1048.0
 30
0.0
 11
968.5047471539601
 21
1026.0
 31
0.0
  0
LINE
  5
3F8
330
1F
100
AcDbEntity
  8
枠_表
  6
CONTINUOUS
 62
     2
100
AcDbLine
 10
1093.50474715396
 20
1176.0
 30
0.0
 11
1093.50474715396
 21
1054.0
 31
0.0
  0
LINE
  5
3F9
330
1F
100
AcDbEntity
  8
枠_表
  6
CONTINUOUS
 62
     2
100
AcDbLine
 10
1093.50474715396
 20
1048.0
 30
0.0
 11
1093.50474715396
 21
1026.0
 31
0.0
  0
LINE
  5
3FA
330
1F
100
AcDbEntity
  8
枠_表
  6
CONTINUOUS
 62
     2
100
AcDbLine
 10
968.4944675086999
 20
1341.0
 30
0.0
 11
968.4944675086999
 21
1269.0
 31
0.0
  0
LINE
  5
3FB
330
1F
100
AcDbEntity
  8
枠_表
  6
CONTINUOUS
 62
     2
100
AcDbLine
 10
968.4944675086999
 20
1263.0
 30
0.0
 11
968.4944675086999
 21
1241.0
 31
0.0
  0
LINE
  5
3FC
330
1F
100
AcDbEntity
  8
枠_表
  6
CONTINUOUS
 62
     2
100
AcDbLine
 10
1093.4944675087
 20
1341.0
 30
0.0
 11
1093.4944675087
 21
1269.0
 31
0.0
  0
LINE
  5
3FD
330
1F
100
AcDbEntity
  8
枠_表
  6
CONTINUOUS
 62
     2
100
AcDbLine
 10
1093.4944675087
 20
1263.0
 30
0.0
 11
1093.4944675087
 21
1241.0
 31
0.0
  0
CIRCLE
  5
3FE
330
1F
100
AcDbEntity
  8
枠_表
  6
CONTINUOUS
 62
     2
100
AcDbCircle
 10
398.50000000002
 20
521.0
 30
0.0
 40
2.000000000000338
  0
CIRCLE
  5
3FF
330
1F
100
AcDbEntity
  8
枠_表
  6
CONTINUOUS
 62
     2
100
AcDbCircle
 10
1108.4889350174
 20
521.0
 30
0.0
 40
2.000000000000338
  0
DIMENSION
  5
400
330
1F
100
AcDbEntity
  8
鏡台
  6
CONTINUOUS
 62
     3
100
AcDbDimension
  2
*D23
 10
398.49999999999
 20
2094.0
 30
0.0
 11
313.5000000000001
 21
2117.499999940395
 31
0.0
 70
   160
  3
ISO-25
100
AcDbAlignedDimension
 13
378.5
 23
2001.0
 33
0.0
 14
398.49999999999
 24
2021.0
 34
0.0
100
AcDbRotatedDimension
1001
ACAD
1000
DSTYLE
1002
{
1070
   270
1070
     2
1070
     6
1000
EX_NORM
1070
     7
1000
EX_BCIR
1070
    41
1040
30.0
1070
    42
1040
6.99999988079071
1070
    44
1040
10.0
1070
    73
1070
     0
1070
    74
1070
     0
1070
    75
1070
     0
1070
    76
1070
     0
1070
    77
1070
     1
1070
    78
1070
     8
1070
   140
1040
40.0
1070
   147
1040
0.0
1070
   173
1070
     1
1070
   176
1070
     3
1070
   177
1070
     3
1070
   178
1070
     2
1070
   271
1070
     1
1070
   277
1070
     2
1070
   279
1070
     2
1070
   280
1070
     1
1070
   287
1070
     5
1070
   340
1005
386
1002
}
  0
DIMENSION
  5
40F
330
1F
100
AcDbEntity
  8
鏡台
  6
CONTINUOUS
 62
     3
100
AcDbDimension
  2
*D24
 10
433.4944675087
 20
2093.7
 30
0.0
 11
498.4944675087002
 21
2117.199999940395
 31
0.0
 70
   160
  3
ISO-25
100
AcDbAlignedDimension
 13
398.49999999999
 23
2021.0
 33
0.0
 14
433.4944675087
 24
2021.0
 34
0.0
100
AcDbRotatedDimension
1001
ACAD
1000
DSTYLE
1002
{
1070
   270
1070
     2
1070
     6
1000
EX_BCIR
1070
     7
1000
EX_NORM
1070
    41
1040
7.0
1070
    42
1040
6.99999988079071
1070
    44
1040
10.0
1070
    73
1070
     0
1070
    74
1070
     0
1070
    75
1070
     0
1070
    76
1070
     0
1070
    77
1070
     1
1070
    78
1070
     8
1070
   140
1040
40.0
1070
   147
1040
0.0
1070
   173
1070
     1
1070
   176
1070
     3
1070
   177
1070
     3
1070
   178
1070
     2
1070
   271
1070
     1
1070
   277
1070
     2
1070
   279
1070
     2
1070
   280
1070
     2
1070
   287
1070
     5
1070
   340
1005
386
1002
}
  0
DIMENSION
  5
41C
330
1F
100
AcDbEntity
  8
鏡台
  6
CONTINUOUS
 62
     3
100
AcDbDimension
  2
*D25
 10
1073.4944675087
 20
2147.0
 30
0.0
 11
753.4944675087002
 21
2170.499999940395
 31
0.0
 70
   160
  3
ISO-25
100
AcDbAlignedDimension
 13
433.4944675087
 23
2021.0
 33
0.0
 14
1073.4944675087
 24
2021.0
 34
0.0
100
AcDbRotatedDimension
1001
ACAD
1000
DSTYLE
1002
{
1070
   270
1070
     2
1070
     6
1000
EX_NORM
1070
     7
1000
EX_NORM
1070
    41
1040
30.0
1070
    42
1040
6.99999988079071
1070
    44
1040
10.0
1070
    73
1070
     0
1070
    74
1070
     0
1070
    75
1070
     0
1070
    76
1070
     0
1070
    77
1070
     1
1070
    78
1070
     8
1070
   140
1040
40.0
1070
   147
1040
0.0
1070
   173
1070
     1
1070
   176
1070
     3
1070
   177
1070
     3
1070
   178
1070
     2
1070
   271
1070
     1
1070
   277
1070
     2
1070
   279
1070
     2
1070
   280
1070
     0
1070
   287
1070
     5
1070
   340
1005
386
1002
}
  0
DIMENSION
  5
429
330
1F
100
AcDbEntity
  8
鏡台
  6
CONTINUOUS
 62
     3
100
AcDbDimension
  2
*D26
 10
1108.5
 20
2199.0
 30
0.0
 11
753.4999999999952
 21
2222.499999940395
 31
0.0
 70
   160
  3
ISO-25
100
AcDbAlignedDimension
 13
398.49999999999
 23
2021.0
 33
0.0
 14
1108.5
 24
2021.0
 34
0.0
100
AcDbRotatedDimension
1001
ACAD
1000
DSTYLE
1002
{
1070
   270
1070
     2
1070
     6
1000
EX_NORM
1070
     7
1000
EX_NORM
1070
    41
1040
30.0
1070
    42
1040
6.99999988079071
1070
    44
1040
10.0
1070
    73
1070
     0
1070
    74
1070
     0
1070
    75
1070
     0
1070
    76
1070
     0
1070
    77
1070
     1
1070
    78
1070
     8
1070
   140
1040
40.0
1070
   147
1040
0.0
1070
   173
1070
     1
1070
   176
1070
     3
1070
   177
1070
     3
1070
   178
1070
     2
1070
   271
1070
     1
1070
   277
1070
     2
1070
   279
1070
     2
1070
   280
1070
     0
1070
   287
1070
     5
1070
   340
1005
386
1002
}
  0
LEADER
  5
436
330
1F
100
AcDbEntity
  8
寸法
  6
CONTINUOUS
 62
     3
100
AcDbLeader
  3
ISO-25
 76
     3
 10
555.4944675086999
 20
495.9999999999991
 30
0.0
 10
594.4944675086999
 20
419.9999999999991
 30
0.0
 10
771.4944675086999
 20
419.9999999999991
 30
0.0
1001
ACAD
1000
DSTYLE
1002
{
1070
     5
1000
EX_NORM
1070
    41
1040
30.0
1070
   341
1005
4E
1002
}
  0
TEXT
  5
437
330
1F
100
AcDbEntity
  8
寸法
  6
CONTINUOUS
 62
     2
100
AcDbText
 10
599.4944675086999
 20
423.4999999999991
 30
0.0
 40
40.0
  1
防水テープ
 41
1.013793103448276
  7
EXCADSTD
 72
     5
 11
767.4944675086999
 21
423.4999999999991
 31
0.0
100
AcDbText
  0
LINE
  5
438
330
1F
100
AcDbEntity
  8
枠_表
  6
CONTINUOUS
 62
     7
100
AcDbLine
 10
179.9999999999999
 20
135.0
 30
0.0
 11
179.9999999999999
 21
2885.0
 31
0.0
  0
LINE
  5
439
330
1F
100
AcDbEntity
  8
枠_表
  6
CONTINUOUS
 62
     7
100
AcDbLine
 10
179.9999999999999
 20
355.0
 30
0.0
 11
1999.999999999999
 21
355.0
 31
0.0
  0
LINE
  5
43A
330
1F
100
AcDbEntity
  8
枠_表
  6
CONTINUOUS
 62
     6
100
AcDbLine
 10
1999.999999999999
 20
235.0
 30
0.0
 11
749.9999999999982
 21
235.0
 31
0.0
  0
LINE
  5
43B
330
1F
100
AcDbEntity
  8
枠_表
  6
CONTINUOUS
 62
     6
100
AcDbLine
 10
1860.0
 20
355.0
 30
0.0
 11
1860.0
 21
235.0
 31
0.0
  0
LINE
  5
43C
330
1F
100
AcDbEntity
  8
枠_表
  6
CONTINUOUS
 62
     6
100
AcDbLine
 10
1810.0
 20
355.0
 30
0.0
 11
1810.0
 21
235.0
 31
0.0
  0
LINE
  5
43D
330
1F
100
AcDbEntity
  8
枠_表
  6
CONTINUOUS
 62
     6
100
AcDbLine
 10
1440.0
 20
355.0
 30
0.0
 11
1440.0
 21
135.0
 31
0.0
  0
LINE
  5
43E
330
1F
100
AcDbEntity
  8
枠_表
  6
CONTINUOUS
 62
     6
100
AcDbLine
 10
1390.0
 20
355.0
 30
0.0
 11
1390.0
 21
135.0
 31
0.0
  0
LINE
  5
43F
330
1F
100
AcDbEntity
  8
枠_表
  6
CONTINUOUS
 62
     6
100
AcDbLine
 10
799.9999999999982
 20
355.0
 30
0.0
 11
799.9999999999982
 21
235.0
 31
0.0
  0
LINE
  5
440
330
1F
100
AcDbEntity
  8
枠_表
  6
CONTINUOUS
 62
     6
100
AcDbLine
 10
749.9999999999982
 20
355.0
 30
0.0
 11
749.9999999999982
 21
135.0
 31
0.0
  0
LINE
  5
441
330
1F
100
AcDbEntity
  8
枠_表
  6
CONTINUOUS
 62
     6
100
AcDbLine
 10
619.9999999999995
 20
355.0
 30
0.0
 11
619.9999999999995
 21
135.0
 31
0.0
  0
LINE
  5
442
330
1F
100
AcDbEntity
  8
枠_表
  6
CONTINUOUS
 62
     6
100
AcDbLine
 10
489.9999999999995
 20
355.0
 30
0.0
 11
489.9999999999995
 21
135.0
 31
0.0
  0
LINE
  5
443
330
1F
100
AcDbEntity
  8
枠_表
  6
CONTINUOUS
 62
     6
100
AcDbLine
 10
334.9999999999999
 20
355.0
 30
0.0
 11
334.9999999999999
 21
135.0
 31
0.0
  0
LINE
  5
444
330
1F
100
AcDbEntity
  8
枠_表
  6
CONTINUOUS
 62
     6
100
AcDbLine
 10
179.9999999999999
 20
305.0
 30
0.0
 11
749.9999999999982
 21
305.0
 31
0.0
  0
LINE
  5
445
330
1F
100
AcDbEntity
  8
枠_表
  6
CONTINUOUS
 62
     6
100
AcDbLine
 10
1892.653808599999
 20
258.0029297000001
 30
0.0
 11
1969.9938965
 21
336.6998290999991
 31
0.0
  0
CIRCLE
  5
446
330
1F
100
AcDbEntity
  8
枠_表
  6
CONTINUOUS
 62
     6
100
AcDbCircle
 10
229.9999999999999
 20
160.0
 30
0.0
 40
1.0000002
  0
CIRCLE
  5
447
330
1F
100
AcDbEntity
  8
枠_表
  6
CONTINUOUS
 62
     6
100
AcDbCircle
 10
279.9999999999999
 20
160.0
 30
0.0
 40
1.0000002
  0
CIRCLE
  5
448
330
1F
100
AcDbEntity
  8
枠_表
  6
CONTINUOUS
 62
     6
100
AcDbCircle
 10
384.9999999999999
 20
160.0
 30
0.0
 40
1.0000002
  0
CIRCLE
  5
449
330
1F
100
AcDbEntity
  8
枠_表
  6
CONTINUOUS
 62
     6
100
AcDbCircle
 10
434.9999999999999
 20
160.0
 30
0.0
 40
1.0000002
  0
LINE
  5
44A
330
1F
100
AcDbEntity
  8
枠_表
  6
EXLTYPE2
 62
     6
100
AcDbLine
 10
179.9999999999999
 20
185.0
 30
0.0
 11
489.9999999999995
 21
185.0
 31
0.0
  0
LINE
  5
44B
330
1F
100
AcDbEntity
  8
枠_表
  6
CONTINUOUS
 62
     6
100
AcDbLine
 10
990.0000000000005
 20
2805.0
 30
0.0
 11
1950.0
 21
2805.0
 31
0.0
  0
LINE
  5
44C
330
1F
100
AcDbEntity
  8
枠_表
  6
CONTINUOUS
 62
     6
100
AcDbLine
 10
990.0000000000005
 20
2755.0
 30
0.0
 11
1950.0
 21
2755.0
 31
0.0
  0
LINE
  5
44D
330
1F
100
AcDbEntity
  8
枠_表
  6
CONTINUOUS
 62
     6
100
AcDbLine
 10
990.0000000000005
 20
2705.0
 30
0.0
 11
1950.0
 21
2705.0
 31
0.0
  0
LINE
  5
44E
330
1F
100
AcDbEntity
  8
枠_表
  6
CONTINUOUS
 62
     6
100
AcDbLine
 10
990.0000000000005
 20
2655.0
 30
0.0
 11
1950.0
 21
2655.0
 31
0.0
  0
LINE
  5
44F
330
1F
100
AcDbEntity
  8
枠_表
  6
CONTINUOUS
 62
     6
100
AcDbLine
 10
990.0000000000005
 20
2605.0
 30
0.0
 11
1950.0
 21
2605.0
 31
0.0
  0
LINE
  5
450
330
1F
100
AcDbEntity
  8
枠_表
  6
CONTINUOUS
 62
     6
100
AcDbLine
 10
990.0000000000005
 20
2555.0
 30
0.0
 11
1950.0
 21
2555.0
 31
0.0
  0
LINE
  5
451
330
1F
100
AcDbEntity
  8
枠_表
  6
CONTINUOUS
 62
     6
100
AcDbLine
 10
990.0000000000005
 20
2505.0
 30
0.0
 11
1950.0
 21
2505.0
 31
0.0
  0
LINE
  5
452
330
1F
100
AcDbEntity
  8
枠_表
  6
CONTINUOUS
 62
     6
100
AcDbLine
 10
990.0000000000005
 20
2455.0
 30
0.0
 11
1950.0
 21
2455.0
 31
0.0
  0
LINE
  5
453
330
1F
100
AcDbEntity
  8
枠_表
  6
CONTINUOUS
 62
     6
100
AcDbLine
 10
990.0000000000005
 20
2405.0
 30
0.0
 11
1950.0
 21
2405.0
 31
0.0
  0
LINE
  5
454
330
1F
100
AcDbEntity
  8
枠_表
  6
CONTINUOUS
 62
     6
100
AcDbLine
 10
990.0000000000005
 20
2355.0
 30
0.0
 11
1950.0
 21
2355.0
 31
0.0
  0
LINE
  5
455
330
1F
100
AcDbEntity
  8
枠_表
  6
EXLTYPE2
 62
     6
100
AcDbLine
 10
180.0
 20
1510.0
 30
0.0
 11
10.0
 21
1510.0
 31
0.0
  0
POLYLINE
  5
456
330
1F
100
AcDbEntity
  8
枠_表
  6
CONTINUOUS
 62
     6
100
AcDb2dPolyline
 66
     1
 10
0.0
 20
0.0
 30
0.0
 70
   128
  0
VERTEX
  5
457
330
456
100
AcDbEntity
  8
枠_表
  6
CONTINUOUS
 62
     6
100
AcDbVertex
100
AcDb2dVertex
 10
419.9944675086999
 20
742.5
 30
0.0
  0
VERTEX
  5
458
330
456
100
AcDbEntity
  8
枠_表
  6
CONTINUOUS
 62
     6
100
AcDbVertex
100
AcDb2dVertex
 10
419.9944675086999
 20
714.5
 30
0.0
  0
VERTEX
  5
459
330
456
100
AcDbEntity
  8
枠_表
  6
CONTINUOUS
 62
     6
100
AcDbVertex
100
AcDb2dVertex
 10
396.9944675086999
 20
714.5
 30
0.0
  0
VERTEX
  5
45A
330
456
100
AcDbEntity
  8
枠_表
  6
CONTINUOUS
 62
     6
100
AcDbVertex
100
AcDb2dVertex
 10
396.9944675086999
 20
742.5
 30
0.0
  0
VERTEX
  5
45B
330
456
100
AcDbEntity
  8
枠_表
  6
CONTINUOUS
 62
     6
100
AcDbVertex
100
AcDb2dVertex
 10
419.9944675086999
 20
742.5
 30
0.0
  0
SEQEND
  5
45C
330
456
100
AcDbEntity
  8
枠_表
  6
CONTINUOUS
 62
     6
  0
POLYLINE
  5
45D
330
1F
100
AcDbEntity
  8
枠_表
  6
CONTINUOUS
 62
     6
100
AcDb2dPolyline
 66
     1
 10
0.0
 20
0.0
 30
0.0
 70
   128
  0
VERTEX
  5
45E
330
45D
100
AcDbEntity
  8
枠_表
  6
CONTINUOUS
 62
     6
100
AcDbVertex
100
AcDb2dVertex
 10
417.4944675086999
 20
740.0
 30
0.0
  0
VERTEX
  5
45F
330
45D
100
AcDbEntity
  8
枠_表
  6
CONTINUOUS
 62
     6
100
AcDbVertex
100
AcDb2dVertex
 10
417.4944675086999
 20
717.0
 30
0.0
  0
VERTEX
  5
460
330
45D
100
AcDbEntity
  8
枠_表
  6
CONTINUOUS
 62
     6
100
AcDbVertex
100
AcDb2dVertex
 10
399.4944675086999
 20
717.0
 30
0.0
  0
VERTEX
  5
461
330
45D
100
AcDbEntity
  8
枠_表
  6
CONTINUOUS
 62
     6
100
AcDbVertex
100
AcDb2dVertex
 10
399.4944675086999
 20
740.0
 30
0.0
  0
VERTEX
  5
462
330
45D
100
AcDbEntity
  8
枠_表
  6
CONTINUOUS
 62
     6
100
AcDbVertex
100
AcDb2dVertex
 10
417.4944675086999
 20
740.0
 30
0.0
  0
SEQEND
  5
463
330
45D
100
AcDbEntity
  8
枠_表
  6
CONTINUOUS
 62
     6
  0
LINE
  5
464
330
1F
100
AcDbEntity
  8
枠_表
  6
CONTINUOUS
 62
     6
100
AcDbLine
 10
417.4944675086999
 20
720.0
 30
0.0
 11
399.4944675086999
 21
720.0
 31
0.0
  0
CIRCLE
  5
465
330
1F
100
AcDbEntity
  8
枠_表
  6
CONTINUOUS
 62
     6
100
AcDbCircle
 10
408.4944675086999
 20
724.0
 30
0.0
 40
1.25
  0
POLYLINE
  5
466
330
1F
100
AcDbEntity
  8
枠_表
  6
CONTINUOUS
 62
     6
100
AcDb2dPolyline
 66
     1
 10
0.0
 20
0.0
 30
0.0
 70
   128
  0
VERTEX
  5
467
330
466
100
AcDbEntity
  8
枠_表
  6
CONTINUOUS
 62
     6
100
AcDbVertex
100
AcDb2dVertex
 10
419.9944675086999
 20
652.4999999999927
 30
0.0
  0
VERTEX
  5
468
330
466
100
AcDbEntity
  8
枠_表
  6
CONTINUOUS
 62
     6
100
AcDbVertex
100
AcDb2dVertex
 10
419.9944675086999
 20
624.5
 30
0.0
  0
VERTEX
  5
469
330
466
100
AcDbEntity
  8
枠_表
  6
CONTINUOUS
 62
     6
100
AcDbVertex
100
AcDb2dVertex
 10
396.9944675086999
 20
624.5
 30
0.0
  0
VERTEX
  5
46A
330
466
100
AcDbEntity
  8
枠_表
  6
CONTINUOUS
 62
     6
100
AcDbVertex
100
AcDb2dVertex
 10
396.9944675086999
 20
652.4999999999927
 30
0.0
  0
VERTEX
  5
46B
330
466
100
AcDbEntity
  8
枠_表
  6
CONTINUOUS
 62
     6
100
AcDbVertex
100
AcDb2dVertex
 10
419.9944675086999
 20
652.4999999999927
 30
0.0
  0
SEQEND
  5
46C
330
466
100
AcDbEntity
  8
枠_表
  6
CONTINUOUS
 62
     6
  0
CIRCLE
  5
46D
330
1F
100
AcDbEntity
  8
枠_表
  6
CONTINUOUS
 62
     6
100
AcDbCircle
 10
408.4944675086999
 20
638.4999999999964
 30
0.0
 40
11.0
  0
POLYLINE
  5
46E
330
1F
100
AcDbEntity
  8
枠_表
  6
CONTINUOUS
 62
     6
100
AcDb2dPolyline
 66
     1
 10
0.0
 20
0.0
 30
0.0
 70
   128
  0
VERTEX
  5
46F
330
46E
100
AcDbEntity
  8
枠_表
  6
CONTINUOUS
 62
     6
100
AcDbVertex
100
AcDb2dVertex
 10
418.0207469503293
 20
643.9999999999982
 30
0.0
  0
VERTEX
  5
470
330
46E
100
AcDbEntity
  8
枠_表
  6
CONTINUOUS
 62
     6
100
AcDbVertex
100
AcDb2dVertex
 10
419.9944675086999
 20
643.9999999999964
 30
0.0
  0
VERTEX
  5
471
330
46E
100
AcDbEntity
  8
枠_表
  6
CONTINUOUS
 62
     6
100
AcDbVertex
100
AcDb2dVertex
 10
419.9944675086999
 20
652.4999999999927
 30
0.0
  0
VERTEX
  5
472
330
46E
100
AcDbEntity
  8
枠_表
  6
CONTINUOUS
 62
     6
100
AcDbVertex
100
AcDb2dVertex
 10
396.9944675086999
 20
652.4999999999927
 30
0.0
  0
VERTEX
  5
473
330
46E
100
AcDbEntity
  8
枠_表
  6
CONTINUOUS
 62
     6
100
AcDbVertex
100
AcDb2dVertex
 10
396.9944675086999
 20
643.9999999999982
 30
0.0
  0
VERTEX
  5
474
330
46E
100
AcDbEntity
  8
枠_表
  6
CONTINUOUS
 62
     6
100
AcDbVertex
100
AcDb2dVertex
 10
398.9681880670714
 20
643.9999999999982
 30
0.0
  0
SEQEND
  5
475
330
46E
100
AcDbEntity
  8
枠_表
  6
CONTINUOUS
 62
     6
  0
ARC
  5
476
330
1F
100
AcDbEntity
  8
枠_表
  6
CONTINUOUS
 62
     6
100
AcDbCircle
 10
408.4944675087004
 20
638.499999999998
 30
0.0
 40
11.00000000000023
100
AcDbArc
 50
30.0000000000007
 51
149.9999999999993
  0
POLYLINE
  5
477
330
1F
100
AcDbEntity
  8
枠_表
  6
CONTINUOUS
 62
     6
100
AcDb2dPolyline
 66
     1
 10
0.0
 20
0.0
 30
0.0
 70
   128
  0
VERTEX
  5
478
330
477
100
AcDbEntity
  8
枠_表
  6
CONTINUOUS
 62
     6
100
AcDbVertex
100
AcDb2dVertex
 10
419.9944675086999
 20
624.5
 30
0.0
  0
VERTEX
  5
479
330
477
100
AcDbEntity
  8
枠_表
  6
CONTINUOUS
 62
     6
100
AcDbVertex
100
AcDb2dVertex
 10
419.9944675086999
 20
632.9999999999945
 30
0.0
  0
VERTEX
  5
47A
330
477
100
AcDbEntity
  8
枠_表
  6
CONTINUOUS
 62
     6
100
AcDbVertex
100
AcDb2dVertex
 10
418.0207469503275
 20
632.9999999999945
 30
0.0
  0
SEQEND
  5
47B
330
477
100
AcDbEntity
  8
枠_表
  6
CONTINUOUS
 62
     6
  0
ARC
  5
47C
330
1F
100
AcDbEntity
  8
枠_表
  6
CONTINUOUS
 62
     6
100
AcDbCircle
 10
408.4944675086999
 20
638.4999999999964
 30
0.0
 40
11.00000000000005
100
AcDbArc
 50
210.0000000000113
 51
329.9999999999888
  0
POLYLINE
  5
47D
330
1F
100
AcDbEntity
  8
枠_表
  6
CONTINUOUS
 62
     6
100
AcDb2dPolyline
 66
     1
 10
0.0
 20
0.0
 30
0.0
 70
   128
  0
VERTEX
  5
47E
330
47D
100
AcDbEntity
  8
枠_表
  6
CONTINUOUS
 62
     6
100
AcDbVertex
100
AcDb2dVertex
 10
398.9681880670719
 20
632.9999999999945
 30
0.0
  0
VERTEX
  5
47F
330
47D
100
AcDbEntity
  8
枠_表
  6
CONTINUOUS
 62
     6
100
AcDbVertex
100
AcDb2dVertex
 10
396.9944675086999
 20
632.9999999999964
 30
0.0
  0
VERTEX
  5
480
330
47D
100
AcDbEntity
  8
枠_表
  6
CONTINUOUS
 62
     6
100
AcDbVertex
100
AcDb2dVertex
 10
396.9944675086999
 20
624.5
 30
0.0
  0
VERTEX
  5
481
330
47D
100
AcDbEntity
  8
枠_表
  6
CONTINUOUS
 62
     6
100
AcDbVertex
100
AcDb2dVertex
 10
419.9944675086999
 20
624.5
 30
0.0
  0
SEQEND
  5
482
330
47D
100
AcDbEntity
  8
枠_表
  6
CONTINUOUS
 62
     6
  0
POLYLINE
  5
483
330
1F
100
AcDbEntity
  8
枠_表
  6
CONTINUOUS
 62
     6
100
AcDb2dPolyline
 66
     1
 10
0.0
 20
0.0
 30
0.0
 70
   128
  0
VERTEX
  5
484
330
483
100
AcDbEntity
  8
枠_表
  6
CONTINUOUS
 62
     6
100
AcDbVertex
100
AcDb2dVertex
 10
400.9944675086999
 20
642.9999999999964
 30
0.0
  0
VERTEX
  5
485
330
483
100
AcDbEntity
  8
枠_表
  6
CONTINUOUS
 62
     6
100
AcDbVertex
100
AcDb2dVertex
 10
402.9944675086999
 20
642.9999999999964
 30
0.0
  0
VERTEX
  5
486
330
483
100
AcDbEntity
  8
枠_表
  6
CONTINUOUS
 62
     6
100
AcDbVertex
100
AcDb2dVertex
 10
402.9944675086999
 20
633.9999999999964
 30
0.0
  0
VERTEX
  5
487
330
483
100
AcDbEntity
  8
枠_表
  6
CONTINUOUS
 62
     6
100
AcDbVertex
100
AcDb2dVertex
 10
400.9944675086999
 20
633.9999999999964
 30
0.0
  0
VERTEX
  5
488
330
483
100
AcDbEntity
  8
枠_表
  6
CONTINUOUS
 62
     6
100
AcDbVertex
100
AcDb2dVertex
 10
400.9944675086999
 20
642.9999999999964
 30
0.0
  0
SEQEND
  5
489
330
483
100
AcDbEntity
  8
枠_表
  6
CONTINUOUS
 62
     6
  0
POLYLINE
  5
48A
330
1F
100
AcDbEntity
  8
枠_表
  6
CONTINUOUS
 62
     6
100
AcDb2dPolyline
 66
     1
 10
0.0
 20
0.0
 30
0.0
 70
   128
  0
VERTEX
  5
48B
330
48A
100
AcDbEntity
  8
枠_表
  6
CONTINUOUS
 62
     6
100
AcDbVertex
100
AcDb2dVertex
 10
413.9944675086999
 20
641.9999999999964
 30
0.0
  0
VERTEX
  5
48C
330
48A
100
AcDbEntity
  8
枠_表
  6
CONTINUOUS
 62
     6
100
AcDbVertex
100
AcDb2dVertex
 10
415.9944675086999
 20
641.9999999999964
 30
0.0
  0
VERTEX
  5
48D
330
48A
100
AcDbEntity
  8
枠_表
  6
CONTINUOUS
 62
     6
100
AcDbVertex
100
AcDb2dVertex
 10
415.9944675086999
 20
634.9999999999964
 30
0.0
  0
VERTEX
  5
48E
330
48A
100
AcDbEntity
  8
枠_表
  6
CONTINUOUS
 62
     6
100
AcDbVertex
100
AcDb2dVertex
 10
413.9944675086999
 20
634.9999999999964
 30
0.0
  0
VERTEX
  5
48F
330
48A
100
AcDbEntity
  8
枠_表
  6
CONTINUOUS
 62
     6
100
AcDbVertex
100
AcDb2dVertex
 10
413.9944675086999
 20
641.9999999999964
 30
0.0
  0
SEQEND
  5
490
330
48A
100
AcDbEntity
  8
枠_表
  6
CONTINUOUS
 62
     6
  0
POLYLINE
  5
491
330
1F
100
AcDbEntity
  8
枠_表
  6
CONTINUOUS
 62
     6
100
AcDb2dPolyline
 66
     1
 10
0.0
 20
0.0
 30
0.0
 70
   128
  0
VERTEX
  5
492
330
491
100
AcDbEntity
  8
枠_表
  6
CONTINUOUS
 62
     6
100
AcDbVertex
100
AcDb2dVertex
 10
419.9944675086999
 20
697.4999999999927
 30
0.0
  0
VERTEX
  5
493
330
491
100
AcDbEntity
  8
枠_表
  6
CONTINUOUS
 62
     6
100
AcDbVertex
100
AcDb2dVertex
 10
419.9944675086999
 20
669.5
 30
0.0
  0
VERTEX
  5
494
330
491
100
AcDbEntity
  8
枠_表
  6
CONTINUOUS
 62
     6
100
AcDbVertex
100
AcDb2dVertex
 10
396.9944675086999
 20
669.5
 30
0.0
  0
VERTEX
  5
495
330
491
100
AcDbEntity
  8
枠_表
  6
CONTINUOUS
 62
     6
100
AcDbVertex
100
AcDb2dVertex
 10
396.9944675086999
 20
697.4999999999927
 30
0.0
  0
VERTEX
  5
496
330
491
100
AcDbEntity
  8
枠_表
  6
CONTINUOUS
 62
     6
100
AcDbVertex
100
AcDb2dVertex
 10
419.9944675086999
 20
697.4999999999927
 30
0.0
  0
SEQEND
  5
497
330
491
100
AcDbEntity
  8
枠_表
  6
CONTINUOUS
 62
     6
  0
CIRCLE
  5
498
330
1F
100
AcDbEntity
  8
枠_表
  6
CONTINUOUS
 62
     6
100
AcDbCircle
 10
408.4944675086999
 20
683.4999999999964
 30
0.0
 40
11.0
  0
POLYLINE
  5
499
330
1F
100
AcDbEntity
  8
枠_表
  6
CONTINUOUS
 62
     6
100
AcDb2dPolyline
 66
     1
 10
0.0
 20
0.0
 30
0.0
 70
   128
  0
VERTEX
  5
49A
330
499
100
AcDbEntity
  8
枠_表
  6
CONTINUOUS
 62
     6
100
AcDbVertex
100
AcDb2dVertex
 10
418.0207469503293
 20
688.9999999999982
 30
0.0
  0
VERTEX
  5
49B
330
499
100
AcDbEntity
  8
枠_表
  6
CONTINUOUS
 62
     6
100
AcDbVertex
100
AcDb2dVertex
 10
419.9944675086999
 20
688.9999999999964
 30
0.0
  0
VERTEX
  5
49C
330
499
100
AcDbEntity
  8
枠_表
  6
CONTINUOUS
 62
     6
100
AcDbVertex
100
AcDb2dVertex
 10
419.9944675086999
 20
697.4999999999927
 30
0.0
  0
VERTEX
  5
49D
330
499
100
AcDbEntity
  8
枠_表
  6
CONTINUOUS
 62
     6
100
AcDbVertex
100
AcDb2dVertex
 10
396.9944675086999
 20
697.4999999999927
 30
0.0
  0
VERTEX
  5
49E
330
499
100
AcDbEntity
  8
枠_表
  6
CONTINUOUS
 62
     6
100
AcDbVertex
100
AcDb2dVertex
 10
396.9944675086999
 20
688.9999999999982
 30
0.0
  0
VERTEX
  5
49F
330
499
100
AcDbEntity
  8
枠_表
  6
CONTINUOUS
 62
     6
100
AcDbVertex
100
AcDb2dVertex
 10
398.9681880670714
 20
688.9999999999982
 30
0.0
  0
SEQEND
  5
4A0
330
499
100
AcDbEntity
  8
枠_表
  6
CONTINUOUS
 62
     6
  0
ARC
  5
4A1
330
1F
100
AcDbEntity
  8
枠_表
  6
CONTINUOUS
 62
     6
100
AcDbCircle
 10
408.4944675087004
 20
683.499999999998
 30
0.0
 40
11.00000000000023
100
AcDbArc
 50
30.0000000000007
 51
149.9999999999993
  0
POLYLINE
  5
4A2
330
1F
100
AcDbEntity
  8
枠_表
  6
CONTINUOUS
 62
     6
100
AcDb2dPolyline
 66
     1
 10
0.0
 20
0.0
 30
0.0
 70
   128
  0
VERTEX
  5
4A3
330
4A2
100
AcDbEntity
  8
枠_表
  6
CONTINUOUS
 62
     6
100
AcDbVertex
100
AcDb2dVertex
 10
419.9944675086999
 20
669.5
 30
0.0
  0
VERTEX
  5
4A4
330
4A2
100
AcDbEntity
  8
枠_表
  6
CONTINUOUS
 62
     6
100
AcDbVertex
100
AcDb2dVertex
 10
419.9944675086999
 20
677.9999999999945
 30
0.0
  0
VERTEX
  5
4A5
330
4A2
100
AcDbEntity
  8
枠_表
  6
CONTINUOUS
 62
     6
100
AcDbVertex
100
AcDb2dVertex
 10
418.0207469503275
 20
677.9999999999945
 30
0.0
  0
SEQEND
  5
4A6
330
4A2
100
AcDbEntity
  8
枠_表
  6
CONTINUOUS
 62
     6
  0
ARC
  5
4A7
330
1F
100
AcDbEntity
  8
枠_表
  6
CONTINUOUS
 62
     6
100
AcDbCircle
 10
408.4944675086999
 20
683.4999999999964
 30
0.0
 40
11.00000000000005
100
AcDbArc
 50
210.0000000000113
 51
329.9999999999888
  0
POLYLINE
  5
4A8
330
1F
100
AcDbEntity
  8
枠_表
  6
CONTINUOUS
 62
     6
100
AcDb2dPolyline
 66
     1
 10
0.0
 20
0.0
 30
0.0
 70
   128
  0
VERTEX
  5
4A9
330
4A8
100
AcDbEntity
  8
枠_表
  6
CONTINUOUS
 62
     6
100
AcDbVertex
100
AcDb2dVertex
 10
398.9681880670719
 20
677.9999999999945
 30
0.0
  0
VERTEX
  5
4AA
330
4A8
100
AcDbEntity
  8
枠_表
  6
CONTINUOUS
 62
     6
100
AcDbVertex
100
AcDb2dVertex
 10
396.9944675086999
 20
677.9999999999964
 30
0.0
  0
VERTEX
  5
4AB
330
4A8
100
AcDbEntity
  8
枠_表
  6
CONTINUOUS
 62
     6
100
AcDbVertex
100
AcDb2dVertex
 10
396.9944675086999
 20
669.5
 30
0.0
  0
VERTEX
  5
4AC
330
4A8
100
AcDbEntity
  8
枠_表
  6
CONTINUOUS
 62
     6
100
AcDbVertex
100
AcDb2dVertex
 10
419.9944675086999
 20
669.5
 30
0.0
  0
SEQEND
  5
4AD
330
4A8
100
AcDbEntity
  8
枠_表
  6
CONTINUOUS
 62
     6
  0
POLYLINE
  5
4AE
330
1F
100
AcDbEntity
  8
枠_表
  6
CONTINUOUS
 62
     6
100
AcDb2dPolyline
 66
     1
 10
0.0
 20
0.0
 30
0.0
 70
   128
  0
VERTEX
  5
4AF
330
4AE
100
AcDbEntity
  8
枠_表
  6
CONTINUOUS
 62
     6
100
AcDbVertex
100
AcDb2dVertex
 10
400.9944675086999
 20
687.9999999999964
 30
0.0
  0
VERTEX
  5
4B0
330
4AE
100
AcDbEntity
  8
枠_表
  6
CONTINUOUS
 62
     6
100
AcDbVertex
100
AcDb2dVertex
 10
402.9944675086999
 20
687.9999999999964
 30
0.0
  0
VERTEX
  5
4B1
330
4AE
100
AcDbEntity
  8
枠_表
  6
CONTINUOUS
 62
     6
100
AcDbVertex
100
AcDb2dVertex
 10
402.9944675086999
 20
678.9999999999964
 30
0.0
  0
VERTEX
  5
4B2
330
4AE
100
AcDbEntity
  8
枠_表
  6
CONTINUOUS
 62
     6
100
AcDbVertex
100
AcDb2dVertex
 10
400.9944675086999
 20
678.9999999999964
 30
0.0
  0
VERTEX
  5
4B3
330
4AE
100
AcDbEntity
  8
枠_表
  6
CONTINUOUS
 62
     6
100
AcDbVertex
100
AcDb2dVertex
 10
400.9944675086999
 20
687.9999999999964
 30
0.0
  0
SEQEND
  5
4B4
330
4AE
100
AcDbEntity
  8
枠_表
  6
CONTINUOUS
 62
     6
  0
POLYLINE
  5
4B5
330
1F
100
AcDbEntity
  8
枠_表
  6
CONTINUOUS
 62
     6
100
AcDb2dPolyline
 66
     1
 10
0.0
 20
0.0
 30
0.0
 70
   128
  0
VERTEX
  5
4B6
330
4B5
100
AcDbEntity
  8
枠_表
  6
CONTINUOUS
 62
     6
100
AcDbVertex
100
AcDb2dVertex
 10
413.9944675086999
 20
686.9999999999964
 30
0.0
  0
VERTEX
  5
4B7
330
4B5
100
AcDbEntity
  8
枠_表
  6
CONTINUOUS
 62
     6
100
AcDbVertex
100
AcDb2dVertex
 10
415.9944675086999
 20
686.9999999999964
 30
0.0
  0
VERTEX
  5
4B8
330
4B5
100
AcDbEntity
  8
枠_表
  6
CONTINUOUS
 62
     6
100
AcDbVertex
100
AcDb2dVertex
 10
415.9944675086999
 20
679.9999999999964
 30
0.0
  0
VERTEX
  5
4B9
330
4B5
100
AcDbEntity
  8
枠_表
  6
CONTINUOUS
 62
     6
100
AcDbVertex
100
AcDb2dVertex
 10
413.9944675086999
 20
679.9999999999964
 30
0.0
  0
VERTEX
  5
4BA
330
4B5
100
AcDbEntity
  8
枠_表
  6
CONTINUOUS
 62
     6
100
AcDbVertex
100
AcDb2dVertex
 10
413.9944675086999
 20
686.9999999999964
 30
0.0
  0
SEQEND
  5
4BB
330
4B5
100
AcDbEntity
  8
枠_表
  6
CONTINUOUS
 62
     6
  0
LINE
  5
4BC
330
1F
100
AcDbEntity
  8
枠_表
  6
CONTINUOUS
 62
     6
100
AcDbLine
 10
1079.4944675087
 20
1491.0
 30
0.0
 11
1067.4944675087
 21
1491.0
 31
0.0
  0
LINE
  5
4BD
330
1F
100
AcDbEntity
  8
枠_表
  6
CONTINUOUS
 62
     6
100
AcDbLine
 10
1073.4944675087
 20
1497.0
 30
0.0
 11
1073.4944675087
 21
1485.0
 31
0.0
  0
LINE
  5
4BE
330
1F
100
AcDbEntity
  8
枠_表
  6
CONTINUOUS
 62
     6
100
AcDbLine
 10
439.4944675086999
 20
1491.0
 30
0.0
 11
427.4944675086999
 21
1491.0
 31
0.0
  0
LINE
  5
4BF
330
1F
100
AcDbEntity
  8
枠_表
  6
CONTINUOUS
 62
     6
100
AcDbLine
 10
433.4944675086999
 20
1497.0
 30
0.0
 11
433.4944675086999
 21
1485.0
 31
0.0
  0
POLYLINE
  5
4C0
330
1F
100
AcDbEntity
  8
枠_表
  6
CONTINUOUS
 62
     6
100
AcDb2dPolyline
 66
     1
 10
0.0
 20
0.0
 30
0.0
 70
   128
  0
VERTEX
  5
4C1
330
4C0
100
AcDbEntity
  8
枠_表
  6
CONTINUOUS
 62
     6
100
AcDbVertex
100
AcDb2dVertex
 10
961.4944675086999
 20
1269.0
 30
0.0
  0
VERTEX
  5
4C2
330
4C0
100
AcDbEntity
  8
枠_表
  6
CONTINUOUS
 62
     6
100
AcDbVertex
100
AcDb2dVertex
 10
1100.4944675087
 20
1269.0
 30
0.0
  0
VERTEX
  5
4C3
330
4C0
100
AcDbEntity
  8
枠_表
  6
CONTINUOUS
 62
     6
100
AcDbVertex
100
AcDb2dVertex
 10
1100.4944675087
 20
1263.0
 30
0.0
  0
VERTEX
  5
4C4
330
4C0
100
AcDbEntity
  8
枠_表
  6
CONTINUOUS
 62
     6
100
AcDbVertex
100
AcDb2dVertex
 10
961.4944675086999
 20
1263.0
 30
0.0
  0
VERTEX
  5
4C5
330
4C0
100
AcDbEntity
  8
枠_表
  6
CONTINUOUS
 62
     6
100
AcDbVertex
100
AcDb2dVertex
 10
961.4944675086999
 20
1269.0
 30
0.0
  0
SEQEND
  5
4C6
330
4C0
100
AcDbEntity
  8
枠_表
  6
CONTINUOUS
 62
     6
  0
POLYLINE
  5
4C7
330
1F
100
AcDbEntity
  8
枠_表
  6
CONTINUOUS
 62
     6
100
AcDb2dPolyline
 66
     1
 10
0.0
 20
0.0
 30
0.0
 70
   128
  0
VERTEX
  5
4C8
330
4C7
100
AcDbEntity
  8
枠_表
  6
CONTINUOUS
 62
     6
100
AcDbVertex
100
AcDb2dVertex
 10
961.4944675086999
 20
1054.0
 30
0.0
  0
VERTEX
  5
4C9
330
4C7
100
AcDbEntity
  8
枠_表
  6
CONTINUOUS
 62
     6
100
AcDbVertex
100
AcDb2dVertex
 10
1100.4944675087
 20
1054.0
 30
0.0
  0
VERTEX
  5
4CA
330
4C7
100
AcDbEntity
  8
枠_表
  6
CONTINUOUS
 62
     6
100
AcDbVertex
100
AcDb2dVertex
 10
1100.4944675087
 20
1048.0
 30
0.0
  0
VERTEX
  5
4CB
330
4C7
100
AcDbEntity
  8
枠_表
  6
CONTINUOUS
 62
     6
100
AcDbVertex
100
AcDb2dVertex
 10
961.4944675086999
 20
1048.0
 30
0.0
  0
VERTEX
  5
4CC
330
4C7
100
AcDbEntity
  8
枠_表
  6
CONTINUOUS
 62
     6
100
AcDbVertex
100
AcDb2dVertex
 10
961.4944675086999
 20
1054.0
 30
0.0
  0
SEQEND
  5
4CD
330
4C7
100
AcDbEntity
  8
枠_表
  6
CONTINUOUS
 62
     6
  0
LINE
  5
4CE
330
1F
100
AcDbEntity
  8
枠_表
  6
CONTINUOUS
 62
     6
100
AcDbLine
 10
438.4945425087108
 20
1437.73518
 30
0.0
 11
438.4945425087108
 21
1528.48077
 31
0.0
  0
POLYLINE
  5
4CF
330
1F
100
AcDbEntity
  8
枠_表
  6
CONTINUOUS
 62
     6
100
AcDb2dPolyline
 66
     1
 10
0.0
 20
0.0
 30
0.0
 70
   128
  0
VERTEX
  5
4D0
330
4CF
100
AcDbEntity
  8
枠_表
  6
CONTINUOUS
 62
     6
100
AcDbVertex
100
AcDb2dVertex
 10
1115.49631931263
 20
1533.000372709544
 30
0.0
  0
VERTEX
  5
4D1
330
4CF
100
AcDbEntity
  8
枠_表
  6
CONTINUOUS
 62
     6
100
AcDbVertex
100
AcDb2dVertex
 10
1104.183761912507
 20
1532.074981450098
 30
0.0
  0
VERTEX
  5
4D2
330
4CF
100
AcDbEntity
  8
枠_表
  6
CONTINUOUS
 62
     6
100
AcDbVertex
100
AcDb2dVertex
 10
1092.871204512386
 20
1531.178967690953
 30
0.0
  0
VERTEX
  5
4D3
330
4CF
100
AcDbEntity
  8
枠_表
  6
CONTINUOUS
 62
     6
100
AcDbVertex
100
AcDb2dVertex
 10
1081.558647112264
 20
1530.312331432107
 30
0.0
  0
VERTEX
  5
4D4
330
4CF
100
AcDbEntity
  8
枠_表
  6
CONTINUOUS
 62
     6
100
AcDbVertex
100
AcDb2dVertex
 10
1070.246089712142
 20
1529.475072673561
 30
0.0
  0
VERTEX
  5
4D5
330
4CF
100
AcDbEntity
  8
枠_表
  6
CONTINUOUS
 62
     6
100
AcDbVertex
100
AcDb2dVertex
 10
1058.93353231202
 20
1528.667191415315
 30
0.0
  0
VERTEX
  5
4D6
330
4CF
100
AcDbEntity
  8
枠_表
  6
CONTINUOUS
 62
     6
100
AcDbVertex
100
AcDb2dVertex
 10
1047.620974911898
 20
1527.888687657369
 30
0.0
  0
VERTEX
  5
4D7
330
4CF
100
AcDbEntity
  8
枠_表
  6
CONTINUOUS
 62
     6
100
AcDbVertex
100
AcDb2dVertex
 10
1036.308417511776
 20
1527.139561399722
 30
0.0
  0
VERTEX
  5
4D8
330
4CF
100
AcDbEntity
  8
枠_表
  6
CONTINUOUS
 62
     6
100
AcDbVertex
100
AcDb2dVertex
 10
1024.995860111654
 20
1526.419812642376
 30
0.0
  0
VERTEX
  5
4D9
330
4CF
100
AcDbEntity
  8
枠_表
  6
CONTINUOUS
 62
     6
100
AcDbVertex
100
AcDb2dVertex
 10
1013.683302711533
 20
1525.729441385329
 30
0.0
  0
VERTEX
  5
4DA
330
4CF
100
AcDbEntity
  8
枠_表
  6
CONTINUOUS
 62
     6
100
AcDbVertex
100
AcDb2dVertex
 10
1002.37074531141
 20
1525.068447628583
 30
0.0
  0
VERTEX
  5
4DB
330
4CF
100
AcDbEntity
  8
枠_表
  6
CONTINUOUS
 62
     6
100
AcDbVertex
100
AcDb2dVertex
 10
991.0581879112888
 20
1524.436831372136
 30
0.0
  0
VERTEX
  5
4DC
330
4CF
100
AcDbEntity
  8
枠_表
  6
CONTINUOUS
 62
     6
100
AcDbVertex
100
AcDb2dVertex
 10
979.7456305111668
 20
1523.834592615989
 30
0.0
  0
VERTEX
  5
4DD
330
4CF
100
AcDbEntity
  8
枠_表
  6
CONTINUOUS
 62
     6
100
AcDbVertex
100
AcDb2dVertex
 10
968.4330731110449
 20
1523.261731360141
 30
0.0
  0
VERTEX
  5
4DE
330
4CF
100
AcDbEntity
  8
枠_表
  6
CONTINUOUS
 62
     6
100
AcDbVertex
100
AcDb2dVertex
 10
957.120515710923
 20
1522.718247604594
 30
0.0
  0
VERTEX
  5
4DF
330
4CF
100
AcDbEntity
  8
枠_表
  6
CONTINUOUS
 62
     6
100
AcDbVertex
100
AcDb2dVertex
 10
945.807958310801
 20
1522.204141349347
 30
0.0
  0
VERTEX
  5
4E0
330
4CF
100
AcDbEntity
  8
枠_表
  6
CONTINUOUS
 62
     6
100
AcDbVertex
100
AcDb2dVertex
 10
934.4954009106791
 20
1521.719412594399
 30
0.0
  0
VERTEX
  5
4E1
330
4CF
100
AcDbEntity
  8
枠_表
  6
CONTINUOUS
 62
     6
100
AcDbVertex
100
AcDb2dVertex
 10
923.1828435105572
 20
1521.264061339751
 30
0.0
  0
VERTEX
  5
4E2
330
4CF
100
AcDbEntity
  8
枠_表
  6
CONTINUOUS
 62
     6
100
AcDbVertex
100
AcDb2dVertex
 10
911.8702861104352
 20
1520.838087585403
 30
0.0
  0
VERTEX
  5
4E3
330
4CF
100
AcDbEntity
  8
枠_表
  6
CONTINUOUS
 62
     6
100
AcDbVertex
100
AcDb2dVertex
 10
900.5577287103138
 20
1520.441491331355
 30
0.0
  0
VERTEX
  5
4E4
330
4CF
100
AcDbEntity
  8
枠_表
  6
CONTINUOUS
 62
     6
100
AcDbVertex
100
AcDb2dVertex
 10
889.2451713101918
 20
1520.074272577607
 30
0.0
  0
VERTEX
  5
4E5
330
4CF
100
AcDbEntity
  8
枠_表
  6
CONTINUOUS
 62
     6
100
AcDbVertex
100
AcDb2dVertex
 10
877.9326139100699
 20
1519.736431324159
 30
0.0
  0
VERTEX
  5
4E6
330
4CF
100
AcDbEntity
  8
枠_表
  6
CONTINUOUS
 62
     6
100
AcDbVertex
100
AcDb2dVertex
 10
866.620056509948
 20
1519.42796757101
 30
0.0
  0
VERTEX
  5
4E7
330
4CF
100
AcDbEntity
  8
枠_表
  6
CONTINUOUS
 62
     6
100
AcDbVertex
100
AcDb2dVertex
 10
855.307499109826
 20
1519.148881318162
 30
0.0
  0
VERTEX
  5
4E8
330
4CF
100
AcDbEntity
  8
枠_表
  6
CONTINUOUS
 62
     6
100
AcDbVertex
100
AcDb2dVertex
 10
843.9949417097041
 20
1518.899172565613
 30
0.0
  0
VERTEX
  5
4E9
330
4CF
100
AcDbEntity
  8
枠_表
  6
CONTINUOUS
 62
     6
100
AcDbVertex
100
AcDb2dVertex
 10
832.6823843095822
 20
1518.678841313364
 30
0.0
  0
VERTEX
  5
4EA
330
4CF
100
AcDbEntity
  8
枠_表
  6
CONTINUOUS
 62
     6
100
AcDbVertex
100
AcDb2dVertex
 10
821.3698269094602
 20
1518.487887561415
 30
0.0
  0
VERTEX
  5
4EB
330
4CF
100
AcDbEntity
  8
枠_表
  6
CONTINUOUS
 62
     6
100
AcDbVertex
100
AcDb2dVertex
 10
810.0572695093388
 20
1518.326311309766
 30
0.0
  0
VERTEX
  5
4EC
330
4CF
100
AcDbEntity
  8
枠_表
  6
CONTINUOUS
 62
     6
100
AcDbVertex
100
AcDb2dVertex
 10
798.7447121092168
 20
1518.194112558416
 30
0.0
  0
VERTEX
  5
4ED
330
4CF
100
AcDbEntity
  8
枠_表
  6
CONTINUOUS
 62
     6
100
AcDbVertex
100
AcDb2dVertex
 10
787.4321547090949
 20
1518.091291307367
 30
0.0
  0
VERTEX
  5
4EE
330
4CF
100
AcDbEntity
  8
枠_表
  6
CONTINUOUS
 62
     6
100
AcDbVertex
100
AcDb2dVertex
 10
776.119597308973
 20
1518.017847556617
 30
0.0
  0
VERTEX
  5
4EF
330
4CF
100
AcDbEntity
  8
枠_表
  6
CONTINUOUS
 62
     6
100
AcDbVertex
100
AcDb2dVertex
 10
764.807039908851
 20
1517.973781306167
 30
0.0
  0
VERTEX
  5
4F0
330
4CF
100
AcDbEntity
  8
枠_表
  6
CONTINUOUS
 62
     6
100
AcDbVertex
100
AcDb2dVertex
 10
753.4944825087291
 20
1517.959092556018
 30
0.0
  0
VERTEX
  5
4F1
330
4CF
100
AcDbEntity
  8
枠_表
  6
CONTINUOUS
 62
     6
100
AcDbVertex
100
AcDb2dVertex
 10
742.1819251086072
 20
1517.973781306168
 30
0.0
  0
VERTEX
  5
4F2
330
4CF
100
AcDbEntity
  8
枠_表
  6
CONTINUOUS
 62
     6
100
AcDbVertex
100
AcDb2dVertex
 10
730.8693677084852
 20
1518.017847556618
 30
0.0
  0
VERTEX
  5
4F3
330
4CF
100
AcDbEntity
  8
枠_表
  6
CONTINUOUS
 62
     6
100
AcDbVertex
100
AcDb2dVertex
 10
719.5568103083633
 20
1518.091291307367
 30
0.0
  0
VERTEX
  5
4F4
330
4CF
100
AcDbEntity
  8
枠_表
  6
CONTINUOUS
 62
     6
100
AcDbVertex
100
AcDb2dVertex
 10
708.2442529082418
 20
1518.194112558417
 30
0.0
  0
VERTEX
  5
4F5
330
4CF
100
AcDbEntity
  8
枠_表
  6
CONTINUOUS
 62
     6
100
AcDbVertex
100
AcDb2dVertex
 10
696.9316955081199
 20
1518.326311309766
 30
0.0
  0
VERTEX
  5
4F6
330
4CF
100
AcDbEntity
  8
枠_表
  6
CONTINUOUS
 62
     6
100
AcDbVertex
100
AcDb2dVertex
 10
685.619138107998
 20
1518.487887561415
 30
0.0
  0
VERTEX
  5
4F7
330
4CF
100
AcDbEntity
  8
枠_表
  6
CONTINUOUS
 62
     6
100
AcDbVertex
100
AcDb2dVertex
 10
674.306580707876
 20
1518.678841313365
 30
0.0
  0
VERTEX
  5
4F8
330
4CF
100
AcDbEntity
  8
枠_表
  6
CONTINUOUS
 62
     6
100
AcDbVertex
100
AcDb2dVertex
 10
662.9940233077541
 20
1518.899172565613
 30
0.0
  0
VERTEX
  5
4F9
330
4CF
100
AcDbEntity
  8
枠_表
  6
CONTINUOUS
 62
     6
100
AcDbVertex
100
AcDb2dVertex
 10
651.6814659076322
 20
1519.148881318162
 30
0.0
  0
VERTEX
  5
4FA
330
4CF
100
AcDbEntity
  8
枠_表
  6
CONTINUOUS
 62
     6
100
AcDbVertex
100
AcDb2dVertex
 10
640.3689085075102
 20
1519.42796757101
 30
0.0
  0
VERTEX
  5
4FB
330
4CF
100
AcDbEntity
  8
枠_表
  6
CONTINUOUS
 62
     6
100
AcDbVertex
100
AcDb2dVertex
 10
629.0563511073883
 20
1519.736431324159
 30
0.0
  0
VERTEX
  5
4FC
330
4CF
100
AcDbEntity
  8
枠_表
  6
CONTINUOUS
 62
     6
100
AcDbVertex
100
AcDb2dVertex
 10
617.7437937072664
 20
1520.074272577607
 30
0.0
  0
VERTEX
  5
4FD
330
4CF
100
AcDbEntity
  8
枠_表
  6
CONTINUOUS
 62
     6
100
AcDbVertex
100
AcDb2dVertex
 10
606.4312363071449
 20
1520.441491331356
 30
0.0
  0
VERTEX
  5
4FE
330
4CF
100
AcDbEntity
  8
枠_表
  6
CONTINUOUS
 62
     6
100
AcDbVertex
100
AcDb2dVertex
 10
595.118678907023
 20
1520.838087585404
 30
0.0
  0
VERTEX
  5
4FF
330
4CF
100
AcDbEntity
  8
枠_表
  6
CONTINUOUS
 62
     6
100
AcDbVertex
100
AcDb2dVertex
 10
583.806121506901
 20
1521.264061339752
 30
0.0
  0
VERTEX
  5
500
330
4CF
100
AcDbEntity
  8
枠_表
  6
CONTINUOUS
 62
     6
100
AcDbVertex
100
AcDb2dVertex
 10
572.4935641067791
 20
1521.719412594399
 30
0.0
  0
VERTEX
  5
501
330
4CF
100
AcDbEntity
  8
枠_表
  6
CONTINUOUS
 62
     6
100
AcDbVertex
100
AcDb2dVertex
 10
561.1810067066572
 20
1522.204141349347
 30
0.0
  0
VERTEX
  5
502
330
4CF
100
AcDbEntity
  8
枠_表
  6
CONTINUOUS
 62
     6
100
AcDbVertex
100
AcDb2dVertex
 10
549.8684493065352
 20
1522.718247604595
 30
0.0
  0
VERTEX
  5
503
330
4CF
100
AcDbEntity
  8
枠_表
  6
CONTINUOUS
 62
     6
100
AcDbVertex
100
AcDb2dVertex
 10
538.5558919064133
 20
1523.261731360142
 30
0.0
  0
VERTEX
  5
504
330
4CF
100
AcDbEntity
  8
枠_表
  6
CONTINUOUS
 62
     6
100
AcDbVertex
100
AcDb2dVertex
 10
527.2433345062914
 20
1523.834592615989
 30
0.0
  0
VERTEX
  5
505
330
4CF
100
AcDbEntity
  8
枠_表
  6
CONTINUOUS
 62
     6
100
AcDbVertex
100
AcDb2dVertex
 10
515.9307771061699
 20
1524.436831372136
 30
0.0
  0
VERTEX
  5
506
330
4CF
100
AcDbEntity
  8
枠_表
  6
CONTINUOUS
 62
     6
100
AcDbVertex
100
AcDb2dVertex
 10
504.618219706048
 20
1525.068447628583
 30
0.0
  0
VERTEX
  5
507
330
4CF
100
AcDbEntity
  8
枠_表
  6
CONTINUOUS
 62
     6
100
AcDbVertex
100
AcDb2dVertex
 10
493.305662305926
 20
1525.72944138533
 30
0.0
  0
VERTEX
  5
508
330
4CF
100
AcDbEntity
  8
枠_表
  6
CONTINUOUS
 62
     6
100
AcDbVertex
100
AcDb2dVertex
 10
481.9931049058041
 20
1526.419812642376
 30
0.0
  0
VERTEX
  5
509
330
4CF
100
AcDbEntity
  8
枠_表
  6
CONTINUOUS
 62
     6
100
AcDbVertex
100
AcDb2dVertex
 10
470.6805475056822
 20
1527.139561399723
 30
0.0
  0
VERTEX
  5
50A
330
4CF
100
AcDbEntity
  8
枠_表
  6
CONTINUOUS
 62
     6
100
AcDbVertex
100
AcDb2dVertex
 10
459.3679901055602
 20
1527.888687657369
 30
0.0
  0
VERTEX
  5
50B
330
4CF
100
AcDbEntity
  8
枠_表
  6
CONTINUOUS
 62
     6
100
AcDbVertex
100
AcDb2dVertex
 10
448.0554327054388
 20
1528.667191415315
 30
0.0
  0
VERTEX
  5
50C
330
4CF
100
AcDbEntity
  8
枠_表
  6
CONTINUOUS
 62
     6
100
AcDbVertex
100
AcDb2dVertex
 10
436.7428753053164
 20
1529.475072673561
 30
0.0
  0
VERTEX
  5
50D
330
4CF
100
AcDbEntity
  8
枠_表
  6
CONTINUOUS
 62
     6
100
AcDbVertex
100
AcDb2dVertex
 10
425.4303179051949
 20
1530.312331432107
 30
0.0
  0
VERTEX
  5
50E
330
4CF
100
AcDbEntity
  8
枠_表
  6
CONTINUOUS
 62
     6
100
AcDbVertex
100
AcDb2dVertex
 10
414.117760505073
 20
1531.178967690953
 30
0.0
  0
VERTEX
  5
50F
330
4CF
100
AcDbEntity
  8
枠_表
  6
CONTINUOUS
 62
     6
100
AcDbVertex
100
AcDb2dVertex
 10
402.805203104951
 20
1532.074981450099
 30
0.0
  0
VERTEX
  5
510
330
4CF
100
AcDbEntity
  8
枠_表
  6
CONTINUOUS
 62
     6
100
AcDbVertex
100
AcDb2dVertex
 10
391.4926457048291
 20
1533.000372709544
 30
0.0
  0
SEQEND
  5
511
330
4CF
100
AcDbEntity
  8
枠_表
  6
CONTINUOUS
 62
     6
  0
POLYLINE
  5
512
330
1F
100
AcDbEntity
  8
枠_表
  6
CONTINUOUS
 62
     6
100
AcDb2dPolyline
 66
     1
 10
0.0
 20
0.0
 30
0.0
 70
   128
  0
VERTEX
  5
513
330
512
100
AcDbEntity
  8
枠_表
  6
CONTINUOUS
 62
     6
100
AcDbVertex
100
AcDb2dVertex
 10
391.4940793880123
 20
1432.999037563891
 30
0.0
  0
VERTEX
  5
514
330
512
100
AcDbEntity
  8
枠_表
  6
CONTINUOUS
 62
     6
100
AcDbVertex
100
AcDb2dVertex
 10
402.8065919855339
 20
1433.924419527211
 30
0.0
  0
VERTEX
  5
515
330
512
100
AcDbEntity
  8
枠_表
  6
CONTINUOUS
 62
     6
100
AcDbVertex
100
AcDb2dVertex
 10
414.119104583056
 20
1434.820424285347
 30
0.0
  0
VERTEX
  5
516
330
512
100
AcDbEntity
  8
枠_表
  6
CONTINUOUS
 62
     6
100
AcDbVertex
100
AcDb2dVertex
 10
425.4316171805776
 20
1435.687051838298
 30
0.0
  0
VERTEX
  5
517
330
512
100
AcDbEntity
  8
枠_表
  6
CONTINUOUS
 62
     6
100
AcDbVertex
100
AcDb2dVertex
 10
436.7441297780997
 20
1436.524302186064
 30
0.0
  0
VERTEX
  5
518
330
512
100
AcDbEntity
  8
枠_表
  6
CONTINUOUS
 62
     6
100
AcDbVertex
100
AcDb2dVertex
 10
448.0566423756218
 20
1437.332175328645
 30
0.0
  0
VERTEX
  5
519
330
512
100
AcDbEntity
  8
枠_表
  6
CONTINUOUS
 62
     6
100
AcDbVertex
100
AcDb2dVertex
 10
459.3691549731434
 20
1438.110671266041
 30
0.0
  0
VERTEX
  5
51A
330
512
100
AcDbEntity
  8
枠_表
  6
CONTINUOUS
 62
     6
100
AcDbVertex
100
AcDb2dVertex
 10
470.6816675706655
 20
1438.859789998253
 30
0.0
  0
VERTEX
  5
51B
330
512
100
AcDbEntity
  8
枠_表
  6
CONTINUOUS
 62
     6
100
AcDbVertex
100
AcDb2dVertex
 10
481.9941801681871
 20
1439.57953152528
 30
0.0
  0
VERTEX
  5
51C
330
512
100
AcDbEntity
  8
枠_表
  6
CONTINUOUS
 62
     6
100
AcDbVertex
100
AcDb2dVertex
 10
493.3066927657092
 20
1440.269895847122
 30
0.0
  0
VERTEX
  5
51D
330
512
100
AcDbEntity
  8
枠_表
  6
CONTINUOUS
 62
     6
100
AcDbVertex
100
AcDb2dVertex
 10
504.6192053632312
 20
1440.93088296378
 30
0.0
  0
VERTEX
  5
51E
330
512
100
AcDbEntity
  8
枠_表
  6
CONTINUOUS
 62
     6
100
AcDbVertex
100
AcDb2dVertex
 10
515.9317179607528
 20
1441.562492875252
 30
0.0
  0
VERTEX
  5
51F
330
512
100
AcDbEntity
  8
枠_表
  6
CONTINUOUS
 62
     6
100
AcDbVertex
100
AcDb2dVertex
 10
527.2442305582749
 20
1442.16472558154
 30
0.0
  0
VERTEX
  5
520
330
512
100
AcDbEntity
  8
枠_表
  6
CONTINUOUS
 62
     6
100
AcDbVertex
100
AcDb2dVertex
 10
538.5567431557965
 20
1442.737581082643
 30
0.0
  0
VERTEX
  5
521
330
512
100
AcDbEntity
  8
枠_表
  6
CONTINUOUS
 62
     6
100
AcDbVertex
100
AcDb2dVertex
 10
549.8692557533186
 20
1443.281059378561
 30
0.0
  0
VERTEX
  5
522
330
512
100
AcDbEntity
  8
枠_表
  6
CONTINUOUS
 62
     6
100
AcDbVertex
100
AcDb2dVertex
 10
561.1817683508402
 20
1443.795160469295
 30
0.0
  0
VERTEX
  5
523
330
512
100
AcDbEntity
  8
枠_表
  6
CONTINUOUS
 62
     6
100
AcDbVertex
100
AcDb2dVertex
 10
572.4942809483623
 20
1444.279884354844
 30
0.0
  0
VERTEX
  5
524
330
512
100
AcDbEntity
  8
枠_表
  6
CONTINUOUS
 62
     6
100
AcDbVertex
100
AcDb2dVertex
 10
583.8067935458839
 20
1444.735231035208
 30
0.0
  0
VERTEX
  5
525
330
512
100
AcDbEntity
  8
枠_表
  6
CONTINUOUS
 62
     6
100
AcDbVertex
100
AcDb2dVertex
 10
595.119306143406
 20
1445.161200510387
 30
0.0
  0
VERTEX
  5
526
330
512
100
AcDbEntity
  8
枠_表
  6
CONTINUOUS
 62
     6
100
AcDbVertex
100
AcDb2dVertex
 10
606.4318187409281
 20
1445.557792780382
 30
0.0
  0
VERTEX
  5
527
330
512
100
AcDbEntity
  8
枠_表
  6
CONTINUOUS
 62
     6
100
AcDbVertex
100
AcDb2dVertex
 10
617.7443313384497
 20
1445.925007845191
 30
0.0
  0
VERTEX
  5
528
330
512
100
AcDbEntity
  8
枠_表
  6
CONTINUOUS
 62
     6
100
AcDbVertex
100
AcDb2dVertex
 10
629.0568439359718
 20
1446.262845704816
 30
0.0
  0
VERTEX
  5
529
330
512
100
AcDbEntity
  8
枠_表
  6
CONTINUOUS
 62
     6
100
AcDbVertex
100
AcDb2dVertex
 10
640.3693565334934
 20
1446.571306359256
 30
0.0
  0
VERTEX
  5
52A
330
512
100
AcDbEntity
  8
枠_表
  6
CONTINUOUS
 62
     6
100
AcDbVertex
100
AcDb2dVertex
 10
651.6818691310154
 20
1446.850389808511
 30
0.0
  0
VERTEX
  5
52B
330
512
100
AcDbEntity
  8
枠_表
  6
CONTINUOUS
 62
     6
100
AcDbVertex
100
AcDb2dVertex
 10
662.9943817285371
 20
1447.100096052582
 30
0.0
  0
VERTEX
  5
52C
330
512
100
AcDbEntity
  8
枠_表
  6
CONTINUOUS
 62
     6
100
AcDbVertex
100
AcDb2dVertex
 10
674.3068943260591
 20
1447.320425091468
 30
0.0
  0
VERTEX
  5
52D
330
512
100
AcDbEntity
  8
枠_表
  6
CONTINUOUS
 62
     6
100
AcDbVertex
100
AcDb2dVertex
 10
685.6194069235812
 20
1447.511376925169
 30
0.0
  0
VERTEX
  5
52E
330
512
100
AcDbEntity
  8
枠_表
  6
CONTINUOUS
 62
     6
100
AcDbVertex
100
AcDb2dVertex
 10
696.9319195211028
 20
1447.672951553685
 30
0.0
  0
VERTEX
  5
52F
330
512
100
AcDbEntity
  8
枠_表
  6
CONTINUOUS
 62
     6
100
AcDbVertex
100
AcDb2dVertex
 10
708.2444321186249
 20
1447.805148977017
 30
0.0
  0
VERTEX
  5
530
330
512
100
AcDbEntity
  8
枠_表
  6
CONTINUOUS
 62
     6
100
AcDbVertex
100
AcDb2dVertex
 10
719.5569447161465
 20
1447.907969195163
 30
0.0
  0
VERTEX
  5
531
330
512
100
AcDbEntity
  8
枠_表
  6
CONTINUOUS
 62
     6
100
AcDbVertex
100
AcDb2dVertex
 10
730.8694573136686
 20
1447.981412208125
 30
0.0
  0
VERTEX
  5
532
330
512
100
AcDbEntity
  8
枠_表
  6
CONTINUOUS
 62
     6
100
AcDbVertex
100
AcDb2dVertex
 10
742.1819699111902
 20
1448.025478015903
 30
0.0
  0
VERTEX
  5
533
330
512
100
AcDbEntity
  8
枠_表
  6
CONTINUOUS
 62
     6
100
AcDbVertex
100
AcDb2dVertex
 10
753.4944825087123
 20
1448.040166618495
 30
0.0
  0
VERTEX
  5
534
330
512
100
AcDbEntity
  8
枠_表
  6
CONTINUOUS
 62
     6
100
AcDbVertex
100
AcDb2dVertex
 10
764.8069951062339
 20
1448.025478015903
 30
0.0
  0
VERTEX
  5
535
330
512
100
AcDbEntity
  8
枠_表
  6
CONTINUOUS
 62
     6
100
AcDbVertex
100
AcDb2dVertex
 10
776.119507703756
 20
1447.981412208125
 30
0.0
  0
VERTEX
  5
536
330
512
100
AcDbEntity
  8
枠_表
  6
CONTINUOUS
 62
     6
100
AcDbVertex
100
AcDb2dVertex
 10
787.4320203012776
 20
1447.907969195163
 30
0.0
  0
VERTEX
  5
537
330
512
100
AcDbEntity
  8
枠_表
  6
CONTINUOUS
 62
     6
100
AcDbVertex
100
AcDb2dVertex
 10
798.7445328987997
 20
1447.805148977017
 30
0.0
  0
VERTEX
  5
538
330
512
100
AcDbEntity
  8
枠_表
  6
CONTINUOUS
 62
     6
100
AcDbVertex
100
AcDb2dVertex
 10
810.0570454963217
 20
1447.672951553685
 30
0.0
  0
VERTEX
  5
539
330
512
100
AcDbEntity
  8
枠_表
  6
CONTINUOUS
 62
     6
100
AcDbVertex
100
AcDb2dVertex
 10
821.3695580938434
 20
1447.511376925169
 30
0.0
  0
VERTEX
  5
53A
330
512
100
AcDbEntity
  8
枠_表
  6
CONTINUOUS
 62
     6
100
AcDbVertex
100
AcDb2dVertex
 10
832.6820706913654
 20
1447.320425091468
 30
0.0
  0
VERTEX
  5
53B
330
512
100
AcDbEntity
  8
枠_表
  6
CONTINUOUS
 62
     6
100
AcDbVertex
100
AcDb2dVertex
 10
843.994583288887
 20
1447.100096052582
 30
0.0
  0
VERTEX
  5
53C
330
512
100
AcDbEntity
  8
枠_表
  6
CONTINUOUS
 62
     6
100
AcDbVertex
100
AcDb2dVertex
 10
855.3070958864091
 20
1446.850389808511
 30
0.0
  0
VERTEX
  5
53D
330
512
100
AcDbEntity
  8
枠_表
  6
CONTINUOUS
 62
     6
100
AcDbVertex
100
AcDb2dVertex
 10
866.6196084839307
 20
1446.571306359256
 30
0.0
  0
VERTEX
  5
53E
330
512
100
AcDbEntity
  8
枠_表
  6
CONTINUOUS
 62
     6
100
AcDbVertex
100
AcDb2dVertex
 10
877.9321210814528
 20
1446.262845704816
 30
0.0
  0
VERTEX
  5
53F
330
512
100
AcDbEntity
  8
枠_表
  6
CONTINUOUS
 62
     6
100
AcDbVertex
100
AcDb2dVertex
 10
889.2446336789744
 20
1445.925007845191
 30
0.0
  0
VERTEX
  5
540
330
512
100
AcDbEntity
  8
枠_表
  6
CONTINUOUS
 62
     6
100
AcDbVertex
100
AcDb2dVertex
 10
900.5571462764965
 20
1445.557792780382
 30
0.0
  0
VERTEX
  5
541
330
512
100
AcDbEntity
  8
枠_表
  6
CONTINUOUS
 62
     6
100
AcDbVertex
100
AcDb2dVertex
 10
911.8696588740186
 20
1445.161200510387
 30
0.0
  0
VERTEX
  5
542
330
512
100
AcDbEntity
  8
枠_表
  6
CONTINUOUS
 62
     6
100
AcDbVertex
100
AcDb2dVertex
 10
923.1821714715402
 20
1444.735231035208
 30
0.0
  0
VERTEX
  5
543
330
512
100
AcDbEntity
  8
枠_表
  6
CONTINUOUS
 62
     6
100
AcDbVertex
100
AcDb2dVertex
 10
934.4946840690623
 20
1444.279884354844
 30
0.0
  0
VERTEX
  5
544
330
512
100
AcDbEntity
  8
枠_表
  6
CONTINUOUS
 62
     6
100
AcDbVertex
100
AcDb2dVertex
 10
945.8071966665839
 20
1443.795160469295
 30
0.0
  0
VERTEX
  5
545
330
512
100
AcDbEntity
  8
枠_表
  6
CONTINUOUS
 62
     6
100
AcDbVertex
100
AcDb2dVertex
 10
957.119709264106
 20
1443.281059378561
 30
0.0
  0
VERTEX
  5
546
330
512
100
AcDbEntity
  8
枠_表
  6
CONTINUOUS
 62
     6
100
AcDbVertex
100
AcDb2dVertex
 10
968.4322218616276
 20
1442.737581082643
 30
0.0
  0
VERTEX
  5
547
330
512
100
AcDbEntity
  8
枠_表
  6
CONTINUOUS
 62
     6
100
AcDbVertex
100
AcDb2dVertex
 10
979.7447344591496
 20
1442.16472558154
 30
0.0
  0
VERTEX
  5
548
330
512
100
AcDbEntity
  8
枠_表
  6
CONTINUOUS
 62
     6
100
AcDbVertex
100
AcDb2dVertex
 10
991.0572470566713
 20
1441.562492875252
 30
0.0
  0
VERTEX
  5
549
330
512
100
AcDbEntity
  8
枠_表
  6
CONTINUOUS
 62
     6
100
AcDbVertex
100
AcDb2dVertex
 10
1002.369759654193
 20
1440.93088296378
 30
0.0
  0
VERTEX
  5
54A
330
512
100
AcDbEntity
  8
枠_表
  6
CONTINUOUS
 62
     6
100
AcDbVertex
100
AcDb2dVertex
 10
1013.682272251715
 20
1440.269895847122
 30
0.0
  0
VERTEX
  5
54B
330
512
100
AcDbEntity
  8
枠_表
  6
CONTINUOUS
 62
     6
100
AcDbVertex
100
AcDb2dVertex
 10
1024.994784849237
 20
1439.57953152528
 30
0.0
  0
VERTEX
  5
54C
330
512
100
AcDbEntity
  8
枠_表
  6
CONTINUOUS
 62
     6
100
AcDbVertex
100
AcDb2dVertex
 10
1036.307297446759
 20
1438.859789998253
 30
0.0
  0
VERTEX
  5
54D
330
512
100
AcDbEntity
  8
枠_表
  6
CONTINUOUS
 62
     6
100
AcDbVertex
100
AcDb2dVertex
 10
1047.619810044281
 20
1438.110671266041
 30
0.0
  0
VERTEX
  5
54E
330
512
100
AcDbEntity
  8
枠_表
  6
CONTINUOUS
 62
     6
100
AcDbVertex
100
AcDb2dVertex
 10
1058.932322641803
 20
1437.332175328645
 30
0.0
  0
VERTEX
  5
54F
330
512
100
AcDbEntity
  8
枠_表
  6
CONTINUOUS
 62
     6
100
AcDbVertex
100
AcDb2dVertex
 10
1070.244835239324
 20
1436.524302186064
 30
0.0
  0
VERTEX
  5
550
330
512
100
AcDbEntity
  8
枠_表
  6
CONTINUOUS
 62
     6
100
AcDbVertex
100
AcDb2dVertex
 10
1081.557347836846
 20
1435.687051838298
 30
0.0
  0
VERTEX
  5
551
330
512
100
AcDbEntity
  8
枠_表
  6
CONTINUOUS
 62
     6
100
AcDbVertex
100
AcDb2dVertex
 10
1092.869860434368
 20
1434.820424285347
 30
0.0
  0
VERTEX
  5
552
330
512
100
AcDbEntity
  8
枠_表
  6
CONTINUOUS
 62
     6
100
AcDbVertex
100
AcDb2dVertex
 10
1104.18237303189
 20
1433.924419527211
 30
0.0
  0
VERTEX
  5
553
330
512
100
AcDbEntity
  8
枠_表
  6
CONTINUOUS
 62
     6
100
AcDbVertex
100
AcDb2dVertex
 10
1115.494885629412
 20
1432.999037563891
 30
0.0
  0
SEQEND
  5
554
330
512
100
AcDbEntity
  8
枠_表
  6
CONTINUOUS
 62
     6
  0
LINE
  5
555
330
1F
100
AcDbEntity
  8
枠_表
  6
CONTINUOUS
 62
     6
100
AcDbLine
 10
1068.49448250871
 20
1528.48077
 30
0.0
 11
1068.49448250871
 21
1437.73518
 31
0.0
  0
LINE
  5
556
330
1F
100
AcDbEntity
  8
枠_表
  6
EXLTYPE7
 62
     6
100
AcDbLine
 10
1600.5
 20
1396.0
 30
0.0
 11
1683.662277660168
 21
1368.279240779944
 31
0.0
  0
ARC
  5
557
330
1F
100
AcDbEntity
  8
枠_表
  6
EXLTYPE7
 62
     6
100
AcDbCircle
 10
1680.5
 20
1358.792407799439
 30
0.0
 40
10.0
100
AcDbArc
 50
0.0
 51
71.56505117707763
  0
LINE
  5
558
330
1F
100
AcDbEntity
  8
枠_表
  6
EXLTYPE7
 62
     6
100
AcDbLine
 10
1690.5
 20
1358.7924077994
 30
0.0
 11
1690.5
 21
1239.8962038997
 31
0.0
  0
ARC
  5
559
330
1F
100
AcDbEntity
  8
枠_表
  6
EXLTYPE7
 62
     6
100
AcDbCircle
 10
1685.5
 20
1236.0
 30
0.0
 40
5.0
100
AcDbArc
 50
270.0
 51
0.0
  0
LINE
  5
55A
330
1F
100
AcDbEntity
  8
枠_表
  6
EXLTYPE7
 62
     6
100
AcDbLine
 10
1610.5
 20
1231.0
 30
0.0
 11
1655.5
 21
1231.0
 31
0.0
  0
LINE
  5
55B
330
1F
100
AcDbEntity
  8
枠_表
  6
EXLTYPE7
 62
     6
100
AcDbLine
 10
1605.5
 20
1231.0
 30
0.0
 11
1685.5
 21
1231.0
 31
0.0
  0
ARC
  5
55C
330
1F
100
AcDbEntity
  8
枠_表
  6
EXLTYPE7
 62
     6
100
AcDbCircle
 10
1605.5
 20
1226.0
 30
0.0
 40
5.0
100
AcDbArc
 50
90.00000000000001
 51
180.0
  0
LINE
  5
55D
330
1F
100
AcDbEntity
  8
枠_表
  6
EXLTYPE7
 62
     6
100
AcDbLine
 10
1600.5
 20
1226.0
 30
0.0
 11
1600.5
 21
1209.96007329311
 31
0.0
  0
LINE
  5
55E
330
1F
100
AcDbEntity
  8
枠_表
  6
EXLTYPE7
 62
     6
100
AcDbLine
 10
1604.354803331373
 20
1205.092987451442
 30
0.0
 11
1682.790393337255
 21
1187.814025097116
 31
0.0
  0
ARC
  5
55F
330
1F
100
AcDbEntity
  8
枠_表
  6
EXLTYPE7
 62
     6
100
AcDbCircle
 10
1605.5
 20
1209.96007329311
 30
0.0
 40
5.0
100
AcDbArc
 50
180.0
 51
256.7594800848186
  0
ARC
  5
560
330
1F
100
AcDbEntity
  8
枠_表
  6
EXLTYPE7
 62
     6
100
AcDbCircle
 10
1680.5
 20
1178.079853413781
 30
0.0
 40
10.0
100
AcDbArc
 50
0.0
 51
76.7594800848131
  0
LINE
  5
561
330
1F
100
AcDbEntity
  8
枠_表
  6
EXLTYPE1
 62
     6
100
AcDbLine
 10
1690.5
 20
1178.079853413781
 30
0.0
 11
1690.5
 21
1019.539926706881
 31
0.0
  0
ARC
  5
562
330
1F
100
AcDbEntity
  8
枠_表
  6
EXLTYPE7
 62
     6
100
AcDbCircle
 10
1685.5
 20
1021.0
 30
0.0
 40
5.0
100
AcDbArc
 50
270.0
 51
0.0
  0
LINE
  5
563
330
1F
100
AcDbEntity
  8
枠_表
  6
EXLTYPE7
 62
     6
100
AcDbLine
 10
1605.5
 20
1016.0
 30
0.0
 11
1685.5
 21
1016.0
 31
0.0
  0
LINE
  5
564
330
1F
100
AcDbEntity
  8
枠_表
  6
EXLTYPE7
 62
     6
100
AcDbLine
 10
1610.5
 20
1016.0
 30
0.0
 11
1655.5
 21
1016.0
 31
0.0
  0
ARC
  5
565
330
1F
100
AcDbEntity
  8
枠_表
  6
EXLTYPE7
 62
     6
100
AcDbCircle
 10
1605.5
 20
1011.0
 30
0.0
 40
5.0
100
AcDbArc
 50
90.00000000000001
 51
180.0
  0
LINE
  5
566
330
1F
100
AcDbEntity
  8
枠_表
  6
EXLTYPE7
 62
     6
100
AcDbLine
 10
1600.5
 20
1011.0
 30
0.0
 11
1600.5
 21
994.9600732931099
 31
0.0
  0
ARC
  5
567
330
1F
100
AcDbEntity
  8
枠_表
  6
EXLTYPE7
 62
     6
100
AcDbCircle
 10
1605.5
 20
994.9600732931099
 30
0.0
 40
5.0
100
AcDbArc
 50
180.0
 51
256.7594800848186
  0
LINE
  5
568
330
1F
100
AcDbEntity
  8
枠_表
  6
EXLTYPE7
 62
     6
100
AcDbLine
 10
1604.354803331373
 20
990.0929874514418
 30
0.0
 11
1682.790393337255
 21
972.8140250971165
 31
0.0
  0
ARC
  5
569
330
1F
100
AcDbEntity
  8
枠_表
  6
EXLTYPE7
 62
     6
100
AcDbCircle
 10
1680.5
 20
963.0798534137808
 30
0.0
 40
10.0
100
AcDbArc
 50
0.0
 51
76.7594800848131
  0
LINE
  5
56A
330
1F
100
AcDbEntity
  8
枠_表
  6
EXLTYPE7
 62
     6
100
AcDbLine
 10
1690.5
 20
963.0798534137808
 30
0.0
 11
1690.5
 21
745.9999999999808
 31
0.0
  0
ARC
  5
56B
330
1F
100
AcDbEntity
  8
枠_表
  6
EXLTYPE7
 62
     6
100
AcDbCircle
 10
1685.5
 20
746.0
 30
0.0
 40
5.0
100
AcDbArc
 50
270.0
 51
0.0
  0
LINE
  5
56C
330
1F
100
AcDbEntity
  8
枠_表
  6
EXLTYPE7
 62
     6
100
AcDbLine
 10
1605.5
 20
741.0
 30
0.0
 11
1685.5
 21
741.0
 31
0.0
  0
ARC
  5
56D
330
1F
100
AcDbEntity
  8
枠_表
  6
EXLTYPE7
 62
     6
100
AcDbCircle
 10
1605.5
 20
736.0
 30
0.0
 40
5.0
100
AcDbArc
 50
90.00000000000001
 51
180.0
  0
LINE
  5
56E
330
1F
100
AcDbEntity
  8
枠_表
  6
CONTINUOUS
 62
     6
100
AcDbLine
 10
1185.120637558698
 20
698.4558840559087
 30
0.0
 11
1171.290833339698
 21
701.190754203709
 31
0.0
  0
ARC
  5
56F
330
1F
100
AcDbEntity
  8
枠_表
  6
CONTINUOUS
 62
     6
100
AcDbCircle
 10
1171.096783304698
 20
700.2097817323086
 30
0.0
 40
1.0
100
AcDbArc
 50
78.81378199997579
 51
165.0000000000056
  0
ARC
  5
570
330
1F
100
AcDbEntity
  8
枠_表
  6
CONTINUOUS
 62
     6
100
AcDbCircle
 10
1171.096783304698
 20
700.2097817323086
 30
0.0
 40
1.0
100
AcDbArc
 50
78.81378199997579
 51
165.0000000000056
  0
LINE
  5
571
330
1F
100
AcDbEntity
  8
枠_表
  6
CONTINUOUS
 62
     6
100
AcDbLine
 10
1685.499999999998
 20
520.9999999999991
 30
0.0
 11
1747.999999999998
 21
520.9999999999991
 31
0.0
  0
LINE
  5
572
330
1F
100
AcDbEntity
  8
枠_表
  6
CONTINUOUS
 62
     6
100
AcDbLine
 10
1700.499999999998
 20
522.9999999999991
 30
0.0
 11
1732.999999999998
 21
520.9999999999991
 31
0.0
  0
LINE
  5
573
330
1F
100
AcDbEntity
  8
枠_表
  6
CONTINUOUS
 62
     6
100
AcDbLine
 10
1732.999999999998
 20
520.9999999999991
 30
0.0
 11
1700.499999999998
 21
518.9999999999991
 31
0.0
  0
LINE
  5
574
330
1F
100
AcDbEntity
  8
枠_表
  6
CONTINUOUS
 62
     6
100
AcDbLine
 10
1685.499999999998
 20
1490.999999999999
 30
0.0
 11
1747.999999999998
 21
1490.999999999999
 31
0.0
  0
LINE
  5
575
330
1F
100
AcDbEntity
  8
枠_表
  6
CONTINUOUS
 62
     6
100
AcDbLine
 10
1700.499999999998
 20
1492.999999999999
 30
0.0
 11
1732.999999999998
 21
1490.999999999999
 31
0.0
  0
LINE
  5
576
330
1F
100
AcDbEntity
  8
枠_表
  6
CONTINUOUS
 62
     6
100
AcDbLine
 10
1732.999999999998
 20
1490.999999999999
 30
0.0
 11
1700.499999999998
 21
1488.999999999999
 31
0.0
  0
LINE
  5
577
330
1F
100
AcDbEntity
  8
枠_表
  6
CONTINUOUS
 62
     6
100
AcDbLine
 10
433.4944675086977
 20
2005.999999999998
 30
0.0
 11
433.4944675086977
 21
2068.499999999998
 31
0.0
  0
LINE
  5
578
330
1F
100
AcDbEntity
  8
枠_表
  6
CONTINUOUS
 62
     6
100
AcDbLine
 10
431.4944675086977
 20
2020.999999999998
 30
0.0
 11
433.4944675086977
 21
2053.499999999998
 31
0.0
  0
LINE
  5
579
330
1F
100
AcDbEntity
  8
枠_表
  6
CONTINUOUS
 62
     6
100
AcDbLine
 10
433.4944675086977
 20
2053.499999999998
 30
0.0
 11
435.4944675086977
 21
2020.999999999998
 31
0.0
  0
LINE
  5
57A
330
1F
100
AcDbEntity
  8
枠_表
  6
CONTINUOUS
 62
     6
100
AcDbLine
 10
1073.494467508698
 20
2005.999999999998
 30
0.0
 11
1073.494467508698
 21
2068.499999999998
 31
0.0
  0
LINE
  5
57B
330
1F
100
AcDbEntity
  8
枠_表
  6
CONTINUOUS
 62
     6
100
AcDbLine
 10
1071.494467508698
 20
2020.999999999998
 30
0.0
 11
1073.494467508698
 21
2053.499999999998
 31
0.0
  0
LINE
  5
57C
330
1F
100
AcDbEntity
  8
枠_表
  6
CONTINUOUS
 62
     6
100
AcDbLine
 10
1073.494467508698
 20
2053.499999999998
 30
0.0
 11
1075.494467508698
 21
2020.999999999998
 31
0.0
  0
LINE
  5
57D
330
1F
100
AcDbEntity
  8
枠_表
  6
CONTINUOUS
 62
     6
100
AcDbLine
 10
398.50000000002
 20
527.0
 30
0.0
 11
398.50000000002
 21
515.0
 31
0.0
  0
LINE
  5
57E
330
1F
100
AcDbEntity
  8
枠_表
  6
CONTINUOUS
 62
     6
100
AcDbLine
 10
404.50000000002
 20
521.0
 30
0.0
 11
392.50000000002
 21
521.0
 31
0.0
  0
LINE
  5
57F
330
1F
100
AcDbEntity
  8
枠_表
  6
CONTINUOUS
 62
     6
100
AcDbLine
 10
1114.4889350174
 20
521.0
 30
0.0
 11
1102.4889350174
 21
521.0
 31
0.0
  0
LINE
  5
580
330
1F
100
AcDbEntity
  8
枠_表
  6
CONTINUOUS
 62
     6
100
AcDbLine
 10
1108.4889350174
 20
527.0
 30
0.0
 11
1108.4889350174
 21
515.0
 31
0.0
  0
LINE
  5
581
330
1F
100
AcDbEntity
  8
枠_表
  6
CONTINUOUS
 62
     6
100
AcDbLine
 10
398.4999999999876
 20
2005.999999999998
 30
0.0
 11
398.4999999999876
 21
2068.499999999998
 31
0.0
  0
LINE
  5
582
330
1F
100
AcDbEntity
  8
枠_表
  6
CONTINUOUS
 62
     6
100
AcDbLine
 10
396.4999999999876
 20
2020.999999999998
 30
0.0
 11
398.4999999999876
 21
2053.499999999998
 31
0.0
  0
LINE
  5
583
330
1F
100
AcDbEntity
  8
枠_表
  6
CONTINUOUS
 62
     6
100
AcDbLine
 10
398.4999999999876
 20
2053.499999999998
 30
0.0
 11
400.4999999999876
 21
2020.999999999998
 31
0.0
  0
LINE
  5
584
330
1F
100
AcDbEntity
  8
枠_表
  6
CONTINUOUS
 62
     6
100
AcDbLine
 10
1108.499999999998
 20
2005.999999999998
 30
0.0
 11
1108.499999999998
 21
2068.499999999998
 31
0.0
  0
LINE
  5
585
330
1F
100
AcDbEntity
  8
枠_表
  6
CONTINUOUS
 62
     6
100
AcDbLine
 10
1106.499999999998
 20
2020.999999999998
 30
0.0
 11
1108.499999999998
 21
2053.499999999998
 31
0.0
  0
LINE
  5
586
330
1F
100
AcDbEntity
  8
枠_表
  6
CONTINUOUS
 62
     6
100
AcDbLine
 10
1108.499999999998
 20
2053.499999999998
 30
0.0
 11
1110.499999999998
 21
2020.999999999998
 31
0.0
  0
LINE
  5
587
330
1F
100
AcDbEntity
  8
枠_表
  6
CONTINUOUS
 62
     6
100
AcDbLine
 10
990.0000000000006
 20
2305.0
 30
0.0
 11
990.0000000000006
 21
2805.0
 31
0.0
  0
LINE
  5
588
330
1F
100
AcDbEntity
  8
枠_表
  6
CONTINUOUS
 62
     6
100
AcDbLine
 10
1950.0
 20
2305.0
 30
0.0
 11
1950.0
 21
2805.0
 31
0.0
  0
LINE
  5
589
330
1F
100
AcDbEntity
  8
枠_表
  6
CONTINUOUS
 62
     6
100
AcDbLine
 10
1240.0
 20
2305.0
 30
0.0
 11
1240.0
 21
2805.0
 31
0.0
  0
LINE
  5
58A
330
1F
100
AcDbEntity
  8
鏡台
  6
CONTINUOUS
 62
     6
100
AcDbLine
 10
1098.588935017399
 20
580.9999999999991
 30
0.0
 11
1161.665631847999
 21
580.9999999999991
 31
0.0
  0
LINE
  5
58B
330
1F
100
AcDbEntity
  8
鏡台
  6
CONTINUOUS
 62
     6
100
AcDbLine
 10
1184.196736656399
 20
695.5872669101991
 30
0.0
 11
1173.571624396399
 21
698.4342680582986
 31
0.0
  0
LINE
  5
58C
330
1F
100
AcDbEntity
  8
鏡台
  6
CONTINUOUS
 62
     6
100
AcDbLine
 10
1180.443797011399
 20
681.581392085699
 30
0.0
 11
1166.593601258399
 21
685.9149284016994
 31
0.0
  0
LINE
  5
58D
330
1F
100
AcDbEntity
  8
鏡台
  6
CONTINUOUS
 62
     6
100
AcDbLine
 10
1174.641473571399
 20
678.4773263694988
 30
0.0
 11
1165.586465417399
 21
680.9036623491993
 31
0.0
  0
LINE
  5
58E
330
1F
100
AcDbEntity
  8
鏡台
  6
CONTINUOUS
 62
     6
100
AcDbLine
 10
1166.593601258399
 20
685.9149284016994
 30
0.0
 11
1162.118913250399
 21
663.6498031211986
 31
0.0
  0
LINE
  5
58F
330
1F
100
AcDbEntity
  8
鏡台
  6
CONTINUOUS
 62
     6
100
AcDbLine
 10
1168.996109035399
 20
661.8057711292995
 30
0.0
 11
1175.203530982399
 21
680.137244389799
 31
0.0
  0
LINE
  5
590
330
1F
100
AcDbEntity
  8
鏡台
  6
CONTINUOUS
 62
     6
100
AcDbLine
 10
1199.263362228399
 20
689.9973023498997
 30
0.0
 11
1183.808476953399
 21
694.1383693547987
 31
0.0
  0
LINE
  5
591
330
1F
100
AcDbEntity
  8
鏡台
  6
CONTINUOUS
 62
     6
100
AcDbLine
 10
1196.933928972399
 20
681.3039229308988
 30
0.0
 11
1181.479165320399
 21
685.4449995726991
 31
0.0
  0
LINE
  5
592
330
1F
100
AcDbEntity
  8
鏡台
  6
CONTINUOUS
 62
     6
100
AcDbLine
 10
1173.571502861399
 20
698.4342574252987
 30
0.0
 11
1170.465783808399
 21
686.8432237920997
 31
0.0
  0
LINE
  5
593
330
1F
100
AcDbEntity
  8
鏡台
  6
CONTINUOUS
 62
     6
100
AcDbLine
 10
1181.090906700399
 20
683.9961011081987
 30
0.0
 11
1170.465783808399
 21
686.8432237920997
 31
0.0
  0
LINE
  5
594
330
1F
100
AcDbEntity
  8
鏡台
  6
CONTINUOUS
 62
     6
100
AcDbLine
 10
1180.443797011399
 20
681.581392085699
 30
0.0
 11
1178.917572376399
 21
682.0453533567988
 31
0.0
  0
LINE
  5
595
330
1F
100
AcDbEntity
  8
鏡台
  6
CONTINUOUS
 62
     6
100
AcDbLine
 10
1184.973133355399
 20
698.4850532932987
 30
0.0
 11
1171.143329136399
 21
701.2199234410991
 31
0.0
  0
LINE
  5
596
330
1F
100
AcDbEntity
  8
鏡台
  6
CONTINUOUS
 62
     6
100
AcDbLine
 10
1180.443797011399
 20
681.581392085699
 30
0.0
 11
1184.973133355399
 21
698.4850532932987
 31
0.0
  0
LINE
  5
597
330
1F
100
AcDbEntity
  8
鏡台
  6
CONTINUOUS
 62
     6
100
AcDbLine
 10
1166.334719796399
 20
686.8809042251987
 30
0.0
 11
1169.983347095399
 21
700.497790410499
 31
0.0
  0
LINE
  5
598
330
1F
100
AcDbEntity
  8
鏡台
  6
CONTINUOUS
 62
     6
100
AcDbLine
 10
1167.790058594399
 20
661.1606048548992
 30
0.0
 11
1162.840450897399
 21
662.4868277983996
 31
0.0
  0
ARC
  5
599
330
1F
100
AcDbEntity
  8
鏡台
  6
CONTINUOUS
 62
     6
100
AcDbCircle
 10
1310.245612017399
 20
635.8349609999996
 30
0.0
 40
150.0
100
AcDbArc
 50
169.7364188339999
 51
175.9890140000003
  0
ARC
  5
59A
330
1F
100
AcDbEntity
  8
鏡台
  6
CONTINUOUS
 62
     6
100
AcDbCircle
 10
1315.738410017399
 20
636.1166989999992
 30
0.0
 40
150.0
100
AcDbArc
 50
170.3937176707998
 51
175.6141359999999
  0
ARC
  5
59B
330
1F
100
AcDbEntity
  8
鏡台
  6
CONTINUOUS
 62
     6
100
AcDbCircle
 10
1178.0450297324
 20
679.1750589176991
 30
0.0
 40
3.000000000000002
100
AcDbArc
 50
73.09075899999961
 51
161.29272500001
  0
ARC
  5
59C
330
1F
100
AcDbEntity
  8
鏡台
  6
CONTINUOUS
 62
     6
100
AcDbCircle
 10
1163.099290251399
 20
663.4527608012986
 30
0.0
 40
1.0
100
AcDbArc
 50
168.6365359999535
 51
254.9999389999938
  0
ARC
  5
59D
330
1F
100
AcDbEntity
  8
鏡台
  6
CONTINUOUS
 62
     6
100
AcDbCircle
 10
1168.048898035399
 20
662.1265368614995
 30
0.0
 40
1.0
100
AcDbArc
 50
255.0000000000056
 51
341.2927249999935
  0
ARC
  5
59E
330
1F
100
AcDbEntity
  8
鏡台
  6
CONTINUOUS
 62
     6
100
AcDbCircle
 10
1189.472591718399
 20
687.9619192266991
 30
0.0
 40
10.0
100
AcDbArc
 50
318.2563779999982
 51
11.74365199999793
  0
ARC
  5
59F
330
1F
100
AcDbEntity
  8
鏡台
  6
CONTINUOUS
 62
     6
100
AcDbCircle
 10
1170.949279101399
 20
700.2389509696986
 30
0.0
 40
1.0
100
AcDbArc
 50
78.81378199997579
 51
165.0000000000056
  0
ARC
  5
5A0
330
1F
100
AcDbEntity
  8
鏡台
  6
CONTINUOUS
 62
     6
100
AcDbCircle
 10
1167.300651802399
 20
686.6220647844993
 30
0.0
 40
1.0
100
AcDbArc
 50
164.9999999999553
 51
253.0908809999582
  0
ARC
  5
5A1
330
1F
100
AcDbEntity
  8
鏡台
  6
CONTINUOUS
 62
     6
100
AcDbCircle
 10
1040.337592017398
 20
647.8100589999985
 30
0.0
 40
120.0000000000001
100
AcDbArc
 50
332.4231260000005
 51
355.4096070000001
  0
ARC
  5
5A2
330
1F
100
AcDbEntity
  8
鏡台
  6
CONTINUOUS
 62
     6
100
AcDbCircle
 10
1046.233588017399
 20
646.5830079999987
 30
0.0
 40
120.0000000000001
100
AcDbArc
 50
330.778137
 51
356.6508789999999
  0
ARC
  5
5A3
330
1F
100
AcDbEntity
  8
鏡台
  6
CONTINUOUS
 62
     6
100
AcDbCircle
 10
1178.0450297324
 20
679.1750589176991
 30
0.0
 40
3.000000000000002
100
AcDbArc
 50
73.09075899999961
 51
161.29272500001
  0
ARC
  5
5A4
330
1F
100
AcDbEntity
  8
鏡台
  6
CONTINUOUS
 62
     6
100
AcDbCircle
 10
1163.099290251399
 20
663.4527608012986
 30
0.0
 40
1.0
100
AcDbArc
 50
168.6365359999535
 51
254.9999389999938
  0
ARC
  5
5A5
330
1F
100
AcDbEntity
  8
鏡台
  6
CONTINUOUS
 62
     6
100
AcDbCircle
 10
1168.048898035399
 20
662.1265368614995
 30
0.0
 40
1.0
100
AcDbArc
 50
255.0000000000056
 51
341.2927249999935
  0
ARC
  5
5A6
330
1F
100
AcDbEntity
  8
鏡台
  6
CONTINUOUS
 62
     6
100
AcDbCircle
 10
1189.472591718399
 20
687.9619192266991
 30
0.0
 40
10.0
100
AcDbArc
 50
318.2563779999982
 51
11.74365199999793
  0
ARC
  5
5A7
330
1F
100
AcDbEntity
  8
鏡台
  6
CONTINUOUS
 62
     6
100
AcDbCircle
 10
1170.949279101399
 20
700.2389509696986
 30
0.0
 40
1.0
100
AcDbArc
 50
78.81378199997579
 51
165.0000000000056
  0
ARC
  5
5A8
330
1F
100
AcDbEntity
  8
鏡台
  6
CONTINUOUS
 62
     6
100
AcDbCircle
 10
1167.300651802399
 20
686.6220647844993
 30
0.0
 40
1.0
100
AcDbArc
 50
164.9999999999553
 51
253.0908809999582
  0
ARC
  5
5A9
330
1F
100
AcDbEntity
  8
鏡台
  6
CONTINUOUS
 62
     6
100
AcDbCircle
 10
1157.216743017399
 20
654.9847409999993
 30
0.0
 40
17.00025
100
AcDbArc
 50
231.9271239999991
 51
288.0711059999998
  0
ARC
  5
5AA
330
1F
100
AcDbEntity
  8
鏡台
  6
CONTINUOUS
 62
     6
100
AcDbCircle
 10
1167.763496017399
 20
622.6614379999983
 30
0.0
 40
17.000208
100
AcDbArc
 50
79.99896199999944
 51
108.0710449999981
  0
ARC
  5
5AB
330
1F
100
AcDbEntity
  8
鏡台
  6
CONTINUOUS
 62
     6
100
AcDbCircle
 10
1167.763618017399
 20
622.6616209999993
 30
0.0
 40
17.000029
100
AcDbArc
 50
51.92639200000015
 51
79.99896199999789
  0
ARC
  5
5AC
330
1F
100
AcDbEntity
  8
鏡台
  6
CONTINUOUS
 62
     6
100
AcDbCircle
 10
1157.216743017399
 20
662.9847409999993
 30
0.0
 40
17.00025
100
AcDbArc
 50
231.9271239999991
 51
288.0711059999998
  0
ARC
  5
5AD
330
1F
100
AcDbEntity
  8
鏡台
  6
CONTINUOUS
 62
     6
100
AcDbCircle
 10
1167.763496017399
 20
630.6614379999983
 30
0.0
 40
17.000208
100
AcDbArc
 50
79.99896199999944
 51
108.0710449999981
  0
ARC
  5
5AE
330
1F
100
AcDbEntity
  8
鏡台
  6
CONTINUOUS
 62
     6
100
AcDbCircle
 10
1167.763618017399
 20
630.6616209999993
 30
0.0
 40
17.000029
100
AcDbArc
 50
51.92639200000015
 51
79.99896199999789
  0
ARC
  5
5AF
330
1F
100
AcDbEntity
  8
鏡台
  6
CONTINUOUS
 62
     6
100
AcDbCircle
 10
1128.588935017399
 20
607.9999999999991
 30
0.0
 40
30.00000000000002
100
AcDbArc
 50
270.0000000000002
 51
318.2063289999991
  0
ARC
  5
5B0
330
1F
100
AcDbEntity
  8
鏡台
  6
CONTINUOUS
 62
     6
100
AcDbCircle
 10
1128.588935017399
 20
607.9999999999991
 30
0.0
 40
24.00000000000002
100
AcDbArc
 50
270.0000000000002
 51
319.0090329999999
  0
LINE
  5
5B1
330
1F
100
AcDbEntity
  8
鏡台
  6
CONTINUOUS
 62
     6
100
AcDbLine
 10
850.1343303471981
 20
1309.326154339999
 30
0.0
 11
797.1013217581981
 21
1256.293145750999
 31
0.0
  0
LINE
  5
5B2
330
1F
100
AcDbEntity
  8
鏡台
  6
CONTINUOUS
 62
     6
100
AcDbLine
 10
827.4944675086986
 20
1297.999999999999
 30
0.0
 11
808.5444675086987
 21
1279.049999999999
 31
0.0
  0
LINE
  5
5B3
330
1F
100
AcDbEntity
  8
鏡台
  6
CONTINUOUS
 62
     6
100
AcDbLine
 10
844.0081760076987
 20
1291.886291501998
 30
0.0
 11
814.3081760076989
 21
1262.186291501999
 31
0.0
  0
LINE
  5
5B4
330
1F
100
AcDbEntity
  8
鏡台
  6
CONTINUOUS
 62
     6
100
AcDbLine
 10
568.1343303471986
 20
1086.326154339999
 30
0.0
 11
515.1013217581985
 21
1033.293145750999
 31
0.0
  0
LINE
  5
5B5
330
1F
100
AcDbEntity
  8
鏡台
  6
CONTINUOUS
 62
     6
100
AcDbLine
 10
545.4944675086986
 20
1074.999999999999
 30
0.0
 11
526.5444675086987
 21
1056.049999999999
 31
0.0
  0
LINE
  5
5B6
330
1F
100
AcDbEntity
  8
鏡台
  6
CONTINUOUS
 62
     6
100
AcDbLine
 10
562.0081760076987
 20
1068.886291501998
 30
0.0
 11
532.3081760076993
 21
1039.186291501999
 31
0.0
  0
LINE
  5
5B7
330
1F
100
AcDbEntity
  8
鏡台
  6
CONTINUOUS
 62
     6
100
AcDbLine
 10
810.6206218481989
 20
729.4398628379993
 30
0.0
 11
757.5876132591989
 21
676.4068542489993
 31
0.0
  0
LINE
  5
5B8
330
1F
100
AcDbEntity
  8
鏡台
  6
CONTINUOUS
 62
     6
100
AcDbLine
 10
787.9807590096993
 20
718.1137084979989
 30
0.0
 11
769.0307590096995
 21
699.1637084979991
 31
0.0
  0
LINE
  5
5B9
330
1F
100
AcDbEntity
  8
鏡台
  6
CONTINUOUS
 62
     6
100
AcDbLine
 10
804.4944675086995
 20
711.999999999998
 30
0.0
 11
774.7944675086997
 21
682.299999999999
 31
0.0
  0
LINE
  5
5BA
330
1F
100
AcDbEntity
  8
鏡台
  6
CONTINUOUS
 62
     6
100
AcDbLine
 10
1950.0
 20
2305.0
 30
0.0
 11
990.0000000000006
 21
2305.0
 31
0.0
  0
POLYLINE
  5
5BB
330
1F
100
AcDbEntity
  8
枠_表
  6
CONTINUOUS
 62
     2
100
AcDb2dPolyline
 66
     1
 10
0.0
 20
0.0
 30
0.0
 70
   128
  0
VERTEX
  5
5BC
330
5BB
100
AcDbEntity
  8
枠_表
  6
CONTINUOUS
 62
     2
100
AcDbVertex
100
AcDb2dVertex
 10
378.5000000000214
 20
500.999963117
 30
0.0
  0
VERTEX
  5
5BD
330
5BB
100
AcDbEntity
  8
枠_表
  6
CONTINUOUS
 62
     2
100
AcDbVertex
100
AcDb2dVertex
 10
378.5000000000214
 20
1541.0
 30
0.0
  0
SEQEND
  5
5BE
330
5BB
100
AcDbEntity
  8
枠_表
  6
CONTINUOUS
 62
     2
  0
TEXT
  5
5C0
330
1F
100
AcDbEntity
  8
0
  6
CONTINUOUS
 62
     2
100
AcDbText
 10
91.99844842667522
 20
15.86135067024453
 30
0.0
 40
3.375
  1
ジャニス工業株式会社
 41
1.025641025641026
  7
EXCADTTF1
 72
     5
 11
136.9984484266752
 21
15.86135067024453
 31
0.0
100
AcDbText
  0
TEXT
  5
5C1
330
1F
100
AcDbEntity
  8
枠_表
  6
CONTINUOUS
 62
     2
100
AcDbText
 10
1890.5371094
 20
302.7227782999998
 30
0.0
 40
30.0
  1
１
 41
1.101333333333329
  7
EXCADSTD
 72
     5
 11
1914.1371094
 21
302.7227782999998
 31
0.0
100
AcDbText
  0
TEXT
  5
5C2
330
1F
100
AcDbEntity
  8
枠_表
  6
CONTINUOUS
 62
     2
100
AcDbText
 10
202.5
 20
308.75
 30
0.0
 40
42.5
  1
製図
 41
1.509694117647059
  7
EXCADSTD
 72
     5
 11
303.326
 21
308.75
 31
0.0
100
AcDbText
  0
TEXT
  5
5C3
330
1F
100
AcDbEntity
  8
枠_表
  6
CONTINUOUS
 62
     2
100
AcDbText
 10
357.5
 20
308.75
 30
0.0
 40
42.5
  1
写図
 41
1.509694117647059
  7
EXCADSTD
 72
     5
 11
458.326
 21
308.75
 31
0.0
100
AcDbText
  0
TEXT
  5
5C4
330
1F
100
AcDbEntity
  8
枠_表
  6
CONTINUOUS
 62
     2
100
AcDbText
 10
507.4999999999995
 20
308.75
 30
0.0
 40
42.5
  1
検図
 41
1.303826737967914
  7
EXCADSTD
 72
     5
 11
594.5769999999995
 21
308.75
 31
0.0
100
AcDbText
  0
TEXT
  5
5C5
330
1F
100
AcDbEntity
  8
枠_表
  6
CONTINUOUS
 62
     2
100
AcDbText
 10
637.4999999999981
 20
308.75
 30
0.0
 40
42.5
  1
承認
 41
1.303826737967914
  7
EXCADSTD
 72
     5
 11
724.5769999999981
 21
308.75
 31
0.0
100
AcDbText
  0
TEXT
  5
5C6
330
1F
100
AcDbEntity
  8
枠_表
  6
CONTINUOUS
 62
     2
100
AcDbText
 10
755.7499999999977
 20
298.75
 30
0.0
 40
42.5
  1
品
 41
1.12
  7
EXCADSTD
 72
     5
 11
789.7499999999977
 21
298.75
 31
0.0
100
AcDbText
  0
TEXT
  5
5C7
330
1F
100
AcDbEntity
  8
枠_表
  6
CONTINUOUS
 62
     2
100
AcDbText
 10
755.7499999999977
 20
248.75
 30
0.0
 40
42.5
  1
名
 41
1.12
  7
EXCADSTD
 72
     5
 11
789.7499999999977
 21
248.75
 31
0.0
100
AcDbText
  0
TEXT
  5
5C8
330
1F
100
AcDbEntity
  8
枠_表
  6
CONTINUOUS
 62
     2
100
AcDbText
 10
1395.749999999999
 20
298.75
 30
0.0
 40
42.5
  1
品
 41
1.12
  7
EXCADSTD
 72
     5
 11
1429.749999999999
 21
298.75
 31
0.0
100
AcDbText
  0
TEXT
  5
5C9
330
1F
100
AcDbEntity
  8
枠_表
  6
CONTINUOUS
 62
     2
100
AcDbText
 10
1395.749999999999
 20
248.75
 30
0.0
 40
42.5
  1
番
 41
1.12
  7
EXCADSTD
 72
     5
 11
1429.749999999999
 21
248.75
 31
0.0
100
AcDbText
  0
TEXT
  5
5CA
330
1F
100
AcDbEntity
  8
枠_表
  6
CONTINUOUS
 62
     2
100
AcDbText
 10
1816.75
 20
298.75
 30
0.0
 40
42.5
  1
尺
 41
1.12
  7
EXCADSTD
 72
     5
 11
1850.75
 21
298.75
 31
0.0
100
AcDbText
  0
TEXT
  5
5CB
330
1F
100
AcDbEntity
  8
枠_表
  6
CONTINUOUS
 62
     2
100
AcDbText
 10
1816.75
 20
248.75
 30
0.0
 40
42.5
  1
度
 41
1.12
  7
EXCADSTD
 72
     5
 11
1850.75
 21
248.75
 31
0.0
100
AcDbText
  0
TEXT
  5
5CC
330
1F
100
AcDbEntity
  8
枠_表
  6
CONTINUOUS
 62
     2
100
AcDbText
 10
1395.749999999999
 20
185.7499999999991
 30
0.0
 40
42.5
  1
図
 41
1.12
  7
EXCADSTD
 72
     5
 11
1429.749999999999
 21
185.7499999999991
 31
0.0
100
AcDbText
  0
TEXT
  5
5CD
330
1F
100
AcDbEntity
  8
枠_表
  6
CONTINUOUS
 62
     2
100
AcDbText
 10
1395.749999999999
 20
142.75
 30
0.0
 40
42.5
  1
番
 41
1.12
  7
EXCADSTD
 72
     5
 11
1429.749999999999
 21
142.75
 31
0.0
100
AcDbText
  0
TEXT
  5
5CE
330
1F
100
AcDbEntity
  8
枠_表
  6
CONTINUOUS
 62
     2
100
AcDbText
 10
1931.2792969
 20
258.3488464000002
 30
0.0
 40
30.0
  1
１０
 41
1.098531212121213
  7
EXCADSTD
 72
     5
 11
1983.0671969
 21
258.3488464000002
 31
0.0
100
AcDbText
  0
TEXT
  5
5CF
330
1F
100
AcDbEntity
  8
枠_表
  6
CONTINUOUS
 62
     2
100
AcDbText
 10
207.4999999999949
 20
220.0
 30
0.0
 40
50.0
  1
中村
 41
1.224910909090909
  7
EXCADSTD
 72
     5
 11
303.7429999999949
 21
220.0
 31
0.0
100
AcDbText
  0
TEXT
  5
5D0
330
1F
100
AcDbEntity
  8
枠_表
  6
CONTINUOUS
 62
     2
100
AcDbText
 10
809.9999999999983
 20
270.0
 30
0.0
 40
50.0
  1
750㎜幅  化粧鏡台
 41
0.9485507246376811
  7
EXCADSTD
 72
     5
 11
1277.499999999998
 21
270.0
 31
0.0
100
AcDbText
  0
TEXT
  5
5D1
330
1F
100
AcDbEntity
  8
枠_表
  6
CONTINUOUS
 62
     2
100
AcDbText
 10
995.0000000000015
 20
2760.0
 30
0.0
 40
40.0
  1
本体
 41
1.195746363636362
  7
EXCADSTD
 72
     5
 11
1070.161200000001
 21
2760.0
 31
0.0
100
AcDbText
  0
TEXT
  5
5D2
330
1F
100
AcDbEntity
  8
枠_表
  6
CONTINUOUS
 62
     2
100
AcDbText
 10
995.0000000000015
 20
2660.0
 30
0.0
 40
40.0
  1
照明器具
 41
1.186956521739129
  7
EXCADSTD
 72
     5
 11
1151.000000000001
 21
2660.0
 31
0.0
100
AcDbText
  0
TEXT
  5
5D3
330
1F
100
AcDbEntity
  8
枠_表
  6
CONTINUOUS
 62
     2
100
AcDbText
 10
995.0000000000015
 20
2560.0
 30
0.0
 40
40.0
  1
電源コード
 41
1.164655172413792
  7
EXCADSTD
 72
     5
 11
1188.000000000001
 21
2560.0
 31
0.0
100
AcDbText
  0
TEXT
  5
5D4
330
1F
100
AcDbEntity
  8
枠_表
  6
CONTINUOUS
 62
     2
100
AcDbText
 10
995.0000000000015
 20
2710.0
 30
0.0
 40
40.0
  1
鏡
 41
1.259999999999996
  7
EXCADSTD
 72
     5
 11
1031.000000000001
 21
2710.0
 31
0.0
100
AcDbText
  0
TEXT
  5
5D5
330
1F
100
AcDbEntity
  8
枠_表
  6
CONTINUOUS
 62
     2
100
AcDbText
 10
995.0000000000015
 20
2610.0
 30
0.0
 40
40.0
  1
コンセント
 41
1.164655172413792
  7
EXCADSTD
 72
     5
 11
1188.000000000001
 21
2610.0
 31
0.0
100
AcDbText
  0
TEXT
  5
5D6
330
1F
100
AcDbEntity
  8
枠_表
  6
CONTINUOUS
 62
     2
100
AcDbText
 10
990.0000000000015
 20
2810.0
 30
0.0
 40
40.0
  1
化粧鏡台仕様
 41
1.224999999999999
  7
EXCADSTD
 72
     5
 11
1235.000000000001
 21
2810.0
 31
0.0
100
AcDbText
  0
TEXT
  5
5D7
330
1F
100
AcDbEntity
  8
枠_表
  6
CONTINUOUS
 62
     2
100
AcDbText
 10
1245.000000000002
 20
2710.0
 30
0.0
 40
40.0
  1
防湿形
 41
1.225
  7
EXCADSTD
 72
     5
 11
1364.000000000002
 21
2710.0
 31
0.0
100
AcDbText
  0
TEXT
  5
5D8
330
1F
100
AcDbEntity
  8
枠_表
  6
CONTINUOUS
 62
     2
100
AcDbText
 10
1245.000000000002
 20
2560.0
 30
0.0
 40
40.0
  1
ＶＦＦ　プラグ付（２.０m㎡）
 41
1.003505535055351
  7
EXCADSTD
 72
     5
 11
1763.000000000002
 21
2560.0
 31
0.0
100
AcDbText
  0
TEXT
  5
5D9
330
1F
100
AcDbEntity
  8
枠_表
  6
CONTINUOUS
 62
     2
100
AcDbText
 10
1245.000000000002
 20
2760.0
 30
0.0
 40
40.0
  1
合成樹脂（ＨｉＰＳ）
 41
1.121186440677966
  7
EXCADSTD
 72
     5
 11
1623.000000000002
 21
2760.0
 31
0.0
100
AcDbText
  0
TEXT
  5
5DA
330
1F
100
AcDbEntity
  8
枠_表
  6
CONTINUOUS
 62
     2
100
AcDbText
 10
995.0000000000015
 20
2510.0
 30
0.0
 40
40.0
  1
歯ブラシ立て
 41
1.149999999999999
  7
EXCADSTD
 72
     5
 11
1225.000000000001
 21
2510.0
 31
0.0
100
AcDbText
  0
TEXT
  5
5DB
330
1F
100
AcDbEntity
  8
枠_表
  6
CONTINUOUS
 62
     2
100
AcDbText
 10
995.0000000000007
 20
2410.0
 30
0.0
 40
40.0
  1
取付ねじ
 41
1.18695652173913
  7
EXCADSTD
 72
     5
 11
1151.000000000001
 21
2410.0
 31
0.0
100
AcDbText
  0
TEXT
  5
5DC
330
1F
100
AcDbEntity
  8
枠_表
  6
CONTINUOUS
 62
     2
100
AcDbText
 10
1245.000000000002
 20
2410.0
 30
0.0
 40
40.0
  1
化粧キャップ付木ねじ
 41
1.121186440677966
  7
EXCADSTD
 72
     5
 11
1623.000000000002
 21
2410.0
 31
0.0
100
AcDbText
  0
TEXT
  5
5DD
330
1F
100
AcDbEntity
  8
枠_表
  6
CONTINUOUS
 62
     2
100
AcDbText
 10
995.0000000000015
 20
2460.0
 30
0.0
 40
40.0
  1
防水テープ
 41
1.164655172413792
  7
EXCADSTD
 72
     5
 11
1188.000000000001
 21
2460.0
 31
0.0
100
AcDbText
  0
TEXT
  5
5DE
330
1F
100
AcDbEntity
  8
枠_表
  6
CONTINUOUS
 62
     2
100
AcDbText
 10
184.4999999000001
 20
140.0
 30
0.0
 40
40.0
  1
28
 41
0.454054054054054
  7
EXCADSTD
 72
     5
 11
216.4999999000001
 21
140.0
 31
0.0
100
AcDbText
  0
TEXT
  5
5DF
330
1F
100
AcDbEntity
  8
枠_表
  6
CONTINUOUS
 62
     2
100
AcDbText
 10
1245.0
 20
2660.000000000001
 30
0.0
 40
40.0
  1
２０Ｗ直管型蛍光灯
 41
1.125943396226415
  7
EXCADSTD
 72
     5
 11
1586.0
 21
2660.000000000001
 31
0.0
100
AcDbText
  0
TEXT
  5
5E0
330
1F
100
AcDbEntity
  8
枠_表
  6
CONTINUOUS
 62
     2
100
AcDbText
 10
1245.000000000002
 20
2610.0
 30
0.0
 40
40.0
  1
許容電力：１２００Ｗ（２口）
 41
1.109036144578313
  7
EXCADSTD
 72
     5
 11
1771.000000000002
 21
2610.0
 31
0.0
100
AcDbText
  0
TEXT
  5
5E1
330
1F
100
AcDbEntity
  8
枠_表
  6
CONTINUOUS
 62
     2
100
AcDbText
 10
1245.000000000002
 20
2460.0
 30
0.0
 40
40.0
  1
合成樹脂
 41
1.18695652173913
  7
EXCADSTD
 72
     5
 11
1401.000000000002
 21
2460.0
 31
0.0
100
AcDbText
  0
TEXT
  5
5E2
330
1F
100
AcDbEntity
  8
枠_表
  6
CONTINUOUS
 62
     2
100
AcDbText
 10
1245.000000000002
 20
2510.0
 30
0.0
 40
40.0
  1
ＰＰ
 41
1.195746363636364
  7
EXCADSTD
 72
     5
 11
1320.161200000002
 21
2510.0
 31
0.0
100
AcDbText
  0
TEXT
  5
5E3
330
1F
100
AcDbEntity
  8
枠_表
  6
CONTINUOUS
 62
     7
100
AcDbText
 10
1452.00000166893
 20
151.5
 30
0.0
 40
70.0
  1
ＬＵ９１０８７０
 41
1.140425531914894
  7
EXCADSTD
 72
     5
 11
1988.00000166893
 21
151.5
 31
0.0
100
AcDbText
  0
TEXT
  5
5E4
330
1F
100
AcDbEntity
  8
枠_表
  6
CONTINUOUS
 62
     2
100
AcDbText
 10
243.7499999999999
 20
140.0
 30
0.0
 40
40.0
  1
8
 41
0.4516544117647059
  7
EXCADSTD
 72
     5
 11
258.3749999999999
 21
140.0
 31
0.0
100
AcDbText
  0
TEXT
  5
5E5
330
1F
100
AcDbEntity
  8
枠_表
  6
CONTINUOUS
 62
     2
100
AcDbText
 10
288.0000001000002
 20
140.0
 30
0.0
 40
40.0
  1
25
 41
0.454054054054054
  7
EXCADSTD
 72
     5
 11
320.0000001000002
 21
140.0
 31
0.0
100
AcDbText
  0
TEXT
  5
5E6
330
1F
100
AcDbEntity
  8
枠_表
  6
CONTINUOUS
 62
     2
100
AcDbText
 10
1350.0
 20
2220.0
 30
0.0
 40
40.0
  1
・電源コードの取出しは、左又は右
 41
1.105263157894737
  7
EXCADSTD
 72
     5
 11
1950.0
 21
2220.0
 31
0.0
100
AcDbText
  0
TEXT
  5
5E7
330
1F
100
AcDbEntity
  8
枠_表
  6
CONTINUOUS
 62
     2
100
AcDbText
 10
1350.0
 20
2180.0
 30
0.0
 40
40.0
  1
　有効コード長さ（参考値）
 41
1.111363636363637
  7
EXCADSTD
 72
     5
 11
1839.0
 21
2180.0
 31
0.0
100
AcDbText
  0
TEXT
  5
5E8
330
1F
100
AcDbEntity
  8
枠_表
  6
CONTINUOUS
 62
     2
100
AcDbText
 10
1350.0
 20
2140.0
 30
0.0
 40
40.0
  1
　　右取出し：１２００㎜
 41
1.114084507042254
  7
EXCADSTD
 72
     5
 11
1802.0
 21
2140.0
 31
0.0
100
AcDbText
  0
TEXT
  5
5E9
330
1F
100
AcDbEntity
  8
枠_表
  6
CONTINUOUS
 62
     2
100
AcDbText
 10
1350.0
 20
2100.0
 30
0.0
 40
40.0
  1
　　左取出し：１８５０㎜
 41
1.114084507042254
  7
EXCADSTD
 72
     5
 11
1802.0
 21
2100.0
 31
0.0
100
AcDbText
  0
TEXT
  5
5EA
330
1F
100
AcDbEntity
  8
枠_表
  6
CONTINUOUS
 62
     2
100
AcDbText
 10
503.499999999995
 20
220.0
 30
0.0
 40
50.0
  1
間瀬
 41
1.224910909090908
  7
EXCADSTD
 72
     5
 11
599.7429999999949
 21
220.0
 31
0.0
100
AcDbText
  0
TEXT
  5
5EB
330
1F
100
AcDbEntity
  8
枠_表
  6
CONTINUOUS
 62
     2
100
AcDbText
 10
627.499999999995
 20
220.0
 30
0.0
 40
50.0
  1
間瀬
 41
1.224910909090908
  7
EXCADSTD
 72
     5
 11
723.7429999999949
 21
220.0
 31
0.0
100
AcDbText
  0
TEXT
  5
5EC
330
1F
100
AcDbEntity
  8
枠_表
  6
CONTINUOUS
 62
     2
100
AcDbText
 10
997.0000000000013
 20
2309.0
 30
0.0
 40
40.0
  1
電源
 41
1.195746363636362
  7
EXCADSTD
 72
     5
 11
1072.161200000001
 21
2309.0
 31
0.0
100
AcDbText
  0
TEXT
  5
5ED
330
1F
100
AcDbEntity
  8
枠_表
  6
CONTINUOUS
 62
     2
100
AcDbText
 10
1247.000000000001
 20
2309.0
 30
0.0
 40
40.0
  1
ＡＣ１００Ｖ　５０/６０Ｈｚ
 41
1.044812252964427
  7
EXCADSTD
 72
     5
 11
1750.500000000001
 21
2309.0
 31
0.0
100
AcDbText
  0
TEXT
  5
5EE
330
1F
100
AcDbEntity
  8
枠_表
  6
CONTINUOUS
 62
     2
100
AcDbText
 10
995.0000000000007
 20
2359.0
 30
0.0
 40
40.0
  1
防曇ヒーター
 41
1.15
  7
EXCADSTD
 72
     5
 11
1225.000000000001
 21
2359.0
 31
0.0
100
AcDbText
  0
TEXT
  5
5EF
330
1F
100
AcDbEntity
  8
枠_表
  6
CONTINUOUS
 62
     2
100
AcDbText
 10
1245.000000000002
 20
2359.0
 30
0.0
 40
40.0
  1
２０Ｗ（ＬＵＭ７５１０ＰＫＨのみ）
 41
1.103712871287129
  7
EXCADSTD
 72
     5
 11
1882.000000000002
 21
2359.0
 31
0.0
100
AcDbText
  0
TEXT
  5
5F0
330
1F
100
AcDbEntity
  8
枠_表
  6
CONTINUOUS
 62
     2
100
AcDbText
 10
1452.0
 20
242.0
 30
0.0
 40
50.0
  1
ＬＵＭ７５１０ＰＫＮ
 41
0.7355932203389832
  7
EXCADSTD
 72
     5
 11
1762.0
 21
242.0
 31
0.0
100
AcDbText
  0
TEXT
  5
5F1
330
1F
100
AcDbEntity
  8
枠_表
  6
CONTINUOUS
 62
     2
100
AcDbText
 10
1452.0
 20
294.0000000000001
 30
0.0
 40
50.0
  1
ＬＵＭ７５１０ＰＫＨ
 41
0.7355932203389832
  7
EXCADSTD
 72
     5
 11
1762.0
 21
294.0000000000001
 31
0.0
100
AcDbText
  0
ENDSEC
  0
SECTION
  2
OBJECTS
  0
DICTIONARY
  5
C
330
0
100
AcDbDictionary
  3
ACAD_GROUP
350
D
  3
ACAD_LAYOUT
350
1A
  3
ACAD_MATERIAL
350
3B
  3
ACAD_MLEADERSTYLE
350
614
  3
ACAD_MLINESTYLE
350
17
  3
ACAD_PLOTSETTINGS
350
19
  3
ACAD_VISUALSTYLE
350
2A
  3
ACDBHEADERROUNDTRIPXREC
350
5F2
  3
ACDBVARIABLEDICTIONARY
350
612
  0
DICTIONARY
  5
D
102
{ACAD_REACTORS
330
C
102
}
330
C
100
AcDbDictionary
  0
DICTIONARY
  5
1A
102
{ACAD_REACTORS
330
C
102
}
330
C
100
AcDbDictionary
  0
DICTIONARY
  5
3B
102
{ACAD_REACTORS
330
C
102
}
330
C
100
AcDbDictionary
  3
BYBLOCK
350
3D
  3
BYLAYER
350
3C
  3
GLOBAL
350
3E
  0
DICTIONARY
  5
614
102
{ACAD_REACTORS
330
C
102
}
330
C
100
AcDbDictionary
  0
DICTIONARY
  5
17
102
{ACAD_REACTORS
330
C
102
}
330
C
100
AcDbDictionary
  3
STANDARD
350
18
  0
DICTIONARY
  5
19
102
{ACAD_REACTORS
330
C
102
}
330
C
100
AcDbDictionary
  0
DICTIONARY
  5
2A
102
{ACAD_REACTORS
330
C
102
}
330
C
100
AcDbDictionary
  3
2DWIREFRAME
350
2F
  3
3D_HIDDEN
350
31
  3
3DWIREFRAME
350
30
  3
BASIC
350
32
  3
BRIGHTEN
350
36
  3
COLORCHANGE
350
3A
  3
CONCEPTUAL
350
34
  3
DIM
350
35
  3
FACEPATTERN
350
39
  3
FLAT
350
2B
  3
FLATWITHEDGES
350
2C
  3
GOURAUD
350
2D
  3
GOURAUDWITHEDGES
350
2E
  3
LINEPATTERN
350
38
  3
REALISTIC
350
33
  3
THICKEN
350
37
  0
DICTIONARY
  5
5F2
102
{ACAD_REACTORS
330
C
102
}
330
C
100
AcDbDictionary
  3
CEPSNTYPE
350
5FB
  3
DIMSTYLEDATA
350
611
  3
FINGERPRINTGUID
350
5FC
  3
HYPERLINKBASE
350
5F5
  3
INSUNITS
350
5FA
  3
LAYOUTDICT
350
5F7
  3
LWETCUNION
350
5F9
  3
PLOTSETDICT
350
5F8
  3
PSVPSCALE
350
5FE
  3
PUCSBASE
350
601
  3
PUCSORGBACK
350
607
  3
PUCSORGBOTTOM
350
603
  3
PUCSORGFRONT
350
606
  3
PUCSORGLEFT
350
604
  3
PUCSORGRIGHT
350
605
  3
PUCSORGTOP
350
602
  3
PUCSORTHOREF
350
5FF
  3
PUCSORTHOVIEW
350
600
  3
STYLESHEET
350
5F6
  3
TSTACKALIGN
350
5F3
  3
TSTACKSIZE
350
5F4
  3
UCSBASE
350
60A
  3
UCSORGBACK
350
610
  3
UCSORGBOTTOM
350
60C
  3
UCSORGFRONT
350
60F
  3
UCSORGLEFT
350
60D
  3
UCSORGRIGHT
350
60E
  3
UCSORGTOP
350
60B
  3
UCSORTHOREF
350
608
  3
UCSORTHOVIEW
350
609
  3
VERSIONGUID
350
5FD
  0
DICTIONARY
  5
612
102
{ACAD_REACTORS
330
C
102
}
330
C
100
AcDbDictionary
  3
DIMASSOC
350
617
  3
HIDETEXT
350
618
  3
PSOLHEIGHT
350
616
  3
PSOLWIDTH
350
615
  0
MATERIAL
  5
3D
102
{ACAD_REACTORS
330
3B
102
}
102
{ACAD_XDICTIONARY
360
61B
102
}
330
3B
100
AcDbMaterial
  1
ByBlock
  0
MATERIAL
  5
3C
102
{ACAD_REACTORS
330
3B
102
}
102
{ACAD_XDICTIONARY
360
619
102
}
330
3B
100
AcDbMaterial
  1
ByLayer
  0
MATERIAL
  5
3E
102
{ACAD_REACTORS
330
3B
102
}
102
{ACAD_XDICTIONARY
360
61D
102
}
330
3B
100
AcDbMaterial
  1
Global
  0
MLINESTYLE
  5
18
102
{ACAD_REACTORS
330
17
102
}
330
17
100
AcDbMlineStyle
  2
Standard
 70
     0
  3

 62
   256
 51
90.0
 52
90.0
 71
     2
 49
0.5
 62
   256
  6
BYLAYER
 49
-0.5
 62
   256
  6
BYLAYER
  0
ACAD_PROXY_OBJECT
  5
2F
102
{ACAD_REACTORS
330
2A
102
}
330
2A
100
AcDbProxyObject
 90
      499
 91
      501
 93
      436
310
42CC9915DA5C99599C985B595049028333333333333E3BF0000000000000FB0107901411070040501600405405064090741402480A0340
1001
ACAD
1000
AcDbSavedByObjectVersion
1070
     0
  0
ACAD_PROXY_OBJECT
  5
31
102
{ACAD_REACTORS
330
2A
102
}
330
2A
100
AcDbProxyObject
 90
      499
 91
      501
 93
      500
310
424CD108121A5919195B90640502408333333333333E3BF0000000000000FB01079024090700405020000000000001110200405405064090740C02480A0340
1001
ACAD
1000
AcDbSavedByObjectVersion
1070
     0
  0
ACAD_PROXY_OBJECT
  5
30
102
{ACAD_REACTORS
330
2A
102
}
330
2A
100
AcDbProxyObject
 90
      499
 91
      501
 93
      436
310
42CCD915DA5C99599C985B595059028333333333333E3BF0000000000000FB0107901411070040501600405405064090741402480A0340
1001
ACAD
1000
AcDbSavedByObjectVersion
1070
     0
  0
ACAD_PROXY_OBJECT
  5
32
102
{ACAD_REACTORS
330
2A
102
}
330
2A
100
AcDbProxyObject
 90
      499
 91
      501
 93
      388
310
4150985CDA58D07406404333333333333E3BF0000000000000FB0107A41107004050150841D405064090741402480A0350
1001
ACAD
1000
AcDbSavedByObjectVersion
1070
     0
  0
ACAD_PROXY_OBJECT
  5
36
102
{ACAD_REACTORS
330
2A
102
}
330
2A
100
AcDbProxyObject
 90
      499
 91
      501
 93
      428
310
42109C9A59DA1D195B90C409028333333333333E3BF0000000000000FB010790141107004050150841D405064090741402480A029950
1001
ACAD
1000
AcDbSavedByObjectVersion
1070
     0
  0
ACAD_PROXY_OBJECT
  5
3A
102
{ACAD_REACTORS
330
2A
102
}
330
2A
100
AcDbProxyObject
 90
      499
 91
      501
 93
      452
310
42D0DBDB1BDC90DA185B99D95104090240C333333333333E3BF0000000000000FB0108901411070040501508421405064090741402480A0350
1001
ACAD
1000
AcDbSavedByObjectVersion
1070
     0
  0
ACAD_PROXY_OBJECT
  5
34
102
{ACAD_REACTORS
330
2A
102
}
330
2A
100
AcDbProxyObject
 90
      499
 91
      501
 93
      500
310
4290DBDB98D95C1D1D585B10940D028333333333333E3BF0000000000000FB0107902409070040501000000000000111010841D405064090740C02480A0340
1001
ACAD
1000
AcDbSavedByObjectVersion
1070
     0
  0
ACAD_PROXY_OBJECT
  5
35
102
{ACAD_REACTORS
330
2A
102
}
330
2A
100
AcDbProxyObject
 90
      499
 91
      501
 93
      412
310
40D11A5B50B409028333333333333E3BF0000000000000FB010790141107004050150841D405064090741402480A02677FFFFFD0
1001
ACAD
1000
AcDbSavedByObjectVersion
1070
     0
  0
ACAD_PROXY_OBJECT
  5
39
102
{ACAD_REACTORS
330
2A
102
}
330
2A
100
AcDbProxyObject
 90
      499
 91
      501
 93
      444
310
42D19858D95C185D1D195C9B90F409028333333333333E3BF0000000000000FB010790141107004050150841D405064090741402480A0350
1001
ACAD
1000
AcDbSavedByObjectVersion
1070
     0
  0
ACAD_PROXY_OBJECT
  5
2B
102
{ACAD_REACTORS
330
2A
102
}
330
2A
100
AcDbProxyObject
 90
      499
 91
      501
 93
      388
310
41119B185D240901404333333333333E3BF0000000000000F9010740A41107004050150841D405064090741402480A1B50
1001
ACAD
1000
AcDbSavedByObjectVersion
1070
     0
  0
ACAD_PROXY_OBJECT
  5
2C
102
{ACAD_REACTORS
330
2A
102
}
330
2A
100
AcDbProxyObject
 90
      499
 91
      501
 93
      476
310
43519B185D15DA5D1A115919D95CD0140901404333333333333E3BF0000000000000F9010740901411070040501600405405064090741402480A1B50
1001
ACAD
1000
AcDbSavedByObjectVersion
1070
     0
  0
ACAD_PROXY_OBJECT
  5
2D
102
{ACAD_REACTORS
330
2A
102
}
330
2A
100
AcDbProxyObject
 90
      499
 91
      501
 93
      412
310
41D1DBDD5C985D5910240902404333333333333E3BF0000000000000F9010740A411070040501641D405064090741402480A1B50
1001
ACAD
1000
AcDbSavedByObjectVersion
1070
     0
  0
ACAD_PROXY_OBJECT
  5
2E
102
{ACAD_REACTORS
330
2A
102
}
330
2A
100
AcDbProxyObject
 90
      499
 91
      501
 93
      500
310
4411DBDD5C985D5915DA5D1A115919D95CD0340902404333333333333E3BF0000000000000F9010740901411070040501600405405064090741402480A1B50
1001
ACAD
1000
AcDbSavedByObjectVersion
1070
     0
  0
ACAD_PROXY_OBJECT
  5
38
102
{ACAD_REACTORS
330
2A
102
}
330
2A
100
AcDbProxyObject
 90
      499
 91
      501
 93
      444
310
42D31A5B995C185D1D195C9B90E409028333333333333E3BF0000000000000FB010790141107004050750841D405064090741402483A0350
1001
ACAD
1000
AcDbSavedByObjectVersion
1070
     0
  0
ACAD_PROXY_OBJECT
  5
33
102
{ACAD_REACTORS
330
2A
102
}
330
2A
100
AcDbProxyObject
 90
      499
 91
      501
 93
      420
310
425499585B1A5CDD1A58D08409028333333333333E3BF0000000000000FB01079019070040501508421405064090741402480A1B40
1001
ACAD
1000
AcDbSavedByObjectVersion
1070
     0
  0
ACAD_PROXY_OBJECT
  5
37
102
{ACAD_REACTORS
330
2A
102
}
330
2A
100
AcDbProxyObject
 90
      499
 91
      501
 93
      412
310
41D51A1A58DAD95B90D409028333333333333E3BF0000000000000FB010790141107004050150C41D405064090741402480A0350
1001
ACAD
1000
AcDbSavedByObjectVersion
1070
     0
  0
XRECORD
  5
5FB
102
{ACAD_REACTORS
330
5F2
102
}
330
5F2
100
AcDbXrecord
 90
        0
  0
XRECORD
  5
611
102
{ACAD_REACTORS
330
5F2
102
}
330
5F2
100
AcDbXrecord
1000
DSTYLE
1002
{
1070
   340
340
11
1002
}
  0
XRECORD
  5
5FC
102
{ACAD_REACTORS
330
5F2
102
}
330
5F2
100
AcDbXrecord
  1
{88726AB0-B2DA-49D5-8A89-E5BD36C5BD2D}
  0
XRECORD
  5
5F5
102
{ACAD_REACTORS
330
5F2
102
}
330
5F2
100
AcDbXrecord
  1

  0
XRECORD
  5
5FA
102
{ACAD_REACTORS
330
5F2
102
}
330
5F2
100
AcDbXrecord
 90
        4
  0
XRECORD
  5
5F7
102
{ACAD_REACTORS
330
5F2
102
}
330
5F2
100
AcDbXrecord
340
1A
  0
XRECORD
  5
5F9
102
{ACAD_REACTORS
330
5F2
102
}
330
5F2
100
AcDbXrecord
 90
    10781
  0
XRECORD
  5
5F8
102
{ACAD_REACTORS
330
5F2
102
}
330
5F2
100
AcDbXrecord
340
19
  0
XRECORD
  5
5FE
102
{ACAD_REACTORS
330
5F2
102
}
330
5F2
100
AcDbXrecord
 40
0.0
  0
XRECORD
  5
601
102
{ACAD_REACTORS
330
5F2
102
}
330
5F2
100
AcDbXrecord
340
0
  0
XRECORD
  5
607
102
{ACAD_REACTORS
330
5F2
102
}
330
5F2
100
AcDbXrecord
 10
0.0
 20
0.0
 30
0.0
  0
XRECORD
  5
603
102
{ACAD_REACTORS
330
5F2
102
}
330
5F2
100
AcDbXrecord
 10
0.0
 20
0.0
 30
0.0
  0
XRECORD
  5
606
102
{ACAD_REACTORS
330
5F2
102
}
330
5F2
100
AcDbXrecord
 10
0.0
 20
0.0
 30
0.0
  0
XRECORD
  5
604
102
{ACAD_REACTORS
330
5F2
102
}
330
5F2
100
AcDbXrecord
 10
0.0
 20
0.0
 30
0.0
  0
XRECORD
  5
605
102
{ACAD_REACTORS
330
5F2
102
}
330
5F2
100
AcDbXrecord
 10
0.0
 20
0.0
 30
0.0
  0
XRECORD
  5
602
102
{ACAD_REACTORS
330
5F2
102
}
330
5F2
100
AcDbXrecord
 10
0.0
 20
0.0
 30
0.0
  0
XRECORD
  5
5FF
102
{ACAD_REACTORS
330
5F2
102
}
330
5F2
100
AcDbXrecord
340
0
  0
XRECORD
  5
600
102
{ACAD_REACTORS
330
5F2
102
}
330
5F2
100
AcDbXrecord
 70
     0
  0
XRECORD
  5
5F6
102
{ACAD_REACTORS
330
5F2
102
}
330
5F2
100
AcDbXrecord
  1

  0
XRECORD
  5
5F3
102
{ACAD_REACTORS
330
5F2
102
}
330
5F2
100
AcDbXrecord
 90
        1
  0
XRECORD
  5
5F4
102
{ACAD_REACTORS
330
5F2
102
}
330
5F2
100
AcDbXrecord
 90
       70
  0
XRECORD
  5
60A
102
{ACAD_REACTORS
330
5F2
102
}
330
5F2
100
AcDbXrecord
340
0
  0
XRECORD
  5
610
102
{ACAD_REACTORS
330
5F2
102
}
330
5F2
100
AcDbXrecord
 10
0.0
 20
0.0
 30
0.0
  0
XRECORD
  5
60C
102
{ACAD_REACTORS
330
5F2
102
}
330
5F2
100
AcDbXrecord
 10
0.0
 20
0.0
 30
0.0
  0
XRECORD
  5
60F
102
{ACAD_REACTORS
330
5F2
102
}
330
5F2
100
AcDbXrecord
 10
0.0
 20
0.0
 30
0.0
  0
XRECORD
  5
60D
102
{ACAD_REACTORS
330
5F2
102
}
330
5F2
100
AcDbXrecord
 10
0.0
 20
0.0
 30
0.0
  0
XRECORD
  5
60E
102
{ACAD_REACTORS
330
5F2
102
}
330
5F2
100
AcDbXrecord
 10
0.0
 20
0.0
 30
0.0
  0
XRECORD
  5
60B
102
{ACAD_REACTORS
330
5F2
102
}
330
5F2
100
AcDbXrecord
 10
0.0
 20
0.0
 30
0.0
  0
XRECORD
  5
608
102
{ACAD_REACTORS
330
5F2
102
}
330
5F2
100
AcDbXrecord
340
0
  0
XRECORD
  5
609
102
{ACAD_REACTORS
330
5F2
102
}
330
5F2
100
AcDbXrecord
 70
     0
  0
XRECORD
  5
5FD
102
{ACAD_REACTORS
330
5F2
102
}
330
5F2
100
AcDbXrecord
  1
{FAEB1C32-E019-11D5-929B-00C0DF256EC4}
  0
DICTIONARYVAR
  5
617
102
{ACAD_REACTORS
330
612
102
}
330
612
100
DictionaryVariables
280
     0
  1
2
  0
DICTIONARYVAR
  5
618
102
{ACAD_REACTORS
330
612
102
}
330
612
100
DictionaryVariables
280
     0
  1
1
  0
DICTIONARYVAR
  5
616
102
{ACAD_REACTORS
330
612
102
}
330
612
100
DictionaryVariables
280
     0
  1
80.000000
  0
DICTIONARYVAR
  5
615
102
{ACAD_REACTORS
330
612
102
}
330
612
100
DictionaryVariables
280
     0
  1
5.000000
  0
DICTIONARY
  5
61B
330
3D
100
AcDbDictionary
280
     1
  3
ACAD_XREC_ROUNDTRIP
360
61C
  0
DICTIONARY
  5
619
330
3C
100
AcDbDictionary
280
     1
  3
ACAD_XREC_ROUNDTRIP
360
61A
  0
DICTIONARY
  5
61D
330
3E
100
AcDbDictionary
280
     1
  3
ACAD_XREC_ROUNDTRIP
360
61E
  0
XRECORD
  5
61C
102
{ACAD_REACTORS
330
61B
102
}
330
61B
100
AcDbXrecord
102
MATERIAL
148
0.0
149
0.0
149
0.0
 93
        0
 94
      127
282
     0
 72
     1
 77
     1
171
     1
175
     1
179
     1
273
     0
  0
XRECORD
  5
61A
102
{ACAD_REACTORS
330
619
102
}
330
619
100
AcDbXrecord
102
MATERIAL
148
0.0
149
0.0
149
0.0
 93
        0
 94
      127
282
     0
 72
     1
 77
     1
171
     1
175
     1
179
     1
273
     0
  0
XRECORD
  5
61E
102
{ACAD_REACTORS
330
61D
102
}
330
61D
100
AcDbXrecord
102
MATERIAL
148
0.0
149
0.0
149
0.0
 93
        0
 94
      127
282
     0
 72
     1
 77
     1
171
     1
175
     1
179
     1
273
     0
  0
ENDSEC
  0
EOF
