  0
SECTION
  2
HEADER
  9
$ACADVER
  1
AC1014
  9
$ACADMAINTVER
 70
     0
  9
$DWGCODEPAGE
  3
ANSI_932
  9
$INSBASE
 10
0.0
 20
0.0
 30
0.0
  9
$EXTMIN
 10
-2.1
 20
11.5
 30
0.0
  9
$EXTMAX
 10
199.9
 20
291.5
 30
0.0
  9
$LIMMIN
 10
0.0
 20
0.0
  9
$LIMMAX
 10
210.0
 20
297.0
  9
$ORTHOMODE
 70
     0
  9
$REGENMODE
 70
     1
  9
$FILLMODE
 70
     1
  9
$QTEXTMODE
 70
     0
  9
$MIRRTEXT
 70
     1
  9
$DRAGMODE
 70
     2
  9
$LTSCALE
 40
1.0
  9
$OSMODE
 70
     0
  9
$ATTMODE
 70
     1
  9
$TEXTSIZE
 40
0.2
  9
$TRACEWID
 40
0.05
  9
$TEXTSTYLE
  7
STANDARD
  9
$CLAYER
  8
洗面器
  9
$CELTYPE
  6
CONTINUOUS
  9
$CECOLOR
 62
   256
  9
$CELTSCALE
 40
1.0
  9
$DELOBJ
 70
     1
  9
$DISPSILH
 70
     0
  9
$DIMSCALE
 40
1.0
  9
$DIMASZ
 40
0.18
  9
$DIMEXO
 40
0.0625
  9
$DIMDLI
 40
0.38
  9
$DIMRND
 40
0.0
  9
$DIMDLE
 40
0.0
  9
$DIMEXE
 40
0.18
  9
$DIMTP
 40
0.0
  9
$DIMTM
 40
0.0
  9
$DIMTXT
 40
0.18
  9
$DIMCEN
 40
0.09
  9
$DIMTSZ
 40
0.0
  9
$DIMTOL
 70
     0
  9
$DIMLIM
 70
     0
  9
$DIMTIH
 70
     1
  9
$DIMTOH
 70
     1
  9
$DIMSE1
 70
     0
  9
$DIMSE2
 70
     0
  9
$DIMTAD
 70
     0
  9
$DIMZIN
 70
     0
  9
$DIMBLK
  1

  9
$DIMASO
 70
     1
  9
$DIMSHO
 70
     1
  9
$DIMPOST
  1

  9
$DIMAPOST
  1

  9
$DIMALT
 70
     0
  9
$DIMALTD
 70
     2
  9
$DIMALTF
 40
25.4
  9
$DIMLFAC
 40
1.0
  9
$DIMTOFL
 70
     0
  9
$DIMTVP
 40
0.0
  9
$DIMTIX
 70
     0
  9
$DIMSOXD
 70
     0
  9
$DIMSAH
 70
     0
  9
$DIMBLK1
  1

  9
$DIMBLK2
  1

  9
$DIMSTYLE
  2
STANDARD
  9
$DIMCLRD
 70
     0
  9
$DIMCLRE
 70
     0
  9
$DIMCLRT
 70
     0
  9
$DIMTFAC
 40
1.0
  9
$DIMGAP
 40
0.09
  9
$DIMJUST
 70
     0
  9
$DIMSD1
 70
     0
  9
$DIMSD2
 70
     0
  9
$DIMTOLJ
 70
     1
  9
$DIMTZIN
 70
     0
  9
$DIMALTZ
 70
     0
  9
$DIMALTTZ
 70
     0
  9
$DIMFIT
 70
     3
  9
$DIMUPT
 70
     0
  9
$DIMUNIT
 70
     2
  9
$DIMDEC
 70
     4
  9
$DIMTDEC
 70
     4
  9
$DIMALTU
 70
     2
  9
$DIMALTTD
 70
     2
  9
$DIMTXSTY
  7
STANDARD
  9
$DIMAUNIT
 70
     0
  9
$LUNITS
 70
     2
  9
$LUPREC
 70
     4
  9
$SKETCHINC
 40
0.1
  9
$FILLETRAD
 40
0.0
  9
$AUNITS
 70
     0
  9
$AUPREC
 70
     0
  9
$MENU
  1
acad
  9
$ELEVATION
 40
0.0
  9
$PELEVATION
 40
0.0
  9
$THICKNESS
 40
0.0
  9
$LIMCHECK
 70
     0
  9
$BLIPMODE
 70
     1
  9
$CHAMFERA
 40
0.0
  9
$CHAMFERB
 40
0.0
  9
$CHAMFERC
 40
0.0
  9
$CHAMFERD
 40
0.0
  9
$SKPOLY
 70
     0
  9
$TDCREATE
 40
2456645.420667604
  9
$TDUPDATE
 40
2456645.420667604
  9
$TDINDWG
 40
0.0000000000
  9
$TDUSRTIMER
 40
0.0000000000
  9
$USRTIMER
 70
     1
  9
$ANGBASE
 50
0.0
  9
$ANGDIR
 70
     0
  9
$PDMODE
 70
     0
  9
$PDSIZE
 40
0.0
  9
$PLINEWID
 40
0.0
  9
$COORDS
 70
     1
  9
$SPLFRAME
 70
     0
  9
$SPLINETYPE
 70
     6
  9
$SPLINESEGS
 70
     8
  9
$ATTDIA
 70
     0
  9
$ATTREQ
 70
     1
  9
$HANDLING
 70
     1
  9
$HANDSEED
  5
4DD
  9
$SURFTAB1
 70
     6
  9
$SURFTAB2
 70
     6
  9
$SURFTYPE
 70
     6
  9
$SURFU
 70
     6
  9
$SURFV
 70
     6
  9
$UCSNAME
  2

  9
$UCSORG
 10
0.0
 20
0.0
 30
0.0
  9
$UCSXDIR
 10
1.0
 20
0.0
 30
0.0
  9
$UCSYDIR
 10
0.0
 20
1.0
 30
0.0
  9
$PUCSNAME
  2

  9
$PUCSORG
 10
0.0
 20
0.0
 30
0.0
  9
$PUCSXDIR
 10
1.0
 20
0.0
 30
0.0
  9
$PUCSYDIR
 10
0.0
 20
1.0
 30
0.0
  9
$USERI1
 70
     0
  9
$USERI2
 70
     0
  9
$USERI3
 70
     0
  9
$USERI4
 70
     0
  9
$USERI5
 70
     0
  9
$USERR1
 40
0.0
  9
$USERR2
 40
0.0
  9
$USERR3
 40
0.0
  9
$USERR4
 40
0.0
  9
$USERR5
 40
0.0
  9
$WORLDVIEW
 70
     1
  9
$SHADEDGE
 70
     3
  9
$SHADEDIF
 70
    70
  9
$TILEMODE
 70
     1
  9
$MAXACTVP
 70
    16
  9
$PINSBASE
 10
0.0
 20
0.0
 30
0.0
  9
$PLIMCHECK
 70
     0
  9
$PEXTMIN
 10
1.000000E+20
 20
1.000000E+20
 30
1.000000E+20
  9
$PEXTMAX
 10
-1.000000E+20
 20
-1.000000E+20
 30
-1.000000E+20
  9
$PLIMMIN
 10
0.0
 20
0.0
  9
$PLIMMAX
 10
12.0
 20
9.0
  9
$UNITMODE
 70
     0
  9
$VISRETAIN
 70
     0
  9
$PLINEGEN
 70
     1
  9
$PSLTSCALE
 70
     0
  9
$TREEDEPTH
 70
  3020
  9
$PICKSTYLE
 70
     1
  9
$CMLSTYLE
  2
Standard
  9
$CMLJUST
 70
     0
  9
$CMLSCALE
 40
1.0
  9
$PROXYGRAPHICS
 70
     0
  9
$MEASUREMENT
 70
     0
  0
ENDSEC
  0
SECTION
  2
CLASSES
  0
CLASS
  1
LWPOLYLINE
  2
AcDbPolyline
  3
"AutoCAD"
 90
        0
280
     0
281
     1
  0
CLASS
  1
IMAGE
  2
AcDbRasterImage
  3
ISM
 90
      127
280
     0
281
     1
  0
CLASS
  1
OLE2FRAME
  2
AcDbOle2Frame
  3
""
 90
        0
280
     0
281
     1
  0
CLASS
  1
HATCH
  2
AcDbHatch
  3
"ACAD_SEDONA"
 90
        0
280
     0
281
     1
  0
CLASS
  1
DICTIONARYVAR
  2
AcDbDictionaryVar
  3
"AutoCAD"
 90
        0
280
     0
281
     0
  0
CLASS
  1
RASTERVARIABLES
  2
AcDbRasterVariables
  3
ISM
 90
        0
280
     0
281
     0
  0
CLASS
  1
IMAGEDEF
  2
AcDbRasterImageDef
  3
ISM
 90
        0
280
     0
281
     0
  0
CLASS
  1
IMAGEDEF_REACTOR
  2
AcDbRasterImageDefReactor
  3
ISM
 90
        1
280
     0
281
     0
  0
CLASS
  1
IDBUFFER
  2
AcDbIdBuffer
  3
"Acad"
 90
        0
280
     0
281
     0
  0
CLASS
  1
SPATIAL_FILTER
  2
AcDbSpatialFilter
  3
"Acad"
 90
        0
280
     0
281
     0
  0
CLASS
  1
XRECORD
  2
AcDbXrecord
  3
"<Built In>"
 90
        0
280
     0
281
     0
  0
CLASS
  1
SORTENTSTABLE
  2
AcDbSortentsTable
  3
"AutoCAD"
 90
        0
280
     0
281
     0
  0
CLASS
  1
LAYER_INDEX
  2
AcDbLayerIndex
  3
"Acad"
 90
        0
280
     0
281
     0
  0
CLASS
  1
SPATIAL_INDEX
  2
AcDbSpatialIndex
  3
"Acad"
 90
        0
280
     0
281
     0
  0
CLASS
  1
OBJECT_PTR
  2
CAseDLPNTableRecord
  3
"ASE-LPNTableRecord"
 90
        1
280
     0
281
     0
  0
CLASS
  1
LAYOUT
  2
AcDbLayout
  3
"AutoCAD 2000"
 90
        1
280
     0
281
     0
  0
CLASS
  1
PLOTSETTINGS
  2
AcDbPlotSettings
  3
"AutoCAD 2000"
 90
        1
280
     0
281
     0
  0
CLASS
  1
ACDBDICTIONARYWDFLT
  2
AcDbDictionaryWithDefault
  3
"AutoCAD 2000"
 90
        1
280
     0
281
     0
  0
CLASS
  1
ACDBPLACEHOLDER
  2
AcDbPlaceHolder
  3
"AutoCAD 2000"
 90
        1
280
     0
281
     0
  0
CLASS
  1
VBA_PROJECT
  2
AcDbVbaProject
  3
"acadvba"
 90
        1
280
     0
281
     0
  0
CLASS
  1
WIPEOUT
  2
AcDbWipeout
  3
WipeOut|AutoCAD Express Tool|expresstools@autodesk.com
 90
      127
280
     0
281
     1
  0
CLASS
  1
WIPEOUTVARIABLES
  2
AcDbWipeoutVariables
  3
WipeOut|AutoCAD Express Tool|expresstools@autodesk.com
 90
        0
280
     0
281
     0
  0
CLASS
  1
RTEXT
  2
RText
  3
RText|AutoCAD Express Tool|expresstools@autodesk.com
 90
        0
280
     0
281
     1
  0
CLASS
  1
ARCALIGNEDTEXT
  2
AcDbArcAlignedText
  3
ATEXT|AutoCAD Express Tool|expresstools@autodesk.com
 90
        0
280
     0
281
     1
  0
ENDSEC
  0
SECTION
  2
TABLES
  0
TABLE
  2
VPORT
  5
7
100
AcDbSymbolTable
 70
     1
  0
VPORT
  5
15
100
AcDbSymbolTableRecord
100
AcDbViewportTableRecord
  2
*ACTIVE
 70
     0
 10
0.0
 20
0.0
 11
1.0
 21
1.0
 12
989.0
 22
1515.0
 13
0.0
 23
0.0
 14
1.0
 24
1.0
 15
0.0
 25
0.0
 16
0.0
 26
0.0
 36
1.0
 17
0.0
 27
0.0
 37
0.0
 40
2800.0
 41
1.722533
 42
50.0
 43
0.0
 44
0.0
 50
0.0
 51
0.0
 71
     0
 72
   100
 73
     1
 74
     1
 75
     0
 76
     0
 77
     0
 78
     0
  0
ENDTAB
  0
TABLE
  2
LTYPE
  5
4
100
AcDbSymbolTable
 70
     9
  0
LTYPE
  5
11
100
AcDbSymbolTableRecord
100
AcDbLinetypeTableRecord
  2
BYBLOCK
 70
    64
  3

 72
    65
 73
     0
 40
0.0
  0
LTYPE
  5
12
100
AcDbSymbolTableRecord
100
AcDbLinetypeTableRecord
  2
BYLAYER
 70
    64
  3

 72
    65
 73
     0
 40
0.0
  0
LTYPE
  5
13
100
AcDbSymbolTableRecord
100
AcDbLinetypeTableRecord
  2
CONTINUOUS
 70
    64
  3
実線
 72
    65
 73
     0
 40
0.0
  0
LTYPE
  5
1D
100
AcDbSymbolTableRecord
100
AcDbLinetypeTableRecord
  2
EXLTYPE1
 70
    64
  3
破線
 72
    65
 73
     2
 40
3.0
 49
2.0
 74
     0
 49
-1.0
 74
     0
  0
LTYPE
  5
1E
100
AcDbSymbolTableRecord
100
AcDbLinetypeTableRecord
  2
EXLTYPE2
 70
    64
  3
点線
 72
    65
 73
     2
 40
2.0
 49
1.0
 74
     0
 49
-1.0
 74
     0
  0
LTYPE
  5
1F
100
AcDbSymbolTableRecord
100
AcDbLinetypeTableRecord
  2
EXLTYPE3
 70
    64
  3
一点鎖線
 72
    65
 73
     4
 40
10.0
 49
7.0
 74
     0
 49
-1.0
 74
     0
 49
1.0
 74
     0
 49
-1.0
 74
     0
  0
LTYPE
  5
20
100
AcDbSymbolTableRecord
100
AcDbLinetypeTableRecord
  2
EXLTYPE4
 70
    64
  3
二点鎖線
 72
    65
 73
     6
 40
12.0
 49
7.0
 74
     0
 49
-1.0
 74
     0
 49
1.0
 74
     0
 49
-1.0
 74
     0
 49
1.0
 74
     0
 49
-1.0
 74
     0
  0
LTYPE
  5
21
100
AcDbSymbolTableRecord
100
AcDbLinetypeTableRecord
  2
EXLTYPE5
 70
    64
  3
三点鎖線
 72
    65
 73
     8
 40
37.0
 49
30.0
 74
     0
 49
-1.0
 74
     0
 49
1.0
 74
     0
 49
-1.0
 74
     0
 49
1.0
 74
     0
 49
-1.0
 74
     0
 49
1.0
 74
     0
 49
-1.0
 74
     0
  0
LTYPE
  5
22
100
AcDbSymbolTableRecord
100
AcDbLinetypeTableRecord
  2
EXLTYPE6
 70
    64
  3
四点鎖線
 72
    65
 73
    10
 40
39.0
 49
30.0
 74
     0
 49
-1.0
 74
     0
 49
1.0
 74
     0
 49
-1.0
 74
     0
 49
1.0
 74
     0
 49
-1.0
 74
     0
 49
1.0
 74
     0
 49
-1.0
 74
     0
 49
1.0
 74
     0
 49
-1.0
 74
     0
  0
ENDTAB
  0
TABLE
  2
LAYER
  5
2
100
AcDbSymbolTable
 70
     7
  0
LAYER
  5
14
100
AcDbSymbolTableRecord
100
AcDbLayerTableRecord
  2
0
 70
     0
 62
     7
  6
CONTINUOUS
  0
LAYER
  5
25
100
AcDbSymbolTableRecord
100
AcDbLayerTableRecord
  2
枠
 70
    64
 62
     7
  6
CONTINUOUS
  0
LAYER
  5
26
100
AcDbSymbolTableRecord
100
AcDbLayerTableRecord
  2
洗面器
 70
    64
 62
     7
  6
CONTINUOUS
  0
LAYER
  5
27
100
AcDbSymbolTableRecord
100
AcDbLayerTableRecord
  2
水栓
 70
    64
 62
     7
  6
CONTINUOUS
  0
LAYER
  5
28
100
AcDbSymbolTableRecord
100
AcDbLayerTableRecord
  2
トラップ
 70
    64
 62
     7
  6
CONTINUOUS
  0
LAYER
  5
29
100
AcDbSymbolTableRecord
100
AcDbLayerTableRecord
  2
寸法
 70
    64
 62
     7
  6
CONTINUOUS
  0
LAYER
  5
2A
100
AcDbSymbolTableRecord
100
AcDbLayerTableRecord
  2
器具明細表
 70
    64
 62
     7
  6
CONTINUOUS
  0
ENDTAB
  0
TABLE
  2
STYLE
  5
3
100
AcDbSymbolTable
 70
     5
  0
STYLE
  5
17
100
AcDbSymbolTableRecord
100
AcDbTextStyleTableRecord
  2
STANDARD
 70
     0
 40
0.0
 41
1.0
 50
0.0
 71
     0
 42
0.0
  3
monotxt
  4
extfont
  0
STYLE
  5
23
100
AcDbSymbolTableRecord
100
AcDbTextStyleTableRecord
  2
EXCADSTD
 70
    64
 40
0.0
 41
1.0
 50
0.0
 71
     0
 42
0.2
  3
monotxt
  4
extfont
  0
STYLE
  5
24
100
AcDbSymbolTableRecord
100
AcDbTextStyleTableRecord
  2
EXCADVERT
 70
    68
 40
0.0
 41
1.0
 50
0.0
 71
     0
 42
0.286885
  3
monotxt
  4
extfont
  0
STYLE
  5
B3
100
AcDbSymbolTableRecord
100
AcDbTextStyleTableRecord
  2
EXCADTTF1
 70
    64
 40
0.0
 41
1.0
 50
0.0
 71
     0
 42
0.2
  3
MS Gothic.ttf
  4

1001
ACAD
1000
MS Gothic
1071
    32817
  0
STYLE
  5
4B7
100
AcDbSymbolTableRecord
100
AcDbTextStyleTableRecord
  2
EXCADDIM1
 70
    64
 40
0.0
 41
0.84
 50
0.0
 71
     0
 42
0.2
  3
monotxt
  4
extfont
  0
ENDTAB
  0
TABLE
  2
VIEW
  5
5
100
AcDbSymbolTable
 70
     0
  0
ENDTAB
  0
TABLE
  2
UCS
  5
6
100
AcDbSymbolTable
 70
     0
  0
ENDTAB
  0
TABLE
  2
APPID
  5
8
100
AcDbSymbolTable
 70
     1
  0
APPID
  5
16
100
AcDbSymbolTableRecord
100
AcDbRegAppTableRecord
  2
ACAD
 70
     0
  0
ENDTAB
  0
TABLE
  2
DIMSTYLE
  5
9
100
AcDbSymbolTable
 70
     1
  0
DIMSTYLE
105
18
100
AcDbSymbolTableRecord
100
AcDbDimStyleTableRecord
  2
STANDARD
 70
     0
  3

  4

  5

  6

  7

 40
1.0
 41
0.18
 42
0.0625
 43
0.38
 44
0.18
 45
0.0
 46
0.0
 47
0.0
 48
0.0
 71
     0
 72
     0
 73
     1
 74
     1
 75
     0
 76
     0
 77
     0
 78
     0
140
0.18
141
0.09
142
0.0
143
25.4
144
1.0
145
0.0
146
1.0
147
0.09
170
     0
171
     2
172
     1
173
     0
174
     0
175
     0
176
     0
177
     0
178
     0
270
     2
271
     4
272
     4
273
     2
274
     2
275
     0
280
     0
281
     0
282
     0
283
     1
284
     0
285
     0
286
     0
287
     0
288
     0
340
17
  0
ENDTAB
  0
TABLE
  2
BLOCK_RECORD
  5
1
100
AcDbSymbolTable
 70
    15
  0
BLOCK_RECORD
  5
A
100
AcDbSymbolTableRecord
100
AcDbBlockTableRecord
  2
*MODEL_SPACE
  0
BLOCK_RECORD
  5
B
100
AcDbSymbolTableRecord
100
AcDbBlockTableRecord
  2
*PAPER_SPACE
  0
BLOCK_RECORD
  5
2B
100
AcDbSymbolTableRecord
100
AcDbBlockTableRecord
  2
_EX_NORM
  0
BLOCK_RECORD
  5
2C
100
AcDbSymbolTableRecord
100
AcDbBlockTableRecord
  2
_EX_BNORM
  0
BLOCK_RECORD
  5
2D
100
AcDbSymbolTableRecord
100
AcDbBlockTableRecord
  2
_EX_BCIR
  0
BLOCK_RECORD
  5
2E
100
AcDbSymbolTableRecord
100
AcDbBlockTableRecord
  2
_EX_RCIVIL
  0
BLOCK_RECORD
  5
2F
100
AcDbSymbolTableRecord
100
AcDbBlockTableRecord
  2
_EX_SLANT
  0
BLOCK_RECORD
  5
30
100
AcDbSymbolTableRecord
100
AcDbBlockTableRecord
  2
_EX_NONE
  0
BLOCK_RECORD
  5
31
100
AcDbSymbolTableRecord
100
AcDbBlockTableRecord
  2
_EX_CIVIL
  0
BLOCK_RECORD
  5
32
100
AcDbSymbolTableRecord
100
AcDbBlockTableRecord
  2
_EX_WCIR
  0
BLOCK_RECORD
  5
33
100
AcDbSymbolTableRecord
100
AcDbBlockTableRecord
  2
_EX_WCIR2
  0
BLOCK_RECORD
  5
34
100
AcDbSymbolTableRecord
100
AcDbBlockTableRecord
  2
_EX_WNORM
  0
BLOCK_RECORD
  5
35
100
AcDbSymbolTableRecord
100
AcDbBlockTableRecord
  2
_EX_NNORM
  0
BLOCK_RECORD
  5
36
100
AcDbSymbolTableRecord
100
AcDbBlockTableRecord
  2
_EX_BBOX
  0
BLOCK_RECORD
  5
37
100
AcDbSymbolTableRecord
100
AcDbBlockTableRecord
  2
_EX_WBOX
  0
BLOCK_RECORD
  5
38
100
AcDbSymbolTableRecord
100
AcDbBlockTableRecord
  2
_EX_INTEGRAL
  0
BLOCK_RECORD
  5
4AC
100
AcDbSymbolTableRecord
100
AcDbBlockTableRecord
  2
*D14
  0
ENDTAB
  0
ENDSEC
  0
SECTION
  2
BLOCKS
  0
BLOCK
  5
D
100
AcDbEntity
  8
0
100
AcDbBlockBegin
  2
*MODEL_SPACE
 70
     0
 10
0.0
 20
0.0
 30
0.0
  3
*MODEL_SPACE
  1

  0
ENDBLK
  5
E
100
AcDbEntity
  8
0
100
AcDbBlockEnd
  0
BLOCK
  5
F
100
AcDbEntity
 67
     1
  8
0
100
AcDbBlockBegin
  2
*PAPER_SPACE
 70
     0
 10
0.0
 20
0.0
 30
0.0
  3
*PAPER_SPACE
  1

  0
ENDBLK
  5
10
100
AcDbEntity
 67
     1
  8
0
100
AcDbBlockEnd
  0
BLOCK
  5
39
100
AcDbEntity
  8
0
100
AcDbBlockBegin
  2
_EX_NORM
 70
     0
 10
0.0
 20
0.0
 30
0.0
  3
_EX_NORM
  1

  0
LINE
  5
3A
100
AcDbEntity
  8
0
  6
CONTINUOUS
 62
     0
100
AcDbLine
 10
0.0
 20
0.0
 30
0.0
 11
-1.0
 21
0.0
 31
0.0
  0
LINE
  5
3B
100
AcDbEntity
  8
0
  6
CONTINUOUS
 62
     0
100
AcDbLine
 10
0.0
 20
0.0
 30
0.0
 11
-1.0
 21
0.166667
 31
0.0
  0
LINE
  5
3C
100
AcDbEntity
  8
0
  6
CONTINUOUS
 62
     0
100
AcDbLine
 10
0.0
 20
0.0
 30
0.0
 11
-1.0
 21
-0.166667
 31
0.0
  0
ENDBLK
  5
3D
100
AcDbEntity
  8
0
100
AcDbBlockEnd
  0
BLOCK
  5
3E
100
AcDbEntity
  8
0
100
AcDbBlockBegin
  2
_EX_BNORM
 70
     0
 10
0.0
 20
0.0
 30
0.0
  3
_EX_BNORM
  1

  0
LINE
  5
3F
100
AcDbEntity
  8
0
  6
CONTINUOUS
 62
     0
100
AcDbLine
 10
0.0
 20
0.0
 30
0.0
 11
-1.0
 21
0.0
 31
0.0
  0
LINE
  5
40
100
AcDbEntity
  8
0
  6
CONTINUOUS
 62
     0
100
AcDbLine
 10
0.0
 20
0.0
 30
0.0
 11
-1.0
 21
0.166667
 31
0.0
  0
LINE
  5
41
100
AcDbEntity
  8
0
  6
CONTINUOUS
 62
     0
100
AcDbLine
 10
0.0
 20
0.0
 30
0.0
 11
-1.0
 21
-0.166667
 31
0.0
  0
LINE
  5
42
100
AcDbEntity
  8
0
  6
CONTINUOUS
 62
     0
100
AcDbLine
 10
0.0
 20
0.0
 30
0.0
 11
-1.0
 21
0.083333
 31
0.0
  0
LINE
  5
43
100
AcDbEntity
  8
0
  6
CONTINUOUS
 62
     0
100
AcDbLine
 10
0.0
 20
0.0
 30
0.0
 11
-1.0
 21
-0.083333
 31
0.0
  0
LINE
  5
44
100
AcDbEntity
  8
0
  6
CONTINUOUS
 62
     0
100
AcDbLine
 10
-1.0
 20
0.166667
 30
0.0
 11
-1.0
 21
-0.166667
 31
0.0
  0
ENDBLK
  5
45
100
AcDbEntity
  8
0
100
AcDbBlockEnd
  0
BLOCK
  5
46
100
AcDbEntity
  8
0
100
AcDbBlockBegin
  2
_EX_BCIR
 70
     0
 10
0.0
 20
0.0
 30
0.0
  3
_EX_BCIR
  1

  0
LINE
  5
47
100
AcDbEntity
  8
0
  6
CONTINUOUS
 62
     0
100
AcDbLine
 10
0.0
 20
0.0
 30
0.0
 11
-1.0
 21
0.0
 31
0.0
  0
CIRCLE
  5
48
100
AcDbEntity
  8
0
  6
CONTINUOUS
 62
     0
100
AcDbCircle
 10
0.0
 20
0.0
 30
0.0
 40
0.5
  0
CIRCLE
  5
49
100
AcDbEntity
  8
0
  6
CONTINUOUS
 62
     0
100
AcDbCircle
 10
0.0
 20
0.0
 30
0.0
 40
0.25
  0
ENDBLK
  5
4A
100
AcDbEntity
  8
0
100
AcDbBlockEnd
  0
BLOCK
  5
4B
100
AcDbEntity
  8
0
100
AcDbBlockBegin
  2
_EX_RCIVIL
 70
     0
 10
0.0
 20
0.0
 30
0.0
  3
_EX_RCIVIL
  1

  0
LINE
  5
4C
100
AcDbEntity
  8
0
  6
CONTINUOUS
 62
     0
100
AcDbLine
 10
0.0
 20
0.0
 30
0.0
 11
-1.0
 21
0.0
 31
0.0
  0
LINE
  5
4D
100
AcDbEntity
  8
0
  6
CONTINUOUS
 62
     0
100
AcDbLine
 10
-1.0
 20
-0.25
 30
0.0
 11
0.0
 21
-0.25
 31
0.0
  0
LINE
  5
4E
100
AcDbEntity
  8
0
  6
CONTINUOUS
 62
     0
100
AcDbLine
 10
-1.0
 20
-0.125
 30
0.0
 11
0.0
 21
-0.125
 31
0.0
  0
ENDBLK
  5
4F
100
AcDbEntity
  8
0
100
AcDbBlockEnd
  0
BLOCK
  5
50
100
AcDbEntity
  8
0
100
AcDbBlockBegin
  2
_EX_SLANT
 70
     0
 10
0.0
 20
0.0
 30
0.0
  3
_EX_SLANT
  1

  0
LINE
  5
51
100
AcDbEntity
  8
0
  6
CONTINUOUS
 62
     0
100
AcDbLine
 10
0.0
 20
0.0
 30
0.0
 11
-1.0
 21
0.0
 31
0.0
  0
LINE
  5
52
100
AcDbEntity
  8
0
  6
CONTINUOUS
 62
     0
100
AcDbLine
 10
0.707107
 20
0.707107
 30
0.0
 11
-0.707107
 21
-0.707107
 31
0.0
  0
ENDBLK
  5
53
100
AcDbEntity
  8
0
100
AcDbBlockEnd
  0
BLOCK
  5
54
100
AcDbEntity
  8
0
100
AcDbBlockBegin
  2
_EX_NONE
 70
     0
 10
0.0
 20
0.0
 30
0.0
  3
_EX_NONE
  1

  0
LINE
  5
55
100
AcDbEntity
  8
0
  6
CONTINUOUS
 62
     0
100
AcDbLine
 10
0.0
 20
0.0
 30
0.0
 11
-1.0
 21
0.0
 31
0.0
  0
ENDBLK
  5
56
100
AcDbEntity
  8
0
100
AcDbBlockEnd
  0
BLOCK
  5
57
100
AcDbEntity
  8
0
100
AcDbBlockBegin
  2
_EX_CIVIL
 70
     0
 10
0.0
 20
0.0
 30
0.0
  3
_EX_CIVIL
  1

  0
LINE
  5
58
100
AcDbEntity
  8
0
  6
CONTINUOUS
 62
     0
100
AcDbLine
 10
0.0
 20
0.0
 30
0.0
 11
-1.0
 21
0.0
 31
0.0
  0
LINE
  5
59
100
AcDbEntity
  8
0
  6
CONTINUOUS
 62
     0
100
AcDbLine
 10
-1.0
 20
0.25
 30
0.0
 11
0.0
 21
0.25
 31
0.0
  0
LINE
  5
5A
100
AcDbEntity
  8
0
  6
CONTINUOUS
 62
     0
100
AcDbLine
 10
-1.0
 20
0.125
 30
0.0
 11
0.0
 21
0.125
 31
0.0
  0
ENDBLK
  5
5B
100
AcDbEntity
  8
0
100
AcDbBlockEnd
  0
BLOCK
  5
5C
100
AcDbEntity
  8
0
100
AcDbBlockBegin
  2
_EX_WCIR
 70
     0
 10
0.0
 20
0.0
 30
0.0
  3
_EX_WCIR
  1

  0
LINE
  5
5D
100
AcDbEntity
  8
0
  6
CONTINUOUS
 62
     0
100
AcDbLine
 10
0.0
 20
0.0
 30
0.0
 11
-1.0
 21
0.0
 31
0.0
  0
CIRCLE
  5
5E
100
AcDbEntity
  8
0
  6
CONTINUOUS
 62
     0
100
AcDbCircle
 10
0.0
 20
0.0
 30
0.0
 40
0.5
  0
ENDBLK
  5
5F
100
AcDbEntity
  8
0
100
AcDbBlockEnd
  0
BLOCK
  5
60
100
AcDbEntity
  8
0
100
AcDbBlockBegin
  2
_EX_WCIR2
 70
     0
 10
0.0
 20
0.0
 30
0.0
  3
_EX_WCIR2
  1

  0
LINE
  5
61
100
AcDbEntity
  8
0
  6
CONTINUOUS
 62
     0
100
AcDbLine
 10
-0.5
 20
0.0
 30
0.0
 11
-1.0
 21
0.0
 31
0.0
  0
CIRCLE
  5
62
100
AcDbEntity
  8
0
  6
CONTINUOUS
 62
     0
100
AcDbCircle
 10
0.0
 20
0.0
 30
0.0
 40
0.5
  0
ENDBLK
  5
63
100
AcDbEntity
  8
0
100
AcDbBlockEnd
  0
BLOCK
  5
64
100
AcDbEntity
  8
0
100
AcDbBlockBegin
  2
_EX_WNORM
 70
     0
 10
0.0
 20
0.0
 30
0.0
  3
_EX_WNORM
  1

  0
LINE
  5
65
100
AcDbEntity
  8
0
  6
CONTINUOUS
 62
     0
100
AcDbLine
 10
-1.0
 20
0.0
 30
0.0
 11
-1.0
 21
0.0
 31
0.0
  0
LINE
  5
66
100
AcDbEntity
  8
0
  6
CONTINUOUS
 62
     0
100
AcDbLine
 10
0.0
 20
0.0
 30
0.0
 11
-1.0
 21
0.166667
 31
0.0
  0
LINE
  5
67
100
AcDbEntity
  8
0
  6
CONTINUOUS
 62
     0
100
AcDbLine
 10
0.0
 20
0.0
 30
0.0
 11
-1.0
 21
-0.166667
 31
0.0
  0
LINE
  5
68
100
AcDbEntity
  8
0
  6
CONTINUOUS
 62
     0
100
AcDbLine
 10
-1.0
 20
0.166667
 30
0.0
 11
-1.0
 21
-0.166667
 31
0.0
  0
ENDBLK
  5
69
100
AcDbEntity
  8
0
100
AcDbBlockEnd
  0
BLOCK
  5
6A
100
AcDbEntity
  8
0
100
AcDbBlockBegin
  2
_EX_NNORM
 70
     0
 10
0.0
 20
0.0
 30
0.0
  3
_EX_NNORM
  1

  0
LINE
  5
6B
100
AcDbEntity
  8
0
  6
CONTINUOUS
 62
     0
100
AcDbLine
 10
0.0
 20
0.0
 30
0.0
 11
-1.0
 21
0.0
 31
0.0
  0
LINE
  5
6C
100
AcDbEntity
  8
0
  6
CONTINUOUS
 62
     0
100
AcDbLine
 10
0.0
 20
0.0
 30
0.0
 11
-1.0
 21
0.166667
 31
0.0
  0
LINE
  5
6D
100
AcDbEntity
  8
0
  6
CONTINUOUS
 62
     0
100
AcDbLine
 10
0.0
 20
0.0
 30
0.0
 11
-1.0
 21
-0.166667
 31
0.0
  0
LINE
  5
6E
100
AcDbEntity
  8
0
  6
CONTINUOUS
 62
     0
100
AcDbLine
 10
-1.0
 20
0.166667
 30
0.0
 11
-1.0
 21
-0.166667
 31
0.0
  0
ENDBLK
  5
6F
100
AcDbEntity
  8
0
100
AcDbBlockEnd
  0
BLOCK
  5
70
100
AcDbEntity
  8
0
100
AcDbBlockBegin
  2
_EX_BBOX
 70
     0
 10
0.0
 20
0.0
 30
0.0
  3
_EX_BBOX
  1

  0
LINE
  5
71
100
AcDbEntity
  8
0
  6
CONTINUOUS
 62
     0
100
AcDbLine
 10
0.0
 20
0.0
 30
0.0
 11
-1.0
 21
0.0
 31
0.0
  0
LINE
  5
72
100
AcDbEntity
  8
0
  6
CONTINUOUS
 62
     0
100
AcDbLine
 10
-0.5
 20
0.5
 30
0.0
 11
0.5
 21
0.5
 31
0.0
  0
LINE
  5
73
100
AcDbEntity
  8
0
  6
CONTINUOUS
 62
     0
100
AcDbLine
 10
0.5
 20
0.5
 30
0.0
 11
0.5
 21
-0.5
 31
0.0
  0
LINE
  5
74
100
AcDbEntity
  8
0
  6
CONTINUOUS
 62
     0
100
AcDbLine
 10
0.5
 20
-0.5
 30
0.0
 11
-0.5
 21
-0.5
 31
0.0
  0
LINE
  5
75
100
AcDbEntity
  8
0
  6
CONTINUOUS
 62
     0
100
AcDbLine
 10
-0.5
 20
-0.5
 30
0.0
 11
-0.5
 21
0.5
 31
0.0
  0
LINE
  5
76
100
AcDbEntity
  8
0
  6
CONTINUOUS
 62
     0
100
AcDbLine
 10
-0.25
 20
0.25
 30
0.0
 11
0.25
 21
0.25
 31
0.0
  0
LINE
  5
77
100
AcDbEntity
  8
0
  6
CONTINUOUS
 62
     0
100
AcDbLine
 10
0.25
 20
0.25
 30
0.0
 11
0.25
 21
-0.25
 31
0.0
  0
LINE
  5
78
100
AcDbEntity
  8
0
  6
CONTINUOUS
 62
     0
100
AcDbLine
 10
0.25
 20
-0.25
 30
0.0
 11
-0.25
 21
-0.25
 31
0.0
  0
LINE
  5
79
100
AcDbEntity
  8
0
  6
CONTINUOUS
 62
     0
100
AcDbLine
 10
-0.25
 20
-0.25
 30
0.0
 11
-0.25
 21
0.25
 31
0.0
  0
ENDBLK
  5
7A
100
AcDbEntity
  8
0
100
AcDbBlockEnd
  0
BLOCK
  5
7B
100
AcDbEntity
  8
0
100
AcDbBlockBegin
  2
_EX_WBOX
 70
     0
 10
0.0
 20
0.0
 30
0.0
  3
_EX_WBOX
  1

  0
LINE
  5
7C
100
AcDbEntity
  8
0
  6
CONTINUOUS
 62
     0
100
AcDbLine
 10
-0.5
 20
0.0
 30
0.0
 11
-1.0
 21
0.0
 31
0.0
  0
LINE
  5
7D
100
AcDbEntity
  8
0
  6
CONTINUOUS
 62
     0
100
AcDbLine
 10
-0.5
 20
0.5
 30
0.0
 11
0.5
 21
0.5
 31
0.0
  0
LINE
  5
7E
100
AcDbEntity
  8
0
  6
CONTINUOUS
 62
     0
100
AcDbLine
 10
0.5
 20
0.5
 30
0.0
 11
0.5
 21
-0.5
 31
0.0
  0
LINE
  5
7F
100
AcDbEntity
  8
0
  6
CONTINUOUS
 62
     0
100
AcDbLine
 10
0.5
 20
-0.5
 30
0.0
 11
-0.5
 21
-0.5
 31
0.0
  0
LINE
  5
80
100
AcDbEntity
  8
0
  6
CONTINUOUS
 62
     0
100
AcDbLine
 10
-0.5
 20
-0.5
 30
0.0
 11
-0.5
 21
0.5
 31
0.0
  0
ENDBLK
  5
81
100
AcDbEntity
  8
0
100
AcDbBlockEnd
  0
BLOCK
  5
82
100
AcDbEntity
  8
0
100
AcDbBlockBegin
  2
_EX_INTEGRAL
 70
     0
 10
0.0
 20
0.0
 30
0.0
  3
_EX_INTEGRAL
  1

  0
LINE
  5
83
100
AcDbEntity
  8
0
  6
CONTINUOUS
 62
     0
100
AcDbLine
 10
0.0
 20
0.0
 30
0.0
 11
-1.0
 21
0.0
 31
0.0
  0
ARC
  5
84
100
AcDbEntity
  8
0
  6
CONTINUOUS
 62
     0
100
AcDbCircle
 10
0.542115
 20
0.164992
 30
0.0
 40
0.56667
100
AcDbArc
 50
73.07249
 51
196.927513
  0
ARC
  5
85
100
AcDbEntity
  8
0
  6
CONTINUOUS
 62
     0
100
AcDbCircle
 10
-0.542115
 20
-0.164992
 30
0.0
 40
0.56667
100
AcDbArc
 50
253.072487
 51
16.927513
  0
ENDBLK
  5
86
100
AcDbEntity
  8
0
100
AcDbBlockEnd
  0
BLOCK
  5
4AD
100
AcDbEntity
  8
0
100
AcDbBlockBegin
  2
*D14
 70
    65
 10
0.0
 20
0.0
 30
0.0
  3
*D14
  1

  0
LINE
  5
4AE
100
AcDbEntity
  8
寸法
  6
CONTINUOUS
 62
     3
100
AcDbLine
 10
671.481201
 20
1030.103638
 30
0.0
 11
671.481201
 21
559.0
 31
0.0
  0
LINE
  5
4AF
100
AcDbEntity
  8
寸法
  6
CONTINUOUS
 62
     3
100
AcDbLine
 10
697.881152
 20
625.103638
 30
0.0
 11
697.881152
 21
559.0
 31
0.0
  0
LINE
  5
4B0
100
AcDbEntity
  8
寸法
  6
CONTINUOUS
 62
     3
100
AcDbLine
 10
520.481197
 20
569.0
 30
0.0
 11
727.881152
 21
569.0
 31
0.0
  0
LINE
  5
4B1
100
AcDbEntity
  8
寸法
  6
CONTINUOUS
 62
     3
100
AcDbLine
 10
641.481201
 20
564.0
 30
0.0
 11
671.481201
 21
569.0
 31
0.0
  0
LINE
  5
4B2
100
AcDbEntity
  8
寸法
  6
CONTINUOUS
 62
     3
100
AcDbLine
 10
671.481201
 20
569.0
 30
0.0
 11
641.481201
 21
574.0
 31
0.0
  0
LINE
  5
4B3
100
AcDbEntity
  8
寸法
  6
CONTINUOUS
 62
     3
100
AcDbLine
 10
727.881152
 20
574.0
 30
0.0
 11
697.881152
 21
569.0
 31
0.0
  0
LINE
  5
4B4
100
AcDbEntity
  8
寸法
  6
CONTINUOUS
 62
     3
100
AcDbLine
 10
697.881152
 20
569.0
 30
0.0
 11
727.881152
 21
564.0
 31
0.0
  0
TEXT
  5
4B5
100
AcDbEntity
  8
寸法
  6
CONTINUOUS
 62
     2
100
AcDbText
 10
534.761202
 20
574.0
 30
0.0
 40
40.0
  1
26.5
 41
0.84
  7
EXCADSTD
 72
     1
 11
583.481201
 21
574.0
 31
0.0
100
AcDbText
  0
ENDBLK
  5
4B6
100
AcDbEntity
  8
0
100
AcDbBlockEnd
  0
ENDSEC
  0
SECTION
  2
ENTITIES
  0
TEXT
  5
87
100
AcDbEntity
  8
枠
  6
CONTINUOUS
 62
     2
100
AcDbText
 10
840.25
 20
243.75
 30
0.0
 40
62.5
  1
平付小形手洗器
 41
0.9744
  7
EXCADSTD
 72
     5
 11
1347.75
 21
243.75
 31
0.0
100
AcDbText
  0
TEXT
  5
88
100
AcDbEntity
  8
枠
  6
CONTINUOUS
 62
     2
100
AcDbText
 10
1458.0
 20
243.75
 30
0.0
 40
62.5
  1
Ｌ８１Ｄ
 41
0.82656
  7
EXCADSTD
 72
     5
 11
1704.0
 21
243.75
 31
0.0
100
AcDbText
  0
LINE
  5
89
100
AcDbEntity
  8
枠
  6
CONTINUOUS
 62
     7
100
AcDbLine
 10
179.0
 20
115.0
 30
0.0
 11
1999.0
 21
115.0
 31
0.0
  0
LINE
  5
8A
100
AcDbEntity
  8
枠
  6
CONTINUOUS
 62
     7
100
AcDbLine
 10
1999.0
 20
115.0
 30
0.0
 11
1999.0
 21
2915.0
 31
0.0
  0
LINE
  5
8B
100
AcDbEntity
  8
枠
  6
CONTINUOUS
 62
     7
100
AcDbLine
 10
179.0
 20
115.0
 30
0.0
 11
179.0
 21
2915.0
 31
0.0
  0
LINE
  5
8C
100
AcDbEntity
  8
枠
  6
CONTINUOUS
 62
     7
100
AcDbLine
 10
179.0
 20
2915.0
 30
0.0
 11
1999.0
 21
2915.0
 31
0.0
  0
LINE
  5
8D
100
AcDbEntity
  8
枠
  6
CONTINUOUS
 62
     7
100
AcDbLine
 10
179.0
 20
335.0
 30
0.0
 11
1999.0
 21
335.0
 31
0.0
  0
LINE
  5
8E
100
AcDbEntity
  8
枠
  6
CONTINUOUS
 62
     6
100
AcDbLine
 10
1999.0
 20
215.0
 30
0.0
 11
749.0
 21
215.0
 31
0.0
  0
LINE
  5
8F
100
AcDbEntity
  8
枠
  6
CONTINUOUS
 62
     6
100
AcDbLine
 10
1859.0
 20
335.0
 30
0.0
 11
1859.0
 21
215.0
 31
0.0
  0
LINE
  5
90
100
AcDbEntity
  8
枠
  6
CONTINUOUS
 62
     6
100
AcDbLine
 10
1809.0
 20
335.0
 30
0.0
 11
1809.0
 21
215.0
 31
0.0
  0
LINE
  5
91
100
AcDbEntity
  8
枠
  6
CONTINUOUS
 62
     6
100
AcDbLine
 10
1439.0
 20
335.0
 30
0.0
 11
1439.0
 21
115.0
 31
0.0
  0
LINE
  5
92
100
AcDbEntity
  8
枠
  6
CONTINUOUS
 62
     6
100
AcDbLine
 10
1389.0
 20
335.0
 30
0.0
 11
1389.0
 21
115.0
 31
0.0
  0
LINE
  5
93
100
AcDbEntity
  8
枠
  6
CONTINUOUS
 62
     6
100
AcDbLine
 10
799.0
 20
335.0
 30
0.0
 11
799.0
 21
215.0
 31
0.0
  0
LINE
  5
94
100
AcDbEntity
  8
枠
  6
CONTINUOUS
 62
     6
100
AcDbLine
 10
749.0
 20
335.0
 30
0.0
 11
749.0
 21
115.0
 31
0.0
  0
LINE
  5
95
100
AcDbEntity
  8
枠
  6
CONTINUOUS
 62
     6
100
AcDbLine
 10
619.0
 20
335.0
 30
0.0
 11
619.0
 21
115.0
 31
0.0
  0
LINE
  5
96
100
AcDbEntity
  8
枠
  6
CONTINUOUS
 62
     6
100
AcDbLine
 10
489.0
 20
335.0
 30
0.0
 11
489.0
 21
115.0
 31
0.0
  0
LINE
  5
97
100
AcDbEntity
  8
枠
  6
CONTINUOUS
 62
     6
100
AcDbLine
 10
334.0
 20
335.0
 30
0.0
 11
334.0
 21
115.0
 31
0.0
  0
LINE
  5
98
100
AcDbEntity
  8
枠
  6
CONTINUOUS
 62
     6
100
AcDbLine
 10
179.0
 20
285.0
 30
0.0
 11
749.0
 21
285.0
 31
0.0
  0
LINE
  5
99
100
AcDbEntity
  8
枠
  6
CONTINUOUS
 62
     6
100
AcDbLine
 10
1891.653809
 20
238.00293
 30
0.0
 11
1968.993897
 21
316.699829
 31
0.0
  0
LINE
  5
9A
100
AcDbEntity
  8
枠
  6
EXLTYPE2
 62
     6
100
AcDbLine
 10
179.0
 20
1515.0
 30
0.0
 11
-21.0
 21
1515.0
 31
0.0
  0
TEXT
  5
9B
100
AcDbEntity
  8
枠
  6
CONTINUOUS
 62
     2
100
AcDbText
 10
1889.537109
 20
282.722778
 30
0.0
 40
30.0
  1
１
 41
0.826
  7
EXCADSTD
 72
     5
 11
1913.13711
 21
282.722778
 31
0.0
100
AcDbText
  0
TEXT
  5
9C
100
AcDbEntity
  8
枠
  6
CONTINUOUS
 62
     2
100
AcDbText
 10
1930.279297
 20
238.348846
 30
0.0
 40
30.0
  1
１０
 41
0.791
  7
EXCADSTD
 72
     5
 11
1982.067198
 21
238.348846
 31
0.0
100
AcDbText
  0
TEXT
  5
9D
100
AcDbEntity
  8
枠
  6
CONTINUOUS
 62
     2
100
AcDbText
 10
201.5
 20
288.75
 30
0.0
 40
42.5
  1
製図
 41
1.087059
  7
EXCADSTD
 72
     5
 11
302.326
 21
288.75
 31
0.0
100
AcDbText
  0
TEXT
  5
9E
100
AcDbEntity
  8
枠
  6
CONTINUOUS
 62
     2
100
AcDbText
 10
356.5
 20
288.75
 30
0.0
 40
42.5
  1
写図
 41
1.087059
  7
EXCADSTD
 72
     5
 11
457.326
 21
288.75
 31
0.0
100
AcDbText
  0
TEXT
  5
9F
100
AcDbEntity
  8
枠
  6
CONTINUOUS
 62
     2
100
AcDbText
 10
506.5
 20
288.75
 30
0.0
 40
42.5
  1
検図
 41
0.938824
  7
EXCADSTD
 72
     5
 11
593.577
 21
288.75
 31
0.0
100
AcDbText
  0
TEXT
  5
A0
100
AcDbEntity
  8
枠
  6
CONTINUOUS
 62
     2
100
AcDbText
 10
636.5
 20
288.75
 30
0.0
 40
42.5
  1
承認
 41
0.938824
  7
EXCADSTD
 72
     5
 11
723.577
 21
288.75
 31
0.0
100
AcDbText
  0
TEXT
  5
A1
100
AcDbEntity
  8
枠
  6
CONTINUOUS
 62
     2
100
AcDbText
 10
752.75
 20
278.75
 30
0.0
 40
42.5
  1
品
 41
0.84
  7
EXCADSTD
 72
     5
 11
786.75
 21
278.75
 31
0.0
100
AcDbText
  0
TEXT
  5
A2
100
AcDbEntity
  8
枠
  6
CONTINUOUS
 62
     2
100
AcDbText
 10
752.75
 20
228.75
 30
0.0
 40
42.5
  1
名
 41
0.84
  7
EXCADSTD
 72
     5
 11
786.75
 21
228.75
 31
0.0
100
AcDbText
  0
TEXT
  5
A3
100
AcDbEntity
  8
枠
  6
CONTINUOUS
 62
     2
100
AcDbText
 10
1392.75
 20
278.75
 30
0.0
 40
42.5
  1
品
 41
0.84
  7
EXCADSTD
 72
     5
 11
1426.75
 21
278.75
 31
0.0
100
AcDbText
  0
TEXT
  5
A4
100
AcDbEntity
  8
枠
  6
CONTINUOUS
 62
     2
100
AcDbText
 10
1392.75
 20
228.75
 30
0.0
 40
42.5
  1
番
 41
0.84
  7
EXCADSTD
 72
     5
 11
1426.75
 21
228.75
 31
0.0
100
AcDbText
  0
TEXT
  5
A5
100
AcDbEntity
  8
枠
  6
CONTINUOUS
 62
     2
100
AcDbText
 10
1812.75
 20
278.75
 30
0.0
 40
42.5
  1
尺
 41
0.84
  7
EXCADSTD
 72
     5
 11
1846.75
 21
278.75
 31
0.0
100
AcDbText
  0
TEXT
  5
A6
100
AcDbEntity
  8
枠
  6
CONTINUOUS
 62
     2
100
AcDbText
 10
1812.75
 20
228.75
 30
0.0
 40
42.5
  1
度
 41
0.84
  7
EXCADSTD
 72
     5
 11
1846.75
 21
228.75
 31
0.0
100
AcDbText
  0
TEXT
  5
A7
100
AcDbEntity
  8
枠
  6
CONTINUOUS
 62
     2
100
AcDbText
 10
1392.75
 20
165.75
 30
0.0
 40
42.5
  1
図
 41
0.84
  7
EXCADSTD
 72
     5
 11
1426.75
 21
165.75
 31
0.0
100
AcDbText
  0
TEXT
  5
A8
100
AcDbEntity
  8
枠
  6
CONTINUOUS
 62
     2
100
AcDbText
 10
1392.75
 20
122.75
 30
0.0
 40
42.5
  1
番
 41
0.84
  7
EXCADSTD
 72
     5
 11
1426.75
 21
122.75
 31
0.0
100
AcDbText
  0
LINE
  5
A9
100
AcDbEntity
  8
枠
  6
EXLTYPE2
 62
     6
100
AcDbLine
 10
179.0
 20
165.0
 30
0.0
 11
489.0
 21
165.0
 31
0.0
  0
CIRCLE
  5
AA
100
AcDbEntity
  8
枠
  6
CONTINUOUS
 62
     6
100
AcDbCircle
 10
229.0
 20
140.0
 30
0.0
 40
1.0
  0
CIRCLE
  5
AB
100
AcDbEntity
  8
枠
  6
CONTINUOUS
 62
     6
100
AcDbCircle
 10
279.0
 20
140.0
 30
0.0
 40
1.0
  0
CIRCLE
  5
AC
100
AcDbEntity
  8
枠
  6
CONTINUOUS
 62
     6
100
AcDbCircle
 10
384.0
 20
140.0
 30
0.0
 40
1.0
  0
CIRCLE
  5
AD
100
AcDbEntity
  8
枠
  6
CONTINUOUS
 62
     6
100
AcDbCircle
 10
434.0
 20
140.0
 30
0.0
 40
1.0
  0
TEXT
  5
AE
100
AcDbEntity
  8
枠
  6
CONTINUOUS
 62
     7
100
AcDbText
 10
1453.25
 20
130.75
 30
0.0
 40
70.0
  1
Ｌ００８１０１３
 41
0.795
  7
EXCADSTD
 72
     5
 11
1983.25
 21
130.75
 31
0.0
100
AcDbText
  0
TEXT
  5
AF
100
AcDbEntity
  8
枠
  6
CONTINUOUS
 62
     6
100
AcDbText
 10
205.5
 20
200.0
 30
0.0
 40
50.0
  1
間瀬
 41
0.8568
  7
EXCADSTD
 72
     5
 11
298.9932
 21
200.0
 31
0.0
100
AcDbText
  0
TEXT
  5
B0
100
AcDbEntity
  8
枠
  6
CONTINUOUS
 62
     6
100
AcDbText
 10
181.044116
 20
126.950073
 30
0.0
 40
25.0
  1
２１
 41
0.75768
  7
EXCADSTD
 72
     5
 11
222.382775
 21
126.950073
 31
0.0
100
AcDbText
  0
TEXT
  5
B1
100
AcDbEntity
  8
枠
  6
CONTINUOUS
 62
     6
100
AcDbText
 10
244.144116
 20
126.950073
 30
0.0
 40
25.0
  1
７
 41
0.89208
  7
EXCADSTD
 72
     5
 11
265.384116
 21
126.950073
 31
0.0
100
AcDbText
  0
TEXT
  5
B2
100
AcDbEntity
  8
枠
  6
CONTINUOUS
 62
     6
100
AcDbText
 10
296.044116
 20
126.950073
 30
0.0
 40
25.0
  1
３
 41
0.89208
  7
EXCADSTD
 72
     5
 11
317.284116
 21
126.950073
 31
0.0
100
AcDbText
  0
TEXT
  5
B4
100
AcDbEntity
  8
枠
  6
CONTINUOUS
 62
     2
100
AcDbText
 10
769.0
 20
135.0
 30
0.0
 40
45.0
  1
ジャニス工業株式会社
  7
EXCADTTF1
 72
     5
 11
1369.0
 21
135.0
 31
0.0
100
AcDbText
  0
TEXT
  5
B5
100
AcDbEntity
  8
枠
  6
CONTINUOUS
 62
     6
100
AcDbText
 10
635.0
 20
200.0
 30
0.0
 40
50.0
  1
古林
 41
0.8568
  7
EXCADSTD
 72
     5
 11
728.4932
 21
200.0
 31
0.0
100
AcDbText
  0
TEXT
  5
B6
100
AcDbEntity
  8
洗面器
  6
CONTINUOUS
 62
     2
100
AcDbText
 10
611.985915
 20
2472.078979
 30
0.0
 40
40.0
  1
１１０
 41
0.833
  7
EXCADSTD
 72
     5
 11
730.985915
 21
2472.078979
 31
0.0
100
AcDbText
  0
LINE
  5
B7
100
AcDbEntity
  8
洗面器
  6
CONTINUOUS
 62
     3
100
AcDbLine
 10
616.485915
 20
2468.57898
 30
0.0
 11
726.485915
 21
2468.57898
 31
0.0
  0
LINE
  5
B8
100
AcDbEntity
  8
洗面器
  6
CONTINUOUS
 62
     3
100
AcDbLine
 10
651.485915
 20
2474.412313
 30
0.0
 11
616.485915
 21
2468.57898
 31
0.0
  0
LINE
  5
B9
100
AcDbEntity
  8
洗面器
  6
CONTINUOUS
 62
     3
100
AcDbLine
 10
616.485915
 20
2468.57898
 30
0.0
 11
651.485915
 21
2462.745646
 31
0.0
  0
LINE
  5
BA
100
AcDbEntity
  8
洗面器
  6
CONTINUOUS
 62
     3
100
AcDbLine
 10
691.485915
 20
2462.745646
 30
0.0
 11
726.485915
 21
2468.57898
 31
0.0
  0
LINE
  5
BB
100
AcDbEntity
  8
洗面器
  6
CONTINUOUS
 62
     3
100
AcDbLine
 10
726.485915
 20
2468.57898
 30
0.0
 11
691.485915
 21
2474.412313
 31
0.0
  0
TEXT
  5
BC
100
AcDbEntity
  8
洗面器
  6
CONTINUOUS
 62
     2
100
AcDbText
 10
867.884985
 20
2207.269893
 30
0.0
 40
40.0
  1
２５０
 50
90.0
 41
0.833
  7
EXCADSTD
 72
     5
 11
867.884985
 21
2326.269893
 31
0.0
100
AcDbText
  0
LINE
  5
BD
100
AcDbEntity
  8
洗面器
  6
CONTINUOUS
 62
     3
100
AcDbLine
 10
871.384985
 20
2391.769897
 30
0.0
 11
871.384985
 21
2141.769888
 31
0.0
  0
LINE
  5
BE
100
AcDbEntity
  8
洗面器
  6
CONTINUOUS
 62
     3
100
AcDbLine
 10
877.218319
 20
2356.769897
 30
0.0
 11
871.384985
 21
2391.769897
 31
0.0
  0
LINE
  5
BF
100
AcDbEntity
  8
洗面器
  6
CONTINUOUS
 62
     3
100
AcDbLine
 10
871.384985
 20
2391.769897
 30
0.0
 11
865.551652
 21
2356.769897
 31
0.0
  0
LINE
  5
C0
100
AcDbEntity
  8
洗面器
  6
CONTINUOUS
 62
     3
100
AcDbLine
 10
865.551652
 20
2176.769888
 30
0.0
 11
871.384985
 21
2141.769888
 31
0.0
  0
LINE
  5
C1
100
AcDbEntity
  8
洗面器
  6
CONTINUOUS
 62
     3
100
AcDbLine
 10
871.384985
 20
2141.769888
 30
0.0
 11
877.218319
 21
2176.769888
 31
0.0
  0
TEXT
  5
C2
100
AcDbEntity
  8
洗面器
  6
CONTINUOUS
 62
     2
100
AcDbText
 10
611.984863
 20
2070.269888
 30
0.0
 40
40.0
  1
１８０
 41
0.833
  7
EXCADSTD
 72
     5
 11
730.984863
 21
2070.269888
 31
0.0
100
AcDbText
  0
LINE
  5
C3
100
AcDbEntity
  8
洗面器
  6
CONTINUOUS
 62
     3
100
AcDbLine
 10
581.484863
 20
2066.769888
 30
0.0
 11
761.484863
 21
2066.769888
 31
0.0
  0
LINE
  5
C4
100
AcDbEntity
  8
洗面器
  6
CONTINUOUS
 62
     3
100
AcDbLine
 10
616.484863
 20
2072.603221
 30
0.0
 11
581.484863
 21
2066.769888
 31
0.0
  0
LINE
  5
C5
100
AcDbEntity
  8
洗面器
  6
CONTINUOUS
 62
     3
100
AcDbLine
 10
581.484863
 20
2066.769888
 30
0.0
 11
616.484863
 21
2060.936555
 31
0.0
  0
LINE
  5
C6
100
AcDbEntity
  8
洗面器
  6
CONTINUOUS
 62
     3
100
AcDbLine
 10
726.484863
 20
2060.936555
 30
0.0
 11
761.484863
 21
2066.769888
 31
0.0
  0
LINE
  5
C7
100
AcDbEntity
  8
洗面器
  6
CONTINUOUS
 62
     3
100
AcDbLine
 10
761.484863
 20
2066.769888
 30
0.0
 11
726.484863
 21
2072.603221
 31
0.0
  0
TEXT
  5
C8
100
AcDbEntity
  8
洗面器
  6
CONTINUOUS
 62
     2
100
AcDbText
 10
611.985016
 20
2010.269888
 30
0.0
 40
40.0
  1
２５０
 41
0.833
  7
EXCADSTD
 72
     5
 11
730.985016
 21
2010.269888
 31
0.0
100
AcDbText
  0
LINE
  5
C9
100
AcDbEntity
  8
洗面器
  6
CONTINUOUS
 62
     3
100
AcDbLine
 10
796.384985
 20
2006.769888
 30
0.0
 11
546.585046
 21
2006.769888
 31
0.0
  0
LINE
  5
CA
100
AcDbEntity
  8
洗面器
  6
CONTINUOUS
 62
     3
100
AcDbLine
 10
761.384985
 20
2000.936555
 30
0.0
 11
796.384985
 21
2006.769888
 31
0.0
  0
LINE
  5
CB
100
AcDbEntity
  8
洗面器
  6
CONTINUOUS
 62
     3
100
AcDbLine
 10
796.384985
 20
2006.769888
 30
0.0
 11
761.384985
 21
2012.603221
 31
0.0
  0
LINE
  5
CC
100
AcDbEntity
  8
洗面器
  6
CONTINUOUS
 62
     3
100
AcDbLine
 10
581.585046
 20
2012.603221
 30
0.0
 11
546.585046
 21
2006.769888
 31
0.0
  0
LINE
  5
CD
100
AcDbEntity
  8
洗面器
  6
CONTINUOUS
 62
     3
100
AcDbLine
 10
546.585046
 20
2006.769888
 30
0.0
 11
581.585046
 21
2000.936555
 31
0.0
  0
TEXT
  5
CE
100
AcDbEntity
  8
洗面器
  6
CONTINUOUS
 62
     2
100
AcDbText
 10
867.880255
 20
1295.103638
 30
0.0
 40
40.0
  1
１１５
 50
90.0
 41
0.833
  7
EXCADSTD
 72
     5
 11
867.880255
 21
1414.103638
 31
0.0
100
AcDbText
  0
LINE
  5
CF
100
AcDbEntity
  8
洗面器
  6
CONTINUOUS
 62
     3
100
AcDbLine
 10
871.380255
 20
1297.103638
 30
0.0
 11
871.380255
 21
1412.103638
 31
0.0
  0
LINE
  5
D0
100
AcDbEntity
  8
洗面器
  6
CONTINUOUS
 62
     3
100
AcDbLine
 10
865.546922
 20
1332.103638
 30
0.0
 11
871.380255
 21
1297.103638
 31
0.0
  0
LINE
  5
D1
100
AcDbEntity
  8
洗面器
  6
CONTINUOUS
 62
     3
100
AcDbLine
 10
871.380255
 20
1297.103638
 30
0.0
 11
877.213589
 21
1332.103638
 31
0.0
  0
LINE
  5
D2
100
AcDbEntity
  8
洗面器
  6
CONTINUOUS
 62
     3
100
AcDbLine
 10
877.213589
 20
1377.103638
 30
0.0
 11
871.380255
 21
1412.103638
 31
0.0
  0
LINE
  5
D3
100
AcDbEntity
  8
洗面器
  6
CONTINUOUS
 62
     3
100
AcDbLine
 10
871.380255
 20
1412.103638
 30
0.0
 11
865.546922
 21
1377.103638
 31
0.0
  0
TEXT
  5
D4
100
AcDbEntity
  8
洗面器
  6
CONTINUOUS
 62
     2
100
AcDbText
 10
867.880255
 20
1485.103623
 30
0.0
 40
40.0
  1
４０
 50
90.0
 41
0.861
  7
EXCADSTD
 72
     5
 11
867.880255
 21
1560.264822
 31
0.0
100
AcDbText
  0
TEXT
  5
D5
100
AcDbEntity
  8
洗面器
  6
CONTINUOUS
 62
     2
100
AcDbText
 10
1761.32785
 20
1482.203646
 30
0.0
 40
40.0
  1
２０
 50
90.0
 41
0.861
  7
EXCADSTD
 72
     5
 11
1761.32785
 21
1557.364846
 31
0.0
100
AcDbText
  0
LINE
  5
D6
100
AcDbEntity
  8
洗面器
  6
CONTINUOUS
 62
     3
100
AcDbLine
 10
1764.82785
 20
1387.103654
 30
0.0
 11
1764.82785
 21
1549.799999
 31
0.0
  0
LINE
  5
D7
100
AcDbEntity
  8
洗面器
  6
CONTINUOUS
 62
     3
100
AcDbLine
 10
1770.661184
 20
1397.103654
 30
0.0
 11
1764.82785
 21
1432.103654
 31
0.0
  0
LINE
  5
D8
100
AcDbEntity
  8
洗面器
  6
CONTINUOUS
 62
     3
100
AcDbLine
 10
1764.82785
 20
1432.103654
 30
0.0
 11
1758.994517
 21
1397.103654
 31
0.0
  0
LINE
  5
D9
100
AcDbEntity
  8
洗面器
  6
CONTINUOUS
 62
     3
100
AcDbLine
 10
1758.994517
 20
1487.103638
 30
0.0
 11
1764.82785
 21
1452.103638
 31
0.0
  0
LINE
  5
DA
100
AcDbEntity
  8
洗面器
  6
CONTINUOUS
 62
     3
100
AcDbLine
 10
1764.82785
 20
1452.103638
 30
0.0
 11
1770.661184
 21
1487.103638
 31
0.0
  0
LEADER
  5
DB
100
AcDbEntity
  8
洗面器
  6
CONTINUOUS
 62
     6
100
AcDbLeader
  3
STANDARD
 73
     3
 74
     1
 75
     0
 40
0.0
 76
     2
 10
730.232116
 20
1438.600413
 30
0.0
 10
801.536736
 20
1562.103638
 30
0.0
 77
     6
1001
ACAD
1000
DSTYLE
1002
{
1070
    41
1040
35.0
1070
     5
1000
_EX_NORM
1070
     6
1000
_EX_NORM
1070
     7
1000
_EX_NORM
1070
   341
1005
2B
1002
}
  0
ARC
  5
DC
100
AcDbEntity
  8
洗面器
  6
CONTINUOUS
 62
     7
100
AcDbCircle
 10
671.484863
 20
2261.768677
 30
0.0
 40
90.0
100
AcDbArc
 50
97.011727
 51
82.986907
  0
LINE
  5
DD
100
AcDbEntity
  8
洗面器
  6
CONTINUOUS
 62
     7
100
AcDbLine
 10
551.484863
 20
2391.771118
 30
0.0
 11
791.484863
 21
2391.768677
 31
0.0
  0
LINE
  5
DE
100
AcDbEntity
  8
洗面器
  6
CONTINUOUS
 62
     7
100
AcDbLine
 10
551.484863
 20
2391.771118
 30
0.0
 11
546.587402
 21
2271.871216
 31
0.0
  0
ARC
  5
DF
100
AcDbEntity
  8
洗面器
  6
CONTINUOUS
 62
     7
100
AcDbCircle
 10
671.484863
 20
2266.768677
 30
0.0
 40
125.00001
100
AcDbArc
 50
177.661362
 51
2.337871
  0
LINE
  5
E0
100
AcDbEntity
  8
洗面器
  6
CONTINUOUS
 62
     7
100
AcDbLine
 10
791.484863
 20
2391.768677
 30
0.0
 11
796.379883
 21
2271.868774
 31
0.0
  0
ARC
  5
E1
100
AcDbEntity
  8
洗面器
  6
CONTINUOUS
 62
     7
100
AcDbCircle
 10
581.245606
 20
2360.772583
 30
0.0
 40
8.0
100
AcDbArc
 50
90.0
 51
177.661774
  0
LINE
  5
E2
100
AcDbEntity
  8
洗面器
  6
CONTINUOUS
 62
     7
100
AcDbLine
 10
769.717285
 20
2361.094849
 30
0.0
 11
773.398926
 21
2270.933716
 31
0.0
  0
ARC
  5
E3
100
AcDbEntity
  8
洗面器
  6
CONTINUOUS
 62
     7
100
AcDbCircle
 10
761.724121
 20
2360.770142
 30
0.0
 40
8.0
100
AcDbArc
 50
2.337616
 51
89.99939
  0
ARC
  5
E4
100
AcDbEntity
  8
洗面器
  6
CONTINUOUS
 62
     7
100
AcDbCircle
 10
1564.098633
 20
1444.103149
 30
0.0
 40
8.0
100
AcDbArc
 50
90.0
 51
141.255371
  0
ARC
  5
E5
100
AcDbEntity
  8
洗面器
  6
CONTINUOUS
 62
     7
100
AcDbCircle
 10
1524.325684
 20
1420.101685
 30
0.0
 40
8.0
100
AcDbArc
 50
270.0
 51
321.255371
  0
LINE
  5
E6
100
AcDbEntity
  8
洗面器
  6
CONTINUOUS
 62
     7
100
AcDbLine
 10
1557.873047
 20
1449.125122
 30
0.0
 11
1530.565918
 21
1415.096802
 31
0.0
  0
LINE
  5
E7
100
AcDbEntity
  8
洗面器
  6
CONTINUOUS
 62
     7
100
AcDbLine
 10
1564.098633
 20
1452.103638
 30
0.0
 11
1688.0
 21
1452.103638
 31
0.0
  0
ARC
  5
E8
100
AcDbEntity
  8
洗面器
  6
CONTINUOUS
 62
     7
100
AcDbCircle
 10
1443.0
 20
1407.103638
 30
0.0
 40
5.0
100
AcDbArc
 50
90.0
 51
180.0
  0
ARC
  5
E9
100
AcDbEntity
  8
洗面器
  6
CONTINUOUS
 62
     7
100
AcDbCircle
 10
1443.0
 20
1392.103638
 30
0.0
 40
5.0
100
AcDbArc
 50
180.0
 51
270.0
  0
LINE
  5
EA
100
AcDbEntity
  8
洗面器
  6
CONTINUOUS
 62
     7
100
AcDbLine
 10
1443.0
 20
1412.103638
 30
0.0
 11
1524.325684
 21
1412.103638
 31
0.0
  0
LINE
  5
EB
100
AcDbEntity
  8
洗面器
  6
CONTINUOUS
 62
     7
100
AcDbLine
 10
1438.0
 20
1407.103638
 30
0.0
 11
1438.0
 21
1392.103638
 31
0.0
  0
LINE
  5
EC
100
AcDbEntity
  8
洗面器
  6
CONTINUOUS
 62
     7
100
AcDbLine
 10
546.482422
 20
1392.103638
 30
0.0
 11
546.482422
 21
1444.103149
 31
0.0
  0
ARC
  5
ED
100
AcDbEntity
  8
洗面器
  6
CONTINUOUS
 62
     7
100
AcDbCircle
 10
551.479981
 20
1392.103638
 30
0.0
 40
5.0
100
AcDbArc
 50
180.0
 51
270.0
  0
LINE
  5
EE
100
AcDbEntity
  8
洗面器
  6
CONTINUOUS
 62
     7
100
AcDbLine
 10
796.479981
 20
1392.103638
 30
0.0
 11
796.482422
 21
1444.103149
 31
0.0
  0
ARC
  5
EF
100
AcDbEntity
  8
洗面器
  6
CONTINUOUS
 62
     7
100
AcDbCircle
 10
791.479981
 20
1392.103638
 30
0.0
 40
5.0
100
AcDbArc
 50
270.0
 51
0.0
  0
LINE
  5
F0
100
AcDbEntity
  8
洗面器
  6
CONTINUOUS
 62
     7
100
AcDbLine
 10
554.480469
 20
1452.103638
 30
0.0
 11
788.481934
 21
1452.103638
 31
0.0
  0
ARC
  5
F1
100
AcDbEntity
  8
洗面器
  6
CONTINUOUS
 62
     7
100
AcDbCircle
 10
791.479981
 20
1407.103638
 30
0.0
 40
5.0
100
AcDbArc
 50
0.0
 51
90.0
  0
ARC
  5
F2
100
AcDbEntity
  8
洗面器
  6
CONTINUOUS
 62
     7
100
AcDbCircle
 10
763.157227
 20
1417.103638
 30
0.0
 40
5.0
100
AcDbArc
 50
270.0
 51
351.444336
  0
LINE
  5
F3
100
AcDbEntity
  8
洗面器
  6
CONTINUOUS
 62
     7
100
AcDbLine
 10
772.456543
 20
1445.292114
 30
0.0
 11
768.103516
 21
1416.359009
 31
0.0
  0
ARC
  5
F4
100
AcDbEntity
  8
洗面器
  6
CONTINUOUS
 62
     7
100
AcDbCircle
 10
780.366699
 20
1444.103149
 30
0.0
 40
8.0
100
AcDbArc
 50
90.0
 51
171.445343
  0
ARC
  5
F5
100
AcDbEntity
  8
洗面器
  6
CONTINUOUS
 62
     7
100
AcDbCircle
 10
788.479492
 20
1444.103149
 30
0.0
 40
8.0
100
AcDbArc
 50
0.0
 51
90.0
  0
ARC
  5
F6
100
AcDbEntity
  8
洗面器
  6
CONTINUOUS
 62
     7
100
AcDbCircle
 10
579.800293
 20
1417.103638
 30
0.0
 40
5.0
100
AcDbArc
 50
188.555664
 51
270.0
  0
LINE
  5
F7
100
AcDbEntity
  8
洗面器
  6
CONTINUOUS
 62
     7
100
AcDbLine
 10
570.505859
 20
1445.292114
 30
0.0
 11
574.856445
 21
1416.359009
 31
0.0
  0
ARC
  5
F8
100
AcDbEntity
  8
洗面器
  6
CONTINUOUS
 62
     7
100
AcDbCircle
 10
562.593262
 20
1444.103149
 30
0.0
 40
8.0
100
AcDbArc
 50
8.554649
 51
90.0
  0
ARC
  5
F9
100
AcDbEntity
  8
洗面器
  6
CONTINUOUS
 62
     7
100
AcDbCircle
 10
554.480469
 20
1444.103149
 30
0.0
 40
8.0
100
AcDbArc
 50
90.0
 51
180.0
  0
ARC
  5
FA
100
AcDbEntity
  8
洗面器
  6
CONTINUOUS
 62
     7
100
AcDbCircle
 10
551.479981
 20
1407.103638
 30
0.0
 40
5.0
100
AcDbArc
 50
90.0
 51
180.0
  0
ARC
  5
FB
100
AcDbEntity
  8
洗面器
  6
CONTINUOUS
 62
     6
100
AcDbCircle
 10
671.484863
 20
2261.769897
 30
0.0
 40
26.999998
100
AcDbArc
 50
129.091675
 51
50.903429
  0
ARC
  5
FC
100
AcDbEntity
  8
洗面器
  6
CONTINUOUS
 62
     6
100
AcDbCircle
 10
671.484863
 20
2261.769897
 30
0.0
 40
17.5
100
AcDbArc
 50
134.412861
 51
45.582244
  0
CIRCLE
  5
FD
100
AcDbEntity
  8
洗面器
  6
CONTINUOUS
 62
     6
100
AcDbCircle
 10
726.484863
 20
1432.103638
 30
0.0
 40
7.5
  0
CIRCLE
  5
FE
100
AcDbEntity
  8
洗面器
  6
CONTINUOUS
 62
     6
100
AcDbCircle
 10
616.484863
 20
1432.103638
 30
0.0
 40
7.5
  0
ARC
  5
FF
100
AcDbEntity
  8
洗面器
  6
CONTINUOUS
 62
     6
100
AcDbCircle
 10
643.410675
 20
2405.543396
 30
0.0
 40
30.0
100
AcDbArc
 50
153.834961
 51
173.821533
  0
ARC
  5
100
100
AcDbEntity
  8
洗面器
  6
CONTINUOUS
 62
     6
100
AcDbCircle
 10
589.559052
 20
2405.543396
 30
0.0
 40
30.0
100
AcDbArc
 50
6.178467
 51
26.165039
  0
ARC
  5
101
100
AcDbEntity
  8
洗面器
  6
CONTINUOUS
 62
     6
100
AcDbCircle
 10
616.484863
 20
2369.290039
 30
0.0
 40
7.517859
100
AcDbArc
 50
183.950073
 51
356.050049
  0
ARC
  5
102
100
AcDbEntity
  8
洗面器
  6
CONTINUOUS
 62
     6
100
AcDbCircle
 10
753.410675
 20
2405.540344
 30
0.0
 40
30.0
100
AcDbArc
 50
153.834961
 51
173.821533
  0
ARC
  5
103
100
AcDbEntity
  8
洗面器
  6
CONTINUOUS
 62
     6
100
AcDbCircle
 10
699.559052
 20
2405.540344
 30
0.0
 40
30.0
100
AcDbArc
 50
6.178467
 51
26.165039
  0
ARC
  5
104
100
AcDbEntity
  8
洗面器
  6
CONTINUOUS
 62
     6
100
AcDbCircle
 10
726.484863
 20
2369.286987
 30
0.0
 40
7.517859
100
AcDbArc
 50
183.950073
 51
356.050049
  0
ARC
  5
105
100
AcDbEntity
  8
洗面器
  6
CONTINUOUS
 62
     6
100
AcDbCircle
 10
1701.769226
 20
1405.177826
 30
0.0
 40
30.0
100
AcDbArc
 50
63.834961
 51
83.821533
  0
ARC
  5
106
100
AcDbEntity
  8
洗面器
  6
CONTINUOUS
 62
     6
100
AcDbCircle
 10
1701.769226
 20
1459.02945
 30
0.0
 40
30.0
100
AcDbArc
 50
276.178467
 51
296.165039
  0
LINE
  5
107
100
AcDbEntity
  8
洗面器
  6
CONTINUOUS
 62
     6
100
AcDbLine
 10
1688.0
 20
1435.003571
 30
0.0
 11
1704.997986
 21
1435.003571
 31
0.0
  0
LINE
  5
108
100
AcDbEntity
  8
洗面器
  6
CONTINUOUS
 62
     6
100
AcDbLine
 10
1688.0
 20
1429.203705
 30
0.0
 11
1704.997986
 21
1429.203705
 31
0.0
  0
LINE
  5
109
100
AcDbEntity
  8
洗面器
  6
CONTINUOUS
 62
     6
100
AcDbLine
 10
729.384796
 20
2391.769287
 30
0.0
 11
729.384796
 21
2408.769104
 31
0.0
  0
LINE
  5
10A
100
AcDbEntity
  8
洗面器
  6
CONTINUOUS
 62
     6
100
AcDbLine
 10
723.58493
 20
2391.76944
 30
0.0
 11
723.58493
 21
2408.769104
 31
0.0
  0
LINE
  5
10B
100
AcDbEntity
  8
洗面器
  6
CONTINUOUS
 62
     6
100
AcDbLine
 10
619.384796
 20
2391.770355
 30
0.0
 11
619.384796
 21
2408.772156
 31
0.0
  0
LINE
  5
10C
100
AcDbEntity
  8
洗面器
  6
CONTINUOUS
 62
     6
100
AcDbLine
 10
613.584931
 20
2391.770508
 30
0.0
 11
613.584931
 21
2408.772156
 31
0.0
  0
LINE
  5
10D
100
AcDbEntity
  8
洗面器
  6
CONTINUOUS
 62
     7
100
AcDbLine
 10
551.479981
 20
1412.103638
 30
0.0
 11
791.479981
 21
1412.103638
 31
0.0
  0
LINE
  5
10E
100
AcDbEntity
  8
洗面器
  6
CONTINUOUS
 62
     7
100
AcDbLine
 10
551.479981
 20
1387.103638
 30
0.0
 11
791.479981
 21
1387.103638
 31
0.0
  0
ARC
  5
10F
100
AcDbEntity
  8
洗面器
  6
CONTINUOUS
 62
     7
100
AcDbCircle
 10
564.539063
 20
1382.10379
 30
0.0
 40
5.0
100
AcDbArc
 50
7.395902
 51
90.0
  0
ARC
  5
110
100
AcDbEntity
  8
洗面器
  6
CONTINUOUS
 62
     7
100
AcDbCircle
 10
777.981445
 20
1382.103638
 30
0.0
 40
5.0
100
AcDbArc
 50
90.0
 51
172.602371
  0
LINE
  5
111
100
AcDbEntity
  8
洗面器
  6
CONTINUOUS
 62
     7
100
AcDbLine
 10
1443.0
 20
1387.103638
 30
0.0
 11
1688.0
 21
1387.103638
 31
0.0
  0
ARC
  5
112
100
AcDbEntity
  8
洗面器
  6
CONTINUOUS
 62
     7
100
AcDbCircle
 10
1451.276367
 20
1382.10379
 30
0.0
 40
5.0
100
AcDbArc
 50
7.395902
 51
90.0
  0
ARC
  5
113
100
AcDbEntity
  8
洗面器
  6
CONTINUOUS
 62
     7
100
AcDbCircle
 10
1664.71875
 20
1382.103638
 30
0.0
 40
5.0
100
AcDbArc
 50
90.0
 51
172.602371
  0
LINE
  5
114
100
AcDbEntity
  8
洗面器
  6
CONTINUOUS
 62
     6
100
AcDbLine
 10
669.734833
 20
2244.357636
 30
0.0
 11
669.734833
 21
2260.019867
 31
0.0
  0
LINE
  5
115
100
AcDbEntity
  8
洗面器
  6
CONTINUOUS
 62
     6
100
AcDbLine
 10
673.234894
 20
2244.357636
 30
0.0
 11
673.234894
 21
2260.019867
 31
0.0
  0
LINE
  5
116
100
AcDbEntity
  8
洗面器
  6
CONTINUOUS
 62
     6
100
AcDbLine
 10
654.072601
 20
2260.019867
 30
0.0
 11
669.734833
 21
2260.019867
 31
0.0
  0
LINE
  5
117
100
AcDbEntity
  8
洗面器
  6
CONTINUOUS
 62
     6
100
AcDbLine
 10
654.072601
 20
2263.519928
 30
0.0
 11
669.734833
 21
2263.519928
 31
0.0
  0
LINE
  5
118
100
AcDbEntity
  8
洗面器
  6
CONTINUOUS
 62
     6
100
AcDbLine
 10
669.734833
 20
2263.519928
 30
0.0
 11
669.734833
 21
2269.357728
 31
0.0
  0
LINE
  5
119
100
AcDbEntity
  8
洗面器
  6
CONTINUOUS
 62
     6
100
AcDbLine
 10
673.234894
 20
2260.019867
 30
0.0
 11
688.897125
 21
2260.019867
 31
0.0
  0
LINE
  5
11A
100
AcDbEntity
  8
洗面器
  6
CONTINUOUS
 62
     6
100
AcDbLine
 10
673.234894
 20
2263.519928
 30
0.0
 11
673.234894
 21
2269.357513
 31
0.0
  0
LINE
  5
11B
100
AcDbEntity
  8
洗面器
  6
CONTINUOUS
 62
     6
100
AcDbLine
 10
673.234894
 20
2263.519928
 30
0.0
 11
688.897125
 21
2263.519928
 31
0.0
  0
ARC
  5
11C
100
AcDbEntity
  8
洗面器
  6
CONTINUOUS
 62
     7
100
AcDbCircle
 10
712.031891
 20
1290.113281
 30
0.0
 40
15.0
100
AcDbArc
 50
107.576584
 51
152.223602
  0
ARC
  5
11D
100
AcDbEntity
  8
洗面器
  6
CONTINUOUS
 62
     7
100
AcDbCircle
 10
678.81366
 20
1394.977783
 30
0.0
 40
95.0
100
AcDbArc
 50
287.576904
 51
352.603271
  0
ARC
  5
11E
100
AcDbEntity
  8
洗面器
  6
CONTINUOUS
 62
     7
100
AcDbCircle
 10
630.488617
 20
1290.113281
 30
0.0
 40
15.0
100
AcDbArc
 50
27.776398
 51
72.423416
  0
ARC
  5
11F
100
AcDbEntity
  8
洗面器
  6
CONTINUOUS
 62
     7
100
AcDbCircle
 10
663.706848
 20
1394.977783
 30
0.0
 40
95.0
100
AcDbArc
 50
187.396744
 51
252.423203
  0
ARC
  5
120
100
AcDbEntity
  8
洗面器
  6
CONTINUOUS
 62
     7
100
AcDbCircle
 10
1565.550964
 20
1394.977783
 30
0.0
 40
95.0
100
AcDbArc
 50
287.576904
 51
352.603271
  0
LINE
  5
121
100
AcDbEntity
  8
洗面器
  6
CONTINUOUS
 62
     7
100
AcDbLine
 10
643.760254
 20
1297.103638
 30
0.0
 11
698.760254
 21
1297.103638
 31
0.0
  0
LINE
  5
122
100
AcDbEntity
  8
洗面器
  6
CONTINUOUS
 62
     7
100
AcDbLine
 10
573.252441
 20
2361.094849
 30
0.0
 11
569.568359
 21
2270.933716
 31
0.0
  0
ARC
  5
123
100
AcDbEntity
  8
洗面器
  6
CONTINUOUS
 62
     7
100
AcDbCircle
 10
1550.444153
 20
1394.977783
 30
0.0
 40
95.0
100
AcDbArc
 50
187.396744
 51
252.423203
  0
ARC
  5
124
100
AcDbEntity
  8
洗面器
  6
CONTINUOUS
 62
     7
100
AcDbCircle
 10
1517.225922
 20
1290.113281
 30
0.0
 40
15.0
100
AcDbArc
 50
27.776398
 51
72.423416
  0
ARC
  5
125
100
AcDbEntity
  8
洗面器
  6
CONTINUOUS
 62
     7
100
AcDbCircle
 10
1598.769196
 20
1290.113281
 30
0.0
 40
15.0
100
AcDbArc
 50
107.576584
 51
152.223602
  0
LINE
  5
126
100
AcDbEntity
  8
洗面器
  6
CONTINUOUS
 62
     7
100
AcDbLine
 10
1530.497559
 20
1297.103638
 30
0.0
 11
1585.497559
 21
1297.103638
 31
0.0
  0
LINE
  5
127
100
AcDbEntity
  8
洗面器
  6
CONTINUOUS
 62
     6
100
AcDbLine
 10
716.484863
 20
2261.769897
 30
0.0
 11
688.984863
 21
2261.769897
 31
0.0
  0
LINE
  5
128
100
AcDbEntity
  8
洗面器
  6
CONTINUOUS
 62
     6
100
AcDbLine
 10
653.984863
 20
2261.769897
 30
0.0
 11
626.484863
 21
2261.769897
 31
0.0
  0
LINE
  5
129
100
AcDbEntity
  8
洗面器
  6
CONTINUOUS
 62
     6
100
AcDbLine
 10
671.485931
 20
2244.269898
 30
0.0
 11
671.485931
 21
2216.577759
 31
0.0
  0
LINE
  5
12A
100
AcDbEntity
  8
洗面器
  6
CONTINUOUS
 62
     6
100
AcDbLine
 10
671.485931
 20
2204.577759
 30
0.0
 11
671.485931
 21
2196.577759
 31
0.0
  0
LINE
  5
12B
100
AcDbEntity
  8
洗面器
  6
CONTINUOUS
 62
     6
100
AcDbLine
 10
671.485931
 20
2184.577759
 30
0.0
 11
671.485931
 21
2121.768667
 31
0.0
  0
LINE
  5
12C
100
AcDbEntity
  8
洗面器
  6
CONTINUOUS
 62
     3
100
AcDbLine
 10
581.484863
 20
2226.769897
 30
0.0
 11
581.484863
 21
2046.769888
 31
0.0
  0
LINE
  5
12D
100
AcDbEntity
  8
洗面器
  6
CONTINUOUS
 62
     3
100
AcDbLine
 10
761.484863
 20
2226.769897
 30
0.0
 11
761.484863
 21
2046.769888
 31
0.0
  0
LINE
  5
12E
100
AcDbEntity
  8
洗面器
  6
CONTINUOUS
 62
     3
100
AcDbLine
 10
546.585046
 20
2226.769897
 30
0.0
 11
546.585046
 21
1986.769888
 31
0.0
  0
LINE
  5
12F
100
AcDbEntity
  8
洗面器
  6
CONTINUOUS
 62
     3
100
AcDbLine
 10
796.384985
 20
2226.769897
 30
0.0
 11
796.384985
 21
1986.769888
 31
0.0
  0
LINE
  5
130
100
AcDbEntity
  8
洗面器
  6
CONTINUOUS
 62
     3
100
AcDbLine
 10
708.485931
 20
2141.769888
 30
0.0
 11
891.384985
 21
2141.769888
 31
0.0
  0
LINE
  5
131
100
AcDbEntity
  8
洗面器
  6
CONTINUOUS
 62
     3
100
AcDbLine
 10
801.484813
 20
2391.769897
 30
0.0
 11
891.384985
 21
2391.769897
 31
0.0
  0
LINE
  5
132
100
AcDbEntity
  8
洗面器
  6
CONTINUOUS
 62
     3
100
AcDbLine
 10
616.485915
 20
2427.773365
 30
0.0
 11
616.485915
 21
2488.57898
 31
0.0
  0
LINE
  5
133
100
AcDbEntity
  8
洗面器
  6
CONTINUOUS
 62
     3
100
AcDbLine
 10
726.485915
 20
2427.770313
 30
0.0
 11
726.485915
 21
2488.57898
 31
0.0
  0
LINE
  5
134
100
AcDbEntity
  8
洗面器
  6
CONTINUOUS
 62
     3
100
AcDbLine
 10
803.475372
 20
1452.103607
 30
0.0
 11
891.380255
 21
1452.103607
 31
0.0
  0
LINE
  5
135
100
AcDbEntity
  8
洗面器
  6
CONTINUOUS
 62
     3
100
AcDbLine
 10
806.48092
 20
1412.103638
 30
0.0
 11
1011.380255
 21
1412.103638
 31
0.0
  0
LINE
  5
136
100
AcDbEntity
  8
洗面器
  6
CONTINUOUS
 62
     3
100
AcDbLine
 10
711.476837
 20
1297.103638
 30
0.0
 11
891.380255
 21
1297.103638
 31
0.0
  0
LINE
  5
137
100
AcDbEntity
  8
洗面器
  6
CONTINUOUS
 62
     6
100
AcDbLine
 10
726.481201
 20
1417.103679
 30
0.0
 11
726.481201
 21
1447.103638
 31
0.0
  0
LINE
  5
138
100
AcDbEntity
  8
洗面器
  6
CONTINUOUS
 62
     6
100
AcDbLine
 10
616.481201
 20
1417.103749
 30
0.0
 11
616.481201
 21
1447.103638
 31
0.0
  0
LINE
  5
139
100
AcDbEntity
  8
洗面器
  6
CONTINUOUS
 62
     6
100
AcDbLine
 10
597.823731
 20
1432.103638
 30
0.0
 11
635.823731
 21
1432.103638
 31
0.0
  0
LINE
  5
13A
100
AcDbEntity
  8
洗面器
  6
CONTINUOUS
 62
     6
100
AcDbLine
 10
707.82373
 20
1432.103638
 30
0.0
 11
744.823731
 21
1432.103638
 31
0.0
  0
LINE
  5
13B
100
AcDbEntity
  8
洗面器
  6
CONTINUOUS
 62
     3
100
AcDbLine
 10
1698.0
 20
1452.103638
 30
0.0
 11
1784.82785
 21
1452.103638
 31
0.0
  0
LINE
  5
13C
100
AcDbEntity
  8
洗面器
  6
CONTINUOUS
 62
     3
100
AcDbLine
 10
1723.997974
 20
1432.103654
 30
0.0
 11
1784.82785
 21
1432.103654
 31
0.0
  0
LINE
  5
13D
100
AcDbEntity
  8
洗面器
  6
CONTINUOUS
 62
     7
100
AcDbLine
 10
1688.0
 20
1804.0
 30
0.0
 11
1688.0
 21
652.103638
 31
0.0
  0
LINE
  5
13E
100
AcDbEntity
  8
洗面器
  6
CONTINUOUS
 62
     3
100
AcDbLine
 10
871.380255
 20
1555.0
 30
0.0
 11
871.380255
 21
1412.103638
 31
0.0
  0
LINE
  5
13F
100
AcDbEntity
  8
洗面器
  6
CONTINUOUS
 62
     3
100
AcDbLine
 10
871.380255
 20
1452.103607
 30
0.0
 11
862.321589
 21
1485.911011
 31
0.0
  0
LINE
  5
140
100
AcDbEntity
  8
洗面器
  6
CONTINUOUS
 62
     3
100
AcDbLine
 10
871.380255
 20
1452.103607
 30
0.0
 11
880.438922
 21
1485.911011
 31
0.0
  0
LINE
  5
141
100
AcDbEntity
  8
洗面器
  6
CONTINUOUS
 62
     7
100
AcDbLine
 10
391.0
 20
652.103638
 30
0.0
 11
1044.0
 21
652.103638
 31
0.0
  0
LINE
  5
142
100
AcDbEntity
  8
洗面器
  6
CONTINUOUS
 62
     7
100
AcDbLine
 10
1316.0
 20
652.103638
 30
0.0
 11
1688.0
 21
652.103638
 31
0.0
  0
TEXT
  5
143
100
AcDbEntity
  8
洗面器
  6
CONTINUOUS
 62
     2
100
AcDbText
 10
1684.5
 20
1683.0
 30
0.0
 40
40.0
  1
Ｗ．Ｌ
 50
90.0
 41
0.833
  7
EXCADSTD
 72
     5
 11
1684.5
 21
1802.0
 31
0.0
100
AcDbText
  0
LINE
  5
144
100
AcDbEntity
  8
洗面器
  6
CONTINUOUS
 62
     7
100
AcDbLine
 10
581.245606
 20
2368.773071
 30
0.0
 11
660.485931
 21
2368.770927
 31
0.0
  0
LINE
  5
145
100
AcDbEntity
  8
洗面器
  6
CONTINUOUS
 62
     7
100
AcDbLine
 10
682.485931
 20
2368.770332
 30
0.0
 11
761.724121
 21
2368.768189
 31
0.0
  0
LINE
  5
146
100
AcDbEntity
  8
洗面器
  6
CONTINUOUS
 62
     6
100
AcDbLine
 10
671.481201
 20
1155.103638
 30
0.0
 11
671.481201
 21
1149.103638
 31
0.0
  0
LINE
  5
147
100
AcDbEntity
  8
洗面器
  6
CONTINUOUS
 62
     6
100
AcDbLine
 10
671.481201
 20
1142.103638
 30
0.0
 11
671.481201
 21
1037.103638
 31
0.0
  0
LINE
  5
148
100
AcDbEntity
  8
洗面器
  6
CONTINUOUS
 62
     6
100
AcDbLine
 10
1557.997559
 20
1317.103614
 30
0.0
 11
1557.997559
 21
1244.0
 31
0.0
  0
LINE
  5
149
100
AcDbEntity
  8
洗面器
  6
CONTINUOUS
 62
     6
100
AcDbLine
 10
1557.997559
 20
1232.0
 30
0.0
 11
1557.997559
 21
1224.0
 31
0.0
  0
LINE
  5
14A
100
AcDbEntity
  8
洗面器
  6
CONTINUOUS
 62
     6
100
AcDbLine
 10
1557.997559
 20
1212.0
 30
0.0
 11
1557.997559
 21
1126.0
 31
0.0
  0
LINE
  5
14B
100
AcDbEntity
  8
洗面器
  6
CONTINUOUS
 62
     6
100
AcDbLine
 10
1557.997559
 20
1114.0
 30
0.0
 11
1557.997559
 21
1106.0
 31
0.0
  0
LINE
  5
14C
100
AcDbEntity
  8
洗面器
  6
CONTINUOUS
 62
     6
100
AcDbLine
 10
1557.997559
 20
1094.0
 30
0.0
 11
1557.997559
 21
979.0
 31
0.0
  0
LINE
  5
14D
100
AcDbEntity
  8
洗面器
  6
CONTINUOUS
 62
     6
100
AcDbLine
 10
671.481201
 20
1317.103614
 30
0.0
 11
671.481201
 21
1243.7
 31
0.0
  0
LINE
  5
14E
100
AcDbEntity
  8
洗面器
  6
CONTINUOUS
 62
     6
100
AcDbLine
 10
671.481201
 20
1231.7
 30
0.0
 11
671.481201
 21
1223.7
 31
0.0
  0
LINE
  5
14F
100
AcDbEntity
  8
洗面器
  6
CONTINUOUS
 62
     6
100
AcDbLine
 10
671.481201
 20
1211.7
 30
0.0
 11
671.481201
 21
1162.103638
 31
0.0
  0
TEXT
  5
150
100
AcDbEntity
  8
洗面器
  6
CONTINUOUS
 62
     2
100
AcDbText
 10
785.6
 20
655.603638
 30
0.0
 40
40.0
  1
Ｆ．Ｌ
 41
0.833
  7
EXCADSTD
 72
     5
 11
904.6
 21
655.603638
 31
0.0
100
AcDbText
  0
TEXT
  5
151
100
AcDbEntity
  8
洗面器
  6
CONTINUOUS
 62
     2
100
AcDbText
 10
801.536736
 20
1565.603638
 30
0.0
 40
40.0
  1
ＮＴ７Ａ（２）
 41
0.801
  7
EXCADSTD
 72
     5
 11
1068.536735
 21
1565.603638
 31
0.0
100
AcDbText
  0
LINE
  5
152
100
AcDbEntity
  8
洗面器
  6
CONTINUOUS
 62
     6
100
AcDbLine
 10
801.536736
 20
1562.103638
 30
0.0
 11
1055.0
 21
1562.103638
 31
0.0
  0
LINE
  5
153
100
AcDbEntity
  8
洗面器
  6
CONTINUOUS
 62
     6
100
AcDbLine
 10
697.881152
 20
632.103638
 30
0.0
 11
697.881152
 21
820.0
 31
0.0
  0
LEADER
  5
154
100
AcDbEntity
  8
水栓
  6
CONTINUOUS
 62
     6
100
AcDbLeader
  3
STANDARD
 73
     3
 74
     1
 75
     0
 40
0.0
 76
     2
 10
1568.906043
 20
1562.29185
 30
0.0
 10
1499.815871
 20
1602.18108
 30
0.0
 77
     6
1001
ACAD
1000
DSTYLE
1002
{
1070
    41
1040
35.0
1070
     5
1000
_EX_NORM
1070
     6
1000
_EX_NORM
1070
     7
1000
_EX_NORM
1070
   341
1005
2B
1002
}
  0
POLYLINE
  5
155
100
AcDbEntity
  8
水栓
  6
CONTINUOUS
 62
     6
100
AcDb2dPolyline
 66
     1
 10
0.0
 20
0.0
 30
0.0
 70
   128
  0
VERTEX
  5
156
100
AcDbEntity
  8
水栓
  6
CONTINUOUS
 62
     6
100
AcDbVertex
100
AcDb2dVertex
 10
1694.97154
 20
1572.581138
 30
0.0
  0
VERTEX
  5
157
100
AcDbEntity
  8
水栓
  6
CONTINUOUS
 62
     6
100
AcDbVertex
100
AcDb2dVertex
 10
1723.107944
 20
1621.314819
 30
0.0
  0
SEQEND
  5
158
100
AcDbEntity
  8
水栓
  6
CONTINUOUS
 62
     6
  0
LINE
  5
159
100
AcDbEntity
  8
水栓
  6
CONTINUOUS
 62
     6
100
AcDbLine
 10
1707.419725
 20
1605.808693
 30
0.0
 11
1694.97154
 21
1572.581138
 31
0.0
  0
LINE
  5
15A
100
AcDbEntity
  8
水栓
  6
CONTINUOUS
 62
     6
100
AcDbLine
 10
1694.97154
 20
1572.581138
 30
0.0
 11
1717.523354
 21
1599.97536
 31
0.0
  0
ARC
  5
15B
100
AcDbEntity
  8
水栓
  6
CONTINUOUS
 62
     6
100
AcDbCircle
 10
671.481201
 20
1562.103638
 30
0.0
 40
23.0
100
AcDbArc
 50
316.761986
 51
223.238014
  0
ARC
  5
15C
100
AcDbEntity
  8
水栓
  6
CONTINUOUS
 62
     6
100
AcDbCircle
 10
671.481201
 20
1446.103638
 30
0.0
 40
130.0
100
AcDbArc
 50
83.762274
 51
96.237726
  0
LINE
  5
15D
100
AcDbEntity
  8
水栓
  6
CONTINUOUS
 62
     6
100
AcDbLine
 10
653.981201
 20
1534.103638
 30
0.0
 11
688.981201
 21
1534.103638
 31
0.0
  0
LINE
  5
15E
100
AcDbEntity
  8
水栓
  6
CONTINUOUS
 62
     6
100
AcDbLine
 10
653.981201
 20
1534.103638
 30
0.0
 11
655.325989
 21
1556.230239
 31
0.0
  0
ARC
  5
15F
100
AcDbEntity
  8
水栓
  6
CONTINUOUS
 62
     6
100
AcDbCircle
 10
1254.220898
 20
1519.83122
 30
0.0
 40
600.0
100
AcDbArc
 50
174.743362
 51
176.522014
  0
ARC
  5
160
100
AcDbEntity
  8
水栓
  6
CONTINUOUS
 62
     6
100
AcDbCircle
 10
657.432248
 20
1574.638135
 30
0.0
 40
0.7
100
AcDbArc
 50
96.237726
 51
174.752881
  0
ARC
  5
161
100
AcDbEntity
  8
水栓
  6
CONTINUOUS
 62
     6
100
AcDbCircle
 10
685.530154
 20
1574.638135
 30
0.0
 40
0.7
100
AcDbArc
 50
5.247119
 51
83.762274
  0
ARC
  5
162
100
AcDbEntity
  8
水栓
  6
CONTINUOUS
 62
     6
100
AcDbCircle
 10
685.530154
 20
1574.638135
 30
0.0
 40
0.7
100
AcDbArc
 50
5.247119
 51
83.762274
  0
ARC
  5
163
100
AcDbEntity
  8
水栓
  6
CONTINUOUS
 62
     6
100
AcDbCircle
 10
88.741505
 20
1519.83122
 30
0.0
 40
600.0
100
AcDbArc
 50
3.477986
 51
5.256638
  0
LINE
  5
164
100
AcDbEntity
  8
水栓
  6
CONTINUOUS
 62
     6
100
AcDbLine
 10
688.981201
 20
1534.103638
 30
0.0
 11
687.636413
 21
1556.230239
 31
0.0
  0
LINE
  5
165
100
AcDbEntity
  8
水栓
  6
CONTINUOUS
 62
     6
100
AcDbLine
 10
668.231201
 20
1524.103638
 30
0.0
 11
668.231201
 21
1521.103638
 31
0.0
  0
ARC
  5
166
100
AcDbEntity
  8
水栓
  6
CONTINUOUS
 62
     6
100
AcDbCircle
 10
665.231201
 20
1524.103638
 30
0.0
 40
3.0
100
AcDbArc
 50
0.0
 51
65.375682
  0
LINE
  5
167
100
AcDbEntity
  8
水栓
  6
CONTINUOUS
 62
     6
100
AcDbLine
 10
674.731201
 20
1524.103638
 30
0.0
 11
674.731201
 21
1521.103638
 31
0.0
  0
ARC
  5
168
100
AcDbEntity
  8
水栓
  6
CONTINUOUS
 62
     6
100
AcDbCircle
 10
677.731201
 20
1524.103638
 30
0.0
 40
3.0
100
AcDbArc
 50
114.624318
 51
180.0
  0
LINE
  5
169
100
AcDbEntity
  8
水栓
  6
CONTINUOUS
 62
     6
100
AcDbLine
 10
668.481201
 20
1520.853638
 30
0.0
 11
668.481201
 21
1509.303638
 31
0.0
  0
LINE
  5
16A
100
AcDbEntity
  8
水栓
  6
CONTINUOUS
 62
     6
100
AcDbLine
 10
674.481201
 20
1520.853638
 30
0.0
 11
674.481201
 21
1509.303638
 31
0.0
  0
LINE
  5
16B
100
AcDbEntity
  8
水栓
  6
CONTINUOUS
 62
     6
100
AcDbLine
 10
669.681201
 20
1508.103638
 30
0.0
 11
673.281201
 21
1508.103638
 31
0.0
  0
ARC
  5
16C
100
AcDbEntity
  8
水栓
  6
CONTINUOUS
 62
     6
100
AcDbCircle
 10
669.681201
 20
1509.303638
 30
0.0
 40
1.2
100
AcDbArc
 50
180.0
 51
270.0
  0
ARC
  5
16D
100
AcDbEntity
  8
水栓
  6
CONTINUOUS
 62
     6
100
AcDbCircle
 10
673.281201
 20
1509.303638
 30
0.0
 40
1.2
100
AcDbArc
 50
270.0
 51
0.0
  0
LINE
  5
16E
100
AcDbEntity
  8
水栓
  6
CONTINUOUS
 62
     6
100
AcDbLine
 10
674.731201
 20
1521.103638
 30
0.0
 11
674.481201
 21
1520.853638
 31
0.0
  0
LINE
  5
16F
100
AcDbEntity
  8
水栓
  6
CONTINUOUS
 62
     6
100
AcDbLine
 10
668.231201
 20
1521.103638
 30
0.0
 11
668.481201
 21
1520.853638
 31
0.0
  0
LINE
  5
170
100
AcDbEntity
  8
水栓
  6
CONTINUOUS
 62
     6
100
AcDbLine
 10
664.231201
 20
1534.103638
 30
0.0
 11
664.231201
 21
1528.103638
 31
0.0
  0
LINE
  5
171
100
AcDbEntity
  8
水栓
  6
CONTINUOUS
 62
     6
100
AcDbLine
 10
678.731201
 20
1534.103638
 30
0.0
 11
678.731201
 21
1528.103638
 31
0.0
  0
ARC
  5
172
100
AcDbEntity
  8
水栓
  6
CONTINUOUS
 62
     6
100
AcDbCircle
 10
665.231201
 20
1528.103638
 30
0.0
 40
1.0
100
AcDbArc
 50
180.0
 51
270.0
  0
ARC
  5
173
100
AcDbEntity
  8
水栓
  6
CONTINUOUS
 62
     6
100
AcDbCircle
 10
677.731201
 20
1528.103638
 30
0.0
 40
1.0
100
AcDbArc
 50
270.0
 51
0.0
  0
LINE
  5
174
100
AcDbEntity
  8
水栓
  6
CONTINUOUS
 62
     6
100
AcDbLine
 10
666.481201
 20
1527.103638
 30
0.0
 11
666.481201
 21
1526.830816
 31
0.0
  0
LINE
  5
175
100
AcDbEntity
  8
水栓
  6
CONTINUOUS
 62
     6
100
AcDbLine
 10
676.481201
 20
1527.103638
 30
0.0
 11
676.481201
 21
1526.830816
 31
0.0
  0
LINE
  5
176
100
AcDbEntity
  8
水栓
  6
CONTINUOUS
 62
     6
100
AcDbLine
 10
665.231201
 20
1527.103638
 30
0.0
 11
677.731201
 21
1527.103638
 31
0.0
  0
LINE
  5
177
100
AcDbEntity
  8
水栓
  6
CONTINUOUS
 62
     6
100
AcDbLine
 10
1687.0
 20
1585.103638
 30
0.0
 11
1688.0
 21
1585.103638
 31
0.0
  0
LINE
  5
178
100
AcDbEntity
  8
水栓
  6
CONTINUOUS
 62
     6
100
AcDbLine
 10
1687.0
 20
1539.103638
 30
0.0
 11
1688.0
 21
1539.103638
 31
0.0
  0
ARC
  5
179
100
AcDbEntity
  8
水栓
  6
CONTINUOUS
 62
     6
100
AcDbCircle
 10
1687.0
 20
1583.103638
 30
0.0
 40
2.0
100
AcDbArc
 50
90.0
 51
180.0
  0
ARC
  5
17A
100
AcDbEntity
  8
水栓
  6
CONTINUOUS
 62
     6
100
AcDbCircle
 10
1687.0
 20
1541.103638
 30
0.0
 40
2.0
100
AcDbArc
 50
180.0
 51
270.0
  0
LINE
  5
17B
100
AcDbEntity
  8
水栓
  6
CONTINUOUS
 62
     6
100
AcDbLine
 10
1603.8
 20
1571.103638
 30
0.0
 11
1682.0
 21
1571.103638
 31
0.0
  0
ARC
  5
17C
100
AcDbEntity
  8
水栓
  6
CONTINUOUS
 62
     6
100
AcDbCircle
 10
1682.0
 20
1574.103638
 30
0.0
 40
3.0
100
AcDbArc
 50
270.0
 51
0.0
  0
LINE
  5
17D
100
AcDbEntity
  8
水栓
  6
CONTINUOUS
 62
     6
100
AcDbLine
 10
1685.0
 20
1583.103638
 30
0.0
 11
1685.0
 21
1541.103638
 31
0.0
  0
LINE
  5
17E
100
AcDbEntity
  8
水栓
  6
CONTINUOUS
 62
     6
100
AcDbLine
 10
1565.5
 20
1534.103638
 30
0.0
 11
1600.5
 21
1534.103638
 31
0.0
  0
ARC
  5
17F
100
AcDbEntity
  8
水栓
  6
CONTINUOUS
 62
     6
100
AcDbCircle
 10
1585.848339
 20
1446.103638
 30
0.0
 40
130.0
100
AcDbArc
 50
83.802313
 51
96.415769
  0
LINE
  5
180
100
AcDbEntity
  8
水栓
  6
CONTINUOUS
 62
     6
100
AcDbLine
 10
1600.5
 20
1546.803638
 30
0.0
 11
1600.5
 21
1534.103638
 31
0.0
  0
LINE
  5
181
100
AcDbEntity
  8
水栓
  6
CONTINUOUS
 62
     6
100
AcDbLine
 10
1568.792166
 20
1561.361217
 30
0.0
 11
1565.5
 21
1534.103638
 31
0.0
  0
ARC
  5
182
100
AcDbEntity
  8
水栓
  6
CONTINUOUS
 62
     6
100
AcDbCircle
 10
1606.8
 20
1546.803638
 30
0.0
 40
6.3
100
AcDbArc
 50
90.0
 51
180.0
  0
ARC
  5
183
100
AcDbEntity
  8
水栓
  6
CONTINUOUS
 62
     6
100
AcDbCircle
 10
1603.8
 20
1574.403638
 30
0.0
 40
3.3
100
AcDbArc
 50
176.498721
 51
270.0
  0
ARC
  5
184
100
AcDbEntity
  8
水栓
  6
CONTINUOUS
 62
     6
100
AcDbCircle
 10
1866.627654
 20
1525.388699
 30
0.0
 40
300.0
100
AcDbArc
 50
170.537573
 51
173.113184
  0
ARC
  5
185
100
AcDbEntity
  8
水栓
  6
CONTINUOUS
 62
     6
100
AcDbCircle
 10
1571.400043
 20
1574.593858
 30
0.0
 40
0.7
100
AcDbArc
 50
96.415769
 51
170.537573
  0
ARC
  5
186
100
AcDbEntity
  8
水栓
  6
CONTINUOUS
 62
     6
100
AcDbCircle
 10
1599.807466
 20
1574.647921
 30
0.0
 40
0.7
100
AcDbArc
 50
356.498721
 51
83.802313
  0
LINE
  5
187
100
AcDbEntity
  8
水栓
  6
CONTINUOUS
 62
     6
100
AcDbLine
 10
1575.75
 20
1534.103638
 30
0.0
 11
1575.75
 21
1528.103638
 31
0.0
  0
LINE
  5
188
100
AcDbEntity
  8
水栓
  6
CONTINUOUS
 62
     6
100
AcDbLine
 10
1590.25
 20
1534.103638
 30
0.0
 11
1590.25
 21
1528.103638
 31
0.0
  0
ARC
  5
189
100
AcDbEntity
  8
水栓
  6
CONTINUOUS
 62
     6
100
AcDbCircle
 10
1576.75
 20
1528.103638
 30
0.0
 40
1.0
100
AcDbArc
 50
180.0
 51
270.0
  0
ARC
  5
18A
100
AcDbEntity
  8
水栓
  6
CONTINUOUS
 62
     6
100
AcDbCircle
 10
1589.25
 20
1528.103638
 30
0.0
 40
1.0
100
AcDbArc
 50
270.0
 51
0.0
  0
LINE
  5
18B
100
AcDbEntity
  8
水栓
  6
CONTINUOUS
 62
     6
100
AcDbLine
 10
1606.8
 20
1553.103638
 30
0.0
 11
1682.0
 21
1553.103638
 31
0.0
  0
ARC
  5
18C
100
AcDbEntity
  8
水栓
  6
CONTINUOUS
 62
     6
100
AcDbCircle
 10
1682.0
 20
1550.103638
 30
0.0
 40
3.0
100
AcDbArc
 50
0.0
 51
90.0
  0
LINE
  5
18D
100
AcDbEntity
  8
水栓
  6
CONTINUOUS
 62
     6
100
AcDbLine
 10
1700.2725
 20
1572.581138
 30
0.0
 11
1702.0
 21
1570.853638
 31
0.0
  0
LINE
  5
18E
100
AcDbEntity
  8
水栓
  6
CONTINUOUS
 62
     6
100
AcDbLine
 10
1701.4345
 20
1571.419138
 30
0.0
 11
1689.162
 21
1571.419138
 31
0.0
  0
LINE
  5
18F
100
AcDbEntity
  8
水栓
  6
CONTINUOUS
 62
     6
100
AcDbLine
 10
1688.0
 20
1572.581138
 30
0.0
 11
1689.162
 21
1571.419138
 31
0.0
  0
LINE
  5
190
100
AcDbEntity
  8
水栓
  6
CONTINUOUS
 62
     6
100
AcDbLine
 10
1700.2725
 20
1551.626138
 30
0.0
 11
1702.0
 21
1553.353638
 31
0.0
  0
LINE
  5
191
100
AcDbEntity
  8
水栓
  6
CONTINUOUS
 62
     6
100
AcDbLine
 10
1701.4345
 20
1552.788138
 30
0.0
 11
1689.162
 21
1552.788138
 31
0.0
  0
LINE
  5
192
100
AcDbEntity
  8
水栓
  6
CONTINUOUS
 62
     6
100
AcDbLine
 10
1688.0
 20
1551.626138
 30
0.0
 11
1689.162
 21
1552.788138
 31
0.0
  0
LINE
  5
193
100
AcDbEntity
  8
水栓
  6
CONTINUOUS
 62
     6
100
AcDbLine
 10
1688.0
 20
1572.581138
 30
0.0
 11
1700.2725
 21
1572.581138
 31
0.0
  0
LINE
  5
194
100
AcDbEntity
  8
水栓
  6
CONTINUOUS
 62
     6
100
AcDbLine
 10
1688.0
 20
1551.626138
 30
0.0
 11
1700.2725
 21
1551.626138
 31
0.0
  0
LINE
  5
195
100
AcDbEntity
  8
水栓
  6
CONTINUOUS
 62
     6
100
AcDbLine
 10
1702.0
 20
1553.353638
 30
0.0
 11
1702.0
 21
1570.853638
 31
0.0
  0
LINE
  5
196
100
AcDbEntity
  8
水栓
  6
CONTINUOUS
 62
     6
100
AcDbLine
 10
1572.0
 20
1508.103638
 30
0.0
 11
1594.0
 21
1508.103638
 31
0.0
  0
ARC
  5
197
100
AcDbEntity
  8
水栓
  6
CONTINUOUS
 62
     6
100
AcDbCircle
 10
1572.0
 20
1512.103638
 30
0.0
 40
4.0
100
AcDbArc
 50
108.715366
 51
270.0
  0
LINE
  5
198
100
AcDbEntity
  8
水栓
  6
CONTINUOUS
 62
     6
100
AcDbLine
 10
1579.75
 20
1524.103638
 30
0.0
 11
1579.75
 21
1521.103638
 31
0.0
  0
ARC
  5
199
100
AcDbEntity
  8
水栓
  6
CONTINUOUS
 62
     6
100
AcDbCircle
 10
1576.75
 20
1521.103638
 30
0.0
 40
3.0
100
AcDbArc
 50
288.715366
 51
0.0
  0
LINE
  5
19A
100
AcDbEntity
  8
水栓
  6
CONTINUOUS
 62
     6
100
AcDbLine
 10
1577.712601
 20
1518.262265
 30
0.0
 11
1570.716532
 21
1515.892135
 31
0.0
  0
LINE
  5
19B
100
AcDbEntity
  8
水栓
  6
CONTINUOUS
 62
     6
100
AcDbLine
 10
1576.75
 20
1527.103638
 30
0.0
 11
1589.25
 21
1527.103638
 31
0.0
  0
LINE
  5
19C
100
AcDbEntity
  8
水栓
  6
CONTINUOUS
 62
     6
100
AcDbLine
 10
1578.0
 20
1527.103638
 30
0.0
 11
1578.0
 21
1526.830816
 31
0.0
  0
ARC
  5
19D
100
AcDbEntity
  8
水栓
  6
CONTINUOUS
 62
     6
100
AcDbCircle
 10
1576.75
 20
1524.103638
 30
0.0
 40
3.0
100
AcDbArc
 50
0.0
 51
65.375682
  0
ARC
  5
19E
100
AcDbEntity
  8
水栓
  6
CONTINUOUS
 62
     6
100
AcDbCircle
 10
1589.25
 20
1521.103638
 30
0.0
 40
3.0
100
AcDbArc
 50
180.0
 51
251.284634
  0
LINE
  5
19F
100
AcDbEntity
  8
水栓
  6
CONTINUOUS
 62
     6
100
AcDbLine
 10
1586.25
 20
1524.103638
 30
0.0
 11
1586.25
 21
1521.103638
 31
0.0
  0
ARC
  5
1A0
100
AcDbEntity
  8
水栓
  6
CONTINUOUS
 62
     6
100
AcDbCircle
 10
1589.25
 20
1524.103638
 30
0.0
 40
3.0
100
AcDbArc
 50
114.624318
 51
180.0
  0
LINE
  5
1A1
100
AcDbEntity
  8
水栓
  6
CONTINUOUS
 62
     6
100
AcDbLine
 10
1588.0
 20
1527.103638
 30
0.0
 11
1588.0
 21
1526.830816
 31
0.0
  0
LINE
  5
1A2
100
AcDbEntity
  8
水栓
  6
CONTINUOUS
 62
     6
100
AcDbLine
 10
1588.287399
 20
1518.262265
 30
0.0
 11
1595.283468
 21
1515.892135
 31
0.0
  0
ARC
  5
1A3
100
AcDbEntity
  8
水栓
  6
CONTINUOUS
 62
     6
100
AcDbCircle
 10
1594.0
 20
1512.103638
 30
0.0
 40
4.0
100
AcDbArc
 50
270.0
 51
71.284634
  0
LINE
  5
1A4
100
AcDbEntity
  8
水栓
  6
CONTINUOUS
 62
     6
100
AcDbLine
 10
1700.2725
 20
1572.581138
 30
0.0
 11
1700.2725
 21
1551.626138
 31
0.0
  0
ARC
  5
1A5
100
AcDbEntity
  8
水栓
  6
CONTINUOUS
 62
     6
100
AcDbCircle
 10
671.485931
 20
2286.769897
 30
0.0
 40
17.5
100
AcDbArc
 50
130.142122
 51
49.857878
  0
LINE
  5
1A6
100
AcDbEntity
  8
水栓
  6
CONTINUOUS
 62
     6
100
AcDbLine
 10
680.485931
 20
2385.769897
 30
0.0
 11
680.485931
 21
2311.342505
 31
0.0
  0
LINE
  5
1A7
100
AcDbEntity
  8
水栓
  6
CONTINUOUS
 62
     6
100
AcDbLine
 10
662.485931
 20
2385.769897
 30
0.0
 11
662.485931
 21
2311.342505
 31
0.0
  0
LINE
  5
1A8
100
AcDbEntity
  8
水栓
  6
CONTINUOUS
 62
     6
100
AcDbLine
 10
648.485931
 20
2390.769897
 30
0.0
 11
648.485931
 21
2391.769897
 31
0.0
  0
LINE
  5
1A9
100
AcDbEntity
  8
水栓
  6
CONTINUOUS
 62
     6
100
AcDbLine
 10
694.485931
 20
2390.769897
 30
0.0
 11
694.485931
 21
2391.769897
 31
0.0
  0
ARC
  5
1AA
100
AcDbEntity
  8
水栓
  6
CONTINUOUS
 62
     6
100
AcDbCircle
 10
650.485931
 20
2390.769897
 30
0.0
 40
2.0
100
AcDbArc
 50
180.0
 51
270.0
  0
ARC
  5
1AB
100
AcDbEntity
  8
水栓
  6
CONTINUOUS
 62
     6
100
AcDbCircle
 10
692.485931
 20
2390.769897
 30
0.0
 40
2.0
100
AcDbArc
 50
270.0
 51
0.0
  0
ARC
  5
1AC
100
AcDbEntity
  8
水栓
  6
CONTINUOUS
 62
     6
100
AcDbCircle
 10
659.485931
 20
2385.769897
 30
0.0
 40
3.0
100
AcDbArc
 50
0.0
 51
90.0
  0
ARC
  5
1AD
100
AcDbEntity
  8
水栓
  6
CONTINUOUS
 62
     6
100
AcDbCircle
 10
683.485931
 20
2385.769897
 30
0.0
 40
3.0
100
AcDbArc
 50
90.0
 51
180.0
  0
LINE
  5
1AE
100
AcDbEntity
  8
水栓
  6
CONTINUOUS
 62
     6
100
AcDbLine
 10
692.485931
 20
2388.769897
 30
0.0
 11
650.485931
 21
2388.769897
 31
0.0
  0
ARC
  5
1AF
100
AcDbEntity
  8
水栓
  6
CONTINUOUS
 62
     6
100
AcDbCircle
 10
633.885931
 20
2311.342505
 30
0.0
 40
28.6
100
AcDbArc
 50
329.585471
 51
0.0
  0
ARC
  5
1B0
100
AcDbEntity
  8
水栓
  6
CONTINUOUS
 62
     6
100
AcDbCircle
 10
709.085931
 20
2311.342505
 30
0.0
 40
28.6
100
AcDbArc
 50
180.0
 51
210.414529
  0
CIRCLE
  5
1B1
100
AcDbEntity
  8
水栓
  6
CONTINUOUS
 62
     6
100
AcDbCircle
 10
671.485931
 20
2289.269897
 30
0.0
 40
15.0
  0
LINE
  5
1B2
100
AcDbEntity
  8
水栓
  6
CONTINUOUS
 62
     6
100
AcDbLine
 10
661.008431
 20
2404.042397
 30
0.0
 11
662.735931
 21
2405.769897
 31
0.0
  0
LINE
  5
1B3
100
AcDbEntity
  8
水栓
  6
CONTINUOUS
 62
     6
100
AcDbLine
 10
662.170431
 20
2405.204397
 30
0.0
 11
662.170431
 21
2392.931897
 31
0.0
  0
LINE
  5
1B4
100
AcDbEntity
  8
水栓
  6
CONTINUOUS
 62
     6
100
AcDbLine
 10
661.008431
 20
2391.769897
 30
0.0
 11
662.170431
 21
2392.931897
 31
0.0
  0
LINE
  5
1B5
100
AcDbEntity
  8
水栓
  6
CONTINUOUS
 62
     6
100
AcDbLine
 10
681.963431
 20
2404.042397
 30
0.0
 11
680.235931
 21
2405.769897
 31
0.0
  0
LINE
  5
1B6
100
AcDbEntity
  8
水栓
  6
CONTINUOUS
 62
     6
100
AcDbLine
 10
680.801431
 20
2405.204397
 30
0.0
 11
680.801431
 21
2392.931897
 31
0.0
  0
LINE
  5
1B7
100
AcDbEntity
  8
水栓
  6
CONTINUOUS
 62
     6
100
AcDbLine
 10
681.963431
 20
2391.769897
 30
0.0
 11
680.801431
 21
2392.931897
 31
0.0
  0
LINE
  5
1B8
100
AcDbEntity
  8
水栓
  6
CONTINUOUS
 62
     6
100
AcDbLine
 10
661.008431
 20
2391.769897
 30
0.0
 11
661.008431
 21
2404.042397
 31
0.0
  0
LINE
  5
1B9
100
AcDbEntity
  8
水栓
  6
CONTINUOUS
 62
     6
100
AcDbLine
 10
681.963431
 20
2391.769897
 30
0.0
 11
681.963431
 21
2404.042397
 31
0.0
  0
LINE
  5
1BA
100
AcDbEntity
  8
水栓
  6
CONTINUOUS
 62
     6
100
AcDbLine
 10
680.235931
 20
2405.769897
 30
0.0
 11
662.735931
 21
2405.769897
 31
0.0
  0
LINE
  5
1BB
100
AcDbEntity
  8
水栓
  6
CONTINUOUS
 62
     6
100
AcDbLine
 10
661.008431
 20
2404.042397
 30
0.0
 11
681.963431
 21
2404.042397
 31
0.0
  0
LINE
  5
1BC
100
AcDbEntity
  8
水栓
  6
CONTINUOUS
 62
     6
100
AcDbLine
 10
671.485931
 20
2411.769897
 30
0.0
 11
671.485931
 21
2362.0
 31
0.0
  0
LINE
  5
1BD
100
AcDbEntity
  8
水栓
  6
CONTINUOUS
 62
     6
100
AcDbLine
 10
671.485931
 20
2350.0
 30
0.0
 11
671.485931
 21
2342.0
 31
0.0
  0
LINE
  5
1BE
100
AcDbEntity
  8
水栓
  6
CONTINUOUS
 62
     6
100
AcDbLine
 10
671.485931
 20
2330.0
 30
0.0
 11
671.485931
 21
2272.3
 31
0.0
  0
LINE
  5
1BF
100
AcDbEntity
  8
水栓
  6
CONTINUOUS
 62
     6
100
AcDbLine
 10
1723.107944
 20
1621.314819
 30
0.0
 11
1854.0
 21
1621.314819
 31
0.0
  0
TEXT
  5
1C0
100
AcDbEntity
  8
水栓
  6
CONTINUOUS
 62
     2
100
AcDbText
 10
1723.107944
 20
1624.81488
 30
0.0
 40
40.0
  1
ＰＪ
 41
0.861
  7
EXCADSTD
 72
     5
 11
1798.269144
 21
1624.81488
 31
0.0
100
AcDbText
  0
TEXT
  5
1C1
100
AcDbEntity
  8
水栓
  6
CONTINUOUS
 62
     2
100
AcDbText
 10
1791.044406
 20
1638.926056
 30
0.0
 40
25.0
  1
１
 41
0.9912
  7
EXCADSTD
 72
     5
 11
1814.644406
 21
1638.926056
 31
0.0
100
AcDbText
  0
TEXT
  5
1C2
100
AcDbEntity
  8
水栓
  6
CONTINUOUS
 62
     6
100
AcDbText
 10
1800.545444
 20
1624.81488
 30
0.0
 40
40.0
  1
／ 
 41
0.9912
  7
EXCADSTD
 72
     5
 11
1838.305442
 21
1624.81488
 31
0.0
100
AcDbText
  0
TEXT
  5
1C3
100
AcDbEntity
  8
水栓
  6
CONTINUOUS
 62
     2
100
AcDbText
 10
1826.742801
 20
1627.026642
 30
0.0
 40
25.0
  1
２
 41
0.9912
  7
EXCADSTD
 72
     5
 11
1850.342801
 21
1627.026642
 31
0.0
100
AcDbText
  0
LINE
  5
1C4
100
AcDbEntity
  8
水栓
  6
CONTINUOUS
 62
     6
100
AcDbLine
 10
671.481201
 20
1572.103638
 30
0.0
 11
671.481201
 21
1605.103638
 31
0.0
  0
LINE
  5
1C5
100
AcDbEntity
  8
水栓
  6
CONTINUOUS
 62
     6
100
AcDbLine
 10
671.481201
 20
1520.0
 30
0.0
 11
671.481201
 21
1552.103638
 31
0.0
  0
LINE
  5
1C6
100
AcDbEntity
  8
水栓
  6
CONTINUOUS
 62
     6
100
AcDbLine
 10
671.481201
 20
1559.103638
 30
0.0
 11
671.481201
 21
1565.103638
 31
0.0
  0
LINE
  5
1C7
100
AcDbEntity
  8
水栓
  6
CONTINUOUS
 62
     6
100
AcDbLine
 10
628.481201
 20
1562.103638
 30
0.0
 11
661.481201
 21
1562.103638
 31
0.0
  0
LINE
  5
1C8
100
AcDbEntity
  8
水栓
  6
CONTINUOUS
 62
     6
100
AcDbLine
 10
668.481201
 20
1562.103638
 30
0.0
 11
674.481201
 21
1562.103638
 31
0.0
  0
LINE
  5
1C9
100
AcDbEntity
  8
水栓
  6
CONTINUOUS
 62
     6
100
AcDbLine
 10
681.481201
 20
1562.103638
 30
0.0
 11
714.481201
 21
1562.103638
 31
0.0
  0
TEXT
  5
1CA
100
AcDbEntity
  8
水栓
  6
CONTINUOUS
 62
     2
100
AcDbText
 10
1343.815872
 20
1605.68108
 30
0.0
 40
40.0
  1
ＮＬ１５
 41
0.819
  7
EXCADSTD
 72
     5
 11
1499.815871
 21
1605.68108
 31
0.0
100
AcDbText
  0
LINE
  5
1CB
100
AcDbEntity
  8
水栓
  6
CONTINUOUS
 62
     6
100
AcDbLine
 10
1499.815871
 20
1602.18108
 30
0.0
 11
1346.0
 21
1602.18108
 31
0.0
  0
POLYLINE
  5
1CC
100
AcDbEntity
  8
トラップ
  6
CONTINUOUS
 62
     6
100
AcDb2dPolyline
 66
     1
 10
0.0
 20
0.0
 30
0.0
 70
   128
  0
VERTEX
  5
1CD
100
AcDbEntity
  8
トラップ
  6
CONTINUOUS
 62
     6
100
AcDbVertex
100
AcDb2dVertex
 10
1702.790285
 20
1164.80368
 30
0.0
  0
VERTEX
  5
1CE
100
AcDbEntity
  8
トラップ
  6
CONTINUOUS
 62
     6
100
AcDbVertex
100
AcDb2dVertex
 10
1732.392588
 20
1216.076374
 30
0.0
  0
SEQEND
  5
1CF
100
AcDbEntity
  8
トラップ
  6
CONTINUOUS
 62
     6
  0
LINE
  5
1D0
100
AcDbEntity
  8
トラップ
  6
CONTINUOUS
 62
     6
100
AcDbLine
 10
1715.23847
 20
1198.031236
 30
0.0
 11
1702.790285
 21
1164.80368
 31
0.0
  0
LINE
  5
1D1
100
AcDbEntity
  8
トラップ
  6
CONTINUOUS
 62
     6
100
AcDbLine
 10
1702.790285
 20
1164.80368
 30
0.0
 11
1725.342099
 21
1192.197903
 31
0.0
  0
LEADER
  5
1D2
100
AcDbEntity
  8
トラップ
  6
CONTINUOUS
 62
     6
100
AcDbLeader
  3
STANDARD
 73
     3
 74
     1
 75
     0
 40
0.0
 76
     2
 10
1544.297607
 20
1152.292278
 30
0.0
 10
1466.872124
 20
1196.993902
 30
0.0
 77
     6
1001
ACAD
1000
DSTYLE
1002
{
1070
    41
1040
35.0
1070
     5
1000
_EX_NORM
1070
     6
1000
_EX_NORM
1070
     7
1000
_EX_NORM
1070
   341
1005
2B
1002
}
  0
POLYLINE
  5
1D3
100
AcDbEntity
  8
トラップ
  6
CONTINUOUS
 62
     6
100
AcDb2dPolyline
 66
     1
 10
0.0
 20
0.0
 30
0.0
 70
   128
  0
VERTEX
  5
1D4
100
AcDbEntity
  8
トラップ
  6
CONTINUOUS
 62
     6
100
AcDbVertex
100
AcDb2dVertex
 10
710.581152
 20
644.0
 30
0.0
  0
VERTEX
  5
1D5
100
AcDbEntity
  8
トラップ
  6
CONTINUOUS
 62
     6
100
AcDbVertex
100
AcDb2dVertex
 10
739.710088
 20
593.547203
 30
0.0
  0
SEQEND
  5
1D6
100
AcDbEntity
  8
トラップ
  6
CONTINUOUS
 62
     6
  0
LINE
  5
1D7
100
AcDbEntity
  8
トラップ
  6
CONTINUOUS
 62
     6
100
AcDbLine
 10
733.132967
 20
616.605778
 30
0.0
 11
710.581152
 21
644.0
 31
0.0
  0
LINE
  5
1D8
100
AcDbEntity
  8
トラップ
  6
CONTINUOUS
 62
     6
100
AcDbLine
 10
710.581152
 20
644.0
 30
0.0
 11
723.029338
 21
610.772444
 31
0.0
  0
LEADER
  5
1D9
100
AcDbEntity
  8
トラップ
  6
CONTINUOUS
 62
     6
100
AcDbLeader
  3
STANDARD
 73
     3
 74
     1
 75
     0
 40
0.0
 76
     2
 10
1545.297516
 20
922.0
 30
0.0
 10
1469.298546
 20
878.121974
 30
0.0
 77
     6
1001
ACAD
1000
DSTYLE
1002
{
1070
    41
1040
35.0
1070
     5
1000
_EX_NORM
1070
     6
1000
_EX_NORM
1070
     7
1000
_EX_NORM
1070
   341
1005
2B
1002
}
  0
ARC
  5
1DA
100
AcDbEntity
  8
トラップ
  6
CONTINUOUS
 62
     6
100
AcDbCircle
 10
671.481201
 20
1066.603607
 30
0.0
 40
12.700043
100
AcDbArc
 50
180.0
 51
0.0
  0
LINE
  5
1DB
100
AcDbEntity
  8
トラップ
  6
CONTINUOUS
 62
     6
100
AcDbLine
 10
696.73114
 20
1291.231903
 30
0.0
 11
696.73114
 21
1292.231964
 31
0.0
  0
LINE
  5
1DC
100
AcDbEntity
  8
トラップ
  6
CONTINUOUS
 62
     6
100
AcDbLine
 10
646.231262
 20
1291.231903
 30
0.0
 11
696.73114
 21
1291.231903
 31
0.0
  0
LINE
  5
1DD
100
AcDbEntity
  8
トラップ
  6
CONTINUOUS
 62
     6
100
AcDbLine
 10
646.231262
 20
1291.231903
 30
0.0
 11
646.231262
 21
1292.231964
 31
0.0
  0
LINE
  5
1DE
100
AcDbEntity
  8
トラップ
  6
CONTINUOUS
 62
     6
100
AcDbLine
 10
686.881287
 20
1282.231812
 30
0.0
 11
686.881287
 21
1277.103485
 31
0.0
  0
LINE
  5
1DF
100
AcDbEntity
  8
トラップ
  6
CONTINUOUS
 62
     6
100
AcDbLine
 10
687.481262
 20
1282.231812
 30
0.0
 11
687.481262
 21
1277.103485
 31
0.0
  0
LINE
  5
1E0
100
AcDbEntity
  8
トラップ
  6
CONTINUOUS
 62
     6
100
AcDbLine
 10
656.081116
 20
1282.231812
 30
0.0
 11
656.081116
 21
1277.103485
 31
0.0
  0
LINE
  5
1E1
100
AcDbEntity
  8
トラップ
  6
CONTINUOUS
 62
     6
100
AcDbLine
 10
691.981232
 20
1297.103638
 30
0.0
 11
696.73114
 21
1292.231964
 31
0.0
  0
LINE
  5
1E2
100
AcDbEntity
  8
トラップ
  6
CONTINUOUS
 62
     6
100
AcDbLine
 10
650.981171
 20
1297.103638
 30
0.0
 11
646.231262
 21
1292.231964
 31
0.0
  0
LINE
  5
1E3
100
AcDbEntity
  8
トラップ
  6
CONTINUOUS
 62
     6
100
AcDbLine
 10
688.231384
 20
1277.103485
 30
0.0
 11
654.731018
 21
1277.103485
 31
0.0
  0
POLYLINE
  5
1E4
100
AcDbEntity
  8
トラップ
  6
CONTINUOUS
 62
     6
100
AcDb2dPolyline
 66
     1
 10
0.0
 20
0.0
 30
0.0
 70
   128
  0
VERTEX
  5
1E5
100
AcDbEntity
  8
トラップ
  6
CONTINUOUS
 62
     6
100
AcDbVertex
100
AcDb2dVertex
 10
679.500763
 20
1271.103577
 30
0.0
  0
VERTEX
  5
1E6
100
AcDbEntity
  8
トラップ
  6
CONTINUOUS
 62
     6
100
AcDbVertex
100
AcDb2dVertex
 10
679.267695
 20
1272.335807
 30
0.0
  0
VERTEX
  5
1E7
100
AcDbEntity
  8
トラップ
  6
CONTINUOUS
 62
     6
100
AcDbVertex
100
AcDb2dVertex
 10
678.582161
 20
1273.496421
 30
0.0
  0
VERTEX
  5
1E8
100
AcDbEntity
  8
トラップ
  6
CONTINUOUS
 62
     6
100
AcDbVertex
100
AcDb2dVertex
 10
677.483865
 20
1274.517974
 30
0.0
  0
VERTEX
  5
1E9
100
AcDbEntity
  8
トラップ
  6
CONTINUOUS
 62
     6
100
AcDbVertex
100
AcDb2dVertex
 10
676.036729
 20
1275.341149
 30
0.0
  0
VERTEX
  5
1EA
100
AcDbEntity
  8
トラップ
  6
CONTINUOUS
 62
     6
100
AcDbVertex
100
AcDb2dVertex
 10
674.324913
 20
1275.918042
 30
0.0
  0
VERTEX
  5
1EB
100
AcDbEntity
  8
トラップ
  6
CONTINUOUS
 62
     6
100
AcDbVertex
100
AcDb2dVertex
 10
672.447836
 20
1276.215101
 30
0.0
  0
VERTEX
  5
1EC
100
AcDbEntity
  8
トラップ
  6
CONTINUOUS
 62
     6
100
AcDbVertex
100
AcDb2dVertex
 10
670.514567
 20
1276.215101
 30
0.0
  0
VERTEX
  5
1ED
100
AcDbEntity
  8
トラップ
  6
CONTINUOUS
 62
     6
100
AcDbVertex
100
AcDb2dVertex
 10
668.63749
 20
1275.918042
 30
0.0
  0
VERTEX
  5
1EE
100
AcDbEntity
  8
トラップ
  6
CONTINUOUS
 62
     6
100
AcDbVertex
100
AcDb2dVertex
 10
666.925674
 20
1275.341149
 30
0.0
  0
VERTEX
  5
1EF
100
AcDbEntity
  8
トラップ
  6
CONTINUOUS
 62
     6
100
AcDbVertex
100
AcDb2dVertex
 10
665.478537
 20
1274.517974
 30
0.0
  0
VERTEX
  5
1F0
100
AcDbEntity
  8
トラップ
  6
CONTINUOUS
 62
     6
100
AcDbVertex
100
AcDb2dVertex
 10
664.380241
 20
1273.496421
 30
0.0
  0
VERTEX
  5
1F1
100
AcDbEntity
  8
トラップ
  6
CONTINUOUS
 62
     6
100
AcDbVertex
100
AcDb2dVertex
 10
663.694708
 20
1272.335807
 30
0.0
  0
VERTEX
  5
1F2
100
AcDbEntity
  8
トラップ
  6
CONTINUOUS
 62
     6
100
AcDbVertex
100
AcDb2dVertex
 10
663.46164
 20
1271.103577
 30
0.0
  0
VERTEX
  5
1F3
100
AcDbEntity
  8
トラップ
  6
CONTINUOUS
 62
     6
100
AcDbVertex
100
AcDb2dVertex
 10
663.694708
 20
1269.871346
 30
0.0
  0
VERTEX
  5
1F4
100
AcDbEntity
  8
トラップ
  6
CONTINUOUS
 62
     6
100
AcDbVertex
100
AcDb2dVertex
 10
664.380241
 20
1268.710732
 30
0.0
  0
VERTEX
  5
1F5
100
AcDbEntity
  8
トラップ
  6
CONTINUOUS
 62
     6
100
AcDbVertex
100
AcDb2dVertex
 10
665.478537
 20
1267.689179
 30
0.0
  0
VERTEX
  5
1F6
100
AcDbEntity
  8
トラップ
  6
CONTINUOUS
 62
     6
100
AcDbVertex
100
AcDb2dVertex
 10
666.925674
 20
1266.866005
 30
0.0
  0
VERTEX
  5
1F7
100
AcDbEntity
  8
トラップ
  6
CONTINUOUS
 62
     6
100
AcDbVertex
100
AcDb2dVertex
 10
668.63749
 20
1266.289112
 30
0.0
  0
VERTEX
  5
1F8
100
AcDbEntity
  8
トラップ
  6
CONTINUOUS
 62
     6
100
AcDbVertex
100
AcDb2dVertex
 10
670.514567
 20
1265.992052
 30
0.0
  0
VERTEX
  5
1F9
100
AcDbEntity
  8
トラップ
  6
CONTINUOUS
 62
     6
100
AcDbVertex
100
AcDb2dVertex
 10
672.447836
 20
1265.992052
 30
0.0
  0
VERTEX
  5
1FA
100
AcDbEntity
  8
トラップ
  6
CONTINUOUS
 62
     6
100
AcDbVertex
100
AcDb2dVertex
 10
674.324913
 20
1266.289112
 30
0.0
  0
VERTEX
  5
1FB
100
AcDbEntity
  8
トラップ
  6
CONTINUOUS
 62
     6
100
AcDbVertex
100
AcDb2dVertex
 10
676.036729
 20
1266.866005
 30
0.0
  0
VERTEX
  5
1FC
100
AcDbEntity
  8
トラップ
  6
CONTINUOUS
 62
     6
100
AcDbVertex
100
AcDb2dVertex
 10
677.483865
 20
1267.689179
 30
0.0
  0
VERTEX
  5
1FD
100
AcDbEntity
  8
トラップ
  6
CONTINUOUS
 62
     6
100
AcDbVertex
100
AcDb2dVertex
 10
678.582161
 20
1268.710732
 30
0.0
  0
VERTEX
  5
1FE
100
AcDbEntity
  8
トラップ
  6
CONTINUOUS
 62
     6
100
AcDbVertex
100
AcDb2dVertex
 10
679.267695
 20
1269.871346
 30
0.0
  0
VERTEX
  5
1FF
100
AcDbEntity
  8
トラップ
  6
CONTINUOUS
 62
     6
100
AcDbVertex
100
AcDb2dVertex
 10
679.500763
 20
1271.103577
 30
0.0
  0
SEQEND
  5
200
100
AcDbEntity
  8
トラップ
  6
CONTINUOUS
 62
     6
  0
POLYLINE
  5
201
100
AcDbEntity
  8
トラップ
  6
CONTINUOUS
 62
     6
100
AcDb2dPolyline
 66
     1
 10
0.0
 20
0.0
 30
0.0
 70
   128
  0
VERTEX
  5
202
100
AcDbEntity
  8
トラップ
  6
CONTINUOUS
 62
     6
100
AcDbVertex
100
AcDb2dVertex
 10
660.335571
 20
1271.103577
 30
0.0
  0
VERTEX
  5
203
100
AcDbEntity
  8
トラップ
  6
CONTINUOUS
 62
     6
100
AcDbVertex
100
AcDb2dVertex
 10
660.219037
 20
1272.335807
 30
0.0
  0
VERTEX
  5
204
100
AcDbEntity
  8
トラップ
  6
CONTINUOUS
 62
     6
100
AcDbVertex
100
AcDb2dVertex
 10
659.876278
 20
1273.496421
 30
0.0
  0
VERTEX
  5
205
100
AcDbEntity
  8
トラップ
  6
CONTINUOUS
 62
     6
100
AcDbVertex
100
AcDb2dVertex
 10
659.327176
 20
1274.517974
 30
0.0
  0
VERTEX
  5
206
100
AcDbEntity
  8
トラップ
  6
CONTINUOUS
 62
     6
100
AcDbVertex
100
AcDb2dVertex
 10
658.603626
 20
1275.341149
 30
0.0
  0
VERTEX
  5
207
100
AcDbEntity
  8
トラップ
  6
CONTINUOUS
 62
     6
100
AcDbVertex
100
AcDb2dVertex
 10
657.747681
 20
1275.918042
 30
0.0
  0
VERTEX
  5
208
100
AcDbEntity
  8
トラップ
  6
CONTINUOUS
 62
     6
100
AcDbVertex
100
AcDb2dVertex
 10
656.809147
 20
1276.215101
 30
0.0
  0
VERTEX
  5
209
100
AcDbEntity
  8
トラップ
  6
CONTINUOUS
 62
     6
100
AcDbVertex
100
AcDb2dVertex
 10
655.84251
 20
1276.215101
 30
0.0
  0
VERTEX
  5
20A
100
AcDbEntity
  8
トラップ
  6
CONTINUOUS
 62
     6
100
AcDbVertex
100
AcDb2dVertex
 10
654.903906
 20
1275.918042
 30
0.0
  0
VERTEX
  5
20B
100
AcDbEntity
  8
トラップ
  6
CONTINUOUS
 62
     6
100
AcDbVertex
100
AcDb2dVertex
 10
654.047955
 20
1275.341149
 30
0.0
  0
VERTEX
  5
20C
100
AcDbEntity
  8
トラップ
  6
CONTINUOUS
 62
     6
100
AcDbVertex
100
AcDb2dVertex
 10
653.324405
 20
1274.517974
 30
0.0
  0
VERTEX
  5
20D
100
AcDbEntity
  8
トラップ
  6
CONTINUOUS
 62
     6
100
AcDbVertex
100
AcDb2dVertex
 10
652.775303
 20
1273.496421
 30
0.0
  0
VERTEX
  5
20E
100
AcDbEntity
  8
トラップ
  6
CONTINUOUS
 62
     6
100
AcDbVertex
100
AcDb2dVertex
 10
652.432544
 20
1272.335807
 30
0.0
  0
VERTEX
  5
20F
100
AcDbEntity
  8
トラップ
  6
CONTINUOUS
 62
     6
100
AcDbVertex
100
AcDb2dVertex
 10
652.31601
 20
1271.103577
 30
0.0
  0
VERTEX
  5
210
100
AcDbEntity
  8
トラップ
  6
CONTINUOUS
 62
     6
100
AcDbVertex
100
AcDb2dVertex
 10
652.432544
 20
1269.871346
 30
0.0
  0
VERTEX
  5
211
100
AcDbEntity
  8
トラップ
  6
CONTINUOUS
 62
     6
100
AcDbVertex
100
AcDb2dVertex
 10
652.775303
 20
1268.710732
 30
0.0
  0
VERTEX
  5
212
100
AcDbEntity
  8
トラップ
  6
CONTINUOUS
 62
     6
100
AcDbVertex
100
AcDb2dVertex
 10
653.324405
 20
1267.689179
 30
0.0
  0
VERTEX
  5
213
100
AcDbEntity
  8
トラップ
  6
CONTINUOUS
 62
     6
100
AcDbVertex
100
AcDb2dVertex
 10
654.047955
 20
1266.866005
 30
0.0
  0
VERTEX
  5
214
100
AcDbEntity
  8
トラップ
  6
CONTINUOUS
 62
     6
100
AcDbVertex
100
AcDb2dVertex
 10
654.903906
 20
1266.289112
 30
0.0
  0
VERTEX
  5
215
100
AcDbEntity
  8
トラップ
  6
CONTINUOUS
 62
     6
100
AcDbVertex
100
AcDb2dVertex
 10
655.84251
 20
1265.992052
 30
0.0
  0
VERTEX
  5
216
100
AcDbEntity
  8
トラップ
  6
CONTINUOUS
 62
     6
100
AcDbVertex
100
AcDb2dVertex
 10
656.809147
 20
1265.992052
 30
0.0
  0
VERTEX
  5
217
100
AcDbEntity
  8
トラップ
  6
CONTINUOUS
 62
     6
100
AcDbVertex
100
AcDb2dVertex
 10
657.747681
 20
1266.289112
 30
0.0
  0
VERTEX
  5
218
100
AcDbEntity
  8
トラップ
  6
CONTINUOUS
 62
     6
100
AcDbVertex
100
AcDb2dVertex
 10
658.603626
 20
1266.866005
 30
0.0
  0
VERTEX
  5
219
100
AcDbEntity
  8
トラップ
  6
CONTINUOUS
 62
     6
100
AcDbVertex
100
AcDb2dVertex
 10
659.327176
 20
1267.689179
 30
0.0
  0
VERTEX
  5
21A
100
AcDbEntity
  8
トラップ
  6
CONTINUOUS
 62
     6
100
AcDbVertex
100
AcDb2dVertex
 10
659.876278
 20
1268.710732
 30
0.0
  0
VERTEX
  5
21B
100
AcDbEntity
  8
トラップ
  6
CONTINUOUS
 62
     6
100
AcDbVertex
100
AcDb2dVertex
 10
660.219037
 20
1269.871346
 30
0.0
  0
VERTEX
  5
21C
100
AcDbEntity
  8
トラップ
  6
CONTINUOUS
 62
     6
100
AcDbVertex
100
AcDb2dVertex
 10
660.335571
 20
1271.103577
 30
0.0
  0
SEQEND
  5
21D
100
AcDbEntity
  8
トラップ
  6
CONTINUOUS
 62
     6
  0
POLYLINE
  5
21E
100
AcDbEntity
  8
トラップ
  6
CONTINUOUS
 62
     6
100
AcDb2dPolyline
 66
     1
 10
0.0
 20
0.0
 30
0.0
 70
   128
  0
VERTEX
  5
21F
100
AcDbEntity
  8
トラップ
  6
CONTINUOUS
 62
     6
100
AcDbVertex
100
AcDb2dVertex
 10
690.731232
 20
1271.103577
 30
0.0
  0
VERTEX
  5
220
100
AcDbEntity
  8
トラップ
  6
CONTINUOUS
 62
     6
100
AcDbVertex
100
AcDb2dVertex
 10
690.613488
 20
1272.335807
 30
0.0
  0
VERTEX
  5
221
100
AcDbEntity
  8
トラップ
  6
CONTINUOUS
 62
     6
100
AcDbVertex
100
AcDb2dVertex
 10
690.267046
 20
1273.496421
 30
0.0
  0
VERTEX
  5
222
100
AcDbEntity
  8
トラップ
  6
CONTINUOUS
 62
     6
100
AcDbVertex
100
AcDb2dVertex
 10
689.712153
 20
1274.517974
 30
0.0
  0
VERTEX
  5
223
100
AcDbEntity
  8
トラップ
  6
CONTINUOUS
 62
     6
100
AcDbVertex
100
AcDb2dVertex
 10
688.980921
 20
1275.341149
 30
0.0
  0
VERTEX
  5
224
100
AcDbEntity
  8
トラップ
  6
CONTINUOUS
 62
     6
100
AcDbVertex
100
AcDb2dVertex
 10
688.11594
 20
1275.918042
 30
0.0
  0
VERTEX
  5
225
100
AcDbEntity
  8
トラップ
  6
CONTINUOUS
 62
     6
100
AcDbVertex
100
AcDb2dVertex
 10
687.167438
 20
1276.215101
 30
0.0
  0
VERTEX
  5
226
100
AcDbEntity
  8
トラップ
  6
CONTINUOUS
 62
     6
100
AcDbVertex
100
AcDb2dVertex
 10
686.190548
 20
1276.215101
 30
0.0
  0
VERTEX
  5
227
100
AcDbEntity
  8
トラップ
  6
CONTINUOUS
 62
     6
100
AcDbVertex
100
AcDb2dVertex
 10
685.242117
 20
1275.918042
 30
0.0
  0
VERTEX
  5
228
100
AcDbEntity
  8
トラップ
  6
CONTINUOUS
 62
     6
100
AcDbVertex
100
AcDb2dVertex
 10
684.377142
 20
1275.341149
 30
0.0
  0
VERTEX
  5
229
100
AcDbEntity
  8
トラップ
  6
CONTINUOUS
 62
     6
100
AcDbVertex
100
AcDb2dVertex
 10
683.64591
 20
1274.517974
 30
0.0
  0
VERTEX
  5
22A
100
AcDbEntity
  8
トラップ
  6
CONTINUOUS
 62
     6
100
AcDbVertex
100
AcDb2dVertex
 10
683.091017
 20
1273.496421
 30
0.0
  0
VERTEX
  5
22B
100
AcDbEntity
  8
トラップ
  6
CONTINUOUS
 62
     6
100
AcDbVertex
100
AcDb2dVertex
 10
682.744575
 20
1272.335807
 30
0.0
  0
VERTEX
  5
22C
100
AcDbEntity
  8
トラップ
  6
CONTINUOUS
 62
     6
100
AcDbVertex
100
AcDb2dVertex
 10
682.626831
 20
1271.103577
 30
0.0
  0
VERTEX
  5
22D
100
AcDbEntity
  8
トラップ
  6
CONTINUOUS
 62
     6
100
AcDbVertex
100
AcDb2dVertex
 10
682.744575
 20
1269.871346
 30
0.0
  0
VERTEX
  5
22E
100
AcDbEntity
  8
トラップ
  6
CONTINUOUS
 62
     6
100
AcDbVertex
100
AcDb2dVertex
 10
683.091017
 20
1268.710732
 30
0.0
  0
VERTEX
  5
22F
100
AcDbEntity
  8
トラップ
  6
CONTINUOUS
 62
     6
100
AcDbVertex
100
AcDb2dVertex
 10
683.64591
 20
1267.689179
 30
0.0
  0
VERTEX
  5
230
100
AcDbEntity
  8
トラップ
  6
CONTINUOUS
 62
     6
100
AcDbVertex
100
AcDb2dVertex
 10
684.377142
 20
1266.866005
 30
0.0
  0
VERTEX
  5
231
100
AcDbEntity
  8
トラップ
  6
CONTINUOUS
 62
     6
100
AcDbVertex
100
AcDb2dVertex
 10
685.242117
 20
1266.289112
 30
0.0
  0
VERTEX
  5
232
100
AcDbEntity
  8
トラップ
  6
CONTINUOUS
 62
     6
100
AcDbVertex
100
AcDb2dVertex
 10
686.190548
 20
1265.992052
 30
0.0
  0
VERTEX
  5
233
100
AcDbEntity
  8
トラップ
  6
CONTINUOUS
 62
     6
100
AcDbVertex
100
AcDb2dVertex
 10
687.167438
 20
1265.992052
 30
0.0
  0
VERTEX
  5
234
100
AcDbEntity
  8
トラップ
  6
CONTINUOUS
 62
     6
100
AcDbVertex
100
AcDb2dVertex
 10
688.11594
 20
1266.289112
 30
0.0
  0
VERTEX
  5
235
100
AcDbEntity
  8
トラップ
  6
CONTINUOUS
 62
     6
100
AcDbVertex
100
AcDb2dVertex
 10
688.980921
 20
1266.866005
 30
0.0
  0
VERTEX
  5
236
100
AcDbEntity
  8
トラップ
  6
CONTINUOUS
 62
     6
100
AcDbVertex
100
AcDb2dVertex
 10
689.712153
 20
1267.689179
 30
0.0
  0
VERTEX
  5
237
100
AcDbEntity
  8
トラップ
  6
CONTINUOUS
 62
     6
100
AcDbVertex
100
AcDb2dVertex
 10
690.267046
 20
1268.710732
 30
0.0
  0
VERTEX
  5
238
100
AcDbEntity
  8
トラップ
  6
CONTINUOUS
 62
     6
100
AcDbVertex
100
AcDb2dVertex
 10
690.613488
 20
1269.871346
 30
0.0
  0
VERTEX
  5
239
100
AcDbEntity
  8
トラップ
  6
CONTINUOUS
 62
     6
100
AcDbVertex
100
AcDb2dVertex
 10
690.731232
 20
1271.103577
 30
0.0
  0
SEQEND
  5
23A
100
AcDbEntity
  8
トラップ
  6
CONTINUOUS
 62
     6
  0
ARC
  5
23B
100
AcDbEntity
  8
トラップ
  6
CONTINUOUS
 62
     6
100
AcDbCircle
 10
682.28122
 20
1271.103577
 30
0.0
 40
8.45
100
AcDbArc
 50
314.759277
 51
45.238495
  0
ARC
  5
23C
100
AcDbEntity
  8
トラップ
  6
CONTINUOUS
 62
     6
100
AcDbCircle
 10
660.681183
 20
1271.103577
 30
0.0
 40
8.45
100
AcDbArc
 50
134.761505
 51
225.240753
  0
LINE
  5
23D
100
AcDbEntity
  8
トラップ
  6
CONTINUOUS
 62
     6
100
AcDbLine
 10
688.231079
 20
1265.103516
 30
0.0
 11
654.731323
 21
1265.103516
 31
0.0
  0
LINE
  5
23E
100
AcDbEntity
  8
トラップ
  6
CONTINUOUS
 62
     6
100
AcDbLine
 10
655.48114
 20
1282.231812
 30
0.0
 11
655.48114
 21
1277.103485
 31
0.0
  0
LINE
  5
23F
100
AcDbEntity
  8
トラップ
  6
CONTINUOUS
 62
     6
100
AcDbLine
 10
662.024109
 20
1284.231628
 30
0.0
 11
659.971954
 21
1284.231628
 31
0.0
  0
LINE
  5
240
100
AcDbEntity
  8
トラップ
  6
CONTINUOUS
 62
     6
100
AcDbLine
 10
682.990753
 20
1284.231934
 30
0.0
 11
680.938293
 21
1284.231934
 31
0.0
  0
LINE
  5
241
100
AcDbEntity
  8
トラップ
  6
CONTINUOUS
 62
     6
100
AcDbLine
 10
650.51471
 20
1288.231873
 30
0.0
 11
650.51471
 21
1284.231781
 31
0.0
  0
LINE
  5
242
100
AcDbEntity
  8
トラップ
  6
CONTINUOUS
 62
     6
100
AcDbLine
 10
692.447693
 20
1288.231873
 30
0.0
 11
692.447693
 21
1284.212555
 31
0.0
  0
ARC
  5
243
100
AcDbEntity
  8
トラップ
  6
CONTINUOUS
 62
     6
100
AcDbCircle
 10
687.719299
 20
1292.283997
 30
0.0
 40
9.337856
100
AcDbArc
 50
239.577042
 51
300.422119
  0
LINE
  5
244
100
AcDbEntity
  8
トラップ
  6
CONTINUOUS
 62
     6
100
AcDbLine
 10
659.971954
 20
1284.231628
 30
0.0
 11
659.971954
 21
1288.231873
 31
0.0
  0
ARC
  5
245
100
AcDbEntity
  8
トラップ
  6
CONTINUOUS
 62
     6
100
AcDbCircle
 10
655.243408
 20
1292.284454
 30
0.0
 40
9.338417
100
AcDbArc
 50
239.577652
 51
300.421631
  0
LINE
  5
246
100
AcDbEntity
  8
トラップ
  6
CONTINUOUS
 62
     6
100
AcDbLine
 10
662.024109
 20
1284.231781
 30
0.0
 11
662.024109
 21
1288.231873
 31
0.0
  0
ARC
  5
247
100
AcDbEntity
  8
トラップ
  6
CONTINUOUS
 62
     6
100
AcDbCircle
 10
671.481201
 20
1318.370117
 30
0.0
 40
35.423985
100
AcDbArc
 50
254.516068
 51
285.483887
  0
LINE
  5
248
100
AcDbEntity
  8
トラップ
  6
CONTINUOUS
 62
     6
100
AcDbLine
 10
680.938293
 20
1284.231781
 30
0.0
 11
680.938293
 21
1288.231873
 31
0.0
  0
LINE
  5
249
100
AcDbEntity
  8
トラップ
  6
CONTINUOUS
 62
     6
100
AcDbLine
 10
682.990753
 20
1284.231934
 30
0.0
 11
682.990753
 21
1288.231873
 31
0.0
  0
LINE
  5
24A
100
AcDbEntity
  8
トラップ
  6
CONTINUOUS
 62
     6
100
AcDbLine
 10
650.48114
 20
1288.231873
 30
0.0
 11
650.48114
 21
1284.231781
 31
0.0
  0
LINE
  5
24B
100
AcDbEntity
  8
トラップ
  6
CONTINUOUS
 62
     6
100
AcDbLine
 10
692.481262
 20
1288.231873
 30
0.0
 11
692.481262
 21
1284.231781
 31
0.0
  0
LINE
  5
24C
100
AcDbEntity
  8
トラップ
  6
CONTINUOUS
 62
     6
100
AcDbLine
 10
653.981201
 20
1282.231812
 30
0.0
 11
650.48114
 21
1284.231781
 31
0.0
  0
LINE
  5
24D
100
AcDbEntity
  8
トラップ
  6
CONTINUOUS
 62
     6
100
AcDbLine
 10
688.981201
 20
1282.231812
 30
0.0
 11
692.481262
 21
1284.231781
 31
0.0
  0
LINE
  5
24E
100
AcDbEntity
  8
トラップ
  6
CONTINUOUS
 62
     6
100
AcDbLine
 10
688.981201
 20
1282.231812
 30
0.0
 11
653.981201
 21
1282.231812
 31
0.0
  0
LINE
  5
24F
100
AcDbEntity
  8
トラップ
  6
CONTINUOUS
 62
     6
100
AcDbLine
 10
696.481201
 20
1288.231873
 30
0.0
 11
646.481201
 21
1288.231873
 31
0.0
  0
LINE
  5
250
100
AcDbEntity
  8
トラップ
  6
CONTINUOUS
 62
     6
100
AcDbLine
 10
646.481201
 20
1291.231903
 30
0.0
 11
646.481201
 21
1288.231873
 31
0.0
  0
LINE
  5
251
100
AcDbEntity
  8
トラップ
  6
CONTINUOUS
 62
     6
100
AcDbLine
 10
696.481201
 20
1291.231903
 30
0.0
 11
696.481201
 21
1288.231873
 31
0.0
  0
LINE
  5
252
100
AcDbEntity
  8
トラップ
  6
CONTINUOUS
 62
     6
100
AcDbLine
 10
658.781158
 20
1114.103607
 30
0.0
 11
654.981201
 21
1114.103607
 31
0.0
  0
LINE
  5
253
100
AcDbEntity
  8
トラップ
  6
CONTINUOUS
 62
     6
100
AcDbLine
 10
653.981201
 20
1103.103638
 30
0.0
 11
653.981201
 21
1113.103607
 31
0.0
  0
POLYLINE
  5
254
100
AcDbEntity
  8
トラップ
  6
CONTINUOUS
 62
     6
100
AcDb2dPolyline
 66
     1
 10
0.0
 20
0.0
 30
0.0
 70
   128
  0
VERTEX
  5
255
100
AcDbEntity
  8
トラップ
  6
CONTINUOUS
 62
     6
100
AcDbVertex
100
AcDb2dVertex
 10
658.781152
 20
1112.338789
 30
0.0
  0
VERTEX
  5
256
100
AcDbEntity
  8
トラップ
  6
CONTINUOUS
 62
     6
100
AcDbVertex
100
AcDb2dVertex
 10
658.368055
 20
1112.109701
 30
0.0
  0
VERTEX
  5
257
100
AcDbEntity
  8
トラップ
  6
CONTINUOUS
 62
     6
100
AcDbVertex
100
AcDb2dVertex
 10
657.978988
 20
1111.858565
 30
0.0
  0
VERTEX
  5
258
100
AcDbEntity
  8
トラップ
  6
CONTINUOUS
 62
     6
100
AcDbVertex
100
AcDb2dVertex
 10
657.616199
 20
1111.586685
 30
0.0
  0
VERTEX
  5
259
100
AcDbEntity
  8
トラップ
  6
CONTINUOUS
 62
     6
100
AcDbVertex
100
AcDb2dVertex
 10
657.281663
 20
1111.295567
 30
0.0
  0
VERTEX
  5
25A
100
AcDbEntity
  8
トラップ
  6
CONTINUOUS
 62
     6
100
AcDbVertex
100
AcDb2dVertex
 10
656.977123
 20
1110.986878
 30
0.0
  0
VERTEX
  5
25B
100
AcDbEntity
  8
トラップ
  6
CONTINUOUS
 62
     6
100
AcDbVertex
100
AcDb2dVertex
 10
656.704314
 20
1110.662293
 30
0.0
  0
VERTEX
  5
25C
100
AcDbEntity
  8
トラップ
  6
CONTINUOUS
 62
     6
100
AcDbVertex
100
AcDb2dVertex
 10
656.46485
 20
1110.323541
 30
0.0
  0
VERTEX
  5
25D
100
AcDbEntity
  8
トラップ
  6
CONTINUOUS
 62
     6
100
AcDbVertex
100
AcDb2dVertex
 10
656.259916
 20
1109.972544
 30
0.0
  0
VERTEX
  5
25E
100
AcDbEntity
  8
トラップ
  6
CONTINUOUS
 62
     6
100
AcDbVertex
100
AcDb2dVertex
 10
656.090601
 20
1109.611263
 30
0.0
  0
VERTEX
  5
25F
100
AcDbEntity
  8
トラップ
  6
CONTINUOUS
 62
     6
100
AcDbVertex
100
AcDb2dVertex
 10
655.957982
 20
1109.241667
 30
0.0
  0
VERTEX
  5
260
100
AcDbEntity
  8
トラップ
  6
CONTINUOUS
 62
     6
100
AcDbVertex
100
AcDb2dVertex
 10
655.862778
 20
1108.865785
 30
0.0
  0
VERTEX
  5
261
100
AcDbEntity
  8
トラップ
  6
CONTINUOUS
 62
     6
100
AcDbVertex
100
AcDb2dVertex
 10
655.80538
 20
1108.485713
 30
0.0
  0
VERTEX
  5
262
100
AcDbEntity
  8
トラップ
  6
CONTINUOUS
 62
     6
100
AcDbVertex
100
AcDb2dVertex
 10
655.786163
 20
1108.103545
 30
0.0
  0
VERTEX
  5
263
100
AcDbEntity
  8
トラップ
  6
CONTINUOUS
 62
     6
100
AcDbVertex
100
AcDb2dVertex
 10
655.80538
 20
1107.721377
 30
0.0
  0
VERTEX
  5
264
100
AcDbEntity
  8
トラップ
  6
CONTINUOUS
 62
     6
100
AcDbVertex
100
AcDb2dVertex
 10
655.862779
 20
1107.341304
 30
0.0
  0
VERTEX
  5
265
100
AcDbEntity
  8
トラップ
  6
CONTINUOUS
 62
     6
100
AcDbVertex
100
AcDb2dVertex
 10
655.957983
 20
1106.965423
 30
0.0
  0
VERTEX
  5
266
100
AcDbEntity
  8
トラップ
  6
CONTINUOUS
 62
     6
100
AcDbVertex
100
AcDb2dVertex
 10
656.090602
 20
1106.595827
 30
0.0
  0
VERTEX
  5
267
100
AcDbEntity
  8
トラップ
  6
CONTINUOUS
 62
     6
100
AcDbVertex
100
AcDb2dVertex
 10
656.259917
 20
1106.234546
 30
0.0
  0
VERTEX
  5
268
100
AcDbEntity
  8
トラップ
  6
CONTINUOUS
 62
     6
100
AcDbVertex
100
AcDb2dVertex
 10
656.464852
 20
1105.883549
 30
0.0
  0
VERTEX
  5
269
100
AcDbEntity
  8
トラップ
  6
CONTINUOUS
 62
     6
100
AcDbVertex
100
AcDb2dVertex
 10
656.704316
 20
1105.544797
 30
0.0
  0
VERTEX
  5
26A
100
AcDbEntity
  8
トラップ
  6
CONTINUOUS
 62
     6
100
AcDbVertex
100
AcDb2dVertex
 10
656.977125
 20
1105.220212
 30
0.0
  0
VERTEX
  5
26B
100
AcDbEntity
  8
トラップ
  6
CONTINUOUS
 62
     6
100
AcDbVertex
100
AcDb2dVertex
 10
657.281665
 20
1104.911524
 30
0.0
  0
VERTEX
  5
26C
100
AcDbEntity
  8
トラップ
  6
CONTINUOUS
 62
     6
100
AcDbVertex
100
AcDb2dVertex
 10
657.616202
 20
1104.620405
 30
0.0
  0
VERTEX
  5
26D
100
AcDbEntity
  8
トラップ
  6
CONTINUOUS
 62
     6
100
AcDbVertex
100
AcDb2dVertex
 10
657.97899
 20
1104.348526
 30
0.0
  0
VERTEX
  5
26E
100
AcDbEntity
  8
トラップ
  6
CONTINUOUS
 62
     6
100
AcDbVertex
100
AcDb2dVertex
 10
658.368058
 20
1104.09739
 30
0.0
  0
VERTEX
  5
26F
100
AcDbEntity
  8
トラップ
  6
CONTINUOUS
 62
     6
100
AcDbVertex
100
AcDb2dVertex
 10
658.781155
 20
1103.868302
 30
0.0
  0
SEQEND
  5
270
100
AcDbEntity
  8
トラップ
  6
CONTINUOUS
 62
     6
  0
LINE
  5
271
100
AcDbEntity
  8
トラップ
  6
CONTINUOUS
 62
     6
100
AcDbLine
 10
658.781158
 20
1102.103638
 30
0.0
 11
654.981201
 21
1102.103638
 31
0.0
  0
LINE
  5
272
100
AcDbEntity
  8
トラップ
  6
CONTINUOUS
 62
     6
100
AcDbLine
 10
687.981201
 20
1114.103607
 30
0.0
 11
684.181244
 21
1114.103607
 31
0.0
  0
LINE
  5
273
100
AcDbEntity
  8
トラップ
  6
CONTINUOUS
 62
     6
100
AcDbLine
 10
688.981201
 20
1103.103638
 30
0.0
 11
688.981201
 21
1113.103607
 31
0.0
  0
POLYLINE
  5
274
100
AcDbEntity
  8
トラップ
  6
CONTINUOUS
 62
     6
100
AcDb2dPolyline
 66
     1
 10
0.0
 20
0.0
 30
0.0
 70
   128
  0
VERTEX
  5
275
100
AcDbEntity
  8
トラップ
  6
CONTINUOUS
 62
     6
100
AcDbVertex
100
AcDb2dVertex
 10
687.176239
 20
1108.103546
 30
0.0
  0
VERTEX
  5
276
100
AcDbEntity
  8
トラップ
  6
CONTINUOUS
 62
     6
100
AcDbVertex
100
AcDb2dVertex
 10
687.171427
 20
1108.294761
 30
0.0
  0
VERTEX
  5
277
100
AcDbEntity
  8
トラップ
  6
CONTINUOUS
 62
     6
100
AcDbVertex
100
AcDb2dVertex
 10
687.157023
 20
1108.485714
 30
0.0
  0
VERTEX
  5
278
100
AcDbEntity
  8
トラップ
  6
CONTINUOUS
 62
     6
100
AcDbVertex
100
AcDb2dVertex
 10
687.133072
 20
1108.676144
 30
0.0
  0
VERTEX
  5
279
100
AcDbEntity
  8
トラップ
  6
CONTINUOUS
 62
     6
100
AcDbVertex
100
AcDb2dVertex
 10
687.099624
 20
1108.865787
 30
0.0
  0
VERTEX
  5
27A
100
AcDbEntity
  8
トラップ
  6
CONTINUOUS
 62
     6
100
AcDbVertex
100
AcDb2dVertex
 10
687.056724
 20
1109.054383
 30
0.0
  0
VERTEX
  5
27B
100
AcDbEntity
  8
トラップ
  6
CONTINUOUS
 62
     6
100
AcDbVertex
100
AcDb2dVertex
 10
687.00442
 20
1109.241669
 30
0.0
  0
VERTEX
  5
27C
100
AcDbEntity
  8
トラップ
  6
CONTINUOUS
 62
     6
100
AcDbVertex
100
AcDb2dVertex
 10
686.942759
 20
1109.427383
 30
0.0
  0
VERTEX
  5
27D
100
AcDbEntity
  8
トラップ
  6
CONTINUOUS
 62
     6
100
AcDbVertex
100
AcDb2dVertex
 10
686.8718
 20
1109.611265
 30
0.0
  0
VERTEX
  5
27E
100
AcDbEntity
  8
トラップ
  6
CONTINUOUS
 62
     6
100
AcDbVertex
100
AcDb2dVertex
 10
686.791664
 20
1109.793068
 30
0.0
  0
VERTEX
  5
27F
100
AcDbEntity
  8
トラップ
  6
CONTINUOUS
 62
     6
100
AcDbVertex
100
AcDb2dVertex
 10
686.702486
 20
1109.972546
 30
0.0
  0
VERTEX
  5
280
100
AcDbEntity
  8
トラップ
  6
CONTINUOUS
 62
     6
100
AcDbVertex
100
AcDb2dVertex
 10
686.604402
 20
1110.149453
 30
0.0
  0
VERTEX
  5
281
100
AcDbEntity
  8
トラップ
  6
CONTINUOUS
 62
     6
100
AcDbVertex
100
AcDb2dVertex
 10
686.497551
 20
1110.323544
 30
0.0
  0
VERTEX
  5
282
100
AcDbEntity
  8
トラップ
  6
CONTINUOUS
 62
     6
100
AcDbVertex
100
AcDb2dVertex
 10
686.382066
 20
1110.494574
 30
0.0
  0
VERTEX
  5
283
100
AcDbEntity
  8
トラップ
  6
CONTINUOUS
 62
     6
100
AcDbVertex
100
AcDb2dVertex
 10
686.258086
 20
1110.662296
 30
0.0
  0
VERTEX
  5
284
100
AcDbEntity
  8
トラップ
  6
CONTINUOUS
 62
     6
100
AcDbVertex
100
AcDb2dVertex
 10
686.125757
 20
1110.826471
 30
0.0
  0
VERTEX
  5
285
100
AcDbEntity
  8
トラップ
  6
CONTINUOUS
 62
     6
100
AcDbVertex
100
AcDb2dVertex
 10
685.985277
 20
1110.986881
 30
0.0
  0
VERTEX
  5
286
100
AcDbEntity
  8
トラップ
  6
CONTINUOUS
 62
     6
100
AcDbVertex
100
AcDb2dVertex
 10
685.836865
 20
1111.143317
 30
0.0
  0
VERTEX
  5
287
100
AcDbEntity
  8
トラップ
  6
CONTINUOUS
 62
     6
100
AcDbVertex
100
AcDb2dVertex
 10
685.680736
 20
1111.29557
 30
0.0
  0
VERTEX
  5
288
100
AcDbEntity
  8
トラップ
  6
CONTINUOUS
 62
     6
100
AcDbVertex
100
AcDb2dVertex
 10
685.517109
 20
1111.44343
 30
0.0
  0
VERTEX
  5
289
100
AcDbEntity
  8
トラップ
  6
CONTINUOUS
 62
     6
100
AcDbVertex
100
AcDb2dVertex
 10
685.346199
 20
1111.586688
 30
0.0
  0
VERTEX
  5
28A
100
AcDbEntity
  8
トラップ
  6
CONTINUOUS
 62
     6
100
AcDbVertex
100
AcDb2dVertex
 10
685.168225
 20
1111.725136
 30
0.0
  0
VERTEX
  5
28B
100
AcDbEntity
  8
トラップ
  6
CONTINUOUS
 62
     6
100
AcDbVertex
100
AcDb2dVertex
 10
684.98341
 20
1111.858568
 30
0.0
  0
VERTEX
  5
28C
100
AcDbEntity
  8
トラップ
  6
CONTINUOUS
 62
     6
100
AcDbVertex
100
AcDb2dVertex
 10
684.792022
 20
1111.986811
 30
0.0
  0
VERTEX
  5
28D
100
AcDbEntity
  8
トラップ
  6
CONTINUOUS
 62
     6
100
AcDbVertex
100
AcDb2dVertex
 10
684.594342
 20
1112.109704
 30
0.0
  0
VERTEX
  5
28E
100
AcDbEntity
  8
トラップ
  6
CONTINUOUS
 62
     6
100
AcDbVertex
100
AcDb2dVertex
 10
684.390656
 20
1112.227085
 30
0.0
  0
VERTEX
  5
28F
100
AcDbEntity
  8
トラップ
  6
CONTINUOUS
 62
     6
100
AcDbVertex
100
AcDb2dVertex
 10
684.181245
 20
1112.338792
 30
0.0
  0
SEQEND
  5
290
100
AcDbEntity
  8
トラップ
  6
CONTINUOUS
 62
     6
  0
POLYLINE
  5
291
100
AcDbEntity
  8
トラップ
  6
CONTINUOUS
 62
     6
100
AcDb2dPolyline
 66
     1
 10
0.0
 20
0.0
 30
0.0
 70
   128
  0
VERTEX
  5
292
100
AcDbEntity
  8
トラップ
  6
CONTINUOUS
 62
     6
100
AcDbVertex
100
AcDb2dVertex
 10
684.181248
 20
1103.868302
 30
0.0
  0
VERTEX
  5
293
100
AcDbEntity
  8
トラップ
  6
CONTINUOUS
 62
     6
100
AcDbVertex
100
AcDb2dVertex
 10
684.390658
 20
1103.980009
 30
0.0
  0
VERTEX
  5
294
100
AcDbEntity
  8
トラップ
  6
CONTINUOUS
 62
     6
100
AcDbVertex
100
AcDb2dVertex
 10
684.594345
 20
1104.09739
 30
0.0
  0
VERTEX
  5
295
100
AcDbEntity
  8
トラップ
  6
CONTINUOUS
 62
     6
100
AcDbVertex
100
AcDb2dVertex
 10
684.792024
 20
1104.220283
 30
0.0
  0
VERTEX
  5
296
100
AcDbEntity
  8
トラップ
  6
CONTINUOUS
 62
     6
100
AcDbVertex
100
AcDb2dVertex
 10
684.983413
 20
1104.348526
 30
0.0
  0
VERTEX
  5
297
100
AcDbEntity
  8
トラップ
  6
CONTINUOUS
 62
     6
100
AcDbVertex
100
AcDb2dVertex
 10
685.168227
 20
1104.481958
 30
0.0
  0
VERTEX
  5
298
100
AcDbEntity
  8
トラップ
  6
CONTINUOUS
 62
     6
100
AcDbVertex
100
AcDb2dVertex
 10
685.346201
 20
1104.620406
 30
0.0
  0
VERTEX
  5
299
100
AcDbEntity
  8
トラップ
  6
CONTINUOUS
 62
     6
100
AcDbVertex
100
AcDb2dVertex
 10
685.51711
 20
1104.763664
 30
0.0
  0
VERTEX
  5
29A
100
AcDbEntity
  8
トラップ
  6
CONTINUOUS
 62
     6
100
AcDbVertex
100
AcDb2dVertex
 10
685.680737
 20
1104.911524
 30
0.0
  0
VERTEX
  5
29B
100
AcDbEntity
  8
トラップ
  6
CONTINUOUS
 62
     6
100
AcDbVertex
100
AcDb2dVertex
 10
685.836866
 20
1105.063777
 30
0.0
  0
VERTEX
  5
29C
100
AcDbEntity
  8
トラップ
  6
CONTINUOUS
 62
     6
100
AcDbVertex
100
AcDb2dVertex
 10
685.985278
 20
1105.220212
 30
0.0
  0
VERTEX
  5
29D
100
AcDbEntity
  8
トラップ
  6
CONTINUOUS
 62
     6
100
AcDbVertex
100
AcDb2dVertex
 10
686.125758
 20
1105.380622
 30
0.0
  0
VERTEX
  5
29E
100
AcDbEntity
  8
トラップ
  6
CONTINUOUS
 62
     6
100
AcDbVertex
100
AcDb2dVertex
 10
686.258087
 20
1105.544797
 30
0.0
  0
VERTEX
  5
29F
100
AcDbEntity
  8
トラップ
  6
CONTINUOUS
 62
     6
100
AcDbVertex
100
AcDb2dVertex
 10
686.382067
 20
1105.71252
 30
0.0
  0
VERTEX
  5
2A0
100
AcDbEntity
  8
トラップ
  6
CONTINUOUS
 62
     6
100
AcDbVertex
100
AcDb2dVertex
 10
686.497551
 20
1105.883549
 30
0.0
  0
VERTEX
  5
2A1
100
AcDbEntity
  8
トラップ
  6
CONTINUOUS
 62
     6
100
AcDbVertex
100
AcDb2dVertex
 10
686.604403
 20
1106.05764
 30
0.0
  0
VERTEX
  5
2A2
100
AcDbEntity
  8
トラップ
  6
CONTINUOUS
 62
     6
100
AcDbVertex
100
AcDb2dVertex
 10
686.702486
 20
1106.234547
 30
0.0
  0
VERTEX
  5
2A3
100
AcDbEntity
  8
トラップ
  6
CONTINUOUS
 62
     6
100
AcDbVertex
100
AcDb2dVertex
 10
686.791664
 20
1106.414025
 30
0.0
  0
VERTEX
  5
2A4
100
AcDbEntity
  8
トラップ
  6
CONTINUOUS
 62
     6
100
AcDbVertex
100
AcDb2dVertex
 10
686.871801
 20
1106.595828
 30
0.0
  0
VERTEX
  5
2A5
100
AcDbEntity
  8
トラップ
  6
CONTINUOUS
 62
     6
100
AcDbVertex
100
AcDb2dVertex
 10
686.942759
 20
1106.77971
 30
0.0
  0
VERTEX
  5
2A6
100
AcDbEntity
  8
トラップ
  6
CONTINUOUS
 62
     6
100
AcDbVertex
100
AcDb2dVertex
 10
687.00442
 20
1106.965424
 30
0.0
  0
VERTEX
  5
2A7
100
AcDbEntity
  8
トラップ
  6
CONTINUOUS
 62
     6
100
AcDbVertex
100
AcDb2dVertex
 10
687.056724
 20
1107.15271
 30
0.0
  0
VERTEX
  5
2A8
100
AcDbEntity
  8
トラップ
  6
CONTINUOUS
 62
     6
100
AcDbVertex
100
AcDb2dVertex
 10
687.099624
 20
1107.341306
 30
0.0
  0
VERTEX
  5
2A9
100
AcDbEntity
  8
トラップ
  6
CONTINUOUS
 62
     6
100
AcDbVertex
100
AcDb2dVertex
 10
687.133073
 20
1107.530949
 30
0.0
  0
VERTEX
  5
2AA
100
AcDbEntity
  8
トラップ
  6
CONTINUOUS
 62
     6
100
AcDbVertex
100
AcDb2dVertex
 10
687.157023
 20
1107.721378
 30
0.0
  0
VERTEX
  5
2AB
100
AcDbEntity
  8
トラップ
  6
CONTINUOUS
 62
     6
100
AcDbVertex
100
AcDb2dVertex
 10
687.171427
 20
1107.912331
 30
0.0
  0
VERTEX
  5
2AC
100
AcDbEntity
  8
トラップ
  6
CONTINUOUS
 62
     6
100
AcDbVertex
100
AcDb2dVertex
 10
687.176239
 20
1108.103546
 30
0.0
  0
SEQEND
  5
2AD
100
AcDbEntity
  8
トラップ
  6
CONTINUOUS
 62
     6
  0
LINE
  5
2AE
100
AcDbEntity
  8
トラップ
  6
CONTINUOUS
 62
     6
100
AcDbLine
 10
687.981201
 20
1102.103638
 30
0.0
 11
684.181244
 21
1102.103638
 31
0.0
  0
LINE
  5
2AF
100
AcDbEntity
  8
トラップ
  6
CONTINUOUS
 62
     6
100
AcDbLine
 10
658.781311
 20
1137.603668
 30
0.0
 11
684.181091
 21
1137.603668
 31
0.0
  0
ARC
  5
2B0
100
AcDbEntity
  8
トラップ
  6
CONTINUOUS
 62
     6
100
AcDbCircle
 10
683.181183
 20
1138.139557
 30
0.0
 40
2.0
100
AcDbArc
 50
330.001953
 51
0.0
  0
LINE
  5
2B1
100
AcDbEntity
  8
トラップ
  6
CONTINUOUS
 62
     6
100
AcDbLine
 10
684.449188
 20
1136.335815
 30
0.0
 11
685.181152
 21
1137.603516
 31
0.0
  0
ARC
  5
2B2
100
AcDbEntity
  8
トラップ
  6
CONTINUOUS
 62
     6
100
AcDbCircle
 10
686.181214
 20
1135.335907
 30
0.0
 40
2.0
100
AcDbArc
 50
150.001907
 51
180.0
  0
LINE
  5
2B3
100
AcDbEntity
  8
トラップ
  6
CONTINUOUS
 62
     6
100
AcDbLine
 10
684.449188
 20
1136.335815
 30
0.0
 11
685.181152
 21
1137.603516
 31
0.0
  0
LINE
  5
2B4
100
AcDbEntity
  8
トラップ
  6
CONTINUOUS
 62
     6
100
AcDbLine
 10
684.449188
 20
1136.335815
 30
0.0
 11
685.181152
 21
1137.603516
 31
0.0
  0
LINE
  5
2B5
100
AcDbEntity
  8
トラップ
  6
CONTINUOUS
 62
     6
100
AcDbLine
 10
684.449188
 20
1136.335815
 30
0.0
 11
685.181152
 21
1137.603516
 31
0.0
  0
LINE
  5
2B6
100
AcDbEntity
  8
トラップ
  6
CONTINUOUS
 62
     6
100
AcDbLine
 10
684.449188
 20
1136.335815
 30
0.0
 11
685.181152
 21
1137.603516
 31
0.0
  0
ARC
  5
2B7
100
AcDbEntity
  8
トラップ
  6
CONTINUOUS
 62
     6
100
AcDbCircle
 10
656.781189
 20
1135.335907
 30
0.0
 40
2.0
100
AcDbArc
 50
0.0
 51
29.998093
  0
LINE
  5
2B8
100
AcDbEntity
  8
トラップ
  6
CONTINUOUS
 62
     6
100
AcDbLine
 10
658.513214
 20
1136.335815
 30
0.0
 11
657.78125
 21
1137.603516
 31
0.0
  0
LINE
  5
2B9
100
AcDbEntity
  8
トラップ
  6
CONTINUOUS
 62
     6
100
AcDbLine
 10
658.513214
 20
1136.335815
 30
0.0
 11
657.78125
 21
1137.603516
 31
0.0
  0
LINE
  5
2BA
100
AcDbEntity
  8
トラップ
  6
CONTINUOUS
 62
     6
100
AcDbLine
 10
658.513214
 20
1136.335815
 30
0.0
 11
657.78125
 21
1137.603516
 31
0.0
  0
LINE
  5
2BB
100
AcDbEntity
  8
トラップ
  6
CONTINUOUS
 62
     6
100
AcDbLine
 10
658.513214
 20
1136.335815
 30
0.0
 11
657.78125
 21
1137.603516
 31
0.0
  0
ARC
  5
2BC
100
AcDbEntity
  8
トラップ
  6
CONTINUOUS
 62
     6
100
AcDbCircle
 10
659.78122
 20
1138.139557
 30
0.0
 40
2.0
100
AcDbArc
 50
180.0
 51
209.998047
  0
LINE
  5
2BD
100
AcDbEntity
  8
トラップ
  6
CONTINUOUS
 62
     6
100
AcDbLine
 10
684.181244
 20
1066.603607
 30
0.0
 11
684.181244
 21
1135.335907
 31
0.0
  0
LINE
  5
2BE
100
AcDbEntity
  8
トラップ
  6
CONTINUOUS
 62
     6
100
AcDbLine
 10
658.781158
 20
1066.603607
 30
0.0
 11
658.781158
 21
1135.335907
 31
0.0
  0
LINE
  5
2BF
100
AcDbEntity
  8
トラップ
  6
CONTINUOUS
 62
     6
100
AcDbLine
 10
688.231384
 20
1188.603729
 30
0.0
 11
654.731018
 21
1188.603729
 31
0.0
  0
ARC
  5
2C0
100
AcDbEntity
  8
トラップ
  6
CONTINUOUS
 62
     6
100
AcDbCircle
 10
660.681183
 20
1182.603821
 30
0.0
 40
8.45
100
AcDbArc
 50
134.761505
 51
225.240753
  0
POLYLINE
  5
2C1
100
AcDbEntity
  8
トラップ
  6
CONTINUOUS
 62
     6
100
AcDb2dPolyline
 66
     1
 10
0.0
 20
0.0
 30
0.0
 70
   128
  0
VERTEX
  5
2C2
100
AcDbEntity
  8
トラップ
  6
CONTINUOUS
 62
     6
100
AcDbVertex
100
AcDb2dVertex
 10
660.335571
 20
1182.603821
 30
0.0
  0
VERTEX
  5
2C3
100
AcDbEntity
  8
トラップ
  6
CONTINUOUS
 62
     6
100
AcDbVertex
100
AcDb2dVertex
 10
660.219037
 20
1183.836051
 30
0.0
  0
VERTEX
  5
2C4
100
AcDbEntity
  8
トラップ
  6
CONTINUOUS
 62
     6
100
AcDbVertex
100
AcDb2dVertex
 10
659.876278
 20
1184.996665
 30
0.0
  0
VERTEX
  5
2C5
100
AcDbEntity
  8
トラップ
  6
CONTINUOUS
 62
     6
100
AcDbVertex
100
AcDb2dVertex
 10
659.327176
 20
1186.018218
 30
0.0
  0
VERTEX
  5
2C6
100
AcDbEntity
  8
トラップ
  6
CONTINUOUS
 62
     6
100
AcDbVertex
100
AcDb2dVertex
 10
658.603626
 20
1186.841393
 30
0.0
  0
VERTEX
  5
2C7
100
AcDbEntity
  8
トラップ
  6
CONTINUOUS
 62
     6
100
AcDbVertex
100
AcDb2dVertex
 10
657.747681
 20
1187.418286
 30
0.0
  0
VERTEX
  5
2C8
100
AcDbEntity
  8
トラップ
  6
CONTINUOUS
 62
     6
100
AcDbVertex
100
AcDb2dVertex
 10
656.809147
 20
1187.715346
 30
0.0
  0
VERTEX
  5
2C9
100
AcDbEntity
  8
トラップ
  6
CONTINUOUS
 62
     6
100
AcDbVertex
100
AcDb2dVertex
 10
655.84251
 20
1187.715346
 30
0.0
  0
VERTEX
  5
2CA
100
AcDbEntity
  8
トラップ
  6
CONTINUOUS
 62
     6
100
AcDbVertex
100
AcDb2dVertex
 10
654.903906
 20
1187.418286
 30
0.0
  0
VERTEX
  5
2CB
100
AcDbEntity
  8
トラップ
  6
CONTINUOUS
 62
     6
100
AcDbVertex
100
AcDb2dVertex
 10
654.047955
 20
1186.841393
 30
0.0
  0
VERTEX
  5
2CC
100
AcDbEntity
  8
トラップ
  6
CONTINUOUS
 62
     6
100
AcDbVertex
100
AcDb2dVertex
 10
653.324405
 20
1186.018218
 30
0.0
  0
VERTEX
  5
2CD
100
AcDbEntity
  8
トラップ
  6
CONTINUOUS
 62
     6
100
AcDbVertex
100
AcDb2dVertex
 10
652.775303
 20
1184.996665
 30
0.0
  0
VERTEX
  5
2CE
100
AcDbEntity
  8
トラップ
  6
CONTINUOUS
 62
     6
100
AcDbVertex
100
AcDb2dVertex
 10
652.432544
 20
1183.836051
 30
0.0
  0
VERTEX
  5
2CF
100
AcDbEntity
  8
トラップ
  6
CONTINUOUS
 62
     6
100
AcDbVertex
100
AcDb2dVertex
 10
652.31601
 20
1182.603821
 30
0.0
  0
VERTEX
  5
2D0
100
AcDbEntity
  8
トラップ
  6
CONTINUOUS
 62
     6
100
AcDbVertex
100
AcDb2dVertex
 10
652.432544
 20
1181.37159
 30
0.0
  0
VERTEX
  5
2D1
100
AcDbEntity
  8
トラップ
  6
CONTINUOUS
 62
     6
100
AcDbVertex
100
AcDb2dVertex
 10
652.775303
 20
1180.210977
 30
0.0
  0
VERTEX
  5
2D2
100
AcDbEntity
  8
トラップ
  6
CONTINUOUS
 62
     6
100
AcDbVertex
100
AcDb2dVertex
 10
653.324405
 20
1179.189423
 30
0.0
  0
VERTEX
  5
2D3
100
AcDbEntity
  8
トラップ
  6
CONTINUOUS
 62
     6
100
AcDbVertex
100
AcDb2dVertex
 10
654.047955
 20
1178.366249
 30
0.0
  0
VERTEX
  5
2D4
100
AcDbEntity
  8
トラップ
  6
CONTINUOUS
 62
     6
100
AcDbVertex
100
AcDb2dVertex
 10
654.903906
 20
1177.789356
 30
0.0
  0
VERTEX
  5
2D5
100
AcDbEntity
  8
トラップ
  6
CONTINUOUS
 62
     6
100
AcDbVertex
100
AcDb2dVertex
 10
655.84251
 20
1177.492296
 30
0.0
  0
VERTEX
  5
2D6
100
AcDbEntity
  8
トラップ
  6
CONTINUOUS
 62
     6
100
AcDbVertex
100
AcDb2dVertex
 10
656.809147
 20
1177.492296
 30
0.0
  0
VERTEX
  5
2D7
100
AcDbEntity
  8
トラップ
  6
CONTINUOUS
 62
     6
100
AcDbVertex
100
AcDb2dVertex
 10
657.747681
 20
1177.789356
 30
0.0
  0
VERTEX
  5
2D8
100
AcDbEntity
  8
トラップ
  6
CONTINUOUS
 62
     6
100
AcDbVertex
100
AcDb2dVertex
 10
658.603626
 20
1178.366249
 30
0.0
  0
VERTEX
  5
2D9
100
AcDbEntity
  8
トラップ
  6
CONTINUOUS
 62
     6
100
AcDbVertex
100
AcDb2dVertex
 10
659.327176
 20
1179.189423
 30
0.0
  0
VERTEX
  5
2DA
100
AcDbEntity
  8
トラップ
  6
CONTINUOUS
 62
     6
100
AcDbVertex
100
AcDb2dVertex
 10
659.876278
 20
1180.210977
 30
0.0
  0
VERTEX
  5
2DB
100
AcDbEntity
  8
トラップ
  6
CONTINUOUS
 62
     6
100
AcDbVertex
100
AcDb2dVertex
 10
660.219037
 20
1181.37159
 30
0.0
  0
VERTEX
  5
2DC
100
AcDbEntity
  8
トラップ
  6
CONTINUOUS
 62
     6
100
AcDbVertex
100
AcDb2dVertex
 10
660.335571
 20
1182.603821
 30
0.0
  0
SEQEND
  5
2DD
100
AcDbEntity
  8
トラップ
  6
CONTINUOUS
 62
     6
  0
POLYLINE
  5
2DE
100
AcDbEntity
  8
トラップ
  6
CONTINUOUS
 62
     6
100
AcDb2dPolyline
 66
     1
 10
0.0
 20
0.0
 30
0.0
 70
   128
  0
VERTEX
  5
2DF
100
AcDbEntity
  8
トラップ
  6
CONTINUOUS
 62
     6
100
AcDbVertex
100
AcDb2dVertex
 10
679.500763
 20
1182.603821
 30
0.0
  0
VERTEX
  5
2E0
100
AcDbEntity
  8
トラップ
  6
CONTINUOUS
 62
     6
100
AcDbVertex
100
AcDb2dVertex
 10
679.267695
 20
1183.836051
 30
0.0
  0
VERTEX
  5
2E1
100
AcDbEntity
  8
トラップ
  6
CONTINUOUS
 62
     6
100
AcDbVertex
100
AcDb2dVertex
 10
678.582161
 20
1184.996665
 30
0.0
  0
VERTEX
  5
2E2
100
AcDbEntity
  8
トラップ
  6
CONTINUOUS
 62
     6
100
AcDbVertex
100
AcDb2dVertex
 10
677.483865
 20
1186.018218
 30
0.0
  0
VERTEX
  5
2E3
100
AcDbEntity
  8
トラップ
  6
CONTINUOUS
 62
     6
100
AcDbVertex
100
AcDb2dVertex
 10
676.036729
 20
1186.841393
 30
0.0
  0
VERTEX
  5
2E4
100
AcDbEntity
  8
トラップ
  6
CONTINUOUS
 62
     6
100
AcDbVertex
100
AcDb2dVertex
 10
674.324913
 20
1187.418286
 30
0.0
  0
VERTEX
  5
2E5
100
AcDbEntity
  8
トラップ
  6
CONTINUOUS
 62
     6
100
AcDbVertex
100
AcDb2dVertex
 10
672.447836
 20
1187.715346
 30
0.0
  0
VERTEX
  5
2E6
100
AcDbEntity
  8
トラップ
  6
CONTINUOUS
 62
     6
100
AcDbVertex
100
AcDb2dVertex
 10
670.514567
 20
1187.715346
 30
0.0
  0
VERTEX
  5
2E7
100
AcDbEntity
  8
トラップ
  6
CONTINUOUS
 62
     6
100
AcDbVertex
100
AcDb2dVertex
 10
668.63749
 20
1187.418286
 30
0.0
  0
VERTEX
  5
2E8
100
AcDbEntity
  8
トラップ
  6
CONTINUOUS
 62
     6
100
AcDbVertex
100
AcDb2dVertex
 10
666.925674
 20
1186.841393
 30
0.0
  0
VERTEX
  5
2E9
100
AcDbEntity
  8
トラップ
  6
CONTINUOUS
 62
     6
100
AcDbVertex
100
AcDb2dVertex
 10
665.478537
 20
1186.018218
 30
0.0
  0
VERTEX
  5
2EA
100
AcDbEntity
  8
トラップ
  6
CONTINUOUS
 62
     6
100
AcDbVertex
100
AcDb2dVertex
 10
664.380241
 20
1184.996665
 30
0.0
  0
VERTEX
  5
2EB
100
AcDbEntity
  8
トラップ
  6
CONTINUOUS
 62
     6
100
AcDbVertex
100
AcDb2dVertex
 10
663.694708
 20
1183.836051
 30
0.0
  0
VERTEX
  5
2EC
100
AcDbEntity
  8
トラップ
  6
CONTINUOUS
 62
     6
100
AcDbVertex
100
AcDb2dVertex
 10
663.46164
 20
1182.603821
 30
0.0
  0
VERTEX
  5
2ED
100
AcDbEntity
  8
トラップ
  6
CONTINUOUS
 62
     6
100
AcDbVertex
100
AcDb2dVertex
 10
663.694708
 20
1181.37159
 30
0.0
  0
VERTEX
  5
2EE
100
AcDbEntity
  8
トラップ
  6
CONTINUOUS
 62
     6
100
AcDbVertex
100
AcDb2dVertex
 10
664.380241
 20
1180.210977
 30
0.0
  0
VERTEX
  5
2EF
100
AcDbEntity
  8
トラップ
  6
CONTINUOUS
 62
     6
100
AcDbVertex
100
AcDb2dVertex
 10
665.478537
 20
1179.189423
 30
0.0
  0
VERTEX
  5
2F0
100
AcDbEntity
  8
トラップ
  6
CONTINUOUS
 62
     6
100
AcDbVertex
100
AcDb2dVertex
 10
666.925674
 20
1178.366249
 30
0.0
  0
VERTEX
  5
2F1
100
AcDbEntity
  8
トラップ
  6
CONTINUOUS
 62
     6
100
AcDbVertex
100
AcDb2dVertex
 10
668.63749
 20
1177.789356
 30
0.0
  0
VERTEX
  5
2F2
100
AcDbEntity
  8
トラップ
  6
CONTINUOUS
 62
     6
100
AcDbVertex
100
AcDb2dVertex
 10
670.514567
 20
1177.492296
 30
0.0
  0
VERTEX
  5
2F3
100
AcDbEntity
  8
トラップ
  6
CONTINUOUS
 62
     6
100
AcDbVertex
100
AcDb2dVertex
 10
672.447836
 20
1177.492296
 30
0.0
  0
VERTEX
  5
2F4
100
AcDbEntity
  8
トラップ
  6
CONTINUOUS
 62
     6
100
AcDbVertex
100
AcDb2dVertex
 10
674.324913
 20
1177.789356
 30
0.0
  0
VERTEX
  5
2F5
100
AcDbEntity
  8
トラップ
  6
CONTINUOUS
 62
     6
100
AcDbVertex
100
AcDb2dVertex
 10
676.036729
 20
1178.366249
 30
0.0
  0
VERTEX
  5
2F6
100
AcDbEntity
  8
トラップ
  6
CONTINUOUS
 62
     6
100
AcDbVertex
100
AcDb2dVertex
 10
677.483865
 20
1179.189423
 30
0.0
  0
VERTEX
  5
2F7
100
AcDbEntity
  8
トラップ
  6
CONTINUOUS
 62
     6
100
AcDbVertex
100
AcDb2dVertex
 10
678.582161
 20
1180.210977
 30
0.0
  0
VERTEX
  5
2F8
100
AcDbEntity
  8
トラップ
  6
CONTINUOUS
 62
     6
100
AcDbVertex
100
AcDb2dVertex
 10
679.267695
 20
1181.37159
 30
0.0
  0
VERTEX
  5
2F9
100
AcDbEntity
  8
トラップ
  6
CONTINUOUS
 62
     6
100
AcDbVertex
100
AcDb2dVertex
 10
679.500763
 20
1182.603821
 30
0.0
  0
SEQEND
  5
2FA
100
AcDbEntity
  8
トラップ
  6
CONTINUOUS
 62
     6
  0
ARC
  5
2FB
100
AcDbEntity
  8
トラップ
  6
CONTINUOUS
 62
     6
100
AcDbCircle
 10
682.28122
 20
1182.603821
 30
0.0
 40
8.45
100
AcDbArc
 50
314.759277
 51
45.238495
  0
POLYLINE
  5
2FC
100
AcDbEntity
  8
トラップ
  6
CONTINUOUS
 62
     6
100
AcDb2dPolyline
 66
     1
 10
0.0
 20
0.0
 30
0.0
 70
   128
  0
VERTEX
  5
2FD
100
AcDbEntity
  8
トラップ
  6
CONTINUOUS
 62
     6
100
AcDbVertex
100
AcDb2dVertex
 10
690.731232
 20
1182.603821
 30
0.0
  0
VERTEX
  5
2FE
100
AcDbEntity
  8
トラップ
  6
CONTINUOUS
 62
     6
100
AcDbVertex
100
AcDb2dVertex
 10
690.613488
 20
1183.836051
 30
0.0
  0
VERTEX
  5
2FF
100
AcDbEntity
  8
トラップ
  6
CONTINUOUS
 62
     6
100
AcDbVertex
100
AcDb2dVertex
 10
690.267046
 20
1184.996665
 30
0.0
  0
VERTEX
  5
300
100
AcDbEntity
  8
トラップ
  6
CONTINUOUS
 62
     6
100
AcDbVertex
100
AcDb2dVertex
 10
689.712153
 20
1186.018218
 30
0.0
  0
VERTEX
  5
301
100
AcDbEntity
  8
トラップ
  6
CONTINUOUS
 62
     6
100
AcDbVertex
100
AcDb2dVertex
 10
688.980921
 20
1186.841393
 30
0.0
  0
VERTEX
  5
302
100
AcDbEntity
  8
トラップ
  6
CONTINUOUS
 62
     6
100
AcDbVertex
100
AcDb2dVertex
 10
688.11594
 20
1187.418286
 30
0.0
  0
VERTEX
  5
303
100
AcDbEntity
  8
トラップ
  6
CONTINUOUS
 62
     6
100
AcDbVertex
100
AcDb2dVertex
 10
687.167438
 20
1187.715346
 30
0.0
  0
VERTEX
  5
304
100
AcDbEntity
  8
トラップ
  6
CONTINUOUS
 62
     6
100
AcDbVertex
100
AcDb2dVertex
 10
686.190548
 20
1187.715346
 30
0.0
  0
VERTEX
  5
305
100
AcDbEntity
  8
トラップ
  6
CONTINUOUS
 62
     6
100
AcDbVertex
100
AcDb2dVertex
 10
685.242117
 20
1187.418286
 30
0.0
  0
VERTEX
  5
306
100
AcDbEntity
  8
トラップ
  6
CONTINUOUS
 62
     6
100
AcDbVertex
100
AcDb2dVertex
 10
684.377142
 20
1186.841393
 30
0.0
  0
VERTEX
  5
307
100
AcDbEntity
  8
トラップ
  6
CONTINUOUS
 62
     6
100
AcDbVertex
100
AcDb2dVertex
 10
683.64591
 20
1186.018218
 30
0.0
  0
VERTEX
  5
308
100
AcDbEntity
  8
トラップ
  6
CONTINUOUS
 62
     6
100
AcDbVertex
100
AcDb2dVertex
 10
683.091017
 20
1184.996665
 30
0.0
  0
VERTEX
  5
309
100
AcDbEntity
  8
トラップ
  6
CONTINUOUS
 62
     6
100
AcDbVertex
100
AcDb2dVertex
 10
682.744575
 20
1183.836051
 30
0.0
  0
VERTEX
  5
30A
100
AcDbEntity
  8
トラップ
  6
CONTINUOUS
 62
     6
100
AcDbVertex
100
AcDb2dVertex
 10
682.626831
 20
1182.603821
 30
0.0
  0
VERTEX
  5
30B
100
AcDbEntity
  8
トラップ
  6
CONTINUOUS
 62
     6
100
AcDbVertex
100
AcDb2dVertex
 10
682.744575
 20
1181.37159
 30
0.0
  0
VERTEX
  5
30C
100
AcDbEntity
  8
トラップ
  6
CONTINUOUS
 62
     6
100
AcDbVertex
100
AcDb2dVertex
 10
683.091017
 20
1180.210977
 30
0.0
  0
VERTEX
  5
30D
100
AcDbEntity
  8
トラップ
  6
CONTINUOUS
 62
     6
100
AcDbVertex
100
AcDb2dVertex
 10
683.64591
 20
1179.189423
 30
0.0
  0
VERTEX
  5
30E
100
AcDbEntity
  8
トラップ
  6
CONTINUOUS
 62
     6
100
AcDbVertex
100
AcDb2dVertex
 10
684.377142
 20
1178.366249
 30
0.0
  0
VERTEX
  5
30F
100
AcDbEntity
  8
トラップ
  6
CONTINUOUS
 62
     6
100
AcDbVertex
100
AcDb2dVertex
 10
685.242117
 20
1177.789356
 30
0.0
  0
VERTEX
  5
310
100
AcDbEntity
  8
トラップ
  6
CONTINUOUS
 62
     6
100
AcDbVertex
100
AcDb2dVertex
 10
686.190548
 20
1177.492296
 30
0.0
  0
VERTEX
  5
311
100
AcDbEntity
  8
トラップ
  6
CONTINUOUS
 62
     6
100
AcDbVertex
100
AcDb2dVertex
 10
687.167438
 20
1177.492296
 30
0.0
  0
VERTEX
  5
312
100
AcDbEntity
  8
トラップ
  6
CONTINUOUS
 62
     6
100
AcDbVertex
100
AcDb2dVertex
 10
688.11594
 20
1177.789356
 30
0.0
  0
VERTEX
  5
313
100
AcDbEntity
  8
トラップ
  6
CONTINUOUS
 62
     6
100
AcDbVertex
100
AcDb2dVertex
 10
688.980921
 20
1178.366249
 30
0.0
  0
VERTEX
  5
314
100
AcDbEntity
  8
トラップ
  6
CONTINUOUS
 62
     6
100
AcDbVertex
100
AcDb2dVertex
 10
689.712153
 20
1179.189423
 30
0.0
  0
VERTEX
  5
315
100
AcDbEntity
  8
トラップ
  6
CONTINUOUS
 62
     6
100
AcDbVertex
100
AcDb2dVertex
 10
690.267046
 20
1180.210977
 30
0.0
  0
VERTEX
  5
316
100
AcDbEntity
  8
トラップ
  6
CONTINUOUS
 62
     6
100
AcDbVertex
100
AcDb2dVertex
 10
690.613488
 20
1181.37159
 30
0.0
  0
VERTEX
  5
317
100
AcDbEntity
  8
トラップ
  6
CONTINUOUS
 62
     6
100
AcDbVertex
100
AcDb2dVertex
 10
690.731232
 20
1182.603821
 30
0.0
  0
SEQEND
  5
318
100
AcDbEntity
  8
トラップ
  6
CONTINUOUS
 62
     6
  0
POLYLINE
  5
319
100
AcDbEntity
  8
トラップ
  6
CONTINUOUS
 62
     6
100
AcDb2dPolyline
 66
     1
 10
0.0
 20
0.0
 30
0.0
 70
   128
  0
VERTEX
  5
31A
100
AcDbEntity
  8
トラップ
  6
CONTINUOUS
 62
     6
100
AcDbVertex
100
AcDb2dVertex
 10
690.731232
 20
1182.603821
 30
0.0
  0
VERTEX
  5
31B
100
AcDbEntity
  8
トラップ
  6
CONTINUOUS
 62
     6
100
AcDbVertex
100
AcDb2dVertex
 10
690.613488
 20
1183.836051
 30
0.0
  0
VERTEX
  5
31C
100
AcDbEntity
  8
トラップ
  6
CONTINUOUS
 62
     6
100
AcDbVertex
100
AcDb2dVertex
 10
690.267046
 20
1184.996665
 30
0.0
  0
VERTEX
  5
31D
100
AcDbEntity
  8
トラップ
  6
CONTINUOUS
 62
     6
100
AcDbVertex
100
AcDb2dVertex
 10
689.712153
 20
1186.018218
 30
0.0
  0
VERTEX
  5
31E
100
AcDbEntity
  8
トラップ
  6
CONTINUOUS
 62
     6
100
AcDbVertex
100
AcDb2dVertex
 10
688.980921
 20
1186.841393
 30
0.0
  0
VERTEX
  5
31F
100
AcDbEntity
  8
トラップ
  6
CONTINUOUS
 62
     6
100
AcDbVertex
100
AcDb2dVertex
 10
688.11594
 20
1187.418286
 30
0.0
  0
VERTEX
  5
320
100
AcDbEntity
  8
トラップ
  6
CONTINUOUS
 62
     6
100
AcDbVertex
100
AcDb2dVertex
 10
687.167438
 20
1187.715346
 30
0.0
  0
VERTEX
  5
321
100
AcDbEntity
  8
トラップ
  6
CONTINUOUS
 62
     6
100
AcDbVertex
100
AcDb2dVertex
 10
686.190548
 20
1187.715346
 30
0.0
  0
VERTEX
  5
322
100
AcDbEntity
  8
トラップ
  6
CONTINUOUS
 62
     6
100
AcDbVertex
100
AcDb2dVertex
 10
685.242117
 20
1187.418286
 30
0.0
  0
VERTEX
  5
323
100
AcDbEntity
  8
トラップ
  6
CONTINUOUS
 62
     6
100
AcDbVertex
100
AcDb2dVertex
 10
684.377142
 20
1186.841393
 30
0.0
  0
VERTEX
  5
324
100
AcDbEntity
  8
トラップ
  6
CONTINUOUS
 62
     6
100
AcDbVertex
100
AcDb2dVertex
 10
683.64591
 20
1186.018218
 30
0.0
  0
VERTEX
  5
325
100
AcDbEntity
  8
トラップ
  6
CONTINUOUS
 62
     6
100
AcDbVertex
100
AcDb2dVertex
 10
683.091017
 20
1184.996665
 30
0.0
  0
VERTEX
  5
326
100
AcDbEntity
  8
トラップ
  6
CONTINUOUS
 62
     6
100
AcDbVertex
100
AcDb2dVertex
 10
682.744575
 20
1183.836051
 30
0.0
  0
VERTEX
  5
327
100
AcDbEntity
  8
トラップ
  6
CONTINUOUS
 62
     6
100
AcDbVertex
100
AcDb2dVertex
 10
682.626831
 20
1182.603821
 30
0.0
  0
VERTEX
  5
328
100
AcDbEntity
  8
トラップ
  6
CONTINUOUS
 62
     6
100
AcDbVertex
100
AcDb2dVertex
 10
682.744575
 20
1181.37159
 30
0.0
  0
VERTEX
  5
329
100
AcDbEntity
  8
トラップ
  6
CONTINUOUS
 62
     6
100
AcDbVertex
100
AcDb2dVertex
 10
683.091017
 20
1180.210977
 30
0.0
  0
VERTEX
  5
32A
100
AcDbEntity
  8
トラップ
  6
CONTINUOUS
 62
     6
100
AcDbVertex
100
AcDb2dVertex
 10
683.64591
 20
1179.189423
 30
0.0
  0
VERTEX
  5
32B
100
AcDbEntity
  8
トラップ
  6
CONTINUOUS
 62
     6
100
AcDbVertex
100
AcDb2dVertex
 10
684.377142
 20
1178.366249
 30
0.0
  0
VERTEX
  5
32C
100
AcDbEntity
  8
トラップ
  6
CONTINUOUS
 62
     6
100
AcDbVertex
100
AcDb2dVertex
 10
685.242117
 20
1177.789356
 30
0.0
  0
VERTEX
  5
32D
100
AcDbEntity
  8
トラップ
  6
CONTINUOUS
 62
     6
100
AcDbVertex
100
AcDb2dVertex
 10
686.190548
 20
1177.492296
 30
0.0
  0
VERTEX
  5
32E
100
AcDbEntity
  8
トラップ
  6
CONTINUOUS
 62
     6
100
AcDbVertex
100
AcDb2dVertex
 10
687.167438
 20
1177.492296
 30
0.0
  0
VERTEX
  5
32F
100
AcDbEntity
  8
トラップ
  6
CONTINUOUS
 62
     6
100
AcDbVertex
100
AcDb2dVertex
 10
688.11594
 20
1177.789356
 30
0.0
  0
VERTEX
  5
330
100
AcDbEntity
  8
トラップ
  6
CONTINUOUS
 62
     6
100
AcDbVertex
100
AcDb2dVertex
 10
688.980921
 20
1178.366249
 30
0.0
  0
VERTEX
  5
331
100
AcDbEntity
  8
トラップ
  6
CONTINUOUS
 62
     6
100
AcDbVertex
100
AcDb2dVertex
 10
689.712153
 20
1179.189423
 30
0.0
  0
VERTEX
  5
332
100
AcDbEntity
  8
トラップ
  6
CONTINUOUS
 62
     6
100
AcDbVertex
100
AcDb2dVertex
 10
690.267046
 20
1180.210977
 30
0.0
  0
VERTEX
  5
333
100
AcDbEntity
  8
トラップ
  6
CONTINUOUS
 62
     6
100
AcDbVertex
100
AcDb2dVertex
 10
690.613488
 20
1181.37159
 30
0.0
  0
VERTEX
  5
334
100
AcDbEntity
  8
トラップ
  6
CONTINUOUS
 62
     6
100
AcDbVertex
100
AcDb2dVertex
 10
690.731232
 20
1182.603821
 30
0.0
  0
SEQEND
  5
335
100
AcDbEntity
  8
トラップ
  6
CONTINUOUS
 62
     6
  0
LINE
  5
336
100
AcDbEntity
  8
トラップ
  6
CONTINUOUS
 62
     6
100
AcDbLine
 10
688.231079
 20
1176.60376
 30
0.0
 11
654.731323
 21
1176.60376
 31
0.0
  0
LINE
  5
337
100
AcDbEntity
  8
トラップ
  6
CONTINUOUS
 62
     6
100
AcDbLine
 10
684.181244
 20
1188.603729
 30
0.0
 11
684.181244
 21
1265.103516
 31
0.0
  0
LINE
  5
338
100
AcDbEntity
  8
トラップ
  6
CONTINUOUS
 62
     6
100
AcDbLine
 10
658.781158
 20
1188.603729
 30
0.0
 11
658.781158
 21
1265.103516
 31
0.0
  0
LINE
  5
339
100
AcDbEntity
  8
トラップ
  6
CONTINUOUS
 62
     6
100
AcDbLine
 10
657.78125
 20
1140.166992
 30
0.0
 11
657.78125
 21
1173.803619
 31
0.0
  0
ARC
  5
33A
100
AcDbEntity
  8
トラップ
  6
CONTINUOUS
 62
     6
100
AcDbCircle
 10
656.481201
 20
1173.803619
 30
0.0
 40
1.3
100
AcDbArc
 50
0.0
 51
90.0
  0
ARC
  5
33B
100
AcDbEntity
  8
トラップ
  6
CONTINUOUS
 62
     6
100
AcDbCircle
 10
686.481201
 20
1173.803619
 30
0.0
 40
1.3
100
AcDbArc
 50
90.0
 51
180.0
  0
LINE
  5
33C
100
AcDbEntity
  8
トラップ
  6
CONTINUOUS
 62
     6
100
AcDbLine
 10
656.481201
 20
1175.103668
 30
0.0
 11
686.481201
 21
1175.103668
 31
0.0
  0
LINE
  5
33D
100
AcDbEntity
  8
トラップ
  6
CONTINUOUS
 62
     6
100
AcDbLine
 10
686.481201
 20
1175.103668
 30
0.0
 11
687.481262
 21
1176.103729
 31
0.0
  0
LINE
  5
33E
100
AcDbEntity
  8
トラップ
  6
CONTINUOUS
 62
     6
100
AcDbLine
 10
655.48114
 20
1176.103729
 30
0.0
 11
656.481201
 21
1175.103668
 31
0.0
  0
LINE
  5
33F
100
AcDbEntity
  8
トラップ
  6
CONTINUOUS
 62
     6
100
AcDbLine
 10
657.78125
 20
1138.139557
 30
0.0
 11
657.78125
 21
1173.803619
 31
0.0
  0
LINE
  5
340
100
AcDbEntity
  8
トラップ
  6
CONTINUOUS
 62
     6
100
AcDbLine
 10
685.181152
 20
1138.139557
 30
0.0
 11
685.181152
 21
1173.803619
 31
0.0
  0
LINE
  5
341
100
AcDbEntity
  8
トラップ
  6
CONTINUOUS
 62
     6
100
AcDbLine
 10
686.481201
 20
1175.103668
 30
0.0
 11
686.481201
 21
1176.60376
 31
0.0
  0
LINE
  5
342
100
AcDbEntity
  8
トラップ
  6
CONTINUOUS
 62
     6
100
AcDbLine
 10
656.481201
 20
1175.103668
 30
0.0
 11
656.481201
 21
1176.60376
 31
0.0
  0
ARC
  5
343
100
AcDbEntity
  8
トラップ
  6
CONTINUOUS
 62
     6
100
AcDbCircle
 10
671.481201
 20
1152.103638
 30
0.0
 40
30.0
100
AcDbArc
 50
295.045166
 51
55.535034
  0
ARC
  5
344
100
AcDbEntity
  8
トラップ
  6
CONTINUOUS
 62
     6
100
AcDbCircle
 10
671.481201
 20
1152.103638
 30
0.0
 40
30.0
100
AcDbArc
 50
124.464966
 51
244.954834
  0
LINE
  5
345
100
AcDbEntity
  8
トラップ
  6
CONTINUOUS
 62
     6
100
AcDbLine
 10
1718.0
 20
1139.403595
 30
0.0
 11
1718.0
 21
1164.80368
 31
0.0
  0
ARC
  5
346
100
AcDbEntity
  8
トラップ
  6
CONTINUOUS
 62
     6
100
AcDbCircle
 10
1653.197601
 20
1120.403656
 30
0.0
 40
44.399996
100
AcDbArc
 50
90.0
 51
180.0
  0
ARC
  5
347
100
AcDbEntity
  8
トラップ
  6
CONTINUOUS
 62
     6
100
AcDbCircle
 10
1589.747589
 20
1098.353638
 30
0.0
 40
19.049988
100
AcDbArc
 50
180.0
 51
0.0
  0
ARC
  5
348
100
AcDbEntity
  8
トラップ
  6
CONTINUOUS
 62
     6
100
AcDbCircle
 10
1589.747589
 20
1098.353638
 30
0.0
 40
44.450073
100
AcDbArc
 50
180.0
 51
0.0
  0
ARC
  5
349
100
AcDbEntity
  8
トラップ
  6
CONTINUOUS
 62
     6
100
AcDbCircle
 10
1684.999969
 20
1168.103699
 30
0.0
 40
13.999996
100
AcDbArc
 50
90.0
 51
180.0
  0
ARC
  5
34A
100
AcDbEntity
  8
トラップ
  6
CONTINUOUS
 62
     6
100
AcDbCircle
 10
1684.999969
 20
1136.103577
 30
0.0
 40
13.999996
100
AcDbArc
 50
180.0
 51
270.0
  0
LINE
  5
34B
100
AcDbEntity
  8
トラップ
  6
CONTINUOUS
 62
     6
100
AcDbLine
 10
1684.999969
 20
1182.103638
 30
0.0
 11
1688.0
 21
1182.103638
 31
0.0
  0
LINE
  5
34C
100
AcDbEntity
  8
トラップ
  6
CONTINUOUS
 62
     6
100
AcDbLine
 10
1684.999969
 20
1122.103638
 30
0.0
 11
1688.0
 21
1122.103638
 31
0.0
  0
LINE
  5
34D
100
AcDbEntity
  8
トラップ
  6
CONTINUOUS
 62
     6
100
AcDbLine
 10
1671.000031
 20
1136.103577
 30
0.0
 11
1671.000031
 21
1168.103699
 31
0.0
  0
LINE
  5
34E
100
AcDbEntity
  8
トラップ
  6
CONTINUOUS
 62
     6
100
AcDbLine
 10
1653.197601
 20
1164.80368
 30
0.0
 11
1671.000031
 21
1164.80368
 31
0.0
  0
LINE
  5
34F
100
AcDbEntity
  8
トラップ
  6
CONTINUOUS
 62
     6
100
AcDbLine
 10
1688.0
 20
1164.80368
 30
0.0
 11
1718.0
 21
1164.80368
 31
0.0
  0
LINE
  5
350
100
AcDbEntity
  8
トラップ
  6
CONTINUOUS
 62
     6
100
AcDbLine
 10
1653.197601
 20
1139.403595
 30
0.0
 11
1671.000031
 21
1139.403595
 31
0.0
  0
LINE
  5
351
100
AcDbEntity
  8
トラップ
  6
CONTINUOUS
 62
     6
100
AcDbLine
 10
1688.0
 20
1139.403595
 30
0.0
 11
1718.0
 21
1139.403595
 31
0.0
  0
ARC
  5
352
100
AcDbEntity
  8
トラップ
  6
CONTINUOUS
 62
     6
100
AcDbCircle
 10
1653.197601
 20
1120.403656
 30
0.0
 40
18.999996
100
AcDbArc
 50
90.0
 51
180.0
  0
ARC
  5
353
100
AcDbEntity
  8
トラップ
  6
CONTINUOUS
 62
     6
100
AcDbCircle
 10
1546.297577
 20
1138.139557
 30
0.0
 40
2.0
100
AcDbArc
 50
180.0
 51
209.998047
  0
LINE
  5
354
100
AcDbEntity
  8
トラップ
  6
CONTINUOUS
 62
     6
100
AcDbLine
 10
1545.029572
 20
1136.335815
 30
0.0
 11
1544.297607
 21
1137.603516
 31
0.0
  0
LINE
  5
355
100
AcDbEntity
  8
トラップ
  6
CONTINUOUS
 62
     6
100
AcDbLine
 10
1545.029572
 20
1136.335815
 30
0.0
 11
1544.297607
 21
1137.603516
 31
0.0
  0
LINE
  5
356
100
AcDbEntity
  8
トラップ
  6
CONTINUOUS
 62
     6
100
AcDbLine
 10
1545.029572
 20
1136.335815
 30
0.0
 11
1544.297607
 21
1137.603516
 31
0.0
  0
LINE
  5
357
100
AcDbEntity
  8
トラップ
  6
CONTINUOUS
 62
     6
100
AcDbLine
 10
1545.029572
 20
1136.335815
 30
0.0
 11
1544.297607
 21
1137.603516
 31
0.0
  0
ARC
  5
358
100
AcDbEntity
  8
トラップ
  6
CONTINUOUS
 62
     6
100
AcDbCircle
 10
1543.297546
 20
1135.335907
 30
0.0
 40
2.0
100
AcDbArc
 50
0.0
 51
29.998093
  0
LINE
  5
359
100
AcDbEntity
  8
トラップ
  6
CONTINUOUS
 62
     6
100
AcDbLine
 10
1545.297668
 20
1137.603668
 30
0.0
 11
1570.697449
 21
1137.603668
 31
0.0
  0
LINE
  5
35A
100
AcDbEntity
  8
トラップ
  6
CONTINUOUS
 62
     6
100
AcDbLine
 10
1545.297516
 20
1098.353638
 30
0.0
 11
1545.297516
 21
1135.335907
 31
0.0
  0
LINE
  5
35B
100
AcDbEntity
  8
トラップ
  6
CONTINUOUS
 62
     6
100
AcDbLine
 10
1574.497559
 20
1188.603729
 30
0.0
 11
1541.497559
 21
1188.603729
 31
0.0
  0
POLYLINE
  5
35C
100
AcDbEntity
  8
トラップ
  6
CONTINUOUS
 62
     6
100
AcDb2dPolyline
 66
     1
 10
0.0
 20
0.0
 30
0.0
 70
   128
  0
VERTEX
  5
35D
100
AcDbEntity
  8
トラップ
  6
CONTINUOUS
 62
     6
100
AcDbVertex
100
AcDb2dVertex
 10
1556.192749
 20
1182.603668
 30
0.0
  0
VERTEX
  5
35E
100
AcDbEntity
  8
トラップ
  6
CONTINUOUS
 62
     6
100
AcDbVertex
100
AcDb2dVertex
 10
1555.990915
 20
1183.835919
 30
0.0
  0
VERTEX
  5
35F
100
AcDbEntity
  8
トラップ
  6
CONTINUOUS
 62
     6
100
AcDbVertex
100
AcDb2dVertex
 10
1555.397211
 20
1184.996626
 30
0.0
  0
VERTEX
  5
360
100
AcDbEntity
  8
トラップ
  6
CONTINUOUS
 62
     6
100
AcDbVertex
100
AcDb2dVertex
 10
1554.446138
 20
1186.018218
 30
0.0
  0
VERTEX
  5
361
100
AcDbEntity
  8
トラップ
  6
CONTINUOUS
 62
     6
100
AcDbVertex
100
AcDb2dVertex
 10
1553.192917
 20
1186.841393
 30
0.0
  0
VERTEX
  5
362
100
AcDbEntity
  8
トラップ
  6
CONTINUOUS
 62
     6
100
AcDbVertex
100
AcDb2dVertex
 10
1551.710387
 20
1187.418286
 30
0.0
  0
VERTEX
  5
363
100
AcDbEntity
  8
トラップ
  6
CONTINUOUS
 62
     6
100
AcDbVertex
100
AcDb2dVertex
 10
1550.084795
 20
1187.715346
 30
0.0
  0
VERTEX
  5
364
100
AcDbEntity
  8
トラップ
  6
CONTINUOUS
 62
     6
100
AcDbVertex
100
AcDb2dVertex
 10
1548.410551
 20
1187.715346
 30
0.0
  0
VERTEX
  5
365
100
AcDbEntity
  8
トラップ
  6
CONTINUOUS
 62
     6
100
AcDbVertex
100
AcDb2dVertex
 10
1546.784889
 20
1187.418286
 30
0.0
  0
VERTEX
  5
366
100
AcDbEntity
  8
トラップ
  6
CONTINUOUS
 62
     6
100
AcDbVertex
100
AcDb2dVertex
 10
1545.302352
 20
1186.841393
 30
0.0
  0
VERTEX
  5
367
100
AcDbEntity
  8
トラップ
  6
CONTINUOUS
 62
     6
100
AcDbVertex
100
AcDb2dVertex
 10
1544.049132
 20
1186.018218
 30
0.0
  0
VERTEX
  5
368
100
AcDbEntity
  8
トラップ
  6
CONTINUOUS
 62
     6
100
AcDbVertex
100
AcDb2dVertex
 10
1543.098059
 20
1184.996626
 30
0.0
  0
VERTEX
  5
369
100
AcDbEntity
  8
トラップ
  6
CONTINUOUS
 62
     6
100
AcDbVertex
100
AcDb2dVertex
 10
1542.504355
 20
1183.835919
 30
0.0
  0
VERTEX
  5
36A
100
AcDbEntity
  8
トラップ
  6
CONTINUOUS
 62
     6
100
AcDbVertex
100
AcDb2dVertex
 10
1542.302521
 20
1182.603668
 30
0.0
  0
VERTEX
  5
36B
100
AcDbEntity
  8
トラップ
  6
CONTINUOUS
 62
     6
100
AcDbVertex
100
AcDb2dVertex
 10
1542.504355
 20
1181.371418
 30
0.0
  0
VERTEX
  5
36C
100
AcDbEntity
  8
トラップ
  6
CONTINUOUS
 62
     6
100
AcDbVertex
100
AcDb2dVertex
 10
1543.098059
 20
1180.21071
 30
0.0
  0
VERTEX
  5
36D
100
AcDbEntity
  8
トラップ
  6
CONTINUOUS
 62
     6
100
AcDbVertex
100
AcDb2dVertex
 10
1544.049132
 20
1179.189119
 30
0.0
  0
VERTEX
  5
36E
100
AcDbEntity
  8
トラップ
  6
CONTINUOUS
 62
     6
100
AcDbVertex
100
AcDb2dVertex
 10
1545.302352
 20
1178.365944
 30
0.0
  0
VERTEX
  5
36F
100
AcDbEntity
  8
トラップ
  6
CONTINUOUS
 62
     6
100
AcDbVertex
100
AcDb2dVertex
 10
1546.784889
 20
1177.789051
 30
0.0
  0
VERTEX
  5
370
100
AcDbEntity
  8
トラップ
  6
CONTINUOUS
 62
     6
100
AcDbVertex
100
AcDb2dVertex
 10
1548.410551
 20
1177.491991
 30
0.0
  0
VERTEX
  5
371
100
AcDbEntity
  8
トラップ
  6
CONTINUOUS
 62
     6
100
AcDbVertex
100
AcDb2dVertex
 10
1550.084795
 20
1177.491991
 30
0.0
  0
VERTEX
  5
372
100
AcDbEntity
  8
トラップ
  6
CONTINUOUS
 62
     6
100
AcDbVertex
100
AcDb2dVertex
 10
1551.710387
 20
1177.789051
 30
0.0
  0
VERTEX
  5
373
100
AcDbEntity
  8
トラップ
  6
CONTINUOUS
 62
     6
100
AcDbVertex
100
AcDb2dVertex
 10
1553.192917
 20
1178.365944
 30
0.0
  0
VERTEX
  5
374
100
AcDbEntity
  8
トラップ
  6
CONTINUOUS
 62
     6
100
AcDbVertex
100
AcDb2dVertex
 10
1554.446138
 20
1179.189119
 30
0.0
  0
VERTEX
  5
375
100
AcDbEntity
  8
トラップ
  6
CONTINUOUS
 62
     6
100
AcDbVertex
100
AcDb2dVertex
 10
1555.397211
 20
1180.21071
 30
0.0
  0
VERTEX
  5
376
100
AcDbEntity
  8
トラップ
  6
CONTINUOUS
 62
     6
100
AcDbVertex
100
AcDb2dVertex
 10
1555.990915
 20
1181.371418
 30
0.0
  0
VERTEX
  5
377
100
AcDbEntity
  8
トラップ
  6
CONTINUOUS
 62
     6
100
AcDbVertex
100
AcDb2dVertex
 10
1556.192749
 20
1182.603668
 30
0.0
  0
SEQEND
  5
378
100
AcDbEntity
  8
トラップ
  6
CONTINUOUS
 62
     6
  0
POLYLINE
  5
379
100
AcDbEntity
  8
トラップ
  6
CONTINUOUS
 62
     6
100
AcDb2dPolyline
 66
     1
 10
0.0
 20
0.0
 30
0.0
 70
   128
  0
VERTEX
  5
37A
100
AcDbEntity
  8
トラップ
  6
CONTINUOUS
 62
     6
100
AcDbVertex
100
AcDb2dVertex
 10
1573.692596
 20
1182.603668
 30
0.0
  0
VERTEX
  5
37B
100
AcDbEntity
  8
トラップ
  6
CONTINUOUS
 62
     6
100
AcDbVertex
100
AcDb2dVertex
 10
1573.490762
 20
1183.835919
 30
0.0
  0
VERTEX
  5
37C
100
AcDbEntity
  8
トラップ
  6
CONTINUOUS
 62
     6
100
AcDbVertex
100
AcDb2dVertex
 10
1572.897058
 20
1184.996626
 30
0.0
  0
VERTEX
  5
37D
100
AcDbEntity
  8
トラップ
  6
CONTINUOUS
 62
     6
100
AcDbVertex
100
AcDb2dVertex
 10
1571.945985
 20
1186.018218
 30
0.0
  0
VERTEX
  5
37E
100
AcDbEntity
  8
トラップ
  6
CONTINUOUS
 62
     6
100
AcDbVertex
100
AcDb2dVertex
 10
1570.692765
 20
1186.841393
 30
0.0
  0
VERTEX
  5
37F
100
AcDbEntity
  8
トラップ
  6
CONTINUOUS
 62
     6
100
AcDbVertex
100
AcDb2dVertex
 10
1569.210228
 20
1187.418286
 30
0.0
  0
VERTEX
  5
380
100
AcDbEntity
  8
トラップ
  6
CONTINUOUS
 62
     6
100
AcDbVertex
100
AcDb2dVertex
 10
1567.584566
 20
1187.715346
 30
0.0
  0
VERTEX
  5
381
100
AcDbEntity
  8
トラップ
  6
CONTINUOUS
 62
     6
100
AcDbVertex
100
AcDb2dVertex
 10
1565.910322
 20
1187.715346
 30
0.0
  0
VERTEX
  5
382
100
AcDbEntity
  8
トラップ
  6
CONTINUOUS
 62
     6
100
AcDbVertex
100
AcDb2dVertex
 10
1564.28473
 20
1187.418286
 30
0.0
  0
VERTEX
  5
383
100
AcDbEntity
  8
トラップ
  6
CONTINUOUS
 62
     6
100
AcDbVertex
100
AcDb2dVertex
 10
1562.8022
 20
1186.841393
 30
0.0
  0
VERTEX
  5
384
100
AcDbEntity
  8
トラップ
  6
CONTINUOUS
 62
     6
100
AcDbVertex
100
AcDb2dVertex
 10
1561.54898
 20
1186.018218
 30
0.0
  0
VERTEX
  5
385
100
AcDbEntity
  8
トラップ
  6
CONTINUOUS
 62
     6
100
AcDbVertex
100
AcDb2dVertex
 10
1560.597906
 20
1184.996626
 30
0.0
  0
VERTEX
  5
386
100
AcDbEntity
  8
トラップ
  6
CONTINUOUS
 62
     6
100
AcDbVertex
100
AcDb2dVertex
 10
1560.004203
 20
1183.835919
 30
0.0
  0
VERTEX
  5
387
100
AcDbEntity
  8
トラップ
  6
CONTINUOUS
 62
     6
100
AcDbVertex
100
AcDb2dVertex
 10
1559.802368
 20
1182.603668
 30
0.0
  0
VERTEX
  5
388
100
AcDbEntity
  8
トラップ
  6
CONTINUOUS
 62
     6
100
AcDbVertex
100
AcDb2dVertex
 10
1560.004203
 20
1181.371418
 30
0.0
  0
VERTEX
  5
389
100
AcDbEntity
  8
トラップ
  6
CONTINUOUS
 62
     6
100
AcDbVertex
100
AcDb2dVertex
 10
1560.597906
 20
1180.21071
 30
0.0
  0
VERTEX
  5
38A
100
AcDbEntity
  8
トラップ
  6
CONTINUOUS
 62
     6
100
AcDbVertex
100
AcDb2dVertex
 10
1561.54898
 20
1179.189119
 30
0.0
  0
VERTEX
  5
38B
100
AcDbEntity
  8
トラップ
  6
CONTINUOUS
 62
     6
100
AcDbVertex
100
AcDb2dVertex
 10
1562.8022
 20
1178.365944
 30
0.0
  0
VERTEX
  5
38C
100
AcDbEntity
  8
トラップ
  6
CONTINUOUS
 62
     6
100
AcDbVertex
100
AcDb2dVertex
 10
1564.28473
 20
1177.789051
 30
0.0
  0
VERTEX
  5
38D
100
AcDbEntity
  8
トラップ
  6
CONTINUOUS
 62
     6
100
AcDbVertex
100
AcDb2dVertex
 10
1565.910322
 20
1177.491991
 30
0.0
  0
VERTEX
  5
38E
100
AcDbEntity
  8
トラップ
  6
CONTINUOUS
 62
     6
100
AcDbVertex
100
AcDb2dVertex
 10
1567.584566
 20
1177.491991
 30
0.0
  0
VERTEX
  5
38F
100
AcDbEntity
  8
トラップ
  6
CONTINUOUS
 62
     6
100
AcDbVertex
100
AcDb2dVertex
 10
1569.210228
 20
1177.789051
 30
0.0
  0
VERTEX
  5
390
100
AcDbEntity
  8
トラップ
  6
CONTINUOUS
 62
     6
100
AcDbVertex
100
AcDb2dVertex
 10
1570.692765
 20
1178.365944
 30
0.0
  0
VERTEX
  5
391
100
AcDbEntity
  8
トラップ
  6
CONTINUOUS
 62
     6
100
AcDbVertex
100
AcDb2dVertex
 10
1571.945985
 20
1179.189119
 30
0.0
  0
VERTEX
  5
392
100
AcDbEntity
  8
トラップ
  6
CONTINUOUS
 62
     6
100
AcDbVertex
100
AcDb2dVertex
 10
1572.897058
 20
1180.21071
 30
0.0
  0
VERTEX
  5
393
100
AcDbEntity
  8
トラップ
  6
CONTINUOUS
 62
     6
100
AcDbVertex
100
AcDb2dVertex
 10
1573.490762
 20
1181.371418
 30
0.0
  0
VERTEX
  5
394
100
AcDbEntity
  8
トラップ
  6
CONTINUOUS
 62
     6
100
AcDbVertex
100
AcDb2dVertex
 10
1573.692596
 20
1182.603668
 30
0.0
  0
SEQEND
  5
395
100
AcDbEntity
  8
トラップ
  6
CONTINUOUS
 62
     6
  0
LINE
  5
396
100
AcDbEntity
  8
トラップ
  6
CONTINUOUS
 62
     6
100
AcDbLine
 10
1575.497559
 20
1177.60376
 30
0.0
 11
1575.497559
 21
1187.603729
 31
0.0
  0
LINE
  5
397
100
AcDbEntity
  8
トラップ
  6
CONTINUOUS
 62
     6
100
AcDbLine
 10
1540.497559
 20
1177.60376
 30
0.0
 11
1540.497559
 21
1187.603729
 31
0.0
  0
LINE
  5
398
100
AcDbEntity
  8
トラップ
  6
CONTINUOUS
 62
     6
100
AcDbLine
 10
1574.497559
 20
1176.60376
 30
0.0
 11
1541.497559
 21
1176.60376
 31
0.0
  0
LINE
  5
399
100
AcDbEntity
  8
トラップ
  6
CONTINUOUS
 62
     6
100
AcDbLine
 10
1542.997559
 20
1175.103668
 30
0.0
 11
1572.997559
 21
1175.103668
 31
0.0
  0
LINE
  5
39A
100
AcDbEntity
  8
トラップ
  6
CONTINUOUS
 62
     6
100
AcDbLine
 10
1541.997498
 20
1176.103729
 30
0.0
 11
1542.997559
 21
1175.103668
 31
0.0
  0
ARC
  5
39B
100
AcDbEntity
  8
トラップ
  6
CONTINUOUS
 62
     6
100
AcDbCircle
 10
1542.997559
 20
1173.803619
 30
0.0
 40
1.3
100
AcDbArc
 50
0.0
 51
90.0
  0
ARC
  5
39C
100
AcDbEntity
  8
トラップ
  6
CONTINUOUS
 62
     6
100
AcDbCircle
 10
1542.997559
 20
1173.803619
 30
0.0
 40
1.3
100
AcDbArc
 50
0.0
 51
90.0
  0
LINE
  5
39D
100
AcDbEntity
  8
トラップ
  6
CONTINUOUS
 62
     6
100
AcDbLine
 10
1572.997559
 20
1175.103668
 30
0.0
 11
1573.99762
 21
1176.103729
 31
0.0
  0
ARC
  5
39E
100
AcDbEntity
  8
トラップ
  6
CONTINUOUS
 62
     6
100
AcDbCircle
 10
1572.997559
 20
1173.803619
 30
0.0
 40
1.3
100
AcDbArc
 50
90.0
 51
180.0
  0
ARC
  5
39F
100
AcDbEntity
  8
トラップ
  6
CONTINUOUS
 62
     6
100
AcDbCircle
 10
1572.997559
 20
1173.803619
 30
0.0
 40
1.3
100
AcDbArc
 50
90.0
 51
180.0
  0
LINE
  5
3A0
100
AcDbEntity
  8
トラップ
  6
CONTINUOUS
 62
     6
100
AcDbLine
 10
1544.297607
 20
1138.139557
 30
0.0
 11
1544.297607
 21
1173.803619
 31
0.0
  0
LINE
  5
3A1
100
AcDbEntity
  8
トラップ
  6
CONTINUOUS
 62
     6
100
AcDbLine
 10
1572.997559
 20
1175.103668
 30
0.0
 11
1572.997559
 21
1176.60376
 31
0.0
  0
LINE
  5
3A2
100
AcDbEntity
  8
トラップ
  6
CONTINUOUS
 62
     6
100
AcDbLine
 10
1542.997559
 20
1175.103668
 30
0.0
 11
1542.997559
 21
1176.60376
 31
0.0
  0
LINE
  5
3A3
100
AcDbEntity
  8
トラップ
  6
CONTINUOUS
 62
     6
100
AcDbLine
 10
1638.247803
 20
1114.103607
 30
0.0
 11
1604.747437
 21
1114.103607
 31
0.0
  0
ARC
  5
3A4
100
AcDbEntity
  8
トラップ
  6
CONTINUOUS
 62
     6
100
AcDbCircle
 10
1632.297638
 20
1108.103699
 30
0.0
 40
8.45
100
AcDbArc
 50
314.759277
 51
45.238495
  0
ARC
  5
3A5
100
AcDbEntity
  8
トラップ
  6
CONTINUOUS
 62
     6
100
AcDbCircle
 10
1610.697601
 20
1108.103699
 30
0.0
 40
8.45
100
AcDbArc
 50
134.761505
 51
225.240753
  0
LINE
  5
3A6
100
AcDbEntity
  8
トラップ
  6
CONTINUOUS
 62
     6
100
AcDbLine
 10
1638.247498
 20
1102.103638
 30
0.0
 11
1604.747742
 21
1102.103638
 31
0.0
  0
POLYLINE
  5
3A7
100
AcDbEntity
  8
トラップ
  6
CONTINUOUS
 62
     6
100
AcDb2dPolyline
 66
     1
 10
0.0
 20
0.0
 30
0.0
 70
   128
  0
VERTEX
  5
3A8
100
AcDbEntity
  8
トラップ
  6
CONTINUOUS
 62
     6
100
AcDbVertex
100
AcDb2dVertex
 10
1629.517181
 20
1108.103699
 30
0.0
  0
VERTEX
  5
3A9
100
AcDbEntity
  8
トラップ
  6
CONTINUOUS
 62
     6
100
AcDbVertex
100
AcDb2dVertex
 10
1629.284113
 20
1109.335929
 30
0.0
  0
VERTEX
  5
3AA
100
AcDbEntity
  8
トラップ
  6
CONTINUOUS
 62
     6
100
AcDbVertex
100
AcDb2dVertex
 10
1628.59858
 20
1110.496543
 30
0.0
  0
VERTEX
  5
3AB
100
AcDbEntity
  8
トラップ
  6
CONTINUOUS
 62
     6
100
AcDbVertex
100
AcDb2dVertex
 10
1627.500284
 20
1111.518096
 30
0.0
  0
VERTEX
  5
3AC
100
AcDbEntity
  8
トラップ
  6
CONTINUOUS
 62
     6
100
AcDbVertex
100
AcDb2dVertex
 10
1626.053147
 20
1112.341271
 30
0.0
  0
VERTEX
  5
3AD
100
AcDbEntity
  8
トラップ
  6
CONTINUOUS
 62
     6
100
AcDbVertex
100
AcDb2dVertex
 10
1624.341331
 20
1112.918164
 30
0.0
  0
VERTEX
  5
3AE
100
AcDbEntity
  8
トラップ
  6
CONTINUOUS
 62
     6
100
AcDbVertex
100
AcDb2dVertex
 10
1622.464254
 20
1113.215223
 30
0.0
  0
VERTEX
  5
3AF
100
AcDbEntity
  8
トラップ
  6
CONTINUOUS
 62
     6
100
AcDbVertex
100
AcDb2dVertex
 10
1620.530985
 20
1113.215223
 30
0.0
  0
VERTEX
  5
3B0
100
AcDbEntity
  8
トラップ
  6
CONTINUOUS
 62
     6
100
AcDbVertex
100
AcDb2dVertex
 10
1618.653908
 20
1112.918164
 30
0.0
  0
VERTEX
  5
3B1
100
AcDbEntity
  8
トラップ
  6
CONTINUOUS
 62
     6
100
AcDbVertex
100
AcDb2dVertex
 10
1616.942092
 20
1112.341271
 30
0.0
  0
VERTEX
  5
3B2
100
AcDbEntity
  8
トラップ
  6
CONTINUOUS
 62
     6
100
AcDbVertex
100
AcDb2dVertex
 10
1615.494955
 20
1111.518096
 30
0.0
  0
VERTEX
  5
3B3
100
AcDbEntity
  8
トラップ
  6
CONTINUOUS
 62
     6
100
AcDbVertex
100
AcDb2dVertex
 10
1614.39666
 20
1110.496543
 30
0.0
  0
VERTEX
  5
3B4
100
AcDbEntity
  8
トラップ
  6
CONTINUOUS
 62
     6
100
AcDbVertex
100
AcDb2dVertex
 10
1613.711126
 20
1109.335929
 30
0.0
  0
VERTEX
  5
3B5
100
AcDbEntity
  8
トラップ
  6
CONTINUOUS
 62
     6
100
AcDbVertex
100
AcDb2dVertex
 10
1613.478058
 20
1108.103699
 30
0.0
  0
VERTEX
  5
3B6
100
AcDbEntity
  8
トラップ
  6
CONTINUOUS
 62
     6
100
AcDbVertex
100
AcDb2dVertex
 10
1613.711126
 20
1106.871468
 30
0.0
  0
VERTEX
  5
3B7
100
AcDbEntity
  8
トラップ
  6
CONTINUOUS
 62
     6
100
AcDbVertex
100
AcDb2dVertex
 10
1614.39666
 20
1105.710855
 30
0.0
  0
VERTEX
  5
3B8
100
AcDbEntity
  8
トラップ
  6
CONTINUOUS
 62
     6
100
AcDbVertex
100
AcDb2dVertex
 10
1615.494955
 20
1104.689301
 30
0.0
  0
VERTEX
  5
3B9
100
AcDbEntity
  8
トラップ
  6
CONTINUOUS
 62
     6
100
AcDbVertex
100
AcDb2dVertex
 10
1616.942092
 20
1103.866127
 30
0.0
  0
VERTEX
  5
3BA
100
AcDbEntity
  8
トラップ
  6
CONTINUOUS
 62
     6
100
AcDbVertex
100
AcDb2dVertex
 10
1618.653908
 20
1103.289234
 30
0.0
  0
VERTEX
  5
3BB
100
AcDbEntity
  8
トラップ
  6
CONTINUOUS
 62
     6
100
AcDbVertex
100
AcDb2dVertex
 10
1620.530985
 20
1102.992174
 30
0.0
  0
VERTEX
  5
3BC
100
AcDbEntity
  8
トラップ
  6
CONTINUOUS
 62
     6
100
AcDbVertex
100
AcDb2dVertex
 10
1622.464254
 20
1102.992174
 30
0.0
  0
VERTEX
  5
3BD
100
AcDbEntity
  8
トラップ
  6
CONTINUOUS
 62
     6
100
AcDbVertex
100
AcDb2dVertex
 10
1624.341331
 20
1103.289234
 30
0.0
  0
VERTEX
  5
3BE
100
AcDbEntity
  8
トラップ
  6
CONTINUOUS
 62
     6
100
AcDbVertex
100
AcDb2dVertex
 10
1626.053147
 20
1103.866127
 30
0.0
  0
VERTEX
  5
3BF
100
AcDbEntity
  8
トラップ
  6
CONTINUOUS
 62
     6
100
AcDbVertex
100
AcDb2dVertex
 10
1627.500284
 20
1104.689301
 30
0.0
  0
VERTEX
  5
3C0
100
AcDbEntity
  8
トラップ
  6
CONTINUOUS
 62
     6
100
AcDbVertex
100
AcDb2dVertex
 10
1628.59858
 20
1105.710855
 30
0.0
  0
VERTEX
  5
3C1
100
AcDbEntity
  8
トラップ
  6
CONTINUOUS
 62
     6
100
AcDbVertex
100
AcDb2dVertex
 10
1629.284113
 20
1106.871468
 30
0.0
  0
VERTEX
  5
3C2
100
AcDbEntity
  8
トラップ
  6
CONTINUOUS
 62
     6
100
AcDbVertex
100
AcDb2dVertex
 10
1629.517181
 20
1108.103699
 30
0.0
  0
SEQEND
  5
3C3
100
AcDbEntity
  8
トラップ
  6
CONTINUOUS
 62
     6
  0
POLYLINE
  5
3C4
100
AcDbEntity
  8
トラップ
  6
CONTINUOUS
 62
     6
100
AcDb2dPolyline
 66
     1
 10
0.0
 20
0.0
 30
0.0
 70
   128
  0
VERTEX
  5
3C5
100
AcDbEntity
  8
トラップ
  6
CONTINUOUS
 62
     6
100
AcDbVertex
100
AcDb2dVertex
 10
1610.35199
 20
1108.103699
 30
0.0
  0
VERTEX
  5
3C6
100
AcDbEntity
  8
トラップ
  6
CONTINUOUS
 62
     6
100
AcDbVertex
100
AcDb2dVertex
 10
1610.235456
 20
1109.335929
 30
0.0
  0
VERTEX
  5
3C7
100
AcDbEntity
  8
トラップ
  6
CONTINUOUS
 62
     6
100
AcDbVertex
100
AcDb2dVertex
 10
1609.892697
 20
1110.496543
 30
0.0
  0
VERTEX
  5
3C8
100
AcDbEntity
  8
トラップ
  6
CONTINUOUS
 62
     6
100
AcDbVertex
100
AcDb2dVertex
 10
1609.343594
 20
1111.518096
 30
0.0
  0
VERTEX
  5
3C9
100
AcDbEntity
  8
トラップ
  6
CONTINUOUS
 62
     6
100
AcDbVertex
100
AcDb2dVertex
 10
1608.620044
 20
1112.341271
 30
0.0
  0
VERTEX
  5
3CA
100
AcDbEntity
  8
トラップ
  6
CONTINUOUS
 62
     6
100
AcDbVertex
100
AcDb2dVertex
 10
1607.764099
 20
1112.918164
 30
0.0
  0
VERTEX
  5
3CB
100
AcDbEntity
  8
トラップ
  6
CONTINUOUS
 62
     6
100
AcDbVertex
100
AcDb2dVertex
 10
1606.825566
 20
1113.215223
 30
0.0
  0
VERTEX
  5
3CC
100
AcDbEntity
  8
トラップ
  6
CONTINUOUS
 62
     6
100
AcDbVertex
100
AcDb2dVertex
 10
1605.858929
 20
1113.215223
 30
0.0
  0
VERTEX
  5
3CD
100
AcDbEntity
  8
トラップ
  6
CONTINUOUS
 62
     6
100
AcDbVertex
100
AcDb2dVertex
 10
1604.920324
 20
1112.918164
 30
0.0
  0
VERTEX
  5
3CE
100
AcDbEntity
  8
トラップ
  6
CONTINUOUS
 62
     6
100
AcDbVertex
100
AcDb2dVertex
 10
1604.064373
 20
1112.341271
 30
0.0
  0
VERTEX
  5
3CF
100
AcDbEntity
  8
トラップ
  6
CONTINUOUS
 62
     6
100
AcDbVertex
100
AcDb2dVertex
 10
1603.340824
 20
1111.518096
 30
0.0
  0
VERTEX
  5
3D0
100
AcDbEntity
  8
トラップ
  6
CONTINUOUS
 62
     6
100
AcDbVertex
100
AcDb2dVertex
 10
1602.791721
 20
1110.496543
 30
0.0
  0
VERTEX
  5
3D1
100
AcDbEntity
  8
トラップ
  6
CONTINUOUS
 62
     6
100
AcDbVertex
100
AcDb2dVertex
 10
1602.448962
 20
1109.335929
 30
0.0
  0
VERTEX
  5
3D2
100
AcDbEntity
  8
トラップ
  6
CONTINUOUS
 62
     6
100
AcDbVertex
100
AcDb2dVertex
 10
1602.332428
 20
1108.103699
 30
0.0
  0
VERTEX
  5
3D3
100
AcDbEntity
  8
トラップ
  6
CONTINUOUS
 62
     6
100
AcDbVertex
100
AcDb2dVertex
 10
1602.448962
 20
1106.871468
 30
0.0
  0
VERTEX
  5
3D4
100
AcDbEntity
  8
トラップ
  6
CONTINUOUS
 62
     6
100
AcDbVertex
100
AcDb2dVertex
 10
1602.791721
 20
1105.710855
 30
0.0
  0
VERTEX
  5
3D5
100
AcDbEntity
  8
トラップ
  6
CONTINUOUS
 62
     6
100
AcDbVertex
100
AcDb2dVertex
 10
1603.340824
 20
1104.689301
 30
0.0
  0
VERTEX
  5
3D6
100
AcDbEntity
  8
トラップ
  6
CONTINUOUS
 62
     6
100
AcDbVertex
100
AcDb2dVertex
 10
1604.064373
 20
1103.866127
 30
0.0
  0
VERTEX
  5
3D7
100
AcDbEntity
  8
トラップ
  6
CONTINUOUS
 62
     6
100
AcDbVertex
100
AcDb2dVertex
 10
1604.920324
 20
1103.289234
 30
0.0
  0
VERTEX
  5
3D8
100
AcDbEntity
  8
トラップ
  6
CONTINUOUS
 62
     6
100
AcDbVertex
100
AcDb2dVertex
 10
1605.858929
 20
1102.992174
 30
0.0
  0
VERTEX
  5
3D9
100
AcDbEntity
  8
トラップ
  6
CONTINUOUS
 62
     6
100
AcDbVertex
100
AcDb2dVertex
 10
1606.825566
 20
1102.992174
 30
0.0
  0
VERTEX
  5
3DA
100
AcDbEntity
  8
トラップ
  6
CONTINUOUS
 62
     6
100
AcDbVertex
100
AcDb2dVertex
 10
1607.764099
 20
1103.289234
 30
0.0
  0
VERTEX
  5
3DB
100
AcDbEntity
  8
トラップ
  6
CONTINUOUS
 62
     6
100
AcDbVertex
100
AcDb2dVertex
 10
1608.620044
 20
1103.866127
 30
0.0
  0
VERTEX
  5
3DC
100
AcDbEntity
  8
トラップ
  6
CONTINUOUS
 62
     6
100
AcDbVertex
100
AcDb2dVertex
 10
1609.343594
 20
1104.689301
 30
0.0
  0
VERTEX
  5
3DD
100
AcDbEntity
  8
トラップ
  6
CONTINUOUS
 62
     6
100
AcDbVertex
100
AcDb2dVertex
 10
1609.892697
 20
1105.710855
 30
0.0
  0
VERTEX
  5
3DE
100
AcDbEntity
  8
トラップ
  6
CONTINUOUS
 62
     6
100
AcDbVertex
100
AcDb2dVertex
 10
1610.235456
 20
1106.871468
 30
0.0
  0
VERTEX
  5
3DF
100
AcDbEntity
  8
トラップ
  6
CONTINUOUS
 62
     6
100
AcDbVertex
100
AcDb2dVertex
 10
1610.35199
 20
1108.103699
 30
0.0
  0
SEQEND
  5
3E0
100
AcDbEntity
  8
トラップ
  6
CONTINUOUS
 62
     6
  0
POLYLINE
  5
3E1
100
AcDbEntity
  8
トラップ
  6
CONTINUOUS
 62
     6
100
AcDb2dPolyline
 66
     1
 10
0.0
 20
0.0
 30
0.0
 70
   128
  0
VERTEX
  5
3E2
100
AcDbEntity
  8
トラップ
  6
CONTINUOUS
 62
     6
100
AcDbVertex
100
AcDb2dVertex
 10
1640.74765
 20
1108.103699
 30
0.0
  0
VERTEX
  5
3E3
100
AcDbEntity
  8
トラップ
  6
CONTINUOUS
 62
     6
100
AcDbVertex
100
AcDb2dVertex
 10
1640.629906
 20
1109.335929
 30
0.0
  0
VERTEX
  5
3E4
100
AcDbEntity
  8
トラップ
  6
CONTINUOUS
 62
     6
100
AcDbVertex
100
AcDb2dVertex
 10
1640.283464
 20
1110.496543
 30
0.0
  0
VERTEX
  5
3E5
100
AcDbEntity
  8
トラップ
  6
CONTINUOUS
 62
     6
100
AcDbVertex
100
AcDb2dVertex
 10
1639.728571
 20
1111.518096
 30
0.0
  0
VERTEX
  5
3E6
100
AcDbEntity
  8
トラップ
  6
CONTINUOUS
 62
     6
100
AcDbVertex
100
AcDb2dVertex
 10
1638.997339
 20
1112.341271
 30
0.0
  0
VERTEX
  5
3E7
100
AcDbEntity
  8
トラップ
  6
CONTINUOUS
 62
     6
100
AcDbVertex
100
AcDb2dVertex
 10
1638.132358
 20
1112.918164
 30
0.0
  0
VERTEX
  5
3E8
100
AcDbEntity
  8
トラップ
  6
CONTINUOUS
 62
     6
100
AcDbVertex
100
AcDb2dVertex
 10
1637.183856
 20
1113.215223
 30
0.0
  0
VERTEX
  5
3E9
100
AcDbEntity
  8
トラップ
  6
CONTINUOUS
 62
     6
100
AcDbVertex
100
AcDb2dVertex
 10
1636.206967
 20
1113.215223
 30
0.0
  0
VERTEX
  5
3EA
100
AcDbEntity
  8
トラップ
  6
CONTINUOUS
 62
     6
100
AcDbVertex
100
AcDb2dVertex
 10
1635.258536
 20
1112.918164
 30
0.0
  0
VERTEX
  5
3EB
100
AcDbEntity
  8
トラップ
  6
CONTINUOUS
 62
     6
100
AcDbVertex
100
AcDb2dVertex
 10
1634.393561
 20
1112.341271
 30
0.0
  0
VERTEX
  5
3EC
100
AcDbEntity
  8
トラップ
  6
CONTINUOUS
 62
     6
100
AcDbVertex
100
AcDb2dVertex
 10
1633.662329
 20
1111.518096
 30
0.0
  0
VERTEX
  5
3ED
100
AcDbEntity
  8
トラップ
  6
CONTINUOUS
 62
     6
100
AcDbVertex
100
AcDb2dVertex
 10
1633.107435
 20
1110.496543
 30
0.0
  0
VERTEX
  5
3EE
100
AcDbEntity
  8
トラップ
  6
CONTINUOUS
 62
     6
100
AcDbVertex
100
AcDb2dVertex
 10
1632.760994
 20
1109.335929
 30
0.0
  0
VERTEX
  5
3EF
100
AcDbEntity
  8
トラップ
  6
CONTINUOUS
 62
     6
100
AcDbVertex
100
AcDb2dVertex
 10
1632.64325
 20
1108.103699
 30
0.0
  0
VERTEX
  5
3F0
100
AcDbEntity
  8
トラップ
  6
CONTINUOUS
 62
     6
100
AcDbVertex
100
AcDb2dVertex
 10
1632.760994
 20
1106.871468
 30
0.0
  0
VERTEX
  5
3F1
100
AcDbEntity
  8
トラップ
  6
CONTINUOUS
 62
     6
100
AcDbVertex
100
AcDb2dVertex
 10
1633.107435
 20
1105.710855
 30
0.0
  0
VERTEX
  5
3F2
100
AcDbEntity
  8
トラップ
  6
CONTINUOUS
 62
     6
100
AcDbVertex
100
AcDb2dVertex
 10
1633.662329
 20
1104.689301
 30
0.0
  0
VERTEX
  5
3F3
100
AcDbEntity
  8
トラップ
  6
CONTINUOUS
 62
     6
100
AcDbVertex
100
AcDb2dVertex
 10
1634.393561
 20
1103.866127
 30
0.0
  0
VERTEX
  5
3F4
100
AcDbEntity
  8
トラップ
  6
CONTINUOUS
 62
     6
100
AcDbVertex
100
AcDb2dVertex
 10
1635.258536
 20
1103.289234
 30
0.0
  0
VERTEX
  5
3F5
100
AcDbEntity
  8
トラップ
  6
CONTINUOUS
 62
     6
100
AcDbVertex
100
AcDb2dVertex
 10
1636.206967
 20
1102.992174
 30
0.0
  0
VERTEX
  5
3F6
100
AcDbEntity
  8
トラップ
  6
CONTINUOUS
 62
     6
100
AcDbVertex
100
AcDb2dVertex
 10
1637.183856
 20
1102.992174
 30
0.0
  0
VERTEX
  5
3F7
100
AcDbEntity
  8
トラップ
  6
CONTINUOUS
 62
     6
100
AcDbVertex
100
AcDb2dVertex
 10
1638.132358
 20
1103.289234
 30
0.0
  0
VERTEX
  5
3F8
100
AcDbEntity
  8
トラップ
  6
CONTINUOUS
 62
     6
100
AcDbVertex
100
AcDb2dVertex
 10
1638.997339
 20
1103.866127
 30
0.0
  0
VERTEX
  5
3F9
100
AcDbEntity
  8
トラップ
  6
CONTINUOUS
 62
     6
100
AcDbVertex
100
AcDb2dVertex
 10
1639.728571
 20
1104.689301
 30
0.0
  0
VERTEX
  5
3FA
100
AcDbEntity
  8
トラップ
  6
CONTINUOUS
 62
     6
100
AcDbVertex
100
AcDb2dVertex
 10
1640.283464
 20
1105.710855
 30
0.0
  0
VERTEX
  5
3FB
100
AcDbEntity
  8
トラップ
  6
CONTINUOUS
 62
     6
100
AcDbVertex
100
AcDb2dVertex
 10
1640.629906
 20
1106.871468
 30
0.0
  0
VERTEX
  5
3FC
100
AcDbEntity
  8
トラップ
  6
CONTINUOUS
 62
     6
100
AcDbVertex
100
AcDb2dVertex
 10
1640.74765
 20
1108.103699
 30
0.0
  0
SEQEND
  5
3FD
100
AcDbEntity
  8
トラップ
  6
CONTINUOUS
 62
     6
  0
LINE
  5
3FE
100
AcDbEntity
  8
トラップ
  6
CONTINUOUS
 62
     6
100
AcDbLine
 10
1606.49762
 20
1101.103729
 30
0.0
 11
1636.49762
 21
1101.103729
 31
0.0
  0
LINE
  5
3FF
100
AcDbEntity
  8
トラップ
  6
CONTINUOUS
 62
     6
100
AcDbLine
 10
1605.497559
 20
1102.10379
 30
0.0
 11
1606.49762
 21
1101.103729
 31
0.0
  0
LINE
  5
400
100
AcDbEntity
  8
トラップ
  6
CONTINUOUS
 62
     6
100
AcDbLine
 10
1636.49762
 20
1101.103729
 30
0.0
 11
1637.497681
 21
1102.10379
 31
0.0
  0
ARC
  5
401
100
AcDbEntity
  8
トラップ
  6
CONTINUOUS
 62
     6
100
AcDbCircle
 10
1635.497711
 20
1099.60257
 30
0.0
 40
1.3
100
AcDbArc
 50
120.001801
 51
180.0
  0
LINE
  5
402
100
AcDbEntity
  8
トラップ
  6
CONTINUOUS
 62
     6
100
AcDbLine
 10
1634.847687
 20
1100.728363
 30
0.0
 11
1635.497864
 21
1101.103729
 31
0.0
  0
LINE
  5
403
100
AcDbEntity
  8
トラップ
  6
CONTINUOUS
 62
     6
100
AcDbLine
 10
1608.147552
 20
1100.728363
 30
0.0
 11
1607.497375
 21
1101.103729
 31
0.0
  0
ARC
  5
404
100
AcDbEntity
  8
トラップ
  6
CONTINUOUS
 62
     6
100
AcDbCircle
 10
1607.497528
 20
1099.60257
 30
0.0
 40
1.3
100
AcDbArc
 50
0.0
 51
59.998199
  0
ARC
  5
405
100
AcDbEntity
  8
トラップ
  6
CONTINUOUS
 62
     6
100
AcDbCircle
 10
1607.497528
 20
1099.60257
 30
0.0
 40
1.3
100
AcDbArc
 50
0.0
 51
59.998199
  0
ARC
  5
406
100
AcDbEntity
  8
トラップ
  6
CONTINUOUS
 62
     6
100
AcDbCircle
 10
1635.497711
 20
1099.60257
 30
0.0
 40
1.3
100
AcDbArc
 50
120.001801
 51
180.0
  0
LINE
  5
407
100
AcDbEntity
  8
トラップ
  6
CONTINUOUS
 62
     6
100
AcDbLine
 10
1608.797577
 20
1114.103607
 30
0.0
 11
1608.797577
 21
1120.403656
 31
0.0
  0
LINE
  5
408
100
AcDbEntity
  8
トラップ
  6
CONTINUOUS
 62
     6
100
AcDbLine
 10
1634.197662
 20
1114.103607
 30
0.0
 11
1634.197662
 21
1120.403656
 31
0.0
  0
LINE
  5
409
100
AcDbEntity
  8
トラップ
  6
CONTINUOUS
 62
     6
100
AcDbLine
 10
1608.797577
 20
1098.353638
 30
0.0
 11
1608.797577
 21
1099.60257
 31
0.0
  0
LINE
  5
40A
100
AcDbEntity
  8
トラップ
  6
CONTINUOUS
 62
     6
100
AcDbLine
 10
1634.197662
 20
1098.353638
 30
0.0
 11
1634.197662
 21
1099.60257
 31
0.0
  0
LINE
  5
40B
100
AcDbEntity
  8
トラップ
  6
CONTINUOUS
 62
     6
100
AcDbLine
 10
1537.497528
 20
1297.103638
 30
0.0
 11
1532.74762
 21
1292.231964
 31
0.0
  0
LINE
  5
40C
100
AcDbEntity
  8
トラップ
  6
CONTINUOUS
 62
     6
100
AcDbLine
 10
1578.497589
 20
1297.103638
 30
0.0
 11
1583.247498
 21
1292.231964
 31
0.0
  0
LINE
  5
40D
100
AcDbEntity
  8
トラップ
  6
CONTINUOUS
 62
     6
100
AcDbLine
 10
1542.597473
 20
1282.231812
 30
0.0
 11
1542.597473
 21
1277.103485
 31
0.0
  0
LINE
  5
40E
100
AcDbEntity
  8
トラップ
  6
CONTINUOUS
 62
     6
100
AcDbLine
 10
1541.997498
 20
1282.231812
 30
0.0
 11
1541.997498
 21
1277.103485
 31
0.0
  0
LINE
  5
40F
100
AcDbEntity
  8
トラップ
  6
CONTINUOUS
 62
     6
100
AcDbLine
 10
1573.99762
 20
1282.231812
 30
0.0
 11
1573.99762
 21
1277.103485
 31
0.0
  0
LINE
  5
410
100
AcDbEntity
  8
トラップ
  6
CONTINUOUS
 62
     6
100
AcDbLine
 10
1573.397644
 20
1282.231812
 30
0.0
 11
1573.397644
 21
1277.103485
 31
0.0
  0
LINE
  5
411
100
AcDbEntity
  8
トラップ
  6
CONTINUOUS
 62
     6
100
AcDbLine
 10
1545.297516
 20
1188.603729
 30
0.0
 11
1545.297516
 21
1265.103516
 31
0.0
  0
LINE
  5
412
100
AcDbEntity
  8
トラップ
  6
CONTINUOUS
 62
     6
100
AcDbLine
 10
1570.697601
 20
1188.603729
 30
0.0
 11
1570.697601
 21
1265.103516
 31
0.0
  0
LINE
  5
413
100
AcDbEntity
  8
トラップ
  6
CONTINUOUS
 62
     6
100
AcDbLine
 10
1574.497559
 20
1265.103516
 30
0.0
 11
1541.497559
 21
1265.103516
 31
0.0
  0
POLYLINE
  5
414
100
AcDbEntity
  8
トラップ
  6
CONTINUOUS
 62
     6
100
AcDb2dPolyline
 66
     1
 10
0.0
 20
0.0
 30
0.0
 70
   128
  0
VERTEX
  5
415
100
AcDbEntity
  8
トラップ
  6
CONTINUOUS
 62
     6
100
AcDbVertex
100
AcDb2dVertex
 10
1573.692596
 20
1271.103424
 30
0.0
  0
VERTEX
  5
416
100
AcDbEntity
  8
トラップ
  6
CONTINUOUS
 62
     6
100
AcDbVertex
100
AcDb2dVertex
 10
1573.490762
 20
1272.335675
 30
0.0
  0
VERTEX
  5
417
100
AcDbEntity
  8
トラップ
  6
CONTINUOUS
 62
     6
100
AcDbVertex
100
AcDb2dVertex
 10
1572.897058
 20
1273.496382
 30
0.0
  0
VERTEX
  5
418
100
AcDbEntity
  8
トラップ
  6
CONTINUOUS
 62
     6
100
AcDbVertex
100
AcDb2dVertex
 10
1571.945985
 20
1274.517974
 30
0.0
  0
VERTEX
  5
419
100
AcDbEntity
  8
トラップ
  6
CONTINUOUS
 62
     6
100
AcDbVertex
100
AcDb2dVertex
 10
1570.692765
 20
1275.341149
 30
0.0
  0
VERTEX
  5
41A
100
AcDbEntity
  8
トラップ
  6
CONTINUOUS
 62
     6
100
AcDbVertex
100
AcDb2dVertex
 10
1569.210228
 20
1275.918042
 30
0.0
  0
VERTEX
  5
41B
100
AcDbEntity
  8
トラップ
  6
CONTINUOUS
 62
     6
100
AcDbVertex
100
AcDb2dVertex
 10
1567.584566
 20
1276.215101
 30
0.0
  0
VERTEX
  5
41C
100
AcDbEntity
  8
トラップ
  6
CONTINUOUS
 62
     6
100
AcDbVertex
100
AcDb2dVertex
 10
1565.910322
 20
1276.215101
 30
0.0
  0
VERTEX
  5
41D
100
AcDbEntity
  8
トラップ
  6
CONTINUOUS
 62
     6
100
AcDbVertex
100
AcDb2dVertex
 10
1564.28473
 20
1275.918042
 30
0.0
  0
VERTEX
  5
41E
100
AcDbEntity
  8
トラップ
  6
CONTINUOUS
 62
     6
100
AcDbVertex
100
AcDb2dVertex
 10
1562.8022
 20
1275.341149
 30
0.0
  0
VERTEX
  5
41F
100
AcDbEntity
  8
トラップ
  6
CONTINUOUS
 62
     6
100
AcDbVertex
100
AcDb2dVertex
 10
1561.54898
 20
1274.517974
 30
0.0
  0
VERTEX
  5
420
100
AcDbEntity
  8
トラップ
  6
CONTINUOUS
 62
     6
100
AcDbVertex
100
AcDb2dVertex
 10
1560.597906
 20
1273.496382
 30
0.0
  0
VERTEX
  5
421
100
AcDbEntity
  8
トラップ
  6
CONTINUOUS
 62
     6
100
AcDbVertex
100
AcDb2dVertex
 10
1560.004203
 20
1272.335675
 30
0.0
  0
VERTEX
  5
422
100
AcDbEntity
  8
トラップ
  6
CONTINUOUS
 62
     6
100
AcDbVertex
100
AcDb2dVertex
 10
1559.802368
 20
1271.103424
 30
0.0
  0
VERTEX
  5
423
100
AcDbEntity
  8
トラップ
  6
CONTINUOUS
 62
     6
100
AcDbVertex
100
AcDb2dVertex
 10
1560.004203
 20
1269.871173
 30
0.0
  0
VERTEX
  5
424
100
AcDbEntity
  8
トラップ
  6
CONTINUOUS
 62
     6
100
AcDbVertex
100
AcDb2dVertex
 10
1560.597906
 20
1268.710466
 30
0.0
  0
VERTEX
  5
425
100
AcDbEntity
  8
トラップ
  6
CONTINUOUS
 62
     6
100
AcDbVertex
100
AcDb2dVertex
 10
1561.54898
 20
1267.688874
 30
0.0
  0
VERTEX
  5
426
100
AcDbEntity
  8
トラップ
  6
CONTINUOUS
 62
     6
100
AcDbVertex
100
AcDb2dVertex
 10
1562.8022
 20
1266.865699
 30
0.0
  0
VERTEX
  5
427
100
AcDbEntity
  8
トラップ
  6
CONTINUOUS
 62
     6
100
AcDbVertex
100
AcDb2dVertex
 10
1564.28473
 20
1266.288806
 30
0.0
  0
VERTEX
  5
428
100
AcDbEntity
  8
トラップ
  6
CONTINUOUS
 62
     6
100
AcDbVertex
100
AcDb2dVertex
 10
1565.910322
 20
1265.991747
 30
0.0
  0
VERTEX
  5
429
100
AcDbEntity
  8
トラップ
  6
CONTINUOUS
 62
     6
100
AcDbVertex
100
AcDb2dVertex
 10
1567.584566
 20
1265.991747
 30
0.0
  0
VERTEX
  5
42A
100
AcDbEntity
  8
トラップ
  6
CONTINUOUS
 62
     6
100
AcDbVertex
100
AcDb2dVertex
 10
1569.210228
 20
1266.288806
 30
0.0
  0
VERTEX
  5
42B
100
AcDbEntity
  8
トラップ
  6
CONTINUOUS
 62
     6
100
AcDbVertex
100
AcDb2dVertex
 10
1570.692765
 20
1266.865699
 30
0.0
  0
VERTEX
  5
42C
100
AcDbEntity
  8
トラップ
  6
CONTINUOUS
 62
     6
100
AcDbVertex
100
AcDb2dVertex
 10
1571.945985
 20
1267.688874
 30
0.0
  0
VERTEX
  5
42D
100
AcDbEntity
  8
トラップ
  6
CONTINUOUS
 62
     6
100
AcDbVertex
100
AcDb2dVertex
 10
1572.897058
 20
1268.710466
 30
0.0
  0
VERTEX
  5
42E
100
AcDbEntity
  8
トラップ
  6
CONTINUOUS
 62
     6
100
AcDbVertex
100
AcDb2dVertex
 10
1573.490762
 20
1269.871173
 30
0.0
  0
VERTEX
  5
42F
100
AcDbEntity
  8
トラップ
  6
CONTINUOUS
 62
     6
100
AcDbVertex
100
AcDb2dVertex
 10
1573.692596
 20
1271.103424
 30
0.0
  0
SEQEND
  5
430
100
AcDbEntity
  8
トラップ
  6
CONTINUOUS
 62
     6
  0
POLYLINE
  5
431
100
AcDbEntity
  8
トラップ
  6
CONTINUOUS
 62
     6
100
AcDb2dPolyline
 66
     1
 10
0.0
 20
0.0
 30
0.0
 70
   128
  0
VERTEX
  5
432
100
AcDbEntity
  8
トラップ
  6
CONTINUOUS
 62
     6
100
AcDbVertex
100
AcDb2dVertex
 10
1556.192749
 20
1271.103424
 30
0.0
  0
VERTEX
  5
433
100
AcDbEntity
  8
トラップ
  6
CONTINUOUS
 62
     6
100
AcDbVertex
100
AcDb2dVertex
 10
1555.990915
 20
1272.335675
 30
0.0
  0
VERTEX
  5
434
100
AcDbEntity
  8
トラップ
  6
CONTINUOUS
 62
     6
100
AcDbVertex
100
AcDb2dVertex
 10
1555.397211
 20
1273.496382
 30
0.0
  0
VERTEX
  5
435
100
AcDbEntity
  8
トラップ
  6
CONTINUOUS
 62
     6
100
AcDbVertex
100
AcDb2dVertex
 10
1554.446138
 20
1274.517974
 30
0.0
  0
VERTEX
  5
436
100
AcDbEntity
  8
トラップ
  6
CONTINUOUS
 62
     6
100
AcDbVertex
100
AcDb2dVertex
 10
1553.192917
 20
1275.341149
 30
0.0
  0
VERTEX
  5
437
100
AcDbEntity
  8
トラップ
  6
CONTINUOUS
 62
     6
100
AcDbVertex
100
AcDb2dVertex
 10
1551.710387
 20
1275.918042
 30
0.0
  0
VERTEX
  5
438
100
AcDbEntity
  8
トラップ
  6
CONTINUOUS
 62
     6
100
AcDbVertex
100
AcDb2dVertex
 10
1550.084795
 20
1276.215101
 30
0.0
  0
VERTEX
  5
439
100
AcDbEntity
  8
トラップ
  6
CONTINUOUS
 62
     6
100
AcDbVertex
100
AcDb2dVertex
 10
1548.410551
 20
1276.215101
 30
0.0
  0
VERTEX
  5
43A
100
AcDbEntity
  8
トラップ
  6
CONTINUOUS
 62
     6
100
AcDbVertex
100
AcDb2dVertex
 10
1546.784889
 20
1275.918042
 30
0.0
  0
VERTEX
  5
43B
100
AcDbEntity
  8
トラップ
  6
CONTINUOUS
 62
     6
100
AcDbVertex
100
AcDb2dVertex
 10
1545.302352
 20
1275.341149
 30
0.0
  0
VERTEX
  5
43C
100
AcDbEntity
  8
トラップ
  6
CONTINUOUS
 62
     6
100
AcDbVertex
100
AcDb2dVertex
 10
1544.049132
 20
1274.517974
 30
0.0
  0
VERTEX
  5
43D
100
AcDbEntity
  8
トラップ
  6
CONTINUOUS
 62
     6
100
AcDbVertex
100
AcDb2dVertex
 10
1543.098059
 20
1273.496382
 30
0.0
  0
VERTEX
  5
43E
100
AcDbEntity
  8
トラップ
  6
CONTINUOUS
 62
     6
100
AcDbVertex
100
AcDb2dVertex
 10
1542.504355
 20
1272.335675
 30
0.0
  0
VERTEX
  5
43F
100
AcDbEntity
  8
トラップ
  6
CONTINUOUS
 62
     6
100
AcDbVertex
100
AcDb2dVertex
 10
1542.302521
 20
1271.103424
 30
0.0
  0
VERTEX
  5
440
100
AcDbEntity
  8
トラップ
  6
CONTINUOUS
 62
     6
100
AcDbVertex
100
AcDb2dVertex
 10
1542.504355
 20
1269.871173
 30
0.0
  0
VERTEX
  5
441
100
AcDbEntity
  8
トラップ
  6
CONTINUOUS
 62
     6
100
AcDbVertex
100
AcDb2dVertex
 10
1543.098059
 20
1268.710466
 30
0.0
  0
VERTEX
  5
442
100
AcDbEntity
  8
トラップ
  6
CONTINUOUS
 62
     6
100
AcDbVertex
100
AcDb2dVertex
 10
1544.049132
 20
1267.688874
 30
0.0
  0
VERTEX
  5
443
100
AcDbEntity
  8
トラップ
  6
CONTINUOUS
 62
     6
100
AcDbVertex
100
AcDb2dVertex
 10
1545.302352
 20
1266.865699
 30
0.0
  0
VERTEX
  5
444
100
AcDbEntity
  8
トラップ
  6
CONTINUOUS
 62
     6
100
AcDbVertex
100
AcDb2dVertex
 10
1546.784889
 20
1266.288806
 30
0.0
  0
VERTEX
  5
445
100
AcDbEntity
  8
トラップ
  6
CONTINUOUS
 62
     6
100
AcDbVertex
100
AcDb2dVertex
 10
1548.410551
 20
1265.991747
 30
0.0
  0
VERTEX
  5
446
100
AcDbEntity
  8
トラップ
  6
CONTINUOUS
 62
     6
100
AcDbVertex
100
AcDb2dVertex
 10
1550.084795
 20
1265.991747
 30
0.0
  0
VERTEX
  5
447
100
AcDbEntity
  8
トラップ
  6
CONTINUOUS
 62
     6
100
AcDbVertex
100
AcDb2dVertex
 10
1551.710387
 20
1266.288806
 30
0.0
  0
VERTEX
  5
448
100
AcDbEntity
  8
トラップ
  6
CONTINUOUS
 62
     6
100
AcDbVertex
100
AcDb2dVertex
 10
1553.192917
 20
1266.865699
 30
0.0
  0
VERTEX
  5
449
100
AcDbEntity
  8
トラップ
  6
CONTINUOUS
 62
     6
100
AcDbVertex
100
AcDb2dVertex
 10
1554.446138
 20
1267.688874
 30
0.0
  0
VERTEX
  5
44A
100
AcDbEntity
  8
トラップ
  6
CONTINUOUS
 62
     6
100
AcDbVertex
100
AcDb2dVertex
 10
1555.397211
 20
1268.710466
 30
0.0
  0
VERTEX
  5
44B
100
AcDbEntity
  8
トラップ
  6
CONTINUOUS
 62
     6
100
AcDbVertex
100
AcDb2dVertex
 10
1555.990915
 20
1269.871173
 30
0.0
  0
VERTEX
  5
44C
100
AcDbEntity
  8
トラップ
  6
CONTINUOUS
 62
     6
100
AcDbVertex
100
AcDb2dVertex
 10
1556.192749
 20
1271.103424
 30
0.0
  0
SEQEND
  5
44D
100
AcDbEntity
  8
トラップ
  6
CONTINUOUS
 62
     6
  0
LINE
  5
44E
100
AcDbEntity
  8
トラップ
  6
CONTINUOUS
 62
     6
100
AcDbLine
 10
1540.497559
 20
1266.103516
 30
0.0
 11
1540.497559
 21
1276.103485
 31
0.0
  0
LINE
  5
44F
100
AcDbEntity
  8
トラップ
  6
CONTINUOUS
 62
     6
100
AcDbLine
 10
1575.497559
 20
1266.103516
 30
0.0
 11
1575.497559
 21
1276.103485
 31
0.0
  0
LINE
  5
450
100
AcDbEntity
  8
トラップ
  6
CONTINUOUS
 62
     6
100
AcDbLine
 10
1574.497559
 20
1277.103485
 30
0.0
 11
1541.497559
 21
1277.103485
 31
0.0
  0
LINE
  5
451
100
AcDbEntity
  8
トラップ
  6
CONTINUOUS
 62
     6
100
AcDbLine
 10
1532.74762
 20
1291.231903
 30
0.0
 11
1532.74762
 21
1292.231964
 31
0.0
  0
LINE
  5
452
100
AcDbEntity
  8
トラップ
  6
CONTINUOUS
 62
     6
100
AcDbLine
 10
1583.247498
 20
1291.231903
 30
0.0
 11
1583.247498
 21
1292.231964
 31
0.0
  0
LINE
  5
453
100
AcDbEntity
  8
トラップ
  6
CONTINUOUS
 62
     6
100
AcDbLine
 10
1582.997559
 20
1288.231873
 30
0.0
 11
1532.997559
 21
1288.231873
 31
0.0
  0
LINE
  5
454
100
AcDbEntity
  8
トラップ
  6
CONTINUOUS
 62
     6
100
AcDbLine
 10
1575.497559
 20
1282.231812
 30
0.0
 11
1540.497559
 21
1282.231812
 31
0.0
  0
LINE
  5
455
100
AcDbEntity
  8
トラップ
  6
CONTINUOUS
 62
     6
100
AcDbLine
 10
1540.497559
 20
1282.231812
 30
0.0
 11
1539.247559
 21
1282.946075
 31
0.0
  0
LINE
  5
456
100
AcDbEntity
  8
トラップ
  6
CONTINUOUS
 62
     6
100
AcDbLine
 10
1575.497559
 20
1282.231812
 30
0.0
 11
1576.747559
 21
1282.946075
 31
0.0
  0
ARC
  5
457
100
AcDbEntity
  8
トラップ
  6
CONTINUOUS
 62
     6
100
AcDbCircle
 10
1548.622559
 20
1309.678253
 30
0.0
 40
26.732187
100
AcDbArc
 50
252.158905
 51
287.841064
  0
ARC
  5
458
100
AcDbEntity
  8
トラップ
  6
CONTINUOUS
 62
     6
100
AcDbCircle
 10
1567.372406
 20
1309.677795
 30
0.0
 40
26.731701
100
AcDbArc
 50
252.15892
 51
287.841309
  0
LINE
  5
459
100
AcDbEntity
  8
トラップ
  6
CONTINUOUS
 62
     6
100
AcDbLine
 10
1556.812714
 20
1284.231628
 30
0.0
 11
1559.182404
 21
1284.231628
 31
0.0
  0
LINE
  5
45A
100
AcDbEntity
  8
トラップ
  6
CONTINUOUS
 62
     6
100
AcDbLine
 10
1576.747559
 20
1282.946075
 30
0.0
 11
1576.747559
 21
1288.231873
 31
0.0
  0
LINE
  5
45B
100
AcDbEntity
  8
トラップ
  6
CONTINUOUS
 62
     6
100
AcDbLine
 10
1559.182404
 20
1284.231628
 30
0.0
 11
1559.182404
 21
1288.231873
 31
0.0
  0
LINE
  5
45C
100
AcDbEntity
  8
トラップ
  6
CONTINUOUS
 62
     6
100
AcDbLine
 10
1556.812714
 20
1284.231628
 30
0.0
 11
1556.812714
 21
1288.231873
 31
0.0
  0
LINE
  5
45D
100
AcDbEntity
  8
トラップ
  6
CONTINUOUS
 62
     6
100
AcDbLine
 10
1539.247559
 20
1282.946075
 30
0.0
 11
1539.247559
 21
1288.231873
 31
0.0
  0
LINE
  5
45E
100
AcDbEntity
  8
トラップ
  6
CONTINUOUS
 62
     6
100
AcDbLine
 10
1532.74762
 20
1291.231903
 30
0.0
 11
1583.247498
 21
1291.231903
 31
0.0
  0
LINE
  5
45F
100
AcDbEntity
  8
トラップ
  6
CONTINUOUS
 62
     6
100
AcDbLine
 10
1532.997559
 20
1291.231903
 30
0.0
 11
1532.997559
 21
1288.231873
 31
0.0
  0
LINE
  5
460
100
AcDbEntity
  8
トラップ
  6
CONTINUOUS
 62
     6
100
AcDbLine
 10
1582.997559
 20
1291.231903
 30
0.0
 11
1582.997559
 21
1288.231873
 31
0.0
  0
LINE
  5
461
100
AcDbEntity
  8
トラップ
  6
CONTINUOUS
 62
     6
100
AcDbLine
 10
1571.69751
 20
1138.139557
 30
0.0
 11
1571.69751
 21
1173.803619
 31
0.0
  0
LINE
  5
462
100
AcDbEntity
  8
トラップ
  6
CONTINUOUS
 62
     6
100
AcDbLine
 10
1570.697601
 20
1098.353638
 30
0.0
 11
1570.697601
 21
1135.335907
 31
0.0
  0
ARC
  5
463
100
AcDbEntity
  8
トラップ
  6
CONTINUOUS
 62
     6
100
AcDbCircle
 10
1572.697571
 20
1135.335907
 30
0.0
 40
2.0
100
AcDbArc
 50
150.001907
 51
180.0
  0
LINE
  5
464
100
AcDbEntity
  8
トラップ
  6
CONTINUOUS
 62
     6
100
AcDbLine
 10
1570.965546
 20
1136.335815
 30
0.0
 11
1571.69751
 21
1137.603516
 31
0.0
  0
ARC
  5
465
100
AcDbEntity
  8
トラップ
  6
CONTINUOUS
 62
     6
100
AcDbCircle
 10
1569.69754
 20
1138.139557
 30
0.0
 40
2.0
100
AcDbArc
 50
330.001953
 51
0.0
  0
LINE
  5
466
100
AcDbEntity
  8
トラップ
  6
CONTINUOUS
 62
     6
100
AcDbLine
 10
1732.392588
 20
1216.076374
 30
0.0
 11
1804.497759
 21
1216.076374
 31
0.0
  0
TEXT
  5
467
100
AcDbEntity
  8
トラップ
  6
CONTINUOUS
 62
     2
100
AcDbText
 10
1728.392588
 20
1219.576374
 30
0.0
 40
40.0
  1
２５
 41
0.861
  7
EXCADSTD
 72
     5
 11
1803.553788
 21
1219.576374
 31
0.0
100
AcDbText
  0
LINE
  5
468
100
AcDbEntity
  8
トラップ
  6
CONTINUOUS
 62
     6
100
AcDbLine
 10
1466.872124
 20
1196.993902
 30
0.0
 11
1240.6
 21
1196.993902
 31
0.0
  0
TEXT
  5
469
100
AcDbEntity
  8
トラップ
  6
CONTINUOUS
 62
     2
100
AcDbText
 10
1236.872124
 20
1200.493902
 30
0.0
 40
40.0
  1
ＮＬ８１ＤＰ
 41
0.805
  7
EXCADSTD
 72
     5
 11
1466.872124
 21
1200.493902
 31
0.0
100
AcDbText
  0
LINE
  5
46A
100
AcDbEntity
  8
トラップ
  6
CONTINUOUS
 62
     3
100
AcDbLine
 10
621.481201
 20
1152.103638
 30
0.0
 11
661.481201
 21
1152.103638
 31
0.0
  0
LINE
  5
46B
100
AcDbEntity
  8
トラップ
  6
CONTINUOUS
 62
     3
100
AcDbLine
 10
668.481201
 20
1152.103638
 30
0.0
 11
674.481201
 21
1152.103638
 31
0.0
  0
LINE
  5
46C
100
AcDbEntity
  8
トラップ
  6
CONTINUOUS
 62
     3
100
AcDbLine
 10
681.481201
 20
1152.103638
 30
0.0
 11
951.380255
 21
1152.103638
 31
0.0
  0
LINE
  5
46D
100
AcDbEntity
  8
トラップ
  6
EXLTYPE4
 62
     6
100
AcDbLine
 10
685.181152
 20
669.103607
 30
0.0
 11
685.181152
 21
1173.803619
 31
0.0
  0
LINE
  5
46E
100
AcDbEntity
  8
トラップ
  6
EXLTYPE4
 62
     6
100
AcDbLine
 10
710.581152
 20
669.103607
 30
0.0
 11
710.581152
 21
1152.10368
 31
0.0
  0
ARC
  5
46F
100
AcDbEntity
  8
トラップ
  6
EXLTYPE2
 62
     6
100
AcDbCircle
 10
697.881152
 20
1152.10368
 30
0.0
 40
12.7
100
AcDbArc
 50
0.0
 51
180.0
  0
LINE
  5
470
100
AcDbEntity
  8
トラップ
  6
EXLTYPE2
 62
     6
100
AcDbLine
 10
685.181152
 20
632.103638
 30
0.0
 11
710.581152
 21
632.103638
 31
0.0
  0
ARC
  5
471
100
AcDbEntity
  8
トラップ
  6
EXLTYPE2
 62
     6
100
AcDbCircle
 10
713.881213
 20
655.103668
 30
0.0
 40
13.999996
100
AcDbArc
 50
0.0
 51
90.0
  0
ARC
  5
472
100
AcDbEntity
  8
トラップ
  6
EXLTYPE2
 62
     6
100
AcDbCircle
 10
681.881091
 20
655.103668
 30
0.0
 40
13.999996
100
AcDbArc
 50
90.0
 51
180.0
  0
LINE
  5
473
100
AcDbEntity
  8
トラップ
  6
EXLTYPE2
 62
     6
100
AcDbLine
 10
727.881152
 20
655.103668
 30
0.0
 11
727.881152
 21
652.103638
 31
0.0
  0
LINE
  5
474
100
AcDbEntity
  8
トラップ
  6
EXLTYPE2
 62
     6
100
AcDbLine
 10
667.881152
 20
655.103668
 30
0.0
 11
667.881152
 21
652.103638
 31
0.0
  0
LINE
  5
475
100
AcDbEntity
  8
トラップ
  6
EXLTYPE2
 62
     6
100
AcDbLine
 10
681.881091
 20
669.103607
 30
0.0
 11
713.881213
 21
669.103607
 31
0.0
  0
LINE
  5
476
100
AcDbEntity
  8
トラップ
  6
EXLTYPE2
 62
     6
100
AcDbLine
 10
710.581152
 20
632.103638
 30
0.0
 11
710.581152
 21
652.103638
 31
0.0
  0
LINE
  5
477
100
AcDbEntity
  8
トラップ
  6
EXLTYPE2
 62
     6
100
AcDbLine
 10
685.181152
 20
632.103638
 30
0.0
 11
685.181152
 21
652.103638
 31
0.0
  0
ARC
  5
478
100
AcDbEntity
  8
トラップ
  6
CONTINUOUS
 62
     6
100
AcDbCircle
 10
1589.797638
 20
1120.403656
 30
0.0
 40
18.999996
100
AcDbArc
 50
0.0
 51
180.0
  0
LINE
  5
479
100
AcDbEntity
  8
トラップ
  6
EXLTYPE4
 62
     6
100
AcDbLine
 10
1545.297516
 20
669.103607
 30
0.0
 11
1545.297516
 21
1074.0
 31
0.0
  0
LINE
  5
47A
100
AcDbEntity
  8
トラップ
  6
EXLTYPE4
 62
     6
100
AcDbLine
 10
1570.697601
 20
669.103607
 30
0.0
 11
1570.697601
 21
1047.0
 31
0.0
  0
ARC
  5
47B
100
AcDbEntity
  8
トラップ
  6
CONTINUOUS
 62
     6
100
AcDbCircle
 10
1589.797638
 20
1120.403656
 30
0.0
 40
44.399996
100
AcDbArc
 50
44.441672
 51
114.057961
  0
ARC
  5
47C
100
AcDbEntity
  8
トラップ
  6
EXLTYPE2
 62
     6
100
AcDbCircle
 10
1589.797638
 20
1120.403656
 30
0.0
 40
44.399996
100
AcDbArc
 50
114.057961
 51
180.0
  0
ARC
  5
47D
100
AcDbEntity
  8
トラップ
  6
EXLTYPE2
 62
     6
100
AcDbCircle
 10
1589.797638
 20
1120.403656
 30
0.0
 40
44.399996
100
AcDbArc
 50
0.0
 51
44.441672
  0
LINE
  5
47E
100
AcDbEntity
  8
トラップ
  6
EXLTYPE2
 62
     6
100
AcDbLine
 10
1545.297516
 20
632.103638
 30
0.0
 11
1570.697601
 21
632.103638
 31
0.0
  0
ARC
  5
47F
100
AcDbEntity
  8
トラップ
  6
EXLTYPE2
 62
     6
100
AcDbCircle
 10
1573.99762
 20
655.103668
 30
0.0
 40
13.999996
100
AcDbArc
 50
0.0
 51
90.0
  0
ARC
  5
480
100
AcDbEntity
  8
トラップ
  6
EXLTYPE2
 62
     6
100
AcDbCircle
 10
1541.997498
 20
655.103668
 30
0.0
 40
13.999996
100
AcDbArc
 50
90.0
 51
180.0
  0
LINE
  5
481
100
AcDbEntity
  8
トラップ
  6
EXLTYPE2
 62
     6
100
AcDbLine
 10
1587.997559
 20
655.103668
 30
0.0
 11
1587.997559
 21
652.103638
 31
0.0
  0
LINE
  5
482
100
AcDbEntity
  8
トラップ
  6
EXLTYPE2
 62
     6
100
AcDbLine
 10
1527.997559
 20
655.103668
 30
0.0
 11
1527.997559
 21
652.103638
 31
0.0
  0
LINE
  5
483
100
AcDbEntity
  8
トラップ
  6
EXLTYPE2
 62
     6
100
AcDbLine
 10
1541.997498
 20
669.103607
 30
0.0
 11
1573.99762
 21
669.103607
 31
0.0
  0
LINE
  5
484
100
AcDbEntity
  8
トラップ
  6
EXLTYPE2
 62
     6
100
AcDbLine
 10
1570.697601
 20
632.103638
 30
0.0
 11
1570.697601
 21
652.103638
 31
0.0
  0
LINE
  5
485
100
AcDbEntity
  8
トラップ
  6
EXLTYPE2
 62
     6
100
AcDbLine
 10
1545.297516
 20
632.103638
 30
0.0
 11
1545.297516
 21
652.103638
 31
0.0
  0
LINE
  5
486
100
AcDbEntity
  8
トラップ
  6
CONTINUOUS
 62
     6
100
AcDbLine
 10
1469.298546
 20
878.121974
 30
0.0
 11
1240.999908
 21
878.121974
 31
0.0
  0
TEXT
  5
487
100
AcDbEntity
  8
トラップ
  6
CONTINUOUS
 62
     2
100
AcDbText
 10
1245.298547
 20
881.621974
 30
0.0
 40
40.0
  1
ＮＬ８１ＤＳ
 41
0.805
  7
EXCADSTD
 72
     5
 11
1475.298546
 21
881.621974
 31
0.0
100
AcDbText
  0
LINE
  5
488
100
AcDbEntity
  8
トラップ
  6
CONTINUOUS
 62
     6
100
AcDbLine
 10
739.710088
 20
593.547203
 30
0.0
 11
814.762305
 21
593.547203
 31
0.0
  0
TEXT
  5
489
100
AcDbEntity
  8
トラップ
  6
CONTINUOUS
 62
     2
100
AcDbText
 10
740.810088
 20
597.047203
 30
0.0
 40
40.0
  1
２５
 41
0.861
  7
EXCADSTD
 72
     5
 11
815.971288
 21
597.047203
 31
0.0
100
AcDbText
  0
TEXT
  5
48A
100
AcDbEntity
  8
寸法
  6
CONTINUOUS
 62
     2
100
AcDbText
 10
927.880255
 20
1222.603638
 30
0.0
 40
40.0
  1
２６０
 50
90.0
 41
0.833
  7
EXCADSTD
 72
     5
 11
927.880255
 21
1341.603638
 31
0.0
100
AcDbText
  0
LINE
  5
48B
100
AcDbEntity
  8
寸法
  6
CONTINUOUS
 62
     3
100
AcDbLine
 10
931.380255
 20
1412.103638
 30
0.0
 11
931.380255
 21
1152.103638
 31
0.0
  0
LINE
  5
48C
100
AcDbEntity
  8
寸法
  6
CONTINUOUS
 62
     3
100
AcDbLine
 10
937.213589
 20
1377.103638
 30
0.0
 11
931.380255
 21
1412.103638
 31
0.0
  0
LINE
  5
48D
100
AcDbEntity
  8
寸法
  6
CONTINUOUS
 62
     3
100
AcDbLine
 10
931.380255
 20
1412.103638
 30
0.0
 11
925.546922
 21
1377.103638
 31
0.0
  0
LINE
  5
48E
100
AcDbEntity
  8
寸法
  6
CONTINUOUS
 62
     3
100
AcDbLine
 10
925.546922
 20
1187.103638
 30
0.0
 11
931.380255
 21
1152.103638
 31
0.0
  0
LINE
  5
48F
100
AcDbEntity
  8
寸法
  6
CONTINUOUS
 62
     3
100
AcDbLine
 10
931.380255
 20
1152.103638
 30
0.0
 11
937.213589
 21
1187.103638
 31
0.0
  0
TEXT
  5
490
100
AcDbEntity
  8
寸法
  6
CONTINUOUS
 62
     2
100
AcDbText
 10
927.880255
 20
842.603638
 30
0.0
 40
40.0
  1
５００
 50
90.0
 41
0.833
  7
EXCADSTD
 72
     5
 11
927.880255
 21
961.603638
 31
0.0
100
AcDbText
  0
LINE
  5
491
100
AcDbEntity
  8
寸法
  6
CONTINUOUS
 62
     3
100
AcDbLine
 10
931.380255
 20
1152.103638
 30
0.0
 11
931.380255
 21
652.103638
 31
0.0
  0
LINE
  5
492
100
AcDbEntity
  8
寸法
  6
CONTINUOUS
 62
     3
100
AcDbLine
 10
937.213589
 20
1117.103638
 30
0.0
 11
931.380255
 21
1152.103638
 31
0.0
  0
LINE
  5
493
100
AcDbEntity
  8
寸法
  6
CONTINUOUS
 62
     3
100
AcDbLine
 10
931.380255
 20
1152.103638
 30
0.0
 11
925.546922
 21
1117.103638
 31
0.0
  0
LINE
  5
494
100
AcDbEntity
  8
寸法
  6
CONTINUOUS
 62
     3
100
AcDbLine
 10
925.546922
 20
687.103638
 30
0.0
 11
931.380255
 21
652.103638
 31
0.0
  0
LINE
  5
495
100
AcDbEntity
  8
寸法
  6
CONTINUOUS
 62
     3
100
AcDbLine
 10
931.380255
 20
652.103638
 30
0.0
 11
937.213589
 21
687.103638
 31
0.0
  0
TEXT
  5
496
100
AcDbEntity
  8
寸法
  6
CONTINUOUS
 62
     2
100
AcDbText
 10
987.880255
 20
972.603638
 30
0.0
 40
40.0
  1
７６０
 50
90.0
 41
0.833
  7
EXCADSTD
 72
     5
 11
987.880255
 21
1091.603638
 31
0.0
100
AcDbText
  0
LINE
  5
497
100
AcDbEntity
  8
寸法
  6
CONTINUOUS
 62
     3
100
AcDbLine
 10
991.380255
 20
652.103638
 30
0.0
 11
991.380255
 21
1412.103638
 31
0.0
  0
LINE
  5
498
100
AcDbEntity
  8
寸法
  6
CONTINUOUS
 62
     3
100
AcDbLine
 10
985.546922
 20
687.103638
 30
0.0
 11
991.380255
 21
652.103638
 31
0.0
  0
LINE
  5
499
100
AcDbEntity
  8
寸法
  6
CONTINUOUS
 62
     3
100
AcDbLine
 10
991.380255
 20
652.103638
 30
0.0
 11
997.213589
 21
687.103638
 31
0.0
  0
LINE
  5
49A
100
AcDbEntity
  8
寸法
  6
CONTINUOUS
 62
     3
100
AcDbLine
 10
997.213589
 20
1377.103638
 30
0.0
 11
991.380255
 21
1412.103638
 31
0.0
  0
LINE
  5
49B
100
AcDbEntity
  8
寸法
  6
CONTINUOUS
 62
     3
100
AcDbLine
 10
991.380255
 20
1412.103638
 30
0.0
 11
985.546922
 21
1377.103638
 31
0.0
  0
TEXT
  5
49C
100
AcDbEntity
  8
寸法
  6
CONTINUOUS
 62
     2
100
AcDbText
 10
1821.32785
 20
1047.603638
 30
0.0
 40
40.0
  1
９１０
 50
90.0
 41
0.833
  7
EXCADSTD
 72
     5
 11
1821.32785
 21
1166.603638
 31
0.0
100
AcDbText
  0
LINE
  5
49D
100
AcDbEntity
  8
寸法
  6
CONTINUOUS
 62
     3
100
AcDbLine
 10
1824.82785
 20
1562.103638
 30
0.0
 11
1824.82785
 21
652.103638
 31
0.0
  0
LINE
  5
49E
100
AcDbEntity
  8
寸法
  6
CONTINUOUS
 62
     3
100
AcDbLine
 10
1830.661184
 20
1527.103638
 30
0.0
 11
1824.82785
 21
1562.103638
 31
0.0
  0
LINE
  5
49F
100
AcDbEntity
  8
寸法
  6
CONTINUOUS
 62
     3
100
AcDbLine
 10
1824.82785
 20
1562.103638
 30
0.0
 11
1818.994517
 21
1527.103638
 31
0.0
  0
LINE
  5
4A0
100
AcDbEntity
  8
寸法
  6
CONTINUOUS
 62
     3
100
AcDbLine
 10
1818.994517
 20
687.103638
 30
0.0
 11
1824.82785
 21
652.103638
 31
0.0
  0
LINE
  5
4A1
100
AcDbEntity
  8
寸法
  6
CONTINUOUS
 62
     3
100
AcDbLine
 10
1824.82785
 20
652.103638
 30
0.0
 11
1830.661184
 21
687.103638
 31
0.0
  0
TEXT
  5
4A2
100
AcDbEntity
  8
寸法
  6
CONTINUOUS
 62
     2
100
AcDbText
 10
1563.498779
 20
1002.5
 30
0.0
 40
40.0
  1
１３０
 41
0.833
  7
EXCADSTD
 72
     5
 11
1682.498779
 21
1002.5
 31
0.0
100
AcDbText
  0
LINE
  5
4A3
100
AcDbEntity
  8
寸法
  6
CONTINUOUS
 62
     3
100
AcDbLine
 10
1557.997559
 20
999.0
 30
0.0
 11
1688.0
 21
999.0
 31
0.0
  0
LINE
  5
4A4
100
AcDbEntity
  8
寸法
  6
CONTINUOUS
 62
     3
100
AcDbLine
 10
1592.997559
 20
1004.833333
 30
0.0
 11
1557.997559
 21
999.0
 31
0.0
  0
LINE
  5
4A5
100
AcDbEntity
  8
寸法
  6
CONTINUOUS
 62
     3
100
AcDbLine
 10
1557.997559
 20
999.0
 30
0.0
 11
1592.997559
 21
993.166667
 31
0.0
  0
LINE
  5
4A6
100
AcDbEntity
  8
寸法
  6
CONTINUOUS
 62
     3
100
AcDbLine
 10
1653.0
 20
993.166667
 30
0.0
 11
1688.0
 21
999.0
 31
0.0
  0
LINE
  5
4A7
100
AcDbEntity
  8
寸法
  6
CONTINUOUS
 62
     3
100
AcDbLine
 10
1688.0
 20
999.0
 30
0.0
 11
1653.0
 21
1004.833333
 31
0.0
  0
LINE
  5
4A8
100
AcDbEntity
  8
寸法
  6
CONTINUOUS
 62
     3
100
AcDbLine
 10
1698.0
 20
652.103638
 30
0.0
 11
1844.82785
 21
652.103638
 31
0.0
  0
LINE
  5
4A9
100
AcDbEntity
  8
寸法
  6
CONTINUOUS
 62
     3
100
AcDbLine
 10
1612.1
 20
1562.103638
 30
0.0
 11
1632.6
 21
1562.103638
 31
0.0
  0
LINE
  5
4AA
100
AcDbEntity
  8
寸法
  6
CONTINUOUS
 62
     3
100
AcDbLine
 10
1644.6
 20
1562.103638
 30
0.0
 11
1652.6
 21
1562.103638
 31
0.0
  0
LINE
  5
4AB
100
AcDbEntity
  8
寸法
  6
CONTINUOUS
 62
     3
100
AcDbLine
 10
1664.6
 20
1562.103638
 30
0.0
 11
1844.82785
 21
1562.103638
 31
0.0
  0
DIMENSION
  5
4B8
100
AcDbEntity
  8
寸法
  6
CONTINUOUS
 62
     2
100
AcDbDimension
  2
*D14
 10
697.881152
 20
569.0
 30
0.0
 11
583.481201
 21
594.0
 31
0.0
 70
   160
  1
26.5
  3
STANDARD
100
AcDbAlignedDimension
 13
671.481201
 23
1037.103638
 33
0.0
 14
697.881152
 24
632.103638
 34
0.0
100
AcDbRotatedDimension
1001
ACAD
1000
DSTYLE
1002
{
1070
     6
1000
_EX_NORM
1070
     7
1000
_EX_NORM
1070
    41
1040
30.0
1070
    42
1040
7.0
1070
    44
1040
10.0
1070
    73
1070
     0
1070
    74
1070
     0
1070
    75
1070
     0
1070
    76
1070
     0
1070
    77
1070
     1
1070
    78
1070
     8
1070
   140
1040
40.0
1070
   147
1040
5.0
1070
   173
1070
     1
1070
   176
1070
     3
1070
   177
1070
     3
1070
   178
1070
     2
1070
   271
1070
     1
1070
   279
1070
     2
1070
   280
1070
     1
1070
   287
1070
     5
1070
   340
1005
4B7
1002
}
  0
TEXT
  5
4B9
100
AcDbEntity
  8
器具明細表
  6
CONTINUOUS
 62
     2
100
AcDbText
 10
1269.0
 20
2616.0
 30
0.0
 40
60.0
  1
器具明細
 41
1.54
  7
EXCADSTD
 72
     5
 11
1709.0
 21
2616.0
 31
0.0
100
AcDbText
  0
TEXT
  5
4BA
100
AcDbEntity
  8
器具明細表
  6
CONTINUOUS
 62
     2
100
AcDbText
 10
1314.0
 20
2546.0
 30
0.0
 40
55.0
  1
品番
 41
1.527273
  7
EXCADSTD
 72
     5
 11
1497.32
 21
2546.0
 31
0.0
100
AcDbText
  0
TEXT
  5
4BB
100
AcDbEntity
  8
器具明細表
  6
CONTINUOUS
 62
     2
100
AcDbText
 10
1629.0
 20
2546.0
 30
0.0
 40
55.0
  1
品名
 41
1.374545
  7
EXCADSTD
 72
     5
 11
1793.988
 21
2546.0
 31
0.0
100
AcDbText
  0
TEXT
  5
4BC
100
AcDbEntity
  8
器具明細表
  6
CONTINUOUS
 62
     2
100
AcDbText
 10
1860.5
 20
2546.0
 30
0.0
 40
55.0
  1
個数
 41
0.664364
  7
EXCADSTD
 72
     5
 11
1940.2442
 21
2546.0
 31
0.0
100
AcDbText
  0
TEXT
  5
4BD
100
AcDbEntity
  8
器具明細表
  6
CONTINUOUS
 62
     2
100
AcDbText
 10
1253.0
 20
2483.5
 30
0.0
 40
50.0
  1
Ｌ８１Ｄ
 41
0.6552
  7
EXCADSTD
 72
     5
 11
1409.0
 21
2483.5
 31
0.0
100
AcDbText
  0
TEXT
  5
4BE
100
AcDbEntity
  8
器具明細表
  6
CONTINUOUS
 62
     2
100
AcDbText
 10
1253.0
 20
2353.5
 30
0.0
 40
50.0
  1
ＮＬ８１ＤＰ
 41
0.644
  7
EXCADSTD
 72
     5
 11
1482.999999
 21
2353.5
 31
0.0
100
AcDbText
  0
TEXT
  5
4BF
100
AcDbEntity
  8
器具明細表
  6
CONTINUOUS
 62
     2
100
AcDbText
 10
1583.0
 20
2483.5
 30
0.0
 40
50.0
  1
手洗器
 41
0.6664
  7
EXCADSTD
 72
     5
 11
1702.0
 21
2483.5
 31
0.0
100
AcDbText
  0
TEXT
  5
4C0
100
AcDbEntity
  8
器具明細表
  6
CONTINUOUS
 62
     2
100
AcDbText
 10
1583.0
 20
2418.5
 30
0.0
 40
50.0
  1
衛生水栓
 41
0.6552
  7
EXCADSTD
 72
     5
 11
1739.0
 21
2418.5
 31
0.0
100
AcDbText
  0
TEXT
  5
4C1
100
AcDbEntity
  8
器具明細表
  6
CONTINUOUS
 62
     2
100
AcDbText
 10
1583.0
 20
2353.5
 30
0.0
 40
50.0
  1
Ｐトラップ
 41
0.64848
  7
EXCADSTD
 72
     5
 11
1776.0
 21
2353.5
 31
0.0
100
AcDbText
  0
TEXT
  5
4C2
100
AcDbEntity
  8
器具明細表
  6
CONTINUOUS
 62
     2
100
AcDbText
 10
1583.0
 20
2288.5
 30
0.0
 40
50.0
  1
化粧頭付木ねじ
 41
0.6408
  7
EXCADSTD
 72
     5
 11
1849.999999
 21
2288.5
 31
0.0
100
AcDbText
  0
TEXT
  5
4C3
100
AcDbEntity
  8
器具明細表
  6
CONTINUOUS
 62
     2
100
AcDbText
 10
1881.5
 20
2486.0
 30
0.0
 40
45.0
  1
１
 41
0.84
  7
EXCADSTD
 72
     5
 11
1917.5
 21
2486.0
 31
0.0
100
AcDbText
  0
TEXT
  5
4C4
100
AcDbEntity
  8
器具明細表
  6
CONTINUOUS
 62
     2
100
AcDbText
 10
1881.5
 20
2421.0
 30
0.0
 40
45.0
  1
１
 41
0.84
  7
EXCADSTD
 72
     5
 11
1917.5
 21
2421.0
 31
0.0
100
AcDbText
  0
TEXT
  5
4C5
100
AcDbEntity
  8
器具明細表
  6
CONTINUOUS
 62
     2
100
AcDbText
 10
1881.5
 20
2356.0
 30
0.0
 40
45.0
  1
１
 41
0.84
  7
EXCADSTD
 72
     5
 11
1917.5
 21
2356.0
 31
0.0
100
AcDbText
  0
LINE
  5
4C6
100
AcDbEntity
  8
器具明細表
  6
CONTINUOUS
 62
     6
100
AcDbLine
 10
1249.0
 20
2606.0
 30
0.0
 11
1949.0
 21
2606.0
 31
0.0
  0
LINE
  5
4C7
100
AcDbEntity
  8
器具明細表
  6
CONTINUOUS
 62
     6
100
AcDbLine
 10
1949.0
 20
2541.0
 30
0.0
 11
1249.0
 21
2541.0
 31
0.0
  0
LINE
  5
4C8
100
AcDbEntity
  8
器具明細表
  6
CONTINUOUS
 62
     6
100
AcDbLine
 10
1249.0
 20
2476.0
 30
0.0
 11
1949.0
 21
2476.0
 31
0.0
  0
LINE
  5
4C9
100
AcDbEntity
  8
器具明細表
  6
CONTINUOUS
 62
     6
100
AcDbLine
 10
1949.0
 20
2411.0
 30
0.0
 11
1249.0
 21
2411.0
 31
0.0
  0
LINE
  5
4CA
100
AcDbEntity
  8
器具明細表
  6
CONTINUOUS
 62
     6
100
AcDbLine
 10
1249.0
 20
2346.0
 30
0.0
 11
1949.0
 21
2346.0
 31
0.0
  0
LINE
  5
4CB
100
AcDbEntity
  8
器具明細表
  6
CONTINUOUS
 62
     6
100
AcDbLine
 10
1949.0
 20
2281.0
 30
0.0
 11
1249.0
 21
2281.0
 31
0.0
  0
LINE
  5
4CC
100
AcDbEntity
  8
器具明細表
  6
CONTINUOUS
 62
     6
100
AcDbLine
 10
1249.0
 20
2281.0
 30
0.0
 11
1249.0
 21
2606.0
 31
0.0
  0
LINE
  5
4CD
100
AcDbEntity
  8
器具明細表
  6
CONTINUOUS
 62
     6
100
AcDbLine
 10
1579.0
 20
2606.0
 30
0.0
 11
1579.0
 21
2281.0
 31
0.0
  0
LINE
  5
4CE
100
AcDbEntity
  8
器具明細表
  6
CONTINUOUS
 62
     6
100
AcDbLine
 10
1859.0
 20
2281.0
 30
0.0
 11
1859.0
 21
2606.0
 31
0.0
  0
LINE
  5
4CF
100
AcDbEntity
  8
器具明細表
  6
CONTINUOUS
 62
     6
100
AcDbLine
 10
1949.0
 20
2606.0
 30
0.0
 11
1949.0
 21
2281.0
 31
0.0
  0
LINE
  5
4D0
100
AcDbEntity
  8
器具明細表
  6
CONTINUOUS
 62
     6
100
AcDbLine
 10
1249.0
 20
2151.000305
 30
0.0
 11
1949.0
 21
2151.000305
 31
0.0
  0
LINE
  5
4D1
100
AcDbEntity
  8
器具明細表
  6
CONTINUOUS
 62
     6
100
AcDbLine
 10
1249.0
 20
2216.0
 30
0.0
 11
1949.0
 21
2216.0
 31
0.0
  0
TEXT
  5
4D2
100
AcDbEntity
  8
器具明細表
  6
CONTINUOUS
 62
     2
100
AcDbText
 10
1884.0
 20
2158.466125
 30
0.0
 40
47.5
  1
１
 41
0.834695
  7
EXCADSTD
 72
     5
 11
1921.759998
 21
2158.466125
 31
0.0
100
AcDbText
  0
LINE
  5
4D3
100
AcDbEntity
  8
器具明細表
  6
CONTINUOUS
 62
     6
100
AcDbLine
 10
1249.0
 20
2216.0
 30
0.0
 11
1249.0
 21
2151.000305
 31
0.0
  0
LINE
  5
4D4
100
AcDbEntity
  8
器具明細表
  6
CONTINUOUS
 62
     6
100
AcDbLine
 10
1579.0
 20
2216.0
 30
0.0
 11
1579.0
 21
2151.000305
 31
0.0
  0
LINE
  5
4D5
100
AcDbEntity
  8
器具明細表
  6
CONTINUOUS
 62
     6
100
AcDbLine
 10
1859.0
 20
2216.0
 30
0.0
 11
1859.0
 21
2151.000305
 31
0.0
  0
LINE
  5
4D6
100
AcDbEntity
  8
器具明細表
  6
CONTINUOUS
 62
     6
100
AcDbLine
 10
1949.0
 20
2216.0
 30
0.0
 11
1949.0
 21
2151.000305
 31
0.0
  0
TEXT
  5
4D7
100
AcDbEntity
  8
器具明細表
  6
CONTINUOUS
 62
     2
100
AcDbText
 10
1251.983856
 20
2223.480164
 30
0.0
 40
50.0
  1
Ｓトラップの場合
 41
0.693
  7
EXCADSTD
 72
     5
 11
1581.983856
 21
2223.480164
 31
0.0
100
AcDbText
  0
TEXT
  5
4D8
100
AcDbEntity
  8
器具明細表
  6
CONTINUOUS
 62
     2
100
AcDbText
 10
1582.918457
 20
2156.778809
 30
0.0
 40
50.0
  1
Ｓトラップ
 41
0.64848
  7
EXCADSTD
 72
     5
 11
1775.918457
 21
2156.778809
 31
0.0
100
AcDbText
  0
TEXT
  5
4D9
100
AcDbEntity
  8
器具明細表
  6
CONTINUOUS
 62
     2
100
AcDbText
 10
1251.983856
 20
2158.479553
 30
0.0
 40
50.0
  1
ＮＬ８１ＤＳ
 41
0.7
  7
EXCADSTD
 72
     5
 11
1501.983856
 21
2158.479553
 31
0.0
100
AcDbText
  0
TEXT
  5
4DA
100
AcDbEntity
  8
器具明細表
  6
CONTINUOUS
 62
     2
100
AcDbText
 10
1253.0
 20
2418.5
 30
0.0
 40
50.0
  1
ＮＬ１５
 41
0.6552
  7
EXCADSTD
 72
     5
 11
1409.0
 21
2418.5
 31
0.0
100
AcDbText
  0
TEXT
  5
4DB
100
AcDbEntity
  8
器具明細表
  6
CONTINUOUS
 62
     2
100
AcDbText
 10
1881.5
 20
2291.0
 30
0.0
 40
45.0
  1
１
 41
0.84
  7
EXCADSTD
 72
     5
 11
1917.5
 21
2291.0
 31
0.0
100
AcDbText
  0
TEXT
  5
4DC
100
AcDbEntity
  8
器具明細表
  6
CONTINUOUS
 62
     2
100
AcDbText
 10
1253.0
 20
2288.5
 30
0.0
 40
50.0
  1
ＮＴ７Ａ（２）
 41
0.6408
  7
EXCADSTD
 72
     5
 11
1519.999999
 21
2288.5
 31
0.0
100
AcDbText
  0
ENDSEC
  0
SECTION
  2
OBJECTS
  0
DICTIONARY
  5
19
100
AcDbDictionary
  3
ACAD_GROUP
350
1A
  3
ACAD_MLINESTYLE
350
1B
  0
DICTIONARY
  5
1A
102
{ACAD_REACTORS
330
19
102
}
100
AcDbDictionary
  0
DICTIONARY
  5
1B
102
{ACAD_REACTORS
330
19
102
}
100
AcDbDictionary
  3
STANDARD
350
1C
  0
MLINESTYLE
  5
1C
102
{ACAD_REACTORS
330
1B
102
}
100
AcDbMlineStyle
  2
Standard
 70
     0
  3

 62
     0
 51
90.0
 52
90.0
 71
     2
 49
0.5
 62
   256
  6
ByLayer
 49
-0.5
 62
   256
  6
ByLayer
  0
ENDSEC
  0
EOF
