  0
SECTION
  2
HEADER
  9
$ACADVER
  1
AC1014
  9
$ACADMAINTVER
 70
     9
  9
$DWGCODEPAGE
  3
ANSI_932
  9
$INSBASE
 10
0.0
 20
0.0
 30
0.0
  9
$EXTMIN
 10
18.0
 20
13.5
 30
0.0
  9
$EXTMAX
 10
200.0
 20
288.5
 30
0.0
  9
$LIMMIN
 10
0.0
 20
0.0
  9
$LIMMAX
 10
210.0
 20
297.0
  9
$ORTHOMODE
 70
     0
  9
$REGENMODE
 70
     1
  9
$FILLMODE
 70
     1
  9
$QTEXTMODE
 70
     0
  9
$MIRRTEXT
 70
     1
  9
$DRAGMODE
 70
     2
  9
$LTSCALE
 40
1.0
  9
$OSMODE
 70
    37
  9
$ATTMODE
 70
     1
  9
$TEXTSIZE
 40
2.5
  9
$TRACEWID
 40
1.0
  9
$TEXTSTYLE
  7
STANDARD
  9
$CLAYER
  8
寸法
  9
$CELTYPE
  6
BYLAYER
  9
$CECOLOR
 62
   256
  9
$CELTSCALE
 40
1.0
  9
$DELOBJ
 70
     1
  9
$DISPSILH
 70
     0
  9
$DIMSCALE
 40
1.0
  9
$DIMASZ
 40
2.5
  9
$DIMEXO
 40
0.625
  9
$DIMDLI
 40
3.75
  9
$DIMRND
 40
0.0
  9
$DIMDLE
 40
0.0
  9
$DIMEXE
 40
1.25
  9
$DIMTP
 40
0.0
  9
$DIMTM
 40
0.0
  9
$DIMTXT
 40
2.5
  9
$DIMCEN
 40
2.5
  9
$DIMTSZ
 40
0.0
  9
$DIMTOL
 70
     0
  9
$DIMLIM
 70
     0
  9
$DIMTIH
 70
     0
  9
$DIMTOH
 70
     0
  9
$DIMSE1
 70
     0
  9
$DIMSE2
 70
     0
  9
$DIMTAD
 70
     1
  9
$DIMZIN
 70
     8
  9
$DIMBLK
  1

  9
$DIMASO
 70
     1
  9
$DIMSHO
 70
     1
  9
$DIMPOST
  1

  9
$DIMAPOST
  1

  9
$DIMALT
 70
     0
  9
$DIMALTD
 70
     3
  9
$DIMALTF
 40
0.03937007874016
  9
$DIMLFAC
 40
1.0
  9
$DIMTOFL
 70
     1
  9
$DIMTVP
 40
0.0
  9
$DIMTIX
 70
     0
  9
$DIMSOXD
 70
     0
  9
$DIMSAH
 70
     0
  9
$DIMBLK1
  1

  9
$DIMBLK2
  1

  9
$DIMSTYLE
  2
ISO-25
  9
$DIMCLRD
 70
     0
  9
$DIMCLRE
 70
     0
  9
$DIMCLRT
 70
     0
  9
$DIMTFAC
 40
1.0
  9
$DIMGAP
 40
0.625
  9
$DIMJUST
 70
     0
  9
$DIMSD1
 70
     0
  9
$DIMSD2
 70
     0
  9
$DIMTOLJ
 70
     0
  9
$DIMTZIN
 70
     8
  9
$DIMALTZ
 70
     0
  9
$DIMALTTZ
 70
     0
  9
$DIMFIT
 70
     3
  9
$DIMUPT
 70
     0
  9
$DIMUNIT
 70
     2
  9
$DIMDEC
 70
     2
  9
$DIMTDEC
 70
     2
  9
$DIMALTU
 70
     2
  9
$DIMALTTD
 70
     3
  9
$DIMTXSTY
  7
STANDARD
  9
$DIMAUNIT
 70
     0
  9
$LUNITS
 70
     2
  9
$LUPREC
 70
     4
  9
$SKETCHINC
 40
1.0
  9
$FILLETRAD
 40
10.0
  9
$AUNITS
 70
     0
  9
$AUPREC
 70
     0
  9
$MENU
  1
.
  9
$ELEVATION
 40
0.0
  9
$PELEVATION
 40
0.0
  9
$THICKNESS
 40
0.0
  9
$LIMCHECK
 70
     0
  9
$CHAMFERA
 40
10.0
  9
$CHAMFERB
 40
10.0
  9
$CHAMFERC
 40
20.0
  9
$CHAMFERD
 40
0.0
  9
$SKPOLY
 70
     0
  9
$TDCREATE
 40
2457169.671497442
  9
$TDUPDATE
 40
2457169.671497627
  9
$TDINDWG
 40
0.0000000116
  9
$TDUSRTIMER
 40
0.0000000116
  9
$USRTIMER
 70
     1
  9
$ANGBASE
 50
0.0
  9
$ANGDIR
 70
     0
  9
$PDMODE
 70
     0
  9
$PDSIZE
 40
0.0
  9
$PLINEWID
 40
0.0
  9
$COORDS
 70
     1
  9
$SPLFRAME
 70
     0
  9
$SPLINETYPE
 70
     6
  9
$SPLINESEGS
 70
     8
  9
$ATTDIA
 70
     0
  9
$ATTREQ
 70
     1
  9
$HANDLING
 70
     1
  9
$HANDSEED
  5
461
  9
$SURFTAB1
 70
     6
  9
$SURFTAB2
 70
     6
  9
$SURFTYPE
 70
     6
  9
$SURFU
 70
     6
  9
$SURFV
 70
     6
  9
$UCSNAME
  2

  9
$UCSORG
 10
0.0
 20
0.0
 30
0.0
  9
$UCSXDIR
 10
1.0
 20
0.0
 30
0.0
  9
$UCSYDIR
 10
0.0
 20
1.0
 30
0.0
  9
$PUCSNAME
  2

  9
$PUCSORG
 10
0.0
 20
0.0
 30
0.0
  9
$PUCSXDIR
 10
1.0
 20
0.0
 30
0.0
  9
$PUCSYDIR
 10
0.0
 20
1.0
 30
0.0
  9
$USERI1
 70
     0
  9
$USERI2
 70
     0
  9
$USERI3
 70
     0
  9
$USERI4
 70
     0
  9
$USERI5
 70
     0
  9
$USERR1
 40
0.0
  9
$USERR2
 40
0.0
  9
$USERR3
 40
0.0
  9
$USERR4
 40
0.0
  9
$USERR5
 40
0.0
  9
$WORLDVIEW
 70
     1
  9
$SHADEDGE
 70
     3
  9
$SHADEDIF
 70
    70
  9
$TILEMODE
 70
     1
  9
$MAXACTVP
 70
    64
  9
$PINSBASE
 10
0.0
 20
0.0
 30
0.0
  9
$PLIMCHECK
 70
     0
  9
$PEXTMIN
 10
1.000000000000000E+20
 20
1.000000000000000E+20
 30
1.000000000000000E+20
  9
$PEXTMAX
 10
-1.000000000000000E+20
 20
-1.000000000000000E+20
 30
-1.000000000000000E+20
  9
$PLIMMIN
 10
0.0
 20
0.0
  9
$PLIMMAX
 10
420.0
 20
297.0
  9
$UNITMODE
 70
     0
  9
$VISRETAIN
 70
     1
  9
$PLINEGEN
 70
     0
  9
$PSLTSCALE
 70
     1
  9
$TREEDEPTH
 70
  3020
  9
$PICKSTYLE
 70
     1
  9
$CMLSTYLE
  2
STANDARD
  9
$CMLJUST
 70
     0
  9
$CMLSCALE
 40
20.0
  9
$PROXYGRAPHICS
 70
     1
  9
$MEASUREMENT
 70
     1
  0
ENDSEC
  0
SECTION
  2
CLASSES
  0
CLASS
  1
ACDBDICTIONARYWDFLT
  2
AcDbDictionaryWithDefault
  3
ObjectDBX Classes
 90
        0
280
     0
281
     0
  0
CLASS
  1
VISUALSTYLE
  2
AcDbVisualStyle
  3
ObjectDBX Classes
 90
     4095
280
     0
281
     0
  0
CLASS
  1
MATERIAL
  2
AcDbMaterial
  3
ObjectDBX Classes
 90
     1153
280
     0
281
     0
  0
CLASS
  1
SUN
  2
AcDbSun
  3
SCENEOE
 90
     1024
280
     0
281
     0
  0
CLASS
  1
DICTIONARYVAR
  2
AcDbDictionaryVar
  3
ObjectDBX Classes
 90
        0
280
     0
281
     0
  0
CLASS
  1
XRECORD
  2
AcDbXrecord
  3
AutoCAD 2000
 90
        0
280
     0
281
     0
  0
CLASS
  1
LWPOLYLINE
  2
AcDbPolyline
  3
AutoCAD 2000
 90
        0
280
     0
281
     1
  0
CLASS
  1
HATCH
  2
AcDbHatch
  3
AutoCAD 2000
 90
        0
280
     0
281
     1
  0
CLASS
  1
ACDBPLACEHOLDER
  2
AcDbPlaceHolder
  3
ObjectDBX Classes
 90
        0
280
     0
281
     0
  0
CLASS
  1
LAYOUT
  2
AcDbLayout
  3
ObjectDBX Classes
 90
        0
280
     0
281
     0
  0
ENDSEC
  0
SECTION
  2
TABLES
  0
TABLE
  2
VPORT
  5
8
330
0
100
AcDbSymbolTable
 70
     1
  0
VPORT
  5
29
330
8
100
AcDbSymbolTableRecord
100
AcDbViewportTableRecord
  2
*ACTIVE
 70
     0
 10
0.0
 20
0.0
 11
1.0
 21
1.0
 12
1090.0
 22
1510.0
 13
0.0
 23
0.0
 14
10.0
 24
10.0
 15
10.0
 25
10.0
 16
0.0
 26
0.0
 36
1.0
 17
0.0
 27
0.0
 37
0.0
 40
2750.0
 41
0.6618181818181819
 42
50.0
 43
0.0
 44
0.0
 50
0.0
 51
0.0
 71
     0
 72
  1000
 73
     1
 74
     3
 75
     0
 76
     0
 77
     0
 78
     0
  0
ENDTAB
  0
TABLE
  2
LTYPE
  5
5
330
0
100
AcDbSymbolTable
 70
     7
  0
LTYPE
  5
14
330
5
100
AcDbSymbolTableRecord
100
AcDbLinetypeTableRecord
  2
BYBLOCK
 70
     0
  3

 72
    65
 73
     0
 40
0.0
  0
LTYPE
  5
15
330
5
100
AcDbSymbolTableRecord
100
AcDbLinetypeTableRecord
  2
BYLAYER
 70
     0
  3

 72
    65
 73
     0
 40
0.0
  0
LTYPE
  5
16
330
5
100
AcDbSymbolTableRecord
100
AcDbLinetypeTableRecord
  2
CONTINUOUS
 70
     0
  3
Solid line
 72
    65
 73
     0
 40
0.0
  0
LTYPE
  5
40
330
5
100
AcDbSymbolTableRecord
100
AcDbLinetypeTableRecord
  2
EXLTYPE1
 70
     0
  3
破線
 72
    65
 73
     2
 40
3.0
 49
2.0
 74
     0
 49
-1.0
 74
     0
  0
LTYPE
  5
41
330
5
100
AcDbSymbolTableRecord
100
AcDbLinetypeTableRecord
  2
EXLTYPE2
 70
     0
  3
点線
 72
    65
 73
     2
 40
2.0
 49
1.0
 74
     0
 49
-1.0
 74
     0
  0
LTYPE
  5
42
330
5
100
AcDbSymbolTableRecord
100
AcDbLinetypeTableRecord
  2
EXLTYPE3
 70
     0
  3
一点鎖線
 72
    65
 73
     4
 40
10.0
 49
7.0
 74
     0
 49
-1.0
 74
     0
 49
1.0
 74
     0
 49
-1.0
 74
     0
  0
LTYPE
  5
43
330
5
100
AcDbSymbolTableRecord
100
AcDbLinetypeTableRecord
  2
EXLTYPE4
 70
     0
  3
二点鎖線
 72
    65
 73
     6
 40
12.0
 49
7.0
 74
     0
 49
-1.0
 74
     0
 49
1.0
 74
     0
 49
-1.0
 74
     0
 49
1.0
 74
     0
 49
-1.0
 74
     0
  0
LTYPE
  5
44
330
5
100
AcDbSymbolTableRecord
100
AcDbLinetypeTableRecord
  2
EXLTYPE5
 70
     0
  3
三点鎖線
 72
    65
 73
     8
 40
37.0
 49
30.0
 74
     0
 49
-1.0
 74
     0
 49
1.0
 74
     0
 49
-1.0
 74
     0
 49
1.0
 74
     0
 49
-1.0
 74
     0
 49
1.0
 74
     0
 49
-1.0
 74
     0
  0
LTYPE
  5
45
330
5
100
AcDbSymbolTableRecord
100
AcDbLinetypeTableRecord
  2
EXLTYPE6
 70
     0
  3
四点鎖線
 72
    65
 73
    10
 40
39.0
 49
30.0
 74
     0
 49
-1.0
 74
     0
 49
1.0
 74
     0
 49
-1.0
 74
     0
 49
1.0
 74
     0
 49
-1.0
 74
     0
 49
1.0
 74
     0
 49
-1.0
 74
     0
 49
1.0
 74
     0
 49
-1.0
 74
     0
  0
ENDTAB
  0
TABLE
  2
LAYER
  5
2
330
0
100
AcDbSymbolTable
 70
     5
  0
LAYER
  5
10
330
2
100
AcDbSymbolTableRecord
100
AcDbLayerTableRecord
  2
0
 70
     0
 62
     7
  6
CONTINUOUS
  0
LAYER
  5
48
330
2
100
AcDbSymbolTableRecord
100
AcDbLayerTableRecord
  2
枠_表
 70
     0
 62
     7
  6
CONTINUOUS
  0
LAYER
  5
49
330
2
100
AcDbSymbolTableRecord
100
AcDbLayerTableRecord
  2
図
 70
     0
 62
     7
  6
CONTINUOUS
  0
LAYER
  5
4A
330
2
100
AcDbSymbolTableRecord
100
AcDbLayerTableRecord
  2
寸法
 70
     0
 62
     7
  6
CONTINUOUS
  0
LAYER
  5
368
330
2
100
AcDbSymbolTableRecord
100
AcDbLayerTableRecord
  2
DEFPOINTS
 70
     0
 62
     7
  6
CONTINUOUS
  0
ENDTAB
  0
TABLE
  2
STYLE
  5
3
330
0
100
AcDbSymbolTable
 70
     4
  0
STYLE
  5
11
330
3
100
AcDbSymbolTableRecord
100
AcDbTextStyleTableRecord
  2
STANDARD
 70
     0
 40
0.0
 41
1.0
 50
0.0
 71
     0
 42
2.5
  3
monotxt
  4
extfont
  0
STYLE
  5
46
330
3
100
AcDbSymbolTableRecord
100
AcDbTextStyleTableRecord
  2
EXCADSTD
 70
     0
 40
0.0
 41
1.0
 50
0.0
 71
     0
 42
0.2
  3
monotxt
  4
extfont
  0
STYLE
  5
47
330
3
100
AcDbSymbolTableRecord
100
AcDbTextStyleTableRecord
  2
EXCADVERT
 70
     4
 40
0.0
 41
1.0
 50
0.0
 71
     0
 42
0.286885
  3
monotxt
  4
extfont
  0
STYLE
  5
366
330
3
100
AcDbSymbolTableRecord
100
AcDbTextStyleTableRecord
  2
EXCADDIM1
 70
     0
 40
0.0
 41
0.84
 50
0.0
 71
     0
 42
0.2
  3
monotxt
  4
extfont
  0
ENDTAB
  0
TABLE
  2
VIEW
  5
6
330
0
100
AcDbSymbolTable
 70
     0
  0
ENDTAB
  0
TABLE
  2
UCS
  5
7
330
0
100
AcDbSymbolTable
 70
     0
  0
ENDTAB
  0
TABLE
  2
APPID
  5
9
330
0
100
AcDbSymbolTable
 70
     1
  0
APPID
  5
12
330
9
100
AcDbSymbolTableRecord
100
AcDbRegAppTableRecord
  2
ACAD
 70
     0
  0
ENDTAB
  0
TABLE
  2
DIMSTYLE
  5
A
330
0
100
AcDbSymbolTable
 70
     1
  0
DIMSTYLE
105
27
102
{ACAD_REACTORS
330
367
330
375
330
382
330
38F
330
39B
330
3AA
330
3B9
330
3C6
330
3D5
330
3E2
330
3F1
330
400
330
40D
330
41A
102
}
330
A
100
AcDbSymbolTableRecord
100
AcDbDimStyleTableRecord
  2
ISO-25
 70
     0
  3

  4

  5

  6

  7

 40
1.0
 41
2.5
 42
0.625
 43
3.75
 44
1.25
 45
0.0
 46
0.0
 47
0.0
 48
0.0
140
2.5
141
2.5
142
0.0
143
0.03937007874016
144
1.0
145
0.0
146
1.0
147
0.625
 71
     0
 72
     0
 73
     0
 74
     0
 75
     0
 76
     0
 77
     1
 78
     8
170
     0
171
     3
172
     1
173
     0
174
     0
175
     0
176
     0
177
     0
178
     0
270
     2
271
     2
272
     2
273
     2
274
     3
340
11
275
     0
280
     0
281
     0
282
     0
283
     0
284
     8
285
     0
286
     0
287
     5
288
     0
  0
ENDTAB
  0
TABLE
  2
BLOCK_RECORD
  5
1
330
0
100
AcDbSymbolTable
 70
    29
  0
BLOCK_RECORD
  5
1F
330
1
100
AcDbSymbolTableRecord
100
AcDbBlockTableRecord
  2
*MODEL_SPACE
  0
BLOCK_RECORD
  5
1B
330
1
100
AcDbSymbolTableRecord
100
AcDbBlockTableRecord
  2
*PAPER_SPACE
  0
BLOCK_RECORD
  5
4B
330
1
100
AcDbSymbolTableRecord
100
AcDbBlockTableRecord
  2
EX_NORM
  0
BLOCK_RECORD
  5
4E
330
1
100
AcDbSymbolTableRecord
100
AcDbBlockTableRecord
  2
EX_BNORM
  0
BLOCK_RECORD
  5
51
330
1
100
AcDbSymbolTableRecord
100
AcDbBlockTableRecord
  2
EX_BCIR
  0
BLOCK_RECORD
  5
54
330
1
100
AcDbSymbolTableRecord
100
AcDbBlockTableRecord
  2
EX_RCIVIL
  0
BLOCK_RECORD
  5
57
330
1
100
AcDbSymbolTableRecord
100
AcDbBlockTableRecord
  2
EX_SLANT
  0
BLOCK_RECORD
  5
5A
330
1
100
AcDbSymbolTableRecord
100
AcDbBlockTableRecord
  2
EX_NONE
  0
BLOCK_RECORD
  5
5D
330
1
100
AcDbSymbolTableRecord
100
AcDbBlockTableRecord
  2
EX_CIVIL
  0
BLOCK_RECORD
  5
60
330
1
100
AcDbSymbolTableRecord
100
AcDbBlockTableRecord
  2
EX_WCIR
  0
BLOCK_RECORD
  5
63
330
1
100
AcDbSymbolTableRecord
100
AcDbBlockTableRecord
  2
EX_WCIR2
  0
BLOCK_RECORD
  5
66
330
1
100
AcDbSymbolTableRecord
100
AcDbBlockTableRecord
  2
EX_WNORM
  0
BLOCK_RECORD
  5
69
330
1
100
AcDbSymbolTableRecord
100
AcDbBlockTableRecord
  2
EX_NNORM
  0
BLOCK_RECORD
  5
6C
330
1
100
AcDbSymbolTableRecord
100
AcDbBlockTableRecord
  2
EX_BBOX
  0
BLOCK_RECORD
  5
6F
330
1
100
AcDbSymbolTableRecord
100
AcDbBlockTableRecord
  2
EX_WBOX
  0
BLOCK_RECORD
  5
72
330
1
100
AcDbSymbolTableRecord
100
AcDbBlockTableRecord
  2
EX_INTEGRAL
  0
BLOCK_RECORD
  5
369
330
1
100
AcDbSymbolTableRecord
100
AcDbBlockTableRecord
  2
*D15
  0
BLOCK_RECORD
  5
376
330
1
100
AcDbSymbolTableRecord
100
AcDbBlockTableRecord
  2
*D16
  0
BLOCK_RECORD
  5
383
330
1
100
AcDbSymbolTableRecord
100
AcDbBlockTableRecord
  2
*D17
  0
BLOCK_RECORD
  5
390
330
1
100
AcDbSymbolTableRecord
100
AcDbBlockTableRecord
  2
*D18
  0
BLOCK_RECORD
  5
39C
330
1
100
AcDbSymbolTableRecord
100
AcDbBlockTableRecord
  2
*D19
  0
BLOCK_RECORD
  5
3AB
330
1
100
AcDbSymbolTableRecord
100
AcDbBlockTableRecord
  2
*D20
  0
BLOCK_RECORD
  5
3BA
330
1
100
AcDbSymbolTableRecord
100
AcDbBlockTableRecord
  2
*D21
  0
BLOCK_RECORD
  5
3C7
330
1
100
AcDbSymbolTableRecord
100
AcDbBlockTableRecord
  2
*D22
  0
BLOCK_RECORD
  5
3D6
330
1
100
AcDbSymbolTableRecord
100
AcDbBlockTableRecord
  2
*D23
  0
BLOCK_RECORD
  5
3E3
330
1
100
AcDbSymbolTableRecord
100
AcDbBlockTableRecord
  2
*D24
  0
BLOCK_RECORD
  5
3F2
330
1
100
AcDbSymbolTableRecord
100
AcDbBlockTableRecord
  2
*D25
  0
BLOCK_RECORD
  5
401
330
1
100
AcDbSymbolTableRecord
100
AcDbBlockTableRecord
  2
*D26
  0
BLOCK_RECORD
  5
40E
330
1
100
AcDbSymbolTableRecord
100
AcDbBlockTableRecord
  2
*D27
  0
BLOCK_RECORD
  5
41B
330
1
100
AcDbSymbolTableRecord
100
AcDbBlockTableRecord
  2
*D28
  0
ENDTAB
  0
ENDSEC
  0
SECTION
  2
BLOCKS
  0
BLOCK
  5
20
330
1F
100
AcDbEntity
  8
0
100
AcDbBlockBegin
  2
*MODEL_SPACE
 70
     0
 10
0.0
 20
0.0
 30
0.0
  3
*MODEL_SPACE
  1

  0
ENDBLK
  5
21
330
1F
100
AcDbEntity
  8
0
100
AcDbBlockEnd
  0
BLOCK
  5
1C
330
1B
100
AcDbEntity
 67
     1
  8
0
100
AcDbBlockBegin
  2
*PAPER_SPACE
 70
     0
 10
0.0
 20
0.0
 30
0.0
  3
*PAPER_SPACE
  1

  0
ENDBLK
  5
1D
330
1B
100
AcDbEntity
 67
     1
  8
0
100
AcDbBlockEnd
  0
BLOCK
  5
4C
330
4B
100
AcDbEntity
  8
0
100
AcDbBlockBegin
  2
EX_NORM
 70
     0
 10
0.0
 20
0.0
 30
0.0
  3
EX_NORM
  1

  0
LINE
  5
75
330
4B
100
AcDbEntity
  8
0
  6
CONTINUOUS
 62
     0
100
AcDbLine
 10
0.0
 20
0.0
 30
0.0
 11
-1.0
 21
0.0
 31
0.0
  0
LINE
  5
76
330
4B
100
AcDbEntity
  8
0
  6
CONTINUOUS
 62
     0
100
AcDbLine
 10
0.0
 20
0.0
 30
0.0
 11
-1.0
 21
0.166666667
 31
0.0
  0
LINE
  5
77
330
4B
100
AcDbEntity
  8
0
  6
CONTINUOUS
 62
     0
100
AcDbLine
 10
0.0
 20
0.0
 30
0.0
 11
-1.0
 21
-0.166666667
 31
0.0
  0
ENDBLK
  5
4D
330
4B
100
AcDbEntity
  8
0
100
AcDbBlockEnd
  0
BLOCK
  5
4F
330
4E
100
AcDbEntity
  8
0
100
AcDbBlockBegin
  2
EX_BNORM
 70
     0
 10
0.0
 20
0.0
 30
0.0
  3
EX_BNORM
  1

  0
LINE
  5
78
330
4E
100
AcDbEntity
  8
0
  6
CONTINUOUS
 62
     0
100
AcDbLine
 10
0.0
 20
0.0
 30
0.0
 11
-1.0
 21
0.0
 31
0.0
  0
LINE
  5
79
330
4E
100
AcDbEntity
  8
0
  6
CONTINUOUS
 62
     0
100
AcDbLine
 10
0.0
 20
0.0
 30
0.0
 11
-1.0
 21
0.166666667
 31
0.0
  0
LINE
  5
7A
330
4E
100
AcDbEntity
  8
0
  6
CONTINUOUS
 62
     0
100
AcDbLine
 10
0.0
 20
0.0
 30
0.0
 11
-1.0
 21
-0.166666667
 31
0.0
  0
LINE
  5
7B
330
4E
100
AcDbEntity
  8
0
  6
CONTINUOUS
 62
     0
100
AcDbLine
 10
0.0
 20
0.0
 30
0.0
 11
-1.0
 21
0.083333333
 31
0.0
  0
LINE
  5
7C
330
4E
100
AcDbEntity
  8
0
  6
CONTINUOUS
 62
     0
100
AcDbLine
 10
0.0
 20
0.0
 30
0.0
 11
-1.0
 21
-0.083333333
 31
0.0
  0
LINE
  5
7D
330
4E
100
AcDbEntity
  8
0
  6
CONTINUOUS
 62
     0
100
AcDbLine
 10
-1.0
 20
0.166666667
 30
0.0
 11
-1.0
 21
-0.166666667
 31
0.0
  0
ENDBLK
  5
50
330
4E
100
AcDbEntity
  8
0
100
AcDbBlockEnd
  0
BLOCK
  5
52
330
51
100
AcDbEntity
  8
0
100
AcDbBlockBegin
  2
EX_BCIR
 70
     0
 10
0.0
 20
0.0
 30
0.0
  3
EX_BCIR
  1

  0
LINE
  5
7E
330
51
100
AcDbEntity
  8
0
  6
CONTINUOUS
 62
     0
100
AcDbLine
 10
0.0
 20
0.0
 30
0.0
 11
-1.0
 21
0.0
 31
0.0
  0
CIRCLE
  5
7F
330
51
100
AcDbEntity
  8
0
  6
CONTINUOUS
 62
     0
100
AcDbCircle
 10
0.0
 20
0.0
 30
0.0
 40
0.5
  0
CIRCLE
  5
80
330
51
100
AcDbEntity
  8
0
  6
CONTINUOUS
 62
     0
100
AcDbCircle
 10
0.0
 20
0.0
 30
0.0
 40
0.25
  0
ENDBLK
  5
53
330
51
100
AcDbEntity
  8
0
100
AcDbBlockEnd
  0
BLOCK
  5
55
330
54
100
AcDbEntity
  8
0
100
AcDbBlockBegin
  2
EX_RCIVIL
 70
     0
 10
0.0
 20
0.0
 30
0.0
  3
EX_RCIVIL
  1

  0
LINE
  5
81
330
54
100
AcDbEntity
  8
0
  6
CONTINUOUS
 62
     0
100
AcDbLine
 10
0.0
 20
0.0
 30
0.0
 11
-1.0
 21
0.0
 31
0.0
  0
LINE
  5
82
330
54
100
AcDbEntity
  8
0
  6
CONTINUOUS
 62
     0
100
AcDbLine
 10
-1.0
 20
-0.25
 30
0.0
 11
0.0
 21
-0.25
 31
0.0
  0
LINE
  5
83
330
54
100
AcDbEntity
  8
0
  6
CONTINUOUS
 62
     0
100
AcDbLine
 10
-1.0
 20
-0.125
 30
0.0
 11
0.0
 21
-0.125
 31
0.0
  0
ENDBLK
  5
56
330
54
100
AcDbEntity
  8
0
100
AcDbBlockEnd
  0
BLOCK
  5
58
330
57
100
AcDbEntity
  8
0
100
AcDbBlockBegin
  2
EX_SLANT
 70
     0
 10
0.0
 20
0.0
 30
0.0
  3
EX_SLANT
  1

  0
LINE
  5
84
330
57
100
AcDbEntity
  8
0
  6
CONTINUOUS
 62
     0
100
AcDbLine
 10
0.0
 20
0.0
 30
0.0
 11
-1.0
 21
0.0
 31
0.0
  0
LINE
  5
85
330
57
100
AcDbEntity
  8
0
  6
CONTINUOUS
 62
     0
100
AcDbLine
 10
0.707106781
 20
0.707106781
 30
0.0
 11
-0.707106781
 21
-0.707106781
 31
0.0
  0
ENDBLK
  5
59
330
57
100
AcDbEntity
  8
0
100
AcDbBlockEnd
  0
BLOCK
  5
5B
330
5A
100
AcDbEntity
  8
0
100
AcDbBlockBegin
  2
EX_NONE
 70
     0
 10
0.0
 20
0.0
 30
0.0
  3
EX_NONE
  1

  0
LINE
  5
86
330
5A
100
AcDbEntity
  8
0
  6
CONTINUOUS
 62
     0
100
AcDbLine
 10
0.0
 20
0.0
 30
0.0
 11
-1.0
 21
0.0
 31
0.0
  0
ENDBLK
  5
5C
330
5A
100
AcDbEntity
  8
0
100
AcDbBlockEnd
  0
BLOCK
  5
5E
330
5D
100
AcDbEntity
  8
0
100
AcDbBlockBegin
  2
EX_CIVIL
 70
     0
 10
0.0
 20
0.0
 30
0.0
  3
EX_CIVIL
  1

  0
LINE
  5
87
330
5D
100
AcDbEntity
  8
0
  6
CONTINUOUS
 62
     0
100
AcDbLine
 10
0.0
 20
0.0
 30
0.0
 11
-1.0
 21
0.0
 31
0.0
  0
LINE
  5
88
330
5D
100
AcDbEntity
  8
0
  6
CONTINUOUS
 62
     0
100
AcDbLine
 10
-1.0
 20
0.25
 30
0.0
 11
0.0
 21
0.25
 31
0.0
  0
LINE
  5
89
330
5D
100
AcDbEntity
  8
0
  6
CONTINUOUS
 62
     0
100
AcDbLine
 10
-1.0
 20
0.125
 30
0.0
 11
0.0
 21
0.125
 31
0.0
  0
ENDBLK
  5
5F
330
5D
100
AcDbEntity
  8
0
100
AcDbBlockEnd
  0
BLOCK
  5
61
330
60
100
AcDbEntity
  8
0
100
AcDbBlockBegin
  2
EX_WCIR
 70
     0
 10
0.0
 20
0.0
 30
0.0
  3
EX_WCIR
  1

  0
LINE
  5
8A
330
60
100
AcDbEntity
  8
0
  6
CONTINUOUS
 62
     0
100
AcDbLine
 10
0.0
 20
0.0
 30
0.0
 11
-1.0
 21
0.0
 31
0.0
  0
CIRCLE
  5
8B
330
60
100
AcDbEntity
  8
0
  6
CONTINUOUS
 62
     0
100
AcDbCircle
 10
0.0
 20
0.0
 30
0.0
 40
0.5
  0
ENDBLK
  5
62
330
60
100
AcDbEntity
  8
0
100
AcDbBlockEnd
  0
BLOCK
  5
64
330
63
100
AcDbEntity
  8
0
100
AcDbBlockBegin
  2
EX_WCIR2
 70
     0
 10
0.0
 20
0.0
 30
0.0
  3
EX_WCIR2
  1

  0
LINE
  5
8C
330
63
100
AcDbEntity
  8
0
  6
CONTINUOUS
 62
     0
100
AcDbLine
 10
-0.5
 20
0.0
 30
0.0
 11
-1.0
 21
0.0
 31
0.0
  0
CIRCLE
  5
8D
330
63
100
AcDbEntity
  8
0
  6
CONTINUOUS
 62
     0
100
AcDbCircle
 10
0.0
 20
0.0
 30
0.0
 40
0.5
  0
ENDBLK
  5
65
330
63
100
AcDbEntity
  8
0
100
AcDbBlockEnd
  0
BLOCK
  5
67
330
66
100
AcDbEntity
  8
0
100
AcDbBlockBegin
  2
EX_WNORM
 70
     0
 10
0.0
 20
0.0
 30
0.0
  3
EX_WNORM
  1

  0
LINE
  5
8E
330
66
100
AcDbEntity
  8
0
  6
CONTINUOUS
 62
     0
100
AcDbLine
 10
-1.0
 20
0.0
 30
0.0
 11
-1.0
 21
0.0
 31
0.0
  0
LINE
  5
8F
330
66
100
AcDbEntity
  8
0
  6
CONTINUOUS
 62
     0
100
AcDbLine
 10
0.0
 20
0.0
 30
0.0
 11
-1.0
 21
0.166666667
 31
0.0
  0
LINE
  5
90
330
66
100
AcDbEntity
  8
0
  6
CONTINUOUS
 62
     0
100
AcDbLine
 10
0.0
 20
0.0
 30
0.0
 11
-1.0
 21
-0.166666667
 31
0.0
  0
LINE
  5
91
330
66
100
AcDbEntity
  8
0
  6
CONTINUOUS
 62
     0
100
AcDbLine
 10
-1.0
 20
0.166666667
 30
0.0
 11
-1.0
 21
-0.166666667
 31
0.0
  0
ENDBLK
  5
68
330
66
100
AcDbEntity
  8
0
100
AcDbBlockEnd
  0
BLOCK
  5
6A
330
69
100
AcDbEntity
  8
0
100
AcDbBlockBegin
  2
EX_NNORM
 70
     0
 10
0.0
 20
0.0
 30
0.0
  3
EX_NNORM
  1

  0
LINE
  5
92
330
69
100
AcDbEntity
  8
0
  6
CONTINUOUS
 62
     0
100
AcDbLine
 10
0.0
 20
0.0
 30
0.0
 11
-1.0
 21
0.0
 31
0.0
  0
LINE
  5
93
330
69
100
AcDbEntity
  8
0
  6
CONTINUOUS
 62
     0
100
AcDbLine
 10
0.0
 20
0.0
 30
0.0
 11
-1.0
 21
0.166666667
 31
0.0
  0
LINE
  5
94
330
69
100
AcDbEntity
  8
0
  6
CONTINUOUS
 62
     0
100
AcDbLine
 10
0.0
 20
0.0
 30
0.0
 11
-1.0
 21
-0.166666667
 31
0.0
  0
LINE
  5
95
330
69
100
AcDbEntity
  8
0
  6
CONTINUOUS
 62
     0
100
AcDbLine
 10
-1.0
 20
0.166666667
 30
0.0
 11
-1.0
 21
-0.166666667
 31
0.0
  0
ENDBLK
  5
6B
330
69
100
AcDbEntity
  8
0
100
AcDbBlockEnd
  0
BLOCK
  5
6D
330
6C
100
AcDbEntity
  8
0
100
AcDbBlockBegin
  2
EX_BBOX
 70
     0
 10
0.0
 20
0.0
 30
0.0
  3
EX_BBOX
  1

  0
LINE
  5
96
330
6C
100
AcDbEntity
  8
0
  6
CONTINUOUS
 62
     0
100
AcDbLine
 10
0.0
 20
0.0
 30
0.0
 11
-1.0
 21
0.0
 31
0.0
  0
LINE
  5
97
330
6C
100
AcDbEntity
  8
0
  6
CONTINUOUS
 62
     0
100
AcDbLine
 10
-0.5
 20
0.5
 30
0.0
 11
0.5
 21
0.5
 31
0.0
  0
LINE
  5
98
330
6C
100
AcDbEntity
  8
0
  6
CONTINUOUS
 62
     0
100
AcDbLine
 10
0.5
 20
0.5
 30
0.0
 11
0.5
 21
-0.5
 31
0.0
  0
LINE
  5
99
330
6C
100
AcDbEntity
  8
0
  6
CONTINUOUS
 62
     0
100
AcDbLine
 10
0.5
 20
-0.5
 30
0.0
 11
-0.5
 21
-0.5
 31
0.0
  0
LINE
  5
9A
330
6C
100
AcDbEntity
  8
0
  6
CONTINUOUS
 62
     0
100
AcDbLine
 10
-0.5
 20
-0.5
 30
0.0
 11
-0.5
 21
0.5
 31
0.0
  0
LINE
  5
9B
330
6C
100
AcDbEntity
  8
0
  6
CONTINUOUS
 62
     0
100
AcDbLine
 10
-0.25
 20
0.25
 30
0.0
 11
0.25
 21
0.25
 31
0.0
  0
LINE
  5
9C
330
6C
100
AcDbEntity
  8
0
  6
CONTINUOUS
 62
     0
100
AcDbLine
 10
0.25
 20
0.25
 30
0.0
 11
0.25
 21
-0.25
 31
0.0
  0
LINE
  5
9D
330
6C
100
AcDbEntity
  8
0
  6
CONTINUOUS
 62
     0
100
AcDbLine
 10
0.25
 20
-0.25
 30
0.0
 11
-0.25
 21
-0.25
 31
0.0
  0
LINE
  5
9E
330
6C
100
AcDbEntity
  8
0
  6
CONTINUOUS
 62
     0
100
AcDbLine
 10
-0.25
 20
-0.25
 30
0.0
 11
-0.25
 21
0.25
 31
0.0
  0
ENDBLK
  5
6E
330
6C
100
AcDbEntity
  8
0
100
AcDbBlockEnd
  0
BLOCK
  5
70
330
6F
100
AcDbEntity
  8
0
100
AcDbBlockBegin
  2
EX_WBOX
 70
     0
 10
0.0
 20
0.0
 30
0.0
  3
EX_WBOX
  1

  0
LINE
  5
9F
330
6F
100
AcDbEntity
  8
0
  6
CONTINUOUS
 62
     0
100
AcDbLine
 10
-0.5
 20
0.0
 30
0.0
 11
-1.0
 21
0.0
 31
0.0
  0
LINE
  5
A0
330
6F
100
AcDbEntity
  8
0
  6
CONTINUOUS
 62
     0
100
AcDbLine
 10
-0.5
 20
0.5
 30
0.0
 11
0.5
 21
0.5
 31
0.0
  0
LINE
  5
A1
330
6F
100
AcDbEntity
  8
0
  6
CONTINUOUS
 62
     0
100
AcDbLine
 10
0.5
 20
0.5
 30
0.0
 11
0.5
 21
-0.5
 31
0.0
  0
LINE
  5
A2
330
6F
100
AcDbEntity
  8
0
  6
CONTINUOUS
 62
     0
100
AcDbLine
 10
0.5
 20
-0.5
 30
0.0
 11
-0.5
 21
-0.5
 31
0.0
  0
LINE
  5
A3
330
6F
100
AcDbEntity
  8
0
  6
CONTINUOUS
 62
     0
100
AcDbLine
 10
-0.5
 20
-0.5
 30
0.0
 11
-0.5
 21
0.5
 31
0.0
  0
ENDBLK
  5
71
330
6F
100
AcDbEntity
  8
0
100
AcDbBlockEnd
  0
BLOCK
  5
73
330
72
100
AcDbEntity
  8
0
100
AcDbBlockBegin
  2
EX_INTEGRAL
 70
     0
 10
0.0
 20
0.0
 30
0.0
  3
EX_INTEGRAL
  1

  0
LINE
  5
A4
330
72
100
AcDbEntity
  8
0
  6
CONTINUOUS
 62
     0
100
AcDbLine
 10
0.0
 20
0.0
 30
0.0
 11
-1.0
 21
0.0
 31
0.0
  0
ARC
  5
A5
330
72
100
AcDbEntity
  8
0
  6
CONTINUOUS
 62
     0
100
AcDbCircle
 10
0.542115
 20
0.164992
 30
0.0
 40
0.56667
100
AcDbArc
 50
73.07249033629006
 51
196.9275130221199
  0
ARC
  5
A6
330
72
100
AcDbEntity
  8
0
  6
CONTINUOUS
 62
     0
100
AcDbCircle
 10
-0.542115
 20
-0.164992
 30
0.0
 40
0.56667
100
AcDbArc
 50
253.0724869220464
 51
16.9275130559125
  0
ENDBLK
  5
74
330
72
100
AcDbEntity
  8
0
100
AcDbBlockEnd
  0
BLOCK
  5
36A
330
369
100
AcDbEntity
  8
0
100
AcDbBlockBegin
  2
*D15
 70
     1
 10
0.0
 20
0.0
 30
0.0
  3
*D15
  1

  0
LINE
  5
36C
330
369
100
AcDbEntity
  8
寸法
  6
CONTINUOUS
 62
     3
100
AcDbLine
 10
565.0010997909982
 20
1617.09379284139
 30
0.0
 11
565.0010997909982
 21
1764.0
 31
0.0
  0
LINE
  5
36D
330
369
100
AcDbEntity
  8
寸法
  6
CONTINUOUS
 62
     3
100
AcDbLine
 10
914.998900208999
 20
1617.09379284139
 30
0.0
 11
914.998900208999
 21
1764.0
 31
0.0
  0
LINE
  5
36E
330
369
100
AcDbEntity
  8
寸法
  6
CONTINUOUS
 62
     3
100
AcDbLine
 10
595.0010997909982
 20
1754.0
 30
0.0
 11
884.998900208999
 21
1754.0
 31
0.0
  0
INSERT
  5
36F
330
369
100
AcDbEntity
  8
寸法
 62
     3
100
AcDbBlockReference
  2
EX_NORM
 10
565.0010997909982
 20
1754.0
 30
0.0
 41
30.0
 42
30.0
 43
30.0
 50
180.0
  0
INSERT
  5
370
330
369
100
AcDbEntity
  8
寸法
 62
     3
100
AcDbBlockReference
  2
EX_NORM
 10
914.998900208999
 20
1754.0
 30
0.0
 41
30.0
 42
30.0
 43
30.0
  0
MTEXT
  5
371
330
369
100
AcDbEntity
  8
寸法
 62
     2
100
AcDbMText
 10
739.9999999999986
 20
1777.499999940395
 30
0.0
 40
40.0
 41
0.0
 71
     5
 72
     1
  1
355
  7
EXCADDIM1
  0
POINT
  5
372
330
369
100
AcDbEntity
  8
DEFPOINTS
 62
     0
100
AcDbPoint
 10
565.0010997909982
 20
1610.0937929606
 30
0.0
  0
POINT
  5
373
330
369
100
AcDbEntity
  8
DEFPOINTS
 62
     0
100
AcDbPoint
 10
914.998900208999
 20
1610.0937929606
 30
0.0
  0
POINT
  5
374
330
369
100
AcDbEntity
  8
DEFPOINTS
 62
     0
100
AcDbPoint
 10
914.998900208999
 20
1754.0
 30
0.0
  0
ENDBLK
  5
36B
330
369
100
AcDbEntity
  8
0
100
AcDbBlockEnd
  0
BLOCK
  5
377
330
376
100
AcDbEntity
  8
0
100
AcDbBlockBegin
  2
*D16
 70
     1
 10
0.0
 20
0.0
 30
0.0
  3
*D16
  1

  0
LINE
  5
379
330
376
100
AcDbEntity
  8
寸法
  6
CONTINUOUS
 62
     3
100
AcDbLine
 10
909.9999999999989
 20
794.0
 30
0.0
 11
994.9999999999989
 21
794.0
 31
0.0
  0
LINE
  5
37A
330
376
100
AcDbEntity
  8
寸法
  6
CONTINUOUS
 62
     3
100
AcDbLine
 10
915.999999999998
 20
1614.0
 30
0.0
 11
994.9999999999989
 21
1614.0
 31
0.0
  0
LINE
  5
37B
330
376
100
AcDbEntity
  8
寸法
  6
CONTINUOUS
 62
     3
100
AcDbLine
 10
984.9999999999989
 20
824.0
 30
0.0
 11
984.9999999999989
 21
1584.0
 31
0.0
  0
INSERT
  5
37C
330
376
100
AcDbEntity
  8
寸法
 62
     3
100
AcDbBlockReference
  2
EX_NORM
 10
984.9999999999989
 20
794.0
 30
0.0
 41
30.0
 42
30.0
 43
30.0
 50
270.0
  0
INSERT
  5
37D
330
376
100
AcDbEntity
  8
寸法
 62
     3
100
AcDbBlockReference
  2
EX_NORM
 10
984.9999999999989
 20
1614.0
 30
0.0
 41
30.0
 42
30.0
 43
30.0
 50
90.0
  0
MTEXT
  5
37E
330
376
100
AcDbEntity
  8
寸法
 62
     2
100
AcDbMText
 10
961.5000000596036
 20
1204.0
 30
0.0
 40
40.0
 41
0.0
 71
     5
 72
     1
  1
820
  7
EXCADDIM1
 11
0.0
 21
1.0
 31
0.0
  0
POINT
  5
37F
330
376
100
AcDbEntity
  8
DEFPOINTS
 62
     0
100
AcDbPoint
 10
904.9999999999989
 20
794.0
 30
0.0
  0
POINT
  5
380
330
376
100
AcDbEntity
  8
DEFPOINTS
 62
     0
100
AcDbPoint
 10
910.999999999998
 20
1614.0
 30
0.0
  0
POINT
  5
381
330
376
100
AcDbEntity
  8
DEFPOINTS
 62
     0
100
AcDbPoint
 10
984.9999999999989
 20
1614.0
 30
0.0
  0
ENDBLK
  5
378
330
376
100
AcDbEntity
  8
0
100
AcDbBlockEnd
  0
BLOCK
  5
384
330
383
100
AcDbEntity
  8
0
100
AcDbBlockBegin
  2
*D17
 70
     1
 10
0.0
 20
0.0
 30
0.0
  3
*D17
  1

  0
LINE
  5
386
330
383
100
AcDbEntity
  8
寸法
  6
CONTINUOUS
 62
     3
100
AcDbLine
 10
909.9999999999989
 20
794.0
 30
0.0
 11
1064.999999999999
 21
794.0
 31
0.0
  0
LINE
  5
387
330
383
100
AcDbEntity
  8
寸法
  6
CONTINUOUS
 62
     3
100
AcDbLine
 10
914.5927186619986
 20
1674.0
 30
0.0
 11
1064.999999999999
 21
1674.0
 31
0.0
  0
LINE
  5
388
330
383
100
AcDbEntity
  8
寸法
  6
CONTINUOUS
 62
     3
100
AcDbLine
 10
1054.999999999999
 20
824.0
 30
0.0
 11
1054.999999999999
 21
1644.0
 31
0.0
  0
INSERT
  5
389
330
383
100
AcDbEntity
  8
寸法
 62
     3
100
AcDbBlockReference
  2
EX_NORM
 10
1054.999999999999
 20
794.0
 30
0.0
 41
30.0
 42
30.0
 43
30.0
 50
270.0
  0
INSERT
  5
38A
330
383
100
AcDbEntity
  8
寸法
 62
     3
100
AcDbBlockReference
  2
EX_NORM
 10
1054.999999999999
 20
1674.0
 30
0.0
 41
30.0
 42
30.0
 43
30.0
 50
90.0
  0
MTEXT
  5
38B
330
383
100
AcDbEntity
  8
寸法
 62
     2
100
AcDbMText
 10
1031.500000059604
 20
1234.0
 30
0.0
 40
40.0
 41
0.0
 71
     5
 72
     1
  1
880
  7
EXCADDIM1
 11
0.0
 21
1.0
 31
0.0
  0
POINT
  5
38C
330
383
100
AcDbEntity
  8
DEFPOINTS
 62
     0
100
AcDbPoint
 10
904.9999999999989
 20
794.0
 30
0.0
  0
POINT
  5
38D
330
383
100
AcDbEntity
  8
DEFPOINTS
 62
     0
100
AcDbPoint
 10
909.5927186619986
 20
1674.0
 30
0.0
  0
POINT
  5
38E
330
383
100
AcDbEntity
  8
DEFPOINTS
 62
     0
100
AcDbPoint
 10
1054.999999999999
 20
1674.0
 30
0.0
  0
ENDBLK
  5
385
330
383
100
AcDbEntity
  8
0
100
AcDbBlockEnd
  0
BLOCK
  5
391
330
390
100
AcDbEntity
  8
0
100
AcDbBlockBegin
  2
*D18
 70
     1
 10
0.0
 20
0.0
 30
0.0
  3
*D18
  1

  0
LINE
  5
393
330
390
100
AcDbEntity
  8
寸法
  6
CONTINUOUS
 62
     3
100
AcDbLine
 10
665.0
 20
1213.0
 30
0.0
 11
665.0
 21
1105.0
 31
0.0
  0
LINE
  5
394
330
390
100
AcDbEntity
  8
寸法
  6
CONTINUOUS
 62
     3
100
AcDbLine
 10
695.0
 20
1115.0
 30
0.0
 11
710.0
 21
1115.0
 31
0.0
  0
INSERT
  5
395
330
390
100
AcDbEntity
  8
寸法
 62
     3
100
AcDbBlockReference
  2
EX_NORM
 10
665.0
 20
1115.0
 30
0.0
 41
30.0
 42
30.0
 43
30.0
 50
180.0
  0
INSERT
  5
396
330
390
100
AcDbEntity
  8
寸法
 62
     3
100
AcDbBlockReference
  2
EX_NORM
 10
740.0
 20
1115.0
 30
0.0
 41
30.0
 42
30.0
 43
30.0
  0
MTEXT
  5
397
330
390
100
AcDbEntity
  8
寸法
 62
     2
100
AcDbMText
 10
401.0000000000002
 20
1138.5
 30
0.0
 40
40.0
 41
0.0
 71
     5
 72
     1
  1
75±10（壁排水）
  7
EXCADDIM1
  0
POINT
  5
398
330
390
100
AcDbEntity
  8
DEFPOINTS
 62
     0
100
AcDbPoint
 10
665.0
 20
1218.0
 30
0.0
  0
POINT
  5
399
330
390
100
AcDbEntity
  8
DEFPOINTS
 62
     0
100
AcDbPoint
 10
740.0
 20
954.0
 30
0.0
  0
POINT
  5
39A
330
390
100
AcDbEntity
  8
DEFPOINTS
 62
     0
100
AcDbPoint
 10
740.0
 20
1115.0
 30
0.0
  0
ENDBLK
  5
392
330
390
100
AcDbEntity
  8
0
100
AcDbBlockEnd
  0
BLOCK
  5
39D
330
39C
100
AcDbEntity
  8
0
100
AcDbBlockBegin
  2
*D19
 70
     1
 10
0.0
 20
0.0
 30
0.0
  3
*D19
  1

  0
LINE
  5
39F
330
39C
100
AcDbEntity
  8
寸法
  6
CONTINUOUS
 62
     3
100
AcDbLine
 10
835.0000000000014
 20
1278.3
 30
0.0
 11
835.0000000000014
 21
1035.0
 31
0.0
  0
LINE
  5
3A0
330
39C
100
AcDbEntity
  8
寸法
  6
CONTINUOUS
 62
     3
100
AcDbLine
 10
770.0
 20
1045.0
 30
0.0
 11
805.0000000000014
 21
1045.0
 31
0.0
  0
INSERT
  5
3A1
330
39C
100
AcDbEntity
  8
寸法
 62
     3
100
AcDbBlockReference
  2
EX_NORM
 10
740.0
 20
1045.0
 30
0.0
 41
30.0
 42
30.0
 43
30.0
 50
180.0
  0
INSERT
  5
3A2
330
39C
100
AcDbEntity
  8
寸法
 62
     3
100
AcDbBlockReference
  2
EX_NORM
 10
835.0000000000014
 20
1045.0
 30
0.0
 41
30.0
 42
30.0
 43
30.0
  0
MTEXT
  5
3A3
330
39C
100
AcDbEntity
  8
寸法
 62
     2
100
AcDbMText
 10
400.999999999998
 20
1068.5
 30
0.0
 40
40.0
 41
0.0
 71
     5
 72
     1
  1
95±10（壁給水）
  7
EXCADDIM1
  0
POINT
  5
3A4
330
39C
100
AcDbEntity
  8
DEFPOINTS
 62
     0
100
AcDbPoint
 10
740.0
 20
954.0
 30
0.0
  0
POINT
  5
3A5
330
39C
100
AcDbEntity
  8
DEFPOINTS
 62
     0
100
AcDbPoint
 10
835.0000000000014
 20
1279.0
 30
0.0
  0
POINT
  5
3A6
330
39C
100
AcDbEntity
  8
DEFPOINTS
 62
     0
100
AcDbPoint
 10
835.0000000000014
 20
1045.0
 30
0.0
  0
ENDBLK
  5
39E
330
39C
100
AcDbEntity
  8
0
100
AcDbBlockEnd
  0
BLOCK
  5
3AC
330
3AB
100
AcDbEntity
  8
0
100
AcDbBlockBegin
  2
*D20
 70
     1
 10
0.0
 20
0.0
 30
0.0
  3
*D20
  1

  0
LINE
  5
3AE
330
3AB
100
AcDbEntity
  8
寸法
  6
CONTINUOUS
 62
     3
100
AcDbLine
 10
700.0
 20
759.0
 30
0.0
 11
700.0
 21
634.0
 31
0.0
  0
LINE
  5
3AF
330
3AB
100
AcDbEntity
  8
寸法
  6
CONTINUOUS
 62
     3
100
AcDbLine
 10
740.0
 20
789.0
 30
0.0
 11
740.0
 21
634.0
 31
0.0
  0
LINE
  5
3B0
330
3AB
100
AcDbEntity
  8
寸法
  6
CONTINUOUS
 62
     3
100
AcDbLine
 10
700.0
 20
644.0
 30
0.0
 11
740.0
 21
644.0
 31
0.0
  0
LINE
  5
3B1
330
3AB
100
AcDbEntity
  8
寸法
  6
CONTINUOUS
 62
     3
100
AcDbLine
 10
670.0
 20
644.0
 30
0.0
 11
640.0
 21
644.0
 31
0.0
  0
LINE
  5
3B2
330
3AB
100
AcDbEntity
  8
寸法
  6
CONTINUOUS
 62
     3
100
AcDbLine
 10
770.0
 20
644.0
 30
0.0
 11
800.0
 21
644.0
 31
0.0
  0
INSERT
  5
3B3
330
3AB
100
AcDbEntity
  8
寸法
 62
     3
100
AcDbBlockReference
  2
EX_NORM
 10
700.0
 20
644.0
 30
0.0
 41
30.0
 42
30.0
 43
30.0
  0
INSERT
  5
3B4
330
3AB
100
AcDbEntity
  8
寸法
 62
     3
100
AcDbBlockReference
  2
EX_BCIR
 10
740.0
 20
644.0
 30
0.0
 41
30.0
 42
30.0
 43
30.0
 50
180.0
  0
MTEXT
  5
3B5
330
3AB
100
AcDbEntity
  8
寸法
 62
     2
100
AcDbMText
 10
403.0000000000007
 20
667.5
 30
0.0
 40
40.0
 41
0.0
 71
     5
 72
     1
  1
40±10（床排水）
  7
EXCADDIM1
  0
POINT
  5
3B6
330
3AB
100
AcDbEntity
  8
DEFPOINTS
 62
     0
100
AcDbPoint
 10
700.0
 20
764.0
 30
0.0
  0
POINT
  5
3B7
330
3AB
100
AcDbEntity
  8
DEFPOINTS
 62
     0
100
AcDbPoint
 10
740.0
 20
794.0
 30
0.0
  0
POINT
  5
3B8
330
3AB
100
AcDbEntity
  8
DEFPOINTS
 62
     0
100
AcDbPoint
 10
740.0
 20
644.0
 30
0.0
  0
ENDBLK
  5
3AD
330
3AB
100
AcDbEntity
  8
0
100
AcDbBlockEnd
  0
BLOCK
  5
3BB
330
3BA
100
AcDbEntity
  8
0
100
AcDbBlockBegin
  2
*D21
 70
     1
 10
0.0
 20
0.0
 30
0.0
  3
*D21
  1

  0
LINE
  5
3BD
330
3BA
100
AcDbEntity
  8
寸法
  6
CONTINUOUS
 62
     3
100
AcDbLine
 10
574.9999999999983
 20
787.0000001192093
 30
0.0
 11
574.9999999999983
 21
564.0
 31
0.0
  0
LINE
  5
3BE
330
3BA
100
AcDbEntity
  8
寸法
  6
CONTINUOUS
 62
     3
100
AcDbLine
 10
904.9999999999989
 20
787.0000001192093
 30
0.0
 11
904.9999999999989
 21
564.0
 31
0.0
  0
LINE
  5
3BF
330
3BA
100
AcDbEntity
  8
寸法
  6
CONTINUOUS
 62
     3
100
AcDbLine
 10
604.9999999999983
 20
574.0
 30
0.0
 11
874.9999999999989
 21
574.0
 31
0.0
  0
INSERT
  5
3C0
330
3BA
100
AcDbEntity
  8
寸法
 62
     3
100
AcDbBlockReference
  2
EX_NORM
 10
574.9999999999983
 20
574.0
 30
0.0
 41
30.0
 42
30.0
 43
30.0
 50
180.0
  0
INSERT
  5
3C1
330
3BA
100
AcDbEntity
  8
寸法
 62
     3
100
AcDbBlockReference
  2
EX_NORM
 10
904.9999999999989
 20
574.0
 30
0.0
 41
30.0
 42
30.0
 43
30.0
  0
MTEXT
  5
3C2
330
3BA
100
AcDbEntity
  8
寸法
 62
     2
100
AcDbMText
 10
739.9999999999985
 20
597.5
 30
0.0
 40
40.0
 41
0.0
 71
     5
 72
     1
  1
330
  7
EXCADDIM1
  0
POINT
  5
3C3
330
3BA
100
AcDbEntity
  8
DEFPOINTS
 62
     0
100
AcDbPoint
 10
574.9999999999983
 20
794.0
 30
0.0
  0
POINT
  5
3C4
330
3BA
100
AcDbEntity
  8
DEFPOINTS
 62
     0
100
AcDbPoint
 10
904.9999999999989
 20
794.0
 30
0.0
  0
POINT
  5
3C5
330
3BA
100
AcDbEntity
  8
DEFPOINTS
 62
     0
100
AcDbPoint
 10
904.9999999999989
 20
574.0
 30
0.0
  0
ENDBLK
  5
3BC
330
3BA
100
AcDbEntity
  8
0
100
AcDbBlockEnd
  0
BLOCK
  5
3C8
330
3C7
100
AcDbEntity
  8
0
100
AcDbBlockBegin
  2
*D22
 70
     1
 10
0.0
 20
0.0
 30
0.0
  3
*D22
  1

  0
LINE
  5
3CA
330
3C7
100
AcDbEntity
  8
寸法
  6
CONTINUOUS
 62
     3
100
AcDbLine
 10
740.0
 20
789.0
 30
0.0
 11
740.0
 21
634.0
 31
0.0
  0
LINE
  5
3CB
330
3C7
100
AcDbEntity
  8
寸法
  6
CONTINUOUS
 62
     3
100
AcDbLine
 10
835.0000000000011
 20
782.0000000000001
 30
0.0
 11
835.0000000000011
 21
634.0
 31
0.0
  0
LINE
  5
3CC
330
3C7
100
AcDbEntity
  8
寸法
  6
CONTINUOUS
 62
     3
100
AcDbLine
 10
750.0
 20
644.0
 30
0.0
 11
825.0000000000011
 21
644.0
 31
0.0
  0
INSERT
  5
3CD
330
3C7
100
AcDbEntity
  8
寸法
 62
     3
100
AcDbBlockReference
  2
EX_BCIR
 10
740.0
 20
644.0
 30
0.0
 41
10.0
 42
10.0
 43
10.0
 50
180.0
  0
INSERT
  5
3CE
330
3C7
100
AcDbEntity
  8
寸法
 62
     3
100
AcDbBlockReference
  2
EX_NORM
 10
835.0000000000011
 20
644.0
 30
0.0
 41
10.0
 42
10.0
 43
10.0
  0
MTEXT
  5
3CF
330
3C7
100
AcDbEntity
  8
寸法
 62
     2
100
AcDbMText
 10
1072.000000000001
 20
667.5
 30
0.0
 40
40.0
 41
0.0
 71
     5
 72
     1
  1
95±10（床給水）
  7
EXCADDIM1
  0
POINT
  5
3D0
330
3C7
100
AcDbEntity
  8
DEFPOINTS
 62
     0
100
AcDbPoint
 10
740.0
 20
794.0
 30
0.0
  0
POINT
  5
3D1
330
3C7
100
AcDbEntity
  8
DEFPOINTS
 62
     0
100
AcDbPoint
 10
835.0000000000011
 20
787.0000000000001
 30
0.0
  0
POINT
  5
3D2
330
3C7
100
AcDbEntity
  8
DEFPOINTS
 62
     0
100
AcDbPoint
 10
835.0000000000011
 20
644.0
 30
0.0
  0
ENDBLK
  5
3C9
330
3C7
100
AcDbEntity
  8
0
100
AcDbBlockEnd
  0
BLOCK
  5
3D7
330
3D6
100
AcDbEntity
  8
0
100
AcDbBlockBegin
  2
*D23
 70
     1
 10
0.0
 20
0.0
 30
0.0
  3
*D23
  1

  0
LINE
  5
3D9
330
3D6
100
AcDbEntity
  8
寸法
  6
CONTINUOUS
 62
     3
100
AcDbLine
 10
1339.999999999999
 20
1616.999999880791
 30
0.0
 11
1339.999999999999
 21
1764.0
 31
0.0
  0
LINE
  5
3DA
330
3D6
100
AcDbEntity
  8
寸法
  6
CONTINUOUS
 62
     3
100
AcDbLine
 10
1539.999999999999
 20
1680.999999880791
 30
0.0
 11
1539.999999999999
 21
1764.0
 31
0.0
  0
LINE
  5
3DB
330
3D6
100
AcDbEntity
  8
寸法
  6
CONTINUOUS
 62
     3
100
AcDbLine
 10
1369.999999999999
 20
1754.0
 30
0.0
 11
1509.999999999999
 21
1754.0
 31
0.0
  0
INSERT
  5
3DC
330
3D6
100
AcDbEntity
  8
寸法
 62
     3
100
AcDbBlockReference
  2
EX_NORM
 10
1339.999999999999
 20
1754.0
 30
0.0
 41
30.0
 42
30.0
 43
30.0
 50
180.0
  0
INSERT
  5
3DD
330
3D6
100
AcDbEntity
  8
寸法
 62
     3
100
AcDbBlockReference
  2
EX_NORM
 10
1539.999999999999
 20
1754.0
 30
0.0
 41
30.0
 42
30.0
 43
30.0
  0
MTEXT
  5
3DE
330
3D6
100
AcDbEntity
  8
寸法
 62
     2
100
AcDbMText
 10
1439.999999999999
 20
1777.499999940395
 30
0.0
 40
40.0
 41
0.0
 71
     5
 72
     1
  1
200
  7
EXCADDIM1
  0
POINT
  5
3DF
330
3D6
100
AcDbEntity
  8
DEFPOINTS
 62
     0
100
AcDbPoint
 10
1339.999999999999
 20
1610.0
 30
0.0
  0
POINT
  5
3E0
330
3D6
100
AcDbEntity
  8
DEFPOINTS
 62
     0
100
AcDbPoint
 10
1539.999999999999
 20
1674.0
 30
0.0
  0
POINT
  5
3E1
330
3D6
100
AcDbEntity
  8
DEFPOINTS
 62
     0
100
AcDbPoint
 10
1539.999999999999
 20
1754.0
 30
0.0
  0
ENDBLK
  5
3D8
330
3D6
100
AcDbEntity
  8
0
100
AcDbBlockEnd
  0
BLOCK
  5
3E4
330
3E3
100
AcDbEntity
  8
0
100
AcDbBlockBegin
  2
*D24
 70
     1
 10
0.0
 20
0.0
 30
0.0
  3
*D24
  1

  0
LINE
  5
3E6
330
3E3
100
AcDbEntity
  8
寸法
  6
CONTINUOUS
 62
     3
100
AcDbLine
 10
1546.99999988079
 20
794.0
 30
0.0
 11
1840.000000000001
 21
794.0000000000001
 31
0.0
  0
LINE
  5
3E7
330
3E3
100
AcDbEntity
  8
寸法
  6
CONTINUOUS
 62
     3
100
AcDbLine
 10
1588.25182958179
 20
1649.0
 30
0.0
 11
1840.000000000001
 21
1649.0
 31
0.0
  0
LINE
  5
3E8
330
3E3
100
AcDbEntity
  8
寸法
  6
CONTINUOUS
 62
     3
100
AcDbLine
 10
1830.000000000001
 20
824.0000000000001
 30
0.0
 11
1830.000000000001
 21
1619.0
 31
0.0
  0
INSERT
  5
3E9
330
3E3
100
AcDbEntity
  8
寸法
 62
     3
100
AcDbBlockReference
  2
EX_NORM
 10
1830.000000000001
 20
794.0000000000001
 30
0.0
 41
30.0
 42
30.0
 43
30.0
 50
270.0
  0
INSERT
  5
3EA
330
3E3
100
AcDbEntity
  8
寸法
 62
     3
100
AcDbBlockReference
  2
EX_NORM
 10
1830.000000000001
 20
1649.0
 30
0.0
 41
30.0
 42
30.0
 43
30.0
 50
90.0
  0
MTEXT
  5
3EB
330
3E3
100
AcDbEntity
  8
寸法
 62
     2
100
AcDbMText
 10
1806.500000059606
 20
1221.5
 30
0.0
 40
40.0
 41
0.0
 71
     5
 72
     1
  1
855（手洗器壁固定）
  7
EXCADDIM1
 11
0.0
 21
1.0
 31
0.0
  0
POINT
  5
3EC
330
3E3
100
AcDbEntity
  8
DEFPOINTS
 62
     0
100
AcDbPoint
 10
1539.999999999999
 20
794.0
 30
0.0
  0
POINT
  5
3ED
330
3E3
100
AcDbEntity
  8
DEFPOINTS
 62
     0
100
AcDbPoint
 10
1581.251829700999
 20
1649.0
 30
0.0
  0
POINT
  5
3EE
330
3E3
100
AcDbEntity
  8
DEFPOINTS
 62
     0
100
AcDbPoint
 10
1830.000000000001
 20
1649.0
 30
0.0
  0
ENDBLK
  5
3E5
330
3E3
100
AcDbEntity
  8
0
100
AcDbBlockEnd
  0
BLOCK
  5
3F3
330
3F2
100
AcDbEntity
  8
0
100
AcDbBlockBegin
  2
*D25
 70
     1
 10
0.0
 20
0.0
 30
0.0
  3
*D25
  1

  0
LINE
  5
3F5
330
3F2
100
AcDbEntity
  8
寸法
  6
CONTINUOUS
 62
     3
100
AcDbLine
 10
1546.99999988079
 20
794.0
 30
0.0
 11
1769.999999999999
 21
794.0000000000001
 31
0.0
  0
LINE
  5
3F6
330
3F2
100
AcDbEntity
  8
寸法
  6
CONTINUOUS
 62
     3
100
AcDbLine
 10
1578.99999988079
 20
1399.0
 30
0.0
 11
1769.999999999999
 21
1399.0
 31
0.0
  0
LINE
  5
3F7
330
3F2
100
AcDbEntity
  8
寸法
  6
CONTINUOUS
 62
     3
100
AcDbLine
 10
1759.999999999999
 20
824.0000000000001
 30
0.0
 11
1759.999999999999
 21
1369.0
 31
0.0
  0
INSERT
  5
3F8
330
3F2
100
AcDbEntity
  8
寸法
 62
     3
100
AcDbBlockReference
  2
EX_NORM
 10
1759.999999999999
 20
794.0000000000001
 30
0.0
 41
30.0
 42
30.0
 43
30.0
 50
270.0
  0
INSERT
  5
3F9
330
3F2
100
AcDbEntity
  8
寸法
 62
     3
100
AcDbBlockReference
  2
EX_NORM
 10
1759.999999999999
 20
1399.0
 30
0.0
 41
30.0
 42
30.0
 43
30.0
 50
90.0
  0
MTEXT
  5
3FA
330
3F2
100
AcDbEntity
  8
寸法
 62
     2
100
AcDbMText
 10
1736.500000059604
 20
1096.5
 30
0.0
 40
40.0
 41
0.0
 71
     5
 72
     1
  1
605（キャビネット壁固定）
  7
EXCADDIM1
 11
0.0
 21
1.0
 31
0.0
  0
POINT
  5
3FB
330
3F2
100
AcDbEntity
  8
DEFPOINTS
 62
     0
100
AcDbPoint
 10
1539.999999999999
 20
794.0
 30
0.0
  0
POINT
  5
3FC
330
3F2
100
AcDbEntity
  8
DEFPOINTS
 62
     0
100
AcDbPoint
 10
1571.999999999999
 20
1399.0
 30
0.0
  0
POINT
  5
3FD
330
3F2
100
AcDbEntity
  8
DEFPOINTS
 62
     0
100
AcDbPoint
 10
1759.999999999999
 20
1399.0
 30
0.0
  0
ENDBLK
  5
3F4
330
3F2
100
AcDbEntity
  8
0
100
AcDbBlockEnd
  0
BLOCK
  5
402
330
401
100
AcDbEntity
  8
0
100
AcDbBlockBegin
  2
*D26
 70
     1
 10
0.0
 20
0.0
 30
0.0
  3
*D26
  1

  0
LINE
  5
404
330
401
100
AcDbEntity
  8
寸法
  6
CONTINUOUS
 62
     3
100
AcDbLine
 10
1546.99999988079
 20
794.0
 30
0.0
 11
1629.999999999999
 21
794.0000000000001
 31
0.0
  0
LINE
  5
405
330
401
100
AcDbEntity
  8
寸法
  6
CONTINUOUS
 62
     3
100
AcDbLine
 10
1576.99999988079
 20
1234.0
 30
0.0
 11
1629.999999999999
 21
1234.0
 31
0.0
  0
LINE
  5
406
330
401
100
AcDbEntity
  8
寸法
  6
CONTINUOUS
 62
     3
100
AcDbLine
 10
1619.999999999999
 20
824.0000000000001
 30
0.0
 11
1619.999999999999
 21
1204.0
 31
0.0
  0
INSERT
  5
407
330
401
100
AcDbEntity
  8
寸法
 62
     3
100
AcDbBlockReference
  2
EX_NORM
 10
1619.999999999999
 20
794.0000000000001
 30
0.0
 41
30.0
 42
30.0
 43
30.0
 50
270.0
  0
INSERT
  5
408
330
401
100
AcDbEntity
  8
寸法
 62
     3
100
AcDbBlockReference
  2
EX_NORM
 10
1619.999999999999
 20
1234.0
 30
0.0
 41
30.0
 42
30.0
 43
30.0
 50
90.0
  0
MTEXT
  5
409
330
401
100
AcDbEntity
  8
寸法
 62
     2
100
AcDbMText
 10
1596.500000059604
 20
1014.0
 30
0.0
 40
40.0
 41
0.0
 71
     5
 72
     1
  1
440±10（壁排水）
  7
EXCADDIM1
 11
0.0
 21
1.0
 31
0.0
  0
POINT
  5
40A
330
401
100
AcDbEntity
  8
DEFPOINTS
 62
     0
100
AcDbPoint
 10
1539.999999999999
 20
794.0
 30
0.0
  0
POINT
  5
40B
330
401
100
AcDbEntity
  8
DEFPOINTS
 62
     0
100
AcDbPoint
 10
1569.999999999999
 20
1234.0
 30
0.0
  0
POINT
  5
40C
330
401
100
AcDbEntity
  8
DEFPOINTS
 62
     0
100
AcDbPoint
 10
1619.999999999999
 20
1234.0
 30
0.0
  0
ENDBLK
  5
403
330
401
100
AcDbEntity
  8
0
100
AcDbBlockEnd
  0
BLOCK
  5
40F
330
40E
100
AcDbEntity
  8
0
100
AcDbBlockBegin
  2
*D27
 70
     1
 10
0.0
 20
0.0
 30
0.0
  3
*D27
  1

  0
LINE
  5
411
330
40E
100
AcDbEntity
  8
寸法
  6
CONTINUOUS
 62
     3
100
AcDbLine
 10
1479.999999999999
 20
757.0000001192093
 30
0.0
 11
1479.999999999999
 21
704.0
 31
0.0
  0
LINE
  5
412
330
40E
100
AcDbEntity
  8
寸法
  6
CONTINUOUS
 62
     3
100
AcDbLine
 10
1539.999999999999
 20
787.0000001192093
 30
0.0
 11
1539.999999999999
 21
704.0
 31
0.0
  0
LINE
  5
413
330
40E
100
AcDbEntity
  8
寸法
  6
CONTINUOUS
 62
     3
100
AcDbLine
 10
1509.999999999999
 20
714.0
 30
0.0
 11
1509.999999999999
 21
714.0
 31
0.0
  0
INSERT
  5
414
330
40E
100
AcDbEntity
  8
寸法
 62
     3
100
AcDbBlockReference
  2
EX_NORM
 10
1479.999999999999
 20
714.0
 30
0.0
 41
30.0
 42
30.0
 43
30.0
 50
180.0
  0
INSERT
  5
415
330
40E
100
AcDbEntity
  8
寸法
 62
     3
100
AcDbBlockReference
  2
EX_NORM
 10
1539.999999999999
 20
714.0
 30
0.0
 41
30.0
 42
30.0
 43
30.0
  0
MTEXT
  5
416
330
40E
100
AcDbEntity
  8
寸法
 62
     2
100
AcDbMText
 10
1739.999999999999
 20
737.5
 30
0.0
 40
40.0
 41
0.0
 71
     5
 72
     1
  1
60±10（床給排水）
  7
EXCADDIM1
  0
POINT
  5
417
330
40E
100
AcDbEntity
  8
DEFPOINTS
 62
     0
100
AcDbPoint
 10
1479.999999999999
 20
764.0
 30
0.0
  0
POINT
  5
418
330
40E
100
AcDbEntity
  8
DEFPOINTS
 62
     0
100
AcDbPoint
 10
1539.999999999999
 20
794.0
 30
0.0
  0
POINT
  5
419
330
40E
100
AcDbEntity
  8
DEFPOINTS
 62
     0
100
AcDbPoint
 10
1539.999999999999
 20
714.0
 30
0.0
  0
ENDBLK
  5
410
330
40E
100
AcDbEntity
  8
0
100
AcDbBlockEnd
  0
BLOCK
  5
41C
330
41B
100
AcDbEntity
  8
0
100
AcDbBlockBegin
  2
*D28
 70
     1
 10
0.0
 20
0.0
 30
0.0
  3
*D28
  1

  0
LINE
  5
41E
330
41B
100
AcDbEntity
  8
寸法
  6
CONTINUOUS
 62
     3
100
AcDbLine
 10
1562.0
 20
1299.0
 30
0.0
 11
1700.0
 21
1299.0
 31
0.0
  0
LINE
  5
41F
330
41B
100
AcDbEntity
  8
寸法
  6
CONTINUOUS
 62
     3
100
AcDbLine
 10
1690.0
 20
1269.0
 30
0.0
 11
1690.0
 21
824.0
 31
0.0
  0
INSERT
  5
420
330
41B
100
AcDbEntity
  8
寸法
 62
     3
100
AcDbBlockReference
  2
EX_NORM
 10
1690.0
 20
1299.0
 30
0.0
 41
30.0
 42
30.0
 43
30.0
 50
90.0
  0
INSERT
  5
421
330
41B
100
AcDbEntity
  8
寸法
 62
     3
100
AcDbBlockReference
  2
EX_NORM
 10
1690.0
 20
794.0
 30
0.0
 41
30.0
 42
30.0
 43
30.0
 50
270.0
  0
MTEXT
  5
422
330
41B
100
AcDbEntity
  8
寸法
 62
     2
100
AcDbMText
 10
1666.500000059605
 20
1046.5
 30
0.0
 40
40.0
 41
0.0
 71
     5
 72
     1
  1
505±10（壁給水）
  7
EXCADDIM1
 11
0.0
 21
1.0
 31
0.0
  0
POINT
  5
423
330
41B
100
AcDbEntity
  8
DEFPOINTS
 62
     0
100
AcDbPoint
 10
1557.0
 20
1299.0
 30
0.0
  0
POINT
  5
424
330
41B
100
AcDbEntity
  8
DEFPOINTS
 62
     0
100
AcDbPoint
 10
1690.0
 20
794.0
 30
0.0
  0
POINT
  5
425
330
41B
100
AcDbEntity
  8
DEFPOINTS
 62
     0
100
AcDbPoint
 10
1690.0
 20
794.0
 30
0.0
  0
ENDBLK
  5
41D
330
41B
100
AcDbEntity
  8
0
100
AcDbBlockEnd
  0
ENDSEC
  0
SECTION
  2
ENTITIES
  0
LINE
  5
A7
330
1F
100
AcDbEntity
  8
枠_表
  6
CONTINUOUS
 62
     7
100
AcDbLine
 10
180.0
 20
135.0
 30
0.0
 11
2000.0
 21
135.0
 31
0.0
  0
LINE
  5
A8
330
1F
100
AcDbEntity
  8
枠_表
  6
CONTINUOUS
 62
     7
100
AcDbLine
 10
2000.0
 20
135.0
 30
0.0
 11
2000.0
 21
2885.0
 31
0.0
  0
LINE
  5
A9
330
1F
100
AcDbEntity
  8
枠_表
  6
CONTINUOUS
 62
     7
100
AcDbLine
 10
180.0
 20
135.0
 30
0.0
 11
180.0
 21
2885.0
 31
0.0
  0
LINE
  5
AA
330
1F
100
AcDbEntity
  8
枠_表
  6
CONTINUOUS
 62
     7
100
AcDbLine
 10
180.0
 20
2885.0
 30
0.0
 11
2000.0
 21
2885.0
 31
0.0
  0
LINE
  5
AB
330
1F
100
AcDbEntity
  8
枠_表
  6
CONTINUOUS
 62
     7
100
AcDbLine
 10
180.0
 20
355.0
 30
0.0
 11
2000.0
 21
355.0
 31
0.0
  0
LINE
  5
AC
330
1F
100
AcDbEntity
  8
枠_表
  6
CONTINUOUS
 62
     6
100
AcDbLine
 10
2000.0
 20
235.0
 30
0.0
 11
750.0
 21
235.0
 31
0.0
  0
LINE
  5
AD
330
1F
100
AcDbEntity
  8
枠_表
  6
CONTINUOUS
 62
     6
100
AcDbLine
 10
1860.0
 20
355.0
 30
0.0
 11
1860.0
 21
235.0
 31
0.0
  0
LINE
  5
AE
330
1F
100
AcDbEntity
  8
枠_表
  6
CONTINUOUS
 62
     6
100
AcDbLine
 10
1810.0
 20
355.0
 30
0.0
 11
1810.0
 21
235.0
 31
0.0
  0
LINE
  5
AF
330
1F
100
AcDbEntity
  8
枠_表
  6
CONTINUOUS
 62
     6
100
AcDbLine
 10
1440.0
 20
355.0
 30
0.0
 11
1440.0
 21
135.0
 31
0.0
  0
LINE
  5
B0
330
1F
100
AcDbEntity
  8
枠_表
  6
CONTINUOUS
 62
     6
100
AcDbLine
 10
1390.0
 20
355.0
 30
0.0
 11
1390.0
 21
135.0
 31
0.0
  0
LINE
  5
B1
330
1F
100
AcDbEntity
  8
枠_表
  6
CONTINUOUS
 62
     6
100
AcDbLine
 10
800.0
 20
355.0
 30
0.0
 11
800.0
 21
235.0
 31
0.0
  0
LINE
  5
B2
330
1F
100
AcDbEntity
  8
枠_表
  6
CONTINUOUS
 62
     6
100
AcDbLine
 10
750.0
 20
355.0
 30
0.0
 11
750.0
 21
135.0
 31
0.0
  0
LINE
  5
B3
330
1F
100
AcDbEntity
  8
枠_表
  6
CONTINUOUS
 62
     6
100
AcDbLine
 10
620.0
 20
355.0
 30
0.0
 11
620.0
 21
135.0
 31
0.0
  0
LINE
  5
B4
330
1F
100
AcDbEntity
  8
枠_表
  6
CONTINUOUS
 62
     6
100
AcDbLine
 10
490.0
 20
355.0
 30
0.0
 11
490.0
 21
135.0
 31
0.0
  0
LINE
  5
B5
330
1F
100
AcDbEntity
  8
枠_表
  6
CONTINUOUS
 62
     6
100
AcDbLine
 10
335.0
 20
355.0
 30
0.0
 11
335.0
 21
135.0
 31
0.0
  0
LINE
  5
B6
330
1F
100
AcDbEntity
  8
枠_表
  6
CONTINUOUS
 62
     6
100
AcDbLine
 10
180.0
 20
305.0
 30
0.0
 11
750.0
 21
305.0
 31
0.0
  0
LINE
  5
B7
330
1F
100
AcDbEntity
  8
枠_表
  6
CONTINUOUS
 62
     6
100
AcDbLine
 10
1892.6538086
 20
258.0029297
 30
0.0
 11
1969.9938965
 21
336.6998291
 31
0.0
  0
LINE
  5
B8
330
1F
100
AcDbEntity
  8
枠_表
  6
EXLTYPE2
 62
     6
100
AcDbLine
 10
180.0
 20
185.0
 30
0.0
 11
490.0
 21
185.0
 31
0.0
  0
CIRCLE
  5
B9
330
1F
100
AcDbEntity
  8
枠_表
  6
CONTINUOUS
 62
     6
100
AcDbCircle
 10
230.0
 20
160.0
 30
0.0
 40
1.0000002
  0
CIRCLE
  5
BA
330
1F
100
AcDbEntity
  8
枠_表
  6
CONTINUOUS
 62
     6
100
AcDbCircle
 10
280.0
 20
160.0
 30
0.0
 40
1.0000002
  0
CIRCLE
  5
BB
330
1F
100
AcDbEntity
  8
枠_表
  6
CONTINUOUS
 62
     6
100
AcDbCircle
 10
385.0
 20
160.0
 30
0.0
 40
1.0000002
  0
CIRCLE
  5
BC
330
1F
100
AcDbEntity
  8
枠_表
  6
CONTINUOUS
 62
     6
100
AcDbCircle
 10
435.0
 20
160.0
 30
0.0
 40
1.0000002
  0
TEXT
  5
BD
330
1F
100
AcDbEntity
  8
枠_表
  6
CONTINUOUS
 62
     2
100
AcDbText
 10
1890.5371094
 20
302.7227783
 30
0.0
 40
30.0
  1
１
 41
1.101333333333329
  7
EXCADSTD
 72
     5
 11
1914.1371094
 21
302.7227783
 31
0.0
100
AcDbText
  0
TEXT
  5
BE
330
1F
100
AcDbEntity
  8
枠_表
  6
CONTINUOUS
 62
     2
100
AcDbText
 10
202.5
 20
308.75
 30
0.0
 40
42.5
  1
製図
 41
1.509694117647059
  7
EXCADSTD
 72
     5
 11
303.326
 21
308.75
 31
0.0
100
AcDbText
  0
TEXT
  5
BF
330
1F
100
AcDbEntity
  8
枠_表
  6
CONTINUOUS
 62
     2
100
AcDbText
 10
357.5
 20
308.75
 30
0.0
 40
42.5
  1
写図
 41
1.509694117647059
  7
EXCADSTD
 72
     5
 11
458.326
 21
308.75
 31
0.0
100
AcDbText
  0
TEXT
  5
C0
330
1F
100
AcDbEntity
  8
枠_表
  6
CONTINUOUS
 62
     2
100
AcDbText
 10
507.5
 20
308.75
 30
0.0
 40
42.5
  1
検図
 41
1.303826737967914
  7
EXCADSTD
 72
     5
 11
594.577
 21
308.75
 31
0.0
100
AcDbText
  0
TEXT
  5
C1
330
1F
100
AcDbEntity
  8
枠_表
  6
CONTINUOUS
 62
     2
100
AcDbText
 10
637.5
 20
308.75
 30
0.0
 40
42.5
  1
承認
 41
1.303826737967914
  7
EXCADSTD
 72
     5
 11
724.577
 21
308.75
 31
0.0
100
AcDbText
  0
TEXT
  5
C2
330
1F
100
AcDbEntity
  8
枠_表
  6
CONTINUOUS
 62
     2
100
AcDbText
 10
755.75
 20
298.75
 30
0.0
 40
42.5
  1
品
 41
1.12
  7
EXCADSTD
 72
     5
 11
789.75
 21
298.75
 31
0.0
100
AcDbText
  0
TEXT
  5
C3
330
1F
100
AcDbEntity
  8
枠_表
  6
CONTINUOUS
 62
     2
100
AcDbText
 10
755.75
 20
248.75
 30
0.0
 40
42.5
  1
名
 41
1.12
  7
EXCADSTD
 72
     5
 11
789.75
 21
248.75
 31
0.0
100
AcDbText
  0
TEXT
  5
C4
330
1F
100
AcDbEntity
  8
枠_表
  6
CONTINUOUS
 62
     2
100
AcDbText
 10
1395.75
 20
298.75
 30
0.0
 40
42.5
  1
品
 41
1.12
  7
EXCADSTD
 72
     5
 11
1429.75
 21
298.75
 31
0.0
100
AcDbText
  0
TEXT
  5
C5
330
1F
100
AcDbEntity
  8
枠_表
  6
CONTINUOUS
 62
     2
100
AcDbText
 10
1395.75
 20
248.75
 30
0.0
 40
42.5
  1
番
 41
1.12
  7
EXCADSTD
 72
     5
 11
1429.75
 21
248.75
 31
0.0
100
AcDbText
  0
TEXT
  5
C6
330
1F
100
AcDbEntity
  8
枠_表
  6
CONTINUOUS
 62
     2
100
AcDbText
 10
1816.75
 20
298.75
 30
0.0
 40
42.5
  1
尺
 41
1.12
  7
EXCADSTD
 72
     5
 11
1850.75
 21
298.75
 31
0.0
100
AcDbText
  0
TEXT
  5
C7
330
1F
100
AcDbEntity
  8
枠_表
  6
CONTINUOUS
 62
     2
100
AcDbText
 10
1816.75
 20
248.75
 30
0.0
 40
42.5
  1
度
 41
1.12
  7
EXCADSTD
 72
     5
 11
1850.75
 21
248.75
 31
0.0
100
AcDbText
  0
TEXT
  5
C8
330
1F
100
AcDbEntity
  8
枠_表
  6
CONTINUOUS
 62
     2
100
AcDbText
 10
1395.75
 20
185.75
 30
0.0
 40
42.5
  1
図
 41
1.12
  7
EXCADSTD
 72
     5
 11
1429.75
 21
185.75
 31
0.0
100
AcDbText
  0
TEXT
  5
C9
330
1F
100
AcDbEntity
  8
枠_表
  6
CONTINUOUS
 62
     2
100
AcDbText
 10
1395.75
 20
142.75
 30
0.0
 40
42.5
  1
番
 41
1.12
  7
EXCADSTD
 72
     5
 11
1429.75
 21
142.75
 31
0.0
100
AcDbText
  0
LINE
  5
CA
330
1F
100
AcDbEntity
  8
枠_表
  6
CONTINUOUS
 62
     6
100
AcDbLine
 10
1250.0
 20
2710.0
 30
0.0
 11
1950.0
 21
2710.0
 31
0.0
  0
LINE
  5
CB
330
1F
100
AcDbEntity
  8
枠_表
  6
CONTINUOUS
 62
     6
100
AcDbLine
 10
1250.0
 20
2655.0
 30
0.0
 11
1950.0
 21
2655.0
 31
0.0
  0
TEXT
  5
CC
330
1F
100
AcDbEntity
  8
枠_表
  6
CONTINUOUS
 62
     2
100
AcDbText
 10
1630.0
 20
2717.5
 30
0.0
 40
40.0
  1
品名
 41
2.041518181818183
  7
EXCADSTD
 72
     5
 11
1758.324
 21
2717.5
 31
0.0
100
AcDbText
  0
TEXT
  5
CD
330
1F
100
AcDbEntity
  8
枠_表
  6
CONTINUOUS
 62
     2
100
AcDbText
 10
1859.000000059605
 20
2717.5
 30
0.0
 40
40.0
  1
個数
 41
1.195746363636364
  7
EXCADSTD
 72
     5
 11
1934.161200059605
 21
2717.5
 31
0.0
100
AcDbText
  0
TEXT
  5
CE
330
1F
100
AcDbEntity
  8
枠_表
  6
CONTINUOUS
 62
     2
100
AcDbText
 10
1877.5
 20
2662.5
 30
0.0
 40
40.0
  1
１
 41
1.26
  7
EXCADSTD
 72
     5
 11
1913.5
 21
2662.5
 31
0.0
100
AcDbText
  0
TEXT
  5
CF
330
1F
100
AcDbEntity
  8
枠_表
  6
CONTINUOUS
 62
     2
100
AcDbText
 10
1330.0
 20
2717.5
 30
0.0
 40
40.0
  1
品番
 41
2.041518181818183
  7
EXCADSTD
 72
     5
 11
1458.324
 21
2717.5
 31
0.0
100
AcDbText
  0
LINE
  5
D0
330
1F
100
AcDbEntity
  8
枠_表
  6
CONTINUOUS
 62
     6
100
AcDbLine
 10
1250.0
 20
2765.0
 30
0.0
 11
1950.0
 21
2765.0
 31
0.0
  0
LINE
  5
D1
330
1F
100
AcDbEntity
  8
枠_表
  6
CONTINUOUS
 62
     6
100
AcDbLine
 10
1250.0
 20
2600.0
 30
0.0
 11
1950.0
 21
2600.0
 31
0.0
  0
LINE
  5
D2
330
1F
100
AcDbEntity
  8
枠_表
  6
CONTINUOUS
 62
     6
100
AcDbLine
 10
1250.0
 20
2545.0
 30
0.0
 11
1950.0
 21
2545.0
 31
0.0
  0
LINE
  5
D3
330
1F
100
AcDbEntity
  8
枠_表
  6
CONTINUOUS
 62
     6
100
AcDbLine
 10
1250.0
 20
2545.0
 30
0.0
 11
1250.0
 21
2765.0
 31
0.0
  0
LINE
  5
D4
330
1F
100
AcDbEntity
  8
枠_表
  6
CONTINUOUS
 62
     6
100
AcDbLine
 10
1550.0
 20
2545.0
 30
0.0
 11
1550.0
 21
2765.0
 31
0.0
  0
LINE
  5
D5
330
1F
100
AcDbEntity
  8
枠_表
  6
CONTINUOUS
 62
     6
100
AcDbLine
 10
1850.0
 20
2545.0
 30
0.0
 11
1850.0
 21
2765.0
 31
0.0
  0
LINE
  5
D6
330
1F
100
AcDbEntity
  8
枠_表
  6
CONTINUOUS
 62
     6
100
AcDbLine
 10
1950.0
 20
2545.0
 30
0.0
 11
1950.0
 21
2765.0
 31
0.0
  0
TEXT
  5
D7
330
1F
100
AcDbEntity
  8
枠_表
  6
CONTINUOUS
 62
     2
100
AcDbText
 10
1560.000000000002
 20
2607.5
 30
0.0
 40
40.0
  1
アングル形止水栓（共用形）
 41
0.6136364199898461
  7
EXCADSTD
 72
     5
 11
1830.000024795534
 21
2607.5
 31
0.0
100
AcDbText
  0
TEXT
  5
D8
330
1F
100
AcDbEntity
  8
枠_表
  6
CONTINUOUS
 62
     2
100
AcDbText
 10
1560.000000000002
 20
2552.5
 30
0.0
 40
40.0
  1
ストレート形止水栓（共用形）
 41
0.6114457831325302
  7
EXCADSTD
 72
     5
 11
1850.000000000002
 21
2552.5
 31
0.0
100
AcDbText
  0
TEXT
  5
D9
330
1F
100
AcDbEntity
  8
枠_表
  6
CONTINUOUS
 62
     2
100
AcDbText
 10
1877.5
 20
2607.5
 30
0.0
 40
40.0
  1
１
 41
1.26
  7
EXCADSTD
 72
     5
 11
1913.5
 21
2607.5
 31
0.0
100
AcDbText
  0
TEXT
  5
DA
330
1F
100
AcDbEntity
  8
枠_表
  6
CONTINUOUS
 62
     2
100
AcDbText
 10
1877.5
 20
2552.5
 30
0.0
 40
40.0
  1
１
 41
1.26
  7
EXCADSTD
 72
     5
 11
1913.5
 21
2552.5
 31
0.0
100
AcDbText
  0
TEXT
  5
DB
330
1F
100
AcDbEntity
  8
枠_表
  6
CONTINUOUS
 62
     2
100
AcDbText
 10
1270.0
 20
2485.000000000001
 30
0.0
 40
40.0
  1
※止水栓は別途
 41
1.139634146341463
  7
EXCADSTD
 72
     5
 11
1537.0
 21
2485.000000000001
 31
0.0
100
AcDbText
  0
TEXT
  5
DC
330
1F
100
AcDbEntity
  8
枠_表
  6
CONTINUOUS
 62
     2
100
AcDbText
 10
1270.0
 20
2445.000000000001
 30
0.0
 40
40.0
  1
※壁排水の場合、排水Ｌ管（44131）別途
 41
0.9170454545454546
  7
EXCADSTD
 72
     5
 11
1942.5
 21
2445.000000000001
 31
0.0
100
AcDbText
  0
TEXT
  5
DD
330
1F
100
AcDbEntity
  8
枠_表
  6
CONTINUOUS
 62
     2
100
AcDbText
 10
1931.2792969
 20
258.3488464
 30
0.0
 40
30.0
  1
１０
 41
1.098531212121213
  7
EXCADSTD
 72
     5
 11
1983.0671969
 21
258.3488464
 31
0.0
100
AcDbText
  0
TEXT
  5
DE
330
1F
100
AcDbEntity
  8
枠_表
  6
CONTINUOUS
 62
     2
100
AcDbText
 10
1260.000000000001
 20
2607.5
 30
0.0
 40
40.0
  1
ＮＬ２２１Ｆ６０ＷＹ
 41
0.7059321213576754
  7
EXCADSTD
 72
     5
 11
1497.999972343446
 21
2607.5
 31
0.0
100
AcDbText
  0
TEXT
  5
DF
330
1F
100
AcDbEntity
  8
枠_表
  6
CONTINUOUS
 62
     2
100
AcDbText
 10
1260.000000000001
 20
2552.5
 30
0.0
 40
40.0
  1
ＮＬ２１１Ｆ４３５ＷＹ３０
 41
0.6681817921725187
  7
EXCADSTD
 72
     5
 11
1553.99998855591
 21
2552.5
 31
0.0
100
AcDbText
  0
TEXT
  5
E0
330
1F
100
AcDbEntity
  8
枠_表
  6
CONTINUOUS
 62
     2
100
AcDbText
 10
184.4999999
 20
140.0
 30
0.0
 40
40.0
  1
13
 41
0.454054054054054
  7
EXCADSTD
 72
     5
 11
216.4999999
 21
140.0
 31
0.0
100
AcDbText
  0
TEXT
  5
E1
330
1F
100
AcDbEntity
  8
枠_表
  6
CONTINUOUS
 62
     7
100
AcDbText
 10
770.0
 20
155.0
 30
0.0
 40
60.0
  1
ジャニス工業株式会社
 41
1.186440677966102
  7
EXCADSTD
 72
     5
 11
1370.0
 21
155.0
 31
0.0
100
AcDbText
  0
TEXT
  5
E2
330
1F
100
AcDbEntity
  8
枠_表
  6
CONTINUOUS
 62
     2
100
AcDbText
 10
961.000001430541
 20
265.0
 30
0.0
 40
60.0
  1
手洗キャビ
 41
1.078160904193747
  7
EXCADSTD
 72
     5
 11
1228.999997615844
 21
265.0
 31
0.0
100
AcDbText
  0
TEXT
  5
E3
330
1F
100
AcDbEntity
  8
枠_表
  6
CONTINUOUS
 62
     2
100
AcDbText
 10
1560.0
 20
2662.5
 30
0.0
 40
40.0
  1
手洗キャビ
 41
0.9051724137931034
  7
EXCADSTD
 72
     5
 11
1710.0
 21
2662.5
 31
0.0
100
AcDbText
  0
TEXT
  5
E4
330
1F
100
AcDbEntity
  8
枠_表
  6
CONTINUOUS
 62
     2
100
AcDbText
 10
243.75
 20
140.0
 30
0.0
 40
40.0
  1
9
 41
0.4798828125
  7
EXCADSTD
 72
     5
 11
258.375
 21
140.0
 31
0.0
100
AcDbText
  0
TEXT
  5
E5
330
1F
100
AcDbEntity
  8
枠_表
  6
CONTINUOUS
 62
     2
100
AcDbText
 10
288.0000001
 20
140.0
 30
0.0
 40
40.0
  1
17
 41
0.454054054054054
  7
EXCADSTD
 72
     5
 11
320.0000001
 21
140.0
 31
0.0
100
AcDbText
  0
TEXT
  5
E6
330
1F
100
AcDbEntity
  8
枠_表
  6
CONTINUOUS
 62
     2
100
AcDbText
 10
207.4999999999949
 20
220.0
 30
0.0
 40
50.0
  1
中村
 41
1.224910909090909
  7
EXCADSTD
 72
     5
 11
303.7429999999949
 21
220.0
 31
0.0
100
AcDbText
  0
TEXT
  5
E7
330
1F
100
AcDbEntity
  8
枠_表
  6
CONTINUOUS
 62
     7
100
AcDbText
 10
1452.00000166893
 20
151.5
 30
0.0
 40
70.0
  1
ＬＵ７１７５３０
 41
1.140425531914894
  7
EXCADSTD
 72
     5
 11
1988.00000166893
 21
151.5
 31
0.0
100
AcDbText
  0
TEXT
  5
E8
330
1F
100
AcDbEntity
  8
枠_表
  6
CONTINUOUS
 62
     2
100
AcDbText
 10
1260.0
 20
2662.5
 30
0.0
 40
40.0
  1
ＬＴＣＫ３５０Ｒ
 41
0.9234042553191489
  7
EXCADSTD
 72
     5
 11
1508.0
 21
2662.5
 31
0.0
100
AcDbText
  0
TEXT
  5
E9
330
1F
100
AcDbEntity
  8
枠_表
  6
CONTINUOUS
 62
     2
100
AcDbText
 10
1469.0
 20
270.0
 30
0.0
 40
50.0
  1
ＬＴＣＫ３５０Ｒ
 41
0.8280851063829788
  7
EXCADSTD
 72
     5
 11
1747.0
 21
270.0
 31
0.0
100
AcDbText
  0
POLYLINE
  5
EA
330
1F
100
AcDbEntity
  8
図
  6
CONTINUOUS
 62
     3
100
AcDb2dPolyline
 66
     1
 10
0.0
 20
0.0
 30
0.0
 70
   128
  0
VERTEX
  5
EB
330
EA
100
AcDbEntity
  8
図
  6
CONTINUOUS
 62
     3
100
AcDbVertex
100
AcDb2dVertex
 10
1343.00001
 20
794.0
 30
0.0
  0
VERTEX
  5
EC
330
EA
100
AcDbEntity
  8
図
  6
CONTINUOUS
 62
     3
100
AcDbVertex
100
AcDb2dVertex
 10
1324.00001
 20
843.0000000000003
 30
0.0
  0
SEQEND
  5
ED
330
EA
100
AcDbEntity
  8
図
  6
CONTINUOUS
 62
     3
  0
LINE
  5
EE
330
1F
100
AcDbEntity
  8
図
  6
CONTINUOUS
 62
     3
100
AcDbLine
 10
1327.492367820523
 20
820.1631999960501
 30
0.0
 11
1343.00001
 21
794.0
 31
0.0
  0
LINE
  5
EF
330
1F
100
AcDbEntity
  8
図
  6
CONTINUOUS
 62
     3
100
AcDbLine
 10
1343.00001
 20
794.0
 30
0.0
 11
1336.815980910024
 21
823.7784785409588
 31
0.0
  0
LINE
  5
F0
330
1F
100
AcDbEntity
  8
図
  6
CONTINUOUS
 62
     2
100
AcDbLine
 10
577.0000000000016
 20
914.0
 30
0.0
 11
903.0000000000013
 21
914.0
 31
0.0
  0
LINE
  5
F1
330
1F
100
AcDbEntity
  8
図
  6
CONTINUOUS
 62
     2
100
AcDbLine
 10
574.9999999999983
 20
794.0000000000003
 30
0.0
 11
904.9999999999989
 21
794.0000000000003
 31
0.0
  0
LINE
  5
F2
330
1F
100
AcDbEntity
  8
図
  6
CONTINUOUS
 62
     6
100
AcDbLine
 10
683.9999999999998
 20
764.0000000000015
 30
0.0
 11
716.0000000000002
 21
764.0000000000015
 31
0.0
  0
LINE
  5
F3
330
1F
100
AcDbEntity
  8
図
  6
CONTINUOUS
 62
     6
100
AcDbLine
 10
824.9999999999989
 20
786.9999999999999
 30
0.0
 11
844.9999999999989
 21
786.9999999999999
 31
0.0
  0
LINE
  5
F4
330
1F
100
AcDbEntity
  8
図
  6
CONTINUOUS
 62
     6
100
AcDbLine
 10
683.9999999999998
 20
898.0000000000001
 30
0.0
 11
683.9999999999998
 21
764.0000000000015
 31
0.0
  0
LINE
  5
F5
330
1F
100
AcDbEntity
  8
図
  6
EXLTYPE3
 62
     6
100
AcDbLine
 10
699.9999999999989
 20
898.0000000000001
 30
0.0
 11
699.9999999999989
 21
754.0000000000015
 31
0.0
  0
LINE
  5
F6
330
1F
100
AcDbEntity
  8
図
  6
CONTINUOUS
 62
     6
100
AcDbLine
 10
716.0000000000002
 20
898.0000000000001
 30
0.0
 11
716.0000000000002
 21
764.0000000000015
 31
0.0
  0
LINE
  5
F7
330
1F
100
AcDbEntity
  8
図
  6
CONTINUOUS
 62
     6
100
AcDbLine
 10
824.9999999999989
 20
787.000000000001
 30
0.0
 11
824.9999999999989
 21
898.0000000000001
 31
0.0
  0
LINE
  5
F8
330
1F
100
AcDbEntity
  8
図
  6
EXLTYPE3
 62
     6
100
AcDbLine
 10
834.9999999999989
 20
898.0000000000001
 30
0.0
 11
834.9999999999989
 21
777.000000000001
 31
0.0
  0
LINE
  5
F9
330
1F
100
AcDbEntity
  8
図
  6
CONTINUOUS
 62
     6
100
AcDbLine
 10
844.9999999999989
 20
787.000000000001
 30
0.0
 11
844.9999999999989
 21
898.0000000000001
 31
0.0
  0
LINE
  5
FA
330
1F
100
AcDbEntity
  8
図
  6
CONTINUOUS
 62
     2
100
AcDbLine
 10
1405.000000000001
 20
914.0
 30
0.0
 11
1390.000000000001
 21
914.0
 31
0.0
  0
LINE
  5
FB
330
1F
100
AcDbEntity
  8
図
  6
CONTINUOUS
 62
     2
100
AcDbLine
 10
1406.999999999999
 20
924.0
 30
0.0
 11
1426.999999999999
 21
924.0
 31
0.0
  0
LINE
  5
FC
330
1F
100
AcDbEntity
  8
図
  6
CONTINUOUS
 62
     2
100
AcDbLine
 10
1411.999999999999
 20
794.0000000000003
 30
0.0
 11
1540.000000000001
 21
794.0000000000003
 31
0.0
  0
LINE
  5
FD
330
1F
100
AcDbEntity
  8
図
  6
CONTINUOUS
 62
     2
100
AcDbLine
 10
1411.999999999999
 20
924.0
 30
0.0
 11
1411.999999999999
 21
794.0000000000003
 31
0.0
  0
LINE
  5
FE
330
1F
100
AcDbEntity
  8
図
  6
CONTINUOUS
 62
     2
100
AcDbLine
 10
1426.999999999999
 20
924.0
 30
0.0
 11
1426.999999999999
 21
794.0000000000003
 31
0.0
  0
LINE
  5
FF
330
1F
100
AcDbEntity
  8
図
  6
EXLTYPE3
 62
     6
100
AcDbLine
 10
1480.000000000001
 20
1010.0
 30
0.0
 11
1480.000000000001
 21
754.0000000000015
 31
0.0
  0
LINE
  5
100
330
1F
100
AcDbEntity
  8
図
  6
CONTINUOUS
 62
     6
100
AcDbLine
 10
1463.999999999997
 20
764.0000000000015
 30
0.0
 11
1496.0
 21
764.0000000000015
 31
0.0
  0
LINE
  5
101
330
1F
100
AcDbEntity
  8
図
  6
CONTINUOUS
 62
     6
100
AcDbLine
 10
1463.999999999997
 20
1010.0
 30
0.0
 11
1463.999999999997
 21
764.0000000000015
 31
0.0
  0
LINE
  5
102
330
1F
100
AcDbEntity
  8
図
  6
CONTINUOUS
 62
     6
100
AcDbLine
 10
1496.0
 20
1010.0
 30
0.0
 11
1496.0
 21
764.0000000000015
 31
0.0
  0
LINE
  5
103
330
1F
100
AcDbEntity
  8
図
  6
CONTINUOUS
 62
     6
100
AcDbLine
 10
1469.999999999999
 20
786.9999999999999
 30
0.0
 11
1489.999999999999
 21
786.9999999999999
 31
0.0
  0
LINE
  5
104
330
1F
100
AcDbEntity
  8
図
  6
CONTINUOUS
 62
     6
100
AcDbLine
 10
1469.999999999999
 20
786.9999999999999
 30
0.0
 11
1469.999999999999
 21
1010.0
 31
0.0
  0
LINE
  5
105
330
1F
100
AcDbEntity
  8
図
  6
CONTINUOUS
 62
     6
100
AcDbLine
 10
1489.999999999999
 20
786.9999999999999
 30
0.0
 11
1489.999999999999
 21
1010.0
 31
0.0
  0
CIRCLE
  5
106
330
1F
100
AcDbEntity
  8
図
  6
CONTINUOUS
 62
     2
100
AcDbCircle
 10
715.0
 20
2315.000000000007
 30
0.0
 40
30.50000000000002
  0
CIRCLE
  5
107
330
1F
100
AcDbEntity
  8
図
  6
CONTINUOUS
 62
     2
100
AcDbCircle
 10
715.0
 20
2315.000000000007
 30
0.0
 40
20.50000000000002
  0
LINE
  5
108
330
1F
100
AcDbEntity
  8
図
  6
CONTINUOUS
 62
     2
100
AcDbLine
 10
635.0000000000006
 20
2349.631824714107
 30
0.0
 11
635.0000000000006
 21
2265.000000000007
 31
0.0
  0
ARC
  5
109
330
1F
100
AcDbEntity
  8
図
  6
CONTINUOUS
 62
     2
100
AcDbCircle
 10
645.0000000000006
 20
2349.631824714107
 30
0.0
 40
10.0
100
AcDbArc
 50
90.00000000000004
 51
180.0
  0
LINE
  5
10A
330
1F
100
AcDbEntity
  8
図
  6
CONTINUOUS
 62
     2
100
AcDbLine
 10
754.9999999999994
 20
2359.631824714107
 30
0.0
 11
645.0000000000006
 21
2359.631824714107
 31
0.0
  0
ARC
  5
10B
330
1F
100
AcDbEntity
  8
図
  6
CONTINUOUS
 62
     2
100
AcDbCircle
 10
754.9999999999994
 20
2349.631824714107
 30
0.0
 40
10.0
100
AcDbArc
 50
0.0
 51
90.00000000000004
  0
ARC
  5
10C
330
1F
100
AcDbEntity
  8
図
  6
CONTINUOUS
 62
     2
100
AcDbCircle
 10
755.0
 20
2265.000000000007
 30
0.0
 40
10.0
100
AcDbArc
 50
270.0000000000002
 51
0.0
  0
LINE
  5
10D
330
1F
100
AcDbEntity
  8
図
  6
CONTINUOUS
 62
     2
100
AcDbLine
 10
755.0
 20
2255.000000000007
 30
0.0
 11
645.0000000000006
 21
2255.000000000007
 31
0.0
  0
ARC
  5
10E
330
1F
100
AcDbEntity
  8
図
  6
CONTINUOUS
 62
     2
100
AcDbCircle
 10
645.0000000000006
 20
2265.000000000007
 30
0.0
 40
10.0
100
AcDbArc
 50
180.0
 51
270.0000000000002
  0
LINE
  5
10F
330
1F
100
AcDbEntity
  8
図
  6
CONTINUOUS
 62
     2
100
AcDbLine
 10
564.0000000000003
 20
2374.000000000006
 30
0.0
 11
564.0000000000003
 21
2390.000000000007
 31
0.0
  0
ARC
  5
110
330
1F
100
AcDbEntity
  8
図
  6
CONTINUOUS
 62
     2
100
AcDbCircle
 10
566.5000000000003
 20
2374.000000000006
 30
0.0
 40
4.0
100
AcDbArc
 50
180.0
 51
270.0000000000002
  0
ARC
  5
111
330
1F
100
AcDbEntity
  8
図
  6
CONTINUOUS
 62
     2
100
AcDbCircle
 10
568.0000000000001
 20
2374.000000000006
 30
0.0
 40
4.0
100
AcDbArc
 50
180.0
 51
270.0000000000002
  0
LINE
  5
112
330
1F
100
AcDbEntity
  8
図
  6
CONTINUOUS
 62
     2
100
AcDbLine
 10
562.5
 20
2390.000000000007
 30
0.0
 11
917.5000000000006
 21
2390.000000000007
 31
0.0
  0
LINE
  5
113
330
1F
100
AcDbEntity
  8
図
  6
CONTINUOUS
 62
     2
100
AcDbLine
 10
915.9999999999997
 20
2374.000000000006
 30
0.0
 11
915.9999999999997
 21
2390.000000000007
 31
0.0
  0
ARC
  5
114
330
1F
100
AcDbEntity
  8
図
  6
CONTINUOUS
 62
     2
100
AcDbCircle
 10
913.4999999999997
 20
2374.000000000006
 30
0.0
 40
4.0
100
AcDbArc
 50
270.0000000000002
 51
0.0
  0
ARC
  5
115
330
1F
100
AcDbEntity
  8
図
  6
CONTINUOUS
 62
     2
100
AcDbCircle
 10
911.9999999999999
 20
2374.000000000006
 30
0.0
 40
4.0
100
AcDbArc
 50
270.0000000000002
 51
0.0
  0
LINE
  5
116
330
1F
100
AcDbEntity
  8
図
  6
CONTINUOUS
 62
     2
100
AcDbLine
 10
566.5000000000003
 20
2370.000000000007
 30
0.0
 11
913.4999999999997
 21
2370.000000000007
 31
0.0
  0
LINE
  5
117
330
1F
100
AcDbEntity
  8
図
  6
CONTINUOUS
 62
     2
100
AcDbLine
 10
562.5
 20
2390.000000000007
 30
0.0
 11
562.5
 21
2218.11758408676
 31
0.0
  0
LINE
  5
118
330
1F
100
AcDbEntity
  8
図
  6
CONTINUOUS
 62
     2
100
AcDbLine
 10
917.5
 20
2390.000000000007
 30
0.0
 11
917.5
 21
2218.11758408676
 31
0.0
  0
ARC
  5
119
330
1F
100
AcDbEntity
  8
図
  6
CONTINUOUS
 62
     2
100
AcDbCircle
 10
580.5000000000001
 20
2355.804391283407
 30
0.0
 40
10.0
100
AcDbArc
 50
90.00000000000004
 51
180.0
  0
LINE
  5
11A
330
1F
100
AcDbEntity
  8
図
  6
CONTINUOUS
 62
     2
100
AcDbLine
 10
570.5000000000001
 20
2355.804391283407
 30
0.0
 11
570.5000000000001
 21
2218.11758408676
 31
0.0
  0
ARC
  5
11B
330
1F
100
AcDbEntity
  8
図
  6
CONTINUOUS
 62
     2
100
AcDbCircle
 10
582.4999999999994
 20
2218.11758408676
 30
0.0
 40
12.00000000000001
100
AcDbArc
 50
180.0
 51
267.7320496888569
  0
ARC
  5
11C
330
1F
100
AcDbEntity
  8
図
  6
CONTINUOUS
 62
     2
100
AcDbCircle
 10
582.4999999999994
 20
2218.11758408676
 30
0.0
 40
20.0
100
AcDbArc
 50
180.0
 51
267.7320496888559
  0
ARC
  5
11D
330
1F
100
AcDbEntity
  8
図
  6
CONTINUOUS
 62
     2
100
AcDbCircle
 10
740.0
 20
6195.00000000001
 30
0.0
 40
3992.000000000003
100
AcDbArc
 50
267.7320496888586
 51
272.2679503111416
  0
ARC
  5
11E
330
1F
100
AcDbEntity
  8
図
  6
CONTINUOUS
 62
     2
100
AcDbCircle
 10
740.0
 20
6195.00000000001
 30
0.0
 40
4000.000000000002
100
AcDbArc
 50
267.7320496888586
 51
272.2679503111416
  0
ARC
  5
11F
330
1F
100
AcDbEntity
  8
図
  6
CONTINUOUS
 62
     2
100
AcDbCircle
 10
897.4999999999994
 20
2218.11758408676
 30
0.0
 40
12.00000000000001
100
AcDbArc
 50
272.2679503111431
 51
0.0
  0
ARC
  5
120
330
1F
100
AcDbEntity
  8
図
  6
CONTINUOUS
 62
     2
100
AcDbCircle
 10
897.4999999999994
 20
2218.11758408676
 30
0.0
 40
20.0
100
AcDbArc
 50
272.2679503111426
 51
0.0
  0
ARC
  5
121
330
1F
100
AcDbEntity
  8
図
  6
CONTINUOUS
 62
     2
100
AcDbCircle
 10
800.9999999999991
 20
2213.467254938128
 30
0.0
 40
10.0
100
AcDbArc
 50
270.8777446663842
 51
0.0
  0
ARC
  5
122
330
1F
100
AcDbEntity
  8
図
  6
CONTINUOUS
 62
     2
100
AcDbCircle
 10
800.9999999999997
 20
2355.804391283407
 30
0.0
 40
10.0
100
AcDbArc
 50
0.0
 51
90.00000000000004
  0
ARC
  5
123
330
1F
100
AcDbEntity
  8
図
  6
CONTINUOUS
 62
     2
100
AcDbCircle
 10
899.4999999999999
 20
2355.804391283407
 30
0.0
 40
10.0
100
AcDbArc
 50
0.0
 51
90.00000000000004
  0
LINE
  5
124
330
1F
100
AcDbEntity
  8
図
  6
CONTINUOUS
 62
     2
100
AcDbLine
 10
909.4999999999999
 20
2355.804391283407
 30
0.0
 11
909.4999999999999
 21
2218.11758408676
 31
0.0
  0
LINE
  5
125
330
1F
100
AcDbEntity
  8
図
  6
EXLTYPE3
 62
     6
100
AcDbLine
 10
666.9999999999999
 20
2315.000000000007
 30
0.0
 11
925.9999999999997
 21
2315.000000000007
 31
0.0
  0
LINE
  5
126
330
1F
100
AcDbEntity
  8
図
  6
EXLTYPE3
 62
     6
100
AcDbLine
 10
715.0
 20
2359.631824714107
 30
0.0
 11
715.0
 21
2255.000000000007
 31
0.0
  0
LINE
  5
127
330
1F
100
AcDbEntity
  8
図
  6
EXLTYPE3
 62
     6
100
AcDbLine
 10
740.0
 20
2401.77232
 30
0.0
 11
740.0
 21
2181.0
 31
0.0
  0
LINE
  5
128
330
1F
100
AcDbEntity
  8
図
  6
CONTINUOUS
 62
     6
100
AcDbLine
 10
570.5000000000001
 20
2218.117584086757
 30
0.0
 11
635.0
 21
2265.000000000007
 31
0.0
  0
LINE
  5
129
330
1F
100
AcDbEntity
  8
図
  6
CONTINUOUS
 62
     6
100
AcDbLine
 10
582.0251256281398
 20
2206.126983837777
 30
0.0
 11
645.0
 21
2255.000000000007
 31
0.0
  0
LINE
  5
12A
330
1F
100
AcDbEntity
  8
図
  6
CONTINUOUS
 62
     6
100
AcDbLine
 10
810.9999999999997
 20
2213.467254938127
 30
0.0
 11
765.0
 21
2265.000000000007
 31
0.0
  0
LINE
  5
12B
330
1F
100
AcDbEntity
  8
図
  6
CONTINUOUS
 62
     6
100
AcDbLine
 10
755.0
 20
2255.000000000007
 30
0.0
 11
801.15318935208
 21
2203.468428355857
 31
0.0
  0
LINE
  5
12C
330
1F
100
AcDbEntity
  8
図
  6
CONTINUOUS
 62
     6
100
AcDbLine
 10
810.9999999999997
 20
2355.804391283407
 30
0.0
 11
765.0
 21
2349.631824714107
 31
0.0
  0
LINE
  5
12D
330
1F
100
AcDbEntity
  8
図
  6
CONTINUOUS
 62
     6
100
AcDbLine
 10
755.0
 20
2359.631824714107
 30
0.0
 11
800.9999999999997
 21
2365.804391283407
 31
0.0
  0
LINE
  5
12E
330
1F
100
AcDbEntity
  8
図
  6
CONTINUOUS
 62
     6
100
AcDbLine
 10
570.5000000000001
 20
2355.804391283407
 30
0.0
 11
635.0
 21
2349.631824714107
 31
0.0
  0
LINE
  5
12F
330
1F
100
AcDbEntity
  8
図
  6
CONTINUOUS
 62
     6
100
AcDbLine
 10
580.5000000000001
 20
2365.804391283407
 30
0.0
 11
645.0
 21
2359.631824714107
 31
0.0
  0
TEXT
  5
130
330
1F
100
AcDbEntity
  8
図
  6
CONTINUOUS
 62
     2
100
AcDbText
 10
1250.500009999998
 20
794.0
 30
0.0
 40
40.0
  1
F.L.
 41
0.6227488235294114
  7
EXCADSTD
 72
     5
 11
1310.995609999998
 21
794.0
 31
0.0
100
AcDbText
  0
LINE
  5
131
330
1F
100
AcDbEntity
  8
図
  6
EXLTYPE4
 62
     6
100
AcDbLine
 10
1241.0
 20
793.9999999999998
 30
0.0
 11
1539.999999999998
 21
793.9999999999998
 31
0.0
  0
LINE
  5
132
330
1F
100
AcDbEntity
  8
図
  6
EXLTYPE4
 62
     6
100
AcDbLine
 10
1188.0
 20
2390.000000000049
 30
0.0
 11
453.9999999999999
 21
2390.000000000049
 31
0.0
  0
LINE
  5
133
330
1F
100
AcDbEntity
  8
図
  6
EXLTYPE4
 62
     6
100
AcDbLine
 10
453.9999999999999
 20
793.9999999999998
 30
0.0
 11
1148.0
 21
793.9999999999998
 31
0.0
  0
LINE
  5
134
330
1F
100
AcDbEntity
  8
図
  6
CONTINUOUS
 62
     2
100
AcDbLine
 10
765.0
 20
2265.000000000007
 30
0.0
 11
765.0
 21
2305.49999999995
 31
0.0
  0
LINE
  5
135
330
1F
100
AcDbEntity
  8
図
  6
CONTINUOUS
 62
     2
100
AcDbLine
 10
765.0
 20
2324.49999999995
 30
0.0
 11
765.0
 21
2349.631824714107
 31
0.0
  0
LINE
  5
136
330
1F
100
AcDbEntity
  8
図
  6
EXLTYPE3
 62
     6
100
AcDbLine
 10
851.9999999999999
 20
2279.0
 30
0.0
 11
851.9999999999999
 21
2344.9
 31
0.0
  0
LINE
  5
137
330
1F
100
AcDbEntity
  8
図
  6
CONTINUOUS
 62
     6
100
AcDbLine
 10
848.5524204411128
 20
2292.808291657213
 30
0.0
 11
815.5167033973281
 21
2298.188490657687
 31
0.0
  0
ARC
  5
138
330
1F
100
AcDbEntity
  8
図
  6
CONTINUOUS
 62
     6
100
AcDbCircle
 10
792.713150276
 20
2321.599999999999
 30
0.0
 40
1.419022054517846
100
AcDbArc
 50
219.9060988998974
 51
336.4347394456791
  0
ARC
  5
139
330
1F
100
AcDbEntity
  8
図
  6
CONTINUOUS
 62
     6
100
AcDbCircle
 10
792.713150276
 20
2308.400000000001
 30
0.0
 40
1.419022054517846
100
AcDbArc
 50
23.5652605543212
 51
140.0939011001029
  0
ELLIPSE
  5
13A
330
1F
100
AcDbEntity
  8
図
  6
CONTINUOUS
 62
     6
100
AcDbEllipse
 10
807.8449551139998
 20
2315.0
 30
0.0
 11
9.491012693391994E-16
 21
15.50000000000001
 31
0.0
210
0.0
220
0.0
230
1.0
 40
0.9678583766451756
 41
1.970266180546602
 42
7.454511780222819
  0
ELLIPSE
  5
13B
330
1F
100
AcDbEntity
  8
図
  6
CONTINUOUS
 62
     6
100
AcDbEllipse
 10
785.9835584207
 20
2315.0
 30
0.0
 11
6.123233995736766E-16
 21
10.0
 31
0.0
210
0.0
220
0.0
230
1.0
 40
0.6859591855200052
 41
-0.9655492316699941
 42
4.107141885259752
  0
LINE
  5
13C
330
1F
100
AcDbEntity
  8
図
  6
CONTINUOUS
 62
     6
100
AcDbLine
 10
785.9835584207
 20
2325.0
 30
0.0
 11
796.3828800543421
 21
2325.0
 31
0.0
  0
LINE
  5
13D
330
1F
100
AcDbEntity
  8
図
  6
CONTINUOUS
 62
     6
100
AcDbLine
 10
785.9835584207
 20
2305.0
 30
0.0
 11
796.3828800543421
 21
2305.0
 31
0.0
  0
LINE
  5
13E
330
1F
100
AcDbEntity
  8
図
  6
CONTINUOUS
 62
     6
100
AcDbLine
 10
815.6839948249768
 20
2331.838962363552
 30
0.0
 11
805.6887450600667
 21
2330.339062466736
 31
0.0
  0
ELLIPSE
  5
13F
330
1F
100
AcDbEntity
  8
図
  6
CONTINUOUS
 62
     6
100
AcDbEllipse
 10
817.7980273526997
 20
2315.0
 30
0.0
 11
-1.028141325937656E-14
 21
16.99683946459982
 31
0.0
210
0.0
220
0.0
230
1.0
 40
0.9146687833923158
 41
3.006198920215581
 42
6.419589344015375
  0
LINE
  5
140
330
1F
100
AcDbEntity
  8
図
  6
CONTINUOUS
 62
     6
100
AcDbLine
 10
848.5524204411128
 20
2337.191708342787
 30
0.0
 11
815.5167033973281
 21
2331.811509342313
 31
0.0
  0
ELLIPSE
  5
141
330
1F
100
AcDbEntity
  8
図
  6
CONTINUOUS
 62
     6
100
AcDbEllipse
 10
851.9999999999997
 20
2315.0
 30
0.0
 11
-1.359255427203604E-14
 21
22.47069124129985
 31
0.0
210
0.0
220
0.0
230
1.0
 40
0.9766849140609863
 41
2.98441316359807
 42
6.44092679316086
  0
LINE
  5
142
330
1F
100
AcDbEntity
  8
図
  6
CONTINUOUS
 62
     6
100
AcDbLine
 10
815.6839948249768
 20
2298.161037636448
 30
0.0
 11
805.6887450600667
 21
2299.660937533263
 31
0.0
  0
LINE
  5
143
330
1F
100
AcDbEntity
  8
図
  6
CONTINUOUS
 62
     6
100
AcDbLine
 10
815.4540867895245
 20
2298.195537928763
 30
0.0
 11
815.5159152955217
 21
2298.184194883863
 31
0.0
  0
LINE
  5
144
330
1F
100
AcDbEntity
  8
図
  6
CONTINUOUS
 62
     6
100
AcDbLine
 10
770.6747179576997
 20
2300.9999999718
 30
0.0
 11
801.4066960668425
 21
2300.9999999718
 31
0.0
  0
ELLIPSE
  5
145
330
1F
100
AcDbEntity
  8
図
  6
CONTINUOUS
 62
     6
100
AcDbEllipse
 10
770.6747179576997
 20
2315.0
 30
0.0
 11
-0.2234164830233683
 21
13.99821718239552
 31
0.0
210
0.0
220
0.0
230
1.0
 40
0.585714286894069
 41
6.255955351618355
 42
9.397548005417672
  0
LINE
  5
146
330
1F
100
AcDbEntity
  8
図
  6
CONTINUOUS
 62
     6
100
AcDbLine
 10
770.6747179576997
 20
2328.999999971799
 30
0.0
 11
801.4066959519547
 21
2328.999999971799
 31
0.0
  0
LINE
  5
147
330
1F
100
AcDbEntity
  8
図
  6
CONTINUOUS
 62
     2
100
AcDbLine
 10
810.9999999999997
 20
2331.136076140605
 30
0.0
 11
810.9999999999997
 21
2355.804391283407
 31
0.0
  0
LINE
  5
148
330
1F
100
AcDbEntity
  8
図
  6
CONTINUOUS
 62
     2
100
AcDbLine
 10
810.9999999999997
 20
2213.467254938128
 30
0.0
 11
810.9999999999997
 21
2298.863923859395
 31
0.0
  0
LINE
  5
149
330
1F
100
AcDbEntity
  8
図
  6
EXLTYPE3
 62
     6
100
AcDbLine
 10
740.0000000000017
 20
1694.5
 30
0.0
 11
740.0000000000017
 21
794.0
 31
0.0
  0
LINE
  5
14A
330
1F
100
AcDbEntity
  8
図
  6
CONTINUOUS
 62
     2
100
AcDbLine
 10
576.9999999999965
 20
1470.0
 30
0.0
 11
576.9999999999965
 21
914.0
 31
0.0
  0
LINE
  5
14B
330
1F
100
AcDbEntity
  8
図
  6
CONTINUOUS
 62
     2
100
AcDbLine
 10
576.9999999999965
 20
1470.0
 30
0.0
 11
903.0000000000007
 21
1470.0
 31
0.0
  0
LINE
  5
14C
330
1F
100
AcDbEntity
  8
図
  6
CONTINUOUS
 62
     2
100
AcDbLine
 10
903.0000000000007
 20
914.0
 30
0.0
 11
903.0000000000007
 21
1470.0
 31
0.0
  0
LINE
  5
14D
330
1F
100
AcDbEntity
  8
図
  6
CONTINUOUS
 62
     2
100
AcDbLine
 10
574.9999999999983
 20
794.0000000000003
 30
0.0
 11
574.9999999999983
 21
1474.0
 31
0.0
  0
LINE
  5
14E
330
1F
100
AcDbEntity
  8
図
  6
CONTINUOUS
 62
     2
100
AcDbLine
 10
904.9999999999989
 20
794.0000000000003
 30
0.0
 11
904.9999999999989
 21
1474.0
 31
0.0
  0
LINE
  5
14F
330
1F
100
AcDbEntity
  8
図
  6
CONTINUOUS
 62
     2
100
AcDbLine
 10
870.999999999998
 20
1436.0
 30
0.0
 11
870.999999999998
 21
1424.0
 31
0.0
  0
LINE
  5
150
330
1F
100
AcDbEntity
  8
図
  6
CONTINUOUS
 62
     2
100
AcDbLine
 10
880.999999999998
 20
1436.0
 30
0.0
 11
880.999999999998
 21
1424.0
 31
0.0
  0
LINE
  5
151
330
1F
100
AcDbEntity
  8
図
  6
CONTINUOUS
 62
     2
100
AcDbLine
 10
608.9999999999992
 20
1436.0
 30
0.0
 11
608.9999999999992
 21
1424.0
 31
0.0
  0
LINE
  5
152
330
1F
100
AcDbEntity
  8
図
  6
CONTINUOUS
 62
     2
100
AcDbLine
 10
599.0000000000038
 20
1436.0
 30
0.0
 11
599.0000000000038
 21
1424.0
 31
0.0
  0
LINE
  5
153
330
1F
100
AcDbEntity
  8
図
  6
CONTINUOUS
 62
     2
100
AcDbLine
 10
598.9999999999992
 20
1436.0
 30
0.0
 11
881.0000000000002
 21
1436.0
 31
0.0
  0
LINE
  5
154
330
1F
100
AcDbEntity
  8
図
  6
CONTINUOUS
 62
     2
100
AcDbLine
 10
598.9999999999992
 20
1424.0
 30
0.0
 11
881.0000000000002
 21
1424.0
 31
0.0
  0
LINE
  5
155
330
1F
100
AcDbEntity
  8
図
  6
CONTINUOUS
 62
     2
100
AcDbLine
 10
584.9999999999983
 20
1494.0
 30
0.0
 11
584.9999999999983
 21
1474.0
 31
0.0
  0
LINE
  5
156
330
1F
100
AcDbEntity
  8
図
  6
CONTINUOUS
 62
     2
100
AcDbLine
 10
894.9999999999989
 20
1494.0
 30
0.0
 11
894.9999999999989
 21
1474.0
 31
0.0
  0
LINE
  5
157
330
1F
100
AcDbEntity
  8
図
  6
CONTINUOUS
 62
     2
100
AcDbLine
 10
574.9999999999983
 20
1494.0
 30
0.0
 11
904.9999999999989
 21
1494.0
 31
0.0
  0
LINE
  5
158
330
1F
100
AcDbEntity
  8
図
  6
CONTINUOUS
 62
     6
100
AcDbLine
 10
844.9999999999989
 20
1411.499999999999
 30
0.0
 11
844.9999999999989
 21
1386.499999999999
 31
0.0
  0
LINE
  5
159
330
1F
100
AcDbEntity
  8
図
  6
CONTINUOUS
 62
     6
100
AcDbLine
 10
857.5000000000011
 20
1398.999999999999
 30
0.0
 11
832.4999999999989
 21
1398.999999999999
 31
0.0
  0
LINE
  5
15A
330
1F
100
AcDbEntity
  8
図
  6
CONTINUOUS
 62
     6
100
AcDbLine
 10
634.9999999999983
 20
1411.499999999999
 30
0.0
 11
634.9999999999983
 21
1386.499999999999
 31
0.0
  0
LINE
  5
15B
330
1F
100
AcDbEntity
  8
図
  6
CONTINUOUS
 62
     6
100
AcDbLine
 10
622.4999999999983
 20
1398.999999999999
 30
0.0
 11
647.4999999999983
 21
1398.999999999999
 31
0.0
  0
CIRCLE
  5
15C
330
1F
100
AcDbEntity
  8
図
  6
EXLTYPE2
 62
     6
100
AcDbCircle
 10
634.9999999999983
 20
1398.999999999999
 30
0.0
 40
2.5
  0
CIRCLE
  5
15D
330
1F
100
AcDbEntity
  8
図
  6
EXLTYPE2
 62
     6
100
AcDbCircle
 10
844.9999999999989
 20
1398.999999999999
 30
0.0
 40
2.5
  0
LINE
  5
15E
330
1F
100
AcDbEntity
  8
図
  6
CONTINUOUS
 62
     2
100
AcDbLine
 10
904.9999999999989
 20
1493.999999999999
 30
0.0
 11
914.9851753000132
 21
1609.655939208619
 31
0.0
  0
ARC
  5
15F
330
1F
100
AcDbEntity
  8
図
  6
CONTINUOUS
 62
     2
100
AcDbCircle
 10
911.0000000000002
 20
1609.999999999999
 30
0.0
 40
4.0
100
AcDbArc
 50
355.0655947588931
 51
90.00000000000004
  0
ARC
  5
160
330
1F
100
AcDbEntity
  8
図
  6
CONTINUOUS
 62
     2
100
AcDbCircle
 10
570.4072813377417
 20
1669.999999999999
 30
0.0
 40
4.0
100
AcDbArc
 50
90.00000000000004
 51
178.6563916595514
  0
LINE
  5
161
330
1F
100
AcDbEntity
  8
図
  6
CONTINUOUS
 62
     2
100
AcDbLine
 10
574.9999999999983
 20
1493.999999999999
 30
0.0
 11
565.0148246999862
 21
1609.655939208619
 31
0.0
  0
LINE
  5
162
330
1F
100
AcDbEntity
  8
図
  6
CONTINUOUS
 62
     2
100
AcDbLine
 10
565.0010997911232
 20
1610.09379296059
 30
0.0
 11
566.408381128868
 21
1670.093792960589
 31
0.0
  0
LINE
  5
163
330
1F
100
AcDbEntity
  8
図
  6
CONTINUOUS
 62
     2
100
AcDbLine
 10
914.9989002088762
 20
1610.09379296059
 30
0.0
 11
913.5916188711315
 21
1670.09379296059
 31
0.0
  0
ARC
  5
164
330
1F
100
AcDbEntity
  8
図
  6
CONTINUOUS
 62
     2
100
AcDbCircle
 10
909.5927186622555
 20
1669.999999999999
 30
0.0
 40
4.0
100
AcDbArc
 50
1.343608340448544
 51
90.00000000000004
  0
LINE
  5
165
330
1F
100
AcDbEntity
  8
図
  6
CONTINUOUS
 62
     2
100
AcDbLine
 10
568.9999999999992
 20
1613.999999999999
 30
0.0
 11
911.0000000000002
 21
1613.999999999999
 31
0.0
  0
ARC
  5
166
330
1F
100
AcDbEntity
  8
図
  6
CONTINUOUS
 62
     2
100
AcDbCircle
 10
568.9999999999992
 20
1609.999999999999
 30
0.0
 40
4.0
100
AcDbArc
 50
90.00000000000004
 51
184.9344052411069
  0
CIRCLE
  5
167
330
1F
100
AcDbEntity
  8
図
  6
CONTINUOUS
 62
     6
100
AcDbCircle
 10
664.9999999999983
 20
1234.000000000001
 30
0.0
 40
16.0
  0
LINE
  5
168
330
1F
100
AcDbEntity
  8
図
  6
CONTINUOUS
 62
     6
100
AcDbLine
 10
664.9999999999983
 20
1260.0
 30
0.0
 11
664.9999999999983
 21
1208.0
 31
0.0
  0
LINE
  5
169
330
1F
100
AcDbEntity
  8
図
  6
CONTINUOUS
 62
     6
100
AcDbLine
 10
638.9999999999992
 20
1233.999999999997
 30
0.0
 11
691.0000000000002
 21
1233.999999999997
 31
0.0
  0
LINE
  5
16A
330
1F
100
AcDbEntity
  8
図
  6
CONTINUOUS
 62
     6
100
AcDbLine
 10
580.5000000000001
 20
1649.0
 30
0.0
 11
602.4999999999983
 21
1649.0
 31
0.0
  0
LINE
  5
16B
330
1F
100
AcDbEntity
  8
図
  6
CONTINUOUS
 62
     6
100
AcDbLine
 10
591.4999999999992
 20
1638.0
 30
0.0
 11
591.4999999999992
 21
1660.0
 31
0.0
  0
CIRCLE
  5
16C
330
1F
100
AcDbEntity
  8
図
  6
CONTINUOUS
 62
     2
100
AcDbCircle
 10
591.4999999999992
 20
1649.0
 30
0.0
 40
11.50000000000001
  0
LINE
  5
16D
330
1F
100
AcDbEntity
  8
図
  6
CONTINUOUS
 62
     6
100
AcDbLine
 10
899.4999999999993
 20
1649.0
 30
0.0
 11
877.4999999999989
 21
1649.0
 31
0.0
  0
LINE
  5
16E
330
1F
100
AcDbEntity
  8
図
  6
CONTINUOUS
 62
     6
100
AcDbLine
 10
888.499999999998
 20
1638.0
 30
0.0
 11
888.499999999998
 21
1660.0
 31
0.0
  0
CIRCLE
  5
16F
330
1F
100
AcDbEntity
  8
図
  6
CONTINUOUS
 62
     2
100
AcDbCircle
 10
888.499999999998
 20
1649.0
 30
0.0
 40
11.50000000000001
  0
LINE
  5
170
330
1F
100
AcDbEntity
  8
図
  6
CONTINUOUS
 62
     2
100
AcDbLine
 10
575.0
 20
1474.0
 30
0.0
 11
904.9999999999989
 21
1474.0
 31
0.0
  0
LINE
  5
171
330
1F
100
AcDbEntity
  8
図
  6
CONTINUOUS
 62
     2
100
AcDbLine
 10
1405.000000000001
 20
1474.0
 30
0.0
 11
1540.000000000001
 21
1474.0
 31
0.0
  0
LINE
  5
172
330
1F
100
AcDbEntity
  8
図
  6
CONTINUOUS
 62
     2
100
AcDbLine
 10
1405.000000000001
 20
1470.000000000001
 30
0.0
 11
1390.000000000001
 21
1470.000000000001
 31
0.0
  0
LINE
  5
173
330
1F
100
AcDbEntity
  8
図
  6
CONTINUOUS
 62
     2
100
AcDbLine
 10
1404.999999999997
 20
914.0
 30
0.0
 11
1404.999999999997
 21
1470.0
 31
0.0
  0
LINE
  5
174
330
1F
100
AcDbEntity
  8
図
  6
CONTINUOUS
 62
     2
100
AcDbLine
 10
1389.999999999997
 20
914.0
 30
0.0
 11
1389.999999999997
 21
1470.0
 31
0.0
  0
LINE
  5
175
330
1F
100
AcDbEntity
  8
図
  6
CONTINUOUS
 62
     2
100
AcDbLine
 10
1406.999999999999
 20
1474.0
 30
0.0
 11
1406.999999999999
 21
924.0
 31
0.0
  0
LINE
  5
176
330
1F
100
AcDbEntity
  8
図
  6
CONTINUOUS
 62
     2
100
AcDbLine
 10
1363.999999999997
 20
1436.000000000001
 30
0.0
 11
1390.000000000001
 21
1436.000000000001
 31
0.0
  0
LINE
  5
177
330
1F
100
AcDbEntity
  8
図
  6
CONTINUOUS
 62
     2
100
AcDbLine
 10
1363.999999999997
 20
1424.0
 30
0.0
 11
1390.000000000001
 21
1424.0
 31
0.0
  0
ARC
  5
178
330
1F
100
AcDbEntity
  8
図
  6
CONTINUOUS
 62
     2
100
AcDbCircle
 10
1363.999999999997
 20
1430.0
 30
0.0
 40
6.000000000000512
100
AcDbArc
 50
90.00000000000004
 51
270.0000000000002
  0
LINE
  5
179
330
1F
100
AcDbEntity
  8
図
  6
CONTINUOUS
 62
     2
100
AcDbLine
 10
1540.000000000001
 20
1494.0
 30
0.0
 11
1540.000000000001
 21
794.0000000000003
 31
0.0
  0
LINE
  5
17A
330
1F
100
AcDbEntity
  8
図
  6
CONTINUOUS
 62
     2
100
AcDbLine
 10
1405.000000000001
 20
1474.0
 30
0.0
 11
1405.000000000001
 21
1494.0
 31
0.0
  0
LINE
  5
17B
330
1F
100
AcDbEntity
  8
図
  6
CONTINUOUS
 62
     6
100
AcDbLine
 10
1540.000000000001
 20
1400.999999999999
 30
0.0
 11
1571.999999999999
 21
1399.0
 31
0.0
  0
LINE
  5
17C
330
1F
100
AcDbEntity
  8
図
  6
CONTINUOUS
 62
     6
100
AcDbLine
 10
1540.000000000001
 20
1396.999999999993
 30
0.0
 11
1571.999999999999
 21
1398.999999999994
 31
0.0
  0
LINE
  5
17D
330
1F
100
AcDbEntity
  8
図
  6
CONTINUOUS
 62
     6
100
AcDbLine
 10
1529.999999999999
 20
1398.999999999997
 30
0.0
 11
1581.999999999999
 21
1398.999999999997
 31
0.0
  0
LINE
  5
17E
330
1F
100
AcDbEntity
  8
図
  6
CONTINUOUS
 62
     2
100
AcDbLine
 10
1540.000000000001
 20
1673.999999999999
 30
0.0
 11
1540.000000000001
 21
1493.999999999999
 31
0.0
  0
LINE
  5
17F
330
1F
100
AcDbEntity
  8
図
  6
CONTINUOUS
 62
     2
100
AcDbLine
 10
1370.000000000001
 20
1493.999999999999
 30
0.0
 11
1540.000000000001
 21
1493.999999999999
 31
0.0
  0
LINE
  5
180
330
1F
100
AcDbEntity
  8
図
  6
CONTINUOUS
 62
     2
100
AcDbLine
 10
1523.730060344543
 20
1673.999999999999
 30
0.0
 11
1540.000000000001
 21
1673.999999999999
 31
0.0
  0
ARC
  5
181
330
1F
100
AcDbEntity
  8
図
  6
CONTINUOUS
 62
     2
100
AcDbCircle
 10
1523.730060344543
 20
1669.999999999999
 30
0.0
 40
4.0
100
AcDbArc
 50
90.00000000000004
 51
175.9999999999905
  0
ARC
  5
182
330
1F
100
AcDbEntity
  8
図
  6
CONTINUOUS
 62
     2
100
AcDbCircle
 10
1512.074330938832
 20
1618.0
 30
0.0
 40
4.0
100
AcDbArc
 50
270.0000000000002
 51
355.9999999999971
  0
ARC
  5
183
330
1F
100
AcDbEntity
  8
図
  6
CONTINUOUS
 62
     2
100
AcDbCircle
 10
4258.123102396491
 20
2305.631040192315
 30
0.0
 40
3000.000000000002
100
AcDbArc
 50
193.4258400250619
 51
195.6966215351648
  0
ARC
  5
184
330
1F
100
AcDbEntity
  8
図
  6
CONTINUOUS
 62
     2
100
AcDbCircle
 10
1344.0
 20
1609.999999999999
 30
0.0
 40
4.0
100
AcDbArc
 50
90.00000000000004
 51
193.4258400250724
  0
LINE
  5
185
330
1F
100
AcDbEntity
  8
図
  6
CONTINUOUS
 62
     2
100
AcDbLine
 10
1519.739804143504
 20
1670.279025894976
 30
0.0
 11
1516.064587139871
 21
1617.720974105023
 31
0.0
  0
LINE
  5
186
330
1F
100
AcDbEntity
  8
図
  6
CONTINUOUS
 62
     2
100
AcDbLine
 10
1344.0
 20
1614.0
 30
0.0
 11
1512.0743309388
 21
1613.999999999999
 31
0.0
  0
LINE
  5
187
330
1F
100
AcDbEntity
  8
図
  6
CONTINUOUS
 62
     6
100
AcDbLine
 10
1570.000000000001
 20
1250.0
 30
0.0
 11
1570.000000000001
 21
1218.0
 31
0.0
  0
LINE
  5
188
330
1F
100
AcDbEntity
  8
図
  6
CONTINUOUS
 62
     6
100
AcDbLine
 10
1500.000000000001
 20
1250.0
 30
0.0
 11
1570.000000000001
 21
1250.0
 31
0.0
  0
LINE
  5
189
330
1F
100
AcDbEntity
  8
図
  6
CONTINUOUS
 62
     6
100
AcDbLine
 10
1500.000000000001
 20
1218.0
 30
0.0
 11
1570.000000000001
 21
1218.0
 31
0.0
  0
LINE
  5
18A
330
1F
100
AcDbEntity
  8
図
  6
CONTINUOUS
 62
     6
100
AcDbLine
 10
1500.000000000001
 20
1234.000000000001
 30
0.0
 11
1580.000000000001
 21
1234.000000000001
 31
0.0
  0
LINE
  5
18B
330
1F
100
AcDbEntity
  8
図
  6
CONTINUOUS
 62
     2
100
AcDbLine
 10
1511.073516747384
 20
1661.030038367937
 30
0.0
 11
1509.469117851269
 21
1638.086065211967
 31
0.0
  0
LINE
  5
18C
330
1F
100
AcDbEntity
  8
図
  6
CONTINUOUS
 62
     2
100
AcDbLine
 10
1511.073516747402
 20
1661.030038367936
 30
0.0
 11
1519.054029149462
 21
1660.471986577984
 31
0.0
  0
LINE
  5
18D
330
1F
100
AcDbEntity
  8
図
  6
CONTINUOUS
 62
     2
100
AcDbLine
 10
1509.469117851296
 20
1638.086065211966
 30
0.0
 11
1517.449630253346
 21
1637.528013422015
 31
0.0
  0
LINE
  5
18E
330
1F
100
AcDbEntity
  8
図
  6
CONTINUOUS
 62
     6
100
AcDbLine
 10
1540.000000000001
 20
1650.964372842951
 30
0.0
 11
1581.251829701429
 21
1649.00000000003
 31
0.0
  0
LINE
  5
18F
330
1F
100
AcDbEntity
  8
図
  6
CONTINUOUS
 62
     6
100
AcDbLine
 10
1540.000000000001
 20
1647.035627157104
 30
0.0
 11
1581.251829701431
 21
1649.000000000025
 31
0.0
  0
LINE
  5
190
330
1F
100
AcDbEntity
  8
図
  6
CONTINUOUS
 62
     6
100
AcDbLine
 10
1513.2518297014
 20
1649.000000000027
 30
0.0
 11
1591.251829701429
 21
1649.000000000027
 31
0.0
  0
LINE
  5
191
330
1F
100
AcDbEntity
  8
図
  6
EXLTYPE4
 62
     6
100
AcDbLine
 10
1539.999999999998
 20
793.9999999999998
 30
0.0
 11
1539.999999999998
 21
2018.0
 31
0.0
  0
LINE
  5
192
330
1F
100
AcDbEntity
  8
図
  6
CONTINUOUS
 62
     6
100
AcDbLine
 10
1546.999999999999
 20
1288.999999999998
 30
0.0
 11
1546.999999999999
 21
1308.999999999998
 31
0.0
  0
LINE
  5
193
330
1F
100
AcDbEntity
  8
図
  6
CONTINUOUS
 62
     6
100
AcDbLine
 10
1546.999999999999
 20
1308.999999999998
 30
0.0
 11
1500.000000000001
 21
1308.999999999998
 31
0.0
  0
LINE
  5
194
330
1F
100
AcDbEntity
  8
図
  6
CONTINUOUS
 62
     6
100
AcDbLine
 10
1546.999999999999
 20
1288.999999999998
 30
0.0
 11
1500.000000000001
 21
1288.999999999998
 31
0.0
  0
LINE
  5
195
330
1F
100
AcDbEntity
  8
図
  6
CONTINUOUS
 62
     6
100
AcDbLine
 10
1500.000000000001
 20
1298.999999999999
 30
0.0
 11
1556.999999999999
 21
1298.999999999999
 31
0.0
  0
CIRCLE
  5
196
330
1F
100
AcDbEntity
  8
図
  6
CONTINUOUS
 62
     6
100
AcDbCircle
 10
834.9999999999989
 20
1299.0
 30
0.0
 40
10.0
  0
LINE
  5
197
330
1F
100
AcDbEntity
  8
図
  6
CONTINUOUS
 62
     6
100
AcDbLine
 10
814.9999999999989
 20
1299.0
 30
0.0
 11
854.9999999999989
 21
1299.0
 31
0.0
  0
LINE
  5
198
330
1F
100
AcDbEntity
  8
図
  6
CONTINUOUS
 62
     6
100
AcDbLine
 10
834.9999999999989
 20
1279.0
 30
0.0
 11
834.9999999999989
 21
1319.0
 31
0.0
  0
LINE
  5
199
330
1F
100
AcDbEntity
  8
図
  6
CONTINUOUS
 62
     6
100
AcDbLine
 10
762.1795692914412
 20
1675.697716646377
 30
0.0
 11
764.4946824117407
 21
1669.336995624977
 31
0.0
  0
ARC
  5
19A
330
1F
100
AcDbEntity
  8
図
  6
CONTINUOUS
 62
     6
100
AcDbCircle
 10
765.4343750325417
 20
1669.679015768277
 30
0.0
 40
1.0
100
AcDbArc
 50
199.9999999999893
 51
250.0000000000109
  0
ARC
  5
19B
330
1F
100
AcDbEntity
  8
図
  6
CONTINUOUS
 62
     6
100
AcDbCircle
 10
795.0662487954916
 20
1658.893833832167
 30
0.0
 40
1.0
100
AcDbArc
 50
249.9999999999818
 51
289.1314396412707
  0
POLYLINE
  5
19C
330
1F
100
AcDbEntity
  8
図
  6
CONTINUOUS
 62
     6
100
AcDb2dPolyline
 66
     1
 10
0.0
 20
0.0
 30
0.0
 70
   128
  0
VERTEX
  5
19D
330
19C
100
AcDbEntity
  8
図
  6
CONTINUOUS
 62
     6
100
AcDbVertex
100
AcDb2dVertex
 10
813.685145638042
 20
1659.937201206277
 30
0.0
  0
VERTEX
  5
19E
330
19C
100
AcDbEntity
  8
図
  6
CONTINUOUS
 62
     6
100
AcDbVertex
100
AcDb2dVertex
 10
813.681927575218
 20
1659.945815219006
 30
0.0
  0
VERTEX
  5
19F
330
19C
100
AcDbEntity
  8
図
  6
CONTINUOUS
 62
     6
100
AcDbVertex
100
AcDb2dVertex
 10
813.6727005824807
 20
1659.970302157634
 30
0.0
  0
VERTEX
  5
1A0
330
19C
100
AcDbEntity
  8
図
  6
CONTINUOUS
 62
     6
100
AcDbVertex
100
AcDb2dVertex
 10
813.6581054534304
 20
1660.008629372821
 30
0.0
  0
VERTEX
  5
1A1
330
19C
100
AcDbEntity
  8
図
  6
CONTINUOUS
 62
     6
100
AcDbVertex
100
AcDb2dVertex
 10
813.6387829816674
 20
1660.058764215229
 30
0.0
  0
VERTEX
  5
1A2
330
19C
100
AcDbEntity
  8
図
  6
CONTINUOUS
 62
     6
100
AcDbVertex
100
AcDb2dVertex
 10
813.615373960793
 20
1660.118674035518
 30
0.0
  0
VERTEX
  5
1A3
330
19C
100
AcDbEntity
  8
図
  6
CONTINUOUS
 62
     6
100
AcDbVertex
100
AcDb2dVertex
 10
813.5885191844077
 20
1660.18632618435
 30
0.0
  0
VERTEX
  5
1A4
330
19C
100
AcDbEntity
  8
図
  6
CONTINUOUS
 62
     6
100
AcDbVertex
100
AcDb2dVertex
 10
813.5588594461124
 20
1660.259688012385
 30
0.0
  0
VERTEX
  5
1A5
330
19C
100
AcDbEntity
  8
図
  6
CONTINUOUS
 62
     6
100
AcDbVertex
100
AcDb2dVertex
 10
813.5270355395071
 20
1660.336726870284
 30
0.0
  0
VERTEX
  5
1A6
330
19C
100
AcDbEntity
  8
図
  6
CONTINUOUS
 62
     6
100
AcDbVertex
100
AcDb2dVertex
 10
813.4936882581933
 20
1660.415410108709
 30
0.0
  0
VERTEX
  5
1A7
330
19C
100
AcDbEntity
  8
図
  6
CONTINUOUS
 62
     6
100
AcDbVertex
100
AcDb2dVertex
 10
813.459458395771
 20
1660.493705078319
 30
0.0
  0
VERTEX
  5
1A8
330
19C
100
AcDbEntity
  8
図
  6
CONTINUOUS
 62
     6
100
AcDbVertex
100
AcDb2dVertex
 10
813.4249867458414
 20
1660.569579129777
 30
0.0
  0
VERTEX
  5
1A9
330
19C
100
AcDbEntity
  8
図
  6
CONTINUOUS
 62
     6
100
AcDbVertex
100
AcDb2dVertex
 10
813.3751768880986
 20
1660.672997163726
 30
0.0
  0
VERTEX
  5
1AA
330
19C
100
AcDbEntity
  8
図
  6
CONTINUOUS
 62
     6
100
AcDbVertex
100
AcDb2dVertex
 10
813.3259292403859
 20
1660.767868275631
 30
0.0
  0
VERTEX
  5
1AB
330
19C
100
AcDbEntity
  8
図
  6
CONTINUOUS
 62
     6
100
AcDbVertex
100
AcDb2dVertex
 10
813.2769557036551
 20
1660.855136398178
 30
0.0
  0
VERTEX
  5
1AC
330
19C
100
AcDbEntity
  8
図
  6
CONTINUOUS
 62
     6
100
AcDbVertex
100
AcDb2dVertex
 10
813.2279681788589
 20
1660.935745464049
 30
0.0
  0
VERTEX
  5
1AD
330
19C
100
AcDbEntity
  8
図
  6
CONTINUOUS
 62
     6
100
AcDbVertex
100
AcDb2dVertex
 10
813.1786785669494
 20
1661.010639405928
 30
0.0
  0
VERTEX
  5
1AE
330
19C
100
AcDbEntity
  8
図
  6
CONTINUOUS
 62
     6
100
AcDbVertex
100
AcDb2dVertex
 10
813.1287987688788
 20
1661.0807621565
 30
0.0
  0
VERTEX
  5
1AF
330
19C
100
AcDbEntity
  8
図
  6
CONTINUOUS
 62
     6
100
AcDbVertex
100
AcDb2dVertex
 10
813.0780406855997
 20
1661.147057648447
 30
0.0
  0
VERTEX
  5
1B0
330
19C
100
AcDbEntity
  8
図
  6
CONTINUOUS
 62
     6
100
AcDbVertex
100
AcDb2dVertex
 10
813.026116218064
 20
1661.210469814455
 30
0.0
  0
VERTEX
  5
1B1
330
19C
100
AcDbEntity
  8
図
  6
CONTINUOUS
 62
     6
100
AcDbVertex
100
AcDb2dVertex
 10
812.9727372672243
 20
1661.271942587207
 30
0.0
  0
VERTEX
  5
1B2
330
19C
100
AcDbEntity
  8
図
  6
CONTINUOUS
 62
     6
100
AcDbVertex
100
AcDb2dVertex
 10
812.9176157340328
 20
1661.332419899386
 30
0.0
  0
VERTEX
  5
1B3
330
19C
100
AcDbEntity
  8
図
  6
CONTINUOUS
 62
     6
100
AcDbVertex
100
AcDb2dVertex
 10
812.8604635194415
 20
1661.392845683677
 30
0.0
  0
VERTEX
  5
1B4
330
19C
100
AcDbEntity
  8
図
  6
CONTINUOUS
 62
     6
100
AcDbVertex
100
AcDb2dVertex
 10
812.8010634976634
 20
1661.453958344659
 30
0.0
  0
VERTEX
  5
1B5
330
19C
100
AcDbEntity
  8
図
  6
CONTINUOUS
 62
     6
100
AcDbVertex
100
AcDb2dVertex
 10
812.7394817248097
 20
1661.51567490347
 30
0.0
  0
VERTEX
  5
1B6
330
19C
100
AcDbEntity
  8
図
  6
CONTINUOUS
 62
     6
100
AcDbVertex
100
AcDb2dVertex
 10
812.6758552210614
 20
1661.577706856683
 30
0.0
  0
VERTEX
  5
1B7
330
19C
100
AcDbEntity
  8
図
  6
CONTINUOUS
 62
     6
100
AcDbVertex
100
AcDb2dVertex
 10
812.6103210066003
 20
1661.639765700867
 30
0.0
  0
VERTEX
  5
1B8
330
19C
100
AcDbEntity
  8
図
  6
CONTINUOUS
 62
     6
100
AcDbVertex
100
AcDb2dVertex
 10
812.5430161016075
 20
1661.701562932596
 30
0.0
  0
VERTEX
  5
1B9
330
19C
100
AcDbEntity
  8
図
  6
CONTINUOUS
 62
     6
100
AcDbVertex
100
AcDb2dVertex
 10
812.4740775262644
 20
1661.762810048439
 30
0.0
  0
VERTEX
  5
1BA
330
19C
100
AcDbEntity
  8
図
  6
CONTINUOUS
 62
     6
100
AcDbVertex
100
AcDb2dVertex
 10
812.4036423007524
 20
1661.823218544969
 30
0.0
  0
VERTEX
  5
1BB
330
19C
100
AcDbEntity
  8
図
  6
CONTINUOUS
 62
     6
100
AcDbVertex
100
AcDb2dVertex
 10
812.3318474452526
 20
1661.882499918757
 30
0.0
  0
VERTEX
  5
1BC
330
19C
100
AcDbEntity
  8
図
  6
CONTINUOUS
 62
     6
100
AcDbVertex
100
AcDb2dVertex
 10
812.2588299799468
 20
1661.940365666373
 30
0.0
  0
VERTEX
  5
1BD
330
19C
100
AcDbEntity
  8
図
  6
CONTINUOUS
 62
     6
100
AcDbVertex
100
AcDb2dVertex
 10
812.184726925016
 20
1661.996527284389
 30
0.0
  0
VERTEX
  5
1BE
330
19C
100
AcDbEntity
  8
図
  6
CONTINUOUS
 62
     6
100
AcDbVertex
100
AcDb2dVertex
 10
812.1096753006416
 20
1662.050696269377
 30
0.0
  0
VERTEX
  5
1BF
330
19C
100
AcDbEntity
  8
図
  6
CONTINUOUS
 62
     6
100
AcDbVertex
100
AcDb2dVertex
 10
812.0337812626267
 20
1662.102636318571
 30
0.0
  0
VERTEX
  5
1C0
330
19C
100
AcDbEntity
  8
図
  6
CONTINUOUS
 62
     6
100
AcDbVertex
100
AcDb2dVertex
 10
811.9570264723023
 20
1662.152320635107
 30
0.0
  0
VERTEX
  5
1C1
330
19C
100
AcDbEntity
  8
図
  6
CONTINUOUS
 62
     6
100
AcDbVertex
100
AcDb2dVertex
 10
811.8793617229318
 20
1662.199774612409
 30
0.0
  0
VERTEX
  5
1C2
330
19C
100
AcDbEntity
  8
図
  6
CONTINUOUS
 62
     6
100
AcDbVertex
100
AcDb2dVertex
 10
811.8007378077773
 20
1662.245023643905
 30
0.0
  0
VERTEX
  5
1C3
330
19C
100
AcDbEntity
  8
図
  6
CONTINUOUS
 62
     6
100
AcDbVertex
100
AcDb2dVertex
 10
811.7211055201026
 20
1662.28809312302
 30
0.0
  0
VERTEX
  5
1C4
330
19C
100
AcDbEntity
  8
図
  6
CONTINUOUS
 62
     6
100
AcDbVertex
100
AcDb2dVertex
 10
811.6404156531698
 20
1662.32900844318
 30
0.0
  0
VERTEX
  5
1C5
330
19C
100
AcDbEntity
  8
図
  6
CONTINUOUS
 62
     6
100
AcDbVertex
100
AcDb2dVertex
 10
811.5586190002423
 20
1662.367794997812
 30
0.0
  0
VERTEX
  5
1C6
330
19C
100
AcDbEntity
  8
図
  6
CONTINUOUS
 62
     6
100
AcDbVertex
100
AcDb2dVertex
 10
811.475666354583
 20
1662.404478180341
 30
0.0
  0
VERTEX
  5
1C7
330
19C
100
AcDbEntity
  8
図
  6
CONTINUOUS
 62
     6
100
AcDbVertex
100
AcDb2dVertex
 10
811.3915085094544
 20
1662.439083384194
 30
0.0
  0
VERTEX
  5
1C8
330
19C
100
AcDbEntity
  8
図
  6
CONTINUOUS
 62
     6
100
AcDbVertex
100
AcDb2dVertex
 10
811.30609625812
 20
1662.471636002798
 30
0.0
  0
VERTEX
  5
1C9
330
19C
100
AcDbEntity
  8
図
  6
CONTINUOUS
 62
     6
100
AcDbVertex
100
AcDb2dVertex
 10
811.2193803938419
 20
1662.502161429577
 30
0.0
  0
VERTEX
  5
1CA
330
19C
100
AcDbEntity
  8
図
  6
CONTINUOUS
 62
     6
100
AcDbVertex
100
AcDb2dVertex
 10
811.1313717568795
 20
1662.53069078679
 30
0.0
  0
VERTEX
  5
1CB
330
19C
100
AcDbEntity
  8
図
  6
CONTINUOUS
 62
     6
100
AcDbVertex
100
AcDb2dVertex
 10
811.0423200558201
 20
1662.557278533325
 30
0.0
  0
VERTEX
  5
1CC
330
19C
100
AcDbEntity
  8
図
  6
CONTINUOUS
 62
     6
100
AcDbVertex
100
AcDb2dVertex
 10
810.9525350395072
 20
1662.581984846928
 30
0.0
  0
VERTEX
  5
1CD
330
19C
100
AcDbEntity
  8
図
  6
CONTINUOUS
 62
     6
100
AcDbVertex
100
AcDb2dVertex
 10
810.8623264567838
 20
1662.604869905345
 30
0.0
  0
VERTEX
  5
1CE
330
19C
100
AcDbEntity
  8
図
  6
CONTINUOUS
 62
     6
100
AcDbVertex
100
AcDb2dVertex
 10
810.7720040564925
 20
1662.62599388632
 30
0.0
  0
VERTEX
  5
1CF
330
19C
100
AcDbEntity
  8
図
  6
CONTINUOUS
 62
     6
100
AcDbVertex
100
AcDb2dVertex
 10
810.681877587477
 20
1662.645416967601
 30
0.0
  0
VERTEX
  5
1D0
330
19C
100
AcDbEntity
  8
図
  6
CONTINUOUS
 62
     6
100
AcDbVertex
100
AcDb2dVertex
 10
810.5922567985801
 20
1662.663199326932
 30
0.0
  0
VERTEX
  5
1D1
330
19C
100
AcDbEntity
  8
図
  6
CONTINUOUS
 62
     6
100
AcDbVertex
100
AcDb2dVertex
 10
810.5034514386448
 20
1662.679401142059
 30
0.0
  0
VERTEX
  5
1D2
330
19C
100
AcDbEntity
  8
図
  6
CONTINUOUS
 62
     6
100
AcDbVertex
100
AcDb2dVertex
 10
810.4157712565145
 20
1662.694082590729
 30
0.0
  0
VERTEX
  5
1D3
330
19C
100
AcDbEntity
  8
図
  6
CONTINUOUS
 62
     6
100
AcDbVertex
100
AcDb2dVertex
 10
810.329526001032
 20
1662.707303850686
 30
0.0
  0
VERTEX
  5
1D4
330
19C
100
AcDbEntity
  8
図
  6
CONTINUOUS
 62
     6
100
AcDbVertex
100
AcDb2dVertex
 10
810.2450254210407
 20
1662.719125099677
 30
0.0
  0
VERTEX
  5
1D5
330
19C
100
AcDbEntity
  8
図
  6
CONTINUOUS
 62
     6
100
AcDbVertex
100
AcDb2dVertex
 10
810.1623751506354
 20
1662.729541956572
 30
0.0
  0
VERTEX
  5
1D6
330
19C
100
AcDbEntity
  8
図
  6
CONTINUOUS
 62
     6
100
AcDbVertex
100
AcDb2dVertex
 10
810.0808630529975
 20
1662.738291968396
 30
0.0
  0
VERTEX
  5
1D7
330
19C
100
AcDbEntity
  8
図
  6
CONTINUOUS
 62
     6
100
AcDbVertex
100
AcDb2dVertex
 10
809.9995728874959
 20
1662.745048116167
 30
0.0
  0
VERTEX
  5
1D8
330
19C
100
AcDbEntity
  8
図
  6
CONTINUOUS
 62
     6
100
AcDbVertex
100
AcDb2dVertex
 10
809.9175884134991
 20
1662.7494833809
 30
0.0
  0
VERTEX
  5
1D9
330
19C
100
AcDbEntity
  8
図
  6
CONTINUOUS
 62
     6
100
AcDbVertex
100
AcDb2dVertex
 10
809.8339933903762
 20
1662.751270743614
 30
0.0
  0
VERTEX
  5
1DA
330
19C
100
AcDbEntity
  8
図
  6
CONTINUOUS
 62
     6
100
AcDbVertex
100
AcDb2dVertex
 10
809.747871577496
 20
1662.750083185327
 30
0.0
  0
VERTEX
  5
1DB
330
19C
100
AcDbEntity
  8
図
  6
CONTINUOUS
 62
     6
100
AcDbVertex
100
AcDb2dVertex
 10
809.6583067342272
 20
1662.745593687055
 30
0.0
  0
VERTEX
  5
1DC
330
19C
100
AcDbEntity
  8
図
  6
CONTINUOUS
 62
     6
100
AcDbVertex
100
AcDb2dVertex
 10
809.5643826199386
 20
1662.737475229817
 30
0.0
  0
VERTEX
  5
1DD
330
19C
100
AcDbEntity
  8
図
  6
CONTINUOUS
 62
     6
100
AcDbVertex
100
AcDb2dVertex
 10
809.465182993999
 20
1662.725400794629
 30
0.0
  0
VERTEX
  5
1DE
330
19C
100
AcDbEntity
  8
図
  6
CONTINUOUS
 62
     6
100
AcDbVertex
100
AcDb2dVertex
 10
809.3597916157773
 20
1662.70904336251
 30
0.0
  0
VERTEX
  5
1DF
330
19C
100
AcDbEntity
  8
図
  6
CONTINUOUS
 62
     6
100
AcDbVertex
100
AcDb2dVertex
 10
809.2472922446425
 20
1662.688075914477
 30
0.0
  0
VERTEX
  5
1E0
330
19C
100
AcDbEntity
  8
図
  6
CONTINUOUS
 62
     6
100
AcDbVertex
100
AcDb2dVertex
 10
809.1628700937827
 20
1662.670322234654
 30
0.0
  0
VERTEX
  5
1E1
330
19C
100
AcDbEntity
  8
図
  6
CONTINUOUS
 62
     6
100
AcDbVertex
100
AcDb2dVertex
 10
809.0764956757548
 20
1662.650800733997
 30
0.0
  0
VERTEX
  5
1E2
330
19C
100
AcDbEntity
  8
図
  6
CONTINUOUS
 62
     6
100
AcDbVertex
100
AcDb2dVertex
 10
808.990274427806
 20
1662.630240157627
 30
0.0
  0
VERTEX
  5
1E3
330
19C
100
AcDbEntity
  8
図
  6
CONTINUOUS
 62
     6
100
AcDbVertex
100
AcDb2dVertex
 10
808.9063117871824
 20
1662.609369250667
 30
0.0
  0
VERTEX
  5
1E4
330
19C
100
AcDbEntity
  8
図
  6
CONTINUOUS
 62
     6
100
AcDbVertex
100
AcDb2dVertex
 10
808.8267131911307
 20
1662.588916758239
 30
0.0
  0
VERTEX
  5
1E5
330
19C
100
AcDbEntity
  8
図
  6
CONTINUOUS
 62
     6
100
AcDbVertex
100
AcDb2dVertex
 10
808.7535840768977
 20
1662.569611425465
 30
0.0
  0
VERTEX
  5
1E6
330
19C
100
AcDbEntity
  8
図
  6
CONTINUOUS
 62
     6
100
AcDbVertex
100
AcDb2dVertex
 10
808.6890298817298
 20
1662.552181997467
 30
0.0
  0
VERTEX
  5
1E7
330
19C
100
AcDbEntity
  8
図
  6
CONTINUOUS
 62
     6
100
AcDbVertex
100
AcDb2dVertex
 10
808.6351560428735
 20
1662.537357219367
 30
0.0
  0
VERTEX
  5
1E8
330
19C
100
AcDbEntity
  8
図
  6
CONTINUOUS
 62
     6
100
AcDbVertex
100
AcDb2dVertex
 10
808.5940679975758
 20
1662.525865836287
 30
0.0
  0
VERTEX
  5
1E9
330
19C
100
AcDbEntity
  8
図
  6
CONTINUOUS
 62
     6
100
AcDbVertex
100
AcDb2dVertex
 10
808.5678711830831
 20
1662.51843659335
 30
0.0
  0
VERTEX
  5
1EA
330
19C
100
AcDbEntity
  8
図
  6
CONTINUOUS
 62
     6
100
AcDbVertex
100
AcDb2dVertex
 10
808.5586710366416
 20
1662.515798235677
 30
0.0
  0
SEQEND
  5
1EB
330
19C
100
AcDbEntity
  8
図
  6
CONTINUOUS
 62
     6
  0
LINE
  5
1EC
330
1F
100
AcDbEntity
  8
図
  6
CONTINUOUS
 62
     6
100
AcDbLine
 10
795.3939851625211
 20
1657.949064614988
 30
0.0
 11
808.5586591801413
 21
1662.515833257678
 31
0.0
  0
LINE
  5
1ED
330
1F
100
AcDbEntity
  8
図
  6
CONTINUOUS
 62
     6
100
AcDbLine
 10
762.7628888809423
 20
1676.974542696777
 30
0.0
 11
799.9234408347412
 21
1691.141418189177
 31
0.0
  0
ARC
  5
1EE
330
1F
100
AcDbEntity
  8
図
  6
CONTINUOUS
 62
     6
100
AcDbCircle
 10
763.1191142050421
 20
1676.040142611977
 30
0.0
 40
1.0
100
AcDbArc
 50
110.8685603588097
 51
199.9999999999893
  0
POLYLINE
  5
1EF
330
1F
100
AcDbEntity
  8
図
  6
CONTINUOUS
 62
     6
100
AcDb2dPolyline
 66
     1
 10
0.0
 20
0.0
 30
0.0
 70
   128
  0
VERTEX
  5
1F0
330
1EF
100
AcDbEntity
  8
図
  6
CONTINUOUS
 62
     6
100
AcDbVertex
100
AcDb2dVertex
 10
799.9234252358411
 20
1691.141457583577
 30
0.0
  0
VERTEX
  5
1F1
330
1EF
100
AcDbEntity
  8
図
  6
CONTINUOUS
 62
     6
100
AcDbVertex
100
AcDb2dVertex
 10
799.9334908898919
 20
1691.146026404013
 30
0.0
  0
VERTEX
  5
1F2
330
1EF
100
AcDbEntity
  8
図
  6
CONTINUOUS
 62
     6
100
AcDbVertex
100
AcDb2dVertex
 10
799.96207435837
 20
1691.15912017492
 30
0.0
  0
VERTEX
  5
1F3
330
1EF
100
AcDbEntity
  8
図
  6
CONTINUOUS
 62
     6
100
AcDbVertex
100
AcDb2dVertex
 10
800.0067554007657
 20
1691.1798198607
 30
0.0
  0
VERTEX
  5
1F4
330
1EF
100
AcDbEntity
  8
図
  6
CONTINUOUS
 62
     6
100
AcDbVertex
100
AcDb2dVertex
 10
800.0651137765667
 20
1691.207206425751
 30
0.0
  0
VERTEX
  5
1F5
330
1EF
100
AcDbEntity
  8
図
  6
CONTINUOUS
 62
     6
100
AcDbVertex
100
AcDb2dVertex
 10
800.1347292452633
 20
1691.240360834475
 30
0.0
  0
VERTEX
  5
1F6
330
1EF
100
AcDbEntity
  8
図
  6
CONTINUOUS
 62
     6
100
AcDbVertex
100
AcDb2dVertex
 10
800.2131815663445
 20
1691.278364051273
 30
0.0
  0
VERTEX
  5
1F7
330
1EF
100
AcDbEntity
  8
図
  6
CONTINUOUS
 62
     6
100
AcDbVertex
100
AcDb2dVertex
 10
800.2980504992993
 20
1691.320297040545
 30
0.0
  0
VERTEX
  5
1F8
330
1EF
100
AcDbEntity
  8
図
  6
CONTINUOUS
 62
     6
100
AcDbVertex
100
AcDb2dVertex
 10
800.3869158036173
 20
1691.365240766691
 30
0.0
  0
VERTEX
  5
1F9
330
1EF
100
AcDbEntity
  8
図
  6
CONTINUOUS
 62
     6
100
AcDbVertex
100
AcDb2dVertex
 10
800.4773572387877
 20
1691.412276194111
 30
0.0
  0
VERTEX
  5
1FA
330
1EF
100
AcDbEntity
  8
図
  6
CONTINUOUS
 62
     6
100
AcDbVertex
100
AcDb2dVertex
 10
800.5669545642992
 20
1691.460484287206
 30
0.0
  0
VERTEX
  5
1FB
330
1EF
100
AcDbEntity
  8
図
  6
CONTINUOUS
 62
     6
100
AcDbVertex
100
AcDb2dVertex
 10
800.6532875396417
 20
1691.508946010377
 30
0.0
  0
VERTEX
  5
1FC
330
1EF
100
AcDbEntity
  8
図
  6
CONTINUOUS
 62
     6
100
AcDbVertex
100
AcDb2dVertex
 10
800.7617098805895
 20
1691.573687501272
 30
0.0
  0
VERTEX
  5
1FD
330
1EF
100
AcDbEntity
  8
図
  6
CONTINUOUS
 62
     6
100
AcDbVertex
100
AcDb2dVertex
 10
800.8607315368719
 20
1691.63754372138
 30
0.0
  0
VERTEX
  5
1FE
330
1EF
100
AcDbEntity
  8
図
  6
CONTINUOUS
 62
     6
100
AcDbVertex
100
AcDb2dVertex
 10
800.951348172595
 20
1691.700846336769
 30
0.0
  0
VERTEX
  5
1FF
330
1EF
100
AcDbEntity
  8
図
  6
CONTINUOUS
 62
     6
100
AcDbVertex
100
AcDb2dVertex
 10
801.0345554518643
 20
1691.763927013507
 30
0.0
  0
VERTEX
  5
200
330
1EF
100
AcDbEntity
  8
図
  6
CONTINUOUS
 62
     6
100
AcDbVertex
100
AcDb2dVertex
 10
801.1113490387859
 20
1691.827117417663
 30
0.0
  0
VERTEX
  5
201
330
1EF
100
AcDbEntity
  8
図
  6
CONTINUOUS
 62
     6
100
AcDbVertex
100
AcDb2dVertex
 10
801.1827245974657
 20
1691.890749215304
 30
0.0
  0
VERTEX
  5
202
330
1EF
100
AcDbEntity
  8
図
  6
CONTINUOUS
 62
     6
100
AcDbVertex
100
AcDb2dVertex
 10
801.2496777920094
 20
1691.955154072499
 30
0.0
  0
VERTEX
  5
203
330
1EF
100
AcDbEntity
  8
図
  6
CONTINUOUS
 62
     6
100
AcDbVertex
100
AcDb2dVertex
 10
801.313204286523
 20
1692.020663655316
 30
0.0
  0
VERTEX
  5
204
330
1EF
100
AcDbEntity
  8
図
  6
CONTINUOUS
 62
     6
100
AcDbVertex
100
AcDb2dVertex
 10
801.3742997451122
 20
1692.087609629823
 30
0.0
  0
VERTEX
  5
205
330
1EF
100
AcDbEntity
  8
図
  6
CONTINUOUS
 62
     6
100
AcDbVertex
100
AcDb2dVertex
 10
801.4339598318829
 20
1692.156323662087
 30
0.0
  0
VERTEX
  5
206
330
1EF
100
AcDbEntity
  8
図
  6
CONTINUOUS
 62
     6
100
AcDbVertex
100
AcDb2dVertex
 10
801.4931802109413
 20
1692.227137418177
 30
0.0
  0
VERTEX
  5
207
330
1EF
100
AcDbEntity
  8
図
  6
CONTINUOUS
 62
     6
100
AcDbVertex
100
AcDb2dVertex
 10
801.5527344410286
 20
1692.300313804478
 30
0.0
  0
VERTEX
  5
208
330
1EF
100
AcDbEntity
  8
図
  6
CONTINUOUS
 62
     6
100
AcDbVertex
100
AcDb2dVertex
 10
801.6125066768939
 20
1692.37583947749
 30
0.0
  0
VERTEX
  5
209
330
1EF
100
AcDbEntity
  8
図
  6
CONTINUOUS
 62
     6
100
AcDbVertex
100
AcDb2dVertex
 10
801.672158964872
 20
1692.453632320689
 30
0.0
  0
VERTEX
  5
20A
330
1EF
100
AcDbEntity
  8
図
  6
CONTINUOUS
 62
     6
100
AcDbVertex
100
AcDb2dVertex
 10
801.7313533512977
 20
1692.533610217553
 30
0.0
  0
VERTEX
  5
20B
330
1EF
100
AcDbEntity
  8
図
  6
CONTINUOUS
 62
     6
100
AcDbVertex
100
AcDb2dVertex
 10
801.7897518825057
 20
1692.615691051561
 30
0.0
  0
VERTEX
  5
20C
330
1EF
100
AcDbEntity
  8
図
  6
CONTINUOUS
 62
     6
100
AcDbVertex
100
AcDb2dVertex
 10
801.8470166048315
 20
1692.69979270619
 30
0.0
  0
VERTEX
  5
20D
330
1EF
100
AcDbEntity
  8
図
  6
CONTINUOUS
 62
     6
100
AcDbVertex
100
AcDb2dVertex
 10
801.9028095646095
 20
1692.785833064918
 30
0.0
  0
VERTEX
  5
20E
330
1EF
100
AcDbEntity
  8
図
  6
CONTINUOUS
 62
     6
100
AcDbVertex
100
AcDb2dVertex
 10
801.9567928081747
 20
1692.873730011223
 30
0.0
  0
VERTEX
  5
20F
330
1EF
100
AcDbEntity
  8
図
  6
CONTINUOUS
 62
     6
100
AcDbVertex
100
AcDb2dVertex
 10
802.0086283818621
 20
1692.963401428582
 30
0.0
  0
VERTEX
  5
210
330
1EF
100
AcDbEntity
  8
図
  6
CONTINUOUS
 62
     6
100
AcDbVertex
100
AcDb2dVertex
 10
802.057978332006
 20
1693.054765200474
 30
0.0
  0
VERTEX
  5
211
330
1EF
100
AcDbEntity
  8
図
  6
CONTINUOUS
 62
     6
100
AcDbVertex
100
AcDb2dVertex
 10
802.104504704942
 20
1693.147739210377
 30
0.0
  0
VERTEX
  5
212
330
1EF
100
AcDbEntity
  8
図
  6
CONTINUOUS
 62
     6
100
AcDbVertex
100
AcDb2dVertex
 10
802.1479502883386
 20
1693.242201960502
 30
0.0
  0
VERTEX
  5
213
330
1EF
100
AcDbEntity
  8
図
  6
CONTINUOUS
 62
     6
100
AcDbVertex
100
AcDb2dVertex
 10
802.1883801328465
 20
1693.337872876217
 30
0.0
  0
VERTEX
  5
214
330
1EF
100
AcDbEntity
  8
図
  6
CONTINUOUS
 62
     6
100
AcDbVertex
100
AcDb2dVertex
 10
802.2259400477068
 20
1693.434431993286
 30
0.0
  0
VERTEX
  5
215
330
1EF
100
AcDbEntity
  8
図
  6
CONTINUOUS
 62
     6
100
AcDbVertex
100
AcDb2dVertex
 10
802.2607758421598
 20
1693.531559347469
 30
0.0
  0
VERTEX
  5
216
330
1EF
100
AcDbEntity
  8
図
  6
CONTINUOUS
 62
     6
100
AcDbVertex
100
AcDb2dVertex
 10
802.2930333254461
 20
1693.62893497453
 30
0.0
  0
VERTEX
  5
217
330
1EF
100
AcDbEntity
  8
図
  6
CONTINUOUS
 62
     6
100
AcDbVertex
100
AcDb2dVertex
 10
802.3228583068069
 20
1693.726238910228
 30
0.0
  0
VERTEX
  5
218
330
1EF
100
AcDbEntity
  8
図
  6
CONTINUOUS
 62
     6
100
AcDbVertex
100
AcDb2dVertex
 10
802.3503965954819
 20
1693.823151190328
 30
0.0
  0
VERTEX
  5
219
330
1EF
100
AcDbEntity
  8
図
  6
CONTINUOUS
 62
     6
100
AcDbVertex
100
AcDb2dVertex
 10
802.3757940007125
 20
1693.919351850591
 30
0.0
  0
VERTEX
  5
21A
330
1EF
100
AcDbEntity
  8
図
  6
CONTINUOUS
 62
     6
100
AcDbVertex
100
AcDb2dVertex
 10
802.399196331739
 20
1694.014520926779
 30
0.0
  0
VERTEX
  5
21B
330
1EF
100
AcDbEntity
  8
図
  6
CONTINUOUS
 62
     6
100
AcDbVertex
100
AcDb2dVertex
 10
802.4207493978022
 20
1694.108338454653
 30
0.0
  0
VERTEX
  5
21C
330
1EF
100
AcDbEntity
  8
図
  6
CONTINUOUS
 62
     6
100
AcDbVertex
100
AcDb2dVertex
 10
802.4405990081425
 20
1694.200484469977
 30
0.0
  0
VERTEX
  5
21D
330
1EF
100
AcDbEntity
  8
図
  6
CONTINUOUS
 62
     6
100
AcDbVertex
100
AcDb2dVertex
 10
802.4588065618553
 20
1694.290859188637
 30
0.0
  0
VERTEX
  5
21E
330
1EF
100
AcDbEntity
  8
図
  6
CONTINUOUS
 62
     6
100
AcDbVertex
100
AcDb2dVertex
 10
802.4750955418701
 20
1694.380242171624
 30
0.0
  0
VERTEX
  5
21F
330
1EF
100
AcDbEntity
  8
図
  6
CONTINUOUS
 62
     6
100
AcDbVertex
100
AcDb2dVertex
 10
802.4891050289168
 20
1694.469633170213
 30
0.0
  0
VERTEX
  5
220
330
1EF
100
AcDbEntity
  8
図
  6
CONTINUOUS
 62
     6
100
AcDbVertex
100
AcDb2dVertex
 10
802.5004741037257
 20
1694.560031935678
 30
0.0
  0
VERTEX
  5
221
330
1EF
100
AcDbEntity
  8
図
  6
CONTINUOUS
 62
     6
100
AcDbVertex
100
AcDb2dVertex
 10
802.5088418470266
 20
1694.652438219296
 30
0.0
  0
VERTEX
  5
222
330
1EF
100
AcDbEntity
  8
図
  6
CONTINUOUS
 62
     6
100
AcDbVertex
100
AcDb2dVertex
 10
802.5138473395493
 20
1694.747851772339
 30
0.0
  0
VERTEX
  5
223
330
1EF
100
AcDbEntity
  8
図
  6
CONTINUOUS
 62
     6
100
AcDbVertex
100
AcDb2dVertex
 10
802.515129662024
 20
1694.847272346084
 30
0.0
  0
VERTEX
  5
224
330
1EF
100
AcDbEntity
  8
図
  6
CONTINUOUS
 62
     6
100
AcDbVertex
100
AcDb2dVertex
 10
802.5123278951805
 20
1694.951699691806
 30
0.0
  0
VERTEX
  5
225
330
1EF
100
AcDbEntity
  8
図
  6
CONTINUOUS
 62
     6
100
AcDbVertex
100
AcDb2dVertex
 10
802.5050811197491
 20
1695.062133560778
 30
0.0
  0
VERTEX
  5
226
330
1EF
100
AcDbEntity
  8
図
  6
CONTINUOUS
 62
     6
100
AcDbVertex
100
AcDb2dVertex
 10
802.4930284164592
 20
1695.179573704277
 30
0.0
  0
VERTEX
  5
227
330
1EF
100
AcDbEntity
  8
図
  6
CONTINUOUS
 62
     6
100
AcDbVertex
100
AcDb2dVertex
 10
802.4758088660412
 20
1695.305019873577
 30
0.0
  0
VERTEX
  5
228
330
1EF
100
AcDbEntity
  8
図
  6
CONTINUOUS
 62
     6
100
AcDbVertex
100
AcDb2dVertex
 10
802.4602541735404
 20
1695.39984442243
 30
0.0
  0
VERTEX
  5
229
330
1EF
100
AcDbEntity
  8
図
  6
CONTINUOUS
 62
     6
100
AcDbVertex
100
AcDb2dVertex
 10
802.4426172228191
 20
1695.496909711655
 30
0.0
  0
VERTEX
  5
22A
330
1EF
100
AcDbEntity
  8
図
  6
CONTINUOUS
 62
     6
100
AcDbVertex
100
AcDb2dVertex
 10
802.4236488848574
 20
1695.593840778254
 30
0.0
  0
VERTEX
  5
22B
330
1EF
100
AcDbEntity
  8
図
  6
CONTINUOUS
 62
     6
100
AcDbVertex
100
AcDb2dVertex
 10
802.4041000306345
 20
1695.688262659229
 30
0.0
  0
VERTEX
  5
22C
330
1EF
100
AcDbEntity
  8
図
  6
CONTINUOUS
 62
     6
100
AcDbVertex
100
AcDb2dVertex
 10
802.38472153113
 20
1695.777800391581
 30
0.0
  0
VERTEX
  5
22D
330
1EF
100
AcDbEntity
  8
図
  6
CONTINUOUS
 62
     6
100
AcDbVertex
100
AcDb2dVertex
 10
802.3662642573232
 20
1695.86007901231
 30
0.0
  0
VERTEX
  5
22E
330
1EF
100
AcDbEntity
  8
図
  6
CONTINUOUS
 62
     6
100
AcDbVertex
100
AcDb2dVertex
 10
802.349479080194
 20
1695.932723558419
 30
0.0
  0
VERTEX
  5
22F
330
1EF
100
AcDbEntity
  8
図
  6
CONTINUOUS
 62
     6
100
AcDbVertex
100
AcDb2dVertex
 10
802.3351168707217
 20
1695.993359066909
 30
0.0
  0
VERTEX
  5
230
330
1EF
100
AcDbEntity
  8
図
  6
CONTINUOUS
 62
     6
100
AcDbVertex
100
AcDb2dVertex
 10
802.3239284998858
 20
1696.039610574781
 30
0.0
  0
VERTEX
  5
231
330
1EF
100
AcDbEntity
  8
図
  6
CONTINUOUS
 62
     6
100
AcDbVertex
100
AcDb2dVertex
 10
802.316664838666
 20
1696.069103119037
 30
0.0
  0
VERTEX
  5
232
330
1EF
100
AcDbEntity
  8
図
  6
CONTINUOUS
 62
     6
100
AcDbVertex
100
AcDb2dVertex
 10
802.3140767580418
 20
1696.079461736677
 30
0.0
  0
SEQEND
  5
233
330
1EF
100
AcDbEntity
  8
図
  6
CONTINUOUS
 62
     6
  0
ARC
  5
234
330
1F
100
AcDbEntity
  8
図
  6
CONTINUOUS
 62
     6
100
AcDbCircle
 10
801.944020061571
 20
1698.929220516635
 30
0.0
 40
0.5
100
AcDbArc
 50
197.6118151671981
 51
290.0000000000964
  0
LINE
  5
235
330
1F
100
AcDbEntity
  8
図
  6
CONTINUOUS
 62
     6
100
AcDbLine
 10
801.9455828200618
 20
1697.250642712684
 30
0.0
 11
802.3141462037521
 21
1696.079185659208
 31
0.0
  0
ARC
  5
236
330
1F
100
AcDbEntity
  8
図
  6
CONTINUOUS
 62
     6
100
AcDbCircle
 10
802.4225341026114
 20
1697.400700948303
 30
0.0
 40
0.5
100
AcDbArc
 50
109.9999999999893
 51
197.4645987881905
  0
LINE
  5
237
330
1F
100
AcDbEntity
  8
図
  6
CONTINUOUS
 62
     6
100
AcDbLine
 10
779.4524923797409
 20
1721.072040432979
 30
0.0
 11
821.5799811852822
 21
1736.405192402472
 31
0.0
  0
ARC
  5
238
330
1F
100
AcDbEntity
  8
図
  6
CONTINUOUS
 62
     6
100
AcDbCircle
 10
832.8746346694817
 20
1710.187043561571
 30
0.0
 40
0.5
100
AcDbArc
 50
289.9999999999894
 51
19.99999999999817
  0
LINE
  5
239
330
1F
100
AcDbEntity
  8
図
  6
CONTINUOUS
 62
     6
100
AcDbLine
 10
833.3369555087821
 20
1710.377462682372
 30
0.0
 11
833.3444809798813
 21
1710.358053633171
 31
0.0
  0
ARC
  5
23A
330
1F
100
AcDbEntity
  8
図
  6
CONTINUOUS
 62
     6
100
AcDbCircle
 10
833.5243027795215
 20
1708.720818979704
 30
0.0
 40
0.5
100
AcDbArc
 50
22.17915603182308
 51
109.9999999999403
  0
ARC
  5
23B
330
1F
100
AcDbEntity
  8
図
  6
CONTINUOUS
 62
     6
100
AcDbCircle
 10
821.9220956137807
 20
1735.465534098771
 30
0.0
 40
1.0
100
AcDbArc
 50
22.38595637648308
 51
109.9999999999893
  0
ARC
  5
23C
330
1F
100
AcDbEntity
  8
図
  6
CONTINUOUS
 62
     6
100
AcDbCircle
 10
820.4939611926012
 20
1721.865486306789
 30
0.0
 40
9.0
100
AcDbArc
 50
348.6369554344336
 51
22.3859440302828
  0
ARC
  5
23D
330
1F
100
AcDbEntity
  8
図
  6
CONTINUOUS
 62
     6
100
AcDbCircle
 10
783.248929173492
 20
1710.641457147696
 30
0.0
 40
0.5
100
AcDbArc
 50
200.0000000000227
 51
289.9999999998824
  0
ARC
  5
23E
330
1F
100
AcDbEntity
  8
図
  6
CONTINUOUS
 62
     6
100
AcDbCircle
 10
793.4863871112112
 20
1709.046698249178
 30
0.0
 40
4.5
100
AcDbArc
 50
17.61181516717
 51
109.999999999872
  0
LINE
  5
23F
330
1F
100
AcDbEntity
  8
図
  6
CONTINUOUS
 62
     6
100
AcDbLine
 10
783.4199392451512
 20
1710.171610837302
 30
0.0
 11
791.9472964662612
 21
1713.275315042719
 31
0.0
  0
ARC
  5
240
330
1F
100
AcDbEntity
  8
図
  6
CONTINUOUS
 62
     6
100
AcDbCircle
 10
779.6235156541708
 20
1720.602198928211
 30
0.0
 40
0.5
100
AcDbArc
 50
109.9999999999893
 51
200.0000000000227
  0
ARC
  5
241
330
1F
100
AcDbEntity
  8
図
  6
CONTINUOUS
 62
     6
100
AcDbCircle
 10
820.4939611926012
 20
1721.865486306789
 30
0.0
 40
9.0
100
AcDbArc
 50
22.3859440302828
 51
56.1349326261314
  0
LINE
  5
242
330
1F
100
AcDbEntity
  8
図
  6
EXLTYPE1
 62
     6
100
AcDbLine
 10
802.2815607291224
 20
1697.881482922527
 30
0.0
 11
802.2807787795219
 21
1697.881199052927
 31
0.0
  0
LINE
  5
243
330
1F
100
AcDbEntity
  8
図
  6
EXLTYPE1
 62
     6
100
AcDbLine
 10
833.0895683966912
 20
1709.839606136477
 30
0.0
 11
833.0901618059917
 21
1709.839822544677
 31
0.0
  0
LINE
  5
244
330
1F
100
AcDbEntity
  8
図
  6
CONTINUOUS
 62
     6
100
AcDbLine
 10
833.0456447411808
 20
1709.717197251172
 30
0.0
 11
817.5999545968008
 21
1704.095425790918
 31
0.0
  0
LINE
  5
245
330
1F
100
AcDbEntity
  8
図
  6
CONTINUOUS
 62
     6
100
AcDbLine
 10
817.5999545968244
 20
1704.095425790855
 30
0.0
 11
802.1150301332319
 21
1698.459374206242
 31
0.0
  0
LINE
  5
246
330
1F
100
AcDbEntity
  8
図
  6
CONTINUOUS
 62
     6
100
AcDbLine
 10
794.7242286521715
 20
1657.954141211382
 30
0.0
 11
779.1138212774524
 21
1663.635864840546
 31
0.0
  0
LINE
  5
247
330
1F
100
AcDbEntity
  8
図
  6
CONTINUOUS
 62
     6
100
AcDbLine
 10
779.113821277455
 20
1663.635864840554
 30
0.0
 11
765.0922664282908
 21
1668.739293443777
 31
0.0
  0
LINE
  5
248
330
1F
100
AcDbEntity
  8
図
  6
CONTINUOUS
 62
     6
100
AcDbLine
 10
822.846736163082
 20
1735.846375082072
 30
0.0
 11
827.4366916165366
 21
1724.70254962799
 31
0.0
  0
LINE
  5
249
330
1F
100
AcDbEntity
  8
図
  6
CONTINUOUS
 62
     6
100
AcDbLine
 10
827.4366916165264
 20
1724.702549627987
 30
0.0
 11
833.3369555104321
 21
1710.377462678093
 31
0.0
  0
LINE
  5
24A
330
1F
100
AcDbEntity
  8
図
  6
CONTINUOUS
 62
     6
100
AcDbLine
 10
797.7754644376001
 20
1710.408247252443
 30
0.0
 11
801.4674559142014
 21
1698.77793729405
 31
0.0
  0
LINE
  5
24B
330
1F
100
AcDbEntity
  8
図
  6
CONTINUOUS
 62
     6
100
AcDbLine
 10
779.1536693437821
 20
1720.43118885655
 30
0.0
 11
782.7790828631015
 21
1710.470447076033
 31
0.0
  0
LINE
  5
24C
330
1F
100
AcDbEntity
  8
図
  6
CONTINUOUS
 62
     6
100
AcDbLine
 10
768.9773543860912
 20
1664.563695750243
 30
0.0
 11
769.015158790252
 21
1664.549936072405
 31
0.0
  0
LINE
  5
24D
330
1F
100
AcDbEntity
  8
図
  6
CONTINUOUS
 62
     6
100
AcDbLine
 10
767.8375098280231
 20
1667.740106560459
 30
0.0
 11
766.1958131401326
 21
1663.22958198089
 31
0.0
  0
LINE
  5
24E
330
1F
100
AcDbEntity
  8
図
  6
CONTINUOUS
 62
     6
100
AcDbLine
 10
766.1958131401326
 20
1663.22958198089
 30
0.0
 11
788.7484360389745
 21
1655.021098541021
 31
0.0
  0
LINE
  5
24F
330
1F
100
AcDbEntity
  8
図
  6
CONTINUOUS
 62
     6
100
AcDbLine
 10
790.3901327268933
 20
1659.531623120636
 30
0.0
 11
788.7484360389745
 21
1655.021098541021
 31
0.0
  0
LINE
  5
250
330
1F
100
AcDbEntity
  8
図
  6
CONTINUOUS
 62
     6
100
AcDbLine
 10
813.6850032586218
 20
1659.937584809705
 30
0.0
 11
828.1378691538163
 21
1614.0
 31
0.0
  0
LINE
  5
251
330
1F
100
AcDbEntity
  8
図
  6
CONTINUOUS
 62
     6
100
AcDbLine
 10
872.6789132737346
 20
1614.0
 30
0.0
 11
833.9873067697511
 21
1708.909570946666
 31
0.0
  0
LINE
  5
252
330
1F
100
AcDbEntity
  8
図
  6
CONTINUOUS
 62
     2
100
AcDbLine
 10
569.9000000000007
 20
1673.999999999999
 30
0.0
 11
762.7974876169512
 21
1673.999999999999
 31
0.0
  0
LINE
  5
253
330
1F
100
AcDbEntity
  8
図
  6
CONTINUOUS
 62
     2
100
AcDbLine
 10
848.2188259813421
 20
1673.999999999999
 30
0.0
 11
909.5927186622555
 21
1673.999999999999
 31
0.0
  0
LINE
  5
254
330
1F
100
AcDbEntity
  8
図
  6
CONTINUOUS
 62
     6
100
AcDbLine
 10
1447.97339127514
 20
1704.28479577092
 30
0.0
 11
1449.49999999999
 21
1731.20567555089
 31
0.0
  0
LINE
  5
255
330
1F
100
AcDbEntity
  8
図
  6
CONTINUOUS
 62
     6
100
AcDbLine
 10
1482.045397602787
 20
1703.953464555395
 30
0.0
 11
1480.499999999989
 21
1731.20567555089
 31
0.0
  0
LINE
  5
256
330
1F
100
AcDbEntity
  8
図
  6
CONTINUOUS
 62
     6
100
AcDbLine
 10
1482.022865604541
 20
1704.707564466287
 30
0.0
 11
1482.023589483241
 21
1704.720326147487
 31
0.0
  0
POLYLINE
  5
257
330
1F
100
AcDbEntity
  8
図
  6
CONTINUOUS
 62
     6
100
AcDb2dPolyline
 66
     1
 10
0.0
 20
0.0
 30
0.0
 70
   128
  0
VERTEX
  5
258
330
257
100
AcDbEntity
  8
図
  6
CONTINUOUS
 62
     6
100
AcDbVertex
100
AcDb2dVertex
 10
1482.018545032439
 20
1704.762991406986
 30
0.0
  0
VERTEX
  5
259
330
257
100
AcDbEntity
  8
図
  6
CONTINUOUS
 62
     6
100
AcDbVertex
100
AcDb2dVertex
 10
1482.02643162554
 20
1704.824022078587
 30
0.0
  0
SEQEND
  5
25A
330
257
100
AcDbEntity
  8
図
  6
CONTINUOUS
 62
     6
  0
POLYLINE
  5
25B
330
1F
100
AcDbEntity
  8
図
  6
CONTINUOUS
 62
     6
100
AcDb2dPolyline
 66
     1
 10
0.0
 20
0.0
 30
0.0
 70
   128
  0
VERTEX
  5
25C
330
25B
100
AcDbEntity
  8
図
  6
CONTINUOUS
 62
     6
100
AcDbVertex
100
AcDb2dVertex
 10
1482.023379537339
 20
1704.720338153687
 30
0.0
  0
VERTEX
  5
25D
330
25B
100
AcDbEntity
  8
図
  6
CONTINUOUS
 62
     6
100
AcDbVertex
100
AcDb2dVertex
 10
1482.025229445341
 20
1704.759983244987
 30
0.0
  0
SEQEND
  5
25E
330
25B
100
AcDbEntity
  8
図
  6
CONTINUOUS
 62
     6
  0
POLYLINE
  5
25F
330
1F
100
AcDbEntity
  8
図
  6
CONTINUOUS
 62
     6
100
AcDb2dPolyline
 66
     1
 10
0.0
 20
0.0
 30
0.0
 70
   128
  0
VERTEX
  5
260
330
25F
100
AcDbEntity
  8
図
  6
CONTINUOUS
 62
     6
100
AcDbVertex
100
AcDb2dVertex
 10
1482.025229445341
 20
1704.759983244987
 30
0.0
  0
VERTEX
  5
261
330
25F
100
AcDbEntity
  8
図
  6
CONTINUOUS
 62
     6
100
AcDbVertex
100
AcDb2dVertex
 10
1482.02643162554
 20
1704.824022078587
 30
0.0
  0
SEQEND
  5
262
330
25F
100
AcDbEntity
  8
図
  6
CONTINUOUS
 62
     6
  0
LINE
  5
263
330
1F
100
AcDbEntity
  8
図
  6
CONTINUOUS
 62
     6
100
AcDbLine
 10
1447.976456188939
 20
1704.719635660187
 30
0.0
 11
1447.97715163654
 21
1704.707405034386
 31
0.0
  0
POLYLINE
  5
264
330
1F
100
AcDbEntity
  8
図
  6
CONTINUOUS
 62
     6
100
AcDb2dPolyline
 66
     1
 10
0.0
 20
0.0
 30
0.0
 70
   128
  0
VERTEX
  5
265
330
264
100
AcDbEntity
  8
図
  6
CONTINUOUS
 62
     6
100
AcDbVertex
100
AcDb2dVertex
 10
1447.976679186539
 20
1704.719648521687
 30
0.0
  0
VERTEX
  5
266
330
264
100
AcDbEntity
  8
図
  6
CONTINUOUS
 62
     6
100
AcDbVertex
100
AcDb2dVertex
 10
1448.00450657444
 20
1704.467916100287
 30
0.0
  0
SEQEND
  5
267
330
264
100
AcDbEntity
  8
図
  6
CONTINUOUS
 62
     6
  0
POLYLINE
  5
268
330
1F
100
AcDbEntity
  8
図
  6
CONTINUOUS
 62
     6
100
AcDb2dPolyline
 66
     1
 10
0.0
 20
0.0
 30
0.0
 70
   128
  0
VERTEX
  5
269
330
268
100
AcDbEntity
  8
図
  6
CONTINUOUS
 62
     6
100
AcDbVertex
100
AcDb2dVertex
 10
1447.97357800574
 20
1704.823994569987
 30
0.0
  0
VERTEX
  5
26A
330
268
100
AcDbEntity
  8
図
  6
CONTINUOUS
 62
     6
100
AcDbVertex
100
AcDb2dVertex
 10
1447.974803866241
 20
1704.759327321486
 30
0.0
  0
SEQEND
  5
26B
330
268
100
AcDbEntity
  8
図
  6
CONTINUOUS
 62
     6
  0
POLYLINE
  5
26C
330
1F
100
AcDbEntity
  8
図
  6
CONTINUOUS
 62
     6
100
AcDb2dPolyline
 66
     1
 10
0.0
 20
0.0
 30
0.0
 70
   128
  0
VERTEX
  5
26D
330
26C
100
AcDbEntity
  8
図
  6
CONTINUOUS
 62
     6
100
AcDbVertex
100
AcDb2dVertex
 10
1447.974803866241
 20
1704.759327321486
 30
0.0
  0
VERTEX
  5
26E
330
26C
100
AcDbEntity
  8
図
  6
CONTINUOUS
 62
     6
100
AcDbVertex
100
AcDb2dVertex
 10
1447.97666635864
 20
1704.719647732587
 30
0.0
  0
SEQEND
  5
26F
330
26C
100
AcDbEntity
  8
図
  6
CONTINUOUS
 62
     6
  0
POLYLINE
  5
270
330
1F
100
AcDbEntity
  8
図
  6
CONTINUOUS
 62
     6
100
AcDb2dPolyline
 66
     1
 10
0.0
 20
0.0
 30
0.0
 70
   128
  0
VERTEX
  5
271
330
270
100
AcDbEntity
  8
図
  6
CONTINUOUS
 62
     6
100
AcDbVertex
100
AcDb2dVertex
 10
1457.896819764539
 20
1709.579280197077
 30
0.0
  0
VERTEX
  5
272
330
270
100
AcDbEntity
  8
図
  6
CONTINUOUS
 62
     6
100
AcDbVertex
100
AcDb2dVertex
 10
1457.877753649555
 20
1709.576050573232
 30
0.0
  0
VERTEX
  5
273
330
270
100
AcDbEntity
  8
図
  6
CONTINUOUS
 62
     6
100
AcDbVertex
100
AcDb2dVertex
 10
1457.823445490504
 20
1709.56681420724
 30
0.0
  0
VERTEX
  5
274
330
270
100
AcDbEntity
  8
図
  6
CONTINUOUS
 62
     6
100
AcDbVertex
100
AcDb2dVertex
 10
1457.738230566238
 20
1709.552249857418
 30
0.0
  0
VERTEX
  5
275
330
270
100
AcDbEntity
  8
図
  6
CONTINUOUS
 62
     6
100
AcDbVertex
100
AcDb2dVertex
 10
1457.626444155607
 20
1709.533036282079
 30
0.0
  0
VERTEX
  5
276
330
270
100
AcDbEntity
  8
図
  6
CONTINUOUS
 62
     6
100
AcDbVertex
100
AcDb2dVertex
 10
1457.492421537464
 20
1709.509852239541
 30
0.0
  0
VERTEX
  5
277
330
270
100
AcDbEntity
  8
図
  6
CONTINUOUS
 62
     6
100
AcDbVertex
100
AcDb2dVertex
 10
1457.340497990661
 20
1709.483376488118
 30
0.0
  0
VERTEX
  5
278
330
270
100
AcDbEntity
  8
図
  6
CONTINUOUS
 62
     6
100
AcDbVertex
100
AcDb2dVertex
 10
1457.175008794048
 20
1709.454287786127
 30
0.0
  0
VERTEX
  5
279
330
270
100
AcDbEntity
  8
図
  6
CONTINUOUS
 62
     6
100
AcDbVertex
100
AcDb2dVertex
 10
1457.000289226478
 20
1709.423264891881
 30
0.0
  0
VERTEX
  5
27A
330
270
100
AcDbEntity
  8
図
  6
CONTINUOUS
 62
     6
100
AcDbVertex
100
AcDb2dVertex
 10
1456.820674566803
 20
1709.390986563697
 30
0.0
  0
VERTEX
  5
27B
330
270
100
AcDbEntity
  8
図
  6
CONTINUOUS
 62
     6
100
AcDbVertex
100
AcDb2dVertex
 10
1456.640500093873
 20
1709.358131559891
 30
0.0
  0
VERTEX
  5
27C
330
270
100
AcDbEntity
  8
図
  6
CONTINUOUS
 62
     6
100
AcDbVertex
100
AcDb2dVertex
 10
1456.46410108654
 20
1709.325378638777
 30
0.0
  0
VERTEX
  5
27D
330
270
100
AcDbEntity
  8
図
  6
CONTINUOUS
 62
     6
100
AcDbVertex
100
AcDb2dVertex
 10
1456.178511886908
 20
1709.27069929506
 30
0.0
  0
VERTEX
  5
27E
330
270
100
AcDbEntity
  8
図
  6
CONTINUOUS
 62
     6
100
AcDbVertex
100
AcDb2dVertex
 10
1455.914088237051
 20
1709.217825790721
 30
0.0
  0
VERTEX
  5
27F
330
270
100
AcDbEntity
  8
図
  6
CONTINUOUS
 62
     6
100
AcDbVertex
100
AcDb2dVertex
 10
1455.668095958074
 20
1709.166263080388
 30
0.0
  0
VERTEX
  5
280
330
270
100
AcDbEntity
  8
図
  6
CONTINUOUS
 62
     6
100
AcDbVertex
100
AcDb2dVertex
 10
1455.437800871082
 20
1709.115516118687
 30
0.0
  0
VERTEX
  5
281
330
270
100
AcDbEntity
  8
図
  6
CONTINUOUS
 62
     6
100
AcDbVertex
100
AcDb2dVertex
 10
1455.220468797177
 20
1709.065089860243
 30
0.0
  0
VERTEX
  5
282
330
270
100
AcDbEntity
  8
図
  6
CONTINUOUS
 62
     6
100
AcDbVertex
100
AcDb2dVertex
 10
1455.013365557465
 20
1709.014489259684
 30
0.0
  0
VERTEX
  5
283
330
270
100
AcDbEntity
  8
図
  6
CONTINUOUS
 62
     6
100
AcDbVertex
100
AcDb2dVertex
 10
1454.81375697305
 20
1708.963219271636
 30
0.0
  0
VERTEX
  5
284
330
270
100
AcDbEntity
  8
図
  6
CONTINUOUS
 62
     6
100
AcDbVertex
100
AcDb2dVertex
 10
1454.618908865036
 20
1708.910784850724
 30
0.0
  0
VERTEX
  5
285
330
270
100
AcDbEntity
  8
図
  6
CONTINUOUS
 62
     6
100
AcDbVertex
100
AcDb2dVertex
 10
1454.426087054526
 20
1708.856690951576
 30
0.0
  0
VERTEX
  5
286
330
270
100
AcDbEntity
  8
図
  6
CONTINUOUS
 62
     6
100
AcDbVertex
100
AcDb2dVertex
 10
1454.232557362627
 20
1708.800442528818
 30
0.0
  0
VERTEX
  5
287
330
270
100
AcDbEntity
  8
図
  6
CONTINUOUS
 62
     6
100
AcDbVertex
100
AcDb2dVertex
 10
1454.03558561044
 20
1708.741544537077
 30
0.0
  0
VERTEX
  5
288
330
270
100
AcDbEntity
  8
図
  6
CONTINUOUS
 62
     6
100
AcDbVertex
100
AcDb2dVertex
 10
1453.856132683914
 20
1708.686732259259
 30
0.0
  0
VERTEX
  5
289
330
270
100
AcDbEntity
  8
図
  6
CONTINUOUS
 62
     6
100
AcDbVertex
100
AcDb2dVertex
 10
1453.67247552521
 20
1708.629531852038
 30
0.0
  0
VERTEX
  5
28A
330
270
100
AcDbEntity
  8
図
  6
CONTINUOUS
 62
     6
100
AcDbVertex
100
AcDb2dVertex
 10
1453.485273681039
 20
1708.570031564998
 30
0.0
  0
VERTEX
  5
28B
330
270
100
AcDbEntity
  8
図
  6
CONTINUOUS
 62
     6
100
AcDbVertex
100
AcDb2dVertex
 10
1453.295186698113
 20
1708.508319647721
 30
0.0
  0
VERTEX
  5
28C
330
270
100
AcDbEntity
  8
図
  6
CONTINUOUS
 62
     6
100
AcDbVertex
100
AcDb2dVertex
 10
1453.102874123143
 20
1708.444484349792
 30
0.0
  0
VERTEX
  5
28D
330
270
100
AcDbEntity
  8
図
  6
CONTINUOUS
 62
     6
100
AcDbVertex
100
AcDb2dVertex
 10
1452.908995502841
 20
1708.378613920793
 30
0.0
  0
VERTEX
  5
28E
330
270
100
AcDbEntity
  8
図
  6
CONTINUOUS
 62
     6
100
AcDbVertex
100
AcDb2dVertex
 10
1452.714210383917
 20
1708.310796610308
 30
0.0
  0
VERTEX
  5
28F
330
270
100
AcDbEntity
  8
図
  6
CONTINUOUS
 62
     6
100
AcDbVertex
100
AcDb2dVertex
 10
1452.519178313084
 20
1708.241120667921
 30
0.0
  0
VERTEX
  5
290
330
270
100
AcDbEntity
  8
図
  6
CONTINUOUS
 62
     6
100
AcDbVertex
100
AcDb2dVertex
 10
1452.324558837052
 20
1708.169674343214
 30
0.0
  0
VERTEX
  5
291
330
270
100
AcDbEntity
  8
図
  6
CONTINUOUS
 62
     6
100
AcDbVertex
100
AcDb2dVertex
 10
1452.131011502534
 20
1708.096545885772
 30
0.0
  0
VERTEX
  5
292
330
270
100
AcDbEntity
  8
図
  6
CONTINUOUS
 62
     6
100
AcDbVertex
100
AcDb2dVertex
 10
1451.93919585624
 20
1708.021823545177
 30
0.0
  0
VERTEX
  5
293
330
270
100
AcDbEntity
  8
図
  6
CONTINUOUS
 62
     6
100
AcDbVertex
100
AcDb2dVertex
 10
1451.778243767696
 20
1707.957198118593
 30
0.0
  0
VERTEX
  5
294
330
270
100
AcDbEntity
  8
図
  6
CONTINUOUS
 62
     6
100
AcDbVertex
100
AcDb2dVertex
 10
1451.618954473808
 20
1707.891231335229
 30
0.0
  0
VERTEX
  5
295
330
270
100
AcDbEntity
  8
図
  6
CONTINUOUS
 62
     6
100
AcDbVertex
100
AcDb2dVertex
 10
1451.461269864584
 20
1707.823665400511
 30
0.0
  0
VERTEX
  5
296
330
270
100
AcDbEntity
  8
図
  6
CONTINUOUS
 62
     6
100
AcDbVertex
100
AcDb2dVertex
 10
1451.30513183003
 20
1707.754242519867
 30
0.0
  0
VERTEX
  5
297
330
270
100
AcDbEntity
  8
図
  6
CONTINUOUS
 62
     6
100
AcDbVertex
100
AcDb2dVertex
 10
1451.150482260155
 20
1707.682704898726
 30
0.0
  0
VERTEX
  5
298
330
270
100
AcDbEntity
  8
図
  6
CONTINUOUS
 62
     6
100
AcDbVertex
100
AcDb2dVertex
 10
1450.997263044964
 20
1707.608794742515
 30
0.0
  0
VERTEX
  5
299
330
270
100
AcDbEntity
  8
図
  6
CONTINUOUS
 62
     6
100
AcDbVertex
100
AcDb2dVertex
 10
1450.845416074466
 20
1707.532254256661
 30
0.0
  0
VERTEX
  5
29A
330
270
100
AcDbEntity
  8
図
  6
CONTINUOUS
 62
     6
100
AcDbVertex
100
AcDb2dVertex
 10
1450.694883238667
 20
1707.452825646592
 30
0.0
  0
VERTEX
  5
29B
330
270
100
AcDbEntity
  8
図
  6
CONTINUOUS
 62
     6
100
AcDbVertex
100
AcDb2dVertex
 10
1450.545606427575
 20
1707.370251117737
 30
0.0
  0
VERTEX
  5
29C
330
270
100
AcDbEntity
  8
図
  6
CONTINUOUS
 62
     6
100
AcDbVertex
100
AcDb2dVertex
 10
1450.397527531197
 20
1707.284272875522
 30
0.0
  0
VERTEX
  5
29D
330
270
100
AcDbEntity
  8
図
  6
CONTINUOUS
 62
     6
100
AcDbVertex
100
AcDb2dVertex
 10
1450.25058843954
 20
1707.194633125376
 30
0.0
  0
VERTEX
  5
29E
330
270
100
AcDbEntity
  8
図
  6
CONTINUOUS
 62
     6
100
AcDbVertex
100
AcDb2dVertex
 10
1450.129970495024
 20
1707.11766406062
 30
0.0
  0
VERTEX
  5
29F
330
270
100
AcDbEntity
  8
図
  6
CONTINUOUS
 62
     6
100
AcDbVertex
100
AcDb2dVertex
 10
1450.010244216505
 20
1707.038351144278
 30
0.0
  0
VERTEX
  5
2A0
330
270
100
AcDbEntity
  8
図
  6
CONTINUOUS
 62
     6
100
AcDbVertex
100
AcDb2dVertex
 10
1449.891562083277
 20
1706.957028818561
 30
0.0
  0
VERTEX
  5
2A1
330
270
100
AcDbEntity
  8
図
  6
CONTINUOUS
 62
     6
100
AcDbVertex
100
AcDb2dVertex
 10
1449.774076574638
 20
1706.874031525679
 30
0.0
  0
VERTEX
  5
2A2
330
270
100
AcDbEntity
  8
図
  6
CONTINUOUS
 62
     6
100
AcDbVertex
100
AcDb2dVertex
 10
1449.657940169884
 20
1706.789693707845
 30
0.0
  0
VERTEX
  5
2A3
330
270
100
AcDbEntity
  8
図
  6
CONTINUOUS
 62
     6
100
AcDbVertex
100
AcDb2dVertex
 10
1449.543305348311
 20
1706.70434980727
 30
0.0
  0
VERTEX
  5
2A4
330
270
100
AcDbEntity
  8
図
  6
CONTINUOUS
 62
     6
100
AcDbVertex
100
AcDb2dVertex
 10
1449.430324589216
 20
1706.618334266165
 30
0.0
  0
VERTEX
  5
2A5
330
270
100
AcDbEntity
  8
図
  6
CONTINUOUS
 62
     6
100
AcDbVertex
100
AcDb2dVertex
 10
1449.319150371895
 20
1706.531981526742
 30
0.0
  0
VERTEX
  5
2A6
330
270
100
AcDbEntity
  8
図
  6
CONTINUOUS
 62
     6
100
AcDbVertex
100
AcDb2dVertex
 10
1449.209935175645
 20
1706.445626031213
 30
0.0
  0
VERTEX
  5
2A7
330
270
100
AcDbEntity
  8
図
  6
CONTINUOUS
 62
     6
100
AcDbVertex
100
AcDb2dVertex
 10
1449.102831479761
 20
1706.359602221786
 30
0.0
  0
VERTEX
  5
2A8
330
270
100
AcDbEntity
  8
図
  6
CONTINUOUS
 62
     6
100
AcDbVertex
100
AcDb2dVertex
 10
1448.99799176354
 20
1706.274244540677
 30
0.0
  0
VERTEX
  5
2A9
330
270
100
AcDbEntity
  8
図
  6
CONTINUOUS
 62
     6
100
AcDbVertex
100
AcDb2dVertex
 10
1448.915752965006
 20
1706.20632577278
 30
0.0
  0
VERTEX
  5
2AA
330
270
100
AcDbEntity
  8
図
  6
CONTINUOUS
 62
     6
100
AcDbVertex
100
AcDb2dVertex
 10
1448.835303167535
 20
1706.137824607403
 30
0.0
  0
VERTEX
  5
2AB
330
270
100
AcDbEntity
  8
図
  6
CONTINUOUS
 62
     6
100
AcDbVertex
100
AcDb2dVertex
 10
1448.756880039678
 20
1706.067516294927
 30
0.0
  0
VERTEX
  5
2AC
330
270
100
AcDbEntity
  8
図
  6
CONTINUOUS
 62
     6
100
AcDbVertex
100
AcDb2dVertex
 10
1448.680721249981
 20
1705.994176085728
 30
0.0
  0
VERTEX
  5
2AD
330
270
100
AcDbEntity
  8
図
  6
CONTINUOUS
 62
     6
100
AcDbVertex
100
AcDb2dVertex
 10
1448.607064466995
 20
1705.916579230186
 30
0.0
  0
VERTEX
  5
2AE
330
270
100
AcDbEntity
  8
図
  6
CONTINUOUS
 62
     6
100
AcDbVertex
100
AcDb2dVertex
 10
1448.536147359268
 20
1705.833500978677
 30
0.0
  0
VERTEX
  5
2AF
330
270
100
AcDbEntity
  8
図
  6
CONTINUOUS
 62
     6
100
AcDbVertex
100
AcDb2dVertex
 10
1448.46820759535
 20
1705.74371658158
 30
0.0
  0
VERTEX
  5
2B0
330
270
100
AcDbEntity
  8
図
  6
CONTINUOUS
 62
     6
100
AcDbVertex
100
AcDb2dVertex
 10
1448.403482843789
 20
1705.646001289274
 30
0.0
  0
VERTEX
  5
2B1
330
270
100
AcDbEntity
  8
図
  6
CONTINUOUS
 62
     6
100
AcDbVertex
100
AcDb2dVertex
 10
1448.342210773134
 20
1705.539130352136
 30
0.0
  0
VERTEX
  5
2B2
330
270
100
AcDbEntity
  8
図
  6
CONTINUOUS
 62
     6
100
AcDbVertex
100
AcDb2dVertex
 10
1448.284629051934
 20
1705.421879020544
 30
0.0
  0
VERTEX
  5
2B3
330
270
100
AcDbEntity
  8
図
  6
CONTINUOUS
 62
     6
100
AcDbVertex
100
AcDb2dVertex
 10
1448.230975348739
 20
1705.293022544877
 30
0.0
  0
VERTEX
  5
2B4
330
270
100
AcDbEntity
  8
図
  6
CONTINUOUS
 62
     6
100
AcDbVertex
100
AcDb2dVertex
 10
1448.189337524499
 20
1705.176272374651
 30
0.0
  0
VERTEX
  5
2B5
330
270
100
AcDbEntity
  8
図
  6
CONTINUOUS
 62
     6
100
AcDbVertex
100
AcDb2dVertex
 10
1448.150791885371
 20
1705.054059202098
 30
0.0
  0
VERTEX
  5
2B6
330
270
100
AcDbEntity
  8
図
  6
CONTINUOUS
 62
     6
100
AcDbVertex
100
AcDb2dVertex
 10
1448.115522442334
 20
1704.929876907379
 30
0.0
  0
VERTEX
  5
2B7
330
270
100
AcDbEntity
  8
図
  6
CONTINUOUS
 62
     6
100
AcDbVertex
100
AcDb2dVertex
 10
1448.083713206372
 20
1704.807219370654
 30
0.0
  0
VERTEX
  5
2B8
330
270
100
AcDbEntity
  8
図
  6
CONTINUOUS
 62
     6
100
AcDbVertex
100
AcDb2dVertex
 10
1448.055548188464
 20
1704.689580472083
 30
0.0
  0
VERTEX
  5
2B9
330
270
100
AcDbEntity
  8
図
  6
CONTINUOUS
 62
     6
100
AcDbVertex
100
AcDb2dVertex
 10
1448.031211399594
 20
1704.580454091827
 30
0.0
  0
VERTEX
  5
2BA
330
270
100
AcDbEntity
  8
図
  6
CONTINUOUS
 62
     6
100
AcDbVertex
100
AcDb2dVertex
 10
1448.010886850741
 20
1704.483334110046
 30
0.0
  0
VERTEX
  5
2BB
330
270
100
AcDbEntity
  8
図
  6
CONTINUOUS
 62
     6
100
AcDbVertex
100
AcDb2dVertex
 10
1447.994758552888
 20
1704.4017144069
 30
0.0
  0
VERTEX
  5
2BC
330
270
100
AcDbEntity
  8
図
  6
CONTINUOUS
 62
     6
100
AcDbVertex
100
AcDb2dVertex
 10
1447.983010517016
 20
1704.33908886255
 30
0.0
  0
VERTEX
  5
2BD
330
270
100
AcDbEntity
  8
図
  6
CONTINUOUS
 62
     6
100
AcDbVertex
100
AcDb2dVertex
 10
1447.975826754106
 20
1704.298951357156
 30
0.0
  0
VERTEX
  5
2BE
330
270
100
AcDbEntity
  8
図
  6
CONTINUOUS
 62
     6
100
AcDbVertex
100
AcDb2dVertex
 10
1447.97339127514
 20
1704.284795770877
 30
0.0
  0
SEQEND
  5
2BF
330
270
100
AcDbEntity
  8
図
  6
CONTINUOUS
 62
     6
  0
POLYLINE
  5
2C0
330
1F
100
AcDbEntity
  8
図
  6
CONTINUOUS
 62
     6
100
AcDb2dPolyline
 66
     1
 10
0.0
 20
0.0
 30
0.0
 70
   128
  0
VERTEX
  5
2C1
330
2C0
100
AcDbEntity
  8
図
  6
CONTINUOUS
 62
     6
100
AcDbVertex
100
AcDb2dVertex
 10
1481.996839464641
 20
1704.618880584277
 30
0.0
  0
VERTEX
  5
2C2
330
2C0
100
AcDbEntity
  8
図
  6
CONTINUOUS
 62
     6
100
AcDbVertex
100
AcDb2dVertex
 10
1481.994296905359
 20
1704.627920244953
 30
0.0
  0
VERTEX
  5
2C3
330
2C0
100
AcDbEntity
  8
図
  6
CONTINUOUS
 62
     6
100
AcDbVertex
100
AcDb2dVertex
 10
1481.98694283951
 20
1704.653628245689
 30
0.0
  0
VERTEX
  5
2C4
330
2C0
100
AcDbEntity
  8
図
  6
CONTINUOUS
 62
     6
100
AcDbVertex
100
AcDb2dVertex
 10
1481.975187685094
 20
1704.693888114544
 30
0.0
  0
VERTEX
  5
2C5
330
2C0
100
AcDbEntity
  8
図
  6
CONTINUOUS
 62
     6
100
AcDbVertex
100
AcDb2dVertex
 10
1481.959441860107
 20
1704.746583379577
 30
0.0
  0
VERTEX
  5
2C6
330
2C0
100
AcDbEntity
  8
図
  6
CONTINUOUS
 62
     6
100
AcDbVertex
100
AcDb2dVertex
 10
1481.940115782548
 20
1704.809597568851
 30
0.0
  0
VERTEX
  5
2C7
330
2C0
100
AcDbEntity
  8
図
  6
CONTINUOUS
 62
     6
100
AcDbVertex
100
AcDb2dVertex
 10
1481.917619870414
 20
1704.880814210424
 30
0.0
  0
VERTEX
  5
2C8
330
2C0
100
AcDbEntity
  8
図
  6
CONTINUOUS
 62
     6
100
AcDbVertex
100
AcDb2dVertex
 10
1481.892364541702
 20
1704.958116832355
 30
0.0
  0
VERTEX
  5
2C9
330
2C0
100
AcDbEntity
  8
図
  6
CONTINUOUS
 62
     6
100
AcDbVertex
100
AcDb2dVertex
 10
1481.864760214411
 20
1705.039388962706
 30
0.0
  0
VERTEX
  5
2CA
330
2C0
100
AcDbEntity
  8
図
  6
CONTINUOUS
 62
     6
100
AcDbVertex
100
AcDb2dVertex
 10
1481.835217306538
 20
1705.122514129537
 30
0.0
  0
VERTEX
  5
2CB
330
2C0
100
AcDbEntity
  8
図
  6
CONTINUOUS
 62
     6
100
AcDbVertex
100
AcDb2dVertex
 10
1481.804146236082
 20
1705.205375860907
 30
0.0
  0
VERTEX
  5
2CC
330
2C0
100
AcDbEntity
  8
図
  6
CONTINUOUS
 62
     6
100
AcDbVertex
100
AcDb2dVertex
 10
1481.771957421039
 20
1705.285857684877
 30
0.0
  0
VERTEX
  5
2CD
330
2C0
100
AcDbEntity
  8
図
  6
CONTINUOUS
 62
     6
100
AcDbVertex
100
AcDb2dVertex
 10
1481.71344368903
 20
1705.417484612586
 30
0.0
  0
VERTEX
  5
2CE
330
2C0
100
AcDbEntity
  8
図
  6
CONTINUOUS
 62
     6
100
AcDbVertex
100
AcDb2dVertex
 10
1481.652753080238
 20
1705.53652242338
 30
0.0
  0
VERTEX
  5
2CF
330
2C0
100
AcDbEntity
  8
図
  6
CONTINUOUS
 62
     6
100
AcDbVertex
100
AcDb2dVertex
 10
1481.589901626456
 20
1705.644322023226
 30
0.0
  0
VERTEX
  5
2D0
330
2C0
100
AcDbEntity
  8
図
  6
CONTINUOUS
 62
     6
100
AcDbVertex
100
AcDb2dVertex
 10
1481.52490535948
 20
1705.742234318091
 30
0.0
  0
VERTEX
  5
2D1
330
2C0
100
AcDbEntity
  8
図
  6
CONTINUOUS
 62
     6
100
AcDbVertex
100
AcDb2dVertex
 10
1481.457780311103
 20
1705.831610213941
 30
0.0
  0
VERTEX
  5
2D2
330
2C0
100
AcDbEntity
  8
図
  6
CONTINUOUS
 62
     6
100
AcDbVertex
100
AcDb2dVertex
 10
1481.388542513121
 20
1705.913800616743
 30
0.0
  0
VERTEX
  5
2D3
330
2C0
100
AcDbEntity
  8
図
  6
CONTINUOUS
 62
     6
100
AcDbVertex
100
AcDb2dVertex
 10
1481.317207997329
 20
1705.990156432465
 30
0.0
  0
VERTEX
  5
2D4
330
2C0
100
AcDbEntity
  8
図
  6
CONTINUOUS
 62
     6
100
AcDbVertex
100
AcDb2dVertex
 10
1481.243792795519
 20
1706.062028567072
 30
0.0
  0
VERTEX
  5
2D5
330
2C0
100
AcDbEntity
  8
図
  6
CONTINUOUS
 62
     6
100
AcDbVertex
100
AcDb2dVertex
 10
1481.168312939488
 20
1706.130767926532
 30
0.0
  0
VERTEX
  5
2D6
330
2C0
100
AcDbEntity
  8
図
  6
CONTINUOUS
 62
     6
100
AcDbVertex
100
AcDb2dVertex
 10
1481.09078446103
 20
1706.197725416812
 30
0.0
  0
VERTEX
  5
2D7
330
2C0
100
AcDbEntity
  8
図
  6
CONTINUOUS
 62
     6
100
AcDbVertex
100
AcDb2dVertex
 10
1481.011223391939
 20
1706.264251943877
 30
0.0
  0
VERTEX
  5
2D8
330
2C0
100
AcDbEntity
  8
図
  6
CONTINUOUS
 62
     6
100
AcDbVertex
100
AcDb2dVertex
 10
1480.908889823775
 20
1706.34842567375
 30
0.0
  0
VERTEX
  5
2D9
330
2C0
100
AcDbEntity
  8
図
  6
CONTINUOUS
 62
     6
100
AcDbVertex
100
AcDb2dVertex
 10
1480.803635806585
 20
1706.43365534694
 30
0.0
  0
VERTEX
  5
2DA
330
2C0
100
AcDbEntity
  8
図
  6
CONTINUOUS
 62
     6
100
AcDbVertex
100
AcDb2dVertex
 10
1480.695696762355
 20
1706.519557216231
 30
0.0
  0
VERTEX
  5
2DB
330
2C0
100
AcDbEntity
  8
図
  6
CONTINUOUS
 62
     6
100
AcDbVertex
100
AcDb2dVertex
 10
1480.585308113073
 20
1706.605747534407
 30
0.0
  0
VERTEX
  5
2DC
330
2C0
100
AcDbEntity
  8
図
  6
CONTINUOUS
 62
     6
100
AcDbVertex
100
AcDb2dVertex
 10
1480.472705280725
 20
1706.691842554252
 30
0.0
  0
VERTEX
  5
2DD
330
2C0
100
AcDbEntity
  8
図
  6
CONTINUOUS
 62
     6
100
AcDbVertex
100
AcDb2dVertex
 10
1480.3581236873
 20
1706.777458528551
 30
0.0
  0
VERTEX
  5
2DE
330
2C0
100
AcDbEntity
  8
図
  6
CONTINUOUS
 62
     6
100
AcDbVertex
100
AcDb2dVertex
 10
1480.241798754782
 20
1706.862211710086
 30
0.0
  0
VERTEX
  5
2DF
330
2C0
100
AcDbEntity
  8
図
  6
CONTINUOUS
 62
     6
100
AcDbVertex
100
AcDb2dVertex
 10
1480.123965905161
 20
1706.945718351642
 30
0.0
  0
VERTEX
  5
2E0
330
2C0
100
AcDbEntity
  8
図
  6
CONTINUOUS
 62
     6
100
AcDbVertex
100
AcDb2dVertex
 10
1480.004860560422
 20
1707.027594706003
 30
0.0
  0
VERTEX
  5
2E1
330
2C0
100
AcDbEntity
  8
図
  6
CONTINUOUS
 62
     6
100
AcDbVertex
100
AcDb2dVertex
 10
1479.884718142552
 20
1707.107457025953
 30
0.0
  0
VERTEX
  5
2E2
330
2C0
100
AcDbEntity
  8
図
  6
CONTINUOUS
 62
     6
100
AcDbVertex
100
AcDb2dVertex
 10
1479.76377407354
 20
1707.184921564276
 30
0.0
  0
VERTEX
  5
2E3
330
2C0
100
AcDbEntity
  8
図
  6
CONTINUOUS
 62
     6
100
AcDbVertex
100
AcDb2dVertex
 10
1479.616182752964
 20
1707.275314688951
 30
0.0
  0
VERTEX
  5
2E4
330
2C0
100
AcDbEntity
  8
図
  6
CONTINUOUS
 62
     6
100
AcDbVertex
100
AcDb2dVertex
 10
1479.467670557494
 20
1707.361888504993
 30
0.0
  0
VERTEX
  5
2E5
330
2C0
100
AcDbEntity
  8
図
  6
CONTINUOUS
 62
     6
100
AcDbVertex
100
AcDb2dVertex
 10
1479.318150466244
 20
1707.444919905718
 30
0.0
  0
VERTEX
  5
2E6
330
2C0
100
AcDbEntity
  8
図
  6
CONTINUOUS
 62
     6
100
AcDbVertex
100
AcDb2dVertex
 10
1479.167535458328
 20
1707.524685784441
 30
0.0
  0
VERTEX
  5
2E7
330
2C0
100
AcDbEntity
  8
図
  6
CONTINUOUS
 62
     6
100
AcDbVertex
100
AcDb2dVertex
 10
1479.01573851286
 20
1707.601463034478
 30
0.0
  0
VERTEX
  5
2E8
330
2C0
100
AcDbEntity
  8
図
  6
CONTINUOUS
 62
     6
100
AcDbVertex
100
AcDb2dVertex
 10
1478.862672608954
 20
1707.675528549144
 30
0.0
  0
VERTEX
  5
2E9
330
2C0
100
AcDbEntity
  8
図
  6
CONTINUOUS
 62
     6
100
AcDbVertex
100
AcDb2dVertex
 10
1478.708250725724
 20
1707.747159221757
 30
0.0
  0
VERTEX
  5
2EA
330
2C0
100
AcDbEntity
  8
図
  6
CONTINUOUS
 62
     6
100
AcDbVertex
100
AcDb2dVertex
 10
1478.552385842283
 20
1707.816631945631
 30
0.0
  0
VERTEX
  5
2EB
330
2C0
100
AcDbEntity
  8
図
  6
CONTINUOUS
 62
     6
100
AcDbVertex
100
AcDb2dVertex
 10
1478.394990937747
 20
1707.884223614082
 30
0.0
  0
VERTEX
  5
2EC
330
2C0
100
AcDbEntity
  8
図
  6
CONTINUOUS
 62
     6
100
AcDbVertex
100
AcDb2dVertex
 10
1478.235978991228
 20
1707.950211120425
 30
0.0
  0
VERTEX
  5
2ED
330
2C0
100
AcDbEntity
  8
図
  6
CONTINUOUS
 62
     6
100
AcDbVertex
100
AcDb2dVertex
 10
1478.075262981841
 20
1708.014871357977
 30
0.0
  0
VERTEX
  5
2EE
330
2C0
100
AcDbEntity
  8
図
  6
CONTINUOUS
 62
     6
100
AcDbVertex
100
AcDb2dVertex
 10
1477.882989549663
 20
1708.089923679987
 30
0.0
  0
VERTEX
  5
2EF
330
2C0
100
AcDbEntity
  8
図
  6
CONTINUOUS
 62
     6
100
AcDbVertex
100
AcDb2dVertex
 10
1477.688885542775
 20
1708.163411894421
 30
0.0
  0
VERTEX
  5
2F0
330
2C0
100
AcDbEntity
  8
図
  6
CONTINUOUS
 62
     6
100
AcDbVertex
100
AcDb2dVertex
 10
1477.493626039555
 20
1708.235241326135
 30
0.0
  0
VERTEX
  5
2F1
330
2C0
100
AcDbEntity
  8
図
  6
CONTINUOUS
 62
     6
100
AcDbVertex
100
AcDb2dVertex
 10
1477.297886118383
 20
1708.305317299984
 30
0.0
  0
VERTEX
  5
2F2
330
2C0
100
AcDbEntity
  8
図
  6
CONTINUOUS
 62
     6
100
AcDbVertex
100
AcDb2dVertex
 10
1477.102340857636
 20
1708.373545140823
 30
0.0
  0
VERTEX
  5
2F3
330
2C0
100
AcDbEntity
  8
図
  6
CONTINUOUS
 62
     6
100
AcDbVertex
100
AcDb2dVertex
 10
1476.907665335695
 20
1708.439830173509
 30
0.0
  0
VERTEX
  5
2F4
330
2C0
100
AcDbEntity
  8
図
  6
CONTINUOUS
 62
     6
100
AcDbVertex
100
AcDb2dVertex
 10
1476.714534630939
 20
1708.504077722896
 30
0.0
  0
VERTEX
  5
2F5
330
2C0
100
AcDbEntity
  8
図
  6
CONTINUOUS
 62
     6
100
AcDbVertex
100
AcDb2dVertex
 10
1476.523623821746
 20
1708.566193113842
 30
0.0
  0
VERTEX
  5
2F6
330
2C0
100
AcDbEntity
  8
図
  6
CONTINUOUS
 62
     6
100
AcDbVertex
100
AcDb2dVertex
 10
1476.335607986497
 20
1708.626081671199
 30
0.0
  0
VERTEX
  5
2F7
330
2C0
100
AcDbEntity
  8
図
  6
CONTINUOUS
 62
     6
100
AcDbVertex
100
AcDb2dVertex
 10
1476.151162203568
 20
1708.683648719826
 30
0.0
  0
VERTEX
  5
2F8
330
2C0
100
AcDbEntity
  8
図
  6
CONTINUOUS
 62
     6
100
AcDbVertex
100
AcDb2dVertex
 10
1475.970961551341
 20
1708.738799584577
 30
0.0
  0
VERTEX
  5
2F9
330
2C0
100
AcDbEntity
  8
図
  6
CONTINUOUS
 62
     6
100
AcDbVertex
100
AcDb2dVertex
 10
1475.772776663877
 20
1708.798167772328
 30
0.0
  0
VERTEX
  5
2FA
330
2C0
100
AcDbEntity
  8
図
  6
CONTINUOUS
 62
     6
100
AcDbVertex
100
AcDb2dVertex
 10
1475.578100549243
 20
1708.854836562208
 30
0.0
  0
VERTEX
  5
2FB
330
2C0
100
AcDbEntity
  8
図
  6
CONTINUOUS
 62
     6
100
AcDbVertex
100
AcDb2dVertex
 10
1475.384166391565
 20
1708.909309086612
 30
0.0
  0
VERTEX
  5
2FC
330
2C0
100
AcDbEntity
  8
図
  6
CONTINUOUS
 62
     6
100
AcDbVertex
100
AcDb2dVertex
 10
1475.18820737497
 20
1708.962088477936
 30
0.0
  0
VERTEX
  5
2FD
330
2C0
100
AcDbEntity
  8
図
  6
CONTINUOUS
 62
     6
100
AcDbVertex
100
AcDb2dVertex
 10
1474.987456683586
 20
1709.013677868575
 30
0.0
  0
VERTEX
  5
2FE
330
2C0
100
AcDbEntity
  8
図
  6
CONTINUOUS
 62
     6
100
AcDbVertex
100
AcDb2dVertex
 10
1474.779147501541
 20
1709.064580390924
 30
0.0
  0
VERTEX
  5
2FF
330
2C0
100
AcDbEntity
  8
図
  6
CONTINUOUS
 62
     6
100
AcDbVertex
100
AcDb2dVertex
 10
1474.56051301296
 20
1709.11529917738
 30
0.0
  0
VERTEX
  5
300
330
2C0
100
AcDbEntity
  8
図
  6
CONTINUOUS
 62
     6
100
AcDbVertex
100
AcDb2dVertex
 10
1474.328786401973
 20
1709.166337360337
 30
0.0
  0
VERTEX
  5
301
330
2C0
100
AcDbEntity
  8
図
  6
CONTINUOUS
 62
     6
100
AcDbVertex
100
AcDb2dVertex
 10
1474.081200852705
 20
1709.218198072193
 30
0.0
  0
VERTEX
  5
302
330
2C0
100
AcDbEntity
  8
図
  6
CONTINUOUS
 62
     6
100
AcDbVertex
100
AcDb2dVertex
 10
1473.814989549285
 20
1709.271384445341
 30
0.0
  0
VERTEX
  5
303
330
2C0
100
AcDbEntity
  8
図
  6
CONTINUOUS
 62
     6
100
AcDbVertex
100
AcDb2dVertex
 10
1473.52738567584
 20
1709.326399612177
 30
0.0
  0
VERTEX
  5
304
330
2C0
100
AcDbEntity
  8
図
  6
CONTINUOUS
 62
     6
100
AcDbVertex
100
AcDb2dVertex
 10
1473.351897356352
 20
1709.358957764246
 30
0.0
  0
VERTEX
  5
305
330
2C0
100
AcDbEntity
  8
図
  6
CONTINUOUS
 62
     6
100
AcDbVertex
100
AcDb2dVertex
 10
1473.17270849298
 20
1709.391614214464
 30
0.0
  0
VERTEX
  5
306
330
2C0
100
AcDbEntity
  8
図
  6
CONTINUOUS
 62
     6
100
AcDbVertex
100
AcDb2dVertex
 10
1472.994120303722
 20
1709.423694910337
 30
0.0
  0
VERTEX
  5
307
330
2C0
100
AcDbEntity
  8
図
  6
CONTINUOUS
 62
     6
100
AcDbVertex
100
AcDb2dVertex
 10
1472.820434006578
 20
1709.454525799372
 30
0.0
  0
VERTEX
  5
308
330
2C0
100
AcDbEntity
  8
図
  6
CONTINUOUS
 62
     6
100
AcDbVertex
100
AcDb2dVertex
 10
1472.655950819546
 20
1709.483432829072
 30
0.0
  0
VERTEX
  5
309
330
2C0
100
AcDbEntity
  8
図
  6
CONTINUOUS
 62
     6
100
AcDbVertex
100
AcDb2dVertex
 10
1472.504971960625
 20
1709.509741946943
 30
0.0
  0
VERTEX
  5
30A
330
2C0
100
AcDbEntity
  8
図
  6
CONTINUOUS
 62
     6
100
AcDbVertex
100
AcDb2dVertex
 10
1472.371798647814
 20
1709.532779100493
 30
0.0
  0
VERTEX
  5
30B
330
2C0
100
AcDbEntity
  8
図
  6
CONTINUOUS
 62
     6
100
AcDbVertex
100
AcDb2dVertex
 10
1472.260732099111
 20
1709.551870237225
 30
0.0
  0
VERTEX
  5
30C
330
2C0
100
AcDbEntity
  8
図
  6
CONTINUOUS
 62
     6
100
AcDbVertex
100
AcDb2dVertex
 10
1472.176073532516
 20
1709.566341304646
 30
0.0
  0
VERTEX
  5
30D
330
2C0
100
AcDbEntity
  8
図
  6
CONTINUOUS
 62
     6
100
AcDbVertex
100
AcDb2dVertex
 10
1472.122124166026
 20
1709.575518250261
 30
0.0
  0
VERTEX
  5
30E
330
2C0
100
AcDbEntity
  8
図
  6
CONTINUOUS
 62
     6
100
AcDbVertex
100
AcDb2dVertex
 10
1472.103185217641
 20
1709.578727021576
 30
0.0
  0
SEQEND
  5
30F
330
2C0
100
AcDbEntity
  8
図
  6
CONTINUOUS
 62
     6
  0
POLYLINE
  5
310
330
1F
100
AcDbEntity
  8
図
  6
CONTINUOUS
 62
     6
100
AcDb2dPolyline
 66
     1
 10
0.0
 20
0.0
 30
0.0
 70
   128
  0
VERTEX
  5
311
330
310
100
AcDbEntity
  8
図
  6
CONTINUOUS
 62
     6
100
AcDbVertex
100
AcDb2dVertex
 10
1448.00450657444
 20
1704.467916100287
 30
0.0
  0
VERTEX
  5
312
330
310
100
AcDbEntity
  8
図
  6
CONTINUOUS
 62
     6
100
AcDbVertex
100
AcDb2dVertex
 10
1448.006189337053
 20
1704.459561627898
 30
0.0
  0
SEQEND
  5
313
330
310
100
AcDbEntity
  8
図
  6
CONTINUOUS
 62
     6
  0
POLYLINE
  5
314
330
1F
100
AcDbEntity
  8
図
  6
CONTINUOUS
 62
     6
100
AcDb2dPolyline
 66
     1
 10
0.0
 20
0.0
 30
0.0
 70
   128
  0
VERTEX
  5
315
330
314
100
AcDbEntity
  8
図
  6
CONTINUOUS
 62
     6
100
AcDbVertex
100
AcDb2dVertex
 10
1482.02659884544
 20
1704.823985730987
 30
0.0
  0
VERTEX
  5
316
330
314
100
AcDbEntity
  8
図
  6
CONTINUOUS
 62
     6
100
AcDbVertex
100
AcDb2dVertex
 10
1481.996839464641
 20
1705.158103813387
 30
0.0
  0
SEQEND
  5
317
330
314
100
AcDbEntity
  8
図
  6
CONTINUOUS
 62
     6
  0
POLYLINE
  5
318
330
1F
100
AcDbEntity
  8
図
  6
CONTINUOUS
 62
     6
100
AcDb2dPolyline
 66
     1
 10
0.0
 20
0.0
 30
0.0
 70
   128
  0
VERTEX
  5
319
330
318
100
AcDbEntity
  8
図
  6
CONTINUOUS
 62
     6
100
AcDbVertex
100
AcDb2dVertex
 10
1482.014184102151
 20
1704.637020128359
 30
0.0
  0
VERTEX
  5
31A
330
318
100
AcDbEntity
  8
図
  6
CONTINUOUS
 62
     6
100
AcDbVertex
100
AcDb2dVertex
 10
1482.02336973564
 20
1704.720338752387
 30
0.0
  0
SEQEND
  5
31B
330
318
100
AcDbEntity
  8
図
  6
CONTINUOUS
 62
     6
  0
POLYLINE
  5
31C
330
1F
100
AcDbEntity
  8
図
  6
CONTINUOUS
 62
     6
100
AcDb2dPolyline
 66
     1
 10
0.0
 20
0.0
 30
0.0
 70
   128
  0
VERTEX
  5
31D
330
31C
100
AcDbEntity
  8
図
  6
CONTINUOUS
 62
     6
100
AcDbVertex
100
AcDb2dVertex
 10
1472.103185217641
 20
1709.578727021576
 30
0.0
  0
VERTEX
  5
31E
330
31C
100
AcDbEntity
  8
図
  6
CONTINUOUS
 62
     6
100
AcDbVertex
100
AcDb2dVertex
 10
1472.086489854665
 20
1709.581173206834
 30
0.0
  0
VERTEX
  5
31F
330
31C
100
AcDbEntity
  8
図
  6
CONTINUOUS
 62
     6
100
AcDbVertex
100
AcDb2dVertex
 10
1472.038852738112
 20
1709.58812777206
 30
0.0
  0
VERTEX
  5
320
330
31C
100
AcDbEntity
  8
図
  6
CONTINUOUS
 62
     6
100
AcDbVertex
100
AcDb2dVertex
 10
1471.963947326537
 20
1709.599014731429
 30
0.0
  0
VERTEX
  5
321
330
31C
100
AcDbEntity
  8
図
  6
CONTINUOUS
 62
     6
100
AcDbVertex
100
AcDb2dVertex
 10
1471.865447078497
 20
1709.61325809912
 30
0.0
  0
VERTEX
  5
322
330
31C
100
AcDbEntity
  8
図
  6
CONTINUOUS
 62
     6
100
AcDbVertex
100
AcDb2dVertex
 10
1471.747025452551
 20
1709.630281889308
 30
0.0
  0
VERTEX
  5
323
330
31C
100
AcDbEntity
  8
図
  6
CONTINUOUS
 62
     6
100
AcDbVertex
100
AcDb2dVertex
 10
1471.612355907255
 20
1709.64951011617
 30
0.0
  0
VERTEX
  5
324
330
31C
100
AcDbEntity
  8
図
  6
CONTINUOUS
 62
     6
100
AcDbVertex
100
AcDb2dVertex
 10
1471.465111901167
 20
1709.670366793883
 30
0.0
  0
VERTEX
  5
325
330
31C
100
AcDbEntity
  8
図
  6
CONTINUOUS
 62
     6
100
AcDbVertex
100
AcDb2dVertex
 10
1471.308966892845
 20
1709.692275936623
 30
0.0
  0
VERTEX
  5
326
330
31C
100
AcDbEntity
  8
図
  6
CONTINUOUS
 62
     6
100
AcDbVertex
100
AcDb2dVertex
 10
1471.147594340844
 20
1709.714661558568
 30
0.0
  0
VERTEX
  5
327
330
31C
100
AcDbEntity
  8
図
  6
CONTINUOUS
 62
     6
100
AcDbVertex
100
AcDb2dVertex
 10
1470.984667703723
 20
1709.736947673894
 30
0.0
  0
VERTEX
  5
328
330
31C
100
AcDbEntity
  8
図
  6
CONTINUOUS
 62
     6
100
AcDbVertex
100
AcDb2dVertex
 10
1470.823860440039
 20
1709.758558296777
 30
0.0
  0
VERTEX
  5
329
330
31C
100
AcDbEntity
  8
図
  6
CONTINUOUS
 62
     6
100
AcDbVertex
100
AcDb2dVertex
 10
1470.483025714738
 20
1709.802698574303
 30
0.0
  0
VERTEX
  5
32A
330
31C
100
AcDbEntity
  8
図
  6
CONTINUOUS
 62
     6
100
AcDbVertex
100
AcDb2dVertex
 10
1470.167907643643
 20
1709.841129347124
 30
0.0
  0
VERTEX
  5
32B
330
31C
100
AcDbEntity
  8
図
  6
CONTINUOUS
 62
     6
100
AcDbVertex
100
AcDb2dVertex
 10
1469.875205608425
 20
1709.874409976255
 30
0.0
  0
VERTEX
  5
32C
330
31C
100
AcDbEntity
  8
図
  6
CONTINUOUS
 62
     6
100
AcDbVertex
100
AcDb2dVertex
 10
1469.601618990755
 20
1709.903099822712
 30
0.0
  0
VERTEX
  5
32D
330
31C
100
AcDbEntity
  8
図
  6
CONTINUOUS
 62
     6
100
AcDbVertex
100
AcDb2dVertex
 10
1469.343847172303
 20
1709.927758247509
 30
0.0
  0
VERTEX
  5
32E
330
31C
100
AcDbEntity
  8
図
  6
CONTINUOUS
 62
     6
100
AcDbVertex
100
AcDb2dVertex
 10
1469.098589534741
 20
1709.948944611661
 30
0.0
  0
VERTEX
  5
32F
330
31C
100
AcDbEntity
  8
図
  6
CONTINUOUS
 62
     6
100
AcDbVertex
100
AcDb2dVertex
 10
1468.862545459739
 20
1709.967218276183
 30
0.0
  0
VERTEX
  5
330
330
31C
100
AcDbEntity
  8
図
  6
CONTINUOUS
 62
     6
100
AcDbVertex
100
AcDb2dVertex
 10
1468.632414328967
 20
1709.983138602091
 30
0.0
  0
VERTEX
  5
331
330
31C
100
AcDbEntity
  8
図
  6
CONTINUOUS
 62
     6
100
AcDbVertex
100
AcDb2dVertex
 10
1468.404895524096
 20
1709.9972649504
 30
0.0
  0
VERTEX
  5
332
330
31C
100
AcDbEntity
  8
図
  6
CONTINUOUS
 62
     6
100
AcDbVertex
100
AcDb2dVertex
 10
1468.176688426797
 20
1710.010156682123
 30
0.0
  0
VERTEX
  5
333
330
31C
100
AcDbEntity
  8
図
  6
CONTINUOUS
 62
     6
100
AcDbVertex
100
AcDb2dVertex
 10
1467.94449241874
 20
1710.022373158277
 30
0.0
  0
VERTEX
  5
334
330
31C
100
AcDbEntity
  8
図
  6
CONTINUOUS
 62
     6
100
AcDbVertex
100
AcDb2dVertex
 10
1467.699304417298
 20
1710.03466334492
 30
0.0
  0
VERTEX
  5
335
330
31C
100
AcDbEntity
  8
図
  6
CONTINUOUS
 62
     6
100
AcDbVertex
100
AcDb2dVertex
 10
1467.447136096276
 20
1710.046647126464
 30
0.0
  0
VERTEX
  5
336
330
31C
100
AcDbEntity
  8
図
  6
CONTINUOUS
 62
     6
100
AcDbVertex
100
AcDb2dVertex
 10
1467.188684293824
 20
1710.058140155183
 30
0.0
  0
VERTEX
  5
337
330
31C
100
AcDbEntity
  8
図
  6
CONTINUOUS
 62
     6
100
AcDbVertex
100
AcDb2dVertex
 10
1466.924645848087
 20
1710.068958083351
 30
0.0
  0
VERTEX
  5
338
330
31C
100
AcDbEntity
  8
図
  6
CONTINUOUS
 62
     6
100
AcDbVertex
100
AcDb2dVertex
 10
1466.655717597217
 20
1710.078916563244
 30
0.0
  0
VERTEX
  5
339
330
31C
100
AcDbEntity
  8
図
  6
CONTINUOUS
 62
     6
100
AcDbVertex
100
AcDb2dVertex
 10
1466.382596379358
 20
1710.087831247135
 30
0.0
  0
VERTEX
  5
33A
330
31C
100
AcDbEntity
  8
図
  6
CONTINUOUS
 62
     6
100
AcDbVertex
100
AcDb2dVertex
 10
1466.105979032661
 20
1710.0955177873
 30
0.0
  0
VERTEX
  5
33B
330
31C
100
AcDbEntity
  8
図
  6
CONTINUOUS
 62
     6
100
AcDbVertex
100
AcDb2dVertex
 10
1465.826562395273
 20
1710.101791836012
 30
0.0
  0
VERTEX
  5
33C
330
31C
100
AcDbEntity
  8
図
  6
CONTINUOUS
 62
     6
100
AcDbVertex
100
AcDb2dVertex
 10
1465.545043305341
 20
1710.106469045545
 30
0.0
  0
VERTEX
  5
33D
330
31C
100
AcDbEntity
  8
図
  6
CONTINUOUS
 62
     6
100
AcDbVertex
100
AcDb2dVertex
 10
1465.262118601014
 20
1710.109365068175
 30
0.0
  0
VERTEX
  5
33E
330
31C
100
AcDbEntity
  8
図
  6
CONTINUOUS
 62
     6
100
AcDbVertex
100
AcDb2dVertex
 10
1464.978485120441
 20
1710.110295556176
 30
0.0
  0
VERTEX
  5
33F
330
31C
100
AcDbEntity
  8
図
  6
CONTINUOUS
 62
     6
100
AcDbVertex
100
AcDb2dVertex
 10
1464.695267774422
 20
1710.109141023869
 30
0.0
  0
VERTEX
  5
340
330
31C
100
AcDbEntity
  8
図
  6
CONTINUOUS
 62
     6
100
AcDbVertex
100
AcDb2dVertex
 10
1464.412741114341
 20
1710.106027472802
 30
0.0
  0
VERTEX
  5
341
330
31C
100
AcDbEntity
  8
図
  6
CONTINUOUS
 62
     6
100
AcDbVertex
100
AcDb2dVertex
 10
1464.131607728325
 20
1710.101139299622
 30
0.0
  0
VERTEX
  5
342
330
31C
100
AcDbEntity
  8
図
  6
CONTINUOUS
 62
     6
100
AcDbVertex
100
AcDb2dVertex
 10
1463.8525702045
 20
1710.094660900979
 30
0.0
  0
VERTEX
  5
343
330
31C
100
AcDbEntity
  8
図
  6
CONTINUOUS
 62
     6
100
AcDbVertex
100
AcDb2dVertex
 10
1463.576331130994
 20
1710.08677667352
 30
0.0
  0
VERTEX
  5
344
330
31C
100
AcDbEntity
  8
図
  6
CONTINUOUS
 62
     6
100
AcDbVertex
100
AcDb2dVertex
 10
1463.303593095933
 20
1710.077671013896
 30
0.0
  0
VERTEX
  5
345
330
31C
100
AcDbEntity
  8
図
  6
CONTINUOUS
 62
     6
100
AcDbVertex
100
AcDb2dVertex
 10
1463.035058687444
 20
1710.067528318753
 30
0.0
  0
VERTEX
  5
346
330
31C
100
AcDbEntity
  8
図
  6
CONTINUOUS
 62
     6
100
AcDbVertex
100
AcDb2dVertex
 10
1462.771430493653
 20
1710.056532984741
 30
0.0
  0
VERTEX
  5
347
330
31C
100
AcDbEntity
  8
図
  6
CONTINUOUS
 62
     6
100
AcDbVertex
100
AcDb2dVertex
 10
1462.513411102688
 20
1710.044869408509
 30
0.0
  0
VERTEX
  5
348
330
31C
100
AcDbEntity
  8
図
  6
CONTINUOUS
 62
     6
100
AcDbVertex
100
AcDb2dVertex
 10
1462.261703102674
 20
1710.032721986704
 30
0.0
  0
VERTEX
  5
349
330
31C
100
AcDbEntity
  8
図
  6
CONTINUOUS
 62
     6
100
AcDbVertex
100
AcDb2dVertex
 10
1462.01700908174
 20
1710.020275115977
 30
0.0
  0
VERTEX
  5
34A
330
31C
100
AcDbEntity
  8
図
  6
CONTINUOUS
 62
     6
100
AcDbVertex
100
AcDb2dVertex
 10
1461.78598948081
 20
1710.007948458031
 30
0.0
  0
VERTEX
  5
34B
330
31C
100
AcDbEntity
  8
図
  6
CONTINUOUS
 62
     6
100
AcDbVertex
100
AcDb2dVertex
 10
1461.558954549022
 20
1709.994954538033
 30
0.0
  0
VERTEX
  5
34C
330
31C
100
AcDbEntity
  8
図
  6
CONTINUOUS
 62
     6
100
AcDbVertex
100
AcDb2dVertex
 10
1461.332604331941
 20
1709.98073470602
 30
0.0
  0
VERTEX
  5
34D
330
31C
100
AcDbEntity
  8
図
  6
CONTINUOUS
 62
     6
100
AcDbVertex
100
AcDb2dVertex
 10
1461.103638875128
 20
1709.964730312033
 30
0.0
  0
VERTEX
  5
34E
330
31C
100
AcDbEntity
  8
図
  6
CONTINUOUS
 62
     6
100
AcDbVertex
100
AcDb2dVertex
 10
1460.868758224146
 20
1709.946382706112
 30
0.0
  0
VERTEX
  5
34F
330
31C
100
AcDbEntity
  8
図
  6
CONTINUOUS
 62
     6
100
AcDbVertex
100
AcDb2dVertex
 10
1460.624662424559
 20
1709.925133238296
 30
0.0
  0
VERTEX
  5
350
330
31C
100
AcDbEntity
  8
図
  6
CONTINUOUS
 62
     6
100
AcDbVertex
100
AcDb2dVertex
 10
1460.368051521929
 20
1709.900423258625
 30
0.0
  0
VERTEX
  5
351
330
31C
100
AcDbEntity
  8
図
  6
CONTINUOUS
 62
     6
100
AcDbVertex
100
AcDb2dVertex
 10
1460.095625561819
 20
1709.871694117138
 30
0.0
  0
VERTEX
  5
352
330
31C
100
AcDbEntity
  8
図
  6
CONTINUOUS
 62
     6
100
AcDbVertex
100
AcDb2dVertex
 10
1459.804084589792
 20
1709.838387163874
 30
0.0
  0
VERTEX
  5
353
330
31C
100
AcDbEntity
  8
図
  6
CONTINUOUS
 62
     6
100
AcDbVertex
100
AcDb2dVertex
 10
1459.490128651411
 20
1709.799943748874
 30
0.0
  0
VERTEX
  5
354
330
31C
100
AcDbEntity
  8
図
  6
CONTINUOUS
 62
     6
100
AcDbVertex
100
AcDb2dVertex
 10
1459.150457792239
 20
1709.755805222177
 30
0.0
  0
VERTEX
  5
355
330
31C
100
AcDbEntity
  8
図
  6
CONTINUOUS
 62
     6
100
AcDbVertex
100
AcDb2dVertex
 10
1458.992731859729
 20
1709.734548842241
 30
0.0
  0
VERTEX
  5
356
330
31C
100
AcDbEntity
  8
図
  6
CONTINUOUS
 62
     6
100
AcDbVertex
100
AcDb2dVertex
 10
1458.832985125328
 20
1709.712645757341
 30
0.0
  0
VERTEX
  5
357
330
31C
100
AcDbEntity
  8
図
  6
CONTINUOUS
 62
     6
100
AcDbVertex
100
AcDb2dVertex
 10
1458.674808445605
 20
1709.690658779157
 30
0.0
  0
VERTEX
  5
358
330
31C
100
AcDbEntity
  8
図
  6
CONTINUOUS
 62
     6
100
AcDbVertex
100
AcDb2dVertex
 10
1458.521792677129
 20
1709.66915071937
 30
0.0
  0
VERTEX
  5
359
330
31C
100
AcDbEntity
  8
図
  6
CONTINUOUS
 62
     6
100
AcDbVertex
100
AcDb2dVertex
 10
1458.37752867647
 20
1709.648684389658
 30
0.0
  0
VERTEX
  5
35A
330
31C
100
AcDbEntity
  8
図
  6
CONTINUOUS
 62
     6
100
AcDbVertex
100
AcDb2dVertex
 10
1458.245607300196
 20
1709.629822601703
 30
0.0
  0
VERTEX
  5
35B
330
31C
100
AcDbEntity
  8
図
  6
CONTINUOUS
 62
     6
100
AcDbVertex
100
AcDb2dVertex
 10
1458.129619404878
 20
1709.613128167185
 30
0.0
  0
VERTEX
  5
35C
330
31C
100
AcDbEntity
  8
図
  6
CONTINUOUS
 62
     6
100
AcDbVertex
100
AcDb2dVertex
 10
1458.033155847084
 20
1709.599163897783
 30
0.0
  0
VERTEX
  5
35D
330
31C
100
AcDbEntity
  8
図
  6
CONTINUOUS
 62
     6
100
AcDbVertex
100
AcDb2dVertex
 10
1457.959807483383
 20
1709.588492605177
 30
0.0
  0
VERTEX
  5
35E
330
31C
100
AcDbEntity
  8
図
  6
CONTINUOUS
 62
     6
100
AcDbVertex
100
AcDb2dVertex
 10
1457.913165170345
 20
1709.581677101048
 30
0.0
  0
VERTEX
  5
35F
330
31C
100
AcDbEntity
  8
図
  6
CONTINUOUS
 62
     6
100
AcDbVertex
100
AcDb2dVertex
 10
1457.896819764539
 20
1709.579280197077
 30
0.0
  0
SEQEND
  5
360
330
31C
100
AcDbEntity
  8
図
  6
CONTINUOUS
 62
     6
  0
ELLIPSE
  5
361
330
1F
100
AcDbEntity
  8
図
  6
CONTINUOUS
 62
     6
100
AcDbEllipse
 10
1464.99999999999
 20
1731.20567555089
 30
0.0
 11
15.50000000000001
 21
0.0
 31
0.0
210
0.0
220
0.0
230
1.0
 40
0.3393452199341943
 41
0.0
 42
3.141592653589793
  0
LINE
  5
362
330
1F
100
AcDbEntity
  8
図
  6
CONTINUOUS
 62
     6
100
AcDbLine
 10
1448.004748081205
 20
1704.282983113799
 30
0.0
 11
1442.785718761365
 21
1614.0
 31
0.0
  0
LINE
  5
363
330
1F
100
AcDbEntity
  8
図
  6
CONTINUOUS
 62
     6
100
AcDbLine
 10
1487.214281294535
 20
1614.0
 30
0.0
 11
1482.014404164606
 21
1703.951672903669
 31
0.0
  0
LINE
  5
364
330
1F
100
AcDbEntity
  8
図
  6
EXLTYPE3
 62
     6
100
AcDbLine
 10
903.0000000000001
 20
1192.0
 30
0.0
 11
576.9999999999987
 21
914.0
 31
0.0
  0
LINE
  5
365
330
1F
100
AcDbEntity
  8
図
  6
EXLTYPE3
 62
     6
100
AcDbLine
 10
576.9999999999987
 20
1470.0
 30
0.0
 11
903.0000000000001
 21
1192.0
 31
0.0
  0
DIMENSION
  5
367
330
1F
100
AcDbEntity
  8
寸法
  6
CONTINUOUS
 62
     3
100
AcDbDimension
  2
*D15
 10
914.998900208999
 20
1754.0
 30
0.0
 11
739.9999999999986
 21
1777.499999940395
 31
0.0
 70
   160
  1
355
  3
ISO-25
100
AcDbAlignedDimension
 13
565.0010997909982
 23
1610.0937929606
 33
0.0
 14
914.998900208999
 24
1610.0937929606
 34
0.0
100
AcDbRotatedDimension
1001
ACAD
1000
DSTYLE
1002
{
1070
   270
1070
     2
1070
     6
1000
EX_NORM
1070
     7
1000
EX_NORM
1070
    41
1040
30.0
1070
    42
1040
6.99999988079071
1070
    44
1040
10.0
1070
    73
1070
     0
1070
    74
1070
     0
1070
    75
1070
     0
1070
    76
1070
     0
1070
    77
1070
     1
1070
    78
1070
     8
1070
   140
1040
40.0
1070
   147
1040
0.0
1070
   173
1070
     1
1070
   176
1070
     3
1070
   177
1070
     3
1070
   178
1070
     2
1070
   271
1070
     2
1070
   277
1070
     2
1070
   279
1070
     2
1070
   280
1070
     0
1070
   287
1070
     5
1070
   340
1005
366
1002
}
  0
DIMENSION
  5
375
330
1F
100
AcDbEntity
  8
寸法
  6
CONTINUOUS
 62
     3
100
AcDbDimension
  2
*D16
 10
984.9999999999989
 20
1614.0
 30
0.0
 11
961.5000000596036
 21
1204.0
 31
0.0
 70
   160
  1
820
  3
ISO-25
100
AcDbAlignedDimension
 13
904.9999999999989
 23
794.0
 33
0.0
 14
910.999999999998
 24
1614.0
 34
0.0
 50
90.0
100
AcDbRotatedDimension
1001
ACAD
1000
DSTYLE
1002
{
1070
   270
1070
     2
1070
     6
1000
EX_NORM
1070
     7
1000
EX_NORM
1070
    41
1040
30.0
1070
    42
1040
5.0
1070
    44
1040
10.0
1070
    73
1070
     0
1070
    74
1070
     0
1070
    75
1070
     0
1070
    76
1070
     0
1070
    77
1070
     1
1070
    78
1070
     8
1070
   140
1040
40.0
1070
   147
1040
0.0
1070
   173
1070
     1
1070
   176
1070
     3
1070
   177
1070
     3
1070
   178
1070
     2
1070
   271
1070
     2
1070
   277
1070
     2
1070
   279
1070
     2
1070
   280
1070
     0
1070
   287
1070
     5
1070
   340
1005
366
1002
}
  0
DIMENSION
  5
382
330
1F
100
AcDbEntity
  8
寸法
  6
CONTINUOUS
 62
     3
100
AcDbDimension
  2
*D17
 10
1054.999999999999
 20
1674.0
 30
0.0
 11
1031.500000059604
 21
1234.0
 31
0.0
 70
   160
  1
880
  3
ISO-25
100
AcDbAlignedDimension
 13
904.9999999999989
 23
794.0
 33
0.0
 14
909.5927186619986
 24
1674.0
 34
0.0
 50
90.0
100
AcDbRotatedDimension
1001
ACAD
1000
DSTYLE
1002
{
1070
   270
1070
     2
1070
     6
1000
EX_NORM
1070
     7
1000
EX_NORM
1070
    41
1040
30.0
1070
    42
1040
5.0
1070
    44
1040
10.0
1070
    73
1070
     0
1070
    74
1070
     0
1070
    75
1070
     0
1070
    76
1070
     0
1070
    77
1070
     1
1070
    78
1070
     8
1070
   140
1040
40.0
1070
   147
1040
0.0
1070
   173
1070
     1
1070
   176
1070
     3
1070
   177
1070
     3
1070
   178
1070
     2
1070
   271
1070
     2
1070
   277
1070
     2
1070
   279
1070
     2
1070
   280
1070
     0
1070
   287
1070
     5
1070
   340
1005
366
1002
}
  0
DIMENSION
  5
38F
330
1F
100
AcDbEntity
  8
寸法
  6
CONTINUOUS
 62
     3
100
AcDbDimension
  2
*D18
 10
740.0
 20
1115.0
 30
0.0
 11
401.0000000000002
 21
1138.5
 31
0.0
 70
   160
  1
75±10（壁排水）
  3
ISO-25
100
AcDbAlignedDimension
 13
665.0
 23
1218.0
 33
0.0
 14
740.0
 24
954.0
 34
0.0
100
AcDbRotatedDimension
1001
ACAD
1000
DSTYLE
1002
{
1070
   270
1070
     2
1070
     6
1000
EX_NORM
1070
     7
1000
EX_NORM
1070
    41
1040
30.0
1070
    42
1040
5.0
1070
    44
1040
10.0
1070
    73
1070
     0
1070
    74
1070
     0
1070
    75
1070
     0
1070
    76
1070
     1
1070
    77
1070
     1
1070
    78
1070
     8
1070
   140
1040
40.0
1070
   147
1040
0.0
1070
   173
1070
     1
1070
   176
1070
     3
1070
   177
1070
     3
1070
   178
1070
     2
1070
   271
1070
     2
1070
   277
1070
     2
1070
   279
1070
     2
1070
   280
1070
     0
1070
   287
1070
     5
1070
   340
1005
366
1002
}
  0
DIMENSION
  5
39B
330
1F
100
AcDbEntity
  8
寸法
  6
CONTINUOUS
 62
     3
100
AcDbDimension
  2
*D19
 10
835.0000000000014
 20
1045.0
 30
0.0
 11
400.999999999998
 21
1068.5
 31
0.0
 70
   160
  1
95±10（壁給水）
  3
ISO-25
100
AcDbAlignedDimension
 13
740.0
 23
954.0
 33
0.0
 14
835.0000000000014
 24
1279.0
 34
0.0
100
AcDbRotatedDimension
1001
ACAD
1000
DSTYLE
1002
{
1070
   270
1070
     2
1070
     6
1000
EX_NORM
1070
     7
1000
EX_NORM
1070
    41
1040
30.0
1070
    42
1040
0.7000000000000455
1070
    44
1040
10.0
1070
    73
1070
     0
1070
    74
1070
     0
1070
    75
1070
     1
1070
    76
1070
     0
1070
    77
1070
     1
1070
    78
1070
     8
1070
   140
1040
40.0
1070
   147
1040
0.0
1070
   173
1070
     1
1070
   176
1070
     3
1070
   177
1070
     3
1070
   178
1070
     2
1070
   271
1070
     2
1070
   277
1070
     2
1070
   279
1070
     2
1070
   280
1070
     0
1070
   287
1070
     5
1070
   340
1005
366
1002
}
  0
LEADER
  5
3A7
330
1F
100
AcDbEntity
  8
寸法
  6
CONTINUOUS
 62
     3
100
AcDbLeader
  3
ISO-25
 76
     3
 10
684.0000000000009
 20
764.0
 30
0.0
 10
533.9999999999998
 20
701.0000000000002
 30
0.0
 10
211.9999999999999
 20
701.0000000000002
 30
0.0
1001
ACAD
1000
DSTYLE
1002
{
1070
     5
1000
EX_NORM
1070
    41
1040
30.0
1070
   341
1005
4B
1002
}
  0
TEXT
  5
3A8
330
1F
100
AcDbEntity
  8
寸法
  6
CONTINUOUS
 62
     2
100
AcDbText
 10
219.0000000000009
 20
744.4999999403956
 30
0.0
 40
40.0
  1
４０又５０塩ビ管
 41
0.9308510638297873
  7
EXCADSTD
 72
     5
 11
469.0000000000009
 21
744.4999999403956
 31
0.0
100
AcDbText
  0
TEXT
  5
3A9
330
1F
100
AcDbEntity
  8
寸法
  6
CONTINUOUS
 62
     2
100
AcDbText
 10
219.0000000000009
 20
704.4999999403956
 30
0.0
 40
40.0
  1
（４０～５０立上げ）
 41
0.9194915254237289
  7
EXCADSTD
 72
     5
 11
529.0000000000009
 21
704.4999999403956
 31
0.0
100
AcDbText
  0
DIMENSION
  5
3AA
330
1F
100
AcDbEntity
  8
寸法
  6
CONTINUOUS
 62
     3
100
AcDbDimension
  2
*D20
 10
740.0
 20
644.0
 30
0.0
 11
403.0000000000007
 21
667.5
 31
0.0
 70
   160
  1
40±10（床排水）
  3
ISO-25
100
AcDbAlignedDimension
 13
700.0
 23
764.0
 33
0.0
 14
740.0
 24
794.0
 34
0.0
100
AcDbRotatedDimension
1001
ACAD
1000
DSTYLE
1002
{
1070
   270
1070
     2
1070
     6
1000
EX_NORM
1070
     7
1000
EX_BCIR
1070
    41
1040
30.0
1070
    42
1040
5.0
1070
    44
1040
10.0
1070
    73
1070
     0
1070
    74
1070
     0
1070
    75
1070
     0
1070
    76
1070
     0
1070
    77
1070
     1
1070
    78
1070
     8
1070
   140
1040
40.0
1070
   147
1040
0.0
1070
   173
1070
     1
1070
   176
1070
     3
1070
   177
1070
     3
1070
   178
1070
     2
1070
   271
1070
     2
1070
   277
1070
     2
1070
   279
1070
     2
1070
   280
1070
     0
1070
   287
1070
     5
1070
   340
1005
366
1002
}
  0
DIMENSION
  5
3B9
330
1F
100
AcDbEntity
  8
寸法
  6
CONTINUOUS
 62
     3
100
AcDbDimension
  2
*D21
 10
904.9999999999989
 20
574.0
 30
0.0
 11
739.9999999999985
 21
597.5
 31
0.0
 70
   160
  1
330
  3
ISO-25
100
AcDbAlignedDimension
 13
574.9999999999983
 23
794.0
 33
0.0
 14
904.9999999999989
 24
794.0
 34
0.0
100
AcDbRotatedDimension
1001
ACAD
1000
DSTYLE
1002
{
1070
   270
1070
     2
1070
     6
1000
EX_NORM
1070
     7
1000
EX_NORM
1070
    41
1040
30.0
1070
    42
1040
6.99999988079071
1070
    44
1040
10.0
1070
    73
1070
     0
1070
    74
1070
     0
1070
    75
1070
     0
1070
    76
1070
     0
1070
    77
1070
     1
1070
    78
1070
     8
1070
   140
1040
40.0
1070
   147
1040
0.0
1070
   173
1070
     1
1070
   176
1070
     3
1070
   177
1070
     3
1070
   178
1070
     2
1070
   271
1070
     2
1070
   277
1070
     2
1070
   279
1070
     2
1070
   280
1070
     0
1070
   287
1070
     5
1070
   340
1005
366
1002
}
  0
DIMENSION
  5
3C6
330
1F
100
AcDbEntity
  8
寸法
  6
CONTINUOUS
 62
     3
100
AcDbDimension
  2
*D22
 10
835.0000000000011
 20
644.0
 30
0.0
 11
1072.000000000001
 21
667.5
 31
0.0
 70
   160
  1
95±10（床給水）
  3
ISO-25
100
AcDbAlignedDimension
 13
740.0
 23
794.0
 33
0.0
 14
835.0000000000011
 24
787.0000000000001
 34
0.0
100
AcDbRotatedDimension
1001
ACAD
1000
DSTYLE
1002
{
1070
   270
1070
     2
1070
     6
1000
EX_BCIR
1070
     7
1000
EX_NORM
1070
    41
1040
10.0
1070
    42
1040
5.0
1070
    44
1040
10.0
1070
    73
1070
     0
1070
    74
1070
     0
1070
    75
1070
     0
1070
    76
1070
     0
1070
    77
1070
     1
1070
    78
1070
     8
1070
   140
1040
40.0
1070
   147
1040
0.0
1070
   173
1070
     1
1070
   176
1070
     3
1070
   177
1070
     3
1070
   178
1070
     2
1070
   271
1070
     2
1070
   277
1070
     2
1070
   279
1070
     2
1070
   280
1070
     0
1070
   287
1070
     5
1070
   340
1005
366
1002
}
  0
LEADER
  5
3D3
330
1F
100
AcDbEntity
  8
寸法
  6
CONTINUOUS
 62
     3
100
AcDbLeader
  3
ISO-25
 76
     3
 10
845.0000000000011
 20
787.0000000000001
 30
0.0
 10
951.0000000000002
 20
714.0
 30
0.0
 10
1066.0
 20
714.0
 30
0.0
1001
ACAD
1000
DSTYLE
1002
{
1070
     5
1000
EX_NORM
1070
    41
1040
30.0
1070
   341
1005
4B
1002
}
  0
TEXT
  5
3D4
330
1F
100
AcDbEntity
  8
寸法
  6
CONTINUOUS
 62
     2
100
AcDbText
 10
956.0000000000002
 20
717.5
 30
0.0
 40
40.0
  1
Ｒ１/２
 41
0.791095890410959
  7
EXCADSTD
 72
     5
 11
1066.0
 21
717.5
 31
0.0
100
AcDbText
  0
DIMENSION
  5
3D5
330
1F
100
AcDbEntity
  8
寸法
  6
CONTINUOUS
 62
     3
100
AcDbDimension
  2
*D23
 10
1539.999999999999
 20
1754.0
 30
0.0
 11
1439.999999999999
 21
1777.499999940395
 31
0.0
 70
   160
  1
200
  3
ISO-25
100
AcDbAlignedDimension
 13
1339.999999999999
 23
1610.0
 33
0.0
 14
1539.999999999999
 24
1674.0
 34
0.0
100
AcDbRotatedDimension
1001
ACAD
1000
DSTYLE
1002
{
1070
   270
1070
     2
1070
     6
1000
EX_NORM
1070
     7
1000
EX_NORM
1070
    41
1040
30.0
1070
    42
1040
6.99999988079071
1070
    44
1040
10.0
1070
    73
1070
     0
1070
    74
1070
     0
1070
    75
1070
     0
1070
    76
1070
     0
1070
    77
1070
     1
1070
    78
1070
     8
1070
   140
1040
40.0
1070
   147
1040
0.0
1070
   173
1070
     1
1070
   176
1070
     3
1070
   177
1070
     3
1070
   178
1070
     2
1070
   271
1070
     2
1070
   277
1070
     2
1070
   279
1070
     2
1070
   280
1070
     0
1070
   287
1070
     5
1070
   340
1005
366
1002
}
  0
DIMENSION
  5
3E2
330
1F
100
AcDbEntity
  8
寸法
  6
CONTINUOUS
 62
     3
100
AcDbDimension
  2
*D24
 10
1830.000000000001
 20
1649.0
 30
0.0
 11
1806.500000059606
 21
1221.5
 31
0.0
 70
   160
  1
855（手洗器壁固定）
  3
ISO-25
100
AcDbAlignedDimension
 13
1539.999999999999
 23
794.0
 33
0.0
 14
1581.251829700999
 24
1649.0
 34
0.0
 50
90.0
100
AcDbRotatedDimension
1001
ACAD
1000
DSTYLE
1002
{
1070
   270
1070
     2
1070
     6
1000
EX_NORM
1070
     7
1000
EX_NORM
1070
    41
1040
30.0
1070
    42
1040
6.99999988079071
1070
    44
1040
10.0
1070
    73
1070
     0
1070
    74
1070
     0
1070
    75
1070
     0
1070
    76
1070
     0
1070
    77
1070
     1
1070
    78
1070
     8
1070
   140
1040
40.0
1070
   147
1040
0.0
1070
   173
1070
     1
1070
   176
1070
     3
1070
   177
1070
     3
1070
   178
1070
     2
1070
   271
1070
     2
1070
   277
1070
     2
1070
   279
1070
     2
1070
   280
1070
     0
1070
   287
1070
     5
1070
   340
1005
366
1002
}
  0
TEXT
  5
3EF
330
1F
100
AcDbEntity
  8
寸法
  6
CONTINUOUS
 62
     2
100
AcDbText
 10
1657.0
 20
1518.499999940396
 30
0.0
 40
40.0
  1
Ｒ１/２
 41
0.791095890410959
  7
EXCADSTD
 72
     5
 11
1767.0
 21
1518.499999940396
 31
0.0
100
AcDbText
  0
LEADER
  5
3F0
330
1F
100
AcDbEntity
  8
寸法
  6
CONTINUOUS
 62
     3
100
AcDbLeader
  3
ISO-25
 76
     3
 10
1547.0
 20
1309.0
 30
0.0
 10
1652.0
 20
1515.0
 30
0.0
 10
1768.000000000001
 20
1515.0
 30
0.0
1001
ACAD
1000
DSTYLE
1002
{
1070
     5
1000
EX_NORM
1070
    41
1040
30.0
1070
   341
1005
4B
1002
}
  0
DIMENSION
  5
3F1
330
1F
100
AcDbEntity
  8
寸法
  6
CONTINUOUS
 62
     3
100
AcDbDimension
  2
*D25
 10
1759.999999999999
 20
1399.0
 30
0.0
 11
1736.500000059604
 21
1096.5
 31
0.0
 70
   160
  1
605（キャビネット壁固定）
  3
ISO-25
100
AcDbAlignedDimension
 13
1539.999999999999
 23
794.0
 33
0.0
 14
1571.999999999999
 24
1399.0
 34
0.0
 50
90.0
100
AcDbRotatedDimension
1001
ACAD
1000
DSTYLE
1002
{
1070
   270
1070
     2
1070
     6
1000
EX_NORM
1070
     7
1000
EX_NORM
1070
    41
1040
30.0
1070
    42
1040
6.99999988079071
1070
    44
1040
10.0
1070
    73
1070
     0
1070
    74
1070
     0
1070
    75
1070
     0
1070
    76
1070
     0
1070
    77
1070
     1
1070
    78
1070
     8
1070
   140
1040
40.0
1070
   147
1040
0.0
1070
   173
1070
     1
1070
   176
1070
     3
1070
   177
1070
     3
1070
   178
1070
     2
1070
   271
1070
     2
1070
   277
1070
     2
1070
   279
1070
     2
1070
   280
1070
     0
1070
   287
1070
     5
1070
   340
1005
366
1002
}
  0
TEXT
  5
3FE
330
1F
100
AcDbEntity
  8
寸法
  6
CONTINUOUS
 62
     2
100
AcDbText
 10
1671.0
 20
1449.499999940396
 30
0.0
 40
40.0
  1
φ３２
 41
1.029411764705882
  7
EXCADSTD
 72
     5
 11
1771.0
 21
1449.499999940396
 31
0.0
100
AcDbText
  0
LEADER
  5
3FF
330
1F
100
AcDbEntity
  8
寸法
  6
CONTINUOUS
 62
     3
100
AcDbLeader
  3
ISO-25
 76
     3
 10
1570.000000000001
 20
1250.0
 30
0.0
 10
1666.0
 20
1446.0
 30
0.0
 10
1772.0
 20
1446.0
 30
0.0
1001
ACAD
1000
DSTYLE
1002
{
1070
     5
1000
EX_NORM
1070
    41
1040
30.0
1070
   341
1005
4B
1002
}
  0
DIMENSION
  5
400
330
1F
100
AcDbEntity
  8
寸法
  6
CONTINUOUS
 62
     3
100
AcDbDimension
  2
*D26
 10
1619.999999999999
 20
1234.0
 30
0.0
 11
1596.500000059604
 21
1014.0
 31
0.0
 70
   160
  1
440±10（壁排水）
  3
ISO-25
100
AcDbAlignedDimension
 13
1539.999999999999
 23
794.0
 33
0.0
 14
1569.999999999999
 24
1234.0
 34
0.0
 50
90.0
100
AcDbRotatedDimension
1001
ACAD
1000
DSTYLE
1002
{
1070
   270
1070
     2
1070
     6
1000
EX_NORM
1070
     7
1000
EX_NORM
1070
    41
1040
30.0
1070
    42
1040
6.99999988079071
1070
    44
1040
10.0
1070
    73
1070
     0
1070
    74
1070
     0
1070
    75
1070
     0
1070
    76
1070
     0
1070
    77
1070
     1
1070
    78
1070
     8
1070
   140
1040
40.0
1070
   147
1040
0.0
1070
   173
1070
     1
1070
   176
1070
     3
1070
   177
1070
     3
1070
   178
1070
     2
1070
   271
1070
     2
1070
   277
1070
     2
1070
   279
1070
     2
1070
   280
1070
     0
1070
   287
1070
     5
1070
   340
1005
366
1002
}
  0
DIMENSION
  5
40D
330
1F
100
AcDbEntity
  8
寸法
  6
CONTINUOUS
 62
     3
100
AcDbDimension
  2
*D27
 10
1539.999999999999
 20
714.0
 30
0.0
 11
1739.999999999999
 21
737.5
 31
0.0
 70
   160
  1
60±10（床給排水）
  3
ISO-25
100
AcDbAlignedDimension
 13
1479.999999999999
 23
764.0
 33
0.0
 14
1539.999999999999
 24
794.0
 34
0.0
100
AcDbRotatedDimension
1001
ACAD
1000
DSTYLE
1002
{
1070
   270
1070
     2
1070
     6
1000
EX_NORM
1070
     7
1000
EX_NORM
1070
    41
1040
30.0
1070
    42
1040
6.99999988079071
1070
    44
1040
10.0
1070
    73
1070
     0
1070
    74
1070
     0
1070
    75
1070
     0
1070
    76
1070
     0
1070
    77
1070
     1
1070
    78
1070
     8
1070
   140
1040
40.0
1070
   147
1040
0.0
1070
   173
1070
     1
1070
   176
1070
     3
1070
   177
1070
     3
1070
   178
1070
     2
1070
   271
1070
     2
1070
   277
1070
     2
1070
   279
1070
     2
1070
   280
1070
     2
1070
   287
1070
     5
1070
   340
1005
366
1002
}
  0
DIMENSION
  5
41A
330
1F
100
AcDbEntity
  8
寸法
  6
CONTINUOUS
 62
     3
100
AcDbDimension
  2
*D28
 10
1690.0
 20
794.0
 30
0.0
 11
1666.500000059605
 21
1046.5
 31
0.0
 70
   160
  1
505±10（壁給水）
  3
ISO-25
100
AcDbAlignedDimension
 13
1557.0
 23
1299.0
 33
0.0
 14
1690.0
 24
794.0
 34
0.0
 50
90.0
100
AcDbRotatedDimension
1001
ACAD
1000
DSTYLE
1002
{
1070
   270
1070
     2
1070
     6
1000
EX_NORM
1070
     7
1000
EX_NORM
1070
    41
1040
30.0
1070
    42
1040
5.0
1070
    44
1040
10.0
1070
    73
1070
     0
1070
    74
1070
     0
1070
    75
1070
     0
1070
    76
1070
     1
1070
    77
1070
     1
1070
    78
1070
     8
1070
   140
1040
40.0
1070
   147
1040
0.0
1070
   173
1070
     1
1070
   176
1070
     3
1070
   177
1070
     3
1070
   178
1070
     2
1070
   271
1070
     2
1070
   277
1070
     2
1070
   279
1070
     2
1070
   280
1070
     0
1070
   287
1070
     5
1070
   340
1005
366
1002
}
  0
POLYLINE
  5
426
330
1F
100
AcDbEntity
  8
寸法
  6
CONTINUOUS
 62
     3
100
AcDb2dPolyline
 66
     1
 10
0.0
 20
0.0
 30
0.0
 70
   128
  0
VERTEX
  5
427
330
426
100
AcDbEntity
  8
寸法
  6
CONTINUOUS
 62
     3
100
AcDbVertex
100
AcDb2dVertex
 10
1071.2
 20
2390.0
 30
0.0
  0
VERTEX
  5
428
330
426
100
AcDbEntity
  8
寸法
  6
CONTINUOUS
 62
     3
100
AcDbVertex
100
AcDb2dVertex
 10
1094.199999999999
 20
2340.5
 30
0.0
  0
SEQEND
  5
429
330
426
100
AcDbEntity
  8
寸法
  6
CONTINUOUS
 62
     3
  0
LINE
  5
42A
330
1F
100
AcDbEntity
  8
寸法
  6
CONTINUOUS
 62
     3
100
AcDbLine
 10
1088.37583274578
 20
2364.900383080832
 30
0.0
 11
1071.2
 21
2390.0
 31
0.0
  0
LINE
  5
42B
330
1F
100
AcDbEntity
  8
寸法
  6
CONTINUOUS
 62
     3
100
AcDbLine
 10
1071.2
 20
2390.0
 30
0.0
 11
1079.306993056008
 21
2360.686578780534
 31
0.0
  0
TEXT
  5
42C
330
1F
100
AcDbEntity
  8
寸法
  6
CONTINUOUS
 62
     2
100
AcDbText
 10
1122.000000357627
 20
2350.0
 30
0.0
 40
40.0
  1
W.L.
 41
0.5571963157894734
  7
EXCADSTD
 72
     5
 11
1182.495600357627
 21
2350.0
 31
0.0
100
AcDbText
  0
POLYLINE
  5
42D
330
1F
100
AcDbEntity
  8
寸法
  6
CONTINUOUS
 62
     3
100
AcDb2dPolyline
 66
     1
 10
0.0
 20
0.0
 30
0.0
 70
   128
  0
VERTEX
  5
42E
330
42D
100
AcDbEntity
  8
寸法
  6
CONTINUOUS
 62
     3
100
AcDbVertex
100
AcDb2dVertex
 10
1539.999999999998
 20
1881.000009999999
 30
0.0
  0
VERTEX
  5
42F
330
42D
100
AcDbEntity
  8
寸法
  6
CONTINUOUS
 62
     3
100
AcDbVertex
100
AcDb2dVertex
 10
1493.999999999999
 20
1901.000009999999
 30
0.0
  0
SEQEND
  5
430
330
42D
100
AcDbEntity
  8
寸法
  6
CONTINUOUS
 62
     3
  0
LINE
  5
431
330
1F
100
AcDbEntity
  8
寸法
  6
CONTINUOUS
 62
     3
100
AcDbLine
 10
1510.494267755329
 20
1888.376443061167
 30
0.0
 11
1539.999999999998
 21
1881.000009999999
 31
0.0
  0
LINE
  5
432
330
1F
100
AcDbEntity
  8
寸法
  6
CONTINUOUS
 62
     3
100
AcDbLine
 10
1539.999999999998
 20
1881.000009999999
 30
0.0
 11
1514.481528869473
 21
1897.547143623699
 31
0.0
  0
TEXT
  5
433
330
1F
100
AcDbEntity
  8
寸法
  6
CONTINUOUS
 62
     2
100
AcDbText
 10
1539.999999999998
 20
1950.000010357627
 30
0.0
 40
40.0
  1
W.L.
 50
90.0
 41
0.5571963157894734
  7
EXCADSTD
 72
     5
 11
1539.999999999998
 21
2010.495610357627
 31
0.0
100
AcDbText
  0
ENDSEC
  0
SECTION
  2
OBJECTS
  0
DICTIONARY
  5
C
330
0
100
AcDbDictionary
  3
ACAD_GROUP
350
D
  3
ACAD_LAYOUT
350
1A
  3
ACAD_MATERIAL
350
3B
  3
ACAD_MLEADERSTYLE
350
456
  3
ACAD_MLINESTYLE
350
17
  3
ACAD_PLOTSETTINGS
350
19
  3
ACAD_VISUALSTYLE
350
2A
  3
ACDBHEADERROUNDTRIPXREC
350
434
  3
ACDBVARIABLEDICTIONARY
350
454
  0
DICTIONARY
  5
D
102
{ACAD_REACTORS
330
C
102
}
330
C
100
AcDbDictionary
  0
DICTIONARY
  5
1A
102
{ACAD_REACTORS
330
C
102
}
330
C
100
AcDbDictionary
  0
DICTIONARY
  5
3B
102
{ACAD_REACTORS
330
C
102
}
330
C
100
AcDbDictionary
  3
BYBLOCK
350
3D
  3
BYLAYER
350
3C
  3
GLOBAL
350
3E
  0
DICTIONARY
  5
456
102
{ACAD_REACTORS
330
C
102
}
330
C
100
AcDbDictionary
  0
DICTIONARY
  5
17
102
{ACAD_REACTORS
330
C
102
}
330
C
100
AcDbDictionary
  3
STANDARD
350
18
  0
DICTIONARY
  5
19
102
{ACAD_REACTORS
330
C
102
}
330
C
100
AcDbDictionary
  0
DICTIONARY
  5
2A
102
{ACAD_REACTORS
330
C
102
}
330
C
100
AcDbDictionary
  3
2DWIREFRAME
350
2F
  3
3D_HIDDEN
350
31
  3
3DWIREFRAME
350
30
  3
BASIC
350
32
  3
BRIGHTEN
350
36
  3
COLORCHANGE
350
3A
  3
CONCEPTUAL
350
34
  3
DIM
350
35
  3
FACEPATTERN
350
39
  3
FLAT
350
2B
  3
FLATWITHEDGES
350
2C
  3
GOURAUD
350
2D
  3
GOURAUDWITHEDGES
350
2E
  3
LINEPATTERN
350
38
  3
REALISTIC
350
33
  3
THICKEN
350
37
  0
DICTIONARY
  5
434
102
{ACAD_REACTORS
330
C
102
}
330
C
100
AcDbDictionary
  3
CEPSNTYPE
350
43D
  3
DIMSTYLEDATA
350
453
  3
FINGERPRINTGUID
350
43E
  3
HYPERLINKBASE
350
437
  3
INSUNITS
350
43C
  3
LAYOUTDICT
350
439
  3
LWETCUNION
350
43B
  3
PLOTSETDICT
350
43A
  3
PSVPSCALE
350
440
  3
PUCSBASE
350
443
  3
PUCSORGBACK
350
449
  3
PUCSORGBOTTOM
350
445
  3
PUCSORGFRONT
350
448
  3
PUCSORGLEFT
350
446
  3
PUCSORGRIGHT
350
447
  3
PUCSORGTOP
350
444
  3
PUCSORTHOREF
350
441
  3
PUCSORTHOVIEW
350
442
  3
STYLESHEET
350
438
  3
TSTACKALIGN
350
435
  3
TSTACKSIZE
350
436
  3
UCSBASE
350
44C
  3
UCSORGBACK
350
452
  3
UCSORGBOTTOM
350
44E
  3
UCSORGFRONT
350
451
  3
UCSORGLEFT
350
44F
  3
UCSORGRIGHT
350
450
  3
UCSORGTOP
350
44D
  3
UCSORTHOREF
350
44A
  3
UCSORTHOVIEW
350
44B
  3
VERSIONGUID
350
43F
  0
DICTIONARY
  5
454
102
{ACAD_REACTORS
330
C
102
}
330
C
100
AcDbDictionary
  3
DIMASSOC
350
459
  3
HIDETEXT
350
45A
  3
PSOLHEIGHT
350
458
  3
PSOLWIDTH
350
457
  0
MATERIAL
  5
3D
102
{ACAD_REACTORS
330
3B
102
}
102
{ACAD_XDICTIONARY
360
45D
102
}
330
3B
100
AcDbMaterial
  1
ByBlock
  0
MATERIAL
  5
3C
102
{ACAD_REACTORS
330
3B
102
}
102
{ACAD_XDICTIONARY
360
45B
102
}
330
3B
100
AcDbMaterial
  1
ByLayer
  0
MATERIAL
  5
3E
102
{ACAD_REACTORS
330
3B
102
}
102
{ACAD_XDICTIONARY
360
45F
102
}
330
3B
100
AcDbMaterial
  1
Global
  0
MLINESTYLE
  5
18
102
{ACAD_REACTORS
330
17
102
}
330
17
100
AcDbMlineStyle
  2
Standard
 70
     0
  3

 62
   256
 51
90.0
 52
90.0
 71
     2
 49
0.5
 62
   256
  6
BYLAYER
 49
-0.5
 62
   256
  6
BYLAYER
  0
ACAD_PROXY_OBJECT
  5
2F
102
{ACAD_REACTORS
330
2A
102
}
330
2A
100
AcDbProxyObject
 90
      499
 91
      501
 93
      436
310
42CC9915DA5C99599C985B595049028333333333333E3BF0000000000000FB0107901411070040501600405405064090741402480A0340
1001
ACAD
1000
AcDbSavedByObjectVersion
1070
     0
  0
ACAD_PROXY_OBJECT
  5
31
102
{ACAD_REACTORS
330
2A
102
}
330
2A
100
AcDbProxyObject
 90
      499
 91
      501
 93
      500
310
424CD108121A5919195B90640502408333333333333E3BF0000000000000FB01079024090700405020000000000001110200405405064090740C02480A0340
1001
ACAD
1000
AcDbSavedByObjectVersion
1070
     0
  0
ACAD_PROXY_OBJECT
  5
30
102
{ACAD_REACTORS
330
2A
102
}
330
2A
100
AcDbProxyObject
 90
      499
 91
      501
 93
      436
310
42CCD915DA5C99599C985B595059028333333333333E3BF0000000000000FB0107901411070040501600405405064090741402480A0340
1001
ACAD
1000
AcDbSavedByObjectVersion
1070
     0
  0
ACAD_PROXY_OBJECT
  5
32
102
{ACAD_REACTORS
330
2A
102
}
330
2A
100
AcDbProxyObject
 90
      499
 91
      501
 93
      388
310
4150985CDA58D07406404333333333333E3BF0000000000000FB0107A41107004050150841D405064090741402480A0350
1001
ACAD
1000
AcDbSavedByObjectVersion
1070
     0
  0
ACAD_PROXY_OBJECT
  5
36
102
{ACAD_REACTORS
330
2A
102
}
330
2A
100
AcDbProxyObject
 90
      499
 91
      501
 93
      428
310
42109C9A59DA1D195B90C409028333333333333E3BF0000000000000FB010790141107004050150841D405064090741402480A029950
1001
ACAD
1000
AcDbSavedByObjectVersion
1070
     0
  0
ACAD_PROXY_OBJECT
  5
3A
102
{ACAD_REACTORS
330
2A
102
}
330
2A
100
AcDbProxyObject
 90
      499
 91
      501
 93
      452
310
42D0DBDB1BDC90DA185B99D95104090240C333333333333E3BF0000000000000FB0108901411070040501508421405064090741402480A0350
1001
ACAD
1000
AcDbSavedByObjectVersion
1070
     0
  0
ACAD_PROXY_OBJECT
  5
34
102
{ACAD_REACTORS
330
2A
102
}
330
2A
100
AcDbProxyObject
 90
      499
 91
      501
 93
      500
310
4290DBDB98D95C1D1D585B10940D028333333333333E3BF0000000000000FB0107902409070040501000000000000111010841D405064090740C02480A0340
1001
ACAD
1000
AcDbSavedByObjectVersion
1070
     0
  0
ACAD_PROXY_OBJECT
  5
35
102
{ACAD_REACTORS
330
2A
102
}
330
2A
100
AcDbProxyObject
 90
      499
 91
      501
 93
      412
310
40D11A5B50B409028333333333333E3BF0000000000000FB010790141107004050150841D405064090741402480A02677FFFFFD0
1001
ACAD
1000
AcDbSavedByObjectVersion
1070
     0
  0
ACAD_PROXY_OBJECT
  5
39
102
{ACAD_REACTORS
330
2A
102
}
330
2A
100
AcDbProxyObject
 90
      499
 91
      501
 93
      444
310
42D19858D95C185D1D195C9B90F409028333333333333E3BF0000000000000FB010790141107004050150841D405064090741402480A0350
1001
ACAD
1000
AcDbSavedByObjectVersion
1070
     0
  0
ACAD_PROXY_OBJECT
  5
2B
102
{ACAD_REACTORS
330
2A
102
}
330
2A
100
AcDbProxyObject
 90
      499
 91
      501
 93
      388
310
41119B185D240901404333333333333E3BF0000000000000F9010740A41107004050150841D405064090741402480A1B50
1001
ACAD
1000
AcDbSavedByObjectVersion
1070
     0
  0
ACAD_PROXY_OBJECT
  5
2C
102
{ACAD_REACTORS
330
2A
102
}
330
2A
100
AcDbProxyObject
 90
      499
 91
      501
 93
      476
310
43519B185D15DA5D1A115919D95CD0140901404333333333333E3BF0000000000000F9010740901411070040501600405405064090741402480A1B50
1001
ACAD
1000
AcDbSavedByObjectVersion
1070
     0
  0
ACAD_PROXY_OBJECT
  5
2D
102
{ACAD_REACTORS
330
2A
102
}
330
2A
100
AcDbProxyObject
 90
      499
 91
      501
 93
      412
310
41D1DBDD5C985D5910240902404333333333333E3BF0000000000000F9010740A411070040501641D405064090741402480A1B50
1001
ACAD
1000
AcDbSavedByObjectVersion
1070
     0
  0
ACAD_PROXY_OBJECT
  5
2E
102
{ACAD_REACTORS
330
2A
102
}
330
2A
100
AcDbProxyObject
 90
      499
 91
      501
 93
      500
310
4411DBDD5C985D5915DA5D1A115919D95CD0340902404333333333333E3BF0000000000000F9010740901411070040501600405405064090741402480A1B50
1001
ACAD
1000
AcDbSavedByObjectVersion
1070
     0
  0
ACAD_PROXY_OBJECT
  5
38
102
{ACAD_REACTORS
330
2A
102
}
330
2A
100
AcDbProxyObject
 90
      499
 91
      501
 93
      444
310
42D31A5B995C185D1D195C9B90E409028333333333333E3BF0000000000000FB010790141107004050750841D405064090741402483A0350
1001
ACAD
1000
AcDbSavedByObjectVersion
1070
     0
  0
ACAD_PROXY_OBJECT
  5
33
102
{ACAD_REACTORS
330
2A
102
}
330
2A
100
AcDbProxyObject
 90
      499
 91
      501
 93
      420
310
425499585B1A5CDD1A58D08409028333333333333E3BF0000000000000FB01079019070040501508421405064090741402480A1B40
1001
ACAD
1000
AcDbSavedByObjectVersion
1070
     0
  0
ACAD_PROXY_OBJECT
  5
37
102
{ACAD_REACTORS
330
2A
102
}
330
2A
100
AcDbProxyObject
 90
      499
 91
      501
 93
      412
310
41D51A1A58DAD95B90D409028333333333333E3BF0000000000000FB010790141107004050150C41D405064090741402480A0350
1001
ACAD
1000
AcDbSavedByObjectVersion
1070
     0
  0
XRECORD
  5
43D
102
{ACAD_REACTORS
330
434
102
}
330
434
100
AcDbXrecord
 90
        0
  0
XRECORD
  5
453
102
{ACAD_REACTORS
330
434
102
}
330
434
100
AcDbXrecord
1000
DSTYLE
1002
{
1070
   340
340
11
1002
}
  0
XRECORD
  5
43E
102
{ACAD_REACTORS
330
434
102
}
330
434
100
AcDbXrecord
  1
{59F0E14F-1A4D-4E5A-9EB3-E5AA43A81CE7}
  0
XRECORD
  5
437
102
{ACAD_REACTORS
330
434
102
}
330
434
100
AcDbXrecord
  1

  0
XRECORD
  5
43C
102
{ACAD_REACTORS
330
434
102
}
330
434
100
AcDbXrecord
 90
        4
  0
XRECORD
  5
439
102
{ACAD_REACTORS
330
434
102
}
330
434
100
AcDbXrecord
340
1A
  0
XRECORD
  5
43B
102
{ACAD_REACTORS
330
434
102
}
330
434
100
AcDbXrecord
 90
    10781
  0
XRECORD
  5
43A
102
{ACAD_REACTORS
330
434
102
}
330
434
100
AcDbXrecord
340
19
  0
XRECORD
  5
440
102
{ACAD_REACTORS
330
434
102
}
330
434
100
AcDbXrecord
 40
0.0
  0
XRECORD
  5
443
102
{ACAD_REACTORS
330
434
102
}
330
434
100
AcDbXrecord
340
0
  0
XRECORD
  5
449
102
{ACAD_REACTORS
330
434
102
}
330
434
100
AcDbXrecord
 10
0.0
 20
0.0
 30
0.0
  0
XRECORD
  5
445
102
{ACAD_REACTORS
330
434
102
}
330
434
100
AcDbXrecord
 10
0.0
 20
0.0
 30
0.0
  0
XRECORD
  5
448
102
{ACAD_REACTORS
330
434
102
}
330
434
100
AcDbXrecord
 10
0.0
 20
0.0
 30
0.0
  0
XRECORD
  5
446
102
{ACAD_REACTORS
330
434
102
}
330
434
100
AcDbXrecord
 10
0.0
 20
0.0
 30
0.0
  0
XRECORD
  5
447
102
{ACAD_REACTORS
330
434
102
}
330
434
100
AcDbXrecord
 10
0.0
 20
0.0
 30
0.0
  0
XRECORD
  5
444
102
{ACAD_REACTORS
330
434
102
}
330
434
100
AcDbXrecord
 10
0.0
 20
0.0
 30
0.0
  0
XRECORD
  5
441
102
{ACAD_REACTORS
330
434
102
}
330
434
100
AcDbXrecord
340
0
  0
XRECORD
  5
442
102
{ACAD_REACTORS
330
434
102
}
330
434
100
AcDbXrecord
 70
     0
  0
XRECORD
  5
438
102
{ACAD_REACTORS
330
434
102
}
330
434
100
AcDbXrecord
  1

  0
XRECORD
  5
435
102
{ACAD_REACTORS
330
434
102
}
330
434
100
AcDbXrecord
 90
        1
  0
XRECORD
  5
436
102
{ACAD_REACTORS
330
434
102
}
330
434
100
AcDbXrecord
 90
       70
  0
XRECORD
  5
44C
102
{ACAD_REACTORS
330
434
102
}
330
434
100
AcDbXrecord
340
0
  0
XRECORD
  5
452
102
{ACAD_REACTORS
330
434
102
}
330
434
100
AcDbXrecord
 10
0.0
 20
0.0
 30
0.0
  0
XRECORD
  5
44E
102
{ACAD_REACTORS
330
434
102
}
330
434
100
AcDbXrecord
 10
0.0
 20
0.0
 30
0.0
  0
XRECORD
  5
451
102
{ACAD_REACTORS
330
434
102
}
330
434
100
AcDbXrecord
 10
0.0
 20
0.0
 30
0.0
  0
XRECORD
  5
44F
102
{ACAD_REACTORS
330
434
102
}
330
434
100
AcDbXrecord
 10
0.0
 20
0.0
 30
0.0
  0
XRECORD
  5
450
102
{ACAD_REACTORS
330
434
102
}
330
434
100
AcDbXrecord
 10
0.0
 20
0.0
 30
0.0
  0
XRECORD
  5
44D
102
{ACAD_REACTORS
330
434
102
}
330
434
100
AcDbXrecord
 10
0.0
 20
0.0
 30
0.0
  0
XRECORD
  5
44A
102
{ACAD_REACTORS
330
434
102
}
330
434
100
AcDbXrecord
340
0
  0
XRECORD
  5
44B
102
{ACAD_REACTORS
330
434
102
}
330
434
100
AcDbXrecord
 70
     0
  0
XRECORD
  5
43F
102
{ACAD_REACTORS
330
434
102
}
330
434
100
AcDbXrecord
  1
{FAEB1C32-E019-11D5-929B-00C0DF256EC4}
  0
DICTIONARYVAR
  5
459
102
{ACAD_REACTORS
330
454
102
}
330
454
100
DictionaryVariables
280
     0
  1
2
  0
DICTIONARYVAR
  5
45A
102
{ACAD_REACTORS
330
454
102
}
330
454
100
DictionaryVariables
280
     0
  1
1
  0
DICTIONARYVAR
  5
458
102
{ACAD_REACTORS
330
454
102
}
330
454
100
DictionaryVariables
280
     0
  1
80.000000
  0
DICTIONARYVAR
  5
457
102
{ACAD_REACTORS
330
454
102
}
330
454
100
DictionaryVariables
280
     0
  1
5.000000
  0
DICTIONARY
  5
45D
330
3D
100
AcDbDictionary
280
     1
  3
ACAD_XREC_ROUNDTRIP
360
45E
  0
DICTIONARY
  5
45B
330
3C
100
AcDbDictionary
280
     1
  3
ACAD_XREC_ROUNDTRIP
360
45C
  0
DICTIONARY
  5
45F
330
3E
100
AcDbDictionary
280
     1
  3
ACAD_XREC_ROUNDTRIP
360
460
  0
XRECORD
  5
45E
102
{ACAD_REACTORS
330
45D
102
}
330
45D
100
AcDbXrecord
102
MATERIAL
148
0.0
149
0.0
149
0.0
 93
        0
 94
      127
282
     0
 72
     1
 77
     1
171
     1
175
     1
179
     1
273
     0
  0
XRECORD
  5
45C
102
{ACAD_REACTORS
330
45B
102
}
330
45B
100
AcDbXrecord
102
MATERIAL
148
0.0
149
0.0
149
0.0
 93
        0
 94
      127
282
     0
 72
     1
 77
     1
171
     1
175
     1
179
     1
273
     0
  0
XRECORD
  5
460
102
{ACAD_REACTORS
330
45F
102
}
330
45F
100
AcDbXrecord
102
MATERIAL
148
0.0
149
0.0
149
0.0
 93
        0
 94
      127
282
     0
 72
     1
 77
     1
171
     1
175
     1
179
     1
273
     0
  0
ENDSEC
  0
EOF
