  0
SECTION
  2
HEADER
  9
$ACADVER
  1
AC1014
  9
$ACADMAINTVER
 70
     9
  9
$DWGCODEPAGE
  3
ANSI_932
  9
$INSBASE
 10
0.0
 20
0.0
 30
0.0
  9
$EXTMIN
 10
17.40000000000526
 20
9.299999999999573
 30
0.0
  9
$EXTMAX
 10
200.0999999999119
 20
289.2999999999999
 30
0.0
  9
$LIMMIN
 10
0.0
 20
0.0
  9
$LIMMAX
 10
210.0
 20
297.0
  9
$ORTHOMODE
 70
     0
  9
$REGENMODE
 70
     1
  9
$FILLMODE
 70
     1
  9
$QTEXTMODE
 70
     0
  9
$MIRRTEXT
 70
     1
  9
$DRAGMODE
 70
     2
  9
$LTSCALE
 40
1.0
  9
$OSMODE
 70
    37
  9
$ATTMODE
 70
     1
  9
$TEXTSIZE
 40
2.5
  9
$TRACEWID
 40
1.0
  9
$TEXTSTYLE
  7
STANDARD
  9
$CLAYER
  8
付属金具
  9
$CELTYPE
  6
BYLAYER
  9
$CECOLOR
 62
   256
  9
$CELTSCALE
 40
1.0
  9
$DELOBJ
 70
     1
  9
$DISPSILH
 70
     0
  9
$DIMSCALE
 40
1.0
  9
$DIMASZ
 40
2.5
  9
$DIMEXO
 40
0.625
  9
$DIMDLI
 40
3.75
  9
$DIMRND
 40
0.0
  9
$DIMDLE
 40
0.0
  9
$DIMEXE
 40
1.25
  9
$DIMTP
 40
0.0
  9
$DIMTM
 40
0.0
  9
$DIMTXT
 40
2.5
  9
$DIMCEN
 40
2.5
  9
$DIMTSZ
 40
0.0
  9
$DIMTOL
 70
     0
  9
$DIMLIM
 70
     0
  9
$DIMTIH
 70
     0
  9
$DIMTOH
 70
     0
  9
$DIMSE1
 70
     0
  9
$DIMSE2
 70
     0
  9
$DIMTAD
 70
     1
  9
$DIMZIN
 70
     8
  9
$DIMBLK
  1

  9
$DIMASO
 70
     1
  9
$DIMSHO
 70
     1
  9
$DIMPOST
  1

  9
$DIMAPOST
  1

  9
$DIMALT
 70
     0
  9
$DIMALTD
 70
     3
  9
$DIMALTF
 40
0.03937007874016
  9
$DIMLFAC
 40
1.0
  9
$DIMTOFL
 70
     1
  9
$DIMTVP
 40
0.0
  9
$DIMTIX
 70
     0
  9
$DIMSOXD
 70
     0
  9
$DIMSAH
 70
     0
  9
$DIMBLK1
  1

  9
$DIMBLK2
  1

  9
$DIMSTYLE
  2
ISO-25
  9
$DIMCLRD
 70
     0
  9
$DIMCLRE
 70
     0
  9
$DIMCLRT
 70
     0
  9
$DIMTFAC
 40
1.0
  9
$DIMGAP
 40
0.625
  9
$DIMJUST
 70
     0
  9
$DIMSD1
 70
     0
  9
$DIMSD2
 70
     0
  9
$DIMTOLJ
 70
     0
  9
$DIMTZIN
 70
     8
  9
$DIMALTZ
 70
     0
  9
$DIMALTTZ
 70
     0
  9
$DIMFIT
 70
     3
  9
$DIMUPT
 70
     0
  9
$DIMUNIT
 70
     2
  9
$DIMDEC
 70
     2
  9
$DIMTDEC
 70
     2
  9
$DIMALTU
 70
     2
  9
$DIMALTTD
 70
     3
  9
$DIMTXSTY
  7
STANDARD
  9
$DIMAUNIT
 70
     0
  9
$LUNITS
 70
     2
  9
$LUPREC
 70
     4
  9
$SKETCHINC
 40
1.0
  9
$FILLETRAD
 40
10.0
  9
$AUNITS
 70
     0
  9
$AUPREC
 70
     0
  9
$MENU
  1
.
  9
$ELEVATION
 40
0.0
  9
$PELEVATION
 40
0.0
  9
$THICKNESS
 40
0.0
  9
$LIMCHECK
 70
     0
  9
$CHAMFERA
 40
10.0
  9
$CHAMFERB
 40
10.0
  9
$CHAMFERC
 40
20.0
  9
$CHAMFERD
 40
0.0
  9
$SKPOLY
 70
     0
  9
$TDCREATE
 40
2460039.622635209
  9
$TDUPDATE
 40
2460039.622635405
  9
$TDINDWG
 40
0.0000000116
  9
$TDUSRTIMER
 40
0.0000000116
  9
$USRTIMER
 70
     1
  9
$ANGBASE
 50
0.0
  9
$ANGDIR
 70
     0
  9
$PDMODE
 70
     0
  9
$PDSIZE
 40
0.0
  9
$PLINEWID
 40
0.0
  9
$COORDS
 70
     1
  9
$SPLFRAME
 70
     0
  9
$SPLINETYPE
 70
     6
  9
$SPLINESEGS
 70
     8
  9
$ATTDIA
 70
     0
  9
$ATTREQ
 70
     1
  9
$HANDLING
 70
     1
  9
$HANDSEED
  5
4DA
  9
$SURFTAB1
 70
     6
  9
$SURFTAB2
 70
     6
  9
$SURFTYPE
 70
     6
  9
$SURFU
 70
     6
  9
$SURFV
 70
     6
  9
$UCSNAME
  2

  9
$UCSORG
 10
0.0
 20
0.0
 30
0.0
  9
$UCSXDIR
 10
1.0
 20
0.0
 30
0.0
  9
$UCSYDIR
 10
0.0
 20
1.0
 30
0.0
  9
$PUCSNAME
  2

  9
$PUCSORG
 10
0.0
 20
0.0
 30
0.0
  9
$PUCSXDIR
 10
1.0
 20
0.0
 30
0.0
  9
$PUCSYDIR
 10
0.0
 20
1.0
 30
0.0
  9
$USERI1
 70
     0
  9
$USERI2
 70
     0
  9
$USERI3
 70
     0
  9
$USERI4
 70
     0
  9
$USERI5
 70
     0
  9
$USERR1
 40
0.0
  9
$USERR2
 40
0.0
  9
$USERR3
 40
0.0
  9
$USERR4
 40
0.0
  9
$USERR5
 40
0.0
  9
$WORLDVIEW
 70
     1
  9
$SHADEDGE
 70
     3
  9
$SHADEDIF
 70
    70
  9
$TILEMODE
 70
     1
  9
$MAXACTVP
 70
    64
  9
$PINSBASE
 10
0.0
 20
0.0
 30
0.0
  9
$PLIMCHECK
 70
     0
  9
$PEXTMIN
 10
1.000000000000000E+20
 20
1.000000000000000E+20
 30
1.000000000000000E+20
  9
$PEXTMAX
 10
-1.000000000000000E+20
 20
-1.000000000000000E+20
 30
-1.000000000000000E+20
  9
$PLIMMIN
 10
0.0
 20
0.0
  9
$PLIMMAX
 10
420.0
 20
297.0
  9
$UNITMODE
 70
     0
  9
$VISRETAIN
 70
     1
  9
$PLINEGEN
 70
     0
  9
$PSLTSCALE
 70
     1
  9
$TREEDEPTH
 70
  3020
  9
$PICKSTYLE
 70
     1
  9
$CMLSTYLE
  2
STANDARD
  9
$CMLJUST
 70
     0
  9
$CMLSCALE
 40
20.0
  9
$PROXYGRAPHICS
 70
     1
  9
$MEASUREMENT
 70
     1
  0
ENDSEC
  0
SECTION
  2
CLASSES
  0
CLASS
  1
ACDBDICTIONARYWDFLT
  2
AcDbDictionaryWithDefault
  3
ObjectDBX Classes
 90
        0
280
     0
281
     0
  0
CLASS
  1
VISUALSTYLE
  2
AcDbVisualStyle
  3
ObjectDBX Classes
 90
     4095
280
     0
281
     0
  0
CLASS
  1
MATERIAL
  2
AcDbMaterial
  3
ObjectDBX Classes
 90
     1153
280
     0
281
     0
  0
CLASS
  1
SUN
  2
AcDbSun
  3
SCENEOE
 90
     1024
280
     0
281
     0
  0
CLASS
  1
DICTIONARYVAR
  2
AcDbDictionaryVar
  3
ObjectDBX Classes
 90
        0
280
     0
281
     0
  0
CLASS
  1
XRECORD
  2
AcDbXrecord
  3
AutoCAD 2000
 90
        0
280
     0
281
     0
  0
CLASS
  1
LWPOLYLINE
  2
AcDbPolyline
  3
AutoCAD 2000
 90
        0
280
     0
281
     1
  0
CLASS
  1
HATCH
  2
AcDbHatch
  3
AutoCAD 2000
 90
        0
280
     0
281
     1
  0
CLASS
  1
ACDBPLACEHOLDER
  2
AcDbPlaceHolder
  3
ObjectDBX Classes
 90
        0
280
     0
281
     0
  0
CLASS
  1
LAYOUT
  2
AcDbLayout
  3
ObjectDBX Classes
 90
        0
280
     0
281
     0
  0
ENDSEC
  0
SECTION
  2
TABLES
  0
TABLE
  2
VPORT
  5
8
330
0
100
AcDbSymbolTable
 70
     1
  0
VPORT
  5
29
330
8
100
AcDbSymbolTableRecord
100
AcDbViewportTableRecord
  2
*ACTIVE
 70
     0
 10
0.0
 20
0.0
 11
1.0
 21
1.0
 12
1087.499999999586
 22
1492.999999999997
 13
0.0
 23
0.0
 14
10.0
 24
10.0
 15
10.0
 25
10.0
 16
0.0
 26
0.0
 36
1.0
 17
0.0
 27
0.0
 37
0.0
 40
2800.000000000003
 41
0.6524999999996658
 42
50.0
 43
0.0
 44
0.0
 50
0.0
 51
0.0
 71
     0
 72
  1000
 73
     1
 74
     3
 75
     0
 76
     0
 77
     0
 78
     0
  0
ENDTAB
  0
TABLE
  2
LTYPE
  5
5
330
0
100
AcDbSymbolTable
 70
     7
  0
LTYPE
  5
14
330
5
100
AcDbSymbolTableRecord
100
AcDbLinetypeTableRecord
  2
BYBLOCK
 70
     0
  3

 72
    65
 73
     0
 40
0.0
  0
LTYPE
  5
15
330
5
100
AcDbSymbolTableRecord
100
AcDbLinetypeTableRecord
  2
BYLAYER
 70
     0
  3

 72
    65
 73
     0
 40
0.0
  0
LTYPE
  5
16
330
5
100
AcDbSymbolTableRecord
100
AcDbLinetypeTableRecord
  2
CONTINUOUS
 70
     0
  3
Solid line
 72
    65
 73
     0
 40
0.0
  0
LTYPE
  5
40
330
5
100
AcDbSymbolTableRecord
100
AcDbLinetypeTableRecord
  2
EXLTYPE1
 70
     0
  3
破線
 72
    65
 73
     2
 40
3.0
 49
2.0
 74
     0
 49
-1.0
 74
     0
  0
LTYPE
  5
41
330
5
100
AcDbSymbolTableRecord
100
AcDbLinetypeTableRecord
  2
EXLTYPE2
 70
     0
  3
点線
 72
    65
 73
     2
 40
2.0
 49
1.0
 74
     0
 49
-1.0
 74
     0
  0
LTYPE
  5
42
330
5
100
AcDbSymbolTableRecord
100
AcDbLinetypeTableRecord
  2
EXLTYPE3
 70
     0
  3
一点鎖線
 72
    65
 73
     4
 40
10.0
 49
7.0
 74
     0
 49
-1.0
 74
     0
 49
1.0
 74
     0
 49
-1.0
 74
     0
  0
LTYPE
  5
43
330
5
100
AcDbSymbolTableRecord
100
AcDbLinetypeTableRecord
  2
EXLTYPE4
 70
     0
  3
二点鎖線
 72
    65
 73
     6
 40
12.0
 49
7.0
 74
     0
 49
-1.0
 74
     0
 49
1.0
 74
     0
 49
-1.0
 74
     0
 49
1.0
 74
     0
 49
-1.0
 74
     0
  0
LTYPE
  5
44
330
5
100
AcDbSymbolTableRecord
100
AcDbLinetypeTableRecord
  2
EXLTYPE5
 70
     0
  3
三点鎖線
 72
    65
 73
     8
 40
37.0
 49
30.0
 74
     0
 49
-1.0
 74
     0
 49
1.0
 74
     0
 49
-1.0
 74
     0
 49
1.0
 74
     0
 49
-1.0
 74
     0
 49
1.0
 74
     0
 49
-1.0
 74
     0
  0
LTYPE
  5
45
330
5
100
AcDbSymbolTableRecord
100
AcDbLinetypeTableRecord
  2
EXLTYPE6
 70
     0
  3
四点鎖線
 72
    65
 73
    10
 40
39.0
 49
30.0
 74
     0
 49
-1.0
 74
     0
 49
1.0
 74
     0
 49
-1.0
 74
     0
 49
1.0
 74
     0
 49
-1.0
 74
     0
 49
1.0
 74
     0
 49
-1.0
 74
     0
 49
1.0
 74
     0
 49
-1.0
 74
     0
  0
ENDTAB
  0
TABLE
  2
LAYER
  5
2
330
0
100
AcDbSymbolTable
 70
     7
  0
LAYER
  5
10
330
2
100
AcDbSymbolTableRecord
100
AcDbLayerTableRecord
  2
0
 70
     0
 62
     7
  6
CONTINUOUS
  0
LAYER
  5
48
330
2
100
AcDbSymbolTableRecord
100
AcDbLayerTableRecord
  2
枠_表
 70
     0
 62
     7
  6
CONTINUOUS
  0
LAYER
  5
49
330
2
100
AcDbSymbolTableRecord
100
AcDbLayerTableRecord
  2
化粧台
 70
     0
 62
     7
  6
CONTINUOUS
  0
LAYER
  5
4A
330
2
100
AcDbSymbolTableRecord
100
AcDbLayerTableRecord
  2
鏡台
 70
     0
 62
     7
  6
CONTINUOUS
  0
LAYER
  5
4B
330
2
100
AcDbSymbolTableRecord
100
AcDbLayerTableRecord
  2
付属金具
 70
     0
 62
     7
  6
CONTINUOUS
  0
LAYER
  5
4C
330
2
100
AcDbSymbolTableRecord
100
AcDbLayerTableRecord
  2
寸法
 70
     0
 62
     7
  6
CONTINUOUS
  0
LAYER
  5
3D9
330
2
100
AcDbSymbolTableRecord
100
AcDbLayerTableRecord
  2
DEFPOINTS
 70
     0
 62
     7
  6
CONTINUOUS
  0
ENDTAB
  0
TABLE
  2
STYLE
  5
3
330
0
100
AcDbSymbolTable
 70
     5
  0
STYLE
  5
11
330
3
100
AcDbSymbolTableRecord
100
AcDbTextStyleTableRecord
  2
STANDARD
 70
     0
 40
0.0
 41
1.0
 50
0.0
 71
     0
 42
2.5
  3
monotxt
  4
extfont
  0
STYLE
  5
46
330
3
100
AcDbSymbolTableRecord
100
AcDbTextStyleTableRecord
  2
EXCADSTD
 70
     0
 40
0.0
 41
1.0
 50
0.0
 71
     0
 42
0.2
  3
monotxt
  4
extfont
  0
STYLE
  5
47
330
3
100
AcDbSymbolTableRecord
100
AcDbTextStyleTableRecord
  2
EXCADVERT
 70
     4
 40
0.0
 41
1.0
 50
0.0
 71
     0
 42
0.286885
  3
monotxt
  4
extfont
  0
STYLE
  5
B0
330
3
100
AcDbSymbolTableRecord
100
AcDbTextStyleTableRecord
  2
EXCADTTF1
 70
     0
 40
0.0
 41
1.0
 50
0.0
 71
     0
 42
0.2
  3
MSGOTHIC.TTC
  4

1001
ACAD
1000
MS Gothic
1071
    32817
  0
STYLE
  5
3D7
330
3
100
AcDbSymbolTableRecord
100
AcDbTextStyleTableRecord
  2
EXCADDIM1
 70
     0
 40
0.0
 41
0.84
 50
0.0
 71
     0
 42
0.2
  3
monotxt
  4
extfont
  0
ENDTAB
  0
TABLE
  2
VIEW
  5
6
330
0
100
AcDbSymbolTable
 70
     0
  0
ENDTAB
  0
TABLE
  2
UCS
  5
7
330
0
100
AcDbSymbolTable
 70
     0
  0
ENDTAB
  0
TABLE
  2
APPID
  5
9
330
0
100
AcDbSymbolTable
 70
     1
  0
APPID
  5
12
330
9
100
AcDbSymbolTableRecord
100
AcDbRegAppTableRecord
  2
ACAD
 70
     0
  0
ENDTAB
  0
TABLE
  2
DIMSTYLE
  5
A
330
0
100
AcDbSymbolTable
 70
     1
  0
DIMSTYLE
105
27
102
{ACAD_REACTORS
330
3D8
330
3E6
330
3F3
330
3FF
330
40C
330
419
330
425
330
430
330
43C
330
448
330
454
330
461
330
46E
330
47B
330
488
330
4A1
102
}
330
A
100
AcDbSymbolTableRecord
100
AcDbDimStyleTableRecord
  2
ISO-25
 70
     0
  3

  4

  5

  6

  7

 40
1.0
 41
2.5
 42
0.625
 43
3.75
 44
1.25
 45
0.0
 46
0.0
 47
0.0
 48
0.0
140
2.5
141
2.5
142
0.0
143
0.03937007874016
144
1.0
145
0.0
146
1.0
147
0.625
 71
     0
 72
     0
 73
     0
 74
     0
 75
     0
 76
     0
 77
     1
 78
     8
170
     0
171
     3
172
     1
173
     0
174
     0
175
     0
176
     0
177
     0
178
     0
270
     2
271
     2
272
     2
273
     2
274
     3
340
11
275
     0
280
     0
281
     0
282
     0
283
     0
284
     8
285
     0
286
     0
287
     5
288
     0
  0
ENDTAB
  0
TABLE
  2
BLOCK_RECORD
  5
1
330
0
100
AcDbSymbolTable
 70
    31
  0
BLOCK_RECORD
  5
1F
330
1
100
AcDbSymbolTableRecord
100
AcDbBlockTableRecord
  2
*MODEL_SPACE
  0
BLOCK_RECORD
  5
1B
330
1
100
AcDbSymbolTableRecord
100
AcDbBlockTableRecord
  2
*PAPER_SPACE
  0
BLOCK_RECORD
  5
4D
330
1
100
AcDbSymbolTableRecord
100
AcDbBlockTableRecord
  2
EX_NORM
  0
BLOCK_RECORD
  5
50
330
1
100
AcDbSymbolTableRecord
100
AcDbBlockTableRecord
  2
EX_BNORM
  0
BLOCK_RECORD
  5
53
330
1
100
AcDbSymbolTableRecord
100
AcDbBlockTableRecord
  2
EX_BCIR
  0
BLOCK_RECORD
  5
56
330
1
100
AcDbSymbolTableRecord
100
AcDbBlockTableRecord
  2
EX_RCIVIL
  0
BLOCK_RECORD
  5
59
330
1
100
AcDbSymbolTableRecord
100
AcDbBlockTableRecord
  2
EX_SLANT
  0
BLOCK_RECORD
  5
5C
330
1
100
AcDbSymbolTableRecord
100
AcDbBlockTableRecord
  2
EX_NONE
  0
BLOCK_RECORD
  5
5F
330
1
100
AcDbSymbolTableRecord
100
AcDbBlockTableRecord
  2
EX_CIVIL
  0
BLOCK_RECORD
  5
62
330
1
100
AcDbSymbolTableRecord
100
AcDbBlockTableRecord
  2
EX_WCIR
  0
BLOCK_RECORD
  5
65
330
1
100
AcDbSymbolTableRecord
100
AcDbBlockTableRecord
  2
EX_WCIR2
  0
BLOCK_RECORD
  5
68
330
1
100
AcDbSymbolTableRecord
100
AcDbBlockTableRecord
  2
EX_WNORM
  0
BLOCK_RECORD
  5
6B
330
1
100
AcDbSymbolTableRecord
100
AcDbBlockTableRecord
  2
EX_NNORM
  0
BLOCK_RECORD
  5
6E
330
1
100
AcDbSymbolTableRecord
100
AcDbBlockTableRecord
  2
EX_BBOX
  0
BLOCK_RECORD
  5
71
330
1
100
AcDbSymbolTableRecord
100
AcDbBlockTableRecord
  2
EX_WBOX
  0
BLOCK_RECORD
  5
74
330
1
100
AcDbSymbolTableRecord
100
AcDbBlockTableRecord
  2
EX_INTEGRAL
  0
BLOCK_RECORD
  5
3DA
330
1
100
AcDbSymbolTableRecord
100
AcDbBlockTableRecord
  2
*D15
  0
BLOCK_RECORD
  5
3E7
330
1
100
AcDbSymbolTableRecord
100
AcDbBlockTableRecord
  2
*D16
  0
BLOCK_RECORD
  5
3F4
330
1
100
AcDbSymbolTableRecord
100
AcDbBlockTableRecord
  2
*D17
  0
BLOCK_RECORD
  5
400
330
1
100
AcDbSymbolTableRecord
100
AcDbBlockTableRecord
  2
*D18
  0
BLOCK_RECORD
  5
40D
330
1
100
AcDbSymbolTableRecord
100
AcDbBlockTableRecord
  2
*D19
  0
BLOCK_RECORD
  5
41A
330
1
100
AcDbSymbolTableRecord
100
AcDbBlockTableRecord
  2
*D20
  0
BLOCK_RECORD
  5
426
330
1
100
AcDbSymbolTableRecord
100
AcDbBlockTableRecord
  2
*D21
  0
BLOCK_RECORD
  5
431
330
1
100
AcDbSymbolTableRecord
100
AcDbBlockTableRecord
  2
*D22
  0
BLOCK_RECORD
  5
43D
330
1
100
AcDbSymbolTableRecord
100
AcDbBlockTableRecord
  2
*D23
  0
BLOCK_RECORD
  5
449
330
1
100
AcDbSymbolTableRecord
100
AcDbBlockTableRecord
  2
*D24
  0
BLOCK_RECORD
  5
455
330
1
100
AcDbSymbolTableRecord
100
AcDbBlockTableRecord
  2
*D25
  0
BLOCK_RECORD
  5
462
330
1
100
AcDbSymbolTableRecord
100
AcDbBlockTableRecord
  2
*D26
  0
BLOCK_RECORD
  5
46F
330
1
100
AcDbSymbolTableRecord
100
AcDbBlockTableRecord
  2
*D27
  0
BLOCK_RECORD
  5
47C
330
1
100
AcDbSymbolTableRecord
100
AcDbBlockTableRecord
  2
*D28
  0
BLOCK_RECORD
  5
489
330
1
100
AcDbSymbolTableRecord
100
AcDbBlockTableRecord
  2
*D29
  0
BLOCK_RECORD
  5
4A2
330
1
100
AcDbSymbolTableRecord
100
AcDbBlockTableRecord
  2
*D30
  0
ENDTAB
  0
ENDSEC
  0
SECTION
  2
BLOCKS
  0
BLOCK
  5
20
330
1F
100
AcDbEntity
  8
0
100
AcDbBlockBegin
  2
*MODEL_SPACE
 70
     0
 10
0.0
 20
0.0
 30
0.0
  3
*MODEL_SPACE
  1

  0
ENDBLK
  5
21
330
1F
100
AcDbEntity
  8
0
100
AcDbBlockEnd
  0
BLOCK
  5
1C
330
1B
100
AcDbEntity
 67
     1
  8
0
100
AcDbBlockBegin
  2
*PAPER_SPACE
 70
     0
 10
0.0
 20
0.0
 30
0.0
  3
*PAPER_SPACE
  1

  0
ENDBLK
  5
1D
330
1B
100
AcDbEntity
 67
     1
  8
0
100
AcDbBlockEnd
  0
BLOCK
  5
4E
330
4D
100
AcDbEntity
  8
0
100
AcDbBlockBegin
  2
EX_NORM
 70
     0
 10
0.0
 20
0.0
 30
0.0
  3
EX_NORM
  1

  0
LINE
  5
77
330
4D
100
AcDbEntity
  8
0
  6
CONTINUOUS
 62
     0
100
AcDbLine
 10
0.0
 20
0.0
 30
0.0
 11
-1.0
 21
0.0
 31
0.0
  0
LINE
  5
78
330
4D
100
AcDbEntity
  8
0
  6
CONTINUOUS
 62
     0
100
AcDbLine
 10
0.0
 20
0.0
 30
0.0
 11
-1.0
 21
0.166666667
 31
0.0
  0
LINE
  5
79
330
4D
100
AcDbEntity
  8
0
  6
CONTINUOUS
 62
     0
100
AcDbLine
 10
0.0
 20
0.0
 30
0.0
 11
-1.0
 21
-0.166666667
 31
0.0
  0
ENDBLK
  5
4F
330
4D
100
AcDbEntity
  8
0
100
AcDbBlockEnd
  0
BLOCK
  5
51
330
50
100
AcDbEntity
  8
0
100
AcDbBlockBegin
  2
EX_BNORM
 70
     0
 10
0.0
 20
0.0
 30
0.0
  3
EX_BNORM
  1

  0
LINE
  5
7A
330
50
100
AcDbEntity
  8
0
  6
CONTINUOUS
 62
     0
100
AcDbLine
 10
0.0
 20
0.0
 30
0.0
 11
-1.0
 21
0.0
 31
0.0
  0
LINE
  5
7B
330
50
100
AcDbEntity
  8
0
  6
CONTINUOUS
 62
     0
100
AcDbLine
 10
0.0
 20
0.0
 30
0.0
 11
-1.0
 21
0.166666667
 31
0.0
  0
LINE
  5
7C
330
50
100
AcDbEntity
  8
0
  6
CONTINUOUS
 62
     0
100
AcDbLine
 10
0.0
 20
0.0
 30
0.0
 11
-1.0
 21
-0.166666667
 31
0.0
  0
LINE
  5
7D
330
50
100
AcDbEntity
  8
0
  6
CONTINUOUS
 62
     0
100
AcDbLine
 10
0.0
 20
0.0
 30
0.0
 11
-1.0
 21
0.083333333
 31
0.0
  0
LINE
  5
7E
330
50
100
AcDbEntity
  8
0
  6
CONTINUOUS
 62
     0
100
AcDbLine
 10
0.0
 20
0.0
 30
0.0
 11
-1.0
 21
-0.083333333
 31
0.0
  0
LINE
  5
7F
330
50
100
AcDbEntity
  8
0
  6
CONTINUOUS
 62
     0
100
AcDbLine
 10
-1.0
 20
0.166666667
 30
0.0
 11
-1.0
 21
-0.166666667
 31
0.0
  0
ENDBLK
  5
52
330
50
100
AcDbEntity
  8
0
100
AcDbBlockEnd
  0
BLOCK
  5
54
330
53
100
AcDbEntity
  8
0
100
AcDbBlockBegin
  2
EX_BCIR
 70
     0
 10
0.0
 20
0.0
 30
0.0
  3
EX_BCIR
  1

  0
LINE
  5
80
330
53
100
AcDbEntity
  8
0
  6
CONTINUOUS
 62
     0
100
AcDbLine
 10
0.0
 20
0.0
 30
0.0
 11
-1.0
 21
0.0
 31
0.0
  0
CIRCLE
  5
81
330
53
100
AcDbEntity
  8
0
  6
CONTINUOUS
 62
     0
100
AcDbCircle
 10
0.0
 20
0.0
 30
0.0
 40
0.5
  0
CIRCLE
  5
82
330
53
100
AcDbEntity
  8
0
  6
CONTINUOUS
 62
     0
100
AcDbCircle
 10
0.0
 20
0.0
 30
0.0
 40
0.25
  0
ENDBLK
  5
55
330
53
100
AcDbEntity
  8
0
100
AcDbBlockEnd
  0
BLOCK
  5
57
330
56
100
AcDbEntity
  8
0
100
AcDbBlockBegin
  2
EX_RCIVIL
 70
     0
 10
0.0
 20
0.0
 30
0.0
  3
EX_RCIVIL
  1

  0
LINE
  5
83
330
56
100
AcDbEntity
  8
0
  6
CONTINUOUS
 62
     0
100
AcDbLine
 10
0.0
 20
0.0
 30
0.0
 11
-1.0
 21
0.0
 31
0.0
  0
LINE
  5
84
330
56
100
AcDbEntity
  8
0
  6
CONTINUOUS
 62
     0
100
AcDbLine
 10
-1.0
 20
-0.25
 30
0.0
 11
0.0
 21
-0.25
 31
0.0
  0
LINE
  5
85
330
56
100
AcDbEntity
  8
0
  6
CONTINUOUS
 62
     0
100
AcDbLine
 10
-1.0
 20
-0.125
 30
0.0
 11
0.0
 21
-0.125
 31
0.0
  0
ENDBLK
  5
58
330
56
100
AcDbEntity
  8
0
100
AcDbBlockEnd
  0
BLOCK
  5
5A
330
59
100
AcDbEntity
  8
0
100
AcDbBlockBegin
  2
EX_SLANT
 70
     0
 10
0.0
 20
0.0
 30
0.0
  3
EX_SLANT
  1

  0
LINE
  5
86
330
59
100
AcDbEntity
  8
0
  6
CONTINUOUS
 62
     0
100
AcDbLine
 10
0.0
 20
0.0
 30
0.0
 11
-1.0
 21
0.0
 31
0.0
  0
LINE
  5
87
330
59
100
AcDbEntity
  8
0
  6
CONTINUOUS
 62
     0
100
AcDbLine
 10
0.707106781
 20
0.707106781
 30
0.0
 11
-0.707106781
 21
-0.707106781
 31
0.0
  0
ENDBLK
  5
5B
330
59
100
AcDbEntity
  8
0
100
AcDbBlockEnd
  0
BLOCK
  5
5D
330
5C
100
AcDbEntity
  8
0
100
AcDbBlockBegin
  2
EX_NONE
 70
     0
 10
0.0
 20
0.0
 30
0.0
  3
EX_NONE
  1

  0
LINE
  5
88
330
5C
100
AcDbEntity
  8
0
  6
CONTINUOUS
 62
     0
100
AcDbLine
 10
0.0
 20
0.0
 30
0.0
 11
-1.0
 21
0.0
 31
0.0
  0
ENDBLK
  5
5E
330
5C
100
AcDbEntity
  8
0
100
AcDbBlockEnd
  0
BLOCK
  5
60
330
5F
100
AcDbEntity
  8
0
100
AcDbBlockBegin
  2
EX_CIVIL
 70
     0
 10
0.0
 20
0.0
 30
0.0
  3
EX_CIVIL
  1

  0
LINE
  5
89
330
5F
100
AcDbEntity
  8
0
  6
CONTINUOUS
 62
     0
100
AcDbLine
 10
0.0
 20
0.0
 30
0.0
 11
-1.0
 21
0.0
 31
0.0
  0
LINE
  5
8A
330
5F
100
AcDbEntity
  8
0
  6
CONTINUOUS
 62
     0
100
AcDbLine
 10
-1.0
 20
0.25
 30
0.0
 11
0.0
 21
0.25
 31
0.0
  0
LINE
  5
8B
330
5F
100
AcDbEntity
  8
0
  6
CONTINUOUS
 62
     0
100
AcDbLine
 10
-1.0
 20
0.125
 30
0.0
 11
0.0
 21
0.125
 31
0.0
  0
ENDBLK
  5
61
330
5F
100
AcDbEntity
  8
0
100
AcDbBlockEnd
  0
BLOCK
  5
63
330
62
100
AcDbEntity
  8
0
100
AcDbBlockBegin
  2
EX_WCIR
 70
     0
 10
0.0
 20
0.0
 30
0.0
  3
EX_WCIR
  1

  0
LINE
  5
8C
330
62
100
AcDbEntity
  8
0
  6
CONTINUOUS
 62
     0
100
AcDbLine
 10
0.0
 20
0.0
 30
0.0
 11
-1.0
 21
0.0
 31
0.0
  0
CIRCLE
  5
8D
330
62
100
AcDbEntity
  8
0
  6
CONTINUOUS
 62
     0
100
AcDbCircle
 10
0.0
 20
0.0
 30
0.0
 40
0.5
  0
ENDBLK
  5
64
330
62
100
AcDbEntity
  8
0
100
AcDbBlockEnd
  0
BLOCK
  5
66
330
65
100
AcDbEntity
  8
0
100
AcDbBlockBegin
  2
EX_WCIR2
 70
     0
 10
0.0
 20
0.0
 30
0.0
  3
EX_WCIR2
  1

  0
LINE
  5
8E
330
65
100
AcDbEntity
  8
0
  6
CONTINUOUS
 62
     0
100
AcDbLine
 10
-0.5
 20
0.0
 30
0.0
 11
-1.0
 21
0.0
 31
0.0
  0
CIRCLE
  5
8F
330
65
100
AcDbEntity
  8
0
  6
CONTINUOUS
 62
     0
100
AcDbCircle
 10
0.0
 20
0.0
 30
0.0
 40
0.5
  0
ENDBLK
  5
67
330
65
100
AcDbEntity
  8
0
100
AcDbBlockEnd
  0
BLOCK
  5
69
330
68
100
AcDbEntity
  8
0
100
AcDbBlockBegin
  2
EX_WNORM
 70
     0
 10
0.0
 20
0.0
 30
0.0
  3
EX_WNORM
  1

  0
LINE
  5
90
330
68
100
AcDbEntity
  8
0
  6
CONTINUOUS
 62
     0
100
AcDbLine
 10
-1.0
 20
0.0
 30
0.0
 11
-1.0
 21
0.0
 31
0.0
  0
LINE
  5
91
330
68
100
AcDbEntity
  8
0
  6
CONTINUOUS
 62
     0
100
AcDbLine
 10
0.0
 20
0.0
 30
0.0
 11
-1.0
 21
0.166666667
 31
0.0
  0
LINE
  5
92
330
68
100
AcDbEntity
  8
0
  6
CONTINUOUS
 62
     0
100
AcDbLine
 10
0.0
 20
0.0
 30
0.0
 11
-1.0
 21
-0.166666667
 31
0.0
  0
LINE
  5
93
330
68
100
AcDbEntity
  8
0
  6
CONTINUOUS
 62
     0
100
AcDbLine
 10
-1.0
 20
0.166666667
 30
0.0
 11
-1.0
 21
-0.166666667
 31
0.0
  0
ENDBLK
  5
6A
330
68
100
AcDbEntity
  8
0
100
AcDbBlockEnd
  0
BLOCK
  5
6C
330
6B
100
AcDbEntity
  8
0
100
AcDbBlockBegin
  2
EX_NNORM
 70
     0
 10
0.0
 20
0.0
 30
0.0
  3
EX_NNORM
  1

  0
LINE
  5
94
330
6B
100
AcDbEntity
  8
0
  6
CONTINUOUS
 62
     0
100
AcDbLine
 10
0.0
 20
0.0
 30
0.0
 11
-1.0
 21
0.0
 31
0.0
  0
LINE
  5
95
330
6B
100
AcDbEntity
  8
0
  6
CONTINUOUS
 62
     0
100
AcDbLine
 10
0.0
 20
0.0
 30
0.0
 11
-1.0
 21
0.166666667
 31
0.0
  0
LINE
  5
96
330
6B
100
AcDbEntity
  8
0
  6
CONTINUOUS
 62
     0
100
AcDbLine
 10
0.0
 20
0.0
 30
0.0
 11
-1.0
 21
-0.166666667
 31
0.0
  0
LINE
  5
97
330
6B
100
AcDbEntity
  8
0
  6
CONTINUOUS
 62
     0
100
AcDbLine
 10
-1.0
 20
0.166666667
 30
0.0
 11
-1.0
 21
-0.166666667
 31
0.0
  0
ENDBLK
  5
6D
330
6B
100
AcDbEntity
  8
0
100
AcDbBlockEnd
  0
BLOCK
  5
6F
330
6E
100
AcDbEntity
  8
0
100
AcDbBlockBegin
  2
EX_BBOX
 70
     0
 10
0.0
 20
0.0
 30
0.0
  3
EX_BBOX
  1

  0
LINE
  5
98
330
6E
100
AcDbEntity
  8
0
  6
CONTINUOUS
 62
     0
100
AcDbLine
 10
0.0
 20
0.0
 30
0.0
 11
-1.0
 21
0.0
 31
0.0
  0
LINE
  5
99
330
6E
100
AcDbEntity
  8
0
  6
CONTINUOUS
 62
     0
100
AcDbLine
 10
-0.5
 20
0.5
 30
0.0
 11
0.5
 21
0.5
 31
0.0
  0
LINE
  5
9A
330
6E
100
AcDbEntity
  8
0
  6
CONTINUOUS
 62
     0
100
AcDbLine
 10
0.5
 20
0.5
 30
0.0
 11
0.5
 21
-0.5
 31
0.0
  0
LINE
  5
9B
330
6E
100
AcDbEntity
  8
0
  6
CONTINUOUS
 62
     0
100
AcDbLine
 10
0.5
 20
-0.5
 30
0.0
 11
-0.5
 21
-0.5
 31
0.0
  0
LINE
  5
9C
330
6E
100
AcDbEntity
  8
0
  6
CONTINUOUS
 62
     0
100
AcDbLine
 10
-0.5
 20
-0.5
 30
0.0
 11
-0.5
 21
0.5
 31
0.0
  0
LINE
  5
9D
330
6E
100
AcDbEntity
  8
0
  6
CONTINUOUS
 62
     0
100
AcDbLine
 10
-0.25
 20
0.25
 30
0.0
 11
0.25
 21
0.25
 31
0.0
  0
LINE
  5
9E
330
6E
100
AcDbEntity
  8
0
  6
CONTINUOUS
 62
     0
100
AcDbLine
 10
0.25
 20
0.25
 30
0.0
 11
0.25
 21
-0.25
 31
0.0
  0
LINE
  5
9F
330
6E
100
AcDbEntity
  8
0
  6
CONTINUOUS
 62
     0
100
AcDbLine
 10
0.25
 20
-0.25
 30
0.0
 11
-0.25
 21
-0.25
 31
0.0
  0
LINE
  5
A0
330
6E
100
AcDbEntity
  8
0
  6
CONTINUOUS
 62
     0
100
AcDbLine
 10
-0.25
 20
-0.25
 30
0.0
 11
-0.25
 21
0.25
 31
0.0
  0
ENDBLK
  5
70
330
6E
100
AcDbEntity
  8
0
100
AcDbBlockEnd
  0
BLOCK
  5
72
330
71
100
AcDbEntity
  8
0
100
AcDbBlockBegin
  2
EX_WBOX
 70
     0
 10
0.0
 20
0.0
 30
0.0
  3
EX_WBOX
  1

  0
LINE
  5
A1
330
71
100
AcDbEntity
  8
0
  6
CONTINUOUS
 62
     0
100
AcDbLine
 10
-0.5
 20
0.0
 30
0.0
 11
-1.0
 21
0.0
 31
0.0
  0
LINE
  5
A2
330
71
100
AcDbEntity
  8
0
  6
CONTINUOUS
 62
     0
100
AcDbLine
 10
-0.5
 20
0.5
 30
0.0
 11
0.5
 21
0.5
 31
0.0
  0
LINE
  5
A3
330
71
100
AcDbEntity
  8
0
  6
CONTINUOUS
 62
     0
100
AcDbLine
 10
0.5
 20
0.5
 30
0.0
 11
0.5
 21
-0.5
 31
0.0
  0
LINE
  5
A4
330
71
100
AcDbEntity
  8
0
  6
CONTINUOUS
 62
     0
100
AcDbLine
 10
0.5
 20
-0.5
 30
0.0
 11
-0.5
 21
-0.5
 31
0.0
  0
LINE
  5
A5
330
71
100
AcDbEntity
  8
0
  6
CONTINUOUS
 62
     0
100
AcDbLine
 10
-0.5
 20
-0.5
 30
0.0
 11
-0.5
 21
0.5
 31
0.0
  0
ENDBLK
  5
73
330
71
100
AcDbEntity
  8
0
100
AcDbBlockEnd
  0
BLOCK
  5
75
330
74
100
AcDbEntity
  8
0
100
AcDbBlockBegin
  2
EX_INTEGRAL
 70
     0
 10
0.0
 20
0.0
 30
0.0
  3
EX_INTEGRAL
  1

  0
LINE
  5
A6
330
74
100
AcDbEntity
  8
0
  6
CONTINUOUS
 62
     0
100
AcDbLine
 10
0.0
 20
0.0
 30
0.0
 11
-1.0
 21
0.0
 31
0.0
  0
ARC
  5
A7
330
74
100
AcDbEntity
  8
0
  6
CONTINUOUS
 62
     0
100
AcDbCircle
 10
0.542115
 20
0.164992
 30
0.0
 40
0.56667
100
AcDbArc
 50
73.07249033629006
 51
196.9275130221199
  0
ARC
  5
A8
330
74
100
AcDbEntity
  8
0
  6
CONTINUOUS
 62
     0
100
AcDbCircle
 10
-0.542115
 20
-0.164992
 30
0.0
 40
0.56667
100
AcDbArc
 50
253.0724869220464
 51
16.9275130559125
  0
ENDBLK
  5
76
330
74
100
AcDbEntity
  8
0
100
AcDbBlockEnd
  0
BLOCK
  5
3DB
330
3DA
100
AcDbEntity
  8
0
100
AcDbBlockBegin
  2
*D15
 70
     1
 10
0.0
 20
0.0
 30
0.0
  3
*D15
  1

  0
LINE
  5
3DD
330
3DA
100
AcDbEntity
  8
寸法
  6
CONTINUOUS
 62
     3
100
AcDbLine
 10
429.0000000000508
 20
1385.999999880788
 30
0.0
 11
429.0000000000508
 21
1607.999999999997
 31
0.0
  0
LINE
  5
3DE
330
3DA
100
AcDbEntity
  8
寸法
  6
CONTINUOUS
 62
     3
100
AcDbLine
 10
779.0000000000509
 20
1385.999999880788
 30
0.0
 11
779.0000000000509
 21
1607.999999999997
 31
0.0
  0
LINE
  5
3DF
330
3DA
100
AcDbEntity
  8
寸法
  6
CONTINUOUS
 62
     3
100
AcDbLine
 10
459.0000000000508
 20
1597.999999999997
 30
0.0
 11
749.0000000000509
 21
1597.999999999997
 31
0.0
  0
INSERT
  5
3E0
330
3DA
100
AcDbEntity
  8
寸法
 62
     3
100
AcDbBlockReference
  2
EX_NORM
 10
429.0000000000508
 20
1597.999999999997
 30
0.0
 41
30.0
 42
30.0
 43
30.0
 50
180.0
  0
INSERT
  5
3E1
330
3DA
100
AcDbEntity
  8
寸法
 62
     3
100
AcDbBlockReference
  2
EX_NORM
 10
779.0000000000509
 20
1597.999999999997
 30
0.0
 41
30.0
 42
30.0
 43
30.0
  0
MTEXT
  5
3E2
330
3DA
100
AcDbEntity
  8
寸法
 62
     2
100
AcDbMText
 10
604.0000000000509
 20
1621.499999940393
 30
0.0
 40
40.0
 41
0.0
 71
     5
 72
     1
  1
350
  7
EXCADDIM1
  0
POINT
  5
3E3
330
3DA
100
AcDbEntity
  8
DEFPOINTS
 62
     0
100
AcDbPoint
 10
429.0000000000508
 20
1378.999999999997
 30
0.0
  0
POINT
  5
3E4
330
3DA
100
AcDbEntity
  8
DEFPOINTS
 62
     0
100
AcDbPoint
 10
779.0000000000509
 20
1378.999999999997
 30
0.0
  0
POINT
  5
3E5
330
3DA
100
AcDbEntity
  8
DEFPOINTS
 62
     0
100
AcDbPoint
 10
779.0000000000509
 20
1597.999999999997
 30
0.0
  0
ENDBLK
  5
3DC
330
3DA
100
AcDbEntity
  8
0
100
AcDbBlockEnd
  0
BLOCK
  5
3E8
330
3E7
100
AcDbEntity
  8
0
100
AcDbBlockBegin
  2
*D16
 70
     1
 10
0.0
 20
0.0
 30
0.0
  3
*D16
  1

  0
LINE
  5
3EA
330
3E7
100
AcDbEntity
  8
寸法
  6
CONTINUOUS
 62
     3
100
AcDbLine
 10
359.0000000000508
 20
1414.999999880788
 30
0.0
 11
359.0000000000508
 21
1667.999999999997
 31
0.0
  0
LINE
  5
3EB
330
3E7
100
AcDbEntity
  8
寸法
  6
CONTINUOUS
 62
     3
100
AcDbLine
 10
849.0000000000509
 20
1414.999999880788
 30
0.0
 11
849.0000000000509
 21
1667.999999999997
 31
0.0
  0
LINE
  5
3EC
330
3E7
100
AcDbEntity
  8
寸法
  6
CONTINUOUS
 62
     3
100
AcDbLine
 10
389.0000000000508
 20
1657.999999999997
 30
0.0
 11
819.0000000000509
 21
1657.999999999997
 31
0.0
  0
INSERT
  5
3ED
330
3E7
100
AcDbEntity
  8
寸法
 62
     3
100
AcDbBlockReference
  2
EX_NORM
 10
359.0000000000508
 20
1657.999999999997
 30
0.0
 41
30.0
 42
30.0
 43
30.0
 50
180.0
  0
INSERT
  5
3EE
330
3E7
100
AcDbEntity
  8
寸法
 62
     3
100
AcDbBlockReference
  2
EX_NORM
 10
849.0000000000509
 20
1657.999999999997
 30
0.0
 41
30.0
 42
30.0
 43
30.0
  0
MTEXT
  5
3EF
330
3E7
100
AcDbEntity
  8
寸法
 62
     2
100
AcDbMText
 10
604.0000000000509
 20
1681.499999940393
 30
0.0
 40
40.0
 41
0.0
 71
     5
 72
     1
  1
490
  7
EXCADDIM1
  0
POINT
  5
3F0
330
3E7
100
AcDbEntity
  8
DEFPOINTS
 62
     0
100
AcDbPoint
 10
359.0000000000508
 20
1407.999999999997
 30
0.0
  0
POINT
  5
3F1
330
3E7
100
AcDbEntity
  8
DEFPOINTS
 62
     0
100
AcDbPoint
 10
849.0000000000509
 20
1407.999999999997
 30
0.0
  0
POINT
  5
3F2
330
3E7
100
AcDbEntity
  8
DEFPOINTS
 62
     0
100
AcDbPoint
 10
849.0000000000509
 20
1657.999999999997
 30
0.0
  0
ENDBLK
  5
3E9
330
3E7
100
AcDbEntity
  8
0
100
AcDbBlockEnd
  0
BLOCK
  5
3F5
330
3F4
100
AcDbEntity
  8
0
100
AcDbBlockBegin
  2
*D17
 70
     1
 10
0.0
 20
0.0
 30
0.0
  3
*D17
  1

  0
LINE
  5
3F7
330
3F4
100
AcDbEntity
  8
寸法
  6
CONTINUOUS
 62
     3
100
AcDbLine
 10
1154.000000000051
 20
1414.999999880788
 30
0.0
 11
1154.000000000051
 21
1607.999999999997
 31
0.0
  0
LINE
  5
3F8
330
3F4
100
AcDbEntity
  8
寸法
  6
CONTINUOUS
 62
     3
100
AcDbLine
 10
1184.000000000051
 20
1597.999999999997
 30
0.0
 11
1584.000000000051
 21
1597.999999999997
 31
0.0
  0
INSERT
  5
3F9
330
3F4
100
AcDbEntity
  8
寸法
 62
     3
100
AcDbBlockReference
  2
EX_NORM
 10
1154.000000000051
 20
1597.999999999997
 30
0.0
 41
30.0
 42
30.0
 43
30.0
 50
180.0
  0
INSERT
  5
3FA
330
3F4
100
AcDbEntity
  8
寸法
 62
     3
100
AcDbBlockReference
  2
EX_NORM
 10
1614.000000000051
 20
1597.999999999997
 30
0.0
 41
30.0
 42
30.0
 43
30.0
  0
MTEXT
  5
3FB
330
3F4
100
AcDbEntity
  8
寸法
 62
     2
100
AcDbMText
 10
1384.000000000051
 20
1621.499999940393
 30
0.0
 40
40.0
 41
0.0
 71
     5
 72
     1
  1
460
  7
EXCADDIM1
  0
POINT
  5
3FC
330
3F4
100
AcDbEntity
  8
DEFPOINTS
 62
     0
100
AcDbPoint
 10
1154.000000000051
 20
1407.999999999997
 30
0.0
  0
POINT
  5
3FD
330
3F4
100
AcDbEntity
  8
DEFPOINTS
 62
     0
100
AcDbPoint
 10
1614.000000000051
 20
1412.999999999997
 30
0.0
  0
POINT
  5
3FE
330
3F4
100
AcDbEntity
  8
DEFPOINTS
 62
     0
100
AcDbPoint
 10
1614.000000000051
 20
1597.999999999997
 30
0.0
  0
ENDBLK
  5
3F6
330
3F4
100
AcDbEntity
  8
0
100
AcDbBlockEnd
  0
BLOCK
  5
401
330
400
100
AcDbEntity
  8
0
100
AcDbBlockBegin
  2
*D18
 70
     1
 10
0.0
 20
0.0
 30
0.0
  3
*D18
  1

  0
LINE
  5
403
330
400
100
AcDbEntity
  8
寸法
  6
CONTINUOUS
 62
     3
100
AcDbLine
 10
416.7500001166603
 20
1317.999999999997
 30
0.0
 11
287.0000000000508
 21
1317.999999999997
 31
0.0
  0
LINE
  5
404
330
400
100
AcDbEntity
  8
寸法
  6
CONTINUOUS
 62
     3
100
AcDbLine
 10
357.0000001192601
 20
1412.999999999997
 30
0.0
 11
287.0000000000508
 21
1412.999999999997
 31
0.0
  0
LINE
  5
405
330
400
100
AcDbEntity
  8
寸法
  6
CONTINUOUS
 62
     3
100
AcDbLine
 10
297.0000000000508
 20
1347.999999999997
 30
0.0
 11
297.0000000000508
 21
1382.999999999997
 31
0.0
  0
INSERT
  5
406
330
400
100
AcDbEntity
  8
寸法
 62
     3
100
AcDbBlockReference
  2
EX_NORM
 10
297.0000000000508
 20
1317.999999999997
 30
0.0
 41
30.0
 42
30.0
 43
30.0
 50
270.0
  0
INSERT
  5
407
330
400
100
AcDbEntity
  8
寸法
 62
     3
100
AcDbBlockReference
  2
EX_NORM
 10
297.0000000000508
 20
1412.999999999997
 30
0.0
 41
30.0
 42
30.0
 43
30.0
 50
90.0
  0
MTEXT
  5
408
330
400
100
AcDbEntity
  8
寸法
 62
     2
100
AcDbMText
 10
273.5000000596557
 20
1365.499999999997
 30
0.0
 40
40.0
 41
0.0
 71
     5
 72
     1
  1
95
  7
EXCADDIM1
 11
0.0
 21
1.0
 31
0.0
  0
POINT
  5
409
330
400
100
AcDbEntity
  8
DEFPOINTS
 62
     0
100
AcDbPoint
 10
423.749999997451
 20
1317.999999999997
 30
0.0
  0
POINT
  5
40A
330
400
100
AcDbEntity
  8
DEFPOINTS
 62
     0
100
AcDbPoint
 10
364.0000000000508
 20
1412.999999999997
 30
0.0
  0
POINT
  5
40B
330
400
100
AcDbEntity
  8
DEFPOINTS
 62
     0
100
AcDbPoint
 10
297.0000000000508
 20
1412.999999999997
 30
0.0
  0
ENDBLK
  5
402
330
400
100
AcDbEntity
  8
0
100
AcDbBlockEnd
  0
BLOCK
  5
40E
330
40D
100
AcDbEntity
  8
0
100
AcDbBlockBegin
  2
*D19
 70
     1
 10
0.0
 20
0.0
 30
0.0
  3
*D19
  1

  0
LINE
  5
410
330
40D
100
AcDbEntity
  8
寸法
  6
CONTINUOUS
 62
     3
100
AcDbLine
 10
357.0000001192601
 20
1412.999999999997
 30
0.0
 11
227.0000000000508
 21
1412.999999999997
 31
0.0
  0
LINE
  5
411
330
40D
100
AcDbEntity
  8
寸法
  6
CONTINUOUS
 62
     3
100
AcDbLine
 10
416.7500001192602
 20
1247.999999999997
 30
0.0
 11
227.0000000000508
 21
1247.999999999997
 31
0.0
  0
LINE
  5
412
330
40D
100
AcDbEntity
  8
寸法
  6
CONTINUOUS
 62
     3
100
AcDbLine
 10
237.0000000000508
 20
1382.999999999997
 30
0.0
 11
237.0000000000508
 21
1277.999999999997
 31
0.0
  0
INSERT
  5
413
330
40D
100
AcDbEntity
  8
寸法
 62
     3
100
AcDbBlockReference
  2
EX_NORM
 10
237.0000000000508
 20
1412.999999999997
 30
0.0
 41
30.0
 42
30.0
 43
30.0
 50
90.0
  0
INSERT
  5
414
330
40D
100
AcDbEntity
  8
寸法
 62
     3
100
AcDbBlockReference
  2
EX_NORM
 10
237.0000000000508
 20
1247.999999999997
 30
0.0
 41
30.0
 42
30.0
 43
30.0
 50
270.0
  0
MTEXT
  5
415
330
40D
100
AcDbEntity
  8
寸法
 62
     2
100
AcDbMText
 10
213.5000000596557
 20
1330.499999999997
 30
0.0
 40
40.0
 41
0.0
 71
     5
 72
     1
  1
（165）
  7
EXCADDIM1
 11
0.0
 21
1.0
 31
0.0
  0
POINT
  5
416
330
40D
100
AcDbEntity
  8
DEFPOINTS
 62
     0
100
AcDbPoint
 10
364.0000000000508
 20
1412.999999999997
 30
0.0
  0
POINT
  5
417
330
40D
100
AcDbEntity
  8
DEFPOINTS
 62
     0
100
AcDbPoint
 10
423.7500000000509
 20
1247.999999999997
 30
0.0
  0
POINT
  5
418
330
40D
100
AcDbEntity
  8
DEFPOINTS
 62
     0
100
AcDbPoint
 10
237.0000000000508
 20
1247.999999999997
 30
0.0
  0
ENDBLK
  5
40F
330
40D
100
AcDbEntity
  8
0
100
AcDbBlockEnd
  0
BLOCK
  5
41B
330
41A
100
AcDbEntity
  8
0
100
AcDbBlockBegin
  2
*D20
 70
     1
 10
0.0
 20
0.0
 30
0.0
  3
*D20
  1

  0
LINE
  5
41D
330
41A
100
AcDbEntity
  8
寸法
  6
CONTINUOUS
 62
     3
100
AcDbLine
 10
416.7500001166603
 20
1317.999999999997
 30
0.0
 11
287.0000000000509
 21
1317.999999999997
 31
0.0
  0
LINE
  5
41E
330
41A
100
AcDbEntity
  8
寸法
  6
CONTINUOUS
 62
     3
100
AcDbLine
 10
297.0000000000509
 20
1287.999999999997
 30
0.0
 11
297.0000000000508
 21
642.9999999999975
 31
0.0
  0
INSERT
  5
41F
330
41A
100
AcDbEntity
  8
寸法
 62
     3
100
AcDbBlockReference
  2
EX_NORM
 10
297.0000000000509
 20
1317.999999999997
 30
0.0
 41
30.0
 42
30.0
 43
30.0
 50
90.0
  0
INSERT
  5
420
330
41A
100
AcDbEntity
  8
寸法
 62
     3
100
AcDbBlockReference
  2
EX_NORM
 10
297.0000000000508
 20
612.9999999999975
 30
0.0
 41
30.0
 42
30.0
 43
30.0
 50
270.0
  0
MTEXT
  5
421
330
41A
100
AcDbEntity
  8
寸法
 62
     2
100
AcDbMText
 10
273.5000000596557
 20
965.499999999997
 30
0.0
 40
40.0
 41
0.0
 71
     5
 72
     1
  1
（705）
  7
EXCADDIM1
 11
8.062896292313194E-17
 21
1.0
 31
0.0
  0
POINT
  5
422
330
41A
100
AcDbEntity
  8
DEFPOINTS
 62
     0
100
AcDbPoint
 10
423.749999997451
 20
1317.999999999997
 30
0.0
  0
POINT
  5
423
330
41A
100
AcDbEntity
  8
DEFPOINTS
 62
     0
100
AcDbPoint
 10
604.0000000000509
 20
612.9999999999975
 30
0.0
  0
POINT
  5
424
330
41A
100
AcDbEntity
  8
DEFPOINTS
 62
     0
100
AcDbPoint
 10
297.0000000000508
 20
612.9999999999975
 30
0.0
  0
ENDBLK
  5
41C
330
41A
100
AcDbEntity
  8
0
100
AcDbBlockEnd
  0
BLOCK
  5
427
330
426
100
AcDbEntity
  8
0
100
AcDbBlockBegin
  2
*D21
 70
     1
 10
0.0
 20
0.0
 30
0.0
  3
*D21
  1

  0
LINE
  5
429
330
426
100
AcDbEntity
  8
寸法
  6
CONTINUOUS
 62
     3
100
AcDbLine
 10
534.0000000000508
 20
832.9999999999975
 30
0.0
 11
674.0000000000509
 21
832.9999999999975
 31
0.0
  0
INSERT
  5
42A
330
426
100
AcDbEntity
  8
寸法
 62
     3
100
AcDbBlockReference
  2
EX_NORM
 10
504.0000000000508
 20
832.9999999999975
 30
0.0
 41
30.0
 42
30.0
 43
30.0
 50
180.0
  0
INSERT
  5
42B
330
426
100
AcDbEntity
  8
寸法
 62
     3
100
AcDbBlockReference
  2
EX_NORM
 10
704.0000000000509
 20
832.9999999999975
 30
0.0
 41
30.0
 42
30.0
 43
30.0
  0
MTEXT
  5
42C
330
426
100
AcDbEntity
  8
寸法
 62
     2
100
AcDbMText
 10
604.0000000000509
 20
856.4999999403929
 30
0.0
 40
40.0
 41
0.0
 71
     5
 72
     1
  1
200
  7
EXCADDIM1
  0
POINT
  5
42D
330
426
100
AcDbEntity
  8
DEFPOINTS
 62
     0
100
AcDbPoint
 10
504.0000000000508
 20
980.4999999999975
 30
0.0
  0
POINT
  5
42E
330
426
100
AcDbEntity
  8
DEFPOINTS
 62
     0
100
AcDbPoint
 10
704.0000000000509
 20
980.4999999999975
 30
0.0
  0
POINT
  5
42F
330
426
100
AcDbEntity
  8
DEFPOINTS
 62
     0
100
AcDbPoint
 10
704.0000000000509
 20
832.9999999999975
 30
0.0
  0
ENDBLK
  5
428
330
426
100
AcDbEntity
  8
0
100
AcDbBlockEnd
  0
BLOCK
  5
432
330
431
100
AcDbEntity
  8
0
100
AcDbBlockBegin
  2
*D22
 70
     1
 10
0.0
 20
0.0
 30
0.0
  3
*D22
  1

  0
LINE
  5
434
330
431
100
AcDbEntity
  8
寸法
  6
CONTINUOUS
 62
     3
100
AcDbLine
 10
1379.000000000151
 20
988.3998866192062
 30
0.0
 11
1379.000000000151
 21
822.9999999999975
 31
0.0
  0
LINE
  5
435
330
431
100
AcDbEntity
  8
寸法
  6
CONTINUOUS
 62
     3
100
AcDbLine
 10
1409.000000000151
 20
832.9999999999975
 30
0.0
 11
1584.000000000051
 21
832.9999999999975
 31
0.0
  0
INSERT
  5
436
330
431
100
AcDbEntity
  8
寸法
 62
     3
100
AcDbBlockReference
  2
EX_NORM
 10
1379.000000000151
 20
832.9999999999975
 30
0.0
 41
30.0
 42
30.0
 43
30.0
 50
180.0
  0
INSERT
  5
437
330
431
100
AcDbEntity
  8
寸法
 62
     3
100
AcDbBlockReference
  2
EX_NORM
 10
1614.000000000051
 20
832.9999999999975
 30
0.0
 41
30.0
 42
30.0
 43
30.0
  0
MTEXT
  5
438
330
431
100
AcDbEntity
  8
寸法
 62
     2
100
AcDbMText
 10
1496.500000000101
 20
856.4999999403929
 30
0.0
 40
40.0
 41
0.0
 71
     5
 72
     1
  1
235
  7
EXCADDIM1
  0
POINT
  5
439
330
431
100
AcDbEntity
  8
DEFPOINTS
 62
     0
100
AcDbPoint
 10
1379.000000000151
 20
995.3998864999969
 30
0.0
  0
POINT
  5
43A
330
431
100
AcDbEntity
  8
DEFPOINTS
 62
     0
100
AcDbPoint
 10
1614.000000000051
 20
612.9999999999975
 30
0.0
  0
POINT
  5
43B
330
431
100
AcDbEntity
  8
DEFPOINTS
 62
     0
100
AcDbPoint
 10
1614.000000000051
 20
832.9999999999975
 30
0.0
  0
ENDBLK
  5
433
330
431
100
AcDbEntity
  8
0
100
AcDbBlockEnd
  0
BLOCK
  5
43E
330
43D
100
AcDbEntity
  8
0
100
AcDbBlockBegin
  2
*D23
 70
     1
 10
0.0
 20
0.0
 30
0.0
  3
*D23
  1

  0
LINE
  5
440
330
43D
100
AcDbEntity
  8
寸法
  6
CONTINUOUS
 62
     3
100
AcDbLine
 10
850.9999998808416
 20
1412.999999999997
 30
0.0
 11
1006.000000000051
 21
1412.999999999997
 31
0.0
  0
LINE
  5
441
330
43D
100
AcDbEntity
  8
寸法
  6
CONTINUOUS
 62
     3
100
AcDbLine
 10
996.0000000000509
 20
642.9999999999975
 30
0.0
 11
996.0000000000509
 21
1382.999999999997
 31
0.0
  0
INSERT
  5
442
330
43D
100
AcDbEntity
  8
寸法
 62
     3
100
AcDbBlockReference
  2
EX_NORM
 10
996.0000000000509
 20
612.9999999999975
 30
0.0
 41
30.0
 42
30.0
 43
30.0
 50
270.0
  0
INSERT
  5
443
330
43D
100
AcDbEntity
  8
寸法
 62
     3
100
AcDbBlockReference
  2
EX_NORM
 10
996.0000000000509
 20
1412.999999999997
 30
0.0
 41
30.0
 42
30.0
 43
30.0
 50
90.0
  0
MTEXT
  5
444
330
43D
100
AcDbEntity
  8
寸法
 62
     2
100
AcDbMText
 10
972.5000000596556
 20
1012.999999999997
 30
0.0
 40
40.0
 41
0.0
 71
     5
 72
     1
  1
800
  7
EXCADDIM1
 11
0.0
 21
1.0
 31
0.0
  0
POINT
  5
445
330
43D
100
AcDbEntity
  8
DEFPOINTS
 62
     0
100
AcDbPoint
 10
714.5000000000505
 20
612.9999999999975
 30
0.0
  0
POINT
  5
446
330
43D
100
AcDbEntity
  8
DEFPOINTS
 62
     0
100
AcDbPoint
 10
844.0000000000509
 20
1412.999999999997
 30
0.0
  0
POINT
  5
447
330
43D
100
AcDbEntity
  8
DEFPOINTS
 62
     0
100
AcDbPoint
 10
996.0000000000509
 20
1412.999999999997
 30
0.0
  0
ENDBLK
  5
43F
330
43D
100
AcDbEntity
  8
0
100
AcDbBlockEnd
  0
BLOCK
  5
44A
330
449
100
AcDbEntity
  8
0
100
AcDbBlockBegin
  2
*D24
 70
     1
 10
0.0
 20
0.0
 30
0.0
  3
*D24
  1

  0
LINE
  5
44C
330
449
100
AcDbEntity
  8
寸法
  6
CONTINUOUS
 62
     3
100
AcDbLine
 10
848.1091275458416
 20
1272.999999999997
 30
0.0
 11
946.0000000000509
 21
1272.999999999997
 31
0.0
  0
LINE
  5
44D
330
449
100
AcDbEntity
  8
寸法
  6
CONTINUOUS
 62
     3
100
AcDbLine
 10
936.0000000000509
 20
1382.999999999997
 30
0.0
 11
936.0000000000509
 21
1302.999999999997
 31
0.0
  0
INSERT
  5
44E
330
449
100
AcDbEntity
  8
寸法
 62
     3
100
AcDbBlockReference
  2
EX_NORM
 10
936.0000000000509
 20
1412.999999999997
 30
0.0
 41
30.0
 42
30.0
 43
30.0
 50
90.0
  0
INSERT
  5
44F
330
449
100
AcDbEntity
  8
寸法
 62
     3
100
AcDbBlockReference
  2
EX_NORM
 10
936.0000000000509
 20
1272.999999999997
 30
0.0
 41
30.0
 42
30.0
 43
30.0
 50
270.0
  0
MTEXT
  5
450
330
449
100
AcDbEntity
  8
寸法
 62
     2
100
AcDbMText
 10
912.5000000596557
 20
1342.999999999997
 30
0.0
 40
40.0
 41
0.0
 71
     5
 72
     1
  1
140
  7
EXCADDIM1
 11
0.0
 21
1.0
 31
0.0
  0
POINT
  5
451
330
449
100
AcDbEntity
  8
DEFPOINTS
 62
     0
100
AcDbPoint
 10
844.0000000000509
 20
1412.999999999997
 30
0.0
  0
POINT
  5
452
330
449
100
AcDbEntity
  8
DEFPOINTS
 62
     0
100
AcDbPoint
 10
841.1091276650509
 20
1272.999999999997
 30
0.0
  0
POINT
  5
453
330
449
100
AcDbEntity
  8
DEFPOINTS
 62
     0
100
AcDbPoint
 10
936.0000000000509
 20
1272.999999999997
 30
0.0
  0
ENDBLK
  5
44B
330
449
100
AcDbEntity
  8
0
100
AcDbBlockEnd
  0
BLOCK
  5
456
330
455
100
AcDbEntity
  8
0
100
AcDbBlockBegin
  2
*D25
 70
     1
 10
0.0
 20
0.0
 30
0.0
  3
*D25
  1

  0
LINE
  5
458
330
455
100
AcDbEntity
  8
寸法
  6
CONTINUOUS
 62
     3
100
AcDbLine
 10
1529.00000000005
 20
598.0000001192068
 30
0.0
 11
1529.00000000005
 21
502.9999999999976
 31
0.0
  0
LINE
  5
459
330
455
100
AcDbEntity
  8
寸法
  6
CONTINUOUS
 62
     3
100
AcDbLine
 10
1614.000000000051
 20
606.0000001192068
 30
0.0
 11
1614.000000000051
 21
502.9999999999976
 31
0.0
  0
LINE
  5
45A
330
455
100
AcDbEntity
  8
寸法
  6
CONTINUOUS
 62
     3
100
AcDbLine
 10
1559.00000000005
 20
512.9999999999975
 30
0.0
 11
1584.000000000051
 21
512.9999999999975
 31
0.0
  0
INSERT
  5
45B
330
455
100
AcDbEntity
  8
寸法
 62
     3
100
AcDbBlockReference
  2
EX_NORM
 10
1529.00000000005
 20
512.9999999999975
 30
0.0
 41
30.0
 42
30.0
 43
30.0
 50
180.0
  0
INSERT
  5
45C
330
455
100
AcDbEntity
  8
寸法
 62
     3
100
AcDbBlockReference
  2
EX_NORM
 10
1614.000000000051
 20
512.9999999999975
 30
0.0
 41
30.0
 42
30.0
 43
30.0
  0
MTEXT
  5
45D
330
455
100
AcDbEntity
  8
寸法
 62
     2
100
AcDbMText
 10
1754.000000000051
 20
536.4999999403929
 30
0.0
 40
40.0
 41
0.0
 71
     5
 72
     1
  1
85（床給水）
  7
EXCADDIM1
  0
POINT
  5
45E
330
455
100
AcDbEntity
  8
DEFPOINTS
 62
     0
100
AcDbPoint
 10
1529.00000000005
 20
604.9999999999975
 30
0.0
  0
POINT
  5
45F
330
455
100
AcDbEntity
  8
DEFPOINTS
 62
     0
100
AcDbPoint
 10
1614.000000000051
 20
612.9999999999975
 30
0.0
  0
POINT
  5
460
330
455
100
AcDbEntity
  8
DEFPOINTS
 62
     0
100
AcDbPoint
 10
1614.000000000051
 20
512.9999999999975
 30
0.0
  0
ENDBLK
  5
457
330
455
100
AcDbEntity
  8
0
100
AcDbBlockEnd
  0
BLOCK
  5
463
330
462
100
AcDbEntity
  8
0
100
AcDbBlockBegin
  2
*D26
 70
     1
 10
0.0
 20
0.0
 30
0.0
  3
*D26
  1

  0
LINE
  5
465
330
462
100
AcDbEntity
  8
寸法
  6
CONTINUOUS
 62
     3
100
AcDbLine
 10
1484.00000000005
 20
576.0000001192068
 30
0.0
 11
1484.00000000005
 21
442.9999999999976
 31
0.0
  0
LINE
  5
466
330
462
100
AcDbEntity
  8
寸法
  6
CONTINUOUS
 62
     3
100
AcDbLine
 10
1614.000000000051
 20
606.0000001192068
 30
0.0
 11
1614.000000000051
 21
442.9999999999976
 31
0.0
  0
LINE
  5
467
330
462
100
AcDbEntity
  8
寸法
  6
CONTINUOUS
 62
     3
100
AcDbLine
 10
1514.00000000005
 20
452.9999999999976
 30
0.0
 11
1584.000000000051
 21
452.9999999999976
 31
0.0
  0
INSERT
  5
468
330
462
100
AcDbEntity
  8
寸法
 62
     3
100
AcDbBlockReference
  2
EX_NORM
 10
1484.00000000005
 20
452.9999999999976
 30
0.0
 41
30.0
 42
30.0
 43
30.0
 50
180.0
  0
INSERT
  5
469
330
462
100
AcDbEntity
  8
寸法
 62
     3
100
AcDbBlockReference
  2
EX_NORM
 10
1614.000000000051
 20
452.9999999999976
 30
0.0
 41
30.0
 42
30.0
 43
30.0
  0
MTEXT
  5
46A
330
462
100
AcDbEntity
  8
寸法
 62
     2
100
AcDbMText
 10
1799.000000000051
 20
476.4999999403929
 30
0.0
 40
40.0
 41
0.0
 71
     5
 72
     1
  1
130（Ｓトラップ）
  7
EXCADDIM1
  0
POINT
  5
46B
330
462
100
AcDbEntity
  8
DEFPOINTS
 62
     0
100
AcDbPoint
 10
1484.00000000005
 20
582.9999999999975
 30
0.0
  0
POINT
  5
46C
330
462
100
AcDbEntity
  8
DEFPOINTS
 62
     0
100
AcDbPoint
 10
1614.000000000051
 20
612.9999999999975
 30
0.0
  0
POINT
  5
46D
330
462
100
AcDbEntity
  8
DEFPOINTS
 62
     0
100
AcDbPoint
 10
1614.000000000051
 20
452.9999999999976
 30
0.0
  0
ENDBLK
  5
464
330
462
100
AcDbEntity
  8
0
100
AcDbBlockEnd
  0
BLOCK
  5
470
330
46F
100
AcDbEntity
  8
0
100
AcDbBlockBegin
  2
*D27
 70
     1
 10
0.0
 20
0.0
 30
0.0
  3
*D27
  1

  0
LINE
  5
472
330
46F
100
AcDbEntity
  8
寸法
  6
CONTINUOUS
 62
     3
100
AcDbLine
 10
1627.399999880842
 20
1082.999999999997
 30
0.0
 11
1724.000000000051
 21
1082.999999999997
 31
0.0
  0
LINE
  5
473
330
46F
100
AcDbEntity
  8
寸法
  6
CONTINUOUS
 62
     3
100
AcDbLine
 10
1620.999999880842
 20
1272.999999999997
 30
0.0
 11
1724.000000000051
 21
1272.999999999997
 31
0.0
  0
LINE
  5
474
330
46F
100
AcDbEntity
  8
寸法
  6
CONTINUOUS
 62
     3
100
AcDbLine
 10
1714.000000000051
 20
1112.999999999997
 30
0.0
 11
1714.000000000051
 21
1242.999999999997
 31
0.0
  0
INSERT
  5
475
330
46F
100
AcDbEntity
  8
寸法
 62
     3
100
AcDbBlockReference
  2
EX_NORM
 10
1714.000000000051
 20
1082.999999999997
 30
0.0
 41
30.0
 42
30.0
 43
30.0
 50
270.0
  0
INSERT
  5
476
330
46F
100
AcDbEntity
  8
寸法
 62
     3
100
AcDbBlockReference
  2
EX_NORM
 10
1714.000000000051
 20
1272.999999999997
 30
0.0
 41
30.0
 42
30.0
 43
30.0
 50
90.0
  0
MTEXT
  5
477
330
46F
100
AcDbEntity
  8
寸法
 62
     2
100
AcDbMText
 10
1690.500000059656
 20
1487.999999999997
 30
0.0
 40
40.0
 41
0.0
 71
     5
 72
     1
  1
190（ボトルトラップ）
  7
EXCADDIM1
 11
0.0
 21
1.0
 31
0.0
  0
POINT
  5
478
330
46F
100
AcDbEntity
  8
DEFPOINTS
 62
     0
100
AcDbPoint
 10
1620.400000000051
 20
1082.999999999997
 30
0.0
  0
POINT
  5
479
330
46F
100
AcDbEntity
  8
DEFPOINTS
 62
     0
100
AcDbPoint
 10
1614.000000000051
 20
1272.999999999997
 30
0.0
  0
POINT
  5
47A
330
46F
100
AcDbEntity
  8
DEFPOINTS
 62
     0
100
AcDbPoint
 10
1714.000000000051
 20
1272.999999999997
 30
0.0
  0
ENDBLK
  5
471
330
46F
100
AcDbEntity
  8
0
100
AcDbBlockEnd
  0
BLOCK
  5
47D
330
47C
100
AcDbEntity
  8
0
100
AcDbBlockBegin
  2
*D28
 70
     1
 10
0.0
 20
0.0
 30
0.0
  3
*D28
  1

  0
LINE
  5
47F
330
47C
100
AcDbEntity
  8
寸法
  6
CONTINUOUS
 62
     3
100
AcDbLine
 10
1665.999999880842
 20
1012.999999999997
 30
0.0
 11
1784.000000000051
 21
1012.999999999998
 31
0.0
  0
LINE
  5
480
330
47C
100
AcDbEntity
  8
寸法
  6
CONTINUOUS
 62
     3
100
AcDbLine
 10
1620.999999880842
 20
1272.999999999997
 30
0.0
 11
1784.000000000051
 21
1272.999999999997
 31
0.0
  0
LINE
  5
481
330
47C
100
AcDbEntity
  8
寸法
  6
CONTINUOUS
 62
     3
100
AcDbLine
 10
1774.000000000051
 20
1042.999999999998
 30
0.0
 11
1774.000000000051
 21
1242.999999999997
 31
0.0
  0
INSERT
  5
482
330
47C
100
AcDbEntity
  8
寸法
 62
     3
100
AcDbBlockReference
  2
EX_NORM
 10
1774.000000000051
 20
1012.999999999998
 30
0.0
 41
30.0
 42
30.0
 43
30.0
 50
270.0
  0
INSERT
  5
483
330
47C
100
AcDbEntity
  8
寸法
 62
     3
100
AcDbBlockReference
  2
EX_NORM
 10
1774.000000000051
 20
1272.999999999997
 30
0.0
 41
30.0
 42
30.0
 43
30.0
 50
90.0
  0
MTEXT
  5
484
330
47C
100
AcDbEntity
  8
寸法
 62
     2
100
AcDbMText
 10
1750.500000059656
 20
1457.999999999997
 30
0.0
 40
40.0
 41
0.0
 71
     5
 72
     1
  1
260（Ｐトラップ）
  7
EXCADDIM1
 11
0.0
 21
1.0
 31
0.0
  0
POINT
  5
485
330
47C
100
AcDbEntity
  8
DEFPOINTS
 62
     0
100
AcDbPoint
 10
1659.000000000051
 20
1012.999999999997
 30
0.0
  0
POINT
  5
486
330
47C
100
AcDbEntity
  8
DEFPOINTS
 62
     0
100
AcDbPoint
 10
1614.000000000051
 20
1272.999999999997
 30
0.0
  0
POINT
  5
487
330
47C
100
AcDbEntity
  8
DEFPOINTS
 62
     0
100
AcDbPoint
 10
1774.000000000051
 20
1272.999999999997
 30
0.0
  0
ENDBLK
  5
47E
330
47C
100
AcDbEntity
  8
0
100
AcDbBlockEnd
  0
BLOCK
  5
48A
330
489
100
AcDbEntity
  8
0
100
AcDbBlockBegin
  2
*D29
 70
     1
 10
0.0
 20
0.0
 30
0.0
  3
*D29
  1

  0
LINE
  5
48C
330
489
100
AcDbEntity
  8
寸法
  6
CONTINUOUS
 62
     3
100
AcDbLine
 10
1628.999999881042
 20
1007.999999999997
 30
0.0
 11
1844.000000000051
 21
1007.999999999998
 31
0.0
  0
LINE
  5
48D
330
489
100
AcDbEntity
  8
寸法
  6
CONTINUOUS
 62
     3
100
AcDbLine
 10
1620.999999880842
 20
1272.999999999997
 30
0.0
 11
1844.000000000051
 21
1272.999999999997
 31
0.0
  0
LINE
  5
48E
330
489
100
AcDbEntity
  8
寸法
  6
CONTINUOUS
 62
     3
100
AcDbLine
 10
1834.000000000051
 20
1037.999999999998
 30
0.0
 11
1834.000000000051
 21
1242.999999999997
 31
0.0
  0
INSERT
  5
48F
330
489
100
AcDbEntity
  8
寸法
 62
     3
100
AcDbBlockReference
  2
EX_NORM
 10
1834.000000000051
 20
1007.999999999998
 30
0.0
 41
30.0
 42
30.0
 43
30.0
 50
270.0
  0
INSERT
  5
490
330
489
100
AcDbEntity
  8
寸法
 62
     3
100
AcDbBlockReference
  2
EX_NORM
 10
1834.000000000051
 20
1272.999999999997
 30
0.0
 41
30.0
 42
30.0
 43
30.0
 50
90.0
  0
MTEXT
  5
491
330
489
100
AcDbEntity
  8
寸法
 62
     2
100
AcDbMText
 10
1810.500000059656
 20
1427.999999999997
 30
0.0
 40
40.0
 41
0.0
 71
     5
 72
     1
  1
265（壁給水）
  7
EXCADDIM1
 11
0.0
 21
1.0
 31
0.0
  0
POINT
  5
492
330
489
100
AcDbEntity
  8
DEFPOINTS
 62
     0
100
AcDbPoint
 10
1622.000000000252
 20
1007.999999999997
 30
0.0
  0
POINT
  5
493
330
489
100
AcDbEntity
  8
DEFPOINTS
 62
     0
100
AcDbPoint
 10
1614.000000000051
 20
1272.999999999997
 30
0.0
  0
POINT
  5
494
330
489
100
AcDbEntity
  8
DEFPOINTS
 62
     0
100
AcDbPoint
 10
1834.000000000051
 20
1272.999999999997
 30
0.0
  0
ENDBLK
  5
48B
330
489
100
AcDbEntity
  8
0
100
AcDbBlockEnd
  0
BLOCK
  5
4A3
330
4A2
100
AcDbEntity
  8
0
100
AcDbBlockBegin
  2
*D30
 70
     1
 10
0.0
 20
0.0
 30
0.0
  3
*D30
  1

  0
LINE
  5
4A5
330
4A2
100
AcDbEntity
  8
寸法
  6
CONTINUOUS
 62
     3
100
AcDbLine
 10
738.4999998808416
 20
1007.999999999997
 30
0.0
 11
802.0000000000505
 21
1007.999999999997
 31
0.0
  0
LINE
  5
4A6
330
4A2
100
AcDbEntity
  8
寸法
  6
CONTINUOUS
 62
     3
100
AcDbLine
 10
792.0000000000505
 20
642.9999999999975
 30
0.0
 11
792.0000000000505
 21
977.9999999999975
 31
0.0
  0
INSERT
  5
4A7
330
4A2
100
AcDbEntity
  8
寸法
 62
     3
100
AcDbBlockReference
  2
EX_NORM
 10
792.0000000000505
 20
612.9999999999975
 30
0.0
 41
30.0
 42
30.0
 43
30.0
 50
270.0
  0
INSERT
  5
4A8
330
4A2
100
AcDbEntity
  8
寸法
 62
     3
100
AcDbBlockReference
  2
EX_NORM
 10
792.0000000000505
 20
1007.999999999997
 30
0.0
 41
30.0
 42
30.0
 43
30.0
 50
90.0
  0
MTEXT
  5
4A9
330
4A2
100
AcDbEntity
  8
寸法
 62
     2
100
AcDbMText
 10
768.5000000596551
 20
810.4999999999967
 30
0.0
 40
40.0
 41
0.0
 71
     5
 72
     1
  1
（395）
  7
EXCADDIM1
 11
0.0
 21
1.0
 31
0.0
  0
POINT
  5
4AA
330
4A2
100
AcDbEntity
  8
DEFPOINTS
 62
     0
100
AcDbPoint
 10
604.0000000000509
 20
612.9999999999975
 30
0.0
  0
POINT
  5
4AB
330
4A2
100
AcDbEntity
  8
DEFPOINTS
 62
     0
100
AcDbPoint
 10
731.5000000000509
 20
1007.999999999997
 30
0.0
  0
POINT
  5
4AC
330
4A2
100
AcDbEntity
  8
DEFPOINTS
 62
     0
100
AcDbPoint
 10
792.0000000000505
 20
1007.999999999997
 30
0.0
  0
ENDBLK
  5
4A4
330
4A2
100
AcDbEntity
  8
0
100
AcDbBlockEnd
  0
ENDSEC
  0
SECTION
  2
ENTITIES
  0
LINE
  5
A9
330
1F
100
AcDbEntity
  8
枠_表
  6
CONTINUOUS
 62
     7
100
AcDbLine
 10
174.0000000000526
 20
92.99999999999841
 30
0.0
 11
1994.000000000052
 21
92.99999999999841
 31
0.0
  0
LINE
  5
AA
330
1F
100
AcDbEntity
  8
枠_表
  6
CONTINUOUS
 62
     7
100
AcDbLine
 10
174.0000000000549
 20
92.99999999999841
 30
0.0
 11
174.0000000000549
 21
2892.999999999999
 31
0.0
  0
HATCH
  5
AB
330
1F
100
AcDbEntity
  8
枠_表
  6
CONTINUOUS
 62
     3
100
AcDbHatch
 10
0.0
 20
0.0
 30
0.0
210
0.0
220
0.0
230
1.0
  2
SOLID
 70
     1
 71
     1
 91
        1
 92
        3
 72
     1
 73
     1
 93
       10
 10
774.7252657333046
 20
123.2169932975362
 42
-0.017362223501556
 10
774.8130157333048
 20
176.1842432975361
 42
-0.0267627618865285
 10
774.8130157333044
 20
176.1842432975369
 42
0.0737939047395297
 10
787.7325157333044
 20
176.2382432975345
 42
0.0183878899657109
 10
787.2127657333049
 20
128.481993297535
 42
-0.1144749489451909
 10
785.120265733304
 20
118.4244932975355
 42
-0.1929163439413163
 10
775.1640157333051
 20
110.6079932975361
 42
-0.0603888289562337
 10
769.8855157333043
 20
109.2917432975362
 42
0.0
 10
768.6502657333041
 20
113.0514932975356
 42
0.0860918333465722
 10
772.3425157333046
 20
115.0157432975362
 42
0.1331843103855141
 97
        0
 75
     0
 76
     1
 98
        1
 10
0.0
 20
0.0
  0
HATCH
  5
AC
330
1F
100
AcDbEntity
  8
枠_表
  6
CONTINUOUS
 62
     3
100
AcDbHatch
 10
0.0
 20
0.0
 30
0.0
210
0.0
220
0.0
230
1.0
  2
SOLID
 70
     1
 71
     1
 91
        1
 92
        3
 72
     1
 73
     1
 93
       16
 10
833.8687657333041
 20
122.1032432975367
 42
-0.0386228372648426
 10
833.8080157333043
 20
154.6449932975368
 42
-0.0398707891902887
 10
839.7142657333043
 20
154.6719932975353
 42
-0.1256886216044368
 10
839.4442657333043
 20
149.1504932975352
 42
-0.0367815758121429
 10
839.4442657333043
 20
149.1504932975361
 42
-0.268021535028829
 10
851.3580157333046
 20
155.3334932975369
 42
-0.2571134422124888
 10
859.5052657333035
 20
151.3037432975372
 42
-0.1522526366014298
 10
861.5775157333045
 20
144.6009932975362
 42
-0.0158825412051521
 10
861.4290157333041
 20
122.0694932975351
 42
-0.0285251271418421
 10
855.7252657333046
 20
122.0694932975356
 42
-0.0452212723224612
 10
856.0155157333045
 20
142.8864932975365
 42
-0.0315567291532142
 10
854.2470157333039
 20
149.0357432975353
 42
-0.1476272403790709
 10
842.731515733304
 20
149.9199932975356
 42
-0.3908144705745794
 10
839.4847657333039
 20
141.8402432975355
 42
-0.2046259928850854
 10
839.4847657333039
 20
141.8402432975365
 42
0.0
 10
839.991015733305
 20
122.0492432975369
 42
-0.0304995761723369
 97
        0
 75
     0
 76
     1
 98
        1
 10
0.0
 20
0.0
  0
HATCH
  5
AD
330
1F
100
AcDbEntity
  8
枠_表
  6
CONTINUOUS
 62
     3
100
AcDbHatch
 10
0.0
 20
0.0
 30
0.0
210
0.0
220
0.0
230
1.0
  2
SOLID
 70
     1
 71
     1
 91
        2
 92
        1
 93
        1
 72
     2
 10
876.2855140383894
 20
166.5835466873666
 40
3.572334466769884
 50
0.0
 51
360.0
 73
     1
 97
        0
 92
        3
 72
     1
 73
     1
 93
        3
 10
873.0930157333038
 20
154.6989932975351
 42
0.1200283885712921
 10
879.3030157333037
 20
122.0627432975365
 42
-0.0401820615762149
 10
873.0997657333038
 20
122.0424932975358
 42
-0.0237521668114666
 97
        0
 75
     0
 76
     1
 98
        1
 10
0.0
 20
0.0
  0
HATCH
  5
AE
330
1F
100
AcDbEntity
  8
枠_表
  6
CONTINUOUS
 62
     3
100
AcDbHatch
 10
0.0
 20
0.0
 30
0.0
210
0.0
220
0.0
230
1.0
  2
SOLID
 70
     1
 71
     1
 91
        1
 92
        3
 72
     1
 73
     1
 93
       30
 10
907.7340157333034
 20
153.3354932975385
 42
-0.0009362235736497
 10
907.7340157333032
 20
153.3354932975363
 42
0.0681165430304653
 10
906.0970934867853
 20
148.4282432975358
 42
0.0
 10
899.9310157333044
 20
152.6469932975353
 42
-0.302112590907374
 10
899.9310157333044
 20
152.6469932975358
 42
0.0
 10
893.7142657333039
 20
147.8814932975352
 42
-0.3704245237568778
 10
893.7142657333035
 20
147.8814932975349
 42
0.0
 10
894.0382657333043
 20
144.6954932975363
 42
-0.0262822419456939
 10
897.8722657333043
 20
141.630993297535
 42
-0.180060563604375
 10
903.9877657333043
 20
139.7679932975359
 42
-0.0298130817160724
 10
903.987765733304
 20
139.7679932975367
 42
-0.3153987453686078
 10
909.6240157333048
 20
133.3217432975364
 42
0.0
 10
909.5902657333047
 20
130.4394932975349
 42
-0.3510306079065168
 10
898.7227657333042
 20
121.3269932975352
 42
0.0
 10
895.5502657333035
 20
121.3269932975367
 42
-0.1053356344842436
 10
888.5302657333041
 20
123.3519932975369
 42
0.1188608286962634
 10
889.812765733304
 20
128.4819932975354
 42
0.0
 10
897.5077657333043
 20
123.756993297537
 42
-0.2447573632916039
 10
897.5077657333039
 20
123.7569932975369
 42
0.0
 10
904.9327657333043
 20
128.9544932975359
 42
-0.3734162676407277
 10
904.9327657333046
 20
128.9544932975362
 42
0.0
 10
902.2395157333044
 20
134.1452432975359
 42
-0.261219770190848
 10
895.9552657333036
 20
136.4267432975371
 42
-0.0572747914118363
 10
895.9552657333046
 20
136.4267432975358
 42
-0.1189658875692221
 10
890.9602657333039
 20
139.3562432975359
 42
-0.2005226878639636
 10
888.8677657333036
 20
144.0744932975583
 42
0.0
 10
888.8340157333042
 20
145.8632432975355
 42
-0.2622894489606957
 10
894.2002657333046
 20
154.0644932975366
 42
-0.0988461274137808
 10
899.2222657333044
 20
155.2727432975355
 42
0.0
 10
901.0852657333038
 20
155.2727432975365
 42
-0.0920156312561188
 97
        0
 75
     0
 76
     1
 98
        1
 10
0.0
 20
0.0
  0
HATCH
  5
AF
330
1F
100
AcDbEntity
  8
枠_表
  6
CONTINUOUS
 62
     3
100
AcDbHatch
 10
0.0
 20
0.0
 30
0.0
210
0.0
220
0.0
230
1.0
  2
SOLID
 70
     1
 71
     1
 91
        2
 92
        3
 72
     1
 73
     1
 93
       27
 10
800.1727657333042
 20
151.364493297536
 42
-0.1769427732109284
 10
800.1727657333049
 20
151.364493297536
 42
0.0
 10
800.1727657333049
 20
147.719493297537
 42
0.0
 10
801.0502657333049
 20
147.7194932975366
 42
-0.207533601427307
 10
806.7474227896247
 20
151.9932359129004
 42
-0.1226604740888933
 10
811.7827657333048
 20
152.1002432975369
 42
-0.3213715781137954
 10
816.9883280222631
 20
145.710651437842
 42
-0.064704004662446
 10
817.0140157333044
 20
142.3329932975367
 42
-0.257798906330806
 10
815.954265733305
 20
141.0504932975362
 42
-0.056602577721096
 10
813.6862657333047
 20
140.2607432975354
 42
-0.0166741689362636
 10
805.3702657333044
 20
138.6812432975358
 42
0.1186092302783404
 10
799.8825157333046
 20
136.0487432975351
 42
0.1699204224386695
 10
797.4930157333047
 20
132.0527432975362
 42
0.1006533494296199
 10
797.2720866796361
 20
128.5853555095689
 42
0.1675695228968024
 10
799.4370157333051
 20
123.9392432975351
 42
0.1376980079804242
 10
803.3722657333041
 20
121.6644932975365
 42
0.0719813663796923
 10
805.1610157333039
 20
121.3674932975353
 42
0.0
 10
807.9015157333049
 20
121.3674932975354
 42
0.1944607457809085
 10
816.9937657333047
 20
126.0452432975357
 42
0.1288538183665954
 10
817.9117657333037
 20
123.7502432975349
 42
0.2098387395261546
 10
820.9087657333046
 20
122.0964932975365
 42
0.0
 10
823.0822657333046
 20
122.0829932975365
 42
0.0945009641609563
 10
826.2210157333041
 20
122.7512432975353
 42
0.0
 10
826.2210157333038
 20
124.3239932975357
 42
-0.2395739894657535
 10
823.4805157333046
 20
124.2969932975355
 42
-0.2502312110031057
 10
822.1305157333043
 20
126.8349932975359
 42
-0.0104343570771765
 10
822.3127657333051
 20
145.7619932975351
 42
0.4051015674140716
 97
        0
 92
        3
 72
     1
 73
     1
 93
        8
 10
817.1355157333044
 20
139.0254932975356
 42
-0.0339435190873666
 10
817.1355157332982
 20
139.0254932975253
 42
-0.0001110072973599
 10
816.852015733305
 20
128.6844932975355
 42
-0.2253076310552528
 10
809.7645157333045
 20
123.9527432975372
 42
0.0
 10
808.0297657333039
 20
123.952743297536
 42
-0.3657967558150132
 10
802.8727657333042
 20
129.4337432975369
 42
0.0
 10
802.872765733305
 20
131.3912432975353
 42
-0.2530797830369341
 10
806.3557657333048
 20
136.2107432975351
 42
-0.0724473624720066
 97
        0
 75
     0
 76
     1
 98
        1
 10
0.0
 20
0.0
  0
TEXT
  5
B1
330
1F
100
AcDbEntity
  8
枠_表
  6
CONTINUOUS
 62
     2
100
AcDbText
 10
923.0000000000564
 20
116.4999999999948
 30
0.0
 40
33.75
  1
ジャニス工業株式会社
 41
1.025641025641026
  7
EXCADTTF1
 72
     5
 11
1373.000000000056
 21
116.4999999999948
 31
0.0
100
AcDbText
  0
ARC
  5
B2
330
1F
100
AcDbEntity
  8
枠_表
  6
CONTINUOUS
 62
     3
100
AcDbCircle
 10
811.2685324126068
 20
137.6167288926838
 30
0.0
 40
17.66683515327064
100
AcDbArc
 50
88.77000393305703
 51
128.9068631829044
  0
ARC
  5
B3
330
1F
100
AcDbEntity
  8
枠_表
  6
CONTINUOUS
 62
     3
100
AcDbCircle
 10
812.0706272603337
 20
145.019162597326
 30
0.0
 40
10.2690407511459
100
AcDbArc
 50
4.148222840814693
 51
92.36000944257292
  0
ARC
  5
B4
330
1F
100
AcDbEntity
  8
枠_表
  6
CONTINUOUS
 62
     3
100
AcDbCircle
 10
1275.650135838764
 20
131.9323843931677
 30
0.0
 40
453.5482655865662
100
AcDbArc
 50
178.2526643324597
 51
180.6439560401927
  0
ARC
  5
B5
330
1F
100
AcDbEntity
  8
枠_表
  6
CONTINUOUS
 62
     3
100
AcDbCircle
 10
825.1823989446577
 20
126.8302928780425
 30
0.0
 40
3.05188683107389
100
AcDbArc
 50
179.9117548191414
 51
236.1065985968857
  0
ARC
  5
B6
330
1F
100
AcDbEntity
  8
枠_表
  6
CONTINUOUS
 62
     3
100
AcDbCircle
 10
824.82420784585
 20
127.006118874104
 30
0.0
 40
3.0240485913648
100
AcDbArc
 50
243.6191685566582
 51
297.5097757939563
  0
LINE
  5
B7
330
1F
100
AcDbEntity
  8
枠_表
  6
CONTINUOUS
 62
     3
100
AcDbLine
 10
826.2210157333041
 20
122.7512432975353
 30
0.0
 11
826.2210157333041
 21
124.3239932975355
 31
0.0
  0
LINE
  5
B8
330
1F
100
AcDbEntity
  8
枠_表
  6
CONTINUOUS
 62
     3
100
AcDbLine
 10
820.9087657333046
 20
122.0964932975365
 30
0.0
 11
823.0822657333041
 21
122.0964932975365
 31
0.0
  0
ARC
  5
B9
330
1F
100
AcDbEntity
  8
枠_表
  6
CONTINUOUS
 62
     3
100
AcDbCircle
 10
822.8995891946132
 20
130.6464512822988
 30
0.0
 40
8.56540620020894
100
AcDbArc
 50
271.2220539293239
 51
292.8159509797653
  0
ARC
  5
BA
330
1F
100
AcDbEntity
  8
枠_表
  6
CONTINUOUS
 62
     3
100
AcDbCircle
 10
821.2937735082002
 20
126.3367456528575
 30
0.0
 40
4.25769550620398
100
AcDbArc
 50
217.4081478714985
 51
264.8118660441384
  0
ARC
  5
BB
330
1F
100
AcDbEntity
  8
枠_表
  6
CONTINUOUS
 62
     3
100
AcDbCircle
 10
821.8315560558855
 20
126.6492594265681
 30
0.0
 40
4.87535134009722
100
AcDbArc
 50
187.1167640402297
 51
216.4860549324747
  0
ARC
  5
BC
330
1F
100
AcDbEntity
  8
枠_表
  6
CONTINUOUS
 62
     3
100
AcDbCircle
 10
806.6613045867553
 20
134.9534026256772
 30
0.0
 40
13.64239920103932
100
AcDbArc
 50
275.2158792069686
 51
319.2336424873511
  0
LINE
  5
BD
330
1F
100
AcDbEntity
  8
枠_表
  6
CONTINUOUS
 62
     3
100
AcDbLine
 10
805.1610157333039
 20
121.3674932975353
 30
0.0
 11
807.9015157333049
 21
121.3674932975353
 31
0.0
  0
ARC
  5
BE
330
1F
100
AcDbEntity
  8
枠_表
  6
CONTINUOUS
 62
     3
100
AcDbCircle
 10
805.2928130737297
 20
127.6963494387367
 30
0.0
 40
6.330228320917859
100
AcDbArc
 50
252.3384873625213
 51
268.8069976857606
  0
ARC
  5
BF
330
1F
100
AcDbEntity
  8
枠_表
  6
CONTINUOUS
 62
     3
100
AcDbCircle
 10
805.456295303743
 20
129.8111104772541
 30
0.0
 40
8.408956577563659
100
AcDbArc
 50
224.289750990011
 51
255.6505938786759
  0
ARC
  5
C0
330
1F
100
AcDbEntity
  8
枠_表
  6
CONTINUOUS
 62
     3
100
AcDbCircle
 10
805.0915332916043
 20
129.4015021572825
 30
0.0
 40
7.8619234712629
100
AcDbArc
 50
185.9586126338419
 51
224.0091989319859
  0
ARC
  5
C1
330
1F
100
AcDbEntity
  8
枠_表
  6
CONTINUOUS
 62
     3
100
AcDbCircle
 10
805.9075018570536
 20
129.77587125477
 30
0.0
 40
8.71709372588669
100
AcDbArc
 50
164.8589457925044
 51
187.8495628504518
  0
ARC
  5
C2
330
1F
100
AcDbEntity
  8
枠_表
  6
CONTINUOUS
 62
     3
100
AcDbCircle
 10
804.3972379030691
 20
130.6366332500745
 30
0.0
 40
7.04795370557922
100
AcDbArc
 50
129.8344892359069
 51
168.4089447024628
  0
ARC
  5
C3
330
1F
100
AcDbEntity
  8
枠_表
  6
CONTINUOUS
 62
     3
100
AcDbCircle
 10
808.0970138676327
 20
125.9608481482822
 30
0.0
 40
13.0093661698492
100
AcDbArc
 50
102.0988446293839
 51
129.1556705448828
  0
ARC
  5
C4
330
1F
100
AcDbEntity
  8
枠_表
  6
CONTINUOUS
 62
     3
100
AcDbCircle
 10
785.8530099986331
 20
264.1202029775156
 30
0.0
 40
126.9482409370382
100
AcDbArc
 50
278.8438342053764
 51
282.6649181367123
  0
ARC
  5
C5
330
1F
100
AcDbEntity
  8
枠_表
  6
CONTINUOUS
 62
     3
100
AcDbCircle
 10
811.3433050111439
 20
150.6407362688704
 30
0.0
 40
10.64113335272784
100
AcDbArc
 50
282.7195832898965
 51
295.6781112778079
  0
ARC
  5
C6
330
1F
100
AcDbEntity
  8
枠_表
  6
CONTINUOUS
 62
     3
100
AcDbCircle
 10
815.3230955673888
 20
142.6511332504249
 30
0.0
 40
1.72058828228131
100
AcDbArc
 50
291.5204897073511
 51
349.3445900274031
  0
ARC
  5
C7
330
1F
100
AcDbEntity
  8
枠_表
  6
CONTINUOUS
 62
     3
100
AcDbCircle
 10
804.0053873567109
 20
143.9229870375068
 30
0.0
 40
13.10543751018921
100
AcDbArc
 50
353.0315250986587
 51
7.839947970678348
  0
ARC
  5
C8
330
1F
100
AcDbEntity
  8
枠_表
  6
CONTINUOUS
 62
     3
100
AcDbCircle
 10
809.9283412818232
 20
145.2741886153383
 30
0.0
 40
7.07346538626002
100
AcDbArc
 50
3.537639967999379
 51
74.8013566619203
  0
ARC
  5
C9
330
1F
100
AcDbEntity
  8
枠_表
  6
CONTINUOUS
 62
     3
100
AcDbCircle
 10
809.4799095798851
 20
141.9383830512977
 30
0.0
 40
10.4195273466423
100
AcDbArc
 50
77.23143261361693
 51
105.203415964315
  0
ARC
  5
CA
330
1F
100
AcDbEntity
  8
枠_表
  6
CONTINUOUS
 62
     3
100
AcDbCircle
 10
808.8253617703532
 20
143.2890191857844
 30
0.0
 40
8.94881105176719
100
AcDbArc
 50
103.4267945469744
 51
150.3242613737993
  0
LINE
  5
CB
330
1F
100
AcDbEntity
  8
枠_表
  6
CONTINUOUS
 62
     3
100
AcDbLine
 10
800.1727657333049
 20
151.364493297536
 30
0.0
 11
800.1727657333049
 21
147.719493297537
 31
0.0
  0
ARC
  5
CC
330
1F
100
AcDbEntity
  8
枠_表
  6
CONTINUOUS
 62
     3
100
AcDbCircle
 10
705.1439565227616
 20
126.7342761922744
 30
0.0
 40
69.67015049800598
100
AcDbArc
 50
353.1274757312911
 51
357.106204490141
  0
ARC
  5
CD
330
1F
100
AcDbEntity
  8
枠_表
  6
CONTINUOUS
 62
     3
100
AcDbCircle
 10
280.3385521229861
 20
150.5197335838791
 30
0.0
 40
495.1400430399008
100
AcDbArc
 50
356.8390243485978
 51
2.971133813187157
  0
ARC
  5
CE
330
1F
100
AcDbEntity
  8
枠_表
  6
CONTINUOUS
 62
     3
100
AcDbCircle
 10
767.0927386496567
 20
120.3407518472871
 30
0.0
 40
7.47769185530633
100
AcDbArc
 50
314.592391474832
 51
344.9374073189123
  0
ARC
  5
CF
330
1F
100
AcDbEntity
  8
枠_表
  6
CONTINUOUS
 62
     3
100
AcDbCircle
 10
764.8347289685984
 20
124.675985944594
 30
0.0
 40
12.23467000390025
100
AcDbArc
 50
288.1715191042997
 51
307.8537826235693
  0
LINE
  5
D0
330
1F
100
AcDbEntity
  8
枠_表
  6
CONTINUOUS
 62
     3
100
AcDbLine
 10
769.8855157333043
 20
109.2917432975362
 30
0.0
 11
768.6502657333045
 21
113.0514932975355
 31
0.0
  0
ARC
  5
D1
330
1F
100
AcDbEntity
  8
枠_表
  6
CONTINUOUS
 62
     3
100
AcDbCircle
 10
767.0955749867198
 20
131.7223152915342
 30
0.0
 40
22.60341410821362
100
AcDbArc
 50
277.0901027239701
 51
290.9134154817058
  0
ARC
  5
D2
330
1F
100
AcDbEntity
  8
枠_表
  6
CONTINUOUS
 62
     3
100
AcDbCircle
 10
770.3897327886023
 20
126.9383518626781
 30
0.0
 40
17.01394688196115
100
AcDbArc
 50
286.2966123578915
 51
329.973223283839
  0
ARC
  5
D3
330
1F
100
AcDbEntity
  8
枠_表
  6
CONTINUOUS
 62
     3
100
AcDbCircle
 10
764.4899361791158
 20
127.9631356880039
 30
0.0
 40
22.72875263114311
100
AcDbArc
 50
335.1860595856123
 51
1.308075913059364
  0
ARC
  5
D4
330
1F
100
AcDbEntity
  8
枠_表
  6
CONTINUOUS
 62
     3
100
AcDbCircle
 10
1436.542531413488
 20
145.296036095079
 30
0.0
 40
649.5474244683604
100
AcDbArc
 50
177.2695926307304
 51
181.4833117237826
  0
ARC
  5
D5
330
1F
100
AcDbEntity
  8
枠_表
  6
CONTINUOUS
 62
     3
100
AcDbCircle
 10
781.0908200122816
 20
219.7417570522187
 30
0.0
 40
44.00758833490465
100
AcDbArc
 50
261.7986203004403
 51
278.6803384946418
  0
ARC
  5
D6
330
1F
100
AcDbEntity
  8
枠_表
  6
CONTINUOUS
 62
     3
100
AcDbCircle
 10
805.6056099354271
 20
178.7501381160457
 30
0.0
 40
41.36406814694017
100
AcDbArc
 50
278.4088456599976
 51
286.1851416003176
  0
ARC
  5
D7
330
1F
100
AcDbEntity
  8
枠_表
  6
CONTINUOUS
 62
     3
100
AcDbCircle
 10
814.5660651758249
 20
118.8318862667923
 30
0.0
 40
19.22065786155208
100
AcDbArc
 50
98.71271710191789
 51
115.2874718053599
  0
ARC
  5
D8
330
1F
100
AcDbEntity
  8
枠_表
  6
CONTINUOUS
 62
     3
100
AcDbCircle
 10
809.0701866838384
 20
130.5807479047128
 30
0.0
 40
6.25019433457053
100
AcDbArc
 50
115.7403688633493
 51
172.5491744442191
  0
LINE
  5
D9
330
1F
100
AcDbEntity
  8
枠_表
  6
CONTINUOUS
 62
     3
100
AcDbLine
 10
802.8727657333042
 20
131.3912432975356
 30
0.0
 11
802.8727657333042
 21
129.4337432975369
 31
0.0
  0
ARC
  5
DA
330
1F
100
AcDbEntity
  8
枠_表
  6
CONTINUOUS
 62
     3
100
AcDbCircle
 10
808.6959653489282
 20
129.7461380097737
 30
0.0
 40
5.83157304846997
100
AcDbArc
 50
183.0707787095794
 51
263.4402016072427
  0
LINE
  5
DB
330
1F
100
AcDbEntity
  8
枠_表
  6
CONTINUOUS
 62
     3
100
AcDbLine
 10
808.029765733304
 20
123.9527432975372
 30
0.0
 11
809.7645157333045
 21
123.9527432975372
 31
0.0
  0
ARC
  5
DC
330
1F
100
AcDbEntity
  8
枠_表
  6
CONTINUOUS
 62
     3
100
AcDbCircle
 10
808.3244690766463
 20
133.7836489530157
 30
0.0
 40
9.935816039979159
100
AcDbArc
 50
278.3335103000368
 51
329.1221464187299
  0
ARC
  5
DD
330
1F
100
AcDbEntity
  8
枠_表
  6
CONTINUOUS
 62
     3
100
AcDbCircle
 10
-22472.0154221773
 20
772.3265245587789
 30
0.0
 40
23297.76001260591
100
AcDbArc
 50
358.4169008257799
 51
358.4423418242109
  0
ARC
  5
DE
330
1F
100
AcDbEntity
  8
枠_表
  6
CONTINUOUS
 62
     3
100
AcDbCircle
 10
836.5808780069855
 20
82.50692545116708
 30
0.0
 40
39.68909094418497
100
AcDbArc
 50
85.07099551674689
 51
93.91830029343228
  0
ARC
  5
DF
330
1F
100
AcDbEntity
  8
枠_表
  6
CONTINUOUS
 62
     3
100
AcDbCircle
 10
913.4088578951585
 20
130.9150147009775
 30
0.0
 40
73.95120993114925
100
AcDbArc
 50
179.8977458165987
 51
186.8855675734268
  0
ARC
  5
E0
330
1F
100
AcDbEntity
  8
枠_表
  6
CONTINUOUS
 62
     3
100
AcDbCircle
 10
850.566172236694
 20
142.0795225138006
 30
0.0
 40
11.08398956318131
100
AcDbArc
 50
134.9787476233347
 51
181.2369872983282
  0
ARC
  5
E1
330
1F
100
AcDbEntity
  8
枠_表
  6
CONTINUOUS
 62
     3
100
AcDbCircle
 10
848.0100145206071
 20
143.2366273138639
 30
0.0
 40
8.51645057047003
100
AcDbArc
 50
42.91644474042847
 51
128.3015542351336
  0
ARC
  5
E2
330
1F
100
AcDbEntity
  8
枠_表
  6
CONTINUOUS
 62
     3
100
AcDbCircle
 10
844.9447404569067
 20
143.03151388215
 30
0.0
 40
11.07172507744154
100
AcDbArc
 50
359.2495022237244
 51
32.84055016678327
  0
ARC
  5
E3
330
1F
100
AcDbEntity
  8
枠_表
  6
CONTINUOUS
 62
     3
100
AcDbCircle
 10
691.1173378650284
 20
134.7751337882421
 30
0.0
 40
165.0975566668588
100
AcDbArc
 50
355.5862454873798
 51
2.816115806820253
  0
ARC
  5
E4
330
1F
100
AcDbEntity
  8
枠_表
  6
CONTINUOUS
 62
     3
100
AcDbCircle
 10
858.5771407333046
 20
90.60152619227283
 30
0.0
 40
31.59693252126744
100
AcDbArc
 50
84.82155189294139
 51
95.17844810705873
  0
ARC
  5
E5
330
1F
100
AcDbEntity
  8
枠_表
  6
CONTINUOUS
 62
     3
100
AcDbCircle
 10
1024.657633661752
 20
129.9067374739077
 30
0.0
 40
163.4166579853822
100
AcDbArc
 50
176.2131780319488
 51
182.7488833337936
  0
ARC
  5
E6
330
1F
100
AcDbEntity
  8
枠_表
  6
CONTINUOUS
 62
     3
100
AcDbCircle
 10
800.19136012106
 20
142.3315774812097
 30
0.0
 40
61.42809087866958
100
AcDbArc
 50
358.4775281223095
 51
2.117232414210064
  0
ARC
  5
E7
330
1F
100
AcDbEntity
  8
枠_表
  6
CONTINUOUS
 62
     3
100
AcDbCircle
 10
849.7905515345362
 20
144.6285942451489
 30
0.0
 40
11.7869965146059
100
AcDbArc
 50
359.8658335690532
 51
34.49363429411157
  0
ARC
  5
E8
330
1F
100
AcDbEntity
  8
枠_表
  6
CONTINUOUS
 62
     3
100
AcDbCircle
 10
851.7724057414309
 20
145.9204664797956
 30
0.0
 40
9.4221437555554
100
AcDbArc
 50
34.84393737091607
 51
92.5207065423111
  0
ARC
  5
E9
330
1F
100
AcDbEntity
  8
枠_表
  6
CONTINUOUS
 62
     3
100
AcDbCircle
 10
850.754106900309
 20
141.9275988818556
 30
0.0
 40
13.4194899665726
100
AcDbArc
 50
87.42068310381028
 51
147.4361518966862
  0
ARC
  5
EA
330
1F
100
AcDbEntity
  8
枠_表
  6
CONTINUOUS
 62
     3
100
AcDbCircle
 10
877.0574727396703
 20
150.0785681382997
 30
0.0
 40
37.6246550045818
100
AcDbArc
 50
172.9875214416311
 51
181.4134392789641
  0
ARC
  5
EB
330
1F
100
AcDbEntity
  8
枠_表
  6
CONTINUOUS
 62
     3
100
AcDbCircle
 10
836.7082849861779
 20
166.2206879814433
 30
0.0
 40
11.93349358546016
100
AcDbArc
 50
255.9341994177206
 51
284.5896440601899
  0
ARC
  5
EC
330
1F
100
AcDbEntity
  8
枠_表
  6
CONTINUOUS
 62
     3
100
AcDbCircle
 10
630.1176988672136
 20
137.9938058671708
 30
0.0
 40
204.3697806131072
100
AcDbArc
 50
355.5405243117485
 51
4.673398698656258
  0
LINE
  5
ED
330
1F
100
AcDbEntity
  8
枠_表
  6
CONTINUOUS
 62
     3
100
AcDbLine
 10
839.4847657333039
 20
141.8402432975365
 30
0.0
 11
839.4847657333039
 21
131.046993297535
 31
0.0
  0
CIRCLE
  5
EE
330
1F
100
AcDbEntity
  8
枠_表
  6
CONTINUOUS
 62
     3
100
AcDbCircle
 10
876.2855140383894
 20
166.5835466873666
 30
0.0
 40
3.57233446676989
  0
ARC
  5
EF
330
1F
100
AcDbEntity
  8
枠_表
  6
CONTINUOUS
 62
     3
100
AcDbCircle
 10
876.1456076028267
 20
167.5332474358022
 30
0.0
 40
13.19228548840207
100
AcDbArc
 50
256.6209501743446
 51
283.9984576255729
  0
ARC
  5
F0
330
1F
100
AcDbEntity
  8
枠_表
  6
CONTINUOUS
 62
     3
100
AcDbCircle
 10
876.4144089371873
 20
56.79804184122831
 30
0.0
 40
65.32859485251088
100
AcDbArc
 50
87.46575055044718
 51
92.90832285102188
  0
ARC
  5
F1
330
1F
100
AcDbEntity
  8
枠_表
  6
CONTINUOUS
 62
     3
100
AcDbCircle
 10
1082.254047179611
 20
138.1881005739349
 30
0.0
 40
203.5906390589
100
AcDbArc
 50
175.3387608397566
 51
184.5428594926176
  0
ARC
  5
F2
330
1F
100
AcDbEntity
  8
枠_表
  6
CONTINUOUS
 62
     3
100
AcDbCircle
 10
651.6900575364411
 20
138.3249792766181
 30
0.0
 40
222.0076085035812
100
AcDbArc
 50
355.7940354718673
 51
4.229650257234378
  0
ARC
  5
F3
330
1F
100
AcDbEntity
  8
枠_表
  6
CONTINUOUS
 62
     3
100
AcDbCircle
 10
1221.644453232868
 20
965.0297432964176
 30
0.0
 40
870.2800228963156
100
AcDbArc
 50
248.6422112053103
 51
248.8567777804232
  0
ARC
  5
F4
330
1F
100
AcDbEntity
  8
枠_表
  6
CONTINUOUS
 62
     3
100
AcDbCircle
 10
900.8542828461108
 20
145.1663038363911
 30
0.0
 40
10.10907867592157
100
AcDbArc
 50
67.66151957087348
 51
88.69073168448988
  0
ARC
  5
F5
330
1F
100
AcDbEntity
  8
枠_表
  6
CONTINUOUS
 62
     3
100
AcDbCircle
 10
899.7711044284446
 20
142.0979097937568
 30
0.0
 40
13.19974865367525
100
AcDbArc
 50
92.38301574576484
 51
114.9635286746436
  0
ARC
  5
F6
330
1F
100
AcDbEntity
  8
枠_表
  6
CONTINUOUS
 62
     3
100
AcDbCircle
 10
898.796349680015
 20
145.2009291101815
 30
0.0
 40
9.9843256030919
100
AcDbArc
 50
117.4083995939977
 51
176.1964688215695
  0
ARC
  5
F7
330
1F
100
AcDbEntity
  8
枠_表
  6
CONTINUOUS
 62
     3
100
AcDbCircle
 10
895.5599257926539
 20
144.219276907548
 30
0.0
 40
6.693726059056109
100
AcDbArc
 50
181.2393899443581
 51
226.5942921332421
  0
ARC
  5
F8
330
1F
100
AcDbEntity
  8
枠_表
  6
CONTINUOUS
 62
     3
100
AcDbCircle
 10
899.5268145800039
 20
148.2396411006637
 30
0.0
 40
12.34100950779567
100
AcDbArc
 50
226.0402388947521
 51
253.1776672992999
  0
ARC
  5
F9
330
1F
100
AcDbEntity
  8
枠_表
  6
CONTINUOUS
 62
     3
100
AcDbCircle
 10
889.1714891830966
 20
107.9457141755172
 30
0.0
 40
29.27778413972754
100
AcDbArc
 50
63.49050203733571
 51
76.60259219849584
  0
ARC
  5
FA
330
1F
100
AcDbEntity
  8
枠_表
  6
CONTINUOUS
 62
     3
100
AcDbCircle
 10
900.3080045854207
 20
129.9846225433119
 30
0.0
 40
4.58710152219014
100
AcDbArc
 50
6.53892419415897
 51
65.09756080693691
  0
ARC
  5
FB
330
1F
100
AcDbEntity
  8
枠_表
  6
CONTINUOUS
 62
     3
100
AcDbCircle
 10
899.035777744705
 20
129.7002363757117
 30
0.0
 40
5.943954918766759
100
AcDbArc
 50
270.8867385422408
 51
352.7925382056677
  0
ARC
  5
FC
330
1F
100
AcDbEntity
  8
枠_表
  6
CONTINUOUS
 62
     3
100
AcDbCircle
 10
898.6361043235402
 20
132.6658639777345
 30
0.0
 40
8.98004035462527
100
AcDbArc
 50
207.7689879465537
 51
262.7817283832026
  0
ARC
  5
FD
330
1F
100
AcDbEntity
  8
枠_表
  6
CONTINUOUS
 62
     3
100
AcDbCircle
 10
896.793005459331
 20
138.8156576810987
 30
0.0
 40
17.5327631578002
100
AcDbArc
 50
241.8829576087176
 51
265.9354096935781
  0
ARC
  5
FE
330
1F
100
AcDbEntity
  8
枠_表
  6
CONTINUOUS
 62
     3
100
AcDbCircle
 10
898.4663886468101
 20
132.6692467117989
 30
0.0
 40
11.34515058180645
100
AcDbArc
 50
271.2948770866743
 51
348.6654156292868
  0
ARC
  5
FF
330
1F
100
AcDbEntity
  8
枠_表
  6
CONTINUOUS
 62
     3
100
AcDbCircle
 10
902.2045721292491
 20
132.5217258531536
 30
0.0
 40
7.462450757296059
100
AcDbArc
 50
6.154262763177246
 51
76.17509904255616
  0
ARC
  5
100
330
1F
100
AcDbEntity
  8
枠_表
  6
CONTINUOUS
 62
     3
100
AcDbCircle
 10
916.5384669692596
 20
191.9359310503462
 30
0.0
 40
53.65644258516679
100
AcDbArc
 50
249.6420733479936
 51
256.4727051201885
  0
ARC
  5
101
330
1F
100
AcDbEntity
  8
枠_表
  6
CONTINUOUS
 62
     3
100
AcDbCircle
 10
900.0721352387986
 20
148.3138641766557
 30
0.0
 40
7.03563707337184
100
AcDbArc
 50
210.9501336849607
 51
251.7794729821079
  0
ARC
  5
102
330
1F
100
AcDbEntity
  8
枠_表
  6
CONTINUOUS
 62
     3
100
AcDbCircle
 10
907.3031407333169
 20
149.38231829754
 30
0.0
 40
14.068519372934
100
AcDbArc
 50
193.4375782160214
 51
199.459638038058
  0
ARC
  5
103
330
1F
100
AcDbEntity
  8
枠_表
  6
CONTINUOUS
 62
     3
100
AcDbCircle
 10
899.035096486107
 20
147.2674994707866
 30
0.0
 40
5.35613931103931
100
AcDbArc
 50
92.11404364449162
 51
173.4175047026091
  0
ARC
  5
104
330
1F
100
AcDbEntity
  8
枠_表
  6
CONTINUOUS
 62
     3
100
AcDbCircle
 10
899.4147339128042
 20
146.5429236291614
 30
0.0
 40
6.12586430102253
100
AcDbArc
 50
17.92452211681263
 51
85.16543319077402
  0
LINE
  5
105
330
1F
100
AcDbEntity
  8
枠_表
  6
CONTINUOUS
 62
     3
100
AcDbLine
 10
901.0852657333046
 20
155.2727432975355
 30
0.0
 11
899.2222657333044
 21
155.2727432975355
 31
0.0
  0
LINE
  5
106
330
1F
100
AcDbEntity
  8
枠_表
  6
CONTINUOUS
 62
     3
100
AcDbLine
 10
897.5077657333039
 20
123.7569932975369
 30
0.0
 11
899.1277657333048
 21
123.7569932975369
 31
0.0
  0
LINE
  5
107
330
1F
100
AcDbEntity
  8
枠_表
  6
CONTINUOUS
 62
     3
100
AcDbLine
 10
890.6902657333048
 20
128.4819932975354
 30
0.0
 11
889.812765733304
 21
128.4819932975354
 31
0.0
  0
LINE
  5
108
330
1F
100
AcDbEntity
  8
枠_表
  6
CONTINUOUS
 62
     3
100
AcDbLine
 10
895.5502657333042
 20
121.3269932975352
 30
0.0
 11
898.7227657333042
 21
121.3269932975352
 31
0.0
  0
LINE
  5
109
330
1F
100
AcDbEntity
  8
枠_表
  6
CONTINUOUS
 62
     3
100
AcDbLine
 10
800.1727657333049
 20
147.719493297537
 30
0.0
 11
801.0502657333046
 21
147.719493297537
 31
0.0
  0
ARC
  5
10A
330
1F
100
AcDbEntity
  8
枠_表
  6
CONTINUOUS
 62
     3
100
AcDbCircle
 10
878.534413132148
 20
128.5779759564964
 30
0.0
 40
11.27953740078838
100
AcDbArc
 50
332.3987521421788
 51
359.5124385477116
  0
LINE
  5
10B
330
1F
100
AcDbEntity
  8
枠_表
  6
CONTINUOUS
 62
     3
100
AcDbLine
 10
904.8652657333039
 20
130.5069932975364
 30
0.0
 11
904.9327657333046
 21
128.9544932975362
 31
0.0
  0
LINE
  5
10C
330
1F
100
AcDbEntity
  8
枠_表
  6
CONTINUOUS
 62
     3
100
AcDbLine
 10
909.6240157333048
 20
133.3217432975364
 30
0.0
 11
909.5902657333036
 21
130.4394932975363
 31
0.0
  0
LINE
  5
10D
330
1F
100
AcDbEntity
  8
枠_表
  6
CONTINUOUS
 62
     3
100
AcDbLine
 10
893.7142657333035
 20
147.8814932975349
 30
0.0
 11
893.6197657333039
 21
146.1129932975366
 31
0.0
  0
LINE
  5
10E
330
1F
100
AcDbEntity
  8
枠_表
  6
CONTINUOUS
 62
     3
100
AcDbLine
 10
888.8340157333041
 20
145.8632432975362
 30
0.0
 11
888.8677657333036
 21
144.0744932975583
 31
0.0
  0
LINE
  5
10F
330
1F
100
AcDbEntity
  8
枠_表
  6
CONTINUOUS
 62
     3
100
AcDbLine
 10
898.8375157333038
 20
152.6199932975358
 30
0.0
 11
899.9310157333044
 21
152.6469932975358
 31
0.0
  0
LINE
  5
110
330
1F
100
AcDbEntity
  8
枠_表
  6
CONTINUOUS
 62
     3
100
AcDbLine
 10
905.2432657333045
 20
148.4282432975358
 30
0.0
 11
906.0970934867853
 21
148.4282432975358
 31
0.0
  0
ARC
  5
111
330
1F
100
AcDbEntity
  8
枠_表
  6
CONTINUOUS
 62
     3
100
AcDbCircle
 10
924.842481068924
 20
144.9019437507452
 30
0.0
 40
19.07418003737831
100
AcDbArc
 50
153.7591918158497
 51
169.3462759801917
  0
TEXT
  5
112
330
1F
100
AcDbEntity
  8
枠_表
  6
CONTINUOUS
 62
     2
100
AcDbText
 10
1884.537109400053
 20
260.7227782999946
 30
0.0
 40
30.0
  1
１
 41
1.101333333333329
  7
EXCADSTD
 72
     5
 11
1908.137109400053
 21
260.7227782999946
 31
0.0
100
AcDbText
  0
TEXT
  5
113
330
1F
100
AcDbEntity
  8
枠_表
  6
CONTINUOUS
 62
     2
100
AcDbText
 10
196.5000000000545
 20
266.7499999999957
 30
0.0
 40
42.5
  1
製図
 41
1.509694117647058
  7
EXCADSTD
 72
     5
 11
297.3260000000545
 21
266.7499999999957
 31
0.0
100
AcDbText
  0
TEXT
  5
114
330
1F
100
AcDbEntity
  8
枠_表
  6
CONTINUOUS
 62
     2
100
AcDbText
 10
351.5000000000542
 20
266.7499999999957
 30
0.0
 40
42.5
  1
写図
 41
1.509694117647058
  7
EXCADSTD
 72
     5
 11
452.3260000000541
 21
266.7499999999957
 31
0.0
100
AcDbText
  0
TEXT
  5
115
330
1F
100
AcDbEntity
  8
枠_表
  6
CONTINUOUS
 62
     2
100
AcDbText
 10
501.5000000000542
 20
266.7499999999957
 30
0.0
 40
42.5
  1
検図
 41
1.303826737967914
  7
EXCADSTD
 72
     5
 11
588.5770000000542
 21
266.7499999999957
 31
0.0
100
AcDbText
  0
TEXT
  5
116
330
1F
100
AcDbEntity
  8
枠_表
  6
CONTINUOUS
 62
     2
100
AcDbText
 10
631.5000000000543
 20
266.7499999999957
 30
0.0
 40
42.5
  1
承認
 41
1.303826737967914
  7
EXCADSTD
 72
     5
 11
718.5770000000543
 21
266.7499999999957
 31
0.0
100
AcDbText
  0
TEXT
  5
117
330
1F
100
AcDbEntity
  8
枠_表
  6
CONTINUOUS
 62
     2
100
AcDbText
 10
749.7500000000542
 20
256.7499999999957
 30
0.0
 40
42.5
  1
品
 41
1.12
  7
EXCADSTD
 72
     5
 11
783.7500000000542
 21
256.7499999999957
 31
0.0
100
AcDbText
  0
TEXT
  5
118
330
1F
100
AcDbEntity
  8
枠_表
  6
CONTINUOUS
 62
     2
100
AcDbText
 10
749.7500000000542
 20
206.7499999999957
 30
0.0
 40
42.5
  1
名
 41
1.12
  7
EXCADSTD
 72
     5
 11
783.7500000000542
 21
206.7499999999957
 31
0.0
100
AcDbText
  0
TEXT
  5
119
330
1F
100
AcDbEntity
  8
枠_表
  6
CONTINUOUS
 62
     2
100
AcDbText
 10
1389.750000000054
 20
256.7499999999957
 30
0.0
 40
42.5
  1
品
 41
1.12
  7
EXCADSTD
 72
     5
 11
1423.750000000054
 21
256.7499999999957
 31
0.0
100
AcDbText
  0
TEXT
  5
11A
330
1F
100
AcDbEntity
  8
枠_表
  6
CONTINUOUS
 62
     2
100
AcDbText
 10
1389.750000000054
 20
206.7499999999957
 30
0.0
 40
42.5
  1
番
 41
1.12
  7
EXCADSTD
 72
     5
 11
1423.750000000054
 21
206.7499999999957
 31
0.0
100
AcDbText
  0
TEXT
  5
11B
330
1F
100
AcDbEntity
  8
枠_表
  6
CONTINUOUS
 62
     2
100
AcDbText
 10
1810.750000000053
 20
256.7499999999957
 30
0.0
 40
42.5
  1
尺
 41
1.12
  7
EXCADSTD
 72
     5
 11
1844.750000000053
 21
256.7499999999957
 31
0.0
100
AcDbText
  0
TEXT
  5
11C
330
1F
100
AcDbEntity
  8
枠_表
  6
CONTINUOUS
 62
     2
100
AcDbText
 10
1810.750000000053
 20
206.7499999999957
 30
0.0
 40
42.5
  1
度
 41
1.12
  7
EXCADSTD
 72
     5
 11
1844.750000000053
 21
206.7499999999957
 31
0.0
100
AcDbText
  0
TEXT
  5
11D
330
1F
100
AcDbEntity
  8
枠_表
  6
CONTINUOUS
 62
     2
100
AcDbText
 10
1389.750000000054
 20
143.7499999999962
 30
0.0
 40
42.5
  1
図
 41
1.12
  7
EXCADSTD
 72
     5
 11
1423.750000000054
 21
143.7499999999962
 31
0.0
100
AcDbText
  0
TEXT
  5
11E
330
1F
100
AcDbEntity
  8
枠_表
  6
CONTINUOUS
 62
     2
100
AcDbText
 10
1389.750000000054
 20
100.7499999999944
 30
0.0
 40
42.5
  1
番
 41
1.12
  7
EXCADSTD
 72
     5
 11
1423.750000000054
 21
100.7499999999944
 31
0.0
100
AcDbText
  0
LINE
  5
11F
330
1F
100
AcDbEntity
  8
枠_表
  6
CONTINUOUS
 62
     7
100
AcDbLine
 10
174.0000000000545
 20
312.9999999999957
 30
0.0
 11
1994.000000000054
 21
312.9999999999957
 31
0.0
  0
LINE
  5
120
330
1F
100
AcDbEntity
  8
枠_表
  6
CONTINUOUS
 62
     7
100
AcDbLine
 10
1994.000000000054
 20
92.99999999999572
 30
0.0
 11
1994.000000000054
 21
2892.999999999996
 31
0.0
  0
LINE
  5
121
330
1F
100
AcDbEntity
  8
枠_表
  6
CONTINUOUS
 62
     7
100
AcDbLine
 10
174.0000000000545
 20
2892.999999999996
 30
0.0
 11
1994.000000000054
 21
2892.999999999996
 31
0.0
  0
LINE
  5
122
330
1F
100
AcDbEntity
  8
枠_表
  6
CONTINUOUS
 62
     6
100
AcDbLine
 10
1994.000000000054
 20
192.9999999999957
 30
0.0
 11
744.0000000000543
 21
192.9999999999957
 31
0.0
  0
LINE
  5
123
330
1F
100
AcDbEntity
  8
枠_表
  6
CONTINUOUS
 62
     6
100
AcDbLine
 10
1854.000000000054
 20
312.9999999999957
 30
0.0
 11
1854.000000000054
 21
192.9999999999957
 31
0.0
  0
LINE
  5
124
330
1F
100
AcDbEntity
  8
枠_表
  6
CONTINUOUS
 62
     6
100
AcDbLine
 10
1804.000000000054
 20
312.9999999999957
 30
0.0
 11
1804.000000000054
 21
192.9999999999957
 31
0.0
  0
LINE
  5
125
330
1F
100
AcDbEntity
  8
枠_表
  6
CONTINUOUS
 62
     6
100
AcDbLine
 10
1434.000000000053
 20
312.9999999999957
 30
0.0
 11
1434.000000000053
 21
92.99999999999572
 31
0.0
  0
LINE
  5
126
330
1F
100
AcDbEntity
  8
枠_表
  6
CONTINUOUS
 62
     6
100
AcDbLine
 10
1384.000000000053
 20
312.9999999999957
 30
0.0
 11
1384.000000000053
 21
92.99999999999572
 31
0.0
  0
LINE
  5
127
330
1F
100
AcDbEntity
  8
枠_表
  6
CONTINUOUS
 62
     6
100
AcDbLine
 10
794.0000000000543
 20
312.9999999999957
 30
0.0
 11
794.0000000000543
 21
192.9999999999957
 31
0.0
  0
LINE
  5
128
330
1F
100
AcDbEntity
  8
枠_表
  6
CONTINUOUS
 62
     6
100
AcDbLine
 10
744.0000000000543
 20
312.9999999999957
 30
0.0
 11
744.0000000000543
 21
92.99999999999572
 31
0.0
  0
LINE
  5
129
330
1F
100
AcDbEntity
  8
枠_表
  6
CONTINUOUS
 62
     6
100
AcDbLine
 10
614.0000000000542
 20
312.9999999999957
 30
0.0
 11
614.0000000000542
 21
92.99999999999572
 31
0.0
  0
LINE
  5
12A
330
1F
100
AcDbEntity
  8
枠_表
  6
CONTINUOUS
 62
     6
100
AcDbLine
 10
484.0000000000542
 20
312.9999999999957
 30
0.0
 11
484.0000000000542
 21
92.99999999999572
 31
0.0
  0
LINE
  5
12B
330
1F
100
AcDbEntity
  8
枠_表
  6
CONTINUOUS
 62
     6
100
AcDbLine
 10
329.0000000000542
 20
312.9999999999957
 30
0.0
 11
329.0000000000542
 21
92.99999999999572
 31
0.0
  0
LINE
  5
12C
330
1F
100
AcDbEntity
  8
枠_表
  6
CONTINUOUS
 62
     6
100
AcDbLine
 10
174.0000000000545
 20
262.9999999999957
 30
0.0
 11
744.0000000000543
 21
262.9999999999957
 31
0.0
  0
LINE
  5
12D
330
1F
100
AcDbEntity
  8
枠_表
  6
CONTINUOUS
 62
     6
100
AcDbLine
 10
1886.653808600054
 20
216.0029296999944
 30
0.0
 11
1963.993896500054
 21
294.6998290999961
 31
0.0
  0
CIRCLE
  5
12E
330
1F
100
AcDbEntity
  8
枠_表
  6
CONTINUOUS
 62
     6
100
AcDbCircle
 10
224.0000000000545
 20
117.9999999999957
 30
0.0
 40
1.0000002
  0
CIRCLE
  5
12F
330
1F
100
AcDbEntity
  8
枠_表
  6
CONTINUOUS
 62
     6
100
AcDbCircle
 10
274.0000000000545
 20
117.9999999999957
 30
0.0
 40
1.0000002
  0
CIRCLE
  5
130
330
1F
100
AcDbEntity
  8
枠_表
  6
CONTINUOUS
 62
     6
100
AcDbCircle
 10
379.0000000000542
 20
117.9999999999957
 30
0.0
 40
1.0000002
  0
CIRCLE
  5
131
330
1F
100
AcDbEntity
  8
枠_表
  6
CONTINUOUS
 62
     6
100
AcDbCircle
 10
429.0000000000542
 20
117.9999999999957
 30
0.0
 40
1.0000002
  0
LINE
  5
132
330
1F
100
AcDbEntity
  8
枠_表
  6
EXLTYPE2
 62
     6
100
AcDbLine
 10
174.0000000000545
 20
142.9999999999957
 30
0.0
 11
484.0000000000542
 21
142.9999999999957
 31
0.0
  0
CIRCLE
  5
133
330
1F
100
AcDbEntity
  8
枠_表
  6
CONTINUOUS
 62
     6
100
AcDbCircle
 10
224.0000000000551
 20
117.9999999999957
 30
0.0
 40
1.0000002
  0
CIRCLE
  5
134
330
1F
100
AcDbEntity
  8
枠_表
  6
CONTINUOUS
 62
     6
100
AcDbCircle
 10
274.0000000000551
 20
117.9999999999957
 30
0.0
 40
1.0000002
  0
TEXT
  5
135
330
1F
100
AcDbEntity
  8
枠_表
  6
CONTINUOUS
 62
     2
100
AcDbText
 10
1212.000000000082
 20
2818.249999999995
 30
0.0
 40
40.0
  1
品番
 41
1.895695454545453
  7
EXCADSTD
 72
     5
 11
1331.158000000082
 21
2818.249999999995
 31
0.0
100
AcDbText
  0
TEXT
  5
136
330
1F
100
AcDbEntity
  8
枠_表
  6
CONTINUOUS
 62
     2
100
AcDbText
 10
1551.000000000084
 20
2818.249999999995
 30
0.0
 40
40.0
  1
品名
 41
1.895695454545453
  7
EXCADSTD
 72
     5
 11
1670.158000000084
 21
2818.249999999995
 31
0.0
100
AcDbText
  0
TEXT
  5
137
330
1F
100
AcDbEntity
  8
枠_表
  6
CONTINUOUS
 62
     2
100
AcDbText
 10
1838.000000059692
 20
2818.249999999995
 30
0.0
 40
40.0
  1
個数
 41
1.049923636363638
  7
EXCADSTD
 72
     5
 11
1903.995200059692
 21
2818.249999999995
 31
0.0
100
AcDbText
  0
TEXT
  5
138
330
1F
100
AcDbEntity
  8
枠_表
  6
CONTINUOUS
 62
     2
100
AcDbText
 10
1854.00000000009
 20
2768.749999999992
 30
0.0
 40
40.0
  1
１
 41
1.12
  7
EXCADSTD
 72
     5
 11
1886.00000000009
 21
2768.749999999992
 31
0.0
100
AcDbText
  0
TEXT
  5
139
330
1F
100
AcDbEntity
  8
枠_表
  6
CONTINUOUS
 62
     2
100
AcDbText
 10
1482.999999999952
 20
2767.749999999993
 30
0.0
 40
40.0
  1
洗面器
 41
1.070588235294118
  7
EXCADSTD
 72
     5
 11
1586.999999999952
 21
2767.749999999993
 31
0.0
100
AcDbText
  0
LINE
  5
13A
330
1F
100
AcDbEntity
  8
枠_表
  6
CONTINUOUS
 62
     6
100
AcDbLine
 10
1124.00000000009
 20
2813.499999999994
 30
0.0
 11
1924.00000000009
 21
2813.499999999994
 31
0.0
  0
LINE
  5
13B
330
1F
100
AcDbEntity
  8
枠_表
  6
CONTINUOUS
 62
     6
100
AcDbLine
 10
1124.00000000009
 20
2763.999999999993
 30
0.0
 11
1924.00000000009
 21
2763.999999999993
 31
0.0
  0
LINE
  5
13C
330
1F
100
AcDbEntity
  8
枠_表
  6
CONTINUOUS
 62
     6
100
AcDbLine
 10
1124.00000000009
 20
2862.999999999994
 30
0.0
 11
1924.00000000009
 21
2862.999999999994
 31
0.0
  0
LINE
  5
13D
330
1F
100
AcDbEntity
  8
枠_表
  6
CONTINUOUS
 62
     6
100
AcDbLine
 10
1124.00000000009
 20
2565.999999999993
 30
0.0
 11
1924.00000000009
 21
2565.999999999993
 31
0.0
  0
TEXT
  5
13E
330
1F
100
AcDbEntity
  8
枠_表
  6
CONTINUOUS
 62
     2
100
AcDbText
 10
1482.999999999952
 20
2703.999999999992
 30
0.0
 40
40.0
  1
金具一式
 41
1.034782608695652
  7
EXCADSTD
 72
     5
 11
1618.999999999952
 21
2703.999999999992
 31
0.0
100
AcDbText
  0
TEXT
  5
13F
330
1F
100
AcDbEntity
  8
枠_表
  6
CONTINUOUS
 62
     2
100
AcDbText
 10
1482.999999999952
 20
2663.999999999992
 30
0.0
 40
40.0
  1
・湯水混合水栓
 41
0.9902439024390244
  7
EXCADSTD
 72
     5
 11
1714.999999999952
 21
2663.999999999992
 31
0.0
100
AcDbText
  0
TEXT
  5
140
330
1F
100
AcDbEntity
  8
枠_表
  6
CONTINUOUS
 62
     2
100
AcDbText
 10
1482.999999999952
 20
2623.999999999992
 30
0.0
 40
40.0
  1
・排水器具上部
 41
0.9902439024390244
  7
EXCADSTD
 72
     5
 11
1714.999999999952
 21
2623.999999999992
 31
0.0
100
AcDbText
  0
TEXT
  5
141
330
1F
100
AcDbEntity
  8
枠_表
  6
CONTINUOUS
 62
     2
100
AcDbText
 10
1482.999999999952
 20
2583.999999999992
 30
0.0
 40
40.0
  1
・洗面器固定金具
 41
0.9829787234042554
  7
EXCADSTD
 72
     5
 11
1746.999999999952
 21
2583.999999999992
 31
0.0
100
AcDbText
  0
TEXT
  5
142
330
1F
100
AcDbEntity
  8
枠_表
  6
CONTINUOUS
 62
     2
100
AcDbText
 10
1854.00000000009
 20
2644.999999999992
 30
0.0
 40
40.0
  1
１
 41
1.12
  7
EXCADSTD
 72
     5
 11
1886.00000000009
 21
2644.999999999992
 31
0.0
100
AcDbText
  0
LINE
  5
143
330
1F
100
AcDbEntity
  8
枠_表
  6
CONTINUOUS
 62
     6
100
AcDbLine
 10
1124.00000000009
 20
2565.999999999993
 30
0.0
 11
1124.00000000009
 21
2862.999999999996
 31
0.0
  0
LINE
  5
144
330
1F
100
AcDbEntity
  8
枠_表
  6
CONTINUOUS
 62
     6
100
AcDbLine
 10
1474.00000000009
 20
2565.999999999993
 30
0.0
 11
1474.00000000009
 21
2862.999999999994
 31
0.0
  0
LINE
  5
145
330
1F
100
AcDbEntity
  8
枠_表
  6
CONTINUOUS
 62
     6
100
AcDbLine
 10
1824.00000000009
 20
2565.999999999993
 30
0.0
 11
1824.00000000009
 21
2862.999999999994
 31
0.0
  0
LINE
  5
146
330
1F
100
AcDbEntity
  8
枠_表
  6
CONTINUOUS
 62
     6
100
AcDbLine
 10
1924.00000000009
 20
2565.999999999993
 30
0.0
 11
1924.00000000009
 21
2862.999999999996
 31
0.0
  0
LINE
  5
147
330
1F
100
AcDbEntity
  8
枠_表
  6
CONTINUOUS
 62
     6
100
AcDbLine
 10
1124.000000000087
 20
2248.499999999994
 30
0.0
 11
1924.00000000009
 21
2248.499999999994
 31
0.0
  0
LINE
  5
148
330
1F
100
AcDbEntity
  8
枠_表
  6
CONTINUOUS
 62
     6
100
AcDbLine
 10
1124.000000000087
 20
2347.499999999995
 30
0.0
 11
1924.00000000009
 21
2347.499999999995
 31
0.0
  0
LINE
  5
149
330
1F
100
AcDbEntity
  8
枠_表
  6
CONTINUOUS
 62
     6
100
AcDbLine
 10
1124.000000000087
 20
2396.999999999993
 30
0.0
 11
1924.00000000009
 21
2396.999999999993
 31
0.0
  0
LINE
  5
14A
330
1F
100
AcDbEntity
  8
枠_表
  6
CONTINUOUS
 62
     6
100
AcDbLine
 10
1124.000000000087
 20
2446.499999999994
 30
0.0
 11
1924.00000000009
 21
2446.499999999994
 31
0.0
  0
TEXT
  5
14B
330
1F
100
AcDbEntity
  8
枠_表
  6
CONTINUOUS
 62
     2
100
AcDbText
 10
1854.000000000088
 20
2084.749999999994
 30
0.0
 40
40.0
  1
２
 41
1.12
  7
EXCADSTD
 72
     5
 11
1886.000000000088
 21
2084.749999999994
 31
0.0
100
AcDbText
  0
TEXT
  5
14C
330
1F
100
AcDbEntity
  8
枠_表
  6
CONTINUOUS
 62
     2
100
AcDbText
 10
1854.000000000088
 20
2134.749999999994
 30
0.0
 40
40.0
  1
２
 41
1.12
  7
EXCADSTD
 72
     5
 11
1886.000000000088
 21
2134.749999999994
 31
0.0
100
AcDbText
  0
LINE
  5
14D
330
1F
100
AcDbEntity
  8
枠_表
  6
CONTINUOUS
 62
     6
100
AcDbLine
 10
1124.000000000087
 20
2178.499999999994
 30
0.0
 11
1924.00000000009
 21
2178.499999999994
 31
0.0
  0
LINE
  5
14E
330
1F
100
AcDbEntity
  8
枠_表
  6
CONTINUOUS
 62
     6
100
AcDbLine
 10
1124.000000000087
 20
2079.499999999993
 30
0.0
 11
1924.00000000009
 21
2079.499999999993
 31
0.0
  0
LINE
  5
14F
330
1F
100
AcDbEntity
  8
枠_表
  6
CONTINUOUS
 62
     6
100
AcDbLine
 10
1124.000000000087
 20
2128.999999999994
 30
0.0
 11
1924.00000000009
 21
2128.999999999994
 31
0.0
  0
LINE
  5
150
330
1F
100
AcDbEntity
  8
枠_表
  6
CONTINUOUS
 62
     6
100
AcDbLine
 10
1124.000000000087
 20
2079.499999999998
 30
0.0
 11
1124.000000000087
 21
2178.499999999994
 31
0.0
  0
LINE
  5
151
330
1F
100
AcDbEntity
  8
枠_表
  6
CONTINUOUS
 62
     6
100
AcDbLine
 10
1474.00000000009
 20
2079.499999999993
 30
0.0
 11
1474.00000000009
 21
2178.499999999994
 31
0.0
  0
LINE
  5
152
330
1F
100
AcDbEntity
  8
枠_表
  6
CONTINUOUS
 62
     6
100
AcDbLine
 10
1824.00000000009
 20
2079.499999999993
 30
0.0
 11
1824.00000000009
 21
2178.499999999994
 31
0.0
  0
LINE
  5
153
330
1F
100
AcDbEntity
  8
枠_表
  6
CONTINUOUS
 62
     6
100
AcDbLine
 10
1924.00000000009
 20
2079.499999999998
 30
0.0
 11
1924.00000000009
 21
2178.499999999994
 31
0.0
  0
TEXT
  5
154
330
1F
100
AcDbEntity
  8
枠_表
  6
CONTINUOUS
 62
     2
100
AcDbText
 10
1480.999999999952
 20
2134.749999999994
 30
0.0
 40
40.0
  1
壁給水用止水栓
 41
0.9902439024390244
  7
EXCADSTD
 72
     5
 11
1712.999999999952
 21
2134.749999999994
 31
0.0
100
AcDbText
  0
TEXT
  5
155
330
1F
100
AcDbEntity
  8
枠_表
  6
CONTINUOUS
 62
     2
100
AcDbText
 10
1482.999999999952
 20
2085.249999999994
 30
0.0
 40
40.0
  1
床給水用止水栓
 41
0.9902439024390244
  7
EXCADSTD
 72
     5
 11
1714.999999999952
 21
2085.249999999994
 31
0.0
100
AcDbText
  0
LINE
  5
156
330
1F
100
AcDbEntity
  8
枠_表
  6
CONTINUOUS
 62
     6
100
AcDbLine
 10
1124.00000000009
 20
2495.999999999994
 30
0.0
 11
1924.00000000009
 21
2495.999999999994
 31
0.0
  0
LINE
  5
157
330
1F
100
AcDbEntity
  8
枠_表
  6
CONTINUOUS
 62
     6
100
AcDbLine
 10
1124.000000000087
 20
2248.499999999994
 30
0.0
 11
1124.000000000087
 21
2495.999999999994
 31
0.0
  0
LINE
  5
158
330
1F
100
AcDbEntity
  8
枠_表
  6
CONTINUOUS
 62
     6
100
AcDbLine
 10
1474.00000000009
 20
2248.499999999994
 30
0.0
 11
1474.00000000009
 21
2495.999999999994
 31
0.0
  0
LINE
  5
159
330
1F
100
AcDbEntity
  8
枠_表
  6
CONTINUOUS
 62
     6
100
AcDbLine
 10
1824.00000000009
 20
2248.499999999994
 30
0.0
 11
1824.00000000009
 21
2495.999999999994
 31
0.0
  0
LINE
  5
15A
330
1F
100
AcDbEntity
  8
枠_表
  6
CONTINUOUS
 62
     6
100
AcDbLine
 10
1924.00000000009
 20
2248.499999999994
 30
0.0
 11
1924.00000000009
 21
2495.999999999994
 31
0.0
  0
TEXT
  5
15B
330
1F
100
AcDbEntity
  8
枠_表
  6
CONTINUOUS
 62
     2
100
AcDbText
 10
1854.000000000088
 20
2352.249999999994
 30
0.0
 40
40.0
  1
１
 41
1.12
  7
EXCADSTD
 72
     5
 11
1886.000000000088
 21
2352.249999999994
 31
0.0
100
AcDbText
  0
TEXT
  5
15C
330
1F
100
AcDbEntity
  8
枠_表
  6
CONTINUOUS
 62
     2
100
AcDbText
 10
1854.000000000088
 20
2400.749999999995
 30
0.0
 40
40.0
  1
１
 41
1.12
  7
EXCADSTD
 72
     5
 11
1886.000000000088
 21
2400.749999999995
 31
0.0
100
AcDbText
  0
TEXT
  5
15D
330
1F
100
AcDbEntity
  8
枠_表
  6
CONTINUOUS
 62
     2
100
AcDbText
 10
1854.000000000088
 20
2451.249999999993
 30
0.0
 40
40.0
  1
１
 41
1.12
  7
EXCADSTD
 72
     5
 11
1886.000000000088
 21
2451.249999999993
 31
0.0
100
AcDbText
  0
TEXT
  5
15E
330
1F
100
AcDbEntity
  8
枠_表
  6
CONTINUOUS
 62
     2
100
AcDbText
 10
1482.999999999952
 20
2351.249999999994
 30
0.0
 40
40.0
  1
ボトルトラップ
 41
0.9902439024390244
  7
EXCADSTD
 72
     5
 11
1714.999999999952
 21
2351.249999999994
 31
0.0
100
AcDbText
  0
TEXT
  5
15F
330
1F
100
AcDbEntity
  8
枠_表
  6
CONTINUOUS
 62
     2
100
AcDbText
 10
1482.999999999952
 20
2400.749999999995
 30
0.0
 40
40.0
  1
Ｓトラップ
 41
1.013793103448276
  7
EXCADSTD
 72
     5
 11
1650.999999999952
 21
2400.749999999995
 31
0.0
100
AcDbText
  0
TEXT
  5
160
330
1F
100
AcDbEntity
  8
枠_表
  6
CONTINUOUS
 62
     2
100
AcDbText
 10
1482.999999999952
 20
2450.249999999994
 30
0.0
 40
40.0
  1
Ｐトラップ
 41
1.013793103448276
  7
EXCADSTD
 72
     5
 11
1650.999999999952
 21
2450.249999999994
 31
0.0
100
AcDbText
  0
TEXT
  5
161
330
1F
100
AcDbEntity
  8
枠_表
  6
CONTINUOUS
 62
     2
100
AcDbText
 10
1131.000000000081
 20
2352.249999999994
 30
0.0
 40
40.0
  1
Ｐ２２３２
 41
0.7543103448275862
  7
EXCADSTD
 72
     5
 11
1256.000000000081
 21
2352.249999999994
 31
0.0
100
AcDbText
  0
TEXT
  5
162
330
1F
100
AcDbEntity
  8
枠_表
  6
CONTINUOUS
 62
     2
100
AcDbText
 10
1131.000000000081
 20
2401.749999999995
 30
0.0
 40
40.0
  1
Ｐ２２３３
 41
0.7543103448275862
  7
EXCADSTD
 72
     5
 11
1256.000000000081
 21
2401.749999999995
 31
0.0
100
AcDbText
  0
TEXT
  5
163
330
1F
100
AcDbEntity
  8
枠_表
  6
CONTINUOUS
 62
     2
100
AcDbText
 10
1131.000000000081
 20
2451.249999999993
 30
0.0
 40
40.0
  1
Ｐ２２３４
 41
0.7543103448275862
  7
EXCADSTD
 72
     5
 11
1256.000000000081
 21
2451.249999999993
 31
0.0
100
AcDbText
  0
TEXT
  5
164
330
1F
100
AcDbEntity
  8
枠_表
  6
CONTINUOUS
 62
     2
100
AcDbText
 10
1854.000000000088
 20
2276.999999999995
 30
0.0
 40
40.0
  1
１
 41
1.12
  7
EXCADSTD
 72
     5
 11
1886.000000000088
 21
2276.999999999995
 31
0.0
100
AcDbText
  0
TEXT
  5
165
330
1F
100
AcDbEntity
  8
枠_表
  6
CONTINUOUS
 62
     2
100
AcDbText
 10
1482.999999999952
 20
2303.649999999995
 30
0.0
 40
40.0
  1
配管アダプター
 41
0.9902439024390244
  7
EXCADSTD
 72
     5
 11
1714.999999999952
 21
2303.649999999995
 31
0.0
100
AcDbText
  0
TEXT
  5
166
330
1F
100
AcDbEntity
  8
枠_表
  6
CONTINUOUS
 62
     2
100
AcDbText
 10
1482.999999999952
 20
2254.149999999995
 30
0.0
 40
40.0
  1
（ＶＰ５０・ＶＵ５０用）
 41
0.8183098591549297
  7
EXCADSTD
 72
     5
 11
1814.999999999952
 21
2254.149999999995
 31
0.0
100
AcDbText
  0
TEXT
  5
167
330
1F
100
AcDbEntity
  8
枠_表
  6
CONTINUOUS
 62
     2
100
AcDbText
 10
1124.000000000083
 20
2501.749999999995
 30
0.0
 40
40.0
  1
※トラップ・配管アダプター（別途手配）
 41
1.037610619469026
  7
EXCADSTD
 72
     5
 11
1794.000000000083
 21
2501.749999999995
 31
0.0
100
AcDbText
  0
TEXT
  5
168
330
1F
100
AcDbEntity
  8
枠_表
  6
CONTINUOUS
 62
     2
100
AcDbText
 10
1120.999999999119
 20
2188.500000000001
 30
0.0
 40
40.0
  1
※止水栓（別途手配）
 41
1.052966101694915
  7
EXCADSTD
 72
     5
 11
1475.999999999119
 21
2188.500000000001
 31
0.0
100
AcDbText
  0
TEXT
  5
169
330
1F
100
AcDbEntity
  8
枠_表
  6
CONTINUOUS
 62
     2
100
AcDbText
 10
1925.279296900053
 20
216.348846399995
 30
0.0
 40
30.0
  1
１０
 41
1.098531212121213
  7
EXCADSTD
 72
     5
 11
1977.067196900053
 21
216.348846399995
 31
0.0
100
AcDbText
  0
TEXT
  5
16A
330
1F
100
AcDbEntity
  8
枠_表
  6
CONTINUOUS
 62
     6
100
AcDbText
 10
201.5000000000579
 20
177.9999999999957
 30
0.0
 40
50.0
  1
中村
 41
1.166581818181819
  7
EXCADSTD
 72
     5
 11
293.1600000000579
 21
177.9999999999957
 31
0.0
100
AcDbText
  0
TEXT
  5
16B
330
1F
100
AcDbEntity
  8
枠_表
  6
CONTINUOUS
 62
     2
100
AcDbText
 10
1007.000000715298
 20
222.9999999999957
 30
0.0
 40
60.0
  1
洗面器
 41
1.125490182988784
  7
EXCADSTD
 72
     5
 11
1170.999998807949
 21
222.9999999999957
 31
0.0
100
AcDbText
  0
TEXT
  5
16C
330
1F
100
AcDbEntity
  8
枠_表
  6
CONTINUOUS
 62
     2
100
AcDbText
 10
1131.000000000081
 20
2644.999999999992
 30
0.0
 40
40.0
  1
Ｐ６９３３７
 41
0.74
  7
EXCADSTD
 72
     5
 11
1279.000000000081
 21
2644.999999999992
 31
0.0
100
AcDbText
  0
TEXT
  5
16D
330
1F
100
AcDbEntity
  8
枠_表
  6
CONTINUOUS
 62
     2
100
AcDbText
 10
1120.999999999119
 20
2019.500000000001
 30
0.0
 40
40.0
  1
※本図は、水あふれ縁高さ８００ミリの場合を表わす
 41
1.034090909090909
  7
EXCADSTD
 72
     5
 11
1965.999999999119
 21
2019.500000000001
 31
0.0
100
AcDbText
  0
TEXT
  5
16E
330
1F
100
AcDbEntity
  8
枠_表
  6
CONTINUOUS
 62
     2
100
AcDbText
 10
1120.999999999119
 20
1979.500000000001
 30
0.0
 40
40.0
  1
　（器具は洗面器設置高さに合わせ適宜選定すること）
 41
1.033557046979865
  7
EXCADSTD
 72
     5
 11
2000.999999999119
 21
1979.500000000001
 31
0.0
100
AcDbText
  0
TEXT
  5
16F
330
1F
100
AcDbEntity
  8
枠_表
  6
CONTINUOUS
 62
     2
100
AcDbText
 10
1120.999999999119
 20
1939.500000000001
 30
0.0
 40
40.0
  1
※金具一式には、トラップ、配管アダプター、および
 41
1.034090909090909
  7
EXCADSTD
 72
     5
 11
1965.999999999119
 21
1939.500000000001
 31
0.0
100
AcDbText
  0
TEXT
  5
170
330
1F
100
AcDbEntity
  8
枠_表
  6
CONTINUOUS
 62
     2
100
AcDbText
 10
1120.999999999119
 20
1899.500000000001
 30
0.0
 40
40.0
  1
　止水栓は含まれない
 41
1.052966101694915
  7
EXCADSTD
 72
     5
 11
1475.999999999119
 21
1899.500000000001
 31
0.0
100
AcDbText
  0
TEXT
  5
171
330
1F
100
AcDbEntity
  8
枠_表
  6
CONTINUOUS
 62
     2
100
AcDbText
 10
1120.999999999119
 20
1859.500000000001
 30
0.0
 40
40.0
  1
※湯水混合水栓は、節湯Ｃ１形
 41
1.043674698795181
  7
EXCADSTD
 72
     5
 11
1615.999999999119
 21
1859.500000000001
 31
0.0
100
AcDbText
  0
TEXT
  5
172
330
1F
100
AcDbEntity
  8
枠_表
  6
CONTINUOUS
 62
     2
100
AcDbText
 10
1129.000000000122
 20
2277.749999999995
 30
0.0
 40
40.0
  1
ＬＵＭＥＨ７０-２００-３２Ｂ
 41
0.5973498233215547
  7
EXCADSTD
 72
     5
 11
1451.000000000122
 21
2277.749999999995
 31
0.0
100
AcDbText
  0
TEXT
  5
173
330
1F
100
AcDbEntity
  8
枠_表
  6
CONTINUOUS
 62
     2
100
AcDbText
 10
1131.000000000081
 20
2768.749999999992
 30
0.0
 40
40.0
  1
Ｌ５２０ＣＦＰ
 41
0.7298780487804878
  7
EXCADSTD
 72
     5
 11
1302.000000000081
 21
2768.749999999992
 31
0.0
100
AcDbText
  0
TEXT
  5
174
330
1F
100
AcDbEntity
  8
枠_表
  6
CONTINUOUS
 62
     6
100
AcDbText
 10
238.3191161166083
 20
102.4500731999963
 30
0.0
 40
30.0
  1
11
 41
0.4877419354838714
  7
EXCADSTD
 72
     5
 11
259.9191161166083
 21
102.4500731999963
 31
0.0
100
AcDbText
  0
TEXT
  5
175
330
1F
100
AcDbEntity
  8
枠_表
  6
CONTINUOUS
 62
     6
100
AcDbText
 10
289.8941159139527
 20
102.4500731999963
 30
0.0
 40
30.0
  1
12
 41
0.408648648648649
  7
EXCADSTD
 72
     5
 11
311.4941159139527
 21
102.4500731999963
 31
0.0
100
AcDbText
  0
TEXT
  5
176
330
1F
100
AcDbEntity
  8
枠_表
  6
CONTINUOUS
 62
     2
100
AcDbText
 10
1467.999998569572
 20
227.9999999999957
 30
0.0
 40
50.0
  1
Ｌ５２０ＣＦＰ
 41
1.031219521964469
  7
EXCADSTD
 72
     5
 11
1770.000001430595
 21
227.9999999999957
 31
0.0
100
AcDbText
  0
TEXT
  5
177
330
1F
100
AcDbEntity
  8
枠_表
  6
CONTINUOUS
 62
     6
100
AcDbText
 10
356.5000000000583
 20
177.9999999999983
 30
0.0
 40
50.0
  1
川野
 41
1.166581818181818
  7
EXCADSTD
 72
     5
 11
448.1600000000583
 21
177.9999999999983
 31
0.0
100
AcDbText
  0
TEXT
  5
178
330
1F
100
AcDbEntity
  8
枠_表
  6
CONTINUOUS
 62
     6
100
AcDbText
 10
335.3441156755349
 20
102.4500731999989
 30
0.0
 40
30.0
  1
'23
 41
0.4689784042553188
  7
EXCADSTD
 72
     5
 11
366.8326656755349
 21
102.4500731999989
 31
0.0
100
AcDbText
  0
TEXT
  5
179
330
1F
100
AcDbEntity
  8
枠_表
  6
CONTINUOUS
 62
     6
100
AcDbText
 10
398.0691160570046
 20
102.4500731999989
 30
0.0
 40
30.0
  1
4
 41
0.4423611111111111
  7
EXCADSTD
 72
     5
 11
409.4441160570046
 21
102.4500731999989
 31
0.0
100
AcDbText
  0
TEXT
  5
17A
330
1F
100
AcDbEntity
  8
枠_表
  6
CONTINUOUS
 62
     6
100
AcDbText
 10
449.644115854349
 20
102.4500731999989
 30
0.0
 40
30.0
  1
4
 41
0.4423611111111111
  7
EXCADSTD
 72
     5
 11
461.019115854349
 21
102.4500731999989
 31
0.0
100
AcDbText
  0
TEXT
  5
17B
330
1F
100
AcDbEntity
  8
枠_表
  6
CONTINUOUS
 62
     6
100
AcDbText
 10
180.3441156755339
 20
102.4500731999963
 30
0.0
 40
30.0
  1
'21
 41
0.5376093902439024
  7
EXCADSTD
 72
     5
 11
211.8326656755339
 21
102.4500731999963
 31
0.0
100
AcDbText
  0
TEXT
  5
17C
330
1F
100
AcDbEntity
  8
枠_表
  6
CONTINUOUS
 62
     7
100
AcDbText
 10
1484.000000000022
 20
114.4999999999943
 30
0.0
 40
60.0
  1
Ｌ０５２０００３１
 41
1.012578616352201
  7
EXCADSTD
 72
     5
 11
1944.000000000022
 21
114.4999999999943
 31
0.0
100
AcDbText
  0
TEXT
  5
17D
330
1F
100
AcDbEntity
  8
枠_表
  6
CONTINUOUS
 62
     2
100
AcDbText
 10
1131.000000000082
 20
2133.749999999997
 30
0.0
 40
40.0
  1
ＪＬ２２１－７５ＷＭＳＹ
 41
0.7049295774647888
  7
EXCADSTD
 72
     5
 11
1417.000000000082
 21
2133.749999999997
 31
0.0
100
AcDbText
  0
TEXT
  5
17E
330
1F
100
AcDbEntity
  8
枠_表
  6
CONTINUOUS
 62
     2
100
AcDbText
 10
1129.000000000122
 20
2083.999999999998
 30
0.0
 40
40.0
  1
ＪＬ２１１－３７５ＷＭＳＹ
 41
0.7022727272727274
  7
EXCADSTD
 72
     5
 11
1438.000000000122
 21
2083.999999999998
 31
0.0
100
AcDbText
  0
LINE
  5
17F
330
1F
100
AcDbEntity
  8
化粧台
  6
CONTINUOUS
 62
     6
100
AcDbLine
 10
693.5000000000509
 20
604.9999999999975
 30
0.0
 11
714.5000000000508
 21
604.9999999999975
 31
0.0
  0
LINE
  5
180
330
1F
100
AcDbEntity
  8
化粧台
  6
CONTINUOUS
 62
     6
100
AcDbLine
 10
588.0000000000509
 20
582.9999999999975
 30
0.0
 11
620.0000000000509
 21
582.9999999999975
 31
0.0
  0
LINE
  5
181
330
1F
100
AcDbEntity
  8
化粧台
  6
EXLTYPE4
 62
     6
100
AcDbLine
 10
620.0000000000509
 20
742.9999999999993
 30
0.0
 11
620.0000000000509
 21
582.9999999999975
 31
0.0
  0
LINE
  5
182
330
1F
100
AcDbEntity
  8
化粧台
  6
EXLTYPE4
 62
     6
100
AcDbLine
 10
588.0000000000509
 20
742.9999999999993
 30
0.0
 11
588.0000000000509
 21
582.9999999999975
 31
0.0
  0
LINE
  5
183
330
1F
100
AcDbEntity
  8
化粧台
  6
EXLTYPE4
 62
     6
100
AcDbLine
 10
693.5000000000509
 20
742.9999999999975
 30
0.0
 11
693.5000000000509
 21
604.9999999999975
 31
0.0
  0
LINE
  5
184
330
1F
100
AcDbEntity
  8
化粧台
  6
EXLTYPE4
 62
     6
100
AcDbLine
 10
714.5000000000508
 20
742.9999999999993
 30
0.0
 11
714.5000000000508
 21
604.9999999999975
 31
0.0
  0
LINE
  5
185
330
1F
100
AcDbEntity
  8
化粧台
  6
CONTINUOUS
 62
     6
100
AcDbLine
 10
514.5000000000473
 20
604.9999999999975
 30
0.0
 11
493.5000000000472
 21
604.9999999999975
 31
0.0
  0
LINE
  5
186
330
1F
100
AcDbEntity
  8
化粧台
  6
EXLTYPE4
 62
     6
100
AcDbLine
 10
514.5000000000491
 20
742.9999999999975
 30
0.0
 11
514.5000000000473
 21
604.9999999999975
 31
0.0
  0
LINE
  5
187
330
1F
100
AcDbEntity
  8
化粧台
  6
EXLTYPE4
 62
     6
100
AcDbLine
 10
493.500000000049
 20
742.9999999999993
 30
0.0
 11
493.5000000000472
 21
604.9999999999975
 31
0.0
  0
LINE
  5
188
330
1F
100
AcDbEntity
  8
化粧台
  6
CONTINUOUS
 62
     6
100
AcDbLine
 10
1468.000000000051
 20
582.9999999999975
 30
0.0
 11
1500.000000000051
 21
582.9999999999975
 31
0.0
  0
LINE
  5
189
330
1F
100
AcDbEntity
  8
化粧台
  6
EXLTYPE4
 62
     6
100
AcDbLine
 10
1500.000000000051
 20
742.9999999999993
 30
0.0
 11
1500.000000000051
 21
582.9999999999975
 31
0.0
  0
LINE
  5
18A
330
1F
100
AcDbEntity
  8
化粧台
  6
EXLTYPE4
 62
     6
100
AcDbLine
 10
1468.000000000051
 20
742.9999999999993
 30
0.0
 11
1468.000000000051
 21
582.9999999999975
 31
0.0
  0
LINE
  5
18B
330
1F
100
AcDbEntity
  8
化粧台
  6
EXLTYPE3
 62
     6
100
AcDbLine
 10
1484.000000000051
 20
752.9999999999975
 30
0.0
 11
1484.000000000051
 21
572.9999999999975
 31
0.0
  0
LINE
  5
18C
330
1F
100
AcDbEntity
  8
化粧台
  6
CONTINUOUS
 62
     2
100
AcDbLine
 10
364.0000000000508
 20
1412.999999999997
 30
0.0
 11
844.0000000000509
 21
1412.999999999997
 31
0.0
  0
LINE
  5
18D
330
1F
100
AcDbEntity
  8
化粧台
  6
CONTINUOUS
 62
     2
100
AcDbLine
 10
848.9965694679122
 20
1407.814814814812
 30
0.0
 11
844.1070693457891
 21
1275.888888888886
 31
0.0
  0
LINE
  5
18E
330
1F
100
AcDbEntity
  8
化粧台
  6
CONTINUOUS
 62
     2
100
AcDbLine
 10
359.0034305321859
 20
1407.814814814812
 30
0.0
 11
363.8929306543104
 21
1275.888888888886
 31
0.0
  0
LINE
  5
18F
330
1F
100
AcDbEntity
  8
化粧台
  6
CONTINUOUS
 62
     2
100
AcDbLine
 10
366.8908723350286
 20
1272.999999999997
 30
0.0
 11
841.1091276650695
 21
1272.999999999997
 31
0.0
  0
ARC
  5
190
330
1F
100
AcDbEntity
  8
化粧台
  6
CONTINUOUS
 62
     2
100
AcDbCircle
 10
364.0000000000508
 20
1407.999999999997
 30
0.0
 40
5.0
100
AcDbArc
 50
90.00000000000001
 51
182.1225513621434
  0
ARC
  5
191
330
1F
100
AcDbEntity
  8
化粧台
  6
CONTINUOUS
 62
     2
100
AcDbCircle
 10
366.8908723350286
 20
1275.999999999997
 30
0.0
 40
3.000000000000001
100
AcDbArc
 50
182.1225513621437
 51
270.0
  0
ARC
  5
192
330
1F
100
AcDbEntity
  8
化粧台
  6
CONTINUOUS
 62
     2
100
AcDbCircle
 10
844.0000000000509
 20
1407.999999999997
 30
0.0
 40
5.0
100
AcDbArc
 50
357.8774486378566
 51
90.00000000000001
  0
ARC
  5
193
330
1F
100
AcDbEntity
  8
化粧台
  6
CONTINUOUS
 62
     2
100
AcDbCircle
 10
841.1091276650695
 20
1275.999999999997
 30
0.0
 40
3.000000000000001
100
AcDbArc
 50
270.0
 51
357.8774486378566
  0
LINE
  5
194
330
1F
100
AcDbEntity
  8
化粧台
  6
EXLTYPE3
 62
     6
100
AcDbLine
 10
646.0000000000509
 20
1013.000000000029
 30
0.0
 11
562.0000000000505
 21
1013.000000000029
 31
0.0
  0
LINE
  5
195
330
1F
100
AcDbEntity
  8
化粧台
  6
CONTINUOUS
 62
     6
100
AcDbLine
 10
620.0000000000491
 20
973.9999999999776
 30
0.0
 11
625.5000000000491
 21
973.9999999999776
 31
0.0
  0
LINE
  5
196
330
1F
100
AcDbEntity
  8
化粧台
  6
CONTINUOUS
 62
     6
100
AcDbLine
 10
620.0000000000491
 20
961.9999999999775
 30
0.0
 11
625.5000000000491
 21
961.9999999999775
 31
0.0
  0
LINE
  5
197
330
1F
100
AcDbEntity
  8
化粧台
  6
CONTINUOUS
 62
     6
100
AcDbLine
 10
582.5000000000491
 20
961.9999999999775
 30
0.0
 11
588.0000000000509
 21
961.9999999999775
 31
0.0
  0
LINE
  5
198
330
1F
100
AcDbEntity
  8
化粧台
  6
CONTINUOUS
 62
     6
100
AcDbLine
 10
582.5000000000491
 20
973.9999999999776
 30
0.0
 11
588.0000000000509
 21
973.9999999999776
 31
0.0
  0
ELLIPSE
  5
199
330
1F
100
AcDbEntity
  8
化粧台
  6
CONTINUOUS
 62
     6
100
AcDbEllipse
 10
614.7500000000491
 20
967.9999999999775
 30
0.0
 11
9.236476601000051
 21
0.0
 31
0.0
210
0.0
220
0.0
230
1.0
 40
0.6495983543497934
 41
5.316947084024834
 42
7.249423530334343
  0
ELLIPSE
  5
19A
330
1F
100
AcDbEntity
  8
化粧台
  6
CONTINUOUS
 62
     6
100
AcDbEllipse
 10
593.2500000000491
 20
967.9999999999775
 30
0.0
 11
9.236476601000051
 21
0.0
 31
0.0
210
0.0
220
0.0
230
1.0
 40
0.6495983543497934
 41
2.175354430434986
 42
4.107830876744602
  0
LINE
  5
19B
330
1F
100
AcDbEntity
  8
化粧台
  6
CONTINUOUS
 62
     6
100
AcDbLine
 10
582.5000000000491
 20
973.9999999999776
 30
0.0
 11
582.5000000000491
 21
961.9999999999775
 31
0.0
  0
LINE
  5
19C
330
1F
100
AcDbEntity
  8
化粧台
  6
CONTINUOUS
 62
     6
100
AcDbLine
 10
625.5000000000491
 20
973.9999999999776
 30
0.0
 11
625.5000000000491
 21
961.9999999999775
 31
0.0
  0
LINE
  5
19D
330
1F
100
AcDbEntity
  8
化粧台
  6
CONTINUOUS
 62
     6
100
AcDbLine
 10
529.6000000000495
 20
1417.462121212001
 30
0.0
 11
538.4000000000487
 21
1417.462121212001
 31
0.0
  0
LINE
  5
19E
330
1F
100
AcDbEntity
  8
化粧台
  6
CONTINUOUS
 62
     6
100
AcDbLine
 10
538.4000000000487
 20
1417.462121211998
 30
0.0
 11
543.9577890757096
 21
1429.867900398738
 31
0.0
  0
ARC
  5
19F
330
1F
100
AcDbEntity
  8
化粧台
  6
CONTINUOUS
 62
     6
100
AcDbCircle
 10
534.0000000000509
 20
1380.962121211998
 30
0.0
 40
50.50000000000011
100
AcDbArc
 50
79.03113047331384
 51
100.9688695266861
  0
LINE
  5
1A0
330
1F
100
AcDbEntity
  8
化粧台
  6
CONTINUOUS
 62
     6
100
AcDbLine
 10
524.04221092439
 20
1429.867900398738
 30
0.0
 11
529.6000000000495
 21
1417.462121211998
 31
0.0
  0
ARC
  5
1A1
330
1F
100
AcDbEntity
  8
化粧台
  6
CONTINUOUS
 62
     6
100
AcDbCircle
 10
524.4829805995323
 20
1430.065365213203
 30
0.0
 40
0.482980599482926
100
AcDbArc
 50
100.9688695266781
 51
204.1323795945835
  0
ARC
  5
1A2
330
1F
100
AcDbEntity
  8
化粧台
  6
CONTINUOUS
 62
     6
100
AcDbCircle
 10
543.5170194005659
 20
1430.065365213203
 30
0.0
 40
0.482980599482931
100
AcDbArc
 50
335.8676204054165
 51
79.03113047332185
  0
LINE
  5
1A3
330
1F
100
AcDbEntity
  8
化粧台
  6
CONTINUOUS
 62
     6
100
AcDbLine
 10
530.9250000000497
 20
1417.462121212001
 30
0.0
 11
530.9250000000497
 21
1412.999999999997
 31
0.0
  0
LINE
  5
1A4
330
1F
100
AcDbEntity
  8
化粧台
  6
CONTINUOUS
 62
     6
100
AcDbLine
 10
537.0750000000517
 20
1417.462121212001
 30
0.0
 11
537.0750000000517
 21
1412.999999999997
 31
0.0
  0
CIRCLE
  5
1A5
330
1F
100
AcDbEntity
  8
化粧台
  6
CONTINUOUS
 62
     6
100
AcDbCircle
 10
604.0000000000509
 20
1507.624834330397
 30
0.0
 40
2.5
  0
ELLIPSE
  5
1A6
330
1F
100
AcDbEntity
  8
化粧台
  6
CONTINUOUS
 62
     6
100
AcDbEllipse
 10
604.0000000000509
 20
1466.627840154127
 30
0.0
 11
9.5
 21
0.0
 31
0.0
210
0.0
220
0.0
230
1.0
 40
0.6293203910494725
 41
6.185538324117922
 42
9.52242494383102
  0
ELLIPSE
  5
1A7
330
1F
100
AcDbEntity
  8
化粧台
  6
CONTINUOUS
 62
     6
100
AcDbEllipse
 10
604.0000000000509
 20
1465.462121211937
 30
0.0
 11
9.5
 21
0.0
 31
0.0
210
0.0
220
0.0
230
1.0
 40
0.6293203910494725
 41
0.0
 42
6.283185307179586
  0
ELLIPSE
  5
1A8
330
1F
100
AcDbEntity
  8
化粧台
  6
CONTINUOUS
 62
     6
100
AcDbEllipse
 10
604.0000000000509
 20
1484.397237489512
 30
0.0
 11
1.425023701863848E-15
 21
23.27240315911502
 31
0.0
210
0.0
220
0.0
230
1.0
 40
0.7584664043724545
 41
1.672914334811287
 42
2.394054721507722
  0
ELLIPSE
  5
1A9
330
1F
100
AcDbEntity
  8
化粧台
  6
CONTINUOUS
 62
     6
100
AcDbEllipse
 10
604.0000000000509
 20
1484.397237489512
 30
0.0
 11
1.425023701863848E-15
 21
23.27240315911502
 31
0.0
210
0.0
220
0.0
230
1.0
 40
0.7584664043724545
 41
3.889130585666067
 42
4.610270972368305
  0
ELLIPSE
  5
1AA
330
1F
100
AcDbEntity
  8
化粧台
  6
CONTINUOUS
 62
     6
100
AcDbEllipse
 10
604.0
 20
1485.810840792557
 30
0.0
 11
22.60804436395022
 21
0.0
 31
0.0
210
0.0
220
0.0
230
1.0
 40
0.1000684844500541
 41
3.81651630643962
 42
5.608261654336522
  0
ELLIPSE
  5
1AB
330
1F
100
AcDbEntity
  8
化粧台
  6
CONTINUOUS
 62
     6
100
AcDbEllipse
 10
604.0000000000509
 20
1466.627840154127
 30
0.0
 11
12.0
 21
0.0
 31
0.0
210
0.0
220
0.0
230
1.0
 40
0.629320391049172
 41
0.0
 42
6.283185307179586
  0
ELLIPSE
  5
1AC
330
1F
100
AcDbEntity
  8
化粧台
  6
CONTINUOUS
 62
     6
100
AcDbEllipse
 10
604.0000000000509
 20
1470.902142942138
 30
0.0
 11
12.0
 21
0.0
 31
0.0
210
0.0
220
0.0
230
1.0
 40
0.629320391049172
 41
0.0
 42
3.141592653589793
  0
LINE
  5
1AD
330
1F
100
AcDbEntity
  8
化粧台
  6
CONTINUOUS
 62
     6
100
AcDbLine
 10
592.0000000000141
 20
1470.902142942138
 30
0.0
 11
592.0000000000141
 21
1466.627840154127
 31
0.0
  0
LINE
  5
1AE
330
1F
100
AcDbEntity
  8
化粧台
  6
CONTINUOUS
 62
     6
100
AcDbLine
 10
616.0000000000146
 20
1470.902142942138
 30
0.0
 11
616.0000000000146
 21
1466.627840154127
 31
0.0
  0
ELLIPSE
  5
1AF
330
1F
100
AcDbEntity
  8
化粧台
  6
CONTINUOUS
 62
     6
100
AcDbEllipse
 10
604.0
 20
1518.787187066278
 30
0.0
 11
22.60804436395022
 21
0.0
 31
0.0
210
0.0
220
0.0
230
1.0
 40
0.1000684844500541
 41
3.986927685122784
 42
5.437850275652449
  0
LINE
  5
1B0
330
1F
100
AcDbEntity
  8
化粧台
  6
CONTINUOUS
 62
     6
100
AcDbLine
 10
626.608044363933
 20
1500.670113520779
 30
0.0
 11
626.4003882009238
 21
1524.465152930241
 31
0.0
  0
LINE
  5
1B1
330
1F
100
AcDbEntity
  8
化粧台
  6
CONTINUOUS
 62
     6
100
AcDbLine
 10
581.3919556360961
 20
1500.670113520779
 30
0.0
 11
581.5996117991053
 21
1524.465152930241
 31
0.0
  0
ARC
  5
1B2
330
1F
100
AcDbEntity
  8
化粧台
  6
CONTINUOUS
 62
     6
100
AcDbCircle
 10
596.4015305089961
 20
1524.203356865281
 30
0.0
 40
30.0
100
AcDbArc
 50
0.5000000000180683
 51
11.23655945411749
  0
ARC
  5
1B3
330
1F
100
AcDbEntity
  8
化粧台
  6
CONTINUOUS
 62
     6
100
AcDbCircle
 10
604.0000000000509
 20
1236.82512344157
 30
0.0
 40
300.0
100
AcDbArc
 50
87.25585415846984
 51
92.74414584154411
  0
ARC
  5
1B4
330
1F
100
AcDbEntity
  8
化粧台
  6
CONTINUOUS
 62
     6
100
AcDbCircle
 10
611.5984694910294
 20
1524.203356865281
 30
0.0
 40
30.0
100
AcDbArc
 50
168.7634405458825
 51
179.499999999982
  0
ARC
  5
1B5
330
1F
100
AcDbEntity
  8
化粧台
  6
CONTINUOUS
 62
     6
100
AcDbCircle
 10
617.9798129061419
 20
1528.490282195763
 30
0.0
 40
8.0
100
AcDbArc
 50
11.23655945411761
 51
87.25585415845748
  0
ARC
  5
1B6
330
1F
100
AcDbEntity
  8
化粧台
  6
CONTINUOUS
 62
     6
100
AcDbCircle
 10
590.0201870938872
 20
1528.490282195763
 30
0.0
 40
8.0
100
AcDbArc
 50
92.74414584154417
 51
168.7634405458828
  0
ELLIPSE
  5
1B7
330
1F
100
AcDbEntity
  8
化粧台
  6
CONTINUOUS
 62
     6
100
AcDbEllipse
 10
604.0000000000509
 20
1497.720184111198
 30
0.0
 11
22.63378800779989
 21
0.0
 31
0.0
210
0.0
220
0.0
230
1.0
 40
0.1010562971829465
 41
2.686067603327581
 42
3.141592932661704
  0
ELLIPSE
  5
1B8
330
1F
100
AcDbEntity
  8
化粧台
  6
CONTINUOUS
 62
     6
100
AcDbEllipse
 10
604.0000000000509
 20
1497.720184111198
 30
0.0
 11
20.50000000000002
 21
0.0
 31
0.0
210
0.0
220
0.0
230
1.0
 40
0.1010562971829462
 41
3.123775587395101
 42
6.301002373374225
  0
ELLIPSE
  5
1B9
330
1F
100
AcDbEntity
  8
化粧台
  6
CONTINUOUS
 62
     6
100
AcDbEllipse
 10
604.0000000000509
 20
1497.720184111198
 30
0.0
 11
22.63378800779989
 21
0.0
 31
0.0
210
0.0
220
0.0
230
1.0
 40
0.1010562971829465
 41
6.283185148042703
 42
6.738710357411621
  0
LINE
  5
1BA
330
1F
100
AcDbEntity
  8
化粧台
  6
CONTINUOUS
 62
     6
100
AcDbLine
 10
624.4967462456625
 20
1497.757092956442
 30
0.0
 11
624.1635245294055
 21
1499.646887217755
 31
0.0
  0
LINE
  5
1BB
330
1F
100
AcDbEntity
  8
化粧台
  6
CONTINUOUS
 62
     6
100
AcDbLine
 10
583.5032537547122
 20
1497.757092956395
 30
0.0
 11
583.8364754709655
 21
1499.646887217683
 31
0.0
  0
ELLIPSE
  5
1BC
330
1F
100
AcDbEntity
  8
化粧台
  6
CONTINUOUS
 62
     6
100
AcDbEllipse
 10
604.0
 20
1500.670113520607
 30
0.0
 11
22.60804436395022
 21
0.0
 31
0.0
210
0.0
220
0.0
230
1.0
 40
0.1000684844500541
 41
3.139846085241871
 42
6.284931875527517
  0
LINE
  5
1BD
330
1F
100
AcDbEntity
  8
化粧台
  6
CONTINUOUS
 62
     6
100
AcDbLine
 10
580.6268701461722
 20
1412.999999999997
 30
0.0
 11
581.3662472048345
 21
1497.724219085469
 31
0.0
  0
LINE
  5
1BE
330
1F
100
AcDbEntity
  8
化粧台
  6
CONTINUOUS
 62
     6
100
AcDbLine
 10
627.3731298538551
 20
1412.999999999997
 30
0.0
 11
626.6337527975884
 21
1497.724218811143
 31
0.0
  0
ARC
  5
1BF
330
1F
100
AcDbEntity
  8
化粧台
  6
CONTINUOUS
 62
     6
100
AcDbCircle
 10
606.4335937450451
 20
1520.572907436165
 30
0.0
 40
20.0
100
AcDbArc
 50
0.5000000000180683
 51
34.43887905578293
  0
ARC
  5
1C0
330
1F
100
AcDbEntity
  8
化粧台
  6
CONTINUOUS
 62
     6
100
AcDbCircle
 10
617.9798129061419
 20
1528.490282195763
 30
0.0
 40
6.000000000000002
100
AcDbArc
 50
34.43887905578207
 51
87.25585415846619
  0
ARC
  5
1C1
330
1F
100
AcDbEntity
  8
化粧台
  6
CONTINUOUS
 62
     6
100
AcDbCircle
 10
604.0000000000509
 20
1236.82512344157
 30
0.0
 40
298.0
100
AcDbArc
 50
87.25585415846969
 51
92.74414584154411
  0
ARC
  5
1C2
330
1F
100
AcDbEntity
  8
化粧台
  6
CONTINUOUS
 62
     6
100
AcDbCircle
 10
590.0201870938872
 20
1528.490282195763
 30
0.0
 40
6.000000000000002
100
AcDbArc
 50
92.74414584154252
 51
145.561120944218
  0
ARC
  5
1C3
330
1F
100
AcDbEntity
  8
化粧台
  6
CONTINUOUS
 62
     6
100
AcDbCircle
 10
601.566406254984
 20
1520.572907436165
 30
0.0
 40
20.0
100
AcDbArc
 50
145.5611209442171
 51
179.499999999982
  0
ARC
  5
1C4
330
1F
100
AcDbEntity
  8
化粧台
  6
CONTINUOUS
 62
     6
100
AcDbCircle
 10
654.0000000000509
 20
1135.438791602025
 30
0.0
 40
154.5
100
AcDbArc
 50
126.9979057359783
 51
180.0
  0
ARC
  5
1C5
330
1F
100
AcDbEntity
  8
化粧台
  6
CONTINUOUS
 62
     6
100
AcDbCircle
 10
654.0000000000509
 20
1135.438791602025
 30
0.0
 40
145.5
100
AcDbArc
 50
128.970854059127
 51
180.0
  0
ARC
  5
1C6
330
1F
100
AcDbEntity
  8
化粧台
  6
CONTINUOUS
 62
     6
100
AcDbCircle
 10
554.0000000000487
 20
1135.438791602025
 30
0.0
 40
154.5
100
AcDbArc
 50
0.0
 51
53.00209426402179
  0
ARC
  5
1C7
330
1F
100
AcDbEntity
  8
化粧台
  6
CONTINUOUS
 62
     6
100
AcDbCircle
 10
554.0000000000487
 20
1135.438791602025
 30
0.0
 40
145.5
100
AcDbArc
 50
0.0
 51
51.02914594087281
  0
LINE
  5
1C8
330
1F
100
AcDbEntity
  8
化粧台
  6
CONTINUOUS
 62
     6
100
AcDbLine
 10
582.0000000000491
 20
1216.499999999977
 30
0.0
 11
626.0000000000491
 21
1216.499999999977
 31
0.0
  0
LINE
  5
1C9
330
1F
100
AcDbEntity
  8
化粧台
  6
CONTINUOUS
 62
     6
100
AcDbLine
 10
582.0000000000491
 20
1204.499999999977
 30
0.0
 11
626.0000000000491
 21
1204.499999999977
 31
0.0
  0
ARC
  5
1CA
330
1F
100
AcDbEntity
  8
化粧台
  6
CONTINUOUS
 62
     6
100
AcDbCircle
 10
618.0000000000491
 20
1210.499999999977
 30
0.0
 40
10.0
100
AcDbArc
 50
323.1301023541562
 51
36.869897645844
  0
ARC
  5
1CB
330
1F
100
AcDbEntity
  8
化粧台
  6
CONTINUOUS
 62
     6
100
AcDbCircle
 10
590.0000000000491
 20
1210.499999999977
 30
0.0
 40
10.0
100
AcDbArc
 50
143.1301023541561
 51
216.8698976458443
  0
ELLIPSE
  5
1CC
330
1F
100
AcDbEntity
  8
化粧台
  6
CONTINUOUS
 62
     6
100
AcDbEllipse
 10
622.6434319647688
 20
1210.499999999977
 30
0.0
 11
3.673969509765456E-16
 21
6.000047544032152
 31
0.0
210
0.0
220
0.0
230
1.0
 40
0.8927542650237572
 41
0.0
 42
6.283185307179586
  0
ELLIPSE
  5
1CD
330
1F
100
AcDbEntity
  8
化粧台
  6
CONTINUOUS
 62
     6
100
AcDbEllipse
 10
604.0000000000491
 20
1210.499999999977
 30
0.0
 11
10.66536450385002
 21
0.0
 31
0.0
210
0.0
220
0.0
230
1.0
 40
0.5625686771262348
 41
0.0
 42
6.283185307179586
  0
ELLIPSE
  5
1CE
330
1F
100
AcDbEntity
  8
化粧台
  6
CONTINUOUS
 62
     6
100
AcDbEllipse
 10
585.3565680353295
 20
1210.499999999977
 30
0.0
 11
3.673969509765480E-16
 21
6.00004754403219
 31
0.0
210
0.0
220
0.0
230
1.0
 40
0.8927542650237515
 41
0.0
 42
6.283185307179586
  0
LINE
  5
1CF
330
1F
100
AcDbEntity
  8
化粧台
  6
CONTINUOUS
 62
     6
100
AcDbLine
 10
585.0000000000509
 20
1222.999999999998
 30
0.0
 11
585.0000000000509
 21
1216.499999999977
 31
0.0
  0
LINE
  5
1D0
330
1F
100
AcDbEntity
  8
化粧台
  6
CONTINUOUS
 62
     6
100
AcDbLine
 10
623.0000000000509
 20
1222.999999999998
 30
0.0
 11
623.0000000000509
 21
1216.499999999977
 31
0.0
  0
LINE
  5
1D1
330
1F
100
AcDbEntity
  8
化粧台
  6
CONTINUOUS
 62
     6
100
AcDbLine
 10
582.5000000000491
 20
1056.999999999977
 30
0.0
 11
625.5000000000491
 21
1056.999999999977
 31
0.0
  0
LINE
  5
1D2
330
1F
100
AcDbEntity
  8
化粧台
  6
CONTINUOUS
 62
     6
100
AcDbLine
 10
582.5000000000491
 20
1044.999999999977
 30
0.0
 11
625.5000000000491
 21
1044.999999999977
 31
0.0
  0
LINE
  5
1D3
330
1F
100
AcDbEntity
  8
化粧台
  6
CONTINUOUS
 62
     6
100
AcDbLine
 10
582.5000000000491
 20
1056.999999999977
 30
0.0
 11
582.5000000000491
 21
1044.999999999977
 31
0.0
  0
ELLIPSE
  5
1D4
330
1F
100
AcDbEntity
  8
化粧台
  6
CONTINUOUS
 62
     6
100
AcDbEllipse
 10
593.2500000000491
 20
1050.999999999977
 30
0.0
 11
9.236476601000051
 21
0.0
 31
0.0
210
0.0
220
0.0
230
1.0
 40
0.6495983543497933
 41
0.0
 42
6.283185307179586
  0
LINE
  5
1D5
330
1F
100
AcDbEntity
  8
化粧台
  6
CONTINUOUS
 62
     6
100
AcDbLine
 10
625.5000000000491
 20
1056.999999999977
 30
0.0
 11
625.5000000000491
 21
1044.999999999977
 31
0.0
  0
ELLIPSE
  5
1D6
330
1F
100
AcDbEntity
  8
化粧台
  6
CONTINUOUS
 62
     6
100
AcDbEllipse
 10
614.7500000000491
 20
1050.999999999977
 30
0.0
 11
9.236476601000051
 21
0.0
 31
0.0
210
0.0
220
0.0
230
1.0
 40
0.6495983543497933
 41
0.0
 42
6.283185307179586
  0
LINE
  5
1D7
330
1F
100
AcDbEntity
  8
化粧台
  6
CONTINUOUS
 62
     6
100
AcDbLine
 10
578.0000000000509
 20
1229.833333333328
 30
0.0
 11
630.0000000000509
 21
1229.833333333328
 31
0.0
  0
LINE
  5
1D8
330
1F
100
AcDbEntity
  8
化粧台
  6
CONTINUOUS
 62
     6
100
AcDbLine
 10
578.0000000000509
 20
1229.833333333328
 30
0.0
 11
578.0000000000509
 21
1231.333333333328
 31
0.0
  0
LINE
  5
1D9
330
1F
100
AcDbEntity
  8
化粧台
  6
CONTINUOUS
 62
     6
100
AcDbLine
 10
630.0000000000509
 20
1229.833333333328
 30
0.0
 11
630.0000000000509
 21
1231.333333333328
 31
0.0
  0
LINE
  5
1DA
330
1F
100
AcDbEntity
  8
化粧台
  6
CONTINUOUS
 62
     6
100
AcDbLine
 10
631.5000000000528
 20
1233.833333333328
 30
0.0
 11
631.5000000000528
 21
1231.333333333328
 31
0.0
  0
LINE
  5
1DB
330
1F
100
AcDbEntity
  8
化粧台
  6
CONTINUOUS
 62
     6
100
AcDbLine
 10
576.5000000000528
 20
1233.833333333328
 30
0.0
 11
576.5000000000528
 21
1231.333333333328
 31
0.0
  0
LINE
  5
1DC
330
1F
100
AcDbEntity
  8
化粧台
  6
CONTINUOUS
 62
     6
100
AcDbLine
 10
580.9117647059375
 20
1237.999999999997
 30
0.0
 11
576.5000000000528
 21
1233.833333333328
 31
0.0
  0
LINE
  5
1DD
330
1F
100
AcDbEntity
  8
化粧台
  6
CONTINUOUS
 62
     6
100
AcDbLine
 10
627.0882352941658
 20
1237.999999999997
 30
0.0
 11
631.5000000000528
 21
1233.833333333328
 31
0.0
  0
LINE
  5
1DE
330
1F
100
AcDbEntity
  8
化粧台
  6
CONTINUOUS
 62
     6
100
AcDbLine
 10
576.5000000000509
 20
1231.333333333328
 30
0.0
 11
631.5000000000509
 21
1231.333333333328
 31
0.0
  0
LINE
  5
1DF
330
1F
100
AcDbEntity
  8
化粧台
  6
CONTINUOUS
 62
     6
100
AcDbLine
 10
583.0322560000513
 20
1222.999999999998
 30
0.0
 11
583.0322560000513
 21
1229.833333333328
 31
0.0
  0
LINE
  5
1E0
330
1F
100
AcDbEntity
  8
化粧台
  6
CONTINUOUS
 62
     6
100
AcDbLine
 10
624.967736000051
 20
1222.999999999998
 30
0.0
 11
624.967736000051
 21
1229.833333333328
 31
0.0
  0
LINE
  5
1E1
330
1F
100
AcDbEntity
  8
化粧台
  6
CONTINUOUS
 62
     6
100
AcDbLine
 10
583.0322560000513
 20
1222.999999999997
 30
0.0
 11
624.967736000051
 21
1222.999999999997
 31
0.0
  0
LINE
  5
1E2
330
1F
100
AcDbEntity
  8
化粧台
  6
CONTINUOUS
 62
     2
100
AcDbLine
 10
563.3867295402197
 20
1242.292893218811
 30
0.0
 11
559.0000000000509
 21
1272.999999999997
 31
0.0
  0
LINE
  5
1E3
330
1F
100
AcDbEntity
  8
化粧台
  6
CONTINUOUS
 62
     2
100
AcDbLine
 10
644.6132704598822
 20
1242.292893218811
 30
0.0
 11
649.0000000000473
 21
1272.999999999997
 31
0.0
  0
LINE
  5
1E4
330
1F
100
AcDbEntity
  8
化粧台
  6
CONTINUOUS
 62
     2
100
AcDbLine
 10
568.3364770085282
 20
1237.999999999997
 30
0.0
 11
639.6635229915773
 21
1237.999999999997
 31
0.0
  0
ARC
  5
1E5
330
1F
100
AcDbEntity
  8
化粧台
  6
CONTINUOUS
 62
     2
100
AcDbCircle
 10
568.3364770085282
 20
1242.999999999997
 30
0.0
 40
5.0
100
AcDbArc
 50
188.1301023541575
 51
270.0000000000002
  0
ARC
  5
1E6
330
1F
100
AcDbEntity
  8
化粧台
  6
CONTINUOUS
 62
     2
100
AcDbCircle
 10
639.6635229915773
 20
1242.999999999997
 30
0.0
 40
5.0
100
AcDbArc
 50
270.0000000000002
 51
351.8698976458425
  0
LINE
  5
1E7
330
1F
100
AcDbEntity
  8
化粧台
  6
CONTINUOUS
 62
     6
100
AcDbLine
 10
776.7726136399724
 20
1315.772613639899
 30
0.0
 11
781.2273863614482
 21
1320.227386361373
 31
0.0
  0
LINE
  5
1E8
330
1F
100
AcDbEntity
  8
化粧台
  6
CONTINUOUS
 62
     6
100
AcDbLine
 10
781.2273863627229
 20
1315.772613639899
 30
0.0
 11
776.7726136412475
 21
1320.227386361373
 31
0.0
  0
LINE
  5
1E9
330
1F
100
AcDbEntity
  8
化粧台
  6
CONTINUOUS
 62
     6
100
AcDbLine
 10
755.7500000026484
 20
1340.999999999997
 30
0.0
 11
802.250000002648
 21
1340.999999999997
 31
0.0
  0
LINE
  5
1EA
330
1F
100
AcDbEntity
  8
化粧台
  6
CONTINUOUS
 62
     6
100
AcDbLine
 10
763.0000000026484
 20
1333.749999999997
 30
0.0
 11
763.0000000026484
 21
1348.249999999997
 31
0.0
  0
LINE
  5
1EB
330
1F
100
AcDbEntity
  8
化粧台
  6
CONTINUOUS
 62
     6
100
AcDbLine
 10
795.0000000026484
 20
1333.749999999997
 30
0.0
 11
795.0000000026484
 21
1348.249999999997
 31
0.0
  0
LINE
  5
1EC
330
1F
100
AcDbEntity
  8
化粧台
  6
CONTINUOUS
 62
     6
100
AcDbLine
 10
769.0000000026484
 20
1317.999999999997
 30
0.0
 11
789.0000000026484
 21
1317.999999999997
 31
0.0
  0
LINE
  5
1ED
330
1F
100
AcDbEntity
  8
化粧台
  6
EXLTYPE3
 62
     6
100
AcDbLine
 10
779.0000000000487
 20
1388.999999999997
 30
0.0
 11
779.0000000000487
 21
1219.999999999999
 31
0.0
  0
LINE
  5
1EE
330
1F
100
AcDbEntity
  8
化粧台
  6
CONTINUOUS
 62
     6
100
AcDbLine
 10
752.0000000026484
 20
1348.999999999997
 30
0.0
 11
806.0000000030504
 21
1348.999999999997
 31
0.0
  0
LINE
  5
1EF
330
1F
100
AcDbEntity
  8
化粧台
  6
EXLTYPE2
 62
     6
100
AcDbLine
 10
753.0000000026484
 20
1378.999999999997
 30
0.0
 11
805.0000000026484
 21
1378.999999999997
 31
0.0
  0
ARC
  5
1F0
330
1F
100
AcDbEntity
  8
化粧台
  6
EXLTYPE2
 62
     6
100
AcDbCircle
 10
753.0000000026484
 20
1375.999999999997
 30
0.0
 40
3.000000000000003
100
AcDbArc
 50
90.00000000000001
 51
180.0
  0
LINE
  5
1F1
330
1F
100
AcDbEntity
  8
化粧台
  6
EXLTYPE2
 62
     6
100
AcDbLine
 10
750.0000000026484
 20
1375.999999999997
 30
0.0
 11
750.0000000026484
 21
1303.999999999997
 31
0.0
  0
ARC
  5
1F2
330
1F
100
AcDbEntity
  8
化粧台
  6
EXLTYPE2
 62
     6
100
AcDbCircle
 10
753.0000000026484
 20
1303.999999999997
 30
0.0
 40
3.000000000000003
100
AcDbArc
 50
180.0
 51
270.0000000000002
  0
LINE
  5
1F3
330
1F
100
AcDbEntity
  8
化粧台
  6
EXLTYPE2
 62
     6
100
AcDbLine
 10
753.0000000026484
 20
1300.999999999997
 30
0.0
 11
805.0000000026484
 21
1300.999999999997
 31
0.0
  0
ARC
  5
1F4
330
1F
100
AcDbEntity
  8
化粧台
  6
EXLTYPE2
 62
     6
100
AcDbCircle
 10
805.0000000026484
 20
1303.999999999997
 30
0.0
 40
3.000000000000003
100
AcDbArc
 50
270.0000000000002
 51
0.0
  0
LINE
  5
1F5
330
1F
100
AcDbEntity
  8
化粧台
  6
EXLTYPE2
 62
     6
100
AcDbLine
 10
808.0000000026484
 20
1375.999999999997
 30
0.0
 11
808.0000000026484
 21
1303.999999999997
 31
0.0
  0
ARC
  5
1F6
330
1F
100
AcDbEntity
  8
化粧台
  6
EXLTYPE2
 62
     6
100
AcDbCircle
 10
805.0000000026484
 20
1375.999999999997
 30
0.0
 40
3.000000000000003
100
AcDbArc
 50
0.0
 51
90.00000000000001
  0
CIRCLE
  5
1F7
330
1F
100
AcDbEntity
  8
化粧台
  6
EXLTYPE2
 62
     6
100
AcDbCircle
 10
795.0000000026484
 20
1340.999999999997
 30
0.0
 40
5.25
  0
CIRCLE
  5
1F8
330
1F
100
AcDbEntity
  8
化粧台
  6
EXLTYPE2
 62
     6
100
AcDbCircle
 10
763.0000000026484
 20
1340.999999999997
 30
0.0
 40
5.25
  0
CIRCLE
  5
1F9
330
1F
100
AcDbEntity
  8
化粧台
  6
EXLTYPE2
 62
     6
100
AcDbCircle
 10
779.0000000026484
 20
1317.999999999997
 30
0.0
 40
5.25
  0
CIRCLE
  5
1FA
330
1F
100
AcDbEntity
  8
化粧台
  6
EXLTYPE2
 62
     6
100
AcDbCircle
 10
779.0000000026484
 20
1317.999999999997
 30
0.0
 40
8.0
  0
LINE
  5
1FB
330
1F
100
AcDbEntity
  8
化粧台
  6
EXLTYPE2
 62
     6
100
AcDbLine
 10
787.5000000000491
 20
1286.194738932299
 30
0.0
 11
770.5000000000509
 21
1286.194738932299
 31
0.0
  0
LINE
  5
1FC
330
1F
100
AcDbEntity
  8
化粧台
  6
EXLTYPE2
 62
     6
100
AcDbLine
 10
770.5000000000509
 20
1286.194738932299
 30
0.0
 11
770.5000000000437
 21
1272.999999999997
 31
0.0
  0
LINE
  5
1FD
330
1F
100
AcDbEntity
  8
化粧台
  6
EXLTYPE2
 62
     6
100
AcDbLine
 10
787.5000000000491
 20
1286.194738932299
 30
0.0
 11
787.50000000004
 21
1272.999999999997
 31
0.0
  0
LINE
  5
1FE
330
1F
100
AcDbEntity
  8
化粧台
  6
CONTINUOUS
 62
     6
100
AcDbLine
 10
431.2273863601275
 20
1315.7726136399
 30
0.0
 11
426.7726136386517
 21
1320.227386361374
 31
0.0
  0
LINE
  5
1FF
330
1F
100
AcDbEntity
  8
化粧台
  6
CONTINUOUS
 62
     6
100
AcDbLine
 10
426.7726136373766
 20
1315.7726136399
 30
0.0
 11
431.2273863588524
 21
1320.227386361374
 31
0.0
  0
LINE
  5
200
330
1F
100
AcDbEntity
  8
化粧台
  6
CONTINUOUS
 62
     6
100
AcDbLine
 10
452.2499999974515
 20
1340.999999999998
 30
0.0
 11
405.7499999974515
 21
1340.999999999999
 31
0.0
  0
LINE
  5
201
330
1F
100
AcDbEntity
  8
化粧台
  6
CONTINUOUS
 62
     6
100
AcDbLine
 10
444.9999999974515
 20
1333.749999999998
 30
0.0
 11
444.9999999974515
 21
1348.249999999998
 31
0.0
  0
LINE
  5
202
330
1F
100
AcDbEntity
  8
化粧台
  6
CONTINUOUS
 62
     6
100
AcDbLine
 10
412.9999999974515
 20
1333.749999999999
 30
0.0
 11
412.9999999974515
 21
1348.249999999998
 31
0.0
  0
LINE
  5
203
330
1F
100
AcDbEntity
  8
化粧台
  6
CONTINUOUS
 62
     6
100
AcDbLine
 10
438.9999999974515
 20
1317.999999999998
 30
0.0
 11
418.9999999974515
 21
1317.999999999999
 31
0.0
  0
LINE
  5
204
330
1F
100
AcDbEntity
  8
化粧台
  6
EXLTYPE3
 62
     6
100
AcDbLine
 10
429.0000000000508
 20
1388.999999999999
 30
0.0
 11
429.0000000000508
 21
1220.000000000001
 31
0.0
  0
LINE
  5
205
330
1F
100
AcDbEntity
  8
化粧台
  6
CONTINUOUS
 62
     6
100
AcDbLine
 10
455.9999999974515
 20
1348.999999999998
 30
0.0
 11
401.9999999970495
 21
1348.999999999999
 31
0.0
  0
LINE
  5
206
330
1F
100
AcDbEntity
  8
化粧台
  6
EXLTYPE2
 62
     6
100
AcDbLine
 10
454.9999999974515
 20
1378.999999999998
 30
0.0
 11
402.9999999974515
 21
1378.999999999999
 31
0.0
  0
ARC
  5
207
330
1F
100
AcDbEntity
  8
化粧台
  6
EXLTYPE2
 62
     6
100
AcDbCircle
 10
454.9999999974515
 20
1375.999999999998
 30
0.0
 40
3.000000000000003
100
AcDbArc
 50
0.0
 51
90.00000000000001
  0
LINE
  5
208
330
1F
100
AcDbEntity
  8
化粧台
  6
EXLTYPE2
 62
     6
100
AcDbLine
 10
457.9999999974515
 20
1375.999999999998
 30
0.0
 11
457.9999999974515
 21
1303.999999999998
 31
0.0
  0
ARC
  5
209
330
1F
100
AcDbEntity
  8
化粧台
  6
EXLTYPE2
 62
     6
100
AcDbCircle
 10
454.9999999974515
 20
1303.999999999998
 30
0.0
 40
3.000000000000003
100
AcDbArc
 50
270.0
 51
0.0
  0
LINE
  5
20A
330
1F
100
AcDbEntity
  8
化粧台
  6
EXLTYPE2
 62
     6
100
AcDbLine
 10
454.9999999974515
 20
1300.999999999998
 30
0.0
 11
402.9999999974515
 21
1300.999999999999
 31
0.0
  0
ARC
  5
20B
330
1F
100
AcDbEntity
  8
化粧台
  6
EXLTYPE2
 62
     6
100
AcDbCircle
 10
402.9999999974515
 20
1303.999999999999
 30
0.0
 40
3.000000000000003
100
AcDbArc
 50
179.9999999999957
 51
270.0
  0
LINE
  5
20C
330
1F
100
AcDbEntity
  8
化粧台
  6
EXLTYPE2
 62
     6
100
AcDbLine
 10
399.9999999974515
 20
1375.999999999999
 30
0.0
 11
399.9999999974515
 21
1303.999999999999
 31
0.0
  0
ARC
  5
20D
330
1F
100
AcDbEntity
  8
化粧台
  6
EXLTYPE2
 62
     6
100
AcDbCircle
 10
402.9999999974515
 20
1375.999999999999
 30
0.0
 40
3.000000000000003
100
AcDbArc
 50
90.00000000000001
 51
179.9999999999957
  0
CIRCLE
  5
20E
330
1F
100
AcDbEntity
  8
化粧台
  6
EXLTYPE2
 62
     6
100
AcDbCircle
 10
412.9999999974515
 20
1340.999999999999
 30
0.0
 40
5.25
  0
CIRCLE
  5
20F
330
1F
100
AcDbEntity
  8
化粧台
  6
EXLTYPE2
 62
     6
100
AcDbCircle
 10
444.9999999974515
 20
1340.999999999998
 30
0.0
 40
5.25
  0
CIRCLE
  5
210
330
1F
100
AcDbEntity
  8
化粧台
  6
EXLTYPE2
 62
     6
100
AcDbCircle
 10
428.9999999974515
 20
1317.999999999999
 30
0.0
 40
5.25
  0
CIRCLE
  5
211
330
1F
100
AcDbEntity
  8
化粧台
  6
EXLTYPE2
 62
     6
100
AcDbCircle
 10
428.9999999974515
 20
1317.999999999999
 30
0.0
 40
8.0
  0
LINE
  5
212
330
1F
100
AcDbEntity
  8
化粧台
  6
EXLTYPE2
 62
     6
100
AcDbLine
 10
420.5000000000508
 20
1286.194738932301
 30
0.0
 11
437.500000000049
 21
1286.194738932301
 31
0.0
  0
LINE
  5
213
330
1F
100
AcDbEntity
  8
化粧台
  6
EXLTYPE2
 62
     6
100
AcDbLine
 10
437.500000000049
 20
1286.194738932301
 30
0.0
 11
437.5000000000563
 21
1272.999999999999
 31
0.0
  0
LINE
  5
214
330
1F
100
AcDbEntity
  8
化粧台
  6
EXLTYPE2
 62
     6
100
AcDbLine
 10
420.5000000000508
 20
1286.194738932301
 30
0.0
 11
420.5000000000599
 21
1272.999999999999
 31
0.0
  0
LINE
  5
215
330
1F
100
AcDbEntity
  8
化粧台
  6
EXLTYPE3
 62
     6
100
AcDbLine
 10
466.5000000000508
 20
1007.999999999997
 30
0.0
 11
541.5000000000509
 21
1007.999999999997
 31
0.0
  0
LINE
  5
216
330
1F
100
AcDbEntity
  8
化粧台
  6
CONTINUOUS
 62
     6
100
AcDbLine
 10
493.5000000000508
 20
1053.000000000018
 30
0.0
 11
493.5000000000508
 21
1045.000000000018
 31
0.0
  0
LINE
  5
217
330
1F
100
AcDbEntity
  8
化粧台
  6
CONTINUOUS
 62
     6
100
AcDbLine
 10
514.5000000000491
 20
1053.000000000018
 30
0.0
 11
514.5000000000491
 21
1045.000000000018
 31
0.0
  0
LINE
  5
218
330
1F
100
AcDbEntity
  8
化粧台
  6
CONTINUOUS
 62
     6
100
AcDbLine
 10
495.5000000000508
 20
1055.000000000018
 30
0.0
 11
512.5000000000509
 21
1055.000000000018
 31
0.0
  0
ARC
  5
219
330
1F
100
AcDbEntity
  8
化粧台
  6
CONTINUOUS
 62
     6
100
AcDbCircle
 10
495.5000000000508
 20
1053.000000000018
 30
0.0
 40
2.0
100
AcDbArc
 50
90.00000000000001
 51
180.0
  0
ARC
  5
21A
330
1F
100
AcDbEntity
  8
化粧台
  6
CONTINUOUS
 62
     6
100
AcDbCircle
 10
512.5000000000509
 20
1053.000000000018
 30
0.0
 40
2.0
100
AcDbArc
 50
0.0
 51
90.00000000000001
  0
ARC
  5
21B
330
1F
100
AcDbEntity
  8
化粧台
  6
CONTINUOUS
 62
     6
100
AcDbCircle
 10
495.7544133208029
 20
1052.398868840491
 30
0.0
 40
2.333181967126901
100
AcDbArc
 50
14.93033220238909
 51
165.0696677976166
  0
ARC
  5
21C
330
1F
100
AcDbEntity
  8
化粧台
  6
CONTINUOUS
 62
     6
100
AcDbCircle
 10
504.0000000000508
 20
1048.092522712024
 30
0.0
 40
6.63952809559444
100
AcDbArc
 50
47.65739454710562
 51
132.3426054528944
  0
ARC
  5
21D
330
1F
100
AcDbEntity
  8
化粧台
  6
CONTINUOUS
 62
     6
100
AcDbCircle
 10
512.245586679297
 20
1052.398868840491
 30
0.0
 40
2.333181967126901
100
AcDbArc
 50
14.9303322023837
 51
165.0696677976109
  0
LINE
  5
21E
330
1F
100
AcDbEntity
  8
化粧台
  6
CONTINUOUS
 62
     6
100
AcDbLine
 10
508.472135955053
 20
1053.000000000018
 30
0.0
 11
508.472135955053
 21
1045.000000000018
 31
0.0
  0
LINE
  5
21F
330
1F
100
AcDbEntity
  8
化粧台
  6
CONTINUOUS
 62
     6
100
AcDbLine
 10
509.9911733585521
 20
1053.000000000018
 30
0.0
 11
509.9911733585521
 21
1045.000000000018
 31
0.0
  0
LINE
  5
220
330
1F
100
AcDbEntity
  8
化粧台
  6
CONTINUOUS
 62
     6
100
AcDbLine
 10
498.0088266415495
 20
1053.000000000018
 30
0.0
 11
499.5278640450523
 21
1053.000000000018
 31
0.0
  0
LINE
  5
221
330
1F
100
AcDbEntity
  8
化粧台
  6
CONTINUOUS
 62
     6
100
AcDbLine
 10
508.472135955053
 20
1053.000000000018
 30
0.0
 11
509.9911733585521
 21
1053.000000000018
 31
0.0
  0
LINE
  5
222
330
1F
100
AcDbEntity
  8
化粧台
  6
CONTINUOUS
 62
     6
100
AcDbLine
 10
498.0088266415495
 20
1052.720000000018
 30
0.0
 11
498.0088266415495
 21
1045.000000000018
 31
0.0
  0
LINE
  5
223
330
1F
100
AcDbEntity
  8
化粧台
  6
CONTINUOUS
 62
     6
100
AcDbLine
 10
499.5278640450523
 20
1053.000000000018
 30
0.0
 11
499.5278640450523
 21
1045.000000000018
 31
0.0
  0
LINE
  5
224
330
1F
100
AcDbEntity
  8
化粧台
  6
CONTINUOUS
 62
     6
100
AcDbLine
 10
493.5000000000508
 20
1045.000000000018
 30
0.0
 11
514.5000000000491
 21
1045.000000000018
 31
0.0
  0
LINE
  5
225
330
1F
100
AcDbEntity
  8
化粧台
  6
CONTINUOUS
 62
     6
100
AcDbLine
 10
490.143593539551
 20
1042.000000000018
 30
0.0
 11
490.143593539551
 21
1031.000000000018
 31
0.0
  0
LINE
  5
226
330
1F
100
AcDbEntity
  8
化粧台
  6
CONTINUOUS
 62
     6
100
AcDbLine
 10
497.0717967697509
 20
1042.000000000018
 30
0.0
 11
497.0717967697509
 21
1031.000000000018
 31
0.0
  0
LINE
  5
227
330
1F
100
AcDbEntity
  8
化粧台
  6
CONTINUOUS
 62
     6
100
AcDbLine
 10
510.9282032303507
 20
1042.000000000018
 30
0.0
 11
510.9282032303507
 21
1031.000000000018
 31
0.0
  0
LINE
  5
228
330
1F
100
AcDbEntity
  8
化粧台
  6
CONTINUOUS
 62
     6
100
AcDbLine
 10
517.8564064605507
 20
1042.000000000018
 30
0.0
 11
517.8564064605507
 21
1031.000000000018
 31
0.0
  0
LINE
  5
229
330
1F
100
AcDbEntity
  8
化粧台
  6
CONTINUOUS
 62
     6
100
AcDbLine
 10
490.143593539551
 20
1042.000000000018
 30
0.0
 11
517.8564064605507
 21
1042.000000000018
 31
0.0
  0
LINE
  5
22A
330
1F
100
AcDbEntity
  8
化粧台
  6
CONTINUOUS
 62
     6
100
AcDbLine
 10
490.143593539551
 20
1031.000000000018
 30
0.0
 11
517.8564064605507
 21
1031.000000000018
 31
0.0
  0
LINE
  5
22B
330
1F
100
AcDbEntity
  8
化粧台
  6
CONTINUOUS
 62
     6
100
AcDbLine
 10
512.0000000000491
 20
1045.000000000018
 30
0.0
 11
512.0000000000491
 21
1042.000000000018
 31
0.0
  0
LINE
  5
22C
330
1F
100
AcDbEntity
  8
化粧台
  6
CONTINUOUS
 62
     6
100
AcDbLine
 10
496.0000000000508
 20
1045.000000000018
 30
0.0
 11
496.0000000000508
 21
1042.000000000018
 31
0.0
  0
ARC
  5
22D
330
1F
100
AcDbEntity
  8
化粧台
  6
CONTINUOUS
 62
     6
100
AcDbCircle
 10
504.0000000000508
 20
1007.999999999997
 30
0.0
 40
27.50000000000002
100
AcDbArc
 50
120.2563244206981
 51
59.74367557929916
  0
LINE
  5
22E
330
1F
100
AcDbEntity
  8
化粧台
  6
CONTINUOUS
 62
     6
100
AcDbLine
 10
499.5000000000491
 20
1135.438791602025
 30
0.0
 11
499.5000000000491
 21
1055.000000000018
 31
0.0
  0
LINE
  5
22F
330
1F
100
AcDbEntity
  8
化粧台
  6
CONTINUOUS
 62
     6
100
AcDbLine
 10
508.5000000000508
 20
1135.438791602025
 30
0.0
 11
508.5000000000508
 21
1055.000000000018
 31
0.0
  0
LINE
  5
230
330
1F
100
AcDbEntity
  8
化粧台
  6
EXLTYPE3
 62
     6
100
AcDbLine
 10
666.5000000000509
 20
1007.999999999997
 30
0.0
 11
741.5000000000509
 21
1007.999999999997
 31
0.0
  0
LINE
  5
231
330
1F
100
AcDbEntity
  8
化粧台
  6
CONTINUOUS
 62
     6
100
AcDbLine
 10
693.5000000000509
 20
1053.000000000018
 30
0.0
 11
693.5000000000509
 21
1045.000000000018
 31
0.0
  0
LINE
  5
232
330
1F
100
AcDbEntity
  8
化粧台
  6
CONTINUOUS
 62
     6
100
AcDbLine
 10
714.5000000000491
 20
1053.000000000018
 30
0.0
 11
714.5000000000491
 21
1045.000000000018
 31
0.0
  0
LINE
  5
233
330
1F
100
AcDbEntity
  8
化粧台
  6
CONTINUOUS
 62
     6
100
AcDbLine
 10
695.5000000000509
 20
1055.000000000018
 30
0.0
 11
712.5000000000509
 21
1055.000000000018
 31
0.0
  0
ARC
  5
234
330
1F
100
AcDbEntity
  8
化粧台
  6
CONTINUOUS
 62
     6
100
AcDbCircle
 10
695.5000000000509
 20
1053.000000000018
 30
0.0
 40
2.0
100
AcDbArc
 50
90.00000000000001
 51
180.0
  0
ARC
  5
235
330
1F
100
AcDbEntity
  8
化粧台
  6
CONTINUOUS
 62
     6
100
AcDbCircle
 10
712.5000000000509
 20
1053.000000000018
 30
0.0
 40
2.0
100
AcDbArc
 50
0.0
 51
90.00000000000001
  0
ARC
  5
236
330
1F
100
AcDbEntity
  8
化粧台
  6
CONTINUOUS
 62
     6
100
AcDbCircle
 10
695.754413320803
 20
1052.398868840491
 30
0.0
 40
2.333181967126901
100
AcDbArc
 50
14.93033220238909
 51
165.0696677976166
  0
ARC
  5
237
330
1F
100
AcDbEntity
  8
化粧台
  6
CONTINUOUS
 62
     6
100
AcDbCircle
 10
704.0000000000509
 20
1048.092522712024
 30
0.0
 40
6.63952809559444
100
AcDbArc
 50
47.65739454710562
 51
132.3426054528944
  0
ARC
  5
238
330
1F
100
AcDbEntity
  8
化粧台
  6
CONTINUOUS
 62
     6
100
AcDbCircle
 10
712.245586679297
 20
1052.398868840491
 30
0.0
 40
2.333181967126901
100
AcDbArc
 50
14.9303322023837
 51
165.0696677976109
  0
LINE
  5
239
330
1F
100
AcDbEntity
  8
化粧台
  6
CONTINUOUS
 62
     6
100
AcDbLine
 10
708.4721359550531
 20
1053.000000000018
 30
0.0
 11
708.4721359550531
 21
1045.000000000018
 31
0.0
  0
LINE
  5
23A
330
1F
100
AcDbEntity
  8
化粧台
  6
CONTINUOUS
 62
     6
100
AcDbLine
 10
709.9911733585523
 20
1053.000000000018
 30
0.0
 11
709.9911733585523
 21
1045.000000000018
 31
0.0
  0
LINE
  5
23B
330
1F
100
AcDbEntity
  8
化粧台
  6
CONTINUOUS
 62
     6
100
AcDbLine
 10
698.0088266415496
 20
1053.000000000018
 30
0.0
 11
699.5278640450524
 21
1053.000000000018
 31
0.0
  0
LINE
  5
23C
330
1F
100
AcDbEntity
  8
化粧台
  6
CONTINUOUS
 62
     6
100
AcDbLine
 10
708.4721359550531
 20
1053.000000000018
 30
0.0
 11
709.9911733585523
 21
1053.000000000018
 31
0.0
  0
LINE
  5
23D
330
1F
100
AcDbEntity
  8
化粧台
  6
CONTINUOUS
 62
     6
100
AcDbLine
 10
698.0088266415496
 20
1052.720000000018
 30
0.0
 11
698.0088266415496
 21
1045.000000000018
 31
0.0
  0
LINE
  5
23E
330
1F
100
AcDbEntity
  8
化粧台
  6
CONTINUOUS
 62
     6
100
AcDbLine
 10
699.5278640450524
 20
1053.000000000018
 30
0.0
 11
699.5278640450524
 21
1045.000000000018
 31
0.0
  0
LINE
  5
23F
330
1F
100
AcDbEntity
  8
化粧台
  6
CONTINUOUS
 62
     6
100
AcDbLine
 10
693.5000000000509
 20
1045.000000000018
 30
0.0
 11
714.5000000000491
 21
1045.000000000018
 31
0.0
  0
LINE
  5
240
330
1F
100
AcDbEntity
  8
化粧台
  6
CONTINUOUS
 62
     6
100
AcDbLine
 10
690.1435935395511
 20
1042.000000000018
 30
0.0
 11
690.1435935395511
 21
1031.000000000018
 31
0.0
  0
LINE
  5
241
330
1F
100
AcDbEntity
  8
化粧台
  6
CONTINUOUS
 62
     6
100
AcDbLine
 10
697.071796769751
 20
1042.000000000018
 30
0.0
 11
697.071796769751
 21
1031.000000000018
 31
0.0
  0
LINE
  5
242
330
1F
100
AcDbEntity
  8
化粧台
  6
CONTINUOUS
 62
     6
100
AcDbLine
 10
710.9282032303508
 20
1042.000000000018
 30
0.0
 11
710.9282032303508
 21
1031.000000000018
 31
0.0
  0
LINE
  5
243
330
1F
100
AcDbEntity
  8
化粧台
  6
CONTINUOUS
 62
     6
100
AcDbLine
 10
717.8564064605507
 20
1042.000000000018
 30
0.0
 11
717.8564064605507
 21
1031.000000000018
 31
0.0
  0
LINE
  5
244
330
1F
100
AcDbEntity
  8
化粧台
  6
CONTINUOUS
 62
     6
100
AcDbLine
 10
690.1435935395511
 20
1042.000000000018
 30
0.0
 11
717.8564064605507
 21
1042.000000000018
 31
0.0
  0
LINE
  5
245
330
1F
100
AcDbEntity
  8
化粧台
  6
CONTINUOUS
 62
     6
100
AcDbLine
 10
690.1435935395511
 20
1031.000000000018
 30
0.0
 11
717.8564064605507
 21
1031.000000000018
 31
0.0
  0
LINE
  5
246
330
1F
100
AcDbEntity
  8
化粧台
  6
CONTINUOUS
 62
     6
100
AcDbLine
 10
712.0000000000491
 20
1045.000000000018
 30
0.0
 11
712.0000000000491
 21
1042.000000000018
 31
0.0
  0
LINE
  5
247
330
1F
100
AcDbEntity
  8
化粧台
  6
CONTINUOUS
 62
     6
100
AcDbLine
 10
696.0000000000509
 20
1045.000000000018
 30
0.0
 11
696.0000000000509
 21
1042.000000000018
 31
0.0
  0
ARC
  5
248
330
1F
100
AcDbEntity
  8
化粧台
  6
CONTINUOUS
 62
     6
100
AcDbCircle
 10
704.0000000000509
 20
1007.999999999997
 30
0.0
 40
27.50000000000002
100
AcDbArc
 50
120.2563244206968
 51
59.74367557929779
  0
LINE
  5
249
330
1F
100
AcDbEntity
  8
化粧台
  6
CONTINUOUS
 62
     6
100
AcDbLine
 10
699.5000000000491
 20
1135.438791602024
 30
0.0
 11
699.5000000000473
 21
1055.000000000018
 31
0.0
  0
LINE
  5
24A
330
1F
100
AcDbEntity
  8
化粧台
  6
CONTINUOUS
 62
     6
100
AcDbLine
 10
708.5000000000491
 20
1135.438791602024
 30
0.0
 11
708.5000000000455
 21
1055.000000000018
 31
0.0
  0
LINE
  5
24B
330
1F
100
AcDbEntity
  8
化粧台
  6
CONTINUOUS
 62
     2
100
AcDbLine
 10
1422.323408429482
 20
1243.353911512218
 30
0.0
 11
1437.139882882717
 21
1245.966455717299
 31
0.0
  0
ARC
  5
24C
330
1F
100
AcDbEntity
  8
化粧台
  6
CONTINUOUS
 62
     2
100
AcDbCircle
 10
1422.844352962482
 20
1240.399488253181
 30
0.0
 40
3.000000000000001
100
AcDbArc
 50
99.99999999999855
 51
161.0305790059282
  0
LINE
  5
24D
330
1F
100
AcDbEntity
  8
化粧台
  6
CONTINUOUS
 62
     2
100
AcDbLine
 10
1614.000000000051
 20
1412.999999999997
 30
0.0
 11
1614.000000000051
 21
1272.999999999997
 31
0.0
  0
LINE
  5
24E
330
1F
100
AcDbEntity
  8
化粧台
  6
CONTINUOUS
 62
     2
100
AcDbLine
 10
1154.2081141858
 20
1406.572474048155
 30
0.0
 11
1193.148594167156
 21
1275.857979238524
 31
0.0
  0
ARC
  5
24F
330
1F
100
AcDbEntity
  8
化粧台
  6
CONTINUOUS
 62
     2
100
AcDbCircle
 10
1342.721195970651
 20
1242.999999999947
 30
0.0
 40
5.000012000000004
100
AcDbArc
 50
186.6571738943414
 51
269.9999089999957
  0
ARC
  5
250
330
1F
100
AcDbEntity
  8
化粧台
  6
CONTINUOUS
 62
     2
100
AcDbCircle
 10
1415.278804029651
 20
1242.999999999947
 30
0.0
 40
5.000012000000004
100
AcDbArc
 50
270.0000910000044
 51
341.0305790059268
  0
LINE
  5
251
330
1F
100
AcDbEntity
  8
化粧台
  6
CONTINUOUS
 62
     2
100
AcDbLine
 10
1334.529110101474
 20
1268.691747484482
 30
0.0
 11
1337.762191228017
 21
1242.360944476003
 31
0.0
  0
ELLIPSE
  5
252
330
1F
100
AcDbEntity
  8
化粧台
  6
CONTINUOUS
 62
     6
100
AcDbEllipse
 10
1436.356568035328
 20
967.9999999999775
 30
0.0
 11
3.673969509765480E-16
 21
6.00004754403219
 31
0.0
210
0.0
220
0.0
230
1.0
 40
0.8927542650237515
 41
0.0
 42
6.283185307179586
  0
ELLIPSE
  5
253
330
1F
100
AcDbEntity
  8
化粧台
  6
CONTINUOUS
 62
     6
100
AcDbEllipse
 10
1455.000000000047
 20
967.9999999999775
 30
0.0
 11
10.66536450385002
 21
0.0
 31
0.0
210
0.0
220
0.0
230
1.0
 40
0.5625686771262348
 41
0.0
 42
6.283185307179586
  0
ELLIPSE
  5
254
330
1F
100
AcDbEntity
  8
化粧台
  6
CONTINUOUS
 62
     6
100
AcDbEllipse
 10
1473.643431964767
 20
967.9999999999775
 30
0.0
 11
3.673969509765456E-16
 21
6.000047544032152
 31
0.0
210
0.0
220
0.0
230
1.0
 40
0.8927542650237572
 41
0.0
 42
6.283185307179586
  0
LINE
  5
255
330
1F
100
AcDbEntity
  8
化粧台
  6
CONTINUOUS
 62
     6
100
AcDbLine
 10
1433.000000000047
 20
973.9999999999776
 30
0.0
 11
1477.000000000047
 21
973.9999999999776
 31
0.0
  0
LINE
  5
256
330
1F
100
AcDbEntity
  8
化粧台
  6
CONTINUOUS
 62
     6
100
AcDbLine
 10
1433.000000000047
 20
961.9999999999775
 30
0.0
 11
1477.000000000047
 21
961.9999999999775
 31
0.0
  0
ARC
  5
257
330
1F
100
AcDbEntity
  8
化粧台
  6
CONTINUOUS
 62
     6
100
AcDbCircle
 10
1469.000000000047
 20
967.9999999999775
 30
0.0
 40
10.0
100
AcDbArc
 50
323.1301023541562
 51
36.869897645844
  0
ARC
  5
258
330
1F
100
AcDbEntity
  8
化粧台
  6
CONTINUOUS
 62
     6
100
AcDbCircle
 10
1441.000000000048
 20
967.9999999999775
 30
0.0
 40
10.0
100
AcDbArc
 50
143.1301023541561
 51
216.8698976458443
  0
LINE
  5
259
330
1F
100
AcDbEntity
  8
化粧台
  6
EXLTYPE4
 62
     6
100
AcDbLine
 10
1503.200000000048
 20
1066.999999999998
 30
0.0
 11
1620.400000000049
 21
1066.999999999998
 31
0.0
  0
LINE
  5
25A
330
1F
100
AcDbEntity
  8
化粧台
  6
CONTINUOUS
 62
     6
100
AcDbLine
 10
1620.400000000049
 20
1066.999999999997
 30
0.0
 11
1620.400000000049
 21
1098.999999999997
 31
0.0
  0
LINE
  5
25B
330
1F
100
AcDbEntity
  8
化粧台
  6
EXLTYPE4
 62
     6
100
AcDbLine
 10
1503.200000000048
 20
1098.999999999999
 30
0.0
 11
1620.400000000049
 21
1098.999999999999
 31
0.0
  0
LINE
  5
25C
330
1F
100
AcDbEntity
  8
化粧台
  6
EXLTYPE3
 62
     6
100
AcDbLine
 10
1630.400000000049
 20
1082.999999999999
 30
0.0
 11
1503.200000000048
 21
1082.999999999999
 31
0.0
  0
LINE
  5
25D
330
1F
100
AcDbEntity
  8
化粧台
  6
CONTINUOUS
 62
     2
100
AcDbLine
 10
1342.710241512925
 20
1237.999999999947
 30
0.0
 11
1415.278811970651
 21
1237.999999999947
 31
0.0
  0
LINE
  5
25E
330
1F
100
AcDbEntity
  8
化粧台
  6
CONTINUOUS
 62
     2
100
AcDbLine
 10
1196.982102818555
 20
1272.999999999997
 30
0.0
 11
1614.000000000051
 21
1272.999999999997
 31
0.0
  0
ARC
  5
25F
330
1F
100
AcDbEntity
  8
化粧台
  6
CONTINUOUS
 62
     2
100
AcDbCircle
 10
1428.457473999373
 20
1295.206843367911
 30
0.0
 40
50.0
100
AcDbArc
 50
279.9999999999967
 51
333.6318709946235
  0
ARC
  5
260
330
1F
100
AcDbEntity
  8
化粧台
  6
CONTINUOUS
 62
     2
100
AcDbCircle
 10
1159.000000000051
 20
1407.999999999997
 30
0.0
 40
5.0
100
AcDbArc
 50
90.00000000000001
 51
196.5890486017633
  0
ARC
  5
261
330
1F
100
AcDbEntity
  8
化粧台
  6
CONTINUOUS
 62
     2
100
AcDbCircle
 10
1196.982102818555
 20
1276.999999999997
 30
0.0
 40
4.0
100
AcDbArc
 50
196.589048601769
 51
270.0
  0
ARC
  5
262
330
1F
100
AcDbEntity
  8
化粧台
  6
CONTINUOUS
 62
     2
100
AcDbCircle
 10
1325.596197405805
 20
1267.594901655964
 30
0.0
 40
9.0
100
AcDbArc
 50
7.00013942688803
 51
36.91047976094994
  0
LINE
  5
263
330
1F
100
AcDbEntity
  8
化粧台
  6
CONTINUOUS
 62
     2
100
AcDbLine
 10
1159.000000000051
 20
1412.999999999997
 30
0.0
 11
1614.000000000051
 21
1412.999999999997
 31
0.0
  0
LINE
  5
264
330
1F
100
AcDbEntity
  8
化粧台
  6
CONTINUOUS
 62
     6
100
AcDbLine
 10
1614.000000000053
 20
1038.499999999997
 30
0.0
 11
1639.00000000005
 21
1038.499999999997
 31
0.0
  0
LINE
  5
265
330
1F
100
AcDbEntity
  8
化粧台
  6
CONTINUOUS
 62
     6
100
AcDbLine
 10
1614.000000000053
 20
987.4999999999975
 30
0.0
 11
1639.00000000005
 21
987.4999999999975
 31
0.0
  0
LINE
  5
266
330
1F
100
AcDbEntity
  8
化粧台
  6
CONTINUOUS
 62
     6
100
AcDbLine
 10
1639.00000000005
 20
987.4999999999975
 30
0.0
 11
1639.00000000005
 21
1038.499999999997
 31
0.0
  0
LINE
  5
267
330
1F
100
AcDbEntity
  8
化粧台
  6
EXLTYPE3
 62
     6
100
AcDbLine
 10
1669.000000000051
 20
1013.000000000029
 30
0.0
 11
1493.000000000051
 21
1013.000000000029
 31
0.0
  0
LINE
  5
268
330
1F
100
AcDbEntity
  8
化粧台
  6
CONTINUOUS
 62
     6
100
AcDbLine
 10
1428.532416610862
 20
1473.370128896218
 30
0.0
 11
1413.546087868028
 21
1453.359882750511
 31
0.0
  0
LINE
  5
269
330
1F
100
AcDbEntity
  8
化粧台
  6
CONTINUOUS
 62
     6
100
AcDbLine
 10
1430.044717239682
 20
1455.371158181005
 30
0.0
 11
1433.341709563097
 21
1459.773412333051
 31
0.0
  0
LINE
  5
26A
330
1F
100
AcDbEntity
  8
化粧台
  6
CONTINUOUS
 62
     6
100
AcDbLine
 10
1427.144512900562
 20
1455.669176286511
 30
0.0
 11
1411.936725829808
 21
1467.058786131076
 31
0.0
  0
LINE
  5
26B
330
1F
100
AcDbEntity
  8
化粧台
  6
CONTINUOUS
 62
     6
100
AcDbLine
 10
1410.834880939805
 20
1469.758033774105
 30
0.0
 11
1414.13187326323
 21
1474.160287926162
 31
0.0
  0
LINE
  5
26C
330
1F
100
AcDbEntity
  8
化粧台
  6
CONTINUOUS
 62
     6
100
AcDbLine
 10
1411.936725829801
 20
1467.058786131084
 30
0.0
 11
1412.83590555437
 21
1468.259400899827
 31
0.0
  0
LINE
  5
26D
330
1F
100
AcDbEntity
  8
化粧台
  6
CONTINUOUS
 62
     6
100
AcDbLine
 10
1427.144512900541
 20
1455.669176286529
 30
0.0
 11
1428.043692625113
 21
1456.86979105527
 31
0.0
  0
LINE
  5
26E
330
1F
100
AcDbEntity
  8
化粧台
  6
CONTINUOUS
 62
     6
100
AcDbLine
 10
1430.044717239674
 20
1455.371158180993
 30
0.0
 11
1410.834880939805
 21
1469.758033774105
 31
0.0
  0
LINE
  5
26F
330
1F
100
AcDbEntity
  8
化粧台
  6
CONTINUOUS
 62
     6
100
AcDbLine
 10
1439.245350927311
 20
1533.23155107469
 30
0.0
 11
1525.764355264142
 21
1526.677917319032
 31
0.0
  0
LINE
  5
270
330
1F
100
AcDbEntity
  8
化粧台
  6
CONTINUOUS
 62
     6
100
AcDbLine
 10
1531.322255722727
 20
1511.672858247433
 30
0.0
 11
1528.676955188203
 21
1525.714006955225
 31
0.0
  0
LINE
  5
271
330
1F
100
AcDbEntity
  8
化粧台
  6
CONTINUOUS
 62
     6
100
AcDbLine
 10
1488.585070576226
 20
1496.948567675471
 30
0.0
 11
1513.445942124952
 21
1500.428933608636
 31
0.0
  0
ARC
  5
272
330
1F
100
AcDbEntity
  8
化粧台
  6
CONTINUOUS
 62
     6
100
AcDbCircle
 10
1436.650365930145
 20
1532.425250995278
 30
0.0
 40
1.0
100
AcDbArc
 50
92.23823130852655
 51
235.4363854130182
  0
LINE
  5
273
330
1F
100
AcDbEntity
  8
化粧台
  6
CONTINUOUS
 62
     6
100
AcDbLine
 10
1490.998357214632
 20
1494.25715793016
 30
0.0
 11
1490.884217974243
 21
1497.270433876489
 31
0.0
  0
ARC
  5
274
330
1F
100
AcDbEntity
  8
化粧台
  6
CONTINUOUS
 62
     6
100
AcDbCircle
 10
1511.991626279949
 20
1495.593967408
 30
0.0
 40
20.0
100
AcDbArc
 50
12.67091866008452
 51
41.71990363505572
  0
ARC
  5
275
330
1F
100
AcDbEntity
  8
化粧台
  6
CONTINUOUS
 62
     6
100
AcDbCircle
 10
1527.694242912519
 20
1525.528867593607
 30
0.0
 40
1.0
100
AcDbArc
 50
10.66925758971626
 51
79.0982420170791
  0
ARC
  5
276
330
1F
100
AcDbEntity
  8
化粧台
  6
CONTINUOUS
 62
     6
100
AcDbCircle
 10
1532.27366440876
 20
1498.52081443748
 30
0.0
 40
1.5
100
AcDbArc
 50
10.66925758971145
 51
97.96925758969232
  0
ARC
  5
277
330
1F
100
AcDbEntity
  8
化粧台
  6
CONTINUOUS
 62
     6
100
AcDbCircle
 10
1474.021851265785
 20
1510.977644299805
 30
0.0
 40
12.0
100
AcDbArc
 50
9.669257589685909
 51
81.02313756077007
  0
LINE
  5
278
330
1F
100
AcDbEntity
  8
化粧台
  6
CONTINUOUS
 62
     6
100
AcDbLine
 10
1488.585070576248
 20
1496.948567675475
 30
0.0
 11
1485.851376040557
 21
1512.993169939209
 31
0.0
  0
LINE
  5
279
330
1F
100
AcDbEntity
  8
化粧台
  6
CONTINUOUS
 62
     6
100
AcDbLine
 10
1446.365177635551
 20
1527.49538859999
 30
0.0
 11
1475.894278435248
 21
1522.830661489325
 31
0.0
  0
ARC
  5
27A
330
1F
100
AcDbEntity
  8
化粧台
  6
CONTINUOUS
 62
     6
100
AcDbCircle
 10
1452.233139709537
 20
1133.72965638538
 30
0.0
 40
400.0
100
AcDbArc
 50
79.09824201709789
 51
92.23823130854925
  0
ARC
  5
27B
330
1F
100
AcDbEntity
  8
化粧台
  6
CONTINUOUS
 62
     6
100
AcDbCircle
 10
1450.266067571929
 20
1552.18917441149
 30
0.0
 40
25.0
100
AcDbArc
 50
235.4363854130101
 51
261.0231375607711
  0
LINE
  5
27C
330
1F
100
AcDbEntity
  8
化粧台
  6
CONTINUOUS
 62
     6
100
AcDbLine
 10
1532.065701789157
 20
1500.006328338071
 30
0.0
 11
1426.87613665229
 21
1485.280449629067
 31
0.0
  0
ARC
  5
27D
330
1F
100
AcDbEntity
  8
化粧台
  6
CONTINUOUS
 62
     6
100
AcDbCircle
 10
1480.337828158757
 20
1444.138998093327
 30
0.0
 40
17.0
100
AcDbArc
 50
9.669257589686882
 51
94.11470144397617
  0
LINE
  5
27E
330
1F
100
AcDbEntity
  8
化粧台
  6
CONTINUOUS
 62
     6
100
AcDbLine
 10
1437.605112681207
 20
1458.108790051921
 30
0.0
 11
1479.118020802245
 21
1461.09517897267
 31
0.0
  0
ARC
  5
27F
330
1F
100
AcDbEntity
  8
化粧台
  6
CONTINUOUS
 62
     6
100
AcDbCircle
 10
1410.034177909183
 20
1479.103226106108
 30
0.0
 40
1.5
100
AcDbArc
 50
112.801872125738
 51
233.1692575896903
  0
ARC
  5
280
330
1F
100
AcDbEntity
  8
化粧台
  6
CONTINUOUS
 62
     6
100
AcDbCircle
 10
1436.581058900374
 20
1415.956467601498
 30
0.0
 40
70.0
100
AcDbArc
 50
97.9692575897011
 51
112.8018721257299
  0
LINE
  5
281
330
1F
100
AcDbEntity
  8
化粧台
  6
CONTINUOUS
 62
     6
100
AcDbLine
 10
1434.249080063077
 20
1459.093852846115
 30
0.0
 11
1409.134998184614
 21
1477.902611337365
 31
0.0
  0
ARC
  5
282
330
1F
100
AcDbEntity
  8
化粧台
  6
CONTINUOUS
 62
     6
100
AcDbCircle
 10
1437.246345811644
 20
1463.095902075257
 30
0.0
 40
5.0
100
AcDbArc
 50
233.1692575896917
 51
274.1147014439817
  0
LINE
  5
283
330
1F
100
AcDbEntity
  8
化粧台
  6
CONTINUOUS
 62
     6
100
AcDbLine
 10
1513.445942125403
 20
1500.428933608918
 30
0.0
 11
1531.322255722727
 21
1511.672858247434
 31
0.0
  0
LINE
  5
284
330
1F
100
AcDbEntity
  8
化粧台
  6
CONTINUOUS
 62
     6
100
AcDbLine
 10
1502.888307076679
 20
1412.999999999997
 30
0.0
 11
1497.096321589681
 21
1446.994326082484
 31
0.0
  0
LINE
  5
285
330
1F
100
AcDbEntity
  8
化粧台
  6
CONTINUOUS
 62
     6
100
AcDbLine
 10
1549.911857620495
 20
1412.999999999997
 30
0.0
 11
1533.747732822285
 21
1498.798523479908
 31
0.0
  0
LINE
  5
286
330
1F
100
AcDbEntity
  8
化粧台
  6
EXLTYPE3
 62
     6
100
AcDbLine
 10
1529.000000000065
 20
1368.462121211998
 30
0.0
 11
1528.999999999978
 21
1546.825123442171
 31
0.0
  0
LINE
  5
287
330
1F
100
AcDbEntity
  8
化粧台
  6
CONTINUOUS
 62
     6
100
AcDbLine
 10
1614.000000000051
 20
1044.999999999999
 30
0.0
 11
1614.000000000051
 21
980.9999999999975
 31
0.0
  0
ARC
  5
288
330
1F
100
AcDbEntity
  8
化粧台
  6
EXLTYPE3
 62
     6
100
AcDbCircle
 10
1399.000000000065
 20
1291.499999999683
 30
0.0
 40
130.0
100
AcDbArc
 50
269.9449078958627
 51
344.880653835447
  0
LINE
  5
289
330
1F
100
AcDbEntity
  8
化粧台
  6
EXLTYPE3
 62
     6
100
AcDbLine
 10
1379.000000000147
 20
958.9999999999776
 30
0.0
 11
1379.000000000147
 21
1247.999999999997
 31
0.0
  0
LINE
  5
28A
330
1F
100
AcDbEntity
  8
化粧台
  6
CONTINUOUS
 62
     6
100
AcDbLine
 10
1351.500000000151
 20
1232.333333333028
 30
0.0
 11
1406.500000000151
 21
1232.333333333028
 31
0.0
  0
LINE
  5
28B
330
1F
100
AcDbEntity
  8
化粧台
  6
CONTINUOUS
 62
     6
100
AcDbLine
 10
1353.000000000151
 20
1231.333333333028
 30
0.0
 11
1405.000000000151
 21
1231.333333333028
 31
0.0
  0
LINE
  5
28C
330
1F
100
AcDbEntity
  8
化粧台
  6
CONTINUOUS
 62
     6
100
AcDbLine
 10
1351.500000000153
 20
1233.833333333028
 30
0.0
 11
1351.500000000153
 21
1231.333333333028
 31
0.0
  0
LINE
  5
28D
330
1F
100
AcDbEntity
  8
化粧台
  6
CONTINUOUS
 62
     6
100
AcDbLine
 10
1406.500000000153
 20
1233.833333333028
 30
0.0
 11
1406.500000000153
 21
1231.333333333028
 31
0.0
  0
LINE
  5
28E
330
1F
100
AcDbEntity
  8
化粧台
  6
CONTINUOUS
 62
     6
100
AcDbLine
 10
1405.000000000151
 20
1229.833333333028
 30
0.0
 11
1405.000000000151
 21
1231.333333333028
 31
0.0
  0
LINE
  5
28F
330
1F
100
AcDbEntity
  8
化粧台
  6
CONTINUOUS
 62
     6
100
AcDbLine
 10
1353.000000000151
 20
1229.833333333028
 30
0.0
 11
1353.000000000151
 21
1231.333333333028
 31
0.0
  0
LINE
  5
290
330
1F
100
AcDbEntity
  8
化粧台
  6
CONTINUOUS
 62
     6
100
AcDbLine
 10
1353.000000000151
 20
1229.833333333028
 30
0.0
 11
1405.000000000151
 21
1229.833333333028
 31
0.0
  0
LINE
  5
291
330
1F
100
AcDbEntity
  8
化粧台
  6
CONTINUOUS
 62
     6
100
AcDbLine
 10
1358.032256000151
 20
1222.833333333028
 30
0.0
 11
1358.032256000151
 21
1229.833333333028
 31
0.0
  0
LINE
  5
292
330
1F
100
AcDbEntity
  8
化粧台
  6
CONTINUOUS
 62
     6
100
AcDbLine
 10
1399.967736000152
 20
1222.833333333028
 30
0.0
 11
1399.967736000152
 21
1229.833333333028
 31
0.0
  0
LINE
  5
293
330
1F
100
AcDbEntity
  8
化粧台
  6
CONTINUOUS
 62
     6
100
AcDbLine
 10
1358.032256000151
 20
1222.833333333028
 30
0.0
 11
1399.967736000152
 21
1222.833333333028
 31
0.0
  0
ARC
  5
294
330
1F
100
AcDbEntity
  8
化粧台
  6
CONTINUOUS
 62
     6
100
AcDbCircle
 10
1365.000000000149
 20
1210.499999999677
 30
0.0
 40
10.0
100
AcDbArc
 50
143.1301023541561
 51
216.8698976458443
  0
ARC
  5
295
330
1F
100
AcDbEntity
  8
化粧台
  6
CONTINUOUS
 62
     6
100
AcDbCircle
 10
1393.000000000149
 20
1210.499999999677
 30
0.0
 40
10.0
100
AcDbArc
 50
323.1301023541562
 51
36.869897645844
  0
LINE
  5
296
330
1F
100
AcDbEntity
  8
化粧台
  6
CONTINUOUS
 62
     6
100
AcDbLine
 10
1357.000000000149
 20
1204.499999999676
 30
0.0
 11
1401.000000000149
 21
1204.499999999676
 31
0.0
  0
LINE
  5
297
330
1F
100
AcDbEntity
  8
化粧台
  6
CONTINUOUS
 62
     6
100
AcDbLine
 10
1357.000000000149
 20
1216.499999999676
 30
0.0
 11
1401.000000000149
 21
1216.499999999676
 31
0.0
  0
LINE
  5
298
330
1F
100
AcDbEntity
  8
化粧台
  6
CONTINUOUS
 62
     6
100
AcDbLine
 10
1360.000000000149
 20
1222.833333333028
 30
0.0
 11
1360.000000000149
 21
1216.499999999676
 31
0.0
  0
LINE
  5
299
330
1F
100
AcDbEntity
  8
化粧台
  6
CONTINUOUS
 62
     6
100
AcDbLine
 10
1398.000000000149
 20
1222.833333333028
 30
0.0
 11
1398.000000000149
 21
1216.499999999676
 31
0.0
  0
LINE
  5
29A
330
1F
100
AcDbEntity
  8
化粧台
  6
CONTINUOUS
 62
     6
100
AcDbLine
 10
1398.875000000153
 20
1167.999999999686
 30
0.0
 11
1398.875000000153
 21
1154.999999999697
 31
0.0
  0
LINE
  5
29B
330
1F
100
AcDbEntity
  8
化粧台
  6
CONTINUOUS
 62
     6
100
AcDbLine
 10
1394.875000000151
 20
1154.99999999968
 30
0.0
 11
1398.875000000149
 21
1154.99999999968
 31
0.0
  0
LINE
  5
29C
330
1F
100
AcDbEntity
  8
化粧台
  6
CONTINUOUS
 62
     6
100
AcDbLine
 10
1394.875000000151
 20
1167.999999999686
 30
0.0
 11
1398.875000000149
 21
1167.999999999686
 31
0.0
  0
ELLIPSE
  5
29D
330
1F
100
AcDbEntity
  8
化粧台
  6
CONTINUOUS
 62
     6
100
AcDbEllipse
 10
1360.35656803543
 20
1210.499999999677
 30
0.0
 11
3.673969509765480E-16
 21
6.00004754403219
 31
0.0
210
0.0
220
0.0
230
1.0
 40
0.8927542650237515
 41
0.0
 42
6.283185307179586
  0
ELLIPSE
  5
29E
330
1F
100
AcDbEntity
  8
化粧台
  6
CONTINUOUS
 62
     6
100
AcDbEllipse
 10
1379.000000000149
 20
1210.499999999677
 30
0.0
 11
10.66536450385002
 21
0.0
 31
0.0
210
0.0
220
0.0
230
1.0
 40
0.5625686771262348
 41
0.0
 42
6.283185307179586
  0
ELLIPSE
  5
29F
330
1F
100
AcDbEntity
  8
化粧台
  6
CONTINUOUS
 62
     6
100
AcDbEllipse
 10
1397.643431964869
 20
1210.499999999677
 30
0.0
 11
3.673969509765456E-16
 21
6.000047544032152
 31
0.0
210
0.0
220
0.0
230
1.0
 40
0.8927542650237572
 41
0.0
 42
6.283185307179586
  0
LINE
  5
2A0
330
1F
100
AcDbEntity
  8
化粧台
  6
CONTINUOUS
 62
     6
100
AcDbLine
 10
1389.064512000152
 20
1222.833333333028
 30
0.0
 11
1389.064512000152
 21
1229.833333333028
 31
0.0
  0
LINE
  5
2A1
330
1F
100
AcDbEntity
  8
化粧台
  6
CONTINUOUS
 62
     6
100
AcDbLine
 10
1390.322576000152
 20
1222.833333333028
 30
0.0
 11
1390.322576000152
 21
1229.833333333028
 31
0.0
  0
LINE
  5
2A2
330
1F
100
AcDbEntity
  8
化粧台
  6
CONTINUOUS
 62
     6
100
AcDbLine
 10
1368.935480000151
 20
1222.833333333028
 30
0.0
 11
1368.935480000151
 21
1229.833333333028
 31
0.0
  0
LINE
  5
2A3
330
1F
100
AcDbEntity
  8
化粧台
  6
CONTINUOUS
 62
     6
100
AcDbLine
 10
1351.500000000151
 20
1231.333333333028
 30
0.0
 11
1406.500000000151
 21
1231.333333333028
 31
0.0
  0
LINE
  5
2A4
330
1F
100
AcDbEntity
  8
化粧台
  6
CONTINUOUS
 62
     6
100
AcDbLine
 10
1351.500000000151
 20
1232.333333333028
 30
0.0
 11
1406.500000000151
 21
1232.333333333028
 31
0.0
  0
LINE
  5
2A5
330
1F
100
AcDbEntity
  8
化粧台
  6
CONTINUOUS
 62
     6
100
AcDbLine
 10
1351.500000000151
 20
1233.833333333028
 30
0.0
 11
1406.500000000151
 21
1233.833333333028
 31
0.0
  0
LINE
  5
2A6
330
1F
100
AcDbEntity
  8
化粧台
  6
CONTINUOUS
 62
     6
100
AcDbLine
 10
1402.088235294003
 20
1237.999999999947
 30
0.0
 11
1406.500000000153
 21
1233.833333333028
 31
0.0
  0
LINE
  5
2A7
330
1F
100
AcDbEntity
  8
化粧台
  6
CONTINUOUS
 62
     6
100
AcDbLine
 10
1355.911764706303
 20
1237.999999999947
 30
0.0
 11
1351.500000000153
 21
1233.833333333028
 31
0.0
  0
LINE
  5
2A8
330
1F
100
AcDbEntity
  8
化粧台
  6
CONTINUOUS
 62
     6
100
AcDbLine
 10
1367.677416000151
 20
1222.833333333028
 30
0.0
 11
1367.677416000151
 21
1229.833333333028
 31
0.0
  0
LINE
  5
2A9
330
1F
100
AcDbEntity
  8
化粧台
  6
CONTINUOUS
 62
     6
100
AcDbLine
 10
1357.000000000047
 20
1056.999999999977
 30
0.0
 11
1401.000000000048
 21
1056.999999999977
 31
0.0
  0
ELLIPSE
  5
2AA
330
1F
100
AcDbEntity
  8
化粧台
  6
CONTINUOUS
 62
     6
100
AcDbEllipse
 10
1360.356568035327
 20
1050.999999999977
 30
0.0
 11
3.673969509765480E-16
 21
6.00004754403219
 31
0.0
210
0.0
220
0.0
230
1.0
 40
0.8927542650237515
 41
0.0
 42
6.283185307179586
  0
ELLIPSE
  5
2AB
330
1F
100
AcDbEntity
  8
化粧台
  6
CONTINUOUS
 62
     6
100
AcDbEllipse
 10
1379.000000000047
 20
1050.999999999977
 30
0.0
 11
10.66536450385002
 21
0.0
 31
0.0
210
0.0
220
0.0
230
1.0
 40
0.5625686771262348
 41
0.0
 42
6.283185307179586
  0
ELLIPSE
  5
2AC
330
1F
100
AcDbEntity
  8
化粧台
  6
CONTINUOUS
 62
     6
100
AcDbEllipse
 10
1397.643431964767
 20
1050.999999999977
 30
0.0
 11
3.673969509765456E-16
 21
6.000047544032152
 31
0.0
210
0.0
220
0.0
230
1.0
 40
0.8927542650237572
 41
0.0
 42
6.283185307179586
  0
LINE
  5
2AD
330
1F
100
AcDbEntity
  8
化粧台
  6
CONTINUOUS
 62
     6
100
AcDbLine
 10
1357.000000000047
 20
1044.999999999977
 30
0.0
 11
1401.000000000048
 21
1044.999999999977
 31
0.0
  0
ARC
  5
2AE
330
1F
100
AcDbEntity
  8
化粧台
  6
CONTINUOUS
 62
     6
100
AcDbCircle
 10
1393.000000000047
 20
1050.999999999977
 30
0.0
 40
10.0
100
AcDbArc
 50
323.1301023541562
 51
36.869897645844
  0
ARC
  5
2AF
330
1F
100
AcDbEntity
  8
化粧台
  6
CONTINUOUS
 62
     6
100
AcDbCircle
 10
1365.000000000047
 20
1050.999999999977
 30
0.0
 40
10.0
100
AcDbArc
 50
143.1301023541561
 51
216.8698976458443
  0
LINE
  5
2B0
330
1F
100
AcDbEntity
  8
化粧台
  6
CONTINUOUS
 62
     6
100
AcDbLine
 10
1520.500000000055
 20
1055.000000000018
 30
0.0
 11
1537.500000000055
 21
1055.000000000018
 31
0.0
  0
LINE
  5
2B1
330
1F
100
AcDbEntity
  8
化粧台
  6
CONTINUOUS
 62
     6
100
AcDbLine
 10
1538.500000000055
 20
1054.732050807587
 30
0.0
 11
1538.500000000055
 21
1045.000000000018
 31
0.0
  0
LINE
  5
2B2
330
1F
100
AcDbEntity
  8
化粧台
  6
CONTINUOUS
 62
     6
100
AcDbLine
 10
1519.500000000055
 20
1054.732050807587
 30
0.0
 11
1519.500000000055
 21
1045.000000000018
 31
0.0
  0
ARC
  5
2B3
330
1F
100
AcDbEntity
  8
化粧台
  6
CONTINUOUS
 62
     6
100
AcDbCircle
 10
1520.500000000055
 20
1053.000000000018
 30
0.0
 40
2.0
100
AcDbArc
 50
90.00000000000001
 51
120.0000000000273
  0
ARC
  5
2B4
330
1F
100
AcDbEntity
  8
化粧台
  6
CONTINUOUS
 62
     6
100
AcDbCircle
 10
1537.500000000055
 20
1053.000000000018
 30
0.0
 40
2.0
100
AcDbArc
 50
60.00000000002529
 51
90.00000000000001
  0
ARC
  5
2B5
330
1F
100
AcDbEntity
  8
化粧台
  6
CONTINUOUS
 62
     6
100
AcDbCircle
 10
1524.250000000055
 20
1049.535898384989
 30
0.0
 40
5.196152422628024
100
AcDbArc
 50
41.81031489493152
 51
138.1896851050686
  0
ARC
  5
2B6
330
1F
100
AcDbEntity
  8
化粧台
  6
CONTINUOUS
 62
     6
100
AcDbCircle
 10
1533.750000000055
 20
1049.535898384989
 30
0.0
 40
5.196152422628024
100
AcDbArc
 50
41.81031489493152
 51
138.1896851050686
  0
LINE
  5
2B7
330
1F
100
AcDbEntity
  8
化粧台
  6
CONTINUOUS
 62
     6
100
AcDbLine
 10
1537.622983346254
 20
1053.000000000018
 30
0.0
 11
1537.622983346254
 21
1045.000000000018
 31
0.0
  0
LINE
  5
2B8
330
1F
100
AcDbEntity
  8
化粧台
  6
CONTINUOUS
 62
     6
100
AcDbLine
 10
1529.877016653853
 20
1053.000000000018
 30
0.0
 11
1529.877016653853
 21
1045.000000000018
 31
0.0
  0
LINE
  5
2B9
330
1F
100
AcDbEntity
  8
化粧台
  6
CONTINUOUS
 62
     6
100
AcDbLine
 10
1528.122983346253
 20
1053.000000000018
 30
0.0
 11
1528.122983346253
 21
1045.000000000018
 31
0.0
  0
LINE
  5
2BA
330
1F
100
AcDbEntity
  8
化粧台
  6
CONTINUOUS
 62
     6
100
AcDbLine
 10
1520.377016653855
 20
1053.000000000018
 30
0.0
 11
1520.377016653855
 21
1045.000000000018
 31
0.0
  0
LINE
  5
2BB
330
1F
100
AcDbEntity
  8
化粧台
  6
CONTINUOUS
 62
     6
100
AcDbLine
 10
1519.500000000055
 20
1045.000000000018
 30
0.0
 11
1538.500000000055
 21
1045.000000000018
 31
0.0
  0
LINE
  5
2BC
330
1F
100
AcDbEntity
  8
化粧台
  6
CONTINUOUS
 62
     6
100
AcDbLine
 10
1541.000000000055
 20
1042.000000000018
 30
0.0
 11
1517.000000000055
 21
1042.000000000018
 31
0.0
  0
LINE
  5
2BD
330
1F
100
AcDbEntity
  8
化粧台
  6
CONTINUOUS
 62
     6
100
AcDbLine
 10
1541.000000000055
 20
1031.000000000018
 30
0.0
 11
1517.000000000055
 21
1031.000000000018
 31
0.0
  0
LINE
  5
2BE
330
1F
100
AcDbEntity
  8
化粧台
  6
CONTINUOUS
 62
     6
100
AcDbLine
 10
1517.000000000055
 20
1042.000000000018
 30
0.0
 11
1517.000000000055
 21
1031.000000000018
 31
0.0
  0
LINE
  5
2BF
330
1F
100
AcDbEntity
  8
化粧台
  6
CONTINUOUS
 62
     6
100
AcDbLine
 10
1541.000000000055
 20
1042.000000000018
 30
0.0
 11
1541.000000000055
 21
1031.000000000018
 31
0.0
  0
LINE
  5
2C0
330
1F
100
AcDbEntity
  8
化粧台
  6
CONTINUOUS
 62
     6
100
AcDbLine
 10
1537.000000000055
 20
1045.000000000018
 30
0.0
 11
1537.000000000055
 21
1042.000000000018
 31
0.0
  0
LINE
  5
2C1
330
1F
100
AcDbEntity
  8
化粧台
  6
CONTINUOUS
 62
     6
100
AcDbLine
 10
1521.000000000054
 20
1045.000000000018
 30
0.0
 11
1521.000000000054
 21
1042.000000000018
 31
0.0
  0
LINE
  5
2C2
330
1F
100
AcDbEntity
  8
化粧台
  6
EXLTYPE3
 62
     6
100
AcDbLine
 10
1486.000000000051
 20
1007.999999999997
 30
0.0
 11
1632.000000000052
 21
1007.999999999997
 31
0.0
  0
LINE
  5
2C3
330
1F
100
AcDbEntity
  8
化粧台
  6
CONTINUOUS
 62
     6
100
AcDbLine
 10
1524.500000000049
 20
1055.000000000018
 30
0.0
 11
1524.500000000049
 21
1272.999999999997
 31
0.0
  0
LINE
  5
2C4
330
1F
100
AcDbEntity
  8
化粧台
  6
CONTINUOUS
 62
     6
100
AcDbLine
 10
1533.500000000058
 20
1055.000000000018
 30
0.0
 11
1533.500000000058
 21
1272.999999999997
 31
0.0
  0
LINE
  5
2C5
330
1F
100
AcDbEntity
  8
化粧台
  6
CONTINUOUS
 62
     6
100
AcDbLine
 10
1614.00000000005
 20
1343.249999999997
 30
0.0
 11
1662.000000000049
 21
1340.999999999997
 31
0.0
  0
LINE
  5
2C6
330
1F
100
AcDbEntity
  8
化粧台
  6
CONTINUOUS
 62
     6
100
AcDbLine
 10
1614.00000000005
 20
1338.749999999997
 30
0.0
 11
1662.000000000049
 21
1340.999999999997
 31
0.0
  0
LINE
  5
2C7
330
1F
100
AcDbEntity
  8
化粧台
  6
CONTINUOUS
 62
     6
100
AcDbLine
 10
1614.00000000005
 20
1315.749999999997
 30
0.0
 11
1662.000000000049
 21
1317.999999999997
 31
0.0
  0
LINE
  5
2C8
330
1F
100
AcDbEntity
  8
化粧台
  6
CONTINUOUS
 62
     6
100
AcDbLine
 10
1614.00000000005
 20
1320.249999999997
 30
0.0
 11
1662.000000000049
 21
1317.999999999997
 31
0.0
  0
LINE
  5
2C9
330
1F
100
AcDbEntity
  8
化粧台
  6
CONTINUOUS
 62
     6
100
AcDbLine
 10
1606.100000000048
 20
1340.999999999997
 30
0.0
 11
1664.00000000005
 21
1340.999999999997
 31
0.0
  0
LINE
  5
2CA
330
1F
100
AcDbEntity
  8
化粧台
  6
CONTINUOUS
 62
     6
100
AcDbLine
 10
1606.100000000048
 20
1317.999999999997
 30
0.0
 11
1664.00000000005
 21
1317.999999999997
 31
0.0
  0
LINE
  5
2CB
330
1F
100
AcDbEntity
  8
化粧台
  6
CONTINUOUS
 62
     6
100
AcDbLine
 10
1598.60000000005
 20
1247.999999999997
 30
0.0
 11
1658.100000000049
 21
1247.999999999997
 31
0.0
  0
LINE
  5
2CC
330
1F
100
AcDbEntity
  8
化粧台
  6
CONTINUOUS
 62
     6
100
AcDbLine
 10
1607.000000000049
 20
1250.140988372091
 30
0.0
 11
1656.10000000005
 21
1247.999999999997
 31
0.0
  0
LINE
  5
2CD
330
1F
100
AcDbEntity
  8
化粧台
  6
CONTINUOUS
 62
     6
100
AcDbLine
 10
1607.000000000049
 20
1245.859011627905
 30
0.0
 11
1656.10000000005
 21
1247.999999999997
 31
0.0
  0
LINE
  5
2CE
330
1F
100
AcDbEntity
  8
化粧台
  6
EXLTYPE2
 62
     6
100
AcDbLine
 10
1612.000000000049
 20
1300.999999999997
 30
0.0
 11
1614.00000000005
 21
1300.999999999997
 31
0.0
  0
LINE
  5
2CF
330
1F
100
AcDbEntity
  8
化粧台
  6
EXLTYPE2
 62
     6
100
AcDbLine
 10
1612.928203230348
 20
1351.392304845397
 30
0.0
 11
1596.98889300115
 21
1378.999999999997
 31
0.0
  0
LINE
  5
2D0
330
1F
100
AcDbEntity
  8
化粧台
  6
EXLTYPE2
 62
     6
100
AcDbLine
 10
1596.98889300115
 20
1378.999999999997
 30
0.0
 11
1595.256842193548
 21
1377.999999999997
 31
0.0
  0
ARC
  5
2D1
330
1F
100
AcDbEntity
  8
化粧台
  6
EXLTYPE2
 62
     6
100
AcDbCircle
 10
1597.256842193548
 20
1374.535898384898
 30
0.0
 40
4.0
100
AcDbArc
 50
119.9999999999999
 51
191.9707065051
  0
ARC
  5
2D2
330
1F
100
AcDbEntity
  8
化粧台
  6
EXLTYPE2
 62
     6
100
AcDbCircle
 10
1612.000000000049
 20
1304.999999999997
 30
0.0
 40
4.0
100
AcDbArc
 50
191.9707065051
 51
270.0000000000002
  0
LINE
  5
2D3
330
1F
100
AcDbEntity
  8
化粧台
  6
EXLTYPE2
 62
     6
100
AcDbLine
 10
1593.34382710765
 20
1373.706252112197
 30
0.0
 11
1608.086984914147
 21
1304.170353727397
 31
0.0
  0
ARC
  5
2D4
330
1F
100
AcDbEntity
  8
化粧台
  6
EXLTYPE2
 62
     6
100
AcDbCircle
 10
1606.000000000049
 20
1347.392304845397
 30
0.0
 40
8.0
100
AcDbArc
 50
0.0
 51
29.99999999999995
  0
POLYLINE
  5
2D5
330
1F
100
AcDbEntity
  8
化粧台
  6
EXLTYPE2
 62
     6
100
AcDb2dPolyline
 66
     1
 10
0.0
 20
0.0
 30
0.0
 70
   128
  0
VERTEX
  5
2D6
330
2D5
100
AcDbEntity
  8
化粧台
  6
EXLTYPE2
 62
     6
100
AcDbVertex
100
AcDb2dVertex
 10
1594.50000000014
 20
1272.999999999997
 30
0.0
  0
VERTEX
  5
2D7
330
2D5
100
AcDbEntity
  8
化粧台
  6
EXLTYPE2
 62
     6
100
AcDbVertex
100
AcDb2dVertex
 10
1594.500000000029
 20
1280.999999999938
 30
0.0
  0
VERTEX
  5
2D8
330
2D5
100
AcDbEntity
  8
化粧台
  6
EXLTYPE2
 62
     6
100
AcDbVertex
100
AcDb2dVertex
 10
1600.000000000049
 20
1283.999999999997
 30
0.0
  0
VERTEX
  5
2D9
330
2D5
100
AcDbEntity
  8
化粧台
  6
EXLTYPE2
 62
     6
100
AcDbVertex
100
AcDb2dVertex
 10
1598.802869673349
 20
1286.194738932297
 30
0.0
  0
VERTEX
  5
2DA
330
2D5
100
AcDbEntity
  8
化粧台
  6
EXLTYPE2
 62
     6
100
AcDbVertex
100
AcDb2dVertex
 10
1592.000000000077
 20
1282.484082746819
 30
0.0
  0
VERTEX
  5
2DB
330
2D5
100
AcDbEntity
  8
化粧台
  6
EXLTYPE2
 62
     6
100
AcDbVertex
100
AcDb2dVertex
 10
1591.999999999984
 20
1272.999999999997
 30
0.0
  0
SEQEND
  5
2DC
330
2D5
100
AcDbEntity
  8
化粧台
  6
EXLTYPE2
 62
     6
  0
LINE
  5
2DD
330
1F
100
AcDbEntity
  8
化粧台
  6
CONTINUOUS
 62
     2
100
AcDbLine
 10
588.1250000000509
 20
1204.499999999977
 30
0.0
 11
588.1250000000491
 21
1056.999999999977
 31
0.0
  0
LINE
  5
2DE
330
1F
100
AcDbEntity
  8
化粧台
  6
CONTINUOUS
 62
     2
100
AcDbLine
 10
619.8750000000509
 20
1204.499999999977
 30
0.0
 11
619.8750000000509
 21
1056.999999999977
 31
0.0
  0
LINE
  5
2DF
330
1F
100
AcDbEntity
  8
化粧台
  6
CONTINUOUS
 62
     2
100
AcDbLine
 10
587.2500000000509
 20
1044.999999999977
 30
0.0
 11
587.2500000000509
 21
995.7748864999769
 31
0.0
  0
LINE
  5
2E0
330
1F
100
AcDbEntity
  8
化粧台
  6
CONTINUOUS
 62
     2
100
AcDbLine
 10
588.0000000000491
 20
995.3998864999969
 30
0.0
 11
620.0000000000491
 21
995.3998864999969
 31
0.0
  0
LINE
  5
2E1
330
1F
100
AcDbEntity
  8
化粧台
  6
CONTINUOUS
 62
     2
100
AcDbLine
 10
620.7500000000473
 20
1044.999999999977
 30
0.0
 11
620.7500000000473
 21
995.7748864999769
 31
0.0
  0
LINE
  5
2E2
330
1F
100
AcDbEntity
  8
化粧台
  6
CONTINUOUS
 62
     2
100
AcDbLine
 10
588.0000000000509
 20
995.3998864999969
 30
0.0
 11
588.0000000000509
 21
921.0000000000284
 31
0.0
  0
ARC
  5
2E3
330
1F
100
AcDbEntity
  8
化粧台
  6
CONTINUOUS
 62
     2
100
AcDbCircle
 10
604.0000000000509
 20
921.0000000000284
 30
0.0
 40
15.99999999999955
100
AcDbArc
 50
180.0
 51
0.0
  0
LINE
  5
2E4
330
1F
100
AcDbEntity
  8
化粧台
  6
CONTINUOUS
 62
     2
100
AcDbLine
 10
620.0000000000491
 20
995.3998864999969
 30
0.0
 11
620.0000000000491
 21
921.0000000000284
 31
0.0
  0
LINE
  5
2E5
330
1F
100
AcDbEntity
  8
化粧台
  6
CONTINUOUS
 62
     2
100
AcDbLine
 10
587.2500000000618
 20
995.7748864999878
 30
0.0
 11
588.0000000000491
 21
995.0248865000005
 31
0.0
  0
LINE
  5
2E6
330
1F
100
AcDbEntity
  8
化粧台
  6
CONTINUOUS
 62
     2
100
AcDbLine
 10
620.75000000008
 20
995.7748864999479
 30
0.0
 11
620.0000000000491
 21
995.0248864999169
 31
0.0
  0
ARC
  5
2E7
330
1F
100
AcDbEntity
  8
化粧台
  6
CONTINUOUS
 62
     2
100
AcDbCircle
 10
604.0000000000509
 20
1012.999999999997
 30
0.0
 40
32.0
100
AcDbArc
 50
299.9999999999982
 51
58.43688403840971
  0
ARC
  5
2E8
330
1F
100
AcDbEntity
  8
化粧台
  6
CONTINUOUS
 62
     2
100
AcDbCircle
 10
604.0000000000509
 20
1012.999999999997
 30
0.0
 40
32.0
100
AcDbArc
 50
121.563115961594
 51
240.0000000000017
  0
LINE
  5
2E9
330
1F
100
AcDbEntity
  8
化粧台
  6
CONTINUOUS
 62
     2
100
AcDbLine
 10
1363.125000000153
 20
1204.499999999676
 30
0.0
 11
1363.125000000153
 21
1056.999999999977
 31
0.0
  0
LINE
  5
2EA
330
1F
100
AcDbEntity
  8
化粧台
  6
CONTINUOUS
 62
     2
100
AcDbLine
 10
1394.875000000151
 20
1204.499999999676
 30
0.0
 11
1394.875000000151
 21
1056.999999999977
 31
0.0
  0
LINE
  5
2EB
330
1F
100
AcDbEntity
  8
化粧台
  6
CONTINUOUS
 62
     2
100
AcDbLine
 10
1362.250000000051
 20
1044.999999999977
 30
0.0
 11
1362.250000000051
 21
995.7748864999769
 31
0.0
  0
LINE
  5
2EC
330
1F
100
AcDbEntity
  8
化粧台
  6
CONTINUOUS
 62
     2
100
AcDbLine
 10
1363.000000000047
 20
995.3998864999969
 30
0.0
 11
1395.000000000047
 21
995.3998864999969
 31
0.0
  0
LINE
  5
2ED
330
1F
100
AcDbEntity
  8
化粧台
  6
CONTINUOUS
 62
     2
100
AcDbLine
 10
1395.750000000047
 20
1044.999999999977
 30
0.0
 11
1395.750000000047
 21
995.7748864999769
 31
0.0
  0
LINE
  5
2EE
330
1F
100
AcDbEntity
  8
化粧台
  6
CONTINUOUS
 62
     2
100
AcDbLine
 10
1362.250000000062
 20
995.7748864999878
 30
0.0
 11
1363.000000000047
 21
995.0248865000005
 31
0.0
  0
LINE
  5
2EF
330
1F
100
AcDbEntity
  8
化粧台
  6
CONTINUOUS
 62
     2
100
AcDbLine
 10
1395.75000000008
 20
995.7748864999479
 30
0.0
 11
1395.000000000047
 21
995.0248864999169
 31
0.0
  0
LINE
  5
2F0
330
1F
100
AcDbEntity
  8
化粧台
  6
CONTINUOUS
 62
     2
100
AcDbLine
 10
1395.000000000047
 20
995.0248864999169
 30
0.0
 11
1395.000000000047
 21
958.9999999999776
 31
0.0
  0
LINE
  5
2F1
330
1F
100
AcDbEntity
  8
化粧台
  6
CONTINUOUS
 62
     2
100
AcDbLine
 10
1363.000000000047
 20
995.0248864999969
 30
0.0
 11
1363.000000000047
 21
958.9999999999776
 31
0.0
  0
ARC
  5
2F2
330
1F
100
AcDbEntity
  8
化粧台
  6
CONTINUOUS
 62
     2
100
AcDbCircle
 10
1417.000000000047
 20
958.9999999999776
 30
0.0
 40
21.99999999999954
100
AcDbArc
 50
179.9999999999995
 51
0.0
  0
ARC
  5
2F3
330
1F
100
AcDbEntity
  8
化粧台
  6
CONTINUOUS
 62
     2
100
AcDbCircle
 10
1417.000000000047
 20
958.9999999999776
 30
0.0
 40
54.00000000000048
100
AcDbArc
 50
179.9999999999998
 51
0.0
  0
LINE
  5
2F4
330
1F
100
AcDbEntity
  8
化粧台
  6
CONTINUOUS
 62
     2
100
AcDbLine
 10
1439.000000000047
 20
961.9999999999775
 30
0.0
 11
1439.000000000047
 21
958.9999999999776
 31
0.0
  0
LINE
  5
2F5
330
1F
100
AcDbEntity
  8
化粧台
  6
CONTINUOUS
 62
     2
100
AcDbLine
 10
1471.000000000051
 20
961.9999999999775
 30
0.0
 11
1471.000000000051
 21
958.9999999999776
 31
0.0
  0
ARC
  5
2F6
330
1F
100
AcDbEntity
  8
化粧台
  6
CONTINUOUS
 62
     2
100
AcDbCircle
 10
1493.000000000047
 20
974.9999999999757
 30
0.0
 40
54.00000000000068
100
AcDbArc
 50
90.00000000000001
 51
181.0610936076217
  0
ARC
  5
2F7
330
1F
100
AcDbEntity
  8
化粧台
  6
CONTINUOUS
 62
     2
100
AcDbCircle
 10
1493.000000000051
 20
974.9999999999775
 30
0.0
 40
22.00000000000069
100
AcDbArc
 50
90.00000000000001
 51
182.6052512650556
  0
LINE
  5
2F8
330
1F
100
AcDbEntity
  8
化粧台
  6
CONTINUOUS
 62
     2
100
AcDbLine
 10
1585.000000000051
 20
1044.999999999999
 30
0.0
 11
1614.000000000051
 21
1044.999999999999
 31
0.0
  0
ARC
  5
2F9
330
1F
100
AcDbEntity
  8
化粧台
  6
CONTINUOUS
 62
     2
100
AcDbCircle
 10
1585.000000000051
 20
1033.999999999999
 30
0.0
 40
11.0
100
AcDbArc
 50
90.00000000000001
 51
180.0
  0
LINE
  5
2FA
330
1F
100
AcDbEntity
  8
化粧台
  6
CONTINUOUS
 62
     2
100
AcDbLine
 10
1574.000000000051
 20
1033.999999999999
 30
0.0
 11
1574.000000000051
 21
1018.499999999999
 31
0.0
  0
LINE
  5
2FB
330
1F
100
AcDbEntity
  8
化粧台
  6
CONTINUOUS
 62
     2
100
AcDbLine
 10
1574.000000000051
 20
997.4999999999966
 30
0.0
 11
1574.000000000051
 21
991.9999999999976
 31
0.0
  0
ARC
  5
2FC
330
1F
100
AcDbEntity
  8
化粧台
  6
CONTINUOUS
 62
     2
100
AcDbCircle
 10
1585.000000000051
 20
991.9999999999976
 30
0.0
 40
11.0
100
AcDbArc
 50
180.0
 51
270.0
  0
LINE
  5
2FD
330
1F
100
AcDbEntity
  8
化粧台
  6
CONTINUOUS
 62
     2
100
AcDbLine
 10
1585.000000000051
 20
980.9999999999975
 30
0.0
 11
1608.429285785978
 21
980.9999999999975
 31
0.0
  0
LINE
  5
2FE
330
1F
100
AcDbEntity
  8
化粧台
  6
CONTINUOUS
 62
     2
100
AcDbLine
 10
1639.000000000048
 20
996.9999999999976
 30
0.0
 11
1659.000000000051
 21
996.9999999999976
 31
0.0
  0
LINE
  5
2FF
330
1F
100
AcDbEntity
  8
化粧台
  6
CONTINUOUS
 62
     2
100
AcDbLine
 10
1659.000000000051
 20
1028.999999999997
 30
0.0
 11
1659.000000000051
 21
996.9999999999976
 31
0.0
  0
LINE
  5
300
330
1F
100
AcDbEntity
  8
化粧台
  6
CONTINUOUS
 62
     2
100
AcDbLine
 10
1639.000000000048
 20
1028.999999999997
 30
0.0
 11
1659.000000000051
 21
1028.999999999997
 31
0.0
  0
LINE
  5
301
330
1F
100
AcDbEntity
  8
化粧台
  6
CONTINUOUS
 62
     7
100
AcDbLine
 10
1114.000000000051
 20
612.9999999999975
 30
0.0
 11
1614.000000000051
 21
612.9999999999975
 31
0.0
  0
LINE
  5
302
330
1F
100
AcDbEntity
  8
化粧台
  6
CONTINUOUS
 62
     7
100
AcDbLine
 10
1614.000000000051
 20
1706.999999999997
 30
0.0
 11
1614.000000000051
 21
612.9999999999975
 31
0.0
  0
LINE
  5
303
330
1F
100
AcDbEntity
  8
化粧台
  6
EXLTYPE3
 62
     6
100
AcDbLine
 10
504.0000000000508
 20
1047.999999999997
 30
0.0
 11
504.0000000000508
 21
594.9999999999975
 31
0.0
  0
LINE
  5
304
330
1F
100
AcDbEntity
  8
化粧台
  6
EXLTYPE3
 62
     6
100
AcDbLine
 10
704.0000000000509
 20
1047.999999999997
 30
0.0
 11
704.0000000000509
 21
594.9999999999975
 31
0.0
  0
LINE
  5
305
330
1F
100
AcDbEntity
  8
化粧台
  6
CONTINUOUS
 62
     6
100
AcDbLine
 10
1609.500000000049
 20
1229.999999999997
 30
0.0
 11
1614.00000000005
 21
1229.999999999997
 31
0.0
  0
LINE
  5
306
330
1F
100
AcDbEntity
  8
化粧台
  6
CONTINUOUS
 62
     6
100
AcDbLine
 10
1614.00000000005
 20
1232.499999999997
 30
0.0
 11
1614.00000000005
 21
1229.999999999997
 31
0.0
  0
LINE
  5
307
330
1F
100
AcDbEntity
  8
化粧台
  6
CONTINUOUS
 62
     6
100
AcDbLine
 10
1614.00000000005
 20
1232.499999999997
 30
0.0
 11
1609.500000000049
 21
1232.499999999997
 31
0.0
  0
LINE
  5
308
330
1F
100
AcDbEntity
  8
化粧台
  6
CONTINUOUS
 62
     6
100
AcDbLine
 10
1595.65236575895
 20
1267.262485914297
 30
0.0
 11
1604.695268482148
 21
1261.475028171397
 31
0.0
  0
LINE
  5
309
330
1F
100
AcDbEntity
  8
化粧台
  6
CONTINUOUS
 62
     6
100
AcDbLine
 10
1603.347634241149
 20
1259.369349669797
 30
0.0
 11
1594.304731517949
 21
1265.156807412597
 31
0.0
  0
ARC
  5
30A
330
1F
100
AcDbEntity
  8
化粧台
  6
CONTINUOUS
 62
     6
100
AcDbCircle
 10
1609.500000000049
 20
1234.999999999997
 30
0.0
 40
5.0
100
AcDbArc
 50
180.0
 51
270.0
  0
ARC
  5
30B
330
1F
100
AcDbEntity
  8
化粧台
  6
CONTINUOUS
 62
     6
100
AcDbCircle
 10
1609.500000000049
 20
1234.999999999997
 30
0.0
 40
2.5
100
AcDbArc
 50
180.0
 51
270.0
  0
ARC
  5
30C
330
1F
100
AcDbEntity
  8
化粧台
  6
CONTINUOUS
 62
     6
100
AcDbCircle
 10
1602.000000000049
 20
1257.263671168097
 30
0.0
 40
2.5
100
AcDbArc
 50
0.0
 51
57.38075692880995
  0
ARC
  5
30D
330
1F
100
AcDbEntity
  8
化粧台
  6
CONTINUOUS
 62
     6
100
AcDbCircle
 10
1602.000000000049
 20
1257.263671168097
 30
0.0
 40
5.0
100
AcDbArc
 50
0.0
 51
57.38075692880995
  0
ARC
  5
30E
330
1F
100
AcDbEntity
  8
化粧台
  6
CONTINUOUS
 62
     6
100
AcDbCircle
 10
1597.000000000049
 20
1269.368164415897
 30
0.0
 40
2.5
100
AcDbArc
 50
180.0
 51
237.3807569288
  0
ARC
  5
30F
330
1F
100
AcDbEntity
  8
化粧台
  6
CONTINUOUS
 62
     6
100
AcDbCircle
 10
1597.000000000049
 20
1269.368164415897
 30
0.0
 40
5.0
100
AcDbArc
 50
180.0
 51
237.3807569288
  0
LINE
  5
310
330
1F
100
AcDbEntity
  8
化粧台
  6
CONTINUOUS
 62
     6
100
AcDbLine
 10
1604.500000000049
 20
1234.999999999997
 30
0.0
 11
1604.500000000049
 21
1257.263671168097
 31
0.0
  0
ARC
  5
311
330
1F
100
AcDbEntity
  8
化粧台
  6
CONTINUOUS
 62
     6
100
AcDbCircle
 10
1614.600000000048
 20
1247.999999999997
 30
0.0
 40
14.00000000000001
100
AcDbArc
 50
164.6375149632001
 51
195.3624850368001
  0
LINE
  5
312
330
1F
100
AcDbEntity
  8
化粧台
  6
CONTINUOUS
 62
     6
100
AcDbLine
 10
1604.500000000049
 20
1242.749999999997
 30
0.0
 11
1602.766748305648
 21
1242.901639874297
 31
0.0
  0
LINE
  5
313
330
1F
100
AcDbEntity
  8
化粧台
  6
CONTINUOUS
 62
     6
100
AcDbLine
 10
1604.500000000049
 20
1253.249999999997
 30
0.0
 11
1602.766748305648
 21
1253.098360125697
 31
0.0
  0
ARC
  5
314
330
1F
100
AcDbEntity
  8
化粧台
  6
CONTINUOUS
 62
     6
100
AcDbCircle
 10
1602.932344216948
 20
1251.205590199297
 30
0.0
 40
1.9
100
AcDbArc
 50
95.0
 51
164.6375149632001
  0
ARC
  5
315
330
1F
100
AcDbEntity
  8
化粧台
  6
CONTINUOUS
 62
     6
100
AcDbCircle
 10
1602.932344216948
 20
1244.794409800697
 30
0.0
 40
1.9
100
AcDbArc
 50
195.3624850368001
 51
265.0000000000002
  0
LINE
  5
316
330
1F
100
AcDbEntity
  8
化粧台
  6
CONTINUOUS
 62
     6
100
AcDbLine
 10
1607.000000000049
 20
1234.999999999997
 30
0.0
 11
1607.000000000049
 21
1257.263671168097
 31
0.0
  0
LINE
  5
317
330
1F
100
AcDbEntity
  8
化粧台
  6
CONTINUOUS
 62
     6
100
AcDbLine
 10
1600.600000000048
 20
1247.999999999997
 30
0.0
 11
1602.102627944249
 21
1245.397372055797
 31
0.0
  0
LINE
  5
318
330
1F
100
AcDbEntity
  8
化粧台
  6
CONTINUOUS
 62
     6
100
AcDbLine
 10
1600.600000000048
 20
1247.999999999997
 30
0.0
 11
1602.102627944249
 21
1250.602627944197
 31
0.0
  0
LINE
  5
319
330
1F
100
AcDbEntity
  8
化粧台
  6
CONTINUOUS
 62
     6
100
AcDbLine
 10
1592.000000000049
 20
1269.368164415897
 30
0.0
 11
1591.999999999984
 21
1272.999999999997
 31
0.0
  0
LINE
  5
31A
330
1F
100
AcDbEntity
  8
化粧台
  6
CONTINUOUS
 62
     6
100
AcDbLine
 10
1594.50000000014
 20
1272.999999999997
 30
0.0
 11
1594.500000000049
 21
1269.368164415897
 31
0.0
  0
LINE
  5
31B
330
1F
100
AcDbEntity
  8
化粧台
  6
CONTINUOUS
 62
     6
100
AcDbLine
 10
787.0000000000491
 20
1258.631835584099
 30
0.0
 11
771.0000000000491
 21
1258.631835584099
 31
0.0
  0
LINE
  5
31C
330
1F
100
AcDbEntity
  8
化粧台
  6
CONTINUOUS
 62
     6
100
AcDbLine
 10
787.0000000000491
 20
1266.631835584099
 30
0.0
 11
771.0000000000491
 21
1266.631835584099
 31
0.0
  0
LINE
  5
31D
330
1F
100
AcDbEntity
  8
化粧台
  6
CONTINUOUS
 62
     6
100
AcDbLine
 10
776.7726136399724
 20
1245.772613639901
 30
0.0
 11
781.2273863614482
 21
1250.227386361375
 31
0.0
  0
LINE
  5
31E
330
1F
100
AcDbEntity
  8
化粧台
  6
CONTINUOUS
 62
     6
100
AcDbLine
 10
781.2273863627229
 20
1245.772613639901
 30
0.0
 11
776.7726136412475
 21
1250.227386361375
 31
0.0
  0
LINE
  5
31F
330
1F
100
AcDbEntity
  8
化粧台
  6
CONTINUOUS
 62
     6
100
AcDbLine
 10
787.5000000000491
 20
1229.999999999999
 30
0.0
 11
770.5000000000509
 21
1229.999999999999
 31
0.0
  0
CIRCLE
  5
320
330
1F
100
AcDbEntity
  8
化粧台
  6
CONTINUOUS
 62
     6
100
AcDbCircle
 10
779.0000000000473
 20
1247.999999999999
 30
0.0
 40
5.25
  0
LINE
  5
321
330
1F
100
AcDbEntity
  8
化粧台
  6
CONTINUOUS
 62
     6
100
AcDbLine
 10
771.7500000000473
 20
1247.999999999999
 30
0.0
 11
786.2500000000491
 21
1247.999999999999
 31
0.0
  0
LINE
  5
322
330
1F
100
AcDbEntity
  8
化粧台
  6
CONTINUOUS
 62
     6
100
AcDbLine
 10
770.5000000000437
 20
1272.999999999997
 30
0.0
 11
770.5000000000509
 21
1229.999999999999
 31
0.0
  0
LINE
  5
323
330
1F
100
AcDbEntity
  8
化粧台
  6
CONTINUOUS
 62
     6
100
AcDbLine
 10
787.50000000004
 20
1272.999999999997
 30
0.0
 11
787.5000000000491
 21
1229.999999999999
 31
0.0
  0
LINE
  5
324
330
1F
100
AcDbEntity
  8
化粧台
  6
CONTINUOUS
 62
     6
100
AcDbLine
 10
421.0000000000508
 20
1258.631835584101
 30
0.0
 11
437.0000000000508
 21
1258.631835584101
 31
0.0
  0
LINE
  5
325
330
1F
100
AcDbEntity
  8
化粧台
  6
CONTINUOUS
 62
     6
100
AcDbLine
 10
421.0000000000508
 20
1266.631835584101
 30
0.0
 11
437.0000000000508
 21
1266.631835584101
 31
0.0
  0
LINE
  5
326
330
1F
100
AcDbEntity
  8
化粧台
  6
CONTINUOUS
 62
     6
100
AcDbLine
 10
431.2273863601275
 20
1245.772613639902
 30
0.0
 11
426.7726136386517
 21
1250.227386361376
 31
0.0
  0
LINE
  5
327
330
1F
100
AcDbEntity
  8
化粧台
  6
CONTINUOUS
 62
     6
100
AcDbLine
 10
426.7726136373766
 20
1245.772613639902
 30
0.0
 11
431.2273863588524
 21
1250.227386361376
 31
0.0
  0
LINE
  5
328
330
1F
100
AcDbEntity
  8
化粧台
  6
CONTINUOUS
 62
     6
100
AcDbLine
 10
420.5000000000508
 20
1230.000000000001
 30
0.0
 11
437.500000000049
 21
1230.000000000001
 31
0.0
  0
CIRCLE
  5
329
330
1F
100
AcDbEntity
  8
化粧台
  6
CONTINUOUS
 62
     6
100
AcDbCircle
 10
429.0000000000526
 20
1248.000000000001
 30
0.0
 40
5.25
  0
LINE
  5
32A
330
1F
100
AcDbEntity
  8
化粧台
  6
CONTINUOUS
 62
     6
100
AcDbLine
 10
436.2500000000526
 20
1248.000000000001
 30
0.0
 11
421.7500000000508
 21
1248.000000000001
 31
0.0
  0
LINE
  5
32B
330
1F
100
AcDbEntity
  8
化粧台
  6
CONTINUOUS
 62
     6
100
AcDbLine
 10
437.5000000000563
 20
1272.999999999999
 30
0.0
 11
437.500000000049
 21
1230.000000000001
 31
0.0
  0
LINE
  5
32C
330
1F
100
AcDbEntity
  8
化粧台
  6
CONTINUOUS
 62
     6
100
AcDbLine
 10
420.5000000000599
 20
1272.999999999999
 30
0.0
 11
420.5000000000508
 21
1230.000000000001
 31
0.0
  0
LINE
  5
32D
330
1F
100
AcDbEntity
  8
化粧台
  6
CONTINUOUS
 62
     6
100
AcDbLine
 10
1518.500000000051
 20
604.9999999999975
 30
0.0
 11
1539.500000000051
 21
604.9999999999975
 31
0.0
  0
LINE
  5
32E
330
1F
100
AcDbEntity
  8
化粧台
  6
EXLTYPE4
 62
     6
100
AcDbLine
 10
1518.500000000051
 20
742.9999999999975
 30
0.0
 11
1518.500000000051
 21
604.9999999999975
 31
0.0
  0
LINE
  5
32F
330
1F
100
AcDbEntity
  8
化粧台
  6
EXLTYPE4
 62
     6
100
AcDbLine
 10
1539.500000000051
 20
742.9999999999993
 30
0.0
 11
1539.500000000051
 21
604.9999999999975
 31
0.0
  0
LINE
  5
330
330
1F
100
AcDbEntity
  8
化粧台
  6
EXLTYPE3
 62
     6
100
AcDbLine
 10
1529.000000000051
 20
752.9999999999975
 30
0.0
 11
1529.000000000051
 21
594.9999999999975
 31
0.0
  0
LINE
  5
331
330
1F
100
AcDbEntity
  8
化粧台
  6
CONTINUOUS
 62
     7
100
AcDbLine
 10
194.0000000000504
 20
612.9999999999975
 30
0.0
 11
1078.000000000051
 21
612.9999999999975
 31
0.0
  0
TEXT
  5
332
330
1F
100
AcDbEntity
  8
化粧台
  6
CONTINUOUS
 62
     2
100
AcDbText
 10
1114.900000000023
 20
620.6999999999964
 30
0.0
 40
40.0
  1
Ｆ.Ｌ.
 41
0.9086538461538461
  7
EXCADSTD
 72
     5
 11
1204.900000000023
 21
620.6999999999964
 31
0.0
100
AcDbText
  0
TEXT
  5
333
330
1F
100
AcDbEntity
  8
化粧台
  6
CONTINUOUS
 62
     2
100
AcDbText
 10
1605.499999999945
 20
1622.649999999997
 30
0.0
 40
40.0
  1
Ｗ.Ｌ.
 50
90.0
 41
0.9086538461538461
  7
EXCADSTD
 72
     5
 11
1605.499999999945
 21
1712.649999999997
 31
0.0
100
AcDbText
  0
LINE
  5
334
330
1F
100
AcDbEntity
  8
化粧台
  6
EXLTYPE3
 62
     6
100
AcDbLine
 10
604.0000000000509
 20
1546.82512344157
 30
0.0
 11
604.0000000000509
 21
895.0000000000275
 31
0.0
  0
LINE
  5
335
330
1F
100
AcDbEntity
  8
化粧台
  6
EXLTYPE3
 62
     6
100
AcDbLine
 10
604.0000000000509
 20
821.9999999999976
 30
0.0
 11
604.0000000000473
 21
572.9999999999975
 31
0.0
  0
LINE
  5
336
330
1F
100
AcDbEntity
  8
化粧台
  6
CONTINUOUS
 62
     2
100
AcDbLine
 10
1557.000000000249
 20
997.0000000000284
 30
0.0
 11
1574.000000000051
 21
997.0000000000284
 31
0.0
  0
LINE
  5
337
330
1F
100
AcDbEntity
  8
化粧台
  6
CONTINUOUS
 62
     2
100
AcDbLine
 10
1493.000000000051
 20
997.0000000000284
 30
0.0
 11
1505.000000000108
 21
997.0000000000284
 31
0.0
  0
LINE
  5
338
330
1F
100
AcDbEntity
  8
化粧台
  6
CONTINUOUS
 62
     2
100
AcDbLine
 10
1539.477500000097
 20
1029.000000000028
 30
0.0
 11
1574.000000000051
 21
1029.000000000028
 31
0.0
  0
LINE
  5
339
330
1F
100
AcDbEntity
  8
化粧台
  6
CONTINUOUS
 62
     2
100
AcDbLine
 10
1493.000000000047
 20
1029.000000000028
 30
0.0
 11
1518.522500000098
 21
1029.000000000028
 31
0.0
  0
LINE
  5
33A
330
1F
100
AcDbEntity
  8
付属金具
  6
CONTINUOUS
 62
     6
100
AcDbLine
 10
1612.0000000001
 20
980.5000000000008
 30
0.0
 11
1614.0000000001
 21
980.5000000000008
 31
0.0
  0
ARC
  5
33B
330
1F
100
AcDbEntity
  8
付属金具
  6
CONTINUOUS
 62
     6
100
AcDbCircle
 10
1612.0000000001
 20
993.5000000000008
 30
0.0
 40
13.00000000000001
100
AcDbArc
 50
206.0514679
 51
270.0
  0
ARC
  5
33C
330
1F
100
AcDbEntity
  8
付属金具
  6
CONTINUOUS
 62
     6
100
AcDbCircle
 10
1623.0503234901
 20
998.9019012400007
 30
0.0
 40
25.30000305
100
AcDbArc
 50
188.0561333961001
 51
206.0514831500001
  0
LINE
  5
33D
330
1F
100
AcDbEntity
  8
付属金具
  6
CONTINUOUS
 62
     6
100
AcDbLine
 10
1614.0000000001
 20
1018.527511600001
 30
0.0
 11
1622.4774017301
 21
1018.262588500001
 31
0.0
  0
LINE
  5
33E
330
1F
100
AcDbEntity
  8
付属金具
  6
CONTINUOUS
 62
     6
100
AcDbLine
 10
1598.000000000101
 20
1020.643722443601
 30
0.0
 11
1598.000000000101
 21
995.3562775464009
 31
0.0
  0
ARC
  5
33F
330
1F
100
AcDbEntity
  8
付属金具
  6
CONTINUOUS
 62
     6
100
AcDbCircle
 10
1623.0503234901
 20
1017.098098750001
 30
0.0
 40
25.30000305
100
AcDbArc
 50
153.9485168499999
 51
171.9438666038999
  0
ARC
  5
340
330
1F
100
AcDbEntity
  8
付属金具
  6
CONTINUOUS
 62
     6
100
AcDbCircle
 10
1612.0000000001
 20
1022.500000000001
 30
0.0
 40
13.00000000000001
100
AcDbArc
 50
90.00000000000001
 51
153.9485321
  0
LINE
  5
341
330
1F
100
AcDbEntity
  8
付属金具
  6
CONTINUOUS
 62
     6
100
AcDbLine
 10
1612.0000000001
 20
1035.500000000001
 30
0.0
 11
1614.0000000001
 21
1035.500000000001
 31
0.0
  0
LINE
  5
342
330
1F
100
AcDbEntity
  8
付属金具
  6
CONTINUOUS
 62
     6
100
AcDbLine
 10
1614.0000000001
 20
1035.500000000001
 30
0.0
 11
1614.0000000001
 21
980.5000000000008
 31
0.0
  0
LINE
  5
343
330
1F
100
AcDbEntity
  8
付属金具
  6
CONTINUOUS
 62
     6
100
AcDbLine
 10
1622.4774017301
 20
997.7374115000007
 30
0.0
 11
1622.4774017301
 21
1018.262588500001
 31
0.0
  0
LINE
  5
344
330
1F
100
AcDbEntity
  8
付属金具
  6
CONTINUOUS
 62
     6
100
AcDbLine
 10
1622.4774017301
 20
1018.262588500001
 30
0.0
 11
1623.8399963401
 21
1016.899993900001
 31
0.0
  0
LINE
  5
345
330
1F
100
AcDbEntity
  8
付属金具
  6
CONTINUOUS
 62
     6
100
AcDbLine
 10
1623.8399963401
 20
1016.899993900001
 30
0.0
 11
1623.8399963401
 21
999.1000061000007
 31
0.0
  0
LINE
  5
346
330
1F
100
AcDbEntity
  8
付属金具
  6
CONTINUOUS
 62
     6
100
AcDbLine
 10
1622.4774017301
 20
997.7374115000007
 30
0.0
 11
1623.8399963401
 21
999.1000061000007
 31
0.0
  0
LINE
  5
347
330
1F
100
AcDbEntity
  8
付属金具
  6
CONTINUOUS
 62
     6
100
AcDbLine
 10
1614.0000000001
 20
997.4724980154008
 30
0.0
 11
1622.4774017301
 21
997.7374115000007
 31
0.0
  0
LINE
  5
348
330
1F
100
AcDbEntity
  8
付属金具
  6
CONTINUOUS
 62
     6
100
AcDbLine
 10
1614.0000000001
 20
1017.352508540001
 30
0.0
 11
1623.6903076201
 21
1017.049682620001
 31
0.0
  0
LINE
  5
349
330
1F
100
AcDbEntity
  8
付属金具
  6
CONTINUOUS
 62
     6
100
AcDbLine
 10
1614.0000000001
 20
998.6475009678009
 30
0.0
 11
1623.6903076201
 21
998.9503173800006
 31
0.0
  0
LINE
  5
34A
330
1F
100
AcDbEntity
  8
付属金具
  6
CONTINUOUS
 62
     6
100
AcDbLine
 10
1557.0000000001
 20
1018.4750019876
 30
0.0
 11
1557.7999572801
 21
1018.500000000001
 31
0.0
  0
LINE
  5
34B
330
1F
100
AcDbEntity
  8
付属金具
  6
CONTINUOUS
 62
     6
100
AcDbLine
 10
1557.799957280093
 20
997.5000000000008
 30
0.0
 11
1598.000000000101
 21
997.5000000000007
 31
0.0
  0
LINE
  5
34C
330
1F
100
AcDbEntity
  8
付属金具
  6
CONTINUOUS
 62
     6
100
AcDbLine
 10
1560.3399963401
 20
998.5956268300005
 30
0.0
 11
1562.237686160101
 21
997.5000000000006
 31
0.0
  0
LINE
  5
34D
330
1F
100
AcDbEntity
  8
付属金具
  6
CONTINUOUS
 62
     6
100
AcDbLine
 10
1560.3399963401
 20
1017.404373170001
 30
0.0
 11
1562.237686160101
 21
1018.500000000001
 31
0.0
  0
LINE
  5
34E
330
1F
100
AcDbEntity
  8
付属金具
  6
CONTINUOUS
 62
     6
100
AcDbLine
 10
1560.3399963401
 20
1017.404373170001
 30
0.0
 11
1557.0000000001
 21
1017.300000249301
 31
0.0
  0
LINE
  5
34F
330
1F
100
AcDbEntity
  8
付属金具
  6
CONTINUOUS
 62
     6
100
AcDbLine
 10
1515.500000000095
 20
1026.500000000012
 30
0.0
 11
1516.500000000095
 21
1027.500000000012
 31
0.0
  0
LINE
  5
350
330
1F
100
AcDbEntity
  8
付属金具
  6
CONTINUOUS
 62
     6
100
AcDbLine
 10
1542.5000000001
 20
1026.500000000012
 30
0.0
 11
1541.5000000001
 21
1027.500000000012
 31
0.0
  0
LINE
  5
351
330
1F
100
AcDbEntity
  8
付属金具
  6
CONTINUOUS
 62
     6
100
AcDbLine
 10
1506.000000000108
 20
994.5000000000122
 30
0.0
 11
1547.000000000095
 21
994.5000000000122
 31
0.0
  0
LINE
  5
352
330
1F
100
AcDbEntity
  8
付属金具
  6
CONTINUOUS
 62
     6
100
AcDbLine
 10
1506.000000000108
 20
994.5000000000122
 30
0.0
 11
1505.000000000108
 21
995.5000000000122
 31
0.0
  0
LINE
  5
353
330
1F
100
AcDbEntity
  8
付属金具
  6
CONTINUOUS
 62
     6
100
AcDbLine
 10
1505.000000000108
 20
995.5000000000122
 30
0.0
 11
1505.000000000108
 21
1020.5
 31
0.0
  0
LINE
  5
354
330
1F
100
AcDbEntity
  8
付属金具
  6
CONTINUOUS
 62
     6
100
AcDbLine
 10
1505.000000000108
 20
1020.5
 30
0.0
 11
1506.000000000108
 21
1021.5
 31
0.0
  0
LINE
  5
355
330
1F
100
AcDbEntity
  8
付属金具
  6
CONTINUOUS
 62
     6
100
AcDbLine
 10
1506.000000000108
 20
1021.5
 30
0.0
 11
1511.500000000095
 21
1021.5
 31
0.0
  0
LINE
  5
356
330
1F
100
AcDbEntity
  8
付属金具
  6
CONTINUOUS
 62
     6
100
AcDbLine
 10
1515.500000000095
 20
1024.5
 30
0.0
 11
1515.500000000095
 21
1026.500000000012
 31
0.0
  0
LINE
  5
357
330
1F
100
AcDbEntity
  8
付属金具
  6
CONTINUOUS
 62
     6
100
AcDbLine
 10
1512.500000000095
 20
1021.5
 30
0.0
 11
1509.5000000001
 21
1021.5
 31
0.0
  0
ARC
  5
358
330
1F
100
AcDbEntity
  8
付属金具
  6
CONTINUOUS
 62
     6
100
AcDbCircle
 10
1512.500000000095
 20
1024.5
 30
0.0
 40
3.0
100
AcDbArc
 50
270.0
 51
0.0
  0
LINE
  5
359
330
1F
100
AcDbEntity
  8
付属金具
  6
CONTINUOUS
 62
     6
100
AcDbLine
 10
1547.000000000105
 20
1021.500000000002
 30
0.0
 11
1545.5000000001
 21
1021.500000000002
 31
0.0
  0
LINE
  5
35A
330
1F
100
AcDbEntity
  8
付属金具
  6
CONTINUOUS
 62
     6
100
AcDbLine
 10
1542.5000000001
 20
1024.500000000002
 30
0.0
 11
1542.5000000001
 21
1026.500000000012
 31
0.0
  0
ARC
  5
35B
330
1F
100
AcDbEntity
  8
付属金具
  6
CONTINUOUS
 62
     6
100
AcDbCircle
 10
1545.5000000001
 20
1024.500000000002
 30
0.0
 40
3.0
100
AcDbArc
 50
180.0
 51
270.0
  0
LINE
  5
35C
330
1F
100
AcDbEntity
  8
付属金具
  6
CONTINUOUS
 62
     6
100
AcDbLine
 10
1541.500000000099
 20
1027.500000000012
 30
0.0
 11
1516.500000000095
 21
1027.500000000012
 31
0.0
  0
LINE
  5
35D
330
1F
100
AcDbEntity
  8
付属金具
  6
CONTINUOUS
 62
     6
100
AcDbLine
 10
1546.982609375307
 20
994.5000000000002
 30
0.0
 11
1548.685792669416
 21
991.5500000000014
 31
0.0
  0
LINE
  5
35E
330
1F
100
AcDbEntity
  8
付属金具
  6
CONTINUOUS
 62
     6
100
AcDbLine
 10
1546.982609375307
 20
1021.500000000002
 30
0.0
 11
1548.685792669416
 21
1024.450000000001
 31
0.0
  0
ARC
  5
35F
330
1F
100
AcDbEntity
  8
付属金具
  6
CONTINUOUS
 62
     6
100
AcDbCircle
 10
1552.769077984312
 20
1020.349999999991
 30
0.0
 40
5.786468609005347
100
AcDbArc
 50
165.1170287414844
 51
225.1170287413586
  0
LINE
  5
360
330
1F
100
AcDbEntity
  8
付属金具
  6
CONTINUOUS
 62
     6
100
AcDbLine
 10
1557.000000000101
 20
1021.75000000001
 30
0.0
 11
1554.300000000111
 21
1024.450000000001
 31
0.0
  0
LINE
  5
361
330
1F
100
AcDbEntity
  8
付属金具
  6
CONTINUOUS
 62
     6
100
AcDbLine
 10
1557.000000000101
 20
994.24999999999
 30
0.0
 11
1554.300000000111
 21
991.55
 31
0.0
  0
LINE
  5
362
330
1F
100
AcDbEntity
  8
付属金具
  6
CONTINUOUS
 62
     6
100
AcDbLine
 10
1554.300000000113
 20
991.5500000000014
 30
0.0
 11
1548.685792669416
 21
991.5500000000014
 31
0.0
  0
LINE
  5
363
330
1F
100
AcDbEntity
  8
付属金具
  6
CONTINUOUS
 62
     6
100
AcDbLine
 10
1554.30000000011
 20
1024.450000000001
 30
0.0
 11
1548.685792669416
 21
1024.450000000001
 31
0.0
  0
LINE
  5
364
330
1F
100
AcDbEntity
  8
付属金具
  6
CONTINUOUS
 62
     6
100
AcDbLine
 10
1554.300000000113
 20
1016.250000000002
 30
0.0
 11
1548.685792669411
 21
1016.250000000002
 31
0.0
  0
ARC
  5
365
330
1F
100
AcDbEntity
  8
付属金具
  6
CONTINUOUS
 62
     6
100
AcDbCircle
 10
1552.537037037132
 20
1020.350000000001
 30
0.0
 40
4.462962962968728
100
AcDbArc
 50
293.2672679980691
 51
23.26726799807314
  0
LINE
  5
366
330
1F
100
AcDbEntity
  8
付属金具
  6
CONTINUOUS
 62
     6
100
AcDbLine
 10
1516.70367580524
 20
1020.10367580514
 30
0.0
 11
1527.40367580524
 21
1009.40367580514
 31
0.0
  0
LINE
  5
367
330
1F
100
AcDbEntity
  8
付属金具
  6
CONTINUOUS
 62
     6
100
AcDbLine
 10
1541.296324194955
 20
1020.10367580514
 30
0.0
 11
1530.596324194954
 21
1009.40367580514
 31
0.0
  0
LINE
  5
368
330
1F
100
AcDbEntity
  8
付属金具
  6
CONTINUOUS
 62
     6
100
AcDbLine
 10
1501.40000000011
 20
1009.0
 30
0.0
 11
1504.40000000011
 21
1009.0
 31
0.0
  0
LINE
  5
369
330
1F
100
AcDbEntity
  8
付属金具
  6
CONTINUOUS
 62
     6
100
AcDbLine
 10
1501.40000000011
 20
1007.0
 30
0.0
 11
1504.40000000011
 21
1007.0
 31
0.0
  0
LINE
  5
36A
330
1F
100
AcDbEntity
  8
付属金具
  6
CONTINUOUS
 62
     6
100
AcDbLine
 10
1504.40000000011
 20
1007.0
 30
0.0
 11
1504.40000000011
 21
1009.0
 31
0.0
  0
LINE
  5
36B
330
1F
100
AcDbEntity
  8
付属金具
  6
CONTINUOUS
 62
     6
100
AcDbLine
 10
1501.40000000011
 20
1009.0
 30
0.0
 11
1504.40000000011
 21
1009.0
 31
0.0
  0
LINE
  5
36C
330
1F
100
AcDbEntity
  8
付属金具
  6
CONTINUOUS
 62
     6
100
AcDbLine
 10
1501.40000000011
 20
1007.0
 30
0.0
 11
1504.40000000011
 21
1007.0
 31
0.0
  0
LINE
  5
36D
330
1F
100
AcDbEntity
  8
付属金具
  6
CONTINUOUS
 62
     6
100
AcDbLine
 10
1504.40000000011
 20
1007.0
 30
0.0
 11
1504.40000000011
 21
1009.0
 31
0.0
  0
LINE
  5
36E
330
1F
100
AcDbEntity
  8
付属金具
  6
CONTINUOUS
 62
     6
100
AcDbLine
 10
1505.00000000011
 20
1012.75
 30
0.0
 11
1502.40000000011
 21
1012.75
 31
0.0
  0
LINE
  5
36F
330
1F
100
AcDbEntity
  8
付属金具
  6
CONTINUOUS
 62
     6
100
AcDbLine
 10
1502.40000000011
 20
1012.75
 30
0.0
 11
1501.40000000011
 21
1011.75
 31
0.0
  0
LINE
  5
370
330
1F
100
AcDbEntity
  8
付属金具
  6
CONTINUOUS
 62
     6
100
AcDbLine
 10
1505.00000000011
 20
1003.25
 30
0.0
 11
1502.40000000011
 21
1003.25
 31
0.0
  0
LINE
  5
371
330
1F
100
AcDbEntity
  8
付属金具
  6
CONTINUOUS
 62
     6
100
AcDbLine
 10
1502.40000000011
 20
1003.25
 30
0.0
 11
1501.40000000011
 21
1004.25
 31
0.0
  0
LINE
  5
372
330
1F
100
AcDbEntity
  8
付属金具
  6
CONTINUOUS
 62
     6
100
AcDbLine
 10
1501.40000000011
 20
1007.0
 30
0.0
 11
1501.40000000011
 21
1004.250000000001
 31
0.0
  0
LINE
  5
373
330
1F
100
AcDbEntity
  8
付属金具
  6
CONTINUOUS
 62
     6
100
AcDbLine
 10
1501.40000000011
 20
1009.0
 30
0.0
 11
1501.40000000011
 21
1011.75
 31
0.0
  0
LINE
  5
374
330
1F
100
AcDbEntity
  8
付属金具
  6
CONTINUOUS
 62
     6
100
AcDbLine
 10
1518.522500000098
 20
1029.512643038402
 30
0.0
 11
1519.684500000097
 21
1029.512643038402
 31
0.0
  0
LINE
  5
375
330
1F
100
AcDbEntity
  8
付属金具
  6
CONTINUOUS
 62
     6
100
AcDbLine
 10
1518.522500000098
 20
1029.512643038401
 30
0.0
 11
1539.477500000097
 21
1029.512643038402
 31
0.0
  0
LINE
  5
376
330
1F
100
AcDbEntity
  8
付属金具
  6
CONTINUOUS
 62
     6
100
AcDbLine
 10
1557.7179963401
 20
1018.500000000001
 30
0.0
 11
1598.000000000101
 21
1018.500000000001
 31
0.0
  0
LINE
  5
377
330
1F
100
AcDbEntity
  8
付属金具
  6
CONTINUOUS
 62
     6
100
AcDbLine
 10
1539.477500000098
 20
1027.500000000001
 30
0.0
 11
1538.315500000098
 21
1029.512643038402
 31
0.0
  0
LINE
  5
378
330
1F
100
AcDbEntity
  8
付属金具
  6
CONTINUOUS
 62
     6
100
AcDbLine
 10
1560.3399963401
 20
1017.40437317
 30
0.0
 11
1560.3399963401
 21
1018.5
 31
0.0
  0
LINE
  5
379
330
1F
100
AcDbEntity
  8
付属金具
  6
CONTINUOUS
 62
     6
100
AcDbLine
 10
1560.3399963401
 20
1018.5
 30
0.0
 11
1560.3399963401
 21
1017.40437317
 31
0.0
  0
LINE
  5
37A
330
1F
100
AcDbEntity
  8
付属金具
  6
CONTINUOUS
 62
     6
100
AcDbLine
 10
1560.3399963401
 20
1017.40437317
 30
0.0
 11
1562.2376861601
 21
1018.5
 31
0.0
  0
LINE
  5
37B
330
1F
100
AcDbEntity
  8
付属金具
  6
CONTINUOUS
 62
     6
100
AcDbLine
 10
1556.692791773446
 20
1018.467899742914
 30
0.0
 11
1557.0000000001
 21
1019.0
 31
0.0
  0
ARC
  5
37C
330
1F
100
AcDbEntity
  8
付属金具
  6
CONTINUOUS
 62
     6
100
AcDbCircle
 10
1543.045833333391
 20
1008.0
 30
0.0
 40
13.95416666670988
100
AcDbArc
 50
0.0
 51
36.24372049567523
  0
ARC
  5
37D
330
1F
100
AcDbEntity
  8
付属金具
  6
CONTINUOUS
 62
     6
100
AcDbCircle
 10
1567.815168495276
 20
1008.000000000001
 30
0.0
 40
20.83255911996942
100
AcDbArc
 50
156.6707256133637
 51
180.0
  0
LINE
  5
37E
330
1F
100
AcDbEntity
  8
付属金具
  6
CONTINUOUS
 62
     6
100
AcDbLine
 10
1518.522500000097
 20
1027.500000000001
 30
0.0
 11
1519.684500000097
 21
1029.512643038402
 31
0.0
  0
LINE
  5
37F
330
1F
100
AcDbEntity
  8
付属金具
  6
CONTINUOUS
 62
     6
100
AcDbLine
 10
1546.982609375307
 20
994.5000000000103
 30
0.0
 11
1546.982609375307
 21
1021.500000000002
 31
0.0
  0
LINE
  5
380
330
1F
100
AcDbEntity
  8
付属金具
  6
CONTINUOUS
 62
     6
100
AcDbLine
 10
1557.000000000098
 20
994.2499999999905
 30
0.0
 11
1557.000000000098
 21
1021.750000000001
 31
0.0
  0
ARC
  5
381
330
1F
100
AcDbEntity
  8
付属金具
  6
CONTINUOUS
 62
     6
100
AcDbCircle
 10
1567.815168495276
 20
1008.000000000001
 30
0.0
 40
20.83255911996942
100
AcDbArc
 50
180.0
 51
203.3292743866363
  0
ARC
  5
382
330
1F
100
AcDbEntity
  8
付属金具
  6
CONTINUOUS
 62
     6
100
AcDbCircle
 10
1543.045833333391
 20
1008.000000000002
 30
0.0
 40
13.95416666670988
100
AcDbArc
 50
323.7562795043249
 51
0.0
  0
LINE
  5
383
330
1F
100
AcDbEntity
  8
付属金具
  6
CONTINUOUS
 62
     6
100
AcDbLine
 10
1554.300000000113
 20
999.7499999999998
 30
0.0
 11
1548.685792669411
 21
999.7499999999998
 31
0.0
  0
ARC
  5
384
330
1F
100
AcDbEntity
  8
付属金具
  6
CONTINUOUS
 62
     6
100
AcDbCircle
 10
1552.769077984312
 20
995.6500000000109
 30
0.0
 40
5.786468609005347
100
AcDbArc
 50
134.8829712586932
 51
194.8829712585156
  0
ARC
  5
385
330
1F
100
AcDbEntity
  8
付属金具
  6
CONTINUOUS
 62
     6
100
AcDbCircle
 10
1552.537037037132
 20
995.65
 30
0.0
 40
4.462962962968728
100
AcDbArc
 50
336.7327320019205
 51
66.73273200194986
  0
LINE
  5
386
330
1F
100
AcDbEntity
  8
付属金具
  6
CONTINUOUS
 62
     6
100
AcDbLine
 10
1560.3399963401
 20
998.5956268300005
 30
0.0
 11
1557.000000000098
 21
998.6999997507004
 31
0.0
  0
LINE
  5
387
330
1F
100
AcDbEntity
  8
付属金具
  6
CONTINUOUS
 62
     6
100
AcDbLine
 10
1557.0000000001
 20
997.5249980124007
 30
0.0
 11
1557.7999572801
 21
997.5000000000006
 31
0.0
  0
LINE
  5
388
330
1F
100
AcDbEntity
  8
付属金具
  6
CONTINUOUS
 62
     6
100
AcDbLine
 10
1560.3399963401
 20
997.5000000000008
 30
0.0
 11
1560.3399963401
 21
1018.500000000001
 31
0.0
  0
LINE
  5
389
330
1F
100
AcDbEntity
  8
付属金具
  6
CONTINUOUS
 62
     6
100
AcDbLine
 10
1518.522500000098
 20
1031.000000000018
 30
0.0
 11
1518.522500000098
 21
1027.500000000012
 31
0.0
  0
LINE
  5
38A
330
1F
100
AcDbEntity
  8
付属金具
  6
CONTINUOUS
 62
     6
100
AcDbLine
 10
1539.477500000097
 20
1031.00000000002
 30
0.0
 11
1539.477500000097
 21
1027.500000000012
 31
0.0
  0
LINE
  5
38B
330
1F
100
AcDbEntity
  8
付属金具
  6
CONTINUOUS
 62
     6
100
AcDbLine
 10
1538.315500000098
 20
1031.00000000002
 30
0.0
 11
1538.315500000098
 21
1029.512643038402
 31
0.0
  0
LINE
  5
38C
330
1F
100
AcDbEntity
  8
付属金具
  6
CONTINUOUS
 62
     6
100
AcDbLine
 10
1519.684500000097
 20
1031.00000000002
 30
0.0
 11
1519.684500000097
 21
1029.512643038402
 31
0.0
  0
CIRCLE
  5
38D
330
1F
100
AcDbEntity
  8
付属金具
  6
CONTINUOUS
 62
     6
100
AcDbCircle
 10
504.0000000000501
 20
1008.0
 30
0.0
 40
13.5
  0
CIRCLE
  5
38E
330
1F
100
AcDbEntity
  8
付属金具
  6
CONTINUOUS
 62
     6
100
AcDbCircle
 10
504.0000000000501
 20
1008.0
 30
0.0
 40
12.5
  0
CIRCLE
  5
38F
330
1F
100
AcDbEntity
  8
付属金具
  6
CONTINUOUS
 62
     6
100
AcDbCircle
 10
504.0000000000502
 20
1008.0
 30
0.0
 40
9.5
  0
LINE
  5
390
330
1F
100
AcDbEntity
  8
付属金具
  6
CONTINUOUS
 62
     6
100
AcDbLine
 10
504.0000000000502
 20
991.5500000000003
 30
0.0
 11
489.7538821077903
 21
999.7750000000003
 31
0.0
  0
LINE
  5
391
330
1F
100
AcDbEntity
  8
付属金具
  6
CONTINUOUS
 62
     6
100
AcDbLine
 10
489.7538821077903
 20
999.7750000000003
 30
0.0
 11
489.7538821077903
 21
1016.22499999999
 31
0.0
  0
LINE
  5
392
330
1F
100
AcDbEntity
  8
付属金具
  6
CONTINUOUS
 62
     6
100
AcDbLine
 10
518.2461178923103
 20
1016.225
 30
0.0
 11
518.2461178923103
 21
999.7750000000104
 31
0.0
  0
LINE
  5
393
330
1F
100
AcDbEntity
  8
付属金具
  6
CONTINUOUS
 62
     6
100
AcDbLine
 10
518.2461178923103
 20
999.7750000000003
 30
0.0
 11
504.0000000000502
 21
991.5500000000003
 31
0.0
  0
LINE
  5
394
330
1F
100
AcDbEntity
  8
付属金具
  6
CONTINUOUS
 62
     6
100
AcDbLine
 10
490.5000000000453
 20
1026.500000000012
 30
0.0
 11
491.5000000000452
 21
1027.500000000012
 31
0.0
  0
LINE
  5
395
330
1F
100
AcDbEntity
  8
付属金具
  6
CONTINUOUS
 62
     6
100
AcDbLine
 10
517.5000000000497
 20
1026.500000000012
 30
0.0
 11
516.5000000000497
 21
1027.500000000012
 31
0.0
  0
LINE
  5
396
330
1F
100
AcDbEntity
  8
付属金具
  6
CONTINUOUS
 62
     6
100
AcDbLine
 10
493.5225000000474
 20
1029.512643038402
 30
0.0
 11
514.4775000000474
 21
1029.512643038402
 31
0.0
  0
LINE
  5
397
330
1F
100
AcDbEntity
  8
付属金具
  6
CONTINUOUS
 62
     6
100
AcDbLine
 10
516.5000000000492
 20
1027.500000000012
 30
0.0
 11
491.5000000000452
 21
1027.500000000012
 31
0.0
  0
LINE
  5
398
330
1F
100
AcDbEntity
  8
付属金具
  6
CONTINUOUS
 62
     6
100
AcDbLine
 10
517.5000000000497
 20
1008.0
 30
0.0
 11
517.5000000000497
 21
1026.500000000012
 31
0.0
  0
LINE
  5
399
330
1F
100
AcDbEntity
  8
付属金具
  6
CONTINUOUS
 62
     6
100
AcDbLine
 10
490.5000000000453
 20
1008.0
 30
0.0
 11
490.5000000000453
 21
1026.500000000012
 31
0.0
  0
LINE
  5
39A
330
1F
100
AcDbEntity
  8
付属金具
  6
CONTINUOUS
 62
     6
100
AcDbLine
 10
489.7538821077903
 20
1016.22499999999
 30
0.0
 11
490.5000000000453
 21
1016.655771365931
 31
0.0
  0
LINE
  5
39B
330
1F
100
AcDbEntity
  8
付属金具
  6
CONTINUOUS
 62
     6
100
AcDbLine
 10
517.5000000000497
 20
1016.655771365944
 30
0.0
 11
518.2461178923103
 21
1016.225
 31
0.0
  0
LINE
  5
39C
330
1F
100
AcDbEntity
  8
付属金具
  6
CONTINUOUS
 62
     6
100
AcDbLine
 10
511.4465827509503
 20
1012.936239754
 30
0.0
 11
510.4014354699502
 21
1011.2389357468
 31
0.0
  0
LINE
  5
39D
330
1F
100
AcDbEntity
  8
付属金具
  6
CONTINUOUS
 62
     6
100
AcDbLine
 10
512.1340138307503
 20
1008.8434067983
 30
0.0
 11
513.4299450311478
 21
1009.15158009295
 31
0.0
  0
CIRCLE
  5
39E
330
1F
100
AcDbEntity
  8
付属金具
  6
CONTINUOUS
 62
     6
100
AcDbCircle
 10
511.7638549400502
 20
1010.4
 30
0.0
 40
1.0
  0
ARC
  5
39F
330
1F
100
AcDbEntity
  8
付属金具
  6
CONTINUOUS
 62
     6
100
AcDbCircle
 10
504.6500000000502
 20
1008.0
 30
0.0
 40
8.4
100
AcDbArc
 50
35.99025113909996
 51
324.0097488609001
  0
CIRCLE
  5
3A0
330
1F
100
AcDbEntity
  8
付属金具
  6
CONTINUOUS
 62
     6
100
AcDbCircle
 10
511.7638549400502
 20
1005.6
 30
0.0
 40
1.0
  0
LINE
  5
3A1
330
1F
100
AcDbEntity
  8
付属金具
  6
CONTINUOUS
 62
     6
100
AcDbLine
 10
513.4299450311403
 20
1006.848419906988
 30
0.0
 11
512.1340138307503
 21
1007.1565932017
 31
0.0
  0
LINE
  5
3A2
330
1F
100
AcDbEntity
  8
付属金具
  6
CONTINUOUS
 62
     6
100
AcDbLine
 10
510.4014354699502
 20
1004.7610642532
 30
0.0
 11
511.4465827509503
 21
1003.0637602459
 31
0.0
  0
ARC
  5
3A3
330
1F
100
AcDbEntity
  8
付属金具
  6
CONTINUOUS
 62
     6
100
AcDbCircle
 10
511.7638549400502
 20
1010.4
 30
0.0
 40
1.6
100
AcDbArc
 50
148.3765240858008
 51
156.0828970899934
  0
ARC
  5
3A4
330
1F
100
AcDbEntity
  8
付属金具
  6
CONTINUOUS
 62
     6
100
AcDbCircle
 10
511.7638549400502
 20
1005.6
 30
0.0
 40
1.6
100
AcDbArc
 50
203.9171029100084
 51
211.6234759142001
  0
ARC
  5
3A5
330
1F
100
AcDbEntity
  8
付属金具
  6
CONTINUOUS
 62
     6
100
AcDbCircle
 10
511.7638549400502
 20
1005.6
 30
0.0
 40
1.6
100
AcDbArc
 50
76.6234759142001
 51
203.9171029100084
  0
ARC
  5
3A6
330
1F
100
AcDbEntity
  8
付属金具
  6
CONTINUOUS
 62
     6
100
AcDbCircle
 10
511.7638549400502
 20
1010.4
 30
0.0
 40
1.6
100
AcDbArc
 50
156.0828970899934
 51
283.3765240858
  0
CIRCLE
  5
3A7
330
1F
100
AcDbEntity
  8
付属金具
  6
CONTINUOUS
 62
     6
100
AcDbCircle
 10
504.0000000000502
 20
1008.0
 30
0.0
 40
4.75
  0
LINE
  5
3A8
330
1F
100
AcDbEntity
  8
付属金具
  6
CONTINUOUS
 62
     6
100
AcDbLine
 10
508.6435439053018
 20
1009.0
 30
0.0
 11
499.3564560947987
 21
1009.0
 31
0.0
  0
LINE
  5
3A9
330
1F
100
AcDbEntity
  8
付属金具
  6
CONTINUOUS
 62
     6
100
AcDbLine
 10
508.6435439053021
 20
1007.0
 30
0.0
 11
499.3564560947985
 21
1007.0
 31
0.0
  0
ARC
  5
3AA
330
1F
100
AcDbEntity
  8
付属金具
  6
CONTINUOUS
 62
     6
100
AcDbCircle
 10
504.0000000000502
 20
1008.0
 30
0.0
 40
3.75
100
AcDbArc
 50
195.4660099534183
 51
344.5339900465818
  0
ARC
  5
3AB
330
1F
100
AcDbEntity
  8
付属金具
  6
CONTINUOUS
 62
     6
100
AcDbCircle
 10
504.0000000000502
 20
1008.0
 30
0.0
 40
3.75
100
AcDbArc
 50
15.46600995342161
 51
164.5339900465784
  0
LINE
  5
3AC
330
1F
100
AcDbEntity
  8
付属金具
  6
CONTINUOUS
 62
     6
100
AcDbLine
 10
493.5225000000474
 20
1027.500000000001
 30
0.0
 11
494.6845000000473
 21
1029.512643038402
 31
0.0
  0
LINE
  5
3AD
330
1F
100
AcDbEntity
  8
付属金具
  6
CONTINUOUS
 62
     6
100
AcDbLine
 10
514.4775000000483
 20
1027.500000000001
 30
0.0
 11
513.3155000000485
 21
1029.512643038402
 31
0.0
  0
LINE
  5
3AE
330
1F
100
AcDbEntity
  8
付属金具
  6
CONTINUOUS
 62
     6
100
AcDbLine
 10
493.522500000048
 20
1031.00000000002
 30
0.0
 11
493.5225000000485
 21
1027.500000000012
 31
0.0
  0
LINE
  5
3AF
330
1F
100
AcDbEntity
  8
付属金具
  6
CONTINUOUS
 62
     6
100
AcDbLine
 10
494.6845000000473
 20
1031.00000000002
 30
0.0
 11
494.6845000000473
 21
1029.512643038402
 31
0.0
  0
LINE
  5
3B0
330
1F
100
AcDbEntity
  8
付属金具
  6
CONTINUOUS
 62
     6
100
AcDbLine
 10
513.3155000000485
 20
1031.00000000002
 30
0.0
 11
513.3155000000485
 21
1029.512643038402
 31
0.0
  0
LINE
  5
3B1
330
1F
100
AcDbEntity
  8
付属金具
  6
CONTINUOUS
 62
     6
100
AcDbLine
 10
514.4775000000475
 20
1031.00000000002
 30
0.0
 11
514.4775000000475
 21
1027.500000000012
 31
0.0
  0
CIRCLE
  5
3B2
330
1F
100
AcDbEntity
  8
付属金具
  6
CONTINUOUS
 62
     6
100
AcDbCircle
 10
704.00000000005
 20
1008.0
 30
0.0
 40
13.5
  0
CIRCLE
  5
3B3
330
1F
100
AcDbEntity
  8
付属金具
  6
CONTINUOUS
 62
     6
100
AcDbCircle
 10
704.00000000005
 20
1008.0
 30
0.0
 40
12.5
  0
CIRCLE
  5
3B4
330
1F
100
AcDbEntity
  8
付属金具
  6
CONTINUOUS
 62
     6
100
AcDbCircle
 10
704.0000000000501
 20
1008.0
 30
0.0
 40
9.5
  0
LINE
  5
3B5
330
1F
100
AcDbEntity
  8
付属金具
  6
CONTINUOUS
 62
     6
100
AcDbLine
 10
704.0000000000501
 20
991.5500000000003
 30
0.0
 11
689.7538821077902
 21
999.7750000000003
 31
0.0
  0
LINE
  5
3B6
330
1F
100
AcDbEntity
  8
付属金具
  6
CONTINUOUS
 62
     6
100
AcDbLine
 10
689.7538821077902
 20
999.7750000000003
 30
0.0
 11
689.7538821077902
 21
1016.22499999999
 31
0.0
  0
LINE
  5
3B7
330
1F
100
AcDbEntity
  8
付属金具
  6
CONTINUOUS
 62
     6
100
AcDbLine
 10
718.24611789231
 20
1016.225
 30
0.0
 11
718.24611789231
 21
999.7750000000104
 31
0.0
  0
LINE
  5
3B8
330
1F
100
AcDbEntity
  8
付属金具
  6
CONTINUOUS
 62
     6
100
AcDbLine
 10
718.24611789231
 20
999.7750000000003
 30
0.0
 11
704.0000000000501
 21
991.5500000000003
 31
0.0
  0
LINE
  5
3B9
330
1F
100
AcDbEntity
  8
付属金具
  6
CONTINUOUS
 62
     6
100
AcDbLine
 10
690.5000000000451
 20
1026.500000000012
 30
0.0
 11
691.500000000045
 21
1027.500000000012
 31
0.0
  0
LINE
  5
3BA
330
1F
100
AcDbEntity
  8
付属金具
  6
CONTINUOUS
 62
     6
100
AcDbLine
 10
717.5000000000496
 20
1026.500000000012
 30
0.0
 11
716.5000000000496
 21
1027.500000000012
 31
0.0
  0
LINE
  5
3BB
330
1F
100
AcDbEntity
  8
付属金具
  6
CONTINUOUS
 62
     6
100
AcDbLine
 10
693.5225000000472
 20
1029.512643038402
 30
0.0
 11
714.4775000000473
 21
1029.512643038402
 31
0.0
  0
LINE
  5
3BC
330
1F
100
AcDbEntity
  8
付属金具
  6
CONTINUOUS
 62
     6
100
AcDbLine
 10
716.500000000049
 20
1027.500000000012
 30
0.0
 11
691.500000000045
 21
1027.500000000012
 31
0.0
  0
LINE
  5
3BD
330
1F
100
AcDbEntity
  8
付属金具
  6
CONTINUOUS
 62
     6
100
AcDbLine
 10
717.5000000000496
 20
1008.0
 30
0.0
 11
717.5000000000496
 21
1026.500000000012
 31
0.0
  0
LINE
  5
3BE
330
1F
100
AcDbEntity
  8
付属金具
  6
CONTINUOUS
 62
     6
100
AcDbLine
 10
690.5000000000451
 20
1008.0
 30
0.0
 11
690.5000000000451
 21
1026.500000000012
 31
0.0
  0
LINE
  5
3BF
330
1F
100
AcDbEntity
  8
付属金具
  6
CONTINUOUS
 62
     6
100
AcDbLine
 10
689.7538821077902
 20
1016.22499999999
 30
0.0
 11
690.5000000000451
 21
1016.655771365931
 31
0.0
  0
LINE
  5
3C0
330
1F
100
AcDbEntity
  8
付属金具
  6
CONTINUOUS
 62
     6
100
AcDbLine
 10
717.5000000000496
 20
1016.655771365944
 30
0.0
 11
718.24611789231
 21
1016.225
 31
0.0
  0
LINE
  5
3C1
330
1F
100
AcDbEntity
  8
付属金具
  6
CONTINUOUS
 62
     6
100
AcDbLine
 10
711.44658275095
 20
1012.936239754
 30
0.0
 11
710.4014354699501
 21
1011.2389357468
 31
0.0
  0
LINE
  5
3C2
330
1F
100
AcDbEntity
  8
付属金具
  6
CONTINUOUS
 62
     6
100
AcDbLine
 10
712.1340138307502
 20
1008.8434067983
 30
0.0
 11
713.4299450311477
 21
1009.15158009295
 31
0.0
  0
CIRCLE
  5
3C3
330
1F
100
AcDbEntity
  8
付属金具
  6
CONTINUOUS
 62
     6
100
AcDbCircle
 10
711.7638549400501
 20
1010.4
 30
0.0
 40
1.0
  0
ARC
  5
3C4
330
1F
100
AcDbEntity
  8
付属金具
  6
CONTINUOUS
 62
     6
100
AcDbCircle
 10
704.6500000000501
 20
1008.0
 30
0.0
 40
8.4
100
AcDbArc
 50
35.99025113909996
 51
324.0097488609001
  0
CIRCLE
  5
3C5
330
1F
100
AcDbEntity
  8
付属金具
  6
CONTINUOUS
 62
     6
100
AcDbCircle
 10
711.7638549400501
 20
1005.6
 30
0.0
 40
1.0
  0
LINE
  5
3C6
330
1F
100
AcDbEntity
  8
付属金具
  6
CONTINUOUS
 62
     6
100
AcDbLine
 10
713.42994503114
 20
1006.848419906988
 30
0.0
 11
712.1340138307502
 21
1007.1565932017
 31
0.0
  0
LINE
  5
3C7
330
1F
100
AcDbEntity
  8
付属金具
  6
CONTINUOUS
 62
     6
100
AcDbLine
 10
710.4014354699501
 20
1004.7610642532
 30
0.0
 11
711.44658275095
 21
1003.0637602459
 31
0.0
  0
ARC
  5
3C8
330
1F
100
AcDbEntity
  8
付属金具
  6
CONTINUOUS
 62
     6
100
AcDbCircle
 10
711.7638549400501
 20
1010.4
 30
0.0
 40
1.6
100
AcDbArc
 50
148.3765240858008
 51
156.0828970899934
  0
ARC
  5
3C9
330
1F
100
AcDbEntity
  8
付属金具
  6
CONTINUOUS
 62
     6
100
AcDbCircle
 10
711.7638549400501
 20
1005.6
 30
0.0
 40
1.6
100
AcDbArc
 50
203.9171029100084
 51
211.6234759142001
  0
ARC
  5
3CA
330
1F
100
AcDbEntity
  8
付属金具
  6
CONTINUOUS
 62
     6
100
AcDbCircle
 10
711.7638549400501
 20
1005.6
 30
0.0
 40
1.6
100
AcDbArc
 50
76.6234759142001
 51
203.9171029100084
  0
ARC
  5
3CB
330
1F
100
AcDbEntity
  8
付属金具
  6
CONTINUOUS
 62
     6
100
AcDbCircle
 10
711.7638549400501
 20
1010.4
 30
0.0
 40
1.6
100
AcDbArc
 50
156.0828970899934
 51
283.3765240858
  0
CIRCLE
  5
3CC
330
1F
100
AcDbEntity
  8
付属金具
  6
CONTINUOUS
 62
     6
100
AcDbCircle
 10
704.0000000000501
 20
1008.0
 30
0.0
 40
4.75
  0
LINE
  5
3CD
330
1F
100
AcDbEntity
  8
付属金具
  6
CONTINUOUS
 62
     6
100
AcDbLine
 10
708.6435439053017
 20
1009.0
 30
0.0
 11
699.3564560947985
 21
1009.0
 31
0.0
  0
LINE
  5
3CE
330
1F
100
AcDbEntity
  8
付属金具
  6
CONTINUOUS
 62
     6
100
AcDbLine
 10
708.643543905302
 20
1007.0
 30
0.0
 11
699.3564560947983
 21
1007.0
 31
0.0
  0
ARC
  5
3CF
330
1F
100
AcDbEntity
  8
付属金具
  6
CONTINUOUS
 62
     6
100
AcDbCircle
 10
704.0000000000501
 20
1008.0
 30
0.0
 40
3.75
100
AcDbArc
 50
195.4660099534183
 51
344.5339900465818
  0
ARC
  5
3D0
330
1F
100
AcDbEntity
  8
付属金具
  6
CONTINUOUS
 62
     6
100
AcDbCircle
 10
704.0000000000501
 20
1008.0
 30
0.0
 40
3.75
100
AcDbArc
 50
15.46600995342161
 51
164.5339900465784
  0
LINE
  5
3D1
330
1F
100
AcDbEntity
  8
付属金具
  6
CONTINUOUS
 62
     6
100
AcDbLine
 10
693.5225000000472
 20
1027.500000000001
 30
0.0
 11
694.6845000000471
 21
1029.512643038402
 31
0.0
  0
LINE
  5
3D2
330
1F
100
AcDbEntity
  8
付属金具
  6
CONTINUOUS
 62
     6
100
AcDbLine
 10
714.4775000000482
 20
1027.500000000001
 30
0.0
 11
713.3155000000484
 21
1029.512643038402
 31
0.0
  0
LINE
  5
3D3
330
1F
100
AcDbEntity
  8
付属金具
  6
CONTINUOUS
 62
     6
100
AcDbLine
 10
693.5225000000478
 20
1031.00000000002
 30
0.0
 11
693.5225000000484
 21
1027.500000000012
 31
0.0
  0
LINE
  5
3D4
330
1F
100
AcDbEntity
  8
付属金具
  6
CONTINUOUS
 62
     6
100
AcDbLine
 10
694.6845000000471
 20
1031.00000000002
 30
0.0
 11
694.6845000000471
 21
1029.512643038402
 31
0.0
  0
LINE
  5
3D5
330
1F
100
AcDbEntity
  8
付属金具
  6
CONTINUOUS
 62
     6
100
AcDbLine
 10
713.3155000000484
 20
1031.00000000002
 30
0.0
 11
713.3155000000484
 21
1029.512643038402
 31
0.0
  0
LINE
  5
3D6
330
1F
100
AcDbEntity
  8
付属金具
  6
CONTINUOUS
 62
     6
100
AcDbLine
 10
714.4775000000474
 20
1031.00000000002
 30
0.0
 11
714.4775000000474
 21
1027.500000000012
 31
0.0
  0
DIMENSION
  5
3D8
330
1F
100
AcDbEntity
  8
寸法
  6
CONTINUOUS
 62
     3
100
AcDbDimension
  2
*D15
 10
779.0000000000509
 20
1597.999999999997
 30
0.0
 11
604.0000000000509
 21
1621.499999940393
 31
0.0
 70
   160
  3
ISO-25
100
AcDbAlignedDimension
 13
429.0000000000508
 23
1378.999999999997
 33
0.0
 14
779.0000000000509
 24
1378.999999999997
 34
0.0
100
AcDbRotatedDimension
1001
ACAD
1000
DSTYLE
1002
{
1070
   270
1070
     2
1070
     6
1000
EX_NORM
1070
     7
1000
EX_NORM
1070
    41
1040
30.0
1070
    42
1040
6.99999988079071
1070
    44
1040
10.0
1070
    73
1070
     0
1070
    74
1070
     0
1070
    75
1070
     0
1070
    76
1070
     0
1070
    77
1070
     1
1070
    78
1070
     8
1070
   140
1040
40.0
1070
   147
1040
0.0
1070
   173
1070
     1
1070
   176
1070
     3
1070
   177
1070
     3
1070
   178
1070
     2
1070
   271
1070
     1
1070
   277
1070
     2
1070
   279
1070
     2
1070
   280
1070
     0
1070
   287
1070
     5
1070
   340
1005
3D7
1002
}
  0
DIMENSION
  5
3E6
330
1F
100
AcDbEntity
  8
寸法
  6
CONTINUOUS
 62
     3
100
AcDbDimension
  2
*D16
 10
849.0000000000509
 20
1657.999999999997
 30
0.0
 11
604.0000000000509
 21
1681.499999940393
 31
0.0
 70
   160
  3
ISO-25
100
AcDbAlignedDimension
 13
359.0000000000508
 23
1407.999999999997
 33
0.0
 14
849.0000000000509
 24
1407.999999999997
 34
0.0
100
AcDbRotatedDimension
1001
ACAD
1000
DSTYLE
1002
{
1070
   270
1070
     2
1070
     6
1000
EX_NORM
1070
     7
1000
EX_NORM
1070
    41
1040
30.0
1070
    42
1040
6.99999988079071
1070
    44
1040
10.0
1070
    73
1070
     0
1070
    74
1070
     0
1070
    75
1070
     0
1070
    76
1070
     0
1070
    77
1070
     1
1070
    78
1070
     8
1070
   140
1040
40.0
1070
   147
1040
0.0
1070
   173
1070
     1
1070
   176
1070
     3
1070
   177
1070
     3
1070
   178
1070
     2
1070
   271
1070
     1
1070
   277
1070
     2
1070
   279
1070
     2
1070
   280
1070
     0
1070
   287
1070
     5
1070
   340
1005
3D7
1002
}
  0
DIMENSION
  5
3F3
330
1F
100
AcDbEntity
  8
寸法
  6
CONTINUOUS
 62
     3
100
AcDbDimension
  2
*D17
 10
1614.000000000051
 20
1597.999999999997
 30
0.0
 11
1384.000000000051
 21
1621.499999940393
 31
0.0
 70
   160
  3
ISO-25
100
AcDbAlignedDimension
 13
1154.000000000051
 23
1407.999999999997
 33
0.0
 14
1614.000000000051
 24
1412.999999999997
 34
0.0
100
AcDbRotatedDimension
1001
ACAD
1000
DSTYLE
1002
{
1070
   270
1070
     2
1070
     6
1000
EX_NORM
1070
     7
1000
EX_NORM
1070
    41
1040
30.0
1070
    42
1040
6.99999988079071
1070
    44
1040
10.0
1070
    73
1070
     0
1070
    74
1070
     0
1070
    75
1070
     0
1070
    76
1070
     1
1070
    77
1070
     1
1070
    78
1070
     8
1070
   140
1040
40.0
1070
   147
1040
0.0
1070
   173
1070
     1
1070
   176
1070
     3
1070
   177
1070
     3
1070
   178
1070
     2
1070
   271
1070
     1
1070
   277
1070
     2
1070
   279
1070
     2
1070
   280
1070
     0
1070
   287
1070
     5
1070
   340
1005
3D7
1002
}
  0
DIMENSION
  5
3FF
330
1F
100
AcDbEntity
  8
寸法
  6
CONTINUOUS
 62
     3
100
AcDbDimension
  2
*D18
 10
297.0000000000508
 20
1412.999999999997
 30
0.0
 11
273.5000000596557
 21
1365.499999999997
 31
0.0
 70
   160
  3
ISO-25
100
AcDbAlignedDimension
 13
423.749999997451
 23
1317.999999999997
 33
0.0
 14
364.0000000000508
 24
1412.999999999997
 34
0.0
 50
90.0
100
AcDbRotatedDimension
1001
ACAD
1000
DSTYLE
1002
{
1070
   270
1070
     2
1070
     6
1000
EX_NORM
1070
     7
1000
EX_NORM
1070
    41
1040
30.0
1070
    42
1040
6.99999988079071
1070
    44
1040
10.0
1070
    73
1070
     0
1070
    74
1070
     0
1070
    75
1070
     0
1070
    76
1070
     0
1070
    77
1070
     1
1070
    78
1070
     8
1070
   140
1040
40.0
1070
   147
1040
0.0
1070
   173
1070
     1
1070
   176
1070
     3
1070
   177
1070
     3
1070
   178
1070
     2
1070
   271
1070
     1
1070
   277
1070
     2
1070
   279
1070
     2
1070
   280
1070
     0
1070
   287
1070
     5
1070
   340
1005
3D7
1002
}
  0
DIMENSION
  5
40C
330
1F
100
AcDbEntity
  8
寸法
  6
CONTINUOUS
 62
     3
100
AcDbDimension
  2
*D19
 10
237.0000000000508
 20
1247.999999999997
 30
0.0
 11
213.5000000596557
 21
1330.499999999997
 31
0.0
 70
   160
  1
（165）
  3
ISO-25
100
AcDbAlignedDimension
 13
364.0000000000508
 23
1412.999999999997
 33
0.0
 14
423.7500000000509
 24
1247.999999999997
 34
0.0
 50
90.0
100
AcDbRotatedDimension
1001
ACAD
1000
DSTYLE
1002
{
1070
   270
1070
     2
1070
     6
1000
EX_NORM
1070
     7
1000
EX_NORM
1070
    41
1040
30.0
1070
    42
1040
6.99999988079071
1070
    44
1040
10.0
1070
    73
1070
     0
1070
    74
1070
     0
1070
    75
1070
     0
1070
    76
1070
     0
1070
    77
1070
     1
1070
    78
1070
     8
1070
   140
1040
40.0
1070
   147
1040
0.0
1070
   173
1070
     1
1070
   176
1070
     3
1070
   177
1070
     3
1070
   178
1070
     2
1070
   271
1070
     1
1070
   277
1070
     2
1070
   279
1070
     2
1070
   280
1070
     0
1070
   287
1070
     5
1070
   340
1005
3D7
1002
}
  0
DIMENSION
  5
419
330
1F
100
AcDbEntity
  8
寸法
  6
CONTINUOUS
 62
     3
100
AcDbDimension
  2
*D20
 10
297.0000000000508
 20
612.9999999999975
 30
0.0
 11
273.5000000596557
 21
965.499999999997
 31
0.0
 70
   160
  1
（705）
  3
ISO-25
100
AcDbAlignedDimension
 13
423.749999997451
 23
1317.999999999997
 33
0.0
 14
604.0000000000509
 24
612.9999999999975
 34
0.0
 50
90.0
100
AcDbRotatedDimension
1001
ACAD
1000
DSTYLE
1002
{
1070
   270
1070
     2
1070
     6
1000
EX_NORM
1070
     7
1000
EX_NORM
1070
    41
1040
30.0
1070
    42
1040
6.99999988079071
1070
    44
1040
10.0
1070
    73
1070
     0
1070
    74
1070
     0
1070
    75
1070
     0
1070
    76
1070
     1
1070
    77
1070
     1
1070
    78
1070
     8
1070
   140
1040
40.0
1070
   147
1040
0.0
1070
   173
1070
     1
1070
   176
1070
     3
1070
   177
1070
     3
1070
   178
1070
     2
1070
   271
1070
     1
1070
   277
1070
     2
1070
   279
1070
     2
1070
   280
1070
     0
1070
   287
1070
     5
1070
   340
1005
3D7
1002
}
  0
DIMENSION
  5
425
330
1F
100
AcDbEntity
  8
寸法
  6
CONTINUOUS
 62
     3
100
AcDbDimension
  2
*D21
 10
704.0000000000509
 20
832.9999999999975
 30
0.0
 11
604.0000000000509
 21
856.4999999403929
 31
0.0
 70
   160
  3
ISO-25
100
AcDbAlignedDimension
 13
504.0000000000508
 23
980.4999999999975
 33
0.0
 14
704.0000000000509
 24
980.4999999999975
 34
0.0
100
AcDbRotatedDimension
1001
ACAD
1000
DSTYLE
1002
{
1070
   270
1070
     2
1070
     6
1000
EX_NORM
1070
     7
1000
EX_NORM
1070
    41
1040
30.0
1070
    42
1040
0.0
1070
    44
1040
0.0
1070
    73
1070
     0
1070
    74
1070
     0
1070
    75
1070
     1
1070
    76
1070
     1
1070
    77
1070
     1
1070
    78
1070
     8
1070
   140
1040
40.0
1070
   147
1040
0.0
1070
   173
1070
     1
1070
   176
1070
     3
1070
   177
1070
     3
1070
   178
1070
     2
1070
   271
1070
     1
1070
   277
1070
     2
1070
   279
1070
     2
1070
   280
1070
     0
1070
   287
1070
     5
1070
   340
1005
3D7
1002
}
  0
DIMENSION
  5
430
330
1F
100
AcDbEntity
  8
寸法
  6
CONTINUOUS
 62
     3
100
AcDbDimension
  2
*D22
 10
1614.000000000051
 20
832.9999999999975
 30
0.0
 11
1496.500000000101
 21
856.4999999403929
 31
0.0
 70
   160
  3
ISO-25
100
AcDbAlignedDimension
 13
1379.000000000151
 23
995.3998864999969
 33
0.0
 14
1614.000000000051
 24
612.9999999999975
 34
0.0
100
AcDbRotatedDimension
1001
ACAD
1000
DSTYLE
1002
{
1070
   270
1070
     2
1070
     6
1000
EX_NORM
1070
     7
1000
EX_NORM
1070
    41
1040
30.0
1070
    42
1040
6.99999988079071
1070
    44
1040
10.0
1070
    73
1070
     0
1070
    74
1070
     0
1070
    75
1070
     0
1070
    76
1070
     1
1070
    77
1070
     1
1070
    78
1070
     8
1070
   140
1040
40.0
1070
   147
1040
0.0
1070
   173
1070
     1
1070
   176
1070
     3
1070
   177
1070
     3
1070
   178
1070
     2
1070
   271
1070
     1
1070
   277
1070
     2
1070
   279
1070
     2
1070
   280
1070
     0
1070
   287
1070
     5
1070
   340
1005
3D7
1002
}
  0
DIMENSION
  5
43C
330
1F
100
AcDbEntity
  8
寸法
  6
CONTINUOUS
 62
     3
100
AcDbDimension
  2
*D23
 10
996.0000000000509
 20
1412.999999999997
 30
0.0
 11
972.5000000596556
 21
1012.999999999997
 31
0.0
 70
   160
  3
ISO-25
100
AcDbAlignedDimension
 13
714.5000000000505
 23
612.9999999999975
 33
0.0
 14
844.0000000000509
 24
1412.999999999997
 34
0.0
 50
90.0
100
AcDbRotatedDimension
1001
ACAD
1000
DSTYLE
1002
{
1070
   270
1070
     2
1070
     6
1000
EX_NORM
1070
     7
1000
EX_NORM
1070
    41
1040
30.0
1070
    42
1040
6.99999988079071
1070
    44
1040
10.0
1070
    73
1070
     0
1070
    74
1070
     0
1070
    75
1070
     1
1070
    76
1070
     0
1070
    77
1070
     1
1070
    78
1070
     8
1070
   140
1040
40.0
1070
   147
1040
0.0
1070
   173
1070
     1
1070
   176
1070
     3
1070
   177
1070
     3
1070
   178
1070
     2
1070
   271
1070
     1
1070
   277
1070
     2
1070
   279
1070
     2
1070
   280
1070
     0
1070
   287
1070
     5
1070
   340
1005
3D7
1002
}
  0
DIMENSION
  5
448
330
1F
100
AcDbEntity
  8
寸法
  6
CONTINUOUS
 62
     3
100
AcDbDimension
  2
*D24
 10
936.0000000000509
 20
1272.999999999997
 30
0.0
 11
912.5000000596557
 21
1342.999999999997
 31
0.0
 70
   160
  3
ISO-25
100
AcDbAlignedDimension
 13
844.0000000000509
 23
1412.999999999997
 33
0.0
 14
841.1091276650509
 24
1272.999999999997
 34
0.0
 50
90.0
100
AcDbRotatedDimension
1001
ACAD
1000
DSTYLE
1002
{
1070
   270
1070
     2
1070
     6
1000
EX_NORM
1070
     7
1000
EX_NORM
1070
    41
1040
30.0
1070
    42
1040
6.99999988079071
1070
    44
1040
10.0
1070
    73
1070
     0
1070
    74
1070
     0
1070
    75
1070
     1
1070
    76
1070
     0
1070
    77
1070
     1
1070
    78
1070
     8
1070
   140
1040
40.0
1070
   147
1040
0.0
1070
   173
1070
     1
1070
   176
1070
     3
1070
   177
1070
     3
1070
   178
1070
     2
1070
   271
1070
     1
1070
   277
1070
     2
1070
   279
1070
     2
1070
   280
1070
     0
1070
   287
1070
     5
1070
   340
1005
3D7
1002
}
  0
DIMENSION
  5
454
330
1F
100
AcDbEntity
  8
寸法
  6
CONTINUOUS
 62
     3
100
AcDbDimension
  2
*D25
 10
1614.000000000051
 20
512.9999999999975
 30
0.0
 11
1754.000000000051
 21
536.4999999403929
 31
0.0
 70
   160
  1
85（床給水）
  3
ISO-25
100
AcDbAlignedDimension
 13
1529.00000000005
 23
604.9999999999975
 33
0.0
 14
1614.000000000051
 24
612.9999999999975
 34
0.0
100
AcDbRotatedDimension
1001
ACAD
1000
DSTYLE
1002
{
1070
   270
1070
     2
1070
     6
1000
EX_NORM
1070
     7
1000
EX_NORM
1070
    41
1040
30.0
1070
    42
1040
6.99999988079071
1070
    44
1040
9.999999999999943
1070
    73
1070
     0
1070
    74
1070
     0
1070
    75
1070
     0
1070
    76
1070
     0
1070
    77
1070
     1
1070
    78
1070
     8
1070
   140
1040
40.0
1070
   147
1040
0.0
1070
   173
1070
     1
1070
   176
1070
     3
1070
   177
1070
     3
1070
   178
1070
     2
1070
   271
1070
     1
1070
   277
1070
     2
1070
   279
1070
     2
1070
   280
1070
     2
1070
   287
1070
     5
1070
   340
1005
3D7
1002
}
  0
DIMENSION
  5
461
330
1F
100
AcDbEntity
  8
寸法
  6
CONTINUOUS
 62
     3
100
AcDbDimension
  2
*D26
 10
1614.000000000051
 20
452.9999999999976
 30
0.0
 11
1799.000000000051
 21
476.4999999403929
 31
0.0
 70
   160
  1
130（Ｓトラップ）
  3
ISO-25
100
AcDbAlignedDimension
 13
1484.00000000005
 23
582.9999999999975
 33
0.0
 14
1614.000000000051
 24
612.9999999999975
 34
0.0
100
AcDbRotatedDimension
1001
ACAD
1000
DSTYLE
1002
{
1070
   270
1070
     2
1070
     6
1000
EX_NORM
1070
     7
1000
EX_NORM
1070
    41
1040
30.0
1070
    42
1040
6.99999988079071
1070
    44
1040
10.0
1070
    73
1070
     0
1070
    74
1070
     0
1070
    75
1070
     0
1070
    76
1070
     0
1070
    77
1070
     1
1070
    78
1070
     8
1070
   140
1040
40.0
1070
   147
1040
0.0
1070
   173
1070
     1
1070
   176
1070
     3
1070
   177
1070
     3
1070
   178
1070
     2
1070
   271
1070
     1
1070
   277
1070
     2
1070
   279
1070
     2
1070
   280
1070
     2
1070
   287
1070
     5
1070
   340
1005
3D7
1002
}
  0
DIMENSION
  5
46E
330
1F
100
AcDbEntity
  8
寸法
  6
CONTINUOUS
 62
     3
100
AcDbDimension
  2
*D27
 10
1714.000000000051
 20
1272.999999999997
 30
0.0
 11
1690.500000059656
 21
1487.999999999997
 31
0.0
 70
   160
  1
190（ボトルトラップ）
  3
ISO-25
100
AcDbAlignedDimension
 13
1620.400000000051
 23
1082.999999999997
 33
0.0
 14
1614.000000000051
 24
1272.999999999997
 34
0.0
 50
90.0
100
AcDbRotatedDimension
1001
ACAD
1000
DSTYLE
1002
{
1070
   270
1070
     2
1070
     6
1000
EX_NORM
1070
     7
1000
EX_NORM
1070
    41
1040
30.0
1070
    42
1040
6.99999988079071
1070
    44
1040
10.0
1070
    73
1070
     0
1070
    74
1070
     0
1070
    75
1070
     0
1070
    76
1070
     0
1070
    77
1070
     1
1070
    78
1070
     8
1070
   140
1040
40.0
1070
   147
1040
0.0
1070
   173
1070
     1
1070
   176
1070
     3
1070
   177
1070
     3
1070
   178
1070
     2
1070
   271
1070
     1
1070
   277
1070
     2
1070
   279
1070
     2
1070
   280
1070
     2
1070
   287
1070
     5
1070
   340
1005
3D7
1002
}
  0
DIMENSION
  5
47B
330
1F
100
AcDbEntity
  8
寸法
  6
CONTINUOUS
 62
     3
100
AcDbDimension
  2
*D28
 10
1774.000000000051
 20
1272.999999999997
 30
0.0
 11
1750.500000059656
 21
1457.999999999997
 31
0.0
 70
   160
  1
260（Ｐトラップ）
  3
ISO-25
100
AcDbAlignedDimension
 13
1659.000000000051
 23
1012.999999999997
 33
0.0
 14
1614.000000000051
 24
1272.999999999997
 34
0.0
 50
90.0
100
AcDbRotatedDimension
1001
ACAD
1000
DSTYLE
1002
{
1070
   270
1070
     2
1070
     6
1000
EX_NORM
1070
     7
1000
EX_NORM
1070
    41
1040
30.0
1070
    42
1040
6.99999988079071
1070
    44
1040
10.0
1070
    73
1070
     0
1070
    74
1070
     0
1070
    75
1070
     0
1070
    76
1070
     0
1070
    77
1070
     1
1070
    78
1070
     8
1070
   140
1040
40.0
1070
   147
1040
0.0
1070
   173
1070
     1
1070
   176
1070
     3
1070
   177
1070
     3
1070
   178
1070
     2
1070
   271
1070
     1
1070
   277
1070
     2
1070
   279
1070
     2
1070
   280
1070
     2
1070
   287
1070
     5
1070
   340
1005
3D7
1002
}
  0
DIMENSION
  5
488
330
1F
100
AcDbEntity
  8
寸法
  6
CONTINUOUS
 62
     3
100
AcDbDimension
  2
*D29
 10
1834.000000000051
 20
1272.999999999997
 30
0.0
 11
1810.500000059656
 21
1427.999999999997
 31
0.0
 70
   160
  1
265（壁給水）
  3
ISO-25
100
AcDbAlignedDimension
 13
1622.000000000252
 23
1007.999999999997
 33
0.0
 14
1614.000000000051
 24
1272.999999999997
 34
0.0
 50
90.0
100
AcDbRotatedDimension
1001
ACAD
1000
DSTYLE
1002
{
1070
   270
1070
     2
1070
     6
1000
EX_NORM
1070
     7
1000
EX_NORM
1070
    41
1040
30.0
1070
    42
1040
6.99999988079071
1070
    44
1040
10.0
1070
    73
1070
     0
1070
    74
1070
     0
1070
    75
1070
     0
1070
    76
1070
     0
1070
    77
1070
     1
1070
    78
1070
     8
1070
   140
1040
40.0
1070
   147
1040
0.0
1070
   173
1070
     1
1070
   176
1070
     3
1070
   177
1070
     3
1070
   178
1070
     2
1070
   271
1070
     1
1070
   277
1070
     2
1070
   279
1070
     2
1070
   280
1070
     2
1070
   287
1070
     5
1070
   340
1005
3D7
1002
}
  0
TEXT
  5
495
330
1F
100
AcDbEntity
  8
寸法
  6
CONTINUOUS
 62
     2
100
AcDbText
 10
1108.000000596097
 20
1084.499999940393
 30
0.0
 40
40.0
  1
排水器具上部
  7
EXCADSTD
 72
     5
 11
1308.000000596097
 21
1084.499999940393
 31
0.0
100
AcDbText
  0
LEADER
  5
496
330
1F
100
AcDbEntity
  8
寸法
  6
CONTINUOUS
 62
     3
100
AcDbLeader
  3
ISO-25
 76
     3
 10
1363.125000000151
 20
1151.999999999997
 30
0.0
 10
1308.000000000051
 20
1080.999999999997
 30
0.0
 10
1099.000000000051
 20
1080.999999999997
 30
0.0
1001
ACAD
1000
DSTYLE
1002
{
1070
     5
1000
EX_NORM
1070
    41
1040
30.0
1070
   341
1005
4D
1002
}
  0
TEXT
  5
497
330
1F
100
AcDbEntity
  8
寸法
  6
CONTINUOUS
 62
     2
100
AcDbText
 10
1168.000000357679
 20
930.499999940393
 30
0.0
 40
40.0
  1
トラップ
 41
1.034782608695652
  7
EXCADSTD
 72
     5
 11
1304.000000357679
 21
930.499999940393
 31
0.0
100
AcDbText
  0
LEADER
  5
498
330
1F
100
AcDbEntity
  8
寸法
  6
CONTINUOUS
 62
     3
100
AcDbLeader
  3
ISO-25
 76
     3
 10
1362.250000000051
 20
1020.387443249997
 30
0.0
 10
1304.000000000051
 20
926.9999999999976
 30
0.0
 10
1174.000000000051
 20
926.9999999999976
 30
0.0
1001
ACAD
1000
DSTYLE
1002
{
1070
     5
1000
EX_NORM
1070
    41
1040
30.0
1070
   341
1005
4D
1002
}
  0
TEXT
  5
499
330
1F
100
AcDbEntity
  8
寸法
  6
CONTINUOUS
 62
     2
100
AcDbText
 10
1745.000000000051
 20
919.4999999403929
 30
0.0
 40
40.0
  1
φ３２
 41
1.070588235294118
  7
EXCADSTD
 72
     5
 11
1849.000000000051
 21
919.4999999403929
 31
0.0
100
AcDbText
  0
LEADER
  5
49A
330
1F
100
AcDbEntity
  8
寸法
  6
CONTINUOUS
 62
     3
100
AcDbLeader
  3
ISO-25
 76
     3
 10
1659.000000000051
 20
996.9999999999976
 30
0.0
 10
1745.000000000051
 20
915.9999999999975
 30
0.0
 10
1841.000000000051
 20
915.9999999999975
 30
0.0
1001
ACAD
1000
DSTYLE
1002
{
1070
     5
1000
EX_NORM
1070
    41
1040
30.0
1070
   341
1005
4D
1002
}
  0
TEXT
  5
49B
330
1F
100
AcDbEntity
  8
寸法
  6
CONTINUOUS
 62
     2
100
AcDbText
 10
1744.000000000051
 20
860.499999940393
 30
0.0
 40
40.0
  1
配管アダプター
 41
0.9902439024390244
  7
EXCADSTD
 72
     5
 11
1976.000000000051
 21
860.499999940393
 31
0.0
100
AcDbText
  0
LEADER
  5
49C
330
1F
100
AcDbEntity
  8
寸法
  6
CONTINUOUS
 62
     3
100
AcDbLeader
  3
ISO-25
 76
     3
 10
1639.000000000051
 20
987.4999999999975
 30
0.0
 10
1744.000000000051
 20
856.9999999999976
 30
0.0
 10
1971.000000000051
 20
856.9999999999976
 30
0.0
1001
ACAD
1000
DSTYLE
1002
{
1070
     5
1000
EX_NORM
1070
    41
1040
30.0
1070
   341
1005
4D
1002
}
  0
TEXT
  5
49D
330
1F
100
AcDbEntity
  8
寸法
  6
CONTINUOUS
 62
     2
100
AcDbText
 10
1739.000000000051
 20
798.4999999403929
 30
0.0
 40
40.0
  1
Ｒ１/２
 41
0.8342465753424658
  7
EXCADSTD
 72
     5
 11
1855.000000000051
 21
798.4999999403929
 31
0.0
100
AcDbText
  0
LEADER
  5
49E
330
1F
100
AcDbEntity
  8
寸法
  6
CONTINUOUS
 62
     3
100
AcDbLeader
  3
ISO-25
 76
     3
 10
1622.000000000252
 20
997.4999999999975
 30
0.0
 10
1739.000000000051
 20
794.9999999999975
 30
0.0
 10
1848.000000000051
 20
794.9999999999975
 30
0.0
1001
ACAD
1000
DSTYLE
1002
{
1070
     5
1000
EX_NORM
1070
    41
1040
30.0
1070
   341
1005
4D
1002
}
  0
TEXT
  5
49F
330
1F
100
AcDbEntity
  8
寸法
  6
CONTINUOUS
 62
     2
100
AcDbText
 10
1725.000000000051
 20
737.4999999403929
 30
0.0
 40
40.0
  1
止水栓
 41
1.070588235294118
  7
EXCADSTD
 72
     5
 11
1829.000000000051
 21
737.4999999403929
 31
0.0
100
AcDbText
  0
LEADER
  5
4A0
330
1F
100
AcDbEntity
  8
寸法
  6
CONTINUOUS
 62
     3
100
AcDbLeader
  3
ISO-25
 76
     3
 10
1530.54939145878
 20
994.4999999999951
 30
0.0
 10
1725.000000000051
 20
733.9999999999975
 30
0.0
 10
1828.000000000051
 20
733.9999999999975
 30
0.0
1001
ACAD
1000
DSTYLE
1002
{
1070
     5
1000
EX_NORM
1070
    41
1040
30.0
1070
   341
1005
4D
1002
}
  0
DIMENSION
  5
4A1
330
1F
100
AcDbEntity
  8
寸法
  6
CONTINUOUS
 62
     3
100
AcDbDimension
  2
*D30
 10
792.0000000000505
 20
1007.999999999997
 30
0.0
 11
768.5000000596551
 21
810.4999999999967
 31
0.0
 70
   160
  1
（395）
  3
ISO-25
100
AcDbAlignedDimension
 13
604.0000000000509
 23
612.9999999999975
 33
0.0
 14
731.5000000000509
 24
1007.999999999997
 34
0.0
 50
90.0
100
AcDbRotatedDimension
1001
ACAD
1000
DSTYLE
1002
{
1070
   270
1070
     2
1070
     6
1000
EX_NORM
1070
     7
1000
EX_NORM
1070
    41
1040
30.0
1070
    42
1040
6.99999988079071
1070
    44
1040
10.0
1070
    73
1070
     0
1070
    74
1070
     0
1070
    75
1070
     1
1070
    76
1070
     0
1070
    77
1070
     1
1070
    78
1070
     8
1070
   140
1040
40.0
1070
   147
1040
0.0
1070
   173
1070
     1
1070
   176
1070
     3
1070
   177
1070
     3
1070
   178
1070
     2
1070
   271
1070
     1
1070
   277
1070
     2
1070
   279
1070
     2
1070
   280
1070
     0
1070
   287
1070
     5
1070
   340
1005
3D7
1002
}
  0
ENDSEC
  0
SECTION
  2
OBJECTS
  0
DICTIONARY
  5
C
330
0
100
AcDbDictionary
  3
ACAD_GROUP
350
D
  3
ACAD_LAYOUT
350
1A
  3
ACAD_MATERIAL
350
3B
  3
ACAD_MLEADERSTYLE
350
4CF
  3
ACAD_MLINESTYLE
350
17
  3
ACAD_PLOTSETTINGS
350
19
  3
ACAD_VISUALSTYLE
350
2A
  3
ACDBHEADERROUNDTRIPXREC
350
4AD
  3
ACDBVARIABLEDICTIONARY
350
4CD
  0
DICTIONARY
  5
D
102
{ACAD_REACTORS
330
C
102
}
330
C
100
AcDbDictionary
  0
DICTIONARY
  5
1A
102
{ACAD_REACTORS
330
C
102
}
330
C
100
AcDbDictionary
  0
DICTIONARY
  5
3B
102
{ACAD_REACTORS
330
C
102
}
330
C
100
AcDbDictionary
  3
BYBLOCK
350
3D
  3
BYLAYER
350
3C
  3
GLOBAL
350
3E
  0
DICTIONARY
  5
4CF
102
{ACAD_REACTORS
330
C
102
}
330
C
100
AcDbDictionary
  0
DICTIONARY
  5
17
102
{ACAD_REACTORS
330
C
102
}
330
C
100
AcDbDictionary
  3
STANDARD
350
18
  0
DICTIONARY
  5
19
102
{ACAD_REACTORS
330
C
102
}
330
C
100
AcDbDictionary
  0
DICTIONARY
  5
2A
102
{ACAD_REACTORS
330
C
102
}
330
C
100
AcDbDictionary
  3
2DWIREFRAME
350
2F
  3
3D_HIDDEN
350
31
  3
3DWIREFRAME
350
30
  3
BASIC
350
32
  3
BRIGHTEN
350
36
  3
COLORCHANGE
350
3A
  3
CONCEPTUAL
350
34
  3
DIM
350
35
  3
FACEPATTERN
350
39
  3
FLAT
350
2B
  3
FLATWITHEDGES
350
2C
  3
GOURAUD
350
2D
  3
GOURAUDWITHEDGES
350
2E
  3
LINEPATTERN
350
38
  3
REALISTIC
350
33
  3
THICKEN
350
37
  0
DICTIONARY
  5
4AD
102
{ACAD_REACTORS
330
C
102
}
330
C
100
AcDbDictionary
  3
CEPSNTYPE
350
4B6
  3
DIMSTYLEDATA
350
4CC
  3
FINGERPRINTGUID
350
4B7
  3
HYPERLINKBASE
350
4B0
  3
INSUNITS
350
4B5
  3
LAYOUTDICT
350
4B2
  3
LWETCUNION
350
4B4
  3
PLOTSETDICT
350
4B3
  3
PSVPSCALE
350
4B9
  3
PUCSBASE
350
4BC
  3
PUCSORGBACK
350
4C2
  3
PUCSORGBOTTOM
350
4BE
  3
PUCSORGFRONT
350
4C1
  3
PUCSORGLEFT
350
4BF
  3
PUCSORGRIGHT
350
4C0
  3
PUCSORGTOP
350
4BD
  3
PUCSORTHOREF
350
4BA
  3
PUCSORTHOVIEW
350
4BB
  3
STYLESHEET
350
4B1
  3
TSTACKALIGN
350
4AE
  3
TSTACKSIZE
350
4AF
  3
UCSBASE
350
4C5
  3
UCSORGBACK
350
4CB
  3
UCSORGBOTTOM
350
4C7
  3
UCSORGFRONT
350
4CA
  3
UCSORGLEFT
350
4C8
  3
UCSORGRIGHT
350
4C9
  3
UCSORGTOP
350
4C6
  3
UCSORTHOREF
350
4C3
  3
UCSORTHOVIEW
350
4C4
  3
VERSIONGUID
350
4B8
  0
DICTIONARY
  5
4CD
102
{ACAD_REACTORS
330
C
102
}
330
C
100
AcDbDictionary
  3
DIMASSOC
350
4D2
  3
HIDETEXT
350
4D3
  3
PSOLHEIGHT
350
4D1
  3
PSOLWIDTH
350
4D0
  0
MATERIAL
  5
3D
102
{ACAD_REACTORS
330
3B
102
}
102
{ACAD_XDICTIONARY
360
4D6
102
}
330
3B
100
AcDbMaterial
  1
ByBlock
  0
MATERIAL
  5
3C
102
{ACAD_REACTORS
330
3B
102
}
102
{ACAD_XDICTIONARY
360
4D4
102
}
330
3B
100
AcDbMaterial
  1
ByLayer
  0
MATERIAL
  5
3E
102
{ACAD_REACTORS
330
3B
102
}
102
{ACAD_XDICTIONARY
360
4D8
102
}
330
3B
100
AcDbMaterial
  1
Global
  0
MLINESTYLE
  5
18
102
{ACAD_REACTORS
330
17
102
}
330
17
100
AcDbMlineStyle
  2
Standard
 70
     0
  3

 62
   256
 51
90.0
 52
90.0
 71
     2
 49
0.5
 62
   256
  6
BYLAYER
 49
-0.5
 62
   256
  6
BYLAYER
  0
ACAD_PROXY_OBJECT
  5
2F
102
{ACAD_REACTORS
330
2A
102
}
330
2A
100
AcDbProxyObject
 90
      499
 91
      501
 93
      436
310
42CC9915DA5C99599C985B595049028333333333333E3BF0000000000000FB0107901411070040501600405405064090741402480A0340
1001
ACAD
1000
AcDbSavedByObjectVersion
1070
     0
  0
ACAD_PROXY_OBJECT
  5
31
102
{ACAD_REACTORS
330
2A
102
}
330
2A
100
AcDbProxyObject
 90
      499
 91
      501
 93
      500
310
424CD108121A5919195B90640502408333333333333E3BF0000000000000FB01079024090700405020000000000001110200405405064090740C02480A0340
1001
ACAD
1000
AcDbSavedByObjectVersion
1070
     0
  0
ACAD_PROXY_OBJECT
  5
30
102
{ACAD_REACTORS
330
2A
102
}
330
2A
100
AcDbProxyObject
 90
      499
 91
      501
 93
      436
310
42CCD915DA5C99599C985B595059028333333333333E3BF0000000000000FB0107901411070040501600405405064090741402480A0340
1001
ACAD
1000
AcDbSavedByObjectVersion
1070
     0
  0
ACAD_PROXY_OBJECT
  5
32
102
{ACAD_REACTORS
330
2A
102
}
330
2A
100
AcDbProxyObject
 90
      499
 91
      501
 93
      388
310
4150985CDA58D07406404333333333333E3BF0000000000000FB0107A41107004050150841D405064090741402480A0350
1001
ACAD
1000
AcDbSavedByObjectVersion
1070
     0
  0
ACAD_PROXY_OBJECT
  5
36
102
{ACAD_REACTORS
330
2A
102
}
330
2A
100
AcDbProxyObject
 90
      499
 91
      501
 93
      428
310
42109C9A59DA1D195B90C409028333333333333E3BF0000000000000FB010790141107004050150841D405064090741402480A029950
1001
ACAD
1000
AcDbSavedByObjectVersion
1070
     0
  0
ACAD_PROXY_OBJECT
  5
3A
102
{ACAD_REACTORS
330
2A
102
}
330
2A
100
AcDbProxyObject
 90
      499
 91
      501
 93
      452
310
42D0DBDB1BDC90DA185B99D95104090240C333333333333E3BF0000000000000FB0108901411070040501508421405064090741402480A0350
1001
ACAD
1000
AcDbSavedByObjectVersion
1070
     0
  0
ACAD_PROXY_OBJECT
  5
34
102
{ACAD_REACTORS
330
2A
102
}
330
2A
100
AcDbProxyObject
 90
      499
 91
      501
 93
      500
310
4290DBDB98D95C1D1D585B10940D028333333333333E3BF0000000000000FB0107902409070040501000000000000111010841D405064090740C02480A0340
1001
ACAD
1000
AcDbSavedByObjectVersion
1070
     0
  0
ACAD_PROXY_OBJECT
  5
35
102
{ACAD_REACTORS
330
2A
102
}
330
2A
100
AcDbProxyObject
 90
      499
 91
      501
 93
      412
310
40D11A5B50B409028333333333333E3BF0000000000000FB010790141107004050150841D405064090741402480A02677FFFFFD0
1001
ACAD
1000
AcDbSavedByObjectVersion
1070
     0
  0
ACAD_PROXY_OBJECT
  5
39
102
{ACAD_REACTORS
330
2A
102
}
330
2A
100
AcDbProxyObject
 90
      499
 91
      501
 93
      444
310
42D19858D95C185D1D195C9B90F409028333333333333E3BF0000000000000FB010790141107004050150841D405064090741402480A0350
1001
ACAD
1000
AcDbSavedByObjectVersion
1070
     0
  0
ACAD_PROXY_OBJECT
  5
2B
102
{ACAD_REACTORS
330
2A
102
}
330
2A
100
AcDbProxyObject
 90
      499
 91
      501
 93
      388
310
41119B185D240901404333333333333E3BF0000000000000F9010740A41107004050150841D405064090741402480A1B50
1001
ACAD
1000
AcDbSavedByObjectVersion
1070
     0
  0
ACAD_PROXY_OBJECT
  5
2C
102
{ACAD_REACTORS
330
2A
102
}
330
2A
100
AcDbProxyObject
 90
      499
 91
      501
 93
      476
310
43519B185D15DA5D1A115919D95CD0140901404333333333333E3BF0000000000000F9010740901411070040501600405405064090741402480A1B50
1001
ACAD
1000
AcDbSavedByObjectVersion
1070
     0
  0
ACAD_PROXY_OBJECT
  5
2D
102
{ACAD_REACTORS
330
2A
102
}
330
2A
100
AcDbProxyObject
 90
      499
 91
      501
 93
      412
310
41D1DBDD5C985D5910240902404333333333333E3BF0000000000000F9010740A411070040501641D405064090741402480A1B50
1001
ACAD
1000
AcDbSavedByObjectVersion
1070
     0
  0
ACAD_PROXY_OBJECT
  5
2E
102
{ACAD_REACTORS
330
2A
102
}
330
2A
100
AcDbProxyObject
 90
      499
 91
      501
 93
      500
310
4411DBDD5C985D5915DA5D1A115919D95CD0340902404333333333333E3BF0000000000000F9010740901411070040501600405405064090741402480A1B50
1001
ACAD
1000
AcDbSavedByObjectVersion
1070
     0
  0
ACAD_PROXY_OBJECT
  5
38
102
{ACAD_REACTORS
330
2A
102
}
330
2A
100
AcDbProxyObject
 90
      499
 91
      501
 93
      444
310
42D31A5B995C185D1D195C9B90E409028333333333333E3BF0000000000000FB010790141107004050750841D405064090741402483A0350
1001
ACAD
1000
AcDbSavedByObjectVersion
1070
     0
  0
ACAD_PROXY_OBJECT
  5
33
102
{ACAD_REACTORS
330
2A
102
}
330
2A
100
AcDbProxyObject
 90
      499
 91
      501
 93
      420
310
425499585B1A5CDD1A58D08409028333333333333E3BF0000000000000FB01079019070040501508421405064090741402480A1B40
1001
ACAD
1000
AcDbSavedByObjectVersion
1070
     0
  0
ACAD_PROXY_OBJECT
  5
37
102
{ACAD_REACTORS
330
2A
102
}
330
2A
100
AcDbProxyObject
 90
      499
 91
      501
 93
      412
310
41D51A1A58DAD95B90D409028333333333333E3BF0000000000000FB010790141107004050150C41D405064090741402480A0350
1001
ACAD
1000
AcDbSavedByObjectVersion
1070
     0
  0
XRECORD
  5
4B6
102
{ACAD_REACTORS
330
4AD
102
}
330
4AD
100
AcDbXrecord
 90
        0
  0
XRECORD
  5
4CC
102
{ACAD_REACTORS
330
4AD
102
}
330
4AD
100
AcDbXrecord
1000
DSTYLE
1002
{
1070
   340
340
11
1002
}
  0
XRECORD
  5
4B7
102
{ACAD_REACTORS
330
4AD
102
}
330
4AD
100
AcDbXrecord
  1
{6453AC3A-F22B-45AD-90F7-DC6095D65999}
  0
XRECORD
  5
4B0
102
{ACAD_REACTORS
330
4AD
102
}
330
4AD
100
AcDbXrecord
  1

  0
XRECORD
  5
4B5
102
{ACAD_REACTORS
330
4AD
102
}
330
4AD
100
AcDbXrecord
 90
        4
  0
XRECORD
  5
4B2
102
{ACAD_REACTORS
330
4AD
102
}
330
4AD
100
AcDbXrecord
340
1A
  0
XRECORD
  5
4B4
102
{ACAD_REACTORS
330
4AD
102
}
330
4AD
100
AcDbXrecord
 90
    10781
  0
XRECORD
  5
4B3
102
{ACAD_REACTORS
330
4AD
102
}
330
4AD
100
AcDbXrecord
340
19
  0
XRECORD
  5
4B9
102
{ACAD_REACTORS
330
4AD
102
}
330
4AD
100
AcDbXrecord
 40
0.0
  0
XRECORD
  5
4BC
102
{ACAD_REACTORS
330
4AD
102
}
330
4AD
100
AcDbXrecord
340
0
  0
XRECORD
  5
4C2
102
{ACAD_REACTORS
330
4AD
102
}
330
4AD
100
AcDbXrecord
 10
0.0
 20
0.0
 30
0.0
  0
XRECORD
  5
4BE
102
{ACAD_REACTORS
330
4AD
102
}
330
4AD
100
AcDbXrecord
 10
0.0
 20
0.0
 30
0.0
  0
XRECORD
  5
4C1
102
{ACAD_REACTORS
330
4AD
102
}
330
4AD
100
AcDbXrecord
 10
0.0
 20
0.0
 30
0.0
  0
XRECORD
  5
4BF
102
{ACAD_REACTORS
330
4AD
102
}
330
4AD
100
AcDbXrecord
 10
0.0
 20
0.0
 30
0.0
  0
XRECORD
  5
4C0
102
{ACAD_REACTORS
330
4AD
102
}
330
4AD
100
AcDbXrecord
 10
0.0
 20
0.0
 30
0.0
  0
XRECORD
  5
4BD
102
{ACAD_REACTORS
330
4AD
102
}
330
4AD
100
AcDbXrecord
 10
0.0
 20
0.0
 30
0.0
  0
XRECORD
  5
4BA
102
{ACAD_REACTORS
330
4AD
102
}
330
4AD
100
AcDbXrecord
340
0
  0
XRECORD
  5
4BB
102
{ACAD_REACTORS
330
4AD
102
}
330
4AD
100
AcDbXrecord
 70
     0
  0
XRECORD
  5
4B1
102
{ACAD_REACTORS
330
4AD
102
}
330
4AD
100
AcDbXrecord
  1

  0
XRECORD
  5
4AE
102
{ACAD_REACTORS
330
4AD
102
}
330
4AD
100
AcDbXrecord
 90
        1
  0
XRECORD
  5
4AF
102
{ACAD_REACTORS
330
4AD
102
}
330
4AD
100
AcDbXrecord
 90
       70
  0
XRECORD
  5
4C5
102
{ACAD_REACTORS
330
4AD
102
}
330
4AD
100
AcDbXrecord
340
0
  0
XRECORD
  5
4CB
102
{ACAD_REACTORS
330
4AD
102
}
330
4AD
100
AcDbXrecord
 10
0.0
 20
0.0
 30
0.0
  0
XRECORD
  5
4C7
102
{ACAD_REACTORS
330
4AD
102
}
330
4AD
100
AcDbXrecord
 10
0.0
 20
0.0
 30
0.0
  0
XRECORD
  5
4CA
102
{ACAD_REACTORS
330
4AD
102
}
330
4AD
100
AcDbXrecord
 10
0.0
 20
0.0
 30
0.0
  0
XRECORD
  5
4C8
102
{ACAD_REACTORS
330
4AD
102
}
330
4AD
100
AcDbXrecord
 10
0.0
 20
0.0
 30
0.0
  0
XRECORD
  5
4C9
102
{ACAD_REACTORS
330
4AD
102
}
330
4AD
100
AcDbXrecord
 10
0.0
 20
0.0
 30
0.0
  0
XRECORD
  5
4C6
102
{ACAD_REACTORS
330
4AD
102
}
330
4AD
100
AcDbXrecord
 10
0.0
 20
0.0
 30
0.0
  0
XRECORD
  5
4C3
102
{ACAD_REACTORS
330
4AD
102
}
330
4AD
100
AcDbXrecord
340
0
  0
XRECORD
  5
4C4
102
{ACAD_REACTORS
330
4AD
102
}
330
4AD
100
AcDbXrecord
 70
     0
  0
XRECORD
  5
4B8
102
{ACAD_REACTORS
330
4AD
102
}
330
4AD
100
AcDbXrecord
  1
{FAEB1C32-E019-11D5-929B-00C0DF256EC4}
  0
DICTIONARYVAR
  5
4D2
102
{ACAD_REACTORS
330
4CD
102
}
330
4CD
100
DictionaryVariables
280
     0
  1
2
  0
DICTIONARYVAR
  5
4D3
102
{ACAD_REACTORS
330
4CD
102
}
330
4CD
100
DictionaryVariables
280
     0
  1
1
  0
DICTIONARYVAR
  5
4D1
102
{ACAD_REACTORS
330
4CD
102
}
330
4CD
100
DictionaryVariables
280
     0
  1
80.000000
  0
DICTIONARYVAR
  5
4D0
102
{ACAD_REACTORS
330
4CD
102
}
330
4CD
100
DictionaryVariables
280
     0
  1
5.000000
  0
DICTIONARY
  5
4D6
330
3D
100
AcDbDictionary
280
     1
  3
ACAD_XREC_ROUNDTRIP
360
4D7
  0
DICTIONARY
  5
4D4
330
3C
100
AcDbDictionary
280
     1
  3
ACAD_XREC_ROUNDTRIP
360
4D5
  0
DICTIONARY
  5
4D8
330
3E
100
AcDbDictionary
280
     1
  3
ACAD_XREC_ROUNDTRIP
360
4D9
  0
XRECORD
  5
4D7
102
{ACAD_REACTORS
330
4D6
102
}
330
4D6
100
AcDbXrecord
102
MATERIAL
148
0.0
149
0.0
149
0.0
 93
        0
 94
      127
282
     0
 72
     1
 77
     1
171
     1
175
     1
179
     1
273
     0
  0
XRECORD
  5
4D5
102
{ACAD_REACTORS
330
4D4
102
}
330
4D4
100
AcDbXrecord
102
MATERIAL
148
0.0
149
0.0
149
0.0
 93
        0
 94
      127
282
     0
 72
     1
 77
     1
171
     1
175
     1
179
     1
273
     0
  0
XRECORD
  5
4D9
102
{ACAD_REACTORS
330
4D8
102
}
330
4D8
100
AcDbXrecord
102
MATERIAL
148
0.0
149
0.0
149
0.0
 93
        0
 94
      127
282
     0
 72
     1
 77
     1
171
     1
175
     1
179
     1
273
     0
  0
ENDSEC
  0
EOF
