  0
SECTION
  2
HEADER
  9
$ACADVER
  1
AC1014
  9
$ACADMAINTVER
 70
     9
  9
$DWGCODEPAGE
  3
ANSI_932
  9
$INSBASE
 10
0.0
 20
0.0
 30
0.0
  9
$EXTMIN
 10
17.39999999999998
 20
9.299999999999955
 30
0.0
  9
$EXTMAX
 10
199.4000000000002
 20
289.3
 30
0.0
  9
$LIMMIN
 10
0.0
 20
0.0
  9
$LIMMAX
 10
210.0
 20
297.0
  9
$ORTHOMODE
 70
     0
  9
$REGENMODE
 70
     1
  9
$FILLMODE
 70
     1
  9
$QTEXTMODE
 70
     0
  9
$MIRRTEXT
 70
     1
  9
$DRAGMODE
 70
     2
  9
$LTSCALE
 40
1.0
  9
$OSMODE
 70
    37
  9
$ATTMODE
 70
     1
  9
$TEXTSIZE
 40
2.5
  9
$TRACEWID
 40
1.0
  9
$TEXTSTYLE
  7
STANDARD
  9
$CLAYER
  8
化粧台
  9
$CELTYPE
  6
BYLAYER
  9
$CECOLOR
 62
   256
  9
$CELTSCALE
 40
1.0
  9
$DELOBJ
 70
     1
  9
$DISPSILH
 70
     0
  9
$DIMSCALE
 40
1.0
  9
$DIMASZ
 40
2.5
  9
$DIMEXO
 40
0.625
  9
$DIMDLI
 40
3.75
  9
$DIMRND
 40
0.0
  9
$DIMDLE
 40
0.0
  9
$DIMEXE
 40
1.25
  9
$DIMTP
 40
0.0
  9
$DIMTM
 40
0.0
  9
$DIMTXT
 40
2.5
  9
$DIMCEN
 40
2.5
  9
$DIMTSZ
 40
0.0
  9
$DIMTOL
 70
     0
  9
$DIMLIM
 70
     0
  9
$DIMTIH
 70
     0
  9
$DIMTOH
 70
     0
  9
$DIMSE1
 70
     0
  9
$DIMSE2
 70
     0
  9
$DIMTAD
 70
     1
  9
$DIMZIN
 70
     8
  9
$DIMBLK
  1

  9
$DIMASO
 70
     1
  9
$DIMSHO
 70
     1
  9
$DIMPOST
  1

  9
$DIMAPOST
  1

  9
$DIMALT
 70
     0
  9
$DIMALTD
 70
     3
  9
$DIMALTF
 40
0.03937007874016
  9
$DIMLFAC
 40
1.0
  9
$DIMTOFL
 70
     1
  9
$DIMTVP
 40
0.0
  9
$DIMTIX
 70
     0
  9
$DIMSOXD
 70
     0
  9
$DIMSAH
 70
     0
  9
$DIMBLK1
  1

  9
$DIMBLK2
  1

  9
$DIMSTYLE
  2
ISO-25
  9
$DIMCLRD
 70
     0
  9
$DIMCLRE
 70
     0
  9
$DIMCLRT
 70
     0
  9
$DIMTFAC
 40
1.0
  9
$DIMGAP
 40
0.625
  9
$DIMJUST
 70
     0
  9
$DIMSD1
 70
     0
  9
$DIMSD2
 70
     0
  9
$DIMTOLJ
 70
     0
  9
$DIMTZIN
 70
     8
  9
$DIMALTZ
 70
     0
  9
$DIMALTTZ
 70
     0
  9
$DIMFIT
 70
     3
  9
$DIMUPT
 70
     0
  9
$DIMUNIT
 70
     2
  9
$DIMDEC
 70
     2
  9
$DIMTDEC
 70
     2
  9
$DIMALTU
 70
     2
  9
$DIMALTTD
 70
     3
  9
$DIMTXSTY
  7
STANDARD
  9
$DIMAUNIT
 70
     0
  9
$LUNITS
 70
     2
  9
$LUPREC
 70
     4
  9
$SKETCHINC
 40
1.0
  9
$FILLETRAD
 40
10.0
  9
$AUNITS
 70
     0
  9
$AUPREC
 70
     0
  9
$MENU
  1
.
  9
$ELEVATION
 40
0.0
  9
$PELEVATION
 40
0.0
  9
$THICKNESS
 40
0.0
  9
$LIMCHECK
 70
     0
  9
$CHAMFERA
 40
10.0
  9
$CHAMFERB
 40
10.0
  9
$CHAMFERC
 40
20.0
  9
$CHAMFERD
 40
0.0
  9
$SKPOLY
 70
     0
  9
$TDCREATE
 40
2460046.462473912
  9
$TDUPDATE
 40
2460046.462474086
  9
$TDINDWG
 40
0.0000000116
  9
$TDUSRTIMER
 40
0.0000000116
  9
$USRTIMER
 70
     1
  9
$ANGBASE
 50
0.0
  9
$ANGDIR
 70
     0
  9
$PDMODE
 70
     0
  9
$PDSIZE
 40
0.0
  9
$PLINEWID
 40
0.0
  9
$COORDS
 70
     1
  9
$SPLFRAME
 70
     0
  9
$SPLINETYPE
 70
     6
  9
$SPLINESEGS
 70
     8
  9
$ATTDIA
 70
     0
  9
$ATTREQ
 70
     1
  9
$HANDLING
 70
     1
  9
$HANDSEED
  5
662
  9
$SURFTAB1
 70
     6
  9
$SURFTAB2
 70
     6
  9
$SURFTYPE
 70
     6
  9
$SURFU
 70
     6
  9
$SURFV
 70
     6
  9
$UCSNAME
  2

  9
$UCSORG
 10
0.0
 20
0.0
 30
0.0
  9
$UCSXDIR
 10
1.0
 20
0.0
 30
0.0
  9
$UCSYDIR
 10
0.0
 20
1.0
 30
0.0
  9
$PUCSNAME
  2

  9
$PUCSORG
 10
0.0
 20
0.0
 30
0.0
  9
$PUCSXDIR
 10
1.0
 20
0.0
 30
0.0
  9
$PUCSYDIR
 10
0.0
 20
1.0
 30
0.0
  9
$USERI1
 70
     0
  9
$USERI2
 70
     0
  9
$USERI3
 70
     0
  9
$USERI4
 70
     0
  9
$USERI5
 70
     0
  9
$USERR1
 40
0.0
  9
$USERR2
 40
0.0
  9
$USERR3
 40
0.0
  9
$USERR4
 40
0.0
  9
$USERR5
 40
0.0
  9
$WORLDVIEW
 70
     1
  9
$SHADEDGE
 70
     3
  9
$SHADEDIF
 70
    70
  9
$TILEMODE
 70
     1
  9
$MAXACTVP
 70
    64
  9
$PINSBASE
 10
0.0
 20
0.0
 30
0.0
  9
$PLIMCHECK
 70
     0
  9
$PEXTMIN
 10
1.000000000000000E+20
 20
1.000000000000000E+20
 30
1.000000000000000E+20
  9
$PEXTMAX
 10
-1.000000000000000E+20
 20
-1.000000000000000E+20
 30
-1.000000000000000E+20
  9
$PLIMMIN
 10
0.0
 20
0.0
  9
$PLIMMAX
 10
420.0
 20
297.0
  9
$UNITMODE
 70
     0
  9
$VISRETAIN
 70
     1
  9
$PLINEGEN
 70
     0
  9
$PSLTSCALE
 70
     1
  9
$TREEDEPTH
 70
  3020
  9
$PICKSTYLE
 70
     1
  9
$CMLSTYLE
  2
STANDARD
  9
$CMLJUST
 70
     0
  9
$CMLSCALE
 40
20.0
  9
$PROXYGRAPHICS
 70
     1
  9
$MEASUREMENT
 70
     1
  0
ENDSEC
  0
SECTION
  2
CLASSES
  0
CLASS
  1
ACDBDICTIONARYWDFLT
  2
AcDbDictionaryWithDefault
  3
ObjectDBX Classes
 90
        0
280
     0
281
     0
  0
CLASS
  1
VISUALSTYLE
  2
AcDbVisualStyle
  3
ObjectDBX Classes
 90
     4095
280
     0
281
     0
  0
CLASS
  1
MATERIAL
  2
AcDbMaterial
  3
ObjectDBX Classes
 90
     1153
280
     0
281
     0
  0
CLASS
  1
SUN
  2
AcDbSun
  3
SCENEOE
 90
     1024
280
     0
281
     0
  0
CLASS
  1
DICTIONARYVAR
  2
AcDbDictionaryVar
  3
ObjectDBX Classes
 90
        0
280
     0
281
     0
  0
CLASS
  1
XRECORD
  2
AcDbXrecord
  3
AutoCAD 2000
 90
        0
280
     0
281
     0
  0
CLASS
  1
LWPOLYLINE
  2
AcDbPolyline
  3
AutoCAD 2000
 90
        0
280
     0
281
     1
  0
CLASS
  1
HATCH
  2
AcDbHatch
  3
AutoCAD 2000
 90
        0
280
     0
281
     1
  0
CLASS
  1
ACDBPLACEHOLDER
  2
AcDbPlaceHolder
  3
ObjectDBX Classes
 90
        0
280
     0
281
     0
  0
CLASS
  1
LAYOUT
  2
AcDbLayout
  3
ObjectDBX Classes
 90
        0
280
     0
281
     0
  0
ENDSEC
  0
SECTION
  2
TABLES
  0
TABLE
  2
VPORT
  5
8
330
0
100
AcDbSymbolTable
 70
     1
  0
VPORT
  5
29
330
8
100
AcDbSymbolTableRecord
100
AcDbViewportTableRecord
  2
*ACTIVE
 70
     0
 10
0.0
 20
0.0
 11
1.0
 21
1.0
 12
1084.000000000001
 22
1493.0
 13
0.0
 23
0.0
 14
10.0
 24
10.0
 15
10.0
 25
10.0
 16
0.0
 26
0.0
 36
1.0
 17
0.0
 27
0.0
 37
0.0
 40
2800.0
 41
0.6500000000000007
 42
50.0
 43
0.0
 44
0.0
 50
0.0
 51
0.0
 71
     0
 72
  1000
 73
     1
 74
     3
 75
     0
 76
     0
 77
     0
 78
     0
  0
ENDTAB
  0
TABLE
  2
LTYPE
  5
5
330
0
100
AcDbSymbolTable
 70
     7
  0
LTYPE
  5
14
330
5
100
AcDbSymbolTableRecord
100
AcDbLinetypeTableRecord
  2
BYBLOCK
 70
     0
  3

 72
    65
 73
     0
 40
0.0
  0
LTYPE
  5
15
330
5
100
AcDbSymbolTableRecord
100
AcDbLinetypeTableRecord
  2
BYLAYER
 70
     0
  3

 72
    65
 73
     0
 40
0.0
  0
LTYPE
  5
16
330
5
100
AcDbSymbolTableRecord
100
AcDbLinetypeTableRecord
  2
CONTINUOUS
 70
     0
  3
Solid line
 72
    65
 73
     0
 40
0.0
  0
LTYPE
  5
40
330
5
100
AcDbSymbolTableRecord
100
AcDbLinetypeTableRecord
  2
EXLTYPE1
 70
     0
  3
破線
 72
    65
 73
     2
 40
3.0
 49
2.0
 74
     0
 49
-1.0
 74
     0
  0
LTYPE
  5
41
330
5
100
AcDbSymbolTableRecord
100
AcDbLinetypeTableRecord
  2
EXLTYPE2
 70
     0
  3
点線
 72
    65
 73
     2
 40
2.0
 49
1.0
 74
     0
 49
-1.0
 74
     0
  0
LTYPE
  5
42
330
5
100
AcDbSymbolTableRecord
100
AcDbLinetypeTableRecord
  2
EXLTYPE3
 70
     0
  3
一点鎖線
 72
    65
 73
     4
 40
10.0
 49
7.0
 74
     0
 49
-1.0
 74
     0
 49
1.0
 74
     0
 49
-1.0
 74
     0
  0
LTYPE
  5
43
330
5
100
AcDbSymbolTableRecord
100
AcDbLinetypeTableRecord
  2
EXLTYPE4
 70
     0
  3
二点鎖線
 72
    65
 73
     6
 40
12.0
 49
7.0
 74
     0
 49
-1.0
 74
     0
 49
1.0
 74
     0
 49
-1.0
 74
     0
 49
1.0
 74
     0
 49
-1.0
 74
     0
  0
LTYPE
  5
44
330
5
100
AcDbSymbolTableRecord
100
AcDbLinetypeTableRecord
  2
EXLTYPE5
 70
     0
  3
三点鎖線
 72
    65
 73
     8
 40
37.0
 49
30.0
 74
     0
 49
-1.0
 74
     0
 49
1.0
 74
     0
 49
-1.0
 74
     0
 49
1.0
 74
     0
 49
-1.0
 74
     0
 49
1.0
 74
     0
 49
-1.0
 74
     0
  0
LTYPE
  5
45
330
5
100
AcDbSymbolTableRecord
100
AcDbLinetypeTableRecord
  2
EXLTYPE6
 70
     0
  3
四点鎖線
 72
    65
 73
    10
 40
39.0
 49
30.0
 74
     0
 49
-1.0
 74
     0
 49
1.0
 74
     0
 49
-1.0
 74
     0
 49
1.0
 74
     0
 49
-1.0
 74
     0
 49
1.0
 74
     0
 49
-1.0
 74
     0
 49
1.0
 74
     0
 49
-1.0
 74
     0
  0
ENDTAB
  0
TABLE
  2
LAYER
  5
2
330
0
100
AcDbSymbolTable
 70
     4
  0
LAYER
  5
10
330
2
100
AcDbSymbolTableRecord
100
AcDbLayerTableRecord
  2
0
 70
     0
 62
     7
  6
CONTINUOUS
  0
LAYER
  5
48
330
2
100
AcDbSymbolTableRecord
100
AcDbLayerTableRecord
  2
枠_表
 70
     0
 62
     7
  6
CONTINUOUS
  0
LAYER
  5
49
330
2
100
AcDbSymbolTableRecord
100
AcDbLayerTableRecord
  2
化粧台
 70
     0
 62
     7
  6
CONTINUOUS
  0
LAYER
  5
262
330
2
100
AcDbSymbolTableRecord
100
AcDbLayerTableRecord
  2
DEFPOINTS
 70
     0
 62
     7
  6
CONTINUOUS
  0
ENDTAB
  0
TABLE
  2
STYLE
  5
3
330
0
100
AcDbSymbolTable
 70
     5
  0
STYLE
  5
11
330
3
100
AcDbSymbolTableRecord
100
AcDbTextStyleTableRecord
  2
STANDARD
 70
     0
 40
0.0
 41
1.0
 50
0.0
 71
     0
 42
2.5
  3
monotxt
  4
extfont
  0
STYLE
  5
46
330
3
100
AcDbSymbolTableRecord
100
AcDbTextStyleTableRecord
  2
EXCADSTD
 70
     0
 40
0.0
 41
1.0
 50
0.0
 71
     0
 42
0.2
  3
monotxt
  4
extfont
  0
STYLE
  5
47
330
3
100
AcDbSymbolTableRecord
100
AcDbTextStyleTableRecord
  2
EXCADVERT
 70
     4
 40
0.0
 41
1.0
 50
0.0
 71
     0
 42
0.286885
  3
monotxt
  4
extfont
  0
STYLE
  5
AC
330
3
100
AcDbSymbolTableRecord
100
AcDbTextStyleTableRecord
  2
EXCADTTF1
 70
     0
 40
0.0
 41
1.0
 50
0.0
 71
     0
 42
0.2
  3
MSGOTHIC.TTC
  4

1001
ACAD
1000
MS Gothic
1071
    32817
  0
STYLE
  5
260
330
3
100
AcDbSymbolTableRecord
100
AcDbTextStyleTableRecord
  2
EXCADDIM1
 70
     0
 40
0.0
 41
0.84
 50
0.0
 71
     0
 42
0.2
  3
monotxt
  4
extfont
  0
ENDTAB
  0
TABLE
  2
VIEW
  5
6
330
0
100
AcDbSymbolTable
 70
     0
  0
ENDTAB
  0
TABLE
  2
UCS
  5
7
330
0
100
AcDbSymbolTable
 70
     0
  0
ENDTAB
  0
TABLE
  2
APPID
  5
9
330
0
100
AcDbSymbolTable
 70
     1
  0
APPID
  5
12
330
9
100
AcDbSymbolTableRecord
100
AcDbRegAppTableRecord
  2
ACAD
 70
     0
  0
ENDTAB
  0
TABLE
  2
DIMSTYLE
  5
A
330
0
100
AcDbSymbolTable
 70
     1
  0
DIMSTYLE
105
27
102
{ACAD_REACTORS
330
261
330
272
330
420
330
42D
330
55D
330
5A5
330
5B2
102
}
330
A
100
AcDbSymbolTableRecord
100
AcDbDimStyleTableRecord
  2
ISO-25
 70
     0
  3

  4

  5

  6

  7

 40
1.0
 41
2.5
 42
0.625
 43
3.75
 44
1.25
 45
0.0
 46
0.0
 47
0.0
 48
0.0
140
2.5
141
2.5
142
0.0
143
0.03937007874016
144
1.0
145
0.0
146
1.0
147
0.625
 71
     0
 72
     0
 73
     0
 74
     0
 75
     0
 76
     0
 77
     1
 78
     8
170
     0
171
     3
172
     1
173
     0
174
     0
175
     0
176
     0
177
     0
178
     0
270
     2
271
     2
272
     2
273
     2
274
     3
340
11
275
     0
280
     0
281
     0
282
     0
283
     0
284
     8
285
     0
286
     0
287
     5
288
     0
  0
ENDTAB
  0
TABLE
  2
BLOCK_RECORD
  5
1
330
0
100
AcDbSymbolTable
 70
    22
  0
BLOCK_RECORD
  5
1F
330
1
100
AcDbSymbolTableRecord
100
AcDbBlockTableRecord
  2
*MODEL_SPACE
  0
BLOCK_RECORD
  5
1B
330
1
100
AcDbSymbolTableRecord
100
AcDbBlockTableRecord
  2
*PAPER_SPACE
  0
BLOCK_RECORD
  5
4A
330
1
100
AcDbSymbolTableRecord
100
AcDbBlockTableRecord
  2
EX_NORM
  0
BLOCK_RECORD
  5
4D
330
1
100
AcDbSymbolTableRecord
100
AcDbBlockTableRecord
  2
EX_BNORM
  0
BLOCK_RECORD
  5
50
330
1
100
AcDbSymbolTableRecord
100
AcDbBlockTableRecord
  2
EX_BCIR
  0
BLOCK_RECORD
  5
53
330
1
100
AcDbSymbolTableRecord
100
AcDbBlockTableRecord
  2
EX_RCIVIL
  0
BLOCK_RECORD
  5
56
330
1
100
AcDbSymbolTableRecord
100
AcDbBlockTableRecord
  2
EX_SLANT
  0
BLOCK_RECORD
  5
59
330
1
100
AcDbSymbolTableRecord
100
AcDbBlockTableRecord
  2
EX_NONE
  0
BLOCK_RECORD
  5
5C
330
1
100
AcDbSymbolTableRecord
100
AcDbBlockTableRecord
  2
EX_CIVIL
  0
BLOCK_RECORD
  5
5F
330
1
100
AcDbSymbolTableRecord
100
AcDbBlockTableRecord
  2
EX_WCIR
  0
BLOCK_RECORD
  5
62
330
1
100
AcDbSymbolTableRecord
100
AcDbBlockTableRecord
  2
EX_WCIR2
  0
BLOCK_RECORD
  5
65
330
1
100
AcDbSymbolTableRecord
100
AcDbBlockTableRecord
  2
EX_WNORM
  0
BLOCK_RECORD
  5
68
330
1
100
AcDbSymbolTableRecord
100
AcDbBlockTableRecord
  2
EX_NNORM
  0
BLOCK_RECORD
  5
6B
330
1
100
AcDbSymbolTableRecord
100
AcDbBlockTableRecord
  2
EX_BBOX
  0
BLOCK_RECORD
  5
6E
330
1
100
AcDbSymbolTableRecord
100
AcDbBlockTableRecord
  2
EX_WBOX
  0
BLOCK_RECORD
  5
71
330
1
100
AcDbSymbolTableRecord
100
AcDbBlockTableRecord
  2
EX_INTEGRAL
  0
BLOCK_RECORD
  5
263
330
1
100
AcDbSymbolTableRecord
100
AcDbBlockTableRecord
  2
*D15
  0
BLOCK_RECORD
  5
273
330
1
100
AcDbSymbolTableRecord
100
AcDbBlockTableRecord
  2
*D16
  0
BLOCK_RECORD
  5
421
330
1
100
AcDbSymbolTableRecord
100
AcDbBlockTableRecord
  2
*D17
  0
BLOCK_RECORD
  5
42E
330
1
100
AcDbSymbolTableRecord
100
AcDbBlockTableRecord
  2
*D18
  0
BLOCK_RECORD
  5
55E
330
1
100
AcDbSymbolTableRecord
100
AcDbBlockTableRecord
  2
*D19
  0
BLOCK_RECORD
  5
5A6
330
1
100
AcDbSymbolTableRecord
100
AcDbBlockTableRecord
  2
*D20
  0
BLOCK_RECORD
  5
5B3
330
1
100
AcDbSymbolTableRecord
100
AcDbBlockTableRecord
  2
*D21
  0
ENDTAB
  0
ENDSEC
  0
SECTION
  2
BLOCKS
  0
BLOCK
  5
20
330
1F
100
AcDbEntity
  8
0
100
AcDbBlockBegin
  2
*MODEL_SPACE
 70
     0
 10
0.0
 20
0.0
 30
0.0
  3
*MODEL_SPACE
  1

  0
ENDBLK
  5
21
330
1F
100
AcDbEntity
  8
0
100
AcDbBlockEnd
  0
BLOCK
  5
1C
330
1B
100
AcDbEntity
 67
     1
  8
0
100
AcDbBlockBegin
  2
*PAPER_SPACE
 70
     0
 10
0.0
 20
0.0
 30
0.0
  3
*PAPER_SPACE
  1

  0
ENDBLK
  5
1D
330
1B
100
AcDbEntity
 67
     1
  8
0
100
AcDbBlockEnd
  0
BLOCK
  5
4B
330
4A
100
AcDbEntity
  8
0
100
AcDbBlockBegin
  2
EX_NORM
 70
     0
 10
0.0
 20
0.0
 30
0.0
  3
EX_NORM
  1

  0
LINE
  5
74
330
4A
100
AcDbEntity
  8
0
  6
CONTINUOUS
 62
     0
100
AcDbLine
 10
0.0
 20
0.0
 30
0.0
 11
-1.0
 21
0.0
 31
0.0
  0
LINE
  5
75
330
4A
100
AcDbEntity
  8
0
  6
CONTINUOUS
 62
     0
100
AcDbLine
 10
0.0
 20
0.0
 30
0.0
 11
-1.0
 21
0.166666667
 31
0.0
  0
LINE
  5
76
330
4A
100
AcDbEntity
  8
0
  6
CONTINUOUS
 62
     0
100
AcDbLine
 10
0.0
 20
0.0
 30
0.0
 11
-1.0
 21
-0.166666667
 31
0.0
  0
ENDBLK
  5
4C
330
4A
100
AcDbEntity
  8
0
100
AcDbBlockEnd
  0
BLOCK
  5
4E
330
4D
100
AcDbEntity
  8
0
100
AcDbBlockBegin
  2
EX_BNORM
 70
     0
 10
0.0
 20
0.0
 30
0.0
  3
EX_BNORM
  1

  0
LINE
  5
77
330
4D
100
AcDbEntity
  8
0
  6
CONTINUOUS
 62
     0
100
AcDbLine
 10
0.0
 20
0.0
 30
0.0
 11
-1.0
 21
0.0
 31
0.0
  0
LINE
  5
78
330
4D
100
AcDbEntity
  8
0
  6
CONTINUOUS
 62
     0
100
AcDbLine
 10
0.0
 20
0.0
 30
0.0
 11
-1.0
 21
0.166666667
 31
0.0
  0
LINE
  5
79
330
4D
100
AcDbEntity
  8
0
  6
CONTINUOUS
 62
     0
100
AcDbLine
 10
0.0
 20
0.0
 30
0.0
 11
-1.0
 21
-0.166666667
 31
0.0
  0
LINE
  5
7A
330
4D
100
AcDbEntity
  8
0
  6
CONTINUOUS
 62
     0
100
AcDbLine
 10
0.0
 20
0.0
 30
0.0
 11
-1.0
 21
0.083333333
 31
0.0
  0
LINE
  5
7B
330
4D
100
AcDbEntity
  8
0
  6
CONTINUOUS
 62
     0
100
AcDbLine
 10
0.0
 20
0.0
 30
0.0
 11
-1.0
 21
-0.083333333
 31
0.0
  0
LINE
  5
7C
330
4D
100
AcDbEntity
  8
0
  6
CONTINUOUS
 62
     0
100
AcDbLine
 10
-1.0
 20
0.166666667
 30
0.0
 11
-1.0
 21
-0.166666667
 31
0.0
  0
ENDBLK
  5
4F
330
4D
100
AcDbEntity
  8
0
100
AcDbBlockEnd
  0
BLOCK
  5
51
330
50
100
AcDbEntity
  8
0
100
AcDbBlockBegin
  2
EX_BCIR
 70
     0
 10
0.0
 20
0.0
 30
0.0
  3
EX_BCIR
  1

  0
LINE
  5
7D
330
50
100
AcDbEntity
  8
0
  6
CONTINUOUS
 62
     0
100
AcDbLine
 10
0.0
 20
0.0
 30
0.0
 11
-1.0
 21
0.0
 31
0.0
  0
CIRCLE
  5
7E
330
50
100
AcDbEntity
  8
0
  6
CONTINUOUS
 62
     0
100
AcDbCircle
 10
0.0
 20
0.0
 30
0.0
 40
0.5
  0
CIRCLE
  5
7F
330
50
100
AcDbEntity
  8
0
  6
CONTINUOUS
 62
     0
100
AcDbCircle
 10
0.0
 20
0.0
 30
0.0
 40
0.25
  0
ENDBLK
  5
52
330
50
100
AcDbEntity
  8
0
100
AcDbBlockEnd
  0
BLOCK
  5
54
330
53
100
AcDbEntity
  8
0
100
AcDbBlockBegin
  2
EX_RCIVIL
 70
     0
 10
0.0
 20
0.0
 30
0.0
  3
EX_RCIVIL
  1

  0
LINE
  5
80
330
53
100
AcDbEntity
  8
0
  6
CONTINUOUS
 62
     0
100
AcDbLine
 10
0.0
 20
0.0
 30
0.0
 11
-1.0
 21
0.0
 31
0.0
  0
LINE
  5
81
330
53
100
AcDbEntity
  8
0
  6
CONTINUOUS
 62
     0
100
AcDbLine
 10
-1.0
 20
-0.25
 30
0.0
 11
0.0
 21
-0.25
 31
0.0
  0
LINE
  5
82
330
53
100
AcDbEntity
  8
0
  6
CONTINUOUS
 62
     0
100
AcDbLine
 10
-1.0
 20
-0.125
 30
0.0
 11
0.0
 21
-0.125
 31
0.0
  0
ENDBLK
  5
55
330
53
100
AcDbEntity
  8
0
100
AcDbBlockEnd
  0
BLOCK
  5
57
330
56
100
AcDbEntity
  8
0
100
AcDbBlockBegin
  2
EX_SLANT
 70
     0
 10
0.0
 20
0.0
 30
0.0
  3
EX_SLANT
  1

  0
LINE
  5
83
330
56
100
AcDbEntity
  8
0
  6
CONTINUOUS
 62
     0
100
AcDbLine
 10
0.0
 20
0.0
 30
0.0
 11
-1.0
 21
0.0
 31
0.0
  0
LINE
  5
84
330
56
100
AcDbEntity
  8
0
  6
CONTINUOUS
 62
     0
100
AcDbLine
 10
0.707106781
 20
0.707106781
 30
0.0
 11
-0.707106781
 21
-0.707106781
 31
0.0
  0
ENDBLK
  5
58
330
56
100
AcDbEntity
  8
0
100
AcDbBlockEnd
  0
BLOCK
  5
5A
330
59
100
AcDbEntity
  8
0
100
AcDbBlockBegin
  2
EX_NONE
 70
     0
 10
0.0
 20
0.0
 30
0.0
  3
EX_NONE
  1

  0
LINE
  5
85
330
59
100
AcDbEntity
  8
0
  6
CONTINUOUS
 62
     0
100
AcDbLine
 10
0.0
 20
0.0
 30
0.0
 11
-1.0
 21
0.0
 31
0.0
  0
ENDBLK
  5
5B
330
59
100
AcDbEntity
  8
0
100
AcDbBlockEnd
  0
BLOCK
  5
5D
330
5C
100
AcDbEntity
  8
0
100
AcDbBlockBegin
  2
EX_CIVIL
 70
     0
 10
0.0
 20
0.0
 30
0.0
  3
EX_CIVIL
  1

  0
LINE
  5
86
330
5C
100
AcDbEntity
  8
0
  6
CONTINUOUS
 62
     0
100
AcDbLine
 10
0.0
 20
0.0
 30
0.0
 11
-1.0
 21
0.0
 31
0.0
  0
LINE
  5
87
330
5C
100
AcDbEntity
  8
0
  6
CONTINUOUS
 62
     0
100
AcDbLine
 10
-1.0
 20
0.25
 30
0.0
 11
0.0
 21
0.25
 31
0.0
  0
LINE
  5
88
330
5C
100
AcDbEntity
  8
0
  6
CONTINUOUS
 62
     0
100
AcDbLine
 10
-1.0
 20
0.125
 30
0.0
 11
0.0
 21
0.125
 31
0.0
  0
ENDBLK
  5
5E
330
5C
100
AcDbEntity
  8
0
100
AcDbBlockEnd
  0
BLOCK
  5
60
330
5F
100
AcDbEntity
  8
0
100
AcDbBlockBegin
  2
EX_WCIR
 70
     0
 10
0.0
 20
0.0
 30
0.0
  3
EX_WCIR
  1

  0
LINE
  5
89
330
5F
100
AcDbEntity
  8
0
  6
CONTINUOUS
 62
     0
100
AcDbLine
 10
0.0
 20
0.0
 30
0.0
 11
-1.0
 21
0.0
 31
0.0
  0
CIRCLE
  5
8A
330
5F
100
AcDbEntity
  8
0
  6
CONTINUOUS
 62
     0
100
AcDbCircle
 10
0.0
 20
0.0
 30
0.0
 40
0.5
  0
ENDBLK
  5
61
330
5F
100
AcDbEntity
  8
0
100
AcDbBlockEnd
  0
BLOCK
  5
63
330
62
100
AcDbEntity
  8
0
100
AcDbBlockBegin
  2
EX_WCIR2
 70
     0
 10
0.0
 20
0.0
 30
0.0
  3
EX_WCIR2
  1

  0
LINE
  5
8B
330
62
100
AcDbEntity
  8
0
  6
CONTINUOUS
 62
     0
100
AcDbLine
 10
-0.5
 20
0.0
 30
0.0
 11
-1.0
 21
0.0
 31
0.0
  0
CIRCLE
  5
8C
330
62
100
AcDbEntity
  8
0
  6
CONTINUOUS
 62
     0
100
AcDbCircle
 10
0.0
 20
0.0
 30
0.0
 40
0.5
  0
ENDBLK
  5
64
330
62
100
AcDbEntity
  8
0
100
AcDbBlockEnd
  0
BLOCK
  5
66
330
65
100
AcDbEntity
  8
0
100
AcDbBlockBegin
  2
EX_WNORM
 70
     0
 10
0.0
 20
0.0
 30
0.0
  3
EX_WNORM
  1

  0
LINE
  5
8D
330
65
100
AcDbEntity
  8
0
  6
CONTINUOUS
 62
     0
100
AcDbLine
 10
-1.0
 20
0.0
 30
0.0
 11
-1.0
 21
0.0
 31
0.0
  0
LINE
  5
8E
330
65
100
AcDbEntity
  8
0
  6
CONTINUOUS
 62
     0
100
AcDbLine
 10
0.0
 20
0.0
 30
0.0
 11
-1.0
 21
0.166666667
 31
0.0
  0
LINE
  5
8F
330
65
100
AcDbEntity
  8
0
  6
CONTINUOUS
 62
     0
100
AcDbLine
 10
0.0
 20
0.0
 30
0.0
 11
-1.0
 21
-0.166666667
 31
0.0
  0
LINE
  5
90
330
65
100
AcDbEntity
  8
0
  6
CONTINUOUS
 62
     0
100
AcDbLine
 10
-1.0
 20
0.166666667
 30
0.0
 11
-1.0
 21
-0.166666667
 31
0.0
  0
ENDBLK
  5
67
330
65
100
AcDbEntity
  8
0
100
AcDbBlockEnd
  0
BLOCK
  5
69
330
68
100
AcDbEntity
  8
0
100
AcDbBlockBegin
  2
EX_NNORM
 70
     0
 10
0.0
 20
0.0
 30
0.0
  3
EX_NNORM
  1

  0
LINE
  5
91
330
68
100
AcDbEntity
  8
0
  6
CONTINUOUS
 62
     0
100
AcDbLine
 10
0.0
 20
0.0
 30
0.0
 11
-1.0
 21
0.0
 31
0.0
  0
LINE
  5
92
330
68
100
AcDbEntity
  8
0
  6
CONTINUOUS
 62
     0
100
AcDbLine
 10
0.0
 20
0.0
 30
0.0
 11
-1.0
 21
0.166666667
 31
0.0
  0
LINE
  5
93
330
68
100
AcDbEntity
  8
0
  6
CONTINUOUS
 62
     0
100
AcDbLine
 10
0.0
 20
0.0
 30
0.0
 11
-1.0
 21
-0.166666667
 31
0.0
  0
LINE
  5
94
330
68
100
AcDbEntity
  8
0
  6
CONTINUOUS
 62
     0
100
AcDbLine
 10
-1.0
 20
0.166666667
 30
0.0
 11
-1.0
 21
-0.166666667
 31
0.0
  0
ENDBLK
  5
6A
330
68
100
AcDbEntity
  8
0
100
AcDbBlockEnd
  0
BLOCK
  5
6C
330
6B
100
AcDbEntity
  8
0
100
AcDbBlockBegin
  2
EX_BBOX
 70
     0
 10
0.0
 20
0.0
 30
0.0
  3
EX_BBOX
  1

  0
LINE
  5
95
330
6B
100
AcDbEntity
  8
0
  6
CONTINUOUS
 62
     0
100
AcDbLine
 10
0.0
 20
0.0
 30
0.0
 11
-1.0
 21
0.0
 31
0.0
  0
LINE
  5
96
330
6B
100
AcDbEntity
  8
0
  6
CONTINUOUS
 62
     0
100
AcDbLine
 10
-0.5
 20
0.5
 30
0.0
 11
0.5
 21
0.5
 31
0.0
  0
LINE
  5
97
330
6B
100
AcDbEntity
  8
0
  6
CONTINUOUS
 62
     0
100
AcDbLine
 10
0.5
 20
0.5
 30
0.0
 11
0.5
 21
-0.5
 31
0.0
  0
LINE
  5
98
330
6B
100
AcDbEntity
  8
0
  6
CONTINUOUS
 62
     0
100
AcDbLine
 10
0.5
 20
-0.5
 30
0.0
 11
-0.5
 21
-0.5
 31
0.0
  0
LINE
  5
99
330
6B
100
AcDbEntity
  8
0
  6
CONTINUOUS
 62
     0
100
AcDbLine
 10
-0.5
 20
-0.5
 30
0.0
 11
-0.5
 21
0.5
 31
0.0
  0
LINE
  5
9A
330
6B
100
AcDbEntity
  8
0
  6
CONTINUOUS
 62
     0
100
AcDbLine
 10
-0.25
 20
0.25
 30
0.0
 11
0.25
 21
0.25
 31
0.0
  0
LINE
  5
9B
330
6B
100
AcDbEntity
  8
0
  6
CONTINUOUS
 62
     0
100
AcDbLine
 10
0.25
 20
0.25
 30
0.0
 11
0.25
 21
-0.25
 31
0.0
  0
LINE
  5
9C
330
6B
100
AcDbEntity
  8
0
  6
CONTINUOUS
 62
     0
100
AcDbLine
 10
0.25
 20
-0.25
 30
0.0
 11
-0.25
 21
-0.25
 31
0.0
  0
LINE
  5
9D
330
6B
100
AcDbEntity
  8
0
  6
CONTINUOUS
 62
     0
100
AcDbLine
 10
-0.25
 20
-0.25
 30
0.0
 11
-0.25
 21
0.25
 31
0.0
  0
ENDBLK
  5
6D
330
6B
100
AcDbEntity
  8
0
100
AcDbBlockEnd
  0
BLOCK
  5
6F
330
6E
100
AcDbEntity
  8
0
100
AcDbBlockBegin
  2
EX_WBOX
 70
     0
 10
0.0
 20
0.0
 30
0.0
  3
EX_WBOX
  1

  0
LINE
  5
9E
330
6E
100
AcDbEntity
  8
0
  6
CONTINUOUS
 62
     0
100
AcDbLine
 10
-0.5
 20
0.0
 30
0.0
 11
-1.0
 21
0.0
 31
0.0
  0
LINE
  5
9F
330
6E
100
AcDbEntity
  8
0
  6
CONTINUOUS
 62
     0
100
AcDbLine
 10
-0.5
 20
0.5
 30
0.0
 11
0.5
 21
0.5
 31
0.0
  0
LINE
  5
A0
330
6E
100
AcDbEntity
  8
0
  6
CONTINUOUS
 62
     0
100
AcDbLine
 10
0.5
 20
0.5
 30
0.0
 11
0.5
 21
-0.5
 31
0.0
  0
LINE
  5
A1
330
6E
100
AcDbEntity
  8
0
  6
CONTINUOUS
 62
     0
100
AcDbLine
 10
0.5
 20
-0.5
 30
0.0
 11
-0.5
 21
-0.5
 31
0.0
  0
LINE
  5
A2
330
6E
100
AcDbEntity
  8
0
  6
CONTINUOUS
 62
     0
100
AcDbLine
 10
-0.5
 20
-0.5
 30
0.0
 11
-0.5
 21
0.5
 31
0.0
  0
ENDBLK
  5
70
330
6E
100
AcDbEntity
  8
0
100
AcDbBlockEnd
  0
BLOCK
  5
72
330
71
100
AcDbEntity
  8
0
100
AcDbBlockBegin
  2
EX_INTEGRAL
 70
     0
 10
0.0
 20
0.0
 30
0.0
  3
EX_INTEGRAL
  1

  0
LINE
  5
A3
330
71
100
AcDbEntity
  8
0
  6
CONTINUOUS
 62
     0
100
AcDbLine
 10
0.0
 20
0.0
 30
0.0
 11
-1.0
 21
0.0
 31
0.0
  0
ARC
  5
A4
330
71
100
AcDbEntity
  8
0
  6
CONTINUOUS
 62
     0
100
AcDbCircle
 10
0.542115
 20
0.164992
 30
0.0
 40
0.56667
100
AcDbArc
 50
73.07249033629006
 51
196.9275130221199
  0
ARC
  5
A5
330
71
100
AcDbEntity
  8
0
  6
CONTINUOUS
 62
     0
100
AcDbCircle
 10
-0.542115
 20
-0.164992
 30
0.0
 40
0.56667
100
AcDbArc
 50
253.0724869220464
 51
16.9275130559125
  0
ENDBLK
  5
73
330
71
100
AcDbEntity
  8
0
100
AcDbBlockEnd
  0
BLOCK
  5
264
330
263
100
AcDbEntity
  8
0
100
AcDbBlockBegin
  2
*D15
 70
     1
 10
0.0
 20
0.0
 30
0.0
  3
*D15
  1

  0
LINE
  5
266
330
263
100
AcDbEntity
  8
化粧台
  6
CONTINUOUS
 62
     3
100
AcDbLine
 10
495.0
 20
1929.362705405309
 30
0.0
 11
495.0
 21
1842.0
 31
0.0
  0
LINE
  5
267
330
263
100
AcDbEntity
  8
化粧台
  6
CONTINUOUS
 62
     3
100
AcDbLine
 10
845.0
 20
1929.362705405309
 30
0.0
 11
845.0
 21
1842.0
 31
0.0
  0
LINE
  5
268
330
263
100
AcDbEntity
  8
化粧台
  6
CONTINUOUS
 62
     3
100
AcDbLine
 10
525.0
 20
1852.0
 30
0.0
 11
815.0
 21
1852.0
 31
0.0
  0
INSERT
  5
269
330
263
100
AcDbEntity
  8
化粧台
 62
     3
100
AcDbBlockReference
  2
EX_NORM
 10
495.0
 20
1852.0
 30
0.0
 41
30.0
 42
30.0
 43
30.0
 50
180.0
  0
INSERT
  5
26A
330
263
100
AcDbEntity
  8
化粧台
 62
     3
100
AcDbBlockReference
  2
EX_NORM
 10
845.0
 20
1852.0
 30
0.0
 41
30.0
 42
30.0
 43
30.0
  0
MTEXT
  5
26B
330
263
100
AcDbEntity
  8
化粧台
 62
     2
100
AcDbMText
 10
670.0000000000001
 20
1875.499999940395
 30
0.0
 40
40.0
 41
0.0
 71
     5
 72
     1
  1
350
  7
EXCADDIM1
  0
POINT
  5
26C
330
263
100
AcDbEntity
  8
DEFPOINTS
 62
     0
100
AcDbPoint
 10
495.0
 20
1936.3627052861
 30
0.0
  0
POINT
  5
26D
330
263
100
AcDbEntity
  8
DEFPOINTS
 62
     0
100
AcDbPoint
 10
845.0
 20
1936.3627052861
 30
0.0
  0
POINT
  5
26E
330
263
100
AcDbEntity
  8
DEFPOINTS
 62
     0
100
AcDbPoint
 10
845.0
 20
1852.0
 30
0.0
  0
ENDBLK
  5
265
330
263
100
AcDbEntity
  8
0
100
AcDbBlockEnd
  0
BLOCK
  5
274
330
273
100
AcDbEntity
  8
0
100
AcDbBlockBegin
  2
*D16
 70
     1
 10
0.0
 20
0.0
 30
0.0
  3
*D16
  1

  0
LINE
  5
276
330
273
100
AcDbEntity
  8
化粧台
  6
CONTINUOUS
 62
     3
100
AcDbLine
 10
898.4500043807907
 20
562.6741750000001
 30
0.0
 11
1076.0
 21
562.6741750000001
 31
0.0
  0
LINE
  5
277
330
273
100
AcDbEntity
  8
化粧台
  6
CONTINUOUS
 62
     3
100
AcDbLine
 10
846.9999998807907
 20
1362.674193999999
 30
0.0
 11
1076.0
 21
1362.674193999999
 31
0.0
  0
LINE
  5
278
330
273
100
AcDbEntity
  8
化粧台
  6
CONTINUOUS
 62
     3
100
AcDbLine
 10
1066.0
 20
592.6741750000001
 30
0.0
 11
1066.0
 21
1332.674193999999
 31
0.0
  0
INSERT
  5
279
330
273
100
AcDbEntity
  8
化粧台
 62
     3
100
AcDbBlockReference
  2
EX_NORM
 10
1066.0
 20
562.6741750000001
 30
0.0
 41
30.0
 42
30.0
 43
30.0
 50
270.0
  0
INSERT
  5
27A
330
273
100
AcDbEntity
  8
化粧台
 62
     3
100
AcDbBlockReference
  2
EX_NORM
 10
1066.0
 20
1362.674193999999
 30
0.0
 41
30.0
 42
30.0
 43
30.0
 50
90.0
  0
MTEXT
  5
27B
330
273
100
AcDbEntity
  8
化粧台
 62
     2
100
AcDbMText
 10
1042.500000059604
 20
962.6741844999995
 30
0.0
 40
40.0
 41
0.0
 71
     5
 72
     1
  1
（800）
  7
EXCADDIM1
 11
0.0
 21
1.0
 31
0.0
  0
POINT
  5
27C
330
273
100
AcDbEntity
  8
DEFPOINTS
 62
     0
100
AcDbPoint
 10
891.4500045
 20
562.6741750000001
 30
0.0
  0
POINT
  5
27D
330
273
100
AcDbEntity
  8
DEFPOINTS
 62
     0
100
AcDbPoint
 10
840.0
 20
1362.674193999999
 30
0.0
  0
POINT
  5
27E
330
273
100
AcDbEntity
  8
DEFPOINTS
 62
     0
100
AcDbPoint
 10
1066.0
 20
1362.674193999999
 30
0.0
  0
ENDBLK
  5
275
330
273
100
AcDbEntity
  8
0
100
AcDbBlockEnd
  0
BLOCK
  5
422
330
421
100
AcDbEntity
  8
0
100
AcDbBlockBegin
  2
*D17
 70
     1
 10
0.0
 20
0.0
 30
0.0
  3
*D17
  1

  0
LINE
  5
424
330
421
100
AcDbEntity
  8
化粧台
  6
CONTINUOUS
 62
     3
100
AcDbLine
 10
851.1251143807908
 20
562.6741750000001
 30
0.0
 11
1007.0
 21
562.6741750000001
 31
0.0
  0
LINE
  5
425
330
421
100
AcDbEntity
  8
化粧台
  6
CONTINUOUS
 62
     3
100
AcDbLine
 10
851.9500043807907
 20
1262.674194
 30
0.0
 11
1007.0
 21
1262.674194
 31
0.0
  0
LINE
  5
426
330
421
100
AcDbEntity
  8
化粧台
  6
CONTINUOUS
 62
     3
100
AcDbLine
 10
996.9999999999999
 20
592.6741750000001
 30
0.0
 11
996.9999999999999
 21
1232.674194
 31
0.0
  0
INSERT
  5
427
330
421
100
AcDbEntity
  8
化粧台
 62
     3
100
AcDbBlockReference
  2
EX_NORM
 10
996.9999999999999
 20
562.6741750000001
 30
0.0
 41
30.0
 42
30.0
 43
30.0
 50
270.0
  0
INSERT
  5
428
330
421
100
AcDbEntity
  8
化粧台
 62
     3
100
AcDbBlockReference
  2
EX_NORM
 10
996.9999999999999
 20
1262.674194
 30
0.0
 41
30.0
 42
30.0
 43
30.0
 50
90.0
  0
MTEXT
  5
429
330
421
100
AcDbEntity
  8
化粧台
 62
     2
100
AcDbMText
 10
973.5000000596045
 20
912.6741844999999
 30
0.0
 40
40.0
 41
0.0
 71
     5
 72
     1
  1
700
  7
EXCADDIM1
 11
0.0
 21
1.0
 31
0.0
  0
POINT
  5
42A
330
421
100
AcDbEntity
  8
DEFPOINTS
 62
     0
100
AcDbPoint
 10
844.1251145000001
 20
562.6741750000001
 30
0.0
  0
POINT
  5
42B
330
421
100
AcDbEntity
  8
DEFPOINTS
 62
     0
100
AcDbPoint
 10
844.9500045
 20
1262.674194
 30
0.0
  0
POINT
  5
42C
330
421
100
AcDbEntity
  8
DEFPOINTS
 62
     0
100
AcDbPoint
 10
996.9999999999999
 20
1262.674194
 30
0.0
  0
ENDBLK
  5
423
330
421
100
AcDbEntity
  8
0
100
AcDbBlockEnd
  0
BLOCK
  5
42F
330
42E
100
AcDbEntity
  8
0
100
AcDbBlockBegin
  2
*D18
 70
     1
 10
0.0
 20
0.0
 30
0.0
  3
*D18
  1

  0
LINE
  5
431
330
42E
100
AcDbEntity
  8
化粧台
  6
CONTINUOUS
 62
     3
100
AcDbLine
 10
851.9500043807907
 20
1262.674194
 30
0.0
 11
1006.999999999998
 21
1262.674194
 31
0.0
  0
LINE
  5
432
330
42E
100
AcDbEntity
  8
化粧台
  6
CONTINUOUS
 62
     3
100
AcDbLine
 10
846.9999998807907
 20
1362.674193999999
 30
0.0
 11
1006.999999999998
 21
1362.674193999999
 31
0.0
  0
LINE
  5
433
330
42E
100
AcDbEntity
  8
化粧台
  6
CONTINUOUS
 62
     3
100
AcDbLine
 10
996.9999999999991
 20
1292.674194
 30
0.0
 11
996.9999999999991
 21
1332.674193999999
 31
0.0
  0
INSERT
  5
434
330
42E
100
AcDbEntity
  8
化粧台
 62
     3
100
AcDbBlockReference
  2
EX_NORM
 10
996.9999999999991
 20
1262.674194
 30
0.0
 41
30.0
 42
30.0
 43
30.0
 50
270.0
  0
INSERT
  5
435
330
42E
100
AcDbEntity
  8
化粧台
 62
     3
100
AcDbBlockReference
  2
EX_NORM
 10
996.9999999999991
 20
1362.674193999999
 30
0.0
 41
30.0
 42
30.0
 43
30.0
 50
90.0
  0
MTEXT
  5
436
330
42E
100
AcDbEntity
  8
化粧台
 62
     2
100
AcDbMText
 10
973.500000059604
 20
1312.674193999999
 30
0.0
 40
40.0
 41
0.0
 71
     5
 72
     1
  1
100
  7
EXCADDIM1
 11
0.0
 21
1.0
 31
0.0
  0
POINT
  5
437
330
42E
100
AcDbEntity
  8
DEFPOINTS
 62
     0
100
AcDbPoint
 10
844.9500045
 20
1262.674194
 30
0.0
  0
POINT
  5
438
330
42E
100
AcDbEntity
  8
DEFPOINTS
 62
     0
100
AcDbPoint
 10
840.0
 20
1362.674193999999
 30
0.0
  0
POINT
  5
439
330
42E
100
AcDbEntity
  8
DEFPOINTS
 62
     0
100
AcDbPoint
 10
996.9999999999991
 20
1362.674193999999
 30
0.0
  0
ENDBLK
  5
430
330
42E
100
AcDbEntity
  8
0
100
AcDbBlockEnd
  0
BLOCK
  5
55F
330
55E
100
AcDbEntity
  8
0
100
AcDbBlockBegin
  2
*D19
 70
     1
 10
0.0
 20
0.0
 30
0.0
  3
*D19
  1

  0
LINE
  5
561
330
55E
100
AcDbEntity
  8
化粧台
  6
CONTINUOUS
 62
     3
100
AcDbLine
 10
676.9999998807907
 20
1925.0
 30
0.0
 11
941.9999999999976
 21
1925.0
 31
0.0
  0
LINE
  5
562
330
55E
100
AcDbEntity
  8
化粧台
  6
CONTINUOUS
 62
     3
100
AcDbLine
 10
931.9999999999976
 20
2175.0
 30
0.0
 11
931.9999999999976
 21
1955.0
 31
0.0
  0
INSERT
  5
563
330
55E
100
AcDbEntity
  8
化粧台
 62
     3
100
AcDbBlockReference
  2
EX_NORM
 10
931.9999999999976
 20
2205.0
 30
0.0
 41
30.0
 42
30.0
 43
30.0
 50
90.0
  0
INSERT
  5
564
330
55E
100
AcDbEntity
  8
化粧台
 62
     3
100
AcDbBlockReference
  2
EX_NORM
 10
931.9999999999976
 20
1925.0
 30
0.0
 41
30.0
 42
30.0
 43
30.0
 50
270.0
  0
MTEXT
  5
565
330
55E
100
AcDbEntity
  8
化粧台
 62
     2
100
AcDbMText
 10
908.5000000596024
 20
2065.0
 30
0.0
 40
40.0
 41
0.0
 71
     5
 72
     1
  1
280
  7
EXCADDIM1
 11
0.0
 21
1.0
 31
0.0
  0
POINT
  5
566
330
55E
100
AcDbEntity
  8
DEFPOINTS
 62
     0
100
AcDbPoint
 10
835.0
 20
2205.0
 30
0.0
  0
POINT
  5
567
330
55E
100
AcDbEntity
  8
DEFPOINTS
 62
     0
100
AcDbPoint
 10
670.0
 20
1925.0
 30
0.0
  0
POINT
  5
568
330
55E
100
AcDbEntity
  8
DEFPOINTS
 62
     0
100
AcDbPoint
 10
931.9999999999976
 20
1925.0
 30
0.0
  0
ENDBLK
  5
560
330
55E
100
AcDbEntity
  8
0
100
AcDbBlockEnd
  0
BLOCK
  5
5A7
330
5A6
100
AcDbEntity
  8
0
100
AcDbBlockBegin
  2
*D20
 70
     1
 10
0.0
 20
0.0
 30
0.0
  3
*D20
  1

  0
LINE
  5
5A9
330
5A6
100
AcDbEntity
  8
化粧台
  6
CONTINUOUS
 62
     3
100
AcDbLine
 10
474.9999999999901
 20
1913.000000119209
 30
0.0
 11
474.9999999999901
 21
1789.0
 31
0.0
  0
LINE
  5
5AA
330
5A6
100
AcDbEntity
  8
化粧台
  6
CONTINUOUS
 62
     3
100
AcDbLine
 10
864.99999999999
 20
1913.000000119209
 30
0.0
 11
864.99999999999
 21
1789.0
 31
0.0
  0
LINE
  5
5AB
330
5A6
100
AcDbEntity
  8
化粧台
  6
CONTINUOUS
 62
     3
100
AcDbLine
 10
504.9999999999901
 20
1799.0
 30
0.0
 11
834.99999999999
 21
1799.0
 31
0.0
  0
INSERT
  5
5AC
330
5A6
100
AcDbEntity
  8
化粧台
 62
     3
100
AcDbBlockReference
  2
EX_NORM
 10
474.9999999999901
 20
1799.0
 30
0.0
 41
30.0
 42
30.0
 43
30.0
 50
180.0
  0
INSERT
  5
5AD
330
5A6
100
AcDbEntity
  8
化粧台
 62
     3
100
AcDbBlockReference
  2
EX_NORM
 10
864.99999999999
 20
1799.0
 30
0.0
 41
30.0
 42
30.0
 43
30.0
  0
MTEXT
  5
5AE
330
5A6
100
AcDbEntity
  8
化粧台
 62
     2
100
AcDbMText
 10
669.9999999999901
 20
1822.499999940395
 30
0.0
 40
40.0
 41
0.0
 71
     5
 72
     1
  1
390
  7
EXCADDIM1
  0
POINT
  5
5AF
330
5A6
100
AcDbEntity
  8
DEFPOINTS
 62
     0
100
AcDbPoint
 10
474.9999999999901
 20
1920.0
 30
0.0
  0
POINT
  5
5B0
330
5A6
100
AcDbEntity
  8
DEFPOINTS
 62
     0
100
AcDbPoint
 10
864.99999999999
 20
1920.0
 30
0.0
  0
POINT
  5
5B1
330
5A6
100
AcDbEntity
  8
DEFPOINTS
 62
     0
100
AcDbPoint
 10
864.99999999999
 20
1799.0
 30
0.0
  0
ENDBLK
  5
5A8
330
5A6
100
AcDbEntity
  8
0
100
AcDbBlockEnd
  0
BLOCK
  5
5B4
330
5B3
100
AcDbEntity
  8
0
100
AcDbBlockBegin
  2
*D21
 70
     1
 10
0.0
 20
0.0
 30
0.0
  3
*D21
  1

  0
LINE
  5
5B6
330
5B3
100
AcDbEntity
  8
化粧台
  6
CONTINUOUS
 62
     3
100
AcDbLine
 10
871.9999998807807
 20
1920.0
 30
0.0
 11
1007.000000000004
 21
1920.0
 31
0.0
  0
LINE
  5
5B7
330
5B3
100
AcDbEntity
  8
化粧台
  6
CONTINUOUS
 62
     3
100
AcDbLine
 10
997.0000000000035
 20
2175.0
 30
0.0
 11
997.0000000000035
 21
1950.0
 31
0.0
  0
INSERT
  5
5B8
330
5B3
100
AcDbEntity
  8
化粧台
 62
     3
100
AcDbBlockReference
  2
EX_NORM
 10
997.0000000000035
 20
2205.0
 30
0.0
 41
30.0
 42
30.0
 43
30.0
 50
90.0
  0
INSERT
  5
5B9
330
5B3
100
AcDbEntity
  8
化粧台
 62
     3
100
AcDbBlockReference
  2
EX_NORM
 10
997.0000000000035
 20
1920.0
 30
0.0
 41
30.0
 42
30.0
 43
30.0
 50
270.0
  0
MTEXT
  5
5BA
330
5B3
100
AcDbEntity
  8
化粧台
 62
     2
100
AcDbMText
 10
973.5000000596083
 20
2062.5
 30
0.0
 40
40.0
 41
0.0
 71
     5
 72
     1
  1
285
  7
EXCADDIM1
 11
0.0
 21
1.0
 31
0.0
  0
POINT
  5
5BB
330
5B3
100
AcDbEntity
  8
DEFPOINTS
 62
     0
100
AcDbPoint
 10
864.99999999999
 20
2205.0
 30
0.0
  0
POINT
  5
5BC
330
5B3
100
AcDbEntity
  8
DEFPOINTS
 62
     0
100
AcDbPoint
 10
864.99999999999
 20
1920.0
 30
0.0
  0
POINT
  5
5BD
330
5B3
100
AcDbEntity
  8
DEFPOINTS
 62
     0
100
AcDbPoint
 10
997.0000000000035
 20
1920.0
 30
0.0
  0
ENDBLK
  5
5B5
330
5B3
100
AcDbEntity
  8
0
100
AcDbBlockEnd
  0
ENDSEC
  0
SECTION
  2
ENTITIES
  0
LINE
  5
A6
330
1F
100
AcDbEntity
  8
枠_表
  6
CONTINUOUS
 62
     7
100
AcDbLine
 10
173.9999999999998
 20
92.99999999999955
 30
0.0
 11
1993.999999999999
 21
92.99999999999955
 31
0.0
  0
HATCH
  5
A7
330
1F
100
AcDbEntity
  8
枠_表
  6
CONTINUOUS
 62
     3
100
AcDbHatch
 10
0.0
 20
0.0
 30
0.0
210
0.0
220
0.0
230
1.0
  2
SOLID
 70
     1
 71
     1
 91
        1
 92
        3
 72
     1
 73
     1
 93
       10
 10
774.7252657332523
 20
123.21699329754
 42
-0.017362223501556
 10
774.813015733253
 20
176.184243297541
 42
-0.0267627618865285
 10
774.8130157332521
 20
176.1842432975408
 42
0.0737939047395297
 10
787.7325157332523
 20
176.2382432975406
 42
0.0183878899657109
 10
787.2127657332531
 20
128.4819932975411
 42
-0.1144749489451909
 10
785.1202657332523
 20
118.4244932975405
 42
-0.1929163439413163
 10
775.1640157332533
 20
110.6079932975399
 42
-0.0603888289562337
 10
769.885515733252
 20
109.2917432975401
 42
0.0
 10
768.6502657332518
 20
113.0514932975406
 42
0.0860918333465722
 10
772.3425157332529
 20
115.01574329754
 42
0.1331843103855141
 97
        0
 75
     0
 76
     1
 98
        1
 10
0.0
 20
0.0
  0
HATCH
  5
A8
330
1F
100
AcDbEntity
  8
枠_表
  6
CONTINUOUS
 62
     3
100
AcDbHatch
 10
0.0
 20
0.0
 30
0.0
210
0.0
220
0.0
230
1.0
  2
SOLID
 70
     1
 71
     1
 91
        1
 92
        3
 72
     1
 73
     1
 93
       16
 10
833.8687657332528
 20
122.1032432975406
 42
-0.0386228372648426
 10
833.8080157332527
 20
154.6449932975407
 42
-0.0398707891902887
 10
839.7142657332523
 20
154.6719932975414
 42
-0.1256886216044368
 10
839.4442657332529
 20
149.1504932975413
 42
-0.0367815758121429
 10
839.4442657332529
 20
149.1504932975399
 42
-0.268021535028829
 10
851.3580157332526
 20
155.3334932975407
 42
-0.2571134422124888
 10
859.5052657332516
 20
151.303743297541
 42
-0.1522526366014298
 10
861.5775157332522
 20
144.6009932975401
 42
-0.0158825412051521
 10
861.4290157332523
 20
122.0694932975412
 42
-0.0285251271418421
 10
855.7252657332532
 20
122.0694932975406
 42
-0.0452212723224612
 10
856.0155157332522
 20
142.8864932975404
 42
-0.0315567291532142
 10
854.2470157332525
 20
149.0357432975414
 42
-0.1476272403790709
 10
842.7315157332526
 20
149.9199932975405
 42
-0.3908144705745794
 10
839.484765733252
 20
141.8402432975405
 42
-0.2046259928850854
 10
839.484765733252
 20
141.8402432975404
 42
0.0
 10
839.991015733253
 20
122.0492432975408
 42
-0.0304995761723369
 97
        0
 75
     0
 76
     1
 98
        1
 10
0.0
 20
0.0
  0
HATCH
  5
A9
330
1F
100
AcDbEntity
  8
枠_表
  6
CONTINUOUS
 62
     3
100
AcDbHatch
 10
0.0
 20
0.0
 30
0.0
210
0.0
220
0.0
230
1.0
  2
SOLID
 70
     1
 71
     1
 91
        2
 92
        1
 93
        1
 72
     2
 10
876.285514038338
 20
166.5835466873705
 40
3.572334466769884
 50
0.0
 51
360.0
 73
     1
 97
        0
 92
        3
 72
     1
 73
     1
 93
        3
 10
873.0930157332518
 20
154.6989932975412
 42
0.1200283885712921
 10
879.3030157332519
 20
122.0627432975403
 42
-0.0401820615762149
 10
873.0997657332518
 20
122.0424932975407
 42
-0.0237521668114666
 97
        0
 75
     0
 76
     1
 98
        1
 10
0.0
 20
0.0
  0
HATCH
  5
AA
330
1F
100
AcDbEntity
  8
枠_表
  6
CONTINUOUS
 62
     3
100
AcDbHatch
 10
0.0
 20
0.0
 30
0.0
210
0.0
220
0.0
230
1.0
  2
SOLID
 70
     1
 71
     1
 91
        1
 92
        3
 72
     1
 73
     1
 93
       30
 10
907.7340157332516
 20
153.3354932975412
 42
-0.0009362235736497
 10
907.7340157332495
 20
153.3354932975402
 42
0.0681165430304653
 10
906.0970934867333
 20
148.4282432975408
 42
0.0
 10
899.9310157332525
 20
152.6469932975415
 42
-0.302112590907374
 10
899.931015733253
 20
152.6469932975408
 42
0.0
 10
893.714265733252
 20
147.8814932975413
 42
-0.3704245237568778
 10
893.7142657332521
 20
147.8814932975411
 42
0.0
 10
894.0382657332524
 20
144.6954932975402
 42
-0.0262822419456939
 10
897.8722657332523
 20
141.6309932975411
 42
-0.180060563604375
 10
903.9877657332523
 20
139.7679932975409
 42
-0.0298130817160724
 10
903.987765733252
 20
139.7679932975406
 42
-0.3153987453686078
 10
909.6240157332528
 20
133.3217432975403
 42
0.0
 10
909.5902657332533
 20
130.439493297541
 42
-0.3510306079065168
 10
898.7227657332522
 20
121.3269932975413
 42
0.0
 10
895.5502657332515
 20
121.3269932975405
 42
-0.1053356344842436
 10
888.5302657332527
 20
123.3519932975408
 42
0.1188608286962634
 10
889.8127657332526
 20
128.4819932975415
 42
0.0
 10
897.5077657332523
 20
123.7569932975408
 42
-0.2447573632916039
 10
897.5077657332525
 20
123.7569932975407
 42
0.0
 10
904.9327657332524
 20
128.9544932975409
 42
-0.3734162676407277
 10
904.9327657332532
 20
128.95449329754
 42
0.0
 10
902.239515733253
 20
134.1452432975409
 42
-0.261219770190848
 10
895.9552657332516
 20
136.4267432975409
 42
-0.0572747914118363
 10
895.9552657332526
 20
136.4267432975408
 42
-0.1189658875692221
 10
890.9602657332525
 20
139.3562432975409
 42
-0.2005226878639636
 10
888.8677657332522
 20
144.0744932975622
 42
0.0
 10
888.8340157332523
 20
145.8632432975405
 42
-0.2622894489606957
 10
894.2002657332532
 20
154.0644932975404
 42
-0.0988461274137808
 10
899.222265733253
 20
155.2727432975405
 42
0.0
 10
901.0852657332524
 20
155.2727432975403
 42
-0.0920156312561188
 97
        0
 75
     0
 76
     1
 98
        1
 10
0.0
 20
0.0
  0
HATCH
  5
AB
330
1F
100
AcDbEntity
  8
枠_表
  6
CONTINUOUS
 62
     3
100
AcDbHatch
 10
0.0
 20
0.0
 30
0.0
210
0.0
220
0.0
230
1.0
  2
SOLID
 70
     1
 71
     1
 91
        2
 92
        3
 72
     1
 73
     1
 93
       27
 10
800.1727657332519
 20
151.3644932975409
 42
-0.1769427732109284
 10
800.1727657332532
 20
151.364493297541
 42
0.0
 10
800.1727657332532
 20
147.7194932975408
 42
0.0
 10
801.0502657332526
 20
147.7194932975404
 42
-0.207533601427307
 10
806.747422789573
 20
151.9932359129042
 42
-0.1226604740888933
 10
811.7827657332525
 20
152.1002432975408
 42
-0.3213715781137954
 10
816.9883280222108
 20
145.7106514378481
 42
-0.064704004662446
 10
817.0140157332521
 20
142.3329932975406
 42
-0.257798906330806
 10
815.9542657332532
 20
141.05049329754
 42
-0.056602577721096
 10
813.686265733253
 20
140.2607432975415
 42
-0.0166741689362636
 10
805.3702657332522
 20
138.6812432975407
 42
0.1186092302783404
 10
799.8825157332523
 20
136.0487432975412
 42
0.1699204224386695
 10
797.493015733253
 20
132.05274329754
 42
0.1006533494296199
 10
797.2720866795844
 20
128.5853555095727
 42
0.1675695228968024
 10
799.4370157332534
 20
123.9392432975413
 42
0.1376980079804242
 10
803.3722657332518
 20
121.6644932975403
 42
0.0719813663796923
 10
805.1610157332522
 20
121.3674932975414
 42
0.0
 10
807.9015157332532
 20
121.3674932975415
 42
0.1944607457809085
 10
816.9937657332533
 20
126.0452432975407
 42
0.1288538183665954
 10
817.9117657332523
 20
123.750243297541
 42
0.2098387395261546
 10
820.9087657332526
 20
122.0964932975403
 42
0.0
 10
823.0822657332532
 20
122.0829932975404
 42
0.0945009641609563
 10
826.2210157332521
 20
122.7512432975414
 42
0.0
 10
826.2210157332519
 20
124.3239932975407
 42
-0.2395739894657535
 10
823.4805157332527
 20
124.2969932975405
 42
-0.2502312110031057
 10
822.1305157332524
 20
126.834993297542
 42
-0.0104343570771765
 10
822.3127657332528
 20
145.7619932975412
 42
0.4051015674140716
 97
        0
 92
        3
 72
     1
 73
     1
 93
        8
 10
817.1355157332526
 20
139.0254932975406
 42
-0.0339435190873666
 10
817.1355157332546
 20
139.0254932975297
 42
-0.0001110072973599
 10
816.8520157332528
 20
128.6844932975405
 42
-0.2253076310552528
 10
809.7645157332528
 20
123.952743297541
 42
0.0
 10
808.0297657332521
 20
123.952743297541
 42
-0.3657967558150132
 10
802.8727657332519
 20
129.4337432975408
 42
0.0
 10
802.8727657332527
 20
131.3912432975414
 42
-0.2530797830369341
 10
806.3557657332531
 20
136.2107432975412
 42
-0.0724473624720066
 97
        0
 75
     0
 76
     1
 98
        1
 10
0.0
 20
0.0
  0
TEXT
  5
AD
330
1F
100
AcDbEntity
  8
枠_表
  6
CONTINUOUS
 62
     2
100
AcDbText
 10
923.0000000000045
 20
116.5000000000009
 30
0.0
 40
33.75
  1
ジャニス工業株式会社
 41
1.025641025641026
  7
EXCADTTF1
 72
     5
 11
1373.000000000005
 21
116.5000000000009
 31
0.0
100
AcDbText
  0
ARC
  5
AE
330
1F
100
AcDbEntity
  8
枠_表
  6
CONTINUOUS
 62
     3
100
AcDbCircle
 10
811.2685324125545
 20
137.6167288926888
 30
0.0
 40
17.66683515327064
100
AcDbArc
 50
88.77000393305703
 51
128.9068631829044
  0
ARC
  5
AF
330
1F
100
AcDbEntity
  8
枠_表
  6
CONTINUOUS
 62
     3
100
AcDbCircle
 10
812.0706272602814
 20
145.0191625973321
 30
0.0
 40
10.2690407511459
100
AcDbArc
 50
4.148222840814693
 51
92.36000944257292
  0
ARC
  5
B0
330
1F
100
AcDbEntity
  8
枠_表
  6
CONTINUOUS
 62
     3
100
AcDbCircle
 10
1275.650135838712
 20
131.9323843931738
 30
0.0
 40
453.5482655865662
100
AcDbArc
 50
178.2526643324597
 51
180.6439560401927
  0
ARC
  5
B1
330
1F
100
AcDbEntity
  8
枠_表
  6
CONTINUOUS
 62
     3
100
AcDbCircle
 10
825.1823989446058
 20
126.8302928780474
 30
0.0
 40
3.05188683107389
100
AcDbArc
 50
179.9117548191414
 51
236.1065985968857
  0
ARC
  5
B2
330
1F
100
AcDbEntity
  8
枠_表
  6
CONTINUOUS
 62
     3
100
AcDbCircle
 10
824.824207845798
 20
127.006118874109
 30
0.0
 40
3.0240485913648
100
AcDbArc
 50
243.6191685566582
 51
297.5097757939563
  0
LINE
  5
B3
330
1F
100
AcDbEntity
  8
枠_表
  6
CONTINUOUS
 62
     3
100
AcDbLine
 10
826.2210157332521
 20
122.7512432975414
 30
0.0
 11
826.2210157332521
 21
124.3239932975405
 31
0.0
  0
LINE
  5
B4
330
1F
100
AcDbEntity
  8
枠_表
  6
CONTINUOUS
 62
     3
100
AcDbLine
 10
820.9087657332526
 20
122.0964932975403
 30
0.0
 11
823.0822657332527
 21
122.0964932975403
 31
0.0
  0
ARC
  5
B5
330
1F
100
AcDbEntity
  8
枠_表
  6
CONTINUOUS
 62
     3
100
AcDbCircle
 10
822.8995891945618
 20
130.6464512823027
 30
0.0
 40
8.56540620020894
100
AcDbArc
 50
271.2220539293239
 51
292.8159509797653
  0
ARC
  5
B6
330
1F
100
AcDbEntity
  8
枠_表
  6
CONTINUOUS
 62
     3
100
AcDbCircle
 10
821.2937735081488
 20
126.3367456528636
 30
0.0
 40
4.25769550620398
100
AcDbArc
 50
217.4081478714985
 51
264.8118660441384
  0
ARC
  5
B7
330
1F
100
AcDbEntity
  8
枠_表
  6
CONTINUOUS
 62
     3
100
AcDbCircle
 10
821.8315560558341
 20
126.6492594265731
 30
0.0
 40
4.87535134009722
100
AcDbArc
 50
187.1167640402297
 51
216.4860549324747
  0
ARC
  5
B8
330
1F
100
AcDbEntity
  8
枠_表
  6
CONTINUOUS
 62
     3
100
AcDbCircle
 10
806.6613045867035
 20
134.9534026256833
 30
0.0
 40
13.64239920103932
100
AcDbArc
 50
275.2158792069686
 51
319.2336424873511
  0
LINE
  5
B9
330
1F
100
AcDbEntity
  8
枠_表
  6
CONTINUOUS
 62
     3
100
AcDbLine
 10
805.1610157332522
 20
121.3674932975414
 30
0.0
 11
807.9015157332532
 21
121.3674932975414
 31
0.0
  0
ARC
  5
BA
330
1F
100
AcDbEntity
  8
枠_表
  6
CONTINUOUS
 62
     3
100
AcDbCircle
 10
805.2928130736774
 20
127.6963494387405
 30
0.0
 40
6.330228320917859
100
AcDbArc
 50
252.3384873625213
 51
268.8069976857606
  0
ARC
  5
BB
330
1F
100
AcDbEntity
  8
枠_表
  6
CONTINUOUS
 62
     3
100
AcDbCircle
 10
805.4562953036913
 20
129.8111104772602
 30
0.0
 40
8.408956577563659
100
AcDbArc
 50
224.289750990011
 51
255.6505938786759
  0
ARC
  5
BC
330
1F
100
AcDbEntity
  8
枠_表
  6
CONTINUOUS
 62
     3
100
AcDbCircle
 10
805.0915332915525
 20
129.4015021572864
 30
0.0
 40
7.8619234712629
100
AcDbArc
 50
185.9586126338419
 51
224.0091989319859
  0
ARC
  5
BD
330
1F
100
AcDbEntity
  8
枠_表
  6
CONTINUOUS
 62
     3
100
AcDbCircle
 10
805.9075018570019
 20
129.7758712547738
 30
0.0
 40
8.71709372588669
100
AcDbArc
 50
164.8589457925044
 51
187.8495628504518
  0
ARC
  5
BE
330
1F
100
AcDbEntity
  8
枠_表
  6
CONTINUOUS
 62
     3
100
AcDbCircle
 10
804.3972379030168
 20
130.6366332500806
 30
0.0
 40
7.04795370557922
100
AcDbArc
 50
129.8344892359069
 51
168.4089447024628
  0
ARC
  5
BF
330
1F
100
AcDbEntity
  8
枠_表
  6
CONTINUOUS
 62
     3
100
AcDbCircle
 10
808.0970138675804
 20
125.9608481482871
 30
0.0
 40
13.0093661698492
100
AcDbArc
 50
102.0988446293839
 51
129.1556705448828
  0
ARC
  5
C0
330
1F
100
AcDbEntity
  8
枠_表
  6
CONTINUOUS
 62
     3
100
AcDbCircle
 10
785.8530099985813
 20
264.1202029775218
 30
0.0
 40
126.9482409370382
100
AcDbArc
 50
278.8438342053764
 51
282.6649181367123
  0
ARC
  5
C1
330
1F
100
AcDbEntity
  8
枠_表
  6
CONTINUOUS
 62
     3
100
AcDbCircle
 10
811.3433050110922
 20
150.6407362688742
 30
0.0
 40
10.64113335272784
100
AcDbArc
 50
282.7195832898965
 51
295.6781112778079
  0
ARC
  5
C2
330
1F
100
AcDbEntity
  8
枠_表
  6
CONTINUOUS
 62
     3
100
AcDbCircle
 10
815.3230955673365
 20
142.6511332504288
 30
0.0
 40
1.72058828228131
100
AcDbArc
 50
291.5204897073511
 51
349.3445900274031
  0
ARC
  5
C3
330
1F
100
AcDbEntity
  8
枠_表
  6
CONTINUOUS
 62
     3
100
AcDbCircle
 10
804.0053873566586
 20
143.9229870375129
 30
0.0
 40
13.10543751018921
100
AcDbArc
 50
353.0315250986587
 51
7.839947970678348
  0
ARC
  5
C4
330
1F
100
AcDbEntity
  8
枠_表
  6
CONTINUOUS
 62
     3
100
AcDbCircle
 10
809.9283412817709
 20
145.2741886153422
 30
0.0
 40
7.07346538626002
100
AcDbArc
 50
3.537639967999379
 51
74.8013566619203
  0
ARC
  5
C5
330
1F
100
AcDbEntity
  8
枠_表
  6
CONTINUOUS
 62
     3
100
AcDbCircle
 10
809.4799095798334
 20
141.9383830513016
 30
0.0
 40
10.4195273466423
100
AcDbArc
 50
77.23143261361693
 51
105.203415964315
  0
ARC
  5
C6
330
1F
100
AcDbEntity
  8
枠_表
  6
CONTINUOUS
 62
     3
100
AcDbCircle
 10
808.8253617703009
 20
143.2890191857882
 30
0.0
 40
8.94881105176719
100
AcDbArc
 50
103.4267945469744
 51
150.3242613737993
  0
LINE
  5
C7
330
1F
100
AcDbEntity
  8
枠_表
  6
CONTINUOUS
 62
     3
100
AcDbLine
 10
800.1727657332532
 20
151.364493297541
 30
0.0
 11
800.1727657332532
 21
147.7194932975408
 31
0.0
  0
ARC
  5
C8
330
1F
100
AcDbEntity
  8
枠_表
  6
CONTINUOUS
 62
     3
100
AcDbCircle
 10
705.1439565227093
 20
126.7342761922782
 30
0.0
 40
69.67015049800598
100
AcDbArc
 50
353.1274757312911
 51
357.106204490141
  0
ARC
  5
C9
330
1F
100
AcDbEntity
  8
枠_表
  6
CONTINUOUS
 62
     3
100
AcDbCircle
 10
280.3385521229342
 20
150.5197335838841
 30
0.0
 40
495.1400430399008
100
AcDbArc
 50
356.8390243485978
 51
2.971133813187157
  0
ARC
  5
CA
330
1F
100
AcDbEntity
  8
枠_表
  6
CONTINUOUS
 62
     3
100
AcDbCircle
 10
767.0927386496049
 20
120.3407518472909
 30
0.0
 40
7.47769185530633
100
AcDbArc
 50
314.592391474832
 51
344.9374073189123
  0
ARC
  5
CB
330
1F
100
AcDbEntity
  8
枠_表
  6
CONTINUOUS
 62
     3
100
AcDbCircle
 10
764.8347289685461
 20
124.675985944599
 30
0.0
 40
12.23467000390025
100
AcDbArc
 50
288.1715191042997
 51
307.8537826235693
  0
LINE
  5
CC
330
1F
100
AcDbEntity
  8
枠_表
  6
CONTINUOUS
 62
     3
100
AcDbLine
 10
769.885515733252
 20
109.2917432975401
 30
0.0
 11
768.6502657332522
 21
113.0514932975404
 31
0.0
  0
ARC
  5
CD
330
1F
100
AcDbEntity
  8
枠_表
  6
CONTINUOUS
 62
     3
100
AcDbCircle
 10
767.0955749866681
 20
131.7223152915381
 30
0.0
 40
22.60341410821362
100
AcDbArc
 50
277.0901027239701
 51
290.9134154817058
  0
ARC
  5
CE
330
1F
100
AcDbEntity
  8
枠_表
  6
CONTINUOUS
 62
     3
100
AcDbCircle
 10
770.3897327885505
 20
126.938351862683
 30
0.0
 40
17.01394688196115
100
AcDbArc
 50
286.2966123578915
 51
329.973223283839
  0
ARC
  5
CF
330
1F
100
AcDbEntity
  8
枠_表
  6
CONTINUOUS
 62
     3
100
AcDbCircle
 10
764.4899361790641
 20
127.96313568801
 30
0.0
 40
22.72875263114311
100
AcDbArc
 50
335.1860595856123
 51
1.308075913059364
  0
ARC
  5
D0
330
1F
100
AcDbEntity
  8
枠_表
  6
CONTINUOUS
 62
     3
100
AcDbCircle
 10
1436.542531413436
 20
145.2960360950851
 30
0.0
 40
649.5474244683604
100
AcDbArc
 50
177.2695926307304
 51
181.4833117237826
  0
ARC
  5
D1
330
1F
100
AcDbEntity
  8
枠_表
  6
CONTINUOUS
 62
     3
100
AcDbCircle
 10
781.0908200122293
 20
219.7417570522225
 30
0.0
 40
44.00758833490465
100
AcDbArc
 50
261.7986203004403
 51
278.6803384946418
  0
ARC
  5
D2
330
1F
100
AcDbEntity
  8
枠_表
  6
CONTINUOUS
 62
     3
100
AcDbCircle
 10
805.6056099353754
 20
178.7501381160507
 30
0.0
 40
41.36406814694017
100
AcDbArc
 50
278.4088456599976
 51
286.1851416003176
  0
ARC
  5
D3
330
1F
100
AcDbEntity
  8
枠_表
  6
CONTINUOUS
 62
     3
100
AcDbCircle
 10
814.5660651757731
 20
118.8318862667984
 30
0.0
 40
19.22065786155208
100
AcDbArc
 50
98.71271710191789
 51
115.2874718053599
  0
ARC
  5
D4
330
1F
100
AcDbEntity
  8
枠_表
  6
CONTINUOUS
 62
     3
100
AcDbCircle
 10
809.0701866837861
 20
130.5807479047189
 30
0.0
 40
6.25019433457053
100
AcDbArc
 50
115.7403688633493
 51
172.5491744442191
  0
LINE
  5
D5
330
1F
100
AcDbEntity
  8
枠_表
  6
CONTINUOUS
 62
     3
100
AcDbLine
 10
802.8727657332519
 20
131.3912432975405
 30
0.0
 11
802.8727657332519
 21
129.4337432975408
 31
0.0
  0
ARC
  5
D6
330
1F
100
AcDbEntity
  8
枠_表
  6
CONTINUOUS
 62
     3
100
AcDbCircle
 10
808.6959653488765
 20
129.7461380097786
 30
0.0
 40
5.83157304846997
100
AcDbArc
 50
183.0707787095794
 51
263.4402016072427
  0
LINE
  5
D7
330
1F
100
AcDbEntity
  8
枠_表
  6
CONTINUOUS
 62
     3
100
AcDbLine
 10
808.0297657332522
 20
123.952743297541
 30
0.0
 11
809.7645157332528
 21
123.952743297541
 31
0.0
  0
ARC
  5
D8
330
1F
100
AcDbEntity
  8
枠_表
  6
CONTINUOUS
 62
     3
100
AcDbCircle
 10
808.324469076594
 20
133.7836489530207
 30
0.0
 40
9.935816039979159
100
AcDbArc
 50
278.3335103000368
 51
329.1221464187299
  0
ARC
  5
D9
330
1F
100
AcDbEntity
  8
枠_表
  6
CONTINUOUS
 62
     3
100
AcDbCircle
 10
-22472.01542217735
 20
772.3265245587834
 30
0.0
 40
23297.76001260591
100
AcDbArc
 50
358.4169008257799
 51
358.4423418242109
  0
ARC
  5
DA
330
1F
100
AcDbEntity
  8
枠_表
  6
CONTINUOUS
 62
     3
100
AcDbCircle
 10
836.5808780069341
 20
82.5069254511709
 30
0.0
 40
39.68909094418497
100
AcDbArc
 50
85.07099551674689
 51
93.91830029343228
  0
ARC
  5
DB
330
1F
100
AcDbEntity
  8
枠_表
  6
CONTINUOUS
 62
     3
100
AcDbCircle
 10
913.4088578951065
 20
130.9150147009814
 30
0.0
 40
73.95120993114925
100
AcDbArc
 50
179.8977458165987
 51
186.8855675734268
  0
ARC
  5
DC
330
1F
100
AcDbEntity
  8
枠_表
  6
CONTINUOUS
 62
     3
100
AcDbCircle
 10
850.566172236642
 20
142.0795225138056
 30
0.0
 40
11.08398956318131
100
AcDbArc
 50
134.9787476233347
 51
181.2369872983282
  0
ARC
  5
DD
330
1F
100
AcDbEntity
  8
枠_表
  6
CONTINUOUS
 62
     3
100
AcDbCircle
 10
848.0100145205557
 20
143.2366273138689
 30
0.0
 40
8.51645057047003
100
AcDbArc
 50
42.91644474042847
 51
128.3015542351336
  0
ARC
  5
DE
330
1F
100
AcDbEntity
  8
枠_表
  6
CONTINUOUS
 62
     3
100
AcDbCircle
 10
844.9447404568554
 20
143.0315138821561
 30
0.0
 40
11.07172507744154
100
AcDbArc
 50
359.2495022237244
 51
32.84055016678327
  0
ARC
  5
DF
330
1F
100
AcDbEntity
  8
枠_表
  6
CONTINUOUS
 62
     3
100
AcDbCircle
 10
691.1173378649761
 20
134.775133788246
 30
0.0
 40
165.0975566668588
100
AcDbArc
 50
355.5862454873798
 51
2.816115806820253
  0
ARC
  5
E0
330
1F
100
AcDbEntity
  8
枠_表
  6
CONTINUOUS
 62
     3
100
AcDbCircle
 10
858.5771407332533
 20
90.60152619227779
 30
0.0
 40
31.59693252126744
100
AcDbArc
 50
84.82155189294139
 51
95.17844810705873
  0
ARC
  5
E1
330
1F
100
AcDbEntity
  8
枠_表
  6
CONTINUOUS
 62
     3
100
AcDbCircle
 10
1024.6576336617
 20
129.9067374739138
 30
0.0
 40
163.4166579853822
100
AcDbArc
 50
176.2131780319488
 51
182.7488833337936
  0
ARC
  5
E2
330
1F
100
AcDbEntity
  8
枠_表
  6
CONTINUOUS
 62
     3
100
AcDbCircle
 10
800.1913601210077
 20
142.3315774812136
 30
0.0
 40
61.42809087866958
100
AcDbArc
 50
358.4775281223095
 51
2.117232414210064
  0
ARC
  5
E3
330
1F
100
AcDbEntity
  8
枠_表
  6
CONTINUOUS
 62
     3
100
AcDbCircle
 10
849.7905515344843
 20
144.6285942451527
 30
0.0
 40
11.7869965146059
100
AcDbArc
 50
359.8658335690532
 51
34.49363429411157
  0
ARC
  5
E4
330
1F
100
AcDbEntity
  8
枠_表
  6
CONTINUOUS
 62
     3
100
AcDbCircle
 10
851.772405741379
 20
145.9204664797994
 30
0.0
 40
9.4221437555554
100
AcDbArc
 50
34.84393737091607
 51
92.5207065423111
  0
ARC
  5
E5
330
1F
100
AcDbEntity
  8
枠_表
  6
CONTINUOUS
 62
     3
100
AcDbCircle
 10
850.7541069002576
 20
141.9275988818595
 30
0.0
 40
13.4194899665726
100
AcDbArc
 50
87.42068310381028
 51
147.4361518966862
  0
ARC
  5
E6
330
1F
100
AcDbEntity
  8
枠_表
  6
CONTINUOUS
 62
     3
100
AcDbCircle
 10
877.0574727396189
 20
150.0785681383059
 30
0.0
 40
37.6246550045818
100
AcDbArc
 50
172.9875214416311
 51
181.4134392789641
  0
ARC
  5
E7
330
1F
100
AcDbEntity
  8
枠_表
  6
CONTINUOUS
 62
     3
100
AcDbCircle
 10
836.7082849861259
 20
166.2206879814494
 30
0.0
 40
11.93349358546016
100
AcDbArc
 50
255.9341994177206
 51
284.5896440601899
  0
ARC
  5
E8
330
1F
100
AcDbEntity
  8
枠_表
  6
CONTINUOUS
 62
     3
100
AcDbCircle
 10
630.117698867162
 20
137.9938058671746
 30
0.0
 40
204.3697806131072
100
AcDbArc
 50
355.5405243117485
 51
4.673398698656258
  0
LINE
  5
E9
330
1F
100
AcDbEntity
  8
枠_表
  6
CONTINUOUS
 62
     3
100
AcDbLine
 10
839.484765733252
 20
141.8402432975404
 30
0.0
 11
839.484765733252
 21
131.0469932975411
 31
0.0
  0
CIRCLE
  5
EA
330
1F
100
AcDbEntity
  8
枠_表
  6
CONTINUOUS
 62
     3
100
AcDbCircle
 10
876.285514038338
 20
166.5835466873705
 30
0.0
 40
3.57233446676989
  0
ARC
  5
EB
330
1F
100
AcDbEntity
  8
枠_表
  6
CONTINUOUS
 62
     3
100
AcDbCircle
 10
876.1456076027747
 20
167.5332474358083
 30
0.0
 40
13.19228548840207
100
AcDbArc
 50
256.6209501743446
 51
283.9984576255729
  0
ARC
  5
EC
330
1F
100
AcDbEntity
  8
枠_表
  6
CONTINUOUS
 62
     3
100
AcDbCircle
 10
876.4144089371354
 20
56.79804184123327
 30
0.0
 40
65.32859485251088
100
AcDbArc
 50
87.46575055044718
 51
92.90832285102188
  0
ARC
  5
ED
330
1F
100
AcDbEntity
  8
枠_表
  6
CONTINUOUS
 62
     3
100
AcDbCircle
 10
1082.254047179559
 20
138.1881005739388
 30
0.0
 40
203.5906390589
100
AcDbArc
 50
175.3387608397566
 51
184.5428594926176
  0
ARC
  5
EE
330
1F
100
AcDbEntity
  8
枠_表
  6
CONTINUOUS
 62
     3
100
AcDbCircle
 10
651.6900575363894
 20
138.3249792766242
 30
0.0
 40
222.0076085035812
100
AcDbArc
 50
355.7940354718673
 51
4.229650257234378
  0
ARC
  5
EF
330
1F
100
AcDbEntity
  8
枠_表
  6
CONTINUOUS
 62
     3
100
AcDbCircle
 10
1221.644453232816
 20
965.0297432964203
 30
0.0
 40
870.2800228963156
100
AcDbArc
 50
248.6422112053103
 51
248.8567777804232
  0
ARC
  5
F0
330
1F
100
AcDbEntity
  8
枠_表
  6
CONTINUOUS
 62
     3
100
AcDbCircle
 10
900.8542828460594
 20
145.1663038363949
 30
0.0
 40
10.10907867592157
100
AcDbArc
 50
67.66151957087348
 51
88.69073168448988
  0
ARC
  5
F1
330
1F
100
AcDbEntity
  8
枠_表
  6
CONTINUOUS
 62
     3
100
AcDbCircle
 10
899.7711044283932
 20
142.0979097937607
 30
0.0
 40
13.19974865367525
100
AcDbArc
 50
92.38301574576484
 51
114.9635286746436
  0
ARC
  5
F2
330
1F
100
AcDbEntity
  8
枠_表
  6
CONTINUOUS
 62
     3
100
AcDbCircle
 10
898.7963496799631
 20
145.2009291101865
 30
0.0
 40
9.9843256030919
100
AcDbArc
 50
117.4083995939977
 51
176.1964688215695
  0
ARC
  5
F3
330
1F
100
AcDbEntity
  8
枠_表
  6
CONTINUOUS
 62
     3
100
AcDbCircle
 10
895.5599257926025
 20
144.219276907553
 30
0.0
 40
6.693726059056109
100
AcDbArc
 50
181.2393899443581
 51
226.5942921332421
  0
ARC
  5
F4
330
1F
100
AcDbEntity
  8
枠_表
  6
CONTINUOUS
 62
     3
100
AcDbCircle
 10
899.526814579952
 20
148.2396411006687
 30
0.0
 40
12.34100950779567
100
AcDbArc
 50
226.0402388947521
 51
253.1776672992999
  0
ARC
  5
F5
330
1F
100
AcDbEntity
  8
枠_表
  6
CONTINUOUS
 62
     3
100
AcDbCircle
 10
889.1714891830446
 20
107.9457141755211
 30
0.0
 40
29.27778413972754
100
AcDbArc
 50
63.49050203733571
 51
76.60259219849584
  0
ARC
  5
F6
330
1F
100
AcDbEntity
  8
枠_表
  6
CONTINUOUS
 62
     3
100
AcDbCircle
 10
900.3080045853693
 20
129.9846225433168
 30
0.0
 40
4.58710152219014
100
AcDbArc
 50
6.53892419415897
 51
65.09756080693691
  0
ARC
  5
F7
330
1F
100
AcDbEntity
  8
枠_表
  6
CONTINUOUS
 62
     3
100
AcDbCircle
 10
899.035777744653
 20
129.7002363757167
 30
0.0
 40
5.943954918766759
100
AcDbArc
 50
270.8867385422408
 51
352.7925382056677
  0
ARC
  5
F8
330
1F
100
AcDbEntity
  8
枠_表
  6
CONTINUOUS
 62
     3
100
AcDbCircle
 10
898.6361043234882
 20
132.6658639777384
 30
0.0
 40
8.98004035462527
100
AcDbArc
 50
207.7689879465537
 51
262.7817283832026
  0
ARC
  5
F9
330
1F
100
AcDbEntity
  8
枠_表
  6
CONTINUOUS
 62
     3
100
AcDbCircle
 10
896.793005459279
 20
138.8156576811025
 30
0.0
 40
17.5327631578002
100
AcDbArc
 50
241.8829576087176
 51
265.9354096935781
  0
ARC
  5
FA
330
1F
100
AcDbEntity
  8
枠_表
  6
CONTINUOUS
 62
     3
100
AcDbCircle
 10
898.4663886467587
 20
132.669246711805
 30
0.0
 40
11.34515058180645
100
AcDbArc
 50
271.2948770866743
 51
348.6654156292868
  0
ARC
  5
FB
330
1F
100
AcDbEntity
  8
枠_表
  6
CONTINUOUS
 62
     3
100
AcDbCircle
 10
902.2045721291971
 20
132.5217258531575
 30
0.0
 40
7.462450757296059
100
AcDbArc
 50
6.154262763177246
 51
76.17509904255616
  0
ARC
  5
FC
330
1F
100
AcDbEntity
  8
枠_表
  6
CONTINUOUS
 62
     3
100
AcDbCircle
 10
916.5384669692077
 20
191.9359310503512
 30
0.0
 40
53.65644258516679
100
AcDbArc
 50
249.6420733479936
 51
256.4727051201885
  0
ARC
  5
FD
330
1F
100
AcDbEntity
  8
枠_表
  6
CONTINUOUS
 62
     3
100
AcDbCircle
 10
900.0721352387467
 20
148.3138641766618
 30
0.0
 40
7.03563707337184
100
AcDbArc
 50
210.9501336849607
 51
251.7794729821079
  0
ARC
  5
FE
330
1F
100
AcDbEntity
  8
枠_表
  6
CONTINUOUS
 62
     3
100
AcDbCircle
 10
907.303140733265
 20
149.3823182975439
 30
0.0
 40
14.068519372934
100
AcDbArc
 50
193.4375782160214
 51
199.459638038058
  0
ARC
  5
FF
330
1F
100
AcDbEntity
  8
枠_表
  6
CONTINUOUS
 62
     3
100
AcDbCircle
 10
899.0350964860551
 20
147.2674994707927
 30
0.0
 40
5.35613931103931
100
AcDbArc
 50
92.11404364449162
 51
173.4175047026091
  0
ARC
  5
100
330
1F
100
AcDbEntity
  8
枠_表
  6
CONTINUOUS
 62
     3
100
AcDbCircle
 10
899.4147339127522
 20
146.5429236291675
 30
0.0
 40
6.12586430102253
100
AcDbArc
 50
17.92452211681263
 51
85.16543319077402
  0
LINE
  5
101
330
1F
100
AcDbEntity
  8
枠_表
  6
CONTINUOUS
 62
     3
100
AcDbLine
 10
901.0852657332526
 20
155.2727432975405
 30
0.0
 11
899.222265733253
 21
155.2727432975405
 31
0.0
  0
LINE
  5
102
330
1F
100
AcDbEntity
  8
枠_表
  6
CONTINUOUS
 62
     3
100
AcDbLine
 10
897.5077657332525
 20
123.7569932975407
 30
0.0
 11
899.1277657332529
 21
123.7569932975407
 31
0.0
  0
LINE
  5
103
330
1F
100
AcDbEntity
  8
枠_表
  6
CONTINUOUS
 62
     3
100
AcDbLine
 10
890.6902657332529
 20
128.4819932975415
 30
0.0
 11
889.8127657332526
 21
128.4819932975415
 31
0.0
  0
LINE
  5
104
330
1F
100
AcDbEntity
  8
枠_表
  6
CONTINUOUS
 62
     3
100
AcDbLine
 10
895.5502657332528
 20
121.3269932975413
 30
0.0
 11
898.7227657332522
 21
121.3269932975413
 31
0.0
  0
LINE
  5
105
330
1F
100
AcDbEntity
  8
枠_表
  6
CONTINUOUS
 62
     3
100
AcDbLine
 10
800.1727657332532
 20
147.7194932975408
 30
0.0
 11
801.0502657332523
 21
147.7194932975408
 31
0.0
  0
ARC
  5
106
330
1F
100
AcDbEntity
  8
枠_表
  6
CONTINUOUS
 62
     3
100
AcDbCircle
 10
878.5344131320966
 20
128.5779759565003
 30
0.0
 40
11.27953740078838
100
AcDbArc
 50
332.3987521421788
 51
359.5124385477116
  0
LINE
  5
107
330
1F
100
AcDbEntity
  8
枠_表
  6
CONTINUOUS
 62
     3
100
AcDbLine
 10
904.8652657332519
 20
130.5069932975402
 30
0.0
 11
904.9327657332532
 21
128.95449329754
 31
0.0
  0
LINE
  5
108
330
1F
100
AcDbEntity
  8
枠_表
  6
CONTINUOUS
 62
     3
100
AcDbLine
 10
909.6240157332528
 20
133.3217432975403
 30
0.0
 11
909.5902657332516
 21
130.4394932975401
 31
0.0
  0
LINE
  5
109
330
1F
100
AcDbEntity
  8
枠_表
  6
CONTINUOUS
 62
     3
100
AcDbLine
 10
893.7142657332521
 20
147.8814932975411
 30
0.0
 11
893.6197657332519
 21
146.1129932975405
 31
0.0
  0
LINE
  5
10A
330
1F
100
AcDbEntity
  8
枠_表
  6
CONTINUOUS
 62
     3
100
AcDbLine
 10
888.8340157332522
 20
145.8632432975401
 30
0.0
 11
888.8677657332522
 21
144.0744932975622
 31
0.0
  0
LINE
  5
10B
330
1F
100
AcDbEntity
  8
枠_表
  6
CONTINUOUS
 62
     3
100
AcDbLine
 10
898.8375157332524
 20
152.6199932975408
 30
0.0
 11
899.931015733253
 21
152.6469932975408
 31
0.0
  0
LINE
  5
10C
330
1F
100
AcDbEntity
  8
枠_表
  6
CONTINUOUS
 62
     3
100
AcDbLine
 10
905.2432657332525
 20
148.4282432975408
 30
0.0
 11
906.0970934867333
 21
148.4282432975408
 31
0.0
  0
ARC
  5
10D
330
1F
100
AcDbEntity
  8
枠_表
  6
CONTINUOUS
 62
     3
100
AcDbCircle
 10
924.8424810688704
 20
144.9019437507491
 30
0.0
 40
19.07418003737831
100
AcDbArc
 50
153.7591918158497
 51
169.3462759801917
  0
TEXT
  5
10E
330
1F
100
AcDbEntity
  8
枠_表
  6
CONTINUOUS
 62
     2
100
AcDbText
 10
1884.537109400001
 20
260.7227783000008
 30
0.0
 40
30.0
  1
１
 41
1.101333333333329
  7
EXCADSTD
 72
     5
 11
1908.137109400001
 21
260.7227783000008
 31
0.0
100
AcDbText
  0
TEXT
  5
10F
330
1F
100
AcDbEntity
  8
枠_表
  6
CONTINUOUS
 62
     2
100
AcDbText
 10
196.5000000000026
 20
266.7499999999995
 30
0.0
 40
42.5
  1
製図
 41
1.509694117647059
  7
EXCADSTD
 72
     5
 11
297.3260000000026
 21
266.7499999999995
 31
0.0
100
AcDbText
  0
TEXT
  5
110
330
1F
100
AcDbEntity
  8
枠_表
  6
CONTINUOUS
 62
     2
100
AcDbText
 10
351.5000000000026
 20
266.7499999999995
 30
0.0
 40
42.5
  1
写図
 41
1.509694117647059
  7
EXCADSTD
 72
     5
 11
452.3260000000026
 21
266.7499999999995
 31
0.0
100
AcDbText
  0
TEXT
  5
111
330
1F
100
AcDbEntity
  8
枠_表
  6
CONTINUOUS
 62
     2
100
AcDbText
 10
501.5000000000026
 20
266.7499999999995
 30
0.0
 40
42.5
  1
検図
 41
1.303826737967914
  7
EXCADSTD
 72
     5
 11
588.5770000000026
 21
266.7499999999995
 31
0.0
100
AcDbText
  0
TEXT
  5
112
330
1F
100
AcDbEntity
  8
枠_表
  6
CONTINUOUS
 62
     2
100
AcDbText
 10
631.5000000000026
 20
266.7499999999995
 30
0.0
 40
42.5
  1
承認
 41
1.303826737967914
  7
EXCADSTD
 72
     5
 11
718.5770000000026
 21
266.7499999999995
 31
0.0
100
AcDbText
  0
TEXT
  5
113
330
1F
100
AcDbEntity
  8
枠_表
  6
CONTINUOUS
 62
     2
100
AcDbText
 10
749.7500000000019
 20
256.7499999999995
 30
0.0
 40
42.5
  1
品
 41
1.12
  7
EXCADSTD
 72
     5
 11
783.7500000000019
 21
256.7499999999995
 31
0.0
100
AcDbText
  0
TEXT
  5
114
330
1F
100
AcDbEntity
  8
枠_表
  6
CONTINUOUS
 62
     2
100
AcDbText
 10
749.7500000000019
 20
206.7499999999995
 30
0.0
 40
42.5
  1
名
 41
1.12
  7
EXCADSTD
 72
     5
 11
783.7500000000019
 21
206.7499999999995
 31
0.0
100
AcDbText
  0
TEXT
  5
115
330
1F
100
AcDbEntity
  8
枠_表
  6
CONTINUOUS
 62
     2
100
AcDbText
 10
1389.750000000002
 20
256.7499999999995
 30
0.0
 40
42.5
  1
品
 41
1.12
  7
EXCADSTD
 72
     5
 11
1423.750000000002
 21
256.7499999999995
 31
0.0
100
AcDbText
  0
TEXT
  5
116
330
1F
100
AcDbEntity
  8
枠_表
  6
CONTINUOUS
 62
     2
100
AcDbText
 10
1389.750000000002
 20
206.7499999999995
 30
0.0
 40
42.5
  1
番
 41
1.12
  7
EXCADSTD
 72
     5
 11
1423.750000000002
 21
206.7499999999995
 31
0.0
100
AcDbText
  0
TEXT
  5
117
330
1F
100
AcDbEntity
  8
枠_表
  6
CONTINUOUS
 62
     2
100
AcDbText
 10
1810.750000000001
 20
256.7499999999995
 30
0.0
 40
42.5
  1
尺
 41
1.12
  7
EXCADSTD
 72
     5
 11
1844.750000000001
 21
256.7499999999995
 31
0.0
100
AcDbText
  0
TEXT
  5
118
330
1F
100
AcDbEntity
  8
枠_表
  6
CONTINUOUS
 62
     2
100
AcDbText
 10
1810.750000000001
 20
206.7499999999995
 30
0.0
 40
42.5
  1
度
 41
1.12
  7
EXCADSTD
 72
     5
 11
1844.750000000001
 21
206.7499999999995
 31
0.0
100
AcDbText
  0
TEXT
  5
119
330
1F
100
AcDbEntity
  8
枠_表
  6
CONTINUOUS
 62
     2
100
AcDbText
 10
1389.750000000002
 20
143.75
 30
0.0
 40
42.5
  1
図
 41
1.12
  7
EXCADSTD
 72
     5
 11
1423.750000000002
 21
143.75
 31
0.0
100
AcDbText
  0
TEXT
  5
11A
330
1F
100
AcDbEntity
  8
枠_表
  6
CONTINUOUS
 62
     2
100
AcDbText
 10
1389.750000000002
 20
100.7500000000005
 30
0.0
 40
42.5
  1
番
 41
1.12
  7
EXCADSTD
 72
     5
 11
1423.750000000002
 21
100.7500000000005
 31
0.0
100
AcDbText
  0
TEXT
  5
11B
330
1F
100
AcDbEntity
  8
枠_表
  6
CONTINUOUS
 62
     2
100
AcDbText
 10
1925.279296900001
 20
216.3488464
 30
0.0
 40
30.0
  1
１０
 41
1.098531212121213
  7
EXCADSTD
 72
     5
 11
1977.067196900001
 21
216.3488464
 31
0.0
100
AcDbText
  0
LINE
  5
11C
330
1F
100
AcDbEntity
  8
枠_表
  6
CONTINUOUS
 62
     7
100
AcDbLine
 10
174.0000000000026
 20
312.9999999999995
 30
0.0
 11
1994.000000000001
 21
312.9999999999995
 31
0.0
  0
LINE
  5
11D
330
1F
100
AcDbEntity
  8
枠_表
  6
CONTINUOUS
 62
     7
100
AcDbLine
 10
1994.000000000001
 20
92.99999999999955
 30
0.0
 11
1994.000000000001
 21
2893.0
 31
0.0
  0
LINE
  5
11E
330
1F
100
AcDbEntity
  8
枠_表
  6
CONTINUOUS
 62
     7
100
AcDbLine
 10
174.0000000000026
 20
2893.0
 30
0.0
 11
1994.000000000001
 21
2893.0
 31
0.0
  0
LINE
  5
11F
330
1F
100
AcDbEntity
  8
枠_表
  6
CONTINUOUS
 62
     6
100
AcDbLine
 10
1994.000000000001
 20
192.9999999999995
 30
0.0
 11
744.0000000000026
 21
192.9999999999995
 31
0.0
  0
LINE
  5
120
330
1F
100
AcDbEntity
  8
枠_表
  6
CONTINUOUS
 62
     6
100
AcDbLine
 10
1854.000000000001
 20
312.9999999999995
 30
0.0
 11
1854.000000000001
 21
192.9999999999995
 31
0.0
  0
LINE
  5
121
330
1F
100
AcDbEntity
  8
枠_表
  6
CONTINUOUS
 62
     6
100
AcDbLine
 10
1804.000000000001
 20
312.9999999999995
 30
0.0
 11
1804.000000000001
 21
192.9999999999995
 31
0.0
  0
LINE
  5
122
330
1F
100
AcDbEntity
  8
枠_表
  6
CONTINUOUS
 62
     6
100
AcDbLine
 10
1434.000000000001
 20
312.9999999999995
 30
0.0
 11
1434.000000000001
 21
92.99999999999955
 31
0.0
  0
LINE
  5
123
330
1F
100
AcDbEntity
  8
枠_表
  6
CONTINUOUS
 62
     6
100
AcDbLine
 10
1384.000000000001
 20
312.9999999999995
 30
0.0
 11
1384.000000000001
 21
92.99999999999955
 31
0.0
  0
LINE
  5
124
330
1F
100
AcDbEntity
  8
枠_表
  6
CONTINUOUS
 62
     6
100
AcDbLine
 10
794.0000000000026
 20
312.9999999999995
 30
0.0
 11
794.0000000000026
 21
192.9999999999995
 31
0.0
  0
LINE
  5
125
330
1F
100
AcDbEntity
  8
枠_表
  6
CONTINUOUS
 62
     6
100
AcDbLine
 10
744.0000000000026
 20
312.9999999999995
 30
0.0
 11
744.0000000000026
 21
92.99999999999955
 31
0.0
  0
LINE
  5
126
330
1F
100
AcDbEntity
  8
枠_表
  6
CONTINUOUS
 62
     6
100
AcDbLine
 10
614.0000000000026
 20
312.9999999999995
 30
0.0
 11
614.0000000000026
 21
92.99999999999955
 31
0.0
  0
LINE
  5
127
330
1F
100
AcDbEntity
  8
枠_表
  6
CONTINUOUS
 62
     6
100
AcDbLine
 10
484.0000000000026
 20
312.9999999999995
 30
0.0
 11
484.0000000000026
 21
92.99999999999955
 31
0.0
  0
LINE
  5
128
330
1F
100
AcDbEntity
  8
枠_表
  6
CONTINUOUS
 62
     6
100
AcDbLine
 10
329.0000000000026
 20
312.9999999999995
 30
0.0
 11
329.0000000000026
 21
92.99999999999955
 31
0.0
  0
LINE
  5
129
330
1F
100
AcDbEntity
  8
枠_表
  6
CONTINUOUS
 62
     6
100
AcDbLine
 10
174.0000000000026
 20
262.9999999999995
 30
0.0
 11
744.0000000000026
 21
262.9999999999995
 31
0.0
  0
LINE
  5
12A
330
1F
100
AcDbEntity
  8
枠_表
  6
CONTINUOUS
 62
     6
100
AcDbLine
 10
1886.653808600002
 20
216.0029297000005
 30
0.0
 11
1963.993896500001
 21
294.6998291
 31
0.0
  0
CIRCLE
  5
12B
330
1F
100
AcDbEntity
  8
枠_表
  6
CONTINUOUS
 62
     6
100
AcDbCircle
 10
224.0000000000026
 20
117.9999999999995
 30
0.0
 40
1.0000002
  0
CIRCLE
  5
12C
330
1F
100
AcDbEntity
  8
枠_表
  6
CONTINUOUS
 62
     6
100
AcDbCircle
 10
274.0000000000026
 20
117.9999999999995
 30
0.0
 40
1.0000002
  0
CIRCLE
  5
12D
330
1F
100
AcDbEntity
  8
枠_表
  6
CONTINUOUS
 62
     6
100
AcDbCircle
 10
379.0000000000026
 20
117.9999999999995
 30
0.0
 40
1.0000002
  0
CIRCLE
  5
12E
330
1F
100
AcDbEntity
  8
枠_表
  6
CONTINUOUS
 62
     6
100
AcDbCircle
 10
429.0000000000026
 20
117.9999999999995
 30
0.0
 40
1.0000002
  0
LINE
  5
12F
330
1F
100
AcDbEntity
  8
枠_表
  6
EXLTYPE2
 62
     6
100
AcDbLine
 10
174.0000000000026
 20
142.9999999999995
 30
0.0
 11
484.0000000000026
 21
142.9999999999995
 31
0.0
  0
CIRCLE
  5
130
330
1F
100
AcDbEntity
  8
枠_表
  6
CONTINUOUS
 62
     6
100
AcDbCircle
 10
224.0000000000026
 20
117.9999999999995
 30
0.0
 40
1.0000002
  0
CIRCLE
  5
131
330
1F
100
AcDbEntity
  8
枠_表
  6
CONTINUOUS
 62
     6
100
AcDbCircle
 10
274.0000000000026
 20
117.9999999999995
 30
0.0
 40
1.0000002
  0
LINE
  5
132
330
1F
100
AcDbEntity
  8
枠_表
  6
CONTINUOUS
 62
     7
100
AcDbLine
 10
174.0000000000026
 20
92.99999999999955
 30
0.0
 11
174.0000000000026
 21
2893.0
 31
0.0
  0
TEXT
  5
133
330
1F
100
AcDbEntity
  8
枠_表
  6
CONTINUOUS
 62
     2
100
AcDbText
 10
1571.500000000031
 20
227.9999999999995
 30
0.0
 40
50.0
  1
別表
 41
1.108252727272727
  7
EXCADSTD
 72
     5
 11
1658.577000000031
 21
227.9999999999995
 31
0.0
100
AcDbText
  0
TEXT
  5
134
330
1F
100
AcDbEntity
  8
枠_表
  6
CONTINUOUS
 62
     2
100
AcDbText
 10
1894.000000000035
 20
2728.749999999997
 30
0.0
 40
40.0
  1
１
 41
1.12
  7
EXCADSTD
 72
     5
 11
1926.000000000035
 21
2728.749999999997
 31
0.0
100
AcDbText
  0
LINE
  5
135
330
1F
100
AcDbEntity
  8
枠_表
  6
CONTINUOUS
 62
     6
100
AcDbLine
 10
1164.000000000035
 20
2773.499999999996
 30
0.0
 11
1964.000000000035
 21
2773.499999999996
 31
0.0
  0
LINE
  5
136
330
1F
100
AcDbEntity
  8
枠_表
  6
CONTINUOUS
 62
     6
100
AcDbLine
 10
1164.000000000035
 20
2822.999999999996
 30
0.0
 11
1964.000000000035
 21
2822.999999999996
 31
0.0
  0
LINE
  5
137
330
1F
100
AcDbEntity
  8
枠_表
  6
CONTINUOUS
 62
     6
100
AcDbLine
 10
1164.000000000035
 20
2723.999999999995
 30
0.0
 11
1964.000000000035
 21
2723.999999999995
 31
0.0
  0
TEXT
  5
138
330
1F
100
AcDbEntity
  8
枠_表
  6
CONTINUOUS
 62
     2
100
AcDbText
 10
1878.00000005964
 20
2778.25
 30
0.0
 40
40.0
  1
個数
 41
1.049923636363638
  7
EXCADSTD
 72
     5
 11
1943.99520005964
 21
2778.25
 31
0.0
100
AcDbText
  0
TEXT
  5
139
330
1F
100
AcDbEntity
  8
枠_表
  6
CONTINUOUS
 62
     2
100
AcDbText
 10
1249.000000000031
 20
2778.25
 30
0.0
 40
40.0
  1
品番
 41
1.895695454545453
  7
EXCADSTD
 72
     5
 11
1368.158000000031
 21
2778.25
 31
0.0
100
AcDbText
  0
TEXT
  5
13A
330
1F
100
AcDbEntity
  8
枠_表
  6
CONTINUOUS
 62
     2
100
AcDbText
 10
1599.000000000031
 20
2778.25
 30
0.0
 40
40.0
  1
品名
 41
1.895695454545453
  7
EXCADSTD
 72
     5
 11
1718.158000000031
 21
2778.25
 31
0.0
100
AcDbText
  0
LINE
  5
13B
330
1F
100
AcDbEntity
  8
枠_表
  6
CONTINUOUS
 62
     6
100
AcDbLine
 10
1164.000000000035
 20
2723.999999999999
 30
0.0
 11
1164.000000000035
 21
2822.999999999999
 31
0.0
  0
LINE
  5
13C
330
1F
100
AcDbEntity
  8
枠_表
  6
CONTINUOUS
 62
     6
100
AcDbLine
 10
1464.000000000038
 20
2822.999999999996
 30
0.0
 11
1464.000000000038
 21
2723.999999999999
 31
0.0
  0
LINE
  5
13D
330
1F
100
AcDbEntity
  8
枠_表
  6
CONTINUOUS
 62
     6
100
AcDbLine
 10
1864.000000000035
 20
2723.999999999999
 30
0.0
 11
1864.000000000035
 21
2822.999999999996
 31
0.0
  0
LINE
  5
13E
330
1F
100
AcDbEntity
  8
枠_表
  6
CONTINUOUS
 62
     6
100
AcDbLine
 10
1964.000000000035
 20
2723.999999999999
 30
0.0
 11
1964.000000000035
 21
2822.999999999999
 31
0.0
  0
TEXT
  5
13F
330
1F
100
AcDbEntity
  8
枠_表
  6
CONTINUOUS
 62
     2
100
AcDbText
 10
1894.000000000035
 20
2559.749999999997
 30
0.0
 40
40.0
  1
１
 41
1.12
  7
EXCADSTD
 72
     5
 11
1926.000000000035
 21
2559.749999999997
 31
0.0
100
AcDbText
  0
LINE
  5
140
330
1F
100
AcDbEntity
  8
枠_表
  6
CONTINUOUS
 62
     6
100
AcDbLine
 10
1164.000000000035
 20
2604.499999999997
 30
0.0
 11
1964.000000000035
 21
2604.499999999997
 31
0.0
  0
LINE
  5
141
330
1F
100
AcDbEntity
  8
枠_表
  6
CONTINUOUS
 62
     6
100
AcDbLine
 10
1164.000000000035
 20
2653.999999999998
 30
0.0
 11
1964.000000000035
 21
2653.999999999998
 31
0.0
  0
LINE
  5
142
330
1F
100
AcDbEntity
  8
枠_表
  6
CONTINUOUS
 62
     6
100
AcDbLine
 10
1164.000000000035
 20
2554.999999999997
 30
0.0
 11
1964.000000000035
 21
2554.999999999997
 31
0.0
  0
TEXT
  5
143
330
1F
100
AcDbEntity
  8
枠_表
  6
CONTINUOUS
 62
     2
100
AcDbText
 10
1878.00000005964
 20
2609.249999999999
 30
0.0
 40
40.0
  1
個数
 41
1.049923636363638
  7
EXCADSTD
 72
     5
 11
1943.99520005964
 21
2609.249999999999
 31
0.0
100
AcDbText
  0
TEXT
  5
144
330
1F
100
AcDbEntity
  8
枠_表
  6
CONTINUOUS
 62
     2
100
AcDbText
 10
1249.000000000031
 20
2609.249999999999
 30
0.0
 40
40.0
  1
品番
 41
1.895695454545453
  7
EXCADSTD
 72
     5
 11
1368.158000000031
 21
2609.249999999999
 31
0.0
100
AcDbText
  0
TEXT
  5
145
330
1F
100
AcDbEntity
  8
枠_表
  6
CONTINUOUS
 62
     2
100
AcDbText
 10
1599.000000000031
 20
2609.249999999999
 30
0.0
 40
40.0
  1
品名
 41
1.895695454545453
  7
EXCADSTD
 72
     5
 11
1718.158000000031
 21
2609.249999999999
 31
0.0
100
AcDbText
  0
LINE
  5
146
330
1F
100
AcDbEntity
  8
枠_表
  6
CONTINUOUS
 62
     6
100
AcDbLine
 10
1164.000000000035
 20
2555.0
 30
0.0
 11
1164.000000000035
 21
2654.0
 31
0.0
  0
LINE
  5
147
330
1F
100
AcDbEntity
  8
枠_表
  6
CONTINUOUS
 62
     6
100
AcDbLine
 10
1464.000000000038
 20
2653.999999999998
 30
0.0
 11
1464.000000000038
 21
2555.0
 31
0.0
  0
LINE
  5
148
330
1F
100
AcDbEntity
  8
枠_表
  6
CONTINUOUS
 62
     6
100
AcDbLine
 10
1864.000000000035
 20
2555.0
 30
0.0
 11
1864.000000000035
 21
2653.999999999998
 31
0.0
  0
LINE
  5
149
330
1F
100
AcDbEntity
  8
枠_表
  6
CONTINUOUS
 62
     6
100
AcDbLine
 10
1964.000000000035
 20
2555.0
 30
0.0
 11
1964.000000000035
 21
2654.0
 31
0.0
  0
TEXT
  5
14A
330
1F
100
AcDbEntity
  8
枠_表
  6
CONTINUOUS
 62
     2
100
AcDbText
 10
1168.400000000029
 20
2728.749999999997
 30
0.0
 40
40.0
  1
ＬＴＣＲ３９１Ｃ１Ｅ◇▽－ＰＳ
 41
0.5800562060281133
  7
EXCADSTD
 72
     5
 11
1463.40001335147
 21
2728.749999999997
 31
0.0
100
AcDbText
  0
TEXT
  5
14B
330
1F
100
AcDbEntity
  8
枠_表
  6
CONTINUOUS
 62
     2
100
AcDbText
 10
1160.999999999067
 20
2664.000000000005
 30
0.0
 40
40.0
  1
※壁排水／壁給水仕様
 41
1.052966101694915
  7
EXCADSTD
 72
     5
 11
1515.999999999067
 21
2664.000000000005
 31
0.0
100
AcDbText
  0
TEXT
  5
14C
330
1F
100
AcDbEntity
  8
枠_表
  6
CONTINUOUS
 62
     2
100
AcDbText
 10
1168.400000000029
 20
2559.749999999997
 30
0.0
 40
40.0
  1
ＬＴＣＲ３９１Ｃ１Ｅ◇▽－ＰＦ
 41
0.5800562060281133
  7
EXCADSTD
 72
     5
 11
1463.40001335147
 21
2559.749999999997
 31
0.0
100
AcDbText
  0
TEXT
  5
14D
330
1F
100
AcDbEntity
  8
枠_表
  6
CONTINUOUS
 62
     2
100
AcDbText
 10
1160.999999999067
 20
2833.000000000005
 30
0.0
 40
40.0
  1
※壁排水／床給水仕様
 41
1.052966101694915
  7
EXCADSTD
 72
     5
 11
1515.999999999067
 21
2833.000000000005
 31
0.0
100
AcDbText
  0
TEXT
  5
14E
330
1F
100
AcDbEntity
  8
枠_表
  6
CONTINUOUS
 62
     2
100
AcDbText
 10
929.0000017881293
 20
222.9999999999995
 30
0.0
 40
60.0
  1
手洗いキャビ
 41
1.066666650772095
  7
EXCADSTD
 72
     5
 11
1248.999997019758
 21
222.9999999999995
 31
0.0
100
AcDbText
  0
TEXT
  5
14F
330
1F
100
AcDbEntity
  8
枠_表
  6
CONTINUOUS
 62
     2
100
AcDbText
 10
1472.999999999898
 20
2727.749999999995
 30
0.0
 40
40.0
  1
手洗いキャビ（一般地形）
 41
0.9661971830985917
  7
EXCADSTD
 72
     5
 11
1864.999999999898
 21
2727.749999999995
 31
0.0
100
AcDbText
  0
TEXT
  5
150
330
1F
100
AcDbEntity
  8
枠_表
  6
CONTINUOUS
 62
     2
100
AcDbText
 10
1472.999999999898
 20
2558.749999999998
 30
0.0
 40
40.0
  1
手洗いキャビ（一般地形）
 41
0.9661971830985917
  7
EXCADSTD
 72
     5
 11
1864.999999999898
 21
2558.749999999998
 31
0.0
100
AcDbText
  0
TEXT
  5
151
330
1F
100
AcDbEntity
  8
枠_表
  6
CONTINUOUS
 62
     2
100
AcDbText
 10
1164.537187078901
 20
2484.242015055299
 30
0.0
 40
40.0
  1
※品番の◇は天板カラー記号を示す（別表１参照）
 41
0.9503649635036493
  7
EXCADSTD
 72
     5
 11
1908.537187078901
 21
2484.242015055299
 31
0.0
100
AcDbText
  0
TEXT
  5
152
330
1F
100
AcDbEntity
  8
枠_表
  6
CONTINUOUS
 62
     2
100
AcDbText
 10
1164.537187078901
 20
2444.242015055299
 30
0.0
 40
40.0
  1
※品番の▽は扉カラー記号を示す（別表２参照）
 41
0.9511450381679387
  7
EXCADSTD
 72
     5
 11
1876.537187078901
 21
2444.242015055299
 31
0.0
100
AcDbText
  0
TEXT
  5
153
330
1F
100
AcDbEntity
  8
枠_表
  6
CONTINUOUS
 62
     2
100
AcDbText
 10
1164.537187078901
 20
2404.242015055299
 30
0.0
 40
40.0
  1
※単水栓は自動水栓（電池式）
 41
0.9614457831325303
  7
EXCADSTD
 72
     5
 11
1620.537187078901
 21
2404.242015055299
 31
0.0
100
AcDbText
  0
TEXT
  5
154
330
1F
100
AcDbEntity
  8
枠_表
  6
CONTINUOUS
 62
     2
100
AcDbText
 10
1195.965213771105
 20
2333.0
 30
0.0
 40
40.0
  1
記号
 41
1.049923636363638
  7
EXCADSTD
 72
     5
 11
1261.960413771106
 21
2333.0
 31
0.0
100
AcDbText
  0
TEXT
  5
155
330
1F
100
AcDbEntity
  8
枠_表
  6
CONTINUOUS
 62
     2
100
AcDbText
 10
1425.456913030711
 20
2333.0
 30
0.0
 40
40.0
  1
カラー
 41
1.070588235294118
  7
EXCADSTD
 72
     5
 11
1529.456913030711
 21
2333.0
 31
0.0
100
AcDbText
  0
LINE
  5
156
330
1F
100
AcDbEntity
  8
枠_表
  6
CONTINUOUS
 62
     6
100
AcDbLine
 10
1163.965213711503
 20
2278.0
 30
0.0
 11
1652.948612111501
 21
2278.0
 31
0.0
  0
LINE
  5
157
330
1F
100
AcDbEntity
  8
枠_表
  6
CONTINUOUS
 62
     6
100
AcDbLine
 10
1163.965213711503
 20
2328.0
 30
0.0
 11
1652.948612111501
 21
2328.0
 31
0.0
  0
LINE
  5
158
330
1F
100
AcDbEntity
  8
枠_表
  6
CONTINUOUS
 62
     6
100
AcDbLine
 10
1163.965213711503
 20
2228.0
 30
0.0
 11
1652.948612111501
 21
2228.0
 31
0.0
  0
LINE
  5
159
330
1F
100
AcDbEntity
  8
枠_表
  6
CONTINUOUS
 62
     6
100
AcDbLine
 10
1163.965213711503
 20
2378.0
 30
0.0
 11
1652.948612111501
 21
2378.0
 31
0.0
  0
TEXT
  5
15A
330
1F
100
AcDbEntity
  8
枠_表
  6
CONTINUOUS
 62
     2
100
AcDbText
 10
1213.965213711501
 20
2285.0
 30
0.0
 40
40.0
  1
Ｂ
 41
1.12
  7
EXCADSTD
 72
     5
 11
1245.965213711501
 21
2285.0
 31
0.0
100
AcDbText
  0
TEXT
  5
15B
330
1F
100
AcDbEntity
  8
枠_表
  6
CONTINUOUS
 62
     2
100
AcDbText
 10
1306.965213711501
 20
2283.0
 30
0.0
 40
40.0
  1
ストーンベージュ
 41
1.061170212765957
  7
EXCADSTD
 72
     5
 11
1591.965213711501
 21
2283.0
 31
0.0
100
AcDbText
  0
TEXT
  5
15C
330
1F
100
AcDbEntity
  8
枠_表
  6
CONTINUOUS
 62
     2
100
AcDbText
 10
1306.965213711501
 20
2233.0
 30
0.0
 40
40.0
  1
ストーングレー
 41
0.9902439024390244
  7
EXCADSTD
 72
     5
 11
1538.965213711501
 21
2233.0
 31
0.0
100
AcDbText
  0
LINE
  5
15D
330
1F
100
AcDbEntity
  8
枠_表
  6
CONTINUOUS
 62
     6
100
AcDbLine
 10
1301.965213711501
 20
2228.0
 30
0.0
 11
1301.965213711501
 21
2378.0
 31
0.0
  0
LINE
  5
15E
330
1F
100
AcDbEntity
  8
枠_表
  6
CONTINUOUS
 62
     6
100
AcDbLine
 10
1163.965213711503
 20
2378.0
 30
0.0
 11
1163.965213711503
 21
2228.0
 31
0.0
  0
LINE
  5
15F
330
1F
100
AcDbEntity
  8
枠_表
  6
CONTINUOUS
 62
     6
100
AcDbLine
 10
1652.948612111501
 20
2228.0
 30
0.0
 11
1652.948612111501
 21
2378.0
 31
0.0
  0
TEXT
  5
160
330
1F
100
AcDbEntity
  8
枠_表
  6
CONTINUOUS
 62
     2
100
AcDbText
 10
1349.965213711503
 20
2171.129824196199
 30
0.0
 40
40.0
  1
別表１
 41
1.070588235294118
  7
EXCADSTD
 72
     5
 11
1453.965213711503
 21
2171.129824196199
 31
0.0
100
AcDbText
  0
LINE
  5
161
330
1F
100
AcDbEntity
  8
枠_表
  6
CONTINUOUS
 62
     6
100
AcDbLine
 10
1344.965213711503
 20
2169.129824196199
 30
0.0
 11
1457.965213711503
 21
2169.129824196199
 31
0.0
  0
TEXT
  5
162
330
1F
100
AcDbEntity
  8
枠_表
  6
CONTINUOUS
 62
     2
100
AcDbText
 10
1195.989389772905
 20
2079.000000000001
 30
0.0
 40
40.0
  1
記号
 41
1.049923636363638
  7
EXCADSTD
 72
     5
 11
1261.984589772905
 21
2079.000000000001
 31
0.0
100
AcDbText
  0
TEXT
  5
163
330
1F
100
AcDbEntity
  8
枠_表
  6
CONTINUOUS
 62
     2
100
AcDbText
 10
1213.9893897133
 20
2031.000000000001
 30
0.0
 40
40.0
  1
Ａ
 41
1.12
  7
EXCADSTD
 72
     5
 11
1245.9893897133
 21
2031.000000000001
 31
0.0
100
AcDbText
  0
TEXT
  5
164
330
1F
100
AcDbEntity
  8
枠_表
  6
CONTINUOUS
 62
     2
100
AcDbText
 10
1306.9893897133
 20
2029.000000000001
 30
0.0
 40
40.0
  1
ホワイト
 41
1.103260869565217
  7
EXCADSTD
 72
     5
 11
1451.9893897133
 21
2029.000000000001
 31
0.0
100
AcDbText
  0
LINE
  5
165
330
1F
100
AcDbEntity
  8
枠_表
  6
CONTINUOUS
 62
     6
100
AcDbLine
 10
1301.989389713301
 20
2024.0
 30
0.0
 11
1301.989389713301
 21
2124.0
 31
0.0
  0
LINE
  5
166
330
1F
100
AcDbEntity
  8
枠_表
  6
CONTINUOUS
 62
     6
100
AcDbLine
 10
1163.989389713302
 20
2124.0
 30
0.0
 11
1163.989389713302
 21
2024.0
 31
0.0
  0
LINE
  5
167
330
1F
100
AcDbEntity
  8
枠_表
  6
CONTINUOUS
 62
     6
100
AcDbLine
 10
1652.9727881133
 20
2024.0
 30
0.0
 11
1652.9727881133
 21
2124.0
 31
0.0
  0
LINE
  5
168
330
1F
100
AcDbEntity
  8
枠_表
  6
CONTINUOUS
 62
     6
100
AcDbLine
 10
1163.989389713302
 20
2024.0
 30
0.0
 11
1652.9727881133
 21
2024.0
 31
0.0
  0
LINE
  5
169
330
1F
100
AcDbEntity
  8
枠_表
  6
CONTINUOUS
 62
     6
100
AcDbLine
 10
1163.989389713302
 20
2074.0
 30
0.0
 11
1652.9727881133
 21
2074.0
 31
0.0
  0
LINE
  5
16A
330
1F
100
AcDbEntity
  8
枠_表
  6
CONTINUOUS
 62
     6
100
AcDbLine
 10
1163.989389713302
 20
2124.0
 30
0.0
 11
1652.9727881133
 21
2124.0
 31
0.0
  0
TEXT
  5
16B
330
1F
100
AcDbEntity
  8
枠_表
  6
CONTINUOUS
 62
     2
100
AcDbText
 10
1425.481089032511
 20
2079.000000000001
 30
0.0
 40
40.0
  1
カラー
 41
1.070588235294118
  7
EXCADSTD
 72
     5
 11
1529.481089032511
 21
2079.000000000001
 31
0.0
100
AcDbText
  0
LINE
  5
16C
330
1F
100
AcDbEntity
  8
枠_表
  6
CONTINUOUS
 62
     6
100
AcDbLine
 10
1338.636504030302
 20
1965.709292143499
 30
0.0
 11
1451.636504030303
 21
1965.709292143499
 31
0.0
  0
TEXT
  5
16D
330
1F
100
AcDbEntity
  8
枠_表
  6
CONTINUOUS
 62
     2
100
AcDbText
 10
1343.636504030302
 20
1967.709292143499
 30
0.0
 40
40.0
  1
別表２
 41
1.070588235294118
  7
EXCADSTD
 72
     5
 11
1447.636504030302
 21
1967.709292143499
 31
0.0
100
AcDbText
  0
TEXT
  5
16E
330
1F
100
AcDbEntity
  8
枠_表
  6
CONTINUOUS
 62
     2
100
AcDbText
 10
1212.965213711501
 20
2231.0
 30
0.0
 40
40.0
  1
Ｇ
 41
1.12
  7
EXCADSTD
 72
     5
 11
1244.965213711501
 21
2231.0
 31
0.0
100
AcDbText
  0
TEXT
  5
16F
330
1F
100
AcDbEntity
  8
枠_表
  6
CONTINUOUS
 62
     7
100
AcDbText
 10
1508.99999999997
 20
114.5000000000005
 30
0.0
 40
60.0
  1
ＬＵ７１８３４１
 41
1.017730496453901
  7
EXCADSTD
 72
     5
 11
1918.99999999997
 21
114.5000000000005
 31
0.0
100
AcDbText
  0
TEXT
  5
170
330
1F
100
AcDbEntity
  8
枠_表
  6
CONTINUOUS
 62
     6
100
AcDbText
 10
201.500000000006
 20
178.0000000000018
 30
0.0
 40
50.0
  1
伊藤
 41
1.166581818181818
  7
EXCADSTD
 72
     5
 11
293.160000000006
 21
178.0000000000018
 31
0.0
100
AcDbText
  0
TEXT
  5
171
330
1F
100
AcDbEntity
  8
枠_表
  6
CONTINUOUS
 62
     6
100
AcDbText
 10
243.0691160569512
 20
102.4500732000001
 30
0.0
 40
30.0
  1
1
 41
0.7238636363636363
  7
EXCADSTD
 72
     5
 11
254.4441160569512
 21
102.4500732000001
 31
0.0
100
AcDbText
  0
TEXT
  5
172
330
1F
100
AcDbEntity
  8
枠_表
  6
CONTINUOUS
 62
     6
100
AcDbText
 10
289.8941159139002
 20
102.4500732000001
 30
0.0
 40
30.0
  1
18
 41
0.408648648648649
  7
EXCADSTD
 72
     5
 11
311.4941159139003
 21
102.4500732000001
 31
0.0
100
AcDbText
  0
TEXT
  5
173
330
1F
100
AcDbEntity
  8
枠_表
  6
CONTINUOUS
 62
     6
100
AcDbText
 10
180.3441156754815
 20
102.4500732000001
 30
0.0
 40
30.0
  1
'23
 41
0.4689784042553192
  7
EXCADSTD
 72
     5
 11
211.8326656754815
 21
102.4500732000001
 31
0.0
100
AcDbText
  0
TEXT
  5
174
330
1F
100
AcDbEntity
  8
枠_表
  6
CONTINUOUS
 62
     6
100
AcDbText
 10
497.5000000000059
 20
178.0000000000018
 30
0.0
 40
50.0
  1
川野
 41
1.166581818181818
  7
EXCADSTD
 72
     5
 11
589.1600000000059
 21
178.0000000000018
 31
0.0
100
AcDbText
  0
LINE
  5
175
330
1F
100
AcDbEntity
  8
化粧台
  6
EXLTYPE3
 62
     6
100
AcDbLine
 10
570.0000000000001
 20
1998.207428524799
 30
0.0
 11
570.0000000000001
 21
2088.007428524798
 31
0.0
  0
LINE
  5
176
330
1F
100
AcDbEntity
  8
化粧台
  6
CONTINUOUS
 62
     4
100
AcDbLine
 10
506.8914886175299
 20
1940.007428524798
 30
0.0
 11
522.1318686546166
 21
1958.049103798461
 31
0.0
  0
LINE
  5
177
330
1F
100
AcDbEntity
  8
化粧台
  6
CONTINUOUS
 62
     4
100
AcDbLine
 10
526.1454757526554
 20
2095.264846293187
 30
0.0
 11
511.2914886175296
 21
2110.007428524798
 31
0.0
  0
LINE
  5
178
330
1F
100
AcDbEntity
  8
化粧台
  6
CONTINUOUS
 62
     4
100
AcDbLine
 10
815.2914886175296
 20
2096.657428524799
 30
0.0
 11
829.0914886175298
 21
2110.457428524799
 31
0.0
  0
LINE
  5
179
330
1F
100
AcDbEntity
  8
化粧台
  6
CONTINUOUS
 62
     4
100
AcDbLine
 10
817.6914886175302
 20
1958.407428524799
 30
0.0
 11
833.89148861753
 21
1939.007428524798
 31
0.0
  0
ARC
  5
17A
330
1F
100
AcDbEntity
  8
化粧台
  6
CONTINUOUS
 62
     7
100
AcDbCircle
 10
669.9999837890101
 20
11925.0
 30
0.0
 40
9993.0
100
AcDbArc
 50
269.0536303734691
 51
270.9463698124559
  0
ARC
  5
17B
330
1F
100
AcDbEntity
  8
化粧台
  6
CONTINUOUS
 62
     7
100
AcDbCircle
 10
835.0000000000028
 20
1936.362705286089
 30
0.0
 40
3.0
100
AcDbArc
 50
270.9463698124562
 51
0.0
  0
ARC
  5
17C
330
1F
100
AcDbEntity
  8
化粧台
  6
CONTINUOUS
 62
     7
100
AcDbCircle
 10
669.9999837890101
 20
11925.0
 30
0.0
 40
10000.0
100
AcDbArc
 50
269.0536303734691
 51
270.9463698124559
  0
ARC
  5
17D
330
1F
100
AcDbEntity
  8
化粧台
  6
CONTINUOUS
 62
     7
100
AcDbCircle
 10
504.9999999999983
 20
1936.362705286089
 30
0.0
 40
10.0
100
AcDbArc
 50
180.0
 51
269.0536303734691
  0
LINE
  5
17E
330
1F
100
AcDbEntity
  8
化粧台
  6
CONTINUOUS
 62
     7
100
AcDbLine
 10
502.0000000000002
 20
1936.362705286089
 30
0.0
 11
502.0000000000002
 21
2189.999999999999
 31
0.0
  0
LINE
  5
17F
330
1F
100
AcDbEntity
  8
化粧台
  6
CONTINUOUS
 62
     7
100
AcDbLine
 10
495.0000000000001
 20
2194.999999999999
 30
0.0
 11
495.0000000000001
 21
1936.362705286089
 31
0.0
  0
ARC
  5
180
330
1F
100
AcDbEntity
  8
化粧台
  6
CONTINUOUS
 62
     7
100
AcDbCircle
 10
504.9999999999983
 20
1936.362705286089
 30
0.0
 40
3.0
100
AcDbArc
 50
180.0
 51
269.053630373419
  0
ARC
  5
181
330
1F
100
AcDbEntity
  8
化粧台
  6
CONTINUOUS
 62
     7
100
AcDbCircle
 10
835.0000000000028
 20
1936.362705286089
 30
0.0
 40
10.0
100
AcDbArc
 50
270.946369626531
 51
0.0
  0
LINE
  5
182
330
1F
100
AcDbEntity
  8
化粧台
  6
CONTINUOUS
 62
     7
100
AcDbLine
 10
845.0000000000001
 20
2194.999999999999
 30
0.0
 11
845.0000000000001
 21
1936.362705286089
 31
0.0
  0
ARC
  5
183
330
1F
100
AcDbEntity
  8
化粧台
  6
CONTINUOUS
 62
     7
100
AcDbCircle
 10
835.0000000000001
 20
2194.999999999999
 30
0.0
 40
10.0
100
AcDbArc
 50
0.0
 51
90.00000000000001
  0
ARC
  5
184
330
1F
100
AcDbEntity
  8
化粧台
  6
CONTINUOUS
 62
     7
100
AcDbCircle
 10
833.0000000000001
 20
2189.999999999999
 30
0.0
 40
5.0
100
AcDbArc
 50
0.0
 51
90.00000000000001
  0
LINE
  5
185
330
1F
100
AcDbEntity
  8
化粧台
  6
CONTINUOUS
 62
     7
100
AcDbLine
 10
835.0000000000001
 20
2204.999999999999
 30
0.0
 11
505.0000000000001
 21
2204.999999999999
 31
0.0
  0
LINE
  5
186
330
1F
100
AcDbEntity
  8
化粧台
  6
CONTINUOUS
 62
     7
100
AcDbLine
 10
507.0000000000002
 20
2194.999999999999
 30
0.0
 11
833.0000000000001
 21
2194.999999999999
 31
0.0
  0
LINE
  5
187
330
1F
100
AcDbEntity
  8
化粧台
  6
CONTINUOUS
 62
     7
100
AcDbLine
 10
838.0000000000001
 20
2189.999999999999
 30
0.0
 11
838.0000000000001
 21
1936.362705286089
 31
0.0
  0
LINE
  5
188
330
1F
100
AcDbEntity
  8
化粧台
  6
CONTINUOUS
 62
     7
100
AcDbLine
 10
815.7784272821474
 20
2092.547816174388
 30
0.0
 11
817.8743338240766
 21
1963.173283388257
 31
0.0
  0
POLYLINE
  5
189
330
1F
100
AcDbEntity
  8
化粧台
  6
CONTINUOUS
 62
     7
100
AcDb2dPolyline
 66
     1
 10
0.0
 20
0.0
 30
0.0
 70
   128
  0
VERTEX
  5
18A
330
189
100
AcDbEntity
  8
化粧台
  6
CONTINUOUS
 62
     7
100
AcDbVertex
100
AcDb2dVertex
 10
811.0799641782216
 20
2097.246279278315
 30
0.0
  0
VERTEX
  5
18B
330
189
100
AcDbEntity
  8
化粧台
  6
CONTINUOUS
 62
     7
100
AcDbVertex
100
AcDb2dVertex
 10
811.0856905701494
 20
2097.245453028458
 30
0.0
  0
VERTEX
  5
18C
330
189
100
AcDbEntity
  8
化粧台
  6
CONTINUOUS
 62
     7
100
AcDbVertex
100
AcDb2dVertex
 10
811.1019800480215
 20
2097.243073476011
 30
0.0
  0
VERTEX
  5
18D
330
189
100
AcDbEntity
  8
化粧台
  6
CONTINUOUS
 62
     7
100
AcDbVertex
100
AcDb2dVertex
 10
811.1274980649713
 20
2097.239289416663
 30
0.0
  0
VERTEX
  5
18E
330
189
100
AcDbEntity
  8
化粧台
  6
CONTINUOUS
 62
     7
100
AcDbVertex
100
AcDb2dVertex
 10
811.1609100741323
 20
2097.234249646102
 30
0.0
  0
VERTEX
  5
18F
330
189
100
AcDbEntity
  8
化粧台
  6
CONTINUOUS
 62
     7
100
AcDbVertex
100
AcDb2dVertex
 10
811.2008815286379
 20
2097.228102960018
 30
0.0
  0
VERTEX
  5
190
330
189
100
AcDbEntity
  8
化粧台
  6
CONTINUOUS
 62
     7
100
AcDbVertex
100
AcDb2dVertex
 10
811.2460778816214
 20
2097.220998154097
 30
0.0
  0
VERTEX
  5
191
330
189
100
AcDbEntity
  8
化粧台
  6
CONTINUOUS
 62
     7
100
AcDbVertex
100
AcDb2dVertex
 10
811.2951645862164
 20
2097.21308402403
 30
0.0
  0
VERTEX
  5
192
330
189
100
AcDbEntity
  8
化粧台
  6
CONTINUOUS
 62
     7
100
AcDbVertex
100
AcDb2dVertex
 10
811.3468070955562
 20
2097.204509365504
 30
0.0
  0
VERTEX
  5
193
330
189
100
AcDbEntity
  8
化粧台
  6
CONTINUOUS
 62
     7
100
AcDbVertex
100
AcDb2dVertex
 10
811.399670862774
 20
2097.195422974208
 30
0.0
  0
VERTEX
  5
194
330
189
100
AcDbEntity
  8
化粧台
  6
CONTINUOUS
 62
     7
100
AcDbVertex
100
AcDb2dVertex
 10
811.4524213410034
 20
2097.185973645829
 30
0.0
  0
VERTEX
  5
195
330
189
100
AcDbEntity
  8
化粧台
  6
CONTINUOUS
 62
     7
100
AcDbVertex
100
AcDb2dVertex
 10
811.503723983378
 20
2097.176310176058
 30
0.0
  0
VERTEX
  5
196
330
189
100
AcDbEntity
  8
化粧台
  6
CONTINUOUS
 62
     7
100
AcDbVertex
100
AcDb2dVertex
 10
811.557371073244
 20
2097.165536231404
 30
0.0
  0
VERTEX
  5
197
330
189
100
AcDbEntity
  8
化粧台
  6
CONTINUOUS
 62
     7
100
AcDbVertex
100
AcDb2dVertex
 10
811.6081116865806
 20
2097.154564733563
 30
0.0
  0
VERTEX
  5
198
330
189
100
AcDbEntity
  8
化粧台
  6
CONTINUOUS
 62
     7
100
AcDbVertex
100
AcDb2dVertex
 10
811.656419595114
 20
2097.143277516236
 30
0.0
  0
VERTEX
  5
199
330
189
100
AcDbEntity
  8
化粧台
  6
CONTINUOUS
 62
     7
100
AcDbVertex
100
AcDb2dVertex
 10
811.7027685705714
 20
2097.131556413124
 30
0.0
  0
VERTEX
  5
19A
330
189
100
AcDbEntity
  8
化粧台
  6
CONTINUOUS
 62
     7
100
AcDbVertex
100
AcDb2dVertex
 10
811.7476323846788
 20
2097.119283257927
 30
0.0
  0
VERTEX
  5
19B
330
189
100
AcDbEntity
  8
化粧台
  6
CONTINUOUS
 62
     7
100
AcDbVertex
100
AcDb2dVertex
 10
811.7914848091631
 20
2097.106339884347
 30
0.0
  0
VERTEX
  5
19C
330
189
100
AcDbEntity
  8
化粧台
  6
CONTINUOUS
 62
     7
100
AcDbVertex
100
AcDb2dVertex
 10
811.8347996157507
 20
2097.092608126084
 30
0.0
  0
VERTEX
  5
19D
330
189
100
AcDbEntity
  8
化粧台
  6
CONTINUOUS
 62
     7
100
AcDbVertex
100
AcDb2dVertex
 10
811.8780505761683
 20
2097.077969816838
 30
0.0
  0
VERTEX
  5
19E
330
189
100
AcDbEntity
  8
化粧台
  6
CONTINUOUS
 62
     7
100
AcDbVertex
100
AcDb2dVertex
 10
811.9217114621426
 20
2097.062306790312
 30
0.0
  0
VERTEX
  5
19F
330
189
100
AcDbEntity
  8
化粧台
  6
CONTINUOUS
 62
     7
100
AcDbVertex
100
AcDb2dVertex
 10
811.9662560454001
 20
2097.045500880206
 30
0.0
  0
VERTEX
  5
1A0
330
189
100
AcDbEntity
  8
化粧台
  6
CONTINUOUS
 62
     7
100
AcDbVertex
100
AcDb2dVertex
 10
812.0121580976672
 20
2097.02743392022
 30
0.0
  0
VERTEX
  5
1A1
330
189
100
AcDbEntity
  8
化粧台
  6
CONTINUOUS
 62
     7
100
AcDbVertex
100
AcDb2dVertex
 10
812.113524203598
 20
2096.985428601594
 30
0.0
  0
VERTEX
  5
1A2
330
189
100
AcDbEntity
  8
化粧台
  6
CONTINUOUS
 62
     7
100
AcDbVertex
100
AcDb2dVertex
 10
812.2212038217459
 20
2096.938309342862
 30
0.0
  0
VERTEX
  5
1A3
330
189
100
AcDbEntity
  8
化粧台
  6
CONTINUOUS
 62
     7
100
AcDbVertex
100
AcDb2dVertex
 10
812.333517073344
 20
2096.886982501494
 30
0.0
  0
VERTEX
  5
1A4
330
189
100
AcDbEntity
  8
化粧台
  6
CONTINUOUS
 62
     7
100
AcDbVertex
100
AcDb2dVertex
 10
812.4487840796252
 20
2096.83235443496
 30
0.0
  0
VERTEX
  5
1A5
330
189
100
AcDbEntity
  8
化粧台
  6
CONTINUOUS
 62
     7
100
AcDbVertex
100
AcDb2dVertex
 10
812.5653249618223
 20
2096.77533150073
 30
0.0
  0
VERTEX
  5
1A6
330
189
100
AcDbEntity
  8
化粧台
  6
CONTINUOUS
 62
     7
100
AcDbVertex
100
AcDb2dVertex
 10
812.6814598411685
 20
2096.716820056275
 30
0.0
  0
VERTEX
  5
1A7
330
189
100
AcDbEntity
  8
化粧台
  6
CONTINUOUS
 62
     7
100
AcDbVertex
100
AcDb2dVertex
 10
812.7955088388965
 20
2096.657726459065
 30
0.0
  0
VERTEX
  5
1A8
330
189
100
AcDbEntity
  8
化粧台
  6
CONTINUOUS
 62
     7
100
AcDbVertex
100
AcDb2dVertex
 10
812.9057920762393
 20
2096.59895706657
 30
0.0
  0
VERTEX
  5
1A9
330
189
100
AcDbEntity
  8
化粧台
  6
CONTINUOUS
 62
     7
100
AcDbVertex
100
AcDb2dVertex
 10
813.0106296744301
 20
2096.54141823626
 30
0.0
  0
VERTEX
  5
1AA
330
189
100
AcDbEntity
  8
化粧台
  6
CONTINUOUS
 62
     7
100
AcDbVertex
100
AcDb2dVertex
 10
813.1083417547019
 20
2096.486016325606
 30
0.0
  0
VERTEX
  5
1AB
330
189
100
AcDbEntity
  8
化粧台
  6
CONTINUOUS
 62
     7
100
AcDbVertex
100
AcDb2dVertex
 10
813.1972484382871
 20
2096.433657692077
 30
0.0
  0
VERTEX
  5
1AC
330
189
100
AcDbEntity
  8
化粧台
  6
CONTINUOUS
 62
     7
100
AcDbVertex
100
AcDb2dVertex
 10
813.2406690227714
 20
2096.407171425673
 30
0.0
  0
VERTEX
  5
1AD
330
189
100
AcDbEntity
  8
化粧台
  6
CONTINUOUS
 62
     7
100
AcDbVertex
100
AcDb2dVertex
 10
813.2815402101228
 20
2096.381487654528
 30
0.0
  0
VERTEX
  5
1AE
330
189
100
AcDbEntity
  8
化粧台
  6
CONTINUOUS
 62
     7
100
AcDbVertex
100
AcDb2dVertex
 10
813.3203047795007
 20
2096.356281769224
 30
0.0
  0
VERTEX
  5
1AF
330
189
100
AcDbEntity
  8
化粧台
  6
CONTINUOUS
 62
     7
100
AcDbVertex
100
AcDb2dVertex
 10
813.3574055100643
 20
2096.331229160341
 30
0.0
  0
VERTEX
  5
1B0
330
189
100
AcDbEntity
  8
化粧台
  6
CONTINUOUS
 62
     7
100
AcDbVertex
100
AcDb2dVertex
 10
813.3932851809726
 20
2096.306005218463
 30
0.0
  0
VERTEX
  5
1B1
330
189
100
AcDbEntity
  8
化粧台
  6
CONTINUOUS
 62
     7
100
AcDbVertex
100
AcDb2dVertex
 10
813.4283865713853
 20
2096.28028533417
 30
0.0
  0
VERTEX
  5
1B2
330
189
100
AcDbEntity
  8
化粧台
  6
CONTINUOUS
 62
     7
100
AcDbVertex
100
AcDb2dVertex
 10
813.4631524604613
 20
2096.253744898045
 30
0.0
  0
VERTEX
  5
1B3
330
189
100
AcDbEntity
  8
化粧台
  6
CONTINUOUS
 62
     7
100
AcDbVertex
100
AcDb2dVertex
 10
813.49802562736
 20
2096.226059300669
 30
0.0
  0
VERTEX
  5
1B4
330
189
100
AcDbEntity
  8
化粧台
  6
CONTINUOUS
 62
     7
100
AcDbVertex
100
AcDb2dVertex
 10
813.5334488512407
 20
2096.196903932625
 30
0.0
  0
VERTEX
  5
1B5
330
189
100
AcDbEntity
  8
化粧台
  6
CONTINUOUS
 62
     7
100
AcDbVertex
100
AcDb2dVertex
 10
813.5698649112624
 20
2096.165954184493
 30
0.0
  0
VERTEX
  5
1B6
330
189
100
AcDbEntity
  8
化粧台
  6
CONTINUOUS
 62
     7
100
AcDbVertex
100
AcDb2dVertex
 10
813.6077165865845
 20
2096.132885446856
 30
0.0
  0
VERTEX
  5
1B7
330
189
100
AcDbEntity
  8
化粧台
  6
CONTINUOUS
 62
     7
100
AcDbVertex
100
AcDb2dVertex
 10
813.6880596796594
 20
2096.060333971955
 30
0.0
  0
VERTEX
  5
1B8
330
189
100
AcDbEntity
  8
化粧台
  6
CONTINUOUS
 62
     7
100
AcDbVertex
100
AcDb2dVertex
 10
813.7742852201418
 20
2095.979716464548
 30
0.0
  0
VERTEX
  5
1B9
330
189
100
AcDbEntity
  8
化粧台
  6
CONTINUOUS
 62
     7
100
AcDbVertex
100
AcDb2dVertex
 10
813.8648667208245
 20
2095.892605157698
 30
0.0
  0
VERTEX
  5
1BA
330
189
100
AcDbEntity
  8
化粧台
  6
CONTINUOUS
 62
     7
100
AcDbVertex
100
AcDb2dVertex
 10
813.9582776945011
 20
2095.800572284467
 30
0.0
  0
VERTEX
  5
1BB
330
189
100
AcDbEntity
  8
化粧台
  6
CONTINUOUS
 62
     7
100
AcDbVertex
100
AcDb2dVertex
 10
814.0529916539649
 20
2095.70519007792
 30
0.0
  0
VERTEX
  5
1BC
330
189
100
AcDbEntity
  8
化粧台
  6
CONTINUOUS
 62
     7
100
AcDbVertex
100
AcDb2dVertex
 10
814.1474821120097
 20
2095.608030771119
 30
0.0
  0
VERTEX
  5
1BD
330
189
100
AcDbEntity
  8
化粧台
  6
CONTINUOUS
 62
     7
100
AcDbVertex
100
AcDb2dVertex
 10
814.2402225814284
 20
2095.510666597124
 30
0.0
  0
VERTEX
  5
1BE
330
189
100
AcDbEntity
  8
化粧台
  6
CONTINUOUS
 62
     7
100
AcDbVertex
100
AcDb2dVertex
 10
814.3296865750145
 20
2095.414669789003
 30
0.0
  0
VERTEX
  5
1BF
330
189
100
AcDbEntity
  8
化粧台
  6
CONTINUOUS
 62
     7
100
AcDbVertex
100
AcDb2dVertex
 10
814.4143476055615
 20
2095.321612579816
 30
0.0
  0
VERTEX
  5
1C0
330
189
100
AcDbEntity
  8
化粧台
  6
CONTINUOUS
 62
     7
100
AcDbVertex
100
AcDb2dVertex
 10
814.4926791858625
 20
2095.233067202627
 30
0.0
  0
VERTEX
  5
1C1
330
189
100
AcDbEntity
  8
化粧台
  6
CONTINUOUS
 62
     7
100
AcDbVertex
100
AcDb2dVertex
 10
814.563154828711
 20
2095.150605890498
 30
0.0
  0
VERTEX
  5
1C2
330
189
100
AcDbEntity
  8
化粧台
  6
CONTINUOUS
 62
     7
100
AcDbVertex
100
AcDb2dVertex
 10
814.5955557250791
 20
2095.111425974541
 30
0.0
  0
VERTEX
  5
1C3
330
189
100
AcDbEntity
  8
化粧台
  6
CONTINUOUS
 62
     7
100
AcDbVertex
100
AcDb2dVertex
 10
814.6258513903285
 20
2095.073768520968
 30
0.0
  0
VERTEX
  5
1C4
330
189
100
AcDbEntity
  8
化粧台
  6
CONTINUOUS
 62
     7
100
AcDbVertex
100
AcDb2dVertex
 10
814.6543595465155
 20
2095.037178800497
 30
0.0
  0
VERTEX
  5
1C5
330
189
100
AcDbEntity
  8
化粧台
  6
CONTINUOUS
 62
     7
100
AcDbVertex
100
AcDb2dVertex
 10
814.6813979156964
 20
2095.001202083846
 30
0.0
  0
VERTEX
  5
1C6
330
189
100
AcDbEntity
  8
化粧台
  6
CONTINUOUS
 62
     7
100
AcDbVertex
100
AcDb2dVertex
 10
814.7072842199275
 20
2094.965383641731
 30
0.0
  0
VERTEX
  5
1C7
330
189
100
AcDbEntity
  8
化粧台
  6
CONTINUOUS
 62
     7
100
AcDbVertex
100
AcDb2dVertex
 10
814.7323361812652
 20
2094.929268744874
 30
0.0
  0
VERTEX
  5
1C8
330
189
100
AcDbEntity
  8
化粧台
  6
CONTINUOUS
 62
     7
100
AcDbVertex
100
AcDb2dVertex
 10
814.7568715217658
 20
2094.892402663988
 30
0.0
  0
VERTEX
  5
1C9
330
189
100
AcDbEntity
  8
化粧台
  6
CONTINUOUS
 62
     7
100
AcDbVertex
100
AcDb2dVertex
 10
814.7812079634855
 20
2094.854330669793
 30
0.0
  0
VERTEX
  5
1CA
330
189
100
AcDbEntity
  8
化粧台
  6
CONTINUOUS
 62
     7
100
AcDbVertex
100
AcDb2dVertex
 10
814.8056632284806
 20
2094.814598033006
 30
0.0
  0
VERTEX
  5
1CB
330
189
100
AcDbEntity
  8
化粧台
  6
CONTINUOUS
 62
     7
100
AcDbVertex
100
AcDb2dVertex
 10
814.8305550388079
 20
2094.772750024346
 30
0.0
  0
VERTEX
  5
1CC
330
189
100
AcDbEntity
  8
化粧台
  6
CONTINUOUS
 62
     7
100
AcDbVertex
100
AcDb2dVertex
 10
814.8562011165229
 20
2094.72833191453
 30
0.0
  0
VERTEX
  5
1CD
330
189
100
AcDbEntity
  8
化粧台
  6
CONTINUOUS
 62
     7
100
AcDbVertex
100
AcDb2dVertex
 10
814.9072601044512
 20
2094.636722709755
 30
0.0
  0
VERTEX
  5
1CE
330
189
100
AcDbEntity
  8
化粧台
  6
CONTINUOUS
 62
     7
100
AcDbVertex
100
AcDb2dVertex
 10
814.9612557190634
 20
2094.536075250217
 30
0.0
  0
VERTEX
  5
1CF
330
189
100
AcDbEntity
  8
化粧台
  6
CONTINUOUS
 62
     7
100
AcDbVertex
100
AcDb2dVertex
 10
815.0173087266429
 20
2094.428118486696
 30
0.0
  0
VERTEX
  5
1D0
330
189
100
AcDbEntity
  8
化粧台
  6
CONTINUOUS
 62
     7
100
AcDbVertex
100
AcDb2dVertex
 10
815.0745398934725
 20
2094.314581369974
 30
0.0
  0
VERTEX
  5
1D1
330
189
100
AcDbEntity
  8
化粧台
  6
CONTINUOUS
 62
     7
100
AcDbVertex
100
AcDb2dVertex
 10
815.1320699858354
 20
2094.197192850831
 30
0.0
  0
VERTEX
  5
1D2
330
189
100
AcDbEntity
  8
化粧台
  6
CONTINUOUS
 62
     7
100
AcDbVertex
100
AcDb2dVertex
 10
815.1890197700143
 20
2094.077681880048
 30
0.0
  0
VERTEX
  5
1D3
330
189
100
AcDbEntity
  8
化粧台
  6
CONTINUOUS
 62
     7
100
AcDbVertex
100
AcDb2dVertex
 10
815.2445100122927
 20
2093.957777408406
 30
0.0
  0
VERTEX
  5
1D4
330
189
100
AcDbEntity
  8
化粧台
  6
CONTINUOUS
 62
     7
100
AcDbVertex
100
AcDb2dVertex
 10
815.2976614789533
 20
2093.839208386686
 30
0.0
  0
VERTEX
  5
1D5
330
189
100
AcDbEntity
  8
化粧台
  6
CONTINUOUS
 62
     7
100
AcDbVertex
100
AcDb2dVertex
 10
815.3475949362793
 20
2093.723703765668
 30
0.0
  0
VERTEX
  5
1D6
330
189
100
AcDbEntity
  8
化粧台
  6
CONTINUOUS
 62
     7
100
AcDbVertex
100
AcDb2dVertex
 10
815.3934311505536
 20
2093.612992496134
 30
0.0
  0
VERTEX
  5
1D7
330
189
100
AcDbEntity
  8
化粧台
  6
CONTINUOUS
 62
     7
100
AcDbVertex
100
AcDb2dVertex
 10
815.434290888059
 20
2093.508803528864
 30
0.0
  0
VERTEX
  5
1D8
330
189
100
AcDbEntity
  8
化粧台
  6
CONTINUOUS
 62
     7
100
AcDbVertex
100
AcDb2dVertex
 10
815.4519770698696
 20
2093.461329798587
 30
0.0
  0
VERTEX
  5
1D9
330
189
100
AcDbEntity
  8
化粧台
  6
CONTINUOUS
 62
     7
100
AcDbVertex
100
AcDb2dVertex
 10
815.4684200921624
 20
2093.415283741724
 30
0.0
  0
VERTEX
  5
1DA
330
189
100
AcDbEntity
  8
化粧台
  6
CONTINUOUS
 62
     7
100
AcDbVertex
100
AcDb2dVertex
 10
815.4837361338842
 20
2093.370177594502
 30
0.0
  0
VERTEX
  5
1DB
330
189
100
AcDbEntity
  8
化粧台
  6
CONTINUOUS
 62
     7
100
AcDbVertex
100
AcDb2dVertex
 10
815.4980413739818
 20
2093.325523593143
 30
0.0
  0
VERTEX
  5
1DC
330
189
100
AcDbEntity
  8
化粧台
  6
CONTINUOUS
 62
     7
100
AcDbVertex
100
AcDb2dVertex
 10
815.5114519914017
 20
2093.280833973874
 30
0.0
  0
VERTEX
  5
1DD
330
189
100
AcDbEntity
  8
化粧台
  6
CONTINUOUS
 62
     7
100
AcDbVertex
100
AcDb2dVertex
 10
815.524084165091
 20
2093.235620972916
 30
0.0
  0
VERTEX
  5
1DE
330
189
100
AcDbEntity
  8
化粧台
  6
CONTINUOUS
 62
     7
100
AcDbVertex
100
AcDb2dVertex
 10
815.5360540739964
 20
2093.189396826496
 30
0.0
  0
VERTEX
  5
1DF
330
189
100
AcDbEntity
  8
化粧台
  6
CONTINUOUS
 62
     7
100
AcDbVertex
100
AcDb2dVertex
 10
815.5474778970644
 20
2093.141673770835
 30
0.0
  0
VERTEX
  5
1E0
330
189
100
AcDbEntity
  8
化粧台
  6
CONTINUOUS
 62
     7
100
AcDbVertex
100
AcDb2dVertex
 10
815.5584718132419
 20
2093.091964042162
 30
0.0
  0
VERTEX
  5
1E1
330
189
100
AcDbEntity
  8
化粧台
  6
CONTINUOUS
 62
     7
100
AcDbVertex
100
AcDb2dVertex
 10
815.569152001476
 20
2093.039779876698
 30
0.0
  0
VERTEX
  5
1E2
330
189
100
AcDbEntity
  8
化粧台
  6
CONTINUOUS
 62
     7
100
AcDbVertex
100
AcDb2dVertex
 10
815.5796346407129
 20
2092.984633510667
 30
0.0
  0
VERTEX
  5
1E3
330
189
100
AcDbEntity
  8
化粧台
  6
CONTINUOUS
 62
     7
100
AcDbVertex
100
AcDb2dVertex
 10
815.5890656773895
 20
2092.931730478258
 30
0.0
  0
VERTEX
  5
1E4
330
189
100
AcDbEntity
  8
化粧台
  6
CONTINUOUS
 62
     7
100
AcDbVertex
100
AcDb2dVertex
 10
815.5982846923573
 20
2092.877342435595
 30
0.0
  0
VERTEX
  5
1E5
330
189
100
AcDbEntity
  8
化粧台
  6
CONTINUOUS
 62
     7
100
AcDbVertex
100
AcDb2dVertex
 10
815.6071471075138
 20
2092.822843877127
 30
0.0
  0
VERTEX
  5
1E6
330
189
100
AcDbEntity
  8
化粧台
  6
CONTINUOUS
 62
     7
100
AcDbVertex
100
AcDb2dVertex
 10
815.6155083447582
 20
2092.769609297303
 30
0.0
  0
VERTEX
  5
1E7
330
189
100
AcDbEntity
  8
化粧台
  6
CONTINUOUS
 62
     7
100
AcDbVertex
100
AcDb2dVertex
 10
815.6232238259885
 20
2092.719013190575
 30
0.0
  0
VERTEX
  5
1E8
330
189
100
AcDbEntity
  8
化粧台
  6
CONTINUOUS
 62
     7
100
AcDbVertex
100
AcDb2dVertex
 10
815.6301489731031
 20
2092.672430051392
 30
0.0
  0
VERTEX
  5
1E9
330
189
100
AcDbEntity
  8
化粧台
  6
CONTINUOUS
 62
     7
100
AcDbVertex
100
AcDb2dVertex
 10
815.6361392080005
 20
2092.631234374202
 30
0.0
  0
VERTEX
  5
1EA
330
189
100
AcDbEntity
  8
化粧台
  6
CONTINUOUS
 62
     7
100
AcDbVertex
100
AcDb2dVertex
 10
815.641049952579
 20
2092.596800653457
 30
0.0
  0
VERTEX
  5
1EB
330
189
100
AcDbEntity
  8
化粧台
  6
CONTINUOUS
 62
     7
100
AcDbVertex
100
AcDb2dVertex
 10
815.6447366287372
 20
2092.570503383606
 30
0.0
  0
VERTEX
  5
1EC
330
189
100
AcDbEntity
  8
化粧台
  6
CONTINUOUS
 62
     7
100
AcDbVertex
100
AcDb2dVertex
 10
815.6470546583732
 20
2092.5537170591
 30
0.0
  0
VERTEX
  5
1ED
330
189
100
AcDbEntity
  8
化粧台
  6
CONTINUOUS
 62
     7
100
AcDbVertex
100
AcDb2dVertex
 10
815.6478594633855
 20
2092.547816174386
 30
0.0
  0
SEQEND
  5
1EE
330
189
100
AcDbEntity
  8
化粧台
  6
CONTINUOUS
 62
     7
  0
ARC
  5
1EF
330
1F
100
AcDbEntity
  8
化粧台
  6
CONTINUOUS
 62
     7
100
AcDbCircle
 10
828.6279160096111
 20
2108.499999999999
 30
0.0
 40
5.0
100
AcDbArc
 50
0.0
 51
90.00000000000001
  0
LINE
  5
1F0
330
1F
100
AcDbEntity
  8
化粧台
  6
CONTINUOUS
 62
     7
100
AcDbLine
 10
570.6792123584647
 20
2092.726593197347
 30
0.0
 11
533.2073436609381
 21
2093.430183334799
 31
0.0
  0
ARC
  5
1F1
330
1F
100
AcDbEntity
  8
化粧台
  6
CONTINUOUS
 62
     7
100
AcDbCircle
 10
533.1134777600593
 20
2088.431064493177
 30
0.0
 40
5.0
100
AcDbArc
 50
88.92431281709273
 51
179.0538951222043
  0
LINE
  5
1F2
330
1F
100
AcDbEntity
  8
化粧台
  6
CONTINUOUS
 62
     7
100
AcDbLine
 10
528.1141594131979
 20
2088.513623967112
 30
0.0
 11
526.1326498958953
 21
1968.525009550174
 31
0.0
  0
ARC
  5
1F3
330
1F
100
AcDbEntity
  8
化粧台
  6
CONTINUOUS
 62
     7
100
AcDbCircle
 10
531.1319682427567
 20
1968.44245007624
 30
0.0
 40
5.0
100
AcDbArc
 50
179.0538951222043
 51
271.3628452964358
  0
LINE
  5
1F4
330
1F
100
AcDbEntity
  8
化粧台
  6
CONTINUOUS
 62
     7
100
AcDbLine
 10
531.2508877163892
 20
1963.443864460409
 30
0.0
 11
570.5246583417749
 21
1964.378211991756
 31
0.0
  0
LINE
  5
1F5
330
1F
100
AcDbEntity
  8
化粧台
  6
CONTINUOUS
 62
     7
100
AcDbLine
 10
813.1758707201462
 20
1958.605388103094
 30
0.0
 11
570.5246583417749
 21
1964.378211991756
 31
0.0
  0
POLYLINE
  5
1F6
330
1F
100
AcDbEntity
  8
化粧台
  6
CONTINUOUS
 62
     7
100
AcDb2dPolyline
 66
     1
 10
0.0
 20
0.0
 30
0.0
 70
   128
  0
VERTEX
  5
1F7
330
1F6
100
AcDbEntity
  8
化粧台
  6
CONTINUOUS
 62
     7
100
AcDbVertex
100
AcDb2dVertex
 10
817.8743338240766
 20
1963.173283388257
 30
0.0
  0
VERTEX
  5
1F8
330
1F6
100
AcDbEntity
  8
化粧台
  6
CONTINUOUS
 62
     7
100
AcDbVertex
100
AcDb2dVertex
 10
817.873507574219
 20
1963.167556996329
 30
0.0
  0
VERTEX
  5
1F9
330
1F6
100
AcDbEntity
  8
化粧台
  6
CONTINUOUS
 62
     7
100
AcDbVertex
100
AcDb2dVertex
 10
817.8711280217723
 20
1963.151267518457
 30
0.0
  0
VERTEX
  5
1FA
330
1F6
100
AcDbEntity
  8
化粧台
  6
CONTINUOUS
 62
     7
100
AcDbVertex
100
AcDb2dVertex
 10
817.8673439624243
 20
1963.125749501507
 30
0.0
  0
VERTEX
  5
1FB
330
1F6
100
AcDbEntity
  8
化粧台
  6
CONTINUOUS
 62
     7
100
AcDbVertex
100
AcDb2dVertex
 10
817.8623041918638
 20
1963.092337492347
 30
0.0
  0
VERTEX
  5
1FC
330
1F6
100
AcDbEntity
  8
化粧台
  6
CONTINUOUS
 62
     7
100
AcDbVertex
100
AcDb2dVertex
 10
817.8561575057793
 20
1963.052366037841
 30
0.0
  0
VERTEX
  5
1FD
330
1F6
100
AcDbEntity
  8
化粧台
  6
CONTINUOUS
 62
     7
100
AcDbVertex
100
AcDb2dVertex
 10
817.8490526998594
 20
1963.007169684858
 30
0.0
  0
VERTEX
  5
1FE
330
1F6
100
AcDbEntity
  8
化粧台
  6
CONTINUOUS
 62
     7
100
AcDbVertex
100
AcDb2dVertex
 10
817.8411385697918
 20
1962.958082980263
 30
0.0
  0
VERTEX
  5
1FF
330
1F6
100
AcDbEntity
  8
化粧台
  6
CONTINUOUS
 62
     7
100
AcDbVertex
100
AcDb2dVertex
 10
817.8325639112659
 20
1962.906440470923
 30
0.0
  0
VERTEX
  5
200
330
1F6
100
AcDbEntity
  8
化粧台
  6
CONTINUOUS
 62
     7
100
AcDbVertex
100
AcDb2dVertex
 10
817.8234775199696
 20
1962.853576703706
 30
0.0
  0
VERTEX
  5
201
330
1F6
100
AcDbEntity
  8
化粧台
  6
CONTINUOUS
 62
     7
100
AcDbVertex
100
AcDb2dVertex
 10
817.8140281915913
 20
1962.800826225477
 30
0.0
  0
VERTEX
  5
202
330
1F6
100
AcDbEntity
  8
化粧台
  6
CONTINUOUS
 62
     7
100
AcDbVertex
100
AcDb2dVertex
 10
817.8043647218194
 20
1962.749523583102
 30
0.0
  0
VERTEX
  5
203
330
1F6
100
AcDbEntity
  8
化粧台
  6
CONTINUOUS
 62
     7
100
AcDbVertex
100
AcDb2dVertex
 10
817.793590777166
 20
1962.695876493236
 30
0.0
  0
VERTEX
  5
204
330
1F6
100
AcDbEntity
  8
化粧台
  6
CONTINUOUS
 62
     7
100
AcDbVertex
100
AcDb2dVertex
 10
817.7826192793252
 20
1962.645135879899
 30
0.0
  0
VERTEX
  5
205
330
1F6
100
AcDbEntity
  8
化粧台
  6
CONTINUOUS
 62
     7
100
AcDbVertex
100
AcDb2dVertex
 10
817.7713320619985
 20
1962.596827971365
 30
0.0
  0
VERTEX
  5
206
330
1F6
100
AcDbEntity
  8
化粧台
  6
CONTINUOUS
 62
     7
100
AcDbVertex
100
AcDb2dVertex
 10
817.759610958886
 20
1962.550478995908
 30
0.0
  0
VERTEX
  5
207
330
1F6
100
AcDbEntity
  8
化粧台
  6
CONTINUOUS
 62
     7
100
AcDbVertex
100
AcDb2dVertex
 10
817.7473378036892
 20
1962.505615181801
 30
0.0
  0
VERTEX
  5
208
330
1F6
100
AcDbEntity
  8
化粧台
  6
CONTINUOUS
 62
     7
100
AcDbVertex
100
AcDb2dVertex
 10
817.7343944301088
 20
1962.461762757316
 30
0.0
  0
VERTEX
  5
209
330
1F6
100
AcDbEntity
  8
化粧台
  6
CONTINUOUS
 62
     7
100
AcDbVertex
100
AcDb2dVertex
 10
817.7206626718455
 20
1962.418447950728
 30
0.0
  0
VERTEX
  5
20A
330
1F6
100
AcDbEntity
  8
化粧台
  6
CONTINUOUS
 62
     7
100
AcDbVertex
100
AcDb2dVertex
 10
817.7060243626
 20
1962.375196990311
 30
0.0
  0
VERTEX
  5
20B
330
1F6
100
AcDbEntity
  8
化粧台
  6
CONTINUOUS
 62
     7
100
AcDbVertex
100
AcDb2dVertex
 10
817.6903613360737
 20
1962.331536104336
 30
0.0
  0
VERTEX
  5
20C
330
1F6
100
AcDbEntity
  8
化粧台
  6
CONTINUOUS
 62
     7
100
AcDbVertex
100
AcDb2dVertex
 10
817.673555425967
 20
1962.286991521079
 30
0.0
  0
VERTEX
  5
20D
330
1F6
100
AcDbEntity
  8
化粧台
  6
CONTINUOUS
 62
     7
100
AcDbVertex
100
AcDb2dVertex
 10
817.6554884659811
 20
1962.241089468811
 30
0.0
  0
VERTEX
  5
20E
330
1F6
100
AcDbEntity
  8
化粧台
  6
CONTINUOUS
 62
     7
100
AcDbVertex
100
AcDb2dVertex
 10
817.6134831473553
 20
1962.139723362881
 30
0.0
  0
VERTEX
  5
20F
330
1F6
100
AcDbEntity
  8
化粧台
  6
CONTINUOUS
 62
     7
100
AcDbVertex
100
AcDb2dVertex
 10
817.5663638886228
 20
1962.032043744732
 30
0.0
  0
VERTEX
  5
210
330
1F6
100
AcDbEntity
  8
化粧台
  6
CONTINUOUS
 62
     7
100
AcDbVertex
100
AcDb2dVertex
 10
817.515037047255
 20
1961.919730493134
 30
0.0
  0
VERTEX
  5
211
330
1F6
100
AcDbEntity
  8
化粧台
  6
CONTINUOUS
 62
     7
100
AcDbVertex
100
AcDb2dVertex
 10
817.460408980721
 20
1961.804463486853
 30
0.0
  0
VERTEX
  5
212
330
1F6
100
AcDbEntity
  8
化粧台
  6
CONTINUOUS
 62
     7
100
AcDbVertex
100
AcDb2dVertex
 10
817.4033860464915
 20
1961.687922604656
 30
0.0
  0
VERTEX
  5
213
330
1F6
100
AcDbEntity
  8
化粧台
  6
CONTINUOUS
 62
     7
100
AcDbVertex
100
AcDb2dVertex
 10
817.3448746020364
 20
1961.57178772531
 30
0.0
  0
VERTEX
  5
214
330
1F6
100
AcDbEntity
  8
化粧台
  6
CONTINUOUS
 62
     7
100
AcDbVertex
100
AcDb2dVertex
 10
817.2857810048263
 20
1961.457738727582
 30
0.0
  0
VERTEX
  5
215
330
1F6
100
AcDbEntity
  8
化粧台
  6
CONTINUOUS
 62
     7
100
AcDbVertex
100
AcDb2dVertex
 10
817.2270116123311
 20
1961.347455490239
 30
0.0
  0
VERTEX
  5
216
330
1F6
100
AcDbEntity
  8
化粧台
  6
CONTINUOUS
 62
     7
100
AcDbVertex
100
AcDb2dVertex
 10
817.1694727820213
 20
1961.242617892048
 30
0.0
  0
VERTEX
  5
217
330
1F6
100
AcDbEntity
  8
化粧台
  6
CONTINUOUS
 62
     7
100
AcDbVertex
100
AcDb2dVertex
 10
817.1140708713668
 20
1961.144905811777
 30
0.0
  0
VERTEX
  5
218
330
1F6
100
AcDbEntity
  8
化粧台
  6
CONTINUOUS
 62
     7
100
AcDbVertex
100
AcDb2dVertex
 10
817.061712237838
 20
1961.055999128191
 30
0.0
  0
VERTEX
  5
219
330
1F6
100
AcDbEntity
  8
化粧台
  6
CONTINUOUS
 62
     7
100
AcDbVertex
100
AcDb2dVertex
 10
817.0352259714347
 20
1961.012578543707
 30
0.0
  0
VERTEX
  5
21A
330
1F6
100
AcDbEntity
  8
化粧台
  6
CONTINUOUS
 62
     7
100
AcDbVertex
100
AcDb2dVertex
 10
817.0095422002898
 20
1960.971707356356
 30
0.0
  0
VERTEX
  5
21B
330
1F6
100
AcDbEntity
  8
化粧台
  6
CONTINUOUS
 62
     7
100
AcDbVertex
100
AcDb2dVertex
 10
816.9843363149853
 20
1960.932942786978
 30
0.0
  0
VERTEX
  5
21C
330
1F6
100
AcDbEntity
  8
化粧台
  6
CONTINUOUS
 62
     7
100
AcDbVertex
100
AcDb2dVertex
 10
816.959283706103
 20
1960.895842056415
 30
0.0
  0
VERTEX
  5
21D
330
1F6
100
AcDbEntity
  8
化粧台
  6
CONTINUOUS
 62
     7
100
AcDbVertex
100
AcDb2dVertex
 10
816.9340597642242
 20
1960.859962385506
 30
0.0
  0
VERTEX
  5
21E
330
1F6
100
AcDbEntity
  8
化粧台
  6
CONTINUOUS
 62
     7
100
AcDbVertex
100
AcDb2dVertex
 10
816.9083398799316
 20
1960.824860995094
 30
0.0
  0
VERTEX
  5
21F
330
1F6
100
AcDbEntity
  8
化粧台
  6
CONTINUOUS
 62
     7
100
AcDbVertex
100
AcDb2dVertex
 10
816.8817994438066
 20
1960.790095106018
 30
0.0
  0
VERTEX
  5
220
330
1F6
100
AcDbEntity
  8
化粧台
  6
CONTINUOUS
 62
     7
100
AcDbVertex
100
AcDb2dVertex
 10
816.8541138464311
 20
1960.755221939119
 30
0.0
  0
VERTEX
  5
221
330
1F6
100
AcDbEntity
  8
化粧台
  6
CONTINUOUS
 62
     7
100
AcDbVertex
100
AcDb2dVertex
 10
816.8249584783865
 20
1960.719798715239
 30
0.0
  0
VERTEX
  5
222
330
1F6
100
AcDbEntity
  8
化粧台
  6
CONTINUOUS
 62
     7
100
AcDbVertex
100
AcDb2dVertex
 10
816.794008730255
 20
1960.683382655217
 30
0.0
  0
VERTEX
  5
223
330
1F6
100
AcDbEntity
  8
化粧台
  6
CONTINUOUS
 62
     7
100
AcDbVertex
100
AcDb2dVertex
 10
816.7609399926182
 20
1960.645530979895
 30
0.0
  0
VERTEX
  5
224
330
1F6
100
AcDbEntity
  8
化粧台
  6
CONTINUOUS
 62
     7
100
AcDbVertex
100
AcDb2dVertex
 10
816.6883885177176
 20
1960.56518788682
 30
0.0
  0
VERTEX
  5
225
330
1F6
100
AcDbEntity
  8
化粧台
  6
CONTINUOUS
 62
     7
100
AcDbVertex
100
AcDb2dVertex
 10
816.6077710103108
 20
1960.478962346338
 30
0.0
  0
VERTEX
  5
226
330
1F6
100
AcDbEntity
  8
化粧台
  6
CONTINUOUS
 62
     7
100
AcDbVertex
100
AcDb2dVertex
 10
816.5206597034606
 20
1960.388380845655
 30
0.0
  0
VERTEX
  5
227
330
1F6
100
AcDbEntity
  8
化粧台
  6
CONTINUOUS
 62
     7
100
AcDbVertex
100
AcDb2dVertex
 10
816.4286268302301
 20
1960.294969871978
 30
0.0
  0
VERTEX
  5
228
330
1F6
100
AcDbEntity
  8
化粧台
  6
CONTINUOUS
 62
     7
100
AcDbVertex
100
AcDb2dVertex
 10
816.3332446236825
 20
1960.200255912514
 30
0.0
  0
VERTEX
  5
229
330
1F6
100
AcDbEntity
  8
化粧台
  6
CONTINUOUS
 62
     7
100
AcDbVertex
100
AcDb2dVertex
 10
816.2360853168805
 20
1960.105765454469
 30
0.0
  0
VERTEX
  5
22A
330
1F6
100
AcDbEntity
  8
化粧台
  6
CONTINUOUS
 62
     7
100
AcDbVertex
100
AcDb2dVertex
 10
816.1387211428871
 20
1960.013024985051
 30
0.0
  0
VERTEX
  5
22B
330
1F6
100
AcDbEntity
  8
化粧台
  6
CONTINUOUS
 62
     7
100
AcDbVertex
100
AcDb2dVertex
 10
816.0427243347656
 20
1959.923560991464
 30
0.0
  0
VERTEX
  5
22C
330
1F6
100
AcDbEntity
  8
化粧台
  6
CONTINUOUS
 62
     7
100
AcDbVertex
100
AcDb2dVertex
 10
815.9496671255786
 20
1959.838899960917
 30
0.0
  0
VERTEX
  5
22D
330
1F6
100
AcDbEntity
  8
化粧台
  6
CONTINUOUS
 62
     7
100
AcDbVertex
100
AcDb2dVertex
 10
815.8611217483892
 20
1959.760568380616
 30
0.0
  0
VERTEX
  5
22E
330
1F6
100
AcDbEntity
  8
化粧台
  6
CONTINUOUS
 62
     7
100
AcDbVertex
100
AcDb2dVertex
 10
815.7786604362609
 20
1959.690092737768
 30
0.0
  0
VERTEX
  5
22F
330
1F6
100
AcDbEntity
  8
化粧台
  6
CONTINUOUS
 62
     7
100
AcDbVertex
100
AcDb2dVertex
 10
815.7394805203035
 20
1959.657691841399
 30
0.0
  0
VERTEX
  5
230
330
1F6
100
AcDbEntity
  8
化粧台
  6
CONTINUOUS
 62
     7
100
AcDbVertex
100
AcDb2dVertex
 10
815.7018230667305
 20
1959.62739617615
 30
0.0
  0
VERTEX
  5
231
330
1F6
100
AcDbEntity
  8
化粧台
  6
CONTINUOUS
 62
     7
100
AcDbVertex
100
AcDb2dVertex
 10
815.6652333462594
 20
1959.598888019963
 30
0.0
  0
VERTEX
  5
232
330
1F6
100
AcDbEntity
  8
化粧台
  6
CONTINUOUS
 62
     7
100
AcDbVertex
100
AcDb2dVertex
 10
815.6292566296082
 20
1959.571849650782
 30
0.0
  0
VERTEX
  5
233
330
1F6
100
AcDbEntity
  8
化粧台
  6
CONTINUOUS
 62
     7
100
AcDbVertex
100
AcDb2dVertex
 10
815.5934381874943
 20
1959.545963346551
 30
0.0
  0
VERTEX
  5
234
330
1F6
100
AcDbEntity
  8
化粧台
  6
CONTINUOUS
 62
     7
100
AcDbVertex
100
AcDb2dVertex
 10
815.5573232906358
 20
1959.520911385213
 30
0.0
  0
VERTEX
  5
235
330
1F6
100
AcDbEntity
  8
化粧台
  6
CONTINUOUS
 62
     7
100
AcDbVertex
100
AcDb2dVertex
 10
815.5204572097502
 20
1959.496376044713
 30
0.0
  0
VERTEX
  5
236
330
1F6
100
AcDbEntity
  8
化粧台
  6
CONTINUOUS
 62
     7
100
AcDbVertex
100
AcDb2dVertex
 10
815.4823852155553
 20
1959.472039602993
 30
0.0
  0
VERTEX
  5
237
330
1F6
100
AcDbEntity
  8
化粧台
  6
CONTINUOUS
 62
     7
100
AcDbVertex
100
AcDb2dVertex
 10
815.4426525787688
 20
1959.447584337998
 30
0.0
  0
VERTEX
  5
238
330
1F6
100
AcDbEntity
  8
化粧台
  6
CONTINUOUS
 62
     7
100
AcDbVertex
100
AcDb2dVertex
 10
815.4008045701087
 20
1959.422692527671
 30
0.0
  0
VERTEX
  5
239
330
1F6
100
AcDbEntity
  8
化粧台
  6
CONTINUOUS
 62
     7
100
AcDbVertex
100
AcDb2dVertex
 10
815.3563864602922
 20
1959.397046449955
 30
0.0
  0
VERTEX
  5
23A
330
1F6
100
AcDbEntity
  8
化粧台
  6
CONTINUOUS
 62
     7
100
AcDbVertex
100
AcDb2dVertex
 10
815.2647772555172
 20
1959.345987462028
 30
0.0
  0
VERTEX
  5
23B
330
1F6
100
AcDbEntity
  8
化粧台
  6
CONTINUOUS
 62
     7
100
AcDbVertex
100
AcDb2dVertex
 10
815.1641297959789
 20
1959.291991847415
 30
0.0
  0
VERTEX
  5
23C
330
1F6
100
AcDbEntity
  8
化粧台
  6
CONTINUOUS
 62
     7
100
AcDbVertex
100
AcDb2dVertex
 10
815.0561730324582
 20
1959.235938839836
 30
0.0
  0
VERTEX
  5
23D
330
1F6
100
AcDbEntity
  8
化粧台
  6
CONTINUOUS
 62
     7
100
AcDbVertex
100
AcDb2dVertex
 10
814.9426359157359
 20
1959.178707673006
 30
0.0
  0
VERTEX
  5
23E
330
1F6
100
AcDbEntity
  8
化粧台
  6
CONTINUOUS
 62
     7
100
AcDbVertex
100
AcDb2dVertex
 10
814.8252473965928
 20
1959.121177580643
 30
0.0
  0
VERTEX
  5
23F
330
1F6
100
AcDbEntity
  8
化粧台
  6
CONTINUOUS
 62
     7
100
AcDbVertex
100
AcDb2dVertex
 10
814.7057364258096
 20
1959.064227796464
 30
0.0
  0
VERTEX
  5
240
330
1F6
100
AcDbEntity
  8
化粧台
  6
CONTINUOUS
 62
     7
100
AcDbVertex
100
AcDb2dVertex
 10
814.5858319541678
 20
1959.008737554186
 30
0.0
  0
VERTEX
  5
241
330
1F6
100
AcDbEntity
  8
化粧台
  6
CONTINUOUS
 62
     7
100
AcDbVertex
100
AcDb2dVertex
 10
814.4672629324474
 20
1958.955586087525
 30
0.0
  0
VERTEX
  5
242
330
1F6
100
AcDbEntity
  8
化粧台
  6
CONTINUOUS
 62
     7
100
AcDbVertex
100
AcDb2dVertex
 10
814.3517583114294
 20
1958.9056526302
 30
0.0
  0
VERTEX
  5
243
330
1F6
100
AcDbEntity
  8
化粧台
  6
CONTINUOUS
 62
     7
100
AcDbVertex
100
AcDb2dVertex
 10
814.2410470418951
 20
1958.859816415925
 30
0.0
  0
VERTEX
  5
244
330
1F6
100
AcDbEntity
  8
化粧台
  6
CONTINUOUS
 62
     7
100
AcDbVertex
100
AcDb2dVertex
 10
814.136858074625
 20
1958.81895667842
 30
0.0
  0
VERTEX
  5
245
330
1F6
100
AcDbEntity
  8
化粧台
  6
CONTINUOUS
 62
     7
100
AcDbVertex
100
AcDb2dVertex
 10
814.0893843443473
 20
1958.801270496609
 30
0.0
  0
VERTEX
  5
246
330
1F6
100
AcDbEntity
  8
化粧台
  6
CONTINUOUS
 62
     7
100
AcDbVertex
100
AcDb2dVertex
 10
814.0433382874851
 20
1958.784827474317
 30
0.0
  0
VERTEX
  5
247
330
1F6
100
AcDbEntity
  8
化粧台
  6
CONTINUOUS
 62
     7
100
AcDbVertex
100
AcDb2dVertex
 10
813.9982321402628
 20
1958.769511432595
 30
0.0
  0
VERTEX
  5
248
330
1F6
100
AcDbEntity
  8
化粧台
  6
CONTINUOUS
 62
     7
100
AcDbVertex
100
AcDb2dVertex
 10
813.9535781389045
 20
1958.755206192498
 30
0.0
  0
VERTEX
  5
249
330
1F6
100
AcDbEntity
  8
化粧台
  6
CONTINUOUS
 62
     7
100
AcDbVertex
100
AcDb2dVertex
 10
813.9088885196345
 20
1958.741795575078
 30
0.0
  0
VERTEX
  5
24A
330
1F6
100
AcDbEntity
  8
化粧台
  6
CONTINUOUS
 62
     7
100
AcDbVertex
100
AcDb2dVertex
 10
813.8636755186768
 20
1958.729163401388
 30
0.0
  0
VERTEX
  5
24B
330
1F6
100
AcDbEntity
  8
化粧台
  6
CONTINUOUS
 62
     7
100
AcDbVertex
100
AcDb2dVertex
 10
813.8174513722563
 20
1958.717193492483
 30
0.0
  0
VERTEX
  5
24C
330
1F6
100
AcDbEntity
  8
化粧台
  6
CONTINUOUS
 62
     7
100
AcDbVertex
100
AcDb2dVertex
 10
813.7697283165968
 20
1958.705769669415
 30
0.0
  0
VERTEX
  5
24D
330
1F6
100
AcDbEntity
  8
化粧台
  6
CONTINUOUS
 62
     7
100
AcDbVertex
100
AcDb2dVertex
 10
813.7200185879229
 20
1958.694775753237
 30
0.0
  0
VERTEX
  5
24E
330
1F6
100
AcDbEntity
  8
化粧台
  6
CONTINUOUS
 62
     7
100
AcDbVertex
100
AcDb2dVertex
 10
813.6678344224588
 20
1958.684095565004
 30
0.0
  0
VERTEX
  5
24F
330
1F6
100
AcDbEntity
  8
化粧台
  6
CONTINUOUS
 62
     7
100
AcDbVertex
100
AcDb2dVertex
 10
813.6126880564286
 20
1958.673612925767
 30
0.0
  0
VERTEX
  5
250
330
1F6
100
AcDbEntity
  8
化粧台
  6
CONTINUOUS
 62
     7
100
AcDbVertex
100
AcDb2dVertex
 10
813.5597850240198
 20
1958.66418188909
 30
0.0
  0
VERTEX
  5
251
330
1F6
100
AcDbEntity
  8
化粧台
  6
CONTINUOUS
 62
     7
100
AcDbVertex
100
AcDb2dVertex
 10
813.5053969813565
 20
1958.654962874123
 30
0.0
  0
VERTEX
  5
252
330
1F6
100
AcDbEntity
  8
化粧台
  6
CONTINUOUS
 62
     7
100
AcDbVertex
100
AcDb2dVertex
 10
813.4508984228883
 20
1958.646100458966
 30
0.0
  0
VERTEX
  5
253
330
1F6
100
AcDbEntity
  8
化粧台
  6
CONTINUOUS
 62
     7
100
AcDbVertex
100
AcDb2dVertex
 10
813.3976638430652
 20
1958.637739221721
 30
0.0
  0
VERTEX
  5
254
330
1F6
100
AcDbEntity
  8
化粧台
  6
CONTINUOUS
 62
     7
100
AcDbVertex
100
AcDb2dVertex
 10
813.3470677363367
 20
1958.630023740491
 30
0.0
  0
VERTEX
  5
255
330
1F6
100
AcDbEntity
  8
化粧台
  6
CONTINUOUS
 62
     7
100
AcDbVertex
100
AcDb2dVertex
 10
813.300484597153
 20
1958.623098593376
 30
0.0
  0
VERTEX
  5
256
330
1F6
100
AcDbEntity
  8
化粧台
  6
CONTINUOUS
 62
     7
100
AcDbVertex
100
AcDb2dVertex
 10
813.2592889199638
 20
1958.617108358479
 30
0.0
  0
VERTEX
  5
257
330
1F6
100
AcDbEntity
  8
化粧台
  6
CONTINUOUS
 62
     7
100
AcDbVertex
100
AcDb2dVertex
 10
813.2248551992186
 20
1958.6121976139
 30
0.0
  0
VERTEX
  5
258
330
1F6
100
AcDbEntity
  8
化粧台
  6
CONTINUOUS
 62
     7
100
AcDbVertex
100
AcDb2dVertex
 10
813.1985579293678
 20
1958.608510937742
 30
0.0
  0
VERTEX
  5
259
330
1F6
100
AcDbEntity
  8
化粧台
  6
CONTINUOUS
 62
     7
100
AcDbVertex
100
AcDb2dVertex
 10
813.1817716048605
 20
1958.606192908106
 30
0.0
  0
VERTEX
  5
25A
330
1F6
100
AcDbEntity
  8
化粧台
  6
CONTINUOUS
 62
     7
100
AcDbVertex
100
AcDb2dVertex
 10
813.1758707201471
 20
1958.605388103094
 30
0.0
  0
SEQEND
  5
25B
330
1F6
100
AcDbEntity
  8
化粧台
  6
CONTINUOUS
 62
     7
  0
ARC
  5
25C
330
1F
100
AcDbEntity
  8
化粧台
  6
CONTINUOUS
 62
     7
100
AcDbCircle
 10
511.37208399039
 20
2108.499999999999
 30
0.0
 40
5.0
100
AcDbArc
 50
90.00000000000001
 51
180.0
  0
ARC
  5
25D
330
1F
100
AcDbEntity
  8
化粧台
  6
CONTINUOUS
 62
     7
100
AcDbCircle
 10
507.0000000000002
 20
2189.999999999999
 30
0.0
 40
5.0
100
AcDbArc
 50
90.00000000000001
 51
180.0
  0
ARC
  5
25E
330
1F
100
AcDbEntity
  8
化粧台
  6
CONTINUOUS
 62
     7
100
AcDbCircle
 10
505.0000000000001
 20
2194.999999999999
 30
0.0
 40
10.0
100
AcDbArc
 50
90.00000000000001
 51
180.0
  0
LINE
  5
25F
330
1F
100
AcDbEntity
  8
化粧台
  6
EXLTYPE3
 62
     6
100
AcDbLine
 10
533.0000000000001
 20
2054.0
 30
0.0
 11
614.8000000000003
 21
2054.0
 31
0.0
  0
DIMENSION
  5
261
330
1F
100
AcDbEntity
  8
化粧台
  6
CONTINUOUS
 62
     3
100
AcDbDimension
  2
*D15
 10
845.0
 20
1852.0
 30
0.0
 11
670.0000000000001
 21
1875.499999940395
 31
0.0
 70
   160
  3
ISO-25
100
AcDbAlignedDimension
 13
495.0
 23
1936.3627052861
 33
0.0
 14
845.0
 24
1936.3627052861
 34
0.0
100
AcDbRotatedDimension
1001
ACAD
1000
DSTYLE
1002
{
1070
   270
1070
     2
1070
     6
1000
EX_NORM
1070
     7
1000
EX_NORM
1070
    41
1040
30.0
1070
    42
1040
6.99999988079071
1070
    44
1040
10.0
1070
    73
1070
     0
1070
    74
1070
     0
1070
    75
1070
     0
1070
    76
1070
     0
1070
    77
1070
     1
1070
    78
1070
     0
1070
   140
1040
40.0
1070
   147
1040
0.0
1070
   173
1070
     1
1070
   176
1070
     3
1070
   177
1070
     3
1070
   178
1070
     2
1070
   271
1070
     0
1070
   277
1070
     2
1070
   279
1070
     2
1070
   280
1070
     0
1070
   287
1070
     5
1070
   340
1005
260
1002
}
  0
LINE
  5
26F
330
1F
100
AcDbEntity
  8
化粧台
  6
EXLTYPE3
 62
     6
100
AcDbLine
 10
670.0000000000001
 20
2251.1
 30
0.0
 11
670.0000000000001
 21
1907.207428524799
 31
0.0
  0
LEADER
  5
270
330
1F
100
AcDbEntity
  8
化粧台
  6
CONTINUOUS
 62
     3
100
AcDbLeader
  3
ISO-25
 76
     3
 10
680.825467499998
 20
556.26543577403
 30
0.0
 10
748.1712099770709
 20
498.9495132005545
 30
0.0
 10
875.3028305917644
 20
498.9495132005545
 30
0.0
1001
ACAD
1000
DSTYLE
1002
{
1070
     5
1000
EX_NORM
1070
    41
1040
30.0
1070
   341
1005
4A
1002
}
  0
TEXT
  5
271
330
1F
100
AcDbEntity
  8
化粧台
  6
CONTINUOUS
 62
     2
100
AcDbText
 10
753.1712099770709
 20
502.4495131409498
 30
0.0
 40
40.0
  1
床給水
 41
1.132352941176471
  7
EXCADSTD
 72
     5
 11
863.1712099770709
 21
502.4495131409498
 31
0.0
100
AcDbText
  0
DIMENSION
  5
272
330
1F
100
AcDbEntity
  8
化粧台
  6
CONTINUOUS
 62
     3
100
AcDbDimension
  2
*D16
 10
1066.0
 20
1362.674193999999
 30
0.0
 11
1042.500000059604
 21
962.6741844999995
 31
0.0
 70
   160
  1
（800）
  3
ISO-25
100
AcDbAlignedDimension
 13
891.4500045
 23
562.6741750000001
 33
0.0
 14
840.0
 24
1362.674193999999
 34
0.0
 50
90.0
100
AcDbRotatedDimension
1001
ACAD
1000
DSTYLE
1002
{
1070
   270
1070
     2
1070
     6
1000
EX_NORM
1070
     7
1000
EX_NORM
1070
    41
1040
30.0
1070
    42
1040
6.99999988079071
1070
    44
1040
9.999999999999773
1070
    73
1070
     0
1070
    74
1070
     0
1070
    75
1070
     0
1070
    76
1070
     0
1070
    77
1070
     1
1070
    78
1070
     0
1070
   140
1040
40.0
1070
   147
1040
0.0
1070
   173
1070
     1
1070
   176
1070
     3
1070
   177
1070
     3
1070
   178
1070
     2
1070
   271
1070
     0
1070
   277
1070
     2
1070
   279
1070
     2
1070
   280
1070
     0
1070
   287
1070
     5
1070
   340
1005
260
1002
}
  0
POLYLINE
  5
27F
330
1F
100
AcDbEntity
  8
化粧台
  6
CONTINUOUS
 62
     3
100
AcDb2dPolyline
 66
     1
 10
0.0
 20
0.0
 30
0.0
 70
   128
  0
VERTEX
  5
280
330
27F
100
AcDbEntity
  8
化粧台
  6
CONTINUOUS
 62
     3
100
AcDbVertex
100
AcDb2dVertex
 10
1583.5
 20
893.1741750000001
 30
0.0
  0
VERTEX
  5
281
330
27F
100
AcDbEntity
  8
化粧台
  6
CONTINUOUS
 62
     3
100
AcDbVertex
100
AcDb2dVertex
 10
1616.1
 20
925.7741750000002
 30
0.0
  0
VERTEX
  5
282
330
27F
100
AcDbEntity
  8
化粧台
  6
CONTINUOUS
 62
     3
100
AcDbVertex
100
AcDb2dVertex
 10
1725.400000000001
 20
925.7741750000002
 30
0.0
  0
SEQEND
  5
283
330
27F
100
AcDbEntity
  8
化粧台
  6
CONTINUOUS
 62
     3
  0
LINE
  5
284
330
1F
100
AcDbEntity
  8
化粧台
  6
CONTINUOUS
 62
     3
100
AcDbLine
 10
1601.177669529664
 20
917.9229123415294
 30
0.0
 11
1583.5
 21
893.1741750000001
 31
0.0
  0
LINE
  5
285
330
1F
100
AcDbEntity
  8
化粧台
  6
CONTINUOUS
 62
     3
100
AcDbLine
 10
1583.5
 20
893.1741750000001
 30
0.0
 11
1608.248737341529
 21
910.8518445296638
 31
0.0
  0
TEXT
  5
286
330
1F
100
AcDbEntity
  8
化粧台
  6
CONTINUOUS
 62
     2
100
AcDbText
 10
1616.1
 20
929.2741749403956
 30
0.0
 40
40.0
  1
Ｒ１/２
 41
0.8342465753424658
  7
EXCADSTD
 72
     5
 11
1732.1
 21
929.2741749403956
 31
0.0
100
AcDbText
  0
LINE
  5
287
330
1F
100
AcDbEntity
  8
化粧台
  6
CONTINUOUS
 62
     2
100
AcDbLine
 10
692.07769003833
 20
2140.54108621197
 30
0.0
 11
692.0754865719302
 21
2045.09707215837
 31
0.0
  0
LINE
  5
288
330
1F
100
AcDbEntity
  8
化粧台
  6
CONTINUOUS
 62
     2
100
AcDbLine
 10
647.92441759433
 20
2045.09704004957
 30
0.0
 11
647.92221412793
 21
2140.54114641597
 31
0.0
  0
LINE
  5
289
330
1F
100
AcDbEntity
  8
化粧台
  6
CONTINUOUS
 62
     6
100
AcDbLine
 10
669.94814052073
 20
2137.57231860477
 30
0.0
 11
670.3495246023301
 21
2137.59644435437
 31
0.0
  0
LINE
  5
28A
330
1F
100
AcDbEntity
  8
化粧台
  6
CONTINUOUS
 62
     6
100
AcDbLine
 10
669.5521467039302
 20
2137.60171421117
 30
0.0
 11
669.94814052073
 21
2137.57231860477
 31
0.0
  0
LINE
  5
28B
330
1F
100
AcDbEntity
  8
化粧台
  6
CONTINUOUS
 62
     6
100
AcDbLine
 10
669.1935074623302
 20
2137.67131404877
 30
0.0
 11
669.5521467039302
 21
2137.60171421117
 31
0.0
  0
LINE
  5
28C
330
1F
100
AcDbEntity
  8
化粧台
  6
CONTINUOUS
 62
     6
100
AcDbLine
 10
668.8591224055301
 20
2137.77031350637
 30
0.0
 11
669.1935074623302
 21
2137.67131404877
 31
0.0
  0
LINE
  5
28D
330
1F
100
AcDbEntity
  8
化粧台
  6
CONTINUOUS
 62
     6
100
AcDbLine
 10
668.5406633135301
 20
2137.88266219757
 30
0.0
 11
668.8591224055301
 21
2137.77031350637
 31
0.0
  0
LINE
  5
28E
330
1F
100
AcDbEntity
  8
化粧台
  6
CONTINUOUS
 62
     6
100
AcDbLine
 10
668.2248933335302
 20
2138.00040115357
 30
0.0
 11
668.5406633135301
 21
2137.88266219757
 31
0.0
  0
LINE
  5
28F
330
1F
100
AcDbEntity
  8
化粧台
  6
CONTINUOUS
 62
     6
100
AcDbLine
 10
667.8905082767303
 20
2138.10748400157
 30
0.0
 11
668.2248933335302
 21
2138.00040115357
 31
0.0
  0
LINE
  5
290
330
1F
100
AcDbEntity
  8
化粧台
  6
CONTINUOUS
 62
     6
100
AcDbLine
 10
667.5345661743302
 20
2138.19310211677
 30
0.0
 11
667.8905082767303
 21
2138.10748400157
 31
0.0
  0
LINE
  5
291
330
1F
100
AcDbEntity
  8
化粧台
  6
CONTINUOUS
 62
     6
100
AcDbLine
 10
667.13587521833
 20
2138.23860831357
 30
0.0
 11
667.5345661743302
 21
2138.19310211677
 31
0.0
  0
LINE
  5
292
330
1F
100
AcDbEntity
  8
化粧台
  6
CONTINUOUS
 62
     6
100
AcDbLine
 10
666.9512897543302
 20
2138.23860831357
 30
0.0
 11
667.13587521833
 21
2138.23860831357
 31
0.0
  0
LINE
  5
293
330
1F
100
AcDbEntity
  8
化粧台
  6
CONTINUOUS
 62
     6
100
AcDbLine
 10
666.7667042903302
 20
2138.21983670637
 30
0.0
 11
666.9512897543302
 21
2138.23860831357
 31
0.0
  0
LINE
  5
294
330
1F
100
AcDbEntity
  8
化粧台
  6
CONTINUOUS
 62
     6
100
AcDbLine
 10
666.4374646687302
 20
2138.14759993357
 30
0.0
 11
666.7667042903302
 21
2138.21983670637
 31
0.0
  0
LINE
  5
295
330
1F
100
AcDbEntity
  8
化粧台
  6
CONTINUOUS
 62
     6
100
AcDbLine
 10
666.1993538351303
 20
2138.07273023917
 30
0.0
 11
666.4374646687302
 21
2138.14759993357
 31
0.0
  0
LINE
  5
296
330
1F
100
AcDbEntity
  8
化粧台
  6
CONTINUOUS
 62
     6
100
AcDbLine
 10
666.1083454551301
 20
2138.03525124237
 30
0.0
 11
666.1993538351303
 21
2138.07273023917
 31
0.0
  0
LINE
  5
297
330
1F
100
AcDbEntity
  8
化粧台
  6
CONTINUOUS
 62
     6
100
AcDbLine
 10
665.78731364553
 20
2138.22259003597
 30
0.0
 11
666.1083454551301
 21
2138.03525124237
 31
0.0
  0
LINE
  5
298
330
1F
100
AcDbEntity
  8
化粧台
  6
CONTINUOUS
 62
     6
100
AcDbLine
 10
666.2554519223298
 20
2138.35894808237
 30
0.0
 11
665.78731364553
 21
2138.22259003597
 31
0.0
  0
LINE
  5
299
330
1F
100
AcDbEntity
  8
化粧台
  6
CONTINUOUS
 62
     6
100
AcDbLine
 10
666.6916218751301
 20
2138.44995646237
 30
0.0
 11
666.2554519223298
 21
2138.35894808237
 31
0.0
  0
LINE
  5
29A
330
1F
100
AcDbEntity
  8
化粧台
  6
CONTINUOUS
 62
     6
100
AcDbLine
 10
666.9190766007299
 20
2138.47941227277
 30
0.0
 11
666.6916218751301
 21
2138.44995646237
 31
0.0
  0
LINE
  5
29B
330
1F
100
AcDbEntity
  8
化粧台
  6
CONTINUOUS
 62
     6
100
AcDbLine
 10
667.13587521833
 20
2138.48480253757
 30
0.0
 11
666.9190766007299
 21
2138.47941227277
 31
0.0
  0
LINE
  5
29C
330
1F
100
AcDbEntity
  8
化粧台
  6
CONTINUOUS
 62
     6
100
AcDbLine
 10
667.5345661743302
 20
2138.44995646237
 30
0.0
 11
667.13587521833
 21
2138.48480253757
 31
0.0
  0
LINE
  5
29D
330
1F
100
AcDbEntity
  8
化粧台
  6
CONTINUOUS
 62
     6
100
AcDbLine
 10
667.8930809943301
 20
2138.37232942477
 30
0.0
 11
667.5345661743302
 21
2138.44995646237
 31
0.0
  0
LINE
  5
29E
330
1F
100
AcDbEntity
  8
化粧台
  6
CONTINUOUS
 62
     6
100
AcDbLine
 10
668.2248933335302
 20
2138.26797181117
 30
0.0
 11
667.8930809943301
 21
2138.37232942477
 31
0.0
  0
LINE
  5
29F
330
1F
100
AcDbEntity
  8
化粧台
  6
CONTINUOUS
 62
     6
100
AcDbLine
 10
668.86181954473
 20
2138.03249389917
 30
0.0
 11
668.2248933335302
 21
2138.26797181117
 31
0.0
  0
LINE
  5
2A0
330
1F
100
AcDbEntity
  8
化粧台
  6
CONTINUOUS
 62
     6
100
AcDbLine
 10
669.1935074623302
 20
2137.93089362877
 30
0.0
 11
668.86181954473
 21
2138.03249389917
 31
0.0
  0
LINE
  5
2A1
330
1F
100
AcDbEntity
  8
化粧台
  6
CONTINUOUS
 62
     6
100
AcDbLine
 10
669.3701339575302
 20
2137.89077769677
 30
0.0
 11
669.1935074623302
 21
2137.93089362877
 31
0.0
  0
LINE
  5
2A2
330
1F
100
AcDbEntity
  8
化粧台
  6
CONTINUOUS
 62
     6
100
AcDbLine
 10
669.5521467039302
 20
2137.86128977757
 30
0.0
 11
669.3701339575302
 21
2137.89077769677
 31
0.0
  0
LINE
  5
2A3
330
1F
100
AcDbEntity
  8
化粧台
  6
CONTINUOUS
 62
     6
100
AcDbLine
 10
669.7448155583302
 20
2137.83991735757
 30
0.0
 11
669.5521467039302
 21
2137.86128977757
 31
0.0
  0
LINE
  5
2A4
330
1F
100
AcDbEntity
  8
化粧台
  6
CONTINUOUS
 62
     6
100
AcDbLine
 10
669.94814052073
 20
2137.83189417117
 30
0.0
 11
669.7448155583302
 21
2137.83991735757
 31
0.0
  0
LINE
  5
2A5
330
1F
100
AcDbEntity
  8
化粧台
  6
CONTINUOUS
 62
     6
100
AcDbLine
 10
670.3495246023301
 20
2137.86128977757
 30
0.0
 11
669.94814052073
 21
2137.83189417117
 31
0.0
  0
LINE
  5
2A6
330
1F
100
AcDbEntity
  8
化粧台
  6
CONTINUOUS
 62
     6
100
AcDbLine
 10
670.7080394223301
 20
2137.93625178477
 30
0.0
 11
670.3495246023301
 21
2137.86128977757
 31
0.0
  0
LINE
  5
2A7
330
1F
100
AcDbEntity
  8
化粧台
  6
CONTINUOUS
 62
     6
100
AcDbLine
 10
671.04254890073
 20
2138.04324231997
 30
0.0
 11
670.7080394223301
 21
2137.93625178477
 31
0.0
  0
LINE
  5
2A8
330
1F
100
AcDbEntity
  8
化粧台
  6
CONTINUOUS
 62
     6
100
AcDbLine
 10
671.3637051319301
 20
2138.16373861917
 30
0.0
 11
671.04254890073
 21
2138.04324231997
 31
0.0
  0
LINE
  5
2A9
330
1F
100
AcDbEntity
  8
化粧台
  6
CONTINUOUS
 62
     6
100
AcDbLine
 10
671.6846165335303
 20
2138.28407838797
 30
0.0
 11
671.3637051319301
 21
2138.16373861917
 31
0.0
  0
LINE
  5
2AA
330
1F
100
AcDbEntity
  8
化粧台
  6
CONTINUOUS
 62
     6
100
AcDbLine
 10
672.0191219983301
 20
2138.38580307997
 30
0.0
 11
671.6846165335303
 21
2138.28407838797
 31
0.0
  0
LINE
  5
2AB
330
1F
100
AcDbEntity
  8
化粧台
  6
CONTINUOUS
 62
     6
100
AcDbLine
 10
672.3776368183301
 20
2138.45268169677
 30
0.0
 11
672.0191219983301
 21
2138.38580307997
 31
0.0
  0
LINE
  5
2AC
330
1F
100
AcDbEntity
  8
化粧台
  6
CONTINUOUS
 62
     6
100
AcDbLine
 10
672.7763277743302
 20
2138.47142119517
 30
0.0
 11
672.3776368183301
 21
2138.45268169677
 31
0.0
  0
LINE
  5
2AD
330
1F
100
AcDbEntity
  8
化粧台
  6
CONTINUOUS
 62
     6
100
AcDbLine
 10
672.9664239111302
 20
2138.45531461837
 30
0.0
 11
672.7763277743302
 21
2138.47142119517
 31
0.0
  0
LINE
  5
2AE
330
1F
100
AcDbEntity
  8
化粧台
  6
CONTINUOUS
 62
     6
100
AcDbLine
 10
673.1697488735301
 20
2138.42055684237
 30
0.0
 11
672.9664239111302
 21
2138.45531461837
 31
0.0
  0
LINE
  5
2AF
330
1F
100
AcDbEntity
  8
化粧台
  6
CONTINUOUS
 62
     6
100
AcDbLine
 10
673.5684398295302
 20
2138.31883616397
 30
0.0
 11
673.1697488735301
 21
2138.42055684237
 31
0.0
  0
LINE
  5
2B0
330
1F
100
AcDbEntity
  8
化粧台
  6
CONTINUOUS
 62
     6
100
AcDbLine
 10
674.0046097823299
 20
2138.17972077437
 30
0.0
 11
673.5684398295302
 21
2138.31883616397
 31
0.0
  0
LINE
  5
2B1
330
1F
100
AcDbEntity
  8
化粧台
  6
CONTINUOUS
 62
     6
100
AcDbLine
 10
673.72889553033
 20
2138.00576332317
 30
0.0
 11
674.0046097823299
 21
2138.17972077437
 31
0.0
  0
LINE
  5
2B2
330
1F
100
AcDbEntity
  8
化粧台
  6
CONTINUOUS
 62
     6
100
AcDbLine
 10
673.4480358431301
 20
2138.09410265917
 30
0.0
 11
673.72889553033
 21
2138.00576332317
 31
0.0
  0
LINE
  5
2B3
330
1F
100
AcDbEntity
  8
化粧台
  6
CONTINUOUS
 62
     6
100
AcDbLine
 10
673.1456191103302
 20
2138.15834835437
 30
0.0
 11
673.4480358431301
 21
2138.09410265917
 31
0.0
  0
LINE
  5
2B4
330
1F
100
AcDbEntity
  8
化粧台
  6
CONTINUOUS
 62
     6
100
AcDbLine
 10
672.7763277743302
 20
2138.19573503837
 30
0.0
 11
673.1456191103302
 21
2138.15834835437
 31
0.0
  0
LINE
  5
2B5
330
1F
100
AcDbEntity
  8
化粧台
  6
CONTINUOUS
 62
     6
100
AcDbLine
 10
672.3776368183301
 20
2138.17708785277
 30
0.0
 11
672.7763277743302
 21
2138.19573503837
 31
0.0
  0
LINE
  5
2B6
330
1F
100
AcDbEntity
  8
化粧台
  6
CONTINUOUS
 62
     6
100
AcDbLine
 10
672.0164288727301
 20
2138.11012093677
 30
0.0
 11
672.3776368183301
 21
2138.17708785277
 31
0.0
  0
LINE
  5
2B7
330
1F
100
AcDbEntity
  8
化粧台
  6
CONTINUOUS
 62
     6
100
AcDbLine
 10
671.68204381593
 20
2138.00848855757
 30
0.0
 11
672.0164288727301
 21
2138.11012093677
 31
0.0
  0
LINE
  5
2B8
330
1F
100
AcDbEntity
  8
化粧台
  6
CONTINUOUS
 62
     6
100
AcDbLine
 10
671.3637051319301
 20
2137.89077769677
 30
0.0
 11
671.68204381593
 21
2138.00848855757
 31
0.0
  0
LINE
  5
2B9
330
1F
100
AcDbEntity
  8
化粧台
  6
CONTINUOUS
 62
     6
100
AcDbLine
 10
671.04254890073
 20
2137.77303874077
 30
0.0
 11
671.3637051319301
 21
2137.89077769677
 31
0.0
  0
LINE
  5
2BA
330
1F
100
AcDbEntity
  8
化粧台
  6
CONTINUOUS
 62
     6
100
AcDbLine
 10
670.7080394223301
 20
2137.66868112717
 30
0.0
 11
671.04254890073
 21
2137.77303874077
 31
0.0
  0
LINE
  5
2BB
330
1F
100
AcDbEntity
  8
化粧台
  6
CONTINUOUS
 62
     6
100
AcDbLine
 10
670.3495246023301
 20
2137.59644435437
 30
0.0
 11
670.7080394223301
 21
2137.66868112717
 31
0.0
  0
LINE
  5
2BC
330
1F
100
AcDbEntity
  8
化粧台
  6
CONTINUOUS
 62
     6
100
AcDbLine
 10
670.14607521833
 20
2138.46330569597
 30
0.0
 11
670.3334782295301
 21
2138.48743545917
 31
0.0
  0
LINE
  5
2BD
330
1F
100
AcDbEntity
  8
化粧台
  6
CONTINUOUS
 62
     6
100
AcDbLine
 10
670.3334782295301
 20
2138.48743545917
 30
0.0
 11
670.6840340807302
 21
2138.56503038797
 31
0.0
  0
LINE
  5
2BE
330
1F
100
AcDbEntity
  8
化粧台
  6
CONTINUOUS
 62
     6
100
AcDbLine
 10
670.6840340807302
 20
2138.56503038797
 30
0.0
 11
671.0158464199301
 21
2138.67477826637
 31
0.0
  0
LINE
  5
2BF
330
1F
100
AcDbEntity
  8
化粧台
  6
CONTINUOUS
 62
     6
100
AcDbLine
 10
671.0158464199301
 20
2138.67477826637
 30
0.0
 11
671.33957536873
 21
2138.80050829997
 31
0.0
  0
LINE
  5
2C0
330
1F
100
AcDbEntity
  8
化粧台
  6
CONTINUOUS
 62
     6
100
AcDbLine
 10
671.33957536873
 20
2138.80050829997
 30
0.0
 11
671.66857016073
 21
2138.92360541197
 31
0.0
  0
LINE
  5
2C1
330
1F
100
AcDbEntity
  8
化粧台
  6
CONTINUOUS
 62
     6
100
AcDbLine
 10
671.66857016073
 20
2138.92360541197
 30
0.0
 11
672.0084658903298
 21
2139.02796302557
 31
0.0
  0
LINE
  5
2C2
330
1F
100
AcDbEntity
  8
化粧台
  6
CONTINUOUS
 62
     6
100
AcDbLine
 10
672.0084658903298
 20
2139.02796302557
 30
0.0
 11
672.37506410073
 21
2139.09484164237
 31
0.0
  0
LINE
  5
2C3
330
1F
100
AcDbEntity
  8
化粧台
  6
CONTINUOUS
 62
     6
100
AcDbLine
 10
672.37506410073
 20
2139.09484164237
 30
0.0
 11
672.7763277743302
 21
2139.10819087597
 31
0.0
  0
LINE
  5
2C4
330
1F
100
AcDbEntity
  8
化粧台
  6
CONTINUOUS
 62
     6
100
AcDbLine
 10
672.7763277743302
 20
2139.10819087597
 30
0.0
 11
673.1055673959299
 21
2139.07609813037
 31
0.0
  0
LINE
  5
2C5
330
1F
100
AcDbEntity
  8
化粧台
  6
CONTINUOUS
 62
     6
100
AcDbLine
 10
673.1055673959299
 20
2139.07609813037
 30
0.0
 11
673.45073298233
 21
2139.01185644877
 31
0.0
  0
LINE
  5
2C6
330
1F
100
AcDbEntity
  8
化粧台
  6
CONTINUOUS
 62
     6
100
AcDbLine
 10
673.45073298233
 20
2139.01185644877
 30
0.0
 11
674.12232064313
 21
2138.83262914077
 31
0.0
  0
LINE
  5
2C7
330
1F
100
AcDbEntity
  8
化粧台
  6
CONTINUOUS
 62
     6
100
AcDbLine
 10
674.12232064313
 20
2138.83262914077
 30
0.0
 11
674.6387184463301
 21
2138.66139692397
 31
0.0
  0
LINE
  5
2C8
330
1F
100
AcDbEntity
  8
化粧台
  6
CONTINUOUS
 62
     6
100
AcDbLine
 10
674.6387184463301
 20
2138.66139692397
 30
0.0
 11
674.8447365343302
 21
2138.58640280797
 31
0.0
  0
LINE
  5
2C9
330
1F
100
AcDbEntity
  8
化粧台
  6
CONTINUOUS
 62
     6
100
AcDbLine
 10
674.8447365343302
 20
2138.58640280797
 30
0.0
 11
675.0481859183301
 21
2138.76039236797
 31
0.0
  0
LINE
  5
2CA
330
1F
100
AcDbEntity
  8
化粧台
  6
CONTINUOUS
 62
     6
100
AcDbLine
 10
675.0481859183301
 20
2138.76039236797
 30
0.0
 11
674.82073119273
 21
2138.84861530957
 31
0.0
  0
LINE
  5
2CB
330
1F
100
AcDbEntity
  8
化粧台
  6
CONTINUOUS
 62
     6
100
AcDbLine
 10
674.82073119273
 20
2138.84861530957
 30
0.0
 11
674.2535011455302
 21
2139.04134436797
 31
0.0
  0
LINE
  5
2CC
330
1F
100
AcDbEntity
  8
化粧台
  6
CONTINUOUS
 62
     6
100
AcDbLine
 10
674.2535011455302
 20
2139.04134436797
 30
0.0
 11
673.8975590431301
 21
2139.14833490317
 31
0.0
  0
LINE
  5
2CD
330
1F
100
AcDbEntity
  8
化粧台
  6
CONTINUOUS
 62
     6
100
AcDbLine
 10
673.8975590431301
 20
2139.14833490317
 30
0.0
 11
673.5176075855302
 21
2139.24466933037
 31
0.0
  0
LINE
  5
2CE
330
1F
100
AcDbEntity
  8
化粧台
  6
CONTINUOUS
 62
     6
100
AcDbLine
 10
673.5176075855302
 20
2139.24466933037
 30
0.0
 11
673.13766014153
 21
2139.31966344637
 31
0.0
  0
LINE
  5
2CF
330
1F
100
AcDbEntity
  8
化粧台
  6
CONTINUOUS
 62
     6
100
AcDbLine
 10
673.13766014153
 20
2139.31966344637
 30
0.0
 11
672.7763277743302
 21
2139.35441720877
 31
0.0
  0
LINE
  5
2D0
330
1F
100
AcDbEntity
  8
化粧台
  6
CONTINUOUS
 62
     6
100
AcDbLine
 10
672.7763277743302
 20
2139.35441720877
 30
0.0
 11
672.3776368183301
 21
2139.34103586637
 31
0.0
  0
LINE
  5
2D1
330
1F
100
AcDbEntity
  8
化粧台
  6
CONTINUOUS
 62
     6
100
AcDbLine
 10
672.3776368183301
 20
2139.34103586637
 30
0.0
 11
672.0164288727301
 21
2139.27679017117
 31
0.0
  0
LINE
  5
2D2
330
1F
100
AcDbEntity
  8
化粧台
  6
CONTINUOUS
 62
     6
100
AcDbLine
 10
672.0164288727301
 20
2139.27679017117
 30
0.0
 11
671.68204381593
 21
2139.17782282237
 31
0.0
  0
LINE
  5
2D3
330
1F
100
AcDbEntity
  8
化粧台
  6
CONTINUOUS
 62
     6
100
AcDbLine
 10
671.68204381593
 20
2139.17782282237
 30
0.0
 11
671.3637051319301
 21
2139.06008386637
 31
0.0
  0
LINE
  5
2D4
330
1F
100
AcDbEntity
  8
化粧台
  6
CONTINUOUS
 62
     6
100
AcDbLine
 10
671.3637051319301
 20
2139.06008386637
 30
0.0
 11
671.04254890073
 21
2138.93961967597
 31
0.0
  0
LINE
  5
2D5
330
1F
100
AcDbEntity
  8
化粧台
  6
CONTINUOUS
 62
     6
100
AcDbLine
 10
671.04254890073
 20
2138.93961967597
 30
0.0
 11
670.7080394223301
 21
2138.83262914077
 31
0.0
  0
LINE
  5
2D6
330
1F
100
AcDbEntity
  8
化粧台
  6
CONTINUOUS
 62
     6
100
AcDbLine
 10
670.7080394223301
 20
2138.83262914077
 30
0.0
 11
670.3495246023301
 21
2138.75775944637
 31
0.0
  0
LINE
  5
2D7
330
1F
100
AcDbEntity
  8
化粧台
  6
CONTINUOUS
 62
     6
100
AcDbLine
 10
670.3495246023301
 20
2138.75775944637
 30
0.0
 11
669.94814052073
 21
2138.73090444877
 31
0.0
  0
LINE
  5
2D8
330
1F
100
AcDbEntity
  8
化粧台
  6
CONTINUOUS
 62
     6
100
AcDbLine
 10
669.94814052073
 20
2138.73090444877
 30
0.0
 11
669.5521467039302
 21
2138.76039236797
 31
0.0
  0
LINE
  5
2D9
330
1F
100
AcDbEntity
  8
化粧台
  6
CONTINUOUS
 62
     6
100
AcDbLine
 10
669.5521467039302
 20
2138.76039236797
 30
0.0
 11
669.1962046015301
 21
2138.83262914077
 31
0.0
  0
LINE
  5
2DA
330
1F
100
AcDbEntity
  8
化粧台
  6
CONTINUOUS
 62
     6
100
AcDbLine
 10
669.1962046015301
 20
2138.83262914077
 30
0.0
 11
668.86977851353
 21
2138.93435383277
 31
0.0
  0
LINE
  5
2DB
330
1F
100
AcDbEntity
  8
化粧台
  6
CONTINUOUS
 62
     6
100
AcDbLine
 10
668.86977851353
 20
2138.93435383277
 30
0.0
 11
668.55401254713
 21
2139.05209278877
 31
0.0
  0
LINE
  5
2DC
330
1F
100
AcDbEntity
  8
化粧台
  6
CONTINUOUS
 62
     6
100
AcDbLine
 10
668.55401254713
 20
2139.05209278877
 30
0.0
 11
668.2382465807302
 21
2139.16979963597
 31
0.0
  0
LINE
  5
2DD
330
1F
100
AcDbEntity
  8
化粧台
  6
CONTINUOUS
 62
     6
100
AcDbLine
 10
668.2382465807302
 20
2139.16979963597
 30
0.0
 11
667.9064302279301
 21
2139.27415724957
 31
0.0
  0
LINE
  5
2DE
330
1F
100
AcDbEntity
  8
化粧台
  6
CONTINUOUS
 62
     6
100
AcDbLine
 10
667.9064302279301
 20
2139.27415724957
 30
0.0
 11
667.5452222823301
 21
2139.34902694397
 31
0.0
  0
LINE
  5
2DF
330
1F
100
AcDbEntity
  8
化粧台
  6
CONTINUOUS
 62
     6
100
AcDbLine
 10
667.5452222823301
 20
2139.34902694397
 30
0.0
 11
667.13587521833
 21
2139.38378471997
 31
0.0
  0
LINE
  5
2E0
330
1F
100
AcDbEntity
  8
化粧台
  6
CONTINUOUS
 62
     6
100
AcDbLine
 10
667.13587521833
 20
2139.38378471997
 30
0.0
 11
666.8040628791302
 21
2139.36516562957
 31
0.0
  0
LINE
  5
2E1
330
1F
100
AcDbEntity
  8
化粧台
  6
CONTINUOUS
 62
     6
100
AcDbLine
 10
666.8040628791302
 20
2139.36516562957
 30
0.0
 11
666.4266881527301
 21
2139.29816660477
 31
0.0
  0
LINE
  5
2E2
330
1F
100
AcDbEntity
  8
化粧台
  6
CONTINUOUS
 62
     6
100
AcDbLine
 10
666.4266881527301
 20
2139.29816660477
 30
0.0
 11
666.0333874615301
 21
2139.20719033357
 31
0.0
  0
LINE
  5
2E3
330
1F
100
AcDbEntity
  8
化粧台
  6
CONTINUOUS
 62
     6
100
AcDbLine
 10
666.0333874615301
 20
2139.20719033357
 30
0.0
 11
665.6508632863302
 21
2139.09756687677
 31
0.0
  0
LINE
  5
2E4
330
1F
100
AcDbEntity
  8
化粧台
  6
CONTINUOUS
 62
     6
100
AcDbLine
 10
665.6508632863302
 20
2139.09756687677
 30
0.0
 11
665.0272903223301
 21
2138.89687483597
 31
0.0
  0
LINE
  5
2E5
330
1F
100
AcDbEntity
  8
化粧台
  6
CONTINUOUS
 62
     6
100
AcDbLine
 10
665.0272903223301
 20
2138.89687483597
 30
0.0
 11
664.77313311593
 21
2138.80314122157
 31
0.0
  0
LINE
  5
2E6
330
1F
100
AcDbEntity
  8
化粧台
  6
CONTINUOUS
 62
     6
100
AcDbLine
 10
664.77313311593
 20
2138.80314122157
 30
0.0
 11
664.9898113255301
 21
2138.61589072717
 31
0.0
  0
LINE
  5
2E7
330
1F
100
AcDbEntity
  8
化粧台
  6
CONTINUOUS
 62
     6
100
AcDbLine
 10
664.9898113255301
 20
2138.61589072717
 30
0.0
 11
665.24408893993
 21
2138.69887592077
 31
0.0
  0
LINE
  5
2E8
330
1F
100
AcDbEntity
  8
化粧台
  6
CONTINUOUS
 62
     6
100
AcDbLine
 10
665.24408893993
 20
2138.69887592077
 30
0.0
 11
665.8462292799302
 21
2138.88073615037
 31
0.0
  0
LINE
  5
2E9
330
1F
100
AcDbEntity
  8
化粧台
  6
CONTINUOUS
 62
     6
100
AcDbLine
 10
665.8462292799302
 20
2138.88073615037
 30
0.0
 11
666.5551755295301
 21
2139.05472571037
 31
0.0
  0
LINE
  5
2EA
330
1F
100
AcDbEntity
  8
化粧台
  6
CONTINUOUS
 62
     6
100
AcDbLine
 10
666.5551755295301
 20
2139.05472571037
 30
0.0
 11
666.8790248863301
 21
2139.10819087597
 31
0.0
  0
LINE
  5
2EB
330
1F
100
AcDbEntity
  8
化粧台
  6
CONTINUOUS
 62
     6
100
AcDbLine
 10
666.8790248863301
 20
2139.10819087597
 30
0.0
 11
667.13587521833
 21
2139.12157221837
 31
0.0
  0
LINE
  5
2EC
330
1F
100
AcDbEntity
  8
化粧台
  6
CONTINUOUS
 62
     6
100
AcDbLine
 10
667.13587521833
 20
2139.12157221837
 30
0.0
 11
667.5399564391299
 21
2139.07882336477
 31
0.0
  0
LINE
  5
2ED
330
1F
100
AcDbEntity
  8
化粧台
  6
CONTINUOUS
 62
     6
100
AcDbLine
 10
667.5399564391299
 20
2139.07882336477
 30
0.0
 11
667.90116438473
 21
2138.99320926317
 31
0.0
  0
LINE
  5
2EE
330
1F
100
AcDbEntity
  8
化粧台
  6
CONTINUOUS
 62
     6
100
AcDbLine
 10
667.90116438473
 20
2138.99320926317
 30
0.0
 11
668.23297672393
 21
2138.88612641517
 31
0.0
  0
LINE
  5
2EF
330
1F
100
AcDbEntity
  8
化粧台
  6
CONTINUOUS
 62
     6
100
AcDbLine
 10
668.23297672393
 20
2138.88612641517
 30
0.0
 11
668.5487467039301
 21
2138.76838745917
 31
0.0
  0
LINE
  5
2F0
330
1F
100
AcDbEntity
  8
化粧台
  6
CONTINUOUS
 62
     6
100
AcDbLine
 10
668.5487467039301
 20
2138.76838745917
 30
0.0
 11
668.8670853879303
 21
2138.65340183277
 31
0.0
  0
LINE
  5
2F1
330
1F
100
AcDbEntity
  8
化粧台
  6
CONTINUOUS
 62
     6
100
AcDbLine
 10
668.8670853879303
 20
2138.65340183277
 30
0.0
 11
669.1962046015301
 21
2138.55167714077
 31
0.0
  0
LINE
  5
2F2
330
1F
100
AcDbEntity
  8
化粧台
  6
CONTINUOUS
 62
     6
100
AcDbLine
 10
669.1962046015301
 20
2138.55167714077
 30
0.0
 11
669.5521467039302
 21
2138.48204519437
 31
0.0
  0
LINE
  5
2F3
330
1F
100
AcDbEntity
  8
化粧台
  6
CONTINUOUS
 62
     6
100
AcDbLine
 10
669.5521467039302
 20
2138.48204519437
 30
0.0
 11
669.7448155583302
 21
2138.46330569597
 31
0.0
  0
LINE
  5
2F4
330
1F
100
AcDbEntity
  8
化粧台
  6
CONTINUOUS
 62
     6
100
AcDbLine
 10
669.7448155583302
 20
2138.46330569597
 30
0.0
 11
669.94814052073
 21
2138.45531461837
 31
0.0
  0
LINE
  5
2F5
330
1F
100
AcDbEntity
  8
化粧台
  6
CONTINUOUS
 62
     6
100
AcDbLine
 10
669.94814052073
 20
2138.45531461837
 30
0.0
 11
670.14607521833
 21
2138.46330569597
 31
0.0
  0
LINE
  5
2F6
330
1F
100
AcDbEntity
  8
化粧台
  6
CONTINUOUS
 62
     6
100
AcDbLine
 10
671.3637051319301
 20
2139.95380020557
 30
0.0
 11
671.04254890073
 21
2139.83333601517
 31
0.0
  0
LINE
  5
2F7
330
1F
100
AcDbEntity
  8
化粧台
  6
CONTINUOUS
 62
     6
100
AcDbLine
 10
671.04254890073
 20
2139.83333601517
 30
0.0
 11
670.7080394223301
 21
2139.72897840157
 31
0.0
  0
LINE
  5
2F8
330
1F
100
AcDbEntity
  8
化粧台
  6
CONTINUOUS
 62
     6
100
AcDbLine
 10
670.7080394223301
 20
2139.72897840157
 30
0.0
 11
670.3495246023301
 21
2139.65674162877
 31
0.0
  0
LINE
  5
2F9
330
1F
100
AcDbEntity
  8
化粧台
  6
CONTINUOUS
 62
     6
100
AcDbLine
 10
670.3495246023301
 20
2139.65674162877
 30
0.0
 11
669.94814052073
 21
2139.63001105277
 31
0.0
  0
LINE
  5
2FA
330
1F
100
AcDbEntity
  8
化粧台
  6
CONTINUOUS
 62
     6
100
AcDbLine
 10
669.94814052073
 20
2139.63001105277
 30
0.0
 11
669.7448155583302
 21
2139.64072736477
 31
0.0
  0
LINE
  5
2FB
330
1F
100
AcDbEntity
  8
化粧台
  6
CONTINUOUS
 62
     6
100
AcDbLine
 10
669.7448155583302
 20
2139.64072736477
 30
0.0
 11
669.5468768471303
 21
2139.66209978477
 31
0.0
  0
LINE
  5
2FC
330
1F
100
AcDbEntity
  8
化粧台
  6
CONTINUOUS
 62
     6
100
AcDbLine
 10
669.5468768471303
 20
2139.66209978477
 30
0.0
 11
669.17746108953
 21
2139.73972682237
 31
0.0
  0
LINE
  5
2FD
330
1F
100
AcDbEntity
  8
化粧台
  6
CONTINUOUS
 62
     6
100
AcDbLine
 10
669.17746108953
 20
2139.73972682237
 30
0.0
 11
668.8322995167302
 21
2139.84944259197
 31
0.0
  0
LINE
  5
2FE
330
1F
100
AcDbEntity
  8
化粧台
  6
CONTINUOUS
 62
     6
100
AcDbLine
 10
668.8322995167302
 20
2139.84944259197
 30
0.0
 11
668.5004871775302
 21
2139.97257181277
 31
0.0
  0
LINE
  5
2FF
330
1F
100
AcDbEntity
  8
化粧台
  6
CONTINUOUS
 62
     6
100
AcDbLine
 10
668.5004871775302
 20
2139.97257181277
 30
0.0
 11
668.1767582287299
 21
2140.09566892477
 31
0.0
  0
LINE
  5
300
330
1F
100
AcDbEntity
  8
化粧台
  6
CONTINUOUS
 62
     6
100
AcDbLine
 10
668.1767582287299
 20
2140.09566892477
 30
0.0
 11
667.8449458895299
 21
2140.20002653837
 31
0.0
  0
LINE
  5
301
330
1F
100
AcDbEntity
  8
化粧台
  6
CONTINUOUS
 62
     6
100
AcDbLine
 10
667.8449458895299
 20
2140.20002653837
 30
0.0
 11
667.50247744233
 21
2140.27225929757
 31
0.0
  0
LINE
  5
302
330
1F
100
AcDbEntity
  8
化粧台
  6
CONTINUOUS
 62
     6
100
AcDbLine
 10
667.50247744233
 20
2140.27225929757
 30
0.0
 11
667.13587521833
 21
2140.29626865277
 31
0.0
  0
LINE
  5
303
330
1F
100
AcDbEntity
  8
化粧台
  6
CONTINUOUS
 62
     6
100
AcDbLine
 10
667.13587521833
 20
2140.29626865277
 30
0.0
 11
666.7292252935301
 21
2140.26687304637
 31
0.0
  0
LINE
  5
304
330
1F
100
AcDbEntity
  8
化粧台
  6
CONTINUOUS
 62
     6
100
AcDbLine
 10
666.7292252935301
 20
2140.26687304637
 30
0.0
 11
666.3705900655302
 21
2140.19726919517
 31
0.0
  0
LINE
  5
305
330
1F
100
AcDbEntity
  8
化粧台
  6
CONTINUOUS
 62
     6
100
AcDbLine
 10
666.3705900655302
 20
2140.19726919517
 30
0.0
 11
666.0414708519298
 21
2140.10366000237
 31
0.0
  0
LINE
  5
306
330
1F
100
AcDbEntity
  8
化粧台
  6
CONTINUOUS
 62
     6
100
AcDbLine
 10
666.0414708519298
 20
2140.10366000237
 30
0.0
 11
665.7310911367301
 21
2139.99131131117
 31
0.0
  0
LINE
  5
307
330
1F
100
AcDbEntity
  8
化粧台
  6
CONTINUOUS
 62
     6
100
AcDbLine
 10
665.7310911367301
 20
2139.99131131117
 30
0.0
 11
665.4287988255301
 21
2139.87883819837
 31
0.0
  0
LINE
  5
308
330
1F
100
AcDbEntity
  8
化粧台
  6
CONTINUOUS
 62
     6
100
AcDbLine
 10
665.4287988255301
 20
2139.87883819837
 30
0.0
 11
665.1157259847301
 21
2139.77448058477
 31
0.0
  0
LINE
  5
309
330
1F
100
AcDbEntity
  8
化粧台
  6
CONTINUOUS
 62
     6
100
AcDbLine
 10
665.1157259847301
 20
2139.77448058477
 30
0.0
 11
664.7810960983302
 21
2139.69158770397
 31
0.0
  0
LINE
  5
30A
330
1F
100
AcDbEntity
  8
化粧台
  6
CONTINUOUS
 62
     6
100
AcDbLine
 10
664.7810960983302
 20
2139.69158770397
 30
0.0
 11
664.4119251703299
 21
2139.64336028637
 31
0.0
  0
LINE
  5
30B
330
1F
100
AcDbEntity
  8
化粧台
  6
CONTINUOUS
 62
     6
100
AcDbLine
 10
664.4119251703299
 20
2139.64336028637
 30
0.0
 11
664.2353026887301
 21
2139.64336028637
 31
0.0
  0
LINE
  5
30C
330
1F
100
AcDbEntity
  8
化粧台
  6
CONTINUOUS
 62
     6
100
AcDbLine
 10
664.2353026887301
 20
2139.64336028637
 30
0.0
 11
664.05598306793
 21
2139.65410870717
 31
0.0
  0
LINE
  5
30D
330
1F
100
AcDbEntity
  8
化粧台
  6
CONTINUOUS
 62
     6
100
AcDbLine
 10
664.05598306793
 20
2139.65410870717
 30
0.0
 11
663.8606170743301
 21
2139.67284820557
 31
0.0
  0
LINE
  5
30E
330
1F
100
AcDbEntity
  8
化粧台
  6
CONTINUOUS
 62
     6
100
AcDbLine
 10
663.8606170743301
 20
2139.67284820557
 30
0.0
 11
664.0774156919301
 21
2139.39725837517
 31
0.0
  0
LINE
  5
30F
330
1F
100
AcDbEntity
  8
化粧台
  6
CONTINUOUS
 62
     6
100
AcDbLine
 10
664.0774156919301
 20
2139.39725837517
 30
0.0
 11
664.4119251703299
 21
2139.39725837517
 31
0.0
  0
LINE
  5
310
330
1F
100
AcDbEntity
  8
化粧台
  6
CONTINUOUS
 62
     6
100
AcDbLine
 10
664.4119251703299
 20
2139.39725837517
 30
0.0
 11
664.79726287913
 21
2139.43201213757
 31
0.0
  0
LINE
  5
311
330
1F
100
AcDbEntity
  8
化粧台
  6
CONTINUOUS
 62
     6
100
AcDbLine
 10
664.79726287913
 20
2139.43201213757
 30
0.0
 11
665.1450011831301
 21
2139.50688183197
 31
0.0
  0
LINE
  5
312
330
1F
100
AcDbEntity
  8
化粧台
  6
CONTINUOUS
 62
     6
100
AcDbLine
 10
665.1450011831301
 20
2139.50688183197
 30
0.0
 11
665.4661574143302
 21
2139.60588128957
 31
0.0
  0
LINE
  5
313
330
1F
100
AcDbEntity
  8
化粧台
  6
CONTINUOUS
 62
     6
100
AcDbLine
 10
665.4661574143302
 20
2139.60588128957
 30
0.0
 11
665.7738399903301
 21
2139.71835038877
 31
0.0
  0
LINE
  5
314
330
1F
100
AcDbEntity
  8
化粧台
  6
CONTINUOUS
 62
     6
100
AcDbLine
 10
665.7738399903301
 20
2139.71835038877
 30
0.0
 11
666.0842156919299
 21
2139.83070309357
 31
0.0
  0
LINE
  5
315
330
1F
100
AcDbEntity
  8
化粧台
  6
CONTINUOUS
 62
     6
100
AcDbLine
 10
666.0842156919299
 20
2139.83070309357
 30
0.0
 11
666.40537593673
 21
2139.92706561597
 31
0.0
  0
LINE
  5
316
330
1F
100
AcDbEntity
  8
化粧台
  6
CONTINUOUS
 62
     6
100
AcDbLine
 10
666.40537593673
 20
2139.92706561597
 30
0.0
 11
666.7532346487301
 21
2139.99394423277
 31
0.0
  0
LINE
  5
317
330
1F
100
AcDbEntity
  8
化粧台
  6
CONTINUOUS
 62
     6
100
AcDbLine
 10
666.7532346487301
 20
2139.99394423277
 30
0.0
 11
667.13587521833
 21
2140.02067480877
 31
0.0
  0
LINE
  5
318
330
1F
100
AcDbEntity
  8
化粧台
  6
CONTINUOUS
 62
     6
100
AcDbLine
 10
667.13587521833
 20
2140.02067480877
 30
0.0
 11
667.5345661743302
 21
2139.99657715437
 31
0.0
  0
LINE
  5
319
330
1F
100
AcDbEntity
  8
化粧台
  6
CONTINUOUS
 62
     6
100
AcDbLine
 10
667.5345661743302
 20
2139.99657715437
 30
0.0
 11
667.8930809943301
 21
2139.92167936477
 31
0.0
  0
LINE
  5
31A
330
1F
100
AcDbEntity
  8
化粧台
  6
CONTINUOUS
 62
     6
100
AcDbLine
 10
667.8930809943301
 20
2139.92167936477
 30
0.0
 11
668.2248933335302
 21
2139.81732175117
 31
0.0
  0
LINE
  5
31B
330
1F
100
AcDbEntity
  8
化粧台
  6
CONTINUOUS
 62
     6
100
AcDbLine
 10
668.2248933335302
 20
2139.81732175117
 30
0.0
 11
668.5433564391301
 21
2139.69685756077
 31
0.0
  0
LINE
  5
31C
330
1F
100
AcDbEntity
  8
化粧台
  6
CONTINUOUS
 62
     6
100
AcDbLine
 10
668.5433564391301
 20
2139.69685756077
 30
0.0
 11
668.86181954473
 21
2139.57651377837
 31
0.0
  0
LINE
  5
31D
330
1F
100
AcDbEntity
  8
化粧台
  6
CONTINUOUS
 62
     6
100
AcDbLine
 10
668.86181954473
 20
2139.57651377837
 30
0.0
 11
669.1935074623302
 21
2139.47215616477
 31
0.0
  0
LINE
  5
31E
330
1F
100
AcDbEntity
  8
化粧台
  6
CONTINUOUS
 62
     6
100
AcDbLine
 10
669.1935074623302
 20
2139.47215616477
 30
0.0
 11
669.5521467039302
 21
2139.39725837517
 31
0.0
  0
LINE
  5
31F
330
1F
100
AcDbEntity
  8
化粧台
  6
CONTINUOUS
 62
     6
100
AcDbLine
 10
669.5521467039302
 20
2139.39725837517
 30
0.0
 11
669.94814052073
 21
2139.36779855117
 31
0.0
  0
LINE
  5
320
330
1F
100
AcDbEntity
  8
化粧台
  6
CONTINUOUS
 62
     6
100
AcDbLine
 10
669.94814052073
 20
2139.36779855117
 30
0.0
 11
670.3495246023301
 21
2139.39453314077
 31
0.0
  0
LINE
  5
321
330
1F
100
AcDbEntity
  8
化粧台
  6
CONTINUOUS
 62
     6
100
AcDbLine
 10
670.3495246023301
 20
2139.39453314077
 30
0.0
 11
670.7080394223301
 21
2139.46952324317
 31
0.0
  0
LINE
  5
322
330
1F
100
AcDbEntity
  8
化粧台
  6
CONTINUOUS
 62
     6
100
AcDbLine
 10
670.7080394223301
 20
2139.46952324317
 30
0.0
 11
671.04254890073
 21
2139.57388085677
 31
0.0
  0
LINE
  5
323
330
1F
100
AcDbEntity
  8
化粧台
  6
CONTINUOUS
 62
     6
100
AcDbLine
 10
671.04254890073
 20
2139.57388085677
 30
0.0
 11
671.3637051319301
 21
2139.69158770397
 31
0.0
  0
LINE
  5
324
330
1F
100
AcDbEntity
  8
化粧台
  6
CONTINUOUS
 62
     6
100
AcDbLine
 10
671.3637051319301
 20
2139.69158770397
 30
0.0
 11
671.68204381593
 21
2139.81195958157
 31
0.0
  0
LINE
  5
325
330
1F
100
AcDbEntity
  8
化粧台
  6
CONTINUOUS
 62
     6
100
AcDbLine
 10
671.68204381593
 20
2139.81195958157
 30
0.0
 11
672.0164288727301
 21
2139.91368427357
 31
0.0
  0
LINE
  5
326
330
1F
100
AcDbEntity
  8
化粧台
  6
CONTINUOUS
 62
     6
100
AcDbLine
 10
672.0164288727301
 20
2139.91368427357
 30
0.0
 11
672.3776368183301
 21
2139.98592104637
 31
0.0
  0
LINE
  5
327
330
1F
100
AcDbEntity
  8
化粧台
  6
CONTINUOUS
 62
     6
100
AcDbLine
 10
672.3776368183301
 20
2139.98592104637
 30
0.0
 11
672.7763277743302
 21
2140.00729346637
 31
0.0
  0
LINE
  5
328
330
1F
100
AcDbEntity
  8
化粧台
  6
CONTINUOUS
 62
     6
100
AcDbLine
 10
672.7763277743302
 20
2140.00729346637
 30
0.0
 11
672.9716897543301
 21
2139.99930238877
 31
0.0
  0
LINE
  5
329
330
1F
100
AcDbEntity
  8
化粧台
  6
CONTINUOUS
 62
     6
100
AcDbLine
 10
672.9716897543301
 20
2139.99930238877
 30
0.0
 11
673.15370651433
 21
2139.97517262557
 31
0.0
  0
LINE
  5
32A
330
1F
100
AcDbEntity
  8
化粧台
  6
CONTINUOUS
 62
     6
100
AcDbLine
 10
673.15370651433
 20
2139.97517262557
 30
0.0
 11
673.4934778223301
 21
2139.89757769677
 31
0.0
  0
LINE
  5
32B
330
1F
100
AcDbEntity
  8
化粧台
  6
CONTINUOUS
 62
     6
100
AcDbLine
 10
673.4934778223301
 20
2139.89757769677
 30
0.0
 11
673.8065506631301
 21
2139.79058716157
 31
0.0
  0
LINE
  5
32C
330
1F
100
AcDbEntity
  8
化粧台
  6
CONTINUOUS
 62
     6
100
AcDbLine
 10
673.8065506631301
 20
2139.79058716157
 30
0.0
 11
674.1062742703301
 21
2139.67012297117
 31
0.0
  0
LINE
  5
32D
330
1F
100
AcDbEntity
  8
化粧台
  6
CONTINUOUS
 62
     6
100
AcDbLine
 10
674.1062742703301
 20
2139.67012297117
 30
0.0
 11
674.40869100313
 21
2139.55238401517
 31
0.0
  0
LINE
  5
32E
330
1F
100
AcDbEntity
  8
化粧台
  6
CONTINUOUS
 62
     6
100
AcDbLine
 10
674.40869100313
 20
2139.55238401517
 30
0.0
 11
674.7216394223301
 21
2139.45075163597
 31
0.0
  0
LINE
  5
32F
330
1F
100
AcDbEntity
  8
化粧台
  6
CONTINUOUS
 62
     6
100
AcDbLine
 10
674.7216394223301
 20
2139.45075163597
 30
0.0
 11
675.0642322911301
 21
2139.37851486317
 31
0.0
  0
LINE
  5
330
330
1F
100
AcDbEntity
  8
化粧台
  6
CONTINUOUS
 62
     6
100
AcDbLine
 10
675.0642322911301
 20
2139.37851486317
 30
0.0
 11
675.4414866095301
 21
2139.35441720877
 31
0.0
  0
LINE
  5
331
330
1F
100
AcDbEntity
  8
化粧台
  6
CONTINUOUS
 62
     6
100
AcDbLine
 10
675.4414866095301
 20
2139.35441720877
 30
0.0
 11
675.78934532153
 21
2139.36779855117
 31
0.0
  0
LINE
  5
332
330
1F
100
AcDbEntity
  8
化粧台
  6
CONTINUOUS
 62
     6
100
AcDbLine
 10
675.78934532153
 20
2139.36779855117
 30
0.0
 11
675.9766239111301
 21
2139.64336028637
 31
0.0
  0
LINE
  5
333
330
1F
100
AcDbEntity
  8
化粧台
  6
CONTINUOUS
 62
     6
100
AcDbLine
 10
675.9766239111301
 20
2139.64336028637
 30
0.0
 11
675.70911747113
 21
2139.62198786637
 31
0.0
  0
LINE
  5
334
330
1F
100
AcDbEntity
  8
化粧台
  6
CONTINUOUS
 62
     6
100
AcDbLine
 10
675.70911747113
 20
2139.62198786637
 30
0.0
 11
675.4414866095301
 21
2139.61662971037
 31
0.0
  0
LINE
  5
335
330
1F
100
AcDbEntity
  8
化粧台
  6
CONTINUOUS
 62
     6
100
AcDbLine
 10
675.4414866095301
 20
2139.61662971037
 30
0.0
 11
675.0642322911301
 21
2139.64072736477
 31
0.0
  0
LINE
  5
336
330
1F
100
AcDbEntity
  8
化粧台
  6
CONTINUOUS
 62
     6
100
AcDbLine
 10
675.0642322911301
 20
2139.64072736477
 30
0.0
 11
674.7216394223301
 21
2139.71023890317
 31
0.0
  0
LINE
  5
337
330
1F
100
AcDbEntity
  8
化粧台
  6
CONTINUOUS
 62
     6
100
AcDbLine
 10
674.7216394223301
 20
2139.71023890317
 30
0.0
 11
674.40869100313
 21
2139.81459651677
 31
0.0
  0
LINE
  5
338
330
1F
100
AcDbEntity
  8
化粧台
  6
CONTINUOUS
 62
     6
100
AcDbLine
 10
674.40869100313
 20
2139.81459651677
 30
0.0
 11
674.1062742703301
 21
2139.93242377197
 31
0.0
  0
LINE
  5
339
330
1F
100
AcDbEntity
  8
化粧台
  6
CONTINUOUS
 62
     6
100
AcDbLine
 10
674.1062742703301
 20
2139.93242377197
 30
0.0
 11
673.8065506631301
 21
2140.05279966317
 31
0.0
  0
LINE
  5
33A
330
1F
100
AcDbEntity
  8
化粧台
  6
CONTINUOUS
 62
     6
100
AcDbLine
 10
673.8065506631301
 20
2140.05279966317
 30
0.0
 11
673.4934778223301
 21
2140.15715727677
 31
0.0
  0
LINE
  5
33B
330
1F
100
AcDbEntity
  8
化粧台
  6
CONTINUOUS
 62
     6
100
AcDbLine
 10
673.4934778223301
 20
2140.15715727677
 30
0.0
 11
673.15370651433
 21
2140.23474819197
 31
0.0
  0
LINE
  5
33C
330
1F
100
AcDbEntity
  8
化粧台
  6
CONTINUOUS
 62
     6
100
AcDbLine
 10
673.15370651433
 20
2140.23474819197
 30
0.0
 11
672.9716897543301
 21
2140.25887795517
 31
0.0
  0
LINE
  5
33D
330
1F
100
AcDbEntity
  8
化粧台
  6
CONTINUOUS
 62
     6
100
AcDbLine
 10
672.9716897543301
 20
2140.25887795517
 30
0.0
 11
672.7763277743302
 21
2140.26687304637
 31
0.0
  0
LINE
  5
33E
330
1F
100
AcDbEntity
  8
化粧台
  6
CONTINUOUS
 62
     6
100
AcDbLine
 10
672.7763277743302
 20
2140.26687304637
 30
0.0
 11
672.3776368183301
 21
2140.24540831357
 31
0.0
  0
LINE
  5
33F
330
1F
100
AcDbEntity
  8
化粧台
  6
CONTINUOUS
 62
     6
100
AcDbLine
 10
672.3776368183301
 20
2140.24540831357
 30
0.0
 11
672.0164288727301
 21
2140.17589677517
 31
0.0
  0
LINE
  5
340
330
1F
100
AcDbEntity
  8
化粧台
  6
CONTINUOUS
 62
     6
100
AcDbLine
 10
672.0164288727301
 20
2140.17589677517
 30
0.0
 11
671.68204381593
 21
2140.07417208317
 31
0.0
  0
LINE
  5
341
330
1F
100
AcDbEntity
  8
化粧台
  6
CONTINUOUS
 62
     6
100
AcDbLine
 10
671.68204381593
 20
2140.07417208317
 30
0.0
 11
671.3637051319301
 21
2139.95380020557
 31
0.0
  0
LINE
  5
342
330
1F
100
AcDbEntity
  8
化粧台
  6
CONTINUOUS
 62
     6
100
AcDbLine
 10
670.50471445993
 20
2141.37986439437
 30
0.0
 11
670.3976637207302
 21
2141.28362227997
 31
0.0
  0
LINE
  5
343
330
1F
100
AcDbEntity
  8
化粧台
  6
CONTINUOUS
 62
     6
100
AcDbLine
 10
670.3976637207302
 20
2141.28362227997
 30
0.0
 11
670.27198987753
 21
2141.21126509917
 31
0.0
  0
LINE
  5
344
330
1F
100
AcDbEntity
  8
化粧台
  6
CONTINUOUS
 62
     6
100
AcDbLine
 10
670.27198987753
 20
2141.21126509917
 30
0.0
 11
670.1355435319301
 21
2141.16312598077
 31
0.0
  0
LINE
  5
345
330
1F
100
AcDbEntity
  8
化粧台
  6
CONTINUOUS
 62
     6
100
AcDbLine
 10
670.1355435319301
 20
2141.16312598077
 30
0.0
 11
669.98292639193
 21
2141.14175356077
 31
0.0
  0
LINE
  5
346
330
1F
100
AcDbEntity
  8
化粧台
  6
CONTINUOUS
 62
     6
100
AcDbLine
 10
669.98292639193
 20
2141.14175356077
 30
0.0
 11
669.8277365343301
 21
2141.15240966877
 31
0.0
  0
LINE
  5
347
330
1F
100
AcDbEntity
  8
化粧台
  6
CONTINUOUS
 62
     6
100
AcDbLine
 10
669.8277365343301
 20
2141.15240966877
 30
0.0
 11
669.6779369415301
 21
2141.19525083517
 31
0.0
  0
LINE
  5
348
330
1F
100
AcDbEntity
  8
化粧台
  6
CONTINUOUS
 62
     6
100
AcDbLine
 10
669.6779369415301
 20
2141.19525083517
 30
0.0
 11
669.5468768471303
 21
2141.26748359437
 31
0.0
  0
LINE
  5
349
330
1F
100
AcDbEntity
  8
化粧台
  6
CONTINUOUS
 62
     6
100
AcDbLine
 10
669.5468768471303
 20
2141.26748359437
 30
0.0
 11
669.4290495919302
 21
2141.36385013037
 31
0.0
  0
LINE
  5
34A
330
1F
100
AcDbEntity
  8
化粧台
  6
CONTINUOUS
 62
     6
100
AcDbLine
 10
669.4290495919302
 20
2141.36385013037
 30
0.0
 11
669.3327753687302
 21
2141.48158908637
 31
0.0
  0
LINE
  5
34B
330
1F
100
AcDbEntity
  8
化粧台
  6
CONTINUOUS
 62
     6
100
AcDbLine
 10
669.3327753687302
 20
2141.48158908637
 30
0.0
 11
669.26050648713
 21
2141.61531421117
 31
0.0
  0
LINE
  5
34C
330
1F
100
AcDbEntity
  8
化粧台
  6
CONTINUOUS
 62
     6
100
AcDbLine
 10
669.26050648713
 20
2141.61531421117
 30
0.0
 11
669.2150645079303
 21
2141.76254108637
 31
0.0
  0
LINE
  5
34D
330
1F
100
AcDbEntity
  8
化粧台
  6
CONTINUOUS
 62
     6
100
AcDbLine
 10
669.2150645079303
 20
2141.76254108637
 30
0.0
 11
669.1962046015301
 21
2141.92039196077
 31
0.0
  0
LINE
  5
34E
330
1F
100
AcDbEntity
  8
化粧台
  6
CONTINUOUS
 62
     6
100
AcDbLine
 10
669.1962046015301
 20
2141.92039196077
 30
0.0
 11
669.2122469607299
 21
2142.08097208317
 31
0.0
  0
LINE
  5
34F
330
1F
100
AcDbEntity
  8
化粧台
  6
CONTINUOUS
 62
     6
100
AcDbLine
 10
669.2122469607299
 20
2142.08097208317
 30
0.0
 11
669.2578133615302
 21
2142.23083187997
 31
0.0
  0
LINE
  5
350
330
1F
100
AcDbEntity
  8
化粧台
  6
CONTINUOUS
 62
     6
100
AcDbLine
 10
669.2578133615302
 20
2142.23083187997
 30
0.0
 11
669.3299578215301
 21
2142.36731033437
 31
0.0
  0
LINE
  5
351
330
1F
100
AcDbEntity
  8
化粧台
  6
CONTINUOUS
 62
     6
100
AcDbLine
 10
669.3299578215301
 20
2142.36731033437
 30
0.0
 11
669.4263524527302
 21
2142.48768622557
 31
0.0
  0
LINE
  5
352
330
1F
100
AcDbEntity
  8
化粧台
  6
CONTINUOUS
 62
     6
100
AcDbLine
 10
669.4263524527302
 20
2142.48768622557
 30
0.0
 11
669.5440633135299
 21
2142.58665357437
 31
0.0
  0
LINE
  5
353
330
1F
100
AcDbEntity
  8
化粧台
  6
CONTINUOUS
 62
     6
100
AcDbLine
 10
669.5440633135299
 20
2142.58665357437
 30
0.0
 11
669.6779369415301
 21
2142.65888633357
 31
0.0
  0
LINE
  5
354
330
1F
100
AcDbEntity
  8
化粧台
  6
CONTINUOUS
 62
     6
100
AcDbLine
 10
669.6779369415301
 20
2142.65888633357
 30
0.0
 11
669.8250434087302
 21
2142.70439253037
 31
0.0
  0
LINE
  5
355
330
1F
100
AcDbEntity
  8
化粧台
  6
CONTINUOUS
 62
     6
100
AcDbLine
 10
669.8250434087302
 20
2142.70439253037
 30
0.0
 11
669.98292639193
 21
2142.71514095117
 31
0.0
  0
LINE
  5
356
330
1F
100
AcDbEntity
  8
化粧台
  6
CONTINUOUS
 62
     6
100
AcDbLine
 10
669.98292639193
 20
2142.71514095117
 30
0.0
 11
670.1381162495298
 21
2142.69640145277
 31
0.0
  0
LINE
  5
357
330
1F
100
AcDbEntity
  8
化粧台
  6
CONTINUOUS
 62
     6
100
AcDbLine
 10
670.1381162495298
 20
2142.69640145277
 30
0.0
 11
670.2772597343301
 21
2142.64553709997
 31
0.0
  0
LINE
  5
358
330
1F
100
AcDbEntity
  8
化粧台
  6
CONTINUOUS
 62
     6
100
AcDbLine
 10
670.2772597343301
 20
2142.64553709997
 30
0.0
 11
670.4030499719302
 21
2142.57066740557
 31
0.0
  0
LINE
  5
359
330
1F
100
AcDbEntity
  8
化粧台
  6
CONTINUOUS
 62
     6
100
AcDbLine
 10
670.4030499719302
 20
2142.57066740557
 30
0.0
 11
670.51010472473
 21
2142.47166794797
 31
0.0
  0
LINE
  5
35A
330
1F
100
AcDbEntity
  8
化粧台
  6
CONTINUOUS
 62
     6
100
AcDbLine
 10
670.51010472473
 20
2142.47166794797
 30
0.0
 11
670.5957188263301
 21
2142.35392899197
 31
0.0
  0
LINE
  5
35B
330
1F
100
AcDbEntity
  8
化粧台
  6
CONTINUOUS
 62
     6
100
AcDbLine
 10
670.5957188263301
 20
2142.35392899197
 30
0.0
 11
670.6599043175302
 21
2142.22008345917
 31
0.0
  0
LINE
  5
35C
330
1F
100
AcDbEntity
  8
化粧台
  6
CONTINUOUS
 62
     6
100
AcDbLine
 10
670.6599043175302
 20
2142.22008345917
 30
0.0
 11
670.70277357913
 21
2142.07561392717
 31
0.0
  0
LINE
  5
35D
330
1F
100
AcDbEntity
  8
化粧台
  6
CONTINUOUS
 62
     6
100
AcDbLine
 10
670.70277357913
 20
2142.07561392717
 30
0.0
 11
670.7134296871302
 21
2141.92039196077
 31
0.0
  0
LINE
  5
35E
330
1F
100
AcDbEntity
  8
化粧台
  6
CONTINUOUS
 62
     6
100
AcDbLine
 10
670.7134296871302
 20
2141.92039196077
 30
0.0
 11
670.70007643993
 21
2141.76789924237
 31
0.0
  0
LINE
  5
35F
330
1F
100
AcDbEntity
  8
化粧台
  6
CONTINUOUS
 62
     6
100
AcDbLine
 10
670.70007643993
 20
2141.76789924237
 30
0.0
 11
670.6573315999301
 21
2141.62606263197
 31
0.0
  0
LINE
  5
360
330
1F
100
AcDbEntity
  8
化粧台
  6
CONTINUOUS
 62
     6
100
AcDbLine
 10
670.6573315999301
 20
2141.62606263197
 30
0.0
 11
670.5930257007301
 21
2141.49497042877
 31
0.0
  0
LINE
  5
361
330
1F
100
AcDbEntity
  8
化粧台
  6
CONTINUOUS
 62
     6
100
AcDbLine
 10
670.5930257007301
 20
2141.49497042877
 30
0.0
 11
670.50471445993
 21
2141.37986439437
 31
0.0
  0
LINE
  5
362
330
1F
100
AcDbEntity
  8
化粧台
  6
CONTINUOUS
 62
     6
100
AcDbLine
 10
670.2504328319301
 20
2140.72432310637
 30
0.0
 11
670.50471445993
 21
2140.79392695757
 31
0.0
  0
LINE
  5
363
330
1F
100
AcDbEntity
  8
化粧台
  6
CONTINUOUS
 62
     6
100
AcDbLine
 10
669.98292639193
 20
2140.69483518717
 30
0.0
 11
670.2504328319301
 21
2140.72432310637
 31
0.0
  0
LINE
  5
364
330
1F
100
AcDbEntity
  8
化粧台
  6
CONTINUOUS
 62
     6
100
AcDbLine
 10
669.70733254793
 20
2140.71357468557
 30
0.0
 11
669.98292639193
 21
2140.69483518717
 31
0.0
  0
LINE
  5
365
330
1F
100
AcDbEntity
  8
化粧台
  6
CONTINUOUS
 62
     6
100
AcDbLine
 10
669.4425192335302
 20
2140.77518745917
 30
0.0
 11
669.70733254793
 21
2140.71357468557
 31
0.0
  0
LINE
  5
366
330
1F
100
AcDbEntity
  8
化粧台
  6
CONTINUOUS
 62
     6
100
AcDbLine
 10
669.1962046015301
 20
2140.87954507277
 30
0.0
 11
669.4425192335302
 21
2140.77518745917
 31
0.0
  0
LINE
  5
367
330
1F
100
AcDbEntity
  8
化粧台
  6
CONTINUOUS
 62
     6
100
AcDbLine
 10
668.97413612713
 20
2141.02128937037
 30
0.0
 11
669.1962046015301
 21
2140.87954507277
 31
0.0
  0
LINE
  5
368
330
1F
100
AcDbEntity
  8
化粧台
  6
CONTINUOUS
 62
     6
100
AcDbLine
 10
668.7895506631302
 20
2141.20063708637
 30
0.0
 11
668.97413612713
 21
2141.02128937037
 31
0.0
  0
LINE
  5
369
330
1F
100
AcDbEntity
  8
化粧台
  6
CONTINUOUS
 62
     6
100
AcDbLine
 10
668.6450169135301
 20
2141.41198924877
 30
0.0
 11
668.7895506631302
 21
2141.20063708637
 31
0.0
  0
LINE
  5
36A
330
1F
100
AcDbEntity
  8
化粧台
  6
CONTINUOUS
 62
     6
100
AcDbLine
 10
668.5941886831301
 20
2141.52969609597
 30
0.0
 11
668.6450169135301
 21
2141.41198924877
 31
0.0
  0
LINE
  5
36B
330
1F
100
AcDbEntity
  8
化粧台
  6
CONTINUOUS
 62
     6
100
AcDbLine
 10
668.55401254713
 20
2141.65555055117
 30
0.0
 11
668.5941886831301
 21
2141.52969609597
 31
0.0
  0
LINE
  5
36C
330
1F
100
AcDbEntity
  8
化粧台
  6
CONTINUOUS
 62
     6
100
AcDbLine
 10
668.5300031919301
 20
2141.78391350637
 30
0.0
 11
668.55401254713
 21
2141.65555055117
 31
0.0
  0
LINE
  5
36D
330
1F
100
AcDbEntity
  8
化粧台
  6
CONTINUOUS
 62
     6
100
AcDbLine
 10
668.52204422313
 20
2141.92039196077
 30
0.0
 11
668.5300031919301
 21
2141.78391350637
 31
0.0
  0
LINE
  5
36E
330
1F
100
AcDbEntity
  8
化粧台
  6
CONTINUOUS
 62
     6
100
AcDbLine
 10
668.5300031919301
 20
2142.05950735037
 30
0.0
 11
668.52204422313
 21
2141.92039196077
 31
0.0
  0
LINE
  5
36F
330
1F
100
AcDbEntity
  8
化粧台
  6
CONTINUOUS
 62
     6
100
AcDbLine
 10
668.55401254713
 20
2142.18796261837
 30
0.0
 11
668.5300031919301
 21
2142.05950735037
 31
0.0
  0
LINE
  5
370
330
1F
100
AcDbEntity
  8
化粧台
  6
CONTINUOUS
 62
     6
100
AcDbLine
 10
668.5941886831301
 20
2142.31369265197
 30
0.0
 11
668.55401254713
 21
2142.18796261837
 31
0.0
  0
LINE
  5
371
330
1F
100
AcDbEntity
  8
化粧台
  6
CONTINUOUS
 62
     6
100
AcDbLine
 10
668.6450169135301
 20
2142.43143160797
 30
0.0
 11
668.5941886831301
 21
2142.31369265197
 31
0.0
  0
LINE
  5
372
330
1F
100
AcDbEntity
  8
化粧台
  6
CONTINUOUS
 62
     6
100
AcDbLine
 10
668.7092024047299
 20
2142.54390472077
 30
0.0
 11
668.6450169135301
 21
2142.43143160797
 31
0.0
  0
LINE
  5
373
330
1F
100
AcDbEntity
  8
化粧台
  6
CONTINUOUS
 62
     6
100
AcDbLine
 10
668.78685753753
 20
2142.64553709997
 30
0.0
 11
668.7092024047299
 21
2142.54390472077
 31
0.0
  0
LINE
  5
374
330
1F
100
AcDbEntity
  8
化粧台
  6
CONTINUOUS
 62
     6
100
AcDbLine
 10
668.8751687783301
 20
2142.74187152717
 30
0.0
 11
668.78685753753
 21
2142.64553709997
 31
0.0
  0
LINE
  5
375
330
1F
100
AcDbEntity
  8
化粧台
  6
CONTINUOUS
 62
     6
100
AcDbLine
 10
668.9714430015301
 20
2142.82748964237
 30
0.0
 11
668.8751687783301
 21
2142.74187152717
 31
0.0
  0
LINE
  5
376
330
1F
100
AcDbEntity
  8
化粧台
  6
CONTINUOUS
 62
     6
100
AcDbLine
 10
669.0784937407299
 20
2142.90511266637
 30
0.0
 11
668.9714430015301
 21
2142.82748964237
 31
0.0
  0
LINE
  5
377
330
1F
100
AcDbEntity
  8
化粧台
  6
CONTINUOUS
 62
     6
100
AcDbLine
 10
669.1935074623302
 20
2142.97195917437
 30
0.0
 11
669.0784937407299
 21
2142.90511266637
 31
0.0
  0
LINE
  5
378
330
1F
100
AcDbEntity
  8
化粧台
  6
CONTINUOUS
 62
     6
100
AcDbLine
 10
669.3140358703301
 20
2143.03084671357
 30
0.0
 11
669.1935074623302
 21
2142.97195917437
 31
0.0
  0
LINE
  5
379
330
1F
100
AcDbEntity
  8
化粧台
  6
CONTINUOUS
 62
     6
100
AcDbLine
 10
669.4397056999302
 20
2143.07631678797
 30
0.0
 11
669.3140358703301
 21
2143.03084671357
 31
0.0
  0
LINE
  5
37A
330
1F
100
AcDbEntity
  8
化粧台
  6
CONTINUOUS
 62
     6
100
AcDbLine
 10
669.70733254793
 20
2143.14056248317
 30
0.0
 11
669.4397056999302
 21
2143.07631678797
 31
0.0
  0
LINE
  5
37B
330
1F
100
AcDbEntity
  8
化粧台
  6
CONTINUOUS
 62
     6
100
AcDbLine
 10
669.8464760327302
 20
2143.15394382557
 30
0.0
 11
669.70733254793
 21
2143.14056248317
 31
0.0
  0
LINE
  5
37C
330
1F
100
AcDbEntity
  8
化粧台
  6
CONTINUOUS
 62
     6
100
AcDbLine
 10
669.98292639193
 20
2143.15666905997
 30
0.0
 11
669.8464760327302
 21
2143.15394382557
 31
0.0
  0
LINE
  5
37D
330
1F
100
AcDbEntity
  8
化粧台
  6
CONTINUOUS
 62
     6
100
AcDbLine
 10
670.2532503791301
 20
2143.12981406237
 30
0.0
 11
669.98292639193
 21
2143.15666905997
 31
0.0
  0
LINE
  5
37E
330
1F
100
AcDbEntity
  8
化粧台
  6
CONTINUOUS
 62
     6
100
AcDbLine
 10
670.50740758553
 20
2143.05757728957
 30
0.0
 11
670.2532503791301
 21
2143.12981406237
 31
0.0
  0
LINE
  5
37F
330
1F
100
AcDbEntity
  8
化粧台
  6
CONTINUOUS
 62
     6
100
AcDbLine
 10
670.63050469753
 20
2143.00947027997
 30
0.0
 11
670.50740758553
 21
2143.05757728957
 31
0.0
  0
LINE
  5
380
330
1F
100
AcDbEntity
  8
化粧台
  6
CONTINUOUS
 62
     6
100
AcDbLine
 10
670.7428252935301
 20
2142.95058675437
 30
0.0
 11
670.63050469753
 21
2143.00947027997
 31
0.0
  0
LINE
  5
381
330
1F
100
AcDbEntity
  8
化粧台
  6
CONTINUOUS
 62
     6
100
AcDbLine
 10
670.9515405207301
 20
2142.80339198797
 30
0.0
 11
670.7428252935301
 21
2142.95058675437
 31
0.0
  0
LINE
  5
382
330
1F
100
AcDbEntity
  8
化粧台
  6
CONTINUOUS
 62
     6
100
AcDbLine
 10
671.1254698767302
 20
2142.62676549277
 30
0.0
 11
670.9515405207301
 21
2142.80339198797
 31
0.0
  0
LINE
  5
383
330
1F
100
AcDbEntity
  8
化粧台
  6
CONTINUOUS
 62
     6
100
AcDbLine
 10
671.2004318839299
 20
2142.52779814397
 30
0.0
 11
671.1254698767302
 21
2142.62676549277
 31
0.0
  0
LINE
  5
384
330
1F
100
AcDbEntity
  8
化粧台
  6
CONTINUOUS
 62
     6
100
AcDbLine
 10
671.2593475183301
 20
2142.41805026557
 30
0.0
 11
671.2004318839299
 21
2142.52779814397
 31
0.0
  0
LINE
  5
385
330
1F
100
AcDbEntity
  8
化粧台
  6
CONTINUOUS
 62
     6
100
AcDbLine
 10
671.3449616199302
 20
2142.18260446237
 30
0.0
 11
671.2593475183301
 21
2142.41805026557
 31
0.0
  0
LINE
  5
386
330
1F
100
AcDbEntity
  8
化粧台
  6
CONTINUOUS
 62
     6
100
AcDbLine
 10
671.3662778495302
 20
2142.05423749357
 30
0.0
 11
671.3449616199302
 21
2142.18260446237
 31
0.0
  0
LINE
  5
387
330
1F
100
AcDbEntity
  8
化粧台
  6
CONTINUOUS
 62
     6
100
AcDbLine
 10
671.3716641007298
 20
2141.92039196077
 30
0.0
 11
671.3662778495302
 21
2142.05423749357
 31
0.0
  0
LINE
  5
388
330
1F
100
AcDbEntity
  8
化粧台
  6
CONTINUOUS
 62
     6
100
AcDbLine
 10
671.34226849433
 20
2141.66081639437
 30
0.0
 11
671.3716641007298
 21
2141.92039196077
 31
0.0
  0
LINE
  5
389
330
1F
100
AcDbEntity
  8
化粧台
  6
CONTINUOUS
 62
     6
100
AcDbLine
 10
671.2566503791302
 20
2141.42533848237
 30
0.0
 11
671.34226849433
 21
2141.66081639437
 31
0.0
  0
LINE
  5
38A
330
1F
100
AcDbEntity
  8
化粧台
  6
CONTINUOUS
 62
     6
100
AcDbLine
 10
671.12277675113
 20
2141.21938059837
 30
0.0
 11
671.2566503791302
 21
2141.42533848237
 31
0.0
  0
LINE
  5
38B
330
1F
100
AcDbEntity
  8
化粧台
  6
CONTINUOUS
 62
     6
100
AcDbLine
 10
670.94884739513
 20
2141.04278621197
 30
0.0
 11
671.12277675113
 21
2141.21938059837
 31
0.0
  0
LINE
  5
38C
330
1F
100
AcDbEntity
  8
化粧台
  6
CONTINUOUS
 62
     6
100
AcDbLine
 10
670.7401321679301
 20
2140.90091749277
 30
0.0
 11
670.94884739513
 21
2141.04278621197
 31
0.0
  0
LINE
  5
38D
330
1F
100
AcDbEntity
  8
化粧台
  6
CONTINUOUS
 62
     6
100
AcDbLine
 10
670.50471445993
 20
2140.79392695757
 30
0.0
 11
670.7401321679301
 21
2140.90091749277
 31
0.0
  0
LINE
  5
38E
330
1F
100
AcDbEntity
  8
化粧台
  6
CONTINUOUS
 62
     6
100
AcDbLine
 10
671.7702346487301
 20
2143.06296755437
 30
0.0
 11
671.7702346487301
 21
2140.77246222477
 31
0.0
  0
LINE
  5
38F
330
1F
100
AcDbEntity
  8
化粧台
  6
CONTINUOUS
 62
     6
100
AcDbLine
 10
671.7702346487301
 20
2140.77246222477
 30
0.0
 11
672.3588973199301
 21
2140.77246222477
 31
0.0
  0
LINE
  5
390
330
1F
100
AcDbEntity
  8
化粧台
  6
CONTINUOUS
 62
     6
100
AcDbLine
 10
672.3588973199301
 20
2140.77246222477
 30
0.0
 11
672.3588973199301
 21
2141.75455000877
 31
0.0
  0
LINE
  5
391
330
1F
100
AcDbEntity
  8
化粧台
  6
CONTINUOUS
 62
     6
100
AcDbLine
 10
672.3588973199301
 20
2141.75455000877
 30
0.0
 11
673.43737973513
 21
2141.75455000877
 31
0.0
  0
LINE
  5
392
330
1F
100
AcDbEntity
  8
化粧台
  6
CONTINUOUS
 62
     6
100
AcDbLine
 10
673.43737973513
 20
2141.75455000877
 30
0.0
 11
673.43737973513
 21
2140.77246222477
 31
0.0
  0
LINE
  5
393
330
1F
100
AcDbEntity
  8
化粧台
  6
CONTINUOUS
 62
     6
100
AcDbLine
 10
673.43737973513
 20
2140.77246222477
 30
0.0
 11
674.0260464199301
 21
2140.77246222477
 31
0.0
  0
LINE
  5
394
330
1F
100
AcDbEntity
  8
化粧台
  6
CONTINUOUS
 62
     6
100
AcDbLine
 10
674.0260464199301
 20
2140.77246222477
 30
0.0
 11
674.0260464199301
 21
2143.06296755437
 31
0.0
  0
LINE
  5
395
330
1F
100
AcDbEntity
  8
化粧台
  6
CONTINUOUS
 62
     6
100
AcDbLine
 10
674.0260464199301
 20
2143.06296755437
 30
0.0
 11
673.43737973513
 21
2143.06296755437
 31
0.0
  0
LINE
  5
396
330
1F
100
AcDbEntity
  8
化粧台
  6
CONTINUOUS
 62
     6
100
AcDbLine
 10
673.43737973513
 20
2143.06296755437
 30
0.0
 11
673.43737973513
 21
2142.23882295757
 31
0.0
  0
LINE
  5
397
330
1F
100
AcDbEntity
  8
化粧台
  6
CONTINUOUS
 62
     6
100
AcDbLine
 10
673.43737973513
 20
2142.23882295757
 30
0.0
 11
672.3588973199301
 21
2142.23882295757
 31
0.0
  0
LINE
  5
398
330
1F
100
AcDbEntity
  8
化粧台
  6
CONTINUOUS
 62
     6
100
AcDbLine
 10
672.3588973199301
 20
2142.23882295757
 30
0.0
 11
672.3588973199301
 21
2143.06296755437
 31
0.0
  0
LINE
  5
399
330
1F
100
AcDbEntity
  8
化粧台
  6
CONTINUOUS
 62
     6
100
AcDbLine
 10
672.3588973199301
 20
2143.06296755437
 30
0.0
 11
671.7702346487301
 21
2143.06296755437
 31
0.0
  0
LINE
  5
39A
330
1F
100
AcDbEntity
  8
化粧台
  6
CONTINUOUS
 62
     6
100
AcDbLine
 10
674.6627237879298
 20
2143.06296755437
 30
0.0
 11
674.6627237879298
 21
2140.77246222477
 31
0.0
  0
LINE
  5
39B
330
1F
100
AcDbEntity
  8
化粧台
  6
CONTINUOUS
 62
     6
100
AcDbLine
 10
674.6627237879298
 20
2140.77246222477
 30
0.0
 11
676.38070513193
 21
2140.77246222477
 31
0.0
  0
LINE
  5
39C
330
1F
100
AcDbEntity
  8
化粧台
  6
CONTINUOUS
 62
     6
100
AcDbLine
 10
676.38070513193
 20
2140.77246222477
 30
0.0
 11
676.38070513193
 21
2141.25676728237
 31
0.0
  0
LINE
  5
39D
330
1F
100
AcDbEntity
  8
化粧台
  6
CONTINUOUS
 62
     6
100
AcDbLine
 10
676.38070513193
 20
2141.25676728237
 30
0.0
 11
675.2542040063302
 21
2141.25676728237
 31
0.0
  0
LINE
  5
39E
330
1F
100
AcDbEntity
  8
化粧台
  6
CONTINUOUS
 62
     6
100
AcDbLine
 10
675.2542040063302
 20
2141.25676728237
 30
0.0
 11
675.2542040063302
 21
2141.75455000877
 31
0.0
  0
LINE
  5
39F
330
1F
100
AcDbEntity
  8
化粧台
  6
CONTINUOUS
 62
     6
100
AcDbLine
 10
675.2542040063302
 20
2141.75455000877
 30
0.0
 11
676.0997210231301
 21
2141.75455000877
 31
0.0
  0
LINE
  5
3A0
330
1F
100
AcDbEntity
  8
化粧台
  6
CONTINUOUS
 62
     6
100
AcDbLine
 10
676.0997210231301
 20
2141.75455000877
 30
0.0
 11
676.0997210231301
 21
2142.23882295757
 31
0.0
  0
LINE
  5
3A1
330
1F
100
AcDbEntity
  8
化粧台
  6
CONTINUOUS
 62
     6
100
AcDbLine
 10
676.0997210231301
 20
2142.23882295757
 30
0.0
 11
675.2542040063302
 21
2142.23882295757
 31
0.0
  0
LINE
  5
3A2
330
1F
100
AcDbEntity
  8
化粧台
  6
CONTINUOUS
 62
     6
100
AcDbLine
 10
675.2542040063302
 20
2142.23882295757
 30
0.0
 11
675.2542040063302
 21
2142.61614149357
 31
0.0
  0
LINE
  5
3A3
330
1F
100
AcDbEntity
  8
化粧台
  6
CONTINUOUS
 62
     6
100
AcDbLine
 10
675.2542040063302
 20
2142.61614149357
 30
0.0
 11
676.2496450375302
 21
2142.61614149357
 31
0.0
  0
LINE
  5
3A4
330
1F
100
AcDbEntity
  8
化粧台
  6
CONTINUOUS
 62
     6
100
AcDbLine
 10
676.2496450375302
 20
2142.61614149357
 30
0.0
 11
676.2496450375302
 21
2143.06296755437
 31
0.0
  0
LINE
  5
3A5
330
1F
100
AcDbEntity
  8
化粧台
  6
CONTINUOUS
 62
     6
100
AcDbLine
 10
676.2496450375302
 20
2143.06296755437
 30
0.0
 11
674.6627237879298
 21
2143.06296755437
 31
0.0
  0
LINE
  5
3A6
330
1F
100
AcDbEntity
  8
化粧台
  6
CONTINUOUS
 62
     6
100
AcDbLine
 10
666.9030302279302
 20
2141.92039196077
 30
0.0
 11
667.7539375095299
 21
2140.77246222477
 31
0.0
  0
LINE
  5
3A7
330
1F
100
AcDbEntity
  8
化粧台
  6
CONTINUOUS
 62
     6
100
AcDbLine
 10
667.7539375095299
 20
2140.77246222477
 30
0.0
 11
668.5325759095301
 21
2140.77246222477
 31
0.0
  0
LINE
  5
3A8
330
1F
100
AcDbEntity
  8
化粧台
  6
CONTINUOUS
 62
     6
100
AcDbLine
 10
668.5325759095301
 20
2140.77246222477
 30
0.0
 11
667.7645936175302
 21
2141.69566246957
 31
0.0
  0
LINE
  5
3A9
330
1F
100
AcDbEntity
  8
化粧台
  6
CONTINUOUS
 62
     6
100
AcDbLine
 10
667.7645936175302
 20
2141.69566246957
 30
0.0
 11
667.94660636393
 21
2141.80002008317
 31
0.0
  0
LINE
  5
3AA
330
1F
100
AcDbEntity
  8
化粧台
  6
CONTINUOUS
 62
     6
100
AcDbLine
 10
667.94660636393
 20
2141.80002008317
 30
0.0
 11
668.0776664583302
 21
2141.93649853757
 31
0.0
  0
LINE
  5
3AB
330
1F
100
AcDbEntity
  8
化粧台
  6
CONTINUOUS
 62
     6
100
AcDbLine
 10
668.0776664583302
 20
2141.93649853757
 30
0.0
 11
668.1607118559302
 21
2142.11036768957
 31
0.0
  0
LINE
  5
3AC
330
1F
100
AcDbEntity
  8
化粧台
  6
CONTINUOUS
 62
     6
100
AcDbLine
 10
668.1607118559302
 20
2142.11036768957
 30
0.0
 11
668.1954977271303
 21
2142.31369265197
 31
0.0
  0
LINE
  5
3AD
330
1F
100
AcDbEntity
  8
化粧台
  6
CONTINUOUS
 62
     6
100
AcDbLine
 10
668.1954977271303
 20
2142.31369265197
 30
0.0
 11
668.1874143367302
 21
2142.46630979197
 31
0.0
  0
LINE
  5
3AE
330
1F
100
AcDbEntity
  8
化粧台
  6
CONTINUOUS
 62
     6
100
AcDbLine
 10
668.1874143367302
 20
2142.46630979197
 30
0.0
 11
668.1473626223301
 21
2142.60815041597
 31
0.0
  0
LINE
  5
3AF
330
1F
100
AcDbEntity
  8
化粧台
  6
CONTINUOUS
 62
     6
100
AcDbLine
 10
668.1473626223301
 20
2142.60815041597
 30
0.0
 11
668.0776664583302
 21
2142.73651337117
 31
0.0
  0
LINE
  5
3B0
330
1F
100
AcDbEntity
  8
化粧台
  6
CONTINUOUS
 62
     6
100
AcDbLine
 10
668.0776664583302
 20
2142.73651337117
 30
0.0
 11
667.9840893743301
 21
2142.84886206237
 31
0.0
  0
LINE
  5
3B1
330
1F
100
AcDbEntity
  8
化粧台
  6
CONTINUOUS
 62
     6
100
AcDbLine
 10
667.9840893743301
 20
2142.84886206237
 30
0.0
 11
667.87176877833
 21
2142.94259567677
 31
0.0
  0
LINE
  5
3B2
330
1F
100
AcDbEntity
  8
化粧台
  6
CONTINUOUS
 62
     6
100
AcDbLine
 10
667.87176877833
 20
2142.94259567677
 30
0.0
 11
667.7432814015301
 21
2143.01210721517
 31
0.0
  0
LINE
  5
3B3
330
1F
100
AcDbEntity
  8
化粧台
  6
CONTINUOUS
 62
     6
100
AcDbLine
 10
667.7432814015301
 20
2143.01210721517
 30
0.0
 11
667.60413791673
 21
2143.05494436797
 31
0.0
  0
LINE
  5
3B4
330
1F
100
AcDbEntity
  8
化粧台
  6
CONTINUOUS
 62
     6
100
AcDbLine
 10
667.60413791673
 20
2143.05494436797
 30
0.0
 11
667.4516451983302
 21
2143.06296755437
 31
0.0
  0
LINE
  5
3B5
330
1F
100
AcDbEntity
  8
化粧台
  6
CONTINUOUS
 62
     6
100
AcDbLine
 10
667.4516451983302
 20
2143.06296755437
 30
0.0
 11
666.2314465807301
 21
2143.06296755437
 31
0.0
  0
LINE
  5
3B6
330
1F
100
AcDbEntity
  8
化粧台
  6
CONTINUOUS
 62
     6
100
AcDbLine
 10
666.2314465807301
 20
2143.06296755437
 30
0.0
 11
666.2314465807301
 21
2140.77246222477
 31
0.0
  0
LINE
  5
3B7
330
1F
100
AcDbEntity
  8
化粧台
  6
CONTINUOUS
 62
     6
100
AcDbLine
 10
666.2314465807301
 20
2140.77246222477
 30
0.0
 11
666.82549951673
 21
2140.77246222477
 31
0.0
  0
LINE
  5
3B8
330
1F
100
AcDbEntity
  8
化粧台
  6
CONTINUOUS
 62
     6
100
AcDbLine
 10
666.82549951673
 20
2140.77246222477
 30
0.0
 11
666.82549951673
 21
2142.61614149357
 31
0.0
  0
LINE
  5
3B9
330
1F
100
AcDbEntity
  8
化粧台
  6
CONTINUOUS
 62
     6
100
AcDbLine
 10
666.82549951673
 20
2142.61614149357
 30
0.0
 11
667.24292997113
 21
2142.61614149357
 31
0.0
  0
LINE
  5
3BA
330
1F
100
AcDbEntity
  8
化粧台
  6
CONTINUOUS
 62
     6
100
AcDbLine
 10
667.24292997113
 20
2142.61614149357
 30
0.0
 11
667.37668319113
 21
2142.58129541837
 31
0.0
  0
LINE
  5
3BB
330
1F
100
AcDbEntity
  8
化粧台
  6
CONTINUOUS
 62
     6
100
AcDbLine
 10
667.37668319113
 20
2142.58129541837
 30
0.0
 11
667.4810408047301
 21
2142.50379280237
 31
0.0
  0
LINE
  5
3BC
330
1F
100
AcDbEntity
  8
化粧台
  6
CONTINUOUS
 62
     6
100
AcDbLine
 10
667.4810408047301
 20
2142.50379280237
 30
0.0
 11
667.5506125471302
 21
2142.39404492397
 31
0.0
  0
LINE
  5
3BD
330
1F
100
AcDbEntity
  8
化粧台
  6
CONTINUOUS
 62
     6
100
AcDbLine
 10
667.5506125471302
 20
2142.39404492397
 30
0.0
 11
667.5720491847301
 21
2142.25759456477
 31
0.0
  0
LINE
  5
3BE
330
1F
100
AcDbEntity
  8
化粧台
  6
CONTINUOUS
 62
     6
100
AcDbLine
 10
667.5720491847301
 20
2142.25759456477
 30
0.0
 11
667.5506125471302
 21
2142.13446534397
 31
0.0
  0
LINE
  5
3BF
330
1F
100
AcDbEntity
  8
化粧台
  6
CONTINUOUS
 62
     6
100
AcDbLine
 10
667.5506125471302
 20
2142.13446534397
 30
0.0
 11
667.4864310695302
 21
2142.03011174397
 31
0.0
  0
LINE
  5
3C0
330
1F
100
AcDbEntity
  8
化粧台
  6
CONTINUOUS
 62
     6
100
AcDbLine
 10
667.4864310695302
 20
2142.03011174397
 30
0.0
 11
667.3900324247302
 21
2141.95787497117
 31
0.0
  0
LINE
  5
3C1
330
1F
100
AcDbEntity
  8
化粧台
  6
CONTINUOUS
 62
     6
100
AcDbLine
 10
667.3900324247302
 20
2141.95787497117
 30
0.0
 11
667.2697528599301
 21
2141.92039196077
 31
0.0
  0
LINE
  5
3C2
330
1F
100
AcDbEntity
  8
化粧台
  6
CONTINUOUS
 62
     6
100
AcDbLine
 10
667.2697528599301
 20
2141.92039196077
 30
0.0
 11
666.9030302279302
 21
2141.92039196077
 31
0.0
  0
LINE
  5
3C3
330
1F
100
AcDbEntity
  8
化粧台
  6
CONTINUOUS
 62
     6
100
AcDbLine
 10
665.0247176047301
 20
2141.19788375677
 30
0.0
 11
665.1182987023301
 21
2141.25413436077
 31
0.0
  0
LINE
  5
3C4
330
1F
100
AcDbEntity
  8
化粧台
  6
CONTINUOUS
 62
     6
100
AcDbLine
 10
665.1182987023301
 20
2141.25413436077
 30
0.0
 11
665.1182987023301
 21
2141.92039196077
 31
0.0
  0
LINE
  5
3C5
330
1F
100
AcDbEntity
  8
化粧台
  6
CONTINUOUS
 62
     6
100
AcDbLine
 10
665.1182987023301
 20
2141.92039196077
 30
0.0
 11
665.7177419031302
 21
2141.92039196077
 31
0.0
  0
LINE
  5
3C6
330
1F
100
AcDbEntity
  8
化粧台
  6
CONTINUOUS
 62
     6
100
AcDbLine
 10
665.7177419031302
 20
2141.92039196077
 30
0.0
 11
665.7177419031302
 21
2141.02940486957
 31
0.0
  0
LINE
  5
3C7
330
1F
100
AcDbEntity
  8
化粧台
  6
CONTINUOUS
 62
     6
100
AcDbLine
 10
665.7177419031302
 20
2141.02940486957
 30
0.0
 11
665.4607671495299
 21
2140.88217799437
 31
0.0
  0
LINE
  5
3C8
330
1F
100
AcDbEntity
  8
化粧台
  6
CONTINUOUS
 62
     6
100
AcDbLine
 10
665.4607671495299
 20
2140.88217799437
 30
0.0
 11
665.1959538351301
 21
2140.79655987917
 31
0.0
  0
LINE
  5
3C9
330
1F
100
AcDbEntity
  8
化粧台
  6
CONTINUOUS
 62
     6
100
AcDbLine
 10
665.1959538351301
 20
2140.79655987917
 30
0.0
 11
664.9391035031301
 21
2140.75371871277
 31
0.0
  0
LINE
  5
3CA
330
1F
100
AcDbEntity
  8
化粧台
  6
CONTINUOUS
 62
     6
100
AcDbLine
 10
664.9391035031301
 20
2140.75371871277
 30
0.0
 11
664.7035613735302
 21
2140.73507152717
 31
0.0
  0
LINE
  5
3CB
330
1F
100
AcDbEntity
  8
化粧台
  6
CONTINUOUS
 62
     6
100
AcDbLine
 10
664.7035613735302
 20
2140.73507152717
 30
0.0
 11
664.41449788793
 21
2140.74306260477
 31
0.0
  0
LINE
  5
3CC
330
1F
100
AcDbEntity
  8
化粧台
  6
CONTINUOUS
 62
     6
100
AcDbLine
 10
664.41449788793
 20
2140.74306260477
 30
0.0
 11
664.15237769913
 21
2140.79919280077
 31
0.0
  0
LINE
  5
3CD
330
1F
100
AcDbEntity
  8
化粧台
  6
CONTINUOUS
 62
     6
100
AcDbLine
 10
664.15237769913
 20
2140.79919280077
 30
0.0
 11
663.91953270873
 21
2140.90091749277
 31
0.0
  0
LINE
  5
3CE
330
1F
100
AcDbEntity
  8
化粧台
  6
CONTINUOUS
 62
     6
100
AcDbLine
 10
663.91953270873
 20
2140.90091749277
 30
0.0
 11
663.71890488553
 21
2141.04278621197
 31
0.0
  0
LINE
  5
3CF
330
1F
100
AcDbEntity
  8
化粧台
  6
CONTINUOUS
 62
     6
100
AcDbLine
 10
663.71890488553
 20
2141.04278621197
 30
0.0
 11
663.55832476313
 21
2141.22201351997
 31
0.0
  0
LINE
  5
3D0
330
1F
100
AcDbEntity
  8
化粧台
  6
CONTINUOUS
 62
     6
100
AcDbLine
 10
663.55832476313
 20
2141.22201351997
 30
0.0
 11
663.4914461463302
 21
2141.32373821197
 31
0.0
  0
LINE
  5
3D1
330
1F
100
AcDbEntity
  8
化粧台
  6
CONTINUOUS
 62
     6
100
AcDbLine
 10
663.4914461463302
 20
2141.32373821197
 30
0.0
 11
663.4379207767302
 21
2141.43072874717
 31
0.0
  0
LINE
  5
3D2
330
1F
100
AcDbEntity
  8
化粧台
  6
CONTINUOUS
 62
     6
100
AcDbLine
 10
663.4379207767302
 20
2141.43072874717
 30
0.0
 11
663.39505151513
 21
2141.54583478157
 31
0.0
  0
LINE
  5
3D3
330
1F
100
AcDbEntity
  8
化粧台
  6
CONTINUOUS
 62
     6
100
AcDbLine
 10
663.39505151513
 20
2141.54583478157
 30
0.0
 11
663.3629587695302
 21
2141.66354162877
 31
0.0
  0
LINE
  5
3D4
330
1F
100
AcDbEntity
  8
化粧台
  6
CONTINUOUS
 62
     6
100
AcDbLine
 10
663.3629587695302
 20
2141.66354162877
 30
0.0
 11
663.3362603023302
 21
2141.92039196077
 31
0.0
  0
LINE
  5
3D5
330
1F
100
AcDbEntity
  8
化粧台
  6
CONTINUOUS
 62
     6
100
AcDbLine
 10
663.3362603023302
 20
2141.92039196077
 30
0.0
 11
663.3442192711302
 21
2142.05148416397
 31
0.0
  0
LINE
  5
3D6
330
1F
100
AcDbEntity
  8
化粧台
  6
CONTINUOUS
 62
     6
100
AcDbLine
 10
663.3442192711302
 20
2142.05148416397
 30
0.0
 11
663.36565590873
 21
2142.17461338477
 31
0.0
  0
LINE
  5
3D7
330
1F
100
AcDbEntity
  8
化粧台
  6
CONTINUOUS
 62
     6
100
AcDbLine
 10
663.36565590873
 20
2142.17461338477
 30
0.0
 11
663.4004417799301
 21
2142.29232023197
 31
0.0
  0
LINE
  5
3D8
330
1F
100
AcDbEntity
  8
化粧台
  6
CONTINUOUS
 62
     6
100
AcDbLine
 10
663.4004417799301
 20
2142.29232023197
 30
0.0
 11
663.4485768847301
 21
2142.40470103197
 31
0.0
  0
LINE
  5
3D9
330
1F
100
AcDbEntity
  8
化粧台
  6
CONTINUOUS
 62
     6
100
AcDbLine
 10
663.4485768847301
 20
2142.40470103197
 30
0.0
 11
663.50749251913
 21
2142.51178387997
 31
0.0
  0
LINE
  5
3DA
330
1F
100
AcDbEntity
  8
化粧台
  6
CONTINUOUS
 62
     6
100
AcDbLine
 10
663.50749251913
 20
2142.51178387997
 30
0.0
 11
663.5770642615299
 21
2142.60815041597
 31
0.0
  0
LINE
  5
3DB
330
1F
100
AcDbEntity
  8
化粧台
  6
CONTINUOUS
 62
     6
100
AcDbLine
 10
663.5770642615299
 20
2142.60815041597
 30
0.0
 11
663.6572921119299
 21
2142.69903437437
 31
0.0
  0
LINE
  5
3DC
330
1F
100
AcDbEntity
  8
化粧台
  6
CONTINUOUS
 62
     6
100
AcDbLine
 10
663.6572921119299
 20
2142.69903437437
 30
0.0
 11
663.7456033527301
 21
2142.78201555437
 31
0.0
  0
LINE
  5
3DD
330
1F
100
AcDbEntity
  8
化粧台
  6
CONTINUOUS
 62
     6
100
AcDbLine
 10
663.7456033527301
 20
2142.78201555437
 30
0.0
 11
663.9490527367301
 21
2142.92385617837
 31
0.0
  0
LINE
  5
3DE
330
1F
100
AcDbEntity
  8
化粧台
  6
CONTINUOUS
 62
     6
100
AcDbLine
 10
663.9490527367301
 20
2142.92385617837
 30
0.0
 11
664.1765074623302
 21
2143.02545644877
 31
0.0
  0
LINE
  5
3DF
330
1F
100
AcDbEntity
  8
化粧台
  6
CONTINUOUS
 62
     6
100
AcDbLine
 10
664.1765074623302
 20
2143.02545644877
 30
0.0
 11
664.29960457433
 21
2143.06296755437
 31
0.0
  0
LINE
  5
3E0
330
1F
100
AcDbEntity
  8
化粧台
  6
CONTINUOUS
 62
     6
100
AcDbLine
 10
664.29960457433
 20
2143.06296755437
 30
0.0
 11
664.4252744039302
 21
2143.08969813037
 31
0.0
  0
LINE
  5
3E1
330
1F
100
AcDbEntity
  8
化粧台
  6
CONTINUOUS
 62
     6
100
AcDbLine
 10
664.4252744039302
 20
2143.08969813037
 30
0.0
 11
664.55633449833
 21
2143.10307947277
 31
0.0
  0
LINE
  5
3E2
330
1F
100
AcDbEntity
  8
化粧台
  6
CONTINUOUS
 62
     6
100
AcDbLine
 10
664.55633449833
 20
2143.10307947277
 30
0.0
 11
664.6875190143301
 21
2143.10580872077
 31
0.0
  0
LINE
  5
3E3
330
1F
100
AcDbEntity
  8
化粧台
  6
CONTINUOUS
 62
     6
100
AcDbLine
 10
664.6875190143301
 20
2143.10580872077
 30
0.0
 11
664.9550254543301
 21
2143.09508839517
 31
0.0
  0
LINE
  5
3E4
330
1F
100
AcDbEntity
  8
化粧台
  6
CONTINUOUS
 62
     6
100
AcDbLine
 10
664.9550254543301
 20
2143.09508839517
 30
0.0
 11
665.1905635703301
 21
2143.06296755437
 31
0.0
  0
LINE
  5
3E5
330
1F
100
AcDbEntity
  8
化粧台
  6
CONTINUOUS
 62
     6
100
AcDbLine
 10
665.1905635703301
 20
2143.06296755437
 30
0.0
 11
665.30288416633
 21
2143.03620486957
 31
0.0
  0
LINE
  5
3E6
330
1F
100
AcDbEntity
  8
化粧台
  6
CONTINUOUS
 62
     6
100
AcDbLine
 10
665.30288416633
 20
2143.03620486957
 30
0.0
 11
665.4153251703301
 21
2142.99608893757
 31
0.0
  0
LINE
  5
3E7
330
1F
100
AcDbEntity
  8
化粧台
  6
CONTINUOUS
 62
     6
100
AcDbLine
 10
665.4153251703301
 20
2142.99608893757
 30
0.0
 11
665.5303388919301
 21
2142.94259567677
 31
0.0
  0
LINE
  5
3E8
330
1F
100
AcDbEntity
  8
化粧台
  6
CONTINUOUS
 62
     6
100
AcDbLine
 10
665.5303388919301
 20
2142.94259567677
 30
0.0
 11
665.64804573913
 21
2142.87299182557
 31
0.0
  0
LINE
  5
3E9
330
1F
100
AcDbEntity
  8
化粧台
  6
CONTINUOUS
 62
     6
100
AcDbLine
 10
665.64804573913
 20
2142.87299182557
 30
0.0
 11
665.64804573913
 21
2142.43143160797
 31
0.0
  0
LINE
  5
3EA
330
1F
100
AcDbEntity
  8
化粧台
  6
CONTINUOUS
 62
     6
100
AcDbLine
 10
665.64804573913
 20
2142.43143160797
 30
0.0
 11
665.58117113593
 21
2142.47166794797
 31
0.0
  0
LINE
  5
3EB
330
1F
100
AcDbEntity
  8
化粧台
  6
CONTINUOUS
 62
     6
100
AcDbLine
 10
665.58117113593
 20
2142.47166794797
 30
0.0
 11
665.3992787975301
 21
2142.55991898477
 31
0.0
  0
LINE
  5
3EC
330
1F
100
AcDbEntity
  8
化粧台
  6
CONTINUOUS
 62
     6
100
AcDbLine
 10
665.3992787975301
 20
2142.55991898477
 30
0.0
 11
665.27618168553
 21
2142.60815041597
 31
0.0
  0
LINE
  5
3ED
330
1F
100
AcDbEntity
  8
化粧台
  6
CONTINUOUS
 62
     6
100
AcDbLine
 10
665.27618168553
 20
2142.60815041597
 30
0.0
 11
665.1316479359301
 21
2142.64553709997
 31
0.0
  0
LINE
  5
3EE
330
1F
100
AcDbEntity
  8
化粧台
  6
CONTINUOUS
 62
     6
100
AcDbLine
 10
665.1316479359301
 20
2142.64553709997
 30
0.0
 11
664.9764620919302
 21
2142.67227168957
 31
0.0
  0
LINE
  5
3EF
330
1F
100
AcDbEntity
  8
化粧台
  6
CONTINUOUS
 62
     6
100
AcDbLine
 10
664.9764620919302
 20
2142.67227168957
 30
0.0
 11
664.80791898713
 21
2142.68038317517
 31
0.0
  0
LINE
  5
3F0
330
1F
100
AcDbEntity
  8
化粧台
  6
CONTINUOUS
 62
     6
100
AcDbLine
 10
664.80791898713
 20
2142.68038317517
 30
0.0
 11
664.6473428783299
 21
2142.66427659837
 31
0.0
  0
LINE
  5
3F1
330
1F
100
AcDbEntity
  8
化粧台
  6
CONTINUOUS
 62
     6
100
AcDbLine
 10
664.6473428783299
 20
2142.66427659837
 30
0.0
 11
664.4948461463301
 21
2142.62153175837
 31
0.0
  0
LINE
  5
3F2
330
1F
100
AcDbEntity
  8
化粧台
  6
CONTINUOUS
 62
     6
100
AcDbLine
 10
664.4948461463301
 20
2142.62153175837
 30
0.0
 11
664.3557026615301
 21
2142.55453273357
 31
0.0
  0
LINE
  5
3F3
330
1F
100
AcDbEntity
  8
化粧台
  6
CONTINUOUS
 62
     6
100
AcDbLine
 10
664.3557026615301
 20
2142.55453273357
 30
0.0
 11
664.22991242393
 21
2142.46091952717
 31
0.0
  0
LINE
  5
3F4
330
1F
100
AcDbEntity
  8
化粧台
  6
CONTINUOUS
 62
     6
100
AcDbLine
 10
664.22991242393
 20
2142.46091952717
 30
0.0
 11
664.1282479359302
 21
2142.35120375757
 31
0.0
  0
LINE
  5
3F5
330
1F
100
AcDbEntity
  8
化粧台
  6
CONTINUOUS
 62
     6
100
AcDbLine
 10
664.1282479359302
 20
2142.35120375757
 30
0.0
 11
664.04802008553
 21
2142.22271638077
 31
0.0
  0
LINE
  5
3F6
330
1F
100
AcDbEntity
  8
化粧台
  6
CONTINUOUS
 62
     6
100
AcDbLine
 10
664.04802008553
 20
2142.22271638077
 30
0.0
 11
663.99706743353
 21
2142.07824684877
 31
0.0
  0
LINE
  5
3F7
330
1F
100
AcDbEntity
  8
化粧台
  6
CONTINUOUS
 62
     6
100
AcDbLine
 10
663.99706743353
 20
2142.07824684877
 30
0.0
 11
663.9757552175299
 21
2141.92039196077
 31
0.0
  0
LINE
  5
3F8
330
1F
100
AcDbEntity
  8
化粧台
  6
CONTINUOUS
 62
     6
100
AcDbLine
 10
663.9757552175299
 20
2141.92039196077
 30
0.0
 11
663.9865317335302
 21
2141.77053216397
 31
0.0
  0
LINE
  5
3F9
330
1F
100
AcDbEntity
  8
化粧台
  6
CONTINUOUS
 62
     6
100
AcDbLine
 10
663.9865317335302
 20
2141.77053216397
 30
0.0
 11
664.0158069319302
 21
2141.62606263197
 31
0.0
  0
LINE
  5
3FA
330
1F
100
AcDbEntity
  8
化粧台
  6
CONTINUOUS
 62
     6
100
AcDbLine
 10
664.0158069319302
 20
2141.62606263197
 30
0.0
 11
664.0667595839299
 21
2141.49233750717
 31
0.0
  0
LINE
  5
3FB
330
1F
100
AcDbEntity
  8
化粧台
  6
CONTINUOUS
 62
     6
100
AcDbLine
 10
664.0667595839299
 20
2141.49233750717
 30
0.0
 11
664.1389040439301
 21
2141.37184120797
 31
0.0
  0
LINE
  5
3FC
330
1F
100
AcDbEntity
  8
化粧台
  6
CONTINUOUS
 62
     6
100
AcDbLine
 10
664.1389040439301
 20
2141.37184120797
 30
0.0
 11
664.2379958143298
 21
2141.27550678077
 31
0.0
  0
LINE
  5
3FD
330
1F
100
AcDbEntity
  8
化粧台
  6
CONTINUOUS
 62
     6
100
AcDbLine
 10
664.2379958143298
 20
2141.27550678077
 30
0.0
 11
664.3557026615301
 21
2141.20063708637
 31
0.0
  0
LINE
  5
3FE
330
1F
100
AcDbEntity
  8
化粧台
  6
CONTINUOUS
 62
     6
100
AcDbLine
 10
664.3557026615301
 20
2141.20063708637
 30
0.0
 11
664.50011600313
 21
2141.15513490317
 31
0.0
  0
LINE
  5
3FF
330
1F
100
AcDbEntity
  8
化粧台
  6
CONTINUOUS
 62
     6
100
AcDbLine
 10
664.50011600313
 20
2141.15513490317
 30
0.0
 11
664.6687755023302
 21
2141.14175356077
 31
0.0
  0
LINE
  5
400
330
1F
100
AcDbEntity
  8
化粧台
  6
CONTINUOUS
 62
     6
100
AcDbLine
 10
664.6687755023302
 20
2141.14175356077
 30
0.0
 11
664.9470624719299
 21
2141.16588332397
 31
0.0
  0
LINE
  5
401
330
1F
100
AcDbEntity
  8
化粧台
  6
CONTINUOUS
 62
     6
100
AcDbLine
 10
664.9470624719299
 20
2141.16588332397
 30
0.0
 11
665.0247176047301
 21
2141.19788375677
 31
0.0
  0
LINE
  5
402
330
1F
100
AcDbEntity
  8
化粧台
  6
CONTINUOUS
 62
     7
100
AcDbLine
 10
511.37208399039
 20
2113.499999999999
 30
0.0
 11
647.9228725261308
 21
2113.499999999999
 31
0.0
  0
LINE
  5
403
330
1F
100
AcDbEntity
  8
化粧台
  6
CONTINUOUS
 62
     7
100
AcDbLine
 10
692.0765067307766
 20
2113.499999999999
 30
0.0
 11
828.6279160096103
 21
2113.499999999999
 31
0.0
  0
LINE
  5
404
330
1F
100
AcDbEntity
  8
化粧台
  6
CONTINUOUS
 62
     7
100
AcDbLine
 10
692.07603247811
 20
2095.011803241424
 30
0.0
 11
811.0799641782179
 21
2097.246279278317
 31
0.0
  0
LINE
  5
405
330
1F
100
AcDbEntity
  8
化粧台
  6
CONTINUOUS
 62
     7
100
AcDbLine
 10
570.3701043250841
 20
2092.726593197347
 30
0.0
 11
647.9233428622916
 21
2094.182770742233
 31
0.0
  0
ARC
  5
406
330
1F
100
AcDbEntity
  8
化粧台
  6
CONTINUOUS
 62
     6
100
AcDbCircle
 10
670.0001969127302
 20
2045.08956672637
 30
0.0
 40
22.074980612
100
AcDbArc
 50
179.9805380000002
 51
0.0194819999999693
  0
LINE
  5
407
330
1F
100
AcDbEntity
  8
化粧台
  6
CONTINUOUS
 62
     6
100
AcDbLine
 10
692.0747520831301
 20
2045.09707215837
 30
0.0
 11
692.0772003791303
 21
2140.54108621197
 31
0.0
  0
LINE
  5
408
330
1F
100
AcDbEntity
  8
化粧台
  6
CONTINUOUS
 62
     6
100
AcDbLine
 10
647.92221412793
 20
2140.54114641597
 30
0.0
 11
647.9245380023301
 21
2045.09704004957
 31
0.0
  0
ARC
  5
409
330
1F
100
AcDbEntity
  8
化粧台
  6
CONTINUOUS
 62
     6
100
AcDbCircle
 10
670.0348583623302
 20
2141.46290979197
 30
0.0
 40
22.5239940848
100
AcDbArc
 50
33.71585799999998
 51
44.99179000000002
  0
ARC
  5
40A
330
1F
100
AcDbEntity
  8
化粧台
  6
CONTINUOUS
 62
     6
100
AcDbCircle
 10
670.04968058713
 20
2141.44067846157
 30
0.0
 40
22.5240542888
100
AcDbArc
 50
22.50783199999998
 51
33.78375100000001
  0
ARC
  5
40B
330
1F
100
AcDbEntity
  8
化粧台
  6
CONTINUOUS
 62
     6
100
AcDbCircle
 10
670.04661821033
 20
2141.44628144717
 30
0.0
 40
22.5246924512
100
AcDbArc
 50
11.216225
 51
22.49175400000002
  0
ARC
  5
40C
330
1F
100
AcDbEntity
  8
化粧台
  6
CONTINUOUS
 62
     6
100
AcDbCircle
 10
670.05372228233
 20
2141.42059039357
 30
0.0
 40
22.52281810000001
100
AcDbArc
 50
0.0070579999999565
 51
11.28383000000001
  0
ARC
  5
40D
330
1F
100
AcDbEntity
  8
化粧台
  6
CONTINUOUS
 62
     6
100
AcDbCircle
 10
670.0335138063301
 20
2141.42800351277
 30
0.0
 40
22.5430707256
100
AcDbArc
 50
348.113417
 51
359.988214
  0
LINE
  5
40E
330
1F
100
AcDbEntity
  8
化粧台
  6
CONTINUOUS
 62
     6
100
AcDbLine
 10
692.0772003791303
 20
2140.54114641597
 30
0.0
 11
692.0772003791303
 21
2141.42344004957
 31
0.0
  0
ARC
  5
40F
330
1F
100
AcDbEntity
  8
化粧台
  6
CONTINUOUS
 62
     6
100
AcDbCircle
 10
669.99958283193
 20
2141.42289018637
 30
0.0
 40
22.0775252344
100
AcDbArc
 50
0.0014710000000094
 51
89.99887100000004
  0
ARC
  5
410
330
1F
100
AcDbEntity
  8
化粧台
  6
CONTINUOUS
 62
     6
100
AcDbCircle
 10
670.0170981823301
 20
2141.47332107037
 30
0.0
 40
22.5239338808
100
AcDbArc
 50
56.21584
 51
67.49181300000002
  0
ARC
  5
411
330
1F
100
AcDbEntity
  8
化粧台
  6
CONTINUOUS
 62
     6
100
AcDbCircle
 10
669.97680163833
 20
2141.47093297837
 30
0.0
 40
22.5238335408
100
AcDbArc
 50
101.215808
 51
112.491822
  0
ARC
  5
412
330
1F
100
AcDbEntity
  8
化粧台
  6
CONTINUOUS
 62
     6
100
AcDbCircle
 10
669.9603900279301
 20
2141.45841054637
 30
0.0
 40
22.5238977584
100
AcDbArc
 50
123.715817
 51
134.9918170000001
  0
ARC
  5
413
330
1F
100
AcDbEntity
  8
化粧台
  6
CONTINUOUS
 62
     6
100
AcDbCircle
 10
669.9998276615302
 20
2141.42337984557
 30
0.0
 40
22.0770315616
100
AcDbArc
 50
89.99978600000004
 51
179.9998340000001
  0
ARC
  5
414
330
1F
100
AcDbEntity
  8
化粧台
  6
CONTINUOUS
 62
     6
100
AcDbCircle
 10
669.97006681753
 20
2141.42830854637
 30
0.0
 40
22.5466267752
100
AcDbArc
 50
180.0123259999999
 51
191.885339
  0
ARC
  5
415
330
1F
100
AcDbEntity
  8
化粧台
  6
CONTINUOUS
 62
     6
100
AcDbCircle
 10
669.9556138439302
 20
2141.41951876237
 30
0.0
 40
22.5322219648
100
AcDbArc
 50
168.718178
 51
179.989978
  0
ARC
  5
416
330
1F
100
AcDbEntity
  8
化粧台
  6
CONTINUOUS
 62
     6
100
AcDbCircle
 10
669.9530411263299
 20
2141.44628144717
 30
0.0
 40
22.5244877576
100
AcDbArc
 50
157.508
 51
168.783686
  0
ARC
  5
417
330
1F
100
AcDbEntity
  8
化粧台
  6
CONTINUOUS
 62
     6
100
AcDbCircle
 10
669.9499787495299
 20
2141.44067846157
 30
0.0
 40
22.5238134728
100
AcDbArc
 50
146.215826
 51
157.49184
  0
ARC
  5
418
330
1F
100
AcDbEntity
  8
化粧台
  6
CONTINUOUS
 62
     6
100
AcDbCircle
 10
669.99750378713
 20
2141.27354814397
 30
0.0
 40
22.0751973464
100
AcDbArc
 50
179.610916
 51
179.696792
  0
LINE
  5
419
330
1F
100
AcDbEntity
  8
化粧台
  6
CONTINUOUS
 62
     6
100
AcDbLine
 10
647.9228241951303
 20
2141.42344004957
 30
0.0
 11
647.9228241951303
 21
2140.54114641597
 31
0.0
  0
ARC
  5
41A
330
1F
100
AcDbEntity
  8
化粧台
  6
CONTINUOUS
 62
     6
100
AcDbCircle
 10
669.9652866199301
 20
2141.46257264957
 30
0.0
 40
22.524363336
100
AcDbArc
 50
135.007977
 51
146.283718
  0
ARC
  5
41B
330
1F
100
AcDbEntity
  8
化粧台
  6
CONTINUOUS
 62
     6
100
AcDbCircle
 10
669.98292639193
 20
2141.47283141117
 30
0.0
 40
22.5244074856
100
AcDbArc
 50
112.507982
 51
123.783723
  0
ARC
  5
41C
330
1F
100
AcDbEntity
  8
化粧台
  6
CONTINUOUS
 62
     6
100
AcDbCircle
 10
670.0033796975301
 20
2141.47267889437
 30
0.0
 40
22.5273213592
100
AcDbArc
 50
90.00865600000003
 51
101.282921
  0
ARC
  5
41D
330
1F
100
AcDbEntity
  8
化粧台
  6
CONTINUOUS
 62
     6
100
AcDbCircle
 10
669.9960307959302
 20
2141.46753345917
 30
0.0
 40
22.5324788352
100
AcDbArc
 50
78.71822599999996
 51
89.98989599999994
  0
ARC
  5
41E
330
1F
100
AcDbEntity
  8
化粧台
  6
CONTINUOUS
 62
     6
100
AcDbCircle
 10
670.03914890073
 20
2141.45819381197
 30
0.0
 40
22.52429911839999
100
AcDbArc
 50
45.00795100000003
 51
56.283732
  0
ARC
  5
41F
330
1F
100
AcDbEntity
  8
化粧台
  6
CONTINUOUS
 62
     6
100
AcDbCircle
 10
670.0228576983302
 20
2141.47050352317
 30
0.0
 40
22.5243352408
100
AcDbArc
 50
67.50797400000003
 51
78.78374199999998
  0
DIMENSION
  5
420
330
1F
100
AcDbEntity
  8
化粧台
  6
CONTINUOUS
 62
     3
100
AcDbDimension
  2
*D17
 10
996.9999999999999
 20
1262.674194
 30
0.0
 11
973.5000000596045
 21
912.6741844999999
 31
0.0
 70
   160
  3
ISO-25
100
AcDbAlignedDimension
 13
844.1251145000001
 23
562.6741750000001
 33
0.0
 14
844.9500045
 24
1262.674194
 34
0.0
 50
90.0
100
AcDbRotatedDimension
1001
ACAD
1000
DSTYLE
1002
{
1070
   270
1070
     2
1070
     6
1000
EX_NORM
1070
     7
1000
EX_NORM
1070
    41
1040
30.0
1070
    42
1040
6.99999988079071
1070
    44
1040
9.999999999999886
1070
    73
1070
     0
1070
    74
1070
     0
1070
    75
1070
     0
1070
    76
1070
     0
1070
    77
1070
     1
1070
    78
1070
     0
1070
   140
1040
40.0
1070
   147
1040
0.0
1070
   173
1070
     1
1070
   176
1070
     3
1070
   177
1070
     3
1070
   178
1070
     2
1070
   271
1070
     0
1070
   277
1070
     2
1070
   279
1070
     2
1070
   280
1070
     0
1070
   287
1070
     5
1070
   340
1005
260
1002
}
  0
DIMENSION
  5
42D
330
1F
100
AcDbEntity
  8
化粧台
  6
CONTINUOUS
 62
     3
100
AcDbDimension
  2
*D18
 10
996.9999999999991
 20
1362.674193999999
 30
0.0
 11
973.500000059604
 21
1312.674193999999
 31
0.0
 70
   160
  3
ISO-25
100
AcDbAlignedDimension
 13
844.9500045
 23
1262.674194
 33
0.0
 14
840.0
 24
1362.674193999999
 34
0.0
 50
90.0
100
AcDbRotatedDimension
1001
ACAD
1000
DSTYLE
1002
{
1070
   270
1070
     2
1070
     6
1000
EX_NORM
1070
     7
1000
EX_NORM
1070
    41
1040
30.0
1070
    42
1040
6.99999988079071
1070
    44
1040
9.999999999998977
1070
    73
1070
     0
1070
    74
1070
     0
1070
    75
1070
     0
1070
    76
1070
     0
1070
    77
1070
     1
1070
    78
1070
     0
1070
   140
1040
40.0
1070
   147
1040
0.0
1070
   173
1070
     1
1070
   176
1070
     3
1070
   177
1070
     3
1070
   178
1070
     2
1070
   271
1070
     0
1070
   277
1070
     2
1070
   279
1070
     2
1070
   280
1070
     0
1070
   287
1070
     5
1070
   340
1005
260
1002
}
  0
CIRCLE
  5
43A
330
1F
100
AcDbEntity
  8
化粧台
  6
CONTINUOUS
 62
     6
100
AcDbCircle
 10
570.0000000000182
 20
2054.0000000004
 30
0.0
 40
17.0
  0
CIRCLE
  5
43B
330
1F
100
AcDbEntity
  8
化粧台
  6
CONTINUOUS
 62
     2
100
AcDbCircle
 10
570.0000000000182
 20
2054.0000000004
 30
0.0
 40
27.85
  0
CIRCLE
  5
43C
330
1F
100
AcDbEntity
  8
化粧台
  6
CONTINUOUS
 62
     2
100
AcDbCircle
 10
570.0000000000182
 20
2054.0000000004
 30
0.0
 40
14.50000000000001
  0
LINE
  5
43D
330
1F
100
AcDbEntity
  8
化粧台
  6
CONTINUOUS
 62
     2
100
AcDbLine
 10
557.442631645321
 20
2046.750000000095
 30
0.0
 11
570.0000000000182
 21
2053.999999999991
 31
0.0
  0
LINE
  5
43E
330
1F
100
AcDbEntity
  8
化粧台
  6
CONTINUOUS
 62
     2
100
AcDbLine
 10
582.5573683547154
 20
2046.750000000095
 30
0.0
 11
570.0000000000182
 21
2053.999999999991
 31
0.0
  0
LINE
  5
43F
330
1F
100
AcDbEntity
  8
化粧台
  6
CONTINUOUS
 62
     2
100
AcDbLine
 10
570.00000000002
 20
2054.0
 30
0.0
 11
570.00000000002
 21
2068.5000000004
 31
0.0
  0
LINE
  5
440
330
1F
100
AcDbEntity
  8
化粧台
  6
CONTINUOUS
 62
     7
100
AcDbLine
 10
994.9500045000005
 20
2205.0
 30
0.0
 11
296.9500045000005
 21
2205.0
 31
0.0
  0
TEXT
  5
441
330
1F
100
AcDbEntity
  8
化粧台
  6
CONTINUOUS
 62
     2
100
AcDbText
 10
295.1500045002728
 20
2156.99999999995
 30
0.0
 40
40.0
  1
Ｗ.Ｌ.
 41
0.9086538461538461
  7
EXCADSTD
 72
     5
 11
385.1500045002728
 21
2156.99999999995
 31
0.0
100
AcDbText
  0
LINE
  5
442
330
1F
100
AcDbEntity
  8
化粧台
  6
CONTINUOUS
 62
     7
100
AcDbLine
 10
296.9500045000004
 20
562.6741750000002
 30
0.0
 11
891.4500045000005
 21
562.6741750000002
 31
0.0
  0
ARC
  5
443
330
1F
100
AcDbEntity
  8
化粧台
  6
CONTINUOUS
 62
     7
100
AcDbCircle
 10
500.0
 20
1357.674193999983
 30
0.0
 40
5.0
100
AcDbArc
 50
90.00000000000001
 51
186.0255750083663
  0
ARC
  5
444
330
1F
100
AcDbEntity
  8
化粧台
  6
CONTINUOUS
 62
     7
100
AcDbCircle
 10
509.5
 20
1267.674193999979
 30
0.0
 40
5.0
100
AcDbArc
 50
186.0255750083667
 51
270.0
  0
ARC
  5
445
330
1F
100
AcDbEntity
  8
化粧台
  6
CONTINUOUS
 62
     7
100
AcDbCircle
 10
830.5000000000001
 20
1267.674193999979
 30
0.0
 40
5.0
100
AcDbArc
 50
270.0
 51
353.9744249916336
  0
ARC
  5
446
330
1F
100
AcDbEntity
  8
化粧台
  6
CONTINUOUS
 62
     7
100
AcDbCircle
 10
840.0
 20
1357.674193999983
 30
0.0
 40
5.0
100
AcDbArc
 50
353.9744249916333
 51
90.00000000000001
  0
LINE
  5
447
330
1F
100
AcDbEntity
  8
化粧台
  6
CONTINUOUS
 62
     7
100
AcDbLine
 10
500.0
 20
1362.674193999983
 30
0.0
 11
840.0
 21
1362.674193999983
 31
0.0
  0
LINE
  5
448
330
1F
100
AcDbEntity
  8
化粧台
  6
CONTINUOUS
 62
     7
100
AcDbLine
 10
495.0276243093922
 20
1357.149332121529
 30
0.0
 11
504.5276243093922
 21
1267.149332121527
 31
0.0
  0
LINE
  5
449
330
1F
100
AcDbEntity
  8
化粧台
  6
CONTINUOUS
 62
     7
100
AcDbLine
 10
844.9723756906078
 20
1357.149332121529
 30
0.0
 11
835.4723756906078
 21
1267.149332121527
 31
0.0
  0
LINE
  5
44A
330
1F
100
AcDbEntity
  8
化粧台
  6
CONTINUOUS
 62
     7
100
AcDbLine
 10
1248.933868
 20
562.6741750000002
 30
0.0
 11
1577.57489
 21
562.6741750000002
 31
0.0
  0
TEXT
  5
44B
330
1F
100
AcDbEntity
  8
化粧台
  6
CONTINUOUS
 62
     2
100
AcDbText
 10
297.8500044999732
 20
570.3741749999999
 30
0.0
 40
40.0
  1
Ｆ.Ｌ.
 41
0.9086538461538461
  7
EXCADSTD
 72
     5
 11
387.8500044999732
 21
570.3741749999999
 31
0.0
100
AcDbText
  0
ARC
  5
44C
330
1F
100
AcDbEntity
  8
化粧台
  6
CONTINUOUS
 62
     6
100
AcDbCircle
 10
670.0
 20
1366.471745221
 30
0.0
 40
4.6916094208
100
AcDbArc
 50
305.959268259151
 51
359.896969
  0
ARC
  5
44D
330
1F
100
AcDbEntity
  8
化粧台
  6
CONTINUOUS
 62
     6
100
AcDbCircle
 10
670.0000642176
 20
1366.463296593
 30
0.0
 40
4.81632
100
AcDbArc
 50
308.1198206338138
 51
0.0074480000000265
  0
ARC
  5
44E
330
1F
100
AcDbEntity
  8
化粧台
  6
CONTINUOUS
 62
     6
100
AcDbCircle
 10
670.0000642176
 20
1366.463296593
 30
0.0
 40
4.81632
100
AcDbArc
 50
179.995757
 51
231.8801793661861
  0
ARC
  5
44F
330
1F
100
AcDbEntity
  8
化粧台
  6
CONTINUOUS
 62
     6
100
AcDbCircle
 10
670.0
 20
1366.471745221
 30
0.0
 40
4.6916094208
100
AcDbArc
 50
180.103035
 51
234.0407317408491
  0
LINE
  5
450
330
1F
100
AcDbEntity
  8
化粧台
  6
CONTINUOUS
 62
     6
100
AcDbLine
 10
647.9229965335999
 20
1458.0458381274
 30
0.0
 11
647.4773018445867
 21
1362.674193999983
 31
0.0
  0
LINE
  5
451
330
1F
100
AcDbEntity
  8
化粧台
  6
CONTINUOUS
 62
     6
100
AcDbLine
 10
692.5227068228669
 20
1362.674193999983
 30
0.0
 11
692.0771880920001
 21
1458.023546593
 31
0.0
  0
ELLIPSE
  5
452
330
1F
100
AcDbEntity
  8
化粧台
  6
CONTINUOUS
 62
     6
100
AcDbEllipse
 10
670.0
 20
1437.6792784642
 30
0.0
 11
8.77974138774872
 21
0.0
 31
0.0
210
0.0
220
0.0
230
1.0
 40
0.3420199999999999
 41
3.220173056482678
 42
3.588379880913724
  0
LINE
  5
453
330
1F
100
AcDbEntity
  8
化粧台
  6
CONTINUOUS
 62
     6
100
AcDbLine
 10
661.7219500000001
 20
1437.6792784642
 30
0.0
 11
661.7219500000001
 21
1437.207832981
 31
0.0
  0
ELLIPSE
  5
454
330
1F
100
AcDbEntity
  8
化粧台
  6
CONTINUOUS
 62
     6
100
AcDbEllipse
 10
670.0
 20
1437.6792784642
 30
0.0
 11
8.77974138774872
 21
0.0
 31
0.0
210
0.0
220
0.0
230
1.0
 40
0.3420199999999999
 41
5.836398079855655
 42
6.204604904286704
  0
LINE
  5
455
330
1F
100
AcDbEntity
  8
化粧台
  6
CONTINUOUS
 62
     6
100
AcDbLine
 10
678.2780500000008
 20
1437.207832981
 30
0.0
 11
678.2780500000008
 21
1437.6792784642
 31
0.0
  0
ELLIPSE
  5
456
330
1F
100
AcDbEntity
  8
化粧台
  6
CONTINUOUS
 62
     6
100
AcDbEllipse
 10
670.0
 20
1437.6792784642
 30
0.0
 11
8.278049043083188
 21
0.0
 31
0.0
210
0.0
220
0.0
230
1.0
 40
0.3420200000000004
 41
0.0000000019684726
 42
0.2960481264475969
  0
ELLIPSE
  5
457
330
1F
100
AcDbEntity
  8
化粧台
  6
CONTINUOUS
 62
     6
100
AcDbEllipse
 10
670.0
 20
1437.6792784642
 30
0.0
 11
8.278050956916816
 21
0.0
 31
0.0
210
0.0
220
0.0
230
1.0
 40
0.3420199999999996
 41
2.845544526954801
 42
3.141592653589793
  0
ELLIPSE
  5
458
330
1F
100
AcDbEntity
  8
化粧台
  6
CONTINUOUS
 62
     6
100
AcDbEllipse
 10
670.0
 20
1437.207832981
 30
0.0
 11
8.278050956916816
 21
0.0
 31
0.0
210
0.0
220
0.0
230
1.0
 40
0.3420199999999996
 41
3.141592653599684
 42
6.283185307179586
  0
ELLIPSE
  5
459
330
1F
100
AcDbEntity
  8
化粧台
  6
CONTINUOUS
 62
     6
100
AcDbEllipse
 10
670.0
 20
1437.207832981
 30
0.0
 11
8.027200000000002
 21
0.0
 31
0.0
210
0.0
220
0.0
230
1.0
 40
0.3420199999999999
 41
3.141592653584325
 42
6.283185307179586
  0
ELLIPSE
  5
45A
330
1F
100
AcDbEntity
  8
化粧台
  6
CONTINUOUS
 62
     6
100
AcDbEllipse
 10
670.0
 20
1437.207832981
 30
0.0
 11
8.278050956916816
 21
0.0
 31
0.0
210
0.0
220
0.0
230
1.0
 40
0.3420199999999996
 41
0.0
 42
3.141592653599449
  0
ELLIPSE
  5
45B
330
1F
100
AcDbEntity
  8
化粧台
  6
CONTINUOUS
 62
     6
100
AcDbEllipse
 10
670.0
 20
1437.207832981
 30
0.0
 11
8.027200000000002
 21
0.0
 31
0.0
210
0.0
220
0.0
230
1.0
 40
0.3420199999999999
 41
0.0
 42
3.141592653583963
  0
LINE
  5
45C
330
1F
100
AcDbEntity
  8
化粧台
  6
CONTINUOUS
 62
     6
100
AcDbLine
 10
665.7146672392
 20
1442.4759880146
 30
0.0
 11
665.7146672392
 21
1444.1886392978
 31
0.0
  0
POLYLINE
  5
45D
330
1F
100
AcDbEntity
  8
化粧台
  6
CONTINUOUS
 62
     6
100
AcDb2dPolyline
 66
     1
 10
0.0
 20
0.0
 30
0.0
 70
   128
  0
VERTEX
  5
45E
330
45D
100
AcDbEntity
  8
化粧台
  6
CONTINUOUS
 62
     6
100
AcDbVertex
100
AcDb2dVertex
 10
667.4047219544
 20
1441.6594411626
 30
0.0
  0
VERTEX
  5
45F
330
45D
100
AcDbEntity
  8
化粧台
  6
CONTINUOUS
 62
     6
100
AcDbVertex
100
AcDb2dVertex
 10
666.4229392039997
 20
1441.8668720378
 30
0.0
  0
VERTEX
  5
460
330
45D
100
AcDbEntity
  8
化粧台
  6
CONTINUOUS
 62
     6
100
AcDbVertex
100
AcDb2dVertex
 10
665.9750094032006
 20
1442.0820772562
 30
0.0
  0
VERTEX
  5
461
330
45D
100
AcDbEntity
  8
化粧台
  6
CONTINUOUS
 62
     6
100
AcDbVertex
100
AcDb2dVertex
 10
665.75331018
 20
1442.320737953
 30
0.0
  0
VERTEX
  5
462
330
45D
100
AcDbEntity
  8
化粧台
  6
CONTINUOUS
 62
     6
100
AcDbVertex
100
AcDb2dVertex
 10
665.7146672392
 20
1442.4759880146
 30
0.0
  0
SEQEND
  5
463
330
45D
100
AcDbEntity
  8
化粧台
  6
CONTINUOUS
 62
     6
  0
POLYLINE
  5
464
330
1F
100
AcDbEntity
  8
化粧台
  6
CONTINUOUS
 62
     6
100
AcDb2dPolyline
 66
     1
 10
0.0
 20
0.0
 30
0.0
 70
   128
  0
VERTEX
  5
465
330
464
100
AcDbEntity
  8
化粧台
  6
CONTINUOUS
 62
     6
100
AcDbVertex
100
AcDb2dVertex
 10
674.2853969784001
 20
1442.4759880146
 30
0.0
  0
VERTEX
  5
466
330
464
100
AcDbEntity
  8
化粧台
  6
CONTINUOUS
 62
     6
100
AcDbVertex
100
AcDb2dVertex
 10
674.2471192752
 20
1442.3212918298
 30
0.0
  0
VERTEX
  5
467
330
464
100
AcDbEntity
  8
化粧台
  6
CONTINUOUS
 62
     6
100
AcDbVertex
100
AcDb2dVertex
 10
674.0256648816003
 20
1442.0826271194
 30
0.0
  0
VERTEX
  5
468
330
464
100
AcDbEntity
  8
化粧台
  6
CONTINUOUS
 62
     6
100
AcDbVertex
100
AcDb2dVertex
 10
673.5769403880003
 20
1441.8668078202
 30
0.0
  0
VERTEX
  5
469
330
464
100
AcDbEntity
  8
化粧台
  6
CONTINUOUS
 62
     6
100
AcDbVertex
100
AcDb2dVertex
 10
672.5953422632001
 20
1441.6594411626
 30
0.0
  0
SEQEND
  5
46A
330
464
100
AcDbEntity
  8
化粧台
  6
CONTINUOUS
 62
     6
  0
LINE
  5
46B
330
1F
100
AcDbEntity
  8
化粧台
  6
CONTINUOUS
 62
     6
100
AcDbLine
 10
674.2853969784001
 20
1444.1886392978
 30
0.0
 11
674.2853969784001
 21
1442.4759880146
 31
0.0
  0
LINE
  5
46C
330
1F
100
AcDbEntity
  8
化粧台
  6
CONTINUOUS
 62
     6
100
AcDbLine
 10
674.2853969784001
 20
1444.1886392978
 30
0.0
 11
665.7146672392
 21
1444.1886392978
 31
0.0
  0
ARC
  5
46D
330
1F
100
AcDbEntity
  8
化粧台
  6
CONTINUOUS
 62
     6
100
AcDbCircle
 10
670.0
 20
1410.926519297
 30
0.0
 40
33.5377178584
100
AcDbArc
 50
82.65869000000002
 51
97.34130799999997
  0
ARC
  5
46E
330
1F
100
AcDbEntity
  8
化粧台
  6
CONTINUOUS
 62
     6
100
AcDbCircle
 10
670.0
 20
1462.199436509
 30
0.0
 40
20.7033247848
100
AcDbArc
 50
262.798649
 51
277.201346
  0
LINE
  5
46F
330
1F
100
AcDbEntity
  8
化粧台
  6
CONTINUOUS
 62
     6
100
AcDbLine
 10
665.3084467696008
 20
1374.992196593
 30
0.0
 11
665.3084467696008
 21
1366.463296593
 31
0.0
  0
LINE
  5
470
330
1F
100
AcDbEntity
  8
化粧台
  6
CONTINUOUS
 62
     6
100
AcDbLine
 10
674.6916174480001
 20
1366.463296593
 30
0.0
 11
674.6916174480001
 21
1374.992196593
 31
0.0
  0
ARC
  5
471
330
1F
100
AcDbEntity
  8
化粧台
  6
CONTINUOUS
 62
     6
100
AcDbCircle
 10
670.0
 20
1374.9837439514
 30
0.0
 40
4.6916094208
100
AcDbArc
 50
0.1030309999999841
 51
179.896965
  0
POLYLINE
  5
472
330
1F
100
AcDbEntity
  8
化粧台
  6
CONTINUOUS
 62
     6
100
AcDb2dPolyline
 66
     1
 10
0.0
 20
0.0
 30
0.0
 70
   128
  0
VERTEX
  5
473
330
472
100
AcDbEntity
  8
化粧台
  6
CONTINUOUS
 62
     6
100
AcDbVertex
100
AcDb2dVertex
 10
669.9932049752006
 20
1426.3594895954
 30
0.0
  0
VERTEX
  5
474
330
472
100
AcDbEntity
  8
化粧台
  6
CONTINUOUS
 62
     6
100
AcDbVertex
100
AcDb2dVertex
 10
671.1910478408007
 20
1426.4073196666
 30
0.0
  0
VERTEX
  5
475
330
472
100
AcDbEntity
  8
化粧台
  6
CONTINUOUS
 62
     6
100
AcDbVertex
100
AcDb2dVertex
 10
673.7492161408
 20
1426.8012344386
 30
0.0
  0
VERTEX
  5
476
330
472
100
AcDbEntity
  8
化粧台
  6
CONTINUOUS
 62
     6
100
AcDbVertex
100
AcDb2dVertex
 10
676.1757142792002
 20
1427.5731340042
 30
0.0
  0
VERTEX
  5
477
330
472
100
AcDbEntity
  8
化粧台
  6
CONTINUOUS
 62
     6
100
AcDbVertex
100
AcDb2dVertex
 10
678.4221542943997
 20
1428.659948653
 30
0.0
  0
VERTEX
  5
478
330
472
100
AcDbEntity
  8
化粧台
  6
CONTINUOUS
 62
     6
100
AcDbVertex
100
AcDb2dVertex
 10
680.8487126368
 20
1430.3064558082
 30
0.0
  0
VERTEX
  5
479
330
472
100
AcDbEntity
  8
化粧台
  6
CONTINUOUS
 62
     6
100
AcDbVertex
100
AcDb2dVertex
 10
682.2800145736
 20
1431.5462528346
 30
0.0
  0
VERTEX
  5
47A
330
472
100
AcDbEntity
  8
化粧台
  6
CONTINUOUS
 62
     6
100
AcDbVertex
100
AcDb2dVertex
 10
683.5811153264003
 20
1432.882998369
 30
0.0
  0
VERTEX
  5
47B
330
472
100
AcDbEntity
  8
化粧台
  6
CONTINUOUS
 62
     6
100
AcDbVertex
100
AcDb2dVertex
 10
684.9689379344
 20
1434.5779496762
 30
0.0
  0
VERTEX
  5
47C
330
472
100
AcDbEntity
  8
化粧台
  6
CONTINUOUS
 62
     6
100
AcDbVertex
100
AcDb2dVertex
 10
686.196240624
 20
1436.3643990226
 30
0.0
  0
VERTEX
  5
47D
330
472
100
AcDbEntity
  8
化粧台
  6
CONTINUOUS
 62
     6
100
AcDbVertex
100
AcDb2dVertex
 10
688.0756529736
 20
1439.8230786866
 30
0.0
  0
VERTEX
  5
47E
330
472
100
AcDbEntity
  8
化粧台
  6
CONTINUOUS
 62
     6
100
AcDbVertex
100
AcDb2dVertex
 10
689.5242294447999
 20
1443.451951045
 30
0.0
  0
VERTEX
  5
47F
330
472
100
AcDbEntity
  8
化粧台
  6
CONTINUOUS
 62
     6
100
AcDbVertex
100
AcDb2dVertex
 10
690.6081021248
 20
1447.2023311298
 30
0.0
  0
VERTEX
  5
480
330
472
100
AcDbEntity
  8
化粧台
  6
CONTINUOUS
 62
     6
100
AcDbVertex
100
AcDb2dVertex
 10
691.3734514952002
 20
1451.0249158786
 30
0.0
  0
VERTEX
  5
481
330
472
100
AcDbEntity
  8
化粧台
  6
CONTINUOUS
 62
     6
100
AcDbVertex
100
AcDb2dVertex
 10
691.9728946960004
 20
1456.1568693962
 30
0.0
  0
VERTEX
  5
482
330
472
100
AcDbEntity
  8
化粧台
  6
CONTINUOUS
 62
     6
100
AcDbVertex
100
AcDb2dVertex
 10
692.0771278880002
 20
1458.0346923602
 30
0.0
  0
SEQEND
  5
483
330
472
100
AcDbEntity
  8
化粧台
  6
CONTINUOUS
 62
     6
  0
LINE
  5
484
330
1F
100
AcDbEntity
  8
化粧台
  6
CONTINUOUS
 62
     6
100
AcDbLine
 10
692.0773727176002
 20
1457.9670792546
 30
0.0
 11
692.0792711504
 21
1458.023727205
 31
0.0
  0
LINE
  5
485
330
1F
100
AcDbEntity
  8
化粧台
  6
CONTINUOUS
 62
     6
100
AcDbLine
 10
647.9208532712
 20
1458.023727205
 30
0.0
 11
647.9227517039999
 21
1457.9654256514
 31
0.0
  0
ARC
  5
486
330
1F
100
AcDbEntity
  8
化粧台
  6
CONTINUOUS
 62
     6
100
AcDbCircle
 10
691.911406344
 20
1458.1060381138
 30
0.0
 40
0.1596569944
100
AcDbArc
 50
351.4325559999999
 51
10.37235299999998
  0
ARC
  5
487
330
1F
100
AcDbEntity
  8
化粧台
  6
CONTINUOUS
 62
     6
100
AcDbCircle
 10
670.0
 20
1374.992377205
 30
0.0
 40
4.8163079592
100
AcDbArc
 50
0.0031040000000055
 51
179.99689
  0
LINE
  5
488
330
1F
100
AcDbEntity
  8
化粧台
  6
CONTINUOUS
 62
     6
100
AcDbLine
 10
674.8163079592005
 20
1374.9926862522
 30
0.0
 11
674.8163079592005
 21
1366.4781790218
 31
0.0
  0
LINE
  5
489
330
1F
100
AcDbEntity
  8
化粧台
  6
CONTINUOUS
 62
     6
100
AcDbLine
 10
674.8163079592005
 20
1366.4781790218
 30
0.0
 11
674.8163721767995
 21
1366.4639066602
 31
0.0
  0
LINE
  5
48A
330
1F
100
AcDbEntity
  8
化粧台
  6
CONTINUOUS
 62
     6
100
AcDbLine
 10
665.1836920408005
 20
1366.4636618306
 30
0.0
 11
665.1836920408005
 21
1374.9926862522
 31
0.0
  0
ARC
  5
48B
330
1F
100
AcDbEntity
  8
化粧台
  6
CONTINUOUS
 62
     6
100
AcDbCircle
 10
670.0614281480002
 20
1457.2346775266
 30
0.0
 40
18.210786872
100
AcDbArc
 50
310.235027
 51
311.384906
  0
POLYLINE
  5
48C
330
1F
100
AcDbEntity
  8
化粧台
  6
CONTINUOUS
 62
     6
100
AcDb2dPolyline
 66
     1
 10
0.0
 20
0.0
 30
0.0
 70
   128
  0
VERTEX
  5
48D
330
48C
100
AcDbEntity
  8
化粧台
  6
CONTINUOUS
 62
     6
100
AcDbVertex
100
AcDb2dVertex
 10
657.8992448431999
 20
1443.571375713
 30
0.0
  0
VERTEX
  5
48E
330
48C
100
AcDbEntity
  8
化粧台
  6
CONTINUOUS
 62
     6
100
AcDbVertex
100
AcDb2dVertex
 10
657.7138646864004
 20
1443.9135391266
 30
0.0
  0
VERTEX
  5
48F
330
48C
100
AcDbEntity
  8
化粧台
  6
CONTINUOUS
 62
     6
100
AcDbVertex
100
AcDb2dVertex
 10
657.7877831576006
 20
1444.2211614986
 30
0.0
  0
VERTEX
  5
490
330
48C
100
AcDbEntity
  8
化粧台
  6
CONTINUOUS
 62
     6
100
AcDbVertex
100
AcDb2dVertex
 10
658.1156140056
 20
1444.5039196186
 30
0.0
  0
VERTEX
  5
491
330
48C
100
AcDbEntity
  8
化粧台
  6
CONTINUOUS
 62
     6
100
AcDbVertex
100
AcDb2dVertex
 10
658.6909274432
 20
1444.7697122514
 30
0.0
  0
VERTEX
  5
492
330
48C
100
AcDbEntity
  8
化粧台
  6
CONTINUOUS
 62
     6
100
AcDbVertex
100
AcDb2dVertex
 10
660.5349438543999
 20
1445.252853365
 30
0.0
  0
VERTEX
  5
493
330
48C
100
AcDbEntity
  8
化粧台
  6
CONTINUOUS
 62
     6
100
AcDbVertex
100
AcDb2dVertex
 10
664.7537070456
 20
1445.8186144346
 30
0.0
  0
VERTEX
  5
494
330
48C
100
AcDbEntity
  8
化粧台
  6
CONTINUOUS
 62
     6
100
AcDbVertex
100
AcDb2dVertex
 10
670.0
 20
1446.0482766402
 30
0.0
  0
SEQEND
  5
495
330
48C
100
AcDbEntity
  8
化粧台
  6
CONTINUOUS
 62
     6
  0
ARC
  5
496
330
1F
100
AcDbEntity
  8
化粧台
  6
CONTINUOUS
 62
     6
100
AcDbCircle
 10
669.9385116480007
 20
1457.234312289
 30
0.0
 40
18.2104136072
100
AcDbArc
 50
228.6146720000001
 51
229.7592620000002
  0
POLYLINE
  5
497
330
1F
100
AcDbEntity
  8
化粧台
  6
CONTINUOUS
 62
     6
100
AcDb2dPolyline
 66
     1
 10
0.0
 20
0.0
 30
0.0
 70
   128
  0
VERTEX
  5
498
330
497
100
AcDbEntity
  8
化粧台
  6
CONTINUOUS
 62
     6
100
AcDbVertex
100
AcDb2dVertex
 10
670.0
 20
1446.0482766402
 30
0.0
  0
VERTEX
  5
499
330
497
100
AcDbEntity
  8
化粧台
  6
CONTINUOUS
 62
     6
100
AcDbVertex
100
AcDb2dVertex
 10
675.2417616000002
 20
1445.8189194682
 30
0.0
  0
VERTEX
  5
49A
330
497
100
AcDbEntity
  8
化粧台
  6
CONTINUOUS
 62
     6
100
AcDbVertex
100
AcDb2dVertex
 10
678.5469050095999
 20
1445.417109945
 30
0.0
  0
VERTEX
  5
49B
330
497
100
AcDbEntity
  8
化粧台
  6
CONTINUOUS
 62
     6
100
AcDbVertex
100
AcDb2dVertex
 10
680.9327373528004
 20
1444.895321877
 30
0.0
  0
VERTEX
  5
49C
330
497
100
AcDbEntity
  8
化粧台
  6
CONTINUOUS
 62
     6
100
AcDbVertex
100
AcDb2dVertex
 10
681.8847552456
 20
1444.5064923362
 30
0.0
  0
VERTEX
  5
49D
330
497
100
AcDbEntity
  8
化粧台
  6
CONTINUOUS
 62
     6
100
AcDbVertex
100
AcDb2dVertex
 10
682.1539795063999
 20
1444.2963683354
 30
0.0
  0
VERTEX
  5
49E
330
497
100
AcDbEntity
  8
化粧台
  6
CONTINUOUS
 62
     6
100
AcDbVertex
100
AcDb2dVertex
 10
682.2816079728
 20
1444.0722208162
 30
0.0
  0
VERTEX
  5
49F
330
497
100
AcDbEntity
  8
化粧台
  6
CONTINUOUS
 62
     6
100
AcDbVertex
100
AcDb2dVertex
 10
682.2648271112002
 20
1443.8314730474
 30
0.0
  0
VERTEX
  5
4A0
330
497
100
AcDbEntity
  8
化粧台
  6
CONTINUOUS
 62
     6
100
AcDbVertex
100
AcDb2dVertex
 10
682.1008193744001
 20
1443.571375713
 30
0.0
  0
SEQEND
  5
4A1
330
497
100
AcDbEntity
  8
化粧台
  6
CONTINUOUS
 62
     6
  0
LINE
  5
4A2
330
1F
100
AcDbEntity
  8
化粧台
  6
CONTINUOUS
 62
     6
100
AcDbLine
 10
692.0748000000003
 20
1458.043634661
 30
0.0
 11
692.0772523096002
 21
1458.0241566602
 31
0.0
  0
ARC
  5
4A3
330
1F
100
AcDbEntity
  8
化粧台
  6
CONTINUOUS
 62
     6
100
AcDbCircle
 10
691.5969247295997
 20
1458.0447343874
 30
0.0
 40
0.4803034984
100
AcDbArc
 50
10.82250599999998
 51
90.17619400000004
  0
LINE
  5
4A4
330
1F
100
AcDbEntity
  8
化粧台
  6
CONTINUOUS
 62
     6
100
AcDbLine
 10
647.9223222487999
 20
1458.0241566602
 30
0.0
 11
647.9245257151997
 21
1458.043634661
 31
0.0
  0
ARC
  5
4A5
330
1F
100
AcDbEntity
  8
化粧台
  6
CONTINUOUS
 62
     6
100
AcDbCircle
 10
648.4065671023999
 20
1458.0438794906
 30
0.0
 40
0.4813430208
100
AcDbArc
 50
89.965599
 51
180.034392
  0
LINE
  5
4A6
330
1F
100
AcDbEntity
  8
化粧台
  6
CONTINUOUS
 62
     6
100
AcDbLine
 10
691.1634479023996
 20
1458.525246593
 30
0.0
 11
691.593188068
 21
1458.5250619674
 31
0.0
  0
LINE
  5
4A7
330
1F
100
AcDbEntity
  8
化粧台
  6
CONTINUOUS
 62
     6
100
AcDbLine
 10
689.9113411648003
 20
1458.525246593
 30
0.0
 11
691.1634479023996
 21
1458.525246593
 31
0.0
  0
LINE
  5
4A8
330
1F
100
AcDbEntity
  8
化粧台
  6
CONTINUOUS
 62
     6
100
AcDbLine
 10
687.8981715816008
 20
1458.525246593
 30
0.0
 11
689.9113411648003
 21
1458.525246593
 31
0.0
  0
LINE
  5
4A9
330
1F
100
AcDbEntity
  8
化粧台
  6
CONTINUOUS
 62
     6
100
AcDbLine
 10
685.2083933240001
 20
1458.525246593
 30
0.0
 11
687.8981715816008
 21
1458.525246593
 31
0.0
  0
LINE
  5
4AA
330
1F
100
AcDbEntity
  8
化粧台
  6
CONTINUOUS
 62
     6
100
AcDbLine
 10
681.9399944224006
 20
1458.525246593
 30
0.0
 11
685.2083933240001
 21
1458.525246593
 31
0.0
  0
LINE
  5
4AB
330
1F
100
AcDbEntity
  8
化粧台
  6
CONTINUOUS
 62
     6
100
AcDbLine
 10
678.2209725944003
 20
1458.525246593
 30
0.0
 11
681.9399944224006
 21
1458.525246593
 31
0.0
  0
LINE
  5
4AC
330
1F
100
AcDbEntity
  8
化粧台
  6
CONTINUOUS
 62
     6
100
AcDbLine
 10
674.1903469032004
 20
1458.525246593
 30
0.0
 11
678.2209725944003
 21
1458.525246593
 31
0.0
  0
LINE
  5
4AD
330
1F
100
AcDbEntity
  8
化粧台
  6
CONTINUOUS
 62
     6
100
AcDbLine
 10
670.0017178208
 20
1458.525246593
 30
0.0
 11
674.1903469032004
 21
1458.525246593
 31
0.0
  0
LINE
  5
4AE
330
1F
100
AcDbEntity
  8
化粧台
  6
CONTINUOUS
 62
     6
100
AcDbLine
 10
665.8122900320004
 20
1458.525246593
 30
0.0
 11
670.0017178208
 21
1458.525246593
 31
0.0
  0
LINE
  5
4AF
330
1F
100
AcDbEntity
  8
化粧台
  6
CONTINUOUS
 62
     6
100
AcDbLine
 10
661.7799465200005
 20
1458.525246593
 30
0.0
 11
665.8122900320004
 21
1458.525246593
 31
0.0
  0
LINE
  5
4B0
330
1F
100
AcDbEntity
  8
化粧台
  6
CONTINUOUS
 62
     6
100
AcDbLine
 10
658.0593312928003
 20
1458.525246593
 30
0.0
 11
661.7799465200005
 21
1458.525246593
 31
0.0
  0
LINE
  5
4B1
330
1F
100
AcDbEntity
  8
化粧台
  6
CONTINUOUS
 62
     6
100
AcDbLine
 10
654.7896480392001
 20
1458.525246593
 30
0.0
 11
658.0593312928003
 21
1458.525246593
 31
0.0
  0
LINE
  5
4B2
330
1F
100
AcDbEntity
  8
化粧台
  6
CONTINUOUS
 62
     6
100
AcDbLine
 10
652.1005440664002
 20
1458.525246593
 30
0.0
 11
654.7896480392001
 21
1458.525246593
 31
0.0
  0
LINE
  5
4B3
330
1F
100
AcDbEntity
  8
化粧台
  6
CONTINUOUS
 62
     6
100
AcDbLine
 10
650.0850465952008
 20
1458.525246593
 30
0.0
 11
652.1005440664002
 21
1458.525246593
 31
0.0
  0
LINE
  5
4B4
330
1F
100
AcDbEntity
  8
化粧台
  6
CONTINUOUS
 62
     6
100
AcDbLine
 10
648.4068761496
 20
1458.525246593
 30
0.0
 11
650.0850465952008
 21
1458.525246593
 31
0.0
  0
ARC
  5
4B5
330
1F
100
AcDbEntity
  8
化粧台
  6
CONTINUOUS
 62
     6
100
AcDbCircle
 10
680.7210199527999
 20
829.7630750714001
 30
0.0
 40
628.3742410272
100
AcDbArc
 50
88.96447800000001
 51
88.96728499999998
  0
POLYLINE
  5
4B6
330
1F
100
AcDbEntity
  8
化粧台
  6
CONTINUOUS
 62
     6
100
AcDb2dPolyline
 66
     1
 10
0.0
 20
0.0
 30
0.0
 70
   128
  0
VERTEX
  5
4B7
330
4B6
100
AcDbEntity
  8
化粧台
  6
CONTINUOUS
 62
     6
100
AcDbVertex
100
AcDb2dVertex
 10
670.0068592424004
 20
1426.3594895954
 30
0.0
  0
VERTEX
  5
4B8
330
4B6
100
AcDbEntity
  8
化粧台
  6
CONTINUOUS
 62
     6
100
AcDbVertex
100
AcDb2dVertex
 10
668.8090163768002
 20
1426.4073196666
 30
0.0
  0
VERTEX
  5
4B9
330
4B6
100
AcDbEntity
  8
化粧台
  6
CONTINUOUS
 62
     6
100
AcDbVertex
100
AcDb2dVertex
 10
666.2508480768
 20
1426.8012344386
 30
0.0
  0
VERTEX
  5
4BA
330
4B6
100
AcDbEntity
  8
化粧台
  6
CONTINUOUS
 62
     6
100
AcDbVertex
100
AcDb2dVertex
 10
663.8243499384007
 20
1427.5731340042
 30
0.0
  0
VERTEX
  5
4BB
330
4B6
100
AcDbEntity
  8
化粧台
  6
CONTINUOUS
 62
     6
100
AcDbVertex
100
AcDb2dVertex
 10
661.5779099232004
 20
1428.659948653
 30
0.0
  0
VERTEX
  5
4BC
330
4B6
100
AcDbEntity
  8
化粧台
  6
CONTINUOUS
 62
     6
100
AcDbVertex
100
AcDb2dVertex
 10
659.1513515808001
 20
1430.3064558082
 30
0.0
  0
VERTEX
  5
4BD
330
4B6
100
AcDbEntity
  8
化粧台
  6
CONTINUOUS
 62
     6
100
AcDbVertex
100
AcDb2dVertex
 10
657.720049644
 20
1431.5462528346
 30
0.0
  0
VERTEX
  5
4BE
330
4B6
100
AcDbEntity
  8
化粧台
  6
CONTINUOUS
 62
     6
100
AcDbVertex
100
AcDb2dVertex
 10
656.4189488911998
 20
1432.882998369
 30
0.0
  0
VERTEX
  5
4BF
330
4B6
100
AcDbEntity
  8
化粧台
  6
CONTINUOUS
 62
     6
100
AcDbVertex
100
AcDb2dVertex
 10
655.0311262832
 20
1434.5779496762
 30
0.0
  0
VERTEX
  5
4C0
330
4B6
100
AcDbEntity
  8
化粧台
  6
CONTINUOUS
 62
     6
100
AcDbVertex
100
AcDb2dVertex
 10
653.8038235936001
 20
1436.3643990226
 30
0.0
  0
VERTEX
  5
4C1
330
4B6
100
AcDbEntity
  8
化粧台
  6
CONTINUOUS
 62
     6
100
AcDbVertex
100
AcDb2dVertex
 10
651.9244112440001
 20
1439.8230786866
 30
0.0
  0
VERTEX
  5
4C2
330
4B6
100
AcDbEntity
  8
化粧台
  6
CONTINUOUS
 62
     6
100
AcDbVertex
100
AcDb2dVertex
 10
650.4758347728002
 20
1443.451951045
 30
0.0
  0
VERTEX
  5
4C3
330
4B6
100
AcDbEntity
  8
化粧台
  6
CONTINUOUS
 62
     6
100
AcDbVertex
100
AcDb2dVertex
 10
649.3919620928
 20
1447.2023311298
 30
0.0
  0
VERTEX
  5
4C4
330
4B6
100
AcDbEntity
  8
化粧台
  6
CONTINUOUS
 62
     6
100
AcDbVertex
100
AcDb2dVertex
 10
648.6266127224008
 20
1451.0249158786
 30
0.0
  0
VERTEX
  5
4C5
330
4B6
100
AcDbEntity
  8
化粧台
  6
CONTINUOUS
 62
     6
100
AcDbVertex
100
AcDb2dVertex
 10
648.0271695215996
 20
1456.1568693962
 30
0.0
  0
VERTEX
  5
4C6
330
4B6
100
AcDbEntity
  8
化粧台
  6
CONTINUOUS
 62
     6
100
AcDbVertex
100
AcDb2dVertex
 10
647.9229363295999
 20
1458.0346923602
 30
0.0
  0
SEQEND
  5
4C7
330
4B6
100
AcDbEntity
  8
化粧台
  6
CONTINUOUS
 62
     6
  0
POLYLINE
  5
4C8
330
1F
100
AcDbEntity
  8
化粧台
  6
CONTINUOUS
 62
     6
100
AcDb2dPolyline
 66
     1
 10
0.0
 20
0.0
 30
0.0
 70
   128
  0
VERTEX
  5
4C9
330
4C8
100
AcDbEntity
  8
化粧台
  6
CONTINUOUS
 62
     6
100
AcDbVertex
100
AcDb2dVertex
 10
660.7229609464002
 20
1437.431490841
 30
0.0
  0
VERTEX
  5
4CA
330
4C8
100
AcDbEntity
  8
化粧台
  6
CONTINUOUS
 62
     6
100
AcDbVertex
100
AcDb2dVertex
 10
660.7419452743998
 20
1437.1512452346
 30
0.0
  0
VERTEX
  5
4CB
330
4C8
100
AcDbEntity
  8
化粧台
  6
CONTINUOUS
 62
     6
100
AcDbVertex
100
AcDb2dVertex
 10
660.9351680056006
 20
1436.6662658922
 30
0.0
  0
VERTEX
  5
4CC
330
4C8
100
AcDbEntity
  8
化粧台
  6
CONTINUOUS
 62
     6
100
AcDbVertex
100
AcDb2dVertex
 10
661.3025007048
 20
1436.2133752818
 30
0.0
  0
VERTEX
  5
4CD
330
4C8
100
AcDbEntity
  8
化粧台
  6
CONTINUOUS
 62
     6
100
AcDbVertex
100
AcDb2dVertex
 10
662.5094704968004
 20
1435.4155679282
 30
0.0
  0
VERTEX
  5
4CE
330
4C8
100
AcDbEntity
  8
化粧台
  6
CONTINUOUS
 62
     6
100
AcDbVertex
100
AcDb2dVertex
 10
664.2627273712005
 20
1434.7814592642
 30
0.0
  0
VERTEX
  5
4CF
330
4C8
100
AcDbEntity
  8
化粧台
  6
CONTINUOUS
 62
     6
100
AcDbVertex
100
AcDb2dVertex
 10
666.1314234088004
 20
1434.384666741
 30
0.0
  0
VERTEX
  5
4D0
330
4C8
100
AcDbEntity
  8
化粧台
  6
CONTINUOUS
 62
     6
100
AcDbVertex
100
AcDb2dVertex
 10
668.2166130304004
 20
1434.1493132506
 30
0.0
  0
VERTEX
  5
4D1
330
4C8
100
AcDbEntity
  8
化粧台
  6
CONTINUOUS
 62
     6
100
AcDbVertex
100
AcDb2dVertex
 10
670.9430755920002
 20
1434.106564397
 30
0.0
  0
VERTEX
  5
4D2
330
4C8
100
AcDbEntity
  8
化粧台
  6
CONTINUOUS
 62
     6
100
AcDbVertex
100
AcDb2dVertex
 10
674.5764231144003
 20
1434.509911129
 30
0.0
  0
VERTEX
  5
4D3
330
4C8
100
AcDbEntity
  8
化粧台
  6
CONTINUOUS
 62
     6
100
AcDbVertex
100
AcDb2dVertex
 10
676.8542213864001
 20
1435.1438311538
 30
0.0
  0
VERTEX
  5
4D4
330
4C8
100
AcDbEntity
  8
化粧台
  6
CONTINUOUS
 62
     6
100
AcDbVertex
100
AcDb2dVertex
 10
677.7531995551999
 20
1435.549995433
 30
0.0
  0
VERTEX
  5
4D5
330
4C8
100
AcDbEntity
  8
化粧台
  6
CONTINUOUS
 62
     6
100
AcDbVertex
100
AcDb2dVertex
 10
678.4643532848004
 20
1436.0094362386
 30
0.0
  0
VERTEX
  5
4D6
330
4C8
100
AcDbEntity
  8
化粧台
  6
CONTINUOUS
 62
     6
100
AcDbVertex
100
AcDb2dVertex
 10
678.9669081816
 20
1436.5175660258
 30
0.0
  0
VERTEX
  5
4D7
330
4C8
100
AcDbEntity
  8
化粧台
  6
CONTINUOUS
 62
     6
100
AcDbVertex
100
AcDb2dVertex
 10
679.2399293079998
 20
1437.0697330322
 30
0.0
  0
VERTEX
  5
4D8
330
4C8
100
AcDbEntity
  8
化粧台
  6
CONTINUOUS
 62
     6
100
AcDbVertex
100
AcDb2dVertex
 10
679.2771634752007
 20
1437.3725752066
 30
0.0
  0
SEQEND
  5
4D9
330
4C8
100
AcDbEntity
  8
化粧台
  6
CONTINUOUS
 62
     6
  0
ARC
  5
4DA
330
1F
100
AcDbEntity
  8
化粧台
  6
CONTINUOUS
 62
     6
100
AcDbCircle
 10
676.9193821824001
 20
1439.355490273
 30
0.0
 40
2.3605707448
100
AcDbArc
 50
346.788497
 51
350.141421
  0
ARC
  5
4DB
330
1F
100
AcDbEntity
  8
化粧台
  6
CONTINUOUS
 62
     6
100
AcDbCircle
 10
662.7581170304002
 20
1439.315133525
 30
0.0
 40
2.0368297552
100
AcDbArc
 50
190.30884
 51
194.263356
  0
ARC
  5
4DC
330
1F
100
AcDbEntity
  8
化粧台
  6
CONTINUOUS
 62
     6
100
AcDbCircle
 10
659.4558513720003
 20
1438.5252851402
 30
0.0
 40
1.3536708856
100
AcDbArc
 50
347.3288690000001
 51
12.28851199999998
  0
ARC
  5
4DD
330
1F
100
AcDbEntity
  8
化粧台
  6
CONTINUOUS
 62
     6
100
AcDbCircle
 10
680.5638112544002
 20
1438.5279822794
 30
0.0
 40
1.3732291584
100
AcDbArc
 50
167.91057
 51
192.541438
  0
ARC
  5
4DE
330
1F
100
AcDbEntity
  8
化粧台
  6
CONTINUOUS
 62
     6
100
AcDbCircle
 10
676.9677661304004
 20
1437.7078191738
 30
0.0
 40
2.313310604800001
100
AcDbArc
 50
359.8608280000001
 51
13.00473599999998
  0
ARC
  5
4DF
330
1F
100
AcDbEntity
  8
化粧台
  6
CONTINUOUS
 62
     6
100
AcDbCircle
 10
662.5337246815998
 20
1437.7632429762
 30
0.0
 40
1.8129150248
100
AcDbArc
 50
165.105657
 51
182.104609
  0
LINE
  5
4E0
330
1F
100
AcDbEntity
  8
化粧台
  6
CONTINUOUS
 62
     6
100
AcDbLine
 10
660.7185500000005
 20
1437.6986320434
 30
0.0
 11
660.7185500000005
 21
1437.3963999362
 31
0.0
  0
LINE
  5
4E1
330
1F
100
AcDbEntity
  8
化粧台
  6
CONTINUOUS
 62
     6
100
AcDbLine
 10
679.2814500000004
 20
1437.3963999362
 30
0.0
 11
679.2814500000004
 21
1437.6986320434
 31
0.0
  0
LINE
  5
4E2
330
1F
100
AcDbEntity
  8
化粧台
  6
CONTINUOUS
 62
     6
100
AcDbLine
 10
660.7189794552005
 20
1437.426594249
 30
0.0
 11
660.7186142175997
 21
1437.3963999362
 31
0.0
  0
LINE
  5
4E3
330
1F
100
AcDbEntity
  8
化粧台
  6
CONTINUOUS
 62
     6
100
AcDbLine
 10
679.2812693880004
 20
1437.375882413
 30
0.0
 11
679.2814500000004
 21
1437.3963999362
 31
0.0
  0
ELLIPSE
  5
4E4
330
1F
100
AcDbEntity
  8
化粧台
  6
CONTINUOUS
 62
     6
100
AcDbEllipse
 10
670.0
 20
1437.207832981
 30
0.0
 11
8.77974138774872
 21
0.0
 31
0.0
210
0.0
220
0.0
230
1.0
 40
0.3420199999999999
 41
3.141592653593789
 42
6.283185307179586
  0
ELLIPSE
  5
4E5
330
1F
100
AcDbEntity
  8
化粧台
  6
CONTINUOUS
 62
     6
100
AcDbEllipse
 10
670.0
 20
1437.207832981
 30
0.0
 11
8.77974138774872
 21
0.0
 31
0.0
210
0.0
220
0.0
230
1.0
 40
0.3420199999999999
 41
0.0
 42
3.141592653583795
  0
LINE
  5
4E6
330
1F
100
AcDbEntity
  8
化粧台
  6
CONTINUOUS
 62
     6
100
AcDbLine
 10
681.8401721768005
 20
1438.700992521
 30
0.0
 11
681.8401721768005
 21
1444.5245575498
 31
0.0
  0
LINE
  5
4E7
330
1F
100
AcDbEntity
  8
化粧台
  6
CONTINUOUS
 62
     6
100
AcDbLine
 10
658.1598920408005
 20
1444.5255970722
 30
0.0
 11
658.1598920408005
 21
1438.700992521
 31
0.0
  0
POLYLINE
  5
4E8
330
1F
100
AcDbEntity
  8
化粧台
  6
CONTINUOUS
 62
     6
100
AcDb2dPolyline
 66
     1
 10
0.0
 20
0.0
 30
0.0
 70
   128
  0
VERTEX
  5
4E9
330
4E8
100
AcDbEntity
  8
化粧台
  6
CONTINUOUS
 62
     6
100
AcDbVertex
100
AcDb2dVertex
 10
658.1617302696004
 20
1438.7019116354
 30
0.0
  0
VERTEX
  5
4EA
330
4E8
100
AcDbEntity
  8
化粧台
  6
CONTINUOUS
 62
     6
100
AcDbVertex
100
AcDb2dVertex
 10
658.3997206952008
 20
1437.6783593498
 30
0.0
  0
VERTEX
  5
4EB
330
4E8
100
AcDbEntity
  8
化粧台
  6
CONTINUOUS
 62
     6
100
AcDbVertex
100
AcDb2dVertex
 10
659.0213952264003
 20
1436.8036915562
 30
0.0
  0
VERTEX
  5
4EC
330
4E8
100
AcDbEntity
  8
化粧台
  6
CONTINUOUS
 62
     6
100
AcDbVertex
100
AcDb2dVertex
 10
659.9362993600007
 20
1436.0866017122
 30
0.0
  0
VERTEX
  5
4ED
330
4E8
100
AcDbEntity
  8
化粧台
  6
CONTINUOUS
 62
     6
100
AcDbVertex
100
AcDb2dVertex
 10
661.0999102311998
 20
1435.4809735538
 30
0.0
  0
SEQEND
  5
4EE
330
4E8
100
AcDbEntity
  8
化粧台
  6
CONTINUOUS
 62
     6
  0
POLYLINE
  5
4EF
330
1F
100
AcDbEntity
  8
化粧台
  6
CONTINUOUS
 62
     6
100
AcDb2dPolyline
 66
     1
 10
0.0
 20
0.0
 30
0.0
 70
   128
  0
VERTEX
  5
4F0
330
4EF
100
AcDbEntity
  8
化粧台
  6
CONTINUOUS
 62
     6
100
AcDbVertex
100
AcDb2dVertex
 10
679.5016802456003
 20
1435.7656301066
 30
0.0
  0
VERTEX
  5
4F1
330
4EF
100
AcDbEntity
  8
化粧台
  6
CONTINUOUS
 62
     6
100
AcDbVertex
100
AcDb2dVertex
 10
680.4418178823997
 20
1436.3449250354
 30
0.0
  0
VERTEX
  5
4F2
330
4EF
100
AcDbEntity
  8
化粧台
  6
CONTINUOUS
 62
     6
100
AcDbVertex
100
AcDb2dVertex
 10
681.178197088
 20
1437.0235525506
 30
0.0
  0
VERTEX
  5
4F3
330
4EF
100
AcDbEntity
  8
化粧台
  6
CONTINUOUS
 62
     6
100
AcDbVertex
100
AcDb2dVertex
 10
681.6685666951998
 20
1437.8322006378
 30
0.0
  0
VERTEX
  5
4F4
330
4EF
100
AcDbEntity
  8
化粧台
  6
CONTINUOUS
 62
     6
100
AcDbVertex
100
AcDb2dVertex
 10
681.8383339480006
 20
1438.7000132026
 30
0.0
  0
SEQEND
  5
4F5
330
4EF
100
AcDbEntity
  8
化粧台
  6
CONTINUOUS
 62
     6
  0
LINE
  5
4F6
330
1F
100
AcDbEntity
  8
化粧台
  6
CONTINUOUS
 62
     6
100
AcDbLine
 10
679.1005409936006
 20
1435.573635537
 30
0.0
 11
679.4754674240003
 21
1435.7520962474
 31
0.0
  0
LINE
  5
4F7
330
1F
100
AcDbEntity
  8
化粧台
  6
CONTINUOUS
 62
     6
100
AcDbLine
 10
678.3731602792003
 20
1435.2592743306
 30
0.0
 11
678.8015518752
 21
1435.4396976914
 31
0.0
  0
LINE
  5
4F8
330
1F
100
AcDbEntity
  8
化粧台
  6
CONTINUOUS
 62
     6
100
AcDbLine
 10
661.1985083288
 20
1435.4396976914
 30
0.0
 11
661.6269039384006
 21
1435.2592743306
 31
0.0
  0
LINE
  5
4F9
330
1F
100
AcDbEntity
  8
化粧台
  6
CONTINUOUS
 62
     6
100
AcDbLine
 10
678.8016160928
 20
1435.4396976914
 30
0.0
 11
679.0876172016006
 21
1435.5653033034
 31
0.0
  0
ELLIPSE
  5
4FA
330
1F
100
AcDbEntity
  8
化粧台
  6
CONTINUOUS
 62
     6
100
AcDbEllipse
 10
670.0
 20
1437.5849668914
 30
0.0
 11
10.78655861225129
 21
0.0
 31
0.0
210
0.0
220
0.0
230
1.0
 40
0.3420199999999999
 41
3.141592653582924
 42
6.283185307179586
  0
ELLIPSE
  5
4FB
330
1F
100
AcDbEntity
  8
化粧台
  6
CONTINUOUS
 62
     6
100
AcDbEllipse
 10
670.0
 20
1437.5849668914
 30
0.0
 11
10.78655861225129
 21
0.0
 31
0.0
210
0.0
220
0.0
230
1.0
 40
0.3420199999999999
 41
0.0
 42
3.141592653592582
  0
ELLIPSE
  5
4FC
330
1F
100
AcDbEntity
  8
化粧台
  6
CONTINUOUS
 62
     6
100
AcDbEllipse
 10
670.0
 20
1437.5849668914
 30
0.0
 11
10.08416732063294
 21
0.0
 31
0.0
210
0.0
220
0.0
230
1.0
 40
0.3420199999999999
 41
0.0
 42
4.202046097158584
  0
ELLIPSE
  5
4FD
330
1F
100
AcDbEntity
  8
化粧台
  6
CONTINUOUS
 62
     6
100
AcDbEllipse
 10
670.0
 20
1437.5849668914
 30
0.0
 11
10.08416732063294
 21
0.0
 31
0.0
210
0.0
220
0.0
230
1.0
 40
0.3420199999999999
 41
5.203256597570432
 42
6.283185307179586
  0
LINE
  5
4FE
330
1F
100
AcDbEntity
  8
化粧台
  6
CONTINUOUS
 62
     6
100
AcDbLine
 10
1577.57489
 20
893.1741750000001
 30
0.0
 11
1585.57489
 21
893.1741750000001
 31
0.0
  0
LINE
  5
4FF
330
1F
100
AcDbEntity
  8
化粧台
  6
CONTINUOUS
 62
     6
100
AcDbLine
 10
1585.57489
 20
893.1741750000001
 30
0.0
 11
1585.57489
 21
872.1741750000001
 31
0.0
  0
LINE
  5
500
330
1F
100
AcDbEntity
  8
化粧台
  6
CONTINUOUS
 62
     6
100
AcDbLine
 10
1577.57489
 20
872.1741750000001
 30
0.0
 11
1585.57489
 21
872.1741750000001
 31
0.0
  0
LINE
  5
501
330
1F
100
AcDbEntity
  8
化粧台
  6
CONTINUOUS
 62
     6
100
AcDbLine
 10
1577.57489
 20
855.1741750000002
 30
0.0
 11
1577.57489
 21
910.1741750000002
 31
0.0
  0
LINE
  5
502
330
1F
100
AcDbEntity
  8
化粧台
  6
EXLTYPE3
 62
     6
100
AcDbLine
 10
1477.57489
 20
677.674175
 30
0.0
 11
1477.57489
 21
528.3055458499002
 31
0.0
  0
LINE
  5
503
330
1F
100
AcDbEntity
  8
化粧台
  6
EXLTYPE4
 62
     6
100
AcDbLine
 10
1467.074890000001
 20
662.674174999996
 30
0.0
 11
1467.074890000001
 21
554.6741750000006
 31
0.0
  0
LINE
  5
504
330
1F
100
AcDbEntity
  8
化粧台
  6
CONTINUOUS
 62
     6
100
AcDbLine
 10
1488.074890000001
 20
554.6741750000001
 30
0.0
 11
1467.074890000001
 21
554.6741750000001
 31
0.0
  0
LINE
  5
505
330
1F
100
AcDbEntity
  8
化粧台
  6
EXLTYPE4
 62
     6
100
AcDbLine
 10
1488.074890000001
 20
662.674174999996
 30
0.0
 11
1488.074890000001
 21
554.6741750000006
 31
0.0
  0
LINE
  5
506
330
1F
100
AcDbEntity
  8
化粧台
  6
CONTINUOUS
 62
     2
100
AcDbLine
 10
1577.57489
 20
1242.674193999999
 30
0.0
 11
1292.574889999971
 21
1242.674193999999
 31
0.0
  0
LINE
  5
507
330
1F
100
AcDbEntity
  8
化粧台
  6
CONTINUOUS
 62
     2
100
AcDbLine
 10
1292.574889999971
 20
1262.674194
 30
0.0
 11
1312.024902
 21
1262.674194
 31
0.0
  0
LINE
  5
508
330
1F
100
AcDbEntity
  8
化粧台
  6
CONTINUOUS
 62
     2
100
AcDbLine
 10
1292.574889999971
 20
1242.674175
 30
0.0
 11
1292.574889999971
 21
1262.674175
 31
0.0
  0
LINE
  5
509
330
1F
100
AcDbEntity
  8
化粧台
  6
CONTINUOUS
 62
     2
100
AcDbLine
 10
1541.024901999999
 20
1262.674194
 30
0.0
 11
1577.57489
 21
1262.674194
 31
0.0
  0
TEXT
  5
50A
330
1F
100
AcDbEntity
  8
化粧台
  6
CONTINUOUS
 62
     2
100
AcDbText
 10
1568.074889999895
 20
1513.65
 30
0.0
 40
40.0
  1
Ｗ.Ｌ.
 50
90.0
 41
0.9086538461538461
  7
EXCADSTD
 72
     5
 11
1568.074889999895
 21
1603.65
 31
0.0
100
AcDbText
  0
LINE
  5
50B
330
1F
100
AcDbEntity
  8
化粧台
  6
CONTINUOUS
 62
     7
100
AcDbLine
 10
1577.57489
 20
1600.0
 30
0.0
 11
1577.57489
 21
562.6741750000002
 31
0.0
  0
LINE
  5
50C
330
1F
100
AcDbEntity
  8
化粧台
  6
EXLTYPE3
 62
     6
100
AcDbLine
 10
1598.0
 20
882.6741750000003
 30
0.0
 11
1562.9
 21
882.6741750000003
 31
0.0
  0
LINE
  5
50D
330
1F
100
AcDbEntity
  8
化粧台
  6
CONTINUOUS
 62
     6
100
AcDbLine
 10
1627.574889999961
 20
1023.674174999998
 30
0.0
 11
1627.574889999961
 21
991.6741749999983
 31
0.0
  0
LINE
  5
50E
330
1F
100
AcDbEntity
  8
化粧台
  6
CONTINUOUS
 62
     6
100
AcDbLine
 10
1627.57489
 20
1023.674175
 30
0.0
 11
1577.57489
 21
1023.674175
 31
0.0
  0
LINE
  5
50F
330
1F
100
AcDbEntity
  8
化粧台
  6
EXLTYPE3
 62
     6
100
AcDbLine
 10
1685.0
 20
1007.674175
 30
0.0
 11
1522.0
 21
1007.674175
 31
0.0
  0
LINE
  5
510
330
1F
100
AcDbEntity
  8
化粧台
  6
CONTINUOUS
 62
     6
100
AcDbLine
 10
1627.57489
 20
991.6741750000006
 30
0.0
 11
1577.57489
 21
991.6741750000006
 31
0.0
  0
LINE
  5
511
330
1F
100
AcDbEntity
  8
化粧台
  6
CONTINUOUS
 62
     3
100
AcDbLine
 10
1681.0
 20
562.674174999999
 30
0.0
 11
1681.0
 21
882.674175
 31
0.0
  0
LINE
  5
512
330
1F
100
AcDbEntity
  8
化粧台
  6
CONTINUOUS
 62
     3
100
AcDbLine
 10
1676.0
 20
592.674174999999
 30
0.0
 11
1681.0
 21
562.674174999999
 31
0.0
  0
LINE
  5
513
330
1F
100
AcDbEntity
  8
化粧台
  6
CONTINUOUS
 62
     3
100
AcDbLine
 10
1681.0
 20
562.674174999999
 30
0.0
 11
1686.0
 21
592.674174999999
 31
0.0
  0
LINE
  5
514
330
1F
100
AcDbEntity
  8
化粧台
  6
CONTINUOUS
 62
     3
100
AcDbLine
 10
1686.0
 20
852.674175
 30
0.0
 11
1681.0
 21
882.674175
 31
0.0
  0
LINE
  5
515
330
1F
100
AcDbEntity
  8
化粧台
  6
CONTINUOUS
 62
     3
100
AcDbLine
 10
1681.0
 20
882.674175
 30
0.0
 11
1676.0
 21
852.674175
 31
0.0
  0
TEXT
  5
516
330
1F
100
AcDbEntity
  8
化粧台
  6
CONTINUOUS
 62
     2
100
AcDbText
 10
1677.500000059605
 20
613.674175
 30
0.0
 40
40.0
  1
３２０
 50
90.0
 41
1.029411764705882
  7
EXCADSTD
 72
     5
 11
1677.500000059605
 21
713.674175
 31
0.0
100
AcDbText
  0
TEXT
  5
517
330
1F
100
AcDbEntity
  8
化粧台
  6
CONTINUOUS
 62
     2
100
AcDbText
 10
1677.500000059605
 20
708.674175
 30
0.0
 40
32.0
  1
（壁給水）
 50
90.0
 41
0.9655172413793105
  7
EXCADSTD
 72
     5
 11
1677.500000059605
 21
836.674175
 31
0.0
100
AcDbText
  0
LINE
  5
518
330
1F
100
AcDbEntity
  8
化粧台
  6
CONTINUOUS
 62
     3
100
AcDbLine
 10
1604.999999880791
 20
882.674175
 30
0.0
 11
1691.0
 21
882.674175
 31
0.0
  0
LINE
  5
519
330
1F
100
AcDbEntity
  8
化粧台
  6
CONTINUOUS
 62
     2
100
AcDbLine
 10
1556.024901999999
 20
1262.674194
 30
0.0
 11
1327.024902
 21
1262.674194
 31
0.0
  0
POLYLINE
  5
51A
330
1F
100
AcDbEntity
  8
化粧台
  6
CONTINUOUS
 62
     4
100
AcDb2dPolyline
 66
     1
 10
0.0
 20
0.0
 30
0.0
 70
   128
  0
VERTEX
  5
51B
330
51A
100
AcDbEntity
  8
化粧台
  6
CONTINUOUS
 62
     4
100
AcDbVertex
100
AcDb2dVertex
 10
1493.340367617124
 20
1428.993300886476
 30
0.0
  0
VERTEX
  5
51C
330
51A
100
AcDbEntity
  8
化粧台
  6
CONTINUOUS
 62
     4
100
AcDbVertex
100
AcDb2dVertex
 10
1493.37670523777
 20
1429.037220237631
 30
0.0
  0
VERTEX
  5
51D
330
51A
100
AcDbEntity
  8
化粧台
  6
CONTINUOUS
 62
     4
100
AcDbVertex
100
AcDb2dVertex
 10
1497.80909369403
 20
1434.579677582406
 30
0.0
  0
VERTEX
  5
51E
330
51A
100
AcDbEntity
  8
化粧台
  6
CONTINUOUS
 62
     4
100
AcDbVertex
100
AcDb2dVertex
 10
1502.348602225393
 20
1440.86356715397
 30
0.0
  0
VERTEX
  5
51F
330
51A
100
AcDbEntity
  8
化粧台
  6
CONTINUOUS
 62
     4
100
AcDbVertex
100
AcDb2dVertex
 10
1508.115616241113
 20
1449.790005424805
 30
0.0
  0
VERTEX
  5
520
330
51A
100
AcDbEntity
  8
化粧台
  6
CONTINUOUS
 62
     4
100
AcDbVertex
100
AcDb2dVertex
 10
1510.416525307624
 20
1453.544455130503
 30
0.0
  0
VERTEX
  5
521
330
51A
100
AcDbEntity
  8
化粧台
  6
CONTINUOUS
 62
     4
100
AcDbVertex
100
AcDb2dVertex
 10
1512.44595177363
 20
1456.633427360783
 30
0.0
  0
VERTEX
  5
522
330
51A
100
AcDbEntity
  8
化粧台
  6
CONTINUOUS
 62
     4
100
AcDbVertex
100
AcDb2dVertex
 10
1513.35322648378
 20
1457.8172375183
 30
0.0
  0
VERTEX
  5
523
330
51A
100
AcDbEntity
  8
化粧台
  6
CONTINUOUS
 62
     4
100
AcDbVertex
100
AcDb2dVertex
 10
1514.356532925595
 20
1458.667418734784
 30
0.0
  0
SEQEND
  5
524
330
51A
100
AcDbEntity
  8
化粧台
  6
CONTINUOUS
 62
     4
  0
ARC
  5
525
330
1F
100
AcDbEntity
  8
化粧台
  6
CONTINUOUS
 62
     7
100
AcDbCircle
 10
1568.566009987159
 20
1267.674193999981
 30
0.0
 40
5.0
100
AcDbArc
 50
270.0
 51
357.5862971699695
  0
ARC
  5
526
330
1F
100
AcDbEntity
  8
化粧台
  6
CONTINUOUS
 62
     7
100
AcDbCircle
 10
1572.35968999323
 20
1357.674193999977
 30
0.0
 40
5.0
100
AcDbArc
 50
357.5862971699695
 51
90.00000000000001
  0
ARC
  5
527
330
1F
100
AcDbEntity
  8
化粧台
  6
CONTINUOUS
 62
     7
100
AcDbCircle
 10
1302.359689993226
 20
1357.674193999981
 30
0.0
 40
5.0
100
AcDbArc
 50
89.99999999999939
 51
189.6017550789933
  0
ARC
  5
528
330
1F
100
AcDbEntity
  8
化粧台
  6
CONTINUOUS
 62
     7
100
AcDbCircle
 10
1317.584886324272
 20
1267.674193999981
 30
0.0
 40
5.0
100
AcDbArc
 50
189.6017550789919
 51
270.0
  0
LINE
  5
529
330
1F
100
AcDbEntity
  8
化粧台
  6
CONTINUOUS
 62
     7
100
AcDbLine
 10
1297.429735352411
 20
1356.840199252096
 30
0.0
 11
1312.654931683456
 21
1266.840199252096
 31
0.0
  0
LINE
  5
52A
330
1F
100
AcDbEntity
  8
化粧台
  6
CONTINUOUS
 62
     7
100
AcDbLine
 10
1572.3596899932
 20
1362.674193999977
 30
0.0
 11
1302.359689993226
 21
1362.674193999977
 31
0.0
  0
LINE
  5
52B
330
1F
100
AcDbEntity
  8
化粧台
  6
CONTINUOUS
 62
     6
100
AcDbLine
 10
1514.612715319892
 20
1459.278932433031
 30
0.0
 11
1536.194783056747
 21
1460.032594845625
 31
0.0
  0
ARC
  5
52C
330
1F
100
AcDbEntity
  8
化粧台
  6
CONTINUOUS
 62
     6
100
AcDbCircle
 10
1536.211360321244
 20
1459.550408806706
 30
0.0
 40
0.4824387336
100
AcDbArc
 50
359.7118640000007
 51
91.96853800003272
  0
LINE
  5
52D
330
1F
100
AcDbEntity
  8
化粧台
  6
CONTINUOUS
 62
     6
100
AcDbLine
 10
1536.693049320306
 20
1459.570294000664
 30
0.0
 11
1540.530151572367
 21
1362.674193999977
 31
0.0
  0
LINE
  5
52E
330
1F
100
AcDbEntity
  8
化粧台
  6
CONTINUOUS
 62
     6
100
AcDbLine
 10
1418.345054927446
 20
1455.917191654957
 30
0.0
 11
1414.121027907035
 21
1455.769685381051
 31
0.0
  0
LINE
  5
52F
330
1F
100
AcDbEntity
  8
化粧台
  6
CONTINUOUS
 62
     6
100
AcDbLine
 10
1414.121027907035
 20
1455.769685381051
 30
0.0
 11
1410.053748802623
 21
1455.627652864987
 31
0.0
  0
LINE
  5
530
330
1F
100
AcDbEntity
  8
化粧台
  6
CONTINUOUS
 62
     6
100
AcDbLine
 10
1410.053748802623
 20
1455.627652864987
 30
0.0
 11
1406.316519566997
 21
1455.497145944312
 31
0.0
  0
LINE
  5
531
330
1F
100
AcDbEntity
  8
化粧台
  6
CONTINUOUS
 62
     6
100
AcDbLine
 10
1406.316519566997
 20
1455.497145944312
 30
0.0
 11
1403.04845908983
 21
1455.383022757704
 31
0.0
  0
LINE
  5
532
330
1F
100
AcDbEntity
  8
化粧台
  6
CONTINUOUS
 62
     6
100
AcDbLine
 10
1403.04845908983
 20
1455.383022757704
 30
0.0
 11
1400.374763541708
 21
1455.289655251776
 31
0.0
  0
ARC
  5
533
330
1F
100
AcDbEntity
  8
化粧台
  6
CONTINUOUS
 62
     6
100
AcDbCircle
 10
1414.997577682707
 20
1420.165910855997
 30
0.0
 40
21.1632472224
100
AcDbArc
 50
51.57827500000038
 51
79.46529599999938
  0
POLYLINE
  5
534
330
1F
100
AcDbEntity
  8
化粧台
  6
CONTINUOUS
 62
     6
100
AcDb2dPolyline
 66
     1
 10
0.0
 20
0.0
 30
0.0
 70
   128
  0
VERTEX
  5
535
330
534
100
AcDbEntity
  8
化粧台
  6
CONTINUOUS
 62
     6
100
AcDbVertex
100
AcDb2dVertex
 10
1418.866877327586
 20
1440.972428167968
 30
0.0
  0
VERTEX
  5
536
330
534
100
AcDbEntity
  8
化粧台
  6
CONTINUOUS
 62
     6
100
AcDbVertex
100
AcDb2dVertex
 10
1413.544745482402
 20
1441.719808042413
 30
0.0
  0
VERTEX
  5
537
330
534
100
AcDbEntity
  8
化粧台
  6
CONTINUOUS
 62
     6
100
AcDbVertex
100
AcDb2dVertex
 10
1404.346597987242
 20
1442.936426167126
 30
0.0
  0
VERTEX
  5
538
330
534
100
AcDbEntity
  8
化粧台
  6
CONTINUOUS
 62
     6
100
AcDbVertex
100
AcDb2dVertex
 10
1404.314240240623
 20
1442.942649590796
 30
0.0
  0
SEQEND
  5
539
330
534
100
AcDbEntity
  8
化粧台
  6
CONTINUOUS
 62
     6
  0
LINE
  5
53A
330
1F
100
AcDbEntity
  8
化粧台
  6
CONTINUOUS
 62
     6
100
AcDbLine
 10
1398.388371384522
 20
1455.220288909135
 30
0.0
 11
1396.764868422297
 21
1455.163594936422
 31
0.0
  0
LINE
  5
53B
330
1F
100
AcDbEntity
  8
化粧台
  6
CONTINUOUS
 62
     6
100
AcDbLine
 10
1400.374763541708
 20
1455.289655251776
 30
0.0
 11
1398.388371384522
 21
1455.220288909135
 31
0.0
  0
ARC
  5
53C
330
1F
100
AcDbEntity
  8
化粧台
  6
CONTINUOUS
 62
     6
100
AcDbCircle
 10
1396.781942547897
 20
1454.68167122711
 30
0.0
 40
0.4822460808
100
AcDbArc
 50
92.02718200000541
 51
183.6100750000153
  0
ARC
  5
53D
330
1F
100
AcDbEntity
  8
化粧台
  6
CONTINUOUS
 62
     6
100
AcDbCircle
 10
1417.980436776013
 20
1460.894854473081
 30
0.0
 40
22.5620670944
100
AcDbArc
 50
196.0806189999995
 51
232.7195639999997
  0
LINE
  5
53E
330
1F
100
AcDbEntity
  8
化粧台
  6
CONTINUOUS
 62
     6
100
AcDbLine
 10
1405.036641157035
 20
1441.107105512938
 30
0.0
 11
1404.273190840845
 21
1441.35516691505
 31
0.0
  0
LINE
  5
53F
330
1F
100
AcDbEntity
  8
化粧台
  6
CONTINUOUS
 62
     6
100
AcDbLine
 10
1404.273190840845
 20
1441.35516691505
 30
0.0
 11
1404.764463816809
 21
1442.867187409486
 31
0.0
  0
LINE
  5
540
330
1F
100
AcDbEntity
  8
化粧台
  6
CONTINUOUS
 62
     6
100
AcDbLine
 10
1404.473399226623
 20
1439.373741451293
 30
0.0
 11
1405.036641157035
 21
1441.107105512938
 31
0.0
  0
LINE
  5
541
330
1F
100
AcDbEntity
  8
化粧台
  6
CONTINUOUS
 62
     6
100
AcDbLine
 10
1425.467792994252
 20
1432.552224538766
 30
0.0
 11
1404.473399226623
 21
1439.373741451293
 31
0.0
  0
LINE
  5
542
330
1F
100
AcDbEntity
  8
化粧台
  6
CONTINUOUS
 62
     6
100
AcDbLine
 10
1426.031000734333
 20
1434.285647647155
 30
0.0
 11
1425.467792994252
 21
1432.552224538766
 31
0.0
  0
LINE
  5
543
330
1F
100
AcDbEntity
  8
化粧台
  6
CONTINUOUS
 62
     6
100
AcDbLine
 10
1426.031000734333
 20
1434.285647647155
 30
0.0
 11
1426.794446899296
 21
1434.037590116126
 31
0.0
  0
LINE
  5
544
330
1F
100
AcDbEntity
  8
化粧台
  6
CONTINUOUS
 62
     6
100
AcDbLine
 10
1427.770664804726
 20
1437.042044748683
 30
0.0
 11
1426.794446899296
 21
1434.037590116126
 31
0.0
  0
LINE
  5
545
330
1F
100
AcDbEntity
  8
化粧台
  6
CONTINUOUS
 62
     6
100
AcDbLine
 10
1404.204898349399
 20
1438.547320620573
 30
0.0
 11
1404.473399226623
 21
1439.373741451293
 31
0.0
  0
LINE
  5
546
330
1F
100
AcDbEntity
  8
化粧台
  6
CONTINUOUS
 62
     6
100
AcDbLine
 10
1424.862221074817
 20
1431.500286886765
 30
0.0
 11
1404.345006492645
 21
1438.166761196938
 31
0.0
  0
LINE
  5
547
330
1F
100
AcDbEntity
  8
化粧台
  6
CONTINUOUS
 62
     6
100
AcDbLine
 10
1404.204898349399
 20
1438.547320620573
 30
0.0
 11
1404.151169331843
 21
1438.382011350961
 31
0.0
  0
LINE
  5
548
330
1F
100
AcDbEntity
  8
化粧台
  6
CONTINUOUS
 62
     6
100
AcDbLine
 10
1404.345006492645
 20
1438.166761196938
 30
0.0
 11
1404.151169331843
 21
1438.382011350961
 31
0.0
  0
LINE
  5
549
330
1F
100
AcDbEntity
  8
化粧台
  6
CONTINUOUS
 62
     6
100
AcDbLine
 10
1425.199260167861
 20
1431.725798576309
 30
0.0
 11
1425.145563239544
 21
1431.560490427278
 31
0.0
  0
LINE
  5
54A
330
1F
100
AcDbEntity
  8
化粧台
  6
CONTINUOUS
 62
     6
100
AcDbLine
 10
1425.145563239544
 20
1431.560490427278
 30
0.0
 11
1424.862221074817
 21
1431.500286886765
 31
0.0
  0
LINE
  5
54B
330
1F
100
AcDbEntity
  8
化粧台
  6
CONTINUOUS
 62
     6
100
AcDbLine
 10
1425.467792994252
 20
1432.552224538766
 30
0.0
 11
1425.199260167861
 21
1431.725798576309
 31
0.0
  0
LINE
  5
54C
330
1F
100
AcDbEntity
  8
化粧台
  6
CONTINUOUS
 62
     6
100
AcDbLine
 10
1423.430811875409
 20
1431.965419176154
 30
0.0
 11
1423.3687800505
 21
1431.774510841285
 31
0.0
  0
ARC
  5
54D
330
1F
100
AcDbEntity
  8
化粧台
  6
CONTINUOUS
 62
     6
100
AcDbCircle
 10
1423.177936034185
 20
1431.836540896201
 30
0.0
 40
0.2006759864
100
AcDbArc
 50
252.0001499999379
 51
341.9997630000425
  0
LINE
  5
54E
330
1F
100
AcDbEntity
  8
化粧台
  6
CONTINUOUS
 62
     6
100
AcDbLine
 10
1405.843268068318
 20
1437.257905178928
 30
0.0
 11
1423.115906119342
 21
1431.645692868731
 31
0.0
  0
LINE
  5
54F
330
1F
100
AcDbEntity
  8
化粧台
  6
CONTINUOUS
 62
     6
100
AcDbLine
 10
1405.714417866451
 20
1437.510782000659
 30
0.0
 11
1405.77645179245
 21
1437.701630168202
 31
0.0
  0
ARC
  5
550
330
1F
100
AcDbEntity
  8
化粧台
  6
CONTINUOUS
 62
     6
100
AcDbCircle
 10
1405.905265893922
 20
1437.448752085817
 30
0.0
 40
0.2006759864
100
AcDbArc
 50
161.9997599999671
 51
251.9997610000181
  0
LINE
  5
551
330
1F
100
AcDbEntity
  8
化粧台
  6
CONTINUOUS
 62
     6
100
AcDbLine
 10
1514.612715319892
 20
1459.278932433031
 30
0.0
 11
1418.345054927446
 21
1455.917191654957
 31
0.0
  0
LINE
  5
552
330
1F
100
AcDbEntity
  8
化粧台
  6
CONTINUOUS
 62
     6
100
AcDbLine
 10
1494.926383278815
 20
1379.978413182381
 30
0.0
 11
1493.523524529712
 21
1426.364841068641
 31
0.0
  0
ARC
  5
553
330
1F
100
AcDbEntity
  8
化粧台
  6
CONTINUOUS
 62
     6
100
AcDbCircle
 10
1488.010015825878
 20
1426.192650393506
 30
0.0
 40
5.516187486400002
100
AcDbArc
 50
1.708765999993387
 51
85.23129400000252
  0
LINE
  5
554
330
1F
100
AcDbEntity
  8
化粧台
  6
CONTINUOUS
 62
     6
100
AcDbLine
 10
1488.468604954722
 20
1431.689728752506
 30
0.0
 11
1428.149372177471
 21
1436.746419464053
 31
0.0
  0
LINE
  5
555
330
1F
100
AcDbEntity
  8
化粧台
  6
CONTINUOUS
 62
     6
100
AcDbLine
 10
1495.943284706618
 20
1366.448064577215
 30
0.0
 11
1495.645630389193
 21
1374.971769001778
 31
0.0
  0
ARC
  5
556
330
1F
100
AcDbEntity
  8
化粧台
  6
CONTINUOUS
 62
     6
100
AcDbCircle
 10
1473.364760841236
 20
1374.325454312614
 30
0.0
 40
22.2902460344
100
AcDbArc
 50
1.661636999999598
 51
14.21368499999953
  0
ARC
  5
557
330
1F
100
AcDbEntity
  8
化粧台
  6
CONTINUOUS
 62
     6
100
AcDbCircle
 10
1473.364760841236
 20
1374.325454312614
 30
0.0
 40
22.290250048
100
AcDbArc
 50
14.21368499999832
 51
14.69099199999863
  0
LINE
  5
558
330
1F
100
AcDbEntity
  8
化粧台
  6
CONTINUOUS
 62
     6
100
AcDbLine
 10
1495.546591584452
 20
1362.674193999977
 30
0.0
 11
1494.947339685909
 21
1379.834523146918
 31
0.0
  0
ARC
  5
559
330
1F
100
AcDbEntity
  8
化粧台
  6
CONTINUOUS
 62
     6
100
AcDbCircle
 10
1473.467013717792
 20
1366.061680157807
 30
0.0
 40
22.4801455048
100
AcDbArc
 50
351.3332059178368
 51
0.9874700000003205
  0
ARC
  5
55A
330
1F
100
AcDbEntity
  8
化粧台
  6
CONTINUOUS
 62
     6
100
AcDbCircle
 10
1495.68434615798
 20
1361.530124310257
 30
0.0
 40
0.2001221096
100
AcDbArc
 50
156.7881739998772
 51
181.7954589998156
  0
LINE
  5
55B
330
1F
100
AcDbEntity
  8
化粧台
  6
CONTINUOUS
 62
     2
100
AcDbLine
 10
1307.574889999971
 20
1262.674194
 30
0.0
 11
1327.024902
 21
1262.674194
 31
0.0
  0
LINE
  5
55C
330
1F
100
AcDbEntity
  8
化粧台
  6
CONTINUOUS
 62
     7
100
AcDbLine
 10
1577.355253926053
 20
1357.463620988702
 30
0.0
 11
1573.561573919984
 21
1267.463620988746
 31
0.0
  0
DIMENSION
  5
55D
330
1F
100
AcDbEntity
  8
化粧台
  6
CONTINUOUS
 62
     3
100
AcDbDimension
  2
*D19
 10
931.9999999999976
 20
1925.0
 30
0.0
 11
908.5000000596024
 21
2065.0
 31
0.0
 70
   160
  3
ISO-25
100
AcDbAlignedDimension
 13
835.0
 23
2205.0
 33
0.0
 14
670.0
 24
1925.0
 34
0.0
 50
90.0
100
AcDbRotatedDimension
1001
ACAD
1000
DSTYLE
1002
{
1070
   270
1070
     2
1070
     6
1000
EX_NORM
1070
     7
1000
EX_NORM
1070
    41
1040
30.0
1070
    42
1040
6.99999988079071
1070
    44
1040
10.0
1070
    73
1070
     0
1070
    74
1070
     0
1070
    75
1070
     1
1070
    76
1070
     0
1070
    77
1070
     1
1070
    78
1070
     0
1070
   140
1040
40.0
1070
   147
1040
0.0
1070
   173
1070
     1
1070
   176
1070
     3
1070
   177
1070
     3
1070
   178
1070
     2
1070
   271
1070
     0
1070
   277
1070
     2
1070
   279
1070
     2
1070
   280
1070
     0
1070
   287
1070
     5
1070
   340
1005
260
1002
}
  0
LINE
  5
569
330
1F
100
AcDbEntity
  8
化粧台
  6
CONTINUOUS
 62
     2
100
AcDbLine
 10
474.9999999999984
 20
1242.674194000001
 30
0.0
 11
474.9999999999984
 21
1262.674194000001
 31
0.0
  0
LINE
  5
56A
330
1F
100
AcDbEntity
  8
化粧台
  6
EXLTYPE3
 62
     6
100
AcDbLine
 10
838.9999999999711
 20
1115.674194000028
 30
0.0
 11
838.9999999999711
 21
1170.674194000028
 31
0.0
  0
LINE
  5
56B
330
1F
100
AcDbEntity
  8
化粧台
  6
EXLTYPE1
 62
     6
100
AcDbLine
 10
836.4999999999711
 20
1146.674194000028
 30
0.0
 11
835.4291992187211
 21
1146.674194000028
 31
0.0
  0
LINE
  5
56C
330
1F
100
AcDbEntity
  8
化粧台
  6
EXLTYPE1
 62
     6
100
AcDbLine
 10
836.4999999999711
 20
1146.674194000028
 30
0.0
 11
836.4999999999711
 21
1139.674194000028
 31
0.0
  0
LINE
  5
56D
330
1F
100
AcDbEntity
  8
化粧台
  6
EXLTYPE1
 62
     6
100
AcDbLine
 10
836.4999999999711
 20
1139.674194000028
 30
0.0
 11
835.4291992187211
 21
1139.674194000028
 31
0.0
  0
ARC
  5
56E
330
1F
100
AcDbEntity
  8
化粧台
  6
EXLTYPE1
 62
     6
100
AcDbCircle
 10
838.9999999999711
 20
1143.174194000028
 30
0.0
 40
5.0
100
AcDbArc
 50
135.572708129903
 51
224.4272880554191
  0
ARC
  5
56F
330
1F
100
AcDbEntity
  8
化粧台
  6
EXLTYPE1
 62
     6
100
AcDbCircle
 10
838.9999999999711
 20
1143.174194000028
 30
0.0
 40
8.300000000000002
100
AcDbArc
 50
121.7465474276751
 51
238.2534349726588
  0
LINE
  5
570
330
1F
100
AcDbEntity
  8
化粧台
  6
EXLTYPE3
 62
     6
100
AcDbLine
 10
863.0000000000002
 20
1238.174194000001
 30
0.0
 11
477.0000000000002
 21
1026.674194000001
 31
0.0
  0
LINE
  5
571
330
1F
100
AcDbEntity
  8
化粧台
  6
CONTINUOUS
 62
     6
100
AcDbLine
 10
862.9999999999993
 20
1238.174194000001
 30
0.0
 11
477.0000000000002
 21
1238.174194000002
 31
0.0
  0
LINE
  5
572
330
1F
100
AcDbEntity
  8
化粧台
  6
EXLTYPE1
 62
     2
100
AcDbLine
 10
849.9999999999994
 20
1147.674175000001
 30
0.0
 11
489.9999999999993
 21
1147.674175000001
 31
0.0
  0
LINE
  5
573
330
1F
100
AcDbEntity
  8
化粧台
  6
EXLTYPE1
 62
     6
100
AcDbLine
 10
849.9999999999994
 20
1202.674175000001
 30
0.0
 11
489.9999999999993
 21
1202.674175000001
 31
0.0
  0
LINE
  5
574
330
1F
100
AcDbEntity
  8
化粧台
  6
CONTINUOUS
 62
     2
100
AcDbLine
 10
474.9999999999993
 20
1242.674194000001
 30
0.0
 11
864.9999999999994
 21
1242.674194000001
 31
0.0
  0
LINE
  5
575
330
1F
100
AcDbEntity
  8
化粧台
  6
EXLTYPE1
 62
     6
100
AcDbLine
 10
849.4999999999703
 20
1125.67419399997
 30
0.0
 11
849.4999999999703
 21
1160.674194000101
 31
0.0
  0
LINE
  5
576
330
1F
100
AcDbEntity
  8
化粧台
  6
EXLTYPE1
 62
     6
100
AcDbLine
 10
834.6328497432589
 20
1150.232380639336
 30
0.0
 11
847.9999999999684
 21
1160.674194000028
 31
0.0
  0
LINE
  5
577
330
1F
100
AcDbEntity
  8
化粧台
  6
EXLTYPE1
 62
     6
100
AcDbLine
 10
834.6328497433336
 20
1136.116007360673
 30
0.0
 11
847.9999999999684
 21
1125.674194000028
 31
0.0
  0
LINE
  5
578
330
1F
100
AcDbEntity
  8
化粧台
  6
EXLTYPE1
 62
     6
100
AcDbLine
 10
847.9999999999684
 20
1125.674194000028
 30
0.0
 11
849.4999999999703
 21
1125.674194000028
 31
0.0
  0
LINE
  5
579
330
1F
100
AcDbEntity
  8
化粧台
  6
EXLTYPE1
 62
     6
100
AcDbLine
 10
847.9999999999684
 20
1160.674194000028
 30
0.0
 11
849.4999999999703
 21
1160.674194000028
 31
0.0
  0
CIRCLE
  5
57A
330
1F
100
AcDbEntity
  8
化粧台
  6
EXLTYPE1
 62
     6
100
AcDbCircle
 10
838.9999999999711
 20
1143.174194000028
 30
0.0
 40
6.5
  0
POLYLINE
  5
57B
330
1F
100
AcDbEntity
  8
化粧台
  6
EXLTYPE1
 62
     6
100
AcDb2dPolyline
 66
     1
 10
0.0
 20
0.0
 30
0.0
 70
   128
  0
VERTEX
  5
57C
330
57B
100
AcDbEntity
  8
化粧台
  6
EXLTYPE1
 62
     6
100
AcDbVertex
100
AcDb2dVertex
 10
846.6841332339112
 20
1146.070666259271
 30
0.0
  0
VERTEX
  5
57D
330
57B
100
AcDbEntity
  8
化粧台
  6
EXLTYPE1
 62
     6
100
AcDbVertex
100
AcDb2dVertex
 10
843.4629279706189
 20
1148.136700526265
 30
0.0
  0
VERTEX
  5
57E
330
57B
100
AcDbEntity
  8
化粧台
  6
EXLTYPE1
 62
     6
100
AcDbVertex
100
AcDb2dVertex
 10
839.7242850449932
 20
1147.319871281357
 30
0.0
  0
VERTEX
  5
57F
330
57B
100
AcDbEntity
  8
化粧台
  6
EXLTYPE1
 62
     6
100
AcDbVertex
100
AcDb2dVertex
 10
837.658250777996
 20
1144.098666018064
 30
0.0
  0
VERTEX
  5
580
330
57B
100
AcDbEntity
  8
化粧台
  6
EXLTYPE1
 62
     6
100
AcDbVertex
100
AcDb2dVertex
 10
838.4750800229069
 20
1140.360023092438
 30
0.0
  0
VERTEX
  5
581
330
57B
100
AcDbEntity
  8
化粧台
  6
EXLTYPE1
 62
     6
100
AcDbVertex
100
AcDb2dVertex
 10
841.6962852862
 20
1138.29398882544
 30
0.0
  0
VERTEX
  5
582
330
57B
100
AcDbEntity
  8
化粧台
  6
EXLTYPE1
 62
     6
100
AcDbVertex
100
AcDb2dVertex
 10
845.4349282118267
 20
1139.110818070352
 30
0.0
  0
VERTEX
  5
583
330
57B
100
AcDbEntity
  8
化粧台
  6
EXLTYPE1
 62
     6
100
AcDbVertex
100
AcDb2dVertex
 10
847.500962478822
 20
1142.332023333645
 30
0.0
  0
VERTEX
  5
584
330
57B
100
AcDbEntity
  8
化粧台
  6
EXLTYPE1
 62
     6
100
AcDbVertex
100
AcDb2dVertex
 10
846.6841332339112
 20
1146.070666259271
 30
0.0
  0
SEQEND
  5
585
330
57B
100
AcDbEntity
  8
化粧台
  6
EXLTYPE1
 62
     6
  0
ARC
  5
586
330
1F
100
AcDbEntity
  8
化粧台
  6
EXLTYPE1
 62
     6
100
AcDbCircle
 10
838.9999999999711
 20
1143.174194000028
 30
0.0
 40
5.0
100
AcDbArc
 50
315.5727233886342
 51
44.42729187009697
  0
LINE
  5
587
330
1F
100
AcDbEntity
  8
化粧台
  6
EXLTYPE1
 62
     6
100
AcDbLine
 10
842.5708007812211
 20
1146.674194000028
 30
0.0
 11
841.4999999999711
 21
1146.674194000028
 31
0.0
  0
LINE
  5
588
330
1F
100
AcDbEntity
  8
化粧台
  6
EXLTYPE1
 62
     6
100
AcDbLine
 10
842.5708007812211
 20
1139.674194000028
 30
0.0
 11
841.4999999999711
 21
1139.674194000028
 31
0.0
  0
LINE
  5
589
330
1F
100
AcDbEntity
  8
化粧台
  6
EXLTYPE1
 62
     6
100
AcDbLine
 10
841.4999999999711
 20
1146.674194000028
 30
0.0
 11
841.4999999999711
 21
1139.674194000028
 31
0.0
  0
LINE
  5
58A
330
1F
100
AcDbEntity
  8
化粧台
  6
EXLTYPE1
 62
     6
100
AcDbLine
 10
849.4999999999703
 20
1135.674194000028
 30
0.0
 11
838.9999999999711
 21
1135.674194000028
 31
0.0
  0
LINE
  5
58B
330
1F
100
AcDbEntity
  8
化粧台
  6
EXLTYPE1
 62
     6
100
AcDbLine
 10
849.4999999999703
 20
1150.674194000028
 30
0.0
 11
849.4999999999703
 21
1135.674194000028
 31
0.0
  0
LINE
  5
58C
330
1F
100
AcDbEntity
  8
化粧台
  6
EXLTYPE1
 62
     6
100
AcDbLine
 10
849.4999999999703
 20
1150.674194000028
 30
0.0
 11
838.9999999999711
 21
1150.674194000028
 31
0.0
  0
CIRCLE
  5
58D
330
1F
100
AcDbEntity
  8
化粧台
  6
EXLTYPE1
 62
     6
100
AcDbCircle
 10
838.9999999999711
 20
1143.174194000028
 30
0.0
 40
7.5
  0
LINE
  5
58E
330
1F
100
AcDbEntity
  8
化粧台
  6
EXLTYPE3
 62
     6
100
AcDbLine
 10
781.4999999999711
 20
1143.174194000029
 30
0.0
 11
866.4999999999711
 21
1143.174194000028
 31
0.0
  0
LINE
  5
58F
330
1F
100
AcDbEntity
  8
化粧台
  6
CONTINUOUS
 62
     2
100
AcDbLine
 10
864.9999999999984
 20
1242.674194000001
 30
0.0
 11
864.9999999999984
 21
1262.674194000001
 31
0.0
  0
LINE
  5
590
330
1F
100
AcDbEntity
  8
化粧台
  6
CONTINUOUS
 62
     2
100
AcDbLine
 10
474.9999999999993
 20
1262.674194000001
 30
0.0
 11
864.9999999999994
 21
1262.674194000001
 31
0.0
  0
LINE
  5
591
330
1F
100
AcDbEntity
  8
化粧台
  6
CONTINUOUS
 62
     2
100
AcDbLine
 10
475.4999999999993
 20
762.6741940000019
 30
0.0
 11
475.4999999999993
 21
1242.674194000001
 31
0.0
  0
LINE
  5
592
330
1F
100
AcDbEntity
  8
化粧台
  6
EXLTYPE1
 62
     2
100
AcDbLine
 10
489.9999999999993
 20
762.6741940000009
 30
0.0
 11
489.9999999999993
 21
1242.674194000001
 31
0.0
  0
LINE
  5
593
330
1F
100
AcDbEntity
  8
化粧台
  6
CONTINUOUS
 62
     2
100
AcDbLine
 10
477.4999999999993
 20
762.6741940000009
 30
0.0
 11
477.4999999999993
 21
692.6741940000005
 31
0.0
  0
LINE
  5
594
330
1F
100
AcDbEntity
  8
化粧台
  6
CONTINUOUS
 62
     6
100
AcDbLine
 10
477.0000000000002
 20
765.1741940000009
 30
0.0
 11
477.0000000000002
 21
1238.174194000001
 31
0.0
  0
LINE
  5
595
330
1F
100
AcDbEntity
  8
化粧台
  6
CONTINUOUS
 62
     2
100
AcDbLine
 10
477.5000000000011
 20
692.6741940000009
 30
0.0
 11
862.4999999999966
 21
692.6741940000005
 31
0.0
  0
LINE
  5
596
330
1F
100
AcDbEntity
  8
化粧台
  6
CONTINUOUS
 62
     2
100
AcDbLine
 10
864.5000000000294
 20
762.674194
 30
0.0
 11
475.5000000000002
 21
762.6741940000019
 31
0.0
  0
LINE
  5
597
330
1F
100
AcDbEntity
  8
化粧台
  6
CONTINUOUS
 62
     6
100
AcDbLine
 10
862.9999999999993
 20
765.1741940000009
 30
0.0
 11
476.9999999999975
 21
765.1741940000019
 31
0.0
  0
LINE
  5
598
330
1F
100
AcDbEntity
  8
化粧台
  6
CONTINUOUS
 62
     2
100
AcDbLine
 10
862.4999999999966
 20
762.674194
 30
0.0
 11
862.4999999999966
 21
692.674194
 31
0.0
  0
LINE
  5
599
330
1F
100
AcDbEntity
  8
化粧台
  6
EXLTYPE1
 62
     2
100
AcDbLine
 10
850.0000000000011
 20
762.674194
 30
0.0
 11
850.0000000000011
 21
1242.674194000001
 31
0.0
  0
LINE
  5
59A
330
1F
100
AcDbEntity
  8
化粧台
  6
CONTINUOUS
 62
     6
100
AcDbLine
 10
862.9999999999993
 20
765.1741940000009
 30
0.0
 11
862.9999999999984
 21
1238.174194000002
 31
0.0
  0
LINE
  5
59B
330
1F
100
AcDbEntity
  8
化粧台
  6
CONTINUOUS
 62
     2
100
AcDbLine
 10
864.4999999999976
 20
762.6741940000014
 30
0.0
 11
864.4999999999976
 21
1242.674194000001
 31
0.0
  0
LINE
  5
59C
330
1F
100
AcDbEntity
  8
化粧台
  6
EXLTYPE1
 62
     2
100
AcDbLine
 10
850.0000000000011
 20
780.6741940000006
 30
0.0
 11
489.9999999999993
 21
780.674194000001
 31
0.0
  0
LINE
  5
59D
330
1F
100
AcDbEntity
  8
化粧台
  6
CONTINUOUS
 62
     6
100
AcDbLine
 10
543.9999999999997
 20
2254.999999999991
 30
0.0
 11
575.9999999999997
 21
2254.999999999991
 31
0.0
  0
LINE
  5
59E
330
1F
100
AcDbEntity
  8
化粧台
  6
CONTINUOUS
 62
     6
100
AcDbLine
 10
543.9999999999997
 20
2204.999999999991
 30
0.0
 11
543.9999999999997
 21
2254.999999999991
 31
0.0
  0
LINE
  5
59F
330
1F
100
AcDbEntity
  8
化粧台
  6
CONTINUOUS
 62
     6
100
AcDbLine
 10
575.9999999999997
 20
2204.999999999991
 30
0.0
 11
575.9999999999997
 21
2254.999999999991
 31
0.0
  0
LINE
  5
5A0
330
1F
100
AcDbEntity
  8
化粧台
  6
EXLTYPE3
 62
     6
100
AcDbLine
 10
559.9999999999999
 20
2194.8
 30
0.0
 11
559.9999999999999
 21
2274.0
 31
0.0
  0
ARC
  5
5A1
330
1F
100
AcDbEntity
  8
化粧台
  6
CONTINUOUS
 62
     7
100
AcDbCircle
 10
833.0000000000007
 20
2189.999999999999
 30
0.0
 40
5.0
100
AcDbArc
 50
0.0
 51
90.00000000000001
  0
LINE
  5
5A2
330
1F
100
AcDbEntity
  8
化粧台
  6
CONTINUOUS
 62
     2
100
AcDbLine
 10
864.9999999999947
 20
1920.0
 30
0.0
 11
864.9999999999947
 21
2205.0
 31
0.0
  0
LINE
  5
5A3
330
1F
100
AcDbEntity
  8
化粧台
  6
CONTINUOUS
 62
     2
100
AcDbLine
 10
864.9999999999947
 20
1920.000000000001
 30
0.0
 11
474.9999999999947
 21
1920.000000000001
 31
0.0
  0
LINE
  5
5A4
330
1F
100
AcDbEntity
  8
化粧台
  6
CONTINUOUS
 62
     2
100
AcDbLine
 10
474.9999999999947
 20
1920.0
 30
0.0
 11
474.9999999999947
 21
2205.0
 31
0.0
  0
DIMENSION
  5
5A5
330
1F
100
AcDbEntity
  8
化粧台
  6
CONTINUOUS
 62
     3
100
AcDbDimension
  2
*D20
 10
864.99999999999
 20
1799.0
 30
0.0
 11
669.9999999999901
 21
1822.499999940395
 31
0.0
 70
   160
  3
ISO-25
100
AcDbAlignedDimension
 13
474.9999999999901
 23
1920.0
 33
0.0
 14
864.99999999999
 24
1920.0
 34
0.0
100
AcDbRotatedDimension
1001
ACAD
1000
DSTYLE
1002
{
1070
   270
1070
     2
1070
     6
1000
EX_NORM
1070
     7
1000
EX_NORM
1070
    41
1040
30.0
1070
    42
1040
6.99999988079071
1070
    44
1040
10.0
1070
    73
1070
     0
1070
    74
1070
     0
1070
    75
1070
     0
1070
    76
1070
     0
1070
    77
1070
     1
1070
    78
1070
     0
1070
   140
1040
40.0
1070
   147
1040
0.0
1070
   173
1070
     1
1070
   176
1070
     3
1070
   177
1070
     3
1070
   178
1070
     2
1070
   271
1070
     0
1070
   277
1070
     2
1070
   279
1070
     2
1070
   280
1070
     0
1070
   287
1070
     5
1070
   340
1005
260
1002
}
  0
DIMENSION
  5
5B2
330
1F
100
AcDbEntity
  8
化粧台
  6
CONTINUOUS
 62
     3
100
AcDbDimension
  2
*D21
 10
997.0000000000035
 20
1920.0
 30
0.0
 11
973.5000000596083
 21
2062.5
 31
0.0
 70
   160
  3
ISO-25
100
AcDbAlignedDimension
 13
864.99999999999
 23
2205.0
 33
0.0
 14
864.99999999999
 24
1920.0
 34
0.0
 50
90.0
100
AcDbRotatedDimension
1001
ACAD
1000
DSTYLE
1002
{
1070
   270
1070
     2
1070
     6
1000
EX_NORM
1070
     7
1000
EX_NORM
1070
    41
1040
30.0
1070
    42
1040
6.99999988079071
1070
    44
1040
10.0
1070
    73
1070
     0
1070
    74
1070
     0
1070
    75
1070
     1
1070
    76
1070
     0
1070
    77
1070
     1
1070
    78
1070
     0
1070
   140
1040
40.0
1070
   147
1040
0.0
1070
   173
1070
     1
1070
   176
1070
     3
1070
   177
1070
     3
1070
   178
1070
     2
1070
   271
1070
     0
1070
   277
1070
     2
1070
   279
1070
     2
1070
   280
1070
     0
1070
   287
1070
     5
1070
   340
1005
260
1002
}
  0
LINE
  5
5BE
330
1F
100
AcDbEntity
  8
化粧台
  6
CONTINUOUS
 62
     6
100
AcDbLine
 10
1577.57489
 20
762.6741940000009
 30
0.0
 11
1562.57489
 21
692.6741940000009
 31
0.0
  0
LINE
  5
5BF
330
1F
100
AcDbEntity
  8
化粧台
  6
CONTINUOUS
 62
     6
100
AcDbLine
 10
1577.57489
 20
692.6741940000009
 30
0.0
 11
1562.57489
 21
762.6741940000009
 31
0.0
  0
LINE
  5
5C0
330
1F
100
AcDbEntity
  8
化粧台
  6
CONTINUOUS
 62
     6
100
AcDbLine
 10
1327.574889999999
 20
765.1742130000256
 30
0.0
 11
1309.274889999998
 21
765.1742130000256
 31
0.0
  0
LINE
  5
5C1
330
1F
100
AcDbEntity
  8
化粧台
  6
CONTINUOUS
 62
     2
100
AcDbLine
 10
1577.57488999997
 20
762.674194
 30
0.0
 11
1330.57489
 21
762.674194
 31
0.0
  0
LINE
  5
5C2
330
1F
100
AcDbEntity
  8
化粧台
  6
CONTINUOUS
 62
     2
100
AcDbLine
 10
1330.574889999999
 20
762.6741940000009
 30
0.0
 11
1330.574889999999
 21
1242.674194
 31
0.0
  0
LINE
  5
5C3
330
1F
100
AcDbEntity
  8
化粧台
  6
CONTINUOUS
 62
     6
100
AcDbLine
 10
1327.574889999999
 20
765.174213000021
 30
0.0
 11
1327.574889999999
 21
1235.674174999981
 31
0.0
  0
LINE
  5
5C4
330
1F
100
AcDbEntity
  8
化粧台
  6
CONTINUOUS
 62
     6
100
AcDbLine
 10
1309.274889999999
 20
765.174213000021
 30
0.0
 11
1309.274889999999
 21
1235.674174999981
 31
0.0
  0
LINE
  5
5C5
330
1F
100
AcDbEntity
  8
化粧台
  6
CONTINUOUS
 62
     6
100
AcDbLine
 10
1327.574889999999
 20
1235.674174999981
 30
0.0
 11
1309.274889999999
 21
1235.674174999981
 31
0.0
  0
LINE
  5
5C6
330
1F
100
AcDbEntity
  8
化粧台
  6
CONTINUOUS
 62
     2
100
AcDbLine
 10
1562.57488999997
 20
692.6741940000009
 30
0.0
 11
1562.57488999997
 21
762.6741940000009
 31
0.0
  0
LINE
  5
5C7
330
1F
100
AcDbEntity
  8
化粧台
  6
CONTINUOUS
 62
     2
100
AcDbLine
 10
1577.57488999997
 20
692.6741940000009
 30
0.0
 11
1562.57488999997
 21
692.6741940000009
 31
0.0
  0
LINE
  5
5C8
330
1F
100
AcDbEntity
  8
化粧台
  6
CONTINUOUS
 62
     6
100
AcDbLine
 10
1558.07489572201
 20
729.6741939999607
 30
0.0
 11
1590.57489572201
 21
727.6741939999588
 31
0.0
  0
LINE
  5
5C9
330
1F
100
AcDbEntity
  8
化粧台
  6
CONTINUOUS
 62
     6
100
AcDbLine
 10
1590.57489572201
 20
727.6741939999588
 30
0.0
 11
1558.07489572201
 21
725.6741939999606
 31
0.0
  0
LINE
  5
5CA
330
1F
100
AcDbEntity
  8
化粧台
  6
EXLTYPE3
 62
     6
100
AcDbLine
 10
1545.17489
 20
727.6741940000007
 30
0.0
 11
1601.17489
 21
727.6741940000007
 31
0.0
  0
LINE
  5
5CB
330
1F
100
AcDbEntity
  8
化粧台
  6
CONTINUOUS
 62
     6
100
AcDbLine
 10
1558.07489572201
 20
729.6741939999607
 30
0.0
 11
1590.57489572201
 21
727.6741939999588
 31
0.0
  0
LINE
  5
5CC
330
1F
100
AcDbEntity
  8
化粧台
  6
CONTINUOUS
 62
     6
100
AcDbLine
 10
1590.57489572201
 20
727.6741939999588
 30
0.0
 11
1558.07489572201
 21
725.6741939999606
 31
0.0
  0
LINE
  5
5CD
330
1F
100
AcDbEntity
  8
化粧台
  6
EXLTYPE3
 62
     6
100
AcDbLine
 10
1545.17489
 20
727.6741940000007
 30
0.0
 11
1601.17489
 21
727.6741940000007
 31
0.0
  0
LINE
  5
5CE
330
1F
100
AcDbEntity
  8
化粧台
  6
CONTINUOUS
 62
     3
100
AcDbLine
 10
1477.57489
 20
521.3055459691093
 30
0.0
 11
1477.57489
 21
488.0
 31
0.0
  0
LINE
  5
5CF
330
1F
100
AcDbEntity
  8
化粧台
  6
CONTINUOUS
 62
     3
100
AcDbLine
 10
1577.57489
 20
555.6741751192093
 30
0.0
 11
1577.57489
 21
488.0
 31
0.0
  0
LINE
  5
5D0
330
1F
100
AcDbEntity
  8
化粧台
  6
CONTINUOUS
 62
     3
100
AcDbLine
 10
1447.57489
 20
498.0
 30
0.0
 11
1829.074886185303
 21
498.0
 31
0.0
  0
LINE
  5
5D1
330
1F
100
AcDbEntity
  8
化粧台
  6
CONTINUOUS
 62
     3
100
AcDbLine
 10
1447.57489
 20
493.0
 30
0.0
 11
1477.57489
 21
498.0
 31
0.0
  0
LINE
  5
5D2
330
1F
100
AcDbEntity
  8
化粧台
  6
CONTINUOUS
 62
     3
100
AcDbLine
 10
1477.57489
 20
498.0
 30
0.0
 11
1447.57489
 21
503.0000000000001
 31
0.0
  0
LINE
  5
5D3
330
1F
100
AcDbEntity
  8
化粧台
  6
CONTINUOUS
 62
     3
100
AcDbLine
 10
1607.57489
 20
503.0
 30
0.0
 11
1577.57489
 21
498.0
 31
0.0
  0
LINE
  5
5D4
330
1F
100
AcDbEntity
  8
化粧台
  6
CONTINUOUS
 62
     3
100
AcDbLine
 10
1577.57489
 20
498.0
 30
0.0
 11
1607.57489
 21
493.0
 31
0.0
  0
TEXT
  5
5D5
330
1F
100
AcDbEntity
  8
化粧台
  6
CONTINUOUS
 62
     2
100
AcDbText
 10
1607.57489
 20
501.4999999403954
 30
0.0
 40
40.0
  1
１００
 41
1.029411764705882
  7
EXCADSTD
 72
     5
 11
1707.57489
 21
501.4999999403954
 31
0.0
100
AcDbText
  0
TEXT
  5
5D6
330
1F
100
AcDbEntity
  8
化粧台
  6
CONTINUOUS
 62
     2
100
AcDbText
 10
1702.57489
 20
501.4999999403954
 30
0.0
 40
32.0
  1
（床給水）
 41
0.9655172413793105
  7
EXCADSTD
 72
     5
 11
1830.57489
 21
501.4999999403954
 31
0.0
100
AcDbText
  0
LINE
  5
5D7
330
1F
100
AcDbEntity
  8
化粧台
  6
CONTINUOUS
 62
     3
100
AcDbLine
 10
560.0
 20
2280.999999880791
 30
0.0
 11
560.0
 21
2321.0
 31
0.0
  0
LINE
  5
5D8
330
1F
100
AcDbEntity
  8
化粧台
  6
CONTINUOUS
 62
     3
100
AcDbLine
 10
670.0
 20
2258.099999880791
 30
0.0
 11
670.0
 21
2321.0
 31
0.0
  0
LINE
  5
5D9
330
1F
100
AcDbEntity
  8
化粧台
  6
CONTINUOUS
 62
     3
100
AcDbLine
 10
308.5000038146974
 20
2311.0
 30
0.0
 11
700.0000000000001
 21
2311.0
 31
0.0
  0
LINE
  5
5DA
330
1F
100
AcDbEntity
  8
化粧台
  6
CONTINUOUS
 62
     3
100
AcDbLine
 10
530.0
 20
2306.0
 30
0.0
 11
560.0
 21
2311.0
 31
0.0
  0
LINE
  5
5DB
330
1F
100
AcDbEntity
  8
化粧台
  6
CONTINUOUS
 62
     3
100
AcDbLine
 10
560.0
 20
2311.0
 30
0.0
 11
530.0
 21
2316.0
 31
0.0
  0
LINE
  5
5DC
330
1F
100
AcDbEntity
  8
化粧台
  6
CONTINUOUS
 62
     3
100
AcDbLine
 10
700.0
 20
2316.0
 30
0.0
 11
670.0
 21
2311.0
 31
0.0
  0
LINE
  5
5DD
330
1F
100
AcDbEntity
  8
化粧台
  6
CONTINUOUS
 62
     3
100
AcDbLine
 10
670.0
 20
2311.0
 30
0.0
 11
700.0
 21
2306.0
 31
0.0
  0
TEXT
  5
5DE
330
1F
100
AcDbEntity
  8
化粧台
  6
CONTINUOUS
 62
     2
100
AcDbText
 10
312.0000000000002
 20
2314.499999940395
 30
0.0
 40
40.0
  1
１１０
 41
1.029411764705882
  7
EXCADSTD
 72
     5
 11
412.0000000000002
 21
2314.499999940395
 31
0.0
100
AcDbText
  0
TEXT
  5
5DF
330
1F
100
AcDbEntity
  8
化粧台
  6
CONTINUOUS
 62
     2
100
AcDbText
 10
407.0000000000002
 20
2314.499999940395
 30
0.0
 40
32.0
  1
（壁排水）
 41
0.9655172413793109
  7
EXCADSTD
 72
     5
 11
535.0000000000002
 21
2314.499999940395
 31
0.0
100
AcDbText
  0
LINE
  5
5E0
330
1F
100
AcDbEntity
  8
化粧台
  6
CONTINUOUS
 62
     6
100
AcDbLine
 10
680.5000000000197
 20
2204.999999999991
 30
0.0
 11
680.5000000000197
 21
2212.999999999991
 31
0.0
  0
LINE
  5
5E1
330
1F
100
AcDbEntity
  8
化粧台
  6
CONTINUOUS
 62
     6
100
AcDbLine
 10
659.5000000000124
 20
2204.999999999991
 30
0.0
 11
659.5000000000124
 21
2212.999999999991
 31
0.0
  0
LINE
  5
5E2
330
1F
100
AcDbEntity
  8
化粧台
  6
CONTINUOUS
 62
     6
100
AcDbLine
 10
680.5000000000033
 20
2212.999999999991
 30
0.0
 11
659.5000000000124
 21
2212.999999999991
 31
0.0
  0
LINE
  5
5E3
330
1F
100
AcDbEntity
  8
化粧台
  6
CONTINUOUS
 62
     3
100
AcDbLine
 10
1750.0
 20
562.6741749999982
 30
0.0
 11
1750.0
 21
1007.674175
 31
0.0
  0
LINE
  5
5E4
330
1F
100
AcDbEntity
  8
化粧台
  6
CONTINUOUS
 62
     3
100
AcDbLine
 10
1745.0
 20
592.6741749999982
 30
0.0
 11
1750.0
 21
562.6741749999982
 31
0.0
  0
LINE
  5
5E5
330
1F
100
AcDbEntity
  8
化粧台
  6
CONTINUOUS
 62
     3
100
AcDbLine
 10
1750.0
 20
562.6741749999982
 30
0.0
 11
1755.0
 21
592.6741749999982
 31
0.0
  0
LINE
  5
5E6
330
1F
100
AcDbEntity
  8
化粧台
  6
CONTINUOUS
 62
     3
100
AcDbLine
 10
1755.0
 20
977.6741750000002
 30
0.0
 11
1750.0
 21
1007.674175
 31
0.0
  0
LINE
  5
5E7
330
1F
100
AcDbEntity
  8
化粧台
  6
CONTINUOUS
 62
     3
100
AcDbLine
 10
1750.0
 20
1007.674175
 30
0.0
 11
1745.0
 21
977.6741750000002
 31
0.0
  0
LINE
  5
5E8
330
1F
100
AcDbEntity
  8
化粧台
  6
CONTINUOUS
 62
     3
100
AcDbLine
 10
1691.999999880791
 20
1007.674175
 30
0.0
 11
1760.0
 21
1007.674175
 31
0.0
  0
TEXT
  5
5E9
330
1F
100
AcDbEntity
  8
化粧台
  6
CONTINUOUS
 62
     2
100
AcDbText
 10
1746.500000059605
 20
656.674175
 30
0.0
 40
40.0
  1
４４５
 50
90.0
 41
1.029411764705882
  7
EXCADSTD
 72
     5
 11
1746.500000059605
 21
756.674175
 31
0.0
100
AcDbText
  0
TEXT
  5
5EA
330
1F
100
AcDbEntity
  8
化粧台
  6
CONTINUOUS
 62
     2
100
AcDbText
 10
1746.500000059605
 20
751.674175
 30
0.0
 40
32.0
  1
（壁排水）
 50
90.0
 41
0.9655172413793105
  7
EXCADSTD
 72
     5
 11
1746.500000059605
 21
879.674175
 31
0.0
100
AcDbText
  0
LINE
  5
5EB
330
1F
100
AcDbEntity
  8
化粧台
  6
CONTINUOUS
 62
     6
100
AcDbLine
 10
659.4999999999984
 20
554.6741749998996
 30
0.0
 11
680.4999999999874
 21
554.6741749998996
 31
0.0
  0
LINE
  5
5EC
330
1F
100
AcDbEntity
  8
化粧台
  6
CONTINUOUS
 62
     6
100
AcDbLine
 10
680.4999999999874
 20
562.6741749998996
 30
0.0
 11
680.4999999999874
 21
554.6741749998996
 31
0.0
  0
LINE
  5
5ED
330
1F
100
AcDbEntity
  8
化粧台
  6
CONTINUOUS
 62
     6
100
AcDbLine
 10
659.4999999999802
 20
562.6741749998996
 30
0.0
 11
659.4999999999802
 21
554.6741749998996
 31
0.0
  0
LINE
  5
5EE
330
1F
100
AcDbEntity
  8
化粧台
  6
EXLTYPE4
 62
     6
100
AcDbLine
 10
659.4999999999984
 20
562.6741749998996
 30
0.0
 11
659.4999999999987
 21
664.8999999999999
 31
0.0
  0
LINE
  5
5EF
330
1F
100
AcDbEntity
  8
化粧台
  6
EXLTYPE4
 62
     6
100
AcDbLine
 10
680.4999999999984
 20
562.6741749998996
 30
0.0
 11
680.4999999999987
 21
664.8999999999999
 31
0.0
  0
TEXT
  5
5F0
330
1F
100
AcDbEntity
  8
化粧台
  6
CONTINUOUS
 62
     2
100
AcDbText
 10
852.624999999995
 20
2316.0
 30
0.0
 40
40.0
  1
壁給水
 41
1.132352941176471
  7
EXCADSTD
 72
     5
 11
962.624999999995
 21
2316.0
 31
0.0
100
AcDbText
  0
LEADER
  5
5F1
330
1F
100
AcDbEntity
  8
化粧台
  6
CONTINUOUS
 62
     3
100
AcDbLeader
  3
ISO-25
 76
     3
 10
680.5000000000207
 20
2213.0
 30
0.0
 10
849.0000000000005
 20
2311.0
 30
0.0
 10
956.0000000000002
 20
2311.0
 30
0.0
1001
ACAD
1000
DSTYLE
1002
{
1070
     5
1000
EX_NORM
1070
    41
1040
30.0
1070
   341
1005
4A
1002
}
  0
LINE
  5
5F2
330
1F
100
AcDbEntity
  8
化粧台
  6
EXLTYPE3
 62
     6
100
AcDbLine
 10
819.9999999999967
 20
722.674194
 30
0.0
 11
819.9999999999967
 21
732.674194
 31
0.0
  0
LINE
  5
5F3
330
1F
100
AcDbEntity
  8
化粧台
  6
EXLTYPE3
 62
     6
100
AcDbLine
 10
815.0
 20
727.6741940000002
 30
0.0
 11
825.0
 21
727.6741940000002
 31
0.0
  0
LINE
  5
5F4
330
1F
100
AcDbEntity
  8
化粧台
  6
EXLTYPE3
 62
     6
100
AcDbLine
 10
519.9999999999992
 20
722.674194
 30
0.0
 11
519.9999999999992
 21
732.674194
 31
0.0
  0
LINE
  5
5F5
330
1F
100
AcDbEntity
  8
化粧台
  6
EXLTYPE3
 62
     6
100
AcDbLine
 10
515.0
 20
727.6741940000005
 30
0.0
 11
525.0
 21
727.6741940000005
 31
0.0
  0
TEXT
  5
5F6
330
1F
100
AcDbEntity
  8
化粧台
  6
CONTINUOUS
 62
     2
100
AcDbText
 10
561.0
 20
820.4999999403954
 30
0.0
 40
40.0
  1
３００
 41
1.029411764705882
  7
EXCADSTD
 72
     5
 11
661.0
 21
820.4999999403954
 31
0.0
100
AcDbText
  0
TEXT
  5
5F7
330
1F
100
AcDbEntity
  8
化粧台
  6
CONTINUOUS
 62
     2
100
AcDbText
 10
656.0
 20
820.4999999403954
 30
0.0
 40
32.0
  1
（壁固定）
 41
0.9655172413793105
  7
EXCADSTD
 72
     5
 11
784.0
 21
820.4999999403954
 31
0.0
100
AcDbText
  0
LINE
  5
5F8
330
1F
100
AcDbEntity
  8
化粧台
  6
CONTINUOUS
 62
     3
100
AcDbLine
 10
520.0
 20
729.6741938807908
 30
0.0
 11
520.0
 21
827.0
 31
0.0
  0
LINE
  5
5F9
330
1F
100
AcDbEntity
  8
化粧台
  6
CONTINUOUS
 62
     3
100
AcDbLine
 10
820.0
 20
729.6741938807908
 30
0.0
 11
820.0
 21
827.0
 31
0.0
  0
LINE
  5
5FA
330
1F
100
AcDbEntity
  8
化粧台
  6
CONTINUOUS
 62
     3
100
AcDbLine
 10
520.0
 20
817.0
 30
0.0
 11
820.0
 21
817.0
 31
0.0
  0
LINE
  5
5FB
330
1F
100
AcDbEntity
  8
化粧台
  6
CONTINUOUS
 62
     3
100
AcDbLine
 10
550.0
 20
822.0
 30
0.0
 11
520.0
 21
817.0
 31
0.0
  0
LINE
  5
5FC
330
1F
100
AcDbEntity
  8
化粧台
  6
CONTINUOUS
 62
     3
100
AcDbLine
 10
520.0
 20
817.0
 30
0.0
 11
550.0
 21
812.0
 31
0.0
  0
LINE
  5
5FD
330
1F
100
AcDbEntity
  8
化粧台
  6
CONTINUOUS
 62
     3
100
AcDbLine
 10
790.0
 20
812.0
 30
0.0
 11
820.0
 21
817.0
 31
0.0
  0
LINE
  5
5FE
330
1F
100
AcDbEntity
  8
化粧台
  6
CONTINUOUS
 62
     3
100
AcDbLine
 10
820.0
 20
817.0
 30
0.0
 11
790.0
 21
822.0
 31
0.0
  0
LINE
  5
5FF
330
1F
100
AcDbEntity
  8
化粧台
  6
EXLTYPE3
 62
     6
100
AcDbLine
 10
669.9999999999981
 20
800.1
 30
0.0
 11
669.9999999999981
 21
550.8000000000001
 31
0.0
  0
LINE
  5
600
330
1F
100
AcDbEntity
  8
化粧台
  6
EXLTYPE3
 62
     6
100
AcDbLine
 10
669.9999999999981
 20
1474.0
 30
0.0
 11
669.9999999999981
 21
873.2
 31
0.0
  0
LINE
  5
601
330
1F
100
AcDbEntity
  8
化粧台
  6
EXLTYPE3
 62
     6
100
AcDbLine
 10
770.9692125047746
 20
827.5214762020767
 30
0.0
 11
863.0000000000002
 21
765.174194
 31
0.0
  0
LINE
  5
602
330
1F
100
AcDbEntity
  8
化粧台
  6
EXLTYPE3
 62
     6
100
AcDbLine
 10
477.0000000000002
 20
1026.674194000001
 30
0.0
 11
723.3713074705773
 21
859.7672072032234
 31
0.0
  0
LEADER
  5
603
330
1F
100
AcDbEntity
  8
化粧台
  6
CONTINUOUS
 62
     3
100
AcDbLeader
  3
ISO-25
 76
     3
 10
1610.0
 20
1023.674175
 30
0.0
 10
1640.8897976696
 20
1077.1768739992
 30
0.0
 10
1734.9
 20
1077.1768739992
 30
0.0
1001
ACAD
1000
DSTYLE
1002
{
1070
     5
1000
EX_NORM
1070
    41
1040
30.0
1070
   341
1005
4A
1002
}
  0
TEXT
  5
604
330
1F
100
AcDbEntity
  8
化粧台
  6
CONTINUOUS
 62
     2
100
AcDbText
 10
1639.7448988348
 20
1082.1768739992
 30
0.0
 40
40.0
  1
φ３２
 41
1.029411764705882
  7
EXCADSTD
 72
     5
 11
1739.7448988348
 21
1082.1768739992
 31
0.0
100
AcDbText
  0
TEXT
  5
605
330
1F
100
AcDbEntity
  8
化粧台
  6
CONTINUOUS
 62
     2
100
AcDbText
 10
1289.10941147894
 20
500.6094114193356
 30
0.0
 40
40.0
  1
Ｒ１/２
 41
0.8342465753424658
  7
EXCADSTD
 72
     5
 11
1405.10941147894
 21
500.6094114193356
 31
0.0
100
AcDbText
  0
LEADER
  5
606
330
1F
100
AcDbEntity
  8
化粧台
  6
CONTINUOUS
 62
     3
100
AcDbLeader
  3
ISO-25
 76
     3
 10
1465.19988580526
 20
560.87500419474
 30
0.0
 10
1412.10941147894
 20
497.1094114789402
 30
0.0
 10
1274.33755919474
 20
497.1094114789402
 30
0.0
1001
ACAD
1000
DSTYLE
1002
{
1070
     5
1000
EX_NORM
1070
    41
1040
30.0
1070
   341
1005
4A
1002
}
  0
LINE
  5
607
330
1F
100
AcDbEntity
  8
化粧台
  6
CONTINUOUS
 62
     6
100
AcDbLine
 10
829.5000000000368
 20
2237.50000572201
 30
0.0
 11
831.500000000035
 21
2205.00000572201
 31
0.0
  0
LINE
  5
608
330
1F
100
AcDbEntity
  8
化粧台
  6
CONTINUOUS
 62
     6
100
AcDbLine
 10
827.500000000035
 20
2205.00000572201
 30
0.0
 11
829.5000000000368
 21
2237.50000572201
 31
0.0
  0
LINE
  5
609
330
1F
100
AcDbEntity
  8
化粧台
  6
EXLTYPE3
 62
     6
100
AcDbLine
 10
829.499999999995
 20
2192.1
 30
0.0
 11
829.499999999995
 21
2248.1
 31
0.0
  0
LINE
  5
60A
330
1F
100
AcDbEntity
  8
化粧台
  6
CONTINUOUS
 62
     6
100
AcDbLine
 10
510.4999999999638
 20
2237.50000572201
 30
0.0
 11
508.4999999999657
 21
2205.00000572201
 31
0.0
  0
LINE
  5
60B
330
1F
100
AcDbEntity
  8
化粧台
  6
CONTINUOUS
 62
     6
100
AcDbLine
 10
512.4999999999657
 20
2205.00000572201
 30
0.0
 11
510.4999999999638
 21
2237.50000572201
 31
0.0
  0
LINE
  5
60C
330
1F
100
AcDbEntity
  8
化粧台
  6
EXLTYPE3
 62
     6
100
AcDbLine
 10
510.5000000000057
 20
2192.1
 30
0.0
 11
510.5000000000057
 21
2248.1
 31
0.0
  0
LINE
  5
60D
330
1F
100
AcDbEntity
  8
化粧台
  6
CONTINUOUS
 62
     3
100
AcDbLine
 10
829.5
 20
2255.099999880791
 30
0.0
 11
829.5
 21
2387.0
 31
0.0
  0
LINE
  5
60E
330
1F
100
AcDbEntity
  8
化粧台
  6
CONTINUOUS
 62
     3
100
AcDbLine
 10
510.5000000000102
 20
2377.0
 30
0.0
 11
829.5000000000001
 21
2377.0
 31
0.0
  0
LINE
  5
60F
330
1F
100
AcDbEntity
  8
化粧台
  6
CONTINUOUS
 62
     3
100
AcDbLine
 10
540.50000000001
 20
2382.0
 30
0.0
 11
510.5000000000101
 21
2377.0
 31
0.0
  0
LINE
  5
610
330
1F
100
AcDbEntity
  8
化粧台
  6
CONTINUOUS
 62
     3
100
AcDbLine
 10
510.5000000000101
 20
2377.0
 30
0.0
 11
540.50000000001
 21
2372.0
 31
0.0
  0
LINE
  5
611
330
1F
100
AcDbEntity
  8
化粧台
  6
CONTINUOUS
 62
     3
100
AcDbLine
 10
799.5
 20
2372.0
 30
0.0
 11
829.5
 21
2377.0
 31
0.0
  0
LINE
  5
612
330
1F
100
AcDbEntity
  8
化粧台
  6
CONTINUOUS
 62
     3
100
AcDbLine
 10
829.5
 20
2377.0
 30
0.0
 11
799.5
 21
2382.0
 31
0.0
  0
TEXT
  5
613
330
1F
100
AcDbEntity
  8
化粧台
  6
CONTINUOUS
 62
     2
100
AcDbText
 10
561.0000000000052
 20
2380.499999940395
 30
0.0
 40
40.0
  1
３１９
 41
1.029411764705882
  7
EXCADSTD
 72
     5
 11
661.0000000000052
 21
2380.499999940395
 31
0.0
100
AcDbText
  0
TEXT
  5
614
330
1F
100
AcDbEntity
  8
化粧台
  6
CONTINUOUS
 62
     2
100
AcDbText
 10
656.0000000000052
 20
2380.499999940395
 30
0.0
 40
32.0
  1
（壁固定）
 41
0.9655172413793105
  7
EXCADSTD
 72
     5
 11
784.0000000000052
 21
2380.499999940395
 31
0.0
100
AcDbText
  0
LINE
  5
615
330
1F
100
AcDbEntity
  8
化粧台
  6
CONTINUOUS
 62
     3
100
AcDbLine
 10
510.5000000000102
 20
2354.2
 30
0.0
 11
510.5000000000102
 21
2387.0
 31
0.0
  0
LINE
  5
616
330
1F
100
AcDbEntity
  8
化粧台
  6
CONTINUOUS
 62
     3
100
AcDbLine
 10
510.5000000000102
 20
2255.099999880791
 30
0.0
 11
510.5000000000102
 21
2295.3
 31
0.0
  0
LINE
  5
617
330
1F
100
AcDbEntity
  8
化粧台
  6
CONTINUOUS
 62
     3
100
AcDbLine
 10
831.9999998807807
 20
727.674194
 30
0.0
 11
941.9999999999902
 21
727.6741939999999
 31
0.0
  0
LINE
  5
618
330
1F
100
AcDbEntity
  8
化粧台
  6
CONTINUOUS
 62
     3
100
AcDbLine
 10
889.9999998807808
 20
562.674175
 30
0.0
 11
941.99999999999
 21
562.674175
 31
0.0
  0
LINE
  5
619
330
1F
100
AcDbEntity
  8
化粧台
  6
CONTINUOUS
 62
     3
100
AcDbLine
 10
931.9999999999905
 20
979.1741901853027
 30
0.0
 11
931.99999999999
 21
532.674175
 31
0.0
  0
LINE
  5
61A
330
1F
100
AcDbEntity
  8
化粧台
  6
CONTINUOUS
 62
     3
100
AcDbLine
 10
926.9999999999902
 20
757.6741939999999
 30
0.0
 11
931.9999999999902
 21
727.6741939999999
 31
0.0
  0
LINE
  5
61B
330
1F
100
AcDbEntity
  8
化粧台
  6
CONTINUOUS
 62
     3
100
AcDbLine
 10
931.9999999999902
 20
727.6741939999999
 30
0.0
 11
936.9999999999903
 21
757.6741939999999
 31
0.0
  0
LINE
  5
61C
330
1F
100
AcDbEntity
  8
化粧台
  6
CONTINUOUS
 62
     3
100
AcDbLine
 10
936.99999999999
 20
532.674175
 30
0.0
 11
931.99999999999
 21
562.674175
 31
0.0
  0
LINE
  5
61D
330
1F
100
AcDbEntity
  8
化粧台
  6
CONTINUOUS
 62
     3
100
AcDbLine
 10
931.99999999999
 20
562.674175
 30
0.0
 11
926.9999999999899
 21
532.674175
 31
0.0
  0
TEXT
  5
61E
330
1F
100
AcDbEntity
  8
化粧台
  6
CONTINUOUS
 62
     2
100
AcDbText
 10
928.5000000595951
 20
757.6741939999995
 30
0.0
 40
40.0
  1
１６５
 50
89.99999999999994
 41
1.029411764705882
  7
EXCADSTD
 72
     5
 11
928.5000000595952
 21
857.6741939999995
 31
0.0
100
AcDbText
  0
TEXT
  5
61F
330
1F
100
AcDbEntity
  8
化粧台
  6
CONTINUOUS
 62
     2
100
AcDbText
 10
928.5000000595952
 20
852.6741939999995
 30
0.0
 40
32.0
  1
（壁固定）
 50
89.99999999999994
 41
0.9655172413793105
  7
EXCADSTD
 72
     5
 11
928.5000000595953
 21
980.6741939999995
 31
0.0
100
AcDbText
  0
LINE
  5
620
330
1F
100
AcDbEntity
  8
化粧台
  6
CONTINUOUS
 62
     6
100
AcDbLine
 10
1558.07489572201
 20
1183.674193999961
 30
0.0
 11
1590.57489572201
 21
1181.674193999959
 31
0.0
  0
LINE
  5
621
330
1F
100
AcDbEntity
  8
化粧台
  6
CONTINUOUS
 62
     6
100
AcDbLine
 10
1590.57489572201
 20
1181.674193999959
 30
0.0
 11
1558.07489572201
 21
1179.674193999961
 31
0.0
  0
LINE
  5
622
330
1F
100
AcDbEntity
  8
化粧台
  6
EXLTYPE3
 62
     6
100
AcDbLine
 10
1545.17489
 20
1181.674194000001
 30
0.0
 11
1601.17489
 21
1181.674194000001
 31
0.0
  0
LINE
  5
623
330
1F
100
AcDbEntity
  8
化粧台
  6
EXLTYPE3
 62
     6
100
AcDbLine
 10
1545.17489
 20
867.6741940000003
 30
0.0
 11
1601.17489
 21
867.6741940000003
 31
0.0
  0
LINE
  5
624
330
1F
100
AcDbEntity
  8
化粧台
  6
CONTINUOUS
 62
     6
100
AcDbLine
 10
1558.07489572201
 20
869.6741939999603
 30
0.0
 11
1590.57489572201
 21
867.6741939999584
 31
0.0
  0
LINE
  5
625
330
1F
100
AcDbEntity
  8
化粧台
  6
CONTINUOUS
 62
     6
100
AcDbLine
 10
1590.57489572201
 20
867.6741939999584
 30
0.0
 11
1558.07489572201
 21
865.6741939999603
 31
0.0
  0
TEXT
  5
626
330
1F
100
AcDbEntity
  8
化粧台
  6
CONTINUOUS
 62
     2
100
AcDbText
 10
1808.500000059605
 20
606.1741844999995
 30
0.0
 40
40.0
  1
３０５
 50
90.0
 41
1.029411764705882
  7
EXCADSTD
 72
     5
 11
1808.500000059605
 21
706.1741844999995
 31
0.0
100
AcDbText
  0
TEXT
  5
627
330
1F
100
AcDbEntity
  8
化粧台
  6
CONTINUOUS
 62
     2
100
AcDbText
 10
1808.500000059605
 20
701.1741844999995
 30
0.0
 40
32.0
  1
（壁固定）
 50
90.0
 41
0.9655172413793105
  7
EXCADSTD
 72
     5
 11
1808.500000059605
 21
829.1741844999995
 31
0.0
100
AcDbText
  0
LINE
  5
628
330
1F
100
AcDbEntity
  8
化粧台
  6
CONTINUOUS
 62
     3
100
AcDbLine
 10
1584.574889880791
 20
562.6741749999999
 30
0.0
 11
1822.0
 21
562.674174999999
 31
0.0
  0
LINE
  5
629
330
1F
100
AcDbEntity
  8
化粧台
  6
CONTINUOUS
 62
     3
100
AcDbLine
 10
1812.0
 20
562.6741749999991
 30
0.0
 11
1812.0
 21
867.674194
 31
0.0
  0
LINE
  5
62A
330
1F
100
AcDbEntity
  8
化粧台
  6
CONTINUOUS
 62
     3
100
AcDbLine
 10
1807.0
 20
592.6741749999991
 30
0.0
 11
1812.0
 21
562.6741749999991
 31
0.0
  0
LINE
  5
62B
330
1F
100
AcDbEntity
  8
化粧台
  6
CONTINUOUS
 62
     3
100
AcDbLine
 10
1812.0
 20
562.6741749999991
 30
0.0
 11
1817.0
 21
592.6741749999991
 31
0.0
  0
CIRCLE
  5
62C
330
1F
100
AcDbEntity
  8
化粧台
  6
CONTINUOUS
 62
     3
100
AcDbCircle
 10
1812.0
 20
867.674194
 30
0.0
 40
5.0
  0
CIRCLE
  5
62D
330
1F
100
AcDbEntity
  8
化粧台
  6
CONTINUOUS
 62
     3
100
AcDbCircle
 10
1812.0
 20
867.674194
 30
0.0
 40
2.5
  0
TEXT
  5
62E
330
1F
100
AcDbEntity
  8
化粧台
  6
CONTINUOUS
 62
     2
100
AcDbText
 10
1808.500000059604
 20
915.6741939999995
 30
0.0
 40
40.0
  1
３１４
 50
90.00000000000014
 41
1.029411764705882
  7
EXCADSTD
 72
     5
 11
1808.500000059604
 21
1015.674193999999
 31
0.0
100
AcDbText
  0
TEXT
  5
62F
330
1F
100
AcDbEntity
  8
化粧台
  6
CONTINUOUS
 62
     2
100
AcDbText
 10
1808.500000059604
 20
1010.674193999999
 30
0.0
 40
32.0
  1
（壁固定）
 50
90.0000000000001
 41
0.9655172413793105
  7
EXCADSTD
 72
     5
 11
1808.500000059604
 21
1138.674193999999
 31
0.0
100
AcDbText
  0
LINE
  5
630
330
1F
100
AcDbEntity
  8
化粧台
  6
CONTINUOUS
 62
     3
100
AcDbLine
 10
1608.174889880791
 20
867.6741940000002
 30
0.0
 11
1822.0
 21
867.6741939999991
 31
0.0
  0
LINE
  5
631
330
1F
100
AcDbEntity
  8
化粧台
  6
CONTINUOUS
 62
     3
100
AcDbLine
 10
1608.174889880791
 20
1181.674194
 30
0.0
 11
1822.0
 21
1181.674194
 31
0.0
  0
LINE
  5
632
330
1F
100
AcDbEntity
  8
化粧台
  6
CONTINUOUS
 62
     3
100
AcDbLine
 10
1812.0
 20
867.6741939999991
 30
0.0
 11
1812.0
 21
1181.674194
 31
0.0
  0
LINE
  5
633
330
1F
100
AcDbEntity
  8
化粧台
  6
CONTINUOUS
 62
     3
100
AcDbLine
 10
1817.0
 20
1151.674194
 30
0.0
 11
1812.0
 21
1181.674194
 31
0.0
  0
LINE
  5
634
330
1F
100
AcDbEntity
  8
化粧台
  6
CONTINUOUS
 62
     3
100
AcDbLine
 10
1812.0
 20
1181.674194
 30
0.0
 11
1807.0
 21
1151.674194
 31
0.0
  0
ENDSEC
  0
SECTION
  2
OBJECTS
  0
DICTIONARY
  5
C
330
0
100
AcDbDictionary
  3
ACAD_GROUP
350
D
  3
ACAD_LAYOUT
350
1A
  3
ACAD_MATERIAL
350
3B
  3
ACAD_MLEADERSTYLE
350
657
  3
ACAD_MLINESTYLE
350
17
  3
ACAD_PLOTSETTINGS
350
19
  3
ACAD_VISUALSTYLE
350
2A
  3
ACDBHEADERROUNDTRIPXREC
350
635
  3
ACDBVARIABLEDICTIONARY
350
655
  0
DICTIONARY
  5
D
102
{ACAD_REACTORS
330
C
102
}
330
C
100
AcDbDictionary
  0
DICTIONARY
  5
1A
102
{ACAD_REACTORS
330
C
102
}
330
C
100
AcDbDictionary
  0
DICTIONARY
  5
3B
102
{ACAD_REACTORS
330
C
102
}
330
C
100
AcDbDictionary
  3
BYBLOCK
350
3D
  3
BYLAYER
350
3C
  3
GLOBAL
350
3E
  0
DICTIONARY
  5
657
102
{ACAD_REACTORS
330
C
102
}
330
C
100
AcDbDictionary
  0
DICTIONARY
  5
17
102
{ACAD_REACTORS
330
C
102
}
330
C
100
AcDbDictionary
  3
STANDARD
350
18
  0
DICTIONARY
  5
19
102
{ACAD_REACTORS
330
C
102
}
330
C
100
AcDbDictionary
  0
DICTIONARY
  5
2A
102
{ACAD_REACTORS
330
C
102
}
330
C
100
AcDbDictionary
  3
2DWIREFRAME
350
2F
  3
3D_HIDDEN
350
31
  3
3DWIREFRAME
350
30
  3
BASIC
350
32
  3
BRIGHTEN
350
36
  3
COLORCHANGE
350
3A
  3
CONCEPTUAL
350
34
  3
DIM
350
35
  3
FACEPATTERN
350
39
  3
FLAT
350
2B
  3
FLATWITHEDGES
350
2C
  3
GOURAUD
350
2D
  3
GOURAUDWITHEDGES
350
2E
  3
LINEPATTERN
350
38
  3
REALISTIC
350
33
  3
THICKEN
350
37
  0
DICTIONARY
  5
635
102
{ACAD_REACTORS
330
C
102
}
330
C
100
AcDbDictionary
  3
CEPSNTYPE
350
63E
  3
DIMSTYLEDATA
350
654
  3
FINGERPRINTGUID
350
63F
  3
HYPERLINKBASE
350
638
  3
INSUNITS
350
63D
  3
LAYOUTDICT
350
63A
  3
LWETCUNION
350
63C
  3
PLOTSETDICT
350
63B
  3
PSVPSCALE
350
641
  3
PUCSBASE
350
644
  3
PUCSORGBACK
350
64A
  3
PUCSORGBOTTOM
350
646
  3
PUCSORGFRONT
350
649
  3
PUCSORGLEFT
350
647
  3
PUCSORGRIGHT
350
648
  3
PUCSORGTOP
350
645
  3
PUCSORTHOREF
350
642
  3
PUCSORTHOVIEW
350
643
  3
STYLESHEET
350
639
  3
TSTACKALIGN
350
636
  3
TSTACKSIZE
350
637
  3
UCSBASE
350
64D
  3
UCSORGBACK
350
653
  3
UCSORGBOTTOM
350
64F
  3
UCSORGFRONT
350
652
  3
UCSORGLEFT
350
650
  3
UCSORGRIGHT
350
651
  3
UCSORGTOP
350
64E
  3
UCSORTHOREF
350
64B
  3
UCSORTHOVIEW
350
64C
  3
VERSIONGUID
350
640
  0
DICTIONARY
  5
655
102
{ACAD_REACTORS
330
C
102
}
330
C
100
AcDbDictionary
  3
DIMASSOC
350
65A
  3
HIDETEXT
350
65B
  3
PSOLHEIGHT
350
659
  3
PSOLWIDTH
350
658
  0
MATERIAL
  5
3D
102
{ACAD_REACTORS
330
3B
102
}
102
{ACAD_XDICTIONARY
360
65E
102
}
330
3B
100
AcDbMaterial
  1
ByBlock
  0
MATERIAL
  5
3C
102
{ACAD_REACTORS
330
3B
102
}
102
{ACAD_XDICTIONARY
360
65C
102
}
330
3B
100
AcDbMaterial
  1
ByLayer
  0
MATERIAL
  5
3E
102
{ACAD_REACTORS
330
3B
102
}
102
{ACAD_XDICTIONARY
360
660
102
}
330
3B
100
AcDbMaterial
  1
Global
  0
MLINESTYLE
  5
18
102
{ACAD_REACTORS
330
17
102
}
330
17
100
AcDbMlineStyle
  2
Standard
 70
     0
  3

 62
   256
 51
90.0
 52
90.0
 71
     2
 49
0.5
 62
   256
  6
BYLAYER
 49
-0.5
 62
   256
  6
BYLAYER
  0
ACAD_PROXY_OBJECT
  5
2F
102
{ACAD_REACTORS
330
2A
102
}
330
2A
100
AcDbProxyObject
 90
      499
 91
      501
 93
      436
310
42CC9915DA5C99599C985B595049028333333333333E3BF0000000000000FB0107901411070040501600405405064090741402480A0340
1001
ACAD
1000
AcDbSavedByObjectVersion
1070
     0
  0
ACAD_PROXY_OBJECT
  5
31
102
{ACAD_REACTORS
330
2A
102
}
330
2A
100
AcDbProxyObject
 90
      499
 91
      501
 93
      500
310
424CD108121A5919195B90640502408333333333333E3BF0000000000000FB01079024090700405020000000000001110200405405064090740C02480A0340
1001
ACAD
1000
AcDbSavedByObjectVersion
1070
     0
  0
ACAD_PROXY_OBJECT
  5
30
102
{ACAD_REACTORS
330
2A
102
}
330
2A
100
AcDbProxyObject
 90
      499
 91
      501
 93
      436
310
42CCD915DA5C99599C985B595059028333333333333E3BF0000000000000FB0107901411070040501600405405064090741402480A0340
1001
ACAD
1000
AcDbSavedByObjectVersion
1070
     0
  0
ACAD_PROXY_OBJECT
  5
32
102
{ACAD_REACTORS
330
2A
102
}
330
2A
100
AcDbProxyObject
 90
      499
 91
      501
 93
      388
310
4150985CDA58D07406404333333333333E3BF0000000000000FB0107A41107004050150841D405064090741402480A0350
1001
ACAD
1000
AcDbSavedByObjectVersion
1070
     0
  0
ACAD_PROXY_OBJECT
  5
36
102
{ACAD_REACTORS
330
2A
102
}
330
2A
100
AcDbProxyObject
 90
      499
 91
      501
 93
      428
310
42109C9A59DA1D195B90C409028333333333333E3BF0000000000000FB010790141107004050150841D405064090741402480A029950
1001
ACAD
1000
AcDbSavedByObjectVersion
1070
     0
  0
ACAD_PROXY_OBJECT
  5
3A
102
{ACAD_REACTORS
330
2A
102
}
330
2A
100
AcDbProxyObject
 90
      499
 91
      501
 93
      452
310
42D0DBDB1BDC90DA185B99D95104090240C333333333333E3BF0000000000000FB0108901411070040501508421405064090741402480A0350
1001
ACAD
1000
AcDbSavedByObjectVersion
1070
     0
  0
ACAD_PROXY_OBJECT
  5
34
102
{ACAD_REACTORS
330
2A
102
}
330
2A
100
AcDbProxyObject
 90
      499
 91
      501
 93
      500
310
4290DBDB98D95C1D1D585B10940D028333333333333E3BF0000000000000FB0107902409070040501000000000000111010841D405064090740C02480A0340
1001
ACAD
1000
AcDbSavedByObjectVersion
1070
     0
  0
ACAD_PROXY_OBJECT
  5
35
102
{ACAD_REACTORS
330
2A
102
}
330
2A
100
AcDbProxyObject
 90
      499
 91
      501
 93
      412
310
40D11A5B50B409028333333333333E3BF0000000000000FB010790141107004050150841D405064090741402480A02677FFFFFD0
1001
ACAD
1000
AcDbSavedByObjectVersion
1070
     0
  0
ACAD_PROXY_OBJECT
  5
39
102
{ACAD_REACTORS
330
2A
102
}
330
2A
100
AcDbProxyObject
 90
      499
 91
      501
 93
      444
310
42D19858D95C185D1D195C9B90F409028333333333333E3BF0000000000000FB010790141107004050150841D405064090741402480A0350
1001
ACAD
1000
AcDbSavedByObjectVersion
1070
     0
  0
ACAD_PROXY_OBJECT
  5
2B
102
{ACAD_REACTORS
330
2A
102
}
330
2A
100
AcDbProxyObject
 90
      499
 91
      501
 93
      388
310
41119B185D240901404333333333333E3BF0000000000000F9010740A41107004050150841D405064090741402480A1B50
1001
ACAD
1000
AcDbSavedByObjectVersion
1070
     0
  0
ACAD_PROXY_OBJECT
  5
2C
102
{ACAD_REACTORS
330
2A
102
}
330
2A
100
AcDbProxyObject
 90
      499
 91
      501
 93
      476
310
43519B185D15DA5D1A115919D95CD0140901404333333333333E3BF0000000000000F9010740901411070040501600405405064090741402480A1B50
1001
ACAD
1000
AcDbSavedByObjectVersion
1070
     0
  0
ACAD_PROXY_OBJECT
  5
2D
102
{ACAD_REACTORS
330
2A
102
}
330
2A
100
AcDbProxyObject
 90
      499
 91
      501
 93
      412
310
41D1DBDD5C985D5910240902404333333333333E3BF0000000000000F9010740A411070040501641D405064090741402480A1B50
1001
ACAD
1000
AcDbSavedByObjectVersion
1070
     0
  0
ACAD_PROXY_OBJECT
  5
2E
102
{ACAD_REACTORS
330
2A
102
}
330
2A
100
AcDbProxyObject
 90
      499
 91
      501
 93
      500
310
4411DBDD5C985D5915DA5D1A115919D95CD0340902404333333333333E3BF0000000000000F9010740901411070040501600405405064090741402480A1B50
1001
ACAD
1000
AcDbSavedByObjectVersion
1070
     0
  0
ACAD_PROXY_OBJECT
  5
38
102
{ACAD_REACTORS
330
2A
102
}
330
2A
100
AcDbProxyObject
 90
      499
 91
      501
 93
      444
310
42D31A5B995C185D1D195C9B90E409028333333333333E3BF0000000000000FB010790141107004050750841D405064090741402483A0350
1001
ACAD
1000
AcDbSavedByObjectVersion
1070
     0
  0
ACAD_PROXY_OBJECT
  5
33
102
{ACAD_REACTORS
330
2A
102
}
330
2A
100
AcDbProxyObject
 90
      499
 91
      501
 93
      420
310
425499585B1A5CDD1A58D08409028333333333333E3BF0000000000000FB01079019070040501508421405064090741402480A1B40
1001
ACAD
1000
AcDbSavedByObjectVersion
1070
     0
  0
ACAD_PROXY_OBJECT
  5
37
102
{ACAD_REACTORS
330
2A
102
}
330
2A
100
AcDbProxyObject
 90
      499
 91
      501
 93
      412
310
41D51A1A58DAD95B90D409028333333333333E3BF0000000000000FB010790141107004050150C41D405064090741402480A0350
1001
ACAD
1000
AcDbSavedByObjectVersion
1070
     0
  0
XRECORD
  5
63E
102
{ACAD_REACTORS
330
635
102
}
330
635
100
AcDbXrecord
 90
        0
  0
XRECORD
  5
654
102
{ACAD_REACTORS
330
635
102
}
330
635
100
AcDbXrecord
1000
DSTYLE
1002
{
1070
   340
340
11
1002
}
  0
XRECORD
  5
63F
102
{ACAD_REACTORS
330
635
102
}
330
635
100
AcDbXrecord
  1
{C2CD5788-0750-4796-855E-BDD91AACF9EA}
  0
XRECORD
  5
638
102
{ACAD_REACTORS
330
635
102
}
330
635
100
AcDbXrecord
  1

  0
XRECORD
  5
63D
102
{ACAD_REACTORS
330
635
102
}
330
635
100
AcDbXrecord
 90
        4
  0
XRECORD
  5
63A
102
{ACAD_REACTORS
330
635
102
}
330
635
100
AcDbXrecord
340
1A
  0
XRECORD
  5
63C
102
{ACAD_REACTORS
330
635
102
}
330
635
100
AcDbXrecord
 90
    10781
  0
XRECORD
  5
63B
102
{ACAD_REACTORS
330
635
102
}
330
635
100
AcDbXrecord
340
19
  0
XRECORD
  5
641
102
{ACAD_REACTORS
330
635
102
}
330
635
100
AcDbXrecord
 40
0.0
  0
XRECORD
  5
644
102
{ACAD_REACTORS
330
635
102
}
330
635
100
AcDbXrecord
340
0
  0
XRECORD
  5
64A
102
{ACAD_REACTORS
330
635
102
}
330
635
100
AcDbXrecord
 10
0.0
 20
0.0
 30
0.0
  0
XRECORD
  5
646
102
{ACAD_REACTORS
330
635
102
}
330
635
100
AcDbXrecord
 10
0.0
 20
0.0
 30
0.0
  0
XRECORD
  5
649
102
{ACAD_REACTORS
330
635
102
}
330
635
100
AcDbXrecord
 10
0.0
 20
0.0
 30
0.0
  0
XRECORD
  5
647
102
{ACAD_REACTORS
330
635
102
}
330
635
100
AcDbXrecord
 10
0.0
 20
0.0
 30
0.0
  0
XRECORD
  5
648
102
{ACAD_REACTORS
330
635
102
}
330
635
100
AcDbXrecord
 10
0.0
 20
0.0
 30
0.0
  0
XRECORD
  5
645
102
{ACAD_REACTORS
330
635
102
}
330
635
100
AcDbXrecord
 10
0.0
 20
0.0
 30
0.0
  0
XRECORD
  5
642
102
{ACAD_REACTORS
330
635
102
}
330
635
100
AcDbXrecord
340
0
  0
XRECORD
  5
643
102
{ACAD_REACTORS
330
635
102
}
330
635
100
AcDbXrecord
 70
     0
  0
XRECORD
  5
639
102
{ACAD_REACTORS
330
635
102
}
330
635
100
AcDbXrecord
  1

  0
XRECORD
  5
636
102
{ACAD_REACTORS
330
635
102
}
330
635
100
AcDbXrecord
 90
        1
  0
XRECORD
  5
637
102
{ACAD_REACTORS
330
635
102
}
330
635
100
AcDbXrecord
 90
       70
  0
XRECORD
  5
64D
102
{ACAD_REACTORS
330
635
102
}
330
635
100
AcDbXrecord
340
0
  0
XRECORD
  5
653
102
{ACAD_REACTORS
330
635
102
}
330
635
100
AcDbXrecord
 10
0.0
 20
0.0
 30
0.0
  0
XRECORD
  5
64F
102
{ACAD_REACTORS
330
635
102
}
330
635
100
AcDbXrecord
 10
0.0
 20
0.0
 30
0.0
  0
XRECORD
  5
652
102
{ACAD_REACTORS
330
635
102
}
330
635
100
AcDbXrecord
 10
0.0
 20
0.0
 30
0.0
  0
XRECORD
  5
650
102
{ACAD_REACTORS
330
635
102
}
330
635
100
AcDbXrecord
 10
0.0
 20
0.0
 30
0.0
  0
XRECORD
  5
651
102
{ACAD_REACTORS
330
635
102
}
330
635
100
AcDbXrecord
 10
0.0
 20
0.0
 30
0.0
  0
XRECORD
  5
64E
102
{ACAD_REACTORS
330
635
102
}
330
635
100
AcDbXrecord
 10
0.0
 20
0.0
 30
0.0
  0
XRECORD
  5
64B
102
{ACAD_REACTORS
330
635
102
}
330
635
100
AcDbXrecord
340
0
  0
XRECORD
  5
64C
102
{ACAD_REACTORS
330
635
102
}
330
635
100
AcDbXrecord
 70
     0
  0
XRECORD
  5
640
102
{ACAD_REACTORS
330
635
102
}
330
635
100
AcDbXrecord
  1
{FAEB1C32-E019-11D5-929B-00C0DF256EC4}
  0
DICTIONARYVAR
  5
65A
102
{ACAD_REACTORS
330
655
102
}
330
655
100
DictionaryVariables
280
     0
  1
2
  0
DICTIONARYVAR
  5
65B
102
{ACAD_REACTORS
330
655
102
}
330
655
100
DictionaryVariables
280
     0
  1
1
  0
DICTIONARYVAR
  5
659
102
{ACAD_REACTORS
330
655
102
}
330
655
100
DictionaryVariables
280
     0
  1
80.000000
  0
DICTIONARYVAR
  5
658
102
{ACAD_REACTORS
330
655
102
}
330
655
100
DictionaryVariables
280
     0
  1
5.000000
  0
DICTIONARY
  5
65E
330
3D
100
AcDbDictionary
280
     1
  3
ACAD_XREC_ROUNDTRIP
360
65F
  0
DICTIONARY
  5
65C
330
3C
100
AcDbDictionary
280
     1
  3
ACAD_XREC_ROUNDTRIP
360
65D
  0
DICTIONARY
  5
660
330
3E
100
AcDbDictionary
280
     1
  3
ACAD_XREC_ROUNDTRIP
360
661
  0
XRECORD
  5
65F
102
{ACAD_REACTORS
330
65E
102
}
330
65E
100
AcDbXrecord
102
MATERIAL
148
0.0
149
0.0
149
0.0
 93
        0
 94
      127
282
     0
 72
     1
 77
     1
171
     1
175
     1
179
     1
273
     0
  0
XRECORD
  5
65D
102
{ACAD_REACTORS
330
65C
102
}
330
65C
100
AcDbXrecord
102
MATERIAL
148
0.0
149
0.0
149
0.0
 93
        0
 94
      127
282
     0
 72
     1
 77
     1
171
     1
175
     1
179
     1
273
     0
  0
XRECORD
  5
661
102
{ACAD_REACTORS
330
660
102
}
330
660
100
AcDbXrecord
102
MATERIAL
148
0.0
149
0.0
149
0.0
 93
        0
 94
      127
282
     0
 72
     1
 77
     1
171
     1
175
     1
179
     1
273
     0
  0
ENDSEC
  0
EOF
